  0
SECTION
  2
HEADER
  9
$ACADVER
  1
AC1024
  9
$DWGCODEPAGE
  3
ANSI_1252
  9
$EXTMAX
 10
297.0
 20
210.0
 30
0.0
  9
$EXTMIN
 10
0.0
 20
0.0
 30
0.0
  9
$LIMMIN
 10
0.0
 20
0.0
  9
$LIMMAX
 10
297.0
 20
210.0
  9
$VIEWCTR
 10
148.5
 20
105.0
  9
$VIEWSIZE
 40
210.0
  9
$CLAYER
  8
0
  9
$LTSCALE
 40
16.335
  9
$CELTYPE
  6
BYLAYER
  9
$DIMSCALE
 40
1.0
  9
$DIMASZ
 40
3.0
  9
$DIMEXO
 40
0.5
  9
$DIMDLI
 40
11.286
  9
$DIMEXE
 40
1.5
  9
$DIMCEN
 40
2.673
  9
$DIMLFAC
 40
1.0
  9
$DIMBLK
  1
_FILLED
  9
$DIMALT
 70
0
  9
$DIMALTF
 40
0.0393700787
  9
$DIMTXT
 40
3.0
  9
$DIMTOL
 70
1
  9
$DIMLIM
 70
0
  9
$DIMTFAC
 40
1.0
  9
$DIMTP
 40
0.01
  9
$DIMTM
 40
0.01
  9
$DIMGAP
 40
0.625
  9
$DIMDSEP
 70
44
  9
$AUNITS
 70
0
  9
$PDMODE
 70
3
  9
$PDSIZE
 40
3.0
  9
$HANDSEED
  5
481
  9
$TILEMODE
 70
1
  9
$MEASUREMENT
 70
1
  9
$INSUNITS
 70
4
  0
ENDSEC
  0
SECTION
  2
CLASSES
  0
CLASS
  1
ACDBDICTIONARYWDFLT
  2
AcDbDictionaryWithDefault
  3
AutoCAD 2000
 90
0
 91
1
280
0
281
0
  0
CLASS
  1
ACDBPLACEHOLDER
  2
AcDbPlaceHolder
  3
AutoCAD 2000
 90
0
 91
1
280
0
281
0
  0
CLASS
  1
LAYOUT
  2
AcDbLayout
  3
AutoCAD 2000
 90
0
 91
0
280
0
281
0
  0
ENDSEC
  0
SECTION
  2
TABLES
  0
TABLE
  2
VPORT
  5
8
100
AcDbSymbolTable
 70
2
  0
VPORT
  5
1F4
100
AcDbSymbolTableRecord
100
AcDbViewportTableRecord
  2
*ACTIVE
 70
0
 10
0.0
 20
0.0
 11
1.0
 21
1.0
 12
148.5
 22
105.0
 13
0.0
 23
0.0
 14
1.0
 24
1.0
 15
0.0
 25
0.0
 16
0.0
 26
0.0
 36
1.0
 17
0.0
 27
0.0
 37
0.0
 40
210.0
 41
1.4142857143
 42
50.0
 43
0.0
 44
0.0
 50
0.0
 51
0.0
 71
0
 72
100
 73
1
 74
1
 75
0
 76
0
 77
0
 78
0
  0
ENDTAB
  0
TABLE
  2
LTYPE
  5
5
100
AcDbSymbolTable
 70
6
  0
LTYPE
  5
14
100
AcDbSymbolTableRecord
100
AcDbLinetypeTableRecord
  2
BYBLOCK
 70
0
  3

 72
65
 73
0
 40
0.0
  0
LTYPE
  5
15
100
AcDbSymbolTableRecord
100
AcDbLinetypeTableRecord
  2
BYLAYER
 70
0
  3

 72
65
 73
0
 40
0.0
  0
LTYPE
  5
16
100
AcDbSymbolTableRecord
100
AcDbLinetypeTableRecord
  2
CONTINUOUS
 70
64
  3
Solid line
 72
65
 73
0
 40
0.0
  0
LTYPE
  5
1F5
100
AcDbSymbolTableRecord
100
AcDbLinetypeTableRecord
  2
CENTER
 70
64
  3
____ _ ____ _ ____ _ ____ _ ____ _ ____ _ ____
 72
65
 73
4
 40
0.6
 49
0.375
 74
0
 49
-0.075
 74
0
 49
0.075
 74
0
 49
-0.075
 74
0
  0
LTYPE
  5
1F6
100
AcDbSymbolTableRecord
100
AcDbLinetypeTableRecord
  2
HIDDEN
 70
64
  3
- - - - - - - - - - - - - - - - - - - -
 72
65
 73
2
 40
0.2
 49
0.1
 74
0
 49
-0.1
 74
0
  0
LTYPE
  5
1F7
100
AcDbSymbolTableRecord
100
AcDbLinetypeTableRecord
  2
PHANTOM
 70
64
  3
_____ _ _ _____ _ _ _____ _ _ _____
 72
65
 73
6
 40
0.8
 49
0.45
 74
0
 49
-0.05
 74
0
 49
0.1
 74
0
 49
-0.05
 74
0
 49
0.1
 74
0
 49
-0.05
 74
0
  0
LTYPE
  5
1F8
100
AcDbSymbolTableRecord
100
AcDbLinetypeTableRecord
  2
DOT
 70
64
  3
. . . . . . . . . . . . . . . . . . . .
 72
65
 73
2
 40
0.2
 49
0.1
 74
0
 49
-0.1
 74
0
  0
LTYPE
  5
1F9
100
AcDbSymbolTableRecord
100
AcDbLinetypeTableRecord
  2
DASHED
 70
64
  3
- - - - - - - - - - - - - - - - - - - -
 72
65
 73
2
 40
0.2
 49
0.1
 74
0
 49
-0.1
 74
0
  0
ENDTAB
  0
TABLE
  2
LAYER
  5
2
100
AcDbSymbolTable
 70
36
  0
LAYER
  5
10
100
AcDbSymbolTableRecord
100
AcDbLayerTableRecord
  2
0
 70
0
 62
7
  6
CONTINUOUS
370
-3
390
F
  0
LAYER
  5
1FA
100
AcDbSymbolTableRecord
100
AcDbLayerTableRecord
  2
DEFAULT_1
 70
0
 62
7
  6
CENTER
370
-3
390
F
  0
LAYER
  5
1FB
100
AcDbSymbolTableRecord
100
AcDbLayerTableRecord
  2
DEFAULT_2
 70
0
 62
7
  6
HIDDEN
370
-3
390
F
  0
LAYER
  5
1FC
100
AcDbSymbolTableRecord
100
AcDbLayerTableRecord
  2
DEFAULT_3
 70
0
 62
7
  6
PHANTOM
370
-3
390
F
  0
LAYER
  5
1FD
100
AcDbSymbolTableRecord
100
AcDbLayerTableRecord
  2
ASSI
 70
0
 62
7
  6
CONTINUOUS
370
-3
390
F
  0
LAYER
  5
1FE
100
AcDbSymbolTableRecord
100
AcDbLayerTableRecord
  2
COLOR15
 70
0
 62
7
  6
CONTINUOUS
370
-3
390
F
  0
LAYER
  5
1FF
100
AcDbSymbolTableRecord
100
AcDbLayerTableRecord
  2
COLOR5
 70
0
 62
7
  6
CONTINUOUS
370
-3
390
F
  0
LAYER
  5
200
100
AcDbSymbolTableRecord
100
AcDbLayerTableRecord
  2
COORDINATE
 70
0
 62
7
  6
CONTINUOUS
370
-3
390
F
  0
LAYER
  5
201
100
AcDbSymbolTableRecord
100
AcDbLayerTableRecord
  2
COORD_ORIGINE
 70
0
 62
7
  6
CONTINUOUS
370
-3
390
F
  0
LAYER
  5
202
100
AcDbSymbolTableRecord
100
AcDbLayerTableRecord
  2
COSMETICHE
 70
0
 62
7
  6
CONTINUOUS
370
-3
390
F
  0
LAYER
  5
203
100
AcDbSymbolTableRecord
100
AcDbLayerTableRecord
  2
CURVE
 70
0
 62
7
  6
CONTINUOUS
370
-3
390
F
  0
LAYER
  5
204
100
AcDbSymbolTableRecord
100
AcDbLayerTableRecord
  2
DRAFT
 70
0
 62
7
  6
CONTINUOUS
370
-3
390
F
  0
LAYER
  5
205
100
AcDbSymbolTableRecord
100
AcDbLayerTableRecord
  2
IMPORT_IGES
 70
0
 62
7
  6
CONTINUOUS
370
-3
390
F
  0
LAYER
  5
206
100
AcDbSymbolTableRecord
100
AcDbLayerTableRecord
  2
INTF_1
 70
0
 62
7
  6
CONTINUOUS
370
-3
390
F
  0
LAYER
  5
207
100
AcDbSymbolTableRecord
100
AcDbLayerTableRecord
  2
INTF_11
 70
0
 62
7
  6
CONTINUOUS
370
-3
390
F
  0
LAYER
  5
208
100
AcDbSymbolTableRecord
100
AcDbLayerTableRecord
  2
INTF_2
 70
0
 62
7
  6
CONTINUOUS
370
-3
390
F
  0
LAYER
  5
209
100
AcDbSymbolTableRecord
100
AcDbLayerTableRecord
  2
INTF_3
 70
0
 62
7
  6
CONTINUOUS
370
-3
390
F
  0
LAYER
  5
20A
100
AcDbSymbolTableRecord
100
AcDbLayerTableRecord
  2
INTF_5
 70
0
 62
7
  6
CONTINUOUS
370
-3
390
F
  0
LAYER
  5
20B
100
AcDbSymbolTableRecord
100
AcDbLayerTableRecord
  2
INTF_YELLOW
 70
0
 62
7
  6
CONTINUOUS
370
-3
390
F
  0
LAYER
  5
20C
100
AcDbSymbolTableRecord
100
AcDbLayerTableRecord
  2
NOTE
 70
0
 62
7
  6
CONTINUOUS
370
-3
390
F
  0
LAYER
  5
20D
100
AcDbSymbolTableRecord
100
AcDbLayerTableRecord
  2
PIANI
 70
0
 62
7
  6
CONTINUOUS
370
-3
390
F
  0
LAYER
  5
20E
100
AcDbSymbolTableRecord
100
AcDbLayerTableRecord
  2
PIANI_ORIGINE
 70
0
 62
7
  6
CONTINUOUS
370
-3
390
F
  0
LAYER
  5
20F
100
AcDbSymbolTableRecord
100
AcDbLayerTableRecord
  2
PUNTI
 70
0
 62
7
  6
CONTINUOUS
370
-3
390
F
  0
LAYER
  5
210
100
AcDbSymbolTableRecord
100
AcDbLayerTableRecord
  2
RACCORDO
 70
0
 62
7
  6
CONTINUOUS
370
-3
390
F
  0
LAYER
  5
211
100
AcDbSymbolTableRecord
100
AcDbLayerTableRecord
  2
RGB__255__255__255__
 70
0
 62
7
  6
CONTINUOUS
370
-3
390
F
  0
LAYER
  5
212
100
AcDbSymbolTableRecord
100
AcDbLayerTableRecord
  2
SMUSSO
 70
0
 62
7
  6
CONTINUOUS
370
-3
390
F
  0
LAYER
  5
213
100
AcDbSymbolTableRecord
100
AcDbLayerTableRecord
  2
SNAPLINE
 70
0
 62
7
  6
CONTINUOUS
370
-3
390
F
  0
LAYER
  5
214
100
AcDbSymbolTableRecord
100
AcDbLayerTableRecord
  2
SUPERFICI
 70
0
 62
7
  6
CONTINUOUS
370
-3
390
F
  0
LAYER
  5
215
100
AcDbSymbolTableRecord
100
AcDbLayerTableRecord
  2
TASSELLI
 70
0
 62
7
  6
CONTINUOUS
370
-3
390
F
  0
LAYER
  5
216
100
AcDbSymbolTableRecord
100
AcDbLayerTableRecord
  2
TRASH
 70
0
 62
7
  6
CONTINUOUS
370
-3
390
F
  0
LAYER
  5
217
100
AcDbSymbolTableRecord
100
AcDbLayerTableRecord
  2
VARIE
 70
0
 62
7
  6
CONTINUOUS
370
-3
390
F
  0
LAYER
  5
218
100
AcDbSymbolTableRecord
100
AcDbLayerTableRecord
  2
XSEC_DATUMS
 70
0
 62
7
  6
CONTINUOUS
370
-3
390
F
  0
ENDTAB
  0
TABLE
  2
STYLE
  5
3
100
AcDbSymbolTable
 70
1
  0
STYLE
  5
11
100
AcDbSymbolTableRecord
100
AcDbTextStyleTableRecord
  2
STANDARD
 70
0
 40
0.0
 41
0.8
 50
0.0
 71
0
 42
0.2
  3
txt
  4

  0
STYLE
  5
219
100
AcDbSymbolTableRecord
100
AcDbTextStyleTableRecord
  2
TEXTSTYLE_1
 70
0
 40
0.0
 41
0.8
 50
0.0
 71
0
 42
0.2
  3
gdt
  4

  0
ENDTAB
  0
TABLE
  2
VIEW
  5
6
100
AcDbSymbolTable
 70
0
  0
ENDTAB
  0
TABLE
  2
UCS
  5
7
100
AcDbSymbolTable
 70
0
  0
ENDTAB
  0
TABLE
  2
APPID
  5
9
100
AcDbSymbolTable
 70
1
  0
APPID
  5
21A
100
AcDbSymbolTableRecord
100
AcDbRegAppTableRecord
  2
ACAD
 70
0
  0
ENDTAB
  0
TABLE
  2
BLOCK_RECORD
  5
1
100
AcDbSymbolTable
 70
0
  0
BLOCK_RECORD
  5
21B
100
AcDbSymbolTableRecord
100
AcDbBlockTableRecord
  2
*Model_Space
  0
BLOCK_RECORD
  5
21C
100
AcDbSymbolTableRecord
100
AcDbBlockTableRecord
  2
*Paper_Space
  0
BLOCK_RECORD
  5
21D
100
AcDbSymbolTableRecord
100
AcDbBlockTableRecord
  2
_FILLED
  0
BLOCK_RECORD
  5
21E
100
AcDbSymbolTableRecord
100
AcDbBlockTableRecord
  2
*D0
  0
BLOCK_RECORD
  5
21F
100
AcDbSymbolTableRecord
100
AcDbBlockTableRecord
  2
*D1
  0
BLOCK_RECORD
  5
220
100
AcDbSymbolTableRecord
100
AcDbBlockTableRecord
  2
*D2
  0
ENDTAB
  0
TABLE
  2
DIMSTYLE
  5
A
100
AcDbSymbolTable
 70
1
100
AcDbDimStyleTable
 71
0
  0
DIMSTYLE
105
221
100
AcDbSymbolTableRecord
100
AcDbDimStyleTableRecord
  2
STANDARD
 70
0
  3

  4

 40
1.0
 41
3.0
 42
0.5
 43
0.38
 44
1.5
 45
0.0
 46
0.0
 47
0.01
 48
0.01
140
3.0
141
0.09
142
0.0
143
25.4
144
1.0
145
0.0
146
1.0
147
0.625
 71
1
 72
0
 73
0
 74
0
 75
0
 76
0
 77
1
 78
8
 79
2
170
0
171
1
172
0
173
0
174
0
175
0
176
0
177
0
178
0
270
2
179
2
271
2
272
2
273
2
274
2
275
0
280
0
281
0
282
0
283
1
284
8
285
0
286
0
287
3
288
0
340
11
278
44
341
21D
342
21D
343
21D
344
21D
  0
DIMSTYLE
105
222
100
AcDbSymbolTableRecord
100
AcDbDimStyleTableRecord
  2
DIMSTYLE_1
 70
0
  3

  4

 40
1.0
 41
3.0
 42
0.5
 43
0.38
 44
1.5
 45
0.0
 46
0.0
 47
0.0
 48
0.0
140
3.0
141
0.09
142
0.0
143
25.4
144
1.0
145
0.0
146
1.0
147
0.75
 71
0
 72
0
 73
0
 74
0
 75
0
 76
0
 77
1
 78
8
 79
2
170
0
171
1
172
0
173
0
174
0
175
0
176
0
177
0
178
0
270
2
179
2
271
2
272
2
273
2
274
2
275
0
280
0
281
0
282
0
283
1
284
8
285
0
286
0
287
3
288
0
340
11
278
44
341
21D
342
21D
343
21D
344
21D
  0
DIMSTYLE
105
223
100
AcDbSymbolTableRecord
100
AcDbDimStyleTableRecord
  2
DIMSTYLE_2
 70
0
  3

  4

 40
1.0
 41
3.0
 42
0.5
 43
0.38
 44
1.5
 45
0.0
 46
0.0
 47
0.0
 48
0.0
140
3.0
141
0.09
142
0.0
143
25.4
144
1.0
145
0.0
146
1.0
147
0.75
 71
0
 72
0
 73
0
 74
0
 75
0
 76
0
 77
1
 78
8
 79
2
170
0
171
1
172
0
173
0
174
0
175
0
176
0
177
0
178
0
270
2
179
2
271
1
272
1
273
2
274
2
275
0
280
0
281
0
282
0
283
1
284
8
285
0
286
0
287
3
288
0
340
11
278
44
341
21D
342
21D
343
21D
344
21D
  0
ENDTAB
  0
ENDSEC
  0
SECTION
  2
BLOCKS
  0
BLOCK
  5
20
100
AcDbEntity
  8
0
100
AcDbBlockBegin
  2
*Model_Space
 70
0
 10
0.0
 20
0.0
 30
0.0
  3
*Model_Space
  1

  0
ENDBLK
  5
21
100
AcDbEntity
  8
0
100
AcDbBlockEnd
  0
BLOCK
  5
1C
100
AcDbEntity
  8
0
100
AcDbBlockBegin
  2
*Paper_Space
 70
0
 10
0.0
 20
0.0
 30
0.0
  3
*Paper_Space
  1

  0
ENDBLK
  5
1D
100
AcDbEntity
  8
0
100
AcDbBlockEnd
  0
BLOCK
  5
224
100
AcDbEntity
  8
0
100
AcDbBlockBegin
  2
_FILLED
 70
64
 10
0.0
 20
0.0
  3
_FILLED
  1

  0
SOLID
  5
225
100
AcDbEntity
  8
0
  6
BYBLOCK
 62
0
100
AcDbTrace
 10
0.0
 20
0.0
 11
-1.0
 21
0.3166666667
 12
-1.0
 22
-0.3166666667
 13
-1.0
 23
-0.3166666667
  0
ENDBLK
  5
226
100
AcDbEntity
  8
0
  6
BYBLOCK
 62
0
100
AcDbBlockEnd
  0
BLOCK
  5
227
100
AcDbEntity
  8
0
100
AcDbBlockBegin
 62
7
  6
CONTINUOUS
  2
*D0
 70
65
 10
0.0
 20
0.0
  3
*D0
  1

  0
LINE
  5
228
100
AcDbEntity
  8
0
100
AcDbLine
 62
7
  6
CONTINUOUS
 10
16.5672653425
 20
-6.2
 11
31.5
 21
-6.2
  0
LINE
  5
229
100
AcDbEntity
  8
0
100
AcDbLine
 62
7
  6
CONTINUOUS
 10
4.9998052187
 20
-64.3
 11
31.5
 21
-64.3
  0
LINE
  5
22A
100
AcDbEntity
  8
0
100
AcDbLine
 62
7
  6
CONTINUOUS
 10
30.0
 20
-6.2
 11
30.0
 21
-35.25
  0
LINE
  5
22B
100
AcDbEntity
  8
0
100
AcDbLine
 62
7
  6
CONTINUOUS
 10
30.0
 20
-64.3
 11
30.0
 21
-35.25
  0
INSERT
  5
22C
100
AcDbEntity
  8
0
100
AcDbBlockReference
 62
7
  6
CONTINUOUS
  2
_FILLED
 10
30.0
 20
-6.2
 41
3.0
 42
3.0
 43
3.0
 50
90.0
  0
INSERT
  5
22D
100
AcDbEntity
  8
0
100
AcDbBlockReference
 62
7
  6
CONTINUOUS
  2
_FILLED
 10
30.0
 20
-64.3
 41
3.0
 42
3.0
 43
3.0
 50
270.0
  0
ENDBLK
  5
22E
100
AcDbEntity
  8
0
  6
BYBLOCK
 62
0
100
AcDbBlockEnd
  0
BLOCK
  5
22F
100
AcDbEntity
  8
0
100
AcDbBlockBegin
 62
7
  6
CONTINUOUS
  2
*D1
 70
65
 10
0.0
 20
0.0
  3
*D1
  1

  0
LINE
  5
230
100
AcDbEntity
  8
0
100
AcDbLine
 62
7
  6
CONTINUOUS
 10
20.4
 20
-6.3
 11
20.4
 21
4.9919022577
  0
LINE
  5
231
100
AcDbEntity
  8
0
100
AcDbLine
 62
7
  6
CONTINUOUS
 10
-20.4
 20
-6.3
 11
-20.4
 21
4.9919022577
  0
LINE
  5
232
100
AcDbEntity
  8
0
100
AcDbLine
 62
7
  6
CONTINUOUS
 10
20.4
 20
3.4919022577
 11
0.0
 21
3.4919022577
  0
LINE
  5
233
100
AcDbEntity
  8
0
100
AcDbLine
 62
7
  6
CONTINUOUS
 10
-20.4
 20
3.4919022577
 11
0.0
 21
3.4919022577
  0
INSERT
  5
234
100
AcDbEntity
  8
0
100
AcDbBlockReference
 62
7
  6
CONTINUOUS
  2
_FILLED
 10
20.4
 20
3.4919022577
 41
3.0
 42
3.0
 43
3.0
 50
360.0
  0
INSERT
  5
235
100
AcDbEntity
  8
0
100
AcDbBlockReference
 62
7
  6
CONTINUOUS
  2
_FILLED
 10
-20.4
 20
3.4919022577
 41
3.0
 42
3.0
 43
3.0
 50
180.0
  0
ENDBLK
  5
236
100
AcDbEntity
  8
0
  6
BYBLOCK
 62
0
100
AcDbBlockEnd
  0
BLOCK
  5
237
100
AcDbEntity
  8
0
100
AcDbBlockBegin
 62
7
  6
CONTINUOUS
  2
*D2
 70
65
 10
0.0
 20
0.0
  3
*D2
  1

  0
LINE
  5
238
100
AcDbEntity
  8
0
100
AcDbLine
 62
7
  6
CONTINUOUS
 10
-42.4797060644
 20
-13.8
 11
-42.4797060644
 21
5.1790677142
  0
LINE
  5
239
100
AcDbEntity
  8
0
100
AcDbLine
 62
7
  6
CONTINUOUS
 10
-80.5458817163
 20
-52.4384376133
 11
-80.5458817163
 21
5.1790677142
  0
LINE
  5
23A
100
AcDbEntity
  8
0
100
AcDbLine
 62
7
  6
CONTINUOUS
 10
-42.4797060644
 20
3.6790677142
 11
-61.5127938903
 21
3.6790677142
  0
LINE
  5
23B
100
AcDbEntity
  8
0
100
AcDbLine
 62
7
  6
CONTINUOUS
 10
-80.5458817163
 20
3.6790677142
 11
-61.5127938903
 21
3.6790677142
  0
INSERT
  5
23C
100
AcDbEntity
  8
0
100
AcDbBlockReference
 62
7
  6
CONTINUOUS
  2
_FILLED
 10
-42.4797060644
 20
3.6790677142
 41
3.0
 42
3.0
 43
3.0
  0
INSERT
  5
23D
100
AcDbEntity
  8
0
100
AcDbBlockReference
 62
7
  6
CONTINUOUS
  2
_FILLED
 10
-80.5458817163
 20
3.6790677142
 41
3.0
 42
3.0
 43
3.0
 50
180.0
  0
ENDBLK
  5
23E
100
AcDbEntity
  8
0
  6
BYBLOCK
 62
0
100
AcDbBlockEnd
  0
ENDSEC
  0
SECTION
  2
ENTITIES
  0
DIMENSION
  5
23F
100
AcDbEntity
  8
0
100
AcDbDimension
 62
7
  6
CONTINUOUS
  2
*D0
 10
30.0
 20
-64.3
 11
30.0
 21
-39.2142857143
 70
160
 71
2
 72
2
 41
0.9
 42
58.1
  3
DIMSTYLE_1
100
AcDbAlignedDimension
 13
16.0672653425
 23
-6.2
 14
4.4998052187
 24
-64.3
 50
270.0
100
AcDbRotatedDimension
  0
DIMENSION
  5
240
100
AcDbEntity
  8
0
100
AcDbDimension
 62
7
  6
CONTINUOUS
  2
*D1
 10
-20.4
 20
3.4919022577
 11
-4.3928571429
 21
3.4919022577
 70
160
 71
2
 72
2
 41
0.9
 42
40.8
  3
DIMSTYLE_1
100
AcDbAlignedDimension
 13
20.4
 23
-6.8
 14
-20.4
 24
-6.8
 50
180.0
100
AcDbRotatedDimension
  0
DIMENSION
  5
241
100
AcDbEntity
  8
0
100
AcDbDimension
 62
7
  6
CONTINUOUS
  2
*D2
 10
-80.5458817163
 20
3.6790677142
 11
-65.4770796046
 21
3.6790677142
 70
160
 71
2
 72
2
 41
0.9
 42
38.066175652
  3
DIMSTYLE_2
100
AcDbAlignedDimension
 13
-42.4797060644
 23
-14.3
 14
-80.5458817163
 24
-52.9384376133
 50
180.0
100
AcDbRotatedDimension
  0
LINE
  5
242
100
AcDbEntity
  8
0
100
AcDbLine
 62
7
  6
CONTINUOUS
 10
-4.4998052187
 20
-64.3
 11
-4.0
 21
-64.3
  0
LINE
  5
243
100
AcDbEntity
  8
0
100
AcDbLine
 62
7
  6
CONTINUOUS
 10
4.0
 20
-64.3
 11
4.4998052187
 21
-64.3
  0
LINE
  5
244
100
AcDbEntity
  8
0
100
AcDbLine
 62
250
  6
CONTINUOUS
 10
5.3
 20
-62.95
 11
-5.3
 21
-62.95
  0
LINE
  5
245
100
AcDbEntity
  8
0
100
AcDbLine
 62
250
  6
CONTINUOUS
 10
5.4184210526
 20
-62.8033617714
 11
-5.4184210526
 21
-62.8033617714
  0
LINE
  5
246
100
AcDbEntity
  8
0
100
AcDbLine
 62
250
  6
CONTINUOUS
 10
-6.05
 20
-62.0212912189
 11
6.05
 21
-62.0212912189
  0
LINE
  5
247
100
AcDbEntity
  8
0
100
AcDbLine
 62
250
  6
CONTINUOUS
 10
13.7206654678
 20
-58.0959669888
 11
14.0421791447
 21
-58.2695674305
  0
LINE
  5
248
100
AcDbEntity
  8
0
100
AcDbLine
 62
250
  6
CONTINUOUS
 10
-19.887034559
 20
-37.3808310001
 11
-18.895970091
 21
-37.3
  0
LINE
  5
249
100
AcDbEntity
  8
0
100
AcDbLine
 62
250
  6
CONTINUOUS
 10
-15.1999643994
 20
-37.3000104019
 11
-18.8959717611
 21
-37.2999754111
  0
LINE
  5
24A
100
AcDbEntity
  8
0
100
AcDbLine
 62
250
  6
CONTINUOUS
 10
18.8959717483
 20
-37.2999756001
 11
15.1999667913
 21
-37.3
  0
LWPOLYLINE
  5
24B
100
AcDbEntity
  8
0
100
AcDbPolyline
 62
7
  6
CONTINUOUS
 90
4
 70
0
 43
0.3500000006
 10
28.821428627
 20
-37.0714280663
 10
27.9642861557
 20
-37.0714280663
 10
27.53571492
 20
-36.6428568306
 10
27.53571492
 20
-35.9999999771
  0
LINE
  5
24C
100
AcDbEntity
  8
0
100
AcDbLine
 62
7
  6
CONTINUOUS
 10
0.2828593557
 20
-40.9425944572
 11
0.2388223825
 21
-40.9221062937
  0
LINE
  5
24D
100
AcDbEntity
  8
0
100
AcDbLine
 62
250
  6
CONTINUOUS
 10
19.0669617417
 20
-33.1
 11
20.4
 21
-33.1
  0
LINE
  5
24E
100
AcDbEntity
  8
0
100
AcDbLine
 62
250
  6
CONTINUOUS
 10
-19.0669617417
 20
-33.1
 11
-20.4
 21
-33.1
  0
LINE
  5
24F
100
AcDbEntity
  8
0
100
AcDbLine
 62
7
  6
CONTINUOUS
 10
-0.2828593557
 20
-38.6574055428
 11
-0.2388223825
 21
-38.6778937063
  0
LWPOLYLINE
  5
250
100
AcDbEntity
  8
0
100
AcDbPolyline
 62
7
  6
CONTINUOUS
 90
3
 70
0
 43
0.3500000006
 10
28.9642864609
 20
-34.0000004997
 10
29.1785709457
 20
-34.0714282837
 10
29.4642866135
 20
-34.2142861176
  0
LINE
  5
251
100
AcDbEntity
  8
0
100
AcDbLine
 62
7
  6
CONTINUOUS
 10
-0.2828594037
 20
-40.9425943646
 11
-0.2692641391
 21
-40.9627030667
  0
LINE
  5
252
100
AcDbEntity
  8
0
100
AcDbLine
 62
7
  6
CONTINUOUS
 10
-20.4
 20
-6.8
 11
-20.4
 21
-33.1
  0
LINE
  5
253
100
AcDbEntity
  8
0
100
AcDbLine
 62
250
  6
CONTINUOUS
 10
-20.0613170254
 20
-33.1
 11
-20.0613170254
 21
-6.8
  0
LINE
  5
254
100
AcDbEntity
  8
0
100
AcDbLine
 62
250
  6
CONTINUOUS
 10
-19.0669617417
 20
-33.1
 11
-19.0669617417
 21
-6.3
  0
LINE
  5
255
100
AcDbEntity
  8
0
100
AcDbLine
 62
7
  6
CONTINUOUS
 10
-18.3
 20
-6.3
 11
-18.3
 21
-6.0
  0
LINE
  5
256
100
AcDbEntity
  8
0
100
AcDbLine
 62
7
  6
CONTINUOUS
 10
0.2828594037
 20
-38.6574056354
 11
0.2692641324
 21
-38.6372969234
  0
LINE
  5
257
100
AcDbEntity
  8
0
100
AcDbLine
 62
7
  6
CONTINUOUS
 10
-1.122106287
 20
-39.5611776274
 11
-1.1881618048
 21
-39.4194209054
  0
LINE
  5
258
100
AcDbEntity
  8
0
100
AcDbLine
 62
7
  6
CONTINUOUS
 10
-6.610415
 20
-16.187403
 11
-5.874698
 21
-16.187403
  0
LINE
  5
259
100
AcDbEntity
  8
0
100
AcDbLine
 62
7
  6
CONTINUOUS
 10
-4.279278
 20
-16.187403
 11
-3.444423
 21
-16.187403
  0
LINE
  5
25A
100
AcDbEntity
  8
0
100
AcDbLine
 62
7
  6
CONTINUOUS
 10
-2.994994
 20
-16.187403
 11
-2.19631
 21
-16.187403
  0
LINE
  5
25B
100
AcDbEntity
  8
0
100
AcDbLine
 62
7
  6
CONTINUOUS
 10
-1.036762
 20
-16.187403
 11
-0.919674
 21
-16.187403
  0
LINE
  5
25C
100
AcDbEntity
  8
0
100
AcDbLine
 62
7
  6
CONTINUOUS
 10
0.244493
 20
-16.187403
 11
1.061203
 21
-16.187403
  0
LINE
  5
25D
100
AcDbEntity
  8
0
100
AcDbLine
 62
7
  6
CONTINUOUS
 10
1.192297
 20
-16.187403
 11
2.018095
 21
-16.187403
  0
LINE
  5
25E
100
AcDbEntity
  8
0
100
AcDbLine
 62
7
  6
CONTINUOUS
 10
3.601668
 20
-16.187403
 11
4.481571
 21
-16.187403
  0
LINE
  5
25F
100
AcDbEntity
  8
0
100
AcDbLine
 62
7
  6
CONTINUOUS
 10
4.7267246802
 20
-16.1874031119
 11
5.5582205912
 21
-16.1874031119
  0
LINE
  5
260
100
AcDbEntity
  8
0
100
AcDbLine
 62
7
  6
CONTINUOUS
 10
6.8366860434
 20
-16.1874031119
 11
7.6397196251
 21
-16.1874031119
  0
LINE
  5
261
100
AcDbEntity
  8
0
100
AcDbLine
 62
7
  6
CONTINUOUS
 10
2.248463
 20
-15.388958
 11
3.385396
 21
-15.388958
  0
LINE
  5
262
100
AcDbEntity
  8
0
100
AcDbLine
 62
7
  6
CONTINUOUS
 10
3.218551
 20
-14.771125
 11
2.419237
 21
-14.771125
  0
LINE
  5
263
100
AcDbEntity
  8
0
100
AcDbLine
 62
7
  6
CONTINUOUS
 10
5.5582205912
 20
-14.6222149318
 11
6.0058499546
 21
-14.6222149318
  0
LINE
  5
264
100
AcDbEntity
  8
0
100
AcDbLine
 62
7
  6
CONTINUOUS
 10
6.0076494697
 20
-13.9671914613
 11
5.5305380517
 21
-13.9671914613
  0
LINE
  5
265
100
AcDbEntity
  8
0
100
AcDbLine
 62
7
  6
CONTINUOUS
 10
1.122106287
 20
-40.0388223726
 11
1.1881618048
 21
-40.1805790946
  0
LINE
  5
266
100
AcDbEntity
  8
0
100
AcDbLine
 62
7
  6
CONTINUOUS
 10
3.254421
 20
-12.187891
 11
2.446799
 21
-12.187891
  0
LINE
  5
267
100
AcDbEntity
  8
0
100
AcDbLine
 62
7
  6
CONTINUOUS
 10
0.687203
 20
-12.187891
 11
-0.138804
 21
-12.187891
  0
LINE
  5
268
100
AcDbEntity
  8
0
100
AcDbLine
 62
7
  6
CONTINUOUS
 10
-1.799696
 20
-12.187891
 11
-2.633862
 21
-12.187891
  0
LINE
  5
269
100
AcDbEntity
  8
0
100
AcDbLine
 62
7
  6
CONTINUOUS
 10
-4.589095
 20
-12.187891
 11
-5.42338
 21
-12.187891
  0
LINE
  5
26A
100
AcDbEntity
  8
0
100
AcDbLine
 62
7
  6
CONTINUOUS
 10
-6.971428
 20
-12.187891
 11
-7.878338
 21
-12.187891
  0
LINE
  5
26B
100
AcDbEntity
  8
0
100
AcDbLine
 62
7
  6
CONTINUOUS
 10
-3.444423
 20
-12.187651
 11
-4.279278
 21
-12.187651
  0
LINE
  5
26C
100
AcDbEntity
  8
0
100
AcDbLine
 62
7
  6
CONTINUOUS
 10
-7.878338
 20
-12.187891
 11
-6.610415
 21
-16.187403
  0
LINE
  5
26D
100
AcDbEntity
  8
0
100
AcDbLine
 62
7
  6
CONTINUOUS
 10
-6.209048
 20
-14.940879
 11
-6.971428
 21
-12.187891
  0
LINE
  5
26E
100
AcDbEntity
  8
0
100
AcDbLine
 62
7
  6
CONTINUOUS
 10
-6.05
 20
-62.0212912189
 11
-6.05
 21
-61.2899266605
  0
LINE
  5
26F
100
AcDbEntity
  8
0
100
AcDbLine
 62
7
  6
CONTINUOUS
 10
-5.3
 20
-63.4989021232
 11
-5.3
 21
-62.95
  0
LINE
  5
270
100
AcDbEntity
  8
0
100
AcDbLine
 62
7
  6
CONTINUOUS
 10
-4.279278
 20
-12.187651
 11
-4.279278
 21
-16.187403
  0
LINE
  5
271
100
AcDbEntity
  8
0
100
AcDbLine
 62
250
  6
CONTINUOUS
 10
-10.0305537725
 20
-60.5129481164
 11
-10.0611898069
 21
-60.8774747169
  0
LINE
  5
272
100
AcDbEntity
  8
0
100
AcDbLine
 62
250
  6
CONTINUOUS
 10
20.4
 20
-6.8
 11
-20.4
 21
-6.8
  0
LINE
  5
273
100
AcDbEntity
  8
0
100
AcDbLine
 62
7
  6
CONTINUOUS
 10
19.9
 20
-6.3
 11
-19.9
 21
-6.3
  0
LINE
  5
274
100
AcDbEntity
  8
0
100
AcDbLine
 62
7
  6
CONTINUOUS
 10
-18.3
 20
-6.0
 11
18.3
 21
-6.0
  0
LWPOLYLINE
  5
275
100
AcDbEntity
  8
0
100
AcDbPolyline
 62
7
  6
CONTINUOUS
 90
3
 70
0
 43
0.3500000006
 10
27.1071436844
 20
-33.0000001945
 10
26.2499989471
 20
-32.1428565903
 10
29.2499998627
 20
-32.1428565903
  0
LINE
  5
276
100
AcDbEntity
  8
0
100
AcDbLine
 62
7
  6
CONTINUOUS
 10
-2.016148
 20
-13.575797
 11
-1.036762
 21
-16.187403
  0
LINE
  5
277
100
AcDbEntity
  8
0
100
AcDbLine
 62
7
  6
CONTINUOUS
 10
-0.973659
 20
-14.408433
 11
-1.799696
 21
-12.187891
  0
LINE
  5
278
100
AcDbEntity
  8
0
100
AcDbLine
 62
7
  6
CONTINUOUS
 10
1.061203
 20
-16.187403
 11
0.687203
 21
-12.187891
  0
LINE
  5
279
100
AcDbEntity
  8
0
100
AcDbLine
 62
7
  6
CONTINUOUS
 10
0.072969
 20
-13.586684
 11
0.244493
 21
-16.187403
  0
LINE
  5
27A
100
AcDbEntity
  8
0
100
AcDbLine
 62
7
  6
CONTINUOUS
 10
-3.444423
 20
-16.187403
 11
-3.444423
 21
-12.187651
  0
LWPOLYLINE
  5
27B
100
AcDbEntity
  8
0
100
AcDbPolyline
 62
7
  6
CONTINUOUS
 90
2
 70
0
 43
0.3500000006
 10
-3.3928571262
 20
4.2419025421
 10
-3.3928571262
 20
5.7419029999
  0
LWPOLYLINE
  5
27C
100
AcDbEntity
  8
0
100
AcDbPolyline
 62
7
  6
CONTINUOUS
 90
13
 70
0
 43
0.3500000006
 10
-2.0357142191
 20
5.0990450134
 10
-2.0357142191
 20
6.3847587204
 10
-1.8214286013
 20
6.8133299561
 10
-1.3928570824
 20
7.2419011917
 10
-1.1785713937
 20
7.2419011917
 10
-0.7500000165
 20
6.8133299561
 10
-0.5357142924
 20
6.3847587204
 10
-0.5357142924
 20
5.0990450134
 10
-0.7500000165
 20
4.6704737778
 10
-1.1785713937
 20
4.2419025421
 10
-1.3928570824
 20
4.2419025421
 10
-1.8214286013
 20
4.6704737778
 10
-2.0357142191
 20
5.0990450134
  0
LINE
  5
27D
100
AcDbEntity
  8
0
100
AcDbLine
 62
7
  6
CONTINUOUS
 10
-0.6
 20
-42.3940251766
 11
-0.6
 21
-40.3586148063
  0
LINE
  5
27E
100
AcDbEntity
  8
0
100
AcDbLine
 62
7
  6
CONTINUOUS
 10
-0.6
 20
-39.2413855636
 11
-0.6
 21
-37.2059748234
  0
LINE
  5
27F
100
AcDbEntity
  8
0
100
AcDbLine
 62
250
  6
CONTINUOUS
 10
0.0
 20
-60.3417678917
 11
-0.0
 21
-53.1083524618
  0
LINE
  5
280
100
AcDbEntity
  8
0
100
AcDbLine
 62
7
  6
CONTINUOUS
 10
0.6
 20
-37.2059748234
 11
0.6
 21
-39.2413851937
  0
LINE
  5
281
100
AcDbEntity
  8
0
100
AcDbLine
 62
7
  6
CONTINUOUS
 10
0.6
 20
-40.3586144364
 11
0.6
 21
-42.3940251766
  0
LINE
  5
282
100
AcDbEntity
  8
0
100
AcDbLine
 62
7
  6
CONTINUOUS
 10
-2.19631
 20
-16.187403
 11
-2.016148
 21
-13.575797
  0
LINE
  5
283
100
AcDbEntity
  8
0
100
AcDbLine
 62
7
  6
CONTINUOUS
 10
-2.633862
 20
-12.187891
 11
-2.994994
 21
-16.187403
  0
LINE
  5
284
100
AcDbEntity
  8
0
100
AcDbLine
 62
7
  6
CONTINUOUS
 10
-5.42338
 20
-12.187891
 11
-6.209048
 21
-14.940879
  0
LINE
  5
285
100
AcDbEntity
  8
0
100
AcDbLine
 62
7
  6
CONTINUOUS
 10
-5.874698
 20
-16.187403
 11
-4.589095
 21
-12.187891
  0
LWPOLYLINE
  5
286
100
AcDbEntity
  8
0
100
AcDbPolyline
 62
7
  6
CONTINUOUS
 90
3
 70
0
 43
0.3500000006
 10
1.035714268
 20
4.5276159439
 10
0.9642857051
 20
4.313331459
 10
0.8214285793
 20
4.0276157913
  0
LINE
  5
287
100
AcDbEntity
  8
0
100
AcDbLine
 62
7
  6
CONTINUOUS
 10
4.481571
 20
-16.187403
 11
3.254421
 21
-12.187891
  0
LINE
  5
288
100
AcDbEntity
  8
0
100
AcDbLine
 62
7
  6
CONTINUOUS
 10
3.385396
 20
-15.388958
 11
3.601668
 21
-16.187403
  0
LINE
  5
289
100
AcDbEntity
  8
0
100
AcDbLine
 62
7
  6
CONTINUOUS
 10
2.834925
 20
-13.286855
 11
3.218551
 21
-14.771125
  0
LINE
  5
28A
100
AcDbEntity
  8
0
100
AcDbLine
 62
250
  6
CONTINUOUS
 10
10.0305538769
 20
-60.5129481078
 11
10.0611898069
 21
-60.8774747169
  0
LWPOLYLINE
  5
28B
100
AcDbEntity
  8
0
100
AcDbPolyline
 62
7
  6
CONTINUOUS
 90
4
 70
0
 43
0.3500000006
 10
2.0357142191
 20
4.6704737778
 10
2.0357142191
 20
5.5276162491
 10
2.464285738
 20
5.9561874847
 10
3.1071428747
 20
5.9561874847
  0
LINE
  5
28C
100
AcDbEntity
  8
0
100
AcDbLine
 62
7
  6
CONTINUOUS
 10
4.7267246802
 20
-12.2346183915
 11
4.7267246802
 21
-16.1874031119
  0
LINE
  5
28D
100
AcDbEntity
  8
0
100
AcDbLine
 62
7
  6
CONTINUOUS
 10
-0.138804
 20
-12.187891
 11
-0.973659
 21
-14.408433
  0
LINE
  5
28E
100
AcDbEntity
  8
0
100
AcDbLine
 62
7
  6
CONTINUOUS
 10
-0.919674
 20
-16.187403
 11
0.072969
 21
-13.586684
  0
LWPOLYLINE
  5
28F
100
AcDbEntity
  8
0
100
AcDbPolyline
 62
7
  6
CONTINUOUS
 90
3
 70
0
 43
0.3500000006
 10
-2.8928572569
 20
4.8847605286
 10
-4.3928571482
 20
4.8847605286
 10
-3.7500000114
 20
7.2419011917
  0
LWPOLYLINE
  5
290
100
AcDbEntity
  8
0
100
AcDbPolyline
 62
7
  6
CONTINUOUS
 90
10
 70
0
 43
0.3500000006
 10
0.9642857051
 20
4.7419026947
 10
1.035714268
 20
4.5990448608
 10
1.035714268
 20
4.5276159439
 10
0.8928571422
 20
4.384760376
 10
0.8214285793
 20
4.384760376
 10
0.7500000165
 20
4.456187027
 10
0.7500000165
 20
4.5276159439
 10
0.8214285793
 20
4.6704737778
 10
0.8928571422
 20
4.7419026947
 10
0.9642857051
 20
4.7419026947
  0
LINE
  5
291
100
AcDbEntity
  8
0
100
AcDbLine
 62
7
  6
CONTINUOUS
 10
6.4715298608
 20
-14.9743682685
 11
6.4716244279
 21
-14.9746199582
  0
LINE
  5
292
100
AcDbEntity
  8
0
100
AcDbLine
 62
7
  6
CONTINUOUS
 10
7.3543398552
 20
-15.1049904214
 11
7.3543165415
 21
-15.1049048463
  0
LINE
  5
293
100
AcDbEntity
  8
0
100
AcDbLine
 62
7
  6
CONTINUOUS
 10
5.3
 20
-63.4989021232
 11
5.3
 21
-62.95
  0
LINE
  5
294
100
AcDbEntity
  8
0
100
AcDbLine
 62
7
  6
CONTINUOUS
 10
5.5305380517
 20
-13.9671914613
 11
5.5305380517
 21
-12.8692473583
  0
LINE
  5
295
100
AcDbEntity
  8
0
100
AcDbLine
 62
7
  6
CONTINUOUS
 10
5.5582205912
 20
-16.1874031119
 11
5.5582205912
 21
-14.6222149318
  0
LINE
  5
296
100
AcDbEntity
  8
0
100
AcDbLine
 62
7
  6
CONTINUOUS
 10
6.05
 20
-62.0212912189
 11
6.05
 21
-61.2899266605
  0
LINE
  5
297
100
AcDbEntity
  8
0
100
AcDbLine
 62
7
  6
CONTINUOUS
 10
6.8730962309
 20
-14.3204662533
 11
6.8730962309
 21
-14.2968326226
  0
LINE
  5
298
100
AcDbEntity
  8
0
100
AcDbLine
 62
7
  6
CONTINUOUS
 10
-0.2280529893
 20
-38.4272662176
 11
-0.2694720426
 21
-38.6376044208
  0
LINE
  5
299
100
AcDbEntity
  8
0
100
AcDbLine
 62
7
  6
CONTINUOUS
 10
0.2280529893
 20
-41.1727337824
 11
0.2694720426
 21
-40.9623955792
  0
LINE
  5
29A
100
AcDbEntity
  8
0
100
AcDbLine
 62
7
  6
CONTINUOUS
 10
2.419237
 20
-14.771125
 11
2.834925
 21
-13.286855
  0
LINE
  5
29B
100
AcDbEntity
  8
0
100
AcDbLine
 62
7
  6
CONTINUOUS
 10
2.018095
 20
-16.187403
 11
2.248463
 21
-15.388958
  0
LINE
  5
29C
100
AcDbEntity
  8
0
100
AcDbLine
 62
7
  6
CONTINUOUS
 10
2.446799
 20
-12.187891
 11
1.192297
 21
-16.187403
  0
LWPOLYLINE
  5
29D
100
AcDbEntity
  8
0
100
AcDbPolyline
 62
7
  6
CONTINUOUS
 90
13
 70
0
 43
0.3500000006
 10
2.464285738
 20
5.9561874847
 10
2.1785714865
 20
6.1704742355
 10
2.1785714865
 20
6.8133299561
 10
2.464285738
 20
7.2419011917
 10
3.1071428747
 20
7.2419011917
 10
3.3928571262
 20
6.8133299561
 10
3.3928571262
 20
6.1704742355
 10
3.1071428747
 20
5.9561874847
 10
3.5357143936
 20
5.5276162491
 10
3.5357143936
 20
4.6704737778
 10
3.1071428747
 20
4.2419025421
 10
2.464285738
 20
4.2419025421
 10
2.0357142191
 20
4.6704737778
  0
LINE
  5
29E
100
AcDbEntity
  8
0
100
AcDbLine
 62
7
  6
CONTINUOUS
 10
18.3
 20
-6.3
 11
18.3
 21
-6.0
  0
LINE
  5
29F
100
AcDbEntity
  8
0
100
AcDbLine
 62
7
  6
CONTINUOUS
 10
-1.1881618969
 20
-40.1805790454
 11
-1.1221062937
 21
-40.0388223825
  0
LINE
  5
2A0
100
AcDbEntity
  8
0
100
AcDbLine
 62
7
  6
CONTINUOUS
 10
1.1881618969
 20
-39.4194209546
 11
1.1221062937
 21
-39.5611776175
  0
LINE
  5
2A1
100
AcDbEntity
  8
0
100
AcDbLine
 62
250
  6
CONTINUOUS
 10
19.0669617417
 20
-33.1
 11
19.0669617417
 21
-6.3
  0
LINE
  5
2A2
100
AcDbEntity
  8
0
100
AcDbLine
 62
250
  6
CONTINUOUS
 10
20.0613170254
 20
-6.8
 11
20.0613170254
 21
-33.1
  0
LINE
  5
2A3
100
AcDbEntity
  8
0
100
AcDbLine
 62
7
  6
CONTINUOUS
 10
20.4
 20
-6.8
 11
20.4
 21
-33.1
  0
LINE
  5
2A4
100
AcDbEntity
  8
0
100
AcDbLine
 62
7
  6
CONTINUOUS
 10
-0.2694720426
 20
-38.6376044208
 11
-0.2828593557
 21
-38.6574055428
  0
LINE
  5
2A5
100
AcDbEntity
  8
0
100
AcDbLine
 62
7
  6
CONTINUOUS
 10
0.2694720426
 20
-40.9623955792
 11
0.2828593557
 21
-40.9425944572
  0
LWPOLYLINE
  5
2A6
100
AcDbEntity
  8
0
100
AcDbPolyline
 62
7
  6
CONTINUOUS
 90
8
 70
0
 43
0.3500000006
 10
29.2499998627
 20
-39.2142853775
 10
29.2499998627
 20
-38.3571429062
 10
28.821428627
 20
-37.9285716705
 10
27.9642861557
 20
-37.9285716705
 10
27.53571492
 20
-38.3571429062
 10
27.53571492
 20
-39.2142853775
 10
26.2499989471
 20
-39.2142853775
 10
26.2499989471
 20
-37.9285716705
  0
LINE
  5
2A7
100
AcDbEntity
  8
0
100
AcDbLine
 62
7
  6
CONTINUOUS
 10
0.2388223726
 20
-38.677893713
 11
0.2828594037
 21
-38.6574056354
  0
LINE
  5
2A8
100
AcDbEntity
  8
0
100
AcDbLine
 62
7
  6
CONTINUOUS
 10
-0.2388223726
 20
-40.922106287
 11
-0.2828594037
 21
-40.9425943646
  0
LWPOLYLINE
  5
2A9
100
AcDbEntity
  8
0
100
AcDbPolyline
 62
7
  6
CONTINUOUS
 90
13
 70
0
 43
0.3500000006
 10
27.53571492
 20
-36.6428568306
 10
27.3214281693
 20
-36.9285713654
 10
26.6785724487
 20
-36.9285713654
 10
26.2499989471
 20
-36.6428568306
 10
26.2499989471
 20
-35.9999999771
 10
26.6785724487
 20
-35.7142854424
 10
27.3214281693
 20
-35.7142854424
 10
27.53571492
 20
-35.9999999771
 10
27.9642861557
 20
-35.5714287415
 10
28.821428627
 20
-35.5714287415
 10
29.2499998627
 20
-35.9999999771
 10
29.2499998627
 20
-36.6428568306
 10
28.821428627
 20
-37.0714280663
  0
LINE
  5
2AA
100
AcDbEntity
  8
0
100
AcDbLine
 62
250
  6
CONTINUOUS
 10
-13.7206646819
 20
-58.0959684516
 11
-14.0421791447
 21
-58.2695674305
  0
LWPOLYLINE
  5
2AB
100
AcDbEntity
  8
0
100
AcDbPolyline
 62
7
  6
CONTINUOUS
 90
10
 70
0
 43
0.3500000006
 10
28.7499997101
 20
-34.0714282837
 10
28.8928575439
 20
-34.0000004997
 10
28.9642864609
 20
-34.0000004997
 10
29.1071420288
 20
-34.1428572006
 10
29.1071420288
 20
-34.2142861176
 10
29.0357153778
 20
-34.2857139015
 10
28.9642864609
 20
-34.2857139015
 10
28.821428627
 20
-34.2142861176
 10
28.7499997101
 20
-34.1428572006
 10
28.7499997101
 20
-34.0714282837
  0
LINE
  5
2AC
100
AcDbEntity
  8
0
100
AcDbLine
 62
7
  6
CONTINUOUS
 10
-65.5378373009
 20
-64.0619707443
 11
-70.0797060644
 21
-64.3
  0
LINE
  5
2AD
100
AcDbEntity
  8
0
100
AcDbLine
 62
250
  6
CONTINUOUS
 10
-64.7797060644
 20
-62.95
 11
-75.3797060644
 21
-62.95
  0
LINE
  5
2AE
100
AcDbEntity
  8
0
100
AcDbLine
 62
250
  6
CONTINUOUS
 10
-64.6612850117
 20
-62.8033617714
 11
-75.498127117
 21
-62.8033617714
  0
LINE
  5
2AF
100
AcDbEntity
  8
0
100
AcDbLine
 62
250
  6
CONTINUOUS
 10
-64.0297060644
 20
-62.0212912189
 11
-76.1297060644
 21
-62.0212912189
  0
LINE
  5
2B0
100
AcDbEntity
  8
0
100
AcDbLine
 62
250
  6
CONTINUOUS
 10
-69.3397060644
 20
-60.8774747169
 11
-70.8197060644
 21
-60.8774747169
  0
LINE
  5
2B1
100
AcDbEntity
  8
0
100
AcDbLine
 62
7
  6
CONTINUOUS
 10
-74.6215748278
 20
-64.0619707443
 11
-70.0797060644
 21
-64.3
  0
LINE
  5
2B2
100
AcDbEntity
  8
0
100
AcDbLine
 62
250
  6
CONTINUOUS
 10
-69.3397060644
 20
-58.2695674305
 11
-70.8197060644
 21
-58.2695674305
  0
LINE
  5
2B3
100
AcDbEntity
  8
0
100
AcDbLine
 62
7
  6
CONTINUOUS
 10
-62.0797060644
 20
-37.1762575674
 11
-62.0497060644
 21
-37.1762575674
  0
LINE
  5
2B4
100
AcDbEntity
  8
0
100
AcDbLine
 62
250
  6
CONTINUOUS
 10
-62.0797060644
 20
-33.1
 11
-78.0797060644
 21
-33.1
  0
LINE
  5
2B5
100
AcDbEntity
  8
0
100
AcDbLine
 62
7
  6
CONTINUOUS
 10
-62.0797060644
 20
-31.0
 11
-62.0297060644
 21
-31.0
  0
LINE
  5
2B6
100
AcDbEntity
  8
0
100
AcDbLine
 62
7
  6
CONTINUOUS
 10
-62.0797060644
 20
-30.5500120352
 11
-62.0297060644
 21
-30.5500120352
  0
LINE
  5
2B7
100
AcDbEntity
  8
0
100
AcDbLine
 62
7
  6
CONTINUOUS
 10
-62.0797060644
 20
-25.4500119648
 11
-62.0297060644
 21
-25.4500119648
  0
LINE
  5
2B8
100
AcDbEntity
  8
0
100
AcDbLine
 62
7
  6
CONTINUOUS
 10
-62.0797060644
 20
-24.116719
 11
-62.0297060644
 21
-24.116719
  0
LINE
  5
2B9
100
AcDbEntity
  8
0
100
AcDbLine
 62
7
  6
CONTINUOUS
 10
-62.0797060644
 20
-24.042285
 11
-62.0297060644
 21
-24.042285
  0
LINE
  5
2BA
100
AcDbEntity
  8
0
100
AcDbLine
 62
7
  6
CONTINUOUS
 10
-62.0797060644
 20
-23.999453
 11
-62.0297060644
 21
-23.999453
  0
LINE
  5
2BB
100
AcDbEntity
  8
RACCORDO
100
AcDbLine
 62
7
  6
CONTINUOUS
 10
-62.0611285002
 20
-18.05
 11
-62.0797060644
 21
-18.05
  0
LINE
  5
2BC
100
AcDbEntity
  8
ASSI
100
AcDbLine
 62
7
  6
CONTINUOUS
 10
-62.0611285002
 20
-18.05
 11
-62.0797060644
 21
-18.05
  0
LINE
  5
2BD
100
AcDbEntity
  8
0
100
AcDbLine
 62
7
  6
CONTINUOUS
 10
-61.9015232338
 20
-16.8
 11
-44.1599021616
 21
-16.8
  0
LINE
  5
2BE
100
AcDbEntity
  8
0
100
AcDbLine
 62
7
  6
CONTINUOUS
 10
-51.8364047942
 20
-16.775
 11
-51.3797060644
 21
-16.775
  0
LINE
  5
2BF
100
AcDbEntity
  8
ASSI
100
AcDbLine
 62
7
  6
CONTINUOUS
 10
-61.9010868904
 20
-16.75
 11
-51.8797060644
 21
-16.75
  0
LINE
  5
2C0
100
AcDbEntity
  8
0
100
AcDbLine
 62
7
  6
CONTINUOUS
 10
-51.8797060644
 20
-16.75
 11
-61.9010868904
 21
-16.75
  0
LINE
  5
2C1
100
AcDbEntity
  8
0
100
AcDbLine
 62
7
  6
CONTINUOUS
 10
-78.0797060644
 20
-16.1874031119
 11
-78.1097060644
 21
-16.1874031119
  0
LINE
  5
2C2
100
AcDbEntity
  8
0
100
AcDbLine
 62
7
  6
CONTINUOUS
 10
-78.0797060644
 20
-14.3204662533
 11
-78.1097060644
 21
-14.3204662533
  0
LINE
  5
2C3
100
AcDbEntity
  8
0
100
AcDbLine
 62
7
  6
CONTINUOUS
 10
-78.0797060644
 20
-14.2968326226
 11
-78.1097060644
 21
-14.2968326226
  0
LINE
  5
2C4
100
AcDbEntity
  8
0
100
AcDbLine
 62
250
  6
CONTINUOUS
 10
-78.0797060644
 20
-12.2767270432
 11
-78.1097060644
 21
-12.2767270432
  0
LINE
  5
2C5
100
AcDbEntity
  8
0
100
AcDbLine
 62
7
  6
CONTINUOUS
 10
-78.0797060644
 20
-12.1409643902
 11
-78.1097060644
 21
-12.1409643902
  0
LINE
  5
2C6
100
AcDbEntity
  8
ASSI
100
AcDbLine
 62
7
  6
CONTINUOUS
 10
-61.9010868904
 20
-11.85
 11
-51.8797060644
 21
-11.85
  0
LINE
  5
2C7
100
AcDbEntity
  8
0
100
AcDbLine
 62
7
  6
CONTINUOUS
 10
-51.8797060644
 20
-11.85
 11
-61.9010868904
 21
-11.85
  0
LINE
  5
2C8
100
AcDbEntity
  8
0
100
AcDbLine
 62
7
  6
CONTINUOUS
 10
-51.8364047942
 20
-11.825
 11
-51.3797060644
 21
-11.825
  0
LINE
  5
2C9
100
AcDbEntity
  8
0
100
AcDbLine
 62
7
  6
CONTINUOUS
 10
-61.9015232338
 20
-11.8
 11
-44.1599021616
 21
-11.8
  0
LINE
  5
2CA
100
AcDbEntity
  8
0
100
AcDbLine
 62
250
  6
CONTINUOUS
 10
-78.0797060644
 20
-15.1049904214
 11
-78.1097060644
 21
-15.1049048463
  0
LINE
  5
2CB
100
AcDbEntity
  8
RACCORDO
100
AcDbLine
 62
250
  6
CONTINUOUS
 10
-61.8797060644
 20
-14.3
 11
-62.0297003528
 21
-14.2986364801
  0
LINE
  5
2CC
100
AcDbEntity
  8
0
100
AcDbLine
 62
7
  6
CONTINUOUS
 10
-78.1097060644
 20
-16.1874031119
 11
-78.1097060644
 21
-12.1409496101
  0
LINE
  5
2CD
100
AcDbEntity
  8
0
100
AcDbLine
 62
7
  6
CONTINUOUS
 10
-78.0797060644
 20
-6.8
 11
-78.0797060644
 21
-37.2999756001
  0
LINE
  5
2CE
100
AcDbEntity
  8
0
100
AcDbLine
 62
7
  6
CONTINUOUS
 10
-78.0797060644
 20
-37.3
 11
-78.0819260348
 21
-37.4908484646
  0
LINE
  5
2CF
100
AcDbEntity
  8
0
100
AcDbLine
 62
7
  6
CONTINUOUS
 10
-78.0819260313
 20
-37.4908481932
 11
-78.0846357254
 21
-37.6809510469
  0
LINE
  5
2D0
100
AcDbEntity
  8
0
100
AcDbLine
 62
7
  6
CONTINUOUS
 10
-78.0846357254
 20
-37.6809510469
 11
-78.0878830613
 21
-37.8687704713
  0
LINE
  5
2D1
100
AcDbEntity
  8
0
100
AcDbLine
 62
7
  6
CONTINUOUS
 10
-62.0611285002
 20
-10.55
 11
-62.0797060644
 21
-10.55
  0
LINE
  5
2D2
100
AcDbEntity
  8
0
100
AcDbLine
 62
250
  6
CONTINUOUS
 10
-62.0797060644
 20
-6.8
 11
-78.0797060644
 21
-6.8
  0
LINE
  5
2D3
100
AcDbEntity
  8
0
100
AcDbLine
 62
7
  6
CONTINUOUS
 10
-62.5797060644
 20
-6.3
 11
-77.5797060644
 21
-6.3
  0
LINE
  5
2D4
100
AcDbEntity
  8
0
100
AcDbLine
 62
7
  6
CONTINUOUS
 10
-65.8518752848
 20
-6.25
 11
-64.5075368972
 21
-6.25
  0
LINE
  5
2D5
100
AcDbEntity
  8
0
100
AcDbLine
 62
7
  6
CONTINUOUS
 10
-73.1469714069
 20
-6.2
 11
-67.0124407218
 21
-6.2
  0
LINE
  5
2D6
100
AcDbEntity
  8
0
100
AcDbLine
 62
7
  6
CONTINUOUS
 10
-71.9671091763
 20
-6.15
 11
-67.9225071341
 21
-6.15
  0
LINE
  5
2D7
100
AcDbEntity
  8
0
100
AcDbLine
 62
250
  6
CONTINUOUS
 10
-77.1858077593
 20
-6.8
 11
-77.1858077593
 21
-37.3847313419
  0
LINE
  5
2D8
100
AcDbEntity
  8
0
100
AcDbLine
 62
7
  6
CONTINUOUS
 10
-76.3797060644
 20
-6.3
 11
-76.3797060644
 21
-6.0
  0
LINE
  5
2D9
100
AcDbEntity
  8
0
100
AcDbLine
 62
7
  6
CONTINUOUS
 10
-76.1297060644
 20
-61.20226288
 11
-76.1297060644
 21
-62.0212912189
  0
LINE
  5
2DA
100
AcDbEntity
  8
0
100
AcDbLine
 62
7
  6
CONTINUOUS
 10
-75.3797060644
 20
-62.95
 11
-75.3797060644
 21
-63.2630671189
  0
LINE
  5
2DB
100
AcDbEntity
  8
0
100
AcDbLine
 62
7
  6
CONTINUOUS
 10
-71.9671091763
 20
-6.2
 11
-71.9671091763
 21
-6.15
  0
LINE
  5
2DC
100
AcDbEntity
  8
0
100
AcDbLine
 62
7
  6
CONTINUOUS
 10
-78.0878830694
 20
-37.8687708963
 11
-78.0916963486
 21
-38.0521320468
  0
LINE
  5
2DD
100
AcDbEntity
  8
0
100
AcDbLine
 62
7
  6
CONTINUOUS
 10
-78.091696359
 20
-38.0521325066
 11
-78.0960733552
 21
-38.2284077977
  0
LINE
  5
2DE
100
AcDbEntity
  8
0
100
AcDbLine
 62
7
  6
CONTINUOUS
 10
-78.0960733552
 20
-38.2284077977
 11
-78.100989926
 21
-38.3953304099
  0
LINE
  5
2DF
100
AcDbEntity
  8
0
100
AcDbLine
 62
7
  6
CONTINUOUS
 10
-78.100989926
 20
-38.3953304099
 11
-78.1063663823
 21
-38.5501063988
  0
LINE
  5
2E0
100
AcDbEntity
  8
0
100
AcDbLine
 62
7
  6
CONTINUOUS
 10
-78.1063663823
 20
-38.5501063988
 11
-78.112046652
 21
-38.6895405436
  0
LINE
  5
2E1
100
AcDbEntity
  8
0
100
AcDbLine
 62
7
  6
CONTINUOUS
 10
-78.112046652
 20
-38.6895405436
 11
-78.1139558567
 21
-38.7317811447
  0
LWPOLYLINE
  5
2E2
100
AcDbEntity
  8
0
100
AcDbPolyline
 62
7
  6
CONTINUOUS
 90
3
 70
0
 10
-78.1141061906
 20
-38.7317761735
 10
-78.1380830813
 20
-39.1851773015
 10
-78.1649678368
 20
-39.5923147868
  0
LINE
  5
2E3
100
AcDbEntity
  8
0
100
AcDbLine
 62
7
  6
CONTINUOUS
 10
-78.1624219991
 20
-39.5567070648
 11
-78.1962292124
 21
-39.9935710896
  0
LINE
  5
2E4
100
AcDbEntity
  8
0
100
AcDbLine
 62
7
  6
CONTINUOUS
 10
-78.1927819051
 20
-39.952117355
 11
-78.2322135495
 21
-40.3951690286
  0
LINE
  5
2E5
100
AcDbEntity
  8
0
100
AcDbLine
 62
7
  6
CONTINUOUS
 10
-78.2280668884
 20
-40.3514295903
 11
-78.2721581812
 21
-40.7899924238
  0
LINE
  5
2E6
100
AcDbEntity
  8
0
100
AcDbLine
 62
7
  6
CONTINUOUS
 10
-78.2675435009
 20
-40.7465684565
 11
-78.3172396639
 21
-41.1900504108
  0
LINE
  5
2E7
100
AcDbEntity
  8
0
100
AcDbLine
 62
7
  6
CONTINUOUS
 10
-78.3124786918
 20
-41.1496650574
 11
-78.3676863393
 21
-41.5956399291
  0
LINE
  5
2E8
100
AcDbEntity
  8
0
100
AcDbLine
 62
7
  6
CONTINUOUS
 10
-78.3633137223
 20
-41.5619540054
 11
-78.4234915749
 21
-42.0051549432
  0
LINE
  5
2E9
100
AcDbEntity
  8
0
100
AcDbLine
 62
7
  6
CONTINUOUS
 10
-78.4200235036
 20
-41.9807155212
 11
-78.4861837505
 21
-42.4273525404
  0
LINE
  5
2EA
100
AcDbEntity
  8
0
100
AcDbLine
 62
7
  6
CONTINUOUS
 10
-78.4837825197
 20
-42.4118127348
 11
-78.5566380959
 21
-42.8644274122
  0
LWPOLYLINE
  5
2EB
100
AcDbEntity
  8
0
100
AcDbPolyline
 62
7
  6
CONTINUOUS
 90
5
 70
0
 43
0.3500000006
 10
-64.6199372406
 20
6.1433533173
 10
-64.2627949219
 20
6.3576400681
 10
-64.2627949219
 20
7.0004957886
 10
-64.6199372406
 20
7.4290670242
 10
-65.4770797119
 20
7.4290670242
  0
LINE
  5
2EC
100
AcDbEntity
  8
0
100
AcDbLine
 62
7
  6
CONTINUOUS
 10
-51.8797060644
 20
-16.75
 11
-51.8364047942
 21
-16.775
  0
LINE
  5
2ED
100
AcDbEntity
  8
0
100
AcDbLine
 62
7
  6
CONTINUOUS
 10
-59.6456534159
 20
-52.6899694221
 11
-59.64577416
 21
-52.6894431807
  0
LINE
  5
2EE
100
AcDbEntity
  8
0
100
AcDbLine
 62
7
  6
CONTINUOUS
 10
-59.64577416
 20
-52.6894431807
 11
-59.6464190475
 21
-52.6865770447
  0
LINE
  5
2EF
100
AcDbEntity
  8
0
100
AcDbLine
 62
7
  6
CONTINUOUS
 10
-61.8872539475
 20
-40.7899924238
 11
-61.9313452403
 21
-40.3514295903
  0
LINE
  5
2F0
100
AcDbEntity
  8
0
100
AcDbLine
 62
7
  6
CONTINUOUS
 10
-61.9271985792
 20
-40.3951690286
 11
-61.9666302236
 21
-39.952117355
  0
LINE
  5
2F1
100
AcDbEntity
  8
0
100
AcDbLine
 62
7
  6
CONTINUOUS
 10
-70.2286160553
 20
-6.4678613886
 11
-70.2297060644
 21
-6.3
  0
LINE
  5
2F2
100
AcDbEntity
  8
0
100
AcDbLine
 62
250
  6
CONTINUOUS
 10
-70.8846109107
 20
-6.2
 11
-70.8846109107
 21
-6.15
  0
LINE
  5
2F3
100
AcDbEntity
  8
0
100
AcDbLine
 62
250
  6
CONTINUOUS
 10
-70.8197060644
 20
-6.3
 11
-70.8195708804
 21
-61.1424047699
  0
LINE
  5
2F4
100
AcDbEntity
  8
0
100
AcDbLine
 62
7
  6
CONTINUOUS
 10
-70.1001723177
 20
-6.2
 11
-70.1001723177
 21
-6.15
  0
LINE
  5
2F5
100
AcDbEntity
  8
0
100
AcDbLine
 62
7
  6
CONTINUOUS
 10
-70.0797060644
 20
-6.5
 11
-70.0797060644
 21
-64.3
  0
LINE
  5
2F6
100
AcDbEntity
  8
0
100
AcDbLine
 62
7
  6
CONTINUOUS
 10
-70.076538687
 20
-6.2
 11
-70.076538687
 21
-6.15
  0
LINE
  5
2F7
100
AcDbEntity
  8
0
100
AcDbLine
 62
250
  6
CONTINUOUS
 10
-68.0564331075
 20
-6.2
 11
-68.0564331075
 21
-6.15
  0
LINE
  5
2F8
100
AcDbEntity
  8
0
100
AcDbLine
 62
7
  6
CONTINUOUS
 10
-67.9224373914
 20
-6.2
 11
-67.9224373914
 21
-6.15
  0
LINE
  5
2F9
100
AcDbEntity
  8
0
100
AcDbLine
 62
7
  6
CONTINUOUS
 10
-65.8518752848
 20
-6.3
 11
-65.8518752848
 21
-6.25
  0
LINE
  5
2FA
100
AcDbEntity
  8
0
100
AcDbLine
 62
7
  6
CONTINUOUS
 10
-65.8350267207
 20
-6.3
 11
-65.8350267207
 21
-6.25
  0
LINE
  5
2FB
100
AcDbEntity
  8
0
100
AcDbLine
 62
250
  6
CONTINUOUS
 10
-65.6611942958
 20
-6.3
 11
-65.6611942958
 21
-6.25
  0
LINE
  5
2FC
100
AcDbEntity
  8
0
100
AcDbLine
 62
7
  6
CONTINUOUS
 10
-65.5086965178
 20
-6.3
 11
-65.5086965178
 21
-6.25
  0
LINE
  5
2FD
100
AcDbEntity
  8
0
100
AcDbLine
 62
250
  6
CONTINUOUS
 10
-69.3398412483
 20
-61.1424047699
 11
-69.3397060644
 21
-6.3
  0
LINE
  5
2FE
100
AcDbEntity
  8
0
100
AcDbLine
 62
7
  6
CONTINUOUS
 10
-69.9307960734
 20
-6.4678613886
 11
-69.9297060644
 21
-6.3
  0
LINE
  5
2FF
100
AcDbEntity
  8
0
100
AcDbLine
 62
7
  6
CONTINUOUS
 10
-78.5553085106
 20
-42.8564847764
 11
-78.6347236998
 21
-43.3121742769
  0
LINE
  5
300
100
AcDbEntity
  8
0
100
AcDbLine
 62
7
  6
CONTINUOUS
 10
-78.6345939018
 20
-43.31145894
 11
-78.707521216
 21
-43.7020927467
  0
LINE
  5
301
100
AcDbEntity
  8
0
100
AcDbLine
 62
7
  6
CONTINUOUS
 10
-78.7075088754
 20
-43.7020402799
 11
-78.7933587772
 21
-44.1465081923
  0
LINE
  5
302
100
AcDbEntity
  8
0
100
AcDbLine
 62
7
  6
CONTINUOUS
 10
-78.7933587772
 20
-44.1465081923
 11
-78.9048046949
 21
-44.719326758
  0
LINE
  5
303
100
AcDbEntity
  8
0
100
AcDbLine
 62
7
  6
CONTINUOUS
 10
-78.9048046949
 20
-44.719326758
 11
-78.9356432576
 21
-44.8772651419
  0
LWPOLYLINE
  5
304
100
AcDbEntity
  8
0
100
AcDbPolyline
 62
7
  6
CONTINUOUS
 90
3
 70
0
 10
-80.2976956862
 20
-51.5966232616
 10
-80.302677523
 20
-51.6220876686
 10
-80.406445741
 20
-52.1528547892
  0
LINE
  5
305
100
AcDbEntity
  8
0
100
AcDbLine
 62
7
  6
CONTINUOUS
 10
-80.406445741
 20
-52.1528547892
 11
-80.4097972903
 21
-52.1699858271
  0
LWPOLYLINE
  5
306
100
AcDbEntity
  8
0
100
AcDbPolyline
 62
7
  6
CONTINUOUS
 90
3
 70
0
 10
-80.4097972903
 20
-52.1699858271
 10
-80.4163245391
 20
-52.2033375246
 10
-80.4195006571
 20
-52.2195595519
  0
LWPOLYLINE
  5
307
100
AcDbEntity
  8
0
100
AcDbPolyline
 62
7
  6
CONTINUOUS
 90
4
 70
0
 10
-80.2770906933
 20
-51.4913525239
 10
-80.2823444567
 20
-51.5181840047
 10
-80.2875295765
 20
-51.5446722509
 10
-80.2976956862
 20
-51.5966232616
  0
LINE
  5
308
100
AcDbEntity
  8
0
100
AcDbLine
 62
7
  6
CONTINUOUS
 10
-80.4195006571
 20
-52.2195595519
 11
-80.4256796841
 21
-52.2511032341
  0
LINE
  5
309
100
AcDbEntity
  8
0
100
AcDbLine
 62
7
  6
CONTINUOUS
 10
-80.2663739422
 20
-51.4366475299
 11
-80.2770906933
 21
-51.4913525239
  0
LINE
  5
30A
100
AcDbEntity
  8
0
100
AcDbLine
 62
7
  6
CONTINUOUS
 10
-80.2553760728
 20
-51.3805490157
 11
-80.2663739422
 21
-51.4366475299
  0
LINE
  5
30B
100
AcDbEntity
  8
0
100
AcDbLine
 62
7
  6
CONTINUOUS
 10
-80.4256796841
 20
-52.2511032341
 11
-80.4316298187
 21
-52.2814543491
  0
LINE
  5
30C
100
AcDbEntity
  8
0
100
AcDbLine
 62
7
  6
CONTINUOUS
 10
-80.4316298187
 20
-52.2814543491
 11
-80.4373541469
 21
-52.3106256389
  0
LINE
  5
30D
100
AcDbEntity
  8
0
100
AcDbLine
 62
7
  6
CONTINUOUS
 10
-78.9356432576
 20
-44.8772651419
 11
-79.0402871468
 21
-45.4109360203
  0
LINE
  5
30E
100
AcDbEntity
  8
0
100
AcDbLine
 62
7
  6
CONTINUOUS
 10
-80.4373541469
 20
-52.3106256389
 11
-80.4481366503
 21
-52.3654751418
  0
LINE
  5
30F
100
AcDbEntity
  8
0
100
AcDbLine
 62
7
  6
CONTINUOUS
 10
-79.0402871468
 20
-45.4109360203
 11
-79.1261665518
 21
-45.8457541129
  0
LINE
  5
310
100
AcDbEntity
  8
0
100
AcDbLine
 62
7
  6
CONTINUOUS
 10
-79.1261665518
 20
-45.8457541129
 11
-79.2087980456
 21
-46.2610941611
  0
LINE
  5
311
100
AcDbEntity
  8
0
100
AcDbLine
 62
7
  6
CONTINUOUS
 10
-80.1692609359
 20
-50.946043567
 11
-80.2553760728
 21
-51.3805490157
  0
LINE
  5
312
100
AcDbEntity
  8
0
100
AcDbLine
 62
7
  6
CONTINUOUS
 10
-80.4481366503
 20
-52.3654751418
 11
-80.4845710707
 21
-52.5490171739
  0
LINE
  5
313
100
AcDbEntity
  8
0
100
AcDbLine
 62
7
  6
CONTINUOUS
 10
-79.2087980456
 20
-46.2610941611
 11
-79.3013635249
 21
-46.7229480761
  0
LINE
  5
314
100
AcDbEntity
  8
0
100
AcDbLine
 62
7
  6
CONTINUOUS
 10
-79.3013635249
 20
-46.7229480761
 11
-79.3900688567
 21
-47.1624214083
  0
LINE
  5
315
100
AcDbEntity
  8
0
100
AcDbLine
 62
7
  6
CONTINUOUS
 10
-79.3900688567
 20
-47.1624214083
 11
-79.414740674
 21
-47.2841463846
  0
LINE
  5
316
100
AcDbEntity
  8
0
100
AcDbLine
 62
7
  6
CONTINUOUS
 10
-79.414740674
 20
-47.2841463846
 11
-79.5106195415
 21
-47.7551757771
  0
LINE
  5
317
100
AcDbEntity
  8
0
100
AcDbLine
 62
7
  6
CONTINUOUS
 10
-80.0511736984
 20
-50.3645756232
 11
-80.1692609359
 21
-50.946043567
  0
LINE
  5
318
100
AcDbEntity
  8
0
100
AcDbLine
 62
7
  6
CONTINUOUS
 10
-79.5106195415
 20
-47.7551757771
 11
-79.5797487493
 21
-48.0928299402
  0
LINE
  5
319
100
AcDbEntity
  8
0
100
AcDbLine
 62
7
  6
CONTINUOUS
 10
-80.4845710707
 20
-52.5490171739
 11
-80.5005300772
 21
-52.6276033448
  0
LINE
  5
31A
100
AcDbEntity
  8
0
100
AcDbLine
 62
7
  6
CONTINUOUS
 10
-79.5797487493
 20
-48.0928299402
 11
-79.6576242327
 21
-48.471264084
  0
LINE
  5
31B
100
AcDbEntity
  8
0
100
AcDbLine
 62
7
  6
CONTINUOUS
 10
-79.6576242327
 20
-48.471264084
 11
-79.7114901037
 21
-48.731888453
  0
LINE
  5
31C
100
AcDbEntity
  8
0
100
AcDbLine
 62
7
  6
CONTINUOUS
 10
-79.7114901037
 20
-48.731888453
 11
-79.7430884249
 21
-48.8843668364
  0
LINE
  5
31D
100
AcDbEntity
  8
0
100
AcDbLine
 62
7
  6
CONTINUOUS
 10
-79.7430884249
 20
-48.8843668364
 11
-79.7843566824
 21
-49.0830699097
  0
LINE
  5
31E
100
AcDbEntity
  8
0
100
AcDbLine
 62
7
  6
CONTINUOUS
 10
-79.7843566824
 20
-49.0830699097
 11
-79.8146453008
 21
-49.228602194
  0
LINE
  5
31F
100
AcDbEntity
  8
0
100
AcDbLine
 62
7
  6
CONTINUOUS
 10
-79.8146453008
 20
-49.228602194
 11
-79.8345143537
 21
-49.3239372908
  0
LINE
  5
320
100
AcDbEntity
  8
0
100
AcDbLine
 62
7
  6
CONTINUOUS
 10
-79.8345143537
 20
-49.3239372908
 11
-79.8638264739
 21
-49.4643948841
  0
LINE
  5
321
100
AcDbEntity
  8
0
100
AcDbLine
 62
7
  6
CONTINUOUS
 10
-79.8638264739
 20
-49.4643948841
 11
-79.8925502861
 21
-49.6018036572
  0
LINE
  5
322
100
AcDbEntity
  8
0
100
AcDbLine
 62
7
  6
CONTINUOUS
 10
-79.9299713461
 20
-49.7805106734
 11
-80.0511736984
 21
-50.3645756232
  0
LWPOLYLINE
  5
323
100
AcDbEntity
  8
0
100
AcDbPolyline
 62
7
  6
CONTINUOUS
 90
3
 70
0
 10
-79.8925502861
 20
-49.6018036572
 10
-79.9113826332
 20
-49.6917604566
 10
-79.9299713461
 20
-49.7805106734
  0
LINE
  5
324
100
AcDbEntity
  8
0
100
AcDbLine
 62
7
  6
CONTINUOUS
 10
-80.5005300772
 20
-52.6276033448
 11
-80.5076478333
 21
-52.66177994
  0
LINE
  5
325
100
AcDbEntity
  8
0
100
AcDbLine
 62
7
  6
CONTINUOUS
 10
-80.5076478333
 20
-52.66177994
 11
-80.5112160965
 21
-52.6784776821
  0
LINE
  5
326
100
AcDbEntity
  8
0
100
AcDbLine
 62
7
  6
CONTINUOUS
 10
-80.5112160965
 20
-52.6784776821
 11
-80.5126811318
 21
-52.6851720616
  0
LINE
  5
327
100
AcDbEntity
  8
0
100
AcDbLine
 62
7
  6
CONTINUOUS
 10
-80.5126811318
 20
-52.6851720616
 11
-80.5131731049
 21
-52.6873832343
  0
LWPOLYLINE
  5
328
100
AcDbEntity
  8
0
100
AcDbPolyline
 62
7
  6
CONTINUOUS
 90
3
 70
0
 43
0.3500000006
 10
-59.262793396
 20
6.5719245529
 10
-58.4056509247
 20
7.4290670242
 10
-58.4056509247
 20
4.4290683746
  0
LWPOLYLINE
  5
329
100
AcDbEntity
  8
0
100
AcDbPolyline
 62
7
  6
CONTINUOUS
 90
6
 70
0
 43
0.3500000006
 10
-65.4770797119
 20
4.4290683746
 10
-64.4056527557
 20
4.4290683746
 10
-64.191363739
 20
4.6433528595
 10
-64.191363739
 20
5.7147820816
 10
-64.6199372406
 20
6.1433533173
 10
-65.0485062103
 20
6.1433533173
  0
LINE
  5
32A
100
AcDbEntity
  8
0
100
AcDbLine
 62
7
  6
CONTINUOUS
 10
-59.6464190475
 20
-52.6865770447
 11
-59.6479994752
 21
-52.6793831863
  0
LINE
  5
32B
100
AcDbEntity
  8
0
100
AcDbLine
 62
7
  6
CONTINUOUS
 10
-59.6479994752
 20
-52.6793831863
 11
-59.6509777163
 21
-52.6654953928
  0
LINE
  5
32C
100
AcDbEntity
  8
0
100
AcDbLine
 62
7
  6
CONTINUOUS
 10
-60.2251110694
 20
-49.8012149327
 11
-60.2583611777
 21
-49.6424210074
  0
LINE
  5
32D
100
AcDbEntity
  8
0
100
AcDbLine
 62
7
  6
CONTINUOUS
 10
-60.2469664939
 20
-49.6968429126
 11
-60.2580596426
 21
-49.6438549259
  0
LINE
  5
32E
100
AcDbEntity
  8
0
100
AcDbLine
 62
7
  6
CONTINUOUS
 10
-60.2580596426
 20
-49.6438549259
 11
-60.3035134169
 21
-49.4264151064
  0
LINE
  5
32F
100
AcDbEntity
  8
0
100
AcDbLine
 62
7
  6
CONTINUOUS
 10
-60.2923002712
 20
-49.4801234583
 11
-60.3038343054
 21
-49.4248920194
  0
LINE
  5
330
100
AcDbEntity
  8
0
100
AcDbLine
 62
7
  6
CONTINUOUS
 10
-60.3035134169
 20
-49.4264151064
 11
-60.3510763687
 21
-49.198306343
  0
LINE
  5
331
100
AcDbEntity
  8
0
100
AcDbLine
 62
7
  6
CONTINUOUS
 10
-59.6509756695
 20
-52.6655049414
 11
-59.6569120793
 21
-52.6371428552
  0
LINE
  5
332
100
AcDbEntity
  8
0
100
AcDbLine
 62
7
  6
CONTINUOUS
 10
-60.3507308609
 20
-49.1999722096
 11
-60.4251525186
 21
-48.841792813
  0
LINE
  5
333
100
AcDbEntity
  8
0
100
AcDbLine
 62
7
  6
CONTINUOUS
 10
-60.4247596335
 20
-48.8436859569
 11
-60.529527096
 21
-48.3366957974
  0
LINE
  5
334
100
AcDbEntity
  8
0
100
AcDbLine
 62
7
  6
CONTINUOUS
 10
-60.0871800129
 20
-50.4673147281
 11
-60.225385601
 21
-49.7998769418
  0
LINE
  5
335
100
AcDbEntity
  8
0
100
AcDbLine
 62
7
  6
CONTINUOUS
 10
-60.5290656335
 20
-48.3389370963
 11
-60.6258854443
 21
-47.8672446355
  0
LINE
  5
336
100
AcDbEntity
  8
0
100
AcDbLine
 62
7
  6
CONTINUOUS
 10
-60.6253571007
 20
-47.8698271638
 11
-60.7272602443
 21
-47.3699203917
  0
LINE
  5
337
100
AcDbEntity
  8
0
100
AcDbLine
 62
7
  6
CONTINUOUS
 10
-59.6569120793
 20
-52.6371428552
 11
-59.669098567
 21
-52.577502793
  0
LINE
  5
338
100
AcDbEntity
  8
0
100
AcDbLine
 62
7
  6
CONTINUOUS
 10
-60.7266597796
 20
-47.372876524
 11
-60.8184637755
 21
-46.9194235226
  0
LINE
  5
339
100
AcDbEntity
  8
0
100
AcDbLine
 62
7
  6
CONTINUOUS
 10
-60.004493273
 20
-50.8746838445
 11
-60.1236304698
 21
-50.2897083199
  0
LINE
  5
33A
100
AcDbEntity
  8
0
100
AcDbLine
 62
7
  6
CONTINUOUS
 10
-60.8177971978
 20
-46.9227268867
 11
-60.9139225475
 21
-46.4445843378
  0
LINE
  5
33B
100
AcDbEntity
  8
0
100
AcDbLine
 62
7
  6
CONTINUOUS
 10
-60.9131856229
 20
-46.4482638891
 11
-60.9969115362
 21
-46.0287521939
  0
LINE
  5
33C
100
AcDbEntity
  8
0
100
AcDbLine
 62
7
  6
CONTINUOUS
 10
-59.669098567
 20
-52.577502793
 11
-59.7005093047
 21
-52.4200658553
  0
LINE
  5
33D
100
AcDbEntity
  8
0
100
AcDbLine
 62
7
  6
CONTINUOUS
 10
-60.9961126498
 20
-46.0327691316
 11
-61.0832099721
 21
-45.59315814
  0
LINE
  5
33E
100
AcDbEntity
  8
0
100
AcDbLine
 62
7
  6
CONTINUOUS
 10
-59.9270748353
 20
-51.2632553268
 11
-60.0120326537
 21
-50.8372591065
  0
LINE
  5
33F
100
AcDbEntity
  8
0
100
AcDbLine
 62
7
  6
CONTINUOUS
 10
-59.7005093047
 20
-52.4200658553
 11
-59.7125744234
 21
-52.3588754222
  0
LINE
  5
340
100
AcDbEntity
  8
0
100
AcDbLine
 62
7
  6
CONTINUOUS
 10
-59.7125744234
 20
-52.3588754222
 11
-59.7204971646
 21
-52.3185736869
  0
LINE
  5
341
100
AcDbEntity
  8
0
100
AcDbLine
 62
7
  6
CONTINUOUS
 10
-61.0823457118
 20
-45.5975367673
 11
-61.1730231367
 21
-45.136537361
  0
LINE
  5
342
100
AcDbEntity
  8
0
100
AcDbLine
 62
7
  6
CONTINUOUS
 10
-59.9085292979
 20
-51.3576450193
 11
-59.9272138467
 21
-51.2625779011
  0
LWPOLYLINE
  5
343
100
AcDbEntity
  8
0
100
AcDbPolyline
 62
7
  6
CONTINUOUS
 90
3
 70
0
 10
-59.7204971646
 20
-52.3185736869
 10
-59.7289564542
 20
-52.2754670754
 10
-59.7318988387
 20
-52.2604589668
  0
LINE
  5
344
100
AcDbEntity
  8
0
100
AcDbLine
 62
7
  6
CONTINUOUS
 10
-59.9023826569
 20
-51.3889792442
 11
-59.9145130433
 21
-51.3271458522
  0
LINE
  5
345
100
AcDbEntity
  8
0
100
AcDbLine
 62
7
  6
CONTINUOUS
 10
-59.8965918338
 20
-51.4185160562
 11
-59.9025109365
 21
-51.388325633
  0
LINE
  5
346
100
AcDbEntity
  8
0
100
AcDbLine
 62
7
  6
CONTINUOUS
 10
-59.8906562775
 20
-51.4488177036
 11
-59.9023826569
 21
-51.3889792442
  0
LINE
  5
347
100
AcDbEntity
  8
0
100
AcDbLine
 62
7
  6
CONTINUOUS
 10
-59.7318988387
 20
-52.2604589668
 11
-59.7379719307
 21
-52.2294633666
  0
LINE
  5
348
100
AcDbEntity
  8
0
100
AcDbLine
 62
7
  6
CONTINUOUS
 10
-59.8849323225
 20
-51.478037958
 11
-59.8907700206
 21
-51.4482224995
  0
LINE
  5
349
100
AcDbEntity
  8
0
100
AcDbLine
 62
7
  6
CONTINUOUS
 10
-59.8737476137
 20
-51.5351555339
 11
-59.8850399257
 21
-51.4774721452
  0
LWPOLYLINE
  5
34A
100
AcDbEntity
  8
0
100
AcDbPolyline
 62
7
  6
CONTINUOUS
 90
4
 70
0
 10
-59.7379719307
 20
-52.2294633666
 10
-59.7443010047
 20
-52.1971391726
 10
-59.7475634384
 20
-52.1804699766
 10
-59.7508919643
 20
-52.1634589262
  0
LWPOLYLINE
  5
34B
100
AcDbEntity
  8
0
100
AcDbPolyline
 62
7
  6
CONTINUOUS
 90
4
 70
0
 10
-59.8576218294
 20
-51.6175509734
 10
-59.8629115677
 20
-51.5905174149
 10
-59.8682865679
 20
-51.5630533722
 10
-59.8737476137
 20
-51.5351555339
  0
LWPOLYLINE
  5
34C
100
AcDbEntity
  8
0
100
AcDbPolyline
 62
7
  6
CONTINUOUS
 90
4
 70
0
 10
-59.8577189628
 20
-51.6170559484
 10
-59.8630086163
 20
-51.5900189257
 10
-59.8683843071
 20
-51.5625467171
 10
-59.8738474993
 20
-51.5346334954
  0
LWPOLYLINE
  5
34D
100
AcDbEntity
  8
0
100
AcDbPolyline
 62
7
  6
CONTINUOUS
 90
3
 70
0
 10
-59.750948342
 20
-52.1631702132
 10
-59.7578100764
 20
-52.1280910555
 10
-59.7613429127
 20
-52.1100254431
  0
LINE
  5
34E
100
AcDbEntity
  8
0
100
AcDbLine
 62
7
  6
CONTINUOUS
 10
-59.8422544128
 20
-51.6961115132
 11
-59.8577189628
 21
-51.6170559484
  0
LINE
  5
34F
100
AcDbEntity
  8
0
100
AcDbLine
 62
7
  6
CONTINUOUS
 10
-59.7612815345
 20
-52.1103393665
 11
-59.7649446168
 21
-52.0916049439
  0
LINE
  5
350
100
AcDbEntity
  8
0
100
AcDbLine
 62
7
  6
CONTINUOUS
 10
-59.7648816795
 20
-52.0919266278
 11
-59.7686159808
 21
-52.0728257829
  0
LINE
  5
351
100
AcDbEntity
  8
0
100
AcDbLine
 62
7
  6
CONTINUOUS
 10
-59.7685515501
 20
-52.0731549147
 11
-59.842349735
 21
-51.6956295171
  0
LINE
  5
352
100
AcDbEntity
  8
0
100
AcDbLine
 62
7
  6
CONTINUOUS
 10
-61.1720893095
 20
-45.1413005329
 11
-61.285810462
 21
-44.5592722092
  0
LINE
  5
353
100
AcDbEntity
  8
0
100
AcDbLine
 62
7
  6
CONTINUOUS
 10
-61.284787009
 20
-44.5645261564
 11
-61.3842683555
 21
-44.0525092601
  0
LINE
  5
354
100
AcDbEntity
  8
0
100
AcDbLine
 62
7
  6
CONTINUOUS
 10
-61.3831657646
 20
-44.0582029361
 11
-61.4519031802
 21
-43.7020401749
  0
LINE
  5
355
100
AcDbEntity
  8
0
100
AcDbLine
 62
7
  6
CONTINUOUS
 10
-61.4518909127
 20
-43.7020927467
 11
-61.5248182269
 21
-43.31145894
  0
LINE
  5
356
100
AcDbEntity
  8
0
100
AcDbLine
 62
7
  6
CONTINUOUS
 10
-61.5246884289
 20
-43.3121742769
 11
-61.6041036181
 21
-42.8564847764
  0
LINE
  5
357
100
AcDbEntity
  8
0
100
AcDbLine
 62
7
  6
CONTINUOUS
 10
-61.6027740328
 20
-42.8644274122
 11
-61.675629609
 21
-42.4118127348
  0
LINE
  5
358
100
AcDbEntity
  8
0
100
AcDbLine
 62
7
  6
CONTINUOUS
 10
-61.6732283782
 20
-42.4273525404
 11
-61.7393886251
 21
-41.9807155212
  0
LINE
  5
359
100
AcDbEntity
  8
0
100
AcDbLine
 62
7
  6
CONTINUOUS
 10
-61.7359205538
 20
-42.0051549432
 11
-61.7960984064
 21
-41.5619540054
  0
LINE
  5
35A
100
AcDbEntity
  8
0
100
AcDbLine
 62
7
  6
CONTINUOUS
 10
-61.7917257894
 20
-41.5956399291
 11
-61.8469334369
 21
-41.1496650574
  0
LINE
  5
35B
100
AcDbEntity
  8
0
100
AcDbLine
 62
7
  6
CONTINUOUS
 10
-61.8421724648
 20
-41.1900504108
 11
-61.8918686278
 21
-40.7465684565
  0
LINE
  5
35C
100
AcDbEntity
  8
0
100
AcDbLine
 62
7
  6
CONTINUOUS
 10
-61.9631829164
 20
-39.9935710896
 11
-61.9969901296
 21
-39.5567070648
  0
LINE
  5
35D
100
AcDbEntity
  8
0
100
AcDbLine
 62
7
  6
CONTINUOUS
 10
-61.9944442919
 20
-39.5923147868
 11
-62.021219328
 21
-39.1868388702
  0
LINE
  5
35E
100
AcDbEntity
  8
0
100
AcDbLine
 62
7
  6
CONTINUOUS
 10
-62.021219328
 20
-39.1868388702
 11
-62.0452709676
 21
-38.7324374631
  0
LWPOLYLINE
  5
35F
100
AcDbEntity
  8
0
100
AcDbPolyline
 62
7
  6
CONTINUOUS
 90
11
 70
0
 10
-62.0454255983
 20
-38.7324424842
 10
-62.0519790531
 20
-38.5779991656
 10
-62.0556090224
 20
-38.4794439555
 10
-62.0592216133
 20
-38.3700348209
 10
-62.0627528057
 20
-38.2498331221
 10
-62.0661589437
 20
-38.1184009922
 10
-62.0693904495
 20
-37.9756590691
 10
-62.0723879035
 20
-37.8224367709
 10
-62.0751172296
 20
-37.6589991414
 10
-62.0775624642
 20
-37.4849000053
 10
-62.0797056024
 20
-37.3000442256
  0
LINE
  5
360
100
AcDbEntity
  8
RACCORDO
100
AcDbLine
 62
7
  6
CONTINUOUS
 10
-61.9111342117
 20
-10.6986910197
 11
-61.8797060644
 21
-14.3
  0
LINE
  5
361
100
AcDbEntity
  8
0
100
AcDbLine
 62
7
  6
CONTINUOUS
 10
-65.3543991124
 20
-6.3
 11
-65.3543991124
 21
-6.25
  0
LINE
  5
362
100
AcDbEntity
  8
0
100
AcDbLine
 62
7
  6
CONTINUOUS
 10
-64.7797060644
 20
-63.2630671189
 11
-64.7797060644
 21
-62.95
  0
LINE
  5
363
100
AcDbEntity
  8
0
100
AcDbLine
 62
7
  6
CONTINUOUS
 10
-64.5297060644
 20
-6.3
 11
-64.5297060644
 21
-6.25
  0
LINE
  5
364
100
AcDbEntity
  8
0
100
AcDbLine
 62
7
  6
CONTINUOUS
 10
-64.5075368972
 20
-6.3
 11
-64.5075368972
 21
-6.25
  0
LINE
  5
365
100
AcDbEntity
  8
0
100
AcDbLine
 62
7
  6
CONTINUOUS
 10
-64.0297060644
 20
-62.0212912189
 11
-64.0297060644
 21
-61.20226288
  0
LINE
  5
366
100
AcDbEntity
  8
0
100
AcDbLine
 62
7
  6
CONTINUOUS
 10
-63.7797060644
 20
-6.3
 11
-63.7797060644
 21
-6.0
  0
LWPOLYLINE
  5
367
100
AcDbEntity
  8
0
100
AcDbPolyline
 62
7
  6
CONTINUOUS
 90
4
 70
0
 43
0.3500000006
 10
-63.3342212677
 20
4.8576396103
 10
-63.3342212677
 20
5.7147820816
 10
-62.905652298
 20
6.1433533173
 10
-62.2627943115
 20
6.1433533173
  0
LINE
  5
368
100
AcDbEntity
  8
0
100
AcDbLine
 62
250
  6
CONTINUOUS
 10
-62.9736043694
 20
-6.8
 11
-62.9736043694
 21
-37.3847313419
  0
LINE
  5
369
100
AcDbEntity
  8
0
100
AcDbLine
 62
7
  6
CONTINUOUS
 10
-62.0797060644
 20
-6.8
 11
-62.0797060644
 21
-37.2999756001
  0
LINE
  5
36A
100
AcDbEntity
  8
0
100
AcDbLine
 62
7
  6
CONTINUOUS
 10
-62.0497060644
 20
-38.6337123647
 11
-62.0497060644
 21
-37.1762773433
  0
LINE
  5
36B
100
AcDbEntity
  8
0
100
AcDbLine
 62
7
  6
CONTINUOUS
 10
-62.0297060644
 20
-23.999453
 11
-62.0297060644
 21
-25.449256
  0
LINE
  5
36C
100
AcDbEntity
  8
0
100
AcDbLine
 62
7
  6
CONTINUOUS
 10
-62.0297060644
 20
-25.4500453672
 11
-62.0297060644
 21
-31.0
  0
LINE
  5
36D
100
AcDbEntity
  8
RACCORDO
100
AcDbLine
 62
7
  6
CONTINUOUS
 10
-61.8797060644
 20
-14.3
 11
-61.9111342117
 21
-17.9013089803
  0
LWPOLYLINE
  5
36E
100
AcDbEntity
  8
0
100
AcDbPolyline
 62
7
  6
CONTINUOUS
 90
3
 70
0
 43
0.3500000006
 10
-60.2627937012
 20
4.7147817764
 10
-60.3342203522
 20
4.5004972916
 10
-60.477078186
 20
4.2147816238
  0
LWPOLYLINE
  5
36F
100
AcDbEntity
  8
0
100
AcDbPolyline
 62
7
  6
CONTINUOUS
 90
13
 70
0
 43
0.3500000006
 10
-62.905652298
 20
6.1433533173
 10
-63.1913634338
 20
6.3576400681
 10
-63.1913634338
 20
7.0004957886
 10
-62.905652298
 20
7.4290670242
 10
-62.2627943115
 20
7.4290670242
 10
-61.9770786438
 20
7.0004957886
 10
-61.9770786438
 20
6.3576400681
 10
-62.2627943115
 20
6.1433533173
 10
-61.8342208099
 20
5.7147820816
 10
-61.8342208099
 20
4.8576396103
 10
-62.2627943115
 20
4.4290683746
 10
-62.905652298
 20
4.4290683746
 10
-63.3342212677
 20
4.8576396103
  0
LWPOLYLINE
  5
370
100
AcDbEntity
  8
0
100
AcDbPolyline
 62
7
  6
CONTINUOUS
 90
10
 70
0
 43
0.3500000006
 10
-60.3342203522
 20
4.9290685272
 10
-60.2627937012
 20
4.7862106934
 10
-60.2627937012
 20
4.7147817764
 10
-60.405651535
 20
4.5719239426
 10
-60.477078186
 20
4.5719239426
 10
-60.5485093689
 20
4.6433528595
 10
-60.5485093689
 20
4.7147817764
 10
-60.477078186
 20
4.8576396103
 10
-60.405651535
 20
4.9290685272
 10
-60.3342203522
 20
4.9290685272
  0
LINE
  5
371
100
AcDbEntity
  8
0
100
AcDbLine
 62
7
  6
CONTINUOUS
 10
-51.8797060644
 20
-11.85
 11
-51.8797060644
 21
-16.75
  0
LINE
  5
372
100
AcDbEntity
  8
0
100
AcDbLine
 62
7
  6
CONTINUOUS
 10
-51.8364047942
 20
-16.775
 11
-51.8364047942
 21
-11.825
  0
LINE
  5
373
100
AcDbEntity
  8
0
100
AcDbLine
 62
7
  6
CONTINUOUS
 10
-51.3797060644
 20
-11.8
 11
-51.3797060644
 21
-16.8
  0
LINE
  5
374
100
AcDbEntity
  8
0
100
AcDbLine
 62
7
  6
CONTINUOUS
 10
-51.8797060644
 20
-11.85
 11
-51.8364047942
 21
-11.825
  0
LINE
  5
375
100
AcDbEntity
  8
0
100
AcDbLine
 62
7
  6
CONTINUOUS
 10
-44.5599021616
 20
-16.8
 11
-44.5599021616
 21
-11.8
  0
LINE
  5
376
100
AcDbEntity
  8
0
100
AcDbLine
 62
7
  6
CONTINUOUS
 10
-44.1599021616
 20
-16.5963294695
 11
-44.1599021616
 21
-16.8
  0
LINE
  5
377
100
AcDbEntity
  8
0
100
AcDbLine
 62
7
  6
CONTINUOUS
 10
-44.1599021616
 20
-12.0036705305
 11
-44.1599021616
 21
-11.8
  0
ARC
  5
378
100
AcDbEntity
  8
0
100
AcDbCircle
 62
250
  6
CONTINUOUS
 10
-334.0598998032
 20
-52.631495282
 40
334.0602401492
100
AcDbArc
 50
359.9182126248
 51
0.0817872587
  0
ARC
  5
379
100
AcDbEntity
  8
0
100
AcDbCircle
 62
7
  6
CONTINUOUS
 10
-1.6405781101
 20
-313.5863389688
 40
273.5584345207
100
AcDbArc
 50
89.8962112729
 51
90.0438329248
  0
ARC
  5
37A
100
AcDbEntity
  8
0
100
AcDbCircle
 62
7
  6
CONTINUOUS
 10
-12.8423317692
 20
-105.364189289
 40
67.4126885511
100
AcDbArc
 50
77.4116980393
 51
77.972229313
  0
ARC
  5
37B
100
AcDbEntity
  8
0
100
AcDbCircle
 62
7
  6
CONTINUOUS
 10
-13.1400071226
 20
-46.0247376401
 40
15.4173565775
100
AcDbArc
 50
26.5084844057
 51
26.9750893129
  0
ARC
  5
37C
100
AcDbEntity
  8
0
100
AcDbCircle
 62
7
  6
CONTINUOUS
 10
-9.641973565
 20
-55.895079937
 40
5.0
100
AcDbArc
 50
208.3526763886
 51
265.1904895677
  0
ARC
  5
37D
100
AcDbEntity
  8
0
100
AcDbCircle
 62
250
  6
CONTINUOUS
 10
-9.6534487579
 20
-55.911755233
 40
4.6166288744
100
AcDbArc
 50
208.2370916074
 51
265.3146189667
  0
ARC
  5
37E
100
AcDbEntity
  8
0
100
AcDbCircle
 62
7
  6
CONTINUOUS
 10
-4.4992736028
 20
-63.4993345286
 40
0.8006975758
100
AcDbArc
 50
179.9690593424
 51
269.9619574634
  0
ARC
  5
37F
100
AcDbEntity
  8
0
100
AcDbCircle
 62
7
  6
CONTINUOUS
 10
-5.25
 20
-62.0212912189
 40
0.8
100
AcDbArc
 50
180.0
 51
257.846802531
  0
ARC
  5
380
100
AcDbEntity
  8
0
100
AcDbCircle
 62
7
  6
CONTINUOUS
 10
-5.45
 20
-62.95
 40
0.15
100
AcDbArc
 50
0.0
 51
77.846802531
  0
ARC
  5
381
100
AcDbEntity
  8
0
100
AcDbCircle
 62
7
  6
CONTINUOUS
 10
-6.1999999791
 20
-61.2899266655
 40
0.1499999995
100
AcDbArc
 50
0.0000019051
 51
87.0421086264
  0
ARC
  5
382
100
AcDbEntity
  8
0
100
AcDbCircle
 62
7
  6
CONTINUOUS
 10
4.4992739473
 20
-63.4993348291
 40
0.8006974175
100
AcDbArc
 50
270.038017894
 51
0.0309621733
  0
ARC
  5
383
100
AcDbEntity
  8
0
100
AcDbCircle
 62
7
  6
CONTINUOUS
 10
5.25
 20
-62.0212912189
 40
0.8
100
AcDbArc
 50
282.153197469
 51
360.0
  0
ARC
  5
384
100
AcDbEntity
  8
0
100
AcDbCircle
 62
7
  6
CONTINUOUS
 10
5.45
 20
-62.95
 40
0.15
100
AcDbArc
 50
102.153197469
 51
180.0
  0
ARC
  5
385
100
AcDbEntity
  8
0
100
AcDbCircle
 62
7
  6
CONTINUOUS
 10
6.1999999802
 20
-61.2899266656
 40
0.1499999995
100
AcDbArc
 50
92.9578918211
 51
179.9999980806
  0
ARC
  5
386
100
AcDbEntity
  8
0
100
AcDbCircle
 62
7
  6
CONTINUOUS
 10
11.2206785814
 20
-98.0492261072
 40
59.9203186764
100
AcDbArc
 50
101.9689759818
 51
102.5993150452
  0
ARC
  5
387
100
AcDbEntity
  8
0
100
AcDbCircle
 62
7
  6
CONTINUOUS
 10
13.1448965078
 20
-46.027042916
 40
15.4227605376
100
AcDbArc
 50
153.0255114743
 51
153.4919598786
  0
ARC
  5
388
100
AcDbEntity
  8
0
100
AcDbCircle
 62
7
  6
CONTINUOUS
 10
9.641973565
 20
-55.895079937
 40
5.0
100
AcDbArc
 50
274.8095104323
 51
331.6473236114
  0
ARC
  5
389
100
AcDbEntity
  8
0
100
AcDbCircle
 62
250
  6
CONTINUOUS
 10
9.6534487634
 20
-55.9117552276
 40
4.6166288764
100
AcDbArc
 50
274.6853822608
 51
331.7629289096
  0
ARC
  5
38A
100
AcDbEntity
  8
0
100
AcDbCircle
 62
250
  6
CONTINUOUS
 10
-0.0416866626
 20
60.3842618036
 40
121.3091203155
100
AcDbArc
 50
265.2767899544
 51
270.0196917802
  0
ARC
  5
38B
100
AcDbEntity
  8
0
100
AcDbCircle
 62
7
  6
CONTINUOUS
 10
-11.2206782981
 20
18.4492247146
 40
59.9203172563
100
AcDbArc
 50
281.9689759906
 51
282.599315071
  0
ARC
  5
38C
100
AcDbEntity
  8
0
100
AcDbCircle
 62
7
  6
CONTINUOUS
 10
-32.6
 20
-33.1
 40
53.0
100
AcDbArc
 50
331.6473236114
 51
360.0
  0
ARC
  5
38D
100
AcDbEntity
  8
0
100
AcDbCircle
 62
250
  6
CONTINUOUS
 10
-32.6
 20
-33.1
 40
52.6613170254
100
AcDbArc
 50
355.3330316276
 51
360.0
  0
ARC
  5
38E
100
AcDbEntity
  8
0
100
AcDbCircle
 62
250
  6
CONTINUOUS
 10
-32.0962563806
 20
-33.0946663695
 40
52.159698105
100
AcDbArc
 50
344.7406017912
 51
355.2821697844
  0
ARC
  5
38F
100
AcDbEntity
  8
0
100
AcDbCircle
 62
250
  6
CONTINUOUS
 10
-32.6
 20
-33.1
 40
51.6669617417
100
AcDbArc
 50
355.3373164409
 51
360.0
  0
ARC
  5
390
100
AcDbEntity
  8
0
100
AcDbCircle
 62
7
  6
CONTINUOUS
 10
-0.0182315928
 20
-34.4349555189
 40
15.4497107398
100
AcDbArc
 50
190.6870151049
 51
198.6476968282
  0
ARC
  5
391
100
AcDbEntity
  8
0
100
AcDbCircle
 62
7
  6
CONTINUOUS
 10
-13.1448965079
 20
-33.5729570839
 40
15.4227605377
100
AcDbArc
 50
333.0255114743
 51
333.4919598786
  0
ARC
  5
392
100
AcDbEntity
  8
0
100
AcDbCircle
 62
7
  6
CONTINUOUS
 10
-19.9
 20
-6.8
 40
0.5
100
AcDbArc
 50
90.0
 51
180.0
  0
ARC
  5
393
100
AcDbEntity
  8
0
100
AcDbCircle
 62
250
  6
CONTINUOUS
 10
-19.5640662012
 20
-6.795019851
 40
0.4950198564
100
AcDbArc
 50
90.008470453
 51
120.1540948123
  0
CIRCLE
  5
394
100
AcDbEntity
  8
0
100
AcDbCircle
 62
250
  6
CONTINUOUS
 10
-0.0
 20
-39.8
 40
3.5
  0
CIRCLE
  5
395
100
AcDbEntity
  8
0
100
AcDbCircle
 62
7
  6
CONTINUOUS
 10
-0.0
 20
-39.8
 40
3.0
  0
CIRCLE
  5
396
100
AcDbEntity
  8
0
100
AcDbCircle
 62
7
  6
CONTINUOUS
 10
-0.0
 20
-39.8
 40
2.75
  0
ARC
  5
397
100
AcDbEntity
  8
0
100
AcDbCircle
 62
7
  6
CONTINUOUS
 10
-0.0
 20
-39.8
 40
2.6625113365
100
AcDbArc
 50
256.9764719153
 51
283.0235280847
  0
ARC
  5
398
100
AcDbEntity
  8
0
100
AcDbCircle
 62
7
  6
CONTINUOUS
 10
-0.0
 20
-39.8
 40
2.6625113365
100
AcDbArc
 50
76.9764719153
 51
103.0235280847
  0
ARC
  5
399
100
AcDbEntity
  8
0
100
AcDbCircle
 62
250
  6
CONTINUOUS
 10
-0.0
 20
-39.8
 40
2.6122131027
100
AcDbArc
 50
283.2788388525
 51
76.7211611475
  0
ARC
  5
39A
100
AcDbEntity
  8
0
100
AcDbCircle
 62
250
  6
CONTINUOUS
 10
-0.0
 20
-39.8
 40
2.6122131027
100
AcDbArc
 50
103.2788388525
 51
256.7211611475
  0
ARC
  5
39B
100
AcDbEntity
  8
0
100
AcDbCircle
 62
250
  6
CONTINUOUS
 10
-0.0
 20
-39.8
 40
2.4839439914
100
AcDbArc
 50
283.978119812
 51
76.021880188
  0
ARC
  5
39C
100
AcDbEntity
  8
0
100
AcDbCircle
 62
250
  6
CONTINUOUS
 10
-0.0
 20
-39.8
 40
2.4839439914
100
AcDbArc
 50
103.978119812
 51
256.021880188
  0
ARC
  5
39D
100
AcDbEntity
  8
0
100
AcDbCircle
 62
7
  6
CONTINUOUS
 10
-0.0
 20
-39.8
 40
1.8638541369
100
AcDbArc
 50
352.968196018
 51
7.0259491591
  0
ARC
  5
39E
100
AcDbEntity
  8
0
100
AcDbCircle
 62
7
  6
CONTINUOUS
 10
-0.0
 20
-39.8
 40
1.8638541369
100
AcDbArc
 50
172.9681960448
 51
187.0259491591
  0
ARC
  5
39F
100
AcDbEntity
  8
0
100
AcDbCircle
 62
7
  6
CONTINUOUS
 10
-0.0
 20
-39.8
 40
1.3915481318
100
AcDbArc
 50
80.5652353034
 51
99.4324314084
  0
ARC
  5
3A0
100
AcDbEntity
  8
0
100
AcDbCircle
 62
7
  6
CONTINUOUS
 10
0.0
 20
-39.8
 40
1.3915481318
100
AcDbArc
 50
260.5652351046
 51
279.4324314084
  0
ARC
  5
3A1
100
AcDbEntity
  8
TRASH
100
AcDbCircle
 62
7
  6
CONTINUOUS
 10
-0.0
 20
-39.8
 40
1.1472328625
100
AcDbArc
 50
167.9845776281
 51
192.0153200785
  0
ARC
  5
3A2
100
AcDbEntity
  8
TRASH
100
AcDbCircle
 62
7
  6
CONTINUOUS
 10
0.0
 20
-39.8
 40
1.1472328625
100
AcDbArc
 50
347.9845776281
 51
12.0153200785
  0
ARC
  5
3A3
100
AcDbEntity
  8
TRASH
100
AcDbCircle
 62
7
  6
CONTINUOUS
 10
-0.0
 20
-39.8
 40
1.1472328182
100
AcDbArc
 50
257.9846799215
 51
282.0154223719
  0
ARC
  5
3A4
100
AcDbEntity
  8
TRASH
100
AcDbCircle
 62
7
  6
CONTINUOUS
 10
0.0
 20
-39.8
 40
1.1472328182
100
AcDbArc
 50
77.9846799215
 51
102.0154223719
  0
ARC
  5
3A5
100
AcDbEntity
  8
0
100
AcDbCircle
 62
7
  6
CONTINUOUS
 10
0.0182316958
 20
-34.4349554639
 40
15.4497106997
100
AcDbArc
 50
341.3523026911
 51
349.3130241756
  0
ARC
  5
3A6
100
AcDbEntity
  8
0
100
AcDbCircle
 62
7
  6
CONTINUOUS
 10
13.1400071223
 20
-33.57526236
 40
15.4173565772
100
AcDbArc
 50
206.5084844057
 51
206.9750893129
  0
ARC
  5
3A7
100
AcDbEntity
  8
0
100
AcDbCircle
 62
250
  6
CONTINUOUS
 10
0.0416867369
 20
60.3842566503
 40
121.3091152294
100
AcDbArc
 50
269.9803135112
 51
274.7232102606
  0
ARC
  5
3A8
100
AcDbEntity
  8
0
100
AcDbCircle
 62
7
  6
CONTINUOUS
 10
0.0
 20
58.7
 40
120.0
100
AcDbArc
 50
265.1904895677
 51
267.0632559683
  0
ARC
  5
3A9
100
AcDbEntity
  8
0
100
AcDbCircle
 62
7
  6
CONTINUOUS
 10
0.0
 20
58.7
 40
120.0
100
AcDbArc
 50
272.9367372369
 51
274.8095104323
  0
ARC
  5
3AA
100
AcDbEntity
  8
0
100
AcDbCircle
 62
7
  6
CONTINUOUS
 10
12.9875031288
 20
26.4295568772
 40
68.09370086
100
AcDbArc
 50
257.4145010276
 51
257.9694263247
  0
ARC
  5
3AB
100
AcDbEntity
  8
0
100
AcDbCircle
 62
7
  6
CONTINUOUS
 10
32.6
 20
-33.1
 40
53.0
100
AcDbArc
 50
180.0
 51
208.3526763886
  0
ARC
  5
3AC
100
AcDbEntity
  8
0
100
AcDbCircle
 62
250
  6
CONTINUOUS
 10
32.6
 20
-33.1
 40
52.6613170254
100
AcDbArc
 50
180.0
 51
184.6669683724
  0
ARC
  5
3AD
100
AcDbEntity
  8
0
100
AcDbCircle
 62
250
  6
CONTINUOUS
 10
32.0959293918
 20
-33.0947239595
 40
52.1593674874
100
AcDbArc
 50
184.7177967117
 51
195.2594317128
  0
ARC
  5
3AE
100
AcDbEntity
  8
0
100
AcDbCircle
 62
250
  6
CONTINUOUS
 10
32.6
 20
-33.1
 40
51.6669617417
100
AcDbArc
 50
180.0
 51
184.6626833491
  0
ARC
  5
3AF
100
AcDbEntity
  8
0
100
AcDbCircle
 62
7
  6
CONTINUOUS
 10
19.9
 20
-6.8
 40
0.5
100
AcDbArc
 50
0.0
 51
90.0
  0
ARC
  5
3B0
100
AcDbEntity
  8
0
100
AcDbCircle
 62
250
  6
CONTINUOUS
 10
19.5640662013
 20
-6.7950198504
 40
0.4950198558
100
AcDbArc
 50
59.8459133717
 51
89.991529561
  0
ARC
  5
3B1
100
AcDbEntity
  8
0
100
AcDbCircle
 62
7
  6
CONTINUOUS
 10
1.6405781101
 20
233.9863389705
 40
273.5584345224
100
AcDbArc
 50
269.8962112729
 51
270.0438329248
  0
ARC
  5
3B2
100
AcDbEntity
  8
0
100
AcDbCircle
 62
250
  6
CONTINUOUS
 10
-70.0797033828
 20
-181.2755274639
 40
120.1354009615
100
AcDbArc
 50
89.6471377682
 51
90.3528622318
  0
ARC
  5
3B3
100
AcDbEntity
  8
0
100
AcDbCircle
 62
250
  6
CONTINUOUS
 10
-70.0797115282
 20
-175.5480789126
 40
114.2581522521
100
AcDbArc
 50
89.6378929186
 51
90.3621070814
  0
ARC
  5
3B4
100
AcDbEntity
  8
0
100
AcDbCircle
 62
250
  6
CONTINUOUS
 10
-77.3235890809
 20
-59.5175527484
 40
1.0015947062
100
AcDbArc
 50
197.3053959265
 51
263.6073214158
  0
ARC
  5
3B5
100
AcDbEntity
  8
0
100
AcDbCircle
 62
7
  6
CONTINUOUS
 10
-77.4068927822
 20
-59.9311308308
 40
0.9999952011
100
AcDbArc
 50
204.2449840337
 51
263.1718862421
  0
ARC
  5
3B6
100
AcDbEntity
  8
0
100
AcDbCircle
 62
7
  6
CONTINUOUS
 10
-75.3297060644
 20
-62.0212912189
 40
0.8
100
AcDbArc
 50
180.0
 51
257.846802531
  0
ARC
  5
3B7
100
AcDbEntity
  8
0
100
AcDbCircle
 62
7
  6
CONTINUOUS
 10
-74.579706064
 20
-63.2630671164
 40
0.8
100
AcDbArc
 50
180.0000000043
 51
267.0000000818
  0
ARC
  5
3B8
100
AcDbEntity
  8
0
100
AcDbCircle
 62
7
  6
CONTINUOUS
 10
-75.5297060644
 20
-62.95
 40
0.15
100
AcDbArc
 50
0.0
 51
77.846802531
  0
ARC
  5
3B9
100
AcDbEntity
  8
0
100
AcDbCircle
 62
7
  6
CONTINUOUS
 10
-76.2796998111
 20
-61.2016781796
 40
0.1499998487
100
AcDbArc
 50
0.0
 51
84.7919125085
  0
ARC
  5
3BA
100
AcDbEntity
  8
0
100
AcDbCircle
 62
250
  6
CONTINUOUS
 10
-70.8322363896
 20
67.2412272814
 40
125.5107953374
100
AcDbArc
 50
266.9861380508
 51
270.0057201036
  0
ARC
  5
3BB
100
AcDbEntity
  8
0
100
AcDbCircle
 62
250
  6
CONTINUOUS
 10
-70.8198138498
 20
-0.6691942436
 40
60.2082804734
100
AcDbArc
 50
263.6919736804
 51
270.0001025715
  0
ARC
  5
3BC
100
AcDbEntity
  8
0
100
AcDbCircle
 62
7
  6
CONTINUOUS
 10
-70.8197060644
 20
-1.3
 40
60.0
100
AcDbArc
 50
263.5897271329
 51
264.7919234368
  0
ARC
  5
3BD
100
AcDbEntity
  8
0
100
AcDbCircle
 62
7
  6
CONTINUOUS
 10
-111.8526107389
 20
-37.1651072174
 40
33.7750129558
100
AcDbArc
 50
356.5734803357
 51
357.2261233531
  0
ARC
  5
3BE
100
AcDbEntity
  8
0
100
AcDbCircle
 62
7
  6
CONTINUOUS
 10
-111.2982597258
 20
-37.1928724663
 40
33.219967803
100
AcDbArc
 50
357.2276846702
 51
357.3448291137
  0
ARC
  5
3BF
100
AcDbEntity
  8
0
100
AcDbCircle
 62
7
  6
CONTINUOUS
 10
-111.1428685671
 20
-37.2000529154
 40
33.0644108143
100
AcDbArc
 50
357.3829219495
 51
357.4965201225
  0
ARC
  5
3C0
100
AcDbEntity
  8
0
100
AcDbCircle
 62
7
  6
CONTINUOUS
 10
-89.2573629183
 20
-47.9999197308
 40
30.0664798585
100
AcDbArc
 50
335.7646754404
 51
350.2177286247
  0
ARC
  5
3C1
100
AcDbEntity
  8
0
100
AcDbCircle
 62
250
  6
CONTINUOUS
 10
-80.6372981499
 20
-41.904773087
 40
19.2724750652
100
AcDbArc
 50
345.922550261
 51
354.4115673497
  0
ARC
  5
3C2
100
AcDbEntity
  8
0
100
AcDbCircle
 62
7
  6
CONTINUOUS
 10
-79.545899459
 20
-52.9386107685
 40
0.9999898239
100
AcDbArc
 50
164.8709643913
 51
189.7728983611
  0
ARC
  5
3C3
100
AcDbEntity
  8
0
100
AcDbCircle
 62
7
  6
CONTINUOUS
 10
-73.1469714069
 20
-6.7
 40
0.5
100
AcDbArc
 50
90.0
 51
126.8045619037
  0
ARC
  5
3C4
100
AcDbEntity
  8
0
100
AcDbCircle
 62
7
  6
CONTINUOUS
 10
-77.5797060644
 20
-6.8
 40
0.5
100
AcDbArc
 50
90.0
 51
180.0
  0
ARC
  5
3C5
100
AcDbEntity
  8
0
100
AcDbCircle
 62
7
  6
CONTINUOUS
 10
-76.0797060644
 20
-6.0
 40
0.3
100
AcDbArc
 50
180.0
 51
270.0
  0
ARC
  5
3C6
100
AcDbEntity
  8
0
100
AcDbCircle
 62
250
  6
CONTINUOUS
 10
-62.8358230418
 20
-59.5175527434
 40
1.0015947062
100
AcDbArc
 50
276.3926782115
 51
342.6946037008
  0
ARC
  5
3C7
100
AcDbEntity
  8
0
100
AcDbCircle
 62
7
  6
CONTINUOUS
 10
-62.7525193445
 20
-59.9311308323
 40
0.9999951986
100
AcDbArc
 50
276.8287011723
 51
335.755015995
  0
ARC
  5
3C8
100
AcDbEntity
  8
0
100
AcDbCircle
 62
7
  6
CONTINUOUS
 10
-64.8297060644
 20
-62.0212912189
 40
0.8
100
AcDbArc
 50
282.153197469
 51
360.0
  0
ARC
  5
3C9
100
AcDbEntity
  8
0
100
AcDbCircle
 62
7
  6
CONTINUOUS
 10
-65.5797060647
 20
-63.2630671164
 40
0.8
100
AcDbArc
 50
272.9999999182
 51
359.9999999957
  0
ARC
  5
3CA
100
AcDbEntity
  8
0
100
AcDbCircle
 62
7
  6
CONTINUOUS
 10
-64.6297060644
 20
-62.95
 40
0.15
100
AcDbArc
 50
102.153197469
 51
180.0
  0
ARC
  5
3CB
100
AcDbEntity
  8
0
100
AcDbCircle
 62
7
  6
CONTINUOUS
 10
-63.8797123176
 20
-61.2016781796
 40
0.1499998487
100
AcDbArc
 50
95.2080874915
 51
180.0
  0
ARC
  5
3CC
100
AcDbEntity
  8
0
100
AcDbCircle
 62
250
  6
CONTINUOUS
 10
-69.3271757391
 20
67.2412272814
 40
125.5107953374
100
AcDbArc
 50
269.9942798964
 51
273.0138619492
  0
ARC
  5
3CD
100
AcDbEntity
  8
0
100
AcDbCircle
 62
250
  6
CONTINUOUS
 10
-69.3395982789
 20
-0.6691942436
 40
60.2082804734
100
AcDbArc
 50
269.9998974285
 51
276.3080263196
  0
ARC
  5
3CE
100
AcDbEntity
  8
0
100
AcDbCircle
 62
7
  6
CONTINUOUS
 10
-69.3397060644
 20
-1.3
 40
60.0
100
AcDbArc
 50
275.2080765632
 51
276.4102728671
  0
ARC
  5
3CF
100
AcDbEntity
  8
0
100
AcDbCircle
 62
7
  6
CONTINUOUS
 10
-28.3028120176
 20
-37.1648986148
 40
33.7790077488
100
AcDbArc
 50
182.7739025902
 51
183.4316648156
  0
ARC
  5
3D0
100
AcDbEntity
  8
0
100
AcDbCircle
 62
7
  6
CONTINUOUS
 10
-28.8604067758
 20
-37.1928368658
 40
33.2207142793
100
AcDbArc
 50
182.6563147653
 51
182.7723144588
  0
ARC
  5
3D1
100
AcDbEntity
  8
0
100
AcDbCircle
 62
7
  6
CONTINUOUS
 10
-29.0165435596
 20
-37.2000529153
 40
33.0644108164
100
AcDbArc
 50
182.5034798775
 51
182.6170780505
  0
ARC
  5
3D2
100
AcDbEntity
  8
0
100
AcDbCircle
 62
7
  6
CONTINUOUS
 10
-50.9020492104
 20
-47.9999197308
 40
30.0664798585
100
AcDbArc
 50
189.7822713753
 51
204.2353245596
  0
ARC
  5
3D3
100
AcDbEntity
  8
0
100
AcDbCircle
 62
250
  6
CONTINUOUS
 10
-59.5221139788
 20
-41.904773087
 40
19.2724750652
100
AcDbArc
 50
185.5884326503
 51
194.077449739
  0
ARC
  5
3D4
100
AcDbEntity
  8
0
100
AcDbCircle
 62
7
  6
CONTINUOUS
 10
-45.1797060644
 20
-14.3
 40
2.7
100
AcDbArc
 50
292.1916065663
 51
67.8083934337
  0
ARC
  5
3D5
100
AcDbEntity
  8
0
100
AcDbCircle
 62
7
  6
CONTINUOUS
 10
-45.5797060644
 20
-14.3
 40
2.7
100
AcDbArc
 50
292.1916065663
 51
67.8083934337
  0
ARC
  5
3D6
100
AcDbEntity
  8
0
100
AcDbCircle
 62
7
  6
CONTINUOUS
 10
-60.6135126643
 20
-52.9386107685
 40
0.9999898185
100
AcDbArc
 50
350.2271015871
 51
15.1291112945
  0
ARC
  5
3D7
100
AcDbEntity
  8
0
100
AcDbCircle
 62
7
  6
CONTINUOUS
 10
-67.0124407218
 20
-6.7
 40
0.5
100
AcDbArc
 50
53.1954380483
 51
90.0
  0
ARC
  5
3D8
100
AcDbEntity
  8
0
100
AcDbCircle
 62
7
  6
CONTINUOUS
 10
-62.5797060644
 20
-6.8
 40
0.5
100
AcDbArc
 50
0.0
 51
90.0
  0
ARC
  5
3D9
100
AcDbEntity
  8
0
100
AcDbCircle
 62
7
  6
CONTINUOUS
 10
-64.0797060644
 20
-6.0
 40
0.3
100
AcDbArc
 50
270.0
 51
360.0
  0
ARC
  5
3DA
100
AcDbEntity
  8
RACCORDO
100
AcDbCircle
 62
7
  6
CONTINUOUS
 10
-62.0611284363
 20
-17.8999926772
 40
0.15
100
AcDbArc
 50
269.9999755924
 51
359.4972027825
  0
ARC
  5
3DB
100
AcDbEntity
  8
RACCORDO
100
AcDbCircle
 62
7
  6
CONTINUOUS
 10
-62.0611284362
 20
-10.7000073317
 40
0.15
100
AcDbArc
 50
0.5028006208
 51
90.0000244373
  0
LINE
  5
3DC
100
AcDbEntity
  8
0
100
AcDbLine
 62
7
  6
CONTINUOUS
 10
0.2283532711
 20
-40.9450395831
 11
0.2280529893
 21
-41.1727337824
  0
LINE
  5
3DD
100
AcDbEntity
  8
TRASH
100
AcDbLine
 62
7
  6
CONTINUOUS
 10
0.2388223825
 20
-40.9221062937
 11
0.2281482281
 21
-40.9449972769
  0
LINE
  5
3DE
100
AcDbEntity
  8
TRASH
100
AcDbLine
 62
7
  6
CONTINUOUS
 10
-0.2281482181
 20
-40.9449972701
 11
-0.2388223726
 21
-40.922106287
  0
LINE
  5
3DF
100
AcDbEntity
  8
0
100
AcDbLine
 62
7
  6
CONTINUOUS
 10
-0.2281088965
 20
-41.1727244933
 11
-0.2281927462
 21
-40.9450079244
  0
LINE
  5
3E0
100
AcDbEntity
  8
0
100
AcDbLine
 62
7
  6
CONTINUOUS
 10
-0.2281482181
 20
-40.9449972701
 11
-0.2692641391
 21
-40.9627030667
  0
SPLINE
  5
3E1
100
AcDbEntity
  8
0
100
AcDbSpline
 62
7
  6
CONTINUOUS
 70
0
 71
3
 72
8
 73
4
 74
0
 42
0.0000001
 43
0.0000001
 44
0.0000000001
 40
0.0
 40
0.0
 40
0.0
 40
0.0
 40
1.0
 40
1.0
 40
1.0
 40
1.0
 10
-0.5722535977
 20
-40.3722536018
 30
0.0
 10
-0.4783858145
 20
-40.5636627443
 30
0.0
 10
-0.3809988923
 20
-40.7533398762
 30
0.0
 10
-0.2828594037
 20
-40.9425943646
 30
0.0
  0
LINE
  5
3E2
100
AcDbEntity
  8
0
100
AcDbLine
 62
7
  6
CONTINUOUS
 10
-0.5197234842
 20
-40.3197234842
 11
-0.5722535977
 21
-40.3722536018
  0
LINE
  5
3E3
100
AcDbEntity
  8
0
100
AcDbLine
 62
7
  6
CONTINUOUS
 10
-0.6
 20
-40.4000000064
 11
-0.6564962162
 21
-40.4564962216
  0
LINE
  5
3E4
100
AcDbEntity
  8
0
100
AcDbLine
 62
7
  6
CONTINUOUS
 10
-0.6
 20
-40.3586148063
 11
-0.5722535977
 21
-40.3722536018
  0
SPLINE
  5
3E5
100
AcDbEntity
  8
0
100
AcDbSpline
 62
7
  6
CONTINUOUS
 70
0
 71
3
 72
9
 73
5
 74
0
 42
0.0000001
 43
0.0000001
 44
0.0000000001
 40
0.0
 40
0.0
 40
0.0
 40
0.0
 40
0.4996721713
 40
1.0
 40
1.0
 40
1.0
 40
1.0
 10
-1.2055128825
 20
-40.1685691724
 30
0.0
 10
-1.1953519665
 20
-40.1452161903
 30
0.0
 10
-1.1747719049
 20
-40.0985851244
 30
0.0
 10
-1.1551715258
 20
-40.0515318534
 30
0.0
 10
-1.1449972769
 20
-40.0281482281
 30
0.0
  0
LINE
  5
3E6
100
AcDbEntity
  8
TRASH
100
AcDbLine
 62
7
  6
CONTINUOUS
 10
-1.1221062937
 20
-40.0388223825
 11
-1.1449972769
 21
-40.0281482281
  0
LINE
  5
3E7
100
AcDbEntity
  8
0
100
AcDbLine
 62
7
  6
CONTINUOUS
 10
-1.1450079241
 20
-39.5718072551
 11
-1.8498348804
 21
-39.5718264718
  0
LINE
  5
3E8
100
AcDbEntity
  8
0
100
AcDbLine
 62
7
  6
CONTINUOUS
 10
-1.1449972701
 20
-39.5718517819
 11
-1.2057182374
 21
-39.4315730292
  0
LINE
  5
3E9
100
AcDbEntity
  8
TRASH
100
AcDbLine
 62
7
  6
CONTINUOUS
 10
-1.122106287
 20
-39.5611776274
 11
-1.1449972701
 21
-39.5718517819
  0
LINE
  5
3EA
100
AcDbEntity
  8
TRASH
100
AcDbLine
 62
7
  6
CONTINUOUS
 10
-1.1221028135
 20
-39.5611739822
 11
-0.5197267822
 21
-39.280282565
  0
LINE
  5
3EB
100
AcDbEntity
  8
0
100
AcDbLine
 62
7
  6
CONTINUOUS
 10
-0.5722535807
 20
-39.2277465037
 11
-0.6
 21
-39.2413855636
  0
LINE
  5
3EC
100
AcDbEntity
  8
0
100
AcDbLine
 62
7
  6
CONTINUOUS
 10
-0.6
 20
-39.2000001418
 11
-0.6564960404
 21
-39.1435041219
  0
LINE
  5
3ED
100
AcDbEntity
  8
TRASH
100
AcDbLine
 62
7
  6
CONTINUOUS
 10
-0.5197234839
 20
-40.3197234839
 11
-1.1221066534
 21
-40.038824741
  0
LINE
  5
3EE
100
AcDbEntity
  8
TRASH
100
AcDbLine
 62
7
  6
CONTINUOUS
 10
-0.238824741
 20
-40.9221066534
 11
-0.5197234839
 21
-40.3197234839
  0
LINE
  5
3EF
100
AcDbEntity
  8
TRASH
100
AcDbLine
 62
7
  6
CONTINUOUS
 10
0.519717435
 20
-40.3197267822
 11
0.2388260178
 21
-40.9221028135
  0
LINE
  5
3F0
100
AcDbEntity
  8
0
100
AcDbLine
 62
7
  6
CONTINUOUS
 10
-0.5197234842
 20
-39.2802765158
 11
-0.5722535807
 21
-39.2277465037
  0
LINE
  5
3F1
100
AcDbEntity
  8
TRASH
100
AcDbLine
 62
7
  6
CONTINUOUS
 10
-0.519717435
 20
-39.2802732178
 11
-0.2388260178
 21
-38.6778971865
  0
LINE
  5
3F2
100
AcDbEntity
  8
TRASH
100
AcDbLine
 62
7
  6
CONTINUOUS
 10
1.1221028135
 20
-40.0388260178
 11
0.5197267822
 21
-40.319717435
  0
SPLINE
  5
3F3
100
AcDbEntity
  8
0
100
AcDbSpline
 62
7
  6
CONTINUOUS
 70
0
 71
3
 72
8
 73
4
 74
0
 42
0.0000001
 43
0.0000001
 44
0.0000000001
 40
0.0
 40
0.0
 40
0.0
 40
0.0
 40
1.0
 40
1.0
 40
1.0
 40
1.0
 10
-0.2828593557
 20
-38.6574055428
 30
0.0
 10
-0.3809988731
 20
-38.8466600878
 30
0.0
 10
-0.4783848955
 20
-39.0363377327
 30
0.0
 10
-0.5722535807
 20
-39.2277465037
 30
0.0
  0
SPLINE
  5
3F4
100
AcDbEntity
  8
0
100
AcDbSpline
 62
7
  6
CONTINUOUS
 70
0
 71
3
 72
9
 73
5
 74
0
 42
0.0000001
 43
0.0000001
 44
0.0000000001
 40
0.0
 40
0.0
 40
0.0
 40
0.0
 40
0.4988331664
 40
1.0
 40
1.0
 40
1.0
 40
1.0
 10
-0.2694720426
 20
-38.6376044208
 30
0.0
 10
-0.2626352358
 20
-38.6405791252
 30
0.0
 10
-0.2490327008
 20
-38.6467872213
 30
0.0
 10
-0.2350170191
 20
-38.6520141023
 30
0.0
 10
-0.2281482281
 20
-38.6550027231
 30
0.0
  0
LINE
  5
3F5
100
AcDbEntity
  8
0
100
AcDbLine
 62
7
  6
CONTINUOUS
 10
1.2055128825
 20
-39.4314308276
 11
1.1881618969
 21
-39.4194209546
  0
SPLINE
  5
3F6
100
AcDbEntity
  8
0
100
AcDbSpline
 62
7
  6
CONTINUOUS
 70
0
 71
3
 72
9
 73
5
 74
0
 42
0.0000001
 43
0.0000001
 44
0.0000000001
 40
0.0
 40
0.0
 40
0.0
 40
0.0
 40
0.2505997867
 40
1.0
 40
1.0
 40
1.0
 40
1.0
 10
0.6564962162
 20
-39.1435037784
 30
0.0
 10
0.7012756134
 20
-39.1658317513
 30
0.0
 10
0.8794877539
 20
-39.2558865737
 30
0.0
 10
1.0561971269
 20
-39.3488851099
 30
0.0
 10
1.1881618969
 20
-39.4194209546
 30
0.0
  0
LINE
  5
3F7
100
AcDbEntity
  8
TRASH
100
AcDbLine
 62
7
  6
CONTINUOUS
 10
0.5197234839
 20
-39.2802765161
 11
1.1221066534
 21
-39.561175259
  0
LINE
  5
3F8
100
AcDbEntity
  8
TRASH
100
AcDbLine
 62
7
  6
CONTINUOUS
 10
0.238824741
 20
-38.6778933466
 11
0.5197234839
 21
-39.2802765161
  0
SPLINE
  5
3F9
100
AcDbEntity
  8
0
100
AcDbSpline
 62
7
  6
CONTINUOUS
 70
0
 71
3
 72
9
 73
5
 74
0
 42
0.0000001
 43
0.0000001
 44
0.0000000001
 40
0.0
 40
0.0
 40
0.0
 40
0.0
 40
0.2492946972
 40
1.0
 40
1.0
 40
1.0
 40
1.0
 10
1.1881618048
 20
-40.1805790946
 30
0.0
 10
1.1442627818
 20
-40.2040433467
 30
0.0
 10
0.967951787
 20
-40.2977530811
 30
0.0
 10
0.7906376598
 20
-40.3896091193
 30
0.0
 10
0.6564960404
 20
-40.4564958781
 30
0.0
  0
LINE
  5
3FA
100
AcDbEntity
  8
0
100
AcDbLine
 62
7
  6
CONTINUOUS
 10
1.2057182352
 20
-40.1684269724
 11
1.1881618048
 21
-40.1805790946
  0
SPLINE
  5
3FB
100
AcDbEntity
  8
0
100
AcDbSpline
 62
7
  6
CONTINUOUS
 70
0
 71
3
 72
9
 73
5
 74
0
 42
0.0000001
 43
0.0000001
 44
0.0000000001
 40
0.0
 40
0.0
 40
0.0
 40
0.0
 40
0.2492946972
 40
1.0
 40
1.0
 40
1.0
 40
1.0
 10
-1.1881618048
 20
-39.4194209054
 30
0.0
 10
-1.1442627818
 20
-39.3959566533
 30
0.0
 10
-0.967951787
 20
-39.3022469189
 30
0.0
 10
-0.7906376598
 20
-39.2103908807
 30
0.0
 10
-0.6564960404
 20
-39.1435041219
 30
0.0
  0
LINE
  5
3FC
100
AcDbEntity
  8
0
100
AcDbLine
 62
7
  6
CONTINUOUS
 10
-1.1881618048
 20
-39.4194209054
 11
-1.2057182374
 21
-39.4315730292
  0
LINE
  5
3FD
100
AcDbEntity
  8
0
100
AcDbLine
 62
7
  6
CONTINUOUS
 10
-1.1881618969
 20
-40.1805790454
 11
-1.2055128825
 21
-40.1685691724
  0
SPLINE
  5
3FE
100
AcDbEntity
  8
0
100
AcDbSpline
 62
7
  6
CONTINUOUS
 70
0
 71
3
 72
9
 73
5
 74
0
 42
0.0000001
 43
0.0000001
 44
0.0000000001
 40
0.0
 40
0.0
 40
0.0
 40
0.0
 40
0.2505997867
 40
1.0
 40
1.0
 40
1.0
 40
1.0
 10
-0.6564962162
 20
-40.4564962216
 30
0.0
 10
-0.7012756134
 20
-40.4341682487
 30
0.0
 10
-0.8794877539
 20
-40.3441134263
 30
0.0
 10
-1.0561971269
 20
-40.2511148901
 30
0.0
 10
-1.1881618969
 20
-40.1805790454
 30
0.0
  0
LINE
  5
3FF
100
AcDbEntity
  8
0
100
AcDbLine
 62
7
  6
CONTINUOUS
 10
0.6
 20
-39.2413851937
 11
0.5722535977
 21
-39.2277463982
  0
SPLINE
  5
400
100
AcDbEntity
  8
0
100
AcDbSpline
 62
7
  6
CONTINUOUS
 70
0
 71
3
 72
9
 73
5
 74
0
 42
0.0000001
 43
0.0000001
 44
0.0000000001
 40
0.0
 40
0.0
 40
0.0
 40
0.0
 40
0.4996721713
 40
1.0
 40
1.0
 40
1.0
 40
1.0
 10
1.2055128825
 20
-39.4314308276
 30
0.0
 10
1.1953519665
 20
-39.4547838097
 30
0.0
 10
1.1747719049
 20
-39.5014148756
 30
0.0
 10
1.1551715258
 20
-39.5484681466
 30
0.0
 10
1.1449972769
 20
-39.5718517719
 30
0.0
  0
LINE
  5
401
100
AcDbEntity
  8
TRASH
100
AcDbLine
 62
7
  6
CONTINUOUS
 10
1.1221062937
 20
-39.5611776175
 11
1.1449972769
 21
-39.5718517719
  0
SPLINE
  5
402
100
AcDbEntity
  8
0
100
AcDbSpline
 62
7
  6
CONTINUOUS
 70
0
 71
3
 72
8
 73
4
 74
0
 42
0.0000001
 43
0.0000001
 44
0.0000000001
 40
0.0
 40
0.0
 40
0.0
 40
0.0
 40
1.0
 40
1.0
 40
1.0
 40
1.0
 10
0.5722535977
 20
-39.2277463982
 30
0.0
 10
0.4783858145
 20
-39.0363372557
 30
0.0
 10
0.3809988923
 20
-38.8466601238
 30
0.0
 10
0.2828594037
 20
-38.6574056354
 30
0.0
  0
LINE
  5
403
100
AcDbEntity
  8
0
100
AcDbLine
 62
7
  6
CONTINUOUS
 10
0.5722535977
 20
-39.2277463982
 11
0.5197234842
 21
-39.2802765158
  0
LINE
  5
404
100
AcDbEntity
  8
TRASH
100
AcDbLine
 62
7
  6
CONTINUOUS
 10
1.1449972701
 20
-40.0281482181
 11
1.122106287
 21
-40.0388223726
  0
LINE
  5
405
100
AcDbEntity
  8
0
100
AcDbLine
 62
7
  6
CONTINUOUS
 10
0.6564962162
 20
-39.1435037784
 11
0.6
 21
-39.1999999936
  0
LINE
  5
406
100
AcDbEntity
  8
TRASH
100
AcDbLine
 62
7
  6
CONTINUOUS
 10
0.2388223726
 20
-38.677893713
 11
0.2281482181
 21
-38.6550027299
  0
LINE
  5
407
100
AcDbEntity
  8
0
100
AcDbLine
 62
7
  6
CONTINUOUS
 10
0.2281482181
 20
-38.6550027299
 11
0.2692641324
 21
-38.6372969234
  0
LINE
  5
408
100
AcDbEntity
  8
0
100
AcDbLine
 62
7
  6
CONTINUOUS
 10
0.2281927392
 20
-38.654992077
 11
0.2281088917
 21
-38.4272755059
  0
LINE
  5
409
100
AcDbEntity
  8
TRASH
100
AcDbLine
 62
7
  6
CONTINUOUS
 10
-0.2388223825
 20
-38.6778937063
 11
-0.2281482281
 21
-38.6550027231
  0
LINE
  5
40A
100
AcDbEntity
  8
0
100
AcDbLine
 62
7
  6
CONTINUOUS
 10
-0.2283532711
 20
-38.6549604169
 11
-0.2280529893
 21
-38.4272662176
  0
LINE
  5
40B
100
AcDbEntity
  8
0
100
AcDbLine
 62
7
  6
CONTINUOUS
 10
1.8498348803
 20
-40.0281735291
 11
1.1450079232
 21
-40.02819274
  0
LINE
  5
40C
100
AcDbEntity
  8
0
100
AcDbLine
 62
7
  6
CONTINUOUS
 10
1.1449972701
 20
-40.0281482181
 11
1.2057182352
 21
-40.1684269724
  0
LINE
  5
40D
100
AcDbEntity
  8
0
100
AcDbLine
 62
7
  6
CONTINUOUS
 10
0.5722535807
 20
-40.3722534963
 11
0.6
 21
-40.3586144364
  0
LINE
  5
40E
100
AcDbEntity
  8
0
100
AcDbLine
 62
7
  6
CONTINUOUS
 10
0.6
 20
-40.3999998582
 11
0.6564960404
 21
-40.4564958781
  0
LINE
  5
40F
100
AcDbEntity
  8
0
100
AcDbLine
 62
7
  6
CONTINUOUS
 10
0.5197234842
 20
-40.3197234842
 11
0.5722535807
 21
-40.3722534963
  0
SPLINE
  5
410
100
AcDbEntity
  8
0
100
AcDbSpline
 62
7
  6
CONTINUOUS
 70
0
 71
3
 72
8
 73
4
 74
0
 42
0.0000001
 43
0.0000001
 44
0.0000000001
 40
0.0
 40
0.0
 40
0.0
 40
0.0
 40
1.0
 40
1.0
 40
1.0
 40
1.0
 10
0.2828593557
 20
-40.9425944572
 30
0.0
 10
0.3809988731
 20
-40.7533399122
 30
0.0
 10
0.4783848955
 20
-40.5636622673
 30
0.0
 10
0.5722535807
 20
-40.3722534963
 30
0.0
  0
SPLINE
  5
411
100
AcDbEntity
  8
0
100
AcDbSpline
 62
7
  6
CONTINUOUS
 70
0
 71
3
 72
9
 73
5
 74
0
 42
0.0000001
 43
0.0000001
 44
0.0000000001
 40
0.0
 40
0.0
 40
0.0
 40
0.0
 40
0.4988331664
 40
1.0
 40
1.0
 40
1.0
 40
1.0
 10
0.2694720426
 20
-40.9623955792
 30
0.0
 10
0.2626352358
 20
-40.9594208748
 30
0.0
 10
0.2490327008
 20
-40.9532127787
 30
0.0
 10
0.2350170191
 20
-40.9479858977
 30
0.0
 10
0.2281482281
 20
-40.9449972769
 30
0.0
  0
SPLINE
  5
412
100
AcDbEntity
  8
0
100
AcDbSpline
 62
7
  6
CONTINUOUS
 70
0
 71
3
 72
10
 73
6
 74
0
 42
0.0000001
 43
0.0000001
 44
0.0000000001
 40
0.0
 40
0.0
 40
0.0
 40
0.0
 40
0.2929210355
 40
0.5275938042
 40
1.0
 40
1.0
 40
1.0
 40
1.0
 10
6.6561646941
 20
-13.3456689622
 30
0.0
 10
6.6576879227
 20
-13.4443856429
 30
0.0
 10
6.6363953426
 20
-13.6278258543
 30
0.0
 10
6.4271347461
 20
-13.9115399223
 30
0.0
 10
6.1668333031
 20
-13.9636359744
 30
0.0
 10
6.0076494697
 20
-13.9671914613
 30
0.0
  0
SPLINE
  5
413
100
AcDbEntity
  8
0
100
AcDbSpline
 62
7
  6
CONTINUOUS
 70
0
 71
3
 72
9
 73
5
 74
0
 42
0.0000001
 43
0.0000001
 44
0.0000000001
 40
0.0
 40
0.0
 40
0.0
 40
0.0
 40
0.2703953699
 40
1.0
 40
1.0
 40
1.0
 40
1.0
 10
5.5305380517
 20
-12.8692473583
 30
0.0
 10
5.5888073379
 20
-12.8593046113
 30
0.0
 10
5.8049781767
 20
-12.8266037085
 30
0.0
 10
6.026135684
 20
-12.8273136081
 30
0.0
 10
6.1845717889
 20
-12.8457037034
 30
0.0
  0
SPLINE
  5
414
100
AcDbEntity
  8
0
100
AcDbSpline
 62
7
  6
CONTINUOUS
 70
0
 71
3
 72
9
 73
5
 74
0
 42
0.0000001
 43
0.0000001
 44
0.0000000001
 40
0.0
 40
0.0
 40
0.0
 40
0.0
 40
0.5013510385
 40
1.0
 40
1.0
 40
1.0
 40
1.0
 10
6.1845717889
 20
-12.8457037034
 30
0.0
 10
6.3069293736
 20
-12.8599093912
 30
0.0
 10
6.5544118819
 20
-12.9676630231
 30
0.0
 10
6.6542487249
 20
-13.2231683686
 30
0.0
 10
6.6561646941
 20
-13.3456689622
 30
0.0
  0
SPLINE
  5
415
100
AcDbEntity
  8
0
100
AcDbSpline
 62
7
  6
CONTINUOUS
 70
0
 71
3
 72
9
 73
5
 74
0
 42
0.0000001
 43
0.0000001
 44
0.0000000001
 40
0.0
 40
0.0
 40
0.0
 40
0.0
 40
0.3559141631
 40
1.0
 40
1.0
 40
1.0
 40
1.0
 10
6.0058499546
 20
-14.6222149318
 30
0.0
 10
6.078601554
 20
-14.6222149318
 30
0.0
 10
6.2878883957
 20
-14.6662683332
 30
0.0
 10
6.4253657742
 20
-14.8513581691
 30
0.0
 10
6.4716244279
 20
-14.9746199582
 30
0.0
  0
SPLINE
  5
416
100
AcDbEntity
  8
0
100
AcDbSpline
 62
7
  6
CONTINUOUS
 70
0
 71
3
 72
9
 73
5
 74
0
 42
0.0000001
 43
0.0000001
 44
0.0000000001
 40
0.0
 40
0.0
 40
0.0
 40
0.0
 40
0.5586214172
 40
1.0
 40
1.0
 40
1.0
 40
1.0
 10
6.4716244279
 20
-14.9746199582
 30
0.0
 10
6.5545680748
 20
-15.195399051
 30
0.0
 10
6.6636463445
 20
-15.6042196107
 30
0.0
 10
6.7851964745
 20
-16.0083114605
 30
0.0
 10
6.8366860434
 20
-16.1874031119
 30
0.0
  0
SPLINE
  5
417
100
AcDbEntity
  8
0
100
AcDbSpline
 62
7
  6
CONTINUOUS
 70
0
 71
3
 72
9
 73
5
 74
0
 42
0.0000001
 43
0.0000001
 44
0.0000000001
 40
0.0
 40
0.0
 40
0.0
 40
0.0
 40
0.1980141723
 40
1.0
 40
1.0
 40
1.0
 40
1.0
 10
7.6397196251
 20
-16.1874031119
 30
0.0
 10
7.6203524677
 20
-16.1160947196
 30
0.0
 10
7.5255589103
 20
-15.7551676506
 30
0.0
 10
7.4329841986
 20
-15.3936520829
 30
0.0
 10
7.3543165415
 20
-15.1049048463
 30
0.0
  0
SPLINE
  5
418
100
AcDbEntity
  8
0
100
AcDbSpline
 62
7
  6
CONTINUOUS
 70
0
 71
3
 72
9
 73
5
 74
0
 42
0.0000001
 43
0.0000001
 44
0.0000000001
 40
0.0
 40
0.0
 40
0.0
 40
0.0
 40
0.2426586216
 40
1.0
 40
1.0
 40
1.0
 40
1.0
 10
7.3543165415
 20
-15.1049048463
 30
0.0
 10
7.3345169024
 20
-15.0322269819
 30
0.0
 10
7.2588853367
 20
-14.738736054
 30
0.0
 10
7.0914709468
 20
-14.4075431713
 30
0.0
 10
6.8730962309
 20
-14.3204662533
 30
0.0
  0
SPLINE
  5
419
100
AcDbEntity
  8
0
100
AcDbSpline
 62
7
  6
CONTINUOUS
 70
0
 71
3
 72
19
 73
15
 74
0
 42
0.0000001
 43
0.0000001
 44
0.0000000001
 40
0.0
 40
0.0
 40
0.0
 40
0.0
 40
0.0559393466
 40
0.1686372252
 40
0.2404177
 40
0.3213529219
 40
0.4125585942
 40
0.4628837461
 40
0.5169478289
 40
0.6016690262
 40
0.6778254114
 40
0.8104735527
 40
0.9200958321
 40
1.0
 40
1.0
 40
1.0
 40
1.0
 10
6.8730962309
 20
-14.2968326226
 30
0.0
 10
6.9192082887
 20
-14.2908826797
 30
0.0
 10
7.0363880427
 20
-14.1984900925
 30
0.0
 10
7.1822935266
 20
-14.0671734454
 30
0.0
 10
7.3047723307
 20
-13.8807004976
 30
0.0
 10
7.3868883297
 20
-13.694611449
 30
0.0
 10
7.4278832128
 20
-13.512843801
 30
0.0
 10
7.4405570492
 20
-13.3505794968
 30
0.0
 10
7.437768018
 20
-13.1932123502
 30
0.0
 10
7.4120878392
 20
-13.0154690059
 30
0.0
 10
7.3356054507
 20
-12.7827444143
 30
0.0
 10
7.19189087
 20
-12.5546002787
 30
0.0
 10
6.9889964501
 20
-12.3762066124
 30
0.0
 10
6.8494914294
 20
-12.2992640381
 30
0.0
 10
6.7870194286
 20
-12.2767270432
 30
0.0
  0
SPLINE
  5
41A
100
AcDbEntity
  8
0
100
AcDbSpline
 62
7
  6
CONTINUOUS
 70
0
 71
3
 72
9
 73
5
 74
0
 42
0.0000001
 43
0.0000001
 44
0.0000000001
 40
0.0
 40
0.0
 40
0.0
 40
0.0
 40
0.2957417834
 40
1.0
 40
1.0
 40
1.0
 40
1.0
 10
6.7870194286
 20
-12.2767270432
 30
0.0
 10
6.5946958973
 20
-12.2072449495
 30
0.0
 10
5.903409228
 20
-12.0939849955
 30
0.0
 10
5.2084964381
 20
-12.1637415623
 30
0.0
 10
4.7267246802
 20
-12.2346183915
 30
0.0
  0
SPLINE
  5
41B
100
AcDbEntity
  8
0
100
AcDbSpline
 62
250
  6
CONTINUOUS
 70
0
 71
3
 72
14
 73
10
 74
0
 42
0.0000001
 43
0.0000001
 44
0.0000000001
 40
0.0
 40
0.0
 40
0.0
 40
0.0
 40
0.2499670061
 40
0.4999550303
 40
0.6249653814
 40
0.7499767321
 40
0.8749884928
 40
0.9374960117
 40
1.0
 40
1.0
 40
1.0
 40
1.0
 10
18.2245080624
 20
-46.8225493917
 30
0.0
 10
17.9581001066
 20
-47.8005521802
 30
0.0
 10
17.3695125369
 20
-49.7419131693
 30
0.0
 10
16.4966770744
 20
-52.1226812422
 30
0.0
 10
15.7176366017
 20
-53.9948867095
 30
0.0
 10
15.0933310087
 20
-55.3818632843
 30
0.0
 10
14.540057677
 20
-56.5222616683
 30
0.0
 10
14.0780731177
 20
-57.4247909846
 30
0.0
 10
13.8404109773
 20
-57.8725781346
 30
0.0
 10
13.7206654222
 20
-58.0959669642
 30
0.0
  0
LINE
  5
41C
100
AcDbEntity
  8
0
100
AcDbLine
 62
250
  6
CONTINUOUS
 10
6.05
 20
-61.2899266605
 11
6.0067525543
 21
-61.2922084971
  0
SPLINE
  5
41D
100
AcDbEntity
  8
0
100
AcDbSpline
 62
250
  6
CONTINUOUS
 70
0
 71
3
 72
11
 73
7
 74
0
 42
0.0000001
 43
0.0000001
 44
0.0000000001
 40
0.0
 40
0.0
 40
0.0
 40
0.0
 40
0.2503865219
 40
0.5005905562
 40
0.7504781973
 40
1.0
 40
1.0
 40
1.0
 40
1.0
 10
-20.0613170254
 20
-6.8
 30
0.0
 10
-20.0613170254
 20
-6.7564954419
 30
0.0
 10
-20.0499073498
 20
-6.6690972044
 30
0.0
 10
-19.9996817884
 20
-6.547210187
 30
0.0
 10
-19.919855824
 20
-6.4424773621
 30
0.0
 10
-19.8502188772
 20
-6.3887598947
 30
0.0
 10
-19.8127282045
 20
-6.3669872981
 30
0.0
  0
SPLINE
  5
41E
100
AcDbEntity
  8
0
100
AcDbSpline
 62
250
  6
CONTINUOUS
 70
0
 71
3
 72
11
 73
7
 74
0
 42
0.0000001
 43
0.0000001
 44
0.0000000001
 40
0.0
 40
0.0
 40
0.0
 40
0.0
 40
0.2503865209
 40
0.5005905545
 40
0.7504781965
 40
1.0
 40
1.0
 40
1.0
 40
1.0
 10
20.0613170256
 20
-6.8
 30
0.0
 10
20.0613170256
 20
-6.7564954362
 30
0.0
 10
20.0499073468
 20
-6.6690971872
 30
0.0
 10
19.9996817722
 20
-6.5472101556
 30
0.0
 10
19.9198557875
 20
-6.4424773232
 30
0.0
 10
19.8502188242
 20
-6.3887598567
 30
0.0
 10
19.8127281432
 20
-6.3669872625
 30
0.0
  0
SPLINE
  5
41F
100
AcDbEntity
  8
0
100
AcDbSpline
 62
250
  6
CONTINUOUS
 70
0
 71
3
 72
9
 73
5
 74
0
 42
0.0000001
 43
0.0000001
 44
0.0000000001
 40
0.0
 40
0.0
 40
0.0
 40
0.0
 40
0.2203179616
 40
1.0
 40
1.0
 40
1.0
 40
1.0
 10
6.1480045258
 20
-61.1424050169
 30
0.0
 10
6.1450744886
 20
-61.1425552464
 30
0.0
 10
6.1317718633
 20
-61.1431690214
 30
0.0
 10
6.1184597735
 20
-61.1435592617
 30
0.0
 10
6.1080798328
 20
-61.1437991782
 30
0.0
  0
SPLINE
  5
420
100
AcDbEntity
  8
0
100
AcDbSpline
 62
250
  6
CONTINUOUS
 70
0
 71
3
 72
23
 73
19
 74
0
 42
0.0000001
 43
0.0000001
 44
0.0000000001
 40
0.0
 40
0.0
 40
0.0
 40
0.0
 40
0.0092447412
 40
0.0222795363
 40
0.0592861455
 40
0.1098710985
 40
0.1724609119
 40
0.245117177
 40
0.3256005349
 40
0.4999924097
 40
0.6743854153
 40
0.7548701241
 40
0.827528206
 40
0.890120274
 40
0.9407078471
 40
0.9777173597
 40
0.9907536899
 40
1.0
 40
1.0
 40
1.0
 40
1.0
 10
6.1080798328
 20
-61.1437991782
 30
0.0
 10
6.070439556
 20
-61.1446691758
 30
0.0
 10
5.9796918167
 20
-61.1449299113
 30
0.0
 10
5.7382572379
 20
-61.142390118
 30
0.0
 10
5.3285329978
 20
-61.1333156158
 30
0.0
 10
4.717097087
 20
-61.1180301115
 30
0.0
 10
3.9605014676
 20
-61.0995383359
 30
0.0
 10
3.0821105055
 20
-61.0809974775
 30
0.0
 10
1.7483681243
 20
-61.0594097585
 30
0.0
 10
0.0001063525
 20
-61.0474317474
 30
0.0
 10
-1.7481609395
 20
-61.059407406
 30
0.0
 10
-3.0819208497
 20
-61.0809938892
 30
0.0
 10
-3.9603339066
 20
-61.0995344623
 30
0.0
 10
-4.7169567779
 20
-61.1180265506
 30
0.0
 10
-5.3284243551
 20
-61.1333130073
 30
0.0
 10
-5.7381773177
 20
-61.1423886053
 30
0.0
 10
-5.9796363536
 20
-61.1449296695
 30
0.0
 10
-6.0703967288
 20
-61.1446695567
 30
0.0
 10
-6.1080434073
 20
-61.1438000148
 30
0.0
  0
SPLINE
  5
421
100
AcDbEntity
  8
0
100
AcDbSpline
 62
250
  6
CONTINUOUS
 70
0
 71
3
 72
9
 73
5
 74
0
 42
0.0000001
 43
0.0000001
 44
0.0000000001
 40
0.0
 40
0.0
 40
0.0
 40
0.0
 40
0.2796914765
 40
1.0
 40
1.0
 40
1.0
 40
1.0
 10
-6.1080434073
 20
-61.1438000148
 30
0.0
 10
-6.1117718852
 20
-61.1437138966
 30
0.0
 10
-6.1251016213
 20
-61.1433722765
 30
0.0
 10
-6.1384289462
 20
-61.1428961614
 30
0.0
 10
-6.1480211012
 20
-61.1424041669
 30
0.0
  0
SPLINE
  5
422
100
AcDbEntity
  8
0
100
AcDbSpline
 62
250
  6
CONTINUOUS
 70
0
 71
3
 72
24
 73
20
 74
0
 42
0.0000001
 43
0.0000001
 44
0.0000000001
 40
0.0
 40
0.0
 40
0.0
 40
0.0
 40
0.194438816
 40
0.3813889232
 40
0.5536876939
 40
0.6322474069
 40
0.7047266673
 40
0.7704350459
 40
0.8287470745
 40
0.8791120105
 40
0.9210636155
 40
0.9542242489
 40
0.9674200669
 40
0.9783308303
 40
0.9869531517
 40
0.9933093328
 40
0.9956681384
 40
0.9975178852
 40
1.0
 40
1.0
 40
1.0
 40
1.0
 10
0.0000008064
 20
-63.2630671165
 30
0.0
 10
0.344837679
 20
-63.2630671466
 30
0.0
 10
1.0212344557
 20
-63.2659747836
 30
0.0
 10
2.0031249832
 20
-63.278972833
 30
0.0
 10
2.7793872994
 20
-63.2969828427
 30
0.0
 10
3.3525227228
 20
-63.3157584363
 30
0.0
 10
3.7366203224
 20
-63.3311255538
 30
0.0
 10
4.0847067435
 20
-63.3480431274
 30
0.0
 10
4.3934436008
 20
-63.3663360447
 30
0.0
 10
4.6598890999
 20
-63.3857703645
 30
0.0
 10
4.8814978462
 20
-63.4061498952
 30
0.0
 10
5.0370564565
 20
-63.4246874399
 30
0.0
 10
5.13738494
 20
-63.440561959
 30
0.0
 10
5.1943900007
 20
-63.4515827557
 30
0.0
 10
5.2389771558
 20
-63.4626828616
 30
0.0
 10
5.2681819629
 20
-63.4724233844
 30
0.0
 10
5.2850322768
 20
-63.4809382237
 30
0.0
 10
5.2947097217
 20
-63.4874330356
 30
0.0
 10
5.2999993031
 20
-63.4945000973
 30
0.0
 10
5.3
 20
-63.4989021232
 30
0.0
  0
SPLINE
  5
423
100
AcDbEntity
  8
0
100
AcDbSpline
 62
250
  6
CONTINUOUS
 70
0
 71
3
 72
24
 73
20
 74
0
 42
0.0000001
 43
0.0000001
 44
0.0000000001
 40
0.0
 40
0.0
 40
0.0
 40
0.0
 40
0.0024822493
 40
0.0043319611
 40
0.0066907835
 40
0.0130474363
 40
0.0216695219
 40
0.0325800278
 40
0.0457767664
 40
0.0789365954
 40
0.1208883236
 40
0.1712542913
 40
0.2295658196
 40
0.2952734639
 40
0.3677534421
 40
0.4463133468
 40
0.6186106751
 40
0.8055629419
 40
1.0
 40
1.0
 40
1.0
 40
1.0
 10
-5.3
 20
-63.4989021232
 30
0.0
 10
-5.2999991829
 20
-63.4944998566
 30
0.0
 10
-5.2947108535
 20
-63.4874320446
 30
0.0
 10
-5.2850332754
 20
-63.48093662
 30
0.0
 10
-5.2681822592
 20
-63.4724214818
 30
0.0
 10
-5.2389761523
 20
-63.4626830511
 30
0.0
 10
-5.1943892887
 20
-63.4515824093
 30
0.0
 10
-5.1373834137
 20
-63.4405613131
 30
0.0
 10
-5.0370549552
 20
-63.4246881005
 30
0.0
 10
-4.8814961299
 20
-63.4061482655
 30
0.0
 10
-4.6598864891
 20
-63.3857700077
 30
0.0
 10
-4.3934396762
 20
-63.3663361561
 30
0.0
 10
-4.0847030303
 20
-63.3480430364
 30
0.0
 10
-3.7366173677
 20
-63.3311250635
 30
0.0
 10
-3.3525192298
 20
-63.3157586767
 30
0.0
 10
-2.7793844539
 20
-63.2969833562
 30
0.0
 10
-2.003120148
 20
-63.2789724985
 30
0.0
 10
-1.0212309552
 20
-63.2659750759
 30
0.0
 10
-0.3448331243
 20
-63.2630671038
 30
0.0
 10
0.0000008064
 20
-63.2630671165
 30
0.0
  0
LINE
  5
424
100
AcDbEntity
  8
0
100
AcDbLine
 62
250
  6
CONTINUOUS
 10
-6.0067525543
 20
-61.2922084971
 11
-6.05
 21
-61.2899266605
  0
SPLINE
  5
425
100
AcDbEntity
  8
0
100
AcDbSpline
 62
250
  6
CONTINUOUS
 70
0
 71
3
 72
29
 73
25
 74
0
 42
0.0000001
 43
0.0000001
 44
0.0000000001
 40
0.0
 40
0.0
 40
0.0
 40
0.0
 40
0.0075003302
 40
0.0190481596
 40
0.0345497119
 40
0.0538802803
 40
0.0768790229
 40
0.1033561682
 40
0.1658465119
 40
0.2392961882
 40
0.3212953869
 40
0.4091570477
 40
0.4999999657
 40
0.5908428995
 40
0.6787045734
 40
0.7607037762
 40
0.8341534399
 40
0.8966437864
 40
0.923120937
 40
0.9461196814
 40
0.9654502544
 40
0.9809518178
 40
0.9924996592
 40
1.0
 40
1.0
 40
1.0
 40
1.0
 10
6.0067525543
 20
-61.2922084971
 30
0.0
 10
5.9767541643
 20
-61.293784305
 30
0.0
 10
5.9004368891
 20
-61.2947634419
 30
0.0
 10
5.7620744931
 20
-61.2941176664
 30
0.0
 10
5.5763321699
 20
-61.2911352146
 30
0.0
 10
5.3447672722
 20
-61.2861966782
 30
0.0
 10
5.0692691683
 20
-61.2794992541
 30
0.0
 10
4.6209769043
 20
-61.2680609628
 30
0.0
 10
3.970685883
 20
-61.2515208962
 30
0.0
 10
3.0980246713
 20
-61.2321549507
 30
0.0
 10
2.1236727154
 20
-61.2154981714
 30
0.0
 10
1.0795738496
 20
-61.2042940022
 30
0.0
 10
0.0000003487
 20
-61.2003483886
 30
0.0
 10
-1.0795732045
 20
-61.2042939946
 30
0.0
 10
-2.123672202
 20
-61.2154981657
 30
0.0
 10
-3.0980241764
 20
-61.232154941
 30
0.0
 10
-3.9706853654
 20
-61.2515208837
 30
0.0
 10
-4.620976369
 20
-61.2680609468
 30
0.0
 10
-5.0692686723
 20
-61.2794992432
 30
0.0
 10
-5.3447668231
 20
-61.2861966676
 30
0.0
 10
-5.5763317906
 20
-61.291135204
 30
0.0
 10
-5.7620742248
 20
-61.2941176734
 30
0.0
 10
-5.9004367559
 20
-61.2947634308
 30
0.0
 10
-5.9767541217
 20
-61.2937843027
 30
0.0
 10
-6.0067525543
 20
-61.2922084971
 30
0.0
  0
SPLINE
  5
426
100
AcDbEntity
  8
0
100
AcDbSpline
 62
250
  6
CONTINUOUS
 70
0
 71
3
 72
14
 73
10
 74
0
 42
0.0000001
 43
0.0000001
 44
0.0000000001
 40
0.0
 40
0.0
 40
0.0
 40
0.0
 40
0.0625040126
 40
0.1250115598
 40
0.2500233646
 40
0.3750347465
 40
0.5000451142
 40
0.7500331156
 40
1.0
 40
1.0
 40
1.0
 40
1.0
 10
-13.7206646361
 20
-58.0959684268
 30
0.0
 10
-13.8404102516
 20
-57.8725794783
 30
0.0
 10
-14.0780726488
 20
-57.4247921444
 30
0.0
 10
-14.5400572921
 20
-56.5222622745
 30
0.0
 10
-15.0933309861
 20
-55.3818634095
 30
0.0
 10
-15.7176367846
 20
-53.9948862882
 30
0.0
 10
-16.4966773786
 20
-52.1226804623
 30
0.0
 10
-17.369512734
 20
-49.7419125337
 30
0.0
 10
-17.9581002037
 20
-47.8005518387
 30
0.0
 10
-18.2245080624
 20
-46.8225493917
 30
0.0
  0
SPLINE
  5
427
100
AcDbEntity
  8
0
100
AcDbSpline
 62
250
  6
CONTINUOUS
 70
0
 71
3
 72
39
 73
35
 74
0
 42
0.0000001
 43
0.0000001
 44
0.0000000001
 40
0.0
 40
0.0
 40
0.0
 40
0.0
 40
0.0156298181
 40
0.0312594249
 40
0.0468890552
 40
0.0625187793
 40
0.0781486422
 40
0.0937785044
 40
0.1094083951
 40
0.1250382753
 40
0.1562937397
 40
0.1875493134
 40
0.2188056105
 40
0.2500627996
 40
0.3125353008
 40
0.3750146774
 40
0.4375037327
 40
0.4999999481
 40
0.5624961759
 40
0.6249851681
 40
0.6874645922
 40
0.7499370927
 40
0.7811942932
 40
0.8124505837
 40
0.8437061535
 40
0.8749616287
 40
0.8905915111
 40
0.9062214003
 40
0.9218512606
 40
0.9374811136
 40
0.9531108703
 40
0.9687405507
 40
0.9843701807
 40
1.0
 40
1.0
 40
1.0
 40
1.0
 10
14.6568720725
 20
-39.3749725313
 30
0.0
 10
14.5802315724
 20
-39.5569531762
 30
0.0
 10
14.4250760817
 20
-39.9201615905
 30
0.0
 10
14.1745675893
 20
-40.457098349
 30
0.0
 10
13.9055905301
 20
-40.9850247964
 30
0.0
 10
13.617684962
 20
-41.502882354
 30
0.0
 10
13.3114268103
 20
-42.0101036992
 30
0.0
 10
12.9871306081
 20
-42.5059837895
 30
0.0
 10
12.6459307687
 20
-42.9903776553
 30
0.0
 10
12.1707689239
 20
-43.6213612405
 30
0.0
 10
11.5392560197
 20
-44.381234722
 30
0.0
 10
10.7175687038
 20
-45.2359897868
 30
0.0
 10
9.835180214
 20
-46.0281341595
 30
0.0
 10
8.5831384885
 20
-46.9922880952
 30
0.0
 10
6.8853392942
 20
-48.0147438559
 30
0.0
 10
4.6846111679
 20
-48.913838283
 30
0.0
 10
2.3709288527
 20
-49.4628053317
 30
0.0
 10
0.0000004409
 20
-49.647440594
 30
0.0
 10
-2.3709203851
 20
-49.4627736413
 30
0.0
 10
-4.6846148141
 20
-48.9138595539
 30
0.0
 10
-6.8853402007
 20
-48.0147508877
 30
0.0
 10
-8.5831343059
 20
-46.9922882482
 30
0.0
 10
-9.8351804174
 20
-46.0281399353
 30
0.0
 10
-10.7175669472
 20
-45.2359925876
 30
0.0
 10
-11.5392478156
 20
-44.3812328179
 30
0.0
 10
-12.1707832365
 20
-43.6213767195
 30
0.0
 10
-12.6459189589
 20
-42.9903735495
 30
0.0
 10
-12.9871405287
 20
-42.5059949659
 30
0.0
 10
-13.3114148372
 20
-42.0101005577
 30
0.0
 10
-13.6176852215
 20
-41.5028866665
 30
0.0
 10
-13.905589964
 20
-40.9850273274
 30
0.0
 10
-14.1745667072
 20
-40.4570992972
 30
0.0
 10
-14.4250755547
 20
-39.9201616734
 30
0.0
 10
-14.5802321817
 20
-39.5569534036
 30
0.0
 10
-14.656872049
 20
-39.3749724763
 30
0.0
  0
SPLINE
  5
428
100
AcDbEntity
  8
0
100
AcDbSpline
 62
250
  6
CONTINUOUS
 70
0
 71
3
 72
11
 73
7
 74
0
 42
0.0000001
 43
0.0000001
 44
0.0000000001
 40
0.0
 40
0.0
 40
0.0
 40
0.0
 40
0.2491951137
 40
0.4988508395
 40
0.7491728405
 40
1.0
 40
1.0
 40
1.0
 40
1.0
 10
6.1479952973
 20
-61.1424052535
 30
0.0
 10
6.1292654817
 20
-61.1433658344
 30
0.0
 10
6.0917578191
 20
-61.1526189344
 30
0.0
 10
6.0449782798
 20
-61.1864309931
 30
0.0
 10
6.0139397693
 20
-61.2352258699
 30
0.0
 10
6.0067366404
 20
-61.2733312426
 30
0.0
 10
6.0067504607
 20
-61.2922084971
 30
0.0
  0
SPLINE
  5
429
100
AcDbEntity
  8
0
100
AcDbSpline
 62
250
  6
CONTINUOUS
 70
0
 71
3
 72
11
 73
7
 74
0
 42
0.0000001
 43
0.0000001
 44
0.0000000001
 40
0.0
 40
0.0
 40
0.0
 40
0.0
 40
0.249195114
 40
0.4988508459
 40
0.7491728472
 40
1.0
 40
1.0
 40
1.0
 40
1.0
 10
-6.1479953098
 20
-61.1424054965
 30
0.0
 10
-6.1292656857
 20
-61.143366331
 30
0.0
 10
-6.0917585128
 20
-61.152619794
 30
0.0
 10
-6.0449797195
 20
-61.186431902
 30
0.0
 10
-6.0139417358
 20
-61.2352264301
 30
0.0
 10
-6.0067387003
 20
-61.2733314225
 30
0.0
 10
-6.006752495
 20
-61.2922084971
 30
0.0
  0
SPLINE
  5
42A
100
AcDbEntity
  8
0
100
AcDbSpline
 62
250
  6
CONTINUOUS
 70
0
 71
3
 72
16
 73
12
 74
0
 42
0.0000001
 43
0.0000001
 44
0.0000000001
 40
0.0
 40
0.0
 40
0.0
 40
0.0
 40
0.2499985723
 40
0.374999963
 40
0.5000010394
 40
0.6250017221
 40
0.7500019199
 40
0.8125020777
 40
0.8750020957
 40
0.937501919
 40
1.0
 40
1.0
 40
1.0
 40
1.0
 10
0.0
 20
-60.3417678917
 30
0.0
 10
-0.834367917
 20
-60.33918253
 30
0.0
 10
-2.0859519616
 20
-60.319508321
 30
0.0
 10
-3.7537478952
 20
-60.2620649746
 30
0.0
 10
-5.0039894424
 20
-60.2035565931
 30
0.0
 10
-6.253420446
 20
-60.1298935062
 30
0.0
 10
-7.2938012359
 20
-60.0560123718
 30
0.0
 10
-8.1255479278
 20
-59.989760882
 30
0.0
 10
-8.7490420285
 20
-59.9362168572
 30
0.0
 10
-9.3722452675
 20
-59.8796342989
 30
0.0
 10
-9.7874868506
 20
-59.8390998387
 30
0.0
 10
-9.9947329623
 20
-59.815479808
 30
0.0
  0
SPLINE
  5
42B
100
AcDbEntity
  8
0
100
AcDbSpline
 62
250
  6
CONTINUOUS
 70
0
 71
3
 72
13
 73
9
 74
0
 42
0.0000001
 43
0.0000001
 44
0.0000000001
 40
0.0
 40
0.0
 40
0.0
 40
0.0
 40
0.0625845848
 40
0.125169861
 40
0.2502969443
 40
0.5001509465
 40
0.7500466782
 40
1.0
 40
1.0
 40
1.0
 40
1.0
 10
-9.9947329623
 20
-59.815479808
 30
0.0
 10
-10.0742329248
 20
-59.8064227756
 30
0.0
 10
-10.2326712791
 20
-59.7831663952
 30
0.0
 10
-10.5464936068
 20
-59.7198271501
 30
0.0
 10
-11.0840888676
 20
-59.5609690373
 30
0.0
 10
-11.8060532282
 20
-59.2003927898
 30
0.0
 10
-12.5460185989
 20
-58.578210378
 30
0.0
 10
-12.9305551646
 20
-58.0591506064
 30
0.0
 10
-13.0895346908
 20
-57.7819376148
 30
0.0
  0
SPLINE
  5
42C
100
AcDbEntity
  8
0
100
AcDbSpline
 62
250
  6
CONTINUOUS
 70
0
 71
3
 72
23
 73
19
 74
0
 42
0.0000001
 43
0.0000001
 44
0.0000000001
 40
0.0
 40
0.0
 40
0.0
 40
0.0
 40
0.0156253474
 40
0.0312516455
 40
0.0468777815
 40
0.0625040004
 40
0.0781303655
 40
0.0937567245
 40
0.1250094101
 40
0.1562620522
 40
0.1875146914
 40
0.2187673473
 40
0.2500200041
 40
0.3750257024
 40
0.5000310479
 40
0.6250356132
 40
0.7500386907
 40
1.0
 40
1.0
 40
1.0
 40
1.0
 10
-13.0895346908
 20
-57.7819376148
 30
0.0
 10
-13.1207358088
 20
-57.7275280697
 30
0.0
 10
-13.1829811896
 20
-57.6186151424
 30
0.0
 10
-13.2764303203
 20
-57.4552882374
 30
0.0
 10
-13.3671683806
 20
-57.2904202488
 30
0.0
 10
-13.4543058955
 20
-57.1236300629
 30
0.0
 10
-13.5405560667
 20
-56.956387635
 30
0.0
 10
-13.655035703
 20
-56.7331268662
 30
0.0
 10
-13.7969390198
 20
-56.4534400434
 30
0.0
 10
-13.9649862806
 20
-56.1166886141
 30
0.0
 10
-14.1301217494
 20
-55.778499209
 30
0.0
 10
-14.2925239199
 20
-55.4389890717
 30
0.0
 10
-14.6122245556
 20
-54.7575788649
 30
0.0
 10
-15.0719518318
 20
-53.7261808222
 30
0.0
 10
-15.6410950662
 20
-52.3323321645
 30
0.0
 10
-16.1653235476
 20
-50.9209353771
 30
0.0
 10
-16.802625679
 20
-49.0176683552
 30
0.0
 10
-17.2096385216
 20
-47.5670896169
 30
0.0
 10
-17.4480934704
 20
-46.5924803008
 30
0.0
  0
SPLINE
  5
42D
100
AcDbEntity
  8
0
100
AcDbSpline
 62
250
  6
CONTINUOUS
 70
0
 71
3
 72
9
 73
5
 74
0
 42
0.0000001
 43
0.0000001
 44
0.0000000001
 40
0.0
 40
0.0
 40
0.0
 40
0.0
 40
0.2481915916
 40
1.0
 40
1.0
 40
1.0
 40
1.0
 10
-17.4480934704
 20
-46.5924803008
 30
0.0
 10
-17.1758959893
 20
-46.363182124
 30
0.0
 10
-16.0826272237
 20
-45.4352025642
 30
0.0
 10
-15.0011703754
 20
-44.4933952774
 30
0.0
 10
-14.1914930387
 20
-43.7815643863
 30
0.0
  0
SPLINE
  5
42E
100
AcDbEntity
  8
0
100
AcDbSpline
 62
250
  6
CONTINUOUS
 70
0
 71
3
 72
23
 73
19
 74
0
 42
0.0000001
 43
0.0000001
 44
0.0000000001
 40
0.0
 40
0.0
 40
0.0
 40
0.0
 40
0.1257326873
 40
0.2513793328
 40
0.3141874329
 40
0.3769421028
 40
0.4396252649
 40
0.5022140412
 40
0.5334728914
 40
0.5647026039
 40
0.6270852833
 40
0.6893884669
 40
0.7516188654
 40
0.8137850323
 40
0.8758970566
 40
0.9379640137
 40
0.9689870742
 40
1.0
 40
1.0
 40
1.0
 40
1.0
 10
-0.0
 20
-53.1083524618
 30
0.0
 10
-0.7539960228
 20
-53.1103883671
 30
0.0
 10
-2.2640263437
 20
-53.0020215233
 30
0.0
 10
-4.1096366208
 20
-52.5891518156
 30
0.0
 10
-5.5359082327
 20
-52.1006416633
 30
0.0
 10
-6.5751239121
 20
-51.6570793016
 30
0.0
 10
-7.5789374807
 20
-51.1415813263
 30
0.0
 10
-8.3831926802
 20
-50.6559530301
 30
0.0
 10
-9.0043991383
 20
-50.2353663849
 30
0.0
 10
-9.609985519
 20
-49.7946680403
 30
0.0
 10
-10.335100967
 20
-49.2029164356
 30
0.0
 10
-11.1495649191
 20
-48.4313297067
 30
0.0
 10
-11.9030359419
 20
-47.6017531955
 30
0.0
 10
-12.5908554762
 20
-46.7184078134
 30
0.0
 10
-13.2076771861
 20
-45.7852024172
 30
0.0
 10
-13.6571272341
 20
-44.9689506874
 30
0.0
 10
-13.9771196541
 20
-44.2968743557
 30
0.0
 10
-14.1229134011
 20
-43.9544378206
 30
0.0
 10
-14.1914930387
 20
-43.7815643863
 30
0.0
  0
SPLINE
  5
42F
100
AcDbEntity
  8
0
100
AcDbSpline
 62
250
  6
CONTINUOUS
 70
0
 71
3
 72
16
 73
12
 74
0
 42
0.0000001
 43
0.0000001
 44
0.0000000001
 40
0.0
 40
0.0
 40
0.0
 40
0.0
 40
0.0624980864
 40
0.1249979151
 40
0.1874979384
 40
0.2499981008
 40
0.374998303
 40
0.4999989868
 40
0.6250000615
 40
0.7500014472
 40
1.0
 40
1.0
 40
1.0
 40
1.0
 10
9.9947329623
 20
-59.815479808
 30
0.0
 10
9.7874870097
 20
-59.839101392
 30
0.0
 10
9.3722451279
 20
-59.87963355
 30
0.0
 10
8.7490419303
 20
-59.9362169219
 30
0.0
 10
8.1255477578
 20
-59.9897607845
 30
0.0
 10
7.2938010394
 20
-60.0560125107
 30
0.0
 10
6.2534201967
 20
-60.1298934021
 30
0.0
 10
5.0039891902
 20
-60.2035566238
 30
0.0
 10
3.75374766
 20
-60.2620649811
 30
0.0
 10
2.0859518145
 20
-60.3195083253
 30
0.0
 10
0.8343678516
 20
-60.3391825298
 30
0.0
 10
0.0
 20
-60.3417678917
 30
0.0
  0
SPLINE
  5
430
100
AcDbEntity
  8
0
100
AcDbSpline
 62
250
  6
CONTINUOUS
 70
0
 71
3
 72
23
 73
19
 74
0
 42
0.0000001
 43
0.0000001
 44
0.0000000001
 40
0.0
 40
0.0
 40
0.0
 40
0.0
 40
0.031012927
 40
0.0620359875
 40
0.1241029442
 40
0.1862149671
 40
0.2483811336
 40
0.3106115331
 40
0.3729147195
 40
0.4352974047
 40
0.4665271165
 40
0.4977859691
 40
0.5603747404
 40
0.6230579012
 40
0.6858125666
 40
0.7486206647
 40
0.8742673119
 40
1.0
 40
1.0
 40
1.0
 40
1.0
 10
14.1914934329
 20
-43.7815647328
 30
0.0
 10
14.1229131373
 20
-43.9544379083
 30
0.0
 10
13.9771203182
 20
-44.296874823
 30
0.0
 10
13.6571257728
 20
-44.9689501493
 30
0.0
 10
13.207677159
 20
-45.7852025373
 30
0.0
 10
12.5908551686
 20
-46.7184077452
 30
0.0
 10
11.9030358994
 20
-47.6017533436
 30
0.0
 10
11.1495645211
 20
-48.4313292455
 30
0.0
 10
10.3351030801
 20
-49.2029193409
 30
0.0
 10
9.6099803096
 20
-49.7946611519
 30
0.0
 10
9.0044044447
 20
-50.2353741706
 30
0.0
 10
8.38318723
 20
-50.6559449948
 30
0.0
 10
7.5789395817
 20
-51.1415848833
 30
0.0
 10
6.5751212955
 20
-51.6570742876
 30
0.0
 10
5.5359082811
 20
-52.1006419415
 30
0.0
 10
4.1096363683
 20
-52.5891515624
 30
0.0
 10
2.2640263662
 20
-53.0020228771
 30
0.0
 10
0.7539960115
 20
-53.1103860935
 30
0.0
 10
-0.0
 20
-53.1083524618
 30
0.0
  0
SPLINE
  5
431
100
AcDbEntity
  8
0
100
AcDbSpline
 62
250
  6
CONTINUOUS
 70
0
 71
3
 72
9
 73
5
 74
0
 42
0.0000001
 43
0.0000001
 44
0.0000000001
 40
0.0
 40
0.0
 40
0.0
 40
0.0
 40
0.2481915917
 40
1.0
 40
1.0
 40
1.0
 40
1.0
 10
17.4480934704
 20
-46.5924803008
 30
0.0
 10
17.1758960223
 20
-46.3631821518
 30
0.0
 10
16.0826273897
 20
-45.4352027058
 30
0.0
 10
15.0011706717
 20
-44.4933955357
 30
0.0
 10
14.1914934329
 20
-43.7815647328
 30
0.0
  0
SPLINE
  5
432
100
AcDbEntity
  8
0
100
AcDbSpline
 62
250
  6
CONTINUOUS
 70
0
 71
3
 72
23
 73
19
 74
0
 42
0.0000001
 43
0.0000001
 44
0.0000000001
 40
0.0
 40
0.0
 40
0.0
 40
0.0
 40
0.2499614735
 40
0.3749645752
 40
0.4999691368
 40
0.6249744535
 40
0.7499801053
 40
0.7812327475
 40
0.8124853879
 40
0.8437380111
 40
0.8749906362
 40
0.9062433018
 40
0.92186965
 40
0.9374959985
 40
0.9531222229
 40
0.9687483685
 40
0.9843746609
 40
1.0
 40
1.0
 40
1.0
 40
1.0
 10
17.4480934704
 20
-46.5924803008
 30
0.0
 10
17.2096383606
 20
-47.5670902675
 30
0.0
 10
16.8026252911
 20
-49.0176697497
 30
0.0
 10
16.1653228402
 20
-50.9209374654
 30
0.0
 10
15.6410942938
 20
-52.3323342269
 30
0.0
 10
15.0719505587
 20
-53.7261823184
 30
0.0
 10
14.6122252762
 20
-54.7575808986
 30
0.0
 10
14.2925229791
 20
-55.4389899996
 30
0.0
 10
14.1301204078
 20
-55.7784997415
 30
0.0
 10
13.9649855143
 20
-56.1166892132
 30
0.0
 10
13.7969390121
 20
-56.4534407889
 30
0.0
 10
13.6550359863
 20
-56.7331275491
 30
0.0
 10
13.5405542345
 20
-56.9563870337
 30
0.0
 10
13.4543040047
 20
-57.1236292993
 30
0.0
 10
13.3671760997
 20
-57.2904245719
 30
0.0
 10
13.2764310986
 20
-57.4552888433
 30
0.0
 10
13.182983847
 20
-57.6186167523
 30
0.0
 10
13.1207357574
 20
-57.727528078
 30
0.0
 10
13.0895346908
 20
-57.7819376148
 30
0.0
  0
SPLINE
  5
433
100
AcDbEntity
  8
0
100
AcDbSpline
 62
250
  6
CONTINUOUS
 70
0
 71
3
 72
13
 73
9
 74
0
 42
0.0000001
 43
0.0000001
 44
0.0000000001
 40
0.0
 40
0.0
 40
0.0
 40
0.0
 40
0.2499533215
 40
0.4998490536
 40
0.7497030557
 40
0.8748301386
 40
0.9374154155
 40
1.0
 40
1.0
 40
1.0
 40
1.0
 10
13.0895346908
 20
-57.7819376148
 30
0.0
 10
12.9305548316
 20
-58.0591504152
 30
0.0
 10
12.5460187651
 20
-58.5782104813
 30
0.0
 10
11.8060531806
 20
-59.200392743
 30
0.0
 10
11.0840888827
 20
-59.5609690961
 30
0.0
 10
10.5464935926
 20
-59.7198270703
 30
0.0
 10
10.2326712949
 20
-59.7831665095
 30
0.0
 10
10.0742329086
 20
-59.8064226364
 30
0.0
 10
9.9947329623
 20
-59.815479808
 30
0.0
  0
SPLINE
  5
434
100
AcDbEntity
  8
0
100
AcDbSpline
 62
250
  6
CONTINUOUS
 70
0
 71
3
 72
45
 73
41
 74
0
 42
0.0000001
 43
0.0000001
 44
0.0000000001
 40
0.0
 40
0.0
 40
0.0
 40
0.0
 40
0.0078155657
 40
0.0156306625
 40
0.0234455725
 40
0.0312605711
 40
0.0390749398
 40
0.0468891985
 40
0.0625158413
 40
0.0781416404
 40
0.0937669039
 40
0.1093923122
 40
0.1250189782
 40
0.1562698643
 40
0.1875248331
 40
0.2187822217
 40
0.250041461
 40
0.312517309
 40
0.3750020004
 40
0.4374972229
 40
0.4999998947
 40
0.5625025827
 40
0.6249977295
 40
0.6874824697
 40
0.7499583146
 40
0.7812175597
 40
0.8124749508
 40
0.8437299086
 40
0.8749807685
 40
0.8906074539
 40
0.9062328425
 40
0.9218581151
 40
0.9374839111
 40
0.9531106038
 40
0.9609248924
 40
0.9687392734
 40
0.9765543923
 40
0.9843692483
 40
0.9921844194
 40
1.0
 40
1.0
 40
1.0
 40
1.0
 10
14.6568720725
 20
-39.3749725313
 30
0.0
 10
14.6446299401
 20
-39.4761100974
 30
0.0
 10
14.599732431
 20
-39.6755628538
 30
0.0
 10
14.5164925924
 20
-39.9694905243
 30
0.0
 10
14.4225406522
 20
-40.2604068869
 30
0.0
 10
14.3207262199
 20
-40.5485606643
 30
0.0
 10
14.2118710638
 20
-40.834139354
 30
0.0
 10
14.0579515941
 20
-41.2113867687
 30
0.0
 10
13.8498509791
 20
-41.6763591684
 30
0.0
 10
13.5757908539
 20
-42.2227180027
 30
0.0
 10
13.2780698074
 20
-42.7565372474
 30
0.0
 10
12.9570610226
 20
-43.2767182709
 30
0.0
 10
12.4980759172
 20
-43.9501487109
 30
0.0
 10
11.8681974299
 20
-44.7522148473
 30
0.0
 10
11.0364802883
 20
-45.6494789659
 30
0.0
 10
10.135397934
 20
-46.4773974089
 30
0.0
 10
8.8510267454
 20
-47.4821104267
 30
0.0
 10
7.1029683948
 20
-48.5442160006
 30
0.0
 10
4.8336293963
 20
-49.4760037762
 30
0.0
 10
2.4465244665
 20
-50.0442244404
 30
0.0
 10
0.0000033534
 20
-50.2352130752
 30
0.0
 10
-2.4465109576
 20
-50.0441972247
 30
0.0
 10
-4.8336261559
 20
-49.4760225264
 30
0.0
 10
-7.1029639609
 20
-48.5442255952
 30
0.0
 10
-8.8510176004
 20
-47.4821138197
 30
0.0
 10
-10.1353939725
 20
-46.4774069179
 30
0.0
 10
-11.0364724165
 20
-45.649484465
 30
0.0
 10
-11.8681910451
 20
-44.7522214336
 30
0.0
 10
-12.4980557036
 20
-43.9501461879
 30
0.0
 10
-12.9570643492
 20
-43.2767318133
 30
0.0
 10
-13.2780527488
 20
-42.7565380246
 30
0.0
 10
-13.5757909981
 20
-42.2227289456
 30
0.0
 10
-13.8498474469
 20
-41.6763670261
 30
0.0
 10
-14.0579467638
 20
-41.2113931631
 30
0.0
 10
-14.2118687544
 20
-40.8341454128
 30
0.0
 10
-14.3207222612
 20
-40.5485639205
 30
0.0
 10
-14.4225466227
 20
-40.2604124715
 30
0.0
 10
-14.5164879147
 20
-39.9694907417
 30
0.0
 10
-14.5997364033
 20
-39.6755652481
 30
0.0
 10
-14.6446322505
 20
-39.4761105211
 30
0.0
 10
-14.656872049
 20
-39.3749724763
 30
0.0
  0
SPLINE
  5
435
100
AcDbEntity
  8
0
100
AcDbSpline
 62
250
  6
CONTINUOUS
 70
0
 71
3
 72
29
 73
25
 74
0
 42
0.0000001
 43
0.0000001
 44
0.0000000001
 40
0.0
 40
0.0
 40
0.0
 40
0.0
 40
0.0078367991
 40
0.0156829975
 40
0.0235206703
 40
0.0313601538
 40
0.0392007381
 40
0.0470405114
 40
0.0627200608
 40
0.0783998238
 40
0.0940793667
 40
0.1254376881
 40
0.1567944313
 40
0.188148286
 40
0.219498611
 40
0.2508437741
 40
0.3135173781
 40
0.3761630132
 40
0.4387773114
 40
0.5013535591
 40
0.6263625747
 40
0.7511622998
 40
0.8757173323
 40
1.0
 40
1.0
 40
1.0
 40
1.0
 10
15.1999667913
 20
-37.3
 30
0.0
 10
15.2003898581
 20
-37.3169559841
 30
0.0
 10
15.1978680094
 20
-37.3508877561
 30
0.0
 10
15.1938504383
 20
-37.4016059103
 30
0.0
 10
15.191494429
 20
-37.45247727
 30
0.0
 10
15.1880697232
 20
-37.5032606409
 30
0.0
 10
15.1844236172
 20
-37.5540344814
 30
0.0
 10
15.1794816883
 20
-37.6217268525
 30
0.0
 10
15.1727310922
 20
-37.706298064
 30
0.0
 10
15.1638200022
 20
-37.8077149394
 30
0.0
 10
15.1509502745
 20
-37.9428447069
 30
0.0
 10
15.1331005659
 20
-38.1115800721
 30
0.0
 10
15.1089655528
 20
-38.3137409847
 30
0.0
 10
15.0836646811
 20
-38.5157436072
 30
0.0
 10
15.0556719233
 20
-38.7173641295
 30
0.0
 10
15.0170918607
 20
-38.9859515296
 30
0.0
 10
14.960237835
 20
-39.3202743267
 30
0.0
 10
14.8830265942
 20
-39.719661504
 30
0.0
 10
14.7946455516
 20
-40.1165329617
 30
0.0
 10
14.6629639998
 20
-40.6418387439
 30
0.0
 10
14.4722852379
 20
-41.290860055
 30
0.0
 10
14.202961938
 20
-42.0554011869
 30
0.0
 10
13.8962584802
 20
-42.8039968903
 30
0.0
 10
13.6684320704
 20
-43.2922191196
 30
0.0
 10
13.549923251
 20
-43.5336921684
 30
0.0
  0
SPLINE
  5
436
100
AcDbEntity
  8
0
100
AcDbSpline
 62
250
  6
CONTINUOUS
 70
0
 71
3
 72
19
 73
15
 74
0
 42
0.0000001
 43
0.0000001
 44
0.0000000001
 40
0.0
 40
0.0
 40
0.0
 40
0.0
 40
0.0622238706
 40
0.1244260731
 40
0.1866244682
 40
0.2488462182
 40
0.3111080936
 40
0.3734246425
 40
0.4358067344
 40
0.4982678025
 40
0.6233798935
 40
0.7487728233
 40
0.8743402118
 40
1.0
 40
1.0
 40
1.0
 40
1.0
 10
13.549923251
 20
-43.5336921684
 30
0.0
 10
13.3952246251
 20
-43.8489476385
 30
0.0
 10
13.0620610678
 20
-44.4677242348
 30
0.0
 10
12.5119545451
 20
-45.366542037
 30
0.0
 10
11.9029920189
 20
-46.2269030118
 30
0.0
 10
11.2373608153
 20
-47.0445615743
 30
0.0
 10
10.5174362927
 20
-47.8158287386
 30
0.0
 10
9.7451702575
 20
-48.5360177708
 30
0.0
 10
8.923826165
 20
-49.2015730538
 30
0.0
 10
7.7667290482
 20
-50.010273838
 30
0.0
 10
6.2094682279
 20
-50.858226978
 30
0.0
 10
4.2125644515
 20
-51.5977385477
 30
0.0
 10
2.1287874293
 20
-52.049772594
 30
0.0
 10
0.7091707727
 20
-52.1530160099
 30
0.0
 10
-0.0
 20
-52.1546396573
 30
0.0
  0
SPLINE
  5
437
100
AcDbEntity
  8
0
100
AcDbSpline
 62
250
  6
CONTINUOUS
 70
0
 71
3
 72
19
 73
15
 74
0
 42
0.0000001
 43
0.0000001
 44
0.0000000001
 40
0.0
 40
0.0
 40
0.0
 40
0.0
 40
0.1256597844
 40
0.2512271687
 40
0.3766201214
 40
0.5017322244
 40
0.564193304
 40
0.62657537
 40
0.6888919174
 40
0.7511537916
 40
0.8133755402
 40
0.8755739347
 40
0.9377761362
 40
1.0
 40
1.0
 40
1.0
 40
1.0
 10
-0.0
 20
-52.1546396573
 30
0.0
 10
-0.7091707711
 20
-52.1530170446
 30
0.0
 10
-2.1287875297
 20
-52.0497723641
 30
0.0
 10
-4.2125641494
 20
-51.5977375758
 30
0.0
 10
-6.2094701462
 20
-50.858230855
 30
0.0
 10
-7.7667299363
 20
-50.0102750728
 30
0.0
 10
-8.9238278158
 20
-49.2015752731
 30
0.0
 10
-9.7451693916
 20
-48.5360169764
 30
0.0
 10
-10.5174361826
 20
-47.8158290689
 30
0.0
 10
-11.2373606378
 20
-47.0445617762
 30
0.0
 10
-11.9029918708
 20
-46.2269032497
 30
0.0
 10
-12.5119545243
 20
-45.3665423512
 30
0.0
 10
-13.0620613598
 20
-44.4677247842
 30
0.0
 10
-13.3952247209
 20
-43.8489480455
 30
0.0
 10
-13.5499223266
 20
-43.5336921082
 30
0.0
  0
SPLINE
  5
438
100
AcDbEntity
  8
0
100
AcDbSpline
 62
250
  6
CONTINUOUS
 70
0
 71
3
 72
27
 73
23
 74
0
 42
0.0000001
 43
0.0000001
 44
0.0000000001
 40
0.0
 40
0.0
 40
0.0
 40
0.0
 40
0.1242833661
 40
0.248839146
 40
0.3736394063
 40
0.4986484001
 40
0.5612247381
 40
0.6238386718
 40
0.6864852266
 40
0.749158691
 40
0.8118531236
 40
0.843207019
 40
0.8745638815
 40
0.9059222558
 40
0.9216018519
 40
0.9372815899
 40
0.9529613338
 40
0.9686409053
 40
0.9764810438
 40
0.9843204668
 40
0.992160376
 40
1.0
 40
1.0
 40
1.0
 40
1.0
 10
-13.5499223266
 20
-43.5336921082
 30
0.0
 10
-13.6684312767
 20
-43.2922181923
 30
0.0
 10
-13.8962570837
 20
-42.8039936661
 30
0.0
 10
-14.2029644429
 20
-42.0553975838
 30
0.0
 10
-14.4722903667
 20
-41.2908551164
 30
0.0
 10
-14.6629426025
 20
-40.64182944
 30
0.0
 10
-14.7946828513
 20
-40.1165370302
 30
0.0
 10
-14.8829000428
 20
-39.7196344359
 30
0.0
 10
-14.9605706577
 20
-39.3203280827
 30
0.0
 10
-15.0279201578
 20
-38.9189671391
 30
0.0
 10
-15.0748402332
 20
-38.5830022879
 30
0.0
 10
-15.1090455375
 20
-38.3137513547
 30
0.0
 10
-15.1331178238
 20
-38.111581002
 30
0.0
 10
-15.1509351057
 20
-37.9428429513
 30
0.0
 10
-15.163831461
 20
-37.8077158309
 30
0.0
 10
-15.1727193086
 20
-37.7062965062
 30
0.0
 10
-15.1808410994
 20
-37.6048134551
 30
0.0
 10
-15.1868616564
 20
-37.5201853573
 30
0.0
 10
-15.1913496534
 20
-37.4524661476
 30
0.0
 10
-15.194535754
 20
-37.4016533322
 30
0.0
 10
-15.1967833542
 20
-37.350827846
 30
0.0
 10
-15.2003467385
 20
-37.3169630766
 30
0.0
 10
-15.1999667394
 20
-37.3
 30
0.0
  0
SPLINE
  5
439
100
AcDbEntity
  8
0
100
AcDbSpline
 62
250
  6
CONTINUOUS
 70
0
 71
3
 72
14
 73
10
 74
0
 42
0.0000001
 43
0.0000001
 44
0.0000000001
 40
0.0
 40
0.0
 40
0.0
 40
0.0
 40
0.0380280067
 40
0.1050315939
 40
0.1996649528
 40
0.3199843071
 40
0.4633933164
 40
0.6268940961
 40
1.0
 40
1.0
 40
1.0
 40
1.0
 10
-13.7206231169
 20
-58.0960458182
 30
0.0
 10
-13.7120055554
 20
-58.0936701529
 30
0.0
 10
-13.6891510705
 20
-58.0840804693
 30
0.0
 10
-13.6463373899
 20
-58.0649900102
 30
0.0
 10
-13.5865426904
 20
-58.036323546
 30
0.0
 10
-13.5109761696
 20
-57.9991226009
 30
0.0
 10
-13.4212817564
 20
-57.9539405528
 30
0.0
 10
-13.2789795875
 20
-57.8811332652
 30
0.0
 10
-13.1671463757
 20
-57.8227835739
 30
0.0
 10
-13.0895346928
 20
-57.7819376161
 30
0.0
  0
SPLINE
  5
43A
100
AcDbEntity
  8
0
100
AcDbSpline
 62
250
  6
CONTINUOUS
 70
0
 71
3
 72
14
 73
10
 74
0
 42
0.0000001
 43
0.0000001
 44
0.0000000001
 40
0.0
 40
0.0
 40
0.0
 40
0.0
 40
0.0380715328
 40
0.1050535329
 40
0.1996744609
 40
0.3198475379
 40
0.4631573573
 40
0.6266844287
 40
1.0
 40
1.0
 40
1.0
 40
1.0
 10
-10.0305190266
 20
-60.5129517803
 30
0.0
 10
-10.0317401149
 20
-60.5041702225
 30
0.0
 10
-10.0320424929
 20
-60.4796160927
 30
0.0
 10
-10.0316066089
 20
-60.4331725231
 30
0.0
 10
-10.0291957106
 20
-60.3675653253
 30
0.0
 10
-10.0252842929
 20
-60.2842727645
 30
0.0
 10
-10.0197160562
 20
-60.1849821707
 30
0.0
 10
-10.0098733127
 20
-60.0268963989
 30
0.0
 10
-10.0011210004
 20
-59.9021808675
 30
0.0
 10
-9.9947327744
 20
-59.8154786534
 30
0.0
  0
SPLINE
  5
43B
100
AcDbEntity
  8
0
100
AcDbSpline
 62
250
  6
CONTINUOUS
 70
0
 71
3
 72
11
 73
7
 74
0
 42
0.0000001
 43
0.0000001
 44
0.0000000001
 40
0.0
 40
0.0
 40
0.0
 40
0.0
 40
0.1058471368
 40
0.3182639123
 40
0.6230895
 40
1.0
 40
1.0
 40
1.0
 40
1.0
 10
0.0021948087
 20
-60.9248742562
 30
0.0
 10
0.0017266945
 20
-60.9043059878
 30
0.0
 10
0.0014669469
 20
-60.8424408369
 30
0.0
 10
0.0007751696
 20
-60.7213355707
 30
0.0
 10
0.0003643617
 20
-60.5475370673
 30
0.0
 10
0.0001053561
 20
-60.4150282177
 30
0.0
 10
0.0
 20
-60.3417678909
 30
0.0
  0
SPLINE
  5
43C
100
AcDbEntity
  8
0
100
AcDbSpline
 62
250
  6
CONTINUOUS
 70
0
 71
3
 72
14
 73
10
 74
0
 42
0.0000001
 43
0.0000001
 44
0.0000000001
 40
0.0
 40
0.0
 40
0.0
 40
0.0
 40
0.038071168
 40
0.1050527954
 40
0.1996734564
 40
0.3198464123
 40
0.4631562748
 40
0.6266835558
 40
1.0
 40
1.0
 40
1.0
 40
1.0
 10
10.030518959
 20
-60.5129509768
 30
0.0
 10
10.0317409125
 20
-60.5041696443
 30
0.0
 10
10.0320441783
 20
-60.4796156574
 30
0.0
 10
10.031609421
 20
-60.4331724653
 30
0.0
 10
10.0291991636
 20
-60.3675655292
 30
0.0
 10
10.0252880533
 20
-60.2842732236
 30
0.0
 10
10.0197196331
 20
-60.1849828172
 30
0.0
 10
10.0098759697
 20
-60.0268971807
 30
0.0
 10
10.001122292
 20
-59.9021817571
 30
0.0
 10
9.9947329301
 20
-59.8154796095
 30
0.0
  0
SPLINE
  5
43D
100
AcDbEntity
  8
0
100
AcDbSpline
 62
250
  6
CONTINUOUS
 70
0
 71
3
 72
14
 73
10
 74
0
 42
0.0000001
 43
0.0000001
 44
0.0000000001
 40
0.0
 40
0.0
 40
0.0
 40
0.0
 40
0.0380283935
 40
0.1050322445
 40
0.1996657414
 40
0.3199851143
 40
0.4633940352
 40
0.6268946362
 40
1.0
 40
1.0
 40
1.0
 40
1.0
 10
13.7206212736
 20
-58.0960448234
 30
0.0
 10
13.7120036505
 20
-58.0936690944
 30
0.0
 10
13.6891490681
 20
-58.0840793681
 30
0.0
 10
13.6463352968
 20
-58.0649888337
 30
0.0
 10
13.5865406087
 20
-58.0363223727
 30
0.0
 10
13.5109741987
 20
-57.9991214746
 30
0.0
 10
13.4212799841
 20
-57.9539395265
 30
0.0
 10
13.2789782155
 20
-57.8811324444
 30
0.0
 10
13.1671453349
 20
-57.8227829278
 30
0.0
 10
13.0895338907
 20
-57.7819370958
 30
0.0
  0
SPLINE
  5
43E
100
AcDbEntity
  8
0
100
AcDbSpline
 62
250
  6
CONTINUOUS
 70
0
 71
3
 72
14
 73
10
 74
0
 42
0.0000001
 43
0.0000001
 44
0.0000000001
 40
0.0
 40
0.0
 40
0.0
 40
0.0
 40
0.037122978
 40
0.1043827544
 40
0.2001135806
 40
0.3219429754
 40
0.4667200284
 40
0.63081958
 40
1.0
 40
1.0
 40
1.0
 40
1.0
 10
18.2245080578
 20
-46.8225493905
 30
0.0
 10
18.2154882766
 20
-46.8181788996
 30
0.0
 10
18.1888020335
 20
-46.8088561651
 30
0.0
 10
18.1376139789
 20
-46.7917377261
 30
0.0
 10
18.0641047048
 20
-46.7690539299
 30
0.0
 10
17.970418316
 20
-46.7409285525
 30
0.0
 10
17.8587937122
 20
-46.7083151304
 30
0.0
 10
17.6828195938
 20
-46.6578480085
 30
0.0
 10
17.5441628956
 20
-46.6190475977
 30
0.0
 10
17.448093469
 20
-46.5924803005
 30
0.0
  0
SPLINE
  5
43F
100
AcDbEntity
  8
0
100
AcDbSpline
 62
250
  6
CONTINUOUS
 70
0
 71
3
 72
11
 73
7
 74
0
 42
0.0000001
 43
0.0000001
 44
0.0000000001
 40
0.0
 40
0.0
 40
0.0
 40
0.0
 40
0.2499973029
 40
0.4999901298
 40
0.7499872066
 40
1.0
 40
1.0
 40
1.0
 40
1.0
 10
-17.4480934704
 20
-46.5924803008
 30
0.0
 10
-17.6337950213
 20
-45.8302797662
 30
0.0
 10
-17.9697905815
 20
-44.2970531045
 30
0.0
 10
-18.3736203104
 20
-41.9778354374
 30
0.0
 10
-18.6853174898
 20
-39.6444873215
 30
0.0
 10
-18.8351131485
 20
-38.0821922854
 30
0.0
 10
-18.895509836
 20
-37.2999754157
 30
0.0
  0
SPLINE
  5
440
100
AcDbEntity
  8
0
100
AcDbSpline
 62
250
  6
CONTINUOUS
 70
0
 71
3
 72
26
 73
22
 74
0
 42
0.0000001
 43
0.0000001
 44
0.0000000001
 40
0.0
 40
0.0
 40
0.0
 40
0.0
 40
0.1240586523
 40
0.2484294655
 40
0.3731038785
 40
0.4980612163
 40
0.6232729575
 40
0.685967996
 40
0.7487105873
 40
0.780098097
 40
0.8114949474
 40
0.8428990688
 40
0.8743101254
 40
0.9057270021
 40
0.9371484763
 40
0.9528606386
 40
0.968573394
 40
0.976429973
 40
0.9842865825
 40
0.99214326
 40
1.0
 40
1.0
 40
1.0
 40
1.0
 10
-14.1914930387
 20
-43.7815643863
 30
0.0
 10
-14.2905602493
 20
-43.5263969897
 30
0.0
 10
-14.4774904617
 20
-43.0108484115
 30
0.0
 10
-14.7177053507
 20
-42.2230699999
 30
0.0
 10
-14.9164630102
 20
-41.421754497
 30
0.0
 10
-15.0723814964
 20
-40.6091373165
 30
0.0
 10
-15.166637621
 20
-39.9249561791
 30
0.0
 10
-15.2208490403
 20
-39.3745311861
 30
0.0
 10
-15.2453442962
 20
-39.0293358335
 30
0.0
 10
-15.2600028316
 20
-38.7527545531
 30
0.0
 10
-15.2676485271
 20
-38.545065075
 30
0.0
 10
-15.2700326169
 20
-38.3371693166
 30
0.0
 10
-15.2647923382
 20
-38.1292867103
 30
0.0
 10
-15.2547920181
 20
-37.9215609685
 30
0.0
 10
-15.2426027891
 20
-37.7486621338
 30
0.0
 10
-15.2310306058
 20
-37.6104804295
 30
0.0
 10
-15.2230944167
 20
-37.5241722784
 30
0.0
 10
-15.2163287554
 20
-37.4551649341
 30
0.0
 10
-15.2109906014
 20
-37.4034335424
 30
0.0
 10
-15.2059587004
 20
-37.3516768549
 30
0.0
 10
-15.2011758342
 20
-37.3173033918
 30
0.0
 10
-15.1999674105
 20
-37.3000104019
 30
0.0
  0
SPLINE
  5
441
100
AcDbEntity
  8
0
100
AcDbSpline
 62
250
  6
CONTINUOUS
 70
0
 71
3
 72
11
 73
7
 74
0
 42
0.0000001
 43
0.0000001
 44
0.0000000001
 40
0.0
 40
0.0
 40
0.0
 40
0.0
 40
0.2500127933
 40
0.5000098703
 40
0.7500026971
 40
1.0
 40
1.0
 40
1.0
 40
1.0
 10
18.895509823
 20
-37.2999756031
 30
0.0
 10
18.835112605
 20
-38.0821924159
 30
0.0
 10
18.6853178138
 20
-39.6444874909
 30
0.0
 10
18.373620173
 20
-41.9778355176
 30
0.0
 10
17.9697905952
 20
-44.2970531503
 30
0.0
 10
17.6337951254
 20
-45.8302798077
 30
0.0
 10
17.4480934704
 20
-46.5924803008
 30
0.0
  0
SPLINE
  5
442
100
AcDbEntity
  8
0
100
AcDbSpline
 62
250
  6
CONTINUOUS
 70
0
 71
3
 72
27
 73
23
 74
0
 42
0.0000001
 43
0.0000001
 44
0.0000000001
 40
0.0
 40
0.0
 40
0.0
 40
0.0
 40
0.0078560488
 40
0.0157139208
 40
0.023570295
 40
0.031426831
 40
0.0471395738
 40
0.0628517215
 40
0.0942731942
 40
0.1256900541
 40
0.1571009319
 40
0.1885060466
 40
0.2199024615
 40
0.2512902003
 40
0.2826677575
 40
0.3140339997
 40
0.3767288212
 40
0.5019406705
 40
0.626898038
 40
0.7515719293
 40
0.875942115
 40
1.0
 40
1.0
 40
1.0
 40
1.0
 10
15.1999662395
 20
-37.3
 30
0.0
 10
15.2011746275
 20
-37.3172915212
 30
0.0
 10
15.2053699306
 20
-37.35172905
 30
0.0
 10
15.2113740698
 20
-37.4033813768
 30
0.0
 10
15.2162237548
 20
-37.4551659254
 30
0.0
 10
15.2230916159
 20
-37.5241617799
 30
0.0
 10
15.2310378019
 20
-37.6104699824
 30
0.0
 10
15.242594387
 20
-37.7486530241
 30
0.0
 10
15.2547967539
 20
-37.9215519631
 30
0.0
 10
15.2647809736
 20
-38.1292771035
 30
0.0
 10
15.2701158806
 20
-38.3371638528
 30
0.0
 10
15.2674185654
 20
-38.5450540955
 30
0.0
 10
15.2603808701
 20
-38.7527670765
 30
0.0
 10
15.2488995677
 20
-38.9602193708
 30
0.0
 10
15.2354835363
 20
-39.1674809125
 30
0.0
 10
15.2140758146
 20
-39.4434305751
 30
0.0
 10
15.166612447
 20
-39.9249543026
 30
0.0
 10
15.0723797853
 20
-40.6091378414
 30
0.0
 10
14.9164653527
 20
-41.4217592495
 30
0.0
 10
14.7177004039
 20
-42.2230726466
 30
0.0
 10
14.4775001237
 20
-43.0108541534
 30
0.0
 10
14.2905601428
 20
-43.5263979844
 30
0.0
 10
14.1914934329
 20
-43.7815647328
 30
0.0
  0
SPLINE
  5
443
100
AcDbEntity
  8
0
100
AcDbSpline
 62
250
  6
CONTINUOUS
 70
0
 71
3
 72
14
 73
10
 74
0
 42
0.0000001
 43
0.0000001
 44
0.0000000001
 40
0.0
 40
0.0
 40
0.0
 40
0.0
 40
0.0371229647
 40
0.1043827317
 40
0.2001135523
 40
0.3219429455
 40
0.4667200006
 40
0.6308195581
 40
1.0
 40
1.0
 40
1.0
 40
1.0
 10
-18.2245079942
 20
-46.8225493733
 30
0.0
 10
-18.215488216
 20
-46.8181788866
 30
0.0
 10
-18.1888019799
 20
-46.8088561589
 30
0.0
 10
-18.1376139359
 20
-46.791737728
 30
0.0
 10
-18.0641046721
 20
-46.7690539385
 30
0.0
 10
-17.9704182929
 20
-46.7409285658
 30
0.0
 10
-17.858793698
 20
-46.7083151457
 30
0.0
 10
-17.6828195895
 20
-46.6578480219
 30
0.0
 10
-17.5441628992
 20
-46.6190476053
 30
0.0
 10
-17.4480934778
 20
-46.5924803019
 30
0.0
  0
SPLINE
  5
444
100
AcDbEntity
  8
0
100
AcDbSpline
 62
250
  6
CONTINUOUS
 70
0
 71
3
 72
17
 73
13
 74
0
 42
0.0000001
 43
0.0000001
 44
0.0000000001
 40
0.0
 40
0.0
 40
0.0
 40
0.0
 40
0.0141281979
 40
0.0363699139
 40
0.0666325897
 40
0.1047129994
 40
0.2029629681
 40
0.3278500404
 40
0.4752108417
 40
0.6400631508
 40
0.8170417919
 40
1.0
 40
1.0
 40
1.0
 40
1.0
 10
19.887034559
 20
-37.3808310001
 30
0.0
 10
19.8824337638
 20
-37.3817220424
 30
0.0
 10
19.870315893
 20
-37.3823119601
 30
0.0
 10
19.8482392774
 20
-37.3819176787
 30
0.0
 10
19.8182417984
 20
-37.3798428856
 30
0.0
 10
19.7632415227
 20
-37.3745795613
 30
0.0
 10
19.6770112455
 20
-37.3660507503
 30
0.0
 10
19.5545542082
 20
-37.3557019574
 30
0.0
 10
19.4101178311
 20
-37.3431014601
 30
0.0
 10
19.2484371141
 20
-37.3293586593
 30
0.0
 10
19.0749731613
 20
-37.3148317805
 30
0.0
 10
18.9559903465
 20
-37.3049783306
 30
0.0
 10
18.8955081356
 20
-37.2999999969
 30
0.0
  0
SPLINE
  5
445
100
AcDbEntity
  8
0
100
AcDbSpline
 62
250
  6
CONTINUOUS
 70
0
 71
3
 72
9
 73
5
 74
0
 42
0.0000001
 43
0.0000001
 44
0.0000000001
 40
0.0
 40
0.0
 40
0.0
 40
0.0
 40
0.5215733908
 40
1.0
 40
1.0
 40
1.0
 40
1.0
 10
14.1914934688
 20
-43.7815647111
 30
0.0
 10
14.0828565965
 20
-43.7314358495
 30
0.0
 10
13.871554964
 20
-43.6417848327
 30
0.0
 10
13.6550060029
 20
-43.565348687
 30
0.0
 10
13.5499234867
 20
-43.5336923509
 30
0.0
  0
SPLINE
  5
446
100
AcDbEntity
  8
0
100
AcDbSpline
 62
250
  6
CONTINUOUS
 70
0
 71
3
 72
23
 73
19
 74
0
 42
0.0000001
 43
0.0000001
 44
0.0000000001
 40
0.0
 40
0.0
 40
0.0
 40
0.0
 40
0.0064677418
 40
0.0092687577
 40
0.0126152519
 40
0.0209935947
 40
0.0316569613
 40
0.0446151878
 40
0.0598545884
 40
0.0773487405
 40
0.1189576326
 40
0.1690774818
 40
0.2272436594
 40
0.2929064938
 40
0.444140548
 40
0.6169614548
 40
0.8046756119
 40
1.0
 40
1.0
 40
1.0
 40
1.0
 10
-4.4998052187
 20
-64.3
 30
0.0
 10
-4.5015092359
 20
-64.2903965657
 30
0.0
 10
-4.4864757325
 20
-64.2785212455
 30
0.0
 10
-4.4702186289
 20
-64.270554654
 30
0.0
 10
-4.4496686812
 20
-64.262139805
 30
0.0
 10
-4.4174725987
 20
-64.2524016355
 30
0.0
 10
-4.3704403407
 20
-64.2412200084
 30
0.0
 10
-4.3128965227
 20
-64.2301868331
 30
0.0
 10
-4.2448527723
 20
-64.2192373638
 30
0.0
 10
-4.1337841608
 20
-64.2039668322
 30
0.0
 10
-3.9700297296
 20
-64.1859921068
 30
0.0
 10
-3.7448308608
 20
-64.1663588482
 30
0.0
 10
-3.4831540947
 20
-64.147892627
 30
0.0
 10
-3.0690380446
 20
-64.1239649762
 30
0.0
 10
-2.4818207637
 20
-64.0993231452
 30
0.0
 10
-1.7103409754
 20
-64.078050501
 30
0.0
 10
-0.8721828289
 20
-64.0649162214
 30
0.0
 10
-0.2945511137
 20
-64.0619707337
 30
0.0
 10
0.0000006912
 20
-64.0619707443
 30
0.0
  0
SPLINE
  5
447
100
AcDbEntity
  8
0
100
AcDbSpline
 62
250
  6
CONTINUOUS
 70
0
 71
3
 72
12
 73
8
 74
0
 42
0.0000001
 43
0.0000001
 44
0.0000000001
 40
0.0
 40
0.0
 40
0.0
 40
0.0
 40
0.3048063466
 40
0.5866196859
 40
0.8242552677
 40
0.9207951374
 40
1.0
 40
1.0
 40
1.0
 40
1.0
 10
0.0000006912
 20
-64.0619707443
 30
0.0
 10
0.4082153408
 20
-64.061970778
 30
0.0
 10
1.1938685062
 20
-64.0674464336
 30
0.0
 10
2.297521579
 20
-64.0918482202
 30
0.0
 10
3.1219176426
 20
-64.1251481121
 30
0.0
 10
3.6744351752
 20
-64.1604270203
 30
0.0
 10
3.9089959191
 20
-64.180334915
 30
0.0
 10
4.0145083725
 20
-64.1912529379
 30
0.0
  0
SPLINE
  5
448
100
AcDbEntity
  8
0
100
AcDbSpline
 62
250
  6
CONTINUOUS
 70
0
 71
3
 72
18
 73
14
 74
0
 42
0.0000001
 43
0.0000001
 44
0.0000000001
 40
0.0
 40
0.0
 40
0.0
 40
0.0
 40
0.2264323086
 40
0.4240937308
 40
0.5924175284
 40
0.7309438776
 40
0.8395102968
 40
0.8826306237
 40
0.9184265633
 40
0.947144425
 40
0.9693012959
 40
0.9860535615
 40
1.0
 40
1.0
 40
1.0
 40
1.0
 10
4.0145083725
 20
-64.1912529379
 30
0.0
 10
4.0526369096
 20
-64.1951983323
 30
0.0
 10
4.1240001047
 20
-64.203087326
 30
0.0
 10
4.2234589689
 20
-64.2160123612
 30
0.0
 10
4.3078650971
 20
-64.2291540168
 30
0.0
 10
4.376931016
 20
-64.2424656952
 30
0.0
 10
4.4246697438
 20
-64.2542947638
 30
0.0
 10
4.4548318444
 20
-64.2642309851
 30
0.0
 10
4.471723094
 20
-64.2711084087
 30
0.0
 10
4.4847307948
 20
-64.2779911742
 30
0.0
 10
4.493914604
 20
-64.2849173271
 30
0.0
 10
4.499500796
 20
-64.2922009711
 30
0.0
 10
4.5002178375
 20
-64.2976753805
 30
0.0
 10
4.4998052187
 20
-64.3
 30
0.0
  0
SPLINE
  5
449
100
AcDbEntity
  8
0
100
AcDbSpline
 62
250
  6
CONTINUOUS
 70
0
 71
3
 72
9
 73
5
 74
0
 42
0.0000001
 43
0.0000001
 44
0.0000000001
 40
0.0
 40
0.0
 40
0.0
 40
0.0
 40
0.5215734361
 40
1.0
 40
1.0
 40
1.0
 40
1.0
 10
-14.1914933153
 20
-43.7815642187
 30
0.0
 10
-14.0828554119
 20
-43.7314368337
 30
0.0
 10
-13.8715530495
 20
-43.6417863019
 30
0.0
 10
-13.6550040873
 20
-43.5653483997
 30
0.0
 10
-13.5499214732
 20
-43.5336914471
 30
0.0
  0
LINE
  5
44A
100
AcDbEntity
  8
RACCORDO
100
AcDbLine
 62
250
  6
CONTINUOUS
 10
-62.0611285002
 20
-10.55
 11
-62.0297117191
 21
-14.3000000006
  0
LINE
  5
44B
100
AcDbEntity
  8
RACCORDO
100
AcDbLine
 62
250
  6
CONTINUOUS
 10
-62.0297117191
 20
-14.3000000006
 11
-62.0611285003
 21
-18.0500000035
  0
LINE
  5
44C
100
AcDbEntity
  8
0
100
AcDbLine
 62
7
  6
CONTINUOUS
 10
-78.1129437961
 20
-38.7097986282
 11
-78.1139560154
 21
-38.7317837978
  0
SPLINE
  5
44D
100
AcDbEntity
  8
0
100
AcDbSpline
 62
7
  6
CONTINUOUS
 70
0
 71
3
 72
9
 73
5
 74
0
 42
0.0000001
 43
0.0000001
 44
0.0000000001
 40
0.0
 40
0.0
 40
0.0
 40
0.0
 40
0.5080919324
 40
1.0
 40
1.0
 40
1.0
 40
1.0
 10
-78.1379783628
 20
-39.1837859706
 30
0.0
 10
-78.1840876765
 20
-39.954234006
 30
0.0
 10
-78.3255540326
 20
-41.4678725633
 30
0.0
 10
-78.5556090546
 20
-42.9702906064
 30
0.0
 10
-78.6891068175
 20
-43.7055111132
 30
0.0
  0
LINE
  5
44E
100
AcDbEntity
  8
0
100
AcDbLine
 62
7
  6
CONTINUOUS
 10
-78.6891068175
 20
-43.7055111132
 11
-78.7029885224
 21
-43.7815647328
  0
SPLINE
  5
44F
100
AcDbEntity
  8
0
100
AcDbSpline
 62
250
  6
CONTINUOUS
 70
0
 71
3
 72
11
 73
7
 74
0
 42
0.0000001
 43
0.0000001
 44
0.0000000001
 40
0.0
 40
0.0
 40
0.0
 40
0.0
 40
0.2521084116
 40
0.5031319481
 40
0.7526240263
 40
1.0
 40
1.0
 40
1.0
 40
1.0
 10
-78.0797059268
 20
-37.2999756031
 30
0.0
 10
-78.0841131296
 20
-38.0809574631
 30
0.0
 10
-78.0987415772
 20
-39.6395319392
 30
0.0
 10
-78.1347943439
 20
-41.9707770159
 30
0.0
 10
-78.1769138452
 20
-44.2872504419
 30
0.0
 10
-78.2036242712
 20
-45.8262430396
 30
0.0
 10
-78.2157946281
 20
-46.5924803008
 30
0.0
  0
SPLINE
  5
450
100
AcDbEntity
  8
0
100
AcDbSpline
 62
250
  6
CONTINUOUS
 70
0
 71
3
 72
16
 73
12
 74
0
 42
0.0000001
 43
0.0000001
 44
0.0000000001
 40
0.0
 40
0.0
 40
0.0
 40
0.0
 40
0.1979687739
 40
0.3856604133
 40
0.5566461193
 40
0.7053291551
 40
0.826840403
 40
0.9173496657
 40
0.9744189046
 40
0.990514432
 40
1.0
 40
1.0
 40
1.0
 40
1.0
 10
-77.1858077593
 20
-37.3808310001
 30
0.0
 10
-77.2455333607
 20
-37.3820892333
 30
0.0
 10
-77.3619365126
 20
-37.3830370271
 30
0.0
 10
-77.5298561063
 20
-37.3775186084
 30
0.0
 10
-77.6826761222
 20
-37.3679239802
 30
0.0
 10
-77.8153887292
 20
-37.3577591397
 30
0.0
 10
-77.923703936
 20
-37.3456804482
 30
0.0
 10
-78.003661593
 20
-37.3328615235
 30
0.0
 10
-78.05211996
 20
-37.320533971
 30
0.0
 10
-78.0743861023
 20
-37.3098082787
 30
0.0
 10
-78.0797220236
 20
-37.3028623071
 30
0.0
 10
-78.0797059584
 20
-37.2999999969
 30
0.0
  0
SPLINE
  5
451
100
AcDbEntity
  8
0
100
AcDbSpline
 62
250
  6
CONTINUOUS
 70
0
 71
3
 72
9
 73
5
 74
0
 42
0.0000001
 43
0.0000001
 44
0.0000000001
 40
0.0
 40
0.0
 40
0.0
 40
0.0
 40
0.2611970928
 40
1.0
 40
1.0
 40
1.0
 40
1.0
 10
-78.7029887167
 20
-43.7815647111
 30
0.0
 10
-78.7049182208
 20
-43.7748713359
 30
0.0
 10
-78.7110166315
 20
-43.7489052992
 30
0.0
 10
-78.7112069343
 20
-43.7214482662
 30
0.0
 10
-78.7075070836
 20
-43.7020954252
 30
0.0
  0
SPLINE
  5
452
100
AcDbEntity
  8
0
100
AcDbSpline
 62
250
  6
CONTINUOUS
 70
0
 71
3
 72
15
 73
11
 74
0
 42
0.0000001
 43
0.0000001
 44
0.0000000001
 40
0.0
 40
0.0
 40
0.0
 40
0.0
 40
0.3766659654
 40
0.5470189525
 40
0.6967058672
 40
0.820092066
 40
0.9127879041
 40
0.94672907
 40
0.9722093426
 40
1.0
 40
1.0
 40
1.0
 40
1.0
 10
-77.1858077575
 20
-6.8
 30
0.0
 10
-77.1858077575
 20
-6.7362007769
 30
0.0
 10
-77.1840278266
 20
-6.6435314607
 30
0.0
 10
-77.177496088
 20
-6.5256773485
 30
0.0
 10
-77.1712093326
 20
-6.4508625325
 30
0.0
 10
-77.1634963583
 20
-6.389246008
 30
0.0
 10
-77.1560257523
 20
-6.3478063441
 30
0.0
 10
-77.1487674317
 20
-6.3225897275
 30
0.0
 10
-77.143679451
 20
-6.3096789575
 30
0.0
 10
-77.1374640596
 20
-6.3
 30
0.0
 10
-77.1327569118
 20
-6.3
 30
0.0
  0
LINE
  5
453
100
AcDbEntity
  8
0
100
AcDbLine
 62
250
  6
CONTINUOUS
 10
-75.3797060644
 20
-63.2630671165
 11
-70.0797060644
 21
-63.4989021232
  0
SPLINE
  5
454
100
AcDbEntity
  8
0
100
AcDbSpline
 62
250
  6
CONTINUOUS
 70
0
 71
3
 72
14
 73
10
 74
0
 42
0.0000001
 43
0.0000001
 44
0.0000000001
 40
0.0
 40
0.0
 40
0.0
 40
0.0
 40
0.3914137624
 40
0.564251226
 40
0.7140937865
 40
0.8360453809
 40
0.9261229106
 40
0.9813781317
 40
1.0
 40
1.0
 40
1.0
 40
1.0
 10
-70.8195708812
 20
-61.1424041726
 30
0.0
 10
-71.5303249748
 20
-61.1467934983
 30
0.0
 10
-72.5550165916
 20
-61.144036708
 30
0.0
 10
-73.851589886
 20
-61.1239146567
 30
0.0
 10
-74.6587933764
 20
-61.1054956313
 30
0.0
 10
-75.3156379011
 20
-61.0863196587
 30
0.0
 10
-75.8007302163
 20
-61.0700732449
 30
0.0
 10
-76.098233614
 20
-61.0586190355
 30
0.0
 10
-76.2323016007
 20
-61.0537887891
 30
0.0
 10
-76.2660841183
 20
-61.0522973908
 30
0.0
  0
SPLINE
  5
455
100
AcDbEntity
  8
0
100
AcDbSpline
 62
250
  6
CONTINUOUS
 70
0
 71
3
 72
14
 73
10
 74
0
 42
0.0000001
 43
0.0000001
 44
0.0000000001
 40
0.0
 40
0.0
 40
0.0
 40
0.0
 40
0.391209249
 40
0.5640179491
 40
0.7138838105
 40
0.8358953418
 40
0.9260446155
 40
0.9813566586
 40
1.0
 40
1.0
 40
1.0
 40
1.0
 10
-70.8018028385
 20
-61.2922084971
 30
0.0
 10
-71.4967221702
 20
-61.2965974809
 30
0.0
 10
-72.4986984811
 20
-61.2938217818
 30
0.0
 10
-73.7666687399
 20
-61.2736223162
 30
0.0
 10
-74.5563881123
 20
-61.2551270976
 30
0.0
 10
-75.1991959736
 20
-61.2358681237
 30
0.0
 10
-75.6740497935
 20
-61.2195411088
 30
0.0
 10
-75.9653325108
 20
-61.2080367243
 30
0.0
 10
-76.0966164522
 20
-61.2031743768
 30
0.0
 10
-76.1297001464
 20
-61.2016781383
 30
0.0
  0
SPLINE
  5
456
100
AcDbEntity
  8
0
100
AcDbSpline
 62
250
  6
CONTINUOUS
 70
0
 71
3
 72
19
 73
15
 74
0
 42
0.0000001
 43
0.0000001
 44
0.0000000001
 40
0.0
 40
0.0
 40
0.0
 40
0.0
 40
0.1296375799
 40
0.2581598772
 40
0.3854610319
 40
0.5114353285
 40
0.6359777111
 40
0.6976792754
 40
0.758983894
 40
0.8198786126
 40
0.8803505725
 40
0.9403875177
 40
0.9702379555
 40
1.0
 40
1.0
 40
1.0
 40
1.0
 10
-77.3418685341
 20
-46.8225493917
 30
0.0
 10
-77.3521946092
 20
-47.3096216064
 30
0.0
 10
-77.370728575
 20
-48.2796198096
 30
0.0
 10
-77.3927320107
 20
-49.7280292228
 30
0.0
 10
-77.4094469606
 20
-51.1627411933
 30
0.0
 10
-77.4215829379
 20
-52.5825412945
 30
0.0
 10
-77.4284225059
 20
-53.7558475829
 30
0.0
 10
-77.4322514065
 20
-54.6861342639
 30
0.0
 10
-77.4343616903
 20
-55.3772359824
 30
0.0
 10
-77.4356793047
 20
-56.0637185439
 30
0.0
 10
-77.4368247412
 20
-56.7454378252
 30
0.0
 10
-77.4359996907
 20
-57.310493157
 30
0.0
 10
-77.4377266719
 20
-57.7601377665
 30
0.0
 10
-77.434473299
 20
-57.9841657269
 30
0.0
 10
-77.4312882111
 20
-58.0959669642
 30
0.0
  0
SPLINE
  5
457
100
AcDbEntity
  8
0
100
AcDbSpline
 62
250
  6
CONTINUOUS
 70
0
 71
3
 72
10
 73
6
 74
0
 42
0.0000001
 43
0.0000001
 44
0.0000000001
 40
0.0
 40
0.0
 40
0.0
 40
0.0
 40
0.2527712256
 40
0.504040744
 40
1.0
 40
1.0
 40
1.0
 40
1.0
 10
-77.1858077593
 20
-37.3847313419
 30
0.0
 10
-77.1902888155
 20
-38.1800391802
 30
0.0
 10
-77.2050970601
 20
-39.765902569
 30
0.0
 10
-77.2557646519
 20
-42.9119155202
 30
0.0
 10
-77.3087930015
 20
-45.2624116414
 30
0.0
 10
-77.3418685341
 20
-46.8225493917
 30
0.0
  0
SPLINE
  5
458
100
AcDbEntity
  8
0
100
AcDbSpline
 62
250
  6
CONTINUOUS
 70
0
 71
3
 72
14
 73
10
 74
0
 42
0.0000001
 43
0.0000001
 44
0.0000000001
 40
0.0
 40
0.0
 40
0.0
 40
0.0
 40
0.0351005358
 40
0.1003020588
 40
0.1962630776
 40
0.3200851201
 40
0.4678154552
 40
0.6344561717
 40
1.0
 40
1.0
 40
1.0
 40
1.0
 10
-70.8197060644
 20
-61.1424052535
 30
0.0
 10
-70.8180668186
 20
-61.1431027592
 30
0.0
 10
-70.8153668459
 20
-61.1480686754
 30
0.0
 10
-70.8124820194
 20
-61.1572688095
 30
0.0
 10
-70.8096213232
 20
-61.1716292283
 30
0.0
 10
-70.8070778786
 20
-61.1900488182
 30
0.0
 10
-70.8049242658
 20
-61.2122114692
 30
0.0
 10
-70.802649948
 20
-61.2466385583
 30
0.0
 10
-70.8019153671
 20
-61.2736562475
 30
0.0
 10
-70.8018025868
 20
-61.2922084971
 30
0.0
  0
SPLINE
  5
459
100
AcDbEntity
  8
0
100
AcDbSpline
 62
250
  6
CONTINUOUS
 70
0
 71
3
 72
17
 73
13
 74
0
 42
0.0000001
 43
0.0000001
 44
0.0000000001
 40
0.0
 40
0.0
 40
0.0
 40
0.0
 40
0.2020307643
 40
0.3868974908
 40
0.5517298163
 40
0.6940062966
 40
0.8115455084
 40
0.9025491197
 40
0.9376524926
 40
0.9656429073
 40
0.986434101
 40
1.0
 40
1.0
 40
1.0
 40
1.0
 10
-77.4312877366
 20
-58.0959669888
 30
0.0
 10
-77.427560253
 20
-58.2587653295
 30
0.0
 10
-77.4213940827
 20
-58.570553816
 30
0.0
 10
-77.4149558722
 20
-59.0152151902
 30
0.0
 10
-77.4114745452
 20
-59.4117440162
 30
0.0
 10
-77.4106219968
 20
-59.7540231533
 30
0.0
 10
-77.4122795348
 20
-60.0367842408
 30
0.0
 10
-77.4156759554
 20
-60.2331586038
 30
0.0
 10
-77.4202667481
 20
-60.3572744294
 30
0.0
 10
-77.4240274081
 20
-60.4248078962
 30
0.0
 10
-77.4286809296
 20
-60.4748214413
 30
0.0
 10
-77.4325254429
 20
-60.5023238928
 30
0.0
 10
-77.4351114183
 20
-60.5129481
 30
0.0
  0
SPLINE
  5
45A
100
AcDbEntity
  8
0
100
AcDbSpline
 62
250
  6
CONTINUOUS
 70
0
 71
3
 72
20
 73
16
 74
0
 42
0.0000001
 43
0.0000001
 44
0.0000000001
 40
0.0
 40
0.0
 40
0.0
 40
0.0
 40
0.0634787595
 40
0.1205814554
 40
0.2284430951
 40
0.3298851252
 40
0.4243558687
 40
0.5925316915
 40
0.7323993257
 40
0.8434568501
 40
0.9252651531
 40
0.9550948454
 40
0.9775021908
 40
0.9924690008
 40
1.0
 40
1.0
 40
1.0
 40
1.0
 10
-78.2798055686
 20
-59.815479808
 30
0.0
 10
-78.2812462818
 20
-59.8265536723
 30
0.0
 10
-78.2826097036
 20
-59.8477447744
 30
0.0
 10
-78.2851710311
 20
-59.8878413042
 30
0.0
 10
-78.2886966887
 20
-59.9345799266
 30
0.0
 10
-78.2923130843
 20
-59.987896225
 30
0.0
 10
-78.2968305306
 20
-60.0517876679
 30
0.0
 10
-78.3017541745
 20
-60.1224261574
 30
0.0
 10
-78.3068861691
 20
-60.1959766493
 30
0.0
 10
-78.3110332801
 20
-60.2543614806
 30
0.0
 10
-78.3139033854
 20
-60.2934384695
 30
0.0
 10
-78.3158527446
 20
-60.316931989
 30
0.0
 10
-78.3168818203
 20
-60.3287225488
 30
0.0
 10
-78.3178227226
 20
-60.3365428284
 30
0.0
 10
-78.3182825805
 20
-60.3405060818
 30
0.0
 10
-78.3186864049
 20
-60.3417678917
 30
0.0
  0
SPLINE
  5
45B
100
AcDbEntity
  8
0
100
AcDbSpline
 62
250
  6
CONTINUOUS
 70
0
 71
3
 72
14
 73
10
 74
0
 42
0.0000001
 43
0.0000001
 44
0.0000000001
 40
0.0
 40
0.0
 40
0.0
 40
0.0
 40
0.0825274463
 40
0.1620733581
 40
0.3133084821
 40
0.454032745
 40
0.5842531358
 40
0.8131604854
 40
1.0
 40
1.0
 40
1.0
 40
1.0
 10
-77.4351113488
 20
-60.5129481078
 30
0.0
 10
-77.4376776445
 20
-60.5212842475
 30
0.0
 10
-77.440693466
 20
-60.5382203999
 30
0.0
 10
-77.445421613
 20
-60.5709633914
 30
0.0
 10
-77.4517841786
 20
-60.609724697
 30
0.0
 10
-77.4589682744
 20
-60.6537576521
 30
0.0
 10
-77.4679282983
 20
-60.7058228644
 30
0.0
 10
-77.4782346801
 20
-60.7625984801
 30
0.0
 10
-77.4867260478
 20
-60.8057128454
 30
0.0
 10
-77.4907557759
 20
-60.8250441262
 30
0.0
  0
SPLINE
  5
45C
100
AcDbEntity
  8
0
100
AcDbSpline
 62
250
  6
CONTINUOUS
 70
0
 71
3
 72
14
 73
10
 74
0
 42
0.0000001
 43
0.0000001
 44
0.0000000001
 40
0.0
 40
0.0
 40
0.0
 40
0.0
 40
0.4315110948
 40
0.6014784168
 40
0.7409564586
 40
0.8500174643
 40
0.928839634
 40
0.9779170173
 40
1.0
 40
1.0
 40
1.0
 40
1.0
 10
-77.4907557759
 20
-60.8250441262
 30
0.0
 10
-77.4938169285
 20
-60.8397289887
 30
0.0
 10
-77.4982475097
 20
-60.8601746579
 30
0.0
 10
-77.5042777844
 20
-60.8851990048
 30
0.0
 10
-77.5079994228
 20
-60.8993039702
 30
0.0
 10
-77.511156838
 20
-60.9101362339
 30
0.0
 10
-77.5140022552
 20
-60.918119704
 30
0.0
 10
-77.5159102389
 20
-60.9225033373
 30
0.0
 10
-77.5177694176
 20
-60.9249580247
 30
0.0
 10
-77.5185325849
 20
-60.9248750376
 30
0.0
  0
SPLINE
  5
45D
100
AcDbEntity
  8
0
100
AcDbSpline
 62
250
  6
CONTINUOUS
 70
0
 71
3
 72
16
 73
12
 74
0
 42
0.0000001
 43
0.0000001
 44
0.0000000001
 40
0.0
 40
0.0
 40
0.0
 40
0.0
 40
0.3439277112
 40
0.4963734618
 40
0.6333609171
 40
0.6955390356
 40
0.7533029881
 40
0.8066333115
 40
0.855348878
 40
0.9381678202
 40
1.0
 40
1.0
 40
1.0
 40
1.0
 10
-78.7029885224
 20
-43.7815647328
 30
0.0
 10
-78.8904652615
 20
-44.7947507454
 30
0.0
 10
-79.166912794
 20
-46.2559743588
 30
0.0
 10
-79.5378407806
 20
-48.1168840187
 30
0.0
 10
-79.7491259434
 20
-49.1488874626
 30
0.0
 10
-79.9062560725
 20
-49.9024226331
 30
0.0
 10
-80.0126126024
 20
-50.4105258175
 30
0.0
 10
-80.1071569783
 20
-50.8798812625
 30
0.0
 10
-80.2138110845
 20
-51.4233634234
 30
0.0
 10
-80.3188004979
 20
-51.9930945795
 30
0.0
 10
-80.396977665
 20
-52.4193482094
 30
0.0
 10
-80.4305259578
 20
-52.6015302453
 30
0.0
  0
SPLINE
  5
45E
100
AcDbEntity
  8
0
100
AcDbSpline
 62
250
  6
CONTINUOUS
 70
0
 71
3
 72
19
 73
15
 74
0
 42
0.0000001
 43
0.0000001
 44
0.0000000001
 40
0.0
 40
0.0
 40
0.0
 40
0.0
 40
0.2344611523
 40
0.4380550228
 40
0.6104939873
 40
0.7515661875
 40
0.8102881028
 40
0.8611102406
 40
0.9040180612
 40
0.9389992882
 40
0.966044625
 40
0.9851528958
 40
0.9963556876
 40
1.0
 40
1.0
 40
1.0
 40
1.0
 10
-80.4305259578
 20
-52.6015302453
 30
0.0
 10
-80.4378460323
 20
-52.6412814802
 30
0.0
 10
-80.4515495622
 20
-52.7155454412
 30
0.0
 10
-80.4708182862
 20
-52.819012624
 30
0.0
 10
-80.4873852699
 20
-52.9066032256
 30
0.0
 10
-80.4995831791
 20
-52.9696095387
 30
0.0
 10
-80.50803658
 20
-53.011970644
 30
0.0
 10
-80.5133194007
 20
-53.0377361469
 30
0.0
 10
-80.5179025658
 20
-53.059388322
 30
0.0
 10
-80.5218950679
 20
-53.0771946081
 30
0.0
 10
-80.5249957792
 20
-53.0904218121
 30
0.0
 10
-80.5278920107
 20
-53.1008152384
 30
0.0
 10
-80.5291297894
 20
-53.104946069
 30
0.0
 10
-80.5308635015
 20
-53.1087129745
 30
0.0
 10
-80.5313780269
 20
-53.1083524618
 30
0.0
  0
SPLINE
  5
45F
100
AcDbEntity
  8
0
100
AcDbSpline
 62
250
  6
CONTINUOUS
 70
0
 71
3
 72
20
 73
16
 74
0
 42
0.0000001
 43
0.0000001
 44
0.0000000001
 40
0.0
 40
0.0
 40
0.0
 40
0.0
 40
0.2590332572
 40
0.3866046409
 40
0.5127192457
 40
0.6372683923
 40
0.6989240094
 40
0.7601487784
 40
0.820937417
 40
0.8812580265
 40
0.9112540917
 40
0.9411612432
 40
0.9560452082
 40
0.9707846738
 40
1.0
 40
1.0
 40
1.0
 40
1.0
 10
-78.2157946281
 20
-46.5924803008
 30
0.0
 10
-78.2313230802
 20
-47.558528914
 30
0.0
 10
-78.2483500261
 20
-49.0004488978
 30
0.0
 10
-78.2628160542
 20
-50.9127961936
 30
0.0
 10
-78.2703412613
 20
-52.323564324
 30
0.0
 10
-78.274475739
 20
-53.4884837822
 30
0.0
 10
-78.2767654014
 20
-54.4113734206
 30
0.0
 10
-78.2780699708
 20
-55.0964430861
 30
0.0
 10
-78.2787857108
 20
-55.7765340717
 30
0.0
 10
-78.2794949449
 20
-56.3401444763
 30
0.0
 10
-78.2793859096
 20
-56.788569968
 30
0.0
 10
-78.2791488214
 20
-57.067519755
 30
0.0
 10
-78.2794767914
 20
-57.2895649471
 30
0.0
 10
-78.2807780864
 20
-57.5090228398
 30
0.0
 10
-78.2801046397
 20
-57.6729864994
 30
0.0
 10
-78.27803144
 20
-57.7819376148
 30
0.0
  0
SPLINE
  5
460
100
AcDbEntity
  8
0
100
AcDbSpline
 62
250
  6
CONTINUOUS
 70
0
 71
3
 72
15
 73
11
 74
0
 42
0.0000001
 43
0.0000001
 44
0.0000000001
 40
0.0
 40
0.0
 40
0.0
 40
0.0
 40
0.378732646
 40
0.5409489632
 40
0.6818929934
 40
0.7996235793
 40
0.8925669723
 40
0.9594937611
 40
0.9829994689
 40
1.0
 40
1.0
 40
1.0
 40
1.0
 10
-78.27803144
 20
-57.7819376148
 30
0.0
 10
-78.2731336414
 20
-58.0386733499
 30
0.0
 10
-78.2678918103
 20
-58.4054084789
 30
0.0
 10
-78.2644022093
 20
-58.8677241346
 30
0.0
 10
-78.2638349446
 20
-59.1530888427
 30
0.0
 10
-78.2648783259
 20
-59.3914941665
 30
0.0
 10
-78.267622469
 20
-59.5796763028
 30
0.0
 10
-78.2711160758
 20
-59.7039971486
 30
0.0
 10
-78.2760245096
 20
-59.7766668284
 30
0.0
 10
-78.2783105849
 20
-59.8040507321
 30
0.0
 10
-78.2798055686
 20
-59.815479808
 30
0.0
  0
SPLINE
  5
461
100
AcDbEntity
  8
0
100
AcDbSpline
 62
250
  6
CONTINUOUS
 70
0
 71
3
 72
12
 73
8
 74
0
 42
0.0000001
 43
0.0000001
 44
0.0000000001
 40
0.0
 40
0.0
 40
0.0
 40
0.0
 40
0.3037287986
 40
0.5796029263
 40
0.7024987637
 40
0.8136518415
 40
1.0
 40
1.0
 40
1.0
 40
1.0
 10
-77.4312860223
 20
-58.0960448234
 30
0.0
 10
-77.525430859
 20
-58.0931984805
 30
0.0
 10
-77.7049833788
 20
-58.0757156875
 30
0.0
 10
-77.9172573722
 20
-58.0218063472
 30
0.0
 10
-78.0631180768
 20
-57.959549502
 30
0.0
 10
-78.1758431026
 20
-57.894285886
 30
0.0
 10
-78.2465795796
 20
-57.830417766
 30
0.0
 10
-78.2780282963
 20
-57.7819370958
 30
0.0
  0
SPLINE
  5
462
100
AcDbEntity
  8
0
100
AcDbSpline
 62
250
  6
CONTINUOUS
 70
0
 71
3
 72
13
 73
9
 74
0
 42
0.0000001
 43
0.0000001
 44
0.0000000001
 40
0.0
 40
0.0
 40
0.0
 40
0.0
 40
0.3342270541
 40
0.6268633276
 40
0.7494609279
 40
0.8529454211
 40
0.9362293949
 40
1.0
 40
1.0
 40
1.0
 40
1.0
 10
-77.3418685335
 20
-46.8225493905
 30
0.0
 10
-77.4442810432
 20
-46.81757898
 30
0.0
 10
-77.636051932
 20
-46.8005100265
 30
0.0
 10
-77.8627866746
 20
-46.7589039276
 30
0.0
 10
-78.0154152898
 20
-46.7133849485
 30
0.0
 10
-78.1036138057
 20
-46.6776664448
 30
0.0
 10
-78.1704781121
 20
-46.6393989025
 30
0.0
 10
-78.20453195
 20
-46.6084764319
 30
0.0
 10
-78.2157946205
 20
-46.5924803005
 30
0.0
  0
LINE
  5
463
100
AcDbEntity
  8
0
100
AcDbLine
 62
7
  6
CONTINUOUS
 10
-62.0464683326
 20
-38.7097986282
 11
-62.0454254304
 21
-38.7324452989
  0
SPLINE
  5
464
100
AcDbEntity
  8
0
100
AcDbSpline
 62
7
  6
CONTINUOUS
 70
0
 71
3
 72
9
 73
5
 74
0
 42
0.0000001
 43
0.0000001
 44
0.0000000001
 40
0.0
 40
0.0
 40
0.0
 40
0.0
 40
0.5080902123
 40
1.0
 40
1.0
 40
1.0
 40
1.0
 10
-62.0212506107
 20
-39.1868440486
 30
0.0
 10
-61.9751036425
 20
-39.9567676788
 30
0.0
 10
-61.8336419927
 20
-41.4693788654
 30
0.0
 10
-61.603713841
 20
-42.9707820456
 30
0.0
 10
-61.4703053112
 20
-43.7055111132
 30
0.0
  0
LINE
  5
465
100
AcDbEntity
  8
0
100
AcDbLine
 62
7
  6
CONTINUOUS
 10
-61.4703053112
 20
-43.7055111132
 11
-61.4564236063
 21
-43.7815647328
  0
SPLINE
  5
466
100
AcDbEntity
  8
0
100
AcDbSpline
 62
250
  6
CONTINUOUS
 70
0
 71
3
 72
12
 73
8
 74
0
 42
0.0000001
 43
0.0000001
 44
0.0000000001
 40
0.0
 40
0.0
 40
0.0
 40
0.0
 40
0.3037287986
 40
0.5796029263
 40
0.7024987637
 40
0.8136518415
 40
1.0
 40
1.0
 40
1.0
 40
1.0
 10
-62.7281261064
 20
-58.0960448234
 30
0.0
 10
-62.6339812697
 20
-58.0931984805
 30
0.0
 10
-62.4544287499
 20
-58.0757156875
 30
0.0
 10
-62.2421547565
 20
-58.0218063472
 30
0.0
 10
-62.096294052
 20
-57.959549502
 30
0.0
 10
-61.9835690261
 20
-57.894285886
 30
0.0
 10
-61.9128325491
 20
-57.830417766
 30
0.0
 10
-61.8813838324
 20
-57.7819370958
 30
0.0
  0
SPLINE
  5
467
100
AcDbEntity
  8
0
100
AcDbSpline
 62
250
  6
CONTINUOUS
 70
0
 71
3
 72
13
 73
9
 74
0
 42
0.0000001
 43
0.0000001
 44
0.0000000001
 40
0.0
 40
0.0
 40
0.0
 40
0.0
 40
0.3342270541
 40
0.6268633276
 40
0.7494609279
 40
0.8529454211
 40
0.9362293949
 40
1.0
 40
1.0
 40
1.0
 40
1.0
 10
-62.8175435952
 20
-46.8225493905
 30
0.0
 10
-62.7151310855
 20
-46.81757898
 30
0.0
 10
-62.5233601967
 20
-46.8005100265
 30
0.0
 10
-62.2966254541
 20
-46.7589039276
 30
0.0
 10
-62.1439968389
 20
-46.7133849485
 30
0.0
 10
-62.055798323
 20
-46.6776664448
 30
0.0
 10
-61.9889340166
 20
-46.6393989025
 30
0.0
 10
-61.9548801787
 20
-46.6084764319
 30
0.0
 10
-61.9436175082
 20
-46.5924803005
 30
0.0
  0
SPLINE
  5
468
100
AcDbEntity
  8
0
100
AcDbSpline
 62
250
  6
CONTINUOUS
 70
0
 71
3
 72
11
 73
7
 74
0
 42
0.0000001
 43
0.0000001
 44
0.0000000001
 40
0.0
 40
0.0
 40
0.0
 40
0.0
 40
0.2521084116
 40
0.5031319481
 40
0.7526240263
 40
1.0
 40
1.0
 40
1.0
 40
1.0
 10
-62.0797062019
 20
-37.2999756031
 30
0.0
 10
-62.0752989991
 20
-38.0809574631
 30
0.0
 10
-62.0606705515
 20
-39.6395319392
 30
0.0
 10
-62.0246177848
 20
-41.9707770159
 30
0.0
 10
-61.9824982835
 20
-44.2872504419
 30
0.0
 10
-61.9557878576
 20
-45.8262430396
 30
0.0
 10
-61.9436175006
 20
-46.5924803008
 30
0.0
  0
SPLINE
  5
469
100
AcDbEntity
  8
0
100
AcDbSpline
 62
250
  6
CONTINUOUS
 70
0
 71
3
 72
9
 73
5
 74
0
 42
0.0000001
 43
0.0000001
 44
0.0000000001
 40
0.0
 40
0.0
 40
0.0
 40
0.0
 40
0.2611970928
 40
1.0
 40
1.0
 40
1.0
 40
1.0
 10
-61.456423412
 20
-43.7815647111
 30
0.0
 10
-61.4544939079
 20
-43.7748713359
 30
0.0
 10
-61.4483954972
 20
-43.7489052992
 30
0.0
 10
-61.4482051944
 20
-43.7214482662
 30
0.0
 10
-61.4519050451
 20
-43.7020954252
 30
0.0
  0
SPLINE
  5
46A
100
AcDbEntity
  8
0
100
AcDbSpline
 62
250
  6
CONTINUOUS
 70
0
 71
3
 72
10
 73
6
 74
0
 42
0.0000001
 43
0.0000001
 44
0.0000000001
 40
0.0
 40
0.0
 40
0.0
 40
0.0
 40
0.2527712256
 40
0.504040744
 40
1.0
 40
1.0
 40
1.0
 40
1.0
 10
-62.9736043694
 20
-37.3847313419
 30
0.0
 10
-62.9691233132
 20
-38.1800391802
 30
0.0
 10
-62.9543150686
 20
-39.765902569
 30
0.0
 10
-62.9036474768
 20
-42.9119155202
 30
0.0
 10
-62.8506191272
 20
-45.2624116414
 30
0.0
 10
-62.8175435946
 20
-46.8225493917
 30
0.0
  0
SPLINE
  5
46B
100
AcDbEntity
  8
0
100
AcDbSpline
 62
250
  6
CONTINUOUS
 70
0
 71
3
 72
19
 73
15
 74
0
 42
0.0000001
 43
0.0000001
 44
0.0000000001
 40
0.0
 40
0.0
 40
0.0
 40
0.0
 40
0.1296375799
 40
0.2581598772
 40
0.3854610319
 40
0.5114353285
 40
0.6359777111
 40
0.6976792754
 40
0.758983894
 40
0.8198786126
 40
0.8803505725
 40
0.9403875177
 40
0.9702379555
 40
1.0
 40
1.0
 40
1.0
 40
1.0
 10
-62.8175435946
 20
-46.8225493917
 30
0.0
 10
-62.8072175195
 20
-47.3096216064
 30
0.0
 10
-62.7886835537
 20
-48.2796198096
 30
0.0
 10
-62.766680118
 20
-49.7280292228
 30
0.0
 10
-62.7499651681
 20
-51.1627411933
 30
0.0
 10
-62.7378291908
 20
-52.5825412945
 30
0.0
 10
-62.7309896228
 20
-53.7558475829
 30
0.0
 10
-62.7271607222
 20
-54.6861342639
 30
0.0
 10
-62.7250504384
 20
-55.3772359824
 30
0.0
 10
-62.723732824
 20
-56.0637185439
 30
0.0
 10
-62.7225873875
 20
-56.7454378252
 30
0.0
 10
-62.723412438
 20
-57.310493157
 30
0.0
 10
-62.7216854569
 20
-57.7601377665
 30
0.0
 10
-62.7249388297
 20
-57.9841657269
 30
0.0
 10
-62.7281239177
 20
-58.0959669642
 30
0.0
  0
SPLINE
  5
46C
100
AcDbEntity
  8
0
100
AcDbSpline
 62
250
  6
CONTINUOUS
 70
0
 71
3
 72
17
 73
13
 74
0
 42
0.0000001
 43
0.0000001
 44
0.0000000001
 40
0.0
 40
0.0
 40
0.0
 40
0.0
 40
0.2020307643
 40
0.3868974908
 40
0.5517298163
 40
0.6940062966
 40
0.8115455084
 40
0.9025491197
 40
0.9376524926
 40
0.9656429073
 40
0.986434101
 40
1.0
 40
1.0
 40
1.0
 40
1.0
 10
-62.7281243921
 20
-58.0959669888
 30
0.0
 10
-62.7318518757
 20
-58.2587653295
 30
0.0
 10
-62.738018046
 20
-58.570553816
 30
0.0
 10
-62.7444562565
 20
-59.0152151902
 30
0.0
 10
-62.7479375835
 20
-59.4117440162
 30
0.0
 10
-62.7487901319
 20
-59.7540231533
 30
0.0
 10
-62.7471325939
 20
-60.0367842408
 30
0.0
 10
-62.7437361733
 20
-60.2331586038
 30
0.0
 10
-62.7391453806
 20
-60.3572744294
 30
0.0
 10
-62.7353847206
 20
-60.4248078962
 30
0.0
 10
-62.7307311991
 20
-60.4748214413
 30
0.0
 10
-62.7268866858
 20
-60.5023238928
 30
0.0
 10
-62.7243007104
 20
-60.5129481
 30
0.0
  0
SPLINE
  5
46D
100
AcDbEntity
  8
0
100
AcDbSpline
 62
250
  6
CONTINUOUS
 70
0
 71
3
 72
15
 73
11
 74
0
 42
0.0000001
 43
0.0000001
 44
0.0000000001
 40
0.0
 40
0.0
 40
0.0
 40
0.0
 40
0.3766659654
 40
0.5470189525
 40
0.6967058672
 40
0.820092066
 40
0.9127879041
 40
0.94672907
 40
0.9722093426
 40
1.0
 40
1.0
 40
1.0
 40
1.0
 10
-62.9736043712
 20
-6.8
 30
0.0
 10
-62.9736043712
 20
-6.7362007769
 30
0.0
 10
-62.9753843021
 20
-6.6435314607
 30
0.0
 10
-62.9819160407
 20
-6.5256773485
 30
0.0
 10
-62.9882027961
 20
-6.4508625325
 30
0.0
 10
-62.9959157704
 20
-6.389246008
 30
0.0
 10
-63.0033863764
 20
-6.3478063441
 30
0.0
 10
-63.010644697
 20
-6.3225897275
 30
0.0
 10
-63.0157326777
 20
-6.3096789575
 30
0.0
 10
-63.0219480691
 20
-6.3
 30
0.0
 10
-63.0266552169
 20
-6.3
 30
0.0
  0
LINE
  5
46E
100
AcDbEntity
  8
0
100
AcDbLine
 62
250
  6
CONTINUOUS
 10
-64.7797060644
 20
-63.2630671165
 11
-70.0797060644
 21
-63.4989021232
  0
SPLINE
  5
46F
100
AcDbEntity
  8
0
100
AcDbSpline
 62
250
  6
CONTINUOUS
 70
0
 71
3
 72
14
 73
10
 74
0
 42
0.0000001
 43
0.0000001
 44
0.0000000001
 40
0.0
 40
0.0
 40
0.0
 40
0.0
 40
0.391209249
 40
0.5640179491
 40
0.7138838105
 40
0.8358953418
 40
0.9260446155
 40
0.9813566586
 40
1.0
 40
1.0
 40
1.0
 40
1.0
 10
-69.3576092902
 20
-61.2922084971
 30
0.0
 10
-68.6626899585
 20
-61.2965974809
 30
0.0
 10
-67.6607136477
 20
-61.2938217818
 30
0.0
 10
-66.3927433888
 20
-61.2736223162
 30
0.0
 10
-65.6030240164
 20
-61.2551270976
 30
0.0
 10
-64.9602161552
 20
-61.2358681237
 30
0.0
 10
-64.4853623352
 20
-61.2195411088
 30
0.0
 10
-64.1940796179
 20
-61.2080367243
 30
0.0
 10
-64.0627956765
 20
-61.2031743768
 30
0.0
 10
-64.0297119823
 20
-61.2016781383
 30
0.0
  0
SPLINE
  5
470
100
AcDbEntity
  8
0
100
AcDbSpline
 62
250
  6
CONTINUOUS
 70
0
 71
3
 72
16
 73
12
 74
0
 42
0.0000001
 43
0.0000001
 44
0.0000000001
 40
0.0
 40
0.0
 40
0.0
 40
0.0
 40
0.1979687739
 40
0.3856604133
 40
0.5566461193
 40
0.7053291551
 40
0.826840403
 40
0.9173496657
 40
0.9744189046
 40
0.990514432
 40
1.0
 40
1.0
 40
1.0
 40
1.0
 10
-62.9736043694
 20
-37.3808310001
 30
0.0
 10
-62.913878768
 20
-37.3820892333
 30
0.0
 10
-62.7974756161
 20
-37.3830370271
 30
0.0
 10
-62.6295560224
 20
-37.3775186084
 30
0.0
 10
-62.4767360065
 20
-37.3679239802
 30
0.0
 10
-62.3440233995
 20
-37.3577591397
 30
0.0
 10
-62.2357081927
 20
-37.3456804482
 30
0.0
 10
-62.1557505357
 20
-37.3328615235
 30
0.0
 10
-62.1072921687
 20
-37.320533971
 30
0.0
 10
-62.0850260264
 20
-37.3098082787
 30
0.0
 10
-62.0796901051
 20
-37.3028623071
 30
0.0
 10
-62.0797061703
 20
-37.2999999969
 30
0.0
  0
SPLINE
  5
471
100
AcDbEntity
  8
0
100
AcDbSpline
 62
250
  6
CONTINUOUS
 70
0
 71
3
 72
14
 73
10
 74
0
 42
0.0000001
 43
0.0000001
 44
0.0000000001
 40
0.0
 40
0.0
 40
0.0
 40
0.0
 40
0.0351005358
 40
0.1003020588
 40
0.1962630776
 40
0.3200851201
 40
0.4678154552
 40
0.6344561717
 40
1.0
 40
1.0
 40
1.0
 40
1.0
 10
-69.3397060644
 20
-61.1424052535
 30
0.0
 10
-69.3413453101
 20
-61.1431027592
 30
0.0
 10
-69.3440452829
 20
-61.1480686754
 30
0.0
 10
-69.3469301093
 20
-61.1572688095
 30
0.0
 10
-69.3497908055
 20
-61.1716292283
 30
0.0
 10
-69.3523342501
 20
-61.1900488182
 30
0.0
 10
-69.3544878629
 20
-61.2122114692
 30
0.0
 10
-69.3567621807
 20
-61.2466385583
 30
0.0
 10
-69.3574967616
 20
-61.2736562475
 30
0.0
 10
-69.3576095419
 20
-61.2922084971
 30
0.0
  0
SPLINE
  5
472
100
AcDbEntity
  8
0
100
AcDbSpline
 62
250
  6
CONTINUOUS
 70
0
 71
3
 72
14
 73
10
 74
0
 42
0.0000001
 43
0.0000001
 44
0.0000000001
 40
0.0
 40
0.0
 40
0.0
 40
0.0
 40
0.3914137624
 40
0.564251226
 40
0.7140937865
 40
0.8360453809
 40
0.9261229106
 40
0.9813781317
 40
1.0
 40
1.0
 40
1.0
 40
1.0
 10
-69.3398412475
 20
-61.1424041726
 30
0.0
 10
-68.6290871539
 20
-61.1467934983
 30
0.0
 10
-67.6043955371
 20
-61.144036708
 30
0.0
 10
-66.3078222427
 20
-61.1239146567
 30
0.0
 10
-65.5006187523
 20
-61.1054956313
 30
0.0
 10
-64.8437742276
 20
-61.0863196587
 30
0.0
 10
-64.3586819124
 20
-61.0700732449
 30
0.0
 10
-64.0611785147
 20
-61.0586190354
 30
0.0
 10
-63.927110528
 20
-61.0537887891
 30
0.0
 10
-63.8933280104
 20
-61.0522973908
 30
0.0
  0
SPLINE
  5
473
100
AcDbEntity
  8
0
100
AcDbSpline
 62
250
  6
CONTINUOUS
 70
0
 71
3
 72
14
 73
10
 74
0
 42
0.0000001
 43
0.0000001
 44
0.0000000001
 40
0.0
 40
0.0
 40
0.0
 40
0.0
 40
0.0825274463
 40
0.1620733581
 40
0.3133084821
 40
0.454032745
 40
0.5842531358
 40
0.8131604854
 40
1.0
 40
1.0
 40
1.0
 40
1.0
 10
-62.7243007799
 20
-60.5129481078
 30
0.0
 10
-62.7217344842
 20
-60.5212842475
 30
0.0
 10
-62.7187186627
 20
-60.5382203999
 30
0.0
 10
-62.7139905157
 20
-60.5709633914
 30
0.0
 10
-62.7076279501
 20
-60.609724697
 30
0.0
 10
-62.7004438543
 20
-60.6537576521
 30
0.0
 10
-62.6914838304
 20
-60.7058228644
 30
0.0
 10
-62.6811774486
 20
-60.7625984801
 30
0.0
 10
-62.6726860809
 20
-60.8057128454
 30
0.0
 10
-62.6686563529
 20
-60.8250441262
 30
0.0
  0
SPLINE
  5
474
100
AcDbEntity
  8
0
100
AcDbSpline
 62
250
  6
CONTINUOUS
 70
0
 71
3
 72
14
 73
10
 74
0
 42
0.0000001
 43
0.0000001
 44
0.0000000001
 40
0.0
 40
0.0
 40
0.0
 40
0.0
 40
0.4315110948
 40
0.6014784168
 40
0.7409564586
 40
0.8500174643
 40
0.928839634
 40
0.9779170173
 40
1.0
 40
1.0
 40
1.0
 40
1.0
 10
-62.6686563529
 20
-60.8250441262
 30
0.0
 10
-62.6655952002
 20
-60.8397289887
 30
0.0
 10
-62.661164619
 20
-60.8601746579
 30
0.0
 10
-62.6551343444
 20
-60.8851990048
 30
0.0
 10
-62.6514127059
 20
-60.8993039702
 30
0.0
 10
-62.6482552907
 20
-60.9101362339
 30
0.0
 10
-62.6454098735
 20
-60.918119704
 30
0.0
 10
-62.6435018898
 20
-60.9225033373
 30
0.0
 10
-62.6416427111
 20
-60.9249580247
 30
0.0
 10
-62.6408795438
 20
-60.9248750376
 30
0.0
  0
SPLINE
  5
475
100
AcDbEntity
  8
0
100
AcDbSpline
 62
250
  6
CONTINUOUS
 70
0
 71
3
 72
20
 73
16
 74
0
 42
0.0000001
 43
0.0000001
 44
0.0000000001
 40
0.0
 40
0.0
 40
0.0
 40
0.0
 40
0.0634787595
 40
0.1205814554
 40
0.2284430951
 40
0.3298851252
 40
0.4243558687
 40
0.5925316915
 40
0.7323993257
 40
0.8434568501
 40
0.9252651531
 40
0.9550948454
 40
0.9775021908
 40
0.9924690008
 40
1.0
 40
1.0
 40
1.0
 40
1.0
 10
-61.8796065601
 20
-59.815479808
 30
0.0
 10
-61.8781658469
 20
-59.8265536723
 30
0.0
 10
-61.8768024251
 20
-59.8477447744
 30
0.0
 10
-61.8742410976
 20
-59.8878413042
 30
0.0
 10
-61.87071544
 20
-59.9345799266
 30
0.0
 10
-61.8670990444
 20
-59.987896225
 30
0.0
 10
-61.8625815981
 20
-60.0517876679
 30
0.0
 10
-61.8576579542
 20
-60.1224261574
 30
0.0
 10
-61.8525259596
 20
-60.1959766493
 30
0.0
 10
-61.8483788486
 20
-60.2543614806
 30
0.0
 10
-61.8455087433
 20
-60.2934384695
 30
0.0
 10
-61.8435593842
 20
-60.316931989
 30
0.0
 10
-61.8425303084
 20
-60.3287225488
 30
0.0
 10
-61.8415894061
 20
-60.3365428284
 30
0.0
 10
-61.8411295482
 20
-60.3405060818
 30
0.0
 10
-61.8407257238
 20
-60.3417678917
 30
0.0
  0
SPLINE
  5
476
100
AcDbEntity
  8
0
100
AcDbSpline
 62
250
  6
CONTINUOUS
 70
0
 71
3
 72
15
 73
11
 74
0
 42
0.0000001
 43
0.0000001
 44
0.0000000001
 40
0.0
 40
0.0
 40
0.0
 40
0.0
 40
0.378732646
 40
0.5409489632
 40
0.6818929934
 40
0.7996235793
 40
0.8925669723
 40
0.9594937611
 40
0.9829994689
 40
1.0
 40
1.0
 40
1.0
 40
1.0
 10
-61.8813806887
 20
-57.7819376148
 30
0.0
 10
-61.8862784873
 20
-58.0386733499
 30
0.0
 10
-61.8915203184
 20
-58.4054084789
 30
0.0
 10
-61.8950099194
 20
-58.8677241346
 30
0.0
 10
-61.8955771841
 20
-59.1530888427
 30
0.0
 10
-61.8945338028
 20
-59.3914941665
 30
0.0
 10
-61.8917896597
 20
-59.5796763028
 30
0.0
 10
-61.8882960529
 20
-59.7039971486
 30
0.0
 10
-61.8833876191
 20
-59.7766668284
 30
0.0
 10
-61.8811015438
 20
-59.8040507321
 30
0.0
 10
-61.8796065601
 20
-59.815479808
 30
0.0
  0
SPLINE
  5
477
100
AcDbEntity
  8
0
100
AcDbSpline
 62
250
  6
CONTINUOUS
 70
0
 71
3
 72
20
 73
16
 74
0
 42
0.0000001
 43
0.0000001
 44
0.0000000001
 40
0.0
 40
0.0
 40
0.0
 40
0.0
 40
0.2590332572
 40
0.3866046409
 40
0.5127192457
 40
0.6372683923
 40
0.6989240094
 40
0.7601487784
 40
0.820937417
 40
0.8812580265
 40
0.9112540917
 40
0.9411612432
 40
0.9560452082
 40
0.9707846738
 40
1.0
 40
1.0
 40
1.0
 40
1.0
 10
-61.9436175006
 20
-46.5924803008
 30
0.0
 10
-61.9280890485
 20
-47.558528914
 30
0.0
 10
-61.9110621026
 20
-49.0004488978
 30
0.0
 10
-61.8965960745
 20
-50.9127961936
 30
0.0
 10
-61.8890708674
 20
-52.323564324
 30
0.0
 10
-61.8849363897
 20
-53.4884837822
 30
0.0
 10
-61.8826467273
 20
-54.4113734206
 30
0.0
 10
-61.8813421579
 20
-55.0964430861
 30
0.0
 10
-61.8806264179
 20
-55.7765340717
 30
0.0
 10
-61.8799171838
 20
-56.3401444763
 30
0.0
 10
-61.8800262191
 20
-56.788569968
 30
0.0
 10
-61.8802633073
 20
-57.067519755
 30
0.0
 10
-61.8799353373
 20
-57.2895649471
 30
0.0
 10
-61.8786340423
 20
-57.5090228398
 30
0.0
 10
-61.879307489
 20
-57.6729864994
 30
0.0
 10
-61.8813806887
 20
-57.7819376148
 30
0.0
  0
SPLINE
  5
478
100
AcDbEntity
  8
0
100
AcDbSpline
 62
250
  6
CONTINUOUS
 70
0
 71
3
 72
16
 73
12
 74
0
 42
0.0000001
 43
0.0000001
 44
0.0000000001
 40
0.0
 40
0.0
 40
0.0
 40
0.0
 40
0.3439277112
 40
0.4963734618
 40
0.6333609171
 40
0.6955390356
 40
0.7533029881
 40
0.8066333115
 40
0.855348878
 40
0.9381678202
 40
1.0
 40
1.0
 40
1.0
 40
1.0
 10
-61.4564236063
 20
-43.7815647328
 30
0.0
 10
-61.2689468672
 20
-44.7947507454
 30
0.0
 10
-60.9924993347
 20
-46.2559743588
 30
0.0
 10
-60.6215713481
 20
-48.1168840187
 30
0.0
 10
-60.4102861853
 20
-49.1488874626
 30
0.0
 10
-60.2531560562
 20
-49.9024226331
 30
0.0
 10
-60.1467995263
 20
-50.4105258175
 30
0.0
 10
-60.0522551504
 20
-50.8798812625
 30
0.0
 10
-59.9456010443
 20
-51.4233634234
 30
0.0
 10
-59.8406116308
 20
-51.9930945795
 30
0.0
 10
-59.7624344637
 20
-52.4193482094
 30
0.0
 10
-59.7288861709
 20
-52.6015302453
 30
0.0
  0
SPLINE
  5
479
100
AcDbEntity
  8
0
100
AcDbSpline
 62
250
  6
CONTINUOUS
 70
0
 71
3
 72
19
 73
15
 74
0
 42
0.0000001
 43
0.0000001
 44
0.0000000001
 40
0.0
 40
0.0
 40
0.0
 40
0.0
 40
0.2344611523
 40
0.4380550228
 40
0.6104939873
 40
0.7515661875
 40
0.8102881028
 40
0.8611102406
 40
0.9040180612
 40
0.9389992882
 40
0.966044625
 40
0.9851528958
 40
0.9963556876
 40
1.0
 40
1.0
 40
1.0
 40
1.0
 10
-59.7288861709
 20
-52.6015302453
 30
0.0
 10
-59.7215660964
 20
-52.6412814802
 30
0.0
 10
-59.7078625665
 20
-52.7155454412
 30
0.0
 10
-59.6885938426
 20
-52.819012624
 30
0.0
 10
-59.6720268588
 20
-52.9066032256
 30
0.0
 10
-59.6598289496
 20
-52.9696095387
 30
0.0
 10
-59.6513755488
 20
-53.011970644
 30
0.0
 10
-59.646092728
 20
-53.0377361469
 30
0.0
 10
-59.6415095629
 20
-53.059388322
 30
0.0
 10
-59.6375170608
 20
-53.0771946081
 30
0.0
 10
-59.6344163495
 20
-53.0904218121
 30
0.0
 10
-59.631520118
 20
-53.1008152384
 30
0.0
 10
-59.6302823393
 20
-53.104946069
 30
0.0
 10
-59.6285486272
 20
-53.1087129745
 30
0.0
 10
-59.6280341019
 20
-53.1083524618
 30
0.0
  0
ELLIPSE
  5
47A
100
AcDbEntity
  8
0
100
AcDbEllipse
 62
7
  6
CONTINUOUS
 10
-524.9725663957
 20
-140.4521504342
 30
0.0
 11
535.1140690522
 21
0.0000119097
 31
0.0
 40
0.9951246675
 41
0.1923842608
 42
0.1927860921
  0
ELLIPSE
  5
47B
100
AcDbEntity
  8
0
100
AcDbEllipse
 62
7
  6
CONTINUOUS
 10
524.9725660736
 20
60.8521504742
 30
0.0
 11
-535.1140688131
 21
0.0000279813
 31
0.0
 40
0.9951246679
 41
0.1923843358
 42
0.1927861671
  0
ELLIPSE
  5
47C
100
AcDbEntity
  8
0
100
AcDbEllipse
 62
7
  6
CONTINUOUS
 10
-0.0
 20
-64.3
 30
0.0
 11
4.0
 21
-0.0
 31
0.0
 40
0.0524077793
 41
0.0
 42
3.1415926536
  0
ELLIPSE
  5
47D
100
AcDbEntity
  8
0
100
AcDbEllipse
 62
7
  6
CONTINUOUS
 10
-67.8111933365
 20
-6.8
 30
0.0
 11
2.8356409098
 21
0.0
 31
0.0
 40
0.1763269807
 41
2.4150661954
 42
2.4980915448
  0
ELLIPSE
  5
47E
100
AcDbEntity
  8
0
100
AcDbEllipse
 62
7
  6
CONTINUOUS
 10
-72.3482187922
 20
-6.8
 30
0.0
 11
2.8356409098
 21
-0.0
 31
0.0
 40
0.1763269807
 41
0.6435011088
 42
0.7265264582
  0
ENDSEC
  0
SECTION
  2
OBJECTS
  0
DICTIONARY
  5
C
100
AcDbDictionary
280
0
281
1
  3
ACAD_GROUP
350
D
  3
ACAD_MLINESTYLE
350
17
  3
ACAD_LAYOUT
350
1A
  3
ACAD_PLOTSETTINGS
350
19
  3
ACAD_PLOTSTYLENAME
350
E
  0
DICTIONARY
  5
D
102
{ACAD_REACTORS
330
C
102
}
100
AcDbDictionary
280
0
281
1
  0
ACDBDICTIONARYWDFLT
  5
E
102
{ACAD_REACTORS
330
C
102
}
100
AcDbDictionary
281
1
  3
Normal
350
F
100
AcDbDictionaryWithDefault
340
F
  0
DICTIONARY
  5
17
102
{ACAD_REACTORS
330
C
102
}
100
AcDbDictionary
280
0
281
1
  3
Standard
350
18
  0
DICTIONARY
  5
19
102
{ACAD_REACTORS
330
C
102
}
100
AcDbDictionary
281
1
  0
DICTIONARY
  5
1A
102
{ACAD_REACTORS
330
C
102
}
100
AcDbDictionary
281
1
  3
Model
350
47F
  3
Layout1
350
480
  0
ACDBPLACEHOLDER
  5
F
102
{ACAD_REACTORS
330
E
102
}
  0
MLINESTYLE
  5
18
102
{ACAD_REACTORS
330
17
102
}
100
AcDbMlineStyle
  2
STANDARD
 70
0
  3

 62
256
 51
90.0
 52
90.0
 71
2
 49
0.5
 62
256
  6
BYLAYER
 49
-0.5
 62
256
  6
BYLAYER
  0
LAYOUT
  5
47F
102
{ACAD_REACTORS
330
1A
102
}
100
AcDbPlotSettings
  1

  2
none_device
  4
ISO_A4_(297.00_x_210.00_MM)
  6

 40
0.0
 41
0.0
 42
0.0
 43
0.0
 44
297.0
 45
210.0
 46
0.0
 47
0.0
 48
0.0
 49
0.0
140
0.0
141
0.0
142
1.0
143
1.0
 70
1024
 72
1
 73
0
 74
0
  7

 75
0
147
1.0
148
0.0
149
0.0
100
AcDbLayout
  1
Model
 70
0
 71
0
 10
0.0
 20
0.0
 11
297.0
 21
210.0
 12
0.0
 22
0.0
 32
0.0
 14
0.0
 24
0.0
 34
0.0
 15
0.0
 25
0.0
 35
0.0
146
0.0
 13
0.0
 23
0.0
 33
0.0
 16
1.0
 26
0.0
 36
0.0
 17
0.0
 27
1.0
 37
0.0
 76
0
330
21B
345
0
346
0
  0
LAYOUT
  5
480
102
{ACAD_REACTORS
330
1A
102
}
100
AcDbPlotSettings
  1

  2
none_device
  4
ISO_A4_(297.00_x_210.00_MM)
  6

 40
0.0
 41
0.0
 42
0.0
 43
0.0
 44
297.0
 45
210.0
 46
0.0
 47
0.0
 48
0.0
 49
0.0
140
0.0
141
0.0
142
1.0
143
1.0
 70
0
 72
1
 73
0
 74
0
  7

 75
0
147
1.0
148
0.0
149
0.0
100
AcDbLayout
  1
Layout1
 70
0
 71
1
 10
0.0
 20
0.0
 11
297.0
 21
210.0
 12
0.0
 22
0.0
 32
0.0
 14
0.0
 24
0.0
 34
0.0
 15
0.0
 25
0.0
 35
0.0
146
0.0
 13
0.0
 23
0.0
 33
0.0
 16
1.0
 26
0.0
 36
0.0
 17
0.0
 27
1.0
 37
0.0
 76
0
330
21C
345
0
346
0
  0
ENDSEC
  0
EOF
