  0
SECTION
  2
HEADER
  9
$ACADVER
  1
AC1024
  9
$DWGCODEPAGE
  3
ANSI_1252
  9
$EXTMAX
 10
558.8
 20
431.8
 30
0.0
  9
$EXTMIN
 10
0.0
 20
0.0
 30
0.0
  9
$LIMMIN
 10
0.0
 20
0.0
  9
$LIMMAX
 10
558.8
 20
431.8
  9
$VIEWCTR
 10
279.4
 20
215.9
  9
$VIEWSIZE
 40
431.8
  9
$CLAYER
  8
0
  9
$LTSCALE
 40
30.734
  9
$CELTYPE
  6
BYLAYER
  9
$DIMSCALE
 40
1.0
  9
$DIMASZ
 40
3.0
  9
$DIMEXO
 40
0.5
  9
$DIMDLI
 40
21.2344
  9
$DIMEXE
 40
1.5
  9
$DIMCEN
 40
5.0292
  9
$DIMLFAC
 40
1.0
  9
$DIMBLK
  1
_FILLED
  9
$DIMALT
 70
0
  9
$DIMALTF
 40
0.0393700787
  9
$DIMTXT
 40
3.0
  9
$DIMTOL
 70
1
  9
$DIMLIM
 70
0
  9
$DIMTFAC
 40
1.0
  9
$DIMTP
 40
0.01
  9
$DIMTM
 40
0.01
  9
$DIMGAP
 40
0.625
  9
$DIMDSEP
 70
44
  9
$AUNITS
 70
0
  9
$PDMODE
 70
3
  9
$PDSIZE
 40
3.0
  9
$HANDSEED
  5
69E
  9
$TILEMODE
 70
1
  9
$MEASUREMENT
 70
1
  9
$INSUNITS
 70
4
  0
ENDSEC
  0
SECTION
  2
CLASSES
  0
CLASS
  1
ACDBDICTIONARYWDFLT
  2
AcDbDictionaryWithDefault
  3
AutoCAD 2000
 90
0
 91
1
280
0
281
0
  0
CLASS
  1
ACDBPLACEHOLDER
  2
AcDbPlaceHolder
  3
AutoCAD 2000
 90
0
 91
1
280
0
281
0
  0
CLASS
  1
LAYOUT
  2
AcDbLayout
  3
AutoCAD 2000
 90
0
 91
0
280
0
281
0
  0
ENDSEC
  0
SECTION
  2
TABLES
  0
TABLE
  2
VPORT
  5
8
100
AcDbSymbolTable
 70
2
  0
VPORT
  5
1F4
100
AcDbSymbolTableRecord
100
AcDbViewportTableRecord
  2
*ACTIVE
 70
0
 10
0.0
 20
0.0
 11
1.0
 21
1.0
 12
279.4
 22
215.9
 13
0.0
 23
0.0
 14
1.0
 24
1.0
 15
0.0
 25
0.0
 16
0.0
 26
0.0
 36
1.0
 17
0.0
 27
0.0
 37
0.0
 40
431.8
 41
1.2941176471
 42
50.0
 43
0.0
 44
0.0
 50
0.0
 51
0.0
 71
0
 72
100
 73
1
 74
1
 75
0
 76
0
 77
0
 78
0
  0
ENDTAB
  0
TABLE
  2
LTYPE
  5
5
100
AcDbSymbolTable
 70
6
  0
LTYPE
  5
14
100
AcDbSymbolTableRecord
100
AcDbLinetypeTableRecord
  2
BYBLOCK
 70
0
  3

 72
65
 73
0
 40
0.0
  0
LTYPE
  5
15
100
AcDbSymbolTableRecord
100
AcDbLinetypeTableRecord
  2
BYLAYER
 70
0
  3

 72
65
 73
0
 40
0.0
  0
LTYPE
  5
16
100
AcDbSymbolTableRecord
100
AcDbLinetypeTableRecord
  2
CONTINUOUS
 70
64
  3
Solid line
 72
65
 73
0
 40
0.0
  0
LTYPE
  5
1F5
100
AcDbSymbolTableRecord
100
AcDbLinetypeTableRecord
  2
CENTER
 70
64
  3
____ _ ____ _ ____ _ ____ _ ____ _ ____ _ ____
 72
65
 73
4
 40
0.6
 49
0.375
 74
0
 49
-0.075
 74
0
 49
0.075
 74
0
 49
-0.075
 74
0
  0
LTYPE
  5
1F6
100
AcDbSymbolTableRecord
100
AcDbLinetypeTableRecord
  2
HIDDEN
 70
64
  3
- - - - - - - - - - - - - - - - - - - -
 72
65
 73
2
 40
0.2
 49
0.1
 74
0
 49
-0.1
 74
0
  0
LTYPE
  5
1F7
100
AcDbSymbolTableRecord
100
AcDbLinetypeTableRecord
  2
PHANTOM
 70
64
  3
_____ _ _ _____ _ _ _____ _ _ _____
 72
65
 73
6
 40
0.8
 49
0.45
 74
0
 49
-0.05
 74
0
 49
0.1
 74
0
 49
-0.05
 74
0
 49
0.1
 74
0
 49
-0.05
 74
0
  0
LTYPE
  5
1F8
100
AcDbSymbolTableRecord
100
AcDbLinetypeTableRecord
  2
DOT
 70
64
  3
. . . . . . . . . . . . . . . . . . . .
 72
65
 73
2
 40
0.2
 49
0.1
 74
0
 49
-0.1
 74
0
  0
LTYPE
  5
1F9
100
AcDbSymbolTableRecord
100
AcDbLinetypeTableRecord
  2
DASHED
 70
64
  3
- - - - - - - - - - - - - - - - - - - -
 72
65
 73
2
 40
0.2
 49
0.1
 74
0
 49
-0.1
 74
0
  0
ENDTAB
  0
TABLE
  2
LAYER
  5
2
100
AcDbSymbolTable
 70
36
  0
LAYER
  5
10
100
AcDbSymbolTableRecord
100
AcDbLayerTableRecord
  2
0
 70
0
 62
7
  6
CONTINUOUS
370
-3
390
F
  0
LAYER
  5
1FA
100
AcDbSymbolTableRecord
100
AcDbLayerTableRecord
  2
DEFAULT_1
 70
0
 62
7
  6
CENTER
370
-3
390
F
  0
LAYER
  5
1FB
100
AcDbSymbolTableRecord
100
AcDbLayerTableRecord
  2
DEFAULT_2
 70
0
 62
7
  6
HIDDEN
370
-3
390
F
  0
LAYER
  5
1FC
100
AcDbSymbolTableRecord
100
AcDbLayerTableRecord
  2
DEFAULT_3
 70
0
 62
7
  6
PHANTOM
370
-3
390
F
  0
LAYER
  5
1FD
100
AcDbSymbolTableRecord
100
AcDbLayerTableRecord
  2
ASSI
 70
0
 62
7
  6
CONTINUOUS
370
-3
390
F
  0
LAYER
  5
1FE
100
AcDbSymbolTableRecord
100
AcDbLayerTableRecord
  2
COLOR5
 70
0
 62
7
  6
CONTINUOUS
370
-3
390
F
  0
LAYER
  5
1FF
100
AcDbSymbolTableRecord
100
AcDbLayerTableRecord
  2
COORDINATE
 70
0
 62
7
  6
CONTINUOUS
370
-3
390
F
  0
LAYER
  5
200
100
AcDbSymbolTableRecord
100
AcDbLayerTableRecord
  2
COORD_ORIGINE
 70
0
 62
7
  6
CONTINUOUS
370
-3
390
F
  0
LAYER
  5
201
100
AcDbSymbolTableRecord
100
AcDbLayerTableRecord
  2
COSMETICHE
 70
0
 62
7
  6
CONTINUOUS
370
-3
390
F
  0
LAYER
  5
202
100
AcDbSymbolTableRecord
100
AcDbLayerTableRecord
  2
CURVE
 70
0
 62
7
  6
CONTINUOUS
370
-3
390
F
  0
LAYER
  5
203
100
AcDbSymbolTableRecord
100
AcDbLayerTableRecord
  2
DRAFT
 70
0
 62
7
  6
CONTINUOUS
370
-3
390
F
  0
LAYER
  5
204
100
AcDbSymbolTableRecord
100
AcDbLayerTableRecord
  2
IGES
 70
0
 62
7
  6
CONTINUOUS
370
-3
390
F
  0
LAYER
  5
205
100
AcDbSymbolTableRecord
100
AcDbLayerTableRecord
  2
INTF_1
 70
0
 62
7
  6
CONTINUOUS
370
-3
390
F
  0
LAYER
  5
206
100
AcDbSymbolTableRecord
100
AcDbLayerTableRecord
  2
INTF_11
 70
0
 62
7
  6
CONTINUOUS
370
-3
390
F
  0
LAYER
  5
207
100
AcDbSymbolTableRecord
100
AcDbLayerTableRecord
  2
INTF_2
 70
0
 62
7
  6
CONTINUOUS
370
-3
390
F
  0
LAYER
  5
208
100
AcDbSymbolTableRecord
100
AcDbLayerTableRecord
  2
INTF_3
 70
0
 62
7
  6
CONTINUOUS
370
-3
390
F
  0
LAYER
  5
209
100
AcDbSymbolTableRecord
100
AcDbLayerTableRecord
  2
INTF_YELLOW
 70
0
 62
7
  6
CONTINUOUS
370
-3
390
F
  0
LAYER
  5
20A
100
AcDbSymbolTableRecord
100
AcDbLayerTableRecord
  2
NOTE
 70
0
 62
7
  6
CONTINUOUS
370
-3
390
F
  0
LAYER
  5
20B
100
AcDbSymbolTableRecord
100
AcDbLayerTableRecord
  2
PIANI
 70
0
 62
7
  6
CONTINUOUS
370
-3
390
F
  0
LAYER
  5
20C
100
AcDbSymbolTableRecord
100
AcDbLayerTableRecord
  2
PIANI_ORIGINE
 70
0
 62
7
  6
CONTINUOUS
370
-3
390
F
  0
LAYER
  5
20D
100
AcDbSymbolTableRecord
100
AcDbLayerTableRecord
  2
PUNTI
 70
0
 62
7
  6
CONTINUOUS
370
-3
390
F
  0
LAYER
  5
20E
100
AcDbSymbolTableRecord
100
AcDbLayerTableRecord
  2
RACCORDO
 70
0
 62
7
  6
CONTINUOUS
370
-3
390
F
  0
LAYER
  5
20F
100
AcDbSymbolTableRecord
100
AcDbLayerTableRecord
  2
SNAPLINE
 70
0
 62
7
  6
CONTINUOUS
370
-3
390
F
  0
LAYER
  5
210
100
AcDbSymbolTableRecord
100
AcDbLayerTableRecord
  2
SUPERFICI
 70
0
 62
7
  6
CONTINUOUS
370
-3
390
F
  0
LAYER
  5
211
100
AcDbSymbolTableRecord
100
AcDbLayerTableRecord
  2
TRASH
 70
0
 62
7
  6
CONTINUOUS
370
-3
390
F
  0
LAYER
  5
212
100
AcDbSymbolTableRecord
100
AcDbLayerTableRecord
  2
XSEC_DATUMS
 70
0
 62
7
  6
CONTINUOUS
370
-3
390
F
  0
ENDTAB
  0
TABLE
  2
STYLE
  5
3
100
AcDbSymbolTable
 70
1
  0
STYLE
  5
11
100
AcDbSymbolTableRecord
100
AcDbTextStyleTableRecord
  2
STANDARD
 70
0
 40
0.0
 41
0.8
 50
0.0
 71
0
 42
0.2
  3
txt
  4

  0
STYLE
  5
213
100
AcDbSymbolTableRecord
100
AcDbTextStyleTableRecord
  2
TEXTSTYLE_1
 70
0
 40
0.0
 41
0.8
 50
0.0
 71
0
 42
0.2
  3
gdt
  4

  0
ENDTAB
  0
TABLE
  2
VIEW
  5
6
100
AcDbSymbolTable
 70
0
  0
ENDTAB
  0
TABLE
  2
UCS
  5
7
100
AcDbSymbolTable
 70
0
  0
ENDTAB
  0
TABLE
  2
APPID
  5
9
100
AcDbSymbolTable
 70
1
  0
APPID
  5
214
100
AcDbSymbolTableRecord
100
AcDbRegAppTableRecord
  2
ACAD
 70
0
  0
ENDTAB
  0
TABLE
  2
BLOCK_RECORD
  5
1
100
AcDbSymbolTable
 70
0
  0
BLOCK_RECORD
  5
215
100
AcDbSymbolTableRecord
100
AcDbBlockTableRecord
  2
*Model_Space
  0
BLOCK_RECORD
  5
216
100
AcDbSymbolTableRecord
100
AcDbBlockTableRecord
  2
*Paper_Space
  0
BLOCK_RECORD
  5
217
100
AcDbSymbolTableRecord
100
AcDbBlockTableRecord
  2
_FILLED
  0
BLOCK_RECORD
  5
218
100
AcDbSymbolTableRecord
100
AcDbBlockTableRecord
  2
*D0
  0
BLOCK_RECORD
  5
219
100
AcDbSymbolTableRecord
100
AcDbBlockTableRecord
  2
*D1
  0
BLOCK_RECORD
  5
21A
100
AcDbSymbolTableRecord
100
AcDbBlockTableRecord
  2
*D2
  0
ENDTAB
  0
TABLE
  2
DIMSTYLE
  5
A
100
AcDbSymbolTable
 70
1
100
AcDbDimStyleTable
 71
0
  0
DIMSTYLE
105
21B
100
AcDbSymbolTableRecord
100
AcDbDimStyleTableRecord
  2
STANDARD
 70
0
  3

  4

 40
1.0
 41
3.0
 42
0.5
 43
0.38
 44
1.5
 45
0.0
 46
0.0
 47
0.01
 48
0.01
140
3.0
141
0.09
142
0.0
143
25.4
144
1.0
145
0.0
146
1.0
147
0.625
 71
1
 72
0
 73
0
 74
0
 75
0
 76
0
 77
1
 78
8
 79
2
170
0
171
1
172
0
173
0
174
0
175
0
176
0
177
0
178
0
270
2
179
2
271
2
272
2
273
2
274
2
275
0
280
0
281
0
282
0
283
1
284
8
285
0
286
0
287
3
288
0
340
11
278
44
341
217
342
217
343
217
344
217
  0
DIMSTYLE
105
21C
100
AcDbSymbolTableRecord
100
AcDbDimStyleTableRecord
  2
DIMSTYLE_1
 70
0
  3

  4

 40
1.0
 41
3.0
 42
0.5
 43
0.38
 44
1.5
 45
0.0
 46
0.0
 47
0.0
 48
0.0
140
3.0
141
0.09
142
0.0
143
25.4
144
1.0
145
0.0
146
1.0
147
0.75
 71
0
 72
0
 73
0
 74
0
 75
0
 76
0
 77
1
 78
8
 79
2
170
0
171
1
172
0
173
0
174
0
175
0
176
0
177
0
178
0
270
2
179
2
271
2
272
2
273
2
274
2
275
0
280
0
281
0
282
0
283
1
284
8
285
0
286
0
287
3
288
0
340
11
278
44
341
217
342
217
343
217
344
217
  0
DIMSTYLE
105
21D
100
AcDbSymbolTableRecord
100
AcDbDimStyleTableRecord
  2
DIMSTYLE_2
 70
0
  3

  4

 40
1.0
 41
3.0
 42
0.5
 43
0.38
 44
1.5
 45
0.0
 46
0.0
 47
0.0
 48
0.0
140
3.0
141
0.09
142
0.0
143
25.4
144
1.0
145
0.0
146
1.0
147
0.75
 71
0
 72
0
 73
0
 74
0
 75
0
 76
0
 77
1
 78
8
 79
2
170
0
171
1
172
0
173
0
174
0
175
0
176
0
177
0
178
0
270
2
179
2
271
1
272
1
273
2
274
2
275
0
280
0
281
0
282
0
283
1
284
8
285
0
286
0
287
3
288
0
340
11
278
44
341
217
342
217
343
217
344
217
  0
ENDTAB
  0
ENDSEC
  0
SECTION
  2
BLOCKS
  0
BLOCK
  5
20
100
AcDbEntity
  8
0
100
AcDbBlockBegin
  2
*Model_Space
 70
0
 10
0.0
 20
0.0
 30
0.0
  3
*Model_Space
  1

  0
ENDBLK
  5
21
100
AcDbEntity
  8
0
100
AcDbBlockEnd
  0
BLOCK
  5
1C
100
AcDbEntity
  8
0
100
AcDbBlockBegin
  2
*Paper_Space
 70
0
 10
0.0
 20
0.0
 30
0.0
  3
*Paper_Space
  1

  0
ENDBLK
  5
1D
100
AcDbEntity
  8
0
100
AcDbBlockEnd
  0
BLOCK
  5
21E
100
AcDbEntity
  8
0
100
AcDbBlockBegin
  2
_FILLED
 70
64
 10
0.0
 20
0.0
  3
_FILLED
  1

  0
SOLID
  5
21F
100
AcDbEntity
  8
0
  6
BYBLOCK
 62
0
100
AcDbTrace
 10
0.0
 20
0.0
 11
-1.0
 21
0.3166666667
 12
-1.0
 22
-0.3166666667
 13
-1.0
 23
-0.3166666667
  0
ENDBLK
  5
220
100
AcDbEntity
  8
0
  6
BYBLOCK
 62
0
100
AcDbBlockEnd
  0
BLOCK
  5
221
100
AcDbEntity
  8
0
100
AcDbBlockBegin
 62
7
  6
CONTINUOUS
  2
*D0
 70
65
 10
0.0
 20
0.0
  3
*D0
  1

  0
LINE
  5
222
100
AcDbEntity
  8
0
100
AcDbLine
 62
7
  6
CONTINUOUS
 10
-10.9999944715
 20
6.9927021425
 11
-10.9999944715
 21
50.085
  0
LINE
  5
223
100
AcDbEntity
  8
0
100
AcDbLine
 62
7
  6
CONTINUOUS
 10
10.9999944715
 20
6.9927021425
 11
10.9999944715
 21
50.085
  0
LINE
  5
224
100
AcDbEntity
  8
0
100
AcDbLine
 62
7
  6
CONTINUOUS
 10
-10.9999944715
 20
48.585
 11
0.0
 21
48.585
  0
LINE
  5
225
100
AcDbEntity
  8
0
100
AcDbLine
 62
7
  6
CONTINUOUS
 10
10.9999944715
 20
48.585
 11
0.0
 21
48.585
  0
INSERT
  5
226
100
AcDbEntity
  8
0
100
AcDbBlockReference
 62
7
  6
CONTINUOUS
  2
_FILLED
 10
-10.9999944715
 20
48.585
 41
3.0
 42
3.0
 43
3.0
 50
180.0
  0
INSERT
  5
227
100
AcDbEntity
  8
0
100
AcDbBlockReference
 62
7
  6
CONTINUOUS
  2
_FILLED
 10
10.9999944715
 20
48.585
 41
3.0
 42
3.0
 43
3.0
  0
ENDBLK
  5
228
100
AcDbEntity
  8
0
  6
BYBLOCK
 62
0
100
AcDbBlockEnd
  0
BLOCK
  5
229
100
AcDbEntity
  8
0
100
AcDbBlockBegin
 62
7
  6
CONTINUOUS
  2
*D1
 70
65
 10
0.0
 20
0.0
  3
*D1
  1

  0
LINE
  5
22A
100
AcDbEntity
  8
0
100
AcDbLine
 62
7
  6
CONTINUOUS
 10
-54.7182242627
 20
39.5927021425
 11
-78.4250506932
 21
39.5927021425
  0
LINE
  5
22B
100
AcDbEntity
  8
0
100
AcDbLine
 62
7
  6
CONTINUOUS
 10
-50.4647573047
 20
-16.9072978575
 11
-78.4250506932
 21
-16.9072978575
  0
LINE
  5
22C
100
AcDbEntity
  8
0
100
AcDbLine
 62
7
  6
CONTINUOUS
 10
-76.9250506932
 20
39.5927021425
 11
-76.9250506932
 21
11.3427021425
  0
LINE
  5
22D
100
AcDbEntity
  8
0
100
AcDbLine
 62
7
  6
CONTINUOUS
 10
-76.9250506932
 20
-16.9072978575
 11
-76.9250506932
 21
11.3427021425
  0
INSERT
  5
22E
100
AcDbEntity
  8
0
100
AcDbBlockReference
 62
7
  6
CONTINUOUS
  2
_FILLED
 10
-76.9250506932
 20
39.5927021425
 41
3.0
 42
3.0
 43
3.0
 50
90.0
  0
INSERT
  5
22F
100
AcDbEntity
  8
0
100
AcDbBlockReference
 62
7
  6
CONTINUOUS
  2
_FILLED
 10
-76.9250506932
 20
-16.9072978575
 41
3.0
 42
3.0
 43
3.0
 50
270.0
  0
ENDBLK
  5
230
100
AcDbEntity
  8
0
  6
BYBLOCK
 62
0
100
AcDbBlockEnd
  0
BLOCK
  5
231
100
AcDbEntity
  8
0
100
AcDbBlockBegin
 62
7
  6
CONTINUOUS
  2
*D2
 70
65
 10
0.0
 20
0.0
  3
*D2
  1

  0
LINE
  5
232
100
AcDbEntity
  8
0
100
AcDbLine
 62
7
  6
CONTINUOUS
 10
-68.1153603706
 20
-9.535551055
 11
-68.1153603706
 21
50.085
  0
LINE
  5
233
100
AcDbEntity
  8
0
100
AcDbLine
 62
7
  6
CONTINUOUS
 10
-29.6247573047
 20
0.5927021425
 11
-29.6247573047
 21
50.085
  0
LINE
  5
234
100
AcDbEntity
  8
0
100
AcDbLine
 62
7
  6
CONTINUOUS
 10
-68.1153603706
 20
48.585
 11
-48.8700588377
 21
48.585
  0
LINE
  5
235
100
AcDbEntity
  8
0
100
AcDbLine
 62
7
  6
CONTINUOUS
 10
-29.6247573047
 20
48.585
 11
-48.8700588377
 21
48.585
  0
INSERT
  5
236
100
AcDbEntity
  8
0
100
AcDbBlockReference
 62
7
  6
CONTINUOUS
  2
_FILLED
 10
-68.1153603706
 20
48.585
 41
3.0
 42
3.0
 43
3.0
 50
180.0
  0
INSERT
  5
237
100
AcDbEntity
  8
0
100
AcDbBlockReference
 62
7
  6
CONTINUOUS
  2
_FILLED
 10
-29.6247573047
 20
48.585
 41
3.0
 42
3.0
 43
3.0
  0
ENDBLK
  5
238
100
AcDbEntity
  8
0
  6
BYBLOCK
 62
0
100
AcDbBlockEnd
  0
ENDSEC
  0
SECTION
  2
ENTITIES
  0
DIMENSION
  5
239
100
AcDbEntity
  8
0
100
AcDbDimension
 62
7
  6
CONTINUOUS
  2
*D0
 10
10.9999944715
 20
48.585
 11
-2.3571428571
 21
48.585
 70
160
 71
2
 72
2
 41
0.9
 42
21.999988943
  3
DIMSTYLE_1
100
AcDbAlignedDimension
 13
-10.9999944715
 23
6.4927021425
 14
10.9999944715
 24
6.4927021425
100
AcDbRotatedDimension
  0
DIMENSION
  5
23A
100
AcDbEntity
  8
0
100
AcDbDimension
 62
7
  6
CONTINUOUS
  2
*D1
 10
-76.9250506932
 20
-16.9072978575
 11
-76.9250506932
 21
7.1641307139
 70
160
 71
2
 72
2
 41
0.9
 42
56.5
  3
DIMSTYLE_1
100
AcDbAlignedDimension
 13
-54.2182242627
 23
39.5927021425
 14
-49.9647573047
 24
-16.9072978575
 50
270.0
100
AcDbRotatedDimension
  0
DIMENSION
  5
23B
100
AcDbEntity
  8
0
100
AcDbDimension
 62
7
  6
CONTINUOUS
  2
*D2
 10
-29.6247573047
 20
48.585
 11
-53.0486302662
 21
48.585
 70
160
 71
2
 72
2
 41
0.9
 42
38.490603066
  3
DIMSTYLE_2
100
AcDbAlignedDimension
 13
-68.1153603706
 23
-10.035551055
 14
-29.6247573047
 24
0.0927021425
100
AcDbRotatedDimension
  0
LINE
  5
23C
100
AcDbEntity
  8
RACCORDO
100
AcDbLine
 62
250
  6
CONTINUOUS
 10
-10.1439502094
 20
34.6220742514
 11
-10.4775695541
 21
34.4814987771
  0
LWPOLYLINE
  5
23D
100
AcDbEntity
  8
RACCORDO
100
AcDbPolyline
 62
250
  6
CONTINUOUS
 90
6
 70
0
 10
-10.1439502094
 20
34.6220742514
 10
-10.2137923215
 20
34.5941120853
 10
-10.2754728735
 20
34.5690837125
 10
-10.3289804644
 20
34.5469903746
 10
-10.3743024996
 20
34.5276332208
 10
-10.4610338176
 20
34.4891833689
  0
LWPOLYLINE
  5
23E
100
AcDbEntity
  8
RACCORDO
100
AcDbPolyline
 62
250
  6
CONTINUOUS
 90
3
 70
0
 10
-10.4610338176
 20
34.4891833689
 10
-10.4734480414
 20
34.4835731978
 10
-10.4775694261
 20
34.481498815
  0
LINE
  5
23F
100
AcDbEntity
  8
0
100
AcDbLine
 62
7
  6
CONTINUOUS
 10
-10.7829750373
 20
20.8806061153
 11
-10.7900847442
 21
20.8574427827
  0
LINE
  5
240
100
AcDbEntity
  8
0
100
AcDbLine
 62
7
  6
CONTINUOUS
 10
-10.7733847657
 20
20.9109749328
 11
-10.7792453472
 21
20.8925321717
  0
LINE
  5
241
100
AcDbEntity
  8
0
100
AcDbLine
 62
7
  6
CONTINUOUS
 10
-10.7789232659
 20
20.8439428387
 11
-10.7677165803
 21
20.8787664894
  0
LINE
  5
242
100
AcDbEntity
  8
0
100
AcDbLine
 62
7
  6
CONTINUOUS
 10
-10.7674116764
 20
20.9294174252
 11
-10.7733847657
 21
20.9109749328
  0
LINE
  5
243
100
AcDbEntity
  8
0
100
AcDbLine
 62
7
  6
CONTINUOUS
 10
-10.7423942402
 20
21.0031847075
 11
-10.7488173568
 21
20.9847433036
  0
LINE
  5
244
100
AcDbEntity
  8
0
100
AcDbLine
 62
7
  6
CONTINUOUS
 10
-10.7358586248
 20
21.0216258155
 11
-10.7423942402
 21
21.0031847075
  0
LINE
  5
245
100
AcDbEntity
  8
0
100
AcDbLine
 62
7
  6
CONTINUOUS
 10
-10.7224498904
 20
21.0585071643
 11
-10.7358586248
 21
21.0216258155
  0
LINE
  5
246
100
AcDbEntity
  8
0
100
AcDbLine
 62
7
  6
CONTINUOUS
 10
-10.7141634137
 20
21.0807024993
 11
-10.7171625897
 21
21.0727194528
  0
LINE
  5
247
100
AcDbEntity
  8
RACCORDO
100
AcDbLine
 62
7
  6
CONTINUOUS
 10
-10.7185557082
 20
-14.0520548238
 11
-10.7182369511
 21
-14.0522089331
  0
LINE
  5
248
100
AcDbEntity
  8
RACCORDO
100
AcDbLine
 62
7
  6
CONTINUOUS
 10
-9.9807047001
 20
-15.1888519506
 11
-10.0376354857
 21
-15.1598370154
  0
LINE
  5
249
100
AcDbEntity
  8
0
100
AcDbLine
 62
7
  6
CONTINUOUS
 10
-10.96473635
 20
12.9878397736
 11
-10.9647406302
 21
12.9879002256
  0
LINE
  5
24A
100
AcDbEntity
  8
0
100
AcDbLine
 62
7
  6
CONTINUOUS
 10
-10.9647406302
 20
12.9879002256
 11
-10.9645704191
 21
12.9851810077
  0
LINE
  5
24B
100
AcDbEntity
  8
0
100
AcDbLine
 62
7
  6
CONTINUOUS
 10
-10.9645704191
 20
12.9851810077
 11
-10.9642453211
 21
12.9795289908
  0
LINE
  5
24C
100
AcDbEntity
  8
0
100
AcDbLine
 62
7
  6
CONTINUOUS
 10
-10.9642453211
 20
12.9795289908
 11
-10.9635497495
 21
12.9662758755
  0
LINE
  5
24D
100
AcDbEntity
  8
0
100
AcDbLine
 62
7
  6
CONTINUOUS
 10
-10.9635497495
 20
12.9662758755
 11
-10.9623336689
 21
12.9406337089
  0
LINE
  5
24E
100
AcDbEntity
  8
0
100
AcDbLine
 62
7
  6
CONTINUOUS
 10
-10.9623336689
 20
12.9406337089
 11
-10.9600076663
 21
12.8858384586
  0
LINE
  5
24F
100
AcDbEntity
  8
0
100
AcDbLine
 62
7
  6
CONTINUOUS
 10
-10.9600076663
 20
12.8858384586
 11
-10.9554682189
 21
12.7649975386
  0
LINE
  5
250
100
AcDbEntity
  8
0
100
AcDbLine
 62
7
  6
CONTINUOUS
 10
-10.9554682189
 20
12.7649975386
 11
-10.9481669581
 21
12.5468525213
  0
LINE
  5
251
100
AcDbEntity
  8
0
100
AcDbLine
 62
7
  6
CONTINUOUS
 10
-10.9481669581
 20
12.5468525213
 11
-10.9387913894
 21
12.2400757184
  0
LINE
  5
252
100
AcDbEntity
  8
0
100
AcDbLine
 62
7
  6
CONTINUOUS
 10
-10.9387913894
 20
12.2400757184
 11
-10.9283956233
 21
11.8753143106
  0
LINE
  5
253
100
AcDbEntity
  8
0
100
AcDbLine
 62
7
  6
CONTINUOUS
 10
-10.9283956233
 20
11.8753143106
 11
-10.9149191587
 21
11.3713693542
  0
LINE
  5
254
100
AcDbEntity
  8
0
100
AcDbLine
 62
7
  6
CONTINUOUS
 10
-10.9149191587
 20
11.3713693542
 11
-10.9007638655
 21
10.8101287653
  0
LINE
  5
255
100
AcDbEntity
  8
0
100
AcDbLine
 62
7
  6
CONTINUOUS
 10
-10.9007638655
 20
10.8101287653
 11
-10.8881380347
 21
10.2828577018
  0
LINE
  5
256
100
AcDbEntity
  8
0
100
AcDbLine
 62
7
  6
CONTINUOUS
 10
-10.8881380347
 20
10.2828577018
 11
-10.8725888975
 21
9.5984967526
  0
LINE
  5
257
100
AcDbEntity
  8
0
100
AcDbLine
 62
7
  6
CONTINUOUS
 10
-10.8725888975
 20
9.5984967526
 11
-10.8596117632
 21
8.9967929146
  0
LINE
  5
258
100
AcDbEntity
  8
0
100
AcDbLine
 62
7
  6
CONTINUOUS
 10
-10.8596117632
 20
8.9967929146
 11
-10.8441912263
 21
8.2416377602
  0
LINE
  5
259
100
AcDbEntity
  8
0
100
AcDbLine
 62
7
  6
CONTINUOUS
 10
-10.8441912263
 20
8.2416377602
 11
-10.8324614566
 21
7.6349317699
  0
LINE
  5
25A
100
AcDbEntity
  8
0
100
AcDbLine
 62
7
  6
CONTINUOUS
 10
-10.736556905
 20
17.5799292143
 11
-10.7403470778
 21
17.7809644421
  0
LINE
  5
25B
100
AcDbEntity
  8
0
100
AcDbLine
 62
7
  6
CONTINUOUS
 10
-10.6865224843
 20
17.5799292143
 11
-10.6903133067
 21
17.780964441
  0
LINE
  5
25C
100
AcDbEntity
  8
0
100
AcDbLine
 62
7
  6
CONTINUOUS
 10
-10.8324614566
 20
7.6349317699
 11
-10.8207955323
 21
7.0006985272
  0
LINE
  5
25D
100
AcDbEntity
  8
0
100
AcDbLine
 62
7
  6
CONTINUOUS
 10
-10.8207955323
 20
7.0006985272
 11
-10.8093756135
 21
6.345653087
  0
LINE
  5
25E
100
AcDbEntity
  8
0
100
AcDbLine
 62
7
  6
CONTINUOUS
 10
-10.8093756135
 20
6.345653087
 11
-10.7983150903
 21
5.6739164051
  0
LINE
  5
25F
100
AcDbEntity
  8
0
100
AcDbLine
 62
7
  6
CONTINUOUS
 10
-10.7518221694
 20
18.448611885
 11
-10.7523922397
 21
18.4846057245
  0
LINE
  5
260
100
AcDbEntity
  8
0
100
AcDbLine
 62
7
  6
CONTINUOUS
 10
-10.7474624958
 20
18.1830418628
 11
-10.7523922397
 21
18.4846057245
  0
LINE
  5
261
100
AcDbEntity
  8
0
100
AcDbLine
 62
7
  6
CONTINUOUS
 10
-10.7018031427
 20
18.4494104355
 11
-10.7023606142
 21
18.4846057245
  0
LINE
  5
262
100
AcDbEntity
  8
0
100
AcDbLine
 62
7
  6
CONTINUOUS
 10
-10.6974299752
 20
18.1830418613
 11
-10.7023606142
 21
18.4846057245
  0
LINE
  5
263
100
AcDbEntity
  8
0
100
AcDbLine
 62
7
  6
CONTINUOUS
 10
-10.7983150903
 20
5.6739164051
 11
-10.7876940252
 21
4.9887420005
  0
LINE
  5
264
100
AcDbEntity
  8
0
100
AcDbLine
 62
7
  6
CONTINUOUS
 10
-10.7574043673
 20
18.8158738721
 11
-10.757868329
 21
18.8479267599
  0
LINE
  5
265
100
AcDbEntity
  8
0
100
AcDbLine
 62
7
  6
CONTINUOUS
 10
-10.7876940252
 20
4.9887420005
 11
-10.774347183
 21
4.0600375445
  0
LINE
  5
266
100
AcDbEntity
  8
0
100
AcDbLine
 62
7
  6
CONTINUOUS
 10
-10.7595023755
 20
18.9633729014
 11
-10.7596624618
 21
18.9748807117
  0
LINE
  5
267
100
AcDbEntity
  8
0
100
AcDbLine
 62
7
  6
CONTINUOUS
 10
-10.8410025924
 20
22.1066301425
 11
-10.8425486945
 21
22.2207885979
  0
LINE
  5
268
100
AcDbEntity
  8
0
100
AcDbLine
 62
7
  6
CONTINUOUS
 10
-10.8109941046
 20
22.1066301425
 11
-10.8125404061
 21
22.2207885974
  0
LINE
  5
269
100
AcDbEntity
  8
0
100
AcDbLine
 62
7
  6
CONTINUOUS
 10
-10.7648679924
 20
19.0261772099
 11
-10.764173486
 21
18.9748197093
  0
LINE
  5
26A
100
AcDbEntity
  8
0
100
AcDbLine
 62
7
  6
CONTINUOUS
 10
-10.774347183
 20
4.0600375445
 11
-10.7650339371
 21
3.3564713053
  0
LINE
  5
26B
100
AcDbEntity
  8
0
100
AcDbLine
 62
7
  6
CONTINUOUS
 10
-10.7603882313
 20
19.027520859
 11
-10.7644101392
 21
19.3345813154
  0
LINE
  5
26C
100
AcDbEntity
  8
0
100
AcDbLine
 62
7
  6
CONTINUOUS
 10
-10.7650339371
 20
3.3564713053
 11
-10.7536343834
 21
2.4151262549
  0
LINE
  5
26D
100
AcDbEntity
  8
0
100
AcDbLine
 62
7
  6
CONTINUOUS
 10
-10.8425486945
 20
22.2207885979
 11
-10.8437612742
 21
22.3349477408
  0
LINE
  5
26E
100
AcDbEntity
  8
0
100
AcDbLine
 62
7
  6
CONTINUOUS
 10
-10.8125404061
 20
22.2207885974
 11
-10.813753161
 21
22.33494774
  0
LINE
  5
26F
100
AcDbEntity
  8
0
100
AcDbLine
 62
7
  6
CONTINUOUS
 10
-10.7536343834
 20
2.4151262549
 11
-10.7458925764
 21
1.7107367343
  0
LINE
  5
270
100
AcDbEntity
  8
0
100
AcDbLine
 62
7
  6
CONTINUOUS
 10
-10.7692103189
 20
19.7440021507
 11
-10.7713693919
 21
19.948715344
  0
LINE
  5
271
100
AcDbEntity
  8
0
100
AcDbLine
 62
7
  6
CONTINUOUS
 10
-10.7458925764
 20
1.7107367343
 11
-10.7388703643
 21
1.0110987468
  0
LINE
  5
272
100
AcDbEntity
  8
0
100
AcDbLine
 62
7
  6
CONTINUOUS
 10
-10.7738509205
 20
20.2055528421
 11
-10.7769407331
 21
20.5703452171
  0
LINE
  5
273
100
AcDbEntity
  8
0
100
AcDbLine
 62
7
  6
CONTINUOUS
 10
-10.7388703643
 20
1.0110987468
 11
-10.7270079259
 21
-0.3627205347
  0
LINE
  5
274
100
AcDbEntity
  8
0
100
AcDbLine
 62
7
  6
CONTINUOUS
 10
-10.8437612762
 20
22.3349477408
 11
-10.8446403315
 21
22.4491075712
  0
LINE
  5
275
100
AcDbEntity
  8
0
100
AcDbLine
 62
7
  6
CONTINUOUS
 10
-10.813753161
 20
22.33494774
 11
-10.8146323689
 21
22.4491075702
  0
LINE
  5
276
100
AcDbEntity
  8
0
100
AcDbLine
 62
7
  6
CONTINUOUS
 10
-10.7270079259
 20
-0.3627205347
 11
-10.7221484779
 21
-1.0325597873
  0
LINE
  5
277
100
AcDbEntity
  8
0
100
AcDbLine
 62
7
  6
CONTINUOUS
 10
-10.7787017266
 20
20.8112878735
 11
-10.7789232659
 21
20.8439428387
  0
LINE
  5
278
100
AcDbEntity
  8
0
100
AcDbLine
 62
7
  6
CONTINUOUS
 10
-10.7769407331
 20
20.5703452171
 11
-10.7789232659
 21
20.8439428387
  0
LINE
  5
279
100
AcDbEntity
  8
0
100
AcDbLine
 62
7
  6
CONTINUOUS
 10
-10.6837438244
 20
28.4211944406
 11
-10.6835956772
 21
28.3977341425
  0
LINE
  5
27A
100
AcDbEntity
  8
0
100
AcDbLine
 62
7
  6
CONTINUOUS
 10
-10.7221484779
 20
-1.0325597873
 11
-10.7179757968
 21
-1.6891876386
  0
LINE
  5
27B
100
AcDbEntity
  8
0
100
AcDbLine
 62
7
  6
CONTINUOUS
 10
-10.7792453472
 20
20.8925321717
 11
-10.7812100739
 21
21.2257289409
  0
LINE
  5
27C
100
AcDbEntity
  8
0
100
AcDbLine
 62
7
  6
CONTINUOUS
 10
-10.7179757968
 20
-1.6891876386
 11
-10.7144610092
 21
-2.3315035036
  0
LINE
  5
27D
100
AcDbEntity
  8
0
100
AcDbLine
 62
7
  6
CONTINUOUS
 10
-10.7302554429
 20
21.0591300922
 11
-10.7320079478
 21
21.3923287113
  0
LINE
  5
27E
100
AcDbEntity
  8
0
100
AcDbLine
 62
7
  6
CONTINUOUS
 10
-10.8446403315
 20
22.4491075712
 11
-10.8451858638
 21
22.5632681947
  0
LINE
  5
27F
100
AcDbEntity
  8
0
100
AcDbLine
 62
7
  6
CONTINUOUS
 10
-10.8146323689
 20
22.4491075702
 11
-10.8151780287
 21
22.5632681936
  0
LINE
  5
280
100
AcDbEntity
  8
0
100
AcDbLine
 62
7
  6
CONTINUOUS
 10
-10.7812100739
 20
21.2257289409
 11
-10.7827491535
 21
21.5589294565
  0
LINE
  5
281
100
AcDbEntity
  8
0
100
AcDbLine
 62
7
  6
CONTINUOUS
 10
-10.7320079478
 20
21.3923287113
 11
-10.7327245655
 21
21.5589294534
  0
LINE
  5
282
100
AcDbEntity
  8
0
100
AcDbLine
 62
7
  6
CONTINUOUS
 10
-10.7144610092
 20
-2.3315035036
 11
-10.7111475637
 21
-3.0615044961
  0
LINE
  5
283
100
AcDbEntity
  8
0
100
AcDbLine
 62
7
  6
CONTINUOUS
 10
-10.6646211098
 20
29.0377661425
 11
-10.6652106601
 21
29.194974789
  0
LINE
  5
284
100
AcDbEntity
  8
0
100
AcDbLine
 62
7
  6
CONTINUOUS
 10
-10.6346055612
 20
29.0377661425
 11
-10.6351953219
 21
29.1949747886
  0
LINE
  5
285
100
AcDbEntity
  8
0
100
AcDbLine
 62
7
  6
CONTINUOUS
 10
-10.7111475637
 20
-3.0615044961
 11
-10.7086329463
 21
-3.7694410799
  0
LINE
  5
286
100
AcDbEntity
  8
0
100
AcDbLine
 62
7
  6
CONTINUOUS
 10
-10.7086329463
 20
-3.7694410799
 11
-10.7068625806
 21
-4.4542413822
  0
LINE
  5
287
100
AcDbEntity
  8
0
100
AcDbLine
 62
7
  6
CONTINUOUS
 10
-10.8589682541
 20
22.0967741425
 11
-10.8587021667
 21
21.9416896193
  0
LINE
  5
288
100
AcDbEntity
  8
0
100
AcDbLine
 62
7
  6
CONTINUOUS
 10
-10.7068625806
 20
-4.4542413822
 11
-10.7057758569
 21
-5.114985095
  0
LINE
  5
289
100
AcDbEntity
  8
0
100
AcDbLine
 62
7
  6
CONTINUOUS
 10
-10.7842596748
 20
22.058736803
 11
-10.7847346173
 21
22.3919456187
  0
LINE
  5
28A
100
AcDbEntity
  8
0
100
AcDbLine
 62
7
  6
CONTINUOUS
 10
-10.7342358718
 20
22.0587368009
 11
-10.7347112818
 21
22.3919456187
  0
LINE
  5
28B
100
AcDbEntity
  8
0
100
AcDbLine
 62
7
  6
CONTINUOUS
 10
-10.8151780275
 20
22.5632681936
 11
-10.8152686934
 21
22.7915911866
  0
LINE
  5
28C
100
AcDbEntity
  8
0
100
AcDbLine
 62
7
  6
CONTINUOUS
 10
-10.7057758569
 20
-5.114985095
 11
-10.7053112592
 21
-5.7508963753
  0
LINE
  5
28D
100
AcDbEntity
  8
0
100
AcDbLine
 62
7
  6
CONTINUOUS
 10
-10.7905438204
 20
24.9266946247
 11
-10.7905942363
 21
25.1258941425
  0
LINE
  5
28E
100
AcDbEntity
  8
0
100
AcDbLine
 62
7
  6
CONTINUOUS
 10
-10.7605337879
 20
24.9266946243
 11
-10.76058438
 21
25.1258941425
  0
LINE
  5
28F
100
AcDbEntity
  8
0
100
AcDbLine
 62
7
  6
CONTINUOUS
 10
-10.7053112592
 20
-5.7508963753
 11
-10.7054722972
 21
-6.446511516
  0
LINE
  5
290
100
AcDbEntity
  8
0
100
AcDbLine
 62
7
  6
CONTINUOUS
 10
-10.8153901373
 20
22.6774295045
 11
-10.8152686934
 21
22.7915911866
  0
LINE
  5
291
100
AcDbEntity
  8
0
100
AcDbLine
 62
7
  6
CONTINUOUS
 10
-10.7054722972
 20
-6.446511516
 11
-10.7062893158
 21
-7.1081476274
  0
LINE
  5
292
100
AcDbEntity
  8
0
100
AcDbLine
 62
7
  6
CONTINUOUS
 10
-10.7907174022
 20
25.059494086
 11
-10.7905942363
 21
25.1258941425
  0
LINE
  5
293
100
AcDbEntity
  8
0
100
AcDbLine
 62
7
  6
CONTINUOUS
 10
-10.7607074974
 20
25.0594940859
 11
-10.76058438
 21
25.1258941425
  0
LINE
  5
294
100
AcDbEntity
  8
0
100
AcDbLine
 62
7
  6
CONTINUOUS
 10
-10.7062893158
 20
-7.1081476274
 11
-10.7076691354
 21
-7.7344955189
  0
LINE
  5
295
100
AcDbEntity
  8
0
100
AcDbLine
 62
7
  6
CONTINUOUS
 10
-10.7076691354
 20
-7.7344955189
 11
-10.7080918376
 21
-7.8854072715
  0
LINE
  5
296
100
AcDbEntity
  8
0
100
AcDbLine
 62
7
  6
CONTINUOUS
 10
-10.7080918376
 20
-7.8854072715
 11
-10.7087795381
 21
-8.1074506253
  0
LINE
  5
297
100
AcDbEntity
  8
0
100
AcDbLine
 62
7
  6
CONTINUOUS
 10
-10.7087795381
 20
-8.1074506253
 11
-10.7095279933
 21
-8.3242601539
  0
LINE
  5
298
100
AcDbEntity
  8
0
100
AcDbLine
 62
7
  6
CONTINUOUS
 10
-10.8152686934
 20
22.7915911866
 11
-10.8148136942
 21
22.9057531341
  0
LINE
  5
299
100
AcDbEntity
  8
0
100
AcDbLine
 62
7
  6
CONTINUOUS
 10
-10.7095279933
 20
-8.3242601539
 11
-10.7103329512
 21
-8.535788671
  0
LINE
  5
29A
100
AcDbEntity
  8
0
100
AcDbLine
 62
7
  6
CONTINUOUS
 10
-10.7103329512
 20
-8.535788671
 11
-10.7111899817
 21
-8.7419925087
  0
LINE
  5
29B
100
AcDbEntity
  8
0
100
AcDbLine
 62
7
  6
CONTINUOUS
 10
-10.7111899817
 20
-8.7419925087
 11
-10.7120944936
 21
-8.9428314922
  0
LINE
  5
29C
100
AcDbEntity
  8
0
100
AcDbLine
 62
7
  6
CONTINUOUS
 10
-10.7120944936
 20
-8.9428314922
 11
-10.7130417521
 21
-9.138268915
  0
LINE
  5
29D
100
AcDbEntity
  8
0
100
AcDbLine
 62
7
  6
CONTINUOUS
 10
-10.7130417521
 20
-9.138268915
 11
-10.7140268973
 21
-9.3282715165
  0
LINE
  5
29E
100
AcDbEntity
  8
0
100
AcDbLine
 62
7
  6
CONTINUOUS
 10
-10.7140268973
 20
-9.3282715165
 11
-10.714702282
 21
-9.4519053189
  0
LINE
  5
29F
100
AcDbEntity
  8
0
100
AcDbLine
 62
7
  6
CONTINUOUS
 10
-10.714702282
 20
-9.4519053189
 11
-10.7157404852
 21
-9.6327879556
  0
LINE
  5
2A0
100
AcDbEntity
  8
0
100
AcDbLine
 62
7
  6
CONTINUOUS
 10
-10.7157404852
 20
-9.6327879556
 11
-10.7168062611
 21
-9.8081832504
  0
LINE
  5
2A1
100
AcDbEntity
  8
0
100
AcDbLine
 62
7
  6
CONTINUOUS
 10
-10.7168062611
 20
-9.8081832504
 11
-10.7178965713
 21
-9.9780884585
  0
LINE
  5
2A2
100
AcDbEntity
  8
0
100
AcDbLine
 62
7
  6
CONTINUOUS
 10
-10.7178965713
 20
-9.9780884585
 11
-10.7190082168
 21
-10.1425034661
  0
LINE
  5
2A3
100
AcDbEntity
  8
0
100
AcDbLine
 62
7
  6
CONTINUOUS
 10
-10.7190082168
 20
-10.1425034661
 11
-10.7201378523
 21
-10.3014308442
  0
LINE
  5
2A4
100
AcDbEntity
  8
0
100
AcDbLine
 62
7
  6
CONTINUOUS
 10
-10.7201378523
 20
-10.3014308442
 11
-10.7212820005
 21
-10.4548758316
  0
LINE
  5
2A5
100
AcDbEntity
  8
0
100
AcDbLine
 62
7
  6
CONTINUOUS
 10
-10.7212820005
 20
-10.4548758316
 11
-10.7224370675
 21
-10.6028463101
  0
LINE
  5
2A6
100
AcDbEntity
  8
0
100
AcDbLine
 62
7
  6
CONTINUOUS
 10
-10.8148136942
 20
22.9057531341
 11
-10.8129030349
 21
23.1340781425
  0
LINE
  5
2A7
100
AcDbEntity
  8
0
100
AcDbLine
 62
7
  6
CONTINUOUS
 10
-10.7224370675
 20
-10.6028463101
 11
-10.7235993582
 21
-10.7453527812
  0
LINE
  5
2A8
100
AcDbEntity
  8
0
100
AcDbLine
 62
7
  6
CONTINUOUS
 10
-10.7235993582
 20
-10.7453527812
 11
-10.7247650956
 21
-10.882408649
  0
LINE
  5
2A9
100
AcDbEntity
  8
0
100
AcDbLine
 62
7
  6
CONTINUOUS
 10
-10.7247650956
 20
-10.882408649
 11
-10.7259304466
 21
-11.0140273434
  0
LINE
  5
2AA
100
AcDbEntity
  8
0
100
AcDbLine
 62
7
  6
CONTINUOUS
 10
-10.6821219635
 20
29.0827067324
 11
-10.6832015862
 21
28.9685433702
  0
LINE
  5
2AB
100
AcDbEntity
  8
0
100
AcDbLine
 62
7
  6
CONTINUOUS
 10
-10.7259304466
 20
-11.0140273434
 11
-10.7270926045
 21
-11.1402270139
  0
LINE
  5
2AC
100
AcDbEntity
  8
0
100
AcDbLine
 62
7
  6
CONTINUOUS
 10
-10.8140251414
 20
23.0199154528
 11
-10.8129030349
 21
23.1340781425
  0
LINE
  5
2AD
100
AcDbEntity
  8
0
100
AcDbLine
 62
7
  6
CONTINUOUS
 10
-10.7270926045
 20
-11.1402270139
 11
-10.7286344949
 21
-11.3001252889
  0
LINE
  5
2AE
100
AcDbEntity
  8
0
100
AcDbLine
 62
7
  6
CONTINUOUS
 10
-10.7286344949
 20
-11.3001252889
 11
-10.7301640652
 21
-11.4505491051
  0
LINE
  5
2AF
100
AcDbEntity
  8
0
100
AcDbLine
 62
7
  6
CONTINUOUS
 10
-10.7301640652
 20
-11.4505491051
 11
-10.7327971338
 21
-11.6912326036
  0
LINE
  5
2B0
100
AcDbEntity
  8
0
100
AcDbLine
 62
7
  6
CONTINUOUS
 10
-10.7327971338
 20
-11.6912326036
 11
-10.7371063315
 21
-12.0381190018
  0
LINE
  5
2B1
100
AcDbEntity
  8
0
100
AcDbLine
 62
7
  6
CONTINUOUS
 10
-10.7371063315
 20
-12.0381190018
 11
-10.7410335865
 21
-12.3044939052
  0
LINE
  5
2B2
100
AcDbEntity
  8
0
100
AcDbLine
 62
7
  6
CONTINUOUS
 10
-10.7410335865
 20
-12.3044939052
 11
-10.7442291812
 21
-12.4813991639
  0
LINE
  5
2B3
100
AcDbEntity
  8
0
100
AcDbLine
 62
7
  6
CONTINUOUS
 10
-10.9174825428
 20
17.4514541425
 11
-10.9157181497
 21
17.5323136373
  0
LINE
  5
2B4
100
AcDbEntity
  8
0
100
AcDbLine
 62
7
  6
CONTINUOUS
 10
-10.7442291812
 20
-12.4813991639
 11
-10.7462560436
 21
-12.5713916466
  0
LINE
  5
2B5
100
AcDbEntity
  8
0
100
AcDbLine
 62
7
  6
CONTINUOUS
 10
-10.60508809
 20
28.4215997062
 11
-10.6099023984
 21
28.2562921517
  0
LINE
  5
2B6
100
AcDbEntity
  8
0
100
AcDbLine
 62
7
  6
CONTINUOUS
 10
-10.7462560436
 20
-12.5713916466
 11
-10.7473466313
 21
-12.6111080143
  0
LINE
  5
2B7
100
AcDbEntity
  8
0
100
AcDbLine
 62
7
  6
CONTINUOUS
 10
-10.8978755039
 20
20.4391101425
 11
-10.8943408275
 21
20.5532762825
  0
LINE
  5
2B8
100
AcDbEntity
  8
0
100
AcDbLine
 62
7
  6
CONTINUOUS
 10
-10.8678701322
 20
20.4391101425
 11
-10.8611597315
 21
20.6476976064
  0
LINE
  5
2B9
100
AcDbEntity
  8
0
100
AcDbLine
 62
7
  6
CONTINUOUS
 10
-10.8943408275
 20
20.5532762825
 11
-10.8904726435
 21
20.6674416334
  0
LINE
  5
2BA
100
AcDbEntity
  8
0
100
AcDbLine
 62
7
  6
CONTINUOUS
 10
-10.7473466313
 20
-12.6111080143
 11
-10.7480670375
 21
-12.6331625861
  0
LINE
  5
2BB
100
AcDbEntity
  8
0
100
AcDbLine
 62
7
  6
CONTINUOUS
 10
-10.8904726435
 20
20.6674416334
 11
-10.8862709516
 21
20.781606195
  0
LINE
  5
2BC
100
AcDbEntity
  8
0
100
AcDbLine
 62
7
  6
CONTINUOUS
 10
-10.8723990749
 20
17.5072068493
 11
-10.859798213
 21
17.8446620838
  0
LINE
  5
2BD
100
AcDbEntity
  8
0
100
AcDbLine
 62
7
  6
CONTINUOUS
 10
-10.8223815878
 20
17.5072068493
 11
-10.8097794434
 21
17.8446620867
  0
LINE
  5
2BE
100
AcDbEntity
  8
0
100
AcDbLine
 62
7
  6
CONTINUOUS
 10
-10.8862709516
 20
20.781606195
 11
-10.8817357464
 21
20.8957700728
  0
LINE
  5
2BF
100
AcDbEntity
  8
0
100
AcDbLine
 62
7
  6
CONTINUOUS
 10
-10.8467604826
 20
18.1821098207
 11
-10.8259416056
 21
18.6990109051
  0
LWPOLYLINE
  5
2C0
100
AcDbEntity
  8
0
100
AcDbPolyline
 62
7
  6
CONTINUOUS
 90
3
 70
0
 10
-10.7480670375
 20
-12.6331625861
 10
-10.7484609503
 20
-12.6433468465
 10
-10.7484781526
 20
-12.6437502323
  0
LINE
  5
2C1
100
AcDbEntity
  8
0
100
AcDbLine
 62
7
  6
CONTINUOUS
 10
-10.8259416056
 20
18.6990109051
 11
-10.8122549118
 21
19.0256947896
  0
LINE
  5
2C2
100
AcDbEntity
  8
0
100
AcDbLine
 62
7
  6
CONTINUOUS
 10
-10.8817357464
 20
20.8957700728
 11
-10.8768670298
 21
21.0099331614
  0
LINE
  5
2C3
100
AcDbEntity
  8
0
100
AcDbLine
 62
7
  6
CONTINUOUS
 10
-10.8101856127
 20
19.0742512198
 11
-10.7908222618
 21
19.5187424449
  0
LINE
  5
2C4
100
AcDbEntity
  8
0
100
AcDbLine
 62
7
  6
CONTINUOUS
 10
-10.7908222618
 20
19.5187424449
 11
-10.7828646669
 21
19.6965346976
  0
LINE
  5
2C5
100
AcDbEntity
  8
0
100
AcDbLine
 62
7
  6
CONTINUOUS
 10
-10.8768670298
 20
21.0099331614
 11
-10.8716648144
 21
21.1240951443
  0
LINE
  5
2C6
100
AcDbEntity
  8
0
100
AcDbLine
 62
7
  6
CONTINUOUS
 10
-10.7713693919
 20
19.948715344
 11
-10.7658850474
 21
20.0671798176
  0
LINE
  5
2C7
100
AcDbEntity
  8
0
100
AcDbLine
 62
7
  6
CONTINUOUS
 10
-10.7603468546
 20
20.185643141
 11
-10.7434091847
 21
20.5410262451
  0
LINE
  5
2C8
100
AcDbEntity
  8
0
100
AcDbLine
 62
7
  6
CONTINUOUS
 10
-10.8716648144
 20
21.1240951443
 11
-10.8661291047
 21
21.2382559161
  0
LINE
  5
2C9
100
AcDbEntity
  8
0
100
AcDbLine
 62
7
  6
CONTINUOUS
 10
-10.6871277874
 20
17.5675305764
 11
-10.6865224843
 21
17.5799292143
  0
LINE
  5
2CA
100
AcDbEntity
  8
0
100
AcDbLine
 62
7
  6
CONTINUOUS
 10
-10.7434091847
 20
20.5410262451
 11
-10.7206947511
 21
21.0023780797
  0
LINE
  5
2CB
100
AcDbEntity
  8
0
100
AcDbLine
 62
7
  6
CONTINUOUS
 10
-10.7206947511
 20
21.0023780797
 11
-10.7200717719
 21
21.0148537382
  0
LINE
  5
2CC
100
AcDbEntity
  8
0
100
AcDbLine
 62
7
  6
CONTINUOUS
 10
-10.7171625897
 20
21.0727194528
 11
-10.7030965369
 21
21.3489787503
  0
LINE
  5
2CD
100
AcDbEntity
  8
0
100
AcDbLine
 62
7
  6
CONTINUOUS
 10
-10.8661291047
 20
21.2382559161
 11
-10.8602598949
 21
21.3524155821
  0
LINE
  5
2CE
100
AcDbEntity
  8
0
100
AcDbLine
 62
7
  6
CONTINUOUS
 10
-10.6424755333
 20
21.5529954138
 11
-10.6387013375
 21
21.6252312026
  0
LINE
  5
2CF
100
AcDbEntity
  8
0
100
AcDbLine
 62
7
  6
CONTINUOUS
 10
-10.8602598949
 20
21.3524155821
 11
-10.854057183
 21
21.4665741425
  0
LINE
  5
2D0
100
AcDbEntity
  8
0
100
AcDbLine
 62
7
  6
CONTINUOUS
 10
-10.6591411671
 20
22.1777150013
 11
-10.6515590212
 21
22.3158314464
  0
LINE
  5
2D1
100
AcDbEntity
  8
0
100
AcDbLine
 62
7
  6
CONTINUOUS
 10
-10.6091018524
 20
22.1777150028
 11
-10.601518927
 21
22.3158314464
  0
LINE
  5
2D2
100
AcDbEntity
  8
0
100
AcDbLine
 62
250
  6
CONTINUOUS
 10
-10.7182369511
 20
-14.0522089331
 11
-10.6432619982
 21
-12.6916571232
  0
LINE
  5
2D3
100
AcDbEntity
  8
0
100
AcDbLine
 62
7
  6
CONTINUOUS
 10
-10.7612581567
 20
25.6570888171
 11
-10.7569612889
 21
25.7234861425
  0
LINE
  5
2D4
100
AcDbEntity
  8
0
100
AcDbLine
 62
7
  6
CONTINUOUS
 10
-10.7312465679
 20
25.6570888173
 11
-10.7269494372
 21
25.7234861425
  0
LINE
  5
2D5
100
AcDbEntity
  8
0
100
AcDbLine
 62
7
  6
CONTINUOUS
 10
-10.631075786
 20
30.2954618524
 11
-10.6207334298
 21
30.4526701425
  0
LINE
  5
2D6
100
AcDbEntity
  8
0
100
AcDbLine
 62
7
  6
CONTINUOUS
 10
-10.6010590809
 20
30.2954618529
 11
-10.5907161239
 21
30.4526701425
  0
LWPOLYLINE
  5
2D7
100
AcDbEntity
  8
0
100
AcDbPolyline
 62
250
  6
CONTINUOUS
 90
8
 70
0
 10
-10.7182369511
 20
-14.0522089331
 10
-10.7152513334
 20
-14.0245009522
 10
-10.7096137269
 20
-13.9411183587
 10
-10.7013761176
 20
-13.8020657046
 10
-10.6905550347
 20
-13.6068340082
 10
-10.6771829085
 20
-13.3559452491
 10
-10.6613917972
 20
-13.0509542914
 10
-10.6432698328
 20
-12.6914861521
  0
LINE
  5
2D8
100
AcDbEntity
  8
ASSI
100
AcDbLine
 62
7
  6
CONTINUOUS
 10
-6.0
 20
36.3879184131
 11
-6.0
 21
37.2927021425
  0
LINE
  5
2D9
100
AcDbEntity
  8
0
100
AcDbLine
 62
250
  6
CONTINUOUS
 10
-5.6
 20
-16.5133579999
 11
-5.6
 21
-12.1765352516
  0
LINE
  5
2DA
100
AcDbEntity
  8
ASSI
100
AcDbLine
 62
7
  6
CONTINUOUS
 10
-5.1
 20
38.0927021425
 11
-5.1
 21
38.7927021425
  0
LINE
  5
2DB
100
AcDbEntity
  8
0
100
AcDbLine
 62
250
  6
CONTINUOUS
 10
-4.5261682243
 20
35.220471905
 11
-4.5261682243
 21
-9.8001674852
  0
LINE
  5
2DC
100
AcDbEntity
  8
0
100
AcDbLine
 62
7
  6
CONTINUOUS
 10
-10.7416592652
 20
18.800615802
 11
-10.7405782232
 21
18.7975341454
  0
LINE
  5
2DD
100
AcDbEntity
  8
0
100
AcDbLine
 62
7
  6
CONTINUOUS
 10
-10.745082671
 20
18.8657643906
 11
-10.7461480429
 21
18.8688460857
  0
LINE
  5
2DE
100
AcDbEntity
  8
0
100
AcDbLine
 62
7
  6
CONTINUOUS
 10
-10.7699036323
 20
18.8845152211
 11
-10.7641535285
 21
18.8668688972
  0
LINE
  5
2DF
100
AcDbEntity
  8
0
100
AcDbLine
 62
7
  6
CONTINUOUS
 10
-10.7755523612
 20
18.9021617989
 11
-10.7699036323
 21
18.8845152211
  0
LINE
  5
2E0
100
AcDbEntity
  8
0
100
AcDbLine
 62
7
  6
CONTINUOUS
 10
-10.7851668943
 20
18.9886433132
 11
-10.790361487
 21
19.0057644534
  0
LINE
  5
2E1
100
AcDbEntity
  8
0
100
AcDbLine
 62
7
  6
CONTINUOUS
 10
-10.8053727178
 20
19.0571291963
 11
-10.8101856127
 21
19.0742512198
  0
LINE
  5
2E2
100
AcDbEntity
  8
0
100
AcDbLine
 62
7
  6
CONTINUOUS
 10
-10.8169174608
 20
19.0426983394
 11
-10.8155612931
 21
19.0377173482
  0
LINE
  5
2E3
100
AcDbEntity
  8
RACCORDO
100
AcDbLine
 62
7
  6
CONTINUOUS
 10
-0.0
 20
-16.9072978575
 11
-0.0
 21
39.5927021425
  0
LINE
  5
2E4
100
AcDbEntity
  8
0
100
AcDbLine
 62
7
  6
CONTINUOUS
 10
-0.0
 20
-16.9072978575
 11
-0.0
 21
36.5927021425
  0
LINE
  5
2E5
100
AcDbEntity
  8
RACCORDO
100
AcDbLine
 62
250
  6
CONTINUOUS
 10
4.5261682243
 20
35.220471905
 11
4.5261682243
 21
-9.8001674852
  0
LINE
  5
2E6
100
AcDbEntity
  8
ASSI
100
AcDbLine
 62
7
  6
CONTINUOUS
 10
5.1
 20
38.0927021425
 11
5.1
 21
38.7927021425
  0
LINE
  5
2E7
100
AcDbEntity
  8
RACCORDO
100
AcDbLine
 62
250
  6
CONTINUOUS
 10
5.6
 20
-16.5133579999
 11
5.6
 21
-12.1765352516
  0
LINE
  5
2E8
100
AcDbEntity
  8
ASSI
100
AcDbLine
 62
7
  6
CONTINUOUS
 10
6.0
 20
36.3879184131
 11
6.0
 21
37.2927021425
  0
LWPOLYLINE
  5
2E9
100
AcDbEntity
  8
RACCORDO
100
AcDbPolyline
 62
250
  6
CONTINUOUS
 90
8
 70
0
 10
10.7182369511
 20
-14.0522089331
 10
10.7152513334
 20
-14.0245009522
 10
10.7096137269
 20
-13.9411183587
 10
10.7013761176
 20
-13.8020657046
 10
10.6905550347
 20
-13.6068340082
 10
10.6771829085
 20
-13.3559452491
 10
10.6613917972
 20
-13.0509542914
 10
10.6432698328
 20
-12.6914861521
  0
LINE
  5
2EA
100
AcDbEntity
  8
RACCORDO
100
AcDbLine
 62
250
  6
CONTINUOUS
 10
10.7182369511
 20
-14.0522089331
 11
10.6432619982
 21
-12.6916571232
  0
LINE
  5
2EB
100
AcDbEntity
  8
RACCORDO
100
AcDbLine
 62
7
  6
CONTINUOUS
 10
10.748553423
 20
-12.6456638185
 11
10.7486194822
 21
-12.6468525558
  0
LINE
  5
2EC
100
AcDbEntity
  8
RACCORDO
100
AcDbLine
 62
7
  6
CONTINUOUS
 10
10.7486194822
 20
-12.6468525558
 11
10.7485653031
 21
-12.6457191676
  0
LINE
  5
2ED
100
AcDbEntity
  8
RACCORDO
100
AcDbLine
 62
7
  6
CONTINUOUS
 10
10.7485653031
 20
-12.6457191676
 11
10.7483879756
 21
-12.6415904687
  0
LWPOLYLINE
  5
2EE
100
AcDbEntity
  8
RACCORDO
100
AcDbPolyline
 62
7
  6
CONTINUOUS
 90
3
 70
0
 10
10.7483879756
 20
-12.6415904687
 10
10.7479798534
 20
-12.6307055703
 10
10.7478184391
 20
-12.6259912506
  0
LINE
  5
2EF
100
AcDbEntity
  8
RACCORDO
100
AcDbLine
 62
7
  6
CONTINUOUS
 10
10.9631957838
 20
12.9590893422
 11
10.9639891159
 21
12.9748020194
  0
LINE
  5
2F0
100
AcDbEntity
  8
RACCORDO
100
AcDbLine
 62
7
  6
CONTINUOUS
 10
10.9639891159
 20
12.9748020194
 11
10.9643966576
 21
12.9822162626
  0
LINE
  5
2F1
100
AcDbEntity
  8
RACCORDO
100
AcDbLine
 62
7
  6
CONTINUOUS
 10
10.9643966576
 20
12.9822162626
 11
10.9645714622
 21
12.985198342
  0
LINE
  5
2F2
100
AcDbEntity
  8
0
100
AcDbLine
 62
7
  6
CONTINUOUS
 10
10.7925576127
 20
24.3907047977
 11
10.7883730674
 21
24.4571021425
  0
LINE
  5
2F3
100
AcDbEntity
  8
0
100
AcDbLine
 62
7
  6
CONTINUOUS
 10
10.6964250255
 20
26.8787741425
 11
10.7034532379
 21
26.764617664
  0
LINE
  5
2F4
100
AcDbEntity
  8
0
100
AcDbLine
 62
7
  6
CONTINUOUS
 10
10.7334658888
 20
26.7646176787
 11
10.7264380992
 21
26.8787741425
  0
LINE
  5
2F5
100
AcDbEntity
  8
0
100
AcDbLine
 62
7
  6
CONTINUOUS
 10
10.7583624731
 20
24.4571021425
 11
10.7704969677
 21
24.2579087099
  0
LINE
  5
2F6
100
AcDbEntity
  8
0
100
AcDbLine
 62
7
  6
CONTINUOUS
 10
10.7034532379
 20
26.764617664
 11
10.7101478677
 21
26.6504600037
  0
LINE
  5
2F7
100
AcDbEntity
  8
0
100
AcDbLine
 62
7
  6
CONTINUOUS
 10
10.5188778984
 20
25.6723191358
 11
10.535328325
 21
25.3778989364
  0
LINE
  5
2F8
100
AcDbEntity
  8
0
100
AcDbLine
 62
7
  6
CONTINUOUS
 10
10.766592108
 20
24.3243069827
 11
10.7778867743
 21
24.1251107214
  0
LINE
  5
2F9
100
AcDbEntity
  8
0
100
AcDbLine
 62
7
  6
CONTINUOUS
 10
10.5506735034
 20
25.4704640911
 11
10.5429951211
 21
25.6108435009
  0
LINE
  5
2FA
100
AcDbEntity
  8
0
100
AcDbLine
 62
7
  6
CONTINUOUS
 10
10.5452480037
 20
24.641814278
 11
10.5607553667
 21
24.3473671425
  0
LINE
  5
2FB
100
AcDbEntity
  8
0
100
AcDbLine
 62
7
  6
CONTINUOUS
 10
10.57527444
 20
24.6418142764
 11
10.5907808861
 21
24.3473671425
  0
LINE
  5
2FC
100
AcDbEntity
  8
0
100
AcDbLine
 62
7
  6
CONTINUOUS
 10
10.7742618568
 20
24.1915099467
 11
10.7813717159
 21
24.0587111199
  0
LINE
  5
2FD
100
AcDbEntity
  8
0
100
AcDbLine
 62
7
  6
CONTINUOUS
 10
10.8528432052
 20
19.9476381425
 11
10.8609801644
 21
19.7904311415
  0
LINE
  5
2FE
100
AcDbEntity
  8
0
100
AcDbLine
 62
7
  6
CONTINUOUS
 10
10.8909864648
 20
19.7904311518
 11
10.8828500184
 21
19.9476381425
  0
LINE
  5
2FF
100
AcDbEntity
  8
0
100
AcDbLine
 62
7
  6
CONTINUOUS
 10
10.6098933435
 20
24.3473671425
 11
10.5881457521
 21
24.7685411054
  0
LINE
  5
300
100
AcDbEntity
  8
0
100
AcDbLine
 62
7
  6
CONTINUOUS
 10
10.7225363943
 20
26.4221410324
 11
10.7282302931
 21
26.3079797214
  0
LINE
  5
301
100
AcDbEntity
  8
0
100
AcDbLine
 62
7
  6
CONTINUOUS
 10
10.7636015229
 20
26.1938176072
 11
10.7525479359
 21
26.4221410834
  0
LINE
  5
302
100
AcDbEntity
  8
0
100
AcDbLine
 62
7
  6
CONTINUOUS
 10
10.7813717159
 20
24.0587111199
 11
10.7909866848
 21
23.8595101425
  0
LINE
  5
303
100
AcDbEntity
  8
0
100
AcDbLine
 62
7
  6
CONTINUOUS
 10
10.8209953244
 20
23.8595101425
 11
10.8147256816
 21
23.9923111856
  0
LINE
  5
304
100
AcDbEntity
  8
0
100
AcDbLine
 62
7
  6
CONTINUOUS
 10
10.7282302931
 20
26.3079797214
 11
10.7335905997
 21
26.1938175452
  0
LINE
  5
305
100
AcDbEntity
  8
0
100
AcDbLine
 62
7
  6
CONTINUOUS
 10
10.7879216706
 20
23.9259108446
 11
10.7909866848
 21
23.8595101425
  0
LINE
  5
306
100
AcDbEntity
  8
0
100
AcDbLine
 62
7
  6
CONTINUOUS
 10
10.8051521046
 20
24.5156823384
 11
10.8082047001
 21
24.4484484459
  0
LINE
  5
307
100
AcDbEntity
  8
0
100
AcDbLine
 62
7
  6
CONTINUOUS
 10
10.7335905997
 20
26.1938175452
 11
10.7386173117
 21
26.0796546094
  0
LINE
  5
308
100
AcDbEntity
  8
0
100
AcDbLine
 62
7
  6
CONTINUOUS
 10
10.7686279632
 20
26.0796546602
 11
10.7636015229
 21
26.1938176072
  0
LINE
  5
309
100
AcDbEntity
  8
0
100
AcDbLine
 62
7
  6
CONTINUOUS
 10
10.7386173117
 20
26.0796546094
 11
10.7433104359
 21
25.9654908085
  0
LINE
  5
30A
100
AcDbEntity
  8
0
100
AcDbLine
 62
7
  6
CONTINUOUS
 10
10.7776801547
 20
25.8513261425
 11
10.7686279632
 21
26.0796546602
  0
LINE
  5
30B
100
AcDbEntity
  8
0
100
AcDbLine
 62
7
  6
CONTINUOUS
 10
10.7433104383
 20
25.9654908085
 11
10.7476699728
 21
25.8513261425
  0
LINE
  5
30C
100
AcDbEntity
  8
RACCORDO
100
AcDbLine
 62
7
  6
CONTINUOUS
 10
10.7478184391
 20
-12.6259912506
 11
10.7470884962
 21
-12.6023388762
  0
LINE
  5
30D
100
AcDbEntity
  8
0
100
AcDbLine
 62
7
  6
CONTINUOUS
 10
10.579389236
 20
31.5339501425
 11
10.5815074789
 21
31.4530906477
  0
LINE
  5
30E
100
AcDbEntity
  8
0
100
AcDbLine
 62
7
  6
CONTINUOUS
 10
10.6113929886
 20
31.4582532759
 11
10.6094061549
 21
31.5339501425
  0
LINE
  5
30F
100
AcDbEntity
  8
RACCORDO
100
AcDbLine
 62
7
  6
CONTINUOUS
 10
10.7470884962
 20
-12.6023388762
 11
10.7458138629
 21
-12.5534352471
  0
LINE
  5
310
100
AcDbEntity
  8
RACCORDO
100
AcDbLine
 62
7
  6
CONTINUOUS
 10
10.7458138629
 20
-12.5534352471
 11
10.7436205913
 21
-12.4507971974
  0
LINE
  5
311
100
AcDbEntity
  8
RACCORDO
100
AcDbLine
 62
7
  6
CONTINUOUS
 10
10.7436205913
 20
-12.4507971974
 11
10.7402646603
 21
-12.2563168186
  0
LINE
  5
312
100
AcDbEntity
  8
0
100
AcDbLine
 62
7
  6
CONTINUOUS
 10
10.6732381729
 20
28.5462941425
 11
10.6767976579
 21
28.3179661088
  0
LINE
  5
313
100
AcDbEntity
  8
0
100
AcDbLine
 62
7
  6
CONTINUOUS
 10
10.6751847233
 20
28.432129978
 11
10.6767976556
 21
28.3179661088
  0
LINE
  5
314
100
AcDbEntity
  8
RACCORDO
100
AcDbLine
 62
7
  6
CONTINUOUS
 10
10.7402646603
 20
-12.2563168186
 11
10.736439423
 21
-11.9881208545
  0
LINE
  5
315
100
AcDbEntity
  8
RACCORDO
100
AcDbLine
 62
250
  6
CONTINUOUS
 10
10.5965937394
 20
16.3925126633
 11
10.5940773692
 21
16.58288774
  0
LINE
  5
316
100
AcDbEntity
  8
RACCORDO
100
AcDbLine
 62
7
  6
CONTINUOUS
 10
10.736439423
 20
-11.9881208545
 11
10.7321873524
 21
-11.6374938575
  0
LINE
  5
317
100
AcDbEntity
  8
0
100
AcDbLine
 62
7
  6
CONTINUOUS
 10
10.6767976579
 20
28.3179661088
 11
10.6780769698
 21
28.2038025349
  0
LINE
  5
318
100
AcDbEntity
  8
RACCORDO
100
AcDbLine
 62
250
  6
CONTINUOUS
 10
10.5961749998
 20
16.3925061713
 11
10.5940774344
 21
16.5828877389
  0
LINE
  5
319
100
AcDbEntity
  8
RACCORDO
100
AcDbLine
 62
7
  6
CONTINUOUS
 10
10.7321873524
 20
-11.6374938575
 11
10.7303170101
 21
-11.4651531509
  0
LINE
  5
31A
100
AcDbEntity
  8
RACCORDO
100
AcDbLine
 62
7
  6
CONTINUOUS
 10
10.7303170101
 20
-11.4651531509
 11
10.7284017269
 21
-11.27652609
  0
LINE
  5
31B
100
AcDbEntity
  8
RACCORDO
100
AcDbLine
 62
7
  6
CONTINUOUS
 10
10.7284017269
 20
-11.27652609
 11
10.7268428134
 21
-11.1135201733
  0
LINE
  5
31C
100
AcDbEntity
  8
RACCORDO
100
AcDbLine
 62
7
  6
CONTINUOUS
 10
10.7268428134
 20
-11.1135201733
 11
10.7256607238
 21
-10.9840222106
  0
LINE
  5
31D
100
AcDbEntity
  8
RACCORDO
100
AcDbLine
 62
7
  6
CONTINUOUS
 10
10.7256607238
 20
-10.9840222106
 11
10.7244695914
 21
-10.8481944959
  0
LINE
  5
31E
100
AcDbEntity
  8
RACCORDO
100
AcDbLine
 62
7
  6
CONTINUOUS
 10
10.7244695914
 20
-10.8481944959
 11
10.7232729809
 21
-10.7059494463
  0
LINE
  5
31F
100
AcDbEntity
  8
RACCORDO
100
AcDbLine
 62
7
  6
CONTINUOUS
 10
10.7232729809
 20
-10.7059494463
 11
10.7220752111
 21
-10.5571998357
  0
LINE
  5
320
100
AcDbEntity
  8
RACCORDO
100
AcDbLine
 62
7
  6
CONTINUOUS
 10
10.7220752111
 20
-10.5571998357
 11
10.7204839124
 21
-10.3486051907
  0
LINE
  5
321
100
AcDbEntity
  8
0
100
AcDbLine
 62
7
  6
CONTINUOUS
 10
10.8338033132
 20
23.5395021425
 11
10.83528058
 21
23.3377995054
  0
LINE
  5
322
100
AcDbEntity
  8
RACCORDO
100
AcDbLine
 62
7
  6
CONTINUOUS
 10
10.7204839124
 20
-10.3486051907
 11
10.7193003889
 21
-10.1843607465
  0
LINE
  5
323
100
AcDbEntity
  8
0
100
AcDbLine
 62
7
  6
CONTINUOUS
 10
10.6780769698
 20
28.2038025349
 11
10.6796347429
 21
27.9754760617
  0
LINE
  5
324
100
AcDbEntity
  8
RACCORDO
100
AcDbLine
 62
7
  6
CONTINUOUS
 10
10.7193003889
 20
-10.1843607465
 11
10.718130214
 21
-10.0133497253
  0
LINE
  5
325
100
AcDbEntity
  8
RACCORDO
100
AcDbLine
 62
7
  6
CONTINUOUS
 10
10.718130214
 20
-10.0133497253
 11
10.7169776678
 21
-9.8355029025
  0
LINE
  5
326
100
AcDbEntity
  8
RACCORDO
100
AcDbLine
 62
7
  6
CONTINUOUS
 10
10.7169776678
 20
-9.8355029025
 11
10.7154755993
 21
-9.5876290624
  0
LINE
  5
327
100
AcDbEntity
  8
RACCORDO
100
AcDbLine
 62
7
  6
CONTINUOUS
 10
10.7154755993
 20
-9.5876290624
 11
10.7143803268
 21
-9.3935914308
  0
LINE
  5
328
100
AcDbEntity
  8
0
100
AcDbLine
 62
7
  6
CONTINUOUS
 10
10.6790226647
 20
28.0896391507
 11
10.6796347416
 21
27.9754760617
  0
LINE
  5
329
100
AcDbEntity
  8
RACCORDO
100
AcDbLine
 62
7
  6
CONTINUOUS
 10
10.7143803268
 20
-9.3935914308
 11
10.7133164831
 21
-9.1925073562
  0
LINE
  5
32A
100
AcDbEntity
  8
RACCORDO
100
AcDbLine
 62
7
  6
CONTINUOUS
 10
10.7133164831
 20
-9.1925073562
 11
10.7122896238
 21
-8.9842364293
  0
LINE
  5
32B
100
AcDbEntity
  8
RACCORDO
100
AcDbLine
 62
7
  6
CONTINUOUS
 10
10.7122896238
 20
-8.9842364293
 11
10.710988502
 21
-8.6950418456
  0
LINE
  5
32C
100
AcDbEntity
  8
RACCORDO
100
AcDbLine
 62
7
  6
CONTINUOUS
 10
10.710988502
 20
-8.6950418456
 11
10.7100717926
 21
-8.4692734707
  0
LINE
  5
32D
100
AcDbEntity
  8
RACCORDO
100
AcDbLine
 62
7
  6
CONTINUOUS
 10
10.7100717926
 20
-8.4692734707
 11
10.7089405929
 21
-8.1560353694
  0
LINE
  5
32E
100
AcDbEntity
  8
0
100
AcDbLine
 62
7
  6
CONTINUOUS
 10
10.834931663
 20
23.4050336016
 11
10.8354859913
 21
23.2705654967
  0
LINE
  5
32F
100
AcDbEntity
  8
RACCORDO
100
AcDbLine
 62
7
  6
CONTINUOUS
 10
10.7089405929
 20
-8.1560353694
 11
10.7079279432
 21
-7.8283983156
  0
LINE
  5
330
100
AcDbEntity
  8
RACCORDO
100
AcDbLine
 62
7
  6
CONTINUOUS
 10
10.7079279432
 20
-7.8283983156
 11
10.7070499879
 21
-7.4858485326
  0
LINE
  5
331
100
AcDbEntity
  8
RACCORDO
100
AcDbLine
 62
7
  6
CONTINUOUS
 10
10.7070499879
 20
-7.4858485326
 11
10.7061683231
 21
-7.0359351979
  0
LINE
  5
332
100
AcDbEntity
  8
RACCORDO
100
AcDbLine
 62
7
  6
CONTINUOUS
 10
10.7061683231
 20
-7.0359351979
 11
10.705567022
 21
-6.5610166686
  0
LINE
  5
333
100
AcDbEntity
  8
RACCORDO
100
AcDbLine
 62
7
  6
CONTINUOUS
 10
10.705567022
 20
-6.5610166686
 11
10.7052905436
 21
-5.8541446896
  0
LINE
  5
334
100
AcDbEntity
  8
0
100
AcDbLine
 62
7
  6
CONTINUOUS
 10
10.7909866848
 20
23.8595101425
 11
10.7908686377
 21
23.7267102309
  0
LINE
  5
335
100
AcDbEntity
  8
RACCORDO
100
AcDbLine
 62
7
  6
CONTINUOUS
 10
10.7052905436
 20
-5.8541446896
 11
10.7056670093
 21
-5.2127918953
  0
LINE
  5
336
100
AcDbEntity
  8
RACCORDO
100
AcDbLine
 62
7
  6
CONTINUOUS
 10
10.7056670093
 20
-5.2127918953
 11
10.7066807032
 21
-4.5431761627
  0
LINE
  5
337
100
AcDbEntity
  8
RACCORDO
100
AcDbLine
 62
7
  6
CONTINUOUS
 10
10.7066807032
 20
-4.5431761627
 11
10.7083901283
 21
-3.850219716
  0
LINE
  5
338
100
AcDbEntity
  8
0
100
AcDbLine
 62
7
  6
CONTINUOUS
 10
10.7094829012
 20
27.6329907089
 11
10.7098715239
 21
27.7471518777
  0
LINE
  5
339
100
AcDbEntity
  8
RACCORDO
100
AcDbLine
 62
7
  6
CONTINUOUS
 10
10.7083901283
 20
-3.850219716
 11
10.7108371833
 21
-3.1393595462
  0
LINE
  5
33A
100
AcDbEntity
  8
0
100
AcDbLine
 62
7
  6
CONTINUOUS
 10
10.7908686377
 20
23.7267102309
 11
10.7905996501
 21
23.6603106004
  0
LINE
  5
33B
100
AcDbEntity
  8
0
100
AcDbLine
 62
7
  6
CONTINUOUS
 10
10.6206236785
 20
23.562134281
 11
10.6218768815
 21
23.8443041425
  0
LINE
  5
33C
100
AcDbEntity
  8
RACCORDO
100
AcDbLine
 62
7
  6
CONTINUOUS
 10
10.7108371833
 20
-3.1393595462
 11
10.7140384313
 21
-2.4163923462
  0
LINE
  5
33D
100
AcDbEntity
  8
RACCORDO
100
AcDbLine
 62
7
  6
CONTINUOUS
 10
10.7140384313
 20
-2.4163923462
 11
10.7179864608
 21
-1.687383174
  0
LINE
  5
33E
100
AcDbEntity
  8
0
100
AcDbLine
 62
7
  6
CONTINUOUS
 10
10.6794692863
 20
27.632990678
 11
10.6787469103
 21
27.5188301425
  0
LINE
  5
33F
100
AcDbEntity
  8
0
100
AcDbLine
 62
7
  6
CONTINUOUS
 10
10.7087606916
 20
27.5188301425
 11
10.7094829039
 21
27.6329907089
  0
LINE
  5
340
100
AcDbEntity
  8
0
100
AcDbLine
 62
7
  6
CONTINUOUS
 10
10.8201995998
 20
23.5939111741
 11
10.8209953244
 21
23.8595101425
  0
LINE
  5
341
100
AcDbEntity
  8
0
100
AcDbLine
 62
7
  6
CONTINUOUS
 10
10.5725695062
 20
23.8443041425
 11
10.5699450669
 21
23.4015135469
  0
LINE
  5
342
100
AcDbEntity
  8
0
100
AcDbLine
 62
7
  6
CONTINUOUS
 10
10.6025945525
 20
23.8443041425
 11
10.5999706649
 21
23.4015135484
  0
LINE
  5
343
100
AcDbEntity
  8
RACCORDO
100
AcDbLine
 62
7
  6
CONTINUOUS
 10
10.7179864608
 20
-1.687383174
 11
10.7226552808
 21
-0.9585827307
  0
LINE
  5
344
100
AcDbEntity
  8
0
100
AcDbLine
 62
7
  6
CONTINUOUS
 10
10.8196507553
 20
23.5275119521
 11
10.8206084793
 21
23.6603106124
  0
LINE
  5
345
100
AcDbEntity
  8
0
100
AcDbLine
 62
7
  6
CONTINUOUS
 10
10.6142866108
 20
22.5745611425
 11
10.6153776998
 21
22.7156408626
  0
LINE
  5
346
100
AcDbEntity
  8
RACCORDO
100
AcDbLine
 62
7
  6
CONTINUOUS
 10
10.7226552808
 20
-0.9585827307
 11
10.7279935626
 21
-0.2362518576
  0
LINE
  5
347
100
AcDbEntity
  8
0
100
AcDbLine
 62
7
  6
CONTINUOUS
 10
10.595523158
 20
22.8111371877
 11
10.5928927011
 21
22.5159541425
  0
LINE
  5
348
100
AcDbEntity
  8
0
100
AcDbLine
 62
7
  6
CONTINUOUS
 10
10.5934301665
 20
22.5747517899
 11
10.5928927011
 21
22.5159541425
  0
LINE
  5
349
100
AcDbEntity
  8
RACCORDO
100
AcDbLine
 62
7
  6
CONTINUOUS
 10
10.7279935626
 20
-0.2362518576
 11
10.7392676924
 21
1.0525283609
  0
LINE
  5
34A
100
AcDbEntity
  8
RACCORDO
100
AcDbLine
 62
7
  6
CONTINUOUS
 10
10.7392676924
 20
1.0525283609
 11
10.7509098192
 21
2.1741392827
  0
LINE
  5
34B
100
AcDbEntity
  8
RACCORDO
100
AcDbLine
 62
7
  6
CONTINUOUS
 10
10.7509098192
 20
2.1741392827
 11
10.7584243558
 21
2.8228946145
  0
LINE
  5
34C
100
AcDbEntity
  8
RACCORDO
100
AcDbLine
 62
7
  6
CONTINUOUS
 10
10.7584243558
 20
2.8228946145
 11
10.7676086413
 21
3.5562235255
  0
LINE
  5
34D
100
AcDbEntity
  8
RACCORDO
100
AcDbLine
 62
7
  6
CONTINUOUS
 10
10.7676086413
 20
3.5562235255
 11
10.7813739063
 21
4.5593901236
  0
LINE
  5
34E
100
AcDbEntity
  8
RACCORDO
100
AcDbLine
 62
7
  6
CONTINUOUS
 10
10.7813739063
 20
4.5593901236
 11
10.7942623454
 21
5.417451862
  0
LINE
  5
34F
100
AcDbEntity
  8
RACCORDO
100
AcDbLine
 62
7
  6
CONTINUOUS
 10
10.7942623454
 20
5.417451862
 11
10.8059989621
 21
6.1447275191
  0
LINE
  5
350
100
AcDbEntity
  8
0
100
AcDbLine
 62
7
  6
CONTINUOUS
 10
10.7871550889
 20
23.3283161293
 11
10.7860462561
 21
23.2619181425
  0
LINE
  5
351
100
AcDbEntity
  8
0
100
AcDbLine
 62
7
  6
CONTINUOUS
 10
10.8160557425
 20
23.2619181425
 11
10.8171644401
 21
23.3283161387
  0
LINE
  5
352
100
AcDbEntity
  8
0
100
AcDbLine
 62
7
  6
CONTINUOUS
 10
10.8796880268
 20
18.6899440789
 11
10.8768961604
 21
18.5327341425
  0
LINE
  5
353
100
AcDbEntity
  8
0
100
AcDbLine
 62
7
  6
CONTINUOUS
 10
10.9069020111
 20
18.5327341425
 11
10.9096935789
 21
18.6899440995
  0
LINE
  5
354
100
AcDbEntity
  8
RACCORDO
100
AcDbLine
 62
7
  6
CONTINUOUS
 10
10.8059989621
 20
6.1447275191
 11
10.8224189485
 21
7.0909570214
  0
LINE
  5
355
100
AcDbEntity
  8
RACCORDO
100
AcDbLine
 62
7
  6
CONTINUOUS
 10
10.8224189485
 20
7.0909570214
 11
10.8479104692
 21
8.4280194662
  0
LINE
  5
356
100
AcDbEntity
  8
RACCORDO
100
AcDbLine
 62
7
  6
CONTINUOUS
 10
10.8479104692
 20
8.4280194662
 11
10.8626052917
 21
9.13820268
  0
LINE
  5
357
100
AcDbEntity
  8
RACCORDO
100
AcDbLine
 62
7
  6
CONTINUOUS
 10
10.8626052917
 20
9.13820268
 11
10.8754295219
 21
9.7264167183
  0
LINE
  5
358
100
AcDbEntity
  8
RACCORDO
100
AcDbLine
 62
7
  6
CONTINUOUS
 10
10.8754295219
 20
9.7264167183
 11
10.8877200745
 21
10.2649686996
  0
LINE
  5
359
100
AcDbEntity
  8
RACCORDO
100
AcDbLine
 62
7
  6
CONTINUOUS
 10
10.8877200745
 20
10.2649686996
 11
10.9018637494
 21
10.8548637761
  0
LINE
  5
35A
100
AcDbEntity
  8
RACCORDO
100
AcDbLine
 62
7
  6
CONTINUOUS
 10
10.9018637494
 20
10.8548637761
 11
10.9159850676
 21
11.4123612042
  0
LINE
  5
35B
100
AcDbEntity
  8
RACCORDO
100
AcDbLine
 62
7
  6
CONTINUOUS
 10
10.9159850676
 20
11.4123612042
 11
10.9285486228
 21
11.8808454353
  0
LINE
  5
35C
100
AcDbEntity
  8
RACCORDO
100
AcDbLine
 62
7
  6
CONTINUOUS
 10
10.9285486228
 20
11.8808454353
 11
10.9386131902
 21
12.2340244443
  0
LINE
  5
35D
100
AcDbEntity
  8
RACCORDO
100
AcDbLine
 62
7
  6
CONTINUOUS
 10
10.9386131902
 20
12.2340244443
 11
10.9479124581
 21
12.5388642486
  0
LINE
  5
35E
100
AcDbEntity
  8
RACCORDO
100
AcDbLine
 62
7
  6
CONTINUOUS
 10
10.9479124581
 20
12.5388642486
 11
10.9548610971
 21
12.7478110644
  0
LINE
  5
35F
100
AcDbEntity
  8
RACCORDO
100
AcDbLine
 62
7
  6
CONTINUOUS
 10
10.9548610971
 20
12.7478110644
 11
10.9594238336
 21
12.8711883026
  0
LINE
  5
360
100
AcDbEntity
  8
RACCORDO
100
AcDbLine
 62
7
  6
CONTINUOUS
 10
10.9594238336
 20
12.8711883026
 11
10.9618708668
 21
12.9302556667
  0
LINE
  5
361
100
AcDbEntity
  8
RACCORDO
100
AcDbLine
 62
7
  6
CONTINUOUS
 10
10.9618708668
 20
12.9302556667
 11
10.9631957838
 21
12.9590893422
  0
LINE
  5
362
100
AcDbEntity
  8
RACCORDO
100
AcDbLine
 62
7
  6
CONTINUOUS
 10
10.7185557082
 20
-14.0520548238
 11
10.7182369511
 21
-14.0522089331
  0
LINE
  5
363
100
AcDbEntity
  8
0
100
AcDbLine
 62
7
  6
CONTINUOUS
 10
-10.9174825428
 20
17.4514541425
 11
-10.9474859295
 21
17.4514541425
  0
LINE
  5
364
100
AcDbEntity
  8
0
100
AcDbLine
 62
7
  6
CONTINUOUS
 10
-10.7401794846
 20
17.5055371819
 11
-10.6901454532
 21
17.5055371819
  0
LINE
  5
365
100
AcDbEntity
  8
0
100
AcDbLine
 62
7
  6
CONTINUOUS
 10
-10.8723990749
 20
17.5072068493
 11
-10.8223815878
 21
17.5072068493
  0
LINE
  5
366
100
AcDbEntity
  8
ASSI
100
AcDbLine
 62
7
  6
CONTINUOUS
 10
-10.9323799437
 20
17.5323136373
 11
-10.9023754654
 21
17.5323136373
  0
LINE
  5
367
100
AcDbEntity
  8
0
100
AcDbLine
 62
7
  6
CONTINUOUS
 10
-10.736556905
 20
17.5799292143
 11
-10.6865224843
 21
17.5799292143
  0
LINE
  5
368
100
AcDbEntity
  8
0
100
AcDbLine
 62
7
  6
CONTINUOUS
 10
-10.8900397443
 20
17.8327237333
 11
-10.863607706
 21
17.8327237333
  0
LINE
  5
369
100
AcDbEntity
  8
0
100
AcDbLine
 62
7
  6
CONTINUOUS
 10
10.9169047664
 20
17.8927021425
 11
10.8868993159
 21
17.8927021425
  0
LINE
  5
36A
100
AcDbEntity
  8
0
100
AcDbLine
 62
7
  6
CONTINUOUS
 10
-10.7523922397
 20
18.4846057245
 11
-10.7023606142
 21
18.4846057245
  0
LINE
  5
36B
100
AcDbEntity
  8
0
100
AcDbLine
 62
7
  6
CONTINUOUS
 10
-10.7363769805
 20
18.5272616046
 11
-10.6863433609
 21
18.5272616046
  0
LINE
  5
36C
100
AcDbEntity
  8
0
100
AcDbLine
 62
7
  6
CONTINUOUS
 10
10.9069020111
 20
18.5327341425
 11
10.8768961604
 21
18.5327341425
  0
LINE
  5
36D
100
AcDbEntity
  8
0
100
AcDbLine
 62
7
  6
CONTINUOUS
 10
-10.7255347669
 20
18.9756922939
 11
-10.6755002484
 21
18.9756922939
  0
LINE
  5
36E
100
AcDbEntity
  8
0
100
AcDbLine
 62
7
  6
CONTINUOUS
 10
-10.8101856127
 20
19.0742512198
 11
-10.7601617827
 21
19.0742512198
  0
LINE
  5
36F
100
AcDbEntity
  8
0
100
AcDbLine
 62
7
  6
CONTINUOUS
 10
10.9144835519
 20
19.2401901425
 11
10.8844786792
 21
19.2401901425
  0
LINE
  5
370
100
AcDbEntity
  8
0
100
AcDbLine
 62
7
  6
CONTINUOUS
 10
-10.7556883308
 20
19.3695707932
 11
-10.7309496432
 21
19.3695707932
  0
LINE
  5
371
100
AcDbEntity
  8
0
100
AcDbLine
 62
7
  6
CONTINUOUS
 10
-10.7046891981
 20
19.4742752099
 11
-10.6546525651
 21
19.4742752099
  0
LINE
  5
372
100
AcDbEntity
  8
0
100
AcDbLine
 62
7
  6
CONTINUOUS
 10
-10.8243405834
 20
19.6197242203
 11
-10.7903480299
 21
19.6197242203
  0
LINE
  5
373
100
AcDbEntity
  8
0
100
AcDbLine
 62
7
  6
CONTINUOUS
 10
10.8828500184
 20
19.9476381425
 11
10.8528432052
 21
19.9476381425
  0
LINE
  5
374
100
AcDbEntity
  8
0
100
AcDbLine
 62
7
  6
CONTINUOUS
 10
-10.9042866078
 20
20.0124301425
 11
-10.9056893331
 21
20.0124301425
  0
LINE
  5
375
100
AcDbEntity
  8
0
100
AcDbLine
 62
7
  6
CONTINUOUS
 10
-10.6920517928
 20
20.1846604947
 11
-10.6420143164
 21
20.1846604947
  0
LINE
  5
376
100
AcDbEntity
  8
0
100
AcDbLine
 62
7
  6
CONTINUOUS
 10
-10.7058351136
 20
19.4742870575
 11
-10.7046891981
 21
19.4742752099
  0
LINE
  5
377
100
AcDbEntity
  8
0
100
AcDbLine
 62
7
  6
CONTINUOUS
 10
-10.7432670404
 20
18.632597228
 11
-10.7411230237
 21
18.6325738831
  0
LINE
  5
378
100
AcDbEntity
  8
0
100
AcDbLine
 62
7
  6
CONTINUOUS
 10
-10.7672349315
 20
18.4486581175
 11
-10.7693394377
 21
18.4486824139
  0
LINE
  5
379
100
AcDbEntity
  8
0
100
AcDbLine
 62
7
  6
CONTINUOUS
 10
-10.7590546279
 20
19.0275054554
 11
-10.7603882313
 21
19.027520859
  0
LINE
  5
37A
100
AcDbEntity
  8
0
100
AcDbLine
 62
7
  6
CONTINUOUS
 10
-10.756987715
 20
19.3695859297
 11
-10.7556883308
 21
19.3695707932
  0
LINE
  5
37B
100
AcDbEntity
  8
0
100
AcDbLine
 62
7
  6
CONTINUOUS
 10
-10.7393069089
 20
20.2904413242
 11
-10.7145811875
 21
20.2904413242
  0
LINE
  5
37C
100
AcDbEntity
  8
0
100
AcDbLine
 62
7
  6
CONTINUOUS
 10
-10.8678701322
 20
20.4391101425
 11
-10.8978755039
 21
20.4391101425
  0
LINE
  5
37D
100
AcDbEntity
  8
0
100
AcDbLine
 62
7
  6
CONTINUOUS
 10
10.8710928763
 20
20.5876701425
 11
10.8410855926
 21
20.5876701425
  0
LINE
  5
37E
100
AcDbEntity
  8
0
100
AcDbLine
 62
7
  6
CONTINUOUS
 10
-10.6844442345
 20
20.7372100994
 11
-10.6344064073
 21
20.7372100994
  0
LINE
  5
37F
100
AcDbEntity
  8
0
100
AcDbLine
 62
7
  6
CONTINUOUS
 10
-10.8034559227
 20
20.7628782549
 11
-10.7826687745
 21
20.7628782549
  0
LINE
  5
380
100
AcDbEntity
  8
0
100
AcDbLine
 62
7
  6
CONTINUOUS
 10
-10.7789232659
 20
20.8439428387
 11
-10.7288973805
 21
20.8439428387
  0
LINE
  5
381
100
AcDbEntity
  8
0
100
AcDbLine
 62
7
  6
CONTINUOUS
 10
-10.6793988605
 20
21.0003159456
 11
-10.6293606965
 21
21.0003159456
  0
LINE
  5
382
100
AcDbEntity
  8
0
100
AcDbLine
 62
7
  6
CONTINUOUS
 10
-10.7200717719
 20
21.0148537382
 11
-10.7008962678
 21
21.0148537382
  0
LINE
  5
383
100
AcDbEntity
  8
0
100
AcDbLine
 62
7
  6
CONTINUOUS
 10
10.6460188788
 20
21.1191272101
 11
10.6760404464
 21
21.1191272101
  0
LINE
  5
384
100
AcDbEntity
  8
0
100
AcDbLine
 62
7
  6
CONTINUOUS
 10
-10.6853005569
 20
21.1548436934
 11
-10.6352633072
 21
21.1548436934
  0
LINE
  5
385
100
AcDbEntity
  8
0
100
AcDbLine
 62
7
  6
CONTINUOUS
 10
-10.6834351036
 20
21.5529954138
 11
-10.6333980814
 21
21.5529954138
  0
LINE
  5
386
100
AcDbEntity
  8
0
100
AcDbLine
 62
7
  6
CONTINUOUS
 10
10.8502835611
 20
21.6543741425
 11
10.8202754446
 21
21.6543741425
  0
LINE
  5
387
100
AcDbEntity
  8
0
100
AcDbLine
 62
7
  6
CONTINUOUS
 10
10.6312188652
 20
21.8589519719
 11
10.6612410255
 21
21.8589519719
  0
LINE
  5
388
100
AcDbEntity
  8
0
100
AcDbLine
 62
7
  6
CONTINUOUS
 10
-10.8142869608
 20
22.0555703492
 11
-10.7876124938
 21
22.0555703492
  0
LINE
  5
389
100
AcDbEntity
  8
0
100
AcDbLine
 62
7
  6
CONTINUOUS
 10
-10.8109941046
 20
22.1066301425
 11
-10.8410025924
 21
22.1066301425
  0
LINE
  5
38A
100
AcDbEntity
  8
0
100
AcDbLine
 62
7
  6
CONTINUOUS
 10
10.8610758956
 20
22.2943741425
 11
10.8070611349
 21
22.2943741425
  0
LINE
  5
38B
100
AcDbEntity
  8
0
100
AcDbLine
 62
7
  6
CONTINUOUS
 10
-10.6515590212
 20
22.3158314464
 11
-10.601518927
 21
22.3158314464
  0
LINE
  5
38C
100
AcDbEntity
  8
0
100
AcDbLine
 62
7
  6
CONTINUOUS
 10
-10.6525104448
 20
22.3902759513
 11
-10.6024705617
 21
22.3902759513
  0
LINE
  5
38D
100
AcDbEntity
  8
0
100
AcDbLine
 62
7
  6
CONTINUOUS
 10
-10.7847346173
 20
22.3919456187
 11
-10.7347112818
 21
22.3919456187
  0
LINE
  5
38E
100
AcDbEntity
  8
0
100
AcDbLine
 62
7
  6
CONTINUOUS
 10
10.8343604792
 20
22.9343981425
 11
10.8473155343
 21
22.9343981425
  0
LINE
  5
38F
100
AcDbEntity
  8
0
100
AcDbLine
 62
7
  6
CONTINUOUS
 10
-10.8129030349
 20
23.1340781425
 11
-10.8429106061
 21
23.1340781425
  0
LINE
  5
390
100
AcDbEntity
  8
0
100
AcDbLine
 62
7
  6
CONTINUOUS
 10
10.6498655025
 20
23.2167723696
 11
10.6798852445
 21
23.2167723696
  0
LINE
  5
391
100
AcDbEntity
  8
0
100
AcDbLine
 62
7
  6
CONTINUOUS
 10
10.8160557425
 20
23.2619181425
 11
10.7860462561
 21
23.2619181425
  0
LINE
  5
392
100
AcDbEntity
  8
0
100
AcDbLine
 62
7
  6
CONTINUOUS
 10
10.6487988905
 20
23.4258151425
 11
10.6788185482
 21
23.4258151425
  0
LINE
  5
393
100
AcDbEntity
  8
0
100
AcDbLine
 62
7
  6
CONTINUOUS
 10
10.8869568109
 20
21.0143421425
 11
10.8329437315
 21
21.0143501425
  0
LINE
  5
394
100
AcDbEntity
  8
0
100
AcDbLine
 62
7
  6
CONTINUOUS
 10
-10.6851727676
 20
20.7372176722
 11
-10.6844442345
 21
20.7372100994
  0
LINE
  5
395
100
AcDbEntity
  8
0
100
AcDbLine
 62
7
  6
CONTINUOUS
 10
-10.8037717266
 20
20.8111149659
 11
-10.8134025605
 21
20.8112633809
  0
LINE
  5
396
100
AcDbEntity
  8
0
100
AcDbLine
 62
7
  6
CONTINUOUS
 10
-10.8055222136
 20
24.2007901425
 11
-10.8184779559
 21
24.2007821425
  0
LINE
  5
397
100
AcDbEntity
  8
0
100
AcDbLine
 62
7
  6
CONTINUOUS
 10
10.8044622727
 20
24.7846221425
 11
10.7915066723
 21
24.7846141425
  0
LINE
  5
398
100
AcDbEntity
  8
0
100
AcDbLine
 62
7
  6
CONTINUOUS
 10
-10.7793030153
 20
23.5607581425
 11
-10.8333197756
 21
23.5607581425
  0
LINE
  5
399
100
AcDbEntity
  8
0
100
AcDbLine
 62
7
  6
CONTINUOUS
 10
10.5602246866
 20
23.8443041425
 11
10.6025945525
 21
23.8443041425
  0
LINE
  5
39A
100
AcDbEntity
  8
0
100
AcDbLine
 62
7
  6
CONTINUOUS
 10
10.6218768815
 20
23.8443041425
 11
10.669249205
 21
23.8443041425
  0
LINE
  5
39B
100
AcDbEntity
  8
0
100
AcDbLine
 62
7
  6
CONTINUOUS
 10
10.8209953244
 20
23.8595101425
 11
10.7909866848
 21
23.8595101425
  0
LINE
  5
39C
100
AcDbEntity
  8
0
100
AcDbLine
 62
7
  6
CONTINUOUS
 10
10.6574365891
 20
24.3473671425
 11
10.6098933435
 21
24.3473671425
  0
LINE
  5
39D
100
AcDbEntity
  8
0
100
AcDbLine
 62
7
  6
CONTINUOUS
 10
10.5907808861
 20
24.3473671425
 11
10.5484103525
 21
24.3473671425
  0
LINE
  5
39E
100
AcDbEntity
  8
0
100
AcDbLine
 62
7
  6
CONTINUOUS
 10
10.7883730674
 20
24.4571021425
 11
10.7583624731
 21
24.4571021425
  0
LINE
  5
39F
100
AcDbEntity
  8
0
100
AcDbLine
 62
7
  6
CONTINUOUS
 10
-10.7566531204
 20
24.5283021425
 11
-10.7866637832
 21
24.5283021425
  0
LINE
  5
3A0
100
AcDbEntity
  8
0
100
AcDbLine
 62
7
  6
CONTINUOUS
 10
10.6173355745
 20
24.7656931425
 11
10.6473564921
 21
24.7656931425
  0
LINE
  5
3A1
100
AcDbEntity
  8
0
100
AcDbLine
 62
7
  6
CONTINUOUS
 10
10.608734875
 20
24.9686321425
 11
10.6387562641
 21
24.9686321425
  0
LINE
  5
3A2
100
AcDbEntity
  8
0
100
AcDbLine
 62
7
  6
CONTINUOUS
 10
-10.76058438
 20
25.1258941425
 11
-10.7905942363
 21
25.1258941425
  0
LINE
  5
3A3
100
AcDbEntity
  8
0
100
AcDbLine
 62
7
  6
CONTINUOUS
 10
10.764566748
 20
25.4246461425
 11
10.7345552007
 21
25.4246461425
  0
LINE
  5
3A4
100
AcDbEntity
  8
0
100
AcDbLine
 62
7
  6
CONTINUOUS
 10
-10.7269494372
 20
25.7234861425
 11
-10.7569612889
 21
25.7234861425
  0
LINE
  5
3A5
100
AcDbEntity
  8
0
100
AcDbLine
 62
7
  6
CONTINUOUS
 10
10.7776801547
 20
25.8513261425
 11
10.7476699728
 21
25.8513261425
  0
LINE
  5
3A6
100
AcDbEntity
  8
0
100
AcDbLine
 62
7
  6
CONTINUOUS
 10
10.6275624239
 20
26.0492431425
 11
10.6575814393
 21
26.0492431425
  0
LINE
  5
3A7
100
AcDbEntity
  8
0
100
AcDbLine
 62
7
  6
CONTINUOUS
 10
-10.7724979792
 20
26.0510061425
 11
-10.7595416313
 21
26.0510061425
  0
LINE
  5
3A8
100
AcDbEntity
  8
0
100
AcDbLine
 62
7
  6
CONTINUOUS
 10
10.5263226061
 20
26.3264524616
 11
10.5563489678
 21
26.3264524616
  0
LINE
  5
3A9
100
AcDbEntity
  8
0
100
AcDbLine
 62
7
  6
CONTINUOUS
 10
-10.7087348151
 20
26.4240446995
 11
-10.6429050092
 21
26.4240446995
  0
LINE
  5
3AA
100
AcDbEntity
  8
0
100
AcDbLine
 62
7
  6
CONTINUOUS
 10
-10.6014606749
 20
26.4240446995
 11
-10.5273209356
 21
26.4240446995
  0
LINE
  5
3AB
100
AcDbEntity
  8
0
100
AcDbLine
 62
7
  6
CONTINUOUS
 10
-10.701506809
 20
26.6910301425
 11
-10.7315196792
 21
26.6910301425
  0
LINE
  5
3AC
100
AcDbEntity
  8
0
100
AcDbLine
 62
7
  6
CONTINUOUS
 10
10.7264380992
 20
26.8787741425
 11
10.6964250255
 21
26.8787741425
  0
LINE
  5
3AD
100
AcDbEntity
  8
0
100
AcDbLine
 62
7
  6
CONTINUOUS
 10
-10.6273004899
 20
26.9337943629
 11
-10.5772638831
 21
26.9337943629
  0
LINE
  5
3AE
100
AcDbEntity
  8
0
100
AcDbLine
 62
7
  6
CONTINUOUS
 10
10.5063801901
 20
27.0662770749
 11
10.5364073507
 21
27.0662770749
  0
LINE
  5
3AF
100
AcDbEntity
  8
0
100
AcDbLine
 62
7
  6
CONTINUOUS
 10
10.7087606916
 20
27.5188301425
 11
10.6787469103
 21
27.5188301425
  0
LINE
  5
3B0
100
AcDbEntity
  8
0
100
AcDbLine
 62
7
  6
CONTINUOUS
 10
-10.6659270375
 20
27.9710541425
 11
-10.6959413321
 21
27.9710541425
  0
LINE
  5
3B1
100
AcDbEntity
  8
0
100
AcDbLine
 62
7
  6
CONTINUOUS
 10
-10.6535808884
 20
28.3977341425
 11
-10.6835956772
 21
28.3977341425
  0
LINE
  5
3B2
100
AcDbEntity
  8
0
100
AcDbLine
 62
7
  6
CONTINUOUS
 10
10.7032513343
 20
28.5462941425
 11
10.6732381729
 21
28.5462941425
  0
LINE
  5
3B3
100
AcDbEntity
  8
0
100
AcDbLine
 62
7
  6
CONTINUOUS
 10
10.690578379
 20
28.9729741425
 11
10.636551269
 21
28.9729741425
  0
LINE
  5
3B4
100
AcDbEntity
  8
0
100
AcDbLine
 62
7
  6
CONTINUOUS
 10
-10.6346055612
 20
29.0377661425
 11
-10.6646211098
 21
29.0377661425
  0
LINE
  5
3B5
100
AcDbEntity
  8
0
100
AcDbLine
 62
7
  6
CONTINUOUS
 10
-10.5213322027
 20
29.2276678837
 11
-10.5713719525
 21
29.2276678837
  0
LINE
  5
3B6
100
AcDbEntity
  8
0
100
AcDbLine
 62
7
  6
CONTINUOUS
 10
-10.6322768531
 20
29.7452141425
 11
-10.66229182
 21
29.7452141425
  0
LINE
  5
3B7
100
AcDbEntity
  8
0
100
AcDbLine
 62
7
  6
CONTINUOUS
 10
-10.738014065
 20
27.3310381425
 11
-10.68399066
 21
27.3310301425
  0
LINE
  5
3B8
100
AcDbEntity
  8
0
100
AcDbLine
 62
7
  6
CONTINUOUS
 10
-10.5907161239
 20
30.4526701425
 11
-10.6207334298
 21
30.4526701425
  0
LINE
  5
3B9
100
AcDbEntity
  8
0
100
AcDbLine
 62
7
  6
CONTINUOUS
 10
10.6201249957
 20
30.4716941425
 11
10.5901077058
 21
30.4716941425
  0
LINE
  5
3BA
100
AcDbEntity
  8
0
100
AcDbLine
 62
7
  6
CONTINUOUS
 10
-10.4738260458
 20
30.7569168389
 11
-10.3996804658
 21
30.7569168389
  0
LINE
  5
3BB
100
AcDbEntity
  8
0
100
AcDbLine
 62
7
  6
CONTINUOUS
 10
-10.5810806001
 20
30.7569168389
 11
-10.5152463726
 21
30.7569168389
  0
LINE
  5
3BC
100
AcDbEntity
  8
0
100
AcDbLine
 62
7
  6
CONTINUOUS
 10
-10.5699845683
 20
31.0927021425
 11
-10.6000027044
 21
31.0927021425
  0
LINE
  5
3BD
100
AcDbEntity
  8
ASSI
100
AcDbLine
 62
7
  6
CONTINUOUS
 10
10.5681588464
 20
31.4530906477
 11
10.5981767025
 21
31.4530906477
  0
LINE
  5
3BE
100
AcDbEntity
  8
0
100
AcDbLine
 62
7
  6
CONTINUOUS
 10
10.6094061549
 20
31.5339501425
 11
10.579389236
 21
31.5339501425
  0
LINE
  5
3BF
100
AcDbEntity
  8
0
100
AcDbLine
 62
7
  6
CONTINUOUS
 10
-10.3774580809
 20
33.5605400232
 11
-10.427507461
 21
33.5605400232
  0
LWPOLYLINE
  5
3C0
100
AcDbEntity
  8
RACCORDO
100
AcDbPolyline
 62
250
  6
CONTINUOUS
 90
5
 70
0
 10
10.1439502094
 20
34.6220742514
 10
10.2137923215
 20
34.5941120853
 10
10.2754728735
 20
34.5690837125
 10
10.3289804644
 20
34.5469903746
 10
10.3743024996
 20
34.5276332208
  0
LINE
  5
3C1
100
AcDbEntity
  8
RACCORDO
100
AcDbLine
 62
250
  6
CONTINUOUS
 10
10.1439502094
 20
34.6220742514
 11
10.4775695541
 21
34.4814987771
  0
LINE
  5
3C2
100
AcDbEntity
  8
RACCORDO
100
AcDbLine
 62
250
  6
CONTINUOUS
 10
10.3743024996
 20
34.5276332208
 11
10.4610338176
 21
34.4891833689
  0
LWPOLYLINE
  5
3C3
100
AcDbEntity
  8
RACCORDO
100
AcDbPolyline
 62
250
  6
CONTINUOUS
 90
3
 70
0
 10
10.4610338176
 20
34.4891833689
 10
10.4734480414
 20
34.4835731978
 10
10.4775694261
 20
34.481498815
  0
LINE
  5
3C4
100
AcDbEntity
  8
RACCORDO
100
AcDbLine
 62
250
  6
CONTINUOUS
 10
-6.0
 20
37.2927021425
 11
6.0
 21
37.2927021425
  0
LINE
  5
3C5
100
AcDbEntity
  8
RACCORDO
100
AcDbLine
 62
7
  6
CONTINUOUS
 10
-5.1999999748
 20
38.0927021425
 11
5.1999999966
 21
38.0927021425
  0
LINE
  5
3C6
100
AcDbEntity
  8
RACCORDO
100
AcDbLine
 62
250
  6
CONTINUOUS
 10
-5.1
 20
38.7927021425
 11
5.1
 21
38.7927021425
  0
LINE
  5
3C7
100
AcDbEntity
  8
RACCORDO
100
AcDbLine
 62
7
  6
CONTINUOUS
 10
-4.2999999591
 20
39.5927021425
 11
4.2999999701
 21
39.5927021425
  0
LWPOLYLINE
  5
3C8
100
AcDbEntity
  8
0
100
AcDbPolyline
 62
7
  6
CONTINUOUS
 90
7
 70
0
 43
0.3500000087
 10
1.4999999993
 20
49.3350010498
 10
-0.0
 20
49.3350010498
 10
1.4999999993
 20
51.4778578491
 10
1.4999999993
 20
51.9064309143
 10
1.0714285995
 20
52.3350039795
 10
0.4285714331
 20
52.3350039795
 10
-0.0
 20
51.6921401184
  0
LWPOLYLINE
  5
3C9
100
AcDbEntity
  8
0
100
AcDbPolyline
 62
7
  6
CONTINUOUS
 90
7
 70
0
 43
0.3500000087
 10
-0.8571428663
 20
49.3350010498
 10
-2.357142799
 20
49.3350010498
 10
-0.8571428663
 20
51.4778578491
 10
-0.8571428663
 20
51.9064309143
 10
-1.2857142661
 20
52.3350039795
 10
-1.9285714658
 20
52.3350039795
 10
-2.357142799
 20
51.6921401184
  0
LWPOLYLINE
  5
3CA
100
AcDbEntity
  8
0
100
AcDbPolyline
 62
7
  6
CONTINUOUS
 90
5
 70
0
 43
0.3500000087
 10
-52.1914859955
 20
51.0492847839
 10
-51.8343446167
 20
51.2635713165
 10
-51.8343446167
 20
51.9064309143
 10
-52.1914859955
 20
52.3350039795
 10
-53.0486321259
 20
52.3350039795
  0
LWPOLYLINE
  5
3CB
100
AcDbEntity
  8
0
100
AcDbPolyline
 62
7
  6
CONTINUOUS
 90
8
 70
0
 43
0.3500000087
 10
-77.6750502747
 20
7.1641315079
 10
-77.6750502747
 20
8.0212733749
 10
-78.1036233398
 20
8.4498443085
 10
-78.9607609436
 20
8.4498443085
 10
-79.3893340088
 20
8.0212733749
 10
-79.3893340088
 20
7.1641315079
 10
-80.6750532043
 20
7.1641315079
 10
-80.6750532043
 20
8.4498443085
  0
LWPOLYLINE
  5
3CC
100
AcDbEntity
  8
0
100
AcDbPolyline
 62
7
  6
CONTINUOUS
 90
8
 70
0
 43
0.3500000087
 10
-77.6750502747
 20
13.3784153732
 10
-77.6750502747
 20
14.2355593719
 10
-78.1036233398
 20
14.6641303055
 10
-78.9607609436
 20
14.6641303055
 10
-79.3893340088
 20
14.2355593719
 10
-79.3893340088
 20
13.3784153732
 10
-80.6750532043
 20
13.3784153732
 10
-80.6750532043
 20
14.6641303055
  0
LINE
  5
3CD
100
AcDbEntity
  8
0
100
AcDbLine
 62
7
  6
CONTINUOUS
 10
-63.4375953047
 20
23.8443041425
 11
-64.5570043047
 21
22.5159541425
  0
LINE
  5
3CE
100
AcDbEntity
  8
0
100
AcDbLine
 62
7
  6
CONTINUOUS
 10
-63.9224123047
 20
22.5745611425
 11
-62.8523923047
 21
23.8443041425
  0
LINE
  5
3CF
100
AcDbEntity
  8
0
100
AcDbLine
 62
7
  6
CONTINUOUS
 10
-52.6890956377
 20
30.8526769331
 11
-51.3747813047
 21
31.5339501425
  0
LINE
  5
3D0
100
AcDbEntity
  8
0
100
AcDbLine
 62
7
  6
CONTINUOUS
 10
-61.4141323047
 20
24.9686321425
 11
-61.0268513047
 21
25.1860011425
  0
LINE
  5
3D1
100
AcDbEntity
  8
0
100
AcDbLine
 62
7
  6
CONTINUOUS
 10
-51.3747733047
 20
30.8130621425
 11
-52.6121253047
 21
30.1716781425
  0
LINE
  5
3D2
100
AcDbEntity
  8
0
100
AcDbLine
 62
7
  6
CONTINUOUS
 10
-54.5749173047
 20
27.5188301425
 11
-51.3747653047
 21
28.5462941425
  0
LINE
  5
3D3
100
AcDbEntity
  8
0
100
AcDbLine
 62
7
  6
CONTINUOUS
 10
-52.6121253047
 20
27.5089821425
 11
-53.5782373047
 21
27.1987981425
  0
LINE
  5
3D4
100
AcDbEntity
  8
0
100
AcDbLine
 62
7
  6
CONTINUOUS
 10
-51.3747733047
 20
27.9062621425
 11
-52.0041013047
 21
27.7042141425
  0
LWPOLYLINE
  5
3D5
100
AcDbEntity
  8
0
100
AcDbPolyline
 62
7
  6
CONTINUOUS
 90
10
 70
0
 43
0.3500000087
 10
-78.1750507629
 20
12.3069869736
 10
-78.0321959167
 20
12.3784165283
 10
-77.9607684937
 20
12.3784165283
 10
-77.8179051208
 20
12.2355595505
 10
-77.8179051208
 20
12.1641299957
 10
-77.8893325439
 20
12.0927025726
 10
-77.9607684937
 20
12.0927025726
 10
-78.1036233398
 20
12.1641299957
 10
-78.1750507629
 20
12.2355595505
 10
-78.1750507629
 20
12.3069869736
  0
LINE
  5
3D6
100
AcDbEntity
  8
0
100
AcDbLine
 62
7
  6
CONTINUOUS
 10
-54.5749093047
 20
23.2619181425
 11
-52.4908613047
 21
23.8595101425
  0
LINE
  5
3D7
100
AcDbEntity
  8
0
100
AcDbLine
 62
7
  6
CONTINUOUS
 10
-65.1164203047
 20
24.7502721425
 11
-65.1164203047
 21
23.4412361425
  0
LINE
  5
3D8
100
AcDbEntity
  8
0
100
AcDbLine
 62
7
  6
CONTINUOUS
 10
-64.6416033047
 20
24.7502721425
 11
-64.6416033047
 21
24.3473671425
  0
LINE
  5
3D9
100
AcDbEntity
  8
0
100
AcDbLine
 62
7
  6
CONTINUOUS
 10
-64.6416033047
 20
23.8443041425
 11
-64.6416033047
 21
23.4412361425
  0
LINE
  5
3DA
100
AcDbEntity
  8
RACCORDO
100
AcDbLine
 62
7
  6
CONTINUOUS
 10
-62.9747573047
 20
37.2927021425
 11
-62.9747573047
 21
36.5927021425
  0
LWPOLYLINE
  5
3DB
100
AcDbEntity
  8
0
100
AcDbPolyline
 62
7
  6
CONTINUOUS
 90
3
 70
0
 43
0.3500000087
 10
-47.8343449738
 20
49.6207150055
 10
-47.9057723969
 20
49.4064284729
 10
-48.0486315063
 20
49.1207145172
  0
LINE
  5
3DC
100
AcDbEntity
  8
0
100
AcDbLine
 62
7
  6
CONTINUOUS
 10
-51.3747653047
 20
23.5395021425
 11
-53.4850453047
 21
22.9343981425
  0
LINE
  5
3DD
100
AcDbEntity
  8
RACCORDO
100
AcDbLine
 62
7
  6
CONTINUOUS
 10
-62.0747573047
 20
38.7927021425
 11
-62.0747573047
 21
38.0927021425
  0
LINE
  5
3DE
100
AcDbEntity
  8
0
100
AcDbLine
 62
7
  6
CONTINUOUS
 10
-61.2867123047
 20
24.7656931425
 11
-61.2867123047
 21
24.3473671425
  0
LINE
  5
3DF
100
AcDbEntity
  8
0
100
AcDbLine
 62
7
  6
CONTINUOUS
 10
-61.2867123047
 20
23.8443041425
 11
-61.2867123047
 21
23.4258151425
  0
LINE
  5
3E0
100
AcDbEntity
  8
0
100
AcDbLine
 62
7
  6
CONTINUOUS
 10
-60.8144913047
 20
24.7656931425
 11
-60.8144913047
 21
23.4258151425
  0
LINE
  5
3E1
100
AcDbEntity
  8
RACCORDO
100
AcDbLine
 62
250
  6
CONTINUOUS
 10
-68.0000425373
 20
-9.8001674852
 11
-68.1153605194
 21
-10.0355464144
  0
LINE
  5
3E2
100
AcDbEntity
  8
0
100
AcDbLine
 62
7
  6
CONTINUOUS
 10
-54.5749093047
 20
18.5327341425
 11
-52.3714373047
 21
19.2401901425
  0
LINE
  5
3E3
100
AcDbEntity
  8
0
100
AcDbLine
 62
7
  6
CONTINUOUS
 10
-51.3747573047
 20
18.9201581425
 11
-54.5749093047
 21
17.8927021425
  0
LWPOLYLINE
  5
3E4
100
AcDbEntity
  8
0
100
AcDbPolyline
 62
7
  6
CONTINUOUS
 90
10
 70
0
 43
0.3500000087
 10
-80.6750532043
 20
10.3784167068
 10
-80.0321893433
 20
9.7355592407
 10
-79.1750517395
 20
9.3069883072
 10
-78.1036233398
 20
9.3069883072
 10
-77.6750502747
 20
9.7355592407
 10
-77.6750502747
 20
10.3784167068
 10
-78.1036233398
 20
10.8069876404
 10
-78.9607609436
 20
10.8069876404
 10
-79.3893340088
 20
10.3784167068
 10
-79.3893340088
 20
9.449845285
  0
LINE
  5
3E5
100
AcDbEntity
  8
RACCORDO
100
AcDbLine
 62
250
  6
CONTINUOUS
 10
-66.5121072713
 20
-12.2754592063
 11
-66.6316015585
 21
-12.5289629731
  0
LINE
  5
3E6
100
AcDbEntity
  8
RACCORDO
100
AcDbLine
 62
250
  6
CONTINUOUS
 10
-66.4538602102
 20
-12.1765352516
 11
-66.5121072713
 21
-12.2754592063
  0
LINE
  5
3E7
100
AcDbEntity
  8
RACCORDO
100
AcDbLine
 62
7
  6
CONTINUOUS
 10
-49.9647573047
 20
-16.9072978575
 11
-50.4747573047
 21
-16.9072978575
  0
LINE
  5
3E8
100
AcDbEntity
  8
RACCORDO
100
AcDbLine
 62
250
  6
CONTINUOUS
 10
-49.9647573047
 20
-16.5133579999
 11
-50.4747573047
 21
-16.5133579999
  0
LINE
  5
3E9
100
AcDbEntity
  8
0
100
AcDbLine
 62
7
  6
CONTINUOUS
 10
-54.5749173047
 20
26.8787741425
 11
-54.5749173047
 21
27.5188301425
  0
LINE
  5
3EA
100
AcDbEntity
  8
0
100
AcDbLine
 62
7
  6
CONTINUOUS
 10
-54.5749173047
 20
28.9729741425
 11
-54.5749173047
 21
30.4716941425
  0
LINE
  5
3EB
100
AcDbEntity
  8
0
100
AcDbLine
 62
7
  6
CONTINUOUS
 10
-54.5749093047
 20
17.8927021425
 11
-54.5749093047
 21
18.5327341425
  0
LINE
  5
3EC
100
AcDbEntity
  8
0
100
AcDbLine
 62
7
  6
CONTINUOUS
 10
-54.5749093047
 20
19.9476381425
 11
-54.5749093047
 21
20.5876701425
  0
LINE
  5
3ED
100
AcDbEntity
  8
0
100
AcDbLine
 62
7
  6
CONTINUOUS
 10
-54.5749093047
 20
21.0143501425
 11
-54.5749093047
 21
21.6543741425
  0
LINE
  5
3EE
100
AcDbEntity
  8
0
100
AcDbLine
 62
7
  6
CONTINUOUS
 10
-54.5749093047
 20
22.2943741425
 11
-54.5749093047
 21
23.2619181425
  0
LINE
  5
3EF
100
AcDbEntity
  8
0
100
AcDbLine
 62
7
  6
CONTINUOUS
 10
-54.5749093047
 20
24.4571021425
 11
-54.5749093047
 21
25.4246461425
  0
LINE
  5
3F0
100
AcDbEntity
  8
0
100
AcDbLine
 62
7
  6
CONTINUOUS
 10
-53.9828933047
 20
29.6041741425
 11
-53.9828933047
 21
30.3828601425
  0
LINE
  5
3F1
100
AcDbEntity
  8
RACCORDO
100
AcDbLine
 62
7
  6
CONTINUOUS
 10
-53.218762097
 20
38.0927021425
 11
-53.218762097
 21
38.7927021425
  0
LINE
  5
3F2
100
AcDbEntity
  8
0
100
AcDbLine
 62
7
  6
CONTINUOUS
 10
-53.2041573047
 20
29.6041821425
 11
-53.2041573047
 21
30.3828601425
  0
LINE
  5
3F3
100
AcDbEntity
  8
RACCORDO
100
AcDbLine
 62
7
  6
CONTINUOUS
 10
-53.1734417429
 20
38.7927021425
 11
-53.1734417429
 21
38.0927021425
  0
LINE
  5
3F4
100
AcDbEntity
  8
RACCORDO
100
AcDbLine
 62
250
  6
CONTINUOUS
 10
-49.9647573047
 20
-15.1888502836
 11
-50.4747573047
 21
-15.189018644
  0
LINE
  5
3F5
100
AcDbEntity
  8
RACCORDO
100
AcDbLine
 62
250
  6
CONTINUOUS
 10
-50.4747573045
 20
-15.1890134809
 11
-50.4763876024
 21
-14.0522089173
  0
LINE
  5
3F6
100
AcDbEntity
  8
0
100
AcDbLine
 62
7
  6
CONTINUOUS
 10
-52.6121253047
 20
30.1716781425
 11
-52.6121333047
 21
29.6130781425
  0
LINE
  5
3F7
100
AcDbEntity
  8
0
100
AcDbLine
 62
7
  6
CONTINUOUS
 10
-52.6121253047
 20
26.8886301425
 11
-52.6121253047
 21
27.5089821425
  0
LINE
  5
3F8
100
AcDbEntity
  8
RACCORDO
100
AcDbLine
 62
250
  6
CONTINUOUS
 10
-52.4122573047
 20
11.8878552477
 11
-52.4122573047
 21
-11.541961287
  0
LINE
  5
3F9
100
AcDbEntity
  8
RACCORDO
100
AcDbLine
 62
7
  6
CONTINUOUS
 10
-52.0658368531
 20
36.5250482957
 11
-52.0658368531
 21
37.2927021425
  0
LINE
  5
3FA
100
AcDbEntity
  8
RACCORDO
100
AcDbLine
 62
7
  6
CONTINUOUS
 10
-52.031074467
 20
37.2927021425
 11
-52.031074467
 21
36.5927021425
  0
LINE
  5
3FB
100
AcDbEntity
  8
0
100
AcDbLine
 62
7
  6
CONTINUOUS
 10
-52.0041013047
 20
26.6934061425
 11
-52.0041013047
 21
27.7042141425
  0
LINE
  5
3FC
100
AcDbEntity
  8
ASSI
100
AcDbLine
 62
7
  6
CONTINUOUS
 10
-51.8747573047
 20
38.0927021425
 11
-51.8747573047
 21
38.7927021425
  0
LINE
  5
3FD
100
AcDbEntity
  8
0
100
AcDbLine
 62
7
  6
CONTINUOUS
 10
-51.3747653047
 20
28.5462941425
 11
-51.3747733047
 21
27.9062621425
  0
LINE
  5
3FE
100
AcDbEntity
  8
0
100
AcDbLine
 62
7
  6
CONTINUOUS
 10
-51.3747733047
 20
28.9729741425
 11
-51.3747733047
 21
29.6130061425
  0
LINE
  5
3FF
100
AcDbEntity
  8
0
100
AcDbLine
 62
7
  6
CONTINUOUS
 10
-51.3747653047
 20
22.2943741425
 11
-51.3747653047
 21
22.9343981425
  0
LINE
  5
400
100
AcDbEntity
  8
0
100
AcDbLine
 62
7
  6
CONTINUOUS
 10
-51.3747653047
 20
24.7846221425
 11
-51.3747653047
 21
25.4246461425
  0
LINE
  5
401
100
AcDbEntity
  8
0
100
AcDbLine
 62
7
  6
CONTINUOUS
 10
-51.3747653047
 20
19.5602061425
 11
-51.3747573047
 21
18.9201581425
  0
LINE
  5
402
100
AcDbEntity
  8
0
100
AcDbLine
 62
7
  6
CONTINUOUS
 10
-51.3747653047
 20
21.6543661425
 11
-51.3747573047
 21
21.0143421425
  0
LINE
  5
403
100
AcDbEntity
  8
0
100
AcDbLine
 62
7
  6
CONTINUOUS
 10
-51.3747733047
 20
24.1795101425
 11
-51.3747653047
 21
23.5395021425
  0
LINE
  5
404
100
AcDbEntity
  8
0
100
AcDbLine
 62
7
  6
CONTINUOUS
 10
-51.3747733047
 20
26.4913501425
 11
-51.3747653047
 21
25.8513261425
  0
LINE
  5
405
100
AcDbEntity
  8
0
100
AcDbLine
 62
7
  6
CONTINUOUS
 10
-51.3747813047
 20
31.5339501425
 11
-51.3747733047
 21
30.8130621425
  0
LINE
  5
406
100
AcDbEntity
  8
ASSI
100
AcDbLine
 62
7
  6
CONTINUOUS
 10
-50.9747573047
 20
36.5927021425
 11
-50.9747573047
 21
37.2927021425
  0
LWPOLYLINE
  5
407
100
AcDbEntity
  8
0
100
AcDbPolyline
 62
7
  6
CONTINUOUS
 90
4
 70
0
 43
0.3500000087
 10
-50.9057710632
 20
49.7635698517
 10
-50.9057710632
 20
50.6207159821
 10
-50.4772022614
 20
51.0492847839
 10
-49.8343426636
 20
51.0492847839
  0
LINE
  5
408
100
AcDbEntity
  8
SUPERFICI
100
AcDbLine
 62
250
  6
CONTINUOUS
 10
-50.4747573047
 20
-16.9072978575
 11
-50.4747573047
 21
-16.5133579999
  0
LINE
  5
409
100
AcDbEntity
  8
RACCORDO
100
AcDbLine
 62
250
  6
CONTINUOUS
 10
-50.4747573047
 20
-16.5133579999
 11
-50.4747573047
 21
-15.189018644
  0
LINE
  5
40A
100
AcDbEntity
  8
RACCORDO
100
AcDbLine
 62
250
  6
CONTINUOUS
 10
-49.9647573047
 20
36.5250482957
 11
-49.9647450397
 21
13.041516603
  0
LINE
  5
40B
100
AcDbEntity
  8
RACCORDO
100
AcDbLine
 62
250
  6
CONTINUOUS
 10
-49.9647450397
 20
-12.7005070441
 11
-49.9647573047
 21
-16.9072978575
  0
LINE
  5
40C
100
AcDbEntity
  8
RACCORDO
100
AcDbLine
 62
250
  6
CONTINUOUS
 10
-49.9642420634
 20
13.045616309
 11
-49.9642420634
 21
-12.7046053962
  0
LINE
  5
40D
100
AcDbEntity
  8
ASSI
100
AcDbLine
 62
7
  6
CONTINUOUS
 10
-49.4747573047
 20
-12.6572978575
 11
-49.1747573047
 21
-12.6572978575
  0
LINE
  5
40E
100
AcDbEntity
  8
0
100
AcDbLine
 62
7
  6
CONTINUOUS
 10
-31.3082421657
 20
-11.4072978575
 11
-38.5247573047
 21
-11.4072978575
  0
LINE
  5
40F
100
AcDbEntity
  8
ASSI
100
AcDbLine
 62
7
  6
CONTINUOUS
 10
-45.5247573047
 20
-11.3822978575
 11
-49.0247573047
 21
-11.3822978575
  0
LINE
  5
410
100
AcDbEntity
  8
ASSI
100
AcDbLine
 62
7
  6
CONTINUOUS
 10
-38.5247573047
 20
-11.2572978575
 11
-45.5247573047
 21
-11.2572978575
  0
LINE
  5
411
100
AcDbEntity
  8
RACCORDO
100
AcDbLine
 62
7
  6
CONTINUOUS
 10
-49.4747573047
 20
36.0927021425
 11
-49.4747573047
 21
35.1700854965
  0
LINE
  5
412
100
AcDbEntity
  8
0
100
AcDbLine
 62
7
  6
CONTINUOUS
 10
-49.4747573047
 20
35.1700854965
 11
-49.4747573047
 21
34.4632464081
  0
LINE
  5
413
100
AcDbEntity
  8
RACCORDO
100
AcDbLine
 62
7
  6
CONTINUOUS
 10
-49.4747573047
 20
34.4632464081
 11
-49.4747573047
 21
-16.4172935561
  0
LINE
  5
414
100
AcDbEntity
  8
RACCORDO
100
AcDbLine
 62
250
  6
CONTINUOUS
 10
-49.1747573047
 20
12.8427021425
 11
-49.1747573047
 21
-12.6572978575
  0
LINE
  5
415
100
AcDbEntity
  8
RACCORDO
100
AcDbLine
 62
7
  6
CONTINUOUS
 10
-49.0247573047
 20
12.6926147129
 11
-49.0247573047
 21
-12.5072978575
  0
LINE
  5
416
100
AcDbEntity
  8
RACCORDO
100
AcDbLine
 62
250
  6
CONTINUOUS
 10
-49.0247573047
 20
-9.4072978575
 11
-49.4747573047
 21
-9.4072978575
  0
LINE
  5
417
100
AcDbEntity
  8
ASSI
100
AcDbLine
 62
7
  6
CONTINUOUS
 10
-38.5247573047
 20
-7.5572978575
 11
-45.5247573047
 21
-7.5572978575
  0
LINE
  5
418
100
AcDbEntity
  8
ASSI
100
AcDbLine
 62
7
  6
CONTINUOUS
 10
-45.5247573047
 20
-7.4322978575
 11
-49.0247573047
 21
-7.4322978575
  0
LINE
  5
419
100
AcDbEntity
  8
0
100
AcDbLine
 62
7
  6
CONTINUOUS
 10
-31.3082421657
 20
-7.4072978575
 11
-38.5247573047
 21
-7.4072978575
  0
LINE
  5
41A
100
AcDbEntity
  8
ASSI
100
AcDbLine
 62
7
  6
CONTINUOUS
 10
-45.5247573047
 20
-7.4322978575
 11
-45.5247573047
 21
-11.3822978575
  0
LINE
  5
41B
100
AcDbEntity
  8
ASSI
100
AcDbLine
 62
7
  6
CONTINUOUS
 10
-45.5247573047
 20
7.6177021425
 11
-45.5247573047
 21
11.5677021425
  0
LINE
  5
41C
100
AcDbEntity
  8
0
100
AcDbLine
 62
7
  6
CONTINUOUS
 10
-30.9082421657
 20
-1.9072978575
 11
-49.0247573047
 21
-1.9072978575
  0
LWPOLYLINE
  5
41D
100
AcDbEntity
  8
0
100
AcDbPolyline
 62
7
  6
CONTINUOUS
 90
3
 70
0
 43
0.3500000087
 10
-77.9607684937
 20
12.3784165283
 10
-77.7464776978
 20
12.3069869736
 10
-77.4607680054
 20
12.1641299957
  0
LINE
  5
41E
100
AcDbEntity
  8
0
100
AcDbLine
 62
7
  6
CONTINUOUS
 10
-64.554140299
 20
25.6723191358
 11
-63.4375953047
 21
24.3473671425
  0
LINE
  5
41F
100
AcDbEntity
  8
0
100
AcDbLine
 62
7
  6
CONTINUOUS
 10
-62.8576733047
 20
24.3473671425
 11
-63.9224126067
 21
25.6108435009
  0
LINE
  5
420
100
AcDbEntity
  8
0
100
AcDbLine
 62
7
  6
CONTINUOUS
 10
-38.5247573047
 20
11.5927021425
 11
-38.5247573047
 21
7.5927021425
  0
LINE
  5
421
100
AcDbEntity
  8
0
100
AcDbLine
 62
7
  6
CONTINUOUS
 10
-38.5247573047
 20
-7.4072978575
 11
-38.5247573047
 21
-11.4072978575
  0
LINE
  5
422
100
AcDbEntity
  8
0
100
AcDbLine
 62
7
  6
CONTINUOUS
 10
-30.9082421657
 20
2.0927021425
 11
-49.0247573047
 21
2.0927021425
  0
LINE
  5
423
100
AcDbEntity
  8
RACCORDO
100
AcDbLine
 62
250
  6
CONTINUOUS
 10
-68.0986825588
 20
35.3353090577
 11
-67.9796115192
 21
35.220471905
  0
LINE
  5
424
100
AcDbEntity
  8
0
100
AcDbLine
 62
7
  6
CONTINUOUS
 10
-31.3082421657
 20
-11.4072978575
 11
-31.3082421657
 21
-7.4072978575
  0
LINE
  5
425
100
AcDbEntity
  8
0
100
AcDbLine
 62
7
  6
CONTINUOUS
 10
-31.3082421657
 20
7.5927021425
 11
-31.3082421657
 21
11.5927021425
  0
LINE
  5
426
100
AcDbEntity
  8
0
100
AcDbLine
 62
7
  6
CONTINUOUS
 10
-30.9082421657
 20
-1.9072978575
 11
-30.9082421657
 21
2.0927021425
  0
LINE
  5
427
100
AcDbEntity
  8
0
100
AcDbLine
 62
7
  6
CONTINUOUS
 10
-31.3082421657
 20
7.5927021425
 11
-38.5247573047
 21
7.5927021425
  0
LINE
  5
428
100
AcDbEntity
  8
ASSI
100
AcDbLine
 62
7
  6
CONTINUOUS
 10
-45.5247573047
 20
7.6177021425
 11
-49.0247573047
 21
7.6177021425
  0
LINE
  5
429
100
AcDbEntity
  8
ASSI
100
AcDbLine
 62
7
  6
CONTINUOUS
 10
-38.5247573047
 20
7.7427021425
 11
-45.5247573047
 21
7.7427021425
  0
LINE
  5
42A
100
AcDbEntity
  8
RACCORDO
100
AcDbLine
 62
250
  6
CONTINUOUS
 10
-49.0247573047
 20
9.5927021425
 11
-49.4747573047
 21
9.5927021425
  0
LINE
  5
42B
100
AcDbEntity
  8
0
100
AcDbLine
 62
7
  6
CONTINUOUS
 10
-61.0268514342
 20
22.9994032152
 11
-61.4141327093
 21
23.2167723696
  0
LINE
  5
42C
100
AcDbEntity
  8
0
100
AcDbLine
 62
7
  6
CONTINUOUS
 10
-59.3152043047
 20
25.8028251425
 11
-59.6645403047
 21
26.0492431425
  0
LINE
  5
42D
100
AcDbEntity
  8
RACCORDO
100
AcDbLine
 62
250
  6
CONTINUOUS
 10
-66.7993801118
 20
36.5927021425
 11
-66.6822134594
 21
36.4764144929
  0
LINE
  5
42E
100
AcDbEntity
  8
ASSI
100
AcDbLine
 62
7
  6
CONTINUOUS
 10
-38.5247573047
 20
11.4427021425
 11
-45.5247573047
 21
11.4427021425
  0
LINE
  5
42F
100
AcDbEntity
  8
ASSI
100
AcDbLine
 62
7
  6
CONTINUOUS
 10
-45.5247573047
 20
11.5677021425
 11
-49.0247573047
 21
11.5677021425
  0
LINE
  5
430
100
AcDbEntity
  8
0
100
AcDbLine
 62
7
  6
CONTINUOUS
 10
-31.3082421657
 20
11.5927021425
 11
-38.5247573047
 21
11.5927021425
  0
LINE
  5
431
100
AcDbEntity
  8
ASSI
100
AcDbLine
 62
7
  6
CONTINUOUS
 10
-49.4747573047
 20
12.8427021425
 11
-49.1747573047
 21
12.8427021425
  0
LINE
  5
432
100
AcDbEntity
  8
0
100
AcDbLine
 62
7
  6
CONTINUOUS
 10
-52.3714373047
 20
19.2401901425
 11
-54.5749093047
 21
19.9476381425
  0
LINE
  5
433
100
AcDbEntity
  8
0
100
AcDbLine
 62
7
  6
CONTINUOUS
 10
-54.5749093047
 20
20.5876701425
 11
-51.3747653047
 21
19.5602061425
  0
LWPOLYLINE
  5
434
100
AcDbEntity
  8
0
100
AcDbPolyline
 62
7
  6
CONTINUOUS
 90
10
 70
0
 43
0.3500000087
 10
-47.9057723969
 20
49.8350015381
 10
-47.8343449738
 20
49.6921424286
 10
-47.8343449738
 20
49.6207150055
 10
-47.9771998199
 20
49.477855896
 10
-48.0486315063
 20
49.477855896
 10
-48.1200589294
 20
49.5492875824
 10
-48.1200589294
 20
49.6207150055
 10
-48.0486315063
 20
49.7635698517
 10
-47.9771998199
 20
49.8350015381
 10
-47.9057723969
 20
49.8350015381
  0
LINE
  5
435
100
AcDbEntity
  8
0
100
AcDbLine
 62
7
  6
CONTINUOUS
 10
-52.4908613047
 20
23.8595101425
 11
-54.5749093047
 21
24.4571021425
  0
LINE
  5
436
100
AcDbEntity
  8
0
100
AcDbLine
 62
7
  6
CONTINUOUS
 10
-53.4850453047
 20
24.7846141425
 11
-51.3747733047
 21
24.1795101425
  0
LINE
  5
437
100
AcDbEntity
  8
0
100
AcDbLine
 62
7
  6
CONTINUOUS
 10
-51.3747573047
 20
21.0143421425
 11
-54.5749093047
 21
21.0143501425
  0
LINE
  5
438
100
AcDbEntity
  8
0
100
AcDbLine
 62
7
  6
CONTINUOUS
 10
-54.5749093047
 20
21.6543741425
 11
-51.3747653047
 21
21.6543661425
  0
LINE
  5
439
100
AcDbEntity
  8
0
100
AcDbLine
 62
7
  6
CONTINUOUS
 10
-51.3747653047
 20
22.2943741425
 11
-54.5749093047
 21
22.2943741425
  0
LINE
  5
43A
100
AcDbEntity
  8
0
100
AcDbLine
 62
7
  6
CONTINUOUS
 10
-53.4850453047
 20
22.9343981425
 11
-51.3747653047
 21
22.9343981425
  0
LINE
  5
43B
100
AcDbEntity
  8
0
100
AcDbLine
 62
7
  6
CONTINUOUS
 10
-61.2867123047
 20
23.4258151425
 11
-60.8144913047
 21
23.4258151425
  0
LINE
  5
43C
100
AcDbEntity
  8
0
100
AcDbLine
 62
7
  6
CONTINUOUS
 10
-65.1164203047
 20
23.4412361425
 11
-64.6416033047
 21
23.4412361425
  0
LINE
  5
43D
100
AcDbEntity
  8
0
100
AcDbLine
 62
7
  6
CONTINUOUS
 10
-51.3747653047
 20
25.8513261425
 11
-54.5749173047
 21
26.8787741425
  0
LINE
  5
43E
100
AcDbEntity
  8
0
100
AcDbLine
 62
7
  6
CONTINUOUS
 10
-52.0041013047
 20
26.6934061425
 11
-51.3747733047
 21
26.4913501425
  0
LINE
  5
43F
100
AcDbEntity
  8
0
100
AcDbLine
 62
7
  6
CONTINUOUS
 10
-53.5782373047
 20
27.1987981425
 11
-52.6121253047
 21
26.8886301425
  0
LINE
  5
440
100
AcDbEntity
  8
0
100
AcDbLine
 62
7
  6
CONTINUOUS
 10
-64.6416033047
 20
23.8443041425
 11
-63.4375953047
 21
23.8443041425
  0
LINE
  5
441
100
AcDbEntity
  8
0
100
AcDbLine
 62
7
  6
CONTINUOUS
 10
-62.8523923047
 20
23.8443041425
 11
-61.2867123047
 21
23.8443041425
  0
LINE
  5
442
100
AcDbEntity
  8
0
100
AcDbLine
 62
7
  6
CONTINUOUS
 10
-61.2867123047
 20
24.3473671425
 11
-62.8576733047
 21
24.3473671425
  0
LINE
  5
443
100
AcDbEntity
  8
0
100
AcDbLine
 62
7
  6
CONTINUOUS
 10
-63.4375953047
 20
24.3473671425
 11
-64.6416033047
 21
24.3473671425
  0
LINE
  5
444
100
AcDbEntity
  8
0
100
AcDbLine
 62
7
  6
CONTINUOUS
 10
-64.6416033047
 20
24.7502721425
 11
-65.1164203047
 21
24.7502721425
  0
LINE
  5
445
100
AcDbEntity
  8
0
100
AcDbLine
 62
7
  6
CONTINUOUS
 10
-60.8144913047
 20
24.7656931425
 11
-61.2867123047
 21
24.7656931425
  0
LINE
  5
446
100
AcDbEntity
  8
0
100
AcDbLine
 62
7
  6
CONTINUOUS
 10
-51.3747653047
 20
24.7846221425
 11
-53.4850453047
 21
24.7846141425
  0
LINE
  5
447
100
AcDbEntity
  8
0
100
AcDbLine
 62
7
  6
CONTINUOUS
 10
-54.5749093047
 20
25.4246461425
 11
-51.3747653047
 21
25.4246461425
  0
LINE
  5
448
100
AcDbEntity
  8
0
100
AcDbLine
 62
7
  6
CONTINUOUS
 10
-51.3747733047
 20
28.9729741425
 11
-54.5749173047
 21
28.9729741425
  0
LINE
  5
449
100
AcDbEntity
  8
0
100
AcDbLine
 62
7
  6
CONTINUOUS
 10
-53.9828933047
 20
29.6041741425
 11
-53.2041573047
 21
29.6041821425
  0
LINE
  5
44A
100
AcDbEntity
  8
0
100
AcDbLine
 62
7
  6
CONTINUOUS
 10
-52.6121333047
 20
29.6130781425
 11
-51.3747733047
 21
29.6130061425
  0
LINE
  5
44B
100
AcDbEntity
  8
RACCORDO
100
AcDbLine
 62
250
  6
CONTINUOUS
 10
-49.9647573047
 20
36.3106501349
 11
-66.4443885944
 21
36.3106501349
  0
LINE
  5
44C
100
AcDbEntity
  8
RACCORDO
100
AcDbLine
 62
7
  6
CONTINUOUS
 10
-49.9647573047
 20
36.5250482957
 11
-52.0658368531
 21
36.5250482957
  0
LINE
  5
44D
100
AcDbEntity
  8
RACCORDO
100
AcDbLine
 62
7
  6
CONTINUOUS
 10
-52.031074467
 20
36.5927021425
 11
-49.9747573047
 21
36.5927021425
  0
LINE
  5
44E
100
AcDbEntity
  8
ASSI
100
AcDbLine
 62
7
  6
CONTINUOUS
 10
-62.9747573047
 20
36.5927021425
 11
-66.7993809576
 21
36.5927021425
  0
LWPOLYLINE
  5
44F
100
AcDbEntity
  8
0
100
AcDbPolyline
 62
7
  6
CONTINUOUS
 90
13
 70
0
 43
0.3500000087
 10
-50.4772022614
 20
51.0492847839
 10
-50.762916217
 20
51.2635713165
 10
-50.762916217
 20
51.9064309143
 10
-50.4772022614
 20
52.3350039795
 10
-49.8343426636
 20
52.3350039795
 10
-49.5486287079
 20
51.9064309143
 10
-49.5486287079
 20
51.2635713165
 10
-49.8343426636
 20
51.0492847839
 10
-49.4057738617
 20
50.6207159821
 10
-49.4057738617
 20
49.7635698517
 10
-49.8343426636
 20
49.3350010498
 10
-50.4772022614
 20
49.3350010498
 10
-50.9057710632
 20
49.7635698517
  0
LINE
  5
450
100
AcDbEntity
  8
RACCORDO
100
AcDbLine
 62
250
  6
CONTINUOUS
 10
-62.9747573047
 20
37.2927021425
 11
-52.0658368531
 21
37.2927021425
  0
LINE
  5
451
100
AcDbEntity
  8
RACCORDO
100
AcDbLine
 62
250
  6
CONTINUOUS
 10
-52.031074467
 20
37.2927021425
 11
-50.9747573047
 21
37.2927021425
  0
LINE
  5
452
100
AcDbEntity
  8
RACCORDO
100
AcDbLine
 62
7
  6
CONTINUOUS
 10
-62.1746972484
 20
38.0927021425
 11
-51.7747573047
 21
38.0927021425
  0
LINE
  5
453
100
AcDbEntity
  8
RACCORDO
100
AcDbLine
 62
250
  6
CONTINUOUS
 10
-62.0747573047
 20
38.7927021425
 11
-53.218762097
 21
38.7927021425
  0
LINE
  5
454
100
AcDbEntity
  8
RACCORDO
100
AcDbLine
 62
250
  6
CONTINUOUS
 10
-53.1734417429
 20
38.7927021425
 11
-51.8747573047
 21
38.7927021425
  0
LINE
  5
455
100
AcDbEntity
  8
RACCORDO
100
AcDbLine
 62
7
  6
CONTINUOUS
 10
-61.274298129
 20
39.5927021425
 11
-54.408150785
 21
39.5927021425
  0
LINE
  5
456
100
AcDbEntity
  8
RACCORDO
100
AcDbLine
 62
7
  6
CONTINUOUS
 10
-54.2948243617
 20
39.5927021425
 11
-52.6747573047
 21
39.5927021425
  0
LWPOLYLINE
  5
457
100
AcDbEntity
  8
0
100
AcDbPolyline
 62
7
  6
CONTINUOUS
 90
6
 70
0
 43
0.3500000087
 10
-53.0486321259
 20
49.3350010498
 10
-51.9772037262
 20
49.3350010498
 10
-51.7629171936
 20
49.5492875824
 10
-51.7629171936
 20
50.6207159821
 10
-52.1914859955
 20
51.0492847839
 10
-52.6200590607
 20
51.0492847839
  0
LWPOLYLINE
  5
458
100
AcDbEntity
  8
0
100
AcDbPolyline
 62
7
  6
CONTINUOUS
 90
8
 70
0
 43
0.3500000087
 10
-46.8343439972
 20
49.3350010498
 10
-45.9772021301
 20
49.3350010498
 10
-45.5486290649
 20
49.7635698517
 10
-45.5486290649
 20
50.6207159821
 10
-45.9772021301
 20
51.0492847839
 10
-46.8343439972
 20
51.0492847839
 10
-46.8343439972
 20
52.3350039795
 10
-45.5486290649
 20
52.3350039795
  0
ARC
  5
459
100
AcDbEntity
  8
RACCORDO
100
AcDbCircle
 62
250
  6
CONTINUOUS
 10
-766.6375126563
 20
6.2140479472
 40
777.3007506817
100
AcDbArc
 50
0.9723358112
 51
2.0944564484
  0
ARC
  5
45A
100
AcDbEntity
  8
RACCORDO
100
AcDbCircle
 62
250
  6
CONTINUOUS
 10
-766.5185674418
 20
6.215786601
 40
777.1817930904
100
AcDbArc
 50
0.7643112118
 51
0.9723564576
  0
ARC
  5
45B
100
AcDbEntity
  8
RACCORDO
100
AcDbCircle
 62
250
  6
CONTINUOUS
 10
-766.3396688027
 20
6.2181299911
 40
777.0028790909
100
AcDbArc
 50
0.527899308
 51
0.7502750148
  0
ARC
  5
45C
100
AcDbEntity
  8
RACCORDO
100
AcDbCircle
 62
250
  6
CONTINUOUS
 10
-765.8340262042
 20
6.2208932158
 40
776.4972324978
100
AcDbArc
 50
358.9001526286
 51
0.52803918
  0
ARC
  5
45D
100
AcDbEntity
  8
RACCORDO
100
AcDbCircle
 62
250
  6
CONTINUOUS
 10
-735.0976015278
 20
6.2120110282
 40
744.7546651255
100
AcDbArc
 50
358.853033997
 51
2.185584859
  0
ARC
  5
45E
100
AcDbEntity
  8
0
100
AcDbCircle
 62
7
  6
CONTINUOUS
 10
-739.0
 20
6.4927021425
 40
750.0275501622
100
AcDbArc
 50
1.1094001487
 51
1.1583021614
  0
ARC
  5
45F
100
AcDbEntity
  8
0
100
AcDbCircle
 62
7
  6
CONTINUOUS
 10
-739.0
 20
6.4927021425
 40
750.0275501482
100
AcDbArc
 50
1.2072037955
 51
1.2561075317
  0
ARC
  5
460
100
AcDbEntity
  8
0
100
AcDbCircle
 62
7
  6
CONTINUOUS
 10
-739.0
 20
6.4927021425
 40
750.0275501482
100
AcDbArc
 50
1.3974869828
 51
1.4463944808
  0
ARC
  5
461
100
AcDbEntity
  8
0
100
AcDbCircle
 62
7
  6
CONTINUOUS
 10
-739.0
 20
6.4927021425
 40
750.0275501202
100
AcDbArc
 50
1.7175604237
 51
1.7664760794
  0
ARC
  5
462
100
AcDbEntity
  8
0
100
AcDbCircle
 62
7
  6
CONTINUOUS
 10
-739.0
 20
6.4927021425
 40
750.0248525566
100
AcDbArc
 50
1.5433556061
 51
1.5691045846
  0
ARC
  5
463
100
AcDbEntity
  8
0
100
AcDbCircle
 62
7
  6
CONTINUOUS
 10
-739.0
 20
6.4927021425
 40
750.0248525566
100
AcDbArc
 50
1.5948535606
 51
1.6206025391
  0
ARC
  5
464
100
AcDbEntity
  8
0
100
AcDbCircle
 62
7
  6
CONTINUOUS
 10
-739.0
 20
6.4927021425
 40
750.0213059201
100
AcDbArc
 50
1.558281962
 51
1.6056900889
  0
ARC
  5
465
100
AcDbEntity
  8
0
100
AcDbCircle
 62
7
  6
CONTINUOUS
 10
-739.0
 20
6.4927021425
 40
750.0035493612
100
AcDbArc
 50
1.2072424329
 51
1.2811744363
  0
ARC
  5
466
100
AcDbEntity
  8
0
100
AcDbCircle
 62
7
  6
CONTINUOUS
 10
-739.0
 20
6.4927021425
 40
750.0035493612
100
AcDbArc
 50
1.3725038337
 51
1.4464407766
  0
ARC
  5
467
100
AcDbEntity
  8
0
100
AcDbCircle
 62
7
  6
CONTINUOUS
 10
-739.0
 20
6.4927021425
 40
750.0035493612
100
AcDbArc
 50
1.1094362662
 51
1.1583398445
  0
ARC
  5
468
100
AcDbEntity
  8
0
100
AcDbCircle
 62
7
  6
CONTINUOUS
 10
-739.0
 20
6.4927021425
 40
750.0035493612
100
AcDbArc
 50
0.8709252654
 51
0.9198258496
  0
ARC
  5
469
100
AcDbEntity
  8
0
100
AcDbCircle
 62
7
  6
CONTINUOUS
 10
-739.0
 20
6.4927021425
 40
750.0035493612
100
AcDbArc
 50
1.0279316737
 51
1.0768345358
  0
ARC
  5
46A
100
AcDbEntity
  8
0
100
AcDbCircle
 62
7
  6
CONTINUOUS
 10
-739.0
 20
6.4927021425
 40
750.0035492692
100
AcDbArc
 50
1.7176154038
 51
1.8321636121
  0
ARC
  5
46B
100
AcDbEntity
  8
0
100
AcDbCircle
 62
7
  6
CONTINUOUS
 10
-739.0
 20
6.4927021425
 40
750.0035492692
100
AcDbArc
 50
1.5575656463
 51
1.6064807381
  0
ARC
  5
46C
100
AcDbEntity
  8
RACCORDO
100
AcDbCircle
 62
7
  6
CONTINUOUS
 10
-739.0
 20
6.4927021425
 40
749.9999998747
100
AcDbArc
 50
1.9132923198
 51
2.1386831711
  0
ARC
  5
46D
100
AcDbEntity
  8
RACCORDO
100
AcDbCircle
 62
7
  6
CONTINUOUS
 10
-739.0
 20
6.4927021425
 40
749.9999998747
100
AcDbArc
 50
1.6849494796
 51
1.7175598148
  0
ARC
  5
46E
100
AcDbEntity
  8
RACCORDO
100
AcDbCircle
 62
7
  6
CONTINUOUS
 10
-739.0
 20
6.4927021425
 40
749.9999998747
100
AcDbArc
 50
1.446440547
 51
1.4790005534
  0
ARC
  5
46F
100
AcDbEntity
  8
RACCORDO
100
AcDbCircle
 62
7
  6
CONTINUOUS
 10
-739.0
 20
6.4927021425
 40
749.9999998747
100
AcDbArc
 50
1.1583395351
 51
1.2072045381
  0
ARC
  5
470
100
AcDbEntity
  8
RACCORDO
100
AcDbCircle
 62
7
  6
CONTINUOUS
 10
-739.0
 20
6.4927021425
 40
749.9999998747
100
AcDbArc
 50
1.0768339241
 51
1.1093972724
  0
ARC
  5
471
100
AcDbEntity
  8
RACCORDO
100
AcDbCircle
 62
7
  6
CONTINUOUS
 10
-739.0
 20
6.4927021425
 40
749.9999998747
100
AcDbArc
 50
0.5002989302
 51
0.8709248854
  0
ARC
  5
472
100
AcDbEntity
  8
RACCORDO
100
AcDbCircle
 62
7
  6
CONTINUOUS
 10
-739.0
 20
6.4927021425
 40
749.9999944715
100
AcDbArc
 50
358.4302998265
 51
0.4959996712
  0
ARC
  5
473
100
AcDbEntity
  8
0
100
AcDbCircle
 62
7
  6
CONTINUOUS
 10
-739.0
 20
6.4927021425
 40
749.9735473773
100
AcDbArc
 50
1.1094806537
 51
1.1583861891
  0
ARC
  5
474
100
AcDbEntity
  8
0
100
AcDbCircle
 62
7
  6
CONTINUOUS
 10
-739.0
 20
6.4927021425
 40
749.9735473773
100
AcDbArc
 50
1.0279727995
 51
1.0768776186
  0
ARC
  5
475
100
AcDbEntity
  8
0
100
AcDbCircle
 62
7
  6
CONTINUOUS
 10
-739.0
 20
6.4927021425
 40
749.9735473773
100
AcDbArc
 50
0.8709601087
 51
0.9198626495
  0
ARC
  5
476
100
AcDbEntity
  8
0
100
AcDbCircle
 62
7
  6
CONTINUOUS
 10
-739.0
 20
6.4927021425
 40
749.9735473773
100
AcDbArc
 50
1.3725587499
 51
1.4464986524
  0
ARC
  5
477
100
AcDbEntity
  8
0
100
AcDbCircle
 62
7
  6
CONTINUOUS
 10
-739.0
 20
6.4927021425
 40
749.9735473773
100
AcDbArc
 50
1.2072907346
 51
1.281225697
  0
ARC
  5
478
100
AcDbEntity
  8
0
100
AcDbCircle
 62
7
  6
CONTINUOUS
 10
-739.0
 20
6.4927021425
 40
749.9735472853
100
AcDbArc
 50
1.5576279706
 51
1.6065450207
  0
ARC
  5
479
100
AcDbEntity
  8
0
100
AcDbCircle
 62
7
  6
CONTINUOUS
 10
-739.0
 20
6.4927021425
 40
749.9735472853
100
AcDbArc
 50
1.717684136
 51
1.832236931
  0
ARC
  5
47A
100
AcDbEntity
  8
0
100
AcDbCircle
 62
7
  6
CONTINUOUS
 10
-739.0
 20
6.4927021425
 40
749.8831092542
100
AcDbArc
 50
1.3261045561
 51
1.3621750483
  0
ARC
  5
47B
100
AcDbEntity
  8
0
100
AcDbCircle
 62
7
  6
CONTINUOUS
 10
-739.0
 20
6.4927021425
 40
749.8700296022
100
AcDbArc
 50
1.2939287385
 51
1.3259128433
  0
ARC
  5
47C
100
AcDbEntity
  8
0
100
AcDbCircle
 62
7
  6
CONTINUOUS
 10
-739.0
 20
6.4927021425
 40
749.8700296022
100
AcDbArc
 50
1.3643612828
 51
1.3963338527
  0
ARC
  5
47D
100
AcDbEntity
  8
0
100
AcDbCircle
 62
7
  6
CONTINUOUS
 10
-739.0
 20
6.4927021425
 40
749.8400175996
100
AcDbArc
 50
1.2939805363
 51
1.3259659219
  0
ARC
  5
47E
100
AcDbEntity
  8
0
100
AcDbCircle
 62
7
  6
CONTINUOUS
 10
-739.0
 20
6.4927021425
 40
749.8400175996
100
AcDbArc
 50
1.364415901
 51
1.3963897514
  0
ARC
  5
47F
100
AcDbEntity
  8
0
100
AcDbCircle
 62
7
  6
CONTINUOUS
 10
-739.0
 20
6.4927021425
 40
749.7610342797
100
AcDbArc
 50
1.3645596621
 51
1.3953580797
  0
ARC
  5
480
100
AcDbEntity
  8
0
100
AcDbCircle
 62
7
  6
CONTINUOUS
 10
-739.0
 20
6.4927021425
 40
749.7610342797
100
AcDbArc
 50
1.2952956274
 51
1.3261056302
  0
ARC
  5
481
100
AcDbEntity
  8
0
100
AcDbCircle
 62
250
  6
CONTINUOUS
 10
-564.6342569523
 20
14.6796030034
 40
554.6669125802
100
AcDbArc
 50
357.2447001702
 51
357.43812398
  0
ARC
  5
482
100
AcDbEntity
  8
0
100
AcDbCircle
 62
250
  6
CONTINUOUS
 10
-31.1080301873
 20
-12.1104093033
 40
20.3682025901
100
AcDbArc
 50
358.489767109
 51
358.8851817718
  0
ARC
  5
483
100
AcDbEntity
  8
0
100
AcDbCircle
 62
7
  6
CONTINUOUS
 10
-3.5
 20
-1.6610854465
 40
15.0
100
AcDbArc
 50
244.4039368305
 51
261.9521537527
  0
ARC
  5
484
100
AcDbEntity
  8
0
100
AcDbCircle
 62
250
  6
CONTINUOUS
 10
-8.8905368556
 20
-12.6801375391
 40
1.8645967741
100
AcDbArc
 50
173.9819908138
 51
177.0267173992
  0
ARC
  5
485
100
AcDbEntity
  8
0
100
AcDbCircle
 62
250
  6
CONTINUOUS
 10
-9.2023581227
 20
-12.6649982468
 40
1.5524103505
100
AcDbArc
 50
176.9877671138
 51
181.4619644648
  0
ARC
  5
486
100
AcDbEntity
  8
RACCORDO
100
AcDbCircle
 62
7
  6
CONTINUOUS
 10
-9.4190434994
 20
-14.016445581
 40
1.3
100
AcDbArc
 50
181.5696974687
 51
241.5859444085
  0
ARC
  5
487
100
AcDbEntity
  8
0
100
AcDbCircle
 62
7
  6
CONTINUOUS
 10
-311.3185137424
 20
7.5422891447
 40
322.3476456098
100
AcDbArc
 50
3.0407875046
 51
3.1718156406
  0
ARC
  5
488
100
AcDbEntity
  8
0
100
AcDbCircle
 62
7
  6
CONTINUOUS
 10
-311.3037977777
 20
7.9362601101
 40
322.3317374894
100
AcDbArc
 50
2.9933680431
 51
3.1183154067
  0
ARC
  5
489
100
AcDbEntity
  8
0
100
AcDbCircle
 62
7
  6
CONTINUOUS
 10
-90.9075322089
 20
19.7614187616
 40
80.0100170891
100
AcDbArc
 50
358.7560323861
 51
359.0238637727
  0
ARC
  5
48A
100
AcDbEntity
  8
0
100
AcDbCircle
 62
7
  6
CONTINUOUS
 10
-53.5818034972
 20
18.922517028
 40
42.6748413986
100
AcDbArc
 50
358.5222821896
 51
358.6515571109
  0
ARC
  5
48B
100
AcDbEntity
  8
0
100
AcDbCircle
 62
7
  6
CONTINUOUS
 10
-101.0707064439
 20
21.7355343202
 40
90.4374669053
100
AcDbArc
 50
359.0765100334
 51
359.1937836868
  0
ARC
  5
48C
100
AcDbEntity
  8
0
100
AcDbCircle
 62
7
  6
CONTINUOUS
 10
-99.9521035422
 20
21.7173837366
 40
89.2686862602
100
AcDbArc
 50
359.0760690748
 51
359.3709066418
  0
ARC
  5
48D
100
AcDbEntity
  8
0
100
AcDbCircle
 62
7
  6
CONTINUOUS
 10
-98.0929328775
 20
21.6944914839
 40
87.4594106328
100
AcDbArc
 50
359.193219975
 51
359.3728899559
  0
ARC
  5
48E
100
AcDbEntity
  8
0
100
AcDbCircle
 62
7
  6
CONTINUOUS
 10
-73.7836300011
 20
22.1096626126
 40
84.492449659
100
AcDbArc
 50
1.2642143129
 51
1.4243722186
  0
ARC
  5
48F
100
AcDbEntity
  8
0
100
AcDbCircle
 62
7
  6
CONTINUOUS
 10
-72.3018254883
 20
22.1472160787
 40
83.0101695347
100
AcDbArc
 50
1.4238835258
 51
1.5866835492
  0
ARC
  5
490
100
AcDbEntity
  8
0
100
AcDbCircle
 62
7
  6
CONTINUOUS
 10
-72.2523765797
 20
22.1427465944
 40
82.9608390427
100
AcDbArc
 50
1.101832019
 51
1.2647032702
  0
ARC
  5
491
100
AcDbEntity
  8
0
100
AcDbCircle
 62
7
  6
CONTINUOUS
 10
-93.4521902522
 20
21.5447846701
 40
82.7665684122
100
AcDbArc
 50
358.3912852106
 51
358.5665739372
  0
ARC
  5
492
100
AcDbEntity
  8
0
100
AcDbCircle
 62
7
  6
CONTINUOUS
 10
-93.3912790122
 20
21.5446879545
 40
82.7556939339
100
AcDbArc
 50
358.3911407508
 51
358.566452521
  0
ARC
  5
493
100
AcDbEntity
  8
0
100
AcDbCircle
 62
7
  6
CONTINUOUS
 10
-68.705389073
 20
22.2471996159
 40
79.4123435996
100
AcDbArc
 50
1.5864221155
 51
1.7554594269
  0
ARC
  5
494
100
AcDbEntity
  8
0
100
AcDbCircle
 62
7
  6
CONTINUOUS
 10
-68.6136077964
 20
22.2123687358
 40
79.3214042839
100
AcDbArc
 50
0.9328848915
 51
1.1020935822
  0
ARC
  5
495
100
AcDbEntity
  8
0
100
AcDbCircle
 62
7
  6
CONTINUOUS
 10
-85.3309398981
 20
21.3147319193
 40
74.6920730444
100
AcDbArc
 50
358.2054452709
 51
358.3304163848
  0
ARC
  5
496
100
AcDbEntity
  8
0
100
AcDbCircle
 62
7
  6
CONTINUOUS
 10
-63.1940656928
 20
22.4168924854
 40
73.8984084879
100
AcDbArc
 50
1.7548541207
 51
1.9329018141
  0
ARC
  5
497
100
AcDbEntity
  8
0
100
AcDbCircle
 62
7
  6
CONTINUOUS
 10
-62.2176637855
 20
22.3138402677
 40
72.9246541637
100
AcDbArc
 50
0.7546189205
 51
0.8874289447
  0
ARC
  5
498
100
AcDbEntity
  8
0
100
AcDbCircle
 62
7
  6
CONTINUOUS
 10
-61.9773937043
 20
22.317573042
 40
72.6543402268
100
AcDbArc
 50
0.7544826654
 51
0.8734718943
  0
ARC
  5
499
100
AcDbEntity
  8
0
100
AcDbCircle
 62
7
  6
CONTINUOUS
 10
-55.432886771
 20
22.679680004
 40
66.1327820026
100
AcDbArc
 50
1.9321563862
 51
2.1241995807
  0
ARC
  5
49A
100
AcDbEntity
  8
0
100
AcDbCircle
 62
7
  6
CONTINUOUS
 10
-54.1941963316
 20
22.4154339625
 40
64.9005419997
100
AcDbArc
 50
0.5627460164
 51
0.7073202282
  0
ARC
  5
49B
100
AcDbEntity
  8
0
100
AcDbCircle
 62
7
  6
CONTINUOUS
 10
-53.2509612366
 20
22.9878779838
 40
63.9546843593
100
AcDbArc
 50
2.2321669066
 51
2.4601747985
  0
ARC
  5
49C
100
AcDbEntity
  8
0
100
AcDbCircle
 62
7
  6
CONTINUOUS
 10
-28.2430751264
 20
17.843656782
 40
39.1824540715
100
AcDbArc
 50
2.0425575735
 51
2.8479047711
  0
ARC
  5
49D
100
AcDbEntity
  8
0
100
AcDbCircle
 62
7
  6
CONTINUOUS
 10
-28.2702238947
 20
17.8436771768
 40
39.179599055
100
AcDbArc
 50
2.0426766337
 51
2.8480825919
  0
ARC
  5
49E
100
AcDbEntity
  8
0
100
AcDbCircle
 62
7
  6
CONTINUOUS
 10
-28.1703163358
 20
19.3052852192
 40
39.084854095
100
AcDbArc
 50
359.0979138449
 51
359.9045749314
  0
ARC
  5
49F
100
AcDbEntity
  8
0
100
AcDbCircle
 62
7
  6
CONTINUOUS
 10
-28.1974618829
 20
19.3053085961
 40
39.0819948123
100
AcDbArc
 50
359.0978135358
 51
359.9045336783
  0
ARC
  5
4A0
100
AcDbEntity
  8
0
100
AcDbCircle
 62
7
  6
CONTINUOUS
 10
-40.0571461127
 20
18.5713548052
 40
29.1756214294
100
AcDbArc
 50
358.3618679204
 51
358.5282578822
  0
ARC
  5
4A1
100
AcDbEntity
  8
0
100
AcDbCircle
 62
7
  6
CONTINUOUS
 10
-32.9201042532
 20
18.3738573884
 40
22.0058702555
100
AcDbArc
 50
358.1558261725
 51
358.56302818
  0
ARC
  5
4A2
100
AcDbEntity
  8
0
100
AcDbCircle
 62
7
  6
CONTINUOUS
 10
-29.824169613
 20
19.4804590659
 40
19.0050790046
100
AcDbArc
 50
358.912513689
 51
359.1026370409
  0
ARC
  5
4A3
100
AcDbEntity
  8
0
100
AcDbCircle
 62
7
  6
CONTINUOUS
 10
-29.8148476107
 20
19.4807573871
 40
18.995762823
100
AcDbArc
 50
359.1012969879
 51
359.2841150671
  0
ARC
  5
4A4
100
AcDbEntity
  8
0
100
AcDbCircle
 62
7
  6
CONTINUOUS
 10
-28.6087408856
 20
18.2402432182
 40
17.7224299716
100
AcDbArc
 50
358.1421348619
 51
358.3738357026
  0
ARC
  5
4A5
100
AcDbEntity
  8
0
100
AcDbCircle
 62
7
  6
CONTINUOUS
 10
-28.2777092143
 20
19.4619575332
 40
17.4585095244
100
AcDbArc
 50
359.2827794788
 51
359.4736872645
  0
ARC
  5
4A6
100
AcDbEntity
  8
0
100
AcDbCircle
 62
7
  6
CONTINUOUS
 10
-28.0420478497
 20
19.4429341574
 40
17.2225609636
100
AcDbArc
 50
358.6222998207
 51
358.7512564405
  0
ARC
  5
4A7
100
AcDbEntity
  8
0
100
AcDbCircle
 62
7
  6
CONTINUOUS
 10
-25.8209987749
 20
19.4402967172
 40
15.0017028461
100
AcDbArc
 50
359.5339082614
 51
359.6872269225
  0
ARC
  5
4A8
100
AcDbEntity
  8
0
100
AcDbCircle
 62
7
  6
CONTINUOUS
 10
-22.606107582
 20
19.4244255071
 40
11.7867730349
100
AcDbArc
 50
359.6790663671
 51
0.1803415302
  0
ARC
  5
4A9
100
AcDbEntity
  8
0
100
AcDbCircle
 62
7
  6
CONTINUOUS
 10
-0.6879047779
 20
18.8884124256
 40
10.1580530177
100
AcDbArc
 50
179.8595268237
 51
180.1675410099
  0
ARC
  5
4AA
100
AcDbEntity
  8
0
100
AcDbCircle
 62
7
  6
CONTINUOUS
 10
-1.9738822698
 20
19.134010358
 40
8.8679003308
100
AcDbArc
 50
177.7593875282
 51
178.0964368931
  0
ARC
  5
4AB
100
AcDbEntity
  8
0
100
AcDbCircle
 62
7
  6
CONTINUOUS
 10
-19.7663547073
 20
17.9482483115
 40
8.8452373146
100
AcDbArc
 50
357.7982723416
 51
358.1693205365
  0
ARC
  5
4AC
100
AcDbEntity
  8
0
100
AcDbCircle
 62
7
  6
CONTINUOUS
 10
-19.7356856201
 20
17.9482438259
 40
8.8445733395
100
AcDbArc
 50
357.7981360388
 51
358.1692121149
  0
ARC
  5
4AD
100
AcDbEntity
  8
0
100
AcDbCircle
 62
7
  6
CONTINUOUS
 10
-17.7440174134
 20
19.4365626828
 40
6.9246694725
100
AcDbArc
 50
0.2065420362
 51
0.5661049217
  0
ARC
  5
4AE
100
AcDbEntity
  8
0
100
AcDbCircle
 62
7
  6
CONTINUOUS
 10
-15.2298813541
 20
19.4621928744
 40
4.4104029682
100
AcDbArc
 50
0.5558590345
 51
1.049508708
  0
ARC
  5
4AF
100
AcDbEntity
  8
0
100
AcDbCircle
 62
7
  6
CONTINUOUS
 10
-7.2426416825
 20
19.771836465
 40
3.7100664989
100
AcDbArc
 50
158.6818624802
 51
159.3420781763
  0
ARC
  5
4B0
100
AcDbEntity
  8
0
100
AcDbCircle
 62
7
  6
CONTINUOUS
 10
-7.2563709508
 20
19.7240829833
 40
3.6963918244
100
AcDbArc
 50
158.8302282009
 51
159.5617619917
  0
ARC
  5
4B1
100
AcDbEntity
  8
0
100
AcDbCircle
 62
7
  6
CONTINUOUS
 10
-7.3002661791
 20
20.0584071498
 40
3.6454296611
100
AcDbArc
 50
199.0965557904
 51
199.3530341262
  0
ARC
  5
4B2
100
AcDbEntity
  8
0
100
AcDbCircle
 62
7
  6
CONTINUOUS
 10
-7.3041484921
 20
20.0047718246
 40
3.6423168508
100
AcDbArc
 50
199.0486742819
 51
199.3052982892
  0
ARC
  5
4B3
100
AcDbEntity
  8
0
100
AcDbCircle
 62
7
  6
CONTINUOUS
 10
-7.33316318
 20
19.9948502917
 40
3.611653215
100
AcDbArc
 50
198.5155440876
 51
198.8963226427
  0
ARC
  5
4B4
100
AcDbEntity
  8
0
100
AcDbCircle
 62
7
  6
CONTINUOUS
 10
-7.3525206012
 20
19.7592254599
 40
3.5940188659
100
AcDbArc
 50
160.3834718629
 51
160.9717287431
  0
ARC
  5
4B5
100
AcDbEntity
  8
0
100
AcDbCircle
 62
7
  6
CONTINUOUS
 10
-7.3969192146
 20
19.7744970867
 40
3.5470672103
100
AcDbArc
 50
160.971109518
 51
161.8612627008
  0
ARC
  5
4B6
100
AcDbEntity
  8
0
100
AcDbCircle
 62
7
  6
CONTINUOUS
 10
-7.3963778898
 20
19.8272437079
 40
3.546640057
100
AcDbArc
 50
160.95169931
 51
161.8946249875
  0
ARC
  5
4B7
100
AcDbEntity
  8
0
100
AcDbCircle
 62
7
  6
CONTINUOUS
 10
-7.4119099621
 20
20.0215337654
 40
3.5278499142
100
AcDbArc
 50
197.0245754147
 51
197.6070953003
  0
ARC
  5
4B8
100
AcDbEntity
  8
0
100
AcDbCircle
 62
7
  6
CONTINUOUS
 10
-7.4137130855
 20
19.9686649957
 40
3.5269522798
100
AcDbArc
 50
197.0004794404
 51
197.6010058947
  0
ARC
  5
4B9
100
AcDbEntity
  8
0
100
AcDbCircle
 62
7
  6
CONTINUOUS
 10
-7.4656582191
 20
20.0052773886
 40
3.4716966929
100
AcDbArc
 50
195.8492958862
 51
196.7324712251
  0
ARC
  5
4BA
100
AcDbEntity
  8
0
100
AcDbCircle
 62
7
  6
CONTINUOUS
 10
-7.4687393813
 20
19.951992135
 40
3.469455703
100
AcDbArc
 50
195.4850160416
 51
197.002862081
  0
ARC
  5
4BB
100
AcDbEntity
  8
0
100
AcDbCircle
 62
7
  6
CONTINUOUS
 10
-7.530420982
 20
19.934855675
 40
3.4054373899
100
AcDbArc
 50
194.7538472288
 51
195.1875956205
  0
ARC
  5
4BC
100
AcDbEntity
  8
0
100
AcDbCircle
 62
7
  6
CONTINUOUS
 10
-12.9096482291
 20
18.8946320915
 40
2.1857262728
100
AcDbArc
 50
0.7998816764
 51
1.5216346161
  0
ARC
  5
4BD
100
AcDbEntity
  8
0
100
AcDbCircle
 62
7
  6
CONTINUOUS
 10
-12.8593399722
 20
18.8946299745
 40
2.1854528149
100
AcDbArc
 50
0.8000373285
 51
1.5218806008
  0
ARC
  5
4BE
100
AcDbEntity
  8
0
100
AcDbCircle
 62
7
  6
CONTINUOUS
 10
-44.8488958913
 20
22.2392832777
 40
55.5711082264
100
AcDbArc
 50
0.0954861089
 51
0.349181679
  0
ARC
  5
4BF
100
AcDbEntity
  8
0
100
AcDbCircle
 62
7
  6
CONTINUOUS
 10
-41.1249418376
 20
23.5061494617
 40
51.8175948115
100
AcDbArc
 50
2.4631769199
 51
2.7268061064
  0
ARC
  5
4C0
100
AcDbEntity
  8
0
100
AcDbCircle
 62
7
  6
CONTINUOUS
 10
-34.0584368099
 20
23.3792919311
 40
44.7391943723
100
AcDbArc
 50
2.3144129119
 51
2.5020240353
  0
ARC
  5
4C1
100
AcDbEntity
  8
0
100
AcDbCircle
 62
7
  6
CONTINUOUS
 10
-33.9295386652
 20
22.7075893336
 40
44.6260899073
100
AcDbArc
 50
0.1865700653
 51
0.3746647535
  0
ARC
  5
4C2
100
AcDbEntity
  8
0
100
AcDbCircle
 62
7
  6
CONTINUOUS
 10
-33.3184556504
 20
22.2532095488
 40
44.0406611066
100
AcDbArc
 50
359.8038276305
 51
0.1023679517
  0
ARC
  5
4C3
100
AcDbEntity
  8
0
100
AcDbCircle
 62
7
  6
CONTINUOUS
 10
-29.3715051142
 20
24.0623669127
 40
40.0510049828
100
AcDbArc
 50
2.7319100431
 51
3.0464155933
  0
ARC
  5
4C4
100
AcDbEntity
  8
0
100
AcDbCircle
 62
7
  6
CONTINUOUS
 10
-28.4414926826
 20
24.410105063
 40
39.2456508284
100
AcDbArc
 50
2.9387137191
 51
3.4394815939
  0
ARC
  5
4C5
100
AcDbEntity
  8
0
100
AcDbCircle
 62
7
  6
CONTINUOUS
 10
-28.4596334423
 20
24.4106225063
 40
39.2337691267
100
AcDbArc
 50
2.9388477437
 51
3.2727686281
  0
ARC
  5
4C6
100
AcDbEntity
  8
0
100
AcDbCircle
 62
7
  6
CONTINUOUS
 10
-27.6405101653
 20
23.6602889136
 40
38.3151192358
100
AcDbArc
 50
2.5011917501
 51
2.7093267037
  0
ARC
  5
4C7
100
AcDbEntity
  8
0
100
AcDbCircle
 62
7
  6
CONTINUOUS
 10
-24.8300852536
 20
23.5272464559
 40
35.4681204014
100
AcDbArc
 50
2.3290793074
 51
2.5190397722
  0
ARC
  5
4C8
100
AcDbEntity
  8
0
100
AcDbCircle
 62
7
  6
CONTINUOUS
 10
-22.9957349077
 20
22.7323759677
 40
33.6922651414
100
AcDbArc
 50
359.7454754155
 51
0.2049646402
  0
ARC
  5
4C9
100
AcDbEntity
  8
0
100
AcDbCircle
 62
7
  6
CONTINUOUS
 10
-23.0403692834
 20
23.003636932
 40
33.6909089614
100
AcDbArc
 50
359.9728111762
 51
0.3624669939
  0
ARC
  5
4CA
100
AcDbEntity
  8
0
100
AcDbCircle
 62
7
  6
CONTINUOUS
 10
-22.1395653583
 20
22.2088920551
 40
32.8616851575
100
AcDbArc
 50
359.4486336547
 51
359.8143628589
  0
ARC
  5
4CB
100
AcDbEntity
  8
0
100
AcDbCircle
 62
7
  6
CONTINUOUS
 10
-20.7886695097
 20
22.4335969501
 40
31.6418105943
100
AcDbArc
 50
2.823602854
 51
3.5461194803
  0
ARC
  5
4CC
100
AcDbEntity
  8
0
100
AcDbCircle
 62
7
  6
CONTINUOUS
 10
-20.9682035278
 20
23.9766913557
 40
31.6353149087
100
AcDbArc
 50
2.7081401174
 51
2.9455286802
  0
ARC
  5
4CD
100
AcDbEntity
  8
0
100
AcDbCircle
 62
7
  6
CONTINUOUS
 10
-20.7679389651
 20
23.048475267
 40
31.6071633698
100
AcDbArc
 50
2.6606308192
 51
2.9046727312
  0
ARC
  5
4CE
100
AcDbEntity
  8
0
100
AcDbCircle
 62
7
  6
CONTINUOUS
 10
-20.7382476119
 20
23.049814757
 40
31.5774417847
100
AcDbArc
 50
2.1722941332
 51
2.5385853883
  0
ARC
  5
4CF
100
AcDbEntity
  8
0
100
AcDbCircle
 62
7
  6
CONTINUOUS
 10
-20.6852404957
 20
23.8211351446
 40
31.5062594942
100
AcDbArc
 50
359.1037463311
 51
359.466023149
  0
ARC
  5
4D0
100
AcDbEntity
  8
0
100
AcDbCircle
 62
7
  6
CONTINUOUS
 10
-20.7113882652
 20
23.8211398633
 40
31.5023984589
100
AcDbArc
 50
359.103627874
 51
359.7074864624
  0
ARC
  5
4D1
100
AcDbEntity
  8
0
100
AcDbCircle
 62
7
  6
CONTINUOUS
 10
-20.6648113947
 20
23.2079454533
 40
31.5003596277
100
AcDbArc
 50
359.6187519604
 51
0.1138992255
  0
ARC
  5
4D2
100
AcDbEntity
  8
0
100
AcDbCircle
 62
7
  6
CONTINUOUS
 10
-19.7809117479
 20
23.7498256451
 40
30.4140433981
100
AcDbArc
 50
2.5181996002
 51
2.7286475618
  0
ARC
  5
4D3
100
AcDbEntity
  8
0
100
AcDbCircle
 62
7
  6
CONTINUOUS
 10
-15.0752333994
 20
23.9577719274
 40
25.7338513012
100
AcDbArc
 50
2.2512343174
 51
3.2141570255
  0
ARC
  5
4D4
100
AcDbEntity
  8
0
100
AcDbCircle
 62
7
  6
CONTINUOUS
 10
-14.3946984251
 20
23.0047212547
 40
25.0452401282
100
AcDbArc
 50
359.7205478277
 51
359.9609449406
  0
ARC
  5
4D5
100
AcDbEntity
  8
0
100
AcDbCircle
 62
7
  6
CONTINUOUS
 10
-12.7633696912
 20
24.4016719701
 40
23.4194828626
100
AcDbArc
 50
2.9386755616
 51
3.5127869248
  0
ARC
  5
4D6
100
AcDbEntity
  8
0
100
AcDbCircle
 62
7
  6
CONTINUOUS
 10
-11.1258051779
 20
24.1716602644
 40
21.7486702007
100
AcDbArc
 50
2.704088318
 51
3.2393655556
  0
ARC
  5
4D7
100
AcDbEntity
  8
0
100
AcDbCircle
 62
7
  6
CONTINUOUS
 10
-10.7274139626
 20
22.6673219708
 40
21.4237788592
100
AcDbArc
 50
359.1465859785
 51
359.7737012338
  0
ARC
  5
4D8
100
AcDbEntity
  8
0
100
AcDbCircle
 62
7
  6
CONTINUOUS
 10
-9.4349859035
 20
22.9801388764
 40
20.085466706
100
AcDbArc
 50
359.4424205938
 51
359.7216656922
  0
ARC
  5
4D9
100
AcDbEntity
  8
0
100
AcDbCircle
 62
7
  6
CONTINUOUS
 10
-5.0756561061
 20
24.5116327285
 40
15.7189518233
100
AcDbArc
 50
3.242109906
 51
3.5710880627
  0
ARC
  5
4DA
100
AcDbEntity
  8
0
100
AcDbCircle
 62
7
  6
CONTINUOUS
 10
-5.1045176074
 20
24.5116456188
 40
15.717791894
100
AcDbArc
 50
3.242302426
 51
3.5713049533
  0
ARC
  5
4DB
100
AcDbEntity
  8
0
100
AcDbCircle
 62
7
  6
CONTINUOUS
 10
-310.7619737057
 20
25.1305776329
 40
321.3864245981
100
AcDbArc
 50
359.5694684771
 51
359.7203816518
  0
ARC
  5
4DC
100
AcDbEntity
  8
RACCORDO
100
AcDbCircle
 62
250
  6
CONTINUOUS
 10
-6.9613411971
 20
107.873622676
 40
118.2331753935
100
AcDbArc
 50
275.5756413279
 51
276.0175139045
  0
ARC
  5
4DD
100
AcDbEntity
  8
RACCORDO
100
AcDbCircle
 62
250
  6
CONTINUOUS
 10
-6.924782202
 20
95.5884362402
 40
108.4903647789
100
AcDbArc
 50
276.1602900143
 51
276.6293521931
  0
ARC
  5
4DE
100
AcDbEntity
  8
0
100
AcDbCircle
 62
7
  6
CONTINUOUS
 10
-99.1588315738
 20
29.0614380499
 40
88.6207220881
100
AcDbArc
 50
358.4628423091
 51
358.6278647888
  0
ARC
  5
4DF
100
AcDbEntity
  8
0
100
AcDbCircle
 62
7
  6
CONTINUOUS
 10
-99.0971061586
 20
29.0612827447
 40
88.609040884
100
AcDbArc
 50
358.4627400733
 51
358.6277843085
  0
ARC
  5
4E0
100
AcDbEntity
  8
0
100
AcDbCircle
 62
7
  6
CONTINUOUS
 10
-98.0420019772
 20
33.8736269818
 40
87.6477012229
100
AcDbArc
 50
357.962159988
 51
358.1323164373
  0
ARC
  5
4E1
100
AcDbEntity
  8
0
100
AcDbCircle
 62
7
  6
CONTINUOUS
 10
-97.9803962889
 20
33.8734404153
 40
87.6361483823
100
AcDbArc
 50
357.9620132844
 51
358.1321921763
  0
ARC
  5
4E2
100
AcDbEntity
  8
0
100
AcDbCircle
 62
7
  6
CONTINUOUS
 10
-98.1230199041
 20
29.0325902371
 40
87.5845093239
100
AcDbArc
 50
358.293296887
 51
358.4635301961
  0
ARC
  5
4E3
100
AcDbEntity
  8
0
100
AcDbCircle
 62
7
  6
CONTINUOUS
 10
-98.0614265795
 20
29.0324366271
 40
87.5729602064
100
AcDbArc
 50
358.2931722864
 51
358.463428051
  0
ARC
  5
4E4
100
AcDbEntity
  8
0
100
AcDbCircle
 62
7
  6
CONTINUOUS
 10
-73.9711071628
 20
28.384018028
 40
63.3999494593
100
AcDbArc
 50
358.2284513535
 51
358.5718568305
  0
ARC
  5
4E5
100
AcDbEntity
  8
0
100
AcDbCircle
 62
7
  6
CONTINUOUS
 10
-73.2237162873
 20
33.0607381892
 40
62.7921676496
100
AcDbArc
 50
357.8973671768
 51
358.0673298074
  0
ARC
  5
4E6
100
AcDbEntity
  8
0
100
AcDbCircle
 62
7
  6
CONTINUOUS
 10
-28.3686837046
 20
27.8230034945
 40
39.0786291603
100
AcDbArc
 50
0.2235508405
 51
1.0605251216
  0
ARC
  5
4E7
100
AcDbEntity
  8
0
100
AcDbCircle
 62
7
  6
CONTINUOUS
 10
-28.3429210518
 20
27.2163945437
 40
39.0708170573
100
AcDbArc
 50
359.9741955855
 51
0.4290719392
  0
ARC
  5
4E8
100
AcDbEntity
  8
0
100
AcDbCircle
 62
7
  6
CONTINUOUS
 10
-28.3593517825
 20
27.8230670151
 40
39.0692970614
100
AcDbArc
 50
359.8886691075
 51
0.2235110834
  0
ARC
  5
4E9
100
AcDbEntity
  8
0
100
AcDbCircle
 62
7
  6
CONTINUOUS
 10
-28.386558272
 20
27.8231064243
 40
39.066490157
100
AcDbArc
 50
359.7211709362
 51
0.2234692508
  0
ARC
  5
4EA
100
AcDbEntity
  8
0
100
AcDbCircle
 62
7
  6
CONTINUOUS
 10
-19.04893424
 20
24.6085477966
 40
29.7139952918
100
AcDbArc
 50
3.0525538021
 51
3.4365652021
  0
ARC
  5
4EB
100
AcDbEntity
  8
0
100
AcDbCircle
 62
7
  6
CONTINUOUS
 10
-4.1599829165
 20
25.1391373797
 40
14.7990957486
100
AcDbArc
 50
3.5515774103
 51
4.0879069083
  0
ARC
  5
4EC
100
AcDbEntity
  8
RACCORDO
100
AcDbCircle
 62
7
  6
CONTINUOUS
 10
-6.4
 20
28.3362912265
 40
8.0
100
AcDbArc
 50
94.5885657358
 51
102.445586847
  0
ARC
  5
4ED
100
AcDbEntity
  8
0
100
AcDbCircle
 62
7
  6
CONTINUOUS
 10
-6.4
 20
28.3362912265
 40
8.0
100
AcDbArc
 50
94.5885657358
 51
111.4133205366
  0
ARC
  5
4EE
100
AcDbEntity
  8
RACCORDO
100
AcDbCircle
 62
7
  6
CONTINUOUS
 10
-6.4
 20
28.3362912265
 40
8.0
100
AcDbArc
 50
111.4133205366
 51
114.500919471
  0
ARC
  5
4EF
100
AcDbEntity
  8
0
100
AcDbCircle
 62
250
  6
CONTINUOUS
 10
-6.5605459657
 20
27.8085760375
 40
7.2694033293
100
AcDbArc
 50
94.4044885667
 51
110.575260766
  0
ARC
  5
4F0
100
AcDbEntity
  8
RACCORDO
100
AcDbCircle
 62
7
  6
CONTINUOUS
 10
-9.1784737047
 20
34.4330187205
 40
1.3000000328
100
AcDbArc
 50
114.5002837992
 51
177.861325458
  0
ARC
  5
4F1
100
AcDbEntity
  8
RACCORDO
100
AcDbCircle
 62
7
  6
CONTINUOUS
 10
-5.2
 20
37.2927021425
 40
0.8
100
AcDbArc
 50
90.0
 51
180.0
  0
ARC
  5
4F2
100
AcDbEntity
  8
RACCORDO
100
AcDbCircle
 62
7
  6
CONTINUOUS
 10
-4.3
 20
38.7927021425
 40
0.8
100
AcDbArc
 50
90.0
 51
180.0
  0
ARC
  5
4F3
100
AcDbEntity
  8
RACCORDO
100
AcDbCircle
 62
250
  6
CONTINUOUS
 10
-0.1170263281
 20
-58.7806477005
 40
94.115725268
100
AcDbArc
 50
85.5906124714
 51
87.1721676919
  0
ARC
  5
4F4
100
AcDbEntity
  8
0
100
AcDbCircle
 62
250
  6
CONTINUOUS
 10
0.1170263281
 20
-58.7806477005
 40
94.115725268
100
AcDbArc
 50
92.8278323081
 51
94.4093875286
  0
ARC
  5
4F5
100
AcDbEntity
  8
RACCORDO
100
AcDbCircle
 62
250
  6
CONTINUOUS
 10
-0.000347611
 20
-53.9325480007
 40
89.267857059
100
AcDbArc
 50
87.0934496319
 51
89.999776889
  0
ARC
  5
4F6
100
AcDbEntity
  8
0
100
AcDbCircle
 62
250
  6
CONTINUOUS
 10
0.000347611
 20
-53.9325480007
 40
89.267857059
100
AcDbArc
 50
90.000223111
 51
92.9065503681
  0
ARC
  5
4F7
100
AcDbEntity
  8
RACCORDO
100
AcDbCircle
 62
7
  6
CONTINUOUS
 10
-0.0
 20
-51.4072978575
 40
88.0
100
AcDbArc
 50
85.4114342642
 51
90.0
  0
ARC
  5
4F8
100
AcDbEntity
  8
RACCORDO
100
AcDbCircle
 62
7
  6
CONTINUOUS
 10
-0.0
 20
-51.4072978575
 40
88.0
100
AcDbArc
 50
94.2938699306
 51
94.5885657358
  0
ARC
  5
4F9
100
AcDbEntity
  8
0
100
AcDbCircle
 62
7
  6
CONTINUOUS
 10
-0.0
 20
-51.4072978575
 40
88.0
100
AcDbArc
 50
90.0
 51
94.5885657358
  0
ARC
  5
4FA
100
AcDbEntity
  8
0
100
AcDbCircle
 62
7
  6
CONTINUOUS
 10
250.3006048323
 20
7.9211201668
 40
261.3488846892
100
AcDbArc
 50
176.8729601701
 51
176.9942554421
  0
ARC
  5
4FB
100
AcDbEntity
  8
0
100
AcDbCircle
 62
7
  6
CONTINUOUS
 10
250.3233600043
 20
7.9211453348
 40
261.3216398029
100
AcDbArc
 50
176.872639353
 51
176.9939473061
  0
ARC
  5
4FC
100
AcDbEntity
  8
0
100
AcDbCircle
 62
7
  6
CONTINUOUS
 10
100.556511276
 20
23.684442979
 40
111.2989687997
100
AcDbArc
 50
178.3260102315
 51
178.4546871495
  0
ARC
  5
4FD
100
AcDbEntity
  8
0
100
AcDbCircle
 62
7
  6
CONTINUOUS
 10
99.5912269539
 20
23.7094428044
 40
110.3333613632
100
AcDbArc
 50
178.45414677
 51
178.5901732176
  0
ARC
  5
4FE
100
AcDbEntity
  8
0
100
AcDbCircle
 62
7
  6
CONTINUOUS
 10
96.2544808529
 20
23.8112449226
 40
106.9950701842
100
AcDbArc
 50
178.1889277078
 51
178.3265858205
  0
ARC
  5
4FF
100
AcDbEntity
  8
0
100
AcDbCircle
 62
7
  6
CONTINUOUS
 10
59.4952224784
 20
17.2321349713
 40
70.4314418758
100
AcDbArc
 50
179.2673506701
 51
179.5247876376
  0
ARC
  5
500
100
AcDbEntity
  8
0
100
AcDbCircle
 62
7
  6
CONTINUOUS
 10
53.5791779128
 20
24.4592686213
 40
43.0654749276
100
AcDbArc
 50
182.7844081227
 51
183.0925761721
  0
ARC
  5
501
100
AcDbEntity
  8
0
100
AcDbCircle
 62
7
  6
CONTINUOUS
 10
52.6786098037
 20
24.4144479263
 40
42.1937866221
100
AcDbArc
 50
182.8209689398
 51
183.0920683536
  0
ARC
  5
502
100
AcDbEntity
  8
SUPERFICI
100
AcDbCircle
 62
7
  6
CONTINUOUS
 10
-0.0
 20
23.0927021425
 40
40.0
100
AcDbArc
 50
270.0
 51
278.0478462473
  0
ARC
  5
503
100
AcDbEntity
  8
0
100
AcDbCircle
 62
7
  6
CONTINUOUS
 10
-0.0
 20
23.0927021425
 40
40.0
100
AcDbArc
 50
261.9521537527
 51
270.0
  0
ARC
  5
504
100
AcDbEntity
  8
0
100
AcDbCircle
 62
7
  6
CONTINUOUS
 10
28.2330403811
 20
22.692911175
 40
39.0784412924
100
AcDbArc
 50
179.3531588925
 51
180.1900794657
  0
ARC
  5
505
100
AcDbEntity
  8
0
100
AcDbCircle
 62
7
  6
CONTINUOUS
 10
48.8724354407
 20
24.5012698716
 40
38.3440698447
100
AcDbArc
 50
182.4776574609
 51
183.0544998497
  0
ARC
  5
506
100
AcDbEntity
  8
0
100
AcDbCircle
 62
7
  6
CONTINUOUS
 10
20.8142660282
 20
23.6468723437
 40
31.6394484437
100
AcDbArc
 50
176.357251597
 51
177.3206675724
  0
ARC
  5
507
100
AcDbEntity
  8
0
100
AcDbCircle
 62
7
  6
CONTINUOUS
 10
20.8419640015
 20
23.6468970473
 40
31.6371379333
100
AcDbArc
 50
176.3570300313
 51
177.3205165416
  0
ARC
  5
508
100
AcDbEntity
  8
0
100
AcDbCircle
 62
7
  6
CONTINUOUS
 10
20.7911420874
 20
24.2619468974
 40
31.601366681
100
AcDbArc
 50
176.7545587357
 51
177.8528929151
  0
ARC
  5
509
100
AcDbEntity
  8
0
100
AcDbCircle
 62
7
  6
CONTINUOUS
 10
20.6950264997
 20
24.4211333795
 40
31.5013193435
100
AcDbArc
 50
179.3001653114
 51
180.4007718005
  0
ARC
  5
50A
100
AcDbEntity
  8
0
100
AcDbCircle
 62
7
  6
CONTINUOUS
 10
41.5207923688
 20
23.8084382281
 40
31.0195249849
100
AcDbArc
 50
183.0860315648
 51
183.7355198787
  0
ARC
  5
50B
100
AcDbEntity
  8
0
100
AcDbCircle
 62
7
  6
CONTINUOUS
 10
40.2158270318
 20
23.7323177214
 40
29.6823673336
100
AcDbArc
 50
183.0830269348
 51
183.8629661255
  0
ARC
  5
50C
100
AcDbEntity
  8
0
100
AcDbCircle
 62
7
  6
CONTINUOUS
 10
38.1825878829
 20
23.930759928
 40
27.6390092472
100
AcDbArc
 50
183.0543298344
 51
183.4121222384
  0
ARC
  5
50D
100
AcDbEntity
  8
0
100
AcDbCircle
 62
7
  6
CONTINUOUS
 10
31.2250584514
 20
23.5114311761
 40
20.6688567789
100
AcDbArc
 50
183.3996752391
 51
183.8335184516
  0
ARC
  5
50E
100
AcDbEntity
  8
RACCORDO
100
AcDbCircle
 62
250
  6
CONTINUOUS
 10
31.1080301873
 20
-12.1104093033
 40
20.3682025901
100
AcDbArc
 50
181.1148182282
 51
181.510232891
  0
ARC
  5
50F
100
AcDbEntity
  8
RACCORDO
100
AcDbCircle
 62
7
  6
CONTINUOUS
 10
3.5
 20
-1.6610854465
 40
15.0
100
AcDbArc
 50
278.0478462473
 51
295.5960631695
  0
ARC
  5
510
100
AcDbEntity
  8
0
100
AcDbCircle
 62
7
  6
CONTINUOUS
 10
24.9031787502
 20
23.0827913587
 40
14.3324651574
100
AcDbArc
 50
183.8134704623
 51
184.3674856407
  0
ARC
  5
511
100
AcDbEntity
  8
0
100
AcDbCircle
 62
7
  6
CONTINUOUS
 10
22.934666989
 20
23.1521744776
 40
12.3575740641
100
AcDbArc
 50
183.9910251954
 51
184.4387251908
  0
ARC
  5
512
100
AcDbEntity
  8
0
100
AcDbCircle
 62
7
  6
CONTINUOUS
 10
4.9844540142
 20
22.0791977658
 40
5.6858091396
100
AcDbArc
 50
356.9206446116
 51
357.8374942307
  0
ARC
  5
513
100
AcDbEntity
  8
RACCORDO
100
AcDbCircle
 62
250
  6
CONTINUOUS
 10
8.8905449159
 20
-12.6801369795
 40
1.8645886956
100
AcDbArc
 50
2.973278275
 51
6.0178403803
  0
ARC
  5
514
100
AcDbEntity
  8
RACCORDO
100
AcDbCircle
 62
250
  6
CONTINUOUS
 10
9.2023581227
 20
-12.6649982468
 40
1.5524103505
100
AcDbArc
 50
358.5380355352
 51
3.0122328862
  0
ARC
  5
515
100
AcDbEntity
  8
RACCORDO
100
AcDbCircle
 62
7
  6
CONTINUOUS
 10
9.4190434994
 20
-14.016445581
 40
1.3
100
AcDbArc
 50
295.5975431387
 51
358.4303025313
  0
ARC
  5
516
100
AcDbEntity
  8
RACCORDO
100
AcDbCircle
 62
250
  6
CONTINUOUS
 10
564.6410754199
 20
14.6799181351
 40
554.6737383188
100
AcDbArc
 50
182.5618770574
 51
182.755287018
  0
ARC
  5
517
100
AcDbEntity
  8
0
100
AcDbCircle
 62
250
  6
CONTINUOUS
 10
735.0976015278
 20
6.2120110282
 40
744.7546651255
100
AcDbArc
 50
177.814415141
 51
181.146966003
  0
ARC
  5
518
100
AcDbEntity
  8
0
100
AcDbCircle
 62
7
  6
CONTINUOUS
 10
739.0
 20
6.4927021425
 40
750.0275501622
100
AcDbArc
 50
178.3590100944
 51
178.407921998
  0
ARC
  5
519
100
AcDbEntity
  8
0
100
AcDbCircle
 62
7
  6
CONTINUOUS
 10
739.0
 20
6.4927021425
 40
750.0275501482
100
AcDbArc
 50
178.6471263201
 51
178.6960319018
  0
ARC
  5
51A
100
AcDbEntity
  8
0
100
AcDbCircle
 62
7
  6
CONTINUOUS
 10
739.0
 20
6.4927021425
 40
750.0275501482
100
AcDbArc
 50
178.4568315184
 51
178.5057411367
  0
ARC
  5
51B
100
AcDbEntity
  8
0
100
AcDbCircle
 62
7
  6
CONTINUOUS
 10
739.0
 20
6.4927021425
 40
750.0275501202
100
AcDbArc
 50
178.9671508607
 51
179.0160514827
  0
ARC
  5
51C
100
AcDbEntity
  8
0
100
AcDbCircle
 62
7
  6
CONTINUOUS
 10
739.0
 20
6.4927021425
 40
750.0248525566
100
AcDbArc
 50
178.8444624408
 51
178.8702069579
  0
ARC
  5
51D
100
AcDbEntity
  8
0
100
AcDbCircle
 62
7
  6
CONTINUOUS
 10
739.0
 20
6.4927021425
 40
750.0248525566
100
AcDbArc
 50
178.7929734092
 51
178.8058456684
  0
ARC
  5
51E
100
AcDbEntity
  8
0
100
AcDbCircle
 62
7
  6
CONTINUOUS
 10
739.0
 20
6.4927021425
 40
750.0213059201
100
AcDbArc
 50
178.8078845613
 51
178.8552844738
  0
ARC
  5
51F
100
AcDbEntity
  8
0
100
AcDbCircle
 62
7
  6
CONTINUOUS
 10
739.0
 20
6.4927021425
 40
750.0035493612
100
AcDbArc
 50
178.2774326442
 51
178.3263487395
  0
ARC
  5
520
100
AcDbEntity
  8
0
100
AcDbCircle
 62
7
  6
CONTINUOUS
 10
739.0
 20
6.4927021425
 40
750.0035493612
100
AcDbArc
 50
178.1203701959
 51
178.1692904506
  0
ARC
  5
521
100
AcDbEntity
  8
0
100
AcDbCircle
 62
7
  6
CONTINUOUS
 10
739.0
 20
6.4927021425
 40
750.0035493612
100
AcDbArc
 50
178.3589581782
 51
178.4078716483
  0
ARC
  5
522
100
AcDbEntity
  8
0
100
AcDbCircle
 62
7
  6
CONTINUOUS
 10
739.0
 20
6.4927021425
 40
750.0035493612
100
AcDbArc
 50
178.6220553455
 51
178.6959901665
  0
ARC
  5
523
100
AcDbEntity
  8
0
100
AcDbCircle
 62
7
  6
CONTINUOUS
 10
739.0
 20
6.4927021425
 40
750.0035493612
100
AcDbArc
 50
178.4567821237
 51
178.5307222448
  0
ARC
  5
524
100
AcDbEntity
  8
0
100
AcDbCircle
 62
7
  6
CONTINUOUS
 10
739.0
 20
6.4927021425
 40
750.0035492692
100
AcDbArc
 50
178.8071032309
 51
178.8560098469
  0
ARC
  5
525
100
AcDbEntity
  8
0
100
AcDbCircle
 62
7
  6
CONTINUOUS
 10
739.0
 20
6.4927021425
 40
750.0035492692
100
AcDbArc
 50
178.9671178049
 51
179.0816276569
  0
ARC
  5
526
100
AcDbEntity
  8
RACCORDO
100
AcDbCircle
 62
7
  6
CONTINUOUS
 10
739.0
 20
6.4927021425
 40
749.9999998747
100
AcDbArc
 50
181.4664132637
 51
181.5697001735
  0
ARC
  5
527
100
AcDbEntity
  8
RACCORDO
100
AcDbCircle
 62
7
  6
CONTINUOUS
 10
739.0
 20
6.4927021425
 40
749.9999998747
100
AcDbArc
 50
178.9345550323
 51
178.9661648101
  0
ARC
  5
528
100
AcDbEntity
  8
RACCORDO
100
AcDbCircle
 62
7
  6
CONTINUOUS
 10
739.0
 20
6.4927021425
 40
749.9999998747
100
AcDbArc
 50
178.6960274697
 51
178.7286316951
  0
ARC
  5
529
100
AcDbEntity
  8
RACCORDO
100
AcDbCircle
 62
7
  6
CONTINUOUS
 10
739.0
 20
6.4927021425
 40
749.9999998747
100
AcDbArc
 50
178.4079170003
 51
178.4567817664
  0
ARC
  5
52A
100
AcDbEntity
  8
RACCORDO
100
AcDbCircle
 62
7
  6
CONTINUOUS
 10
739.0
 20
6.4927021425
 40
749.9999998747
100
AcDbArc
 50
178.3263491927
 51
178.3589587464
  0
ARC
  5
52B
100
AcDbEntity
  8
RACCORDO
100
AcDbCircle
 62
7
  6
CONTINUOUS
 10
739.0
 20
6.4927021425
 40
749.9999998747
100
AcDbArc
 50
177.8613168289
 51
178.1203708326
  0
ARC
  5
52C
100
AcDbEntity
  8
RACCORDO
100
AcDbCircle
 62
7
  6
CONTINUOUS
 10
739.0
 20
6.4927021425
 40
749.9999944715
100
AcDbArc
 50
179.1628168237
 51
181.4620887191
  0
ARC
  5
52D
100
AcDbEntity
  8
0
100
AcDbCircle
 62
7
  6
CONTINUOUS
 10
739.0
 20
6.4927021425
 40
749.9947249652
100
AcDbArc
 50
178.8109623045
 51
179.1336186212
  0
ARC
  5
52E
100
AcDbEntity
  8
0
100
AcDbCircle
 62
7
  6
CONTINUOUS
 10
739.0
 20
6.4927021425
 40
749.9757781404
100
AcDbArc
 50
178.810960702
 51
179.1336251698
  0
ARC
  5
52F
100
AcDbEntity
  8
0
100
AcDbCircle
 62
7
  6
CONTINUOUS
 10
739.0
 20
6.4927021425
 40
749.9735473773
100
AcDbArc
 50
178.6220002115
 51
178.6959379918
  0
ARC
  5
530
100
AcDbEntity
  8
0
100
AcDbCircle
 62
7
  6
CONTINUOUS
 10
739.0
 20
6.4927021425
 40
749.9735473773
100
AcDbArc
 50
178.4771245746
 51
178.5306634549
  0
ARC
  5
531
100
AcDbEntity
  8
0
100
AcDbCircle
 62
7
  6
CONTINUOUS
 10
739.0
 20
6.4927021425
 40
749.9735473773
100
AcDbArc
 50
178.2773637138
 51
178.3181287584
  0
ARC
  5
532
100
AcDbEntity
  8
0
100
AcDbCircle
 62
7
  6
CONTINUOUS
 10
739.0
 20
6.4927021425
 40
749.9735473773
100
AcDbArc
 50
178.1459616097
 51
178.1692171899
  0
ARC
  5
533
100
AcDbEntity
  8
0
100
AcDbCircle
 62
7
  6
CONTINUOUS
 10
739.0
 20
6.4927021425
 40
749.9735472853
100
AcDbArc
 50
178.8070555033
 51
178.8109607016
  0
ARC
  5
534
100
AcDbEntity
  8
0
100
AcDbCircle
 62
7
  6
CONTINUOUS
 10
739.0
 20
6.4927021425
 40
749.9501049105
100
AcDbArc
 50
178.906003248
 51
178.9100241809
  0
ARC
  5
535
100
AcDbEntity
  8
0
100
AcDbCircle
 62
7
  6
CONTINUOUS
 10
739.0
 20
6.4927021425
 40
749.9392378319
100
AcDbArc
 50
178.909684716
 51
178.9970369096
  0
ARC
  5
536
100
AcDbEntity
  8
0
100
AcDbCircle
 62
7
  6
CONTINUOUS
 10
739.0
 20
6.4927021425
 40
749.925768861
100
AcDbArc
 50
178.8997453102
 51
178.9019104915
  0
ARC
  5
537
100
AcDbEntity
  8
0
100
AcDbCircle
 62
7
  6
CONTINUOUS
 10
738.9992594983
 20
6.509056044
 40
749.904760203
100
AcDbArc
 50
178.3255539958
 51
178.4392737578
  0
ARC
  5
538
100
AcDbEntity
  8
0
100
AcDbCircle
 62
7
  6
CONTINUOUS
 10
739.0
 20
6.4927021425
 40
749.866258696
100
AcDbArc
 50
178.9456828747
 51
179.0160558848
  0
ARC
  5
539
100
AcDbEntity
  8
0
100
AcDbCircle
 62
7
  6
CONTINUOUS
 10
739.0
 20
6.4927021425
 40
749.8662586883
100
AcDbArc
 50
179.0864223827
 51
179.0904485479
  0
ARC
  5
53A
100
AcDbEntity
  8
0
100
AcDbCircle
 62
7
  6
CONTINUOUS
 10
739.0
 20
6.4927021425
 40
749.864659672
100
AcDbArc
 50
179.0811605202
 51
179.0864268262
  0
ARC
  5
53B
100
AcDbEntity
  8
0
100
AcDbCircle
 62
7
  6
CONTINUOUS
 10
739.0
 20
6.4927021425
 40
749.8482882851
100
AcDbArc
 50
179.0421866543
 51
179.0542980173
  0
ARC
  5
53C
100
AcDbEntity
  8
0
100
AcDbCircle
 62
7
  6
CONTINUOUS
 10
739.0
 20
6.4927021425
 40
749.8482882695
100
AcDbArc
 50
179.0583346751
 51
179.0836616344
  0
ARC
  5
53D
100
AcDbEntity
  8
0
100
AcDbCircle
 62
7
  6
CONTINUOUS
 10
739.0
 20
6.4927021425
 40
749.8415456115
100
AcDbArc
 50
179.0597392329
 51
179.0723438225
  0
ARC
  5
53E
100
AcDbEntity
  8
0
100
AcDbCircle
 62
7
  6
CONTINUOUS
 10
739.0
 20
6.4927021425
 40
749.8415456082
100
AcDbArc
 50
178.8913646188
 51
178.895390416
  0
ARC
  5
53F
100
AcDbEntity
  8
0
100
AcDbCircle
 62
7
  6
CONTINUOUS
 10
739.0
 20
6.4927021425
 40
749.8415456082
100
AcDbArc
 50
179.0539470341
 51
179.0557025384
  0
ARC
  5
540
100
AcDbEntity
  8
0
100
AcDbCircle
 62
7
  6
CONTINUOUS
 10
739.0
 20
6.4927021425
 40
749.8346919836
100
AcDbArc
 50
178.8848277108
 51
178.8913743848
  0
ARC
  5
541
100
AcDbEntity
  8
0
100
AcDbCircle
 62
7
  6
CONTINUOUS
 10
739.0
 20
6.4927021425
 40
749.8346919836
100
AcDbArc
 50
178.9336759098
 51
178.9558694948
  0
ARC
  5
542
100
AcDbEntity
  8
0
100
AcDbCircle
 62
7
  6
CONTINUOUS
 10
739.0
 20
6.4927021425
 40
749.8346919836
100
AcDbArc
 50
178.8491473154
 51
178.8795675324
  0
ARC
  5
543
100
AcDbEntity
  8
0
100
AcDbCircle
 62
7
  6
CONTINUOUS
 10
739.0
 20
6.4927021425
 40
749.8197596317
100
AcDbArc
 50
178.8913643561
 51
178.91147269
  0
ARC
  5
544
100
AcDbEntity
  8
0
100
AcDbCircle
 62
7
  6
CONTINUOUS
 10
739.0
 20
6.4927021425
 40
749.8170725216
100
AcDbArc
 50
178.9536980962
 51
179.0079893648
  0
ARC
  5
545
100
AcDbEntity
  8
0
100
AcDbCircle
 62
7
  6
CONTINUOUS
 10
739.0
 20
6.4927021425
 40
749.7982630428
100
AcDbArc
 50
179.0803405279
 51
179.0836004927
  0
ARC
  5
546
100
AcDbEntity
  8
0
100
AcDbCircle
 62
7
  6
CONTINUOUS
 10
739.0
 20
6.4927021425
 40
749.7846650556
100
AcDbArc
 50
178.8490705182
 51
178.8795017823
  0
ARC
  5
547
100
AcDbEntity
  8
0
100
AcDbCircle
 62
7
  6
CONTINUOUS
 10
739.0
 20
6.4927021425
 40
749.7697308351
100
AcDbArc
 50
178.8912903725
 51
178.9114000487
  0
ARC
  5
548
100
AcDbEntity
  8
0
100
AcDbCircle
 62
7
  6
CONTINUOUS
 10
739.0
 20
6.4927021425
 40
749.7670433887
100
AcDbArc
 50
178.9536282727
 51
179.0079231651
  0
ARC
  5
549
100
AcDbEntity
  8
0
100
AcDbCircle
 62
250
  6
CONTINUOUS
 10
766.3230860841
 20
6.2223586172
 40
776.9862304433
100
AcDbArc
 50
177.9053085952
 51
181.0992631753
  0
ARC
  5
54A
100
AcDbEntity
  8
RACCORDO
100
AcDbCircle
 62
250
  6
CONTINUOUS
 10
0.0015975332
 20
31.4597521729
 40
43.988715175
100
AcDbArc
 50
269.9979191956
 51
276.154149086
  0
ARC
  5
54B
100
AcDbEntity
  8
0
100
AcDbCircle
 62
250
  6
CONTINUOUS
 10
-0.0015975332
 20
31.4597521729
 40
43.988715175
100
AcDbArc
 50
263.845850914
 51
270.0020808044
  0
ARC
  5
54C
100
AcDbEntity
  8
RACCORDO
100
AcDbCircle
 62
250
  6
CONTINUOUS
 10
0.0020212358
 20
33.5607627528
 40
43.596309214
100
AcDbArc
 50
269.997343622
 51
275.9565143825
  0
ARC
  5
54D
100
AcDbEntity
  8
0
100
AcDbCircle
 62
250
  6
CONTINUOUS
 10
-0.0020212358
 20
33.5607627528
 40
43.596309214
100
AcDbArc
 50
264.0434856175
 51
270.002656378
  0
ARC
  5
54E
100
AcDbEntity
  8
0
100
AcDbCircle
 62
7
  6
CONTINUOUS
 10
28.5382324036
 20
27.7973434664
 40
39.2488891509
100
AcDbArc
 50
176.3507640683
 51
177.1553173627
  0
ARC
  5
54F
100
AcDbEntity
  8
0
100
AcDbCircle
 62
7
  6
CONTINUOUS
 10
28.5653926406
 20
27.7973816995
 40
39.2460360414
100
AcDbArc
 50
176.3505543464
 51
177.1551662756
  0
ARC
  5
550
100
AcDbEntity
  8
0
100
AcDbCircle
 62
7
  6
CONTINUOUS
 10
28.5150279436
 20
28.4061973729
 40
39.2071739779
100
AcDbArc
 50
176.7396005465
 51
177.5748090713
  0
ARC
  5
551
100
AcDbEntity
  8
0
100
AcDbCircle
 62
7
  6
CONTINUOUS
 10
28.4041019694
 20
29.2628471148
 40
39.0693716569
100
AcDbArc
 50
179.2925840398
 51
179.8689849881
  0
ARC
  5
552
100
AcDbEntity
  8
0
100
AcDbCircle
 62
7
  6
CONTINUOUS
 10
28.4312563405
 20
29.2628886504
 40
39.0665107662
100
AcDbArc
 50
179.2925931538
 51
179.8690363117
  0
ARC
  5
553
100
AcDbEntity
  8
0
100
AcDbCircle
 62
7
  6
CONTINUOUS
 10
28.3995924223
 20
29.2628663647
 40
39.0648620775
100
AcDbArc
 50
179.8689980976
 51
180.0995754882
  0
ARC
  5
554
100
AcDbEntity
  8
0
100
AcDbCircle
 62
7
  6
CONTINUOUS
 10
28.4267472478
 20
29.2629078958
 40
39.0620016413
100
AcDbArc
 50
179.869049423
 51
180.099643698
  0
ARC
  5
555
100
AcDbEntity
  8
0
100
AcDbCircle
 62
7
  6
CONTINUOUS
 10
20.7122920288
 20
25.0342929508
 40
31.5030196004
100
AcDbArc
 50
180.1956936837
 51
180.9203049361
  0
ARC
  5
556
100
AcDbEntity
  8
0
100
AcDbCircle
 62
7
  6
CONTINUOUS
 10
20.7399860532
 20
25.0343202238
 40
31.5007036989
100
AcDbArc
 50
180.1957576782
 51
180.9204222144
  0
ARC
  5
557
100
AcDbEntity
  8
0
100
AcDbCircle
 62
7
  6
CONTINUOUS
 10
39.1790786682
 20
25.5401594104
 40
28.6736137215
100
AcDbArc
 50
179.2808406726
 51
179.6251561275
  0
ARC
  5
558
100
AcDbEntity
  8
0
100
AcDbCircle
 62
7
  6
CONTINUOUS
 10
38.9951571999
 20
25.8674559932
 40
28.5411953709
100
AcDbArc
 50
179.0746984058
 51
179.4252046427
  0
ARC
  5
559
100
AcDbEntity
  8
0
100
AcDbCircle
 62
7
  6
CONTINUOUS
 10
38.9730812763
 20
25.8682665624
 40
28.4890810564
100
AcDbArc
 50
179.0744861246
 51
179.4184959323
  0
ARC
  5
55A
100
AcDbEntity
  8
0
100
AcDbCircle
 62
7
  6
CONTINUOUS
 10
32.1636159383
 20
25.6258662704
 40
21.6576279998
100
AcDbArc
 50
178.8611771619
 51
179.2746143007
  0
ARC
  5
55B
100
AcDbEntity
  8
0
100
AcDbCircle
 62
7
  6
CONTINUOUS
 10
1.2537840738
 20
24.9193372616
 40
9.3464486097
100
AcDbArc
 50
3.5048716878
 51
4.4563105404
  0
ARC
  5
55C
100
AcDbEntity
  8
RACCORDO
100
AcDbCircle
 62
7
  6
CONTINUOUS
 10
6.4
 20
28.3362912265
 40
8.0
100
AcDbArc
 50
65.499080529
 51
85.4114342642
  0
ARC
  5
55D
100
AcDbEntity
  8
RACCORDO
100
AcDbCircle
 62
250
  6
CONTINUOUS
 10
6.5605459657
 20
27.8085760375
 40
7.2694033293
100
AcDbArc
 50
69.424739234
 51
85.5955114333
  0
ARC
  5
55E
100
AcDbEntity
  8
RACCORDO
100
AcDbCircle
 62
7
  6
CONTINUOUS
 10
9.1784737047
 20
34.4330187205
 40
1.3000000328
100
AcDbArc
 50
2.138674542
 51
65.4997162157
  0
ARC
  5
55F
100
AcDbEntity
  8
RACCORDO
100
AcDbCircle
 62
7
  6
CONTINUOUS
 10
5.2
 20
37.2927021425
 40
0.8
100
AcDbArc
 50
0.0
 51
90.0
  0
ARC
  5
560
100
AcDbEntity
  8
RACCORDO
100
AcDbCircle
 62
7
  6
CONTINUOUS
 10
4.3
 20
38.7927021425
 40
0.8
100
AcDbArc
 50
0.0
 51
90.0
  0
ARC
  5
561
100
AcDbEntity
  8
0
100
AcDbCircle
 62
250
  6
CONTINUOUS
 10
6.9613411971
 20
107.873622676
 40
118.2331753935
100
AcDbArc
 50
263.9824860955
 51
264.4243586721
  0
ARC
  5
562
100
AcDbEntity
  8
0
100
AcDbCircle
 62
250
  6
CONTINUOUS
 10
6.924782202
 20
95.5884362402
 40
108.4903647789
100
AcDbArc
 50
263.3706478069
 51
263.8397099857
  0
ARC
  5
563
100
AcDbEntity
  8
0
100
AcDbCircle
 62
7
  6
CONTINUOUS
 10
99.7745210544
 20
27.4024859098
 40
110.4065714683
100
AcDbArc
 50
178.1229728375
 51
178.2589413498
  0
ARC
  5
564
100
AcDbEntity
  8
0
100
AcDbCircle
 62
7
  6
CONTINUOUS
 10
92.8713475431
 20
26.0274212131
 40
82.4197521593
100
AcDbArc
 50
181.1961329202
 51
181.5509003575
  0
ARC
  5
565
100
AcDbEntity
  8
0
100
AcDbCircle
 62
7
  6
CONTINUOUS
 10
92.8159757825
 20
26.025957957
 40
82.3343375047
100
AcDbArc
 50
181.1904338243
 51
181.6013188995
  0
ARC
  5
566
100
AcDbEntity
  8
0
100
AcDbCircle
 62
7
  6
CONTINUOUS
 10
91.4917127958
 20
26.0000374834
 40
81.0398464205
100
AcDbArc
 50
181.0218142585
 51
181.1971383074
  0
ARC
  5
567
100
AcDbEntity
  8
0
100
AcDbCircle
 62
7
  6
CONTINUOUS
 10
91.1137663932
 20
25.9910760462
 40
80.6317708224
100
AcDbArc
 50
180.9842854936
 51
181.1907819122
  0
ARC
  5
568
100
AcDbEntity
  8
0
100
AcDbCircle
 62
7
  6
CONTINUOUS
 10
90.623149326
 20
25.9667116111
 40
80.1707344065
100
AcDbArc
 50
181.551014812
 51
181.7370595309
  0
ARC
  5
569
100
AcDbEntity
  8
0
100
AcDbCircle
 62
7
  6
CONTINUOUS
 10
89.609342345
 20
25.9348309611
 40
79.1264098492
100
AcDbArc
 50
181.6002449349
 51
181.8111356267
  0
ARC
  5
56A
100
AcDbEntity
  8
0
100
AcDbCircle
 62
7
  6
CONTINUOUS
 10
68.0682438396
 20
24.7601348705
 40
78.7929454309
100
AcDbArc
 50
177.5487831578
 51
178.2308276358
  0
ARC
  5
56B
100
AcDbEntity
  8
0
100
AcDbCircle
 62
7
  6
CONTINUOUS
 10
88.8834747391
 20
25.9532726116
 40
78.4311891698
100
AcDbArc
 50
180.8789821357
 51
181.0216356289
  0
ARC
  5
56C
100
AcDbEntity
  8
0
100
AcDbCircle
 62
7
  6
CONTINUOUS
 10
87.8878747933
 20
25.9365925474
 40
77.4054193
100
AcDbArc
 50
180.7743217777
 51
180.9849808999
  0
ARC
  5
56D
100
AcDbEntity
  8
0
100
AcDbCircle
 62
7
  6
CONTINUOUS
 10
63.4451534111
 20
24.6862823691
 40
74.1084292125
100
AcDbArc
 50
178.2620886134
 51
178.4592687407
  0
ARC
  5
56E
100
AcDbEntity
  8
0
100
AcDbCircle
 62
7
  6
CONTINUOUS
 10
63.058528839
 20
28.6023641664
 40
73.6553319632
100
AcDbArc
 50
178.1791720884
 51
178.3237549367
  0
ARC
  5
56F
100
AcDbEntity
  8
0
100
AcDbCircle
 62
7
  6
CONTINUOUS
 10
63.0997894241
 20
28.6024905551
 40
73.6465548953
100
AcDbArc
 50
178.1790533906
 51
178.3236534781
  0
ARC
  5
570
100
AcDbEntity
  8
0
100
AcDbCircle
 62
7
  6
CONTINUOUS
 10
62.1167709475
 20
24.7231553512
 40
72.8295471384
100
AcDbArc
 50
178.1631250153
 51
178.4612257794
  0
ARC
  5
571
100
AcDbEntity
  8
0
100
AcDbCircle
 62
7
  6
CONTINUOUS
 10
83.209601625
 20
25.7357345249
 40
72.7535922136
100
AcDbArc
 50
181.7322194997
 51
182.3254610348
  0
ARC
  5
572
100
AcDbEntity
  8
0
100
AcDbCircle
 62
7
  6
CONTINUOUS
 10
83.013216751
 20
25.7244159018
 40
72.5269292895
100
AcDbArc
 50
181.8096826008
 51
182.2498478771
  0
ARC
  5
573
100
AcDbEntity
  8
0
100
AcDbCircle
 62
7
  6
CONTINUOUS
 10
82.8740401853
 20
32.8456688825
 40
72.3228232293
100
AcDbArc
 50
181.4088555315
 51
181.7797730154
  0
ARC
  5
574
100
AcDbEntity
  8
0
100
AcDbCircle
 62
7
  6
CONTINUOUS
 10
81.5332719854
 20
25.8496855917
 40
71.0802628485
100
AcDbArc
 50
180.4825288128
 51
180.8863828236
  0
ARC
  5
575
100
AcDbEntity
  8
0
100
AcDbCircle
 62
7
  6
CONTINUOUS
 10
81.2038108709
 20
25.7523950805
 40
70.7002117107
100
AcDbArc
 50
181.2488183138
 51
181.440193688
  0
ARC
  5
576
100
AcDbEntity
  8
0
100
AcDbCircle
 62
7
  6
CONTINUOUS
 10
79.9687178365
 20
25.7206350573
 40
69.4647106007
100
AcDbArc
 50
181.4396098728
 51
181.6341345014
  0
ARC
  5
577
100
AcDbEntity
  8
0
100
AcDbCircle
 62
7
  6
CONTINUOUS
 10
79.9180381285
 20
25.7250738374
 40
69.4141489263
100
AcDbArc
 50
181.0547736581
 51
181.2494024788
  0
ARC
  5
578
100
AcDbEntity
  8
0
100
AcDbCircle
 62
7
  6
CONTINUOUS
 10
77.428924675
 20
25.6480919094
 40
66.9238816407
100
AcDbArc
 50
181.6340609128
 51
181.8346283354
  0
ARC
  5
579
100
AcDbEntity
  8
0
100
AcDbCircle
 62
7
  6
CONTINUOUS
 10
77.3356389044
 20
25.6776132821
 40
66.8313136143
100
AcDbArc
 50
180.8540437777
 51
181.0548464396
  0
ARC
  5
57A
100
AcDbEntity
  8
0
100
AcDbCircle
 62
7
  6
CONTINUOUS
 10
76.9984702775
 20
25.8022074617
 40
66.5151943355
100
AcDbArc
 50
180.3142836963
 51
180.7853365735
  0
ARC
  5
57B
100
AcDbEntity
  8
0
100
AcDbCircle
 62
7
  6
CONTINUOUS
 10
72.1815512604
 20
25.7705104282
 40
61.7282069769
100
AcDbArc
 50
180.2630781168
 51
180.4821429199
  0
ARC
  5
57C
100
AcDbEntity
  8
0
100
AcDbCircle
 62
7
  6
CONTINUOUS
 10
71.471746421
 20
25.2801584318
 40
60.9769162136
100
AcDbArc
 50
182.2584646373
 51
182.5048440001
  0
ARC
  5
57D
100
AcDbEntity
  8
0
100
AcDbCircle
 62
7
  6
CONTINUOUS
 10
69.0502994756
 20
25.1804870891
 40
58.5834244871
100
AcDbArc
 50
182.3447622438
 51
182.5698772845
  0
ARC
  5
57E
100
AcDbEntity
  8
0
100
AcDbCircle
 62
7
  6
CONTINUOUS
 10
67.9895273171
 20
25.5520866962
 40
57.4843582695
100
AcDbArc
 50
180.2085186665
 51
180.7985927299
  0
ARC
  5
57F
100
AcDbEntity
  8
0
100
AcDbCircle
 62
7
  6
CONTINUOUS
 10
65.8621163987
 20
25.7417564162
 40
55.3786764076
100
AcDbArc
 50
180.0493950181
 51
180.3149413365
  0
ARC
  5
580
100
AcDbEntity
  8
0
100
AcDbCircle
 62
7
  6
CONTINUOUS
 10
65.2639336819
 20
25.2272027814
 40
54.7516290466
100
AcDbArc
 50
181.8699075375
 51
182.495084292
  0
ARC
  5
581
100
AcDbEntity
  8
0
100
AcDbCircle
 62
7
  6
CONTINUOUS
 10
64.5498805118
 20
25.7387140226
 40
54.096470778
100
AcDbArc
 50
180.0198816917
 51
180.2665152703
  0
ARC
  5
582
100
AcDbEntity
  8
0
100
AcDbCircle
 62
7
  6
CONTINUOUS
 10
63.3679669666
 20
26.1696523699
 40
52.7105230558
100
AcDbArc
 50
180.130883667
 51
180.4079105766
  0
ARC
  5
583
100
AcDbEntity
  8
0
100
AcDbCircle
 62
7
  6
CONTINUOUS
 10
62.5619119603
 20
24.893166963
 40
52.0586818866
100
AcDbArc
 50
182.5078952625
 51
182.7811318062
  0
ARC
  5
584
100
AcDbEntity
  8
0
100
AcDbCircle
 62
7
  6
CONTINUOUS
 10
60.9302098013
 20
24.8179913549
 40
50.4552478752
100
AcDbArc
 50
182.5720980738
 51
182.8175047369
  0
ARC
  5
585
100
AcDbEntity
  8
0
100
AcDbCircle
 62
7
  6
CONTINUOUS
 10
53.1425678886
 20
32.1092101258
 40
42.5822319466
100
AcDbArc
 50
181.2720631965
 51
181.4018081209
  0
ARC
  5
586
100
AcDbEntity
  8
0
100
AcDbCircle
 62
7
  6
CONTINUOUS
 10
51.2849668697
 20
25.4792804948
 40
40.7796452496
100
AcDbArc
 50
179.6508982691
 51
180.1916412399
  0
ARC
  5
587
100
AcDbEntity
  8
0
100
AcDbCircle
 62
7
  6
CONTINUOUS
 10
50.6621992682
 20
25.7517008242
 40
40.1787801095
100
AcDbArc
 50
179.4214520226
 51
180.0822624311
  0
ARC
  5
588
100
AcDbEntity
  8
0
100
AcDbCircle
 62
7
  6
CONTINUOUS
 10
50.3469164057
 20
25.7543288472
 40
39.8935182348
100
AcDbArc
 50
179.4262937217
 51
180.0493862965
  0
ARC
  5
589
100
AcDbEntity
  8
RACCORDO
100
AcDbCircle
 62
250
  6
CONTINUOUS
 10
-51.0433280278
 20
0.1387000456
 40
12.8844316892
100
AcDbArc
 50
266.8493019075
 51
274.801970361
  0
ARC
  5
58A
100
AcDbEntity
  8
RACCORDO
100
AcDbCircle
 62
7
  6
CONTINUOUS
 10
-65.1169005163
 20
-9.9394298815
 40
2.9999999949
100
AcDbArc
 50
181.8360933508
 51
239.6751856914
  0
ARC
  5
58B
100
AcDbEntity
  8
RACCORDO
100
AcDbCircle
 62
7
  6
CONTINUOUS
 10
-49.9647573047
 20
-16.4172978575
 40
0.49
100
AcDbArc
 50
270.0
 51
360.0
  0
CIRCLE
  5
58C
100
AcDbEntity
  8
DRAFT
100
AcDbCircle
 62
7
  6
CONTINUOUS
 10
-62.9741870708
 20
16.3924436181
 40
3.0140324773
  0
ARC
  5
58D
100
AcDbEntity
  8
DRAFT
100
AcDbCircle
 62
7
  6
CONTINUOUS
 10
-62.9747573047
 20
16.3927021425
 40
3.0
100
AcDbArc
 50
180.0
 51
360.0
  0
ARC
  5
58E
100
AcDbEntity
  8
0
100
AcDbCircle
 62
7
  6
CONTINUOUS
 10
-62.9747573047
 20
24.0927021425
 40
2.9735749324
100
AcDbArc
 50
22.0885434728
 51
3.4298223208
  0
CIRCLE
  5
58F
100
AcDbEntity
  8
0
100
AcDbCircle
 62
7
  6
CONTINUOUS
 10
-62.9747573047
 20
24.0927021425
 40
2.497595
  0
ARC
  5
590
100
AcDbEntity
  8
0
100
AcDbCircle
 62
7
  6
CONTINUOUS
 10
-62.9747573047
 20
24.0927021425
 40
2.2337503191
100
AcDbArc
 50
29.3041411838
 51
134.9957558874
  0
ARC
  5
591
100
AcDbEntity
  8
0
100
AcDbCircle
 62
7
  6
CONTINUOUS
 10
-62.9747573047
 20
24.0927021425
 40
2.2337501706
100
AcDbArc
 50
224.9002628452
 51
330.6958588162
  0
ARC
  5
592
100
AcDbEntity
  8
0
100
AcDbCircle
 62
7
  6
CONTINUOUS
 10
-62.9747573047
 20
24.0927021425
 40
1.7896378839
100
AcDbArc
 50
29.3041347443
 51
121.9732647666
  0
ARC
  5
593
100
AcDbEntity
  8
0
100
AcDbCircle
 62
7
  6
CONTINUOUS
 10
-62.9747573047
 20
24.0927021425
 40
1.78963742
100
AcDbArc
 50
238.02673736
 51
330.6958652557
  0
CIRCLE
  5
594
100
AcDbEntity
  8
0
100
AcDbCircle
 62
7
  6
CONTINUOUS
 10
-62.9747573047
 20
16.3927021425
 40
1.65
  0
CIRCLE
  5
595
100
AcDbEntity
  8
0
100
AcDbCircle
 62
7
  6
CONTINUOUS
 10
-62.9747573047
 20
16.3927021425
 40
1.35
  0
CIRCLE
  5
596
100
AcDbEntity
  8
0
100
AcDbCircle
 62
7
  6
CONTINUOUS
 10
-62.9747573047
 20
16.3927021425
 40
1.15
  0
ARC
  5
597
100
AcDbEntity
  8
RACCORDO
100
AcDbCircle
 62
250
  6
CONTINUOUS
 10
-66.6779865397
 20
35.1739782962
 40
1.3024555036
100
AcDbArc
 50
90.1859467841
 51
177.9542836544
  0
ARC
  5
598
100
AcDbEntity
  8
RACCORDO
100
AcDbCircle
 62
7
  6
CONTINUOUS
 10
-66.799380918
 20
35.2927021
 40
1.2999999994
100
AcDbArc
 50
90.000001746
 51
178.1217839495
  0
ARC
  5
599
100
AcDbEntity
  8
RACCORDO
100
AcDbCircle
 62
7
  6
CONTINUOUS
 10
-62.1747573047
 20
37.2927021425
 40
0.8
100
AcDbArc
 50
90.0
 51
180.0
  0
ARC
  5
59A
100
AcDbEntity
  8
RACCORDO
100
AcDbCircle
 62
7
  6
CONTINUOUS
 10
-61.2747573047
 20
38.7927021425
 40
0.8
100
AcDbArc
 50
90.0
 51
180.0
  0
ARC
  5
59B
100
AcDbEntity
  8
RACCORDO
100
AcDbCircle
 62
7
  6
CONTINUOUS
 10
-50.4747573047
 20
15.0927021425
 40
32.0
100
AcDbArc
 50
239.6751864767
 51
270.0
  0
ARC
  5
59C
100
AcDbEntity
  8
RACCORDO
100
AcDbCircle
 62
250
  6
CONTINUOUS
 10
-50.4747573047
 20
15.0927021425
 40
31.6060601424
100
AcDbArc
 50
239.630745558
 51
270.0
  0
ARC
  5
59D
100
AcDbEntity
  8
0
100
AcDbCircle
 62
7
  6
CONTINUOUS
 10
-57.3691853047
 20
24.0027641425
 40
2.6508884458
100
AcDbArc
 50
137.2312789315
 51
174.2011738916
  0
ARC
  5
59E
100
AcDbEntity
  8
0
100
AcDbCircle
 62
7
  6
CONTINUOUS
 10
-57.7985703047
 20
24.2113871425
 40
2.6190759282
100
AcDbArc
 50
135.4348969444
 51
157.5658550007
  0
ARC
  5
59F
100
AcDbEntity
  8
RACCORDO
100
AcDbCircle
 62
7
  6
CONTINUOUS
 10
-54.3559198695
 20
37.9310074317
 40
1.6584774472
100
AcDbArc
 50
77.0731726009
 51
80.6149544662
  0
ARC
  5
5A0
100
AcDbEntity
  8
RACCORDO
100
AcDbCircle
 62
7
  6
CONTINUOUS
 10
-53.0836354055
 20
36.6949330013
 40
1.3977692067
100
AcDbArc
 50
85.1102163931
 51
90.0175389144
  0
ARC
  5
5A1
100
AcDbEntity
  8
0
100
AcDbCircle
 62
7
  6
CONTINUOUS
 10
-53.5935243047
 20
30.4716941425
 40
0.9813965052
100
AcDbArc
 50
22.8428400969
 51
180.0
  0
ARC
  5
5A2
100
AcDbEntity
  8
RACCORDO
100
AcDbCircle
 62
7
  6
CONTINUOUS
 10
-51.7747573047
 20
37.2927021425
 40
0.8
100
AcDbArc
 50
0.0
 51
90.0
  0
ARC
  5
5A3
100
AcDbEntity
  8
RACCORDO
100
AcDbCircle
 62
7
  6
CONTINUOUS
 10
-52.6747573047
 20
38.7927021425
 40
0.8
100
AcDbArc
 50
0.0
 51
90.0
  0
ARC
  5
5A4
100
AcDbEntity
  8
RACCORDO
100
AcDbCircle
 62
7
  6
CONTINUOUS
 10
-52.7147160021
 20
37.288656666
 40
0.6838837871
100
AcDbArc
 50
7.0635970658
 51
20.538648954
  0
ARC
  5
5A5
100
AcDbEntity
  8
RACCORDO
100
AcDbCircle
 62
7
  6
CONTINUOUS
 10
-52.6867620296
 20
37.2923515336
 40
0.6556876564
100
AcDbArc
 50
0.030637167
 51
7.0435604346
  0
ARC
  5
5A6
100
AcDbEntity
  8
RACCORDO
100
AcDbCircle
 62
7
  6
CONTINUOUS
 10
-49.9747573047
 20
36.0927021425
 40
0.5
100
AcDbArc
 50
0.0
 51
90.0
  0
ARC
  5
5A7
100
AcDbEntity
  8
RACCORDO
100
AcDbCircle
 62
7
  6
CONTINUOUS
 10
-49.9654159123
 20
36.0320583907
 40
0.4929903449
100
AcDbArc
 50
74.9194433725
 51
89.9234560041
  0
ARC
  5
5A8
100
AcDbEntity
  8
RACCORDO
100
AcDbCircle
 62
7
  6
CONTINUOUS
 10
-49.966591978
 20
36.0328274018
 40
0.4927898568
100
AcDbArc
 50
45.0682933757
 51
60.0668373562
  0
ARC
  5
5A9
100
AcDbEntity
  8
RACCORDO
100
AcDbCircle
 62
7
  6
CONTINUOUS
 10
-49.9646651329
 20
36.0350891452
 40
0.4898686353
100
AcDbArc
 50
60.1301408622
 51
74.9120035804
  0
ARC
  5
5AA
100
AcDbEntity
  8
RACCORDO
100
AcDbCircle
 62
7
  6
CONTINUOUS
 10
-49.9621891924
 20
36.0344956989
 40
0.4874319186
100
AcDbArc
 50
0.0203924601
 51
6.8327728562
  0
ARC
  5
5AB
100
AcDbEntity
  8
0
100
AcDbCircle
 62
7
  6
CONTINUOUS
 10
-53.5935243047
 20
30.3828601425
 40
0.389369
100
AcDbArc
 50
0.0
 51
180.0
  0
ARC
  5
5AC
100
AcDbEntity
  8
0
100
AcDbCircle
 62
7
  6
CONTINUOUS
 10
-32.2247573047
 20
9.5927021425
 40
2.2
100
AcDbArc
 50
294.6199773287
 51
65.3800226713
  0
ARC
  5
5AD
100
AcDbEntity
  8
0
100
AcDbCircle
 62
7
  6
CONTINUOUS
 10
-32.2247573047
 20
-9.4072978575
 40
2.2
100
AcDbArc
 50
294.6199773287
 51
65.3800226713
  0
ARC
  5
5AE
100
AcDbEntity
  8
0
100
AcDbCircle
 62
7
  6
CONTINUOUS
 10
-31.8247573047
 20
0.0927021425
 40
2.2
100
AcDbArc
 50
294.6199773287
 51
65.3800226713
  0
ARC
  5
5AF
100
AcDbEntity
  8
RACCORDO
100
AcDbCircle
 62
7
  6
CONTINUOUS
 10
-49.1747573047
 20
-12.5072978575
 40
0.15
100
AcDbArc
 50
270.0
 51
360.0
  0
ARC
  5
5B0
100
AcDbEntity
  8
RACCORDO
100
AcDbCircle
 62
7
  6
CONTINUOUS
 10
-49.1747573047
 20
12.6927021425
 40
0.15
100
AcDbArc
 50
0.0
 51
90.0
  0
ARC
  5
5B1
100
AcDbEntity
  8
0
100
AcDbCircle
 62
7
  6
CONTINUOUS
 10
-56.9747820436
 20
124.5210592401
 40
88.1328297799
100
AcDbArc
 50
266.0963540526
 51
273.1929926404
  0
ARC
  5
5B2
100
AcDbEntity
  8
0
100
AcDbCircle
 62
7
  6
CONTINUOUS
 10
631.5252426953
 20
12.3927021425
 40
700.0
100
AcDbArc
 50
178.1217856426
 51
181.8360917422
  0
ARC
  5
5B3
100
AcDbEntity
  8
RACCORDO
100
AcDbCircle
 62
7
  6
CONTINUOUS
 10
631.5252426953
 20
12.3927021425
 40
700.0
100
AcDbArc
 50
178.1217856426
 51
181.8360917422
  0
ARC
  5
5B4
100
AcDbEntity
  8
RACCORDO
100
AcDbCircle
 62
250
  6
CONTINUOUS
 10
631.5252426953
 20
12.3927021425
 40
699.8772379082
100
AcDbArc
 50
178.1308623676
 51
181.8171343272
  0
SPLINE
  5
5B5
100
AcDbEntity
  8
DRAFT
100
AcDbSpline
 62
7
  6
CONTINUOUS
 70
0
 71
3
 72
19
 73
15
 74
0
 42
0.0000001
 43
0.0000001
 44
0.0000000001
 40
0.0
 40
0.0
 40
0.0
 40
0.0
 40
0.1946060039
 40
0.3820969088
 40
0.5546633615
 40
0.7059072389
 40
0.7717327102
 40
0.8301234979
 40
0.8805116078
 40
0.9224693632
 40
0.9555841844
 40
0.9795369213
 40
0.9942337169
 40
1.0
 40
1.0
 40
1.0
 40
1.0
 10
10.613961951
 20
16.3927021425
 30
0.0
 10
10.6113763523
 20
16.588525653
 30
0.0
 10
10.6076518381
 20
16.9730317677
 30
0.0
 10
10.6062251266
 20
17.5312193127
 30
0.0
 10
10.6090227954
 20
18.045755766
 30
0.0
 10
10.614854146
 20
18.437846454
 30
0.0
 10
10.621745315
 20
18.7149412122
 30
0.0
 10
10.6275204433
 20
18.8906326957
 30
0.0
 10
10.6340597322
 20
19.0419713776
 30
0.0
 10
10.6412563106
 20
19.1686425192
 30
0.0
 10
10.6489297534
 20
19.266402227
 30
0.0
 10
10.6569676653
 20
19.3419038379
 30
0.0
 10
10.6647018904
 20
19.3792068571
 30
0.0
 10
10.6716738064
 20
19.4065002001
 30
0.0
 10
10.6774765728
 20
19.4065338966
 30
0.0
  0
SPLINE
  5
5B6
100
AcDbEntity
  8
0
100
AcDbSpline
 62
7
  6
CONTINUOUS
 70
0
 71
3
 72
13
 73
9
 74
0
 42
0.0000001
 43
0.0000001
 44
0.0000000001
 40
0.0
 40
0.0
 40
0.0
 40
0.0
 40
0.0218239887
 40
0.0716689957
 40
0.1519269315
 40
0.2626715553
 40
0.5742508157
 40
1.0
 40
1.0
 40
1.0
 40
1.0
 10
10.6520056086
 20
22.303083825
 30
0.0
 10
10.6499999549
 20
22.3030810424
 30
0.0
 10
10.6460961711
 20
22.3104584916
 30
0.0
 10
10.6427375611
 20
22.3226508433
 30
0.0
 10
10.6381435875
 20
22.3450361855
 30
0.0
 10
10.6314263705
 20
22.3903246636
 30
0.0
 10
10.6229695828
 20
22.4681338152
 30
0.0
 10
10.6173043173
 20
22.5355507318
 30
0.0
 10
10.6142866108
 20
22.5745611425
 30
0.0
  0
SPLINE
  5
5B7
100
AcDbEntity
  8
0
100
AcDbSpline
 62
7
  6
CONTINUOUS
 70
0
 71
3
 72
14
 73
10
 74
0
 42
0.0000001
 43
0.0000001
 44
0.0000000001
 40
0.0
 40
0.0
 40
0.0
 40
0.0
 40
0.0200748722
 40
0.0695318182
 40
0.1501629685
 40
0.2616869682
 40
0.4035355946
 40
0.5747194478
 40
1.0
 40
1.0
 40
1.0
 40
1.0
 10
10.6612405367
 20
21.8589657154
 30
0.0
 10
10.6645365671
 20
21.8589705541
 30
0.0
 10
10.6695100424
 20
21.8733573189
 30
0.0
 10
10.6735810258
 20
21.8944546086
 30
0.0
 10
10.6784637519
 20
21.9355978312
 30
0.0
 10
10.6825355209
 20
21.9895349112
 30
0.0
 10
10.6863236449
 20
22.0594308856
 30
0.0
 10
10.6909050121
 20
22.1804326093
 30
0.0
 10
10.6929309928
 20
22.2784115073
 30
0.0
 10
10.6939884265
 20
22.348229057
 30
0.0
  0
SPLINE
  5
5B8
100
AcDbEntity
  8
0
100
AcDbSpline
 62
7
  6
CONTINUOUS
 70
0
 71
3
 72
14
 73
10
 74
0
 42
0.0000001
 43
0.0000001
 44
0.0000000001
 40
0.0
 40
0.0
 40
0.0
 40
0.0
 40
0.0195815732
 40
0.0692073081
 40
0.1503235509
 40
0.262397526
 40
0.4046712208
 40
0.576089504
 40
1.0
 40
1.0
 40
1.0
 40
1.0
 10
10.6760380876
 20
21.119188412
 30
0.0
 10
10.6811146402
 20
21.119183701
 30
0.0
 10
10.6878342842
 20
21.1426191538
 30
0.0
 10
10.6939442317
 20
21.1754828623
 30
0.0
 10
10.7006243233
 20
21.241197685
 30
0.0
 10
10.7063024808
 20
21.3266515146
 30
0.0
 10
10.7113521472
 20
21.437431432
 30
0.0
 10
10.7172320208
 20
21.6283297324
 30
0.0
 10
10.7195307395
 20
21.7827694407
 30
0.0
 10
10.7205982299
 20
21.8926637439
 30
0.0
  0
SPLINE
  5
5B9
100
AcDbEntity
  8
RACCORDO
100
AcDbSpline
 62
7
  6
CONTINUOUS
 70
0
 71
3
 72
9
 73
5
 74
0
 42
0.0000001
 43
0.0000001
 44
0.0000000001
 40
0.0
 40
0.0
 40
0.0
 40
0.0
 40
0.499999885
 40
1.0
 40
1.0
 40
1.0
 40
1.0
 10
9.9803542609
 20
-15.1890134809
 30
0.0
 10
10.1919752872
 20
-15.0876400139
 30
0.0
 10
10.5665071644
 20
-14.7616000716
 30
0.0
 10
10.7118076748
 20
-14.2867697005
 30
0.0
 10
10.7182363756
 20
-14.0522089173
 30
0.0
  0
SPLINE
  5
5BA
100
AcDbEntity
  8
DRAFT
100
AcDbSpline
 62
7
  6
CONTINUOUS
 70
0
 71
3
 72
19
 73
15
 74
0
 42
0.0000001
 43
0.0000001
 44
0.0000000001
 40
0.0
 40
0.0
 40
0.0
 40
0.0
 40
0.0058339547
 40
0.0206061389
 40
0.0446279101
 40
0.0778013044
 40
0.11980453
 40
0.1702237657
 40
0.2286301222
 40
0.2944553966
 40
0.4456573821
 40
0.6181381725
 40
0.8055175073
 40
1.0
 40
1.0
 40
1.0
 40
1.0
 10
10.7570759891
 20
13.3784072928
 30
0.0
 10
10.7511990252
 20
13.3784417646
 30
0.0
 10
10.7437041099
 20
13.4056016406
 30
0.0
 10
10.7347967622
 20
13.4430775542
 30
0.0
 10
10.7248582279
 20
13.518540986
 30
0.0
 10
10.7145584357
 20
13.6163802226
 30
0.0
 10
10.7040320837
 20
13.7430701956
 30
0.0
 10
10.6934905032
 20
13.8944396948
 30
0.0
 10
10.6830780068
 20
14.0701452632
 30
0.0
 10
10.6688706143
 20
14.3472237817
 30
0.0
 10
10.6526859585
 20
14.7393021312
 30
0.0
 10
10.6362980721
 20
15.2538791823
 30
0.0
 10
10.6229807107
 20
15.8121665053
 30
0.0
 10
10.6165485935
 20
16.196799588
 30
0.0
 10
10.613961951
 20
16.3927021425
 30
0.0
  0
SPLINE
  5
5BB
100
AcDbEntity
  8
0
100
AcDbSpline
 62
7
  6
CONTINUOUS
 70
0
 71
3
 72
13
 73
9
 74
0
 42
0.0000001
 43
0.0000001
 44
0.0000000001
 40
0.0
 40
0.0
 40
0.0
 40
0.0
 40
0.4267619603
 40
0.7386053657
 40
0.8492125908
 40
0.929171276
 40
0.9785825956
 40
1.0
 40
1.0
 40
1.0
 40
1.0
 10
10.5429951211
 20
25.6108435009
 30
0.0
 10
10.5441808654
 20
25.6498458835
 30
0.0
 10
10.5466698495
 20
25.7172231983
 30
0.0
 10
10.5514988391
 20
25.795057645
 30
0.0
 10
10.5560563247
 20
25.8403497639
 30
0.0
 10
10.5596549427
 20
25.8627434191
 30
0.0
 10
10.5623283873
 20
25.8748866594
 30
0.0
 10
10.5660108725
 20
25.882323716
 30
0.0
 10
10.567969142
 20
25.8823209392
 30
0.0
  0
SPLINE
  5
5BC
100
AcDbEntity
  8
0
100
AcDbSpline
 62
7
  6
CONTINUOUS
 70
0
 71
3
 72
14
 73
10
 74
0
 42
0.0000001
 43
0.0000001
 44
0.0000000001
 40
0.0
 40
0.0
 40
0.0
 40
0.0
 40
0.4243805664
 40
0.5953614387
 40
0.7371691371
 40
0.8488095084
 40
0.9296999631
 40
0.9795371442
 40
1.0
 40
1.0
 40
1.0
 40
1.0
 10
10.6121114554
 20
25.8366140294
 30
0.0
 10
10.6077722292
 20
25.9065201907
 30
0.0
 10
10.6011431739
 20
26.0046218335
 30
0.0
 10
10.5908683696
 20
26.1257232677
 30
0.0
 10
10.5838102207
 20
26.1956971841
 30
0.0
 10
10.5771516594
 20
26.2497496999
 30
0.0
 10
10.5704332866
 20
26.2909006762
 30
0.0
 10
10.5651641089
 20
26.3121599237
 30
0.0
 10
10.5597263509
 20
26.3264337695
 30
0.0
 10
10.5563491201
 20
26.3264389606
 30
0.0
  0
SPLINE
  5
5BD
100
AcDbEntity
  8
0
100
AcDbSpline
 62
7
  6
CONTINUOUS
 70
0
 71
3
 72
14
 73
10
 74
0
 42
0.0000001
 43
0.0000001
 44
0.0000000001
 40
0.0
 40
0.0
 40
0.0
 40
0.0
 40
0.4240644854
 40
0.59504234
 40
0.7370164805
 40
0.8488310423
 40
0.9297216553
 40
0.9795970285
 40
1.0
 40
1.0
 40
1.0
 40
1.0
 10
10.6116286418
 20
26.3897063352
 30
0.0
 10
10.6058075339
 20
26.4861594515
 30
0.0
 10
10.5969099868
 20
26.6215482526
 30
0.0
 10
10.5830758972
 20
26.7887338931
 30
0.0
 10
10.5735696746
 20
26.8854555025
 30
0.0
 10
10.5645729317
 20
26.9601516644
 30
0.0
 10
10.5555246987
 20
27.0171221391
 30
0.0
 10
10.548305302
 20
27.0463581629
 30
0.0
 10
10.5410564263
 20
27.0662717757
 30
0.0
 10
10.5364073464
 20
27.0662768547
 30
0.0
  0
LINE
  5
5BE
100
AcDbEntity
  8
0
100
AcDbLine
 62
7
  6
CONTINUOUS
 10
10.6861000395
 20
24.6450288247
 11
10.6829643386
 21
24.827600576
  0
LINE
  5
5BF
100
AcDbEntity
  8
0
100
AcDbLine
 62
7
  6
CONTINUOUS
 10
10.6829643386
 20
24.827600576
 11
10.6802044676
 21
25.0057359774
  0
LINE
  5
5C0
100
AcDbEntity
  8
0
100
AcDbLine
 62
7
  6
CONTINUOUS
 10
10.6802044676
 20
25.0057359774
 11
10.6778289683
 21
25.1786163435
  0
SPLINE
  5
5C1
100
AcDbEntity
  8
0
100
AcDbSpline
 62
7
  6
CONTINUOUS
 70
0
 71
3
 72
13
 73
9
 74
0
 42
0.0000001
 43
0.0000001
 44
0.0000000001
 40
0.0
 40
0.0
 40
0.0
 40
0.0
 40
0.0217026421
 40
0.0716128724
 40
0.1519042141
 40
0.2627023372
 40
0.5742197808
 40
1.0
 40
1.0
 40
1.0
 40
1.0
 10
10.6666027595
 20
21.5951071425
 30
0.0
 10
10.6636933161
 20
21.5951071425
 30
0.0
 10
10.6581903963
 20
21.6060345574
 30
0.0
 10
10.6533217844
 20
21.623730685
 30
0.0
 10
10.6467376497
 20
21.6564805723
 30
0.0
 10
10.6370488279
 20
21.7225319458
 30
0.0
 10
10.6248701686
 20
21.8360774625
 30
0.0
 10
10.6166898658
 20
21.9344148508
 30
0.0
 10
10.6123332314
 20
21.9913281915
 30
0.0
  0
LINE
  5
5C2
100
AcDbEntity
  8
0
100
AcDbLine
 62
7
  6
CONTINUOUS
 10
10.5414603372
 20
23.4406434353
 11
10.5393486287
 21
23.5055349783
  0
LINE
  5
5C3
100
AcDbEntity
  8
0
100
AcDbLine
 62
7
  6
CONTINUOUS
 10
10.511749615
 20
24.6814709056
 11
10.5107526965
 21
24.7508914839
  0
SPLINE
  5
5C4
100
AcDbEntity
  8
0
100
AcDbSpline
 62
7
  6
CONTINUOUS
 70
0
 71
3
 72
9
 73
5
 74
0
 42
0.0000001
 43
0.0000001
 44
0.0000000001
 40
0.0
 40
0.0
 40
0.0
 40
0.0
 40
0.2958040778
 40
1.0
 40
1.0
 40
1.0
 40
1.0
 10
10.5102658684
 20
26.0563094486
 30
0.0
 10
10.5109732694
 20
26.091355579
 30
0.0
 10
10.5137537877
 20
26.2098205542
 30
0.0
 10
10.5177950268
 20
26.3282854278
 30
0.0
 10
10.5228355042
 20
26.4115814338
 30
0.0
  0
SPLINE
  5
5C5
100
AcDbEntity
  8
0
100
AcDbSpline
 62
7
  6
CONTINUOUS
 70
0
 71
3
 72
11
 73
7
 74
0
 42
0.0000001
 43
0.0000001
 44
0.0000000001
 40
0.0
 40
0.0
 40
0.0
 40
0.0
 40
0.4273960345
 40
0.7362844035
 40
0.9255401458
 40
1.0
 40
1.0
 40
1.0
 40
1.0
 10
10.5228355042
 20
26.4115814338
 30
0.0
 10
10.5244036843
 20
26.4374962683
 30
0.0
 10
10.5274649474
 20
26.481173555
 30
0.0
 10
10.5334535652
 20
26.5400173303
 30
0.0
 10
10.5391515762
 20
26.5691454374
 30
0.0
 10
10.5447979201
 20
26.5902971425
 30
0.0
 10
10.5493209956
 20
26.5902971425
 30
0.0
  0
SPLINE
  5
5C6
100
AcDbEntity
  8
0
100
AcDbSpline
 62
7
  6
CONTINUOUS
 70
0
 71
3
 72
14
 73
10
 74
0
 42
0.0000001
 43
0.0000001
 44
0.0000000001
 40
0.0
 40
0.0
 40
0.0
 40
0.0
 40
0.0205050981
 40
0.0699694758
 40
0.1503336218
 40
0.261453642
 40
0.4028703177
 40
0.5737608775
 40
1.0
 40
1.0
 40
1.0
 40
1.0
 10
10.5563491201
 20
26.3264389606
 30
0.0
 10
10.5533801724
 20
26.3264435242
 30
0.0
 10
10.5484609371
 20
26.3140641834
 30
0.0
 10
10.5446214219
 20
26.2952571457
 30
0.0
 10
10.5397147078
 20
26.2592802829
 30
0.0
 10
10.535580516
 20
26.2118580575
 30
0.0
 10
10.5315689293
 20
26.1504458815
 30
0.0
 10
10.5264928197
 20
26.0437378633
 30
0.0
 10
10.5239780832
 20
25.957259082
 30
0.0
 10
10.5225539885
 20
25.8955599779
 30
0.0
  0
SPLINE
  5
5C7
100
AcDbEntity
  8
RACCORDO
100
AcDbSpline
 62
250
  6
CONTINUOUS
 70
0
 71
3
 72
8
 73
4
 74
0
 42
0.0000001
 43
0.0000001
 44
0.0000000001
 40
0.0
 40
0.0
 40
0.0
 40
0.0
 40
1.0
 40
1.0
 40
1.0
 40
1.0
 10
10.7473457867
 20
-12.6045132752
 30
0.0
 10
10.7496751341
 20
-12.6205004135
 30
0.0
 10
10.7515922191
 20
-12.6365599474
 30
0.0
 10
10.7528692957
 20
-12.6526653355
 30
0.0
  0
SPLINE
  5
5C8
100
AcDbEntity
  8
RACCORDO
100
AcDbSpline
 62
250
  6
CONTINUOUS
 70
0
 71
3
 72
8
 73
4
 74
0
 42
0.0000001
 43
0.0000001
 44
0.0000000001
 40
0.0
 40
0.0
 40
0.0
 40
0.0
 40
1.0
 40
1.0
 40
1.0
 40
1.0
 10
10.7528692957
 20
-12.6526653355
 30
0.0
 10
10.7541252522
 20
-12.6685043748
 30
0.0
 10
10.754778013
 20
-12.6844240793
 30
0.0
 10
10.7543766576
 20
-12.7003077661
 30
0.0
  0
LINE
  5
5C9
100
AcDbEntity
  8
0
100
AcDbLine
 62
7
  6
CONTINUOUS
 10
10.6201250361
 20
30.4716941425
 11
10.6161211606
 21
30.5995647266
  0
SPLINE
  5
5CA
100
AcDbEntity
  8
0
100
AcDbSpline
 62
7
  6
CONTINUOUS
 70
0
 71
3
 72
18
 73
14
 74
0
 42
0.0000001
 43
0.0000001
 44
0.0000000001
 40
0.0
 40
0.0
 40
0.0
 40
0.0
 40
0.2018706497
 40
0.3923739233
 40
0.5650563262
 40
0.7145994756
 40
0.8362995608
 40
0.8854812515
 40
0.9262446222
 40
0.9582433147
 40
0.9813016166
 40
0.9952596814
 40
1.0
 40
1.0
 40
1.0
 40
1.0
 10
10.6161211606
 20
30.5995647266
 30
0.0
 10
10.6143616234
 20
30.6569923926
 30
0.0
 10
10.6110403078
 20
30.7686179219
 30
0.0
 10
10.6065757709
 20
30.9293735666
 30
0.0
 10
10.6028407661
 20
31.0752659978
 30
0.0
 10
10.5999804731
 20
31.2015446884
 30
0.0
 10
10.5981740979
 20
31.2928087863
 30
0.0
 10
10.5973837872
 20
31.3529061368
 30
0.0
 10
10.5968381797
 20
31.3878974347
 30
0.0
 10
10.597211306
 20
31.4144194402
 30
0.0
 10
10.5962163842
 20
31.4357777207
 30
0.0
 10
10.5984973623
 20
31.4446159761
 30
0.0
 10
10.5968278657
 20
31.453118152
 30
0.0
 10
10.5981767204
 20
31.4530900726
 30
0.0
  0
SPLINE
  5
5CB
100
AcDbEntity
  8
0
100
AcDbSpline
 62
7
  6
CONTINUOUS
 70
0
 71
3
 72
14
 73
10
 74
0
 42
0.0000001
 43
0.0000001
 44
0.0000000001
 40
0.0
 40
0.0
 40
0.0
 40
0.0
 40
0.0199528578
 40
0.0695602505
 40
0.1503289385
 40
0.2621276817
 40
0.4042131341
 40
0.5754002936
 40
1.0
 40
1.0
 40
1.0
 40
1.0
 10
10.5364073464
 20
27.0662768547
 30
0.0
 10
10.5316764652
 20
27.066282023
 30
0.0
 10
10.5249474341
 20
27.0451364154
 30
0.0
 10
10.5189413248
 20
27.0149042906
 30
0.0
 10
10.5119904419
 20
26.9552006214
 30
0.0
 10
10.5059555596
 20
26.8772328303
 30
0.0
 10
10.5003009927
 20
26.7761592664
 30
0.0
 10
10.4932668688
 20
26.6015526894
 30
0.0
 10
10.4900001356
 20
26.4602240832
 30
0.0
 10
10.4882411818
 20
26.359565551
 30
0.0
  0
LINE
  5
5CC
100
AcDbEntity
  8
0
100
AcDbLine
 62
7
  6
CONTINUOUS
 10
10.4882411818
 20
26.359565551
 11
10.4877169379
 21
26.3284382086
  0
SPLINE
  5
5CD
100
AcDbEntity
  8
0
100
AcDbSpline
 62
7
  6
CONTINUOUS
 70
0
 71
3
 72
14
 73
10
 74
0
 42
0.0000001
 43
0.0000001
 44
0.0000000001
 40
0.0
 40
0.0
 40
0.0
 40
0.0
 40
0.4247699287
 40
0.5955920312
 40
0.7371427465
 40
0.8486730401
 40
0.9295107474
 40
0.9793229754
 40
1.0
 40
1.0
 40
1.0
 40
1.0
 10
10.6008970575
 20
21.7326044569
 30
0.0
 10
10.6069209286
 20
21.6449081287
 30
0.0
 10
10.6160875557
 20
21.5219160833
 30
0.0
 10
10.630148035
 20
21.3701716219
 30
0.0
 10
10.6397371646
 20
21.2826365217
 30
0.0
 10
10.6486783309
 20
21.2149810198
 30
0.0
 10
10.6576564112
 20
21.163611291
 30
0.0
 10
10.6645506079
 20
21.1368278265
 30
0.0
 10
10.6717591331
 20
21.1191923829
 30
0.0
 10
10.6760380876
 20
21.119188412
 30
0.0
  0
SPLINE
  5
5CE
100
AcDbEntity
  8
RACCORDO
100
AcDbSpline
 62
250
  6
CONTINUOUS
 70
0
 71
3
 72
9
 73
5
 74
0
 42
0.0000001
 43
0.0000001
 44
0.0000000001
 40
0.0
 40
0.0
 40
0.0
 40
0.0
 40
0.4224077329
 40
1.0
 40
1.0
 40
1.0
 40
1.0
 10
9.7661289791
 20
-11.102598918
 30
0.0
 10
9.7484182125
 20
-10.7621536067
 30
0.0
 10
9.6730260726
 20
-9.9581901181
 30
0.0
 10
9.5744050326
 20
-9.1571033547
 30
0.0
 10
9.5078605801
 20
-8.6957296307
 30
0.0
  0
SPLINE
  5
5CF
100
AcDbEntity
  8
RACCORDO
100
AcDbSpline
 62
250
  6
CONTINUOUS
 70
0
 71
3
 72
10
 73
6
 74
0
 42
0.0000001
 43
0.0000001
 44
0.0000000001
 40
0.0
 40
0.0
 40
0.0
 40
0.0
 40
0.1849094619
 40
0.4234618992
 40
1.0
 40
1.0
 40
1.0
 40
1.0
 10
5.5999999992
 20
-12.1765352468
 30
0.0
 10
5.6032925365
 20
-12.0240022485
 30
0.0
 10
5.5965089761
 20
-11.6744471616
 30
0.0
 10
5.5509295821
 20
-10.8505790776
 30
0.0
 10
5.4867516347
 20
-10.1807677233
 30
0.0
 10
5.4333333325
 20
-9.7080757589
 30
0.0
  0
SPLINE
  5
5D0
100
AcDbEntity
  8
RACCORDO
100
AcDbSpline
 62
250
  6
CONTINUOUS
 70
0
 71
3
 72
10
 73
6
 74
0
 42
0.0000001
 43
0.0000001
 44
0.0000000001
 40
0.0
 40
0.0
 40
0.0
 40
0.0
 40
0.1845192683
 40
0.4231027179
 40
1.0
 40
1.0
 40
1.0
 40
1.0
 10
4.7173528244
 20
-12.2754588973
 30
0.0
 10
4.7141869595
 20
-12.1227620738
 30
0.0
 10
4.6977894348
 20
-11.7728469171
 30
0.0
 10
4.6403735519
 20
-10.9471133884
 30
0.0
 10
4.5764652309
 20
-10.2750185187
 30
0.0
 10
4.526168207
 20
-9.8001674751
 30
0.0
  0
SPLINE
  5
5D1
100
AcDbEntity
  8
RACCORDO
100
AcDbSpline
 62
250
  6
CONTINUOUS
 70
0
 71
3
 72
10
 73
6
 74
0
 42
0.0000001
 43
0.0000001
 44
0.0000000001
 40
0.0
 40
0.0
 40
0.0
 40
0.0
 40
0.5154260069
 40
0.7612055566
 40
1.0
 40
1.0
 40
1.0
 40
1.0
 10
9.766125013
 20
-11.1025911615
 30
0.0
 10
9.9735028247
 20
-11.0175355247
 30
0.0
 10
10.2585282302
 20
-10.8111612785
 30
0.0
 10
10.4731549153
 20
-10.4271921914
 30
0.0
 10
10.5171342429
 20
-10.2167939182
 30
0.0
 10
10.5217158033
 20
-10.113050707
 30
0.0
  0
SPLINE
  5
5D2
100
AcDbEntity
  8
RACCORDO
100
AcDbSpline
 62
250
  6
CONTINUOUS
 70
0
 71
3
 72
14
 73
10
 74
0
 42
0.0000001
 43
0.0000001
 44
0.0000000001
 40
0.0
 40
0.0
 40
0.0
 40
0.0
 40
0.386598912
 40
0.5562485992
 40
0.7030627662
 40
0.823576861
 40
0.9145589134
 40
0.9738189506
 40
1.0
 40
1.0
 40
1.0
 40
1.0
 10
9.5078447298
 20
-8.6957405595
 30
0.0
 10
9.6383741658
 20
-8.6974847189
 30
0.0
 10
9.8262171459
 20
-8.6992721469
 30
0.0
 10
10.063568378
 20
-8.6993801249
 30
0.0
 10
10.2112350905
 20
-8.6986316198
 30
0.0
 10
10.3318892134
 20
-8.6961203229
 30
0.0
 10
10.4240632459
 20
-8.6946424307
 30
0.0
 10
10.4819935037
 20
-8.6884602111
 30
0.0
 10
10.5126072292
 20
-8.6884154949
 30
0.0
 10
10.5201468932
 20
-8.6837995698
 30
0.0
  0
SPLINE
  5
5D3
100
AcDbEntity
  8
RACCORDO
100
AcDbSpline
 62
250
  6
CONTINUOUS
 70
0
 71
3
 72
16
 73
12
 74
0
 42
0.0000001
 43
0.0000001
 44
0.0000000001
 40
0.0
 40
0.0
 40
0.0
 40
0.0
 40
0.3862383088
 40
0.5554965549
 40
0.7024257357
 40
0.8231374006
 40
0.9144671042
 40
0.9482192248
 40
0.9737498557
 40
0.9909721625
 40
1.0
 40
1.0
 40
1.0
 40
1.0
 10
9.1152270418
 20
34.614299997
 30
0.0
 10
9.2477617853
 20
34.6150417796
 30
0.0
 10
9.4382638241
 20
34.6232363982
 30
0.0
 10
9.679219609
 20
34.6291847136
 30
0.0
 10
9.8291478499
 20
34.6308872044
 30
0.0
 10
9.9522993662
 20
34.6307182277
 30
0.0
 10
10.0367067653
 20
34.6296665573
 30
0.0
 10
10.0882784088
 20
34.6284845472
 30
0.0
 10
10.114695678
 20
34.6276241302
 30
0.0
 10
10.1320349866
 20
34.6258691811
 30
0.0
 10
10.1414363341
 20
34.6244768589
 30
0.0
 10
10.1439193421
 20
34.6226244154
 30
0.0
  0
SPLINE
  5
5D4
100
AcDbEntity
  8
RACCORDO
100
AcDbSpline
 62
250
  6
CONTINUOUS
 70
0
 71
3
 72
9
 73
5
 74
0
 42
0.0000001
 43
0.0000001
 44
0.0000000001
 40
0.0
 40
0.0
 40
0.0
 40
0.0
 40
0.4998775609
 40
1.0
 40
1.0
 40
1.0
 40
1.0
 10
9.3204782532
 20
35.7841638605
 30
0.0
 10
9.5509785401
 20
35.6937795174
 30
0.0
 10
9.9681608561
 20
35.3707284575
 30
0.0
 10
10.1348018493
 20
34.8701656369
 30
0.0
 10
10.1439193421
 20
34.6226244154
 30
0.0
  0
SPLINE
  5
5D5
100
AcDbEntity
  8
RACCORDO
100
AcDbSpline
 62
250
  6
CONTINUOUS
 70
0
 71
3
 72
17
 73
13
 74
0
 42
0.0000001
 43
0.0000001
 44
0.0000000001
 40
0.0
 40
0.0
 40
0.0
 40
0.0
 40
0.0070373945
 40
0.0221539895
 40
0.0461764736
 40
0.0791271958
 40
0.1709095114
 40
0.2941121287
 40
0.4444615657
 40
0.6166019608
 40
0.8044362998
 40
1.0
 40
1.0
 40
1.0
 40
1.0
 10
4.5225107489
 20
36.4764144219
 30
0.0
 10
4.5254636521
 20
36.4762624606
 30
0.0
 10
4.5311751939
 20
36.4662570376
 30
0.0
 10
4.53511658
 20
36.4487241626
 30
0.0
 10
4.5400181039
 20
36.4180511851
 30
0.0
 10
4.5455112874
 20
36.3562007472
 30
0.0
 10
4.5499066873
 20
36.2517770579
 30
0.0
 10
4.5516890335
 20
36.0984217083
 30
0.0
 10
4.5502020084
 20
35.9111055766
 30
0.0
 10
4.5454089587
 20
35.6967543004
 30
0.0
 10
4.5374078547
 20
35.4634681697
 30
0.0
 10
4.5302387751
 20
35.3025384754
 30
0.0
 10
4.5261682182
 20
35.2204719013
 30
0.0
  0
SPLINE
  5
5D6
100
AcDbEntity
  8
RACCORDO
100
AcDbSpline
 62
250
  6
CONTINUOUS
 70
0
 71
3
 72
13
 73
9
 74
0
 42
0.0000001
 43
0.0000001
 44
0.0000000001
 40
0.0
 40
0.0
 40
0.0
 40
0.0
 40
0.0323925725
 40
0.0928892055
 40
0.1852244401
 40
0.3072095915
 40
0.6240111504
 40
1.0
 40
1.0
 40
1.0
 40
1.0
 10
7.0399991331
 20
36.3106393442
 30
0.0
 10
7.0537460758
 20
36.3095357076
 30
0.0
 10
7.0831622666
 20
36.273513567
 30
0.0
 10
7.1032749151
 20
36.1999681564
 30
0.0
 10
7.1240109102
 20
36.083285587
 30
0.0
 10
7.1423254886
 20
35.8584142781
 30
0.0
 10
7.1452918313
 20
35.5107337321
 30
0.0
 10
7.1306696101
 20
35.2161488313
 30
0.0
 10
7.1188145986
 20
35.0565107543
 30
0.0
  0
SPLINE
  5
5D7
100
AcDbEntity
  8
RACCORDO
100
AcDbSpline
 62
250
  6
CONTINUOUS
 70
0
 71
3
 72
13
 73
9
 74
0
 42
0.0000001
 43
0.0000001
 44
0.0000000001
 40
0.0
 40
0.0
 40
0.0
 40
0.0
 40
0.0997784997
 40
0.1920520901
 40
0.3127514283
 40
0.458648015
 40
0.6254043951
 40
1.0
 40
1.0
 40
1.0
 40
1.0
 10
9.3204782532
 20
35.7841638605
 30
0.0
 10
9.358084442
 20
35.7694176287
 30
0.0
 10
9.3725082037
 20
35.6691044525
 30
0.0
 10
9.3661996879
 20
35.5513622122
 30
0.0
 10
9.3466332945
 20
35.4041173951
 30
0.0
 10
9.3105724063
 20
35.2334185439
 30
0.0
 10
9.2377755176
 20
34.9642500068
 30
0.0
 10
9.1638341536
 20
34.7579492554
 30
0.0
 10
9.1152270418
 20
34.614299997
 30
0.0
  0
SPLINE
  5
5D8
100
AcDbEntity
  8
RACCORDO
100
AcDbSpline
 62
250
  6
CONTINUOUS
 70
0
 71
3
 72
9
 73
5
 74
0
 42
0.0000001
 43
0.0000001
 44
0.0000000001
 40
0.0
 40
0.0
 40
0.0
 40
0.0
 40
0.2394567808
 40
1.0
 40
1.0
 40
1.0
 40
1.0
 10
10.9713668022
 20
13.045616309
 30
0.0
 10
10.9715436175
 20
13.0280264447
 30
0.0
 10
10.9708908095
 20
12.9545565763
 30
0.0
 10
10.9649962061
 20
12.8811761073
 30
0.0
 10
10.9582356144
 20
12.8257163247
 30
0.0
  0
SPLINE
  5
5D9
100
AcDbEntity
  8
0
100
AcDbSpline
 62
7
  6
CONTINUOUS
 70
0
 71
3
 72
12
 73
8
 74
0
 42
0.0000001
 43
0.0000001
 44
0.0000000001
 40
0.0
 40
0.0
 40
0.0
 40
0.0
 40
0.0247263893
 40
0.0750012981
 40
0.2640992998
 40
0.5730089672
 40
1.0
 40
1.0
 40
1.0
 40
1.0
 10
10.5063801856
 20
27.0662761592
 30
0.0
 10
10.5042591964
 20
27.0662804086
 30
0.0
 10
10.4994901761
 20
27.0601414299
 30
0.0
 10
10.4933710477
 20
27.0394371348
 30
0.0
 10
10.4855465778
 20
26.9918587002
 30
0.0
 10
10.4784151293
 20
26.9134631079
 30
0.0
 10
10.4744153319
 20
26.850250046
 30
0.0
 10
10.4724594059
 20
26.8136756413
 30
0.0
  0
SPLINE
  5
5DA
100
AcDbEntity
  8
0
100
AcDbSpline
 62
7
  6
CONTINUOUS
 70
0
 71
3
 72
9
 73
5
 74
0
 42
0.0000001
 43
0.0000001
 44
0.0000000001
 40
0.0
 40
0.0
 40
0.0
 40
0.0
 40
0.2056558667
 40
1.0
 40
1.0
 40
1.0
 40
1.0
 10
10.4724594059
 20
26.8136756413
 30
0.0
 10
10.4707586166
 20
26.7818721106
 30
0.0
 10
10.4637102076
 20
26.627162735
 30
0.0
 10
10.4601301406
 20
26.4723166348
 30
0.0
 10
10.4580322254
 20
26.3493181122
 30
0.0
  0
LINE
  5
5DB
100
AcDbEntity
  8
0
100
AcDbLine
 62
7
  6
CONTINUOUS
 10
10.4580322254
 20
26.3493181122
 11
10.457683638
 21
26.3283636876
  0
SPLINE
  5
5DC
100
AcDbEntity
  8
0
100
AcDbSpline
 62
7
  6
CONTINUOUS
 70
0
 71
3
 72
9
 73
5
 74
0
 42
0.0000001
 43
0.0000001
 44
0.0000000001
 40
0.0
 40
0.0
 40
0.0
 40
0.0
 40
0.2879936448
 40
1.0
 40
1.0
 40
1.0
 40
1.0
 10
10.567170833
 20
21.7874869408
 30
0.0
 10
10.5697180429
 20
21.7489481241
 30
0.0
 10
10.5789322432
 20
21.6151569892
 30
0.0
 10
10.5894610671
 20
21.4814392128
 30
0.0
 10
10.598782074
 20
21.3864078777
 30
0.0
  0
SPLINE
  5
5DD
100
AcDbEntity
  8
0
100
AcDbSpline
 62
7
  6
CONTINUOUS
 70
0
 71
3
 72
12
 73
8
 74
0
 42
0.0000001
 43
0.0000001
 44
0.0000000001
 40
0.0
 40
0.0
 40
0.0
 40
0.0
 40
0.4257298998
 40
0.7349956059
 40
0.9247650142
 40
0.9752670005
 40
1.0
 40
1.0
 40
1.0
 40
1.0
 10
10.598782074
 20
21.3864078777
 30
0.0
 10
10.6025745423
 20
21.3477421703
 30
0.0
 10
10.6097636515
 20
21.2808131896
 30
0.0
 10
10.6209930131
 20
21.1978807691
 30
0.0
 10
10.6312392362
 20
21.1474501011
 30
0.0
 10
10.638674188
 20
21.1256801051
 30
0.0
 10
10.6437596947
 20
21.1191873474
 30
0.0
 10
10.6460167727
 20
21.1191822934
 30
0.0
  0
SPLINE
  5
5DE
100
AcDbEntity
  8
RACCORDO
100
AcDbSpline
 62
250
  6
CONTINUOUS
 70
0
 71
3
 72
9
 73
5
 74
0
 42
0.0000001
 43
0.0000001
 44
0.0000000001
 40
0.0
 40
0.0
 40
0.0
 40
0.0
 40
0.2225378571
 40
1.0
 40
1.0
 40
1.0
 40
1.0
 10
10.9714078298
 20
13.0413177803
 30
0.0
 10
10.9714677589
 20
13.0341824674
 30
0.0
 10
10.9707470395
 20
13.0021101413
 30
0.0
 10
10.9667609503
 20
12.9701873122
 30
0.0
 10
10.9627481778
 20
12.9455834638
 30
0.0
  0
SPLINE
  5
5DF
100
AcDbEntity
  8
RACCORDO
100
AcDbSpline
 62
250
  6
CONTINUOUS
 70
0
 71
3
 72
17
 73
13
 74
0
 42
0.0000001
 43
0.0000001
 44
0.0000000001
 40
0.0
 40
0.0
 40
0.0
 40
0.0
 40
0.1041301379
 40
0.1543791479
 40
0.15960023
 40
0.1685762436
 40
0.1909198535
 40
0.2267493274
 40
0.2760909853
 40
0.3389580562
 40
0.505304138
 40
1.0
 40
1.0
 40
1.0
 40
1.0
 10
10.9714080158
 20
13.041516603
 30
0.0
 10
10.9713223463
 20
13.0513908884
 30
0.0
 10
10.9698767526
 20
13.067348832
 30
0.0
 10
10.9718655905
 20
13.0797968837
 30
0.0
 10
10.9692959379
 20
13.0877920986
 30
0.0
 10
10.9684994797
 20
13.0819251246
 30
0.0
 10
10.9679870417
 20
13.0773999727
 30
0.0
 10
10.967109428
 20
13.0662613136
 30
0.0
 10
10.9662461347
 20
13.052668621
 30
0.0
 10
10.9647607768
 20
13.0260802533
 30
0.0
 10
10.9615693462
 20
12.9577213688
 30
0.0
 10
10.9591692512
 20
12.8949621186
 30
0.0
 10
10.9574499399
 20
12.8480816458
 30
0.0
  0
LINE
  5
5E0
100
AcDbEntity
  8
RACCORDO
100
AcDbLine
 62
250
  6
CONTINUOUS
 10
10.9574499399
 20
12.8480816458
 11
10.9569354841
 21
12.8339729649
  0
SPLINE
  5
5E1
100
AcDbEntity
  8
RACCORDO
100
AcDbSpline
 62
250
  6
CONTINUOUS
 70
0
 71
3
 72
15
 73
11
 74
0
 42
0.0000001
 43
0.0000001
 44
0.0000000001
 40
0.0
 40
0.0
 40
0.0
 40
0.0
 40
0.0632662503
 40
0.1776521278
 40
0.3295383115
 40
0.5011373689
 40
0.6725713894
 40
0.8239797869
 40
0.9376358952
 40
1.0
 40
1.0
 40
1.0
 40
1.0
 10
10.9569354841
 20
12.8339729649
 30
0.0
 10
10.9375694985
 20
12.2998688455
 30
0.0
 10
10.8989207847
 20
10.79957237
 30
0.0
 10
10.8357526878
 20
8.0164595358
 30
0.0
 10
10.7736294751
 20
4.3179387155
 30
0.0
 10
10.726100556
 20
0.1372527781
 30
0.0
 10
10.7035770283
 20
-4.0396057001
 30
0.0
 10
10.7036191272
 20
-7.7270540086
 30
0.0
 10
10.7200711486
 20
-10.4930103824
 30
0.0
 10
10.7332634317
 20
-11.9799624952
 30
0.0
 10
10.7436830188
 20
-12.5066934799
 30
0.0
  0
SPLINE
  5
5E2
100
AcDbEntity
  8
0
100
AcDbSpline
 62
7
  6
CONTINUOUS
 70
0
 71
3
 72
8
 73
4
 74
0
 42
0.0000001
 43
0.0000001
 44
0.0000000001
 40
0.0
 40
0.0
 40
0.0
 40
0.0
 40
1.0
 40
1.0
 40
1.0
 40
1.0
 10
10.5999706649
 20
23.4015135484
 30
0.0
 10
10.5986689275
 20
23.2047201494
 30
0.0
 10
10.5971864245
 20
23.0079278631
 30
0.0
 10
10.5955231577
 20
22.8111371877
 30
0.0
  0
SPLINE
  5
5E3
100
AcDbEntity
  8
0
100
AcDbSpline
 62
7
  6
CONTINUOUS
 70
0
 71
3
 72
13
 73
9
 74
0
 42
0.0000001
 43
0.0000001
 44
0.0000000001
 40
0.0
 40
0.0
 40
0.0
 40
0.0
 40
0.4260553117
 40
0.7371931227
 40
0.8479130518
 40
0.9282257269
 40
0.9781341581
 40
1.0
 40
1.0
 40
1.0
 40
1.0
 10
10.6141573493
 20
22.1957859759
 30
0.0
 10
10.6179347867
 20
22.1473468682
 30
0.0
 10
10.62501461
 20
22.0637106473
 30
0.0
 10
10.6355884076
 20
21.9671889282
 30
0.0
 10
10.6439678521
 20
21.9110434584
 30
0.0
 10
10.6496973733
 20
21.8832643089
 30
0.0
 10
10.653883175
 20
21.8681172123
 30
0.0
 10
10.658747019
 20
21.8589620548
 30
0.0
 10
10.6612405367
 20
21.8589657154
 30
0.0
  0
LINE
  5
5E4
100
AcDbEntity
  8
RACCORDO
100
AcDbLine
 62
250
  6
CONTINUOUS
 10
10.6432619982
 20
-12.6916571232
 11
10.6413603473
 21
-12.6535053552
  0
LINE
  5
5E5
100
AcDbEntity
  8
RACCORDO
100
AcDbLine
 62
250
  6
CONTINUOUS
 10
10.6413603473
 20
-12.6535053552
 11
10.6337846935
 21
-12.5007111454
  0
LINE
  5
5E6
100
AcDbEntity
  8
RACCORDO
100
AcDbLine
 62
250
  6
CONTINUOUS
 10
10.6337846935
 20
-12.5007111454
 11
10.6085648981
 21
-11.9834137157
  0
SPLINE
  5
5E7
100
AcDbEntity
  8
0
100
AcDbSpline
 62
7
  6
CONTINUOUS
 70
0
 71
3
 72
9
 73
5
 74
0
 42
0.0000001
 43
0.0000001
 44
0.0000000001
 40
0.0
 40
0.0
 40
0.0
 40
0.0
 40
0.2716256139
 40
1.0
 40
1.0
 40
1.0
 40
1.0
 10
10.6798852445
 20
23.2167723696
 30
0.0
 10
10.6801296602
 20
23.1776503004
 30
0.0
 10
10.6808002851
 20
23.0336199768
 30
0.0
 10
10.6805803702
 20
22.889582573
 30
0.0
 10
10.6795498236
 20
22.7846782752
 30
0.0
  0
SPLINE
  5
5E8
100
AcDbEntity
  8
0
100
AcDbSpline
 62
7
  6
CONTINUOUS
 70
0
 71
3
 72
14
 73
10
 74
0
 42
0.0000001
 43
0.0000001
 44
0.0000000001
 40
0.0
 40
0.0
 40
0.0
 40
0.0
 40
0.4235281623
 40
0.594916891
 40
0.737380899
 40
0.8496022643
 40
0.9307766066
 40
0.9804579252
 40
1.0
 40
1.0
 40
1.0
 40
1.0
 10
10.6795498236
 20
22.7846782752
 30
0.0
 10
10.6788783469
 20
22.716325425
 30
0.0
 10
10.6774429242
 20
22.620244585
 30
0.0
 10
10.6737715077
 20
22.5014395475
 30
0.0
 10
10.6706483049
 20
22.4324174374
 30
0.0
 10
10.667120099
 20
22.3791682897
 30
0.0
 10
10.663031045
 20
22.3381774092
 30
0.0
 10
10.6592023615
 20
22.3177620627
 30
0.0
 10
10.6551596366
 20
22.3030882008
 30
0.0
 10
10.6520056086
 20
22.303083825
 30
0.0
  0
SPLINE
  5
5E9
100
AcDbEntity
  8
RACCORDO
100
AcDbSpline
 62
250
  6
CONTINUOUS
 70
0
 71
3
 72
9
 73
5
 74
0
 42
0.0000001
 43
0.0000001
 44
0.0000000001
 40
0.0
 40
0.0
 40
0.0
 40
0.0
 40
0.4244977884
 40
1.0
 40
1.0
 40
1.0
 40
1.0
 10
10.5217158262
 20
-10.1130507075
 30
0.0
 10
10.5126511443
 20
-9.9109982905
 30
0.0
 10
10.5099715955
 20
-9.4343389162
 30
0.0
 10
10.5148841502
 20
-8.9579520768
 30
0.0
 10
10.520146973
 20
-8.6837995715
 30
0.0
  0
SPLINE
  5
5EA
100
AcDbEntity
  8
0
100
AcDbSpline
 62
7
  6
CONTINUOUS
 70
0
 71
3
 72
9
 73
5
 74
0
 42
0.0000001
 43
0.0000001
 44
0.0000000001
 40
0.0
 40
0.0
 40
0.0
 40
0.0
 40
0.1717779516
 40
1.0
 40
1.0
 40
1.0
 40
1.0
 10
10.5351000018
 20
26.5476782663
 30
0.0
 10
10.5376016358
 20
26.5348380837
 30
0.0
 10
10.5494792321
 20
26.4595830277
 30
0.0
 10
10.5562368252
 20
26.3836573758
 30
0.0
 10
10.5615851259
 20
26.3208119772
 30
0.0
  0
LINE
  5
5EB
100
AcDbEntity
  8
0
100
AcDbLine
 62
7
  6
CONTINUOUS
 10
10.6302239359
 20
24.9694073677
 11
10.6322758153
 21
24.9094193485
  0
LINE
  5
5EC
100
AcDbEntity
  8
0
100
AcDbLine
 62
7
  6
CONTINUOUS
 10
10.6322758153
 20
24.9094193485
 11
10.6369635247
 21
24.7664050909
  0
LINE
  5
5ED
100
AcDbEntity
  8
0
100
AcDbLine
 62
7
  6
CONTINUOUS
 10
10.6706474217
 20
23.2742727594
 11
10.6713864736
 21
23.2162651349
  0
SPLINE
  5
5EE
100
AcDbEntity
  8
0
100
AcDbSpline
 62
7
  6
CONTINUOUS
 70
0
 71
3
 72
9
 73
5
 74
0
 42
0.0000001
 43
0.0000001
 44
0.0000000001
 40
0.0
 40
0.0
 40
0.0
 40
0.0
 40
0.312444475
 40
1.0
 40
1.0
 40
1.0
 40
1.0
 10
10.6620533627
 20
21.7737616692
 30
0.0
 10
10.661270922
 20
21.7595594767
 30
0.0
 10
10.6584579128
 20
21.7141345013
 30
0.0
 10
10.654959035
 20
21.6686715606
 30
0.0
 10
10.6503800537
 20
21.6377080122
 30
0.0
  0
SPLINE
  5
5EF
100
AcDbEntity
  8
RACCORDO
100
AcDbSpline
 62
250
  6
CONTINUOUS
 70
0
 71
3
 72
9
 73
5
 74
0
 42
0.0000001
 43
0.0000001
 44
0.0000000001
 40
0.0
 40
0.0
 40
0.0
 40
0.0
 40
0.2487106631
 40
1.0
 40
1.0
 40
1.0
 40
1.0
 10
9.5078444486
 20
-8.6957402616
 30
0.0
 10
9.1851559554
 20
-8.8279719815
 30
0.0
 10
7.8677208026
 20
-9.3100952996
 30
0.0
 10
6.4809490106
 20
-9.5976114345
 30
0.0
 10
5.4333333333
 20
-9.7080757592
 30
0.0
  0
SPLINE
  5
5F0
100
AcDbEntity
  8
RACCORDO
100
AcDbSpline
 62
250
  6
CONTINUOUS
 70
0
 71
3
 72
18
 73
14
 74
0
 42
0.0000001
 43
0.0000001
 44
0.0000000001
 40
0.0
 40
0.0
 40
0.0
 40
0.0
 40
0.0037356168
 40
0.0153176892
 40
0.0347716976
 40
0.0620952257
 40
0.0972829108
 40
0.1403285985
 40
0.2499679718
 40
0.3909367865
 40
0.5630626892
 40
0.7661492678
 40
1.0
 40
1.0
 40
1.0
 40
1.0
 10
9.9803567342
 20
-15.189018644
 30
0.0
 10
9.9791829674
 20
-15.1895665551
 30
0.0
 10
9.9800454881
 20
-15.1799173094
 30
0.0
 10
9.9772761728
 20
-15.1722386253
 30
0.0
 10
9.9765423624
 20
-15.1495787248
 30
0.0
 10
9.97406133
 20
-15.1223384274
 30
0.0
 10
9.9717297396
 20
-15.0853909255
 30
0.0
 10
9.9674411998
 20
-15.0205862804
 30
0.0
 10
9.9612776193
 20
-14.9188146162
 30
0.0
 10
9.952687614
 20
-14.7725379726
 30
0.0
 10
9.9425657757
 20
-14.5938139987
 30
0.0
 10
9.9309048357
 20
-14.382946482
 30
0.0
 10
9.9227133676
 20
-14.2316550627
 30
0.0
 10
9.9183649984
 20
-14.1506823575
 30
0.0
  0
LINE
  5
5F1
100
AcDbEntity
  8
RACCORDO
100
AcDbLine
 62
250
  6
CONTINUOUS
 10
9.9183649984
 20
-14.1506823575
 11
9.9164171839
 21
-14.1143657912
  0
SPLINE
  5
5F2
100
AcDbEntity
  8
RACCORDO
100
AcDbSpline
 62
250
  6
CONTINUOUS
 70
0
 71
3
 72
9
 73
5
 74
0
 42
0.0000001
 43
0.0000001
 44
0.0000000001
 40
0.0
 40
0.0
 40
0.0
 40
0.0
 40
0.1914164166
 40
1.0
 40
1.0
 40
1.0
 40
1.0
 10
9.9164171839
 20
-14.1143657912
 30
0.0
 10
9.9061253066
 20
-13.9222370485
 30
0.0
 10
9.8533996263
 20
-12.9184600127
 30
0.0
 10
9.8043799641
 20
-11.9144903409
 30
0.0
 10
9.7661013848
 20
-11.1026360553
 30
0.0
  0
SPLINE
  5
5F3
100
AcDbEntity
  8
DRAFT
100
AcDbSpline
 62
7
  6
CONTINUOUS
 70
0
 71
3
 72
19
 73
15
 74
0
 42
0.0000001
 43
0.0000001
 44
0.0000000001
 40
0.0
 40
0.0
 40
0.0
 40
0.0
 40
0.0057869916
 40
0.0205091505
 40
0.0444867528
 40
0.0776236569
 40
0.1195992079
 40
0.1700000256
 40
0.228397514
 40
0.2942233087
 40
0.4454511647
 40
0.6179845267
 40
0.805435017
 40
1.0
 40
1.0
 40
1.0
 40
1.0
 10
10.6774765728
 20
19.4065338966
 30
0.0
 10
10.6833040992
 20
19.4065677368
 30
0.0
 10
10.6907441868
 20
19.3793775166
 30
0.0
 10
10.6992642919
 20
19.3420994227
 30
0.0
 10
10.708755049
 20
19.2666683918
 30
0.0
 10
10.7183775446
 20
19.1689376501
 30
0.0
 10
10.7281090994
 20
19.0423021477
 30
0.0
 10
10.7377358502
 20
18.8909872707
 30
0.0
 10
10.747159007
 20
18.7153160265
 30
0.0
 10
10.7599237232
 20
18.4382519812
 30
0.0
 10
10.7743668569
 20
18.0461708113
 30
0.0
 10
10.7890532157
 20
17.5315816312
 30
0.0
 10
10.8012410487
 20
16.9732664844
 30
0.0
 10
10.8074045716
 20
16.5886161705
 30
0.0
 10
10.809991668
 20
16.3927021425
 30
0.0
  0
SPLINE
  5
5F4
100
AcDbEntity
  8
0
100
AcDbSpline
 62
7
  6
CONTINUOUS
 70
0
 71
3
 72
9
 73
5
 74
0
 42
0.0000001
 43
0.0000001
 44
0.0000000001
 40
0.0
 40
0.0
 40
0.0
 40
0.0
 40
0.2789784765
 40
1.0
 40
1.0
 40
1.0
 40
1.0
 10
10.6495297234
 20
22.7846783045
 30
0.0
 10
10.649305855
 20
22.7618931334
 30
0.0
 10
10.6483415471
 20
22.6802217482
 30
0.0
 10
10.6467451001
 20
22.5985540653
 30
0.0
 10
10.6448901
 20
22.5396920358
 30
0.0
  0
SPLINE
  5
5F5
100
AcDbEntity
  8
0
100
AcDbSpline
 62
7
  6
CONTINUOUS
 70
0
 71
3
 72
13
 73
9
 74
0
 42
0.0000001
 43
0.0000001
 44
0.0000000001
 40
0.0
 40
0.0
 40
0.0
 40
0.0
 40
0.0216541225
 40
0.0715102017
 40
0.1517626503
 40
0.2625414038
 40
0.5740885934
 40
1.0
 40
1.0
 40
1.0
 40
1.0
 10
10.5493209956
 20
26.5902971425
 30
0.0
 10
10.5522216073
 20
26.5902971425
 30
0.0
 10
10.5576837053
 20
26.5793611997
 30
0.0
 10
10.5624292816
 20
26.5616753703
 30
0.0
 10
10.5688359623
 20
26.5289281338
 30
0.0
 10
10.5781467043
 20
26.4628831734
 30
0.0
 10
10.5897086877
 20
26.3493444047
 30
0.0
 10
10.5973848396
 20
26.2510251199
 30
0.0
 10
10.6014617314
 20
26.1941193141
 30
0.0
  0
LINE
  5
5F6
100
AcDbEntity
  8
0
100
AcDbLine
 62
7
  6
CONTINUOUS
 10
10.6972826404
 20
23.503815869
 11
10.6982434086
 21
23.443292768
  0
LINE
  5
5F7
100
AcDbEntity
  8
0
100
AcDbLine
 62
7
  6
CONTINUOUS
 10
10.7006655575
 20
23.2742728391
 11
10.7014002876
 21
23.2166151416
  0
SPLINE
  5
5F8
100
AcDbEntity
  8
0
100
AcDbSpline
 62
7
  6
CONTINUOUS
 70
0
 71
3
 72
9
 73
5
 74
0
 42
0.0000001
 43
0.0000001
 44
0.0000000001
 40
0.0
 40
0.0
 40
0.0
 40
0.0
 40
0.2958269688
 40
1.0
 40
1.0
 40
1.0
 40
1.0
 10
10.7028631345
 20
22.1289594731
 30
0.0
 10
10.7023166838
 20
22.0939208808
 30
0.0
 10
10.7000949922
 20
21.975488436
 30
0.0
 10
10.6966614543
 20
21.8570497986
 30
0.0
 10
10.6920732689
 20
21.77376167
 30
0.0
  0
SPLINE
  5
5F9
100
AcDbEntity
  8
0
100
AcDbSpline
 62
7
  6
CONTINUOUS
 70
0
 71
3
 72
11
 73
7
 74
0
 42
0.0000001
 43
0.0000001
 44
0.0000000001
 40
0.0
 40
0.0
 40
0.0
 40
0.0
 40
0.4275665312
 40
0.7365009938
 40
0.9256857041
 40
1.0
 40
1.0
 40
1.0
 40
1.0
 10
10.6920732689
 20
21.77376167
 30
0.0
 10
10.6906462427
 20
21.747857237
 30
0.0
 10
10.6878329128
 20
21.7042054083
 30
0.0
 10
10.6821625978
 20
21.6453679153
 30
0.0
 10
10.6766658544
 20
21.6162791638
 30
0.0
 10
10.6711119723
 20
21.5951071425
 30
0.0
 10
10.6666027595
 20
21.5951071425
 30
0.0
  0
SPLINE
  5
5FA
100
AcDbEntity
  8
RACCORDO
100
AcDbSpline
 62
250
  6
CONTINUOUS
 70
0
 71
3
 72
9
 73
5
 74
0
 42
0.0000001
 43
0.0000001
 44
0.0000000001
 40
0.0
 40
0.0
 40
0.0
 40
0.0
 40
0.2488597433
 40
1.0
 40
1.0
 40
1.0
 40
1.0
 10
9.7661013848
 20
-11.1026360553
 30
0.0
 10
9.435699962
 20
-11.2392486205
 30
0.0
 10
8.0886849544
 20
-11.7405352237
 30
0.0
 10
6.6718303902
 20
-12.0511073412
 30
0.0
 10
5.6
 20
-12.1765352516
 30
0.0
  0
SPLINE
  5
5FB
100
AcDbEntity
  8
DRAFT
100
AcDbSpline
 62
7
  6
CONTINUOUS
 70
0
 71
3
 72
19
 73
15
 74
0
 42
0.0000001
 43
0.0000001
 44
0.0000000001
 40
0.0
 40
0.0
 40
0.0
 40
0.0
 40
0.1946621514
 40
0.3822087274
 40
0.5548225598
 40
0.7060968873
 40
0.7719281272
 40
0.830316755
 40
0.8806939918
 40
0.9226316374
 40
0.9557167299
 40
0.9796305019
 40
0.994280375
 40
1.0
 40
1.0
 40
1.0
 40
1.0
 10
10.809991668
 20
16.3927021425
 30
0.0
 10
10.8125783984
 20
16.196815827
 30
0.0
 10
10.8165736996
 20
15.812188829
 30
0.0
 10
10.8191322696
 20
15.2538287117
 30
0.0
 10
10.8180378735
 20
14.7391366468
 30
0.0
 10
10.8139497826
 20
14.3469284226
 30
0.0
 10
10.8085025208
 20
14.0697591834
 30
0.0
 10
10.8037166994
 20
13.8940383385
 30
0.0
 10
10.7980916549
 20
13.7426960799
 30
0.0
 10
10.7916888347
 20
13.6160270744
 30
0.0
 10
10.7846906652
 20
13.5183357437
 30
0.0
 10
10.777098877
 20
13.4428298011
 30
0.0
 10
10.7697479672
 20
13.4057139969
 30
0.0
 10
10.7628319856
 20
13.3783735305
 30
0.0
 10
10.7570759891
 20
13.3784072928
 30
0.0
  0
SPLINE
  5
5FC
100
AcDbEntity
  8
0
100
AcDbSpline
 62
7
  6
CONTINUOUS
 70
0
 71
3
 72
14
 73
10
 74
0
 42
0.0000001
 43
0.0000001
 44
0.0000000001
 40
0.0
 40
0.0
 40
0.0
 40
0.0
 40
0.0204655433
 40
0.0702976206
 40
0.1511871249
 40
0.2628284262
 40
0.4046360147
 40
0.5756136411
 40
1.0
 40
1.0
 40
1.0
 40
1.0
 10
10.567969142
 20
25.8823209392
 30
0.0
 10
10.5706697157
 20
25.8823171099
 30
0.0
 10
10.5750312808
 20
25.8709162689
 30
0.0
 10
10.5792540942
 20
25.8539156824
 30
0.0
 10
10.5846482966
 20
25.821021585
 30
0.0
 10
10.5899972117
 20
25.7778063325
 30
0.0
 10
10.5956724503
 20
25.7218637433
 30
0.0
 10
10.6039398177
 20
25.6250426091
 30
0.0
 10
10.6092786517
 20
25.5466091485
 30
0.0
 10
10.6127740082
 20
25.4907174897
 30
0.0
  0
SPLINE
  5
5FD
100
AcDbEntity
  8
0
100
AcDbSpline
 62
7
  6
CONTINUOUS
 70
0
 71
3
 72
14
 73
10
 74
0
 42
0.0000001
 43
0.0000001
 44
0.0000000001
 40
0.0
 40
0.0
 40
0.0
 40
0.0
 40
0.0167099491
 40
0.0659823483
 40
0.1473194777
 40
0.2600984467
 40
0.403489347
 40
0.5758451688
 40
1.0
 40
1.0
 40
1.0
 40
1.0
 10
10.5681588608
 20
31.453090185
 30
0.0
 10
10.5665477983
 20
31.4531218954
 30
0.0
 10
10.5687285646
 20
31.4429308545
 30
0.0
 10
10.5659497144
 20
31.4323881122
 30
0.0
 10
10.5672845412
 20
31.4068543485
 30
0.0
 10
10.5668910497
 20
31.3752083871
 30
0.0
 10
10.5676363172
 20
31.3335443597
 30
0.0
 10
10.5686867128
 20
31.2623648373
 30
0.0
 10
10.5699236165
 20
31.2047823021
 30
0.0
 10
10.5708302231
 20
31.1638902318
 30
0.0
  0
LINE
  5
5FE
100
AcDbEntity
  8
0
100
AcDbLine
 62
7
  6
CONTINUOUS
 10
10.5861064303
 20
30.5994735926
 11
10.5901076653
 21
30.4716941425
  0
SPLINE
  5
5FF
100
AcDbEntity
  8
RACCORDO
100
AcDbSpline
 62
250
  6
CONTINUOUS
 70
0
 71
3
 72
14
 73
10
 74
0
 42
0.0000001
 43
0.0000001
 44
0.0000000001
 40
0.0
 40
0.0
 40
0.0
 40
0.0
 40
0.4551133002
 40
0.5920934587
 40
0.6688165022
 40
0.6861163205
 40
0.7306992603
 40
0.8352793704
 40
1.0
 40
1.0
 40
1.0
 40
1.0
 10
10.7469028205
 20
-12.6472231475
 30
0.0
 10
10.7475066355
 20
-12.6690069597
 30
0.0
 10
10.7475284718
 20
-12.6966660355
 30
0.0
 10
10.7505195193
 20
-12.7298892966
 30
0.0
 10
10.7497596798
 20
-12.7396049722
 30
0.0
 10
10.7526373551
 20
-12.7478448336
 30
0.0
 10
10.7529093844
 20
-12.7330663417
 30
0.0
 10
10.7539146798
 20
-12.7232445563
 30
0.0
 10
10.7541720719
 20
-12.7083917863
 30
0.0
 10
10.7543734672
 20
-12.7005070441
 30
0.0
  0
SPLINE
  5
600
100
AcDbEntity
  8
0
100
AcDbSpline
 62
7
  6
CONTINUOUS
 70
0
 71
3
 72
17
 73
13
 74
0
 42
0.0000001
 43
0.0000001
 44
0.0000000001
 40
0.0
 40
0.0
 40
0.0
 40
0.0
 40
0.0055937059
 40
0.0187486117
 40
0.0400796795
 40
0.0696220063
 40
0.1528661905
 40
0.2673851211
 40
0.4116777197
 40
0.5835437449
 40
0.7806299243
 40
1.0
 40
1.0
 40
1.0
 40
1.0
 10
-10.5713725641
 20
29.2276192574
 30
0.0
 10
-10.5734286697
 20
29.2276193475
 30
0.0
 10
-10.5771581662
 20
29.2195670902
 30
0.0
 10
-10.5805075765
 20
29.2068323679
 30
0.0
 10
-10.5850062034
 20
29.1828551778
 30
0.0
 10
-10.5916798173
 20
29.1345096246
 30
0.0
 10
-10.6001600915
 20
29.0510017128
 30
0.0
 10
-10.6101257331
 20
28.9258382569
 30
0.0
 10
-10.6205806788
 20
28.7678073785
 30
0.0
 10
-10.6313368257
 20
28.5794800376
 30
0.0
 10
-10.6422194689
 20
28.363492475
 30
0.0
 10
-10.6491291529
 20
28.2105710087
 30
0.0
 10
-10.6526059021
 20
28.1300110733
 30
0.0
  0
SPLINE
  5
601
100
AcDbEntity
  8
0
100
AcDbSpline
 62
7
  6
CONTINUOUS
 70
0
 71
3
 72
17
 73
13
 74
0
 42
0.0000001
 43
0.0000001
 44
0.0000000001
 40
0.0
 40
0.0
 40
0.0
 40
0.0
 40
0.0058047878
 40
0.0188922697
 40
0.0399756129
 40
0.0691504786
 40
0.1514279141
 40
0.2648147611
 40
0.4082092938
 40
0.5799023928
 40
0.7778798694
 40
1.0
 40
1.0
 40
1.0
 40
1.0
 10
-10.427508356
 20
33.5604913324
 30
0.0
 10
-10.4292409122
 20
33.5604914074
 30
0.0
 10
-10.4326973738
 20
33.5542994231
 30
0.0
 10
-10.4356953805
 20
33.5438523763
 30
0.0
 10
-10.4398114112
 20
33.5248045156
 30
0.0
 10
-10.445901262
 20
33.4860479498
 30
0.0
 10
-10.4537518691
 20
33.4191375408
 30
0.0
 10
-10.4630888978
 20
33.3184840276
 30
0.0
 10
-10.4730329828
 20
33.1909360754
 30
0.0
 10
-10.483417639
 20
33.0381681274
 30
0.0
 10
-10.4941267219
 20
32.8618546448
 30
0.0
 10
-10.5010227682
 20
32.7366585654
 30
0.0
 10
-10.5045276725
 20
32.6704550354
 30
0.0
  0
SPLINE
  5
602
100
AcDbEntity
  8
0
100
AcDbSpline
 62
7
  6
CONTINUOUS
 70
0
 71
3
 72
9
 73
5
 74
0
 42
0.0000001
 43
0.0000001
 44
0.0000000001
 40
0.0
 40
0.0
 40
0.0
 40
0.0
 40
0.2213044505
 40
1.0
 40
1.0
 40
1.0
 40
1.0
 10
-10.5045276725
 20
32.6704550354
 30
0.0
 10
-10.510974596
 20
32.5486802151
 30
0.0
 10
-10.5379315347
 20
31.9983066154
 30
0.0
 10
-10.5587578813
 20
31.4476461698
 30
0.0
 10
-10.5728094746
 20
31.0187918293
 30
0.0
  0
SPLINE
  5
603
100
AcDbEntity
  8
0
100
AcDbSpline
 62
7
  6
CONTINUOUS
 70
0
 71
3
 72
18
 73
14
 74
0
 42
0.0000001
 43
0.0000001
 44
0.0000000001
 40
0.0
 40
0.0
 40
0.0
 40
0.0
 40
0.0053871662
 40
0.0200632258
 40
0.0442039688
 40
0.0775627863
 40
0.1198507181
 40
0.1706726439
 40
0.2956950978
 40
0.4476671419
 40
0.6203437281
 40
0.8069367326
 40
1.0
 40
1.0
 40
1.0
 40
1.0
 10
-10.454718382
 20
32.795878223
 30
0.0
 10
-10.4513880123
 20
32.7958785184
 30
0.0
 10
-10.4494534644
 20
32.7780921739
 30
0.0
 10
-10.4453815868
 20
32.7561153644
 30
0.0
 10
-10.4431075185
 20
32.7086882383
 30
0.0
 10
-10.4405853807
 20
32.6482923441
 30
0.0
 10
-10.4390225969
 20
32.5696476929
 30
0.0
 10
-10.4376064217
 20
32.435021922
 30
0.0
 10
-10.4380524586
 20
32.23222084
 30
0.0
 10
-10.4412891636
 20
31.9543048745
 30
0.0
 10
-10.4473293086
 20
31.6382897351
 30
0.0
 10
-10.4559672325
 20
31.2969482842
 30
0.0
 10
-10.463241434
 20
31.0623530636
 30
0.0
 10
-10.4672680688
 20
30.9430684479
 30
0.0
  0
SPLINE
  5
604
100
AcDbEntity
  8
0
100
AcDbSpline
 62
7
  6
CONTINUOUS
 70
0
 71
3
 72
12
 73
8
 74
0
 42
0.0000001
 43
0.0000001
 44
0.0000000001
 40
0.0
 40
0.0
 40
0.0
 40
0.0
 40
0.413670228
 40
0.7317973515
 40
0.9300525784
 40
0.9809428066
 40
1.0
 40
1.0
 40
1.0
 40
1.0
 10
-10.7411230237
 20
18.6325738831
 30
0.0
 10
-10.741042938
 20
18.6180024628
 30
0.0
 10
-10.7408282853
 20
18.5919536683
 30
0.0
 10
-10.7397611037
 20
18.5600781709
 30
0.0
 10
-10.7390198721
 20
18.5385783642
 30
0.0
 10
-10.7375259344
 20
18.530732806
 30
0.0
 10
-10.7370482829
 20
18.5272622988
 30
0.0
 10
-10.7363769976
 20
18.5272587785
 30
0.0
  0
SPLINE
  5
605
100
AcDbEntity
  8
0
100
AcDbSpline
 62
7
  6
CONTINUOUS
 70
0
 71
3
 72
11
 73
7
 74
0
 42
0.0000001
 43
0.0000001
 44
0.0000000001
 40
0.0
 40
0.0
 40
0.0
 40
0.0
 40
0.0929557063
 40
0.2953598499
 40
0.6012584042
 40
1.0
 40
1.0
 40
1.0
 40
1.0
 10
-10.8255756136
 20
19.6197428208
 30
0.0
 10
-10.8272791771
 20
19.6157722645
 30
0.0
 10
-10.8279192937
 20
19.6016951516
 30
0.0
 10
-10.8308493418
 20
19.5741712836
 30
0.0
 10
-10.8327469762
 20
19.531898444
 30
0.0
 10
-10.834274847
 20
19.4992298847
 30
0.0
 10
-10.8350026942
 20
19.4807106608
 30
0.0
  0
SPLINE
  5
606
100
AcDbEntity
  8
0
100
AcDbSpline
 62
7
  6
CONTINUOUS
 70
0
 71
3
 72
9
 73
5
 74
0
 42
0.0000001
 43
0.0000001
 44
0.0000000001
 40
0.0
 40
0.0
 40
0.0
 40
0.0
 40
0.3052667394
 40
1.0
 40
1.0
 40
1.0
 40
1.0
 10
-10.8459143669
 20
18.8587088759
 30
0.0
 10
-10.8458764622
 20
18.8464209647
 30
0.0
 10
-10.8456433019
 20
18.8061697004
 30
0.0
 10
-10.845169687
 20
18.7659109663
 30
0.0
 10
-10.8441502847
 20
18.7379643007
 30
0.0
  0
SPLINE
  5
607
100
AcDbEntity
  8
0
100
AcDbSpline
 62
7
  6
CONTINUOUS
 70
0
 71
3
 72
9
 73
5
 74
0
 42
0.0000001
 43
0.0000001
 44
0.0000000001
 40
0.0
 40
0.0
 40
0.0
 40
0.0
 40
0.352337429
 40
1.0
 40
1.0
 40
1.0
 40
1.0
 10
-10.8441502847
 20
18.7379643007
 30
0.0
 10
-10.843998656
 20
18.7338074372
 30
0.0
 10
-10.8434199423
 20
18.7220307321
 30
0.0
 10
-10.843078039
 20
18.7101572741
 30
0.0
 10
-10.8416765156
 20
18.7026406392
 30
0.0
  0
SPLINE
  5
608
100
AcDbEntity
  8
0
100
AcDbSpline
 62
7
  6
CONTINUOUS
 70
0
 71
3
 72
9
 73
5
 74
0
 42
0.0000001
 43
0.0000001
 44
0.0000000001
 40
0.0
 40
0.0
 40
0.0
 40
0.0
 40
0.7058687148
 40
1.0
 40
1.0
 40
1.0
 40
1.0
 10
-10.8416765156
 20
18.7026406392
 30
0.0
 10
-10.8415339733
 20
18.7018761577
 30
0.0
 10
-10.8413462656
 20
18.7009778662
 30
0.0
 10
-10.8408227396
 20
18.6996211625
 30
0.0
 10
-10.8404987209
 20
18.6996170314
 30
0.0
  0
SPLINE
  5
609
100
AcDbEntity
  8
0
100
AcDbSpline
 62
7
  6
CONTINUOUS
 70
0
 71
3
 72
8
 73
4
 74
0
 42
0.0000001
 43
0.0000001
 44
0.0000000001
 40
0.0
 40
0.0
 40
0.0
 40
0.0
 40
1.0
 40
1.0
 40
1.0
 40
1.0
 10
-10.6099023984
 20
28.2562921517
 30
0.0
 10
-10.6226919461
 20
27.8154706656
 30
0.0
 10
-10.6350926485
 20
27.3746377264
 30
0.0
 10
-10.6471044768
 20
26.9337943629
 30
0.0
  0
SPLINE
  5
60A
100
AcDbEntity
  8
0
100
AcDbSpline
 62
7
  6
CONTINUOUS
 70
0
 71
3
 72
11
 73
7
 74
0
 42
0.0000001
 43
0.0000001
 44
0.0000000001
 40
0.0
 40
0.0
 40
0.0
 40
0.0
 40
0.1297743188
 40
0.3563166118
 40
0.6566214054
 40
1.0
 40
1.0
 40
1.0
 40
1.0
 10
-10.58528529
 20
28.4216001618
 30
0.0
 10
-10.5787911973
 20
28.3519091921
 30
0.0
 10
-10.5756830586
 20
28.1594947441
 30
0.0
 10
-10.573563406
 20
27.8055121997
 30
0.0
 10
-10.5792058642
 20
27.336106342
 30
0.0
 10
-10.5862337319
 20
26.989028475
 30
0.0
 10
-10.5908517364
 20
26.8038871695
 30
0.0
  0
SPLINE
  5
60B
100
AcDbEntity
  8
0
100
AcDbSpline
 62
7
  6
CONTINUOUS
 70
0
 71
3
 72
9
 73
5
 74
0
 42
0.0000001
 43
0.0000001
 44
0.0000000001
 40
0.0
 40
0.0
 40
0.0
 40
0.0
 40
0.499999885
 40
1.0
 40
1.0
 40
1.0
 40
1.0
 10
-9.9803542609
 20
-15.1890134809
 30
0.0
 10
-10.1919752872
 20
-15.0876400139
 30
0.0
 10
-10.5665071644
 20
-14.7616000716
 30
0.0
 10
-10.7118076748
 20
-14.2867697005
 30
0.0
 10
-10.7182363756
 20
-14.0522089173
 30
0.0
  0
SPLINE
  5
60C
100
AcDbEntity
  8
0
100
AcDbSpline
 62
7
  6
CONTINUOUS
 70
0
 71
3
 72
9
 73
5
 74
0
 42
0.0000001
 43
0.0000001
 44
0.0000000001
 40
0.0
 40
0.0
 40
0.0
 40
0.0
 40
0.3680724096
 40
1.0
 40
1.0
 40
1.0
 40
1.0
 10
-10.9343400625
 20
17.7323913741
 30
0.0
 10
-10.9344586407
 20
17.7088277042
 30
0.0
 10
-10.9343982133
 20
17.6448228184
 30
0.0
 10
-10.9355178789
 20
17.5807368672
 30
0.0
 10
-10.9333702374
 20
17.5403379549
 30
0.0
  0
SPLINE
  5
60D
100
AcDbEntity
  8
0
100
AcDbSpline
 62
7
  6
CONTINUOUS
 70
0
 71
3
 72
9
 73
5
 74
0
 42
0.0000001
 43
0.0000001
 44
0.0000000001
 40
0.0
 40
0.0
 40
0.0
 40
0.0
 40
0.7424094944
 40
1.0
 40
1.0
 40
1.0
 40
1.0
 10
-10.9333702374
 20
17.5403379549
 30
0.0
 10
-10.9332636976
 20
17.5383338523
 30
0.0
 10
-10.9326103471
 20
17.5365314953
 30
0.0
 10
-10.9330761153
 20
17.532328913
 30
0.0
 10
-10.9323799341
 20
17.5323142103
 30
0.0
  0
SPLINE
  5
60E
100
AcDbEntity
  8
0
100
AcDbSpline
 62
7
  6
CONTINUOUS
 70
0
 71
3
 72
9
 73
5
 74
0
 42
0.0000001
 43
0.0000001
 44
0.0000000001
 40
0.0
 40
0.0
 40
0.0
 40
0.0
 40
0.2710191884
 40
1.0
 40
1.0
 40
1.0
 40
1.0
 10
-10.3908101547
 20
31.0170608675
 30
0.0
 10
-10.3859420855
 20
31.1662968542
 30
0.0
 10
-10.3694214138
 20
31.7169865432
 30
0.0
 10
-10.35771342
 20
32.2678478529
 30
0.0
 10
-10.3542631058
 20
32.6694578602
 30
0.0
  0
SPLINE
  5
60F
100
AcDbEntity
  8
0
100
AcDbSpline
 62
7
  6
CONTINUOUS
 70
0
 71
3
 72
9
 73
5
 74
0
 42
0.0000001
 43
0.0000001
 44
0.0000000001
 40
0.0
 40
0.0
 40
0.0
 40
0.0
 40
0.2977524127
 40
1.0
 40
1.0
 40
1.0
 40
1.0
 10
-10.3542631058
 20
32.6694578602
 30
0.0
 10
-10.3537273157
 20
32.7318228027
 30
0.0
 10
-10.3524703919
 20
32.9412745476
 30
0.0
 10
-10.3528070965
 20
33.1507688528
 30
0.0
 10
-10.3561178666
 20
33.2978244239
 30
0.0
  0
SPLINE
  5
610
100
AcDbEntity
  8
0
100
AcDbSpline
 62
7
  6
CONTINUOUS
 70
0
 71
3
 72
13
 73
9
 74
0
 42
0.0000001
 43
0.0000001
 44
0.0000000001
 40
0.0
 40
0.0
 40
0.0
 40
0.0
 40
0.4293318352
 40
0.7406930526
 40
0.8509072664
 40
0.9302910454
 40
0.979106542
 40
1.0
 40
1.0
 40
1.0
 40
1.0
 10
-10.3561178666
 20
33.2978244239
 30
0.0
 10
-10.3569716633
 20
33.3357477974
 30
0.0
 10
-10.3588373279
 20
33.4010499437
 30
0.0
 10
-10.362799488
 20
33.47647032
 30
0.0
 10
-10.3666982489
 20
33.5201313031
 30
0.0
 10
-10.3698713313
 20
33.5417124718
 30
0.0
 10
-10.372264284
 20
33.5532769732
 30
0.0
 10
-10.375612965
 20
33.56049122
 30
0.0
 10
-10.3774589758
 20
33.5604913324
 30
0.0
  0
LINE
  5
611
100
AcDbEntity
  8
0
100
AcDbLine
 62
7
  6
CONTINUOUS
 10
-10.6429050092
 20
26.4240446995
 11
-10.6397953618
 21
26.5517748642
  0
LINE
  5
612
100
AcDbEntity
  8
0
100
AcDbLine
 62
7
  6
CONTINUOUS
 10
-10.6397953618
 20
26.5517748642
 11
-10.6364828865
 21
26.6788796228
  0
SPLINE
  5
613
100
AcDbEntity
  8
0
100
AcDbSpline
 62
250
  6
CONTINUOUS
 70
0
 71
3
 72
18
 73
14
 74
0
 42
0.0000001
 43
0.0000001
 44
0.0000000001
 40
0.0
 40
0.0
 40
0.0
 40
0.0
 40
0.0037356168
 40
0.0153176892
 40
0.0347716976
 40
0.0620952257
 40
0.0972829108
 40
0.1403285985
 40
0.2499679718
 40
0.3909367865
 40
0.5630626892
 40
0.7661492678
 40
1.0
 40
1.0
 40
1.0
 40
1.0
 10
-9.9803567342
 20
-15.189018644
 30
0.0
 10
-9.9791829674
 20
-15.1895665551
 30
0.0
 10
-9.9800454881
 20
-15.1799173094
 30
0.0
 10
-9.9772761728
 20
-15.1722386253
 30
0.0
 10
-9.9765423624
 20
-15.1495787248
 30
0.0
 10
-9.97406133
 20
-15.1223384274
 30
0.0
 10
-9.9717297396
 20
-15.0853909255
 30
0.0
 10
-9.9674411998
 20
-15.0205862804
 30
0.0
 10
-9.9612776193
 20
-14.9188146162
 30
0.0
 10
-9.952687614
 20
-14.7725379726
 30
0.0
 10
-9.9425657757
 20
-14.5938139987
 30
0.0
 10
-9.9309048357
 20
-14.382946482
 30
0.0
 10
-9.9227133676
 20
-14.2316550627
 30
0.0
 10
-9.9183649984
 20
-14.1506823575
 30
0.0
  0
LINE
  5
614
100
AcDbEntity
  8
0
100
AcDbLine
 62
250
  6
CONTINUOUS
 10
-9.9183649984
 20
-14.1506823575
 11
-9.9164171839
 21
-14.1143657912
  0
SPLINE
  5
615
100
AcDbEntity
  8
0
100
AcDbSpline
 62
250
  6
CONTINUOUS
 70
0
 71
3
 72
9
 73
5
 74
0
 42
0.0000001
 43
0.0000001
 44
0.0000000001
 40
0.0
 40
0.0
 40
0.0
 40
0.0
 40
0.1914164166
 40
1.0
 40
1.0
 40
1.0
 40
1.0
 10
-9.9164171839
 20
-14.1143657912
 30
0.0
 10
-9.9061253066
 20
-13.9222370485
 30
0.0
 10
-9.8533996263
 20
-12.9184600127
 30
0.0
 10
-9.8043799641
 20
-11.9144903409
 30
0.0
 10
-9.7661013848
 20
-11.1026360553
 30
0.0
  0
SPLINE
  5
616
100
AcDbEntity
  8
0
100
AcDbSpline
 62
7
  6
CONTINUOUS
 70
0
 71
3
 72
9
 73
5
 74
0
 42
0.0000001
 43
0.0000001
 44
0.0000000001
 40
0.0
 40
0.0
 40
0.0
 40
0.0
 40
0.2657950935
 40
1.0
 40
1.0
 40
1.0
 40
1.0
 10
-10.5134765685
 20
26.9393272732
 30
0.0
 10
-10.5109512361
 20
27.0447636015
 30
0.0
 10
-10.5021830309
 20
27.4414627336
 30
0.0
 10
-10.4961506949
 20
27.8382285858
 30
0.0
 10
-10.4940329519
 20
28.1295508356
 30
0.0
  0
SPLINE
  5
617
100
AcDbEntity
  8
0
100
AcDbSpline
 62
7
  6
CONTINUOUS
 70
0
 71
3
 72
9
 73
5
 74
0
 42
0.0000001
 43
0.0000001
 44
0.0000000001
 40
0.0
 40
0.0
 40
0.0
 40
0.0
 40
0.30336753
 40
1.0
 40
1.0
 40
1.0
 40
1.0
 10
-10.4940329519
 20
28.1295508356
 30
0.0
 10
-10.4934188202
 20
28.2140323917
 30
0.0
 10
-10.4922161027
 20
28.4925069851
 30
0.0
 10
-10.4929778323
 20
28.7710559105
 30
0.0
 10
-10.4984681924
 20
28.9649810047
 30
0.0
  0
SPLINE
  5
618
100
AcDbEntity
  8
0
100
AcDbSpline
 62
7
  6
CONTINUOUS
 70
0
 71
3
 72
13
 73
9
 74
0
 42
0.0000001
 43
0.0000001
 44
0.0000000001
 40
0.0
 40
0.0
 40
0.0
 40
0.0
 40
0.4292159957
 40
0.7405421758
 40
0.8507695889
 40
0.9301868528
 40
0.9790538283
 40
1.0
 40
1.0
 40
1.0
 40
1.0
 10
-10.4984681924
 20
28.9649810047
 30
0.0
 10
-10.4995418012
 20
29.0029019584
 30
0.0
 10
-10.5017872601
 20
29.0682024647
 30
0.0
 10
-10.5061836161
 20
29.143611694
 30
0.0
 10
-10.5103398273
 20
29.1872676884
 30
0.0
 10
-10.5136314839
 20
29.2088439481
 30
0.0
 10
-10.5161051816
 20
29.2204146718
 30
0.0
 10
-10.5194814922
 20
29.2276191752
 30
0.0
 10
-10.5213328143
 20
29.2276192574
 30
0.0
  0
SPLINE
  5
619
100
AcDbEntity
  8
0
100
AcDbSpline
 62
250
  6
CONTINUOUS
 70
0
 71
3
 72
9
 73
5
 74
0
 42
0.0000001
 43
0.0000001
 44
0.0000000001
 40
0.0
 40
0.0
 40
0.0
 40
0.0
 40
0.2488597433
 40
1.0
 40
1.0
 40
1.0
 40
1.0
 10
-9.7661013848
 20
-11.1026360553
 30
0.0
 10
-9.435699962
 20
-11.2392486205
 30
0.0
 10
-8.0886849544
 20
-11.7405352237
 30
0.0
 10
-6.6718303902
 20
-12.0511073412
 30
0.0
 10
-5.6
 20
-12.1765352516
 30
0.0
  0
SPLINE
  5
61A
100
AcDbEntity
  8
0
100
AcDbSpline
 62
250
  6
CONTINUOUS
 70
0
 71
3
 72
8
 73
4
 74
0
 42
0.0000001
 43
0.0000001
 44
0.0000000001
 40
0.0
 40
0.0
 40
0.0
 40
0.0
 40
1.0
 40
1.0
 40
1.0
 40
1.0
 10
-10.7473447034
 20
-12.60450584
 30
0.0
 10
-10.7496745434
 20
-12.6204954364
 30
0.0
 10
-10.7515920212
 20
-12.6365574518
 30
0.0
 10
-10.7528692957
 20
-12.6526653355
 30
0.0
  0
SPLINE
  5
61B
100
AcDbEntity
  8
0
100
AcDbSpline
 62
250
  6
CONTINUOUS
 70
0
 71
3
 72
8
 73
4
 74
0
 42
0.0000001
 43
0.0000001
 44
0.0000000001
 40
0.0
 40
0.0
 40
0.0
 40
0.0
 40
1.0
 40
1.0
 40
1.0
 40
1.0
 10
-10.7528692957
 20
-12.6526653355
 30
0.0
 10
-10.7541252522
 20
-12.6685043748
 30
0.0
 10
-10.754778013
 20
-12.6844240793
 30
0.0
 10
-10.7543766576
 20
-12.7003077661
 30
0.0
  0
SPLINE
  5
61C
100
AcDbEntity
  8
0
100
AcDbSpline
 62
250
  6
CONTINUOUS
 70
0
 71
3
 72
9
 73
5
 74
0
 42
0.0000001
 43
0.0000001
 44
0.0000000001
 40
0.0
 40
0.0
 40
0.0
 40
0.0
 40
0.2394565648
 40
1.0
 40
1.0
 40
1.0
 40
1.0
 10
-10.9713668022
 20
13.045616309
 30
0.0
 10
-10.9715436214
 20
13.0280260581
 30
0.0
 10
-10.9708907678
 20
12.9545545084
 30
0.0
 10
-10.9649958911
 20
12.8811723659
 30
0.0
 10
-10.9582350038
 20
12.8257113157
 30
0.0
  0
LINE
  5
61D
100
AcDbEntity
  8
0
100
AcDbLine
 62
7
  6
CONTINUOUS
 10
-10.8097794434
 20
17.8446620867
 11
-10.7967403849
 21
18.1821098249
  0
LINE
  5
61E
100
AcDbEntity
  8
0
100
AcDbLine
 62
7
  6
CONTINUOUS
 10
-10.7967403849
 20
18.1821098249
 11
-10.7828740787
 21
18.5291636319
  0
LINE
  5
61F
100
AcDbEntity
  8
0
100
AcDbLine
 62
7
  6
CONTINUOUS
 10
-10.6901454532
 20
17.5055371819
 11
-10.6871277874
 21
17.5675305764
  0
LINE
  5
620
100
AcDbEntity
  8
0
100
AcDbLine
 62
7
  6
CONTINUOUS
 10
-10.6903133067
 20
17.780964441
 11
-10.6974299752
 21
18.1830418613
  0
LINE
  5
621
100
AcDbEntity
  8
0
100
AcDbLine
 62
7
  6
CONTINUOUS
 10
-10.6705760234
 20
19.1385329939
 11
-10.6682085512
 21
19.2212224435
  0
LINE
  5
622
100
AcDbEntity
  8
0
100
AcDbLine
 62
7
  6
CONTINUOUS
 10
-10.6465365615
 20
20.1847074156
 11
-10.644986569
 21
20.2779317204
  0
LINE
  5
623
100
AcDbEntity
  8
0
100
AcDbLine
 62
7
  6
CONTINUOUS
 10
-10.8199362643
 20
19.3015878383
 11
-10.8197922991
 21
19.318261679
  0
SPLINE
  5
624
100
AcDbEntity
  8
0
100
AcDbSpline
 62
7
  6
CONTINUOUS
 70
0
 71
3
 72
9
 73
5
 74
0
 42
0.0000001
 43
0.0000001
 44
0.0000000001
 40
0.0
 40
0.0
 40
0.0
 40
0.0
 40
0.338616414
 40
1.0
 40
1.0
 40
1.0
 40
1.0
 10
-10.8202182687
 20
19.5429753949
 30
0.0
 10
-10.8203636255
 20
19.5507498252
 30
0.0
 10
-10.8209447398
 20
19.5736979995
 30
0.0
 10
-10.8214577268
 20
19.5966953045
 30
0.0
 10
-10.8230084893
 20
19.6118035507
 30
0.0
  0
SPLINE
  5
625
100
AcDbEntity
  8
0
100
AcDbSpline
 62
7
  6
CONTINUOUS
 70
0
 71
3
 72
9
 73
5
 74
0
 42
0.0000001
 43
0.0000001
 44
0.0000000001
 40
0.0
 40
0.0
 40
0.0
 40
0.0
 40
0.6311226489
 40
1.0
 40
1.0
 40
1.0
 40
1.0
 10
-10.8230084893
 20
19.6118035507
 30
0.0
 10
-10.8231812439
 20
19.613486606
 30
0.0
 10
-10.8235150451
 20
19.6161359484
 30
0.0
 10
-10.8239802416
 20
19.6188033336
 30
0.0
 10
-10.8243405834
 20
19.6197242203
 30
0.0
  0
LINE
  5
626
100
AcDbEntity
  8
0
100
AcDbLine
 62
7
  6
CONTINUOUS
 10
-10.859798213
 20
17.8446620838
 11
-10.8467604826
 21
18.1821098207
  0
LINE
  5
627
100
AcDbEntity
  8
0
100
AcDbLine
 62
7
  6
CONTINUOUS
 10
-10.6363010802
 20
21.0003885733
 11
-10.6357398783
 21
21.0780948783
  0
LINE
  5
628
100
AcDbEntity
  8
0
100
AcDbLine
 62
7
  6
CONTINUOUS
 10
-10.6357398783
 20
21.0780948783
 11
-10.635412789
 21
21.1293669956
  0
LINE
  5
629
100
AcDbEntity
  8
0
100
AcDbLine
 62
7
  6
CONTINUOUS
 10
-10.635412789
 20
21.1293669956
 11
-10.6352633072
 21
21.1548436934
  0
LINE
  5
62A
100
AcDbEntity
  8
0
100
AcDbLine
 62
7
  6
CONTINUOUS
 10
-10.7401794846
 20
17.5055371819
 11
-10.736556905
 21
17.5799292143
  0
LINE
  5
62B
100
AcDbEntity
  8
0
100
AcDbLine
 62
7
  6
CONTINUOUS
 10
-10.7403470778
 20
17.7809644421
 11
-10.7474624958
 21
18.1830418628
  0
LINE
  5
62C
100
AcDbEntity
  8
0
100
AcDbLine
 62
7
  6
CONTINUOUS
 10
-10.601518927
 20
22.3158314464
 11
-10.6024705617
 21
22.3902759513
  0
LINE
  5
62D
100
AcDbEntity
  8
0
100
AcDbLine
 62
7
  6
CONTINUOUS
 10
-10.7255347669
 20
18.9756922939
 11
-10.7247543468
 21
19.0007316399
  0
LINE
  5
62E
100
AcDbEntity
  8
0
100
AcDbLine
 62
7
  6
CONTINUOUS
 10
-10.7247543468
 20
19.0007316399
 11
-10.7206109988
 21
19.1385329927
  0
LINE
  5
62F
100
AcDbEntity
  8
0
100
AcDbLine
 62
7
  6
CONTINUOUS
 10
-10.7206109988
 20
19.1385329927
 11
-10.7182437411
 21
19.2212224421
  0
LINE
  5
630
100
AcDbEntity
  8
0
100
AcDbLine
 62
7
  6
CONTINUOUS
 10
-10.6965734719
 20
20.1847074156
 11
-10.6950235736
 21
20.2779317196
  0
SPLINE
  5
631
100
AcDbEntity
  8
0
100
AcDbSpline
 62
7
  6
CONTINUOUS
 70
0
 71
3
 72
8
 73
4
 74
0
 42
0.0000001
 43
0.0000001
 44
0.0000000001
 40
0.0
 40
0.0
 40
0.0
 40
0.0
 40
1.0
 40
1.0
 40
1.0
 40
1.0
 10
-10.7327245655
 20
21.5589294534
 30
0.0
 10
-10.733387974
 20
21.7255313434
 30
0.0
 10
-10.7338917424
 20
21.8921339455
 30
0.0
 10
-10.7342358718
 20
22.0587368009
 30
0.0
  0
LINE
  5
632
100
AcDbEntity
  8
0
100
AcDbLine
 62
7
  6
CONTINUOUS
 10
-10.6863383756
 20
21.0003885733
 11
-10.6857771558
 21
21.0780948782
  0
LINE
  5
633
100
AcDbEntity
  8
0
100
AcDbLine
 62
7
  6
CONTINUOUS
 10
-10.6857771558
 20
21.0780948782
 11
-10.6854500491
 21
21.1293669956
  0
LINE
  5
634
100
AcDbEntity
  8
0
100
AcDbLine
 62
7
  6
CONTINUOUS
 10
-10.6854500491
 20
21.1293669956
 11
-10.6853005569
 21
21.1548436934
  0
SPLINE
  5
635
100
AcDbEntity
  8
0
100
AcDbSpline
 62
7
  6
CONTINUOUS
 70
0
 71
3
 72
11
 73
7
 74
0
 42
0.0000001
 43
0.0000001
 44
0.0000000001
 40
0.0
 40
0.0
 40
0.0
 40
0.0
 40
0.0646466103
 40
0.2542478895
 40
0.5668422081
 40
1.0
 40
1.0
 40
1.0
 40
1.0
 10
-10.9023754558
 20
17.5323142103
 30
0.0
 10
-10.9007312366
 20
17.5322794886
 30
0.0
 10
-10.9024878094
 20
17.542559082
 30
0.0
 10
-10.8991312713
 20
17.5532803853
 30
0.0
 10
-10.8992935853
 20
17.5791533649
 30
0.0
 10
-10.898068544
 20
17.5974213763
 30
0.0
 10
-10.8976425207
 20
17.6084325114
 30
0.0
  0
SPLINE
  5
636
100
AcDbEntity
  8
0
100
AcDbSpline
 62
250
  6
CONTINUOUS
 70
0
 71
3
 72
9
 73
5
 74
0
 42
0.0000001
 43
0.0000001
 44
0.0000000001
 40
0.0
 40
0.0
 40
0.0
 40
0.0
 40
0.4224077329
 40
1.0
 40
1.0
 40
1.0
 40
1.0
 10
-9.7661289791
 20
-11.102598918
 30
0.0
 10
-9.7484182125
 20
-10.7621536067
 30
0.0
 10
-9.6730260726
 20
-9.9581901181
 30
0.0
 10
-9.5744050326
 20
-9.1571033547
 30
0.0
 10
-9.5078605801
 20
-8.6957296307
 30
0.0
  0
SPLINE
  5
637
100
AcDbEntity
  8
0
100
AcDbSpline
 62
250
  6
CONTINUOUS
 70
0
 71
3
 72
10
 73
6
 74
0
 42
0.0000001
 43
0.0000001
 44
0.0000000001
 40
0.0
 40
0.0
 40
0.0
 40
0.0
 40
0.1849094619
 40
0.4234618992
 40
1.0
 40
1.0
 40
1.0
 40
1.0
 10
-5.5999999992
 20
-12.1765352468
 30
0.0
 10
-5.6032925365
 20
-12.0240022485
 30
0.0
 10
-5.5965089761
 20
-11.6744471616
 30
0.0
 10
-5.5509295821
 20
-10.8505790776
 30
0.0
 10
-5.4867516347
 20
-10.1807677233
 30
0.0
 10
-5.4333333325
 20
-9.7080757589
 30
0.0
  0
SPLINE
  5
638
100
AcDbEntity
  8
0
100
AcDbSpline
 62
250
  6
CONTINUOUS
 70
0
 71
3
 72
10
 73
6
 74
0
 42
0.0000001
 43
0.0000001
 44
0.0000000001
 40
0.0
 40
0.0
 40
0.0
 40
0.0
 40
0.1845192683
 40
0.4231027179
 40
1.0
 40
1.0
 40
1.0
 40
1.0
 10
-4.7173528244
 20
-12.2754588973
 30
0.0
 10
-4.7141869595
 20
-12.1227620738
 30
0.0
 10
-4.6977894348
 20
-11.7728469171
 30
0.0
 10
-4.640373552
 20
-10.9471133884
 30
0.0
 10
-4.5764652309
 20
-10.2750185187
 30
0.0
 10
-4.526168207
 20
-9.8001674751
 30
0.0
  0
SPLINE
  5
639
100
AcDbEntity
  8
0
100
AcDbSpline
 62
250
  6
CONTINUOUS
 70
0
 71
3
 72
10
 73
6
 74
0
 42
0.0000001
 43
0.0000001
 44
0.0000000001
 40
0.0
 40
0.0
 40
0.0
 40
0.0
 40
0.5154260069
 40
0.7612055566
 40
1.0
 40
1.0
 40
1.0
 40
1.0
 10
-9.766125013
 20
-11.1025911615
 30
0.0
 10
-9.9735028247
 20
-11.0175355247
 30
0.0
 10
-10.2585282302
 20
-10.8111612785
 30
0.0
 10
-10.4731549153
 20
-10.4271921914
 30
0.0
 10
-10.5171342429
 20
-10.2167939182
 30
0.0
 10
-10.5217158033
 20
-10.113050707
 30
0.0
  0
SPLINE
  5
63A
100
AcDbEntity
  8
0
100
AcDbSpline
 62
250
  6
CONTINUOUS
 70
0
 71
3
 72
16
 73
12
 74
0
 42
0.0000001
 43
0.0000001
 44
0.0000000001
 40
0.0
 40
0.0
 40
0.0
 40
0.0
 40
0.3862383088
 40
0.5554965549
 40
0.7024257357
 40
0.8231374006
 40
0.9144671042
 40
0.9482192248
 40
0.9737498557
 40
0.9909721625
 40
1.0
 40
1.0
 40
1.0
 40
1.0
 10
-9.1152270418
 20
34.614299997
 30
0.0
 10
-9.2477617853
 20
34.6150417796
 30
0.0
 10
-9.4382638241
 20
34.6232363982
 30
0.0
 10
-9.679219609
 20
34.6291847136
 30
0.0
 10
-9.8291478499
 20
34.6308872044
 30
0.0
 10
-9.9522993662
 20
34.6307182277
 30
0.0
 10
-10.0367067653
 20
34.6296665573
 30
0.0
 10
-10.0882784088
 20
34.6284845472
 30
0.0
 10
-10.114695678
 20
34.6276241302
 30
0.0
 10
-10.1320349866
 20
34.6258691811
 30
0.0
 10
-10.1414363341
 20
34.6244768589
 30
0.0
 10
-10.1439193421
 20
34.6226244154
 30
0.0
  0
SPLINE
  5
63B
100
AcDbEntity
  8
0
100
AcDbSpline
 62
250
  6
CONTINUOUS
 70
0
 71
3
 72
14
 73
10
 74
0
 42
0.0000001
 43
0.0000001
 44
0.0000000001
 40
0.0
 40
0.0
 40
0.0
 40
0.0
 40
0.386598912
 40
0.5562485992
 40
0.7030627662
 40
0.823576861
 40
0.9145589134
 40
0.9738189506
 40
1.0
 40
1.0
 40
1.0
 40
1.0
 10
-9.5078447298
 20
-8.6957405595
 30
0.0
 10
-9.6383741658
 20
-8.6974847189
 30
0.0
 10
-9.8262171459
 20
-8.6992721469
 30
0.0
 10
-10.063568378
 20
-8.6993801249
 30
0.0
 10
-10.2112350905
 20
-8.6986316198
 30
0.0
 10
-10.3318892134
 20
-8.6961203229
 30
0.0
 10
-10.4240632459
 20
-8.6946424307
 30
0.0
 10
-10.4819935037
 20
-8.6884602111
 30
0.0
 10
-10.5126072292
 20
-8.6884154949
 30
0.0
 10
-10.5201468932
 20
-8.6837995698
 30
0.0
  0
LINE
  5
63C
100
AcDbEntity
  8
0
100
AcDbLine
 62
7
  6
CONTINUOUS
 10
-10.6515590212
 20
22.3158314464
 11
-10.6525104448
 21
22.3902759513
  0
SPLINE
  5
63D
100
AcDbEntity
  8
0
100
AcDbSpline
 62
250
  6
CONTINUOUS
 70
0
 71
3
 72
9
 73
5
 74
0
 42
0.0000001
 43
0.0000001
 44
0.0000000001
 40
0.0
 40
0.0
 40
0.0
 40
0.0
 40
0.4998775609
 40
1.0
 40
1.0
 40
1.0
 40
1.0
 10
-9.3204782532
 20
35.7841638605
 30
0.0
 10
-9.5509785401
 20
35.6937795174
 30
0.0
 10
-9.9681608561
 20
35.3707284575
 30
0.0
 10
-10.1348018493
 20
34.8701656369
 30
0.0
 10
-10.1439193421
 20
34.6226244154
 30
0.0
  0
SPLINE
  5
63E
100
AcDbEntity
  8
0
100
AcDbSpline
 62
250
  6
CONTINUOUS
 70
0
 71
3
 72
17
 73
13
 74
0
 42
0.0000001
 43
0.0000001
 44
0.0000000001
 40
0.0
 40
0.0
 40
0.0
 40
0.0
 40
0.0070373945
 40
0.0221539895
 40
0.0461764736
 40
0.0791271958
 40
0.1709095114
 40
0.2941121287
 40
0.4444615657
 40
0.6166019608
 40
0.8044362998
 40
1.0
 40
1.0
 40
1.0
 40
1.0
 10
-4.5225107489
 20
36.4764144219
 30
0.0
 10
-4.5254636521
 20
36.4762624606
 30
0.0
 10
-4.5311751939
 20
36.4662570376
 30
0.0
 10
-4.53511658
 20
36.4487241626
 30
0.0
 10
-4.5400181039
 20
36.4180511851
 30
0.0
 10
-4.5455112874
 20
36.3562007472
 30
0.0
 10
-4.5499066873
 20
36.2517770579
 30
0.0
 10
-4.5516890335
 20
36.0984217083
 30
0.0
 10
-4.5502020084
 20
35.9111055766
 30
0.0
 10
-4.5454089587
 20
35.6967543004
 30
0.0
 10
-4.5374078547
 20
35.4634681697
 30
0.0
 10
-4.5302387751
 20
35.3025384754
 30
0.0
 10
-4.5261682182
 20
35.2204719013
 30
0.0
  0
SPLINE
  5
63F
100
AcDbEntity
  8
0
100
AcDbSpline
 62
250
  6
CONTINUOUS
 70
0
 71
3
 72
13
 73
9
 74
0
 42
0.0000001
 43
0.0000001
 44
0.0000000001
 40
0.0
 40
0.0
 40
0.0
 40
0.0
 40
0.0997784997
 40
0.1920520901
 40
0.3127514283
 40
0.458648015
 40
0.6254043951
 40
1.0
 40
1.0
 40
1.0
 40
1.0
 10
-9.3204782532
 20
35.7841638605
 30
0.0
 10
-9.358084442
 20
35.7694176287
 30
0.0
 10
-9.3725082037
 20
35.6691044525
 30
0.0
 10
-9.3661996879
 20
35.5513622122
 30
0.0
 10
-9.3466332945
 20
35.4041173951
 30
0.0
 10
-9.3105724063
 20
35.2334185439
 30
0.0
 10
-9.2377755176
 20
34.9642500068
 30
0.0
 10
-9.1638341536
 20
34.7579492554
 30
0.0
 10
-9.1152270418
 20
34.614299997
 30
0.0
  0
SPLINE
  5
640
100
AcDbEntity
  8
0
100
AcDbSpline
 62
250
  6
CONTINUOUS
 70
0
 71
3
 72
13
 73
9
 74
0
 42
0.0000001
 43
0.0000001
 44
0.0000000001
 40
0.0
 40
0.0
 40
0.0
 40
0.0
 40
0.0323925725
 40
0.0928892055
 40
0.1852244401
 40
0.3072095915
 40
0.6240111504
 40
1.0
 40
1.0
 40
1.0
 40
1.0
 10
-7.0399991331
 20
36.3106393442
 30
0.0
 10
-7.0537460758
 20
36.3095357076
 30
0.0
 10
-7.0831622666
 20
36.273513567
 30
0.0
 10
-7.1032749151
 20
36.1999681564
 30
0.0
 10
-7.1240109102
 20
36.083285587
 30
0.0
 10
-7.1423254886
 20
35.8584142781
 30
0.0
 10
-7.1452918313
 20
35.5107337321
 30
0.0
 10
-7.1306696101
 20
35.2161488313
 30
0.0
 10
-7.1188145986
 20
35.0565107543
 30
0.0
  0
SPLINE
  5
641
100
AcDbEntity
  8
0
100
AcDbSpline
 62
250
  6
CONTINUOUS
 70
0
 71
3
 72
9
 73
5
 74
0
 42
0.0000001
 43
0.0000001
 44
0.0000000001
 40
0.0
 40
0.0
 40
0.0
 40
0.0
 40
0.2225396698
 40
1.0
 40
1.0
 40
1.0
 40
1.0
 10
-10.9714078298
 20
13.0413177803
 30
0.0
 10
-10.9714677542
 20
13.0341830345
 30
0.0
 10
-10.9707471767
 20
13.0021135195
 30
0.0
 10
-10.96676172
 20
12.970193463
 30
0.0
 10
-10.9627495359
 20
12.9455917908
 30
0.0
  0
SPLINE
  5
642
100
AcDbEntity
  8
0
100
AcDbSpline
 62
7
  6
CONTINUOUS
 70
0
 71
3
 72
11
 73
7
 74
0
 42
0.0000001
 43
0.0000001
 44
0.0000000001
 40
0.0
 40
0.0
 40
0.0
 40
0.0
 40
0.0646464558
 40
0.2542477255
 40
0.5668420995
 40
1.0
 40
1.0
 40
1.0
 40
1.0
 10
-10.9323799341
 20
17.5323142103
 30
0.0
 10
-10.9307357194
 20
17.5322794861
 30
0.0
 10
-10.9324924422
 20
17.5425591057
 30
0.0
 10
-10.9291358743
 20
17.5532803751
 30
0.0
 10
-10.9292983222
 20
17.5791533732
 30
0.0
 10
-10.9280733114
 20
17.5974213784
 30
0.0
 10
-10.9276473145
 20
17.6084325136
 30
0.0
  0
LINE
  5
643
100
AcDbEntity
  8
0
100
AcDbLine
 62
7
  6
CONTINUOUS
 10
-10.9187800371
 20
17.9182672407
 11
-10.9163720152
 21
18.0244312968
  0
LINE
  5
644
100
AcDbEntity
  8
0
100
AcDbLine
 62
7
  6
CONTINUOUS
 10
-10.9091263828
 20
18.3983707536
 11
-10.908234172
 21
18.4509442815
  0
LINE
  5
645
100
AcDbEntity
  8
0
100
AcDbLine
 62
7
  6
CONTINUOUS
 10
-10.908234172
 20
18.4509442815
 11
-10.907207115
 21
18.5137101425
  0
SPLINE
  5
646
100
AcDbEntity
  8
0
100
AcDbSpline
 62
7
  6
CONTINUOUS
 70
0
 71
3
 72
8
 73
4
 74
0
 42
0.0000001
 43
0.0000001
 44
0.0000000001
 40
0.0
 40
0.0
 40
0.0
 40
0.0
 40
1.0
 40
1.0
 40
1.0
 40
1.0
 10
-10.7827491535
 20
21.5589294565
 30
0.0
 10
-10.7834122836
 20
21.7255313464
 30
0.0
 10
-10.7839157904
 20
21.8921339482
 30
0.0
 10
-10.7842596748
 20
22.058736803
 30
0.0
  0
SPLINE
  5
647
100
AcDbEntity
  8
0
100
AcDbSpline
 62
7
  6
CONTINUOUS
 70
0
 71
3
 72
9
 73
5
 74
0
 42
0.0000001
 43
0.0000001
 44
0.0000000001
 40
0.0
 40
0.0
 40
0.0
 40
0.0
 40
0.2751153073
 40
1.0
 40
1.0
 40
1.0
 40
1.0
 10
-10.686343378
 20
18.5272587784
 30
0.0
 10
-10.6857188388
 20
18.5272555763
 30
0.0
 10
-10.6851376534
 20
18.5304164694
 30
0.0
 10
-10.6846843328
 20
18.5320957213
 30
0.0
 10
-10.6844326239
 20
18.533721939
 30
0.0
  0
SPLINE
  5
648
100
AcDbEntity
  8
0
100
AcDbSpline
 62
7
  6
CONTINUOUS
 70
0
 71
3
 72
9
 73
5
 74
0
 42
0.0000001
 43
0.0000001
 44
0.0000000001
 40
0.0
 40
0.0
 40
0.0
 40
0.0
 40
0.3649036565
 40
1.0
 40
1.0
 40
1.0
 40
1.0
 10
-10.6844326239
 20
18.533721939
 30
0.0
 10
-10.6798922198
 20
18.5630561644
 30
0.0
 10
-10.6782553823
 20
18.6447001761
 30
0.0
 10
-10.6751724199
 20
18.7258520852
 30
0.0
 10
-10.6744239909
 20
18.777509348
 30
0.0
  0
SPLINE
  5
649
100
AcDbEntity
  8
0
100
AcDbSpline
 62
7
  6
CONTINUOUS
 70
0
 71
3
 72
9
 73
5
 74
0
 42
0.0000001
 43
0.0000001
 44
0.0000000001
 40
0.0
 40
0.0
 40
0.0
 40
0.0
 40
0.273725184
 40
1.0
 40
1.0
 40
1.0
 40
1.0
 10
-10.6744239909
 20
18.777509348
 30
0.0
 10
-10.6742288416
 20
18.7909787291
 30
0.0
 10
-10.673667152
 20
18.8401878859
 30
0.0
 10
-10.6735799747
 20
18.8894068216
 30
0.0
 10
-10.6741002064
 20
18.9251450845
 30
0.0
  0
LINE
  5
64A
100
AcDbEntity
  8
0
100
AcDbLine
 62
7
  6
CONTINUOUS
 10
-10.674658064
 20
18.952672769
 11
-10.6755002484
 21
18.9756922939
  0
SPLINE
  5
64B
100
AcDbEntity
  8
0
100
AcDbSpline
 62
7
  6
CONTINUOUS
 70
0
 71
3
 72
9
 73
5
 74
0
 42
0.0000001
 43
0.0000001
 44
0.0000000001
 40
0.0
 40
0.0
 40
0.0
 40
0.0
 40
0.2751037421
 40
1.0
 40
1.0
 40
1.0
 40
1.0
 10
-10.7363769976
 20
18.5272587785
 30
0.0
 10
-10.735752491
 20
18.5272555036
 30
0.0
 10
-10.7351714193
 20
18.5304165946
 30
0.0
 10
-10.7347181281
 20
18.5320957059
 30
0.0
 10
-10.7344664469
 20
18.5337219383
 30
0.0
  0
SPLINE
  5
64C
100
AcDbEntity
  8
0
100
AcDbSpline
 62
7
  6
CONTINUOUS
 70
0
 71
3
 72
9
 73
5
 74
0
 42
0.0000001
 43
0.0000001
 44
0.0000000001
 40
0.0
 40
0.0
 40
0.0
 40
0.0
 40
0.3649035755
 40
1.0
 40
1.0
 40
1.0
 40
1.0
 10
-10.7344664469
 20
18.5337219383
 30
0.0
 10
-10.7299265729
 20
18.5630562312
 30
0.0
 10
-10.7282898822
 20
18.6447001477
 30
0.0
 10
-10.7252072203
 20
18.72585208
 30
0.0
 10
-10.7244588354
 20
18.7775093364
 30
0.0
  0
SPLINE
  5
64D
100
AcDbEntity
  8
0
100
AcDbSpline
 62
7
  6
CONTINUOUS
 70
0
 71
3
 72
9
 73
5
 74
0
 42
0.0000001
 43
0.0000001
 44
0.0000000001
 40
0.0
 40
0.0
 40
0.0
 40
0.0
 40
0.2737251824
 40
1.0
 40
1.0
 40
1.0
 40
1.0
 10
-10.7244588354
 20
18.7775093364
 30
0.0
 10
-10.7242636977
 20
18.7909787185
 30
0.0
 10
-10.7237020311
 20
18.8401878787
 30
0.0
 10
-10.7236148171
 20
18.8894068158
 30
0.0
 10
-10.7241349491
 20
18.9251450825
 30
0.0
  0
LINE
  5
64E
100
AcDbEntity
  8
0
100
AcDbLine
 62
7
  6
CONTINUOUS
 10
-10.7246927102
 20
18.9526727681
 11
-10.7255347669
 21
18.9756922939
  0
SPLINE
  5
64F
100
AcDbEntity
  8
0
100
AcDbSpline
 62
250
  6
CONTINUOUS
 70
0
 71
3
 72
9
 73
5
 74
0
 42
0.0000001
 43
0.0000001
 44
0.0000000001
 40
0.0
 40
0.0
 40
0.0
 40
0.0
 40
0.2487106631
 40
1.0
 40
1.0
 40
1.0
 40
1.0
 10
-9.5078444486
 20
-8.6957402616
 30
0.0
 10
-9.1851559554
 20
-8.8279719815
 30
0.0
 10
-7.8677208026
 20
-9.3100952996
 30
0.0
 10
-6.4809490106
 20
-9.5976114345
 30
0.0
 10
-5.4333333333
 20
-9.7080757592
 30
0.0
  0
SPLINE
  5
650
100
AcDbEntity
  8
0
100
AcDbSpline
 62
7
  6
CONTINUOUS
 70
0
 71
3
 72
9
 73
5
 74
0
 42
0.0000001
 43
0.0000001
 44
0.0000000001
 40
0.0
 40
0.0
 40
0.0
 40
0.0
 40
0.2657950955
 40
1.0
 40
1.0
 40
1.0
 40
1.0
 10
-10.5635211487
 20
26.9393272892
 30
0.0
 10
-10.5609959641
 20
27.0447636273
 30
0.0
 10
-10.552228219
 20
27.4414627903
 30
0.0
 10
-10.5461959828
 20
27.8382286607
 30
0.0
 10
-10.5440780142
 20
28.1295509231
 30
0.0
  0
SPLINE
  5
651
100
AcDbEntity
  8
0
100
AcDbSpline
 62
7
  6
CONTINUOUS
 70
0
 71
3
 72
17
 73
13
 74
0
 42
0.0000001
 43
0.0000001
 44
0.0000000001
 40
0.0
 40
0.0
 40
0.0
 40
0.0
 40
0.2196448423
 40
0.4169266932
 40
0.5889127264
 40
0.7332458607
 40
0.847721913
 40
0.9308392449
 40
0.960286281
 40
0.9815013186
 40
0.9945235924
 40
1.0
 40
1.0
 40
1.0
 40
1.0
 10
-10.5440780142
 20
28.1295509231
 30
0.0
 10
-10.5434921916
 20
28.2101296134
 30
0.0
 10
-10.5427329179
 20
28.3630838249
 30
0.0
 10
-10.54289944
 20
28.5791470044
 30
0.0
 10
-10.5443997551
 20
28.7675428926
 30
0.0
 10
-10.5471597375
 20
28.9256369639
 30
0.0
 10
-10.5510533192
 20
29.0508405909
 30
0.0
 10
-10.5555400143
 20
29.134414489
 30
0.0
 10
-10.5598582366
 20
29.1827878783
 30
0.0
 10
-10.5632686421
 20
29.2068040003
 30
0.0
 10
-10.5658885252
 20
29.2194834979
 30
0.0
 10
-10.5693634415
 20
29.2276191693
 30
0.0
 10
-10.5713725641
 20
29.2276192574
 30
0.0
  0
LINE
  5
652
100
AcDbEntity
  8
0
100
AcDbLine
 62
7
  6
CONTINUOUS
 10
-10.692934205
 20
26.4240446995
 11
-10.6898247453
 21
26.5517749611
  0
LINE
  5
653
100
AcDbEntity
  8
0
100
AcDbLine
 62
7
  6
CONTINUOUS
 10
-10.6898247453
 20
26.5517749611
 11
-10.6865124824
 21
26.6788798209
  0
SPLINE
  5
654
100
AcDbEntity
  8
0
100
AcDbSpline
 62
7
  6
CONTINUOUS
 70
0
 71
3
 72
9
 73
5
 74
0
 42
0.0000001
 43
0.0000001
 44
0.0000000001
 40
0.0
 40
0.0
 40
0.0
 40
0.0
 40
0.2965044338
 40
1.0
 40
1.0
 40
1.0
 40
1.0
 10
-10.6753518336
 20
27.0576354649
 30
0.0
 10
-10.6717934242
 20
27.1685161573
 30
0.0
 10
-10.658690531
 20
27.5424275427
 30
0.0
 10
-10.6434413004
 20
27.916344941
 30
0.0
 10
-10.6262689364
 20
28.178998563
 30
0.0
  0
SPLINE
  5
655
100
AcDbEntity
  8
0
100
AcDbSpline
 62
7
  6
CONTINUOUS
 70
0
 71
3
 72
9
 73
5
 74
0
 42
0.0000001
 43
0.0000001
 44
0.0000000001
 40
0.0
 40
0.0
 40
0.0
 40
0.0
 40
0.3289794557
 40
1.0
 40
1.0
 40
1.0
 40
1.0
 10
-10.6262689364
 20
28.178998563
 30
0.0
 10
-10.6245265563
 20
28.2056485007
 30
0.0
 10
-10.6187562088
 20
28.2866033039
 30
0.0
 10
-10.6127953713
 20
28.3676736707
 30
0.0
 10
-10.60508809
 20
28.4215997062
 30
0.0
  0
SPLINE
  5
656
100
AcDbEntity
  8
0
100
AcDbSpline
 62
7
  6
CONTINUOUS
 70
0
 71
3
 72
9
 73
5
 74
0
 42
0.0000001
 43
0.0000001
 44
0.0000000001
 40
0.0
 40
0.0
 40
0.0
 40
0.0
 40
0.2710191914
 40
1.0
 40
1.0
 40
1.0
 40
1.0
 10
-10.4408629452
 20
31.0170608711
 30
0.0
 10
-10.4359951996
 20
31.1662968756
 30
0.0
 10
-10.4194755329
 20
31.7169866157
 30
0.0
 10
-10.407767907
 20
32.2678479416
 30
0.0
 10
-10.4043172064
 20
32.6694579589
 30
0.0
  0
SPLINE
  5
657
100
AcDbEntity
  8
0
100
AcDbSpline
 62
7
  6
CONTINUOUS
 70
0
 71
3
 72
17
 73
13
 74
0
 42
0.0000001
 43
0.0000001
 44
0.0000000001
 40
0.0
 40
0.0
 40
0.0
 40
0.0
 40
0.2224966073
 40
0.4207490135
 40
0.5926098984
 40
0.7360579089
 40
0.8493810442
 40
0.9314778353
 40
0.9605189434
 40
0.981441405
 40
0.9943474987
 40
1.0
 40
1.0
 40
1.0
 40
1.0
 10
-10.4043172064
 20
32.6694579589
 30
0.0
 10
-10.4037478659
 20
32.7357206948
 30
0.0
 10
-10.402967865
 20
32.8610274016
 30
0.0
 10
-10.402945898
 20
33.037528654
 30
0.0
 10
-10.4040907332
 20
33.1904615247
 30
0.0
 10
-10.4063691001
 20
33.3181486915
 30
0.0
 10
-10.409665571
 20
33.4189009976
 30
0.0
 10
-10.4135517788
 20
33.485909631
 30
0.0
 10
-10.417299782
 20
33.5247216878
 30
0.0
 10
-10.4203431577
 20
33.5438077687
 30
0.0
 10
-10.4226008177
 20
33.5542224239
 30
0.0
 10
-10.4258248965
 20
33.5604912595
 30
0.0
 10
-10.427508356
 20
33.5604913324
 30
0.0
  0
SPLINE
  5
658
100
AcDbEntity
  8
0
100
AcDbSpline
 62
7
  6
CONTINUOUS
 70
0
 71
3
 72
18
 73
14
 74
0
 42
0.0000001
 43
0.0000001
 44
0.0000000001
 40
0.0
 40
0.0
 40
0.0
 40
0.0
 40
0.1927763833
 40
0.3791698409
 40
0.5517270548
 40
0.7036580362
 40
0.8287309989
 40
0.8796105613
 40
0.9219755697
 40
0.955428911
 40
0.9796811854
 40
0.9944846592
 40
1.0
 40
1.0
 40
1.0
 40
1.0
 10
-10.5596127812
 20
30.942695553
 30
0.0
 10
-10.555820797
 20
31.0620162301
 30
0.0
 10
-10.5478126927
 20
31.2966910094
 30
0.0
 10
-10.5345005908
 20
31.6380964359
 30
0.0
 10
-10.5204637342
 20
31.9541786265
 30
0.0
 10
-10.5062363209
 20
32.2321646447
 30
0.0
 10
-10.4940669972
 20
32.4349831612
 30
0.0
 10
-10.4843175858
 20
32.5696256557
 30
0.0
 10
-10.4779237685
 20
32.6482723222
 30
0.0
 10
-10.4716362551
 20
32.708757039
 30
0.0
 10
-10.466563448
 20
32.7560725531
 30
0.0
 10
-10.4609247723
 20
32.7783078011
 30
0.0
 10
-10.4581338753
 20
32.7958779201
 30
0.0
 10
-10.454718382
 20
32.795878223
 30
0.0
  0
SPLINE
  5
659
100
AcDbEntity
  8
0
100
AcDbSpline
 62
250
  6
CONTINUOUS
 70
0
 71
3
 72
9
 73
5
 74
0
 42
0.0000001
 43
0.0000001
 44
0.0000000001
 40
0.0
 40
0.0
 40
0.0
 40
0.0
 40
0.4244977884
 40
1.0
 40
1.0
 40
1.0
 40
1.0
 10
-10.5217158262
 20
-10.1130507075
 30
0.0
 10
-10.5126511443
 20
-9.9109982905
 30
0.0
 10
-10.5099715955
 20
-9.4343389162
 30
0.0
 10
-10.5148841502
 20
-8.9579520768
 30
0.0
 10
-10.520146973
 20
-8.6837995715
 30
0.0
  0
LINE
  5
65A
100
AcDbEntity
  8
0
100
AcDbLine
 62
250
  6
CONTINUOUS
 10
-10.6432619982
 20
-12.6916571232
 11
-10.6412700659
 21
-12.6516920263
  0
LINE
  5
65B
100
AcDbEntity
  8
0
100
AcDbLine
 62
250
  6
CONTINUOUS
 10
-10.6412700659
 20
-12.6516920263
 11
-10.6338270119
 21
-12.5015681771
  0
LINE
  5
65C
100
AcDbEntity
  8
0
100
AcDbLine
 62
250
  6
CONTINUOUS
 10
-10.6338270119
 20
-12.5015681771
 11
-10.6085702403
 21
-11.9835246171
  0
SPLINE
  5
65D
100
AcDbEntity
  8
0
100
AcDbSpline
 62
250
  6
CONTINUOUS
 70
0
 71
3
 72
17
 73
13
 74
0
 42
0.0000001
 43
0.0000001
 44
0.0000000001
 40
0.0
 40
0.0
 40
0.0
 40
0.0
 40
0.1041301379
 40
0.1543791479
 40
0.15960023
 40
0.1685762436
 40
0.1909198535
 40
0.2267493274
 40
0.2760909853
 40
0.3389580562
 40
0.505304138
 40
1.0
 40
1.0
 40
1.0
 40
1.0
 10
-10.9714080158
 20
13.041516603
 30
0.0
 10
-10.9713223463
 20
13.0513908884
 30
0.0
 10
-10.9698767526
 20
13.067348832
 30
0.0
 10
-10.9718655905
 20
13.0797968837
 30
0.0
 10
-10.9692959379
 20
13.0877920986
 30
0.0
 10
-10.9684994797
 20
13.0819251246
 30
0.0
 10
-10.9679870417
 20
13.0773999727
 30
0.0
 10
-10.967109428
 20
13.0662613136
 30
0.0
 10
-10.9662461347
 20
13.052668621
 30
0.0
 10
-10.9647607768
 20
13.0260802533
 30
0.0
 10
-10.9615693462
 20
12.9577213688
 30
0.0
 10
-10.9591692512
 20
12.8949621186
 30
0.0
 10
-10.9574499399
 20
12.8480816458
 30
0.0
  0
LINE
  5
65E
100
AcDbEntity
  8
0
100
AcDbLine
 62
250
  6
CONTINUOUS
 10
-10.9574499399
 20
12.8480816458
 11
-10.9569436609
 21
12.8341984585
  0
SPLINE
  5
65F
100
AcDbEntity
  8
0
100
AcDbSpline
 62
250
  6
CONTINUOUS
 70
0
 71
3
 72
15
 73
11
 74
0
 42
0.0000001
 43
0.0000001
 44
0.0000000001
 40
0.0
 40
0.0
 40
0.0
 40
0.0
 40
0.0632541796
 40
0.1776332375
 40
0.3295177501
 40
0.5011193064
 40
0.6725584176
 40
0.823972656
 40
0.9376335612
 40
1.0
 40
1.0
 40
1.0
 40
1.0
 10
-10.9569436609
 20
12.8341984585
 30
0.0
 10
-10.9375777945
 20
12.3001916107
 30
0.0
 10
-10.8989334612
 20
10.8000412507
 30
0.0
 10
-10.8357641984
 20
8.0170774284
 30
0.0
 10
-10.7736384881
 20
4.3185743168
 30
0.0
 10
-10.726104833
 20
0.1378012115
 30
0.0
 10
-10.703577822
 20
-4.0392079006
 30
0.0
 10
-10.7036182123
 20
-7.726821913
 30
0.0
 10
-10.7200703692
 20
-10.4929124968
 30
0.0
 10
-10.733262949
 20
-11.9799380927
 30
0.0
 10
-10.7436830188
 20
-12.5066934799
 30
0.0
  0
SPLINE
  5
660
100
AcDbEntity
  8
0
100
AcDbSpline
 62
7
  6
CONTINUOUS
 70
0
 71
3
 72
9
 73
5
 74
0
 42
0.0000001
 43
0.0000001
 44
0.0000000001
 40
0.0
 40
0.0
 40
0.0
 40
0.0
 40
0.5688711796
 40
1.0
 40
1.0
 40
1.0
 40
1.0
 10
-10.5095747121
 20
30.9426955524
 30
0.0
 10
-10.5001167261
 20
31.2402863716
 30
0.0
 10
-10.4802567223
 20
31.763289396
 30
0.0
 10
-10.4544728734
 20
32.2861178563
 30
0.0
 10
-10.4384716446
 20
32.5111980026
 30
0.0
  0
SPLINE
  5
661
100
AcDbEntity
  8
0
100
AcDbSpline
 62
250
  6
CONTINUOUS
 70
0
 71
3
 72
14
 73
10
 74
0
 42
0.0000001
 43
0.0000001
 44
0.0000000001
 40
0.0
 40
0.0
 40
0.0
 40
0.0
 40
0.4551133002
 40
0.5920934587
 40
0.6688165022
 40
0.6861163205
 40
0.7306992603
 40
0.8352793704
 40
1.0
 40
1.0
 40
1.0
 40
1.0
 10
-10.7469028205
 20
-12.6472231475
 30
0.0
 10
-10.7475066355
 20
-12.6690069597
 30
0.0
 10
-10.7475284718
 20
-12.6966660355
 30
0.0
 10
-10.7505195193
 20
-12.7298892966
 30
0.0
 10
-10.7497596798
 20
-12.7396049722
 30
0.0
 10
-10.7526373551
 20
-12.7478448336
 30
0.0
 10
-10.7529093844
 20
-12.7330663417
 30
0.0
 10
-10.7539146798
 20
-12.7232445563
 30
0.0
 10
-10.7541720719
 20
-12.7083917863
 30
0.0
 10
-10.7543734672
 20
-12.7005070441
 30
0.0
  0
SPLINE
  5
662
100
AcDbEntity
  8
RACCORDO
100
AcDbSpline
 62
7
  6
CONTINUOUS
 70
0
 71
3
 72
9
 73
5
 74
0
 42
0.0000001
 43
0.0000001
 44
0.0000000001
 40
0.0
 40
0.0
 40
0.0
 40
0.0
 40
0.2261762722
 40
1.0
 40
1.0
 40
1.0
 40
1.0
 10
-54.2182242627
 20
39.5927021425
 30
0.0
 10
-54.2134091417
 20
39.5927021425
 30
0.0
 10
-54.1921198354
 20
39.5922399389
 30
0.0
 10
-54.1708854138
 20
39.5903273839
 30
0.0
 10
-54.1545196918
 20
39.5884406548
 30
0.0
  0
SPLINE
  5
663
100
AcDbEntity
  8
RACCORDO
100
AcDbSpline
 62
7
  6
CONTINUOUS
 70
0
 71
3
 72
9
 73
5
 74
0
 42
0.0000001
 43
0.0000001
 44
0.0000000001
 40
0.0
 40
0.0
 40
0.0
 40
0.0
 40
0.2330623073
 40
1.0
 40
1.0
 40
1.0
 40
1.0
 10
-54.1545196918
 20
39.5884406548
 30
0.0
 10
-54.1420194132
 20
39.5869995549
 30
0.0
 10
-54.0885120162
 20
39.5796861944
 30
0.0
 10
-54.0355073958
 20
39.5692629484
 30
0.0
 10
-53.9948244195
 20
39.5615530193
 30
0.0
  0
SPLINE
  5
664
100
AcDbEntity
  8
RACCORDO
100
AcDbSpline
 62
7
  6
CONTINUOUS
 70
0
 71
3
 72
9
 73
5
 74
0
 42
0.0000001
 43
0.0000001
 44
0.0000000001
 40
0.0
 40
0.0
 40
0.0
 40
0.0
 40
0.4984711797
 40
1.0
 40
1.0
 40
1.0
 40
1.0
 10
-52.0743027796
 20
37.5285898624
 30
0.0
 10
-52.1294349348
 20
37.6757228269
 30
0.0
 10
-52.3480831004
 20
37.9335011133
 30
0.0
 10
-52.6535173465
 20
38.0455228904
 30
0.0
 10
-52.8092189664
 20
38.0728810397
 30
0.0
  0
SPLINE
  5
665
100
AcDbEntity
  8
RACCORDO
100
AcDbSpline
 62
7
  6
CONTINUOUS
 70
0
 71
3
 72
8
 73
4
 74
0
 42
0.0000001
 43
0.0000001
 44
0.0000000001
 40
0.0
 40
0.0
 40
0.0
 40
0.0
 40
1.0
 40
1.0
 40
1.0
 40
1.0
 10
-52.8092189664
 20
38.0728810397
 30
0.0
 10
-52.885360444
 20
38.0862597695
 30
0.0
 10
-52.9629862668
 20
38.0927021425
 30
0.0
 10
-53.0402941901
 20
38.0927021425
 30
0.0
  0
SPLINE
  5
666
100
AcDbEntity
  8
RACCORDO
100
AcDbSpline
 62
7
  6
CONTINUOUS
 70
0
 71
3
 72
8
 73
4
 74
0
 42
0.0000001
 43
0.0000001
 44
0.0000000001
 40
0.0
 40
0.0
 40
0.0
 40
0.0
 40
1.0
 40
1.0
 40
1.0
 40
1.0
 10
-53.1734417429
 20
38.7927021425
 30
0.0
 10
-53.1734417429
 20
38.8397301133
 30
0.0
 10
-53.1792233519
 20
38.8870493493
 30
0.0
 10
-53.1901260645
 20
38.9327960529
 30
0.0
  0
SPLINE
  5
667
100
AcDbEntity
  8
RACCORDO
100
AcDbSpline
 62
7
  6
CONTINUOUS
 70
0
 71
3
 72
8
 73
4
 74
0
 42
0.0000001
 43
0.0000001
 44
0.0000000001
 40
0.0
 40
0.0
 40
0.0
 40
0.0
 40
1.0
 40
1.0
 40
1.0
 40
1.0
 10
-53.1901260645
 20
38.9327960529
 30
0.0
 10
-53.2012188103
 20
38.9793401174
 30
0.0
 10
-53.2178652264
 20
39.0248494461
 30
0.0
 10
-53.2391059435
 20
39.0677240409
 30
0.0
  0
SPLINE
  5
668
100
AcDbEntity
  8
RACCORDO
100
AcDbSpline
 62
7
  6
CONTINUOUS
 70
0
 71
3
 72
9
 73
5
 74
0
 42
0.0000001
 43
0.0000001
 44
0.0000000001
 40
0.0
 40
0.0
 40
0.0
 40
0.0
 40
0.4983536449
 40
1.0
 40
1.0
 40
1.0
 40
1.0
 10
-53.2391059435
 20
39.0677240409
 30
0.0
 10
-53.3074266834
 20
39.2056301209
 30
0.0
 10
-53.5441516808
 20
39.4337759693
 30
0.0
 10
-53.842614802
 20
39.5327074069
 30
0.0
 10
-53.9948244195
 20
39.5615530193
 30
0.0
  0
SPLINE
  5
669
100
AcDbEntity
  8
RACCORDO
100
AcDbSpline
 62
7
  6
CONTINUOUS
 70
0
 71
3
 72
8
 73
4
 74
0
 42
0.0000001
 43
0.0000001
 44
0.0000000001
 40
0.0
 40
0.0
 40
0.0
 40
0.0
 40
1.0
 40
1.0
 40
1.0
 40
1.0
 10
-54.4081447511
 20
39.5927021425
 30
0.0
 10
-54.3002548503
 20
39.5927021425
 30
0.0
 10
-54.1919115164
 20
39.5849321343
 30
0.0
 10
-54.0854745116
 20
39.567285755
 30
0.0
  0
SPLINE
  5
66A
100
AcDbEntity
  8
RACCORDO
100
AcDbSpline
 62
7
  6
CONTINUOUS
 70
0
 71
3
 72
11
 73
7
 74
0
 42
0.0000001
 43
0.0000001
 44
0.0000000001
 40
0.0
 40
0.0
 40
0.0
 40
0.0
 40
0.2504298007
 40
0.500746516
 40
0.7506357215
 40
1.0
 40
1.0
 40
1.0
 40
1.0
 10
-53.9849076836
 20
39.5474533481
 30
0.0
 10
-53.8909060891
 20
39.5258270973
 30
0.0
 10
-53.706132677
 20
39.4652797214
 30
0.0
 10
-53.4575335509
 20
39.3107934209
 30
0.0
 10
-53.2688361475
 20
39.0835172081
 30
0.0
 10
-53.218762097
 20
38.8887489547
 30
0.0
 10
-53.218762097
 20
38.7927021425
 30
0.0
  0
SPLINE
  5
66B
100
AcDbEntity
  8
RACCORDO
100
AcDbSpline
 62
7
  6
CONTINUOUS
 70
0
 71
3
 72
8
 73
4
 74
0
 42
0.0000001
 43
0.0000001
 44
0.0000000001
 40
0.0
 40
0.0
 40
0.0
 40
0.0
 40
1.0
 40
1.0
 40
1.0
 40
1.0
 10
-52.9644905875
 20
38.0876150423
 30
0.0
 10
-52.8901571593
 20
38.0812299061
 30
0.0
 10
-52.816040396
 20
38.0686924202
 30
0.0
 10
-52.74392766
 20
38.049561769
 30
0.0
  0
SPLINE
  5
66C
100
AcDbEntity
  8
RACCORDO
100
AcDbSpline
 62
7
  6
CONTINUOUS
 70
0
 71
3
 72
10
 73
6
 74
0
 42
0.0000001
 43
0.0000001
 44
0.0000000001
 40
0.0
 40
0.0
 40
0.0
 40
0.0
 40
0.498096091
 40
0.7491705354
 40
1.0
 40
1.0
 40
1.0
 40
1.0
 10
-52.74392766
 20
38.049561769
 30
0.0
 10
-52.5700056578
 20
38.0034223305
 30
0.0
 10
-52.3142530709
 20
37.8696444391
 30
0.0
 10
-52.1052536191
 20
37.5666635971
 30
0.0
 10
-52.0658368531
 20
37.3833147205
 30
0.0
 10
-52.0658368531
 20
37.2927021425
 30
0.0
  0
SPLINE
  5
66D
100
AcDbEntity
  8
RACCORDO
100
AcDbSpline
 62
7
  6
CONTINUOUS
 70
0
 71
3
 72
8
 73
4
 74
0
 42
0.0000001
 43
0.0000001
 44
0.0000000001
 40
0.0
 40
0.0
 40
0.0
 40
0.0
 40
1.0
 40
1.0
 40
1.0
 40
1.0
 10
-49.618552515
 20
36.3816975425
 30
0.0
 10
-49.5427520617
 20
36.3059603215
 30
0.0
 10
-49.4909407679
 20
36.1988818849
 30
0.0
 10
-49.4782192009
 20
36.0924864098
 30
0.0
  0
SPLINE
  5
66E
100
AcDbEntity
  8
RACCORDO
100
AcDbSpline
 62
250
  6
CONTINUOUS
 70
0
 71
3
 72
9
 73
5
 74
0
 42
0.0000001
 43
0.0000001
 44
0.0000000001
 40
0.0
 40
0.0
 40
0.0
 40
0.0
 40
0.50067199
 40
1.0
 40
1.0
 40
1.0
 40
1.0
 10
-54.4287114526
 20
-10.5634288313
 30
0.0
 10
-54.0949495957
 20
-10.7323170047
 30
0.0
 10
-53.421384276
 20
-11.0556111206
 30
0.0
 10
-52.7434917766
 20
-11.3703403823
 30
0.0
 10
-52.4122573047
 20
-11.541961287
 30
0.0
  0
SPLINE
  5
66F
100
AcDbEntity
  8
RACCORDO
100
AcDbSpline
 62
250
  6
CONTINUOUS
 70
0
 71
3
 72
15
 73
11
 74
0
 42
0.0000001
 43
0.0000001
 44
0.0000000001
 40
0.0
 40
0.0
 40
0.0
 40
0.0
 40
0.1239115905
 40
0.248756369
 40
0.3740706037
 40
0.4995947344
 40
0.6251912389
 40
0.7507054731
 40
0.875820271
 40
1.0
 40
1.0
 40
1.0
 40
1.0
 10
-54.490125826
 20
10.8863490472
 30
0.0
 10
-55.4738157116
 20
10.3892955421
 30
0.0
 10
-57.3290741246
 20
9.1315773706
 30
0.0
 10
-59.5319318595
 20
6.5872425022
 30
0.0
 10
-60.9686522754
 20
3.5197100653
 30
0.0
 10
-61.462895801
 20
0.1579068827
 30
0.0
 10
-60.9456086493
 20
-3.2020376769
 30
0.0
 10
-59.4899394148
 20
-6.2654348233
 30
0.0
 10
-57.2742854795
 20
-8.8065199638
 30
0.0
 10
-55.4143853327
 20
-10.065013541
 30
0.0
 10
-54.4287114526
 20
-10.5634288313
 30
0.0
  0
SPLINE
  5
670
100
AcDbEntity
  8
RACCORDO
100
AcDbSpline
 62
250
  6
CONTINUOUS
 70
0
 71
3
 72
9
 73
5
 74
0
 42
0.0000001
 43
0.0000001
 44
0.0000000001
 40
0.0
 40
0.0
 40
0.0
 40
0.0
 40
0.4992778544
 40
1.0
 40
1.0
 40
1.0
 40
1.0
 10
-52.4122573047
 20
11.8878552477
 30
0.0
 10
-52.7538293101
 20
11.712654415
 30
0.0
 10
-53.4525431467
 20
11.3911258059
 30
0.0
 10
-54.1464937602
 20
11.0599508809
 30
0.0
 10
-54.490125826
 20
10.8863490472
 30
0.0
  0
SPLINE
  5
671
100
AcDbEntity
  8
RACCORDO
100
AcDbSpline
 62
250
  6
CONTINUOUS
 70
0
 71
3
 72
15
 73
11
 74
0
 42
0.0000001
 43
0.0000001
 44
0.0000000001
 40
0.0
 40
0.0
 40
0.0
 40
0.0
 40
0.1249947965
 40
0.2499809786
 40
0.3749763923
 40
0.4999799459
 40
0.6249896927
 40
0.749998224
 40
0.8749976899
 40
1.0
 40
1.0
 40
1.0
 40
1.0
 10
-54.9557500612
 20
11.6405586338
 30
0.0
 10
-56.1364084554
 20
11.2339545996
 30
0.0
 10
-58.38519351
 20
10.0408914623
 30
0.0
 10
-61.03395119
 20
7.3101015958
 30
0.0
 10
-62.725304287
 20
3.8994331075
 30
0.0
 10
-63.2985031851
 20
0.1366595177
 30
0.0
 10
-62.7033028364
 20
-3.622809971
 30
0.0
 10
-60.9922361698
 20
-7.0239532288
 30
0.0
 10
-58.3278918268
 20
-9.739969292
 30
0.0
 10
-56.072256645
 20
-10.9205159982
 30
0.0
 10
-54.8892404336
 20
-11.3204424851
 30
0.0
  0
SPLINE
  5
672
100
AcDbEntity
  8
RACCORDO
100
AcDbSpline
 62
250
  6
CONTINUOUS
 70
0
 71
3
 72
15
 73
11
 74
0
 42
0.0000001
 43
0.0000001
 44
0.0000000001
 40
0.0
 40
0.0
 40
0.0
 40
0.0
 40
0.1238324785
 40
0.248671202
 40
0.3740147502
 40
0.4995814335
 40
0.6252210111
 40
0.7507680638
 40
0.875886504
 40
1.0
 40
1.0
 40
1.0
 40
1.0
 10
-54.9557500612
 20
11.6405586338
 30
0.0
 10
-55.9940153258
 20
11.1000579408
 30
0.0
 10
-57.9471190456
 20
9.7373464151
 30
0.0
 10
-60.2516894636
 20
7.0037442482
 30
0.0
 10
-61.7462543581
 20
3.729964778
 30
0.0
 10
-62.2582088859
 20
0.1567359458
 30
0.0
 10
-61.7214452613
 20
-3.4146056441
 30
0.0
 10
-60.2062950179
 20
-6.6841498472
 30
0.0
 10
-57.8877664599
 20
-9.414510666
 30
0.0
 10
-55.9296489285
 20
-10.7783063627
 30
0.0
 10
-54.8892404336
 20
-11.3204424851
 30
0.0
  0
SPLINE
  5
673
100
AcDbEntity
  8
RACCORDO
100
AcDbSpline
 62
250
  6
CONTINUOUS
 70
0
 71
3
 72
9
 73
5
 74
0
 42
0.0000001
 43
0.0000001
 44
0.0000000001
 40
0.0
 40
0.0
 40
0.0
 40
0.0
 40
0.5002264194
 40
1.0
 40
1.0
 40
1.0
 40
1.0
 10
-54.8892476848
 20
-11.3204382957
 30
0.0
 10
-54.5359548384
 20
-11.4679843382
 30
0.0
 10
-53.8192540053
 20
-11.7384358492
 30
0.0
 10
-53.0894772085
 20
-11.9694776903
 30
0.0
 10
-52.7248940376
 20
-12.0852339125
 30
0.0
  0
SPLINE
  5
674
100
AcDbEntity
  8
RACCORDO
100
AcDbSpline
 62
250
  6
CONTINUOUS
 70
0
 71
3
 72
9
 73
5
 74
0
 42
0.0000001
 43
0.0000001
 44
0.0000000001
 40
0.0
 40
0.0
 40
0.0
 40
0.0
 40
0.2494827355
 40
1.0
 40
1.0
 40
1.0
 40
1.0
 10
-52.7248940376
 20
-12.0852339125
 30
0.0
 10
-52.5013228237
 20
-12.1560636601
 30
0.0
 10
-51.5993975627
 20
-12.4211485942
 30
0.0
 10
-50.674413977
 20
-12.609634309
 30
0.0
 10
-49.9747516009
 20
-12.7003077661
 30
0.0
  0
SPLINE
  5
675
100
AcDbEntity
  8
RACCORDO
100
AcDbSpline
 62
250
  6
CONTINUOUS
 70
0
 71
3
 72
9
 73
5
 74
0
 42
0.0000001
 43
0.0000001
 44
0.0000000001
 40
0.0
 40
0.0
 40
0.0
 40
0.0
 40
0.2506399797
 40
1.0
 40
1.0
 40
1.0
 40
1.0
 10
-49.9747521871
 20
13.0413177803
 30
0.0
 10
-50.2083594364
 20
13.0110393788
 30
0.0
 10
-51.1373996088
 20
12.867728962
 30
0.0
 10
-52.053079143
 20
12.6405394869
 30
0.0
 10
-52.7248570499
 20
12.4290638381
 30
0.0
  0
SPLINE
  5
676
100
AcDbEntity
  8
RACCORDO
100
AcDbSpline
 62
250
  6
CONTINUOUS
 70
0
 71
3
 72
9
 73
5
 74
0
 42
0.0000001
 43
0.0000001
 44
0.0000000001
 40
0.0
 40
0.0
 40
0.0
 40
0.0
 40
0.4997925701
 40
1.0
 40
1.0
 40
1.0
 40
1.0
 10
-52.7248570499
 20
12.4290638381
 30
0.0
 10
-53.1009273838
 20
12.3105013723
 30
0.0
 10
-53.8535129899
 20
12.073335609
 30
0.0
 10
-54.5920164483
 20
11.7936497886
 30
0.0
 10
-54.9557545273
 20
11.6405524404
 30
0.0
  0
SPLINE
  5
677
100
AcDbEntity
  8
RACCORDO
100
AcDbSpline
 62
250
  6
CONTINUOUS
 70
0
 71
3
 72
10
 73
6
 74
0
 42
0.0000001
 43
0.0000001
 44
0.0000000001
 40
0.0
 40
0.0
 40
0.0
 40
0.0
 40
0.1685440357
 40
0.389530997
 40
1.0
 40
1.0
 40
1.0
 40
1.0
 10
-67.7307945008
 20
35.0565109213
 30
0.0
 10
-67.7031491969
 20
35.0412302729
 30
0.0
 10
-67.6459905127
 20
34.9942411022
 30
0.0
 10
-67.5246934848
 20
34.8510152347
 30
0.0
 10
-67.4457354894
 20
34.7153010709
 30
0.0
 10
-67.392040395
 20
34.6142740661
 30
0.0
  0
SPLINE
  5
678
100
AcDbEntity
  8
RACCORDO
100
AcDbSpline
 62
250
  6
CONTINUOUS
 70
0
 71
3
 72
9
 73
5
 74
0
 42
0.0000001
 43
0.0000001
 44
0.0000000001
 40
0.0
 40
0.0
 40
0.0
 40
0.0
 40
0.5000427096
 40
1.0
 40
1.0
 40
1.0
 40
1.0
 10
-50.4747573047
 20
-15.189018644
 30
0.0
 10
-53.1517169934
 20
-15.1906841856
 30
0.0
 10
-58.5285904022
 20
-14.4952652793
 30
0.0
 10
-63.5437489291
 20
-12.4335145775
 30
0.0
 10
-65.8659096109
 20
-11.1026360553
 30
0.0
  0
SPLINE
  5
679
100
AcDbEntity
  8
RACCORDO
100
AcDbSpline
 62
250
  6
CONTINUOUS
 70
0
 71
3
 72
10
 73
6
 74
0
 42
0.0000001
 43
0.0000001
 44
0.0000000001
 40
0.0
 40
0.0
 40
0.0
 40
0.0
 40
0.6240467686
 40
0.8435415847
 40
1.0
 40
1.0
 40
1.0
 40
1.0
 10
-65.8659096109
 20
-11.1026360553
 30
0.0
 10
-65.9786546169
 20
-11.3311388255
 30
0.0
 10
-66.1354925125
 20
-11.638013356
 30
0.0
 10
-66.3371332302
 20
-11.9930646412
 30
0.0
 10
-66.4178096602
 20
-12.1237959033
 30
0.0
 10
-66.4538602102
 20
-12.1765352516
 30
0.0
  0
SPLINE
  5
67A
100
AcDbEntity
  8
RACCORDO
100
AcDbSpline
 62
250
  6
CONTINUOUS
 70
0
 71
3
 72
9
 73
5
 74
0
 42
0.0000001
 43
0.0000001
 44
0.0000000001
 40
0.0
 40
0.0
 40
0.0
 40
0.0
 40
0.4994322446
 40
1.0
 40
1.0
 40
1.0
 40
1.0
 10
-49.4747573047
 20
35.8222206518
 30
0.0
 10
-49.4747573047
 20
35.946896603
 30
0.0
 10
-49.5795976628
 20
36.2069133294
 30
0.0
 10
-49.8397978898
 20
36.3106501348
 30
0.0
 10
-49.9647573047
 20
36.3106501349
 30
0.0
  0
SPLINE
  5
67B
100
AcDbEntity
  8
RACCORDO
100
AcDbSpline
 62
250
  6
CONTINUOUS
 70
0
 71
3
 72
10
 73
6
 74
0
 42
0.0000001
 43
0.0000001
 44
0.0000000001
 40
0.0
 40
0.0
 40
0.0
 40
0.0
 40
0.2408476276
 40
0.4887869152
 40
1.0
 40
1.0
 40
1.0
 40
1.0
 10
-49.4747573047
 20
35.1700854965
 30
0.0
 10
-49.4747573047
 20
35.2282392955
 30
0.0
 10
-49.5017325799
 20
35.3476142166
 30
0.0
 10
-49.64793059
 20
35.5464411265
 30
0.0
 10
-49.8413224871
 20
35.6159655488
 30
0.0
 10
-49.9647573047
 20
35.6159655488
 30
0.0
  0
SPLINE
  5
67C
100
AcDbEntity
  8
RACCORDO
100
AcDbSpline
 62
250
  6
CONTINUOUS
 70
0
 71
3
 72
15
 73
11
 74
0
 42
0.0000001
 43
0.0000001
 44
0.0000000001
 40
0.0
 40
0.0
 40
0.0
 40
0.0
 40
0.0060814961
 40
0.0210106009
 40
0.0781676084
 40
0.1703567719
 40
0.2944795301
 40
0.4456839952
 40
0.6187717813
 40
1.0
 40
1.0
 40
1.0
 40
1.0
 10
-49.4747573047
 20
34.4632464081
 30
0.0
 10
-49.4747573047
 20
34.4642422202
 30
0.0
 10
-49.4791043809
 20
34.4657099737
 30
0.0
 10
-49.4901412028
 20
34.4681659384
 30
0.0
 10
-49.5184371157
 20
34.4709752068
 30
0.0
 10
-49.5622640876
 20
34.4738870396
 30
0.0
 10
-49.6227502912
 20
34.4764946601
 30
0.0
 10
-49.6960148446
 20
34.4786792461
 30
0.0
 10
-49.8115748393
 20
34.4809015156
 30
0.0
 10
-49.9023209818
 20
34.4815323856
 30
0.0
 10
-49.9647450397
 20
34.4815324439
 30
0.0
  0
SPLINE
  5
67D
100
AcDbEntity
  8
RACCORDO
100
AcDbSpline
 62
250
  6
CONTINUOUS
 70
0
 71
3
 72
16
 73
12
 74
0
 42
0.0000001
 43
0.0000001
 44
0.0000000001
 40
0.0
 40
0.0
 40
0.0
 40
0.0
 40
0.0055690259
 40
0.0203128023
 40
0.0443073622
 40
0.0773434075
 40
0.1695326518
 40
0.293736863
 40
0.4450797964
 40
0.6183476059
 40
1.0
 40
1.0
 40
1.0
 40
1.0
 10
-49.4747573047
 20
-14.0386338595
 30
0.0
 10
-49.4747573047
 20
-14.0395447509
 30
0.0
 10
-49.4794038158
 20
-14.0402822223
 30
0.0
 10
-49.4852767841
 20
-14.0415931183
 30
0.0
 10
-49.4976630929
 20
-14.0426831074
 30
0.0
 10
-49.5215897051
 20
-14.0445451352
 30
0.0
 10
-49.5626471982
 20
-14.0464205228
 30
0.0
 10
-49.6226270934
 20
-14.0483679856
 30
0.0
 10
-49.6960706858
 20
-14.0499592691
 30
0.0
 10
-49.8115577759
 20
-14.0515955586
 30
0.0
 10
-49.9023327628
 20
-14.0520564351
 30
0.0
 10
-49.9647573047
 20
-14.0520564351
 30
0.0
  0
SPLINE
  5
67E
100
AcDbEntity
  8
RACCORDO
100
AcDbSpline
 62
250
  6
CONTINUOUS
 70
0
 71
3
 72
10
 73
6
 74
0
 42
0.0000001
 43
0.0000001
 44
0.0000000001
 40
0.0
 40
0.0
 40
0.0
 40
0.0
 40
0.2397709143
 40
0.4872757522
 40
1.0
 40
1.0
 40
1.0
 40
1.0
 10
-49.4747573047
 20
-14.7469449115
 30
0.0
 10
-49.4747573047
 20
-14.8046044227
 30
0.0
 10
-49.5018170973
 20
-14.9231406599
 30
0.0
 10
-49.6485015806
 20
-15.1204311123
 30
0.0
 10
-49.8414586569
 20
-15.1888519509
 30
0.0
 10
-49.9647573047
 20
-15.1888519506
 30
0.0
  0
SPLINE
  5
67F
100
AcDbEntity
  8
RACCORDO
100
AcDbSpline
 62
250
  6
CONTINUOUS
 70
0
 71
3
 72
9
 73
5
 74
0
 42
0.0000001
 43
0.0000001
 44
0.0000000001
 40
0.0
 40
0.0
 40
0.0
 40
0.0
 40
0.4982498758
 40
1.0
 40
1.0
 40
1.0
 40
1.0
 10
-49.4747573047
 20
-16.0281837631
 30
0.0
 10
-49.4747573047
 20
-16.1521514159
 30
0.0
 10
-49.5804001116
 20
-16.4111062221
 30
0.0
 10
-49.8399187685
 20
-16.5133579999
 30
0.0
 10
-49.9647573047
 20
-16.5133579999
 30
0.0
  0
SPLINE
  5
680
100
AcDbEntity
  8
RACCORDO
100
AcDbSpline
 62
250
  6
CONTINUOUS
 70
0
 71
3
 72
9
 73
5
 74
0
 42
0.0000001
 43
0.0000001
 44
0.0000000001
 40
0.0
 40
0.0
 40
0.0
 40
0.0
 40
0.5000661116
 40
1.0
 40
1.0
 40
1.0
 40
1.0
 10
-67.3412255886
 20
-8.6957402616
 30
0.0
 10
-67.5263502243
 20
-1.4782766955
 30
0.0
 10
-67.7193609887
 20
12.9597717789
 30
0.0
 10
-67.563129177
 20
27.3983736873
 30
0.0
 10
-67.392040395
 20
34.6142740661
 30
0.0
  0
SPLINE
  5
681
100
AcDbEntity
  8
RACCORDO
100
AcDbSpline
 62
250
  6
CONTINUOUS
 70
0
 71
3
 72
10
 73
6
 74
0
 42
0.0000001
 43
0.0000001
 44
0.0000000001
 40
0.0
 40
0.0
 40
0.0
 40
0.0
 40
0.6301900059
 40
0.8478685661
 40
1.0
 40
1.0
 40
1.0
 40
1.0
 10
-67.3412255886
 20
-8.6957402616
 30
0.0
 10
-67.4555012035
 20
-8.9149908946
 30
0.0
 10
-67.6150209252
 20
-9.2072606844
 30
0.0
 10
-67.8215135252
 20
-9.5408562344
 30
0.0
 10
-67.9033869795
 20
-9.6608443074
 30
0.0
 10
-67.9398784848
 20
-9.7080757592
 30
0.0
  0
SPLINE
  5
682
100
AcDbEntity
  8
RACCORDO
100
AcDbSpline
 62
250
  6
CONTINUOUS
 70
0
 71
3
 72
9
 73
5
 74
0
 42
0.0000001
 43
0.0000001
 44
0.0000000001
 40
0.0
 40
0.0
 40
0.0
 40
0.0
 40
0.267877976
 40
1.0
 40
1.0
 40
1.0
 40
1.0
 10
-67.9398784848
 20
-9.7080757592
 30
0.0
 10
-67.9458883157
 20
-9.715853453
 30
0.0
 10
-67.9678039273
 20
-9.7452753555
 30
0.0
 10
-67.9875631652
 20
-9.7763788245
 30
0.0
 10
-68.0000425373
 20
-9.8001674852
 30
0.0
  0
SPLINE
  5
683
100
AcDbEntity
  8
RACCORDO
100
AcDbSpline
 62
250
  6
CONTINUOUS
 70
0
 71
3
 72
9
 73
5
 74
0
 42
0.0000001
 43
0.0000001
 44
0.0000000001
 40
0.0
 40
0.0
 40
0.0
 40
0.0
 40
0.249908324
 40
1.0
 40
1.0
 40
1.0
 40
1.0
 10
-66.1732935589
 20
34.6220742514
 30
0.0
 10
-64.8231932939
 20
34.6003235239
 30
0.0
 10
-59.4206896927
 20
34.5215703556
 30
0.0
 10
-54.0175527535
 20
34.4814600423
 30
0.0
 10
-49.9647450397
 20
34.481498815
 30
0.0
  0
SPLINE
  5
684
100
AcDbEntity
  8
RACCORDO
100
AcDbSpline
 62
250
  6
CONTINUOUS
 70
0
 71
3
 72
23
 73
19
 74
0
 42
0.0000001
 43
0.0000001
 44
0.0000000001
 40
0.0
 40
0.0
 40
0.0
 40
0.0
 40
0.0625009365
 40
0.1250037999
 40
0.187500386
 40
0.2499954865
 40
0.3124891617
 40
0.3749837556
 40
0.4374797779
 40
0.4999779713
 40
0.5624786295
 40
0.6249808184
 40
0.6874830097
 40
0.7499844053
 40
0.8124846243
 40
0.8749858291
 40
0.9374818032
 40
1.0
 40
1.0
 40
1.0
 40
1.0
 10
-49.9647450397
 20
13.041516603
 30
0.0
 10
-50.8117413974
 20
13.1128387254
 30
0.0
 10
-52.5248195786
 20
13.0872427958
 30
0.0
 10
-55.0321862359
 20
12.5411446094
 30
0.0
 10
-57.3825736467
 20
11.5091197552
 30
0.0
 10
-59.4821980175
 20
10.0330830247
 30
0.0
 10
-61.2495320157
 20
8.1720785067
 30
0.0
 10
-62.616380246
 20
5.9999728819
 30
0.0
 10
-63.5306710039
 20
3.6019908558
 30
0.0
 10
-63.9579267339
 20
1.0714097237
 30
0.0
 10
-63.8821616078
 20
-1.4939350399
 30
0.0
 10
-63.3062449282
 20
-3.9950224878
 30
0.0
 10
-62.2518461982
 20
-6.335046468
 30
0.0
 10
-60.7588002418
 20
-8.4227753519
 30
0.0
 10
-58.8842825545
 20
-10.1761102478
 30
0.0
 10
-56.7003359132
 20
-11.5250556841
 30
0.0
 10
-54.2935301569
 20
-12.4156949124
 30
0.0
 10
-52.6004294333
 20
-12.6795133353
 30
0.0
 10
-51.751486614
 20
-12.7262558957
 30
0.0
  0
LINE
  5
685
100
AcDbEntity
  8
RACCORDO
100
AcDbLine
 62
250
  6
CONTINUOUS
 10
-49.9647450397
 20
-14.0520548238
 11
-50.4763876031
 21
-14.0522089331
  0
SPLINE
  5
686
100
AcDbEntity
  8
RACCORDO
100
AcDbSpline
 62
250
  6
CONTINUOUS
 70
0
 71
3
 72
9
 73
5
 74
0
 42
0.0000001
 43
0.0000001
 44
0.0000000001
 40
0.0
 40
0.0
 40
0.0
 40
0.0
 40
0.5000396975
 40
1.0
 40
1.0
 40
1.0
 40
1.0
 10
-50.4763876031
 20
-14.0522089331
 30
0.0
 10
-53.0575876929
 20
-14.053695393
 30
0.0
 10
-58.242112704
 20
-13.3834248941
 30
0.0
 10
-63.0781418666
 20
-11.3960383633
 30
0.0
 10
-65.3174326505
 20
-10.1130507075
 30
0.0
  0
SPLINE
  5
687
100
AcDbEntity
  8
RACCORDO
100
AcDbSpline
 62
250
  6
CONTINUOUS
 70
0
 71
3
 72
10
 73
6
 74
0
 42
0.0000001
 43
0.0000001
 44
0.0000000001
 40
0.0
 40
0.0
 40
0.0
 40
0.0
 40
0.2506507255
 40
0.5014696396
 40
1.0
 40
1.0
 40
1.0
 40
1.0
 10
-65.3174326505
 20
-10.1130507075
 30
0.0
 10
-65.4411351261
 20
-10.0421825141
 30
0.0
 10
-65.6697071555
 20
-9.8639927456
 30
0.0
 10
-66.0101311035
 20
-9.4017221705
 30
0.0
 10
-66.1188323653
 20
-8.9672563009
 30
0.0
 10
-66.1262065352
 20
-8.6837995715
 30
0.0
  0
SPLINE
  5
688
100
AcDbEntity
  8
RACCORDO
100
AcDbSpline
 62
250
  6
CONTINUOUS
 70
0
 71
3
 72
9
 73
5
 74
0
 42
0.0000001
 43
0.0000001
 44
0.0000000001
 40
0.0
 40
0.0
 40
0.0
 40
0.0
 40
0.5000607632
 40
1.0
 40
1.0
 40
1.0
 40
1.0
 10
-66.1262065352
 20
-8.6837995715
 30
0.0
 10
-66.3129593869
 20
-1.4671321588
 30
0.0
 10
-66.5071721781
 20
12.9695920652
 30
0.0
 10
-66.3470635569
 20
27.406837467
 30
0.0
 10
-66.1732935589
 20
34.6220742514
 30
0.0
  0
SPLINE
  5
689
100
AcDbEntity
  8
RACCORDO
100
AcDbSpline
 62
250
  6
CONTINUOUS
 70
0
 71
3
 72
9
 73
5
 74
0
 42
0.0000001
 43
0.0000001
 44
0.0000000001
 40
0.0
 40
0.0
 40
0.0
 40
0.0
 40
0.249869687
 40
1.0
 40
1.0
 40
1.0
 40
1.0
 10
-66.1206679583
 20
35.7840589186
 30
0.0
 10
-64.7752097396
 20
35.7581298902
 30
0.0
 10
-59.3904140031
 20
35.6632606847
 30
0.0
 10
-54.0046887045
 20
35.6158777804
 30
0.0
 10
-49.9647573047
 20
35.6159281533
 30
0.0
  0
SPLINE
  5
68A
100
AcDbEntity
  8
RACCORDO
100
AcDbSpline
 62
250
  6
CONTINUOUS
 70
0
 71
3
 72
9
 73
5
 74
0
 42
0.0000001
 43
0.0000001
 44
0.0000000001
 40
0.0
 40
0.0
 40
0.0
 40
0.0
 40
0.2355950779
 40
1.0
 40
1.0
 40
1.0
 40
1.0
 10
-52.7248938623
 20
-12.085232589
 30
0.0
 10
-52.6971301911
 20
-12.0445569226
 30
0.0
 10
-52.5832296959
 20
-11.8692344061
 30
0.0
 10
-52.4823889476
 20
-11.6855357309
 30
0.0
 10
-52.4122574472
 20
-11.5419613006
 30
0.0
  0
SPLINE
  5
68B
100
AcDbEntity
  8
RACCORDO
100
AcDbSpline
 62
250
  6
CONTINUOUS
 70
0
 71
3
 72
9
 73
5
 74
0
 42
0.0000001
 43
0.0000001
 44
0.0000000001
 40
0.0
 40
0.0
 40
0.0
 40
0.0
 40
0.4519823221
 40
1.0
 40
1.0
 40
1.0
 40
1.0
 10
-54.8892561186
 20
-11.3204233614
 30
0.0
 10
-54.804333723
 20
-11.2171732406
 30
0.0
 10
-54.6408074105
 20
-10.9692856306
 30
0.0
 10
-54.4996278214
 20
-10.7091837187
 30
0.0
 10
-54.4287082002
 20
-10.563428496
 30
0.0
  0
SPLINE
  5
68C
100
AcDbEntity
  8
RACCORDO
100
AcDbSpline
 62
250
  6
CONTINUOUS
 70
0
 71
3
 72
9
 73
5
 74
0
 42
0.0000001
 43
0.0000001
 44
0.0000000001
 40
0.0
 40
0.0
 40
0.0
 40
0.0
 40
0.4489954513
 40
1.0
 40
1.0
 40
1.0
 40
1.0
 10
-54.9557598367
 20
11.6405537221
 30
0.0
 10
-54.8695598004
 20
11.5394403676
 30
0.0
 10
-54.7039300934
 20
11.2925321852
 30
0.0
 10
-54.5617394322
 20
11.0328381114
 30
0.0
 10
-54.4901258303
 20
10.8863490473
 30
0.0
  0
SPLINE
  5
68D
100
AcDbEntity
  8
RACCORDO
100
AcDbSpline
 62
250
  6
CONTINUOUS
 70
0
 71
3
 72
9
 73
5
 74
0
 42
0.0000001
 43
0.0000001
 44
0.0000000001
 40
0.0
 40
0.0
 40
0.0
 40
0.0
 40
0.2347272705
 40
1.0
 40
1.0
 40
1.0
 40
1.0
 10
-52.7248540368
 20
12.4290405618
 30
0.0
 10
-52.6970581065
 20
12.3887772815
 30
0.0
 10
-52.5827702158
 20
12.2144153167
 30
0.0
 10
-52.4821228791
 20
12.0312448224
 30
0.0
 10
-52.4122429899
 20
11.8878548588
 30
0.0
  0
SPLINE
  5
68E
100
AcDbEntity
  8
RACCORDO
100
AcDbSpline
 62
250
  6
CONTINUOUS
 70
0
 71
3
 72
10
 73
6
 74
0
 42
0.0000001
 43
0.0000001
 44
0.0000000001
 40
0.0
 40
0.0
 40
0.0
 40
0.0
 40
0.1595388068
 40
0.3778977986
 40
1.0
 40
1.0
 40
1.0
 40
1.0
 10
-66.4443885944
 20
36.3106501349
 30
0.0
 10
-66.4170731434
 20
36.2918824764
 30
0.0
 10
-66.3618142435
 20
36.234480795
 30
0.0
 10
-66.245306531
 20
36.0623814271
 30
0.0
 10
-66.1712969041
 20
35.902959821
 30
0.0
 10
-66.1206679583
 20
35.7840589186
 30
0.0
  0
SPLINE
  5
68F
100
AcDbEntity
  8
RACCORDO
100
AcDbSpline
 62
250
  6
CONTINUOUS
 70
0
 71
3
 72
9
 73
5
 74
0
 42
0.0000001
 43
0.0000001
 44
0.0000000001
 40
0.0
 40
0.0
 40
0.0
 40
0.0
 40
0.4074585608
 40
1.0
 40
1.0
 40
1.0
 40
1.0
 10
-66.6822134594
 20
36.4764144929
 30
0.0
 10
-66.6542217896
 20
36.4486374954
 30
0.0
 10
-66.5761958693
 20
36.3903622402
 30
0.0
 10
-66.4939118946
 20
36.3395666967
 30
0.0
 10
-66.4443885944
 20
36.3106501349
 30
0.0
  0
SPLINE
  5
690
100
AcDbEntity
  8
RACCORDO
100
AcDbSpline
 62
250
  6
CONTINUOUS
 70
0
 71
3
 72
9
 73
5
 74
0
 42
0.0000001
 43
0.0000001
 44
0.0000000001
 40
0.0
 40
0.0
 40
0.0
 40
0.0
 40
0.4060498679
 40
1.0
 40
1.0
 40
1.0
 40
1.0
 10
-67.9796115192
 20
35.220471905
 30
0.0
 10
-67.9501404875
 20
35.1928501015
 30
0.0
 10
-67.8683384959
 20
35.1351915549
 30
0.0
 10
-67.7825134411
 20
35.0850764645
 30
0.0
 10
-67.7307945008
 20
35.0565109213
 30
0.0
  0
SPLINE
  5
691
100
AcDbEntity
  8
RACCORDO
100
AcDbSpline
 62
250
  6
CONTINUOUS
 70
0
 71
3
 72
11
 73
7
 74
0
 42
0.0000001
 43
0.0000001
 44
0.0000000001
 40
0.0
 40
0.0
 40
0.0
 40
0.0
 40
0.2507180747
 40
0.501065517
 40
0.7508680961
 40
1.0
 40
1.0
 40
1.0
 40
1.0
 10
-65.8658895743
 20
-11.102598918
 30
0.0
 10
-66.078789558
 20
-10.9808977053
 30
0.0
 10
-66.4748152547
 20
-10.6815882468
 30
0.0
 10
-66.9351310364
 20
-10.0997224466
 30
0.0
 10
-67.2377750087
 20
-9.4244069634
 30
0.0
 10
-67.3259062586
 20
-8.938928779
 30
0.0
 10
-67.3411786899
 20
-8.6957296307
 30
0.0
  0
SPLINE
  5
692
100
AcDbEntity
  8
RACCORDO
100
AcDbSpline
 62
250
  6
CONTINUOUS
 70
0
 71
3
 72
9
 73
5
 74
0
 42
0.0000001
 43
0.0000001
 44
0.0000000001
 40
0.0
 40
0.0
 40
0.0
 40
0.0
 40
0.5008927852
 40
1.0
 40
1.0
 40
1.0
 40
1.0
 10
-66.4538602073
 20
-12.1765352468
 30
0.0
 10
-66.8817745952
 20
-11.9248977754
 30
0.0
 10
-67.6227062645
 20
-11.1978373271
 30
0.0
 10
-67.919526727
 20
-10.2023066033
 30
0.0
 10
-67.9398784746
 20
-9.7080757589
 30
0.0
  0
SPLINE
  5
693
100
AcDbEntity
  8
RACCORDO
100
AcDbSpline
 62
250
  6
CONTINUOUS
 70
0
 71
3
 72
9
 73
5
 74
0
 42
0.0000001
 43
0.0000001
 44
0.0000000001
 40
0.0
 40
0.0
 40
0.0
 40
0.0
 40
0.5007865792
 40
1.0
 40
1.0
 40
1.0
 40
1.0
 10
-66.5121070903
 20
-12.2754588973
 30
0.0
 10
-66.9418370195
 20
-12.0243599123
 30
0.0
 10
-67.686318854
 20
-11.2957140105
 30
0.0
 10
-67.9814602754
 20
-10.2959691641
 30
0.0
 10
-68.000042219
 20
-9.8001674751
 30
0.0
  0
SPLINE
  5
694
100
AcDbEntity
  8
RACCORDO
100
AcDbSpline
 62
250
  6
CONTINUOUS
 70
0
 71
3
 72
9
 73
5
 74
0
 42
0.0000001
 43
0.0000001
 44
0.0000000001
 40
0.0
 40
0.0
 40
0.0
 40
0.0
 40
0.4056774379
 40
1.0
 40
1.0
 40
1.0
 40
1.0
 10
-65.8658857602
 20
-11.1025911615
 30
0.0
 10
-65.7962408779
 20
-10.966365085
 30
0.0
 10
-65.6140019672
 20
-10.6360670374
 30
0.0
 10
-65.4288283631
 20
-10.3075515938
 30
0.0
 10
-65.3174326496
 20
-10.113050707
 30
0.0
  0
SPLINE
  5
695
100
AcDbEntity
  8
RACCORDO
100
AcDbSpline
 62
250
  6
CONTINUOUS
 70
0
 71
3
 72
11
 73
7
 74
0
 42
0.0000001
 43
0.0000001
 44
0.0000000001
 40
0.0
 40
0.0
 40
0.0
 40
0.0
 40
0.1311412679
 40
0.3587695103
 40
0.6593438191
 40
1.0
 40
1.0
 40
1.0
 40
1.0
 10
-67.3412268404
 20
-8.6957405595
 30
0.0
 10
-67.2881983895
 20
-8.6988711456
 30
0.0
 10
-67.1427722187
 20
-8.6994376933
 30
0.0
 10
-66.8757565246
 20
-8.698578315
 30
0.0
 10
-66.523823514
 20
-8.6928948674
 30
0.0
 10
-66.2641512783
 20
-8.6872544315
 30
0.0
 10
-66.126206532
 20
-8.6837995698
 30
0.0
  0
SPLINE
  5
696
100
AcDbEntity
  8
RACCORDO
100
AcDbSpline
 62
250
  6
CONTINUOUS
 70
0
 71
3
 72
13
 73
9
 74
0
 42
0.0000001
 43
0.0000001
 44
0.0000000001
 40
0.0
 40
0.0
 40
0.0
 40
0.0
 40
0.050691001
 40
0.1285463599
 40
0.2311735653
 40
0.3556885785
 40
0.6569667894
 40
1.0
 40
1.0
 40
1.0
 40
1.0
 10
-67.3920521646
 20
34.614299997
 30
0.0
 10
-67.3714620582
 20
34.614843447
 30
0.0
 10
-67.3194027297
 20
34.6195840847
 30
0.0
 10
-67.2256926111
 20
34.6259561586
 30
0.0
 10
-67.1017838061
 20
34.6296083477
 30
0.0
 10
-66.8870791737
 20
34.6315296092
 30
0.0
 10
-66.5746879975
 20
34.6290496406
 30
0.0
 10
-66.3128624841
 20
34.6269614848
 30
0.0
 10
-66.1735452742
 20
34.6226244154
 30
0.0
  0
SPLINE
  5
697
100
AcDbEntity
  8
RACCORDO
100
AcDbSpline
 62
250
  6
CONTINUOUS
 70
0
 71
3
 72
10
 73
6
 74
0
 42
0.0000001
 43
0.0000001
 44
0.0000000001
 40
0.0
 40
0.0
 40
0.0
 40
0.0
 40
0.1606350757
 40
0.3945420263
 40
1.0
 40
1.0
 40
1.0
 40
1.0
 10
-66.120899213
 20
35.7841638605
 30
0.0
 10
-66.1283828384
 20
35.7223424652
 30
0.0
 10
-66.1400714487
 20
35.5697516667
 30
0.0
 10
-66.1606811893
 20
35.1826634497
 30
0.0
 10
-66.1693954384
 20
34.8573029945
 30
0.0
 10
-66.1735452742
 20
34.6226244154
 30
0.0
  0
SPLINE
  5
698
100
AcDbEntity
  8
RACCORDO
100
AcDbSpline
 62
250
  6
CONTINUOUS
 70
0
 71
3
 72
11
 73
7
 74
0
 42
0.0000001
 43
0.0000001
 44
0.0000000001
 40
0.0
 40
0.0
 40
0.0
 40
0.0
 40
0.2488851734
 40
0.4989193303
 40
0.7495797343
 40
1.0
 40
1.0
 40
1.0
 40
1.0
 10
-66.4443885945
 20
36.3106393442
 30
0.0
 10
-66.6076784875
 20
36.3088221547
 30
0.0
 10
-66.9376159494
 20
36.2409549907
 30
0.0
 10
-67.3571806502
 20
35.962938336
 30
0.0
 10
-67.6460819067
 20
35.5496860209
 30
0.0
 10
-67.7237352559
 20
35.220666478
 30
0.0
 10
-67.7307893488
 20
35.0565107543
 30
0.0
  0
SPLINE
  5
699
100
AcDbEntity
  8
RACCORDO
100
AcDbSpline
 62
250
  6
CONTINUOUS
 70
0
 71
3
 72
11
 73
7
 74
0
 42
0.0000001
 43
0.0000001
 44
0.0000000001
 40
0.0
 40
0.0
 40
0.0
 40
0.0
 40
0.2531672565
 40
0.50737026
 40
0.757392785
 40
1.0
 40
1.0
 40
1.0
 40
1.0
 10
-66.120899213
 20
35.7841638605
 30
0.0
 10
-66.2775611762
 20
35.7721071913
 30
0.0
 10
-66.5904401358
 20
35.6975455871
 30
0.0
 10
-66.9922454101
 20
35.4366360529
 30
0.0
 10
-67.2815217365
 20
35.0637224082
 30
0.0
 10
-67.3765527016
 20
34.7640713873
 30
0.0
 10
-67.3920521646
 20
34.614299997
 30
0.0
  0
SPLINE
  5
69A
100
AcDbEntity
  8
RACCORDO
100
AcDbSpline
 62
250
  6
CONTINUOUS
 70
0
 71
3
 72
9
 73
5
 74
0
 42
0.0000001
 43
0.0000001
 44
0.0000000001
 40
0.0
 40
0.0
 40
0.0
 40
0.0
 40
0.2519221852
 40
1.0
 40
1.0
 40
1.0
 40
1.0
 10
-49.9642420634
 20
13.045616309
 30
0.0
 10
-50.1776351623
 20
12.9666002398
 30
0.0
 10
-51.0168355552
 20
12.6317650601
 30
0.0
 10
-51.8253026893
 20
12.2226265452
 30
0.0
 10
-52.4122573047
 20
11.8878552477
 30
0.0
  0
SPLINE
  5
69B
100
AcDbEntity
  8
RACCORDO
100
AcDbSpline
 62
250
  6
CONTINUOUS
 70
0
 71
3
 72
9
 73
5
 74
0
 42
0.0000001
 43
0.0000001
 44
0.0000000001
 40
0.0
 40
0.0
 40
0.0
 40
0.0
 40
0.2477956626
 40
1.0
 40
1.0
 40
1.0
 40
1.0
 10
-52.4122573047
 20
-11.541961287
 30
0.0
 10
-52.2180439969
 20
-11.6535408837
 30
0.0
 10
-51.4268480173
 20
-12.090489316
 30
0.0
 10
-50.6018748384
 20
-12.4685581761
 30
0.0
 10
-49.9642420634
 20
-12.7046053962
 30
0.0
  0
ENDSEC
  0
SECTION
  2
OBJECTS
  0
DICTIONARY
  5
C
100
AcDbDictionary
280
0
281
1
  3
ACAD_GROUP
350
D
  3
ACAD_MLINESTYLE
350
17
  3
ACAD_LAYOUT
350
1A
  3
ACAD_PLOTSETTINGS
350
19
  3
ACAD_PLOTSTYLENAME
350
E
  0
DICTIONARY
  5
D
102
{ACAD_REACTORS
330
C
102
}
100
AcDbDictionary
280
0
281
1
  0
ACDBDICTIONARYWDFLT
  5
E
102
{ACAD_REACTORS
330
C
102
}
100
AcDbDictionary
281
1
  3
Normal
350
F
100
AcDbDictionaryWithDefault
340
F
  0
DICTIONARY
  5
17
102
{ACAD_REACTORS
330
C
102
}
100
AcDbDictionary
280
0
281
1
  3
Standard
350
18
  0
DICTIONARY
  5
19
102
{ACAD_REACTORS
330
C
102
}
100
AcDbDictionary
281
1
  0
DICTIONARY
  5
1A
102
{ACAD_REACTORS
330
C
102
}
100
AcDbDictionary
281
1
  3
Model
350
69C
  3
Layout1
350
69D
  0
ACDBPLACEHOLDER
  5
F
102
{ACAD_REACTORS
330
E
102
}
  0
MLINESTYLE
  5
18
102
{ACAD_REACTORS
330
17
102
}
100
AcDbMlineStyle
  2
STANDARD
 70
0
  3

 62
256
 51
90.0
 52
90.0
 71
2
 49
0.5
 62
256
  6
BYLAYER
 49
-0.5
 62
256
  6
BYLAYER
  0
LAYOUT
  5
69C
102
{ACAD_REACTORS
330
1A
102
}
100
AcDbPlotSettings
  1

  2
none_device
  4
ANSI_C_(22.00_x_17.00_Inches)
  6

 40
0.0
 41
0.0
 42
0.0
 43
0.0
 44
558.8
 45
431.8
 46
0.0
 47
0.0
 48
0.0
 49
0.0
140
0.0
141
0.0
142
1.0
143
1.0
 70
1024
 72
1
 73
0
 74
0
  7

 75
0
147
1.0
148
0.0
149
0.0
100
AcDbLayout
  1
Model
 70
0
 71
0
 10
0.0
 20
0.0
 11
558.8
 21
431.8
 12
0.0
 22
0.0
 32
0.0
 14
0.0
 24
0.0
 34
0.0
 15
0.0
 25
0.0
 35
0.0
146
0.0
 13
0.0
 23
0.0
 33
0.0
 16
1.0
 26
0.0
 36
0.0
 17
0.0
 27
1.0
 37
0.0
 76
0
330
215
345
0
346
0
  0
LAYOUT
  5
69D
102
{ACAD_REACTORS
330
1A
102
}
100
AcDbPlotSettings
  1

  2
none_device
  4
ANSI_C_(22.00_x_17.00_Inches)
  6

 40
0.0
 41
0.0
 42
0.0
 43
0.0
 44
558.8
 45
431.8
 46
0.0
 47
0.0
 48
0.0
 49
0.0
140
0.0
141
0.0
142
1.0
143
1.0
 70
0
 72
1
 73
0
 74
0
  7

 75
0
147
1.0
148
0.0
149
0.0
100
AcDbLayout
  1
Layout1
 70
0
 71
1
 10
0.0
 20
0.0
 11
558.8
 21
431.8
 12
0.0
 22
0.0
 32
0.0
 14
0.0
 24
0.0
 34
0.0
 15
0.0
 25
0.0
 35
0.0
146
0.0
 13
0.0
 23
0.0
 33
0.0
 16
1.0
 26
0.0
 36
0.0
 17
0.0
 27
1.0
 37
0.0
 76
0
330
216
345
0
346
0
  0
ENDSEC
  0
EOF
