  0
SECTION
  2
HEADER
  9
$ACADVER
  1
AC1024
  9
$DWGCODEPAGE
  3
ANSI_1252
  9
$EXTMAX
 10
297.0
 20
210.0
 30
0.0
  9
$EXTMIN
 10
0.0
 20
0.0
 30
0.0
  9
$LIMMIN
 10
0.0
 20
0.0
  9
$LIMMAX
 10
297.0
 20
210.0
  9
$VIEWCTR
 10
148.5
 20
105.0
  9
$VIEWSIZE
 40
210.0
  9
$CLAYER
  8
0
  9
$LTSCALE
 40
16.335
  9
$CELTYPE
  6
BYLAYER
  9
$DIMSCALE
 40
1.0
  9
$DIMASZ
 40
3.0
  9
$DIMEXO
 40
0.5
  9
$DIMDLI
 40
11.286
  9
$DIMEXE
 40
1.5
  9
$DIMCEN
 40
2.673
  9
$DIMLFAC
 40
1.0
  9
$DIMBLK
  1
_FILLED
  9
$DIMALT
 70
0
  9
$DIMALTF
 40
0.0393700787
  9
$DIMTXT
 40
3.0
  9
$DIMTOL
 70
1
  9
$DIMLIM
 70
0
  9
$DIMTFAC
 40
1.0
  9
$DIMTP
 40
0.01
  9
$DIMTM
 40
0.01
  9
$DIMGAP
 40
0.625
  9
$DIMDSEP
 70
44
  9
$AUNITS
 70
0
  9
$PDMODE
 70
3
  9
$PDSIZE
 40
3.0
  9
$HANDSEED
  5
383
  9
$TILEMODE
 70
1
  9
$MEASUREMENT
 70
1
  9
$INSUNITS
 70
4
  0
ENDSEC
  0
SECTION
  2
CLASSES
  0
CLASS
  1
ACDBDICTIONARYWDFLT
  2
AcDbDictionaryWithDefault
  3
AutoCAD 2000
 90
0
 91
1
280
0
281
0
  0
CLASS
  1
ACDBPLACEHOLDER
  2
AcDbPlaceHolder
  3
AutoCAD 2000
 90
0
 91
1
280
0
281
0
  0
CLASS
  1
LAYOUT
  2
AcDbLayout
  3
AutoCAD 2000
 90
0
 91
0
280
0
281
0
  0
ENDSEC
  0
SECTION
  2
TABLES
  0
TABLE
  2
VPORT
  5
8
100
AcDbSymbolTable
 70
2
  0
VPORT
  5
1F4
100
AcDbSymbolTableRecord
100
AcDbViewportTableRecord
  2
*ACTIVE
 70
0
 10
0.0
 20
0.0
 11
1.0
 21
1.0
 12
148.5
 22
105.0
 13
0.0
 23
0.0
 14
1.0
 24
1.0
 15
0.0
 25
0.0
 16
0.0
 26
0.0
 36
1.0
 17
0.0
 27
0.0
 37
0.0
 40
210.0
 41
1.4142857143
 42
50.0
 43
0.0
 44
0.0
 50
0.0
 51
0.0
 71
0
 72
100
 73
1
 74
1
 75
0
 76
0
 77
0
 78
0
  0
ENDTAB
  0
TABLE
  2
LTYPE
  5
5
100
AcDbSymbolTable
 70
6
  0
LTYPE
  5
14
100
AcDbSymbolTableRecord
100
AcDbLinetypeTableRecord
  2
BYBLOCK
 70
0
  3

 72
65
 73
0
 40
0.0
  0
LTYPE
  5
15
100
AcDbSymbolTableRecord
100
AcDbLinetypeTableRecord
  2
BYLAYER
 70
0
  3

 72
65
 73
0
 40
0.0
  0
LTYPE
  5
16
100
AcDbSymbolTableRecord
100
AcDbLinetypeTableRecord
  2
CONTINUOUS
 70
64
  3
Solid line
 72
65
 73
0
 40
0.0
  0
LTYPE
  5
1F5
100
AcDbSymbolTableRecord
100
AcDbLinetypeTableRecord
  2
CENTER
 70
64
  3
____ _ ____ _ ____ _ ____ _ ____ _ ____ _ ____
 72
65
 73
4
 40
0.6
 49
0.375
 74
0
 49
-0.075
 74
0
 49
0.075
 74
0
 49
-0.075
 74
0
  0
LTYPE
  5
1F6
100
AcDbSymbolTableRecord
100
AcDbLinetypeTableRecord
  2
HIDDEN
 70
64
  3
- - - - - - - - - - - - - - - - - - - -
 72
65
 73
2
 40
0.2
 49
0.1
 74
0
 49
-0.1
 74
0
  0
LTYPE
  5
1F7
100
AcDbSymbolTableRecord
100
AcDbLinetypeTableRecord
  2
PHANTOM
 70
64
  3
_____ _ _ _____ _ _ _____ _ _ _____
 72
65
 73
6
 40
0.8
 49
0.45
 74
0
 49
-0.05
 74
0
 49
0.1
 74
0
 49
-0.05
 74
0
 49
0.1
 74
0
 49
-0.05
 74
0
  0
LTYPE
  5
1F8
100
AcDbSymbolTableRecord
100
AcDbLinetypeTableRecord
  2
DOT
 70
64
  3
. . . . . . . . . . . . . . . . . . . .
 72
65
 73
2
 40
0.2
 49
0.1
 74
0
 49
-0.1
 74
0
  0
LTYPE
  5
1F9
100
AcDbSymbolTableRecord
100
AcDbLinetypeTableRecord
  2
DASHED
 70
64
  3
- - - - - - - - - - - - - - - - - - - -
 72
65
 73
2
 40
0.2
 49
0.1
 74
0
 49
-0.1
 74
0
  0
ENDTAB
  0
TABLE
  2
LAYER
  5
2
100
AcDbSymbolTable
 70
36
  0
LAYER
  5
10
100
AcDbSymbolTableRecord
100
AcDbLayerTableRecord
  2
0
 70
0
 62
7
  6
CONTINUOUS
370
-3
390
F
  0
LAYER
  5
1FA
100
AcDbSymbolTableRecord
100
AcDbLayerTableRecord
  2
DEFAULT_1
 70
0
 62
7
  6
CENTER
370
-3
390
F
  0
LAYER
  5
1FB
100
AcDbSymbolTableRecord
100
AcDbLayerTableRecord
  2
DEFAULT_2
 70
0
 62
7
  6
HIDDEN
370
-3
390
F
  0
LAYER
  5
1FC
100
AcDbSymbolTableRecord
100
AcDbLayerTableRecord
  2
DEFAULT_3
 70
0
 62
7
  6
PHANTOM
370
-3
390
F
  0
LAYER
  5
1FD
100
AcDbSymbolTableRecord
100
AcDbLayerTableRecord
  2
255013570
 70
0
 62
7
  6
CONTINUOUS
370
-3
390
F
  0
LAYER
  5
1FE
100
AcDbSymbolTableRecord
100
AcDbLayerTableRecord
  2
261013570
 70
0
 62
7
  6
CONTINUOUS
370
-3
390
F
  0
LAYER
  5
1FF
100
AcDbSymbolTableRecord
100
AcDbLayerTableRecord
  2
280013570
 70
0
 62
7
  6
CONTINUOUS
370
-3
390
F
  0
LAYER
  5
200
100
AcDbSymbolTableRecord
100
AcDbLayerTableRecord
  2
ASSI
 70
0
 62
7
  6
CONTINUOUS
370
-3
390
F
  0
LAYER
  5
201
100
AcDbSymbolTableRecord
100
AcDbLayerTableRecord
  2
COLOR5
 70
0
 62
7
  6
CONTINUOUS
370
-3
390
F
  0
LAYER
  5
202
100
AcDbSymbolTableRecord
100
AcDbLayerTableRecord
  2
COORDINATE
 70
0
 62
7
  6
CONTINUOUS
370
-3
390
F
  0
LAYER
  5
203
100
AcDbSymbolTableRecord
100
AcDbLayerTableRecord
  2
COORD_ORIGINE
 70
0
 62
7
  6
CONTINUOUS
370
-3
390
F
  0
LAYER
  5
204
100
AcDbSymbolTableRecord
100
AcDbLayerTableRecord
  2
COPY-PUBBLISH
 70
0
 62
7
  6
CONTINUOUS
370
-3
390
F
  0
LAYER
  5
205
100
AcDbSymbolTableRecord
100
AcDbLayerTableRecord
  2
COPY_PUBLISH
 70
0
 62
7
  6
CONTINUOUS
370
-3
390
F
  0
LAYER
  5
206
100
AcDbSymbolTableRecord
100
AcDbLayerTableRecord
  2
COSMETICHE
 70
0
 62
7
  6
CONTINUOUS
370
-3
390
F
  0
LAYER
  5
207
100
AcDbSymbolTableRecord
100
AcDbLayerTableRecord
  2
COSMETICI
 70
0
 62
7
  6
CONTINUOUS
370
-3
390
F
  0
LAYER
  5
208
100
AcDbSymbolTableRecord
100
AcDbLayerTableRecord
  2
CURVE
 70
0
 62
7
  6
CONTINUOUS
370
-3
390
F
  0
LAYER
  5
209
100
AcDbSymbolTableRecord
100
AcDbLayerTableRecord
  2
DRAFT
 70
0
 62
7
  6
CONTINUOUS
370
-3
390
F
  0
LAYER
  5
20A
100
AcDbSymbolTableRecord
100
AcDbLayerTableRecord
  2
IGES
 70
0
 62
7
  6
CONTINUOUS
370
-3
390
F
  0
LAYER
  5
20B
100
AcDbSymbolTableRecord
100
AcDbLayerTableRecord
  2
IMPORT_IGES
 70
0
 62
7
  6
CONTINUOUS
370
-3
390
F
  0
LAYER
  5
20C
100
AcDbSymbolTableRecord
100
AcDbLayerTableRecord
  2
INTF_1
 70
0
 62
7
  6
CONTINUOUS
370
-3
390
F
  0
LAYER
  5
20D
100
AcDbSymbolTableRecord
100
AcDbLayerTableRecord
  2
INTF_11
 70
0
 62
7
  6
CONTINUOUS
370
-3
390
F
  0
LAYER
  5
20E
100
AcDbSymbolTableRecord
100
AcDbLayerTableRecord
  2
INTF_2
 70
0
 62
7
  6
CONTINUOUS
370
-3
390
F
  0
LAYER
  5
20F
100
AcDbSymbolTableRecord
100
AcDbLayerTableRecord
  2
INTF_3
 70
0
 62
7
  6
CONTINUOUS
370
-3
390
F
  0
LAYER
  5
210
100
AcDbSymbolTableRecord
100
AcDbLayerTableRecord
  2
INTF_4
 70
0
 62
7
  6
CONTINUOUS
370
-3
390
F
  0
LAYER
  5
211
100
AcDbSymbolTableRecord
100
AcDbLayerTableRecord
  2
INTF_MAGENTA
 70
0
 62
7
  6
CONTINUOUS
370
-3
390
F
  0
LAYER
  5
212
100
AcDbSymbolTableRecord
100
AcDbLayerTableRecord
  2
LAY0001
 70
0
 62
7
  6
CONTINUOUS
370
-3
390
F
  0
LAYER
  5
213
100
AcDbSymbolTableRecord
100
AcDbLayerTableRecord
  2
NOTE
 70
0
 62
7
  6
CONTINUOUS
370
-3
390
F
  0
LAYER
  5
214
100
AcDbSymbolTableRecord
100
AcDbLayerTableRecord
  2
PIANI
 70
0
 62
7
  6
CONTINUOUS
370
-3
390
F
  0
LAYER
  5
215
100
AcDbSymbolTableRecord
100
AcDbLayerTableRecord
  2
PIANI_ORIGINE
 70
0
 62
7
  6
CONTINUOUS
370
-3
390
F
  0
LAYER
  5
216
100
AcDbSymbolTableRecord
100
AcDbLayerTableRecord
  2
PIANI_SFORMI
 70
0
 62
7
  6
CONTINUOUS
370
-3
390
F
  0
LAYER
  5
217
100
AcDbSymbolTableRecord
100
AcDbLayerTableRecord
  2
PUNTI
 70
0
 62
7
  6
CONTINUOUS
370
-3
390
F
  0
LAYER
  5
218
100
AcDbSymbolTableRecord
100
AcDbLayerTableRecord
  2
PUNZ
 70
0
 62
7
  6
CONTINUOUS
370
-3
390
F
  0
LAYER
  5
219
100
AcDbSymbolTableRecord
100
AcDbLayerTableRecord
  2
RACCORDO
 70
0
 62
7
  6
CONTINUOUS
370
-3
390
F
  0
LAYER
  5
21A
100
AcDbSymbolTableRecord
100
AcDbLayerTableRecord
  2
RGB__255__255__255__
 70
0
 62
7
  6
CONTINUOUS
370
-3
390
F
  0
LAYER
  5
21B
100
AcDbSymbolTableRecord
100
AcDbLayerTableRecord
  2
SIMBOLI
 70
0
 62
7
  6
CONTINUOUS
370
-3
390
F
  0
LAYER
  5
21C
100
AcDbSymbolTableRecord
100
AcDbLayerTableRecord
  2
SMUSSO
 70
0
 62
7
  6
CONTINUOUS
370
-3
390
F
  0
LAYER
  5
21D
100
AcDbSymbolTableRecord
100
AcDbLayerTableRecord
  2
SNAPLINE
 70
0
 62
7
  6
CONTINUOUS
370
-3
390
F
  0
LAYER
  5
21E
100
AcDbSymbolTableRecord
100
AcDbLayerTableRecord
  2
SUP-SCAVI-INCLINATI
 70
0
 62
7
  6
CONTINUOUS
370
-3
390
F
  0
LAYER
  5
21F
100
AcDbSymbolTableRecord
100
AcDbLayerTableRecord
  2
SUP-SCAVI-INCLINATI-SUP
 70
0
 62
7
  6
CONTINUOUS
370
-3
390
F
  0
LAYER
  5
220
100
AcDbSymbolTableRecord
100
AcDbLayerTableRecord
  2
SUPERFICI
 70
0
 62
7
  6
CONTINUOUS
370
-3
390
F
  0
LAYER
  5
221
100
AcDbSymbolTableRecord
100
AcDbLayerTableRecord
  2
SUP_COLORE
 70
0
 62
7
  6
CONTINUOUS
370
-3
390
F
  0
LAYER
  5
222
100
AcDbSymbolTableRecord
100
AcDbLayerTableRecord
  2
TRASH
 70
0
 62
7
  6
CONTINUOUS
370
-3
390
F
  0
LAYER
  5
223
100
AcDbSymbolTableRecord
100
AcDbLayerTableRecord
  2
XSEC_DATUMS
 70
0
 62
7
  6
CONTINUOUS
370
-3
390
F
  0
ENDTAB
  0
TABLE
  2
STYLE
  5
3
100
AcDbSymbolTable
 70
1
  0
STYLE
  5
11
100
AcDbSymbolTableRecord
100
AcDbTextStyleTableRecord
  2
STANDARD
 70
0
 40
0.0
 41
0.8
 50
0.0
 71
0
 42
0.2
  3
txt
  4

  0
STYLE
  5
224
100
AcDbSymbolTableRecord
100
AcDbTextStyleTableRecord
  2
TEXTSTYLE_1
 70
0
 40
0.0
 41
0.8
 50
0.0
 71
0
 42
0.2
  3
gdt
  4

  0
ENDTAB
  0
TABLE
  2
VIEW
  5
6
100
AcDbSymbolTable
 70
0
  0
ENDTAB
  0
TABLE
  2
UCS
  5
7
100
AcDbSymbolTable
 70
0
  0
ENDTAB
  0
TABLE
  2
APPID
  5
9
100
AcDbSymbolTable
 70
1
  0
APPID
  5
225
100
AcDbSymbolTableRecord
100
AcDbRegAppTableRecord
  2
ACAD
 70
0
  0
ENDTAB
  0
TABLE
  2
BLOCK_RECORD
  5
1
100
AcDbSymbolTable
 70
0
  0
BLOCK_RECORD
  5
226
100
AcDbSymbolTableRecord
100
AcDbBlockTableRecord
  2
*Model_Space
  0
BLOCK_RECORD
  5
227
100
AcDbSymbolTableRecord
100
AcDbBlockTableRecord
  2
*Paper_Space
  0
BLOCK_RECORD
  5
228
100
AcDbSymbolTableRecord
100
AcDbBlockTableRecord
  2
_FILLED
  0
BLOCK_RECORD
  5
229
100
AcDbSymbolTableRecord
100
AcDbBlockTableRecord
  2
*D0
  0
BLOCK_RECORD
  5
22A
100
AcDbSymbolTableRecord
100
AcDbBlockTableRecord
  2
*D1
  0
BLOCK_RECORD
  5
22B
100
AcDbSymbolTableRecord
100
AcDbBlockTableRecord
  2
*D2
  0
ENDTAB
  0
TABLE
  2
DIMSTYLE
  5
A
100
AcDbSymbolTable
 70
1
100
AcDbDimStyleTable
 71
0
  0
DIMSTYLE
105
22C
100
AcDbSymbolTableRecord
100
AcDbDimStyleTableRecord
  2
STANDARD
 70
0
  3

  4

 40
1.0
 41
3.0
 42
0.5
 43
0.38
 44
1.5
 45
0.0
 46
0.0
 47
0.01
 48
0.01
140
3.0
141
0.09
142
0.0
143
25.4
144
1.0
145
0.0
146
1.0
147
0.625
 71
1
 72
0
 73
0
 74
0
 75
0
 76
0
 77
1
 78
8
 79
2
170
0
171
1
172
0
173
0
174
0
175
0
176
0
177
0
178
0
270
2
179
2
271
2
272
2
273
2
274
2
275
0
280
0
281
0
282
0
283
1
284
8
285
0
286
0
287
3
288
0
340
11
278
44
341
228
342
228
343
228
344
228
  0
DIMSTYLE
105
22D
100
AcDbSymbolTableRecord
100
AcDbDimStyleTableRecord
  2
DIMSTYLE_1
 70
0
  3

  4

 40
1.0
 41
3.0
 42
0.5
 43
0.38
 44
1.5
 45
0.0
 46
0.0
 47
0.0
 48
0.0
140
3.0
141
0.09
142
0.0
143
25.4
144
1.0
145
0.0
146
1.0
147
0.75
 71
0
 72
0
 73
0
 74
0
 75
0
 76
0
 77
1
 78
8
 79
2
170
0
171
1
172
0
173
0
174
0
175
0
176
0
177
0
178
0
270
2
179
2
271
2
272
2
273
2
274
2
275
0
280
0
281
0
282
0
283
1
284
8
285
0
286
0
287
3
288
0
340
11
278
44
341
228
342
228
343
228
344
228
  0
ENDTAB
  0
ENDSEC
  0
SECTION
  2
BLOCKS
  0
BLOCK
  5
20
100
AcDbEntity
  8
0
100
AcDbBlockBegin
  2
*Model_Space
 70
0
 10
0.0
 20
0.0
 30
0.0
  3
*Model_Space
  1

  0
ENDBLK
  5
21
100
AcDbEntity
  8
0
100
AcDbBlockEnd
  0
BLOCK
  5
1C
100
AcDbEntity
  8
0
100
AcDbBlockBegin
  2
*Paper_Space
 70
0
 10
0.0
 20
0.0
 30
0.0
  3
*Paper_Space
  1

  0
ENDBLK
  5
1D
100
AcDbEntity
  8
0
100
AcDbBlockEnd
  0
BLOCK
  5
22E
100
AcDbEntity
  8
0
100
AcDbBlockBegin
  2
_FILLED
 70
64
 10
0.0
 20
0.0
  3
_FILLED
  1

  0
SOLID
  5
22F
100
AcDbEntity
  8
0
  6
BYBLOCK
 62
0
100
AcDbTrace
 10
0.0
 20
0.0
 11
-1.0
 21
0.3166666667
 12
-1.0
 22
-0.3166666667
 13
-1.0
 23
-0.3166666667
  0
ENDBLK
  5
230
100
AcDbEntity
  8
0
  6
BYBLOCK
 62
0
100
AcDbBlockEnd
  0
BLOCK
  5
231
100
AcDbEntity
  8
0
100
AcDbBlockBegin
 62
7
  6
CONTINUOUS
  2
*D0
 70
65
 10
0.0
 20
0.0
  3
*D0
  1

  0
LINE
  5
232
100
AcDbEntity
  8
0
100
AcDbLine
 62
7
  6
CONTINUOUS
 10
-21.9978135022
 20
-7.8217547912
 11
-21.9978135022
 21
50.1782452088
  0
LINE
  5
233
100
AcDbEntity
  8
0
100
AcDbLine
 62
7
  6
CONTINUOUS
 10
21.9978135022
 20
-7.8217547912
 11
21.9978135022
 21
50.1782452088
  0
LINE
  5
234
100
AcDbEntity
  8
0
100
AcDbLine
 62
7
  6
CONTINUOUS
 10
-21.9978135022
 20
48.6782452088
 11
-0.0
 21
48.6782452088
  0
LINE
  5
235
100
AcDbEntity
  8
0
100
AcDbLine
 62
7
  6
CONTINUOUS
 10
21.9978135022
 20
48.6782452088
 11
-0.0
 21
48.6782452088
  0
INSERT
  5
236
100
AcDbEntity
  8
0
100
AcDbBlockReference
 62
7
  6
CONTINUOUS
  2
_FILLED
 10
-21.9978135022
 20
48.6782452088
 41
3.0
 42
3.0
 43
3.0
 50
180.0
  0
INSERT
  5
237
100
AcDbEntity
  8
0
100
AcDbBlockReference
 62
7
  6
CONTINUOUS
  2
_FILLED
 10
21.9978135022
 20
48.6782452088
 41
3.0
 42
3.0
 43
3.0
  0
ENDBLK
  5
238
100
AcDbEntity
  8
0
  6
BYBLOCK
 62
0
100
AcDbBlockEnd
  0
BLOCK
  5
239
100
AcDbEntity
  8
0
100
AcDbBlockBegin
 62
7
  6
CONTINUOUS
  2
*D1
 70
65
 10
0.0
 20
0.0
  3
*D1
  1

  0
LINE
  5
23A
100
AcDbEntity
  8
0
100
AcDbLine
 62
7
  6
CONTINUOUS
 10
-92.0480341723
 20
-7.8217547912
 11
-92.0480341723
 21
50.1782452088
  0
LINE
  5
23B
100
AcDbEntity
  8
0
100
AcDbLine
 62
7
  6
CONTINUOUS
 10
-48.0480341723
 20
-7.8217547912
 11
-48.0480341723
 21
50.1782452088
  0
LINE
  5
23C
100
AcDbEntity
  8
0
100
AcDbLine
 62
7
  6
CONTINUOUS
 10
-92.0480341723
 20
48.6782452088
 11
-70.0480341723
 21
48.6782452088
  0
LINE
  5
23D
100
AcDbEntity
  8
0
100
AcDbLine
 62
7
  6
CONTINUOUS
 10
-48.0480341723
 20
48.6782452088
 11
-70.0480341723
 21
48.6782452088
  0
INSERT
  5
23E
100
AcDbEntity
  8
0
100
AcDbBlockReference
 62
7
  6
CONTINUOUS
  2
_FILLED
 10
-92.0480341723
 20
48.6782452088
 41
3.0
 42
3.0
 43
3.0
 50
180.0
  0
INSERT
  5
23F
100
AcDbEntity
  8
0
100
AcDbBlockReference
 62
7
  6
CONTINUOUS
  2
_FILLED
 10
-48.0480341723
 20
48.6782452088
 41
3.0
 42
3.0
 43
3.0
  0
ENDBLK
  5
240
100
AcDbEntity
  8
0
  6
BYBLOCK
 62
0
100
AcDbBlockEnd
  0
BLOCK
  5
241
100
AcDbEntity
  8
0
100
AcDbBlockBegin
 62
7
  6
CONTINUOUS
  2
*D2
 70
65
 10
0.0
 20
0.0
  3
*D2
  1

  0
LINE
  5
242
100
AcDbEntity
  8
0
100
AcDbLine
 62
7
  6
CONTINUOUS
 10
-75.0480341723
 20
40.6782452088
 11
-101.5480341723
 21
40.6782452088
  0
LINE
  5
243
100
AcDbEntity
  8
0
100
AcDbLine
 62
7
  6
CONTINUOUS
 10
-91.7163117746
 20
-27.8217547912
 11
-101.5480341723
 21
-27.8217547912
  0
LINE
  5
244
100
AcDbEntity
  8
0
100
AcDbLine
 62
7
  6
CONTINUOUS
 10
-100.0480341723
 20
40.6782452088
 11
-100.0480341723
 21
6.4282452088
  0
LINE
  5
245
100
AcDbEntity
  8
0
100
AcDbLine
 62
7
  6
CONTINUOUS
 10
-100.0480341723
 20
-27.8217547912
 11
-100.0480341723
 21
6.4282452088
  0
INSERT
  5
246
100
AcDbEntity
  8
0
100
AcDbBlockReference
 62
7
  6
CONTINUOUS
  2
_FILLED
 10
-100.0480341723
 20
40.6782452088
 41
3.0
 42
3.0
 43
3.0
 50
90.0
  0
INSERT
  5
247
100
AcDbEntity
  8
0
100
AcDbBlockReference
 62
7
  6
CONTINUOUS
  2
_FILLED
 10
-100.0480341723
 20
-27.8217547912
 41
3.0
 42
3.0
 43
3.0
 50
270.0
  0
ENDBLK
  5
248
100
AcDbEntity
  8
0
  6
BYBLOCK
 62
0
100
AcDbBlockEnd
  0
ENDSEC
  0
SECTION
  2
ENTITIES
  0
DIMENSION
  5
249
100
AcDbEntity
  8
0
100
AcDbDimension
 62
7
  6
CONTINUOUS
  2
*D0
 10
21.9978135022
 20
48.6782452088
 11
-2.3571428571
 21
48.6782452088
 70
160
 71
2
 72
2
 41
0.9
 42
43.9956270043
  3
DIMSTYLE_1
100
AcDbAlignedDimension
 13
-21.9978135022
 23
-8.3217547912
 14
21.9978135022
 24
-8.3217547912
100
AcDbRotatedDimension
  0
DIMENSION
  5
24A
100
AcDbEntity
  8
0
100
AcDbDimension
 62
7
  6
CONTINUOUS
  2
*D1
 10
-48.0480341723
 20
48.6782452088
 11
-72.4051770294
 21
48.6782452088
 70
160
 71
2
 72
2
 41
0.9
 42
44.0
  3
DIMSTYLE_1
100
AcDbAlignedDimension
 13
-92.0480341723
 23
-8.3217547912
 14
-48.0480341723
 24
-8.3217547912
100
AcDbRotatedDimension
  0
DIMENSION
  5
24B
100
AcDbEntity
  8
0
100
AcDbDimension
 62
7
  6
CONTINUOUS
  2
*D2
 10
-100.0480341723
 20
-27.8217547912
 11
-100.0480341723
 21
2.1425309231
 70
160
 71
2
 72
2
 41
0.9
 42
68.5
  3
DIMSTYLE_1
100
AcDbAlignedDimension
 13
-74.5480341723
 23
40.6782452088
 14
-91.2163117746
 24
-27.8217547912
 50
270.0
100
AcDbRotatedDimension
  0
LWPOLYLINE
  5
24C
100
AcDbEntity
  8
ASSI
100
AcDbPolyline
 62
250
  6
CONTINUOUS
 90
43
 70
0
 10
-62.608034434
 20
-27.8217547912
 10
-62.5970723486
 20
-27.8214128696
 10
-62.5861252558
 20
-27.8203875723
 10
-62.5752081279
 20
-27.8186803017
 10
-62.564335896
 20
-27.8162933927
 10
-62.5535234299
 20
-27.8132301098
 10
-62.5427855177
 20
-27.8094946428
 10
-62.5321368456
 20
-27.8050921004
 10
-62.5215919775
 20
-27.800028504
 10
-62.5111653355
 20
-27.7943107791
 10
-62.5008711801
 20
-27.7879467455
 10
-62.4907235903
 20
-27.7809451074
 10
-62.480736445
 20
-27.7733154408
 10
-62.4709234034
 20
-27.7650681806
 10
-62.4612978866
 20
-27.7562146065
 10
-62.4518730595
 20
-27.7467668274
 10
-62.4426618121
 20
-27.7367377649
 10
-62.4336767427
 20
-27.7261411357
 10
-62.4249301399
 20
-27.7149914325
 10
-62.4164339664
 20
-27.7033039048
 10
-62.4081998423
 20
-27.6910945372
 10
-62.4002390293
 20
-27.6783800285
 10
-62.3925624153
 20
-27.6651777681
 10
-62.3851804995
 20
-27.6515058125
 10
-62.3781033781
 20
-27.6373828607
 10
-62.3713407303
 20
-27.6228282285
 10
-62.3649018054
 20
-27.6078618221
 10
-62.3587954098
 20
-27.5925041107
 10
-62.3530298951
 20
-27.576776099
 10
-62.3476131468
 20
-27.5606992979
 10
-62.3425525732
 20
-27.5442956954
 10
-62.3378550957
 20
-27.5275877267
 10
-62.3335271389
 20
-27.5105982428
 10
-62.3295746222
 20
-27.4933504802
 10
-62.3260029513
 20
-27.4758680283
 10
-62.3228170113
 20
-27.4581747978
 10
-62.3200211593
 20
-27.4402949873
 10
-62.3176192194
 20
-27.4222530509
 10
-62.3156144765
 20
-27.4040736643
 10
-62.3140096727
 20
-27.3857816912
 10
-62.3128070027
 20
-27.3674021493
 10
-62.3120081114
 20
-27.3489601761
 10
-62.3116140914
 20
-27.3304809944
  0
LWPOLYLINE
  5
24D
100
AcDbEntity
  8
ASSI
100
AcDbPolyline
 62
250
  6
CONTINUOUS
 90
43
 70
0
 10
-56.6514093785
 20
-27.8217547912
 10
-56.639709026
 20
-27.8214128695
 10
-56.6280246759
 20
-27.820387572
 10
-56.6163723087
 20
-27.8186803011
 10
-56.6047678613
 20
-27.8162933916
 10
-56.5932272048
 20
-27.8132301083
 10
-56.5817661234
 20
-27.8094946406
 10
-56.5704002921
 20
-27.8050920976
 10
-56.5591452559
 20
-27.8000285005
 10
-56.5480164081
 20
-27.7943107747
 10
-56.5370289694
 20
-27.7879467403
 10
-56.5261979674
 20
-27.7809451014
 10
-56.5155382154
 20
-27.7733154339
 10
-56.5050642926
 20
-27.7650681729
 10
-56.494790524
 20
-27.756214598
 10
-56.4847309609
 20
-27.7467668182
 10
-56.4748993618
 20
-27.736737755
 10
-56.465309173
 20
-27.7261411251
 10
-56.4559735111
 20
-27.7149914213
 10
-56.4469051442
 20
-27.703303893
 10
-56.4381164751
 20
-27.6910945249
 10
-56.4296195239
 20
-27.6783800158
 10
-56.4214259117
 20
-27.6651777551
 10
-56.4135468449
 20
-27.6515057993
 10
-56.4059930995
 20
-27.6373828474
 10
-56.3987750067
 20
-27.6228282152
 10
-56.3919024387
 20
-27.6078618088
 10
-56.3853847948
 20
-27.5925040976
 10
-56.3792309893
 20
-27.5767760861
 10
-56.3734494386
 20
-27.5606992854
 10
-56.3680480501
 20
-27.5442956835
 10
-56.363034211
 20
-27.5275877153
 10
-56.3584147789
 20
-27.5105982321
 10
-56.3541960717
 20
-27.4933504702
 10
-56.3503838592
 20
-27.4758680192
 10
-56.3469833553
 20
-27.4581747896
 10
-56.3439992109
 20
-27.4402949801
 10
-56.3414355073
 20
-27.4222530448
 10
-56.3392957509
 20
-27.4040736593
 10
-56.3375828682
 20
-27.3857816874
 10
-56.3362992019
 20
-27.3674021467
 10
-56.3354465076
 20
-27.3489601748
 10
-56.3350259516
 20
-27.3304809944
  0
LINE
  5
24E
100
AcDbEntity
  8
ASSI
100
AcDbLine
 62
7
  6
CONTINUOUS
 10
-48.8797565699
 20
-27.8217547912
 11
-91.2163117746
 21
-27.8217547912
  0
LINE
  5
24F
100
AcDbEntity
  8
ASSI
100
AcDbLine
 62
250
  6
CONTINUOUS
 10
-48.3798327223
 20
-27.3304809944
 11
-91.7162356222
 21
-27.3304809944
  0
LWPOLYLINE
  5
250
100
AcDbEntity
  8
ASSI
100
AcDbPolyline
 62
250
  6
CONTINUOUS
 90
43
 70
0
 10
-83.444658966
 20
-27.8217547912
 10
-83.4563593183
 20
-27.8214128695
 10
-83.4680436683
 20
-27.8203875721
 10
-83.4796960353
 20
-27.8186803012
 10
-83.4913004826
 20
-27.8162933918
 10
-83.5028411389
 20
-27.8132301085
 10
-83.5143022202
 20
-27.8094946409
 10
-83.5256680514
 20
-27.805092098
 10
-83.5369230875
 20
-27.800028501
 10
-83.5480519352
 20
-27.7943107754
 10
-83.5590393738
 20
-27.7879467411
 10
-83.5698703758
 20
-27.7809451023
 10
-83.5805301277
 20
-27.773315435
 10
-83.5910040506
 20
-27.7650681741
 10
-83.6012778191
 20
-27.7562145993
 10
-83.6113373822
 20
-27.7467668196
 10
-83.6211689813
 20
-27.7367377565
 10
-83.6307591701
 20
-27.7261411267
 10
-83.6400948321
 20
-27.714991423
 10
-83.649163199
 20
-27.7033038947
 10
-83.6579518682
 20
-27.6910945267
 10
-83.6664488195
 20
-27.6783800177
 10
-83.6746424317
 20
-27.665177757
 10
-83.6825214986
 20
-27.6515058012
 10
-83.690075244
 20
-27.6373828493
 10
-83.6972933369
 20
-27.6228282171
 10
-83.704165905
 20
-27.6078618107
 10
-83.7106835489
 20
-27.5925040995
 10
-83.7168373545
 20
-27.576776088
 10
-83.7226189053
 20
-27.5606992872
 10
-83.7280202939
 20
-27.5442956852
 10
-83.733034133
 20
-27.5275877169
 10
-83.7376535652
 20
-27.5105982336
 10
-83.7418722725
 20
-27.4933504716
 10
-83.7456844851
 20
-27.4758680205
 10
-83.749084989
 20
-27.4581747907
 10
-83.7520691335
 20
-27.4402949811
 10
-83.7546328371
 20
-27.4222530456
 10
-83.7567725935
 20
-27.40407366
 10
-83.7584854763
 20
-27.3857816879
 10
-83.7597691426
 20
-27.3674021471
 10
-83.7606218369
 20
-27.348960175
 10
-83.761042393
 20
-27.3304809944
  0
LWPOLYLINE
  5
251
100
AcDbEntity
  8
ASSI
100
AcDbPolyline
 62
250
  6
CONTINUOUS
 90
43
 70
0
 10
-77.4880339105
 20
-27.8217547912
 10
-77.498995997
 20
-27.8214128695
 10
-77.5099430908
 20
-27.820387572
 10
-77.5208602197
 20
-27.8186803011
 10
-77.5317324525
 20
-27.8162933917
 10
-77.5425449194
 20
-27.8132301083
 10
-77.5532828323
 20
-27.8094946407
 10
-77.5639315051
 20
-27.8050920977
 10
-77.5744763738
 20
-27.8000285006
 10
-77.5849030162
 20
-27.7943107749
 10
-77.5951971721
 20
-27.7879467405
 10
-77.6053447622
 20
-27.7809451016
 10
-77.6153319078
 20
-27.7733154342
 10
-77.6251449496
 20
-27.7650681732
 10
-77.6347704664
 20
-27.7562145984
 10
-77.6441952936
 20
-27.7467668186
 10
-77.6534065409
 20
-27.7367377554
 10
-77.6623916102
 20
-27.7261411255
 10
-77.6711382129
 20
-27.7149914217
 10
-77.6796343861
 20
-27.7033038934
 10
-77.68786851
 20
-27.6910945254
 10
-77.6958293227
 20
-27.6783800163
 10
-77.7035059363
 20
-27.6651777556
 10
-77.7108878517
 20
-27.6515057998
 10
-77.7179649727
 20
-27.6373828479
 10
-77.72472762
 20
-27.6228282157
 10
-77.7311665445
 20
-27.6078618093
 10
-77.7372729396
 20
-27.5925040981
 10
-77.7430384538
 20
-27.5767760866
 10
-77.7484552017
 20
-27.5606992859
 10
-77.7535157748
 20
-27.5442956839
 10
-77.7582132518
 20
-27.5275877157
 10
-77.7625412081
 20
-27.5105982325
 10
-77.7664937244
 20
-27.4933504706
 10
-77.7700653949
 20
-27.4758680195
 10
-77.7732513346
 20
-27.4581747899
 10
-77.7760471862
 20
-27.4402949804
 10
-77.7784491259
 20
-27.422253045
 10
-77.7804538685
 20
-27.4040736595
 10
-77.7820586721
 20
-27.3857816875
 10
-77.783261342
 20
-27.3674021468
 10
-77.7840602332
 20
-27.3489601749
 10
-77.7844542531
 20
-27.3304809944
  0
LWPOLYLINE
  5
252
100
AcDbEntity
  8
0
100
AcDbPolyline
 62
7
  6
CONTINUOUS
 90
8
 70
0
 43
0.3500000006
 10
-100.7980367432
 20
8.5711026306
 10
-100.7980367432
 20
9.4282451019
 10
-101.2266057129
 20
9.8568163376
 10
-102.0837527161
 20
9.8568163376
 10
-102.5123216858
 20
9.4282451019
 10
-102.5123216858
 20
8.5711026306
 10
-103.7980376587
 20
8.5711026306
 10
-103.7980376587
 20
9.8568163376
  0
LWPOLYLINE
  5
253
100
AcDbEntity
  8
0
100
AcDbPolyline
 62
7
  6
CONTINUOUS
 90
13
 70
0
 43
0.3500000006
 10
-102.5123216858
 20
4.9282459946
 10
-102.7266061707
 20
4.6425303268
 10
-103.3694596252
 20
4.6425303268
 10
-103.7980376587
 20
4.9282459946
 10
-103.7980376587
 20
5.5711017151
 10
-103.3694596252
 20
5.8568173828
 10
-102.7266061707
 20
5.8568173828
 10
-102.5123216858
 20
5.5711017151
 10
-102.0837527161
 20
5.9996729507
 10
-101.2266057129
 20
5.9996729507
 10
-100.7980367432
 20
5.5711017151
 10
-100.7980367432
 20
4.9282459946
 10
-101.2266057129
 20
4.4996747589
  0
LWPOLYLINE
  5
254
100
AcDbEntity
  8
ASSI
100
AcDbPolyline
 62
250
  6
CONTINUOUS
 90
112
 70
0
 10
-74.7457973678
 20
31.4948242893
 10
-74.9379182013
 20
31.4277717319
 10
-75.128696611
 20
31.3578718794
 10
-75.3181368039
 20
31.2851238391
 10
-75.5063989502
 20
31.2094719377
 10
-75.6933315213
 20
31.1309699498
 10
-75.8784739623
 20
31.049781164
 10
-76.0617989221
 20
30.9658976757
 10
-76.2433498288
 20
30.8793254337
 10
-76.4227769644
 20
30.790248595
 10
-76.6000350093
 20
30.6986793217
 10
-76.7751912269
 20
30.6046034914
 10
-76.9480677664
 20
30.5081659327
 10
-77.1186652257
 20
30.4093630339
 10
-77.2870086411
 20
30.308196437
 10
-77.4529584874
 20
30.2048189527
 10
-77.6165150851
 20
30.099230446
 10
-77.7777067938
 20
29.9914291155
 10
-77.9364371807
 20
29.8815653886
 10
-78.092700342
 20
29.7696484889
 10
-78.2465329623
 20
29.6556673181
 10
-78.39790278
 20
29.5397419327
 10
-78.546811838
 20
29.4218813225
 10
-78.6932897146
 20
29.3020746756
 10
-78.8373450767
 20
29.1804124385
 10
-78.9789900616
 20
29.0568982724
 10
-79.1182440804
 20
28.9315267322
 10
-79.2551260262
 20
28.8043746817
 10
-79.3896475235
 20
28.6754476244
 10
-79.5218279326
 20
28.5447383127
 10
-79.6516969571
 20
28.4123045487
 10
-79.7792706015
 20
28.2781480157
 10
-79.9045627754
 20
28.1422653145
 10
-80.0275992272
 20
28.004706676
 10
-80.148407168
 20
27.8654579446
 10
-80.2669879073
 20
27.7245315841
 10
-80.3833277292
 20
27.5820178306
 10
-80.4974460628
 20
27.4379061058
 10
-80.6093506767
 20
27.2922053827
 10
-80.7190099611
 20
27.1450353435
 10
-80.8264281454
 20
26.9964046526
 10
-80.9316266378
 20
26.8463031787
 10
-81.034599077
 20
26.6948225353
 10
-81.1353451952
 20
26.5419830362
 10
-81.2338886931
 20
26.3877630124
 10
-81.3302583424
 20
26.2321911763
 10
-81.424474091
 20
26.0752559292
 10
-81.5165365683
 20
25.9169675386
 10
-81.6064447081
 20
25.7573875732
 10
-81.6942158869
 20
25.5965004277
 10
-81.7798504561
 20
25.4343204562
 10
-81.8633211267
 20
25.2709542727
 10
-81.9446346095
 20
25.1064004564
 10
-82.0237989463
 20
24.9406593255
 10
-82.1007881846
 20
24.7738402402
 10
-82.1756056403
 20
24.605947001
 10
-82.2482594145
 20
24.4369748576
 10
-82.3187299818
 20
24.2670204767
 10
-82.3870201148
 20
24.0960874368
 10
-82.4531347701
 20
23.9241713476
 10
-82.5170568614
 20
23.7513570414
 10
-82.5787952086
 20
23.5776231793
 10
-82.6383447112
 20
23.4029904031
 10
-82.6956665881
 20
23.2276066673
 10
-82.7507611639
 20
23.0514611455
 10
-82.8036277621
 20
22.8745641757
 10
-82.8542253707
 20
22.6970956684
 10
-82.9025460613
 20
22.5190671435
 10
-82.9485932229
 20
22.340466844
 10
-82.9923420782
 20
22.1614399713
 10
-83.0337903117
 20
21.98196538
 10
-83.0729312421
 20
21.8020641597
 10
-83.1097328932
 20
21.6219450844
 10
-83.1441864498
 20
21.4415918
 10
-83.176287479
 20
21.2610208718
 10
-83.2060102429
 20
21.0804907372
 10
-83.2333393297
 20
20.900005829
 10
-83.2582730378
 20
20.7195622457
 10
-83.2808061865
 20
20.5394062212
 10
-83.3009224659
 20
20.3595408446
 10
-83.3186175483
 20
20.179963837
 10
-83.3339045501
 20
20.0009136561
 10
-83.3467659833
 20
19.8223989009
 10
-83.3571957242
 20
19.6444120345
 10
-83.3652246255
 20
19.4671675596
 10
-83.3708361155
 20
19.2906989246
 10
-83.3740208061
 20
19.1149739535
 10
-83.3748210848
 20
18.9401088823
 10
-83.3732246642
 20
18.766131794
 10
-83.3692155005
 20
18.5930159529
 10
-83.362830774
 20
18.4207954334
 10
-83.354054206
 20
18.2494355991
 10
-83.3428709379
 20
18.0789723958
 10
-83.3293210064
 20
17.9095458451
 10
-83.3133880327
 20
17.7411694664
 10
-83.2950560411
 20
17.57383115
 10
-83.2743669263
 20
17.407632578
 10
-83.2513096306
 20
17.2426044347
 10
-83.2258618503
 20
17.078717485
 10
-83.1980494108
 20
16.9159835695
 10
-83.1678556845
 20
16.7543924767
 10
-83.1352620427
 20
16.5939557996
 10
-83.100291839
 20
16.4347180947
 10
-83.0629279313
 20
16.2766776793
 10
-83.0231510528
 20
16.1198375945
 10
-82.980982156
 20
15.9642495073
 10
-82.9364016759
 20
15.8099086966
 10
-82.8893919462
 20
15.6568212185
 10
-82.8399778157
 20
15.5050549376
 10
-82.788155487
 20
15.3546329286
 10
-82.7338915799
 20
15.205533446
 10
-82.6771669986
 20
15.0577571341
  0
LWPOLYLINE
  5
255
100
AcDbEntity
  8
ASSI
100
AcDbPolyline
 62
250
  6
CONTINUOUS
 90
109
 70
0
 10
-74.4003673462
 20
30.5795405618
 10
-74.5832851267
 20
30.51606952
 10
-74.7649319407
 20
30.4498708821
 10
-74.9453077883
 20
30.3809283511
 10
-75.1245603306
 20
30.3091549519
 10
-75.3025419064
 20
30.2346036435
 10
-75.4788095321
 20
30.1574690741
 10
-75.6533224988
 20
30.0777308019
 10
-75.8261215153
 20
29.9953771295
 10
-75.9968857247
 20
29.9106188674
 10
-76.1655570998
 20
29.8234565714
 10
-76.3321936677
 20
29.7338605799
 10
-76.4966486529
 20
29.6419995521
 10
-76.6589095901
 20
29.5478594643
 10
-76.8189889446
 20
29.4514282761
 10
-76.9767773365
 20
29.3528807357
 10
-77.1322586032
 20
29.2522099171
 10
-77.2854489073
 20
29.1494005688
 10
-77.4362873572
 20
29.0446181746
 10
-77.584751824
 20
28.9378670937
 10
-77.7308644366
 20
28.8291250041
 10
-77.8746306896
 20
28.7185202768
 10
-78.0160383327
 20
28.6060573017
 10
-78.1550996161
 20
28.4917175799
 10
-78.2918567855
 20
28.3755975168
 10
-78.4263076376
 20
28.2576976961
 10
-78.5584543756
 20
28.1380069599
 10
-78.6883458548
 20
28.0166060816
 10
-78.815978971
 20
27.893499717
 10
-78.9413568283
 20
27.7686761291
 10
-79.0645375942
 20
27.6421931723
 10
-79.1855253598
 20
27.5140505151
 10
-79.304316034
 20
27.3842446499
 10
-79.4209555115
 20
27.2528301213
 10
-79.5354591026
 20
27.1197920716
 10
-79.647811497
 20
26.9851448017
 10
-79.7580126581
 20
26.848988298
 10
-79.8660647655
 20
26.7113212184
 10
-79.9719656396
 20
26.5721484088
 10
-80.0757087053
 20
26.4315811287
 10
-80.1772829817
 20
26.2896402321
 10
-80.2766994497
 20
26.1463124986
 10
-80.3739844775
 20
26.001659731
 10
-80.4691303226
 20
25.8557072372
 10
-80.5621447275
 20
25.7084407315
 10
-80.6530772873
 20
25.5598636247
 10
-80.7419468752
 20
25.4099586533
 10
-80.8287346179
 20
25.2587568117
 10
-80.9134334908
 20
25.1063349208
 10
-80.9960463618
 20
24.9526986291
 10
-81.0765703629
 20
24.7978596422
 10
-81.1549898663
 20
24.6419051778
 10
-81.2313051455
 20
24.4848474249
 10
-81.305515927
 20
24.3266950342
 10
-81.3776057629
 20
24.1675311194
 10
-81.4475734095
 20
24.0073752079
 10
-81.5154201104
 20
23.8462318574
 10
-81.5811331493
 20
23.6841627294
 10
-81.6447156879
 20
23.5211801565
 10
-81.7061645644
 20
23.357298829
 10
-81.7654575766
 20
23.1925847932
 10
-81.8226063709
 20
23.0270190819
 10
-81.8775993011
 20
22.8606504829
 10
-81.9303792257
 20
22.6936474694
 10
-81.980938249
 20
22.5260481041
 10
-82.0292842668
 20
22.3578467004
 10
-82.0753838262
 20
22.1891466789
 10
-82.1192401535
 20
22.0199523398
 10
-82.1608500224
 20
21.850293702
 10
-82.2001703013
 20
21.6803130312
 10
-82.2372032895
 20
21.5100033677
 10
-82.2719466876
 20
21.3394073382
 10
-82.3043504658
 20
21.1687413344
 10
-82.3344092601
 20
20.9980239163
 10
-82.3621284346
 20
20.8272723219
 10
-82.3874740514
 20
20.6567000638
 10
-82.4104406835
 20
20.4863268435
 10
-82.431033758
 20
20.3161677994
 10
-82.4492356187
 20
20.146428186
 10
-82.4650410676
 20
19.9771254853
 10
-82.4784553027
 20
19.8082750653
 10
-82.4894762621
 20
19.6400771122
 10
-82.4980992012
 20
19.4725712533
 10
-82.5043288645
 20
19.3057476262
 10
-82.5081774232
 20
19.1397302402
 10
-82.5096461428
 20
18.9745733499
 10
-82.5087337578
 20
18.8102494117
 10
-82.5054486431
 20
18.6467587162
 10
-82.4997917105
 20
18.484077229
 10
-82.4917620482
 20
18.3222544194
 10
-82.481365296
 20
18.1613997299
 10
-82.4686003455
 20
18.0015275579
 10
-82.4534683051
 20
17.842645351
 10
-82.4359781399
 20
17.6848501281
 10
-82.4161351419
 20
17.5281824776
 10
-82.3939340191
 20
17.372619851
 10
-82.3693678611
 20
17.2181633307
 10
-82.3424385949
 20
17.0648117347
 10
-82.3131442934
 20
16.9125824667
 10
-82.2814722651
 20
16.761503808
 10
-82.2474237948
 20
16.6115785665
 10
-82.2109975977
 20
16.4628175578
 10
-82.172177128
 20
16.3152599679
 10
-82.1309603454
 20
16.1689011598
 10
-82.0873492902
 20
16.0237565812
 10
-82.0413335372
 20
15.8798939107
 10
-81.9929096113
 20
15.7373377382
 10
-81.9420809878
 20
15.59607039
 10
-81.8888476664
 20
15.4560948622
  0
LWPOLYLINE
  5
256
100
AcDbEntity
  8
0
100
AcDbPolyline
 62
7
  6
CONTINUOUS
 90
10
 70
0
 43
0.3500000006
 10
-103.7980376587
 20
3.213958786
 10
-103.1551751404
 20
2.5711030655
 10
-102.2980372009
 20
2.1425318298
 10
-101.2266057129
 20
2.1425318298
 10
-100.7980367432
 20
2.5711030655
 10
-100.7980367432
 20
3.213958786
 10
-101.2266057129
 20
3.6425300217
 10
-102.0837527161
 20
3.6425300217
 10
-102.5123216858
 20
3.213958786
 10
-102.5123216858
 20
2.2853873978
  0
LINE
  5
257
100
AcDbEntity
  8
ASSI
100
AcDbLine
 62
7
  6
CONTINUOUS
 10
-91.7162356222
 20
-27.3304809944
 11
-92.0480341723
 21
-8.3217547912
  0
LWPOLYLINE
  5
258
100
AcDbEntity
  8
ASSI
100
AcDbPolyline
 62
7
  6
CONTINUOUS
 90
5
 70
0
 10
-55.9458749523
 20
-8.3069175527
 10
-55.9906869557
 20
-8.3134295189
 10
-56.035507198
 20
-8.3180919207
 10
-56.0802926568
 20
-8.3208670115
 10
-56.1250430781
 20
-8.3217547912
  0
LINE
  5
259
100
AcDbEntity
  8
0
100
AcDbLine
 62
7
  6
CONTINUOUS
 10
-62.8980341723
 20
-9.7217547912
 11
-77.1980341723
 21
-9.7217547912
  0
LINE
  5
25A
100
AcDbEntity
  8
ASSI
100
AcDbLine
 62
250
  6
CONTINUOUS
 10
-83.9710254991
 20
-8.3217547912
 11
-83.761042393
 21
-27.3304809944
  0
LWPOLYLINE
  5
25B
100
AcDbEntity
  8
ASSI
100
AcDbPolyline
 62
7
  6
CONTINUOUS
 90
25
 70
0
 10
-82.6771661983
 20
15.0577575896
 10
-82.6495883508
 20
15.0774053127
 10
-82.6213565149
 20
15.0969017633
 10
-82.592495188
 20
15.116230654
 10
-82.5630296601
 20
15.1353764502
 10
-82.5329852573
 20
15.1543226488
 10
-82.502387324
 20
15.173051812
 10
-82.4712624565
 20
15.1915485795
 10
-82.4396376429
 20
15.2097975791
 10
-82.4075395142
 20
15.2277817431
 10
-82.3749959981
 20
15.2454864668
 10
-82.3420353171
 20
15.2628971798
 10
-82.3086851445
 20
15.2799973204
 10
-82.2749745159
 20
15.2967731658
 10
-82.2409326849
 20
15.3132110602
 10
-82.2065881446
 20
15.3292950586
 10
-82.171970821
 20
15.3450124389
 10
-82.1371107732
 20
15.3603505627
 10
-82.102037078
 20
15.3752941858
 10
-82.0667802533
 20
15.3898315203
 10
-82.0313710061
 20
15.4039512152
 10
-81.9958389672
 20
15.4176393027
 10
-81.9602146927
 20
15.4308842209
 10
-81.9245296236
 20
15.443676792
 10
-81.8888148576
 20
15.4560072565
  0
LWPOLYLINE
  5
25C
100
AcDbEntity
  8
ASSI
100
AcDbPolyline
 62
7
  6
CONTINUOUS
 90
16
 70
0
 10
-82.6771669986
 20
15.0577571341
 10
-82.6797593046
 20
15.0559439079
 10
-82.6825300319
 20
15.0542596588
 10
-82.6854791083
 20
15.0527043876
 10
-82.6886176291
 20
15.0512584343
 10
-82.6919343326
 20
15.0499414598
 10
-82.6953956107
 20
15.048812446
 10
-82.6989981487
 20
15.0478828896
 10
-82.7027450794
 20
15.0471412949
 10
-82.706612477
 20
15.0466121556
 10
-82.7105976387
 20
15.046301686
 10
-82.7147030744
 20
15.0462036721
 10
-82.7189126891
 20
15.0463239653
 10
-82.7232210546
 20
15.0466645159
 10
-82.7276333996
 20
15.0472233733
 10
-82.7751316748
 20
15.055393199
  0
LWPOLYLINE
  5
25D
100
AcDbEntity
  8
0
100
AcDbPolyline
 62
7
  6
CONTINUOUS
 90
10
 70
0
 43
0.3500000006
 10
-101.2980368958
 20
7.4996734085
 10
-101.15517453
 20
7.5711023254
 10
-101.0837524109
 20
7.5711023254
 10
-100.9408900452
 20
7.4282444916
 10
-100.9408900452
 20
7.3568155746
 10
-101.012321228
 20
7.2853889236
 10
-101.0837524109
 20
7.2853889236
 10
-101.2266057129
 20
7.3568155746
 10
-101.2980368958
 20
7.4282444916
 10
-101.2980368958
 20
7.4996734085
  0
LINE
  5
25E
100
AcDbEntity
  8
ASSI
100
AcDbLine
 62
7
  6
CONTINUOUS
 10
-48.0480341723
 20
-8.3217547912
 11
-62.9724012474
 21
-8.3217547912
  0
LINE
  5
25F
100
AcDbEntity
  8
0
100
AcDbLine
 62
7
  6
CONTINUOUS
 10
-62.9724012427
 20
-8.3217547912
 11
-63.0480341723
 21
-8.3217547912
  0
LINE
  5
260
100
AcDbEntity
  8
ASSI
100
AcDbLine
 62
7
  6
CONTINUOUS
 10
-77.1236670971
 20
-8.3217547912
 11
-92.0480341723
 21
-8.3217547912
  0
LINE
  5
261
100
AcDbEntity
  8
0
100
AcDbLine
 62
7
  6
CONTINUOUS
 10
-77.0480341723
 20
-8.3217547912
 11
-77.1236671018
 21
-8.3217547912
  0
LINE
  5
262
100
AcDbEntity
  8
0
100
AcDbLine
 62
7
  6
CONTINUOUS
 10
-77.0480341723
 20
-7.7199928917
 11
-63.0480341723
 21
-7.7199928917
  0
LWPOLYLINE
  5
263
100
AcDbEntity
  8
ASSI
100
AcDbPolyline
 62
7
  6
CONTINUOUS
 90
135
 70
0
 10
-83.9710261797
 20
-8.3217547912
 10
-84.0157180155
 20
-8.3208693028
 10
-84.060445036
 20
-8.3181014379
 10
-84.1052069882
 20
-8.3134511964
 10
-84.1499605228
 20
-8.3069563691
 10
-84.19474851
 20
-8.2985791652
 10
-84.2396998865
 20
-8.2882062125
 10
-84.2848153844
 20
-8.2758646311
 10
-84.3300934756
 20
-8.2615273008
 10
-84.3756594181
 20
-8.2449994888
 10
-84.4215139883
 20
-8.2263112273
 10
-84.467655292
 20
-8.205432484
 10
-84.5142042666
 20
-8.1820784292
 10
-84.5611617088
 20
-8.1562835851
 10
-84.6085253388
 20
-8.1280134293
 10
-84.6564111335
 20
-8.096879565
 10
-84.7048286284
 20
-8.0629143271
 10
-84.7537663763
 20
-8.0260853805
 10
-84.8033085267
 20
-7.9859073236
 10
-84.853466708
 20
-7.9424111957
 10
-84.9042269542
 20
-7.8955659573
 10
-84.9556347037
 20
-7.8447930884
 10
-85.0076911083
 20
-7.7901392633
 10
-85.0603922852
 20
-7.7315578076
 10
-85.1137758031
 20
-7.6683301776
 10
-85.1678488729
 20
-7.6005082422
 10
-85.2226010805
 20
-7.5280401324
 10
-85.2780432201
 20
-7.4500516977
 10
-85.3342081856
 20
-7.3665589853
 10
-85.3910593615
 20
-7.2775459478
 10
-85.4485030728
 20
-7.1820902927
 10
-85.5065738295
 20
-7.0801855095
 10
-85.565233161
 20
-6.9718381086
 10
-85.6242780287
 20
-6.8561453284
 10
-85.6837216726
 20
-6.7331306102
 10
-85.7435470541
 20
-6.6027705127
 10
-85.8035060818
 20
-6.46409195
 10
-85.8636119985
 20
-6.3171302124
 10
-85.9238480973
 20
-6.1618500096
 10
-85.9839218843
 20
-5.9971723848
 10
-86.04385037
 20
-5.8231468736
 10
-86.1036136103
 20
-5.6397239403
 10
-86.1628643734
 20
-5.445676021
 10
-86.2216292534
 20
-5.241059231
 10
-86.2798794784
 20
-5.0258174549
 10
-86.337185701
 20
-4.7985547833
 10
-86.3935769741
 20
-4.559395644
 10
-86.4490231734
 20
-4.3082156091
 10
-86.5030073816
 20
-4.0432454858
 10
-86.5556035281
 20
-3.7644680988
 10
-86.6067379199
 20
-3.4719006233
 10
-86.6556739596
 20
-3.1638253923
 10
-86.7025359032
 20
-2.8395604502
 10
-86.7472018716
 20
-2.4997877526
 10
-86.7885692779
 20
-2.1448354992
 10
-86.8266446927
 20
-1.7740512278
 10
-86.8614282535
 20
-1.3880874005
 10
-86.8918120738
 20
-0.9892296032
 10
-86.9177100676
 20
-0.5772622567
 10
-86.9392191271
 20
-0.1524009401
 10
-86.9555095249
 20
0.282422023
 10
-86.9664841789
 20
0.7274271365
 10
-86.9722526128
 20
1.1823938965
 10
-86.9722971134
 20
1.643728468
 10
-86.9664971478
 20
2.1117088673
 10
-86.9549847997
 20
2.5860570782
 10
-86.9376218006
 20
3.0623452162
 10
-86.9142645529
 20
3.5407056012
 10
-86.8850649851
 20
4.0210059134
 10
-86.8503273107
 20
4.4984213096
 10
-86.8098862717
 20
4.973047047
 10
-86.7639106307
 20
5.4447878683
 10
-86.7132041205
 20
5.9085331591
 10
-86.6575592692
 20
6.364406683
 10
-86.5971819727
 20
6.8122846764
 10
-86.5334947213
 20
7.2466852335
 10
-86.4664256397
 20
7.666895447
 10
-86.3960413202
 20
8.0736282242
 10
-86.323971867
 20
8.4635403818
 10
-86.2504132063
 20
8.835304659
 10
-86.1751632284
 20
9.1902483166
 10
-86.099256207
 20
9.5290099544
 10
-86.0228725303
 20
9.8510771123
 10
-85.9458265481
 20
10.1569622503
 10
-85.8686050534
 20
10.4488413483
 10
-85.7912490425
 20
10.7268626847
 10
-85.7137133577
 20
10.9908779812
 10
-85.6363569272
 20
11.2426183816
 10
-85.5591949314
 20
11.4822121935
 10
-85.4822091281
 20
11.7095311094
 10
-85.4057095063
 20
11.9259213513
 10
-85.3297261051
 20
12.1314148508
 10
-85.2542269155
 20
12.3259796763
 10
-85.1794298771
 20
12.5108662555
 10
-85.1053522139
 20
12.6861205966
 10
-85.0319756474
 20
12.8516966914
 10
-84.9594656997
 20
13.0087069425
 10
-84.8878323441
 20
13.1571943292
 10
-84.8170653199
 20
13.2971158722
 10
-84.7473004928
 20
13.4294550367
 10
-84.6785460534
 20
13.5542438378
 10
-84.6107941696
 20
13.6714502603
 10
-84.5441572549
 20
13.7819617234
 10
-84.478652092
 20
13.8857912488
 10
-84.4142627932
 20
13.9829258149
 10
-84.3510532228
 20
14.0742137759
 10
-84.2890575115
 20
14.15965308
 10
-84.2282427995
 20
14.2392457789
 10
-84.168572722
 20
14.3138463825
 10
-84.1100737235
 20
14.3834771429
 10
-84.0527207276
 20
14.448115808
 10
-83.9964001228
 20
14.5085501301
 10
-83.9411182455
 20
14.5648262723
 10
-83.8868700169
 20
14.6168980715
 10
-83.8335246065
 20
14.6654147909
 10
-83.7810780567
 20
14.7104232673
 10
-83.7295354147
 20
14.7518766639
 10
-83.6787792271
 20
14.7902837331
 10
-83.6288051638
 20
14.8256813228
 10
-83.579618489
 20
14.8580325852
 10
-83.5311160149
 20
14.8877357292
 10
-83.4833052908
 20
14.9148158244
 10
-83.4361795678
 20
14.9392478013
 10
-83.3896140624
 20
14.9613546594
 10
-83.3436159243
 20
14.9811628822
 10
-83.2981786163
 20
14.9986459862
 10
-83.2531566247
 20
15.0140475216
 10
-83.2085490167
 20
15.0273964404
 10
-83.1643571017
 20
15.0386637906
 10
-83.1204385029
 20
15.0480062654
 10
-83.0767914605
 20
15.0554506625
 10
-83.0334178774
 20
15.0609701843
 10
-82.9901806376
 20
15.0646411311
 10
-82.9470790517
 20
15.0664890167
 10
-82.9041137176
 20
15.0664883272
  0
LINE
  5
264
100
AcDbEntity
  8
ASSI
100
AcDbLine
 62
250
  6
CONTINUOUS
 10
-77.8925975869
 20
-8.3217547912
 11
-77.7844542531
 21
-27.3304809944
  0
LINE
  5
265
100
AcDbEntity
  8
ASSI
100
AcDbLine
 62
7
  6
CONTINUOUS
 10
-77.3170431723
 20
18.0768442088
 11
-76.3774631723
 21
21.0033302088
  0
LINE
  5
266
100
AcDbEntity
  8
ASSI
100
AcDbLine
 62
7
  6
CONTINUOUS
 10
-76.8920221723
 20
16.7531392088
 11
-75.5274211723
 21
21.0033302088
  0
LWPOLYLINE
  5
267
100
AcDbEntity
  8
ASSI
100
AcDbPolyline
 62
7
  6
CONTINUOUS
 90
55
 70
0
 10
-66.4776241723
 20
-1.580545632
 10
-66.5267947126
 20
-1.5869283745
 10
-66.5760477455
 20
-1.5919438153
 10
-66.625383271
 20
-1.5955919545
 10
-66.6748393672
 20
-1.5978734945
 10
-66.7243779559
 20
-1.5987877329
 10
-66.7738848031
 20
-1.5983325621
 10
-66.8233598379
 20
-1.5965048218
 10
-66.8728031312
 20
-1.5933076722
 10
-66.9221006616
 20
-1.5887484864
 10
-66.9712520927
 20
-1.5828241208
 10
-67.0202577609
 20
-1.5755377189
 10
-67.069004654
 20
-1.566906084
 10
-67.1174921748
 20
-1.5569261113
 10
-67.1657209205
 20
-1.5456009055
 10
-67.2135796706
 20
-1.5329565837
 10
-67.2610675712
 20
-1.5189901016
 10
-67.3081854762
 20
-1.5037045035
 10
-67.3548247267
 20
-1.4871350396
 10
-67.4009842182
 20
-1.4692787468
 10
-67.4466650552
 20
-1.4501385883
 10
-67.491761893
 20
-1.4297587032
 10
-67.5362733839
 20
-1.4081362303
 10
-67.5802008755
 20
-1.3852740309
 10
-67.6234430666
 20
-1.3612248274
 10
-67.6659983755
 20
-1.3359858805
 10
-67.7078683838
 20
-1.3095599297
 10
-67.7489565349
 20
-1.2820079158
 10
-67.7892610244
 20
-1.2533272402
 10
-67.8287836567
 20
-1.2235205016
 10
-67.8674332885
 20
-1.1926564374
 10
-67.9052079051
 20
-1.1607326075
 10
-67.9421095211
 20
-1.1277514522
 10
-67.9780530376
 20
-1.0937890292
 10
-68.0130362435
 20
-1.0588430741
 10
-68.0470613499
 20
-1.0229158514
 10
-68.0800498914
 20
-0.9860902132
 10
-68.1119994757
 20
-0.9483640858
 10
-68.142912495
 20
-0.9097395429
 10
-68.1727176608
 20
-0.8703056566
 10
-68.2014124161
 20
-0.830060559
 10
-68.228999318
 20
-0.789006118
 10
-68.2554147479
 20
-0.7472370095
 10
-68.2806560024
 20
-0.704751584
 10
-68.304725785
 20
-0.661551491
 10
-68.3275685884
 20
-0.6177363543
 10
-68.3491815807
 20
-0.5733047546
 10
-68.3695675937
 20
-0.5282581112
 10
-68.3886796152
 20
-0.4827003065
 10
-68.4065147049
 20
-0.4366301606
 10
-68.4230758031
 20
-0.3900488534
 10
-68.4383247181
 20
-0.3430638062
 10
-68.4522487193
 20
-0.2957108261
 10
-68.4648605374
 20
-0.247954106
 10
-68.4761601723
 20
-0.1997936458
  0
LWPOLYLINE
  5
268
100
AcDbEntity
  8
ASSI
100
AcDbPolyline
 62
7
  6
CONTINUOUS
 90
63
 70
0
 10
-70.8126241723
 20
-1.5805460781
 10
-70.8620227526
 20
-1.5869551633
 10
-70.9115040642
 20
-1.5919842652
 10
-70.961068107
 20
-1.5956333839
 10
-71.0107534915
 20
-1.5979032097
 10
-71.0605216072
 20
-1.5987930523
 10
-71.1102566226
 20
-1.5983008406
 10
-71.1599584607
 20
-1.5964233554
 10
-71.2096271985
 20
-1.593163816
 10
-71.2591472359
 20
-1.5885298087
 10
-71.3085182264
 20
-1.5825181319
 10
-71.3577405164
 20
-1.5751319872
 10
-71.4066995449
 20
-1.5663885652
 10
-71.4553946986
 20
-1.5562847045
 10
-71.5038265906
 20
-1.5448235666
 10
-71.5518824996
 20
-1.5320318263
 10
-71.5995615496
 20
-1.5179063845
 10
-71.6468646166
 20
-1.5024503402
 10
-71.6936816061
 20
-1.4856996664
 10
-71.740011386
 20
-1.4676513476
 10
-71.7858550885
 20
-1.4483083991
 10
-71.8311060159
 20
-1.4277158403
 10
-71.8757627875
 20
-1.4058707606
 10
-71.9198267839
 20
-1.3827760705
 10
-71.9631954497
 20
-1.3584855212
 10
-72.0058671651
 20
-1.3329963272
 10
-72.0478435498
 20
-1.3063112741
 10
-72.0890269069
 20
-1.2784924691
 10
-72.1294153893
 20
-1.2495372716
 10
-72.1690108442
 20
-1.2194483223
 10
-72.2077211162
 20
-1.188295651
 10
-72.2455441434
 20
-1.15607678
 10
-72.2824819876
 20
-1.1227941869
 10
-72.3184486789
 20
-1.0885253344
 10
-72.3534419552
 20
-1.0532679254
 10
-72.3874640785
 20
-1.017024257
 10
-72.420435865
 20
-0.9798786836
 10
-72.4523548681
 20
-0.9418291045
 10
-72.4832235343
 20
-0.9028776205
 10
-72.5129700193
 20
-0.863114888
 10
-72.5415917091
 20
-0.8225390176
 10
-72.5690912175
 20
-0.7811518988
 10
-72.5954045416
 20
-0.7390498571
 10
-72.6205289185
 20
-0.696231227
 10
-72.6444671111
 20
-0.652697674
 10
-72.667163405
 20
-0.608550519
 10
-72.6886149075
 20
-0.5637883327
 10
-72.7088245115
 20
-0.5184125445
 10
-72.7277451804
 20
-0.472528763
 10
-72.7453739122
 20
-0.4261358049
 10
-72.761713709
 20
-0.3792348535
 10
-72.7767265412
 20
-0.3319350672
 10
-72.790409318
 20
-0.284235517
 10
-72.8027651302
 20
-0.2361371319
 10
-72.8137652206
 20
-0.1877518572
 10
-72.8234064315
 20
-0.1390790247
 10
-72.8316919205
 20
-0.0901193026
 10
-72.8386024039
 20
-0.0409866409
 10
-72.8441346789
 20
0.0083193632
 10
-72.8482919482
 20
0.0577983069
 10
-72.8510645362
 20
0.1073350317
 10
-72.8524492176
 20
0.1569296722
 10
-72.8526243467
 20
0.181755883
  0
LWPOLYLINE
  5
269
100
AcDbEntity
  8
0
100
AcDbPolyline
 62
7
  6
CONTINUOUS
 90
3
 70
0
 43
0.3500000006
 10
-101.0837524109
 20
7.5711023254
 10
-100.8694588623
 20
7.4996734085
 10
-100.5837522583
 20
7.3568155746
  0
LWPOLYLINE
  5
26A
100
AcDbEntity
  8
ASSI
100
AcDbPolyline
 62
250
  6
CONTINUOUS
 90
37
 70
0
 10
-82.7321234188
 20
15.0479971632
 10
-82.6493185227
 20
14.8725359129
 10
-82.5635015052
 20
14.6972290538
 10
-82.4746658901
 20
14.5220765858
 10
-82.3828488866
 20
14.3470654564
 10
-82.2879998913
 20
14.1722087182
 10
-82.1899801478
 20
13.9975455286
 10
-82.0887793661
 20
13.8230622568
 10
-81.9843927034
 20
13.6487725335
 10
-81.8766886975
 20
13.4747564085
 10
-81.7656649804
 20
13.3010168044
 10
-81.651307087
 20
13.1275507985
 10
-81.5334644518
 20
12.9544296728
 10
-81.4121361685
 20
12.7816568471
 10
-81.2873043798
 20
12.6092289015
 10
-81.1587919393
 20
12.4372068588
 10
-81.0265866117
 20
12.2655798264
 10
-80.8906796153
 20
12.0943586968
 10
-80.750897698
 20
11.9236371701
 10
-80.6072244066
 20
11.7534037263
 10
-80.459652839
 20
11.5836698853
 10
-80.3080227901
 20
11.4145639074
 10
-80.1523355554
 20
11.2460948254
 10
-79.9925641859
 20
11.0782536064
 10
-79.8285046552
 20
10.911141411
 10
-79.6601719332
 20
10.7447749148
 10
-79.4875226339
 20
10.5791374421
 10
-79.310263143
 20
10.4142801266
 10
-79.1283843165
 20
10.2501931793
 10
-78.9418631033
 20
10.0868863891
 10
-78.7503824122
 20
9.9244402565
 10
-78.5539202703
 20
9.7628326427
 10
-78.3524622542
 20
9.6020856866
 10
-78.1456998132
 20
9.4423463054
 10
-77.9335160143
 20
9.2836634716
 10
-77.7159868158
 20
9.1259882128
 10
-77.4930913311
 20
8.969320529
  0
LINE
  5
26B
100
AcDbEntity
  8
0
100
AcDbLine
 62
250
  6
CONTINUOUS
 10
-77.1146553536
 20
-9.721801503
 11
-77.0137613624
 21
-27.3304809944
  0
LINE
  5
26C
100
AcDbEntity
  8
0
100
AcDbLine
 62
7
  6
CONTINUOUS
 10
-77.1980341723
 20
-8.3217547912
 11
-77.1980341723
 21
-9.7217547912
  0
LINE
  5
26D
100
AcDbEntity
  8
0
100
AcDbLine
 62
7
  6
CONTINUOUS
 10
-77.0980341723
 20
-8.3217547912
 11
-77.0980341723
 21
-7.6929294594
  0
LINE
  5
26E
100
AcDbEntity
  8
0
100
AcDbLine
 62
7
  6
CONTINUOUS
 10
-77.0480341723
 20
-8.3217547912
 11
-77.0480341723
 21
-7.7199928917
  0
LINE
  5
26F
100
AcDbEntity
  8
ASSI
100
AcDbLine
 62
250
  6
CONTINUOUS
 10
-77.0137613624
 20
-27.8217547912
 11
-77.0137613624
 21
-27.3304809944
  0
LINE
  5
270
100
AcDbEntity
  8
ASSI
100
AcDbLine
 62
250
  6
CONTINUOUS
 10
-76.722141773
 20
9.8579794555
 11
-76.722141773
 21
8.9691949462
  0
LINE
  5
271
100
AcDbEntity
  8
ASSI
100
AcDbLine
 62
7
  6
CONTINUOUS
 10
-76.0980341723
 20
37.5537237402
 11
-76.0980341723
 21
38.3798092376
  0
LINE
  5
272
100
AcDbEntity
  8
ASSI
100
AcDbLine
 62
7
  6
CONTINUOUS
 10
-75.3480341723
 20
39.3085180203
 11
-75.3480341723
 21
39.8782452088
  0
LINE
  5
273
100
AcDbEntity
  8
ASSI
100
AcDbLine
 62
250
  6
CONTINUOUS
 10
-77.4930913311
 20
8.969320529
 11
-77.891789128
 21
-8.3217547912
  0
LINE
  5
274
100
AcDbEntity
  8
ASSI
100
AcDbLine
 62
250
  6
CONTINUOUS
 10
-76.7221416193
 20
8.9691949462
 11
-77.1236671018
 21
-8.3217547912
  0
LWPOLYLINE
  5
275
100
AcDbEntity
  8
ASSI
100
AcDbPolyline
 62
250
  6
CONTINUOUS
 90
34
 70
0
 10
-76.722141773
 20
9.8579794555
 10
-76.7494586083
 20
9.8407038893
 10
-76.7767350827
 20
9.8226018278
 10
-76.8039572297
 20
9.8037001614
 10
-76.8311200021
 20
9.7840398382
 10
-76.8582011257
 20
9.7636376197
 10
-76.885160406
 20
9.742484744
 10
-76.911983551
 20
9.7206117443
 10
-76.9386573575
 20
9.6980501503
 10
-76.9651424336
 20
9.674792101
 10
-76.9914249633
 20
9.6508702425
 10
-77.0174918913
 20
9.6263182294
 10
-77.0433043869
 20
9.6011291243
 10
-77.0688493825
 20
9.5753375486
 10
-77.0941143308
 20
9.5489790499
 10
-77.11906085
 20
9.5220475274
 10
-77.1436769354
 20
9.4945793603
 10
-77.1679508449
 20
9.4666117972
 10
-77.1918445044
 20
9.4381395305
 10
-77.2153472566
 20
9.4092004574
 10
-77.2384484672
 20
9.3798333063
 10
-77.2611102622
 20
9.350033535
 10
-77.2833236106
 20
9.3198402409
 10
-77.3050792582
 20
9.2892934085
 10
-77.326339416
 20
9.2583893371
 10
-77.3470969033
 20
9.2271679722
 10
-77.3673441275
 20
9.1956702566
 10
-77.3870433621
 20
9.1638934265
 10
-77.4061895454
 20
9.1318776818
 10
-77.4247769066
 20
9.0996647241
 10
-77.4427676094
 20
9.0672533213
 10
-77.460146882
 20
9.0346701423
 10
-77.4769230015
 20
9.0019703272
 10
-77.4930937856
 20
8.9691949462
  0
LINE
  5
276
100
AcDbEntity
  8
ASSI
100
AcDbLine
 62
7
  6
CONTINUOUS
 10
-68.4761601723
 20
-0.1997936458
 11
-66.9876241723
 21
-0.1997936458
  0
LINE
  5
277
100
AcDbEntity
  8
ASSI
100
AcDbLine
 62
7
  6
CONTINUOUS
 10
-66.9876241723
 20
0.5633054118
 11
-68.4761606323
 21
0.5633054118
  0
LWPOLYLINE
  5
278
100
AcDbEntity
  8
ASSI
100
AcDbPolyline
 62
250
  6
CONTINUOUS
 90
37
 70
0
 10
-81.8888476664
 20
15.4560948622
 10
-81.8066619368
 20
15.2945058244
 10
-81.7215184447
 20
15.1330101127
 10
-81.6334171902
 20
14.9716370477
 10
-81.5424091009
 20
14.8104379167
 10
-81.4484432491
 20
14.6494211626
 10
-81.351366852
 20
14.4885535992
 10
-81.2511767578
 20
14.3278554762
 10
-81.1478761184
 20
14.1673716518
 10
-81.0413216068
 20
14.0071081999
 10
-80.9315203614
 20
13.8471049582
 10
-80.8184652438
 20
13.6873910365
 10
-80.7019915128
 20
13.5279585879
 10
-80.5821079966
 20
13.3688499149
 10
-80.4588058669
 20
13.2100966266
 10
-80.3318938975
 20
13.0516778713
 10
-80.2013711622
 20
12.8936265583
 10
-80.0672385872
 20
12.7359899845
 10
-79.9293077248
 20
12.5787720203
 10
-79.7875755352
 20
12.4220081735
 10
-79.6420450582
 20
12.2657487072
 10
-79.4925369662
 20
12.1100219085
 10
-79.3390668095
 20
11.9548843827
 10
-79.1816190378
 20
11.8003696213
 10
-79.0199676726
 20
11.6464740845
 10
-78.8541424123
 20
11.493265975
 10
-78.6841135585
 20
11.3407738979
 10
-78.5095660369
 20
11.1889408555
 10
-78.3305082048
 20
11.0378185417
 10
-78.1469317049
 20
10.8874638852
 10
-77.958496391
 20
10.7378358168
 10
-77.7652043628
 20
10.5889855319
 10
-77.5670535205
 20
10.440982668
 10
-77.3636974184
 20
10.293821269
 10
-77.1550205745
 20
10.1475444343
 10
-76.9411384708
 20
10.0022413767
 10
-76.7220511071
 20
9.8579794555
  0
LWPOLYLINE
  5
279
100
AcDbEntity
  8
ASSI
100
AcDbPolyline
 62
7
  6
CONTINUOUS
 90
67
 70
0
 10
-73.6176242075
 20
0.181755883
 10
-73.6168057775
 20
0.1173770248
 10
-73.6143536278
 20
0.0529981667
 10
-73.6102724682
 20
-0.011257033
 10
-73.604559168
 20
-0.0753883366
 10
-73.597216858
 20
-0.1393959818
 10
-73.5882596413
 20
-0.2031570231
 10
-73.577684414
 20
-0.2666709866
 10
-73.56549428
 20
-0.3299383462
 10
-73.551712654
 20
-0.3928375784
 10
-73.5363364772
 20
-0.4553679758
 10
-73.5193688084
 20
-0.5175302459
 10
-73.500842239
 20
-0.5792049877
 10
-73.4807537727
 20
-0.6403912644
 10
-73.4591064058
 20
-0.7010900129
 10
-73.4359417185
 20
-0.7611846435
 10
-73.4112567943
 20
-0.820673995
 10
-73.3850545496
 20
-0.8795592287
 10
-73.3573853135
 20
-0.9377272382
 10
-73.3282462664
 20
-0.995176645
 10
-73.2976402279
 20
-1.0519088275
 10
-73.2656259858
 20
-1.1078148151
 10
-73.2322008336
 20
-1.1628930197
 10
-73.1973674777
 20
-1.2171450293
 10
-73.161192826
 20
-1.2704666371
 10
-73.1236743004
 20
-1.3228560548
 10
-73.0848144788
 20
-1.3743150707
 10
-73.0446880031
 20
-1.4247448427
 10
-73.0032924385
 20
-1.4741433924
 10
-72.9606302197
 20
-1.5225126982
 10
-72.9167832919
 20
-1.5697598527
 10
-72.8717493781
 20
-1.6158826991
 10
-72.8255307553
 20
-1.660883394
 10
-72.7782162
 20
-1.7046755007
 10
-72.7298036056
 20
-1.747256696
 10
-72.6802950787
 20
-1.788629303
 10
-72.6297857149
 20
-1.8287138534
 10
-72.5782735904
 20
-1.8675078716
 10
-72.525760629
 20
-1.9050138332
 10
-72.4723476972
 20
-1.9411596971
 10
-72.4180330651
 20
-1.9759428491
 10
-72.3628184626
 20
-2.0093659034
 10
-72.3068099454
 20
-2.0413646612
 10
-72.2500059877
 20
-2.071936385
 10
-72.1924081154
 20
-2.1010838123
 10
-72.1341269619
 20
-2.1287509569
 10
-72.0751612142
 20
-2.1549349738
 10
-72.0155121853
 20
-2.179638708
 10
-71.9552944488
 20
-2.2028147087
 10
-71.8945069116
 20
-2.2244600398
 10
-71.8331506667
 20
-2.2445776374
 10
-71.7713435669
 20
-2.2631288598
 10
-71.7090847454
 20
-2.2801106966
 10
-71.6463750689
 20
-2.2955261581
 10
-71.5833349897
 20
-2.3093456346
 10
-71.5199638727
 20
-2.3215660586
 10
-71.4562623529
 20
-2.3321904975
 10
-71.3923527879
 20
-2.341198544
 10
-71.3282347776
 20
-2.3485870914
 10
-71.2639087221
 20
-2.3543592464
 10
-71.1994981782
 20
-2.3585039218
 10
-71.1350029836
 20
-2.3610179897
 10
-71.0704233008
 20
-2.3619045781
 10
-71.0058831738
 20
-2.3611619841
 10
-70.9414239507
 20
-2.3587896399
 10
-70.8770042835
 20
-2.3547881133
 10
-70.8126241723
 20
-2.3491574042
  0
LINE
  5
27A
100
AcDbEntity
  8
ASSI
100
AcDbLine
 62
7
  6
CONTINUOUS
 10
-74.9607471723
 20
16.7531282088
 11
-74.9607371723
 21
21.0033302088
  0
LINE
  5
27B
100
AcDbEntity
  8
ASSI
100
AcDbLine
 62
7
  6
CONTINUOUS
 10
-74.1107151723
 20
16.7531392088
 11
-74.1107051723
 21
21.0033302088
  0
LINE
  5
27C
100
AcDbEntity
  8
ASSI
100
AcDbLine
 62
7
  6
CONTINUOUS
 10
-73.2607051723
 20
16.7531392088
 11
-73.2607051723
 21
21.0033302088
  0
LINE
  5
27D
100
AcDbEntity
  8
ASSI
100
AcDbLine
 62
7
  6
CONTINUOUS
 10
-72.4106731723
 20
16.7531392088
 11
-72.4106731723
 21
19.5558542088
  0
LWPOLYLINE
  5
27E
100
AcDbEntity
  8
ASSI
100
AcDbPolyline
 62
7
  6
CONTINUOUS
 90
63
 70
0
 10
-72.8526243467
 20
0.181755883
 10
-72.8524492176
 20
0.2065820938
 10
-72.8510645362
 20
0.2561767343
 10
-72.8482919482
 20
0.3057134591
 10
-72.8441346789
 20
0.3551924028
 10
-72.8386024039
 20
0.4044984069
 10
-72.8316919205
 20
0.4536310686
 10
-72.8234064315
 20
0.5025907907
 10
-72.8137652206
 20
0.5512636232
 10
-72.8027651302
 20
0.5996488979
 10
-72.790409318
 20
0.647747283
 10
-72.7767265412
 20
0.6954468332
 10
-72.761713709
 20
0.7427466195
 10
-72.7453739122
 20
0.7896475709
 10
-72.7277451804
 20
0.836040529
 10
-72.7088245115
 20
0.8819243105
 10
-72.6886149075
 20
0.9273000987
 10
-72.667163405
 20
0.972062285
 10
-72.6444671111
 20
1.01620944
 10
-72.6205289185
 20
1.059742993
 10
-72.5954045416
 20
1.102561623
 10
-72.5690912175
 20
1.1446636648
 10
-72.5415917091
 20
1.1860507836
 10
-72.5129700193
 20
1.226626654
 10
-72.4832235343
 20
1.2663893865
 10
-72.4523548681
 20
1.3053408705
 10
-72.420435865
 20
1.3433904496
 10
-72.3874640785
 20
1.380536023
 10
-72.3534419552
 20
1.4167796914
 10
-72.3184486789
 20
1.4520371004
 10
-72.2824819876
 20
1.4863059529
 10
-72.2455441434
 20
1.5195885459
 10
-72.2077211162
 20
1.551807417
 10
-72.1690108442
 20
1.5829600883
 10
-72.1294153893
 20
1.6130490376
 10
-72.0890269069
 20
1.6420042351
 10
-72.0478435498
 20
1.66982304
 10
-72.0058671651
 20
1.6965080932
 10
-71.9631954497
 20
1.7219972872
 10
-71.9198267839
 20
1.7462878365
 10
-71.8757627875
 20
1.7693825266
 10
-71.8311060159
 20
1.7912276063
 10
-71.7858550885
 20
1.8118201651
 10
-71.740011386
 20
1.8311631135
 10
-71.6936816061
 20
1.8492114324
 10
-71.6468646166
 20
1.8659621062
 10
-71.5995615496
 20
1.8814181504
 10
-71.5518824996
 20
1.8955435923
 10
-71.5038265906
 20
1.9083353326
 10
-71.4553946986
 20
1.9197964705
 10
-71.4066995449
 20
1.9299003312
 10
-71.3577405164
 20
1.9386437532
 10
-71.3085182264
 20
1.9460298979
 10
-71.2591472359
 20
1.9520415747
 10
-71.2096271985
 20
1.956675582
 10
-71.1599584607
 20
1.9599351214
 10
-71.1102566226
 20
1.9618126066
 10
-71.0605216072
 20
1.9623048183
 10
-71.0107534915
 20
1.9614149757
 10
-70.961068107
 20
1.9591451499
 10
-70.9115040642
 20
1.9554960312
 10
-70.8620227526
 20
1.9504669293
 10
-70.8126241723
 20
1.9440578441
  0
LINE
  5
27F
100
AcDbEntity
  8
ASSI
100
AcDbLine
 62
7
  6
CONTINUOUS
 10
-71.1820081723
 20
18.2354542088
 11
-70.3883321723
 21
21.0033302088
  0
LINE
  5
280
100
AcDbEntity
  8
ASSI
100
AcDbLine
 62
7
  6
CONTINUOUS
 10
-70.7570081723
 20
16.7531492088
 11
-69.9533551723
 21
19.5558542088
  0
LWPOLYLINE
  5
281
100
AcDbEntity
  8
ASSI
100
AcDbPolyline
 62
7
  6
CONTINUOUS
 90
67
 70
0
 10
-70.8126241723
 20
2.7126691702
 10
-70.8770042835
 20
2.7182998793
 10
-70.9414239507
 20
2.7223014059
 10
-71.0058831738
 20
2.7246737501
 10
-71.0704233008
 20
2.7254163441
 10
-71.1350029836
 20
2.7245297557
 10
-71.1994981782
 20
2.7220156878
 10
-71.2639087221
 20
2.7178710124
 10
-71.3282347776
 20
2.7120988574
 10
-71.3923527879
 20
2.70471031
 10
-71.4562623529
 20
2.6957022635
 10
-71.5199638727
 20
2.6850778246
 10
-71.5833349897
 20
2.6728574006
 10
-71.6463750689
 20
2.6590379241
 10
-71.7090847454
 20
2.6436224625
 10
-71.7713435669
 20
2.6266406258
 10
-71.8331506667
 20
2.6080894034
 10
-71.8945069116
 20
2.5879718057
 10
-71.9552944488
 20
2.5663264747
 10
-72.0155121853
 20
2.543150474
 10
-72.0751612142
 20
2.5184467398
 10
-72.1341269619
 20
2.4922627229
 10
-72.1924081154
 20
2.4645955783
 10
-72.2500059877
 20
2.435448151
 10
-72.3068099454
 20
2.4048764272
 10
-72.3628184626
 20
2.3728776694
 10
-72.4180330651
 20
2.3394546151
 10
-72.4723476972
 20
2.3046714631
 10
-72.525760629
 20
2.2685255992
 10
-72.5782735904
 20
2.2310196376
 10
-72.6297857149
 20
2.1922256194
 10
-72.6802950787
 20
2.152141069
 10
-72.7298036056
 20
2.110768462
 10
-72.7782162
 20
2.0681872666
 10
-72.8255307553
 20
2.02439516
 10
-72.8717493781
 20
1.979394465
 10
-72.9167832919
 20
1.9332716187
 10
-72.9606302197
 20
1.8860244642
 10
-73.0032924385
 20
1.8376551584
 10
-73.0446880031
 20
1.7882566087
 10
-73.0848144788
 20
1.7378268367
 10
-73.1236743004
 20
1.6863678208
 10
-73.161192826
 20
1.6339784031
 10
-73.1973674777
 20
1.5806567953
 10
-73.2322008336
 20
1.5264047857
 10
-73.2656259858
 20
1.4713265811
 10
-73.2976402279
 20
1.4154205935
 10
-73.3282462664
 20
1.358688411
 10
-73.3573853135
 20
1.3012390042
 10
-73.3850545496
 20
1.2430709947
 10
-73.4112567943
 20
1.184185761
 10
-73.4359417185
 20
1.1246964095
 10
-73.4591064058
 20
1.0646017789
 10
-73.4807537727
 20
1.0039030304
 10
-73.500842239
 20
0.9427167537
 10
-73.5193688084
 20
0.8810420119
 10
-73.5363364772
 20
0.8188797418
 10
-73.551712654
 20
0.7563493444
 10
-73.56549428
 20
0.6934501122
 10
-73.577684414
 20
0.6301827526
 10
-73.5882596413
 20
0.5666687891
 10
-73.597216858
 20
0.5029077478
 10
-73.604559168
 20
0.4389001026
 10
-73.6102724682
 20
0.374768799
 10
-73.6143536278
 20
0.3105135993
 10
-73.6168057775
 20
0.2461347412
 10
-73.6176242075
 20
0.181755883
  0
LWPOLYLINE
  5
282
100
AcDbEntity
  8
ASSI
100
AcDbPolyline
 62
7
  6
CONTINUOUS
 90
67
 70
0
 10
-66.4776241723
 20
2.7126691702
 10
-66.5420042835
 20
2.7182998793
 10
-66.6064239507
 20
2.7223014059
 10
-66.6708831738
 20
2.7246737501
 10
-66.7354233008
 20
2.7254163441
 10
-66.8000029836
 20
2.7245297557
 10
-66.8644981782
 20
2.7220156878
 10
-66.9289087221
 20
2.7178710124
 10
-66.9932347776
 20
2.7120988574
 10
-67.0573527879
 20
2.70471031
 10
-67.1212623529
 20
2.6957022635
 10
-67.1849638727
 20
2.6850778246
 10
-67.2483349897
 20
2.6728574006
 10
-67.3113750689
 20
2.6590379241
 10
-67.3740847454
 20
2.6436224625
 10
-67.4363435669
 20
2.6266406258
 10
-67.4981506667
 20
2.6080894034
 10
-67.5595069116
 20
2.5879718057
 10
-67.6202944488
 20
2.5663264747
 10
-67.6805121853
 20
2.543150474
 10
-67.7401612142
 20
2.5184467398
 10
-67.7991269619
 20
2.4922627229
 10
-67.8574081154
 20
2.4645955783
 10
-67.9150059877
 20
2.435448151
 10
-67.9718099454
 20
2.4048764272
 10
-68.0278184626
 20
2.3728776694
 10
-68.0830330651
 20
2.3394546151
 10
-68.1373476972
 20
2.3046714631
 10
-68.190760629
 20
2.2685255992
 10
-68.2432735904
 20
2.2310196376
 10
-68.2947857149
 20
2.1922256194
 10
-68.3452950787
 20
2.152141069
 10
-68.3948036056
 20
2.110768462
 10
-68.4432162
 20
2.0681872666
 10
-68.4905307553
 20
2.02439516
 10
-68.5367493781
 20
1.979394465
 10
-68.5817832919
 20
1.9332716187
 10
-68.6256302197
 20
1.8860244642
 10
-68.6682924385
 20
1.8376551584
 10
-68.7096880031
 20
1.7882566087
 10
-68.7498144788
 20
1.7378268367
 10
-68.7886743004
 20
1.6863678208
 10
-68.826192826
 20
1.6339784031
 10
-68.8623674777
 20
1.5806567953
 10
-68.8972008336
 20
1.5264047857
 10
-68.9306259858
 20
1.4713265811
 10
-68.9626402279
 20
1.4154205935
 10
-68.9932462664
 20
1.358688411
 10
-69.0223853135
 20
1.3012390042
 10
-69.0500545496
 20
1.2430709947
 10
-69.0762567943
 20
1.184185761
 10
-69.1009417185
 20
1.1246964095
 10
-69.1241064058
 20
1.0646017789
 10
-69.1457537727
 20
1.0039030304
 10
-69.165842239
 20
0.9427167537
 10
-69.1843688084
 20
0.8810420119
 10
-69.2013364772
 20
0.8188797418
 10
-69.216712654
 20
0.7563493444
 10
-69.23049428
 20
0.6934501122
 10
-69.242684414
 20
0.6301827526
 10
-69.2532596413
 20
0.5666687891
 10
-69.262216858
 20
0.5029077478
 10
-69.269559168
 20
0.4389001026
 10
-69.2752724682
 20
0.374768799
 10
-69.2793536278
 20
0.3105135993
 10
-69.2818057775
 20
0.2461347412
 10
-69.2826242075
 20
0.181755883
  0
LINE
  5
283
100
AcDbEntity
  8
ASSI
100
AcDbLine
 62
7
  6
CONTINUOUS
 10
-77.7420851723
 20
16.7531282088
 11
-79.1066751723
 21
21.0033302088
  0
LINE
  5
284
100
AcDbEntity
  8
ASSI
100
AcDbLine
 62
7
  6
CONTINUOUS
 10
-77.3170431723
 20
18.0768442088
 11
-78.2566331723
 21
21.0033302088
  0
LWPOLYLINE
  5
285
100
AcDbEntity
  8
0
100
AcDbPolyline
 62
7
  6
CONTINUOUS
 90
2
 70
0
 43
0.3500000006
 10
-71.4051790466
 20
49.4282437134
 10
-71.4051790466
 20
50.9282441711
  0
LINE
  5
286
100
AcDbEntity
  8
ASSI
100
AcDbLine
 62
7
  6
CONTINUOUS
 10
-70.8126241723
 20
-2.3491574042
 11
-70.8126241723
 21
-1.5805460781
  0
LINE
  5
287
100
AcDbEntity
  8
ASSI
100
AcDbLine
 62
7
  6
CONTINUOUS
 10
-70.8126241723
 20
1.9440578441
 11
-70.8126241723
 21
2.7126691702
  0
LINE
  5
288
100
AcDbEntity
  8
ASSI
100
AcDbLine
 62
7
  6
CONTINUOUS
 10
-69.9533441723
 20
16.7531392088
 11
-69.9533551723
 21
19.5558542088
  0
LINE
  5
289
100
AcDbEntity
  8
ASSI
100
AcDbLine
 62
7
  6
CONTINUOUS
 10
-68.5366281723
 20
16.7531392088
 11
-67.1720481723
 21
21.0033412088
  0
LINE
  5
28A
100
AcDbEntity
  8
ASSI
100
AcDbLine
 62
7
  6
CONTINUOUS
 10
-67.6865961723
 20
16.7531492088
 11
-67.4182401723
 21
17.5889762088
  0
LINE
  5
28B
100
AcDbEntity
  8
ASSI
100
AcDbLine
 62
7
  6
CONTINUOUS
 10
-67.1589581723
 20
18.3965072088
 11
-66.7470161723
 21
19.6796252088
  0
LWPOLYLINE
  5
28C
100
AcDbEntity
  8
0
100
AcDbPolyline
 62
7
  6
CONTINUOUS
 90
4
 70
0
 43
0.3500000006
 10
-101.2266057129
 20
4.4996747589
 10
-102.0837527161
 20
4.4996747589
 10
-102.5123216858
 20
4.9282459946
 10
-102.5123216858
 20
5.5711017151
  0
LWPOLYLINE
  5
28D
100
AcDbEntity
  8
ASSI
100
AcDbPolyline
 62
7
  6
CONTINUOUS
 90
67
 70
0
 10
-69.2826242075
 20
0.181755883
 10
-69.2818057775
 20
0.1173770248
 10
-69.2793536278
 20
0.0529981667
 10
-69.2752724682
 20
-0.011257033
 10
-69.269559168
 20
-0.0753883366
 10
-69.262216858
 20
-0.1393959818
 10
-69.2532596413
 20
-0.2031570231
 10
-69.242684414
 20
-0.2666709866
 10
-69.23049428
 20
-0.3299383462
 10
-69.216712654
 20
-0.3928375784
 10
-69.2013364772
 20
-0.4553679758
 10
-69.1843688084
 20
-0.5175302459
 10
-69.165842239
 20
-0.5792049877
 10
-69.1457537727
 20
-0.6403912644
 10
-69.1241064058
 20
-0.7010900129
 10
-69.1009417185
 20
-0.7611846435
 10
-69.0762567943
 20
-0.820673995
 10
-69.0500545496
 20
-0.8795592287
 10
-69.0223853135
 20
-0.9377272382
 10
-68.9932462664
 20
-0.995176645
 10
-68.9626402279
 20
-1.0519088275
 10
-68.9306259858
 20
-1.1078148151
 10
-68.8972008336
 20
-1.1628930197
 10
-68.8623674777
 20
-1.2171450293
 10
-68.826192826
 20
-1.2704666371
 10
-68.7886743004
 20
-1.3228560548
 10
-68.7498144788
 20
-1.3743150707
 10
-68.7096880031
 20
-1.4247448427
 10
-68.6682924385
 20
-1.4741433924
 10
-68.6256302197
 20
-1.5225126982
 10
-68.5817832919
 20
-1.5697598527
 10
-68.5367493781
 20
-1.6158826991
 10
-68.4905307553
 20
-1.660883394
 10
-68.4432162
 20
-1.7046755007
 10
-68.3948036056
 20
-1.747256696
 10
-68.3452950787
 20
-1.788629303
 10
-68.2947857149
 20
-1.8287138534
 10
-68.2432735904
 20
-1.8675078716
 10
-68.190760629
 20
-1.9050138332
 10
-68.1373476972
 20
-1.9411596971
 10
-68.0830330651
 20
-1.9759428491
 10
-68.0278184626
 20
-2.0093659034
 10
-67.9718099454
 20
-2.0413646612
 10
-67.9150059877
 20
-2.071936385
 10
-67.8574081154
 20
-2.1010838123
 10
-67.7991269619
 20
-2.1287509569
 10
-67.7401612142
 20
-2.1549349738
 10
-67.6805121853
 20
-2.179638708
 10
-67.6202944488
 20
-2.2028147087
 10
-67.5595069116
 20
-2.2244600398
 10
-67.4981506667
 20
-2.2445776374
 10
-67.4363435669
 20
-2.2631288598
 10
-67.3740847454
 20
-2.2801106966
 10
-67.3113750689
 20
-2.2955261581
 10
-67.2483349897
 20
-2.3093456346
 10
-67.1849638727
 20
-2.3215660586
 10
-67.1212623529
 20
-2.3321904975
 10
-67.0573527879
 20
-2.341198544
 10
-66.9932347776
 20
-2.3485870914
 10
-66.9289087221
 20
-2.3543592464
 10
-66.8644981782
 20
-2.3585039218
 10
-66.8000029836
 20
-2.3610179897
 10
-66.7354233008
 20
-2.3619045781
 10
-66.6708831738
 20
-2.3611619841
 10
-66.6064239507
 20
-2.3587896399
 10
-66.5420042835
 20
-2.3547881133
 10
-66.4776241723
 20
-2.3491574042
  0
LINE
  5
28E
100
AcDbEntity
  8
ASSI
100
AcDbLine
 62
7
  6
CONTINUOUS
 10
-69.1033121723
 20
16.7531392088
 11
-69.1033121723
 21
21.0033302088
  0
LWPOLYLINE
  5
28F
100
AcDbEntity
  8
0
100
AcDbPolyline
 62
7
  6
CONTINUOUS
 90
2
 70
0
 43
0.3500000006
 10
-69.0480361176
 20
49.4282437134
 10
-69.0480361176
 20
50.9282441711
  0
LINE
  5
290
100
AcDbEntity
  8
ASSI
100
AcDbLine
 62
7
  6
CONTINUOUS
 10
-66.9876241723
 20
-0.1997936458
 11
-66.9876241723
 21
0.5633054118
  0
LWPOLYLINE
  5
291
100
AcDbEntity
  8
ASSI
100
AcDbPolyline
 62
7
  6
CONTINUOUS
 90
55
 70
0
 10
-68.4761606323
 20
0.5633054118
 10
-68.4648609834
 20
0.6114659263
 10
-68.4522491538
 20
0.65922269
 10
-68.4383251435
 20
0.7065757031
 10
-68.4230762229
 20
0.7535607691
 10
-68.4065151216
 20
0.8001420844
 10
-68.3886800283
 20
0.8462122382
 10
-68.3695680021
 20
0.8917700543
 10
-68.3491819839
 20
0.9368167089
 10
-68.3275689862
 20
0.9812483198
 10
-68.3047261772
 20
1.0250634674
 10
-68.2806563885
 20
1.0682635712
 10
-68.2554151278
 20
1.1107490072
 10
-68.2289996912
 20
1.1525181262
 10
-68.2014127825
 20
1.1935725774
 10
-68.17271802
 20
1.233817685
 10
-68.1429128468
 20
1.2732515812
 10
-68.1119998197
 20
1.3118761337
 10
-68.0800502275
 20
1.3496022705
 10
-68.0470616778
 20
1.3864279179
 10
-68.0130365629
 20
1.4223551496
 10
-67.9780533483
 20
1.4573011134
 10
-67.9421098228
 20
1.4912635448
 10
-67.9052081976
 20
1.5242447084
 10
-67.8674335716
 20
1.5561685462
 10
-67.8287839302
 20
1.5870326181
 10
-67.789261288
 20
1.6168393641
 10
-67.7489567884
 20
1.6455200469
 10
-67.7078686271
 20
1.6730720677
 10
-67.6659986083
 20
1.6994980251
 10
-67.6234432888
 20
1.7247369783
 10
-67.5802010869
 20
1.7487861877
 10
-67.5362735843
 20
1.7716483929
 10
-67.4917620824
 20
1.7932708712
 10
-67.4466652333
 20
1.8136507614
 10
-67.4009843849
 20
1.8327909247
 10
-67.3548248819
 20
1.8506472219
 10
-67.3081856197
 20
1.8672166899
 10
-67.261067703
 20
1.8825022918
 10
-67.2135797906
 20
1.8964687774
 10
-67.1657210286
 20
1.9091131024
 10
-67.1174922708
 20
1.920438311
 10
-67.0690047379
 20
1.9304182862
 10
-67.0202578327
 20
1.9390499233
 10
-66.9712521523
 20
1.946336327
 10
-66.9221007089
 20
1.952260694
 10
-66.8728031662
 20
1.956819881
 10
-66.8233598606
 20
1.9600170314
 10
-66.7738848134
 20
1.9618447721
 10
-66.7243779515
 20
1.9622999428
 10
-66.6748393481
 20
1.961385704
 10
-66.6253832443
 20
1.9591041638
 10
-66.5760477206
 20
1.9554560252
 10
-66.5267946966
 20
1.9504405853
 10
-66.4776241723
 20
1.9440578441
  0
LINE
  5
292
100
AcDbEntity
  8
ASSI
100
AcDbLine
 62
250
  6
CONTINUOUS
 10
-77.4366717935
 20
8.9706588012
 11
-77.4930937856
 21
8.9691949462
  0
LINE
  5
293
100
AcDbEntity
  8
ASSI
100
AcDbLine
 62
250
  6
CONTINUOUS
 10
-77.3782492855
 20
8.9718621305
 11
-77.4366717935
 21
8.9706588012
  0
LINE
  5
294
100
AcDbEntity
  8
ASSI
100
AcDbLine
 62
250
  6
CONTINUOUS
 10
-63.3739265715
 20
8.9691949462
 11
-63.2708722281
 21
8.9712930566
  0
LINE
  5
295
100
AcDbEntity
  8
ASSI
100
AcDbLine
 62
250
  6
CONTINUOUS
 10
-77.317989831
 20
8.9728015652
 11
-77.3782492855
 21
8.9718621305
  0
LINE
  5
296
100
AcDbEntity
  8
ASSI
100
AcDbLine
 62
250
  6
CONTINUOUS
 10
-63.2708722281
 20
8.9712930566
 11
-63.1684650657
 21
8.9728017003
  0
LINE
  5
297
100
AcDbEntity
  8
ASSI
100
AcDbLine
 62
250
  6
CONTINUOUS
 10
-77.2560621422
 20
8.9734744751
 11
-77.317989831
 21
8.9728015652
  0
LINE
  5
298
100
AcDbEntity
  8
ASSI
100
AcDbLine
 62
250
  6
CONTINUOUS
 10
-63.1684650657
 20
8.9728017003
 11
-63.0673514044
 21
8.973710372
  0
LINE
  5
299
100
AcDbEntity
  8
ASSI
100
AcDbLine
 62
250
  6
CONTINUOUS
 10
-77.160423103
 20
8.9739801899
 11
-77.2560621422
 21
8.9734744751
  0
LINE
  5
29A
100
AcDbEntity
  8
ASSI
100
AcDbLine
 62
250
  6
CONTINUOUS
 10
-63.0673514044
 20
8.973710372
 11
-62.9681686897
 21
8.9740140189
  0
LINE
  5
29B
100
AcDbEntity
  8
ASSI
100
AcDbLine
 62
250
  6
CONTINUOUS
 10
-76.7221416193
 20
8.9691949462
 11
-63.3739267252
 21
8.9691949462
  0
LINE
  5
29C
100
AcDbEntity
  8
ASSI
100
AcDbLine
 62
250
  6
CONTINUOUS
 10
-77.0620239289
 20
8.9738789761
 11
-77.160423103
 21
8.9739801899
  0
LINE
  5
29D
100
AcDbEntity
  8
ASSI
100
AcDbLine
 62
250
  6
CONTINUOUS
 10
-62.9681686897
 20
8.9740140189
 11
-62.8715410303
 21
8.9737103772
  0
LINE
  5
29E
100
AcDbEntity
  8
ASSI
100
AcDbLine
 62
250
  6
CONTINUOUS
 10
-76.9614843019
 20
8.9731714711
 11
-77.0620239289
 21
8.9738789761
  0
LINE
  5
29F
100
AcDbEntity
  8
ASSI
100
AcDbLine
 62
250
  6
CONTINUOUS
 10
-62.8715410303
 20
8.9737103772
 11
-62.8088430687
 21
8.9731738093
  0
LINE
  5
2A0
100
AcDbEntity
  8
ASSI
100
AcDbLine
 62
250
  6
CONTINUOUS
 10
-62.8088430687
 20
8.9731738093
 11
-62.7477304527
 21
8.9723634625
  0
LINE
  5
2A1
100
AcDbEntity
  8
ASSI
100
AcDbLine
 62
250
  6
CONTINUOUS
 10
-76.8594373836
 20
8.9718621305
 11
-76.9614843019
 21
8.9731714711
  0
LINE
  5
2A2
100
AcDbEntity
  8
ASSI
100
AcDbLine
 62
250
  6
CONTINUOUS
 10
-62.7477304527
 20
8.9723634625
 11
-62.6883673451
 21
8.9712931323
  0
LWPOLYLINE
  5
2A3
100
AcDbEntity
  8
ASSI
100
AcDbPolyline
 62
250
  6
CONTINUOUS
 90
3
 70
0
 10
-76.722141773
 20
8.9691949462
 10
-76.7565258279
 20
8.9699592002
 10
-76.8594373836
 20
8.9718621305
  0
LWPOLYLINE
  5
2A4
100
AcDbEntity
  8
ASSI
100
AcDbPolyline
 62
250
  6
CONTINUOUS
 90
3
 70
0
 10
-62.6883673451
 20
8.9712931323
 10
-62.6309291409
 20
8.9699483875
 10
-62.6029745589
 20
8.9691949462
  0
LINE
  5
2A5
100
AcDbEntity
  8
ASSI
100
AcDbLine
 62
7
  6
CONTINUOUS
 10
-71.6070191723
 20
16.7531392088
 11
-72.4106731723
 21
19.5558542088
  0
LINE
  5
2A6
100
AcDbEntity
  8
ASSI
100
AcDbLine
 62
7
  6
CONTINUOUS
 10
-71.1820081723
 20
18.2354542088
 11
-71.9756851723
 21
21.0033302088
  0
LINE
  5
2A7
100
AcDbEntity
  8
ASSI
100
AcDbLine
 62
7
  6
CONTINUOUS
 10
-66.4776241723
 20
-2.3491574042
 11
-66.4776241723
 21
-1.580545632
  0
LINE
  5
2A8
100
AcDbEntity
  8
ASSI
100
AcDbLine
 62
7
  6
CONTINUOUS
 10
-66.4776241723
 20
1.9440578441
 11
-66.4776241723
 21
2.7126691702
  0
LINE
  5
2A9
100
AcDbEntity
  8
ASSI
100
AcDbLine
 62
7
  6
CONTINUOUS
 10
-64.7480341723
 20
39.8782452088
 11
-64.7480341723
 21
39.3085180203
  0
LINE
  5
2AA
100
AcDbEntity
  8
ASSI
100
AcDbLine
 62
7
  6
CONTINUOUS
 10
-64.3906891723
 20
16.7531492088
 11
-64.3906891723
 21
21.0033412088
  0
LINE
  5
2AB
100
AcDbEntity
  8
ASSI
100
AcDbLine
 62
250
  6
CONTINUOUS
 10
-76.7220511071
 20
9.8579794555
 11
-63.3740073865
 21
9.8579794555
  0
LINE
  5
2AC
100
AcDbEntity
  8
ASSI
100
AcDbLine
 62
250
  6
CONTINUOUS
 10
-62.9724012427
 20
-8.3217547912
 11
-63.3739267252
 21
8.9691949462
  0
LINE
  5
2AD
100
AcDbEntity
  8
ASSI
100
AcDbLine
 62
250
  6
CONTINUOUS
 10
-62.2042792166
 20
-8.3217547912
 11
-62.6029766983
 21
8.9693069148
  0
LINE
  5
2AE
100
AcDbEntity
  8
ASSI
100
AcDbLine
 62
7
  6
CONTINUOUS
 10
-63.9980341723
 20
38.3798092376
 11
-63.9980341723
 21
37.5537237402
  0
LINE
  5
2AF
100
AcDbEntity
  8
ASSI
100
AcDbLine
 62
7
  6
CONTINUOUS
 10
-63.5523661723
 20
19.1828002088
 11
-63.5523761723
 21
20.2170592088
  0
LINE
  5
2B0
100
AcDbEntity
  8
ASSI
100
AcDbLine
 62
250
  6
CONTINUOUS
 10
-63.3739265715
 20
9.8579794555
 11
-63.3739265715
 21
8.9691949462
  0
LINE
  5
2B1
100
AcDbEntity
  8
ASSI
100
AcDbLine
 62
250
  6
CONTINUOUS
 10
-63.0823069822
 20
-27.8217547912
 11
-63.0823069822
 21
-27.3304809944
  0
LINE
  5
2B2
100
AcDbEntity
  8
0
100
AcDbLine
 62
7
  6
CONTINUOUS
 10
-63.0480341723
 20
-7.7199928917
 11
-63.0480341723
 21
-8.3217547912
  0
LINE
  5
2B3
100
AcDbEntity
  8
0
100
AcDbLine
 62
7
  6
CONTINUOUS
 10
-62.9980341723
 20
-7.7092199657
 11
-62.9980341723
 21
-8.3217547912
  0
LINE
  5
2B4
100
AcDbEntity
  8
0
100
AcDbLine
 62
7
  6
CONTINUOUS
 10
-62.8980341723
 20
-9.7217547912
 11
-62.8980341723
 21
-8.3217547912
  0
LINE
  5
2B5
100
AcDbEntity
  8
ASSI
100
AcDbLine
 62
7
  6
CONTINUOUS
 10
-63.5406461723
 20
16.7531492088
 11
-63.5405511723
 21
18.3965182088
  0
LINE
  5
2B6
100
AcDbEntity
  8
0
100
AcDbLine
 62
250
  6
CONTINUOUS
 10
-62.9814129909
 20
-9.721801503
 11
-63.0823069822
 21
-27.3304809944
  0
LINE
  5
2B7
100
AcDbEntity
  8
ASSI
100
AcDbLine
 62
250
  6
CONTINUOUS
 10
-62.2034707576
 20
-8.3217547912
 11
-62.3116140914
 21
-27.3304809944
  0
LWPOLYLINE
  5
2B8
100
AcDbEntity
  8
ASSI
100
AcDbPolyline
 62
250
  6
CONTINUOUS
 90
157
 70
0
 10
-58.2072437778
 20
15.4560513658
 10
-58.1550833871
 20
15.5931219423
 10
-58.1052356296
 20
15.7314108686
 10
-58.0577005054
 20
15.8709150941
 10
-58.0124911038
 20
16.0116133135
 10
-57.9695943355
 20
16.1535196168
 10
-57.9289709323
 20
16.2966841693
 10
-57.8906077653
 20
16.441135726
 10
-57.8545179633
 20
16.5868378464
 10
-57.8207016442
 20
16.7337425057
 10
-57.7891565861
 20
16.8818572208
 10
-57.7598850108
 20
17.0311635102
 10
-57.7328937018
 20
17.1815725172
 10
-57.7081859064
 20
17.3330559578
 10
-57.6857583772
 20
17.4856271619
 10
-57.6656081559
 20
17.6392581732
 10
-57.6477328194
 20
17.793939155
 10
-57.6321347907
 20
17.9496626966
 10
-57.6188183804
 20
18.1064036474
 10
-57.6077809387
 20
18.2641735199
 10
-57.5990251154
 20
18.422941333
 10
-57.59256317
 20
18.5826169345
 10
-57.5883960782
 20
18.7431973284
 10
-57.5865228643
 20
18.9046627671
 10
-57.5869528607
 20
19.0668961789
 10
-57.5896876391
 20
19.2298845271
 10
-57.5947256278
 20
19.3936149067
 10
-57.6020714445
 20
19.5579687123
 10
-57.6117261368
 20
19.7229305481
 10
-57.623688657
 20
19.8884872141
 10
-57.6379604802
 20
20.0545219486
 10
-57.6545440111
 20
20.2210292347
 10
-57.6734368449
 20
20.3879839395
 10
-57.6946332427
 20
20.5552385898
 10
-57.7181413961
 20
20.7228055362
 10
-57.7439531135
 20
20.8906400737
 10
-57.7720380807
 20
21.0585077774
 10
-57.802404153
 20
21.2263966198
 10
-57.8350434752
 20
21.3942847783
 10
-57.8699021672
 20
21.5619219611
 10
-57.9069780983
 20
21.7292588493
 10
-57.9462733992
 20
21.8963105937
 10
-57.9877405831
 20
22.0629231585
 10
-58.0313748006
 20
22.2290590848
 10
-58.0771809011
 20
22.3947228066
 10
-58.1251259454
 20
22.5598233122
 10
-58.1752088944
 20
22.7243452448
 10
-58.2274307872
 20
22.8882727376
 10
-58.2817618011
 20
23.0515144808
 10
-58.3382016841
 20
23.2140576687
 10
-58.3967506883
 20
23.3758860194
 10
-58.4573797466
 20
23.5369036626
 10
-58.520086917
 20
23.6970943953
 10
-58.5848741415
 20
23.8564478238
 10
-58.6517181799
 20
24.0148776156
 10
-58.7206149694
 20
24.1723659584
 10
-58.7915685728
 20
24.32890684
 10
-58.8645679379
 20
24.4844325502
 10
-58.9396114413
 20
24.6389333688
 10
-59.0167007065
 20
24.7923980769
 10
-59.0958295519
 20
24.9447577165
 10
-59.1769997749
 20
25.0960092506
 10
-59.2602095781
 20
25.2461378145
 10
-59.3454473885
 20
25.3950578808
 10
-59.4327104023
 20
25.5427591144
 10
-59.5220014233
 20
25.6892373036
 10
-59.6133172891
 20
25.8344174163
 10
-59.7066520098
 20
25.9782877926
 10
-59.8020115754
 20
26.1208489415
 10
-59.8994107926
 20
26.2620453507
 10
-59.9988471611
 20
26.4018737901
 10
-60.1003231813
 20
26.5403295636
 10
-60.2038611614
 20
26.6773562005
 10
-60.309456949
 20
26.8129505879
 10
-60.4171146965
 20
26.9471111727
 10
-60.5268691698
 20
27.0797850989
 10
-60.6387194295
 20
27.2109751605
 10
-60.752666415
 20
27.3406770595
 10
-60.8687477113
 20
27.4688286567
 10
-60.9869689967
 20
27.5954400626
 10
-61.1073245928
 20
27.7205028851
 10
-61.2298350497
 20
27.8439288714
 10
-61.3544950466
 20
27.9657180364
 10
-61.4813099043
 20
28.085875706
 10
-61.6103161342
 20
28.2043233947
 10
-61.7415083677
 20
28.3210646491
 10
-61.8748919736
 20
28.4361046082
 10
-62.0105195694
 20
28.5493689028
 10
-62.148398947
 20
28.6608733212
 10
-62.2885223146
 20
28.77061386
 10
-62.4309189147
 20
28.878488385
 10
-62.575587143
 20
28.9845059441
 10
-62.7225286037
 20
29.0886727262
 10
-62.8717773523
 20
29.1908844563
 10
-63.0233463933
 20
29.2911605253
 10
-63.1772227222
 20
29.3894999382
 10
-63.333401381
 20
29.4857701977
 10
-63.4919560244
 20
29.5800184332
 10
-63.6528129976
 20
29.6722191101
 10
-63.8157463783
 20
29.762134087
 10
-63.9808083551
 20
29.8497839182
 10
-64.1479467394
 20
29.9351743516
 10
-64.3167790423
 20
30.0180492038
 10
-64.4872921275
 20
30.0983951949
 10
-64.6594991314
 20
30.1762561515
 10
-64.8330569733
 20
30.2514648781
 10
-65.0079052232
 20
30.3239999038
 10
-65.1841043112
 20
30.3939149961
 10
-65.361492447
 20
30.461157303
 10
-65.5400595598
 20
30.525735168
 10
-65.7198157205
 20
30.5876715644
 10
-65.9006293516
 20
30.6469358314
 10
-66.0825045676
 20
30.7035415768
 10
-66.2654372541
 20
30.7575046426
 10
-66.4492834897
 20
30.8087975761
 10
-66.6340441884
 20
30.8574316377
 10
-66.8197184362
 20
30.9034224964
 10
-67.0061595705
 20
30.9467489082
 10
-67.1933673361
 20
30.9874205604
 10
-67.3813419881
 20
31.0254515142
 10
-67.5699376288
 20
31.0608264341
 10
-67.7591535485
 20
31.0935534463
 10
-67.9489904569
 20
31.1236444272
 10
-68.139304585
 20
31.1510888072
 10
-68.3300963986
 20
31.1758930477
 10
-68.5213654319
 20
31.1980664882
 10
-68.7129665186
 20
31.2176018599
 10
-68.9048991418
 20
31.2345034003
 10
-69.0971638184
 20
31.2487781268
 10
-69.289616933
 20
31.2604218107
 10
-69.4822585378
 20
31.2694364843
 10
-69.6750885806
 20
31.2758265822
 10
-69.8679632884
 20
31.2795902762
 10
-70.0608825868
 20
31.280727178
 10
-70.2538465503
 20
31.279239219
 10
-70.446711629
 20
31.2751268154
 10
-70.6394778658
 20
31.2683870932
 10
-70.8321452179
 20
31.2590195136
 10
-71.024570007
 20
31.247026768
 10
-71.2167524772
 20
31.2324034375
 10
-71.4086923843
 20
31.2151466435
 10
-71.6002453175
 20
31.1952617082
 10
-71.7914110088
 20
31.1727407859
 10
-71.9821897262
 20
31.1475787159
 10
-72.1724378636
 20
31.1197837555
 10
-72.3621567804
 20
31.0893453331
 10
-72.5513451171
 20
31.0562565838
 10
-72.7398551887
 20
31.0205303641
 10
-72.9276846518
 20
30.9821545863
 10
-73.1148358499
 20
30.941119867
 10
-73.3011681278
 20
30.8974423302
 10
-73.4866833347
 20
30.8511069287
 10
-73.6713796216
 20
30.802103678
 10
-73.8551107864
 20
30.7504557236
 10
-74.0378280951
 20
30.6961615383
 10
-74.2195802817
 20
30.6391947273
 10
-74.4003673462
 20
30.5795405618
  0
LWPOLYLINE
  5
2B9
100
AcDbEntity
  8
ASSI
100
AcDbPolyline
 62
250
  6
CONTINUOUS
 90
37
 70
0
 10
-57.3639417772
 20
15.047997567
 10
-57.4467485306
 20
14.872535256
 10
-57.5325669151
 20
14.6972276625
 10
-57.621403406
 20
14.5220747863
 10
-57.713220592
 20
14.3470637459
 10
-57.8080692758
 20
14.1722074229
 10
-57.9060888155
 20
13.9975444624
 10
-58.0072896626
 20
13.8230611049
 10
-58.1116764994
 20
13.64877111
 10
-58.2193809086
 20
13.4747544008
 10
-58.3304053375
 20
13.3010137794
 10
-58.4447641735
 20
13.1275464438
 10
-58.5626078677
 20
12.9544239107
 10
-58.6839372555
 20
12.7816497085
 10
-58.8087702657
 20
12.6092203089
 10
-58.9372841425
 20
12.4371966441
 10
-59.0694910743
 20
12.2655678627
 10
-59.2053998914
 20
12.0943448162
 10
-59.3451840872
 20
11.9236209907
 10
-59.4888601014
 20
11.7533848557
 10
-59.6364348534
 20
11.5836479418
 10
-59.7880688391
 20
11.414538327
 10
-59.9437615002
 20
11.2460643404
 10
-60.1035390568
 20
11.078217653
 10
-60.2676036202
 20
10.9111013554
 10
-60.4359396602
 20
10.7447327972
 10
-60.6085911126
 20
10.579094629
 10
-60.7858513331
 20
10.4142378928
 10
-60.967729262
 20
10.2501529598
 10
-61.1542481414
 20
10.0868494589
 10
-61.3457253968
 20
9.9244073191
 10
-61.5421829783
 20
9.7628048873
 10
-61.7436353216
 20
9.6020638165
 10
-61.9503913674
 20
9.442328995
 10
-62.1625681779
 20
9.2836487189
 10
-62.3800896603
 20
9.1259746922
 10
-62.6029766983
 20
8.9693069148
  0
LWPOLYLINE
  5
2BA
100
AcDbEntity
  8
ASSI
100
AcDbPolyline
 62
250
  6
CONTINUOUS
 90
37
 70
0
 10
-58.2072437778
 20
15.4560513658
 10
-58.2894200761
 20
15.2944802673
 10
-58.3745564289
 20
15.132998039
 10
-58.4626528361
 20
14.9716340625
 10
-58.5536590646
 20
14.810438393
 10
-58.6476253476
 20
14.6494208528
 10
-58.7447023843
 20
14.488552173
 10
-58.8448926263
 20
14.3278538685
 10
-58.9481936222
 20
14.16736953
 10
-59.0547487167
 20
14.0071052833
 10
-59.1645508348
 20
13.8471008953
 10
-59.2776070516
 20
13.6873855597
 10
-59.394081938
 20
13.5279517085
 10
-59.5139665531
 20
13.3688417989
 10
-59.6372698377
 20
13.2100872846
 10
-59.7641831852
 20
13.0516671262
 10
-59.8947074761
 20
12.8936142716
 10
-60.02884183
 20
12.7359759893
 10
-60.1667749986
 20
12.5787558722
 10
-60.3085100647
 20
12.4219893765
 10
-60.4540439455
 20
12.2657268451
 10
-60.6035561439
 20
12.1099964942
 10
-60.7570318079
 20
11.954854309
 10
-60.9144857895
 20
11.8003344485
 10
-61.0761421475
 20
11.6464351854
 10
-61.2419705992
 20
11.493225299
 10
-61.4120014274
 20
11.3407327324
 10
-61.5865495386
 20
11.1889003891
 10
-61.7656064147
 20
11.0377800444
 10
-61.9491805738
 20
10.8874284646
 10
-62.1376124766
 20
10.7378041306
 10
-62.3309004268
 20
10.5889581599
 10
-62.5290461207
 20
10.4409602121
 10
-62.7323951086
 20
10.2938040535
 10
-62.9410625739
 20
10.1475326812
 10
-63.1549333332
 20
10.0022353696
 10
-63.3740073865
 20
9.8579794555
  0
LWPOLYLINE
  5
2BB
100
AcDbEntity
  8
ASSI
100
AcDbPolyline
 62
7
  6
CONTINUOUS
 90
135
 70
0
 10
-57.3639417772
 20
15.047997567
 10
-57.3209270021
 20
15.055394626
 10
-57.2779115038
 20
15.0609422244
 10
-57.2348951107
 20
15.0646403622
 10
-57.1919225806
 20
15.0664889715
 10
-57.1489487863
 20
15.0664881202
 10
-57.105838853
 20
15.0646380126
 10
-57.0625936388
 20
15.060964165
 10
-57.0192121937
 20
15.055441061
 10
-56.9755571723
 20
15.0479923555
 10
-56.9316299659
 20
15.0386446609
 10
-56.8874293267
 20
15.0273713647
 10
-56.8428141833
 20
15.0140162843
 10
-56.797787607
 20
14.9986091792
 10
-56.7523468996
 20
14.9811202899
 10
-56.7063425659
 20
14.9613041561
 10
-56.6597671241
 20
14.9391873157
 10
-56.6126286738
 20
14.9147432308
 10
-56.5648012953
 20
14.8876468274
 10
-56.516276114
 20
14.8579215741
 10
-56.4670628132
 20
14.8255440023
 10
-56.417063455
 20
14.7901186327
 10
-56.3662844506
 20
14.7516824816
 10
-56.3147203195
 20
14.7101985328
 10
-56.2622554055
 20
14.6651602578
 10
-56.2088936396
 20
14.6166127234
 10
-56.154632175
 20
14.5645108629
 10
-56.0993453127
 20
14.5082129479
 10
-56.0430315157
 20
14.4477687771
 10
-55.9856935605
 20
14.3831285519
 10
-55.9272123162
 20
14.3135011484
 10
-55.8675629139
 20
14.2389103934
 10
-55.8067715853
 20
14.1593324601
 10
-55.7447958275
 20
14.0739047449
 10
-55.6815981007
 20
13.9826182816
 10
-55.6172172255
 20
13.8854820364
 10
-55.5517249816
 20
13.781660304
 10
-55.485107583
 20
13.6711679662
 10
-55.4173797009
 20
13.5539901412
 10
-55.3486553354
 20
13.4292464791
 10
-55.2789271418
 20
13.2969692129
 10
-55.2082028128
 20
13.1571261096
 10
-55.1366183219
 20
13.0087401201
 10
-55.0641630172
 20
12.8518524294
 10
-54.990847255
 20
12.6864218524
 10
-54.9168378296
 20
12.5113477854
 10
-54.8421195095
 20
12.3266840971
 10
-54.7667064628
 20
12.1323769187
 10
-54.6908087567
 20
11.9271640393
 10
-54.6144032846
 20
11.7111131971
 10
-54.5375111896
 20
11.484156654
 10
-54.460407922
 20
11.2448289843
 10
-54.3830594874
 20
10.9932181325
 10
-54.3054968796
 20
10.7292361541
 10
-54.2280918439
 20
10.4511537907
 10
-54.1507955329
 20
10.1590973736
 10
-54.0736526499
 20
9.8529405715
 10
-53.9971738676
 20
9.5305751317
 10
-53.9211768365
 20
9.1914868191
 10
-53.8458386246
 20
8.8361898688
 10
-53.7722074354
 20
8.4641187334
 10
-53.7000849062
 20
8.0739470035
 10
-53.6296631961
 20
7.6670010886
 10
-53.5625750708
 20
7.2466946697
 10
-53.4988937925
 20
6.8123563662
 10
-53.4385408191
 20
6.3646575586
 10
-53.3829213049
 20
5.9090260703
 10
-53.3322390943
 20
5.4456019005
 10
-53.2862887726
 20
4.97424505
 10
-53.2458628944
 20
4.4999633437
 10
-53.2111250826
 20
4.0228228641
 10
-53.1819152038
 20
3.5427575286
 10
-53.158541686
 20
3.0645769141
 10
-53.1411561298
 20
2.5884003375
 10
-53.1296152516
 20
2.1141084818
 10
-53.1237859665
 20
1.6461529732
 10
-53.1238013736
 20
1.1848136327
 10
-53.1295399214
 20
0.7298106393
 10
-53.1404860358
 20
0.2847561554
 10
-53.1567517484
 20
-0.1501441904
 10
-53.1782374761
 20
-0.5750960267
 10
-53.204108102
 20
-0.9871040764
 10
-53.2344608434
 20
-1.3859323715
 10
-53.2692092563
 20
-1.7718168799
 10
-53.3072390116
 20
-2.1424702287
 10
-53.3485438743
 20
-2.4972058973
 10
-53.3931367157
 20
-2.8367104062
 10
-53.4399275484
 20
-3.1607559438
 10
-53.4887979815
 20
-3.4686990543
 10
-53.5398688142
 20
-3.7611831933
 10
-53.5924056771
 20
-4.0399109164
 10
-53.6463361621
 20
-4.30486676
 10
-53.701732944
 20
-4.5560661876
 10
-53.7580775192
 20
-4.7952581451
 10
-53.8153390506
 20
-5.0225615374
 10
-53.8735473184
 20
-5.2378574597
 10
-53.9322735442
 20
-5.4425381437
 10
-53.991489064
 20
-5.6366595928
 10
-54.0512203808
 20
-5.8201658037
 10
-54.1111205337
 20
-5.9942809985
 10
-54.1711695322
 20
-6.1590543077
 10
-54.2313844489
 20
-6.3144366008
 10
-54.2914732229
 20
-6.461504708
 10
-54.3514191602
 20
-6.6002938296
 10
-54.4112355062
 20
-6.7307687654
 10
-54.4706745871
 20
-6.8539007454
 10
-54.5297195421
 20
-6.9697133867
 10
-54.5883834482
 20
-7.0781830721
 10
-54.6464631741
 20
-7.1802101803
 10
-54.703922192
 20
-7.2757903345
 10
-54.760793083
 20
-7.3649279114
 10
-54.8169762608
 20
-7.44853642
 10
-54.87243258
 20
-7.5266276373
 10
-54.9271974532
 20
-7.5991897865
 10
-54.9812833284
 20
-7.6671010459
 10
-55.0346791892
 20
-7.7304133663
 10
-55.0873928462
 20
-7.7890747971
 10
-55.1394653341
 20
-7.8438076652
 10
-55.1908940655
 20
-7.8946603496
 10
-55.2416789053
 20
-7.9415844712
 10
-55.2918648891
 20
-7.9851572203
 10
-55.3414378816
 20
-8.0254094216
 10
-55.3904096855
 20
-8.0623102503
 10
-55.4388645629
 20
-8.0963444213
 10
-55.4867916237
 20
-8.1275444932
 10
-55.5341998516
 20
-8.1558779075
 10
-55.5812036703
 20
-8.1817317031
 10
-55.6278003001
 20
-8.2051400086
 10
-55.6739910384
 20
-8.2260686954
 10
-55.7198967685
 20
-8.2448024174
 10
-55.7655157768
 20
-8.2613712543
 10
-55.8108486604
 20
-8.2757451263
 10
-55.8560200831
 20
-8.2881184473
 10
-55.9010286461
 20
-8.2985182755
 10
-55.9458749523
 20
-8.3069175527
  0
LWPOLYLINE
  5
2BC
100
AcDbEntity
  8
ASSI
100
AcDbPolyline
 62
7
  6
CONTINUOUS
 90
4
 70
0
 10
-82.9041137176
 20
15.0664883272
 10
-82.861149209
 20
15.0646388213
 10
-82.8181402142
 20
15.0609404184
 10
-82.7751316748
 20
15.055393199
  0
LWPOLYLINE
  5
2BD
100
AcDbEntity
  8
ASSI
100
AcDbPolyline
 62
250
  6
CONTINUOUS
 90
34
 70
0
 10
-62.6029745589
 20
8.9691949462
 10
-62.6190893923
 20
9.0020036955
 10
-62.6358770984
 20
9.034697788
 10
-62.6533018266
 20
9.0672553067
 10
-62.6713047492
 20
9.0996602227
 10
-62.6898698904
 20
9.1318861716
 10
-62.7090260765
 20
9.163895192
 10
-62.7287368097
 20
9.1956653246
 10
-62.7489626863
 20
9.2271762313
 10
-62.7697300472
 20
9.2583909525
 10
-62.7910010992
 20
9.2892882735
 10
-62.8127359363
 20
9.3198482707
 10
-62.8349590915
 20
9.350034842
 10
-62.8576313071
 20
9.3798278839
 10
-62.880712032
 20
9.4092082603
 10
-62.9042247201
 20
9.4381405541
 10
-62.9281284641
 20
9.4666061271
 10
-62.9523819082
 20
9.4945870006
 10
-62.9770082065
 20
9.5220482691
 10
-63.0019646279
 20
9.5489731258
 10
-63.0272088367
 20
9.5753451038
 10
-63.0527644798
 20
9.6011296078
 10
-63.0785868519
 20
9.62631204
 10
-63.1046324604
 20
9.6508777936
 10
-63.1309262109
 20
9.6747923412
 10
-63.1574213174
 20
9.6980436774
 10
-63.1840729685
 20
9.7206194089
 10
-63.2109080336
 20
9.7424848004
 10
-63.2378776523
 20
9.7636308484
 10
-63.2649355304
 20
9.7840477053
 10
-63.2921110002
 20
9.80370007
 10
-63.3193807025
 20
9.8225717838
 10
-63.3466691743
 20
9.8406663713
 10
-63.3739265715
 20
9.8579794555
  0
LINE
  5
2BE
100
AcDbEntity
  8
ASSI
100
AcDbLine
 62
7
  6
CONTINUOUS
 10
-65.8074161723
 20
16.7531492088
 11
-66.0757611723
 21
17.5889762088
  0
LINE
  5
2BF
100
AcDbEntity
  8
ASSI
100
AcDbLine
 62
7
  6
CONTINUOUS
 10
-66.3350531723
 20
18.3965072088
 11
-66.7470161723
 21
19.6796252088
  0
LINE
  5
2C0
100
AcDbEntity
  8
ASSI
100
AcDbLine
 62
7
  6
CONTINUOUS
 10
-64.9573731723
 20
16.7531392088
 11
-66.3219741723
 21
21.0033412088
  0
LWPOLYLINE
  5
2C1
100
AcDbEntity
  8
ASSI
100
AcDbPolyline
 62
250
  6
CONTINUOUS
 90
157
 70
0
 10
-57.418904076
 20
15.0577589621
 10
-57.3618371401
 20
15.2064542432
 10
-57.3072705576
 20
15.3564551792
 10
-57.2551846081
 20
15.5077611269
 10
-57.2055570368
 20
15.6603507883
 10
-57.1583714865
 20
15.8142441472
 10
-57.1136176852
 20
15.9695024407
 10
-57.0712623713
 20
16.1261633438
 10
-57.0313026644
 20
16.2841877281
 10
-56.9937736248
 20
16.4435216044
 10
-56.9586535367
 20
16.6041828182
 10
-56.9259281908
 20
16.7661520462
 10
-56.8956423917
 20
16.9293195991
 10
-56.8677814746
 20
17.0936658855
 10
-56.8423241502
 20
17.2592090564
 10
-56.8193039755
 20
17.4258960932
 10
-56.7987018764
 20
17.5937222326
 10
-56.7805023882
 20
17.7626907745
 10
-56.7647437241
 20
17.932760822
 10
-56.7514063704
 20
18.1039566737
 10
-56.7404771429
 20
18.2762525307
 10
-56.7320028097
 20
18.449532411
 10
-56.7259686357
 20
18.6238077796
 10
-56.7223580697
 20
18.7990657295
 10
-56.7212139826
 20
18.9751538456
 10
-56.722523629
 20
19.15207313
 10
-56.7262702551
 20
19.3298212479
 10
-56.732489757
 20
19.5082409308
 10
-56.7411703864
 20
19.6873320532
 10
-56.7522968316
 20
19.8670935352
 10
-56.7658990317
 20
20.0473668405
 10
-56.7819681227
 20
20.2281620427
 10
-56.8004889349
 20
20.4094680027
 10
-56.821481599
 20
20.5910945565
 10
-56.8449449104
 20
20.7730727439
 10
-56.8708594379
 20
20.9553706473
 10
-56.8992177069
 20
21.1377039416
 10
-56.9300211572
 20
21.3200821796
 10
-56.963251199
 20
21.5024952661
 10
-56.9988701902
 20
21.6846297627
 10
-57.0368713533
 20
21.8664513009
 10
-57.0772481878
 20
22.0479941086
 10
-57.1199637746
 20
22.2290479632
 10
-57.1650101702
 20
22.4095878816
 10
-57.2123865294
 20
22.5896389749
 10
-57.2620673058
 20
22.7690663786
 10
-57.3140509962
 20
22.947869461
 10
-57.3683349744
 20
23.1260491571
 10
-57.4248928736
 20
23.3034731247
 10
-57.4837263181
 20
23.4801426848
 10
-57.544834035
 20
23.6560570042
 10
-57.6081861632
 20
23.8310806839
 10
-57.673784727
 20
24.0052100959
 10
-57.7416323058
 20
24.178449549
 10
-57.8117006992
 20
24.3506757173
 10
-57.8839914992
 20
24.5218812773
 10
-57.9585117355
 20
24.6920744104
 10
-58.0352421911
 20
24.8611551941
 10
-58.1141885131
 20
25.0291229865
 10
-58.1953574766
 20
25.1959794284
 10
-58.2787323702
 20
25.3616281501
 10
-58.3643244739
 20
25.5260749428
 10
-58.4521384393
 20
25.6893151474
 10
-58.5421483409
 20
25.8512368537
 10
-58.6343622334
 20
26.0118362721
 10
-58.7287910781
 20
26.1711184789
 10
-58.8254139514
 20
26.3289849968
 10
-58.924236266
 20
26.4854278854
 10
-59.0252743795
 20
26.6404565011
 10
-59.128524444
 20
26.7939984181
 10
-59.2339970056
 20
26.946053643
 10
-59.3417058336
 20
27.0966236703
 10
-59.4516526088
 20
27.2456383929
 10
-59.5638471933
 20
27.3930962333
 10
-59.6783062607
 20
27.539000349
 10
-59.79504244
 20
27.6832878133
 10
-59.9140693609
 20
27.8259611502
 10
-60.0354019067
 20
27.9670194758
 10
-60.1590553591
 20
28.1063948249
 10
-60.2850519038
 20
28.2440967753
 10
-60.4133995339
 20
28.3801174458
 10
-60.5440929026
 20
28.5143627698
 10
-60.6771427851
 20
28.6468291336
 10
-60.812569588
 20
28.7775219307
 10
-60.950383008
 20
28.9063606954
 10
-61.0905932018
 20
29.0333431472
 10
-61.2332219563
 20
29.1584733963
 10
-61.3782971605
 20
29.2816806353
 10
-61.5258440184
 20
29.4029749424
 10
-61.6758698646
 20
29.5223480923
 10
-61.8283764787
 20
29.6397018979
 10
-61.9833787807
 20
29.7550371178
 10
-62.1408941708
 20
29.8683548915
 10
-62.3009287134
 20
29.9795576857
 10
-62.4635103249
 20
30.088654467
 10
-62.6286428343
 20
30.1956381878
 10
-62.7962965321
 20
30.300387381
 10
-62.9665647354
 20
30.402940392
 10
-63.1393846146
 20
30.503260812
 10
-63.3144909698
 20
30.6011151795
 10
-63.4919517774
 20
30.6965105662
 10
-63.6717249103
 20
30.7894419427
 10
-63.8533762259
 20
30.8796578733
 10
-64.0368995635
 20
30.9671267395
 10
-64.2223199496
 20
31.051882274
 10
-64.4092451473
 20
31.13377119
 10
-64.5976126974
 20
31.2127521559
 10
-64.7874973915
 20
31.2888685544
 10
-64.9787089645
 20
31.362094189
 10
-65.1712380347
 20
31.4324220007
 10
-65.3651022302
 20
31.4998609078
 10
-65.5601490285
 20
31.5644086378
 10
-65.7563832787
 20
31.6260655194
 10
-65.953804717
 20
31.6848328735
 10
-66.1522506751
 20
31.740709864
 10
-66.3517210111
 20
31.7936958945
 10
-66.5522169379
 20
31.8437929962
 10
-66.7535755414
 20
31.8910042206
 10
-66.9557940403
 20
31.9353291827
 10
-67.1588731481
 20
31.9767694806
 10
-67.362653205
 20
32.0153310833
 10
-67.5671298135
 20
32.0510140878
 10
-67.7723026278
 20
32.0838193845
 10
-67.9780164156
 20
32.1137540735
 10
-68.1842672606
 20
32.140818823
 10
-68.3910521773
 20
32.1650137243
 10
-68.5982160399
 20
32.1863449546
 10
-68.8057533275
 20
32.2048132694
 10
-69.0136610299
 20
32.2204184441
 10
-69.2217868722
 20
32.2331651278
 10
-69.4301257168
 20
32.243054265
 10
-69.6386731116
 20
32.2500852133
 10
-69.8472772862
 20
32.2542601839
 10
-70.0559330272
 20
32.255580096
 10
-70.2646354774
 20
32.2540441037
 10
-70.4732332737
 20
32.2496517143
 10
-70.6817216831
 20
32.2424037153
 10
-70.8900954731
 20
32.2322991637
 10
-71.098202802
 20
32.2193349133
 10
-71.3060398028
 20
32.2035114637
 10
-71.5136010662
 20
32.1848279311
 10
-71.7207331009
 20
32.1632790366
 10
-71.9274324018
 20
32.1388649731
 10
-72.1336944641
 20
32.1115849348
 10
-72.3393653455
 20
32.081432086
 10
-72.5444445032
 20
32.0484057775
 10
-72.7489262858
 20
32.0125058171
 10
-72.9526505148
 20
31.9737259958
 10
-73.1556140719
 20
31.9320658776
 10
-73.3578162541
 20
31.8875248299
 10
-73.5591022724
 20
31.8400962909
 10
-73.7594751725
 20
31.78977815
 10
-73.9589308883
 20
31.7365712238
 10
-74.1573060462
 20
31.680473284
 10
-74.3545473833
 20
31.6214830831
 10
-74.5507106629
 20
31.5596003551
 10
-74.7457973678
 20
31.4948242893
  0
LINE
  5
2C2
100
AcDbEntity
  8
ASSI
100
AcDbLine
 62
7
  6
CONTINUOUS
 10
-61.9468221723
 20
16.7531492088
 11
-60.9893931723
 21
16.7531602088
  0
LINE
  5
2C3
100
AcDbEntity
  8
ASSI
100
AcDbLine
 62
7
  6
CONTINUOUS
 10
-68.5366281723
 20
16.7531392088
 11
-67.6865961723
 21
16.7531492088
  0
LINE
  5
2C4
100
AcDbEntity
  8
ASSI
100
AcDbLine
 62
7
  6
CONTINUOUS
 10
-73.2607051723
 20
16.7531392088
 11
-72.4106731723
 21
16.7531392088
  0
LINE
  5
2C5
100
AcDbEntity
  8
ASSI
100
AcDbLine
 62
7
  6
CONTINUOUS
 10
-69.9533441723
 20
16.7531392088
 11
-69.1033121723
 21
16.7531392088
  0
LINE
  5
2C6
100
AcDbEntity
  8
ASSI
100
AcDbLine
 62
7
  6
CONTINUOUS
 10
-64.3906891723
 20
16.7531492088
 11
-63.5406461723
 21
16.7531492088
  0
LINE
  5
2C7
100
AcDbEntity
  8
ASSI
100
AcDbLine
 62
7
  6
CONTINUOUS
 10
-71.6070191723
 20
16.7531392088
 11
-70.7570081723
 21
16.7531492088
  0
LINE
  5
2C8
100
AcDbEntity
  8
ASSI
100
AcDbLine
 62
7
  6
CONTINUOUS
 10
-74.9607471723
 20
16.7531282088
 11
-74.1107151723
 21
16.7531392088
  0
LINE
  5
2C9
100
AcDbEntity
  8
ASSI
100
AcDbLine
 62
7
  6
CONTINUOUS
 10
-65.8074161723
 20
16.7531492088
 11
-64.9573731723
 21
16.7531392088
  0
LINE
  5
2CA
100
AcDbEntity
  8
ASSI
100
AcDbLine
 62
7
  6
CONTINUOUS
 10
-77.7420851723
 20
16.7531282088
 11
-76.8920221723
 21
16.7531392088
  0
LINE
  5
2CB
100
AcDbEntity
  8
ASSI
100
AcDbLine
 62
7
  6
CONTINUOUS
 10
-67.4182401723
 20
17.5889762088
 11
-66.0757611723
 21
17.5889762088
  0
LINE
  5
2CC
100
AcDbEntity
  8
ASSI
100
AcDbLine
 62
7
  6
CONTINUOUS
 10
-67.1589581723
 20
18.3965072088
 11
-66.3350531723
 21
18.3965072088
  0
LINE
  5
2CD
100
AcDbEntity
  8
ASSI
100
AcDbLine
 62
7
  6
CONTINUOUS
 10
-63.5405511723
 20
18.3965182088
 11
-62.7986601723
 21
18.3965072088
  0
LINE
  5
2CE
100
AcDbEntity
  8
ASSI
100
AcDbLine
 62
7
  6
CONTINUOUS
 10
-63.5523661723
 20
19.1828002088
 11
-62.5181851723
 21
19.1828002088
  0
LINE
  5
2CF
100
AcDbEntity
  8
ASSI
100
AcDbLine
 62
7
  6
CONTINUOUS
 10
-63.5523761723
 20
20.2170592088
 11
-62.5181851723
 21
20.2170592088
  0
LINE
  5
2D0
100
AcDbEntity
  8
ASSI
100
AcDbLine
 62
7
  6
CONTINUOUS
 10
-61.9468221723
 20
16.7531492088
 11
-62.7986601723
 21
18.3965072088
  0
LINE
  5
2D1
100
AcDbEntity
  8
ASSI
100
AcDbLine
 62
7
  6
CONTINUOUS
 10
-60.9893931723
 20
16.7531602088
 11
-61.8942085608
 21
18.4987338876
  0
LINE
  5
2D2
100
AcDbEntity
  8
ASSI
100
AcDbLine
 62
250
  6
CONTINUOUS
 10
-56.1250428454
 20
-8.3217547912
 11
-56.3350259516
 21
-27.3304809944
  0
LINE
  5
2D3
100
AcDbEntity
  8
ASSI
100
AcDbLine
 62
7
  6
CONTINUOUS
 10
-79.1066751723
 20
21.0033302088
 11
-78.2566331723
 21
21.0033302088
  0
LINE
  5
2D4
100
AcDbEntity
  8
ASSI
100
AcDbLine
 62
7
  6
CONTINUOUS
 10
-76.3774631723
 20
21.0033302088
 11
-75.5274211723
 21
21.0033302088
  0
LINE
  5
2D5
100
AcDbEntity
  8
ASSI
100
AcDbLine
 62
7
  6
CONTINUOUS
 10
-74.9607371723
 20
21.0033302088
 11
-74.1107051723
 21
21.0033302088
  0
LINE
  5
2D6
100
AcDbEntity
  8
ASSI
100
AcDbLine
 62
7
  6
CONTINUOUS
 10
-73.2607051723
 20
21.0033302088
 11
-71.9756851723
 21
21.0033302088
  0
LINE
  5
2D7
100
AcDbEntity
  8
ASSI
100
AcDbLine
 62
7
  6
CONTINUOUS
 10
-70.3883321723
 20
21.0033302088
 11
-69.1033121723
 21
21.0033302088
  0
LINE
  5
2D8
100
AcDbEntity
  8
ASSI
100
AcDbLine
 62
7
  6
CONTINUOUS
 10
-67.1720481723
 20
21.0033412088
 11
-66.3219741723
 21
21.0033412088
  0
LINE
  5
2D9
100
AcDbEntity
  8
ASSI
100
AcDbLine
 62
7
  6
CONTINUOUS
 10
-64.3906891723
 20
21.0033412088
 11
-62.4002021723
 21
21.0033412088
  0
LWPOLYLINE
  5
2DA
100
AcDbEntity
  8
ASSI
100
AcDbPolyline
 62
7
  6
CONTINUOUS
 90
16
 70
0
 10
-57.418904076
 20
15.0577589621
 10
-57.4163106725
 20
15.0559450064
 10
-57.4135391177
 20
15.054260205
 10
-57.4105894837
 20
15.0527045584
 10
-57.4074507654
 20
15.0512584648
 10
-57.4041341342
 20
15.0499415269
 10
-57.400672928
 20
15.0488125526
 10
-57.3970703714
 20
15.0478829804
 10
-57.3933234217
 20
15.0471413728
 10
-57.3894560045
 20
15.046612223
 10
-57.3854708701
 20
15.0463017415
 10
-57.381365461
 20
15.0462037183
 10
-57.3771557288
 20
15.0463240164
 10
-57.3728470543
 20
15.04666459
 10
-57.3684342563
 20
15.0472234846
 10
-57.3639174418
 20
15.0480006998
  0
LWPOLYLINE
  5
2DB
100
AcDbEntity
  8
ASSI
100
AcDbPolyline
 62
7
  6
CONTINUOUS
 90
25
 70
0
 10
-57.4189026516
 20
15.0577580969
 10
-57.4464810922
 20
15.0774040621
 10
-57.474712614
 20
15.096901006
 10
-57.5035731625
 20
15.116231585
 10
-57.5330384474
 20
15.1353779
 10
-57.5630830972
 20
15.1543235312
 10
-57.5936806923
 20
15.1730535328
 10
-57.6248052727
 20
15.1915509819
 10
-57.6564303415
 20
15.2097993592
 10
-57.6885280405
 20
15.2277845476
 10
-57.7210711831
 20
15.2454901584
 10
-57.7540321117
 20
15.2629002636
 10
-57.7873817354
 20
15.2800017149
 10
-57.8210918596
 20
15.2967787617
 10
-57.8551338739
 20
15.3132162016
 10
-57.8894776457
 20
15.3293020413
 10
-57.924094253
 20
15.3450211353
 10
-57.9589542914
 20
15.3603592693
 10
-57.994026602
 20
15.3753062257
 10
-58.0292807129
 20
15.3898501129
 10
-58.0646877063
 20
15.403975252
 10
-58.1002185434
 20
15.4176662243
 10
-58.1358435164
 20
15.4309094165
 10
-58.1715322819
 20
15.4436930101
 10
-58.20725474
 20
15.4560048434
  0
LINE
  5
2DC
100
AcDbEntity
  8
ASSI
100
AcDbLine
 62
7
  6
CONTINUOUS
 10
-48.3798327223
 20
-27.3304809944
 11
-48.0480341723
 21
-8.3217547912
  0
LINE
  5
2DD
100
AcDbEntity
  8
ASSI
100
AcDbLine
 62
250
  6
CONTINUOUS
 10
-86.5644643712
 20
34.0440627037
 11
-53.5316039733
 21
34.0440627037
  0
LINE
  5
2DE
100
AcDbEntity
  8
ASSI
100
AcDbLine
 62
250
  6
CONTINUOUS
 10
-84.2729667763
 20
36.2176593616
 11
-55.8231015682
 21
36.2176593616
  0
LINE
  5
2DF
100
AcDbEntity
  8
ASSI
100
AcDbLine
 62
250
  6
CONTINUOUS
 10
-76.2347768665
 20
37.4043107427
 11
-63.861291478
 21
37.4043107427
  0
LINE
  5
2E0
100
AcDbEntity
  8
ASSI
100
AcDbLine
 62
250
  6
CONTINUOUS
 10
-76.0980341723
 20
37.5537237402
 11
-63.9980341723
 21
37.5537237402
  0
LINE
  5
2E1
100
AcDbEntity
  8
ASSI
100
AcDbLine
 62
250
  6
CONTINUOUS
 10
-63.9980341723
 20
38.3798092392
 11
-76.0980341723
 21
38.3798092392
  0
LINE
  5
2E2
100
AcDbEntity
  8
ASSI
100
AcDbLine
 62
250
  6
CONTINUOUS
 10
-64.6296131196
 20
39.1618797916
 11
-75.4664552249
 21
39.1618797916
  0
LINE
  5
2E3
100
AcDbEntity
  8
ASSI
100
AcDbLine
 62
250
  6
CONTINUOUS
 10
-64.7480341723
 20
39.3085180202
 11
-75.3480341723
 21
39.3085180202
  0
LINE
  5
2E4
100
AcDbEntity
  8
ASSI
100
AcDbLine
 62
250
  6
CONTINUOUS
 10
-64.7480341723
 20
39.8782452088
 11
-75.3480341723
 21
39.8782452088
  0
LINE
  5
2E5
100
AcDbEntity
  8
ASSI
100
AcDbLine
 62
7
  6
CONTINUOUS
 10
-65.5480348743
 20
40.6782452088
 11
-74.5480335099
 21
40.6782452088
  0
LWPOLYLINE
  5
2E6
100
AcDbEntity
  8
0
100
AcDbPolyline
 62
7
  6
CONTINUOUS
 90
3
 70
0
 43
0.3500000006
 10
-68.548035965
 20
50.0711016998
 10
-70.0480364227
 20
50.0711016998
 10
-69.4051784363
 20
52.4282446289
  0
LWPOLYLINE
  5
2E7
100
AcDbEntity
  8
0
100
AcDbPolyline
 62
7
  6
CONTINUOUS
 90
3
 70
0
 43
0.3500000006
 10
-70.905178894
 20
50.0711016998
 10
-72.4051748199
 20
50.0711016998
 10
-71.7623213654
 20
52.4282446289
  0
LWPOLYLINE
  5
2E8
100
AcDbEntity
  8
ASSI
100
AcDbPolyline
 62
250
  6
CONTINUOUS
 90
5
 70
0
 10
21.6682014499
 20
-27.3304809944
 10
21.6677456531
 20
-27.3305535966
 10
21.6663812478
 20
-27.3306201828
 10
21.6641092312
 20
-27.330680633
 10
21.6609312605
 20
-27.3307347847
  0
LWPOLYLINE
  5
2E9
100
AcDbEntity
  8
ASSI
100
AcDbPolyline
 62
250
  6
CONTINUOUS
 90
43
 70
0
 10
16.3898267467
 20
-27.8217547912
 10
16.4041413036
 20
-27.8214128695
 10
16.4184362827
 20
-27.8203875721
 10
16.4326921329
 20
-27.8186803012
 10
16.4468893567
 20
-27.8162933918
 10
16.4610085368
 20
-27.8132301085
 10
16.4750303624
 20
-27.8094946409
 10
16.4889356562
 20
-27.805092098
 10
16.5027054001
 20
-27.800028501
 10
16.5163207614
 20
-27.7943107754
 10
16.5297631184
 20
-27.7879467411
 10
16.5430140864
 20
-27.7809451023
 10
16.5560555421
 20
-27.773315435
 10
16.5688696488
 20
-27.7650681741
 10
16.5814388809
 20
-27.7562145993
 10
16.5937460477
 20
-27.7467668196
 10
16.6057743167
 20
-27.7367377565
 10
16.6175072371
 20
-27.7261411267
 10
16.6289287619
 20
-27.714991423
 10
16.64002327
 20
-27.7033038947
 10
16.6507755877
 20
-27.6910945267
 10
16.6611710091
 20
-27.6783800177
 10
16.6711953165
 20
-27.665177757
 10
16.6808347998
 20
-27.6515058012
 10
16.6900762752
 20
-27.6373828493
 10
16.6989071033
 20
-27.6228282171
 10
16.7073152063
 20
-27.6078618107
 10
16.7152890845
 20
-27.5925040995
 10
16.7228178322
 20
-27.576776088
 10
16.7298911523
 20
-27.5606992872
 10
16.7364993708
 20
-27.5442956852
 10
16.7426334498
 20
-27.5275877169
 10
16.7482849996
 20
-27.5105982336
 10
16.7534462908
 20
-27.4933504716
 10
16.7581102644
 20
-27.4758680205
 10
16.7622705414
 20
-27.4581747907
 10
16.765921432
 20
-27.4402949811
 10
16.7690579428
 20
-27.4222530456
 10
16.771675784
 20
-27.40407366
 10
16.7737713754
 20
-27.3857816879
 10
16.7753418508
 20
-27.3674021471
 10
16.7763850622
 20
-27.348960175
 10
16.7768995829
 20
-27.3304809944
  0
LWPOLYLINE
  5
2EA
100
AcDbEntity
  8
ASSI
100
AcDbPolyline
 62
250
  6
CONTINUOUS
 90
43
 70
0
 10
21.0125039523
 20
-27.8217547912
 10
21.0273914454
 20
-27.8214128695
 10
21.0422585771
 20
-27.820387572
 10
21.0570850139
 20
-27.8186803011
 10
21.0718504777
 20
-27.8162933917
 10
21.086534774
 20
-27.8132301083
 10
21.1011178194
 20
-27.8094946407
 10
21.1155796687
 20
-27.8050920977
 10
21.1299005428
 20
-27.8000285006
 10
21.144060855
 20
-27.7943107749
 10
21.1580412387
 20
-27.7879467405
 10
21.1718225729
 20
-27.7809451016
 10
21.1853860092
 20
-27.7733154342
 10
21.1987129969
 20
-27.7650681732
 10
21.211785309
 20
-27.7562145984
 10
21.2245850666
 20
-27.7467668186
 10
21.2370947637
 20
-27.7367377554
 10
21.2492972908
 20
-27.7261411255
 10
21.2611759589
 20
-27.7149914217
 10
21.2727145215
 20
-27.7033038934
 10
21.2838971976
 20
-27.6910945254
 10
21.2947086927
 20
-27.6783800163
 10
21.3051342201
 20
-27.6651777556
 10
21.3151595209
 20
-27.6515057998
 10
21.3247708837
 20
-27.6373828479
 10
21.3339551631
 20
-27.6228282157
 10
21.342699798
 20
-27.6078618093
 10
21.3509928283
 20
-27.5925040981
 10
21.3588229119
 20
-27.5767760866
 10
21.3661793395
 20
-27.5606992859
 10
21.3730520501
 20
-27.5442956839
 10
21.3794316437
 20
-27.5275877157
 10
21.3853093951
 20
-27.5105982325
 10
21.3906772655
 20
-27.4933504706
 10
21.3955279132
 20
-27.4758680195
 10
21.3998547041
 20
-27.4581747899
 10
21.4036517204
 20
-27.4402949804
 10
21.4069137692
 20
-27.422253045
 10
21.4096363887
 20
-27.4040736595
 10
21.4118158555
 20
-27.3857816875
 10
21.4134491887
 20
-27.3674021468
 10
21.4145341543
 20
-27.3489601749
 10
21.4150692686
 20
-27.3304809944
  0
LINE
  5
2EB
100
AcDbEntity
  8
ASSI
100
AcDbLine
 62
250
  6
CONTINUOUS
 10
21.6609312605
 20
-27.3307347847
 11
21.651866992
 21
-27.3308241335
  0
LINE
  5
2EC
100
AcDbEntity
  8
ASSI
100
AcDbLine
 62
250
  6
CONTINUOUS
 10
21.651866992
 20
-27.3308241335
 11
21.6230061242
 21
-27.3309266485
  0
LINE
  5
2ED
100
AcDbEntity
  8
ASSI
100
AcDbLine
 62
7
  6
CONTINUOUS
 10
21.1682776023
 20
-27.8217547912
 11
-21.1682776023
 21
-27.8217547912
  0
LINE
  5
2EE
100
AcDbEntity
  8
ASSI
100
AcDbLine
 62
250
  6
CONTINUOUS
 10
21.6230061242
 20
-27.3309266485
 11
21.454349107
 21
-27.3306201852
  0
LINE
  5
2EF
100
AcDbEntity
  8
ASSI
100
AcDbLine
 62
250
  6
CONTINUOUS
 10
21.454349107
 20
-27.3306201852
 11
-21.639213283
 21
-27.330888154
  0
LWPOLYLINE
  5
2F0
100
AcDbEntity
  8
ASSI
100
AcDbPolyline
 62
250
  6
CONTINUOUS
 90
7
 70
0
 10
-21.639213283
 20
-27.330888154
 10
-21.6568495042
 20
-27.3307825962
 10
-21.6609311806
 20
-27.3307347873
 10
-21.6641091698
 20
-27.3306806356
 10
-21.6663812145
 20
-27.3306201852
 10
-21.6677456432
 20
-27.3305535981
 10
-21.6682014499
 20
-27.3304809944
  0
LWPOLYLINE
  5
2F1
100
AcDbEntity
  8
ASSI
100
AcDbPolyline
 62
250
  6
CONTINUOUS
 90
43
 70
0
 10
-21.0125039523
 20
-27.8217547912
 10
-21.0273914439
 20
-27.8214128696
 10
-21.0422585743
 20
-27.8203875723
 10
-21.0570850097
 20
-27.8186803017
 10
-21.0718504723
 20
-27.8162933927
 10
-21.0865347676
 20
-27.8132301098
 10
-21.1011178119
 20
-27.8094946428
 10
-21.1155796604
 20
-27.8050921004
 10
-21.1299005337
 20
-27.800028504
 10
-21.1440608453
 20
-27.7943107791
 10
-21.1580412284
 20
-27.7879467455
 10
-21.1718225622
 20
-27.7809451074
 10
-21.1853859981
 20
-27.7733154408
 10
-21.1987129856
 20
-27.7650681806
 10
-21.2117852976
 20
-27.7562146065
 10
-21.2245850552
 20
-27.7467668274
 10
-21.2370947523
 20
-27.7367377649
 10
-21.2492972796
 20
-27.7261411357
 10
-21.2611759479
 20
-27.7149914325
 10
-21.2727145108
 20
-27.7033039048
 10
-21.2838971872
 20
-27.6910945372
 10
-21.2947086827
 20
-27.6783800285
 10
-21.3051342106
 20
-27.6651777681
 10
-21.315159512
 20
-27.6515058125
 10
-21.3247708753
 20
-27.6373828607
 10
-21.3339551554
 20
-27.6228282285
 10
-21.3426997908
 20
-27.6078618221
 10
-21.3509928218
 20
-27.5925041107
 10
-21.358822906
 20
-27.576776099
 10
-21.3661793343
 20
-27.5606992979
 10
-21.3730520455
 20
-27.5442956954
 10
-21.3794316397
 20
-27.5275877267
 10
-21.3853093918
 20
-27.5105982428
 10
-21.3906772627
 20
-27.4933504802
 10
-21.395527911
 20
-27.4758680283
 10
-21.3998547023
 20
-27.4581747978
 10
-21.4036517191
 20
-27.4402949873
 10
-21.4069137682
 20
-27.4222530509
 10
-21.4096363881
 20
-27.4040736643
 10
-21.4118158552
 20
-27.3857816912
 10
-21.4134491885
 20
-27.3674021493
 10
-21.4145341543
 20
-27.3489601761
 10
-21.4150692686
 20
-27.3304809944
  0
LWPOLYLINE
  5
2F2
100
AcDbEntity
  8
ASSI
100
AcDbPolyline
 62
250
  6
CONTINUOUS
 90
43
 70
0
 10
-16.3898267467
 20
-27.8217547912
 10
-16.4041413038
 20
-27.8214128695
 10
-16.4184362831
 20
-27.820387572
 10
-16.4326921335
 20
-27.8186803011
 10
-16.4468893575
 20
-27.8162933916
 10
-16.4610085377
 20
-27.8132301083
 10
-16.4750303636
 20
-27.8094946406
 10
-16.4889356575
 20
-27.8050920976
 10
-16.5027054015
 20
-27.8000285005
 10
-16.5163207629
 20
-27.7943107747
 10
-16.52976312
 20
-27.7879467403
 10
-16.543014088
 20
-27.7809451014
 10
-16.5560555437
 20
-27.7733154339
 10
-16.5688696505
 20
-27.7650681729
 10
-16.5814388827
 20
-27.756214598
 10
-16.5937460494
 20
-27.7467668182
 10
-16.6057743184
 20
-27.736737755
 10
-16.6175072388
 20
-27.7261411251
 10
-16.6289287636
 20
-27.7149914213
 10
-16.6400232716
 20
-27.703303893
 10
-16.6507755892
 20
-27.6910945249
 10
-16.6611710105
 20
-27.6783800158
 10
-16.6711953179
 20
-27.6651777551
 10
-16.6808348011
 20
-27.6515057993
 10
-16.6900762764
 20
-27.6373828474
 10
-16.6989071045
 20
-27.6228282152
 10
-16.7073152074
 20
-27.6078618088
 10
-16.7152890855
 20
-27.5925040976
 10
-16.722817833
 20
-27.5767760861
 10
-16.7298911531
 20
-27.5606992854
 10
-16.7364993715
 20
-27.5442956835
 10
-16.7426334503
 20
-27.5275877153
 10
-16.7482850001
 20
-27.5105982321
 10
-16.7534462912
 20
-27.4933504702
 10
-16.7581102647
 20
-27.4758680192
 10
-16.7622705417
 20
-27.4581747896
 10
-16.7659214322
 20
-27.4402949801
 10
-16.7690579429
 20
-27.4222530448
 10
-16.7716757841
 20
-27.4040736593
 10
-16.7737713755
 20
-27.3857816874
 10
-16.7753418508
 20
-27.3674021467
 10
-16.7763850622
 20
-27.3489601748
 10
-16.7768995829
 20
-27.3304809944
  0
LINE
  5
2F3
100
AcDbEntity
  8
0
100
AcDbLine
 62
7
  6
CONTINUOUS
 10
-21.9728859769
 20
-9.7217547912
 11
-21.9978135022
 21
-8.3217547912
  0
LINE
  5
2F4
100
AcDbEntity
  8
0
100
AcDbLine
 62
7
  6
CONTINUOUS
 10
-21.9755620937
 20
-9.721801503
 11
-21.6682014499
 21
-27.3304809944
  0
LINE
  5
2F5
100
AcDbEntity
  8
ASSI
100
AcDbLine
 62
250
  6
CONTINUOUS
 10
-21.747432639
 20
-8.3217547912
 11
-21.4150692686
 21
-27.3304809944
  0
LINE
  5
2F6
100
AcDbEntity
  8
0
100
AcDbLine
 62
7
  6
CONTINUOUS
 10
-21.9728859769
 20
-7.9378578567
 11
-21.9728859769
 21
-7.7199928917
  0
LINE
  5
2F7
100
AcDbEntity
  8
ASSI
100
AcDbLine
 62
7
  6
CONTINUOUS
 10
-21.7320479927
 20
-3.8182321468
 11
-21.6576533357
 21
-2.7649070576
  0
LINE
  5
2F8
100
AcDbEntity
  8
ASSI
100
AcDbLine
 62
7
  6
CONTINUOUS
 10
-21.5860781341
 20
-1.7515015425
 11
-21.3467525281
 21
1.6370168729
  0
LINE
  5
2F9
100
AcDbEntity
  8
ASSI
100
AcDbLine
 62
7
  6
CONTINUOUS
 10
-21.3463754285
 20
1.6423560795
 11
-21.2388392406
 21
3.1649192496
  0
LINE
  5
2FA
100
AcDbEntity
  8
0
100
AcDbLine
 62
7
  6
CONTINUOUS
 10
-22.0
 20
-8.3217547912
 11
-21.9728859769
 21
-7.9378578567
  0
LINE
  5
2FB
100
AcDbEntity
  8
0
100
AcDbLine
 62
7
  6
CONTINUOUS
 10
-21.9574985249
 20
-7.7199928917
 11
-21.9555870782
 21
-7.6929294594
  0
LINE
  5
2FC
100
AcDbEntity
  8
ASSI
100
AcDbLine
 62
7
  6
CONTINUOUS
 10
-22.0
 20
-8.3217547912
 11
-20.778768029
 21
8.9691949462
  0
LINE
  5
2FD
100
AcDbEntity
  8
ASSI
100
AcDbLine
 62
250
  6
CONTINUOUS
 10
-21.7480270124
 20
-8.3217547912
 11
-20.5247028457
 21
8.9692709677
  0
LWPOLYLINE
  5
2FE
100
AcDbEntity
  8
ASSI
100
AcDbPolyline
 62
7
  6
CONTINUOUS
 90
13
 70
0
 10
-16.9767011281
 20
32.2555816654
 10
-16.9806007925
 20
32.239648234
 10
-16.9984523297
 20
32.1511191295
 10
-17.0101143191
 20
32.0615649284
 10
-17.0155306205
 20
31.9714178367
 10
-17.0146752359
 20
31.8811129089
 10
-17.0075524355
 20
31.7910859484
 10
-16.9941967349
 20
31.701771397
 10
-16.974672726
 20
31.6136002387
 10
-16.9490747641
 20
31.5269979257
 10
-16.9175265107
 20
31.4423823233
 10
-16.880180335
 20
31.3601616932
 10
-16.8372172569
 20
31.2807338827
  0
LINE
  5
2FF
100
AcDbEntity
  8
ASSI
100
AcDbLine
 62
7
  6
CONTINUOUS
 10
-16.516430199
 20
34.0440627037
 11
-16.9767014169
 21
32.2555817381
  0
LINE
  5
300
100
AcDbEntity
  8
ASSI
100
AcDbLine
 62
250
  6
CONTINUOUS
 10
-17.0337991215
 20
-8.3217547912
 11
-16.7768995829
 21
-27.3304809944
  0
LWPOLYLINE
  5
301
100
AcDbEntity
  8
ASSI
100
AcDbPolyline
 62
250
  6
CONTINUOUS
 90
106
 70
0
 10
-15.9562633902
 20
15.057758752
 10
-15.8831809775
 20
15.2078388736
 10
-15.8112213809
 20
15.3592144082
 10
-15.7404068045
 20
15.5118847085
 10
-15.6707679312
 20
15.665810233
 10
-15.6023152302
 20
15.8210292051
 10
-15.5350386344
 20
15.9776575598
 10
-15.468923541
 20
16.1357595541
 10
-15.4040183381
 20
16.2952694135
 10
-15.3404061843
 20
16.456107991
 10
-15.2780989769
 20
16.618285288
 10
-15.2171135943
 20
16.7817897899
 10
-15.1575402808
 20
16.9465101409
 10
-15.0993972522
 20
17.1124298805
 10
-15.0426896727
 20
17.2795639903
 10
-14.9874875276
 20
17.4478483409
 10
-14.9338026116
 20
17.617267307
 10
-14.8816403955
 20
17.7878350256
 10
-14.8310602651
 20
17.9595320324
 10
-14.7820559496
 20
18.1323968538
 10
-14.7346443406
 20
18.3063894067
 10
-14.6889184301
 20
18.4813723748
 10
-14.6448813737
 20
18.6573513057
 10
-14.6025342689
 20
18.8343191812
 10
-14.5619659294
 20
19.0121199742
 10
-14.5231775349
 20
19.1907546335
 10
-14.4861653833
 20
19.3702208517
 10
-14.4510096806
 20
19.5503578755
 10
-14.4177078956
 20
19.7311676376
 10
-14.3862529267
 20
19.9126469782
 10
-14.3567166792
 20
20.0946276789
 10
-14.3290927051
 20
20.2771167022
 10
-14.3033704767
 20
20.4601060132
 10
-14.2796142784
 20
20.6434050967
 10
-14.2578135536
 20
20.8270497388
 10
-14.2379544395
 20
21.0110032685
 10
-14.2200951012
 20
21.1949667722
 10
-14.20422847
 20
21.3789536897
 10
-14.1903305375
 20
21.562950054
 10
-14.1784336116
 20
21.7466162283
 10
-14.1685296464
 20
21.9299000181
 10
-14.1605900347
 20
22.1128535395
 10
-14.1546158918
 20
22.2952939468
 10
-14.1505888223
 20
22.4772056815
 10
-14.1484844337
 20
22.6586044509
 10
-14.1482941289
 20
22.8393545112
 10
-14.1499952321
 20
23.0194575238
 10
-14.1535615383
 20
23.1989121579
 10
-14.1589784938
 20
23.3775783604
 10
-14.166220857
 20
23.555455695
 10
-14.1752593521
 20
23.7325451271
 10
-14.1860729587
 20
23.9087088874
 10
-14.1986335099
 20
24.0839435734
 10
-14.2129094165
 20
24.2582533143
 10
-14.2288742875
 20
24.4315118123
 10
-14.2464959381
 20
24.6037095407
 10
-14.265741844
 20
24.7748569365
 10
-14.2865847666
 20
24.944857795
 10
-14.3089904583
 20
25.1137135837
 10
-14.3329231764
 20
25.281423881
 10
-14.3583530104
 20
25.4478897768
 10
-14.3852451752
 20
25.613119597
 10
-14.4135593708
 20
25.7771061988
 10
-14.4432574358
 20
25.9397276127
 10
-14.474299523
 20
26.1009746444
 10
-14.5066463355
 20
26.2608578425
 10
-14.540260698
 20
26.4192849887
 10
-14.5750992634
 20
26.5762491202
 10
-14.6111216034
 20
26.7317586725
 10
-14.6482944844
 20
26.8857446256
 10
-14.6865740208
 20
27.0382112802
 10
-14.7259148487
 20
27.1891558873
 10
-14.7662808541
 20
27.3384989427
 10
-14.8076219007
 20
27.4862329206
 10
-14.8498938584
 20
27.6323669919
 10
-14.8930684703
 20
27.7768467758
 10
-14.9370966678
 20
27.9196809862
 10
-14.9819264881
 20
28.0608625978
 10
-15.0275238743
 20
28.200313695
 10
-15.0738388888
 20
28.3380442418
 10
-15.1208142959
 20
28.474046031
 10
-15.1684046475
 20
28.6082139896
 10
-15.2165496538
 20
28.7405363922
 10
-15.2651980569
 20
28.8710268167
 10
-15.314317045
 20
28.9996182334
 10
-15.363847036
 20
29.1263151443
 10
-15.4137284945
 20
29.2511149257
 10
-15.4639265702
 20
29.3739399267
 10
-15.5143839835
 20
29.4948053629
 10
-15.5650309966
 20
29.6136979243
 10
-15.6158134684
 20
29.7304972611
 10
-15.666658656
 20
29.8451888014
 10
-15.7175084349
 20
29.9577890915
 10
-15.7683293239
 20
30.06822454
 10
-15.8190665241
 20
30.1765273982
 10
-15.8696330469
 20
30.2826673674
 10
-15.9199483331
 20
30.3864771252
 10
-15.9699675746
 20
30.4879865114
 10
-16.0195932484
 20
30.587167701
 10
-16.0686794524
 20
30.6837670386
 10
-16.1171912638
 20
30.7777942885
 10
-16.1650374234
 20
30.869241806
 10
-16.2120171135
 20
30.9578300136
 10
-16.2580417701
 20
31.0434664979
 10
-16.3031133575
 20
31.1262458815
 10
-16.3471852318
 20
31.2061692081
  0
LWPOLYLINE
  5
302
100
AcDbEntity
  8
ASSI
100
AcDbPolyline
 62
250
  6
CONTINUOUS
 90
15
 70
0
 10
-20.778768029
 20
8.9691949462
 10
-20.7782573525
 20
8.9699619179
 10
-20.7768396183
 20
8.970660877
 10
-20.7745163087
 20
8.9712930568
 10
-20.7712877267
 20
8.9718619307
 10
-20.7671555226
 20
8.9723663855
 10
-20.7621247046
 20
8.9728017008
 10
-20.756197864
 20
8.9731711958
 10
-20.749377382
 20
8.9734761149
 10
-20.7416712245
 20
8.9737103725
 10
-20.7330834395
 20
8.9738782973
 10
-20.7236177468
 20
8.9739820782
 10
-20.7132847372
 20
8.9740140195
 10
-20.7020900128
 20
8.9739792579
 10
-20.6900387589
 20
8.9738810644
  0
LWPOLYLINE
  5
303
100
AcDbEntity
  8
ASSI
100
AcDbPolyline
 62
250
  6
CONTINUOUS
 90
34
 70
0
 10
-20.3357362081
 20
9.8579794555
 10
-20.3547939681
 20
9.8406663723
 10
-20.3731015109
 20
9.8225717859
 10
-20.3906547237
 20
9.803700073
 10
-20.4074629897
 20
9.7840477092
 10
-20.4235136514
 20
9.7636308531
 10
-20.4387689658
 20
9.7424848059
 10
-20.4532266379
 20
9.7206194151
 10
-20.4668881248
 20
9.6980436843
 10
-20.4797183152
 20
9.6747923486
 10
-20.4917170099
 20
9.6508778016
 10
-20.5028872094
 20
9.6263120484
 10
-20.5131961183
 20
9.6011296166
 10
-20.5226458807
 20
9.5753451129
 10
-20.5312413211
 20
9.5489731352
 10
-20.5389516511
 20
9.5220482787
 10
-20.5457816168
 20
9.4945870103
 10
-20.5517381241
 20
9.466606137
 10
-20.5567920328
 20
9.4381405639
 10
-20.5609509535
 20
9.4092082699
 10
-20.5642241279
 20
9.3798278932
 10
-20.5665836576
 20
9.3500348509
 10
-20.5680402824
 20
9.3198482792
 10
-20.5686058333
 20
9.2892882814
 10
-20.568253197
 20
9.2583909598
 10
-20.5669965055
 20
9.2271762381
 10
-20.5648504306
 20
9.1956653306
 10
-20.5617881493
 20
9.1638951973
 10
-20.5578274354
 20
9.1318861762
 10
-20.5529860511
 20
9.0996602265
 10
-20.5472369456
 20
9.0672553096
 10
-20.540584805
 20
9.0346977899
 10
-20.5330674119
 20
9.0020036964
 10
-20.5247085566
 20
8.9691949462
  0
LWPOLYLINE
  5
304
100
AcDbEntity
  8
ASSI
100
AcDbPolyline
 62
250
  6
CONTINUOUS
 90
40
 70
0
 10
-20.5247028457
 20
8.9692709677
 10
-20.3594296952
 20
9.1138483097
 10
-20.1969163614
 20
9.2592914518
 10
-20.0371850794
 20
9.405600394
 10
-19.8803105559
 20
9.5528144239
 10
-19.72626123
 20
9.7008942538
 10
-19.5748980879
 20
9.849722021
 10
-19.4262444823
 20
9.9992818689
 10
-19.2803148843
 20
10.149589654
 10
-19.1369541515
 20
10.3005750828
 10
-18.9961782621
 20
10.4522284387
 10
-18.8580043555
 20
10.6045594382
 10
-18.7222764311
 20
10.7575269377
 10
-18.5889943482
 20
10.9111385235
 10
-18.4581871528
 20
11.0653866093
 10
-18.3297404756
 20
11.2202072923
 10
-18.2036538501
 20
11.3756115341
 10
-18.0799533041
 20
11.531588373
 10
-17.9585626136
 20
11.6880410214
 10
-17.8394923095
 20
11.8449675392
 10
-17.7227547306
 20
12.0023698665
 10
-17.608275075
 20
12.1601570356
 10
-17.4960675281
 20
12.3183193926
 10
-17.3861383019
 20
12.4768665915
 10
-17.2783994233
 20
12.6357366271
 10
-17.1728596497
 20
12.7949244062
 10
-17.0695282603
 20
12.954435022
 10
-16.9683169238
 20
13.1142217494
 10
-16.8692282007
 20
13.2742881865
 10
-16.7722754283
 20
13.4346307353
 10
-16.6773854556
 20
13.5951918767
 10
-16.5845624226
 20
13.7559728408
 10
-16.4938162471
 20
13.9169723975
 10
-16.4050816155
 20
14.0781293378
 10
-16.3183689818
 20
14.2394325568
 10
-16.2336803169
 20
14.4008931593
 10
-16.1509368222
 20
14.5624832513
 10
-16.0701157445
 20
14.7241935348
 10
-15.9912506463
 20
14.8860333079
 10
-15.9143467035
 20
15.0480025704
  0
LWPOLYLINE
  5
305
100
AcDbEntity
  8
ASSI
100
AcDbPolyline
 62
7
  6
CONTINUOUS
 90
59
 70
0
 10
-13.4593115909
 20
7.6668956887
 10
-13.4822162624
 20
8.0736284591
 10
-13.5081052855
 20
8.4635406095
 10
-13.5369272382
 20
8.8353048791
 10
-13.5687265237
 20
9.1902485287
 10
-13.6025462727
 20
9.5290101587
 10
-13.6382751868
 20
9.8510773093
 10
-13.6760215647
 20
10.1569624402
 10
-13.7151610611
 20
10.4488415312
 10
-13.7556423862
 20
10.726862861
 10
-13.7975157628
 20
10.990878151
 10
-13.8403109338
 20
11.2426185451
 10
-13.8840019249
 20
11.4822123508
 10
-13.9286151868
 20
11.7095312605
 10
-13.9737605298
 20
11.9259214965
 10
-14.0194094605
 20
12.1314149902
 10
-14.0655922858
 20
12.32597981
 10
-14.1120081189
 20
12.5108663836
 10
-14.158638959
 20
12.6861207193
 10
-14.2055054717
 20
12.8516968087
 10
-14.2523655392
 20
13.0087070547
 10
-14.2992082509
 20
13.1571944363
 10
-14.3460477563
 20
13.2971159744
 10
-14.3926800965
 20
13.429455134
 10
-14.4390973863
 20
13.5542439304
 10
-14.4853111446
 20
13.6714503484
 10
-14.5311469495
 20
13.781961807
 10
-14.5765918312
 20
13.8857913281
 10
-14.6216626467
 20
13.98292589
 10
-14.6662299847
 20
14.0742138468
 10
-14.7102679584
 20
14.159653147
 10
-14.7538063813
 20
14.2392458421
 10
-14.7967993949
 20
14.313846442
 10
-14.8392252555
 20
14.383477199
 10
-14.8811093019
 20
14.4481158607
 10
-14.9224760233
 20
14.5085501796
 10
-14.9633179657
 20
14.5648263188
 10
-15.0036456324
 20
14.6168981151
 10
-15.0435100518
 20
14.6654148317
 10
-15.082911937
 20
14.7104233054
 10
-15.121853097
 20
14.7518766994
 10
-15.1603858278
 20
14.7902837661
 10
-15.19851178
 20
14.8256813534
 10
-15.2362313964
 20
14.8580326135
 10
-15.2735948455
 20
14.8877357552
 10
-15.3105948089
 20
14.9148158483
 10
-15.3472403579
 20
14.9392478231
 10
-15.3836059407
 20
14.9613546792
 10
-15.4196841902
 20
14.9811628999
 10
-15.4554838564
 20
14.998646002
 10
-15.4911032225
 20
15.0140475354
 10
-15.5265410619
 20
15.0273964524
 10
-15.5617995935
 20
15.0386638007
 10
-15.596981924
 20
15.0480062737
 10
-15.6320874301
 20
15.055450669
 10
-15.6671173783
 20
15.060970189
 10
-15.7021773867
 20
15.0646411339
 10
-15.7372671056
 20
15.066488817
 10
-15.7723872097
 20
15.0664879251
  0
LWPOLYLINE
  5
306
100
AcDbEntity
  8
ASSI
100
AcDbPolyline
 62
7
  6
CONTINUOUS
 90
10
 70
0
 10
-13.4566140605
 20
3.540705848
 10
-13.4370497479
 20
4.0210061637
 10
-13.4225685845
 20
4.4984215625
 10
-13.4133019011
 20
4.9730473015
 10
-13.4091069964
 20
5.4447881236
 10
-13.409757758
 20
5.9085334141
 10
-13.4154156299
 20
6.3644069366
 10
-13.4259051282
 20
6.8122849275
 10
-13.440496846
 20
7.2466854808
 10
-13.4593115909
 20
7.6668956887
  0
LINE
  5
307
100
AcDbEntity
  8
ASSI
100
AcDbLine
 62
7
  6
CONTINUOUS
 10
-13.4810763068
 20
3.0623454587
 11
-13.4566140605
 21
3.540705848
  0
LINE
  5
308
100
AcDbEntity
  8
ASSI
100
AcDbLine
 62
7
  6
CONTINUOUS
 10
21.5793143823
 20
-2.3654303218
 11
21.6291901377
 21
-2.3619076774
  0
LWPOLYLINE
  5
309
100
AcDbEntity
  8
ASSI
100
AcDbPolyline
 62
7
  6
CONTINUOUS
 90
67
 70
0
 10
-17.0337985652
 20
-8.3217547912
 10
-16.9971734538
 20
-8.3208693028
 10
-16.9603189532
 20
-8.3181014379
 10
-16.9232350122
 20
-8.3134511963
 10
-16.8859603675
 20
-8.3069563689
 10
-16.8484562142
 20
-8.2985791649
 10
-16.8106060388
 20
-8.288206212
 10
-16.7724111924
 20
-8.2758646304
 10
-16.7338699222
 20
-8.2615272999
 10
-16.6948607606
 20
-8.2449994876
 10
-16.655385008
 20
-8.2263112258
 10
-16.6154406615
 20
-8.2054324822
 10
-16.5749010043
 20
-8.1820784269
 10
-16.5337674296
 20
-8.1562835824
 10
-16.4920375349
 20
-8.1280134262
 10
-16.4495786155
 20
-8.0968795613
 10
-16.4063842978
 20
-8.0629143227
 10
-16.3624596223
 20
-8.0260853755
 10
-16.3176887461
 20
-7.9859073178
 10
-16.2720631162
 20
-7.9424111891
 10
-16.2255896909
 20
-7.8955659499
 10
-16.1781757137
 20
-7.8447930799
 10
-16.1298225136
 20
-7.7901392538
 10
-16.0805270011
 20
-7.7315577969
 10
-16.0301896654
 20
-7.6683301656
 10
-15.9788069785
 20
-7.6005082287
 10
-15.9263805396
 20
-7.5280401175
 10
-15.8728184479
 20
-7.450051681
 10
-15.8180920905
 20
-7.3665589667
 10
-15.7622280362
 20
-7.2775459273
 10
-15.7052172684
 20
-7.18209027
 10
-15.6470276576
 20
-7.0801854845
 10
-15.5876895196
 20
-6.9718380811
 10
-15.527287952
 20
-6.8561452982
 10
-15.4658117859
 20
-6.7331305772
 10
-15.4032710088
 20
-6.6027704766
 10
-15.33978316
 20
-6.4640919106
 10
-15.2753386589
 20
-6.3171301695
 10
-15.209946707
 20
-6.161849963
 10
-15.1437538854
 20
-5.9971723342
 10
-15.0767494
 20
-5.8231468188
 10
-15.0089446339
 20
-5.639723881
 10
-14.9405204682
 20
-5.445675957
 10
-14.8714593909
 20
-5.2410591618
 10
-14.8017806299
 20
-5.0258173804
 10
-14.7317214068
 20
-4.798554703
 10
-14.6612695103
 20
-4.5593955576
 10
-14.5904401822
 20
-4.3082155163
 10
-14.5195132579
 20
-4.0432453861
 10
-14.4484260358
 20
-3.7644679917
 10
-14.3772456083
 20
-3.4719005084
 10
-14.30644824
 20
-3.1638252691
 10
-14.2358674825
 20
-2.8395603182
 10
-14.1656757477
 20
-2.4997876114
 10
-14.0968597411
 20
-2.1448353488
 10
-14.0293597154
 20
-1.7740510682
 10
-13.9632429453
 20
-1.3880872318
 10
-13.8996885277
 20
-0.9892294256
 10
-13.8387594735
 20
-0.5772620704
 10
-13.780399964
 20
-0.1524007454
 10
-13.7256114738
 20
0.2824222258
 10
-13.6744657126
 20
0.7274273471
 10
-13.626895279
 20
1.1823941147
 10
-13.5836922968
 20
1.6437286931
 10
-13.5449409472
 20
2.1117090989
 10
-13.5105565166
 20
2.5860573156
 10
-13.4810763068
 20
3.0623454587
  0
LINE
  5
30A
100
AcDbEntity
  8
ASSI
100
AcDbLine
 62
7
  6
CONTINUOUS
 10
22.0
 20
-8.3217547912
 11
-21.9995482366
 21
-8.3217547912
  0
LINE
  5
30B
100
AcDbEntity
  8
0
100
AcDbLine
 62
7
  6
CONTINUOUS
 10
21.9728859769
 20
-7.7199928917
 11
21.9555870782
 21
-7.7199928917
  0
LINE
  5
30C
100
AcDbEntity
  8
0
100
AcDbLine
 62
7
  6
CONTINUOUS
 10
-21.9728859769
 20
-7.7199928917
 11
-21.9586868764
 21
-7.7199928917
  0
LWPOLYLINE
  5
30D
100
AcDbEntity
  8
ASSI
100
AcDbPolyline
 62
7
  6
CONTINUOUS
 90
135
 70
0
 10
17.0337985652
 20
-8.3217547912
 10
16.9971734541
 20
-8.3208693028
 10
16.9603189538
 20
-8.3181014379
 10
16.923235013
 20
-8.3134511964
 10
16.8859603687
 20
-8.3069563691
 10
16.8484562157
 20
-8.2985791652
 10
16.8106060405
 20
-8.2882062125
 10
16.7724111945
 20
-8.2758646311
 10
16.7338699246
 20
-8.2615273008
 10
16.6948607633
 20
-8.2449994888
 10
16.655385011
 20
-8.2263112273
 10
16.6154406649
 20
-8.205432484
 10
16.574901008
 20
-8.1820784292
 10
16.5337674337
 20
-8.1562835851
 10
16.4920375395
 20
-8.1280134293
 10
16.4495786205
 20
-8.096879565
 10
16.4063843031
 20
-8.0629143271
 10
16.3624596281
 20
-8.0260853805
 10
16.3176887524
 20
-7.9859073236
 10
16.2720631229
 20
-7.9424111957
 10
16.2255896981
 20
-7.8955659573
 10
16.1781757214
 20
-7.8447930884
 10
16.1298225219
 20
-7.7901392633
 10
16.0805270099
 20
-7.7315578076
 10
16.0301896748
 20
-7.6683301776
 10
15.9788069884
 20
-7.6005082422
 10
15.9263805501
 20
-7.5280401324
 10
15.8728184591
 20
-7.4500516977
 10
15.8180921024
 20
-7.3665589853
 10
15.7622280488
 20
-7.2775459478
 10
15.7052172817
 20
-7.1820902927
 10
15.6470276715
 20
-7.0801855095
 10
15.5876895343
 20
-6.9718381086
 10
15.5272879675
 20
-6.8561453284
 10
15.465811802
 20
-6.7331306102
 10
15.4032710257
 20
-6.6027705127
 10
15.3397831776
 20
-6.46409195
 10
15.2753386773
 20
-6.3171302124
 10
15.2099467261
 20
-6.1618500096
 10
15.1437539054
 20
-5.9971723848
 10
15.0767494206
 20
-5.8231468736
 10
15.0089446553
 20
-5.6397239403
 10
14.9405204904
 20
-5.445676021
 10
14.8714594138
 20
-5.241059231
 10
14.8017806535
 20
-5.0258174549
 10
14.7317214311
 20
-4.7985547833
 10
14.6612695351
 20
-4.559395644
 10
14.5904402077
 20
-4.3082156091
 10
14.519513284
 20
-4.0432454858
 10
14.4484260624
 20
-3.7644680988
 10
14.3772456355
 20
-3.4719006233
 10
14.3064482676
 20
-3.1638253923
 10
14.2358675104
 20
-2.8395604502
 10
14.1656757759
 20
-2.4997877526
 10
14.0968597694
 20
-2.1448354992
 10
14.0293597436
 20
-1.7740512278
 10
13.9632429732
 20
-1.3880874005
 10
13.899688555
 20
-0.9892296032
 10
13.8387595001
 20
-0.5772622567
 10
13.7803999897
 20
-0.1524009401
 10
13.7256114983
 20
0.282422023
 10
13.6744657357
 20
0.7274271365
 10
13.6268953006
 20
1.1823938965
 10
13.5836923167
 20
1.643728468
 10
13.5449409652
 20
2.1117088673
 10
13.5105565325
 20
2.5860570782
 10
13.4810763205
 20
3.0623452162
 10
13.4566140718
 20
3.5407056012
 10
13.4370497568
 20
4.0210059134
 10
13.4225685908
 20
4.4984213096
 10
13.4133019048
 20
4.973047047
 10
13.4091069974
 20
5.4447878683
 10
13.4097577562
 20
5.9085331591
 10
13.4154156254
 20
6.364406683
 10
13.425905121
 20
6.8122846764
 10
13.4404968363
 20
7.2466852335
 10
13.4593115788
 20
7.666895447
 10
13.482216248
 20
8.0736282242
 10
13.508105269
 20
8.4635403818
 10
13.5369272199
 20
8.835304659
 10
13.5687265036
 20
9.1902483166
 10
13.6025462511
 20
9.5290099544
 10
13.6382751638
 20
9.8510771123
 10
13.6760215403
 20
10.1569622503
 10
13.7151610354
 20
10.4488413483
 10
13.7556423594
 20
10.7268626847
 10
13.7975157349
 20
10.9908779812
 10
13.8403109049
 20
11.2426183816
 10
13.8840018951
 20
11.4822121935
 10
13.9286151562
 20
11.7095311094
 10
13.9737604985
 20
11.9259213513
 10
14.0194094285
 20
12.1314148508
 10
14.0655922532
 20
12.3259796763
 10
14.1120080858
 20
12.5108662555
 10
14.1586389253
 20
12.6861205966
 10
14.2055054376
 20
12.8516966914
 10
14.2523655047
 20
13.0087069425
 10
14.2992082161
 20
13.1571943292
 10
14.3460477212
 20
13.2971158722
 10
14.3926800612
 20
13.4294550367
 10
14.4390973508
 20
13.5542438378
 10
14.485311109
 20
13.6714502603
 10
14.5311469138
 20
13.7819617234
 10
14.5765917955
 20
13.8857912488
 10
14.621662611
 20
13.9829258149
 10
14.666229949
 20
14.0742137759
 10
14.7102679229
 20
14.15965308
 10
14.7538063458
 20
14.2392457789
 10
14.7967993595
 20
14.3138463825
 10
14.8392252203
 20
14.3834771429
 10
14.8811092668
 20
14.448115808
 10
14.9224759883
 20
14.5085501301
 10
14.9633179308
 20
14.5648262723
 10
15.0036455976
 20
14.6168980715
 10
15.0435100172
 20
14.6654147909
 10
15.0829119025
 20
14.7104232673
 10
15.1218530626
 20
14.7518766639
 10
15.1603857934
 20
14.7902837331
 10
15.1985117457
 20
14.8256813228
 10
15.2362313621
 20
14.8580325852
 10
15.2735948113
 20
14.8877357292
 10
15.3105947747
 20
14.9148158244
 10
15.3472403238
 20
14.9392478013
 10
15.3836059065
 20
14.9613546594
 10
15.419684156
 20
14.9811628822
 10
15.4554838222
 20
14.9986459862
 10
15.4911031882
 20
15.0140475216
 10
15.5265410275
 20
15.0273964404
 10
15.561799559
 20
15.0386637906
 10
15.5969818892
 20
15.0480062654
 10
15.6320873951
 20
15.0554506625
 10
15.6671173431
 20
15.0609701843
 10
15.7021773512
 20
15.0646411311
 10
15.7372657811
 20
15.0664890167
 10
15.7723845975
 20
15.0664883272
  0
LINE
  5
30E
100
AcDbEntity
  8
ASSI
100
AcDbLine
 62
7
  6
CONTINUOUS
 10
-21.6821722373
 20
-3.8217547912
 11
-21.7320479927
 21
-3.8182321468
  0
LINE
  5
30F
100
AcDbEntity
  8
ASSI
100
AcDbLine
 62
7
  6
CONTINUOUS
 10
-21.6077775803
 20
-2.768429702
 11
-21.6576533357
 21
-2.7649070576
  0
LINE
  5
310
100
AcDbEntity
  8
ASSI
100
AcDbLine
 62
7
  6
CONTINUOUS
 10
-6.05
 20
37.5537237402
 11
-6.05
 21
38.3798092392
  0
LINE
  5
311
100
AcDbEntity
  8
ASSI
100
AcDbLine
 62
7
  6
CONTINUOUS
 10
-5.3
 20
39.3085180203
 11
-5.3
 21
39.8782452088
  0
LINE
  5
312
100
AcDbEntity
  8
ASSI
100
AcDbLine
 62
7
  6
CONTINUOUS
 10
21.2200046496
 20
2.721896799
 11
21.269880405
 21
2.7254194434
  0
LINE
  5
313
100
AcDbEntity
  8
ASSI
100
AcDbLine
 62
7
  6
CONTINUOUS
 10
-21.5362023787
 20
-1.7550241869
 11
-21.5860781341
 21
-1.7515015425
  0
LINE
  5
314
100
AcDbEntity
  8
ASSI
100
AcDbLine
 62
7
  6
CONTINUOUS
 10
-21.5309582884
 20
-1.6807751473
 11
-21.5808340438
 21
-1.6772525029
  0
LINE
  5
315
100
AcDbEntity
  8
ASSI
100
AcDbLine
 62
7
  6
CONTINUOUS
 10
-21.423914707
 20
-0.1651866028
 11
-21.4737904624
 21
-0.1616639584
  0
LINE
  5
316
100
AcDbEntity
  8
ASSI
100
AcDbLine
 62
7
  6
CONTINUOUS
 10
-21.2964996731
 20
1.6388334351
 11
-21.3463754285
 21
1.6423560795
  0
LINE
  5
317
100
AcDbEntity
  8
ASSI
100
AcDbLine
 62
7
  6
CONTINUOUS
 10
-21.259945615
 20
2.1563881638
 11
-21.3098213704
 21
2.1599108082
  0
LINE
  5
318
100
AcDbEntity
  8
ASSI
100
AcDbLine
 62
7
  6
CONTINUOUS
 10
-21.1972252135
 20
3.0444219986
 11
-21.2471009689
 21
3.047944643
  0
LINE
  5
319
100
AcDbEntity
  8
ASSI
100
AcDbLine
 62
7
  6
CONTINUOUS
 10
-21.1919811233
 20
3.1186710382
 11
-21.2418568787
 21
3.1221936825
  0
LINE
  5
31A
100
AcDbEntity
  8
ASSI
100
AcDbLine
 62
7
  6
CONTINUOUS
 10
-21.1889634852
 20
3.1613966053
 11
-21.2388392406
 21
3.1649192496
  0
LWPOLYLINE
  5
31B
100
AcDbEntity
  8
ASSI
100
AcDbPolyline
 62
7
  6
CONTINUOUS
 90
15
 70
0
 10
-15.9562633902
 20
15.057758752
 10
-15.9545388538
 20
15.0559448541
 10
-15.952649187
 20
15.0542601002
 10
-15.9505942995
 20
15.052704491
 10
-15.9483688477
 20
15.0512584217
 10
-15.9459779715
 20
15.0499414981
 10
-15.9434373186
 20
15.0488125362
 10
-15.9407472263
 20
15.0478829779
 10
-15.9379071711
 20
15.0471413824
 10
-15.934931542
 20
15.0466122425
 10
-15.9318212474
 20
15.0463017679
 10
-15.9285752039
 20
15.0462037493
 10
-15.925204837
 20
15.0463240509
 10
-15.9217139041
 20
15.0466646272
 10
-15.9180984811
 20
15.0472235235
  0
LWPOLYLINE
  5
31C
100
AcDbEntity
  8
ASSI
100
AcDbPolyline
 62
7
  6
CONTINUOUS
 90
25
 70
0
 10
-15.9562626571
 20
15.0577580938
 10
-15.9738149298
 20
15.0774039301
 10
-15.9904717054
 20
15.0969007344
 10
-16.0062190194
 20
15.1162311631
 10
-16.0210440047
 20
15.1353773196
 10
-16.0349340031
 20
15.1543227819
 10
-16.0478765789
 20
15.1730525979
 10
-16.0598610768
 20
15.1915498468
 10
-16.0708775777
 20
15.2097980076
 10
-16.0809160113
 20
15.2277829502
 10
-16.0899682672
 20
15.2454882922
 10
-16.0980269906
 20
15.2628980997
 10
-16.1050845425
 20
15.2799991951
 10
-16.1111354219
 20
15.2967758483
 10
-16.1161748914
 20
15.3132128372
 10
-16.1201977773
 20
15.3292980806
 10
-16.1232012594
 20
15.345016552
 10
-16.1251832221
 20
15.36035392
 10
-16.1261408819
 20
15.3752995294
 10
-16.126073612
 20
15.3898402683
 10
-16.1249824385
 20
15.403961695
 10
-16.1228683933
 20
15.4176516155
 10
-16.1197337327
 20
15.430897464
 10
-16.1155819324
 20
15.4436863236
 10
-16.1104171835
 20
15.4560060109
  0
LWPOLYLINE
  5
31D
100
AcDbEntity
  8
0
100
AcDbPolyline
 62
7
  6
CONTINUOUS
 90
2
 70
0
 43
0.3500000006
 10
-1.3571429071
 20
49.4282437134
 10
-1.3571429071
 20
50.9282441711
  0
LINE
  5
31E
100
AcDbEntity
  8
ASSI
100
AcDbLine
 62
7
  6
CONTINUOUS
 10
-0.0
 20
-8.3217547912
 11
0.0
 21
40.6782452088
  0
LINE
  5
31F
100
AcDbEntity
  8
ASSI
100
AcDbLine
 62
250
  6
CONTINUOUS
 10
16.8845123958
 20
32.1115849348
 11
16.8221852509
 21
32.0125058171
  0
LINE
  5
320
100
AcDbEntity
  8
ASSI
100
AcDbLine
 62
250
  6
CONTINUOUS
 10
16.9311640121
 20
32.1848279311
 11
16.8845123958
 21
32.1115849348
  0
LINE
  5
321
100
AcDbEntity
  8
ASSI
100
AcDbLine
 62
250
  6
CONTINUOUS
 10
16.9767013167
 20
32.2555821366
 11
16.9311640121
 21
32.1848279311
  0
LINE
  5
322
100
AcDbEntity
  8
ASSI
100
AcDbLine
 62
250
  6
CONTINUOUS
 10
-16.9326731319
 20
32.1871782836
 11
-16.9767014163
 21
32.2555817404
  0
LINE
  5
323
100
AcDbEntity
  8
ASSI
100
AcDbLine
 62
250
  6
CONTINUOUS
 10
-16.8863070295
 20
32.1144081871
 11
-16.9326731319
 21
32.1871782836
  0
LINE
  5
324
100
AcDbEntity
  8
ASSI
100
AcDbLine
 62
250
  6
CONTINUOUS
 10
-16.8465275949
 20
32.0513660707
 11
-16.8863070295
 21
32.1144081871
  0
LINE
  5
325
100
AcDbEntity
  8
ASSI
100
AcDbLine
 62
250
  6
CONTINUOUS
 10
-16.7998650428
 20
31.9766761137
 11
-16.8465275949
 21
32.0513660707
  0
LINE
  5
326
100
AcDbEntity
  8
ASSI
100
AcDbLine
 62
250
  6
CONTINUOUS
 10
-16.7465489343
 20
31.8903138836
 11
-16.7998650428
 21
31.9766761137
  0
LINE
  5
327
100
AcDbEntity
  8
ASSI
100
AcDbLine
 62
250
  6
CONTINUOUS
 10
-16.6868117163
 20
31.7922650036
 11
-16.7465489343
 21
31.8903138836
  0
LINE
  5
328
100
AcDbEntity
  8
ASSI
100
AcDbLine
 62
250
  6
CONTINUOUS
 10
-16.6209529028
 20
31.6825136383
 11
-16.6868117163
 21
31.7922650036
  0
LWPOLYLINE
  5
329
100
AcDbEntity
  8
ASSI
100
AcDbPolyline
 62
250
  6
CONTINUOUS
 90
7
 70
0
 10
-16.3471852318
 20
31.2061692081
 10
-16.3900659109
 20
31.2830004617
 10
-16.4317490865
 20
31.3569031998
 10
-16.4722015689
 20
31.4278783894
 10
-16.5114048639
 20
31.4959282838
 10
-16.5493079451
 20
31.5610524572
 10
-16.6209529028
 20
31.6825136383
  0
LWPOLYLINE
  5
32A
100
AcDbEntity
  8
0
100
AcDbPolyline
 62
7
  6
CONTINUOUS
 90
2
 70
0
 43
0.3500000006
 10
1.0000000219
 20
49.4282437134
 10
1.0000000219
 20
50.9282441711
  0
LINE
  5
32B
100
AcDbEntity
  8
ASSI
100
AcDbLine
 62
7
  6
CONTINUOUS
 10
5.3
 20
39.8782452088
 11
5.3
 21
39.3085180202
  0
LWPOLYLINE
  5
32C
100
AcDbEntity
  8
ASSI
100
AcDbPolyline
 62
250
  6
CONTINUOUS
 90
111
 70
0
 10
16.4721164212
 20
31.4277717319
 10
16.432258628
 20
31.3578718794
 10
16.3912313219
 20
31.2851238391
 10
16.3490309913
 20
31.2094719377
 10
16.305725649
 20
31.1309699498
 10
16.2614728812
 20
31.049781164
 10
16.2163361281
 20
30.9658976757
 10
16.1703491963
 20
30.8793254337
 10
16.1236525928
 20
30.790248595
 10
16.0763240777
 20
30.6986793217
 10
16.0284029115
 20
30.6046034914
 10
15.9799891351
 20
30.5081659327
 10
15.9311505137
 20
30.4093630339
 10
15.8819419848
 20
30.308196437
 10
15.8324542604
 20
30.2048189527
 10
15.7827573205
 20
30.099230446
 10
15.7329074859
 20
29.9914291155
 10
15.6829820221
 20
29.8815653886
 10
15.6330528804
 20
29.7696484889
 10
15.5831749071
 20
29.6556673181
 10
15.533403207
 20
29.5397419327
 10
15.4838044971
 20
29.4218813225
 10
15.4344348679
 20
29.3020746756
 10
15.385333696
 20
29.1804124385
 10
15.3365605953
 20
29.0568982724
 10
15.2881723686
 20
28.9315267322
 10
15.2402028791
 20
28.8043746817
 10
15.1927082383
 20
28.6754476244
 10
15.1457422076
 20
28.5447383127
 10
15.0993332634
 20
28.4123045487
 10
15.0535320454
 20
28.2781480157
 10
15.0083908005
 20
28.1422653145
 10
14.9639384009
 20
28.004706676
 10
14.9202184613
 20
27.8654579446
 10
14.877283617
 20
27.7245315841
 10
14.8351754164
 20
27.5820178306
 10
14.793939065
 20
27.4379061058
 10
14.7536214823
 20
27.2922053827
 10
14.7142673629
 20
27.1450353435
 10
14.6759254714
 20
26.9964046526
 10
14.6386359661
 20
26.8463031787
 10
14.6024309379
 20
26.6948225353
 10
14.5673564788
 20
26.5419830362
 10
14.5334506953
 20
26.3877630124
 10
14.5007324837
 20
26.2321911763
 10
14.4692366562
 20
26.0752559292
 10
14.4390058965
 20
25.9169675386
 10
14.4100694989
 20
25.7573875732
 10
14.382461582
 20
25.5965004277
 10
14.3562205546
 20
25.4343204562
 10
14.3313818786
 20
25.2709542727
 10
14.3079813671
 20
25.1064004564
 10
14.2860518625
 20
24.9406593255
 10
14.2656244961
 20
24.7738402402
 10
14.2467330922
 20
24.605947001
 10
14.2294082164
 20
24.4369748576
 10
14.2136759339
 20
24.2670204767
 10
14.1995667167
 20
24.0960874368
 10
14.1871096941
 20
23.9241713476
 10
14.1763284117
 20
23.7513570414
 10
14.1672502558
 20
23.5776231793
 10
14.1599022445
 20
23.4029904031
 10
14.1543070619
 20
23.2276066673
 10
14.1504928012
 20
23.0514611455
 10
14.148481248
 20
22.8745641757
 10
14.1482855967
 20
22.6970956684
 10
14.149931447
 20
22.5190671435
 10
14.1534383042
 20
22.340466844
 10
14.1588098332
 20
22.1614399713
 10
14.1660699769
 20
21.98196538
 10
14.175234135
 20
21.8020641597
 10
14.1862925544
 20
21.6219450844
 10
14.1992691811
 20
21.4415918
 10
14.2141738097
 20
21.2610208718
 10
14.230974923
 20
21.0804907372
 10
14.2496927774
 20
20.900005829
 10
14.2703350266
 20
20.7195622457
 10
14.2928504935
 20
20.5394062212
 10
14.3172558259
 20
20.3595408446
 10
14.3435559093
 20
20.179963837
 10
14.3716808979
 20
20.0009136561
 10
14.4016425862
 20
19.8223989009
 10
14.4334441437
 20
19.6444120345
 10
14.4670016377
 20
19.4671675596
 10
14.5023159348
 20
19.2906989246
 10
14.5393945572
 20
19.1149739535
 10
14.5781622609
 20
18.9401088823
 10
14.6186128798
 20
18.766131794
 10
14.6607542622
 20
18.5930159529
 10
14.704530733
 20
18.4207954334
 10
14.7499489961
 20
18.2494355991
 10
14.7969972742
 20
18.0789723958
 10
14.8455909671
 20
17.9095458451
 10
14.8957228341
 20
17.7411694664
 10
14.9473891649
 20
17.57383115
 10
15.0005097975
 20
17.407632578
 10
15.0550659572
 20
17.2426044347
 10
15.111059783
 20
17.078717485
 10
15.1684415183
 20
16.9159835695
 10
15.2272019227
 20
16.7543924767
 10
15.2873276147
 20
16.5939557996
 10
15.3487616245
 20
16.4347180947
 10
15.4114900917
 20
16.2766776793
 10
15.4754986459
 20
16.1198375945
 10
15.5407287332
 20
15.9642495073
 10
15.6071659959
 20
15.8099086966
 10
15.6747911059
 20
15.6568212185
 10
15.7435374234
 20
15.5050549376
 10
15.8133700425
 20
15.3546329286
 10
15.8842852055
 20
15.205533446
 10
15.9562619868
 20
15.0577571341
  0
LINE
  5
32D
100
AcDbEntity
  8
ASSI
100
AcDbLine
 62
250
  6
CONTINUOUS
 10
16.5484779131
 20
31.5596003551
 11
16.4721164212
 21
31.4277717319
  0
LINE
  5
32E
100
AcDbEntity
  8
ASSI
100
AcDbLine
 62
250
  6
CONTINUOUS
 10
16.6197426939
 20
31.680473284
 11
16.5484779131
 21
31.5596003551
  0
LINE
  5
32F
100
AcDbEntity
  8
ASSI
100
AcDbLine
 62
250
  6
CONTINUOUS
 10
16.6853124624
 20
31.78977815
 11
16.6197426939
 21
31.680473284
  0
LINE
  5
330
100
AcDbEntity
  8
ASSI
100
AcDbLine
 62
250
  6
CONTINUOUS
 10
16.7448297848
 20
31.8875248299
 11
16.6853124624
 21
31.78977815
  0
LWPOLYLINE
  5
331
100
AcDbEntity
  8
ASSI
100
AcDbPolyline
 62
250
  6
CONTINUOUS
 90
3
 70
0
 10
16.8221852509
 20
32.0125058171
 10
16.7980360795
 20
31.9737259958
 10
16.7448297848
 20
31.8875248299
  0
LWPOLYLINE
  5
332
100
AcDbEntity
  8
ASSI
100
AcDbPolyline
 62
7
  6
CONTINUOUS
 90
16
 70
0
 10
15.9562619868
 20
15.0577571341
 10
15.954538061
 20
15.0559439079
 10
15.9526488533
 20
15.0542596588
 10
15.9505942736
 20
15.0527043876
 10
15.9483689279
 20
15.0512584343
 10
15.9459780061
 20
15.0499414598
 10
15.9434373065
 20
15.048812446
 10
15.9407472162
 20
15.0478828896
 10
15.9379071619
 20
15.0471412949
 10
15.9349315341
 20
15.0466121556
 10
15.9318211935
 20
15.046301686
 10
15.9285751042
 20
15.0462036721
 10
15.9252048361
 20
15.0463239653
 10
15.921714195
 20
15.0466645159
 10
15.9180992087
 20
15.0472233733
 10
15.8786613283
 20
15.055393199
  0
LINE
  5
333
100
AcDbEntity
  8
ASSI
100
AcDbLine
 62
250
  6
CONTINUOUS
 10
20.5825582261
 20
8.9712932593
 11
20.5247085566
 21
8.9691949462
  0
LINE
  5
334
100
AcDbEntity
  8
ASSI
100
AcDbLine
 62
250
  6
CONTINUOUS
 10
20.6172948763
 20
8.9723650165
 11
20.5825582261
 21
8.9712932593
  0
LINE
  5
335
100
AcDbEntity
  8
ASSI
100
AcDbLine
 62
250
  6
CONTINUOUS
 10
20.6488529636
 20
8.9731714711
 11
20.6172948763
 21
8.9723650165
  0
LINE
  5
336
100
AcDbEntity
  8
ASSI
100
AcDbLine
 62
250
  6
CONTINUOUS
 10
-20.6900387589
 20
8.9738810644
 11
-20.6634127317
 21
8.9734732174
  0
LINE
  5
337
100
AcDbEntity
  8
ASSI
100
AcDbLine
 62
250
  6
CONTINUOUS
 10
-20.6634127317
 20
8.9734732174
 11
-20.6334765825
 21
8.9728016493
  0
LINE
  5
338
100
AcDbEntity
  8
ASSI
100
AcDbLine
 62
250
  6
CONTINUOUS
 10
-20.6334765825
 20
8.9728016493
 11
-20.6003171902
 21
8.9718645105
  0
LWPOLYLINE
  5
339
100
AcDbEntity
  8
ASSI
100
AcDbPolyline
 62
250
  6
CONTINUOUS
 90
3
 70
0
 10
-20.6003171902
 20
8.9718645105
 10
-20.544743766
 20
8.9699483876
 10
-20.5247085566
 20
8.9691949462
  0
LINE
  5
33A
100
AcDbEntity
  8
ASSI
100
AcDbLine
 62
7
  6
CONTINUOUS
 10
6.05
 20
38.3798092392
 11
6.05
 21
37.5537237402
  0
LWPOLYLINE
  5
33B
100
AcDbEntity
  8
ASSI
100
AcDbPolyline
 62
7
  6
CONTINUOUS
 90
25
 70
0
 10
15.9562625333
 20
15.0577575896
 10
15.9738140352
 20
15.0774053127
 10
15.9904710577
 20
15.0969017633
 10
16.0062191438
 20
15.116230654
 10
16.0210443136
 20
15.1353764502
 10
16.0349339584
 20
15.1543226488
 10
16.047876833
 20
15.173051812
 10
16.0598615571
 20
15.1915485795
 10
16.0708776648
 20
15.2097975791
 10
16.0809164643
 20
15.2277817431
 10
16.0899690107
 20
15.2454864668
 10
16.0980273099
 20
15.2628971798
 10
16.1050853103
 20
15.2799973204
 10
16.1111365694
 20
15.2967731658
 10
16.1161756149
 20
15.3132110602
 10
16.1201990853
 20
15.3292950586
 10
16.1232030807
 20
15.3450124389
 10
16.1251846902
 20
15.3603505627
 10
16.1261432814
 20
15.3752941858
 10
16.1260776017
 20
15.3898315203
 10
16.1249872377
 20
15.4039512152
 10
16.1228740655
 20
15.4176393027
 10
16.1197398646
 20
15.4308842209
 10
16.1155863437
 20
15.443676792
 10
16.1104165483
 20
15.4560072565
  0
LWPOLYLINE
  5
33C
100
AcDbEntity
  8
ASSI
100
AcDbPolyline
 62
7
  6
CONTINUOUS
 90
5
 70
0
 10
-15.7723872097
 20
15.0664879251
 10
-15.8076445511
 20
15.0646388184
 10
-15.8430746928
 20
15.0609416171
 10
-15.8786420715
 20
15.0553962011
 10
-15.9180984811
 20
15.0472235235
  0
LINE
  5
33D
100
AcDbEntity
  8
ASSI
100
AcDbLine
 62
7
  6
CONTINUOUS
 10
15.5659801514
 20
16.7531282088
 11
15.6193360171
 21
16.7531282088
  0
LWPOLYLINE
  5
33E
100
AcDbEntity
  8
ASSI
100
AcDbPolyline
 62
7
  6
CONTINUOUS
 90
4
 70
0
 10
15.7723845975
 20
15.0664883272
 10
15.8076445146
 20
15.0646388213
 10
15.843082377
 20
15.0609404184
 10
15.8786613283
 20
15.055393199
  0
LINE
  5
33F
100
AcDbEntity
  8
ASSI
100
AcDbLine
 62
7
  6
CONTINUOUS
 10
14.5827112177
 20
21.0033302088
 11
14.6329564018
 21
21.0033302088
  0
LWPOLYLINE
  5
340
100
AcDbEntity
  8
ASSI
100
AcDbPolyline
 62
250
  6
CONTINUOUS
 90
34
 70
0
 10
20.3357362081
 20
9.8579794555
 10
20.3547507109
 20
9.8407038893
 10
20.3730667469
 20
9.8226018278
 10
20.3906546443
 20
9.8037001614
 10
20.4074722083
 20
9.7840398382
 10
20.4235057767
 20
9.7636376197
 10
20.4387690068
 20
9.742484744
 10
20.4532356091
 20
9.7206117443
 10
20.4668804695
 20
9.6980501503
 10
20.4797184424
 20
9.674792101
 10
20.4917257141
 20
9.6508702425
 10
20.5028796711
 20
9.6263182294
 10
20.5131963046
 20
9.6011291243
 10
20.5226543297
 20
9.5753375486
 10
20.5312337779
 20
9.5489790499
 10
20.5389518463
 20
9.5220475274
 10
20.5457898233
 20
9.4945793603
 10
20.5517304432
 20
9.4666117972
 10
20.5567921924
 20
9.4381395305
 10
20.5609589478
 20
9.4092004574
 10
20.5642161686
 20
9.3798333063
 10
20.5665837349
 20
9.350033535
 10
20.5680481072
 20
9.3198402409
 10
20.5685974519
 20
9.2892934085
 10
20.5682531491
 20
9.2583893371
 10
20.5670042168
 20
9.2271679722
 10
20.5648414856
 20
9.1956702566
 10
20.5617879497
 20
9.1638934265
 10
20.5578351117
 20
9.1318776818
 10
20.5529763891
 20
9.0996647241
 10
20.5472365641
 20
9.0672533213
 10
20.5406198388
 20
9.0346701423
 10
20.533111541
 20
9.0019703272
 10
20.5247085566
 20
8.9691949462
  0
LINE
  5
341
100
AcDbEntity
  8
ASSI
100
AcDbLine
 62
250
  6
CONTINUOUS
 10
20.5246993406
 20
8.969320529
 11
21.7480270125
 21
-8.3217547912
  0
LINE
  5
342
100
AcDbEntity
  8
0
100
AcDbLine
 62
7
  6
CONTINUOUS
 10
21.9555870782
 20
-7.6929294594
 11
21.9574985249
 21
-7.7199928917
  0
LINE
  5
343
100
AcDbEntity
  8
0
100
AcDbLine
 62
7
  6
CONTINUOUS
 10
21.9728859769
 20
-7.9378578567
 11
22.0
 21
-8.3217547912
  0
LINE
  5
344
100
AcDbEntity
  8
ASSI
100
AcDbLine
 62
7
  6
CONTINUOUS
 10
20.778768029
 20
8.9691949462
 11
22.0
 21
-8.3217547912
  0
LINE
  5
345
100
AcDbEntity
  8
ASSI
100
AcDbLine
 62
7
  6
CONTINUOUS
 10
21.269880405
 20
2.7254194434
 11
21.6291901377
 21
-2.3619076774
  0
LINE
  5
346
100
AcDbEntity
  8
ASSI
100
AcDbLine
 62
250
  6
CONTINUOUS
 10
17.0337991215
 20
-8.3217547912
 11
16.7768995829
 21
-27.3304809944
  0
LWPOLYLINE
  5
347
100
AcDbEntity
  8
ASSI
100
AcDbPolyline
 62
250
  6
CONTINUOUS
 90
17
 70
0
 10
20.778768029
 20
8.9691949462
 10
20.7782578761
 20
8.9699592002
 10
20.776840259
 20
8.9706588012
 10
20.7745161701
 20
8.9712932593
 10
20.7712872366
 20
8.9718621305
 10
20.7671557188
 20
8.9723650165
 10
20.7621245091
 20
8.9728015652
 10
20.7561971296
 20
8.9731714711
 10
20.7493777298
 20
8.9734744751
 10
20.7416710839
 20
8.9737103651
 10
20.7330825869
 20
8.9738789761
 10
20.7236182514
 20
8.9739801899
 10
20.7132847029
 20
8.9740139357
 10
20.7020891756
 20
8.9739801899
 10
20.6900395071
 20
8.9738789761
 10
20.6771441329
 20
8.9737103651
 10
20.6488529636
 20
8.9731714711
  0
LWPOLYLINE
  5
348
100
AcDbEntity
  8
ASSI
100
AcDbPolyline
 62
250
  6
CONTINUOUS
 90
37
 70
0
 10
15.9143813794
 20
15.0479971632
 10
15.9977549577
 20
14.8725359129
 10
16.0834415532
 20
14.6972290538
 10
16.1714345264
 20
14.5220765858
 10
16.261692704
 20
14.3470654564
 10
16.3542433407
 20
14.1722087182
 10
16.4491817575
 20
13.9975455286
 10
16.5465035219
 20
13.8230622568
 10
16.6461969288
 20
13.6487725335
 10
16.7483453371
 20
13.4747564085
 10
16.8529346381
 20
13.3010168044
 10
16.9599605067
 20
13.1275507985
 10
17.0695197929
 20
12.9544296728
 10
17.1815951459
 20
12.7816568471
 10
17.2961828505
 20
12.6092289015
 10
17.4133987803
 20
12.4372068588
 10
17.5332334657
 20
12.2655798264
 10
17.6556722201
 20
12.0943586968
 10
17.7808214615
 20
11.9236371701
 10
17.9086725036
 20
11.7534037263
 10
18.0392065262
 20
11.5836698853
 10
18.1725130379
 20
11.4145639074
 10
18.3085650455
 20
11.2460948254
 10
18.4473585401
 20
11.0782536064
 10
18.5890155345
 20
10.911141411
 10
18.7334947785
 20
10.7447749148
 10
18.8808023414
 20
10.5791374421
 10
19.0311285097
 20
10.4142801266
 10
19.1844488663
 20
10.2501931793
 10
19.3407471162
 20
10.0868863891
 10
19.5002222756
 20
9.9244402565
 10
19.6628560606
 20
9.7628326427
 10
19.8286196862
 20
9.6020856866
 10
19.9976925919
 20
9.4423463054
 10
20.1701159319
 20
9.2836634716
 10
20.3457942068
 20
9.1259882128
 10
20.5246993406
 20
8.969320529
  0
LINE
  5
349
100
AcDbEntity
  8
0
100
AcDbLine
 62
7
  6
CONTINUOUS
 10
21.9728859769
 20
-7.9378578567
 11
21.9728859769
 21
-7.7199928917
  0
LINE
  5
34A
100
AcDbEntity
  8
ASSI
100
AcDbLine
 62
250
  6
CONTINUOUS
 10
21.747432639
 20
-8.3217547912
 11
21.4150692686
 21
-27.3304809944
  0
LINE
  5
34B
100
AcDbEntity
  8
0
100
AcDbLine
 62
7
  6
CONTINUOUS
 10
21.9755620937
 20
-9.721801503
 11
21.6682014499
 21
-27.3304809944
  0
LINE
  5
34C
100
AcDbEntity
  8
0
100
AcDbLine
 62
7
  6
CONTINUOUS
 10
21.9978135022
 20
-8.3217547912
 11
21.9728859769
 21
-9.7217547912
  0
LINE
  5
34D
100
AcDbEntity
  8
ASSI
100
AcDbLine
 62
7
  6
CONTINUOUS
 10
16.9767014091
 20
32.255581769
 11
16.516430199
 21
34.0440627037
  0
LINE
  5
34E
100
AcDbEntity
  8
ASSI
100
AcDbLine
 62
250
  6
CONTINUOUS
 10
-16.516430199
 20
34.0440627037
 11
16.516430199
 21
34.0440627037
  0
LINE
  5
34F
100
AcDbEntity
  8
ASSI
100
AcDbLine
 62
250
  6
CONTINUOUS
 10
-14.2249326041
 20
36.2176593616
 11
14.2249326041
 21
36.2176593616
  0
LINE
  5
350
100
AcDbEntity
  8
ASSI
100
AcDbLine
 62
250
  6
CONTINUOUS
 10
-6.1867426942
 20
37.4043107427
 11
6.1867426942
 21
37.4043107427
  0
LINE
  5
351
100
AcDbEntity
  8
ASSI
100
AcDbLine
 62
250
  6
CONTINUOUS
 10
-6.05
 20
37.5537237402
 11
6.05
 21
37.5537237402
  0
LINE
  5
352
100
AcDbEntity
  8
ASSI
100
AcDbLine
 62
250
  6
CONTINUOUS
 10
6.05
 20
38.3798092392
 11
-6.05
 21
38.3798092392
  0
LINE
  5
353
100
AcDbEntity
  8
ASSI
100
AcDbLine
 62
250
  6
CONTINUOUS
 10
5.4184210526
 20
39.1618797916
 11
-5.4184210526
 21
39.1618797917
  0
LINE
  5
354
100
AcDbEntity
  8
ASSI
100
AcDbLine
 62
250
  6
CONTINUOUS
 10
5.3
 20
39.3085180202
 11
-5.3
 21
39.3085180203
  0
LINE
  5
355
100
AcDbEntity
  8
ASSI
100
AcDbLine
 62
250
  6
CONTINUOUS
 10
5.3
 20
39.8782452088
 11
-5.3
 21
39.8782452088
  0
LINE
  5
356
100
AcDbEntity
  8
ASSI
100
AcDbLine
 62
7
  6
CONTINUOUS
 10
4.5
 20
40.6782452088
 11
-4.5
 21
40.6782452088
  0
LWPOLYLINE
  5
357
100
AcDbEntity
  8
0
100
AcDbPolyline
 62
7
  6
CONTINUOUS
 90
3
 70
0
 43
0.3500000006
 10
1.5000000329
 20
50.0711016998
 10
-0.0
 20
50.0711016998
 10
0.6428571367
 20
52.4282446289
  0
LWPOLYLINE
  5
358
100
AcDbEntity
  8
0
100
AcDbPolyline
 62
7
  6
CONTINUOUS
 90
3
 70
0
 43
0.3500000006
 10
-0.8571428254
 20
50.0711016998
 10
-2.3571427875
 20
50.0711016998
 10
-1.7142856507
 20
52.4282446289
  0
ARC
  5
359
100
AcDbEntity
  8
ASSI
100
AcDbCircle
 62
7
  6
CONTINUOUS
 10
-214.4480341723
 20
-8.3217547912
 40
166.4
100
AcDbArc
 50
0.0
 51
14.7500189828
  0
ARC
  5
35A
100
AcDbEntity
  8
ASSI
100
AcDbCircle
 62
7
  6
CONTINUOUS
 10
-91.2163117746
 20
-27.3217547912
 40
0.5
100
AcDbArc
 50
181.0
 51
270.0
  0
ARC
  5
35B
100
AcDbEntity
  8
ASSI
100
AcDbCircle
 62
7
  6
CONTINUOUS
 10
-83.6633268076
 20
33.2802558979
 40
3.0
100
AcDbArc
 50
101.7249286284
 51
165.2499810172
  0
ARC
  5
35C
100
AcDbEntity
  8
ASSI
100
AcDbCircle
 62
7
  6
CONTINUOUS
 10
-74.5480341723
 20
39.8782452088
 40
0.8
100
AcDbArc
 50
90.0
 51
180.0
  0
ARC
  5
35D
100
AcDbEntity
  8
ASSI
100
AcDbCircle
 62
7
  6
CONTINUOUS
 10
-75.2980341723
 20
38.3798092392
 40
0.8
100
AcDbArc
 50
102.153197469
 51
180.0000001108
  0
ARC
  5
35E
100
AcDbEntity
  8
ASSI
100
AcDbCircle
 62
7
  6
CONTINUOUS
 10
-76.2480341723
 20
37.5537237402
 40
0.15
100
AcDbArc
 50
275.0705337744
 51
360.0
  0
ARC
  5
35F
100
AcDbEntity
  8
ASSI
100
AcDbCircle
 62
7
  6
CONTINUOUS
 10
-75.4980341723
 20
39.3085180202
 40
0.15
100
AcDbArc
 50
282.153197469
 51
360.0
  0
ARC
  5
360
100
AcDbEntity
  8
ASSI
100
AcDbCircle
 62
7
  6
CONTINUOUS
 10
74.3519658277
 20
-8.3217547912
 40
166.4
100
AcDbArc
 50
165.2499810172
 51
180.0
  0
ARC
  5
361
100
AcDbEntity
  8
ASSI
100
AcDbCircle
 62
7
  6
CONTINUOUS
 10
-70.0480341723
 20
-32.3217547912
 40
70.0
100
AcDbArc
 50
78.2750713716
 51
84.9294662257
  0
ARC
  5
362
100
AcDbEntity
  8
ASSI
100
AcDbCircle
 62
7
  6
CONTINUOUS
 10
-70.0480341723
 20
-32.3217547912
 40
70.0
100
AcDbArc
 50
95.0705337743
 51
101.7249286284
  0
ARC
  5
363
100
AcDbEntity
  8
ASSI
100
AcDbCircle
 62
7
  6
CONTINUOUS
 10
-48.8797565699
 20
-27.3217547912
 40
0.5
100
AcDbArc
 50
270.0
 51
359.0
  0
ARC
  5
364
100
AcDbEntity
  8
ASSI
100
AcDbCircle
 62
7
  6
CONTINUOUS
 10
-56.4327415369
 20
33.2802558979
 40
3.0
100
AcDbArc
 50
14.7500189828
 51
78.2750713716
  0
ARC
  5
365
100
AcDbEntity
  8
ASSI
100
AcDbCircle
 62
7
  6
CONTINUOUS
 10
-62.4002021723
 20
19.6999272088
 40
1.303416637
100
AcDbArc
 50
292.8428913314
 51
90.0
  0
ARC
  5
366
100
AcDbEntity
  8
ASSI
100
AcDbCircle
 62
7
  6
CONTINUOUS
 10
-64.7980341723
 20
38.3798092392
 40
0.8
100
AcDbArc
 50
359.9999998892
 51
77.846802531
  0
ARC
  5
367
100
AcDbEntity
  8
ASSI
100
AcDbCircle
 62
7
  6
CONTINUOUS
 10
-65.5480341723
 20
39.8782452088
 40
0.8
100
AcDbArc
 50
0.0
 51
90.0
  0
ARC
  5
368
100
AcDbEntity
  8
ASSI
100
AcDbCircle
 62
7
  6
CONTINUOUS
 10
-62.5181851723
 20
19.6999272088
 40
0.51713
100
AcDbArc
 50
270.0
 51
90.0
  0
ARC
  5
369
100
AcDbEntity
  8
ASSI
100
AcDbCircle
 62
7
  6
CONTINUOUS
 10
-63.8480341723
 20
37.5537237402
 40
0.15
100
AcDbArc
 50
180.0
 51
264.9294662256
  0
ARC
  5
36A
100
AcDbEntity
  8
ASSI
100
AcDbCircle
 62
7
  6
CONTINUOUS
 10
-64.5980341723
 20
39.3085180202
 40
0.15
100
AcDbArc
 50
180.0
 51
257.846802531
  0
ARC
  5
36B
100
AcDbEntity
  8
ASSI
100
AcDbCircle
 62
7
  6
CONTINUOUS
 10
-21.1682776023
 20
-27.3217547912
 40
0.5
100
AcDbArc
 50
181.0
 51
270.0
  0
ARC
  5
36C
100
AcDbEntity
  8
ASSI
100
AcDbCircle
 62
7
  6
CONTINUOUS
 10
-31.5
 20
22.6782452088
 40
17.0
100
AcDbArc
 50
311.0503048193
 51
30.3996660716
  0
ARC
  5
36D
100
AcDbEntity
  8
ASSI
100
AcDbCircle
 62
7
  6
CONTINUOUS
 10
-13.6152926353
 20
33.2802558979
 40
3.0
100
AcDbArc
 50
101.7249286284
 51
165.2499810172
  0
ARC
  5
36E
100
AcDbEntity
  8
ASSI
100
AcDbCircle
 62
7
  6
CONTINUOUS
 10
-19.4819983887
 20
8.8776061921
 40
1.3
100
AcDbArc
 50
131.0503048193
 51
175.96
  0
ARC
  5
36F
100
AcDbEntity
  8
ASSI
100
AcDbCircle
 62
7
  6
CONTINUOUS
 10
-5.25
 20
38.3798092392
 40
0.8
100
AcDbArc
 50
102.153197469
 51
180.0
  0
ARC
  5
370
100
AcDbEntity
  8
ASSI
100
AcDbCircle
 62
7
  6
CONTINUOUS
 10
-4.5
 20
39.8782452088
 40
0.8
100
AcDbArc
 50
90.0
 51
180.0
  0
ARC
  5
371
100
AcDbEntity
  8
ASSI
100
AcDbCircle
 62
7
  6
CONTINUOUS
 10
-6.2
 20
37.5537237402
 40
0.15
100
AcDbArc
 50
275.0705337743
 51
360.0
  0
ARC
  5
372
100
AcDbEntity
  8
ASSI
100
AcDbCircle
 62
7
  6
CONTINUOUS
 10
-5.45
 20
39.3085180203
 40
0.15
100
AcDbArc
 50
282.153197469
 51
360.0
  0
ARC
  5
373
100
AcDbEntity
  8
ASSI
100
AcDbCircle
 62
7
  6
CONTINUOUS
 10
-0.0
 20
-32.3217547912
 40
70.0
100
AcDbArc
 50
95.0705337743
 51
101.7249286284
  0
ARC
  5
374
100
AcDbEntity
  8
ASSI
100
AcDbCircle
 62
7
  6
CONTINUOUS
 10
-0.0
 20
-32.3217547912
 40
70.0
100
AcDbArc
 50
78.2750713716
 51
84.9294662257
  0
ARC
  5
375
100
AcDbEntity
  8
ASSI
100
AcDbCircle
 62
7
  6
CONTINUOUS
 10
21.1682776023
 20
-27.3217547912
 40
0.5
100
AcDbArc
 50
270.0
 51
359.0
  0
ARC
  5
376
100
AcDbEntity
  8
ASSI
100
AcDbCircle
 62
7
  6
CONTINUOUS
 10
31.5
 20
22.6782452088
 40
17.0
100
AcDbArc
 50
149.6003366084
 51
228.9496951807
  0
ARC
  5
377
100
AcDbEntity
  8
ASSI
100
AcDbCircle
 62
7
  6
CONTINUOUS
 10
31.5
 20
22.6782452088
 40
16.95
100
AcDbArc
 50
185.6709395485
 51
200.4606757091
  0
ARC
  5
378
100
AcDbEntity
  8
ASSI
100
AcDbCircle
 62
7
  6
CONTINUOUS
 10
13.6152926353
 20
33.2802558979
 40
3.0
100
AcDbArc
 50
14.7500189828
 51
78.2750713716
  0
ARC
  5
379
100
AcDbEntity
  8
ASSI
100
AcDbCircle
 62
7
  6
CONTINUOUS
 10
15.7159454997
 20
31.9385712615
 40
1.3000000292
100
AcDbArc
 50
329.6003341001
 51
14.1141279946
  0
ARC
  5
37A
100
AcDbEntity
  8
ASSI
100
AcDbCircle
 62
7
  6
CONTINUOUS
 10
19.4819983887
 20
8.8776061921
 40
1.3
100
AcDbArc
 50
4.04
 51
48.9496951807
  0
ARC
  5
37B
100
AcDbEntity
  8
ASSI
100
AcDbCircle
 62
7
  6
CONTINUOUS
 10
5.25
 20
38.3798092392
 40
0.8
100
AcDbArc
 50
0.0
 51
77.846802531
  0
ARC
  5
37C
100
AcDbEntity
  8
ASSI
100
AcDbCircle
 62
7
  6
CONTINUOUS
 10
4.5
 20
39.8782452088
 40
0.8
100
AcDbArc
 50
0.0
 51
90.0
  0
ARC
  5
37D
100
AcDbEntity
  8
ASSI
100
AcDbCircle
 62
7
  6
CONTINUOUS
 10
6.2
 20
37.5537237402
 40
0.15
100
AcDbArc
 50
180.0
 51
264.9294662257
  0
ARC
  5
37E
100
AcDbEntity
  8
ASSI
100
AcDbCircle
 62
7
  6
CONTINUOUS
 10
5.45
 20
39.3085180202
 40
0.15
100
AcDbArc
 50
180.0
 51
257.846802531
  0
ELLIPSE
  5
37F
100
AcDbEntity
  8
0
100
AcDbEllipse
 62
7
  6
CONTINUOUS
 10
-151.0545291648
 20
24.2310584768
 30
0.0
 11
148.2
 21
-0.0
 31
0.0
 40
0.2679491924
 41
5.348169807
 42
5.3486265356
  0
ELLIPSE
  5
380
100
AcDbEntity
  8
0
100
AcDbEllipse
 62
7
  6
CONTINUOUS
 10
10.9584608203
 20
23.4909689506
 30
0.0
 11
145.9224965316
 21
-0.0
 31
0.0
 40
0.2679971882
 41
4.0645721044
 42
4.0657550988
  0
ENDSEC
  0
SECTION
  2
OBJECTS
  0
DICTIONARY
  5
C
100
AcDbDictionary
280
0
281
1
  3
ACAD_GROUP
350
D
  3
ACAD_MLINESTYLE
350
17
  3
ACAD_LAYOUT
350
1A
  3
ACAD_PLOTSETTINGS
350
19
  3
ACAD_PLOTSTYLENAME
350
E
  0
DICTIONARY
  5
D
102
{ACAD_REACTORS
330
C
102
}
100
AcDbDictionary
280
0
281
1
  0
ACDBDICTIONARYWDFLT
  5
E
102
{ACAD_REACTORS
330
C
102
}
100
AcDbDictionary
281
1
  3
Normal
350
F
100
AcDbDictionaryWithDefault
340
F
  0
DICTIONARY
  5
17
102
{ACAD_REACTORS
330
C
102
}
100
AcDbDictionary
280
0
281
1
  3
Standard
350
18
  0
DICTIONARY
  5
19
102
{ACAD_REACTORS
330
C
102
}
100
AcDbDictionary
281
1
  0
DICTIONARY
  5
1A
102
{ACAD_REACTORS
330
C
102
}
100
AcDbDictionary
281
1
  3
Model
350
381
  3
Layout1
350
382
  0
ACDBPLACEHOLDER
  5
F
102
{ACAD_REACTORS
330
E
102
}
  0
MLINESTYLE
  5
18
102
{ACAD_REACTORS
330
17
102
}
100
AcDbMlineStyle
  2
STANDARD
 70
0
  3

 62
256
 51
90.0
 52
90.0
 71
2
 49
0.5
 62
256
  6
BYLAYER
 49
-0.5
 62
256
  6
BYLAYER
  0
LAYOUT
  5
381
102
{ACAD_REACTORS
330
1A
102
}
100
AcDbPlotSettings
  1

  2
none_device
  4
ISO_A4_(297.00_x_210.00_MM)
  6

 40
0.0
 41
0.0
 42
0.0
 43
0.0
 44
297.0
 45
210.0
 46
0.0
 47
0.0
 48
0.0
 49
0.0
140
0.0
141
0.0
142
1.0
143
1.0
 70
1024
 72
1
 73
0
 74
0
  7

 75
0
147
1.0
148
0.0
149
0.0
100
AcDbLayout
  1
Model
 70
0
 71
0
 10
0.0
 20
0.0
 11
297.0
 21
210.0
 12
0.0
 22
0.0
 32
0.0
 14
0.0
 24
0.0
 34
0.0
 15
0.0
 25
0.0
 35
0.0
146
0.0
 13
0.0
 23
0.0
 33
0.0
 16
1.0
 26
0.0
 36
0.0
 17
0.0
 27
1.0
 37
0.0
 76
0
330
226
345
0
346
0
  0
LAYOUT
  5
382
102
{ACAD_REACTORS
330
1A
102
}
100
AcDbPlotSettings
  1

  2
none_device
  4
ISO_A4_(297.00_x_210.00_MM)
  6

 40
0.0
 41
0.0
 42
0.0
 43
0.0
 44
297.0
 45
210.0
 46
0.0
 47
0.0
 48
0.0
 49
0.0
140
0.0
141
0.0
142
1.0
143
1.0
 70
0
 72
1
 73
0
 74
0
  7

 75
0
147
1.0
148
0.0
149
0.0
100
AcDbLayout
  1
Layout1
 70
0
 71
1
 10
0.0
 20
0.0
 11
297.0
 21
210.0
 12
0.0
 22
0.0
 32
0.0
 14
0.0
 24
0.0
 34
0.0
 15
0.0
 25
0.0
 35
0.0
146
0.0
 13
0.0
 23
0.0
 33
0.0
 16
1.0
 26
0.0
 36
0.0
 17
0.0
 27
1.0
 37
0.0
 76
0
330
227
345
0
346
0
  0
ENDSEC
  0
EOF
