  0
SECTION
  2
HEADER
  9
$ACADVER
  1
AC1021
  9
$DWGCODEPAGE
  3
ANSI_1252
  9
$EXTMAX
 10
297.0
 20
210.0
 30
0.0
  9
$EXTMIN
 10
0.0
 20
0.0
 30
0.0
  9
$LIMMIN
 10
0.0
 20
0.0
  9
$LIMMAX
 10
297.0
 20
210.0
  9
$VIEWCTR
 10
148.5
 20
105.0
  9
$VIEWSIZE
 40
210.0
  9
$CLAYER
  8
0
  9
$LTSCALE
 40
16.335
  9
$CELTYPE
  6
BYLAYER
  9
$DIMSCALE
 40
1.0
  9
$DIMASZ
 40
3.0
  9
$DIMEXO
 40
0.5
  9
$DIMDLI
 40
11.286
  9
$DIMEXE
 40
1.5
  9
$DIMCEN
 40
2.673
  9
$DIMLFAC
 40
1.0
  9
$DIMBLK
  1
_FILLED
  9
$DIMALT
 70
0
  9
$DIMALTF
 40
25.4
  9
$DIMTXT
 40
3.0
  9
$DIMTOL
 70
1
  9
$DIMLIM
 70
0
  9
$DIMTFAC
 40
1.0
  9
$DIMTP
 40
0.01
  9
$DIMTM
 40
0.01
  9
$DIMGAP
 40
0.625
  9
$DIMDSEP
 70
44
  9
$AUNITS
 70
0
  9
$PDMODE
 70
3
  9
$PDSIZE
 40
3.0
  9
$HANDSEED
  5
4A9
  9
$TILEMODE
 70
1
  9
$MEASUREMENT
 70
1
  9
$INSUNITS
 70
4
  0
ENDSEC
  0
SECTION
  2
CLASSES
  0
CLASS
  1
ACDBDICTIONARYWDFLT
  2
AcDbDictionaryWithDefault
  3
AutoCAD 2000
 90
0
 91
1
280
0
281
0
  0
CLASS
  1
ACDBPLACEHOLDER
  2
AcDbPlaceHolder
  3
AutoCAD 2000
 90
0
 91
1
280
0
281
0
  0
CLASS
  1
LAYOUT
  2
AcDbLayout
  3
AutoCAD 2000
 90
0
 91
0
280
0
281
0
  0
ENDSEC
  0
SECTION
  2
TABLES
  0
TABLE
  2
VPORT
  5
8
100
AcDbSymbolTable
 70
2
  0
VPORT
  5
1F4
100
AcDbSymbolTableRecord
100
AcDbViewportTableRecord
  2
*ACTIVE
 70
0
 10
0.0
 20
0.0
 11
1.0
 21
1.0
 12
148.5
 22
105.0
 13
0.0
 23
0.0
 14
1.0
 24
1.0
 15
0.0
 25
0.0
 16
0.0
 26
0.0
 36
1.0
 17
0.0
 27
0.0
 37
0.0
 40
210.0
 41
1.4142857143
 42
50.0
 43
0.0
 44
0.0
 50
0.0
 51
0.0
 71
0
 72
100
 73
1
 74
1
 75
0
 76
0
 77
0
 78
0
  0
ENDTAB
  0
TABLE
  2
LTYPE
  5
5
100
AcDbSymbolTable
 70
6
  0
LTYPE
  5
14
100
AcDbSymbolTableRecord
100
AcDbLinetypeTableRecord
  2
BYBLOCK
 70
0
  3

 72
65
 73
0
 40
0.0
  0
LTYPE
  5
15
100
AcDbSymbolTableRecord
100
AcDbLinetypeTableRecord
  2
BYLAYER
 70
0
  3

 72
65
 73
0
 40
0.0
  0
LTYPE
  5
16
100
AcDbSymbolTableRecord
100
AcDbLinetypeTableRecord
  2
CONTINUOUS
 70
64
  3
Solid line
 72
65
 73
0
 40
0.0
  0
LTYPE
  5
1F5
100
AcDbSymbolTableRecord
100
AcDbLinetypeTableRecord
  2
CENTER
 70
64
  3
____ _ ____ _ ____ _ ____ _ ____ _ ____ _ ____
 72
65
 73
4
 40
0.6
 49
0.375
 74
0
 49
-0.075
 74
0
 49
0.075
 74
0
 49
-0.075
 74
0
  0
LTYPE
  5
1F6
100
AcDbSymbolTableRecord
100
AcDbLinetypeTableRecord
  2
HIDDEN
 70
64
  3
- - - - - - - - - - - - - - - - - - - -
 72
65
 73
2
 40
0.2
 49
0.1
 74
0
 49
-0.1
 74
0
  0
LTYPE
  5
1F7
100
AcDbSymbolTableRecord
100
AcDbLinetypeTableRecord
  2
PHANTOM
 70
64
  3
_____ _ _ _____ _ _ _____ _ _ _____
 72
65
 73
6
 40
0.8
 49
0.45
 74
0
 49
-0.05
 74
0
 49
0.1
 74
0
 49
-0.05
 74
0
 49
0.1
 74
0
 49
-0.05
 74
0
  0
LTYPE
  5
1F8
100
AcDbSymbolTableRecord
100
AcDbLinetypeTableRecord
  2
DOT
 70
64
  3
. . . . . . . . . . . . . . . . . . . .
 72
65
 73
2
 40
0.2
 49
0.1
 74
0
 49
-0.1
 74
0
  0
LTYPE
  5
1F9
100
AcDbSymbolTableRecord
100
AcDbLinetypeTableRecord
  2
DASHED
 70
64
  3
- - - - - - - - - - - - - - - - - - - -
 72
65
 73
2
 40
0.2
 49
0.1
 74
0
 49
-0.1
 74
0
  0
ENDTAB
  0
TABLE
  2
LAYER
  5
2
100
AcDbSymbolTable
 70
36
  0
LAYER
  5
10
100
AcDbSymbolTableRecord
100
AcDbLayerTableRecord
  2
0
 70
0
 62
7
  6
CONTINUOUS
370
-3
390
F
  0
LAYER
  5
1FA
100
AcDbSymbolTableRecord
100
AcDbLayerTableRecord
  2
DEFAULT_1
 70
0
 62
7
  6
CENTER
370
-3
390
F
  0
LAYER
  5
1FB
100
AcDbSymbolTableRecord
100
AcDbLayerTableRecord
  2
DEFAULT_2
 70
0
 62
7
  6
HIDDEN
370
-3
390
F
  0
LAYER
  5
1FC
100
AcDbSymbolTableRecord
100
AcDbLayerTableRecord
  2
DEFAULT_3
 70
0
 62
7
  6
PHANTOM
370
-3
390
F
  0
LAYER
  5
1FD
100
AcDbSymbolTableRecord
100
AcDbLayerTableRecord
  2
ASSI
 70
0
 62
7
  6
CONTINUOUS
370
-3
390
F
  0
LAYER
  5
1FE
100
AcDbSymbolTableRecord
100
AcDbLayerTableRecord
  2
COORDINATE
 70
0
 62
7
  6
CONTINUOUS
370
-3
390
F
  0
LAYER
  5
1FF
100
AcDbSymbolTableRecord
100
AcDbLayerTableRecord
  2
COPY_PUBLISH
 70
0
 62
7
  6
CONTINUOUS
370
-3
390
F
  0
LAYER
  5
200
100
AcDbSymbolTableRecord
100
AcDbLayerTableRecord
  2
COSMETICI
 70
0
 62
7
  6
CONTINUOUS
370
-3
390
F
  0
LAYER
  5
201
100
AcDbSymbolTableRecord
100
AcDbLayerTableRecord
  2
CURVE
 70
0
 62
7
  6
CONTINUOUS
370
-3
390
F
  0
LAYER
  5
202
100
AcDbSymbolTableRecord
100
AcDbLayerTableRecord
  2
DRAFT
 70
0
 62
7
  6
CONTINUOUS
370
-3
390
F
  0
LAYER
  5
203
100
AcDbSymbolTableRecord
100
AcDbLayerTableRecord
  2
IMPORT_IGES
 70
0
 62
7
  6
CONTINUOUS
370
-3
390
F
  0
LAYER
  5
204
100
AcDbSymbolTableRecord
100
AcDbLayerTableRecord
  2
NOTE
 70
0
 62
7
  6
CONTINUOUS
370
-3
390
F
  0
LAYER
  5
205
100
AcDbSymbolTableRecord
100
AcDbLayerTableRecord
  2
PIANI
 70
0
 62
7
  6
CONTINUOUS
370
-3
390
F
  0
LAYER
  5
206
100
AcDbSymbolTableRecord
100
AcDbLayerTableRecord
  2
PUNTI
 70
0
 62
7
  6
CONTINUOUS
370
-3
390
F
  0
LAYER
  5
207
100
AcDbSymbolTableRecord
100
AcDbLayerTableRecord
  2
RACCORDO
 70
0
 62
7
  6
CONTINUOUS
370
-3
390
F
  0
LAYER
  5
208
100
AcDbSymbolTableRecord
100
AcDbLayerTableRecord
  2
SIMBOLI
 70
0
 62
7
  6
CONTINUOUS
370
-3
390
F
  0
LAYER
  5
209
100
AcDbSymbolTableRecord
100
AcDbLayerTableRecord
  2
SMUSSO
 70
0
 62
7
  6
CONTINUOUS
370
-3
390
F
  0
LAYER
  5
20A
100
AcDbSymbolTableRecord
100
AcDbLayerTableRecord
  2
SNAPLINE
 70
0
 62
7
  6
CONTINUOUS
370
-3
390
F
  0
LAYER
  5
20B
100
AcDbSymbolTableRecord
100
AcDbLayerTableRecord
  2
SUPERFICI
 70
0
 62
7
  6
CONTINUOUS
370
-3
390
F
  0
LAYER
  5
20C
100
AcDbSymbolTableRecord
100
AcDbLayerTableRecord
  2
TRASH
 70
0
 62
7
  6
CONTINUOUS
370
-3
390
F
  0
ENDTAB
  0
TABLE
  2
STYLE
  5
3
100
AcDbSymbolTable
 70
1
  0
STYLE
  5
11
100
AcDbSymbolTableRecord
100
AcDbTextStyleTableRecord
  2
STANDARD
 70
0
 40
0.0
 41
0.8
 50
0.0
 71
0
 42
0.2
  3
txt
  4

  0
STYLE
  5
20D
100
AcDbSymbolTableRecord
100
AcDbTextStyleTableRecord
  2
TEXTSTYLE_1
 70
0
 40
0.0
 41
0.8
 50
0.0
 71
0
 42
0.2
  3
gdt
  4

  0
ENDTAB
  0
TABLE
  2
VIEW
  5
6
100
AcDbSymbolTable
 70
0
  0
ENDTAB
  0
TABLE
  2
UCS
  5
7
100
AcDbSymbolTable
 70
0
  0
ENDTAB
  0
TABLE
  2
APPID
  5
9
100
AcDbSymbolTable
 70
1
  0
APPID
  5
20E
100
AcDbSymbolTableRecord
100
AcDbRegAppTableRecord
  2
ACAD
 70
0
  0
ENDTAB
  0
TABLE
  2
BLOCK_RECORD
  5
1
100
AcDbSymbolTable
 70
0
  0
BLOCK_RECORD
  5
20F
100
AcDbSymbolTableRecord
100
AcDbBlockTableRecord
  2
*Model_Space
  0
BLOCK_RECORD
  5
210
100
AcDbSymbolTableRecord
100
AcDbBlockTableRecord
  2
*Paper_Space
  0
BLOCK_RECORD
  5
211
100
AcDbSymbolTableRecord
100
AcDbBlockTableRecord
  2
_FILLED
  0
BLOCK_RECORD
  5
212
100
AcDbSymbolTableRecord
100
AcDbBlockTableRecord
  2
*D0
  0
BLOCK_RECORD
  5
213
100
AcDbSymbolTableRecord
100
AcDbBlockTableRecord
  2
*D1
  0
BLOCK_RECORD
  5
214
100
AcDbSymbolTableRecord
100
AcDbBlockTableRecord
  2
*D2
  0
ENDTAB
  0
TABLE
  2
DIMSTYLE
  5
A
100
AcDbSymbolTable
 70
1
100
AcDbDimStyleTable
 71
0
  0
DIMSTYLE
105
215
100
AcDbSymbolTableRecord
100
AcDbDimStyleTableRecord
  2
STANDARD
 70
0
  3

  4

 40
1.0
 41
3.0
 42
0.5
 43
0.38
 44
1.5
 45
0.0
 46
0.0
 47
0.01
 48
0.01
140
3.0
141
0.09
142
0.0
143
25.4
144
1.0
145
0.0
146
1.0
147
0.625
 71
1.0
 72
0.0
 73
0
 74
0
 75
0
 76
0
 77
1
 78
8
170
0
171
1
172
0
173
0
174
0
175
0
176
0
177
0
178
0
270
2
271
2
272
2
273
2
274
2
275
0
280
0
281
0
282
0
283
1
284
8
285
0
286
0
287
3
288
0
340
11
278
44
341
211
342
211
343
211
344
211
  0
DIMSTYLE
105
216
100
AcDbSymbolTableRecord
100
AcDbDimStyleTableRecord
  2
DIMSTYLE_1
 70
0
  3

  4

 40
1.0
 41
3.0
 42
0.5
 43
0.38
 44
1.5
 45
0.0
 46
0.0
 47
0.0
 48
0.0
140
3.0
141
0.09
142
0.0
143
25.4
144
1.0
145
0.0
146
1.0
147
0.75
 71
0.0
 72
0.0
 73
0
 74
0
 75
0
 76
0
 77
1
 78
8
170
0
171
1
172
0
173
0
174
0
175
0
176
0
177
0
178
0
270
2
271
2
272
2
273
2
274
2
275
0
280
0
281
0
282
0
283
1
284
8
285
0
286
0
287
3
288
0
340
11
278
44
341
211
342
211
343
211
344
211
  0
ENDTAB
  0
ENDSEC
  0
SECTION
  2
BLOCKS
  0
BLOCK
  5
20
100
AcDbEntity
  8
0
100
AcDbBlockBegin
  2
*Model_Space
 70
0
 10
0.0
 20
0.0
 30
0.0
  3
*Model_Space
  1

  0
ENDBLK
  5
21
100
AcDbEntity
  8
0
100
AcDbBlockEnd
  0
BLOCK
  5
1C
100
AcDbEntity
  8
0
100
AcDbBlockBegin
  2
*Paper_Space
 70
0
 10
0.0
 20
0.0
 30
0.0
  3
*Paper_Space
  1

  0
ENDBLK
  5
1D
100
AcDbEntity
  8
0
100
AcDbBlockEnd
  0
BLOCK
  5
217
100
AcDbEntity
  8
0
100
AcDbBlockBegin
  2
_FILLED
 70
64
 10
0.0
 20
0.0
  3
_FILLED
  1

  0
SOLID
  5
218
100
AcDbEntity
  8
0
  6
BYBLOCK
 62
0
100
AcDbTrace
 10
0.0
 20
0.0
 11
-1.0
 21
0.3166666667
 12
-1.0
 22
-0.3166666667
 13
-1.0
 23
-0.3166666667
  0
ENDBLK
  5
219
100
AcDbEntity
  8
0
  6
BYBLOCK
 62
0
100
AcDbBlockEnd
  0
BLOCK
  5
21A
100
AcDbEntity
  8
0
100
AcDbBlockBegin
 62
7
  6
CONTINUOUS
  2
*D0
 70
65
 10
0.0
 20
0.0
  3
*D0
  1

  0
MTEXT
  5
21B
100
AcDbEntity
  8
0
100
AcDbMText
 62
7
  6
CONTINUOUS
  7
STANDARD
 71
2
 72
1
 10
-33.5008882969
 20
53.8865823281
 30
0.0
 11
1.0
 21
0.0
 31
0.0
 44
0.9
  1
53
 40
3.0
 41
6.4285714286
  0
LINE
  5
21C
100
AcDbEntity
  8
0
100
AcDbLine
 62
7
  6
CONTINUOUS
 10
-60.0008882969
 20
12.6362832043
 11
-60.0008882969
 21
51.6365823281
  0
LINE
  5
21D
100
AcDbEntity
  8
0
100
AcDbLine
 62
7
  6
CONTINUOUS
 10
-7.0008882969
 20
12.6365823222
 11
-7.0008882969
 21
51.6365823281
  0
LINE
  5
21E
100
AcDbEntity
  8
0
100
AcDbLine
 62
7
  6
CONTINUOUS
 10
-60.0008882969
 20
50.1365823281
 11
-33.5008882969
 21
50.1365823281
  0
LINE
  5
21F
100
AcDbEntity
  8
0
100
AcDbLine
 62
7
  6
CONTINUOUS
 10
-7.0008882969
 20
50.1365823281
 11
-33.5008882969
 21
50.1365823281
  0
INSERT
  5
220
100
AcDbEntity
  8
0
100
AcDbBlockReference
 62
7
  6
CONTINUOUS
  2
_FILLED
 10
-60.0008882969
 20
50.1365823281
 41
3.0
 42
3.0
 43
3.0
 50
180.0
  0
INSERT
  5
221
100
AcDbEntity
  8
0
100
AcDbBlockReference
 62
7
  6
CONTINUOUS
  2
_FILLED
 10
-7.0008882969
 20
50.1365823281
 41
3.0
 42
3.0
 43
3.0
  0
ENDBLK
  5
222
100
AcDbEntity
  8
0
  6
BYBLOCK
 62
0
100
AcDbBlockEnd
  0
BLOCK
  5
223
100
AcDbEntity
  8
0
100
AcDbBlockBegin
 62
7
  6
CONTINUOUS
  2
*D1
 70
65
 10
0.0
 20
0.0
  3
*D1
  1

  0
MTEXT
  5
224
100
AcDbEntity
  8
0
100
AcDbMText
 62
7
  6
CONTINUOUS
  7
STANDARD
 71
2
 72
1
 10
29.9383066473
 20
53.8865823281
 30
0.0
 11
1.0
 21
0.0
 31
0.0
 44
0.9
  1
45,3
 40
3.0
 41
12.5357142857
  0
LINE
  5
225
100
AcDbEntity
  8
0
100
AcDbLine
 62
7
  6
CONTINUOUS
 10
7.2883955363
 20
9.5365823281
 11
7.2883955363
 21
51.6365823281
  0
LINE
  5
226
100
AcDbEntity
  8
0
100
AcDbLine
 62
7
  6
CONTINUOUS
 10
52.5882177584
 20
9.5365823281
 11
52.5882177584
 21
51.6365823281
  0
LINE
  5
227
100
AcDbEntity
  8
0
100
AcDbLine
 62
7
  6
CONTINUOUS
 10
7.2883955363
 20
50.1365823281
 11
29.9383066473
 21
50.1365823281
  0
LINE
  5
228
100
AcDbEntity
  8
0
100
AcDbLine
 62
7
  6
CONTINUOUS
 10
52.5882177584
 20
50.1365823281
 11
29.9383066473
 21
50.1365823281
  0
INSERT
  5
229
100
AcDbEntity
  8
0
100
AcDbBlockReference
 62
7
  6
CONTINUOUS
  2
_FILLED
 10
7.2883955363
 20
50.1365823281
 41
3.0
 42
3.0
 43
3.0
 50
180.0
  0
INSERT
  5
22A
100
AcDbEntity
  8
0
100
AcDbBlockReference
 62
7
  6
CONTINUOUS
  2
_FILLED
 10
52.5882177584
 20
50.1365823281
 41
3.0
 42
3.0
 43
3.0
 50
0.0
  0
ENDBLK
  5
22B
100
AcDbEntity
  8
0
  6
BYBLOCK
 62
0
100
AcDbBlockEnd
  0
BLOCK
  5
22C
100
AcDbEntity
  8
0
100
AcDbBlockBegin
 62
7
  6
CONTINUOUS
  2
*D2
 70
65
 10
0.0
 20
0.0
  3
*D2
  1

  0
MTEXT
  5
22D
100
AcDbEntity
  8
0
100
AcDbMText
 62
7
  6
CONTINUOUS
  7
STANDARD
 71
2
 72
1
 10
-71.7508882969
 20
9.0365823281
 30
0.0
 11
0.0
 21
1.0
 31
0.0
 44
0.9
  1
66,2
 40
3.0
 41
13.1785714286
  0
LINE
  5
22E
100
AcDbEntity
  8
0
100
AcDbLine
 62
7
  6
CONTINUOUS
 10
-55.4236326916
 20
42.1365823281
 11
-69.5008882969
 21
42.1365823281
  0
LINE
  5
22F
100
AcDbEntity
  8
0
100
AcDbLine
 62
7
  6
CONTINUOUS
 10
-50.1695350676
 20
-24.0634176719
 11
-69.5008882969
 21
-24.0634176719
  0
LINE
  5
230
100
AcDbEntity
  8
0
100
AcDbLine
 62
7
  6
CONTINUOUS
 10
-68.0008882969
 20
42.1365823281
 11
-68.0008882969
 21
9.0365823281
  0
LINE
  5
231
100
AcDbEntity
  8
0
100
AcDbLine
 62
7
  6
CONTINUOUS
 10
-68.0008882969
 20
-24.0634176719
 11
-68.0008882969
 21
9.0365823281
  0
INSERT
  5
232
100
AcDbEntity
  8
0
100
AcDbBlockReference
 62
7
  6
CONTINUOUS
  2
_FILLED
 10
-68.0008882969
 20
42.1365823281
 41
3.0
 42
3.0
 43
3.0
 50
90.0
  0
INSERT
  5
233
100
AcDbEntity
  8
0
100
AcDbBlockReference
 62
7
  6
CONTINUOUS
  2
_FILLED
 10
-68.0008882969
 20
-24.0634176719
 41
3.0
 42
3.0
 43
3.0
 50
270.0
  0
ENDBLK
  5
234
100
AcDbEntity
  8
0
  6
BYBLOCK
 62
0
100
AcDbBlockEnd
  0
ENDSEC
  0
SECTION
  2
ENTITIES
  0
DIMENSION
  5
235
100
AcDbEntity
  8
0
100
AcDbDimension
 62
7
  6
CONTINUOUS
  2
*D0
 10
-7.0008882969
 20
50.1365823281
 11
-33.929459507
 21
50.1365823281
 70
160
 71
2
 42
53.0
  3
DIMSTYLE_1
100
AcDbAlignedDimension
 13
-60.0008882969
 23
12.1362832043
 14
-7.0008882969
 24
12.1365823222
100
AcDbRotatedDimension
  0
DIMENSION
  5
236
100
AcDbEntity
  8
0
100
AcDbDimension
 62
7
  6
CONTINUOUS
  2
*D1
 10
52.5882177584
 20
50.1365823281
 11
29.509735508
 21
50.1365823281
 70
160
 71
2
 42
45.2998222221
  3
DIMSTYLE_1
100
AcDbAlignedDimension
 13
7.2883955363
 23
9.0365823281
 14
52.5882177584
 24
9.0365823281
100
AcDbRotatedDimension
  0
DIMENSION
  5
237
100
AcDbEntity
  8
0
100
AcDbDimension
 62
7
  6
CONTINUOUS
  2
*D2
 10
-68.0008882969
 20
-24.0634176719
 11
-68.0008882969
 21
8.6080125453
 70
160
 71
2
 42
66.2
  3
DIMSTYLE_1
100
AcDbAlignedDimension
 13
-54.9236326916
 23
42.1365823281
 14
-49.6695350676
 24
-24.0634176719
 50
270.0
100
AcDbRotatedDimension
  0
LINE
  5
238
100
AcDbEntity
  8
IMPORT_IGES
100
AcDbLine
 62
253
  6
CONTINUOUS
 10
-35.5008882969
 20
-41.5634176719
 11
-31.5008882969
 21
-41.5634176719
  0
LINE
  5
239
100
AcDbEntity
  8
IMPORT_IGES
100
AcDbLine
 62
253
  6
CONTINUOUS
 10
-45.0008882969
 20
-41.0634176719
 11
-41.0008882969
 21
-41.0634176719
  0
LINE
  5
23A
100
AcDbEntity
  8
IMPORT_IGES
100
AcDbLine
 62
253
  6
CONTINUOUS
 10
-26.0008882969
 20
-41.0634176719
 11
-22.0008882969
 21
-41.0634176719
  0
LINE
  5
23B
100
AcDbEntity
  8
IMPORT_IGES
100
AcDbLine
 62
7
  6
CONTINUOUS
 10
-22.0008882969
 20
-34.5634176719
 11
-26.0008882969
 21
-34.5634176719
  0
LINE
  5
23C
100
AcDbEntity
  8
IMPORT_IGES
100
AcDbLine
 62
7
  6
CONTINUOUS
 10
-41.0008882969
 20
-34.5634176719
 11
-45.0008882969
 21
-34.5634176719
  0
LINE
  5
23D
100
AcDbEntity
  8
IMPORT_IGES
100
AcDbLine
 62
7
  6
CONTINUOUS
 10
-44.9508882969
 20
-34.5134176719
 11
-41.0508882969
 21
-34.5134176719
  0
LINE
  5
23E
100
AcDbEntity
  8
IMPORT_IGES
100
AcDbLine
 62
7
  6
CONTINUOUS
 10
-25.9508882969
 20
-34.5134176719
 11
-22.0508882969
 21
-34.5134176719
  0
LINE
  5
23F
100
AcDbEntity
  8
IMPORT_IGES
100
AcDbLine
 62
7
  6
CONTINUOUS
 10
-60.0008882969
 20
12.136482112
 11
-60.0008882969
 21
5.7365930303
  0
LINE
  5
240
100
AcDbEntity
  8
IMPORT_IGES
100
AcDbLine
 62
7
  6
CONTINUOUS
 10
-59.9991427904
 20
9.0365823246
 11
-59.8348928245
 21
18.4464565702
  0
LWPOLYLINE
  5
241
100
AcDbEntity
  8
IMPORT_IGES
100
AcDbPolyline
 62
253
  6
CONTINUOUS
 90
19
 70
0
 10
-59.8460847791
 20
17.8052705681
 10
-59.8412481918
 20
17.8873286321
 10
-59.8297856483
 20
17.9679124337
 10
-59.8119705652
 20
18.0465119257
 10
-59.7882472974
 20
18.1222767657
 10
-59.7588784808
 20
18.1951797029
 10
-59.7236437841
 20
18.2658990119
 10
-59.6824917538
 20
18.3342340824
 10
-59.635743741
 20
18.3993869823
 10
-59.5834990312
 20
18.4610164679
 10
-59.5258796642
 20
18.5187311857
 10
-59.4632631588
 20
18.5719248717
 10
-59.396210178
 20
18.6199774485
 10
-59.3252505582
 20
18.6624357907
 10
-59.2507263743
 20
18.6990254679
 10
-59.1730007939
 20
18.729465706
 10
-59.092536288
 20
18.7534539867
 10
-59.0099071906
 20
18.7707005312
 10
-58.9256800334
 20
18.7809757558
  0
LWPOLYLINE
  5
242
100
AcDbEntity
  8
IMPORT_IGES
100
AcDbPolyline
 62
253
  6
CONTINUOUS
 90
19
 70
0
 10
-58.9256082233
 20
18.780982852
 10
-58.9563755857
 20
18.7673972116
 10
-58.9863406246
 20
18.7471214374
 10
-59.0154394831
 20
18.7203254151
 10
-59.0436720439
 20
18.6872601457
 10
-59.0709321472
 20
18.6480985286
 10
-59.0970080759
 20
18.602825534
 10
-59.1219438019
 20
18.5513804755
 10
-59.1456356995
 20
18.4940604498
 10
-59.1676615109
 20
18.4314254363
 10
-59.1879586548
 20
18.363965833
 10
-59.2065684823
 20
18.2919083958
 10
-59.223235305
 20
18.2155606152
 10
-59.2379607059
 20
18.1351604248
 10
-59.2507516743
 20
18.051286033
 10
-59.2613669488
 20
17.9648423353
 10
-59.2697294378
 20
17.8765268807
 10
-59.2759233587
 20
17.7867884993
 10
-59.2799477743
 20
17.6961905834
  0
LINE
  5
243
100
AcDbEntity
  8
IMPORT_IGES
100
AcDbLine
 62
7
  6
CONTINUOUS
 10
-41.0508882969
 20
-34.5134176719
 11
-41.0008882969
 21
-34.5634176719
  0
LWPOLYLINE
  5
244
100
AcDbEntity
  8
IMPORT_IGES
100
AcDbPolyline
 62
253
  6
CONTINUOUS
 90
19
 70
0
 10
-59.2799570884
 20
0.1769677331
 10
-59.2759648918
 20
0.0882244472
 10
-59.2699189033
 20
0.0004200416
 10
-59.2618194489
 20
-0.0859553376
 10
-59.251655553
 20
-0.1702853049
 10
-59.2394297834
 20
-0.252260542
 10
-59.2251605761
 20
-0.3318278464
 10
-59.2087779881
 20
-0.4088015225
 10
-59.1903458159
 20
-0.4822717002
 10
-59.1700874567
 20
-0.5511569473
 10
-59.1478239978
 20
-0.6152242293
 10
-59.12375328
 20
-0.6739592392
 10
-59.0986714241
 20
-0.7262777774
 10
-59.0730431189
 20
-0.7715240263
 10
-59.0464542895
 20
-0.8105004157
 10
-59.0184018647
 20
-0.8440838034
 10
-58.9887668035
 20
-0.8719994353
 10
-58.9578011083
 20
-0.893407624
 10
-58.9255880185
 20
-0.9078194753
  0
LINE
  5
245
100
AcDbEntity
  8
IMPORT_IGES
100
AcDbLine
 62
7
  6
CONTINUOUS
 10
-59.9991427887
 20
8.8365822314
 11
-59.8348929023
 21
-0.5732903538
  0
LINE
  5
246
100
AcDbEntity
  8
IMPORT_IGES
100
AcDbLine
 62
253
  6
CONTINUOUS
 10
-59.2799574772
 20
0.1769731484
 11
-59.4310852892
 21
8.8365823281
  0
LINE
  5
247
100
AcDbEntity
  8
IMPORT_IGES
100
AcDbLine
 62
253
  6
CONTINUOUS
 10
-58.914423793
 20
-1.5526842838
 11
-58.9255869671
 21
-0.9078197031
  0
LINE
  5
248
100
AcDbEntity
  8
IMPORT_IGES
100
AcDbLine
 62
253
  6
CONTINUOUS
 10
-59.7008882969
 20
9.0365823281
 11
-59.7008882969
 21
8.8365823281
  0
LINE
  5
249
100
AcDbEntity
  8
IMPORT_IGES
100
AcDbLine
 62
7
  6
CONTINUOUS
 10
-59.0008882969
 20
8.8365823281
 11
-59.0008882969
 21
9.0365823281
  0
LINE
  5
24A
100
AcDbEntity
  8
IMPORT_IGES
100
AcDbLine
 62
253
  6
CONTINUOUS
 10
-59.431153543
 20
9.0365823281
 11
-59.2800219834
 21
17.6961849192
  0
LINE
  5
24B
100
AcDbEntity
  8
IMPORT_IGES
100
AcDbLine
 62
253
  6
CONTINUOUS
 10
-58.9255735841
 20
18.7809946102
 11
-58.914423812
 21
19.4258489385
  0
LINE
  5
24C
100
AcDbEntity
  8
IMPORT_IGES
100
AcDbLine
 62
253
  6
CONTINUOUS
 10
-18.397395756
 20
-24.0604651224
 11
-18.4741416055
 21
-24.0634175655
  0
LINE
  5
24D
100
AcDbEntity
  8
IMPORT_IGES
100
AcDbLine
 62
7
  6
CONTINUOUS
 10
-48.6095762372
 20
-24.0634176719
 11
-18.3932119645
 21
-24.0634176719
  0
LINE
  5
24E
100
AcDbEntity
  8
IMPORT_IGES
100
AcDbLine
 62
253
  6
CONTINUOUS
 10
-48.527634988
 20
-24.0634175654
 11
-48.6022257891
 21
-24.0606288328
  0
LWPOLYLINE
  5
24F
100
AcDbEntity
  8
IMPORT_IGES
100
AcDbPolyline
 62
253
  6
CONTINUOUS
 90
7
 70
0
 10
-49.5270622455
 20
-23.0721471291
 10
-49.5208124085
 20
-23.0726893788
 10
-49.5081021192
 20
-23.0731866522
 10
-49.488996108
 20
-23.0736357325
 10
-49.4635889544
 20
-23.0740332538
 10
-49.4320099369
 20
-23.074377107
 10
-49.3020617555
 20
-23.0750754876
  0
LWPOLYLINE
  5
250
100
AcDbEntity
  8
IMPORT_IGES
100
AcDbPolyline
 62
253
  6
CONTINUOUS
 90
21
 70
0
 10
-48.6022257891
 20
-24.0606288328
 10
-48.6757845088
 20
-24.052370843
 10
-48.7479230766
 20
-24.0388262572
 10
-48.8180464404
 20
-24.0202731411
 10
-48.8860589011
 20
-23.9969042995
 10
-48.9523084392
 20
-23.9686597045
 10
-49.0165830124
 20
-23.9355868273
 10
-49.0783859736
 20
-23.8978967331
 10
-49.1375731911
 20
-23.8556205775
 10
-49.1937735196
 20
-23.80893391
 10
-49.2466546316
 20
-23.758017631
 10
-49.2960702322
 20
-23.7028617315
 10
-49.3417795857
 20
-23.6434817181
 10
-49.3832479769
 20
-23.5802925744
 10
-49.4199333024
 20
-23.5139394203
 10
-49.4515343874
 20
-23.4448831798
 10
-49.477879064
 20
-23.3734023744
 10
-49.498748422
 20
-23.2999573007
 10
-49.5139799098
 20
-23.2249872079
 10
-49.5234530744
 20
-23.1489022565
 10
-49.5270735501
 20
-23.072144915
  0
LWPOLYLINE
  5
251
100
AcDbEntity
  8
IMPORT_IGES
100
AcDbPolyline
 62
253
  6
CONTINUOUS
 90
19
 70
0
 10
-53.4179992685
 20
-3.5857442164
 10
-53.4124462632
 20
-3.672108496
 10
-53.4048825768
 20
-3.7566991438
 10
-53.3953439784
 20
-3.8391161588
 10
-53.383875813
 20
-3.9189704924
 10
-53.3705320709
 20
-3.9958836304
 10
-53.3553754736
 20
-4.0694896731
 10
-53.3384786364
 20
-4.1394405932
 10
-53.3199212802
 20
-4.2054057326
 10
-53.2997901262
 20
-4.2670716672
 10
-53.2781838441
 20
-4.324147157
 10
-53.2552030601
 20
-4.3763628363
 10
-53.2309517172
 20
-4.423471241
 10
-53.2055328188
 20
-4.4652509018
 10
-53.1790936614
 20
-4.5015045255
 10
-53.1517910565
 20
-4.5320601191
 10
-53.1237393477
 20
-4.5567749546
 10
-53.0950379067
 20
-4.5755349452
 10
-53.065800684
 20
-4.5882535565
  0
LWPOLYLINE
  5
252
100
AcDbEntity
  8
IMPORT_IGES
100
AcDbPolyline
 62
253
  6
CONTINUOUS
 90
22
 70
0
 10
-54.2869641417
 20
-3.3190255362
 10
-54.2820757676
 20
-3.4108938116
 10
-54.2706448992
 20
-3.5021831967
 10
-54.2527293086
 20
-3.592432458
 10
-54.2284195394
 20
-3.6811855922
 10
-54.1978384283
 20
-3.7679942125
 10
-54.1611404645
 20
-3.8524198073
 10
-54.118511048
 20
-3.9340358471
 10
-54.070165571
 20
-4.0124299461
 10
-54.0163482959
 20
-4.0872060238
 10
-53.9573311304
 20
-4.1579862792
 10
-53.8934122548
 20
-4.2244131002
 10
-53.8249146147
 20
-4.2861508699
 10
-53.7521842894
 20
-4.3428876625
 10
-53.675588744
 20
-4.3943368194
 10
-53.595514972
 20
-4.4402383974
 10
-53.512362493
 20
-4.4803627006
 10
-53.4265561598
 20
-4.5145040711
 10
-53.3385454919
 20
-4.5424855394
 10
-53.2487815282
 20
-4.5641680019
 10
-53.157713108
 20
-4.5794472522
 10
-53.0658004399
 20
-4.5882496337
  0
LWPOLYLINE
  5
253
100
AcDbEntity
  8
IMPORT_IGES
100
AcDbPolyline
 62
253
  6
CONTINUOUS
 90
25
 70
0
 10
-54.3100999742
 20
-1.9936753983
 10
-54.3140563003
 20
-1.9171366925
 10
-54.3227583451
 20
-1.8443409447
 10
-54.3355737
 20
-1.7757121117
 10
-54.3515859294
 20
-1.7124948527
 10
-54.3702695864
 20
-1.6538895291
 10
-54.3921225575
 20
-1.5972439528
 10
-54.4171686844
 20
-1.5424289166
 10
-54.4450723369
 20
-1.4900226248
 10
-54.4765782979
 20
-1.4387348347
 10
-54.5120630897
 20
-1.3885088138
 10
-54.5512302623
 20
-1.34023047
 10
-54.5940543723
 20
-1.2942078151
 10
-54.6417711517
 20
-1.2496902719
 10
-54.693058266
 20
-1.2084551886
 10
-54.7433839327
 20
-1.1736048004
 10
-54.7886945649
 20
-1.1463689267
 10
-54.8316330244
 20
-1.12382845
 10
-54.877678584
 20
-1.1029066243
 10
-54.9282260038
 20
-1.0835091753
 10
-54.9817983546
 20
-1.0667256322
 10
-55.0399689265
 20
-1.0526153307
 10
-55.1031694877
 20
-1.0418631961
 10
-55.170592421
 20
-1.0353897758
 10
-55.2418729631
 20
-1.0339586262
  0
LWPOLYLINE
  5
254
100
AcDbEntity
  8
IMPORT_IGES
100
AcDbPolyline
 62
253
  6
CONTINUOUS
 90
19
 70
0
 10
-55.6328726745
 20
0.0518441654
 10
-55.6286071481
 20
-0.0397698961
 10
-55.6218446482
 20
-0.1303576222
 10
-55.6126095594
 20
-0.2191574133
 10
-55.6010062732
 20
-0.3051848024
 10
-55.5871210193
 20
-0.3880009372
 10
-55.5709470397
 20
-0.4676689215
 10
-55.5525987365
 20
-0.5435689932
 10
-55.5322347305
 20
-0.6150982384
 10
-55.5098501811
 20
-0.682278503
 10
-55.4856120553
 20
-0.7445681238
 10
-55.4597160467
 20
-0.801501809
 10
-55.4321541156
 20
-0.8530934124
 10
-55.4031449767
 20
-0.8988981304
 10
-55.3729147066
 20
-0.9385904721
 10
-55.3414402787
 20
-0.9721903592
 10
-55.3088818146
 20
-0.9994532476
 10
-55.2756004854
 20
-1.0200716549
 10
-55.2418771536
 20
-1.0339604669
  0
LINE
  5
255
100
AcDbEntity
  8
IMPORT_IGES
100
AcDbLine
 62
253
  6
CONTINUOUS
 10
-55.2418731734
 20
-1.0339617045
 11
-55.2279438163
 21
-1.8249641482
  0
LINE
  5
256
100
AcDbEntity
  8
IMPORT_IGES
100
AcDbLine
 62
7
  6
CONTINUOUS
 10
-54.310102278
 20
-1.9935413728
 11
-54.2733871488
 21
-4.0969497148
  0
LINE
  5
257
100
AcDbEntity
  8
IMPORT_IGES
100
AcDbLine
 62
253
  6
CONTINUOUS
 10
-53.4180195009
 20
-3.585814325
 11
-53.4417474716
 21
-2.2290462706
  0
LINE
  5
258
100
AcDbEntity
  8
IMPORT_IGES
100
AcDbLine
 62
7
  6
CONTINUOUS
 10
-54.9052136531
 20
41.6409455959
 11
-55.0861370308
 21
20.9091799743
  0
LWPOLYLINE
  5
259
100
AcDbEntity
  8
IMPORT_IGES
100
AcDbPolyline
 62
7
  6
CONTINUOUS
 90
22
 70
0
 10
-55.0861323947
 20
20.9091799339
 10
-55.0868952775
 20
20.8745729816
 10
-55.0941313352
 20
20.7760904598
 10
-55.1088837321
 20
20.6781150409
 10
-55.1309577094
 20
20.5819084282
 10
-55.1601332389
 20
20.4880345576
 10
-55.1964438036
 20
20.3963499279
 10
-55.2396325447
 20
20.3076201104
 10
-55.2892639406
 20
20.2226789368
 10
-55.3453472987
 20
20.1415060629
 10
-55.4074324584
 20
20.0648121113
 10
-55.4749507993
 20
19.9932496005
 10
-55.5479079352
 20
19.9268126503
 10
-55.6256850179
 20
19.8661072954
 10
-55.7075989396
 20
19.8116240699
 10
-55.7936698423
 20
19.7633523074
 10
-55.8830891077
 20
19.7217759771
 10
-55.9751076684
 20
19.6871955936
 10
-56.0698691237
 20
19.6595686209
 10
-56.1668230203
 20
19.6391478862
 10
-56.2647188741
 20
19.6262016177
 10
-56.2934781403
 20
19.6238266496
  0
LWPOLYLINE
  5
25A
100
AcDbEntity
  8
IMPORT_IGES
100
AcDbPolyline
 62
253
  6
CONTINUOUS
 90
5
 70
0
 10
-17.5382288559
 20
-23.0740336341
 10
-17.5128151047
 20
-23.0736362231
 10
-17.4937016881
 20
-23.0731872833
 10
-17.480982205
 20
-23.0726901814
 10
-17.4747207404
 20
-23.0721481381
  0
LINE
  5
25B
100
AcDbEntity
  8
IMPORT_IGES
100
AcDbLine
 62
253
  6
CONTINUOUS
 10
-17.6074023409
 20
-23.074666706
 11
-17.5382288559
 21
-23.0740336341
  0
LINE
  5
25C
100
AcDbEntity
  8
IMPORT_IGES
100
AcDbLine
 62
253
  6
CONTINUOUS
 10
-17.7541014527
 20
-23.0751930918
 11
-17.6074023409
 21
-23.074666706
  0
LINE
  5
25D
100
AcDbEntity
  8
IMPORT_IGES
100
AcDbLine
 62
253
  6
CONTINUOUS
 10
-49.0554830113
 20
-23.075193071
 11
-48.2980872141
 21
-23.0721463538
  0
LINE
  5
25E
100
AcDbEntity
  8
IMPORT_IGES
100
AcDbLine
 62
253
  6
CONTINUOUS
 10
-49.6095390093
 20
-23.0721442074
 11
-49.5270721254
 21
-23.0721442074
  0
LINE
  5
25F
100
AcDbEntity
  8
IMPORT_IGES
100
AcDbLine
 62
253
  6
CONTINUOUS
 10
-48.2978302109
 20
-23.0721442074
 11
-18.7039470874
 21
-23.0721442074
  0
LINE
  5
260
100
AcDbEntity
  8
IMPORT_IGES
100
AcDbLine
 62
253
  6
CONTINUOUS
 10
-17.474709849
 20
-23.0721442074
 11
-17.3922375845
 21
-23.0721442074
  0
LINE
  5
261
100
AcDbEntity
  8
IMPORT_IGES
100
AcDbLine
 62
253
  6
CONTINUOUS
 10
-49.3020617555
 20
-23.0750754876
 11
-49.0554830113
 21
-23.075193071
  0
LINE
  5
262
100
AcDbEntity
  8
IMPORT_IGES
100
AcDbLine
 62
253
  6
CONTINUOUS
 10
-18.1756557679
 20
-23.0746661843
 11
-17.7541014527
 21
-23.0751930918
  0
LINE
  5
263
100
AcDbEntity
  8
IMPORT_IGES
100
AcDbLine
 62
253
  6
CONTINUOUS
 10
-18.7036998727
 20
-23.0721462371
 11
-18.1756557679
 21
-23.0746661843
  0
LWPOLYLINE
  5
264
100
AcDbEntity
  8
IMPORT_IGES
100
AcDbPolyline
 62
253
  6
CONTINUOUS
 90
19
 70
0
 10
-54.2869658506
 20
-3.319026357
 10
-54.2835807025
 20
-3.3395846001
 10
-54.2741580337
 20
-3.3596923832
 10
-54.2587345467
 20
-3.3793835678
 10
-54.2373817954
 20
-3.3988119879
 10
-54.2102052515
 20
-3.4178878872
 10
-54.1773320053
 20
-3.4362813823
 10
-54.1389021654
 20
-3.4540157809
 10
-54.095102793
 20
-3.4711321168
 10
-54.0461584778
 20
-3.4873307463
 10
-53.9922652123
 20
-3.502625955
 10
-53.9336718651
 20
-3.5170633409
 10
-53.8707131699
 20
-3.5303897004
 10
-53.8036240955
 20
-3.5426050486
 10
-53.7326915891
 20
-3.553756709
 10
-53.6583605937
 20
-3.5636555488
 10
-53.5809742786
 20
-3.5722452375
 10
-53.5007589239
 20
-3.579605634
 10
-53.4179992685
 20
-3.5857442164
  0
LWPOLYLINE
  5
265
100
AcDbEntity
  8
IMPORT_IGES
100
AcDbPolyline
 62
253
  6
CONTINUOUS
 90
22
 70
0
 10
-49.5760309586
 20
-5.9250598838
 10
-49.5823412524
 20
-5.834346971
 10
-49.5945101372
 20
-5.7442123635
 10
-49.6123949517
 20
-5.6553964077
 10
-49.635600023
 20
-5.5691009492
 10
-49.6638668112
 20
-5.4854849646
 10
-49.6974181078
 20
-5.4036870568
 10
-49.7361539182
 20
-5.3241069686
 10
-49.7797168076
 20
-5.2475199695
 10
-49.8282899516
 20
-5.1736936656
 10
-49.8815969985
 20
-5.1032159771
 10
-49.9393054013
 20
-5.0366129532
 10
-50.0017042758
 20
-4.9737165001
 10
-50.0686037253
 20
-4.9149809612
 10
-50.1394199732
 20
-4.8611057539
 10
-50.2139023439
 20
-4.8124098146
 10
-50.2913770286
 20
-4.7694147586
 10
-50.3713589783
 20
-4.7324059094
 10
-50.453853699
 20
-4.7014368419
 10
-50.5384039537
 20
-4.676779082
 10
-50.6240801893
 20
-4.6587334096
 10
-50.7101540887
 20
-4.6473894262
  0
LWPOLYLINE
  5
266
100
AcDbEntity
  8
IMPORT_IGES
100
AcDbPolyline
 62
253
  6
CONTINUOUS
 90
22
 70
0
 10
-49.6714505897
 20
-6.0039297703
 10
-49.6758513649
 20
-5.911551393
 10
-49.6869422812
 20
-5.8191640246
 10
-49.7047170246
 20
-5.7275420934
 10
-49.7289656528
 20
-5.6377260324
 10
-49.7594855536
 20
-5.5501853137
 10
-49.7962966093
 20
-5.4648209491
 10
-49.8391457377
 20
-5.3822818962
 10
-49.8876495049
 20
-5.3032398373
 10
-49.9418254169
 20
-5.2276534252
 10
-50.0012833294
 20
-5.1561093711
 10
-50.0655368641
 20
-5.0891510238
 10
-50.1346042975
 20
-5.0267592706
 10
-50.2079626362
 20
-4.9694426697
 10
-50.2850411502
 20
-4.9176159262
 10
-50.3658805457
 20
-4.8712596533
 10
-50.4498243082
 20
-4.8307857648
 10
-50.5362331976
 20
-4.7964753036
 10
-50.6252061206
 20
-4.7683038365
 10
-50.7162815159
 20
-4.7464941804
 10
-50.8084251618
 20
-4.7313022557
 10
-50.9008605959
 20
-4.7227692439
  0
LINE
  5
267
100
AcDbEntity
  8
IMPORT_IGES
100
AcDbLine
 62
253
  6
CONTINUOUS
 10
-53.0521255484
 20
-5.3718889392
 11
-53.0658008638
 21
-4.5882565235
  0
LWPOLYLINE
  5
268
100
AcDbEntity
  8
IMPORT_IGES
100
AcDbPolyline
 62
253
  6
CONTINUOUS
 90
17
 70
0
 10
-48.2939961846
 20
-23.4301615333
 10
-48.2924484941
 20
-23.4961967228
 10
-48.2906390215
 20
-23.5602138586
 10
-48.2885823085
 20
-23.6217178967
 10
-48.2862800989
 20
-23.6805649075
 10
-48.2837420114
 20
-23.7363850973
 10
-48.2809779343
 20
-23.7888475557
 10
-48.277987398
 20
-23.8378058291
 10
-48.2747713496
 20
-23.8830192006
 10
-48.271352366
 20
-23.923956316
 10
-48.2677654087
 20
-23.9600804375
 10
-48.264035976
 20
-23.9910942661
 10
-48.2601784541
 20
-24.0168279805
 10
-48.2562163878
 20
-24.0370665813
 10
-48.2521736665
 20
-24.0516512705
 10
-48.2480734919
 20
-24.0604651154
 10
-48.2439402963
 20
-24.0634175654
  0
LINE
  5
269
100
AcDbEntity
  8
IMPORT_IGES
100
AcDbLine
 62
253
  6
CONTINUOUS
 10
-48.2963193717
 20
-23.292324575
 11
-48.2939961846
 21
-23.4301615333
  0
LINE
  5
26A
100
AcDbEntity
  8
IMPORT_IGES
100
AcDbLine
 62
7
  6
CONTINUOUS
 10
-49.6095390093
 20
-23.0721442074
 11
-49.7549060982
 21
-6.4147257154
  0
LINE
  5
26B
100
AcDbEntity
  8
IMPORT_IGES
100
AcDbLine
 62
7
  6
CONTINUOUS
 10
-49.6714598229
 20
-6.0039987787
 11
-49.5270622455
 21
-23.0721471291
  0
LINE
  5
26C
100
AcDbEntity
  8
IMPORT_IGES
100
AcDbLine
 62
253
  6
CONTINUOUS
 10
-48.2980872141
 20
-23.0721463538
 11
-48.4451074252
 21
-5.6939962569
  0
LWPOLYLINE
  5
26D
100
AcDbEntity
  8
IMPORT_IGES
100
AcDbPolyline
 62
253
  6
CONTINUOUS
 90
3
 70
0
 10
-48.2978300834
 20
-23.0721447035
 10
-48.297607444
 20
-23.1467471115
 10
-48.2963193717
 20
-23.292324575
  0
LWPOLYLINE
  5
26E
100
AcDbEntity
  8
IMPORT_IGES
100
AcDbPolyline
 62
253
  6
CONTINUOUS
 90
6
 70
0
 10
-49.7549100537
 20
-6.4142557831
 10
-49.7541558883
 20
-6.3761146779
 10
-49.7462569352
 20
-6.2939719155
 10
-49.7298369255
 20
-6.2045612069
 10
-49.7049001735
 20
-6.1078824764
 10
-49.6714516071
 20
-6.0039357242
  0
LWPOLYLINE
  5
26F
100
AcDbEntity
  8
IMPORT_IGES
100
AcDbPolyline
 62
253
  6
CONTINUOUS
 90
11
 70
0
 10
-48.3935693267
 20
-5.2363197769
 10
-48.3849316028
 20
-5.1502919446
 10
-48.3769850026
 20
-5.0672076376
 10
-48.3697886354
 20
-4.9877022283
 10
-48.36333941
 20
-4.9117408586
 10
-48.3576950302
 20
-4.8399805473
 10
-48.3528956843
 20
-4.7729565126
 10
-48.3489380764
 20
-4.7106117834
 10
-48.3458533158
 20
-4.6533461847
 10
-48.343677478
 20
-4.6018233221
 10
-48.3424166434
 20
-4.5564002493
  0
LINE
  5
270
100
AcDbEntity
  8
IMPORT_IGES
100
AcDbLine
 62
253
  6
CONTINUOUS
 10
-48.4127068793
 20
-5.4151405012
 11
-48.3935693267
 21
-5.2363197769
  0
LWPOLYLINE
  5
271
100
AcDbEntity
  8
IMPORT_IGES
100
AcDbPolyline
 62
253
  6
CONTINUOUS
 90
3
 70
0
 10
-48.4453773658
 20
-5.693951039
 10
-48.4340842018
 20
-5.6006878952
 10
-48.4127068793
 20
-5.4151405012
  0
LWPOLYLINE
  5
272
100
AcDbEntity
  8
IMPORT_IGES
100
AcDbPolyline
 62
253
  6
CONTINUOUS
 90
10
 70
0
 10
-49.6714598229
 20
-6.0039987787
 10
-49.6688297182
 20
-5.9941876125
 10
-49.6641585909
 20
-5.984629929
 10
-49.6574639877
 20
-5.9753252145
 10
-49.648769129
 20
-5.9662627887
 10
-49.6380960934
 20
-5.9574524225
 10
-49.6254606658
 20
-5.9489242861
 10
-49.6108837272
 20
-5.9406881485
 10
-49.5943962766
 20
-5.9327334296
 10
-49.576029067
 20
-5.9250597817
  0
LWPOLYLINE
  5
273
100
AcDbEntity
  8
IMPORT_IGES
100
AcDbPolyline
 62
253
  6
CONTINUOUS
 90
10
 70
0
 10
-50.9008605959
 20
-4.7227692439
 10
-50.9344582583
 20
-4.8258701804
 10
-50.9595077734
 20
-4.9217883418
 10
-50.9760002303
 20
-5.0105214906
 10
-50.9839212581
 20
-5.0920712147
 10
-50.9832707853
 20
-5.1664296469
 10
-50.9740632589
 20
-5.2335831962
 10
-50.9563011973
 20
-5.2935285168
 10
-50.9299749723
 20
-5.3462687755
 10
-50.8950827193
 20
-5.391802984
  0
LWPOLYLINE
  5
274
100
AcDbEntity
  8
IMPORT_IGES
100
AcDbPolyline
 62
253
  6
CONTINUOUS
 90
10
 70
0
 10
-50.9008605959
 20
-4.7227692439
 10
-50.8954876193
 20
-4.7134806107
 10
-50.8861294827
 20
-4.7044092943
 10
-50.8727865827
 20
-4.6955560592
 10
-50.8554190554
 20
-4.686908959
 10
-50.8340675259
 20
-4.6784808263
 10
-50.808853135
 20
-4.6703101618
 10
-50.7798165235
 20
-4.6624107273
 10
-50.7469178053
 20
-4.654770657
 10
-50.7101573357
 20
-4.6473905703
  0
LWPOLYLINE
  5
275
100
AcDbEntity
  8
IMPORT_IGES
100
AcDbPolyline
 62
253
  6
CONTINUOUS
 90
3
 70
0
 10
-50.2566711023
 20
-5.5995000796
 10
-50.2777814848
 20
-5.5857726606
 10
-50.2961649003
 20
-5.5749870481
  0
LWPOLYLINE
  5
276
100
AcDbEntity
  8
IMPORT_IGES
100
AcDbPolyline
 62
253
  6
CONTINUOUS
 90
3
 70
0
 10
-50.1777384458
 20
-5.6548316874
 10
-50.200576233
 20
-5.6377221114
 10
-50.2171331983
 20
-5.6261081398
  0
LWPOLYLINE
  5
277
100
AcDbEntity
  8
IMPORT_IGES
100
AcDbPolyline
 62
253
  6
CONTINUOUS
 90
3
 70
0
 10
-50.0579869375
 20
-5.7578492933
 10
-50.1271198207
 20
-5.695220347
 10
-50.1386666204
 20
-5.6856842323
  0
LINE
  5
278
100
AcDbEntity
  8
IMPORT_IGES
100
AcDbLine
 62
7
  6
CONTINUOUS
 10
-22.0508882969
 20
-34.5134176719
 11
-22.0008882969
 21
-34.5634176719
  0
LINE
  5
279
100
AcDbEntity
  8
IMPORT_IGES
100
AcDbLine
 62
253
  6
CONTINUOUS
 10
-50.0161621535
 20
-5.8004918319
 11
-50.0579869375
 21
-5.7578492933
  0
LINE
  5
27A
100
AcDbEntity
  8
IMPORT_IGES
100
AcDbLine
 62
7
  6
CONTINUOUS
 10
-50.0136646904
 20
-5.8031658256
 11
-50.0161621535
 21
-5.8004918319
  0
LWPOLYLINE
  5
27B
100
AcDbEntity
  8
IMPORT_IGES
100
AcDbPolyline
 62
7
  6
CONTINUOUS
 90
10
 70
0
 10
-50.0136646904
 20
-5.8031658256
 10
-49.9483592352
 20
-5.8808201386
 10
-49.8882023565
 20
-5.9696817336
 10
-49.8414281896
 20
-6.0571447466
 10
-49.8067932549
 20
-6.1405302529
 10
-49.7826099145
 20
-6.2179702214
 10
-49.7670879674
 20
-6.2881371193
 10
-49.7585010982
 20
-6.349808019
 10
-49.7551369209
 20
-6.4020683608
 10
-49.7549096719
 20
-6.4142888131
  0
LINE
  5
27C
100
AcDbEntity
  8
IMPORT_IGES
100
AcDbLine
 62
7
  6
CONTINUOUS
 10
-45.0008882969
 20
-41.0634176719
 11
-45.0008882969
 21
-34.5634176719
  0
LINE
  5
27D
100
AcDbEntity
  8
IMPORT_IGES
100
AcDbLine
 62
7
  6
CONTINUOUS
 10
-44.9508882969
 20
-34.5134176719
 11
-44.9508882969
 21
-24.0634176719
  0
LWPOLYLINE
  5
27E
100
AcDbEntity
  8
IMPORT_IGES
100
AcDbPolyline
 62
253
  6
CONTINUOUS
 90
22
 70
0
 10
-44.3671237337
 20
20.4048699281
 10
-44.3710081994
 20
20.3157108684
 10
-44.3780125593
 20
20.2265425578
 10
-44.3881199193
 20
20.1380551571
 10
-44.4012208731
 20
20.0511767995
 10
-44.4172197304
 20
19.9663285074
 10
-44.436126808
 20
19.8834242487
 10
-44.4578204498
 20
19.8030481615
 10
-44.4821223421
 20
19.7258054319
 10
-44.5090408893
 20
19.6516578974
 10
-44.5383967123
 20
19.5811360375
 10
-44.5699679703
 20
19.5147378142
 10
-44.6037621164
 20
19.4524460391
 10
-44.6395439763
 20
19.3947256693
 10
-44.677056079
 20
19.3419661274
 10
-44.7163136169
 20
19.2941511719
 10
-44.757025949
 20
19.2516656164
 10
-44.7989064889
 20
19.2147863008
 10
-44.8419924471
 20
19.1834913929
 10
-44.8860788984
 20
19.1579937553
 10
-44.9307112114
 20
19.1385641731
 10
-44.9755460151
 20
19.1252802239
  0
LWPOLYLINE
  5
27F
100
AcDbEntity
  8
IMPORT_IGES
100
AcDbPolyline
 62
253
  6
CONTINUOUS
 90
7
 70
0
 10
-50.4127833077
 20
-5.5135151553
 10
-50.442900496
 20
-5.4988767635
 10
-50.529508583
 20
-5.4646276692
 10
-50.6187012802
 20
-5.4365807885
 10
-50.7100133101
 20
-5.414960339
 10
-50.8024015115
 20
-5.4000216064
 10
-50.8950827193
 20
-5.391802984
  0
LWPOLYLINE
  5
280
100
AcDbEntity
  8
IMPORT_IGES
100
AcDbPolyline
 62
253
  6
CONTINUOUS
 90
3
 70
0
 10
-50.335585689
 20
-5.552449875
 10
-50.3587767719
 20
-5.5393525035
 10
-50.3746565116
 20
-5.531911784
  0
LWPOLYLINE
  5
281
100
AcDbEntity
  8
IMPORT_IGES
100
AcDbPolyline
 62
253
  6
CONTINUOUS
 90
11
 70
0
 10
-42.8221217672
 20
-5.1678261747
 10
-42.822740674
 20
-5.1054876057
 10
-42.8236186855
 20
-5.0477707682
 10
-42.8247488041
 20
-4.9950668387
 10
-42.8261314745
 20
-4.9473579422
 10
-42.8277573222
 20
-4.9050332866
 10
-42.8296142784
 20
-4.8683710852
 10
-42.8317040433
 20
-4.83734876
 10
-42.8340182581
 20
-4.8121808604
 10
-42.8365332231
 20
-4.7931372688
 10
-42.8392275126
 20
-4.7802911964
  0
LINE
  5
282
100
AcDbEntity
  8
IMPORT_IGES
100
AcDbLine
 62
253
  6
CONTINUOUS
 10
-42.8216715625
 20
-5.304972444
 11
-42.8221217672
 21
-5.1678261747
  0
LINE
  5
283
100
AcDbEntity
  8
IMPORT_IGES
100
AcDbLine
 62
7
  6
CONTINUOUS
 10
-41.0508882969
 20
-34.5134176719
 11
-41.0508882969
 21
-24.0634176719
  0
LINE
  5
284
100
AcDbEntity
  8
IMPORT_IGES
100
AcDbLine
 62
7
  6
CONTINUOUS
 10
-41.0008882969
 20
-41.0634176719
 11
-41.0008882969
 21
-34.5634176719
  0
LINE
  5
285
100
AcDbEntity
  8
IMPORT_IGES
100
AcDbLine
 62
253
  6
CONTINUOUS
 10
-42.8222744153
 20
-5.4567515265
 11
-42.8216715625
 21
-5.304972444
  0
LINE
  5
286
100
AcDbEntity
  8
IMPORT_IGES
100
AcDbLine
 62
253
  6
CONTINUOUS
 10
-42.8239226278
 20
-5.620550721
 11
-42.8222744153
 21
-5.4567515265
  0
LINE
  5
287
100
AcDbEntity
  8
IMPORT_IGES
100
AcDbLine
 62
253
  6
CONTINUOUS
 10
-42.8265829266
 20
-5.7928953239
 11
-42.8239226278
 21
-5.620550721
  0
LWPOLYLINE
  5
288
100
AcDbEntity
  8
IMPORT_IGES
100
AcDbPolyline
 62
253
  6
CONTINUOUS
 90
3
 70
0
 10
-42.832366312
 20
-6.0607679246
 10
-42.8302202606
 20
-5.9712452413
 10
-42.8265829266
 20
-5.7928953239
  0
LWPOLYLINE
  5
289
100
AcDbEntity
  8
IMPORT_IGES
100
AcDbPolyline
 62
253
  6
CONTINUOUS
 90
17
 70
0
 10
-18.5566797486
 20
-5.694006532
 10
-18.484185359
 20
-5.6764084168
 10
-18.4102859396
 20
-5.663519775
 10
-18.3352695357
 20
-5.6553357506
 10
-18.258732264
 20
-5.6518680428
 10
-18.1817956435
 20
-5.6530936517
 10
-18.1069597573
 20
-5.6589598669
 10
-18.0356627767
 20
-5.6698393881
 10
-17.9669000995
 20
-5.6853600761
 10
-17.8994990053
 20
-5.7043533334
 10
-17.8330093964
 20
-5.7274106265
 10
-17.7687507234
 20
-5.7539318216
 10
-17.7081903938
 20
-5.7809610658
 10
-17.6524400947
 20
-5.8083596788
 10
-17.6006836309
 20
-5.8362691995
 10
-17.5516538054
 20
-5.8621522435
 10
-17.4633146506
 20
-5.9061257809
  0
LWPOLYLINE
  5
28A
100
AcDbEntity
  8
IMPORT_IGES
100
AcDbPolyline
 62
253
  6
CONTINUOUS
 90
8
 70
0
 10
-50.6217420695
 20
-5.4396806889
 10
-50.6882420779
 20
-5.4320672093
 10
-50.745947771
 20
-5.4246844114
 10
-50.7948623522
 20
-5.4175233096
 10
-50.8343014092
 20
-5.4106509846
 10
-50.8640369957
 20
-5.4040885766
 10
-50.8842973919
 20
-5.3978077125
 10
-50.8950827193
 20
-5.391802984
  0
LWPOLYLINE
  5
28B
100
AcDbEntity
  8
IMPORT_IGES
100
AcDbPolyline
 62
253
  6
CONTINUOUS
 90
10
 70
0
 10
-48.4453650542
 20
-5.693952487
 10
-47.9186091906
 20
-5.7555192516
 10
-47.3680187409
 20
-5.8117986547
 10
-46.7935884147
 20
-5.8627906963
 10
-46.1958231663
 20
-5.9083820757
 10
-45.5742084119
 20
-5.9486860936
 10
-44.9272096055
 20
-5.9840426516
 10
-44.2543123508
 20
-6.0145650502
 10
-43.5560229739
 20
-6.040139989
 10
-42.8323384183
 20
-6.0607674679
  0
LWPOLYLINE
  5
28C
100
AcDbEntity
  8
IMPORT_IGES
100
AcDbPolyline
 62
7
  6
CONTINUOUS
 90
26
 70
0
 10
-50.6565873491
 20
-5.4317739281
 10
-50.6598507228
 20
-5.4312643614
 10
-50.6614706512
 20
-5.4309995293
 10
-50.6602401602
 20
-5.4312181886
 10
-50.6560933813
 20
-5.4319972415
 10
-50.6481464266
 20
-5.4335974435
 10
-50.6364023079
 20
-5.4361502521
 10
-50.6210434091
 20
-5.4397673379
 10
-50.6015481353
 20
-5.4447600657
 10
-50.5776301244
 20
-5.451452278
 10
-50.5499043407
 20
-5.4599550646
 10
-50.5192820153
 20
-5.4702539901
 10
-50.4858692367
 20
-5.4825724646
 10
-50.4499711404
 20
-5.4970757623
 10
-50.4127833077
 20
-5.5135151553
 10
-50.3746565116
 20
-5.531911784
 10
-50.335585689
 20
-5.552449875
 10
-50.2961649003
 20
-5.5749870481
 10
-50.2566711023
 20
-5.5995000796
 10
-50.2171331983
 20
-5.6261081398
 10
-50.1777384458
 20
-5.6548316874
 10
-50.1386666204
 20
-5.6856842323
 10
-50.1000617534
 20
-5.7186985763
 10
-50.0620577223
 20
-5.7539141006
 10
-50.0248346961
 20
-5.791322738
 10
-50.0161644489
 20
-5.8004893782
  0
LWPOLYLINE
  5
28D
100
AcDbEntity
  8
IMPORT_IGES
100
AcDbPolyline
 62
253
  6
CONTINUOUS
 90
19
 70
0
 10
-48.4451074252
 20
-5.6939962569
 10
-48.5188886274
 20
-5.6762125744
 10
-48.5940300882
 20
-5.6632626605
 10
-48.6702305176
 20
-5.6551415532
 10
-48.7476772688
 20
-5.6518009872
 10
-48.8254448988
 20
-5.653278001
 10
-48.9016040722
 20
-5.659698606
 10
-48.975192251
 20
-5.6716313419
 10
-49.0465743053
 20
-5.6885047787
 10
-49.1158682275
 20
-5.7087374611
 10
-49.1832509338
 20
-5.732891769
 10
-49.2477656543
 20
-5.7603994222
 10
-49.3079770953
 20
-5.7879858129
 10
-49.3631486151
 20
-5.8154379484
 10
-49.413852178
 20
-5.8429739839
 10
-49.4606818134
 20
-5.867967369
 10
-49.5035971837
 20
-5.889541381
 10
-49.542119537
 20
-5.9085720667
 10
-49.576029067
 20
-5.9250597817
  0
LWPOLYLINE
  5
28E
100
AcDbEntity
  8
IMPORT_IGES
100
AcDbPolyline
 62
253
  6
CONTINUOUS
 90
22
 70
0
 10
-13.9359737438
 20
-4.5882521054
 10
-13.8440468117
 20
-4.5794478466
 10
-13.7529684122
 20
-4.5641655179
 10
-13.6631987649
 20
-4.5424796496
 10
-13.5751878613
 20
-4.5144957608
 10
-13.489385175
 20
-4.4803535146
 10
-13.4062363011
 20
-4.4402287907
 10
-13.3261649079
 20
-4.3943265282
 10
-13.2495717157
 20
-4.3428769575
 10
-13.176843692
 20
-4.2861400142
 10
-13.1083482762
 20
-4.224402347
 10
-13.0444315237
 20
-4.1579758697
 10
-12.9854163575
 20
-4.0871961847
 10
-12.9316009364
 20
-4.0124208882
 10
-12.8832571489
 20
-3.9340277631
 10
-12.8406292396
 20
-3.8524128703
 10
-12.8039325834
 20
-3.7679885697
 10
-12.7733525691
 20
-3.6811813727
 10
-12.7490436784
 20
-3.5924297826
 10
-12.7311287363
 20
-3.5021821675
 10
-12.7196982753
 20
-3.4108945007
 10
-12.7148100598
 20
-3.3190279899
  0
LWPOLYLINE
  5
28F
100
AcDbEntity
  8
IMPORT_IGES
100
AcDbPolyline
 62
253
  6
CONTINUOUS
 90
13
 70
0
 10
-19.2246676533
 20
-4.5952195509
 10
-18.4715609123
 20
-4.5442613621
 10
-18.2867896308
 20
-4.5357743609
 10
-18.1062827515
 20
-4.5311584021
 10
-17.9331278695
 20
-4.5301128744
 10
-17.7648252076
 20
-4.5317143453
 10
-17.5951207265
 20
-4.5366044395
 10
-17.4229358472
 20
-4.5454055433
 10
-17.2520187265
 20
-4.5573912725
 10
-17.0853031052
 20
-4.5718172788
 10
-16.9193082847
 20
-4.5872057557
 10
-16.7584155357
 20
-4.6029973069
 10
-16.4945785414
 20
-4.6311065264
  0
LWPOLYLINE
  5
290
100
AcDbEntity
  8
IMPORT_IGES
100
AcDbPolyline
 62
253
  6
CONTINUOUS
 90
9
 70
0
 10
-19.2246676533
 20
-4.5952195509
 10
-19.8016557113
 20
-4.6299583582
 10
-20.3903058844
 20
-4.6608607416
 10
-20.9907563226
 20
-4.6881834947
 10
-21.6028131139
 20
-4.7121946517
 10
-22.2259436958
 20
-4.733161263
 10
-22.8599721756
 20
-4.7513356538
 10
-23.5050808222
 20
-4.7669583352
 10
-26.2370693412
 20
-4.8269699993
  0
LWPOLYLINE
  5
291
100
AcDbEntity
  8
IMPORT_IGES
100
AcDbPolyline
 62
253
  6
CONTINUOUS
 90
10
 70
0
 10
-24.1693932026
 20
-6.0607634946
 10
-23.4445760446
 20
-6.0400855713
 10
-22.7455071588
 20
-6.0144723294
 10
-22.0721833943
 20
-5.9839237689
 10
-21.4252015436
 20
-5.9485519939
 10
-20.8039565188
 20
-5.9082449004
 10
-20.2066420184
 20
-5.8626661762
 10
-19.632652893
 20
-5.8117037176
 10
-19.082584631
 20
-5.7554696284
 10
-18.5564319185
 20
-5.6939639086
  0
LINE
  5
292
100
AcDbEntity
  8
IMPORT_IGES
100
AcDbLine
 62
253
  6
CONTINUOUS
 10
-16.2916327657
 20
-4.6473889411
 11
-13.9360859929
 21
-4.5882631532
  0
LWPOLYLINE
  5
293
100
AcDbEntity
  8
IMPORT_IGES
100
AcDbPolyline
 62
253
  6
CONTINUOUS
 90
9
 70
0
 10
-26.2370693412
 20
-4.8269699993
 10
-28.3120055151
 20
-4.86197741
 10
-30.3872674478
 20
-4.8853133112
 10
-32.4629299336
 20
-4.896982242
 10
-34.5388114288
 20
-4.8969823436
 10
-36.6144739204
 20
-4.8853136159
 10
-38.6897358647
 20
-4.8619779177
 10
-40.7646720559
 20
-4.8269707099
 10
-43.4965999042
 20
-4.7669651967
  0
LWPOLYLINE
  5
294
100
AcDbEntity
  8
IMPORT_IGES
100
AcDbPolyline
 62
253
  6
CONTINUOUS
 90
10
 70
0
 10
-33.5008882969
 20
-6.1793221418
 10
-32.4638682535
 20
-6.1778614259
 10
-31.4268550197
 20
-6.1734725793
 10
-30.3898630372
 20
-6.1661556021
 10
-29.3528983355
 20
-6.1559104755
 10
-28.3159837703
 20
-6.1427372182
 10
-27.2791590181
 20
-6.1266358859
 10
-26.2424469246
 20
-6.1076064972
 10
-25.2058535097
 20
-6.0856490334
 10
-24.1693932026
 20
-6.0607634946
  0
LWPOLYLINE
  5
295
100
AcDbEntity
  8
IMPORT_IGES
100
AcDbPolyline
 62
253
  6
CONTINUOUS
 90
13
 70
0
 10
-42.8392287549
 20
-4.7802839502
 10
-41.2912891032
 20
-4.7962100545
 10
-39.7400043882
 20
-4.8091238048
 10
-38.1853491935
 20
-4.8191100133
 10
-36.6261313649
 20
-4.8262292011
 10
-35.0634849194
 20
-4.8304888443
 10
-33.5008706474
 20
-4.8318999506
 10
-31.9382563814
 20
-4.8304886916
 10
-30.3756099512
 20
-4.8262288957
 10
-28.8163921426
 20
-4.8191095555
 10
-27.2617369712
 20
-4.809123195
 10
-25.7104522843
 20
-4.7962092928
 10
-24.1625126654
 20
-4.7802830368
  0
LWPOLYLINE
  5
296
100
AcDbEntity
  8
IMPORT_IGES
100
AcDbPolyline
 62
253
  6
CONTINUOUS
 90
10
 70
0
 10
-42.8323384183
 20
-6.0607674679
 10
-41.7958831036
 20
-6.0856526103
 10
-40.7592946828
 20
-6.1076096664
 10
-39.7225875847
 20
-6.1266386363
 10
-38.6857678293
 20
-6.1427395383
 10
-37.6488582619
 20
-6.1559123541
 10
-36.6118985587
 20
-6.1661570279
 10
-35.5749115752
 20
-6.1734735412
 10
-34.5379033408
 20
-6.1778619125
 10
-33.5008882969
 20
-6.1793221418
  0
LWPOLYLINE
  5
297
100
AcDbEntity
  8
IMPORT_IGES
100
AcDbPolyline
 62
253
  6
CONTINUOUS
 90
9
 70
0
 10
-43.4965999042
 20
-4.7669651967
 10
-44.14166729
 20
-4.7513430579
 10
-44.7756728361
 20
-4.7331685147
 10
-45.3987953269
 20
-4.7122016007
 10
-46.0108590601
 20
-4.6881901143
 10
-46.6113353638
 20
-4.6608663741
 10
-47.2000308025
 20
-4.6299618656
 10
-47.7770785474
 20
-4.5952193815
 10
-48.3424164229
 20
-4.5563888148
  0
LWPOLYLINE
  5
298
100
AcDbEntity
  8
IMPORT_IGES
100
AcDbPolyline
 62
253
  6
CONTINUOUS
 90
28
 70
0
 10
-53.4180195009
 20
-3.585814325
 10
-51.9949768728
 20
-3.6211891622
 10
-50.5600154544
 20
-3.6538945192
 10
-49.1140344993
 20
-3.683931478
 10
-47.6579125946
 20
-3.7113184382
 10
-46.1925897016
 20
-3.7360389071
 10
-44.7190672727
 20
-3.7580415165
 10
-43.2382678696
 20
-3.777321311
 10
-41.7511217487
 20
-3.7938846622
 10
-40.2586497645
 20
-3.8076970796
 10
-38.7617880662
 20
-3.8187529624
 10
-37.2614763672
 20
-3.8270587815
 10
-35.7587456867
 20
-3.8325980196
 10
-34.2545396981
 20
-3.8353656142
 10
-32.7498023355
 20
-3.8353669213
 10
-31.2455666619
 20
-3.8326009074
 10
-29.742776977
 20
-3.8270614004
 10
-28.2423768718
 20
-3.8187542789
 10
-26.745396833
 20
-3.8076964406
 10
-25.2527763947
 20
-3.7938816416
 10
-23.765452878
 20
-3.7773152553
 10
-22.2844487949
 20
-3.7580314708
 10
-20.8106968906
 20
-3.7360244964
 10
-19.34511883
 20
-3.7112987067
 10
-17.8887128227
 20
-3.6839034269
 10
-16.4424185506
 20
-3.6538544674
 10
-15.0071172393
 20
-3.6211341076
 10
-13.5837094919
 20
-3.5857412642
  0
LINE
  5
299
100
AcDbEntity
  8
IMPORT_IGES
100
AcDbLine
 62
253
  6
CONTINUOUS
 10
-53.0658008638
 20
-4.5882565235
 11
-50.7101573357
 21
-4.6473905703
  0
LWPOLYLINE
  5
29A
100
AcDbEntity
  8
IMPORT_IGES
100
AcDbPolyline
 62
253
  6
CONTINUOUS
 90
10
 70
0
 10
-48.3424164229
 20
-4.5563888148
 10
-48.5786134979
 20
-4.5418962062
 10
-48.8090316103
 20
-4.532858541
 10
-49.0335897577
 20
-4.5295189238
 10
-49.2518831066
 20
-4.5318057092
 10
-49.4640561343
 20
-4.539385896
 10
-49.6707998091
 20
-4.5516488961
 10
-49.8751645245
 20
-4.5677896481
 10
-50.073664198
 20
-4.5862593388
 10
-50.4230312201
 20
-4.6226593037
  0
LWPOLYLINE
  5
29B
100
AcDbEntity
  8
IMPORT_IGES
100
AcDbPolyline
 62
7
  6
CONTINUOUS
 90
21
 70
0
 10
-55.2279303889
 20
-1.8249619546
 10
-55.1496107064
 20
-1.8333981095
 10
-55.0764935141
 20
-1.8469973659
 10
-55.0048506161
 20
-1.8659135346
 10
-54.9350808972
 20
-1.8899760175
 10
-54.8670741322
 20
-1.9192143391
 10
-54.8013730559
 20
-1.9534281145
 10
-54.7385696586
 20
-1.9922875322
 10
-54.6786434939
 20
-2.0358030727
 10
-54.6220930569
 20
-2.0836426267
 10
-54.5693803928
 20
-2.1353872251
 10
-54.5205010342
 20
-2.1910412386
 10
-54.475876631
 20
-2.2501587517
 10
-54.4358532287
 20
-2.3122438495
 10
-54.4004270099
 20
-2.3773048474
 10
-54.3699307548
 20
-2.4447699844
 10
-54.3445770291
 20
-2.5140986437
 10
-54.3243421339
 20
-2.5853728287
 10
-54.3093983113
 20
-2.6581989515
 10
-54.2999274722
 20
-2.7317007806
 10
-54.2959417382
 20
-2.8048028211
  0
LWPOLYLINE
  5
29C
100
AcDbEntity
  8
IMPORT_IGES
100
AcDbPolyline
 62
253
  6
CONTINUOUS
 90
19
 70
0
 10
-58.9256799545
 20
-0.9078108544
 10
-59.0075831974
 20
-0.8979166588
 10
-59.0875992981
 20
-0.8815250981
 10
-59.1652342428
 20
-0.8589395838
 10
-59.2396637988
 20
-0.8306545532
 10
-59.3108768073
 20
-0.7969328171
 10
-59.3795387803
 20
-0.757513362
 10
-59.4454454817
 20
-0.7123575189
 10
-59.5078175586
 20
-0.6618342428
 10
-59.5663192859
 20
-0.6060634426
 10
-59.6205661626
 20
-0.5451907635
 10
-59.6699742772
 20
-0.4796291628
 10
-59.7139572369
 20
-0.4099745357
 10
-59.7520939438
 20
-0.3367818214
 10
-59.7841306733
 20
-0.260408185
 10
-59.8098086689
 20
-0.1812321061
 10
-59.8288535216
 20
-0.0997321882
 10
-59.841010506
 20
-0.0164975173
 10
-59.8460847211
 20
0.0678943234
  0
LINE
  5
29D
100
AcDbEntity
  8
IMPORT_IGES
100
AcDbLine
 62
7
  6
CONTINUOUS
 10
-35.5008882969
 20
-41.5634176719
 11
-35.5008882969
 21
-24.0634176719
  0
LINE
  5
29E
100
AcDbEntity
  8
IMPORT_IGES
100
AcDbLine
 62
253
  6
CONTINUOUS
 10
-33.5008883037
 20
19.1324307564
 11
-33.5008869938
 21
18.5264912445
  0
LWPOLYLINE
  5
29F
100
AcDbEntity
  8
IMPORT_IGES
100
AcDbPolyline
 62
253
  6
CONTINUOUS
 90
3
 70
0
 10
-50.4230312201
 20
-4.6226593037
 10
-50.5739346283
 20
-4.6373519823
 10
-50.7101437346
 20
-4.6473881672
  0
LINE
  5
2A0
100
AcDbEntity
  8
IMPORT_IGES
100
AcDbLine
 62
7
  6
CONTINUOUS
 10
-8.0873138323
 20
-1.5526811792
 11
-11.7738327582
 21
-1.8249641469
  0
LWPOLYLINE
  5
2A1
100
AcDbEntity
  8
IMPORT_IGES
100
AcDbPolyline
 62
253
  6
CONTINUOUS
 90
16
 70
0
 10
-7.7217620811
 20
0.1769838317
 10
-7.6553198385
 20
0.1815613132
 10
-7.5916844531
 20
0.1869865893
 10
-7.5312106675
 20
0.1932284081
 10
-7.4742388836
 20
0.2002504518
 10
-7.4210808874
 20
0.2080130365
 10
-7.372020951
 20
0.2164738641
 10
-7.3273332663
 20
0.22558523
 10
-7.2872665421
 20
0.2352959666
 10
-7.2520360056
 20
0.2455540474
 10
-7.2218411167
 20
0.2563022825
 10
-7.1968537053
 20
0.2674805421
 10
-7.1772125067
 20
0.2790288996
 10
-7.1630328976
 20
0.2908837912
 10
-7.1544022675
 20
0.3029780804
 10
-7.1513752965
 20
0.3152439997
  0
LINE
  5
2A2
100
AcDbEntity
  8
IMPORT_IGES
100
AcDbLine
 62
253
  6
CONTINUOUS
 10
-7.7217623418
 20
0.1769839262
 11
-8.9256595745
 21
0.1324773323
  0
LINE
  5
2A3
100
AcDbEntity
  8
IMPORT_IGES
100
AcDbLine
 62
253
  6
CONTINUOUS
 10
-10.1083444143
 20
-0.9811671541
 11
-8.0761670967
 21
-0.9078180424
  0
LINE
  5
2A4
100
AcDbEntity
  8
IMPORT_IGES
100
AcDbLine
 62
253
  6
CONTINUOUS
 10
-8.9256595745
 20
0.1324773323
 11
-10.1415491717
 21
0.0907589138
  0
LINE
  5
2A5
100
AcDbEntity
  8
IMPORT_IGES
100
AcDbLine
 62
253
  6
CONTINUOUS
 10
-10.1415491717
 20
0.0907589138
 11
-11.3689068874
 21
0.0518435374
  0
LINE
  5
2A6
100
AcDbEntity
  8
IMPORT_IGES
100
AcDbLine
 62
253
  6
CONTINUOUS
 10
-11.7599026681
 20
-1.0339613637
 11
-10.1083444143
 21
-0.9811671541
  0
LWPOLYLINE
  5
2A7
100
AcDbEntity
  8
IMPORT_IGES
100
AcDbPolyline
 62
253
  6
CONTINUOUS
 90
25
 70
0
 10
-11.7599027572
 20
-1.033960059
 10
-11.8378732043
 20
-1.0357993645
 10
-11.9110966707
 20
-1.0436137814
 10
-11.9791248004
 20
-1.0563878606
 10
-12.0401022546
 20
-1.0726180139
 10
-12.0954867686
 20
-1.0915278862
 10
-12.1497996002
 20
-1.1142280757
 10
-12.2042867608
 20
-1.1415288512
 10
-12.2570994738
 20
-1.1727700492
 10
-12.3079027854
 20
-1.2078227943
 10
-12.3565693758
 20
-1.2467127488
 10
-12.4026521028
 20
-1.2891473357
 10
-12.4454369008
 20
-1.3343715365
 10
-12.4849873413
 20
-1.3823254695
 10
-12.520962372
 20
-1.4324007227
 10
-12.5524470719
 20
-1.4826828534
 10
-12.5788438501
 20
-1.5309560157
 10
-12.6014732657
 20
-1.5783588496
 10
-12.6220648548
 20
-1.6281803103
 10
-12.6406136482
 20
-1.6809667431
 10
-12.6566144418
 20
-1.7359326734
 10
-12.6702058453
 20
-1.7946994144
 10
-12.6809788106
 20
-1.8577176783
 10
-12.6882976307
 20
-1.9241552762
 10
-12.6916766897
 20
-1.9936780467
  0
LINE
  5
2A8
100
AcDbEntity
  8
IMPORT_IGES
100
AcDbLine
 62
253
  6
CONTINUOUS
 10
-55.632870556
 20
0.0518443619
 11
-56.8602326395
 21
0.0907578431
  0
LINE
  5
2A9
100
AcDbEntity
  8
IMPORT_IGES
100
AcDbLine
 62
253
  6
CONTINUOUS
 10
-57.3028168879
 20
-0.967162849
 11
-55.2418731734
 21
-1.0339617045
  0
LINE
  5
2AA
100
AcDbEntity
  8
IMPORT_IGES
100
AcDbLine
 62
253
  6
CONTINUOUS
 10
-56.8602326395
 20
0.0907578431
 11
-58.0761265124
 21
0.1324742698
  0
LINE
  5
2AB
100
AcDbEntity
  8
IMPORT_IGES
100
AcDbLine
 62
253
  6
CONTINUOUS
 10
-58.0761265124
 20
0.1324742698
 11
-59.2799574772
 21
0.1769731484
  0
LINE
  5
2AC
100
AcDbEntity
  8
IMPORT_IGES
100
AcDbLine
 62
253
  6
CONTINUOUS
 10
-58.9255869671
 20
-0.9078197031
 11
-57.3028168879
 21
-0.967162849
  0
LWPOLYLINE
  5
2AD
100
AcDbEntity
  8
IMPORT_IGES
100
AcDbPolyline
 62
253
  6
CONTINUOUS
 90
19
 70
0
 10
-53.441747437
 20
-2.2290447051
 10
-53.5246268346
 20
-2.2238037629
 10
-53.6046213438
 20
-2.2174199428
 10
-53.6814069065
 20
-2.2099437016
 10
-53.754460913
 20
-2.2014576883
 10
-53.8237564518
 20
-2.1919978759
 10
-53.8896534737
 20
-2.1815214562
 10
-53.9519754964
 20
-2.1700349548
 10
-54.0102250057
 20
-2.1576070722
 10
-54.064178364
 20
-2.1442632351
 10
-54.1135781545
 20
-2.1300341025
 10
-54.1580498365
 20
-2.1149910952
 10
-54.1972294084
 20
-2.0992292928
 10
-54.2308589235
 20
-2.0828337715
 10
-54.258773554
 20
-2.0658630222
 10
-54.280806704
 20
-2.0483819295
 10
-54.296795671
 20
-2.0304660994
 10
-54.3065964712
 20
-2.012202657
 10
-54.3100995352
 20
-1.9936779328
  0
LWPOLYLINE
  5
2AE
100
AcDbEntity
  8
IMPORT_IGES
100
AcDbPolyline
 62
253
  6
CONTINUOUS
 90
16
 70
0
 10
-59.2801194674
 20
0.1769702961
 10
-59.3464548594
 20
0.1815417189
 10
-59.4100271086
 20
0.1869613593
 10
-59.4704777496
 20
0.19319943
 10
-59.5274697743
 20
0.2002221028
 10
-59.5806758458
 20
0.2079900491
 10
-59.6297832715
 20
0.2164580788
 10
-59.674512978
 20
0.225577902
 10
-59.7146179278
 20
0.2352989675
 10
-59.74987299
 20
0.2455667056
 10
-59.7800802582
 20
0.2563234779
 10
-59.8050701625
 20
0.2675089007
 10
-59.8247024208
 20
0.2790601839
 10
-59.8388668264
 20
0.2909124839
 10
-59.8474838665
 20
0.3029992672
 10
-59.8505051691
 20
0.315252684
  0
LINE
  5
2AF
100
AcDbEntity
  8
IMPORT_IGES
100
AcDbLine
 62
7
  6
CONTINUOUS
 10
-55.2279438163
 20
-1.8249641482
 11
-58.9144627615
 21
-1.5526811792
  0
LWPOLYLINE
  5
2B0
100
AcDbEntity
  8
IMPORT_IGES
100
AcDbPolyline
 62
253
  6
CONTINUOUS
 90
25
 70
0
 10
-55.632870556
 20
0.0518443619
 10
-55.4648465263
 20
0.0373604036
 10
-55.3051655509
 20
0.0148115741
 10
-55.1538649771
 20
-0.0158005462
 10
-55.0122749714
 20
-0.0543198155
 10
-54.8791286075
 20
-0.100897519
 10
-54.7505518034
 20
-0.1559921463
 10
-54.6256742636
 20
-0.2197110991
 10
-54.5053864528
 20
-0.2919378252
 10
-54.3884400537
 20
-0.3727935554
 10
-54.272929415
 20
-0.4633132731
 10
-54.1607605444
 20
-0.5624475837
 10
-54.0564054546
 20
-0.6671925898
 10
-53.9611806424
 20
-0.7774289539
 10
-53.8737748327
 20
-0.8932638987
 10
-53.7947264426
 20
-1.0120383823
 10
-53.7244450479
 20
-1.1326286593
 10
-53.6625189
 20
-1.2561512734
 10
-53.6082537629
 20
-1.3833094191
 10
-53.56140195
 20
-1.5141347236
 10
-53.5221917262
 20
-1.6485844895
 10
-53.490636842
 20
-1.7872483394
 10
-53.4667291424
 20
-1.9303175945
 10
-53.4504400339
 20
-2.0775861834
 10
-53.4417474716
 20
-2.2290462706
  0
LWPOLYLINE
  5
2B1
100
AcDbEntity
  8
IMPORT_IGES
100
AcDbPolyline
 62
253
  6
CONTINUOUS
 90
3
 70
0
 10
-16.4945785414
 20
-4.6311065264
 10
-16.3870956463
 20
-4.6409507081
 10
-16.2916328063
 20
-4.6473881813
  0
LWPOLYLINE
  5
2B2
100
AcDbEntity
  8
IMPORT_IGES
100
AcDbPolyline
 62
253
  6
CONTINUOUS
 90
10
 70
0
 10
-16.2916327657
 20
-4.6473889411
 10
-16.2548614335
 20
-4.6547698833
 10
-16.2219545977
 20
-4.6624105904
 10
-16.1929126134
 20
-4.6703104499
 10
-16.1676960743
 20
-4.6784813393
 10
-16.1463451414
 20
-4.6869094985
 10
-16.128979517
 20
-4.6955564168
 10
-16.1156393466
 20
-4.704409261
 10
-16.1062852456
 20
-4.7134799881
 10
-16.1009176103
 20
-4.7227678386
  0
LINE
  5
2B3
100
AcDbEntity
  8
IMPORT_IGES
100
AcDbLine
 62
7
  6
CONTINUOUS
 10
-31.5008882969
 20
-41.5634176719
 11
-31.5008882969
 21
-24.0634176719
  0
LWPOLYLINE
  5
2B4
100
AcDbEntity
  8
IMPORT_IGES
100
AcDbPolyline
 62
253
  6
CONTINUOUS
 90
10
 70
0
 10
-17.4257562956
 20
-5.9250532145
 10
-17.4073958299
 20
-5.9327294629
 10
-17.3909134589
 20
-5.9406864995
 10
-17.3763399026
 20
-5.9489246711
 10
-17.3637063676
 20
-5.9574543425
 10
-17.3530333967
 20
-5.9662659598
 10
-17.3443362873
 20
-5.975329994
 10
-17.3376373525
 20
-5.9846368839
 10
-17.3329603706
 20
-5.9941970911
 10
-17.330323258
 20
-6.0040111254
  0
LINE
  5
2B5
100
AcDbEntity
  8
IMPORT_IGES
100
AcDbLine
 62
253
  6
CONTINUOUS
 10
-17.4633146506
 20
-5.9061257809
 11
-17.4257562956
 21
-5.9250532145
  0
LINE
  5
2B6
100
AcDbEntity
  8
IMPORT_IGES
100
AcDbLine
 62
253
  6
CONTINUOUS
 10
-24.1693664564
 20
-6.0607626615
 11
-24.1734477715
 21
-5.8817185563
  0
LINE
  5
2B7
100
AcDbEntity
  8
IMPORT_IGES
100
AcDbLine
 62
253
  6
CONTINUOUS
 10
-24.1734477715
 20
-5.8817185563
 11
-24.1766093449
 21
-5.705693344
  0
LINE
  5
2B8
100
AcDbEntity
  8
IMPORT_IGES
100
AcDbLine
 62
253
  6
CONTINUOUS
 10
-24.1766093449
 20
-5.705693344
 11
-24.1787680256
 21
-5.5373690739
  0
LINE
  5
2B9
100
AcDbEntity
  8
IMPORT_IGES
100
AcDbLine
 62
253
  6
CONTINUOUS
 10
-24.1787680256
 20
-5.5373690739
 11
-24.1798966855
 21
-5.3792935362
  0
LINE
  5
2BA
100
AcDbEntity
  8
IMPORT_IGES
100
AcDbLine
 62
7
  6
CONTINUOUS
 10
-26.0008882969
 20
-41.0634176719
 11
-26.0008882969
 21
-34.5634176719
  0
LINE
  5
2BB
100
AcDbEntity
  8
IMPORT_IGES
100
AcDbLine
 62
7
  6
CONTINUOUS
 10
-25.9508882969
 20
-34.5134176719
 11
-25.9508882969
 21
-24.0634176719
  0
LWPOLYLINE
  5
2BC
100
AcDbEntity
  8
IMPORT_IGES
100
AcDbPolyline
 62
253
  6
CONTINUOUS
 90
13
 70
0
 10
-24.1798966855
 20
-5.3792935362
 10
-24.1799743441
 20
-5.2343123045
 10
-24.1796184071
 20
-5.1678231131
 10
-24.1789998991
 20
-5.1054845967
 10
-24.1781222275
 20
-5.0477678188
 10
-24.176992394
 20
-4.9950639526
 10
-24.1756099482
 20
-4.9473551102
 10
-24.1739842804
 20
-4.9050309209
 10
-24.172127448
 20
-4.8683690592
 10
-24.170037684
 20
-4.8373460824
 10
-24.1677233069
 20
-4.8121769081
 10
-24.1652080241
 20
-4.793132338
 10
-24.1625132541
 20
-4.7802860936
  0
LWPOLYLINE
  5
2BD
100
AcDbEntity
  8
IMPORT_IGES
100
AcDbPolyline
 62
253
  6
CONTINUOUS
 90
19
 70
0
 10
-8.0761659927
 20
-0.9078177673
 10
-8.0453735517
 20
-0.8942174982
 10
-8.0153879279
 20
-0.873918568
 10
-7.9862732158
 20
-0.847093781
 10
-7.9580297134
 20
-0.8139964353
 10
-7.9307637213
 20
-0.7748027376
 10
-7.9046870787
 20
-0.7295030552
 10
-7.8797575496
 20
-0.6780441504
 10
-7.8560771413
 20
-0.6207237886
 10
-7.8340631368
 20
-0.5580954863
 10
-7.8137769967
 20
-0.4906478465
 10
-7.7951784442
 20
-0.4186098633
 10
-7.7785214563
 20
-0.3422848488
 10
-7.7638039461
 20
-0.2619105734
 10
-7.7510194307
 20
-0.1780643369
 10
-7.7404089763
 20
-0.0916443367
 10
-7.7320496038
 20
-0.0033449178
 10
-7.7258571594
 20
0.0863840087
 10
-7.7218325802
 20
0.1769795665
  0
LINE
  5
2BE
100
AcDbEntity
  8
IMPORT_IGES
100
AcDbLine
 62
7
  6
CONTINUOUS
 10
-7.0026356377
 20
8.8365823281
 11
-59.9991200249
 21
8.8365823281
  0
LINE
  5
2BF
100
AcDbEntity
  8
IMPORT_IGES
100
AcDbLine
 62
7
  6
CONTINUOUS
 10
-7.0026344797
 20
9.0365823281
 11
-59.9991421525
 21
9.0365823281
  0
LWPOLYLINE
  5
2C0
100
AcDbEntity
  8
IMPORT_IGES
100
AcDbPolyline
 62
253
  6
CONTINUOUS
 90
22
 70
0
 10
-22.6346217507
 20
20.4049283952
 10
-22.6307575411
 20
20.3157367256
 10
-22.6237688042
 20
20.2265492452
 10
-22.6136735112
 20
20.1380529135
 10
-22.6005816142
 20
20.0511712596
 10
-22.5845886624
 20
19.9663217955
 10
-22.5656842065
 20
19.8834181942
 10
-22.5439894802
 20
19.8030423577
 10
-22.5196822266
 20
19.7257974805
 10
-22.4927547369
 20
19.65164836
 10
-22.4633868223
 20
19.5811264651
 10
-22.4317995345
 20
19.5147274839
 10
-22.3979855508
 20
19.4524345157
 10
-22.3621810149
 20
19.3947144358
 10
-22.3246429934
 20
19.3419556448
 10
-22.2853553947
 20
19.294140381
 10
-22.2446107269
 20
19.2516560188
 10
-22.2026956253
 20
19.2147790271
 10
-22.1595704796
 20
19.1834852469
 10
-22.1154410359
 20
19.1579888806
 10
-22.0707651055
 20
19.138562645
 10
-22.025887913
 20
19.1252837413
  0
LINE
  5
2C1
100
AcDbEntity
  8
IMPORT_IGES
100
AcDbLine
 62
7
  6
CONTINUOUS
 10
-22.0508882969
 20
-34.5134176719
 11
-22.0508882969
 21
-24.0634176719
  0
LINE
  5
2C2
100
AcDbEntity
  8
IMPORT_IGES
100
AcDbLine
 62
7
  6
CONTINUOUS
 10
-22.0008882969
 20
-41.0634176719
 11
-22.0008882969
 21
-34.5634176719
  0
LWPOLYLINE
  5
2C3
100
AcDbEntity
  8
IMPORT_IGES
100
AcDbPolyline
 62
253
  6
CONTINUOUS
 90
8
 70
0
 10
-16.1066936338
 20
-5.3918029732
 10
-16.1171030151
 20
-5.3977442978
 10
-16.1370996299
 20
-5.4039846032
 10
-16.1666836722
 20
-5.4105280765
 10
-16.2060276613
 20
-5.4174007271
 10
-16.2549595627
 20
-5.4245813018
 10
-16.3129625297
 20
-5.4320052893
 10
-16.3802063774
 20
-5.4396928051
  0
LWPOLYLINE
  5
2C4
100
AcDbEntity
  8
IMPORT_IGES
100
AcDbPolyline
 62
253
  6
CONTINUOUS
 90
19
 70
0
 10
-13.9360869314
 20
-4.588262287
 10
-13.9066174752
 20
-4.5755403987
 10
-13.8779050743
 20
-4.5567725692
 10
-13.8499590109
 20
-4.5320414694
 10
-13.8226650314
 20
-4.5014654024
 10
-13.7961525346
 20
-4.4651966949
 10
-13.7707901341
 20
-4.4234067244
 10
-13.7465842247
 20
-4.3762757897
 10
-13.7235259036
 20
-4.3240374378
 10
-13.7019503749
 20
-4.2669642439
 10
-13.6818636931
 20
-4.2052856569
 10
-13.663242314
 20
-4.1392912298
 10
-13.646368489
 20
-4.0693667569
 10
-13.631253915
 20
-3.9957718484
 10
-13.6178630568
 20
-3.9188256919
 10
-13.606403317
 20
-3.8390260445
 10
-13.5969371238
 20
-3.7567445294
 10
-13.5893843867
 20
-3.6722162564
 10
-13.5837405007
 20
-3.5857432103
  0
LWPOLYLINE
  5
2C5
100
AcDbEntity
  8
IMPORT_IGES
100
AcDbPolyline
 62
253
  6
CONTINUOUS
 90
6
 70
0
 10
-17.330332463
 20
-6.0039427686
 10
-17.296881697
 20
-6.1078907032
 10
-17.2719430641
 20
-6.2045703088
 10
-17.2555214925
 20
-6.2939815854
 10
-17.2476212967
 20
-6.3761246085
 10
-17.246866676
 20
-6.4142711495
  0
LWPOLYLINE
  5
2C6
100
AcDbEntity
  8
IMPORT_IGES
100
AcDbPolyline
 62
253
  6
CONTINUOUS
 90
12
 70
0
 10
-18.5891063814
 20
-5.4150682136
 10
-18.6082503972
 20
-5.2362086332
 10
-18.6168879897
 20
-5.1501885845
 10
-18.6248370245
 20
-5.0670838603
 10
-18.6320335101
 20
-4.9875843861
 10
-18.638480607
 20
-4.9116507602
 10
-18.6441248346
 20
-4.8398927429
 10
-18.6489242822
 20
-4.7728699076
 10
-18.6528792339
 20
-4.710565091
 10
-18.6559609714
 20
-4.6533515051
 10
-18.6581363078
 20
-4.6018466693
 10
-18.6593984327
 20
-4.5563955941
  0
LINE
  5
2C7
100
AcDbEntity
  8
IMPORT_IGES
100
AcDbLine
 62
253
  6
CONTINUOUS
 10
-18.70473561
 20
-23.2249870292
 11
-18.7040307941
 21
-23.0721447123
  0
LINE
  5
2C8
100
AcDbEntity
  8
IMPORT_IGES
100
AcDbLine
 62
253
  6
CONTINUOUS
 10
-18.5566797486
 20
-5.694006532
 11
-18.7036998727
 21
-23.0721462371
  0
LINE
  5
2C9
100
AcDbEntity
  8
IMPORT_IGES
100
AcDbLine
 62
7
  6
CONTINUOUS
 10
-17.4747207404
 20
-23.0721481381
 11
-17.330323258
 21
-6.0040111254
  0
LINE
  5
2CA
100
AcDbEntity
  8
IMPORT_IGES
100
AcDbLine
 62
7
  6
CONTINUOUS
 10
-17.3922375845
 20
-23.0721442074
 11
-17.2468704954
 21
-6.4147257019
  0
LWPOLYLINE
  5
2CB
100
AcDbEntity
  8
IMPORT_IGES
100
AcDbPolyline
 62
7
  6
CONTINUOUS
 90
10
 70
0
 10
-17.2468669144
 20
-6.4142880772
 10
-17.2466384441
 20
-6.4020251661
 10
-17.2432635658
 20
-6.3496895603
 10
-17.2346501747
 20
-6.2879212658
 10
-17.2190777807
 20
-6.2176329096
 10
-17.1948131868
 20
-6.1400578087
 10
-17.160066541
 20
-6.0565463639
 10
-17.11315306
 20
-5.9689812819
 10
-17.052830934
 20
-5.8800472405
 10
-16.9881507368
 20
-5.8032075241
  0
LWPOLYLINE
  5
2CC
100
AcDbEntity
  8
IMPORT_IGES
100
AcDbPolyline
 62
253
  6
CONTINUOUS
 90
21
 70
0
 10
-17.4747121727
 20
-23.0721457467
 10
-17.4781462059
 20
-23.1467483598
 10
-17.4870384556
 20
-23.2202706708
 10
-17.5012029858
 20
-23.2923259966
 10
-17.5203570035
 20
-23.3623213885
 10
-17.5443066034
 20
-23.4301627802
 10
-17.5731138248
 20
-23.4961978443
 10
-17.6067290671
 20
-23.5602148736
 10
-17.6449373673
 20
-23.6217188042
 10
-17.6877063301
 20
-23.6805657081
 10
-17.7348572667
 20
-23.7363857933
 10
-17.7862064774
 20
-23.7888481502
 10
-17.841762689
 20
-23.8378063255
 10
-17.9015083027
 20
-23.883019603
 10
-17.9650239018
 20
-23.9239566308
 10
-18.0316599971
 20
-23.9600806734
 10
-18.1009533133
 20
-23.9910944327
 10
-18.1726239609
 20
-24.0168280887
 10
-18.2462099488
 20
-24.0370666429
 10
-18.3212708624
 20
-24.0516512982
 10
-18.397395756
 20
-24.0604651224
  0
LWPOLYLINE
  5
2CD
100
AcDbEntity
  8
IMPORT_IGES
100
AcDbPolyline
 62
253
  6
CONTINUOUS
 90
22
 70
0
 10
-17.3303327467
 20
-6.0039199162
 10
-17.3259323109
 20
-5.9115512847
 10
-17.3148424277
 20
-5.8191706181
 10
-17.2970688694
 20
-5.727552678
 10
-17.2728210273
 20
-5.6377380593
 10
-17.2423012911
 20
-5.5501970993
 10
-17.2054900676
 20
-5.4648320945
 10
-17.1626407927
 20
-5.3822927136
 10
-17.1141369026
 20
-5.3032505082
 10
-17.05996071
 20
-5.2276637766
 10
-17.00050228
 20
-5.1561191046
 10
-16.9362482287
 20
-5.0891601228
 10
-16.8671802665
 20
-5.0267677384
 10
-16.7938211786
 20
-4.96945028
 10
-16.7167418433
 20
-4.9176225468
 10
-16.63590183
 20
-4.8712653957
 10
-16.5519572201
 20
-4.8307904481
 10
-16.4655473003
 20
-4.7964787618
 10
-16.3765738725
 20
-4.7683062261
 10
-16.285498374
 20
-4.7464955228
 10
-16.1933542687
 20
-4.7313023206
 10
-16.1009176103
 20
-4.7227678386
  0
LWPOLYLINE
  5
2CE
100
AcDbEntity
  8
IMPORT_IGES
100
AcDbPolyline
 62
253
  6
CONTINUOUS
 90
22
 70
0
 10
-17.4257539266
 20
-5.9250535026
 10
-17.4194573167
 20
-5.8344689736
 10
-17.4072225709
 20
-5.7438894069
 10
-17.3890741176
 20
-5.6540432625
 10
-17.3652167302
 20
-5.5659102547
 10
-17.3358346775
 20
-5.4799321373
 10
-17.3009079627
 20
-5.3960138913
 10
-17.2606683277
 20
-5.3147672811
 10
-17.215459979
 20
-5.2368277865
 10
-17.165266415
 20
-5.1621552672
 10
-17.1104345811
 20
-5.0913042205
 10
-17.0513944817
 20
-5.0247924106
 10
-16.9881304157
 20
-4.9626018094
 10
-16.9211002588
 20
-4.9052154422
 10
-16.850804301
 20
-4.8530333081
 10
-16.7772100072
 20
-4.8060381845
 10
-16.7008858412
 20
-4.7646254137
 10
-16.6223891666
 20
-4.7290729235
 10
-16.5416415764
 20
-4.6993582818
 10
-16.4590428826
 20
-4.6756978302
 10
-16.3754833123
 20
-4.6583541975
 10
-16.2916327007
 20
-4.6473881724
  0
LWPOLYLINE
  5
2CF
100
AcDbEntity
  8
IMPORT_IGES
100
AcDbPolyline
 62
253
  6
CONTINUOUS
 90
10
 70
0
 10
-16.1066936338
 20
-5.3918029732
 10
-16.0718207061
 20
-5.3462697187
 10
-16.0455090254
 20
-5.2935301374
 10
-16.0277567287
 20
-5.2335852182
 10
-16.0185541946
 20
-5.1664318003
 10
-16.0179039389
 20
-5.0920732282
 10
-16.0258203952
 20
-5.0105230801
 10
-16.0423034905
 20
-4.9217892173
 10
-16.0673388641
 20
-4.8258700572
 10
-16.1009176103
 20
-4.7227678386
  0
LINE
  5
2D0
100
AcDbEntity
  8
IMPORT_IGES
100
AcDbLine
 62
7
  6
CONTINUOUS
 10
-16.9881497403
 20
-5.8032064497
 11
-16.9856487945
 21
-5.800528509
  0
LINE
  5
2D1
100
AcDbEntity
  8
IMPORT_IGES
100
AcDbLine
 62
7
  6
CONTINUOUS
 10
-16.9856487945
 20
-5.800528509
 11
-16.9607740502
 21
-5.7746973212
  0
LINE
  5
2D2
100
AcDbEntity
  8
IMPORT_IGES
100
AcDbLine
 62
253
  6
CONTINUOUS
 10
-16.9856487945
 20
-5.800528509
 11
-16.9437764962
 21
-5.757836492
  0
LINE
  5
2D3
100
AcDbEntity
  8
IMPORT_IGES
100
AcDbLine
 62
7
  6
CONTINUOUS
 10
-44.9508882969
 20
-34.5134176719
 11
-45.0008882969
 21
-34.5634176719
  0
LWPOLYLINE
  5
2D4
100
AcDbEntity
  8
IMPORT_IGES
100
AcDbPolyline
 62
7
  6
CONTINUOUS
 90
23
 70
0
 10
-16.9607740502
 20
-5.7746973212
 10
-16.9220569275
 20
-5.7371943977
 10
-16.8825048924
 20
-5.701940683
 10
-16.8422858083
 20
-5.6689350508
 10
-16.8015895131
 20
-5.6381831687
 10
-16.7604950032
 20
-5.6096029751
 10
-16.718993643
 20
-5.5830701336
 10
-16.6774205042
 20
-5.5586799302
 10
-16.6364000923
 20
-5.5366325182
 10
-16.5956974521
 20
-5.5166352037
 10
-16.555924341
 20
-5.4988249097
 10
-16.519050627
 20
-5.4837895376
 10
-16.4858263496
 20
-5.4714315561
 10
-16.4558859899
 20
-5.4612508608
 10
-16.4295233826
 20
-5.4530393609
 10
-16.4072078612
 20
-5.446649703
 10
-16.3886907217
 20
-5.4417529572
 10
-16.3731707225
 20
-5.4379492085
 10
-16.3606446948
 20
-5.4350977283
 10
-16.3513418568
 20
-5.4331243011
 10
-16.344804579
 20
-5.4318277412
 10
-16.3411147134
 20
-5.4311416934
 10
-16.3403092273
 20
-5.4309996188
  0
LWPOLYLINE
  5
2D5
100
AcDbEntity
  8
IMPORT_IGES
100
AcDbPolyline
 62
253
  6
CONTINUOUS
 90
11
 70
0
 10
-16.9437764962
 20
-5.757836492
 10
-16.8746443152
 20
-5.6952098919
 10
-16.8011864754
 20
-5.6377120971
 10
-16.7239796305
 20
-5.5857631295
 10
-16.6429873498
 20
-5.5393460578
 10
-16.5588638504
 20
-5.4988715374
 10
-16.4722532959
 20
-5.4646225857
 10
-16.3830666821
 20
-5.4365785361
 10
-16.2917667599
 20
-5.4149611359
 10
-16.1993837356
 20
-5.4000227546
 10
-16.1066936338
 20
-5.3918029733
  0
LWPOLYLINE
  5
2D6
100
AcDbEntity
  8
IMPORT_IGES
100
AcDbPolyline
 62
253
  6
CONTINUOUS
 90
3
 70
0
 10
-18.5564215372
 20
-5.6939612585
 10
-18.578638738
 20
-5.5075168947
 10
-18.5891063814
 20
-5.4150682136
  0
LINE
  5
2D7
100
AcDbEntity
  8
IMPORT_IGES
100
AcDbLine
 62
253
  6
CONTINUOUS
 10
-13.5600038753
 20
-2.2290466273
 11
-13.5837094919
 21
-3.5857412642
  0
LINE
  5
2D8
100
AcDbEntity
  8
IMPORT_IGES
100
AcDbLine
 62
253
  6
CONTINUOUS
 10
-13.9360859929
 20
-4.5882631532
 11
-13.9496510454
 21
-5.3718889392
  0
LWPOLYLINE
  5
2D9
100
AcDbEntity
  8
IMPORT_IGES
100
AcDbPolyline
 62
253
  6
CONTINUOUS
 90
25
 70
0
 10
-13.5600038753
 20
-2.2290466273
 10
-13.5502477392
 20
-2.0687094548
 10
-13.5325213873
 20
-1.9140963354
 10
-13.506796878
 20
-1.7652181672
 10
-13.4729395279
 20
-1.6225792773
 10
-13.4310373082
 20
-1.4856957504
 10
-13.38140476
 20
-1.353093125
 10
-13.3242230248
 20
-1.2244803746
 10
-13.2592900385
 20
-1.1001611828
 10
-13.1863538895
 20
-0.9795498248
 10
-13.1052302108
 20
-0.8617953096
 10
-13.0160994502
 20
-0.7477577696
 10
-12.9192586746
 20
-0.6394192154
 10
-12.8129131073
 20
-0.5362590769
 10
-12.6988644734
 20
-0.4388097062
 10
-12.5827954641
 20
-0.3506371592
 10
-12.467490646
 20
-0.2733838688
 10
-12.3501607483
 20
-0.2054225415
 10
-12.2281252409
 20
-0.1454156287
 10
-12.1013775926
 20
-0.0929852046
 10
-11.9699465526
 20
-0.0485171132
 10
-11.8312194902
 20
-0.011817646
 10
-11.6843459839
 20
0.0171763114
 10
-11.5302310469
 20
0.0383971836
 10
-11.3689068874
 20
0.0518435374
  0
LINE
  5
2DA
100
AcDbEntity
  8
IMPORT_IGES
100
AcDbLine
 62
253
  6
CONTINUOUS
 10
-26.8486584196
 20
19.9348036368
 11
-29.2854720203
 21
19.5364388453
  0
LWPOLYLINE
  5
2DB
100
AcDbEntity
  8
IMPORT_IGES
100
AcDbPolyline
 62
253
  6
CONTINUOUS
 90
8
 70
0
 10
-29.2854720203
 20
19.5364388453
 10
-29.8943685693
 20
19.4442092802
 10
-30.5016521826
 20
19.3590690338
 10
-31.1069127646
 20
19.2812968011
 10
-31.7099449536
 20
19.2189398156
 10
-32.3103383656
 20
19.1746804883
 10
-32.907480438
 20
19.145836408
 10
-33.5008882969
 20
19.1324075749
  0
LWPOLYLINE
  5
2DC
100
AcDbEntity
  8
IMPORT_IGES
100
AcDbPolyline
 62
253
  6
CONTINUOUS
 90
9
 70
0
 10
-29.1232171928
 20
18.7227398478
 10
-29.8002892381
 20
18.6749525259
 10
-30.4423170713
 20
18.633204616
 10
-31.0404139613
 20
18.5980611966
 10
-31.6023322089
 20
18.5699313286
 10
-32.1297199084
 20
18.5497334726
 10
-32.6226312161
 20
18.5370391826
 10
-33.0798199195
 20
18.5299878999
 10
-33.5008869957
 20
18.5264912444
  0
LWPOLYLINE
  5
2DD
100
AcDbEntity
  8
IMPORT_IGES
100
AcDbPolyline
 62
253
  6
CONTINUOUS
 90
16
 70
0
 10
-59.2800197549
 20
17.6961854512
 10
-59.3464343804
 20
17.6916094278
 10
-59.4100521917
 20
17.6861855769
 10
-59.4705176815
 20
17.6799448206
 10
-59.5274916299
 20
17.6729228684
 10
-59.5806584275
 20
17.6651593597
 10
-59.6297265863
 20
17.6566974065
 10
-59.6744200951
 20
17.6475851073
 10
-59.7144922295
 20
17.6378733133
 10
-59.7497276912
 20
17.6276140634
 10
-59.7799269599
 20
17.6168645592
 10
-59.8049181446
 20
17.6056849457
 10
-59.8245624535
 20
17.5941351692
 10
-59.8387444714
 20
17.582278811
 10
-59.8473767826
 20
17.5701830233
 10
-59.8504046859
 20
17.557915591
  0
LINE
  5
2DE
100
AcDbEntity
  8
IMPORT_IGES
100
AcDbLine
 62
253
  6
CONTINUOUS
 10
-11.9156393958
 20
20.9091608176
 11
-12.9379622108
 21
20.8468431433
  0
LINE
  5
2DF
100
AcDbEntity
  8
IMPORT_IGES
100
AcDbLine
 62
253
  6
CONTINUOUS
 10
-12.9379622108
 20
20.8468431433
 11
-14.1925093479
 21
20.774549821
  0
LINE
  5
2E0
100
AcDbEntity
  8
IMPORT_IGES
100
AcDbLine
 62
253
  6
CONTINUOUS
 10
-10.7082961972
 20
19.6238279151
 11
-11.8096514728
 21
19.5610566545
  0
LWPOLYLINE
  5
2E1
100
AcDbEntity
  8
IMPORT_IGES
100
AcDbPolyline
 62
253
  6
CONTINUOUS
 90
8
 70
0
 10
-22.6347335694
 20
20.4048948696
 10
-23.2272229679
 20
20.3724876996
 10
-23.8242272607
 20
20.3279693565
 10
-24.4249019741
 20
20.2713398404
 10
-25.0282983223
 20
20.2004301602
 10
-25.6337529669
 20
20.117409307
 10
-26.2408985409
 20
20.0287842539
 10
-26.8486584196
 20
19.9348036368
  0
LINE
  5
2E2
100
AcDbEntity
  8
IMPORT_IGES
100
AcDbLine
 62
253
  6
CONTINUOUS
 10
-11.8096514728
 20
19.5610566545
 11
-13.0656149276
 21
19.4932374324
  0
LINE
  5
2E3
100
AcDbEntity
  8
IMPORT_IGES
100
AcDbLine
 62
253
  6
CONTINUOUS
 10
-14.1925093479
 20
20.774549821
 11
-15.4390347873
 21
20.7071255875
  0
LINE
  5
2E4
100
AcDbEntity
  8
IMPORT_IGES
100
AcDbLine
 62
253
  6
CONTINUOUS
 10
-15.4390347873
 20
20.7071255875
 11
-16.4025172152
 21
20.6579644671
  0
LINE
  5
2E5
100
AcDbEntity
  8
IMPORT_IGES
100
AcDbLine
 62
253
  6
CONTINUOUS
 10
-13.0656149276
 20
19.4932374324
 11
-14.2950451001
 21
19.430673496
  0
LINE
  5
2E6
100
AcDbEntity
  8
IMPORT_IGES
100
AcDbLine
 62
253
  6
CONTINUOUS
 10
-14.2950451001
 20
19.430673496
 11
-15.2408254288
 21
19.3851079717
  0
LINE
  5
2E7
100
AcDbEntity
  8
IMPORT_IGES
100
AcDbLine
 62
253
  6
CONTINUOUS
 10
-16.4025172152
 20
20.6579644671
 11
-17.4691911757
 21
20.6068144674
  0
LINE
  5
2E8
100
AcDbEntity
  8
IMPORT_IGES
100
AcDbLine
 62
253
  6
CONTINUOUS
 10
-15.2408254288
 20
19.3851079717
 11
-16.2838274823
 21
19.3375341626
  0
LINE
  5
2E9
100
AcDbEntity
  8
IMPORT_IGES
100
AcDbLine
 62
253
  6
CONTINUOUS
 10
-17.4691911757
 20
20.6068144674
 11
-18.6341116155
 21
20.5545454036
  0
LINE
  5
2EA
100
AcDbEntity
  8
IMPORT_IGES
100
AcDbLine
 62
253
  6
CONTINUOUS
 10
-16.2838274823
 20
19.3375341626
 11
-17.4258391357
 21
19.288717771
  0
LINE
  5
2EB
100
AcDbEntity
  8
IMPORT_IGES
100
AcDbLine
 62
253
  6
CONTINUOUS
 10
-17.4258391357
 20
19.288717771
 11
-18.6517160792
 21
19.239880336
  0
LWPOLYLINE
  5
2EC
100
AcDbEntity
  8
IMPORT_IGES
100
AcDbPolyline
 62
253
  6
CONTINUOUS
 90
34
 70
0
 10
-59.2800219834
 20
17.6961849192
 10
-57.8116131817
 20
17.7497557273
 10
-56.3258439488
 20
17.7993980071
 10
-54.8237842507
 20
17.8451133906
 10
-53.3064707469
 20
17.8867936529
 10
-51.7750327119
 20
17.924549959
 10
-50.2307001909
 20
17.9587127401
 10
-48.6747657353
 20
17.9892582962
 10
-47.1081683734
 20
18.0162123484
 10
-45.5316225018
 20
18.0399790964
 10
-43.9462183775
 20
18.0606255728
 10
-42.3531266454
 20
18.0780859826
 10
-40.7531875144
 20
18.0925650268
 10
-39.147261205
 20
18.1040916422
 10
-37.5367798291
 20
18.1126375794
 10
-35.92345364
 20
18.1183216022
 10
-34.3086664958
 20
18.1211833526
 10
-32.6933589336
 20
18.1211834064
 10
-31.0785827571
 20
18.1183218089
 10
-29.4653129805
 20
18.112638269
 10
-27.8548986886
 20
18.1040928605
 10
-26.2489468638
 20
18.0925660579
 10
-24.6488279245
 20
18.0780861535
 10
-23.0554664669
 20
18.0606241676
 10
-21.4697886704
 20
18.0399745089
 10
-19.8929551818
 20
18.0162013486
 10
-18.3260677817
 20
17.9892392768
 10
-16.7699557342
 20
17.9586880723
 10
-15.225599996
 20
17.9245231902
 10
-13.6942459155
 20
17.8867671558
 10
-12.1771022281
 20
17.8450899911
 10
-10.6752892679
 20
17.7993806831
 10
-9.1898465584
 20
17.7497473072
 10
-7.721840411
 20
17.6961882328
  0
LINE
  5
2ED
100
AcDbEntity
  8
IMPORT_IGES
100
AcDbLine
 62
253
  6
CONTINUOUS
 10
-18.6517160792
 20
19.239880336
 11
-19.9536766847
 21
19.1921410882
  0
LWPOLYLINE
  5
2EE
100
AcDbEntity
  8
IMPORT_IGES
100
AcDbPolyline
 62
253
  6
CONTINUOUS
 90
3
 70
0
 10
-19.9536766847
 20
19.1921410882
 10
-21.3187819998
 20
19.1468137551
 10
-22.0258879618
 20
19.1252823865
  0
LWPOLYLINE
  5
2EF
100
AcDbEntity
  8
IMPORT_IGES
100
AcDbPolyline
 62
253
  6
CONTINUOUS
 90
9
 70
0
 10
-22.025887913
 20
19.1252837413
 10
-22.7298728005
 20
19.1138532203
 10
-23.4399209175
 20
19.09210334
 10
-24.1545252867
 20
19.0618127981
 10
-24.8749827091
 20
19.0237905149
 10
-25.5983825649
 20
18.9792700071
 10
-26.3172040991
 20
18.9306051732
 10
-27.0304728366
 20
18.8794552563
 10
-29.1232171928
 20
18.7227398478
  0
LWPOLYLINE
  5
2F0
100
AcDbEntity
  8
IMPORT_IGES
100
AcDbPolyline
 62
253
  6
CONTINUOUS
 90
13
 70
0
 10
-44.9755459559
 20
19.1252785805
 10
-46.1805872758
 20
19.1081287371
 10
-47.3787248895
 20
19.0890574063
 10
-48.5699637759
 20
19.0680241334
 10
-49.7548184245
 20
19.0449703897
 10
-50.9327780403
 20
19.0198364393
 10
-52.102306273
 20
18.9925838841
 10
-53.2633821162
 20
18.9631533093
 10
-54.4160156887
 20
18.9314660525
 10
-55.5587134683
 20
18.8974798932
 10
-56.6909687324
 20
18.8611368439
 10
-57.813261358
 20
18.8223401273
 10
-58.9255735841
 20
18.7809946102
  0
LWPOLYLINE
  5
2F1
100
AcDbEntity
  8
IMPORT_IGES
100
AcDbPolyline
 62
253
  6
CONTINUOUS
 90
8
 70
0
 10
-33.5008869938
 20
18.5264912445
 10
-34.0264188441
 20
18.5304625131
 10
-34.5781815955
 20
18.5413614689
 10
-35.1554903641
 20
18.5603721739
 10
-35.759665665
 20
18.5873999582
 10
-36.3882476971
 20
18.622136318
 10
-37.0350829493
 20
18.6637720381
 10
-37.7029923359
 20
18.7105146869
  0
LWPOLYLINE
  5
2F2
100
AcDbEntity
  8
IMPORT_IGES
100
AcDbPolyline
 62
253
  6
CONTINUOUS
 90
8
 70
0
 10
-33.5008882969
 20
19.1324075749
 10
-34.0943795628
 20
19.1458392185
 10
-34.691591774
 20
19.1746882111
 10
-35.2920419344
 20
19.2189545528
 10
-35.895115461
 20
19.2813223128
 10
-36.5004039352
 20
19.3591074218
 10
-37.1077078827
 20
19.4442576719
 10
-37.716618029
 20
19.5364923442
  0
LINE
  5
2F3
100
AcDbEntity
  8
IMPORT_IGES
100
AcDbLine
 62
253
  6
CONTINUOUS
 10
-44.9755459559
 20
19.1252785805
 11
-46.3877925492
 21
19.1696929782
  0
LINE
  5
2F4
100
AcDbEntity
  8
IMPORT_IGES
100
AcDbLine
 62
253
  6
CONTINUOUS
 10
-46.3877925492
 20
19.1696929782
 11
-47.7278580474
 21
19.2165326044
  0
LWPOLYLINE
  5
2F5
100
AcDbEntity
  8
IMPORT_IGES
100
AcDbPolyline
 62
253
  6
CONTINUOUS
 90
13
 70
0
 10
-8.0762472726
 20
18.7810021032
 10
-9.1885309753
 20
18.8223471019
 10
-10.3107942877
 20
18.8611433673
 10
-11.4430194504
 20
18.8974860206
 10
-12.5856862736
 20
18.9314718271
 10
-13.7382881029
 20
18.9631587679
 10
-14.8993316187
 20
18.9925890601
 10
-16.0688269369
 20
19.0198413564
 10
-17.2467530531
 20
19.0449750658
 10
-18.4315738264
 20
19.0680285835
 10
-19.6227785306
 20
19.0890616394
 10
-20.8208815833
 20
19.1081327565
 10
-22.0258879618
 20
19.1252823865
  0
LINE
  5
2F6
100
AcDbEntity
  8
IMPORT_IGES
100
AcDbLine
 62
253
  6
CONTINUOUS
 10
-47.7278580474
 20
19.2165326044
 11
-48.993502123
 21
19.2649812242
  0
LINE
  5
2F7
100
AcDbEntity
  8
IMPORT_IGES
100
AcDbLine
 62
253
  6
CONTINUOUS
 10
-48.993502123
 20
19.2649812242
 11
-50.1779038279
 21
19.3140448479
  0
LINE
  5
2F8
100
AcDbEntity
  8
IMPORT_IGES
100
AcDbLine
 62
253
  6
CONTINUOUS
 10
-50.1779038279
 20
19.3140448479
 11
-51.270993216
 21
19.3624465131
  0
LINE
  5
2F9
100
AcDbEntity
  8
IMPORT_IGES
100
AcDbLine
 62
253
  6
CONTINUOUS
 10
-48.3603580153
 20
20.5542300778
 11
-49.5254805297
 21
20.6064846023
  0
LINE
  5
2FA
100
AcDbEntity
  8
IMPORT_IGES
100
AcDbLine
 62
253
  6
CONTINUOUS
 10
-51.270993216
 20
19.3624465131
 11
-52.2682710098
 21
19.4092725213
  0
LINE
  5
2FB
100
AcDbEntity
  8
IMPORT_IGES
100
AcDbLine
 62
253
  6
CONTINUOUS
 10
-49.5254805297
 20
20.6064846023
 11
-50.5932920924
 21
20.657668684
  0
LINE
  5
2FC
100
AcDbEntity
  8
IMPORT_IGES
100
AcDbLine
 62
253
  6
CONTINUOUS
 10
-52.2682710098
 20
19.4092725213
 11
-53.5760370165
 21
19.4745077524
  0
LINE
  5
2FD
100
AcDbEntity
  8
IMPORT_IGES
100
AcDbLine
 62
253
  6
CONTINUOUS
 10
-50.5932920924
 20
20.657668684
 11
-52.0027448473
 21
20.7303647344
  0
LINE
  5
2FE
100
AcDbEntity
  8
IMPORT_IGES
100
AcDbLine
 62
253
  6
CONTINUOUS
 10
-53.5760370165
 20
19.4745077524
 11
-54.9414406384
 21
19.5472238888
  0
LINE
  5
2FF
100
AcDbEntity
  8
IMPORT_IGES
100
AcDbLine
 62
253
  6
CONTINUOUS
 10
-52.0027448473
 20
20.7303647344
 11
-53.167535011
 21
20.7946956821
  0
LWPOLYLINE
  5
300
100
AcDbEntity
  8
IMPORT_IGES
100
AcDbPolyline
 62
253
  6
CONTINUOUS
 90
3
 70
0
 10
-54.9414406384
 20
19.5472238888
 10
-56.2013360164
 20
19.6184728708
 10
-56.2934802543
 20
19.6238279252
  0
LINE
  5
301
100
AcDbEntity
  8
IMPORT_IGES
100
AcDbLine
 62
253
  6
CONTINUOUS
 10
-53.167535011
 20
20.7946956821
 11
-54.3041200299
 21
20.8612730114
  0
LINE
  5
302
100
AcDbEntity
  8
IMPORT_IGES
100
AcDbLine
 62
253
  6
CONTINUOUS
 10
-54.3041200299
 20
20.8612730114
 11
-55.0861371979
 21
20.9091608193
  0
LWPOLYLINE
  5
303
100
AcDbEntity
  8
IMPORT_IGES
100
AcDbPolyline
 62
253
  6
CONTINUOUS
 90
16
 70
0
 10
-7.7217589209
 20
17.6961838772
 10
-7.6554007278
 20
17.6916122593
 10
-7.591814137
 20
17.6861923786
 10
-7.5313569574
 20
17.6799542955
 10
-7.4743672041
 20
17.6729323494
 10
-7.4211689512
 20
17.6651659004
 10
-7.3720687365
 20
17.6566994381
 10
-7.3273440831
 20
17.6475809111
 10
-7.2872437258
 20
17.6378611356
 10
-7.2519927424
 20
17.6275946675
 10
-7.2217889915
 20
17.6168391309
 10
-7.1968020025
 20
17.6056548952
 10
-7.1771720238
 20
17.5941047358
 10
-7.1630092357
 20
17.5822534821
 10
-7.154393132
 20
17.5701676536
 10
-7.1513720735
 20
17.5579150863
  0
LWPOLYLINE
  5
304
100
AcDbEntity
  8
IMPORT_IGES
100
AcDbPolyline
 62
253
  6
CONTINUOUS
 90
10
 70
0
 10
-37.7029923359
 20
18.7105146869
 10
-39.7671820073
 20
18.8644209807
 10
-40.4597395588
 20
18.9148449539
 10
-41.1445555633
 20
18.9621185168
 10
-41.8212005951
 20
19.0053693761
 10
-42.4896604612
 20
19.0435687015
 10
-43.1404392283
 20
19.0752121582
 10
-43.7703560752
 20
19.0996066688
 10
-44.3822146488
 20
19.116505468
 10
-44.9755460148
 20
19.1252802165
  0
LWPOLYLINE
  5
305
100
AcDbEntity
  8
IMPORT_IGES
100
AcDbPolyline
 62
253
  6
CONTINUOUS
 90
9
 70
0
 10
-37.716618029
 20
19.5364923442
 10
-40.1534409312
 20
19.9348562456
 10
-40.7611867665
 20
20.0288322635
 10
-41.3683017185
 20
20.1174499899
 10
-41.973714145
 20
20.200461597
 10
-42.5770616154
 20
20.2713623923
 10
-43.1776826751
 20
20.3279841449
 10
-43.7746275573
 20
20.3724950856
 10
-44.3670523349
 20
20.4048952146
  0
LINE
  5
306
100
AcDbEntity
  8
IMPORT_IGES
100
AcDbLine
 62
7
  6
CONTINUOUS
 10
-12.0965629406
 20
41.6409455959
 11
-11.915639563
 21
20.9091799739
  0
LINE
  5
307
100
AcDbEntity
  8
IMPORT_IGES
100
AcDbLine
 62
7
  6
CONTINUOUS
 10
-12.7283894449
 20
-4.0969497148
 11
-12.6916743605
 21
-1.9935439346
  0
LINE
  5
308
100
AcDbEntity
  8
IMPORT_IGES
100
AcDbLine
 62
253
  6
CONTINUOUS
 10
-11.7738327582
 20
-1.8249641469
 11
-11.7599026681
 21
-1.0339613637
  0
LWPOLYLINE
  5
309
100
AcDbEntity
  8
IMPORT_IGES
100
AcDbPolyline
 62
253
  6
CONTINUOUS
 90
19
 70
0
 10
-11.3689055667
 20
0.0518436686
 10
-11.3731710328
 20
-0.039769735
 10
-11.3799334627
 20
-0.1303574278
 10
-11.3891685034
 20
-0.2191574806
 10
-11.4007717453
 20
-0.3051848658
 10
-11.414656909
 20
-0.3880006248
 10
-11.430830781
 20
-0.4676683507
 10
-11.4491790175
 20
-0.5435683478
 10
-11.4695429334
 20
-0.615097371
 10
-11.491927345
 20
-0.6822773912
 10
-11.5161653683
 20
-0.7445669023
 10
-11.5420612799
 20
-0.8015004619
 10
-11.5696230174
 20
-0.8530918321
 10
-11.5986318502
 20
-0.8988962378
 10
-11.6288618473
 20
-0.9385884047
 10
-11.6603362949
 20
-0.972188495
 10
-11.6928952791
 20
-0.999451919
 10
-11.7261776914
 20
-1.0200709098
 10
-11.7599027572
 20
-1.033960059
  0
LWPOLYLINE
  5
30A
100
AcDbEntity
  8
IMPORT_IGES
100
AcDbPolyline
 62
7
  6
CONTINUOUS
 90
21
 70
0
 10
-12.7058348555
 20
-2.804802821
 10
-12.7018491215
 20
-2.7317007796
 10
-12.6923782821
 20
-2.6581989495
 10
-12.6774344591
 20
-2.5853728258
 10
-12.6571995634
 20
-2.5140986399
 10
-12.6318458371
 20
-2.4447699798
 10
-12.6013495812
 20
-2.3773048422
 10
-12.5659233616
 20
-2.3122438437
 10
-12.5258999584
 20
-2.2501587455
 10
-12.4812755542
 20
-2.191041232
 10
-12.4323961945
 20
-2.1353872183
 10
-12.3796835294
 20
-2.0836426199
 10
-12.3231330912
 20
-2.0358030659
 10
-12.2632069253
 20
-1.9922875256
 10
-12.2004035268
 20
-1.9534281083
 10
-12.1347024494
 20
-1.9192143333
 10
-12.0666956831
 20
-1.8899760123
 10
-11.9969259631
 20
-1.8659135302
 10
-11.925283064
 20
-1.8469973624
 10
-11.8521658706
 20
-1.833398107
 10
-11.7738461857
 20
-1.8249619533
  0
LWPOLYLINE
  5
30B
100
AcDbEntity
  8
IMPORT_IGES
100
AcDbPolyline
 62
253
  6
CONTINUOUS
 90
19
 70
0
 10
-12.7148104799
 20
-3.3190275149
 10
-12.7181947044
 20
-3.3393800665
 10
-12.7276195704
 20
-3.3595320674
 10
-12.7430411592
 20
-3.3793896201
 10
-12.7643876084
 20
-3.3988601972
 10
-12.7915594519
 20
-3.4178530777
 10
-12.8244300868
 20
-3.4362797689
 10
-12.862846356
 20
-3.4540544132
 10
-12.9066292576
 20
-3.4710941887
 10
-12.9555747859
 20
-3.4873196988
 10
-13.0094548801
 20
-3.5026553411
 10
-13.0680184871
 20
-3.5170296595
 10
-13.1309927307
 20
-3.530375677
 10
-13.1980860509
 20
-3.5426315244
 10
-13.2689841662
 20
-3.5537397176
 10
-13.343350545
 20
-3.5636477413
 10
-13.4208357787
 20
-3.5723095147
 10
-13.5010801923
 20
-3.5796852835
 10
-13.5837094433
 20
-3.585741014
  0
LWPOLYLINE
  5
30C
100
AcDbEntity
  8
IMPORT_IGES
100
AcDbPolyline
 62
253
  6
CONTINUOUS
 90
19
 70
0
 10
-12.6916769578
 20
-1.9936814498
 10
-12.6950714884
 20
-2.0119045975
 10
-12.7045065877
 20
-2.0297991546
 10
-12.7198011649
 20
-2.0472869911
 10
-12.7406624085
 20
-2.0642328552
 10
-12.7669106272
 20
-2.0806341454
 10
-12.7986863688
 20
-2.0966042645
 10
-12.8360253772
 20
-2.1121134222
 10
-12.878723223
 20
-2.1270356244
 10
-12.9267333691
 20
-2.1413226583
 10
-12.9799941636
 20
-2.1549162828
 10
-13.0382672656
 20
-2.1677192585
 10
-13.1011925545
 20
-2.1796298984
 10
-13.1684428138
 20
-2.1905742567
 10
-13.2397903622
 20
-2.2005039962
 10
-13.3149584001
 20
-2.2093666306
 10
-13.3936300356
 20
-2.2171101735
 10
-13.4754441401
 20
-2.223685017
 10
-13.5600287689
 20
-2.2290479632
  0
LINE
  5
30D
100
AcDbEntity
  8
IMPORT_IGES
100
AcDbLine
 62
253
  6
CONTINUOUS
 10
-18.6341116155
 20
20.5545454036
 11
-19.8891982033
 21
20.5025961057
  0
LINE
  5
30E
100
AcDbEntity
  8
IMPORT_IGES
100
AcDbLine
 62
253
  6
CONTINUOUS
 10
-19.8891982033
 20
20.5025961057
 11
-21.2255879306
 21
20.4525540743
  0
LINE
  5
30F
100
AcDbEntity
  8
IMPORT_IGES
100
AcDbLine
 62
253
  6
CONTINUOUS
 10
-21.2255879306
 20
20.4525540743
 11
-22.6347335694
 21
20.4048948696
  0
LINE
  5
310
100
AcDbEntity
  8
IMPORT_IGES
100
AcDbLine
 62
253
  6
CONTINUOUS
 10
-44.3670523349
 20
20.4048952146
 11
-45.7722385093
 21
20.4524109875
  0
LINE
  5
311
100
AcDbEntity
  8
IMPORT_IGES
100
AcDbLine
 62
253
  6
CONTINUOUS
 10
-45.7722385093
 20
20.4524109875
 11
-47.1062450259
 21
20.5023468734
  0
LINE
  5
312
100
AcDbEntity
  8
IMPORT_IGES
100
AcDbLine
 62
253
  6
CONTINUOUS
 10
-47.1062450259
 20
20.5023468734
 11
-48.3603580153
 21
20.5542300778
  0
LWPOLYLINE
  5
313
100
AcDbEntity
  8
IMPORT_IGES
100
AcDbPolyline
 62
7
  6
CONTINUOUS
 90
22
 70
0
 10
-10.7082983243
 20
19.6238266395
 10
-10.737057918
 20
19.6262016354
 10
-10.834953776
 20
19.6391479197
 10
-10.9319076725
 20
19.6595686703
 10
-11.026669123
 20
19.6871956578
 10
-11.1186876747
 20
19.7217760543
 10
-11.2081069283
 20
19.7633523956
 10
-11.294177817
 20
19.8116241669
 10
-11.3760917226
 20
19.8661073982
 10
-11.4538687881
 20
19.9268127562
 10
-11.5268259063
 20
19.9932497066
 10
-11.5943442294
 20
20.0648122145
 10
-11.656429372
 20
20.1415061607
 10
-11.7125127142
 20
20.2226790268
 10
-11.7621440956
 20
20.3076201905
 10
-11.8053328241
 20
20.3963499967
 10
-11.8416433783
 20
20.488034614
 10
-11.8708188995
 20
20.5819084713
 10
-11.8928928708
 20
20.678115071
 10
-11.907645264
 20
20.7760904776
 10
-11.9148813199
 20
20.8745729879
 10
-11.9156442024
 20
20.9091799334
  0
LWPOLYLINE
  5
314
100
AcDbEntity
  8
IMPORT_IGES
100
AcDbPolyline
 62
253
  6
CONTINUOUS
 90
19
 70
0
 10
-8.0760966172
 20
18.7809755215
 10
-7.9941933743
 20
18.7710813242
 10
-7.914177274
 20
18.7546897618
 10
-7.8365423299
 20
18.7321042458
 10
-7.7621127749
 20
18.7038192139
 10
-7.6908997677
 20
18.6700974765
 10
-7.622237796
 20
18.6306780205
 10
-7.5563310959
 20
18.5855221764
 10
-7.4939590204
 20
18.5349988996
 10
-7.4354572946
 20
18.4792280987
 10
-7.3812104193
 20
18.4183554191
 10
-7.3318023062
 20
18.352793818
 10
-7.287819348
 20
18.2831391907
 10
-7.2496826425
 20
18.2099464763
 10
-7.2176459144
 20
18.1335728401
 10
-7.1919679203
 20
18.0543967616
 10
-7.1729230689
 20
17.9728968446
 10
-7.1607660858
 20
17.8896621747
 10
-7.1556918716
 20
17.8052703354
  0
LWPOLYLINE
  5
315
100
AcDbEntity
  8
IMPORT_IGES
100
AcDbPolyline
 62
253
  6
CONTINUOUS
 90
19
 70
0
 10
-7.7218407186
 20
17.6961889893
 10
-7.7258258336
 20
17.7849413544
 10
-7.7318680922
 20
17.8727628336
 10
-7.739967164
 20
17.9591627297
 10
-7.7501338862
 20
18.0435247612
 10
-7.7623658271
 20
18.1255370996
 10
-7.7766449692
 20
18.2051418089
 10
-7.793043635
 20
18.2821563636
 10
-7.8114956631
 20
18.3556645491
 10
-7.8317709534
 20
18.4245693045
 10
-7.8540467115
 20
18.4886355063
 10
-7.8781267774
 20
18.5473562207
 10
-7.903213421
 20
18.5996496307
 10
-7.9288427676
 20
18.6448646375
 10
-7.9554281533
 20
18.6838050518
 10
-7.9834688139
 20
18.7173476165
 10
-8.0130826998
 20
18.7452219888
 10
-8.044019423
 20
18.7665954139
 10
-8.0761961429
 20
18.7809847414
  0
LINE
  5
316
100
AcDbEntity
  8
IMPORT_IGES
100
AcDbLine
 62
7
  6
CONTINUOUS
 10
-7.0026338033
 20
9.0365823266
 11
-7.1668836928
 21
18.4464550183
  0
LINE
  5
317
100
AcDbEntity
  8
IMPORT_IGES
100
AcDbLine
 62
253
  6
CONTINUOUS
 10
-7.721840411
 20
17.6961882328
 11
-7.5706207761
 21
9.0365823281
  0
LINE
  5
318
100
AcDbEntity
  8
IMPORT_IGES
100
AcDbLine
 62
253
  6
CONTINUOUS
 10
-8.0873527812
 20
19.4258489385
 11
-8.0762472726
 21
18.7810021032
  0
LINE
  5
319
100
AcDbEntity
  8
IMPORT_IGES
100
AcDbLine
 62
7
  6
CONTINUOUS
 10
-8.0008882969
 20
9.0365823281
 11
-8.0008882969
 21
8.8365823281
  0
LINE
  5
31A
100
AcDbEntity
  8
IMPORT_IGES
100
AcDbLine
 62
253
  6
CONTINUOUS
 10
-7.3008882969
 20
8.8365823281
 11
-7.3008882969
 21
9.0365823281
  0
LINE
  5
31B
100
AcDbEntity
  8
IMPORT_IGES
100
AcDbLine
 62
7
  6
CONTINUOUS
 10
-7.0008882969
 20
5.7366326481
 11
-7.0008882969
 21
12.1365716259
  0
LINE
  5
31C
100
AcDbEntity
  8
IMPORT_IGES
100
AcDbLine
 62
253
  6
CONTINUOUS
 10
-8.0761670967
 20
-0.9078180424
 11
-8.0873527985
 21
-1.5526842836
  0
LINE
  5
31D
100
AcDbEntity
  8
IMPORT_IGES
100
AcDbLine
 62
7
  6
CONTINUOUS
 10
-7.1668836915
 20
-0.5732903542
 11
-7.0026338037
 21
8.8365823117
  0
LINE
  5
31E
100
AcDbEntity
  8
IMPORT_IGES
100
AcDbLine
 62
253
  6
CONTINUOUS
 10
-7.5705995243
 20
8.8365823281
 11
-7.7217623418
 21
0.1769839262
  0
LWPOLYLINE
  5
31F
100
AcDbEntity
  8
IMPORT_IGES
100
AcDbPolyline
 62
253
  6
CONTINUOUS
 90
19
 70
0
 10
-7.1556918114
 20
0.0678943222
 10
-7.1605283996
 20
-0.0141637428
 10
-7.1719909442
 20
-0.094747545
 10
-7.1898060284
 20
-0.1733470374
 10
-7.2135292975
 20
-0.2491118776
 10
-7.2428981151
 20
-0.3220148146
 10
-7.278132813
 20
-0.3927341234
 10
-7.3192848444
 20
-0.4610691936
 10
-7.3660328584
 20
-0.526222093
 10
-7.4182775694
 20
-0.5878515781
 10
-7.4758969376
 20
-0.6455662952
 10
-7.5385134441
 20
-0.6987599804
 10
-7.6055664261
 20
-0.7468125563
 10
-7.6765260469
 20
-0.7892708975
 10
-7.7510502318
 20
-0.8258605736
 10
-7.828775813
 20
-0.8563008103
 10
-7.9092403197
 20
-0.8802890898
 10
-7.9918694177
 20
-0.8975356328
 10
-8.0760965754
 20
-0.9078108559
  0
LINE
  5
320
100
AcDbEntity
  8
IMPORT_IGES
100
AcDbLine
 62
7
  6
CONTINUOUS
 10
-25.9508882969
 20
-34.5134176719
 11
-26.0008882969
 21
-34.5634176719
  0
LWPOLYLINE
  5
321
100
AcDbEntity
  8
IMPORT_IGES
100
AcDbPolyline
 62
253
  6
CONTINUOUS
 90
19
 70
0
 10
-18.7578362962
 20
-24.0634175655
 10
-18.7538190851
 20
-24.0606288322
 10
-18.7498570558
 20
-24.0523708405
 10
-18.7459716721
 20
-24.0388262515
 10
-18.7421960196
 20
-24.0202731309
 10
-18.7385354121
 20
-23.9969042837
 10
-18.7349698142
 20
-23.9686596819
 10
-18.7315099789
 20
-23.9355867968
 10
-18.7281831879
 20
-23.8978966939
 10
-18.7249971998
 20
-23.8556205285
 10
-18.721971993
 20
-23.8089338503
 10
-18.7191254563
 20
-23.7580175597
 10
-18.7164654646
 20
-23.7028616478
 10
-18.7140049765
 20
-23.6434816212
 10
-18.7117727752
 20
-23.5802924636
 10
-18.7097980416
 20
-23.5139392955
 10
-18.7080969876
 20
-23.4448830411
 10
-18.7066788808
 20
-23.3734022221
 10
-18.70473561
 20
-23.2249870292
  0
LINE
  5
322
100
AcDbEntity
  8
IMPORT_IGES
100
AcDbLine
 62
253
  6
CONTINUOUS
 10
-12.0965629406
 20
41.6409455959
 11
-54.9052136531
 21
41.6409455959
  0
LINE
  5
323
100
AcDbEntity
  8
IMPORT_IGES
100
AcDbLine
 62
7
  6
CONTINUOUS
 10
-12.5965439022
 20
42.1365823281
 11
-54.4052326916
 21
42.1365823281
  0
LINE
  5
324
100
AcDbEntity
  8
IMPORT_IGES
100
AcDbLine
 62
253
  6
CONTINUOUS
 10
39.3383066473
 20
-41.5634176719
 11
39.4025447243
 21
-41.5634176719
  0
LINE
  5
325
100
AcDbEntity
  8
IMPORT_IGES
100
AcDbLine
 62
253
  6
CONTINUOUS
 10
43.2740685704
 20
-41.5634176719
 11
43.3383066473
 21
-41.5634176719
  0
LINE
  5
326
100
AcDbEntity
  8
IMPORT_IGES
100
AcDbLine
 62
253
  6
CONTINUOUS
 10
39.3383066473
 20
-41.0634176719
 11
43.3383066473
 21
-41.0634176719
  0
LINE
  5
327
100
AcDbEntity
  8
IMPORT_IGES
100
AcDbLine
 62
7
  6
CONTINUOUS
 10
43.3383066473
 20
-34.5634176719
 11
39.3383066473
 21
-34.5634176719
  0
LINE
  5
328
100
AcDbEntity
  8
IMPORT_IGES
100
AcDbLine
 62
7
  6
CONTINUOUS
 10
39.3883066473
 20
-34.5134176719
 11
43.2883066473
 21
-34.5134176719
  0
LWPOLYLINE
  5
329
100
AcDbEntity
  8
IMPORT_IGES
100
AcDbPolyline
 62
253
  6
CONTINUOUS
 90
3
 70
0
 10
8.3707561919
 20
19.1746814779
 10
8.3458220415
 20
19.145837056
 10
8.337552257
 20
19.1324077395
  0
LWPOLYLINE
  5
32A
100
AcDbEntity
  8
IMPORT_IGES
100
AcDbPolyline
 62
7
  6
CONTINUOUS
 90
5
 70
0
 10
8.1463842381
 20
18.4559583575
 10
8.1124488771
 20
18.375822669
 10
8.0838743677
 20
18.2933483747
 10
8.0608423694
 20
18.2089052512
 10
8.0432818631
 20
18.1215209718
  0
LWPOLYLINE
  5
32B
100
AcDbEntity
  8
IMPORT_IGES
100
AcDbPolyline
 62
253
  6
CONTINUOUS
 90
3
 70
0
 10
8.1941647703
 20
18.5370497353
 10
8.1851383317
 20
18.5299894199
 10
8.1817174465
 20
18.5264918325
  0
LWPOLYLINE
  5
32C
100
AcDbEntity
  8
IMPORT_IGES
100
AcDbPolyline
 62
253
  6
CONTINUOUS
 90
5
 70
0
 10
47.0013200324
 20
-24.0168279805
 10
46.9278022042
 20
-24.0370665813
 10
46.8528108387
 20
-24.0516512705
 10
46.7767564795
 20
-24.0604651154
 10
46.7000817293
 20
-24.0634175654
  0
LWPOLYLINE
  5
32D
100
AcDbEntity
  8
IMPORT_IGES
100
AcDbPolyline
 62
7
  6
CONTINUOUS
 90
10
 70
0
 10
8.337552459
 20
19.1324309274
 10
8.3350460071
 20
19.0622678675
 10
8.3287380772
 20
18.9921950828
 10
8.3186457648
 20
18.922550757
 10
8.3048707855
 20
18.8538655112
 10
8.2874867041
 20
18.7862694212
 10
8.2664252744
 20
18.7194877752
 10
8.2416754428
 20
18.6536345583
 10
8.2133946031
 20
18.5892063445
 10
8.1463842381
 20
18.4559583575
  0
LWPOLYLINE
  5
32E
100
AcDbEntity
  8
IMPORT_IGES
100
AcDbPolyline
 62
253
  6
CONTINUOUS
 90
4
 70
0
 10
47.6546555006
 20
-23.0736355509
 10
47.6756925295
 20
-23.0731863566
 10
47.6903581903
 20
-23.0726888908
 10
47.6985759936
 20
-23.0721463538
  0
LINE
  5
32F
100
AcDbEntity
  8
IMPORT_IGES
100
AcDbLine
 62
253
  6
CONTINUOUS
 10
47.5939287417
 20
-23.0743769792
 11
47.6546555006
 21
-23.0736355509
  0
LINE
  5
330
100
AcDbEntity
  8
IMPORT_IGES
100
AcDbLine
 62
253
  6
CONTINUOUS
 10
47.4588025369
 20
-23.075075424
 11
47.5939287417
 21
-23.0743769792
  0
LINE
  5
331
100
AcDbEntity
  8
IMPORT_IGES
100
AcDbLine
 62
253
  6
CONTINUOUS
 10
35.4700728118
 20
-23.0751930922
 11
36.2334683384
 21
-23.0721479829
  0
LINE
  5
332
100
AcDbEntity
  8
IMPORT_IGES
100
AcDbLine
 62
7
  6
CONTINUOUS
 10
35.5796291006
 20
-24.0634176719
 11
47.0969841941
 21
-24.0634176719
  0
LINE
  5
333
100
AcDbEntity
  8
IMPORT_IGES
100
AcDbLine
 62
253
  6
CONTINUOUS
 10
34.5796559348
 20
-23.0721442074
 11
34.9780216074
 21
-23.0721442074
  0
LINE
  5
334
100
AcDbEntity
  8
IMPORT_IGES
100
AcDbLine
 62
253
  6
CONTINUOUS
 10
36.233823525
 20
-23.0721442074
 11
46.4426343524
 21
-23.0721442074
  0
LINE
  5
335
100
AcDbEntity
  8
IMPORT_IGES
100
AcDbLine
 62
253
  6
CONTINUOUS
 10
47.6985913723
 20
-23.0721442074
 11
48.0969573598
 21
-23.0721442074
  0
LINE
  5
336
100
AcDbEntity
  8
IMPORT_IGES
100
AcDbLine
 62
253
  6
CONTINUOUS
 10
47.1324925902
 20
-23.0750754876
 11
47.4588025369
 21
-23.075075424
  0
LINE
  5
337
100
AcDbEntity
  8
IMPORT_IGES
100
AcDbLine
 62
253
  6
CONTINUOUS
 10
35.1671473522
 20
-23.0748995636
 11
35.4700728118
 21
-23.0751930922
  0
LINE
  5
338
100
AcDbEntity
  8
IMPORT_IGES
100
AcDbLine
 62
253
  6
CONTINUOUS
 10
46.4429756399
 20
-23.0721471291
 11
47.1324925902
 21
-23.0750754876
  0
LINE
  5
339
100
AcDbEntity
  8
IMPORT_IGES
100
AcDbLine
 62
253
  6
CONTINUOUS
 10
35.0826682225
 20
-23.0743767789
 11
35.1671473522
 21
-23.0748995636
  0
LWPOLYLINE
  5
33A
100
AcDbEntity
  8
IMPORT_IGES
100
AcDbPolyline
 62
253
  6
CONTINUOUS
 90
6
 70
0
 10
35.9765315651
 20
-24.0634175655
 10
35.9020099456
 20
-24.0606288321
 10
35.8285194585
 20
-24.0523708401
 10
35.756447803
 20
-24.0388262505
 10
35.6863894576
 20
-24.0202731292
 10
35.6184400295
 20
-23.996904281
  0
LINE
  5
33B
100
AcDbEntity
  8
IMPORT_IGES
100
AcDbLine
 62
7
  6
CONTINUOUS
 10
8.2883066473
 20
8.8365823281
 11
8.2883066473
 21
9.0365823281
  0
LINE
  5
33C
100
AcDbEntity
  8
IMPORT_IGES
100
AcDbLine
 62
7
  6
CONTINUOUS
 10
8.337552257
 20
19.1324077395
 11
8.5339812911
 21
41.6409455959
  0
LWPOLYLINE
  5
33D
100
AcDbEntity
  8
IMPORT_IGES
100
AcDbPolyline
 62
253
  6
CONTINUOUS
 90
22
 70
0
 10
11.2825480539
 20
20.4049282059
 10
11.2803520645
 20
20.3157370016
 10
11.2728175372
 20
20.2265499716
 10
11.259939827
 20
20.1380540663
 10
11.2418596837
 20
20.051172802
 10
11.2187198098
 20
19.9663236869
 10
11.1905075751
 20
19.8834203973
 10
11.157401525
 20
19.8030448291
 10
11.1196752155
 20
19.7258001691
 10
11.077316869
 20
19.6516512151
 10
11.030608296
 20
19.5811294296
 10
10.9799030294
 20
19.5147304959
 10
10.9251877817
 20
19.4524375146
 10
10.8668444494
 20
19.3947173555
 10
10.8052940509
 20
19.3419584163
 10
10.7405071646
 20
19.2941429375
 10
10.6729665086
 20
19.2516582896
 10
10.6031497579
 20
19.2147809405
 10
10.5309865274
 20
19.1834867336
 10
10.4568179083
 20
19.1579898703
 10
10.3814171858
 20
19.1385630671
 10
10.3053731272
 20
19.1252835278
  0
LWPOLYLINE
  5
33E
100
AcDbEntity
  8
IMPORT_IGES
100
AcDbPolyline
 62
253
  6
CONTINUOUS
 90
19
 70
0
 10
13.8695537949
 20
17.696188982
 10
13.8867073775
 20
17.7849424997
 10
13.909847796
 20
17.8727639588
 10
13.938954669
 20
17.9591627266
 10
13.9738874654
 20
18.0435222973
 10
14.01460385
 20
18.1255313771
 10
14.0612731577
 20
18.2051331578
 10
14.1140662615
 20
18.2821451437
 10
14.1726385373
 20
18.3556511407
 10
14.2362653369
 20
18.424554927
 10
14.3046818455
 20
18.4886216878
 10
14.3774627146
 20
18.5473438311
 10
14.4532536849
 20
18.5996388305
 10
14.5303702178
 20
18.6448553214
 10
14.6093210273
 20
18.6837972222
 10
14.6921158885
 20
18.7173411928
 10
14.7793093932
 20
18.7452168334
 10
14.8697081159
 20
18.7665913752
 10
14.9628177959
 20
18.7809816563
  0
LWPOLYLINE
  5
33F
100
AcDbEntity
  8
IMPORT_IGES
100
AcDbPolyline
 62
253
  6
CONTINUOUS
 90
5
 70
0
 10
34.9780352155
 20
-23.0721461118
 10
34.9862513821
 20
-23.0726886901
 10
35.0009154413
 20
-23.0731861756
 10
35.0219503272
 20
-23.0736353734
 10
35.0826682225
 20
-23.0743767789
  0
LWPOLYLINE
  5
340
100
AcDbEntity
  8
IMPORT_IGES
100
AcDbPolyline
 62
253
  6
CONTINUOUS
 90
17
 70
0
 10
35.6184400295
 20
-23.996904281
 10
35.5522518882
 20
-23.9686596781
 10
35.4880368934
 20
-23.9355867918
 10
35.4262912204
 20
-23.8978966873
 10
35.3671588673
 20
-23.8556205204
 10
35.3110106353
 20
-23.8089338403
 10
35.2581785441
 20
-23.7580175479
 10
35.2088087531
 20
-23.702861634
 10
35.1631417749
 20
-23.6434816052
 10
35.1217118293
 20
-23.5802924453
 10
35.0850605172
 20
-23.5139392749
 10
35.0534887345
 20
-23.4448830182
 10
35.0271684894
 20
-23.373402197
 10
35.006318489
 20
-23.2999571077
 10
34.9911011343
 20
-23.2249869998
 10
34.9816367668
 20
-23.148902034
 10
34.9780196644
 20
-23.0721446789
  0
LWPOLYLINE
  5
341
100
AcDbEntity
  8
IMPORT_IGES
100
AcDbPolyline
 62
7
  6
CONTINUOUS
 90
19
 70
0
 10
8.7575530798
 20
-3.8356955992
 10
8.7618673278
 20
-3.8536019352
 10
8.7888336935
 20
-3.9470528917
 10
8.8228228311
 20
-4.0384943516
 10
8.8634260511
 20
-4.1268383672
 10
8.9103364453
 20
-4.2115990963
 10
8.9635770112
 20
-4.2928402145
 10
9.0227359562
 20
-4.3698807123
 10
9.0872700411
 20
-4.4420689017
 10
9.15719856
 20
-4.5094325498
 10
9.2319583887
 20
-4.5713877985
 10
9.3109064826
 20
-4.6274414588
 10
9.3940729455
 20
-4.6776105859
 10
9.4807488109
 20
-4.7214285165
 10
9.5702111365
 20
-4.7585628106
 10
9.6625263584
 20
-4.7890300524
 10
9.7571770862
 20
-4.8125800488
 10
9.8530358154
 20
-4.8289288038
 10
9.8770625438
 20
-4.8318796868
  0
LWPOLYLINE
  5
342
100
AcDbEntity
  8
IMPORT_IGES
100
AcDbPolyline
 62
253
  6
CONTINUOUS
 90
10
 70
0
 10
13.1809184125
 20
8.8365823281
 10
13.1839278581
 20
7.8706519067
 10
13.2053509908
 20
6.9049462011
 10
13.2451803029
 20
5.9397501903
 10
13.3033869725
 20
4.9752830524
 10
13.3799650679
 20
4.0118956074
 10
13.4749212349
 20
3.0500693385
 10
13.5882205726
 20
2.0901530067
 10
13.7197969146
 20
1.1323634633
 10
13.8695898091
 20
0.1769824669
  0
LINE
  5
343
100
AcDbEntity
  8
IMPORT_IGES
100
AcDbLine
 62
7
  6
CONTINUOUS
 10
14.0835136301
 20
9.0365823281
 11
14.0835136301
 21
8.8365823281
  0
LWPOLYLINE
  5
344
100
AcDbEntity
  8
IMPORT_IGES
100
AcDbPolyline
 62
253
  6
CONTINUOUS
 90
10
 70
0
 10
14.0828177105
 20
9.0365823269
 10
14.0855409357
 20
9.9880946706
 10
14.1063909238
 20
10.9386929377
 10
14.1453676749
 20
11.8883771282
 10
14.2024987768
 20
12.8374946992
 10
14.2777566417
 20
13.7856981935
 10
14.3710585053
 20
14.7319452406
 10
14.4823767794
 20
15.6758883836
 10
14.6117390523
 20
16.6178750793
 10
14.7591453239
 20
17.5579053278
  0
LINE
  5
345
100
AcDbEntity
  8
IMPORT_IGES
100
AcDbLine
 62
253
  6
CONTINUOUS
 10
13.2670886094
 20
-4.5144849961
 11
13.3810858599
 21
-3.3190278813
  0
LWPOLYLINE
  5
346
100
AcDbEntity
  8
IMPORT_IGES
100
AcDbPolyline
 62
253
  6
CONTINUOUS
 90
4
 70
0
 10
13.2595484862
 20
-4.588251996
 10
13.2605289282
 20
-4.5794458842
 10
13.2621181578
 20
-4.5641605157
 10
13.2670886094
 20
-4.5144849961
  0
LWPOLYLINE
  5
347
100
AcDbEntity
  8
IMPORT_IGES
100
AcDbPolyline
 62
253
  6
CONTINUOUS
 90
10
 70
0
 10
13.8695532068
 20
17.6961882024
 10
13.7197744791
 20
16.740804573
 10
13.5882088705
 20
15.7830130536
 10
13.4749167949
 20
14.8230954095
 10
13.3799634321
 20
13.8612687312
 10
13.303384585
 20
12.8978815501
 10
13.2451764412
 20
11.9334146467
 10
13.2053458943
 20
10.9682186057
 10
13.183920813
 20
10.0025128399
 10
13.1809087049
 20
9.0365823281
  0
LWPOLYLINE
  5
348
100
AcDbEntity
  8
IMPORT_IGES
100
AcDbPolyline
 62
253
  6
CONTINUOUS
 90
13
 70
0
 10
14.7591453239
 20
17.5579053278
 10
14.7660485239
 20
17.5884640183
 10
14.7763997746
 20
17.6178160788
 10
14.7901990761
 20
17.6459615091
 10
14.8075954828
 20
17.6732941063
 10
14.8284399402
 20
17.6994200733
 10
14.852285285
 20
17.7231580198
 10
14.8793190315
 20
17.7444031856
 10
14.9093536653
 20
17.7632603308
 10
14.9413794798
 20
17.7788623454
 10
14.9750599061
 20
17.7909201926
 10
15.0107315132
 20
17.7997229093
 10
15.048394301
 20
17.8052704953
  0
LINE
  5
349
100
AcDbEntity
  8
IMPORT_IGES
100
AcDbLine
 62
253
  6
CONTINUOUS
 10
12.118984428
 20
-3.2848999853
 11
12.1892082029
 21
-3.5857416702
  0
LINE
  5
34A
100
AcDbEntity
  8
IMPORT_IGES
100
AcDbLine
 62
253
  6
CONTINUOUS
 10
13.381086777
 20
-3.3190278888
 11
13.3124937179
 21
-3.0251735332
  0
LINE
  5
34B
100
AcDbEntity
  8
IMPORT_IGES
100
AcDbLine
 62
253
  6
CONTINUOUS
 10
12.0505209975
 20
-2.9836812152
 11
12.118984428
 21
-3.2848999853
  0
LINE
  5
34C
100
AcDbEntity
  8
IMPORT_IGES
100
AcDbLine
 62
253
  6
CONTINUOUS
 10
13.3124937179
 20
-3.0251735332
 11
13.245616424
 21
-2.7309319922
  0
LINE
  5
34D
100
AcDbEntity
  8
IMPORT_IGES
100
AcDbLine
 62
253
  6
CONTINUOUS
 10
13.245616424
 20
-2.7309319922
 11
13.1804532709
 21
-2.4362954971
  0
LINE
  5
34E
100
AcDbEntity
  8
IMPORT_IGES
100
AcDbLine
 62
253
  6
CONTINUOUS
 10
11.9838212776
 20
-2.6820946254
 11
12.0505209975
 21
-2.9836812152
  0
LWPOLYLINE
  5
34F
100
AcDbEntity
  8
IMPORT_IGES
100
AcDbPolyline
 62
253
  6
CONTINUOUS
 90
3
 70
0
 10
13.1804532709
 20
-2.4362954971
 10
13.1169977617
 20
-2.1412329743
 10
13.0859107796
 20
-1.9935438945
  0
LWPOLYLINE
  5
350
100
AcDbEntity
  8
IMPORT_IGES
100
AcDbPolyline
 62
253
  6
CONTINUOUS
 90
3
 70
0
 10
11.8870890209
 20
-2.2290466273
 10
11.9188904474
 20
-2.3801502334
 10
11.9838212776
 20
-2.6820946254
  0
LWPOLYLINE
  5
351
100
AcDbEntity
  8
IMPORT_IGES
100
AcDbPolyline
 62
253
  6
CONTINUOUS
 90
19
 70
0
 10
12.279753954
 20
0.0518436685
 10
12.2974974251
 20
-0.0397697359
 10
12.3214510342
 20
-0.1303574295
 10
12.3514951509
 20
-0.2191574832
 10
12.3872914191
 20
-0.3051848691
 10
12.4285890217
 20
-0.3880006288
 10
12.4754100356
 20
-0.4676683553
 10
12.5274190537
 20
-0.5435683529
 10
12.5841702916
 20
-0.6150973765
 10
12.6456776802
 20
-0.6822773969
 10
12.7114794935
 20
-0.7445669083
 10
12.7810471899
 20
-0.801500468
 10
12.8544018942
 20
-0.8530918381
 10
12.9309587615
 20
-0.8988962436
 10
13.0101238892
 20
-0.9385884101
 10
13.091957448
 20
-0.9721884999
 10
13.1760380306
 20
-0.9994519233
 10
13.2614327537
 20
-1.0200709133
 10
13.3474280608
 20
-1.0339600617
  0
LWPOLYLINE
  5
352
100
AcDbEntity
  8
IMPORT_IGES
100
AcDbPolyline
 62
253
  6
CONTINUOUS
 90
25
 70
0
 10
11.8870890209
 20
-2.2290466273
 10
11.8563458375
 20
-2.0687094546
 10
11.8301824651
 20
-1.9140963349
 10
11.8085610919
 20
-1.7652181666
 10
11.7915891497
 20
-1.6225792765
 10
11.7790969003
 20
-1.4856957495
 10
11.7706481166
 20
-1.3530931239
 10
11.76610613
 20
-1.2244803734
 10
11.7655958883
 20
-1.1001611815
 10
11.7690940616
 20
-0.9795498235
 10
11.7765144267
 20
-0.8617953083
 10
11.787968619
 20
-0.7477577682
 10
11.8037281695
 20
-0.6394192141
 10
11.8243758866
 20
-0.5362590757
 10
11.8493610246
 20
-0.4388097051
 10
11.8771971788
 20
-0.3506371582
 10
11.9070878906
 20
-0.2733838679
 10
11.9397616492
 20
-0.2054225408
 10
11.9759960142
 20
-0.1454156281
 10
12.015738067
 20
-0.0929852041
 10
12.0590605483
 20
-0.0485171129
 10
12.106977144
 20
-0.0118176458
 10
12.15986396
 20
0.0171763115
 10
12.2174380716
 20
0.0383971837
 10
12.2797527299
 20
0.0518435373
  0
LINE
  5
353
100
AcDbEntity
  8
IMPORT_IGES
100
AcDbLine
 62
253
  6
CONTINUOUS
 10
14.9628188168
 20
18.7809755067
 11
14.9637958771
 21
18.7710813093
  0
LINE
  5
354
100
AcDbEntity
  8
IMPORT_IGES
100
AcDbLine
 62
253
  6
CONTINUOUS
 10
14.9637958771
 20
18.7710813093
 11
14.972965919
 21
18.6700974617
  0
LINE
  5
355
100
AcDbEntity
  8
IMPORT_IGES
100
AcDbLine
 62
253
  6
CONTINUOUS
 10
14.972965919
 20
18.6700974617
 11
15.0483924565
 21
17.8052703204
  0
LINE
  5
356
100
AcDbEntity
  8
IMPORT_IGES
100
AcDbLine
 62
7
  6
CONTINUOUS
 10
15.9383066473
 20
9.0365823269
 11
15.9383066473
 21
8.8365823281
  0
LINE
  5
357
100
AcDbEntity
  8
IMPORT_IGES
100
AcDbLine
 62
253
  6
CONTINUOUS
 10
16.0383066473
 20
9.0365823269
 11
16.0383066473
 21
8.8365823281
  0
LINE
  5
358
100
AcDbEntity
  8
IMPORT_IGES
100
AcDbLine
 62
253
  6
CONTINUOUS
 10
15.0483920074
 20
0.0678943264
 11
14.9676336293
 21
-0.8563195873
  0
LWPOLYLINE
  5
359
100
AcDbEntity
  8
IMPORT_IGES
100
AcDbPolyline
 62
253
  6
CONTINUOUS
 90
3
 70
0
 10
14.9676336293
 20
-0.8563195873
 10
14.9638313879
 20
-0.8975400299
 10
14.9628183709
 20
-0.9078108513
  0
LINE
  5
35A
100
AcDbEntity
  8
IMPORT_IGES
100
AcDbLine
 62
7
  6
CONTINUOUS
 10
43.2883066473
 20
-34.5134176719
 11
43.3383066473
 21
-34.5634176719
  0
LWPOLYLINE
  5
35B
100
AcDbEntity
  8
IMPORT_IGES
100
AcDbPolyline
 62
253
  6
CONTINUOUS
 90
16
 70
0
 10
14.759156507
 20
0.3152323969
 10
14.7642432093
 20
0.2911119232
 10
14.7716193329
 20
0.2675402522
 10
14.7812848778
 20
0.2445173839
 10
14.7933057012
 20
0.2218045764
 10
14.8076159458
 20
0.1996405716
 10
14.8240180404
 20
0.1787415954
 10
14.842622451
 20
0.1591515304
 10
14.8633187116
 20
0.140826494
 10
14.8855778524
 20
0.1243510649
 10
14.9093162177
 20
0.109831776
 10
14.9346174633
 20
0.0971620944
 10
14.961203587
 20
0.0866070001
 10
14.9889819214
 20
0.0782548197
 10
15.018045134
 20
0.0720172267
 10
15.0483932247
 20
0.0678942209
  0
LWPOLYLINE
  5
35C
100
AcDbEntity
  8
IMPORT_IGES
100
AcDbPolyline
 62
253
  6
CONTINUOUS
 90
10
 70
0
 10
14.759156507
 20
0.3152323969
 10
14.611756273
 20
1.2552697117
 10
14.4823982917
 20
2.1972621226
 10
14.371082563
 20
3.1412096295
 10
14.277781555
 20
4.0874592466
 10
14.2025227996
 20
5.0356639598
 10
14.1453888926
 20
5.9847827271
 10
14.106407366
 20
6.9344685345
 10
14.0855506877
 20
7.885068396
 10
14.0828188578
 20
8.8365823116
  0
LINE
  5
35D
100
AcDbEntity
  8
IMPORT_IGES
100
AcDbLine
 62
253
  6
CONTINUOUS
 10
20.4383066473
 20
12.4365823281
 11
20.4383066473
 21
12.1365823281
  0
LINE
  5
35E
100
AcDbEntity
  8
IMPORT_IGES
100
AcDbLine
 62
253
  6
CONTINUOUS
 10
20.4383066473
 20
5.7365823281
 11
20.4383066473
 21
5.4365823281
  0
LWPOLYLINE
  5
35F
100
AcDbEntity
  8
IMPORT_IGES
100
AcDbPolyline
 62
253
  6
CONTINUOUS
 90
10
 70
0
 10
29.4600466359
 20
10.615571963
 10
29.5146847372
 20
10.6346157796
 10
29.5665968753
 20
10.6567106582
 10
29.6150874241
 20
10.6816156834
 10
29.6592536939
 20
10.7088194097
 10
29.6989381932
 20
10.7381069306
 10
29.7344630619
 20
10.7697395717
 10
29.765377176
 20
10.8034869497
 10
29.7911215649
 20
10.8388505412
 10
29.8115751487
 20
10.8757911128
  0
LINE
  5
360
100
AcDbEntity
  8
IMPORT_IGES
100
AcDbLine
 62
253
  6
CONTINUOUS
 10
30.2810017984
 20
10.4273591199
 11
30.2791363113
 21
10.4246861164
  0
LINE
  5
361
100
AcDbEntity
  8
IMPORT_IGES
100
AcDbLine
 62
253
  6
CONTINUOUS
 10
30.4165674441
 20
10.6155731148
 11
30.3618646186
 21
10.538928002
  0
LINE
  5
362
100
AcDbEntity
  8
IMPORT_IGES
100
AcDbLine
 62
253
  6
CONTINUOUS
 10
30.3618646186
 20
10.538928002
 11
30.3075332465
 21
10.4635854378
  0
LINE
  5
363
100
AcDbEntity
  8
IMPORT_IGES
100
AcDbLine
 62
253
  6
CONTINUOUS
 10
30.3075332465
 20
10.4635854378
 11
30.2810017984
 21
10.4273591199
  0
LWPOLYLINE
  5
364
100
AcDbEntity
  8
IMPORT_IGES
100
AcDbPolyline
 62
7
  6
CONTINUOUS
 90
10
 70
0
 10
29.597474114
 20
10.424686906
 10
29.6267380453
 20
10.451614939
 10
29.6741072657
 20
10.5025835081
 10
29.7163803713
 20
10.5582930104
 10
29.7528940443
 20
10.6179611879
 10
29.7831354004
 20
10.6806571984
 10
29.8071145811
 20
10.7464160661
 10
29.824480479
 20
10.8146062524
 10
29.8348771162
 20
10.8838384891
 10
29.8383066473
 20
10.9530449139
  0
LWPOLYLINE
  5
365
100
AcDbEntity
  8
IMPORT_IGES
100
AcDbPolyline
 62
253
  6
CONTINUOUS
 90
5
 70
0
 10
28.8473504545
 20
7.2070174984
 10
28.802587744
 20
7.1693415886
 10
28.7581225444
 20
7.1313043297
 10
28.7139569948
 20
7.0929075707
 10
28.6856975688
 20
7.067939838
  0
LWPOLYLINE
  5
366
100
AcDbEntity
  8
IMPORT_IGES
100
AcDbPolyline
 62
253
  6
CONTINUOUS
 90
3
 70
0
 10
29.0496683287
 20
7.3253349496
 10
29.0470279263
 20
7.3238200486
 10
28.8473507416
 20
7.2070169822
  0
LINE
  5
367
100
AcDbEntity
  8
IMPORT_IGES
100
AcDbLine
 62
253
  6
CONTINUOUS
 10
46.58432639
 20
-6.0039987787
 11
46.6874541666
 21
-5.984629929
  0
LINE
  5
368
100
AcDbEntity
  8
IMPORT_IGES
100
AcDbLine
 62
253
  6
CONTINUOUS
 10
46.6874541666
 20
-5.984629929
 11
46.7893097034
 21
-5.9662627887
  0
LINE
  5
369
100
AcDbEntity
  8
IMPORT_IGES
100
AcDbLine
 62
253
  6
CONTINUOUS
 10
46.7893097034
 20
-5.9662627887
 11
46.8893064544
 21
-5.9489242861
  0
LWPOLYLINE
  5
36A
100
AcDbEntity
  8
IMPORT_IGES
100
AcDbPolyline
 62
253
  6
CONTINUOUS
 90
3
 70
0
 10
46.8893064544
 20
-5.9489242861
 10
46.986987136
 20
-5.9327334296
 10
47.0347633517
 20
-5.9250597817
  0
LWPOLYLINE
  5
36B
100
AcDbEntity
  8
IMPORT_IGES
100
AcDbPolyline
 62
7
  6
CONTINUOUS
 90
19
 70
0
 10
49.9993770541
 20
-4.8318993661
 10
50.0233440739
 20
-4.8289596551
 10
50.1192193406
 20
-4.812625422
 10
50.2138875626
 20
-4.7890876638
 10
50.3062206532
 20
-4.7586303238
 10
50.3957009511
 20
-4.7215036433
 10
50.482394969
 20
-4.677691026
 10
50.5655794134
 20
-4.6275249485
 10
50.6445449363
 20
-4.5714722042
 10
50.7193216837
 20
-4.509515714
 10
50.7892662954
 20
-4.4421487894
 10
50.8538153362
 20
-4.3699554997
 10
50.9129880992
 20
-4.2929080742
 10
50.9662410646
 20
-4.2116584331
 10
51.0131622258
 20
-4.1268878503
 10
51.0537745844
 20
-4.0385326297
 10
51.0877710691
 20
-3.947078807
 10
51.114742785
 20
-3.853614779
 10
51.1190600645
 20
-3.8356962824
  0
LINE
  5
36C
100
AcDbEntity
  8
IMPORT_IGES
100
AcDbLine
 62
7
  6
CONTINUOUS
 10
49.9993432757
 20
-4.8318999506
 11
49.4023629601
 21
-4.8984410368
  0
LWPOLYLINE
  5
36D
100
AcDbEntity
  8
IMPORT_IGES
100
AcDbPolyline
 62
253
  6
CONTINUOUS
 90
10
 70
0
 10
36.0973409552
 20
-6.6778056702
 10
37.2625283017
 20
-6.6320039988
 10
38.4279123877
 20
-6.5789340789
 10
39.5934312913
 20
-6.5185959107
 10
40.7590690585
 20
-6.4509894185
 10
41.9247178048
 20
-6.3761146779
 10
43.090177717
 20
-6.2939719155
 10
44.2553409698
 20
-6.2045612069
 10
45.4201917306
 20
-6.1078824764
 10
46.5846682604
 20
-6.0039357242
  0
LWPOLYLINE
  5
36E
100
AcDbEntity
  8
IMPORT_IGES
100
AcDbPolyline
 62
253
  6
CONTINUOUS
 90
19
 70
0
 10
13.2595487688
 20
-4.5882611289
 10
13.1761675277
 20
-4.5755356252
 10
13.0936159073
 20
-4.5567630198
 10
13.012359456
 20
-4.532027118
 10
12.9329086474
 20
-4.5014479863
 10
12.8556490758
 20
-4.4651785553
 10
12.780831806
 20
-4.4233885387
 10
12.7088263925
 20
-4.3762572363
 10
12.6400471142
 20
-4.3240189504
 10
12.5747605189
 20
-4.2669462386
 10
12.5132594841
 20
-4.2052685344
 10
12.455885725
 20
-4.1392753647
 10
12.4029012208
 20
-4.0693524849
 10
12.3545156075
 20
-3.9957594613
 10
12.3109864973
 20
-3.9188154759
 10
12.2725442698
 20
-3.8390183083
 10
12.2393421432
 20
-3.7567395802
 10
12.211513808
 20
-3.6722143689
 10
12.1891993717
 20
-3.5857446396
  0
LWPOLYLINE
  5
36F
100
AcDbEntity
  8
IMPORT_IGES
100
AcDbPolyline
 62
253
  6
CONTINUOUS
 90
3
 70
0
 10
29.8115751487
 20
10.8757911128
 10
29.826416321
 20
10.9139848608
 10
29.8353451062
 20
10.9527983903
  0
LWPOLYLINE
  5
370
100
AcDbEntity
  8
IMPORT_IGES
100
AcDbPolyline
 62
7
  6
CONTINUOUS
 90
9
 70
0
 10
30.8269549287
 20
7.3253508402
 10
30.8128472783
 20
7.2985018834
 10
30.7844763111
 20
7.2334816023
 10
30.7629357391
 20
7.1663144145
 10
30.7483341845
 20
7.0977559743
 10
30.7406410651
 20
7.0277203103
 10
30.7400290101
 20
6.9572241598
 10
30.7464600252
 20
6.8873793498
 10
30.7554856447
 20
6.8410296621
  0
LWPOLYLINE
  5
371
100
AcDbEntity
  8
IMPORT_IGES
100
AcDbPolyline
 62
253
  6
CONTINUOUS
 90
7
 70
0
 10
31.0292625844
 20
7.2070172508
 10
30.9933620317
 20
7.1529687807
 10
30.9612965222
 20
7.0967559263
 10
30.93359486
 20
7.0391213725
 10
30.9107672
 20
6.9811417097
 10
30.8929444601
 20
6.9233565823
 10
30.8872969143
 20
6.898011492
  0
LINE
  5
372
100
AcDbEntity
  8
IMPORT_IGES
100
AcDbLine
 62
253
  6
CONTINUOUS
 10
45.343007311
 20
-4.8258701804
 11
46.8120833419
 21
-4.6955560592
  0
LWPOLYLINE
  5
373
100
AcDbEntity
  8
IMPORT_IGES
100
AcDbPolyline
 62
253
  6
CONTINUOUS
 90
13
 70
0
 10
46.4955293118
 20
-3.3190254907
 10
43.741081242
 20
-3.556664255
 10
40.984597558
 20
-3.7511091285
 10
38.22607826
 20
-3.9023601113
 10
35.4648448107
 20
-4.0104332436
 10
32.7015757473
 20
-4.0753124851
 10
29.9383066811
 20
-4.0969497148
 10
27.1750375072
 20
-4.0753128446
 10
24.4117683303
 20
-4.0104339626
 10
21.6505350764
 20
-3.9023612117
 10
18.8920163871
 20
-3.7511106396
 10
16.1355336206
 20
-3.5566661986
 10
13.381086777
 20
-3.3190278888
  0
LINE
  5
374
100
AcDbEntity
  8
IMPORT_IGES
100
AcDbLine
 62
253
  6
CONTINUOUS
 10
46.8120833419
 20
-4.6955560592
 11
47.1109183716
 21
-4.6703101618
  0
LWPOLYLINE
  5
375
100
AcDbEntity
  8
IMPORT_IGES
100
AcDbPolyline
 62
253
  6
CONTINUOUS
 90
8
 70
0
 10
45.343007311
 20
-4.8258701804
 10
44.1779753696
 20
-4.9217883418
 10
43.0123294891
 20
-5.0105214906
 10
41.8460627048
 20
-5.0920712147
 10
40.6792820648
 20
-5.1664296469
 10
39.5122088658
 20
-5.2335831962
 10
38.3449504877
 20
-5.2935285168
 10
37.1775001536
 20
-5.3462687755
  0
LINE
  5
376
100
AcDbEntity
  8
IMPORT_IGES
100
AcDbLine
 62
253
  6
CONTINUOUS
 10
47.1109183716
 20
-4.6703101618
 11
47.3997300192
 21
-4.6473905703
  0
LINE
  5
377
100
AcDbEntity
  8
IMPORT_IGES
100
AcDbLine
 62
253
  6
CONTINUOUS
 10
34.4156052484
 20
-5.4719883986
 11
34.6667311636
 21
-5.4555223862
  0
LINE
  5
378
100
AcDbEntity
  8
IMPORT_IGES
100
AcDbLine
 62
253
  6
CONTINUOUS
 10
34.6667311636
 20
-5.4555223862
 11
34.9400518458
 21
-5.4396806889
  0
LINE
  5
379
100
AcDbEntity
  8
IMPORT_IGES
100
AcDbLine
 62
253
  6
CONTINUOUS
 10
34.9400518458
 20
-5.4396806889
 11
35.2302005272
 21
-5.4246844114
  0
LINE
  5
37A
100
AcDbEntity
  8
IMPORT_IGES
100
AcDbLine
 62
253
  6
CONTINUOUS
 10
35.2302005272
 20
-5.4246844114
 11
35.5344477074
 21
-5.4106509846
  0
LWPOLYLINE
  5
37B
100
AcDbEntity
  8
IMPORT_IGES
100
AcDbPolyline
 62
253
  6
CONTINUOUS
 90
3
 70
0
 10
35.5344477074
 20
-5.4106509846
 10
35.8487233707
 20
-5.3978077125
 10
37.1775001536
 20
-5.3462687755
  0
LWPOLYLINE
  5
37C
100
AcDbEntity
  8
IMPORT_IGES
100
AcDbPolyline
 62
7
  6
CONTINUOUS
 90
25
 70
0
 10
33.1188672005
 20
-5.9350675833
 10
33.1415309763
 20
-5.934872367
 10
33.2325916063
 20
-5.9380750186
 10
33.3234713664
 20
-5.947686077
 10
33.4131469356
 20
-5.9635929343
 10
33.5011624508
 20
-5.9856453858
 10
33.5876546786
 20
-6.0138674023
 10
33.6720016256
 20
-6.04808781
 10
33.7535168066
 20
-6.0880035797
 10
33.832248158
 20
-6.1336352555
 10
33.9076217206
 20
-6.1846828565
 10
33.9790670306
 20
-6.2407360127
 10
34.0465846923
 20
-6.3017950596
 10
34.1096637172
 20
-6.3674293184
 10
34.1678580976
 20
-6.4371409821
 10
34.2211683097
 20
-6.5109306942
 10
34.2691672844
 20
-6.5882413257
 10
34.3115375842
 20
-6.6685081423
 10
34.3483008711
 20
-6.7517777761
 10
34.379133888
 20
-6.8373743627
 10
34.4038464948
 20
-6.9246813233
 10
34.4224663456
 20
-7.0138327795
 10
34.434829763
 20
-7.1043778217
 10
34.4407934202
 20
-7.1952987915
 10
34.4413463935
 20
-7.223527868
  0
LWPOLYLINE
  5
37D
100
AcDbEntity
  8
IMPORT_IGES
100
AcDbPolyline
 62
253
  6
CONTINUOUS
 90
13
 70
0
 10
13.2595006716
 20
-4.5882567853
 10
16.0331548371
 20
-4.8275832374
 10
18.8101768468
 20
-5.0234731719
 10
21.5898904154
 20
-5.1758796971
 10
24.3716125397
 20
-5.2847663254
 10
27.1546719129
 20
-5.3501077575
 10
29.9384091117
 20
-5.3718889391
 10
32.7221556072
 20
-5.350104597
 10
35.5052242594
 20
-5.2847597138
 10
38.2869277589
 20
-5.1758701399
 10
41.0665855781
 20
-5.0234628867
 10
43.8435241245
 20
-4.8275756191
 10
46.6170672652
 20
-4.5882565235
  0
LINE
  5
37E
100
AcDbEntity
  8
IMPORT_IGES
100
AcDbLine
 62
253
  6
CONTINUOUS
 10
29.4496118851
 20
10.7473654687
 11
29.4600462563
 21
10.6155734619
  0
LINE
  5
37F
100
AcDbEntity
  8
IMPORT_IGES
100
AcDbLine
 62
253
  6
CONTINUOUS
 10
29.434621174
 20
10.9500200583
 11
29.4496118851
 21
10.7473654687
  0
LINE
  5
380
100
AcDbEntity
  8
IMPORT_IGES
100
AcDbLine
 62
253
  6
CONTINUOUS
 10
29.4225281833
 20
11.1264801556
 11
29.434621174
 21
10.9500200583
  0
LINE
  5
381
100
AcDbEntity
  8
IMPORT_IGES
100
AcDbLine
 62
7
  6
CONTINUOUS
 10
29.8383066473
 20
10.9530400103
 11
29.8383066473
 21
11.1827616692
  0
LINE
  5
382
100
AcDbEntity
  8
IMPORT_IGES
100
AcDbLine
 62
7
  6
CONTINUOUS
 10
30.0383066473
 20
11.1829195104
 11
30.0383066473
 21
10.9530373627
  0
LINE
  5
383
100
AcDbEntity
  8
IMPORT_IGES
100
AcDbLine
 62
253
  6
CONTINUOUS
 10
30.4419910244
 20
10.9500054509
 11
30.4540429716
 21
11.1258460244
  0
LINE
  5
384
100
AcDbEntity
  8
IMPORT_IGES
100
AcDbLine
 62
253
  6
CONTINUOUS
 10
30.427000476
 20
10.7473551886
 11
30.4419910244
 21
10.9500054509
  0
LINE
  5
385
100
AcDbEntity
  8
IMPORT_IGES
100
AcDbLine
 62
253
  6
CONTINUOUS
 10
29.8353451062
 20
10.9527983903
 11
29.8383066473
 21
10.9917165674
  0
LINE
  5
386
100
AcDbEntity
  8
IMPORT_IGES
100
AcDbLine
 62
253
  6
CONTINUOUS
 10
30.4165670313
 20
10.6155734679
 11
30.427000476
 21
10.7473551886
  0
LWPOLYLINE
  5
387
100
AcDbEntity
  8
IMPORT_IGES
100
AcDbPolyline
 62
7
  6
CONTINUOUS
 90
9
 70
0
 10
29.1210888188
 20
6.8407013503
 10
29.1304054236
 20
6.8891602469
 10
29.1366672976
 20
6.9592869648
 10
29.1358301091
 20
7.0300575571
 10
29.1278608078
 20
7.1003217193
 10
29.1129397852
 20
7.1690659475
 10
29.0910255703
 20
7.2364078541
 10
29.062227805
 20
7.3015711311
 10
29.0496583659
 20
7.3253508402
  0
LWPOLYLINE
  5
388
100
AcDbEntity
  8
IMPORT_IGES
100
AcDbPolyline
 62
253
  6
CONTINUOUS
 90
13
 70
0
 10
46.5291823327
 20
-1.0339617045
 10
43.7704232522
 20
-1.2755286924
 10
41.0081865722
 20
-1.4732583559
 10
38.2431639343
 20
-1.6271004589
 10
35.476043131
 20
-1.7370156922
 10
32.7075216214
 20
-1.8029757682
 10
29.9383063756
 20
-1.8249641482
 10
27.1690905764
 20
-1.8029757424
 10
24.4005679607
 20
-1.7370156058
 10
21.6334463289
 20
-1.6271002899
 10
18.8684234164
 20
-1.4732581131
 10
16.1061867387
 20
-1.2755283888
 10
13.3474279363
 20
-1.0339613663
  0
LWPOLYLINE
  5
389
100
AcDbEntity
  8
IMPORT_IGES
100
AcDbPolyline
 62
253
  6
CONTINUOUS
 90
13
 70
0
 10
44.8282199013
 20
0.0678941442
 10
42.3504121344
 20
-0.1279821806
 10
39.8710665622
 20
-0.288253713
 10
37.3901831847
 20
-0.4129204531
 10
34.9072494
 20
-0.5019935068
 10
32.4227778101
 20
-0.5554617681
 10
29.9383062202
 20
-0.5732919192
 10
27.4538346054
 20
-0.5554617464
 10
24.9693629906
 20
-0.5019934632
 10
22.4864292571
 20
-0.4129203927
 10
20.0055460318
 20
-0.2882536423
 10
17.5262006876
 20
-0.1279821044
 10
15.0483932247
 20
0.0678942209
  0
LINE
  5
38A
100
AcDbEntity
  8
IMPORT_IGES
100
AcDbLine
 62
253
  6
CONTINUOUS
 10
8.7575526154
 20
-3.8357114241
 11
12.1892082029
 21
-3.5857416702
  0
LINE
  5
38B
100
AcDbEntity
  8
IMPORT_IGES
100
AcDbLine
 62
253
  6
CONTINUOUS
 10
11.5599559416
 20
-4.7145398913
 11
13.2595006716
 21
-4.5882567853
  0
LINE
  5
38C
100
AcDbEntity
  8
IMPORT_IGES
100
AcDbLine
 62
253
  6
CONTINUOUS
 10
9.8770136624
 20
-4.8318709387
 11
11.5599559416
 21
-4.7145398913
  0
LWPOLYLINE
  5
38D
100
AcDbEntity
  8
IMPORT_IGES
100
AcDbPolyline
 62
253
  6
CONTINUOUS
 90
25
 70
0
 10
13.3474280608
 20
-1.0339600617
 10
13.278462175
 20
-1.0357993687
 10
13.2174150058
 20
-1.0436137844
 10
13.1640586975
 20
-1.0563878593
 10
13.1191384406
 20
-1.0726180045
 10
13.0808653196
 20
-1.0915278655
 10
13.0458415876
 20
-1.1142280428
 10
13.0134343274
 20
-1.1415288066
 10
12.9848951597
 20
-1.1727699933
 10
12.9604297879
 20
-1.2078227282
 10
12.940149739
 20
-1.2467126749
 10
12.9242883001
 20
-1.2891472568
 10
12.9130550579
 20
-1.3343714552
 10
12.9063859669
 20
-1.3823253888
 10
12.9041877695
 20
-1.4324006461
 10
12.9060637558
 20
-1.4826827819
 10
12.9111622528
 20
-1.5309559494
 10
12.9190436343
 20
-1.5783587892
 10
12.9302415962
 20
-1.6281802565
 10
12.9451615288
 20
-1.680966697
 10
12.9637194663
 20
-1.7359326357
 10
12.9866617178
 20
-1.7946993857
 10
13.0145890414
 20
-1.8577176589
 10
13.0476086701
 20
-1.9241552664
 10
13.0859582423
 20
-1.9936780468
  0
LINE
  5
38E
100
AcDbEntity
  8
IMPORT_IGES
100
AcDbLine
 62
253
  6
CONTINUOUS
 10
49.2456158977
 20
-4.7802839502
 11
49.9993432757
 21
-4.8318999506
  0
LINE
  5
38F
100
AcDbEntity
  8
IMPORT_IGES
100
AcDbLine
 62
253
  6
CONTINUOUS
 10
47.6874046545
 20
-3.585814325
 11
51.1190605176
 21
-3.8357121163
  0
LINE
  5
390
100
AcDbEntity
  8
IMPORT_IGES
100
AcDbLine
 62
253
  6
CONTINUOUS
 10
46.6170672652
 20
-4.5882565235
 11
47.3997300192
 21
-4.6473905703
  0
LWPOLYLINE
  5
391
100
AcDbEntity
  8
IMPORT_IGES
100
AcDbPolyline
 62
253
  6
CONTINUOUS
 90
13
 70
0
 10
14.9628212692
 20
-0.9078180397
 10
17.4540355732
 20
-1.1047742777
 10
19.9478081691
 20
-1.2659764333
 10
22.4436305941
 20
-1.3913910228
 10
24.9409982199
 20
-1.4809920122
 10
27.439397563
 20
-1.5347602911
 10
29.9383063756
 20
-1.5526842838
 10
32.4372148932
 20
-1.5347602377
 10
34.935613756
 20
-1.4809919191
 10
37.4329813236
 20
-1.3913910847
 10
39.9288043141
 20
-1.2659768819
 10
42.4225778955
 20
-1.104775266
 10
44.9137936032
 20
-0.9078197031
  0
LWPOLYLINE
  5
392
100
AcDbEntity
  8
IMPORT_IGES
100
AcDbPolyline
 62
253
  6
CONTINUOUS
 90
16
 70
0
 10
13.0859107796
 20
-1.9935438945
 10
15.3278847247
 20
-2.1953371037
 10
17.5715296618
 20
-2.3683212087
 10
19.8168455912
 20
-2.5124962094
 10
22.0642041442
 20
-2.6278765117
 10
24.3132336893
 20
-2.7144477097
 10
26.562819332
 20
-2.7721665856
 10
28.8129601737
 20
-2.8010187335
 10
31.0636571129
 20
-2.8010185593
 10
33.3137979502
 20
-2.7721660632
 10
35.5633836256
 20
-2.7144468358
 10
37.8124131991
 20
-2.6278752864
 10
40.0597716508
 20
-2.5124946427
 10
42.3050873074
 20
-2.3683193138
 10
44.5487318422
 20
-2.1953348905
 10
46.7907052553
 20
-1.9935413728
  0
LWPOLYLINE
  5
393
100
AcDbEntity
  8
IMPORT_IGES
100
AcDbPolyline
 62
253
  6
CONTINUOUS
 90
19
 70
0
 10
14.9628179675
 20
-0.9078177635
 10
14.873840581
 20
-0.8942174924
 10
14.7861482579
 20
-0.8739185581
 10
14.7002600714
 20
-0.8470937654
 10
14.6168550118
 20
-0.8139964127
 10
14.5361731838
 20
-0.7748027068
 10
14.4580665664
 20
-0.7295030141
 10
14.3826936744
 20
-0.6780440952
 10
14.3107674878
 20
-0.620723716
 10
14.2429337218
 20
-0.558095397
 10
14.1796975887
 20
-0.4906477438
 10
14.1213105338
 20
-0.4186097496
 10
14.0679756949
 20
-0.3422847264
 10
14.0198915222
 20
-0.2619104441
 10
13.9774932115
 20
-0.1780642049
 10
13.9411861391
 20
-0.0916442134
 10
13.9110920724
 20
-0.0033448188
 10
13.8871951441
 20
0.0863840695
 10
13.8695560143
 20
0.176979575
  0
LWPOLYLINE
  5
394
100
AcDbEntity
  8
IMPORT_IGES
100
AcDbPolyline
 62
253
  6
CONTINUOUS
 90
10
 70
0
 10
49.2455050367
 20
-4.7802656519
 10
49.1797782614
 20
-4.7669651967
 10
49.1107534794
 20
-4.7513430579
 10
49.0387312898
 20
-4.7331685147
 10
48.9639231551
 20
-4.7122016007
 10
48.8866094481
 20
-4.6881901143
 10
48.8071543397
 20
-4.6608663741
 10
48.7257776839
 20
-4.6299618656
 10
48.6425369058
 20
-4.5952193815
 10
48.5575025401
 20
-4.5563888148
  0
LINE
  5
395
100
AcDbEntity
  8
IMPORT_IGES
100
AcDbLine
 62
253
  6
CONTINUOUS
 10
30.0412709391
 20
10.9527804094
 11
30.0383066473
 21
10.991716626
  0
LWPOLYLINE
  5
396
100
AcDbEntity
  8
IMPORT_IGES
100
AcDbPolyline
 62
7
  6
CONTINUOUS
 90
10
 70
0
 10
30.0383066473
 20
10.9530449143
 10
30.0416997503
 20
10.8842061244
 10
30.0519889819
 20
10.8153210795
 10
30.0691792611
 20
10.7474528938
 10
30.0929168554
 20
10.6819891764
 10
30.1228509886
 20
10.6195586087
 10
30.1589975351
 20
10.5601081966
 10
30.2008696822
 20
10.5045370449
 10
30.247806378
 20
10.4536385081
 10
30.2791391806
 20
10.424686906
  0
LINE
  5
397
100
AcDbEntity
  8
IMPORT_IGES
100
AcDbLine
 62
253
  6
CONTINUOUS
 10
13.039881667
 20
-3.3988575652
 11
13.3810839637
 21
-3.3190276904
  0
LINE
  5
398
100
AcDbEntity
  8
IMPORT_IGES
100
AcDbLine
 62
253
  6
CONTINUOUS
 10
12.723966615
 20
-3.4710896713
 11
13.039881667
 21
-3.3988575652
  0
LINE
  5
399
100
AcDbEntity
  8
IMPORT_IGES
100
AcDbLine
 62
253
  6
CONTINUOUS
 10
12.5178302692
 20
-3.5170246632
 11
12.723966615
 21
-3.4710896713
  0
LINE
  5
39A
100
AcDbEntity
  8
IMPORT_IGES
100
AcDbLine
 62
253
  6
CONTINUOUS
 10
12.399980755
 20
-3.5426263098
 11
12.5178302692
 21
-3.5170246632
  0
LINE
  5
39B
100
AcDbEntity
  8
IMPORT_IGES
100
AcDbLine
 62
253
  6
CONTINUOUS
 10
13.0859399993
 20
-1.9936814498
 11
12.7442349696
 21
-2.0642317693
  0
LINE
  5
39C
100
AcDbEntity
  8
IMPORT_IGES
100
AcDbLine
 62
253
  6
CONTINUOUS
 10
12.7442349696
 20
-2.0642317693
 11
12.4321692216
 21
-2.1270337525
  0
LINE
  5
39D
100
AcDbEntity
  8
IMPORT_IGES
100
AcDbLine
 62
253
  6
CONTINUOUS
 10
12.4321692216
 20
-2.1270337525
 11
12.2241563499
 21
-2.1677170907
  0
LWPOLYLINE
  5
39E
100
AcDbEntity
  8
IMPORT_IGES
100
AcDbPolyline
 62
253
  6
CONTINUOUS
 90
5
 70
0
 10
12.1891993717
 20
-3.5857446396
 10
12.2209162764
 20
-3.5796863758
 10
12.258038627
 20
-3.5723078892
 10
12.3003928718
 20
-3.5636437008
 10
12.399980755
 20
-3.5426263098
  0
LINE
  5
39F
100
AcDbEntity
  8
IMPORT_IGES
100
AcDbLine
 62
253
  6
CONTINUOUS
 10
12.2241563499
 20
-2.1677170907
 11
12.1039133124
 21
-2.1905719713
  0
LWPOLYLINE
  5
3A0
100
AcDbEntity
  8
IMPORT_IGES
100
AcDbPolyline
 62
253
  6
CONTINUOUS
 90
5
 70
0
 10
12.1039133124
 20
-2.1905719713
 10
12.0017448237
 20
-2.2093646336
 10
11.9581143145
 20
-2.2171087985
 10
11.9198133957
 20
-2.2236843497
 10
11.8870804444
 20
-2.2290479632
  0
LINE
  5
3A1
100
AcDbEntity
  8
IMPORT_IGES
100
AcDbLine
 62
253
  6
CONTINUOUS
 10
14.4677279418
 20
0.2674805695
 11
14.7591547147
 21
0.3152440326
  0
LINE
  5
3A2
100
AcDbEntity
  8
IMPORT_IGES
100
AcDbLine
 62
253
  6
CONTINUOUS
 10
14.2650918249
 20
0.2352959913
 11
14.4677279418
 21
0.2674805695
  0
LINE
  5
3A3
100
AcDbEntity
  8
IMPORT_IGES
100
AcDbLine
 62
253
  6
CONTINUOUS
 10
14.0873256501
 20
0.2080130601
 11
14.2650918249
 21
0.2352959913
  0
LINE
  5
3A4
100
AcDbEntity
  8
IMPORT_IGES
100
AcDbLine
 62
253
  6
CONTINUOUS
 10
13.9870522458
 20
0.1932284315
 11
14.0873256501
 21
0.2080130601
  0
LWPOLYLINE
  5
3A5
100
AcDbEntity
  8
IMPORT_IGES
100
AcDbPolyline
 62
253
  6
CONTINUOUS
 90
3
 70
0
 10
13.8695890949
 20
0.1769838556
 10
13.9040243384
 20
0.1815613368
 10
13.9870522458
 20
0.1932284315
  0
LINE
  5
3A6
100
AcDbEntity
  8
IMPORT_IGES
100
AcDbLine
 62
253
  6
CONTINUOUS
 10
13.8695898091
 20
0.1769824669
 11
12.6121567388
 21
0.0774757765
  0
LINE
  5
3A7
100
AcDbEntity
  8
IMPORT_IGES
100
AcDbLine
 62
253
  6
CONTINUOUS
 10
12.6121567388
 20
0.0774757765
 11
12.2797527299
 21
0.0518435373
  0
LINE
  5
3A8
100
AcDbEntity
  8
IMPORT_IGES
100
AcDbLine
 62
253
  6
CONTINUOUS
 10
13.3474279363
 20
-1.0339613663
 11
14.9628212692
 21
-0.9078180397
  0
LINE
  5
3A9
100
AcDbEntity
  8
IMPORT_IGES
100
AcDbLine
 62
253
  6
CONTINUOUS
 10
47.5968603646
 20
0.0518443619
 11
46.3811150032
 21
0.1469980185
  0
LINE
  5
3AA
100
AcDbEntity
  8
IMPORT_IGES
100
AcDbLine
 62
253
  6
CONTINUOUS
 10
44.9137936032
 20
-0.9078197031
 11
46.5291823327
 21
-1.0339617045
  0
LINE
  5
3AB
100
AcDbEntity
  8
IMPORT_IGES
100
AcDbLine
 62
253
  6
CONTINUOUS
 10
46.3811150032
 20
0.1469980185
 11
46.007049247
 21
0.1769731484
  0
LINE
  5
3AC
100
AcDbEntity
  8
IMPORT_IGES
100
AcDbLine
 62
253
  6
CONTINUOUS
 10
46.0070160579
 20
0.1769702961
 11
45.9726415466
 21
0.1815417189
  0
LINE
  5
3AD
100
AcDbEntity
  8
IMPORT_IGES
100
AcDbLine
 62
253
  6
CONTINUOUS
 10
45.9726415466
 20
0.1815417189
 11
45.8897046669
 21
0.19319943
  0
LINE
  5
3AE
100
AcDbEntity
  8
IMPORT_IGES
100
AcDbLine
 62
253
  6
CONTINUOUS
 10
45.8897046669
 20
0.19319943
 11
45.7894124365
 21
0.2079900491
  0
LINE
  5
3AF
100
AcDbEntity
  8
IMPORT_IGES
100
AcDbLine
 62
253
  6
CONTINUOUS
 10
45.7894124365
 20
0.2079900491
 11
45.6115095398
 21
0.2352989675
  0
LINE
  5
3B0
100
AcDbEntity
  8
IMPORT_IGES
100
AcDbLine
 62
253
  6
CONTINUOUS
 10
45.6115095398
 20
0.2352989675
 11
45.4087437489
 21
0.2675089007
  0
LWPOLYLINE
  5
3B1
100
AcDbEntity
  8
IMPORT_IGES
100
AcDbPolyline
 62
253
  6
CONTINUOUS
 90
3
 70
0
 10
47.989533587
 20
-2.2290447051
 10
47.9575313105
 20
-2.2238037629
 10
47.9203008107
 20
-2.2174199428
  0
LINE
  5
3B2
100
AcDbEntity
  8
IMPORT_IGES
100
AcDbLine
 62
253
  6
CONTINUOUS
 10
45.4087437489
 20
0.2675089007
 11
45.1174635372
 21
0.315252684
  0
LINE
  5
3B3
100
AcDbEntity
  8
IMPORT_IGES
100
AcDbLine
 62
253
  6
CONTINUOUS
 10
47.9203008107
 20
-2.2174199428
 11
47.8313998703
 21
-2.2014576883
  0
LINE
  5
3B4
100
AcDbEntity
  8
IMPORT_IGES
100
AcDbLine
 62
253
  6
CONTINUOUS
 10
47.8313998703
 20
-2.2014576883
 11
47.7247050324
 21
-2.1815214562
  0
LINE
  5
3B5
100
AcDbEntity
  8
IMPORT_IGES
100
AcDbLine
 62
253
  6
CONTINUOUS
 10
47.7247050324
 20
-2.1815214562
 11
47.5318318901
 21
-2.1442632351
  0
LINE
  5
3B6
100
AcDbEntity
  8
IMPORT_IGES
100
AcDbLine
 62
253
  6
CONTINUOUS
 10
47.5318318901
 20
-2.1442632351
 11
47.3052124252
 21
-2.0992292928
  0
LWPOLYLINE
  5
3B7
100
AcDbEntity
  8
IMPORT_IGES
100
AcDbPolyline
 62
253
  6
CONTINUOUS
 90
4
 70
0
 10
47.5762865579
 20
-3.5636555488
 10
47.6185895663
 20
-3.5722452375
 10
47.6556928823
 20
-3.579605634
 10
47.6874289912
 20
-3.5857442164
  0
LINE
  5
3B8
100
AcDbEntity
  8
IMPORT_IGES
100
AcDbLine
 62
253
  6
CONTINUOUS
 10
47.3052124252
 20
-2.0992292928
 11
46.9678347954
 21
-2.0304660994
  0
LINE
  5
3B9
100
AcDbEntity
  8
IMPORT_IGES
100
AcDbLine
 62
253
  6
CONTINUOUS
 10
46.9678347954
 20
-2.0304660994
 11
46.7906762412
 21
-1.9936779328
  0
LINE
  5
3BA
100
AcDbEntity
  8
IMPORT_IGES
100
AcDbLine
 62
253
  6
CONTINUOUS
 10
47.4767251014
 20
-3.5426050486
 11
47.5762865579
 21
-3.5636555488
  0
LINE
  5
3BB
100
AcDbEntity
  8
IMPORT_IGES
100
AcDbLine
 62
253
  6
CONTINUOUS
 10
47.3588964844
 20
-3.5170633409
 11
47.4767251014
 21
-3.5426050486
  0
LINE
  5
3BC
100
AcDbEntity
  8
IMPORT_IGES
100
AcDbLine
 62
253
  6
CONTINUOUS
 10
47.1527342233
 20
-3.4711321168
 11
47.3588964844
 21
-3.5170633409
  0
LWPOLYLINE
  5
3BD
100
AcDbEntity
  8
IMPORT_IGES
100
AcDbPolyline
 62
253
  6
CONTINUOUS
 90
3
 70
0
 10
46.4955282719
 20
-3.319026357
 10
46.5817445997
 20
-3.3395846001
 10
47.1527342233
 20
-3.4711321168
  0
LWPOLYLINE
  5
3BE
100
AcDbEntity
  8
IMPORT_IGES
100
AcDbPolyline
 62
253
  6
CONTINUOUS
 90
13
 70
0
 10
48.5575025401
 20
-4.5563888148
 10
48.5147473952
 20
-4.5418962062
 10
48.4617923025
 20
-4.532858541
 10
48.3987978402
 20
-4.5295189238
 10
48.3259342351
 20
-4.5318057092
 10
48.2430109906
 20
-4.539385896
 10
48.1494877092
 20
-4.5516488961
 10
48.0436081579
 20
-4.5677896481
 10
47.9267019653
 20
-4.5862593388
 10
47.8030449645
 20
-4.6051010442
 10
47.6743434236
 20
-4.6226593037
 10
47.5396467612
 20
-4.6373519823
 10
47.3997418959
 20
-4.6473881672
  0
LWPOLYLINE
  5
3BF
100
AcDbEntity
  8
IMPORT_IGES
100
AcDbPolyline
 62
253
  6
CONTINUOUS
 90
7
 70
0
 10
28.9896043513
 20
6.8967156844
 10
28.9836795371
 20
6.9233128325
 10
28.9658605865
 20
6.9810977796
 10
28.9430301242
 20
7.0390925611
 10
28.9153190455
 20
7.0967499908
 10
28.8832464895
 20
7.1529752634
 10
28.847350376
 20
7.2070167496
  0
LWPOLYLINE
  5
3C0
100
AcDbEntity
  8
IMPORT_IGES
100
AcDbPolyline
 62
253
  6
CONTINUOUS
 90
11
 70
0
 10
36.0510492056
 20
-5.7578492933
 10
36.046482804
 20
-5.695220347
 10
36.0419572029
 20
-5.6377221114
 10
36.0375066297
 20
-5.5857726606
 10
36.0331290233
 20
-5.5393525035
 10
36.0288614549
 20
-5.4988767635
 10
36.0247355976
 20
-5.4646276692
 10
36.0207471772
 20
-5.4365807885
 10
36.0169198054
 20
-5.414960339
 10
36.0132975816
 20
-5.4000216064
 10
36.0099081005
 20
-5.391802984
  0
LINE
  5
3C1
100
AcDbEntity
  8
IMPORT_IGES
100
AcDbLine
 62
253
  6
CONTINUOUS
 10
36.0601974327
 20
-5.8969783257
 11
36.0510492056
 21
-5.7578492933
  0
LINE
  5
3C2
100
AcDbEntity
  8
IMPORT_IGES
100
AcDbLine
 62
253
  6
CONTINUOUS
 10
36.0692269101
 20
-6.0524141345
 11
36.0601974327
 21
-5.8969783257
  0
LINE
  5
3C3
100
AcDbEntity
  8
IMPORT_IGES
100
AcDbLine
 62
253
  6
CONTINUOUS
 10
36.0779669773
 20
-6.2212760576
 11
36.0692269101
 21
-6.0524141345
  0
LWPOLYLINE
  5
3C4
100
AcDbEntity
  8
IMPORT_IGES
100
AcDbPolyline
 62
253
  6
CONTINUOUS
 90
22
 70
0
 10
34.8438560735
 20
-6.8689311356
 10
34.839117393
 20
-6.7717476359
 10
34.8270159901
 20
-6.6745373097
 10
34.8075572818
 20
-6.5782051189
 10
34.7809967878
 20
-6.4839677751
 10
34.7475819773
 20
-6.3923692503
 10
34.7072860511
 20
-6.3032839283
 10
34.6604124913
 20
-6.2174562109
 10
34.6074264273
 20
-6.1356598428
 10
34.54830512
 20
-6.0578439083
 10
34.4835167252
 20
-5.9846741891
 10
34.4136452756
 20
-5.9167613419
 10
34.3386678457
 20
-5.8540830691
 10
34.2592114263
 20
-5.7972058013
 10
34.1759547377
 20
-5.7465785059
 10
34.0888462568
 20
-5.7021799001
 10
33.9986725423
 20
-5.6644528108
 10
33.9061861003
 20
-5.6336792496
 10
33.811260548
 20
-5.6098360209
 10
33.7144465256
 20
-5.5931549214
 10
33.6169671673
 20
-5.5838564068
 10
33.5197268726
 20
-5.5819198054
  0
LINE
  5
3C5
100
AcDbEntity
  8
IMPORT_IGES
100
AcDbLine
 62
253
  6
CONTINUOUS
 10
36.086215732
 20
-6.3996986533
 11
36.0779669773
 21
-6.2212760576
  0
LWPOLYLINE
  5
3C6
100
AcDbEntity
  8
IMPORT_IGES
100
AcDbPolyline
 62
253
  6
CONTINUOUS
 90
3
 70
0
 10
36.0973245365
 20
-6.6777933272
 10
36.093836835
 20
-6.5848452543
 10
36.086215732
 20
-6.3996986533
  0
LWPOLYLINE
  5
3C7
100
AcDbEntity
  8
IMPORT_IGES
100
AcDbPolyline
 62
253
  6
CONTINUOUS
 90
11
 70
0
 10
36.2441604847
 20
-23.7888481273
 10
36.2459558442
 20
-23.8378063064
 10
36.2478865888
 20
-23.8830195875
 10
36.2499391647
 20
-23.9239566187
 10
36.2520925828
 20
-23.9600806643
 10
36.2543312984
 20
-23.9910944263
 10
36.2566469622
 20
-24.0168280845
 10
36.2590259985
 20
-24.0370666405
 10
36.2614539882
 20
-24.0516512971
 10
36.2639165459
 20
-24.0604651222
 10
36.2663987566
 20
-24.0634175655
  0
LINE
  5
3C8
100
AcDbEntity
  8
IMPORT_IGES
100
AcDbLine
 62
253
  6
CONTINUOUS
 10
36.2409773451
 20
-23.6805656772
 11
36.2441604847
 21
-23.7888481273
  0
LINE
  5
3C9
100
AcDbEntity
  8
IMPORT_IGES
100
AcDbLine
 62
253
  6
CONTINUOUS
 10
36.2383604766
 20
-23.5602148344
 11
36.2409773451
 21
-23.6805656772
  0
LINE
  5
3CA
100
AcDbEntity
  8
IMPORT_IGES
100
AcDbLine
 62
253
  6
CONTINUOUS
 10
36.236352712
 20
-23.4301627329
 11
36.2383604766
 21
-23.5602148344
  0
LINE
  5
3CB
100
AcDbEntity
  8
IMPORT_IGES
100
AcDbLine
 62
7
  6
CONTINUOUS
 10
34.5796559348
 20
-23.0721442074
 11
34.4413471553
 21
-7.2235278614
  0
LINE
  5
3CC
100
AcDbEntity
  8
IMPORT_IGES
100
AcDbLine
 62
253
  6
CONTINUOUS
 10
34.8438461122
 20
-6.8689566734
 11
34.9780352155
 21
-23.0721461118
  0
LINE
  5
3CD
100
AcDbEntity
  8
IMPORT_IGES
100
AcDbLine
 62
7
  6
CONTINUOUS
 10
36.2334683384
 20
-23.0721479829
 11
36.0976959586
 21
-6.6777796139
  0
LINE
  5
3CE
100
AcDbEntity
  8
IMPORT_IGES
100
AcDbLine
 62
253
  6
CONTINUOUS
 10
36.2344329831
 20
-23.2202706129
 11
36.236352712
 21
-23.4301627329
  0
LINE
  5
3CF
100
AcDbEntity
  8
IMPORT_IGES
100
AcDbLine
 62
253
  6
CONTINUOUS
 10
36.2338236125
 20
-23.072145684
 11
36.2344329831
 21
-23.2202706129
  0
LINE
  5
3D0
100
AcDbEntity
  8
IMPORT_IGES
100
AcDbLine
 62
253
  6
CONTINUOUS
 10
33.5197268726
 20
-5.5819198054
 11
33.1190150874
 21
-5.9350608605
  0
LWPOLYLINE
  5
3D1
100
AcDbEntity
  8
IMPORT_IGES
100
AcDbPolyline
 62
253
  6
CONTINUOUS
 90
14
 70
0
 10
33.5197268726
 20
-5.5819198054
 10
33.5341234014
 20
-5.5740116609
 10
33.5580205649
 20
-5.5659750765
 10
33.5914182851
 20
-5.5578109258
 10
33.6344448869
 20
-5.5495028024
 10
33.6869717898
 20
-5.5410637094
 10
33.7486135144
 20
-5.5325376998
 10
33.8196138966
 20
-5.5238985002
 10
33.8997286424
 20
-5.5151622834
 10
33.9878400611
 20
-5.5064398156
 10
34.0841478207
 20
-5.4977234299
 10
34.1884516346
 20
-5.4890099467
 10
34.2990339284
 20
-5.4804236365
 10
34.4156052484
 20
-5.4719883986
  0
LINE
  5
3D2
100
AcDbEntity
  8
IMPORT_IGES
100
AcDbLine
 62
7
  6
CONTINUOUS
 10
39.4384086886
 20
5.3365823281
 11
20.4382014867
 21
5.3365823281
  0
LINE
  5
3D3
100
AcDbEntity
  8
IMPORT_IGES
100
AcDbLine
 62
7
  6
CONTINUOUS
 10
39.4383066473
 20
5.4365823281
 11
20.4383066473
 21
5.4365823281
  0
LINE
  5
3D4
100
AcDbEntity
  8
IMPORT_IGES
100
AcDbLine
 62
253
  6
CONTINUOUS
 10
20.4383066473
 20
5.7366326481
 11
39.4385014849
 21
5.7365930303
  0
LWPOLYLINE
  5
3D5
100
AcDbEntity
  8
IMPORT_IGES
100
AcDbPolyline
 62
253
  6
CONTINUOUS
 90
25
 70
0
 10
47.5968603646
 20
0.0518443619
 10
47.6616685089
 20
0.0373604036
 10
47.7211930824
 20
0.0148115741
 10
47.7754986519
 20
-0.0158005462
 10
47.8241642634
 20
-0.0543198155
 10
47.8677253262
 20
-0.100897519
 10
47.9076409468
 20
-0.1559921463
 10
47.9442368192
 20
-0.2197110991
 10
47.9771957709
 20
-0.2919378252
 10
48.0069673703
 20
-0.3727935554
 10
48.0340641602
 20
-0.4633132731
 10
48.0579304279
 20
-0.5624475837
 10
48.0774399435
 20
-0.6671925898
 10
48.092144402
 20
-0.7774289539
 10
48.1025205606
 20
-0.8932638987
 10
48.1088822792
 20
-1.0120383823
 10
48.1113148636
 20
-1.1326286593
 10
48.1097701026
 20
-1.2561512734
 10
48.1043665288
 20
-1.3833094191
 10
48.0951818776
 20
-1.5141347236
 10
48.0821316054
 20
-1.6485844895
 10
48.0650742827
 20
-1.7872483394
 10
48.0439483053
 20
-1.9303175945
 10
48.0187763807
 20
-2.0775861834
 10
47.9895334377
 20
-2.2290462706
  0
LINE
  5
3D6
100
AcDbEntity
  8
IMPORT_IGES
100
AcDbLine
 62
253
  6
CONTINUOUS
 10
48.0871383407
 20
-6.0607674679
 11
48.2443787846
 21
-6.1793221418
  0
LWPOLYLINE
  5
3D7
100
AcDbEntity
  8
IMPORT_IGES
100
AcDbPolyline
 62
253
  6
CONTINUOUS
 90
5
 70
0
 10
31.0292629644
 20
7.2070177219
 10
31.0740523711
 20
7.1693190273
 10
31.1185372992
 20
7.1312642803
 10
31.1627157269
 20
7.092855503
 10
31.1901980734
 20
7.068573738
  0
LINE
  5
3D8
100
AcDbEntity
  8
IMPORT_IGES
100
AcDbLine
 62
253
  6
CONTINUOUS
 10
29.5683513825
 20
10.4645355912
 11
29.5955317601
 21
10.4274587955
  0
LINE
  5
3D9
100
AcDbEntity
  8
IMPORT_IGES
100
AcDbLine
 62
253
  6
CONTINUOUS
 10
29.5139321963
 20
10.5400545707
 11
29.5683513825
 21
10.4645355912
  0
LINE
  5
3DA
100
AcDbEntity
  8
IMPORT_IGES
100
AcDbLine
 62
253
  6
CONTINUOUS
 10
29.4600458449
 20
10.6155731099
 11
29.5139321963
 21
10.5400545707
  0
LINE
  5
3DB
100
AcDbEntity
  8
IMPORT_IGES
100
AcDbLine
 62
253
  6
CONTINUOUS
 10
29.5955317601
 20
10.4274587955
 11
29.5974768651
 21
10.4246860141
  0
LWPOLYLINE
  5
3DC
100
AcDbEntity
  8
IMPORT_IGES
100
AcDbPolyline
 62
253
  6
CONTINUOUS
 90
3
 70
0
 10
30.0650427054
 20
10.8757814525
 10
30.0502030752
 20
10.9139651317
 10
30.0412709391
 20
10.9527804094
  0
LINE
  5
3DD
100
AcDbEntity
  8
IMPORT_IGES
100
AcDbLine
 62
7
  6
CONTINUOUS
 10
39.3383066473
 20
-24.0634176719
 11
39.3383066473
 21
-41.5634176719
  0
LINE
  5
3DE
100
AcDbEntity
  8
IMPORT_IGES
100
AcDbLine
 62
7
  6
CONTINUOUS
 10
39.3883066473
 20
-24.0634176719
 11
39.3883066473
 21
-34.5134176719
  0
LINE
  5
3DF
100
AcDbEntity
  8
IMPORT_IGES
100
AcDbLine
 62
253
  6
CONTINUOUS
 10
39.4383066473
 20
5.4365823281
 11
39.4383066473
 21
5.7365823281
  0
LINE
  5
3E0
100
AcDbEntity
  8
IMPORT_IGES
100
AcDbLine
 62
253
  6
CONTINUOUS
 10
39.4383066473
 20
12.1365823281
 11
39.4383066473
 21
12.4365823281
  0
LWPOLYLINE
  5
3E1
100
AcDbEntity
  8
IMPORT_IGES
100
AcDbPolyline
 62
253
  6
CONTINUOUS
 90
22
 70
0
 10
34.8438461122
 20
-6.8689566734
 10
34.8519938002
 20
-6.8592986427
 10
34.8666055648
 20
-6.8495097572
 10
34.8876028386
 20
-6.8395868207
 10
34.9148761295
 20
-6.8294790818
 10
34.9482832741
 20
-6.8192318779
 10
34.9876474898
 20
-6.8089866791
 10
35.032761578
 20
-6.798746116
 10
35.0833953603
 20
-6.7885043448
 10
35.1392936961
 20
-6.7783906914
 10
35.2001682285
 20
-6.7684086786
 10
35.2657134505
 20
-6.7585538066
 10
35.3356163139
 20
-6.7489438695
 10
35.4095284661
 20
-6.7395828597
 10
35.4870790403
 20
-6.7304679739
 10
35.5678968564
 20
-6.7217072835
 10
35.651597374
 20
-6.7133054988
 10
35.7377474984
 20
-6.7052612242
 10
35.82588068
 20
-6.6976739632
 10
35.9155430971
 20
-6.6905787937
 10
36.006299051
 20
-6.6839462545
 10
36.0976959586
 20
-6.6777796139
  0
LINE
  5
3E2
100
AcDbEntity
  8
IMPORT_IGES
100
AcDbLine
 62
253
  6
CONTINUOUS
 10
34.4413471502
 20
-7.2235272758
 11
34.8438555086
 21
-6.8689322311
  0
LINE
  5
3E3
100
AcDbEntity
  8
IMPORT_IGES
100
AcDbLine
 62
7
  6
CONTINUOUS
 10
21.4651978258
 20
6.9365823281
 11
19.4080113858
 21
6.9365823281
  0
LINE
  5
3E4
100
AcDbEntity
  8
IMPORT_IGES
100
AcDbLine
 62
7
  6
CONTINUOUS
 10
7.2884590832
 20
8.8365823281
 11
16.8397027957
 21
8.8365823281
  0
LINE
  5
3E5
100
AcDbEntity
  8
IMPORT_IGES
100
AcDbLine
 62
7
  6
CONTINUOUS
 10
43.0369079771
 20
8.8365823281
 11
52.5881542118
 21
8.8365823281
  0
LINE
  5
3E6
100
AcDbEntity
  8
IMPORT_IGES
100
AcDbLine
 62
7
  6
CONTINUOUS
 10
7.2884590831
 20
9.0365823281
 11
16.8397353089
 21
9.0365823269
  0
LINE
  5
3E7
100
AcDbEntity
  8
IMPORT_IGES
100
AcDbLine
 62
7
  6
CONTINUOUS
 10
43.0368873476
 20
9.0365823246
 11
52.5881542115
 21
9.0365823281
  0
LINE
  5
3E8
100
AcDbEntity
  8
IMPORT_IGES
100
AcDbLine
 62
253
  6
CONTINUOUS
 10
30.8269450757
 20
7.325335148
 11
30.8295843835
 21
7.3238210929
  0
LINE
  5
3E9
100
AcDbEntity
  8
IMPORT_IGES
100
AcDbLine
 62
253
  6
CONTINUOUS
 10
30.8295843835
 20
7.3238210929
 11
31.0292626736
 21
7.2070171988
  0
LINE
  5
3EA
100
AcDbEntity
  8
IMPORT_IGES
100
AcDbLine
 62
253
  6
CONTINUOUS
 10
49.4023629601
 20
-4.8984410368
 11
49.2456158977
 21
-4.7802839502
  0
LINE
  5
3EB
100
AcDbEntity
  8
IMPORT_IGES
100
AcDbLine
 62
7
  6
CONTINUOUS
 10
43.2883066473
 20
-24.0634176719
 11
43.2883066473
 21
-34.5134176719
  0
LINE
  5
3EC
100
AcDbEntity
  8
IMPORT_IGES
100
AcDbLine
 62
253
  6
CONTINUOUS
 10
44.8282175159
 20
17.8052705681
 11
44.9089741819
 21
18.729465706
  0
LWPOLYLINE
  5
3ED
100
AcDbEntity
  8
IMPORT_IGES
100
AcDbPolyline
 62
253
  6
CONTINUOUS
 90
3
 70
0
 10
44.9089741819
 20
18.729465706
 10
44.912777706
 20
18.7707005312
 10
44.9137911429
 20
18.7809757558
  0
LINE
  5
3EE
100
AcDbEntity
  8
IMPORT_IGES
100
AcDbLine
 62
7
  6
CONTINUOUS
 10
38.4114154689
 20
10.9365823281
 11
40.4686019089
 21
10.9365823281
  0
LINE
  5
3EF
100
AcDbEntity
  8
IMPORT_IGES
100
AcDbLine
 62
253
  6
CONTINUOUS
 10
39.4383066473
 20
12.136526869
 11
20.4381118098
 21
12.1365716259
  0
LINE
  5
3F0
100
AcDbEntity
  8
IMPORT_IGES
100
AcDbLine
 62
7
  6
CONTINUOUS
 10
20.4383066473
 20
12.4365823281
 11
39.4383066473
 21
12.4365823281
  0
LINE
  5
3F1
100
AcDbEntity
  8
IMPORT_IGES
100
AcDbLine
 62
7
  6
CONTINUOUS
 10
39.4386635813
 20
12.5365823305
 11
20.4380227699
 21
12.5365823305
  0
LWPOLYLINE
  5
3F2
100
AcDbEntity
  8
IMPORT_IGES
100
AcDbPolyline
 62
253
  6
CONTINUOUS
 90
10
 70
0
 10
30.4165619661
 20
10.6155734081
 10
30.361846599
 20
10.6346473876
 10
30.309880758
 20
10.6567741512
 10
30.2613669757
 20
10.6817051359
 10
30.2172229984
 20
10.7089115209
 10
30.1775917886
 20
10.7381743695
 10
30.1421113556
 20
10.769777809
 10
30.1112191574
 20
10.8035076538
 10
30.0854883634
 20
10.8388558292
 10
30.0650427054
 20
10.8757814525
  0
LINE
  5
3F3
100
AcDbEntity
  8
IMPORT_IGES
100
AcDbLine
 62
253
  6
CONTINUOUS
 10
46.6123077459
 20
-4.5424855394
 11
46.6160858502
 21
-4.5794472522
  0
LINE
  5
3F4
100
AcDbEntity
  8
IMPORT_IGES
100
AcDbLine
 62
253
  6
CONTINUOUS
 10
44.9137954217
 20
-0.9078108544
 11
44.9128183616
 21
-0.8979166588
  0
LINE
  5
3F5
100
AcDbEntity
  8
IMPORT_IGES
100
AcDbLine
 62
253
  6
CONTINUOUS
 10
46.5459682084
 20
-3.8524198073
 11
46.6123077459
 21
-4.5424855394
  0
LINE
  5
3F6
100
AcDbEntity
  8
IMPORT_IGES
100
AcDbLine
 62
253
  6
CONTINUOUS
 10
46.4955285053
 20
-3.3190255362
 11
46.5459682084
 21
-3.8524198073
  0
LINE
  5
3F7
100
AcDbEntity
  8
IMPORT_IGES
100
AcDbLine
 62
253
  6
CONTINUOUS
 10
44.9128183616
 20
-0.8979166588
 11
44.903648321
 21
-0.7969328171
  0
LINE
  5
3F8
100
AcDbEntity
  8
IMPORT_IGES
100
AcDbLine
 62
253
  6
CONTINUOUS
 10
46.5846994335
 20
-6.0039297703
 11
46.5683506689
 21
-5.8191640246
  0
LINE
  5
3F9
100
AcDbEntity
  8
IMPORT_IGES
100
AcDbLine
 62
253
  6
CONTINUOUS
 10
44.903648321
 20
-0.7969328171
 11
44.8282217891
 21
0.0678943234
  0
LINE
  5
3FA
100
AcDbEntity
  8
IMPORT_IGES
100
AcDbLine
 62
253
  6
CONTINUOUS
 10
46.5683506689
 20
-5.8191640246
 11
46.5531551623
 21
-5.6377260324
  0
LINE
  5
3FB
100
AcDbEntity
  8
IMPORT_IGES
100
AcDbLine
 62
253
  6
CONTINUOUS
 10
46.5531551623
 20
-5.6377260324
 11
46.5395527047
 21
-5.4648209491
  0
LINE
  5
3FC
100
AcDbEntity
  8
IMPORT_IGES
100
AcDbLine
 62
253
  6
CONTINUOUS
 10
46.5395527047
 20
-5.4648209491
 11
46.527753867
 21
-5.3032398373
  0
LWPOLYLINE
  5
3FD
100
AcDbEntity
  8
IMPORT_IGES
100
AcDbPolyline
 62
253
  6
CONTINUOUS
 90
13
 70
0
 10
46.527753867
 20
-5.3032398373
 10
46.5179888737
 20
-5.1561093711
 10
46.5139474257
 20
-5.0891510238
 10
46.5104773926
 20
-5.0267592706
 10
46.5076079408
 20
-4.9694426697
 10
46.5053581493
 20
-4.9176159262
 10
46.5037284094
 20
-4.8712596533
 10
46.5027348427
 20
-4.8307857648
 10
46.5023819714
 20
-4.7964753036
 10
46.5026716352
 20
-4.7683038365
 10
46.5036094337
 20
-4.7464941804
 10
46.5051845506
 20
-4.7313022557
 10
46.5073752871
 20
-4.7227692439
  0
LINE
  5
3FE
100
AcDbEntity
  8
IMPORT_IGES
100
AcDbLine
 62
7
  6
CONTINUOUS
 10
43.3383066473
 20
-24.0634176719
 11
43.3383066473
 21
-41.5634176719
  0
LINE
  5
3FF
100
AcDbEntity
  8
IMPORT_IGES
100
AcDbLine
 62
253
  6
CONTINUOUS
 10
43.8383066473
 20
8.8365823281
 11
43.8383066473
 21
9.0365823246
  0
LINE
  5
400
100
AcDbEntity
  8
IMPORT_IGES
100
AcDbLine
 62
7
  6
CONTINUOUS
 10
43.9383066473
 20
9.0365823246
 11
43.9383066473
 21
8.8365823281
  0
LINE
  5
401
100
AcDbEntity
  8
IMPORT_IGES
100
AcDbLine
 62
7
  6
CONTINUOUS
 10
45.7930996645
 20
8.8365823281
 11
45.7930996645
 21
9.0365823281
  0
LINE
  5
402
100
AcDbEntity
  8
IMPORT_IGES
100
AcDbLine
 62
253
  6
CONTINUOUS
 10
46.4424023632
 20
-23.1489022565
 11
46.4425193627
 21
-23.072144915
  0
LWPOLYLINE
  5
403
100
AcDbEntity
  8
IMPORT_IGES
100
AcDbPolyline
 62
253
  6
CONTINUOUS
 90
10
 70
0
 10
45.7937910462
 20
8.8365822314
 10
45.7910684727
 20
7.8850689499
 10
45.7702189549
 20
6.9344697388
 10
45.7312424928
 20
5.9847845981
 10
45.6741115148
 20
5.0356661856
 10
45.5988535926
 20
4.0874618435
 10
45.5055514406
 20
3.1412135984
 10
45.3942326305
 20
2.1972687927
 10
45.2648695906
 20
1.2552800841
 10
45.1174623211
 20
0.3152474726
  0
LWPOLYLINE
  5
404
100
AcDbEntity
  8
IMPORT_IGES
100
AcDbPolyline
 62
253
  6
CONTINUOUS
 90
10
 70
0
 10
46.007049247
 20
0.1769731484
 10
46.1568239603
 20
1.1323595349
 10
46.2883886532
 20
2.0901529934
 10
46.4016829564
 20
3.0500717515
 10
46.4966429699
 20
4.011898404
 10
46.5732317121
 20
4.9752847231
 10
46.6314493007
 20
5.9397508537
 10
46.671287585
 20
6.9049465218
 10
46.692719932
 20
7.8706520062
 10
46.6957388288
 20
8.8365823281
  0
LWPOLYLINE
  5
405
100
AcDbEntity
  8
IMPORT_IGES
100
AcDbPolyline
 62
253
  6
CONTINUOUS
 90
19
 70
0
 10
46.0070484298
 20
0.1769677331
 10
45.9899005461
 20
0.0882244472
 10
45.9667681223
 20
0.0004200416
 10
45.9376731167
 20
-0.0859553376
 10
45.9027584516
 20
-0.1702853049
 10
45.8620674682
 20
-0.252260542
 10
45.8154304442
 20
-0.3318278464
 10
45.7626800289
 20
-0.4088015225
 10
45.7041591172
 20
-0.4822717002
 10
45.6405798063
 20
-0.5511569473
 10
45.5721994659
 20
-0.6152242293
 10
45.4994449299
 20
-0.6739592392
 10
45.4236678388
 20
-0.7262777774
 10
45.3465525322
 20
-0.7715240263
 10
45.2675875707
 20
-0.8105004157
 10
45.1847563947
 20
-0.8440838034
 10
45.0975009578
 20
-0.8719994353
 10
45.0070161217
 20
-0.893407624
 10
44.9137967628
 20
-0.9078194753
  0
LWPOLYLINE
  5
406
100
AcDbEntity
  8
IMPORT_IGES
100
AcDbPolyline
 62
253
  6
CONTINUOUS
 90
13
 70
0
 10
45.1174623211
 20
0.3152474726
 10
45.1105620914
 20
0.284695108
 10
45.1002144878
 20
0.2553488683
 10
45.0864195102
 20
0.2272087535
 10
45.0690286925
 20
0.1998814926
 10
45.0481905009
 20
0.1737603565
 10
45.0243503336
 20
0.1500251585
 10
44.9973210545
 20
0.1287796939
 10
44.9672897998
 20
0.1099201674
 10
44.9352633765
 20
0.0943150064
 10
44.9015773868
 20
0.0822536868
 10
44.8658962284
 20
0.0734467327
 10
44.8282199013
 20
0.0678941442
  0
LWPOLYLINE
  5
407
100
AcDbEntity
  8
IMPORT_IGES
100
AcDbPolyline
 62
253
  6
CONTINUOUS
 90
25
 70
0
 10
46.7906588928
 20
-1.9936753983
 10
46.8327185488
 20
-1.9171366925
 10
46.8683090941
 20
-1.8443409447
 10
46.8977492309
 20
-1.7757121117
 10
46.9211283977
 20
-1.7124948527
 10
46.9393859976
 20
-1.6538895291
 10
46.9536357653
 20
-1.5972439528
 10
46.9639333675
 20
-1.5424289166
 10
46.9702371368
 20
-1.4900226248
 10
46.9726354946
 20
-1.4387348347
 10
46.9707942657
 20
-1.3885088138
 10
46.96448006
 20
-1.34023047
 10
46.9536081071
 20
-1.2942078151
 10
46.9375501125
 20
-1.2496902719
 10
46.916393057
 20
-1.2084551886
 10
46.8923196155
 20
-1.1736048004
 10
46.8682639846
 20
-1.1463689267
 10
46.8435641397
 20
-1.12382845
 10
46.8150042026
 20
-1.1029066243
 10
46.7812770572
 20
-1.0835091753
 10
46.7431395674
 20
-1.0667256322
 10
46.6992936131
 20
-1.0526153307
 10
46.6489881981
 20
-1.0418631961
 10
46.5923319712
 20
-1.0353897758
 10
46.529182039
 20
-1.0339586262
  0
LINE
  5
408
100
AcDbEntity
  8
IMPORT_IGES
100
AcDbLine
 62
253
  6
CONTINUOUS
 10
45.4089034269
 20
17.6056849457
 11
45.1174584211
 21
17.557915591
  0
LINE
  5
409
100
AcDbEntity
  8
IMPORT_IGES
100
AcDbLine
 62
253
  6
CONTINUOUS
 10
45.6115494384
 20
17.6378733133
 11
45.4089034269
 21
17.6056849457
  0
LINE
  5
40A
100
AcDbEntity
  8
IMPORT_IGES
100
AcDbLine
 62
253
  6
CONTINUOUS
 10
45.7893222819
 20
17.6651593597
 11
45.6115494384
 21
17.6378733133
  0
LINE
  5
40B
100
AcDbEntity
  8
IMPORT_IGES
100
AcDbLine
 62
253
  6
CONTINUOUS
 10
45.8895928845
 20
17.6799448206
 11
45.7893222819
 21
17.6651593597
  0
LWPOLYLINE
  5
40C
100
AcDbEntity
  8
IMPORT_IGES
100
AcDbPolyline
 62
253
  6
CONTINUOUS
 90
3
 70
0
 10
46.0070144791
 20
17.6961854512
 10
45.9725947858
 20
17.6916094278
 10
45.8895928845
 20
17.6799448206
  0
LINE
  5
40D
100
AcDbEntity
  8
IMPORT_IGES
100
AcDbLine
 62
253
  6
CONTINUOUS
 10
13.8695929815
 20
17.6961838847
 11
13.9039805075
 21
17.6916122646
  0
LINE
  5
40E
100
AcDbEntity
  8
IMPORT_IGES
100
AcDbLine
 62
253
  6
CONTINUOUS
 10
13.9039805075
 20
17.6916122646
 11
13.9869388125
 21
17.6799542989
  0
LINE
  5
40F
100
AcDbEntity
  8
IMPORT_IGES
100
AcDbLine
 62
253
  6
CONTINUOUS
 10
13.9869388125
 20
17.6799542989
 11
14.0872324878
 21
17.6651658982
  0
LINE
  5
410
100
AcDbEntity
  8
IMPORT_IGES
100
AcDbLine
 62
253
  6
CONTINUOUS
 10
14.0872324878
 20
17.6651658982
 11
14.2651280888
 21
17.6378611292
  0
LINE
  5
411
100
AcDbEntity
  8
IMPORT_IGES
100
AcDbLine
 62
253
  6
CONTINUOUS
 10
14.2651280888
 20
17.6378611292
 11
14.467883893
 21
17.6056548932
  0
LINE
  5
412
100
AcDbEntity
  8
IMPORT_IGES
100
AcDbLine
 62
253
  6
CONTINUOUS
 10
14.467883893
 20
17.6056548932
 11
14.7591467978
 21
17.5579151022
  0
LWPOLYLINE
  5
413
100
AcDbEntity
  8
IMPORT_IGES
100
AcDbPolyline
 62
253
  6
CONTINUOUS
 90
10
 70
0
 10
47.8424834214
 20
-5.693952487
 10
47.8700904065
 20
-5.7555192516
 10
47.8979348804
 20
-5.8117986547
 10
47.9258737809
 20
-5.8627906963
 10
47.9537352816
 20
-5.9083820757
 10
47.9813887891
 20
-5.9486860936
 10
48.0087334044
 20
-5.9840426516
 10
48.0356091497
 20
-6.0145650502
 10
48.0618085063
 20
-6.040139989
 10
48.0871383407
 20
-6.0607674679
  0
LWPOLYLINE
  5
414
100
AcDbEntity
  8
IMPORT_IGES
100
AcDbPolyline
 62
253
  6
CONTINUOUS
 90
19
 70
0
 10
47.8424940391
 20
-5.6939962569
 10
47.8365523984
 20
-5.6762125744
 10
47.8260802665
 20
-5.6632626605
 10
47.8107862508
 20
-5.6551415532
 10
47.790236256
 20
-5.6518009872
 10
47.7642627299
 20
-5.653278001
 10
47.7332965617
 20
-5.659698606
 10
47.6977443198
 20
-5.6716313419
 10
47.6574609765
 20
-5.6885047787
 10
47.612292958
 20
-5.7087374611
 10
47.561868779
 20
-5.732891769
 10
47.5066441298
 20
-5.7603994222
 10
47.447898366
 20
-5.7879858129
 10
47.3866929664
 20
-5.8154379484
 10
47.322758043
 20
-5.8429739839
 10
47.2554693455
 20
-5.867967369
 10
47.1847166425
 20
-5.889541381
 10
47.1110588244
 20
-5.9085720667
 10
47.0347633517
 20
-5.9250597817
  0
LINE
  5
415
100
AcDbEntity
  8
IMPORT_IGES
100
AcDbLine
 62
253
  6
CONTINUOUS
 10
46.6160858502
 20
-4.5794472522
 11
46.6170658823
 21
-4.5882496337
  0
LWPOLYLINE
  5
416
100
AcDbEntity
  8
IMPORT_IGES
100
AcDbPolyline
 62
253
  6
CONTINUOUS
 90
22
 70
0
 10
47.034763517
 20
-5.9250598838
 10
47.0303834472
 20
-5.834346971
 10
47.0284391628
 20
-5.7442123635
 10
47.0289292004
 20
-5.6553964077
 10
47.0317842065
 20
-5.5691009492
 10
47.036910837
 20
-5.4854849646
 10
47.0443339821
 20
-5.4036870568
 10
47.0540434768
 20
-5.3241069686
 10
47.0659528664
 20
-5.2475199695
 10
47.080119102
 20
-5.1736936656
 10
47.0964744604
 20
-5.1032159771
 10
47.1149235356
 20
-5.0366129532
 10
47.1355714534
 20
-4.9737165001
 10
47.1583755384
 20
-4.9149809612
 10
47.183151128
 20
-4.8611057539
 10
47.2098203541
 20
-4.8124098146
 10
47.2381481698
 20
-4.7694147586
 10
47.2679584597
 20
-4.7324059094
 10
47.2992575796
 20
-4.7014368419
 10
47.3318797086
 20
-4.676779082
 10
47.365468473
 20
-4.6587334096
 10
47.3997334487
 20
-4.6473894262
  0
LWPOLYLINE
  5
417
100
AcDbEntity
  8
IMPORT_IGES
100
AcDbPolyline
 62
253
  6
CONTINUOUS
 90
22
 70
0
 10
48.5940806889
 20
20.4048699281
 10
48.5962679194
 20
20.3157108684
 10
48.6037933673
 20
20.2265425578
 10
48.6166634097
 20
20.1380551571
 10
48.6347378952
 20
20.0511767995
 10
48.6578740914
 20
19.9663285074
 10
48.6860850601
 20
19.8834242487
 10
48.7191916004
 20
19.8030481615
 10
48.7569188922
 20
19.7258054319
 10
48.7992799246
 20
19.6516578974
 10
48.8459936671
 20
19.5811360375
 10
48.8967050325
 20
19.5147378142
 10
48.9514271459
 20
19.4524460391
 10
49.0097798907
 20
19.3947256693
 10
49.0713414128
 20
19.3419661274
 10
49.1361387605
 20
19.2941511719
 10
49.2036925904
 20
19.2516656164
 10
49.2735252821
 20
19.2147863008
 10
49.3457018488
 20
19.1834913929
 10
49.419882224
 20
19.1579937553
 10
49.4952992097
 20
19.1385641731
 10
49.5713674639
 20
19.1252802239
  0
LWPOLYLINE
  5
418
100
AcDbEntity
  8
IMPORT_IGES
100
AcDbPolyline
 62
253
  6
CONTINUOUS
 90
10
 70
0
 10
46.6957061191
 20
9.0365823281
 10
46.6926926034
 20
10.0025130781
 10
46.6712664668
 20
10.9682190993
 10
46.6314352152
 20
11.9334154124
 10
46.5732283026
 20
12.8978828296
 10
46.4966510253
 20
13.8612705402
 10
46.4016948366
 20
14.8230970898
 10
46.2883940054
 20
15.7830137267
 10
46.1568153325
 20
16.7408035895
 10
46.0070192705
 20
17.6961849192
  0
LINE
  5
419
100
AcDbEntity
  8
IMPORT_IGES
100
AcDbLine
 62
253
  6
CONTINUOUS
 10
46.4416040058
 20
-23.2999573007
 11
46.4424023632
 21
-23.1489022565
  0
LINE
  5
41A
100
AcDbEntity
  8
IMPORT_IGES
100
AcDbLine
 62
7
  6
CONTINUOUS
 10
46.58432639
 20
-6.0039987787
 11
46.4429756399
 21
-23.0721471291
  0
LINE
  5
41B
100
AcDbEntity
  8
IMPORT_IGES
100
AcDbLine
 62
253
  6
CONTINUOUS
 10
47.6985759936
 20
-23.0721463538
 11
47.8424940391
 21
-5.6939962569
  0
LINE
  5
41C
100
AcDbEntity
  8
IMPORT_IGES
100
AcDbLine
 62
7
  6
CONTINUOUS
 10
48.0969573598
 20
-23.0721442074
 11
48.2443787878
 21
-6.1793217787
  0
LINE
  5
41D
100
AcDbEntity
  8
IMPORT_IGES
100
AcDbLine
 62
253
  6
CONTINUOUS
 10
46.4400782335
 20
-23.4448831798
 11
46.4416040058
 21
-23.2999573007
  0
LINE
  5
41E
100
AcDbEntity
  8
IMPORT_IGES
100
AcDbLine
 62
253
  6
CONTINUOUS
 10
46.4378714847
 20
-23.5802925744
 11
46.4400782335
 21
-23.4448831798
  0
LWPOLYLINE
  5
41F
100
AcDbEntity
  8
IMPORT_IGES
100
AcDbPolyline
 62
7
  6
CONTINUOUS
 90
22
 70
0
 10
48.2443787314
 20
-6.1793217782
 10
48.2450462163
 20
-6.1474963003
 10
48.2518197995
 20
-6.05131288
 10
48.2657592776
 20
-5.9555942147
 10
48.2866902224
 20
-5.8615095895
 10
48.3144145271
 20
-5.7695845481
 10
48.3489609529
 20
-5.6796920294
 10
48.3900953553
 20
-5.5925490955
 10
48.4374235154
 20
-5.5089333821
 10
48.4909535701
 20
-5.4288265819
 10
48.5502757708
 20
-5.3528967843
 10
48.6148720275
 20
-5.2817607196
 10
48.6847471731
 20
-5.2154131345
 10
48.7593367319
 20
-5.1544294395
 10
48.8380152466
 20
-5.099281577
 10
48.9208005014
 20
-5.0499595082
 10
49.0069550494
 20
-5.0069310875
 10
49.095787898
 20
-4.9704979758
 10
49.1874247708
 20
-4.9406185907
 10
49.2813613922
 20
-4.9175410167
 10
49.3764486852
 20
-4.9015517996
 10
49.4023852241
 20
-4.8984387767
  0
LWPOLYLINE
  5
420
100
AcDbEntity
  8
IMPORT_IGES
100
AcDbPolyline
 62
253
  6
CONTINUOUS
 90
22
 70
0
 10
48.0871373901
 20
-6.0607679246
 10
48.091083925
 20
-5.9712452413
 10
48.101259496
 20
-5.8817226733
 10
48.1176591327
 20
-5.7928953239
 10
48.1401033552
 20
-5.705696836
 10
48.1684182711
 20
-5.620550721
 10
48.2026197502
 20
-5.5373724754
 10
48.2424882726
 20
-5.4567515265
 10
48.2876929102
 20
-5.3792967805
 10
48.3382480536
 20
-5.304972444
 10
48.3938143838
 20
-5.2343154229
 10
48.453968665
 20
-5.1678261747
 10
48.5187263718
 20
-5.1054876057
 10
48.587631786
 20
-5.0477707682
 10
48.6601845621
 20
-4.9950668387
 10
48.7364188819
 20
-4.9473579422
 10
48.8157635449
 20
-4.9050332866
 10
48.8976524729
 20
-4.8683710852
 10
48.9821631911
 20
-4.83734876
 10
49.0688900083
 20
-4.8121808604
 10
49.1569238197
 20
-4.7931372688
 10
49.2455740301
 20
-4.7802911964
  0
LWPOLYLINE
  5
421
100
AcDbEntity
  8
IMPORT_IGES
100
AcDbPolyline
 62
253
  6
CONTINUOUS
 90
18
 70
0
 10
47.6985890845
 20
-23.0721447035
 10
47.6951562847
 20
-23.1467471115
 10
47.6862708676
 20
-23.2202692964
 10
47.6721185828
 20
-23.292324575
 10
47.6529820919
 20
-23.3623200186
 10
47.6290549222
 20
-23.4301615333
 10
47.6002746124
 20
-23.4961967228
 10
47.5666905755
 20
-23.5602138586
 10
47.5285177259
 20
-23.6217178967
 10
47.485788429
 20
-23.6805649075
 10
47.4386812089
 20
-23.7363850973
 10
47.3873795946
 20
-23.7888475557
 10
47.3318748671
 20
-23.8378058291
 10
47.2721846085
 20
-23.8830192006
 10
47.2087278476
 20
-23.923956316
 10
47.1421534728
 20
-23.9600804375
 10
47.0729243193
 20
-23.9910942661
 10
47.0013200324
 20
-24.0168279805
  0
LWPOLYLINE
  5
422
100
AcDbEntity
  8
IMPORT_IGES
100
AcDbPolyline
 62
253
  6
CONTINUOUS
 90
16
 70
0
 10
47.8424827646
 20
-5.693951039
 10
47.8473202874
 20
-5.6006878952
 10
47.8590057674
 20
-5.5075013857
 10
47.8775228385
 20
-5.4151405012
 10
47.9026670173
 20
-5.3245932291
 10
47.9342463806
 20
-5.2363197769
 10
47.9722663243
 20
-5.1502919446
 10
48.0164452333
 20
-5.0672076376
 10
48.066411897
 20
-4.9877022283
 10
48.1221917445
 20
-4.9117408586
 10
48.1833383736
 20
-4.8399805473
 10
48.2493587446
 20
-4.7729565126
 10
48.3203235881
 20
-4.7106117834
 10
48.3958856722
 20
-4.6533461847
 10
48.4751768593
 20
-4.6018233221
 10
48.5574800119
 20
-4.5564002493
  0
LWPOLYLINE
  5
423
100
AcDbEntity
  8
IMPORT_IGES
100
AcDbPolyline
 62
253
  6
CONTINUOUS
 90
19
 70
0
 10
47.5968611694
 20
0.0518441654
 10
47.5791175559
 20
-0.0397698961
 10
47.5551639216
 20
-0.1303576222
 10
47.5251199018
 20
-0.2191574133
 10
47.4893236521
 20
-0.3051848024
 10
47.4480258707
 20
-0.3880009372
 10
47.4012047056
 20
-0.4676689215
 10
47.3491956284
 20
-0.5435689932
 10
47.2924441904
 20
-0.6150982384
 10
47.2309365439
 20
-0.682278503
 10
47.1651345614
 20
-0.7445681238
 10
47.0955666307
 20
-0.801501809
 10
47.0222114805
 20
-0.8530934124
 10
46.9456538915
 20
-0.8988981304
 10
46.8664880749
 20
-0.9385904721
 10
46.7846545754
 20
-0.9721903592
 10
46.7005753345
 20
-0.9994532476
 10
46.6151833633
 20
-1.0200716549
 10
46.5291924512
 20
-1.0339604669
  0
LINE
  5
424
100
AcDbEntity
  8
IMPORT_IGES
100
AcDbLine
 62
253
  6
CONTINUOUS
 10
46.7907052553
 20
-1.9935413728
 11
46.7281040586
 21
-2.2888148171
  0
LINE
  5
425
100
AcDbEntity
  8
IMPORT_IGES
100
AcDbLine
 62
253
  6
CONTINUOUS
 10
47.9254752944
 20
-2.5311917466
 11
47.9895334377
 21
-2.2290462706
  0
LINE
  5
426
100
AcDbEntity
  8
IMPORT_IGES
100
AcDbLine
 62
253
  6
CONTINUOUS
 10
46.7281040586
 20
-2.2888148171
 11
46.6637946867
 21
-2.5836646611
  0
LINE
  5
427
100
AcDbEntity
  8
IMPORT_IGES
100
AcDbLine
 62
253
  6
CONTINUOUS
 10
47.8596499838
 20
-2.8329865503
 11
47.9254752944
 21
-2.5311917466
  0
LINE
  5
428
100
AcDbEntity
  8
IMPORT_IGES
100
AcDbLine
 62
253
  6
CONTINUOUS
 10
46.6637946867
 20
-2.5836646611
 11
46.5977755327
 21
-2.8780986013
  0
LINE
  5
429
100
AcDbEntity
  8
IMPORT_IGES
100
AcDbLine
 62
253
  6
CONTINUOUS
 10
47.7920628132
 20
-3.1344159694
 11
47.8596499838
 21
-2.8329865503
  0
LWPOLYLINE
  5
42A
100
AcDbEntity
  8
IMPORT_IGES
100
AcDbPolyline
 62
253
  6
CONTINUOUS
 90
3
 70
0
 10
46.5977755327
 20
-2.8780986013
 10
46.5300401699
 20
-3.1721474232
 10
46.4955293118
 20
-3.3190254907
  0
LWPOLYLINE
  5
42B
100
AcDbEntity
  8
IMPORT_IGES
100
AcDbPolyline
 62
253
  6
CONTINUOUS
 90
3
 70
0
 10
47.6874046545
 20
-3.585814325
 10
47.7227275422
 20
-3.4354483775
 10
47.7920628132
 20
-3.1344159694
  0
LWPOLYLINE
  5
42C
100
AcDbEntity
  8
IMPORT_IGES
100
AcDbPolyline
 62
253
  6
CONTINUOUS
 90
19
 70
0
 10
47.6874289912
 20
-3.5857442164
 10
47.6651153223
 20
-3.672108496
 10
47.6372730598
 20
-3.7566991438
 10
47.6040332707
 20
-3.8391161588
 10
47.5655520411
 20
-3.9189704924
 10
47.5220111821
 20
-3.9958836304
 10
47.4736177891
 20
-4.0694896731
 10
47.4206003265
 20
-4.1394405932
 10
47.3632094702
 20
-4.2054057326
 10
47.301718822
 20
-4.2670716672
 10
47.2364181871
 20
-4.324147157
 10
47.1676171152
 20
-4.3763628363
 10
47.0956450217
 20
-4.423471241
 10
47.0208467416
 20
-4.4652509018
 10
46.9435666079
 20
-4.5015045255
 10
46.8641613686
 20
-4.5320601191
 10
46.7830127366
 20
-4.5567749546
 10
46.7005154051
 20
-4.5755349452
 10
46.6170669861
 20
-4.5882535565
  0
LWPOLYLINE
  5
42D
100
AcDbEntity
  8
IMPORT_IGES
100
AcDbPolyline
 62
253
  6
CONTINUOUS
 90
13
 70
0
 10
15.048394301
 20
17.8052704953
 10
17.5262016687
 20
18.0011468056
 10
20.0055468446
 20
18.1614183301
 10
22.4864298287
 20
18.2860850688
 10
24.9693632237
 20
18.3751581278
 10
27.4538344269
 20
18.428626401
 10
29.9383056303
 20
18.4464565702
 10
32.4227768583
 20
18.4286264219
 10
34.9072480864
 20
18.3751581697
 10
37.3901814334
 20
18.2860851364
 10
39.8710642723
 20
18.1614184296
 10
42.35040923
 20
18.0011469418
 10
44.8282163067
 20
17.8052706728
  0
LINE
  5
42E
100
AcDbEntity
  8
IMPORT_IGES
100
AcDbLine
 62
253
  6
CONTINUOUS
 10
46.0070192705
 20
17.6961849192
 11
47.3167485578
 21
17.7993980071
  0
LINE
  5
42F
100
AcDbEntity
  8
IMPORT_IGES
100
AcDbLine
 62
253
  6
CONTINUOUS
 10
46.4014991864
 20
18.8974798932
 11
44.9136870367
 21
18.7809946102
  0
LINE
  5
430
100
AcDbEntity
  8
IMPORT_IGES
100
AcDbLine
 62
253
  6
CONTINUOUS
 10
47.3167485578
 20
17.7993980071
 11
48.4654752035
 21
17.8867936529
  0
LINE
  5
431
100
AcDbEntity
  8
IMPORT_IGES
100
AcDbLine
 62
253
  6
CONTINUOUS
 10
48.0541426003
 20
19.0198364393
 11
46.4014991864
 21
18.8974798932
  0
LINE
  5
432
100
AcDbEntity
  8
IMPORT_IGES
100
AcDbLine
 62
253
  6
CONTINUOUS
 10
48.4654752035
 20
17.8867936529
 11
49.8796957318
 21
17.9892582962
  0
LINE
  5
433
100
AcDbEntity
  8
IMPORT_IGES
100
AcDbLine
 62
253
  6
CONTINUOUS
 10
49.5713672782
 20
19.1252785805
 11
48.0541426003
 21
19.0198364393
  0
LINE
  5
434
100
AcDbEntity
  8
IMPORT_IGES
100
AcDbLine
 62
253
  6
CONTINUOUS
 10
49.8796957318
 20
17.9892582962
 11
51.1755268292
 21
18.0780859826
  0
LINE
  5
435
100
AcDbEntity
  8
IMPORT_IGES
100
AcDbLine
 62
253
  6
CONTINUOUS
 10
51.1755268292
 20
18.0780859826
 11
51.833342755
 21
18.121541087
  0
LINE
  5
436
100
AcDbEntity
  8
IMPORT_IGES
100
AcDbLine
 62
253
  6
CONTINUOUS
 10
8.0432705764
 20
18.1215413089
 11
9.2639892628
 21
18.0399756482
  0
LINE
  5
437
100
AcDbEntity
  8
IMPORT_IGES
100
AcDbLine
 62
253
  6
CONTINUOUS
 10
9.2639892628
 20
18.0399756482
 11
10.4269231895
 21
17.9586890129
  0
LINE
  5
438
100
AcDbEntity
  8
IMPORT_IGES
100
AcDbLine
 62
253
  6
CONTINUOUS
 10
11.8225793567
 20
19.0198385912
 11
10.3053732802
 21
19.1252821728
  0
LINE
  5
439
100
AcDbEntity
  8
IMPORT_IGES
100
AcDbLine
 62
253
  6
CONTINUOUS
 10
10.4269231895
 20
17.9586890129
 11
11.4217764075
 21
17.8859949006
  0
LINE
  5
43A
100
AcDbEntity
  8
IMPORT_IGES
100
AcDbLine
 62
253
  6
CONTINUOUS
 10
13.4751842199
 20
18.8974817625
 11
11.8225793567
 21
19.0198385912
  0
LINE
  5
43B
100
AcDbEntity
  8
IMPORT_IGES
100
AcDbLine
 62
253
  6
CONTINUOUS
 10
11.4217764075
 20
17.8859949006
 11
12.5601314107
 21
17.7993807339
  0
LINE
  5
43C
100
AcDbEntity
  8
IMPORT_IGES
100
AcDbLine
 62
253
  6
CONTINUOUS
 10
12.5601314107
 20
17.7993807339
 11
13.8695532068
 21
17.6961882024
  0
LINE
  5
43D
100
AcDbEntity
  8
IMPORT_IGES
100
AcDbLine
 62
253
  6
CONTINUOUS
 10
14.9629551287
 20
18.7809886086
 11
13.4751842199
 21
18.8974817625
  0
LWPOLYLINE
  5
43E
100
AcDbEntity
  8
IMPORT_IGES
100
AcDbPolyline
 62
253
  6
CONTINUOUS
 90
16
 70
0
 10
45.1174553515
 20
17.5579337139
 10
45.112369899
 20
17.5820512093
 10
45.1049947877
 20
17.6056206887
 10
45.0953300176
 20
17.6286421521
 10
45.0833096825
 20
17.6513546245
 10
45.0689996885
 20
17.6735190808
 10
45.0525977542
 20
17.6944184463
 10
45.0339934979
 20
17.7140084209
 10
45.0132973011
 20
17.7323333047
 10
44.9910380267
 20
17.7488089229
 10
44.9672993389
 20
17.7633290332
 10
44.9419975735
 20
17.7759998779
 10
44.9154106005
 20
17.786556009
 10
44.8876310434
 20
17.7949089439
 10
44.8585662788
 20
17.8011471652
 10
44.8282163067
 20
17.8052706728
  0
LWPOLYLINE
  5
43F
100
AcDbEntity
  8
IMPORT_IGES
100
AcDbPolyline
 62
253
  6
CONTINUOUS
 90
10
 70
0
 10
45.1174553515
 20
17.5579337139
 10
45.2648632731
 20
16.6178992446
 10
45.3942268645
 20
15.6759086868
 10
45.5055461257
 20
14.7319620406
 10
45.5988486275
 20
13.785711972
 10
45.6741067992
 20
12.8375058148
 10
45.7312379287
 20
11.8883855714
 10
45.7702144453
 20
10.9386985755
 10
45.7910639197
 20
9.9880974933
 10
45.793786352
 20
9.0365823246
  0
LWPOLYLINE
  5
440
100
AcDbEntity
  8
IMPORT_IGES
100
AcDbPolyline
 62
7
  6
CONTINUOUS
 90
9
 70
0
 10
51.5390608371
 20
19.1324307564
 10
51.5415672884
 20
19.0622677123
 10
51.5478752159
 20
18.9921949426
 10
51.5579675244
 20
18.922550631
 10
51.5717424986
 20
18.853865398
 10
51.5891265737
 20
18.7862693194
 10
51.6101879959
 20
18.7194876844
 10
51.6349378185
 20
18.6536344782
 10
51.663218648
 20
18.5892062742
  0
LINE
  5
441
100
AcDbEntity
  8
IMPORT_IGES
100
AcDbLine
 62
7
  6
CONTINUOUS
 10
51.3426320036
 20
41.6409455959
 11
51.539061039
 21
19.1324075749
  0
LINE
  5
442
100
AcDbEntity
  8
IMPORT_IGES
100
AcDbLine
 62
7
  6
CONTINUOUS
 10
51.5883066473
 20
8.8365823281
 11
51.5883066473
 21
9.0365823281
  0
LWPOLYLINE
  5
443
100
AcDbEntity
  8
IMPORT_IGES
100
AcDbPolyline
 62
253
  6
CONTINUOUS
 90
16
 70
0
 10
11.2824857877
 20
20.4048948644
 10
10.9494430817
 20
20.3724878683
 10
10.6379410779
 20
20.3279697309
 10
10.3477562196
 20
20.2713404522
 10
10.0786712801
 20
20.2004310766
 10
9.8303640389
 20
20.1174105597
 10
9.602448688
 20
20.0287857685
 10
9.3947473373
 20
19.9348053172
 10
9.2068104239
 20
19.8352205917
 10
9.0379748581
 20
19.7357926165
 10
8.8878894233
 20
19.6360379396
 10
8.7564640942
 20
19.5364400131
 10
8.6435188494
 20
19.4442102182
 10
8.5487842682
 20
19.3590700243
 10
8.4719305739
 20
19.281297962
 10
8.3707561919
 20
19.1746814779
  0
LINE
  5
444
100
AcDbEntity
  8
IMPORT_IGES
100
AcDbLine
 62
253
  6
CONTINUOUS
 10
12.1784639123
 20
20.4525540679
 11
11.2824857877
 21
20.4048948644
  0
LINE
  5
445
100
AcDbEntity
  8
IMPORT_IGES
100
AcDbLine
 62
253
  6
CONTINUOUS
 10
11.6645415867
 20
19.1921361187
 11
10.3053732802
 21
19.1252821728
  0
LINE
  5
446
100
AcDbEntity
  8
IMPORT_IGES
100
AcDbLine
 62
253
  6
CONTINUOUS
 10
13.7209632396
 20
20.5285304872
 11
12.1784639123
 21
20.4525540679
  0
LINE
  5
447
100
AcDbEntity
  8
IMPORT_IGES
100
AcDbLine
 62
253
  6
CONTINUOUS
 10
14.8715827735
 20
20.5806396657
 11
13.7209632396
 21
20.5285304872
  0
LINE
  5
448
100
AcDbEntity
  8
IMPORT_IGES
100
AcDbLine
 62
253
  6
CONTINUOUS
 10
13.2534160231
 20
19.2642029982
 11
11.6645415867
 21
19.1921361187
  0
LWPOLYLINE
  5
449
100
AcDbEntity
  8
IMPORT_IGES
100
AcDbPolyline
 62
253
  6
CONTINUOUS
 90
16
 70
0
 10
10.3053731272
 20
19.1252835278
 10
10.0427243949
 20
19.1138599351
 10
9.7988101814
 20
19.0921234291
 10
9.5728299909
 20
19.0618495808
 10
9.3627834964
 20
19.0238457544
 10
9.1694107826
 20
18.9793440691
 10
8.995387873
 20
18.9306963332
 10
8.840410397
 20
18.879561544
 10
8.7031842089
 20
18.8268390605
 10
8.5839886855
 20
18.7741865045
 10
8.4814086312
 20
18.7228547747
 10
8.3957695532
 20
18.6750545872
 10
8.3280232467
 20
18.6332884315
 10
8.2761695572
 20
18.5981246876
 10
8.2376227721
 20
18.5699755068
 10
8.1941647703
 20
18.5370497353
  0
LINE
  5
44A
100
AcDbEntity
  8
IMPORT_IGES
100
AcDbLine
 62
253
  6
CONTINUOUS
 10
14.4294682126
 20
19.313224262
 11
13.2534160231
 21
19.2642029982
  0
LINE
  5
44B
100
AcDbEntity
  8
IMPORT_IGES
100
AcDbLine
 62
253
  6
CONTINUOUS
 10
16.1107974335
 20
20.6325976505
 11
14.8715827735
 21
20.5806396657
  0
LINE
  5
44C
100
AcDbEntity
  8
IMPORT_IGES
100
AcDbLine
 62
253
  6
CONTINUOUS
 10
15.683592419
 20
19.3614840772
 11
14.4294682126
 21
19.313224262
  0
LINE
  5
44D
100
AcDbEntity
  8
IMPORT_IGES
100
AcDbLine
 62
253
  6
CONTINUOUS
 10
17.4283890761
 20
20.6829396609
 11
16.1107974335
 21
20.6325976505
  0
LINE
  5
44E
100
AcDbEntity
  8
IMPORT_IGES
100
AcDbLine
 62
253
  6
CONTINUOUS
 10
17.0108202919
 20
19.4081614883
 11
15.683592419
 21
19.3614840772
  0
LINE
  5
44F
100
AcDbEntity
  8
IMPORT_IGES
100
AcDbLine
 62
253
  6
CONTINUOUS
 10
18.8227220095
 20
20.7305323827
 11
17.4283890761
 21
20.6829396609
  0
LINE
  5
450
100
AcDbEntity
  8
IMPORT_IGES
100
AcDbLine
 62
253
  6
CONTINUOUS
 10
18.4106387022
 20
19.4524071259
 11
17.0108202919
 21
19.4081614883
  0
LINE
  5
451
100
AcDbEntity
  8
IMPORT_IGES
100
AcDbLine
 62
253
  6
CONTINUOUS
 10
20.286353531
 20
20.7745498054
 11
18.8227220095
 21
20.7305323827
  0
LINE
  5
452
100
AcDbEntity
  8
IMPORT_IGES
100
AcDbLine
 62
253
  6
CONTINUOUS
 10
19.8737250023
 20
19.4932051276
 11
18.4106387022
 21
19.4524071259
  0
LINE
  5
453
100
AcDbEntity
  8
IMPORT_IGES
100
AcDbLine
 62
253
  6
CONTINUOUS
 10
21.3935290444
 20
19.5296863264
 11
19.8737250023
 21
19.4932051276
  0
LINE
  5
454
100
AcDbEntity
  8
IMPORT_IGES
100
AcDbLine
 62
253
  6
CONTINUOUS
 10
22.958201976
 20
19.5610232774
 11
21.3935290444
 21
19.5296863264
  0
LWPOLYLINE
  5
455
100
AcDbEntity
  8
IMPORT_IGES
100
AcDbPolyline
 62
253
  6
CONTINUOUS
 90
15
 70
0
 10
35.2539227874
 20
19.5874040384
 10
34.4414921602
 20
19.5976992451
 10
33.6247198244
 20
19.6063218772
 10
32.8037024399
 20
19.6132549123
 10
31.9783767332
 20
19.6184728708
 10
31.1514840963
 20
19.6219354817
 10
30.3231088143
 20
19.6236390452
 10
29.4932033324
 20
19.6235698676
 10
28.6643121229
 20
19.6217342212
 10
27.8359684456
 20
19.618144562
 10
27.0086760237
 20
19.6127857536
 10
26.1864340037
 20
19.605702192
 10
25.369635646
 20
19.5969408369
 10
24.5579205768
 20
19.5865211582
 10
22.958201976
 20
19.5610232774
  0
LINE
  5
456
100
AcDbEntity
  8
IMPORT_IGES
100
AcDbLine
 62
253
  6
CONTINUOUS
 10
36.8569791898
 20
19.5621309109
 11
35.2539227874
 21
19.5874040384
  0
LINE
  5
457
100
AcDbEntity
  8
IMPORT_IGES
100
AcDbLine
 62
253
  6
CONTINUOUS
 10
38.4273456194
 20
19.5309352409
 11
36.8569791898
 21
19.5621309109
  0
LWPOLYLINE
  5
458
100
AcDbEntity
  8
IMPORT_IGES
100
AcDbPolyline
 62
253
  6
CONTINUOUS
 90
22
 70
0
 10
38.0689035796
 20
20.8136761379
 10
37.2887411466
 20
20.8311071987
 10
36.4978254822
 20
20.8469648025
 10
35.6973483354
 20
20.8612730114
 10
34.8885812743
 20
20.8737742565
 10
34.0727816341
 20
20.8844256302
 10
33.2511357414
 20
20.8932700402
 10
32.4248216432
 20
20.9001786411
 10
31.5950986376
 20
20.9051325457
 10
30.7631815861
 20
20.9081506412
 10
29.9301843784
 20
20.9091607432
 10
29.09734331
 20
20.9081123489
 10
28.2658993224
 20
20.9050559612
 10
27.4369712381
 20
20.9000709034
 10
26.6117894219
 20
20.893139229
 10
25.7915811734
 20
20.8842788846
 10
24.9774553113
 20
20.873623034
 10
24.1706260826
 20
20.861130836
 10
23.3722935754
 20
20.8468431318
 10
22.5835366217
 20
20.8310156079
 10
21.8055412652
 20
20.813626088
 10
20.286353531
 20
20.7745498054
  0
LINE
  5
459
100
AcDbEntity
  8
IMPORT_IGES
100
AcDbLine
 62
253
  6
CONTINUOUS
 10
39.9548995655
 20
19.4944599734
 11
38.4273456194
 21
19.5309352409
  0
LINE
  5
45A
100
AcDbEntity
  8
IMPORT_IGES
100
AcDbLine
 62
253
  6
CONTINUOUS
 10
39.5921999555
 20
20.7744955862
 11
38.0689035796
 21
20.8136761379
  0
LINE
  5
45B
100
AcDbEntity
  8
IMPORT_IGES
100
AcDbLine
 62
253
  6
CONTINUOUS
 10
41.425623328
 20
19.4536039922
 11
39.9548995655
 21
19.4944599734
  0
LINE
  5
45C
100
AcDbEntity
  8
IMPORT_IGES
100
AcDbLine
 62
253
  6
CONTINUOUS
 10
41.0590816633
 20
20.7303647344
 11
39.5921999555
 21
20.7744955862
  0
LINE
  5
45D
100
AcDbEntity
  8
IMPORT_IGES
100
AcDbLine
 62
253
  6
CONTINUOUS
 10
42.8325441884
 20
19.4092725213
 11
41.425623328
 21
19.4536039922
  0
LINE
  5
45E
100
AcDbEntity
  8
IMPORT_IGES
100
AcDbLine
 62
253
  6
CONTINUOUS
 10
42.4554363727
 20
20.6826790862
 11
41.0590816633
 21
20.7303647344
  0
LINE
  5
45F
100
AcDbEntity
  8
IMPORT_IGES
100
AcDbLine
 62
253
  6
CONTINUOUS
 10
44.1676453117
 20
19.3624465131
 11
42.8325441884
 21
19.4092725213
  0
LINE
  5
460
100
AcDbEntity
  8
IMPORT_IGES
100
AcDbLine
 62
253
  6
CONTINUOUS
 10
43.7737751754
 20
20.6322783478
 11
42.4554363727
 21
20.6826790862
  0
LINE
  5
461
100
AcDbEntity
  8
IMPORT_IGES
100
AcDbLine
 62
253
  6
CONTINUOUS
 10
45.4265885399
 20
19.3140448479
 11
44.1676453117
 21
19.3624465131
  0
LINE
  5
462
100
AcDbEntity
  8
IMPORT_IGES
100
AcDbLine
 62
253
  6
CONTINUOUS
 10
46.6044851476
 20
19.2649812242
 11
45.4265885399
 21
19.3140448479
  0
LINE
  5
463
100
AcDbEntity
  8
IMPORT_IGES
100
AcDbLine
 62
253
  6
CONTINUOUS
 10
45.0125625264
 20
20.5803109229
 11
43.7737751754
 21
20.6322783478
  0
LINE
  5
464
100
AcDbEntity
  8
IMPORT_IGES
100
AcDbLine
 62
253
  6
CONTINUOUS
 10
46.1617839631
 20
20.5282420584
 11
45.0125625264
 21
20.5803109229
  0
LINE
  5
465
100
AcDbEntity
  8
IMPORT_IGES
100
AcDbLine
 62
253
  6
CONTINUOUS
 10
48.1978251871
 20
19.1928402578
 11
46.6044851476
 21
19.2649812242
  0
LINE
  5
466
100
AcDbEntity
  8
IMPORT_IGES
100
AcDbLine
 62
253
  6
CONTINUOUS
 10
49.5713672782
 20
19.1252785805
 11
48.1978251871
 21
19.1928402578
  0
LINE
  5
467
100
AcDbEntity
  8
IMPORT_IGES
100
AcDbLine
 62
253
  6
CONTINUOUS
 10
47.7008804298
 20
20.4524109875
 11
46.1617839631
 21
20.5282420584
  0
LINE
  5
468
100
AcDbEntity
  8
IMPORT_IGES
100
AcDbLine
 62
253
  6
CONTINUOUS
 10
48.5941220204
 20
20.4048952146
 11
47.7008804298
 21
20.4524109875
  0
LWPOLYLINE
  5
469
100
AcDbEntity
  8
IMPORT_IGES
100
AcDbPolyline
 62
253
  6
CONTINUOUS
 90
13
 70
0
 10
44.9136870367
 20
18.7809946102
 10
42.4225322467
 20
18.9779437934
 10
39.9288071202
 20
19.1391416135
 10
37.4330200575
 20
19.2645540687
 10
34.9356716067
 20
19.3541548293
 10
32.4372792486
 20
19.4079239265
 10
29.9383773179
 20
19.4258489385
 10
27.4394795338
 20
19.4079263315
 10
24.9410912907
 20
19.3541597572
 10
22.4437344478
 20
19.2645601521
 10
19.9479223553
 20
19.1391463972
 10
17.4541597631
 20
18.9779447259
 10
14.9629551287
 20
18.7809886086
  0
LWPOLYLINE
  5
46A
100
AcDbEntity
  8
IMPORT_IGES
100
AcDbPolyline
 62
253
  6
CONTINUOUS
 90
19
 70
0
 10
44.9137915408
 20
18.780982852
 10
45.0026923441
 20
18.7673972116
 10
45.0903215668
 20
18.7471214374
 10
45.1761608035
 20
18.7203254151
 10
45.2595294485
 20
18.6872601457
 10
45.3401889692
 20
18.6480985286
 10
45.4182917395
 20
18.602825534
 10
45.4936827694
 20
18.5513804755
 10
45.5656410211
 20
18.4940604498
 10
45.6335086874
 20
18.4314254363
 10
45.6967776679
 20
18.363965833
 10
45.7551973959
 20
18.2919083958
 10
45.8085608908
 20
18.2155606152
 10
45.8566699894
 20
18.1351604248
 10
45.8990889667
 20
18.051286033
 10
45.9354098491
 20
17.9648423353
 10
45.9655115093
 20
17.8765268807
 10
45.9894122251
 20
17.7867884993
 10
46.0070528208
 20
17.6961905834
  0
LWPOLYLINE
  5
46B
100
AcDbEntity
  8
IMPORT_IGES
100
AcDbPolyline
 62
7
  6
CONTINUOUS
 90
6
 70
0
 10
51.8333313486
 20
18.1215208435
 10
51.8157703439
 20
18.2089072783
 10
51.7927379591
 20
18.2933511874
 10
51.7641630175
 20
18.3758260639
 10
51.7302272036
 20
18.4559621582
 10
51.663218648
 20
18.5892062742
  0
LWPOLYLINE
  5
46C
100
AcDbEntity
  8
IMPORT_IGES
100
AcDbPolyline
 62
253
  6
CONTINUOUS
 90
14
 70
0
 10
46.4102145368
 20
-24.0634175654
 10
46.4126271301
 20
-24.0606288328
 10
46.4150067533
 20
-24.052370843
 10
46.4173402778
 20
-24.0388262572
 10
46.4196073951
 20
-24.0202731411
 10
46.4218048461
 20
-23.9969042995
 10
46.4239452105
 20
-23.9686597045
 10
46.4260223124
 20
-23.9355868273
 10
46.4280195415
 20
-23.8978967331
 10
46.42993224
 20
-23.8556205775
 10
46.431748414
 20
-23.80893391
 10
46.433457324
 20
-23.758017631
 10
46.4350542422
 20
-23.7028617315
 10
46.4378714847
 20
-23.5802925744
  0
LWPOLYLINE
  5
46D
100
AcDbEntity
  8
IMPORT_IGES
100
AcDbPolyline
 62
253
  6
CONTINUOUS
 90
19
 70
0
 10
51.6948960779
 20
18.5264912445
 10
51.6903639541
 20
18.5304625131
 10
51.6766871422
 20
18.5413614689
 10
51.6521891395
 20
18.5603721739
 10
51.6154631761
 20
18.5873999582
 10
51.5650482942
 20
18.622136318
 10
51.4997966734
 20
18.6637720381
 10
51.4186676725
 20
18.7105146869
 10
51.3209466996
 20
18.7606544046
 10
51.2072884731
 20
18.8125096925
 10
51.0777277508
 20
18.8644209807
 10
50.932103401
 20
18.9148449539
 10
50.77232193
 20
18.9621185168
 10
50.5985059554
 20
19.0053693761
 10
50.4109998083
 20
19.0435687015
 10
50.2134175081
 20
19.0752121582
 10
50.0077531012
 20
19.0996066688
 10
49.793516696
 20
19.116505468
 10
49.571367463
 20
19.1252802165
  0
LWPOLYLINE
  5
46E
100
AcDbEntity
  8
IMPORT_IGES
100
AcDbPolyline
 62
253
  6
CONTINUOUS
 90
15
 70
0
 10
51.4046553202
 20
19.2813223128
 10
51.3277907729
 20
19.3591074218
 10
51.2330449262
 20
19.4442576719
 10
51.120088442
 20
19.5364923442
 10
50.9886525839
 20
19.6360921577
 10
50.8385570434
 20
19.7358470614
 10
50.6697109076
 20
19.8352741084
 10
50.4817642071
 20
19.9348562456
 10
50.2740572628
 20
20.0288322635
 10
50.0461433187
 20
20.1174499899
 10
49.7978441079
 20
20.200461597
 10
49.5287728293
 20
20.2713623923
 10
49.2386071833
 20
20.3279841449
 10
48.927131225
 20
20.3724950856
 10
48.5941220204
 20
20.4048952146
  0
LWPOLYLINE
  5
46F
100
AcDbEntity
  8
IMPORT_IGES
100
AcDbPolyline
 62
253
  6
CONTINUOUS
 90
4
 70
0
 10
51.539061039
 20
19.1324075749
 10
51.5307890082
 20
19.1458392185
 10
51.5058488177
 20
19.1746882111
 10
51.4046553202
 20
19.2813223128
  0
LINE
  5
470
100
AcDbEntity
  8
IMPORT_IGES
100
AcDbLine
 62
7
  6
CONTINUOUS
 10
39.3883066473
 20
-34.5134176719
 11
39.3383066473
 21
-34.5634176719
  0
LINE
  5
471
100
AcDbEntity
  8
IMPORT_IGES
100
AcDbLine
 62
253
  6
CONTINUOUS
 10
51.3426320036
 20
41.6409455959
 11
8.5339812911
 21
41.6409455959
  0
LINE
  5
472
100
AcDbEntity
  8
IMPORT_IGES
100
AcDbLine
 62
7
  6
CONTINUOUS
 10
50.8425058169
 20
42.1365823281
 11
9.0340348652
 21
42.1365823281
  0
ARC
  5
473
100
AcDbEntity
  8
IMPORT_IGES
100
AcDbCircle
 62
7
  6
CONTINUOUS
 10
-33.5008882969
 20
317.4365823278
 40
323.3999999997
100
AcDbArc
 50
272.9954754187
 51
273.4659552969
  0
ARC
  5
474
100
AcDbEntity
  8
IMPORT_IGES
100
AcDbCircle
 62
7
  6
CONTINUOUS
 10
-33.5008882969
 20
317.4365823278
 40
323.3999999997
100
AcDbArc
 50
266.534044703
 51
267.0044964902
  0
ARC
  5
475
100
AcDbEntity
  8
IMPORT_IGES
100
AcDbCircle
 62
7
  6
CONTINUOUS
 10
-33.5008882969
 20
-299.5634176715
 40
319.9999999996
100
AcDbArc
 50
85.4449201742
 51
85.9155435241
  0
ARC
  5
476
100
AcDbEntity
  8
IMPORT_IGES
100
AcDbCircle
 62
7
  6
CONTINUOUS
 10
-33.5008882971
 20
-299.5634176679
 40
319.999999996
100
AcDbArc
 50
94.0844564519
 51
94.5550798258
  0
ARC
  5
477
100
AcDbEntity
  8
IMPORT_IGES
100
AcDbCircle
 62
7
  6
CONTINUOUS
 10
-24.0008882969
 20
-41.0634176719
 40
2.0
100
AcDbArc
 50
180.0
 51
360.0
  0
ARC
  5
478
100
AcDbEntity
  8
IMPORT_IGES
100
AcDbCircle
 62
7
  6
CONTINUOUS
 10
-43.0008882969
 20
-41.0634176719
 40
2.0
100
AcDbArc
 50
180.0
 51
360.0
  0
ARC
  5
479
100
AcDbEntity
  8
IMPORT_IGES
100
AcDbCircle
 62
7
  6
CONTINUOUS
 10
-33.5008882969
 20
-41.5634176719
 40
2.0
100
AcDbArc
 50
180.0
 51
360.0
  0
ARC
  5
47A
100
AcDbEntity
  8
IMPORT_IGES
100
AcDbCircle
 62
7
  6
CONTINUOUS
 10
-14.0281897286
 20
-4.0742595581
 40
1.2999999791
100
AcDbArc
 50
273.4659552969
 51
358.999874701
  0
ARC
  5
47B
100
AcDbEntity
  8
IMPORT_IGES
100
AcDbCircle
 62
7
  6
CONTINUOUS
 10
-52.9735868655
 20
-4.0742595581
 40
1.2999999791
100
AcDbArc
 50
181.0001253034
 51
266.534044703
  0
ARC
  5
47C
100
AcDbEntity
  8
IMPORT_IGES
100
AcDbCircle
 62
7
  6
CONTINUOUS
 10
-48.6095770863
 20
-23.0634176719
 40
1.0
100
AcDbArc
 50
180.5000000001
 51
270.0
  0
ARC
  5
47D
100
AcDbEntity
  8
IMPORT_IGES
100
AcDbCircle
 62
7
  6
CONTINUOUS
 10
-18.3921995075
 20
-23.0634176719
 40
1.0
100
AcDbArc
 50
270.0
 51
359.4999999999
  0
ARC
  5
47E
100
AcDbEntity
  8
IMPORT_IGES
100
AcDbCircle
 62
7
  6
CONTINUOUS
 10
-58.835045208
 20
-0.5558380574
 40
0.9999999972
100
AcDbArc
 50
181.0001145913
 51
265.4449201739
  0
ARC
  5
47F
100
AcDbEntity
  8
IMPORT_IGES
100
AcDbCircle
 62
7
  6
CONTINUOUS
 10
-8.1667313857
 20
-0.5558380581
 40
0.9999999972
100
AcDbArc
 50
274.5550798261
 51
358.9998854374
  0
ARC
  5
480
100
AcDbEntity
  8
IMPORT_IGES
100
AcDbCircle
 62
7
  6
CONTINUOUS
 10
-8.166731387
 20
18.4290027191
 40
0.9999999972
100
AcDbArc
 50
1.0001139896
 51
85.4449201742
  0
ARC
  5
481
100
AcDbEntity
  8
IMPORT_IGES
100
AcDbCircle
 62
7
  6
CONTINUOUS
 10
-58.8350452066
 20
18.4290027192
 40
0.9999999972
100
AcDbArc
 50
94.5550798258
 51
178.9998860218
  0
ARC
  5
482
100
AcDbEntity
  8
IMPORT_IGES
100
AcDbCircle
 62
7
  6
CONTINUOUS
 10
-54.4052326916
 20
41.6365823281
 40
0.5
100
AcDbArc
 50
90.0
 51
179.4999999999
  0
ARC
  5
483
100
AcDbEntity
  8
IMPORT_IGES
100
AcDbCircle
 62
7
  6
CONTINUOUS
 10
-12.5965439022
 20
41.6365823281
 40
0.5
100
AcDbArc
 50
0.5000000001
 51
90.0
  0
ARC
  5
484
100
AcDbEntity
  8
IMPORT_IGES
100
AcDbCircle
 62
7
  6
CONTINUOUS
 10
-7.3008882969
 20
5.7365823281
 40
0.3
100
AcDbArc
 50
323.5420545199
 51
360.0
  0
ARC
  5
485
100
AcDbEntity
  8
IMPORT_IGES
100
AcDbCircle
 62
7
  6
CONTINUOUS
 10
-7.3008882969
 20
12.1365823281
 40
0.3
100
AcDbArc
 50
0.0
 51
36.4579454921
  0
ARC
  5
486
100
AcDbEntity
  8
IMPORT_IGES
100
AcDbCircle
 62
7
  6
CONTINUOUS
 10
-59.7008882969
 20
12.1365823281
 40
0.3
100
AcDbArc
 50
143.5420545199
 51
180.0
  0
ARC
  5
487
100
AcDbEntity
  8
IMPORT_IGES
100
AcDbCircle
 62
7
  6
CONTINUOUS
 10
-59.7008882969
 20
5.7365823281
 40
0.3
100
AcDbArc
 50
180.0
 51
216.4579454921
  0
ARC
  5
488
100
AcDbEntity
  8
IMPORT_IGES
100
AcDbCircle
 62
7
  6
CONTINUOUS
 10
-3.6616933528
 20
8.9365823281
 40
56.2500000001
100
AcDbArc
 50
346.8757795723
 51
359.8981407828
  0
ARC
  5
489
100
AcDbEntity
  8
IMPORT_IGES
100
AcDbCircle
 62
7
  6
CONTINUOUS
 10
-3.661693352
 20
8.9365823282
 40
56.2499999993
100
AcDbArc
 50
0.1018592172
 51
9.3978043699
  0
ARC
  5
48A
100
AcDbEntity
  8
IMPORT_IGES
100
AcDbCircle
 62
7
  6
CONTINUOUS
 10
20.4383066473
 20
8.9365823281
 40
3.6
100
AcDbArc
 50
181.5917581015
 51
269.9983263169
  0
ARC
  5
48B
100
AcDbEntity
  8
IMPORT_IGES
100
AcDbCircle
 62
7
  6
CONTINUOUS
 10
20.4383066473
 20
8.9365823281
 40
3.6
100
AcDbArc
 50
90.0007722788
 51
178.4082442489
  0
ARC
  5
48C
100
AcDbEntity
  8
IMPORT_IGES
100
AcDbCircle
 62
7
  6
CONTINUOUS
 10
20.4383066473
 20
8.9365823281
 40
3.5
100
AcDbArc
 50
90.0
 51
270.0
  0
ARC
  5
48D
100
AcDbEntity
  8
IMPORT_IGES
100
AcDbCircle
 62
7
  6
CONTINUOUS
 10
28.6383066473
 20
8.5365823281
 40
3.2514718626
100
AcDbArc
 50
343.3789329692
 51
50.7963813438
  0
ARC
  5
48E
100
AcDbEntity
  8
IMPORT_IGES
100
AcDbCircle
 62
253
  6
CONTINUOUS
 10
20.4383066473
 20
8.9365823281
 40
3.2
100
AcDbArc
 50
90.0034885647
 51
270.0
  0
ARC
  5
48F
100
AcDbEntity
  8
IMPORT_IGES
100
AcDbCircle
 62
253
  6
CONTINUOUS
 10
28.6383066473
 20
8.5365823281
 40
2.7357657342
100
AcDbArc
 50
330.9224098545
 51
49.4580493157
  0
CIRCLE
  5
490
100
AcDbEntity
  8
IMPORT_IGES
100
AcDbCircle
 62
253
  6
CONTINUOUS
 10
20.4383066473
 20
8.9365823281
 40
2.55
  0
ARC
  5
491
100
AcDbEntity
  8
IMPORT_IGES
100
AcDbCircle
 62
7
  6
CONTINUOUS
 10
28.6383066473
 20
8.5365823281
 40
2.5014511592
100
AcDbArc
 50
331.03918606
 51
49.0081591133
  0
CIRCLE
  5
492
100
AcDbEntity
  8
IMPORT_IGES
100
AcDbCircle
 62
7
  6
CONTINUOUS
 10
20.4383066473
 20
8.9365823281
 40
2.25
  0
ARC
  5
493
100
AcDbEntity
  8
IMPORT_IGES
100
AcDbCircle
 62
7
  6
CONTINUOUS
 10
9.0339622526
 20
41.6365823281
 40
0.5
100
AcDbArc
 50
90.0
 51
179.4999999999
  0
ARC
  5
494
100
AcDbEntity
  8
IMPORT_IGES
100
AcDbCircle
 62
7
  6
CONTINUOUS
 10
63.5383066475
 20
8.9365823282
 40
56.2500000002
100
AcDbArc
 50
180.1018592173
 51
193.1242197039
  0
ARC
  5
495
100
AcDbEntity
  8
IMPORT_IGES
100
AcDbCircle
 62
7
  6
CONTINUOUS
 10
63.5383066473
 20
8.9365823281
 40
56.25
100
AcDbArc
 50
170.602195401
 51
179.8981407828
  0
ARC
  5
496
100
AcDbEntity
  8
IMPORT_IGES
100
AcDbCircle
 62
7
  6
CONTINUOUS
 10
39.4383066473
 20
8.9365823281
 40
3.6
100
AcDbArc
 50
270.0016240374
 51
358.4082407857
  0
ARC
  5
497
100
AcDbEntity
  8
IMPORT_IGES
100
AcDbCircle
 62
7
  6
CONTINUOUS
 10
39.4383066473
 20
8.9365823281
 40
3.6
100
AcDbArc
 50
1.5917554398
 51
89.999437319
  0
ARC
  5
498
100
AcDbEntity
  8
IMPORT_IGES
100
AcDbCircle
 62
7
  6
CONTINUOUS
 10
39.4383066473
 20
8.9365823281
 40
3.5
100
AcDbArc
 50
270.0
 51
90.0
  0
ARC
  5
499
100
AcDbEntity
  8
IMPORT_IGES
100
AcDbCircle
 62
7
  6
CONTINUOUS
 10
31.2383066473
 20
8.5365823281
 40
3.2514718626
100
AcDbArc
 50
129.2189286007
 51
196.6417517817
  0
ARC
  5
49A
100
AcDbEntity
  8
IMPORT_IGES
100
AcDbCircle
 62
253
  6
CONTINUOUS
 10
39.4383066473
 20
8.9365823281
 40
3.2
100
AcDbArc
 50
270.0034885647
 51
90.0
  0
ARC
  5
49B
100
AcDbEntity
  8
IMPORT_IGES
100
AcDbCircle
 62
253
  6
CONTINUOUS
 10
31.2383066473
 20
8.5365823281
 40
2.7357657342
100
AcDbArc
 50
130.5419508794
 51
209.0775955008
  0
CIRCLE
  5
49C
100
AcDbEntity
  8
IMPORT_IGES
100
AcDbCircle
 62
253
  6
CONTINUOUS
 10
29.9383066473
 20
8.9365823281
 40
2.55
  0
CIRCLE
  5
49D
100
AcDbEntity
  8
IMPORT_IGES
100
AcDbCircle
 62
253
  6
CONTINUOUS
 10
39.4383066473
 20
8.9365823281
 40
2.55
  0
ARC
  5
49E
100
AcDbEntity
  8
IMPORT_IGES
100
AcDbCircle
 62
7
  6
CONTINUOUS
 10
31.2383066473
 20
8.5365823281
 40
2.5014511592
100
AcDbArc
 50
130.9918408867
 51
208.96081394
  0
CIRCLE
  5
49F
100
AcDbEntity
  8
IMPORT_IGES
100
AcDbCircle
 62
7
  6
CONTINUOUS
 10
39.4383066473
 20
8.9365823281
 40
2.25
  0
CIRCLE
  5
4A0
100
AcDbEntity
  8
IMPORT_IGES
100
AcDbCircle
 62
7
  6
CONTINUOUS
 10
29.9383066473
 20
8.9365823281
 40
2.25
  0
ARC
  5
4A1
100
AcDbEntity
  8
IMPORT_IGES
100
AcDbCircle
 62
7
  6
CONTINUOUS
 10
41.3383066473
 20
-41.5634176719
 40
2.0
100
AcDbArc
 50
180.0
 51
360.0
  0
ARC
  5
4A2
100
AcDbEntity
  8
IMPORT_IGES
100
AcDbCircle
 62
7
  6
CONTINUOUS
 10
41.3383066473
 20
-41.0634176719
 40
2.0
100
AcDbArc
 50
180.0
 51
360.0
  0
ARC
  5
4A3
100
AcDbEntity
  8
IMPORT_IGES
100
AcDbCircle
 62
7
  6
CONTINUOUS
 10
35.5796178579
 20
-23.0634176719
 40
1.0
100
AcDbArc
 50
180.5000000001
 51
270.0
  0
ARC
  5
4A4
100
AcDbEntity
  8
IMPORT_IGES
100
AcDbCircle
 62
7
  6
CONTINUOUS
 10
47.0969954367
 20
-23.0634176719
 40
1.0
100
AcDbArc
 50
270.0
 51
359.4999999999
  0
ARC
  5
4A5
100
AcDbEntity
  8
IMPORT_IGES
100
AcDbCircle
 62
7
  6
CONTINUOUS
 10
50.842651042
 20
41.6365823281
 40
0.5
100
AcDbArc
 50
0.5000000001
 51
90.0
  0
ARC
  5
4A6
100
AcDbEntity
  8
IMPORT_IGES
100
AcDbCircle
 62
7
  6
CONTINUOUS
 10
29.9383066473
 20
172.4365823282
 40
178.4
100
AcDbArc
 50
263.5433644653
 51
271.0215853468
  0
ENDSEC
  0
SECTION
  2
OBJECTS
  0
DICTIONARY
  5
C
100
AcDbDictionary
280
0
281
1
  3
ACAD_GROUP
350
D
  3
ACAD_MLINESTYLE
350
17
  3
ACAD_LAYOUT
350
1A
  3
ACAD_PLOTSETTINGS
350
19
  3
ACAD_PLOTSTYLENAME
350
E
  0
DICTIONARY
  5
D
102
{ACAD_REACTORS
330
C
102
}
100
AcDbDictionary
280
0
281
1
  0
ACDBDICTIONARYWDFLT
  5
E
102
{ACAD_REACTORS
330
C
102
}
100
AcDbDictionary
281
1
  3
Normal
350
F
100
AcDbDictionaryWithDefault
340
F
  0
DICTIONARY
  5
17
102
{ACAD_REACTORS
330
C
102
}
100
AcDbDictionary
280
0
281
1
  3
Standard
350
18
  0
DICTIONARY
  5
19
102
{ACAD_REACTORS
330
C
102
}
100
AcDbDictionary
281
1
  0
DICTIONARY
  5
1A
102
{ACAD_REACTORS
330
C
102
}
100
AcDbDictionary
281
1
  3
Model
350
4A7
  3
Layout1
350
4A8
  0
ACDBPLACEHOLDER
  5
F
102
{ACAD_REACTORS
330
E
102
}
  0
MLINESTYLE
  5
18
102
{ACAD_REACTORS
330
17
102
}
100
AcDbMlineStyle
  2
STANDARD
 70
0
  3

 62
256
 51
90.0
 52
90.0
 71
2
 49
0.5
 62
256
  6
BYLAYER
 49
-0.5
 62
256
  6
BYLAYER
  0
LAYOUT
  5
4A7
102
{ACAD_REACTORS
330
1A
102
}
100
AcDbPlotSettings
  1

  2
none_device
  4
ISO_A4_(297.00_x_210.00_MM)
  6

 40
0.0
 41
0.0
 42
0.0
 43
0.0
 44
297.0
 45
210.0
 46
0.0
 47
0.0
 48
0.0
 49
0.0
140
0.0
141
0.0
142
1.0
143
1.0
 70
1024
 72
1
 73
0
 74
0
  7

 75
0
147
1.0
148
0.0
149
0.0
100
AcDbLayout
  1
Model
 70
0
 71
0
 10
0.0
 20
0.0
 11
297.0
 21
210.0
 12
0.0
 22
0.0
 32
0.0
 14
0.0
 24
0.0
 34
0.0
 15
0.0
 25
0.0
 35
0.0
146
0.0
 13
0.0
 23
0.0
 33
0.0
 16
1.0
 26
0.0
 36
0.0
 17
0.0
 27
1.0
 37
0.0
 76
0
330
20F
345
0
346
0
  0
LAYOUT
  5
4A8
102
{ACAD_REACTORS
330
1A
102
}
100
AcDbPlotSettings
  1

  2
none_device
  4
ISO_A4_(297.00_x_210.00_MM)
  6

 40
0.0
 41
0.0
 42
0.0
 43
0.0
 44
297.0
 45
210.0
 46
0.0
 47
0.0
 48
0.0
 49
0.0
140
0.0
141
0.0
142
1.0
143
1.0
 70
0
 72
1
 73
0
 74
0
  7

 75
0
147
1.0
148
0.0
149
0.0
100
AcDbLayout
  1
Layout1
 70
0
 71
1
 10
0.0
 20
0.0
 11
297.0
 21
210.0
 12
0.0
 22
0.0
 32
0.0
 14
0.0
 24
0.0
 34
0.0
 15
0.0
 25
0.0
 35
0.0
146
0.0
 13
0.0
 23
0.0
 33
0.0
 16
1.0
 26
0.0
 36
0.0
 17
0.0
 27
1.0
 37
0.0
 76
0
330
210
345
0
346
0
  0
ENDSEC
  0
EOF
