  0
SECTION
  2
HEADER
  9
$ACADVER
  1
AC1021
  9
$DWGCODEPAGE
  3
ANSI_1252
  9
$EXTMAX
 10
297.0
 20
210.0
 30
0.0
  9
$EXTMIN
 10
0.0
 20
0.0
 30
0.0
  9
$LIMMIN
 10
0.0
 20
0.0
  9
$LIMMAX
 10
297.0
 20
210.0
  9
$VIEWCTR
 10
148.5
 20
105.0
  9
$VIEWSIZE
 40
210.0
  9
$CLAYER
  8
0
  9
$LTSCALE
 40
16.335
  9
$CELTYPE
  6
BYLAYER
  9
$DIMSCALE
 40
1.0
  9
$DIMASZ
 40
3.0
  9
$DIMEXO
 40
0.5
  9
$DIMDLI
 40
11.286
  9
$DIMEXE
 40
1.5
  9
$DIMCEN
 40
2.673
  9
$DIMLFAC
 40
1.0
  9
$DIMBLK
  1
_FILLED
  9
$DIMALT
 70
0
  9
$DIMALTF
 40
25.4
  9
$DIMTXT
 40
3.0
  9
$DIMTOL
 70
1
  9
$DIMLIM
 70
0
  9
$DIMTFAC
 40
1.0
  9
$DIMTP
 40
0.01
  9
$DIMTM
 40
0.01
  9
$DIMGAP
 40
0.625
  9
$DIMDSEP
 70
44
  9
$AUNITS
 70
0
  9
$PDMODE
 70
3
  9
$PDSIZE
 40
3.0
  9
$HANDSEED
  5
53F
  9
$TILEMODE
 70
1
  9
$MEASUREMENT
 70
1
  9
$INSUNITS
 70
4
  0
ENDSEC
  0
SECTION
  2
CLASSES
  0
CLASS
  1
ACDBDICTIONARYWDFLT
  2
AcDbDictionaryWithDefault
  3
AutoCAD 2000
 90
0
 91
1
280
0
281
0
  0
CLASS
  1
ACDBPLACEHOLDER
  2
AcDbPlaceHolder
  3
AutoCAD 2000
 90
0
 91
1
280
0
281
0
  0
CLASS
  1
LAYOUT
  2
AcDbLayout
  3
AutoCAD 2000
 90
0
 91
0
280
0
281
0
  0
ENDSEC
  0
SECTION
  2
TABLES
  0
TABLE
  2
VPORT
  5
8
100
AcDbSymbolTable
 70
2
  0
VPORT
  5
1F4
100
AcDbSymbolTableRecord
100
AcDbViewportTableRecord
  2
*ACTIVE
 70
0
 10
0.0
 20
0.0
 11
1.0
 21
1.0
 12
148.5
 22
105.0
 13
0.0
 23
0.0
 14
1.0
 24
1.0
 15
0.0
 25
0.0
 16
0.0
 26
0.0
 36
1.0
 17
0.0
 27
0.0
 37
0.0
 40
210.0
 41
1.4142857143
 42
50.0
 43
0.0
 44
0.0
 50
0.0
 51
0.0
 71
0
 72
100
 73
1
 74
1
 75
0
 76
0
 77
0
 78
0
  0
ENDTAB
  0
TABLE
  2
LTYPE
  5
5
100
AcDbSymbolTable
 70
6
  0
LTYPE
  5
14
100
AcDbSymbolTableRecord
100
AcDbLinetypeTableRecord
  2
BYBLOCK
 70
0
  3

 72
65
 73
0
 40
0.0
  0
LTYPE
  5
15
100
AcDbSymbolTableRecord
100
AcDbLinetypeTableRecord
  2
BYLAYER
 70
0
  3

 72
65
 73
0
 40
0.0
  0
LTYPE
  5
16
100
AcDbSymbolTableRecord
100
AcDbLinetypeTableRecord
  2
CONTINUOUS
 70
64
  3
Solid line
 72
65
 73
0
 40
0.0
  0
LTYPE
  5
1F5
100
AcDbSymbolTableRecord
100
AcDbLinetypeTableRecord
  2
CENTER
 70
64
  3
____ _ ____ _ ____ _ ____ _ ____ _ ____ _ ____
 72
65
 73
4
 40
0.6
 49
0.375
 74
0
 49
-0.075
 74
0
 49
0.075
 74
0
 49
-0.075
 74
0
  0
LTYPE
  5
1F6
100
AcDbSymbolTableRecord
100
AcDbLinetypeTableRecord
  2
HIDDEN
 70
64
  3
- - - - - - - - - - - - - - - - - - - -
 72
65
 73
2
 40
0.2
 49
0.1
 74
0
 49
-0.1
 74
0
  0
LTYPE
  5
1F7
100
AcDbSymbolTableRecord
100
AcDbLinetypeTableRecord
  2
PHANTOM
 70
64
  3
_____ _ _ _____ _ _ _____ _ _ _____
 72
65
 73
6
 40
0.8
 49
0.45
 74
0
 49
-0.05
 74
0
 49
0.1
 74
0
 49
-0.05
 74
0
 49
0.1
 74
0
 49
-0.05
 74
0
  0
LTYPE
  5
1F8
100
AcDbSymbolTableRecord
100
AcDbLinetypeTableRecord
  2
DOT
 70
64
  3
. . . . . . . . . . . . . . . . . . . .
 72
65
 73
2
 40
0.2
 49
0.1
 74
0
 49
-0.1
 74
0
  0
LTYPE
  5
1F9
100
AcDbSymbolTableRecord
100
AcDbLinetypeTableRecord
  2
DASHED
 70
64
  3
- - - - - - - - - - - - - - - - - - - -
 72
65
 73
2
 40
0.2
 49
0.1
 74
0
 49
-0.1
 74
0
  0
ENDTAB
  0
TABLE
  2
LAYER
  5
2
100
AcDbSymbolTable
 70
36
  0
LAYER
  5
10
100
AcDbSymbolTableRecord
100
AcDbLayerTableRecord
  2
0
 70
0
 62
7
  6
CONTINUOUS
370
-3
390
F
  0
LAYER
  5
1FA
100
AcDbSymbolTableRecord
100
AcDbLayerTableRecord
  2
DEFAULT_1
 70
0
 62
7
  6
CENTER
370
-3
390
F
  0
LAYER
  5
1FB
100
AcDbSymbolTableRecord
100
AcDbLayerTableRecord
  2
DEFAULT_2
 70
0
 62
7
  6
HIDDEN
370
-3
390
F
  0
LAYER
  5
1FC
100
AcDbSymbolTableRecord
100
AcDbLayerTableRecord
  2
DEFAULT_3
 70
0
 62
7
  6
PHANTOM
370
-3
390
F
  0
LAYER
  5
1FD
100
AcDbSymbolTableRecord
100
AcDbLayerTableRecord
  2
ASSI
 70
0
 62
7
  6
CONTINUOUS
370
-3
390
F
  0
LAYER
  5
1FE
100
AcDbSymbolTableRecord
100
AcDbLayerTableRecord
  2
COORDINATE
 70
0
 62
7
  6
CONTINUOUS
370
-3
390
F
  0
LAYER
  5
1FF
100
AcDbSymbolTableRecord
100
AcDbLayerTableRecord
  2
COPY_PUBLISH
 70
0
 62
7
  6
CONTINUOUS
370
-3
390
F
  0
LAYER
  5
200
100
AcDbSymbolTableRecord
100
AcDbLayerTableRecord
  2
COSMETICI
 70
0
 62
7
  6
CONTINUOUS
370
-3
390
F
  0
LAYER
  5
201
100
AcDbSymbolTableRecord
100
AcDbLayerTableRecord
  2
CURVE
 70
0
 62
7
  6
CONTINUOUS
370
-3
390
F
  0
LAYER
  5
202
100
AcDbSymbolTableRecord
100
AcDbLayerTableRecord
  2
DRAFT
 70
0
 62
7
  6
CONTINUOUS
370
-3
390
F
  0
LAYER
  5
203
100
AcDbSymbolTableRecord
100
AcDbLayerTableRecord
  2
IMPORT_IGES
 70
0
 62
7
  6
CONTINUOUS
370
-3
390
F
  0
LAYER
  5
204
100
AcDbSymbolTableRecord
100
AcDbLayerTableRecord
  2
NOTE
 70
0
 62
7
  6
CONTINUOUS
370
-3
390
F
  0
LAYER
  5
205
100
AcDbSymbolTableRecord
100
AcDbLayerTableRecord
  2
PIANI
 70
0
 62
7
  6
CONTINUOUS
370
-3
390
F
  0
LAYER
  5
206
100
AcDbSymbolTableRecord
100
AcDbLayerTableRecord
  2
PUNTI
 70
0
 62
7
  6
CONTINUOUS
370
-3
390
F
  0
LAYER
  5
207
100
AcDbSymbolTableRecord
100
AcDbLayerTableRecord
  2
RACCORDO
 70
0
 62
7
  6
CONTINUOUS
370
-3
390
F
  0
LAYER
  5
208
100
AcDbSymbolTableRecord
100
AcDbLayerTableRecord
  2
SIMBOLI
 70
0
 62
7
  6
CONTINUOUS
370
-3
390
F
  0
LAYER
  5
209
100
AcDbSymbolTableRecord
100
AcDbLayerTableRecord
  2
SMUSSO
 70
0
 62
7
  6
CONTINUOUS
370
-3
390
F
  0
LAYER
  5
20A
100
AcDbSymbolTableRecord
100
AcDbLayerTableRecord
  2
SNAPLINE
 70
0
 62
7
  6
CONTINUOUS
370
-3
390
F
  0
LAYER
  5
20B
100
AcDbSymbolTableRecord
100
AcDbLayerTableRecord
  2
SUPERFICI
 70
0
 62
7
  6
CONTINUOUS
370
-3
390
F
  0
LAYER
  5
20C
100
AcDbSymbolTableRecord
100
AcDbLayerTableRecord
  2
TRASH
 70
0
 62
7
  6
CONTINUOUS
370
-3
390
F
  0
ENDTAB
  0
TABLE
  2
STYLE
  5
3
100
AcDbSymbolTable
 70
1
  0
STYLE
  5
11
100
AcDbSymbolTableRecord
100
AcDbTextStyleTableRecord
  2
STANDARD
 70
0
 40
0.0
 41
0.8
 50
0.0
 71
0
 42
0.2
  3
txt
  4

  0
STYLE
  5
20D
100
AcDbSymbolTableRecord
100
AcDbTextStyleTableRecord
  2
TEXTSTYLE_1
 70
0
 40
0.0
 41
0.8
 50
0.0
 71
0
 42
0.2
  3
gdt
  4

  0
ENDTAB
  0
TABLE
  2
VIEW
  5
6
100
AcDbSymbolTable
 70
0
  0
ENDTAB
  0
TABLE
  2
UCS
  5
7
100
AcDbSymbolTable
 70
0
  0
ENDTAB
  0
TABLE
  2
APPID
  5
9
100
AcDbSymbolTable
 70
1
  0
APPID
  5
20E
100
AcDbSymbolTableRecord
100
AcDbRegAppTableRecord
  2
ACAD
 70
0
  0
ENDTAB
  0
TABLE
  2
BLOCK_RECORD
  5
1
100
AcDbSymbolTable
 70
0
  0
BLOCK_RECORD
  5
20F
100
AcDbSymbolTableRecord
100
AcDbBlockTableRecord
  2
*Model_Space
  0
BLOCK_RECORD
  5
210
100
AcDbSymbolTableRecord
100
AcDbBlockTableRecord
  2
*Paper_Space
  0
BLOCK_RECORD
  5
211
100
AcDbSymbolTableRecord
100
AcDbBlockTableRecord
  2
_FILLED
  0
BLOCK_RECORD
  5
212
100
AcDbSymbolTableRecord
100
AcDbBlockTableRecord
  2
*D0
  0
BLOCK_RECORD
  5
213
100
AcDbSymbolTableRecord
100
AcDbBlockTableRecord
  2
*D1
  0
BLOCK_RECORD
  5
214
100
AcDbSymbolTableRecord
100
AcDbBlockTableRecord
  2
*D2
  0
ENDTAB
  0
TABLE
  2
DIMSTYLE
  5
A
100
AcDbSymbolTable
 70
1
100
AcDbDimStyleTable
 71
0
  0
DIMSTYLE
105
215
100
AcDbSymbolTableRecord
100
AcDbDimStyleTableRecord
  2
STANDARD
 70
0
  3

  4

 40
1.0
 41
3.0
 42
0.5
 43
0.38
 44
1.5
 45
0.0
 46
0.0
 47
0.01
 48
0.01
140
3.0
141
0.09
142
0.0
143
25.4
144
1.0
145
0.0
146
1.0
147
0.625
 71
1.0
 72
0.0
 73
0
 74
0
 75
0
 76
0
 77
1
 78
8
170
0
171
1
172
0
173
0
174
0
175
0
176
0
177
0
178
0
270
2
271
2
272
2
273
2
274
2
275
0
280
0
281
0
282
0
283
1
284
8
285
0
286
0
287
3
288
0
340
11
278
44
341
211
342
211
343
211
344
211
  0
DIMSTYLE
105
216
100
AcDbSymbolTableRecord
100
AcDbDimStyleTableRecord
  2
DIMSTYLE_1
 70
0
  3

  4

 40
1.0
 41
3.0
 42
0.5
 43
0.38
 44
1.5
 45
0.0
 46
0.0
 47
0.0
 48
0.0
140
3.0
141
0.09
142
0.0
143
25.4
144
1.0
145
0.0
146
1.0
147
0.75
 71
0.0
 72
0.0
 73
0
 74
0
 75
0
 76
0
 77
1
 78
8
170
0
171
1
172
0
173
0
174
0
175
0
176
0
177
0
178
0
270
2
271
2
272
2
273
2
274
2
275
0
280
0
281
0
282
0
283
1
284
8
285
0
286
0
287
3
288
0
340
11
278
44
341
211
342
211
343
211
344
211
  0
ENDTAB
  0
ENDSEC
  0
SECTION
  2
BLOCKS
  0
BLOCK
  5
20
100
AcDbEntity
  8
0
100
AcDbBlockBegin
  2
*Model_Space
 70
0
 10
0.0
 20
0.0
 30
0.0
  3
*Model_Space
  1

  0
ENDBLK
  5
21
100
AcDbEntity
  8
0
100
AcDbBlockEnd
  0
BLOCK
  5
1C
100
AcDbEntity
  8
0
100
AcDbBlockBegin
  2
*Paper_Space
 70
0
 10
0.0
 20
0.0
 30
0.0
  3
*Paper_Space
  1

  0
ENDBLK
  5
1D
100
AcDbEntity
  8
0
100
AcDbBlockEnd
  0
BLOCK
  5
217
100
AcDbEntity
  8
0
100
AcDbBlockBegin
  2
_FILLED
 70
64
 10
0.0
 20
0.0
  3
_FILLED
  1

  0
SOLID
  5
218
100
AcDbEntity
  8
0
  6
BYBLOCK
 62
0
100
AcDbTrace
 10
0.0
 20
0.0
 11
-1.0
 21
0.3166666667
 12
-1.0
 22
-0.3166666667
 13
-1.0
 23
-0.3166666667
  0
ENDBLK
  5
219
100
AcDbEntity
  8
0
  6
BYBLOCK
 62
0
100
AcDbBlockEnd
  0
BLOCK
  5
21A
100
AcDbEntity
  8
0
100
AcDbBlockBegin
 62
7
  6
CONTINUOUS
  2
*D0
 70
65
 10
0.0
 20
0.0
  3
*D0
  1

  0
MTEXT
  5
21B
100
AcDbEntity
  8
0
100
AcDbMText
 62
7
  6
CONTINUOUS
  7
STANDARD
 71
2
 72
1
 10
29.233828125
 20
52.7946897588
 30
0.0
 11
1.0
 21
0.0
 31
0.0
 44
0.9
  1
45,3
 40
3.0
 41
12.5357142857
  0
LINE
  5
21C
100
AcDbEntity
  8
0
100
AcDbLine
 62
7
  6
CONTINUOUS
 10
6.5839114584
 20
14.6446852412
 11
6.5839114584
 21
50.5446897588
  0
LINE
  5
21D
100
AcDbEntity
  8
0
100
AcDbLine
 62
7
  6
CONTINUOUS
 10
51.8837447916
 20
14.6446852412
 11
51.8837447916
 21
50.5446897588
  0
LINE
  5
21E
100
AcDbEntity
  8
0
100
AcDbLine
 62
7
  6
CONTINUOUS
 10
6.5839114584
 20
49.0446897588
 11
29.233828125
 21
49.0446897588
  0
LINE
  5
21F
100
AcDbEntity
  8
0
100
AcDbLine
 62
7
  6
CONTINUOUS
 10
51.8837447916
 20
49.0446897588
 11
29.233828125
 21
49.0446897588
  0
INSERT
  5
220
100
AcDbEntity
  8
0
100
AcDbBlockReference
 62
7
  6
CONTINUOUS
  2
_FILLED
 10
6.5839114584
 20
49.0446897588
 41
3.0
 42
3.0
 43
3.0
 50
180.0
  0
INSERT
  5
221
100
AcDbEntity
  8
0
100
AcDbBlockReference
 62
7
  6
CONTINUOUS
  2
_FILLED
 10
51.8837447916
 20
49.0446897588
 41
3.0
 42
3.0
 43
3.0
  0
ENDBLK
  5
222
100
AcDbEntity
  8
0
  6
BYBLOCK
 62
0
100
AcDbBlockEnd
  0
BLOCK
  5
223
100
AcDbEntity
  8
0
100
AcDbBlockBegin
 62
7
  6
CONTINUOUS
  2
*D1
 70
65
 10
0.0
 20
0.0
  3
*D1
  1

  0
MTEXT
  5
224
100
AcDbEntity
  8
0
100
AcDbMText
 62
7
  6
CONTINUOUS
  7
STANDARD
 71
2
 72
1
 10
-33.1266796875
 20
52.7946897588
 30
0.0
 11
1.0
 21
0.0
 31
0.0
 44
0.9
  1
53
 40
3.0
 41
6.4285714286
  0
LINE
  5
225
100
AcDbEntity
  8
0
100
AcDbLine
 62
7
  6
CONTINUOUS
 10
-6.6266796875
 20
17.9946852126
 11
-6.6266796875
 21
50.5446897588
  0
LINE
  5
226
100
AcDbEntity
  8
0
100
AcDbLine
 62
7
  6
CONTINUOUS
 10
-59.6266796875
 20
17.9942597414
 11
-59.6266796875
 21
50.5446897588
  0
LINE
  5
227
100
AcDbEntity
  8
0
100
AcDbLine
 62
7
  6
CONTINUOUS
 10
-6.6266796875
 20
49.0446897588
 11
-33.1266796875
 21
49.0446897588
  0
LINE
  5
228
100
AcDbEntity
  8
0
100
AcDbLine
 62
7
  6
CONTINUOUS
 10
-59.6266796875
 20
49.0446897588
 11
-33.1266796875
 21
49.0446897588
  0
INSERT
  5
229
100
AcDbEntity
  8
0
100
AcDbBlockReference
 62
7
  6
CONTINUOUS
  2
_FILLED
 10
-6.6266796875
 20
49.0446897588
 41
3.0
 42
3.0
 43
3.0
  0
INSERT
  5
22A
100
AcDbEntity
  8
0
100
AcDbBlockReference
 62
7
  6
CONTINUOUS
  2
_FILLED
 10
-59.6266796875
 20
49.0446897588
 41
3.0
 42
3.0
 43
3.0
 50
180.0
  0
ENDBLK
  5
22B
100
AcDbEntity
  8
0
  6
BYBLOCK
 62
0
100
AcDbBlockEnd
  0
BLOCK
  5
22C
100
AcDbEntity
  8
0
100
AcDbBlockBegin
 62
7
  6
CONTINUOUS
  2
*D2
 70
65
 10
0.0
 20
0.0
  3
*D2
  1

  0
MTEXT
  5
22D
100
AcDbEntity
  8
0
100
AcDbMText
 62
7
  6
CONTINUOUS
  7
STANDARD
 71
2
 72
1
 10
-71.3766796875
 20
11.0446852412
 30
0.0
 11
0.0
 21
1.0
 31
0.0
 44
0.9
  1
60
 40
3.0
 41
7.0714285714
  0
LINE
  5
22E
100
AcDbEntity
  8
0
100
AcDbLine
 62
7
  6
CONTINUOUS
 10
-54.5453986518
 20
41.0446852412
 11
-69.1266796875
 21
41.0446852412
  0
LINE
  5
22F
100
AcDbEntity
  8
0
100
AcDbLine
 62
7
  6
CONTINUOUS
 10
-52.6061563786
 20
-18.9553147588
 11
-69.1266796875
 21
-18.9553147588
  0
LINE
  5
230
100
AcDbEntity
  8
0
100
AcDbLine
 62
7
  6
CONTINUOUS
 10
-67.6266796875
 20
41.0446852412
 11
-67.6266796875
 21
11.0446852412
  0
LINE
  5
231
100
AcDbEntity
  8
0
100
AcDbLine
 62
7
  6
CONTINUOUS
 10
-67.6266796875
 20
-18.9553147588
 11
-67.6266796875
 21
11.0446852412
  0
INSERT
  5
232
100
AcDbEntity
  8
0
100
AcDbBlockReference
 62
7
  6
CONTINUOUS
  2
_FILLED
 10
-67.6266796875
 20
41.0446852412
 41
3.0
 42
3.0
 43
3.0
 50
90.0
  0
INSERT
  5
233
100
AcDbEntity
  8
0
100
AcDbBlockReference
 62
7
  6
CONTINUOUS
  2
_FILLED
 10
-67.6266796875
 20
-18.9553147588
 41
3.0
 42
3.0
 43
3.0
 50
270.0
  0
ENDBLK
  5
234
100
AcDbEntity
  8
0
  6
BYBLOCK
 62
0
100
AcDbBlockEnd
  0
ENDSEC
  0
SECTION
  2
ENTITIES
  0
DIMENSION
  5
235
100
AcDbEntity
  8
0
100
AcDbDimension
 62
7
  6
CONTINUOUS
  2
*D0
 10
51.8837447916
 20
49.0446897588
 11
28.8052578163
 21
49.0446897588
 70
160
 71
2
 42
45.2998333332
  3
DIMSTYLE_1
100
AcDbAlignedDimension
 13
6.5839114584
 23
14.1446852412
 14
51.8837447916
 24
14.1446852412
100
AcDbRotatedDimension
  0
DIMENSION
  5
236
100
AcDbEntity
  8
0
100
AcDbDimension
 62
7
  6
CONTINUOUS
  2
*D1
 10
-59.6266796875
 20
49.0446897588
 11
-33.5552513351
 21
49.0446897588
 70
160
 71
2
 42
53.0
  3
DIMSTYLE_1
100
AcDbAlignedDimension
 13
-6.6266796875
 23
17.4946852126
 14
-59.6266796875
 24
17.4942597414
 50
180.0
100
AcDbRotatedDimension
  0
DIMENSION
  5
237
100
AcDbEntity
  8
0
100
AcDbDimension
 62
7
  6
CONTINUOUS
  2
*D2
 10
-67.6266796875
 20
-18.9553147588
 11
-67.6266796875
 21
10.6161119718
 70
160
 71
2
 42
60.0
  3
DIMSTYLE_1
100
AcDbAlignedDimension
 13
-54.0453986518
 23
41.0446852412
 14
-52.1061563786
 24
-18.9553147588
 50
270.0
100
AcDbRotatedDimension
  0
LINE
  5
238
100
AcDbEntity
  8
IMPORT_IGES
100
AcDbLine
 62
253
  6
CONTINUOUS
 10
-35.6266796875
 20
-35.9553147588
 11
-30.6266796875
 21
-35.9553147588
  0
LINE
  5
239
100
AcDbEntity
  8
IMPORT_IGES
100
AcDbLine
 62
253
  6
CONTINUOUS
 10
-48.6266796875
 20
-35.4553147588
 11
-43.6266796875
 21
-35.4553147588
  0
LINE
  5
23A
100
AcDbEntity
  8
IMPORT_IGES
100
AcDbLine
 62
253
  6
CONTINUOUS
 10
-22.6266796875
 20
-35.4553147588
 11
-17.6266796875
 21
-35.4553147588
  0
LWPOLYLINE
  5
23B
100
AcDbEntity
  8
IMPORT_IGES
100
AcDbPolyline
 62
253
  6
CONTINUOUS
 90
19
 70
0
 10
-58.4805825958
 20
24.8551883849
 10
-58.4923586889
 20
24.8449871431
 10
-58.5038670856
 20
24.8277029447
 10
-58.5150993827
 20
24.8034292566
 10
-58.5261013965
 20
24.772255253
 10
-58.5368119809
 20
24.7343079133
 10
-58.5470602352
 20
24.6898235197
 10
-58.5568254553
 20
24.639028254
 10
-58.5661091946
 20
24.5821667196
 10
-58.5747711773
 20
24.5195987206
 10
-58.582788214
 20
24.4517071143
 10
-58.5901620456
 20
24.3788670629
 10
-58.5967878607
 20
24.3015329899
 10
-58.6026391966
 20
24.2201508559
 10
-58.607721959
 20
24.135161659
 10
-58.6119794118
 20
24.0470646665
 10
-58.6153853292
 20
23.9564028524
 10
-58.6179441983
 20
23.863754308
 10
-58.6196452839
 20
23.7697094359
  0
LINE
  5
23C
100
AcDbEntity
  8
IMPORT_IGES
100
AcDbLine
 62
7
  6
CONTINUOUS
 10
-17.6266796875
 20
-29.4553147588
 11
-22.6266796875
 21
-29.4553147588
  0
LINE
  5
23D
100
AcDbEntity
  8
IMPORT_IGES
100
AcDbLine
 62
7
  6
CONTINUOUS
 10
-43.6266796875
 20
-29.4553147588
 11
-48.6266796875
 21
-29.4553147588
  0
LINE
  5
23E
100
AcDbEntity
  8
IMPORT_IGES
100
AcDbLine
 62
7
  6
CONTINUOUS
 10
-48.5266796875
 20
-29.3553147588
 11
-43.7266796875
 21
-29.3553147588
  0
LINE
  5
23F
100
AcDbEntity
  8
IMPORT_IGES
100
AcDbLine
 62
7
  6
CONTINUOUS
 10
-22.5266796875
 20
-29.3553147588
 11
-17.7266796875
 21
-29.3553147588
  0
LINE
  5
240
100
AcDbEntity
  8
IMPORT_IGES
100
AcDbLine
 62
7
  6
CONTINUOUS
 10
-43.7266796875
 20
-29.3553147588
 11
-43.6266796875
 21
-29.4553147588
  0
LWPOLYLINE
  5
241
100
AcDbEntity
  8
IMPORT_IGES
100
AcDbPolyline
 62
253
  6
CONTINUOUS
 90
19
 70
0
 10
-58.6196460588
 20
4.3196605399
 10
-58.6179369419
 20
4.225412424
 10
-58.6153713915
 20
4.132628184
 10
-58.6119604144
 20
4.0419136689
 10
-58.6076982667
 20
3.9538395193
 10
-58.6026114268
 20
3.868898322
 10
-58.5967599645
 20
3.7875865192
 10
-58.5901398045
 20
3.7103441015
 10
-58.5827751062
 20
3.6375923388
 10
-58.5747686638
 20
3.569796226
 10
-58.5661189605
 20
3.507331156
 10
-58.5568480247
 20
3.4505276633
 10
-58.5470932924
 20
3.3997478915
 10
-58.5368548812
 20
3.3552636975
 10
-58.5261520824
 20
3.3172889172
 10
-58.5151493025
 20
3.2860540526
 10
-58.5039063989
 20
3.261729828
 10
-58.4923798429
 20
3.2444088338
 10
-58.4805780902
 20
3.2341815901
  0
LINE
  5
242
100
AcDbEntity
  8
IMPORT_IGES
100
AcDbLine
 62
7
  6
CONTINUOUS
 10
-59.624934181
 20
13.9446852422
 11
-59.4443339285
 21
3.5981017113
  0
LINE
  5
243
100
AcDbEntity
  8
IMPORT_IGES
100
AcDbLine
 62
7
  6
CONTINUOUS
 10
-58.6196712226
 20
4.3196607125
 11
-58.7876729778
 21
13.9446852412
  0
LINE
  5
244
100
AcDbEntity
  8
IMPORT_IGES
100
AcDbLine
 62
253
  6
CONTINUOUS
 10
-58.4698082985
 20
2.6158739062
 11
-58.4806008269
 21
3.2341820908
  0
LINE
  5
245
100
AcDbEntity
  8
IMPORT_IGES
100
AcDbLine
 62
7
  6
CONTINUOUS
 10
-59.6266796875
 20
17.4945672527
 11
-59.6266796875
 21
13.9446852412
  0
LINE
  5
246
100
AcDbEntity
  8
IMPORT_IGES
100
AcDbLine
 62
7
  6
CONTINUOUS
 10
-59.6266796875
 20
13.9008713663
 11
-59.6266796875
 21
10.5947001744
  0
LINE
  5
247
100
AcDbEntity
  8
IMPORT_IGES
100
AcDbLine
 62
253
  6
CONTINUOUS
 10
-59.3266796875
 20
14.1446852412
 11
-59.3266796875
 21
13.9446852412
  0
LINE
  5
248
100
AcDbEntity
  8
IMPORT_IGES
100
AcDbLine
 62
7
  6
CONTINUOUS
 10
-58.6266796875
 20
13.9446852412
 11
-58.6266796875
 21
14.1446852412
  0
LINE
  5
249
100
AcDbEntity
  8
IMPORT_IGES
100
AcDbLine
 62
7
  6
CONTINUOUS
 10
-59.4443338762
 20
24.4912697754
 11
-59.6249341812
 21
14.144685231
  0
LINE
  5
24A
100
AcDbEntity
  8
IMPORT_IGES
100
AcDbLine
 62
7
  6
CONTINUOUS
 10
-58.7876734099
 20
14.1446852412
 11
-58.6196709814
 21
23.7697086922
  0
LINE
  5
24B
100
AcDbEntity
  8
IMPORT_IGES
100
AcDbLine
 62
253
  6
CONTINUOUS
 10
-58.4806008493
 20
24.8551881702
 11
-58.4698083625
 21
25.4734965745
  0
LWPOLYLINE
  5
24C
100
AcDbEntity
  8
IMPORT_IGES
100
AcDbPolyline
 62
253
  6
CONTINUOUS
 90
19
 70
0
 10
-59.4550879161
 20
23.875169756
 10
-59.4499366193
 20
23.9604138613
 10
-59.4376689739
 20
24.0440140277
 10
-59.418601073
 20
24.1254040285
 10
-59.3932459239
 20
24.2036405841
 10
-59.3619046303
 20
24.2787051099
 10
-59.3243189568
 20
24.3513627019
 10
-59.2804252255
 20
24.4213931911
 10
-59.2305928808
 20
24.487908137
 10
-59.1749391509
 20
24.5505230751
 10
-59.1136068039
 20
24.6088005305
 10
-59.0470290929
 20
24.662073051
 10
-58.975849551
 20
24.7096642332
 10
-58.9006793243
 20
24.7510839772
 10
-58.8219067506
 20
24.7860407173
 10
-58.7399350066
 20
24.81423775
 10
-58.6552886764
 20
24.8353522663
 10
-58.5686283157
 20
24.8490799543
 10
-58.4806008402
 20
24.8551872294
  0
LWPOLYLINE
  5
24D
100
AcDbEntity
  8
IMPORT_IGES
100
AcDbPolyline
 62
253
  6
CONTINUOUS
 90
10
 70
0
 10
-44.4487049936
 20
24.1147706664
 10
-44.5116748137
 20
24.0911265545
 10
-44.5773975865
 20
24.0675012522
 10
-44.6455396422
 20
24.0440259402
 10
-44.715596497
 20
24.0208769927
 10
-44.7873147052
 20
23.9981353777
 10
-44.8607257415
 20
23.9757942682
 10
-44.9355725187
 20
23.9539405987
 10
-45.0112901146
 20
23.9327425999
 10
-45.0874479057
 20
23.9123162288
  0
LWPOLYLINE
  5
24E
100
AcDbEntity
  8
IMPORT_IGES
100
AcDbPolyline
 62
7
  6
CONTINUOUS
 90
22
 70
0
 10
-54.6651401941
 20
26.82284194
 10
-54.6660318172
 20
26.7847290249
 10
-54.6738734532
 20
26.6833287055
 10
-54.6896887726
 20
26.5824921794
 10
-54.7132546244
 20
26.4836060784
 10
-54.7443204523
 20
26.387285714
 10
-54.7829266679
 20
26.2933642866
 10
-54.8287855061
 20
26.2026715237
 10
-54.8814043275
 20
26.1161163534
 10
-54.9407940583
 20
26.0336756962
 10
-55.0064491727
 20
25.9561159561
 10
-55.0777319164
 20
25.8841358828
 10
-55.1546489558
 20
25.8177287699
 10
-55.2365072341
 20
25.7575395579
 10
-55.3225454414
 20
25.704080988
 10
-55.4127868987
 20
25.6573416669
 10
-55.5063258825
 20
25.6178237034
 10
-55.6023358394
 20
25.5858224267
 10
-55.7009855994
 20
25.5612950076
 10
-55.8016620348
 20
25.5444983231
 10
-55.9029784326
 20
25.535669345
 10
-55.9354400778
 20
25.5345228389
  0
LWPOLYLINE
  5
24F
100
AcDbEntity
  8
IMPORT_IGES
100
AcDbPolyline
 62
253
  6
CONTINUOUS
 90
13
 70
0
 10
-44.7476548281
 20
24.9293762438
 10
-44.7960974625
 20
24.8730554425
 10
-44.8479687435
 20
24.8167742915
 10
-44.9029783584
 20
24.760883551
 10
-44.9606646348
 20
24.7058518406
 10
-45.020781732
 20
24.6518921461
 10
-45.0833491003
 20
24.5989885872
 10
-45.1479565664
 20
24.5474978222
 10
-45.2142082189
 20
24.4977243956
 10
-45.2821571248
 20
24.4496309175
 10
-45.3515182937
 20
24.403441422
 10
-45.4216634933
 20
24.3595738816
 10
-45.4921205824
 20
24.3182918715
  0
LWPOLYLINE
  5
250
100
AcDbEntity
  8
IMPORT_IGES
100
AcDbPolyline
 62
253
  6
CONTINUOUS
 90
5
 70
0
 10
-12.8680306218
 20
-17.964041136
 10
-12.8713562311
 20
-17.9645992235
 10
-12.8813065175
 20
-17.9651113024
 10
-12.8978306316
 20
-17.9655739745
 10
-12.9208441335
 20
-17.9659836328
  0
LWPOLYLINE
  5
251
100
AcDbEntity
  8
IMPORT_IGES
100
AcDbPolyline
 62
253
  6
CONTINUOUS
 90
19
 70
0
 10
-59.4594551622
 20
4.464292085
 10
-59.4561036972
 20
4.4515887131
 10
-59.4466494707
 20
4.4392049335
 10
-59.4313447304
 20
4.4272095123
 10
-59.4105937821
 20
4.4157238676
 10
-59.3846371381
 20
4.4047410188
 10
-59.3532657863
 20
4.3941470212
 10
-59.3164134094
 20
4.3839657977
 10
-59.2743512021
 20
4.3743123044
 10
-59.2271403612
 20
4.3652309582
 10
-59.1748599007
 20
4.3567746152
 10
-59.117820719
 20
4.3490281324
 10
-59.0564980583
 20
4.3420774133
 10
-58.9913243373
 20
4.3359823918
 10
-58.9225868038
 20
4.3307802599
 10
-58.850624336
 20
4.3265103861
 10
-58.7758373852
 20
4.3232116061
 10
-58.6986945551
 20
4.3209192252
 10
-56.8740915864
 20
4.2949514196
  0
LWPOLYLINE
  5
252
100
AcDbEntity
  8
IMPORT_IGES
100
AcDbPolyline
 62
253
  6
CONTINUOUS
 90
25
 70
0
 10
-52.4176987707
 20
1.9215658803
 10
-52.4262480882
 20
2.0891797056
 10
-52.4438404429
 20
2.2509192806
 10
-52.4704869194
 20
2.4067734354
 10
-52.5063881363
 20
2.5560969975
 10
-52.5513631178
 20
2.699514051
 10
-52.6048474289
 20
2.8389209158
 10
-52.6666911165
 20
2.9751721677
 10
-52.7370548609
 20
3.1074016094
 10
-52.8158379363
 20
3.234926698
 10
-52.9037621634
 20
3.3584450815
 10
-53.0001137983
 20
3.4772473953
 10
-53.1026390094
 20
3.5885372192
 10
-53.2109905843
 20
3.69161418
 10
-53.3255215629
 20
3.7871629324
 10
-53.4450283326
 20
3.8744619707
 10
-53.5696033431
 20
3.9534455912
 10
-53.6991556518
 20
4.0241671191
 10
-53.8322057586
 20
4.0860837066
 10
-53.9687393812
 20
4.1391865797
 10
-54.1087683571
 20
4.1834757362
 10
-54.2508517166
 20
4.2184220364
 10
-54.3945071939
 20
4.2438474317
 10
-54.540210948
 20
4.2599251708
 10
-54.6879588255
 20
4.2666539916
  0
LWPOLYLINE
  5
253
100
AcDbEntity
  8
IMPORT_IGES
100
AcDbPolyline
 62
253
  6
CONTINUOUS
 90
22
 70
0
 10
-53.5543259555
 20
1.4009313426
 10
-53.550198801
 20
1.313855954
 10
-53.5393690211
 20
1.2273344726
 10
-53.5219030062
 20
1.1418133193
 10
-53.4979032978
 20
1.0577387091
 10
-53.4675027876
 20
0.9755357789
 10
-53.4308591613
 20
0.8956078849
 10
-53.3881662622
 20
0.818364129
 10
-53.3396495218
 20
0.7442004173
 10
-53.2855525037
 20
0.6734820156
 10
-53.2261551528
 20
0.6065717416
 10
-53.1617646008
 20
0.5438127149
 10
-53.0926995375
 20
0.4855155505
 10
-53.0193140184
 20
0.4319815629
 10
-52.9419844371
 20
0.3834876424
 10
-52.8610914444
 20
0.3402769216
 10
-52.7770488085
 20
0.3025768086
 10
-52.6902869204
 20
0.2705864126
 10
-52.601232852
 20
0.2444710737
 10
-52.5103370893
 20
0.2243733504
 10
-52.4180728704
 20
0.2104081895
 10
-52.3249157824
 20
0.2026570731
  0
LWPOLYLINE
  5
254
100
AcDbEntity
  8
IMPORT_IGES
100
AcDbPolyline
 62
253
  6
CONTINUOUS
 90
19
 70
0
 10
-52.3240800092
 20
-0.9950124016
 10
-52.3280492063
 20
-0.9093151637
 10
-52.3315535118
 20
-0.8237121738
 10
-52.3346110582
 20
-0.7387825038
 10
-52.3372489703
 20
-0.6552956479
 10
-52.3394569511
 20
-0.5736065786
 10
-52.34119727
 20
-0.4936711026
 10
-52.3424692344
 20
-0.4160104503
 10
-52.3432750181
 20
-0.3411282177
 10
-52.343590657
 20
-0.2689908095
 10
-52.3433863233
 20
-0.2000822102
 10
-52.342676688
 20
-0.1348393118
 10
-52.3415134958
 20
-0.0732380323
 10
-52.3398786842
 20
-0.0157302108
 10
-52.3377577604
 20
0.0373384661
 10
-52.3352162113
 20
0.086023816
 10
-52.3322627484
 20
0.1300604537
 10
-52.3288406586
 20
0.1690084199
 10
-52.3249173711
 20
0.2026415435
  0
LWPOLYLINE
  5
255
100
AcDbEntity
  8
IMPORT_IGES
100
AcDbPolyline
 62
253
  6
CONTINUOUS
 90
16
 70
0
 10
-52.4107168108
 20
1.132514786
 10
-52.4090647217
 20
1.0499760698
 10
-52.4067516712
 20
0.9690914595
 10
-52.403789997
 20
0.8902010405
 10
-52.4001963479
 20
0.8136651061
 10
-52.3959872709
 20
0.7397681177
 10
-52.3911766145
 20
0.6687285242
 10
-52.385782536
 20
0.6008209223
 10
-52.3798298116
 20
0.5363636942
 10
-52.3733437009
 20
0.4756308172
 10
-52.3663516851
 20
0.4188805933
 10
-52.3588837689
 20
0.3663540288
 10
-52.3509719652
 20
0.3182739382
 10
-52.3426497183
 20
0.2748446448
 10
-52.3339520766
 20
0.2362509816
 10
-52.3249157824
 20
0.2026570731
  0
LINE
  5
256
100
AcDbEntity
  8
IMPORT_IGES
100
AcDbLine
 62
253
  6
CONTINUOUS
 10
-54.5398242214
 20
3.1818623895
 11
-54.5340315458
 21
2.523848856
  0
LINE
  5
257
100
AcDbEntity
  8
IMPORT_IGES
100
AcDbLine
 62
7
  6
CONTINUOUS
 10
-53.3853304003
 20
-17.9640412508
 11
-53.5610666345
 21
2.1733366021
  0
LINE
  5
258
100
AcDbEntity
  8
IMPORT_IGES
100
AcDbLine
 62
253
  6
CONTINUOUS
 10
-52.4108049086
 20
1.1315981798
 11
-52.4176987707
 21
1.9215658803
  0
LINE
  5
259
100
AcDbEntity
  8
IMPORT_IGES
100
AcDbLine
 62
253
  6
CONTINUOUS
 10
-52.1757485056
 20
-17.9640433397
 11
-52.3238350064
 21
-0.9950111095
  0
LWPOLYLINE
  5
25A
100
AcDbEntity
  8
IMPORT_IGES
100
AcDbPolyline
 62
253
  6
CONTINUOUS
 90
22
 70
0
 10
-52.1754204497
 20
-17.9640412849
 10
-52.1751822017
 20
-18.0386439691
 10
-52.1745657821
 20
-18.1121663618
 10
-52.1735840763
 20
-18.1842217786
 10
-52.172256703
 20
-18.2542172709
 10
-52.1705970733
 20
-18.3220587696
 10
-52.1686008193
 20
-18.3880939423
 10
-52.1662713572
 20
-18.4521110796
 10
-52.1636236054
 20
-18.5136151174
 10
-52.1606598089
 20
-18.5724621264
 10
-52.1573923504
 20
-18.6282823131
 10
-52.15383396
 20
-18.6807447673
 10
-52.1499840328
 20
-18.7297030354
 10
-52.1458437885
 20
-18.7749164006
 10
-52.1414422917
 20
-18.8158535089
 10
-52.1368245507
 20
-18.8519776233
 10
-52.1320226708
 20
-18.8829914447
 10
-52.1270560463
 20
-18.9087251522
 10
-52.1219566892
 20
-18.9289637463
 10
-52.1167551198
 20
-18.9435484291
 10
-52.1114798183
 20
-18.9523622683
 10
-52.1061614867
 20
-18.9553147134
  0
LINE
  5
25B
100
AcDbEntity
  8
IMPORT_IGES
100
AcDbLine
 62
7
  6
CONTINUOUS
 10
-54.5453796134
 20
40.549048509
 11
-54.6651664014
 21
26.8228421687
  0
LINE
  5
25C
100
AcDbEntity
  8
IMPORT_IGES
100
AcDbLine
 62
253
  6
CONTINUOUS
 10
-12.9208441335
 20
-17.9659836328
 11
-12.9858364242
 21
-17.9666366468
  0
LINE
  5
25D
100
AcDbEntity
  8
IMPORT_IGES
100
AcDbLine
 62
253
  6
CONTINUOUS
 10
-12.9858364242
 20
-17.9666366468
 11
-13.1280150076
 21
-17.9671804867
  0
LINE
  5
25E
100
AcDbEntity
  8
IMPORT_IGES
100
AcDbLine
 62
253
  6
CONTINUOUS
 10
-52.1757485056
 20
-17.9640433397
 11
-52.9355128619
 21
-17.9671805673
  0
LINE
  5
25F
100
AcDbEntity
  8
IMPORT_IGES
100
AcDbLine
 62
7
  6
CONTINUOUS
 10
-52.385368421
 20
-18.9553147588
 11
-13.867990954
 21
-18.9553147588
  0
LINE
  5
260
100
AcDbEntity
  8
IMPORT_IGES
100
AcDbLine
 62
253
  6
CONTINUOUS
 10
-52.1755033812
 20
-17.9640412943
 11
-14.0778662819
 21
-17.9640412943
  0
LINE
  5
261
100
AcDbEntity
  8
IMPORT_IGES
100
AcDbLine
 62
253
  6
CONTINUOUS
 10
-52.9355128619
 20
-17.9671805673
 11
-53.1784047926
 21
-17.9670589758
  0
LINE
  5
262
100
AcDbEntity
  8
IMPORT_IGES
100
AcDbLine
 62
253
  6
CONTINUOUS
 10
-13.1280150076
 20
-17.9671804867
 11
-13.5466453427
 21
-17.9666369501
  0
LINE
  5
263
100
AcDbEntity
  8
IMPORT_IGES
100
AcDbLine
 62
253
  6
CONTINUOUS
 10
-53.1784047926
 20
-17.9670589758
 11
-53.2675243624
 21
-17.9666366897
  0
LINE
  5
264
100
AcDbEntity
  8
IMPORT_IGES
100
AcDbLine
 62
253
  6
CONTINUOUS
 10
-13.5466453427
 20
-17.9666369501
 11
-14.0776516642
 21
-17.9640431856
  0
LWPOLYLINE
  5
265
100
AcDbEntity
  8
IMPORT_IGES
100
AcDbPolyline
 62
253
  6
CONTINUOUS
 90
6
 70
0
 10
-53.2675243624
 20
-17.9666366897
 10
-53.3325159369
 20
-17.9659837052
 10
-53.3555292735
 20
-17.9655740612
 10
-53.3720533264
 20
-17.9651114013
 10
-53.3820035546
 20
-17.9645993323
 10
-53.3853290387
 20
-17.9640412518
  0
LWPOLYLINE
  5
266
100
AcDbEntity
  8
IMPORT_IGES
100
AcDbPolyline
 62
253
  6
CONTINUOUS
 90
22
 70
0
 10
-53.5543259555
 20
1.4009313426
 10
-53.5510727203
 20
1.3812385361
 10
-53.5416578638
 20
1.3621714909
 10
-53.5261049745
 20
1.3435792829
 10
-53.5045057437
 20
1.3250619721
 10
-53.4769805209
 20
1.3067180364
 10
-53.4436248321
 20
1.2891273802
 10
-53.4045914791
 20
1.2721113864
 10
-53.3601107792
 20
1.2555138332
 10
-53.3103726553
 20
1.2399150108
 10
-53.2555686485
 20
1.2251394792
 10
-53.1960092445
 20
1.2110040508
 10
-53.1320391511
 20
1.1980576882
 10
-53.0638227537
 20
1.1861612177
 10
-52.9917055703
 20
1.1751045515
 10
-52.9162717958
 20
1.1653524459
 10
-52.8376037739
 20
1.1568402272
 10
-52.7560029299
 20
1.1493479136
 10
-52.6723433111
 20
1.1431952232
 10
-52.5869799484
 20
1.1384656399
 10
-52.4997515115
 20
1.1349340847
 10
-52.4107168108
 20
1.132514786
  0
LINE
  5
267
100
AcDbEntity
  8
IMPORT_IGES
100
AcDbLine
 62
7
  6
CONTINUOUS
 10
-48.6266796875
 20
-35.4553147588
 11
-48.6266796875
 21
-29.4553147588
  0
LINE
  5
268
100
AcDbEntity
  8
IMPORT_IGES
100
AcDbLine
 62
7
  6
CONTINUOUS
 10
-48.5266796875
 20
-29.3553147588
 11
-48.5266796875
 21
-18.9553147588
  0
LWPOLYLINE
  5
269
100
AcDbEntity
  8
IMPORT_IGES
100
AcDbPolyline
 62
253
  6
CONTINUOUS
 90
19
 70
0
 10
-44.65987154
 20
40.549048509
 10
-44.6584162894
 20
40.592366821
 10
-44.6545485854
 20
40.6353262658
 10
-44.6482975378
 20
40.6776035163
 10
-44.6397101939
 20
40.7188803802
 10
-44.628851185
 20
40.758846194
 10
-44.6158022395
 20
40.797200162
 10
-44.600661568
 20
40.8336536195
 10
-44.5835431244
 20
40.8679322058
 10
-44.5645757476
 20
40.899777929
 10
-44.5439021923
 20
40.9289511077
 10
-44.5216780545
 20
40.9552321749
 10
-44.4980706004
 20
40.9784233306
 10
-44.4732575075
 20
40.9983500306
 10
-44.4474255273
 20
41.0148623
 10
-44.4207690798
 20
41.027835862
 10
-44.3934887901
 20
41.0371730732
 10
-44.3657899788
 20
41.0428036589
 10
-44.3378811162
 20
41.0446852412
  0
LWPOLYLINE
  5
26A
100
AcDbEntity
  8
IMPORT_IGES
100
AcDbPolyline
 62
253
  6
CONTINUOUS
 90
22
 70
0
 10
-47.0682551181
 20
26.2584835215
 10
-47.0739192498
 20
26.1657315324
 10
-47.0843736845
 20
26.0736018596
 10
-47.0994869537
 20
25.9828928428
 10
-47.1189013763
 20
25.8949157858
 10
-47.1423901152
 20
25.8098195903
 10
-47.1701652559
 20
25.7266126905
 10
-47.2021571051
 20
25.6456846337
 10
-47.2380498549
 20
25.5678928206
 10
-47.277990276
 20
25.4930147129
 10
-47.321735861
 20
25.4216769678
 10
-47.3690052076
 20
25.354425367
 10
-47.4200444684
 20
25.2910826296
 10
-47.474688496
 20
25.2321305748
 10
-47.5324421665
 20
25.1783007123
 10
-47.5931004572
 20
25.1299220648
 10
-47.6560995497
 20
25.0875352591
 10
-47.7210241557
 20
25.0514414899
 10
-47.7878678317
 20
25.0217061739
 10
-47.8562399304
 20
24.9986099224
 10
-47.9253619216
 20
24.9824475219
 10
-47.9946245189
 20
24.9732932374
  0
LWPOLYLINE
  5
26B
100
AcDbEntity
  8
IMPORT_IGES
100
AcDbPolyline
 62
253
  6
CONTINUOUS
 90
16
 70
0
 10
-20.7612326669
 20
24.3182850638
 10
-20.6516676454
 20
24.3881987602
 10
-20.5318622924
 20
24.4559737242
 10
-20.4018296218
 20
24.5211167905
 10
-20.2606990362
 20
24.5830339702
 10
-20.1093556362
 20
24.6414032885
 10
-19.9504435484
 20
24.6961176242
 10
-19.7838001478
 20
24.7467362796
 10
-19.6095830347
 20
24.7928632926
 10
-19.4309127875
 20
24.8343872135
 10
-19.2492566787
 20
24.8706304862
 10
-19.0631028899
 20
24.9017126358
 10
-18.8711215941
 20
24.9281813556
 10
-18.672867047
 20
24.9495043964
 10
-18.4687473956
 20
24.964717556
 10
-18.2587200245
 20
24.9732931828
  0
LINE
  5
26C
100
AcDbEntity
  8
IMPORT_IGES
100
AcDbLine
 62
7
  6
CONTINUOUS
 10
-43.7266796875
 20
-29.3553147588
 11
-43.7266796875
 21
-18.9553147588
  0
LINE
  5
26D
100
AcDbEntity
  8
IMPORT_IGES
100
AcDbLine
 62
7
  6
CONTINUOUS
 10
-43.6266796875
 20
-35.4553147588
 11
-43.6266796875
 21
-29.4553147588
  0
LWPOLYLINE
  5
26E
100
AcDbEntity
  8
IMPORT_IGES
100
AcDbPolyline
 62
253
  6
CONTINUOUS
 90
19
 70
0
 10
-42.4682850861
 20
16.1857020131
 10
-42.4555497535
 20
40.592366821
 10
-42.455194586
 20
40.6353262658
 10
-42.4546205584
 20
40.6776035163
 10
-42.453831991
 20
40.7188803802
 10
-42.4528348187
 20
40.758846194
 10
-42.4516365467
 20
40.797200162
 10
-42.4502461936
 20
40.8336536195
 10
-42.4486742236
 20
40.8679322058
 10
-42.4469324678
 20
40.899777929
 10
-42.4450340353
 20
40.9289511077
 10
-42.4429932143
 20
40.9552321749
 10
-42.4408253647
 20
40.9784233306
 10
-42.4385468025
 20
40.9983500306
 10
-42.4361746769
 20
41.0148623
 10
-42.4337268412
 20
41.027835862
 10
-42.4312217187
 20
41.0371730732
 10
-42.4286781638
 20
41.0428036589
 10
-42.4261153201
 20
41.0446852412
  0
LINE
  5
26F
100
AcDbEntity
  8
IMPORT_IGES
100
AcDbLine
 62
253
  6
CONTINUOUS
 10
-44.6598704303
 20
40.549048509
 11
-44.7476553178
 21
24.9293769088
  0
LWPOLYLINE
  5
270
100
AcDbEntity
  8
IMPORT_IGES
100
AcDbPolyline
 62
253
  6
CONTINUOUS
 90
19
 70
0
 10
-54.5398238912
 20
3.1818626629
 10
-54.552727273
 20
3.1923186428
 10
-54.5653804475
 20
3.2098827168
 10
-54.5776677586
 20
3.2343086133
 10
-54.5893932082
 20
3.2649473109
 10
-54.6005566331
 20
3.3014460062
 10
-54.6113349841
 20
3.3443001299
 10
-54.6216825275
 20
3.3935107745
 10
-54.6314620676
 20
3.4485525641
 10
-54.6406865765
 20
3.5096404422
 10
-54.649279537
 20
3.5765170883
 10
-54.6571444645
 20
3.6486167093
 10
-54.66424708
 20
3.7257997968
 10
-54.670506104
 20
3.8073409271
 10
-54.6758755304
 20
3.8926869525
 10
-54.6803518694
 20
3.9819887754
 10
-54.6838885931
 20
4.0747930127
 10
-54.6864306721
 20
4.1699746036
 10
-54.6879586953
 20
4.2666540139
  0
LINE
  5
271
100
AcDbEntity
  8
IMPORT_IGES
100
AcDbLine
 62
7
  6
CONTINUOUS
 10
-17.7266796875
 20
-29.3553147588
 11
-17.6266796875
 21
-29.4553147588
  0
LWPOLYLINE
  5
272
100
AcDbEntity
  8
IMPORT_IGES
100
AcDbPolyline
 62
253
  6
CONTINUOUS
 90
6
 70
0
 10
-12.7199441292
 20
-0.9950098432
 10
-12.7232936179
 20
-0.9957390006
 10
-12.7332115018
 20
-0.996401254
 10
-12.7494980626
 20
-0.9969946837
 10
-12.7718494415
 20
-0.9975163707
 10
-12.8000520029
 20
-0.9979671557
  0
LINE
  5
273
100
AcDbEntity
  8
IMPORT_IGES
100
AcDbLine
 62
253
  6
CONTINUOUS
 10
-43.3353763446
 20
18.8290234212
 11
-43.4395984375
 21
19.2804291909
  0
LINE
  5
274
100
AcDbEntity
  8
IMPORT_IGES
100
AcDbLine
 62
253
  6
CONTINUOUS
 10
-43.4395984375
 20
19.2804291909
 11
-43.5566530097
 21
19.7993727884
  0
LINE
  5
275
100
AcDbEntity
  8
IMPORT_IGES
100
AcDbLine
 62
253
  6
CONTINUOUS
 10
-43.5566530097
 20
19.7993727884
 11
-43.6883288488
 21
20.3966399528
  0
LINE
  5
276
100
AcDbEntity
  8
IMPORT_IGES
100
AcDbLine
 62
253
  6
CONTINUOUS
 10
-43.6883288488
 20
20.3966399528
 11
-43.8366533532
 21
21.0854392705
  0
LINE
  5
277
100
AcDbEntity
  8
IMPORT_IGES
100
AcDbLine
 62
253
  6
CONTINUOUS
 10
-43.8366533532
 20
21.0854392705
 11
-43.968781198
 21
21.7130741798
  0
LWPOLYLINE
  5
278
100
AcDbEntity
  8
IMPORT_IGES
100
AcDbPolyline
 62
253
  6
CONTINUOUS
 90
10
 70
0
 10
-44.4487071003
 20
24.1147707822
 10
-44.4661820952
 20
24.1992085034
 10
-44.4878035393
 20
24.2854746983
 10
-44.5135063115
 20
24.373569367
 10
-44.5432261682
 20
24.4639057714
 10
-44.5768560565
 20
24.5560706496
 10
-44.6142470268
 20
24.6488242159
 10
-44.6552643952
 20
24.7417532084
 10
-44.6997851872
 20
24.835270889
 10
-44.7476552996
 20
24.9293772577
  0
LINE
  5
279
100
AcDbEntity
  8
IMPORT_IGES
100
AcDbLine
 62
253
  6
CONTINUOUS
 10
-43.968781198
 20
21.7130741798
 11
-44.1141022635
 21
22.4191440061
  0
LINE
  5
27A
100
AcDbEntity
  8
IMPORT_IGES
100
AcDbLine
 62
253
  6
CONTINUOUS
 10
-44.1141022635
 20
22.4191440061
 11
-44.2737007565
 21
23.2149727002
  0
LWPOLYLINE
  5
27B
100
AcDbEntity
  8
IMPORT_IGES
100
AcDbPolyline
 62
253
  6
CONTINUOUS
 90
3
 70
0
 10
-44.2737007565
 20
23.2149727002
 10
-44.403575349
 20
23.8796869517
 10
-44.4487071003
 20
24.1147707822
  0
LWPOLYLINE
  5
27C
100
AcDbEntity
  8
IMPORT_IGES
100
AcDbPolyline
 62
253
  6
CONTINUOUS
 90
13
 70
0
 10
-52.3240800096
 20
-0.9950124016
 10
-50.8188910815
 20
-1.0384184378
 10
-49.2916035897
 20
-1.0771775541
 10
-47.7422420049
 20
-1.1112897507
 10
-46.1677777496
 20
-1.1404585323
 10
-44.5712981524
 20
-1.1649803941
 10
-42.9620146219
 20
-1.1857448215
 10
-41.3405103013
 20
-1.2028268843
 10
-39.7062970321
 20
-1.2161515126
 10
-38.06699397
 20
-1.2263829818
 10
-36.4251799295
 20
-1.233742717
 10
-34.7783892601
 20
-1.238009293
 10
-33.1266796875
 20
-1.2391827099
  0
LWPOLYLINE
  5
27D
100
AcDbEntity
  8
IMPORT_IGES
100
AcDbPolyline
 62
253
  6
CONTINUOUS
 90
45
 70
0
 10
-43.0264571174
 20
17.0323145504
 10
-43.0102771421
 20
16.9916284909
 10
-42.9943619444
 20
16.9521549191
 10
-42.9787111983
 20
16.913891128
 10
-42.9633256054
 20
16.8768400864
 10
-42.9481773815
 20
16.8409278579
 10
-42.9332662038
 20
16.8061517364
 10
-42.9185927123
 20
16.7725146408
 10
-42.9041305388
 20
16.7399510519
 10
-42.8898794451
 20
16.7084584203
 10
-42.8758399377
 20
16.6780394686
 10
-42.861986743
 20
16.6486365699
 10
-42.848319748
 20
16.620247371
 10
-42.8348392928
 20
16.5928743662
 10
-42.8215207642
 20
16.566467188
 10
-42.8083642845
 20
16.5410236759
 10
-42.7953699237
 20
16.5165461054
 10
-42.7825129744
 20
16.4929907536
 10
-42.7697933241
 20
16.4703547388
 10
-42.7572112476
 20
16.4486410366
 10
-42.7447426061
 20
16.4278147012
 10
-42.7323900497
 20
16.4078762006
 10
-42.7201510657
 20
16.3888251435
 10
-42.7079937593
 20
16.3706252902
 10
-42.6959182513
 20
16.3532714685
 10
-42.6839245349
 20
16.3367689122
 10
-42.6719805146
 20
16.3210969853
 10
-42.6600827687
 20
16.3062467673
 10
-42.6482348141
 20
16.2922272286
 10
-42.6364149575
 20
16.279044567
 10
-42.6246139686
 20
16.2666894122
 10
-42.6128411585
 20
16.2551711752
 10
-42.6011026439
 20
16.2445242242
 10
-42.5893841416
 20
16.2347476025
 10
-42.5777000047
 20
16.2258423
 10
-42.5660993056
 20
16.2178456034
 10
-42.5545741213
 20
16.2107746592
 10
-42.5431324342
 20
16.2046123462
 10
-42.5318471731
 20
16.1993445464
 10
-42.5207160861
 20
16.1949959159
 10
-42.5097414701
 20
16.1915418144
 10
-42.4990030745
 20
16.1888941772
 10
-42.4885274919
 20
16.1870236513
 10
-42.4782881587
 20
16.1859595961
 10
-42.4682850861
 20
16.1857020131
  0
LINE
  5
27E
100
AcDbEntity
  8
IMPORT_IGES
100
AcDbLine
 62
253
  6
CONTINUOUS
 10
-43.0596985411
 20
17.1175684085
 11
-43.0264571174
 21
17.0323145504
  0
LINE
  5
27F
100
AcDbEntity
  8
IMPORT_IGES
100
AcDbLine
 62
253
  6
CONTINUOUS
 10
-43.0941449555
 20
17.208088859
 11
-43.0596985411
 21
17.1175684085
  0
LINE
  5
280
100
AcDbEntity
  8
IMPORT_IGES
100
AcDbLine
 62
253
  6
CONTINUOUS
 10
-43.1298867273
 20
17.3041443134
 11
-43.0941449555
 21
17.208088859
  0
LINE
  5
281
100
AcDbEntity
  8
IMPORT_IGES
100
AcDbLine
 62
253
  6
CONTINUOUS
 10
-43.1670206081
 20
17.4060368345
 11
-43.1298867273
 21
17.3041443134
  0
LINE
  5
282
100
AcDbEntity
  8
IMPORT_IGES
100
AcDbLine
 62
253
  6
CONTINUOUS
 10
-43.2056121032
 20
17.513975943
 11
-43.1670206081
 21
17.4060368345
  0
LINE
  5
283
100
AcDbEntity
  8
IMPORT_IGES
100
AcDbLine
 62
253
  6
CONTINUOUS
 10
-43.2457631795
 20
17.6282889096
 11
-43.2056121032
 21
17.513975943
  0
LINE
  5
284
100
AcDbEntity
  8
IMPORT_IGES
100
AcDbLine
 62
253
  6
CONTINUOUS
 10
-43.2875833338
 20
17.7493424257
 11
-43.2457631795
 21
17.6282889096
  0
LINE
  5
285
100
AcDbEntity
  8
IMPORT_IGES
100
AcDbLine
 62
253
  6
CONTINUOUS
 10
-43.3311466954
 20
17.8773910697
 11
-43.2875833338
 21
17.7493424257
  0
LINE
  5
286
100
AcDbEntity
  8
IMPORT_IGES
100
AcDbLine
 62
253
  6
CONTINUOUS
 10
-43.4000201556
 20
18.0834779256
 11
-43.3311466954
 21
17.8773910697
  0
LINE
  5
287
100
AcDbEntity
  8
IMPORT_IGES
100
AcDbLine
 62
253
  6
CONTINUOUS
 10
-43.4734609487
 20
18.3075725965
 11
-43.4000201556
 21
18.0834779256
  0
LINE
  5
288
100
AcDbEntity
  8
IMPORT_IGES
100
AcDbLine
 62
253
  6
CONTINUOUS
 10
-43.5518779933
 20
18.5511779254
 11
-43.4734609487
 21
18.3075725965
  0
LINE
  5
289
100
AcDbEntity
  8
IMPORT_IGES
100
AcDbLine
 62
253
  6
CONTINUOUS
 10
-42.8108542617
 20
16.8220007421
 11
-42.8294835722
 21
16.8798718591
  0
LINE
  5
28A
100
AcDbEntity
  8
IMPORT_IGES
100
AcDbLine
 62
253
  6
CONTINUOUS
 10
-43.6357284287
 20
18.8160203436
 11
-43.5518779933
 21
18.5511779254
  0
LINE
  5
28B
100
AcDbEntity
  8
IMPORT_IGES
100
AcDbLine
 62
253
  6
CONTINUOUS
 10
-42.8294835722
 20
16.8798718591
 11
-42.8487174092
 21
16.9413106482
  0
LINE
  5
28C
100
AcDbEntity
  8
IMPORT_IGES
100
AcDbLine
 62
253
  6
CONTINUOUS
 10
-43.7568560072
 20
19.2056055738
 11
-43.6357284287
 21
18.8160203436
  0
LINE
  5
28D
100
AcDbEntity
  8
IMPORT_IGES
100
AcDbLine
 62
253
  6
CONTINUOUS
 10
-42.8487174092
 20
16.9413106482
 11
-42.868587192
 21
17.0064489877
  0
LINE
  5
28E
100
AcDbEntity
  8
IMPORT_IGES
100
AcDbLine
 62
253
  6
CONTINUOUS
 10
-43.8895911798
 20
19.6409203349
 11
-43.7568560072
 21
19.2056055738
  0
LINE
  5
28F
100
AcDbEntity
  8
IMPORT_IGES
100
AcDbLine
 62
253
  6
CONTINUOUS
 10
-44.0355839363
 20
20.1288976974
 11
-43.8895911798
 21
19.6409203349
  0
LINE
  5
290
100
AcDbEntity
  8
IMPORT_IGES
100
AcDbLine
 62
253
  6
CONTINUOUS
 10
-42.868587192
 20
17.0064489877
 11
-42.8891418843
 21
17.0754910553
  0
LINE
  5
291
100
AcDbEntity
  8
IMPORT_IGES
100
AcDbLine
 62
253
  6
CONTINUOUS
 10
-44.1968405759
 20
20.6782868214
 11
-44.0355839363
 21
20.1288976974
  0
LINE
  5
292
100
AcDbEntity
  8
IMPORT_IGES
100
AcDbLine
 62
253
  6
CONTINUOUS
 10
-42.8891418843
 20
17.0754910553
 11
-42.9104339386
 21
17.1486625367
  0
LINE
  5
293
100
AcDbEntity
  8
IMPORT_IGES
100
AcDbLine
 62
253
  6
CONTINUOUS
 10
-44.3746568499
 20
21.2963113238
 11
-44.1968405759
 21
20.6782868214
  0
LINE
  5
294
100
AcDbEntity
  8
IMPORT_IGES
100
AcDbLine
 62
253
  6
CONTINUOUS
 10
-42.9104339386
 20
17.1486625367
 11
-42.9324978331
 21
17.226119138
  0
LINE
  5
295
100
AcDbEntity
  8
IMPORT_IGES
100
AcDbLine
 62
253
  6
CONTINUOUS
 10
-44.5199117444
 20
21.810798503
 11
-44.3746568499
 21
21.2963113238
  0
LINE
  5
296
100
AcDbEntity
  8
IMPORT_IGES
100
AcDbLine
 62
253
  6
CONTINUOUS
 10
-42.9324978331
 20
17.226119138
 11
-42.955388036
 21
17.3081016158
  0
LINE
  5
297
100
AcDbEntity
  8
IMPORT_IGES
100
AcDbLine
 62
253
  6
CONTINUOUS
 10
-44.6761628771
 20
22.3742408281
 11
-44.5199117444
 21
21.810798503
  0
LINE
  5
298
100
AcDbEntity
  8
IMPORT_IGES
100
AcDbLine
 62
253
  6
CONTINUOUS
 10
-42.955388036
 20
17.3081016158
 11
-42.9791636382
 21
17.394875813
  0
LINE
  5
299
100
AcDbEntity
  8
IMPORT_IGES
100
AcDbLine
 62
253
  6
CONTINUOUS
 10
-44.844134784
 20
22.9922265383
 11
-44.6761628771
 21
22.3742408281
  0
LINE
  5
29A
100
AcDbEntity
  8
IMPORT_IGES
100
AcDbLine
 62
253
  6
CONTINUOUS
 10
-42.9791636382
 20
17.394875813
 11
-43.016582924
 21
17.5344724814
  0
LWPOLYLINE
  5
29B
100
AcDbEntity
  8
IMPORT_IGES
100
AcDbPolyline
 62
253
  6
CONTINUOUS
 90
3
 70
0
 10
-45.0874483858
 20
23.9123172478
 10
-45.0245373115
 20
23.6717239179
 10
-44.844134784
 20
22.9922265383
  0
LINE
  5
29C
100
AcDbEntity
  8
IMPORT_IGES
100
AcDbLine
 62
253
  6
CONTINUOUS
 10
-43.016582924
 20
17.5344724814
 11
-43.0562881332
 21
17.6862252475
  0
LINE
  5
29D
100
AcDbEntity
  8
IMPORT_IGES
100
AcDbLine
 62
253
  6
CONTINUOUS
 10
-43.0562881332
 20
17.6862252475
 11
-43.0984846606
 21
17.8511121465
  0
LINE
  5
29E
100
AcDbEntity
  8
IMPORT_IGES
100
AcDbLine
 62
253
  6
CONTINUOUS
 10
-43.0984846606
 20
17.8511121465
 11
-43.1433931375
 21
18.0302036715
  0
LINE
  5
29F
100
AcDbEntity
  8
IMPORT_IGES
100
AcDbLine
 62
253
  6
CONTINUOUS
 10
-43.1433931375
 20
18.0302036715
 11
-43.207899274
 21
18.2931198762
  0
LINE
  5
2A0
100
AcDbEntity
  8
IMPORT_IGES
100
AcDbLine
 62
253
  6
CONTINUOUS
 10
-43.207899274
 20
18.2931198762
 11
-43.2783009864
 21
18.5866573337
  0
LINE
  5
2A1
100
AcDbEntity
  8
IMPORT_IGES
100
AcDbLine
 62
253
  6
CONTINUOUS
 10
-43.2783009864
 20
18.5866573337
 11
-43.3353763446
 21
18.8290234212
  0
LINE
  5
2A2
100
AcDbEntity
  8
IMPORT_IGES
100
AcDbLine
 62
7
  6
CONTINUOUS
 10
-35.6266796875
 20
-35.9553147588
 11
-35.6266796875
 21
-18.9553147588
  0
LWPOLYLINE
  5
2A3
100
AcDbEntity
  8
IMPORT_IGES
100
AcDbPolyline
 62
253
  6
CONTINUOUS
 90
13
 70
0
 10
-21.5057041614
 20
24.9293745499
 10
-21.5421028414
 20
24.8585605336
 10
-21.5766807386
 20
24.7878150159
 10
-21.6093707046
 20
24.7171379967
 10
-21.6401800259
 20
24.646257736
 10
-21.6689841847
 20
24.5754459739
 10
-21.6955213072
 20
24.5055179303
 10
-21.7196539674
 20
24.4364256955
 10
-21.7414221632
 20
24.3682171793
 10
-21.7608339469
 20
24.3018513299
 10
-21.7778705444
 20
24.2376477969
 10
-21.7924855954
 20
24.1752869307
 10
-21.8046532965
 20
24.1147687315
  0
LWPOLYLINE
  5
2A4
100
AcDbEntity
  8
IMPORT_IGES
100
AcDbPolyline
 62
253
  6
CONTINUOUS
 90
10
 70
0
 10
-21.1659127418
 20
23.9123150096
 10
-21.1382023521
 20
23.9594714013
 10
-21.105835233
 20
24.0063824239
 10
-21.068813309
 20
24.0529419766
 10
-21.0266843756
 20
24.099077415
 10
-20.9799039506
 20
24.1446510725
 10
-20.9298336785
 20
24.1894624386
 10
-20.8769261156
 20
24.233382215
 10
-20.8207263287
 20
24.2763516918
 10
-20.7612326669
 20
24.3182850638
  0
LWPOLYLINE
  5
2A5
100
AcDbEntity
  8
IMPORT_IGES
100
AcDbPolyline
 62
253
  6
CONTINUOUS
 90
22
 70
0
 10
-13.8426455829
 20
1.1325203979
 10
-13.7536212468
 20
1.1349381465
 10
-13.6664011747
 20
1.1384685896
 10
-13.5810441417
 20
1.1431973238
 10
-13.4973882685
 20
1.1493492378
 10
-13.4157892304
 20
1.1568406596
 10
-13.337122759
 20
1.1653518588
 10
-13.2616909253
 20
1.1751027878
 10
-13.1895752848
 20
1.1861581678
 10
-13.1213594775
 20
1.1980534538
 10
-13.0573890153
 20
1.2109986031
 10
-12.9978283554
 20
1.2251327964
 10
-12.9430219247
 20
1.2399074165
 10
-12.8932803788
 20
1.2555055656
 10
-12.8487954803
 20
1.2721026275
 10
-12.809757163
 20
1.2891186646
 10
-12.7763958838
 20
1.3067100643
 10
-12.7488651985
 20
1.3250551621
 10
-12.7272614063
 20
1.3435737883
 10
-12.711705065
 20
1.3621674218
 10
-12.7022878405
 20
1.3812361249
 10
-12.699033424
 20
1.400930861
  0
LWPOLYLINE
  5
2A6
100
AcDbEntity
  8
IMPORT_IGES
100
AcDbPolyline
 62
253
  6
CONTINUOUS
 90
16
 70
0
 10
-13.9284451435
 20
0.2026589207
 10
-16.4794444172
 20
0.1542856208
 10
-19.0337371803
 20
0.1156551842
 10
-21.5910141769
 20
0.085440731
 10
-24.1513457738
 20
0.0625374301
 10
-26.7141298329
 20
0.0460903096
 10
-29.2780787508
 20
0.0354757133
 10
-31.8429376454
 20
0.0302714287
 10
-34.4084627227
 20
0.030266533
 10
-36.9733864437
 20
0.0354696468
 10
-39.5374752082
 20
0.0460854387
 10
-42.1004755869
 20
0.062524538
 10
-44.6610890507
 20
0.0854256211
 10
-47.2187114555
 20
0.1156484684
 10
-49.7734211538
 20
0.1542812193
 10
-52.3249158415
 20
0.2026570637
  0
LWPOLYLINE
  5
2A7
100
AcDbEntity
  8
IMPORT_IGES
100
AcDbPolyline
 62
253
  6
CONTINUOUS
 90
16
 70
0
 10
-13.8425598643
 20
1.1316038073
 10
-16.4035649633
 20
1.1063864193
 10
-18.9689223322
 20
1.084769508
 10
-21.5379753027
 20
1.0667521961
 10
-24.1100822954
 20
1.052330748
 10
-26.6845696601
 20
1.0415075785
 10
-29.2607317592
 20
1.0342912523
 10
-31.8379126416
 20
1.0306844759
 10
-34.4154507203
 20
1.0306840989
 10
-36.9926316009
 20
1.0342901217
 10
-39.5687936418
 20
1.041505694
 10
-42.1432809467
 20
1.05232811
 10
-44.715388041
 20
1.0667488068
 10
-47.2844413284
 20
1.0847653704
 10
-49.8497991741
 20
1.1063815356
 10
-52.4108049086
 20
1.1315981798
  0
LINE
  5
2A8
100
AcDbEntity
  8
IMPORT_IGES
100
AcDbLine
 62
253
  6
CONTINUOUS
 10
-12.8000520029
 20
-0.9979671557
 11
-12.8741220051
 21
-0.9986620957
  0
LINE
  5
2A9
100
AcDbEntity
  8
IMPORT_IGES
100
AcDbLine
 62
253
  6
CONTINUOUS
 10
-52.3238350064
 20
-0.9950111095
 11
-52.9257190212
 21
-0.9986637674
  0
LINE
  5
2AA
100
AcDbEntity
  8
IMPORT_IGES
100
AcDbLine
 62
253
  6
CONTINUOUS
 10
-12.8741220051
 20
-0.9986620957
 11
-13.0274044603
 21
-0.9991598614
  0
LWPOLYLINE
  5
2AB
100
AcDbEntity
  8
IMPORT_IGES
100
AcDbPolyline
 62
253
  6
CONTINUOUS
 90
13
 70
0
 10
-33.1266796875
 20
-1.2391827099
 10
-31.4750398738
 20
-1.2380111255
 10
-29.8283059124
 20
-1.2337457145
 10
-28.186535525
 20
-1.2263864771
 10
-26.5472539756
 20
-1.21615415
 10
-24.9130491674
 20
-1.2028279964
 10
-23.2915675051
 20
-1.1857458056
 10
-21.6823536092
 20
-1.1649846543
 10
-20.0859578044
 20
-1.1404674658
 10
-18.5115203902
 20
-1.1113007996
 10
-16.9621050525
 20
-1.0771868422
 10
-15.4347069757
 20
-1.038423407
 10
-13.9293506974
 20
-0.9950104941
  0
LINE
  5
2AC
100
AcDbEntity
  8
IMPORT_IGES
100
AcDbLine
 62
253
  6
CONTINUOUS
 10
-52.9257190212
 20
-0.9986637674
 11
-53.2626348757
 21
-0.9991118001
  0
LINE
  5
2AD
100
AcDbEntity
  8
IMPORT_IGES
100
AcDbLine
 62
253
  6
CONTINUOUS
 10
-13.0274044603
 20
-0.9991598614
 11
-13.3858908396
 21
-0.998435428
  0
LINE
  5
2AE
100
AcDbEntity
  8
IMPORT_IGES
100
AcDbLine
 62
253
  6
CONTINUOUS
 10
-53.2626348757
 20
-0.9991118001
 11
-53.366299141
 21
-0.9987422194
  0
LINE
  5
2AF
100
AcDbEntity
  8
IMPORT_IGES
100
AcDbLine
 62
253
  6
CONTINUOUS
 10
-13.3858908396
 20
-0.998435428
 11
-13.9295651497
 21
-0.9950093807
  0
LWPOLYLINE
  5
2B0
100
AcDbEntity
  8
IMPORT_IGES
100
AcDbPolyline
 62
253
  6
CONTINUOUS
 90
7
 70
0
 10
-53.366299141
 20
-0.9987422194
 10
-53.4468618869
 20
-0.9980516103
 10
-53.4776946496
 20
-0.9975889208
 10
-53.5019162925
 20
-0.9970507474
 10
-53.5193540022
 20
-0.9964398043
 10
-53.5298856754
 20
-0.9957588011
 10
-53.5334155218
 20
-0.9950110413
  0
LWPOLYLINE
  5
2B1
100
AcDbEntity
  8
IMPORT_IGES
100
AcDbPolyline
 62
253
  6
CONTINUOUS
 90
22
 70
0
 10
-52.4177021454
 20
1.9219672148
 10
-52.506577915
 20
1.924042435
 10
-52.5936602697
 20
1.9273375908
 10
-52.6785673157
 20
1.9318109038
 10
-52.7607162767
 20
1.9373987972
 10
-52.8400139606
 20
1.9440615658
 10
-52.9167894616
 20
1.951814615
 10
-52.9908154602
 20
1.9606428577
 10
-53.0616087072
 20
1.970496859
 10
-53.1290379294
 20
1.9813698924
 10
-53.1927403744
 20
1.9932226456
 10
-53.2523785636
 20
2.0060127949
 10
-53.30779772
 20
2.0197387364
 10
-53.3587551412
 20
2.0343928327
 10
-53.4047394503
 20
2.049886142
 10
-53.4452386242
 20
2.0660846225
 10
-53.4799705275
 20
2.0828951975
 10
-53.5087614124
 20
2.1002569189
 10
-53.5313945022
 20
2.1180666996
 10
-53.5477212912
 20
2.1362306844
 10
-53.5576389437
 20
2.1546664413
 10
-53.5610661295
 20
2.1732826366
  0
LWPOLYLINE
  5
2B2
100
AcDbEntity
  8
IMPORT_IGES
100
AcDbPolyline
 62
253
  6
CONTINUOUS
 90
22
 70
0
 10
-58.4806008237
 20
3.234182859
 10
-58.5535016905
 20
3.2386849987
 10
-58.6253053599
 20
3.2483857891
 10
-58.6956517372
 20
3.2631095301
 10
-58.7639895117
 20
3.282588737
 10
-58.8302286923
 20
3.3066443585
 10
-58.8946872051
 20
3.3353368197
 10
-58.957163314
 20
3.3686146136
 10
-59.0171979702
 20
3.4062729478
 10
-59.0746609183
 20
3.4482822417
 10
-59.1292085266
 20
3.4944747767
 10
-59.1805291175
 20
3.5446753519
 10
-59.2284845508
 20
3.5988881334
 10
-59.2728506967
 20
3.6570923857
 10
-59.3131340551
 20
3.7188973358
 10
-59.3488339622
 20
3.7837016364
 10
-59.3796720378
 20
3.8510795889
 10
-59.4054851685
 20
3.9207673804
 10
-59.426065975
 20
3.9923256018
 10
-59.4412633242
 20
4.0653413953
 10
-59.4509666679
 20
4.1394367033
 10
-59.4550879029
 20
4.2142003363
  0
LINE
  5
2B3
100
AcDbEntity
  8
IMPORT_IGES
100
AcDbLine
 62
7
  6
CONTINUOUS
 10
-30.6266796875
 20
-35.9553147588
 11
-30.6266796875
 21
-18.9553147588
  0
LWPOLYLINE
  5
2B4
100
AcDbEntity
  8
IMPORT_IGES
100
AcDbPolyline
 62
253
  6
CONTINUOUS
 90
46
 70
0
 10
-23.192381858
 20
17.1208905429
 10
-23.2256669441
 20
17.0354431149
 10
-23.2418691303
 20
16.9946596965
 10
-23.2578066837
 20
16.9550887799
 10
-23.2734798818
 20
16.9167277612
 10
-23.2888880703
 20
16.8795795073
 10
-23.3040590711
 20
16.8435701694
 10
-23.3189932155
 20
16.8086969987
 10
-23.3336898538
 20
16.7749629576
 10
-23.3481753648
 20
16.7423027452
 10
-23.3624499304
 20
16.7107139042
 10
-23.3765130993
 20
16.6801990658
 10
-23.3903903239
 20
16.6507005461
 10
-23.4040817107
 20
16.6222159394
 10
-23.4175869253
 20
16.5947477932
 10
-23.4309307777
 20
16.5682458407
 10
-23.4441131527
 20
16.5427078791
 10
-23.4571339726
 20
16.5181362269
 10
-23.47001812
 20
16.4944873895
 10
-23.4827656065
 20
16.4717586096
 10
-23.4953762574
 20
16.4499527389
 10
-23.5078746889
 20
16.429034689
 10
-23.5202585746
 20
16.4090043638
 10
-23.5325301029
 20
16.3898619364
 10
-23.5447206733
 20
16.3715727161
 10
-23.5568291947
 20
16.3541326278
 10
-23.5688566434
 20
16.3375458087
 10
-23.5808375291
 20
16.3217898813
 10
-23.5927757138
 20
16.3068548324
 10
-23.6046672401
 20
16.2927507254
 10
-23.6165348936
 20
16.2794852942
 10
-23.6283882449
 20
16.2670485155
 10
-23.6402176423
 20
16.2554504539
 10
-23.6520170406
 20
16.2447289745
 10
-23.6638031513
 20
16.2348820317
 10
-23.6755591925
 20
16.2259117048
 10
-23.687228878
 20
16.2178620452
 10
-23.6988214174
 20
16.2107524757
 10
-23.7103275406
 20
16.2045635992
 10
-23.7216632422
 20
16.1992812354
 10
-23.7328321773
 20
16.1949337661
 10
-23.7438306446
 20
16.1914928252
 10
-23.7545636084
 20
16.1888591074
 10
-23.7649993802
 20
16.1869995127
 10
-23.7751696187
 20
16.1859471474
 10
-23.7850743125
 20
16.1857020131
  0
LWPOLYLINE
  5
2B5
100
AcDbEntity
  8
IMPORT_IGES
100
AcDbPolyline
 62
253
  6
CONTINUOUS
 90
25
 70
0
 10
-11.5654000829
 20
4.2666539582
 10
-11.7081081612
 20
4.2607894791
 10
-11.8501199877
 20
4.2455041852
 10
-11.9914319087
 20
4.2207992853
 10
-12.1329850278
 20
4.1864588899
 10
-12.2738329373
 20
4.1427036241
 10
-12.4111411133
 20
4.0901903718
 10
-12.5445999276
 20
4.0288036095
 10
-12.6745163982
 20
3.9586675289
 10
-12.7989812579
 20
3.8807987947
 10
-12.9173571433
 20
3.7957027909
 10
-13.030282521
 20
3.7028852248
 10
-13.1377628099
 20
3.601863957
 10
-13.2406685962
 20
3.4915638587
 10
-13.3381353072
 20
3.3730770429
 10
-13.4275661357
 20
3.2491708112
 10
-13.5084378424
 20
3.1201789087
 10
-13.5812823316
 20
2.985781346
 10
-13.6450850201
 20
2.8477602324
 10
-13.6995365772
 20
2.7076730247
 10
-13.7449567029
 20
2.5639723215
 10
-13.7812767468
 20
2.4137851668
 10
-13.8084816272
 20
2.2561632275
 10
-13.8266073761
 20
2.0920782682
 10
-13.835665808
 20
1.9215426328
  0
LWPOLYLINE
  5
2B6
100
AcDbEntity
  8
IMPORT_IGES
100
AcDbPolyline
 62
253
  6
CONTINUOUS
 90
18
 70
0
 10
-7.5569275596
 20
4.3208691559
 10
-7.482166993
 20
4.32304355
 10
-7.4098224815
 20
4.3261507775
 10
-7.3405480344
 20
4.3301338302
 10
-7.2744046835
 20
4.3349596042
 10
-7.2109711752
 20
4.3406536565
 10
-7.1504624182
 20
4.3472168507
 10
-7.0934963631
 20
4.3546035659
 10
-7.0403641541
 20
4.3627963963
 10
-6.9913940244
 20
4.3717741207
 10
-6.9470565675
 20
4.3814828142
 10
-6.9078152705
 20
4.3918460882
 10
-6.8740117824
 20
4.4027900762
 10
-6.8458559153
 20
4.4142659365
 10
-6.8235551317
 20
4.4262245252
 10
-6.8073330889
 20
4.4386019718
 10
-6.7973974502
 20
4.4513177042
 10
-6.7939052334
 20
4.4642929134
  0
LINE
  5
2B7
100
AcDbEntity
  8
IMPORT_IGES
100
AcDbLine
 62
7
  6
CONTINUOUS
 10
-7.7835299706
 20
2.6158744412
 11
-11.727296622
 21
2.5236505182
  0
LINE
  5
2B8
100
AcDbEntity
  8
IMPORT_IGES
100
AcDbLine
 62
253
  6
CONTINUOUS
 10
-7.5569275596
 20
4.3208691559
 11
-9.8161343186
 21
4.2890616725
  0
LINE
  5
2B9
100
AcDbEntity
  8
IMPORT_IGES
100
AcDbLine
 62
253
  6
CONTINUOUS
 10
-9.8161343186
 20
4.2890616725
 11
-11.5654000829
 21
4.2666539582
  0
LINE
  5
2BA
100
AcDbEntity
  8
IMPORT_IGES
100
AcDbLine
 62
253
  6
CONTINUOUS
 10
-11.7135350853
 20
3.1818622721
 11
-7.7727585035
 21
3.2341821746
  0
LINE
  5
2BB
100
AcDbEntity
  8
IMPORT_IGES
100
AcDbLine
 62
253
  6
CONTINUOUS
 10
-54.6879588255
 20
4.2666539916
 11
-56.8740915864
 21
4.2949514196
  0
LINE
  5
2BC
100
AcDbEntity
  8
IMPORT_IGES
100
AcDbLine
 62
253
  6
CONTINUOUS
 10
-58.4806008269
 20
3.2341820908
 11
-54.5398242214
 21
3.1818623895
  0
LWPOLYLINE
  5
2BD
100
AcDbEntity
  8
IMPORT_IGES
100
AcDbPolyline
 62
7
  6
CONTINUOUS
 90
22
 70
0
 10
-58.4698294016
 20
2.6158744412
 10
-54.5260627533
 20
2.5236505182
 10
-54.4494995377
 20
2.5184546937
 10
-54.3732954338
 20
2.507354079
 10
-54.2984695948
 20
2.4905016912
 10
-54.2254722127
 20
2.4680747156
 10
-54.1541708847
 20
2.4400428392
 10
-54.0851717604
 20
2.4066062841
 10
-54.0191463969
 20
2.3681143807
 10
-53.95607079
 20
2.3245557282
 10
-53.8965063612
 20
2.2762842603
 10
-53.8409751414
 20
2.2237546928
 10
-53.7894716116
 20
2.1669618167
 10
-53.7424720769
 20
2.1063923074
 10
-53.7003666027
 20
2.0425911298
 10
-53.6631505773
 20
1.9755483883
 10
-53.6312008519
 20
1.9058992052
 10
-53.6047536342
 20
1.8342398113
 10
-53.5837803383
 20
1.7604714547
 10
-53.5684760752
 20
1.6850313935
 10
-53.5590422192
 20
1.6088992574
 10
-53.5554768287
 20
1.5328086381
  0
LWPOLYLINE
  5
2BE
100
AcDbEntity
  8
IMPORT_IGES
100
AcDbPolyline
 62
253
  6
CONTINUOUS
 90
22
 70
0
 10
-54.5398248904
 20
3.1818626656
 10
-54.4664721819
 20
3.1790695725
 10
-54.3937140448
 20
3.1706884178
 10
-54.3222160475
 20
3.1568568754
 10
-54.2529781679
 20
3.1379372787
 10
-54.1862056644
 20
3.1142094172
 10
-54.1213281188
 20
3.0855753022
 10
-54.0588176466
 20
3.052267773
 10
-53.9991646988
 20
3.0146150428
 10
-53.9418959924
 20
2.9723013445
 10
-53.8874124812
 20
2.92549395
 10
-53.8362550417
 20
2.8745636712
 10
-53.7883274853
 20
2.8192687358
 10
-53.7439823243
 20
2.7597399726
 10
-53.7038232814
 20
2.6965700924
 10
-53.6681928459
 20
2.6301890758
 10
-53.6377515967
 20
2.561959
 10
-53.6122708696
 20
2.4916304339
 10
-53.5912557032
 20
2.4171815907
 10
-53.5752296122
 20
2.3383806865
 10
-53.5650312948
 20
2.2568684225
 10
-53.561068302
 20
2.1735243264
  0
LINE
  5
2BF
100
AcDbEntity
  8
IMPORT_IGES
100
AcDbLine
 62
253
  6
CONTINUOUS
 10
-21.8488561677
 20
23.8845032334
 11
-21.9761596873
 21
23.232670369
  0
LINE
  5
2C0
100
AcDbEntity
  8
IMPORT_IGES
100
AcDbLine
 62
253
  6
CONTINUOUS
 10
-21.9761596873
 20
23.232670369
 11
-22.1328679859
 21
22.4505808428
  0
LINE
  5
2C1
100
AcDbEntity
  8
IMPORT_IGES
100
AcDbLine
 62
253
  6
CONTINUOUS
 10
-22.1328679859
 20
22.4505808428
 11
-22.2758355176
 21
21.7550777658
  0
LINE
  5
2C2
100
AcDbEntity
  8
IMPORT_IGES
100
AcDbLine
 62
253
  6
CONTINUOUS
 10
-22.2758355176
 20
21.7550777658
 11
-22.4367549267
 21
20.9913519443
  0
LINE
  5
2C3
100
AcDbEntity
  8
IMPORT_IGES
100
AcDbLine
 62
253
  6
CONTINUOUS
 10
-22.4367549267
 20
20.9913519443
 11
-22.5799228192
 21
20.3284120958
  0
LINE
  5
2C4
100
AcDbEntity
  8
IMPORT_IGES
100
AcDbLine
 62
253
  6
CONTINUOUS
 10
-22.5799228192
 20
20.3284120958
 11
-22.7073061752
 21
19.7518989307
  0
LINE
  5
2C5
100
AcDbEntity
  8
IMPORT_IGES
100
AcDbLine
 62
253
  6
CONTINUOUS
 10
-22.7073061752
 20
19.7518989307
 11
-22.8208146796
 21
19.2495440626
  0
LINE
  5
2C6
100
AcDbEntity
  8
IMPORT_IGES
100
AcDbLine
 62
253
  6
CONTINUOUS
 10
-22.8208146796
 20
19.2495440626
 11
-22.9221625851
 21
18.8111515981
  0
LINE
  5
2C7
100
AcDbEntity
  8
IMPORT_IGES
100
AcDbLine
 62
253
  6
CONTINUOUS
 10
-22.9221625851
 20
18.8111515981
 11
-22.995486655
 21
18.5008337688
  0
LINE
  5
2C8
100
AcDbEntity
  8
IMPORT_IGES
100
AcDbLine
 62
253
  6
CONTINUOUS
 10
-22.995486655
 20
18.5008337688
 11
-23.0627111965
 21
18.2222027553
  0
LINE
  5
2C9
100
AcDbEntity
  8
IMPORT_IGES
100
AcDbLine
 62
253
  6
CONTINUOUS
 10
-23.0627111965
 20
18.2222027553
 11
-23.1244608508
 21
17.9720195116
  0
LINE
  5
2CA
100
AcDbEntity
  8
IMPORT_IGES
100
AcDbLine
 62
253
  6
CONTINUOUS
 10
-23.1244608508
 20
17.9720195116
 11
-23.1675272947
 21
17.8013052433
  0
LINE
  5
2CB
100
AcDbEntity
  8
IMPORT_IGES
100
AcDbLine
 62
253
  6
CONTINUOUS
 10
-23.1675272947
 20
17.8013052433
 11
-23.2080590644
 21
17.6438797499
  0
LINE
  5
2CC
100
AcDbEntity
  8
IMPORT_IGES
100
AcDbLine
 62
253
  6
CONTINUOUS
 10
-23.2080590644
 20
17.6438797499
 11
-23.2462585131
 21
17.4987652297
  0
LINE
  5
2CD
100
AcDbEntity
  8
IMPORT_IGES
100
AcDbLine
 62
253
  6
CONTINUOUS
 10
-21.1659123115
 20
23.9123160872
 11
-21.3501456134
 21
23.2128755742
  0
LINE
  5
2CE
100
AcDbEntity
  8
IMPORT_IGES
100
AcDbLine
 62
253
  6
CONTINUOUS
 10
-21.3501456134
 20
23.2128755742
 11
-21.5218773674
 21
22.5763764895
  0
LINE
  5
2CF
100
AcDbEntity
  8
IMPORT_IGES
100
AcDbLine
 62
253
  6
CONTINUOUS
 10
-23.2462585131
 20
17.4987652297
 11
-23.2823146157
 21
17.3650650623
  0
LINE
  5
2D0
100
AcDbEntity
  8
IMPORT_IGES
100
AcDbLine
 62
253
  6
CONTINUOUS
 10
-23.2823146157
 20
17.3650650623
 11
-23.3052456902
 21
17.2818771373
  0
LINE
  5
2D1
100
AcDbEntity
  8
IMPORT_IGES
100
AcDbLine
 62
253
  6
CONTINUOUS
 10
-21.5218773674
 20
22.5763764895
 11
-21.6817100383
 21
21.9962360723
  0
LINE
  5
2D2
100
AcDbEntity
  8
IMPORT_IGES
100
AcDbLine
 62
253
  6
CONTINUOUS
 10
-23.3052456902
 20
17.2818771373
 11
-23.3273520764
 21
17.2031686685
  0
LINE
  5
2D3
100
AcDbEntity
  8
IMPORT_IGES
100
AcDbLine
 62
253
  6
CONTINUOUS
 10
-21.6817100383
 20
21.9962360723
 11
-21.8303525665
 21
21.4666269692
  0
LINE
  5
2D4
100
AcDbEntity
  8
IMPORT_IGES
100
AcDbLine
 62
253
  6
CONTINUOUS
 10
-23.3273520764
 20
17.2031686685
 11
-23.3486859829
 21
17.1287055188
  0
LINE
  5
2D5
100
AcDbEntity
  8
IMPORT_IGES
100
AcDbLine
 62
253
  6
CONTINUOUS
 10
-21.8303525665
 20
21.4666269692
 11
-22.0123978732
 21
20.830417418
  0
LINE
  5
2D6
100
AcDbEntity
  8
IMPORT_IGES
100
AcDbLine
 62
253
  6
CONTINUOUS
 10
-23.3486859829
 20
17.1287055188
 11
-23.3692805331
 21
17.0583356121
  0
LINE
  5
2D7
100
AcDbEntity
  8
IMPORT_IGES
100
AcDbLine
 62
253
  6
CONTINUOUS
 10
-22.0123978732
 20
20.830417418
 11
-22.1775206625
 21
20.2650458326
  0
LINE
  5
2D8
100
AcDbEntity
  8
IMPORT_IGES
100
AcDbLine
 62
253
  6
CONTINUOUS
 10
-22.1775206625
 20
20.2650458326
 11
-22.3270641426
 21
19.7627396171
  0
LINE
  5
2D9
100
AcDbEntity
  8
IMPORT_IGES
100
AcDbLine
 62
253
  6
CONTINUOUS
 10
-23.3692805331
 20
17.0583356121
 11
-23.3891865284
 21
16.9918373559
  0
LINE
  5
2DA
100
AcDbEntity
  8
IMPORT_IGES
100
AcDbLine
 62
253
  6
CONTINUOUS
 10
-22.3270641426
 20
19.7627396171
 11
-22.4628606533
 21
19.3151385299
  0
LINE
  5
2DB
100
AcDbEntity
  8
IMPORT_IGES
100
AcDbLine
 62
253
  6
CONTINUOUS
 10
-23.3891865284
 20
16.9918373559
 11
-23.4084504027
 21
16.9290126083
  0
LINE
  5
2DC
100
AcDbEntity
  8
IMPORT_IGES
100
AcDbLine
 62
253
  6
CONTINUOUS
 10
-22.4628606533
 20
19.3151385299
 11
-22.5867572689
 21
18.9145728281
  0
LINE
  5
2DD
100
AcDbEntity
  8
IMPORT_IGES
100
AcDbLine
 62
253
  6
CONTINUOUS
 10
-22.5867572689
 20
18.9145728281
 11
-22.6725345208
 21
18.6421262054
  0
LINE
  5
2DE
100
AcDbEntity
  8
IMPORT_IGES
100
AcDbLine
 62
253
  6
CONTINUOUS
 10
-23.4084504027
 20
16.9290126083
 11
-23.4271020501
 21
16.8697324044
  0
LINE
  5
2DF
100
AcDbEntity
  8
IMPORT_IGES
100
AcDbLine
 62
253
  6
CONTINUOUS
 10
-22.6725345208
 20
18.6421262054
 11
-22.7527229234
 21
18.3915181104
  0
LWPOLYLINE
  5
2E0
100
AcDbEntity
  8
IMPORT_IGES
100
AcDbPolyline
 62
253
  6
CONTINUOUS
 90
48
 70
0
 10
-23.4271020501
 20
16.8697324044
 10
-23.445187271
 20
16.8138082273
 10
-23.4540313922
 20
16.787049924
 10
-23.4627481359
 20
16.7610735437
 10
-23.4713369442
 20
16.7358809557
 10
-23.4798115274
 20
16.7114215746
 10
-23.4881715386
 20
16.6876947067
 10
-23.4964169191
 20
16.6647010456
 10
-23.5045618555
 20
16.642392087
 10
-23.5126062024
 20
16.620766372
 10
-23.5205497648
 20
16.5998253594
 10
-23.5284066949
 20
16.5795249216
 10
-23.5361772148
 20
16.5598625942
 10
-23.5438608178
 20
16.5408408414
 10
-23.5514705964
 20
16.5224229289
 10
-23.5590063428
 20
16.5046073719
 10
-23.5664680253
 20
16.4873956551
 10
-23.5738690296
 20
16.4707554981
 10
-23.5812088113
 20
16.4546857413
 10
-23.5884877138
 20
16.4391875442
 10
-23.5957204827
 20
16.4242321047
 10
-23.6029061274
 20
16.4098183307
 10
-23.6100454721
 20
16.3959473142
 10
-23.6171560113
 20
16.3825935292
 10
-23.6242385582
 20
16.3697520243
 10
-23.6312921666
 20
16.3574277507
 10
-23.638331716
 20
16.3456100365
 10
-23.6453584407
 20
16.3342940751
 10
-23.6523709966
 20
16.3234846729
 10
-23.6593804118
 20
16.3131855771
 10
-23.6663825783
 20
16.3033983443
 10
-23.6733815062
 20
16.2941214178
 10
-23.6804004184
 20
16.2853538742
 10
-23.6874435126
 20
16.2770863162
 10
-23.6945065204
 20
16.269328141
 10
-23.7015999811
 20
16.2621066168
 10
-23.7087404003
 20
16.2554112842
 10
-23.7159112095
 20
16.2492526026
 10
-23.7230733195
 20
16.2436892182
 10
-23.7302301899
 20
16.2387345963
 10
-23.7373782499
 20
16.2343752717
 10
-23.7444678223
 20
16.2306294946
 10
-23.7515027702
 20
16.227515571
 10
-23.7584790821
 20
16.2250151949
 10
-23.7653352286
 20
16.2230916996
 10
-23.7720506331
 20
16.2217328628
 10
-23.7786456944
 20
16.2209509067
 10
-23.7851203312
 20
16.2207458313
  0
LINE
  5
2E1
100
AcDbEntity
  8
IMPORT_IGES
100
AcDbLine
 62
253
  6
CONTINUOUS
 10
-22.7527229234
 20
18.3915181104
 11
-22.8278003071
 21
18.1609294752
  0
LINE
  5
2E2
100
AcDbEntity
  8
IMPORT_IGES
100
AcDbLine
 62
253
  6
CONTINUOUS
 10
-22.8278003071
 20
18.1609294752
 11
-22.8981873181
 21
17.9487989555
  0
LINE
  5
2E3
100
AcDbEntity
  8
IMPORT_IGES
100
AcDbLine
 62
253
  6
CONTINUOUS
 10
-22.8981873181
 20
17.9487989555
 11
-22.9427073797
 21
17.8169094765
  0
LINE
  5
2E4
100
AcDbEntity
  8
IMPORT_IGES
100
AcDbLine
 62
253
  6
CONTINUOUS
 10
-22.9427073797
 20
17.8169094765
 11
-22.9854087306
 21
17.6922736357
  0
LINE
  5
2E5
100
AcDbEntity
  8
IMPORT_IGES
100
AcDbLine
 62
253
  6
CONTINUOUS
 10
-22.9854087306
 20
17.6922736357
 11
-23.0264094422
 21
17.5744845128
  0
LINE
  5
2E6
100
AcDbEntity
  8
IMPORT_IGES
100
AcDbLine
 62
253
  6
CONTINUOUS
 10
-23.0264094422
 20
17.5744845128
 11
-23.0658169548
 21
17.4631848804
  0
LINE
  5
2E7
100
AcDbEntity
  8
IMPORT_IGES
100
AcDbLine
 62
253
  6
CONTINUOUS
 10
-23.0658169548
 20
17.4631848804
 11
-23.1037005581
 21
17.3581450117
  0
LINE
  5
2E8
100
AcDbEntity
  8
IMPORT_IGES
100
AcDbLine
 62
253
  6
CONTINUOUS
 10
-23.1037005581
 20
17.3581450117
 11
-23.1401631173
 21
17.2590325872
  0
LWPOLYLINE
  5
2E9
100
AcDbEntity
  8
IMPORT_IGES
100
AcDbPolyline
 62
253
  6
CONTINUOUS
 90
3
 70
0
 10
-23.1401631173
 20
17.2590325872
 10
-23.1752994042
 20
17.1655542285
 10
-23.192381858
 20
17.1208905429
  0
LWPOLYLINE
  5
2EA
100
AcDbEntity
  8
IMPORT_IGES
100
AcDbPolyline
 62
253
  6
CONTINUOUS
 90
31
 70
0
 10
-44.7476553178
 20
24.9293769088
 10
-44.7900150305
 20
24.9907269614
 10
-44.8349455113
 20
25.051709722
 10
-44.8824321322
 20
25.1123251905
 10
-44.932362699
 20
25.1726011484
 10
-44.9848178297
 20
25.2325098142
 10
-45.0400688624
 20
25.2919678437
 10
-45.0981063591
 20
25.3510058882
 10
-45.1588977875
 20
25.4095932963
 10
-45.2226742833
 20
25.4675547702
 10
-45.2894627795
 20
25.5249977951
 10
-45.3591824683
 20
25.5818148858
 10
-45.4318980104
 20
25.6375082882
 10
-45.5076865501
 20
25.6921138233
 10
-45.5864060384
 20
25.7455956701
 10
-45.6677917122
 20
25.7973486123
 10
-45.7519483582
 20
25.8474140673
 10
-45.8387018635
 20
25.8957506176
 10
-45.9273772754
 20
25.9416287946
 10
-46.0179909491
 20
25.9849880256
 10
-46.1104662047
 20
26.0258888831
 10
-46.2040051925
 20
26.0637836168
 10
-46.2985194613
 20
26.0985849871
 10
-46.3940544209
 20
26.1303802335
 10
-46.4900306227
 20
26.1588833238
 10
-46.5864378499
 20
26.1840616446
 10
-46.6832565711
 20
26.2059478094
 10
-46.7799096246
 20
26.2243536259
 10
-46.8762039765
 20
26.2392163634
 10
-46.9723212072
 20
26.2505987526
 10
-47.0682545668
 20
26.2585007936
  0
LWPOLYLINE
  5
2EB
100
AcDbEntity
  8
IMPORT_IGES
100
AcDbPolyline
 62
253
  6
CONTINUOUS
 90
18
 70
0
 10
-23.7978096215
 20
40.592366821
 10
-23.798164789
 20
40.6353262658
 10
-23.7987388166
 20
40.6776035163
 10
-23.799527384
 20
40.7188803802
 10
-23.8005245563
 20
40.758846194
 10
-23.8017228283
 20
40.797200162
 10
-23.8031131814
 20
40.8336536195
 10
-23.8046851514
 20
40.8679322058
 10
-23.8064269072
 20
40.899777929
 10
-23.8083253397
 20
40.9289511077
 10
-23.8103661607
 20
40.9552321749
 10
-23.8125340103
 20
40.9784233306
 10
-23.8148125725
 20
40.9983500306
 10
-23.8171846981
 20
41.0148623
 10
-23.8196325338
 20
41.027835862
 10
-23.8221376563
 20
41.0371730732
 10
-23.8246812112
 20
41.0428036589
 10
-23.8272440549
 20
41.0446852412
  0
LINE
  5
2EC
100
AcDbEntity
  8
IMPORT_IGES
100
AcDbLine
 62
253
  6
CONTINUOUS
 10
-23.785074311
 20
16.1857020131
 11
-23.7851203456
 21
16.2207462137
  0
LINE
  5
2ED
100
AcDbEntity
  8
IMPORT_IGES
100
AcDbLine
 62
253
  6
CONTINUOUS
 10
-23.7978096215
 20
40.592366821
 11
-23.7851203312
 21
16.2207462137
  0
LINE
  5
2EE
100
AcDbEntity
  8
IMPORT_IGES
100
AcDbLine
 62
253
  6
CONTINUOUS
 10
-21.8046532965
 20
24.1147687315
 11
-21.8488561677
 21
23.8845032334
  0
LWPOLYLINE
  5
2EF
100
AcDbEntity
  8
IMPORT_IGES
100
AcDbPolyline
 62
253
  6
CONTINUOUS
 90
19
 70
0
 10
-21.593487835
 20
40.549048509
 10
-21.5949430856
 20
40.592366821
 10
-21.5988107896
 20
40.6353262658
 10
-21.6050618372
 20
40.6776035163
 10
-21.6136491811
 20
40.7188803802
 10
-21.62450819
 20
40.758846194
 10
-21.6375571355
 20
40.797200162
 10
-21.652697807
 20
40.8336536195
 10
-21.6698162506
 20
40.8679322058
 10
-21.6887836274
 20
40.899777929
 10
-21.7094571828
 20
40.9289511077
 10
-21.7316813205
 20
40.9552321749
 10
-21.7552887746
 20
40.9784233306
 10
-21.7801018675
 20
40.9983500306
 10
-21.8059338477
 20
41.0148623
 10
-21.8325902952
 20
41.027835862
 10
-21.8598705849
 20
41.0371730732
 10
-21.8875693962
 20
41.0428036589
 10
-21.9154782588
 20
41.0446852412
  0
LINE
  5
2F0
100
AcDbEntity
  8
IMPORT_IGES
100
AcDbLine
 62
253
  6
CONTINUOUS
 10
-21.5057041417
 20
24.9293741871
 11
-21.593489044
 21
40.549048509
  0
LINE
  5
2F1
100
AcDbEntity
  8
IMPORT_IGES
100
AcDbLine
 62
7
  6
CONTINUOUS
 10
-22.6266796875
 20
-35.4553147588
 11
-22.6266796875
 21
-29.4553147588
  0
LINE
  5
2F2
100
AcDbEntity
  8
IMPORT_IGES
100
AcDbLine
 62
7
  6
CONTINUOUS
 10
-22.5266796875
 20
-29.3553147588
 11
-22.5266796875
 21
-18.9553147588
  0
LINE
  5
2F3
100
AcDbEntity
  8
IMPORT_IGES
100
AcDbLine
 62
7
  6
CONTINUOUS
 10
-48.5266796875
 20
-29.3553147588
 11
-48.6266796875
 21
-29.4553147588
  0
LWPOLYLINE
  5
2F4
100
AcDbEntity
  8
IMPORT_IGES
100
AcDbPolyline
 62
253
  6
CONTINUOUS
 90
19
 70
0
 10
-11.7135348725
 20
3.1818625695
 10
-11.7006808266
 20
3.1922646672
 10
-11.688063811
 20
3.2097390694
 10
-11.6757962799
 20
3.2340673551
 10
-11.6640645802
 20
3.264657281
 10
-11.6528751284
 20
3.3011831049
 10
-11.6420730785
 20
3.3440864468
 10
-11.6317107999
 20
3.3933328612
 10
-11.6219184604
 20
3.448420867
 10
-11.6126848348
 20
3.5095509783
 10
-11.6040880651
 20
3.5764439014
 10
-11.5962223234
 20
3.6485382514
 10
-11.5891188706
 20
3.7257160632
 10
-11.5828598245
 20
3.8072398152
 10
-11.5774906399
 20
3.8925574645
 10
-11.5730125611
 20
3.9818619462
 10
-11.5694730652
 20
4.0747053365
 10
-11.5669289967
 20
4.1699336781
 10
-11.5654000852
 20
4.2666539311
  0
LINE
  5
2F5
100
AcDbEntity
  8
IMPORT_IGES
100
AcDbLine
 62
7
  6
CONTINUOUS
 10
-6.6284254648
 20
13.9446852412
 11
-59.624933713
 21
13.9446852412
  0
LINE
  5
2F6
100
AcDbEntity
  8
IMPORT_IGES
100
AcDbLine
 62
7
  6
CONTINUOUS
 10
-6.6284255045
 20
14.1446852412
 11
-59.6249337656
 21
14.1446852412
  0
LWPOLYLINE
  5
2F7
100
AcDbEntity
  8
IMPORT_IGES
100
AcDbPolyline
 62
253
  6
CONTINUOUS
 90
10
 70
0
 10
-45.4921205825
 20
24.3182918721
 10
-45.4327701318
 20
24.2764718428
 10
-45.3766761253
 20
24.2335938967
 10
-45.3238366487
 20
24.189742468
 10
-45.2737931689
 20
24.1449814137
 10
-45.2270013586
 20
24.0994331423
 10
-45.1848325032
 20
24.0532790398
 10
-45.1477449871
 20
24.0066505323
 10
-45.1152828959
 20
23.9596271033
 10
-45.087447785
 20
23.9123160321
  0
LWPOLYLINE
  5
2F8
100
AcDbEntity
  8
IMPORT_IGES
100
AcDbPolyline
 62
253
  6
CONTINUOUS
 90
22
 70
0
 10
-19.1851033267
 20
26.2585009532
 10
-19.1794505201
 20
26.1658681419
 10
-19.1690158057
 20
26.0738277685
 10
-19.1539244007
 20
25.9831689847
 10
-19.1345202559
 20
25.8951724994
 10
-19.1110241984
 20
25.8100047563
 10
-19.0832397236
 20
25.7267418852
 10
-19.0512506626
 20
25.6458010711
 10
-19.0153651209
 20
25.5680076505
 10
-18.9754286658
 20
25.4931212814
 10
-18.9316800141
 20
25.4217651695
 10
-18.8844021345
 20
25.3544910364
 10
-18.833348449
 20
25.2911231596
 10
-18.7786823049
 20
25.2321435462
 10
-18.7209028028
 20
25.1782896158
 10
-18.6602262401
 20
25.129899282
 10
-18.5972306248
 20
25.0875184284
 10
-18.5323230592
 20
25.0514363865
 10
-18.465488988
 20
25.0217060516
 10
-18.3971144134
 20
24.9986092726
 10
-18.3279889215
 20
24.9824466656
 10
-18.2587250908
 20
24.9732930613
  0
LINE
  5
2F9
100
AcDbEntity
  8
IMPORT_IGES
100
AcDbLine
 62
7
  6
CONTINUOUS
 10
-17.7266796875
 20
-29.3553147588
 11
-17.7266796875
 21
-18.9553147588
  0
LINE
  5
2FA
100
AcDbEntity
  8
IMPORT_IGES
100
AcDbLine
 62
7
  6
CONTINUOUS
 10
-17.6266796875
 20
-35.4553147588
 11
-17.6266796875
 21
-29.4553147588
  0
LWPOLYLINE
  5
2FB
100
AcDbEntity
  8
IMPORT_IGES
100
AcDbPolyline
 62
253
  6
CONTINUOUS
 90
19
 70
0
 10
-7.7727769179
 20
3.2341817887
 10
-7.7610008442
 20
3.2443830487
 10
-7.7494924544
 20
3.2616673026
 10
-7.7382601508
 20
3.2859411158
 10
-7.7272581119
 20
3.3171153587
 10
-7.7165474878
 20
3.3550630687
 10
-7.7062991931
 20
3.3995479143
 10
-7.6965339354
 20
3.4503436846
 10
-7.6872501587
 20
3.507205758
 10
-7.6785881446
 20
3.5697742627
 10
-7.6705710877
 20
3.6376663311
 10
-7.6631972423
 20
3.7105067842
 10
-7.6565714114
 20
3.7878411039
 10
-7.6507200621
 20
3.8692232705
 10
-7.6456372858
 20
3.9542122552
 10
-7.6413797982
 20
4.0423087083
 10
-7.6379738182
 20
4.1329696359
 10
-7.635414865
 20
4.225617005
 10
-7.6337136728
 20
4.3196604679
  0
LINE
  5
2FC
100
AcDbEntity
  8
IMPORT_IGES
100
AcDbLine
 62
253
  6
CONTINUOUS
 10
-23.785074311
 20
16.1857020131
 11
-42.4682850861
 21
16.1857020131
  0
LINE
  5
2FD
100
AcDbEntity
  8
IMPORT_IGES
100
AcDbLine
 62
253
  6
CONTINUOUS
 10
-42.4682390515
 20
16.2207462137
 11
-23.7851203312
 21
16.2207462137
  0
LWPOLYLINE
  5
2FE
100
AcDbEntity
  8
IMPORT_IGES
100
AcDbPolyline
 62
253
  6
CONTINUOUS
 90
46
 70
0
 10
-42.4682390517
 20
16.2207457326
 10
-42.4749382712
 20
16.2209638637
 10
-42.4817612756
 20
16.2217995001
 10
-42.4887079767
 20
16.2232526419
 10
-42.4958002013
 20
16.2253114979
 10
-42.5030159287
 20
16.2279878593
 10
-42.510289317
 20
16.2313170989
 10
-42.5176166188
 20
16.235319484
 10
-42.5250014214
 20
16.2399747472
 10
-42.5323889303
 20
16.2452574595
 10
-42.5397734069
 20
16.2511809472
 10
-42.547160475
 20
16.2577318839
 10
-42.5545124306
 20
16.2648448615
 10
-42.5618110703
 20
16.2725061006
 10
-42.5690745329
 20
16.2807293807
 10
-42.5763196431
 20
16.2894906316
 10
-42.5835443042
 20
16.2987818333
 10
-42.5907505321
 20
16.3086110058
 10
-42.5979613001
 20
16.3189781391
 10
-42.605180261
 20
16.3298844734
 10
-42.6124036542
 20
16.3413287684
 10
-42.6196433137
 20
16.3533072932
 10
-42.6268971129
 20
16.3658132851
 10
-42.6341670573
 20
16.3788535068
 10
-42.641471159
 20
16.392444515
 10
-42.6488093123
 20
16.4065825059
 10
-42.6561814712
 20
16.4212712832
 10
-42.6636057097
 20
16.4365388152
 10
-42.6710828333
 20
16.4523839934
 10
-42.6786118477
 20
16.4688079263
 10
-42.6862080978
 20
16.4858419069
 10
-42.693871786
 20
16.5034844047
 10
-42.7016024823
 20
16.5217369503
 10
-42.7094145521
 20
16.5406354281
 10
-42.7173078018
 20
16.5601778535
 10
-42.7252821528
 20
16.5803662112
 10
-42.7333521092
 20
16.6012423396
 10
-42.7415171999
 20
16.6228037873
 10
-42.7497775705
 20
16.6450530057
 10
-42.7581486114
 20
16.6680391867
 10
-42.7666302857
 20
16.6917613251
 10
-42.7752222392
 20
16.716220426
 10
-42.7839393415
 20
16.7414686974
 10
-42.7927813232
 20
16.7675049203
 10
-42.8017479874
 20
16.7943303135
 10
-42.8108542617
 20
16.8220007421
  0
LINE
  5
2FF
100
AcDbEntity
  8
IMPORT_IGES
100
AcDbLine
 62
253
  6
CONTINUOUS
 10
-13.9295651497
 20
-0.9950093807
 11
-14.0776516642
 21
-17.9640431856
  0
LINE
  5
300
100
AcDbEntity
  8
IMPORT_IGES
100
AcDbLine
 62
253
  6
CONTINUOUS
 10
-13.835665808
 20
1.9215426328
 11
-13.8425598643
 21
1.1316038073
  0
LWPOLYLINE
  5
301
100
AcDbEntity
  8
IMPORT_IGES
100
AcDbPolyline
 62
253
  6
CONTINUOUS
 90
16
 70
0
 10
-13.8426455829
 20
1.1325203979
 10
-13.8443054856
 20
1.0496520668
 10
-13.8466197671
 20
0.9688110532
 10
-13.8495672477
 20
0.8903137157
 10
-13.8531129763
 20
0.8146783856
 10
-13.8572392747
 20
0.7419445383
 10
-13.8619636638
 20
0.6717503426
 10
-13.8672885083
 20
0.6042193658
 10
-13.8731836256
 20
0.5398766339
 10
-13.8796296409
 20
0.479022306
 10
-13.886604068
 20
0.4219509662
 10
-13.8940818767
 20
0.3689439805
 10
-13.9020360995
 20
0.3202655253
 10
-13.9104368391
 20
0.276168981
 10
-13.9192512087
 20
0.2368940786
 10
-13.928444166
 20
0.2026610191
  0
LWPOLYLINE
  5
302
100
AcDbEntity
  8
IMPORT_IGES
100
AcDbPolyline
 62
253
  6
CONTINUOUS
 90
19
 70
0
 10
-13.9284420745
 20
0.2026433631
 10
-13.9245166998
 20
0.1689842249
 10
-13.9210935706
 20
0.1300028568
 10
-13.9181400533
 20
0.0859260515
 10
-13.9155993494
 20
0.0371941208
 10
-13.9134801744
 20
-0.0159261465
 10
-13.9118481366
 20
-0.0734877025
 10
-13.9106889789
 20
-0.135146043
 10
-13.9099844625
 20
-0.2004452275
 10
-13.9097860829
 20
-0.2693961247
 10
-13.910109406
 20
-0.3415522458
 10
-13.9109244058
 20
-0.4164330215
 10
-13.912205326
 20
-0.4940779742
 10
-13.9139547969
 20
-0.573987032
 10
-13.9161720143
 20
-0.6556350992
 10
-13.9188165325
 20
-0.7390624303
 10
-13.9218773111
 20
-0.8239134831
 10
-13.9253826146
 20
-0.9094218034
 10
-13.9293506996
 20
-0.9950104938
  0
LINE
  5
303
100
AcDbEntity
  8
IMPORT_IGES
100
AcDbLine
 62
7
  6
CONTINUOUS
 10
-11.7079797616
 20
40.549048509
 11
-11.5881929736
 21
26.8228421688
  0
LINE
  5
304
100
AcDbEntity
  8
IMPORT_IGES
100
AcDbLine
 62
7
  6
CONTINUOUS
 10
-12.8680289747
 20
-17.9640412522
 11
-12.6922927357
 21
2.173337154
  0
LINE
  5
305
100
AcDbEntity
  8
IMPORT_IGES
100
AcDbLine
 62
253
  6
CONTINUOUS
 10
-11.7193278289
 20
2.523848856
 11
-11.7135350853
 21
3.1818622721
  0
LWPOLYLINE
  5
306
100
AcDbEntity
  8
IMPORT_IGES
100
AcDbPolyline
 62
7
  6
CONTINUOUS
 90
21
 70
0
 10
-12.6978825463
 20
1.5328086381
 10
-12.6943171558
 20
1.6088992573
 10
-12.6848832998
 20
1.6850313933
 10
-12.6695790368
 20
1.7604714545
 10
-12.6486057409
 20
1.834239811
 10
-12.6221585232
 20
1.9058992049
 10
-12.5902087979
 20
1.975548388
 10
-12.5529927724
 20
2.0425911295
 10
-12.5108872983
 20
2.1063923071
 10
-12.4638877636
 20
2.1669618164
 10
-12.4123842338
 20
2.2237546925
 10
-12.3568530141
 20
2.2762842601
 10
-12.2972885853
 20
2.324555728
 10
-12.2342129784
 20
2.3681143806
 10
-12.1681876149
 20
2.406606284
 10
-12.0991884906
 20
2.4400428391
 10
-12.0278871626
 20
2.4680747155
 10
-11.9548897804
 20
2.4905016912
 10
-11.8800639415
 20
2.5073540789
 10
-11.8038598376
 20
2.5184546937
 10
-11.727296622
 20
2.5236505182
  0
LWPOLYLINE
  5
307
100
AcDbEntity
  8
IMPORT_IGES
100
AcDbPolyline
 62
253
  6
CONTINUOUS
 90
22
 70
0
 10
-12.699033424
 20
1.400930861
 10
-12.703145538
 20
1.3140333294
 10
-12.7139400662
 20
1.2276424131
 10
-12.7313613541
 20
1.1422036163
 10
-12.7553195788
 20
1.0581575192
 10
-12.7856911997
 20
0.9759375526
 10
-12.8223195836
 20
0.8959677589
 10
-12.8650158353
 20
0.8186605439
 10
-12.913559783
 20
0.744414554
 10
-12.967701093
 20
0.673612664
 10
-13.0271605673
 20
0.6066199883
 10
-13.0916315824
 20
0.5437819977
 10
-13.1607816715
 20
0.4854227379
 10
-13.2342542383
 20
0.4318431584
 10
-13.3116703963
 20
0.3833195608
 10
-13.3926309224
 20
0.3401021737
 10
-13.4767183159
 20
0.3024138625
 10
-13.5634989512
 20
0.2704489798
 10
-13.6525253141
 20
0.2443723635
 10
-13.7433383096
 20
0.2243184868
 10
-13.8354696291
 20
0.2103907643
 10
-13.928444166
 20
0.2026610191
  0
LWPOLYLINE
  5
308
100
AcDbEntity
  8
IMPORT_IGES
100
AcDbPolyline
 62
253
  6
CONTINUOUS
 90
22
 70
0
 10
-12.6922910717
 20
2.1735244229
 10
-12.6882630912
 20
2.2576195367
 10
-12.6778699122
 20
2.339956976
 10
-12.66150389
 20
2.4196365059
 10
-12.639995943
 20
2.4949996033
 10
-12.6138652065
 20
2.5662501716
 10
-12.5826090563
 20
2.6353686639
 10
-12.545960867
 20
2.7026297374
 10
-12.5046175532
 20
2.766584557
 10
-12.4590688134
 20
2.8266114451
 10
-12.4100088675
 20
2.8820855901
 10
-12.3578086494
 20
2.9329360276
 10
-12.3024566693
 20
2.9793937238
 10
-12.2445145546
 20
3.0211461275
 10
-12.1844393055
 20
3.0580552926
 10
-12.1219067934
 20
3.0904262596
 10
-12.0574136499
 20
3.1180226703
 10
-11.9914523879
 20
3.1406919653
 10
-11.9236219937
 20
3.1585785167
 10
-11.854155966
 20
3.1715221235
 10
-11.7839328763
 20
3.1792960613
 10
-11.713534445
 20
3.1818626026
  0
LWPOLYLINE
  5
309
100
AcDbEntity
  8
IMPORT_IGES
100
AcDbPolyline
 62
253
  6
CONTINUOUS
 90
22
 70
0
 10
-12.6922932134
 20
2.173283232
 10
-12.6955646196
 20
2.1551045011
 10
-12.7049562878
 20
2.1371945469
 10
-12.7202930966
 20
2.1196340327
 10
-12.7413086793
 20
2.1025460238
 10
-12.7678156413
 20
2.0859525155
 10
-12.7998638859
 20
2.0697856456
 10
-12.8373970374
 20
2.0540926883
 10
-12.8802102969
 20
2.0389754267
 10
-12.9282809237
 20
2.0244609797
 10
-12.9814443882
 20
2.010625934
 10
-13.0395193899
 20
1.9975419992
 10
-13.1025100755
 20
1.9852406803
 10
-13.1703978673
 20
1.9737717699
 10
-13.2427864243
 20
1.9632458475
 10
-13.3190582945
 20
1.9537771319
 10
-13.3987779469
 20
1.945430153
 10
-13.4816611061
 20
1.9382447256
 10
-13.5672227077
 20
1.9322725845
 10
-13.6550155791
 20
1.9275512209
 10
-13.7446425676
 20
1.9241081298
 10
-13.8356622292
 20
1.9219670529
  0
LINE
  5
30A
100
AcDbEntity
  8
IMPORT_IGES
100
AcDbLine
 62
253
  6
CONTINUOUS
 10
-10.3179136807
 20
25.5345314978
 11
-11.5207111961
 21
25.4392920865
  0
LINE
  5
30B
100
AcDbEntity
  8
IMPORT_IGES
100
AcDbLine
 62
253
  6
CONTINUOUS
 10
-11.5207111961
 20
25.4392920865
 11
-12.5754748002
 21
25.3587613337
  0
LINE
  5
30C
100
AcDbEntity
  8
IMPORT_IGES
100
AcDbLine
 62
253
  6
CONTINUOUS
 10
-12.5754748002
 20
25.3587613337
 11
-13.9419573551
 21
25.258630514
  0
LINE
  5
30D
100
AcDbEntity
  8
IMPORT_IGES
100
AcDbLine
 62
253
  6
CONTINUOUS
 10
-13.9419573551
 20
25.258630514
 11
-15.0182867042
 21
25.1830594421
  0
LINE
  5
30E
100
AcDbEntity
  8
IMPORT_IGES
100
AcDbLine
 62
253
  6
CONTINUOUS
 10
-15.0182867042
 20
25.1830594421
 11
-16.2224868902
 21
25.1019731851
  0
LWPOLYLINE
  5
30F
100
AcDbEntity
  8
IMPORT_IGES
100
AcDbPolyline
 62
253
  6
CONTINUOUS
 90
3
 70
0
 10
-16.2224868902
 20
25.1019731851
 10
-17.5491349252
 20
25.0169704574
 10
-18.2587236985
 20
24.9732922393
  0
LINE
  5
310
100
AcDbEntity
  8
IMPORT_IGES
100
AcDbLine
 62
253
  6
CONTINUOUS
 10
-48.1059695821
 20
23.8901029092
 11
-45.0874483858
 21
23.9123172478
  0
LINE
  5
311
100
AcDbEntity
  8
IMPORT_IGES
100
AcDbLine
 62
253
  6
CONTINUOUS
 10
-21.1659123115
 20
23.9123160872
 11
-18.1473901707
 21
23.8900989509
  0
LINE
  5
312
100
AcDbEntity
  8
IMPORT_IGES
100
AcDbLine
 62
253
  6
CONTINUOUS
 10
-48.7005124127
 20
25.0166864108
 11
-50.0239991569
 21
25.1015113851
  0
LINE
  5
313
100
AcDbEntity
  8
IMPORT_IGES
100
AcDbLine
 62
253
  6
CONTINUOUS
 10
-50.0239991569
 20
25.1015113851
 11
-51.2316717669
 21
25.1828592265
  0
LINE
  5
314
100
AcDbEntity
  8
IMPORT_IGES
100
AcDbLine
 62
253
  6
CONTINUOUS
 10
-51.2316717669
 20
25.1828592265
 11
-52.3123379834
 21
25.258716538
  0
LINE
  5
315
100
AcDbEntity
  8
IMPORT_IGES
100
AcDbLine
 62
253
  6
CONTINUOUS
 10
-52.3123379834
 20
25.258716538
 11
-53.6833626925
 21
25.3591733112
  0
LINE
  5
316
100
AcDbEntity
  8
IMPORT_IGES
100
AcDbLine
 62
253
  6
CONTINUOUS
 10
-53.6833626925
 20
25.3591733112
 11
-55.0196251176
 21
25.4616995684
  0
LINE
  5
317
100
AcDbEntity
  8
IMPORT_IGES
100
AcDbLine
 62
253
  6
CONTINUOUS
 10
-55.0196251176
 20
25.4616995684
 11
-55.9354455391
 21
25.5345315014
  0
LWPOLYLINE
  5
318
100
AcDbEntity
  8
IMPORT_IGES
100
AcDbPolyline
 62
253
  6
CONTINUOUS
 90
19
 70
0
 10
-7.6337143232
 20
23.7697097725
 10
-7.6354232142
 20
23.8639597627
 10
-7.6379885839
 20
23.9567455919
 10
-7.6413994241
 20
24.0474613292
 10
-7.6456614949
 20
24.1355363315
 10
-7.6507483013
 20
24.2204779874
 10
-7.6565997231
 20
24.301789771
 10
-7.6632198203
 20
24.379031638
 10
-7.6705844517
 20
24.4517825227
 10
-7.6785908228
 20
24.5195777186
 10
-7.6872404424
 20
24.5820418595
 10
-7.6965112915
 20
24.6388444509
 10
-7.7062659591
 20
24.6896235522
 10
-7.7165043418
 20
24.7341073419
 10
-7.7272071324
 20
24.7720818649
 10
-7.738209904
 20
24.8033165461
 10
-7.7494527923
 20
24.8276406389
 10
-7.7609793325
 20
24.8449615548
 10
-7.7727810689
 20
24.85518876
  0
LINE
  5
319
100
AcDbEntity
  8
IMPORT_IGES
100
AcDbLine
 62
253
  6
CONTINUOUS
 10
-7.7835510097
 20
25.4734965745
 11
-7.7727584186
 21
24.8551882546
  0
LINE
  5
31A
100
AcDbEntity
  8
IMPORT_IGES
100
AcDbLine
 62
7
  6
CONTINUOUS
 10
-7.6336886682
 20
23.7697095774
 11
-7.4656856935
 21
14.1446852412
  0
LINE
  5
31B
100
AcDbEntity
  8
IMPORT_IGES
100
AcDbLine
 62
7
  6
CONTINUOUS
 10
-7.6266796875
 20
14.1446852412
 11
-7.6266796875
 21
13.9446852412
  0
LINE
  5
31C
100
AcDbEntity
  8
IMPORT_IGES
100
AcDbLine
 62
253
  6
CONTINUOUS
 10
-7.7727585035
 20
3.2341821746
 11
-7.7835510859
 21
2.6158739059
  0
LINE
  5
31D
100
AcDbEntity
  8
IMPORT_IGES
100
AcDbLine
 62
7
  6
CONTINUOUS
 10
-7.4656841707
 20
13.9446852412
 11
-7.6336877013
 21
4.3196609301
  0
LINE
  5
31E
100
AcDbEntity
  8
IMPORT_IGES
100
AcDbLine
 62
253
  6
CONTINUOUS
 10
-11.5881928147
 20
26.822823959
 11
-12.736041955
 21
26.7272112175
  0
LWPOLYLINE
  5
31F
100
AcDbEntity
  8
IMPORT_IGES
100
AcDbPolyline
 62
253
  6
CONTINUOUS
 90
31
 70
0
 10
-19.1851040138
 20
26.2585009272
 10
-19.2799995586
 20
26.2507592533
 10
-19.3754046772
 20
26.2394956997
 10
-19.4713179212
 20
26.2247102665
 10
-19.5680207018
 20
26.2063417329
 10
-19.6652315353
 20
26.1844513196
 10
-19.7620917152
 20
26.1592226893
 10
-19.8585709269
 20
26.130584742
 10
-19.9546711192
 20
26.0986085776
 10
-20.049557655
 20
26.0636911578
 10
-20.1431603394
 20
26.0257766308
 10
-20.2354996853
 20
25.9849208483
 10
-20.3258570652
 20
25.9416883277
 10
-20.4141052935
 20
25.8960631939
 10
-20.5003080549
 20
25.8480613218
 10
-20.5840203849
 20
25.7982948544
 10
-20.6651443351
 20
25.7467858095
 10
-20.7437118757
 20
25.6935121693
 10
-20.8194675037
 20
25.6390200222
 10
-20.8922813258
 20
25.5833363553
 10
-20.9622207225
 20
25.5264341817
 10
-21.0293264525
 20
25.4687786291
 10
-21.0935658938
 20
25.4104120577
 10
-21.1549193589
 20
25.3512921073
 10
-21.2134502362
 20
25.291756826
 10
-21.2691167791
 20
25.2318124183
 10
-21.3219173482
 20
25.1714526795
 10
-21.3719788947
 20
25.1109970437
 10
-21.4193326211
 20
25.0505519886
 10
-21.4639129377
 20
24.9900110364
 10
-21.5057041417
 20
24.9293741871
  0
LINE
  5
320
100
AcDbEntity
  8
IMPORT_IGES
100
AcDbLine
 62
253
  6
CONTINUOUS
 10
-12.736041955
 20
26.7272112175
 11
-13.7439422807
 21
26.6463155504
  0
LINE
  5
321
100
AcDbEntity
  8
IMPORT_IGES
100
AcDbLine
 62
253
  6
CONTINUOUS
 10
-13.7439422807
 20
26.6463155504
 11
-15.051734916
 21
26.5455571824
  0
LINE
  5
322
100
AcDbEntity
  8
IMPORT_IGES
100
AcDbLine
 62
253
  6
CONTINUOUS
 10
-15.051734916
 20
26.5455571824
 11
-16.0837798766
 21
26.4695300317
  0
LINE
  5
323
100
AcDbEntity
  8
IMPORT_IGES
100
AcDbLine
 62
253
  6
CONTINUOUS
 10
-16.0837798766
 20
26.4695300317
 11
-17.2381076689
 21
26.3878177046
  0
LWPOLYLINE
  5
324
100
AcDbEntity
  8
IMPORT_IGES
100
AcDbPolyline
 62
253
  6
CONTINUOUS
 90
3
 70
0
 10
-17.2381076689
 20
26.3878177046
 10
-18.5084212033
 20
26.3025839987
 10
-19.1851040138
 20
26.2585009272
  0
LWPOLYLINE
  5
325
100
AcDbEntity
  8
IMPORT_IGES
100
AcDbPolyline
 62
253
  6
CONTINUOUS
 90
18
 70
0
 10
-58.6964317164
 20
23.7685011864
 10
-58.771192366
 20
23.766326801
 10
-58.8435369579
 20
23.76321958
 10
-58.9128114823
 20
23.7592365314
 10
-58.9789549063
 20
23.7544107596
 10
-59.0423884821
 20
23.7487167078
 10
-59.1028973013
 20
23.7421535126
 10
-59.1598634127
 20
23.734766795
 10
-59.2129956701
 20
23.7265739615
 10
-59.2619658413
 20
23.7175962336
 10
-59.3063033338
 20
23.7078875362
 10
-59.3455446598
 20
23.6975242588
 10
-59.3793481958
 20
23.6865802597
 10
-59.4075041001
 20
23.6751043885
 10
-59.429804868
 20
23.6631458174
 10
-59.4460268775
 20
23.6507684287
 10
-59.455962532
 20
23.6380527869
 10
-59.4594548614
 20
23.6250777006
  0
LINE
  5
326
100
AcDbEntity
  8
IMPORT_IGES
100
AcDbLine
 62
7
  6
CONTINUOUS
 10
-58.4698293989
 20
25.4734960413
 11
-55.9354402784
 21
25.5345316214
  0
LINE
  5
327
100
AcDbEntity
  8
IMPORT_IGES
100
AcDbLine
 62
253
  6
CONTINUOUS
 10
-56.1593195783
 20
24.8872054168
 11
-58.4806008493
 21
24.8551881702
  0
LINE
  5
328
100
AcDbEntity
  8
IMPORT_IGES
100
AcDbLine
 62
253
  6
CONTINUOUS
 10
-58.6964317164
 20
23.7685011864
 11
-55.6254476301
 21
23.8108636631
  0
LINE
  5
329
100
AcDbEntity
  8
IMPORT_IGES
100
AcDbLine
 62
253
  6
CONTINUOUS
 10
-53.8326456769
 20
24.9158600654
 11
-56.1593195783
 21
24.8872054168
  0
LINE
  5
32A
100
AcDbEntity
  8
IMPORT_IGES
100
AcDbLine
 62
253
  6
CONTINUOUS
 10
-55.6254476301
 20
23.8108636631
 11
-52.6229330492
 21
23.8466163306
  0
LINE
  5
32B
100
AcDbEntity
  8
IMPORT_IGES
100
AcDbLine
 62
253
  6
CONTINUOUS
 10
-50.3331957445
 20
24.9527119641
 11
-53.8326456769
 21
24.9158600654
  0
LWPOLYLINE
  5
32C
100
AcDbEntity
  8
IMPORT_IGES
100
AcDbPolyline
 62
253
  6
CONTINUOUS
 90
3
 70
0
 10
-52.6229330492
 20
23.8466163306
 10
-49.6131990142
 20
23.8769635131
 10
-48.1059695821
 20
23.8901029092
  0
LINE
  5
32D
100
AcDbEntity
  8
IMPORT_IGES
100
AcDbLine
 62
253
  6
CONTINUOUS
 10
-47.9946247828
 20
24.9732929091
 11
-50.3331957445
 21
24.9527119641
  0
LINE
  5
32E
100
AcDbEntity
  8
IMPORT_IGES
100
AcDbLine
 62
253
  6
CONTINUOUS
 10
-18.1473901707
 20
23.8900989509
 11
-15.1344598514
 21
23.8624626061
  0
LINE
  5
32F
100
AcDbEntity
  8
IMPORT_IGES
100
AcDbLine
 62
253
  6
CONTINUOUS
 10
-14.752580269
 20
24.9412336454
 11
-18.2587236985
 21
24.9732922393
  0
LINE
  5
330
100
AcDbEntity
  8
IMPORT_IGES
100
AcDbLine
 62
253
  6
CONTINUOUS
 10
-15.1344598514
 20
23.8624626061
 11
-12.1281965477
 21
23.829410588
  0
LINE
  5
331
100
AcDbEntity
  8
IMPORT_IGES
100
AcDbLine
 62
253
  6
CONTINUOUS
 10
-11.2566790832
 20
24.9019472784
 11
-14.752580269
 21
24.9412336454
  0
LINE
  5
332
100
AcDbEntity
  8
IMPORT_IGES
100
AcDbLine
 62
253
  6
CONTINUOUS
 10
-12.1281965477
 20
23.829410588
 11
-9.1296967907
 21
23.7909605656
  0
LWPOLYLINE
  5
333
100
AcDbEntity
  8
IMPORT_IGES
100
AcDbPolyline
 62
253
  6
CONTINUOUS
 90
3
 70
0
 10
-7.7727584186
 20
24.8551882546
 10
-8.9327338669
 20
24.8716229805
 10
-11.2566790832
 20
24.9019472784
  0
LINE
  5
334
100
AcDbEntity
  8
IMPORT_IGES
100
AcDbLine
 62
7
  6
CONTINUOUS
 10
-10.317919096
 20
25.5345316214
 11
-7.7835299746
 21
25.4734960413
  0
LWPOLYLINE
  5
335
100
AcDbEntity
  8
IMPORT_IGES
100
AcDbPolyline
 62
7
  6
CONTINUOUS
 90
22
 70
0
 10
-10.3179192966
 20
25.534522839
 10
-10.350380793
 20
25.535669338
 10
-10.4516971948
 20
25.5444983049
 10
-10.5523736361
 20
25.5612949788
 10
-10.6510234034
 20
25.5858223886
 10
-10.747033369
 20
25.6178236572
 10
-10.8405723626
 20
25.6573416139
 10
-10.9308138305
 20
25.7040809297
 10
-11.0168520488
 20
25.7575394961
 10
-11.0987103384
 20
25.8177287061
 10
-11.1756273891
 20
25.8841358185
 10
-11.2469101438
 20
25.956115893
 10
-11.3125652687
 20
26.0336756357
 10
-11.3719550094
 20
26.1161162968
 10
-11.4245738397
 20
26.2026714723
 10
-11.4704326858
 20
26.2933642413
 10
-11.5090389081
 20
26.3872856757
 10
-11.5401047413
 20
26.4836060476
 10
-11.5636705973
 20
26.5824921563
 10
-11.5794859195
 20
26.6833286904
 10
-11.587327557
 20
26.7847290176
 10
-11.5882191803
 20
26.8228419401
  0
LWPOLYLINE
  5
336
100
AcDbEntity
  8
IMPORT_IGES
100
AcDbPolyline
 62
253
  6
CONTINUOUS
 90
16
 70
0
 10
-47.9946171644
 20
24.9732934181
 10
-47.7849454171
 20
24.964736473
 10
-47.5811361652
 20
24.9495608066
 10
-47.3831468759
 20
24.92828986
 10
-47.1913847936
 20
24.9018821794
 10
-47.0054049087
 20
24.8708655511
 10
-46.8238798894
 20
24.8346908507
 10
-46.6453109364
 20
24.7932398258
 10
-46.4711520138
 20
24.7471825152
 10
-46.3044864121
 20
24.6966134122
 10
-46.1454454941
 20
24.6419181454
 10
-45.9938915032
 20
24.5835350833
 10
-45.8525075542
 20
24.5215633771
 10
-45.7221912712
 20
24.4563201829
 10
-45.6020581544
 20
24.3883987312
 10
-45.4921205825
 20
24.3182918721
  0
LINE
  5
337
100
AcDbEntity
  8
IMPORT_IGES
100
AcDbLine
 62
253
  6
CONTINUOUS
 10
-47.9946247828
 20
24.9732929091
 11
-48.7005124127
 21
25.0166864108
  0
LINE
  5
338
100
AcDbEntity
  8
IMPORT_IGES
100
AcDbLine
 62
253
  6
CONTINUOUS
 10
-47.0682545668
 20
26.2585007936
 11
-48.3936645356
 21
26.345653206
  0
LWPOLYLINE
  5
339
100
AcDbEntity
  8
IMPORT_IGES
100
AcDbPolyline
 62
253
  6
CONTINUOUS
 90
19
 70
0
 10
-7.7727584204
 20
24.8551874908
 10
-7.6873701111
 20
24.849376987
 10
-7.6036851686
 20
24.836479202
 10
-7.5222685491
 20
24.8168139356
 10
-7.4440614934
 20
24.790900407
 10
-7.3690803049
 20
24.759039162
 10
-7.2965603857
 20
24.7209665682
 10
-7.2267229084
 20
24.6766208479
 10
-7.1604552871
 20
24.6263775818
 10
-7.098141898
 20
24.5703567657
 10
-7.040220038
 20
24.5087042972
 10
-6.9873551747
 20
24.441857689
 10
-6.94022009
 20
24.3704643119
 10
-6.8993014058
 20
24.2951383297
 10
-6.8648878938
 20
24.2162689756
 10
-6.8372732004
 20
24.1342590245
 10
-6.81677706
 20
24.0496336612
 10
-6.8036999769
 20
23.9630548818
 10
-6.7982714683
 20
23.8751700213
  0
LINE
  5
33A
100
AcDbEntity
  8
IMPORT_IGES
100
AcDbLine
 62
253
  6
CONTINUOUS
 10
-48.3936645356
 20
26.345653206
 11
-49.6067243708
 21
26.4291213838
  0
LINE
  5
33B
100
AcDbEntity
  8
IMPORT_IGES
100
AcDbLine
 62
253
  6
CONTINUOUS
 10
-49.6067243708
 20
26.4291213838
 11
-50.7010108208
 21
26.5083192189
  0
LINE
  5
33C
100
AcDbEntity
  8
IMPORT_IGES
100
AcDbLine
 62
253
  6
CONTINUOUS
 10
-50.7010108208
 20
26.5083192189
 11
-51.6704416649
 21
26.5812398178
  0
LINE
  5
33D
100
AcDbEntity
  8
IMPORT_IGES
100
AcDbLine
 62
253
  6
CONTINUOUS
 10
-51.6704416649
 20
26.5812398178
 11
-52.8803241528
 21
26.6758466141
  0
LINE
  5
33E
100
AcDbEntity
  8
IMPORT_IGES
100
AcDbLine
 62
253
  6
CONTINUOUS
 10
-52.8803241528
 20
26.6758466141
 11
-54.0190680191
 21
26.7685951521
  0
LINE
  5
33F
100
AcDbEntity
  8
IMPORT_IGES
100
AcDbLine
 62
253
  6
CONTINUOUS
 10
-54.0190680191
 20
26.7685951521
 11
-54.6651665603
 21
26.8228239588
  0
LWPOLYLINE
  5
340
100
AcDbEntity
  8
IMPORT_IGES
100
AcDbPolyline
 62
253
  6
CONTINUOUS
 90
10
 70
0
 10
-21.8046523984
 20
24.1147685812
 10
-21.7415999821
 20
24.0910941058
 10
-21.6758192624
 20
24.0674496709
 10
-21.6076486945
 20
24.0439667595
 10
-21.5376089147
 20
24.020825633
 10
-21.465945481
 20
23.9981029953
 10
-21.3925873547
 20
23.9757788635
 10
-21.3177718508
 20
23.9539346636
 10
-21.2420717129
 20
23.9327415948
 10
-21.1659127378
 20
23.9123148553
  0
LWPOLYLINE
  5
341
100
AcDbEntity
  8
IMPORT_IGES
100
AcDbPolyline
 62
253
  6
CONTINUOUS
 90
13
 70
0
 10
-21.5057046997
 20
24.9293734315
 10
-21.457252665
 20
24.873041937
 10
-21.4053716866
 20
24.8167511597
 10
-21.3503528419
 20
24.7608524612
 10
-21.2926519474
 20
24.7058088144
 10
-21.232525217
 20
24.6518429908
 10
-21.1699668899
 20
24.5989494342
 10
-21.1053539412
 20
24.5474564517
 10
-21.0390885375
 20
24.4976751902
 10
-20.9711637092
 20
24.4496009208
 10
-20.9018522488
 20
24.403445104
 10
-20.8317283071
 20
24.3595900458
 10
-20.7612326669
 20
24.3182850638
  0
LINE
  5
342
100
AcDbEntity
  8
IMPORT_IGES
100
AcDbLine
 62
7
  6
CONTINUOUS
 10
-6.6284251938
 20
14.1446852307
 11
-6.8090254481
 21
24.49126876
  0
LINE
  5
343
100
AcDbEntity
  8
IMPORT_IGES
100
AcDbLine
 62
253
  6
CONTINUOUS
 10
-6.9266796875
 20
13.9446852412
 11
-6.9266796875
 21
14.1446852412
  0
LINE
  5
344
100
AcDbEntity
  8
IMPORT_IGES
100
AcDbLine
 62
7
  6
CONTINUOUS
 10
-6.6266796875
 20
10.594751702
 11
-6.6266796875
 21
14.1446852307
  0
LINE
  5
345
100
AcDbEntity
  8
IMPORT_IGES
100
AcDbLine
 62
7
  6
CONTINUOUS
 10
-6.6266796875
 20
14.1884991161
 11
-6.6266796875
 21
17.494670308
  0
LINE
  5
346
100
AcDbEntity
  8
IMPORT_IGES
100
AcDbLine
 62
7
  6
CONTINUOUS
 10
-6.8090254459
 20
3.5981017984
 11
-6.628425194
 21
13.9446852423
  0
LWPOLYLINE
  5
347
100
AcDbEntity
  8
IMPORT_IGES
100
AcDbPolyline
 62
253
  6
CONTINUOUS
 90
22
 70
0
 10
-6.7982714661
 20
4.214200456
 10
-6.8022097244
 20
4.1414271
 10
-6.8113666451
 20
4.0697076736
 10
-6.8255689561
 20
3.9994028487
 10
-6.8445528935
 20
3.9310648436
 10
-6.8681397098
 20
3.8647848101
 10
-6.8963874954
 20
3.8002449371
 10
-6.9292462522
 20
3.737646865
 10
-6.9665143376
 20
3.6774502826
 10
-7.0081631064
 20
3.6197854275
 10
-7.0540271611
 20
3.5649964936
 10
-7.103933379
 20
3.5133958194
 10
-7.1578870286
 20
3.4651211916
 10
-7.2158690843
 20
3.4203964043
 10
-7.2774918106
 20
3.3797169181
 10
-7.3421565231
 20
3.3435869874
 10
-7.4094388112
 20
3.3122877148
 10
-7.4790755527
 20
3.2859839428
 10
-7.5506279814
 20
3.2648860587
 10
-7.623683517
 20
3.2491481075
 10
-7.6978641569
 20
3.2388833605
 10
-7.7727585079
 20
3.234182959
  0
LWPOLYLINE
  5
348
100
AcDbEntity
  8
IMPORT_IGES
100
AcDbPolyline
 62
253
  6
CONTINUOUS
 90
22
 70
0
 10
-14.1471979036
 20
-18.955314734
 10
-14.1420289256
 20
-18.9525260059
 10
-14.1369314675
 20
-18.9442680189
 10
-14.1319324231
 20
-18.9307234341
 10
-14.1270730306
 20
-18.9121703169
 10
-14.1223599219
 20
-18.8888014722
 10
-14.1177689801
 20
-18.8605568722
 10
-14.1133148975
 20
-18.8274839881
 10
-14.1090320919
 20
-18.7897938852
 10
-14.1049305514
 20
-18.747517719
 10
-14.1010359954
 20
-18.7008310387
 10
-14.0973714535
 20
-18.6499147448
 10
-14.0939470635
 20
-18.5947588285
 10
-14.090779508
 20
-18.5353787961
 10
-14.0879058415
 20
-18.4721896313
 10
-14.0853636304
 20
-18.4058364541
 10
-14.0831737455
 20
-18.3367801883
 10
-14.0813481178
 20
-18.2652993555
 10
-14.079901917
 20
-18.1918542524
 10
-14.0788464078
 20
-18.1168841279
 10
-14.0781899372
 20
-18.0407991426
 10
-14.0779390446
 20
-17.964041765
  0
LINE
  5
349
100
AcDbEntity
  8
IMPORT_IGES
100
AcDbLine
 62
7
  6
CONTINUOUS
 10
-22.5266796875
 20
-29.3553147588
 11
-22.6266796875
 21
-29.4553147588
  0
LWPOLYLINE
  5
34A
100
AcDbEntity
  8
IMPORT_IGES
100
AcDbPolyline
 62
253
  6
CONTINUOUS
 90
19
 70
0
 10
-6.7939048041
 20
23.6250784303
 10
-6.7972564188
 20
23.637781952
 10
-6.8067109555
 20
23.6501658743
 10
-6.8220161585
 20
23.6621614284
 10
-6.8427677078
 20
23.6736471929
 10
-6.8687250828
 20
23.6846301472
 10
-6.9000973028
 20
23.6952242372
 10
-6.9369506857
 20
23.7054055379
 10
-6.9790140244
 20
23.7150590897
 10
-7.0262261162
 20
23.7241404734
 10
-7.0785079394
 20
23.7325968303
 10
-7.1355485793
 20
23.7403433008
 10
-7.1968727701
 20
23.747293979
 10
-7.2620487263
 20
23.7533889847
 10
-7.3307885888
 20
23.7585910513
 10
-7.4027513108
 20
23.7628606978
 10
-7.4775354738
 20
23.7661591476
 10
-7.5546730207
 20
23.7684512326
 10
-9.1296967907
 20
23.7909605656
  0
LINE
  5
34B
100
AcDbEntity
  8
IMPORT_IGES
100
AcDbLine
 62
253
  6
CONTINUOUS
 10
-11.7079797616
 20
40.549048509
 11
-54.5453796134
 21
40.549048509
  0
LINE
  5
34C
100
AcDbEntity
  8
IMPORT_IGES
100
AcDbLine
 62
7
  6
CONTINUOUS
 10
-12.2079607231
 20
41.0446852412
 11
-54.0453922984
 21
41.0446852412
  0
LWPOLYLINE
  5
34D
100
AcDbEntity
  8
IMPORT_IGES
100
AcDbPolyline
 62
253
  6
CONTINUOUS
 90
5
 70
0
 10
7.4004846929
 20
40.9983500306
 10
7.4405259257
 20
41.0148623
 10
7.4818451359
 20
41.027835862
 10
7.5241313416
 20
41.0371730732
 10
7.5670662829
 20
41.0428036589
  0
LINE
  5
34E
100
AcDbEntity
  8
IMPORT_IGES
100
AcDbLine
 62
253
  6
CONTINUOUS
 10
38.133828125
 20
-35.9553147588
 11
38.185855368
 21
-35.9553147588
  0
LINE
  5
34F
100
AcDbEntity
  8
IMPORT_IGES
100
AcDbLine
 62
253
  6
CONTINUOUS
 10
43.081800882
 20
-35.9553147588
 11
43.133828125
 21
-35.9553147588
  0
LINE
  5
350
100
AcDbEntity
  8
IMPORT_IGES
100
AcDbLine
 62
253
  6
CONTINUOUS
 10
38.133828125
 20
-35.4553147588
 11
43.133828125
 21
-35.4553147588
  0
LWPOLYLINE
  5
351
100
AcDbEntity
  8
IMPORT_IGES
100
AcDbPolyline
 62
253
  6
CONTINUOUS
 90
16
 70
0
 10
8.0289575648
 20
24.3182850625
 10
8.079138103
 20
24.388198757
 10
8.1350981366
 20
24.4559737189
 10
8.1967085016
 20
24.5211167829
 10
8.2637446624
 20
24.5830339602
 10
8.3359742942
 20
24.6414032762
 10
8.4132236323
 20
24.6961176095
 10
8.4951933989
 20
24.7467362626
 10
8.5814975083
 20
24.7928632735
 10
8.6718359036
 20
24.8343871926
 10
8.7649036
 20
24.8706304644
 10
8.8610397034
 20
24.9017126135
 10
8.9624968607
 20
24.9281813323
 10
9.0696725327
 20
24.9495043721
 10
9.1809792788
 20
24.9647175323
 10
9.2956328065
 20
24.9732931621
  0
LINE
  5
352
100
AcDbEntity
  8
IMPORT_IGES
100
AcDbLine
 62
7
  6
CONTINUOUS
 10
43.133828125
 20
-29.4553147588
 11
38.133828125
 21
-29.4553147588
  0
LINE
  5
353
100
AcDbEntity
  8
IMPORT_IGES
100
AcDbLine
 62
7
  6
CONTINUOUS
 10
38.233828125
 20
-29.3553147588
 11
43.033828125
 21
-29.3553147588
  0
LWPOLYLINE
  5
354
100
AcDbEntity
  8
IMPORT_IGES
100
AcDbPolyline
 62
253
  6
CONTINUOUS
 90
13
 70
0
 10
7.8859086971
 20
24.9293745681
 10
7.8548432066
 20
24.858560565
 10
7.8259886743
 20
24.7878150588
 10
7.7992740663
 20
24.7171380495
 10
7.7745756977
 20
24.6462577979
 10
7.7518867931
 20
24.5754460433
 10
7.7313112945
 20
24.5055180028
 10
7.7128503534
 20
24.4364257668
 10
7.6963841343
 20
24.3682172449
 10
7.6818379363
 20
24.301851384
 10
7.6691593358
 20
24.237647833
 10
7.6583172233
 20
24.175286943
 10
7.6492778819
 20
24.1147687139
  0
LWPOLYLINE
  5
355
100
AcDbEntity
  8
IMPORT_IGES
100
AcDbPolyline
 62
253
  6
CONTINUOUS
 90
14
 70
0
 10
7.1112209253
 20
40.549048509
 10
7.1134766576
 20
40.592366821
 10
7.1194718478
 20
40.6353262658
 10
7.1291613742
 20
40.6776035163
 10
7.1424723101
 20
40.7188803802
 10
7.1593044733
 20
40.758846194
 10
7.1795311791
 20
40.797200162
 10
7.2030001948
 20
40.8336536195
 10
7.2295348848
 20
40.8679322058
 10
7.2589355403
 20
40.899777929
 10
7.2909808823
 20
40.9289511077
 10
7.325429727
 20
40.9552321749
 10
7.3620228011
 20
40.9784233306
 10
7.4004846929
 20
40.9983500306
  0
LINE
  5
356
100
AcDbEntity
  8
IMPORT_IGES
100
AcDbLine
 62
253
  6
CONTINUOUS
 10
7.3677399789
 20
21.9215104419
 11
7.3135349545
 21
21.4364865546
  0
LINE
  5
357
100
AcDbEntity
  8
IMPORT_IGES
100
AcDbLine
 62
253
  6
CONTINUOUS
 10
7.2559825142
 20
20.006383229
 11
7.2135874265
 21
19.6460496307
  0
LINE
  5
358
100
AcDbEntity
  8
IMPORT_IGES
100
AcDbLine
 62
253
  6
CONTINUOUS
 10
7.4301931207
 20
22.4506066454
 11
7.3677399789
 21
21.9215104419
  0
LINE
  5
359
100
AcDbEntity
  8
IMPORT_IGES
100
AcDbLine
 62
253
  6
CONTINUOUS
 10
7.4771197202
 20
22.8300622639
 11
7.4301931207
 21
22.4506066454
  0
LINE
  5
35A
100
AcDbEntity
  8
IMPORT_IGES
100
AcDbLine
 62
253
  6
CONTINUOUS
 10
7.304810327
 20
20.4002168724
 11
7.2559825142
 21
20.006383229
  0
LINE
  5
35B
100
AcDbEntity
  8
IMPORT_IGES
100
AcDbLine
 62
253
  6
CONTINUOUS
 10
7.5288633733
 20
23.2326850485
 11
7.4771197202
 21
22.8300622639
  0
LINE
  5
35C
100
AcDbEntity
  8
IMPORT_IGES
100
AcDbLine
 62
253
  6
CONTINUOUS
 10
7.3414680622
 20
20.6829059127
 11
7.304810327
 21
20.4002168724
  0
LINE
  5
35D
100
AcDbEntity
  8
IMPORT_IGES
100
AcDbLine
 62
253
  6
CONTINUOUS
 10
7.586095061
 20
23.6607032673
 11
7.5288633733
 21
23.2326850485
  0
LINE
  5
35E
100
AcDbEntity
  8
IMPORT_IGES
100
AcDbLine
 62
253
  6
CONTINUOUS
 10
7.3817960415
 20
20.9825316286
 11
7.3414680622
 21
20.6829059127
  0
LINE
  5
35F
100
AcDbEntity
  8
IMPORT_IGES
100
AcDbLine
 62
253
  6
CONTINUOUS
 10
7.6492778819
 20
24.1147687139
 11
7.586095061
 21
23.6607032673
  0
LINE
  5
360
100
AcDbEntity
  8
IMPORT_IGES
100
AcDbLine
 62
253
  6
CONTINUOUS
 10
7.4262373268
 20
21.3003757678
 11
7.3817960415
 21
20.9825316286
  0
LINE
  5
361
100
AcDbEntity
  8
IMPORT_IGES
100
AcDbLine
 62
253
  6
CONTINUOUS
 10
7.4753095657
 20
21.6379357601
 11
7.4262373268
 21
21.3003757678
  0
LINE
  5
362
100
AcDbEntity
  8
IMPORT_IGES
100
AcDbLine
 62
253
  6
CONTINUOUS
 10
7.5295175594
 20
21.9962473522
 11
7.4753095657
 21
21.6379357601
  0
LINE
  5
363
100
AcDbEntity
  8
IMPORT_IGES
100
AcDbLine
 62
253
  6
CONTINUOUS
 10
7.5895081488
 20
22.3769543324
 11
7.5295175594
 21
21.9962473522
  0
LINE
  5
364
100
AcDbEntity
  8
IMPORT_IGES
100
AcDbLine
 62
253
  6
CONTINUOUS
 10
7.6560509928
 20
22.7820463777
 11
7.5895081488
 21
22.3769543324
  0
LINE
  5
365
100
AcDbEntity
  8
IMPORT_IGES
100
AcDbLine
 62
253
  6
CONTINUOUS
 10
7.7298980203
 20
23.2128801703
 11
7.6560509928
 21
22.7820463777
  0
LWPOLYLINE
  5
366
100
AcDbEntity
  8
IMPORT_IGES
100
AcDbPolyline
 62
253
  6
CONTINUOUS
 90
3
 70
0
 10
7.8565432164
 20
23.9123160719
 10
7.8121170034
 20
23.6722041751
 10
7.7298980203
 20
23.2128801703
  0
LWPOLYLINE
  5
367
100
AcDbEntity
  8
IMPORT_IGES
100
AcDbPolyline
 62
253
  6
CONTINUOUS
 90
10
 70
0
 10
7.8565496495
 20
23.9123149966
 10
7.8674587379
 20
23.9594713898
 10
7.8805121789
 20
24.006382414
 10
7.8957037826
 20
24.0529419682
 10
7.9130656844
 20
24.0990774081
 10
7.9325327598
 20
24.144651067
 10
7.9539268976
 20
24.1894624344
 10
7.9771454012
 20
24.2333822118
 10
8.0021773727
 20
24.2763516896
 10
8.0289575648
 20
24.3182850625
  0
LINE
  5
368
100
AcDbEntity
  8
IMPORT_IGES
100
AcDbLine
 62
7
  6
CONTINUOUS
 10
7.583828125
 20
13.9446852412
 11
7.583828125
 21
14.1446852412
  0
LINE
  5
369
100
AcDbEntity
  8
IMPORT_IGES
100
AcDbLine
 62
253
  6
CONTINUOUS
 10
7.9901893763
 20
40.549048509
 11
7.8859086971
 21
24.9293745681
  0
LINE
  5
36A
100
AcDbEntity
  8
IMPORT_IGES
100
AcDbLine
 62
7
  6
CONTINUOUS
 10
6.8351281992
 20
40.549048509
 11
6.6228183214
 21
16.2207462137
  0
LINE
  5
36B
100
AcDbEntity
  8
IMPORT_IGES
100
AcDbLine
 62
253
  6
CONTINUOUS
 10
6.8992428782
 20
16.2168514703
 11
7.1112209249
 21
40.549048509
  0
LINE
  5
36C
100
AcDbEntity
  8
IMPORT_IGES
100
AcDbLine
 62
253
  6
CONTINUOUS
 10
6.8991284217
 20
16.2090622644
 11
6.8992428782
 21
16.2168514703
  0
LINE
  5
36D
100
AcDbEntity
  8
IMPORT_IGES
100
AcDbLine
 62
7
  6
CONTINUOUS
 10
6.6228183214
 20
16.2207462137
 11
6.6220398996
 21
16.1857020131
  0
LINE
  5
36E
100
AcDbEntity
  8
IMPORT_IGES
100
AcDbLine
 62
253
  6
CONTINUOUS
 10
6.8989673639
 20
16.2012734738
 11
6.8991284217
 21
16.2090622644
  0
LINE
  5
36F
100
AcDbEntity
  8
IMPORT_IGES
100
AcDbLine
 62
253
  6
CONTINUOUS
 10
6.8987597373
 20
16.1934865339
 11
6.8989673639
 21
16.2012734738
  0
LINE
  5
370
100
AcDbEntity
  8
IMPORT_IGES
100
AcDbLine
 62
253
  6
CONTINUOUS
 10
6.8985055731
 20
16.1857020131
 11
6.8987597373
 21
16.1934865339
  0
LWPOLYLINE
  5
371
100
AcDbEntity
  8
IMPORT_IGES
100
AcDbPolyline
 62
253
  6
CONTINUOUS
 90
19
 70
0
 10
7.9901903777
 20
40.549048509
 10
7.9919190858
 20
40.592366821
 10
7.9965135733
 20
40.6353262658
 10
8.0039392606
 20
40.6776035163
 10
8.0141402596
 20
40.7188803802
 10
8.0270397942
 20
40.758846194
 10
8.0425407783
 20
40.797200162
 10
8.0605265462
 20
40.8336536195
 10
8.0808617313
 20
40.8679322058
 10
8.1033932841
 20
40.899777929
 10
8.1279516249
 20
40.9289511077
 10
8.1543519194
 20
40.9552321749
 10
8.1823954704
 20
40.9784233306
 10
8.2118712129
 20
40.9983500306
 10
8.2425573026
 20
41.0148623
 10
8.274222786
 20
41.027835862
 10
8.3066293382
 20
41.0371730732
 10
8.3395330569
 20
41.0428036589
 10
8.3726862978
 20
41.0446852412
  0
LINE
  5
372
100
AcDbEntity
  8
IMPORT_IGES
100
AcDbLine
 62
253
  6
CONTINUOUS
 10
6.9768908891
 20
17.4530286613
 11
6.9168343134
 21
16.4242426219
  0
LINE
  5
373
100
AcDbEntity
  8
IMPORT_IGES
100
AcDbLine
 62
253
  6
CONTINUOUS
 10
6.9168343134
 20
16.4242426219
 11
6.9125904381
 21
16.3574353387
  0
LINE
  5
374
100
AcDbEntity
  8
IMPORT_IGES
100
AcDbLine
 62
253
  6
CONTINUOUS
 10
7.0062764787
 20
17.9136431049
 11
6.9768908891
 21
17.4530286613
  0
LINE
  5
375
100
AcDbEntity
  8
IMPORT_IGES
100
AcDbLine
 62
253
  6
CONTINUOUS
 10
6.9125904381
 20
16.3574353387
 11
6.9102778498
 21
16.3234906044
  0
LINE
  5
376
100
AcDbEntity
  8
IMPORT_IGES
100
AcDbLine
 62
253
  6
CONTINUOUS
 10
7.0368232312
 20
18.3577844748
 11
7.0062764787
 21
17.9136431049
  0
LINE
  5
377
100
AcDbEntity
  8
IMPORT_IGES
100
AcDbLine
 62
253
  6
CONTINUOUS
 10
7.0642188807
 20
18.7304783223
 11
7.0368232312
 21
18.3577844748
  0
LINE
  5
378
100
AcDbEntity
  8
IMPORT_IGES
100
AcDbLine
 62
253
  6
CONTINUOUS
 10
6.9102778498
 20
16.3234906044
 11
6.9081247385
 21
16.2941257651
  0
LINE
  5
379
100
AcDbEntity
  8
IMPORT_IGES
100
AcDbLine
 62
253
  6
CONTINUOUS
 10
6.9860826421
 20
17.2590450526
 11
6.9243724959
 21
16.4290408865
  0
LINE
  5
37A
100
AcDbEntity
  8
IMPORT_IGES
100
AcDbLine
 62
253
  6
CONTINUOUS
 10
7.0976018583
 20
19.1570739368
 11
7.0642188807
 21
18.7304783223
  0
LINE
  5
37B
100
AcDbEntity
  8
IMPORT_IGES
100
AcDbLine
 62
253
  6
CONTINUOUS
 10
6.9243724959
 20
16.4290408865
 11
6.9184559059
 21
16.3541375934
  0
LINE
  5
37C
100
AcDbEntity
  8
IMPORT_IGES
100
AcDbLine
 62
253
  6
CONTINUOUS
 10
6.9081247385
 20
16.2941257651
 11
6.906769428
 21
16.27708968
  0
LINE
  5
37D
100
AcDbEntity
  8
IMPORT_IGES
100
AcDbLine
 62
253
  6
CONTINUOUS
 10
7.0158829096
 20
17.6325355431
 11
6.9860826421
 21
17.2590450526
  0
LINE
  5
37E
100
AcDbEntity
  8
IMPORT_IGES
100
AcDbLine
 62
253
  6
CONTINUOUS
 10
7.1296678457
 20
19.5427271942
 11
7.0976018583
 21
19.1570739368
  0
LINE
  5
37F
100
AcDbEntity
  8
IMPORT_IGES
100
AcDbLine
 62
253
  6
CONTINUOUS
 10
6.9184559059
 20
16.3541375934
 11
6.9144723662
 21
16.306858742
  0
LINE
  5
380
100
AcDbEntity
  8
IMPORT_IGES
100
AcDbLine
 62
253
  6
CONTINUOUS
 10
7.0426792106
 20
17.9488133515
 11
7.0158829096
 21
17.6325355431
  0
LWPOLYLINE
  5
381
100
AcDbEntity
  8
IMPORT_IGES
100
AcDbPolyline
 62
253
  6
CONTINUOUS
 90
14
 70
0
 10
6.906769428
 20
16.27708968
 10
6.9054748138
 20
16.2621090869
 10
6.9048486716
 20
16.2554133636
 10
6.9042378386
 20
16.2492543251
 10
6.9036459149
 20
16.2436906155
 10
6.9030727099
 20
16.2387356971
 10
6.9025183243
 20
16.2343761078
 10
6.9019863152
 20
16.230630105
 10
6.9014762592
 20
16.2275160002
 10
6.9009879622
 20
16.2250154821
 10
6.9005247385
 20
16.2230918738
 10
6.9000871373
 20
16.2217329497
 10
6.8996733016
 20
16.2209509354
 10
6.8992826299
 20
16.2207458309
  0
LINE
  5
382
100
AcDbEntity
  8
IMPORT_IGES
100
AcDbLine
 62
253
  6
CONTINUOUS
 10
7.1675781568
 20
19.972998519
 11
7.1296678457
 21
19.5427271942
  0
LINE
  5
383
100
AcDbEntity
  8
IMPORT_IGES
100
AcDbLine
 62
253
  6
CONTINUOUS
 10
7.0683021386
 20
18.2356459047
 11
7.0426792106
 21
17.9488133515
  0
LINE
  5
384
100
AcDbEntity
  8
IMPORT_IGES
100
AcDbLine
 62
253
  6
CONTINUOUS
 10
6.9144723662
 20
16.306858742
 11
6.912009211
 21
16.2794886006
  0
LINE
  5
385
100
AcDbEntity
  8
IMPORT_IGES
100
AcDbLine
 62
253
  6
CONTINUOUS
 10
7.2006053897
 20
20.3284576494
 11
7.1675781568
 21
19.972998519
  0
LINE
  5
386
100
AcDbEntity
  8
IMPORT_IGES
100
AcDbLine
 62
253
  6
CONTINUOUS
 10
7.0984804907
 20
18.556256605
 11
7.0683021386
 21
18.2356459047
  0
LWPOLYLINE
  5
387
100
AcDbEntity
  8
IMPORT_IGES
100
AcDbPolyline
 62
253
  6
CONTINUOUS
 90
15
 70
0
 10
6.912009211
 20
16.2794886006
 10
6.9096898967
 20
16.2554533191
 10
6.9085853576
 20
16.2447316484
 10
6.9075164285
 20
16.2348845326
 10
6.906483754
 20
16.2259140451
 10
6.9054918968
 20
16.2178641989
 10
6.9045406173
 20
16.2107544036
 10
6.9036294163
 20
16.2045652755
 10
6.9027624836
 20
16.1992826361
 10
6.9019403424
 20
16.1949348405
 10
6.9011619565
 20
16.1914935497
 10
6.9004292226
 20
16.1888595411
 10
6.8997426752
 20
16.1869997426
 10
6.89910149
 20
16.1859472327
 10
6.898505573
 20
16.1857020131
  0
LINE
  5
388
100
AcDbEntity
  8
IMPORT_IGES
100
AcDbLine
 62
253
  6
CONTINUOUS
 10
7.2382763008
 20
20.7149401839
 11
7.2006053897
 21
20.3284576494
  0
LINE
  5
389
100
AcDbEntity
  8
IMPORT_IGES
100
AcDbLine
 62
253
  6
CONTINUOUS
 10
7.1341728905
 20
18.914587559
 11
7.0984804907
 21
18.556256605
  0
LINE
  5
38A
100
AcDbEntity
  8
IMPORT_IGES
100
AcDbLine
 62
253
  6
CONTINUOUS
 10
7.2813560566
 20
21.1354677815
 11
7.2382763008
 21
20.7149401839
  0
LINE
  5
38B
100
AcDbEntity
  8
IMPORT_IGES
100
AcDbLine
 62
253
  6
CONTINUOUS
 10
7.1652694726
 20
19.2108382778
 11
7.1341728905
 21
18.914587559
  0
LINE
  5
38C
100
AcDbEntity
  8
IMPORT_IGES
100
AcDbLine
 62
253
  6
CONTINUOUS
 10
7.3135349545
 20
21.4364865546
 11
7.2813560566
 21
21.1354677815
  0
LWPOLYLINE
  5
38D
100
AcDbEntity
  8
IMPORT_IGES
100
AcDbPolyline
 62
253
  6
CONTINUOUS
 90
3
 70
0
 10
7.2135874265
 20
19.6460496307
 10
7.2007063545
 20
19.5327603353
 10
7.1652694726
 20
19.2108382778
  0
LWPOLYLINE
  5
38E
100
AcDbEntity
  8
IMPORT_IGES
100
AcDbPolyline
 62
7
  6
CONTINUOUS
 90
10
 70
0
 10
9.4579794977
 20
23.7697095513
 10
9.2942007877
 20
22.7081748187
 10
9.1497131118
 20
21.6438568317
 10
9.024564274
 20
20.5770967083
 10
8.918795878
 20
19.5082273058
 10
8.8324435827
 20
18.4376002451
 10
8.7655354838
 20
17.3655859338
 10
8.7180924908
 20
16.2925371644
 10
8.6901299279
 20
15.21878887
 10
8.6816566735
 20
14.1446852412
  0
LWPOLYLINE
  5
38F
100
AcDbEntity
  8
IMPORT_IGES
100
AcDbPolyline
 62
253
  6
CONTINUOUS
 90
19
 70
0
 10
9.457975631
 20
23.7697097547
 10
9.4770532202
 20
23.8639597649
 10
9.5030551026
 20
23.9567456121
 10
9.5358381439
 20
24.0474613643
 10
9.5752559114
 20
24.1355363783
 10
9.6210921303
 20
24.2204780424
 10
9.6730922189
 20
24.3017898303
 10
9.7309856368
 20
24.3790316977
 10
9.7944527512
 20
24.4517825798
 10
9.8631340972
 20
24.5195777707
 10
9.9366417382
 20
24.5820419047
 10
10.0145520654
 20
24.6388444876
 10
10.0964040433
 20
24.6896235788
 10
10.181740028
 20
24.7341073578
 10
10.2700987064
 20
24.7720818709
 10
10.3609854658
 20
24.8033165447
 10
10.4538736489
 20
24.827640633
 10
10.5481866223
 20
24.8449615466
 10
10.6433309752
 20
24.8551887508
  0
LWPOLYLINE
  5
390
100
AcDbEntity
  8
IMPORT_IGES
100
AcDbPolyline
 62
253
  6
CONTINUOUS
 90
13
 70
0
 10
10.4316899637
 20
23.6250825144
 10
10.4392370402
 20
23.6582089166
 10
10.4501233025
 20
23.6896504845
 10
10.4643487506
 20
23.7194072182
 10
10.4821802047
 20
23.7478607206
 10
10.5033508446
 20
23.7746293889
 10
10.5270602095
 20
23.7985684138
 10
10.5534600576
 20
23.8194932411
 10
10.5823986307
 20
23.837588425
 10
10.6126201937
 20
23.85226282
 10
10.6437061681
 20
23.8633193773
 10
10.6760751324
 20
23.8709551457
 10
10.7097270865
 20
23.875170125
  0
LWPOLYLINE
  5
391
100
AcDbEntity
  8
IMPORT_IGES
100
AcDbPolyline
 62
7
  6
CONTINUOUS
 90
10
 70
0
 10
8.6816569533
 20
13.9446852412
 10
8.6901301515
 20
12.8705845533
 10
8.7180925871
 20
11.7968382056
 10
8.765535434
 20
10.7237903882
 10
8.8324434441
 20
9.6517757043
 10
8.9187957486
 20
8.5811472824
 10
9.0245641993
 20
7.5122765274
 10
9.1497130957
 20
6.4455153912
 10
9.2942008632
 20
5.381196401
 10
9.4579796972
 20
4.3196606758
  0
LINE
  5
392
100
AcDbEntity
  8
IMPORT_IGES
100
AcDbLine
 62
7
  6
CONTINUOUS
 10
9.6685286869
 20
14.1446852286
 11
9.6685286869
 21
13.9446852412
  0
LWPOLYLINE
  5
393
100
AcDbEntity
  8
IMPORT_IGES
100
AcDbPolyline
 62
253
  6
CONTINUOUS
 90
22
 70
0
 10
10.0950098041
 20
26.2585009428
 10
10.094996463
 20
26.1658681309
 10
10.0904421749
 20
26.0738277569
 10
10.081419683
 20
25.9831689725
 10
10.0681796858
 20
25.8951724865
 10
10.0509207644
 20
25.8100047426
 10
10.0295107162
 20
25.7267418707
 10
10.0040046179
 20
25.6458010559
 10
9.974645509
 20
25.5680076346
 10
9.9413016252
 20
25.4931212648
 10
9.9041622035
 20
25.4217651524
 10
9.8634622897
 20
25.3544910188
 10
9.8189795649
 20
25.2911231415
 10
9.7708403312
 20
25.2321435277
 10
9.7194726851
 20
25.1782895968
 10
9.6650611011
 20
25.1298992628
 10
9.608119035
 20
25.087518409
 10
9.5490135824
 20
25.051436367
 10
9.4877279902
 20
25.0217060321
 10
9.4246098962
 20
24.9986092531
 10
9.3603862404
 20
24.9824466463
 10
9.2956300863
 20
24.9732930423
  0
LWPOLYLINE
  5
394
100
AcDbEntity
  8
IMPORT_IGES
100
AcDbPolyline
 62
253
  6
CONTINUOUS
 90
10
 70
0
 10
9.6683279444
 20
14.1446852286
 10
9.6764237995
 20
15.2031808449
 10
9.7037213512
 20
16.2606596954
 10
9.7502205995
 20
17.31712178
 10
9.8159497574
 20
18.3729174577
 10
9.900880612
 20
19.4276963696
 10
10.0049285238
 20
20.4804074389
 10
10.1280652799
 20
21.5307003067
 10
10.2703190931
 20
22.5789253319
 10
10.4316899637
 20
23.6250825144
  0
LINE
  5
395
100
AcDbEntity
  8
IMPORT_IGES
100
AcDbLine
 62
253
  6
CONTINUOUS
 10
10.7097273383
 20
4.2142003235
 11
10.6456354202
 21
3.2648823849
  0
LWPOLYLINE
  5
396
100
AcDbEntity
  8
IMPORT_IGES
100
AcDbPolyline
 62
253
  6
CONTINUOUS
 90
3
 70
0
 10
10.6456354202
 20
3.2648823849
 10
10.6437328956
 20
3.2388825766
 10
10.6433328821
 20
3.234182846
  0
LWPOLYLINE
  5
397
100
AcDbEntity
  8
IMPORT_IGES
100
AcDbPolyline
 62
253
  6
CONTINUOUS
 90
4
 70
0
 10
10.3538048399
 20
0.115482253
 10
10.3542206117
 20
0.1208001607
 10
10.3551070884
 20
0.1330861749
 10
10.4414619087
 20
1.4009398683
  0
LINE
  5
398
100
AcDbEntity
  8
IMPORT_IGES
100
AcDbLine
 62
253
  6
CONTINUOUS
 10
18.1220099401
 20
16.1122367963
 11
18.3243092395
 21
16.3337655611
  0
LWPOLYLINE
  5
399
100
AcDbEntity
  8
IMPORT_IGES
100
AcDbPolyline
 62
253
  6
CONTINUOUS
 90
4
 70
0
 10
47.5319488186
 20
-17.9640433397
 10
47.5221910473
 20
-17.9646005749
 10
47.5058672939
 20
-17.9651120823
 10
47.4830550747
 20
-17.9655744165
  0
LINE
  5
39A
100
AcDbEntity
  8
IMPORT_IGES
100
AcDbLine
 62
253
  6
CONTINUOUS
 10
47.4830550747
 20
-17.9655744165
 11
47.4184335112
 21
-17.9663383973
  0
LINE
  5
39B
100
AcDbEntity
  8
IMPORT_IGES
100
AcDbLine
 62
253
  6
CONTINUOUS
 10
47.4184335112
 20
-17.9663383973
 11
47.276756184
 21
-17.9670590991
  0
LINE
  5
39C
100
AcDbEntity
  8
IMPORT_IGES
100
AcDbLine
 62
253
  6
CONTINUOUS
 10
35.0325129278
 20
-17.9640411445
 11
34.3288812837
 21
-17.9670589547
  0
LINE
  5
39D
100
AcDbEntity
  8
IMPORT_IGES
100
AcDbLine
 62
7
  6
CONTINUOUS
 10
34.0751393356
 20
-18.9553147588
 11
47.1925169144
 21
-18.9553147588
  0
LINE
  5
39E
100
AcDbEntity
  8
IMPORT_IGES
100
AcDbLine
 62
253
  6
CONTINUOUS
 10
33.0751774126
 20
-17.9640412943
 11
33.7356901993
 21
-17.9640412943
  0
LINE
  5
39F
100
AcDbEntity
  8
IMPORT_IGES
100
AcDbLine
 62
253
  6
CONTINUOUS
 10
35.03251362
 20
-17.9640412508
 11
46.235141096
 21
-17.9640412508
  0
LINE
  5
3A0
100
AcDbEntity
  8
IMPORT_IGES
100
AcDbLine
 62
253
  6
CONTINUOUS
 10
47.5319651381
 20
-17.9640412943
 11
48.1924788375
 21
-17.9640412943
  0
LINE
  5
3A1
100
AcDbEntity
  8
IMPORT_IGES
100
AcDbLine
 62
253
  6
CONTINUOUS
 10
34.3288812837
 20
-17.9670589547
 11
33.9908937744
 21
-17.9670591196
  0
LINE
  5
3A2
100
AcDbEntity
  8
IMPORT_IGES
100
AcDbLine
 62
253
  6
CONTINUOUS
 10
47.276756184
 20
-17.9670590991
 11
46.8588913932
 21
-17.966877583
  0
LINE
  5
3A3
100
AcDbEntity
  8
IMPORT_IGES
100
AcDbLine
 62
253
  6
CONTINUOUS
 10
46.8588913932
 20
-17.966877583
 11
46.2351380404
 21
-17.9640412518
  0
LINE
  5
3A4
100
AcDbEntity
  8
IMPORT_IGES
100
AcDbLine
 62
253
  6
CONTINUOUS
 10
33.9908937744
 20
-17.9670591196
 11
33.849217865
 21
-17.9663384341
  0
LWPOLYLINE
  5
3A5
100
AcDbEntity
  8
IMPORT_IGES
100
AcDbPolyline
 62
253
  6
CONTINUOUS
 90
5
 70
0
 10
33.849217865
 20
-17.9663384341
 10
33.7845966887
 20
-17.9655744513
 10
33.7617831981
 20
-17.9651120692
 10
33.74545891
 20
-17.9646004739
 10
33.735702329
 20
-17.9640431031
  0
LWPOLYLINE
  5
3A6
100
AcDbEntity
  8
IMPORT_IGES
100
AcDbPolyline
 62
253
  6
CONTINUOUS
 90
22
 70
0
 10
34.7332457878
 20
-18.955314734
 10
34.6587952035
 20
-18.9525260111
 10
34.5853747584
 20
-18.9442680253
 10
34.5133717949
 20
-18.9307234379
 10
34.4433802476
 20
-18.9121703146
 10
34.3754956363
 20
-18.8888014604
 10
34.3093706339
 20
-18.8605568475
 10
34.2452168835
 20
-18.8274839475
 10
34.183530099
 20
-18.7897938256
 10
34.1244541411
 20
-18.7475176373
 10
34.0683594574
 20
-18.7008309322
 10
34.0155777509
 20
-18.6499146109
 10
33.9662550417
 20
-18.5947586645
 10
33.9206316129
 20
-18.5353785994
 10
33.8792411751
 20
-18.4721893997
 10
33.8426248127
 20
-18.4058361866
 10
33.8110829589
 20
-18.336779869
 10
33.7847876288
 20
-18.2652989835
 10
33.7639578624
 20
-18.1918538771
 10
33.7487560965
 20
-18.1168838188
 10
33.7393023727
 20
-18.040798954
 10
33.7356908576
 20
-17.9640417505
  0
LWPOLYLINE
  5
3A7
100
AcDbEntity
  8
IMPORT_IGES
100
AcDbPolyline
 62
7
  6
CONTINUOUS
 90
19
 70
0
 10
8.0121371912
 20
1.030984376
 10
8.0184379412
 20
1.0036943193
 10
8.0458769679
 20
0.9069492625
 10
8.0808326539
 20
0.8123231287
 10
8.1228509792
 20
0.721025478
 10
8.1715859284
 20
0.6335925749
 10
8.2270638356
 20
0.5499461163
 10
8.2888264466
 20
0.4708332112
 10
8.3562635178
 20
0.3969691361
 10
8.4293977977
 20
0.3283187527
 10
8.5076011557
 20
0.2655161719
 10
8.5901537466
 20
0.2090929096
 10
8.6770890743
 20
0.1590290059
 10
8.7676146098
 20
0.1158228585
 10
8.8609253743
 20
0.0798196916
 10
8.9570961648
 20
0.051001542
 10
9.0555480295
 20
0.0296299559
 10
9.1550270107
 20
0.0159789736
 10
9.1888255614
 20
0.0131094676
  0
LINE
  5
3A8
100
AcDbEntity
  8
IMPORT_IGES
100
AcDbLine
 62
253
  6
CONTINUOUS
 10
9.1241229697
 20
1.3954181631
 11
9.1817962774
 21
1.131603689
  0
LINE
  5
3A9
100
AcDbEntity
  8
IMPORT_IGES
100
AcDbLine
 62
253
  6
CONTINUOUS
 10
10.4414595528
 20
1.4009400275
 11
10.3852338625
 21
1.6581415581
  0
LINE
  5
3AA
100
AcDbEntity
  8
IMPORT_IGES
100
AcDbLine
 62
253
  6
CONTINUOUS
 10
9.0678416011
 20
1.6585684899
 11
9.1241229697
 21
1.3954181631
  0
LINE
  5
3AB
100
AcDbEntity
  8
IMPORT_IGES
100
AcDbLine
 62
253
  6
CONTINUOUS
 10
10.3852338625
 20
1.6581415581
 11
10.3301709636
 21
1.9155945338
  0
LINE
  5
3AC
100
AcDbEntity
  8
IMPORT_IGES
100
AcDbLine
 62
253
  6
CONTINUOUS
 10
9.0128383039
 20
1.9215426457
 11
9.0678416011
 21
1.6585684899
  0
LINE
  5
3AD
100
AcDbEntity
  8
IMPORT_IGES
100
AcDbLine
 62
253
  6
CONTINUOUS
 10
10.3301709636
 20
1.9155945338
 11
10.2762628923
 21
2.1733371505
  0
LWPOLYLINE
  5
3AE
100
AcDbEntity
  8
IMPORT_IGES
100
AcDbPolyline
 62
253
  6
CONTINUOUS
 90
10
 70
0
 10
10.4317032488
 20
4.464260064
 10
10.270331853
 20
5.5104183551
 10
10.1280774591
 20
6.5586451501
 10
10.0049400672
 20
7.6089404488
 10
9.9008914345
 20
8.6616548285
 10
9.8159598039
 20
9.7164377119
 10
9.7502299034
 20
10.7722373681
 10
9.7037299757
 20
11.8287032198
 10
9.6764317781
 20
12.8861858442
 10
9.6683353107
 20
13.9446852413
  0
LINE
  5
3AF
100
AcDbEntity
  8
IMPORT_IGES
100
AcDbLine
 62
253
  6
CONTINUOUS
 10
10.6433310587
 20
24.8551874844
 11
10.6438172471
 21
24.8493769807
  0
LINE
  5
3B0
100
AcDbEntity
  8
IMPORT_IGES
100
AcDbLine
 62
253
  6
CONTINUOUS
 10
10.6438172471
 20
24.8493769807
 11
10.6479941597
 21
24.7909004008
  0
LINE
  5
3B1
100
AcDbEntity
  8
IMPORT_IGES
100
AcDbLine
 62
253
  6
CONTINUOUS
 10
10.6479941597
 20
24.7909004008
 11
10.7097255289
 21
23.8751700132
  0
LINE
  5
3B2
100
AcDbEntity
  8
IMPORT_IGES
100
AcDbLine
 62
7
  6
CONTINUOUS
 10
11.483828125
 20
14.1446852286
 11
11.483828125
 21
13.9446852412
  0
LINE
  5
3B3
100
AcDbEntity
  8
IMPORT_IGES
100
AcDbLine
 62
7
  6
CONTINUOUS
 10
11.733828125
 20
14.1446852286
 11
11.733828125
 21
13.9446852412
  0
LINE
  5
3B4
100
AcDbEntity
  8
RACCORDO
100
AcDbLine
 62
7
  6
CONTINUOUS
 10
11.733828125
 20
13.9446852412
 11
11.733828125
 21
14.1446852286
  0
LINE
  5
3B5
100
AcDbEntity
  8
IMPORT_IGES
100
AcDbLine
 62
253
  6
CONTINUOUS
 10
11.8474383635
 20
13.9446852412
 11
11.8474383635
 21
14.1446852286
  0
LINE
  5
3B6
100
AcDbEntity
  8
IMPORT_IGES
100
AcDbLine
 62
253
  6
CONTINUOUS
 10
12.3473622111
 20
14.1446852286
 11
12.3473622111
 21
13.9446852412
  0
LWPOLYLINE
  5
3B7
100
AcDbEntity
  8
IMPORT_IGES
100
AcDbPolyline
 62
253
  6
CONTINUOUS
 90
22
 70
0
 10
10.2761544123
 20
2.1735244201
 10
10.2307599857
 20
2.2576195337
 10
10.1892908394
 20
2.3399569732
 10
10.1516812594
 20
2.4196365036
 10
10.1180181368
 20
2.4949996018
 10
10.0881051779
 20
2.5662501713
 10
10.0614592036
 20
2.6353686648
 10
10.0377459233
 20
2.7026297397
 10
10.0172128793
 20
2.7665845607
 10
10.0002497559
 20
2.8266114498
 10
9.9870292646
 20
2.8820855954
 10
9.9773237844
 20
2.9329360331
 10
9.9709242049
 20
2.9793937294
 10
9.9677995056
 20
3.0211461329
 10
9.9679449087
 20
3.0580552977
 10
9.9711785565
 20
3.0904262644
 10
9.9774665323
 20
3.1180226749
 10
9.9868133635
 20
3.1406919697
 10
9.9990757607
 20
3.1585785201
 10
10.0141914273
 20
3.1715221256
 10
10.0321954584
 20
3.1792960622
 10
10.0530855049
 20
3.181862603
  0
LINE
  5
3B8
100
AcDbEntity
  8
RACCORDO
100
AcDbLine
 62
253
  6
CONTINUOUS
 10
15.274588609
 20
11.4159316436
 11
15.2745886128
 21
11.485727493
  0
LINE
  5
3B9
100
AcDbEntity
  8
IMPORT_IGES
100
AcDbLine
 62
253
  6
CONTINUOUS
 10
16.233828125
 20
17.7946852412
 11
16.233828125
 21
17.4946852412
  0
LINE
  5
3BA
100
AcDbEntity
  8
IMPORT_IGES
100
AcDbLine
 62
253
  6
CONTINUOUS
 10
16.233828125
 20
10.5946852412
 11
16.233828125
 21
10.2946852412
  0
LINE
  5
3BB
100
AcDbEntity
  8
IMPORT_IGES
100
AcDbLine
 62
253
  6
CONTINUOUS
 10
18.6230355687
 20
11.9213040383
 11
18.552326802
 21
11.784915779
  0
LINE
  5
3BC
100
AcDbEntity
  8
IMPORT_IGES
100
AcDbLine
 62
253
  6
CONTINUOUS
 10
18.6909385147
 20
12.0509748157
 11
18.6230355687
 21
11.9213040383
  0
LWPOLYLINE
  5
3BD
100
AcDbEntity
  8
IMPORT_IGES
100
AcDbPolyline
 62
7
  6
CONTINUOUS
 90
14
 70
0
 10
28.7112850709
 20
16.3373440109
 10
28.739617555
 20
16.3576583174
 10
28.7678934006
 20
16.3804199373
 10
28.7960027531
 20
16.4056565004
 10
28.8237695015
 20
16.4333269059
 10
28.8511297184
 20
16.4635050454
 10
28.8781193276
 20
16.4963996562
 10
28.9045595613
 20
16.5319889804
 10
28.9303200125
 20
16.5703169345
 10
28.9554558298
 20
16.6117210404
 10
28.9797823244
 20
16.6562950247
 10
29.0030597027
 20
16.7039457367
 10
29.0251895307
 20
16.7547482359
 10
29.0459426382
 20
16.8088101744
  0
LWPOLYLINE
  5
3BE
100
AcDbEntity
  8
IMPORT_IGES
100
AcDbPolyline
 62
253
  6
CONTINUOUS
 90
10
 70
0
 10
28.7555681135
 20
15.723674876
 10
28.8102062149
 20
15.7427186927
 10
28.862118353
 20
15.7648135712
 10
28.9106089018
 20
15.7897185965
 10
28.9547751716
 20
15.8169223228
 10
28.9944596709
 20
15.8462098437
 10
29.0299845396
 20
15.8778424847
 10
29.0608986537
 20
15.9115898628
 10
29.0866430426
 20
15.9469534543
 10
29.1070966264
 20
15.9838940259
  0
LINE
  5
3BF
100
AcDbEntity
  8
IMPORT_IGES
100
AcDbLine
 62
7
  6
CONTINUOUS
 10
43.033828125
 20
-29.3553147588
 11
43.133828125
 21
-29.4553147588
  0
LWPOLYLINE
  5
3C0
100
AcDbEntity
  8
IMPORT_IGES
100
AcDbPolyline
 62
7
  6
CONTINUOUS
 90
10
 70
0
 10
28.8929955917
 20
15.5327898191
 10
28.9222595236
 20
15.5597178527
 10
28.969628744
 20
15.6106864219
 10
29.0119018496
 20
15.6663959244
 10
29.0484155224
 20
15.7260641019
 10
29.0786568785
 20
15.7887601123
 10
29.102636059
 20
15.85451898
 10
29.1200019568
 20
15.922709166
 10
29.130398594
 20
15.9919414025
 10
29.133828125
 20
16.061147827
  0
LWPOLYLINE
  5
3C1
100
AcDbEntity
  8
IMPORT_IGES
100
AcDbPolyline
 62
253
  6
CONTINUOUS
 90
9
 70
0
 10
28.1428719337
 20
12.3151204088
 10
28.0981092222
 20
12.2774444992
 10
28.0536440218
 20
12.2394072407
 10
28.0094784716
 20
12.2010104821
 10
27.965614369
 20
12.1622557257
 10
27.92205417
 20
12.1231451936
 10
27.878800961
 20
12.0836818643
 10
27.8358571374
 20
12.0438680344
 10
27.7932244321
 20
12.0037052806
  0
LINE
  5
3C2
100
AcDbEntity
  8
IMPORT_IGES
100
AcDbLine
 62
7
  6
CONTINUOUS
 10
27.525757975
 20
11.8271575854
 11
27.7509050419
 21
11.9631953106
  0
LWPOLYLINE
  5
3C3
100
AcDbEntity
  8
IMPORT_IGES
100
AcDbPolyline
 62
253
  6
CONTINUOUS
 90
3
 70
0
 10
28.3451898066
 20
12.4334378624
 10
28.3425494043
 20
12.4319229616
 10
28.1428722185
 20
12.3151198965
  0
LWPOLYLINE
  5
3C4
100
AcDbEntity
  8
IMPORT_IGES
100
AcDbPolyline
 62
253
  6
CONTINUOUS
 90
25
 70
0
 10
8.8716332273
 20
4.2666539582
 10
8.8529173399
 20
4.2607894793
 10
8.8360034197
 20
4.2455041857
 10
8.8208967598
 20
4.2207992861
 10
8.8075164877
 20
4.1864588912
 10
8.7959694656
 20
4.1427036257
 10
8.7865401907
 20
4.0901903737
 10
8.7793034996
 20
4.0288036112
 10
8.7742159129
 20
3.9586675303
 10
8.7713731871
 20
3.8807987957
 10
8.770787863
 20
3.7957027911
 10
8.772483007
 20
3.7028852239
 10
8.7765695098
 20
3.6018639555
 10
8.7831621539
 20
3.4915638574
 10
8.7922165903
 20
3.373077042
 10
8.8035919802
 20
3.2491708103
 10
8.8173139082
 20
3.1201789065
 10
8.8333979417
 20
2.9857813419
 10
8.8516575939
 20
2.8477602265
 10
8.8718455855
 20
2.7076730168
 10
8.8942325112
 20
2.5639723119
 10
8.9194195304
 20
2.4137851582
 10
8.9476465976
 20
2.2561632234
 10
8.9787692036
 20
2.0920782712
 10
9.0128383039
 20
1.9215426457
  0
LINE
  5
3C5
100
AcDbEntity
  8
RACCORDO
100
AcDbLine
 62
253
  6
CONTINUOUS
 10
20.7338281243
 20
12.0586307034
 11
20.733828125
 21
16.0592876369
  0
LINE
  5
3C6
100
AcDbEntity
  8
IMPORT_IGES
100
AcDbLine
 62
7
  6
CONTINUOUS
 10
29.9941924949
 20
16.6886847977
 11
29.7563792823
 21
16.3373375678
  0
LINE
  5
3C7
100
AcDbEntity
  8
IMPORT_IGES
100
AcDbLine
 62
253
  6
CONTINUOUS
 10
29.5765232761
 20
15.535462033
 11
29.574657789
 21
15.5327890295
  0
LINE
  5
3C8
100
AcDbEntity
  8
IMPORT_IGES
100
AcDbLine
 62
253
  6
CONTINUOUS
 10
29.7120889218
 20
15.7236760279
 11
29.6573860962
 21
15.6470309151
  0
LINE
  5
3C9
100
AcDbEntity
  8
IMPORT_IGES
100
AcDbLine
 62
253
  6
CONTINUOUS
 10
29.6573860962
 20
15.6470309151
 11
29.6030547242
 21
15.5716883509
  0
LINE
  5
3CA
100
AcDbEntity
  8
IMPORT_IGES
100
AcDbLine
 62
253
  6
CONTINUOUS
 10
29.6030547242
 20
15.5716883509
 11
29.5765232761
 21
15.535462033
  0
LWPOLYLINE
  5
3CB
100
AcDbEntity
  8
IMPORT_IGES
100
AcDbPolyline
 62
253
  6
CONTINUOUS
 90
3
 70
0
 10
28.2084453688
 20
11.5850457645
 10
28.2364058366
 20
11.6224727545
 10
28.2597642405
 20
11.6641480433
  0
LWPOLYLINE
  5
3CC
100
AcDbEntity
  8
IMPORT_IGES
100
AcDbPolyline
 62
7
  6
CONTINUOUS
 90
14
 70
0
 10
28.2466411764
 20
11.6192385057
 10
28.2920159855
 20
11.6735764766
 10
28.3318818801
 20
11.7325692029
 10
28.3653817488
 20
11.7949531468
 10
28.3922644711
 20
11.8599989645
 10
28.4125654782
 20
11.9277657589
 10
28.4259269015
 20
11.9972631617
 10
28.4321887753
 20
12.0673898795
 10
28.4313515866
 20
12.1381604718
 10
28.4233822853
 20
12.2084246339
 10
28.4084612626
 20
12.2771688619
 10
28.3865470475
 20
12.3445107684
 10
28.3577492821
 20
12.4096740453
 10
28.3451798436
 20
12.4334537533
  0
LINE
  5
3CD
100
AcDbEntity
  8
IMPORT_IGES
100
AcDbLine
 62
253
  6
CONTINUOUS
 10
28.1763764781
 20
11.5523045136
 11
28.2084453688
 21
11.5850457645
  0
LINE
  5
3CE
100
AcDbEntity
  8
IMPORT_IGES
100
AcDbLine
 62
7
  6
CONTINUOUS
 10
28.1967253429
 20
11.5703936603
 11
28.2466411764
 21
11.6192385057
  0
LINE
  5
3CF
100
AcDbEntity
  8
IMPORT_IGES
100
AcDbLine
 62
253
  6
CONTINUOUS
 10
27.7932244321
 20
12.0037052806
 11
27.750904896
 21
11.9631955521
  0
LWPOLYLINE
  5
3D0
100
AcDbEntity
  8
IMPORT_IGES
100
AcDbPolyline
 62
253
  6
CONTINUOUS
 90
10
 70
0
 10
50.818374599
 20
24.1147706664
 10
50.7782100914
 20
24.0911265545
 10
50.7419246434
 20
24.0675012522
 10
50.709762633
 20
24.0440259402
 10
50.6819759656
 20
24.0208769927
 10
50.6586502897
 20
23.9981353777
 10
50.6397922534
 20
23.9757942682
 10
50.6255144519
 20
23.9539405987
 10
50.61594224
 20
23.9327425999
 10
50.6111054243
 20
23.9123162288
  0
LWPOLYLINE
  5
3D1
100
AcDbEntity
  8
IMPORT_IGES
100
AcDbPolyline
 62
7
  6
CONTINUOUS
 90
18
 70
0
 10
49.4343289014
 20
0.0337583796
 10
49.5251927954
 20
0.0548681911
 10
49.6145512517
 20
0.0825241848
 10
49.7014303958
 20
0.11642204
 10
49.7853866127
 20
0.1563211115
 10
49.8664723709
 20
0.2022375156
 10
49.944063124
 20
0.2538462134
 10
50.0175532315
 20
0.3107105276
 10
50.0869660392
 20
0.372844909
 10
50.1517510143
 20
0.4397910071
 10
50.2114288063
 20
0.5110167777
 10
50.2660147692
 20
0.5865453094
 10
50.3150487097
 20
0.6657883106
 10
50.358181392
 20
0.7481344047
 10
50.3954309252
 20
0.833635837
 10
50.4265393044
 20
0.9218586738
 10
50.45116422
 20
1.0118411772
 10
50.4555191381
 20
1.0309845134
  0
LWPOLYLINE
  5
3D2
100
AcDbEntity
  8
IMPORT_IGES
100
AcDbPolyline
 62
7
  6
CONTINUOUS
 90
4
 70
0
 10
28.487331871
 20
16.7419702982
 10
28.4834630999
 20
16.72566049
 10
28.4787331995
 20
16.7074361958
 10
28.4734733197
 20
16.6887206433
  0
LINE
  5
3D3
100
AcDbEntity
  8
IMPORT_IGES
100
AcDbLine
 62
7
  6
CONTINUOUS
 10
29.0459426382
 20
16.8088101744
 11
29.0553976947
 21
16.8371024062
  0
LWPOLYLINE
  5
3D4
100
AcDbEntity
  8
IMPORT_IGES
100
AcDbPolyline
 62
253
  6
CONTINUOUS
 90
3
 70
0
 10
29.1070966264
 20
15.9838940259
 10
29.1219377987
 20
16.0220877739
 10
29.1308665839
 20
16.0609013033
  0
LWPOLYLINE
  5
3D5
100
AcDbEntity
  8
IMPORT_IGES
100
AcDbPolyline
 62
253
  6
CONTINUOUS
 90
13
 70
0
 10
28.2597642405
 20
11.6641480433
 10
28.2780722722
 20
11.7092660882
 10
28.2912389818
 20
11.7573429836
 10
28.2993022101
 20
11.8084390705
 10
28.302127794
 20
11.8619128008
 10
28.2997081137
 20
11.917009575
 10
28.2920427092
 20
11.9737679538
 10
28.2792010149
 20
12.0314157439
 10
28.2613820646
 20
12.0892006908
 10
28.2385516023
 20
12.1471954724
 10
28.2108405234
 20
12.2048529029
 10
28.178767967
 20
12.2610781764
 10
28.1428718528
 20
12.3151196638
  0
LINE
  5
3D6
100
AcDbEntity
  8
IMPORT_IGES
100
AcDbLine
 62
7
  6
CONTINUOUS
 10
30.7167513494
 20
11.9631956102
 11
30.6881341494
 21
11.9081796278
  0
LWPOLYLINE
  5
3D7
100
AcDbEntity
  8
IMPORT_IGES
100
AcDbPolyline
 62
7
  6
CONTINUOUS
 90
14
 70
0
 10
30.1224764064
 20
12.4334537533
 10
30.1083687553
 20
12.4066047953
 10
30.0799977883
 20
12.3415845142
 10
30.0584572165
 20
12.2744173264
 10
30.043855662
 20
12.2058588863
 10
30.0361625427
 20
12.1358232224
 10
30.0355504878
 20
12.0653270719
 10
30.041981503
 20
11.995482262
 10
30.0554582348
 20
11.9262745689
 10
30.0758144465
 20
11.8588135886
 10
30.1026956014
 20
11.7940653774
 10
30.1361495641
 20
11.7319488143
 10
30.1759269291
 20
11.6731958463
 10
30.2211624639
 20
11.6190791758
  0
LWPOLYLINE
  5
3D8
100
AcDbEntity
  8
IMPORT_IGES
100
AcDbPolyline
 62
253
  6
CONTINUOUS
 90
13
 70
0
 10
30.3247840611
 20
12.3151201627
 10
30.2888835092
 20
12.2610716937
 10
30.2568180003
 20
12.20485884
 10
30.2291163384
 20
12.1472242868
 10
30.2062886783
 20
12.0892446242
 10
30.1884659382
 20
12.0314594965
 10
30.175620287
 20
11.9738107054
 10
30.1679516437
 20
11.9170583989
 10
30.1655274555
 20
11.8619610487
 10
30.1683491194
 20
11.808478888
 10
30.176408384
 20
11.7573813347
 10
30.1895708098
 20
11.7093035102
 10
30.2078805494
 20
11.6641709599
  0
LWPOLYLINE
  5
3D9
100
AcDbEntity
  8
IMPORT_IGES
100
AcDbPolyline
 62
253
  6
CONTINUOUS
 90
3
 70
0
 10
32.9357192884
 20
-1.9837230977
 10
32.943973715
 20
-1.981402717
 10
33.6040745622
 20
-1.7915207183
  0
LWPOLYLINE
  5
3DA
100
AcDbEntity
  8
IMPORT_IGES
100
AcDbPolyline
 62
253
  6
CONTINUOUS
 90
5
 70
0
 10
47.6700751385
 20
-0.9950111095
 10
47.6602470253
 20
-0.9957407805
 10
47.6439429429
 20
-0.9964033222
 10
47.6213977546
 20
-0.9969968506
 10
47.5929693634
 20
-0.9975184409
  0
LINE
  5
3DB
100
AcDbEntity
  8
IMPORT_IGES
100
AcDbLine
 62
253
  6
CONTINUOUS
 10
34.9008715657
 20
-1.7915195711
 11
34.2869912458
 21
-1.7951714651
  0
LINE
  5
3DC
100
AcDbEntity
  8
IMPORT_IGES
100
AcDbLine
 62
253
  6
CONTINUOUS
 10
34.2869912458
 20
-1.7951714651
 11
33.9295064501
 21
-1.7956204051
  0
LINE
  5
3DD
100
AcDbEntity
  8
IMPORT_IGES
100
AcDbLine
 62
253
  6
CONTINUOUS
 10
33.9295064501
 20
-1.7956204051
 11
33.7660223278
 21
-1.7949450113
  0
LWPOLYLINE
  5
3DE
100
AcDbEntity
  8
IMPORT_IGES
100
AcDbPolyline
 62
253
  6
CONTINUOUS
 90
6
 70
0
 10
33.7660223278
 20
-1.7949450113
 10
33.6858670954
 20
-1.7940980336
 10
33.6552978897
 20
-1.7935600602
 10
33.6313670089
 20
-1.7929489969
 10
33.6142419864
 20
-1.7922675803
 10
33.6040609467
 20
-1.7915190534
  0
LWPOLYLINE
  5
3DF
100
AcDbEntity
  8
IMPORT_IGES
100
AcDbPolyline
 62
253
  6
CONTINUOUS
 90
19
 70
0
 10
10.3537760587
 20
0.1154834236
 10
10.2621951996
 20
0.125204548
 10
10.1715265639
 20
0.141477794
 10
10.0822319594
 20
0.1642203511
 10
9.9947663193
 20
0.193316488
 10
9.9095750799
 20
0.2286181081
 10
9.827091604
 20
0.2699454717
 10
9.747735499
 20
0.3170881721
 10
9.6719108787
 20
0.369806236
 10
9.6000038224
 20
0.4278312903
 10
9.53238041
 20
0.490867949
 10
9.4693848599
 20
0.5585953081
 10
9.4113378955
 20
0.6306685762
 10
9.3585350184
 20
0.7067208506
 10
9.3112450264
 20
0.7863649648
 10
9.2697086799
 20
0.8691954462
 10
9.2341374287
 20
0.9547906152
 10
9.2047123408
 20
1.0427147349
 10
9.1815832035
 20
1.1325202053
  0
LWPOLYLINE
  5
3E0
100
AcDbEntity
  8
IMPORT_IGES
100
AcDbPolyline
 62
253
  6
CONTINUOUS
 90
13
 70
0
 10
7.8859082314
 20
24.9293734496
 10
7.9226011138
 20
24.8730419531
 10
7.9552317816
 20
24.8167511739
 10
7.98355824
 20
24.7608524734
 10
8.0073457961
 20
24.7058088246
 10
8.0265246247
 20
24.6518429993
 10
8.0410974084
 20
24.5989494409
 10
8.0509604276
 20
24.5474564568
 10
8.0560676631
 20
24.4976751937
 10
8.0564189318
 20
24.4496009229
 10
8.0519824147
 20
24.4034451048
 10
8.042794846
 20
24.3595900454
 10
8.0289575649
 20
24.3182850624
  0
LINE
  5
3E1
100
AcDbEntity
  8
IMPORT_IGES
100
AcDbLine
 62
7
  6
CONTINUOUS
 10
29.133828125
 20
16.0611429233
 11
29.133828125
 21
16.842484889
  0
LINE
  5
3E2
100
AcDbEntity
  8
IMPORT_IGES
100
AcDbLine
 62
7
  6
CONTINUOUS
 10
29.333828125
 20
16.8409810513
 11
29.333828125
 21
16.0611402758
  0
LWPOLYLINE
  5
3E3
100
AcDbEntity
  8
IMPORT_IGES
100
AcDbPolyline
 62
7
  6
CONTINUOUS
 90
6
 70
0
 10
27.83276583
 20
11.6210682118
 10
27.8337004365
 20
11.650881289
 10
27.8298445635
 20
11.7192051516
 10
27.8195153331
 20
11.7850981352
 10
27.8026055157
 20
11.8483690451
 10
27.7796114407
 20
11.9079345059
  0
LINE
  5
3E4
100
AcDbEntity
  8
IMPORT_IGES
100
AcDbLine
 62
253
  6
CONTINUOUS
 10
29.7423478697
 20
16.1269612502
 11
29.7563775289
 21
16.3373387547
  0
LINE
  5
3E5
100
AcDbEntity
  8
IMPORT_IGES
100
AcDbLine
 62
253
  6
CONTINUOUS
 10
29.7275694715
 20
15.9223536322
 11
29.7423478697
 21
16.1269612502
  0
LINE
  5
3E6
100
AcDbEntity
  8
IMPORT_IGES
100
AcDbLine
 62
253
  6
CONTINUOUS
 10
29.1308665839
 20
16.0609013033
 11
29.133828125
 21
16.0998194805
  0
LWPOLYLINE
  5
3E7
100
AcDbEntity
  8
IMPORT_IGES
100
AcDbPolyline
 62
253
  6
CONTINUOUS
 90
3
 70
0
 10
29.712088509
 20
15.723676381
 10
29.7173695712
 20
15.7892296671
 10
29.7275694715
 20
15.9223536322
  0
LWPOLYLINE
  5
3E8
100
AcDbEntity
  8
IMPORT_IGES
100
AcDbPolyline
 62
7
  6
CONTINUOUS
 90
6
 70
0
 10
30.6881341494
 20
11.9081796278
 10
30.6651825712
 20
11.8488283699
 10
30.6482712878
 20
11.785728747
 10
30.6378967143
 20
11.7199429142
 10
30.6339695146
 20
11.6516665753
 10
30.6348574421
 20
11.6224092662
  0
LWPOLYLINE
  5
3E9
100
AcDbEntity
  8
IMPORT_IGES
100
AcDbPolyline
 62
253
  6
CONTINUOUS
 90
19
 70
0
 10
48.4145727413
 20
3.1818626629
 10
48.5100564572
 20
3.1923186428
 10
48.6043348187
 20
3.2098827168
 10
48.696538498
 20
3.2343086133
 10
48.7851738055
 20
3.2649473109
 10
48.8702083622
 20
3.3014460062
 10
48.9529827012
 20
3.3443001299
 10
49.0331617693
 20
3.3935107745
 10
49.1096937241
 20
3.4485525641
 10
49.1826926266
 20
3.5096404422
 10
49.2515749935
 20
3.5765170883
 10
49.3155837531
 20
3.6486167093
 10
49.3744553686
 20
3.7257997968
 10
49.4275300865
 20
3.8073409271
 10
49.4744218722
 20
3.8926869525
 10
49.5151184893
 20
3.9819887754
 10
49.5492388963
 20
4.0747930127
 10
49.5762803866
 20
4.1699746036
 10
49.5960229744
 20
4.2666540139
  0
LINE
  5
3EA
100
AcDbEntity
  8
IMPORT_IGES
100
AcDbLine
 62
253
  6
CONTINUOUS
 10
47.5929693634
 20
-0.9975184409
 11
47.5190424397
 21
-0.9983513251
  0
LINE
  5
3EB
100
AcDbEntity
  8
IMPORT_IGES
100
AcDbLine
 62
253
  6
CONTINUOUS
 10
32.2855469528
 20
-0.5053576165
 11
31.2684520937
 21
-0.5145990873
  0
LWPOLYLINE
  5
3EC
100
AcDbEntity
  8
IMPORT_IGES
100
AcDbPolyline
 62
253
  6
CONTINUOUS
 90
10
 70
0
 10
32.2713782852
 20
0.7829821696
 10
29.8439942006
 20
0.7670953156
 10
27.4169306045
 20
0.7723496033
 10
24.9901874969
 20
0.7987450325
 10
22.5635796763
 20
0.8462868463
 10
20.1372923441
 20
0.9149698017
 10
17.7118811051
 20
1.0047781703
 10
15.2875311611
 20
1.1157067094
 10
12.8640573103
 20
1.2477606618
 10
10.4414595528
 20
1.4009400275
  0
LINE
  5
3ED
100
AcDbEntity
  8
IMPORT_IGES
100
AcDbLine
 62
253
  6
CONTINUOUS
 10
31.2684520937
 20
-0.5145990873
 11
30.2511468289
 21
-0.5201451606
  0
LINE
  5
3EE
100
AcDbEntity
  8
IMPORT_IGES
100
AcDbLine
 62
253
  6
CONTINUOUS
 10
47.5190424397
 20
-0.9983513251
 11
47.3663227956
 21
-0.9990701684
  0
LWPOLYLINE
  5
3EF
100
AcDbEntity
  8
IMPORT_IGES
100
AcDbPolyline
 62
7
  6
CONTINUOUS
 90
25
 70
0
 10
31.6238034752
 20
-0.6951174423
 10
31.6459215
 20
-0.6951019927
 10
31.7365166751
 20
-0.6989720048
 10
31.8268853805
 20
-0.7091871312
 10
31.9160213154
 20
-0.7256296197
 10
32.0034762312
 20
-0.7481491727
 10
32.0893828612
 20
-0.7767701841
 10
32.1731287184
 20
-0.8113199289
 10
32.2540395885
 20
-0.8514963018
 10
32.3321618722
 20
-0.897319654
 10
32.4069310905
 20
-0.948491134
 10
32.4777869655
 20
-1.004603752
 10
32.5447298218
 20
-1.0656577507
 10
32.6072576644
 20
-1.1312263458
 10
32.6649325338
 20
-1.2008171389
 10
32.7177547017
 20
-1.2744305934
 10
32.7653050877
 20
-1.3515162752
 10
32.8072720483
 20
-1.4315163881
 10
32.8436765271
 20
-1.5144762991
 10
32.8742017672
 20
-1.5997296886
 10
32.8986611687
 20
-1.6866680082
 10
32.9170815207
 20
-1.7754217932
 10
32.9293026887
 20
-1.865546412
 10
32.9351846558
 20
-1.9560399274
 10
32.9357209601
 20
-1.9837178373
  0
LINE
  5
3F0
100
AcDbEntity
  8
IMPORT_IGES
100
AcDbLine
 62
253
  6
CONTINUOUS
 10
30.2511468289
 20
-0.5201451606
 11
29.233828125
 21
-0.5219939044
  0
LINE
  5
3F1
100
AcDbEntity
  8
IMPORT_IGES
100
AcDbLine
 62
253
  6
CONTINUOUS
 10
47.3663227956
 20
-0.9990701684
 11
47.0108123559
 21
-0.9987422194
  0
LINE
  5
3F2
100
AcDbEntity
  8
IMPORT_IGES
100
AcDbLine
 62
253
  6
CONTINUOUS
 10
47.0108123559
 20
-0.9987422194
 11
46.3732643439
 21
-0.9950110413
  0
LWPOLYLINE
  5
3F3
100
AcDbEntity
  8
IMPORT_IGES
100
AcDbPolyline
 62
253
  6
CONTINUOUS
 90
28
 70
0
 10
32.2713782852
 20
0.7829821696
 10
32.4230336135
 20
0.7804852042
 10
32.5735817046
 20
0.7691301385
 10
32.7230225585
 20
0.7489169724
 10
32.8719948007
 20
0.7196089487
 10
33.0198598056
 20
0.6814428247
 10
33.1647016968
 20
0.635128872
 10
33.306413373
 20
0.5807086555
 10
33.4451019354
 20
0.5181406103
 10
33.5791728114
 20
0.4480103142
 10
33.7082694733
 20
0.37040136
 10
33.8327484488
 20
0.2852301549
 10
33.9520847479
 20
0.1928314987
 10
34.0666020451
 20
0.0929366342
 10
34.175976666
 20
-0.0141856815
 10
34.2787125976
 20
-0.1273943771
 10
34.3747892554
 20
-0.2470246526
 10
34.4642272238
 20
-0.3727413079
 10
34.5455922434
 20
-0.5023976717
 10
34.6185060152
 20
-0.6357644254
 10
34.6833468382
 20
-0.7730708875
 10
34.7398153489
 20
-0.9128583422
 10
34.7878613242
 20
-1.0549829895
 10
34.8275349873
 20
-1.1995886294
 10
34.8586876441
 20
-1.3456479453
 10
34.8812697299
 20
-1.4928184984
 10
34.8953308095
 20
-1.6414427275
 10
34.9008708828
 20
-1.7915206325
  0
LWPOLYLINE
  5
3F4
100
AcDbEntity
  8
IMPORT_IGES
100
AcDbPolyline
 62
253
  6
CONTINUOUS
 90
22
 70
0
 10
32.2859850058
 20
-0.5053560886
 10
32.3841406938
 20
-0.507843541
 10
32.4823401538
 20
-0.5177155268
 10
32.5796759891
 20
-0.5349657071
 10
32.6749156916
 20
-0.5593363211
 10
32.767530658
 20
-0.590574725
 10
32.8576960268
 20
-0.6287146595
 10
32.9446970971
 20
-0.6734782025
 10
33.0277366396
 20
-0.7244024418
 10
33.1068427726
 20
-0.781490894
 10
33.1813504588
 20
-0.8442793234
 10
33.2506621687
 20
-0.9121986723
 10
33.314806225
 20
-0.985267337
 10
33.3732191458
 20
-1.0628693546
 10
33.4254619426
 20
-1.1443471868
 10
33.4715753585
 20
-1.229771139
 10
33.511121914
 20
-1.3184036291
 10
33.5438030445
 20
-1.4094917909
 10
33.5696416465
 20
-1.5031152157
 10
33.5884125825
 20
-1.5987294173
 10
33.5998881381
 20
-1.6951644206
 10
33.6040764433
 20
-1.7915440074
  0
LWPOLYLINE
  5
3F5
100
AcDbEntity
  8
IMPORT_IGES
100
AcDbPolyline
 62
253
  6
CONTINUOUS
 90
13
 70
0
 10
10.2762628923
 20
2.1733371505
 10
13.4328429889
 20
1.9777209088
 10
16.5906287047
 20
1.8176656492
 10
19.7496200397
 20
1.6931713717
 10
22.9102188669
 20
1.6042312321
 10
26.0720233133
 20
1.5508520746
 10
29.2338277602
 20
1.5330544317
 10
32.3956322454
 20
1.5508519937
 10
35.557436731
 20
1.6042310703
 10
38.7180354849
 20
1.6931711233
 10
41.8770265963
 20
1.8176653065
 10
45.0348119761
 20
1.9777204661
 10
48.191391624
 20
2.1733366021
  0
LWPOLYLINE
  5
3F6
100
AcDbEntity
  8
IMPORT_IGES
100
AcDbPolyline
 62
253
  6
CONTINUOUS
 90
10
 70
0
 10
10.3537775311
 20
0.1154842717
 10
12.4488941029
 20
-0.0182677089
 10
14.5449519388
 20
-0.1363016726
 10
16.6418332027
 20
-0.2386110384
 10
18.7394193062
 20
-0.325190137
 10
20.8375930347
 20
-0.3960341375
 10
22.9362385559
 20
-0.4511389945
 10
25.0352385989
 20
-0.4905015719
 10
27.1344744589
 20
-0.5141196956
 10
29.233828125
 20
-0.521992043
  0
LWPOLYLINE
  5
3F7
100
AcDbEntity
  8
IMPORT_IGES
100
AcDbPolyline
 62
253
  6
CONTINUOUS
 90
19
 70
0
 10
10.6433328157
 20
3.2341816797
 10
10.5484384367
 20
3.2443829476
 10
10.4542790177
 20
3.2616672214
 10
10.3614529951
 20
3.2859410744
 10
10.2705498952
 20
3.3171153875
 10
10.1821501653
 20
3.3550632017
 10
10.0967579412
 20
3.3995481729
 10
10.0148128558
 20
3.4503440804
 10
9.9367898748
 20
3.5072062946
 10
9.8631871481
 20
3.5697749266
 10
9.7944072362
 20
3.6376671064
 10
9.7308438007
 20
3.710507651
 10
9.672912298
 20
3.7878420216
 10
9.6209015321
 20
3.8692241844
 10
9.5750698884
 20
3.9542131023
 10
9.5356923185
 20
4.0423094066
 10
9.502962486
 20
4.1329700992
 10
9.4770107957
 20
4.2256171621
 10
9.4579766356
 20
4.3196602627
  0
LWPOLYLINE
  5
3F8
100
AcDbEntity
  8
IMPORT_IGES
100
AcDbPolyline
 62
253
  6
CONTINUOUS
 90
19
 70
0
 10
10.0530810515
 20
3.18186257
 10
9.9579636908
 20
3.1922646682
 10
9.8639582948
 20
3.2097390706
 10
9.7719082632
 20
3.2340673566
 10
9.6832315411
 20
3.2646572827
 10
9.5980039388
 20
3.3011831068
 10
9.5150516727
 20
3.3440864488
 10
9.4347615637
 20
3.3933328633
 10
9.3581318396
 20
3.4484208691
 10
9.285062517
 20
3.5095509804
 10
9.2161509257
 20
3.5764439035
 10
9.1521368024
 20
3.6485382533
 10
9.0932596599
 20
3.7257160649
 10
9.0401864648
 20
3.8072398168
 10
8.9932991117
 20
3.8925574658
 10
8.9525896674
 20
3.9818619473
 10
8.918445646
 20
4.0747053372
 10
8.8913856074
 20
4.1699336784
 10
8.8716330633
 20
4.2666539311
  0
LINE
  5
3F9
100
AcDbEntity
  8
IMPORT_IGES
100
AcDbLine
 62
253
  6
CONTINUOUS
 10
18.3242685581
 20
11.7555677559
 11
18.1220099432
 21
11.9771336889
  0
LINE
  5
3FA
100
AcDbEntity
  8
IMPORT_IGES
100
AcDbLine
 62
253
  6
CONTINUOUS
 10
18.5519431762
 20
16.3042533468
 11
18.6909385146
 21
16.0383956667
  0
LINE
  5
3FB
100
AcDbEntity
  8
IMPORT_IGES
100
AcDbLine
 62
253
  6
CONTINUOUS
 10
28.7451333628
 20
15.8554683818
 11
28.755567734
 21
15.7236763749
  0
LINE
  5
3FC
100
AcDbEntity
  8
IMPORT_IGES
100
AcDbLine
 62
253
  6
CONTINUOUS
 10
29.3367924168
 20
16.0608833224
 11
29.333828125
 21
16.0998195391
  0
LINE
  5
3FD
100
AcDbEntity
  8
IMPORT_IGES
100
AcDbLine
 62
253
  6
CONTINUOUS
 10
28.7301426517
 20
16.0581229714
 11
28.7451333628
 21
15.8554683818
  0
LWPOLYLINE
  5
3FE
100
AcDbEntity
  8
IMPORT_IGES
100
AcDbPolyline
 62
253
  6
CONTINUOUS
 90
3
 70
0
 10
28.7112786618
 20
16.3373387145
 10
28.7159197666
 20
16.2665922776
 10
28.7301426517
 20
16.0581229714
  0
LWPOLYLINE
  5
3FF
100
AcDbEntity
  8
IMPORT_IGES
100
AcDbPolyline
 62
7
  6
CONTINUOUS
 90
10
 70
0
 10
29.333828125
 20
16.0611478274
 10
29.3372212279
 20
15.9923090382
 10
29.3475104593
 20
15.9234239939
 10
29.3647007383
 20
15.8555558087
 10
29.3884383322
 20
15.7900920916
 10
29.4183724651
 20
15.727661524
 10
29.4545190114
 20
15.6682111117
 10
29.4963911583
 20
15.6126399599
 10
29.5433278541
 20
15.5617414227
 10
29.5746606583
 20
15.5327898191
  0
LINE
  5
400
100
AcDbEntity
  8
IMPORT_IGES
100
AcDbLine
 62
253
  6
CONTINUOUS
 10
32.2855469528
 20
-0.5053576165
 11
32.271378511
 21
0.782982174
  0
LINE
  5
401
100
AcDbEntity
  8
IMPORT_IGES
100
AcDbLine
 62
253
  6
CONTINUOUS
 10
39.8446206813
 20
16.1680664441
 11
39.915329448
 21
16.3044547034
  0
LINE
  5
402
100
AcDbEntity
  8
IMPORT_IGES
100
AcDbLine
 62
253
  6
CONTINUOUS
 10
39.7767177353
 20
16.0383956667
 11
39.8446206813
 21
16.1680664441
  0
LINE
  5
403
100
AcDbEntity
  8
IMPORT_IGES
100
AcDbLine
 62
253
  6
CONTINUOUS
 10
40.3456463099
 20
11.9771336861
 11
40.1433470105
 21
11.7556049213
  0
LINE
  5
404
100
AcDbEntity
  8
IMPORT_IGES
100
AcDbLine
 62
253
  6
CONTINUOUS
 10
32.2857197705
 20
-0.5053608626
 11
31.6239049704
 21
-0.6951137385
  0
LWPOLYLINE
  5
405
100
AcDbEntity
  8
IMPORT_IGES
100
AcDbPolyline
 62
253
  6
CONTINUOUS
 90
6
 70
0
 10
9.1815832035
 20
1.1325202053
 10
9.1952707587
 20
1.1348188029
 10
9.2148753485
 20
1.1383802721
 10
9.2402947426
 20
1.1432086841
 10
9.2714281698
 20
1.14935831
 10
9.3502478191
 20
1.1653757753
  0
LINE
  5
406
100
AcDbEntity
  8
IMPORT_IGES
100
AcDbLine
 62
253
  6
CONTINUOUS
 10
9.1817962774
 20
1.131603689
 11
8.0122988412
 21
1.030233376
  0
LINE
  5
407
100
AcDbEntity
  8
IMPORT_IGES
100
AcDbLine
 62
253
  6
CONTINUOUS
 10
9.1887506515
 20
0.0131160873
 11
10.3537775311
 21
0.1154842717
  0
LWPOLYLINE
  5
408
100
AcDbEntity
  8
IMPORT_IGES
100
AcDbPolyline
 62
253
  6
CONTINUOUS
 90
10
 70
0
 10
48.4145726587
 20
3.1818623895
 10
46.2861828457
 20
3.0438035017
 10
44.1568034853
 20
2.9219679845
 10
42.0265581328
 20
2.8163629074
 10
39.8955702668
 20
2.7269943952
 10
37.7639636625
 20
2.653867639
 10
35.6318623847
 20
2.5969868859
 10
33.4993902737
 20
2.5563554288
 10
31.3666709374
 20
2.5319756162
 10
29.233828125
 20
2.523848856
  0
LWPOLYLINE
  5
409
100
AcDbEntity
  8
IMPORT_IGES
100
AcDbPolyline
 62
253
  6
CONTINUOUS
 90
13
 70
0
 10
47.7579275126
 20
4.2142002253
 10
44.673431356
 20
4.0259714739
 10
41.5877937037
 20
3.8719609211
 10
38.5010145558
 20
3.752168567
 10
35.4127134138
 20
3.6665880431
 10
32.3232707761
 20
3.6152257178
 10
29.2338281384
 20
3.5981006968
 10
26.1443854999
 20
3.615225717
 10
23.0549428615
 20
3.6665880415
 10
19.9666417209
 20
3.7521685645
 10
16.8798625773
 20
3.8719609176
 10
13.7942249315
 20
4.0259714692
 10
10.7097287836
 20
4.2142002194
  0
LWPOLYLINE
  5
40A
100
AcDbEntity
  8
IMPORT_IGES
100
AcDbPolyline
 62
253
  6
CONTINUOUS
 90
10
 70
0
 10
29.2338232497
 20
2.6158739062
 10
31.3009374464
 20
2.62351009
 10
33.3679387631
 20
2.6464183025
 10
35.4347145426
 20
2.6845972915
 10
37.501152483
 20
2.7380449803
 10
39.5671396146
 20
2.8067584511
 10
41.6325623072
 20
2.8907339197
 10
43.6973076482
 20
2.9899667705
 10
45.7612634477
 20
3.1044515816
 10
47.8243172165
 20
3.2341820908
  0
LWPOLYLINE
  5
40B
100
AcDbEntity
  8
IMPORT_IGES
100
AcDbPolyline
 62
253
  6
CONTINUOUS
 90
10
 70
0
 10
29.233828125
 20
2.523848856
 10
27.1009855052
 20
2.531975615
 10
24.9682663612
 20
2.5563554234
 10
22.8357944421
 20
2.5969868733
 10
20.7036933558
 20
2.6538676164
 10
18.5720869427
 20
2.7269943596
 10
16.4410992679
 20
2.8163628558
 10
14.3108541067
 20
2.9219679141
 10
12.1814749378
 20
3.0438034095
 10
10.0530853162
 20
3.1818622725
  0
LWPOLYLINE
  5
40C
100
AcDbEntity
  8
IMPORT_IGES
100
AcDbPolyline
 62
253
  6
CONTINUOUS
 90
10
 70
0
 10
10.6433382604
 20
3.2341821423
 10
12.706397869
 20
3.1044512818
 10
14.7703576938
 20
2.9899662999
 10
16.8351052424
 20
2.8907334184
 10
18.9005281764
 20
2.8067580245
 10
20.9665137277
 20
2.7380446858
 10
23.0329487048
 20
2.6845971363
 10
25.0997202845
 20
2.6464182611
 10
27.1667160184
 20
2.6235101105
 10
29.2338232497
 20
2.6158739062
  0
LINE
  5
40D
100
AcDbEntity
  8
IMPORT_IGES
100
AcDbLine
 62
253
  6
CONTINUOUS
 10
50.4553574344
 20
1.0302334909
 11
49.2858580795
 21
1.1315981798
  0
LWPOLYLINE
  5
40E
100
AcDbEntity
  8
IMPORT_IGES
100
AcDbPolyline
 62
253
  6
CONTINUOUS
 90
13
 70
0
 10
10.7097287836
 20
4.2142002194
 10
10.6750498815
 20
4.2187167839
 10
10.6418911063
 20
4.2266905935
 10
10.610252458
 20
4.2381216482
 10
10.5797359534
 20
4.2532707866
 10
10.5507395756
 20
4.27187717
 10
10.5244572739
 20
4.2931582828
 10
10.5010812429
 20
4.3172677003
 10
10.480419288
 20
4.3440518471
 10
10.4630887746
 20
4.3722674811
 10
10.4492954912
 20
4.4015001882
 10
10.4388336492
 20
4.4321643825
 10
10.4317032488
 20
4.464260064
  0
LWPOLYLINE
  5
40F
100
AcDbEntity
  8
IMPORT_IGES
100
AcDbPolyline
 62
253
  6
CONTINUOUS
 90
8
 70
0
 10
49.4120695974
 20
0.0296231807
 10
49.3753507952
 20
0.0354696468
 10
49.3101051686
 20
0.0460854387
 10
49.212304946
 20
0.062524538
 10
49.0820910567
 20
0.0854256211
 10
48.9195572157
 20
0.1156484684
 10
48.724644239
 20
0.1542812193
 10
48.4971839102
 20
0.2026570637
  0
LWPOLYLINE
  5
410
100
AcDbEntity
  8
IMPORT_IGES
100
AcDbPolyline
 62
253
  6
CONTINUOUS
 90
4
 70
0
 10
48.2599569216
 20
-1.2161515126
 10
48.3187103426
 20
-1.233742717
 10
48.3334871873
 20
-1.238009293
 10
48.3384344672
 20
-1.2391827099
  0
LINE
  5
411
100
AcDbEntity
  8
IMPORT_IGES
100
AcDbLine
 62
7
  6
CONTINUOUS
 10
33.0751774126
 20
-17.9640412943
 11
32.9357192426
 21
-1.9837178525
  0
LINE
  5
412
100
AcDbEntity
  8
IMPORT_IGES
100
AcDbLine
 62
253
  6
CONTINUOUS
 10
33.6040609467
 20
-1.7915190534
 11
33.735702329
 21
-17.9640431031
  0
LINE
  5
413
100
AcDbEntity
  8
IMPORT_IGES
100
AcDbLine
 62
253
  6
CONTINUOUS
 10
35.03251362
 20
-17.9640412508
 11
34.9008708828
 21
-1.7915206325
  0
LINE
  5
414
100
AcDbEntity
  8
IMPORT_IGES
100
AcDbLine
 62
253
  6
CONTINUOUS
 10
35.0325139839
 20
-17.9640412943
 11
35.0325139839
 21
-18.9553147588
  0
LWPOLYLINE
  5
415
100
AcDbEntity
  8
IMPORT_IGES
100
AcDbPolyline
 62
253
  6
CONTINUOUS
 90
13
 70
0
 10
50.5817478614
 20
24.9293762438
 10
50.5450612668
 20
24.8730554425
 10
50.5124347832
 20
24.8167742915
 10
50.4841103152
 20
24.760883551
 10
50.4603251168
 20
24.7058518406
 10
50.4411449037
 20
24.6518921461
 10
50.4265658165
 20
24.5989885872
 10
50.4166998467
 20
24.5474978222
 10
50.4115893935
 20
24.4977243956
 10
50.4112342384
 20
24.4496309175
 10
50.4156728006
 20
24.403441422
 10
50.4248644254
 20
24.3595738816
 10
50.4386948692
 20
24.3182918715
  0
LINE
  5
416
100
AcDbEntity
  8
IMPORT_IGES
100
AcDbLine
 62
253
  6
CONTINUOUS
 10
10.2669967673
 20
1.3623379847
 11
10.4414696622
 21
1.4009420831
  0
LINE
  5
417
100
AcDbEntity
  8
IMPORT_IGES
100
AcDbLine
 62
253
  6
CONTINUOUS
 10
9.3502478191
 20
1.1653757753
 11
10.2669967673
 21
1.3623379847
  0
LINE
  5
418
100
AcDbEntity
  8
IMPORT_IGES
100
AcDbLine
 62
253
  6
CONTINUOUS
 10
10.2762741476
 20
2.1732832195
 11
9.6937881998
 21
2.0540926852
  0
LINE
  5
419
100
AcDbEntity
  8
IMPORT_IGES
100
AcDbLine
 62
253
  6
CONTINUOUS
 10
9.6937881998
 20
2.0540926852
 11
9.3496571556
 21
1.9852406835
  0
LINE
  5
41A
100
AcDbEntity
  8
IMPORT_IGES
100
AcDbLine
 62
253
  6
CONTINUOUS
 10
9.3496571556
 20
1.9852406835
 11
9.1883726736
 21
1.953777138
  0
LWPOLYLINE
  5
41B
100
AcDbEntity
  8
IMPORT_IGES
100
AcDbPolyline
 62
253
  6
CONTINUOUS
 90
6
 70
0
 10
9.1883726736
 20
1.953777138
 10
9.1064019084
 20
1.9382447332
 10
9.0739121924
 20
1.9322725927
 10
9.0473766315
 20
1.9275512295
 10
9.0269449413
 20
1.9241081388
 10
9.0127505564
 20
1.9219670621
  0
LINE
  5
41C
100
AcDbEntity
  8
IMPORT_IGES
100
AcDbLine
 62
253
  6
CONTINUOUS
 10
10.1203478211
 20
4.4142657476
 11
10.4316977064
 21
4.4642927504
  0
LINE
  5
41D
100
AcDbEntity
  8
IMPORT_IGES
100
AcDbLine
 62
253
  6
CONTINUOUS
 10
9.9091517086
 20
4.3814826089
 11
10.1203478211
 21
4.4142657476
  0
LINE
  5
41E
100
AcDbEntity
  8
IMPORT_IGES
100
AcDbLine
 62
253
  6
CONTINUOUS
 10
9.784968624
 20
4.3627961814
 11
9.9091517086
 21
4.3814826089
  0
LINE
  5
41F
100
AcDbEntity
  8
IMPORT_IGES
100
AcDbLine
 62
253
  6
CONTINUOUS
 10
9.6779857377
 20
4.3472166276
 11
9.784968624
 21
4.3627961814
  0
LINE
  5
420
100
AcDbEntity
  8
IMPORT_IGES
100
AcDbLine
 62
253
  6
CONTINUOUS
 10
9.4579796972
 20
4.3196606758
 11
8.8716332273
 21
4.2666539582
  0
LINE
  5
421
100
AcDbEntity
  8
IMPORT_IGES
100
AcDbLine
 62
253
  6
CONTINUOUS
 10
10.0530853162
 20
3.1818622725
 11
10.6433382604
 21
3.2341821423
  0
LWPOLYLINE
  5
422
100
AcDbEntity
  8
IMPORT_IGES
100
AcDbPolyline
 62
253
  6
CONTINUOUS
 90
7
 70
0
 10
9.4579875223
 20
4.3196619646
 10
9.4735560123
 20
4.3208689179
 10
9.4948248223
 20
4.3230433134
 10
9.5215380905
 20
4.3261505428
 10
9.5532775522
 20
4.3301335979
 10
9.589834335
 20
4.3349593745
 10
9.6779857377
 20
4.3472166276
  0
LINE
  5
423
100
AcDbEntity
  8
IMPORT_IGES
100
AcDbLine
 62
253
  6
CONTINUOUS
 10
47.8243172165
 20
3.2341820908
 11
48.4145726587
 21
3.1818623895
  0
LINE
  5
424
100
AcDbEntity
  8
IMPORT_IGES
100
AcDbLine
 62
253
  6
CONTINUOUS
 10
49.5960230929
 20
4.2666539916
 11
49.0096766377
 21
4.3196607125
  0
LWPOLYLINE
  5
425
100
AcDbEntity
  8
IMPORT_IGES
100
AcDbPolyline
 62
253
  6
CONTINUOUS
 90
22
 70
0
 10
48.414572468
 20
3.1818626656
 10
48.4362024188
 20
3.1790695725
 10
48.4547089403
 20
3.1706884178
 10
48.4700827895
 20
3.1568568754
 10
48.4822867172
 20
3.1379372787
 10
48.4913130018
 20
3.1142094172
 10
48.4972038612
 20
3.0855753022
 10
48.499977332
 20
3.052267773
 10
48.4995739678
 20
3.0146150428
 10
48.495944095
 20
2.9723013445
 10
48.4890947008
 20
2.92549395
 10
48.4789770303
 20
2.8745636712
 10
48.4654730259
 20
2.8192687358
 10
48.4484000051
 20
2.7597399726
 10
48.4278842301
 20
2.6965700924
 10
48.4042722856
 20
2.6301890758
 10
48.3778169289
 20
2.561959
 10
48.3481830991
 20
2.4916304339
 10
48.314836601
 20
2.4171815907
 10
48.2775651282
 20
2.3383806865
 10
48.2364748189
 20
2.2568684225
 10
48.1915013984
 20
2.1735243264
  0
LWPOLYLINE
  5
426
100
AcDbEntity
  8
IMPORT_IGES
100
AcDbPolyline
 62
253
  6
CONTINUOUS
 90
6
 70
0
 10
48.8702484127
 20
4.3359823918
 10
48.90938247
 20
4.3307802599
 10
48.9431619155
 20
4.3265103861
 10
48.971306626
 20
4.3232116061
 10
48.9935507848
 20
4.3209192252
 10
49.0096727109
 20
4.3196612219
  0
LINE
  5
427
100
AcDbEntity
  8
IMPORT_IGES
100
AcDbLine
 62
253
  6
CONTINUOUS
 10
48.7770048939
 20
4.3490281324
 11
48.8702484127
 21
4.3359823918
  0
LINE
  5
428
100
AcDbEntity
  8
IMPORT_IGES
100
AcDbLine
 62
253
  6
CONTINUOUS
 10
48.6662954975
 20
4.3652309582
 11
48.7770048939
 21
4.3490281324
  0
LWPOLYLINE
  5
429
100
AcDbEntity
  8
IMPORT_IGES
100
AcDbPolyline
 62
253
  6
CONTINUOUS
 90
4
 70
0
 10
49.4549050346
 20
1.9219672148
 10
49.4411195364
 20
1.924042435
 10
49.4215105225
 20
1.9273375908
 10
49.3962961346
 20
1.9318109038
  0
LINE
  5
42A
100
AcDbEntity
  8
IMPORT_IGES
100
AcDbLine
 62
253
  6
CONTINUOUS
 10
48.4760792814
 20
4.3941470212
 11
48.6662954975
 21
4.3652309582
  0
LINE
  5
42B
100
AcDbEntity
  8
IMPORT_IGES
100
AcDbLine
 62
253
  6
CONTINUOUS
 10
48.2656433749
 20
4.4272095123
 11
48.4760792814
 21
4.3941470212
  0
LINE
  5
42C
100
AcDbEntity
  8
IMPORT_IGES
100
AcDbLine
 62
253
  6
CONTINUOUS
 10
48.0359651928
 20
4.464292085
 11
48.2656433749
 21
4.4272095123
  0
LINE
  5
42D
100
AcDbEntity
  8
IMPORT_IGES
100
AcDbLine
 62
253
  6
CONTINUOUS
 10
49.3962961346
 20
1.9318109038
 11
49.3302432544
 21
1.9440615658
  0
LINE
  5
42E
100
AcDbEntity
  8
IMPORT_IGES
100
AcDbLine
 62
253
  6
CONTINUOUS
 10
49.3302432544
 20
1.9440615658
 11
49.193060133
 21
1.970496859
  0
LWPOLYLINE
  5
42F
100
AcDbEntity
  8
IMPORT_IGES
100
AcDbPolyline
 62
253
  6
CONTINUOUS
 90
4
 70
0
 10
49.1963373528
 20
1.1493479136
 10
49.2273996813
 20
1.1431952232
 10
49.2527333392
 20
1.1384656399
 10
49.2860700106
 20
1.132514786
  0
LINE
  5
430
100
AcDbEntity
  8
IMPORT_IGES
100
AcDbLine
 62
253
  6
CONTINUOUS
 10
49.193060133
 20
1.970496859
 11
48.8715416679
 21
2.0343928327
  0
LWPOLYLINE
  5
431
100
AcDbEntity
  8
IMPORT_IGES
100
AcDbPolyline
 62
253
  6
CONTINUOUS
 90
3
 70
0
 10
48.8715416679
 20
2.0343928327
 10
48.2815465997
 20
2.1546664413
 10
48.1913803604
 20
2.1732826366
  0
LWPOLYLINE
  5
432
100
AcDbEntity
  8
IMPORT_IGES
100
AcDbPolyline
 62
253
  6
CONTINUOUS
 90
3
 70
0
 10
48.8995856639
 20
1.2110040508
 10
49.0702682897
 20
1.1751045515
 10
49.1963373528
 20
1.1493479136
  0
LINE
  5
433
100
AcDbEntity
  8
IMPORT_IGES
100
AcDbLine
 62
253
  6
CONTINUOUS
 10
48.6916060385
 20
1.2555138332
 11
48.8995856639
 21
1.2110040508
  0
LINE
  5
434
100
AcDbEntity
  8
IMPORT_IGES
100
AcDbLine
 62
253
  6
CONTINUOUS
 10
48.455254821
 20
1.3067180364
 11
48.6916060385
 21
1.2555138332
  0
LINE
  5
435
100
AcDbEntity
  8
IMPORT_IGES
100
AcDbLine
 62
253
  6
CONTINUOUS
 10
48.3719786526
 20
1.3250619721
 11
48.455254821
 21
1.3067180364
  0
LWPOLYLINE
  5
436
100
AcDbEntity
  8
IMPORT_IGES
100
AcDbPolyline
 62
253
  6
CONTINUOUS
 90
3
 70
0
 10
48.0262291836
 20
1.4009313426
 10
48.1134444309
 20
1.3812385361
 10
48.3719786526
 20
1.3250619721
  0
LWPOLYLINE
  5
437
100
AcDbEntity
  8
IMPORT_IGES
100
AcDbPolyline
 62
253
  6
CONTINUOUS
 90
9
 70
0
 10
47.670056994
 20
-0.9950124016
 10
47.7708038101
 20
-1.0384184378
 10
47.8646076753
 20
-1.0771775541
 10
47.9511058957
 20
-1.1112897507
 10
48.0300783702
 20
-1.1404585323
 10
48.1009691962
 20
-1.1649803941
 10
48.1630640909
 20
-1.1857448215
 10
48.2161261848
 20
-1.2028268843
 10
48.2599569216
 20
-1.2161515126
  0
LWPOLYLINE
  5
438
100
AcDbEntity
  8
IMPORT_IGES
100
AcDbPolyline
 62
253
  6
CONTINUOUS
 90
3
 70
0
 10
30.2078805494
 20
11.6641709599
 10
30.2312478468
 20
11.6224761243
 10
30.2592152471
 20
11.5850404227
  0
LINE
  5
439
100
AcDbEntity
  8
IMPORT_IGES
100
AcDbLine
 62
7
  6
CONTINUOUS
 10
27.7796114407
 20
11.9079345059
 11
27.7509049167
 21
11.9631955764
  0
LWPOLYLINE
  5
43A
100
AcDbEntity
  8
IMPORT_IGES
100
AcDbPolyline
 62
253
  6
CONTINUOUS
 90
3
 70
0
 10
29.3605641831
 20
15.9838843656
 10
29.3457245529
 20
16.0220680448
 10
29.3367924168
 20
16.0608833224
  0
LWPOLYLINE
  5
43B
100
AcDbEntity
  8
IMPORT_IGES
100
AcDbPolyline
 62
7
  6
CONTINUOUS
 90
9
 70
0
 10
29.4123243285
 20
16.8380734029
 10
29.4209123219
 20
16.8109263578
 10
29.4558446509
 20
16.7232899364
 10
29.4952894871
 20
16.6423195092
 10
29.538583234
 20
16.5680395691
 10
29.5867361701
 20
16.4999993326
 10
29.6398591426
 20
16.4384937848
 10
29.6966777671
 20
16.3841771129
 10
29.7563711749
 20
16.3373444895
  0
LWPOLYLINE
  5
43C
100
AcDbEntity
  8
IMPORT_IGES
100
AcDbPolyline
 62
7
  6
CONTINUOUS
 90
4
 70
0
 10
29.9941828125
 20
16.6887217901
 10
29.9879156681
 20
16.7112480023
 10
29.9821227764
 20
16.7345533045
 10
29.9806042489
 20
16.7414472669
  0
LINE
  5
43D
100
AcDbEntity
  8
RACCORDO
100
AcDbLine
 62
253
  6
CONTINUOUS
 10
37.733828125
 20
16.0307397822
 11
37.733828125
 21
12.0300828455
  0
LINE
  5
43E
100
AcDbEntity
  8
IMPORT_IGES
100
AcDbLine
 62
7
  6
CONTINUOUS
 10
38.133828125
 20
-35.9553147588
 11
38.133828125
 21
-18.9553147588
  0
LINE
  5
43F
100
AcDbEntity
  8
IMPORT_IGES
100
AcDbLine
 62
7
  6
CONTINUOUS
 10
38.233828125
 20
-18.9553147588
 11
38.233828125
 21
-29.3553147588
  0
LINE
  5
440
100
AcDbEntity
  8
IMPORT_IGES
100
AcDbLine
 62
7
  6
CONTINUOUS
 10
42.2339374105
 20
10.1946852412
 11
16.2337154929
 21
10.1946852412
  0
LINE
  5
441
100
AcDbEntity
  8
IMPORT_IGES
100
AcDbLine
 62
7
  6
CONTINUOUS
 10
42.233828125
 20
10.2946852412
 11
16.233828125
 21
10.2946852412
  0
LINE
  5
442
100
AcDbEntity
  8
IMPORT_IGES
100
AcDbLine
 62
253
  6
CONTINUOUS
 10
16.233828125
 20
10.5947584441
 11
42.2342721059
 21
10.5947001744
  0
LWPOLYLINE
  5
443
100
AcDbEntity
  8
IMPORT_IGES
100
AcDbPolyline
 62
253
  6
CONTINUOUS
 90
10
 70
0
 10
7.6492784977
 20
24.1147685639
 10
7.6894919821
 20
24.0910940885
 10
7.7258001067
 20
24.0674496536
 10
7.7579634417
 20
24.0439667422
 10
7.7857314427
 20
24.0208256157
 10
7.8090304645
 20
23.998102978
 10
7.8278699951
 20
23.9757788462
 10
7.8421397947
 20
23.9539346463
 10
7.8517093524
 20
23.9327415774
 10
7.8565463004
 20
23.9123148379
  0
LWPOLYLINE
  5
444
100
AcDbEntity
  8
IMPORT_IGES
100
AcDbPolyline
 62
253
  6
CONTINUOUS
 90
9
 70
0
 10
30.3247844436
 20
12.3151206376
 10
30.3695738498
 20
12.2774219423
 10
30.4140587776
 20
12.2393671946
 10
30.4582372049
 20
12.2009584167
 10
30.5021074391
 20
12.1621972892
 10
30.5456671594
 20
12.1230861981
 10
30.5889134449
 20
12.0836282719
 10
30.6318440394
 20
12.0438259675
 10
30.6744573227
 20
12.0036810337
  0
LINE
  5
445
100
AcDbEntity
  8
IMPORT_IGES
100
AcDbLine
 62
253
  6
CONTINUOUS
 10
30.6744573227
 20
12.0036810337
 11
30.7167513728
 21
11.9631955833
  0
LINE
  5
446
100
AcDbEntity
  8
IMPORT_IGES
100
AcDbLine
 62
7
  6
CONTINUOUS
 10
30.2211624639
 20
11.6190791758
 11
30.2709309058
 21
11.5703936615
  0
LINE
  5
447
100
AcDbEntity
  8
IMPORT_IGES
100
AcDbLine
 62
253
  6
CONTINUOUS
 10
30.2592152471
 20
11.5850404227
 11
30.2912790961
 21
11.5523051168
  0
LINE
  5
448
100
AcDbEntity
  8
IMPORT_IGES
100
AcDbLine
 62
253
  6
CONTINUOUS
 10
28.8638728602
 20
15.5726385043
 11
28.8910532377
 21
15.5355617086
  0
LINE
  5
449
100
AcDbEntity
  8
IMPORT_IGES
100
AcDbLine
 62
253
  6
CONTINUOUS
 10
28.809453674
 20
15.6481574838
 11
28.8638728602
 21
15.5726385043
  0
LINE
  5
44A
100
AcDbEntity
  8
IMPORT_IGES
100
AcDbLine
 62
253
  6
CONTINUOUS
 10
28.7555673225
 20
15.723676023
 11
28.809453674
 21
15.6481574838
  0
LINE
  5
44B
100
AcDbEntity
  8
IMPORT_IGES
100
AcDbLine
 62
253
  6
CONTINUOUS
 10
28.8910532377
 20
15.5355617086
 11
28.8929983428
 21
15.5327889272
  0
LINE
  5
44C
100
AcDbEntity
  8
IMPORT_IGES
100
AcDbLine
 62
7
  6
CONTINUOUS
 10
28.7112798823
 20
16.3373395406
 11
28.47346705
 21
16.6886870279
  0
LWPOLYLINE
  5
44D
100
AcDbEntity
  8
RACCORDO
100
AcDbPolyline
 62
253
  6
CONTINUOUS
 90
4
 70
0
 10
37.5123230533
 20
15.932588174
 10
37.5541754214
 20
15.9434922038
 10
37.6436856483
 20
15.9575655595
 10
37.733828125
 20
15.9625692309
  0
LWPOLYLINE
  5
44E
100
AcDbEntity
  8
RACCORDO
100
AcDbPolyline
 62
253
  6
CONTINUOUS
 90
4
 70
0
 10
20.733828125
 20
12.1268012515
 10
20.8198637176
 20
12.131235056
 10
20.9055817986
 20
12.1441244928
 10
20.9547834193
 20
12.1564365625
  0
LINE
  5
44F
100
AcDbEntity
  8
RACCORDO
100
AcDbLine
 62
253
  6
CONTINUOUS
 10
20.733828125
 20
12.0586307003
 11
20.7933205077
 21
12.0615124402
  0
LINE
  5
450
100
AcDbEntity
  8
DRAFT
100
AcDbLine
 62
7
  6
CONTINUOUS
 10
15.7175268833
 20
11.2946852412
 11
16.7590181317
 21
11.2946852412
  0
LINE
  5
451
100
AcDbEntity
  8
RACCORDO
100
AcDbLine
 62
7
  6
CONTINUOUS
 10
41.7086381184
 20
11.2946852412
 11
42.7501057255
 21
11.2946852412
  0
LINE
  5
452
100
AcDbEntity
  8
RACCORDO
100
AcDbLine
 62
253
  6
CONTINUOUS
 10
16.9396842005
 20
11.3357503387
 11
15.5329130197
 21
11.3357503387
  0
LINE
  5
453
100
AcDbEntity
  8
RACCORDO
100
AcDbLine
 62
253
  6
CONTINUOUS
 10
43.0810134104
 20
11.3767169678
 11
41.3841709572
 21
11.3767169678
  0
LINE
  5
454
100
AcDbEntity
  8
RACCORDO
100
AcDbLine
 62
253
  6
CONTINUOUS
 10
17.3680104609
 20
11.485727493
 11
15.2745886128
 21
11.485727493
  0
LINE
  5
455
100
AcDbEntity
  8
RACCORDO
100
AcDbLine
 62
253
  6
CONTINUOUS
 10
14.2628575443
 20
12.0586307003
 11
18.2432221331
 21
12.0586307003
  0
LINE
  5
456
100
AcDbEntity
  8
RACCORDO
100
AcDbLine
 62
253
  6
CONTINUOUS
 10
18.6742405335
 20
12.0586307003
 11
20.733828125
 21
12.0586307003
  0
LINE
  5
457
100
AcDbEntity
  8
RACCORDO
100
AcDbLine
 62
253
  6
CONTINUOUS
 10
14.1946128014
 20
12.1268012515
 11
20.733828125
 21
12.1268012515
  0
LWPOLYLINE
  5
458
100
AcDbEntity
  8
RACCORDO
100
AcDbPolyline
 62
253
  6
CONTINUOUS
 90
3
 70
0
 10
15.2745886128
 20
11.485727493
 10
15.1419010088
 20
11.4913434462
 10
15.072267071
 20
11.4986944649
  0
LINE
  5
459
100
AcDbEntity
  8
IMPORT_IGES
100
AcDbLine
 62
253
  6
CONTINUOUS
 10
30.1224665538
 20
12.4334380618
 11
30.1251058617
 21
12.4319240063
  0
LINE
  5
45A
100
AcDbEntity
  8
IMPORT_IGES
100
AcDbLine
 62
253
  6
CONTINUOUS
 10
30.1251058617
 20
12.4319240063
 11
30.3247841505
 21
12.3151201105
  0
LINE
  5
45B
100
AcDbEntity
  8
IMPORT_IGES
100
AcDbLine
 62
7
  6
CONTINUOUS
 10
30.7167510798
 20
11.9631950983
 11
30.9409954487
 21
11.8277027753
  0
LINE
  5
45C
100
AcDbEntity
  8
IMPORT_IGES
100
AcDbLine
 62
253
  6
CONTINUOUS
 10
42.233828125
 20
10.2946852412
 11
42.233828125
 21
10.5946852412
  0
LINE
  5
45D
100
AcDbEntity
  8
IMPORT_IGES
100
AcDbLine
 62
253
  6
CONTINUOUS
 10
42.233828125
 20
17.4946852412
 11
42.233828125
 21
17.7946852412
  0
LINE
  5
45E
100
AcDbEntity
  8
IMPORT_IGES
100
AcDbLine
 62
7
  6
CONTINUOUS
 10
43.033828125
 20
-18.9553147588
 11
43.033828125
 21
-29.3553147588
  0
LINE
  5
45F
100
AcDbEntity
  8
IMPORT_IGES
100
AcDbLine
 62
7
  6
CONTINUOUS
 10
43.133828125
 20
-35.9553147588
 11
43.133828125
 21
-18.9553147588
  0
LINE
  5
460
100
AcDbEntity
  8
RACCORDO
100
AcDbLine
 62
253
  6
CONTINUOUS
 10
43.1930676372
 20
16.6036429894
 11
43.1930676372
 21
16.6734388402
  0
LINE
  5
461
100
AcDbEntity
  8
RACCORDO
100
AcDbLine
 62
253
  6
CONTINUOUS
 10
37.6738199228
 20
16.0275852014
 11
37.733828125
 21
16.0307397822
  0
LINE
  5
462
100
AcDbEntity
  8
IMPORT_IGES
100
AcDbLine
 62
7
  6
CONTINUOUS
 10
6.5839297983
 20
13.9446852412
 11
12.3851345385
 21
13.9446852412
  0
LINE
  5
463
100
AcDbEntity
  8
IMPORT_IGES
100
AcDbLine
 62
7
  6
CONTINUOUS
 10
46.0825190084
 20
13.9446852412
 11
51.8837264517
 21
13.9446852412
  0
LINE
  5
464
100
AcDbEntity
  8
IMPORT_IGES
100
AcDbLine
 62
7
  6
CONTINUOUS
 10
6.5839297983
 20
14.1446852412
 11
12.3851694137
 21
14.1446852286
  0
LINE
  5
465
100
AcDbEntity
  8
IMPORT_IGES
100
AcDbLine
 62
7
  6
CONTINUOUS
 10
46.0824968632
 20
14.144685231
 11
51.8837264517
 21
14.1446852412
  0
LINE
  5
466
100
AcDbEntity
  8
RACCORDO
100
AcDbLine
 62
253
  6
CONTINUOUS
 10
37.733828125
 20
15.9625692309
 11
44.2730434486
 21
15.9625692309
  0
LINE
  5
467
100
AcDbEntity
  8
RACCORDO
100
AcDbLine
 62
253
  6
CONTINUOUS
 10
37.733828125
 20
16.0307397822
 11
39.7934157165
 21
16.0307397822
  0
LINE
  5
468
100
AcDbEntity
  8
RACCORDO
100
AcDbLine
 62
253
  6
CONTINUOUS
 10
40.2244341169
 20
16.0307397822
 11
44.2047987057
 21
16.0307397822
  0
LINE
  5
469
100
AcDbEntity
  8
IMPORT_IGES
100
AcDbLine
 62
253
  6
CONTINUOUS
 10
51.8456163504
 20
16.1857020131
 11
51.5691506758
 21
16.1857020131
  0
LINE
  5
46A
100
AcDbEntity
  8
IMPORT_IGES
100
AcDbLine
 62
253
  6
CONTINUOUS
 10
6.8985055731
 20
16.1857020131
 11
6.6220398996
 21
16.1857020131
  0
LINE
  5
46B
100
AcDbEntity
  8
IMPORT_IGES
100
AcDbLine
 62
253
  6
CONTINUOUS
 10
6.6228183214
 20
16.2207462137
 11
6.8992826333
 21
16.2207462137
  0
LINE
  5
46C
100
AcDbEntity
  8
IMPORT_IGES
100
AcDbLine
 62
253
  6
CONTINUOUS
 10
51.5683736163
 20
16.2207462137
 11
51.8448379286
 21
16.2207462137
  0
LINE
  5
46D
100
AcDbEntity
  8
RACCORDO
100
AcDbLine
 62
253
  6
CONTINUOUS
 10
43.1930676372
 20
16.6036429894
 11
41.0996457891
 21
16.6036429894
  0
LINE
  5
46E
100
AcDbEntity
  8
RACCORDO
100
AcDbLine
 62
253
  6
CONTINUOUS
 10
15.3866428396
 20
16.7126535147
 11
17.0834852928
 21
16.7126535147
  0
LINE
  5
46F
100
AcDbEntity
  8
RACCORDO
100
AcDbLine
 62
253
  6
CONTINUOUS
 10
42.9347432303
 20
16.7536201437
 11
41.5279720495
 21
16.7536201437
  0
LINE
  5
470
100
AcDbEntity
  8
RACCORDO
100
AcDbLine
 62
7
  6
CONTINUOUS
 10
42.7501293667
 20
16.7946852412
 11
41.7086381183
 21
16.7946852412
  0
LINE
  5
471
100
AcDbEntity
  8
RACCORDO
100
AcDbLine
 62
7
  6
CONTINUOUS
 10
16.7590181316
 20
16.7946852412
 11
15.7175505245
 21
16.7946852412
  0
LWPOLYLINE
  5
472
100
AcDbEntity
  8
IMPORT_IGES
100
AcDbPolyline
 62
253
  6
CONTINUOUS
 90
10
 70
0
 10
29.7120834438
 20
15.7236763212
 10
29.6573680766
 20
15.7427503007
 10
29.6054022357
 20
15.7648770643
 10
29.5568884534
 20
15.7898080489
 10
29.5127444761
 20
15.8170144339
 10
29.4731132663
 20
15.8462772826
 10
29.4376328333
 20
15.8778807221
 10
29.4067406351
 20
15.9116105668
 10
29.3810098411
 20
15.9469587423
 10
29.3605641831
 20
15.9838843656
  0
LINE
  5
473
100
AcDbEntity
  8
IMPORT_IGES
100
AcDbLine
 62
253
  6
CONTINUOUS
 10
39.9157130738
 20
11.7851171356
 11
39.7767177354
 21
12.0509748158
  0
LINE
  5
474
100
AcDbEntity
  8
IMPORT_IGES
100
AcDbLine
 62
253
  6
CONTINUOUS
 10
47.8243235107
 20
3.234182859
 11
47.8239389646
 21
3.2386849987
  0
LINE
  5
475
100
AcDbEntity
  8
IMPORT_IGES
100
AcDbLine
 62
253
  6
CONTINUOUS
 10
47.8239389646
 20
3.2386849987
 11
47.8221472451
 21
3.2631095301
  0
LINE
  5
476
100
AcDbEntity
  8
IMPORT_IGES
100
AcDbLine
 62
253
  6
CONTINUOUS
 10
47.8221472451
 20
3.2631095301
 11
47.7579290541
 21
4.2142003363
  0
LINE
  5
477
100
AcDbEntity
  8
IMPORT_IGES
100
AcDbLine
 62
253
  6
CONTINUOUS
 10
46.1202940389
 20
13.9446852412
 11
46.1202940389
 21
14.144685231
  0
LINE
  5
478
100
AcDbEntity
  8
IMPORT_IGES
100
AcDbLine
 62
253
  6
CONTINUOUS
 10
46.2351421944
 20
-18.9553147588
 11
46.2351421944
 21
-17.9640412943
  0
LINE
  5
479
100
AcDbEntity
  8
IMPORT_IGES
100
AcDbLine
 62
253
  6
CONTINUOUS
 10
46.6202178865
 20
14.144685231
 11
46.6202178865
 21
13.9446852412
  0
LINE
  5
47A
100
AcDbEntity
  8
RACCORDO
100
AcDbLine
 62
7
  6
CONTINUOUS
 10
46.733828125
 20
14.144685231
 11
46.733828125
 21
13.9446852412
  0
LINE
  5
47B
100
AcDbEntity
  8
IMPORT_IGES
100
AcDbLine
 62
7
  6
CONTINUOUS
 10
46.733828125
 20
13.9446852412
 11
46.733828125
 21
14.144685231
  0
LINE
  5
47C
100
AcDbEntity
  8
IMPORT_IGES
100
AcDbLine
 62
7
  6
CONTINUOUS
 10
46.983828125
 20
14.144685231
 11
46.983828125
 21
13.9446852412
  0
LINE
  5
47D
100
AcDbEntity
  8
IMPORT_IGES
100
AcDbLine
 62
253
  6
CONTINUOUS
 10
46.3732614992
 20
-0.9949851619
 11
46.235141096
 21
-17.9640412508
  0
LINE
  5
47E
100
AcDbEntity
  8
IMPORT_IGES
100
AcDbLine
 62
253
  6
CONTINUOUS
 10
47.5319488186
 20
-17.9640433397
 11
47.6700751385
 21
-0.9950111095
  0
LWPOLYLINE
  5
47F
100
AcDbEntity
  8
IMPORT_IGES
100
AcDbPolyline
 62
253
  6
CONTINUOUS
 90
22
 70
0
 10
46.3732614992
 20
-0.9949851619
 10
46.3787065674
 20
-0.847436731
 10
46.392345613
 20
-0.7013062456
 10
46.414178636
 20
-0.5565937055
 10
46.4443223396
 20
-0.4128352682
 10
46.4826600206
 20
-0.2704947763
 10
46.5288415692
 20
-0.1309637575
 10
46.5829472523
 20
0.005730203
 10
46.644896803
 20
0.1396146904
 10
46.7140993108
 20
0.2693809324
 10
46.7906287247
 20
0.3949881353
 10
46.8744110958
 20
0.5164770928
 10
46.9646336668
 20
0.6326614132
 10
47.0613617412
 20
0.7434871423
 10
47.1645300156
 20
0.8490082344
 10
47.2731298225
 20
0.9482001603
 10
47.3872170105
 20
1.0409984945
 10
47.5067357309
 20
1.1274676625
 10
47.6305097705
 20
1.2067764117
 10
47.758147058
 20
1.2786476579
 10
47.8900396646
 20
1.3433584853
 10
48.0261875904
 20
1.400908894
  0
LWPOLYLINE
  5
480
100
AcDbEntity
  8
IMPORT_IGES
100
AcDbPolyline
 62
253
  6
CONTINUOUS
 90
19
 70
0
 10
47.6700569894
 20
-0.9950124016
 10
47.6733553029
 20
-0.9093151637
 10
47.682372101
 20
-0.8237121738
 10
47.6970943269
 20
-0.7387825038
 10
47.7173744563
 20
-0.6552956479
 10
47.7430740851
 20
-0.5736065786
 10
47.7742003352
 20
-0.4936711026
 10
47.8105643801
 20
-0.4160104503
 10
47.8519037355
 20
-0.3411282177
 10
47.8982367253
 20
-0.2689908095
 10
47.9492785337
 20
-0.2000822102
 10
48.0046828311
 20
-0.1348393118
 10
48.0644711178
 20
-0.0732380323
 10
48.1282375223
 20
-0.0157302108
 10
48.1955749192
 20
0.0373384661
 10
48.2665686798
 20
0.086023816
 10
48.3409390281
 20
0.1300604537
 10
48.4179826801
 20
0.1690084199
 10
48.4971438557
 20
0.2026415435
  0
LWPOLYLINE
  5
481
100
AcDbEntity
  8
IMPORT_IGES
100
AcDbPolyline
 62
253
  6
CONTINUOUS
 90
4
 70
0
 10
47.7579311383
 20
23.875169756
 10
47.8228017121
 20
24.8353522663
 10
47.823816604
 20
24.8490799543
 10
47.8243256228
 20
24.8551872294
  0
LINE
  5
482
100
AcDbEntity
  8
IMPORT_IGES
100
AcDbLine
 62
253
  6
CONTINUOUS
 10
48.191391624
 20
2.1733366021
 11
48.1374803082
 21
1.915578283
  0
LINE
  5
483
100
AcDbEntity
  8
IMPORT_IGES
100
AcDbLine
 62
253
  6
CONTINUOUS
 10
48.1374803082
 20
1.915578283
 11
48.0824138707
 21
1.6581101749
  0
LINE
  5
484
100
AcDbEntity
  8
IMPORT_IGES
100
AcDbLine
 62
253
  6
CONTINUOUS
 10
48.0824138707
 20
1.6581101749
 11
48.0261875904
 21
1.400908894
  0
LWPOLYLINE
  5
485
100
AcDbEntity
  8
IMPORT_IGES
100
AcDbPolyline
 62
253
  6
CONTINUOUS
 90
13
 70
0
 10
48.0359638271
 20
4.4642841213
 10
48.0284181148
 20
4.4311610377
 10
48.0175329029
 20
4.3997218712
 10
48.0033081915
 20
4.3699666217
 10
47.9854771233
 20
4.3415134124
 10
47.9643065555
 20
4.3147441201
 10
47.9405970599
 20
4.2908043757
 10
47.9141968357
 20
4.2698789245
 10
47.8852576839
 20
4.2517830211
 10
47.8550355782
 20
4.23710806
 10
47.8239491768
 20
4.2260511728
 10
47.7915798216
 20
4.2184152279
 10
47.7579275126
 20
4.2142002253
  0
LINE
  5
486
100
AcDbEntity
  8
IMPORT_IGES
100
AcDbLine
 62
253
  6
CONTINUOUS
 10
42.233828125
 20
17.4946187804
 11
16.2333841441
 21
17.494670308
  0
LINE
  5
487
100
AcDbEntity
  8
IMPORT_IGES
100
AcDbLine
 62
7
  6
CONTINUOUS
 10
16.233828125
 20
17.7946852412
 11
42.233828125
 21
17.7946852412
  0
LINE
  5
488
100
AcDbEntity
  8
IMPORT_IGES
100
AcDbLine
 62
7
  6
CONTINUOUS
 10
42.2342105288
 20
17.8946852438
 11
16.2335238865
 21
17.8946852438
  0
LWPOLYLINE
  5
489
100
AcDbEntity
  8
RACCORDO
100
AcDbPolyline
 62
253
  6
CONTINUOUS
 90
3
 70
0
 10
43.3965439538
 20
16.590172586
 10
43.3314663586
 20
16.5973067575
 10
43.1930676372
 20
16.6036429894
  0
LINE
  5
48A
100
AcDbEntity
  8
IMPORT_IGES
100
AcDbLine
 62
253
  6
CONTINUOUS
 10
40.1433876919
 20
16.3338027265
 11
40.3456463068
 21
16.1122367935
  0
LWPOLYLINE
  5
48B
100
AcDbEntity
  8
IMPORT_IGES
100
AcDbPolyline
 62
253
  6
CONTINUOUS
 90
3
 70
0
 10
48.4880994051
 20
0.2243733504
 10
48.4938502943
 20
0.2104081895
 10
48.497183912
 20
0.2026570731
  0
LINE
  5
48C
100
AcDbEntity
  8
IMPORT_IGES
100
AcDbLine
 62
253
  6
CONTINUOUS
 10
48.4694911071
 20
0.2705864126
 11
48.4880994051
 21
0.2243733504
  0
LINE
  5
48D
100
AcDbEntity
  8
IMPORT_IGES
100
AcDbLine
 62
253
  6
CONTINUOUS
 10
48.3844071905
 20
0.4855155505
 11
48.4694911071
 21
0.2705864126
  0
LINE
  5
48E
100
AcDbEntity
  8
IMPORT_IGES
100
AcDbLine
 62
253
  6
CONTINUOUS
 10
48.0262291836
 20
1.4009313426
 11
48.3844071905
 21
0.4855155505
  0
LWPOLYLINE
  5
48F
100
AcDbEntity
  8
IMPORT_IGES
100
AcDbPolyline
 62
7
  6
CONTINUOUS
 90
10
 70
0
 10
49.7859995911
 20
14.1446852412
 10
49.777526354
 20
15.2187858144
 10
49.7495638893
 20
16.2925320462
 10
49.7021210229
 20
17.3655797466
 10
49.6352130029
 20
18.4375943144
 10
49.5488606982
 20
19.5082226194
 10
49.4430922577
 20
20.5770932513
 10
49.3179433824
 20
21.6438542564
 10
49.1734556471
 20
22.7081731097
 10
49.0096768568
 20
23.7697086922
  0
LINE
  5
490
100
AcDbEntity
  8
IMPORT_IGES
100
AcDbLine
 62
253
  6
CONTINUOUS
 10
50.4774668065
 20
40.549048509
 11
50.5817474384
 21
24.9293769088
  0
LWPOLYLINE
  5
491
100
AcDbEntity
  8
IMPORT_IGES
100
AcDbPolyline
 62
253
  6
CONTINUOUS
 90
22
 70
0
 10
48.3726470082
 20
26.2584835215
 10
48.3726641139
 20
26.1657315324
 10
48.3772317941
 20
26.0736018596
 10
48.3862719417
 20
25.9828928428
 10
48.3995226734
 20
25.8949157858
 10
48.4167787374
 20
25.8098195903
 10
48.438183137
 20
25.7266126905
 10
48.4636925349
 20
25.6456846337
 10
48.4930584723
 20
25.5678928206
 10
48.5264065134
 20
25.4930147129
 10
48.5635440469
 20
25.4216769678
 10
48.604237163
 20
25.354425367
 10
48.6487076902
 20
25.2910826296
 10
48.6968276195
 20
25.2321305748
 10
48.7481722636
 20
25.1783007123
 10
48.8025672648
 20
25.1299220648
 10
48.8595122397
 20
25.0875352591
 10
48.9186330584
 20
25.0514414899
 10
48.9799274008
 20
25.0217061739
 10
49.0430431803
 20
24.9986099224
 10
49.1072635427
 20
24.9824475219
 10
49.1720184951
 20
24.9732932374
  0
LINE
  5
492
100
AcDbEntity
  8
IMPORT_IGES
100
AcDbLine
 62
7
  6
CONTINUOUS
 10
48.7991275631
 20
13.9446852412
 11
48.7991275631
 21
14.144685231
  0
LINE
  5
493
100
AcDbEntity
  8
IMPORT_IGES
100
AcDbLine
 62
7
  6
CONTINUOUS
 10
50.883828125
 20
13.9446852412
 11
50.883828125
 21
14.1446852412
  0
LWPOLYLINE
  5
494
100
AcDbEntity
  8
IMPORT_IGES
100
AcDbPolyline
 62
253
  6
CONTINUOUS
 90
10
 70
0
 10
48.7993264086
 20
13.9446852422
 10
48.7912307655
 20
12.8861890741
 10
48.7639333533
 20
11.8287096731
 10
48.7174341719
 20
10.7722470393
 10
48.6517050029
 20
9.7164507737
 10
48.5667740648
 20
8.6616712753
 10
48.4627260127
 20
7.6089597411
 10
48.3395890649
 20
6.5586665702
 10
48.197335003
 20
5.5104413636
 10
48.0359638271
 20
4.4642841213
  0
LINE
  5
495
100
AcDbEntity
  8
IMPORT_IGES
100
AcDbLine
 62
7
  6
CONTINUOUS
 10
48.1924788375
 20
-17.9640412943
 11
48.3384344685
 21
-1.2391825598
  0
LWPOLYLINE
  5
496
100
AcDbEntity
  8
IMPORT_IGES
100
AcDbPolyline
 62
7
  6
CONTINUOUS
 90
22
 70
0
 10
48.338433778
 20
-1.2391825536
 10
48.3389529057
 20
-1.212080866
 10
48.3449681722
 20
-1.1198565281
 10
48.3575662342
 20
-1.0280294913
 10
48.3766037065
 20
-0.9376215689
 10
48.4019161421
 20
-0.849096316
 10
48.4335254745
 20
-0.7623514749
 10
48.4712333188
 20
-0.678024807
 10
48.5147094422
 20
-0.596803024
 10
48.56396021
 20
-0.5186710345
 10
48.6186391316
 20
-0.4442267244
 10
48.6783073877
 20
-0.374026723
 10
48.7429686409
 20
-0.308066769
 10
48.8121438895
 20
-0.2468700088
 10
48.8852990059
 20
-0.1908746046
 10
48.9624481502
 20
-0.140071655
 10
49.0429657119
 20
-0.0948983599
 10
49.1262544012
 20
-0.0556529831
 10
49.2124132648
 20
-0.022296675
 10
49.3010111371
 20
0.0049332786
 10
49.3910610184
 20
0.0257302102
 10
49.4343289014
 20
0.0337583796
  0
LWPOLYLINE
  5
497
100
AcDbEntity
  8
IMPORT_IGES
100
AcDbPolyline
 62
253
  6
CONTINUOUS
 90
22
 70
0
 10
47.531969816
 20
-17.9640412849
 10
47.528538252
 20
-18.0386439691
 10
47.5196597566
 20
-18.1121663618
 10
47.5055199253
 20
-18.1842217786
 10
47.4864013283
 20
-18.2542172709
 10
47.4624971339
 20
-18.3220587696
 10
47.4337444297
 20
-18.3880939423
 10
47.4001924179
 20
-18.4521110796
 10
47.3620559747
 20
-18.5136151174
 10
47.3193674349
 20
-18.5724621264
 10
47.272305152
 20
-18.6282823131
 10
47.22105248
 20
-18.6807447673
 10
47.1656007084
 20
-18.7297030354
 10
47.1059674025
 20
-18.7749164006
 10
47.0425711911
 20
-18.8158535089
 10
46.9760603432
 20
-18.8519776233
 10
46.906897282
 20
-18.8829914447
 10
46.8353613493
 20
-18.9087251522
 10
46.7619136256
 20
-18.9289637463
 10
46.6869937044
 20
-18.9435484291
 10
46.6110117955
 20
-18.9523622683
 10
46.5344101103
 20
-18.9553147134
  0
LWPOLYLINE
  5
498
100
AcDbEntity
  8
IMPORT_IGES
100
AcDbPolyline
 62
7
  6
CONTINUOUS
 90
10
 70
0
 10
49.0096766377
 20
4.3196607125
 10
49.1734553428
 20
5.3811954538
 10
49.3179430209
 20
6.4455134533
 10
49.4430918681
 20
7.512273593
 10
49.5488602803
 20
8.5811430155
 10
49.6352125984
 20
9.6517701
 10
49.7021207268
 20
10.7237844393
 10
49.7495637554
 20
11.796833241
 10
49.7775263602
 20
12.8705815718
 10
49.7859996622
 20
13.9446852412
  0
LWPOLYLINE
  5
499
100
AcDbEntity
  8
IMPORT_IGES
100
AcDbPolyline
 62
253
  6
CONTINUOUS
 90
25
 70
0
 10
49.454822131
 20
1.9215658803
 10
49.4883557232
 20
2.0891797056
 10
49.5190793087
 20
2.2509192806
 10
49.5470384346
 20
2.4067734354
 10
49.5721268434
 20
2.5560969975
 10
49.5945348458
 20
2.699514051
 10
49.6147344931
 20
2.8389209158
 10
49.6329279948
 20
2.9751721677
 10
49.6489468246
 20
3.1074016094
 10
49.6626949267
 20
3.234926698
 10
49.6742273943
 20
3.3584450815
 10
49.6835184115
 20
3.4772473953
 10
49.6903722794
 20
3.5885372192
 10
49.6947419754
 20
3.69161418
 10
49.6967338605
 20
3.7871629324
 10
49.6964038134
 20
3.8744619707
 10
49.693754536
 20
3.9534455912
 10
49.6888291373
 20
4.0241671191
 10
49.6817499142
 20
4.0860837066
 10
49.6725364471
 20
4.1391865797
 10
49.6612019796
 20
4.1834757362
 10
49.647863726
 20
4.2184220364
 10
49.6325686456
 20
4.2438474317
 10
49.615287843
 20
4.2599251708
 10
49.5960230929
 20
4.2666539916
  0
LWPOLYLINE
  5
49A
100
AcDbEntity
  8
IMPORT_IGES
100
AcDbPolyline
 62
253
  6
CONTINUOUS
 90
19
 70
0
 10
49.0096795896
 20
4.3196605399
 10
48.9906023134
 20
4.225412424
 10
48.9646007896
 20
4.132628184
 10
48.9318182608
 20
4.0419136689
 10
48.8924012518
 20
3.9538395193
 10
48.8465658984
 20
3.868898322
 10
48.7945665158
 20
3.7875865192
 10
48.7366733806
 20
3.7103441015
 10
48.6732061442
 20
3.6375923388
 10
48.6045244701
 20
3.569796226
 10
48.5310162933
 20
3.507331156
 10
48.4531052108
 20
3.4505276633
 10
48.371252538
 20
3.3997478915
 10
48.2859160886
 20
3.3552636975
 10
48.1975570722
 20
3.3172889172
 10
48.1066699961
 20
3.2860540526
 10
48.0137814878
 20
3.261729828
 10
47.9194682396
 20
3.2444088338
 10
47.8243236781
 20
3.2341815901
  0
LINE
  5
49B
100
AcDbEntity
  8
IMPORT_IGES
100
AcDbLine
 62
253
  6
CONTINUOUS
 10
49.3997487995
 20
1.6582601108
 11
49.454822131
 21
1.9215658803
  0
LINE
  5
49C
100
AcDbEntity
  8
IMPORT_IGES
100
AcDbLine
 62
253
  6
CONTINUOUS
 10
49.343399453
 20
1.3948022034
 11
49.3997487995
 21
1.6582601108
  0
LINE
  5
49D
100
AcDbEntity
  8
IMPORT_IGES
100
AcDbLine
 62
253
  6
CONTINUOUS
 10
49.2858580795
 20
1.1315981798
 11
49.343399453
 21
1.3948022034
  0
LWPOLYLINE
  5
49E
100
AcDbEntity
  8
IMPORT_IGES
100
AcDbPolyline
 62
253
  6
CONTINUOUS
 90
16
 70
0
 10
49.2860700106
 20
1.132514786
 10
49.26506668
 20
1.0499760698
 10
49.2387794631
 20
0.9690914595
 10
49.2073403233
 20
0.8902010405
 10
49.1709183998
 20
0.8136651061
 10
49.1296753282
 20
0.7397681177
 10
49.0837447278
 20
0.6687285242
 10
49.0333002357
 20
0.6008209223
 10
48.9785742807
 20
0.5363636942
 10
48.919799614
 20
0.4756308172
 10
48.8572263983
 20
0.4188805933
 10
48.7911205145
 20
0.3663540288
 10
48.7217623718
 20
0.3182739382
 10
48.6494466025
 20
0.2748446448
 10
48.5744808763
 20
0.2362509816
 10
48.497183912
 20
0.2026570731
  0
LINE
  5
49F
100
AcDbEntity
  8
IMPORT_IGES
100
AcDbLine
 62
253
  6
CONTINUOUS
 10
48.3473121615
 20
23.6751043885
 11
48.0359642354
 21
23.6250777006
  0
LINE
  5
4A0
100
AcDbEntity
  8
IMPORT_IGES
100
AcDbLine
 62
253
  6
CONTINUOUS
 10
48.5585083266
 20
23.7078875362
 11
48.3473121615
 21
23.6751043885
  0
LINE
  5
4A1
100
AcDbEntity
  8
IMPORT_IGES
100
AcDbLine
 62
253
  6
CONTINUOUS
 10
48.6826914053
 20
23.7265739615
 11
48.5585083266
 21
23.7078875362
  0
LINE
  5
4A2
100
AcDbEntity
  8
IMPORT_IGES
100
AcDbLine
 62
253
  6
CONTINUOUS
 10
48.7896742912
 20
23.7421535126
 11
48.6826914053
 21
23.7265739615
  0
LINE
  5
4A3
100
AcDbEntity
  8
IMPORT_IGES
100
AcDbLine
 62
253
  6
CONTINUOUS
 10
49.0096768568
 20
23.7697086922
 11
50.3551853238
 21
23.8901029092
  0
LINE
  5
4A4
100
AcDbEntity
  8
IMPORT_IGES
100
AcDbLine
 62
253
  6
CONTINUOUS
 10
50.3551853238
 20
23.8901029092
 11
50.6111127354
 21
23.9123172478
  0
LWPOLYLINE
  5
4A5
100
AcDbEntity
  8
IMPORT_IGES
100
AcDbPolyline
 62
253
  6
CONTINUOUS
 90
7
 70
0
 10
49.0096723367
 20
23.7697081275
 10
48.9941038982
 20
23.7685011864
 10
48.9728351289
 20
23.766326801
 10
48.9461218914
 20
23.76321958
 10
48.9143824514
 20
23.7592365314
 10
48.8778256823
 20
23.7544107596
 10
48.7896742912
 20
23.7421535126
  0
LINE
  5
4A6
100
AcDbEntity
  8
IMPORT_IGES
100
AcDbLine
 62
253
  6
CONTINUOUS
 10
7.8565432164
 20
23.9123160719
 11
9.0023475847
 21
23.8108608422
  0
LINE
  5
4A7
100
AcDbEntity
  8
IMPORT_IGES
100
AcDbLine
 62
253
  6
CONTINUOUS
 10
9.0023475847
 20
23.8108608422
 11
9.4579794977
 21
23.7697095513
  0
LWPOLYLINE
  5
4A8
100
AcDbEntity
  8
IMPORT_IGES
100
AcDbPolyline
 62
253
  6
CONTINUOUS
 90
6
 70
0
 10
9.5973985268
 20
23.7533889828
 10
9.5582646218
 20
23.7585910484
 10
9.5244865522
 20
23.7628606935
 10
9.4963441841
 20
23.7661591414
 10
9.4741024352
 20
23.7684512244
 10
9.457982419
 20
23.7697090576
  0
LINE
  5
4A9
100
AcDbEntity
  8
IMPORT_IGES
100
AcDbLine
 62
253
  6
CONTINUOUS
 10
9.6906421318
 20
23.7403432999
 11
9.5973985268
 21
23.7533889828
  0
LINE
  5
4AA
100
AcDbEntity
  8
IMPORT_IGES
100
AcDbLine
 62
253
  6
CONTINUOUS
 10
9.8013519127
 20
23.7241404723
 11
9.6906421318
 21
23.7403432999
  0
LINE
  5
4AB
100
AcDbEntity
  8
IMPORT_IGES
100
AcDbLine
 62
253
  6
CONTINUOUS
 10
9.9915697295
 20
23.6952242337
 11
9.8013519127
 21
23.7241404723
  0
LINE
  5
4AC
100
AcDbEntity
  8
IMPORT_IGES
100
AcDbLine
 62
253
  6
CONTINUOUS
 10
10.2020080638
 20
23.662161421
 11
9.9915697295
 21
23.6952242337
  0
LINE
  5
4AD
100
AcDbEntity
  8
IMPORT_IGES
100
AcDbLine
 62
253
  6
CONTINUOUS
 10
10.4316892599
 20
23.6250784182
 11
10.2020080638
 21
23.662161421
  0
LINE
  5
4AE
100
AcDbEntity
  8
IMPORT_IGES
100
AcDbLine
 62
253
  6
CONTINUOUS
 10
51.2798611316
 20
19.4172674454
 11
51.3137595974
 21
19.1040789755
  0
LINE
  5
4AF
100
AcDbEntity
  8
IMPORT_IGES
100
AcDbLine
 62
253
  6
CONTINUOUS
 10
51.1915396718
 20
21.0854392705
 11
51.1417889692
 21
21.5491710262
  0
LWPOLYLINE
  5
4B0
100
AcDbEntity
  8
IMPORT_IGES
100
AcDbPolyline
 62
253
  6
CONTINUOUS
 90
14
 70
0
 10
51.5579950348
 20
16.2551711752
 10
51.5590930964
 20
16.2445242242
 10
51.56015534
 20
16.2347476025
 10
51.5611813011
 20
16.2258423
 10
51.562167086
 20
16.2178456034
 10
51.5631129314
 20
16.2107746592
 10
51.5640193242
 20
16.2046123462
 10
51.5648827223
 20
16.1993445464
 10
51.5657026448
 20
16.1949959159
 10
51.5664800727
 20
16.1915418144
 10
51.5672136089
 20
16.1888941772
 10
51.5679028812
 20
16.1870236513
 10
51.5685485405
 20
16.1859595961
 10
51.5691506757
 20
16.1857020131
  0
LINE
  5
4B1
100
AcDbEntity
  8
IMPORT_IGES
100
AcDbLine
 62
253
  6
CONTINUOUS
 10
51.3137595974
 20
19.1040789755
 11
51.3435099711
 21
18.8160203436
  0
LINE
  5
4B2
100
AcDbEntity
  8
IMPORT_IGES
100
AcDbLine
 62
253
  6
CONTINUOUS
 10
51.2348149838
 20
20.6603246885
 11
51.1915396718
 21
21.0854392705
  0
LINE
  5
4B3
100
AcDbEntity
  8
IMPORT_IGES
100
AcDbLine
 62
253
  6
CONTINUOUS
 10
51.3435099711
 20
18.8160203436
 11
51.3776777151
 21
18.4676800208
  0
LINE
  5
4B4
100
AcDbEntity
  8
IMPORT_IGES
100
AcDbLine
 62
253
  6
CONTINUOUS
 10
51.2725635009
 20
20.2702694844
 11
51.2348149838
 21
20.6603246885
  0
LINE
  5
4B5
100
AcDbEntity
  8
IMPORT_IGES
100
AcDbLine
 62
253
  6
CONTINUOUS
 10
51.5556884994
 20
16.279044567
 11
51.5579950348
 21
16.2551711752
  0
LINE
  5
4B6
100
AcDbEntity
  8
IMPORT_IGES
100
AcDbLine
 62
253
  6
CONTINUOUS
 10
51.3776777151
 20
18.4676800208
 11
51.4065870359
 21
18.1561197518
  0
LINE
  5
4B7
100
AcDbEntity
  8
IMPORT_IGES
100
AcDbLine
 62
253
  6
CONTINUOUS
 10
51.3156476675
 20
19.7993727884
 11
51.2725635009
 21
20.2702694844
  0
LINE
  5
4B8
100
AcDbEntity
  8
IMPORT_IGES
100
AcDbLine
 62
253
  6
CONTINUOUS
 10
51.5532374925
 20
16.3062467673
 11
51.5556884994
 21
16.279044567
  0
LINE
  5
4B9
100
AcDbEntity
  8
IMPORT_IGES
100
AcDbLine
 62
253
  6
CONTINUOUS
 10
51.4065870359
 20
18.1561197518
 11
51.4367144794
 21
17.8124412027
  0
LINE
  5
4BA
100
AcDbEntity
  8
IMPORT_IGES
100
AcDbLine
 62
253
  6
CONTINUOUS
 10
51.3518622044
 20
19.3785187102
 11
51.3156476675
 21
19.7993727884
  0
LINE
  5
4BB
100
AcDbEntity
  8
IMPORT_IGES
100
AcDbLine
 62
253
  6
CONTINUOUS
 10
51.5619354241
 20
16.2648448615
 11
51.5605886637
 21
16.2807293807
  0
LINE
  5
4BC
100
AcDbEntity
  8
IMPORT_IGES
100
AcDbLine
 62
253
  6
CONTINUOUS
 10
51.5492711169
 20
16.3532714685
 11
51.5532374925
 21
16.3062467673
  0
LINE
  5
4BD
100
AcDbEntity
  8
IMPORT_IGES
100
AcDbLine
 62
253
  6
CONTINUOUS
 10
51.4367144794
 20
17.8124412027
 11
51.4658392909
 21
17.4592085854
  0
LINE
  5
4BE
100
AcDbEntity
  8
IMPORT_IGES
100
AcDbLine
 62
253
  6
CONTINUOUS
 10
51.3824341341
 20
19.0020992812
 11
51.3518622044
 21
19.3785187102
  0
LINE
  5
4BF
100
AcDbEntity
  8
IMPORT_IGES
100
AcDbLine
 62
253
  6
CONTINUOUS
 10
51.5433781004
 20
16.4278147012
 11
51.5492711169
 21
16.3532714685
  0
LINE
  5
4C0
100
AcDbEntity
  8
IMPORT_IGES
100
AcDbLine
 62
253
  6
CONTINUOUS
 10
51.5605886637
 20
16.2807293807
 11
51.559177143
 21
16.2987818333
  0
LINE
  5
4C1
100
AcDbEntity
  8
IMPORT_IGES
100
AcDbLine
 62
253
  6
CONTINUOUS
 10
51.4658392909
 20
17.4592085854
 11
51.4956558461
 21
17.0742955228
  0
LINE
  5
4C2
100
AcDbEntity
  8
IMPORT_IGES
100
AcDbLine
 62
253
  6
CONTINUOUS
 10
51.4142030154
 20
18.5866573337
 11
51.3824341341
 21
19.0020992812
  0
LINE
  5
4C3
100
AcDbEntity
  8
IMPORT_IGES
100
AcDbLine
 62
253
  6
CONTINUOUS
 10
51.4956558461
 20
17.0742955228
 11
51.5433781004
 21
16.4278147012
  0
LINE
  5
4C4
100
AcDbEntity
  8
IMPORT_IGES
100
AcDbLine
 62
253
  6
CONTINUOUS
 10
51.559177143
 20
16.2987818333
 11
51.5569310477
 21
16.3298844734
  0
LINE
  5
4C5
100
AcDbEntity
  8
IMPORT_IGES
100
AcDbLine
 62
253
  6
CONTINUOUS
 10
51.4448480389
 20
18.1580537638
 11
51.4142030154
 21
18.5866573337
  0
LINE
  5
4C6
100
AcDbEntity
  8
IMPORT_IGES
100
AcDbLine
 62
253
  6
CONTINUOUS
 10
51.5569310477
 20
16.3298844734
 11
51.5536705449
 21
16.3788535068
  0
LINE
  5
4C7
100
AcDbEntity
  8
IMPORT_IGES
100
AcDbLine
 62
253
  6
CONTINUOUS
 10
51.4727441884
 20
17.7396512706
 11
51.4448480389
 21
18.1580537638
  0
LINE
  5
4C8
100
AcDbEntity
  8
IMPORT_IGES
100
AcDbLine
 62
253
  6
CONTINUOUS
 10
51.5020533978
 20
17.2665440671
 11
51.4727441884
 21
17.7396512706
  0
LINE
  5
4C9
100
AcDbEntity
  8
IMPORT_IGES
100
AcDbLine
 62
253
  6
CONTINUOUS
 10
51.5536705449
 20
16.3788535068
 11
51.5471093456
 21
16.4858419069
  0
LINE
  5
4CA
100
AcDbEntity
  8
IMPORT_IGES
100
AcDbLine
 62
253
  6
CONTINUOUS
 10
51.5471093456
 20
16.4858419069
 11
51.5020533978
 21
17.2665440671
  0
LWPOLYLINE
  5
4CB
100
AcDbEntity
  8
IMPORT_IGES
100
AcDbPolyline
 62
253
  6
CONTINUOUS
 90
14
 70
0
 10
51.3564353247
 20
40.549048509
 10
51.3541795925
 20
40.592366821
 10
51.3481844023
 20
40.6353262658
 10
51.3384948759
 20
40.6776035163
 10
51.3251839399
 20
40.7188803802
 10
51.3083517768
 20
40.758846194
 10
51.2881250709
 20
40.797200162
 10
51.2646560552
 20
40.8336536195
 10
51.2381213652
 20
40.8679322058
 10
51.2087207097
 20
40.899777929
 10
51.1766753677
 20
40.9289511077
 10
51.142226523
 20
40.9552321749
 10
51.1056334489
 20
40.9784233306
 10
51.0671715571
 20
40.9983500306
  0
LWPOLYLINE
  5
4CC
100
AcDbEntity
  8
IMPORT_IGES
100
AcDbPolyline
 62
253
  6
CONTINUOUS
 90
19
 70
0
 10
50.4774658723
 20
40.549048509
 10
50.4757371643
 20
40.592366821
 10
50.4711426767
 20
40.6353262658
 10
50.4637169894
 20
40.6776035163
 10
50.4535159904
 20
40.7188803802
 10
50.4406164558
 20
40.758846194
 10
50.4251154717
 20
40.797200162
 10
50.4071297038
 20
40.8336536195
 10
50.3867945187
 20
40.8679322058
 10
50.3642629659
 20
40.899777929
 10
50.3397046251
 20
40.9289511077
 10
50.3133043306
 20
40.9552321749
 10
50.2852607796
 20
40.9784233306
 10
50.2557850371
 20
40.9983500306
 10
50.2250989474
 20
41.0148623
 10
50.193433464
 20
41.027835862
 10
50.1610269118
 20
41.0371730732
 10
50.1281231931
 20
41.0428036589
 10
50.0949699523
 20
41.0446852412
  0
LINE
  5
4CD
100
AcDbEntity
  8
IMPORT_IGES
100
AcDbLine
 62
253
  6
CONTINUOUS
 10
51.5688964847
 20
16.1934874395
 11
51.5691506758
 21
16.1857020131
  0
LINE
  5
4CE
100
AcDbEntity
  8
IMPORT_IGES
100
AcDbLine
 62
253
  6
CONTINUOUS
 10
51.568688877
 20
16.2012738094
 11
51.5688964847
 21
16.1934874395
  0
LINE
  5
4CF
100
AcDbEntity
  8
IMPORT_IGES
100
AcDbLine
 62
7
  6
CONTINUOUS
 10
51.8456163504
 20
16.1857020131
 11
51.8448379286
 21
16.2207462137
  0
LINE
  5
4D0
100
AcDbEntity
  8
IMPORT_IGES
100
AcDbLine
 62
253
  6
CONTINUOUS
 10
51.5685278459
 20
16.2090612033
 11
51.568688877
 21
16.2012738094
  0
LINE
  5
4D1
100
AcDbEntity
  8
IMPORT_IGES
100
AcDbLine
 62
253
  6
CONTINUOUS
 10
51.5684133787
 20
16.2168507822
 11
51.5685278459
 21
16.2090612033
  0
LINE
  5
4D2
100
AcDbEntity
  8
IMPORT_IGES
100
AcDbLine
 62
253
  6
CONTINUOUS
 10
51.3564353247
 20
40.549048509
 11
51.5684133787
 21
16.2168507822
  0
LINE
  5
4D3
100
AcDbEntity
  8
IMPORT_IGES
100
AcDbLine
 62
7
  6
CONTINUOUS
 10
51.6325280508
 20
40.549048509
 11
51.8448379286
 21
16.2207462137
  0
LINE
  5
4D4
100
AcDbEntity
  8
IMPORT_IGES
100
AcDbLine
 62
253
  6
CONTINUOUS
 10
49.172018186
 20
24.9732929091
 11
47.8243205341
 21
24.8551881702
  0
LWPOLYLINE
  5
4D5
100
AcDbEntity
  8
IMPORT_IGES
100
AcDbPolyline
 62
253
  6
CONTINUOUS
 90
13
 70
0
 10
10.7097270865
 20
23.875170125
 10
13.794223556
 20
24.063398932
 10
16.8798615223
 20
24.2174095263
 10
19.9666409856
 20
24.3372019077
 10
23.0549424447
 20
24.4227824449
 10
26.1443854008
 20
24.4741447694
 10
29.2338283566
 20
24.4912697754
 10
32.323271312
 20
24.4741447261
 10
35.4127142671
 20
24.4227823583
 10
38.5010157255
 20
24.3372017778
 10
41.5877951883
 20
24.217409353
 10
44.6734331544
 20
24.0633987154
 10
47.7579296238
 20
23.875169865
  0
LWPOLYLINE
  5
4D6
100
AcDbEntity
  8
IMPORT_IGES
100
AcDbPolyline
 62
253
  6
CONTINUOUS
 90
10
 70
0
 10
29.2340863589
 20
25.4734965745
 10
27.1669035269
 20
25.4658617544
 10
25.0998472261
 20
25.4429540939
 10
23.0330301196
 20
25.4047751477
 10
20.966569298
 20
25.3513274364
 10
18.9005729378
 20
25.2826141092
 10
16.8351403056
 20
25.1986386161
 10
14.7703795332
 20
25.0994053099
 10
12.7064076001
 20
24.9849197732
 10
10.6433369992
 20
24.8551882528
  0
LWPOLYLINE
  5
4D7
100
AcDbEntity
  8
IMPORT_IGES
100
AcDbPolyline
 62
253
  6
CONTINUOUS
 90
22
 70
0
 10
29.233828125
 20
25.5345315014
 10
28.1833170624
 20
25.5329981113
 10
27.1373241795
 20
25.5284110219
 10
26.0958637906
 20
25.5208143705
 10
25.0577825227
 20
25.5102359823
 10
24.0242614033
 20
25.496714402
 10
22.9988151425
 20
25.4803423645
 10
21.9811350522
 20
25.4611805648
 10
20.9715531851
 20
25.4392919543
 10
19.9745424404
 20
25.4148539812
 10
18.9905439954
 20
25.3879836645
 10
18.0191326466
 20
25.3587611604
 10
17.063477799
 20
25.3273843146
 10
16.123540376
 20
25.2939704121
 10
15.1993674341
 20
25.2586303941
 10
14.29425329
 20
25.2216131462
 10
13.4083564287
 20
25.1830594659
 10
12.541517302
 20
25.1430892335
 10
11.6965486326
 20
25.1019733801
 10
10.8743841178
 20
25.0599056427
 10
10.074080198
 20
25.0169705887
 10
9.2956309231
 20
24.9732922375
  0
LWPOLYLINE
  5
4D8
100
AcDbEntity
  8
IMPORT_IGES
100
AcDbPolyline
 62
253
  6
CONTINUOUS
 90
22
 70
0
 10
49.172018186
 20
24.9732929091
 10
48.3985620177
 20
25.0166864108
 10
47.601331213
 20
25.0594735138
 10
46.7803186864
 20
25.1015113851
 10
45.9340184373
 20
25.1427209608
 10
45.0639242306
 20
25.1828592265
 10
44.1745324018
 20
25.2215716408
 10
43.266214016
 20
25.258716538
 10
42.3385970139
 20
25.2941733569
 10
41.3950685858
 20
25.3276923613
 10
40.4354251623
 20
25.3591733112
 10
39.459878307
 20
25.3884835336
 10
38.4724426151
 20
25.4153954529
 10
37.4726004927
 20
25.4398382109
 10
36.4608862041
 20
25.4616995684
 10
35.4428966683
 20
25.4807870235
 10
34.4198110673
 20
25.4970481571
 10
33.3904745401
 20
25.5104584258
 10
32.3569857229
 20
25.5209449526
 10
31.3200534184
 20
25.5284716455
 10
30.2789961735
 20
25.5330136516
 10
29.233828125
 20
25.5345315014
  0
LWPOLYLINE
  5
4D9
100
AcDbEntity
  8
IMPORT_IGES
100
AcDbPolyline
 62
253
  6
CONTINUOUS
 90
10
 70
0
 10
47.8243205341
 20
24.8551881702
 10
45.7612771431
 20
24.9849180899
 10
43.6973328725
 20
25.0994024059
 10
41.6326002111
 20
25.1986348811
 10
39.5671867202
 20
25.2826102901
 10
37.5012099366
 20
25.3513238033
 10
35.4347973794
 20
25.4047713544
 10
33.3680666529
 20
25.44295029
 10
31.3011254291
 20
25.4658590032
 10
29.2340863589
 20
25.4734965745
  0
LINE
  5
4DA
100
AcDbEntity
  8
IMPORT_IGES
100
AcDbLine
 62
253
  6
CONTINUOUS
 10
10.6433369992
 20
24.8551882528
 11
9.2956309231
 21
24.9732922375
  0
LWPOLYLINE
  5
4DB
100
AcDbEntity
  8
IMPORT_IGES
100
AcDbPolyline
 62
253
  6
CONTINUOUS
 90
13
 70
0
 10
47.7579296238
 20
23.875169865
 10
47.7926044833
 20
23.8706546301
 10
47.8257604009
 20
23.8626819936
 10
47.8573973766
 20
23.8512519556
 10
47.8879137049
 20
23.8361037722
 10
47.9169110912
 20
23.8174981873
 10
47.9431946525
 20
23.7962174322
 10
47.966571814
 20
23.7721083609
 10
47.9872351504
 20
23.7453241195
 10
48.0045675023
 20
23.7171063776
 10
48.0183631499
 20
23.6878690251
 10
48.0288278131
 20
23.6571981723
 10
48.0359614917
 20
23.625093819
  0
LWPOLYLINE
  5
4DC
100
AcDbEntity
  8
IMPORT_IGES
100
AcDbPolyline
 62
253
  6
CONTINUOUS
 90
13
 70
0
 10
51.5683736206
 20
16.2207457326
 10
51.5679691708
 20
16.2209638637
 10
51.5675402308
 20
16.2217995001
 10
51.5670861605
 20
16.2232526419
 10
51.5666049605
 20
16.2253114979
 10
51.5660972365
 20
16.2279878593
 10
51.5655665969
 20
16.2313170989
 10
51.5650128072
 20
16.235319484
 10
51.5644354726
 20
16.2399747472
 10
51.5638386205
 20
16.2452574595
 10
51.5632225543
 20
16.2511809472
 10
51.5625869534
 20
16.2577318839
 10
51.5619354241
 20
16.2648448615
  0
LINE
  5
4DD
100
AcDbEntity
  8
IMPORT_IGES
100
AcDbLine
 62
253
  6
CONTINUOUS
 10
50.8461343772
 20
22.5739739568
 11
50.9093654733
 21
22.1808070218
  0
LWPOLYLINE
  5
4DE
100
AcDbEntity
  8
IMPORT_IGES
100
AcDbPolyline
 62
253
  6
CONTINUOUS
 90
10
 70
0
 10
48.0359614917
 20
23.625093819
 10
48.1973324032
 20
22.5789362535
 10
48.3395862905
 20
21.5307105545
 10
48.4627231534
 20
20.4804167218
 10
48.5667712183
 20
19.4277042995
 10
48.6517022589
 20
18.3729237437
 10
48.7174315965
 20
17.3171264221
 10
48.7639310048
 20
16.2606627908
 10
48.7912287102
 20
15.2031823938
 10
48.7993247125
 20
14.144685231
  0
LINE
  5
4DF
100
AcDbEntity
  8
IMPORT_IGES
100
AcDbLine
 62
253
  6
CONTINUOUS
 10
50.9093654733
 20
22.1808070218
 11
50.9664662989
 21
21.810798503
  0
LINE
  5
4E0
100
AcDbEntity
  8
IMPORT_IGES
100
AcDbLine
 62
253
  6
CONTINUOUS
 10
50.9664662989
 20
21.810798503
 11
51.0180553451
 21
21.4627518246
  0
LINE
  5
4E1
100
AcDbEntity
  8
IMPORT_IGES
100
AcDbLine
 62
253
  6
CONTINUOUS
 10
51.0180553451
 20
21.4627518246
 11
51.0647627841
 21
21.1349515354
  0
LINE
  5
4E2
100
AcDbEntity
  8
IMPORT_IGES
100
AcDbLine
 62
253
  6
CONTINUOUS
 10
50.8828394277
 20
23.6513209343
 11
50.8183776361
 21
24.1147707822
  0
LINE
  5
4E3
100
AcDbEntity
  8
IMPORT_IGES
100
AcDbLine
 62
253
  6
CONTINUOUS
 10
51.0647627841
 20
21.1349515354
 11
51.1071261629
 21
20.8259340641
  0
LINE
  5
4E4
100
AcDbEntity
  8
IMPORT_IGES
100
AcDbLine
 62
253
  6
CONTINUOUS
 10
50.9411119999
 20
23.2149727002
 11
50.8828394277
 21
23.6513209343
  0
LINE
  5
4E5
100
AcDbEntity
  8
IMPORT_IGES
100
AcDbLine
 62
253
  6
CONTINUOUS
 10
51.1071261629
 20
20.8259340641
 11
51.1455622303
 21
20.5347986289
  0
LINE
  5
4E6
100
AcDbEntity
  8
IMPORT_IGES
100
AcDbLine
 62
253
  6
CONTINUOUS
 10
50.99368658
 20
22.8050349959
 11
50.9411119999
 21
23.2149727002
  0
LINE
  5
4E7
100
AcDbEntity
  8
IMPORT_IGES
100
AcDbLine
 62
253
  6
CONTINUOUS
 10
51.1455622303
 20
20.5347986289
 11
51.1804994278
 21
20.2602416776
  0
LINE
  5
4E8
100
AcDbEntity
  8
IMPORT_IGES
100
AcDbLine
 62
253
  6
CONTINUOUS
 10
51.0412739165
 20
22.4191440061
 11
50.99368658
 21
22.8050349959
  0
LINE
  5
4E9
100
AcDbEntity
  8
IMPORT_IGES
100
AcDbLine
 62
253
  6
CONTINUOUS
 10
51.1804994278
 20
20.2602416776
 11
51.2270453842
 21
19.877855697
  0
LINE
  5
4EA
100
AcDbEntity
  8
IMPORT_IGES
100
AcDbLine
 62
253
  6
CONTINUOUS
 10
51.0844266646
 20
22.0555332268
 11
51.0412739165
 21
22.4191440061
  0
LWPOLYLINE
  5
4EB
100
AcDbEntity
  8
IMPORT_IGES
100
AcDbPolyline
 62
253
  6
CONTINUOUS
 90
3
 70
0
 10
51.2270453842
 20
19.877855697
 10
51.2675335389
 20
19.5275821657
 10
51.2798611316
 20
19.4172674454
  0
LINE
  5
4EC
100
AcDbEntity
  8
IMPORT_IGES
100
AcDbLine
 62
253
  6
CONTINUOUS
 10
51.1417889692
 20
21.5491710262
 11
51.0844266646
 21
22.0555332268
  0
LWPOLYLINE
  5
4ED
100
AcDbEntity
  8
IMPORT_IGES
100
AcDbPolyline
 62
253
  6
CONTINUOUS
 90
31
 70
0
 10
10.0950096987
 20
26.258500917
 10
9.994797671
 20
26.2507592447
 10
9.8949965676
 20
26.239495694
 10
9.7956090523
 20
26.2247102647
 10
9.6963487702
 20
26.206341737
 10
9.5975102062
 20
26.1844513308
 10
9.4999546311
 20
26.1592227062
 10
9.403687088
 20
26.1305847626
 10
9.3086823319
 20
26.0986086006
 10
9.2157317196
 20
26.063691182
 10
9.124856397
 20
26.0257766544
 10
9.0359916329
 20
25.9849208701
 10
8.9497789825
 20
25.9416883482
 10
8.8662772363
 20
25.8960632141
 10
8.7853669632
 20
25.8480613424
 10
8.7074085466
 20
25.7982948755
 10
8.6324278144
 20
25.7467858318
 10
8.5603326665
 20
25.6935121931
 10
8.4913001873
 20
25.6390200474
 10
8.4253855084
 20
25.5833363814
 10
8.3624682139
 20
25.5264342084
 10
8.3024619488
 20
25.4687786563
 10
8.2453436286
 20
25.4104120851
 10
8.1910801366
 20
25.3512921346
 10
8.1395732796
 20
25.2917568529
 10
8.0908154915
 20
25.2318124444
 10
8.0447665527
 20
25.1714527046
 10
8.0012828702
 20
25.1109970674
 10
7.9603041102
 20
25.0505520107
 10
7.9218519932
 20
24.9900110567
 10
7.8859087095
 20
24.9293742052
  0
LWPOLYLINE
  5
4EE
100
AcDbEntity
  8
IMPORT_IGES
100
AcDbPolyline
 62
253
  6
CONTINUOUS
 90
43
 70
0
 10
48.3726473727
 20
26.2585007936
 10
47.6285982103
 20
26.3025619503
 10
46.8606812271
 20
26.345653206
 10
46.06989511
 20
26.3877745607
 10
45.2571988567
 20
26.4291213838
 10
44.4237150181
 20
26.4694983059
 10
43.5707446412
 20
26.5083192189
 10
42.6994937757
 20
26.5455575229
 10
41.8110262307
 20
26.5812398178
 10
40.9064755331
 20
26.6148597959
 10
39.9871680136
 20
26.6463843634
 10
39.0541636472
 20
26.6758466141
 10
38.1082005453
 20
26.702839521
 10
37.1501858487
 20
26.7273381849
 10
36.1816506537
 20
26.7493675051
 10
35.2042866155
 20
26.7685951521
 10
34.2195008862
 20
26.7849709907
 10
33.2284369687
 20
26.7985451561
 10
32.2324172525
 20
26.8091357236
 10
31.2327654442
 20
26.8167052157
 10
30.2307429146
 20
26.8212911099
 10
29.227583631
 20
26.8228239141
 10
28.2246171265
 20
26.8212550475
 10
27.2231040842
 20
26.816633091
 10
26.224174028
 20
26.8090342947
 10
25.229099966
 20
26.798423054
 10
24.2391829503
 20
26.7848349736
 10
23.2555903874
 20
26.768453118
 10
22.2794524676
 20
26.7492290553
 10
21.3121784018
 20
26.7272112173
 10
20.3553336598
 20
26.7027279647
 10
19.4104200691
 20
26.6757544651
 10
18.4783716202
 20
26.6463155509
 10
17.5598905221
 20
26.6148140789
 10
16.6560363955
 20
26.5812169105
 10
15.7681405955
 20
26.5455571844
 10
14.8973132333
 20
26.508337173
 10
14.0446241671
 20
26.469530032
 10
13.2112869004
 20
26.4291626057
 10
12.3985861511
 20
26.3878177005
 10
11.6076477727
 20
26.345689585
 10
10.8394515766
 20
26.3025839905
 10
10.0950096987
 20
26.258500917
  0
LWPOLYLINE
  5
4EF
100
AcDbEntity
  8
IMPORT_IGES
100
AcDbPolyline
 62
253
  6
CONTINUOUS
 90
16
 70
0
 10
49.1720223479
 20
24.9732934181
 10
49.286495993
 20
24.964736473
 10
49.3976435418
 20
24.9495608066
 10
49.504684014
 20
24.92828986
 10
49.606033646
 20
24.9018821794
 10
49.7020895116
 20
24.8708655511
 10
49.7951006019
 20
24.8346908507
 10
49.885397665
 20
24.7932398258
 10
49.9716841823
 20
24.7471825152
 10
50.0536792048
 20
24.6966134122
 10
50.1309983852
 20
24.6419181454
 10
50.2033298058
 20
24.5835350833
 10
50.2704929964
 20
24.5215633771
 10
50.3322476285
 20
24.4563201829
 10
50.3883607795
 20
24.3883987312
 10
50.4386948703
 20
24.3182918721
  0
LWPOLYLINE
  5
4F0
100
AcDbEntity
  8
IMPORT_IGES
100
AcDbPolyline
 62
253
  6
CONTINUOUS
 90
19
 70
0
 10
47.824325658
 20
24.8551883849
 10
47.9192195882
 20
24.8449871431
 10
48.0133784755
 20
24.8277029447
 10
48.1062039101
 20
24.8034292566
 10
48.1971063571
 20
24.772255253
 10
48.2855054352
 20
24.7343079133
 10
48.3708971245
 20
24.6898235197
 10
48.4528417962
 20
24.639028254
 10
48.5308644669
 20
24.5821667196
 10
48.6044670536
 20
24.5195987206
 10
48.6732469943
 20
24.4517071143
 10
48.7368106415
 20
24.3788670629
 10
48.7947425957
 20
24.3015329899
 10
48.8467539562
 20
24.2201508559
 10
48.8925861968
 20
24.135161659
 10
48.9319642641
 20
24.0470646665
 10
48.96469446
 20
23.9564028524
 10
48.9906464302
 20
23.863754308
 10
49.0096808476
 20
23.7697094359
  0
LINE
  5
4F1
100
AcDbEntity
  8
IMPORT_IGES
100
AcDbLine
 62
253
  6
CONTINUOUS
 10
50.6111127354
 20
23.9123172478
 11
50.6978924974
 21
23.4381231179
  0
LINE
  5
4F2
100
AcDbEntity
  8
IMPORT_IGES
100
AcDbLine
 62
253
  6
CONTINUOUS
 10
50.6978924974
 20
23.4381231179
 11
50.775973742
 21
22.9922265383
  0
LINE
  5
4F3
100
AcDbEntity
  8
IMPORT_IGES
100
AcDbLine
 62
253
  6
CONTINUOUS
 10
50.775973742
 20
22.9922265383
 11
50.8461343772
 21
22.5739739568
  0
LWPOLYLINE
  5
4F4
100
AcDbEntity
  8
IMPORT_IGES
100
AcDbPolyline
 62
253
  6
CONTINUOUS
 90
10
 70
0
 10
50.8183776361
 20
24.1147707822
 10
50.8053994727
 20
24.1992085034
 10
50.7893313192
 20
24.2854746983
 10
50.7700883628
 20
24.373569367
 10
50.7475552914
 20
24.4639057714
 10
50.721631225
 20
24.5560706496
 10
50.6922318605
 20
24.6488242159
 10
50.6592305963
 20
24.7417532084
 10
50.6224578478
 20
24.835270889
 10
50.5817474497
 20
24.9293772577
  0
LINE
  5
4F5
100
AcDbEntity
  8
IMPORT_IGES
100
AcDbLine
 62
7
  6
CONTINUOUS
 10
38.233828125
 20
-29.3553147588
 11
38.133828125
 21
-29.4553147588
  0
LWPOLYLINE
  5
4F6
100
AcDbEntity
  8
IMPORT_IGES
100
AcDbPolyline
 62
253
  6
CONTINUOUS
 90
10
 70
0
 10
50.4386948703
 20
24.3182918721
 10
50.465407065
 20
24.2764718428
 10
50.4903944424
 20
24.2335938967
 10
50.5135889243
 20
24.189742468
 10
50.5349746426
 20
24.1449814137
 10
50.5544483582
 20
24.0994331423
 10
50.5718333856
 20
24.0532790398
 10
50.5870605374
 20
24.0066505323
 10
50.6001549745
 20
23.9596271033
 10
50.6111054665
 20
23.9123160321
  0
LWPOLYLINE
  5
4F7
100
AcDbEntity
  8
IMPORT_IGES
100
AcDbPolyline
 62
253
  6
CONTINUOUS
 90
31
 70
0
 10
50.5817474384
 20
24.9293769088
 10
50.545315494
 20
24.9907269614
 10
50.5065590004
 20
25.051709722
 10
50.4654613811
 20
25.1123251905
 10
50.422087644
 20
25.1726011484
 10
50.3763373571
 20
25.2325098142
 10
50.3279422629
 20
25.2919678437
 10
50.276869953
 20
25.3510058882
 10
50.2231066167
 20
25.4095932963
 10
50.1664058879
 20
25.4675547702
 10
50.1066913245
 20
25.5249977951
 10
50.0439813965
 20
25.5818148858
 10
49.9781670779
 20
25.6375082882
 10
49.9091168014
 20
25.6921138233
 10
49.8368942274
 20
25.7455956701
 10
49.7616829867
 20
25.7973486123
 10
49.6833205447
 20
25.8474140673
 10
49.6018996266
 20
25.8957506176
 10
49.5179960923
 20
25.9416287946
 10
49.4315388374
 20
25.9849880256
 10
49.3425417107
 20
26.0258888831
 10
49.2517260372
 20
26.0637836168
 10
49.1591396949
 20
26.0985849871
 10
49.0646979459
 20
26.1303802335
 10
48.9689416825
 20
26.1588833238
 10
48.8718559159
 20
26.1840616446
 10
48.7734339394
 20
26.2059478094
 10
48.6742455537
 20
26.2243536259
 10
48.5744828496
 20
26.2392163634
 10
48.4739508885
 20
26.2505987526
 10
48.3726473727
 20
26.2585007936
  0
LINE
  5
4F8
100
AcDbEntity
  8
IMPORT_IGES
100
AcDbLine
 62
253
  6
CONTINUOUS
 10
51.6325280508
 20
40.549048509
 11
6.8351281992
 21
40.549048509
  0
LINE
  5
4F9
100
AcDbEntity
  8
IMPORT_IGES
100
AcDbLine
 62
7
  6
CONTINUOUS
 10
51.1325376895
 20
41.0446852412
 11
7.3351185605
 21
41.0446852412
  0
LINE
  5
4FA
100
AcDbEntity
  8
IMPORT_IGES
100
AcDbLine
 62
253
  6
CONTINUOUS
 10
7.5670662829
 20
41.0428036589
 11
7.6103268171
 21
41.0446852412
  0
LINE
  5
4FB
100
AcDbEntity
  8
IMPORT_IGES
100
AcDbLine
 62
253
  6
CONTINUOUS
 10
50.9005899671
 20
41.0428036589
 11
50.8573294329
 21
41.0446852412
  0
LWPOLYLINE
  5
4FC
100
AcDbEntity
  8
IMPORT_IGES
100
AcDbPolyline
 62
253
  6
CONTINUOUS
 90
5
 70
0
 10
51.0671715571
 20
40.9983500306
 10
51.0271303243
 20
41.0148623
 10
50.985811114
 20
41.027835862
 10
50.9435249083
 20
41.0371730732
 10
50.9005899671
 20
41.0428036589
  0
ARC
  5
4FD
100
AcDbEntity
  8
IMPORT_IGES
100
AcDbCircle
 62
7
  6
CONTINUOUS
 10
-20.1266796875
 20
-35.4553147588
 40
2.5
100
AcDbArc
 50
180.0
 51
360.0
  0
ARC
  5
4FE
100
AcDbEntity
  8
IMPORT_IGES
100
AcDbCircle
 62
7
  6
CONTINUOUS
 10
-46.1266796875
 20
-35.4553147588
 40
2.5
100
AcDbArc
 50
180.0
 51
360.0
  0
ARC
  5
4FF
100
AcDbEntity
  8
IMPORT_IGES
100
AcDbCircle
 62
7
  6
CONTINUOUS
 10
-33.1266796875
 20
-35.9553147588
 40
2.5
100
AcDbArc
 50
180.0
 51
360.0
  0
ARC
  5
500
100
AcDbEntity
  8
IMPORT_IGES
100
AcDbCircle
 62
7
  6
CONTINUOUS
 10
-58.4444862295
 20
24.4738164563
 40
0.999999999
100
AcDbArc
 50
91.4522109995
 51
178.9999298089
  0
ARC
  5
501
100
AcDbEntity
  8
IMPORT_IGES
100
AcDbCircle
 62
7
  6
CONTINUOUS
 10
-7.808873144
 20
24.4738164534
 40
0.999999999
100
AcDbArc
 50
1.0000702942
 51
88.5477890004
  0
ARC
  5
502
100
AcDbEntity
  8
IMPORT_IGES
100
AcDbCircle
 62
7
  6
CONTINUOUS
 10
-58.4444862325
 20
3.6155540139
 40
0.999999999
100
AcDbArc
 50
181.0000700764
 51
268.5477890003
  0
ARC
  5
503
100
AcDbEntity
  8
IMPORT_IGES
100
AcDbCircle
 62
7
  6
CONTINUOUS
 10
-7.8088731419
 20
3.6155541014
 40
0.999999999
100
AcDbArc
 50
271.4522109998
 51
358.9999310122
  0
ARC
  5
504
100
AcDbEntity
  8
IMPORT_IGES
100
AcDbCircle
 62
7
  6
CONTINUOUS
 10
-13.8679915796
 20
-17.9553151127
 40
0.9999996007
100
AcDbArc
 50
270.0000358474
 51
359.5000206182
  0
ARC
  5
505
100
AcDbEntity
  8
IMPORT_IGES
100
AcDbCircle
 62
7
  6
CONTINUOUS
 10
-52.3853677954
 20
-17.9553151127
 40
0.9999996006
100
AcDbArc
 50
180.4999793813
 51
269.9999641545
  0
ARC
  5
506
100
AcDbEntity
  8
IMPORT_IGES
100
AcDbCircle
 62
7
  6
CONTINUOUS
 10
-54.0453986518
 20
40.5446852412
 40
0.5
100
AcDbArc
 50
90.0
 51
179.4999999999
  0
ARC
  5
507
100
AcDbEntity
  8
IMPORT_IGES
100
AcDbCircle
 62
7
  6
CONTINUOUS
 10
-12.2079607231
 20
40.5446852412
 40
0.5
100
AcDbArc
 50
0.5000000001
 51
90.0
  0
ARC
  5
508
100
AcDbEntity
  8
IMPORT_IGES
100
AcDbCircle
 62
7
  6
CONTINUOUS
 10
-59.3266796875
 20
17.4946852412
 40
0.3
100
AcDbArc
 50
142.0818738128
 51
180.0
  0
ARC
  5
509
100
AcDbEntity
  8
IMPORT_IGES
100
AcDbCircle
 62
7
  6
CONTINUOUS
 10
-59.3266796875
 20
10.5946852412
 40
0.3
100
AcDbArc
 50
180.0
 51
217.9181261872
  0
ARC
  5
50A
100
AcDbEntity
  8
IMPORT_IGES
100
AcDbCircle
 62
7
  6
CONTINUOUS
 10
-6.9266796875
 20
10.5946852412
 40
0.3
100
AcDbArc
 50
322.0818738128
 51
360.0
  0
ARC
  5
50B
100
AcDbEntity
  8
IMPORT_IGES
100
AcDbCircle
 62
7
  6
CONTINUOUS
 10
-6.9266796875
 20
17.4946852412
 40
0.3
100
AcDbArc
 50
0.0
 51
37.9181261872
  0
ARC
  5
50C
100
AcDbEntity
  8
IMPORT_IGES
100
AcDbCircle
 62
7
  6
CONTINUOUS
 10
-8.116171875
 20
14.0446852412
 40
60.0
100
AcDbArc
 50
0.0954930101
 51
2.0449545519
  0
ARC
  5
50D
100
AcDbEntity
  8
IMPORT_IGES
100
AcDbCircle
 62
7
  6
CONTINUOUS
 10
-8.116171875
 20
14.0446852412
 40
60.0
100
AcDbArc
 50
347.4725380486
 51
359.9045069899
  0
ARC
  5
50E
100
AcDbEntity
  8
IMPORT_IGES
100
AcDbCircle
 62
7
  6
CONTINUOUS
 10
7.3351091606
 20
40.5446852412
 40
0.5
100
AcDbArc
 50
90.0
 51
179.4999999999
  0
ARC
  5
50F
100
AcDbEntity
  8
IMPORT_IGES
100
AcDbCircle
 62
7
  6
CONTINUOUS
 10
25.8215372063
 20
6.5446852412
 40
6.7122909187
100
AcDbArc
 50
47.3920884039
 51
48.4805021405
  0
ARC
  5
510
100
AcDbEntity
  8
IMPORT_IGES
100
AcDbCircle
 62
7
  6
CONTINUOUS
 10
16.233828125
 20
14.0446852412
 40
3.85
100
AcDbArc
 50
90.0006272778
 51
178.5116290595
  0
ARC
  5
511
100
AcDbEntity
  8
IMPORT_IGES
100
AcDbCircle
 62
7
  6
CONTINUOUS
 10
16.233828125
 20
14.0446852412
 40
3.85
100
AcDbArc
 50
181.4883731066
 51
269.9983238071
  0
ARC
  5
512
100
AcDbEntity
  8
IMPORT_IGES
100
AcDbCircle
 62
7
  6
CONTINUOUS
 10
16.233828125
 20
14.0446852412
 40
3.75
100
AcDbArc
 50
90.0
 51
270.0
  0
ARC
  5
513
100
AcDbEntity
  8
IMPORT_IGES
100
AcDbCircle
 62
7
  6
CONTINUOUS
 10
27.933828125
 20
13.6446852412
 40
3.6757359313
100
AcDbArc
 50
335.8657881016
 51
55.9074639688
  0
ARC
  5
514
100
AcDbEntity
  8
IMPORT_IGES
100
AcDbCircle
 62
253
  6
CONTINUOUS
 10
16.233828125
 20
14.0446852412
 40
3.45
100
AcDbArc
 50
90.0073734325
 51
270.0
  0
ARC
  5
515
100
AcDbEntity
  8
IMPORT_IGES
100
AcDbCircle
 62
7
  6
CONTINUOUS
 10
27.933828125
 20
13.6446852412
 40
3.2514718626
100
AcDbArc
 50
328.8589130603
 51
55.9075012792
  0
ARC
  5
516
100
AcDbEntity
  8
IMPORT_IGES
100
AcDbCircle
 62
7
  6
CONTINUOUS
 10
15.8664714708
 20
14.5427435499
 40
3.2514718626
100
AcDbArc
 50
267.1744154277
 51
272.5240726748
  0
ARC
  5
517
100
AcDbEntity
  8
IMPORT_IGES
100
AcDbCircle
 62
253
  6
CONTINUOUS
 10
16.233828125
 20
14.0446852412
 40
3.1
100
AcDbArc
 50
47.5964029953
 51
312.402576684
  0
ARC
  5
518
100
AcDbEntity
  8
IMPORT_IGES
100
AcDbCircle
 62
7
  6
CONTINUOUS
 10
16.233828125
 20
14.0446852412
 40
2.8
100
AcDbArc
 50
47.5962554759
 51
312.4037445429
  0
ARC
  5
519
100
AcDbEntity
  8
IMPORT_IGES
100
AcDbCircle
 62
253
  6
CONTINUOUS
 10
27.933828125
 20
13.6446852412
 40
2.7357657342
100
AcDbArc
 50
330.922409917
 51
49.4580493156
  0
ARC
  5
51A
100
AcDbEntity
  8
IMPORT_IGES
100
AcDbCircle
 62
253
  6
CONTINUOUS
 10
19.733828125
 20
14.0446852412
 40
2.55
100
AcDbArc
 50
242.3977292361
 51
117.6121693482
  0
ARC
  5
51B
100
AcDbEntity
  8
IMPORT_IGES
100
AcDbCircle
 62
7
  6
CONTINUOUS
 10
27.933828125
 20
13.6446852412
 40
2.5014511592
100
AcDbArc
 50
331.03918606
 51
49.0081591133
  0
ARC
  5
51C
100
AcDbEntity
  8
IMPORT_IGES
100
AcDbCircle
 62
7
  6
CONTINUOUS
 10
19.733828125
 20
14.0446852412
 40
2.25
100
AcDbArc
 50
242.3863923811
 51
117.6136076198
  0
ARC
  5
51D
100
AcDbEntity
  8
IMPORT_IGES
100
AcDbCircle
 62
7
  6
CONTINUOUS
 10
18.4591852679
 20
11.6079280545
 40
0.5
100
AcDbArc
 50
62.3863923473
 51
132.4037446788
  0
ARC
  5
51E
100
AcDbEntity
  8
IMPORT_IGES
100
AcDbCircle
 62
7
  6
CONTINUOUS
 10
18.4591852679
 20
16.4814424279
 40
0.5
100
AcDbArc
 50
227.5962544553
 51
297.6136076243
  0
ARC
  5
51F
100
AcDbEntity
  8
IMPORT_IGES
100
AcDbCircle
 62
253
  6
CONTINUOUS
 10
18.4591852678
 20
11.6079280546
 40
0.2
100
AcDbArc
 50
62.2418483987
 51
132.4218485946
  0
ARC
  5
520
100
AcDbEntity
  8
IMPORT_IGES
100
AcDbCircle
 62
253
  6
CONTINUOUS
 10
18.4591852679
 20
16.4814424279
 40
0.2
100
AcDbArc
 50
227.5939663707
 51
297.6319456529
  0
ARC
  5
521
100
AcDbEntity
  8
IMPORT_IGES
100
AcDbCircle
 62
7
  6
CONTINUOUS
 10
40.633828125
 20
-35.9553147588
 40
2.5
100
AcDbArc
 50
180.0
 51
360.0
  0
ARC
  5
522
100
AcDbEntity
  8
IMPORT_IGES
100
AcDbCircle
 62
7
  6
CONTINUOUS
 10
40.633828125
 20
-35.4553147588
 40
2.5
100
AcDbArc
 50
180.0
 51
360.0
  0
ARC
  5
523
100
AcDbEntity
  8
IMPORT_IGES
100
AcDbCircle
 62
7
  6
CONTINUOUS
 10
47.1925169144
 20
-17.9553147588
 40
1.0
100
AcDbArc
 50
270.0
 51
359.4999999999
  0
ARC
  5
524
100
AcDbEntity
  8
IMPORT_IGES
100
AcDbCircle
 62
7
  6
CONTINUOUS
 10
34.0751393356
 20
-17.9553147588
 40
1.0
100
AcDbArc
 50
180.5000000001
 51
270.0
  0
ARC
  5
525
100
AcDbEntity
  8
IMPORT_IGES
100
AcDbCircle
 62
7
  6
CONTINUOUS
 10
32.6461190437
 20
6.5446852412
 40
6.7122909187
100
AcDbArc
 50
131.5195518928
 51
132.6023512974
  0
ARC
  5
526
100
AcDbEntity
  8
IMPORT_IGES
100
AcDbCircle
 62
7
  6
CONTINUOUS
 10
30.533828125
 20
13.6446852412
 40
3.6757359313
100
AcDbArc
 50
124.0924996129
 51
204.1796126396
  0
ARC
  5
527
100
AcDbEntity
  8
IMPORT_IGES
100
AcDbCircle
 62
7
  6
CONTINUOUS
 10
30.533828125
 20
13.6446852412
 40
3.2514718626
100
AcDbArc
 50
124.0924740123
 51
211.1410925528
  0
CIRCLE
  5
528
100
AcDbEntity
  8
IMPORT_IGES
100
AcDbCircle
 62
253
  6
CONTINUOUS
 10
29.233828125
 20
14.0446852412
 40
3.1
  0
CIRCLE
  5
529
100
AcDbEntity
  8
IMPORT_IGES
100
AcDbCircle
 62
7
  6
CONTINUOUS
 10
29.233828125
 20
14.0446852412
 40
2.8
  0
ARC
  5
52A
100
AcDbEntity
  8
IMPORT_IGES
100
AcDbCircle
 62
253
  6
CONTINUOUS
 10
30.533828125
 20
13.6446852412
 40
2.7357657342
100
AcDbArc
 50
130.5419508794
 51
209.0775955661
  0
ARC
  5
52B
100
AcDbEntity
  8
IMPORT_IGES
100
AcDbCircle
 62
7
  6
CONTINUOUS
 10
30.533828125
 20
13.6446852412
 40
2.5014511592
100
AcDbArc
 50
130.9918408867
 51
208.96081394
  0
ARC
  5
52C
100
AcDbEntity
  8
IMPORT_IGES
100
AcDbCircle
 62
7
  6
CONTINUOUS
 10
42.233828125
 20
14.0446852412
 40
3.85
100
AcDbArc
 50
1.4883706105
 51
89.9995825368
  0
ARC
  5
52D
100
AcDbEntity
  8
IMPORT_IGES
100
AcDbCircle
 62
7
  6
CONTINUOUS
 10
42.233828125
 20
14.0446852412
 40
3.85
100
AcDbArc
 50
270.0016263884
 51
358.5116258179
  0
ARC
  5
52E
100
AcDbEntity
  8
IMPORT_IGES
100
AcDbCircle
 62
7
  6
CONTINUOUS
 10
42.233828125
 20
14.0446852412
 40
3.75
100
AcDbArc
 50
270.0
 51
90.0
  0
ARC
  5
52F
100
AcDbEntity
  8
IMPORT_IGES
100
AcDbCircle
 62
253
  6
CONTINUOUS
 10
42.233828125
 20
14.0446852412
 40
3.45
100
AcDbArc
 50
270.0073734325
 51
90.0
  0
ARC
  5
530
100
AcDbEntity
  8
IMPORT_IGES
100
AcDbCircle
 62
7
  6
CONTINUOUS
 10
42.6011847792
 20
13.5466269325
 40
3.2514718626
100
AcDbArc
 50
87.1744154283
 51
92.5240726733
  0
ARC
  5
531
100
AcDbEntity
  8
IMPORT_IGES
100
AcDbCircle
 62
253
  6
CONTINUOUS
 10
42.233828125
 20
14.0446852412
 40
3.1
100
AcDbArc
 50
227.5964029952
 51
132.402576684
  0
ARC
  5
532
100
AcDbEntity
  8
IMPORT_IGES
100
AcDbCircle
 62
7
  6
CONTINUOUS
 10
42.233828125
 20
14.0446852412
 40
2.8
100
AcDbArc
 50
227.5962554759
 51
132.4037445429
  0
ARC
  5
533
100
AcDbEntity
  8
IMPORT_IGES
100
AcDbCircle
 62
253
  6
CONTINUOUS
 10
38.733828125
 20
14.0446852412
 40
2.55
100
AcDbArc
 50
62.3977292361
 51
297.612169348
  0
ARC
  5
534
100
AcDbEntity
  8
IMPORT_IGES
100
AcDbCircle
 62
7
  6
CONTINUOUS
 10
38.733828125
 20
14.0446852412
 40
2.25
100
AcDbArc
 50
62.3863923811
 51
297.6136076198
  0
ARC
  5
535
100
AcDbEntity
  8
IMPORT_IGES
100
AcDbCircle
 62
7
  6
CONTINUOUS
 10
40.0084709821
 20
11.6079280545
 40
0.5
100
AcDbArc
 50
47.5962544552
 51
117.6136076244
  0
ARC
  5
536
100
AcDbEntity
  8
IMPORT_IGES
100
AcDbCircle
 62
7
  6
CONTINUOUS
 10
40.0084709821
 20
16.4814424279
 40
0.5
100
AcDbArc
 50
242.3863923473
 51
312.4037446788
  0
ARC
  5
537
100
AcDbEntity
  8
IMPORT_IGES
100
AcDbCircle
 62
253
  6
CONTINUOUS
 10
40.0084709822
 20
16.4814424279
 40
0.2
100
AcDbArc
 50
242.2418483986
 51
312.4218485946
  0
ARC
  5
538
100
AcDbEntity
  8
IMPORT_IGES
100
AcDbCircle
 62
253
  6
CONTINUOUS
 10
40.0084709821
 20
11.6079280545
 40
0.2
100
AcDbArc
 50
47.5939663754
 51
117.6319456547
  0
ARC
  5
539
100
AcDbEntity
  8
IMPORT_IGES
100
AcDbCircle
 62
7
  6
CONTINUOUS
 10
66.583828125
 20
14.0446852412
 40
60.0
100
AcDbArc
 50
177.9550454481
 51
179.9045069899
  0
ARC
  5
53A
100
AcDbEntity
  8
IMPORT_IGES
100
AcDbCircle
 62
7
  6
CONTINUOUS
 10
66.583828125
 20
14.0446852412
 40
60.0
100
AcDbArc
 50
180.0954930101
 51
192.5274620638
  0
ARC
  5
53B
100
AcDbEntity
  8
IMPORT_IGES
100
AcDbCircle
 62
7
  6
CONTINUOUS
 10
51.1325470894
 20
40.5446852412
 40
0.5
100
AcDbArc
 50
0.5000000001
 51
90.0
  0
ARC
  5
53C
100
AcDbEntity
  8
IMPORT_IGES
100
AcDbCircle
 62
7
  6
CONTINUOUS
 10
29.233828125
 20
279.2946852412
 40
280.0
100
AcDbArc
 50
265.8947238465
 51
270.4890820679
  0
ENDSEC
  0
SECTION
  2
OBJECTS
  0
DICTIONARY
  5
C
100
AcDbDictionary
280
0
281
1
  3
ACAD_GROUP
350
D
  3
ACAD_MLINESTYLE
350
17
  3
ACAD_LAYOUT
350
1A
  3
ACAD_PLOTSETTINGS
350
19
  3
ACAD_PLOTSTYLENAME
350
E
  0
DICTIONARY
  5
D
102
{ACAD_REACTORS
330
C
102
}
100
AcDbDictionary
280
0
281
1
  0
ACDBDICTIONARYWDFLT
  5
E
102
{ACAD_REACTORS
330
C
102
}
100
AcDbDictionary
281
1
  3
Normal
350
F
100
AcDbDictionaryWithDefault
340
F
  0
DICTIONARY
  5
17
102
{ACAD_REACTORS
330
C
102
}
100
AcDbDictionary
280
0
281
1
  3
Standard
350
18
  0
DICTIONARY
  5
19
102
{ACAD_REACTORS
330
C
102
}
100
AcDbDictionary
281
1
  0
DICTIONARY
  5
1A
102
{ACAD_REACTORS
330
C
102
}
100
AcDbDictionary
281
1
  3
Model
350
53D
  3
Layout1
350
53E
  0
ACDBPLACEHOLDER
  5
F
102
{ACAD_REACTORS
330
E
102
}
  0
MLINESTYLE
  5
18
102
{ACAD_REACTORS
330
17
102
}
100
AcDbMlineStyle
  2
STANDARD
 70
0
  3

 62
256
 51
90.0
 52
90.0
 71
2
 49
0.5
 62
256
  6
BYLAYER
 49
-0.5
 62
256
  6
BYLAYER
  0
LAYOUT
  5
53D
102
{ACAD_REACTORS
330
1A
102
}
100
AcDbPlotSettings
  1

  2
none_device
  4
ISO_A4_(297.00_x_210.00_MM)
  6

 40
0.0
 41
0.0
 42
0.0
 43
0.0
 44
297.0
 45
210.0
 46
0.0
 47
0.0
 48
0.0
 49
0.0
140
0.0
141
0.0
142
1.0
143
1.0
 70
1024
 72
1
 73
0
 74
0
  7

 75
0
147
1.0
148
0.0
149
0.0
100
AcDbLayout
  1
Model
 70
0
 71
0
 10
0.0
 20
0.0
 11
297.0
 21
210.0
 12
0.0
 22
0.0
 32
0.0
 14
0.0
 24
0.0
 34
0.0
 15
0.0
 25
0.0
 35
0.0
146
0.0
 13
0.0
 23
0.0
 33
0.0
 16
1.0
 26
0.0
 36
0.0
 17
0.0
 27
1.0
 37
0.0
 76
0
330
20F
345
0
346
0
  0
LAYOUT
  5
53E
102
{ACAD_REACTORS
330
1A
102
}
100
AcDbPlotSettings
  1

  2
none_device
  4
ISO_A4_(297.00_x_210.00_MM)
  6

 40
0.0
 41
0.0
 42
0.0
 43
0.0
 44
297.0
 45
210.0
 46
0.0
 47
0.0
 48
0.0
 49
0.0
140
0.0
141
0.0
142
1.0
143
1.0
 70
0
 72
1
 73
0
 74
0
  7

 75
0
147
1.0
148
0.0
149
0.0
100
AcDbLayout
  1
Layout1
 70
0
 71
1
 10
0.0
 20
0.0
 11
297.0
 21
210.0
 12
0.0
 22
0.0
 32
0.0
 14
0.0
 24
0.0
 34
0.0
 15
0.0
 25
0.0
 35
0.0
146
0.0
 13
0.0
 23
0.0
 33
0.0
 16
1.0
 26
0.0
 36
0.0
 17
0.0
 27
1.0
 37
0.0
 76
0
330
210
345
0
346
0
  0
ENDSEC
  0
EOF
