  0
SECTION
  2
HEADER
  9
$ACADVER
  1
AC1024
  9
$DWGCODEPAGE
  3
ANSI_1252
  9
$EXTMAX
 10
297.0
 20
210.0
 30
0.0
  9
$EXTMIN
 10
0.0
 20
0.0
 30
0.0
  9
$LIMMIN
 10
0.0
 20
0.0
  9
$LIMMAX
 10
297.0
 20
210.0
  9
$VIEWCTR
 10
148.5
 20
105.0
  9
$VIEWSIZE
 40
210.0
  9
$CLAYER
  8
0
  9
$LTSCALE
 40
16.335
  9
$CELTYPE
  6
BYLAYER
  9
$DIMSCALE
 40
1.0
  9
$DIMASZ
 40
3.0
  9
$DIMEXO
 40
0.5
  9
$DIMDLI
 40
11.286
  9
$DIMEXE
 40
1.5
  9
$DIMCEN
 40
2.673
  9
$DIMLFAC
 40
1.0
  9
$DIMBLK
  1
_FILLED
  9
$DIMALT
 70
0
  9
$DIMALTF
 40
0.0393700787
  9
$DIMTXT
 40
3.0
  9
$DIMTOL
 70
1
  9
$DIMLIM
 70
0
  9
$DIMTFAC
 40
1.0
  9
$DIMTP
 40
0.01
  9
$DIMTM
 40
0.01
  9
$DIMGAP
 40
0.625
  9
$DIMDSEP
 70
44
  9
$AUNITS
 70
0
  9
$PDMODE
 70
3
  9
$PDSIZE
 40
3.0
  9
$HANDSEED
  5
345
  9
$TILEMODE
 70
1
  9
$MEASUREMENT
 70
1
  9
$INSUNITS
 70
4
  0
ENDSEC
  0
SECTION
  2
CLASSES
  0
CLASS
  1
ACDBDICTIONARYWDFLT
  2
AcDbDictionaryWithDefault
  3
AutoCAD 2000
 90
0
 91
1
280
0
281
0
  0
CLASS
  1
ACDBPLACEHOLDER
  2
AcDbPlaceHolder
  3
AutoCAD 2000
 90
0
 91
1
280
0
281
0
  0
CLASS
  1
LAYOUT
  2
AcDbLayout
  3
AutoCAD 2000
 90
0
 91
0
280
0
281
0
  0
ENDSEC
  0
SECTION
  2
TABLES
  0
TABLE
  2
VPORT
  5
8
100
AcDbSymbolTable
 70
2
  0
VPORT
  5
1F4
100
AcDbSymbolTableRecord
100
AcDbViewportTableRecord
  2
*ACTIVE
 70
0
 10
0.0
 20
0.0
 11
1.0
 21
1.0
 12
148.5
 22
105.0
 13
0.0
 23
0.0
 14
1.0
 24
1.0
 15
0.0
 25
0.0
 16
0.0
 26
0.0
 36
1.0
 17
0.0
 27
0.0
 37
0.0
 40
210.0
 41
1.4142857143
 42
50.0
 43
0.0
 44
0.0
 50
0.0
 51
0.0
 71
0
 72
100
 73
1
 74
1
 75
0
 76
0
 77
0
 78
0
  0
ENDTAB
  0
TABLE
  2
LTYPE
  5
5
100
AcDbSymbolTable
 70
6
  0
LTYPE
  5
14
100
AcDbSymbolTableRecord
100
AcDbLinetypeTableRecord
  2
BYBLOCK
 70
0
  3

 72
65
 73
0
 40
0.0
  0
LTYPE
  5
15
100
AcDbSymbolTableRecord
100
AcDbLinetypeTableRecord
  2
BYLAYER
 70
0
  3

 72
65
 73
0
 40
0.0
  0
LTYPE
  5
16
100
AcDbSymbolTableRecord
100
AcDbLinetypeTableRecord
  2
CONTINUOUS
 70
64
  3
Solid line
 72
65
 73
0
 40
0.0
  0
LTYPE
  5
1F5
100
AcDbSymbolTableRecord
100
AcDbLinetypeTableRecord
  2
CENTER
 70
64
  3
____ _ ____ _ ____ _ ____ _ ____ _ ____ _ ____
 72
65
 73
4
 40
0.6
 49
0.375
 74
0
 49
-0.075
 74
0
 49
0.075
 74
0
 49
-0.075
 74
0
  0
LTYPE
  5
1F6
100
AcDbSymbolTableRecord
100
AcDbLinetypeTableRecord
  2
HIDDEN
 70
64
  3
- - - - - - - - - - - - - - - - - - - -
 72
65
 73
2
 40
0.2
 49
0.1
 74
0
 49
-0.1
 74
0
  0
LTYPE
  5
1F7
100
AcDbSymbolTableRecord
100
AcDbLinetypeTableRecord
  2
PHANTOM
 70
64
  3
_____ _ _ _____ _ _ _____ _ _ _____
 72
65
 73
6
 40
0.8
 49
0.45
 74
0
 49
-0.05
 74
0
 49
0.1
 74
0
 49
-0.05
 74
0
 49
0.1
 74
0
 49
-0.05
 74
0
  0
LTYPE
  5
1F8
100
AcDbSymbolTableRecord
100
AcDbLinetypeTableRecord
  2
DOT
 70
64
  3
. . . . . . . . . . . . . . . . . . . .
 72
65
 73
2
 40
0.2
 49
0.1
 74
0
 49
-0.1
 74
0
  0
LTYPE
  5
1F9
100
AcDbSymbolTableRecord
100
AcDbLinetypeTableRecord
  2
DASHED
 70
64
  3
- - - - - - - - - - - - - - - - - - - -
 72
65
 73
2
 40
0.2
 49
0.1
 74
0
 49
-0.1
 74
0
  0
ENDTAB
  0
TABLE
  2
LAYER
  5
2
100
AcDbSymbolTable
 70
36
  0
LAYER
  5
10
100
AcDbSymbolTableRecord
100
AcDbLayerTableRecord
  2
0
 70
0
 62
7
  6
CONTINUOUS
370
-3
390
F
  0
LAYER
  5
1FA
100
AcDbSymbolTableRecord
100
AcDbLayerTableRecord
  2
DEFAULT_1
 70
0
 62
7
  6
CENTER
370
-3
390
F
  0
LAYER
  5
1FB
100
AcDbSymbolTableRecord
100
AcDbLayerTableRecord
  2
DEFAULT_2
 70
0
 62
7
  6
HIDDEN
370
-3
390
F
  0
LAYER
  5
1FC
100
AcDbSymbolTableRecord
100
AcDbLayerTableRecord
  2
DEFAULT_3
 70
0
 62
7
  6
PHANTOM
370
-3
390
F
  0
LAYER
  5
1FD
100
AcDbSymbolTableRecord
100
AcDbLayerTableRecord
  2
ASSI
 70
0
 62
7
  6
CONTINUOUS
370
-3
390
F
  0
LAYER
  5
1FE
100
AcDbSymbolTableRecord
100
AcDbLayerTableRecord
  2
COORDINATE
 70
0
 62
7
  6
CONTINUOUS
370
-3
390
F
  0
LAYER
  5
1FF
100
AcDbSymbolTableRecord
100
AcDbLayerTableRecord
  2
COORD_ORIGINE
 70
0
 62
7
  6
CONTINUOUS
370
-3
390
F
  0
LAYER
  5
200
100
AcDbSymbolTableRecord
100
AcDbLayerTableRecord
  2
COPY_PUBLISH
 70
0
 62
7
  6
CONTINUOUS
370
-3
390
F
  0
LAYER
  5
201
100
AcDbSymbolTableRecord
100
AcDbLayerTableRecord
  2
COSMETIC
 70
0
 62
7
  6
CONTINUOUS
370
-3
390
F
  0
LAYER
  5
202
100
AcDbSymbolTableRecord
100
AcDbLayerTableRecord
  2
CURVE
 70
0
 62
7
  6
CONTINUOUS
370
-3
390
F
  0
LAYER
  5
203
100
AcDbSymbolTableRecord
100
AcDbLayerTableRecord
  2
DRAFT
 70
0
 62
7
  6
CONTINUOUS
370
-3
390
F
  0
LAYER
  5
204
100
AcDbSymbolTableRecord
100
AcDbLayerTableRecord
  2
IMPORT_IGES
 70
0
 62
7
  6
CONTINUOUS
370
-3
390
F
  0
LAYER
  5
205
100
AcDbSymbolTableRecord
100
AcDbLayerTableRecord
  2
INTF_1
 70
0
 62
7
  6
CONTINUOUS
370
-3
390
F
  0
LAYER
  5
206
100
AcDbSymbolTableRecord
100
AcDbLayerTableRecord
  2
NOTE
 70
0
 62
7
  6
CONTINUOUS
370
-3
390
F
  0
LAYER
  5
207
100
AcDbSymbolTableRecord
100
AcDbLayerTableRecord
  2
PIANI
 70
0
 62
7
  6
CONTINUOUS
370
-3
390
F
  0
LAYER
  5
208
100
AcDbSymbolTableRecord
100
AcDbLayerTableRecord
  2
PIANI_ORIGINE
 70
0
 62
7
  6
CONTINUOUS
370
-3
390
F
  0
LAYER
  5
209
100
AcDbSymbolTableRecord
100
AcDbLayerTableRecord
  2
PUNTI
 70
0
 62
7
  6
CONTINUOUS
370
-3
390
F
  0
LAYER
  5
20A
100
AcDbSymbolTableRecord
100
AcDbLayerTableRecord
  2
RACCORDO
 70
0
 62
7
  6
CONTINUOUS
370
-3
390
F
  0
LAYER
  5
20B
100
AcDbSymbolTableRecord
100
AcDbLayerTableRecord
  2
SCRITTE
 70
0
 62
7
  6
CONTINUOUS
370
-3
390
F
  0
LAYER
  5
20C
100
AcDbSymbolTableRecord
100
AcDbLayerTableRecord
  2
SMUSSO
 70
0
 62
7
  6
CONTINUOUS
370
-3
390
F
  0
LAYER
  5
20D
100
AcDbSymbolTableRecord
100
AcDbLayerTableRecord
  2
SNAPLINE
 70
0
 62
7
  6
CONTINUOUS
370
-3
390
F
  0
LAYER
  5
20E
100
AcDbSymbolTableRecord
100
AcDbLayerTableRecord
  2
SUPERFICI
 70
0
 62
7
  6
CONTINUOUS
370
-3
390
F
  0
LAYER
  5
20F
100
AcDbSymbolTableRecord
100
AcDbLayerTableRecord
  2
TRASH
 70
0
 62
7
  6
CONTINUOUS
370
-3
390
F
  0
LAYER
  5
210
100
AcDbSymbolTableRecord
100
AcDbLayerTableRecord
  2
XSEC_DATUMS
 70
0
 62
7
  6
CONTINUOUS
370
-3
390
F
  0
ENDTAB
  0
TABLE
  2
STYLE
  5
3
100
AcDbSymbolTable
 70
1
  0
STYLE
  5
11
100
AcDbSymbolTableRecord
100
AcDbTextStyleTableRecord
  2
STANDARD
 70
0
 40
0.0
 41
0.8
 50
0.0
 71
0
 42
0.2
  3
txt
  4

  0
STYLE
  5
211
100
AcDbSymbolTableRecord
100
AcDbTextStyleTableRecord
  2
TEXTSTYLE_1
 70
0
 40
0.0
 41
0.8
 50
0.0
 71
0
 42
0.2
  3
gdt
  4

  0
ENDTAB
  0
TABLE
  2
VIEW
  5
6
100
AcDbSymbolTable
 70
0
  0
ENDTAB
  0
TABLE
  2
UCS
  5
7
100
AcDbSymbolTable
 70
0
  0
ENDTAB
  0
TABLE
  2
APPID
  5
9
100
AcDbSymbolTable
 70
1
  0
APPID
  5
212
100
AcDbSymbolTableRecord
100
AcDbRegAppTableRecord
  2
ACAD
 70
0
  0
ENDTAB
  0
TABLE
  2
BLOCK_RECORD
  5
1
100
AcDbSymbolTable
 70
0
  0
BLOCK_RECORD
  5
213
100
AcDbSymbolTableRecord
100
AcDbBlockTableRecord
  2
*Model_Space
  0
BLOCK_RECORD
  5
214
100
AcDbSymbolTableRecord
100
AcDbBlockTableRecord
  2
*Paper_Space
  0
BLOCK_RECORD
  5
215
100
AcDbSymbolTableRecord
100
AcDbBlockTableRecord
  2
_FILLED
  0
BLOCK_RECORD
  5
216
100
AcDbSymbolTableRecord
100
AcDbBlockTableRecord
  2
*D0
  0
BLOCK_RECORD
  5
217
100
AcDbSymbolTableRecord
100
AcDbBlockTableRecord
  2
*D1
  0
BLOCK_RECORD
  5
218
100
AcDbSymbolTableRecord
100
AcDbBlockTableRecord
  2
*D2
  0
BLOCK_RECORD
  5
219
100
AcDbSymbolTableRecord
100
AcDbBlockTableRecord
  2
*D3
  0
ENDTAB
  0
TABLE
  2
DIMSTYLE
  5
A
100
AcDbSymbolTable
 70
1
100
AcDbDimStyleTable
 71
0
  0
DIMSTYLE
105
21A
100
AcDbSymbolTableRecord
100
AcDbDimStyleTableRecord
  2
STANDARD
 70
0
  3

  4

 40
1.0
 41
3.0
 42
0.5
 43
0.38
 44
1.5
 45
0.0
 46
0.0
 47
0.01
 48
0.01
140
3.0
141
0.09
142
0.0
143
25.4
144
1.0
145
0.0
146
1.0
147
0.625
 71
1.0
 72
0.0
 73
0
 74
0
 75
0
 76
0
 77
1
 78
8
 79
2
170
0
171
1
172
0
173
0
174
0
175
0
176
0
177
0
178
0
270
2
179
2
271
2
272
2
273
2
274
2
275
0
280
0
281
0
282
0
283
1
284
8
285
0
286
0
287
3
288
0
340
11
278
44
341
215
342
215
343
215
344
215
  0
DIMSTYLE
105
21B
100
AcDbSymbolTableRecord
100
AcDbDimStyleTableRecord
  2
DIMSTYLE_1
 70
0
  3

  4

 40
1.0
 41
3.0
 42
0.5
 43
0.38
 44
1.5
 45
0.0
 46
0.0
 47
0.0
 48
0.0
140
3.0
141
0.09
142
0.0
143
25.4
144
1.0
145
0.0
146
1.0
147
0.75
 71
0.0
 72
0.0
 73
0
 74
0
 75
0
 76
0
 77
1
 78
8
 79
2
170
0
171
1
172
0
173
0
174
0
175
0
176
0
177
0
178
0
270
2
179
2
271
2
272
2
273
2
274
2
275
0
280
0
281
0
282
0
283
1
284
8
285
0
286
0
287
3
288
0
340
11
278
44
341
215
342
215
343
215
344
215
  0
DIMSTYLE
105
21C
100
AcDbSymbolTableRecord
100
AcDbDimStyleTableRecord
  2
DIMSTYLE_2
 70
0
  3

  4

 40
1.0
 41
3.0
 42
0.5
 43
0.38
 44
1.5
 45
0.0
 46
0.0
 47
0.0
 48
0.0
140
3.0
141
0.09
142
0.0
143
25.4
144
1.0
145
0.0
146
1.0
147
0.75
 71
0.0
 72
0.0
 73
0
 74
0
 75
0
 76
0
 77
1
 78
8
 79
2
170
0
171
1
172
0
173
0
174
0
175
0
176
0
177
0
178
0
270
2
179
2
271
1
272
1
273
2
274
2
275
0
280
0
281
0
282
0
283
1
284
8
285
0
286
0
287
3
288
0
340
11
278
44
341
215
342
215
343
215
344
215
  0
ENDTAB
  0
ENDSEC
  0
SECTION
  2
BLOCKS
  0
BLOCK
  5
20
100
AcDbEntity
  8
0
100
AcDbBlockBegin
  2
*Model_Space
 70
0
 10
0.0
 20
0.0
 30
0.0
  3
*Model_Space
  1

  0
ENDBLK
  5
21
100
AcDbEntity
  8
0
100
AcDbBlockEnd
  0
BLOCK
  5
1C
100
AcDbEntity
  8
0
100
AcDbBlockBegin
  2
*Paper_Space
 70
0
 10
0.0
 20
0.0
 30
0.0
  3
*Paper_Space
  1

  0
ENDBLK
  5
1D
100
AcDbEntity
  8
0
100
AcDbBlockEnd
  0
BLOCK
  5
21D
100
AcDbEntity
  8
0
100
AcDbBlockBegin
  2
_FILLED
 70
64
 10
0.0
 20
0.0
  3
_FILLED
  1

  0
SOLID
  5
21E
100
AcDbEntity
  8
0
  6
BYBLOCK
 62
0
100
AcDbTrace
 10
0.0
 20
0.0
 11
-1.0
 21
0.3166666667
 12
-1.0
 22
-0.3166666667
 13
-1.0
 23
-0.3166666667
  0
ENDBLK
  5
21F
100
AcDbEntity
  8
0
  6
BYBLOCK
 62
0
100
AcDbBlockEnd
  0
BLOCK
  5
220
100
AcDbEntity
  8
0
100
AcDbBlockBegin
 62
7
  6
CONTINUOUS
  2
*D0
 70
65
 10
0.0
 20
0.0
  3
*D0
  1

  0
LINE
  5
221
100
AcDbEntity
  8
0
100
AcDbLine
 62
7
  6
CONTINUOUS
 10
-13.4831097833
 20
-9.2547641129
 11
-13.4831097833
 21
19.8635982952
  0
LINE
  5
222
100
AcDbEntity
  8
0
100
AcDbLine
 62
7
  6
CONTINUOUS
 10
13.4168902167
 20
-3.6111626376
 11
13.4168902167
 21
19.8635982952
  0
LINE
  5
223
100
AcDbEntity
  8
0
100
AcDbLine
 62
7
  6
CONTINUOUS
 10
-13.4831097833
 20
18.3635982952
 11
-0.0331097833
 21
18.3635982952
  0
LINE
  5
224
100
AcDbEntity
  8
0
100
AcDbLine
 62
7
  6
CONTINUOUS
 10
13.4168902167
 20
18.3635982952
 11
-0.0331097833
 21
18.3635982952
  0
INSERT
  5
225
100
AcDbEntity
  8
0
100
AcDbBlockReference
 62
7
  6
CONTINUOUS
  2
_FILLED
 10
-13.4831097833
 20
18.3635982952
 41
3.0
 42
3.0
 43
3.0
 50
180.0
  0
INSERT
  5
226
100
AcDbEntity
  8
0
100
AcDbBlockReference
 62
7
  6
CONTINUOUS
  2
_FILLED
 10
13.4168902167
 20
18.3635982952
 41
3.0
 42
3.0
 43
3.0
  0
ENDBLK
  5
227
100
AcDbEntity
  8
0
  6
BYBLOCK
 62
0
100
AcDbBlockEnd
  0
BLOCK
  5
228
100
AcDbEntity
  8
0
100
AcDbBlockBegin
 62
7
  6
CONTINUOUS
  2
*D1
 70
65
 10
0.0
 20
0.0
  3
*D1
  1

  0
LINE
  5
229
100
AcDbEntity
  8
0
100
AcDbLine
 62
7
  6
CONTINUOUS
 10
-41.1019906091
 20
-3.6111626376
 11
-41.1019906091
 21
19.8452358871
  0
LINE
  5
22A
100
AcDbEntity
  8
0
100
AcDbLine
 62
7
  6
CONTINUOUS
 10
-53.1619906091
 20
-9.2547641129
 11
-53.1619906091
 21
19.8452358871
  0
LINE
  5
22B
100
AcDbEntity
  8
0
100
AcDbLine
 62
7
  6
CONTINUOUS
 10
-41.1019906091
 20
18.3452358871
 11
-47.1319906091
 21
18.3452358871
  0
LINE
  5
22C
100
AcDbEntity
  8
0
100
AcDbLine
 62
7
  6
CONTINUOUS
 10
-53.1619906091
 20
18.3452358871
 11
-47.1319906091
 21
18.3452358871
  0
INSERT
  5
22D
100
AcDbEntity
  8
0
100
AcDbBlockReference
 62
7
  6
CONTINUOUS
  2
_FILLED
 10
-41.1019906091
 20
18.3452358871
 41
3.0
 42
3.0
 43
3.0
  0
INSERT
  5
22E
100
AcDbEntity
  8
0
100
AcDbBlockReference
 62
7
  6
CONTINUOUS
  2
_FILLED
 10
-53.1619906091
 20
18.3452358871
 41
3.0
 42
3.0
 43
3.0
 50
180.0
  0
ENDBLK
  5
22F
100
AcDbEntity
  8
0
  6
BYBLOCK
 62
0
100
AcDbBlockEnd
  0
BLOCK
  5
230
100
AcDbEntity
  8
0
100
AcDbBlockBegin
 62
7
  6
CONTINUOUS
  2
*D2
 70
65
 10
0.0
 20
0.0
  3
*D2
  1

  0
LINE
  5
231
100
AcDbEntity
  8
0
100
AcDbLine
 62
7
  6
CONTINUOUS
 10
-44.1419906091
 20
-10.8547641129
 11
-31.6023186377
 21
-10.8547641129
  0
LINE
  5
232
100
AcDbEntity
  8
0
100
AcDbLine
 62
7
  6
CONTINUOUS
 10
-44.3299187222
 20
1.3452358871
 11
-31.6023186377
 21
1.3452358871
  0
LINE
  5
233
100
AcDbEntity
  8
0
100
AcDbLine
 62
7
  6
CONTINUOUS
 10
-33.1023186377
 20
-10.8547641129
 11
-33.1023186377
 21
-14.8547641129
  0
LINE
  5
234
100
AcDbEntity
  8
0
100
AcDbLine
 62
7
  6
CONTINUOUS
 10
-33.1023186377
 20
-14.8547641129
 11
-33.1023186377
 21
-4.7547641129
  0
LINE
  5
235
100
AcDbEntity
  8
0
100
AcDbLine
 62
7
  6
CONTINUOUS
 10
-33.1023186377
 20
1.3452358871
 11
-33.1023186377
 21
5.3452358871
  0
LINE
  5
236
100
AcDbEntity
  8
0
100
AcDbLine
 62
7
  6
CONTINUOUS
 10
-33.1023186377
 20
5.3452358871
 11
-33.1023186377
 21
-4.7547641129
  0
INSERT
  5
237
100
AcDbEntity
  8
0
100
AcDbBlockReference
 62
7
  6
CONTINUOUS
  2
_FILLED
 10
-33.1023186377
 20
-10.8547641129
 41
3.0
 42
3.0
 43
3.0
 50
90.0
  0
INSERT
  5
238
100
AcDbEntity
  8
0
100
AcDbBlockReference
 62
7
  6
CONTINUOUS
  2
_FILLED
 10
-33.1023186377
 20
1.3452358871
 41
3.0
 42
3.0
 43
3.0
 50
270.0
  0
ENDBLK
  5
239
100
AcDbEntity
  8
0
  6
BYBLOCK
 62
0
100
AcDbBlockEnd
  0
BLOCK
  5
23A
100
AcDbEntity
  8
0
100
AcDbBlockBegin
 62
7
  6
CONTINUOUS
  2
*D3
 70
65
 10
0.0
 20
0.0
  3
*D3
  1

  0
LINE
  5
23B
100
AcDbEntity
  8
0
100
AcDbLine
 62
7
  6
CONTINUOUS
 10
-44.8504946091
 20
-10.8547641129
 11
-21.5866471174
 21
-10.8547641129
  0
LINE
  5
23C
100
AcDbEntity
  8
0
100
AcDbLine
 62
7
  6
CONTINUOUS
 10
-47.5519906091
 20
10.3452358871
 11
-21.5866471174
 21
10.3452358871
  0
LINE
  5
23D
100
AcDbEntity
  8
0
100
AcDbLine
 62
7
  6
CONTINUOUS
 10
-23.0866471174
 20
-10.8547641129
 11
-23.0866471174
 21
-0.2547641129
  0
LINE
  5
23E
100
AcDbEntity
  8
0
100
AcDbLine
 62
7
  6
CONTINUOUS
 10
-23.0866471174
 20
10.3452358871
 11
-23.0866471174
 21
-0.2547641129
  0
INSERT
  5
23F
100
AcDbEntity
  8
0
100
AcDbBlockReference
 62
7
  6
CONTINUOUS
  2
_FILLED
 10
-23.0866471174
 20
-10.8547641129
 41
3.0
 42
3.0
 43
3.0
 50
270.0
  0
INSERT
  5
240
100
AcDbEntity
  8
0
100
AcDbBlockReference
 62
7
  6
CONTINUOUS
  2
_FILLED
 10
-23.0866471174
 20
10.3452358871
 41
3.0
 42
3.0
 43
3.0
 50
90.0
  0
ENDBLK
  5
241
100
AcDbEntity
  8
0
  6
BYBLOCK
 62
0
100
AcDbBlockEnd
  0
ENDSEC
  0
SECTION
  2
ENTITIES
  0
DIMENSION
  5
242
100
AcDbEntity
  8
0
100
AcDbDimension
 62
7
  6
CONTINUOUS
  2
*D0
 10
13.4168902167
 20
18.3635982952
 11
-4.4259669261
 21
18.3635982952
 70
160
 71
2
 72
2
 41
0.9
 42
26.9
  3
DIMSTYLE_1
100
AcDbAlignedDimension
 13
-13.4831097833
 23
-9.7547641129
 14
13.4168902167
 24
-4.1111626376
100
AcDbRotatedDimension
  0
DIMENSION
  5
243
100
AcDbEntity
  8
0
100
AcDbDimension
 62
7
  6
CONTINUOUS
  2
*D1
 10
-53.1619906091
 20
18.3452358871
 11
-50.8819906091
 21
18.3452358871
 70
160
 71
2
 72
2
 41
0.9
 42
12.06
  3
DIMSTYLE_2
100
AcDbAlignedDimension
 13
-41.1019906091
 23
-4.1111626376
 14
-53.1619906091
 24
-9.7547641129
 50
180.0
100
AcDbRotatedDimension
  0
DIMENSION
  5
244
100
AcDbEntity
  8
0
100
AcDbDimension
 62
7
  6
CONTINUOUS
  2
*D2
 10
-33.1023186377
 20
1.3452358871
 11
-33.1023186377
 21
-8.8261926843
 70
160
 71
2
 72
2
 41
0.9
 42
12.2
  3
DIMSTYLE_1
100
AcDbAlignedDimension
 13
-44.6419906091
 23
-10.8547641129
 14
-44.8299187222
 24
1.3452358871
 50
90.0
100
AcDbRotatedDimension
  0
DIMENSION
  5
245
100
AcDbEntity
  8
0
100
AcDbDimension
 62
7
  6
CONTINUOUS
  2
*D3
 10
-23.0866471174
 20
10.3452358871
 11
-23.0866471174
 21
-4.3261926843
 70
160
 71
2
 72
2
 41
0.9
 42
21.2
  3
DIMSTYLE_1
100
AcDbAlignedDimension
 13
-45.3504946091
 23
-10.8547641129
 14
-48.0519906091
 24
10.3452358871
 50
90.0
100
AcDbRotatedDimension
  0
LWPOLYLINE
  5
246
100
AcDbEntity
  8
0
100
AcDbPolyline
 62
7
  6
CONTINUOUS
 90
10
 70
0
 43
0.3500000006
 10
-0.9973954768
 20
22.1135974731
 10
-1.6402526135
 20
21.4707394867
 10
-2.0688241324
 20
20.6135970154
 10
-2.0688241324
 20
19.5421700592
 10
-1.6402526135
 20
19.1135965576
 10
-0.9973954768
 20
19.1135965576
 10
-0.5688240641
 20
19.5421700592
 10
-0.5688240641
 20
20.3993125305
 10
-0.9973954768
 20
20.8278860321
 10
-1.9259668651
 20
20.8278860321
  0
LINE
  5
247
100
AcDbEntity
  8
RACCORDO
100
AcDbLine
 62
7
  6
CONTINUOUS
 10
-13.4831097833
 20
-10.0547641129
 11
-13.4831097833
 21
-9.7547641129
  0
LINE
  5
248
100
AcDbEntity
  8
ASSI
100
AcDbLine
 62
7
  6
CONTINUOUS
 10
-13.4831097833
 20
-10.0547641129
 11
-13.4831097833
 21
-9.7547641129
  0
LINE
  5
249
100
AcDbEntity
  8
RACCORDO
100
AcDbLine
 62
250
  6
CONTINUOUS
 10
-12.6831097833
 20
-10.8547641129
 11
-12.6831097833
 21
-9.7547641129
  0
LINE
  5
24A
100
AcDbEntity
  8
ASSI
100
AcDbLine
 62
250
  6
CONTINUOUS
 10
-12.6831097833
 20
-10.8547641129
 11
-12.6831097833
 21
-9.7547641129
  0
LINE
  5
24B
100
AcDbEntity
  8
RACCORDO
100
AcDbLine
 62
7
  6
CONTINUOUS
 10
-12.9919508741
 20
-9.7547641129
 11
-12.8037993528
 21
1.0244293227
  0
LINE
  5
24C
100
AcDbEntity
  8
ASSI
100
AcDbLine
 62
7
  6
CONTINUOUS
 10
-12.9919508741
 20
-9.7547641129
 11
-12.8331097833
 21
-0.6547641129
  0
LINE
  5
24D
100
AcDbEntity
  8
RACCORDO
100
AcDbLine
 62
7
  6
CONTINUOUS
 10
-12.6315463828
 20
1.4348030376
 11
-12.4968993502
 21
9.1487263684
  0
LINE
  5
24E
100
AcDbEntity
  8
RACCORDO
100
AcDbLine
 62
7
  6
CONTINUOUS
 10
-12.8039916222
 20
1.0147798459
 11
-12.8041456096
 21
1.0083607515
  0
LINE
  5
24F
100
AcDbEntity
  8
RACCORDO
100
AcDbLine
 62
7
  6
CONTINUOUS
 10
-12.8038145385
 20
1.0207409411
 11
-12.8039916222
 21
1.0147798459
  0
LINE
  5
250
100
AcDbEntity
  8
RACCORDO
100
AcDbLine
 62
7
  6
CONTINUOUS
 10
-12.8035357385
 20
1.0284211767
 11
-12.8035202078
 21
1.0288774099
  0
LINE
  5
251
100
AcDbEntity
  8
RACCORDO
100
AcDbLine
 62
7
  6
CONTINUOUS
 10
-12.8036039479
 20
1.0267046969
 11
-12.8038145385
 21
1.0207409411
  0
LINE
  5
252
100
AcDbEntity
  8
RACCORDO
100
AcDbLine
 62
7
  6
CONTINUOUS
 10
-12.8035444746
 20
1.0282597979
 11
-12.8036039479
 21
1.0267046969
  0
LINE
  5
253
100
AcDbEntity
  8
RACCORDO
100
AcDbLine
 62
250
  6
CONTINUOUS
 10
-12.0051816701
 20
1.3452358871
 11
-12.0051816701
 21
0.9522168497
  0
LINE
  5
254
100
AcDbEntity
  8
RACCORDO
100
AcDbLine
 62
250
  6
CONTINUOUS
 10
-12.192072718
 20
-9.7547641129
 11
-12.0051816701
 21
0.9522168497
  0
LINE
  5
255
100
AcDbEntity
  8
ASSI
100
AcDbLine
 62
250
  6
CONTINUOUS
 10
-12.192072718
 20
-9.7547641129
 11
-12.0332316271
 21
-0.6547641129
  0
LWPOLYLINE
  5
256
100
AcDbEntity
  8
RACCORDO
100
AcDbPolyline
 62
250
  6
CONTINUOUS
 90
6
 70
0
 10
-12.4636805758
 20
1.3806746118
 10
-12.4495404385
 20
1.402420879
 10
-12.4384068153
 20
1.4260905546
 10
-12.4304831561
 20
1.4512511112
 10
-12.4259142538
 20
1.4774427781
 10
-12.4247835978
 20
1.5041869423
  0
LWPOLYLINE
  5
257
100
AcDbEntity
  8
0
100
AcDbPolyline
 62
7
  6
CONTINUOUS
 90
10
 70
0
 43
0.3500000006
 10
2.4311759663
 20
19.1135965576
 10
3.2883187208
 20
19.9707390289
 10
3.5026046219
 20
20.8278860321
 10
3.5026046219
 20
21.6850285034
 10
3.074033103
 20
22.1135974731
 10
2.4311759663
 20
22.1135974731
 10
2.0026044474
 20
21.6850285034
 10
2.0026044474
 20
20.8278860321
 10
2.4311759663
 20
20.3993125305
 10
3.3597473545
 20
20.3993125305
  0
LINE
  5
258
100
AcDbEntity
  8
0
100
AcDbLine
 62
7
  6
CONTINUOUS
 10
-11.1831097833
 20
9.3452358871
 11
-11.1831097833
 21
9.5452358871
  0
LINE
  5
259
100
AcDbEntity
  8
ASSI
100
AcDbLine
 62
7
  6
CONTINUOUS
 10
10.9168902167
 20
-10.8547641129
 11
10.736505459
 21
-10.8547641129
  0
LINE
  5
25A
100
AcDbEntity
  8
ASSI
100
AcDbLine
 62
7
  6
CONTINUOUS
 10
9.6972749745
 20
-10.8547641129
 11
8.936505459
 21
-10.8547641129
  0
LINE
  5
25B
100
AcDbEntity
  8
ASSI
100
AcDbLine
 62
7
  6
CONTINUOUS
 10
7.8972749745
 20
-10.8547641129
 11
7.136505459
 21
-10.8547641129
  0
LINE
  5
25C
100
AcDbEntity
  8
CURVE
100
AcDbLine
 62
250
  6
CONTINUOUS
 10
-0.9831097833
 20
-10.8547641129
 11
-0.5545383445
 21
-10.8547641129
  0
LINE
  5
25D
100
AcDbEntity
  8
CURVE
100
AcDbLine
 62
250
  6
CONTINUOUS
 10
0.5168902167
 20
-10.8547641129
 11
0.1954616198
 21
-10.8547641129
  0
LINE
  5
25E
100
AcDbEntity
  8
ASSI
100
AcDbLine
 62
7
  6
CONTINUOUS
 10
6.0972749745
 20
-10.8547641129
 11
-7.863494541
 21
-10.8547641129
  0
LINE
  5
25F
100
AcDbEntity
  8
ASSI
100
AcDbLine
 62
7
  6
CONTINUOUS
 10
-8.9027250255
 20
-10.8547641129
 11
-9.663494541
 21
-10.8547641129
  0
LINE
  5
260
100
AcDbEntity
  8
ASSI
100
AcDbLine
 62
7
  6
CONTINUOUS
 10
-10.7027250255
 20
-10.8547641129
 11
-11.463494541
 21
-10.8547641129
  0
LINE
  5
261
100
AcDbEntity
  8
ASSI
100
AcDbLine
 62
7
  6
CONTINUOUS
 10
-12.5027250255
 20
-10.8547641129
 11
-12.6831097833
 21
-10.8547641129
  0
LINE
  5
262
100
AcDbEntity
  8
RACCORDO
100
AcDbLine
 62
250
  6
CONTINUOUS
 10
11.7168902167
 20
-10.0547641129
 11
-13.4831097833
 21
-10.0547641129
  0
LINE
  5
263
100
AcDbEntity
  8
ASSI
100
AcDbLine
 62
250
  6
CONTINUOUS
 10
11.7168902167
 20
-10.0547641129
 11
-13.4831097833
 21
-10.0547641129
  0
LINE
  5
264
100
AcDbEntity
  8
RACCORDO
100
AcDbLine
 62
7
  6
CONTINUOUS
 10
11.7168902167
 20
-9.7547641129
 11
-13.4831097833
 21
-9.7547641129
  0
LINE
  5
265
100
AcDbEntity
  8
ASSI
100
AcDbLine
 62
7
  6
CONTINUOUS
 10
11.7168902167
 20
-9.7547641129
 11
-13.4831097833
 21
-9.7547641129
  0
LINE
  5
266
100
AcDbEntity
  8
0
100
AcDbLine
 62
7
  6
CONTINUOUS
 10
-6.3831097833
 20
9.3452358871
 11
-6.3831097833
 21
9.5452358871
  0
LWPOLYLINE
  5
267
100
AcDbEntity
  8
RACCORDO
100
AcDbPolyline
 62
250
  6
CONTINUOUS
 90
5
 70
0
 10
-12.5444198627
 20
1.3201970651
 10
-12.5213107293
 20
1.330731528
 10
-12.4998966176
 20
1.344499413
 10
-12.4805688379
 20
1.3612491327
 10
-12.4636805758
 20
1.3806746118
  0
LWPOLYLINE
  5
268
100
AcDbEntity
  8
RACCORDO
100
AcDbPolyline
 62
250
  6
CONTINUOUS
 90
5
 70
0
 10
-12.6315463828
 20
1.4348030376
 10
-12.6301525653
 20
1.4353656608
 10
-12.6261370791
 20
1.4366070871
 10
-12.6197332121
 20
1.4385273164
 10
-12.6111793405
 20
1.4411798567
  0
LWPOLYLINE
  5
269
100
AcDbEntity
  8
RACCORDO
100
AcDbPolyline
 62
250
  6
CONTINUOUS
 90
10
 70
0
 10
-12.4247823339
 20
1.5041835201
 10
-12.4037690885
 20
1.5119601395
 10
-12.382339147
 20
1.5188467711
 10
-12.3605674901
 20
1.5248434149
 10
-12.3385436562
 20
1.5299644461
 10
-12.3163222444
 20
1.5341954896
 10
-12.293916774
 20
1.5374934199
 10
-12.2713689063
 20
1.5398438617
 10
-12.2487545971
 20
1.5412611904
 10
-12.2261303116
 20
1.5417454058
  0
LWPOLYLINE
  5
26A
100
AcDbEntity
  8
RACCORDO
100
AcDbPolyline
 62
250
  6
CONTINUOUS
 90
6
 70
0
 10
-12.5251920515
 20
1.4685760833
 10
-12.5066018791
 20
1.4747403899
 10
-12.4871437254
 20
1.4813804207
 10
-12.4669289965
 20
1.4885057296
 10
-12.4461012182
 20
1.4961067627
 10
-12.4247823339
 20
1.5041835201
  0
LINE
  5
26B
100
AcDbEntity
  8
RACCORDO
100
AcDbLine
 62
7
  6
CONTINUOUS
 10
-4.9365398697
 20
1.5417454058
 11
-5.0693202163
 21
9.1487263684
  0
LWPOLYLINE
  5
26C
100
AcDbEntity
  8
0
100
AcDbPolyline
 62
7
  6
CONTINUOUS
 90
3
 70
0
 43
0.3500000006
 10
1.0026044962
 20
19.3993122253
 10
0.9311759334
 20
19.1850277405
 10
0.7883188076
 20
18.8993120728
  0
LWPOLYLINE
  5
26D
100
AcDbEntity
  8
RACCORDO
100
AcDbPolyline
 62
250
  6
CONTINUOUS
 90
4
 70
0
 10
-12.6111793405
 20
1.4411798567
 10
-12.5745910544
 20
1.4526989545
 10
-12.5593413286
 20
1.4575553656
 10
-12.5251920515
 20
1.4685760833
  0
LWPOLYLINE
  5
26E
100
AcDbEntity
  8
RACCORDO
100
AcDbPolyline
 62
250
  6
CONTINUOUS
 90
5
 70
0
 10
-12.6889639542
 20
1.2980117164
 10
-12.6881492238
 20
1.2978172764
 10
-12.6853167701
 20
1.2977691506
 10
-12.6807209754
 20
1.2978049368
 10
-12.6674667474
 20
1.2978040894
  0
LINE
  5
26F
100
AcDbEntity
  8
RACCORDO
100
AcDbLine
 62
7
  6
CONTINUOUS
 10
11.0668902167
 20
-0.6547641129
 11
-12.8331097833
 21
-0.6547641129
  0
LINE
  5
270
100
AcDbEntity
  8
ASSI
100
AcDbLine
 62
7
  6
CONTINUOUS
 10
-12.8331097833
 20
-0.6547641129
 11
11.0668902167
 21
-0.6547641129
  0
LINE
  5
271
100
AcDbEntity
  8
RACCORDO
100
AcDbLine
 62
250
  6
CONTINUOUS
 10
10.2389621036
 20
0.9522168497
 11
10.5860008701
 21
0.9545536543
  0
LINE
  5
272
100
AcDbEntity
  8
RACCORDO
100
AcDbLine
 62
250
  6
CONTINUOUS
 10
-12.697850313
 20
0.95477194
 11
-12.5914876185
 21
0.9551005037
  0
LINE
  5
273
100
AcDbEntity
  8
RACCORDO
100
AcDbLine
 62
250
  6
CONTINUOUS
 10
-12.0051816701
 20
0.9522168497
 11
10.2389621036
 21
0.9522168497
  0
LINE
  5
274
100
AcDbEntity
  8
RACCORDO
100
AcDbLine
 62
250
  6
CONTINUOUS
 10
10.5860008701
 20
0.9545536543
 11
10.8252606574
 21
0.9551004867
  0
LINE
  5
275
100
AcDbEntity
  8
RACCORDO
100
AcDbLine
 62
250
  6
CONTINUOUS
 10
-12.5914876185
 20
0.9551005037
 11
-12.3522229924
 21
0.9545535252
  0
LINE
  5
276
100
AcDbEntity
  8
RACCORDO
100
AcDbLine
 62
250
  6
CONTINUOUS
 10
10.8252606574
 20
0.9551004867
 11
10.93162847
 21
0.9547718362
  0
LINE
  5
277
100
AcDbEntity
  8
RACCORDO
100
AcDbLine
 62
250
  6
CONTINUOUS
 10
-12.3522229924
 20
0.9545535252
 11
-12.0051816701
 21
0.9522168497
  0
LWPOLYLINE
  5
278
100
AcDbEntity
  8
RACCORDO
100
AcDbPolyline
 62
250
  6
CONTINUOUS
 90
11
 70
0
 10
-12.6674667474
 20
1.2978040894
 10
-12.6589076274
 20
1.2980625132
 10
-12.6492013788
 20
1.2985956114
 10
-12.6385901771
 20
1.2993914794
 10
-12.6270425481
 20
1.3006154374
 10
-12.6146902883
 20
1.3023083418
 10
-12.6017162853
 20
1.3044963518
 10
-12.5881053247
 20
1.3073031294
 10
-12.5739184827
 20
1.3108026191
 10
-12.5593180743
 20
1.3150653823
 10
-12.5444050729
 20
1.3201934728
  0
LINE
  5
279
100
AcDbEntity
  8
RACCORDO
100
AcDbLine
 62
250
  6
CONTINUOUS
 10
-12.7497314204
 20
0.9542839001
 11
-12.697850313
 21
0.95477194
  0
LINE
  5
27A
100
AcDbEntity
  8
RACCORDO
100
AcDbLine
 62
7
  6
CONTINUOUS
 10
-12.4051207482
 20
1.3452358871
 11
10.6389011816
 21
1.3452358871
  0
LINE
  5
27B
100
AcDbEntity
  8
RACCORDO
100
AcDbLine
 62
250
  6
CONTINUOUS
 10
-12.2261303116
 20
1.5417454058
 11
-4.9365398697
 21
1.5417454058
  0
LWPOLYLINE
  5
27C
100
AcDbEntity
  8
RACCORDO
100
AcDbPolyline
 62
250
  6
CONTINUOUS
 90
7
 70
0
 10
10.93162847
 20
0.9547718362
 10
10.9835102857
 20
0.9542837725
 10
11.0032679985
 20
0.9539647748
 10
11.0187556405
 20
0.9535947739
 10
11.0298859251
 20
0.9531760653
 10
11.0365937959
 20
0.952715051
 10
11.0388402597
 20
0.9522168497
  0
LWPOLYLINE
  5
27D
100
AcDbEntity
  8
RACCORDO
100
AcDbPolyline
 62
250
  6
CONTINUOUS
 90
13
 70
0
 10
-12.4051207482
 20
1.3452358871
 10
-12.3820122614
 20
1.3469091787
 10
-12.3592904788
 20
1.3519010449
 10
-12.3373355984
 20
1.3601279438
 10
-12.3165149852
 20
1.3714522013
 10
-12.2971770181
 20
1.3856843193
 10
-12.2796452622
 20
1.402586149
 10
-12.2642130652
 20
1.4218748675
 10
-12.2511386398
 20
1.4432277172
 10
-12.2406407425
 20
1.4662874144
 10
-12.2328950241
 20
1.4906681121
 10
-12.228031087
 20
1.5159618526
 10
-12.2261303117
 20
1.5417454058
  0
LWPOLYLINE
  5
27E
100
AcDbEntity
  8
RACCORDO
100
AcDbPolyline
 62
250
  6
CONTINUOUS
 90
6
 70
0
 10
-12.8050598262
 20
0.9522168497
 10
-12.8028136926
 20
0.9527150581
 10
-12.7961065731
 20
0.9531760943
 10
-12.784977102
 20
0.9535948333
 10
-12.7694896851
 20
0.953964873
 10
-12.7497314204
 20
0.9542839001
  0
LINE
  5
27F
100
AcDbEntity
  8
0
100
AcDbLine
 62
7
  6
CONTINUOUS
 10
11.0943427863
 20
-2.2275207715
 11
12.9740052606
 21
-3.8047448604
  0
LINE
  5
280
100
AcDbEntity
  8
0
100
AcDbLine
 62
7
  6
CONTINUOUS
 10
11.0874053867
 20
-1.8300774152
 11
13.1668415435
 21
-3.5749315274
  0
LINE
  5
281
100
AcDbEntity
  8
0
100
AcDbLine
 62
7
  6
CONTINUOUS
 10
11.1563031778
 20
-5.7772292198
 11
11.2884288648
 21
-5.9659242564
  0
LINE
  5
282
100
AcDbEntity
  8
0
100
AcDbLine
 62
250
  6
CONTINUOUS
 10
13.1183937222
 20
-4.6845690686
 11
12.9463207913
 21
-4.4388234553
  0
LINE
  5
283
100
AcDbEntity
  8
RACCORDO
100
AcDbLine
 62
250
  6
CONTINUOUS
 10
10.4258531515
 20
-9.7547641129
 11
10.2389621036
 21
0.9522168497
  0
LINE
  5
284
100
AcDbEntity
  8
ASSI
100
AcDbLine
 62
250
  6
CONTINUOUS
 10
10.4258531515
 20
-9.7547641129
 11
10.2670120606
 21
-0.6547641129
  0
LINE
  5
285
100
AcDbEntity
  8
RACCORDO
100
AcDbLine
 62
250
  6
CONTINUOUS
 10
10.2389621036
 20
1.3452358871
 11
10.2389621015
 21
0.9522168497
  0
LINE
  5
286
100
AcDbEntity
  8
RACCORDO
100
AcDbLine
 62
250
  6
CONTINUOUS
 10
-12.4968993502
 20
9.1487263684
 11
-5.0693202163
 21
9.1487263684
  0
LINE
  5
287
100
AcDbEntity
  8
RACCORDO
100
AcDbLine
 62
7
  6
CONTINUOUS
 10
-12.2969298112
 20
9.3452358871
 11
-5.2692897553
 21
9.3452358871
  0
LINE
  5
288
100
AcDbEntity
  8
0
100
AcDbLine
 62
7
  6
CONTINUOUS
 10
-11.1831097833
 20
9.5452358871
 11
-6.3831097833
 21
9.5452358871
  0
LWPOLYLINE
  5
289
100
AcDbEntity
  8
0
100
AcDbPolyline
 62
7
  6
CONTINUOUS
 90
10
 70
0
 43
0.3500000006
 10
0.9311759334
 20
19.6135967102
 10
1.0026044962
 20
19.4707434082
 10
1.0026044962
 20
19.3993122253
 10
0.8597473705
 20
19.2564543915
 10
0.7883188076
 20
19.2564543915
 10
0.7168902447
 20
19.3278855743
 10
0.7168902447
 20
19.3993122253
 10
0.7883188076
 20
19.5421700592
 10
0.8597473705
 20
19.6135967102
 10
0.9311759334
 20
19.6135967102
  0
LINE
  5
28A
100
AcDbEntity
  8
RACCORDO
100
AcDbLine
 62
7
  6
CONTINUOUS
 10
11.2257313076
 20
-9.7547641129
 11
11.0388402597
 21
0.9522168497
  0
LINE
  5
28B
100
AcDbEntity
  8
ASSI
100
AcDbLine
 62
7
  6
CONTINUOUS
 10
11.2257313076
 20
-9.7547641129
 11
11.0668902167
 21
-0.6547641129
  0
LINE
  5
28C
100
AcDbEntity
  8
RACCORDO
100
AcDbLine
 62
250
  6
CONTINUOUS
 10
10.9168902167
 20
-10.8547641129
 11
10.9168902167
 21
-9.7547641129
  0
LINE
  5
28D
100
AcDbEntity
  8
ASSI
100
AcDbLine
 62
250
  6
CONTINUOUS
 10
10.9168902167
 20
-10.8547641129
 11
10.9168902167
 21
-9.7547641129
  0
LINE
  5
28E
100
AcDbEntity
  8
0
100
AcDbLine
 62
7
  6
CONTINUOUS
 10
12.9463207913
 20
-4.4388234553
 11
11.1548370338
 21
-5.6932338869
  0
LINE
  5
28F
100
AcDbEntity
  8
0
100
AcDbLine
 62
7
  6
CONTINUOUS
 10
11.1611524555
 20
-6.0550441576
 11
13.1183937222
 21
-4.6845690686
  0
LINE
  5
290
100
AcDbEntity
  8
RACCORDO
100
AcDbLine
 62
7
  6
CONTINUOUS
 10
11.7168902167
 20
-10.0547641129
 11
11.7168902167
 21
-9.7547641129
  0
LINE
  5
291
100
AcDbEntity
  8
ASSI
100
AcDbLine
 62
7
  6
CONTINUOUS
 10
11.7168902167
 20
-10.0547641129
 11
11.7168902167
 21
-9.7547641129
  0
LINE
  5
292
100
AcDbEntity
  8
0
100
AcDbLine
 62
250
  6
CONTINUOUS
 10
13.1668415435
 20
-3.5749315274
 11
12.9740052606
 21
-3.8047448604
  0
LWPOLYLINE
  5
293
100
AcDbEntity
  8
0
100
AcDbPolyline
 62
7
  6
CONTINUOUS
 90
7
 70
0
 43
0.3500000006
 10
-2.9259670286
 20
19.1135965576
 10
-4.4259669199
 20
19.1135965576
 10
-2.9259670286
 20
21.2564550018
 10
-2.9259670286
 20
21.6850285034
 10
-3.3545382643
 20
22.1135974731
 10
-3.997395401
 20
22.1135974731
 10
-4.4259669199
 20
21.4707394867
  0
LWPOLYLINE
  5
294
100
AcDbEntity
  8
0
100
AcDbPolyline
 62
7
  6
CONTINUOUS
 90
3
 70
0
 43
0.3500000006
 10
-50.8819923248
 20
21.2380919037
 10
-50.0248498535
 20
22.095234375
 10
-50.0248498535
 20
19.0952379913
  0
LWPOLYLINE
  5
295
100
AcDbEntity
  8
0
100
AcDbPolyline
 62
7
  6
CONTINUOUS
 90
3
 70
0
 43
0.3500000006
 10
-45.0962749786
 20
21.2380919037
 10
-44.2391325073
 20
22.095234375
 10
-44.2391325073
 20
19.0952379913
  0
LINE
  5
296
100
AcDbEntity
  8
CURVE
100
AcDbLine
 62
250
  6
CONTINUOUS
 10
-52.6019906091
 20
-10.8547641129
 11
-52.3619906091
 21
-10.8547641129
  0
LINE
  5
297
100
AcDbEntity
  8
CURVE
100
AcDbLine
 62
250
  6
CONTINUOUS
 10
-44.6305621194
 20
-10.8547641129
 11
-44.4019904183
 21
-10.8547641129
  0
LINE
  5
298
100
AcDbEntity
  8
RACCORDO
100
AcDbLine
 62
7
  6
CONTINUOUS
 10
-44.6419906091
 20
-10.8547641129
 11
-52.3619906091
 21
-10.8547641129
  0
LINE
  5
299
100
AcDbEntity
  8
ASSI
100
AcDbLine
 62
7
  6
CONTINUOUS
 10
-44.6419906091
 20
-10.8547641129
 11
-52.3619906091
 21
-10.8547641129
  0
LINE
  5
29A
100
AcDbEntity
  8
RACCORDO
100
AcDbLine
 62
250
  6
CONTINUOUS
 10
-43.8419906091
 20
-10.0547641129
 11
-53.1619906091
 21
-10.0547641129
  0
LINE
  5
29B
100
AcDbEntity
  8
ASSI
100
AcDbLine
 62
250
  6
CONTINUOUS
 10
-43.8419906091
 20
-10.0547641129
 11
-53.1619906091
 21
-10.0547641129
  0
LINE
  5
29C
100
AcDbEntity
  8
RACCORDO
100
AcDbLine
 62
7
  6
CONTINUOUS
 10
-43.8419906091
 20
-9.7547641129
 11
-53.1619906091
 21
-9.7547641129
  0
LINE
  5
29D
100
AcDbEntity
  8
ASSI
100
AcDbLine
 62
7
  6
CONTINUOUS
 10
-43.8419906091
 20
-9.7547641129
 11
-53.1619906091
 21
-9.7547641129
  0
LINE
  5
29E
100
AcDbEntity
  8
0
100
AcDbLine
 62
7
  6
CONTINUOUS
 10
-51.6066578159
 20
-6.1599802626
 11
-51.8019906091
 21
-5.9659242564
  0
LINE
  5
29F
100
AcDbEntity
  8
RACCORDO
100
AcDbLine
 62
7
  6
CONTINUOUS
 10
-50.5002528512
 20
-7.1547641129
 11
-51.803728367
 21
-7.1547641129
  0
LINE
  5
2A0
100
AcDbEntity
  8
ASSI
100
AcDbLine
 62
7
  6
CONTINUOUS
 10
-50.5002528512
 20
-7.1547641129
 11
-51.803728367
 21
-7.1547641129
  0
LINE
  5
2A1
100
AcDbEntity
  8
RACCORDO
100
AcDbLine
 62
250
  6
CONTINUOUS
 10
-50.327093555
 20
-7.0547641129
 11
-51.8019906091
 21
-7.0547641129
  0
LINE
  5
2A2
100
AcDbEntity
  8
0
100
AcDbLine
 62
7
  6
CONTINUOUS
 10
-51.8019906091
 20
-6.7547641129
 11
-51.5019906091
 21
-6.7547641129
  0
LINE
  5
2A3
100
AcDbEntity
  8
RACCORDO
100
AcDbLine
 62
7
  6
CONTINUOUS
 10
-51.5019906091
 20
-6.7547641129
 11
-50.298499862
 21
-6.7547641129
  0
LWPOLYLINE
  5
2A4
100
AcDbEntity
  8
0
100
AcDbPolyline
 62
7
  6
CONTINUOUS
 90
8
 70
0
 10
-51.4671741942
 20
-6.268489036
 10
-51.487166516
 20
-6.2661907196
 10
-51.5070720741
 20
-6.259353149
 10
-51.5269519436
 20
-6.2480457126
 10
-51.5468464228
 20
-6.232334845
 10
-51.5667689442
 20
-6.2123150593
 10
-51.5867060753
 20
-6.1881384687
 10
-51.6066578159
 20
-6.1599802626
  0
LINE
  5
2A5
100
AcDbEntity
  8
RACCORDO
100
AcDbLine
 62
7
  6
CONTINUOUS
 10
-53.1619906091
 20
-10.0547641129
 11
-53.1619906091
 21
-9.7547641129
  0
LINE
  5
2A6
100
AcDbEntity
  8
ASSI
100
AcDbLine
 62
7
  6
CONTINUOUS
 10
-53.1619906091
 20
-10.0547641129
 11
-53.1619906091
 21
-9.7547641129
  0
LINE
  5
2A7
100
AcDbEntity
  8
RACCORDO
100
AcDbLine
 62
7
  6
CONTINUOUS
 10
-53.1619906091
 20
-9.7547641129
 11
-53.0031495182
 21
-0.6547641129
  0
LINE
  5
2A8
100
AcDbEntity
  8
ASSI
100
AcDbLine
 62
7
  6
CONTINUOUS
 10
-53.1619906091
 20
-9.7547641129
 11
-53.0031495182
 21
-0.6547641129
  0
LINE
  5
2A9
100
AcDbEntity
  8
RACCORDO
100
AcDbLine
 62
7
  6
CONTINUOUS
 10
-52.973940652
 20
0.9522168497
 11
-53.0019906091
 21
-0.6547641129
  0
LINE
  5
2AA
100
AcDbEntity
  8
0
100
AcDbLine
 62
7
  6
CONTINUOUS
 10
-51.4671745657
 20
-6.268489036
 11
-50.7368066524
 21
-6.268489036
  0
LINE
  5
2AB
100
AcDbEntity
  8
0
100
AcDbLine
 62
250
  6
CONTINUOUS
 10
-51.6066578159
 20
-6.1599802626
 11
-50.5973234022
 21
-6.1599802626
  0
LINE
  5
2AC
100
AcDbEntity
  8
RACCORDO
100
AcDbLine
 62
7
  6
CONTINUOUS
 10
-52.0587152497
 20
-0.6547641129
 11
-52.0037207516
 21
-6.95650942
  0
LINE
  5
2AD
100
AcDbEntity
  8
ASSI
100
AcDbLine
 62
7
  6
CONTINUOUS
 10
-52.0587152497
 20
-0.6547641129
 11
-52.0037207516
 21
-6.95650942
  0
LINE
  5
2AE
100
AcDbEntity
  8
RACCORDO
100
AcDbLine
 62
250
  6
CONTINUOUS
 10
-51.9451468303
 20
-2.0364332685
 11
-51.9077095421
 21
-7.1254860127
  0
LINE
  5
2AF
100
AcDbEntity
  8
ASSI
100
AcDbLine
 62
250
  6
CONTINUOUS
 10
-51.9451468303
 20
-2.0364332685
 11
-51.9077095421
 21
-7.1254860127
  0
LINE
  5
2B0
100
AcDbEntity
  8
RACCORDO
100
AcDbLine
 62
250
  6
CONTINUOUS
 10
-52.3619906091
 20
-10.8547641129
 11
-52.3619906091
 21
-9.7547641129
  0
LINE
  5
2B1
100
AcDbEntity
  8
ASSI
100
AcDbLine
 62
250
  6
CONTINUOUS
 10
-52.3619906091
 20
-10.8547641129
 11
-52.3619906091
 21
-9.7547641129
  0
LINE
  5
2B2
100
AcDbEntity
  8
RACCORDO
100
AcDbLine
 62
250
  6
CONTINUOUS
 10
-52.1740624959
 20
1.3452358871
 11
-52.1740624959
 21
0.9522168497
  0
LINE
  5
2B3
100
AcDbEntity
  8
DRAFT
100
AcDbLine
 62
7
  6
CONTINUOUS
 10
-51.9519906091
 20
-0.6547641129
 11
-51.9519906091
 21
-1.0547641129
  0
LINE
  5
2B4
100
AcDbEntity
  8
RACCORDO
100
AcDbLine
 62
250
  6
CONTINUOUS
 10
-52.3621124529
 20
-9.7547641129
 11
-52.2032713621
 21
-0.6547641129
  0
LINE
  5
2B5
100
AcDbEntity
  8
ASSI
100
AcDbLine
 62
250
  6
CONTINUOUS
 10
-52.3621124529
 20
-9.7547641129
 11
-52.2032713621
 21
-0.6547641129
  0
LINE
  5
2B6
100
AcDbEntity
  8
RACCORDO
100
AcDbLine
 62
250
  6
CONTINUOUS
 10
-52.1740624959
 20
0.9522168497
 11
-52.2021124529
 21
-0.6547641129
  0
LINE
  5
2B7
100
AcDbEntity
  8
DRAFT
100
AcDbLine
 62
7
  6
CONTINUOUS
 10
-51.8985605227
 20
1.5417454058
 11
-51.7657801761
 21
9.1487263684
  0
LWPOLYLINE
  5
2B8
100
AcDbEntity
  8
0
100
AcDbPolyline
 62
7
  6
CONTINUOUS
 90
3
 70
0
 43
0.3500000006
 10
-46.0962752838
 20
19.3809491272
 10
-46.1677064667
 20
19.1666646423
 10
-46.3105643005
 20
18.8809489746
  0
LINE
  5
2B9
100
AcDbEntity
  8
RACCORDO
100
AcDbLine
 62
250
  6
CONTINUOUS
 10
-51.8618134941
 20
-1.8582545942
 11
-51.8758384726
 21
-1.0547641129
  0
LINE
  5
2BA
100
AcDbEntity
  8
RACCORDO
100
AcDbLine
 62
250
  6
CONTINUOUS
 10
-51.8618134941
 20
-2.0547641129
 11
-51.8618134941
 21
-1.8582545942
  0
LINE
  5
2BB
100
AcDbEntity
  8
0
100
AcDbLine
 62
7
  6
CONTINUOUS
 10
-51.8019906091
 20
-1.0547641129
 11
-51.8019906091
 21
-5.9659242564
  0
LINE
  5
2BC
100
AcDbEntity
  8
RACCORDO
100
AcDbLine
 62
7
  6
CONTINUOUS
 10
-51.8019906091
 20
-7.1547641129
 11
-51.8019906091
 21
-7.0547641129
  0
LINE
  5
2BD
100
AcDbEntity
  8
0
100
AcDbLine
 62
7
  6
CONTINUOUS
 10
-51.8019906091
 20
-6.7547641129
 11
-51.8019906091
 21
-5.9659242564
  0
LINE
  5
2BE
100
AcDbEntity
  8
RACCORDO
100
AcDbLine
 62
250
  6
CONTINUOUS
 10
-51.5019906091
 20
-7.1547641129
 11
-51.5019906091
 21
-6.7547641129
  0
LINE
  5
2BF
100
AcDbEntity
  8
0
100
AcDbLine
 62
250
  6
CONTINUOUS
 10
-50.4019906091
 20
-4.6845690686
 11
-51.8019906091
 21
-4.6845690686
  0
LINE
  5
2C0
100
AcDbEntity
  8
RACCORDO
100
AcDbLine
 62
250
  6
CONTINUOUS
 10
-50.3802203987
 20
-6.7547641129
 11
-50.3995643536
 21
-4.6678499172
  0
LINE
  5
2C1
100
AcDbEntity
  8
ASSI
100
AcDbLine
 62
250
  6
CONTINUOUS
 10
-50.3802203987
 20
-6.7547641129
 11
-50.3995643536
 21
-4.6678499172
  0
LINE
  5
2C2
100
AcDbEntity
  8
0
100
AcDbLine
 62
7
  6
CONTINUOUS
 10
-50.4519906091
 20
9.5452358871
 11
-50.4519906091
 21
9.3452358871
  0
LINE
  5
2C3
100
AcDbEntity
  8
0
100
AcDbLine
 62
7
  6
CONTINUOUS
 10
-50.4019906091
 20
-1.0547641129
 11
-50.4019906091
 21
-5.9659242564
  0
LINE
  5
2C4
100
AcDbEntity
  8
0
100
AcDbLine
 62
7
  6
CONTINUOUS
 10
-50.4019906091
 20
-6.7547641129
 11
-50.4019906091
 21
-5.9659242564
  0
LINE
  5
2C5
100
AcDbEntity
  8
DRAFT
100
AcDbLine
 62
7
  6
CONTINUOUS
 10
-50.3519906091
 20
-0.6547641129
 11
-50.3519906091
 21
-1.0547641129
  0
LINE
  5
2C6
100
AcDbEntity
  8
RACCORDO
100
AcDbLine
 62
7
  6
CONTINUOUS
 10
-50.2740646321
 20
-3.9547641129
 11
-50.4019906091
 21
-3.9547641129
  0
LINE
  5
2C7
100
AcDbEntity
  8
0
100
AcDbLine
 62
250
  6
CONTINUOUS
 10
-50.4019906091
 20
-3.5749315274
 11
-51.8019906091
 21
-3.5749315274
  0
LINE
  5
2C8
100
AcDbEntity
  8
RACCORDO
100
AcDbLine
 62
7
  6
CONTINUOUS
 10
-50.2469961109
 20
-0.8530188058
 11
-50.3002604666
 21
-6.95650942
  0
LINE
  5
2C9
100
AcDbEntity
  8
ASSI
100
AcDbLine
 62
7
  6
CONTINUOUS
 10
-50.2469961109
 20
-0.8530188058
 11
-50.3002604666
 21
-6.95650942
  0
LINE
  5
2CA
100
AcDbEntity
  8
RACCORDO
100
AcDbLine
 62
7
  6
CONTINUOUS
 10
-50.292198185
 20
-1.8582545942
 11
-50.2711911805
 21
-0.6547641129
  0
LINE
  5
2CB
100
AcDbEntity
  8
RACCORDO
100
AcDbLine
 62
250
  6
CONTINUOUS
 10
-51.9235958974
 20
-1.859161911
 11
-51.8618134941
 21
-1.8582545942
  0
LWPOLYLINE
  5
2CC
100
AcDbEntity
  8
RACCORDO
100
AcDbPolyline
 62
250
  6
CONTINUOUS
 90
7
 70
0
 10
-50.3300927785
 20
-1.8596367987
 10
-50.3187005627
 20
-1.8595275619
 10
-50.3092219277
 20
-1.8593657614
 10
-50.3017900269
 20
-1.8591542221
 10
-50.2964656566
 20
-1.8588963216
 10
-50.2932663093
 20
-1.8585951811
 10
-50.292198185
 20
-1.8582545942
  0
LINE
  5
2CD
100
AcDbEntity
  8
RACCORDO
100
AcDbLine
 62
250
  6
CONTINUOUS
 10
-51.9617806851
 20
-1.8595315379
 11
-51.9235958974
 21
-1.859161911
  0
LINE
  5
2CE
100
AcDbEntity
  8
RACCORDO
100
AcDbLine
 62
250
  6
CONTINUOUS
 10
-51.9955981149
 20
-1.8596928859
 11
-51.9617806851
 21
-1.8595315379
  0
LINE
  5
2CF
100
AcDbEntity
  8
RACCORDO
100
AcDbLine
 62
7
  6
CONTINUOUS
 10
-51.8019906091
 20
-2.0547641129
 11
-51.8618134941
 21
-2.0547641129
  0
LINE
  5
2D0
100
AcDbEntity
  8
RACCORDO
100
AcDbLine
 62
250
  6
CONTINUOUS
 10
-50.3580445042
 20
-1.8596934621
 11
-50.3300927785
 21
-1.8596367987
  0
LINE
  5
2D1
100
AcDbEntity
  8
RACCORDO
100
AcDbLine
 62
250
  6
CONTINUOUS
 10
-51.8019906091
 20
-1.8582545942
 11
-51.8618134941
 21
-1.8582545942
  0
LWPOLYLINE
  5
2D2
100
AcDbEntity
  8
RACCORDO
100
AcDbPolyline
 62
250
  6
CONTINUOUS
 90
3
 70
0
 10
-50.4019906091
 20
-1.8594477384
 10
-50.3919042404
 20
-1.859533717
 10
-50.3580445042
 20
-1.8596934621
  0
LWPOLYLINE
  5
2D3
100
AcDbEntity
  8
RACCORDO
100
AcDbPolyline
 62
250
  6
CONTINUOUS
 90
5
 70
0
 10
-52.0482037067
 20
-1.8592676331
 10
-52.0444765948
 20
-1.8593719569
 10
-52.0349718967
 20
-1.8595315379
 10
-52.0235707739
 20
-1.8596389062
 10
-51.9955981149
 20
-1.8596928859
  0
LINE
  5
2D4
100
AcDbEntity
  8
DRAFT
100
AcDbLine
 62
7
  6
CONTINUOUS
 10
-50.3519906091
 20
-1.0547641129
 11
-51.9519906091
 21
-1.0547641129
  0
LINE
  5
2D5
100
AcDbEntity
  8
RACCORDO
100
AcDbLine
 62
7
  6
CONTINUOUS
 10
-53.0031495182
 20
-0.6547641129
 11
-51.9519906091
 21
-0.6547641129
  0
LINE
  5
2D6
100
AcDbEntity
  8
ASSI
100
AcDbLine
 62
7
  6
CONTINUOUS
 10
-53.0031495182
 20
-0.6547641129
 11
-52.0587152497
 21
-0.6547641129
  0
LINE
  5
2D7
100
AcDbEntity
  8
DRAFT
100
AcDbLine
 62
7
  6
CONTINUOUS
 10
-51.9519906091
 20
-0.6547641129
 11
-50.3519906091
 21
-0.6547641129
  0
LINE
  5
2D8
100
AcDbEntity
  8
RACCORDO
100
AcDbLine
 62
7
  6
CONTINUOUS
 10
-50.3519906091
 20
-0.6547641129
 11
-44.0008316999
 21
-0.6547641129
  0
LINE
  5
2D9
100
AcDbEntity
  8
ASSI
100
AcDbLine
 62
7
  6
CONTINUOUS
 10
-50.0470037263
 20
-0.6547641129
 11
-44.0008316999
 21
-0.6547641129
  0
LINE
  5
2DA
100
AcDbEntity
  8
0
100
AcDbLine
 62
7
  6
CONTINUOUS
 10
-43.6796655903
 20
-5.9142346493
 11
-43.5075926594
 21
-6.1599802626
  0
LINE
  5
2DB
100
AcDbEntity
  8
0
100
AcDbLine
 62
7
  6
CONTINUOUS
 10
-43.4025248919
 20
-5.7201786431
 11
-43.230451961
 21
-5.9659242564
  0
LWPOLYLINE
  5
2DC
100
AcDbEntity
  8
0
100
AcDbPolyline
 62
7
  6
CONTINUOUS
 90
8
 70
0
 10
-50.5973234022
 20
-6.1599802626
 10
-50.6172751429
 20
-6.1881384687
 10
-50.6372122739
 20
-6.2123150593
 10
-50.6571347954
 20
-6.232334845
 10
-50.6770292745
 20
-6.2480457126
 10
-50.696909144
 20
-6.259353149
 10
-50.7168147022
 20
-6.2661907196
 10
-50.736807024
 20
-6.268489036
  0
LWPOLYLINE
  5
2DD
100
AcDbEntity
  8
0
100
AcDbPolyline
 62
7
  6
CONTINUOUS
 90
3
 70
0
 43
0.3500000006
 10
-34.1380327148
 20
-4.0404778519
 10
-33.92374823
 20
-4.1119067688
 10
-33.6380325623
 20
-4.2547646027
  0
LINE
  5
2DE
100
AcDbEntity
  8
0
100
AcDbLine
 62
7
  6
CONTINUOUS
 10
-43.9815372406
 20
-1.7601429472
 11
-41.5448755652
 21
-3.8047448604
  0
LINE
  5
2DF
100
AcDbEntity
  8
0
100
AcDbLine
 62
7
  6
CONTINUOUS
 10
-45.6519906091
 20
9.5452358871
 11
-45.6519906091
 21
9.3452358871
  0
LWPOLYLINE
  5
2E0
100
AcDbEntity
  8
RACCORDO
100
AcDbPolyline
 62
250
  6
CONTINUOUS
 90
3
 70
0
 10
-44.1477643674
 20
1.2979507306
 10
-44.1464008697
 20
1.2979790018
 10
-44.1461123128
 20
1.297989051
  0
LINE
  5
2E1
100
AcDbEntity
  8
RACCORDO
100
AcDbLine
 62
250
  6
CONTINUOUS
 10
-52.9186122462
 20
0.9542839001
 11
-52.8667311388
 21
0.95477194
  0
LINE
  5
2E2
100
AcDbEntity
  8
RACCORDO
100
AcDbLine
 62
250
  6
CONTINUOUS
 10
-44.8299187222
 20
0.9522168497
 11
-44.4828799557
 21
0.9545536543
  0
LINE
  5
2E3
100
AcDbEntity
  8
RACCORDO
100
AcDbLine
 62
250
  6
CONTINUOUS
 10
-52.8667311388
 20
0.95477194
 11
-52.7603684443
 21
0.9551005037
  0
LINE
  5
2E4
100
AcDbEntity
  8
RACCORDO
100
AcDbLine
 62
250
  6
CONTINUOUS
 10
-52.1740624959
 20
0.9522168497
 11
-44.8299187222
 21
0.9522168497
  0
LINE
  5
2E5
100
AcDbEntity
  8
RACCORDO
100
AcDbLine
 62
250
  6
CONTINUOUS
 10
-44.4828799557
 20
0.9545536543
 11
-44.2436201684
 21
0.9551004867
  0
LINE
  5
2E6
100
AcDbEntity
  8
RACCORDO
100
AcDbLine
 62
7
  6
CONTINUOUS
 10
-52.574001574
 20
1.3452358871
 11
-44.4299796442
 21
1.3452358871
  0
LINE
  5
2E7
100
AcDbEntity
  8
RACCORDO
100
AcDbLine
 62
250
  6
CONTINUOUS
 10
-52.7603684443
 20
0.9551005037
 11
-52.5211038182
 21
0.9545535252
  0
LINE
  5
2E8
100
AcDbEntity
  8
RACCORDO
100
AcDbLine
 62
250
  6
CONTINUOUS
 10
-44.2436201684
 20
0.9551004867
 11
-44.1372523558
 21
0.9547718362
  0
LINE
  5
2E9
100
AcDbEntity
  8
RACCORDO
100
AcDbLine
 62
250
  6
CONTINUOUS
 10
-52.5211038182
 20
0.9545535252
 11
-52.1740624959
 21
0.9522168497
  0
LWPOLYLINE
  5
2EA
100
AcDbEntity
  8
RACCORDO
100
AcDbPolyline
 62
250
  6
CONTINUOUS
 90
7
 70
0
 10
-44.1372523558
 20
0.9547718362
 10
-44.0853705401
 20
0.9542837725
 10
-44.0656128273
 20
0.9539647748
 10
-44.0501251853
 20
0.9535947739
 10
-44.0389949007
 20
0.9531760653
 10
-44.0322870299
 20
0.952715051
 10
-44.0300405661
 20
0.9522168497
  0
LINE
  5
2EB
100
AcDbEntity
  8
0
100
AcDbLine
 62
7
  6
CONTINUOUS
 10
-43.9884746402
 20
-1.362699591
 11
-41.3520392823
 21
-3.5749315274
  0
LINE
  5
2EC
100
AcDbEntity
  8
RACCORDO
100
AcDbLine
 62
250
  6
CONTINUOUS
 10
-44.8299187222
 20
0.9522168497
 11
-44.8018687652
 21
-0.6547641129
  0
LINE
  5
2ED
100
AcDbEntity
  8
RACCORDO
100
AcDbLine
 62
250
  6
CONTINUOUS
 10
-44.6418687652
 20
-9.7547641129
 11
-44.800709856
 21
-0.6547641129
  0
LINE
  5
2EE
100
AcDbEntity
  8
ASSI
100
AcDbLine
 62
250
  6
CONTINUOUS
 10
-44.6418687652
 20
-9.7547641129
 11
-44.800709856
 21
-0.6547641129
  0
LINE
  5
2EF
100
AcDbEntity
  8
RACCORDO
100
AcDbLine
 62
250
  6
CONTINUOUS
 10
-44.8299187222
 20
1.3452358871
 11
-44.8299187243
 21
0.9522168497
  0
LINE
  5
2F0
100
AcDbEntity
  8
RACCORDO
100
AcDbLine
 62
250
  6
CONTINUOUS
 10
-44.6419906091
 20
-10.8547641129
 11
-44.6419906091
 21
-9.7547641129
  0
LINE
  5
2F1
100
AcDbEntity
  8
ASSI
100
AcDbLine
 62
250
  6
CONTINUOUS
 10
-44.6419906091
 20
-10.8547641129
 11
-44.6419906091
 21
-9.7547641129
  0
LINE
  5
2F2
100
AcDbEntity
  8
0
100
AcDbLine
 62
7
  6
CONTINUOUS
 10
-50.4019906091
 20
-5.9659242564
 11
-50.5973234022
 21
-6.1599802626
  0
LWPOLYLINE
  5
2F3
100
AcDbEntity
  8
RACCORDO
100
AcDbPolyline
 62
250
  6
CONTINUOUS
 90
6
 70
0
 10
-52.973940652
 20
0.9522168497
 10
-52.9716945184
 20
0.9527150581
 10
-52.9649873989
 20
0.9531760943
 10
-52.9538579278
 20
0.9535948333
 10
-52.9383705109
 20
0.953964873
 10
-52.9186122462
 20
0.9542839001
  0
LINE
  5
2F4
100
AcDbEntity
  8
RACCORDO
100
AcDbLine
 62
250
  6
CONTINUOUS
 10
-51.8985605224
 20
1.5417454208
 11
-44.6089700807
 21
1.5417454058
  0
LWPOLYLINE
  5
2F5
100
AcDbEntity
  8
RACCORDO
100
AcDbPolyline
 62
250
  6
CONTINUOUS
 90
10
 70
0
 10
-44.6089700807
 20
1.5417454058
 10
-44.5863491871
 20
1.541261492
 10
-44.5637373977
 20
1.5398444885
 10
-44.5411912301
 20
1.5374943955
 10
-44.5187867305
 20
1.5341970348
 10
-44.496565584
 20
1.5299665846
 10
-44.4745412781
 20
1.5248455787
 10
-44.452768459
 20
1.5188481952
 10
-44.4313367821
 20
1.5119602561
 10
-44.4103213166
 20
1.5041817614
  0
LWPOLYLINE
  5
2F6
100
AcDbEntity
  8
RACCORDO
100
AcDbPolyline
 62
250
  6
CONTINUOUS
 90
13
 70
0
 10
-44.4299796442
 20
1.3452358871
 10
-44.4530879878
 20
1.346909158
 10
-44.4758096641
 20
1.3519009718
 10
-44.4977644782
 20
1.3601278008
 10
-44.518585067
 20
1.3714519872
 10
-44.5379230461
 20
1.3856840456
 10
-44.5554548393
 20
1.4025858343
 10
-44.5708870932
 20
1.4218745399
 10
-44.5839615856
 20
1.4432274097
 10
-44.5944595459
 20
1.4662871524
 10
-44.6022053161
 20
1.4906679162
 10
-44.6070692897
 20
1.5159617452
 10
-44.6089700805
 20
1.5417454058
  0
LWPOLYLINE
  5
2F7
100
AcDbEntity
  8
RACCORDO
100
AcDbPolyline
 62
250
  6
CONTINUOUS
 90
3
 70
0
 10
-44.2058975682
 20
1.4355441685
 10
-44.2039674277
 20
1.4349454825
 10
-44.203554208
 20
1.4348144092
  0
LINE
  5
2F8
100
AcDbEntity
  8
RACCORDO
100
AcDbLine
 62
250
  6
CONTINUOUS
 10
-44.2967409489
 20
1.4642864744
 11
-44.2058975682
 21
1.4355441685
  0
LWPOLYLINE
  5
2F9
100
AcDbEntity
  8
RACCORDO
100
AcDbPolyline
 62
250
  6
CONTINUOUS
 90
18
 70
0
 10
-44.2907088332
 20
1.3201928075
 10
-44.2804568117
 20
1.3165849698
 10
-44.2701925582
 20
1.3133538578
 10
-44.2599715798
 20
1.310481801
 10
-44.2499016417
 20
1.30797078
 10
-44.2399905439
 20
1.3057966931
 10
-44.2301697735
 20
1.3039061705
 10
-44.2205425756
 20
1.3023109303
 10
-44.2111888305
 20
1.3010095975
 10
-44.2020553086
 20
1.2999343816
 10
-44.1932504163
 20
1.2991029753
 10
-44.1849328764
 20
1.2985275846
 10
-44.1771445519
 20
1.2981118438
 10
-44.169988374
 20
1.2978520736
 10
-44.1636362199
 20
1.2977692236
 10
-44.1581700852
 20
1.2977567191
 10
-44.153660818
 20
1.2977873348
 10
-44.1477643674
 20
1.2979507306
  0
LWPOLYLINE
  5
2FA
100
AcDbEntity
  8
0
100
AcDbPolyline
 62
7
  6
CONTINUOUS
 90
3
 70
0
 43
0.3500000006
 10
-35.9951754913
 20
-8.826192627
 10
-36.8523179626
 20
-7.9690501556
 10
-33.852319313
 20
-7.9690501556
  0
LINE
  5
2FB
100
AcDbEntity
  8
0
100
AcDbLine
 62
250
  6
CONTINUOUS
 10
-41.4004871036
 20
-4.6845690686
 11
-41.5725600345
 21
-4.4388234553
  0
LINE
  5
2FC
100
AcDbEntity
  8
RACCORDO
100
AcDbLine
 62
7
  6
CONTINUOUS
 10
-44.0303047104
 20
0.9717132394
 11
-44.0307968634
 21
0.9954749496
  0
LINE
  5
2FD
100
AcDbEntity
  8
DRAFT
100
AcDbLine
 62
7
  6
CONTINUOUS
 10
-44.2035540457
 20
1.4348051112
 11
-44.3382010421
 21
9.1487263684
  0
LINE
  5
2FE
100
AcDbEntity
  8
RACCORDO
100
AcDbLine
 62
7
  6
CONTINUOUS
 10
-44.0019906091
 20
-0.6547641129
 11
-44.0312971092
 21
1.0242041528
  0
LINE
  5
2FF
100
AcDbEntity
  8
RACCORDO
100
AcDbLine
 62
7
  6
CONTINUOUS
 10
-43.8419906091
 20
-9.7547641129
 11
-44.0008316999
 21
-0.6547641129
  0
LINE
  5
300
100
AcDbEntity
  8
ASSI
100
AcDbLine
 62
7
  6
CONTINUOUS
 10
-43.8419906091
 20
-9.7547641129
 11
-44.0008316999
 21
-0.6547641129
  0
LINE
  5
301
100
AcDbEntity
  8
RACCORDO
100
AcDbLine
 62
7
  6
CONTINUOUS
 10
-43.8419906091
 20
-10.0547641129
 11
-43.8419906091
 21
-9.7547641129
  0
LINE
  5
302
100
AcDbEntity
  8
ASSI
100
AcDbLine
 62
7
  6
CONTINUOUS
 10
-43.8419906091
 20
-10.0547641129
 11
-43.8419906091
 21
-9.7547641129
  0
LWPOLYLINE
  5
303
100
AcDbEntity
  8
RACCORDO
100
AcDbPolyline
 62
250
  6
CONTINUOUS
 90
8
 70
0
 10
-44.4103213166
 20
1.5041817614
 10
-44.3956713455
 20
1.498555884
 10
-44.381034921
 20
1.493116744
 10
-44.3664745738
 20
1.4878643413
 10
-44.3520970767
 20
1.482804989
 10
-44.3379244007
 20
1.477932374
 10
-44.3239136959
 20
1.4732275572
 10
-44.2967409489
 20
1.4642864744
  0
LWPOLYLINE
  5
304
100
AcDbEntity
  8
RACCORDO
100
AcDbPolyline
 62
250
  6
CONTINUOUS
 90
5
 70
0
 10
-44.2907088332
 20
1.3201928075
 10
-44.3138142787
 20
1.3307291838
 10
-44.3352247272
 20
1.3444981487
 10
-44.3545490142
 20
1.3612481463
 10
-44.3714340891
 20
1.3806731576
  0
LWPOLYLINE
  5
305
100
AcDbEntity
  8
RACCORDO
100
AcDbPolyline
 62
250
  6
CONTINUOUS
 90
6
 70
0
 10
-44.3714340891
 20
1.3806731576
 10
-44.3855714648
 20
1.4024182919
 10
-44.3967028545
 20
1.4260862702
 10
-44.4046248898
 20
1.4512446838
 10
-44.4091928366
 20
1.4774338939
 10
-44.410323239
 20
1.5041754291
  0
LINE
  5
306
100
AcDbEntity
  8
0
100
AcDbLine
 62
250
  6
CONTINUOUS
 10
-41.3520392823
 20
-3.5749315274
 11
-41.5448755652
 21
-3.8047448604
  0
LINE
  5
307
100
AcDbEntity
  8
0
100
AcDbLine
 62
7
  6
CONTINUOUS
 10
-41.5725600345
 20
-4.4388234553
 11
-43.6796655903
 21
-5.9142346493
  0
LINE
  5
308
100
AcDbEntity
  8
0
100
AcDbLine
 62
7
  6
CONTINUOUS
 10
-41.4004871036
 20
-4.6845690686
 11
-43.5075926594
 21
-6.1599802626
  0
LWPOLYLINE
  5
309
100
AcDbEntity
  8
0
100
AcDbPolyline
 62
7
  6
CONTINUOUS
 90
3
 70
0
 43
0.3500000006
 10
-24.1223607559
 20
0.4595212555
 10
-23.9080762711
 20
0.3880923386
 10
-23.6223606033
 20
0.2452367706
  0
LWPOLYLINE
  5
30A
100
AcDbEntity
  8
0
100
AcDbPolyline
 62
7
  6
CONTINUOUS
 90
10
 70
0
 43
0.3500000006
 10
-34.3523194656
 20
-4.1119067688
 10
-34.2094616318
 20
-4.0404778519
 10
-34.1380327148
 20
-4.0404778519
 10
-33.995174881
 20
-4.1833356857
 10
-33.995174881
 20
-4.2547646027
 10
-34.0666037979
 20
-4.3261923866
 10
-34.1380327148
 20
-4.3261923866
 10
-34.2808905487
 20
-4.2547646027
 10
-34.3523194656
 20
-4.1833356857
 10
-34.3523194656
 20
-4.1119067688
  0
LWPOLYLINE
  5
30B
100
AcDbEntity
  8
0
100
AcDbPolyline
 62
7
  6
CONTINUOUS
 90
10
 70
0
 43
0.3500000006
 10
-24.3366475067
 20
0.3880923386
 10
-24.1937896729
 20
0.4595212555
 10
-24.1223607559
 20
0.4595212555
 10
-23.979505188
 20
0.3166634216
 10
-23.979505188
 20
0.2452367706
 10
-24.050931839
 20
0.1738078537
 10
-24.1223607559
 20
0.1738078537
 10
-24.2652185898
 20
0.2452367706
 10
-24.3366475067
 20
0.3166634216
 10
-24.3366475067
 20
0.3880923386
  0
LINE
  5
30C
100
AcDbEntity
  8
RACCORDO
100
AcDbLine
 62
250
  6
CONTINUOUS
 10
-51.765780176
 20
9.1487263718
 11
-44.3382010421
 21
9.1487263718
  0
LINE
  5
30D
100
AcDbEntity
  8
RACCORDO
100
AcDbLine
 62
7
  6
CONTINUOUS
 10
-51.5659266599
 20
9.3452358871
 11
-44.5381705811
 21
9.3452358871
  0
LINE
  5
30E
100
AcDbEntity
  8
0
100
AcDbLine
 62
7
  6
CONTINUOUS
 10
-45.6519906091
 20
9.5452358871
 11
-50.4519906091
 21
9.5452358871
  0
LWPOLYLINE
  5
30F
100
AcDbEntity
  8
0
100
AcDbPolyline
 62
7
  6
CONTINUOUS
 90
10
 70
0
 43
0.3500000006
 10
-46.1677064667
 20
19.5952381439
 10
-46.0962752838
 20
19.4523803101
 10
-46.0962752838
 20
19.3809491272
 10
-46.2391331177
 20
19.2380912933
 10
-46.3105643005
 20
19.2380912933
 10
-46.3819909515
 20
19.3095224762
 10
-46.3819909515
 20
19.3809491272
 10
-46.3105643005
 20
19.5238069611
 10
-46.2391331177
 20
19.5952381439
 10
-46.1677064667
 20
19.5952381439
  0
LWPOLYLINE
  5
310
100
AcDbEntity
  8
0
100
AcDbPolyline
 62
7
  6
CONTINUOUS
 90
7
 70
0
 43
0.3500000006
 10
-33.852319313
 20
-1.5404782219
 10
-33.852319313
 20
-3.0404786797
 10
-35.9951754913
 20
-1.5404782219
 10
-36.423746727
 20
-1.5404782219
 10
-36.8523179626
 20
-1.9690494576
 10
-36.8523179626
 20
-2.611907444
 10
-36.2094622421
 20
-3.0404786797
  0
LWPOLYLINE
  5
311
100
AcDbEntity
  8
0
100
AcDbPolyline
 62
7
  6
CONTINUOUS
 90
7
 70
0
 43
0.3500000006
 10
-33.852319313
 20
-5.6119072266
 10
-33.852319313
 20
-7.1119065514
 10
-35.9951754913
 20
-5.6119072266
 10
-36.423746727
 20
-5.6119072266
 10
-36.8523179626
 20
-6.0404784622
 10
-36.8523179626
 20
-6.6833353157
 10
-36.2094622421
 20
-7.1119065514
  0
LWPOLYLINE
  5
312
100
AcDbEntity
  8
0
100
AcDbPolyline
 62
7
  6
CONTINUOUS
 90
7
 70
0
 43
0.3500000006
 10
-23.8366473541
 20
2.9595220184
 10
-23.8366473541
 20
1.4595215607
 10
-25.9795035324
 20
2.9595220184
 10
-26.4080747681
 20
2.9595220184
 10
-26.8366460037
 20
2.5309507828
 10
-26.8366460037
 20
1.8880927963
 10
-26.1937902832
 20
1.4595215607
  0
LWPOLYLINE
  5
313
100
AcDbEntity
  8
0
100
AcDbPolyline
 62
7
  6
CONTINUOUS
 90
7
 70
0
 43
0.3500000006
 10
-23.8366473541
 20
-2.8261930618
 10
-23.8366473541
 20
-4.3261923866
 10
-25.9795035324
 20
-2.8261930618
 10
-26.4080747681
 20
-2.8261930618
 10
-26.8366460037
 20
-3.2547642975
 10
-26.8366460037
 20
-3.897621151
 10
-26.1937902832
 20
-4.3261923866
  0
LWPOLYLINE
  5
314
100
AcDbEntity
  8
0
100
AcDbPolyline
 62
7
  6
CONTINUOUS
 90
7
 70
0
 43
0.3500000006
 10
-47.6677069244
 20
19.0952379913
 10
-49.1677028503
 20
19.0952379913
 10
-47.6677069244
 20
21.2380919037
 10
-47.6677069244
 20
21.6666654053
 10
-48.0962758942
 20
22.095234375
 10
-48.7391338806
 20
22.095234375
 10
-49.1677028503
 20
21.4523809204
  0
LWPOLYLINE
  5
315
100
AcDbEntity
  8
0
100
AcDbPolyline
 62
7
  6
CONTINUOUS
 90
3
 70
0
 43
0.3500000006
 10
-25.9795035324
 20
-1.9690494576
 10
-26.8366460037
 20
-1.1119058533
 10
-23.8366473541
 20
-1.1119058533
  0
ARC
  5
316
100
AcDbEntity
  8
RACCORDO
100
AcDbCircle
 62
7
  6
CONTINUOUS
 10
-12.6831097833
 20
-10.0547641129
 40
0.8
100
AcDbArc
 50
180.0
 51
270.0
  0
ARC
  5
317
100
AcDbEntity
  8
ASSI
100
AcDbCircle
 62
7
  6
CONTINUOUS
 10
-12.6831097833
 20
-10.0547641129
 40
0.8
100
AcDbArc
 50
180.0
 51
270.0
  0
ARC
  5
318
100
AcDbEntity
  8
ASSI
100
AcDbCircle
 62
7
  6
CONTINUOUS
 10
-8.3831097833
 20
-11.1547641129
 40
0.6
100
AcDbArc
 50
30.0
 51
150.0
  0
ARC
  5
319
100
AcDbEntity
  8
ASSI
100
AcDbCircle
 62
7
  6
CONTINUOUS
 10
-10.1831097833
 20
-11.1547641129
 40
0.6
100
AcDbArc
 50
30.0
 51
150.0
  0
ARC
  5
31A
100
AcDbEntity
  8
ASSI
100
AcDbCircle
 62
7
  6
CONTINUOUS
 10
-11.9831097833
 20
-11.1547641129
 40
0.6
100
AcDbArc
 50
30.0
 51
150.0
  0
ARC
  5
31B
100
AcDbEntity
  8
0
100
AcDbCircle
 62
7
  6
CONTINUOUS
 10
-8.7831097833
 20
6.3452358871
 40
4.0
100
AcDbArc
 50
53.1301023542
 51
126.8698976458
  0
ARC
  5
31C
100
AcDbEntity
  8
RACCORDO
100
AcDbCircle
 62
7
  6
CONTINUOUS
 10
-12.4038602745
 20
1.0174483726
 40
0.3999999913
100
AcDbArc
 50
135.459875654
 51
179.0000017887
  0
ARC
  5
31D
100
AcDbEntity
  8
RACCORDO
100
AcDbCircle
 62
7
  6
CONTINUOUS
 10
-12.4051207482
 20
0.9452358871
 40
0.4
100
AcDbArc
 50
90.0
 51
179.0
  0
ARC
  5
31E
100
AcDbEntity
  8
RACCORDO
100
AcDbCircle
 62
7
  6
CONTINUOUS
 10
-4.7365703306
 20
1.5452358871
 40
0.2
100
AcDbArc
 50
181.0
 51
270.0
  0
ARC
  5
31F
100
AcDbEntity
  8
RACCORDO
100
AcDbCircle
 62
7
  6
CONTINUOUS
 10
-5.2692897553
 20
9.1452358871
 40
0.2
100
AcDbArc
 50
1.0
 51
90.0
  0
ARC
  5
320
100
AcDbEntity
  8
RACCORDO
100
AcDbCircle
 62
7
  6
CONTINUOUS
 10
-12.2969298112
 20
9.1452358871
 40
0.2
100
AcDbArc
 50
90.0
 51
179.0
  0
ARC
  5
321
100
AcDbEntity
  8
RACCORDO
100
AcDbCircle
 62
7
  6
CONTINUOUS
 10
-12.8315157778
 20
1.4382934819
 40
0.1999999929
100
AcDbArc
 50
315.4598533666
 51
359.0000098611
  0
ARC
  5
322
100
AcDbEntity
  8
RACCORDO
100
AcDbCircle
 62
7
  6
CONTINUOUS
 10
10.9168902167
 20
-10.0547641129
 40
0.8
100
AcDbArc
 50
270.0
 51
360.0
  0
ARC
  5
323
100
AcDbEntity
  8
ASSI
100
AcDbCircle
 62
7
  6
CONTINUOUS
 10
10.9168902167
 20
-10.0547641129
 40
0.8
100
AcDbArc
 50
270.0
 51
360.0
  0
ARC
  5
324
100
AcDbEntity
  8
0
100
AcDbCircle
 62
7
  6
CONTINUOUS
 10
12.7168902167
 20
-4.1111626376
 40
0.7
100
AcDbArc
 50
305.0
 51
50.0
  0
ARC
  5
325
100
AcDbEntity
  8
ASSI
100
AcDbCircle
 62
7
  6
CONTINUOUS
 10
6.6168902167
 20
-11.1547641129
 40
0.6
100
AcDbArc
 50
30.0
 51
150.0
  0
ARC
  5
326
100
AcDbEntity
  8
ASSI
100
AcDbCircle
 62
7
  6
CONTINUOUS
 10
10.2168902167
 20
-11.1547641129
 40
0.6
100
AcDbArc
 50
30.0
 51
150.0
  0
ARC
  5
327
100
AcDbEntity
  8
ASSI
100
AcDbCircle
 62
7
  6
CONTINUOUS
 10
8.4168902167
 20
-11.1547641129
 40
0.6
100
AcDbArc
 50
30.0
 51
150.0
  0
ARC
  5
328
100
AcDbEntity
  8
0
100
AcDbCircle
 62
7
  6
CONTINUOUS
 10
12.7168902167
 20
-4.1111626376
 40
0.4
100
AcDbArc
 50
305.0
 51
50.0
  0
ARC
  5
329
100
AcDbEntity
  8
RACCORDO
100
AcDbCircle
 62
7
  6
CONTINUOUS
 10
10.6389011816
 20
0.9452358871
 40
0.4
100
AcDbArc
 50
1.0
 51
90.0
  0
ARC
  5
32A
100
AcDbEntity
  8
RACCORDO
100
AcDbCircle
 62
7
  6
CONTINUOUS
 10
-52.3619906091
 20
-10.0547641129
 40
0.8
100
AcDbArc
 50
180.0
 51
270.0
  0
ARC
  5
32B
100
AcDbEntity
  8
ASSI
100
AcDbCircle
 62
7
  6
CONTINUOUS
 10
-52.3619906091
 20
-10.0547641129
 40
0.8
100
AcDbArc
 50
180.0
 51
270.0
  0
ARC
  5
32C
100
AcDbEntity
  8
RACCORDO
100
AcDbCircle
 62
7
  6
CONTINUOUS
 10
-51.5019906091
 20
-7.0547641129
 40
0.3
100
AcDbArc
 50
90.0
 51
180.0
  0
ARC
  5
32D
100
AcDbEntity
  8
RACCORDO
100
AcDbCircle
 62
7
  6
CONTINUOUS
 10
-51.8618134941
 20
-1.8547641129
 40
0.2
100
AcDbArc
 50
201.5300912296
 51
270.0
  0
ARC
  5
32E
100
AcDbEntity
  8
RACCORDO
100
AcDbCircle
 62
7
  6
CONTINUOUS
 10
-50.492167724
 20
-1.8547641129
 40
0.2
100
AcDbArc
 50
296.8391533358
 51
359.0
  0
ARC
  5
32F
100
AcDbEntity
  8
RACCORDO
100
AcDbCircle
 62
7
  6
CONTINUOUS
 10
-50.0470037263
 20
-0.8547641129
 40
0.2
100
AcDbArc
 50
90.0
 51
179.5
  0
ARC
  5
330
100
AcDbEntity
  8
RACCORDO
100
AcDbCircle
 62
7
  6
CONTINUOUS
 10
-50.5002528512
 20
-6.9547641129
 40
0.2
100
AcDbArc
 50
270.0
 51
359.5
  0
ARC
  5
331
100
AcDbEntity
  8
RACCORDO
100
AcDbCircle
 62
7
  6
CONTINUOUS
 10
-51.803728367
 20
-6.9547641129
 40
0.2
100
AcDbArc
 50
180.5
 51
270.0
  0
ARC
  5
332
100
AcDbEntity
  8
ASSI
100
AcDbCircle
 62
7
  6
CONTINUOUS
 10
-51.803728367
 20
-6.9547641129
 40
0.2
100
AcDbArc
 50
180.5
 51
270.0
  0
ARC
  5
333
100
AcDbEntity
  8
ASSI
100
AcDbCircle
 62
7
  6
CONTINUOUS
 10
-50.5002528512
 20
-6.9547641129
 40
0.2
100
AcDbArc
 50
270.0
 51
359.5
  0
ARC
  5
334
100
AcDbEntity
  8
ASSI
100
AcDbCircle
 62
7
  6
CONTINUOUS
 10
-50.0470037263
 20
-0.8547641129
 40
0.2
100
AcDbArc
 50
90.0
 51
179.5
  0
ARC
  5
335
100
AcDbEntity
  8
0
100
AcDbCircle
 62
7
  6
CONTINUOUS
 10
-48.0519906091
 20
6.3452358871
 40
4.0
100
AcDbArc
 50
53.1301023542
 51
126.8698976458
  0
ARC
  5
336
100
AcDbEntity
  8
RACCORDO
100
AcDbCircle
 62
7
  6
CONTINUOUS
 10
-52.574001574
 20
0.9452358871
 40
0.4
100
AcDbArc
 50
90.0
 51
179.0
  0
ARC
  5
337
100
AcDbEntity
  8
RACCORDO
100
AcDbCircle
 62
7
  6
CONTINUOUS
 10
-52.0985300617
 20
1.5452358871
 40
0.2
100
AcDbArc
 50
270.0
 51
359.0
  0
ARC
  5
338
100
AcDbEntity
  8
RACCORDO
100
AcDbCircle
 62
7
  6
CONTINUOUS
 10
-51.565810637
 20
9.1452358871
 40
0.2
100
AcDbArc
 50
90.0
 51
179.0
  0
ARC
  5
339
100
AcDbEntity
  8
RACCORDO
100
AcDbCircle
 62
7
  6
CONTINUOUS
 10
-44.6419906091
 20
-10.0547641129
 40
0.8
100
AcDbArc
 50
270.0
 51
360.0
  0
ARC
  5
33A
100
AcDbEntity
  8
ASSI
100
AcDbCircle
 62
7
  6
CONTINUOUS
 10
-44.6419906091
 20
-10.0547641129
 40
0.8
100
AcDbArc
 50
270.0
 51
360.0
  0
ARC
  5
33B
100
AcDbEntity
  8
0
100
AcDbCircle
 62
7
  6
CONTINUOUS
 10
-41.8019906091
 20
-4.1111626376
 40
0.7
100
AcDbArc
 50
305.0
 51
50.0
  0
ARC
  5
33C
100
AcDbEntity
  8
0
100
AcDbCircle
 62
7
  6
CONTINUOUS
 10
-43.8517385212
 20
-5.668489036
 40
0.6
100
AcDbArc
 50
265.1098334599
 51
305.0
  0
ARC
  5
33D
100
AcDbEntity
  8
0
100
AcDbCircle
 62
7
  6
CONTINUOUS
 10
-41.8019906091
 20
-4.1111626376
 40
0.4
100
AcDbArc
 50
305.0
 51
50.0
  0
ARC
  5
33E
100
AcDbEntity
  8
0
100
AcDbCircle
 62
7
  6
CONTINUOUS
 10
-43.8517385212
 20
-5.668489036
 40
0.3
100
AcDbArc
 50
259.1403332731
 51
305.0
  0
ARC
  5
33F
100
AcDbEntity
  8
RACCORDO
100
AcDbCircle
 62
7
  6
CONTINUOUS
 10
-44.4312382611
 20
1.0173420032
 40
0.4000766711
100
AcDbArc
 50
1.0070889345
 51
44.5485474412
  0
ARC
  5
340
100
AcDbEntity
  8
RACCORDO
100
AcDbCircle
 62
7
  6
CONTINUOUS
 10
-44.4299796442
 20
0.9452358871
 40
0.4
100
AcDbArc
 50
1.0
 51
90.0
  0
ARC
  5
341
100
AcDbEntity
  8
RACCORDO
100
AcDbCircle
 62
7
  6
CONTINUOUS
 10
-44.5381705811
 20
9.1452358871
 40
0.2
100
AcDbArc
 50
1.0
 51
90.0
  0
ARC
  5
342
100
AcDbEntity
  8
RACCORDO
100
AcDbCircle
 62
7
  6
CONTINUOUS
 10
-44.0035848855
 20
1.4382955859
 40
0.1999999815
100
AcDbArc
 50
180.9999999998
 51
224.545874115
  0
ENDSEC
  0
SECTION
  2
OBJECTS
  0
DICTIONARY
  5
C
100
AcDbDictionary
280
0
281
1
  3
ACAD_GROUP
350
D
  3
ACAD_MLINESTYLE
350
17
  3
ACAD_LAYOUT
350
1A
  3
ACAD_PLOTSETTINGS
350
19
  3
ACAD_PLOTSTYLENAME
350
E
  0
DICTIONARY
  5
D
102
{ACAD_REACTORS
330
C
102
}
100
AcDbDictionary
280
0
281
1
  0
ACDBDICTIONARYWDFLT
  5
E
102
{ACAD_REACTORS
330
C
102
}
100
AcDbDictionary
281
1
  3
Normal
350
F
100
AcDbDictionaryWithDefault
340
F
  0
DICTIONARY
  5
17
102
{ACAD_REACTORS
330
C
102
}
100
AcDbDictionary
280
0
281
1
  3
Standard
350
18
  0
DICTIONARY
  5
19
102
{ACAD_REACTORS
330
C
102
}
100
AcDbDictionary
281
1
  0
DICTIONARY
  5
1A
102
{ACAD_REACTORS
330
C
102
}
100
AcDbDictionary
281
1
  3
Model
350
343
  3
Layout1
350
344
  0
ACDBPLACEHOLDER
  5
F
102
{ACAD_REACTORS
330
E
102
}
  0
MLINESTYLE
  5
18
102
{ACAD_REACTORS
330
17
102
}
100
AcDbMlineStyle
  2
STANDARD
 70
0
  3

 62
256
 51
90.0
 52
90.0
 71
2
 49
0.5
 62
256
  6
BYLAYER
 49
-0.5
 62
256
  6
BYLAYER
  0
LAYOUT
  5
343
102
{ACAD_REACTORS
330
1A
102
}
100
AcDbPlotSettings
  1

  2
none_device
  4
ISO_A4_(297.00_x_210.00_MM)
  6

 40
0.0
 41
0.0
 42
0.0
 43
0.0
 44
297.0
 45
210.0
 46
0.0
 47
0.0
 48
0.0
 49
0.0
140
0.0
141
0.0
142
1.0
143
1.0
 70
1024
 72
1
 73
0
 74
0
  7

 75
0
147
1.0
148
0.0
149
0.0
100
AcDbLayout
  1
Model
 70
0
 71
0
 10
0.0
 20
0.0
 11
297.0
 21
210.0
 12
0.0
 22
0.0
 32
0.0
 14
0.0
 24
0.0
 34
0.0
 15
0.0
 25
0.0
 35
0.0
146
0.0
 13
0.0
 23
0.0
 33
0.0
 16
1.0
 26
0.0
 36
0.0
 17
0.0
 27
1.0
 37
0.0
 76
0
330
213
345
0
346
0
  0
LAYOUT
  5
344
102
{ACAD_REACTORS
330
1A
102
}
100
AcDbPlotSettings
  1

  2
none_device
  4
ISO_A4_(297.00_x_210.00_MM)
  6

 40
0.0
 41
0.0
 42
0.0
 43
0.0
 44
297.0
 45
210.0
 46
0.0
 47
0.0
 48
0.0
 49
0.0
140
0.0
141
0.0
142
1.0
143
1.0
 70
0
 72
1
 73
0
 74
0
  7

 75
0
147
1.0
148
0.0
149
0.0
100
AcDbLayout
  1
Layout1
 70
0
 71
1
 10
0.0
 20
0.0
 11
297.0
 21
210.0
 12
0.0
 22
0.0
 32
0.0
 14
0.0
 24
0.0
 34
0.0
 15
0.0
 25
0.0
 35
0.0
146
0.0
 13
0.0
 23
0.0
 33
0.0
 16
1.0
 26
0.0
 36
0.0
 17
0.0
 27
1.0
 37
0.0
 76
0
330
214
345
0
346
0
  0
ENDSEC
  0
EOF
