0
SECTION
2
HEADER
9
$ACADVER
1
AC1015
9
$DWGCODEPAGE
3
ANSI_1252
9
$EXTMAX
10
297.0000000000
20
210.0000000000
30
0.0000000000
9
$EXTMIN
10
0.0000000000
20
0.0000000000
30
0.0000000000
9
$LIMMIN
10
0.0000000000
20
0.0000000000
9
$LIMMAX
10
297.0000000000
20
210.0000000000
9
$VIEWCTR
10
148.5000000000
20
105.0000000000
9
$VIEWSIZE
40
210.0000000000
9
$CLAYER
8
0
9
$LTSCALE
40
16.3350000000
9
$CELTYPE
6
BYLAYER
9
$DIMSCALE
40
1
9
$DIMASZ
40
3.0000000000
9
$DIMEXO
40
1.8562500000
9
$DIMDLI
40
11.2860000000
9
$DIMEXE
40
5.3460000000
9
$DIMCEN
40
2.6730000000
9
$DIMLFAC
40
1.0000000000
9
$DIMBLK
1
_FILLED
9
$DIMTXT
40
3.0000000000
9
$DIMTOL
70
1
9
$DIMLIM
70
0
9
$DIMTFAC
40
1.0000000000
9
$DIMTP
40
0.0100000000
9
$DIMTM
40
0.0100000000
9
$PDMODE
70
3
9
$PDSIZE
40
3.0000000000
9
$HANDSEED
5
353
9
$MEASUREMENT
70
1
9
$INSUNITS
70
4
0
ENDSEC
0
SECTION
2
CLASSES
0
CLASS
1
ACDBDICTIONARYWDFLT
2
AcDbDictionaryWithDefault
3
AutoCAD 2000
90
0
280
0
281
0
0
CLASS
1
ACDBPLACEHOLDER
2
AcDbPlaceHolder
3
AutoCAD 2000
90
0
280
0
281
0
0
CLASS
1
LAYOUT
2
AcDbLayout
3
AutoCAD 2000
90
0
280
0
281
0
0
ENDSEC
0
SECTION
2
TABLES
0
TABLE
2
VPORT
5
8
100
AcDbSymbolTable
70
2
0
VPORT
5
1F4
100
AcDbSymbolTableRecord
100
AcDbViewportTableRecord
2
*ACTIVE
70
0
10
0.0
20
0.0
11
1.0
21
1.0
12
148.5000000000
22
105.0000000000
13
0.0
23
0.0
14
1.0
24
1.0
15
0.0
25
0.0
16
0.0
26
0.0
36
1.0
17
0.0
27
0.0
37
0.0
40
210.0000000000
41
1.4142857143
42
50.0
43
0.0
44
0.0
50
0.0
51
0.0
71
0
72
100
73
1
74
1
75
0
76
0
77
0
78
0
0
ENDTAB
0
TABLE
2
LTYPE
5
5
100
AcDbSymbolTable
70
6
0
LTYPE
5
14
100
AcDbSymbolTableRecord
100
AcDbLinetypeTableRecord
2
BYBLOCK
70
0
3

72
65
73
0
40
0.0
0
LTYPE
5
15
100
AcDbSymbolTableRecord
100
AcDbLinetypeTableRecord
2
BYLAYER
70
0
3

72
65
73
0
40
0.0
0
LTYPE
5
16
100
AcDbSymbolTableRecord
100
AcDbLinetypeTableRecord
2
CONTINUOUS
70
64
3
Solid line
72
65
73
0
40
0
0
LTYPE
5
1F5
100
AcDbSymbolTableRecord
100
AcDbLinetypeTableRecord
2
CENTER
70
64
3
____ _ ____ _ ____ _ ____ _ ____ _ ____ _ ____
72
65
73
4
40
0.6
49
0.375
74
0
49
-0.075
74
0
49
0.075
74
0
49
-0.075
74
0
0
LTYPE
5
1F6
100
AcDbSymbolTableRecord
100
AcDbLinetypeTableRecord
2
HIDDEN
70
64
3
- - - - - - - - - - - - - - - - - - - -
72
65
73
2
40
0.2
49
0.1
74
0
49
-0.1
74
0
0
LTYPE
5
1F7
100
AcDbSymbolTableRecord
100
AcDbLinetypeTableRecord
2
PHANTOM
70
64
3
_____ _ _ _____ _ _ _____ _ _ _____
72
65
73
6
40
0.8
49
0.45
74
0
49
-0.05
74
0
49
0.1
74
0
49
-0.05
74
0
49
0.1
74
0
49
-0.05
74
0
0
LTYPE
5
1F8
100
AcDbSymbolTableRecord
100
AcDbLinetypeTableRecord
2
DOT
70
64
3
. . . . . . . . . . . . . . . . . . . .
72
65
73
2
40
0.2
49
0.1
74
0
49
-0.1
74
0
0
LTYPE
5
1F9
100
AcDbSymbolTableRecord
100
AcDbLinetypeTableRecord
2
DASHED
70
64
3
- - - - - - - - - - - - - - - - - - - -
72
65
73
2
40
0.2
49
0.1
74
0
49
-0.1
74
0
0
ENDTAB
0
TABLE
2
LAYER
5
2
100
AcDbSymbolTable
70
36
0
LAYER
5
10
100
AcDbSymbolTableRecord
100
AcDbLayerTableRecord
2
0
70
0
62
7
6
CONTINUOUS
370
-3
390
F
0
LAYER
5
1FA
100
AcDbSymbolTableRecord
100
AcDbLayerTableRecord
2
DEFAULT_1
70
0
62
7
6
CENTER
370
-3
390
F
0
LAYER
5
1FB
100
AcDbSymbolTableRecord
100
AcDbLayerTableRecord
2
DEFAULT_2
70
0
62
0
6
HIDDEN
370
-3
390
F
0
LAYER
5
1FC
100
AcDbSymbolTableRecord
100
AcDbLayerTableRecord
2
DEFAULT_3
70
0
62
7
6
PHANTOM
370
-3
390
F
0
LAYER
5
1FD
100
AcDbSymbolTableRecord
100
AcDbLayerTableRecord
2
_BLACK_HOLE
70
0
62
7
6
CONTINUOUS
370
-3
390
F
0
LAYER
5
1FE
100
AcDbSymbolTableRecord
100
AcDbLayerTableRecord
2
ASSI
70
0
62
7
6
CONTINUOUS
370
-3
390
F
0
LAYER
5
1FF
100
AcDbSymbolTableRecord
100
AcDbLayerTableRecord
2
COORDINATE
70
0
62
7
6
CONTINUOUS
370
-3
390
F
0
LAYER
5
200
100
AcDbSymbolTableRecord
100
AcDbLayerTableRecord
2
COORD_ORIGINE
70
0
62
7
6
CONTINUOUS
370
-3
390
F
0
LAYER
5
201
100
AcDbSymbolTableRecord
100
AcDbLayerTableRecord
2
COPY-PUBBLISH
70
0
62
7
6
CONTINUOUS
370
-3
390
F
0
LAYER
5
202
100
AcDbSymbolTableRecord
100
AcDbLayerTableRecord
2
COPY_PUBLISH
70
0
62
7
6
CONTINUOUS
370
-3
390
F
0
LAYER
5
203
100
AcDbSymbolTableRecord
100
AcDbLayerTableRecord
2
COSMETIC
70
0
62
7
6
CONTINUOUS
370
-3
390
F
0
LAYER
5
204
100
AcDbSymbolTableRecord
100
AcDbLayerTableRecord
2
CURVE
70
0
62
7
6
CONTINUOUS
370
-3
390
F
0
LAYER
5
205
100
AcDbSymbolTableRecord
100
AcDbLayerTableRecord
2
CURVE_INCISIONI
70
0
62
7
6
CONTINUOUS
370
-3
390
F
0
LAYER
5
206
100
AcDbSymbolTableRecord
100
AcDbLayerTableRecord
2
DRAFT
70
0
62
7
6
CONTINUOUS
370
-3
390
F
0
LAYER
5
207
100
AcDbSymbolTableRecord
100
AcDbLayerTableRecord
2
IGES
70
0
62
7
6
CONTINUOUS
370
-3
390
F
0
LAYER
5
208
100
AcDbSymbolTableRecord
100
AcDbLayerTableRecord
2
IMPORT_IGES
70
0
62
7
6
CONTINUOUS
370
-3
390
F
0
LAYER
5
209
100
AcDbSymbolTableRecord
100
AcDbLayerTableRecord
2
INTF_CYAN
70
0
62
7
6
CONTINUOUS
370
-3
390
F
0
LAYER
5
20A
100
AcDbSymbolTableRecord
100
AcDbLayerTableRecord
2
PIANI
70
0
62
7
6
CONTINUOUS
370
-3
390
F
0
LAYER
5
20B
100
AcDbSymbolTableRecord
100
AcDbLayerTableRecord
2
PIANI_ORIGINE
70
0
62
7
6
CONTINUOUS
370
-3
390
F
0
LAYER
5
20C
100
AcDbSymbolTableRecord
100
AcDbLayerTableRecord
2
PUNTI
70
0
62
7
6
CONTINUOUS
370
-3
390
F
0
LAYER
5
20D
100
AcDbSymbolTableRecord
100
AcDbLayerTableRecord
2
RACCORDO
70
0
62
7
6
CONTINUOUS
370
-3
390
F
0
LAYER
5
20E
100
AcDbSymbolTableRecord
100
AcDbLayerTableRecord
2
SMUSSO
70
0
62
7
6
CONTINUOUS
370
-3
390
F
0
LAYER
5
20F
100
AcDbSymbolTableRecord
100
AcDbLayerTableRecord
2
SNAPLINE
70
0
62
7
6
CONTINUOUS
370
-3
390
F
0
LAYER
5
210
100
AcDbSymbolTableRecord
100
AcDbLayerTableRecord
2
TRASH
70
0
62
7
6
CONTINUOUS
370
-3
390
F
0
LAYER
5
211
100
AcDbSymbolTableRecord
100
AcDbLayerTableRecord
2
XSEC_DATUMS
70
0
62
7
6
CONTINUOUS
370
-3
390
F
0
ENDTAB
0
TABLE
2
STYLE
5
3
100
AcDbSymbolTable
70
1
0
STYLE
5
11
100
AcDbSymbolTableRecord
100
AcDbTextStyleTableRecord
2
STANDARD
70
0
40
0.0
41
0.8000000000
50
0.0
71
0
42
0.2
3
txt
4

0
ENDTAB
0
TABLE
2
VIEW
5
6
100
AcDbSymbolTable
70
0
0
ENDTAB
0
TABLE
2
UCS
5
7
100
AcDbSymbolTable
70
0
0
ENDTAB
0
TABLE
2
APPID
5
9
100
AcDbSymbolTable
70
1
0
APPID
5
212
100
AcDbSymbolTableRecord
100
AcDbRegAppTableRecord
2
ACAD
70
0
0
ENDTAB
0
TABLE
2
BLOCK_RECORD
5
1
100
AcDbSymbolTable
70
0
0
BLOCK_RECORD
5
1F
100
AcDbSymbolTableRecord
100
AcDbBlockTableRecord
2
*MODEL_SPACE
0
BLOCK_RECORD
5
1B
100
AcDbSymbolTableRecord
100
AcDbBlockTableRecord
2
*PAPER_SPACE
0
BLOCK_RECORD
5
213
100
AcDbSymbolTableRecord
100
AcDbBlockTableRecord
2
_FILLED
0
BLOCK_RECORD
5
214
100
AcDbSymbolTableRecord
100
AcDbBlockTableRecord
2
*D0
0
BLOCK_RECORD
5
215
100
AcDbSymbolTableRecord
100
AcDbBlockTableRecord
2
*D1
0
BLOCK_RECORD
5
216
100
AcDbSymbolTableRecord
100
AcDbBlockTableRecord
2
*D2
0
ENDTAB
0
TABLE
2
DIMSTYLE
5
A
100
AcDbSymbolTable
70
1
100
AcDbDimStyleTable
71
0
0
DIMSTYLE
105
217
100
AcDbSymbolTableRecord
100
AcDbDimStyleTableRecord
2
STANDARD
70
0
3

4

40
1.0
41
3.0000000000
42
0.0625
43
0.38
44
0.18
45
0.0
46
0.0
47
0.0100000000
48
0.0100000000
140
3.0000000000
141
0.09
142
0.0
143
25.4
144
1.0000000000
145
0.0
146
1.0000000000
147
0.09
71
1
72
0
73
0
74
0
75
0
76
0
77
1
78
8
170
0
171
2
172
0
173
0
174
0
175
0
176
0
177
0
178
0
270
2
271
2
272
2
273
2
274
2
275
0
280
0
281
0
282
0
283
1
284
8
285
0
286
0
287
3
288
0
340
11
341
213
342
213
343
213
344
213
0
DIMSTYLE
105
218
100
AcDbSymbolTableRecord
100
AcDbDimStyleTableRecord
2
DIMSTYLE_1
70
0
3

4

40
1.0
41
3.0000000000
42
0.0625
43
0.38
44
0.18
45
0.0
46
0.0
47
0.0000000000
48
0.0000000000
140
3.0000000000
141
0.09
142
0.0
143
25.4
144
1.0000000000
145
0.0
146
1.0000000000
147
0.09
71
0
72
0
73
0
74
0
75
0
76
0
77
1
78
8
170
0
171
2
172
0
173
0
174
0
175
0
176
0
177
0
178
0
270
2
271
2
272
2
273
2
274
2
275
0
280
0
281
0
282
0
283
1
284
8
285
0
286
0
287
3
288
0
340
11
341
213
342
213
343
213
344
213
0
ENDTAB
0
ENDSEC
0
SECTION
2
BLOCKS
0
BLOCK
5
20
100
AcDbEntity
8
0
100
AcDbBlockBegin
2
*MODEL_SPACE
70
0
10
0.0
20
0.0
30
0.0
3
*MODEL_SPACE
1

0
ENDBLK
5
21
100
AcDbEntity
8
0
100
AcDbBlockEnd
0
BLOCK
5
1C
100
AcDbEntity
8
0
100
AcDbBlockBegin
2
*PAPER_SPACE
70
0
10
0.0
20
0.0
30
0.0
3
*PAPER_SPACE
1

0
ENDBLK
5
1D
100
AcDbEntity
8
0
100
AcDbBlockEnd
0
BLOCK
5
219
100
AcDbEntity
8
0
100
AcDbBlockBegin
62
0
6
CONTINUOUS
2
*D0
70
65
10
0.0000000000
20
0.0000000000
3
*D0
1

0
TEXT
5
21A
100
AcDbEntity
8
0
100
AcDbText
62
0
6
CONTINUOUS
10
-2.0535472052
20
40.3863711933
7
STANDARD
40
3.0000000000
1
35
41
0.7142857143
72
0
100
AcDbText
0
LINE
5
21B
100
AcDbEntity
8
0
100
AcDbLine
62
0
6
CONTINUOUS
10
-17.4106900624
20
31.6364473458
11
-17.4106900624
21
41.1363711933
0
LINE
5
21C
100
AcDbEntity
8
0
100
AcDbLine
62
0
6
CONTINUOUS
10
17.5893099376
20
31.6364473458
11
17.5893099376
21
41.1363711933
0
LINE
5
21D
100
AcDbEntity
8
0
100
AcDbLine
62
0
6
CONTINUOUS
10
-17.4106900624
20
39.6363711933
11
0.0893099376
21
39.6363711933
0
LINE
5
21E
100
AcDbEntity
8
0
100
AcDbLine
62
0
6
CONTINUOUS
10
17.5893099376
20
39.6363711933
11
0.0893099376
21
39.6363711933
0
INSERT
5
21F
100
AcDbEntity
8
0
100
AcDbBlockReference
62
0
6
CONTINUOUS
2
_FILLED
10
-17.4106900624
20
39.6363711933
41
  3.000000
42
  3.000000
43
  3.000000
50
180.000000
0
INSERT
5
220
100
AcDbEntity
8
0
100
AcDbBlockReference
62
0
6
CONTINUOUS
2
_FILLED
10
17.5893099376
20
39.6363711933
41
  3.000000
42
  3.000000
43
  3.000000
0
ENDBLK
5
221
100
AcDbEntity
8
0
6
BYBLOCK
62
0
100
AcDbBlockEnd
0
BLOCK
5
222
100
AcDbEntity
8
0
100
AcDbBlockBegin
62
0
6
CONTINUOUS
2
*D1
70
65
10
0.0000000000
20
0.0000000000
3
*D1
1

0
TEXT
5
223
100
AcDbEntity
8
0
100
AcDbText
62
0
6
CONTINUOUS
10
24.8393099376
20
-2.1136288067
7
STANDARD
40
3.0000000000
1
63
50
90.0000000000
41
0.7500000000
72
0
100
AcDbText
0
LINE
5
224
100
AcDbEntity
8
0
100
AcDbLine
62
0
6
CONTINUOUS
10
17.5893860901
20
31.6363711933
11
27.0893099376
21
31.6363711933
0
LINE
5
225
100
AcDbEntity
8
0
100
AcDbLine
62
0
6
CONTINUOUS
10
17.5893860901
20
-31.3636288067
11
27.0893099376
21
-31.3636288067
0
LINE
5
226
100
AcDbEntity
8
0
100
AcDbLine
62
0
6
CONTINUOUS
10
25.5893099376
20
31.6363711933
11
25.5893099376
21
0.1363711933
0
LINE
5
227
100
AcDbEntity
8
0
100
AcDbLine
62
0
6
CONTINUOUS
10
25.5893099376
20
-31.3636288067
11
25.5893099376
21
0.1363711933
0
INSERT
5
228
100
AcDbEntity
8
0
100
AcDbBlockReference
62
0
6
CONTINUOUS
2
_FILLED
10
25.5893099376
20
31.6363711933
41
  3.000000
42
  3.000000
43
  3.000000
50
 90.000000
0
INSERT
5
229
100
AcDbEntity
8
0
100
AcDbBlockReference
62
0
6
CONTINUOUS
2
_FILLED
10
25.5893099376
20
-31.3636288067
41
  3.000000
42
  3.000000
43
  3.000000
50
270.000000
0
ENDBLK
5
22A
100
AcDbEntity
8
0
6
BYBLOCK
62
0
100
AcDbBlockEnd
0
BLOCK
5
22B
100
AcDbEntity
8
0
100
AcDbBlockBegin
62
0
6
CONTINUOUS
2
*D2
70
65
10
0.0000000000
20
0.0000000000
3
*D2
1

0
TEXT
5
22C
100
AcDbEntity
8
0
100
AcDbText
62
0
6
CONTINUOUS
10
-62.8627832313
20
40.3863711933
7
STANDARD
40
3.0000000000
1
42,2
41
0.7321428571
72
0
100
AcDbText
0
LINE
5
22D
100
AcDbEntity
8
0
100
AcDbLine
62
0
6
CONTINUOUS
10
-37.3696735567
20
32.0019987862
11
-37.3696735567
21
41.1363711933
0
LINE
5
22E
100
AcDbEntity
8
0
100
AcDbLine
62
0
6
CONTINUOUS
10
-79.5701786201
20
-10.3636288067
11
-79.5701786201
21
41.1363711933
0
LINE
5
22F
100
AcDbEntity
8
0
100
AcDbLine
62
0
6
CONTINUOUS
10
-37.3696735567
20
39.6363711933
11
-58.4699260884
21
39.6363711933
0
LINE
5
230
100
AcDbEntity
8
0
100
AcDbLine
62
0
6
CONTINUOUS
10
-79.5701786201
20
39.6363711933
11
-58.4699260884
21
39.6363711933
0
INSERT
5
231
100
AcDbEntity
8
0
100
AcDbBlockReference
62
0
6
CONTINUOUS
2
_FILLED
10
-37.3696735567
20
39.6363711933
41
  3.000000
42
  3.000000
43
  3.000000
0
INSERT
5
232
100
AcDbEntity
8
0
100
AcDbBlockReference
62
0
6
CONTINUOUS
2
_FILLED
10
-79.5701786201
20
39.6363711933
41
  3.000000
42
  3.000000
43
  3.000000
50
180.000000
0
ENDBLK
5
233
100
AcDbEntity
8
0
6
BYBLOCK
62
0
100
AcDbBlockEnd
0
BLOCK
5
234
100
AcDbEntity
8
0
100
AcDbBlockBegin
2
_FILLED
70
64
10
0.0000000000
20
0.0000000000
3
_FILLED
1

0
SOLID
5
235
100
AcDbEntity
8
0
6
BYBLOCK
62
0
100
AcDbTrace
10
0.0000000000
20
0.0000000000
11
-1.0000000000
21
0.3166666667
12
-1.0000000000
22
-0.3166666667
13
-1.0000000000
23
-0.3166666667
0
ENDBLK
5
236
100
AcDbEntity
8
0
6
BYBLOCK
62
0
100
AcDbBlockEnd
0
ENDSEC
0
SECTION
2
ENTITIES
0
DIMENSION
5
237
100
AcDbEntity
8
0
100
AcDbDimension
62
0
6
CONTINUOUS
2
*D0
10
17.5893099376
20
39.6363711933
11
0.0893099376
21
41.8863711933
70
160
42
35.000000
3
DIMSTYLE_1
100
AcDbAlignedDimension
13
-17.4106900624
23
31.6364473458
14
17.5893099376
24
31.6364473458
100
AcDbRotatedDimension
0
DIMENSION
5
238
100
AcDbEntity
8
0
100
AcDbDimension
62
0
6
CONTINUOUS
2
*D1
10
25.5893099376
20
-31.3636288067
11
23.3393099376
21
0.1363711933
70
160
42
63.000000
3
DIMSTYLE_1
100
AcDbAlignedDimension
13
17.5893860901
23
31.6363711933
14
17.5893860901
24
-31.3636288067
50
270.000000
100
AcDbRotatedDimension
0
DIMENSION
5
239
100
AcDbEntity
8
0
100
AcDbDimension
62
0
6
CONTINUOUS
2
*D2
10
-79.5701786201
20
39.6363711933
11
-58.4699260884
21
41.8863711933
70
160
42
42.200505
3
DIMSTYLE_1
100
AcDbAlignedDimension
13
-37.3696735567
23
32.0019987862
14
-79.5701786201
24
-10.3636288067
50
180.000000
100
AcDbRotatedDimension
0
LINE
5
23A
100
AcDbEntity
8
0
100
AcDbLine
62
0
6
CONTINUOUS
10
-16.9107662148
20
-31.3636288067
11
-2.9544343941
21
-31.3636288067
0
LINE
5
23B
100
AcDbEntity
8
0
100
AcDbLine
62
0
6
CONTINUOUS
10
3.1330542694
20
-31.3636288067
11
17.0893860901
21
-31.3636288067
0
LINE
5
23C
100
AcDbEntity
8
0
100
AcDbLine
62
0
6
CONTINUOUS
10
-2.9106900624
20
-31.3549012742
11
3.0893099376
21
-31.3549012742
0
LINE
5
23D
100
AcDbEntity
8
0
100
AcDbLine
62
0
6
CONTINUOUS
10
17.0742728365
20
-31.3479064729
11
-16.8956529612
21
-31.3479064729
0
LINE
5
23E
100
AcDbEntity
8
0
100
AcDbLine
62
0
6
CONTINUOUS
10
-17.4106900624
20
31.1364473458
11
-17.4106900624
21
-30.8637049591
0
LINE
5
23F
100
AcDbEntity
8
0
100
AcDbLine
62
0
6
CONTINUOUS
10
-17.3949677286
20
-30.8485917055
11
-17.3949677286
21
31.1213340922
0
LINE
5
240
100
AcDbEntity
8
0
100
AcDbLine
62
0
6
CONTINUOUS
10
-16.8431513807
20
30.5695177443
11
-16.8431544713
21
-30.2967784482
0
LINE
5
241
100
AcDbEntity
8
0
100
AcDbLine
62
0
6
CONTINUOUS
10
8.8893099376
20
-18.6636288067
11
-8.7106900624
21
-18.6636288067
0
LINE
5
242
100
AcDbEntity
8
0
100
AcDbLine
62
0
6
CONTINUOUS
10
-15.1853839459
20
30.4962272836
11
-15.1853839414
21
-30.2234848969
0
LINE
5
243
100
AcDbEntity
8
0
100
AcDbLine
62
0
6
CONTINUOUS
10
-9.2106900624
20
-18.1636288067
11
-9.2106900624
21
-3.5636288067
0
LINE
5
244
100
AcDbEntity
8
0
100
AcDbLine
62
0
6
CONTINUOUS
10
17.0742728365
20
31.6206488596
11
16.5225230988
21
31.0688991219
0
LINE
5
245
100
AcDbEntity
8
0
100
AcDbLine
62
0
6
CONTINUOUS
10
17.5735876038
20
31.1213340922
11
17.0217743466
21
30.5695208349
0
LINE
5
246
100
AcDbEntity
8
0
100
AcDbLine
62
0
6
CONTINUOUS
10
16.5225230988
20
-30.7961567352
11
17.0742728365
21
-31.3479064729
0
LINE
5
247
100
AcDbEntity
8
0
100
AcDbLine
62
0
6
CONTINUOUS
10
17.0217712560
20
-30.2967753576
11
17.5735876038
21
-30.8485917055
0
LINE
5
248
100
AcDbEntity
8
0
100
AcDbLine
62
0
6
CONTINUOUS
10
-9.0490725164
20
-3.6251702002
11
-9.1606519862
21
-3.5135907304
0
LINE
5
249
100
AcDbEntity
8
0
100
AcDbLine
62
0
6
CONTINUOUS
10
9.2276923916
20
-18.1020874131
11
9.3392718614
21
-18.2136668829
0
LINE
5
24A
100
AcDbEntity
8
0
100
AcDbLine
62
0
6
CONTINUOUS
10
-8.7106900624
20
-3.0636288067
11
8.8893099376
21
-3.0636288067
0
LINE
5
24B
100
AcDbEntity
8
0
100
AcDbLine
62
0
6
CONTINUOUS
10
-9.0490724691
20
-18.1020873658
11
-9.1606519862
21
-18.2136668829
0
LINE
5
24C
100
AcDbEntity
8
0
100
AcDbLine
62
0
6
CONTINUOUS
10
9.3893099376
20
-3.5636288067
11
9.3893099376
21
-18.1636288067
0
LINE
5
24D
100
AcDbEntity
8
0
100
AcDbLine
62
0
6
CONTINUOUS
10
9.2276923443
20
-3.6251702476
11
9.3392718614
21
-3.5135907304
0
LINE
5
24E
100
AcDbEntity
8
0
100
AcDbLine
62
0
6
CONTINUOUS
10
-17.3949677286
20
-30.8485917055
11
-16.8431544713
21
-30.2967784482
0
LINE
5
24F
100
AcDbEntity
8
0
100
AcDbLine
62
0
6
CONTINUOUS
10
-16.8431513807
20
30.5695177443
11
-17.3949677286
21
31.1213340922
0
LINE
5
250
100
AcDbEntity
8
0
100
AcDbLine
62
0
6
CONTINUOUS
10
-16.8956529612
20
-31.3479064729
11
-16.3439032235
21
-30.7961567352
0
LINE
5
251
100
AcDbEntity
8
0
100
AcDbLine
62
0
6
CONTINUOUS
10
-16.3439032235
20
31.0688991219
11
-16.8956529612
21
31.6206488596
0
LINE
5
252
100
AcDbEntity
8
0
100
AcDbLine
62
0
6
CONTINUOUS
10
15.3640030771
20
-30.2234848925
11
15.3640030727
21
30.4962272791
0
LINE
5
253
100
AcDbEntity
8
0
100
AcDbLine
62
0
6
CONTINUOUS
10
17.0217712560
20
-30.2967753576
11
17.0217743466
21
30.5695208349
0
LINE
5
254
100
AcDbEntity
8
0
100
AcDbLine
62
0
6
CONTINUOUS
10
17.5735876038
20
31.1213340922
11
17.5735876038
21
-30.8485917055
0
LINE
5
255
100
AcDbEntity
8
0
100
AcDbLine
62
0
6
CONTINUOUS
10
17.5893099376
20
-30.8637049591
11
17.5893099376
21
31.1364473458
0
LINE
5
256
100
AcDbEntity
8
0
100
AcDbLine
62
0
6
CONTINUOUS
10
17.0742728365
20
31.6206488596
11
-16.8956529612
21
31.6206488596
0
LINE
5
257
100
AcDbEntity
8
0
100
AcDbLine
62
0
6
CONTINUOUS
10
3.0893099376
20
31.6276436609
11
-2.9106900624
21
31.6276436609
0
LINE
5
258
100
AcDbEntity
8
0
100
AcDbLine
62
0
6
CONTINUOUS
10
17.0893860901
20
31.6363711933
11
3.1330542694
21
31.6363711933
0
LINE
5
259
100
AcDbEntity
8
0
100
AcDbLine
62
0
6
CONTINUOUS
10
-2.9544343941
20
31.6363711933
11
-16.9107662148
21
31.6363711933
0
LINE
5
25A
100
AcDbEntity
8
0
100
AcDbLine
62
0
6
CONTINUOUS
10
-57.9701786201
20
-31.3636288067
11
-53.1041962622
21
-31.2786927687
0
LINE
5
25B
100
AcDbEntity
8
0
100
AcDbLine
62
0
6
CONTINUOUS
10
-57.9701786201
20
-31.0583922872
11
-58.2701786201
21
-31.0636288067
0
LINE
5
25C
100
AcDbEntity
8
0
100
AcDbLine
62
0
6
CONTINUOUS
10
-55.8997437834
20
-30.8827294286
11
-53.0415356322
21
-30.8328392197
0
LINE
5
25D
100
AcDbEntity
8
0
100
AcDbLine
62
0
6
CONTINUOUS
10
-57.9701786201
20
-30.8637049591
11
-56.2411302135
21
-30.8335243069
0
LINE
5
25E
100
AcDbEntity
8
0
100
AcDbLine
62
0
6
CONTINUOUS
10
-57.9701786201
20
-30.5584684396
11
-58.2701786201
21
-30.5637049591
0
LINE
5
25F
100
AcDbEntity
8
0
100
AcDbLine
62
0
6
CONTINUOUS
10
-52.9053219918
20
-29.8636288067
11
-52.3991665306
21
-29.8547938302
0
LINE
5
260
100
AcDbEntity
8
0
100
AcDbLine
62
0
6
CONTINUOUS
10
-37.3712563037
20
-31.2288134241
11
-48.9701786201
21
-31.0263534820
0
LINE
5
261
100
AcDbEntity
8
0
100
AcDbLine
62
0
6
CONTINUOUS
10
-71.4960272642
20
-30.6547691163
11
-58.2701786201
21
-31.3479064729
0
LINE
5
262
100
AcDbEntity
8
0
100
AcDbLine
62
0
6
CONTINUOUS
10
-68.7994617800
20
-30.2967753576
11
-58.2701786201
21
-30.8485917055
0
LINE
5
263
100
AcDbEntity
8
0
100
AcDbLine
62
0
6
CONTINUOUS
10
-52.3441886598
20
-29.4636059532
11
-52.8491054883
21
-29.4636276001
0
LINE
5
264
100
AcDbEntity
8
0
100
AcDbLine
62
0
6
CONTINUOUS
10
-37.3712494639
20
-29.8440684906
11
-44.8845231213
21
-29.5816991931
0
LINE
5
265
100
AcDbEntity
8
0
100
AcDbLine
62
0
6
CONTINUOUS
10
-71.3701786201
20
-25.1136288067
11
-71.2554954983
21
-25.1136288067
0
LINE
5
266
100
AcDbEntity
8
0
100
AcDbLine
62
0
6
CONTINUOUS
10
-71.4673852804
20
-21.6136288067
11
-71.4351349917
21
-21.6378719767
0
LINE
5
267
100
AcDbEntity
8
0
100
AcDbLine
62
0
6
CONTINUOUS
10
-71.3701786201
20
-22.6136288067
11
-71.2555174137
21
-22.6136288067
0
LINE
5
268
100
AcDbEntity
8
0
100
AcDbLine
62
0
6
CONTINUOUS
10
-72.6011664802
20
-18.6636288067
11
-76.9900112792
21
-18.6636288067
0
LINE
5
269
100
AcDbEntity
8
0
100
AcDbLine
62
0
6
CONTINUOUS
10
-76.9280103417
20
-18.5257365971
11
-72.3505211294
21
-18.6056369685
0
LINE
5
26A
100
AcDbEntity
8
0
100
AcDbLine
62
0
6
CONTINUOUS
10
-71.9701786201
20
30.4357546477
11
-71.9701786201
21
1.2350492931
0
LINE
5
26B
100
AcDbEntity
8
0
100
AcDbLine
62
0
6
CONTINUOUS
10
-71.9701786201
20
-22.9623069064
11
-71.9701786201
21
-30.1630122610
0
LINE
5
26C
100
AcDbEntity
8
0
100
AcDbLine
62
0
6
CONTINUOUS
10
-71.3701786201
20
-22.6136288067
11
-71.3701786201
21
-25.1136288067
0
LINE
5
26D
100
AcDbEntity
8
0
100
AcDbLine
62
0
6
CONTINUOUS
10
-70.6645062262
20
-30.2234848925
11
-70.6645062270
21
30.4962272791
0
LINE
5
26E
100
AcDbEntity
8
0
100
AcDbLine
62
0
6
CONTINUOUS
10
-68.7994617800
20
-30.2967753576
11
-68.7994028086
21
30.5695208349
0
LINE
5
26F
100
AcDbEntity
8
0
100
AcDbLine
62
0
6
CONTINUOUS
10
-44.7380765119
20
-11.2856820835
11
-41.9701786201
21
-11.1890249592
0
LINE
5
270
100
AcDbEntity
8
0
100
AcDbLine
62
0
6
CONTINUOUS
10
-41.9701786201
20
-8.4390249592
11
-44.8845231213
21
-8.5407961117
0
LINE
5
271
100
AcDbEntity
8
0
100
AcDbLine
62
0
6
CONTINUOUS
10
-41.9701786201
20
-7.2882326541
11
-44.8845231213
21
-7.1864615016
0
LINE
5
272
100
AcDbEntity
8
0
100
AcDbLine
62
0
6
CONTINUOUS
10
-41.4701786201
20
-3.5176259495
11
-44.8845231213
21
-3.5772235545
0
LINE
5
273
100
AcDbEntity
8
0
100
AcDbLine
62
0
6
CONTINUOUS
10
-41.4701786201
20
-3.0176259495
11
-43.4304207365
21
-3.0518421030
0
LINE
5
274
100
AcDbEntity
8
0
100
AcDbLine
62
0
6
CONTINUOUS
10
-76.9280103417
20
-3.2015210162
11
-72.3508520031
21
-3.1216264202
0
LINE
5
275
100
AcDbEntity
8
0
100
AcDbLine
62
0
6
CONTINUOUS
10
-76.9900112792
20
-3.0636288067
11
-72.6011664802
21
-3.0636288067
0
LINE
5
276
100
AcDbEntity
8
0
100
AcDbLine
62
0
6
CONTINUOUS
10
-58.2701786201
20
-31.3479064729
11
-58.2701786201
21
31.6206488596
0
LINE
5
277
100
AcDbEntity
8
0
100
AcDbLine
62
0
6
CONTINUOUS
10
-42.3701786201
20
-1.6136288067
11
-43.4739042985
21
-1.6328944100
0
LINE
5
278
100
AcDbEntity
8
0
100
AcDbLine
62
0
6
CONTINUOUS
10
-43.4701786201
20
-1.3461750711
11
-45.4701786201
21
-1.3636288067
0
LINE
5
279
100
AcDbEntity
8
0
100
AcDbLine
62
0
6
CONTINUOUS
10
-41.9789823166
20
-1.1636288067
11
-42.3701786201
21
-1.1636288067
0
LINE
5
27A
100
AcDbEntity
8
0
100
AcDbLine
62
0
6
CONTINUOUS
10
-45.4701786201
20
-1.3636288067
11
-46.9701786201
21
-1.3505385050
0
LINE
5
27B
100
AcDbEntity
8
0
100
AcDbLine
62
0
6
CONTINUOUS
10
-43.4315003900
20
-1.6753966649
11
-46.9701786201
21
-1.6136288067
0
LINE
5
27C
100
AcDbEntity
8
0
100
AcDbLine
62
0
6
CONTINUOUS
10
-48.9701786201
20
-1.8636288067
11
-51.7206817111
21
-1.6712948943
0
LINE
5
27D
100
AcDbEntity
8
0
100
AcDbLine
62
0
6
CONTINUOUS
10
-57.9701786201
20
-31.3636288067
11
-57.9701786201
21
31.6363711933
0
LINE
5
27E
100
AcDbEntity
8
0
100
AcDbLine
62
0
6
CONTINUOUS
10
-43.4315003900
20
1.9481390516
11
-46.9701786201
21
1.8863711933
0
LINE
5
27F
100
AcDbEntity
8
0
100
AcDbLine
62
0
6
CONTINUOUS
10
-45.4701786201
20
1.6363711933
11
-46.9701786201
21
1.6232808917
0
LINE
5
280
100
AcDbEntity
8
0
100
AcDbLine
62
0
6
CONTINUOUS
10
-42.3701786201
20
1.4363711933
11
-41.9789823166
21
1.4363711933
0
LINE
5
281
100
AcDbEntity
8
0
100
AcDbLine
62
0
6
CONTINUOUS
10
-43.4701786201
20
1.6189174578
11
-45.4701786201
21
1.6363711933
0
LINE
5
282
100
AcDbEntity
8
0
100
AcDbLine
62
0
6
CONTINUOUS
10
-43.4739042985
20
1.9056367967
11
-42.3701786201
21
1.8863711933
0
LINE
5
283
100
AcDbEntity
8
0
100
AcDbLine
62
0
6
CONTINUOUS
10
-43.4304207365
20
3.3245844897
11
-41.4701786201
21
3.2903683362
0
LINE
5
284
100
AcDbEntity
8
0
100
AcDbLine
62
0
6
CONTINUOUS
10
-41.4701786201
20
3.7903683362
11
-43.4304265509
21
3.8245845911
0
LINE
5
285
100
AcDbEntity
8
0
100
AcDbLine
62
0
6
CONTINUOUS
10
-43.4315003900
20
3.8246033351
11
-44.8845231213
21
3.8499659412
0
LINE
5
286
100
AcDbEntity
8
0
100
AcDbLine
62
0
6
CONTINUOUS
10
-52.0655700241
20
-1.6465677585
11
-52.0655700241
21
31.0333820193
0
LINE
5
287
100
AcDbEntity
8
0
100
AcDbLine
62
0
6
CONTINUOUS
10
-51.7207428367
20
-1.6712906199
11
-51.7207428367
21
31.0333820193
0
LINE
5
288
100
AcDbEntity
8
0
100
AcDbLine
62
0
6
CONTINUOUS
10
-56.2411302135
20
-30.8335243069
11
-52.0655700241
21
-1.6465677585
0
LINE
5
289
100
AcDbEntity
8
0
100
AcDbLine
62
0
6
CONTINUOUS
10
-55.8997437834
20
-30.8827294286
11
-51.7206817111
21
-1.6712948943
0
LINE
5
28A
100
AcDbEntity
8
0
100
AcDbLine
62
0
6
CONTINUOUS
10
-41.9701786201
20
7.5609750408
11
-44.8845231213
21
7.4592038883
0
LINE
5
28B
100
AcDbEntity
8
0
100
AcDbLine
62
0
6
CONTINUOUS
10
-48.9701786201
20
-31.0263534820
11
-48.9701786201
21
31.2990958687
0
LINE
5
28C
100
AcDbEntity
8
0
100
AcDbLine
62
0
6
CONTINUOUS
10
-48.9701786201
20
-1.8636288067
11
-53.1041962622
21
-31.2786927687
0
LINE
5
28D
100
AcDbEntity
8
0
100
AcDbLine
62
0
6
CONTINUOUS
10
-48.9701786201
20
-5.4562770738
11
-52.3989960173
21
-29.8535805656
0
LINE
5
28E
100
AcDbEntity
8
0
100
AcDbLine
62
0
6
CONTINUOUS
10
-41.9701786201
20
8.7117673459
11
-44.8845231213
21
8.8135384984
0
LINE
5
28F
100
AcDbEntity
8
0
100
AcDbLine
62
0
6
CONTINUOUS
10
-46.9701786201
20
-1.6136288067
11
-46.9701786201
21
1.8863711933
0
LINE
5
290
100
AcDbEntity
8
0
100
AcDbLine
62
0
6
CONTINUOUS
10
-46.7719239272
20
-1.6170893552
11
-46.7719239272
21
-1.3522686475
0
LINE
5
291
100
AcDbEntity
8
0
100
AcDbLine
62
0
6
CONTINUOUS
10
-46.7719239272
20
1.6250110342
11
-46.7719239272
21
1.8898317419
0
LINE
5
292
100
AcDbEntity
8
0
100
AcDbLine
62
0
6
CONTINUOUS
10
-41.9701024677
20
1.4363711933
11
-41.4701786201
21
1.9451748898
0
LINE
5
293
100
AcDbEntity
8
0
100
AcDbLine
62
0
6
CONTINUOUS
10
-44.7380765119
20
11.5584244701
11
-41.9701786201
21
11.4617673459
0
LINE
5
294
100
AcDbEntity
8
0
100
AcDbLine
62
0
6
CONTINUOUS
10
-41.9789823166
20
-1.1636288067
11
-41.4701786201
21
-1.6724325031
0
LINE
5
295
100
AcDbEntity
8
0
100
AcDbLine
62
0
6
CONTINUOUS
10
-45.4701786201
20
-1.6398114040
11
-45.4701786201
21
-1.3636288067
0
LINE
5
296
100
AcDbEntity
8
0
100
AcDbLine
62
0
6
CONTINUOUS
10
-45.4701786201
20
1.6363711933
11
-45.4701786201
21
1.9125537907
0
LINE
5
297
100
AcDbEntity
8
0
100
AcDbLine
62
0
6
CONTINUOUS
10
-44.8845231213
20
29.8544415798
11
-44.8845231213
21
8.8135384984
0
LINE
5
298
100
AcDbEntity
8
0
100
AcDbLine
62
0
6
CONTINUOUS
10
-44.8845231213
20
7.4592038883
11
-44.8845231213
21
3.8499659412
0
LINE
5
299
100
AcDbEntity
8
0
100
AcDbLine
62
0
6
CONTINUOUS
10
-44.8845231213
20
-3.5772235545
11
-44.8845231213
21
-7.1864615016
0
LINE
5
29A
100
AcDbEntity
8
0
100
AcDbLine
62
0
6
CONTINUOUS
10
-44.8845231213
20
-8.5407961117
11
-44.8845231213
21
-29.5816991931
0
LINE
5
29B
100
AcDbEntity
8
0
100
AcDbLine
62
0
6
CONTINUOUS
10
-44.7380765119
20
29.8588898211
11
-44.7380765119
21
8.8090902571
0
LINE
5
29C
100
AcDbEntity
8
0
100
AcDbLine
62
0
6
CONTINUOUS
10
-44.7380765119
20
7.4636521296
11
-44.7380765119
21
3.8477425475
0
LINE
5
29D
100
AcDbEntity
8
0
100
AcDbLine
62
0
6
CONTINUOUS
10
-44.7380765119
20
-3.5750001608
11
-44.7380765119
21
-7.1909097429
0
LINE
5
29E
100
AcDbEntity
8
0
100
AcDbLine
62
0
6
CONTINUOUS
10
-44.7380765119
20
-8.5363478704
11
-44.7380765119
21
-29.5861474344
0
LINE
5
29F
100
AcDbEntity
8
0
100
AcDbLine
62
0
6
CONTINUOUS
10
-43.8527103183
20
1.9407868050
11
-43.8527103183
21
1.6222557613
0
LINE
5
2A0
100
AcDbEntity
8
0
100
AcDbLine
62
0
6
CONTINUOUS
10
-43.8527103183
20
-1.3495133746
11
-43.8527103183
21
-1.6680444183
0
LINE
5
2A1
100
AcDbEntity
8
0
100
AcDbLine
62
0
6
CONTINUOUS
10
-43.5768673460
20
-3.5543983380
11
-43.5768673460
21
-1.6728592753
0
LINE
5
2A2
100
AcDbEntity
8
0
100
AcDbLine
62
0
6
CONTINUOUS
10
-43.5768673460
20
1.9456016620
11
-43.5768673460
21
3.8271407247
0
LINE
5
2A3
100
AcDbEntity
8
0
100
AcDbLine
62
0
6
CONTINUOUS
10
-43.4701786201
20
1.9456016620
11
-43.4701786201
21
-1.6728592753
0
LINE
5
2A4
100
AcDbEntity
8
0
100
AcDbLine
62
0
6
CONTINUOUS
10
-43.4304207365
20
-3.5521753078
11
-43.4304207365
21
-1.6750823055
0
LINE
5
2A5
100
AcDbEntity
8
0
100
AcDbLine
62
0
6
CONTINUOUS
10
-43.4304207365
20
1.9478246922
11
-43.4304207365
21
3.8249176945
0
LINE
5
2A6
100
AcDbEntity
8
0
100
AcDbLine
62
0
6
CONTINUOUS
10
-71.4351246572
20
-26.0900405806
11
-71.4673852804
21
-26.1136288067
0
LINE
5
2A7
100
AcDbEntity
8
0
100
AcDbLine
62
0
6
CONTINUOUS
10
-42.3701786201
20
1.8863711933
11
-42.3701786201
21
1.4363711933
0
LINE
5
2A8
100
AcDbEntity
8
0
100
AcDbLine
62
0
6
CONTINUOUS
10
-42.3701786201
20
-1.6136288067
11
-42.3701786201
21
-1.1636288067
0
LINE
5
2A9
100
AcDbEntity
8
0
100
AcDbLine
62
0
6
CONTINUOUS
10
-42.2630718389
20
-8.4492530158
11
-42.2630718389
21
-7.2780045975
0
LINE
5
2AA
100
AcDbEntity
8
0
100
AcDbLine
62
0
6
CONTINUOUS
10
-42.2630718389
20
7.5507469842
11
-42.2630718389
21
8.7219954025
0
LINE
5
2AB
100
AcDbEntity
8
0
100
AcDbLine
62
0
6
CONTINUOUS
10
-41.9701786201
20
-11.1890249592
11
-41.9701786201
21
-3.5263534820
0
LINE
5
2AC
100
AcDbEntity
8
0
100
AcDbLine
62
0
6
CONTINUOUS
10
-41.9701786201
20
3.7990958687
11
-41.9701786201
21
11.4617673459
0
LINE
5
2AD
100
AcDbEntity
8
0
100
AcDbLine
62
0
6
CONTINUOUS
10
-41.9701024677
20
-3.0263521528
11
-41.9701024677
21
-1.1636288067
0
LINE
5
2AE
100
AcDbEntity
8
0
100
AcDbLine
62
0
6
CONTINUOUS
10
-41.9701024677
20
1.4363711933
11
-41.9701024677
21
3.2990945395
0
LINE
5
2AF
100
AcDbEntity
8
0
100
AcDbLine
62
0
6
CONTINUOUS
10
-41.4701786201
20
-3.5176259495
11
-41.4701786201
21
-1.6724325031
0
LINE
5
2B0
100
AcDbEntity
8
0
100
AcDbLine
62
0
6
CONTINUOUS
10
-41.4701786201
20
1.9451748898
11
-41.4701786201
21
3.7903683362
0
LINE
5
2B1
100
AcDbEntity
8
0
100
AcDbLine
62
0
6
CONTINUOUS
10
-39.4199260884
20
31.4657961467
11
-39.4199260884
21
30.0452695131
0
LINE
5
2B2
100
AcDbEntity
8
0
100
AcDbLine
62
0
6
CONTINUOUS
10
-39.4199260884
20
-29.7725271264
11
-39.4199260884
21
-31.1930537600
0
LINE
5
2B3
100
AcDbEntity
8
0
100
AcDbLine
62
0
6
CONTINUOUS
10
-37.3696735567
20
31.5000792246
11
-37.3696735567
21
30.1138571212
0
LINE
5
2B4
100
AcDbEntity
8
0
100
AcDbLine
62
0
6
CONTINUOUS
10
-37.3696735567
20
-29.8411147345
11
-37.3696735567
21
-31.2273368379
0
LINE
5
2B5
100
AcDbEntity
8
0
100
AcDbLine
62
0
6
CONTINUOUS
10
-37.3712494639
20
30.1168108773
11
-44.8845231213
21
29.8544415798
0
LINE
5
2B6
100
AcDbEntity
8
0
100
AcDbLine
62
0
6
CONTINUOUS
10
-58.2701786201
20
31.1213340922
11
-68.7994028086
21
30.5695208349
0
LINE
5
2B7
100
AcDbEntity
8
0
100
AcDbLine
62
0
6
CONTINUOUS
10
-58.2701786201
20
31.6206488596
11
-71.4960272642
21
30.9275115030
0
LINE
5
2B8
100
AcDbEntity
8
0
100
AcDbLine
62
0
6
CONTINUOUS
10
-48.9701786201
20
31.2990958687
11
-37.3712563037
21
31.5015558108
0
LINE
5
2B9
100
AcDbEntity
8
0
100
AcDbLine
62
0
6
CONTINUOUS
10
-52.0655700241
20
31.0333820193
11
-51.7207428367
21
31.0333820193
0
LINE
5
2BA
100
AcDbEntity
8
0
100
AcDbLine
62
0
6
CONTINUOUS
10
-57.9701786201
20
30.8312108263
11
-58.2701786201
21
30.8364473458
0
LINE
5
2BB
100
AcDbEntity
8
0
100
AcDbLine
62
0
6
CONTINUOUS
10
-57.9701786201
20
31.1364473458
11
-52.0655700241
21
31.0333820193
0
LINE
5
2BC
100
AcDbEntity
8
0
100
AcDbLine
62
0
6
CONTINUOUS
10
-51.7207428367
20
31.0333820193
11
-48.9701786201
21
30.9853707424
0
LINE
5
2BD
100
AcDbEntity
8
0
100
AcDbLine
62
0
6
CONTINUOUS
10
-57.9701786201
20
31.3311346739
11
-58.2701786201
21
31.3363711933
0
LINE
5
2BE
100
AcDbEntity
8
0
100
AcDbLine
62
0
6
CONTINUOUS
10
-57.9701786201
20
31.6363711933
11
-48.9701786201
21
31.4792756090
0
CIRCLE
5
2BF
100
AcDbEntity
8
0
100
AcDbCircle
62
0
6
CONTINUOUS
10
-9.4106900624
20
-23.8636288067
40
1.2500000000
0
CIRCLE
5
2C0
100
AcDbEntity
8
0
100
AcDbCircle
62
0
6
CONTINUOUS
10
-9.4106900624
20
-23.8636288067
40
1.1616160628
0
CIRCLE
5
2C1
100
AcDbEntity
8
0
100
AcDbCircle
62
0
6
CONTINUOUS
10
9.5893099376
20
-23.8636288067
40
1.2500000000
0
ARC
5
2C2
100
AcDbEntity
8
0
100
AcDbCircle
62
0
6
CONTINUOUS
10
-8.7106900624
20
-18.1636288067
40
0.5000000000
100
AcDbArc
50
180.0000000000
51
270.0000000000
0
ARC
5
2C3
100
AcDbEntity
8
0
100
AcDbCircle
62
0
6
CONTINUOUS
10
8.8893099376
20
-18.1636288067
40
0.5000000000
100
AcDbArc
50
270.0000000000
51
360.0000000000
0
ARC
5
2C4
100
AcDbEntity
8
0
100
AcDbCircle
62
0
6
CONTINUOUS
10
8.8893099376
20
-3.5636288067
40
0.5000000000
100
AcDbArc
50
0.0000000000
51
90.0000000000
0
ARC
5
2C5
100
AcDbEntity
8
0
100
AcDbCircle
62
0
6
CONTINUOUS
10
-8.7106900624
20
-3.5636288067
40
0.5000000000
100
AcDbArc
50
90.0000000000
51
180.0000000000
0
CIRCLE
5
2C6
100
AcDbEntity
8
0
100
AcDbCircle
62
0
6
CONTINUOUS
10
-9.4106900624
20
-23.8636288067
40
1.3000000000
0
ARC
5
2C7
100
AcDbEntity
8
0
100
AcDbCircle
62
0
6
CONTINUOUS
10
-61.4486112036
20
-23.8636288067
40
10.0000000000
100
AcDbArc
50
172.8192442185
51
187.1807557815
0
ARC
5
2C8
100
AcDbEntity
8
0
100
AcDbCircle
62
0
6
CONTINUOUS
10
-76.9192840264
20
-18.0258127515
40
0.5000000000
100
AcDbArc
50
213.4313460744
51
269.0000000000
0
ARC
5
2C9
100
AcDbEntity
8
0
100
AcDbCircle
62
0
6
CONTINUOUS
10
-76.9192840264
20
-3.7014448618
40
0.5000000000
100
AcDbArc
50
91.0000000000
51
146.5686539256
0
ARC
5
2CA
100
AcDbEntity
8
0
100
AcDbCircle
62
0
6
CONTINUOUS
10
-66.0701786201
20
-10.8636288067
40
13.5000000000
100
AcDbArc
50
146.4897137022
51
213.5102862978
0
ARC
5
2CB
100
AcDbEntity
8
0
100
AcDbCircle
62
0
6
CONTINUOUS
10
-71.4702041472
20
30.4281786622
40
0.5000000000
100
AcDbArc
50
93.0000000000
51
180.0000010851
0
ARC
5
2CC
100
AcDbEntity
8
0
100
AcDbCircle
62
0
6
CONTINUOUS
10
-71.4702041472
20
-30.1554362755
40
0.5000000000
100
AcDbArc
50
179.9999989149
51
267.0000000000
0
ARC
5
2CD
100
AcDbEntity
8
0
100
AcDbCircle
62
0
6
CONTINUOUS
10
-65.9701786201
20
-10.8636288067
40
9.7857038582
100
AcDbArc
50
131.7561242026
51
228.2438757974
0
ARC
5
2CE
100
AcDbEntity
8
0
100
AcDbCircle
62
0
6
CONTINUOUS
10
-65.9701786201
20
-10.8636288067
40
13.5000000000
100
AcDbArc
50
215.6385089456
51
243.6627749215
0
ARC
5
2CF
100
AcDbEntity
8
0
100
AcDbCircle
62
0
6
CONTINUOUS
10
-65.9701786201
20
-10.8636288067
40
13.5000000000
100
AcDbArc
50
116.3372250785
51
144.3614910544
0
SPLINE
5
2D0
100
AcDbEntity
8
0
100
AcDbSpline
62
0
6
CONTINUOUS
70
0
71
3
72
12
73
8
74
6
42
0.0000001000
43
0.0000001000
44
0.0000000001
12
-0.7819798209
22
0.0002381789
32
0.0000000000
13
-0.0002381817
23
0.7819798209
33
0.0000000000
40
0.0000000000
40
0.0000000000
40
0.0000000000
40
0.0000000000
40
0.2001964497
40
0.4004836857
40
0.6007881643
40
0.8010019998
40
1.0000000000
40
1.0000000000
40
1.0000000000
40
1.0000000000
10
-8.5491486770
20
-18.6020112688
30
0.0000000000
10
-8.6013318716
20
-18.6019953746
30
0.0000000000
10
-8.7064532390
20
-18.5853453159
30
0.0000000000
10
-8.8481283239
20
-18.5129765496
30
0.0000000000
10
-8.9606258587
20
-18.4002533551
30
0.0000000000
10
-9.0325633357
20
-18.2587349391
30
0.0000000000
10
-9.0490567253
20
-18.1539582281
30
0.0000000000
10
-9.0490725246
20
-18.1020874213
30
0.0000000000
11
-8.5491486770
21
-18.6020112688
31
0.0000000000
11
-8.7037603300
21
-18.5774549817
31
0.0000000000
11
-8.8432604043
21
-18.5062528985
31
0.0000000000
11
-8.9539058710
21
-18.3953844548
31
0.0000000000
11
-9.0248090627
21
-18.2557966015
31
0.0000000000
11
-9.0490725246
21
-18.1020874213
31
0.0000000000
0
SPLINE
5
2D1
100
AcDbEntity
8
0
100
AcDbSpline
62
0
6
CONTINUOUS
70
0
71
3
72
15
73
11
74
9
42
0.0000001000
43
0.0000001000
44
0.0000000001
12
-0.0000062095
22
-7.5172054999
32
0.0000000000
13
-0.1501095214
23
-7.5157065975
33
0.0000000000
40
0.0000000000
40
0.0000000000
40
0.0000000000
40
0.0000000000
40
0.1304366244
40
0.2599090888
40
0.3878692221
40
0.5138530983
40
0.6381197982
40
0.7613981205
40
0.8829402702
40
1.0000000000
40
1.0000000000
40
1.0000000000
40
1.0000000000
10
-8.8218308794
20
-10.8636288067
30
0.0000000000
10
-8.8218311494
20
-11.1904684434
30
0.0000000000
10
-8.8223897691
20
-11.8417319258
30
0.0000000000
10
-8.8248994628
20
-12.8136267075
30
0.0000000000
10
-8.8290990166
20
-13.7743582156
30
0.0000000000
10
-8.8350423026
20
-14.7220360746
30
0.0000000000
10
-8.8428646145
20
-15.6579686240
30
0.0000000000
10
-8.8528078448
20
-16.5827509912
30
0.0000000000
10
-8.8651824684
20
-17.4894438029
30
0.0000000000
10
-8.8755387582
20
-18.0872295957
30
0.0000000000
10
-8.8813960182
20
-18.3804917903
30
0.0000000000
11
-8.8218308794
21
-10.8636288067
31
0.0000000000
11
-8.8226747065
21
-11.8441473537
31
0.0000000000
11
-8.8252011344
21
-12.8174151964
31
0.0000000000
11
-8.8294276575
21
-13.7793085288
31
0.0000000000
11
-8.8354008323
21
-14.7263363784
31
0.0000000000
11
-8.8432595021
21
-15.6604416413
31
0.0000000000
11
-8.8533049995
21
-16.5870956754
31
0.0000000000
11
-8.8659058820
21
-17.5006660939
31
0.0000000000
11
-8.8813960182
21
-18.3804917903
31
0.0000000000
0
SPLINE
5
2D2
100
AcDbEntity
8
0
100
AcDbSpline
62
0
6
CONTINUOUS
70
0
71
3
72
10
73
6
74
4
42
0.0000001000
43
0.0000001000
44
0.0000000001
12
-0.2751440603
22
0.1937326855
32
0.0000000000
13
-0.0050173113
23
0.3364690683
33
0.0000000000
40
0.0000000000
40
0.0000000000
40
0.0000000000
40
0.0000000000
40
0.3605274360
40
0.6936192633
40
1.0000000000
40
1.0000000000
40
1.0000000000
40
1.0000000000
10
-8.8813970868
20
-18.3804896741
30
0.0000000000
10
-8.9144627476
20
-18.3572076913
30
0.0000000000
10
-8.9744509509
20
-18.3059939178
30
0.0000000000
10
-9.0338588874
20
-18.2084591817
30
0.0000000000
10
-9.0485601220
20
-18.1364499698
30
0.0000000000
10
-9.0490725246
20
-18.1020874228
30
0.0000000000
11
-8.8813970868
21
-18.3804896741
31
0.0000000000
11
-8.9717495177
21
-18.2995271143
31
0.0000000000
11
-9.0291270658
21
-18.2032388114
31
0.0000000000
11
-9.0490725246
21
-18.1020874228
31
0.0000000000
0
SPLINE
5
2D3
100
AcDbEntity
8
0
100
AcDbSpline
62
0
6
CONTINUOUS
70
0
71
3
72
16
73
12
74
10
42
0.0000001000
43
0.0000001000
44
0.0000000001
12
-0.0000003747
22
-7.2387888464
32
0.0000000000
13
-0.1444970923
23
-7.2373465132
33
0.0000000000
40
0.0000000000
40
0.0000000000
40
0.0000000000
40
0.0000000000
40
0.1159814324
40
0.2312430064
40
0.3454179923
40
0.4581137390
40
0.5691738262
40
0.6792794041
40
0.7885726397
40
0.8962914583
40
1.0000000000
40
1.0000000000
40
1.0000000000
40
1.0000000000
10
-8.9917124745
20
-10.8636288067
30
0.0000000000
10
-8.9917124890
20
-11.1434838397
30
0.0000000000
10
-8.9921369009
20
-11.7014570331
30
0.0000000000
10
-8.9940491407
20
-12.5349244602
30
0.0000000000
10
-8.9972435866
20
-13.3604598146
30
0.0000000000
10
-9.0017452452
20
-14.1758510631
30
0.0000000000
10
-9.0076199248
20
-14.9814141927
30
0.0000000000
10
-9.0149983693
20
-15.7787546870
30
0.0000000000
10
-9.0240834371
20
-16.5680150548
30
0.0000000000
10
-9.0350888298
20
-17.3418140199
30
0.0000000000
10
-9.0440772748
20
-17.8518958149
30
0.0000000000
10
-9.0490724691
20
-18.1020873658
30
0.0000000000
11
-8.9917124745
21
-10.8636288067
31
0.0000000000
11
-8.9923534944
21
-11.7031936611
31
0.0000000000
11
-8.9942752398
21
-12.5375456445
31
0.0000000000
11
-8.9974863388
21
-13.3640280207
31
0.0000000000
11
-9.0020096777
21
-14.1797961942
31
0.0000000000
11
-9.0079006066
21
-14.9837151315
31
0.0000000000
11
-9.0153173915
21
-15.7807116515
31
0.0000000000
11
-9.0244872272
21
-16.5718091633
31
0.0000000000
11
-9.0356763869
21
-17.3514826617
31
0.0000000000
11
-9.0490724691
21
-18.1020873658
31
0.0000000000
0
SPLINE
5
2D4
100
AcDbEntity
8
0
100
AcDbSpline
62
0
6
CONTINUOUS
70
0
71
3
72
15
73
11
74
9
42
0.0000001000
43
0.0000001000
44
0.0000000001
12
0.1501612003
22
-7.5157047226
32
0.0000000000
13
-0.0000125223
23
-7.5172046575
33
0.0000000000
40
0.0000000000
40
0.0000000000
40
0.0000000000
40
0.0000000000
40
0.1170302457
40
0.2385997976
40
0.3618936022
40
0.4861926643
40
0.6121512582
40
0.7401017089
40
0.8695724482
40
1.0000000000
40
1.0000000000
40
1.0000000000
40
1.0000000000
10
-8.8813970248
20
-3.3467666750
30
0.0000000000
10
-8.8755392241
20
-3.6399549316
30
0.0000000000
10
-8.8651830578
20
-4.2377354505
30
0.0000000000
10
-8.8528099894
20
-5.1444617592
30
0.0000000000
10
-8.8428634589
20
-6.0694325465
30
0.0000000000
10
-8.8350418113
20
-7.0054215350
30
0.0000000000
10
-8.8290988001
20
-7.9530927664
30
0.0000000000
10
-8.8248995993
20
-8.9137322326
30
0.0000000000
10
-8.8223904338
20
-9.8855755869
30
0.0000000000
10
-8.8218303350
20
-10.5368119399
30
0.0000000000
10
-8.8218308794
20
-10.8636288067
30
0.0000000000
11
-8.8813970248
21
-3.3467666750
31
0.0000000000
11
-8.8659089895
21
-4.2263706370
31
0.0000000000
11
-8.8533063036
21
-5.1401469361
31
0.0000000000
11
-8.8432592246
21
-6.0669172397
31
0.0000000000
11
-8.8353991379
21
-7.0012656681
31
0.0000000000
11
-8.8294275598
21
-7.9481033654
31
0.0000000000
11
-8.8252014007
21
-8.9099238049
31
0.0000000000
11
-8.8226748882
21
-9.8831785697
31
0.0000000000
11
-8.8218308794
21
-10.8636288067
31
0.0000000000
0
SPLINE
5
2D5
100
AcDbEntity
8
0
100
AcDbSpline
62
0
6
CONTINUOUS
70
0
71
3
72
15
73
11
74
9
42
0.0000001000
43
0.0000001000
44
0.0000000001
12
0.1445015801
22
-7.2373460433
32
0.0000000000
13
-0.0000007555
23
-7.2387884661
33
0.0000000000
40
0.0000000000
40
0.0000000000
40
0.0000000000
40
0.0000000000
40
0.1168724041
40
0.2385305873
40
0.3618393918
40
0.4862010350
40
0.6121002515
40
0.7400589396
40
0.8695492463
40
1.0000000000
40
1.0000000000
40
1.0000000000
40
1.0000000000
10
-9.0490725164
20
-3.6251702002
30
0.0000000000
10
-9.0434431007
20
-3.9071188775
30
0.0000000000
10
-9.0334669153
20
-4.4825921705
30
0.0000000000
10
-9.0215501533
20
-5.3556050527
30
0.0000000000
10
-9.0119678550
20
-6.2467185477
30
0.0000000000
10
-9.0044340545
20
-7.1480850387
30
0.0000000000
10
-8.9987107824
20
-8.0606847889
30
0.0000000000
10
-8.9946669059
20
-8.9856686767
30
0.0000000000
10
-8.9922488558
20
-9.9216407511
30
0.0000000000
10
-8.9917124416
20
-10.5488603362
30
0.0000000000
10
-8.9917124745
20
-10.8636288067
30
0.0000000000
11
-9.0490725164
21
-3.6251702002
31
0.0000000000
11
-9.0341761288
21
-4.4710536555
31
0.0000000000
11
-9.0220267641
21
-5.3516276996
31
0.0000000000
11
-9.0123499035
21
-6.2441815955
31
0.0000000000
11
-9.0047762144
21
-7.1443773643
31
0.0000000000
11
-8.9990281234
21
-8.0557170333
31
0.0000000000
11
-8.9949574998
21
-8.9819739646
31
0.0000000000
11
-8.9925238391
21
-9.9193237439
31
0.0000000000
11
-8.9917124745
21
-10.8636288067
31
0.0000000000
0
SPLINE
5
2D6
100
AcDbEntity
8
0
100
AcDbSpline
62
0
6
CONTINUOUS
70
0
71
3
72
10
73
6
74
4
42
0.0000001000
43
0.0000001000
44
0.0000000001
12
-0.2751151040
22
-0.1937665711
32
0.0000000000
13
-0.0050198859
23
-0.3364648648
33
0.0000000000
40
0.0000000000
40
0.0000000000
40
0.0000000000
40
0.0000000000
40
0.3605804370
40
0.6936941886
40
1.0000000000
40
1.0000000000
40
1.0000000000
40
1.0000000000
10
-8.8813970855
20
-3.3467679378
30
0.0000000000
10
-8.9144641269
20
-3.3700574161
30
0.0000000000
10
-8.9744532414
20
-3.4212806847
30
0.0000000000
10
-9.0338585767
20
-3.5188148045
30
0.0000000000
10
-9.0485599845
20
-3.5908164775
30
0.0000000000
10
-9.0490725246
20
-3.6251701920
30
0.0000000000
11
-8.8813970855
21
-3.3467679378
31
0.0000000000
11
-8.9717543486
21
-3.4277495794
31
0.0000000000
11
-9.0291319124
21
-3.5240448462
31
0.0000000000
11
-9.0490725246
21
-3.6251701920
31
0.0000000000
0
SPLINE
5
2D7
100
AcDbEntity
8
0
100
AcDbSpline
62
0
6
CONTINUOUS
70
0
71
3
72
12
73
8
74
6
42
0.0000001000
43
0.0000001000
44
0.0000000001
12
0.0002381805
22
0.7819798209
32
0.0000000000
13
0.7819798209
23
0.0002381801
33
0.0000000000
40
0.0000000000
40
0.0000000000
40
0.0000000000
40
0.0000000000
40
0.1989980002
40
0.3992118357
40
0.5995163143
40
0.7998035503
40
1.0000000000
40
1.0000000000
40
1.0000000000
40
1.0000000000
10
-9.0490725246
20
-3.6251701920
30
0.0000000000
10
-9.0490567254
20
-3.5732993852
30
0.0000000000
10
-9.0325633357
20
-3.4685226742
30
0.0000000000
10
-8.9606258587
20
-3.3270042582
30
0.0000000000
10
-8.8481283239
20
-3.2142810637
30
0.0000000000
10
-8.7064532391
20
-3.1419122974
30
0.0000000000
10
-8.6013318716
20
-3.1252622387
30
0.0000000000
10
-8.5491486770
20
-3.1252463445
30
0.0000000000
11
-9.0490725246
21
-3.6251701920
31
0.0000000000
11
-9.0248090627
21
-3.4714610118
31
0.0000000000
11
-8.9539058710
21
-3.3318731586
31
0.0000000000
11
-8.8432604043
21
-3.2210047148
31
0.0000000000
11
-8.7037603300
21
-3.1498026316
31
0.0000000000
11
-8.5491486770
21
-3.1252463445
31
0.0000000000
0
SPLINE
5
2D8
100
AcDbEntity
8
0
100
AcDbSpline
62
0
6
CONTINUOUS
70
0
71
3
72
26
73
22
74
20
42
0.0000001000
43
0.0000001000
44
0.0000000001
12
-17.9374044328
22
-0.4256945433
32
0.0000000000
13
-17.9374026728
23
0.4257686969
33
0.0000000000
40
0.0000000000
40
0.0000000000
40
0.0000000000
40
0.0000000000
40
0.0450037463
40
0.0973927907
40
0.1532425730
40
0.2089367646
40
0.2632078111
40
0.3167057799
40
0.3700283467
40
0.4235753723
40
0.4774677008
40
0.5314845461
40
0.5853068723
40
0.6387759827
40
0.6920350863
40
0.7457792012
40
0.8004208084
40
0.8558111919
40
0.9097477455
40
0.9587315083
40
1.0000000000
40
1.0000000000
40
1.0000000000
40
1.0000000000
10
9.0600158935
20
-3.3467658230
30
0.0000000000
10
8.7909324275
20
-3.3531517727
30
0.0000000000
10
8.2085666240
20
-3.3652468837
30
0.0000000000
10
7.2921737994
20
-3.3803903416
30
0.0000000000
10
6.3118029755
20
-3.3932533417
30
0.0000000000
10
5.3201461062
20
-3.4035649001
30
0.0000000000
10
4.3425342735
20
-3.4115484341
30
0.0000000000
10
3.3790931186
20
-3.4175752876
30
0.0000000000
10
2.4199733072
20
-3.4219278499
30
0.0000000000
10
1.4584892076
20
-3.4247493680
30
0.0000000000
10
0.4928495674
20
-3.4260933877
30
0.0000000000
10
-0.4744375190
20
-3.4259718257
30
0.0000000000
10
-1.4391921230
20
-3.4243848130
30
0.0000000000
10
-2.3994112388
20
-3.4213175902
30
0.0000000000
10
-3.3591564252
20
-3.4167002962
30
0.0000000000
10
-4.3259045297
20
-3.4103625266
30
0.0000000000
10
-5.3053848821
20
-3.4020219222
30
0.0000000000
10
-6.2859946657
20
-3.3914203721
30
0.0000000000
10
-7.2327365148
20
-3.3785674309
30
0.0000000000
10
-8.0949815845
20
-3.3639574429
30
0.0000000000
10
-8.6346471737
20
-3.3526236189
30
0.0000000000
10
-8.8813970248
20
-3.3467666750
30
0.0000000000
11
9.0600158935
21
-3.3467658230
31
0.0000000000
11
8.2527179364
21
-3.3638021528
31
0.0000000000
11
7.3128614865
21
-3.3795322040
31
0.0000000000
11
6.3108672525
21
-3.3928103587
31
0.0000000000
11
5.3116315366
21
-3.4032769112
31
0.0000000000
11
4.3379085620
21
-3.4112738796
31
0.0000000000
11
3.3780426183
21
-3.4173066485
31
0.0000000000
11
2.4213147955
21
-3.4216666064
31
0.0000000000
11
1.4605538643
21
-3.4244970744
31
0.0000000000
11
0.4935941248
21
-3.4258480703
31
0.0000000000
11
-0.4756006856
21
-3.4257258179
31
0.0000000000
11
-1.4413040393
21
-3.4241311576
31
0.0000000000
11
-2.4006662166
21
-3.4210545800
31
0.0000000000
11
-3.3562541359
21
-3.4164376357
31
0.0000000000
11
-4.3205345796
21
-3.4100854128
31
0.0000000000
11
-5.3009031928
21
-3.4016875167
31
0.0000000000
11
-6.2946837038
21
-3.3908624256
31
0.0000000000
11
-7.2623469602
21
-3.3775961207
31
0.0000000000
11
-8.1411067945
21
-3.3625308831
31
0.0000000000
11
-8.8813970248
21
-3.3467666750
31
0.0000000000
0
SPLINE
5
2D9
100
AcDbEntity
8
0
100
AcDbSpline
62
0
6
CONTINUOUS
70
0
71
3
72
11
73
7
74
5
42
0.0000001000
43
0.0000001000
44
0.0000000001
12
0.2007830825
22
0.3659992255
32
0.0000000000
13
0.4174213286
23
0.0053585204
33
0.0000000000
40
0.0000000000
40
0.0000000000
40
0.0000000000
40
0.0000000000
40
0.2681630313
40
0.5228079377
40
0.7652469209
40
1.0000000000
40
1.0000000000
40
1.0000000000
40
1.0000000000
10
-8.8813970855
20
-3.3467679378
30
0.0000000000
10
-8.8634495521
20
-3.3140521172
30
0.0000000000
10
-8.8215217875
20
-3.2537086957
30
0.0000000000
10
-8.7409419294
20
-3.1824104477
30
0.0000000000
10
-8.6484670506
20
-3.1367783222
30
0.0000000000
10
-8.5818123239
20
-3.1256656542
30
0.0000000000
10
-8.5491486765
20
-3.1252463445
30
0.0000000000
11
-8.8813970855
21
-3.3467679378
31
0.0000000000
11
-8.8169849441
21
-3.2552090722
31
0.0000000000
11
-8.7369093006
21
-3.1852933129
31
0.0000000000
11
-8.6458550642
21
-3.1411108240
31
0.0000000000
11
-8.5491486765
21
-3.1252463445
31
0.0000000000
0
SPLINE
5
2DA
100
AcDbEntity
8
0
100
AcDbSpline
62
0
6
CONTINUOUS
70
0
71
3
72
27
73
23
74
21
42
0.0000001000
43
0.0000001000
44
0.0000000001
12
-17.2730570169
22
-0.4099630879
32
0.0000000000
13
-17.2730568379
23
0.4099706300
33
0.0000000000
40
0.0000000000
40
0.0000000000
40
0.0000000000
40
0.0000000000
40
0.0426520329
40
0.0920115020
40
0.1447022166
40
0.1976788883
40
0.2495985187
40
0.3006108602
40
0.3512866453
40
0.4020557332
40
0.4531098132
40
0.5043851942
40
0.5556429356
40
0.6066514262
40
0.6573756597
40
0.7081077834
40
0.7593735654
40
0.8114748749
40
0.8638661114
40
0.9146633475
40
0.9608304626
40
1.0000000000
40
1.0000000000
40
1.0000000000
40
1.0000000000
10
8.7277686532
20
-3.1252462435
30
0.0000000000
10
8.4821916547
20
-3.1310748298
30
0.0000000000
10
7.9523827429
20
-3.1421585791
30
0.0000000000
10
7.1191144790
20
-3.1561773033
30
0.0000000000
10
6.2263473756
20
-3.1682446853
30
0.0000000000
10
5.3188078708
20
-3.1780882655
30
0.0000000000
10
4.4209150480
20
-3.1858506093
30
0.0000000000
10
3.5362605744
20
-3.1918337554
30
0.0000000000
10
2.6582236233
20
-3.1962981112
30
0.0000000000
10
1.7799404498
20
-3.1993978457
30
0.0000000000
10
0.8982004143
20
-3.2012012093
30
0.0000000000
10
0.0136443939
20
-3.2017288458
30
0.0000000000
10
-0.8706489064
20
-3.2009834866
30
0.0000000000
10
-1.7517659808
20
-3.1989606158
30
0.0000000000
10
-2.6298519029
20
-3.1956334531
30
0.0000000000
10
-3.5094133556
20
-3.1909176686
30
0.0000000000
10
-4.3968963547
20
-3.1846418443
30
0.0000000000
10
-5.2939207088
20
-3.1765671578
30
0.0000000000
10
-6.1882264738
20
-3.1664989729
30
0.0000000000
10
-7.0483286889
20
-3.1544911170
30
0.0000000000
10
-7.8322507748
20
-3.1409870905
30
0.0000000000
10
-8.3236228500
20
-3.1305990759
30
0.0000000000
10
-8.5491487322
20
-3.1252462893
30
0.0000000000
11
8.7277686532
21
-3.1252462435
31
0.0000000000
11
7.9909961236
21
-3.1408843756
31
0.0000000000
11
7.1382906355
21
-3.1554000283
31
0.0000000000
11
6.2279893130
21
-3.1678184315
31
0.0000000000
11
5.3127171323
21
-3.1778151262
31
0.0000000000
11
4.4156877228
21
-3.1856119759
31
0.0000000000
11
3.5343208333
21
-3.1915994515
31
0.0000000000
11
2.6587600066
21
-3.1960686511
31
0.0000000000
11
1.7815811982
21
-3.1991756942
31
0.0000000000
11
0.8994746725
21
-3.2009860736
31
0.0000000000
11
0.0135428286
21
-3.2015163368
31
0.0000000000
11
-0.8720840831
21
-3.2007672978
31
0.0000000000
11
-1.7534024359
21
-3.1987369006
31
0.0000000000
11
-2.6298054180
21
-3.1954039712
31
0.0000000000
11
-3.5063383657
21
-3.1906856574
31
0.0000000000
11
-4.3920821683
21
-3.1843932588
31
0.0000000000
11
-5.2922476183
21
-3.1762446328
31
0.0000000000
11
-6.1974011034
21
-3.1659816474
31
0.0000000000
11
-7.0749846787
21
-3.1536186005
31
0.0000000000
11
-7.8725355487
21
-3.1397301571
31
0.0000000000
11
-8.5491487322
21
-3.1252462893
31
0.0000000000
0
SPLINE
5
2DB
100
AcDbEntity
8
0
100
AcDbSpline
62
0
6
CONTINUOUS
70
0
71
3
72
11
73
7
74
5
42
0.0000001000
43
0.0000001000
44
0.0000000001
12
-0.2008242568
22
0.3659696553
32
0.0000000000
13
-0.4174151791
23
0.0053608773
33
0.0000000000
40
0.0000000000
40
0.0000000000
40
0.0000000000
40
0.0000000000
40
0.2681839494
40
0.5228405638
40
0.7652734980
40
1.0000000000
40
1.0000000000
40
1.0000000000
40
1.0000000000
10
9.0600169620
20
-3.3467679392
30
0.0000000000
10
9.0420643479
20
-3.3140522101
30
0.0000000000
10
9.0001287451
20
-3.2537104532
30
0.0000000000
10
8.9195460789
20
-3.1824130902
30
0.0000000000
10
8.8270769867
20
-3.1367800837
30
0.0000000000
10
8.7604280185
20
-3.1256657911
30
0.0000000000
10
8.7277685502
20
-3.1252463445
30
0.0000000000
11
9.0600169620
21
-3.3467679392
31
0.0000000000
11
8.9955920769
21
-3.2552093691
31
0.0000000000
11
8.9155119208
21
-3.1852937160
31
0.0000000000
11
8.8244621902
21
-3.1411111237
31
0.0000000000
11
8.7277685502
21
-3.1252463445
31
0.0000000000
0
SPLINE
5
2DC
100
AcDbEntity
8
0
100
AcDbSpline
62
0
6
CONTINUOUS
70
0
71
3
72
12
73
8
74
6
42
0.0000001000
43
0.0000001000
44
0.0000000001
12
0.7819798209
22
-0.0002381789
32
0.0000000000
13
0.0002381817
23
-0.7819798209
33
0.0000000000
40
0.0000000000
40
0.0000000000
40
0.0000000000
40
0.0000000000
40
0.2001964497
40
0.4004836857
40
0.6007881643
40
0.8010019998
40
1.0000000000
40
1.0000000000
40
1.0000000000
40
1.0000000000
10
8.7277685522
20
-3.1252463445
30
0.0000000000
10
8.7799517469
20
-3.1252622387
30
0.0000000000
10
8.8850731143
20
-3.1419122974
30
0.0000000000
10
9.0267481992
20
-3.2142810637
30
0.0000000000
10
9.1392457339
20
-3.3270042582
30
0.0000000000
10
9.2111832110
20
-3.4685226742
30
0.0000000000
10
9.2276766006
20
-3.5732993852
30
0.0000000000
10
9.2276923998
20
-3.6251701920
30
0.0000000000
11
8.7277685522
21
-3.1252463445
31
0.0000000000
11
8.8823802053
21
-3.1498026316
31
0.0000000000
11
9.0218802795
21
-3.2210047148
31
0.0000000000
11
9.1325257463
21
-3.3318731586
31
0.0000000000
11
9.2034289380
21
-3.4714610118
31
0.0000000000
11
9.2276923998
21
-3.6251701920
31
0.0000000000
0
SPLINE
5
2DD
100
AcDbEntity
8
0
100
AcDbSpline
62
0
6
CONTINUOUS
70
0
71
3
72
15
73
11
74
9
42
0.0000001000
43
0.0000001000
44
0.0000000001
12
0.0000062095
22
7.5172054999
32
0.0000000000
13
0.1501095214
23
7.5157065975
33
0.0000000000
40
0.0000000000
40
0.0000000000
40
0.0000000000
40
0.0000000000
40
0.1304366244
40
0.2599090888
40
0.3878692221
40
0.5138530983
40
0.6381197982
40
0.7613981205
40
0.8829402702
40
1.0000000000
40
1.0000000000
40
1.0000000000
40
1.0000000000
10
9.0004507547
20
-10.8636288067
30
0.0000000000
10
9.0004510246
20
-10.5367891699
30
0.0000000000
10
9.0010096443
20
-9.8855256875
30
0.0000000000
10
9.0035193381
20
-8.9136309058
30
0.0000000000
10
9.0077188919
20
-7.9528993977
30
0.0000000000
10
9.0136621778
20
-7.0052215387
30
0.0000000000
10
9.0214844898
20
-6.0692889893
30
0.0000000000
10
9.0314277201
20
-5.1445066221
30
0.0000000000
10
9.0438023436
20
-4.2378138104
30
0.0000000000
10
9.0541586335
20
-3.6400280176
30
0.0000000000
10
9.0600158935
20
-3.3467658230
30
0.0000000000
11
9.0004507547
21
-10.8636288067
31
0.0000000000
11
9.0012945818
21
-9.8831102596
31
0.0000000000
11
9.0038210096
21
-8.9098424169
31
0.0000000000
11
9.0080475327
21
-7.9479490845
31
0.0000000000
11
9.0140207075
21
-7.0009212349
31
0.0000000000
11
9.0218793773
21
-6.0668159720
31
0.0000000000
11
9.0319248747
21
-5.1401619379
31
0.0000000000
11
9.0445257573
21
-4.2265915194
31
0.0000000000
11
9.0600158935
21
-3.3467658230
31
0.0000000000
0
SPLINE
5
2DE
100
AcDbEntity
8
0
100
AcDbSpline
62
0
6
CONTINUOUS
70
0
71
3
72
10
73
6
74
4
42
0.0000001000
43
0.0000001000
44
0.0000000001
12
0.2751440603
22
-0.1937326855
32
0.0000000000
13
0.0050173113
23
-0.3364690683
33
0.0000000000
40
0.0000000000
40
0.0000000000
40
0.0000000000
40
0.0000000000
40
0.3605274360
40
0.6936192633
40
1.0000000000
40
1.0000000000
40
1.0000000000
40
1.0000000000
10
9.0600169620
20
-3.3467679392
30
0.0000000000
10
9.0930826229
20
-3.3700499220
30
0.0000000000
10
9.1530708262
20
-3.4212636955
30
0.0000000000
10
9.2124787627
20
-3.5187984316
30
0.0000000000
10
9.2271799973
20
-3.5908076435
30
0.0000000000
10
9.2276923998
20
-3.6251701905
30
0.0000000000
11
9.0600169620
21
-3.3467679392
31
0.0000000000
11
9.1503693929
21
-3.4277304990
31
0.0000000000
11
9.2077469410
21
-3.5240188019
31
0.0000000000
11
9.2276923998
21
-3.6251701905
31
0.0000000000
0
SPLINE
5
2DF
100
AcDbEntity
8
0
100
AcDbSpline
62
0
6
CONTINUOUS
70
0
71
3
72
16
73
12
74
10
42
0.0000001000
43
0.0000001000
44
0.0000000001
12
0.0000003747
22
7.2387888464
32
0.0000000000
13
0.1444970923
23
7.2373465132
33
0.0000000000
40
0.0000000000
40
0.0000000000
40
0.0000000000
40
0.0000000000
40
0.1159814324
40
0.2312430064
40
0.3454179923
40
0.4581137390
40
0.5691738262
40
0.6792794041
40
0.7885726397
40
0.8962914583
40
1.0000000000
40
1.0000000000
40
1.0000000000
40
1.0000000000
10
9.1703323498
20
-10.8636288067
30
0.0000000000
10
9.1703323642
20
-10.5837737736
30
0.0000000000
10
9.1707567761
20
-10.0258005802
30
0.0000000000
10
9.1726690160
20
-9.1923331531
30
0.0000000000
10
9.1758634618
20
-8.3667977987
30
0.0000000000
10
9.1803651204
20
-7.5514065502
30
0.0000000000
10
9.1862398001
20
-6.7458434206
30
0.0000000000
10
9.1936182446
20
-5.9485029263
30
0.0000000000
10
9.2027033123
20
-5.1592425585
30
0.0000000000
10
9.2137087050
20
-4.3854435934
30
0.0000000000
10
9.2226971501
20
-3.8753617984
30
0.0000000000
10
9.2276923443
20
-3.6251702476
30
0.0000000000
11
9.1703323498
21
-10.8636288067
31
0.0000000000
11
9.1709733697
21
-10.0240639522
31
0.0000000000
11
9.1728951150
21
-9.1897119688
31
0.0000000000
11
9.1761062141
21
-8.3632295926
31
0.0000000000
11
9.1806295529
21
-7.5474614191
31
0.0000000000
11
9.1865204819
21
-6.7435424818
31
0.0000000000
11
9.1939372668
21
-5.9465459618
31
0.0000000000
11
9.2031071025
21
-5.1554484500
31
0.0000000000
11
9.2142962622
21
-4.3757749516
31
0.0000000000
11
9.2276923443
21
-3.6251702476
31
0.0000000000
0
SPLINE
5
2E0
100
AcDbEntity
8
0
100
AcDbSpline
62
0
6
CONTINUOUS
70
0
71
3
72
15
73
11
74
9
42
0.0000001000
43
0.0000001000
44
0.0000000001
12
-0.1501612003
22
7.5157047226
32
0.0000000000
13
0.0000125223
23
7.5172046575
33
0.0000000000
40
0.0000000000
40
0.0000000000
40
0.0000000000
40
0.0000000000
40
0.1170302457
40
0.2385997976
40
0.3618936022
40
0.4861926643
40
0.6121512582
40
0.7401017089
40
0.8695724482
40
1.0000000000
40
1.0000000000
40
1.0000000000
40
1.0000000000
10
9.0600169001
20
-18.3804909383
30
0.0000000000
10
9.0541590994
20
-18.0873026817
30
0.0000000000
10
9.0438029331
20
-17.4895221628
30
0.0000000000
10
9.0314298647
20
-16.5827958541
30
0.0000000000
10
9.0214833342
20
-15.6578250668
30
0.0000000000
10
9.0136616865
20
-14.7218360783
30
0.0000000000
10
9.0077186754
20
-13.7741648469
30
0.0000000000
10
9.0035194746
20
-12.8135253807
30
0.0000000000
10
9.0010103091
20
-11.8416820265
30
0.0000000000
10
9.0004502102
20
-11.1904456734
30
0.0000000000
10
9.0004507547
20
-10.8636288067
30
0.0000000000
11
9.0600169001
21
-18.3804909383
31
0.0000000000
11
9.0445288648
21
-17.5008869764
31
0.0000000000
11
9.0319261789
21
-16.5871106772
31
0.0000000000
11
9.0218790998
21
-15.6603403736
31
0.0000000000
11
9.0140190132
21
-14.7259919453
31
0.0000000000
11
9.0080474350
21
-13.7791542479
31
0.0000000000
11
9.0038212760
21
-12.8173338084
31
0.0000000000
11
9.0012947635
21
-11.8440790436
31
0.0000000000
11
9.0004507547
21
-10.8636288067
31
0.0000000000
0
SPLINE
5
2E1
100
AcDbEntity
8
0
100
AcDbSpline
62
0
6
CONTINUOUS
70
0
71
3
72
15
73
11
74
9
42
0.0000001000
43
0.0000001000
44
0.0000000001
12
-0.1445015801
22
7.2373460433
32
0.0000000000
13
0.0000007555
23
7.2387884661
33
0.0000000000
40
0.0000000000
40
0.0000000000
40
0.0000000000
40
0.0000000000
40
0.1168724041
40
0.2385305873
40
0.3618393918
40
0.4862010350
40
0.6121002515
40
0.7400589396
40
0.8695492463
40
1.0000000000
40
1.0000000000
40
1.0000000000
40
1.0000000000
10
9.2276923916
20
-18.1020874131
30
0.0000000000
10
9.2220629759
20
-17.8201387358
30
0.0000000000
10
9.2120867906
20
-17.2446654428
30
0.0000000000
10
9.2001700285
20
-16.3716525606
30
0.0000000000
10
9.1905877302
20
-15.4805390657
30
0.0000000000
10
9.1830539297
20
-14.5791725746
30
0.0000000000
10
9.1773306576
20
-13.6665728244
30
0.0000000000
10
9.1732867812
20
-12.7415889366
30
0.0000000000
10
9.1708687311
20
-11.8056168622
30
0.0000000000
10
9.1703323169
20
-11.1783972771
30
0.0000000000
10
9.1703323498
20
-10.8636288067
30
0.0000000000
11
9.2276923916
21
-18.1020874131
31
0.0000000000
11
9.2127960041
21
-17.2562039578
31
0.0000000000
11
9.2006466394
21
-16.3756299137
31
0.0000000000
11
9.1909697788
21
-15.4830760178
31
0.0000000000
11
9.1833960896
21
-14.5828802490
31
0.0000000000
11
9.1776479987
21
-13.6715405800
31
0.0000000000
11
9.1735773750
21
-12.7452836487
31
0.0000000000
11
9.1711437144
21
-11.8079338694
31
0.0000000000
11
9.1703323498
21
-10.8636288067
31
0.0000000000
0
SPLINE
5
2E2
100
AcDbEntity
8
0
100
AcDbSpline
62
0
6
CONTINUOUS
70
0
71
3
72
10
73
6
74
4
42
0.0000001000
43
0.0000001000
44
0.0000000001
12
0.2783956557
22
0.1890148237
32
0.0000000000
13
0.0051412356
23
0.3364584854
33
0.0000000000
40
0.0000000000
40
0.0000000000
40
0.0000000000
40
0.0000000000
40
0.3572332148
40
0.6875976277
40
1.0000000000
40
1.0000000000
40
1.0000000000
40
1.0000000000
10
9.0600169607
20
-18.3804896755
30
0.0000000000
10
9.0931676858
20
-18.3579822178
30
0.0000000000
10
9.1521028344
20
-18.3064744186
30
0.0000000000
10
9.2121495513
20
-18.2095820532
30
0.0000000000
10
9.2271570217
20
-18.1371242310
30
0.0000000000
10
9.2276923998
20
-18.1020874213
30
0.0000000000
11
9.0600169607
21
-18.3804896755
31
0.0000000000
11
9.1496424824
21
-18.3003817991
31
0.0000000000
11
9.2069967767
21
-18.2051528042
31
0.0000000000
11
9.2276923998
21
-18.1020874213
31
0.0000000000
0
SPLINE
5
2E3
100
AcDbEntity
8
0
100
AcDbSpline
62
0
6
CONTINUOUS
70
0
71
3
72
12
73
8
74
6
42
0.0000001000
43
0.0000001000
44
0.0000000001
12
-0.0002381806
22
-0.7819798596
32
0.0000000000
13
-0.7819798596
23
-0.0002381802
33
0.0000000000
40
0.0000000000
40
0.0000000000
40
0.0000000000
40
0.0000000000
40
0.2001351735
40
0.4002956053
40
0.6004489766
40
0.8005973383
40
1.0000000000
40
1.0000000000
40
1.0000000000
40
1.0000000000
10
9.2276923998
20
-18.1020874213
30
0.0000000000
10
9.2276765104
20
-18.1542546462
30
0.0000000000
10
9.2110394339
20
-18.2593263169
30
0.0000000000
10
9.1387410216
20
-18.4009326883
30
0.0000000000
10
9.0261317815
20
-18.5134100010
30
0.0000000000
10
8.8846143769
20
-18.5854528604
30
0.0000000000
10
8.7797448407
20
-18.6019954376
30
0.0000000000
10
8.7277685522
20
-18.6020112688
30
0.0000000000
11
9.2276923998
21
-18.1020874213
31
0.0000000000
11
9.2031511249
21
-18.2566529489
31
0.0000000000
11
9.1320216323
21
-18.3960787517
31
0.0000000000
11
9.0212829676
21
-18.5066869746
31
0.0000000000
11
8.8817825106
21
-18.5776491273
31
0.0000000000
11
8.7277685522
21
-18.6020112688
31
0.0000000000
0
SPLINE
5
2E4
100
AcDbEntity
8
0
100
AcDbSpline
62
0
6
CONTINUOUS
70
0
71
3
72
26
73
22
74
20
42
0.0000001000
43
0.0000001000
44
0.0000000001
12
17.9374044328
22
0.4256945433
32
0.0000000000
13
17.9374026728
23
-0.4257686961
33
0.0000000000
40
0.0000000000
40
0.0000000000
40
0.0000000000
40
0.0000000000
40
0.0450037463
40
0.0973927907
40
0.1532425730
40
0.2089367646
40
0.2632078111
40
0.3167057799
40
0.3700283467
40
0.4235753723
40
0.4774677008
40
0.5314845461
40
0.5853068723
40
0.6387759827
40
0.6920350863
40
0.7457792012
40
0.8004208084
40
0.8558111919
40
0.9097477455
40
0.9587315083
40
1.0000000000
40
1.0000000000
40
1.0000000000
40
1.0000000000
10
-8.8813960182
20
-18.3804917903
30
0.0000000000
10
-8.6123125523
20
-18.3741058406
30
0.0000000000
10
-8.0299467487
20
-18.3620107296
30
0.0000000000
10
-7.1135539241
20
-18.3468672717
30
0.0000000000
10
-6.1331831002
20
-18.3340042716
30
0.0000000000
10
-5.1415262309
20
-18.3236927132
30
0.0000000000
10
-4.1639143982
20
-18.3157091792
30
0.0000000000
10
-3.2004732433
20
-18.3096823257
30
0.0000000000
10
-2.2413534319
20
-18.3053297634
30
0.0000000000
10
-1.2798693323
20
-18.3025082453
30
0.0000000000
10
-0.3142296921
20
-18.3011642256
30
0.0000000000
10
0.6530573943
20
-18.3012857876
30
0.0000000000
10
1.6178119982
20
-18.3028728003
30
0.0000000000
10
2.5780311141
20
-18.3059400231
30
0.0000000000
10
3.5377763004
20
-18.3105573171
30
0.0000000000
10
4.5045244050
20
-18.3168950867
30
0.0000000000
10
5.4840047573
20
-18.3252356911
30
0.0000000000
10
6.4646145410
20
-18.3358372412
30
0.0000000000
10
7.4113563900
20
-18.3486901824
30
0.0000000000
10
8.2736014598
20
-18.3633001704
30
0.0000000000
10
8.8132670490
20
-18.3746339944
30
0.0000000000
10
9.0600169001
20
-18.3804909383
30
0.0000000000
11
-8.8813960182
21
-18.3804917903
31
0.0000000000
11
-8.0740980611
21
-18.3634554605
31
0.0000000000
11
-7.1342416112
21
-18.3477254093
31
0.0000000000
11
-6.1322473772
21
-18.3344472546
31
0.0000000000
11
-5.1330116613
21
-18.3239807021
31
0.0000000000
11
-4.1592886867
21
-18.3159837337
31
0.0000000000
11
-3.1994227430
21
-18.3099509648
31
0.0000000000
11
-2.2426949203
21
-18.3055910069
31
0.0000000000
11
-1.2819339890
21
-18.3027605389
31
0.0000000000
11
-0.3149742495
21
-18.3014095430
31
0.0000000000
11
0.6542205609
21
-18.3015317954
31
0.0000000000
11
1.6199239146
21
-18.3031264558
31
0.0000000000
11
2.5792860919
21
-18.3062030333
31
0.0000000000
11
3.5348740112
21
-18.3108199776
31
0.0000000000
11
4.4991544549
21
-18.3171722005
31
0.0000000000
11
5.4795230681
21
-18.3255700966
31
0.0000000000
11
6.4733035790
21
-18.3363951877
31
0.0000000000
11
7.4409668354
21
-18.3496614926
31
0.0000000000
11
8.3197266697
21
-18.3647267302
31
0.0000000000
11
9.0600169001
21
-18.3804909383
31
0.0000000000
0
SPLINE
5
2E5
100
AcDbEntity
8
0
100
AcDbSpline
62
0
6
CONTINUOUS
70
0
71
3
72
11
73
7
74
5
42
0.0000001000
43
0.0000001000
44
0.0000000001
12
-0.2055963117
22
-0.3633111514
32
0.0000000000
13
-0.4174170710
23
-0.0052749402
33
0.0000000000
40
0.0000000000
40
0.0000000000
40
0.0000000000
40
0.0000000000
40
0.2687869772
40
0.5254977901
40
0.7674298269
40
1.0000000000
40
1.0000000000
40
1.0000000000
40
1.0000000000
10
9.0600169607
20
-18.3804896755
30
0.0000000000
10
9.0415964237
20
-18.4130407775
30
0.0000000000
10
8.9999736384
20
-18.4739553093
30
0.0000000000
10
8.9189336295
20
-18.5453750279
30
0.0000000000
10
8.8263935142
20
-18.5906001300
30
0.0000000000
10
8.7601281387
20
-18.6016023376
30
0.0000000000
10
8.7277685518
20
-18.6020112688
30
0.0000000000
11
9.0600169607
21
-18.3804896755
31
0.0000000000
11
8.9953885898
21
-18.4722131051
31
0.0000000000
11
8.9146032351
21
-18.5426251503
31
0.0000000000
11
8.8235933498
21
-18.5864100238
31
0.0000000000
11
8.7277685518
21
-18.6020112688
31
0.0000000000
0
SPLINE
5
2E6
100
AcDbEntity
8
0
100
AcDbSpline
62
0
6
CONTINUOUS
70
0
71
3
72
27
73
23
74
21
42
0.0000001000
43
0.0000001000
44
0.0000000001
12
17.2730570169
22
0.4099630879
32
0.0000000000
13
17.2730568379
23
-0.4099706301
33
0.0000000000
40
0.0000000000
40
0.0000000000
40
0.0000000000
40
0.0000000000
40
0.0426520329
40
0.0920115020
40
0.1447022166
40
0.1976788883
40
0.2495985187
40
0.3006108602
40
0.3512866453
40
0.4020557332
40
0.4531098132
40
0.5043851942
40
0.5556429356
40
0.6066514262
40
0.6573756597
40
0.7081077834
40
0.7593735654
40
0.8114748749
40
0.8638661114
40
0.9146633475
40
0.9608304626
40
1.0000000000
40
1.0000000000
40
1.0000000000
40
1.0000000000
10
-8.5491487780
20
-18.6020113698
30
0.0000000000
10
-8.3035717794
20
-18.5961827835
30
0.0000000000
10
-7.7737628676
20
-18.5850990342
30
0.0000000000
10
-6.9404946038
20
-18.5710803100
30
0.0000000000
10
-6.0477275003
20
-18.5590129280
30
0.0000000000
10
-5.1401879955
20
-18.5491693478
30
0.0000000000
10
-4.2422951727
20
-18.5414070040
30
0.0000000000
10
-3.3576406991
20
-18.5354238579
30
0.0000000000
10
-2.4796037480
20
-18.5309595021
30
0.0000000000
10
-1.6013205745
20
-18.5278597676
30
0.0000000000
10
-0.7195805390
20
-18.5260564040
30
0.0000000000
10
0.1649754813
20
-18.5255287675
30
0.0000000000
10
1.0492687817
20
-18.5262741267
30
0.0000000000
10
1.9303858560
20
-18.5282969975
30
0.0000000000
10
2.8084717782
20
-18.5316241602
30
0.0000000000
10
3.6880332308
20
-18.5363399447
30
0.0000000000
10
4.5755162300
20
-18.5426157690
30
0.0000000000
10
5.4725405841
20
-18.5506904555
30
0.0000000000
10
6.3668463491
20
-18.5607586404
30
0.0000000000
10
7.2269485642
20
-18.5727664963
30
0.0000000000
10
8.0108706500
20
-18.5862705228
30
0.0000000000
10
8.5022427253
20
-18.5966585374
30
0.0000000000
10
8.7277686074
20
-18.6020113240
30
0.0000000000
11
-8.5491487780
21
-18.6020113698
31
0.0000000000
11
-7.8123762483
21
-18.5863732377
31
0.0000000000
11
-6.9596707602
21
-18.5718575850
31
0.0000000000
11
-6.0493694377
21
-18.5594391818
31
0.0000000000
11
-5.1340972570
21
-18.5494424871
31
0.0000000000
11
-4.2370678476
21
-18.5416456374
31
0.0000000000
11
-3.3557009580
21
-18.5356581619
31
0.0000000000
11
-2.4801401313
21
-18.5311889622
31
0.0000000000
11
-1.6029613229
21
-18.5280819191
31
0.0000000000
11
-0.7208547972
21
-18.5262715397
31
0.0000000000
11
0.1650770467
21
-18.5257412765
31
0.0000000000
11
1.0507039584
21
-18.5264903156
31
0.0000000000
11
1.9320223112
21
-18.5285207128
31
0.0000000000
11
2.8084252933
21
-18.5318536421
31
0.0000000000
11
3.6849582410
21
-18.5365719559
31
0.0000000000
11
4.5707020436
21
-18.5428643545
31
0.0000000000
11
5.4708674936
21
-18.5510129805
31
0.0000000000
11
6.3760209787
21
-18.5612759659
31
0.0000000000
11
7.2536045539
21
-18.5736390128
31
0.0000000000
11
8.0511554239
21
-18.5875274562
31
0.0000000000
11
8.7277686074
21
-18.6020113240
31
0.0000000000
0
SPLINE
5
2E7
100
AcDbEntity
8
0
100
AcDbSpline
62
0
6
CONTINUOUS
70
0
71
3
72
11
73
7
74
5
42
0.0000001000
43
0.0000001000
44
0.0000000001
12
0.2008242568
22
-0.3659696553
32
0.0000000000
13
0.4174151791
23
-0.0053608773
33
0.0000000000
40
0.0000000000
40
0.0000000000
40
0.0000000000
40
0.0000000000
40
0.2681839494
40
0.5228405638
40
0.7652734980
40
1.0000000000
40
1.0000000000
40
1.0000000000
40
1.0000000000
10
-8.8813970868
20
-18.3804896741
30
0.0000000000
10
-8.8634444726
20
-18.4132054033
30
0.0000000000
10
-8.8215088698
20
-18.4735471601
30
0.0000000000
10
-8.7409262037
20
-18.5448445232
30
0.0000000000
10
-8.6484571115
20
-18.5904775296
30
0.0000000000
10
-8.5818081432
20
-18.6015918222
30
0.0000000000
10
-8.5491486749
20
-18.6020112688
30
0.0000000000
11
-8.8813970868
21
-18.3804896741
31
0.0000000000
11
-8.8169722016
21
-18.4720482443
31
0.0000000000
11
-8.7368920455
21
-18.5419638973
31
0.0000000000
11
-8.6458423149
21
-18.5861464896
31
0.0000000000
11
-8.5491486749
21
-18.6020112688
31
0.0000000000
0
SPLINE
5
2E8
100
AcDbEntity
8
0
100
AcDbSpline
62
0
6
CONTINUOUS
70
0
71
3
72
10
73
6
74
4
42
0.0000001000
43
0.0000001000
44
0.0000000001
12
-0.7763494359
22
0.0000000000
32
0.0000000000
13
0.0000000000
23
-0.7763494359
33
0.0000000000
40
0.0000000000
40
0.0000000000
40
0.0000000000
40
0.0000000000
40
0.3333495664
40
0.6666499237
40
1.0000000000
40
1.0000000000
40
1.0000000000
40
1.0000000000
10
-16.9107662148
20
31.6363711933
30
0.0000000000
10
-16.9970314641
20
31.6363711933
30
0.0000000000
10
-17.1728650289
20
31.5895160719
30
0.0000000000
10
-17.3638348252
20
31.3985464382
30
0.0000000000
10
-17.4106900624
20
31.2227127270
30
0.0000000000
10
-17.4106900624
20
31.1364473458
30
0.0000000000
11
-16.9107662148
21
31.6363711933
31
0.0000000000
11
-17.1607453260
21
31.5693959512
31
0.0000000000
11
-17.3437146153
21
31.3864268119
31
0.0000000000
11
-17.4106900624
21
31.1364473458
31
0.0000000000
0
SPLINE
5
2E9
100
AcDbEntity
8
0
100
AcDbSpline
62
0
6
CONTINUOUS
70
0
71
3
72
10
73
6
74
4
42
0.0000001000
43
0.0000001000
44
0.0000000001
12
0.0000000000
22
-0.7763494359
32
0.0000000000
13
0.7763494359
23
0.0000000000
33
0.0000000000
40
0.0000000000
40
0.0000000000
40
0.0000000000
40
0.0000000000
40
0.3333495664
40
0.6666499237
40
1.0000000000
40
1.0000000000
40
1.0000000000
40
1.0000000000
10
-17.4106900624
20
-30.8637049591
30
0.0000000000
10
-17.4106900624
20
-30.9499702084
30
0.0000000000
10
-17.3638349410
20
-31.1258037732
30
0.0000000000
10
-17.1728653072
20
-31.3167735695
30
0.0000000000
10
-16.9970315960
20
-31.3636288067
30
0.0000000000
10
-16.9107662148
20
-31.3636288067
30
0.0000000000
11
-17.4106900624
21
-30.8637049591
31
0.0000000000
11
-17.3437148202
21
-31.1136840703
31
0.0000000000
11
-17.1607456809
21
-31.2966533596
31
0.0000000000
11
-16.9107662148
21
-31.3636288067
31
0.0000000000
0
SPLINE
5
2EA
100
AcDbEntity
8
0
100
AcDbSpline
62
0
6
CONTINUOUS
70
0
71
3
72
10
73
6
74
4
42
0.0000001000
43
0.0000001000
44
0.0000000001
12
0.7763494359
22
0.0000000000
32
0.0000000000
13
0.0000000000
23
0.7763494359
33
0.0000000000
40
0.0000000000
40
0.0000000000
40
0.0000000000
40
0.0000000000
40
0.3333495664
40
0.6666499237
40
1.0000000000
40
1.0000000000
40
1.0000000000
40
1.0000000000
10
17.0893860901
20
-31.3636288067
30
0.0000000000
10
17.1756513393
20
-31.3636288067
30
0.0000000000
10
17.3514849042
20
-31.3167736853
30
0.0000000000
10
17.5424547004
20
-31.1258040515
30
0.0000000000
10
17.5893099376
20
-30.9499703403
30
0.0000000000
10
17.5893099376
20
-30.8637049591
30
0.0000000000
11
17.0893860901
21
-31.3636288067
31
0.0000000000
11
17.3393652013
21
-31.2966535645
31
0.0000000000
11
17.5223344906
21
-31.1136844252
31
0.0000000000
11
17.5893099376
21
-30.8637049591
31
0.0000000000
0
SPLINE
5
2EB
100
AcDbEntity
8
0
100
AcDbSpline
62
0
6
CONTINUOUS
70
0
71
3
72
10
73
6
74
4
42
0.0000001000
43
0.0000001000
44
0.0000000001
12
0.0000000000
22
0.7763494359
32
0.0000000000
13
-0.7763494359
23
0.0000000000
33
0.0000000000
40
0.0000000000
40
0.0000000000
40
0.0000000000
40
0.0000000000
40
0.3333495664
40
0.6666499237
40
1.0000000000
40
1.0000000000
40
1.0000000000
40
1.0000000000
10
17.5893099376
20
31.1364473458
30
0.0000000000
10
17.5893099376
20
31.2227125951
30
0.0000000000
10
17.5424548162
20
31.3985461599
30
0.0000000000
10
17.3514851825
20
31.5895159561
30
0.0000000000
10
17.1756514713
20
31.6363711933
30
0.0000000000
10
17.0893860901
20
31.6363711933
30
0.0000000000
11
17.5893099376
21
31.1364473458
31
0.0000000000
11
17.5223346955
21
31.3864264570
31
0.0000000000
11
17.3393655562
21
31.5693957463
31
0.0000000000
11
17.0893860901
21
31.6363711933
31
0.0000000000
0
SPLINE
5
2EC
100
AcDbEntity
8
0
100
AcDbSpline
62
0
6
CONTINUOUS
70
0
71
3
72
10
73
6
74
4
42
0.0000001000
43
0.0000001000
44
0.0000000001
12
0.0797308656
22
0.0641790462
32
0.0000000000
13
0.0761147911
23
0.0684287914
33
0.0000000000
40
0.0000000000
40
0.0000000000
40
0.0000000000
40
0.0000000000
40
0.3394965274
40
0.6726507468
40
1.0000000000
40
1.0000000000
40
1.0000000000
40
1.0000000000
10
10.6388618635
20
-24.5425549845
30
0.0000000000
10
10.6478846475
20
-24.5352921300
30
0.0000000000
10
10.6656274243
20
-24.5207343931
30
0.0000000000
10
10.6916015406
20
-24.4986107396
30
0.0000000000
10
10.7084929096
20
-24.4836924423
30
0.0000000000
10
10.7167982829
20
-24.4762257378
30
0.0000000000
11
10.6388618635
21
-24.5425549845
31
0.0000000000
11
10.6657256160
21
-24.5205146584
31
0.0000000000
11
10.6916849953
21
-24.4984045772
31
0.0000000000
11
10.7167982829
21
-24.4762257378
31
0.0000000000
0
SPLINE
5
2ED
100
AcDbEntity
8
0
100
AcDbSpline
62
0
6
CONTINUOUS
70
0
71
3
72
10
73
6
74
4
42
0.0000001000
43
0.0000001000
44
0.0000000001
12
-0.0797308656
22
0.0641790462
32
0.0000000000
13
-0.0761147911
23
0.0684287914
33
0.0000000000
40
0.0000000000
40
0.0000000000
40
0.0000000000
40
0.0000000000
40
0.3394965274
40
0.6726507468
40
1.0000000000
40
1.0000000000
40
1.0000000000
40
1.0000000000
10
8.5397580118
20
-24.5425549845
30
0.0000000000
10
8.5307352278
20
-24.5352921300
30
0.0000000000
10
8.5129924509
20
-24.5207343931
30
0.0000000000
10
8.4870183346
20
-24.4986107396
30
0.0000000000
10
8.4701269657
20
-24.4836924423
30
0.0000000000
10
8.4618215924
20
-24.4762257378
30
0.0000000000
11
8.5397580118
21
-24.5425549845
31
0.0000000000
11
8.5128942593
21
-24.5205146584
31
0.0000000000
11
8.4869348800
21
-24.4984045772
31
0.0000000000
11
8.4618215924
21
-24.4762257378
31
0.0000000000
0
SPLINE
5
2EE
100
AcDbEntity
8
0
100
AcDbSpline
62
0
6
CONTINUOUS
70
0
71
3
72
10
73
6
74
4
42
0.0000001000
43
0.0000001000
44
0.0000000001
12
-0.0797308656
22
-0.0641790462
32
0.0000000000
13
-0.0761147911
23
-0.0684287914
33
0.0000000000
40
0.0000000000
40
0.0000000000
40
0.0000000000
40
0.0000000000
40
0.3394965274
40
0.6726507468
40
1.0000000000
40
1.0000000000
40
1.0000000000
40
1.0000000000
10
8.5397580118
20
-23.1847026288
30
0.0000000000
10
8.5307352278
20
-23.1919654833
30
0.0000000000
10
8.5129924509
20
-23.2065232202
30
0.0000000000
10
8.4870183346
20
-23.2286468737
30
0.0000000000
10
8.4701269657
20
-23.2435651710
30
0.0000000000
10
8.4618215924
20
-23.2510318755
30
0.0000000000
11
8.5397580118
21
-23.1847026288
31
0.0000000000
11
8.5128942593
21
-23.2067429549
31
0.0000000000
11
8.4869348800
21
-23.2288530361
31
0.0000000000
11
8.4618215924
21
-23.2510318755
31
0.0000000000
0
SPLINE
5
2EF
100
AcDbEntity
8
0
100
AcDbSpline
62
0
6
CONTINUOUS
70
0
71
3
72
10
73
6
74
4
42
0.0000001000
43
0.0000001000
44
0.0000000001
12
0.0797308656
22
-0.0641790462
32
0.0000000000
13
0.0761147911
23
-0.0684287914
33
0.0000000000
40
0.0000000000
40
0.0000000000
40
0.0000000000
40
0.0000000000
40
0.3394965274
40
0.6726507468
40
1.0000000000
40
1.0000000000
40
1.0000000000
40
1.0000000000
10
10.6388618635
20
-23.1847026288
30
0.0000000000
10
10.6478846475
20
-23.1919654833
30
0.0000000000
10
10.6656274243
20
-23.2065232202
30
0.0000000000
10
10.6916015406
20
-23.2286468737
30
0.0000000000
10
10.7084929096
20
-23.2435651710
30
0.0000000000
10
10.7167982829
20
-23.2510318755
30
0.0000000000
11
10.6388618635
21
-23.1847026288
31
0.0000000000
11
10.6657256160
21
-23.2067429549
31
0.0000000000
11
10.6916849953
21
-23.2288530361
31
0.0000000000
11
10.7167982829
21
-23.2510318755
31
0.0000000000
0
SPLINE
5
2F0
100
AcDbEntity
8
0
100
AcDbSpline
62
0
6
CONTINUOUS
70
0
71
3
72
10
73
6
74
4
42
0.0000001000
43
0.0000001000
44
0.0000000001
12
0.0000000000
22
0.7754840501
32
0.0000000000
13
-0.7754840501
23
0.0000000000
33
0.0000000000
40
0.0000000000
40
0.0000000000
40
0.0000000000
40
0.0000000000
40
0.3362178313
40
0.6637865831
40
1.0000000000
40
1.0000000000
40
1.0000000000
40
1.0000000000
10
17.5735876038
20
31.1213340922
30
0.0000000000
10
17.5735876038
20
31.2082446140
30
0.0000000000
10
17.5265880147
20
31.3832339993
30
0.0000000000
10
17.3361703346
20
31.5736502733
30
0.0000000000
10
17.1611822172
20
31.6206488596
30
0.0000000000
10
17.0742728365
20
31.6206488596
30
0.0000000000
11
17.5735876038
21
31.1213340922
31
0.0000000000
11
17.5056056976
21
31.3730470431
31
0.0000000000
11
17.3259827240
21
31.5526687396
31
0.0000000000
11
17.0742728365
21
31.6206488596
31
0.0000000000
0
SPLINE
5
2F1
100
AcDbEntity
8
0
100
AcDbSpline
62
0
6
CONTINUOUS
70
0
71
3
72
10
73
6
74
4
42
0.0000001000
43
0.0000001000
44
0.0000000001
12
0.0000000000
22
0.7754840501
32
0.0000000000
13
0.7754840501
23
0.0000000000
33
0.0000000000
40
0.0000000000
40
0.0000000000
40
0.0000000000
40
0.0000000000
40
0.3362178312
40
0.6637865830
40
1.0000000000
40
1.0000000000
40
1.0000000000
40
1.0000000000
10
-17.3949677286
20
31.1213340922
30
0.0000000000
10
-17.3949677286
20
31.2082446140
30
0.0000000000
10
-17.3479681394
20
31.3832339993
30
0.0000000000
10
-17.1575504593
20
31.5736502733
30
0.0000000000
10
-16.9825623420
20
31.6206488596
30
0.0000000000
10
-16.8956529612
20
31.6206488596
30
0.0000000000
11
-17.3949677286
21
31.1213340922
31
0.0000000000
11
-17.3269858224
21
31.3730470431
31
0.0000000000
11
-17.1473628487
21
31.5526687396
31
0.0000000000
11
-16.8956529612
21
31.6206488596
31
0.0000000000
0
SPLINE
5
2F2
100
AcDbEntity
8
0
100
AcDbSpline
62
0
6
CONTINUOUS
70
0
71
3
72
10
73
6
74
4
42
0.0000001000
43
0.0000001000
44
0.0000000001
12
0.0000000000
22
-0.7754840501
32
0.0000000000
13
0.7754840501
23
0.0000000000
33
0.0000000000
40
0.0000000000
40
0.0000000000
40
0.0000000000
40
0.0000000000
40
0.3362178313
40
0.6637865831
40
1.0000000000
40
1.0000000000
40
1.0000000000
40
1.0000000000
10
-17.3949677286
20
-30.8485917055
30
0.0000000000
10
-17.3949677286
20
-30.9355022273
30
0.0000000000
10
-17.3479681394
20
-31.1104916126
30
0.0000000000
10
-17.1575504593
20
-31.3009078866
30
0.0000000000
10
-16.9825623420
20
-31.3479064729
30
0.0000000000
10
-16.8956529612
20
-31.3479064729
30
0.0000000000
11
-17.3949677286
21
-30.8485917055
31
0.0000000000
11
-17.3269858224
21
-31.1003046565
31
0.0000000000
11
-17.1473628487
21
-31.2799263529
31
0.0000000000
11
-16.8956529612
21
-31.3479064729
31
0.0000000000
0
SPLINE
5
2F3
100
AcDbEntity
8
0
100
AcDbSpline
62
0
6
CONTINUOUS
70
0
71
3
72
10
73
6
74
4
42
0.0000001000
43
0.0000001000
44
0.0000000001
12
0.0000000000
22
-0.7754840501
32
0.0000000000
13
-0.7754840501
23
0.0000000000
33
0.0000000000
40
0.0000000000
40
0.0000000000
40
0.0000000000
40
0.0000000000
40
0.3362178312
40
0.6637865830
40
1.0000000000
40
1.0000000000
40
1.0000000000
40
1.0000000000
10
17.5735876038
20
-30.8485917055
30
0.0000000000
10
17.5735876038
20
-30.9355022273
30
0.0000000000
10
17.5265880147
20
-31.1104916126
30
0.0000000000
10
17.3361703346
20
-31.3009078866
30
0.0000000000
10
17.1611822172
20
-31.3479064729
30
0.0000000000
10
17.0742728365
20
-31.3479064729
30
0.0000000000
11
17.5735876038
21
-30.8485917055
31
0.0000000000
11
17.5056056976
21
-31.1003046564
31
0.0000000000
11
17.3259827240
21
-31.2799263529
31
0.0000000000
11
17.0742728365
21
-31.3479064729
31
0.0000000000
0
SPLINE
5
2F4
100
AcDbEntity
8
0
100
AcDbSpline
62
0
6
CONTINUOUS
70
0
71
3
72
12
73
8
74
6
42
0.0000001000
43
0.0000001000
44
0.0000000001
12
0.0000000000
22
8.6683307841
32
0.0000000000
13
-5.7805962941
23
6.4698926147
33
0.0000000000
40
0.0000000000
40
0.0000000000
40
0.0000000000
40
0.0000000000
40
0.1997375955
40
0.4016399371
40
0.6023775269
40
0.7997962343
40
1.0000000000
40
1.0000000000
40
1.0000000000
40
1.0000000000
10
12.5768475709
20
-10.8636288067
30
0.0000000000
10
12.5768475709
20
-10.2864982906
30
0.0000000000
10
12.4911583130
20
-9.1241845847
30
0.0000000000
10
12.1073110473
20
-7.4202285519
30
0.0000000000
10
11.4793432936
20
-5.7973244956
30
0.0000000000
10
10.6259810256
20
-4.2869087504
30
0.0000000000
10
9.9211811458
20
-3.3745951813
30
0.0000000000
10
9.5354154304
20
-2.9428295596
30
0.0000000000
11
12.5768475709
21
-10.8636288067
31
0.0000000000
11
12.4495167307
21
-9.1369257199
31
0.0000000000
11
12.0651309919
21
-7.4295023343
31
0.0000000000
11
11.4374466116
21
-5.8065973682
31
0.0000000000
11
10.5960028155
21
-4.3164671539
31
0.0000000000
11
9.5354154304
21
-2.9428295596
31
0.0000000000
0
SPLINE
5
2F5
100
AcDbEntity
8
0
100
AcDbSpline
62
0
6
CONTINUOUS
70
0
71
3
72
16
73
12
74
10
42
0.0000001000
43
0.0000001000
44
0.0000000001
12
-14.1549967224
22
15.8428826536
32
0.0000000000
13
-14.1750264365
23
-15.8256576487
33
0.0000000000
40
0.0000000000
40
0.0000000000
40
0.0000000000
40
0.0000000000
40
0.0883000432
40
0.1878341236
40
0.3031255908
40
0.4309608476
40
0.5618243943
40
0.6907279088
40
0.8082287604
40
0.9101427753
40
1.0000000000
40
1.0000000000
40
1.0000000000
40
1.0000000000
10
9.5354154304
20
-2.9428295596
30
0.0000000000
10
9.1187864898
20
-2.4765204854
30
0.0000000000
10
8.1558592866
20
-1.5530232731
30
0.0000000000
10
6.3807032029
20
-0.3311362908
30
0.0000000000
10
4.1541929637
20
0.6661558910
30
0.0000000000
10
1.5518626599
20
1.2453444133
30
0.0000000000
10
-1.2116385537
20
1.2633305711
30
0.0000000000
10
-3.8440144741
20
0.7111344486
30
0.0000000000
10
-6.1175217271
20
-0.2809157932
30
0.0000000000
10
-7.9364496233
20
-1.5171139723
30
0.0000000000
10
-8.9221371025
20
-2.4575425544
30
0.0000000000
10
-9.3467132813
20
-2.9315591131
30
0.0000000000
11
9.5354154304
21
-2.9428295596
31
0.0000000000
11
8.1831609591
21
-1.6450167633
31
0.0000000000
11
6.4433957302
21
-0.4463284833
31
0.0000000000
11
4.2105185352
21
0.5551982727
31
0.0000000000
11
1.5621039604
21
1.1457571210
31
0.0000000000
11
-1.2155750853
21
1.1638691270
31
0.0000000000
11
-3.8932054327
21
0.6010857447
31
0.0000000000
11
-6.1786237160
21
-0.3976090119
31
0.0000000000
11
-7.9672043652
21
-1.6144186390
31
0.0000000000
11
-9.3467132813
21
-2.9315591131
31
0.0000000000
0
SPLINE
5
2F6
100
AcDbEntity
8
0
100
AcDbSpline
62
0
6
CONTINUOUS
70
0
71
3
72
12
73
8
74
6
42
0.0000001000
43
0.0000001000
44
0.0000000001
12
-5.7988482901
22
-6.4741034668
32
0.0000000000
13
0.0000000000
23
-8.6834134118
33
0.0000000000
40
0.0000000000
40
0.0000000000
40
0.0000000000
40
0.0000000000
40
0.2017569553
40
0.3987120788
40
0.5984429690
40
0.8000711756
40
1.0000000000
40
1.0000000000
40
1.0000000000
40
1.0000000000
10
-9.3467132813
20
-2.9315591131
30
0.0000000000
10
-9.7366992730
20
-3.3669575810
30
0.0000000000
10
-10.4452284977
20
-4.2830219025
30
0.0000000000
10
-11.3000709672
20
-5.7963311205
30
0.0000000000
10
-11.9276256796
20
-7.4171593623
30
0.0000000000
10
-12.3121733599
20
-9.1208335093
30
0.0000000000
10
-12.3982276956
20
-10.2849405948
30
0.0000000000
10
-12.3982276956
20
-10.8636288067
30
0.0000000000
11
-9.3467132813
21
-2.9315591131
31
0.0000000000
11
-10.4181717640
21
-4.3176569307
31
0.0000000000
11
-11.2589880865
21
-5.8069380374
31
0.0000000000
11
-11.8849508102
21
-7.4243824216
31
0.0000000000
11
-12.2702087345
21
-9.1322907216
31
0.0000000000
11
-12.3982276956
21
-10.8636288067
31
0.0000000000
0
SPLINE
5
2F7
100
AcDbEntity
8
0
100
AcDbSpline
62
0
6
CONTINUOUS
70
0
71
3
72
12
73
8
74
6
42
0.0000001000
43
0.0000001000
44
0.0000000001
12
0.0000000000
22
-8.6683307841
32
0.0000000000
13
5.7805962941
23
-6.4698926147
33
0.0000000000
40
0.0000000000
40
0.0000000000
40
0.0000000000
40
0.0000000000
40
0.1997375955
40
0.4016399371
40
0.6023775269
40
0.7997962343
40
1.0000000000
40
1.0000000000
40
1.0000000000
40
1.0000000000
10
-12.3982276956
20
-10.8636288067
30
0.0000000000
10
-12.3982276956
20
-11.4407593227
30
0.0000000000
10
-12.3125384378
20
-12.6030730286
30
0.0000000000
10
-11.9286911720
20
-14.3070290614
30
0.0000000000
10
-11.3007234183
20
-15.9299331177
30
0.0000000000
10
-10.4473611503
20
-17.4403488630
30
0.0000000000
10
-9.7425612705
20
-18.3526624320
30
0.0000000000
10
-9.3567955551
20
-18.7844280537
30
0.0000000000
11
-12.3982276956
21
-10.8636288067
31
0.0000000000
11
-12.2708968555
21
-12.5903318934
31
0.0000000000
11
-11.8865111166
21
-14.2977552790
31
0.0000000000
11
-11.2588267364
21
-15.9206602451
31
0.0000000000
11
-10.4173829402
21
-17.4107904594
31
0.0000000000
11
-9.3567955551
21
-18.7844280537
31
0.0000000000
0
SPLINE
5
2F8
100
AcDbEntity
8
0
100
AcDbSpline
62
0
6
CONTINUOUS
70
0
71
3
72
16
73
12
74
10
42
0.0000001000
43
0.0000001000
44
0.0000000001
12
14.1549967224
22
-15.8428826536
32
0.0000000000
13
14.1750264365
23
15.8256576487
33
0.0000000000
40
0.0000000000
40
0.0000000000
40
0.0000000000
40
0.0000000000
40
0.0883000432
40
0.1878341236
40
0.3031255908
40
0.4309608476
40
0.5618243943
40
0.6907279088
40
0.8082287604
40
0.9101427753
40
1.0000000000
40
1.0000000000
40
1.0000000000
40
1.0000000000
10
-9.3567955551
20
-18.7844280537
30
0.0000000000
10
-8.9401666145
20
-19.2507371279
30
0.0000000000
10
-7.9772394114
20
-20.1742343402
30
0.0000000000
10
-6.2020833277
20
-21.3961213225
30
0.0000000000
10
-3.9755730884
20
-22.3934135043
30
0.0000000000
10
-1.3732427846
20
-22.9726020266
30
0.0000000000
10
1.3902584290
20
-22.9905881845
30
0.0000000000
10
4.0226343494
20
-22.4383920619
30
0.0000000000
10
6.2961416024
20
-21.4463418201
30
0.0000000000
10
8.1150694986
20
-20.2101436410
30
0.0000000000
10
9.1007569778
20
-19.2697150589
30
0.0000000000
10
9.5253331565
20
-18.7956985002
30
0.0000000000
11
-9.3567955551
21
-18.7844280537
31
0.0000000000
11
-8.0045410838
21
-20.0822408500
31
0.0000000000
11
-6.2647758550
21
-21.2809291300
31
0.0000000000
11
-4.0318986599
21
-22.2824558860
31
0.0000000000
11
-1.3834840852
21
-22.8730147343
31
0.0000000000
11
1.3941949605
21
-22.8911267403
31
0.0000000000
11
4.0718253080
21
-22.3283433580
31
0.0000000000
11
6.3572435913
21
-21.3296486014
31
0.0000000000
11
8.1458242405
21
-20.1128389743
31
0.0000000000
11
9.5253331565
21
-18.7956985002
31
0.0000000000
0
SPLINE
5
2F9
100
AcDbEntity
8
0
100
AcDbSpline
62
0
6
CONTINUOUS
70
0
71
3
72
12
73
8
74
6
42
0.0000001000
43
0.0000001000
44
0.0000000001
12
5.7988482901
22
6.4741034668
32
0.0000000000
13
0.0000000000
23
8.6834134118
33
0.0000000000
40
0.0000000000
40
0.0000000000
40
0.0000000000
40
0.0000000000
40
0.2017569553
40
0.3987120788
40
0.5984429690
40
0.8000711756
40
1.0000000000
40
1.0000000000
40
1.0000000000
40
1.0000000000
10
9.5253331565
20
-18.7956985002
30
0.0000000000
10
9.9153191483
20
-18.3603000323
30
0.0000000000
10
10.6238483730
20
-17.4442357108
30
0.0000000000
10
11.4786908425
20
-15.9309264929
30
0.0000000000
10
12.1062455549
20
-14.3100982510
30
0.0000000000
10
12.4907932352
20
-12.6064241041
30
0.0000000000
10
12.5768475709
20
-11.4423170185
30
0.0000000000
10
12.5768475709
20
-10.8636288067
30
0.0000000000
11
9.5253331565
21
-18.7956985002
31
0.0000000000
11
10.5967916393
21
-17.4096006826
31
0.0000000000
11
11.4376079618
21
-15.9203195759
31
0.0000000000
11
12.0635706855
21
-14.3028751917
31
0.0000000000
11
12.4488286097
21
-12.5949668917
31
0.0000000000
11
12.5768475709
21
-10.8636288067
31
0.0000000000
0
SPLINE
5
2FA
100
AcDbEntity
8
0
100
AcDbSpline
62
0
6
CONTINUOUS
70
0
71
3
72
10
73
6
74
4
42
0.0000001000
43
0.0000001000
44
0.0000000001
12
30.5485166369
22
0.2741640307
32
0.0000000000
13
30.5485166476
23
-0.2741628357
33
0.0000000000
40
0.0000000000
40
0.0000000000
40
0.0000000000
40
0.0000000000
40
0.3326402694
40
0.6673599955
40
1.0000000000
40
1.0000000000
40
1.0000000000
40
1.0000000000
10
-15.1853839414
20
-30.2234848969
30
0.0000000000
10
-11.7981616736
20
-30.1930855646
30
0.0000000000
10
-5.0023384807
20
-30.1529042779
30
0.0000000000
10
5.1809630129
20
-30.1529041160
30
0.0000000000
10
11.9767835059
20
-30.1930857168
30
0.0000000000
10
15.3640030771
20
-30.2234848925
30
0.0000000000
11
-15.1853839414
21
-30.2234848969
31
0.0000000000
11
-5.0234878409
21
-30.1630122716
31
0.0000000000
11
5.2021150704
21
-30.1630122504
31
0.0000000000
11
15.3640030771
21
-30.2234848925
31
0.0000000000
0
SPLINE
5
2FB
100
AcDbEntity
8
0
100
AcDbSpline
62
0
6
CONTINUOUS
70
0
71
3
72
10
73
6
74
4
42
0.0000001000
43
0.0000001000
44
0.0000000001
12
-30.5485166478
22
-0.2741628257
32
0.0000000000
13
-30.5485166369
23
0.2741640409
33
0.0000000000
40
0.0000000000
40
0.0000000000
40
0.0000000000
40
0.0000000000
40
0.3326400046
40
0.6673597308
40
1.0000000000
40
1.0000000000
40
1.0000000000
40
1.0000000000
10
15.3640030727
20
30.4962272791
30
0.0000000000
10
11.9767834999
20
30.4658281046
30
0.0000000000
10
5.1809630054
20
30.4256465020
30
0.0000000000
10
-5.0023384882
20
30.4256466653
30
0.0000000000
10
-11.7981616797
20
30.4658279502
30
0.0000000000
10
-15.1853839459
20
30.4962272836
30
0.0000000000
11
15.3640030727
21
30.4962272791
31
0.0000000000
11
5.2021150614
21
30.4357546371
31
0.0000000000
11
-5.0234878499
21
30.4357546583
31
0.0000000000
11
-15.1853839459
21
30.4962272836
31
0.0000000000
0
SPLINE
5
2FC
100
AcDbEntity
8
0
100
AcDbSpline
62
0
6
CONTINUOUS
70
0
71
3
72
14
73
10
74
8
42
0.0000001000
43
0.0000001000
44
0.0000000001
12
6.9419387739
22
0.0000000000
32
0.0000000000
13
-6.9419387739
23
0.0000000000
33
0.0000000000
40
0.0000000000
40
0.0000000000
40
0.0000000000
40
0.0000000000
40
0.1405302027
40
0.2831564056
40
0.4280984810
40
0.5740184362
40
0.7187188409
40
0.8607117661
40
1.0000000000
40
1.0000000000
40
1.0000000000
40
1.0000000000
10
-9.4106900624
20
-21.6136288067
30
0.0000000000
10
-9.0855060413
20
-21.6136288067
30
0.0000000000
10
-8.4210065471
20
-21.7671091545
30
0.0000000000
10
-7.6267174146
20
-22.4125098488
30
0.0000000000
10
-7.1833022035
20
-23.3500870417
30
0.0000000000
10
-7.1867236890
20
-24.3917847482
30
0.0000000000
10
-7.6350480403
20
-25.3245994285
30
0.0000000000
10
-8.4284529375
20
-25.9626261802
30
0.0000000000
10
-9.0883799317
20
-26.1136288067
30
0.0000000000
10
-9.4106900624
20
-26.1136288067
30
0.0000000000
11
-9.4106900624
21
-21.6136288067
31
0.0000000000
11
-8.4601958697
21
-21.8333163519
31
0.0000000000
11
-7.6899034990
21
-22.4553713031
31
0.0000000000
11
-7.2587512598
21
-23.3644939315
31
0.0000000000
11
-7.2620846652
21
-24.3774558420
31
0.0000000000
11
-7.6981953192
21
-25.2823483549
31
0.0000000000
11
-8.4681555315
21
-25.8977977592
31
0.0000000000
11
-9.4106900624
21
-26.1136288067
31
0.0000000000
0
SPLINE
5
2FD
100
AcDbEntity
8
0
100
AcDbSpline
62
0
6
CONTINUOUS
70
0
71
3
72
14
73
10
74
8
42
0.0000001000
43
0.0000001000
44
0.0000000001
12
-6.9343814410
22
0.0000000000
32
0.0000000000
13
6.9343814410
23
0.0000000000
33
0.0000000000
40
0.0000000000
40
0.0000000000
40
0.0000000000
40
0.0000000000
40
0.1405329721
40
0.2830416099
40
0.4280198924
40
0.5740988683
40
0.7188325636
40
0.8607079126
40
1.0000000000
40
1.0000000000
40
1.0000000000
40
1.0000000000
10
-9.4106900624
20
-26.1136288067
30
0.0000000000
10
-9.7355264737
20
-26.1136288067
30
0.0000000000
10
-10.3991934623
20
-25.9604482145
30
0.0000000000
10
-11.1914957192
20
-25.3142805479
30
0.0000000000
10
-11.6322420439
20
-24.3766633685
30
0.0000000000
10
-11.6288474737
20
-23.3359904570
30
0.0000000000
10
-11.1831981535
20
-22.4031128222
30
0.0000000000
10
-10.3917554294
20
-21.7643343585
30
0.0000000000
10
-9.7326582177
20
-21.6136288067
30
0.0000000000
10
-9.4106900624
20
-21.6136288067
30
0.0000000000
11
-9.4106900624
21
-26.1136288067
31
0.0000000000
11
-10.3601139031
21
-25.8939412614
31
0.0000000000
11
-11.1279714192
21
-25.2718863102
31
0.0000000000
11
-11.5571496214
21
-24.3627636818
31
0.0000000000
11
-11.5538331588
21
-23.3498017713
31
0.0000000000
11
-11.1197132672
21
-22.4449092584
31
0.0000000000
11
-10.3521720835
21
-21.8294598541
31
0.0000000000
11
-9.4106900624
21
-21.6136288067
31
0.0000000000
0
SPLINE
5
2FE
100
AcDbEntity
8
0
100
AcDbSpline
62
0
6
CONTINUOUS
70
0
71
3
72
13
73
9
74
7
42
0.0000001000
43
0.0000001000
44
0.0000000001
12
6.9114199662
22
0.0000000000
32
0.0000000000
13
-6.9114199662
23
0.0000000000
33
0.0000000000
40
0.0000000000
40
0.0000000000
40
0.0000000000
40
0.0000000000
40
0.1633161394
40
0.3306880657
40
0.5005252075
40
0.6703213448
40
0.8376944979
40
1.0000000000
40
1.0000000000
40
1.0000000000
40
1.0000000000
10
9.5893099376
20
-21.6136288067
30
0.0000000000
10
9.9655587465
20
-21.6136288067
30
0.0000000000
10
10.7419596648
20
-21.8231467294
30
0.0000000000
10
11.5846273602
20
-22.6858942244
30
0.0000000000
10
11.8933415008
20
-23.8674554149
30
0.0000000000
10
11.5808755791
20
-25.0480139671
30
0.0000000000
10
10.7370641022
20
-25.9062244143
30
0.0000000000
10
9.9632304336
20
-26.1136288067
30
0.0000000000
10
9.5893099376
20
-26.1136288067
30
0.0000000000
11
9.5893099376
21
-21.6136288067
31
0.0000000000
11
10.6788597958
21
-21.9085009859
31
0.0000000000
11
11.4911997279
21
-22.7320533033
31
0.0000000000
11
11.7893122556
21
-23.8673825437
31
0.0000000000
11
11.4876233400
21
-25.0014734233
31
0.0000000000
11
10.6726043244
21
-25.8223864555
31
0.0000000000
11
9.5893099376
21
-26.1136288067
31
0.0000000000
0
SPLINE
5
2FF
100
AcDbEntity
8
0
100
AcDbSpline
62
0
6
CONTINUOUS
70
0
71
3
72
13
73
9
74
7
42
0.0000001000
43
0.0000001000
44
0.0000000001
12
-6.9189468662
22
0.0000000000
32
0.0000000000
13
6.9189468662
23
0.0000000000
33
0.0000000000
40
0.0000000000
40
0.0000000000
40
0.0000000000
40
0.0000000000
40
0.1633351740
40
0.3308186602
40
0.5005246098
40
0.6701908573
40
0.8376765302
40
1.0000000000
40
1.0000000000
40
1.0000000000
40
1.0000000000
10
9.5893099376
20
-26.1136288067
30
0.0000000000
10
9.2126074741
20
-26.1136288067
30
0.0000000000
10
8.4353404268
20
-25.9037712058
30
0.0000000000
10
7.5899300590
20
-25.0422721508
30
0.0000000000
10
7.2787377662
20
-23.8597963295
30
0.0000000000
10
7.5937054891
20
-22.6783389048
30
0.0000000000
10
8.4402400846
20
-21.8213739316
30
0.0000000000
10
9.2149407835
20
-21.6136288067
30
0.0000000000
10
9.5893099376
20
-21.6136288067
30
0.0000000000
11
9.5893099376
21
-26.1136288067
31
0.0000000000
11
8.4983502169
21
-25.8187566274
31
0.0000000000
11
7.6831197764
21
-24.9952043100
31
0.0000000000
11
7.3835512016
21
-23.8598750696
31
0.0000000000
11
7.6867123424
21
-22.7257841901
31
0.0000000000
11
8.5046218418
21
-21.9048711578
31
0.0000000000
11
9.5893099376
21
-21.6136288067
31
0.0000000000
0
SPLINE
5
300
100
AcDbEntity
8
0
100
AcDbSpline
62
0
6
CONTINUOUS
70
0
71
3
72
10
73
6
74
4
42
0.0000001000
43
0.0000001000
44
0.0000000001
12
-0.8817306629
22
-0.8823060116
32
0.0000000000
13
-1.2473117968
23
-0.0112312792
33
0.0000000000
40
0.0000000000
40
0.0000000000
40
0.0000000000
40
0.0000000000
40
0.1490201764
40
0.5051756774
40
1.0000000000
40
1.0000000000
40
1.0000000000
40
1.0000000000
10
16.5225230988
20
31.0688991219
30
0.0000000000
10
16.4787245458
20
31.0250719894
30
0.0000000000
10
16.2362599465
20
31.0504706478
30
0.0000000000
10
15.8482317158
20
30.9906494545
30
0.0000000000
10
15.4848906481
20
30.9973946317
30
0.0000000000
10
15.2791572431
20
30.9955421284
30
0.0000000000
11
16.5225230988
21
31.0688991219
31
0.0000000000
11
16.3397180839
21
31.0352167290
31
0.0000000000
11
15.8962348005
21
31.0090432152
31
0.0000000000
11
15.2791572431
21
30.9955421284
31
0.0000000000
0
SPLINE
5
301
100
AcDbEntity
8
0
100
AcDbSpline
62
0
6
CONTINUOUS
70
0
71
3
72
10
73
6
74
4
42
0.0000001000
43
0.0000001000
44
0.0000000001
12
-30.3788193802
22
-0.2741627141
32
0.0000000000
13
-30.3788193692
23
0.2741639320
33
0.0000000000
40
0.0000000000
40
0.0000000000
40
0.0000000000
40
0.0000000000
40
0.3326272302
40
0.6673696829
40
1.0000000000
40
1.0000000000
40
1.0000000000
40
1.0000000000
10
15.2791572431
20
30.9955421284
30
0.0000000000
10
11.9108830607
20
30.9651441336
30
0.0000000000
10
5.1527103645
20
30.9249610412
30
0.0000000000
10
-4.9740279683
20
30.9249609487
30
0.0000000000
10
-11.7322319280
20
30.9651437165
30
0.0000000000
10
-15.1005373678
20
30.9955421284
30
0.0000000000
11
15.2791572431
21
30.9955421284
31
0.0000000000
11
5.1741041385
21
30.9350705799
31
0.0000000000
11
-4.9953904833
21
30.9350703429
31
0.0000000000
11
-15.1005373678
21
30.9955421284
31
0.0000000000
0
SPLINE
5
302
100
AcDbEntity
8
0
100
AcDbSpline
62
0
6
CONTINUOUS
70
0
71
3
72
10
73
6
74
4
42
0.0000001000
43
0.0000001000
44
0.0000000001
12
-1.2473120396
22
0.0112312237
32
0.0000000000
13
-0.8817392697
23
0.8822977528
33
0.0000000000
40
0.0000000000
40
0.0000000000
40
0.0000000000
40
0.0000000000
40
0.4949227407
40
0.8510358712
40
1.0000000000
40
1.0000000000
40
1.0000000000
40
1.0000000000
10
-15.1005373678
20
30.9955421284
30
0.0000000000
10
-15.3063117322
20
30.9973949910
30
0.0000000000
10
-15.6696779589
20
30.9906498057
30
0.0000000000
10
-16.0577079756
20
31.0504676236
30
0.0000000000
10
-16.3001207161
20
31.0250888832
30
0.0000000000
10
-16.3439032235
20
31.0688991219
30
0.0000000000
11
-15.1005373678
21
30.9955421284
31
0.0000000000
11
-15.7177377356
21
31.0090478731
31
0.0000000000
11
-16.1611680488
21
31.0352233048
31
0.0000000000
11
-16.3439032235
21
31.0688991219
31
0.0000000000
0
SPLINE
5
303
100
AcDbEntity
8
0
100
AcDbSpline
62
0
6
CONTINUOUS
70
0
71
3
72
10
73
6
74
4
42
0.0000001000
43
0.0000001000
44
0.0000000001
12
0.8817306629
22
0.8823060116
32
0.0000000000
13
1.2473117968
23
0.0112312792
33
0.0000000000
40
0.0000000000
40
0.0000000000
40
0.0000000000
40
0.0000000000
40
0.1490201764
40
0.5051756774
40
1.0000000000
40
1.0000000000
40
1.0000000000
40
1.0000000000
10
-16.3439032235
20
-30.7961567352
30
0.0000000000
10
-16.3001046705
20
-30.7523296027
30
0.0000000000
10
-16.0576400712
20
-30.7777282611
30
0.0000000000
10
-15.6696118405
20
-30.7179070678
30
0.0000000000
10
-15.3062707728
20
-30.7246522451
30
0.0000000000
10
-15.1005373678
20
-30.7227997417
30
0.0000000000
11
-16.3439032235
21
-30.7961567352
31
0.0000000000
11
-16.1610982086
21
-30.7624743423
31
0.0000000000
11
-15.7176149253
21
-30.7363008285
31
0.0000000000
11
-15.1005373678
21
-30.7227997417
31
0.0000000000
0
SPLINE
5
304
100
AcDbEntity
8
0
100
AcDbSpline
62
0
6
CONTINUOUS
70
0
71
3
72
10
73
6
74
4
42
0.0000001000
43
0.0000001000
44
0.0000000001
12
30.3788193693
22
0.2741639246
32
0.0000000000
13
30.3788193801
23
-0.2741627213
33
0.0000000000
40
0.0000000000
40
0.0000000000
40
0.0000000000
40
0.0000000000
40
0.3326303174
40
0.6673727701
40
1.0000000000
40
1.0000000000
40
1.0000000000
40
1.0000000000
10
-15.1005373678
20
-30.7227997417
30
0.0000000000
10
-11.7322319250
20
-30.6924013306
30
0.0000000000
10
-4.9740279623
20
-30.6522185615
30
0.0000000000
10
5.1527103705
20
-30.6522186550
30
0.0000000000
10
11.9108830636
20
-30.6924017462
30
0.0000000000
10
15.2791572431
20
-30.7227997417
30
0.0000000000
11
-15.1005373678
21
-30.7227997417
31
0.0000000000
11
-4.9953904743
21
-30.6623279561
31
0.0000000000
11
5.1741041474
21
-30.6623281932
31
0.0000000000
11
15.2791572431
21
-30.7227997417
31
0.0000000000
0
SPLINE
5
305
100
AcDbEntity
8
0
100
AcDbSpline
62
0
6
CONTINUOUS
70
0
71
3
72
10
73
6
74
4
42
0.0000001000
43
0.0000001000
44
0.0000000001
12
1.2473120396
22
-0.0112312237
32
0.0000000000
13
0.8817392697
23
-0.8822977528
33
0.0000000000
40
0.0000000000
40
0.0000000000
40
0.0000000000
40
0.0000000000
40
0.4949227407
40
0.8510358712
40
1.0000000000
40
1.0000000000
40
1.0000000000
40
1.0000000000
10
15.2791572431
20
-30.7227997417
30
0.0000000000
10
15.4849316075
20
-30.7246526043
30
0.0000000000
10
15.8482978341
20
-30.7179074190
30
0.0000000000
10
16.2363278508
20
-30.7777252369
30
0.0000000000
10
16.4787405914
20
-30.7523464965
30
0.0000000000
10
16.5225230988
20
-30.7961567352
30
0.0000000000
11
15.2791572431
21
-30.7227997417
31
0.0000000000
11
15.8963576109
21
-30.7363054864
31
0.0000000000
11
16.3397879241
21
-30.7624809181
31
0.0000000000
11
16.5225230988
21
-30.7961567352
31
0.0000000000
0
SPLINE
5
306
100
AcDbEntity
8
0
100
AcDbSpline
62
0
6
CONTINUOUS
70
0
71
3
72
8
73
4
74
2
42
0.0000001000
43
0.0000001000
44
0.0000000001
12
0.0000000000
22
-0.2178331369
32
0.0000000000
13
0.0374773465
23
-0.2168000099
33
0.0000000000
40
0.0000000000
40
0.0000000000
40
0.0000000000
40
0.0000000000
40
1.0000000000
40
1.0000000000
40
1.0000000000
40
1.0000000000
10
8.2928225962
20
-23.8636288067
30
0.0000000000
10
8.2928225962
20
-23.9362398523
30
0.0000000000
10
8.2992117549
20
-24.0092910339
30
0.0000000000
10
8.3117042037
20
-24.0815577039
30
0.0000000000
11
8.2928225962
21
-23.8636288067
31
0.0000000000
11
8.3117042037
21
-24.0815577039
31
0.0000000000
0
SPLINE
5
307
100
AcDbEntity
8
0
100
AcDbSpline
62
0
6
CONTINUOUS
70
0
71
3
72
10
73
6
74
4
42
0.0000001000
43
0.0000001000
44
0.0000000001
12
0.2986121438
22
-1.7274199438
32
0.0000000000
13
1.7337696250
23
-0.0808065629
33
0.0000000000
40
0.0000000000
40
0.0000000000
40
0.0000000000
40
0.0000000000
40
0.2491995888
40
0.6243077619
40
1.0000000000
40
1.0000000000
40
1.0000000000
40
1.0000000000
10
8.3117042037
20
-24.0815577039
30
0.0000000000
10
8.3365088782
20
-24.2250484838
30
0.0000000000
10
8.4589327944
20
-24.5767804534
30
0.0000000000
10
8.8744333799
20
-25.0127047747
30
0.0000000000
10
9.3109110897
20
-25.1476129621
30
0.0000000000
10
9.5280323533
20
-25.1577324283
30
0.0000000000
11
8.3117042037
21
-24.0815577039
31
0.0000000000
11
8.4560671115
21
-24.4931645321
31
0.0000000000
11
8.9052722109
21
-24.9644289744
31
0.0000000000
11
9.5280323533
21
-25.1577324283
31
0.0000000000
0
SPLINE
5
308
100
AcDbEntity
8
0
100
AcDbSpline
62
0
6
CONTINUOUS
70
0
71
3
72
10
73
6
74
4
42
0.0000001000
43
0.0000001000
44
0.0000000001
12
1.8370598406
22
-0.0856206554
32
0.0000000000
13
0.3364585886
23
1.8291236611
33
0.0000000000
40
0.0000000000
40
0.0000000000
40
0.0000000000
40
0.0000000000
40
0.3757658888
40
0.7508776996
40
1.0000000000
40
1.0000000000
40
1.0000000000
40
1.0000000000
10
9.5280323533
20
-25.1577324283
30
0.0000000000
10
9.7581338279
20
-25.1684568689
30
0.0000000000
10
10.2333125464
20
-25.0612210087
30
0.0000000000
10
10.6969676706
20
-24.6179770385
30
0.0000000000
10
10.8346222420
20
-24.2466198837
30
0.0000000000
10
10.8625620212
20
-24.0947280523
30
0.0000000000
11
9.5280323533
21
-25.1577324283
31
0.0000000000
11
10.2019135097
21
-25.0046327640
31
0.0000000000
11
10.7005776091
21
-24.5279479971
31
0.0000000000
11
10.8625620212
21
-24.0947280523
31
0.0000000000
0
SPLINE
5
309
100
AcDbEntity
8
0
100
AcDbSpline
62
0
6
CONTINUOUS
70
0
71
3
72
8
73
4
74
2
42
0.0000001000
43
0.0000001000
44
0.0000000001
12
0.0422606375
22
0.2297457535
32
0.0000000000
13
0.0000000000
23
0.2309930513
33
0.0000000000
40
0.0000000000
40
0.0000000000
40
0.0000000000
40
0.0000000000
40
1.0000000000
40
1.0000000000
40
1.0000000000
40
1.0000000000
10
10.8625620212
20
-24.0947280523
30
0.0000000000
10
10.8766489003
20
-24.0181461345
30
0.0000000000
10
10.8838732537
20
-23.9406264904
30
0.0000000000
10
10.8838732537
20
-23.8636288067
30
0.0000000000
11
10.8625620212
21
-24.0947280523
31
0.0000000000
11
10.8838732537
21
-23.8636288067
31
0.0000000000
0
SPLINE
5
30A
100
AcDbEntity
8
0
100
AcDbSpline
62
0
6
CONTINUOUS
70
0
71
3
72
10
73
6
74
4
42
0.0000001000
43
0.0000001000
44
0.0000000001
12
-1.7337954140
22
-0.0808077649
32
0.0000000000
13
-0.2985800751
23
-1.7274479044
33
0.0000000000
40
0.0000000000
40
0.0000000000
40
0.0000000000
40
0.0000000000
40
0.3757349005
40
0.7508252505
40
1.0000000000
40
1.0000000000
40
1.0000000000
40
1.0000000000
10
9.5280323533
20
-22.5695251850
30
0.0000000000
10
9.3108832042
20
-22.5796459508
30
0.0000000000
10
8.8743828552
20
-22.7145772562
30
0.0000000000
10
8.4589038936
20
-23.1505316256
30
0.0000000000
10
8.3364991657
20
-23.5022469609
30
0.0000000000
10
8.3116996272
20
-23.6457257605
30
0.0000000000
11
9.5280323533
21
-22.5695251850
31
0.0000000000
11
8.9051986848
21
-22.7628742660
31
0.0000000000
11
8.4560357320
21
-23.2341495222
31
0.0000000000
11
8.3116996272
21
-23.6457257605
31
0.0000000000
0
SPLINE
5
30B
100
AcDbEntity
8
0
100
AcDbSpline
62
0
6
CONTINUOUS
70
0
71
3
72
8
73
4
74
2
42
0.0000001000
43
0.0000001000
44
0.0000000001
12
-0.0374683208
22
-0.2167745860
32
0.0000000000
13
0.0000000000
23
-0.2178073061
33
0.0000000000
40
0.0000000000
40
0.0000000000
40
0.0000000000
40
0.0000000000
40
1.0000000000
40
1.0000000000
40
1.0000000000
40
1.0000000000
10
8.3116996272
20
-23.6457257605
30
0.0000000000
10
8.2992101870
20
-23.7179839558
30
0.0000000000
10
8.2928225962
20
-23.7910263713
30
0.0000000000
10
8.2928225962
20
-23.8636288067
30
0.0000000000
11
8.3116996272
21
-23.6457257605
31
0.0000000000
11
8.2928225962
21
-23.8636288067
31
0.0000000000
0
SPLINE
5
30C
100
AcDbEntity
8
0
100
AcDbSpline
62
0
6
CONTINUOUS
70
0
71
3
72
10
73
6
74
4
42
0.0000001000
43
0.0000001000
44
0.0000000001
12
-0.0021219322
22
0.7747794639
32
0.0000000000
13
-0.7747794639
23
0.0021219327
33
0.0000000000
40
0.0000000000
40
0.0000000000
40
0.0000000000
40
0.0000000000
40
0.3333641319
40
0.6668649569
40
1.0000000000
40
1.0000000000
40
1.0000000000
40
1.0000000000
10
17.0218378661
20
30.5695843545
30
0.0000000000
10
17.0216020741
20
30.6556789156
30
0.0000000000
10
16.9743886807
20
30.8310397415
30
0.0000000000
10
16.7838539440
20
31.0215020811
30
0.0000000000
10
16.6085584953
20
31.0686634918
30
0.0000000000
10
16.5225230986
20
31.0688991219
30
0.0000000000
11
17.0218378661
21
30.5695843545
31
0.0000000000
11
16.9544446547
21
30.8189217094
31
0.0000000000
11
16.7717014613
21
31.0015979435
31
0.0000000000
11
16.5225230986
21
31.0688991219
31
0.0000000000
0
SPLINE
5
30D
100
AcDbEntity
8
0
100
AcDbSpline
62
0
6
CONTINUOUS
70
0
71
3
72
10
73
6
74
4
42
0.0000001000
43
0.0000001000
44
0.0000000001
12
-0.0044946583
22
0.5127922866
32
0.0000000000
13
-0.4907055443
23
0.1489436132
33
0.0000000000
40
0.0000000000
40
0.0000000000
40
0.0000000000
40
0.0000000000
40
0.4735483276
40
0.8328216668
40
1.0000000000
40
1.0000000000
40
1.0000000000
40
1.0000000000
10
15.3640159847
20
30.4962273610
30
0.0000000000
10
15.3633065054
20
30.5771713376
30
0.0000000000
10
15.3577829081
20
30.7255099069
30
0.0000000000
10
15.3296672265
20
30.8771393914
30
0.0000000000
10
15.3065023548
20
30.9872420800
30
0.0000000000
10
15.2791572431
20
30.9955421283
30
0.0000000000
11
15.3640159847
21
30.4962273610
31
0.0000000000
11
15.3512403372
21
30.7387323283
31
0.0000000000
11
15.3203713048
21
30.9203675680
31
0.0000000000
11
15.2791572431
21
30.9955421283
31
0.0000000000
0
SPLINE
5
30E
100
AcDbEntity
8
0
100
AcDbSpline
62
0
6
CONTINUOUS
70
0
71
3
72
10
73
6
74
4
42
0.0000001000
43
0.0000001000
44
0.0000000001
12
0.0044919053
22
0.5127539341
32
0.0000000000
13
0.4900340058
23
0.1510081035
33
0.0000000000
40
0.0000000000
40
0.0000000000
40
0.0000000000
40
0.0000000000
40
0.4733783586
40
0.8326373566
40
1.0000000000
40
1.0000000000
40
1.0000000000
40
1.0000000000
10
-15.1853116285
20
30.4962273941
30
0.0000000000
10
-15.1846028382
20
30.5771362661
30
0.0000000000
10
-15.1790971749
20
30.7253891845
30
0.0000000000
10
-15.1509643945
20
30.8771316504
30
0.0000000000
10
-15.1278751633
20
30.9871175988
30
0.0000000000
10
-15.1005373678
20
30.9955419706
30
0.0000000000
11
-15.1853116285
21
30.4962273941
31
0.0000000000
11
-15.1725507955
21
30.7386276676
31
0.0000000000
11
-15.1417152185
21
30.9202471465
31
0.0000000000
11
-15.1005373678
21
30.9955419706
31
0.0000000000
0
SPLINE
5
30F
100
AcDbEntity
8
0
100
AcDbSpline
62
0
6
CONTINUOUS
70
0
71
3
72
10
73
6
74
4
42
0.0000001000
43
0.0000001000
44
0.0000000001
12
0.0021221610
22
0.7747793925
32
0.0000000000
13
0.7747793925
23
0.0021221615
33
0.0000000000
40
0.0000000000
40
0.0000000000
40
0.0000000000
40
0.0000000000
40
0.3332577885
40
0.6667424862
40
1.0000000000
40
1.0000000000
40
1.0000000000
40
1.0000000000
10
-16.8432179909
20
30.5695843545
30
0.0000000000
10
-16.8429822487
20
30.6556514435
30
0.0000000000
10
-16.7957939258
20
30.8309776996
30
0.0000000000
10
-16.6052964192
20
31.0214751192
30
0.0000000000
10
-16.4299702415
20
31.0686633798
30
0.0000000000
10
-16.3439032235
20
31.0688991219
30
0.0000000000
11
-16.8432179909
21
30.5695843545
31
0.0000000000
11
-16.7758674514
21
30.8188478681
31
0.0000000000
11
-16.5931665465
21
31.0015486927
31
0.0000000000
11
-16.3439032235
21
31.0688991219
31
0.0000000000
0
SPLINE
5
310
100
AcDbEntity
8
0
100
AcDbSpline
62
0
6
CONTINUOUS
70
0
71
3
72
10
73
6
74
4
42
0.0000001000
43
0.0000001000
44
0.0000000001
12
0.0021219322
22
-0.7747794639
32
0.0000000000
13
0.7747794639
23
-0.0021219327
33
0.0000000000
40
0.0000000000
40
0.0000000000
40
0.0000000000
40
0.0000000000
40
0.3333641319
40
0.6668649569
40
1.0000000000
40
1.0000000000
40
1.0000000000
40
1.0000000000
10
-16.8432179909
20
-30.2968419678
30
0.0000000000
10
-16.8429821989
20
-30.3829365289
30
0.0000000000
10
-16.7957688055
20
-30.5582973548
30
0.0000000000
10
-16.6052340687
20
-30.7487596944
30
0.0000000000
10
-16.4299386201
20
-30.7959211051
30
0.0000000000
10
-16.3439032234
20
-30.7961567352
30
0.0000000000
11
-16.8432179909
21
-30.2968419678
31
0.0000000000
11
-16.7758247795
21
-30.5461793227
31
0.0000000000
11
-16.5930815861
21
-30.7288555568
31
0.0000000000
11
-16.3439032234
21
-30.7961567352
31
0.0000000000
0
SPLINE
5
311
100
AcDbEntity
8
0
100
AcDbSpline
62
0
6
CONTINUOUS
70
0
71
3
72
10
73
6
74
4
42
0.0000001000
43
0.0000001000
44
0.0000000001
12
0.0044946629
22
-0.5127923325
32
0.0000000000
13
0.4907064704
23
-0.1489407204
33
0.0000000000
40
0.0000000000
40
0.0000000000
40
0.0000000000
40
0.0000000000
40
0.4735485767
40
0.8328219388
40
1.0000000000
40
1.0000000000
40
1.0000000000
40
1.0000000000
10
-15.1853962029
20
-30.2234849743
30
0.0000000000
10
-15.1846867225
20
-30.3044290007
30
0.0000000000
10
-15.1791631036
20
-30.4527676922
30
0.0000000000
10
-15.1510474477
20
-30.6043970111
30
0.0000000000
10
-15.1278824866
20
-30.7144998680
30
0.0000000000
10
-15.1005373678
20
-30.7227997417
30
0.0000000000
11
-15.1853962029
21
-30.2234849743
31
0.0000000000
11
-15.1726205376
21
-30.4659900904
31
0.0000000000
11
-15.1417514672
21
-30.6476253523
31
0.0000000000
11
-15.1005373678
21
-30.7227997417
31
0.0000000000
0
SPLINE
5
312
100
AcDbEntity
8
0
100
AcDbSpline
62
0
6
CONTINUOUS
70
0
71
3
72
10
73
6
74
4
42
0.0000001000
43
0.0000001000
44
0.0000000001
12
-0.0044919060
22
-0.5127539341
32
0.0000000000
13
-0.4900340057
23
-0.1510081036
33
0.0000000000
40
0.0000000000
40
0.0000000000
40
0.0000000000
40
0.0000000000
40
0.4733783582
40
0.8326373564
40
1.0000000000
40
1.0000000000
40
1.0000000000
40
1.0000000000
10
15.3639315038
20
-30.2234850075
30
0.0000000000
10
15.3632227134
20
-30.3043938793
30
0.0000000000
10
15.3577170499
20
-30.4526467976
30
0.0000000000
10
15.3295842697
20
-30.6043892635
30
0.0000000000
10
15.3064950386
20
-30.7143752121
30
0.0000000000
10
15.2791572431
20
-30.7227995839
30
0.0000000000
11
15.3639315038
21
-30.2234850075
31
0.0000000000
11
15.3511706706
21
-30.4658852807
31
0.0000000000
11
15.3203350937
21
-30.6475047596
31
0.0000000000
11
15.2791572431
21
-30.7227995839
31
0.0000000000
0
SPLINE
5
313
100
AcDbEntity
8
0
100
AcDbSpline
62
0
6
CONTINUOUS
70
0
71
3
72
10
73
6
74
4
42
0.0000001000
43
0.0000001000
44
0.0000000001
12
-0.0021221610
22
-0.7747793925
32
0.0000000000
13
-0.7747793925
23
-0.0021221615
33
0.0000000000
40
0.0000000000
40
0.0000000000
40
0.0000000000
40
0.0000000000
40
0.3332577885
40
0.6667424862
40
1.0000000000
40
1.0000000000
40
1.0000000000
40
1.0000000000
10
17.0218378661
20
-30.2968419678
30
0.0000000000
10
17.0216021239
20
-30.3829090568
30
0.0000000000
10
16.9744138011
20
-30.5582353129
30
0.0000000000
10
16.7839162944
20
-30.7487327325
30
0.0000000000
10
16.6085901168
20
-30.7959209931
30
0.0000000000
10
16.5225230988
20
-30.7961567352
30
0.0000000000
11
17.0218378661
21
-30.2968419678
31
0.0000000000
11
16.9544873267
21
-30.5461054814
31
0.0000000000
11
16.7717864218
21
-30.7288063060
31
0.0000000000
11
16.5225230988
21
-30.7961567352
31
0.0000000000
0
SPLINE
5
314
100
AcDbEntity
8
0
100
AcDbSpline
62
0
6
CONTINUOUS
70
0
71
3
72
8
73
4
74
2
42
0.0000001000
43
0.0000001000
44
0.0000000001
12
0.0000000000
22
0.2307815519
32
0.0000000000
13
-0.0421816435
23
0.2295381992
33
0.0000000000
40
0.0000000000
40
0.0000000000
40
0.0000000000
40
0.0000000000
40
1.0000000000
40
1.0000000000
40
1.0000000000
40
1.0000000000
10
10.8838732537
20
-23.8636288067
30
0.0000000000
10
10.8838732537
20
-23.7867016227
30
0.0000000000
10
10.8766627753
20
-23.7092539056
30
0.0000000000
10
10.8626022275
20
-23.6327411725
30
0.0000000000
11
10.8838732537
21
-23.8636288067
31
0.0000000000
11
10.8626022275
21
-23.6327411725
31
0.0000000000
0
SPLINE
5
315
100
AcDbEntity
8
0
100
AcDbSpline
62
0
6
CONTINUOUS
70
0
71
3
72
10
73
6
74
4
42
0.0000001000
43
0.0000001000
44
0.0000000001
12
-0.3361760878
22
1.8293562659
32
0.0000000000
13
-1.8372710175
23
-0.0856304978
33
0.0000000000
40
0.0000000000
40
0.0000000000
40
0.0000000000
40
0.0000000000
40
0.2489705639
40
0.6241033852
40
1.0000000000
40
1.0000000000
40
1.0000000000
40
1.0000000000
10
10.8626022275
20
-23.6327411725
30
0.0000000000
10
10.8347029108
20
-23.4809225522
30
0.0000000000
10
10.6971605559
20
-23.1095811466
30
0.0000000000
10
10.2335824039
20
-22.6661307578
30
0.0000000000
10
9.7582403386
20
-22.5587957803
30
0.0000000000
10
9.5280323533
20
-22.5695251850
30
0.0000000000
11
10.8626022275
21
-23.6327411725
31
0.0000000000
11
10.7008104859
21
-23.1996996534
31
0.0000000000
11
10.2022058135
21
-22.7227820774
31
0.0000000000
11
9.5280323533
21
-22.5695251850
31
0.0000000000
0
SPLINE
5
316
100
AcDbEntity
8
0
100
AcDbSpline
62
0
6
CONTINUOUS
70
0
71
3
72
10
73
6
74
4
42
0.0000001000
43
0.0000001000
44
0.0000000001
12
-1.6607297694
22
0.0112259802
32
0.0000000000
13
-1.3309267868
23
0.9933696582
33
0.0000000000
40
0.0000000000
40
0.0000000000
40
0.0000000000
40
0.0000000000
40
0.4953675408
40
0.8519386418
40
1.0000000000
40
1.0000000000
40
1.0000000000
40
1.0000000000
10
-15.1853839459
20
30.4962271644
30
0.0000000000
10
-15.4596078199
20
30.4980808265
30
0.0000000000
10
-15.9400729735
20
30.4880153734
30
0.0000000000
10
-16.4679821238
20
30.5572603078
30
0.0000000000
10
-16.7774647004
20
30.5205100928
30
0.0000000000
10
-16.8431509763
20
30.5695366464
30
0.0000000000
11
-15.1853839459
21
30.4962271644
31
0.0000000000
11
-16.0079636486
21
30.5097236375
31
0.0000000000
11
-16.5995664361
21
30.5359036277
31
0.0000000000
11
-16.8431509763
21
30.5695366464
31
0.0000000000
0
SPLINE
5
317
100
AcDbEntity
8
0
100
AcDbSpline
62
0
6
CONTINUOUS
70
0
71
3
72
10
73
6
74
4
42
0.0000001000
43
0.0000001000
44
0.0000000001
12
1.3307920321
22
0.9935555694
32
0.0000000000
13
1.6607329939
23
0.0112260923
33
0.0000000000
40
0.0000000000
40
0.0000000000
40
0.0000000000
40
0.0000000000
40
0.1481196214
40
0.5047337006
40
1.0000000000
40
1.0000000000
40
1.0000000000
40
1.0000000000
10
-16.8431541035
20
-30.2967964741
30
0.0000000000
10
-16.7774486329
20
-30.2477414492
30
0.0000000000
10
-16.4678861280
20
-30.2845297525
30
0.0000000000
10
-15.9399880995
20
-30.2152693345
30
0.0000000000
10
-15.4595523028
20
-30.2253380794
30
0.0000000000
10
-15.1853839414
20
-30.2234847776
30
0.0000000000
11
-16.8431541035
21
-30.2967964741
31
0.0000000000
11
-16.5994726296
21
-30.2631545601
31
0.0000000000
11
-16.0077971583
21
-30.2369765119
31
0.0000000000
11
-15.1853839414
21
-30.2234847776
31
0.0000000000
0
SPLINE
5
318
100
AcDbEntity
8
0
100
AcDbSpline
62
0
6
CONTINUOUS
70
0
71
3
72
10
73
6
74
4
42
0.0000001000
43
0.0000001000
44
0.0000000001
12
-1.3307926283
22
-0.9935560146
32
0.0000000000
13
-1.6607337380
23
-0.0112261010
33
0.0000000000
40
0.0000000000
40
0.0000000000
40
0.0000000000
40
0.0000000000
40
0.1481195550
40
0.5047334744
40
1.0000000000
40
1.0000000000
40
1.0000000000
40
1.0000000000
10
17.0217739788
20
30.5695388608
30
0.0000000000
10
16.9560685081
20
30.5204838359
30
0.0000000000
10
16.6465060036
20
30.5572721385
30
0.0000000000
10
16.1186077350
20
30.4880116969
30
0.0000000000
10
15.6381716821
20
30.4980804570
30
0.0000000000
10
15.3640030727
20
30.4962271530
30
0.0000000000
11
17.0217739788
21
30.5695388608
31
0.0000000000
11
16.7780925049
21
30.5358969468
31
0.0000000000
11
16.1864170335
21
30.5097188986
31
0.0000000000
11
15.3640030727
21
30.4962271530
31
0.0000000000
0
SPLINE
5
319
100
AcDbEntity
8
0
100
AcDbSpline
62
0
6
CONTINUOUS
70
0
71
3
72
10
73
6
74
4
42
0.0000001000
43
0.0000001000
44
0.0000000001
12
1.6607305135
22
-0.0112259890
32
0.0000000000
13
1.3309273832
23
-0.9933701033
33
0.0000000000
40
0.0000000000
40
0.0000000000
40
0.0000000000
40
0.0000000000
40
0.4953677670
40
0.8519387082
40
1.0000000000
40
1.0000000000
40
1.0000000000
40
1.0000000000
10
15.3640030771
20
-30.2234847663
30
0.0000000000
10
15.6382271991
20
-30.2253384307
30
0.0000000000
10
16.1186926090
20
-30.2152729624
30
0.0000000000
10
16.6466019994
20
-30.2845179204
30
0.0000000000
10
16.9560845757
20
-30.2477677061
30
0.0000000000
10
17.0217708516
20
-30.2967942597
30
0.0000000000
11
15.3640030771
21
-30.2234847663
31
0.0000000000
11
16.1865835238
21
-30.2369812508
31
0.0000000000
11
16.7781863114
21
-30.2631612410
31
0.0000000000
11
17.0217708516
21
-30.2967942597
31
0.0000000000
0
SPLINE
5
31A
100
AcDbEntity
8
0
100
AcDbSpline
62
0
6
CONTINUOUS
70
0
71
3
72
18
73
14
74
12
42
0.0000001000
43
0.0000001000
44
0.0000000001
12
0.0000017247
22
-0.0000458548
32
0.0000000000
13
4.5421702369
23
-0.0792896742
33
0.0000000000
40
0.0000000000
40
0.0000000000
40
0.0000000000
40
0.0000000000
40
0.0025685992
40
0.0041089241
40
0.0242202198
40
0.0630223278
40
0.1212529936
40
0.2013679215
40
0.3072840517
40
0.4438074650
40
0.6111302891
40
0.8011469692
40
1.0000000000
40
1.0000000000
40
1.0000000000
40
1.0000000000
10
-77.3338639657
20
-18.3013282908
30
0.0000000000
10
-77.3338639642
20
-18.3013283301
30
0.0000000000
10
-77.3315523862
20
-18.3013687626
30
0.0000000000
10
-77.2914436630
20
-18.3020695964
30
0.0000000000
10
-77.2048773624
20
-18.3035798229
30
0.0000000000
10
-77.0240174690
20
-18.3067375980
30
0.0000000000
10
-76.7575232972
20
-18.3113890714
30
0.0000000000
10
-76.3869592790
20
-18.3178579532
30
0.0000000000
10
-75.8988916059
20
-18.3263773972
30
0.0000000000
10
-75.2783730747
20
-18.3372100583
30
0.0000000000
10
-74.5306779953
20
-18.3502608573
30
0.0000000000
10
-73.6885572434
20
-18.3649612045
30
0.0000000000
10
-73.0997896591
20
-18.3752352743
30
0.0000000000
10
-72.7987148864
20
-18.3804909383
30
0.0000000000
11
-77.3338639657
21
-18.3013282908
31
0.0000000000
11
-77.3292181890
21
-18.3014095430
31
0.0000000000
11
-77.3222217732
21
-18.3015317954
31
0.0000000000
11
-77.2308728451
21
-18.3031264558
31
0.0000000000
11
-77.0546270647
21
-18.3062030333
31
0.0000000000
11
-76.7901334651
21
-18.3108199776
31
0.0000000000
11
-76.4262378228
21
-18.3171722005
31
0.0000000000
11
-75.9451487261
21
-18.3255700966
31
0.0000000000
11
-75.3250361447
21
-18.3363951877
31
0.0000000000
11
-74.5650273817
21
-18.3496614926
31
0.0000000000
11
-73.7019392530
21
-18.3647267302
31
0.0000000000
11
-72.7987148864
21
-18.3804909383
31
0.0000000000
0
SPLINE
5
31B
100
AcDbEntity
8
0
100
AcDbSpline
62
0
6
CONTINUOUS
70
0
71
3
72
16
73
12
74
10
42
0.0000001000
43
0.0000001000
44
0.0000000001
12
-4.5188360541
22
-0.0788695863
32
0.0000000000
13
0.0000015813
23
0.0000456169
33
0.0000000000
40
0.0000000000
40
0.0000000000
40
0.0000000000
40
0.0000000000
40
0.2160061472
40
0.4154154033
40
0.5837442587
40
0.7164302585
40
0.8178126557
40
0.8942938872
40
0.9495684310
40
0.9854530212
40
1.0000000000
40
1.0000000000
40
1.0000000000
40
1.0000000000
10
-72.7987152767
20
-3.3467658230
30
0.0000000000
10
-73.1240807320
20
-3.3524445948
30
0.0000000000
10
-73.7498964191
20
-3.3633663539
30
0.0000000000
10
-74.6288406996
20
-3.3787108027
30
0.0000000000
10
-75.3835831939
20
-3.3918855052
30
0.0000000000
10
-75.9871459274
20
-3.4024216569
30
0.0000000000
10
-76.4613976452
20
-3.4106999785
30
0.0000000000
10
-76.7966598737
20
-3.4165520964
30
0.0000000000
10
-77.0857900740
20
-3.4215992832
30
0.0000000000
10
-77.1748317311
20
-3.4231529475
30
0.0000000000
10
-77.3338639734
20
-3.4259295437
30
0.0000000000
10
-77.3338639657
20
-3.4259293225
30
0.0000000000
11
-72.7987152767
21
-3.3467658230
31
0.0000000000
11
-73.7748116424
21
-3.3638021528
31
0.0000000000
11
-74.6759093307
21
-3.3795322040
31
0.0000000000
11
-75.4365597941
21
-3.3928103587
31
0.0000000000
11
-76.0361460449
21
-3.4032769112
31
0.0000000000
11
-76.4942764597
21
-3.4112738796
31
0.0000000000
11
-76.8398825934
21
-3.4173066485
31
0.0000000000
11
-77.0896591865
21
-3.4216666064
31
0.0000000000
11
-77.2518157616
21
-3.4244970744
31
0.0000000000
11
-77.3338639657
21
-3.4259293225
31
0.0000000000
0
SPLINE
5
31C
100
AcDbEntity
8
0
100
AcDbSpline
62
0
6
CONTINUOUS
70
0
71
3
72
11
73
7
74
5
42
0.0000001000
43
0.0000001000
44
0.0000000001
12
0.1241824652
22
0.3220871738
32
0.0000000000
13
0.3451450960
23
0.0060245280
33
0.0000000000
40
0.0000000000
40
0.0000000000
40
0.0000000000
40
0.0000000000
40
0.2964862965
40
0.5590110235
40
0.7895876720
40
1.0000000000
40
1.0000000000
40
1.0000000000
40
1.0000000000
10
-72.7987162162
20
-3.3467679392
30
0.0000000000
10
-72.7864434165
20
-3.3149364614
30
0.0000000000
10
-72.7581277001
20
-3.2566471728
30
0.0000000000
10
-72.7009220852
20
-3.1848770604
30
0.0000000000
10
-72.6334204849
20
-3.1376448639
30
0.0000000000
10
-72.5824449178
20
-3.1256688895
30
0.0000000000
10
-72.5582373234
20
-3.1252463445
30
0.0000000000
11
-72.7987162162
21
-3.3467679392
31
0.0000000000
11
-72.7529799118
21
-3.2552093691
31
0.0000000000
11
-72.6953230312
21
-3.1852937160
31
0.0000000000
11
-72.6291173933
21
-3.1411111237
31
0.0000000000
11
-72.5582373234
21
-3.1252463445
31
0.0000000000
0
SPLINE
5
31D
100
AcDbEntity
8
0
100
AcDbSpline
62
0
6
CONTINUOUS
70
0
71
3
72
12
73
8
74
6
42
0.0000001000
43
0.0000001000
44
0.0000000001
12
-0.4999841294
22
-0.0087271963
32
0.0000000000
13
0.0087245980
23
-0.4999841748
33
0.0000000000
40
0.0000000000
40
0.0000000000
40
0.0000000000
40
0.0000000000
40
0.0493160447
40
0.1917229986
40
0.4134331523
40
0.6925854955
40
1.0000000000
40
1.0000000000
40
1.0000000000
40
1.0000000000
10
-72.5582373236
20
-3.1252463445
30
0.0000000000
10
-72.5664564034
20
-3.1253898081
30
0.0000000000
10
-72.5521474866
20
-3.1763321270
30
0.0000000000
10
-72.5673198502
20
-3.2276992002
30
0.0000000000
10
-72.5596276797
20
-3.3441027559
30
0.0000000000
10
-72.5613371415
20
-3.4752520221
30
0.0000000000
10
-72.5591313462
20
-3.5739360629
30
0.0000000000
10
-72.5582373236
20
-3.6251701920
30
0.0000000000
11
-72.5582373236
21
-3.1252463445
31
0.0000000000
11
-72.5605074484
21
-3.1498026316
31
0.0000000000
11
-72.5616995943
21
-3.2210047148
31
0.0000000000
11
-72.5616957022
21
-3.3318731586
31
0.0000000000
11
-72.5604968070
21
-3.4714610118
31
0.0000000000
11
-72.5582373236
21
-3.6251701920
31
0.0000000000
0
SPLINE
5
31E
100
AcDbEntity
8
0
100
AcDbSpline
62
0
6
CONTINUOUS
70
0
71
3
72
15
73
11
74
9
42
0.0000001000
43
0.0000001000
44
0.0000000001
12
0.0000185922
22
8.5064012659
32
0.0000000000
13
6.4040331919
23
5.5988589351
33
0.0000000000
40
0.0000000000
40
0.0000000000
40
0.0000000000
40
0.0000000000
40
0.1154078406
40
0.2310822404
40
0.3476892169
40
0.4660661874
40
0.5879690444
40
0.7162043351
40
0.8530880612
40
1.0000000000
40
1.0000000000
40
1.0000000000
40
1.0000000000
10
-76.2112618630
20
-10.8636288067
30
0.0000000000
10
-76.2112611478
20
-10.5363936728
30
0.0000000000
10
-76.1789998119
20
-9.8807110638
30
0.0000000000
10
-76.0337387311
20
-8.9040731016
30
0.0000000000
10
-75.7906076172
20
-7.9382685628
30
0.0000000000
10
-75.4461177926
20
-6.9849478401
30
0.0000000000
10
-74.9916110986
20
-6.0419854895
30
0.0000000000
10
-74.4114696679
20
-5.1078688792
30
0.0000000000
10
-73.6855899438
20
-4.1892464187
30
0.0000000000
10
-73.1123249207
20
-3.6209455633
30
0.0000000000
10
-72.7987152767
20
-3.3467658230
30
0.0000000000
11
-76.2112618630
21
-10.8636288067
31
0.0000000000
11
-76.1630034517
21
-9.8831102596
31
0.0000000000
11
-76.0182543682
21
-8.9098424169
31
0.0000000000
11
-75.7761011145
21
-7.9479490845
31
0.0000000000
11
-75.4338866404
21
-7.0009212349
31
0.0000000000
11
-74.9836397792
21
-6.0668159720
31
0.0000000000
11
-74.4081379082
21
-5.1401619379
31
0.0000000000
11
-73.6862042025
21
-4.2265915194
31
0.0000000000
11
-72.7987152767
21
-3.3467658230
31
0.0000000000
0
SPLINE
5
31F
100
AcDbEntity
8
0
100
AcDbSpline
62
0
6
CONTINUOUS
70
0
71
3
72
10
73
6
74
4
42
0.0000001000
43
0.0000001000
44
0.0000000001
12
0.2255979516
22
-0.2905955060
32
0.0000000000
13
0.2389564559
23
-0.2797141327
33
0.0000000000
40
0.0000000000
40
0.0000000000
40
0.0000000000
40
0.0000000000
40
0.2893897266
40
0.6352521101
40
1.0000000000
40
1.0000000000
40
1.0000000000
40
1.0000000000
10
-72.7987162162
20
-3.3467679392
30
0.0000000000
10
-72.7769543064
20
-3.3747997239
30
0.0000000000
10
-72.7244446689
20
-3.4324771231
30
0.0000000000
10
-72.6453573152
20
-3.5261600235
30
0.0000000000
10
-72.5872902777
20
-3.5911618106
30
0.0000000000
10
-72.5582373234
20
-3.6251701905
30
0.0000000000
11
-72.7987162162
21
-3.3467679392
31
0.0000000000
11
-72.7295835975
21
-3.4277304990
31
0.0000000000
11
-72.6464087083
21
-3.5240188019
31
0.0000000000
11
-72.5582373234
21
-3.6251701905
31
0.0000000000
0
SPLINE
5
320
100
AcDbEntity
8
0
100
AcDbSpline
62
0
6
CONTINUOUS
70
0
71
3
72
8
73
4
74
2
42
0.0000001000
43
0.0000001000
44
0.0000000001
12
0.0000008315
22
0.2804295209
32
0.0000000000
13
0.0081843951
23
0.2803914981
33
0.0000000000
40
0.0000000000
40
0.0000000000
40
0.0000000000
40
0.0000000000
40
1.0000000000
40
1.0000000000
40
1.0000000000
40
1.0000000000
10
-75.8443923906
20
-10.8636288067
30
0.0000000000
10
-75.8443921134
20
-10.7701522997
30
0.0000000000
10
-75.8430270183
20
-10.6766586169
30
0.0000000000
10
-75.8402988866
20
-10.5831947842
30
0.0000000000
11
-75.8443923906
21
-10.8636288067
31
0.0000000000
11
-75.8402988866
21
-10.5831947842
31
0.0000000000
0
SPLINE
5
321
100
AcDbEntity
8
0
100
AcDbSpline
62
0
6
CONTINUOUS
70
0
71
3
72
16
73
12
74
10
42
0.0000001000
43
0.0000001000
44
0.0000000001
12
0.2309059891
22
7.9106733781
32
0.0000000000
13
5.9563729275
23
5.2074320091
33
0.0000000000
40
0.0000000000
40
0.0000000000
40
0.0000000000
40
0.0000000000
40
0.0707730161
40
0.1771445448
40
0.2841637513
40
0.3923496535
40
0.5025511675
40
0.6167091054
40
0.7367382863
40
0.8643155716
40
1.0000000000
40
1.0000000000
40
1.0000000000
40
1.0000000000
10
-75.8402988866
20
-10.5831947842
30
0.0000000000
10
-75.8348515822
20
-10.3965740461
30
0.0000000000
10
-75.8076150828
20
-9.9297610456
30
0.0000000000
10
-75.7094529207
20
-9.1858882730
30
0.0000000000
10
-75.5249536452
20
-8.3569845845
30
0.0000000000
10
-75.2647916134
20
-7.5380053327
30
0.0000000000
10
-74.9248534152
20
-6.7282570028
30
0.0000000000
10
-74.4969510795
20
-5.9256276610
30
0.0000000000
10
-73.9682876593
20
-5.1295357317
30
0.0000000000
10
-73.3252306957
20
-4.3473527038
30
0.0000000000
10
-72.8276361886
20
-3.8606927260
30
0.0000000000
10
-72.5582405033
20
-3.6251702476
30
0.0000000000
11
-75.8402988866
21
-10.5831947842
31
0.0000000000
11
-75.8076683831
21
-10.0240639522
31
0.0000000000
11
-75.6975716656
21
-9.1897119688
31
0.0000000000
11
-75.5136079247
21
-8.3632295926
31
0.0000000000
11
-75.2544660161
21
-7.5474614191
31
0.0000000000
11
-74.9169749230
21
-6.7435424818
31
0.0000000000
11
-74.4920675994
21
-5.9465459618
31
0.0000000000
11
-73.9667280654
21
-5.1554484500
31
0.0000000000
11
-73.3257015359
21
-4.3757749516
31
0.0000000000
11
-72.5582405033
21
-3.6251702476
31
0.0000000000
0
SPLINE
5
322
100
AcDbEntity
8
0
100
AcDbSpline
62
0
6
CONTINUOUS
70
0
71
3
72
15
73
11
74
9
42
0.0000001000
43
0.0000001000
44
0.0000000001
12
-6.4040968647
22
5.5987851176
32
0.0000000000
13
0.0000374940
23
8.5064006163
33
0.0000000000
40
0.0000000000
40
0.0000000000
40
0.0000000000
40
0.0000000000
40
0.1468772550
40
0.2837934254
40
0.4120444600
40
0.5339776159
40
0.6523296864
40
0.7689274811
40
0.8846002087
40
1.0000000000
40
1.0000000000
40
1.0000000000
40
1.0000000000
10
-72.7987148864
20
-18.3804909383
30
0.0000000000
10
-73.1122536090
20
-18.1063795420
30
0.0000000000
10
-73.6855185980
20
-17.5380891433
30
0.0000000000
10
-74.4114368632
20
-16.6194467953
30
0.0000000000
10
-74.9916923010
20
-15.6851380971
30
0.0000000000
10
-75.4462021143
20
-14.7421093637
30
0.0000000000
10
-75.7906625072
20
-13.7887905406
30
0.0000000000
10
-76.0337574658
20
-12.8230818104
30
0.0000000000
10
-76.1790021183
20
-11.8464959797
30
0.0000000000
10
-76.2112633053
20
-11.1908410919
30
0.0000000000
10
-76.2112618630
20
-10.8636288067
30
0.0000000000
11
-72.7987148864
21
-18.3804909383
31
0.0000000000
11
-73.6860080533
21
-17.5008869764
31
0.0000000000
11
-74.4081262116
21
-16.5871106772
31
0.0000000000
11
-74.9836945541
21
-15.6603403736
31
0.0000000000
11
-75.4340303331
21
-14.7259919453
31
0.0000000000
11
-75.7761475493
21
-13.7791542479
31
0.0000000000
11
-76.0182701137
21
-12.8173338084
31
0.0000000000
11
-76.1630099273
21
-11.8440790436
31
0.0000000000
11
-76.2112618630
21
-10.8636288067
31
0.0000000000
0
SPLINE
5
323
100
AcDbEntity
8
0
100
AcDbSpline
62
0
6
CONTINUOUS
70
0
71
3
72
15
73
11
74
9
42
0.0000001000
43
0.0000001000
44
0.0000000001
12
-5.9293998410
22
5.1836891252
32
0.0000000000
13
-0.2586724501
23
7.8744584899
33
0.0000000000
40
0.0000000000
40
0.0000000000
40
0.0000000000
40
0.0000000000
40
0.1525679091
40
0.2950856214
40
0.4284957112
40
0.5553790080
40
0.6784154267
40
0.7996934955
40
0.9200191521
40
1.0000000000
40
1.0000000000
40
1.0000000000
40
1.0000000000
10
-72.5582377923
20
-18.1020874131
30
0.0000000000
10
-72.8597831708
20
-17.8384658761
30
0.0000000000
10
-73.4117064978
20
-17.2914131287
30
0.0000000000
10
-74.1107466285
20
-16.4069845428
30
0.0000000000
10
-74.6698420059
20
-15.5068601440
30
0.0000000000
10
-75.1075687445
20
-14.5986968129
30
0.0000000000
10
-75.4393007930
20
-13.6806525825
30
0.0000000000
10
-75.6734073243
20
-12.7507948836
30
0.0000000000
10
-75.7978151078
20
-11.9144486775
30
0.0000000000
10
-75.8323138266
20
-11.3891047749
30
0.0000000000
10
-75.8392101072
20
-11.1791694859
30
0.0000000000
11
-72.5582377923
21
-18.1020874131
31
0.0000000000
11
-73.4116512625
21
-17.2562039578
31
0.0000000000
11
-74.1076879025
21
-16.3756299137
31
0.0000000000
11
-74.6620748741
21
-15.4830760178
31
0.0000000000
11
-75.0959712338
21
-14.5828802490
31
0.0000000000
11
-75.4252791430
21
-13.6715405800
31
0.0000000000
11
-75.6584850180
21
-12.7452836487
31
0.0000000000
11
-75.7979093435
21
-11.8079338694
31
0.0000000000
11
-75.8392101072
21
-11.1791694859
31
0.0000000000
0
SPLINE
5
324
100
AcDbEntity
8
0
100
AcDbSpline
62
0
6
CONTINUOUS
70
0
71
3
72
8
73
4
74
2
42
0.0000001000
43
0.0000001000
44
0.0000000001
12
-0.0103633797
22
0.3154800711
32
0.0000000000
13
0.0000018868
23
0.3155342996
33
0.0000000000
40
0.0000000000
40
0.0000000000
40
0.0000000000
40
0.0000000000
40
1.0000000000
40
1.0000000000
40
1.0000000000
40
1.0000000000
10
-75.8392101072
20
-11.1791694859
30
0.0000000000
10
-75.8426645671
20
-11.0740094622
30
0.0000000000
10
-75.8443930195
20
-10.9688069065
30
0.0000000000
10
-75.8443923906
20
-10.8636288067
30
0.0000000000
11
-75.8392101072
21
-11.1791694859
31
0.0000000000
11
-75.8443923906
21
-10.8636288067
31
0.0000000000
0
SPLINE
5
325
100
AcDbEntity
8
0
100
AcDbSpline
62
0
6
CONTINUOUS
70
0
71
3
72
10
73
6
74
4
42
0.0000001000
43
0.0000001000
44
0.0000000001
12
0.2376944014
22
0.2807876524
32
0.0000000000
13
0.2423200609
23
0.2768055676
33
0.0000000000
40
0.0000000000
40
0.0000000000
40
0.0000000000
40
0.0000000000
40
0.2862747709
40
0.6283271129
40
1.0000000000
40
1.0000000000
40
1.0000000000
40
1.0000000000
10
-72.7987162164
20
-18.3804896755
30
0.0000000000
10
-72.7760342463
20
-18.3536955352
30
0.0000000000
10
-72.7259690407
20
-18.2951254635
30
0.0000000000
10
-72.6457821090
20
-18.2023464289
30
0.0000000000
10
-72.5882585891
20
-18.1363811295
30
0.0000000000
10
-72.5582373236
20
-18.1020874213
30
0.0000000000
11
-72.7987162164
21
-18.3804896755
31
0.0000000000
11
-72.7303473080
21
-18.3003817991
31
0.0000000000
11
-72.6480902039
21
-18.2051528042
31
0.0000000000
11
-72.5582373236
21
-18.1020874213
31
0.0000000000
0
SPLINE
5
326
100
AcDbEntity
8
0
100
AcDbSpline
62
0
6
CONTINUOUS
70
0
71
3
72
12
73
8
74
6
42
0.0000001000
43
0.0000001000
44
0.0000000001
12
-0.0087246030
22
-0.4999844611
32
0.0000000000
13
0.4999844150
23
-0.0087272490
33
0.0000000000
40
0.0000000000
40
0.0000000000
40
0.0000000000
40
0.0000000000
40
0.3091269276
40
0.5879549449
40
0.8091445930
40
0.9510718711
40
1.0000000000
40
1.0000000000
40
1.0000000000
40
1.0000000000
10
-72.5582373236
20
-18.1020874213
30
0.0000000000
10
-72.5591363268
20
-18.1536069747
30
0.0000000000
10
-72.5613491570
20
-18.2525294427
30
0.0000000000
10
-72.5596336157
20
-18.3838164974
30
0.0000000000
10
-72.5673044945
20
-18.4999899383
30
0.0000000000
10
-72.5521822328
20
-18.5511718537
30
0.0000000000
10
-72.5663917575
20
-18.6018689328
30
0.0000000000
10
-72.5582373236
20
-18.6020112688
30
0.0000000000
11
-72.5582373236
21
-18.1020874213
31
0.0000000000
11
-72.5605069053
21
-18.2566529489
31
0.0000000000
11
-72.5616990219
21
-18.3960787517
31
0.0000000000
11
-72.5616967450
21
-18.5066869746
31
0.0000000000
11
-72.5605004044
21
-18.5776491273
31
0.0000000000
11
-72.5582373236
21
-18.6020112688
31
0.0000000000
0
SPLINE
5
327
100
AcDbEntity
8
0
100
AcDbSpline
62
0
6
CONTINUOUS
70
0
71
3
72
11
73
7
74
5
42
0.0000001000
43
0.0000001000
44
0.0000000001
12
0.1176991625
22
-0.3245171568
32
0.0000000000
13
0.3451495067
23
-0.0060246067
33
0.0000000000
40
0.0000000000
40
0.0000000000
40
0.0000000000
40
0.0000000000
40
0.2969513062
40
0.5620569391
40
0.7913235051
40
1.0000000000
40
1.0000000000
40
1.0000000000
40
1.0000000000
10
-72.7987162164
20
-18.3804896755
30
0.0000000000
10
-72.7870659097
20
-18.4126116067
30
0.0000000000
10
-72.7578147079
20
-18.4709642767
30
0.0000000000
10
-72.7004432929
20
-18.5427421863
30
0.0000000000
10
-72.6328877499
20
-18.5898576091
30
0.0000000000
10
-72.5822455200
20
-18.6015922042
30
0.0000000000
10
-72.5582373236
20
-18.6020112688
30
0.0000000000
11
-72.7987162164
21
-18.3804896755
31
0.0000000000
11
-72.7529478272
21
-18.4722131051
31
0.0000000000
11
-72.6944915003
21
-18.5426251503
31
0.0000000000
11
-72.6285631592
21
-18.5864100238
31
0.0000000000
11
-72.5582373236
21
-18.6020112688
31
0.0000000000
0
SPLINE
5
328
100
AcDbEntity
8
0
100
AcDbSpline
62
0
6
CONTINUOUS
70
0
71
3
72
10
73
6
74
4
42
0.0000001000
43
0.0000001000
44
0.0000000001
12
0.6614840179
22
-0.0115462465
32
0.0000000000
13
-0.0057737828
23
-0.6615595855
33
0.0000000000
40
0.0000000000
40
0.0000000000
40
0.0000000000
40
0.0000000000
40
0.2841163879
40
0.6206174304
40
1.0000000000
40
1.0000000000
40
1.0000000000
40
1.0000000000
10
-52.0655700241
20
31.5333058669
30
0.0000000000
10
-52.0029238741
20
31.5322123743
30
0.0000000000
10
-51.8662336730
20
31.4714614038
30
0.0000000000
10
-51.7466129843
20
31.2765259918
30
0.0000000000
10
-51.7200126792
20
31.1170434112
30
0.0000000000
10
-51.7207428367
20
31.0333820193
30
0.0000000000
11
-52.0655700241
21
31.5333058669
31
0.0000000000
11
-51.8908597587
21
31.4639665158
31
0.0000000000
11
-51.7647859247
21
31.2804813130
31
0.0000000000
11
-51.7207428367
21
31.0333820193
31
0.0000000000
0
SPLINE
5
329
100
AcDbEntity
8
0
100
AcDbSpline
62
0
6
CONTINUOUS
70
0
71
3
72
10
73
6
74
4
42
0.0000001000
43
0.0000001000
44
0.0000000001
12
0.0087238963
22
-0.4999439583
32
0.0000000000
13
-0.4999439119
23
-0.0087265534
33
0.0000000000
40
0.0000000000
40
0.0000000000
40
0.0000000000
40
0.0000000000
40
0.4980721804
40
0.8652794803
40
1.0000000000
40
1.0000000000
40
1.0000000000
40
1.0000000000
10
-56.2411302135
20
-30.8335243069
30
0.0000000000
10
-56.2396818368
20
-30.9165270327
30
0.0000000000
10
-56.2237924803
20
-31.0762000122
30
0.0000000000
10
-56.2631727234
20
-31.1986513889
30
0.0000000000
10
-56.2186793122
20
-31.3330562725
30
0.0000000000
10
-56.2411302135
20
-31.3334481545
30
0.0000000000
11
-56.2411302135
21
-30.8335243069
31
0.0000000000
11
-56.2379444556
21
-31.0825500154
31
0.0000000000
11
-56.2379345528
21
-31.2661610340
31
0.0000000000
11
-56.2411302135
21
-31.3334481545
31
0.0000000000
0
SPLINE
5
32A
100
AcDbEntity
8
0
100
AcDbSpline
62
0
6
CONTINUOUS
70
0
71
3
72
10
73
6
74
4
42
0.0000001000
43
0.0000001000
44
0.0000000001
12
-0.0370653913
22
-0.6109008294
32
0.0000000000
13
-0.6119310227
23
-0.0106812957
33
0.0000000000
40
0.0000000000
40
0.0000000000
40
0.0000000000
40
0.0000000000
40
0.3800672805
40
0.7146644584
40
1.0000000000
40
1.0000000000
40
1.0000000000
40
1.0000000000
10
-55.8997437834
20
-30.8827294286
30
0.0000000000
10
-55.9044395642
20
-30.9601239009
30
0.0000000000
10
-55.9372869410
20
-31.1055058739
30
0.0000000000
10
-56.0562874304
20
-31.2799132333
30
0.0000000000
10
-56.1829283235
20
-31.3324322367
30
0.0000000000
10
-56.2411302135
20
-31.3334481545
30
0.0000000000
11
-55.8997437834
21
-30.8827294286
31
0.0000000000
11
-55.9541397068
21
-31.1088901587
31
0.0000000000
11
-56.0775507413
21
-31.2723074561
31
0.0000000000
11
-56.2411302135
21
-31.3334481545
31
0.0000000000
0
SPLINE
5
32B
100
AcDbEntity
8
0
100
AcDbSpline
62
0
6
CONTINUOUS
70
0
71
3
72
10
73
6
74
4
42
0.0000001000
43
0.0000001000
44
0.0000000001
12
-0.3449313256
22
0.0241199479
32
0.0000000000
13
-0.3449007229
23
0.0245536680
33
0.0000000000
40
0.0000000000
40
0.0000000000
40
0.0000000000
40
0.0000000000
40
0.2932085432
40
0.6339428092
40
1.0000000000
40
1.0000000000
40
1.0000000000
40
1.0000000000
10
-51.7206817111
20
-1.6712948943
30
0.0000000000
10
-51.7543939816
20
-1.6689375027
30
0.0000000000
10
-51.8272626662
20
-1.6635559876
30
0.0000000000
10
-51.9422298761
20
-1.6553758632
30
0.0000000000
10
-52.0234855608
20
-1.6495637741
30
0.0000000000
10
-52.0655700241
20
-1.6465677585
30
0.0000000000
11
-51.7206817111
21
-1.6712948943
31
0.0000000000
11
-51.8218027968
21
-1.6640013138
31
0.0000000000
11
-51.9393180688
21
-1.6555759318
31
0.0000000000
11
-52.0655700241
21
-1.6465677585
31
0.0000000000
0
SPLINE
5
32C
100
AcDbEntity
8
0
100
AcDbSpline
62
0
6
CONTINUOUS
70
0
71
3
72
10
73
6
74
4
42
0.0000001000
43
0.0000001000
44
0.0000000001
12
0.3414358410
22
-0.0488615618
32
0.0000000000
13
0.3413161364
23
-0.0496908518
33
0.0000000000
40
0.0000000000
40
0.0000000000
40
0.0000000000
40
0.0000000000
40
0.3370338229
40
0.6807342984
40
1.0000000000
40
1.0000000000
40
1.0000000000
40
1.0000000000
10
-56.2411302135
20
-30.8335243069
30
0.0000000000
10
-56.2027717379
20
-30.8390136399
30
0.0000000000
10
-56.1252980201
20
-30.8501147568
30
0.0000000000
10
-56.0115027963
20
-30.8665184265
30
0.0000000000
10
-55.9360672953
20
-30.8774412337
30
0.0000000000
10
-55.8997437834
20
-30.8827294286
30
0.0000000000
11
-56.2411302135
21
-30.8335243069
31
0.0000000000
11
-56.1260590511
21
-30.8500220771
31
0.0000000000
11
-56.0087240858
21
-30.8669320745
31
0.0000000000
11
-55.8997437834
21
-30.8827294286
31
0.0000000000
0
SPLINE
5
32D
100
AcDbEntity
8
0
100
AcDbSpline
62
0
6
CONTINUOUS
70
0
71
3
72
10
73
6
74
4
42
0.0000001000
43
0.0000001000
44
0.0000000001
12
0.4999438766
22
-0.0087265528
32
0.0000000000
13
-0.0087238956
23
-0.4999439230
33
0.0000000000
40
0.0000000000
40
0.0000000000
40
0.0000000000
40
0.0000000000
40
0.1348450889
40
0.5023512798
40
1.0000000000
40
1.0000000000
40
1.0000000000
40
1.0000000000
10
-52.0655700241
20
31.5333058669
30
0.0000000000
10
-52.0430983652
20
31.5329136227
30
0.0000000000
10
-52.0876355688
20
31.3983934091
30
0.0000000000
10
-52.0482451127
20
31.2759524385
30
0.0000000000
10
-52.0641228796
20
31.1163141705
30
0.0000000000
10
-52.0655700248
20
31.0333820194
30
0.0000000000
11
-52.0655700241
21
31.5333058669
31
0.0000000000
11
-52.0623735728
21
31.4659564315
31
0.0000000000
11
-52.0623858391
21
31.2821959745
31
0.0000000000
11
-52.0655700248
21
31.0333820194
31
0.0000000000
0
SPLINE
5
32E
100
AcDbEntity
8
0
100
AcDbSpline
62
0
6
CONTINUOUS
70
0
71
3
72
9
73
5
74
3
42
0.0000001000
43
0.0000001000
44
0.0000000001
12
2.7679254916
22
-0.0792181807
32
0.0000000000
13
2.7678693415
23
-0.0811557552
33
0.0000000000
40
0.0000000000
40
0.0000000000
40
0.0000000000
40
0.0000000000
40
0.4001567423
40
1.0000000000
40
1.0000000000
40
1.0000000000
40
1.0000000000
10
-44.7380764996
20
-4.5082163060
30
0.0000000000
10
-44.3688751505
20
-4.5187828691
30
0.0000000000
10
-43.4462368879
20
-4.5453135717
30
0.0000000000
10
-42.5236078744
20
-4.5721646771
30
0.0000000000
10
-41.9701786201
20
-4.5883915879
30
0.0000000000
11
-44.7380764996
21
-4.5082163060
31
0.0000000000
11
-43.6304767886
21
-4.5400670528
31
0.0000000000
11
-41.9701786201
21
-4.5883915879
31
0.0000000000
0
SPLINE
5
32F
100
AcDbEntity
8
0
100
AcDbSpline
62
0
6
CONTINUOUS
70
0
71
3
72
9
73
5
74
3
42
0.0000001000
43
0.0000001000
44
0.0000000001
12
2.7679254916
22
0.0792181807
32
0.0000000000
13
2.7678693415
23
0.0811557552
33
0.0000000000
40
0.0000000000
40
0.0000000000
40
0.0000000000
40
0.0000000000
40
0.4001567423
40
1.0000000000
40
1.0000000000
40
1.0000000000
40
1.0000000000
10
-44.7380764996
20
4.7809586927
30
0.0000000000
10
-44.3688751505
20
4.7915252558
30
0.0000000000
10
-43.4462368879
20
4.8180559584
30
0.0000000000
10
-42.5236078744
20
4.8449070638
30
0.0000000000
10
-41.9701786201
20
4.8611339746
30
0.0000000000
11
-44.7380764996
21
4.7809586927
31
0.0000000000
11
-43.6304767886
21
4.8128094395
31
0.0000000000
11
-41.9701786201
21
4.8611339746
31
0.0000000000
0
SPLINE
5
330
100
AcDbEntity
8
0
100
AcDbSpline
62
0
6
CONTINUOUS
70
0
71
3
72
9
73
5
74
3
42
0.0000001000
43
0.0000001000
44
0.0000000001
12
0.2585746800
22
0.0000000000
32
0.0000000000
13
0.2109926383
23
-0.1486711031
33
0.0000000000
40
0.0000000000
40
0.0000000000
40
0.0000000000
40
0.0000000000
40
0.6054989666
40
1.0000000000
40
1.0000000000
40
1.0000000000
40
1.0000000000
10
-72.6011664802
20
-3.0636288067
30
0.0000000000
10
-72.5489775796
20
-3.0636288067
30
0.0000000000
10
-72.4639583737
20
-3.0712391199
30
0.0000000000
10
-72.3776656626
20
-3.1007535111
30
0.0000000000
10
-72.3499200579
20
-3.1203038124
30
0.0000000000
11
-72.6011664802
21
-3.0636288067
31
0.0000000000
11
-72.4455525930
21
-3.0808755505
31
0.0000000000
11
-72.3499200579
21
-3.1203038124
31
0.0000000000
0
SPLINE
5
331
100
AcDbEntity
8
0
100
AcDbSpline
62
0
6
CONTINUOUS
70
0
71
3
72
8
73
4
74
2
42
0.0000001000
43
0.0000001000
44
0.0000000001
12
0.0262277158
22
-0.0184807559
32
0.0000000000
13
0.0218668977
23
-0.0236131593
33
0.0000000000
40
0.0000000000
40
0.0000000000
40
0.0000000000
40
0.0000000000
40
1.0000000000
40
1.0000000000
40
1.0000000000
40
1.0000000000
10
-72.3499200579
20
-3.1203038124
30
0.0000000000
10
-72.3411774860
20
-3.1264640644
30
0.0000000000
10
-72.3330601169
20
-3.1334093589
30
0.0000000000
10
-72.3257711510
20
-3.1412804120
30
0.0000000000
11
-72.3499200579
21
-3.1203038124
31
0.0000000000
11
-72.3257711510
21
-3.1412804120
31
0.0000000000
0
SPLINE
5
332
100
AcDbEntity
8
0
100
AcDbSpline
62
0
6
CONTINUOUS
70
0
71
3
72
10
73
6
74
4
42
0.0000001000
43
0.0000001000
44
0.0000000001
12
0.3386839744
22
-0.3657308303
32
0.0000000000
13
-0.3713790742
23
-0.3315398218
33
0.0000000000
40
0.0000000000
40
0.0000000000
40
0.0000000000
40
0.0000000000
40
0.2508523722
40
0.5854589967
40
1.0000000000
40
1.0000000000
40
1.0000000000
40
1.0000000000
10
-72.3257711510
20
-3.1412804120
30
0.0000000000
10
-72.2974512582
20
-3.1718618941
30
0.0000000000
10
-72.2605418540
20
-3.2758511152
30
0.0000000000
10
-72.3513415885
20
-3.4292838069
30
0.0000000000
10
-72.4357624395
20
-3.5178165232
30
0.0000000000
10
-72.4870797242
20
-3.5636288067
30
0.0000000000
11
-72.3257711510
21
-3.1412804120
31
0.0000000000
11
-72.2823575602
21
-3.2583749614
31
0.0000000000
11
-72.3473549928
21
-3.4117503663
31
0.0000000000
11
-72.4870797242
21
-3.5636288067
31
0.0000000000
0
SPLINE
5
333
100
AcDbEntity
8
0
100
AcDbSpline
62
0
6
CONTINUOUS
70
0
71
3
72
9
73
5
74
3
42
0.0000001000
43
0.0000001000
44
0.0000000001
12
0.3473107125
22
-0.1818674064
32
0.0000000000
13
0.0554202515
23
-0.5063053089
33
0.0000000000
40
0.0000000000
40
0.0000000000
40
0.0000000000
40
0.0000000000
40
0.5893472046
40
1.0000000000
40
1.0000000000
40
1.0000000000
40
1.0000000000
10
-71.4273047513
20
-21.6229186300
30
0.0000000000
10
-71.3590758855
20
-21.6586463126
30
0.0000000000
10
-71.3492018177
20
-21.8833409159
30
0.0000000000
10
-71.3323543714
20
-22.0648731264
30
0.0000000000
10
-71.3247682110
20
-22.1341783565
30
0.0000000000
11
-71.4273047513
21
-21.6229186300
31
0.0000000000
11
-71.3450153126
21
-21.9085009859
31
0.0000000000
11
-71.3247682110
21
-22.1341783565
31
0.0000000000
0
SPLINE
5
334
100
AcDbEntity
8
0
100
AcDbSpline
62
0
6
CONTINUOUS
70
0
71
3
72
8
73
4
74
2
42
0.0000001000
43
0.0000001000
44
0.0000000001
12
0.0591585224
22
-0.5404572003
32
0.0000000000
13
0.0594477411
23
-0.4353060011
33
0.0000000000
40
0.0000000000
40
0.0000000000
40
0.0000000000
40
0.0000000000
40
1.0000000000
40
1.0000000000
40
1.0000000000
40
1.0000000000
10
-71.3247682110
20
-22.1341783565
30
0.0000000000
10
-71.3050487035
20
-22.3143307566
30
0.0000000000
10
-71.2808175438
20
-22.4590669551
30
0.0000000000
10
-71.2610016301
20
-22.6041689554
30
0.0000000000
11
-71.3247682110
21
-22.1341783565
31
0.0000000000
11
-71.2610016301
21
-22.6041689554
31
0.0000000000
0
SPLINE
5
335
100
AcDbEntity
8
0
100
AcDbSpline
62
0
6
CONTINUOUS
70
0
71
3
72
9
73
5
74
3
42
0.0000001000
43
0.0000001000
44
0.0000000001
12
0.0625366100
22
-0.4579242393
32
0.0000000000
13
0.0237677540
23
-0.5114332119
33
0.0000000000
40
0.0000000000
40
0.0000000000
40
0.0000000000
40
0.0000000000
40
0.2771299300
40
1.0000000000
40
1.0000000000
40
1.0000000000
40
1.0000000000
10
-71.2610016301
20
-22.6041689554
30
0.0000000000
10
-71.2552247080
20
-22.6464704595
30
0.0000000000
10
-71.2357332263
20
-22.7992240557
30
0.0000000000
10
-71.2240076614
20
-22.9639261548
30
0.0000000000
10
-71.2182806620
20
-23.0871594087
30
0.0000000000
11
-71.2610016301
21
-22.6041689554
31
0.0000000000
11
-71.2450177922
21
-22.7320533033
31
0.0000000000
11
-71.2182806620
21
-23.0871594087
31
0.0000000000
0
SPLINE
5
336
100
AcDbEntity
8
0
100
AcDbSpline
62
0
6
CONTINUOUS
70
0
71
3
72
8
73
4
74
2
42
0.0000001000
43
0.0000001000
44
0.0000000001
12
0.0176288280
22
-0.3793361427
32
0.0000000000
13
0.0045053823
23
-0.3990056052
33
0.0000000000
40
0.0000000000
40
0.0000000000
40
0.0000000000
40
0.0000000000
40
1.0000000000
40
1.0000000000
40
1.0000000000
40
1.0000000000
10
-71.2182806620
20
-23.0871594087
30
0.0000000000
10
-71.2124043860
20
-23.2136047896
30
0.0000000000
10
-71.2094223493
20
-23.3444456912
30
0.0000000000
10
-71.2079205552
20
-23.4774475596
30
0.0000000000
11
-71.2182806620
21
-23.0871594087
31
0.0000000000
11
-71.2079205552
21
-23.4774475596
31
0.0000000000
0
SPLINE
5
337
100
AcDbEntity
8
0
100
AcDbSpline
62
0
6
CONTINUOUS
70
0
71
3
72
9
73
5
74
3
42
0.0000001000
43
0.0000001000
44
0.0000000001
12
0.0087127035
22
-0.7716143296
32
0.0000000000
13
-0.0091331249
23
-0.7715936105
33
0.0000000000
40
0.0000000000
40
0.0000000000
40
0.0000000000
40
0.0000000000
40
0.5001107187
40
1.0000000000
40
1.0000000000
40
1.0000000000
40
1.0000000000
10
-71.2079205552
20
-23.4774475596
30
0.0000000000
10
-71.2064681163
20
-23.6060784253
30
0.0000000000
10
-71.2063323636
20
-23.8673248344
30
0.0000000000
10
-71.2066181408
20
-24.1285706818
30
0.0000000000
10
-71.2081399912
20
-24.2571411403
30
0.0000000000
11
-71.2079205552
21
-23.4774475596
31
0.0000000000
11
-71.2064377627
21
-23.8673825437
31
0.0000000000
11
-71.2081399912
21
-24.2571411403
31
0.0000000000
0
SPLINE
5
338
100
AcDbEntity
8
0
100
AcDbSpline
62
0
6
CONTINUOUS
70
0
71
3
72
8
73
4
74
2
42
0.0000001000
43
0.0000001000
44
0.0000000001
12
-0.0047174805
22
-0.3985468151
32
0.0000000000
13
-0.0177665368
23
-0.3788874819
33
0.0000000000
40
0.0000000000
40
0.0000000000
40
0.0000000000
40
0.0000000000
40
1.0000000000
40
1.0000000000
40
1.0000000000
40
1.0000000000
10
-71.2081399912
20
-24.2571411403
30
0.0000000000
10
-71.2097124847
20
-24.3899900787
30
0.0000000000
10
-71.2127572771
20
-24.5206785598
30
0.0000000000
10
-71.2186794561
20
-24.6469743871
30
0.0000000000
11
-71.2081399912
21
-24.2571411403
31
0.0000000000
11
-71.2186794561
21
-24.6469743871
31
0.0000000000
0
SPLINE
5
339
100
AcDbEntity
8
0
100
AcDbSpline
62
0
6
CONTINUOUS
70
0
71
3
72
9
73
5
74
3
42
0.0000001000
43
0.0000001000
44
0.0000000001
12
-0.0236304866
22
-0.5039415193
32
0.0000000000
13
-0.0612763951
23
-0.4512969510
33
0.0000000000
40
0.0000000000
40
0.0000000000
40
0.0000000000
40
0.0000000000
40
0.7323581940
40
1.0000000000
40
1.0000000000
40
1.0000000000
40
1.0000000000
10
-71.2186794561
20
-24.6469743871
30
0.0000000000
10
-71.2244481162
20
-24.7699962874
30
0.0000000000
10
-71.2360528216
20
-24.9322857714
30
0.0000000000
10
-71.2551689966
20
-25.0829579381
30
0.0000000000
10
-71.2606357049
20
-25.1232199151
30
0.0000000000
11
-71.2186794561
21
-24.6469743871
31
0.0000000000
11
-71.2454744840
21
-25.0014734233
31
0.0000000000
11
-71.2606357049
21
-25.1232199151
31
0.0000000000
0
SPLINE
5
33A
100
AcDbEntity
8
0
100
AcDbSpline
62
0
6
CONTINUOUS
70
0
71
3
72
8
73
4
74
2
42
0.0000001000
43
0.0000001000
44
0.0000000001
12
-0.0597352604
22
-0.4399465868
32
0.0000000000
13
-0.0604270379
23
-0.5461691208
33
0.0000000000
40
0.0000000000
40
0.0000000000
40
0.0000000000
40
0.0000000000
40
1.0000000000
40
1.0000000000
40
1.0000000000
40
1.0000000000
10
-71.2606357049
20
-25.1232199151
30
0.0000000000
10
-71.2805474584
20
-25.2698687774
30
0.0000000000
10
-71.3051081848
20
-25.4156659913
30
0.0000000000
10
-71.3252505308
20
-25.5977223649
30
0.0000000000
11
-71.2606357049
21
-25.1232199151
31
0.0000000000
11
-71.3252505308
21
-25.5977223649
31
0.0000000000
0
SPLINE
5
33B
100
AcDbEntity
8
0
100
AcDbSpline
62
0
6
CONTINUOUS
70
0
71
3
72
9
73
5
74
3
42
0.0000001000
43
0.0000001000
44
0.0000000001
12
-0.0555191029
22
-0.5018088034
32
0.0000000000
13
-0.3442279953
23
-0.1806767668
33
0.0000000000
40
0.0000000000
40
0.0000000000
40
0.0000000000
40
0.0000000000
40
0.4125389988
40
1.0000000000
40
1.0000000000
40
1.0000000000
40
1.0000000000
10
-71.3252505308
20
-25.5977223649
30
0.0000000000
10
-71.3328851292
20
-25.6667275987
30
0.0000000000
10
-71.3498528094
20
-25.8466243403
30
0.0000000000
10
-71.3601894826
20
-26.0690034863
30
0.0000000000
10
-71.4275963235
20
-26.1043836711
30
0.0000000000
11
-71.3252505308
21
-25.5977223649
31
0.0000000000
11
-71.3457562682
21
-25.8223864555
31
0.0000000000
11
-71.4275963235
21
-26.1043836711
31
0.0000000000
0
SPLINE
5
33C
100
AcDbEntity
8
0
100
AcDbSpline
62
0
6
CONTINUOUS
70
0
71
3
72
11
73
7
74
5
42
0.0000001000
43
0.0000001000
44
0.0000000001
12
0.3953858446
22
-0.3529712941
32
0.0000000000
13
-0.4339224784
23
-0.3035399571
33
0.0000000000
40
0.0000000000
40
0.0000000000
40
0.0000000000
40
0.0000000000
40
0.3850328059
40
0.7002761823
40
0.9329447510
40
1.0000000000
40
1.0000000000
40
1.0000000000
40
1.0000000000
10
-72.4870797242
20
-18.1636288067
30
0.0000000000
10
-72.4363342171
20
-18.2089306492
30
0.0000000000
10
-72.3522284209
20
-18.2971055425
30
0.0000000000
10
-72.2615423631
20
-18.4486050057
30
0.0000000000
10
-72.3000997053
20
-18.5654938606
30
0.0000000000
10
-72.3400050604
20
-18.6000204570
30
0.0000000000
10
-72.3497039870
20
-18.6068051061
30
0.0000000000
11
-72.4870797242
21
-18.1636288067
31
0.0000000000
11
-72.3486943627
21
-18.3136146813
31
0.0000000000
11
-72.2825182852
21
-18.4670355857
31
0.0000000000
11
-72.3232062945
21
-18.5834483215
31
0.0000000000
11
-72.3497039870
21
-18.6068051061
31
0.0000000000
0
SPLINE
5
33D
100
AcDbEntity
8
0
100
AcDbSpline
62
0
6
CONTINUOUS
70
0
71
3
72
9
73
5
74
3
42
0.0000001000
43
0.0000001000
44
0.0000000001
12
-0.1748900532
22
-0.1223400997
32
0.0000000000
13
-0.2123452298
23
-0.0118712173
33
0.0000000000
40
0.0000000000
40
0.0000000000
40
0.0000000000
40
0.0000000000
40
0.4614607103
40
1.0000000000
40
1.0000000000
40
1.0000000000
40
1.0000000000
10
-72.3497039870
20
-18.6068051061
30
0.0000000000
10
-72.3766056164
20
-18.6256234892
30
0.0000000000
10
-72.4477587498
20
-18.6507362918
30
0.0000000000
10
-72.5181533132
20
-18.6602911870
30
0.0000000000
10
-72.5562720629
20
-18.6624222260
30
0.0000000000
11
-72.3497039870
21
-18.6068051061
31
0.0000000000
11
-72.4421128329
21
-18.6454876387
31
0.0000000000
11
-72.5562720629
21
-18.6624222260
31
0.0000000000
0
SPLINE
5
33E
100
AcDbEntity
8
0
100
AcDbSpline
62
0
6
CONTINUOUS
70
0
71
3
72
8
73
4
74
2
42
0.0000001000
43
0.0000001000
44
0.0000000001
12
-0.0447728125
22
-0.0025030361
32
0.0000000000
13
-0.0450417395
23
0.0000000000
33
0.0000000000
40
0.0000000000
40
0.0000000000
40
0.0000000000
40
0.0000000000
40
1.0000000000
40
1.0000000000
40
1.0000000000
40
1.0000000000
10
-72.5562720629
20
-18.6624222260
30
0.0000000000
10
-72.5711963338
20
-18.6632565714
30
0.0000000000
10
-72.5861525670
20
-18.6636288067
30
0.0000000000
10
-72.6011664802
20
-18.6636288067
30
0.0000000000
11
-72.5562720629
21
-18.6624222260
31
0.0000000000
11
-72.6011664802
21
-18.6636288067
31
0.0000000000
0
SPLINE
5
33F
100
AcDbEntity
8
0
100
AcDbSpline
62
0
6
CONTINUOUS
70
0
71
3
72
8
73
4
74
2
42
0.0000001000
43
0.0000001000
44
0.0000000001
12
-1.1603286504
22
-0.0604700329
32
0.0000000000
13
0.0000000018
23
-0.0000000345
33
0.0000000000
40
0.0000000000
40
0.0000000000
40
0.0000000000
40
0.0000000000
40
1.0000000000
40
1.0000000000
40
1.0000000000
40
1.0000000000
10
-70.6645062270
20
30.4962272791
30
0.0000000000
10
-71.0512824438
20
30.4760706015
30
0.0000000000
10
-71.8248347258
20
30.4357546486
30
0.0000000000
10
-71.8248347252
20
30.4357546371
30
0.0000000000
11
-70.6645062270
21
30.4962272791
31
0.0000000000
11
-71.8248347252
21
30.4357546371
31
0.0000000000
0
SPLINE
5
340
100
AcDbEntity
8
0
100
AcDbSpline
62
0
6
CONTINUOUS
70
0
71
3
72
10
73
6
74
4
42
0.0000001000
43
0.0000001000
44
0.0000000001
12
1.8650456029
22
-0.0732805924
32
0.0000000000
13
1.8650408234
23
-0.0734021321
33
0.0000000000
40
0.0000000000
40
0.0000000000
40
0.0000000000
40
0.0000000000
40
0.1840084217
40
0.5411617603
40
1.0000000000
40
1.0000000000
40
1.0000000000
40
1.0000000000
10
-70.6645062262
20
-30.2234847663
30
0.0000000000
10
-70.5501115269
20
-30.2279795151
30
0.0000000000
10
-70.2136819224
20
-30.2412200063
30
0.0000000000
10
-69.5920000817
20
-30.2656475564
30
0.0000000000
10
-69.0847124419
20
-30.2855676913
30
0.0000000000
10
-68.7994617591
20
-30.2967942597
30
0.0000000000
11
-70.6645062262
21
-30.2234847663
31
0.0000000000
11
-70.3213226095
21
-30.2369812508
31
0.0000000000
11
-69.6552156436
21
-30.2631612410
31
0.0000000000
11
-68.7994617591
21
-30.2967942597
31
0.0000000000
0
SPLINE
5
341
100
AcDbEntity
8
0
100
AcDbSpline
62
0
6
CONTINUOUS
70
0
71
3
72
10
73
6
74
4
42
0.0000001000
43
0.0000001000
44
0.0000000001
12
-1.8650997940
22
-0.0734043403
32
0.0000000000
13
-1.8651045533
23
-0.0732833144
33
0.0000000000
40
0.0000000000
40
0.0000000000
40
0.0000000000
40
0.0000000000
40
0.4589470485
40
0.8160611123
40
1.0000000000
40
1.0000000000
40
1.0000000000
40
1.0000000000
10
-68.7994027895
20
30.5695388608
30
0.0000000000
10
-69.0847301381
20
30.5583092924
30
0.0000000000
10
-69.5920770568
20
30.5383871043
30
0.0000000000
10
-70.2137785386
20
30.5139584168
30
0.0000000000
10
-70.5501511413
20
30.5007203701
30
0.0000000000
10
-70.6645062269
20
30.4962271530
30
0.0000000000
11
-68.7994027895
21
30.5695388608
31
0.0000000000
11
-69.6553866755
21
30.5358969468
31
0.0000000000
11
-70.3214414454
21
30.5097188986
31
0.0000000000
11
-70.6645062269
21
30.4962271530
31
0.0000000000
0
SPLINE
5
342
100
AcDbEntity
8
0
100
AcDbSpline
62
0
6
CONTINUOUS
70
0
71
3
72
10
73
6
74
4
42
0.0000001000
43
0.0000001000
44
0.0000000001
12
-0.0261052861
22
-0.4994867095
32
0.0000000000
13
0.4994829671
23
-0.0261767931
33
0.0000000000
40
0.0000000000
40
0.0000000000
40
0.0000000000
40
0.0000000000
40
0.4987235300
40
0.8640021309
40
1.0000000000
40
1.0000000000
40
1.0000000000
40
1.0000000000
10
-68.7981907826
20
-30.2968419678
30
0.0000000000
10
-68.8025305560
20
-30.3798772261
30
0.0000000000
10
-68.8186635794
20
-30.5383058054
30
0.0000000000
10
-68.7906808523
20
-30.6637662682
30
0.0000000000
10
-68.8208336556
20
-30.7949700725
30
0.0000000000
10
-68.7981907826
20
-30.7961567352
30
0.0000000000
11
-68.7981907826
21
-30.2968419678
31
0.0000000000
11
-68.8077244369
21
-30.5461054814
31
0.0000000000
11
-68.8077244339
21
-30.7288063060
31
0.0000000000
11
-68.7981907826
21
-30.7961567352
31
0.0000000000
0
SPLINE
5
343
100
AcDbEntity
8
0
100
AcDbSpline
62
0
6
CONTINUOUS
70
0
71
3
72
10
73
6
74
4
42
0.0000001000
43
0.0000001000
44
0.0000000001
12
-0.0011721666
22
-0.7454230524
32
0.0000000000
13
0.7443706792
23
-0.0396130414
33
0.0000000000
40
0.0000000000
40
0.0000000000
40
0.0000000000
40
0.0000000000
40
0.3354503319
40
0.6687485751
40
1.0000000000
40
1.0000000000
40
1.0000000000
40
1.0000000000
10
-70.6640080197
20
-30.2234850075
30
0.0000000000
10
-70.6641390876
20
-30.3068358109
30
0.0000000000
10
-70.6216984718
20
-30.4760444562
30
0.0000000000
10
-70.4456647912
20
-30.6654550605
30
0.0000000000
10
-70.2801168768
20
-30.7184256251
30
0.0000000000
10
-70.1979255941
20
-30.7227995839
30
0.0000000000
11
-70.6640080197
21
-30.2234850075
31
0.0000000000
11
-70.6026201538
21
-30.4658852807
31
0.0000000000
11
-70.4330883795
21
-30.6475047596
31
0.0000000000
11
-70.1979255941
21
-30.7227995839
31
0.0000000000
0
SPLINE
5
344
100
AcDbEntity
8
0
100
AcDbSpline
62
0
6
CONTINUOUS
70
0
71
3
72
9
73
5
74
3
42
0.0000001000
43
0.0000001000
44
0.0000000001
12
-0.5020062187
22
0.0000000000
32
0.0000000000
13
-0.0396934160
23
0.5535545953
33
0.0000000000
40
0.0000000000
40
0.0000000000
40
0.0000000000
40
0.0000000000
40
0.6262947680
40
1.0000000000
40
1.0000000000
40
1.0000000000
40
1.0000000000
10
-71.4673852804
20
-26.1136288067
30
0.0000000000
10
-71.5721865699
20
-26.1136288067
30
0.0000000000
10
-71.5722771174
20
-25.8615751316
30
0.0000000000
10
-71.5830071472
20
-25.6626709153
30
0.0000000000
10
-71.5879516929
20
-25.5937154992
30
0.0000000000
11
-71.4673852804
21
-26.1136288067
31
0.0000000000
11
-71.5764732739
21
-25.8187566274
31
0.0000000000
11
-71.5879516929
21
-25.5937154992
31
0.0000000000
0
SPLINE
5
345
100
AcDbEntity
8
0
100
AcDbSpline
62
0
6
CONTINUOUS
70
0
71
3
72
11
73
7
74
5
42
0.0000001000
43
0.0000001000
44
0.0000000001
12
-0.2804210903
22
3.9106834049
32
0.0000000000
13
0.2848224678
23
3.9110438290
33
0.0000000000
40
0.0000000000
40
0.0000000000
40
0.0000000000
40
0.0000000000
40
0.1802217649
40
0.5004242092
40
0.8202794521
40
1.0000000000
40
1.0000000000
40
1.0000000000
40
1.0000000000
10
-71.5879516929
20
-25.5937154992
30
0.0000000000
10
-71.6047976875
20
-25.3587854107
30
0.0000000000
10
-71.6816996255
20
-24.8797290371
30
0.0000000000
10
-71.6693879786
20
-23.8603103432
30
0.0000000000
10
-71.6812399739
20
-22.8414951916
30
0.0000000000
10
-71.6047149407
20
-22.3632066304
30
0.0000000000
10
-71.5876521241
20
-22.1289083171
30
0.0000000000
11
-71.5879516929
21
-25.5937154992
31
0.0000000000
11
-71.6492400120
21
-24.9952043100
31
0.0000000000
11
-71.6741029734
21
-23.8598750696
31
0.0000000000
11
-71.6489357296
21
-22.7257841901
31
0.0000000000
11
-71.5876521241
21
-22.1289083171
31
0.0000000000
0
SPLINE
5
346
100
AcDbEntity
8
0
100
AcDbSpline
62
0
6
CONTINUOUS
70
0
71
3
72
9
73
5
74
3
42
0.0000001000
43
0.0000001000
44
0.0000000001
12
0.0399603239
22
0.5487157649
32
0.0000000000
13
0.4975721339
23
0.0000000000
33
0.0000000000
40
0.0000000000
40
0.0000000000
40
0.0000000000
40
0.0000000000
40
0.3753748806
40
1.0000000000
40
1.0000000000
40
1.0000000000
40
1.0000000000
10
-71.5876521241
20
-22.1289083171
30
0.0000000000
10
-71.5826520901
20
-22.0602502789
30
0.0000000000
10
-71.5717263585
20
-21.8631079972
30
0.0000000000
10
-71.5709839650
20
-21.6136288067
30
0.0000000000
10
-71.4673852804
20
-21.6136288067
30
0.0000000000
11
-71.5876521241
21
-22.1289083171
31
0.0000000000
11
-71.5758844962
21
-21.9048711578
31
0.0000000000
11
-71.4673852804
21
-21.6136288067
31
0.0000000000
0
SPLINE
5
347
100
AcDbEntity
8
0
100
AcDbSpline
62
0
6
CONTINUOUS
70
0
71
3
72
10
73
6
74
4
42
0.0000001000
43
0.0000001000
44
0.0000000001
12
-0.0565879648
22
-0.4060100340
32
0.0000000000
13
-0.0004289731
23
0.0000678524
33
0.0000000000
40
0.0000000000
40
0.0000000000
40
0.0000000000
40
0.0000000000
40
0.7345403641
40
0.7789091093
40
1.0000000000
40
1.0000000000
40
1.0000000000
40
1.0000000000
10
-71.9153167128
20
-22.5698355746
30
0.0000000000
10
-71.9291720942
20
-22.6692458273
30
0.0000000000
10
-71.9442171736
20
-22.7758014597
30
0.0000000000
10
-71.9643684636
20
-22.9166404435
30
0.0000000000
10
-71.9665410653
20
-22.9316783631
30
0.0000000000
10
-71.9665726793
20
-22.9316733625
30
0.0000000000
11
-71.9153167128
21
-22.5698355746
31
0.0000000000
11
-71.9581271342
21
-22.8730147343
31
0.0000000000
11
-71.9607185400
21
-22.8911267403
31
0.0000000000
11
-71.9665726793
21
-22.9316733625
31
0.0000000000
0
SPLINE
5
348
100
AcDbEntity
8
0
100
AcDbSpline
62
0
6
CONTINUOUS
70
0
71
3
72
11
73
7
74
5
42
0.0000001000
43
0.0000001000
44
0.0000000001
12
-0.2602654089
22
-1.8673646931
32
0.0000000000
13
0.1831938177
23
1.5237687652
33
0.0000000000
40
0.0000000000
40
0.0000000000
40
0.0000000000
40
0.0000000000
40
0.1597067564
40
0.1693535897
40
0.4689690483
40
1.0000000000
40
1.0000000000
40
1.0000000000
40
1.0000000000
10
-71.9153167128
20
-22.5698355746
30
0.0000000000
10
-71.9291720942
20
-22.6692458273
30
0.0000000000
10
-71.9442171736
20
-22.7758014597
30
0.0000000000
10
-71.9876821461
20
-23.0795816429
30
0.0000000000
10
-71.8177463848
20
-21.8804533068
30
0.0000000000
10
-71.7840794489
20
-21.5993713940
30
0.0000000000
10
-71.7516522531
20
-21.3296486014
30
0.0000000000
11
-71.9153167128
21
-22.5698355746
31
0.0000000000
11
-71.9581271342
21
-22.8730147343
31
0.0000000000
11
-71.9607185400
21
-22.8911267403
31
0.0000000000
11
-71.8820219519
21
-22.3283433580
31
0.0000000000
11
-71.7516522531
21
-21.3296486014
31
0.0000000000
0
SPLINE
5
349
100
AcDbEntity
8
0
100
AcDbSpline
62
0
6
CONTINUOUS
70
0
71
3
72
14
73
10
74
8
42
0.0000001000
43
0.0000001000
44
0.0000000001
12
-0.5019677190
22
-4.7809167240
32
0.0000000000
13
0.4643793126
23
3.8626122908
33
0.0000000000
40
0.0000000000
40
0.0000000000
40
0.0000000000
40
0.0000000000
40
0.0834021403
40
0.3344222299
40
0.5444884617
40
0.6685112298
40
0.6723168261
40
0.7905126591
40
1.0000000000
40
1.0000000000
40
1.0000000000
40
1.0000000000
10
-71.5627120999
20
-19.6837416863
30
0.0000000000
10
-71.5766671606
20
-19.8166545821
30
0.0000000000
10
-71.6338528794
20
-20.3493171283
30
0.0000000000
10
-71.7348783785
20
-21.2140305401
30
0.0000000000
10
-71.8567953932
20
-22.1512134890
30
0.0000000000
10
-71.9298811792
20
-22.6756060435
30
0.0000000000
10
-71.9876821461
20
-23.0795816429
30
0.0000000000
10
-71.8177463848
20
-21.8804533068
30
0.0000000000
10
-71.7840794489
20
-21.5993713940
30
0.0000000000
10
-71.7516522531
20
-21.3296486014
30
0.0000000000
11
-71.5627120999
21
-19.6837416863
31
0.0000000000
11
-71.6054929535
21
-20.0822408500
31
0.0000000000
11
-71.7455961560
21
-21.2809291300
31
0.0000000000
11
-71.8757715479
21
-22.2824558860
31
0.0000000000
11
-71.9581271342
21
-22.8730147343
31
0.0000000000
11
-71.9607185400
21
-22.8911267403
31
0.0000000000
11
-71.8820219519
21
-22.3283433580
31
0.0000000000
11
-71.7516522531
21
-21.3296486014
31
0.0000000000
0
SPLINE
5
34A
100
AcDbEntity
8
0
100
AcDbSpline
62
0
6
CONTINUOUS
70
0
71
3
72
9
73
5
74
3
42
0.0000001000
43
0.0000001000
44
0.0000000001
12
-0.0947843514
22
-1.0206532767
32
0.0000000000
13
-0.1070024262
23
-1.0191286605
33
0.0000000000
40
0.0000000000
40
0.0000000000
40
0.0000000000
40
0.0000000000
40
0.1183422233
40
1.0000000000
40
1.0000000000
40
1.0000000000
40
1.0000000000
10
-71.4617860526
20
-18.6636455605
30
0.0000000000
10
-71.4655250495
20
-18.7039076865
30
0.0000000000
10
-71.4973638793
20
-19.0441141503
30
0.0000000000
10
-71.5312655928
20
-19.3842341166
30
0.0000000000
10
-71.5627120999
20
-19.6837416863
30
0.0000000000
11
-71.4617860526
21
-18.6636455605
31
0.0000000000
11
-71.4730896958
21
-18.7844280537
31
0.0000000000
11
-71.5627120999
21
-19.6837416863
31
0.0000000000
0
SPLINE
5
34B
100
AcDbEntity
8
0
100
AcDbSpline
62
0
6
CONTINUOUS
70
0
71
3
72
8
73
4
74
2
42
0.0000001000
43
0.0000001000
44
0.0000000001
12
-0.0039172860
22
-0.0424130259
32
0.0000000000
13
-0.0039386499
23
-0.0424120208
33
0.0000000000
40
0.0000000000
40
0.0000000000
40
0.0000000000
40
0.0000000000
40
1.0000000000
40
1.0000000000
40
1.0000000000
40
1.0000000000
10
-71.4578580848
20
-18.6212330398
30
0.0000000000
10
-71.4591638468
20
-18.6353707151
30
0.0000000000
10
-71.4604731693
20
-18.6495082202
30
0.0000000000
10
-71.4617860526
20
-18.6636455605
30
0.0000000000
11
-71.4578580848
21
-18.6212330398
31
0.0000000000
11
-71.4617860526
21
-18.6636455605
31
0.0000000000
0
SPLINE
5
34C
100
AcDbEntity
8
0
100
AcDbSpline
62
0
6
CONTINUOUS
70
0
71
3
72
12
73
8
74
6
42
0.0000001000
43
0.0000001000
44
0.0000000001
12
0.0000000000
22
-7.7685322224
32
0.0000000000
13
-0.7145811073
23
-7.7368736835
33
0.0000000000
40
0.0000000000
40
0.0000000000
40
0.0000000000
40
0.0000000000
40
0.2222806364
40
0.4421714433
40
0.6513456473
40
0.8436188674
40
1.0000000000
40
1.0000000000
40
1.0000000000
40
1.0000000000
10
-71.0996429058
20
-10.8636288067
30
0.0000000000
10
-71.0996429058
20
-11.4392269021
30
0.0000000000
10
-71.1114137715
20
-12.5842680894
30
0.0000000000
10
-71.1632176820
20
-14.2702561116
30
0.0000000000
10
-71.2444522266
20
-15.8772452436
30
0.0000000000
10
-71.3440215547
20
-17.3184589373
30
0.0000000000
10
-71.4206090839
20
-18.2179326832
30
0.0000000000
10
-71.4578580848
20
-18.6212330398
30
0.0000000000
11
-71.0996429058
21
-10.8636288067
31
0.0000000000
11
-71.1173899508
21
-12.5903318934
31
0.0000000000
11
-71.1698406715
21
-14.2977552790
31
0.0000000000
11
-71.2518665187
21
-15.9206602451
31
0.0000000000
11
-71.3547936541
21
-17.4107904594
31
0.0000000000
11
-71.4578580848
21
-18.6212330398
31
0.0000000000
0
SPLINE
5
34D
100
AcDbEntity
8
0
100
AcDbSpline
62
0
6
CONTINUOUS
70
0
71
3
72
10
73
6
74
4
42
0.0000001000
43
0.0000001000
44
0.0000000001
12
-0.0011262059
22
0.7458542720
32
0.0000000000
13
0.7448326076
23
0.0390416456
33
0.0000000000
40
0.0000000000
40
0.0000000000
40
0.0000000000
40
0.0000000000
40
0.3354210008
40
0.6687190503
40
1.0000000000
40
1.0000000000
40
1.0000000000
40
1.0000000000
10
-70.6644995754
20
30.4962273610
30
0.0000000000
10
-70.6646254931
20
30.5796190898
30
0.0000000000
10
-70.6221180582
20
30.7489186436
30
0.0000000000
10
-70.4458704044
20
30.9383486978
30
0.0000000000
10
-70.2801752203
20
30.9912308772
30
0.0000000000
10
-70.1979256025
20
30.9955421283
30
0.0000000000
11
-70.6644995754
21
30.4962273610
31
0.0000000000
11
-70.6030251304
21
30.7387323283
31
0.0000000000
11
-70.4332999091
21
30.9203675680
31
0.0000000000
11
-70.1979256025
21
30.9955421283
31
0.0000000000
0
SPLINE
5
34E
100
AcDbEntity
8
0
100
AcDbSpline
62
0
6
CONTINUOUS
70
0
71
3
72
10
73
6
74
4
42
0.0000001000
43
0.0000001000
44
0.0000000001
12
-0.0261024795
22
0.4994869133
32
0.0000000000
13
0.4994830242
23
0.0261767936
33
0.0000000000
40
0.0000000000
40
0.0000000000
40
0.0000000000
40
0.0000000000
40
0.4988710476
40
0.8641004426
40
1.0000000000
40
1.0000000000
40
1.0000000000
40
1.0000000000
10
-68.7981907826
20
30.5695843545
30
0.0000000000
10
-68.8025313730
20
30.6526442077
30
0.0000000000
10
-68.8186668084
20
30.8110953062
30
0.0000000000
10
-68.7906850105
20
30.9365537636
30
0.0000000000
10
-68.8208172899
20
31.0677133170
30
0.0000000000
10
-68.7981907825
20
31.0688991219
30
0.0000000000
11
-68.7981907826
21
30.5695843545
31
0.0000000000
11
-68.8077250863
21
30.8189217094
31
0.0000000000
11
-68.8077215794
21
31.0015979435
31
0.0000000000
11
-68.7981907825
21
31.0688991219
31
0.0000000000
0
SPLINE
5
34F
100
AcDbEntity
8
0
100
AcDbSpline
62
0
6
CONTINUOUS
70
0
71
3
72
8
73
4
74
2
42
0.0000001000
43
0.0000001000
44
0.0000000001
12
-1.1603292826
22
0.0604701965
32
0.0000000000
13
-0.0000000018
23
-0.0000000340
33
0.0000000000
40
0.0000000000
40
0.0000000000
40
0.0000000000
40
0.0000000000
40
1.0000000000
40
1.0000000000
40
1.0000000000
40
1.0000000000
10
-70.6645062261
20
-30.2234848903
30
0.0000000000
10
-71.0512826536
20
-30.2033281581
30
0.0000000000
10
-71.8248351426
20
-30.1630122603
30
0.0000000000
10
-71.8248351432
20
-30.1630122716
30
0.0000000000
11
-70.6645062261
21
-30.2234848903
31
0.0000000000
11
-71.8248351432
21
-30.1630122716
31
0.0000000000
0
SPLINE
5
350
100
AcDbEntity
8
0
100
AcDbSpline
62
0
6
CONTINUOUS
70
0
71
3
72
12
73
8
74
6
42
0.0000001000
43
0.0000001000
44
0.0000000001
12
0.0000000000
22
7.7685320524
32
0.0000000000
13
-0.7145810761
23
7.7368735150
33
0.0000000000
40
0.0000000000
40
0.0000000000
40
0.0000000000
40
0.0000000000
40
0.2222806413
40
0.4421714529
40
0.6513456615
40
0.8436188858
40
1.0000000000
40
1.0000000000
40
1.0000000000
40
1.0000000000
10
-71.0996429058
20
-10.8636288067
30
0.0000000000
10
-71.0996429058
20
-10.2880307112
30
0.0000000000
10
-71.1114137715
20
-9.1429895239
30
0.0000000000
10
-71.1632176820
20
-7.4570015017
30
0.0000000000
10
-71.2444522266
20
-5.8500123697
30
0.0000000000
10
-71.3440215508
20
-4.4087987326
30
0.0000000000
10
-71.4206090743
20
-3.5093250430
30
0.0000000000
10
-71.4578580692
20
-3.1060247428
30
0.0000000000
11
-71.0996429058
21
-10.8636288067
31
0.0000000000
11
-71.1173899508
21
-9.1369257199
31
0.0000000000
11
-71.1698406715
21
-7.4295023343
31
0.0000000000
11
-71.2518665187
21
-5.8065973682
31
0.0000000000
11
-71.3547936541
21
-4.3164671539
31
0.0000000000
11
-71.4578580692
21
-3.1060247428
31
0.0000000000
0
SPLINE
5
351
100
AcDbEntity
8
0
100
AcDbSpline
62
0
6
CONTINUOUS
70
0
71
3
72
8
73
4
74
2
42
0.0000001000
43
0.0000001000
44
0.0000000001
12
-0.0039172352
22
0.0424124768
32
0.0000000000
13
-0.0039385985
23
0.0424114717
33
0.0000000000
40
0.0000000000
40
0.0000000000
40
0.0000000000
40
0.0000000000
40
1.0000000000
40
1.0000000000
40
1.0000000000
40
1.0000000000
10
-71.4578580692
20
-3.1060247428
30
0.0000000000
10
-71.4591638143
20
-3.0918872505
30
0.0000000000
10
-71.4604731197
20
-3.0777499285
30
0.0000000000
10
-71.4617859859
20
-3.0636127712
30
0.0000000000
11
-71.4578580692
21
-3.1060247428
31
0.0000000000
11
-71.4617859859
21
-3.0636127712
31
0.0000000000
0
SPLINE
5
352
100
AcDbEntity
8
0
100
AcDbSpline
62
0
6
CONTINUOUS
70
0
71
3
72
14
73
10
74
8
42
0.0000001000
43
0.0000001000
44
0.0000000001
12
-0.4021624987
22
4.3305514447
32
0.0000000000
13
-0.0045234232
23
-0.0007154934
33
0.0000000000
40
0.0000000000
40
0.0000000000
40
0.0000000000
40
0.0000000000
40
0.0278918512
40
0.3279003180
40
0.6054403770
40
0.8376998525
40
0.9748254763
40
0.9790331292
40
1.0000000000
40
1.0000000000
40
1.0000000000
40
1.0000000000
10
-71.4617859859
20
-3.0636127712
30
0.0000000000
10
-71.4655250047
20
-3.0233504057
30
0.0000000000
10
-71.5098209407
20
-2.5500363882
30
0.0000000000
10
-71.5989822165
20
-1.6764109710
30
0.0000000000
10
-71.7348783785
20
-0.5132270732
30
0.0000000000
10
-71.8567953932
20
0.4239558757
30
0.0000000000
10
-71.9298811792
20
0.9483484302
30
0.0000000000
10
-71.9643684636
20
1.1893828302
30
0.0000000000
10
-71.9665410653
20
1.2044207498
30
0.0000000000
10
-71.9665726793
20
1.2044157492
30
0.0000000000
11
-71.4617859859
21
-3.0636127712
31
0.0000000000
11
-71.4730896958
21
-2.9428295596
31
0.0000000000
11
-71.6054929535
21
-1.6450167633
31
0.0000000000
11
-71.7455961560
21
-0.4463284833
31
0.0000000000
11
-71.8757715479
21
0.5551982727
31
0.0000000000
11
-71.9581271342
21
1.1457571210
31
0.0000000000
11
-71.9607185400
21
1.1638691270
31
0.0000000000
11
-71.9665726793
21
1.2044157492
31
0.0000000000
0
ENDSEC
0
SECTION
2
OBJECTS
0
DICTIONARY
5
C
100
AcDbDictionary
280
0
281
1
3
ACAD_GROUP
350
D
3
ACAD_MLINESTYLE
350
17
3
ACAD_LAYOUT
350
1A
3
ACAD_PLOTSETTINGS
350
19
3
ACAD_PLOTSTYLENAME
350
E
0
DICTIONARY
5
D
102
{ACAD_REACTORS
330
C
102
}
100
AcDbDictionary
280
0
281
1
0
ACDBDICTIONARYWDFLT
5
E
102
{ACAD_REACTORS
330
C
102
}
100
AcDbDictionary
281
1
3
Normal
350
F
100
AcDbDictionaryWithDefault
340
F
0
DICTIONARY
5
17
102
{ACAD_REACTORS
330
C
102
}
100
AcDbDictionary
280
0
281
1
3
Standard
350
18
0
DICTIONARY
5
19
102
{ACAD_REACTORS
330
C
102
}
100
AcDbDictionary
281
1
0
DICTIONARY
5
1A
102
{ACAD_REACTORS
330
C
102
}
100
AcDbDictionary
281
1
3
Layout1
350
1E
3
Model
350
22
0
ACDBPLACEHOLDER
5
F
102
{ACAD_REACTORS
330
E
102
}
0
MLINESTYLE
5
18
102
{ACAD_REACTORS
330
17
102
}
100
AcDbMlineStyle
2
STANDARD
70
0
3

62
256
51
90.0
52
90.0
71
2
49
0.5
62
256
6
BYLAYER
49
-0.5
62
256
6
BYLAYER
0
LAYOUT
5
1E
102
{ACAD_REACTORS
330
1A
102
}
100
AcDbPlotSettings
1

2

4

6

40
0.0
41
0.0
42
0.0
43
0.0
44
0.0
45
0.0
46
0.0
47
0.0
48
0.0
49
0.0
140
0.0
141
0.0
142
1.0
143
1.0
70
0
72
0
73
0
74
0
7

75
0
147
1.0
148
0.0
149
0.0
100
AcDbLayout
1
Layout1
70
0
71
0
10
0.0
20
0.0
11
0.0
21
0.0
12
0.0
22
0.0
32
0.0
14
0.0
24
0.0
34
0.0
15
0.0
25
0.0
35
0.0
146
0.0
13
0.0
23
0.0
33
0.0
16
0.0
26
0.0
36
0.0
17
0.0
27
0.0
37
0.0
76
0
330
1B
331
0
345
0
346
0
0
LAYOUT
5
22
102
{ACAD_REACTORS
330
1A
102
}
100
AcDbPlotSettings
1

2

4

6

40
0.0
41
0.0
42
0.0
43
0.0
44
0.0
45
0.0
46
0.0
47
0.0
48
0.0
49
0.0
140
0.0
141
0.0
142
1.0
143
1.0
70
0
72
0
73
0
74
0
7

75
0
147
1.0
148
0.0
149
0.0
100
AcDbLayout
1
Model
70
0
71
0
10
0.0
20
0.0
11
0.0
21
0.0
12
0.0
22
0.0
32
0.0
14
0.0
24
0.0
34
0.0
15
0.0
25
0.0
35
0.0
146
0.0
13
0.0
23
0.0
33
0.0
16
0.0
26
0.0
36
0.0
17
0.0
27
0.0
37
0.0
76
0
330
1F
331
0
345
0
346
0
0
ENDSEC
0
EOF
