  0
SECTION
  2
HEADER
  9
$ACADVER
  1
AC1024
  9
$DWGCODEPAGE
  3
ANSI_1252
  9
$EXTMAX
 10
558.8
 20
431.8
 30
0.0
  9
$EXTMIN
 10
0.0
 20
0.0
 30
0.0
  9
$LIMMIN
 10
0.0
 20
0.0
  9
$LIMMAX
 10
558.8
 20
431.8
  9
$VIEWCTR
 10
279.4
 20
215.9
  9
$VIEWSIZE
 40
431.8
  9
$CLAYER
  8
0
  9
$LTSCALE
 40
30.734
  9
$CELTYPE
  6
BYLAYER
  9
$DIMSCALE
 40
1.0
  9
$DIMASZ
 40
3.0
  9
$DIMEXO
 40
0.5
  9
$DIMDLI
 40
21.2344
  9
$DIMEXE
 40
1.5
  9
$DIMCEN
 40
5.0292
  9
$DIMLFAC
 40
1.0
  9
$DIMBLK
  1
_FILLED
  9
$DIMALT
 70
0
  9
$DIMALTF
 40
0.0393700787
  9
$DIMTXT
 40
3.0
  9
$DIMTOL
 70
1
  9
$DIMLIM
 70
0
  9
$DIMTFAC
 40
1.0
  9
$DIMTP
 40
0.01
  9
$DIMTM
 40
0.01
  9
$DIMGAP
 40
0.625
  9
$DIMDSEP
 70
44
  9
$AUNITS
 70
0
  9
$PDMODE
 70
3
  9
$PDSIZE
 40
3.0
  9
$HANDSEED
  5
338
  9
$TILEMODE
 70
1
  9
$MEASUREMENT
 70
1
  9
$INSUNITS
 70
4
  0
ENDSEC
  0
SECTION
  2
CLASSES
  0
CLASS
  1
ACDBDICTIONARYWDFLT
  2
AcDbDictionaryWithDefault
  3
AutoCAD 2000
 90
0
 91
1
280
0
281
0
  0
CLASS
  1
ACDBPLACEHOLDER
  2
AcDbPlaceHolder
  3
AutoCAD 2000
 90
0
 91
1
280
0
281
0
  0
CLASS
  1
LAYOUT
  2
AcDbLayout
  3
AutoCAD 2000
 90
0
 91
0
280
0
281
0
  0
ENDSEC
  0
SECTION
  2
TABLES
  0
TABLE
  2
VPORT
  5
8
100
AcDbSymbolTable
 70
2
  0
VPORT
  5
1F4
100
AcDbSymbolTableRecord
100
AcDbViewportTableRecord
  2
*ACTIVE
 70
0
 10
0.0
 20
0.0
 11
1.0
 21
1.0
 12
279.4
 22
215.9
 13
0.0
 23
0.0
 14
1.0
 24
1.0
 15
0.0
 25
0.0
 16
0.0
 26
0.0
 36
1.0
 17
0.0
 27
0.0
 37
0.0
 40
431.8
 41
1.2941176471
 42
50.0
 43
0.0
 44
0.0
 50
0.0
 51
0.0
 71
0
 72
100
 73
1
 74
1
 75
0
 76
0
 77
0
 78
0
  0
ENDTAB
  0
TABLE
  2
LTYPE
  5
5
100
AcDbSymbolTable
 70
6
  0
LTYPE
  5
14
100
AcDbSymbolTableRecord
100
AcDbLinetypeTableRecord
  2
BYBLOCK
 70
0
  3

 72
65
 73
0
 40
0.0
  0
LTYPE
  5
15
100
AcDbSymbolTableRecord
100
AcDbLinetypeTableRecord
  2
BYLAYER
 70
0
  3

 72
65
 73
0
 40
0.0
  0
LTYPE
  5
16
100
AcDbSymbolTableRecord
100
AcDbLinetypeTableRecord
  2
CONTINUOUS
 70
64
  3
Solid line
 72
65
 73
0
 40
0.0
  0
LTYPE
  5
1F5
100
AcDbSymbolTableRecord
100
AcDbLinetypeTableRecord
  2
CENTER
 70
64
  3
____ _ ____ _ ____ _ ____ _ ____ _ ____ _ ____
 72
65
 73
4
 40
0.6
 49
0.375
 74
0
 49
-0.075
 74
0
 49
0.075
 74
0
 49
-0.075
 74
0
  0
LTYPE
  5
1F6
100
AcDbSymbolTableRecord
100
AcDbLinetypeTableRecord
  2
HIDDEN
 70
64
  3
- - - - - - - - - - - - - - - - - - - -
 72
65
 73
2
 40
0.2
 49
0.1
 74
0
 49
-0.1
 74
0
  0
LTYPE
  5
1F7
100
AcDbSymbolTableRecord
100
AcDbLinetypeTableRecord
  2
PHANTOM
 70
64
  3
_____ _ _ _____ _ _ _____ _ _ _____
 72
65
 73
6
 40
0.8
 49
0.45
 74
0
 49
-0.05
 74
0
 49
0.1
 74
0
 49
-0.05
 74
0
 49
0.1
 74
0
 49
-0.05
 74
0
  0
LTYPE
  5
1F8
100
AcDbSymbolTableRecord
100
AcDbLinetypeTableRecord
  2
DOT
 70
64
  3
. . . . . . . . . . . . . . . . . . . .
 72
65
 73
2
 40
0.2
 49
0.1
 74
0
 49
-0.1
 74
0
  0
LTYPE
  5
1F9
100
AcDbSymbolTableRecord
100
AcDbLinetypeTableRecord
  2
DASHED
 70
64
  3
- - - - - - - - - - - - - - - - - - - -
 72
65
 73
2
 40
0.2
 49
0.1
 74
0
 49
-0.1
 74
0
  0
ENDTAB
  0
TABLE
  2
LAYER
  5
2
100
AcDbSymbolTable
 70
36
  0
LAYER
  5
10
100
AcDbSymbolTableRecord
100
AcDbLayerTableRecord
  2
0
 70
0
 62
7
  6
CONTINUOUS
370
-3
390
F
  0
LAYER
  5
1FA
100
AcDbSymbolTableRecord
100
AcDbLayerTableRecord
  2
DEFAULT_1
 70
0
 62
7
  6
CENTER
370
-3
390
F
  0
LAYER
  5
1FB
100
AcDbSymbolTableRecord
100
AcDbLayerTableRecord
  2
DEFAULT_2
 70
0
 62
7
  6
HIDDEN
370
-3
390
F
  0
LAYER
  5
1FC
100
AcDbSymbolTableRecord
100
AcDbLayerTableRecord
  2
DEFAULT_3
 70
0
 62
7
  6
PHANTOM
370
-3
390
F
  0
LAYER
  5
1FD
100
AcDbSymbolTableRecord
100
AcDbLayerTableRecord
  2
ASSI
 70
0
 62
7
  6
CONTINUOUS
370
-3
390
F
  0
LAYER
  5
1FE
100
AcDbSymbolTableRecord
100
AcDbLayerTableRecord
  2
COORDINATE
 70
0
 62
7
  6
CONTINUOUS
370
-3
390
F
  0
LAYER
  5
1FF
100
AcDbSymbolTableRecord
100
AcDbLayerTableRecord
  2
COPY_PUBLISH
 70
0
 62
7
  6
CONTINUOUS
370
-3
390
F
  0
LAYER
  5
200
100
AcDbSymbolTableRecord
100
AcDbLayerTableRecord
  2
COSMETICI
 70
0
 62
7
  6
CONTINUOUS
370
-3
390
F
  0
LAYER
  5
201
100
AcDbSymbolTableRecord
100
AcDbLayerTableRecord
  2
CURVE
 70
0
 62
7
  6
CONTINUOUS
370
-3
390
F
  0
LAYER
  5
202
100
AcDbSymbolTableRecord
100
AcDbLayerTableRecord
  2
DRAFT
 70
0
 62
7
  6
CONTINUOUS
370
-3
390
F
  0
LAYER
  5
203
100
AcDbSymbolTableRecord
100
AcDbLayerTableRecord
  2
IMPORT_IGES
 70
0
 62
7
  6
CONTINUOUS
370
-3
390
F
  0
LAYER
  5
204
100
AcDbSymbolTableRecord
100
AcDbLayerTableRecord
  2
INTF_1
 70
0
 62
7
  6
CONTINUOUS
370
-3
390
F
  0
LAYER
  5
205
100
AcDbSymbolTableRecord
100
AcDbLayerTableRecord
  2
INTF_11
 70
0
 62
7
  6
CONTINUOUS
370
-3
390
F
  0
LAYER
  5
206
100
AcDbSymbolTableRecord
100
AcDbLayerTableRecord
  2
INTF_2
 70
0
 62
7
  6
CONTINUOUS
370
-3
390
F
  0
LAYER
  5
207
100
AcDbSymbolTableRecord
100
AcDbLayerTableRecord
  2
NOTE
 70
0
 62
7
  6
CONTINUOUS
370
-3
390
F
  0
LAYER
  5
208
100
AcDbSymbolTableRecord
100
AcDbLayerTableRecord
  2
PIANI
 70
0
 62
7
  6
CONTINUOUS
370
-3
390
F
  0
LAYER
  5
209
100
AcDbSymbolTableRecord
100
AcDbLayerTableRecord
  2
PUNTI
 70
0
 62
7
  6
CONTINUOUS
370
-3
390
F
  0
LAYER
  5
20A
100
AcDbSymbolTableRecord
100
AcDbLayerTableRecord
  2
RACCORDO
 70
0
 62
7
  6
CONTINUOUS
370
-3
390
F
  0
LAYER
  5
20B
100
AcDbSymbolTableRecord
100
AcDbLayerTableRecord
  2
RGB__255__255__255__
 70
0
 62
7
  6
CONTINUOUS
370
-3
390
F
  0
LAYER
  5
20C
100
AcDbSymbolTableRecord
100
AcDbLayerTableRecord
  2
SIMBOLI
 70
0
 62
7
  6
CONTINUOUS
370
-3
390
F
  0
LAYER
  5
20D
100
AcDbSymbolTableRecord
100
AcDbLayerTableRecord
  2
SMUSSO
 70
0
 62
7
  6
CONTINUOUS
370
-3
390
F
  0
LAYER
  5
20E
100
AcDbSymbolTableRecord
100
AcDbLayerTableRecord
  2
SNAPLINE
 70
0
 62
7
  6
CONTINUOUS
370
-3
390
F
  0
LAYER
  5
20F
100
AcDbSymbolTableRecord
100
AcDbLayerTableRecord
  2
SUPERFICI
 70
0
 62
7
  6
CONTINUOUS
370
-3
390
F
  0
LAYER
  5
210
100
AcDbSymbolTableRecord
100
AcDbLayerTableRecord
  2
TRASH
 70
0
 62
7
  6
CONTINUOUS
370
-3
390
F
  0
ENDTAB
  0
TABLE
  2
STYLE
  5
3
100
AcDbSymbolTable
 70
1
  0
STYLE
  5
11
100
AcDbSymbolTableRecord
100
AcDbTextStyleTableRecord
  2
STANDARD
 70
0
 40
0.0
 41
0.8
 50
0.0
 71
0
 42
0.2
  3
txt
  4

  0
STYLE
  5
211
100
AcDbSymbolTableRecord
100
AcDbTextStyleTableRecord
  2
TEXTSTYLE_1
 70
0
 40
0.0
 41
0.8
 50
0.0
 71
0
 42
0.2
  3
gdt
  4

  0
ENDTAB
  0
TABLE
  2
VIEW
  5
6
100
AcDbSymbolTable
 70
0
  0
ENDTAB
  0
TABLE
  2
UCS
  5
7
100
AcDbSymbolTable
 70
0
  0
ENDTAB
  0
TABLE
  2
APPID
  5
9
100
AcDbSymbolTable
 70
1
  0
APPID
  5
212
100
AcDbSymbolTableRecord
100
AcDbRegAppTableRecord
  2
ACAD
 70
0
  0
ENDTAB
  0
TABLE
  2
BLOCK_RECORD
  5
1
100
AcDbSymbolTable
 70
0
  0
BLOCK_RECORD
  5
213
100
AcDbSymbolTableRecord
100
AcDbBlockTableRecord
  2
*Model_Space
  0
BLOCK_RECORD
  5
214
100
AcDbSymbolTableRecord
100
AcDbBlockTableRecord
  2
*Paper_Space
  0
BLOCK_RECORD
  5
215
100
AcDbSymbolTableRecord
100
AcDbBlockTableRecord
  2
_FILLED
  0
BLOCK_RECORD
  5
216
100
AcDbSymbolTableRecord
100
AcDbBlockTableRecord
  2
*D0
  0
BLOCK_RECORD
  5
217
100
AcDbSymbolTableRecord
100
AcDbBlockTableRecord
  2
*D1
  0
BLOCK_RECORD
  5
218
100
AcDbSymbolTableRecord
100
AcDbBlockTableRecord
  2
*D2
  0
BLOCK_RECORD
  5
219
100
AcDbSymbolTableRecord
100
AcDbBlockTableRecord
  2
*D3
  0
ENDTAB
  0
TABLE
  2
DIMSTYLE
  5
A
100
AcDbSymbolTable
 70
1
100
AcDbDimStyleTable
 71
0
  0
DIMSTYLE
105
21A
100
AcDbSymbolTableRecord
100
AcDbDimStyleTableRecord
  2
STANDARD
 70
0
  3

  4

 40
1.0
 41
3.0
 42
0.5
 43
0.38
 44
1.5
 45
0.0
 46
0.0
 47
0.01
 48
0.01
140
3.0
141
0.09
142
0.0
143
25.4
144
1.0
145
0.0
146
1.0
147
0.625
 71
1.0
 72
0.0
 73
0
 74
0
 75
0
 76
0
 77
1
 78
8
 79
2
170
0
171
1
172
0
173
0
174
0
175
0
176
0
177
0
178
0
270
2
179
2
271
2
272
2
273
2
274
2
275
0
280
0
281
0
282
0
283
1
284
8
285
0
286
0
287
3
288
0
340
11
278
44
341
215
342
215
343
215
344
215
  0
DIMSTYLE
105
21B
100
AcDbSymbolTableRecord
100
AcDbDimStyleTableRecord
  2
DIMSTYLE_1
 70
0
  3

  4

 40
1.0
 41
3.0
 42
0.5
 43
0.38
 44
1.5
 45
0.0
 46
0.0
 47
0.0
 48
0.0
140
3.0
141
0.09
142
0.0
143
25.4
144
1.0
145
0.0
146
1.0
147
0.75
 71
0.0
 72
0.0
 73
0
 74
0
 75
0
 76
0
 77
1
 78
8
 79
2
170
0
171
1
172
0
173
0
174
0
175
0
176
0
177
0
178
0
270
2
179
2
271
2
272
2
273
2
274
2
275
0
280
0
281
0
282
0
283
1
284
8
285
0
286
0
287
3
288
0
340
11
278
44
341
215
342
215
343
215
344
215
  0
ENDTAB
  0
ENDSEC
  0
SECTION
  2
BLOCKS
  0
BLOCK
  5
20
100
AcDbEntity
  8
0
100
AcDbBlockBegin
  2
*Model_Space
 70
0
 10
0.0
 20
0.0
 30
0.0
  3
*Model_Space
  1

  0
ENDBLK
  5
21
100
AcDbEntity
  8
0
100
AcDbBlockEnd
  0
BLOCK
  5
1C
100
AcDbEntity
  8
0
100
AcDbBlockBegin
  2
*Paper_Space
 70
0
 10
0.0
 20
0.0
 30
0.0
  3
*Paper_Space
  1

  0
ENDBLK
  5
1D
100
AcDbEntity
  8
0
100
AcDbBlockEnd
  0
BLOCK
  5
21C
100
AcDbEntity
  8
0
100
AcDbBlockBegin
  2
_FILLED
 70
64
 10
0.0
 20
0.0
  3
_FILLED
  1

  0
SOLID
  5
21D
100
AcDbEntity
  8
0
  6
BYBLOCK
 62
0
100
AcDbTrace
 10
0.0
 20
0.0
 11
-1.0
 21
0.3166666667
 12
-1.0
 22
-0.3166666667
 13
-1.0
 23
-0.3166666667
  0
ENDBLK
  5
21E
100
AcDbEntity
  8
0
  6
BYBLOCK
 62
0
100
AcDbBlockEnd
  0
BLOCK
  5
21F
100
AcDbEntity
  8
0
100
AcDbBlockBegin
 62
7
  6
CONTINUOUS
  2
*D0
 70
65
 10
0.0
 20
0.0
  3
*D0
  1

  0
LINE
  5
220
100
AcDbEntity
  8
0
100
AcDbLine
 62
7
  6
CONTINUOUS
 10
-80.7559067447
 20
22.3585247046
 11
-80.7559067447
 21
36.9974222208
  0
LINE
  5
221
100
AcDbEntity
  8
0
100
AcDbLine
 62
7
  6
CONTINUOUS
 10
-43.2559067447
 20
0.5
 11
-43.2559067447
 21
36.9974222208
  0
LINE
  5
222
100
AcDbEntity
  8
0
100
AcDbLine
 62
7
  6
CONTINUOUS
 10
-80.7559067447
 20
35.4974222208
 11
-62.0059067447
 21
35.4974222208
  0
LINE
  5
223
100
AcDbEntity
  8
0
100
AcDbLine
 62
7
  6
CONTINUOUS
 10
-43.2559067447
 20
35.4974222208
 11
-62.0059067447
 21
35.4974222208
  0
INSERT
  5
224
100
AcDbEntity
  8
0
100
AcDbBlockReference
 62
7
  6
CONTINUOUS
  2
_FILLED
 10
-80.7559067447
 20
35.4974222208
 41
3.0
 42
3.0
 43
3.0
 50
180.0
  0
INSERT
  5
225
100
AcDbEntity
  8
0
100
AcDbBlockReference
 62
7
  6
CONTINUOUS
  2
_FILLED
 10
-43.2559067447
 20
35.4974222208
 41
3.0
 42
3.0
 43
3.0
 50
0.0
  0
ENDBLK
  5
226
100
AcDbEntity
  8
0
  6
BYBLOCK
 62
0
100
AcDbBlockEnd
  0
BLOCK
  5
227
100
AcDbEntity
  8
0
100
AcDbBlockBegin
 62
7
  6
CONTINUOUS
  2
*D1
 70
65
 10
0.0
 20
0.0
  3
*D1
  1

  0
LINE
  5
228
100
AcDbEntity
  8
0
100
AcDbLine
 62
7
  6
CONTINUOUS
 10
-104.0559067447
 20
0.5
 11
-104.0559067447
 21
47.0836090685
  0
LINE
  5
229
100
AcDbEntity
  8
0
100
AcDbLine
 62
7
  6
CONTINUOUS
 10
-43.2559067447
 20
0.5
 11
-43.2559067447
 21
47.0836090685
  0
LINE
  5
22A
100
AcDbEntity
  8
0
100
AcDbLine
 62
7
  6
CONTINUOUS
 10
-104.0559067447
 20
45.5836090685
 11
-73.6559067447
 21
45.5836090685
  0
LINE
  5
22B
100
AcDbEntity
  8
0
100
AcDbLine
 62
7
  6
CONTINUOUS
 10
-43.2559067447
 20
45.5836090685
 11
-73.6559067447
 21
45.5836090685
  0
INSERT
  5
22C
100
AcDbEntity
  8
0
100
AcDbBlockReference
 62
7
  6
CONTINUOUS
  2
_FILLED
 10
-104.0559067447
 20
45.5836090685
 41
3.0
 42
3.0
 43
3.0
 50
180.0
  0
INSERT
  5
22D
100
AcDbEntity
  8
0
100
AcDbBlockReference
 62
7
  6
CONTINUOUS
  2
_FILLED
 10
-43.2559067447
 20
45.5836090685
 41
3.0
 42
3.0
 43
3.0
  0
ENDBLK
  5
22E
100
AcDbEntity
  8
0
  6
BYBLOCK
 62
0
100
AcDbBlockEnd
  0
BLOCK
  5
22F
100
AcDbEntity
  8
0
100
AcDbBlockBegin
 62
7
  6
CONTINUOUS
  2
*D2
 70
65
 10
0.0
 20
0.0
  3
*D2
  1

  0
LINE
  5
230
100
AcDbEntity
  8
0
100
AcDbLine
 62
7
  6
CONTINUOUS
 10
-27.5
 20
23.0
 11
-27.5
 21
47.1253678586
  0
LINE
  5
231
100
AcDbEntity
  8
0
100
AcDbLine
 62
7
  6
CONTINUOUS
 10
27.5
 20
0.5
 11
27.5
 21
47.1253678586
  0
LINE
  5
232
100
AcDbEntity
  8
0
100
AcDbLine
 62
7
  6
CONTINUOUS
 10
-27.5
 20
45.6253678586
 11
-0.0
 21
45.6253678586
  0
LINE
  5
233
100
AcDbEntity
  8
0
100
AcDbLine
 62
7
  6
CONTINUOUS
 10
27.5
 20
45.6253678586
 11
-0.0
 21
45.6253678586
  0
INSERT
  5
234
100
AcDbEntity
  8
0
100
AcDbBlockReference
 62
7
  6
CONTINUOUS
  2
_FILLED
 10
-27.5
 20
45.6253678586
 41
3.0
 42
3.0
 43
3.0
 50
180.0
  0
INSERT
  5
235
100
AcDbEntity
  8
0
100
AcDbBlockReference
 62
7
  6
CONTINUOUS
  2
_FILLED
 10
27.5
 20
45.6253678586
 41
3.0
 42
3.0
 43
3.0
  0
ENDBLK
  5
236
100
AcDbEntity
  8
0
  6
BYBLOCK
 62
0
100
AcDbBlockEnd
  0
BLOCK
  5
237
100
AcDbEntity
  8
0
100
AcDbBlockBegin
 62
7
  6
CONTINUOUS
  2
*D3
 70
65
 10
0.0
 20
0.0
  3
*D3
  1

  0
LINE
  5
238
100
AcDbEntity
  8
0
100
AcDbLine
 62
7
  6
CONTINUOUS
 10
0.5
 20
27.5
 11
36.9156605203
 21
27.5
  0
LINE
  5
239
100
AcDbEntity
  8
0
100
AcDbLine
 62
7
  6
CONTINUOUS
 10
23.0
 20
-27.5
 11
36.9156605203
 21
-27.5
  0
LINE
  5
23A
100
AcDbEntity
  8
0
100
AcDbLine
 62
7
  6
CONTINUOUS
 10
35.4156605203
 20
27.5
 11
35.4156605203
 21
0.0
  0
LINE
  5
23B
100
AcDbEntity
  8
0
100
AcDbLine
 62
7
  6
CONTINUOUS
 10
35.4156605203
 20
-27.5
 11
35.4156605203
 21
0.0
  0
INSERT
  5
23C
100
AcDbEntity
  8
0
100
AcDbBlockReference
 62
7
  6
CONTINUOUS
  2
_FILLED
 10
35.4156605203
 20
27.5
 41
3.0
 42
3.0
 43
3.0
 50
90.0
  0
INSERT
  5
23D
100
AcDbEntity
  8
0
100
AcDbBlockReference
 62
7
  6
CONTINUOUS
  2
_FILLED
 10
35.4156605203
 20
-27.5
 41
3.0
 42
3.0
 43
3.0
 50
270.0
  0
ENDBLK
  5
23E
100
AcDbEntity
  8
0
  6
BYBLOCK
 62
0
100
AcDbBlockEnd
  0
ENDSEC
  0
SECTION
  2
ENTITIES
  0
DIMENSION
  5
23F
100
AcDbEntity
  8
0
100
AcDbDimension
 62
7
  6
CONTINUOUS
  2
*D0
 10
-43.2559067447
 20
35.4974222208
 11
-66.1844781733
 21
35.4974222208
 70
160
 71
2
 72
2
 41
0.9
 42
37.5
  3
DIMSTYLE_1
100
AcDbAlignedDimension
 13
-80.7559067447
 23
21.8585247046
 14
-43.2559067447
 24
0.0
100
AcDbRotatedDimension
  0
DIMENSION
  5
240
100
AcDbEntity
  8
0
100
AcDbDimension
 62
7
  6
CONTINUOUS
  2
*D1
 10
-43.2559067447
 20
45.5836090685
 11
-78.0487638876
 21
45.5836090685
 70
160
 71
2
 72
2
 41
0.9
 42
60.8
  3
DIMSTYLE_1
100
AcDbAlignedDimension
 13
-104.0559067447
 23
0.0
 14
-43.2559067447
 24
0.0
100
AcDbRotatedDimension
  0
DIMENSION
  5
241
100
AcDbEntity
  8
0
100
AcDbDimension
 62
7
  6
CONTINUOUS
  2
*D2
 10
27.5
 20
45.6253678586
 11
-2.1428571429
 21
45.6253678586
 70
160
 71
2
 72
2
 41
0.9
 42
55.0
  3
DIMSTYLE_1
100
AcDbAlignedDimension
 13
-27.5
 23
22.5
 14
27.5
 24
0.0
100
AcDbRotatedDimension
  0
DIMENSION
  5
242
100
AcDbEntity
  8
0
100
AcDbDimension
 62
7
  6
CONTINUOUS
  2
*D3
 10
35.4156605203
 20
-27.5
 11
35.4156605203
 21
-2.1428571429
 70
160
 71
2
 72
2
 41
0.9
 42
55.0
  3
DIMSTYLE_1
100
AcDbAlignedDimension
 13
-0.0
 23
27.5
 14
22.5
 24
-27.5
 50
270.0
100
AcDbRotatedDimension
  0
LWPOLYLINE
  5
243
100
AcDbEntity
  8
RACCORDO
100
AcDbPolyline
 62
250
  6
CONTINUOUS
 90
16
 70
0
 10
-27.5
 20
22.5
 10
-27.4982276245
 20
22.5111291275
 10
-27.4929230646
 20
22.5221793526
 10
-27.4841239289
 20
22.5330723346
 10
-27.4718926007
 20
22.5437308482
 10
-27.456315796
 20
22.5540793299
 10
-27.4375039496
 20
22.5640444137
 10
-27.4155904306
 20
22.5735554524
 10
-27.3907305968
 20
22.5825450183
 10
-27.3631006953
 20
22.5909493799
 10
-27.3328966104
 20
22.5987089552
 10
-27.3003324751
 20
22.6057687338
 10
-27.2656391551
 20
22.6120786659
 10
-27.22906261
 20
22.6175940184
 10
-27.1908621489
 20
22.6222756912
 10
-27.1513085938
 20
22.6260904948
  0
LWPOLYLINE
  5
244
100
AcDbEntity
  8
RACCORDO
100
AcDbPolyline
 62
250
  6
CONTINUOUS
 90
16
 70
0
 10
22.5
 20
-27.5
 10
22.5111291054
 20
-27.4982276305
 10
22.5221793112
 20
-27.492923087
 10
22.5330722772
 20
-27.4841239762
 10
22.5437307779
 20
-27.4718926791
 10
22.5540792503
 20
-27.4563159094
 10
22.5640443289
 20
-27.4375040982
 10
22.5735553667
 20
-27.4155906114
 10
22.5825449352
 20
-27.3907308044
 10
22.5909493033
 20
-27.3631009201
 10
22.5987088883
 20
-27.3328968401
 10
22.6057686788
 20
-27.3003326955
 10
22.6120786247
 20
-27.2656393491
 10
22.6175939916
 20
-27.2290627586
 10
22.6222756786
 20
-27.1908622329
 10
22.6260904948
 20
-27.1513085938
  0
LINE
  5
245
100
AcDbEntity
  8
RACCORDO
100
AcDbLine
 62
7
  6
CONTINUOUS
 10
-27.5
 20
22.5
 11
-27.5
 21
-0.0
  0
LWPOLYLINE
  5
246
100
AcDbEntity
  8
RACCORDO
100
AcDbPolyline
 62
250
  6
CONTINUOUS
 90
3
 70
0
 10
-27.1969596493
 20
-0.0
 10
-27.1974668501
 20
0.9846641848
 10
-27.192290928
 20
6.0129077433
  0
LINE
  5
247
100
AcDbEntity
  8
RACCORDO
100
AcDbLine
 62
250
  6
CONTINUOUS
 10
-27.192290928
 20
6.0129077433
 11
-27.1821471593
 21
11.1829449501
  0
LINE
  5
248
100
AcDbEntity
  8
RACCORDO
100
AcDbLine
 62
250
  6
CONTINUOUS
 10
-27.1821471593
 20
11.1829449501
 11
-27.1772038277
 21
13.157260264
  0
LINE
  5
249
100
AcDbEntity
  8
RACCORDO
100
AcDbLine
 62
250
  6
CONTINUOUS
 10
-27.1772038277
 20
13.157260264
 11
-27.1670340355
 21
17.2966018589
  0
LINE
  5
24A
100
AcDbEntity
  8
RACCORDO
100
AcDbLine
 62
250
  6
CONTINUOUS
 10
-27.1670340355
 20
17.2966018589
 11
-27.1619836781
 21
19.1810510785
  0
LWPOLYLINE
  5
24B
100
AcDbEntity
  8
RACCORDO
100
AcDbPolyline
 62
250
  6
CONTINUOUS
 90
3
 70
0
 10
-27.1619836781
 20
19.1810510785
 10
-27.1592158673
 20
19.7781476816
 10
-27.1571037266
 20
20.8956340949
  0
LWPOLYLINE
  5
24C
100
AcDbEntity
  8
RACCORDO
100
AcDbPolyline
 62
250
  6
CONTINUOUS
 90
5
 70
0
 10
-27.1571037266
 20
20.8956340949
 10
-27.1546988529
 20
21.3986951003
 10
-27.150718375
 20
21.852377794
 10
-27.1489848011
 20
22.2616893883
 10
-27.1513085938
 20
22.6260904948
  0
LWPOLYLINE
  5
24D
100
AcDbEntity
  8
RACCORDO
100
AcDbPolyline
 62
250
  6
CONTINUOUS
 90
34
 70
0
 10
-27.1513085938
 20
22.6260904948
 10
-27.1452334951
 20
22.8418965227
 10
-27.1294624662
 20
23.0552876274
 10
-27.1040115137
 20
23.2661597943
 10
-27.0689846456
 20
23.4739380099
 10
-27.0243250572
 20
23.6789768571
 10
-26.969783655
 20
23.8825648204
 10
-26.9050395978
 20
24.0858405562
 10
-26.8303996816
 20
24.2874265995
 10
-26.7465817519
 20
24.4848335415
 10
-26.6536796482
 20
24.6774600797
 10
-26.5517262637
 20
24.8656454022
 10
-26.441421043
 20
25.0483154157
 10
-26.3229413244
 20
25.2251690132
 10
-26.1962881943
 20
25.3962542554
 10
-26.0619278897
 20
25.5610329804
 10
-25.9200097237
 20
25.7193798413
 10
-25.7705896199
 20
25.8711790632
 10
-25.6140116123
 20
26.015917288
 10
-25.4501799614
 20
26.153635876
 10
-25.2794179733
 20
26.2840625379
 10
-25.1027205767
 20
26.4062363157
 10
-24.9203204047
 20
26.5199508627
 10
-24.732245478
 20
26.6252305978
 10
-24.5392029853
 20
26.7214935596
 10
-24.3413164248
 20
26.8086806531
 10
-24.1387292487
 20
26.886708266
 10
-23.9321876649
 20
26.9549880792
 10
-23.7217463849
 20
27.0134993512
 10
-23.5076147772
 20
27.0621659044
 10
-23.2907745695
 20
27.100354814
 10
-23.0716363718
 20
27.1278521275
 10
-22.8500364111
 20
27.1448408563
 10
-22.6260904948
 20
27.1513085938
  0
LINE
  5
24E
100
AcDbEntity
  8
RACCORDO
100
AcDbLine
 62
250
  6
CONTINUOUS
 10
22.6260904948
 20
-27.1513085938
 11
21.6628614778
 21
-27.1560574663
  0
LWPOLYLINE
  5
24F
100
AcDbEntity
  8
RACCORDO
100
AcDbPolyline
 62
250
  6
CONTINUOUS
 90
3
 70
0
 10
1.7366341703
 20
-27.1984634808
 10
0.8769514067
 20
-27.1992939935
 10
-0.0
 20
-27.1969596493
  0
LINE
  5
250
100
AcDbEntity
  8
RACCORDO
100
AcDbLine
 62
250
  6
CONTINUOUS
 10
21.6628614778
 20
-27.1560574663
 11
8.1878437934
 21
-27.1888449525
  0
LINE
  5
251
100
AcDbEntity
  8
RACCORDO
100
AcDbLine
 62
250
  6
CONTINUOUS
 10
8.1878437934
 20
-27.1888449525
 11
4.2255376835
 21
-27.1947923262
  0
LINE
  5
252
100
AcDbEntity
  8
RACCORDO
100
AcDbLine
 62
7
  6
CONTINUOUS
 10
22.5
 20
-27.5
 11
-0.0
 21
-27.5
  0
LWPOLYLINE
  5
253
100
AcDbEntity
  8
RACCORDO
100
AcDbPolyline
 62
250
  6
CONTINUOUS
 90
3
 70
0
 10
4.2255376835
 20
-27.1947923262
 10
3.4095006565
 20
-27.1947976431
 10
1.7366341703
 20
-27.1984634808
  0
LWPOLYLINE
  5
254
100
AcDbEntity
  8
0
100
AcDbPolyline
 62
7
  6
CONTINUOUS
 90
54
 70
0
 10
-20.0645574341
 20
4.489233704
 10
-20.2048729911
 20
3.8083949096
 10
-20.3221119821
 20
3.1230768636
 10
-20.4161444396
 20
2.4339209138
 10
-20.4868239198
 20
1.7418526917
 10
-20.5340351789
 20
1.048086071
 10
-20.5577480723
 20
0.3537777108
 10
-20.5579962277
 20
-0.3406385303
 10
-20.5347762755
 20
-1.0350296335
 10
-20.4880382236
 20
-1.7290729929
 10
-20.4178066723
 20
-2.4214986046
 10
-20.3242403819
 20
-3.1107584662
 10
-20.2075824247
 20
-3.7955575442
 10
-20.0679443168
 20
-4.4756378334
 10
-19.9053237728
 20
-5.151008428
 10
-19.7197139006
 20
-5.8214059002
 10
-19.5114048814
 20
-6.4855257147
 10
-19.280879441
 20
-7.1418297977
 10
-19.0286250136
 20
-7.7891305179
 10
-18.7548148901
 20
-8.427165668
 10
-18.4595158866
 20
-9.0558022825
 10
-18.1428802421
 20
-9.6746192768
 10
-17.8053910186
 20
-10.282581998
 10
-17.4476236779
 20
-10.8786465083
 10
-17.0701115506
 20
-11.4619759613
 10
-16.6732009058
 20
-12.0320842757
 10
-16.2572388427
 20
-12.588484615
 10
-15.8226758593
 20
-13.1305661604
 10
-15.3700255834
 20
-13.6576803305
 10
-14.8997383772
 20
-14.1692905365
 10
-14.4122103255
 20
-14.6649333965
 10
-13.9081125671
 20
-15.143895237
 10
-13.3883631732
 20
-15.6053186249
 10
-12.853920749
 20
-16.0484278996
 10
-12.3050935572
 20
-16.4730406307
 10
-11.7418270353
 20
-16.8791875315
 10
-11.164366281
 20
-17.2666000771
 10
-10.5736925086
 20
-17.6345302918
 10
-9.97085426
 20
-17.9822906932
 10
-9.3568599572
 20
-18.3093138466
 10
-8.73210057
 20
-18.6154052369
 10
-8.0967152948
 20
-18.9004543213
 10
-7.4507525498
 20
-19.1643236369
 10
-6.7955634089
 20
-19.4063485176
 10
-6.1332875746
 20
-19.6257462198
 10
-5.4651778591
 20
-19.8222150948
 10
-4.7915675957
 20
-19.9957636744
 10
-4.1132747915
 20
-20.1462592135
 10
-3.430760011
 20
-20.2739008355
 10
-2.7451292383
 20
-20.3783123607
 10
-2.0582570722
 20
-20.4586467821
 10
-1.371383484
 20
-20.5147464775
 10
-0.6850156238
 20
-20.5470256862
 10
-0.0
 20
-20.5556475187
  0
LWPOLYLINE
  5
255
100
AcDbEntity
  8
0
100
AcDbPolyline
 62
7
  6
CONTINUOUS
 90
45
 70
0
 10
-19.8506923432
 20
5.5439106047
 10
-19.771061141
 20
5.9042046244
 10
-19.7010012863
 20
6.2562839153
 10
-19.6418806378
 20
6.6003849051
 10
-19.5931115401
 20
6.93758592
 10
-19.5520796894
 20
7.2696693214
 10
-19.5185462918
 20
7.596546906
 10
-19.4932786759
 20
7.9191492311
 10
-19.4749471086
 20
8.2406013961
 10
-19.4631633021
 20
8.56180755
 10
-19.4584772754
 20
8.8825437362
 10
-19.4607684373
 20
9.2042008109
 10
-19.4700177537
 20
9.5281061446
 10
-19.4862607413
 20
9.8535551141
 10
-19.5094960992
 20
10.1788408249
 10
-19.5403092768
 20
10.5050290892
 10
-19.578318034
 20
10.8315179649
 10
-19.6223675861
 20
11.1539138985
 10
-19.6737645667
 20
11.4732778036
 10
-19.7318118913
 20
11.7886816573
 10
-19.7928571787
 20
12.0923668173
 10
-19.8577015217
 20
12.38208352
 10
-19.9267851145
 20
12.6596521323
 10
-19.99622086
 20
12.9230924786
 10
-20.0656678947
 20
13.1698460427
 10
-20.1366063672
 20
13.4018997037
 10
-20.2077041796
 20
13.6240861681
 10
-20.2786730795
 20
13.8362447895
 10
-20.3504293098
 20
14.0381925322
 10
-20.4231336429
 20
14.2348786845
 10
-20.4965706088
 20
14.4265369555
 10
-20.5712694136
 20
14.6127641355
 10
-20.6482850802
 20
14.7976884405
 10
-20.7278811566
 20
14.9824489015
 10
-20.8099120435
 20
15.1658645255
 10
-20.8947173746
 20
15.3486516143
 10
-20.9826225311
 20
15.5312470704
 10
-21.073405667
 20
15.7131776555
 10
-21.1665811648
 20
15.893793868
 10
-21.2623549527
 20
16.07300845
 10
-21.3606503949
 20
16.2508417183
 10
-21.4605685058
 20
16.4267896728
 10
-21.5618537352
 20
16.6006545411
 10
-21.6648921019
 20
16.7725507424
 10
-21.7697480348
 20
16.9424364153
  0
LWPOLYLINE
  5
256
100
AcDbEntity
  8
0
100
AcDbPolyline
 62
7
  6
CONTINUOUS
 90
40
 70
0
 10
4.5965812595
 20
-20.0399934845
 10
5.5394291816
 20
-19.8101500879
 10
5.910865414
 20
-19.7286767072
 10
6.279899568
 20
-19.6570315755
 10
6.6478252307
 20
-19.5956291319
 10
7.0148323092
 20
-19.5441849544
 10
7.3799365235
 20
-19.5018191726
 10
7.7433350148
 20
-19.4685826136
 10
8.1060087713
 20
-19.4446523574
 10
8.4680087595
 20
-19.4294301378
 10
8.8301260928
 20
-19.422934434
 10
9.1925218793
 20
-19.4253263563
 10
9.5541853079
 20
-19.43630919
 10
9.9170315728
 20
-19.4565713336
 10
10.2798923421
 20
-19.48568019
 10
10.6368651125
 20
-19.5220424096
 10
10.9881597658
 20
-19.5670784012
 10
11.3337822849
 20
-19.6202871214
 10
11.6670537449
 20
-19.6777912525
 10
11.9849847471
 20
-19.7401642424
 10
12.2901446348
 20
-19.8083378835
 10
12.5839059515
 20
-19.879135007
 10
12.8648648451
 20
-19.9522949254
 10
13.1339668022
 20
-20.0292052842
 10
13.3961628578
 20
-20.1088451311
 10
13.6516198327
 20
-20.1910006033
 10
13.8999048885
 20
-20.2765131153
 10
14.1452245758
 20
-20.3656069308
 10
14.3885217526
 20
-20.4584460403
 10
14.6287381742
 20
-20.5551932385
 10
14.8671726174
 20
-20.6558950943
 10
15.1043543687
 20
-20.7608112287
 10
15.3396586062
 20
-20.8699400031
 10
15.5726631673
 20
-20.9829019205
 10
15.8031574622
 20
-21.1000064587
 10
16.0312125188
 20
-21.2212284463
 10
16.2568178224
 20
-21.3456802618
 10
16.4799200898
 20
-21.4731467516
 10
16.700421606
 20
-21.6040977808
 10
16.9182433086
 20
-21.7386613933
  0
LWPOLYLINE
  5
257
100
AcDbEntity
  8
0
100
AcDbPolyline
 62
7
  6
CONTINUOUS
 90
9
 70
0
 10
4.6047681658
 20
-20.0787061079
 10
4.0324820388
 20
-20.2014092477
 10
3.458334469
 20
-20.3075965385
 10
2.8828586308
 20
-20.3974246297
 10
2.3064710494
 20
-20.4708191595
 10
1.7295063584
 20
-20.5274601619
 10
1.1524206844
 20
-20.5672817807
 10
0.5757560819
 20
-20.5904863307
 10
-0.0
 20
-20.5971653992
  0
LWPOLYLINE
  5
258
100
AcDbEntity
  8
0
100
AcDbPolyline
 62
250
  6
CONTINUOUS
 90
97
 70
0
 10
-0.0
 20
-20.5563561689
 10
0.5921155595
 20
-20.5471964302
 10
1.1837130265
 20
-20.5211423474
 10
1.7743150456
 20
-20.4782156939
 10
2.3634512948
 20
-20.4185037146
 10
2.9506431679
 20
-20.3420023306
 10
3.5353891546
 20
-20.2486181112
 10
4.1171932211
 20
-20.1383770912
 10
4.6955802594
 20
-20.0114226859
 10
5.2700703087
 20
-19.8678602478
 10
5.8401864731
 20
-19.707808956
 10
6.4054557101
 20
-19.5314016146
 10
6.9654092688
 20
-19.3387844914
 10
7.5195824851
 20
-19.1301173843
 10
8.0675153515
 20
-18.9055734623
 10
8.6087532761
 20
-18.6653389714
 10
9.1428474183
 20
-18.4096130587
 10
9.6693541112
 20
-18.1386080766
 10
10.1878354448
 20
-17.8525494212
 10
10.6978607857
 20
-17.551674749
 10
11.1990072254
 20
-17.2362336098
 10
11.6908589988
 20
-16.9064877416
 10
12.1730079061
 20
-16.562710841
 10
12.6450538246
 20
-16.2051882328
 10
13.1066051601
 20
-15.8342165282
 10
13.5572788976
 20
-15.4501035847
 10
13.9967009799
 20
-15.0531682235
 10
14.4245067703
 20
-14.6437398337
 10
14.8403412342
 20
-14.2221582025
 10
15.2438592493
 20
-13.7887732259
 10
15.6347259377
 20
-13.3439445719
 10
16.0126169032
 20
-12.888041426
 10
16.3772185317
 20
-12.4214421486
 10
16.7282282598
 20
-11.9445339455
 10
17.0653547841
 20
-11.457712598
 10
17.3883182996
 20
-10.9613821481
 10
17.6968507609
 20
-10.4559545251
 10
17.9906961083
 20
-9.9418491954
 10
18.2696104691
 20
-9.419492831
 10
18.5333623551
 20
-8.8893189671
 10
18.7817328687
 20
-8.3517676174
 10
19.0145158841
 20
-7.8072849046
 10
19.2315182098
 20
-7.2563227073
 10
19.4325597498
 20
-6.699338285
 10
19.6174736543
 20
-6.1367938949
 10
19.7861064594
 20
-5.5691564051
 10
19.938318212
 20
-4.9968969134
 10
20.0739825871
 20
-4.4204903549
 10
20.1929869934
 20
-3.8404151038
 10
20.2952326658
 20
-3.2571525798
 10
20.3806347472
 20
-2.6711868502
 10
20.4491223596
 20
-2.0830042266
 10
20.5006386632
 20
-1.4930928588
 10
20.5351409033
 20
-0.9019423306
 10
20.5526004453
 20
-0.3100432551
 10
20.5530027992
 20
0.2821131334
 10
20.5363476311
 20
0.8740353879
 10
20.5026487636
 20
1.465232256
 10
20.451934164
 20
2.0552130876
 10
20.3842459221
 20
2.6434882398
 10
20.2996402144
 20
3.229569484
 10
20.1981872581
 20
3.8129704133
 10
20.0799712519
 20
4.3932068481
 10
19.9450903064
 20
4.9697972347
 10
19.7936563637
 20
5.5422630434
 10
19.6257951028
 20
6.1101291695
 10
19.4416458356
 20
6.6729243283
 10
19.2413613925
 20
7.2301814397
 10
19.025107995
 20
7.7814380204
 10
18.7930651158
 20
8.3262365711
 10
18.5454253314
 20
8.864124952
 10
18.2823941661
 20
9.3946567494
 10
18.0041899217
 20
9.9173916505
 10
17.7110434849
 20
10.4318958279
 10
17.4031981492
 20
10.9377422746
 10
17.0809094202
 20
11.4345111511
 10
16.744444791
 20
11.9217901561
 10
16.3940834922
 20
12.3991749054
 10
16.0301162725
 20
12.8662692408
 10
15.6528451906
 20
13.3226855148
 10
15.2625833599
 20
13.7680449254
 10
14.8596546596
 20
14.2019778652
 10
14.4443934973
 20
14.624124192
 10
14.0171445013
 20
15.0341335605
 10
13.5782622217
 20
15.431665721
 10
13.1281109201
 20
15.8163907247
 10
12.6670641624
 20
16.1879892943
 10
12.1955044661
 20
16.5461531089
 10
11.7138232366
 20
16.8905848646
 10
11.2224201718
 20
17.2209987333
 10
10.7217027985
 20
17.5371206584
 10
10.2120026469
 20
17.8385423547
 10
9.6938351198
 20
18.1251546654
 10
9.1678564628
 20
18.3971715153
 10
8.6345351879
 20
18.6545393423
 10
8.0941942062
 20
18.8969136662
 10
7.5472410956
 20
19.124108822
  0
LWPOLYLINE
  5
259
100
AcDbEntity
  8
0
100
AcDbPolyline
 62
7
  6
CONTINUOUS
 90
9
 70
0
 10
-0.0
 20
-20.5563561689
 10
0.5750198581
 20
-20.5498501905
 10
1.1508887719
 20
-20.5268258635
 10
1.7271191337
 20
-20.4871969478
 10
2.3032133715
 20
-20.4307573924
 10
2.8786709449
 20
-20.3575850847
 10
3.4530266741
 20
-20.2680402398
 10
4.0258247586
 20
-20.1622265936
 10
4.5965812595
 20
-20.0399934845
  0
LWPOLYLINE
  5
25A
100
AcDbEntity
  8
0
100
AcDbPolyline
 62
7
  6
CONTINUOUS
 90
55
 70
0
 10
-0.0
 20
-20.5943307983
 10
-0.6819955226
 20
-20.5855346425
 10
-1.366325676
 20
-20.553341643
 10
-2.0521574954
 20
-20.4974909698
 10
-2.7392380282
 20
-20.4174646553
 10
-3.4260794334
 20
-20.3133085908
 10
-4.1100600371
 20
-20.1858337446
 10
-4.7903572472
 20
-20.0352918987
 10
-5.4662048246
 20
-19.8615389215
 10
-6.1351963116
 20
-19.6651786471
 10
-6.7956447583
 20
-19.4468274527
 10
-7.4477752958
 20
-19.2065252309
 10
-8.0920651117
 20
-18.944089124
 10
-8.728157605
 20
-18.6595630816
 10
-9.354879566
 20
-18.3533712572
 10
-9.9714484336
 20
-18.0258205975
 10
-10.5774604212
 20
-17.6770281136
 10
-11.171835697
 20
-17.3075152497
 10
-11.7528583296
 20
-16.9183427668
 10
-12.3196674439
 20
-16.5101724767
 10
-12.8718780868
 20
-16.0833688875
 10
-13.4086047785
 20
-15.6387121413
 10
-13.9287533311
 20
-15.1772800644
 10
-14.4323663534
 20
-14.6992109004
 10
-14.9201934423
 20
-14.2037962327
 10
-15.3921421575
 20
-13.6909444378
 10
-15.8470397288
 20
-13.1617374092
 10
-16.2839540686
 20
-12.6171644874
 10
-16.7024734983
 20
-12.0576688831
 10
-17.1019624962
 20
-11.4840271113
 10
-17.4813226954
 20
-10.8978601926
 10
-17.8399119677
 20
-10.3003660592
 10
-18.1776999943
 20
-9.6918121568
 10
-18.4945965583
 20
-9.0724802621
 10
-18.7901814899
 20
-8.443286062
 10
-19.0642477384
 20
-7.8047714959
 10
-19.3169109619
 20
-7.1566019045
 10
-19.5480094889
 20
-6.4988710529
 10
-19.7569539172
 20
-5.8329042403
 10
-19.9432240374
 20
-5.160214625
 10
-20.1066036364
 20
-4.4815722909
 10
-20.2469019799
 20
-3.7977572608
 10
-20.3638338827
 20
-3.1103487903
 10
-20.4572810776
 20
-2.4206715834
 10
-20.527312098
 20
-1.7290049247
 10
-20.5739645177
 20
-1.035366613
 10
-20.5971860074
 20
-0.3404828509
 10
-20.5969445104
 20
0.3547912443
 10
-20.5732101073
 20
1.0502503851
 10
-20.5259055729
 20
1.745623214
 10
-20.4550343913
 20
2.4395835806
 10
-20.3607688341
 20
3.1303502176
 10
-20.2433183944
 20
3.8168128568
 10
-20.1028182628
 20
4.4985217452
 10
-19.8506923432
 20
5.5439106047
  0
LWPOLYLINE
  5
25B
100
AcDbEntity
  8
0
100
AcDbPolyline
 62
7
  6
CONTINUOUS
 90
52
 70
0
 10
16.9182433086
 20
-21.7386613933
 10
17.0964196813
 20
-21.8427272026
 10
17.2762927626
 20
-21.9355479434
 10
17.4578768465
 20
-22.0170228787
 10
17.6416683772
 20
-22.0867073884
 10
17.8271604973
 20
-22.1448429783
 10
18.012829369
 20
-22.1923978686
 10
18.1983156657
 20
-22.2293842552
 10
18.3838664617
 20
-22.2556877189
 10
18.5688408503
 20
-22.2721441853
 10
18.7532538391
 20
-22.2788428897
 10
18.9369299832
 20
-22.2756389273
 10
19.1189307316
 20
-22.2630583826
 10
19.2990586456
 20
-22.2411457111
 10
19.477308476
 20
-22.209862499
 10
19.6530223105
 20
-22.1696485565
 10
19.8263357959
 20
-22.1204518538
 10
19.9968858642
 20
-22.0623716252
 10
20.1632659294
 20
-21.9961208644
 10
20.3250126166
 20
-21.9218729236
 10
20.4823529528
 20
-21.8395850349
 10
20.6349220496
 20
-21.7496840305
 10
20.7828148441
 20
-21.6521119007
 10
20.9257015943
 20
-21.5470767202
 10
21.0625954704
 20
-21.4354310523
 10
21.1931383968
 20
-21.317497631
 10
21.3174813037
 20
-21.1931556772
 10
21.4354157398
 20
-21.0626135192
 10
21.5470624094
 20
-20.9257202122
 10
21.6520986464
 20
-20.7828338459
 10
21.7496719744
 20
-20.6349411698
 10
21.8395744075
 20
-20.4823718763
 10
21.9218638546
 20
-20.3250310752
 10
21.996113286
 20
-20.1632837221
 10
22.0623654126
 20
-19.9969028268
 10
22.1204469312
 20
-19.8263517333
 10
22.1696448112
 20
-19.6530369967
 10
22.2098598154
 20
-19.4773215786
 10
22.241143966
 20
-19.2990699466
 10
22.2630574146
 20
-19.118940313
 10
22.2756385732
 20
-18.9369380524
 10
22.2788429941
 20
-18.7532604822
 10
22.2721445741
 20
-18.5688460826
 10
22.2556881638
 20
-18.3838701831
 10
22.2293845833
 20
-18.1983178965
 10
22.1923980549
 20
-18.0128304095
 10
22.1448430329
 20
-17.8271607613
 10
22.0867072999
 20
-17.6416681596
 10
22.0170227034
 20
-17.4578763709
 10
21.9355477618
 20
-17.2762922277
 10
21.8427270782
 20
-17.0964193058
 10
21.7386613933
 20
-16.9182433086
  0
LWPOLYLINE
  5
25C
100
AcDbEntity
  8
0
100
AcDbPolyline
 62
7
  6
CONTINUOUS
 90
52
 70
0
 10
-21.7697480348
 20
16.9424364153
 10
-21.8755043109
 20
17.123573445
 10
-21.9697777415
 20
17.3072623238
 10
-22.0524481339
 20
17.4935273438
 10
-22.1231860902
 20
17.6832942574
 10
-22.1820712637
 20
17.8756455833
 10
-22.2296600303
 20
18.0677902201
 10
-22.2657386291
 20
18.2593119297
 10
-22.2904251126
 20
18.4504912022
 10
-22.3048825472
 20
18.6395314918
 10
-22.3091745915
 20
18.8258828969
 10
-22.3032517814
 20
19.0098959622
 10
-22.2881679866
 20
19.1911154344
 10
-22.2641043479
 20
19.3692472695
 10
-22.2309356364
 20
19.5443732949
 10
-22.1892710326
 20
19.716610839
 10
-22.1391698973
 20
19.8861696171
 10
-22.0806356985
 20
20.0526231443
 10
-22.0142118376
 20
20.2151411224
 10
-21.9400132951
 20
20.3734747605
 10
-21.8580425658
 20
20.5276487662
 10
-21.7687005579
 20
20.6772487142
 10
-21.6718683424
 20
20.8224149417
 10
-21.5678053209
 20
20.9627827502
 10
-21.4575102742
 20
21.0971967951
 10
-21.3414487475
 20
21.2251517161
 10
-21.2193545624
 20
21.3469629669
 10
-21.0911474546
 20
21.4627187546
 10
-20.9565283788
 20
21.5726794571
 10
-20.8159869791
 20
21.6763866308
 10
-20.6706377503
 20
21.772868208
 10
-20.520811218
 20
21.8618819938
 10
-20.3664008013
 20
21.9435289162
 10
-20.2078817992
 20
22.0173824158
 10
-20.0452559457
 20
22.0834277995
 10
-19.8787456813
 20
22.1415647969
 10
-19.7091629496
 20
22.1912655881
 10
-19.5369351606
 20
22.2325299203
 10
-19.3618510144
 20
22.2652966614
 10
-19.1837708785
 20
22.2889638719
 10
-19.0025710851
 20
22.3036551588
 10
-18.8185870176
 20
22.3091909331
 10
-18.632375556
 20
22.3045309046
 10
-18.4436016017
 20
22.2897091213
 10
-18.252796878
 20
22.2646821577
 10
-18.0618071569
 20
22.2283566009
 10
-17.8703841732
 20
22.1806183668
 10
-17.6789066431
 20
22.1216829396
 10
-17.4901097323
 20
22.0510587976
 10
-17.3048913541
 20
21.9686872889
 10
-17.1223420952
 20
21.874876973
 10
-16.9424364381
 20
21.7697480447
  0
LWPOLYLINE
  5
25D
100
AcDbEntity
  8
0
100
AcDbPolyline
 62
7
  6
CONTINUOUS
 90
46
 70
0
 10
16.9424364381
 20
-21.7697480447
 10
16.7753018796
 20
-21.6664362678
 10
16.6062096572
 20
-21.5649174478
 10
16.4351998854
 20
-21.4651297934
 10
16.2621254982
 20
-21.3666990002
 10
16.0872136946
 20
-21.2698738199
 10
15.911058736
 20
-21.175530048
 10
15.7336766938
 20
-21.0837609762
 10
15.5551125333
 20
-20.9943538666
 10
15.3759875031
 20
-20.9077376708
 10
15.1968726928
 20
-20.8241568837
 10
15.0172285569
 20
-20.743273641
 10
14.8360147573
 20
-20.664633017
 10
14.6543820382
 20
-20.5883500121
 10
14.4712275535
 20
-20.5141881661
 10
14.2822052817
 20
-20.4410547995
 10
14.0876889524
 20
-20.3683921795
 10
13.887486346
 20
-20.2964325588
 10
13.6765406228
 20
-20.2250398741
 10
13.4549068636
 20
-20.1532449335
 10
13.2228935676
 20
-20.0813657882
 10
12.9759710074
 20
-20.0108876901
 10
12.7121335509
 20
-19.9403452624
 10
12.433970869
 20
-19.8700524292
 10
12.1438286544
 20
-19.8040059894
 10
11.8402603891
 20
-19.7418234987
 10
11.5251349498
 20
-19.6826691376
 10
11.205453588
 20
-19.6301452347
 10
10.8819433433
 20
-19.5848250047
 10
10.5537810348
 20
-19.5454636182
 10
10.2252740939
 20
-19.5134036669
 10
9.8967323106
 20
-19.4890259398
 10
9.5674073323
 20
-19.4716681041
 10
9.239810209
 20
-19.4614401074
 10
8.9148824993
 20
-19.4583817862
 10
8.5910363278
 20
-19.4624550661
 10
8.2669206912
 20
-19.4737318098
 10
7.9428547227
 20
-19.4916476559
 10
7.6178197515
 20
-19.5166223991
 10
7.2884197823
 20
-19.5499937225
 10
6.9536535899
 20
-19.5909520031
 10
6.6136652091
 20
-19.6397602935
 10
6.2665882178
 20
-19.6991216501
 10
5.9113032206
 20
-19.769641757
 10
5.5475810259
 20
-19.8499048084
 10
4.6047681658
 20
-20.0787061079
  0
LWPOLYLINE
  5
25E
100
AcDbEntity
  8
0
100
AcDbPolyline
 62
7
  6
CONTINUOUS
 90
40
 70
0
 10
-21.7386613933
 20
16.9182433086
 10
-21.6006708546
 20
16.6945531856
 10
-21.4665116322
 20
16.4681806193
 10
-21.3360482697
 20
16.2392086583
 10
-21.208789772
 20
16.0077921715
 10
-21.084958952
 20
15.7739337691
 10
-20.9654745514
 20
15.5374885263
 10
-20.8503671624
 20
15.2983755769
 10
-20.7392975886
 20
15.0568261364
 10
-20.6326161561
 20
14.8131565386
 10
-20.5302727444
 20
14.5679490044
 10
-20.4320295458
 20
14.3207292306
 10
-20.337917262
 20
14.0702397384
 10
-20.2477261811
 20
13.8174655163
 10
-20.1613064712
 20
13.5615464535
 10
-20.0786040179
 20
13.298546004
 10
-19.9987850638
 20
13.0288748699
 10
-19.922028904
 20
12.7523852638
 10
-19.8494710446
 20
12.4644458196
 10
-19.7797649623
 20
12.1639921338
 10
-19.7131142238
 20
11.8525239454
 10
-19.65269594
 20
11.5292847848
 10
-19.5977430005
 20
11.1915885763
 10
-19.5475668862
 20
10.8424677812
 10
-19.5057074671
 20
10.4894223566
 10
-19.4728713923
 20
10.1325653394
 10
-19.4476134942
 20
9.7714483497
 10
-19.4309204477
 20
9.4122607986
 10
-19.4233133802
 20
9.0564063495
 10
-19.4242460922
 20
8.7016578401
 10
-19.4334856894
 20
8.3485463618
 10
-19.4508678438
 20
7.9969962872
 10
-19.4765495171
 20
7.6461465647
 10
-19.510807602
 20
7.2952992365
 10
-19.5534148138
 20
6.9435914091
 10
-19.6044759541
 20
6.5908057542
 10
-19.6647751331
 20
6.23712215
 10
-19.7345483415
 20
5.8821411415
 10
-19.8134358874
 20
5.5249364584
 10
-20.0645574341
 20
4.489233704
  0
LWPOLYLINE
  5
25F
100
AcDbEntity
  8
0
100
AcDbPolyline
 62
250
  6
CONTINUOUS
 90
7
 70
0
 10
-16.9424368757
 20
21.7697482948
 10
-16.9400038817
 20
21.7655630939
 10
-16.9369310269
 20
21.7609797982
 10
-16.9332183955
 20
21.7559980944
 10
-16.9288661135
 20
21.750617802
 10
-16.9238743482
 20
21.7448388732
 10
-16.9182433086
 20
21.7386613933
  0
LINE
  5
260
100
AcDbEntity
  8
0
100
AcDbLine
 62
7
  6
CONTINUOUS
 10
-0.0
 20
20.5971653992
 11
-0.0
 21
20.5563561689
  0
LINE
  5
261
100
AcDbEntity
  8
RACCORDO
100
AcDbLine
 62
250
  6
CONTINUOUS
 10
0.0
 20
-27.5
 11
0.0
 21
-27.1969596493
  0
LINE
  5
262
100
AcDbEntity
  8
RACCORDO
100
AcDbLine
 62
250
  6
CONTINUOUS
 10
-0.0
 20
27.5
 11
-0.0
 21
27.1969596493
  0
LINE
  5
263
100
AcDbEntity
  8
0
100
AcDbLine
 62
7
  6
CONTINUOUS
 10
-0.0
 20
-20.5943307983
 11
-0.0
 21
-20.5563561689
  0
LINE
  5
264
100
AcDbEntity
  8
RACCORDO
100
AcDbLine
 62
250
  6
CONTINUOUS
 10
-27.5
 20
0.0
 11
-27.1969596493
 21
0.0
  0
LINE
  5
265
100
AcDbEntity
  8
RACCORDO
100
AcDbLine
 62
250
  6
CONTINUOUS
 10
27.5
 20
-0.0
 11
27.1969596493
 21
-0.0
  0
LINE
  5
266
100
AcDbEntity
  8
0
100
AcDbLine
 62
250
  6
CONTINUOUS
 10
-19.9394670776
 20
5.1747128094
 11
-19.9013382384
 21
5.1648175704
  0
LINE
  5
267
100
AcDbEntity
  8
0
100
AcDbLine
 62
250
  6
CONTINUOUS
 10
19.9394670776
 20
-5.1747128094
 11
19.9013382384
 21
-5.1648175704
  0
LINE
  5
268
100
AcDbEntity
  8
0
100
AcDbLine
 62
250
  6
CONTINUOUS
 10
-21.7697482948
 20
16.9424368757
 11
-21.7386613933
 21
16.9182433086
  0
LINE
  5
269
100
AcDbEntity
  8
0
100
AcDbLine
 62
250
  6
CONTINUOUS
 10
21.7697482948
 20
-16.9424368757
 11
21.7386613933
 21
-16.9182433086
  0
LINE
  5
26A
100
AcDbEntity
  8
0
100
AcDbLine
 62
250
  6
CONTINUOUS
 10
-5.1747128094
 20
19.9394670776
 11
-5.1648175704
 21
19.9013382384
  0
LINE
  5
26B
100
AcDbEntity
  8
0
100
AcDbLine
 62
250
  6
CONTINUOUS
 10
5.1747128094
 20
-19.9394670776
 11
5.1648175704
 21
-19.9013382384
  0
LWPOLYLINE
  5
26C
100
AcDbEntity
  8
0
100
AcDbPolyline
 62
250
  6
CONTINUOUS
 90
7
 70
0
 10
16.9424368757
 20
-21.7697482948
 10
16.9400039495
 20
-21.7655631811
 10
16.9369311354
 20
-21.7609799377
 10
16.9332185177
 20
-21.7559982513
 10
16.9288662221
 20
-21.7506179414
 10
16.9238744161
 20
-21.7448389604
 10
16.9182433086
 20
-21.7386613933
  0
LWPOLYLINE
  5
26D
100
AcDbEntity
  8
0
100
AcDbPolyline
 62
7
  6
CONTINUOUS
 90
52
 70
0
 10
-16.9182433086
 20
21.7386613933
 10
-17.0964196813
 20
21.8427272026
 10
-17.2762927626
 20
21.9355479434
 10
-17.4578768465
 20
22.0170228787
 10
-17.6416683772
 20
22.0867073884
 10
-17.8271604973
 20
22.1448429783
 10
-18.012829369
 20
22.1923978686
 10
-18.1983156657
 20
22.2293842552
 10
-18.3838664617
 20
22.2556877189
 10
-18.5688408503
 20
22.2721441853
 10
-18.7532538391
 20
22.2788428897
 10
-18.9369299832
 20
22.2756389273
 10
-19.1189307316
 20
22.2630583826
 10
-19.2990586456
 20
22.2411457111
 10
-19.477308476
 20
22.209862499
 10
-19.6530223105
 20
22.1696485565
 10
-19.8263357959
 20
22.1204518538
 10
-19.9968858642
 20
22.0623716252
 10
-20.1632659294
 20
21.9961208644
 10
-20.3250126166
 20
21.9218729236
 10
-20.4823529528
 20
21.8395850349
 10
-20.6349220496
 20
21.7496840305
 10
-20.7828148441
 20
21.6521119007
 10
-20.9257015943
 20
21.5470767202
 10
-21.0625954704
 20
21.4354310523
 10
-21.1931383968
 20
21.317497631
 10
-21.3174813037
 20
21.1931556772
 10
-21.4354157398
 20
21.0626135192
 10
-21.5470624094
 20
20.9257202122
 10
-21.6520986464
 20
20.7828338459
 10
-21.7496719744
 20
20.6349411698
 10
-21.8395744075
 20
20.4823718763
 10
-21.9218638546
 20
20.3250310752
 10
-21.996113286
 20
20.1632837221
 10
-22.0623654126
 20
19.9969028268
 10
-22.1204469312
 20
19.8263517333
 10
-22.1696448112
 20
19.6530369967
 10
-22.2098598154
 20
19.4773215786
 10
-22.241143966
 20
19.2990699466
 10
-22.2630574146
 20
19.118940313
 10
-22.2756385732
 20
18.9369380524
 10
-22.2788429941
 20
18.7532604822
 10
-22.2721445741
 20
18.5688460826
 10
-22.2556881638
 20
18.3838701831
 10
-22.2293845833
 20
18.1983178965
 10
-22.1923980549
 20
18.0128304095
 10
-22.1448430329
 20
17.8271607613
 10
-22.0867072999
 20
17.6416681596
 10
-22.0170227034
 20
17.4578763709
 10
-21.9355477618
 20
17.2762922277
 10
-21.8427270782
 20
17.0964193058
 10
-21.7386613933
 20
16.9182433086
  0
LWPOLYLINE
  5
26E
100
AcDbEntity
  8
0
100
AcDbPolyline
 62
7
  6
CONTINUOUS
 90
46
 70
0
 10
-16.9424364381
 20
21.7697480447
 10
-16.7753018796
 20
21.6664362678
 10
-16.6062096572
 20
21.5649174478
 10
-16.4351998854
 20
21.4651297934
 10
-16.2621254982
 20
21.3666990002
 10
-16.0872136946
 20
21.2698738199
 10
-15.911058736
 20
21.175530048
 10
-15.7336766938
 20
21.0837609762
 10
-15.5551125333
 20
20.9943538666
 10
-15.3759875031
 20
20.9077376708
 10
-15.1968726928
 20
20.8241568837
 10
-15.0172285569
 20
20.743273641
 10
-14.8360147573
 20
20.664633017
 10
-14.6543820382
 20
20.5883500121
 10
-14.4712275535
 20
20.5141881661
 10
-14.2822052817
 20
20.4410547995
 10
-14.0876889524
 20
20.3683921795
 10
-13.887486346
 20
20.2964325588
 10
-13.6765406228
 20
20.2250398741
 10
-13.4549068636
 20
20.1532449335
 10
-13.2228935676
 20
20.0813657882
 10
-12.9759710074
 20
20.0108876901
 10
-12.7121335509
 20
19.9403452624
 10
-12.433970869
 20
19.8700524292
 10
-12.1438286544
 20
19.8040059894
 10
-11.8402603891
 20
19.7418234987
 10
-11.5251349498
 20
19.6826691376
 10
-11.205453588
 20
19.6301452347
 10
-10.8819433433
 20
19.5848250047
 10
-10.5537810348
 20
19.5454636182
 10
-10.2252740939
 20
19.5134036669
 10
-9.8967323106
 20
19.4890259398
 10
-9.5674073323
 20
19.4716681041
 10
-9.239810209
 20
19.4614401074
 10
-8.9148824993
 20
19.4583817862
 10
-8.5910363278
 20
19.4624550661
 10
-8.2669206912
 20
19.4737318098
 10
-7.9428547227
 20
19.4916476559
 10
-7.6178197515
 20
19.5166223991
 10
-7.2884197823
 20
19.5499937225
 10
-6.95365359
 20
19.590952003
 10
-6.6136652092
 20
19.6397602935
 10
-6.2665882178
 20
19.6991216501
 10
-5.9113032203
 20
19.769641757
 10
-5.547581025
 20
19.8499048086
 10
-4.5930936565
 20
20.081336951
  0
LWPOLYLINE
  5
26F
100
AcDbEntity
  8
0
100
AcDbPolyline
 62
7
  6
CONTINUOUS
 90
40
 70
0
 10
21.7386613933
 20
-16.9182433086
 10
21.6006708546
 20
-16.6945531856
 10
21.4665116322
 20
-16.4681806193
 10
21.3360482697
 20
-16.2392086583
 10
21.208789772
 20
-16.0077921715
 10
21.084958952
 20
-15.7739337691
 10
20.9654745514
 20
-15.5374885263
 10
20.8503671624
 20
-15.2983755769
 10
20.7392975886
 20
-15.0568261364
 10
20.6326161561
 20
-14.8131565386
 10
20.5302727444
 20
-14.5679490044
 10
20.4320295458
 20
-14.3207292306
 10
20.337917262
 20
-14.0702397384
 10
20.2477261811
 20
-13.8174655163
 10
20.1613064712
 20
-13.5615464535
 10
20.0786040179
 20
-13.298546004
 10
19.9987850638
 20
-13.0288748699
 10
19.922028904
 20
-12.7523852638
 10
19.8494710446
 20
-12.4644458196
 10
19.7797649623
 20
-12.1639921338
 10
19.7131142238
 20
-11.8525239454
 10
19.65269594
 20
-11.5292847848
 10
19.5977430005
 20
-11.1915885763
 10
19.5475668862
 20
-10.8424677812
 10
19.5057074671
 20
-10.4894223566
 10
19.4728713923
 20
-10.1325653394
 10
19.4476134942
 20
-9.7714483497
 10
19.4309204477
 20
-9.4122607986
 10
19.4233133802
 20
-9.0564063495
 10
19.4242460922
 20
-8.7016578401
 10
19.4334856894
 20
-8.3485463618
 10
19.4508678438
 20
-7.9969962872
 10
19.4765495171
 20
-7.6461465647
 10
19.510807602
 20
-7.2952992365
 10
19.5534148138
 20
-6.9435914091
 10
19.6044759541
 20
-6.5908057542
 10
19.6647751331
 20
-6.23712215
 10
19.7345483415
 20
-5.8821411415
 10
19.8134358874
 20
-5.5249364584
 10
19.9013382384
 20
-5.1648175704
  0
LWPOLYLINE
  5
270
100
AcDbEntity
  8
0
100
AcDbPolyline
 62
7
  6
CONTINUOUS
 90
52
 70
0
 10
21.7697480348
 20
-16.9424364153
 10
21.8755043109
 20
-17.123573445
 10
21.9697777415
 20
-17.3072623238
 10
22.0524481339
 20
-17.4935273438
 10
22.1231860902
 20
-17.6832942574
 10
22.1820712637
 20
-17.8756455833
 10
22.2296600303
 20
-18.0677902201
 10
22.2657386291
 20
-18.2593119297
 10
22.2904251126
 20
-18.4504912022
 10
22.3048825472
 20
-18.6395314918
 10
22.3091745915
 20
-18.8258828969
 10
22.3032517814
 20
-19.0098959622
 10
22.2881679866
 20
-19.1911154344
 10
22.2641043479
 20
-19.3692472695
 10
22.2309356364
 20
-19.5443732949
 10
22.1892710326
 20
-19.716610839
 10
22.1391698973
 20
-19.8861696171
 10
22.0806356985
 20
-20.0526231443
 10
22.0142118376
 20
-20.2151411224
 10
21.9400132951
 20
-20.3734747605
 10
21.8580425658
 20
-20.5276487662
 10
21.7687005579
 20
-20.6772487142
 10
21.6718683424
 20
-20.8224149417
 10
21.5678053209
 20
-20.9627827502
 10
21.4575102742
 20
-21.0971967951
 10
21.3414487475
 20
-21.2251517161
 10
21.2193545624
 20
-21.3469629669
 10
21.0911474546
 20
-21.4627187546
 10
20.9565283788
 20
-21.5726794571
 10
20.8159869791
 20
-21.6763866308
 10
20.6706377503
 20
-21.772868208
 10
20.520811218
 20
-21.8618819938
 10
20.3664008013
 20
-21.9435289162
 10
20.2078817992
 20
-22.0173824158
 10
20.0452559457
 20
-22.0834277995
 10
19.8787456813
 20
-22.1415647969
 10
19.7091629496
 20
-22.1912655881
 10
19.5369351606
 20
-22.2325299203
 10
19.3618510144
 20
-22.2652966614
 10
19.1837708785
 20
-22.2889638719
 10
19.0025710851
 20
-22.3036551588
 10
18.8185870176
 20
-22.3091909331
 10
18.632375556
 20
-22.3045309046
 10
18.4436016017
 20
-22.2897091213
 10
18.252796878
 20
-22.2646821577
 10
18.0618071569
 20
-22.2283566009
 10
17.8703841732
 20
-22.1806183668
 10
17.6789066431
 20
-22.1216829396
 10
17.4901097323
 20
-22.0510587976
 10
17.3048913541
 20
-21.9686872889
 10
17.1223420952
 20
-21.874876973
 10
16.9424364381
 20
-21.7697480447
  0
LWPOLYLINE
  5
271
100
AcDbEntity
  8
0
100
AcDbPolyline
 62
7
  6
CONTINUOUS
 90
45
 70
0
 10
19.8506923432
 20
-5.5439106047
 10
19.771061141
 20
-5.9042046244
 10
19.7010012863
 20
-6.2562839153
 10
19.6418806378
 20
-6.6003849051
 10
19.5931115401
 20
-6.93758592
 10
19.5520796894
 20
-7.2696693214
 10
19.5185462918
 20
-7.596546906
 10
19.4932786759
 20
-7.9191492311
 10
19.4749471086
 20
-8.2406013961
 10
19.4631633021
 20
-8.56180755
 10
19.4584772754
 20
-8.8825437362
 10
19.4607684373
 20
-9.2042008109
 10
19.4700177537
 20
-9.5281061446
 10
19.4862607413
 20
-9.8535551141
 10
19.5094960992
 20
-10.1788408249
 10
19.5403092768
 20
-10.5050290892
 10
19.578318034
 20
-10.8315179649
 10
19.6223675861
 20
-11.1539138985
 10
19.6737645667
 20
-11.4732778036
 10
19.7318118913
 20
-11.7886816573
 10
19.7928571787
 20
-12.0923668173
 10
19.8577015217
 20
-12.38208352
 10
19.9267851145
 20
-12.6596521323
 10
19.99622086
 20
-12.9230924786
 10
20.0656678947
 20
-13.1698460427
 10
20.1366063672
 20
-13.4018997037
 10
20.2077041796
 20
-13.6240861681
 10
20.2786730795
 20
-13.8362447895
 10
20.3504293098
 20
-14.0381925322
 10
20.4231336429
 20
-14.2348786845
 10
20.4965706088
 20
-14.4265369555
 10
20.5712694136
 20
-14.6127641355
 10
20.6482850802
 20
-14.7976884405
 10
20.7278811566
 20
-14.9824489015
 10
20.8099120435
 20
-15.1658645255
 10
20.8947173746
 20
-15.3486516143
 10
20.9826225311
 20
-15.5312470704
 10
21.073405667
 20
-15.7131776555
 10
21.1665811648
 20
-15.893793868
 10
21.2623549527
 20
-16.07300845
 10
21.3606503949
 20
-16.2508417183
 10
21.4605685058
 20
-16.4267896728
 10
21.5618537352
 20
-16.6006545411
 10
21.6648921019
 20
-16.7725507424
 10
21.7697480348
 20
-16.9424364153
  0
LWPOLYLINE
  5
272
100
AcDbEntity
  8
0
100
AcDbPolyline
 62
7
  6
CONTINUOUS
 90
40
 70
0
 10
-4.5813934569
 20
20.0437834007
 10
-5.5394291816
 20
19.8101500879
 10
-5.910865414
 20
19.7286767072
 10
-6.279899568
 20
19.6570315755
 10
-6.6478252307
 20
19.5956291319
 10
-7.0148323092
 20
19.5441849544
 10
-7.3799365235
 20
19.5018191726
 10
-7.7433350148
 20
19.4685826136
 10
-8.1060087713
 20
19.4446523574
 10
-8.4680087595
 20
19.4294301378
 10
-8.8301260928
 20
19.422934434
 10
-9.1925218793
 20
19.4253263563
 10
-9.5541853079
 20
19.43630919
 10
-9.9170315728
 20
19.4565713336
 10
-10.2798923421
 20
19.48568019
 10
-10.6368651125
 20
19.5220424096
 10
-10.9881597658
 20
19.5670784012
 10
-11.3337822849
 20
19.6202871214
 10
-11.6670537449
 20
19.6777912525
 10
-11.9849847471
 20
19.7401642424
 10
-12.2901446348
 20
19.8083378835
 10
-12.5839059515
 20
19.879135007
 10
-12.8648648451
 20
19.9522949254
 10
-13.1339668022
 20
20.0292052842
 10
-13.3961628578
 20
20.1088451311
 10
-13.6516198327
 20
20.1910006033
 10
-13.8999048885
 20
20.2765131153
 10
-14.1452245758
 20
20.3656069308
 10
-14.3885217526
 20
20.4584460403
 10
-14.6287381742
 20
20.5551932385
 10
-14.8671726174
 20
20.6558950943
 10
-15.1043543687
 20
20.7608112287
 10
-15.3396586062
 20
20.8699400031
 10
-15.5726631673
 20
20.9829019205
 10
-15.8031574622
 20
21.1000064587
 10
-16.0312125188
 20
21.2212284463
 10
-16.2568178224
 20
21.3456802618
 10
-16.4799200898
 20
21.4731467516
 10
-16.700421606
 20
21.6040977808
 10
-16.9182433086
 20
21.7386613933
  0
LWPOLYLINE
  5
273
100
AcDbEntity
  8
0
100
AcDbPolyline
 62
7
  6
CONTINUOUS
 90
9
 70
0
 10
-0.0
 20
20.594330798
 10
-0.5640615442
 20
20.5893413851
 10
-1.1319844165
 20
20.5679542203
 10
-1.703263468
 20
20.5298393113
 10
-2.2772598705
 20
20.4744319322
 10
-2.8535298913
 20
20.4016860908
 10
-3.4318947769
 20
20.3120423757
 10
-4.0119695821
 20
20.2054371948
 10
-4.5930936565
 20
20.081336951
  0
LWPOLYLINE
  5
274
100
AcDbEntity
  8
0
100
AcDbPolyline
 62
7
  6
CONTINUOUS
 90
9
 70
0
 10
-0.0
 20
20.5556475187
 10
-0.5601133602
 20
20.5509016602
 10
-1.1247960929
 20
20.5298340993
 10
-1.693540991
 20
20.4920584363
 10
-2.2656781086
 20
20.4369335377
 10
-2.8407794441
 20
20.364376758
 10
-3.4187340613
 20
20.2748246669
 10
-3.9991728307
 20
20.1681660104
 10
-4.5813934569
 20
20.0437834007
  0
LWPOLYLINE
  5
275
100
AcDbEntity
  8
0
100
AcDbPolyline
 62
7
  6
CONTINUOUS
 90
55
 70
0
 10
-0.0
 20
20.5971653992
 10
0.6883174635
 20
20.5869161761
 10
1.3779331249
 20
20.5532235355
 10
2.0680308681
 20
20.4959231439
 10
2.7582916979
 20
20.4147057726
 10
3.4473550453
 20
20.3096040078
 10
4.1328813414
 20
20.1811641226
 10
4.8140231034
 20
20.0296100051
 10
5.4900507478
 20
19.8549584464
 10
6.158895156
 20
19.6577718464
 10
6.8188994648
 20
19.4386880268
 10
7.4702774202
 20
19.1977850455
 10
8.1137659387
 20
18.9348041386
 10
8.7490897219
 20
18.649756945
 10
9.3749989612
 20
18.3431021355
 10
9.9907244473
 20
18.0151442899
 10
10.5958633249
 20
17.6660034829
 10
11.1893416916
 20
17.2962028186
 10
11.7694632131
 20
16.9067955489
 10
12.3353660631
 20
16.4984467217
 10
12.8866718692
 20
16.0715179185
 10
13.4225230746
 20
15.6267678782
 10
13.9418389128
 20
15.1652605559
 10
14.4446486031
 20
14.6871415439
 10
14.9316883811
 20
14.1917117391
 10
15.4028663607
 20
13.6788781657
 10
15.8570117278
 20
13.1497216344
 10
16.2931835674
 20
12.6052437199
 10
16.7109679658
 20
12.0458934761
 10
17.1097369344
 20
11.4724409791
 10
17.488398633
 20
10.8865014229
 10
17.8463119725
 20
10.2892734903
 10
18.1834492262
 20
9.6810213418
 10
18.499727245
 20
9.0620136751
 10
18.7947294964
 20
8.4331573655
 10
19.06824561
 20
7.7949989963
 10
19.3203875747
 20
7.1472109221
 10
19.5509940155
 20
6.4898869793
 10
19.7594775796
 20
5.8243493867
 10
19.9453182622
 20
5.152114072
 10
20.108300383
 20
4.4739530272
 10
20.2482354726
 20
3.7906411357
 10
20.3648407308
 20
3.1037496636
 10
20.457998659
 20
2.4145995195
 10
20.5277775584
 20
1.7234698998
 10
20.574215058
 20
1.0303760176
 10
20.5972589546
 20
0.3360410031
 10
20.5968771448
 20
-0.3586807493
 10
20.5730397102
 20
-1.0535829735
 10
20.5256696508
 20
-1.7483950889
 10
20.4547706473
 20
-2.4417939648
 10
20.3605150096
 20
-3.132000725
 10
20.2431120357
 20
-3.8179071634
 10
20.1026966301
 20
-4.4990652582
 10
19.8506923432
 20
-5.5439106047
  0
LWPOLYLINE
  5
276
100
AcDbEntity
  8
0
100
AcDbPolyline
 62
250
  6
CONTINUOUS
 90
8
 70
0
 10
3.6212379232
 20
20.2359345809
 10
3.1722460532
 20
20.309670742
 10
2.721829513
 20
20.3739332479
 10
2.2701890678
 20
20.4288066968
 10
1.8174965974
 20
20.4741587335
 10
1.3639195169
 20
20.5096376233
 10
0.909664745
 20
20.5351155299
 10
0.4549541372
 20
20.5506909546
  0
LWPOLYLINE
  5
277
100
AcDbEntity
  8
0
100
AcDbPolyline
 62
7
  6
CONTINUOUS
 90
7
 70
0
 10
4.0686170543
 20
20.1527540762
 10
3.3951026247
 20
20.2773659764
 10
2.7186984319
 20
20.3790440766
 10
2.040197624
 20
20.457764612
 10
1.3603905989
 20
20.5135314539
 10
0.6800640454
 20
20.546375856
 10
-0.0
 20
20.5563561689
  0
LINE
  5
278
100
AcDbEntity
  8
RACCORDO
100
AcDbLine
 62
7
  6
CONTINUOUS
 10
27.5
 20
0.0
 11
27.5
 21
-22.5
  0
LINE
  5
279
100
AcDbEntity
  8
RACCORDO
100
AcDbLine
 62
250
  6
CONTINUOUS
 10
27.1969596493
 20
0.0
 11
27.1974668501
 21
-0.9846641848
  0
LINE
  5
27A
100
AcDbEntity
  8
RACCORDO
100
AcDbLine
 62
250
  6
CONTINUOUS
 10
27.1974668501
 20
-0.9846641848
 11
27.1874972511
 21
-8.80113039
  0
LINE
  5
27B
100
AcDbEntity
  8
RACCORDO
100
AcDbLine
 62
250
  6
CONTINUOUS
 10
27.1874972511
 20
-8.80113039
 11
27.1772038277
 21
-13.1572602643
  0
LINE
  5
27C
100
AcDbEntity
  8
RACCORDO
100
AcDbLine
 62
250
  6
CONTINUOUS
 10
27.1772038277
 20
-13.1572602643
 11
27.1670340355
 21
-17.2966018594
  0
LINE
  5
27D
100
AcDbEntity
  8
RACCORDO
100
AcDbLine
 62
250
  6
CONTINUOUS
 10
27.1670340355
 20
-17.2966018594
 11
27.1619836781
 21
-19.1810510789
  0
LWPOLYLINE
  5
27E
100
AcDbEntity
  8
RACCORDO
100
AcDbPolyline
 62
250
  6
CONTINUOUS
 90
3
 70
0
 10
27.1619836781
 20
-19.1810510789
 10
27.1592158673
 20
-19.778147682
 10
27.1571037266
 20
-20.8956340951
  0
LWPOLYLINE
  5
27F
100
AcDbEntity
  8
RACCORDO
100
AcDbPolyline
 62
250
  6
CONTINUOUS
 90
5
 70
0
 10
27.1571037266
 20
-20.8956340951
 10
27.1546988529
 20
-21.3986951005
 10
27.150718375
 20
-21.8523777941
 10
27.1489848011
 20
-22.2616893883
 10
27.1513085938
 20
-22.6260904948
  0
LWPOLYLINE
  5
280
100
AcDbEntity
  8
RACCORDO
100
AcDbPolyline
 62
250
  6
CONTINUOUS
 90
34
 70
0
 10
27.1513085938
 20
-22.6260904948
 10
27.1452334951
 20
-22.8418965227
 10
27.1294624662
 20
-23.0552876274
 10
27.1040115137
 20
-23.2661597943
 10
27.0689846456
 20
-23.4739380099
 10
27.0243250572
 20
-23.6789768571
 10
26.969783655
 20
-23.8825648203
 10
26.9050395978
 20
-24.0858405561
 10
26.8303996816
 20
-24.2874265995
 10
26.7465817519
 20
-24.4848335415
 10
26.6536796482
 20
-24.6774600797
 10
26.5517262637
 20
-24.8656454022
 10
26.441421043
 20
-25.0483154157
 10
26.3229413244
 20
-25.2251690132
 10
26.1962881943
 20
-25.3962542553
 10
26.0619278897
 20
-25.5610329804
 10
25.9200097237
 20
-25.7193798413
 10
25.7705896199
 20
-25.8711790632
 10
25.6140116123
 20
-26.015917288
 10
25.4501799614
 20
-26.153635876
 10
25.2794179733
 20
-26.2840625379
 10
25.1027205767
 20
-26.4062363157
 10
24.9203204047
 20
-26.5199508627
 10
24.732245478
 20
-26.6252305978
 10
24.5392029853
 20
-26.7214935596
 10
24.3413164248
 20
-26.8086806531
 10
24.1387292487
 20
-26.886708266
 10
23.9321876649
 20
-26.9549880792
 10
23.7217463849
 20
-27.0134993512
 10
23.5076147772
 20
-27.0621659044
 10
23.2907745695
 20
-27.100354814
 10
23.0716363718
 20
-27.1278521275
 10
22.8500364111
 20
-27.1448408563
 10
22.6260904948
 20
-27.1513085938
  0
LINE
  5
281
100
AcDbEntity
  8
RACCORDO
100
AcDbLine
 62
250
  6
CONTINUOUS
 10
-22.6260904948
 20
27.1513085938
 11
-21.6628614778
 21
27.1560574663
  0
LWPOLYLINE
  5
282
100
AcDbEntity
  8
RACCORDO
100
AcDbPolyline
 62
250
  6
CONTINUOUS
 90
3
 70
0
 10
-1.7366341703
 20
27.1984634808
 10
-0.8769514067
 20
27.1992939935
 10
-0.0
 20
27.1969596493
  0
LINE
  5
283
100
AcDbEntity
  8
RACCORDO
100
AcDbLine
 62
250
  6
CONTINUOUS
 10
-21.6628614778
 20
27.1560574663
 11
-4.2255376835
 21
27.1947923262
  0
LWPOLYLINE
  5
284
100
AcDbEntity
  8
RACCORDO
100
AcDbPolyline
 62
250
  6
CONTINUOUS
 90
3
 70
0
 10
-4.2255376835
 20
27.1947923262
 10
-3.4095006565
 20
27.1947976431
 10
-1.7366341703
 20
27.1984634808
  0
LINE
  5
285
100
AcDbEntity
  8
RACCORDO
100
AcDbLine
 62
7
  6
CONTINUOUS
 10
-22.5
 20
27.5
 11
-0.0
 21
27.5
  0
LWPOLYLINE
  5
286
100
AcDbEntity
  8
RACCORDO
100
AcDbPolyline
 62
250
  6
CONTINUOUS
 90
16
 70
0
 10
27.5
 20
-22.5
 10
27.4982276245
 20
-22.5111291275
 10
27.4929230646
 20
-22.5221793526
 10
27.4841239289
 20
-22.5330723346
 10
27.4718926007
 20
-22.5437308482
 10
27.456315796
 20
-22.5540793299
 10
27.4375039496
 20
-22.5640444137
 10
27.4155904306
 20
-22.5735554524
 10
27.3907305968
 20
-22.5825450183
 10
27.3631006953
 20
-22.5909493799
 10
27.3328966104
 20
-22.5987089552
 10
27.3003324751
 20
-22.6057687338
 10
27.2656391551
 20
-22.6120786659
 10
27.22906261
 20
-22.6175940184
 10
27.1908621489
 20
-22.6222756912
 10
27.1513085938
 20
-22.6260904948
  0
LWPOLYLINE
  5
287
100
AcDbEntity
  8
RACCORDO
100
AcDbPolyline
 62
250
  6
CONTINUOUS
 90
16
 70
0
 10
-22.5
 20
27.5
 10
-22.5111291054
 20
27.4982276305
 10
-22.5221793112
 20
27.492923087
 10
-22.5330722772
 20
27.4841239762
 10
-22.5437307779
 20
27.4718926791
 10
-22.5540792503
 20
27.4563159094
 10
-22.5640443289
 20
27.4375040982
 10
-22.5735553667
 20
27.4155906114
 10
-22.5825449352
 20
27.3907308044
 10
-22.5909493033
 20
27.3631009201
 10
-22.5987088883
 20
27.3328968401
 10
-22.6057686788
 20
27.3003326955
 10
-22.6120786247
 20
27.2656393491
 10
-22.6175939916
 20
27.2290627586
 10
-22.6222756786
 20
27.1908622329
 10
-22.6260904948
 20
27.1513085938
  0
LWPOLYLINE
  5
288
100
AcDbEntity
  8
0
100
AcDbPolyline
 62
7
  6
CONTINUOUS
 90
8
 70
0
 43
0.3500000087
 10
34.6656609848
 20
-2.1428576714
 10
34.6656609848
 20
-1.2857147385
 10
34.2370900513
 20
-0.8571438049
 10
33.3799460526
 20
-0.8571438049
 10
32.951375119
 20
-1.2857147385
 10
32.951375119
 20
-2.1428576714
 10
31.6656601868
 20
-2.1428576714
 10
31.6656601868
 20
-0.8571438049
  0
LWPOLYLINE
  5
289
100
AcDbEntity
  8
0
100
AcDbPolyline
 62
7
  6
CONTINUOUS
 90
8
 70
0
 43
0.3500000087
 10
34.6656609848
 20
0.0000001938
 10
34.6656609848
 20
0.8571420609
 10
34.2370900513
 20
1.285715126
 10
33.3799460526
 20
1.285715126
 10
32.951375119
 20
0.8571420609
 10
32.951375119
 20
0.0000001938
 10
31.6656601868
 20
0.0000001938
 10
31.6656601868
 20
1.285715126
  0
LWPOLYLINE
  5
28A
100
AcDbEntity
  8
0
100
AcDbPolyline
 62
7
  6
CONTINUOUS
 90
8
 70
0
 43
0.3500000087
 10
-2.142857199
 20
46.3753673615
 10
-1.2857142661
 20
46.3753673615
 10
-0.8571428663
 20
46.8039404266
 10
-0.8571428663
 20
47.6610822937
 10
-1.2857142661
 20
48.0896553589
 10
-2.142857199
 20
48.0896553589
 10
-2.142857199
 20
49.3753660278
 10
-0.8571428663
 20
49.3753660278
  0
LWPOLYLINE
  5
28B
100
AcDbEntity
  8
0
100
AcDbPolyline
 62
7
  6
CONTINUOUS
 90
8
 70
0
 43
0.3500000087
 10
-0.0
 20
46.3753673615
 10
0.8571428663
 20
46.3753673615
 10
1.2857142661
 20
46.8039404266
 10
1.2857142661
 20
47.6610822937
 10
0.8571428663
 20
48.0896553589
 10
-0.0
 20
48.0896553589
 10
-0.0
 20
49.3753660278
 10
1.2857142661
 20
49.3753660278
  0
LINE
  5
28C
100
AcDbEntity
  8
0
100
AcDbLine
 62
7
  6
CONTINUOUS
 10
-103.6154792599
 20
20.594330798
 11
-100.7857811808
 21
27.1969596493
  0
LWPOLYLINE
  5
28D
100
AcDbEntity
  8
0
100
AcDbPolyline
 62
7
  6
CONTINUOUS
 90
10
 70
0
 43
0.3500000087
 10
-76.9773347229
 20
49.3336069489
 10
-77.6201900574
 20
48.6907516144
 10
-78.0487631226
 20
47.8336097473
 10
-78.0487631226
 20
46.7621813477
 10
-77.6201900574
 20
46.3336082825
 10
-76.9773347229
 20
46.3336082825
 10
-76.5487616577
 20
46.7621813477
 10
-76.5487616577
 20
47.6193232147
 10
-76.9773347229
 20
48.0478962799
 10
-77.9059082764
 20
48.0478962799
  0
LINE
  5
28E
100
AcDbEntity
  8
0
100
AcDbLine
 62
7
  6
CONTINUOUS
 10
-103.6142644308
 20
20.5971653992
 11
-103.6142214234
 21
20.5972067628
  0
LINE
  5
28F
100
AcDbEntity
  8
0
100
AcDbLine
 62
7
  6
CONTINUOUS
 10
-103.6154792598
 20
-20.5943307983
 11
-100.7857811808
 21
-27.1969596493
  0
LINE
  5
290
100
AcDbEntity
  8
0
100
AcDbLine
 62
7
  6
CONTINUOUS
 10
-103.6141766981
 20
-20.5972254362
 11
-103.6142644308
 21
-20.5971653992
  0
LWPOLYLINE
  5
291
100
AcDbEntity
  8
0
100
AcDbPolyline
 62
7
  6
CONTINUOUS
 90
10
 70
0
 10
-100.5272849265
 20
-21.7386613933
 10
-100.4451435638
 20
-21.8427272026
 10
-100.3662492271
 20
-21.9355479434
 10
-100.2906019162
 20
-22.0170228787
 10
-100.2181848249
 20
-22.0867073884
 10
-100.1490147595
 20
-22.1448429783
 10
-100.0831421391
 20
-22.1923978686
 10
-100.0206285949
 20
-22.2293842552
 10
-99.9614124958
 20
-22.2556877189
 10
-99.9053593669
 20
-22.2721441853
  0
LWPOLYLINE
  5
292
100
AcDbEntity
  8
0
100
AcDbPolyline
 62
7
  6
CONTINUOUS
 90
38
 70
0
 10
-100.6191996293
 20
-21.7697480447
 10
-100.6980974803
 20
-21.6664362678
 10
-100.7768241968
 20
-21.5649174478
 10
-100.8553797787
 20
-21.4651297934
 10
-100.9339191136
 20
-21.3666990002
 10
-101.012287314
 20
-21.2698738199
 10
-101.0900197173
 20
-21.175530048
 10
-101.1670677492
 20
-21.0837609762
 10
-101.2434799841
 20
-20.9943538666
 10
-101.3189374827
 20
-20.9077376708
 10
-101.3931988086
 20
-20.8241568837
 10
-101.4665053982
 20
-20.743273641
 10
-101.539262622
 20
-20.664633017
 10
-101.6111277763
 20
-20.5883500121
 10
-101.6824435648
 20
-20.5141881661
 10
-101.7546434683
 20
-20.4410547995
 10
-101.8277973336
 20
-20.3683921795
 10
-101.9018353139
 20
-20.2964325588
 10
-101.9779813509
 20
-20.2250398741
 10
-102.0564960712
 20
-20.1532449335
 10
-102.1371188482
 20
-20.0813657882
 10
-102.2202917431
 20
-20.0108876901
 10
-102.3068743965
 20
-19.9403452624
 10
-102.3960071678
 20
-19.8700524292
 10
-102.485553197
 20
-19.8040059894
 10
-102.5758047116
 20
-19.7418234987
 10
-102.6664694841
 20
-19.6826691376
 10
-102.7545339718
 20
-19.6301452347
 10
-102.8394969537
 20
-19.5848250047
 10
-102.9218596507
 20
-19.5454636182
 10
-103.0001121828
 20
-19.5134036669
 10
-103.0739530322
 20
-19.4890259398
 10
-103.1436837166
 20
-19.4716681041
 10
-103.2086989094
 20
-19.4614401074
 10
-103.2687531356
 20
-19.4583817862
 10
-103.3240918702
 20
-19.4624550661
 10
-103.374846212
 20
-19.4737318098
 10
-103.3994375956
 20
-19.4822474954
  0
LWPOLYLINE
  5
293
100
AcDbEntity
  8
0
100
AcDbPolyline
 62
7
  6
CONTINUOUS
 90
46
 70
0
 10
-103.6130496019
 20
-5.1747068162
 10
-103.6086304794
 20
-5.5439106047
 10
-103.5985556994
 20
-5.9042046244
 10
-103.5828252619
 20
-6.2562839153
 10
-103.5611023347
 20
-6.6003849051
 10
-103.53372375
 20
-6.93758592
 10
-103.501700004
 20
-7.2696693214
 10
-103.4653137035
 20
-7.596546906
 10
-103.4242822417
 20
-7.9191492311
 10
-103.3787682942
 20
-8.2406013961
 10
-103.3288653727
 20
-8.56180755
 10
-103.2744799655
 20
-8.8825437362
 10
-103.2154942129
 20
-9.2042008109
 10
-103.1517345147
 20
-9.5281061446
 10
-103.0833744711
 20
-9.8535551141
 10
-103.0108170229
 20
-10.1788408249
 10
-102.9337146479
 20
-10.5050290892
 10
-102.8524148683
 20
-10.8315179649
 10
-102.7683631907
 20
-11.1539138985
 10
-102.6809773978
 20
-11.4732778036
 10
-102.5908397069
 20
-11.7886816573
 10
-102.5011422767
 20
-12.0923668173
 10
-102.4122776351
 20
-12.38208352
 10
-102.3238532542
 20
-12.6596521323
 10
-102.2378837089
 20
-12.9230924786
 10
-102.1552293309
 20
-13.1698460427
 10
-102.0750297885
 20
-13.4018997037
 10
-101.9967186617
 20
-13.6240861681
 10
-101.9205088582
 20
-13.8362447895
 10
-101.8461874704
 20
-14.0381925322
 10
-101.7725493548
 20
-14.2348786845
 10
-101.6996478741
 20
-14.4265369555
 10
-101.6274296658
 20
-14.6127641355
 10
-101.5545294984
 20
-14.7976884405
 10
-101.480586621
 20
-14.9824489015
 10
-101.4059617846
 20
-15.1658645255
 10
-101.3303720101
 20
-15.3486516143
 10
-101.2536074421
 20
-15.5312470704
 10
-101.1758779361
 20
-15.7131776555
 10
-101.0975300796
 20
-15.893793868
 10
-101.0185294434
 20
-16.07300845
 10
-100.9389104567
 20
-16.2508417183
 10
-100.8591229954
 20
-16.4267896728
 10
-100.7793170179
 20
-16.6006545411
 10
-100.6993425656
 20
-16.7725507424
 10
-100.6191996387
 20
-16.9424364153
  0
LWPOLYLINE
  5
294
100
AcDbEntity
  8
0
100
AcDbPolyline
 62
7
  6
CONTINUOUS
 90
3
 70
0
 10
-103.6133232116
 20
20.5532235355
 10
-103.6129623811
 20
20.4147057726
 10
-103.6130496019
 20
-5.1747068162
  0
LINE
  5
295
100
AcDbEntity
  8
RACCORDO
100
AcDbLine
 62
7
  6
CONTINUOUS
 10
-104.0559067447
 20
-20.2
 11
-104.0559067447
 21
20.2
  0
LINE
  5
296
100
AcDbEntity
  8
RACCORDO
100
AcDbLine
 62
250
  6
CONTINUOUS
 10
-103.7559067447
 20
-20.5
 11
-103.7559067447
 21
20.5
  0
LINE
  5
297
100
AcDbEntity
  8
0
100
AcDbLine
 62
7
  6
CONTINUOUS
 10
-103.5425167795
 20
-19.6088633819
 11
-103.5425167795
 21
-6.8292889249
  0
LINE
  5
298
100
AcDbEntity
  8
0
100
AcDbLine
 62
250
  6
CONTINUOUS
 10
-103.5235647568
 20
-19.5799701455
 11
-103.5235647568
 21
-7.0429337777
  0
LWPOLYLINE
  5
299
100
AcDbEntity
  8
0
100
AcDbPolyline
 62
7
  6
CONTINUOUS
 90
5
 70
0
 10
-103.6130496019
 20
-19.9394682986
 10
-103.6129683303
 20
-20.5274601619
 10
-103.6132456518
 20
-20.5672817807
 10
-103.6136776852
 20
-20.5904863307
 10
-103.6141766981
 20
-20.5972254362
  0
LWPOLYLINE
  5
29A
100
AcDbEntity
  8
RACCORDO
100
AcDbPolyline
 62
250
  6
CONTINUOUS
 90
3
 70
0
 10
-92.1045354167
 20
-27.5
 10
-92.1221253022
 20
-27.4940883573
 10
-92.1384164261
 20
-27.4766170834
  0
LWPOLYLINE
  5
29B
100
AcDbEntity
  8
0
100
AcDbPolyline
 62
7
  6
CONTINUOUS
 90
41
 70
0
 10
-100.6191996387
 20
-16.9424364153
 10
-100.5357057561
 20
-17.123573445
 10
-100.455308966
 20
-17.3072623238
 10
-100.3780092683
 20
-17.4935273438
 10
-100.3036318153
 20
-17.6832942574
 10
-100.2323514547
 20
-17.8756455833
 10
-100.1646927298
 20
-18.0677902201
 10
-100.1008058061
 20
-18.2593119297
 10
-100.0405405182
 20
-18.4504912022
 10
-99.9839709121
 20
-18.6395314918
 10
-99.9312023192
 20
-18.8258828969
 10
-99.8821294082
 20
-19.0098959622
 10
-99.8365102316
 20
-19.1911154344
 10
-99.7943475969
 20
-19.3692472695
 10
-99.7556386967
 20
-19.5443732949
 10
-99.7201331607
 20
-19.716610839
 10
-99.68773145
 20
-19.8861696171
 10
-99.6585331036
 20
-20.0526231443
 10
-99.6325863675
 20
-20.2151411224
 10
-99.609912923
 20
-20.3734747605
 10
-99.5904910888
 20
-20.5276487662
 10
-99.5743040676
 20
-20.6772487142
 10
-99.5613358477
 20
-20.8224149417
 10
-99.5516024408
 20
-20.9627827502
 10
-99.5451350845
 20
-21.0971967951
 10
-99.5419449547
 20
-21.2251517161
 10
-99.5420208756
 20
-21.3469629669
 10
-99.5453605571
 20
-21.4627187546
 10
-99.55197226
 20
-21.5726794571
 10
-99.5618477235
 20
-21.6763866308
 10
-99.5749598751
 20
-21.772868208
 10
-99.5912972863
 20
-21.8618819938
 10
-99.6108713856
 20
-21.9435289162
 10
-99.6336893861
 20
-22.0173824158
 10
-99.6597695599
 20
-22.0834277995
 10
-99.689093635
 20
-22.1415647969
 10
-99.7216140086
 20
-22.1912655881
 10
-99.7572300126
 20
-22.2325299203
 10
-99.7960423152
 20
-22.2652966614
 10
-99.838305318
 20
-22.2889638719
 10
-99.8599044537
 20
-22.2971134255
  0
LWPOLYLINE
  5
29C
100
AcDbEntity
  8
0
100
AcDbPolyline
 62
7
  6
CONTINUOUS
 90
3
 70
0
 10
-103.6142214234
 20
20.5972067628
 10
-103.6137268272
 20
20.5869161761
 10
-103.6133232116
 20
20.5532235355
  0
LWPOLYLINE
  5
29D
100
AcDbEntity
  8
RACCORDO
100
AcDbPolyline
 62
250
  6
CONTINUOUS
 90
43
 70
0
 10
-100.7857811808
 20
0.0
 10
-100.7835042574
 20
-0.4970698509
 10
-100.7779272308
 20
-0.9846641848
 10
-100.769050101
 20
-1.4630401258
 10
-100.7568115446
 20
-1.9304859746
 10
-100.741272885
 20
-2.3892334972
 10
-100.7226180922
 20
-2.8454326802
 10
-100.7008780787
 20
-3.3010650728
 10
-100.676021932
 20
-3.754610208
 10
-100.6481408855
 20
-4.2069304357
 10
-100.617315827
 20
-4.6577544245
 10
-100.5834658688
 20
-5.1077779289
 10
-100.5464395809
 20
-5.5593165867
 10
-100.5062664928
 20
-6.0129077434
 10
-100.4629170752
 20
-6.4684585574
 10
-100.41615131
 20
-6.9273770279
 10
-100.3658819359
 20
-7.3907978842
 10
-100.3121962142
 20
-7.8580684457
 10
-100.2551159108
 20
-8.3279329161
 10
-100.1945229766
 20
-8.80113039
 10
-100.1305354607
 20
-9.2773733536
 10
-100.0635292755
 20
-9.7538174083
 10
-99.9937855738
 20
-10.2286879753
 10
-99.921023203
 20
-10.7040779612
 10
-99.8447746179
 20
-11.1829449504
 10
-99.7655613212
 20
-11.6633428928
 10
-99.6828618103
 20
-12.1475844238
 10
-99.5946440323
 20
-12.6452472654
 10
-99.501077915
 20
-13.1572602643
 10
-99.4019935307
 20
-13.6834327531
 10
-99.2948490428
 20
-14.2320936524
 10
-99.1782634155
 20
-14.810690799
 10
-99.0536176845
 20
-15.4130655582
 10
-98.9225131213
 20
-16.0272062605
 10
-98.7840316096
 20
-16.6555999719
 10
-98.6390912657
 20
-17.2966018594
 10
-98.4920477094
 20
-17.9313788318
 10
-98.3424877772
 20
-18.5593785507
 10
-98.1908246328
 20
-19.1810510789
 10
-98.0426533872
 20
-19.778147682
 10
-97.8977487308
 20
-20.3496428978
 10
-97.7563359732
 20
-20.8956340951
 10
-97.504889623
 20
-21.8523777941
  0
LINE
  5
29E
100
AcDbEntity
  8
RACCORDO
100
AcDbLine
 62
250
  6
CONTINUOUS
 10
-100.7857811808
 20
27.1969596493
 11
-100.7857811808
 21
0.0
  0
LWPOLYLINE
  5
29F
100
AcDbEntity
  8
0
100
AcDbPolyline
 62
7
  6
CONTINUOUS
 90
5
 70
0
 43
0.3500000087
 10
-65.3273361359
 20
37.9617080536
 10
-64.9701904938
 20
38.1759945862
 10
-64.9701904938
 20
38.8188499207
 10
-65.3273361359
 20
39.2474229858
 10
-66.1844780029
 20
39.2474229858
  0
LWPOLYLINE
  5
2A0
100
AcDbEntity
  8
RACCORDO
100
AcDbPolyline
 62
250
  6
CONTINUOUS
 90
10
 70
0
 10
-92.1045354167
 20
-27.5
 10
-92.004021611
 20
-27.4974328403
 10
-91.9037658428
 20
-27.4897379519
 10
-91.8040254847
 20
-27.476935089
 10
-91.705056586
 20
-27.4590571191
 10
-91.6071132155
 20
-27.4361499381
 10
-91.5104468097
 20
-27.4082723529
 10
-91.4153055264
 20
-27.37549593
 10
-91.3219336084
 20
-27.3379048121
 10
-91.230570756
 20
-27.295595502
  0
LWPOLYLINE
  5
2A1
100
AcDbEntity
  8
RACCORDO
100
AcDbPolyline
 62
250
  6
CONTINUOUS
 90
10
 70
0
 10
-100.3658583107
 20
-27.1900623576
 10
-100.4495842904
 20
-27.1906940568
 10
-100.5239154723
 20
-27.1916280468
 10
-100.5894443848
 20
-27.1936735193
 10
-100.646856466
 20
-27.1947923262
 10
-100.6954662778
 20
-27.1947976431
 10
-100.7338100338
 20
-27.1960789957
 10
-100.7613998052
 20
-27.1984634808
 10
-100.7787235209
 20
-27.1992939935
 10
-100.7857811808
 20
-27.1969596493
  0
LINE
  5
2A2
100
AcDbEntity
  8
RACCORDO
100
AcDbLine
 62
7
  6
CONTINUOUS
 10
-92.0927390328
 20
-27.5
 11
-100.3262086658
 21
-27.5
  0
LWPOLYLINE
  5
2A3
100
AcDbEntity
  8
RACCORDO
100
AcDbPolyline
 62
250
  6
CONTINUOUS
 90
16
 70
0
 10
-96.8350128622
 20
-27.5
 10
-96.8755760385
 20
-27.4982276305
 10
-96.9158516428
 20
-27.492923087
 10
-96.9555541421
 20
-27.4841239762
 10
-96.9944020665
 20
-27.4718926791
 10
-97.0321200045
 20
-27.4563159094
 10
-97.0684405556
 20
-27.4375040982
 10
-97.103106226
 20
-27.4155906114
 10
-97.1358712544
 20
-27.3907308044
 10
-97.1665033538
 20
-27.3631009201
 10
-97.1947853587
 20
-27.3328968401
 10
-97.2205167644
 20
-27.3003326955
 10
-97.2435151488
 20
-27.2656393491
 10
-97.2636174653
 20
-27.2290627586
 10
-97.2806811991
 20
-27.1908622329
 10
-97.2945853772
 20
-27.1513085938
  0
LWPOLYLINE
  5
2A4
100
AcDbEntity
  8
RACCORDO
100
AcDbPolyline
 62
250
  6
CONTINUOUS
 90
19
 70
0
 10
-92.1384164261
 20
-27.4766170834
 10
-92.1534087885
 20
-27.4479974335
 10
-92.1670196431
 20
-27.4088378992
 10
-92.1793317361
 20
-27.3594911489
 10
-92.1905933062
 20
-27.2996251515
 10
-92.20087838
 20
-27.2290150852
 10
-92.2101129309
 20
-27.1480162967
 10
-92.2183231172
 20
-27.0568394905
 10
-92.2255091098
 20
-26.9556971554
 10
-92.2316707378
 20
-26.8447810102
 10
-92.2368336465
 20
-26.7243248787
 10
-92.2410022141
 20
-26.5945749912
 10
-92.2441720623
 20
-26.4558132482
 10
-92.2463557017
 20
-26.3083633178
 10
-92.2475575159
 20
-26.1525598515
 10
-92.2477731211
 20
-25.9887271918
 10
-92.2470018768
 20
-25.8172040315
 10
-92.245246152
 20
-25.6382912326
 10
-92.2425035775
 20
-25.4524409418
  0
LWPOLYLINE
  5
2A5
100
AcDbEntity
  8
RACCORDO
100
AcDbPolyline
 62
250
  6
CONTINUOUS
 90
3
 70
0
 10
-97.0453171077
 20
-21.7280112397
 10
-96.9352835153
 20
-22.1357486099
 10
-96.8350128622
 20
-22.5
  0
LWPOLYLINE
  5
2A6
100
AcDbEntity
  8
RACCORDO
100
AcDbPolyline
 62
250
  6
CONTINUOUS
 90
3
 70
0
 10
-97.504889623
 20
-21.8523777941
 10
-97.3948560304
 20
-22.2616893883
 10
-97.2945853772
 20
-22.6260904948
  0
LWPOLYLINE
  5
2A7
100
AcDbEntity
  8
RACCORDO
100
AcDbPolyline
 62
250
  6
CONTINUOUS
 90
34
 70
0
 10
-97.2945853772
 20
-22.6260904948
 10
-97.2372020673
 20
-22.8418965227
 10
-97.1833103531
 20
-23.0552876274
 10
-97.1329102346
 20
-23.2661597943
 10
-97.08610533
 20
-23.4739380099
 10
-97.0427920211
 20
-23.6789768571
 10
-97.0026594528
 20
-23.8825648203
 10
-96.9654511729
 20
-24.0858405561
 10
-96.9314236337
 20
-24.2874265995
 10
-96.9010353373
 20
-24.4848335415
 10
-96.8744125113
 20
-24.6774600797
 10
-96.8514289281
 20
-24.8656454022
 10
-96.8321644073
 20
-25.0483154157
 10
-96.8166426465
 20
-25.2251690132
 10
-96.8048399481
 20
-25.3962542553
 10
-96.7967650387
 20
-25.5610329804
 10
-96.79240469
 20
-25.7193798413
 10
-96.7917721303
 20
-25.8711790632
 10
-96.7949157706
 20
-26.015917288
 10
-96.8018503197
 20
-26.153635876
 10
-96.8125610687
 20
-26.2840625379
 10
-96.8270523032
 20
-26.4062363157
 10
-96.8453293038
 20
-26.5199508627
 10
-96.8673867898
 20
-26.6252305978
 10
-96.893213204
 20
-26.7214935596
 10
-96.922807305
 20
-26.8086806531
 10
-96.9561703342
 20
-26.886708266
 10
-96.993294459
 20
-26.9549880792
 10
-97.0341926678
 20
-27.0134993512
 10
-97.0788519723
 20
-27.0621659044
 10
-97.1272255752
 20
-27.100354814
 10
-97.1792978775
 20
-27.1278521275
 10
-97.2350844781
 20
-27.1448408563
 10
-97.2945853772
 20
-27.1513085938
  0
LWPOLYLINE
  5
2A8
100
AcDbEntity
  8
RACCORDO
100
AcDbPolyline
 62
250
  6
CONTINUOUS
 90
34
 70
0
 10
-96.8350128622
 20
-22.5
 10
-96.7776293831
 20
-22.7383547457
 10
-96.7237375796
 20
-22.9747758653
 10
-96.6733374518
 20
-23.2087462092
 10
-96.626532669
 20
-23.4388627203
 10
-96.583219562
 20
-23.665575637
 10
-96.5430871224
 20
-23.8910987206
 10
-96.5058788137
 20
-24.1162656357
 10
-96.4718511724
 20
-24.3391042777
 10
-96.4414628011
 20
-24.5576001001
 10
-96.4148399717
 20
-24.7708514178
 10
-96.3918564121
 20
-24.9788338654
 10
-96.3725919088
 20
-25.1809573443
 10
-96.3570701459
 20
-25.3766355342
 10
-96.3452674393
 20
-25.5656382372
 10
-96.3371925233
 20
-25.7479103477
 10
-96.3328321724
 20
-25.9230169
 10
-96.3321996123
 20
-26.0905947131
 10
-96.3353432542
 20
-26.2506287755
 10
-96.3422778097
 20
-26.4028733315
 10
-96.3529885673
 20
-26.5467297064
 10
-96.3674798046
 20
-26.6816511429
 10
-96.3857567904
 20
-26.8071997322
 10
-96.4078142559
 20
-26.9231636963
 10
-96.4336406725
 20
-27.0293603761
 10
-96.463234838
 20
-27.1254638267
 10
-96.4965979546
 20
-27.2111829921
 10
-96.5337221004
 20
-27.2863368763
 10
-96.5746201859
 20
-27.3506322123
 10
-96.6192793005
 20
-27.40377366
 10
-96.6676527907
 20
-27.4455340222
 10
-96.7197251056
 20
-27.4756548057
 10
-96.775511796
 20
-27.4938814881
 10
-96.8350128622
 20
-27.5
  0
LWPOLYLINE
  5
2A9
100
AcDbEntity
  8
RACCORDO
100
AcDbPolyline
 62
250
  6
CONTINUOUS
 90
43
 70
0
 10
-100.3262086658
 20
0.0
 10
-100.3239317424
 20
-0.4930403199
 10
-100.3183547159
 20
-0.9771936584
 10
-100.3094775861
 20
-1.4524600156
 10
-100.2972390297
 20
-1.9166398365
 10
-100.28170037
 20
-2.371932676
 10
-100.2630455772
 20
-2.8249371985
 10
-100.2413055637
 20
-3.2774174319
 10
-100.216449417
 20
-3.7276093484
 10
-100.1885683706
 20
-4.1768195294
 10
-100.1577433121
 20
-4.6245696562
 10
-100.1238933538
 20
-5.0713380475
 10
-100.0868670659
 20
-5.5198662411
 10
-100.0466939779
 20
-5.9704468171
 10
-100.0033445602
 20
-6.4227871952
 10
-99.956578795
 20
-6.8787511726
 10
-99.9063094209
 20
-7.3392213514
 10
-99.8526236993
 20
-7.8033151295
 10
-99.7955433958
 20
-8.2702484975
 10
-99.7349504617
 20
-8.7405713735
 10
-99.6709629457
 20
-9.2137338394
 10
-99.6039567606
 20
-9.6873021318
 10
-99.5342130589
 20
-10.1593614873
 10
-99.461450688
 20
-10.6318266693
 10
-99.3852021029
 20
-11.1080082045
 10
-99.3059888062
 20
-11.5856410099
 10
-99.2232892953
 20
-12.0669901684
 10
-99.1350715173
 20
-12.5621614557
 10
-99.0415054001
 20
-13.071432006
 10
-98.9424210157
 20
-13.594524685
 10
-98.8352765279
 20
-14.1407138659
 10
-98.7186909005
 20
-14.7167410536
 10
-98.5940451696
 20
-15.3158647433
 10
-98.4629406065
 20
-15.927134793
 10
-98.3244590947
 20
-16.5530391707
 10
-98.1795187507
 20
-17.1910899083
 10
-98.0324751945
 20
-17.8228729605
 10
-97.8829152622
 20
-18.4484849006
 10
-97.7312521177
 20
-19.0678291552
 10
-97.5830808721
 20
-19.662201958
 10
-97.4381762156
 20
-20.2315402297
 10
-97.2967634579
 20
-20.7759070496
 10
-97.0453171077
 20
-21.7280112397
  0
LINE
  5
2AA
100
AcDbEntity
  8
RACCORDO
100
AcDbLine
 62
250
  6
CONTINUOUS
 10
-100.3262086658
 20
27.5
 11
-100.3262086658
 21
0.0
  0
LWPOLYLINE
  5
2AB
100
AcDbEntity
  8
RACCORDO
100
AcDbPolyline
 62
250
  6
CONTINUOUS
 90
4
 70
0
 10
-97.2945853772
 20
-27.1513085938
 10
-97.5538920602
 20
-27.1560574663
 10
-97.8004506558
 20
-27.1582356184
 10
-98.2540433715
 20
-27.1605559852
  0
LINE
  5
2AC
100
AcDbEntity
  8
RACCORDO
100
AcDbLine
 62
250
  6
CONTINUOUS
 10
-98.2540433715
 20
-27.1605559852
 11
-100.3658583107
 21
-27.1900623576
  0
LINE
  5
2AD
100
AcDbEntity
  8
RACCORDO
100
AcDbLine
 62
250
  6
CONTINUOUS
 10
-92.1045354167
 20
-22.5
 11
-91.230570756
 21
-22.6096474584
  0
LWPOLYLINE
  5
2AE
100
AcDbEntity
  8
0
100
AcDbPolyline
 62
7
  6
CONTINUOUS
 90
3
 70
0
 10
-99.9053593669
 20
-22.2721441853
 10
-99.8524050526
 20
-22.2788428897
 10
-99.8160552287
 20
-22.2765038593
  0
LWPOLYLINE
  5
2AF
100
AcDbEntity
  8
RACCORDO
100
AcDbPolyline
 62
250
  6
CONTINUOUS
 90
19
 70
0
 10
-88.5559067425
 20
19.6226247945
 10
-88.5404345145
 20
19.6475563805
 10
-88.5250945578
 20
19.6746928407
 10
-88.5100180132
 20
19.7038021865
 10
-88.4953337696
 20
19.7346355634
 10
-88.4811673622
 20
19.7669293777
 10
-88.4676398994
 20
19.80040755
 10
-88.4548670272
 20
19.8347838765
 10
-88.4429579403
 20
19.869764475
 10
-88.4320144491
 20
19.9050502977
 10
-88.4221301092
 20
19.9403396871
 10
-88.4133894216
 20
19.9753309553
 10
-88.4058671101
 20
20.0097249631
 10
-88.3996274826
 20
20.0432276772
 10
-88.3947238816
 20
20.075552684
 10
-88.3911982278
 20
20.1064236378
 10
-88.3890806619
 20
20.1355766241
 10
-88.3883892868
 20
20.1627624147
 10
-88.3891300132
 20
20.1877485992
  0
LINE
  5
2B0
100
AcDbEntity
  8
RACCORDO
100
AcDbLine
 62
250
  6
CONTINUOUS
 10
-92.1045354167
 20
-22.5
 11
-96.8350128622
 21
-22.5
  0
LINE
  5
2B1
100
AcDbEntity
  8
RACCORDO
100
AcDbLine
 62
250
  6
CONTINUOUS
 10
-92.0927390328
 20
-22.3178663494
 11
-91.2588553863
 21
-22.3178663494
  0
LINE
  5
2B2
100
AcDbEntity
  8
0
100
AcDbLine
 62
7
  6
CONTINUOUS
 10
-103.6129358894
 20
-20.5
 11
-103.7559067447
 21
-20.5
  0
LWPOLYLINE
  5
2B3
100
AcDbEntity
  8
RACCORDO
100
AcDbPolyline
 62
250
  6
CONTINUOUS
 90
10
 70
0
 10
-91.230570756
 20
-22.6096474584
 10
-91.2322310619
 20
-22.5782288843
 10
-91.2342530739
 20
-22.546557861
 10
-91.2366367917
 20
-22.5146353691
 10
-91.2393703466
 20
-22.482463275
 10
-91.2424656074
 20
-22.4500419826
 10
-91.2459581811
 20
-22.4173704233
 10
-91.2498599366
 20
-22.3844492061
 10
-91.254159005
 20
-22.3512806345
 10
-91.2588553863
 20
-22.3178663494
  0
LINE
  5
2B4
100
AcDbEntity
  8
RACCORDO
100
AcDbLine
 62
250
  6
CONTINUOUS
 10
-91.2102975121
 20
-23.0804857225
 11
-91.230570756
 21
-22.6096474584
  0
LINE
  5
2B5
100
AcDbEntity
  8
RACCORDO
100
AcDbLine
 62
250
  6
CONTINUOUS
 10
-91.1943344917
 20
-23.5348790365
 11
-91.2102975121
 21
-23.0804857225
  0
LINE
  5
2B6
100
AcDbEntity
  8
RACCORDO
100
AcDbLine
 62
250
  6
CONTINUOUS
 10
-91.1824106705
 20
-23.968722146
 11
-91.1943344917
 21
-23.5348790365
  0
LINE
  5
2B7
100
AcDbEntity
  8
RACCORDO
100
AcDbLine
 62
250
  6
CONTINUOUS
 10
-91.1735871373
 20
-24.3764049914
 11
-91.1824106705
 21
-23.968722146
  0
LINE
  5
2B8
100
AcDbEntity
  8
RACCORDO
100
AcDbLine
 62
250
  6
CONTINUOUS
 10
-91.1672181883
 20
-24.7577079229
 11
-91.1735871373
 21
-24.3764049914
  0
LINE
  5
2B9
100
AcDbEntity
  8
RACCORDO
100
AcDbLine
 62
250
  6
CONTINUOUS
 10
-91.161434507
 20
-25.2850696629
 11
-91.1672181883
 21
-24.7577079229
  0
LINE
  5
2BA
100
AcDbEntity
  8
RACCORDO
100
AcDbLine
 62
250
  6
CONTINUOUS
 10
-91.1596580816
 20
-25.6112510316
 11
-91.161434507
 21
-25.2850696629
  0
LINE
  5
2BB
100
AcDbEntity
  8
RACCORDO
100
AcDbLine
 62
250
  6
CONTINUOUS
 10
-92.0927390328
 20
-22.3178663494
 11
-92.0927390328
 21
27.5
  0
LINE
  5
2BC
100
AcDbEntity
  8
RACCORDO
100
AcDbLine
 62
250
  6
CONTINUOUS
 10
-91.2588553863
 20
-22.3178663494
 11
-91.2588553863
 21
27.3178663494
  0
LINE
  5
2BD
100
AcDbEntity
  8
RACCORDO
100
AcDbLine
 62
250
  6
CONTINUOUS
 10
-91.1594321976
 20
-25.9136348697
 11
-91.1596580816
 21
-25.6112510316
  0
LINE
  5
2BE
100
AcDbEntity
  8
RACCORDO
100
AcDbLine
 62
250
  6
CONTINUOUS
 10
-91.1607765442
 20
-26.1908300641
 11
-91.1594321976
 21
-25.9136348697
  0
LWPOLYLINE
  5
2BF
100
AcDbEntity
  8
RACCORDO
100
AcDbPolyline
 62
250
  6
CONTINUOUS
 90
3
 70
0
 10
-92.2425035775
 20
-25.4524409418
 10
-92.2340758351
 20
-25.0629816312
 10
-92.2283906672
 20
-24.8602996539
  0
LWPOLYLINE
  5
2C0
100
AcDbEntity
  8
RACCORDO
100
AcDbPolyline
 62
250
  6
CONTINUOUS
 90
3
 70
0
 10
-92.2283906672
 20
-24.8602996539
 10
-92.2136484947
 20
-24.432897074
 10
-92.2045914901
 20
-24.2088206472
  0
LWPOLYLINE
  5
2C1
100
AcDbEntity
  8
RACCORDO
100
AcDbPolyline
 62
250
  6
CONTINUOUS
 90
22
 70
0
 10
-88.9891300154
 20
19.9921116162
 10
-88.9879973323
 20
20.0184052854
 10
-88.9838369826
 20
20.0437739315
 10
-88.9766489665
 20
20.0682121745
 10
-88.9664384328
 20
20.0919565927
 10
-88.9532002327
 20
20.1147586634
 10
-88.9369189192
 20
20.1358899097
 10
-88.9175474178
 20
20.1552471329
 10
-88.895132803
 20
20.1729323983
 10
-88.8698008517
 20
20.1885331648
 10
-88.8414538457
 20
20.2020416929
 10
-88.8101895032
 20
20.2134712368
 10
-88.776426756
 20
20.2224480484
 10
-88.7400678129
 20
20.2289232469
 10
-88.7012104653
 20
20.232959361
 10
-88.6605670187
 20
20.2343569488
 10
-88.618059842
 20
20.2330469097
 10
-88.5737665664
 20
20.2291171997
 10
-88.5286323914
 20
20.2226087367
 10
-88.4829723834
 20
20.2135422362
 10
-88.4364714761
 20
20.2019158818
 10
-88.3891296694
 20
20.187737473
  0
LWPOLYLINE
  5
2C2
100
AcDbEntity
  8
RACCORDO
100
AcDbPolyline
 62
250
  6
CONTINUOUS
 90
7
 70
0
 10
-92.2045914901
 20
-24.2088206472
 10
-92.1826260751
 20
-23.7415217928
 10
-92.1697176648
 20
-23.4991857893
 10
-92.1554616309
 20
-23.2531448438
 10
-92.1398338498
 20
-23.0044033042
 10
-92.1228584451
 20
-22.7531470655
 10
-92.1045354167
 20
-22.5
  0
LWPOLYLINE
  5
2C3
100
AcDbEntity
  8
RACCORDO
100
AcDbPolyline
 62
250
  6
CONTINUOUS
 90
22
 70
0
 10
-88.7559067447
 20
19.7154941109
 10
-88.7554606827
 20
19.7222707389
 10
-88.7540897625
 20
19.7281479993
 10
-88.7517477034
 20
19.7330776952
 10
-88.7483799946
 20
19.737017431
 10
-88.7439563166
 20
19.7398973931
 10
-88.7385033963
 20
19.7416277713
 10
-88.7320507163
 20
19.7421062816
 10
-88.7245914577
 20
19.7413220487
 10
-88.7161331166
 20
19.739326258
 10
-88.706686567
 20
19.7360322551
 10
-88.6962901489
 20
19.7314049505
 10
-88.6850059351
 20
19.7255750395
 10
-88.6728801777
 20
19.718458373
 10
-88.6599729604
 20
19.7100307276
 10
-88.6463890064
 20
19.7005254612
 10
-88.6321981784
 20
19.6898861063
 10
-88.6174864334
 20
19.6780908319
 10
-88.6024014055
 20
19.6654469868
 10
-88.5870570017
 20
19.6520514671
 10
-88.5715270897
 20
19.6377797613
 10
-88.5559067447
 20
19.6226247912
  0
LINE
  5
2C4
100
AcDbEntity
  8
RACCORDO
100
AcDbLine
 62
250
  6
CONTINUOUS
 10
-80.7559067447
 20
-17.7674578792
 11
-81.3389649215
 21
-17.7674578792
  0
LWPOLYLINE
  5
2C5
100
AcDbEntity
  8
RACCORDO
100
AcDbPolyline
 62
7
  6
CONTINUOUS
 90
3
 70
0
 10
-88.7560382212
 20
16.8195713246
 10
-88.7559690073
 20
16.8187122191
 10
-88.7559067453
 20
16.8163843031
  0
LINE
  5
2C6
100
AcDbEntity
  8
RACCORDO
100
AcDbLine
 62
250
  6
CONTINUOUS
 10
-88.7559067447
 20
16.8163563081
 11
-88.7577126592
 21
16.8409948379
  0
LINE
  5
2C7
100
AcDbEntity
  8
RACCORDO
100
AcDbLine
 62
250
  6
CONTINUOUS
 10
-88.9891300154
 20
17.0522975684
 11
-88.9891300154
 21
19.9921116162
  0
LINE
  5
2C8
100
AcDbEntity
  8
RACCORDO
100
AcDbLine
 62
7
  6
CONTINUOUS
 10
-88.7559067447
 20
16.808959555
 11
-88.7559067447
 21
19.7145583433
  0
LINE
  5
2C9
100
AcDbEntity
  8
RACCORDO
100
AcDbLine
 62
250
  6
CONTINUOUS
 10
-88.5559067447
 20
19.6226260577
 11
-88.5559067447
 21
18.6170093579
  0
LINE
  5
2CA
100
AcDbEntity
  8
RACCORDO
100
AcDbLine
 62
250
  6
CONTINUOUS
 10
-87.6559067447
 20
18.6170093579
 11
-87.6559067447
 21
16.285015343
  0
LINE
  5
2CB
100
AcDbEntity
  8
RACCORDO
100
AcDbLine
 62
7
  6
CONTINUOUS
 10
-87.1559067447
 20
18.1170093579
 11
-87.1559067447
 21
17.3670093579
  0
LINE
  5
2CC
100
AcDbEntity
  8
RACCORDO
100
AcDbLine
 62
7
  6
CONTINUOUS
 10
-87.1559067447
 20
16.6170093582
 11
-87.1559067447
 21
16.1219282146
  0
LINE
  5
2CD
100
AcDbEntity
  8
0
100
AcDbLine
 62
7
  6
CONTINUOUS
 10
-87.1559067447
 20
18.11696328
 11
-87.1559067447
 21
16.1219282146
  0
LWPOLYLINE
  5
2CE
100
AcDbEntity
  8
RACCORDO
100
AcDbPolyline
 62
250
  6
CONTINUOUS
 90
10
 70
0
 10
-88.3891300154
 20
16.3869366928
 10
-88.388389289
 20
16.4141942941
 10
-88.389080664
 20
16.4392600022
 10
-88.3911982299
 20
16.461919531
 10
-88.3947238836
 20
16.4819791649
 10
-88.3996274844
 20
16.4992674149
 10
-88.4058671117
 20
16.5136364841
 10
-88.4133894231
 20
16.524963532
 10
-88.4221301105
 20
16.5331517238
 10
-88.4318913992
 20
16.538091182
  0
LWPOLYLINE
  5
2CF
100
AcDbEntity
  8
RACCORDO
100
AcDbPolyline
 62
250
  6
CONTINUOUS
 90
10
 70
0
 10
-92.1045354167
 20
-22.5
 10
-92.102143745
 20
-22.4800492686
 10
-92.1000154129
 20
-22.4600243016
 10
-92.0981504202
 20
-22.4399250992
 10
-92.0965395655
 20
-22.4197481275
 10
-92.0951920503
 20
-22.3994969202
 10
-92.094135479
 20
-22.3791820786
 10
-92.0933790531
 20
-22.3588071365
 10
-92.092913571
 20
-22.3383685601
 10
-92.0927390328
 20
-22.3178663494
  0
LWPOLYLINE
  5
2D0
100
AcDbEntity
  8
0
100
AcDbPolyline
 62
7
  6
CONTINUOUS
 90
3
 70
0
 43
0.3500000087
 10
-72.6201937012
 20
46.6193222382
 10
-72.6916211243
 20
46.4050357056
 10
-72.8344759705
 20
46.1193217499
  0
LWPOLYLINE
  5
2D1
100
AcDbEntity
  8
RACCORDO
100
AcDbPolyline
 62
250
  6
CONTINUOUS
 90
16
 70
0
 10
-80.7559067447
 20
16.8084583046
 10
-80.7580980308
 20
16.8054376155
 10
-80.7646478655
 20
16.8024500273
 10
-80.7754844646
 20
16.799528273
 10
-80.790489076
 20
16.7967043642
 10
-80.8094972844
 20
16.7940092397
 10
-80.8323008161
 20
16.7914724268
 10
-80.8586498125
 20
16.7891217189
 10
-80.8882555743
 20
16.7869828697
 10
-80.9207937337
 20
16.7850793113
 10
-80.9559077871
 20
16.7834318986
 10
-80.9932130133
 20
16.7820586799
 10
-81.032300704
 20
16.7809746991
 10
-81.0727426141
 20
16.7801918316
 10
-81.1140956503
 20
16.7797186541
 10
-81.1559067447
 20
16.7795603503
  0
LINE
  5
2D2
100
AcDbEntity
  8
RACCORDO
100
AcDbLine
 62
250
  6
CONTINUOUS
 10
-96.8350128622
 20
-22.5
 11
-97.2945853772
 21
-22.6260904948
  0
LWPOLYLINE
  5
2D3
100
AcDbEntity
  8
0
100
AcDbPolyline
 62
7
  6
CONTINUOUS
 90
13
 70
0
 10
-99.8599044537
 20
-22.2971134255
 10
-99.8840339494
 20
-22.3036551588
 10
-99.933213281
 20
-22.3091909331
 10
-99.9860529292
 20
-22.3045309046
 10
-100.0426594587
 20
-22.2897091213
 10
-100.1029263048
 20
-22.2646821577
 10
-100.166743389
 20
-22.2283566009
 10
-100.2342510964
 20
-22.1806183668
 10
-100.3053090418
 20
-22.1216829396
 10
-100.3793859913
 20
-22.0510587976
 10
-100.4563048667
 20
-21.9686872889
 10
-100.536242746
 20
-21.874876973
 10
-100.6191996293
 20
-21.7697480447
  0
LWPOLYLINE
  5
2D4
100
AcDbEntity
  8
0
100
AcDbPolyline
 62
250
  6
CONTINUOUS
 90
7
 70
0
 10
-100.6191994295
 20
-21.7697482948
 10
-100.6031171364
 20
-21.7655631811
 10
-100.587340068
 20
-21.7609799377
 10
-100.5718683128
 20
-21.7559982513
 10
-100.5567019003
 20
-21.7506179414
 10
-100.541840801
 20
-21.7448389604
 10
-100.5272849265
 20
-21.7386613933
  0
LWPOLYLINE
  5
2D5
100
AcDbEntity
  8
RACCORDO
100
AcDbPolyline
 62
250
  6
CONTINUOUS
 90
10
 70
0
 10
-84.0531919819
 20
14.969834504
 10
-84.0523270814
 20
14.9973952393
 10
-84.0529090358
 20
15.0227619027
 10
-84.0549328226
 20
15.0457155634
 10
-84.0583809751
 20
15.0660581168
 10
-84.0632237335
 20
15.0836139935
 10
-84.0694193017
 20
15.098231675
 10
-84.0769142081
 20
15.1097850014
 10
-84.0856437667
 20
15.1181742599
 10
-84.0958465007
 20
15.1234311403
  0
LWPOLYLINE
  5
2D6
100
AcDbEntity
  8
RACCORDO
100
AcDbPolyline
 62
250
  6
CONTINUOUS
 90
13
 70
0
 10
-81.3389649226
 20
17.7004783502
 10
-81.3458531482
 20
17.6756626663
 10
-81.3544279787
 20
17.6481271516
 10
-81.36459895
 20
17.6181622839
 10
-81.3762587617
 20
17.5860841608
 10
-81.3892844101
 20
17.5522311746
 10
-81.403538485
 20
17.5169604445
 10
-81.4188706153
 20
17.4806440319
 10
-81.4351190651
 20
17.4436650194
 10
-81.4521124388
 20
17.4064134813
 10
-81.4696714795
 20
17.3692823576
 10
-81.4876109614
 20
17.3326633103
 10
-81.5057416508
 20
17.2969425967
  0
LINE
  5
2D7
100
AcDbEntity
  8
RACCORDO
100
AcDbLine
 62
250
  6
CONTINUOUS
 10
-88.7577126592
 20
16.8409948379
 11
-88.763114096
 21
16.8654108923
  0
LWPOLYLINE
  5
2D8
100
AcDbEntity
  8
RACCORDO
100
AcDbPolyline
 62
250
  6
CONTINUOUS
 90
8
 70
0
 10
-81.3389649215
 20
-17.7674578792
 10
-81.3218082231
 20
-18.0193754606
 10
-81.3059562613
 20
-18.2717330777
 10
-81.2914090362
 20
-18.5238197634
 10
-81.2781927036
 20
-18.7750092904
 10
-81.2662811077
 20
-19.0244908855
 10
-81.2555957811
 20
-19.2712809444
 10
-81.246137251
 20
-19.5146758868
  0
LWPOLYLINE
  5
2D9
100
AcDbEntity
  8
RACCORDO
100
AcDbPolyline
 62
250
  6
CONTINUOUS
 90
19
 70
0
 10
-84.0531919819
 20
18.7751161765
 10
-84.0523270826
 20
18.7502056091
 10
-84.0529089877
 20
18.7230565825
 10
-84.054932686
 20
18.6939033866
 10
-84.0583807233
 20
18.6629976095
 10
-84.0632233519
 20
18.6306059713
 10
-84.0694187871
 20
18.5970080228
 10
-84.0769135687
 20
18.5624937225
 10
-84.0856430212
 20
18.5273609454
 10
-84.095531809
 20
18.4919129175
 10
-84.1064945928
 20
18.4564555758
 10
-84.1184367621
 20
18.4212949442
 10
-84.1312552465
 20
18.3867345039
 10
-84.1448394171
 20
18.3530725398
 10
-84.1590720349
 20
18.3205995872
 10
-84.1738302543
 20
18.2895959383
 10
-84.188986698
 20
18.2603291904
 10
-84.2044105573
 20
18.2330519389
 10
-84.2199687114
 20
18.2079996156
  0
LWPOLYLINE
  5
2DA
100
AcDbEntity
  8
RACCORDO
100
AcDbPolyline
 62
250
  6
CONTINUOUS
 90
3
 70
0
 10
-81.246137251
 20
-19.5146758868
 10
-81.2308189492
 20
-19.9882181615
 10
-81.2248724575
 20
-20.2167324452
  0
LWPOLYLINE
  5
2DB
100
AcDbEntity
  8
RACCORDO
100
AcDbPolyline
 62
250
  6
CONTINUOUS
 90
20
 70
0
 10
-81.2248724575
 20
-20.2167324452
 10
-81.216358096
 20
-20.6538909763
 10
-81.2137190929
 20
-20.8611059358
 10
-81.212166272
 20
-21.0600107668
 10
-81.2116728834
 20
-21.2500068672
 10
-81.2122258456
 20
-21.4305884586
 10
-81.21383824
 20
-21.6012831827
 10
-81.2165225611
 20
-21.7616033084
 10
-81.2202608392
 20
-21.9110499657
 10
-81.2250710441
 20
-22.0493665001
 10
-81.2310195794
 20
-22.1764336758
 10
-81.2380995088
 20
-22.2919779921
 10
-81.2463177687
 20
-22.3955703022
 10
-81.2557615723
 20
-22.486886154
 10
-81.2664366694
 20
-22.5657268208
 10
-81.2783373103
 20
-22.6318745864
 10
-81.2915334595
 20
-22.6851378382
 10
-81.3060484385
 20
-22.7254724601
 10
-81.3218589259
 20
-22.7529002483
 10
-81.3389649215
 20
-22.7674578792
  0
LWPOLYLINE
  5
2DC
100
AcDbEntity
  8
RACCORDO
100
AcDbPolyline
 62
250
  6
CONTINUOUS
 90
11
 70
0
 10
-88.763114096
 20
16.8654108923
 10
-88.7720622824
 20
16.8893840048
 10
-88.7844764201
 20
16.9126977085
 10
-88.8002444148
 20
16.9351414905
 10
-88.8192238882
 20
16.9565126931
 10
-88.8412434639
 20
16.9766183435
 10
-88.8661043144
 20
16.9952768963
 10
-88.8935819569
 20
17.0123198726
 10
-88.9234282801
 20
17.0275933818
 10
-88.9553737843
 20
17.0409595105
 10
-88.9891300154
 20
17.0522975684
  0
LWPOLYLINE
  5
2DD
100
AcDbEntity
  8
RACCORDO
100
AcDbPolyline
 62
7
  6
CONTINUOUS
 90
5
 70
0
 10
-88.7532825958
 20
16.808959555
 10
-88.753766395
 20
16.8104637983
 10
-88.755167824
 20
16.8153811941
 10
-88.7558502689
 20
16.8184322353
 10
-88.7559067447
 20
16.8187745086
  0
LWPOLYLINE
  5
2DE
100
AcDbEntity
  8
RACCORDO
100
AcDbPolyline
 62
250
  6
CONTINUOUS
 90
3
 70
0
 10
-80.7559067447
 20
13.9739340088
 10
-80.7580012416
 20
13.9943161385
 10
-80.7641827464
 20
14.0150843278
  0
LINE
  5
2DF
100
AcDbEntity
  8
RACCORDO
100
AcDbLine
 62
7
  6
CONTINUOUS
 10
-80.755906788
 20
13.9738275912
 11
-80.7580631951
 21
14.0156635174
  0
LINE
  5
2E0
100
AcDbEntity
  8
RACCORDO
100
AcDbLine
 62
250
  6
CONTINUOUS
 10
-81.3389649215
 20
22.7674578792
 11
-81.3389649215
 21
17.7004783497
  0
LINE
  5
2E1
100
AcDbEntity
  8
RACCORDO
100
AcDbLine
 62
250
  6
CONTINUOUS
 10
-81.3389649215
 20
14.3195741723
 11
-81.3389649215
 21
-17.7674578792
  0
LINE
  5
2E2
100
AcDbEntity
  8
RACCORDO
100
AcDbLine
 62
250
  6
CONTINUOUS
 10
-81.1559067447
 20
16.7795603504
 11
-81.1559067447
 21
14.4187647584
  0
LINE
  5
2E3
100
AcDbEntity
  8
RACCORDO
100
AcDbLine
 62
7
  6
CONTINUOUS
 10
-80.7559067447
 20
21.8585247046
 11
-80.7559067447
 21
-21.8585247046
  0
LINE
  5
2E4
100
AcDbEntity
  8
CURVE
100
AcDbLine
 62
250
  6
CONTINUOUS
 10
-80.7559067447
 20
-17.7674578792
 11
-80.7559067447
 21
-19.0479604783
  0
LWPOLYLINE
  5
2E5
100
AcDbEntity
  8
RACCORDO
100
AcDbPolyline
 62
250
  6
CONTINUOUS
 90
14
 70
0
 10
-91.230570756
 20
-27.295595502
 10
-91.2203169838
 20
-27.2712340387
 10
-91.211069397
 20
-27.2371190734
 10
-91.2028279956
 20
-27.1938608508
 10
-91.1957027215
 20
-27.1423770241
 10
-91.1895836329
 20
-27.0830671356
 10
-91.1841409034
 20
-27.0153691103
 10
-91.1793123591
 20
-26.9391244505
 10
-91.1751601739
 20
-26.8548799331
 10
-91.1715410435
 20
-26.7627290175
 10
-91.1684375947
 20
-26.6629182204
 10
-91.1658672006
 20
-26.5556961694
 10
-91.163738676
 20
-26.4411182906
 10
-91.1607765442
 20
-26.1908300641
  0
LINE
  5
2E6
100
AcDbEntity
  8
RACCORDO
100
AcDbLine
 62
7
  6
CONTINUOUS
 10
-80.7559067447
 20
-7.0
 11
-63.4559067447
 21
-7.0
  0
LINE
  5
2E7
100
AcDbEntity
  8
RACCORDO
100
AcDbLine
 62
250
  6
CONTINUOUS
 10
-80.7559067447
 20
-5.5355339059
 11
-63.4559067447
 21
-5.5355339059
  0
LWPOLYLINE
  5
2E8
100
AcDbEntity
  8
RACCORDO
100
AcDbPolyline
 62
250
  6
CONTINUOUS
 90
10
 70
0
 10
-81.3389649215
 20
14.3195741723
 10
-81.3458531218
 20
14.3515818733
 10
-81.3544278868
 20
14.3808398729
 10
-81.3645987687
 20
14.4070395437
 10
-81.3762584834
 20
14.4299045179
 10
-81.3892840413
 20
14.4491936026
 10
-81.4035380446
 20
14.464703324
 10
-81.4188701377
 20
14.4762700752
 10
-81.4351185925
 20
14.4837718409
 10
-81.4468583447
 20
14.486547265
  0
LWPOLYLINE
  5
2E9
100
AcDbEntity
  8
RACCORDO
100
AcDbPolyline
 62
7
  6
CONTINUOUS
 90
32
 70
0
 10
-80.7580631951
 20
14.0156635174
 10
-80.7639256694
 20
14.054134611
 10
-80.7731162578
 20
14.0907872836
 10
-80.7851845478
 20
14.1252417774
 10
-80.7997136609
 20
14.1573708706
 10
-80.8162948477
 20
14.1870863055
 10
-80.8344465214
 20
14.214230155
 10
-80.8539709605
 20
14.2390738943
 10
-80.8744350094
 20
14.2615391046
 10
-80.8949315908
 20
14.2812007997
 10
-80.9149141907
 20
14.2981721091
 10
-80.9344676387
 20
14.3130471705
 10
-80.9536189552
 20
14.3262252711
 10
-80.9721585124
 20
14.3378734701
 10
-80.9902562103
 20
14.3483484606
 10
-81.0085208363
 20
14.3581523409
 10
-81.0270643603
 20
14.3674275556
 10
-81.0458939549
 20
14.3762420171
 10
-81.0653826484
 20
14.3848078375
 10
-81.0855549754
 20
14.3931491234
 10
-81.1064506168
 20
14.401288399
 10
-81.1284048738
 20
14.4093465296
 10
-81.1514491076
 20
14.4173142488
 10
-81.1756022732
 20
14.4251736585
 10
-81.2011725842
 20
14.4329876027
 10
-81.2282349897
 20
14.4407282939
 10
-81.2567853372
 20
14.4483447529
 10
-81.2870339698
 20
14.4558357798
 10
-81.3190196273
 20
14.4631417612
 10
-81.3527498792
 20
14.4701911919
 10
-81.3883752403
 20
14.4769423191
 10
-81.4259241418
 20
14.4833163564
  0
LWPOLYLINE
  5
2EA
100
AcDbEntity
  8
0
100
AcDbPolyline
 62
7
  6
CONTINUOUS
 90
13
 70
0
 43
0.3500000087
 10
-75.691624054
 20
47.1907501495
 10
-75.691624054
 20
48.4764650818
 10
-75.4773332581
 20
48.905038147
 10
-75.0487601929
 20
49.3336069489
 10
-74.8344779236
 20
49.3336069489
 10
-74.4059048584
 20
48.905038147
 10
-74.1916225891
 20
48.4764650818
 10
-74.1916225891
 20
47.1907501495
 10
-74.4059048584
 20
46.7621813477
 10
-74.8344779236
 20
46.3336082825
 10
-75.0487601929
 20
46.3336082825
 10
-75.4773332581
 20
46.7621813477
 10
-75.691624054
 20
47.1907501495
  0
LINE
  5
2EB
100
AcDbEntity
  8
ASSI
100
AcDbLine
 62
7
  6
CONTINUOUS
 10
-62.4559067447
 20
-1.95
 11
-58.3559067447
 21
-1.95
  0
LINE
  5
2EC
100
AcDbEntity
  8
ASSI
100
AcDbLine
 62
7
  6
CONTINUOUS
 10
-51.7559067447
 20
-1.95
 11
-44.8114970239
 21
-1.95
  0
LINE
  5
2ED
100
AcDbEntity
  8
ASSI
100
AcDbLine
 62
7
  6
CONTINUOUS
 10
-58.3559067447
 20
-1.7
 11
-51.7559067447
 21
-1.7
  0
LINE
  5
2EE
100
AcDbEntity
  8
RACCORDO
100
AcDbLine
 62
250
  6
CONTINUOUS
 10
-80.7559067447
 20
-1.2727922061
 11
-63.4559067447
 21
-1.2727922061
  0
LINE
  5
2EF
100
AcDbEntity
  8
RACCORDO
100
AcDbLine
 62
250
  6
CONTINUOUS
 10
-80.7559067447
 20
0.0
 11
-100.7857811808
 21
-0.0
  0
LWPOLYLINE
  5
2F0
100
AcDbEntity
  8
RACCORDO
100
AcDbPolyline
 62
250
  6
CONTINUOUS
 90
17
 70
0
 10
-80.7641827464
 20
14.0150843278
 10
-80.7742877709
 20
14.0360970162
 10
-80.7880821733
 20
14.0571551734
 10
-80.8054102404
 20
14.0782183922
 10
-80.8263333955
 20
14.0993750615
 10
-80.8507991137
 20
14.1205048591
 10
-80.8786859021
 20
14.1414775077
 10
-80.9101320821
 20
14.1623191182
 10
-80.9451786697
 20
14.182930371
 10
-80.9836806261
 20
14.2031108194
 10
-81.0255469272
 20
14.2227080432
 10
-81.0707023239
 20
14.241600181
 10
-81.1189930003
 20
14.2596171775
 10
-81.1701639765
 20
14.2765497291
 10
-81.223998011
 20
14.2922525622
 10
-81.2803351703
 20
14.3066314087
 10
-81.3389649215
 20
14.3195741723
  0
LWPOLYLINE
  5
2F1
100
AcDbEntity
  8
0
100
AcDbPolyline
 62
7
  6
CONTINUOUS
 90
4
 70
0
 43
0.3500000087
 10
-71.6201927246
 20
46.7621813477
 10
-71.6201927246
 20
47.6193232147
 10
-71.1916196594
 20
48.0478962799
 10
-70.548764325
 20
48.0478962799
  0
LWPOLYLINE
  5
2F2
100
AcDbEntity
  8
0
100
AcDbPolyline
 62
7
  6
CONTINUOUS
 90
3
 70
0
 43
0.3500000087
 10
-60.9701908508
 20
36.5331382751
 10
-61.0416225372
 20
36.3188517426
 10
-61.1844773834
 20
36.0331377869
  0
LINE
  5
2F3
100
AcDbEntity
  8
RACCORDO
100
AcDbLine
 62
250
  6
CONTINUOUS
 10
-80.7559067447
 20
1.2727922061
 11
-63.4559067447
 21
1.2727922061
  0
LINE
  5
2F4
100
AcDbEntity
  8
ASSI
100
AcDbLine
 62
7
  6
CONTINUOUS
 10
-58.3559067447
 20
1.7
 11
-51.7559067447
 21
1.7
  0
LINE
  5
2F5
100
AcDbEntity
  8
ASSI
100
AcDbLine
 62
7
  6
CONTINUOUS
 10
-62.4559067447
 20
1.95
 11
-58.3559067447
 21
1.95
  0
LINE
  5
2F6
100
AcDbEntity
  8
ASSI
100
AcDbLine
 62
7
  6
CONTINUOUS
 10
-51.7559067447
 20
1.95
 11
-44.8114970239
 21
1.95
  0
LINE
  5
2F7
100
AcDbEntity
  8
RACCORDO
100
AcDbLine
 62
250
  6
CONTINUOUS
 10
-80.7559067447
 20
5.5355339059
 11
-63.4559067447
 21
5.5355339059
  0
LWPOLYLINE
  5
2F8
100
AcDbEntity
  8
0
100
AcDbPolyline
 62
7
  6
CONTINUOUS
 90
10
 70
0
 10
-103.3994375956
 20
-19.4822474954
 10
-103.4211008574
 20
-19.4916476559
 10
-103.4627711101
 20
-19.5166223991
 10
-103.4997339799
 20
-19.5499937225
 10
-103.5322951579
 20
-19.5909520031
 10
-103.5601489529
 20
-19.6397602935
 10
-103.5822553012
 20
-19.6991216501
 10
-103.5982675149
 20
-19.769641757
 10
-103.6085322818
 20
-19.8499048084
 10
-103.6130496019
 20
-19.9394682986
  0
LINE
  5
2F9
100
AcDbEntity
  8
0
100
AcDbLine
 62
7
  6
CONTINUOUS
 10
-103.3086658401
 20
-19.4463385282
 11
-103.3994321453
 21
-19.4822612729
  0
LINE
  5
2FA
100
AcDbEntity
  8
RACCORDO
100
AcDbLine
 62
7
  6
CONTINUOUS
 10
-80.7559067447
 20
7.0
 11
-63.4559067447
 21
7.0
  0
LWPOLYLINE
  5
2FB
100
AcDbEntity
  8
RACCORDO
100
AcDbPolyline
 62
250
  6
CONTINUOUS
 90
22
 70
0
 10
-62.4559067447
 20
0.5656854249
 10
-62.4587029476
 20
0.6185275809
 10
-62.4670759185
 20
0.671074222
 10
-62.4809788326
 20
0.7230314863
 10
-62.500333939
 20
0.7741088076
 10
-62.5250329961
 20
0.8240205407
 10
-62.5549378768
 20
0.8724875591
 10
-62.589881341
 20
0.9192388155
 10
-62.6296679704
 20
0.964012858
 10
-62.6740752623
 20
1.0065592918
 10
-62.7228548729
 20
1.0466401802
 10
-62.775734007
 20
1.0840313745
 10
-62.8324169429
 20
1.1185237679
 10
-62.8925866867
 20
1.1499244651
 10
-62.9559067447
 20
1.1780578606
 10
-63.0220230056
 20
1.2027666211
 10
-63.0905657204
 20
1.223912565
 10
-63.1611515703
 20
1.2413774358
 10
-63.2333858108
 20
1.2550635628
 10
-63.3068644786
 20
1.2648944076
 10
-63.3811766512
 20
1.2708149922
 10
-63.4559067447
 20
1.2727922061
  0
LWPOLYLINE
  5
2FC
100
AcDbEntity
  8
0
100
AcDbPolyline
 62
7
  6
CONTINUOUS
 90
4
 70
0
 43
0.3500000087
 10
-64.0416212036
 20
38.6045633881
 10
-64.0416212036
 20
39.2474229858
 10
-62.5416197388
 20
39.2474229858
 10
-63.3987658691
 20
36.2474243195
  0
LINE
  5
2FD
100
AcDbEntity
  8
RACCORDO
100
AcDbLine
 62
250
  6
CONTINUOUS
 10
-63.4559067447
 20
7.0
 11
-63.4559067447
 21
-7.0
  0
LINE
  5
2FE
100
AcDbEntity
  8
RACCORDO
100
AcDbLine
 62
7
  6
CONTINUOUS
 10
-62.4559067447
 20
6.0
 11
-62.4559067447
 21
-6.0
  0
LWPOLYLINE
  5
2FF
100
AcDbEntity
  8
RACCORDO
100
AcDbPolyline
 62
250
  6
CONTINUOUS
 90
22
 70
0
 10
-62.4559067447
 20
-0.5656854249
 10
-62.4587029476
 20
-0.6185275809
 10
-62.4670759185
 20
-0.671074222
 10
-62.4809788326
 20
-0.7230314863
 10
-62.500333939
 20
-0.7741088076
 10
-62.5250329961
 20
-0.8240205407
 10
-62.5549378768
 20
-0.8724875591
 10
-62.589881341
 20
-0.9192388155
 10
-62.6296679704
 20
-0.964012858
 10
-62.6740752623
 20
-1.0065592918
 10
-62.7228548729
 20
-1.0466401802
 10
-62.775734007
 20
-1.0840313745
 10
-62.8324169429
 20
-1.1185237679
 10
-62.8925866867
 20
-1.1499244651
 10
-62.9559067448
 20
-1.1780578606
 10
-63.0220230056
 20
-1.2027666211
 10
-63.0905657204
 20
-1.223912565
 10
-63.1611515703
 20
-1.2413774358
 10
-63.2333858108
 20
-1.2550635628
 10
-63.3068644786
 20
-1.2648944076
 10
-63.3811766512
 20
-1.2708149922
 10
-63.4559067447
 20
-1.2727922061
  0
LWPOLYLINE
  5
300
100
AcDbEntity
  8
0
100
AcDbPolyline
 62
7
  6
CONTINUOUS
 90
32
 70
0
 10
-103.3086676859
 20
-19.4463338639
 10
-103.2494358111
 20
-19.4294301378
 10
-103.1888582904
 20
-19.422934434
 10
-103.1225683834
 20
-19.4253263563
 10
-103.0509864585
 20
-19.43630919
 10
-102.9736084169
 20
-19.4565713336
 10
-102.8909383575
 20
-19.48568019
 10
-102.8049089449
 20
-19.5220424096
 10
-102.7151408244
 20
-19.5670784012
 10
-102.6220133508
 20
-19.6202871214
 10
-102.5285972524
 20
-19.6777912525
 10
-102.4355710007
 20
-19.7401642424
 10
-102.3422561242
 20
-19.8083378835
 10
-102.2496879374
 20
-19.879135007
 10
-102.1584372798
 20
-19.9522949254
 10
-102.0679333119
 20
-20.0292052842
 10
-101.9774988289
 20
-20.1088451311
 10
-101.8872519604
 20
-20.1910006033
 10
-101.7970745767
 20
-20.2765131153
 10
-101.705935085
 20
-20.3656069308
 10
-101.6135890784
 20
-20.4584460403
 10
-101.5202809636
 20
-20.5551932385
 10
-101.425712368
 20
-20.6558950943
 10
-101.3296937025
 20
-20.7608112287
 10
-101.2324145561
 20
-20.8699400031
 10
-101.1341453226
 20
-20.9829019205
 10
-101.0348647983
 20
-21.1000064587
 10
-100.9345941869
 20
-21.2212284463
 10
-100.8336674935
 20
-21.3456802618
 10
-100.7321960532
 20
-21.4731467516
 10
-100.6300685309
 20
-21.6040977808
 10
-100.5272849265
 20
-21.7386613933
  0
LINE
  5
301
100
AcDbEntity
  8
RACCORDO
100
AcDbLine
 62
7
  6
CONTINUOUS
 10
-84.0958471394
 20
15.1234313488
 11
-88.4318913974
 21
16.5380911873
  0
LINE
  5
302
100
AcDbEntity
  8
RACCORDO
100
AcDbLine
 62
250
  6
CONTINUOUS
 10
-84.0531919818
 20
14.969834504
 11
-88.3891298352
 21
16.3869437446
  0
LWPOLYLINE
  5
303
100
AcDbEntity
  8
RACCORDO
100
AcDbPolyline
 62
7
  6
CONTINUOUS
 90
24
 70
0
 10
-88.4319234274
 20
16.5381016097
 10
-88.4427217185
 20
16.5417609033
 10
-88.4642740234
 20
16.5498696087
 10
-88.4860081782
 20
16.5591183548
 10
-88.5076665459
 20
16.5694083729
 10
-88.5290782382
 20
16.5806578732
 10
-88.5500927135
 20
16.5927734443
 10
-88.570543202
 20
16.6056358857
 10
-88.5902942167
 20
16.6191321792
 10
-88.6092443855
 20
16.6331612878
 10
-88.6273086874
 20
16.647618174
 10
-88.6443920888
 20
16.6623788525
 10
-88.6604068096
 20
16.6773144879
 10
-88.6752943526
 20
16.6923115348
 10
-88.6889964374
 20
16.7072397895
 10
-88.7014418602
 20
16.7219356665
 10
-88.7125686631
 20
16.7362210585
 10
-88.7223557891
 20
16.7499426983
 10
-88.7307933585
 20
16.7629328755
 10
-88.7378702091
 20
16.7749815431
 10
-88.7436239172
 20
16.7859135573
 10
-88.7481308403
 20
16.7955879039
 10
-88.7514719816
 20
16.8038239162
 10
-88.7532825958
 20
16.808959555
  0
LWPOLYLINE
  5
304
100
AcDbEntity
  8
RACCORDO
100
AcDbPolyline
 62
250
  6
CONTINUOUS
 90
22
 70
0
 10
-88.3891298352
 20
16.3869437446
 10
-88.4364715682
 20
16.4039369421
 10
-88.4829724203
 20
16.4234580154
 10
-88.5286323913
 20
16.4455114616
 10
-88.5737665541
 20
16.4703162972
 10
-88.6180598359
 20
16.4976591672
 10
-88.6605670187
 20
16.5268932972
 10
-88.7012104652
 20
16.5580578837
 10
-88.7400678127
 20
16.5911101485
 10
-88.7764267557
 20
16.6252771843
 10
-88.8101895033
 20
16.6605511811
 10
-88.8414538465
 20
16.6969290462
 10
-88.8698008527
 20
16.7336435799
 10
-88.8951328031
 20
16.7706302602
 10
-88.9175474165
 20
16.8079393043
 10
-88.9369189172
 20
16.8449765141
 10
-88.9532002311
 20
16.881823745
 10
-88.9664384322
 20
16.9183846824
 10
-88.9766489666
 20
16.9538016561
 10
-88.9838369829
 20
16.9877871482
 10
-88.9879973325
 20
17.0206205428
 10
-88.9891300154
 20
17.0522975684
  0
LWPOLYLINE
  5
305
100
AcDbEntity
  8
RACCORDO
100
AcDbPolyline
 62
250
  6
CONTINUOUS
 90
22
 70
0
 10
-62.4559067447
 20
4.8284271247
 10
-62.4587029476
 20
4.8812692807
 10
-62.4670759185
 20
4.9338159218
 10
-62.4809788326
 20
4.9857731861
 10
-62.500333939
 20
5.0368505074
 10
-62.5250329961
 20
5.0867622405
 10
-62.5549378768
 20
5.1352292589
 10
-62.589881341
 20
5.1819805153
 10
-62.6296679704
 20
5.2267545578
 10
-62.6740752623
 20
5.2693009916
 10
-62.7228548729
 20
5.30938188
 10
-62.775734007
 20
5.3467730743
 10
-62.8324169429
 20
5.3812654677
 10
-62.8925866867
 20
5.4126661649
 10
-62.9559067447
 20
5.4407995604
 10
-63.0220230056
 20
5.4655083209
 10
-63.0905657204
 20
5.4866542648
 10
-63.1611515703
 20
5.5041191356
 10
-63.2333858108
 20
5.5178052626
 10
-63.3068644786
 20
5.5276361074
 10
-63.3811766512
 20
5.533556692
 10
-63.4559067447
 20
5.5355339059
  0
LWPOLYLINE
  5
306
100
AcDbEntity
  8
RACCORDO
100
AcDbPolyline
 62
250
  6
CONTINUOUS
 90
22
 70
0
 10
-62.4559067447
 20
-4.8284271247
 10
-62.4587029476
 20
-4.8812692807
 10
-62.4670759185
 20
-4.9338159218
 10
-62.4809788326
 20
-4.9857731861
 10
-62.500333939
 20
-5.0368505074
 10
-62.5250329961
 20
-5.0867622405
 10
-62.5549378768
 20
-5.1352292589
 10
-62.589881341
 20
-5.1819805153
 10
-62.6296679704
 20
-5.2267545578
 10
-62.6740752623
 20
-5.2693009916
 10
-62.7228548729
 20
-5.30938188
 10
-62.775734007
 20
-5.3467730743
 10
-62.8324169429
 20
-5.3812654677
 10
-62.8925866867
 20
-5.4126661649
 10
-62.9559067447
 20
-5.4407995604
 10
-63.0220230056
 20
-5.4655083209
 10
-63.0905657204
 20
-5.4866542648
 10
-63.1611515703
 20
-5.5041191356
 10
-63.2333858108
 20
-5.5178052626
 10
-63.3068644786
 20
-5.5276361074
 10
-63.3811766512
 20
-5.533556692
 10
-63.4559067447
 20
-5.5355339059
  0
LINE
  5
307
100
AcDbEntity
  8
RACCORDO
100
AcDbLine
 62
250
  6
CONTINUOUS
 10
-81.3389649215
 20
-17.7674578792
 11
-91.2588553863
 21
-22.3178663494
  0
LWPOLYLINE
  5
308
100
AcDbEntity
  8
RACCORDO
100
AcDbPolyline
 62
250
  6
CONTINUOUS
 90
16
 70
0
 10
-81.3389649215
 20
14.3195741723
 10
-81.5281139534
 20
14.3491342946
 10
-81.7128495288
 20
14.3800178284
 10
-81.8931716476
 20
14.4122700682
 10
-82.0677080902
 20
14.4458131785
 10
-82.2378310762
 20
14.4808111572
 10
-82.4076572647
 20
14.5176550875
 10
-82.577361337
 20
14.5561923479
 10
-82.7467686118
 20
14.5966207237
 10
-82.9194717052
 20
14.6398394206
 10
-83.0958865156
 20
14.6858205413
 10
-83.2755971446
 20
14.7346301918
 10
-83.4609485136
 20
14.7873090744
 10
-83.6527222631
 20
14.8442222559
 10
-83.8501367524
 20
14.9050553429
 10
-84.0531919818
 20
14.969834504
  0
LWPOLYLINE
  5
309
100
AcDbEntity
  8
RACCORDO
100
AcDbPolyline
 62
7
  6
CONTINUOUS
 90
10
 70
0
 10
-81.4259241418
 20
14.4833163564
 10
-81.6501643204
 20
14.5184056016
 10
-81.9337502144
 20
14.5679972228
 10
-82.2262485541
 20
14.6251485202
 10
-82.5296486319
 20
14.6906105613
 10
-82.8416276411
 20
14.7642775483
 10
-83.1555023418
 20
14.8447487466
 10
-83.4689068653
 20
14.9313764259
 10
-83.783814301
 20
15.0247072207
 10
-84.0958465007
 20
15.1234311403
  0
LWPOLYLINE
  5
30A
100
AcDbEntity
  8
RACCORDO
100
AcDbPolyline
 62
250
  6
CONTINUOUS
 90
13
 70
0
 10
-88.9891300154
 20
19.9921116162
 10
-88.9553737843
 20
19.9788188785
 10
-88.9234282801
 20
19.9631484307
 10
-88.8935819569
 20
19.9452417704
 10
-88.8661043144
 20
19.925260587
 10
-88.8412434639
 20
19.903385302
 10
-88.8192238882
 20
19.8798134399
 10
-88.8002444148
 20
19.8547578445
 10
-88.7844764201
 20
19.8284447572
 10
-88.7720622824
 20
19.8011117738
 10
-88.763114096
 20
19.7730056996
 10
-88.7577126592
 20
19.7443803203
 10
-88.7559067447
 20
19.7154941109
  0
LWPOLYLINE
  5
30B
100
AcDbEntity
  8
RACCORDO
100
AcDbPolyline
 62
250
  6
CONTINUOUS
 90
19
 70
0
 10
-81.5057416508
 20
17.2969425967
 10
-81.4719865879
 20
17.2822736061
 10
-81.4396899604
 20
17.2659409668
 10
-81.4088517684
 20
17.2479342947
 10
-81.3794448019
 20
17.2282439287
 10
-81.3514962708
 20
17.2068574527
 10
-81.3250878053
 20
17.183759836
 10
-81.3001529578
 20
17.158922554
 10
-81.276758176
 20
17.1323515188
 10
-81.2551844322
 20
17.1040841076
 10
-81.2354091005
 20
17.0740699696
 10
-81.2174548069
 20
17.0423409991
 10
-81.2016704017
 20
17.0090612437
 10
-81.1880730047
 20
16.9741905945
 10
-81.1766454961
 20
16.9377613174
 10
-81.1676853668
 20
16.9000519554
 10
-81.1612917802
 20
16.8611585564
 10
-81.1573655729
 20
16.8209925232
 10
-81.1559067447
 20
16.7795603504
  0
LWPOLYLINE
  5
30C
100
AcDbEntity
  8
RACCORDO
100
AcDbPolyline
 62
250
  6
CONTINUOUS
 90
19
 70
0
 10
-81.5904895574
 20
17.8162440691
 10
-81.2829881216
 20
17.6746427909
 10
-81.2290996135
 20
17.6456277584
 10
-81.1774817301
 20
17.6135662326
 10
-81.128438842
 20
17.5787216899
 10
-81.0819772855
 20
17.5411299213
 10
-81.0378744577
 20
17.5005362081
 10
-80.9962610806
 20
17.4569883125
 10
-80.9574040988
 20
17.410656403
 10
-80.9213690686
 20
17.3614113161
 10
-80.8883329522
 20
17.3093201736
 10
-80.8585398492
 20
17.2545734747
 10
-80.8321799617
 20
17.1972277565
 10
-80.8094366644
 20
17.1374137781
 10
-80.7904974527
 20
17.0753399544
 10
-80.7755375377
 20
17.011199832
 10
-80.764703911
 20
16.9451970578
 10
-80.7581226457
 20
16.8775425703
 10
-80.7559067447
 20
16.8084583046
  0
LINE
  5
30D
100
AcDbEntity
  8
ASSI
100
AcDbLine
 62
7
  6
CONTINUOUS
 10
-58.3559067447
 20
-1.95
 11
-58.3559067447
 21
1.95
  0
LWPOLYLINE
  5
30E
100
AcDbEntity
  8
RACCORDO
100
AcDbPolyline
 62
250
  6
CONTINUOUS
 90
13
 70
0
 10
-84.2199687111
 20
18.2079996156
 10
-83.9873005844
 20
18.1425233807
 10
-83.7595775559
 20
18.0760252585
 10
-83.5367996256
 20
18.0087598358
 10
-83.3214488019
 20
17.9418563807
 10
-83.1110430764
 20
17.8747014631
 10
-82.8981364238
 20
17.8047077419
 10
-82.6820077
 20
17.7317273186
 10
-82.4633780492
 20
17.65593826
 10
-82.2369648782
 20
17.5748990125
 10
-82.0010073226
 20
17.4876791376
 10
-81.7572662468
 20
17.3950330403
 10
-81.5057416508
 20
17.2969425967
  0
LINE
  5
30F
100
AcDbEntity
  8
RACCORDO
100
AcDbLine
 62
250
  6
CONTINUOUS
 10
-88.3891296694
 20
20.187737473
 11
-84.0531919818
 21
18.7751161765
  0
LINE
  5
310
100
AcDbEntity
  8
RACCORDO
100
AcDbLine
 62
250
  6
CONTINUOUS
 10
-88.5559067447
 20
19.6226260577
 11
-84.2199687111
 21
18.2079996156
  0
LWPOLYLINE
  5
311
100
AcDbEntity
  8
RACCORDO
100
AcDbPolyline
 62
250
  6
CONTINUOUS
 90
12
 70
0
 10
-84.0531919818
 20
18.7751161765
 10
-83.8205238522
 20
18.6976714755
 10
-83.5928008227
 20
18.6194934266
 10
-83.3700228933
 20
18.54061754
 10
-83.1546720713
 20
18.4620206633
 10
-82.9442663494
 20
18.3827873682
 10
-82.7313597057
 20
18.3001138378
 10
-82.5152310044
 20
18.214105907
 10
-82.2966013814
 20
18.1247129414
 10
-82.0701882229
 20
18.0289138472
 10
-81.8342306578
 20
17.925737128
 10
-81.5904895574
 20
17.8162440691
  0
LWPOLYLINE
  5
312
100
AcDbEntity
  8
RACCORDO
100
AcDbPolyline
 62
250
  6
CONTINUOUS
 90
10
 70
0
 10
-91.2588553863
 20
-27.3178663494
 10
-91.2541620732
 20
-27.3155871292
 10
-91.2498651749
 20
-27.3132430596
 10
-91.2459646916
 20
-27.3108430055
 10
-91.2424723177
 20
-27.3084012854
 10
-91.2393763587
 20
-27.3059211121
 10
-91.2366417313
 20
-27.303394143
 10
-91.2342567412
 20
-27.3008227759
 10
-91.2322330827
 20
-27.2982205957
 10
-91.230570756
 20
-27.295595502
  0
LINE
  5
313
100
AcDbEntity
  8
RACCORDO
100
AcDbLine
 62
7
  6
CONTINUOUS
 10
-81.3389649215
 20
-22.7674578792
 11
-91.2588553863
 21
-27.3178663494
  0
LINE
  5
314
100
AcDbEntity
  8
RACCORDO
100
AcDbLine
 62
250
  6
CONTINUOUS
 10
-84.2199687111
 20
18.2079996156
 11
-87.1644264856
 21
18.2079996156
  0
LINE
  5
315
100
AcDbEntity
  8
0
100
AcDbLine
 62
7
  6
CONTINUOUS
 10
-88.7559067447
 20
18.6170093579
 11
-87.6559067447
 21
18.6170093579
  0
LINE
  5
316
100
AcDbEntity
  8
RACCORDO
100
AcDbLine
 62
7
  6
CONTINUOUS
 10
-81.3389649215
 20
22.7674578792
 11
-91.2588553863
 21
27.3178663494
  0
LINE
  5
317
100
AcDbEntity
  8
ASSI
100
AcDbLine
 62
7
  6
CONTINUOUS
 10
-51.7559067447
 20
-1.95
 11
-51.7559067447
 21
1.95
  0
LINE
  5
318
100
AcDbEntity
  8
0
100
AcDbLine
 62
7
  6
CONTINUOUS
 10
-103.6130727676
 20
20.5
 11
-103.7559067447
 21
20.5
  0
LWPOLYLINE
  5
319
100
AcDbEntity
  8
0
100
AcDbPolyline
 62
7
  6
CONTINUOUS
 90
10
 70
0
 43
0.3500000087
 10
-72.6916211243
 20
46.8336087708
 10
-72.6201937012
 20
46.6907539246
 10
-72.6201937012
 20
46.6193222382
 10
-72.7630485474
 20
46.476467392
 10
-72.8344759705
 20
46.476467392
 10
-72.9059033936
 20
46.5478948151
 10
-72.9059033936
 20
46.6193222382
 10
-72.8344759705
 20
46.7621813477
 10
-72.7630485474
 20
46.8336087708
 10
-72.6916211243
 20
46.8336087708
  0
LINE
  5
31A
100
AcDbEntity
  8
RACCORDO
100
AcDbLine
 62
7
  6
CONTINUOUS
 10
-92.0927390328
 20
27.5
 11
-100.3262086658
 21
27.5
  0
LINE
  5
31B
100
AcDbEntity
  8
ASSI
100
AcDbLine
 62
7
  6
CONTINUOUS
 10
-44.8114970239
 20
-1.95
 11
-44.8114970239
 21
1.95
  0
LWPOLYLINE
  5
31C
100
AcDbEntity
  8
0
100
AcDbPolyline
 62
7
  6
CONTINUOUS
 90
10
 70
0
 43
0.3500000087
 10
-61.0416225372
 20
36.7474205444
 10
-60.9701908508
 20
36.6045656982
 10
-60.9701908508
 20
36.5331382751
 10
-61.1130499603
 20
36.3902791656
 10
-61.1844773834
 20
36.3902791656
 10
-61.2559048065
 20
36.4617065887
 10
-61.2559048065
 20
36.5331382751
 10
-61.1844773834
 20
36.6759931213
 10
-61.1130499603
 20
36.7474205444
 10
-61.0416225372
 20
36.7474205444
  0
LWPOLYLINE
  5
31D
100
AcDbEntity
  8
0
100
AcDbPolyline
 62
7
  6
CONTINUOUS
 90
6
 70
0
 43
0.3500000087
 10
-66.1844780029
 20
36.2474243195
 10
-65.1130496033
 20
36.2474243195
 10
-64.8987630707
 20
36.4617065887
 10
-64.8987630707
 20
37.5331349884
 10
-65.3273361359
 20
37.9617080536
 10
-65.7559049377
 20
37.9617080536
  0
LWPOLYLINE
  5
31E
100
AcDbEntity
  8
0
100
AcDbPolyline
 62
7
  6
CONTINUOUS
 90
8
 70
0
 43
0.3500000087
 10
-59.9701941376
 20
36.2474243195
 10
-59.1130480072
 20
36.2474243195
 10
-58.6844792053
 20
36.6759931213
 10
-58.6844792053
 20
37.5331349884
 10
-59.1130480072
 20
37.9617080536
 10
-59.9701941376
 20
37.9617080536
 10
-59.9701941376
 20
39.2474229858
 10
-58.6844792053
 20
39.2474229858
  0
LWPOLYLINE
  5
31F
100
AcDbEntity
  8
0
100
AcDbPolyline
 62
7
  6
CONTINUOUS
 90
13
 70
0
 43
0.3500000087
 10
-71.1916196594
 20
48.0478962799
 10
-71.4773336151
 20
48.2621785492
 10
-71.4773336151
 20
48.905038147
 10
-71.1916196594
 20
49.3336069489
 10
-70.548764325
 20
49.3336069489
 10
-70.2630503693
 20
48.905038147
 10
-70.2630503693
 20
48.2621785492
 10
-70.548764325
 20
48.0478962799
 10
-70.1201912598
 20
47.6193232147
 10
-70.1201912598
 20
46.7621813477
 10
-70.548764325
 20
46.3336082825
 10
-71.1916196594
 20
46.3336082825
 10
-71.6201927246
 20
46.7621813477
  0
ARC
  5
320
100
AcDbEntity
  8
RACCORDO
100
AcDbCircle
 62
7
  6
CONTINUOUS
 10
-0.0
 20
-0.0
 40
27.5
100
AcDbArc
 50
180.0
 51
270.0
  0
ARC
  5
321
100
AcDbEntity
  8
RACCORDO
100
AcDbCircle
 62
7
  6
CONTINUOUS
 10
0.0
 20
0.0
 40
27.5
100
AcDbArc
 50
0.0
 51
90.0
  0
ARC
  5
322
100
AcDbEntity
  8
RACCORDO
100
AcDbCircle
 62
250
  6
CONTINUOUS
 10
-0.0
 20
0.0
 40
27.1969596493
100
AcDbArc
 50
0.0
 51
90.0
  0
ARC
  5
323
100
AcDbEntity
  8
RACCORDO
100
AcDbCircle
 62
250
  6
CONTINUOUS
 10
-0.0
 20
0.0
 40
27.1969596493
100
AcDbArc
 50
180.0
 51
270.0
  0
ARC
  5
324
100
AcDbEntity
  8
0
100
AcDbCircle
 62
7
  6
CONTINUOUS
 10
-0.0
 20
0.0
 40
20.5593847142
100
AcDbArc
 50
345.4514873007
 51
78.5859063655
  0
ARC
  5
325
100
AcDbEntity
  8
0
100
AcDbCircle
 62
250
  6
CONTINUOUS
 10
-0.0
 20
0.0
 40
20.5549388685
100
AcDbArc
 50
90.0
 51
270.0
  0
CIRCLE
  5
326
100
AcDbEntity
  8
RACCORDO
100
AcDbCircle
 62
7
  6
CONTINUOUS
 10
-0.0
 20
0.0
 40
20.5
  0
CIRCLE
  5
327
100
AcDbEntity
  8
RACCORDO
100
AcDbCircle
 62
250
  6
CONTINUOUS
 10
-0.0
 20
0.0
 40
20.2
  0
ARC
  5
328
100
AcDbEntity
  8
RACCORDO
100
AcDbCircle
 62
7
  6
CONTINUOUS
 10
-22.5
 20
22.5
 40
5.0
100
AcDbArc
 50
90.0
 51
180.0
  0
ARC
  5
329
100
AcDbEntity
  8
RACCORDO
100
AcDbCircle
 62
7
  6
CONTINUOUS
 10
22.5
 20
-22.5
 40
5.0
100
AcDbArc
 50
270.0
 51
360.0
  0
ARC
  5
32A
100
AcDbEntity
  8
RACCORDO
100
AcDbCircle
 62
7
  6
CONTINUOUS
 10
-92.0927390328
 20
25.5
 40
2.0
100
AcDbArc
 50
65.3583380004
 51
90.0
  0
ARC
  5
32B
100
AcDbEntity
  8
RACCORDO
100
AcDbCircle
 62
7
  6
CONTINUOUS
 10
-92.0927390328
 20
-25.5
 40
2.0
100
AcDbArc
 50
270.0
 51
294.6416619996
  0
ARC
  5
32C
100
AcDbEntity
  8
ASSI
100
AcDbCircle
 62
7
  6
CONTINUOUS
 10
-45.2559067447
 20
0.0
 40
2.0
100
AcDbArc
 50
282.838568141
 51
77.161431859
  0
ARC
  5
32D
100
AcDbEntity
  8
RACCORDO
100
AcDbCircle
 62
7
  6
CONTINUOUS
 10
-81.7559067447
 20
-21.8585247046
 40
1.0
100
AcDbArc
 50
294.6416619996
 51
360.0
  0
ARC
  5
32E
100
AcDbEntity
  8
RACCORDO
100
AcDbCircle
 62
7
  6
CONTINUOUS
 10
-81.7559067447
 20
21.8585247046
 40
1.0
100
AcDbArc
 50
0.0
 51
65.3583380004
  0
ARC
  5
32F
100
AcDbEntity
  8
RACCORDO
100
AcDbCircle
 62
7
  6
CONTINUOUS
 10
-63.4559067447
 20
-6.0
 40
1.0
100
AcDbArc
 50
270.0
 51
360.0
  0
ARC
  5
330
100
AcDbEntity
  8
RACCORDO
100
AcDbCircle
 62
7
  6
CONTINUOUS
 10
-63.4559067447
 20
6.0
 40
1.0
100
AcDbArc
 50
0.0
 51
90.0
  0
ARC
  5
331
100
AcDbEntity
  8
RACCORDO
100
AcDbCircle
 62
7
  6
CONTINUOUS
 10
-100.3262086658
 20
27.0
 40
0.5
100
AcDbArc
 50
90.0
 51
156.8014094864
  0
ARC
  5
332
100
AcDbEntity
  8
RACCORDO
100
AcDbCircle
 62
7
  6
CONTINUOUS
 10
-100.3262086658
 20
-27.0
 40
0.5
100
AcDbArc
 50
203.1985905136
 51
270.0
  0
ARC
  5
333
100
AcDbEntity
  8
RACCORDO
100
AcDbCircle
 62
7
  6
CONTINUOUS
 10
-87.6559067447
 20
18.1170093579
 40
0.5
100
AcDbArc
 50
0.0
 51
90.0
  0
ARC
  5
334
100
AcDbEntity
  8
RACCORDO
100
AcDbCircle
 62
7
  6
CONTINUOUS
 10
-103.7559067447
 20
20.2
 40
0.3
100
AcDbArc
 50
90.0
 51
180.0
  0
ARC
  5
335
100
AcDbEntity
  8
RACCORDO
100
AcDbCircle
 62
7
  6
CONTINUOUS
 10
-103.7559067447
 20
-20.2
 40
0.3
100
AcDbArc
 50
180.0
 51
270.0
  0
ENDSEC
  0
SECTION
  2
OBJECTS
  0
DICTIONARY
  5
C
100
AcDbDictionary
280
0
281
1
  3
ACAD_GROUP
350
D
  3
ACAD_MLINESTYLE
350
17
  3
ACAD_LAYOUT
350
1A
  3
ACAD_PLOTSETTINGS
350
19
  3
ACAD_PLOTSTYLENAME
350
E
  0
DICTIONARY
  5
D
102
{ACAD_REACTORS
330
C
102
}
100
AcDbDictionary
280
0
281
1
  0
ACDBDICTIONARYWDFLT
  5
E
102
{ACAD_REACTORS
330
C
102
}
100
AcDbDictionary
281
1
  3
Normal
350
F
100
AcDbDictionaryWithDefault
340
F
  0
DICTIONARY
  5
17
102
{ACAD_REACTORS
330
C
102
}
100
AcDbDictionary
280
0
281
1
  3
Standard
350
18
  0
DICTIONARY
  5
19
102
{ACAD_REACTORS
330
C
102
}
100
AcDbDictionary
281
1
  0
DICTIONARY
  5
1A
102
{ACAD_REACTORS
330
C
102
}
100
AcDbDictionary
281
1
  3
Model
350
336
  3
Layout1
350
337
  0
ACDBPLACEHOLDER
  5
F
102
{ACAD_REACTORS
330
E
102
}
  0
MLINESTYLE
  5
18
102
{ACAD_REACTORS
330
17
102
}
100
AcDbMlineStyle
  2
STANDARD
 70
0
  3

 62
256
 51
90.0
 52
90.0
 71
2
 49
0.5
 62
256
  6
BYLAYER
 49
-0.5
 62
256
  6
BYLAYER
  0
LAYOUT
  5
336
102
{ACAD_REACTORS
330
1A
102
}
100
AcDbPlotSettings
  1

  2
none_device
  4
ANSI_C_(22.00_x_17.00_Inches)
  6

 40
0.0
 41
0.0
 42
0.0
 43
0.0
 44
558.8
 45
431.8
 46
0.0
 47
0.0
 48
0.0
 49
0.0
140
0.0
141
0.0
142
1.0
143
1.0
 70
1024
 72
1
 73
0
 74
0
  7

 75
0
147
1.0
148
0.0
149
0.0
100
AcDbLayout
  1
Model
 70
0
 71
0
 10
0.0
 20
0.0
 11
558.8
 21
431.8
 12
0.0
 22
0.0
 32
0.0
 14
0.0
 24
0.0
 34
0.0
 15
0.0
 25
0.0
 35
0.0
146
0.0
 13
0.0
 23
0.0
 33
0.0
 16
1.0
 26
0.0
 36
0.0
 17
0.0
 27
1.0
 37
0.0
 76
0
330
213
345
0
346
0
  0
LAYOUT
  5
337
102
{ACAD_REACTORS
330
1A
102
}
100
AcDbPlotSettings
  1

  2
none_device
  4
ANSI_C_(22.00_x_17.00_Inches)
  6

 40
0.0
 41
0.0
 42
0.0
 43
0.0
 44
558.8
 45
431.8
 46
0.0
 47
0.0
 48
0.0
 49
0.0
140
0.0
141
0.0
142
1.0
143
1.0
 70
0
 72
1
 73
0
 74
0
  7

 75
0
147
1.0
148
0.0
149
0.0
100
AcDbLayout
  1
Layout1
 70
0
 71
1
 10
0.0
 20
0.0
 11
558.8
 21
431.8
 12
0.0
 22
0.0
 32
0.0
 14
0.0
 24
0.0
 34
0.0
 15
0.0
 25
0.0
 35
0.0
146
0.0
 13
0.0
 23
0.0
 33
0.0
 16
1.0
 26
0.0
 36
0.0
 17
0.0
 27
1.0
 37
0.0
 76
0
330
214
345
0
346
0
  0
ENDSEC
  0
EOF
