  0
SECTION
  2
HEADER
  9
$ACADVER
  1
AC1015
  9
$DWGCODEPAGE
  3
ANSI_1252
  9
$EXTMAX
 10
297.0
 20
210.0
 30
0.0
  9
$EXTMIN
 10
0.0
 20
0.0
 30
0.0
  9
$LIMMIN
 10
0.0
 20
0.0
  9
$LIMMAX
 10
297.0
 20
210.0
  9
$VIEWCTR
 10
148.5
 20
105.0
  9
$VIEWSIZE
 40
210.0
  9
$CLAYER
  8
0
  9
$LTSCALE
 40
16.335
  9
$CELTYPE
  6
BYLAYER
  9
$DIMSCALE
 40
1.0
  9
$DIMASZ
 40
3.0
  9
$DIMEXO
 40
0.5
  9
$DIMDLI
 40
11.286
  9
$DIMEXE
 40
1.5
  9
$DIMCEN
 40
2.673
  9
$DIMLFAC
 40
1.0
  9
$DIMBLK
  1
_FILLED
  9
$DIMTXT
 40
3.0
  9
$DIMTOL
 70
1
  9
$DIMLIM
 70
0
  9
$DIMTFAC
 40
1.0
  9
$DIMTP
 40
0.01
  9
$DIMTM
 40
0.01
  9
$DIMGAP
 40
0.625
  9
$DIMDSEP
 70
44
  9
$PDMODE
 70
3
  9
$PDSIZE
 40
3.0
  9
$HANDSEED
  5
466
  9
$TILEMODE
 70
1
  9
$MEASUREMENT
 70
1
  9
$INSUNITS
 70
4
  0
ENDSEC
  0
SECTION
  2
CLASSES
  0
CLASS
  1
ACDBDICTIONARYWDFLT
  2
AcDbDictionaryWithDefault
  3
AutoCAD 2000
 90
0
280
0
281
0
  0
CLASS
  1
ACDBPLACEHOLDER
  2
AcDbPlaceHolder
  3
AutoCAD 2000
 90
0
280
0
281
0
  0
CLASS
  1
LAYOUT
  2
AcDbLayout
  3
AutoCAD 2000
 90
0
280
0
281
0
  0
ENDSEC
  0
SECTION
  2
TABLES
  0
TABLE
  2
VPORT
  5
8
100
AcDbSymbolTable
 70
2
  0
VPORT
  5
1F4
100
AcDbSymbolTableRecord
100
AcDbViewportTableRecord
  2
*ACTIVE
 70
0
 10
0.0
 20
0.0
 11
1.0
 21
1.0
 12
148.5
 22
105.0
 13
0.0
 23
0.0
 14
1.0
 24
1.0
 15
0.0
 25
0.0
 16
0.0
 26
0.0
 36
1.0
 17
0.0
 27
0.0
 37
0.0
 40
210.0
 41
1.4142857143
 42
50.0
 43
0.0
 44
0.0
 50
0.0
 51
0.0
 71
0
 72
100
 73
1
 74
1
 75
0
 76
0
 77
0
 78
0
  0
ENDTAB
  0
TABLE
  2
LTYPE
  5
5
100
AcDbSymbolTable
 70
6
  0
LTYPE
  5
14
100
AcDbSymbolTableRecord
100
AcDbLinetypeTableRecord
  2
BYBLOCK
 70
0
  3

 72
65
 73
0
 40
0.0
  0
LTYPE
  5
15
100
AcDbSymbolTableRecord
100
AcDbLinetypeTableRecord
  2
BYLAYER
 70
0
  3

 72
65
 73
0
 40
0.0
  0
LTYPE
  5
16
100
AcDbSymbolTableRecord
100
AcDbLinetypeTableRecord
  2
CONTINUOUS
 70
64
  3
Solid line
 72
65
 73
0
 40
0.0
  0
LTYPE
  5
1F5
100
AcDbSymbolTableRecord
100
AcDbLinetypeTableRecord
  2
CENTER
 70
64
  3
____ _ ____ _ ____ _ ____ _ ____ _ ____ _ ____
 72
65
 73
4
 40
0.6
 49
0.375
 74
0
 49
-0.075
 74
0
 49
0.075
 74
0
 49
-0.075
 74
0
  0
LTYPE
  5
1F6
100
AcDbSymbolTableRecord
100
AcDbLinetypeTableRecord
  2
HIDDEN
 70
64
  3
- - - - - - - - - - - - - - - - - - - -
 72
65
 73
2
 40
0.2
 49
0.1
 74
0
 49
-0.1
 74
0
  0
LTYPE
  5
1F7
100
AcDbSymbolTableRecord
100
AcDbLinetypeTableRecord
  2
PHANTOM
 70
64
  3
_____ _ _ _____ _ _ _____ _ _ _____
 72
65
 73
6
 40
0.8
 49
0.45
 74
0
 49
-0.05
 74
0
 49
0.1
 74
0
 49
-0.05
 74
0
 49
0.1
 74
0
 49
-0.05
 74
0
  0
LTYPE
  5
1F8
100
AcDbSymbolTableRecord
100
AcDbLinetypeTableRecord
  2
DOT
 70
64
  3
. . . . . . . . . . . . . . . . . . . .
 72
65
 73
2
 40
0.2
 49
0.1
 74
0
 49
-0.1
 74
0
  0
LTYPE
  5
1F9
100
AcDbSymbolTableRecord
100
AcDbLinetypeTableRecord
  2
DASHED
 70
64
  3
- - - - - - - - - - - - - - - - - - - -
 72
65
 73
2
 40
0.2
 49
0.1
 74
0
 49
-0.1
 74
0
  0
ENDTAB
  0
TABLE
  2
LAYER
  5
2
100
AcDbSymbolTable
 70
36
  0
LAYER
  5
10
100
AcDbSymbolTableRecord
100
AcDbLayerTableRecord
  2
0
 70
0
 62
7
  6
CONTINUOUS
370
-3
390
F
  0
LAYER
  5
1FA
100
AcDbSymbolTableRecord
100
AcDbLayerTableRecord
  2
DEFAULT_1
 70
0
 62
7
  6
CENTER
370
-3
390
F
  0
LAYER
  5
1FB
100
AcDbSymbolTableRecord
100
AcDbLayerTableRecord
  2
DEFAULT_2
 70
0
 62
7
  6
HIDDEN
370
-3
390
F
  0
LAYER
  5
1FC
100
AcDbSymbolTableRecord
100
AcDbLayerTableRecord
  2
DEFAULT_3
 70
0
 62
7
  6
PHANTOM
370
-3
390
F
  0
LAYER
  5
1FD
100
AcDbSymbolTableRecord
100
AcDbLayerTableRecord
  2
ASSI
 70
0
 62
7
  6
CONTINUOUS
370
-3
390
F
  0
LAYER
  5
1FE
100
AcDbSymbolTableRecord
100
AcDbLayerTableRecord
  2
COORDINATE
 70
0
 62
7
  6
CONTINUOUS
370
-3
390
F
  0
LAYER
  5
1FF
100
AcDbSymbolTableRecord
100
AcDbLayerTableRecord
  2
COORD_ORIGINE
 70
0
 62
7
  6
CONTINUOUS
370
-3
390
F
  0
LAYER
  5
200
100
AcDbSymbolTableRecord
100
AcDbLayerTableRecord
  2
CURVE
 70
0
 62
7
  6
CONTINUOUS
370
-3
390
F
  0
LAYER
  5
201
100
AcDbSymbolTableRecord
100
AcDbLayerTableRecord
  2
DRAFT
 70
0
 62
7
  6
CONTINUOUS
370
-3
390
F
  0
LAYER
  5
202
100
AcDbSymbolTableRecord
100
AcDbLayerTableRecord
  2
IGES-IMPORTATI
 70
0
 62
7
  6
CONTINUOUS
370
-3
390
F
  0
LAYER
  5
203
100
AcDbSymbolTableRecord
100
AcDbLayerTableRecord
  2
INTF_1
 70
0
 62
7
  6
CONTINUOUS
370
-3
390
F
  0
LAYER
  5
204
100
AcDbSymbolTableRecord
100
AcDbLayerTableRecord
  2
INTF_CYAN
 70
0
 62
7
  6
CONTINUOUS
370
-3
390
F
  0
LAYER
  5
205
100
AcDbSymbolTableRecord
100
AcDbLayerTableRecord
  2
NOTE
 70
0
 62
7
  6
CONTINUOUS
370
-3
390
F
  0
LAYER
  5
206
100
AcDbSymbolTableRecord
100
AcDbLayerTableRecord
  2
PIANI
 70
0
 62
7
  6
CONTINUOUS
370
-3
390
F
  0
LAYER
  5
207
100
AcDbSymbolTableRecord
100
AcDbLayerTableRecord
  2
PIANI_ORIGINE
 70
0
 62
7
  6
CONTINUOUS
370
-3
390
F
  0
LAYER
  5
208
100
AcDbSymbolTableRecord
100
AcDbLayerTableRecord
  2
PIANI_RIFERIMENTO
 70
0
 62
7
  6
CONTINUOUS
370
-3
390
F
  0
LAYER
  5
209
100
AcDbSymbolTableRecord
100
AcDbLayerTableRecord
  2
PUNTI
 70
0
 62
7
  6
CONTINUOUS
370
-3
390
F
  0
LAYER
  5
20A
100
AcDbSymbolTableRecord
100
AcDbLayerTableRecord
  2
RACCORDO
 70
0
 62
7
  6
CONTINUOUS
370
-3
390
F
  0
LAYER
  5
20B
100
AcDbSymbolTableRecord
100
AcDbLayerTableRecord
  2
RGB____0____0____0__
 70
0
 62
7
  6
CONTINUOUS
370
-3
390
F
  0
LAYER
  5
20C
100
AcDbSymbolTableRecord
100
AcDbLayerTableRecord
  2
SMUSSO
 70
0
 62
7
  6
CONTINUOUS
370
-3
390
F
  0
LAYER
  5
20D
100
AcDbSymbolTableRecord
100
AcDbLayerTableRecord
  2
SNAPLINE
 70
0
 62
7
  6
CONTINUOUS
370
-3
390
F
  0
LAYER
  5
20E
100
AcDbSymbolTableRecord
100
AcDbLayerTableRecord
  2
SUPERFICI
 70
0
 62
7
  6
CONTINUOUS
370
-3
390
F
  0
LAYER
  5
20F
100
AcDbSymbolTableRecord
100
AcDbLayerTableRecord
  2
TRASH
 70
0
 62
7
  6
CONTINUOUS
370
-3
390
F
  0
ENDTAB
  0
TABLE
  2
STYLE
  5
3
100
AcDbSymbolTable
 70
1
  0
STYLE
  5
11
100
AcDbSymbolTableRecord
100
AcDbTextStyleTableRecord
  2
STANDARD
 70
0
 40
0.0
 41
0.8
 50
0.0
 71
0
 42
0.2
  3
txt
  4

  0
STYLE
  5
210
100
AcDbSymbolTableRecord
100
AcDbTextStyleTableRecord
  2
TEXTSTYLE_1
 70
0
 40
0.0
 41
0.8
 50
0.0
 71
0
 42
0.2
  3
gdt
  4

  0
ENDTAB
  0
TABLE
  2
VIEW
  5
6
100
AcDbSymbolTable
 70
0
  0
ENDTAB
  0
TABLE
  2
UCS
  5
7
100
AcDbSymbolTable
 70
0
  0
ENDTAB
  0
TABLE
  2
APPID
  5
9
100
AcDbSymbolTable
 70
1
  0
APPID
  5
211
100
AcDbSymbolTableRecord
100
AcDbRegAppTableRecord
  2
ACAD
 70
0
  0
ENDTAB
  0
TABLE
  2
BLOCK_RECORD
  5
1
100
AcDbSymbolTable
 70
0
  0
BLOCK_RECORD
  5
212
100
AcDbSymbolTableRecord
100
AcDbBlockTableRecord
  2
*Model_Space
  0
BLOCK_RECORD
  5
213
100
AcDbSymbolTableRecord
100
AcDbBlockTableRecord
  2
*Paper_Space
  0
BLOCK_RECORD
  5
214
100
AcDbSymbolTableRecord
100
AcDbBlockTableRecord
  2
_FILLED
  0
BLOCK_RECORD
  5
215
100
AcDbSymbolTableRecord
100
AcDbBlockTableRecord
  2
*D0
  0
BLOCK_RECORD
  5
216
100
AcDbSymbolTableRecord
100
AcDbBlockTableRecord
  2
*D1
  0
BLOCK_RECORD
  5
217
100
AcDbSymbolTableRecord
100
AcDbBlockTableRecord
  2
*D2
  0
BLOCK_RECORD
  5
218
100
AcDbSymbolTableRecord
100
AcDbBlockTableRecord
  2
*D3
  0
ENDTAB
  0
TABLE
  2
DIMSTYLE
  5
A
100
AcDbSymbolTable
 70
1
100
AcDbDimStyleTable
 71
0
  0
DIMSTYLE
105
219
100
AcDbSymbolTableRecord
100
AcDbDimStyleTableRecord
  2
STANDARD
 70
0
  3

  4

 40
1.0
 41
3.0
 42
0.5
 43
0.38
 44
1.5
 45
0.0
 46
0.0
 47
0.01
 48
0.01
140
3.0
141
0.09
142
0.0
143
25.4
144
1.0
145
0.0
146
1.0
147
0.625
 71
1.0
 72
0.0
 73
0
 74
0
 75
0
 76
0
 77
1
 78
8
170
0
171
2
172
0
173
0
174
0
175
0
176
0
177
0
178
0
270
2
271
2
272
2
273
2
274
2
275
0
280
0
281
0
282
0
283
1
284
8
285
0
286
0
287
3
288
0
340
11
278
44
341
214
342
214
343
214
344
214
  0
DIMSTYLE
105
21A
100
AcDbSymbolTableRecord
100
AcDbDimStyleTableRecord
  2
DIMSTYLE_1
 70
0
  3

  4

 40
1.0
 41
3.0
 42
0.5
 43
0.38
 44
1.5
 45
0.0
 46
0.0
 47
0.0
 48
0.0
140
3.0
141
0.09
142
0.0
143
25.4
144
1.0
145
0.0
146
1.0
147
0.75
 71
0.0
 72
0.0
 73
0
 74
0
 75
0
 76
0
 77
1
 78
8
170
0
171
2
172
0
173
0
174
0
175
0
176
0
177
0
178
0
270
2
271
2
272
2
273
2
274
2
275
0
280
0
281
0
282
0
283
1
284
8
285
0
286
0
287
3
288
0
340
11
278
44
341
214
342
214
343
214
344
214
  0
ENDTAB
  0
ENDSEC
  0
SECTION
  2
BLOCKS
  0
BLOCK
  5
20
100
AcDbEntity
  8
0
100
AcDbBlockBegin
  2
*Model_Space
 70
0
 10
0.0
 20
0.0
 30
0.0
  3
*Model_Space
  1

  0
ENDBLK
  5
21
100
AcDbEntity
  8
0
100
AcDbBlockEnd
  0
BLOCK
  5
1C
100
AcDbEntity
  8
0
100
AcDbBlockBegin
  2
*Paper_Space
 70
0
 10
0.0
 20
0.0
 30
0.0
  3
*Paper_Space
  1

  0
ENDBLK
  5
1D
100
AcDbEntity
  8
0
100
AcDbBlockEnd
  0
BLOCK
  5
21B
100
AcDbEntity
  8
0
100
AcDbBlockBegin
  2
_FILLED
 70
64
 10
0.0
 20
0.0
  3
_FILLED
  1

  0
SOLID
  5
21C
100
AcDbEntity
  8
0
  6
BYBLOCK
 62
0
100
AcDbTrace
 10
0.0
 20
0.0
 11
-1.0
 21
0.3166666667
 12
-1.0
 22
-0.3166666667
 13
-1.0
 23
-0.3166666667
  0
ENDBLK
  5
21D
100
AcDbEntity
  8
0
  6
BYBLOCK
 62
0
100
AcDbBlockEnd
  0
BLOCK
  5
21E
100
AcDbEntity
  8
0
100
AcDbBlockBegin
 62
7
  6
CONTINUOUS
  2
*D0
 70
65
 10
0.0
 20
0.0
  3
*D0
  1

  0
MTEXT
  5
21F
100
AcDbEntity
  8
0
100
AcDbMText
 62
7
  6
CONTINUOUS
  7
STANDARD
 71
2
 72
1
 10
-0.2175373469
 20
36.1691876531
 30
0.0
 11
1.0
 21
0.0
 31
0.0
 44
0.9
  1
22,3
 40
3.0
 41
8.5714285714
  0
LINE
  5
220
100
AcDbEntity
  8
0
100
AcDbLine
 62
7
  6
CONTINUOUS
 10
-11.3675373469
 20
22.3103655937
 11
-11.3675373469
 21
33.9191876531
  0
LINE
  5
221
100
AcDbEntity
  8
0
100
AcDbLine
 62
7
  6
CONTINUOUS
 10
10.9324626531
 20
22.3103655937
 11
10.9324626531
 21
33.9191876531
  0
LINE
  5
222
100
AcDbEntity
  8
0
100
AcDbLine
 62
7
  6
CONTINUOUS
 10
-11.3675373469
 20
32.4191876531
 11
-0.2175373469
 21
32.4191876531
  0
LINE
  5
223
100
AcDbEntity
  8
0
100
AcDbLine
 62
7
  6
CONTINUOUS
 10
10.9324626531
 20
32.4191876531
 11
-0.2175373469
 21
32.4191876531
  0
INSERT
  5
224
100
AcDbEntity
  8
0
100
AcDbBlockReference
 62
7
  6
CONTINUOUS
  2
_FILLED
 10
-11.3675373469
 20
32.4191876531
 41
3.0
 42
3.0
 43
3.0
 50
180.0
  0
INSERT
  5
225
100
AcDbEntity
  8
0
100
AcDbBlockReference
 62
7
  6
CONTINUOUS
  2
_FILLED
 10
10.9324626531
 20
32.4191876531
 41
3.0
 42
3.0
 43
3.0
  0
ENDBLK
  5
226
100
AcDbEntity
  8
0
  6
BYBLOCK
 62
0
100
AcDbBlockEnd
  0
BLOCK
  5
227
100
AcDbEntity
  8
0
100
AcDbBlockBegin
 62
7
  6
CONTINUOUS
  2
*D1
 70
65
 10
0.0
 20
0.0
  3
*D1
  1

  0
MTEXT
  5
228
100
AcDbEntity
  8
0
100
AcDbMText
 62
7
  6
CONTINUOUS
  7
STANDARD
 71
2
 72
1
 10
15.1824626531
 20
-0.0808123469
 30
0.0
 11
0.0
 21
1.0
 31
0.0
 44
0.9
  1
49
 40
3.0
 41
4.7142857143
  0
LINE
  5
229
100
AcDbEntity
  8
0
100
AcDbLine
 62
7
  6
CONTINUOUS
 10
10.6824668838
 20
24.4191876531
 11
20.4324626531
 21
24.4191876531
  0
LINE
  5
22A
100
AcDbEntity
  8
0
100
AcDbLine
 62
7
  6
CONTINUOUS
 10
10.6824668838
 20
-24.5808123469
 11
20.4324626531
 21
-24.5808123469
  0
LINE
  5
22B
100
AcDbEntity
  8
0
100
AcDbLine
 62
7
  6
CONTINUOUS
 10
18.9324626531
 20
24.4191876531
 11
18.9324626531
 21
-0.0808123469
  0
LINE
  5
22C
100
AcDbEntity
  8
0
100
AcDbLine
 62
7
  6
CONTINUOUS
 10
18.9324626531
 20
-24.5808123469
 11
18.9324626531
 21
-0.0808123469
  0
INSERT
  5
22D
100
AcDbEntity
  8
0
100
AcDbBlockReference
 62
7
  6
CONTINUOUS
  2
_FILLED
 10
18.9324626531
 20
24.4191876531
 41
3.0
 42
3.0
 43
3.0
 50
90.0
  0
INSERT
  5
22E
100
AcDbEntity
  8
0
100
AcDbBlockReference
 62
7
  6
CONTINUOUS
  2
_FILLED
 10
18.9324626531
 20
-24.5808123469
 41
3.0
 42
3.0
 43
3.0
 50
270.0
  0
ENDBLK
  5
22F
100
AcDbEntity
  8
0
  6
BYBLOCK
 62
0
100
AcDbBlockEnd
  0
BLOCK
  5
230
100
AcDbEntity
  8
0
100
AcDbBlockBegin
 62
7
  6
CONTINUOUS
  2
*D2
 70
65
 10
0.0
 20
0.0
  3
*D2
  1

  0
MTEXT
  5
231
100
AcDbEntity
  8
0
100
AcDbMText
 62
7
  6
CONTINUOUS
  7
STANDARD
 71
2
 72
1
 10
-35.2610558412
 20
36.1691876531
 30
0.0
 11
1.0
 21
0.0
 31
0.0
 44
0.9
  1
10
 40
3.0
 41
4.0714285714
  0
LINE
  5
232
100
AcDbEntity
  8
0
100
AcDbLine
 62
7
  6
CONTINUOUS
 10
-40.2610558412
 20
24.6648200498
 11
-40.2610558412
 21
33.9191876531
  0
LINE
  5
233
100
AcDbEntity
  8
0
100
AcDbLine
 62
7
  6
CONTINUOUS
 10
-30.2610558412
 20
21.3191876531
 11
-30.2610558412
 21
33.9191876531
  0
LINE
  5
234
100
AcDbEntity
  8
0
100
AcDbLine
 62
7
  6
CONTINUOUS
 10
-40.2610558412
 20
32.4191876531
 11
-44.2610558412
 21
32.4191876531
  0
LINE
  5
235
100
AcDbEntity
  8
0
100
AcDbLine
 62
7
  6
CONTINUOUS
 10
-44.2610558412
 20
32.4191876531
 11
-35.2610558412
 21
32.4191876531
  0
LINE
  5
236
100
AcDbEntity
  8
0
100
AcDbLine
 62
7
  6
CONTINUOUS
 10
-30.2610558412
 20
32.4191876531
 11
-26.2610558412
 21
32.4191876531
  0
LINE
  5
237
100
AcDbEntity
  8
0
100
AcDbLine
 62
7
  6
CONTINUOUS
 10
-26.2610558412
 20
32.4191876531
 11
-35.2610558412
 21
32.4191876531
  0
INSERT
  5
238
100
AcDbEntity
  8
0
100
AcDbBlockReference
 62
7
  6
CONTINUOUS
  2
_FILLED
 10
-40.2610558412
 20
32.4191876531
 41
3.0
 42
3.0
 43
3.0
  0
INSERT
  5
239
100
AcDbEntity
  8
0
100
AcDbBlockReference
 62
7
  6
CONTINUOUS
  2
_FILLED
 10
-30.2610558412
 20
32.4191876531
 41
3.0
 42
3.0
 43
3.0
 50
180.0
  0
ENDBLK
  5
23A
100
AcDbEntity
  8
0
  6
BYBLOCK
 62
0
100
AcDbBlockEnd
  0
BLOCK
  5
23B
100
AcDbEntity
  8
0
100
AcDbBlockBegin
 62
7
  6
CONTINUOUS
  2
*D3
 70
65
 10
0.0
 20
0.0
  3
*D3
  1

  0
MTEXT
  5
23C
100
AcDbEntity
  8
0
100
AcDbMText
 62
7
  6
CONTINUOUS
  7
STANDARD
 71
2
 72
1
 10
-40.5110558412
 20
46.1691876531
 30
0.0
 11
1.0
 21
0.0
 31
0.0
 44
0.9
  1
20,5
 40
3.0
 41
8.5714285714
  0
LINE
  5
23D
100
AcDbEntity
  8
0
100
AcDbLine
 62
7
  6
CONTINUOUS
 10
-30.2610558412
 20
21.3191876531
 11
-30.2610558412
 21
43.9191876531
  0
LINE
  5
23E
100
AcDbEntity
  8
0
100
AcDbLine
 62
7
  6
CONTINUOUS
 10
-50.7610558412
 20
0.4191876531
 11
-50.7610558412
 21
43.9191876531
  0
LINE
  5
23F
100
AcDbEntity
  8
0
100
AcDbLine
 62
7
  6
CONTINUOUS
 10
-30.2610558412
 20
42.4191876531
 11
-40.5110558412
 21
42.4191876531
  0
LINE
  5
240
100
AcDbEntity
  8
0
100
AcDbLine
 62
7
  6
CONTINUOUS
 10
-50.7610558412
 20
42.4191876531
 11
-40.5110558412
 21
42.4191876531
  0
INSERT
  5
241
100
AcDbEntity
  8
0
100
AcDbBlockReference
 62
7
  6
CONTINUOUS
  2
_FILLED
 10
-30.2610558412
 20
42.4191876531
 41
3.0
 42
3.0
 43
3.0
  0
INSERT
  5
242
100
AcDbEntity
  8
0
100
AcDbBlockReference
 62
7
  6
CONTINUOUS
  2
_FILLED
 10
-50.7610558412
 20
42.4191876531
 41
3.0
 42
3.0
 43
3.0
 50
180.0
  0
ENDBLK
  5
243
100
AcDbEntity
  8
0
  6
BYBLOCK
 62
0
100
AcDbBlockEnd
  0
ENDSEC
  0
SECTION
  2
ENTITIES
  0
DIMENSION
  5
244
100
AcDbEntity
  8
0
100
AcDbDimension
 62
7
  6
CONTINUOUS
  2
*D0
 10
10.9324626531
 20
32.4191876531
 11
-0.2175373469
 21
32.4191876531
 70
160
 71
2
 42
22.3
  3
DIMSTYLE_1
100
AcDbAlignedDimension
 13
-11.3675373469
 23
21.8103655937
 14
10.9324626531
 24
21.8103655937
100
AcDbRotatedDimension
  0
DIMENSION
  5
245
100
AcDbEntity
  8
0
100
AcDbDimension
 62
7
  6
CONTINUOUS
  2
*D1
 10
18.9324626531
 20
-24.5808123469
 11
18.9324626531
 21
-0.0808123469
 70
160
 71
2
 42
49.0
  3
DIMSTYLE_1
100
AcDbAlignedDimension
 13
10.1824668838
 23
24.4191876531
 14
10.1824668838
 24
-24.5808123469
 50
270.0
100
AcDbRotatedDimension
  0
DIMENSION
  5
246
100
AcDbEntity
  8
0
100
AcDbDimension
 62
7
  6
CONTINUOUS
  2
*D2
 10
-30.2610558412
 20
32.4191876531
 11
-35.2610558412
 21
32.4191876531
 70
160
 71
2
 42
10.0
  3
DIMSTYLE_1
100
AcDbAlignedDimension
 13
-40.2610558412
 23
24.1648200498
 14
-30.2610558412
 24
20.8191876531
100
AcDbRotatedDimension
  0
DIMENSION
  5
247
100
AcDbEntity
  8
0
100
AcDbDimension
 62
7
  6
CONTINUOUS
  2
*D3
 10
-50.7610558412
 20
42.4191876531
 11
-40.5110558412
 21
42.4191876531
 70
160
 71
2
 42
20.5
  3
DIMSTYLE_1
100
AcDbAlignedDimension
 13
-30.2610558412
 23
20.8191876531
 14
-50.7610558412
 24
-0.0808123469
 50
180.0
100
AcDbRotatedDimension
  0
LINE
  5
248
100
AcDbEntity
  8
RACCORDO
100
AcDbLine
 62
253
  6
CONTINUOUS
 10
-8.7175331162
 20
24.4191876531
 11
-8.7306316949
 21
24.4060890743
  0
LINE
  5
249
100
AcDbEntity
  8
RACCORDO
100
AcDbLine
 62
7
  6
CONTINUOUS
 10
-11.0735517564
 20
22.266412787
 11
-11.0910543489
 21
22.2576621572
  0
LINE
  5
24A
100
AcDbEntity
  8
RACCORDO
100
AcDbLine
 62
253
  6
CONTINUOUS
 10
-11.3501204445
 20
21.8190733816
 11
-11.3675373469
 21
21.8103655937
  0
LWPOLYLINE
  5
24B
100
AcDbEntity
  8
RACCORDO
100
AcDbPolyline
 62
7
  6
CONTINUOUS
 90
11
 70
0
 10
-11.073574421
 20
22.2664014548
 10
-11.0557248057
 20
22.2748900107
 10
-11.0359068397
 20
22.2833297167
 10
-11.0156970478
 20
22.2909244588
 10
-10.9951482436
 20
22.2976487296
 10
-10.974280868
 20
22.3034903431
 10
-10.9531492584
 20
22.3084286192
 10
-10.9318612339
 20
22.3124386782
 10
-10.910480793
 20
22.315514957
 10
-10.8890257442
 20
22.3176613928
 10
-10.8675364861
 20
22.3188788517
  0
LWPOLYLINE
  5
24C
100
AcDbEntity
  8
RACCORDO
100
AcDbPolyline
 62
7
  6
CONTINUOUS
 90
23
 70
0
 10
-4.5137446606
 20
-23.8761513138
 10
-4.5029555372
 20
-23.8756039118
 10
-4.491868075
 20
-23.8741762419
 10
-4.4804822741
 20
-23.8719488349
 10
-4.4687734939
 20
-23.8690102435
 10
-4.4567663749
 20
-23.8654362185
 10
-4.444534839
 20
-23.8612718602
 10
-4.4320860987
 20
-23.8565767172
 10
-4.4194129415
 20
-23.8514141566
 10
-4.4065676514
 20
-23.8458076573
 10
-4.3935545192
 20
-23.8398025789
 10
-4.3803692542
 20
-23.8334489117
 10
-4.3670512672
 20
-23.8267584052
 10
-4.3536027802
 20
-23.8197666301
 10
-4.3400215714
 20
-23.8125137391
 10
-4.3263403866
 20
-23.8050060199
 10
-4.3125602748
 20
-23.7972725348
 10
-4.2986801871
 20
-23.7893462979
 10
-4.2847297226
 20
-23.781231537
 10
-4.270709122
 20
-23.772952876
 10
-4.2566181445
 20
-23.7645383062
 10
-4.242485667
 20
-23.7559920267
 10
-4.2140955307
 20
-23.738593548
  0
LWPOLYLINE
  5
24D
100
AcDbEntity
  8
RACCORDO
100
AcDbPolyline
 62
253
  6
CONTINUOUS
 90
31
 70
0
 10
10.1693683051
 20
-24.5677137682
 10
10.1824517911
 20
-24.5673707296
 10
10.1954994177
 20
-24.5663434398
 10
10.2084754239
 20
-24.5646347142
 10
10.2213442447
 20
-24.5622492362
 10
10.2340706093
 20
-24.559193544
 10
10.2466196369
 20
-24.5554760127
 10
10.2589569332
 20
-24.5511068312
 10
10.2710486838
 20
-24.5460979747
 10
10.2828617476
 20
-24.5404631715
 10
10.2943637472
 20
-24.5342178656
 10
10.3055231577
 20
-24.5273791742
 10
10.3163093933
 20
-24.5199658408
 10
10.326692891
 20
-24.5119981841
 10
10.3366451914
 20
-24.5034980418
 10
10.3461390173
 20
-24.4944887112
 10
10.3551483479
 20
-24.4849948853
 10
10.3636484902
 20
-24.4750425848
 10
10.3716161469
 20
-24.4646590872
 10
10.3790294803
 20
-24.4538728516
 10
10.3858681717
 20
-24.4427134411
 10
10.3921134776
 20
-24.4312114415
 10
10.3977482808
 20
-24.4193983777
 10
10.4027571373
 20
-24.4073066271
 10
10.4071263188
 20
-24.3949693308
 10
10.4108438502
 20
-24.3824203031
 10
10.4138995424
 20
-24.3696939386
 10
10.4162850203
 20
-24.3568251177
 10
10.4179937459
 20
-24.3438491116
 10
10.4190210358
 20
-24.330801485
 10
10.4193640743
 20
-24.317717999
  0
LWPOLYLINE
  5
24E
100
AcDbEntity
  8
RACCORDO
100
AcDbPolyline
 62
253
  6
CONTINUOUS
 90
31
 70
0
 10
-8.7306316949
 20
-24.5677137682
 10
-8.7175453408
 20
-24.5673705792
 10
-8.7044948424
 20
-24.5663428362
 10
-8.691515985
 20
-24.5646333531
 10
-8.6786443453
 20
-24.5622468104
 10
-8.6659152314
 20
-24.5591897492
 10
-8.653363584
 20
-24.5554705597
 10
-8.6410238279
 20
-24.5510994446
 10
-8.6289297906
 20
-24.5460883892
 10
-8.617114645
 20
-24.5404511409
 10
-8.6056107892
 20
-24.5342031617
 10
-8.5944497632
 20
-24.5273615859
 10
-8.5836621729
 20
-24.5199451791
 10
-8.5732775836
 20
-24.5119742709
 10
-8.5633244802
 20
-24.5034707294
 10
-8.5538301871
 20
-24.4944579103
 10
-8.5448207652
 20
-24.4849605758
 10
-8.5363208683
 20
-24.4750047386
 10
-8.5283537261
 20
-24.4646176128
 10
-8.520941096
 20
-24.4538275336
 10
-8.5141034142
 20
-24.4426642152
 10
-8.5078596126
 20
-24.4311586148
 10
-8.502226864
 20
-24.4193425365
 10
-8.4972204341
 20
-24.4072481804
 10
-8.492853883
 20
-24.3949083765
 10
-8.4891384433
 20
-24.3823541919
 10
-8.4860853298
 20
-24.3696227267
 10
-8.4837041997
 20
-24.3567570079
 10
-8.4820005955
 20
-24.3437952333
 10
-8.4809773329
 20
-24.330770339
 10
-8.4806359257
 20
-24.317717999
  0
LWPOLYLINE
  5
24F
100
AcDbEntity
  8
RACCORDO
100
AcDbPolyline
 62
7
  6
CONTINUOUS
 90
34
 70
0
 10
10.1824668838
 20
-24.5808123469
 10
10.1943621691
 20
-24.5805291967
 10
10.2062305086
 20
-24.5796803812
 10
10.2180450192
 20
-24.5782678211
 10
10.2297789405
 20
-24.5762947147
 10
10.2414056919
 20
-24.5737655287
 10
10.2528989321
 20
-24.5706859886
 10
10.2642326268
 20
-24.5670630683
 10
10.2753811024
 20
-24.5629049727
 10
10.2863190994
 20
-24.5582211191
 10
10.2970218407
 20
-24.5530221158
 10
10.3074650813
 20
-24.5473197386
 10
10.317625159
 20
-24.5411269051
 10
10.3274790582
 20
-24.5344576424
 10
10.3370044569
 20
-24.5273270576
 10
10.3461797721
 20
-24.5197513058
 10
10.3549842191
 20
-24.5117475474
 10
10.3633978535
 20
-24.503333913
 10
10.3714016119
 20
-24.494529466
 10
10.3789773638
 20
-24.4853541508
 10
10.3861079485
 20
-24.4758287521
 10
10.3927772112
 20
-24.4659748528
 10
10.3989700447
 20
-24.4558147752
 10
10.4046724219
 20
-24.4453715345
 10
10.4098714252
 20
-24.4346687932
 10
10.4145552788
 20
-24.4237307962
 10
10.4187133744
 20
-24.4125823207
 10
10.4223362948
 20
-24.4012486259
 10
10.4254158348
 20
-24.3897553857
 10
10.4279450208
 20
-24.3781286344
 10
10.4299181272
 20
-24.3663947131
 10
10.4313306873
 20
-24.3545802025
 10
10.4321795028
 20
-24.342711863
 10
10.4324626531
 20
-24.3308165777
  0
LWPOLYLINE
  5
250
100
AcDbEntity
  8
RACCORDO
100
AcDbPolyline
 62
7
  6
CONTINUOUS
 90
34
 70
0
 10
-8.7175331162
 20
-24.5808123469
 10
-8.7056378309
 20
-24.5805291967
 10
-8.6937694914
 20
-24.5796803812
 10
-8.6819549808
 20
-24.5782678211
 10
-8.6702210595
 20
-24.5762947147
 10
-8.6585943081
 20
-24.5737655287
 10
-8.6471010679
 20
-24.5706859886
 10
-8.6357673732
 20
-24.5670630683
 10
-8.6246188976
 20
-24.5629049727
 10
-8.6136809006
 20
-24.5582211191
 10
-8.6029781593
 20
-24.5530221158
 10
-8.5925349187
 20
-24.5473197386
 10
-8.582374841
 20
-24.5411269051
 10
-8.5725209418
 20
-24.5344576424
 10
-8.5629955431
 20
-24.5273270576
 10
-8.5538202279
 20
-24.5197513058
 10
-8.5450157809
 20
-24.5117475474
 10
-8.5366021465
 20
-24.503333913
 10
-8.5285983881
 20
-24.494529466
 10
-8.5210226362
 20
-24.4853541508
 10
-8.5138920515
 20
-24.4758287521
 10
-8.5072227888
 20
-24.4659748528
 10
-8.5010299553
 20
-24.4558147752
 10
-8.4953275781
 20
-24.4453715345
 10
-8.4901285748
 20
-24.4346687932
 10
-8.4854447212
 20
-24.4237307962
 10
-8.4812866256
 20
-24.4125823207
 10
-8.4776637052
 20
-24.4012486259
 10
-8.4745841652
 20
-24.3897553857
 10
-8.4720549792
 20
-24.3781286344
 10
-8.4700818728
 20
-24.3663947131
 10
-8.4686693127
 20
-24.3545802025
 10
-8.4678204972
 20
-24.342711863
 10
-8.4675373469
 20
-24.3308165777
  0
LWPOLYLINE
  5
251
100
AcDbEntity
  8
RACCORDO
100
AcDbPolyline
 62
7
  6
CONTINUOUS
 90
34
 70
0
 10
8.295557001
 20
-23.7808123469
 10
8.2825325258
 20
-23.7810659243
 10
8.2696029537
 20
-23.7816913231
 10
8.2568023552
 20
-23.7826885432
 10
8.2441522981
 20
-23.7840702086
 10
8.2316961478
 20
-23.7858236953
 10
8.2194976343
 20
-23.7879111318
 10
8.207597012
 20
-23.7903336005
 10
8.1960066131
 20
-23.793090019
 10
8.1847446281
 20
-23.7961392684
 10
8.1738334555
 20
-23.7994818273
 10
8.1632933507
 20
-23.8031172172
 10
8.1531374575
 20
-23.8070028832
 10
8.1433833159
 20
-23.8111388713
 10
8.1340466009
 20
-23.8155251356
 10
8.1251362665
 20
-23.8201189829
 10
8.1166654235
 20
-23.8249202083
 10
8.1086456913
 20
-23.8299290168
 10
8.1010827878
 20
-23.8351033302
 10
8.0939858955
 20
-23.8404428129
 10
8.0873629864
 20
-23.8459478005
 10
8.0812172424
 20
-23.8515772226
 10
8.0755543614
 20
-23.8573306731
 10
8.0703790043
 20
-23.8632085581
 10
8.0656922262
 20
-23.8691710246
 10
8.0614966013
 20
-23.875217609
 10
8.0577937511
 20
-23.8813487748
 10
8.0545827739
 20
-23.8875260599
 10
8.0518634069
 20
-23.8937489188
 10
8.0496344605
 20
-23.9000178969
 10
8.0478930977
 20
-23.9062961681
 10
8.046636359
 20
-23.912571457
 10
8.0458606542
 20
-23.9188560391
 10
8.0455612318
 20
-23.9251499142
  0
LINE
  5
252
100
AcDbEntity
  8
RACCORDO
100
AcDbLine
 62
7
  6
CONTINUOUS
 10
10.1824668838
 20
-24.5808123469
 11
8.2824584223
 21
-24.5808123469
  0
LINE
  5
253
100
AcDbEntity
  8
RACCORDO
100
AcDbLine
 62
7
  6
CONTINUOUS
 10
-8.7175331162
 20
-24.5808123469
 11
-10.6175415777
 21
-24.5808123469
  0
LINE
  5
254
100
AcDbEntity
  8
RACCORDO
100
AcDbLine
 62
253
  6
CONTINUOUS
 10
-10.604442999
 20
-24.5677137682
 11
-8.7306316949
 21
-24.5677137682
  0
LINE
  5
255
100
AcDbEntity
  8
RACCORDO
100
AcDbLine
 62
253
  6
CONTINUOUS
 10
8.295557001
 20
-24.5677137682
 11
10.1693683051
 21
-24.5677137682
  0
LINE
  5
256
100
AcDbEntity
  8
RACCORDO
100
AcDbLine
 62
253
  6
CONTINUOUS
 10
8.0455612318
 20
-24.317717999
 11
10.4193640743
 21
-24.317717999
  0
LINE
  5
257
100
AcDbEntity
  8
RACCORDO
100
AcDbLine
 62
253
  6
CONTINUOUS
 10
-8.4806359257
 20
-24.317717999
 11
-10.8544387682
 21
-24.317717999
  0
LINE
  5
258
100
AcDbEntity
  8
RACCORDO
100
AcDbLine
 62
253
  6
CONTINUOUS
 10
-8.4806359257
 20
-23.9251499142
 11
-10.8544387682
 21
-23.9251499142
  0
LINE
  5
259
100
AcDbEntity
  8
DRAFT
100
AcDbLine
 62
7
  6
CONTINUOUS
 10
4.1824626531
 20
-23.8808123469
 11
-4.6175373469
 21
-23.8808123469
  0
LINE
  5
25A
100
AcDbEntity
  8
RACCORDO
100
AcDbLine
 62
253
  6
CONTINUOUS
 10
-4.5137446606
 20
-23.8761513138
 11
4.0786699667
 21
-23.8761513138
  0
LINE
  5
25B
100
AcDbEntity
  8
RACCORDO
100
AcDbLine
 62
7
  6
CONTINUOUS
 10
10.1693683051
 20
-23.7808123469
 11
8.295557001
 21
-23.7808123469
  0
LINE
  5
25C
100
AcDbEntity
  8
RACCORDO
100
AcDbLine
 62
253
  6
CONTINUOUS
 10
-8.7306316949
 20
-23.7086435633
 11
-10.604442999
 21
-23.7086435633
  0
LINE
  5
25D
100
AcDbEntity
  8
RACCORDO
100
AcDbLine
 62
253
  6
CONTINUOUS
 10
-4.1146199703
 20
-23.6761546984
 11
3.6795452764
 21
-23.6761546984
  0
LINE
  5
25E
100
AcDbEntity
  8
RACCORDO
100
AcDbLine
 62
7
  6
CONTINUOUS
 10
10.1751861349
 20
-23.2034620777
 11
8.2897391712
 21
-23.2034620777
  0
LINE
  5
25F
100
AcDbEntity
  8
RACCORDO
100
AcDbLine
 62
7
  6
CONTINUOUS
 10
-8.7248138651
 20
-23.2034620777
 11
-10.6102608288
 21
-23.2034620777
  0
LWPOLYLINE
  5
260
100
AcDbEntity
  8
RACCORDO
100
AcDbPolyline
 62
7
  6
CONTINUOUS
 90
34
 70
0
 10
10.1693683051
 20
-23.7808123469
 10
10.1823927803
 20
-23.7810659243
 10
10.1953223525
 20
-23.7816913231
 10
10.2081229509
 20
-23.7826885432
 10
10.220773008
 20
-23.7840702086
 10
10.2332291583
 20
-23.7858236953
 10
10.2454276718
 20
-23.7879111318
 10
10.2573282941
 20
-23.7903336005
 10
10.2689186931
 20
-23.793090019
 10
10.280180678
 20
-23.7961392684
 10
10.2910918506
 20
-23.7994818273
 10
10.3016319554
 20
-23.8031172172
 10
10.3117878487
 20
-23.8070028832
 10
10.3215419902
 20
-23.8111388713
 10
10.3308787052
 20
-23.8155251356
 10
10.3397890397
 20
-23.8201189829
 10
10.3482598826
 20
-23.8249202083
 10
10.3562796149
 20
-23.8299290168
 10
10.3638425183
 20
-23.8351033302
 10
10.3709394107
 20
-23.8404428129
 10
10.3775623197
 20
-23.8459478005
 10
10.3837080637
 20
-23.8515772226
 10
10.3893709447
 20
-23.8573306731
 10
10.3945463018
 20
-23.8632085581
 10
10.3992330799
 20
-23.8691710246
 10
10.4034287048
 20
-23.875217609
 10
10.4071315551
 20
-23.8813487748
 10
10.4103425322
 20
-23.8875260599
 10
10.4130618992
 20
-23.8937489188
 10
10.4152908456
 20
-23.9000178969
 10
10.4170322084
 20
-23.9062961681
 10
10.4182889471
 20
-23.912571457
 10
10.4190646519
 20
-23.9188560391
 10
10.4193640743
 20
-23.9251499142
  0
LWPOLYLINE
  5
261
100
AcDbEntity
  8
RACCORDO
100
AcDbPolyline
 62
7
  6
CONTINUOUS
 90
22
 70
0
 10
4.0786699667
 20
-23.8761513138
 10
4.0678808433
 20
-23.8756039118
 10
4.0567933812
 20
-23.8741762419
 10
4.0454075803
 20
-23.8719488349
 10
4.0336988
 20
-23.8690102435
 10
4.021691681
 20
-23.8654362185
 10
4.0094601451
 20
-23.8612718602
 10
3.9970114048
 20
-23.8565767172
 10
3.9843382476
 20
-23.8514141566
 10
3.9714929575
 20
-23.8458076573
 10
3.9584798254
 20
-23.8398025789
 10
3.9452945603
 20
-23.8334489117
 10
3.9319765734
 20
-23.8267584052
 10
3.9185280863
 20
-23.8197666301
 10
3.9049468775
 20
-23.8125137391
 10
3.8912656927
 20
-23.8050060199
 10
3.8774855809
 20
-23.7972725348
 10
3.8636054932
 20
-23.7893462979
 10
3.8496550287
 20
-23.781231537
 10
3.8356344281
 20
-23.772952876
 10
3.8215434506
 20
-23.7645383062
 10
3.8074109732
 20
-23.7559920267
  0
LINE
  5
262
100
AcDbEntity
  8
RACCORDO
100
AcDbLine
 62
7
  6
CONTINUOUS
 10
-11.0910543489
 20
-22.4192868511
 11
-11.0735517564
 21
-22.4280374809
  0
LINE
  5
263
100
AcDbEntity
  8
RACCORDO
100
AcDbLine
 62
253
  6
CONTINUOUS
 10
-11.3675373469
 20
-21.9719902875
 11
-11.3501204445
 21
-21.9806980755
  0
LWPOLYLINE
  5
264
100
AcDbEntity
  8
RACCORDO
100
AcDbPolyline
 62
7
  6
CONTINUOUS
 90
27
 70
0
 10
-11.073574421
 20
-22.4280261487
 10
-11.0939952477
 20
-22.4172184706
 10
-11.1124759367
 20
-22.406357898
 10
-11.1305071619
 20
-22.3946931408
 10
-11.1480415632
 20
-22.3822499089
 10
-11.1650701453
 20
-22.36902804
 10
-11.1815824269
 20
-22.3550234239
 10
-11.1975150349
 20
-22.3402770822
 10
-11.2127843097
 20
-22.3248624636
 10
-11.2273598825
 20
-22.3088130059
 10
-11.2412187144
 20
-22.2921569811
 10
-11.2543021785
 20
-22.2749732594
 10
-11.266588269
 20
-22.2573067334
 10
-11.2780671941
 20
-22.2391883865
 10
-11.2887105108
 20
-22.2206836903
 10
-11.2985021274
 20
-22.2018489841
 10
-11.3074451943
 20
-22.1827087114
 10
-11.3155437402
 20
-22.1632810992
 10
-11.3227916573
 20
-22.1436070283
 10
-11.3291866268
 20
-22.1237218835
 10
-11.3347345494
 20
-22.1036328867
 10
-11.3394329703
 20
-22.0833693494
 10
-11.343277411
 20
-22.0629746109
 10
-11.3462681536
 20
-22.0424753486
 10
-11.3484049297
 20
-22.0219042088
 10
-11.3496882088
 20
-22.0012999898
 10
-11.3501204445
 20
-21.9806980755
  0
LINE
  5
265
100
AcDbEntity
  8
RACCORDO
100
AcDbLine
 62
253
  6
CONTINUOUS
 10
-8.7175331162
 20
-24.5808123469
 11
-8.7306316949
 21
-24.5677137682
  0
LWPOLYLINE
  5
266
100
AcDbEntity
  8
RACCORDO
100
AcDbPolyline
 62
253
  6
CONTINUOUS
 90
16
 70
0
 10
-11.200210386
 20
20.4610935096
 10
-11.1992463801
 20
20.4620612043
 10
-11.1971770228
 20
20.4630267552
 10
-11.1940068983
 20
20.4639880234
 10
-11.1897430295
 20
20.4649428794
 10
-11.1843948622
 20
20.4658892078
 10
-11.1779742441
 20
20.4668249121
 10
-11.1704953991
 20
20.4677479197
 10
-11.161974895
 20
20.4686561856
 10
-11.1524316075
 20
20.4695476979
 10
-11.1418866778
 20
20.4704204814
 10
-11.1303634664
 20
20.4712726028
 10
-11.1178875006
 20
20.4721021743
 10
-11.1044864187
 20
20.4729073582
 10
-11.0901899081
 20
20.4736863708
 10
-11.0750296402
 20
20.4744374862
  0
LINE
  5
267
100
AcDbEntity
  8
RACCORDO
100
AcDbLine
 62
253
  6
CONTINUOUS
 10
-8.4675373469
 20
24.1691918838
 11
-8.4806359257
 21
24.1560933051
  0
LINE
  5
268
100
AcDbEntity
  8
DRAFT
100
AcDbLine
 62
7
  6
CONTINUOUS
 10
-8.4675373469
 20
-22.4808123469
 11
-4.6175373469
 21
-22.4808123469
  0
LINE
  5
269
100
AcDbEntity
  8
DRAFT
100
AcDbLine
 62
7
  6
CONTINUOUS
 10
4.1824626531
 20
-22.4808123469
 11
8.0324626531
 21
-22.4808123469
  0
LINE
  5
26A
100
AcDbEntity
  8
RACCORDO
100
AcDbLine
 62
7
  6
CONTINUOUS
 10
-4.1146199703
 20
-22.4284045677
 11
3.6795452764
 21
-22.4284045677
  0
LINE
  5
26B
100
AcDbEntity
  8
RACCORDO
100
AcDbLine
 62
7
  6
CONTINUOUS
 10
10.1751861349
 20
-22.402200678
 11
8.2897391712
 21
-22.402200678
  0
LINE
  5
26C
100
AcDbEntity
  8
RACCORDO
100
AcDbLine
 62
7
  6
CONTINUOUS
 10
-8.7248138651
 20
-22.402200678
 11
-10.6102608288
 21
-22.402200678
  0
LINE
  5
26D
100
AcDbEntity
  8
RACCORDO
100
AcDbLine
 62
253
  6
CONTINUOUS
 10
10.2817386152
 20
-22.0795375689
 11
-10.7168133091
 21
-22.0795375689
  0
LWPOLYLINE
  5
26E
100
AcDbEntity
  8
RACCORDO
100
AcDbPolyline
 62
7
  6
CONTINUOUS
 90
11
 70
0
 10
-10.8675364861
 20
-22.4805035456
 10
-10.8890257442
 20
-22.4792860867
 10
-10.910480793
 20
-22.4771396509
 10
-10.9318612339
 20
-22.474063372
 10
-10.9531492584
 20
-22.4700533131
 10
-10.974280868
 20
-22.465115037
 10
-10.9951482436
 20
-22.4592734234
 10
-11.0156970478
 20
-22.4525491527
 10
-11.0359068397
 20
-22.4449544106
 10
-11.0557248057
 20
-22.4365147046
 10
-11.073574421
 20
-22.4280261487
  0
LWPOLYLINE
  5
26F
100
AcDbEntity
  8
RACCORDO
100
AcDbPolyline
 62
7
  6
CONTINUOUS
 90
13
 70
0
 10
10.391377993
 20
-22.4087231856
 10
10.396612335
 20
-22.4091774824
 10
10.40143234
 20
-22.4096207027
 10
10.4058286337
 20
-22.4100528464
 10
10.4097928905
 20
-22.4104658158
 10
10.4133169954
 20
-22.4108677086
 10
10.4163933741
 20
-22.4112828175
 10
10.4190161571
 20
-22.411714658
 10
10.4211803779
 20
-22.4121597146
 10
10.4228816304
 20
-22.4126317333
 10
10.4241168471
 20
-22.4131352962
 10
10.4248840204
 20
-22.4136658212
 10
10.4251819042
 20
-22.4142233084
  0
LINE
  5
270
100
AcDbEntity
  8
RACCORDO
100
AcDbLine
 62
253
  6
CONTINUOUS
 10
-8.4675373469
 20
-24.3308165777
 11
-8.4806359257
 21
-24.317717999
  0
LWPOLYLINE
  5
271
100
AcDbEntity
  8
RACCORDO
100
AcDbPolyline
 62
253
  6
CONTINUOUS
 90
17
 70
0
 10
-11.200210386
 20
-20.6227182034
 10
-11.1992463865
 20
-20.6236858983
 10
-11.197177035
 20
-20.6246514495
 10
-11.1940069161
 20
-20.6256127179
 10
-11.1897430523
 20
-20.6265675741
 10
-11.1843948896
 20
-20.6275139027
 10
-11.1779742757
 20
-20.6284496073
 10
-11.1704954344
 20
-20.6293726151
 10
-11.1619749336
 20
-20.6302808813
 10
-11.1524316489
 20
-20.6311723938
 10
-11.1418867216
 20
-20.6320451776
 10
-11.1303635121
 20
-20.6328972993
 10
-11.1178875478
 20
-20.6337268711
 10
-11.1044864668
 20
-20.6345320552
 10
-11.0901899569
 20
-20.635311068
 10
-11.0750296892
 20
-20.6360621837
 10
-11.0422540584
 20
-20.6374741333
  0
LINE
  5
272
100
AcDbEntity
  8
RACCORDO
100
AcDbLine
 62
253
  6
CONTINUOUS
 10
10.6399549174
 20
-20.6360621774
 11
10.607179288
 21
-20.6374741261
  0
LINE
  5
273
100
AcDbEntity
  8
RACCORDO
100
AcDbLine
 62
253
  6
CONTINUOUS
 10
10.607179288
 20
-20.6374741261
 11
10.5713750799
 21
-20.6387553914
  0
LINE
  5
274
100
AcDbEntity
  8
RACCORDO
100
AcDbLine
 62
253
  6
CONTINUOUS
 10
10.5713750799
 20
-20.6387553914
 11
10.5328593874
 21
-20.6398946258
  0
LINE
  5
275
100
AcDbEntity
  8
RACCORDO
100
AcDbLine
 62
253
  6
CONTINUOUS
 10
10.5328593874
 20
-20.6398946258
 11
10.4919733183
 21
-20.64088174
  0
LINE
  5
276
100
AcDbEntity
  8
RACCORDO
100
AcDbLine
 62
253
  6
CONTINUOUS
 10
10.4919733183
 20
-20.64088174
 11
10.4490789734
 21
-20.6417079917
  0
LINE
  5
277
100
AcDbEntity
  8
RACCORDO
100
AcDbLine
 62
253
  6
CONTINUOUS
 10
10.4490789734
 20
-20.6417079917
 11
10.3818069794
 21
-20.6426301507
  0
LINE
  5
278
100
AcDbEntity
  8
RACCORDO
100
AcDbLine
 62
253
  6
CONTINUOUS
 10
10.3818069794
 20
-20.6426301507
 11
10.3122137671
 21
-20.6431558952
  0
LINE
  5
279
100
AcDbEntity
  8
RACCORDO
100
AcDbLine
 62
253
  6
CONTINUOUS
 10
10.3122137671
 20
-20.6431558952
 11
-10.7002865385
 21
-20.6432806718
  0
LINE
  5
27A
100
AcDbEntity
  8
RACCORDO
100
AcDbLine
 62
253
  6
CONTINUOUS
 10
-10.7706592582
 20
-20.6430255156
 11
-10.7002865385
 21
-20.6432806717
  0
LINE
  5
27B
100
AcDbEntity
  8
RACCORDO
100
AcDbLine
 62
253
  6
CONTINUOUS
 10
-10.8396309715
 20
-20.6423660738
 11
-10.7706592582
 21
-20.6430255156
  0
LINE
  5
27C
100
AcDbEntity
  8
RACCORDO
100
AcDbLine
 62
253
  6
CONTINUOUS
 10
-10.8841537165
 20
-20.6417080017
 11
-10.8396309715
 21
-20.6423660738
  0
LINE
  5
27D
100
AcDbEntity
  8
RACCORDO
100
AcDbLine
 62
253
  6
CONTINUOUS
 10
-10.927048071
 20
-20.6408817494
 11
-10.8841537165
 21
-20.6417080017
  0
LINE
  5
27E
100
AcDbEntity
  8
RACCORDO
100
AcDbLine
 62
253
  6
CONTINUOUS
 10
-10.967934148
 20
-20.6398946345
 11
-10.927048071
 21
-20.6408817494
  0
LINE
  5
27F
100
AcDbEntity
  8
RACCORDO
100
AcDbLine
 62
253
  6
CONTINUOUS
 10
-11.0064498465
 20
-20.6387553993
 11
-10.967934148
 21
-20.6398946345
  0
LINE
  5
280
100
AcDbEntity
  8
RACCORDO
100
AcDbLine
 62
253
  6
CONTINUOUS
 10
-11.0422540584
 20
-20.6374741333
 11
-11.0064498465
 21
-20.6387553993
  0
LINE
  5
281
100
AcDbEntity
  8
RACCORDO
100
AcDbLine
 62
7
  6
CONTINUOUS
 10
3.7505532435
 20
23.5592633947
 11
3.6795452764
 21
23.5145300045
  0
LINE
  5
282
100
AcDbEntity
  8
RACCORDO
100
AcDbLine
 62
7
  6
CONTINUOUS
 10
3.7790208369
 20
23.5769688542
 11
3.7505532435
 21
23.5592633947
  0
LINE
  5
283
100
AcDbEntity
  8
RACCORDO
100
AcDbLine
 62
7
  6
CONTINUOUS
 10
3.8074109732
 20
-23.7559920267
 11
3.7790208369
 21
-23.738593548
  0
LINE
  5
284
100
AcDbEntity
  8
RACCORDO
100
AcDbLine
 62
7
  6
CONTINUOUS
 10
3.7790208369
 20
-23.738593548
 11
3.7363014684
 21
-23.7119661931
  0
LINE
  5
285
100
AcDbEntity
  8
RACCORDO
100
AcDbLine
 62
7
  6
CONTINUOUS
 10
3.7363014684
 20
-23.7119661931
 11
3.6795452764
 21
-23.6761546984
  0
LINE
  5
286
100
AcDbEntity
  8
RACCORDO
100
AcDbLine
 62
7
  6
CONTINUOUS
 10
4.1795368149
 20
23.7162618149
 11
4.1824626531
 21
23.7191876531
  0
LINE
  5
287
100
AcDbEntity
  8
RACCORDO
100
AcDbLine
 62
7
  6
CONTINUOUS
 10
4.1795368149
 20
-23.8778865087
 11
4.1824626531
 21
-23.8808123469
  0
LWPOLYLINE
  5
288
100
AcDbEntity
  8
RACCORDO
100
AcDbPolyline
 62
253
  6
CONTINUOUS
 90
31
 70
0
 10
-10.8544387682
 20
-24.317717999
 10
-10.8540957296
 20
-24.330801485
 10
-10.8530684398
 20
-24.3438491116
 10
-10.8513597142
 20
-24.3568251177
 10
-10.8489742362
 20
-24.3696939386
 10
-10.845918544
 20
-24.3824203031
 10
-10.8422010127
 20
-24.3949693308
 10
-10.8378318312
 20
-24.4073066271
 10
-10.8328229747
 20
-24.4193983777
 10
-10.8271881715
 20
-24.4312114415
 10
-10.8209428656
 20
-24.4427134411
 10
-10.8141041742
 20
-24.4538728516
 10
-10.8066908408
 20
-24.4646590872
 10
-10.7987231841
 20
-24.4750425848
 10
-10.7902230418
 20
-24.4849948853
 10
-10.7812137112
 20
-24.4944887112
 10
-10.7717198853
 20
-24.5034980418
 10
-10.7617675848
 20
-24.5119981841
 10
-10.7513840872
 20
-24.5199658408
 10
-10.7405978516
 20
-24.5273791742
 10
-10.7294384411
 20
-24.5342178656
 10
-10.7179364415
 20
-24.5404631715
 10
-10.7061233777
 20
-24.5460979747
 10
-10.6940316271
 20
-24.5511068312
 10
-10.6816943308
 20
-24.5554760127
 10
-10.6691453031
 20
-24.559193544
 10
-10.6564189386
 20
-24.5622492362
 10
-10.6435501177
 20
-24.5646347142
 10
-10.6305741116
 20
-24.5663434398
 10
-10.617526485
 20
-24.5673707296
 10
-10.604442999
 20
-24.5677137682
  0
LWPOLYLINE
  5
289
100
AcDbEntity
  8
RACCORDO
100
AcDbPolyline
 62
253
  6
CONTINUOUS
 90
34
 70
0
 10
-11.2167371567
 20
-21.5802228015
 10
-11.2161498565
 20
-21.6039673548
 10
-11.2144327138
 20
-21.627658182
 10
-11.2115896139
 20
-21.651241678
 10
-11.2076269897
 20
-21.6746644808
 10
-11.2025538073
 20
-21.697873592
 10
-11.1963815459
 20
-21.7208164965
 10
-11.1891241711
 20
-21.7434412817
 10
-11.1807981042
 20
-21.7656967548
 10
-11.1714221843
 20
-21.7875325586
 10
-11.1610176263
 20
-21.8088992854
 10
-11.1496079723
 20
-21.829748589
 10
-11.1372190387
 20
-21.8500332938
 10
-11.1238788579
 20
-21.869707502
 10
-11.1096176144
 20
-21.8887266968
 10
-11.094467577
 20
-21.9070478437
 10
-11.0784630254
 20
-21.9246294877
 10
-11.0616401729
 20
-21.9414318469
 10
-11.0440370844
 20
-21.9574169027
 10
-11.0256935902
 20
-21.9725484859
 10
-11.0066511958
 20
-21.9867923585
 10
-10.9869529883
 20
-22.0001162908
 10
-10.9666435385
 20
-22.0124901351
 10
-10.9457688005
 20
-22.023885893
 10
-10.9243760072
 20
-22.0342777794
 10
-10.9025135639
 20
-22.0436422808
 10
-10.8802309385
 20
-22.0519582082
 10
-10.8575785497
 20
-22.0592067451
 10
-10.8346076527
 20
-22.0653714903
 10
-10.8113702237
 20
-22.070438495
 10
-10.7879188417
 20
-22.074396294
 10
-10.7643065699
 20
-22.077235932
 10
-10.7405868356
 20
-22.0789509839
 10
-10.7168133091
 20
-22.0795375689
  0
LWPOLYLINE
  5
28A
100
AcDbEntity
  8
RACCORDO
100
AcDbPolyline
 62
7
  6
CONTINUOUS
 90
34
 70
0
 10
-10.8675373469
 20
-24.3308165777
 10
-10.8672541967
 20
-24.342711863
 10
-10.8664053812
 20
-24.3545802025
 10
-10.8649928211
 20
-24.3663947131
 10
-10.8630197147
 20
-24.3781286344
 10
-10.8604905287
 20
-24.3897553857
 10
-10.8574109886
 20
-24.4012486259
 10
-10.8537880683
 20
-24.4125823207
 10
-10.8496299727
 20
-24.4237307962
 10
-10.8449461191
 20
-24.4346687932
 10
-10.8397471158
 20
-24.4453715345
 10
-10.8340447386
 20
-24.4558147752
 10
-10.8278519051
 20
-24.4659748528
 10
-10.8211826424
 20
-24.4758287521
 10
-10.8140520576
 20
-24.4853541508
 10
-10.8064763058
 20
-24.494529466
 10
-10.7984725474
 20
-24.503333913
 10
-10.790058913
 20
-24.5117475474
 10
-10.781254466
 20
-24.5197513058
 10
-10.7720791508
 20
-24.5273270576
 10
-10.7625537521
 20
-24.5344576424
 10
-10.7526998528
 20
-24.5411269051
 10
-10.7425397752
 20
-24.5473197386
 10
-10.7320965345
 20
-24.5530221158
 10
-10.7213937932
 20
-24.5582211191
 10
-10.7104557962
 20
-24.5629049727
 10
-10.6993073207
 20
-24.5670630683
 10
-10.6879736259
 20
-24.5706859886
 10
-10.6764803857
 20
-24.5737655287
 10
-10.6648536344
 20
-24.5762947147
 10
-10.6531197131
 20
-24.5782678211
 10
-10.6413052025
 20
-24.5796803812
 10
-10.629436863
 20
-24.5805291967
 10
-10.6175415777
 20
-24.5808123469
  0
LINE
  5
28B
100
AcDbEntity
  8
RACCORDO
100
AcDbLine
 62
253
  6
CONTINUOUS
 10
-11.2048151546
 20
21.0976559766
 11
-11.2066007341
 21
21.1940784754
  0
LINE
  5
28C
100
AcDbEntity
  8
RACCORDO
100
AcDbLine
 62
253
  6
CONTINUOUS
 10
-11.2029431819
 20
20.9585206227
 11
-11.2048151546
 21
21.0976559766
  0
LINE
  5
28D
100
AcDbEntity
  8
RACCORDO
100
AcDbLine
 62
253
  6
CONTINUOUS
 10
-10.8544387682
 20
-23.9251499142
 11
-10.860256598
 21
-23.347799645
  0
LINE
  5
28E
100
AcDbEntity
  8
RACCORDO
100
AcDbLine
 62
253
  6
CONTINUOUS
 10
-10.604442999
 20
-23.7086435633
 11
-10.6095336001
 21
-23.2034620777
  0
LINE
  5
28F
100
AcDbEntity
  8
RACCORDO
100
AcDbLine
 62
253
  6
CONTINUOUS
 10
-11.201300229
 20
20.7700562168
 11
-11.2029431819
 21
20.9585206227
  0
LINE
  5
290
100
AcDbEntity
  8
RACCORDO
100
AcDbLine
 62
253
  6
CONTINUOUS
 10
-11.2003040435
 20
20.5312475213
 11
-11.201300229
 21
20.7700562168
  0
LINE
  5
291
100
AcDbEntity
  8
RACCORDO
100
AcDbLine
 62
253
  6
CONTINUOUS
 10
-11.1976683035
 20
16.5499266437
 11
-11.2003040435
 21
20.5312475213
  0
LINE
  5
292
100
AcDbEntity
  8
RACCORDO
100
AcDbLine
 62
253
  6
CONTINUOUS
 10
-11.1948583895
 20
10.6814262452
 11
-11.1976683035
 21
16.5499266437
  0
LINE
  5
293
100
AcDbEntity
  8
RACCORDO
100
AcDbLine
 62
253
  6
CONTINUOUS
 10
-11.1936540455
 20
6.7682165483
 11
-11.1948583895
 21
10.6814262452
  0
LINE
  5
294
100
AcDbEntity
  8
RACCORDO
100
AcDbLine
 62
7
  6
CONTINUOUS
 10
-11.3675373469
 20
-21.9719902875
 11
-11.3675373469
 21
21.8103655937
  0
LINE
  5
295
100
AcDbEntity
  8
RACCORDO
100
AcDbLine
 62
7
  6
CONTINUOUS
 10
-10.8675373469
 20
-22.4805023149
 11
-10.8675373469
 21
-24.3308165777
  0
LINE
  5
296
100
AcDbEntity
  8
RACCORDO
100
AcDbLine
 62
7
  6
CONTINUOUS
 10
-10.8675373469
 20
22.318877621
 11
-10.8675373469
 21
24.1691918838
  0
LINE
  5
297
100
AcDbEntity
  8
RACCORDO
100
AcDbLine
 62
253
  6
CONTINUOUS
 10
-10.860256598
 20
23.1861749512
 11
-10.860256598
 21
22.2525986145
  0
LINE
  5
298
100
AcDbEntity
  8
RACCORDO
100
AcDbLine
 62
253
  6
CONTINUOUS
 10
-10.860256598
 20
-22.4142233084
 11
-10.860256598
 21
-23.347799645
  0
LINE
  5
299
100
AcDbEntity
  8
RACCORDO
100
AcDbLine
 62
253
  6
CONTINUOUS
 10
-10.8544387682
 20
24.1560933051
 11
-10.8544387682
 21
23.7635252204
  0
LINE
  5
29A
100
AcDbEntity
  8
RACCORDO
100
AcDbLine
 62
253
  6
CONTINUOUS
 10
-10.8544387682
 20
-23.9251499142
 11
-10.8544387682
 21
-24.317717999
  0
LINE
  5
29B
100
AcDbEntity
  8
RACCORDO
100
AcDbLine
 62
253
  6
CONTINUOUS
 10
-11.1932525791
 20
-4.9730341389
 11
-11.1936540455
 21
6.7682165483
  0
LINE
  5
29C
100
AcDbEntity
  8
RACCORDO
100
AcDbLine
 62
253
  6
CONTINUOUS
 10
-11.1948583897
 20
-10.8430513978
 11
-11.1932525791
 21
-4.9730341389
  0
LINE
  5
29D
100
AcDbEntity
  8
RACCORDO
100
AcDbLine
 62
253
  6
CONTINUOUS
 10
-11.1965979094
 20
-14.7556303516
 11
-11.1948583897
 21
-10.8430513978
  0
LINE
  5
29E
100
AcDbEntity
  8
RACCORDO
100
AcDbLine
 62
253
  6
CONTINUOUS
 10
-11.1988724626
 20
-18.6672476318
 11
-11.1965979094
 21
-14.7556303516
  0
LINE
  5
29F
100
AcDbEntity
  8
RACCORDO
100
AcDbLine
 62
253
  6
CONTINUOUS
 10
-11.2009110122
 20
-20.8649393258
 11
-11.1988724626
 21
-18.6672476318
  0
LINE
  5
2A0
100
AcDbEntity
  8
RACCORDO
100
AcDbLine
 62
253
  6
CONTINUOUS
 10
-11.2023185379
 20
-21.0595549075
 11
-11.2009110122
 21
-20.8649393258
  0
LINE
  5
2A1
100
AcDbEntity
  8
RACCORDO
100
AcDbLine
 62
253
  6
CONTINUOUS
 10
-10.860256598
 20
23.1861749512
 11
-10.8544387682
 21
23.7635252204
  0
LINE
  5
2A2
100
AcDbEntity
  8
RACCORDO
100
AcDbLine
 62
253
  6
CONTINUOUS
 10
-10.6095336001
 20
23.0418373839
 11
-10.604442999
 21
23.5470188694
  0
LINE
  5
2A3
100
AcDbEntity
  8
RACCORDO
100
AcDbLine
 62
253
  6
CONTINUOUS
 10
-11.2040149852
 20
-21.2058882635
 11
-11.2023185379
 21
-21.0595549075
  0
LINE
  5
2A4
100
AcDbEntity
  8
RACCORDO
100
AcDbLine
 62
253
  6
CONTINUOUS
 10
-11.2056778245
 20
-21.3092626626
 11
-11.2040149852
 21
-21.2058882635
  0
LINE
  5
2A5
100
AcDbEntity
  8
RACCORDO
100
AcDbLine
 62
253
  6
CONTINUOUS
 10
-11.2066004796
 20
-21.3556912555
 11
-11.2056778245
 21
-21.3092626626
  0
LWPOLYLINE
  5
2A6
100
AcDbEntity
  8
RACCORDO
100
AcDbPolyline
 62
7
  6
CONTINUOUS
 90
27
 70
0
 10
-11.3501204445
 20
21.8190733816
 10
-11.3496882088
 20
21.8396752959
 10
-11.3484049297
 20
21.8602795149
 10
-11.3462681536
 20
21.8808506548
 10
-11.343277411
 20
21.901349917
 10
-11.3394329703
 20
21.9217446555
 10
-11.3347345494
 20
21.9420081928
 10
-11.3291866268
 20
21.9620971896
 10
-11.3227916573
 20
21.9819823344
 10
-11.3155437402
 20
22.0016564053
 10
-11.3074451943
 20
22.0210840175
 10
-11.2985021274
 20
22.0402242902
 10
-11.2887105108
 20
22.0590589964
 10
-11.2780671941
 20
22.0775636926
 10
-11.266588269
 20
22.0956820396
 10
-11.2543021785
 20
22.1133485656
 10
-11.2412187144
 20
22.1305322872
 10
-11.2273598825
 20
22.1471883121
 10
-11.2127843097
 20
22.1632377697
 10
-11.1975150349
 20
22.1786523883
 10
-11.1815824269
 20
22.19339873
 10
-11.1650701453
 20
22.2074033461
 10
-11.1480415632
 20
22.220625215
 10
-11.1305071619
 20
22.2330684469
 10
-11.1124759367
 20
22.2447332041
 10
-11.0939952477
 20
22.2555937767
 10
-11.073574421
 20
22.2664014548
  0
LWPOLYLINE
  5
2A7
100
AcDbEntity
  8
RACCORDO
100
AcDbPolyline
 62
253
  6
CONTINUOUS
 90
34
 70
0
 10
-11.2167371567
 20
21.4185981077
 10
-11.2161498563
 20
21.4423426662
 10
-11.2144327128
 20
21.4660334982
 10
-11.2115896118
 20
21.4896169987
 10
-11.2076269861
 20
21.5130398055
 10
-11.2025538019
 20
21.5362489202
 10
-11.1963815385
 20
21.5591918278
 10
-11.1891241615
 20
21.5818166156
 10
-11.1807980922
 20
21.6040720908
 10
-11.17142217
 20
21.6259078962
 10
-11.1610176095
 20
21.6472746241
 10
-11.1496079531
 20
21.6681239283
 10
-11.1372190173
 20
21.6884086333
 10
-11.1238788344
 20
21.7080828411
 10
-11.109617589
 20
21.7271020352
 10
-11.0944675499
 20
21.7454231811
 10
-11.078462997
 20
21.7630048236
 10
-11.0616401434
 20
21.7798071811
 10
-11.0440370543
 20
21.7957922349
 10
-11.0256935597
 20
21.810923816
 10
-11.0066511654
 20
21.8251676863
 10
-10.9869529583
 20
21.8384916163
 10
-10.9666435093
 20
21.8508654581
 10
-10.9457687725
 20
21.8622612135
 10
-10.9243759808
 20
21.8726530976
 10
-10.9025135394
 20
21.8820175968
 10
-10.8802309163
 20
21.890333522
 10
-10.85757853
 20
21.897582057
 10
-10.8346076359
 20
21.9037468005
 10
-10.81137021
 20
21.9088138038
 10
-10.7879188312
 20
21.9127716016
 10
-10.7643065628
 20
21.9156112388
 10
-10.740586832
 20
21.9173262902
 10
-10.7168133091
 20
21.917912875
  0
LINE
  5
2A8
100
AcDbEntity
  8
RACCORDO
100
AcDbLine
 62
7
  6
CONTINUOUS
 10
-8.4675373469
 20
22.3191876531
 11
-8.4748180958
 21
22.2536017054
  0
LINE
  5
2A9
100
AcDbEntity
  8
RACCORDO
100
AcDbLine
 62
7
  6
CONTINUOUS
 10
-8.4675373469
 20
-22.4808123469
 11
-8.4748180958
 21
-22.4152263992
  0
LWPOLYLINE
  5
2AA
100
AcDbEntity
  8
RACCORDO
100
AcDbPolyline
 62
7
  6
CONTINUOUS
 90
34
 70
0
 10
-8.4748180958
 20
-23.347799645
 10
-8.4751158222
 20
-23.341558066
 10
-8.4758870736
 20
-23.3352849549
 10
-8.4771374364
 20
-23.3289985389
 10
-8.4788714836
 20
-23.3227245068
 10
-8.4810929264
 20
-23.3164749685
 10
-8.4838049464
 20
-23.3102484845
 10
-8.4870094432
 20
-23.304065547
 10
-8.4907073678
 20
-23.2979459168
 10
-8.4948996188
 20
-23.2918877603
 10
-8.499585103
 20
-23.2859125836
 10
-8.5047617449
 20
-23.2800411759
 10
-8.5104281157
 20
-23.274271354
 10
-8.5165798995
 20
-23.2686253731
 10
-8.5232116819
 20
-23.26312488
 10
-8.5303194847
 20
-23.2577675442
 10
-8.5378954803
 20
-23.2525760919
 10
-8.5459305623
 20
-23.2475727831
 10
-8.5544177878
 20
-23.2427553691
 10
-8.5633454973
 20
-23.2381466757
 10
-8.572700476
 20
-23.2337692669
 10
-8.5824721506
 20
-23.229621219
 10
-8.5926446619
 20
-23.22572496
 10
-8.6032002489
 20
-23.2221029172
 10
-8.6141238497
 20
-23.218753681
 10
-8.6253949073
 20
-23.2156986479
 10
-8.6369908318
 20
-23.2129594416
 10
-8.6488915295
 20
-23.2105351602
 10
-8.6610583572
 20
-23.2084483595
 10
-8.6734764121
 20
-23.2067149005
 10
-8.6861604062
 20
-23.2053287795
 10
-8.6990951168
 20
-23.2043056975
 10
-8.7122336183
 20
-23.2036765077
 10
-8.7255410938
 20
-23.2034620777
  0
LWPOLYLINE
  5
2AB
100
AcDbEntity
  8
RACCORDO
100
AcDbPolyline
 62
253
  6
CONTINUOUS
 90
10
 70
0
 10
-11.2113566505
 20
21.3526949329
 10
-11.2119329237
 20
21.3647928452
 10
-11.2125169831
 20
21.3757377223
 10
-11.2131066502
 20
21.3854888316
 10
-11.2137019729
 20
21.3940417362
 10
-11.2143029032
 20
21.4014008731
 10
-11.214907119
 20
21.4075388208
 10
-11.2155138461
 20
21.4124464389
 10
-11.2161238587
 20
21.4161328679
 10
-11.2167371567
 20
21.4185981077
  0
LWPOLYLINE
  5
2AC
100
AcDbEntity
  8
RACCORDO
100
AcDbPolyline
 62
253
  6
CONTINUOUS
 90
8
 70
0
 10
-10.7125923947
 20
21.8535990262
 10
-10.713182017
 20
21.8682301315
 10
-10.7137772433
 20
21.8810690493
 10
-10.7143780718
 20
21.8921003215
 10
-10.7149823118
 20
21.9013107226
 10
-10.7155892329
 20
21.9086888118
 10
-10.7161995653
 20
21.9142251908
 10
-10.7168133091
 20
21.917912875
  0
LINE
  5
2AD
100
AcDbEntity
  8
RACCORDO
100
AcDbLine
 62
253
  6
CONTINUOUS
 10
-11.2102275336
 20
21.3250316194
 11
-11.2113566505
 21
21.3526949329
  0
LWPOLYLINE
  5
2AE
100
AcDbEntity
  8
RACCORDO
100
AcDbPolyline
 62
253
  6
CONTINUOUS
 90
31
 70
0
 10
-10.8544387682
 20
23.7635252204
 10
-10.8540602126
 20
23.7522272481
 10
-10.853001085
 20
23.7409569441
 10
-10.8512637085
 20
23.7297450742
 10
-10.8488520071
 20
23.7186212651
 10
-10.8457721368
 20
23.7076170131
 10
-10.8420330858
 20
23.6967654733
 10
-10.8376455415
 20
23.6860973503
 10
-10.8326211424
 20
23.6756406769
 10
-10.8269734618
 20
23.6654237581
 10
-10.8207177693
 20
23.655474353
 10
-10.8138711947
 20
23.6458198284
 10
-10.8064525864
 20
23.636486805
 10
-10.7984822824
 20
23.6275008548
 10
-10.7899819876
 20
23.6188864356
 10
-10.7809748971
 20
23.6106670572
 10
-10.7714855934
 20
23.6028651606
 10
-10.7615400063
 20
23.5955020724
 10
-10.7511653234
 20
23.5885979235
 10
-10.740389891
 20
23.5821715769
 10
-10.729243133
 20
23.57624058
 10
-10.717755496
 20
23.5708211326
 10
-10.7059583393
 20
23.5659280306
 10
-10.6938839028
 20
23.5615746475
 10
-10.6815652232
 20
23.5577728902
 10
-10.6690359878
 20
23.5545331437
 10
-10.656330385
 20
23.5518642373
 10
-10.6434830642
 20
23.5497734449
 10
-10.6305290969
 20
23.5482664749
 10
-10.6175038832
 20
23.5473474465
 10
-10.604442999
 20
23.5470188694
  0
LWPOLYLINE
  5
2AF
100
AcDbEntity
  8
RACCORDO
100
AcDbPolyline
 62
253
  6
CONTINUOUS
 90
31
 70
0
 10
-8.4806359257
 20
-23.9251499142
 10
-8.4810152574
 20
-23.9138397637
 10
-8.4820762393
 20
-23.9025604989
 10
-8.4838159742
 20
-23.891342921
 10
-8.4862297111
 20
-23.8802176629
 10
-8.4893108587
 20
-23.8692151054
 10
-8.493051003
 20
-23.8583652941
 10
-8.4974399304
 20
-23.8476978577
 10
-8.5024656557
 20
-23.8372419266
 10
-8.5081144546
 20
-23.8270260538
 10
-8.5143709016
 20
-23.8170781368
 10
-8.5212179115
 20
-23.8074253411
 10
-8.5286367866
 20
-23.7980940266
 10
-8.5366072676
 20
-23.7891096751
 10
-8.5451075886
 20
-23.7804968211
 10
-8.5541145371
 20
-23.7722789844
 10
-8.563603517
 20
-23.7644786061
 10
-8.5735486159
 20
-23.7571169876
 10
-8.5839226758
 20
-23.7502142318
 10
-8.5946973674
 20
-23.7437891888
 10
-8.6058432671
 20
-23.7378594039
 10
-8.6173299379
 20
-23.7324410702
 10
-8.629126012
 20
-23.727548984
 10
-8.641199277
 20
-23.7231965045
 10
-8.6535167631
 20
-23.7193955176
 10
-8.666044834
 20
-23.7161564028
 10
-8.6787492781
 20
-23.7134880056
 10
-8.6915954022
 20
-23.7113976127
 10
-8.7045481262
 20
-23.7098909326
 10
-8.717572079
 20
-23.7089720798
 10
-8.7306316949
 20
-23.7086435633
  0
LINE
  5
2B0
100
AcDbEntity
  8
RACCORDO
100
AcDbLine
 62
253
  6
CONTINUOUS
 10
-11.2091358121
 20
21.2929120112
 11
-11.2102275336
 21
21.3250316194
  0
LINE
  5
2B1
100
AcDbEntity
  8
RACCORDO
100
AcDbLine
 62
253
  6
CONTINUOUS
 10
-10.7114321436
 20
21.8190357739
 11
-10.7125923947
 21
21.8535990262
  0
LINE
  5
2B2
100
AcDbEntity
  8
RACCORDO
100
AcDbLine
 62
253
  6
CONTINUOUS
 10
-10.7103031275
 20
21.7775523412
 11
-10.7114321436
 21
21.8190357739
  0
LINE
  5
2B3
100
AcDbEntity
  8
RACCORDO
100
AcDbLine
 62
253
  6
CONTINUOUS
 10
-11.2075781569
 20
21.2366712269
 11
-11.2091358121
 21
21.2929120112
  0
LINE
  5
2B4
100
AcDbEntity
  8
RACCORDO
100
AcDbLine
 62
253
  6
CONTINUOUS
 10
-11.2066007341
 20
21.1940784754
 11
-11.2075781569
 21
21.2366712269
  0
LINE
  5
2B5
100
AcDbEntity
  8
RACCORDO
100
AcDbLine
 62
253
  6
CONTINUOUS
 10
-10.7086804941
 20
21.7028085757
 11
-10.7103031275
 21
21.7775523412
  0
LINE
  5
2B6
100
AcDbEntity
  8
RACCORDO
100
AcDbLine
 62
253
  6
CONTINUOUS
 10
-10.706676653
 20
21.5811164779
 11
-10.7086804941
 21
21.7028085757
  0
LINE
  5
2B7
100
AcDbEntity
  8
RACCORDO
100
AcDbLine
 62
253
  6
CONTINUOUS
 10
-10.7040913359
 20
21.3564323453
 11
-10.706676653
 21
21.5811164779
  0
LINE
  5
2B8
100
AcDbEntity
  8
RACCORDO
100
AcDbLine
 62
253
  6
CONTINUOUS
 10
-10.7016014868
 20
20.9942199194
 11
-10.7040913359
 21
21.3564323453
  0
LINE
  5
2B9
100
AcDbEntity
  8
RACCORDO
100
AcDbLine
 62
253
  6
CONTINUOUS
 10
-10.7002865385
 20
20.4816559779
 11
-10.7016014868
 21
20.9942199194
  0
LINE
  5
2BA
100
AcDbEntity
  8
RACCORDO
100
AcDbLine
 62
253
  6
CONTINUOUS
 10
-10.6977444556
 20
16.5666135207
 11
-10.7002865385
 21
20.4816559779
  0
LINE
  5
2BB
100
AcDbEntity
  8
RACCORDO
100
AcDbLine
 62
253
  6
CONTINUOUS
 10
-10.6949345417
 20
10.6922087921
 11
-10.6977444556
 21
16.5666135207
  0
LINE
  5
2BC
100
AcDbEntity
  8
RACCORDO
100
AcDbLine
 62
253
  6
CONTINUOUS
 10
-10.6937301979
 20
6.7750622088
 11
-10.6949345417
 21
10.6922087921
  0
LINE
  5
2BD
100
AcDbEntity
  8
RACCORDO
100
AcDbLine
 62
253
  6
CONTINUOUS
 10
-10.6102608288
 20
23.0418373839
 11
-10.6102608288
 21
22.2405759841
  0
LINE
  5
2BE
100
AcDbEntity
  8
RACCORDO
100
AcDbLine
 62
253
  6
CONTINUOUS
 10
-10.6102608288
 20
-22.402200678
 11
-10.6102608288
 21
-23.2034620777
  0
LINE
  5
2BF
100
AcDbEntity
  8
RACCORDO
100
AcDbLine
 62
253
  6
CONTINUOUS
 10
-10.604442999
 20
-23.7086435633
 11
-10.604442999
 21
-24.5677137682
  0
LINE
  5
2C0
100
AcDbEntity
  8
RACCORDO
100
AcDbLine
 62
253
  6
CONTINUOUS
 10
-10.604442999
 20
23.5470188694
 11
-10.604442999
 21
24.4060890743
  0
LINE
  5
2C1
100
AcDbEntity
  8
RACCORDO
100
AcDbLine
 62
253
  6
CONTINUOUS
 10
-10.6933287315
 20
-4.9779407543
 11
-10.6937301979
 21
6.7750622088
  0
LINE
  5
2C2
100
AcDbEntity
  8
RACCORDO
100
AcDbLine
 62
253
  6
CONTINUOUS
 10
-10.6949345417
 20
-10.8538334858
 11
-10.6933287315
 21
-4.9779407543
  0
LINE
  5
2C3
100
AcDbEntity
  8
RACCORDO
100
AcDbLine
 62
253
  6
CONTINUOUS
 10
-10.6966740612
 20
-14.7703187238
 11
-10.6949345417
 21
-10.8538334858
  0
LINE
  5
2C4
100
AcDbEntity
  8
RACCORDO
100
AcDbLine
 62
253
  6
CONTINUOUS
 10
-10.6989486147
 20
-18.6859022131
 11
-10.6966740612
 21
-14.7703187238
  0
LINE
  5
2C5
100
AcDbEntity
  8
RACCORDO
100
AcDbLine
 62
253
  6
CONTINUOUS
 10
-10.7016014819
 20
-21.1558441685
 11
-10.6989486147
 21
-18.6859022131
  0
LINE
  5
2C6
100
AcDbEntity
  8
RACCORDO
100
AcDbLine
 62
253
  6
CONTINUOUS
 10
-10.7040913261
 20
-21.5180566974
 11
-10.7016014819
 21
-21.1558441685
  0
LINE
  5
2C7
100
AcDbEntity
  8
RACCORDO
100
AcDbLine
 62
253
  6
CONTINUOUS
 10
-10.7066766405
 20
-21.7427408923
 11
-10.7040913261
 21
-21.5180566974
  0
LINE
  5
2C8
100
AcDbEntity
  8
RACCORDO
100
AcDbLine
 62
253
  6
CONTINUOUS
 10
-10.7086804811
 20
-21.8644330203
 11
-10.7066766405
 21
-21.7427408923
  0
LINE
  5
2C9
100
AcDbEntity
  8
RACCORDO
100
AcDbLine
 62
253
  6
CONTINUOUS
 10
-10.7103031141
 20
-21.9391768143
 11
-10.7086804811
 21
-21.8644330203
  0
LINE
  5
2CA
100
AcDbEntity
  8
RACCORDO
100
AcDbLine
 62
253
  6
CONTINUOUS
 10
-11.2080852593
 20
-21.4180697483
 11
-11.2066004796
 21
-21.3556912555
  0
LINE
  5
2CB
100
AcDbEntity
  8
RACCORDO
100
AcDbLine
 62
253
  6
CONTINUOUS
 10
-10.7114321304
 20
-21.980660292
 11
-10.7103031141
 21
-21.9391768143
  0
LINE
  5
2CC
100
AcDbEntity
  8
RACCORDO
100
AcDbLine
 62
253
  6
CONTINUOUS
 10
-11.2091355435
 20
-21.4545281292
 11
-11.2080852593
 21
-21.4180697483
  0
LWPOLYLINE
  5
2CD
100
AcDbEntity
  8
RACCORDO
100
AcDbPolyline
 62
253
  6
CONTINUOUS
 90
31
 70
0
 10
-10.8544387682
 20
-23.9251499142
 10
-10.8540594365
 20
-23.9138397637
 10
-10.8529984545
 20
-23.9025604989
 10
-10.8512587197
 20
-23.891342921
 10
-10.8488449827
 20
-23.8802176629
 10
-10.8457638352
 20
-23.8692151054
 10
-10.8420236909
 20
-23.8583652941
 10
-10.8376347635
 20
-23.8476978577
 10
-10.8326090382
 20
-23.8372419266
 10
-10.8269602392
 20
-23.8270260538
 10
-10.8207037923
 20
-23.8170781368
 10
-10.8138567824
 20
-23.8074253411
 10
-10.8064379072
 20
-23.7980940266
 10
-10.7984674263
 20
-23.7891096751
 10
-10.7899671053
 20
-23.7804968211
 10
-10.7809601568
 20
-23.7722789844
 10
-10.7714711768
 20
-23.7644786061
 10
-10.7615260779
 20
-23.7571169876
 10
-10.751152018
 20
-23.7502142318
 10
-10.7403773265
 20
-23.7437891888
 10
-10.7292314268
 20
-23.7378594039
 10
-10.717744756
 20
-23.7324410702
 10
-10.7059486818
 20
-23.727548984
 10
-10.6938754169
 20
-23.7231965045
 10
-10.6815579308
 20
-23.7193955176
 10
-10.6690298599
 20
-23.7161564028
 10
-10.6563254158
 20
-23.7134880056
 10
-10.6434792917
 20
-23.7113976127
 10
-10.6305265677
 20
-23.7098909326
 10
-10.6175026149
 20
-23.7089720798
 10
-10.604442999
 20
-23.7086435633
  0
LWPOLYLINE
  5
2CE
100
AcDbEntity
  8
RACCORDO
100
AcDbPolyline
 62
253
  6
CONTINUOUS
 90
31
 70
0
 10
-8.4806359257
 20
23.7635252204
 10
-8.4810144813
 20
23.7522272481
 10
-8.4820736089
 20
23.7409569441
 10
-8.4838109854
 20
23.7297450742
 10
-8.4862226868
 20
23.7186212651
 10
-8.489302557
 20
23.7076170131
 10
-8.493041608
 20
23.6967654733
 10
-8.4974291524
 20
23.6860973503
 10
-8.5024535514
 20
23.6756406769
 10
-8.508101232
 20
23.6654237581
 10
-8.5143569246
 20
23.655474353
 10
-8.5212034992
 20
23.6458198284
 10
-8.5286221075
 20
23.636486805
 10
-8.5365924115
 20
23.6275008548
 10
-8.5450927063
 20
23.6188864356
 10
-8.5540997968
 20
23.6106670572
 10
-8.5635891004
 20
23.6028651606
 10
-8.5735346876
 20
23.5955020724
 10
-8.5839093704
 20
23.5885979235
 10
-8.5946848028
 20
23.5821715769
 10
-8.6058315608
 20
23.57624058
 10
-8.6173191979
 20
23.5708211326
 10
-8.6291163546
 20
23.5659280306
 10
-8.6411907911
 20
23.5615746475
 10
-8.6535094707
 20
23.5577728902
 10
-8.666038706
 20
23.5545331437
 10
-8.6787443089
 20
23.5518642373
 10
-8.6915916297
 20
23.5497734449
 10
-8.7045455969
 20
23.5482664749
 10
-8.7175708107
 20
23.5473474465
 10
-8.7306316949
 20
23.5470188694
  0
LINE
  5
2CF
100
AcDbEntity
  8
RACCORDO
100
AcDbLine
 62
253
  6
CONTINUOUS
 10
-11.2102272628
 20
-21.4866490431
 11
-11.2091355435
 21
-21.4545281292
  0
LWPOLYLINE
  5
2D0
100
AcDbEntity
  8
RACCORDO
100
AcDbPolyline
 62
7
  6
CONTINUOUS
 90
34
 70
0
 10
-10.860256598
 20
-23.347799645
 10
-10.8599588717
 20
-23.341558066
 10
-10.8591876203
 20
-23.3352849549
 10
-10.8579372575
 20
-23.3289985389
 10
-10.8562032102
 20
-23.3227245068
 10
-10.8539817675
 20
-23.3164749685
 10
-10.8512697475
 20
-23.3102484845
 10
-10.8480652507
 20
-23.304065547
 10
-10.8443673261
 20
-23.2979459168
 10
-10.8401750751
 20
-23.2918877603
 10
-10.8354895909
 20
-23.2859125836
 10
-10.830312949
 20
-23.2800411759
 10
-10.8246465782
 20
-23.274271354
 10
-10.8184947944
 20
-23.2686253731
 10
-10.811863012
 20
-23.26312488
 10
-10.8047552092
 20
-23.2577675442
 10
-10.7971792136
 20
-23.2525760919
 10
-10.7891441316
 20
-23.2475727831
 10
-10.7806569061
 20
-23.2427553691
 10
-10.7717291966
 20
-23.2381466757
 10
-10.7623742178
 20
-23.2337692669
 10
-10.7526025432
 20
-23.229621219
 10
-10.742430032
 20
-23.22572496
 10
-10.7318744449
 20
-23.2221029172
 10
-10.7209508441
 20
-23.218753681
 10
-10.7096797866
 20
-23.2156986479
 10
-10.6980838621
 20
-23.2129594416
 10
-10.6861831644
 20
-23.2105351602
 10
-10.6740163366
 20
-23.2084483595
 10
-10.6615982817
 20
-23.2067149005
 10
-10.6489142877
 20
-23.2053287795
 10
-10.6359795771
 20
-23.2043056975
 10
-10.6228410755
 20
-23.2036765077
 10
-10.6095336001
 20
-23.2034620777
  0
LWPOLYLINE
  5
2D1
100
AcDbEntity
  8
RACCORDO
100
AcDbPolyline
 62
7
  6
CONTINUOUS
 90
34
 70
0
 10
-8.4748180958
 20
23.1861749512
 10
-8.4751158222
 20
23.1799333721
 10
-8.4758870736
 20
23.173660261
 10
-8.4771374364
 20
23.167373845
 10
-8.4788714836
 20
23.1610998129
 10
-8.4810929264
 20
23.1548502746
 10
-8.4838049464
 20
23.1486237906
 10
-8.4870094432
 20
23.1424408532
 10
-8.4907073678
 20
23.136321223
 10
-8.4948996188
 20
23.1302630665
 10
-8.499585103
 20
23.1242878897
 10
-8.5047617449
 20
23.1184164821
 10
-8.5104281157
 20
23.1126466602
 10
-8.5165798995
 20
23.1070006792
 10
-8.5232116819
 20
23.1015001861
 10
-8.5303194847
 20
23.0961428504
 10
-8.5378954803
 20
23.090951398
 10
-8.5459305623
 20
23.0859480893
 10
-8.5544177878
 20
23.0811306752
 10
-8.5633454973
 20
23.0765219818
 10
-8.572700476
 20
23.072144573
 10
-8.5824721506
 20
23.0679965251
 10
-8.5926446619
 20
23.0641002661
 10
-8.6032002489
 20
23.0604782233
 10
-8.6141238497
 20
23.0571289871
 10
-8.6253949073
 20
23.054073954
 10
-8.6369908318
 20
23.0513347477
 10
-8.6488915295
 20
23.0489104663
 10
-8.6610583572
 20
23.0468236656
 10
-8.6734764121
 20
23.0450902066
 10
-8.6861604062
 20
23.0437040856
 10
-8.6990951168
 20
23.0426810036
 10
-8.7122336183
 20
23.0420518138
 10
-8.7255410938
 20
23.0418373839
  0
LINE
  5
2D2
100
AcDbEntity
  8
RACCORDO
100
AcDbLine
 62
253
  6
CONTINUOUS
 10
10.1824668838
 20
24.4191876531
 11
10.1693683051
 21
24.4060890743
  0
LINE
  5
2D3
100
AcDbEntity
  8
RACCORDO
100
AcDbLine
 62
253
  6
CONTINUOUS
 10
10.4324626531
 20
24.1691918838
 11
10.4193640743
 21
24.1560933051
  0
LINE
  5
2D4
100
AcDbEntity
  8
RACCORDO
100
AcDbLine
 62
253
  6
CONTINUOUS
 10
10.1824668838
 20
-24.5808123469
 11
10.1693683051
 21
-24.5677137682
  0
LINE
  5
2D5
100
AcDbEntity
  8
RACCORDO
100
AcDbLine
 62
253
  6
CONTINUOUS
 10
10.4324626531
 20
-24.3308165777
 11
10.4193640743
 21
-24.317717999
  0
LINE
  5
2D6
100
AcDbEntity
  8
RACCORDO
100
AcDbLine
 62
7
  6
CONTINUOUS
 10
-10.8675373469
 20
22.3188957302
 11
-10.860256598
 21
22.2525986145
  0
LWPOLYLINE
  5
2D7
100
AcDbEntity
  8
RACCORDO
100
AcDbPolyline
 62
253
  6
CONTINUOUS
 90
31
 70
0
 10
-8.4806359257
 20
24.1560933051
 10
-8.4809773329
 20
24.1691456451
 10
-8.4820005955
 20
24.1821705395
 10
-8.4837041997
 20
24.1951323141
 10
-8.4860853298
 20
24.2079980328
 10
-8.4891384433
 20
24.220729498
 10
-8.492853883
 20
24.2332836826
 10
-8.4972204341
 20
24.2456234865
 10
-8.502226864
 20
24.2577178426
 10
-8.5078596126
 20
24.2695339209
 10
-8.5141034142
 20
24.2810395213
 10
-8.520941096
 20
24.2922028397
 10
-8.5283537261
 20
24.3029929189
 10
-8.5363208683
 20
24.3133800448
 10
-8.5448207652
 20
24.3233358819
 10
-8.5538301871
 20
24.3328332164
 10
-8.5633244802
 20
24.3418460355
 10
-8.5732775836
 20
24.350349577
 10
-8.5836621729
 20
24.3583204852
 10
-8.5944497632
 20
24.365736892
 10
-8.6056107892
 20
24.3725784678
 10
-8.617114645
 20
24.378826447
 10
-8.6289297906
 20
24.3844636953
 10
-8.6410238279
 20
24.3894747508
 10
-8.653363584
 20
24.3938458658
 10
-8.6659152314
 20
24.3975650553
 10
-8.6786443453
 20
24.4006221165
 10
-8.691515985
 20
24.4030086592
 10
-8.7044948424
 20
24.4047181424
 10
-8.7175453408
 20
24.4057458853
 10
-8.7306316949
 20
24.4060890743
  0
LWPOLYLINE
  5
2D8
100
AcDbEntity
  8
RACCORDO
100
AcDbPolyline
 62
7
  6
CONTINUOUS
 90
34
 70
0
 10
-8.4675373469
 20
24.1691918838
 10
-8.4678204972
 20
24.1810871691
 10
-8.4686693127
 20
24.1929555086
 10
-8.4700818728
 20
24.2047700192
 10
-8.4720549792
 20
24.2165039405
 10
-8.4745841652
 20
24.2281306919
 10
-8.4776637052
 20
24.2396239321
 10
-8.4812866256
 20
24.2509576268
 10
-8.4854447212
 20
24.2621061024
 10
-8.4901285748
 20
24.2730440994
 10
-8.4953275781
 20
24.2837468407
 10
-8.5010299553
 20
24.2941900813
 10
-8.5072227888
 20
24.304350159
 10
-8.5138920515
 20
24.3142040582
 10
-8.5210226362
 20
24.3237294569
 10
-8.5285983881
 20
24.3329047721
 10
-8.5366021465
 20
24.3417092191
 10
-8.5450157809
 20
24.3501228535
 10
-8.5538202279
 20
24.3581266119
 10
-8.5629955431
 20
24.3657023638
 10
-8.5725209418
 20
24.3728329485
 10
-8.582374841
 20
24.3795022112
 10
-8.5925349187
 20
24.3856950447
 10
-8.6029781593
 20
24.3913974219
 10
-8.6136809006
 20
24.3965964252
 10
-8.6246188976
 20
24.4012802788
 10
-8.6357673732
 20
24.4054383744
 10
-8.6471010679
 20
24.4090612948
 10
-8.6585943081
 20
24.4121408348
 10
-8.6702210595
 20
24.4146700208
 10
-8.6819549808
 20
24.4166431272
 10
-8.6937694914
 20
24.4180556873
 10
-8.7056378309
 20
24.4189045028
 10
-8.7175331162
 20
24.4191876531
  0
LINE
  5
2D9
100
AcDbEntity
  8
RACCORDO
100
AcDbLine
 62
253
  6
CONTINUOUS
 10
-8.7306316949
 20
23.5470188694
 11
-8.7255410938
 21
23.0418373839
  0
LINE
  5
2DA
100
AcDbEntity
  8
RACCORDO
100
AcDbLine
 62
253
  6
CONTINUOUS
 10
-8.4806359257
 20
23.7635252204
 11
-8.4748180958
 21
23.1861749512
  0
LINE
  5
2DB
100
AcDbEntity
  8
RACCORDO
100
AcDbLine
 62
253
  6
CONTINUOUS
 10
-8.7306316949
 20
-23.7086435633
 11
-8.7306316949
 21
-24.5677137682
  0
LINE
  5
2DC
100
AcDbEntity
  8
RACCORDO
100
AcDbLine
 62
253
  6
CONTINUOUS
 10
-8.7306316949
 20
23.5470188694
 11
-8.7306316949
 21
24.4060890743
  0
LINE
  5
2DD
100
AcDbEntity
  8
RACCORDO
100
AcDbLine
 62
253
  6
CONTINUOUS
 10
-8.7248138651
 20
23.0418373839
 11
-8.7248138651
 21
22.2405759841
  0
LINE
  5
2DE
100
AcDbEntity
  8
RACCORDO
100
AcDbLine
 62
253
  6
CONTINUOUS
 10
-8.7248138651
 20
-22.402200678
 11
-8.7248138651
 21
-23.2034620777
  0
LINE
  5
2DF
100
AcDbEntity
  8
RACCORDO
100
AcDbLine
 62
253
  6
CONTINUOUS
 10
-8.4806359257
 20
-24.317717999
 11
-8.4806359257
 21
-23.9251499142
  0
LINE
  5
2E0
100
AcDbEntity
  8
RACCORDO
100
AcDbLine
 62
253
  6
CONTINUOUS
 10
-8.4806359257
 20
23.7635252204
 11
-8.4806359257
 21
24.1560933051
  0
LINE
  5
2E1
100
AcDbEntity
  8
RACCORDO
100
AcDbLine
 62
253
  6
CONTINUOUS
 10
-8.4748180958
 20
23.1861749512
 11
-8.4748180958
 21
22.2536017054
  0
LINE
  5
2E2
100
AcDbEntity
  8
RACCORDO
100
AcDbLine
 62
253
  6
CONTINUOUS
 10
-8.4748180958
 20
-22.4152263992
 11
-8.4748180958
 21
-23.347799645
  0
LINE
  5
2E3
100
AcDbEntity
  8
RACCORDO
100
AcDbLine
 62
7
  6
CONTINUOUS
 10
-8.4675373469
 20
-22.4808123469
 11
-8.4675373469
 21
-24.3308165777
  0
LINE
  5
2E4
100
AcDbEntity
  8
RACCORDO
100
AcDbLine
 62
7
  6
CONTINUOUS
 10
-8.4675373469
 20
22.3191876531
 11
-8.4675373469
 21
24.1691918838
  0
LINE
  5
2E5
100
AcDbEntity
  8
RACCORDO
100
AcDbLine
 62
253
  6
CONTINUOUS
 10
-8.7255410938
 20
-23.2034620777
 11
-8.7306316949
 21
-23.7086435633
  0
LINE
  5
2E6
100
AcDbEntity
  8
RACCORDO
100
AcDbLine
 62
253
  6
CONTINUOUS
 10
-8.4748180958
 20
-23.347799645
 11
-8.4806359257
 21
-23.9251499142
  0
LINE
  5
2E7
100
AcDbEntity
  8
RACCORDO
100
AcDbLine
 62
7
  6
CONTINUOUS
 10
-10.860256598
 20
-22.4142233084
 11
-10.8675373469
 21
-22.4805204241
  0
LWPOLYLINE
  5
2E8
100
AcDbEntity
  8
RACCORDO
100
AcDbPolyline
 62
253
  6
CONTINUOUS
 90
9
 70
0
 10
-10.7168133091
 20
-22.0795375689
 10
-10.7161995581
 20
-22.0758498607
 10
-10.7155892207
 20
-22.0703134478
 10
-10.7149822968
 20
-22.0629353228
 10
-10.714378057
 20
-22.0537248973
 10
-10.7137772308
 20
-22.0426936168
 10
-10.7131820062
 20
-22.0298546928
 10
-10.7125923834
 20
-22.0152235745
 10
-10.7114321304
 20
-21.980660292
  0
LWPOLYLINE
  5
2E9
100
AcDbEntity
  8
RACCORDO
100
AcDbPolyline
 62
253
  6
CONTINUOUS
 90
11
 70
0
 10
-11.2167371567
 20
-21.5802228015
 10
-11.2161237416
 20
-21.5777566722
 10
-11.2155136408
 20
-21.5740694356
 10
-11.2149068544
 20
-21.5691610919
 10
-11.2143026178
 20
-21.5630225349
 10
-11.2137016954
 20
-21.5556628708
 10
-11.2131063811
 20
-21.5471094177
 10
-11.2125167131
 20
-21.5373576993
 10
-11.2119326531
 20
-21.5264121919
 10
-11.2113563795
 20
-21.5143136427
 10
-11.2102272628
 20
-21.4866490431
  0
LINE
  5
2EA
100
AcDbEntity
  8
DRAFT
100
AcDbLine
 62
7
  6
CONTINUOUS
 10
-4.6175373469
 20
-23.8808123469
 11
-4.6175373469
 21
-22.4808123469
  0
LINE
  5
2EB
100
AcDbEntity
  8
DRAFT
100
AcDbLine
 62
7
  6
CONTINUOUS
 10
-4.6175373469
 20
22.3191876531
 11
-4.6175373469
 21
23.7191876531
  0
LINE
  5
2EC
100
AcDbEntity
  8
RACCORDO
100
AcDbLine
 62
253
  6
CONTINUOUS
 10
-4.6146115087
 20
23.7162618149
 11
-4.6146115087
 21
22.2928313162
  0
LINE
  5
2ED
100
AcDbEntity
  8
RACCORDO
100
AcDbLine
 62
253
  6
CONTINUOUS
 10
-4.6146115087
 20
-22.4544560101
 11
-4.6146115087
 21
-23.8778865087
  0
LINE
  5
2EE
100
AcDbEntity
  8
RACCORDO
100
AcDbLine
 62
253
  6
CONTINUOUS
 10
-4.1146199703
 20
23.5145300045
 11
-4.1146199703
 21
22.2667798738
  0
LINE
  5
2EF
100
AcDbEntity
  8
RACCORDO
100
AcDbLine
 62
253
  6
CONTINUOUS
 10
-4.1146199703
 20
-22.4284045677
 11
-4.1146199703
 21
-23.6761546984
  0
LINE
  5
2F0
100
AcDbEntity
  8
RACCORDO
100
AcDbLine
 62
253
  6
CONTINUOUS
 10
-11.3501204445
 20
-21.9806980755
 11
-11.2167371567
 21
-21.5802228015
  0
LINE
  5
2F1
100
AcDbEntity
  8
RACCORDO
100
AcDbLine
 62
253
  6
CONTINUOUS
 10
-11.2167371567
 20
21.4185981077
 11
-11.3501204445
 21
21.8190733816
  0
LINE
  5
2F2
100
AcDbEntity
  8
RACCORDO
100
AcDbLine
 62
7
  6
CONTINUOUS
 10
-4.6175373469
 20
-22.4808123469
 11
-4.6146115087
 21
-22.4544560101
  0
LINE
  5
2F3
100
AcDbEntity
  8
RACCORDO
100
AcDbLine
 62
253
  6
CONTINUOUS
 10
-10.7168133091
 20
-22.0795375689
 11
-10.8264526869
 21
-22.4087231856
  0
LINE
  5
2F4
100
AcDbEntity
  8
RACCORDO
100
AcDbLine
 62
253
  6
CONTINUOUS
 10
-10.8264526869
 20
22.2470984917
 11
-10.7168133091
 21
21.917912875
  0
LINE
  5
2F5
100
AcDbEntity
  8
RACCORDO
100
AcDbLine
 62
7
  6
CONTINUOUS
 10
-4.6175373469
 20
22.3191876531
 11
-4.6146115087
 21
22.2928313162
  0
LWPOLYLINE
  5
2F6
100
AcDbEntity
  8
RACCORDO
100
AcDbPolyline
 62
7
  6
CONTINUOUS
 90
13
 70
0
 10
10.4251819042
 20
22.2525986145
 10
10.4248840204
 20
22.2520411273
 10
10.4241168471
 20
22.2515106023
 10
10.4228816304
 20
22.2510070394
 10
10.4211803779
 20
22.2505350207
 10
10.4190161571
 20
22.2500899641
 10
10.4163933741
 20
22.2496581237
 10
10.4133169954
 20
22.2492430148
 10
10.4097928905
 20
22.2488411219
 10
10.4058286337
 20
22.2484281525
 10
10.40143234
 20
22.2479960088
 10
10.396612335
 20
22.2475527886
 10
10.391377993
 20
22.2470984917
  0
LINE
  5
2F7
100
AcDbEntity
  8
RACCORDO
100
AcDbLine
 62
7
  6
CONTINUOUS
 10
4.1824626531
 20
22.3191876531
 11
4.1795368149
 21
22.2928313162
  0
LWPOLYLINE
  5
2F8
100
AcDbEntity
  8
RACCORDO
100
AcDbPolyline
 62
7
  6
CONTINUOUS
 90
13
 70
0
 10
-10.860256598
 20
-22.4142233084
 10
-10.8599587143
 20
-22.4136658212
 10
-10.859191541
 20
-22.4131352962
 10
-10.8579563243
 20
-22.4126317333
 10
-10.8562550718
 20
-22.4121597146
 10
-10.854090851
 20
-22.411714658
 10
-10.851468068
 20
-22.4112828175
 10
-10.8483916893
 20
-22.4108677086
 10
-10.8448675844
 20
-22.4104658158
 10
-10.8409033276
 20
-22.4100528464
 10
-10.8365070339
 20
-22.4096207027
 10
-10.8316870288
 20
-22.4091774824
 10
-10.8264526869
 20
-22.4087231856
  0
LINE
  5
2F9
100
AcDbEntity
  8
RACCORDO
100
AcDbLine
 62
7
  6
CONTINUOUS
 10
4.1824626531
 20
-22.4808123469
 11
4.1795368149
 21
-22.4544560101
  0
LINE
  5
2FA
100
AcDbEntity
  8
RACCORDO
100
AcDbLine
 62
253
  6
CONTINUOUS
 10
10.2817386152
 20
21.917912875
 11
10.391377993
 21
22.2470984917
  0
LINE
  5
2FB
100
AcDbEntity
  8
RACCORDO
100
AcDbLine
 62
253
  6
CONTINUOUS
 10
10.9150457506
 20
21.8190733816
 11
10.7816624628
 21
21.4185981077
  0
LINE
  5
2FC
100
AcDbEntity
  8
RACCORDO
100
AcDbLine
 62
253
  6
CONTINUOUS
 10
10.391377993
 20
-22.4087231856
 11
10.2817386152
 21
-22.0795375689
  0
LINE
  5
2FD
100
AcDbEntity
  8
RACCORDO
100
AcDbLine
 62
253
  6
CONTINUOUS
 10
10.7816624628
 20
-21.5802228015
 11
10.9150457506
 21
-21.9806980755
  0
LINE
  5
2FE
100
AcDbEntity
  8
RACCORDO
100
AcDbLine
 62
253
  6
CONTINUOUS
 10
3.6795452764
 20
-23.6761546984
 11
3.6795452764
 21
-22.4284045677
  0
LINE
  5
2FF
100
AcDbEntity
  8
RACCORDO
100
AcDbLine
 62
253
  6
CONTINUOUS
 10
3.6795452764
 20
22.2667798738
 11
3.6795452764
 21
23.5145300045
  0
LINE
  5
300
100
AcDbEntity
  8
RACCORDO
100
AcDbLine
 62
253
  6
CONTINUOUS
 10
4.1795368149
 20
-23.8778865087
 11
4.1795368149
 21
-22.4544560101
  0
LINE
  5
301
100
AcDbEntity
  8
RACCORDO
100
AcDbLine
 62
253
  6
CONTINUOUS
 10
4.1795368149
 20
22.2928313162
 11
4.1795368149
 21
23.7162618149
  0
LINE
  5
302
100
AcDbEntity
  8
DRAFT
100
AcDbLine
 62
7
  6
CONTINUOUS
 10
4.1824626531
 20
23.7191876531
 11
4.1824626531
 21
22.3191876531
  0
LINE
  5
303
100
AcDbEntity
  8
DRAFT
100
AcDbLine
 62
7
  6
CONTINUOUS
 10
4.1824626531
 20
-22.4808123469
 11
4.1824626531
 21
-23.8808123469
  0
LWPOLYLINE
  5
304
100
AcDbEntity
  8
RACCORDO
100
AcDbPolyline
 62
253
  6
CONTINUOUS
 90
12
 70
0
 10
10.7816624628
 20
21.4185981077
 10
10.7810491648
 20
21.4161328679
 10
10.7804391522
 20
21.4124464389
 10
10.7798324251
 20
21.4075388208
 10
10.7792282093
 20
21.4014008731
 10
10.778627279
 20
21.3940417362
 10
10.7780319563
 20
21.3854888316
 10
10.7774422893
 20
21.3757377223
 10
10.7768582298
 20
21.3647928452
 10
10.7762819566
 20
21.3526949329
 10
10.7757135051
 20
21.3394397938
 10
10.7746020324
 20
21.3095237174
  0
LWPOLYLINE
  5
305
100
AcDbEntity
  8
RACCORDO
100
AcDbPolyline
 62
253
  6
CONTINUOUS
 90
9
 70
0
 10
10.2817386152
 20
21.917912875
 10
10.2811248714
 20
21.9142251908
 10
10.280514539
 20
21.9086888118
 10
10.279907618
 20
21.9013107226
 10
10.279303378
 20
21.8921003215
 10
10.2787025494
 20
21.8810690493
 10
10.2781073232
 20
21.8682301315
 10
10.2775177008
 20
21.8535990262
 10
10.2763574498
 20
21.8190357739
  0
LINE
  5
306
100
AcDbEntity
  8
RACCORDO
100
AcDbLine
 62
7
  6
CONTINUOUS
 10
10.4324626531
 20
-22.4805204241
 11
10.4251819042
 21
-22.4142233084
  0
LWPOLYLINE
  5
307
100
AcDbEntity
  8
RACCORDO
100
AcDbPolyline
 62
253
  6
CONTINUOUS
 90
31
 70
0
 10
8.0455612318
 20
23.7635252204
 10
8.0459397874
 20
23.7522272481
 10
8.046998915
 20
23.7409569441
 10
8.0487362915
 20
23.7297450742
 10
8.0511479929
 20
23.7186212651
 10
8.0542278632
 20
23.7076170131
 10
8.0579669142
 20
23.6967654733
 10
8.0623544585
 20
23.6860973503
 10
8.0673788576
 20
23.6756406769
 10
8.0730265382
 20
23.6654237581
 10
8.0792822307
 20
23.655474353
 10
8.0861288053
 20
23.6458198284
 10
8.0935474136
 20
23.636486805
 10
8.1015177176
 20
23.6275008548
 10
8.1100180124
 20
23.6188864356
 10
8.1190251029
 20
23.6106670572
 10
8.1285144066
 20
23.6028651606
 10
8.1384599937
 20
23.5955020724
 10
8.1488346766
 20
23.5885979235
 10
8.159610109
 20
23.5821715769
 10
8.170756867
 20
23.57624058
 10
8.182244504
 20
23.5708211326
 10
8.1940416607
 20
23.5659280306
 10
8.2061160972
 20
23.5615746475
 10
8.2184347768
 20
23.5577728902
 10
8.2309640122
 20
23.5545331437
 10
8.243669615
 20
23.5518642373
 10
8.2565169358
 20
23.5497734449
 10
8.2694709031
 20
23.5482664749
 10
8.2824961168
 20
23.5473474465
 10
8.295557001
 20
23.5470188694
  0
LWPOLYLINE
  5
308
100
AcDbEntity
  8
RACCORDO
100
AcDbPolyline
 62
253
  6
CONTINUOUS
 90
31
 70
0
 10
8.0455612318
 20
-24.317717999
 10
8.0459044208
 20
-24.3308043531
 10
8.0469321638
 20
-24.3438548515
 10
8.0486416469
 20
-24.3568337089
 10
8.0510281896
 20
-24.3697053485
 10
8.0540852508
 20
-24.3824344625
 10
8.0578044403
 20
-24.3949861099
 10
8.0621755554
 20
-24.407325866
 10
8.0671866108
 20
-24.4194199033
 10
8.0728238591
 20
-24.4312350489
 10
8.0790718383
 20
-24.4427389047
 10
8.0859134141
 20
-24.4538999307
 10
8.0933298209
 20
-24.464687521
 10
8.1013007291
 20
-24.4750721102
 10
8.1098042706
 20
-24.4850252137
 10
8.1188170897
 20
-24.4945195068
 10
8.1283144242
 20
-24.5035289286
 10
8.1382702614
 20
-24.5120288256
 10
8.1486573872
 20
-24.5199959678
 10
8.1594474664
 20
-24.5274085978
 10
8.1706107848
 20
-24.5342462797
 10
8.1821163852
 20
-24.5404900813
 10
8.1939324635
 20
-24.5461228299
 10
8.2060268196
 20
-24.5511292598
 10
8.2183666235
 20
-24.5554958109
 10
8.2309208081
 20
-24.5592112506
 10
8.2436522733
 20
-24.562264364
 10
8.2565179921
 20
-24.5646454942
 10
8.2694797667
 20
-24.5663490984
 10
8.282504661
 20
-24.567372361
 10
8.295557001
 20
-24.5677137682
  0
LWPOLYLINE
  5
309
100
AcDbEntity
  8
RACCORDO
100
AcDbPolyline
 62
7
  6
CONTINUOUS
 90
34
 70
0
 10
8.0324626531
 20
-24.3308165777
 10
8.0327458033
 20
-24.342711863
 10
8.0335946188
 20
-24.3545802025
 10
8.0350071789
 20
-24.3663947131
 10
8.0369802853
 20
-24.3781286344
 10
8.0395094713
 20
-24.3897553857
 10
8.0425890114
 20
-24.4012486259
 10
8.0462119317
 20
-24.4125823207
 10
8.0503700273
 20
-24.4237307962
 10
8.0550538809
 20
-24.4346687932
 10
8.0602528842
 20
-24.4453715345
 10
8.0659552614
 20
-24.4558147752
 10
8.0721480949
 20
-24.4659748528
 10
8.0788173576
 20
-24.4758287521
 10
8.0859479424
 20
-24.4853541508
 10
8.0935236942
 20
-24.494529466
 10
8.1015274526
 20
-24.503333913
 10
8.109941087
 20
-24.5117475474
 10
8.118745534
 20
-24.5197513058
 10
8.1279208492
 20
-24.5273270576
 10
8.1374462479
 20
-24.5344576424
 10
8.1473001472
 20
-24.5411269051
 10
8.1574602248
 20
-24.5473197386
 10
8.1679034655
 20
-24.5530221158
 10
8.1786062068
 20
-24.5582211191
 10
8.1895442038
 20
-24.5629049727
 10
8.2006926793
 20
-24.5670630683
 10
8.2120263741
 20
-24.5706859886
 10
8.2235196143
 20
-24.5737655287
 10
8.2351463656
 20
-24.5762947147
 10
8.2468802869
 20
-24.5782678211
 10
8.2586947975
 20
-24.5796803812
 10
8.270563137
 20
-24.5805291967
 10
8.2824584223
 20
-24.5808123469
  0
LINE
  5
30A
100
AcDbEntity
  8
RACCORDO
100
AcDbLine
 62
253
  6
CONTINUOUS
 10
8.0455612318
 20
-23.9251499142
 11
8.039743402
 21
-23.347799645
  0
LINE
  5
30B
100
AcDbEntity
  8
RACCORDO
100
AcDbLine
 62
253
  6
CONTINUOUS
 10
8.2962842297
 20
-23.7808123469
 11
8.2904663999
 21
-23.2034620777
  0
LINE
  5
30C
100
AcDbEntity
  8
RACCORDO
100
AcDbLine
 62
7
  6
CONTINUOUS
 10
8.0324626531
 20
-22.4808123469
 11
8.0324626531
 21
-24.3308165777
  0
LINE
  5
30D
100
AcDbEntity
  8
RACCORDO
100
AcDbLine
 62
7
  6
CONTINUOUS
 10
8.0324626531
 20
22.3191876531
 11
8.0324626531
 21
24.1691918838
  0
LINE
  5
30E
100
AcDbEntity
  8
RACCORDO
100
AcDbLine
 62
253
  6
CONTINUOUS
 10
8.039743402
 20
-23.347799645
 11
8.039743402
 21
-22.4152263992
  0
LINE
  5
30F
100
AcDbEntity
  8
RACCORDO
100
AcDbLine
 62
253
  6
CONTINUOUS
 10
8.039743402
 20
22.2536017054
 11
8.039743402
 21
23.1861749512
  0
LINE
  5
310
100
AcDbEntity
  8
RACCORDO
100
AcDbLine
 62
253
  6
CONTINUOUS
 10
8.0455612318
 20
24.1560933051
 11
8.0455612318
 21
23.7635252204
  0
LINE
  5
311
100
AcDbEntity
  8
RACCORDO
100
AcDbLine
 62
253
  6
CONTINUOUS
 10
8.0455612318
 20
-23.9251499142
 11
8.0455612318
 21
-24.317717999
  0
LINE
  5
312
100
AcDbEntity
  8
RACCORDO
100
AcDbLine
 62
253
  6
CONTINUOUS
 10
8.2897391712
 20
-23.2034620777
 11
8.2897391712
 21
-22.402200678
  0
LINE
  5
313
100
AcDbEntity
  8
RACCORDO
100
AcDbLine
 62
253
  6
CONTINUOUS
 10
8.2897391712
 20
22.2405759841
 11
8.2897391712
 21
23.0418373839
  0
LINE
  5
314
100
AcDbEntity
  8
RACCORDO
100
AcDbLine
 62
253
  6
CONTINUOUS
 10
8.295557001
 20
-23.7808123469
 11
8.295557001
 21
-24.5677137682
  0
LINE
  5
315
100
AcDbEntity
  8
RACCORDO
100
AcDbLine
 62
253
  6
CONTINUOUS
 10
8.295557001
 20
23.5470188694
 11
8.295557001
 21
24.4060890743
  0
LINE
  5
316
100
AcDbEntity
  8
RACCORDO
100
AcDbLine
 62
253
  6
CONTINUOUS
 10
8.039743402
 20
23.1861749512
 11
8.0455612318
 21
23.7635252204
  0
LINE
  5
317
100
AcDbEntity
  8
RACCORDO
100
AcDbLine
 62
253
  6
CONTINUOUS
 10
8.2904663999
 20
23.0418373839
 11
8.295557001
 21
23.5470188694
  0
LINE
  5
318
100
AcDbEntity
  8
RACCORDO
100
AcDbLine
 62
7
  6
CONTINUOUS
 10
10.4251819042
 20
22.2525986145
 11
10.4324626531
 21
22.3188957302
  0
LWPOLYLINE
  5
319
100
AcDbEntity
  8
RACCORDO
100
AcDbPolyline
 62
7
  6
CONTINUOUS
 90
34
 70
0
 10
8.039743402
 20
23.1861749512
 10
8.0400411283
 20
23.1799333721
 10
8.0408123797
 20
23.173660261
 10
8.0420627425
 20
23.167373845
 10
8.0437967898
 20
23.1610998129
 10
8.0460182325
 20
23.1548502746
 10
8.0487302525
 20
23.1486237906
 10
8.0519347493
 20
23.1424408532
 10
8.0556326739
 20
23.136321223
 10
8.0598249249
 20
23.1302630665
 10
8.0645104091
 20
23.1242878897
 10
8.069687051
 20
23.1184164821
 10
8.0753534218
 20
23.1126466602
 10
8.0815052056
 20
23.1070006792
 10
8.088136988
 20
23.1015001861
 10
8.0952447908
 20
23.0961428504
 10
8.1028207864
 20
23.090951398
 10
8.1108558684
 20
23.0859480893
 10
8.1193430939
 20
23.0811306752
 10
8.1282708034
 20
23.0765219818
 10
8.1376257822
 20
23.072144573
 10
8.1473974568
 20
23.0679965251
 10
8.157569968
 20
23.0641002661
 10
8.1681255551
 20
23.0604782233
 10
8.1790491559
 20
23.0571289871
 10
8.1903202134
 20
23.054073954
 10
8.2019161379
 20
23.0513347477
 10
8.2138168356
 20
23.0489104663
 10
8.2259836634
 20
23.0468236656
 10
8.2384017183
 20
23.0450902066
 10
8.2510857123
 20
23.0437040856
 10
8.2640204229
 20
23.0426810036
 10
8.2771589245
 20
23.0420518138
 10
8.2904663999
 20
23.0418373839
  0
LWPOLYLINE
  5
31A
100
AcDbEntity
  8
RACCORDO
100
AcDbPolyline
 62
7
  6
CONTINUOUS
 90
34
 70
0
 10
10.4251819042
 20
-23.347799645
 10
10.4248841778
 20
-23.341558066
 10
10.4241129264
 20
-23.3352849549
 10
10.4228625636
 20
-23.3289985389
 10
10.4211285164
 20
-23.3227245068
 10
10.4189070736
 20
-23.3164749685
 10
10.4161950536
 20
-23.3102484845
 10
10.4129905568
 20
-23.304065547
 10
10.4092926322
 20
-23.2979459168
 10
10.4051003812
 20
-23.2918877603
 10
10.400414897
 20
-23.2859125836
 10
10.3952382551
 20
-23.2800411759
 10
10.3895718843
 20
-23.274271354
 10
10.3834201005
 20
-23.2686253731
 10
10.3767883181
 20
-23.26312488
 10
10.3696805153
 20
-23.2577675442
 10
10.3621045197
 20
-23.2525760919
 10
10.3540694377
 20
-23.2475727831
 10
10.3455822122
 20
-23.2427553691
 10
10.3366545027
 20
-23.2381466757
 10
10.327299524
 20
-23.2337692669
 10
10.3175278494
 20
-23.229621219
 10
10.3073553381
 20
-23.22572496
 10
10.2967997511
 20
-23.2221029172
 10
10.2858761503
 20
-23.218753681
 10
10.2746050927
 20
-23.2156986479
 10
10.2630091682
 20
-23.2129594416
 10
10.2511084705
 20
-23.2105351602
 10
10.2389416428
 20
-23.2084483595
 10
10.2265235879
 20
-23.2067149005
 10
10.2138395938
 20
-23.2053287795
 10
10.2009048832
 20
-23.2043056975
 10
10.1877663817
 20
-23.2036765077
 10
10.1744589062
 20
-23.2034620777
  0
LWPOLYLINE
  5
31B
100
AcDbEntity
  8
RACCORDO
100
AcDbPolyline
 62
253
  6
CONTINUOUS
 90
10
 70
0
 10
10.7762816857
 20
-21.5143136427
 10
10.7768579592
 20
-21.5264121919
 10
10.7774420192
 20
-21.5373576993
 10
10.7780316872
 20
-21.5471094177
 10
10.7786270016
 20
-21.5556628708
 10
10.7792279239
 20
-21.5630225349
 10
10.7798321605
 20
-21.5691610919
 10
10.780438947
 20
-21.5740694356
 10
10.7810490477
 20
-21.5777566722
 10
10.7816624628
 20
-21.5802228015
  0
LWPOLYLINE
  5
31C
100
AcDbEntity
  8
RACCORDO
100
AcDbPolyline
 62
253
  6
CONTINUOUS
 90
8
 70
0
 10
10.2775176895
 20
-22.0152235745
 10
10.2781073123
 20
-22.0298546928
 10
10.2787025369
 20
-22.0426936168
 10
10.2793033631
 20
-22.0537248973
 10
10.2799076029
 20
-22.0629353228
 10
10.2805145268
 20
-22.0703134478
 10
10.2811248643
 20
-22.0758498607
 10
10.2817386152
 20
-22.0795375689
  0
LINE
  5
31D
100
AcDbEntity
  8
RACCORDO
100
AcDbLine
 62
253
  6
CONTINUOUS
 10
10.775152569
 20
-21.4866490431
 11
10.7762816857
 21
-21.5143136427
  0
LINE
  5
31E
100
AcDbEntity
  8
RACCORDO
100
AcDbLine
 62
253
  6
CONTINUOUS
 10
10.7740608497
 20
-21.4545281292
 11
10.775152569
 21
-21.4866490431
  0
LINE
  5
31F
100
AcDbEntity
  8
RACCORDO
100
AcDbLine
 62
253
  6
CONTINUOUS
 10
10.2763574365
 20
-21.980660292
 11
10.2775176895
 21
-22.0152235745
  0
LINE
  5
320
100
AcDbEntity
  8
RACCORDO
100
AcDbLine
 62
253
  6
CONTINUOUS
 10
10.2752284202
 20
-21.9391768143
 11
10.2763574365
 21
-21.980660292
  0
LINE
  5
321
100
AcDbEntity
  8
RACCORDO
100
AcDbLine
 62
253
  6
CONTINUOUS
 10
10.7725032015
 20
-21.3982853418
 11
10.7740608497
 21
-21.4545281292
  0
LINE
  5
322
100
AcDbEntity
  8
RACCORDO
100
AcDbLine
 62
253
  6
CONTINUOUS
 10
10.7710576262
 20
-21.3329554012
 11
10.7725032015
 21
-21.3982853418
  0
LINE
  5
323
100
AcDbEntity
  8
RACCORDO
100
AcDbLine
 62
253
  6
CONTINUOUS
 10
10.2736057872
 20
-21.8644330203
 11
10.2752284202
 21
-21.9391768143
  0
LINE
  5
324
100
AcDbEntity
  8
RACCORDO
100
AcDbLine
 62
253
  6
CONTINUOUS
 10
10.7693318343
 20
-21.2329633091
 11
10.7710576262
 21
-21.3329554012
  0
LINE
  5
325
100
AcDbEntity
  8
RACCORDO
100
AcDbLine
 62
253
  6
CONTINUOUS
 10
10.2716019466
 20
-21.7427408923
 11
10.2736057872
 21
-21.8644330203
  0
LINE
  5
326
100
AcDbEntity
  8
RACCORDO
100
AcDbLine
 62
253
  6
CONTINUOUS
 10
10.767546989
 20
-21.0901752426
 11
10.7693318343
 21
-21.2329633091
  0
LINE
  5
327
100
AcDbEntity
  8
RACCORDO
100
AcDbLine
 62
253
  6
CONTINUOUS
 10
10.1693683051
 20
23.5470188694
 11
10.1744589062
 21
23.0418373839
  0
LINE
  5
328
100
AcDbEntity
  8
RACCORDO
100
AcDbLine
 62
253
  6
CONTINUOUS
 10
10.4193640743
 20
23.7635252204
 11
10.4251819042
 21
23.1861749512
  0
LINE
  5
329
100
AcDbEntity
  8
RACCORDO
100
AcDbLine
 62
253
  6
CONTINUOUS
 10
10.2690166322
 20
-21.5180566974
 11
10.2716019466
 21
-21.7427408923
  0
LINE
  5
32A
100
AcDbEntity
  8
RACCORDO
100
AcDbLine
 62
253
  6
CONTINUOUS
 10
10.7660207706
 20
-20.8985187787
 11
10.767546989
 21
-21.0901752426
  0
LINE
  5
32B
100
AcDbEntity
  8
RACCORDO
100
AcDbLine
 62
253
  6
CONTINUOUS
 10
10.266526788
 20
-21.1558441685
 11
10.2690166322
 21
-21.5180566974
  0
LINE
  5
32C
100
AcDbEntity
  8
RACCORDO
100
AcDbLine
 62
253
  6
CONTINUOUS
 10
10.7651718331
 20
-20.6578765232
 11
10.7660207706
 21
-20.8985187787
  0
LINE
  5
32D
100
AcDbEntity
  8
RACCORDO
100
AcDbLine
 62
253
  6
CONTINUOUS
 10
10.2652118446
 20
-20.6432806718
 11
10.266526788
 21
-21.1558441685
  0
LWPOLYLINE
  5
32E
100
AcDbEntity
  8
RACCORDO
100
AcDbPolyline
 62
253
  6
CONTINUOUS
 90
3
 70
0
 10
10.2615993673
 20
-14.7703187238
 10
10.2626697618
 20
-16.7282382145
 10
10.2652118446
 20
-20.6432806718
  0
LWPOLYLINE
  5
32F
100
AcDbEntity
  8
RACCORDO
100
AcDbPolyline
 62
253
  6
CONTINUOUS
 90
3
 70
0
 10
10.7615232155
 20
-14.7556303516
 10
10.7625936098
 20
-16.7115516812
 10
10.7651718331
 20
-20.6578765232
  0
LINE
  5
330
100
AcDbEntity
  8
RACCORDO
100
AcDbLine
 62
253
  6
CONTINUOUS
 10
10.2591907721
 20
-8.8953278347
 11
10.2615993673
 21
-14.7703187238
  0
LINE
  5
331
100
AcDbEntity
  8
RACCORDO
100
AcDbLine
 62
253
  6
CONTINUOUS
 10
10.7591146199
 20
-8.8865140892
 11
10.7615232155
 21
-14.7556303516
  0
LINE
  5
332
100
AcDbEntity
  8
RACCORDO
100
AcDbLine
 62
253
  6
CONTINUOUS
 10
10.2579863913
 20
-3.019119449
 11
10.2591907721
 21
-8.8953278347
  0
LINE
  5
333
100
AcDbEntity
  8
RACCORDO
100
AcDbLine
 62
253
  6
CONTINUOUS
 10
10.7579102389
 20
-3.0161815467
 11
10.7591146199
 21
-8.8865140892
  0
LINE
  5
334
100
AcDbEntity
  8
RACCORDO
100
AcDbLine
 62
253
  6
CONTINUOUS
 10
10.1693683051
 20
-23.7808123469
 11
10.1693683051
 21
-24.5677137682
  0
LINE
  5
335
100
AcDbEntity
  8
RACCORDO
100
AcDbLine
 62
253
  6
CONTINUOUS
 10
10.1693683051
 20
23.5470188694
 11
10.1693683051
 21
24.4060890743
  0
LINE
  5
336
100
AcDbEntity
  8
RACCORDO
100
AcDbLine
 62
253
  6
CONTINUOUS
 10
10.1751861349
 20
-23.2034620777
 11
10.1751861349
 21
-22.402200678
  0
LINE
  5
337
100
AcDbEntity
  8
RACCORDO
100
AcDbLine
 62
253
  6
CONTINUOUS
 10
10.1751861349
 20
22.2405759841
 11
10.1751861349
 21
23.0418373839
  0
LINE
  5
338
100
AcDbEntity
  8
RACCORDO
100
AcDbLine
 62
253
  6
CONTINUOUS
 10
10.4193640743
 20
-24.317717999
 11
10.4193640743
 21
-23.9251499142
  0
LINE
  5
339
100
AcDbEntity
  8
RACCORDO
100
AcDbLine
 62
253
  6
CONTINUOUS
 10
10.4193640743
 20
23.7635252204
 11
10.4193640743
 21
24.1560933051
  0
LINE
  5
33A
100
AcDbEntity
  8
RACCORDO
100
AcDbLine
 62
253
  6
CONTINUOUS
 10
10.4251819042
 20
-23.347799645
 11
10.4251819042
 21
-22.4142233084
  0
LINE
  5
33B
100
AcDbEntity
  8
RACCORDO
100
AcDbLine
 62
253
  6
CONTINUOUS
 10
10.4251819042
 20
22.2525986145
 11
10.4251819042
 21
23.1861749512
  0
LINE
  5
33C
100
AcDbEntity
  8
RACCORDO
100
AcDbLine
 62
7
  6
CONTINUOUS
 10
10.4324626531
 20
-22.4805023149
 11
10.4324626531
 21
-24.3308165777
  0
LINE
  5
33D
100
AcDbEntity
  8
RACCORDO
100
AcDbLine
 62
7
  6
CONTINUOUS
 10
10.4324626531
 20
22.318877621
 11
10.4324626531
 21
24.1691918838
  0
LINE
  5
33E
100
AcDbEntity
  8
RACCORDO
100
AcDbLine
 62
253
  6
CONTINUOUS
 10
10.2579863913
 20
2.8574947553
 11
10.2579863913
 21
-3.019119449
  0
LINE
  5
33F
100
AcDbEntity
  8
RACCORDO
100
AcDbLine
 62
253
  6
CONTINUOUS
 10
10.7579102388
 20
2.8545564093
 11
10.7579102389
 21
-3.0161815467
  0
LINE
  5
340
100
AcDbEntity
  8
RACCORDO
100
AcDbLine
 62
253
  6
CONTINUOUS
 10
10.2615993673
 20
14.60869403
 11
10.2579863913
 21
2.8574947553
  0
LINE
  5
341
100
AcDbEntity
  8
RACCORDO
100
AcDbLine
 62
253
  6
CONTINUOUS
 10
10.7615232153
 20
14.5940052159
 11
10.7579102388
 21
2.8545564093
  0
LINE
  5
342
100
AcDbEntity
  8
RACCORDO
100
AcDbLine
 62
253
  6
CONTINUOUS
 10
10.2665267929
 20
20.9942199194
 11
10.2615993673
 21
14.60869403
  0
LINE
  5
343
100
AcDbEntity
  8
RACCORDO
100
AcDbLine
 62
253
  6
CONTINUOUS
 10
10.7658363975
 20
20.70333014
 11
10.7615232153
 21
14.5940052159
  0
LINE
  5
344
100
AcDbEntity
  8
RACCORDO
100
AcDbLine
 62
253
  6
CONTINUOUS
 10
10.269016642
 20
21.3564323453
 11
10.2665267929
 21
20.9942199194
  0
LINE
  5
345
100
AcDbEntity
  8
RACCORDO
100
AcDbLine
 62
253
  6
CONTINUOUS
 10
10.7672439906
 20
20.8979456881
 11
10.7658363975
 21
20.70333014
  0
LINE
  5
346
100
AcDbEntity
  8
RACCORDO
100
AcDbLine
 62
253
  6
CONTINUOUS
 10
10.1744589062
 20
-23.2034620777
 11
10.1686410764
 21
-23.7808123469
  0
LINE
  5
347
100
AcDbEntity
  8
RACCORDO
100
AcDbLine
 62
253
  6
CONTINUOUS
 10
10.4251819042
 20
-23.347799645
 11
10.4193640743
 21
-23.9251499142
  0
LINE
  5
348
100
AcDbEntity
  8
RACCORDO
100
AcDbLine
 62
253
  6
CONTINUOUS
 10
10.7689404963
 20
21.0442782796
 11
10.7672439906
 21
20.8979456881
  0
LINE
  5
349
100
AcDbEntity
  8
RACCORDO
100
AcDbLine
 62
253
  6
CONTINUOUS
 10
10.2716019592
 20
21.5811164779
 11
10.269016642
 21
21.3564323453
  0
LINE
  5
34A
100
AcDbEntity
  8
RACCORDO
100
AcDbLine
 62
253
  6
CONTINUOUS
 10
10.7706033734
 20
21.1476510812
 11
10.7689404963
 21
21.0442782796
  0
LINE
  5
34B
100
AcDbEntity
  8
RACCORDO
100
AcDbLine
 62
253
  6
CONTINUOUS
 10
10.2736058003
 20
21.7028085757
 11
10.2716019592
 21
21.5811164779
  0
LINE
  5
34C
100
AcDbEntity
  8
RACCORDO
100
AcDbLine
 62
253
  6
CONTINUOUS
 10
10.7720079202
 20
21.2158533102
 11
10.7706033734
 21
21.1476510812
  0
LINE
  5
34D
100
AcDbEntity
  8
RACCORDO
100
AcDbLine
 62
253
  6
CONTINUOUS
 10
10.2752284336
 20
21.7775523412
 11
10.2736058003
 21
21.7028085757
  0
LINE
  5
34E
100
AcDbEntity
  8
RACCORDO
100
AcDbLine
 62
253
  6
CONTINUOUS
 10
10.7735300621
 20
21.2752005774
 11
10.7720079202
 21
21.2158533102
  0
LINE
  5
34F
100
AcDbEntity
  8
RACCORDO
100
AcDbLine
 62
253
  6
CONTINUOUS
 10
10.2763574498
 20
21.8190357739
 11
10.2752284336
 21
21.7775523412
  0
LINE
  5
350
100
AcDbEntity
  8
RACCORDO
100
AcDbLine
 62
253
  6
CONTINUOUS
 10
10.7746020324
 20
21.3095237174
 11
10.7735300621
 21
21.2752005774
  0
LWPOLYLINE
  5
351
100
AcDbEntity
  8
RACCORDO
100
AcDbPolyline
 62
253
  6
CONTINUOUS
 90
31
 70
0
 10
10.4193640743
 20
23.7635252204
 10
10.4189855187
 20
23.7522272481
 10
10.4179263911
 20
23.7409569441
 10
10.4161890146
 20
23.7297450742
 10
10.4137773132
 20
23.7186212651
 10
10.410697443
 20
23.7076170131
 10
10.406958392
 20
23.6967654733
 10
10.4025708476
 20
23.6860973503
 10
10.3975464486
 20
23.6756406769
 10
10.391898768
 20
23.6654237581
 10
10.3856430754
 20
23.655474353
 10
10.3787965008
 20
23.6458198284
 10
10.3713778925
 20
23.636486805
 10
10.3634075885
 20
23.6275008548
 10
10.3549072937
 20
23.6188864356
 10
10.3459002032
 20
23.6106670572
 10
10.3364108996
 20
23.6028651606
 10
10.3264653124
 20
23.5955020724
 10
10.3160906296
 20
23.5885979235
 10
10.3053151972
 20
23.5821715769
 10
10.2941684392
 20
23.57624058
 10
10.2826808021
 20
23.5708211326
 10
10.2708836454
 20
23.5659280306
 10
10.2588092089
 20
23.5615746475
 10
10.2464905293
 20
23.5577728902
 10
10.233961294
 20
23.5545331437
 10
10.2212556911
 20
23.5518642373
 10
10.2084083703
 20
23.5497734449
 10
10.1954544031
 20
23.5482664749
 10
10.1824291893
 20
23.5473474465
 10
10.1693683051
 20
23.5470188694
  0
LWPOLYLINE
  5
352
100
AcDbEntity
  8
RACCORDO
100
AcDbPolyline
 62
7
  6
CONTINUOUS
 90
34
 70
0
 10
8.039743402
 20
-23.347799645
 10
8.0400411283
 20
-23.341558066
 10
8.0408123797
 20
-23.3352849549
 10
8.0420627425
 20
-23.3289985389
 10
8.0437967898
 20
-23.3227245068
 10
8.0460182325
 20
-23.3164749685
 10
8.0487302525
 20
-23.3102484845
 10
8.0519347493
 20
-23.304065547
 10
8.0556326739
 20
-23.2979459168
 10
8.0598249249
 20
-23.2918877603
 10
8.0645104091
 20
-23.2859125836
 10
8.069687051
 20
-23.2800411759
 10
8.0753534218
 20
-23.274271354
 10
8.0815052056
 20
-23.2686253731
 10
8.088136988
 20
-23.26312488
 10
8.0952447908
 20
-23.2577675442
 10
8.1028207864
 20
-23.2525760919
 10
8.1108558684
 20
-23.2475727831
 10
8.1193430939
 20
-23.2427553691
 10
8.1282708034
 20
-23.2381466757
 10
8.1376257822
 20
-23.2337692669
 10
8.1473974568
 20
-23.229621219
 10
8.157569968
 20
-23.22572496
 10
8.1681255551
 20
-23.2221029172
 10
8.1790491559
 20
-23.218753681
 10
8.1903202134
 20
-23.2156986479
 10
8.2019161379
 20
-23.2129594416
 10
8.2138168356
 20
-23.2105351602
 10
8.2259836634
 20
-23.2084483595
 10
8.2384017183
 20
-23.2067149005
 10
8.2510857123
 20
-23.2053287795
 10
8.2640204229
 20
-23.2043056975
 10
8.2771589245
 20
-23.2036765077
 10
8.2904663999
 20
-23.2034620777
  0
LINE
  5
353
100
AcDbEntity
  8
RACCORDO
100
AcDbLine
 62
7
  6
CONTINUOUS
 10
8.0324626531
 20
-22.4808123469
 11
8.039743402
 21
-22.4152263992
  0
LINE
  5
354
100
AcDbEntity
  8
RACCORDO
100
AcDbLine
 62
253
  6
CONTINUOUS
 10
-10.8675373469
 20
-24.3308165777
 11
-10.8544387682
 21
-24.317717999
  0
LINE
  5
355
100
AcDbEntity
  8
RACCORDO
100
AcDbLine
 62
253
  6
CONTINUOUS
 10
-10.6175415777
 20
-24.5808123469
 11
-10.604442999
 21
-24.5677137682
  0
LINE
  5
356
100
AcDbEntity
  8
RACCORDO
100
AcDbLine
 62
253
  6
CONTINUOUS
 10
-10.8675373469
 20
24.1691918838
 11
-10.8544387682
 21
24.1560933051
  0
LINE
  5
357
100
AcDbEntity
  8
RACCORDO
100
AcDbLine
 62
253
  6
CONTINUOUS
 10
-10.6175415777
 20
24.4191876531
 11
-10.604442999
 21
24.4060890743
  0
LINE
  5
358
100
AcDbEntity
  8
RACCORDO
100
AcDbLine
 62
7
  6
CONTINUOUS
 10
8.0324626531
 20
22.3191876531
 11
8.039743402
 21
22.2536017054
  0
LWPOLYLINE
  5
359
100
AcDbEntity
  8
RACCORDO
100
AcDbPolyline
 62
253
  6
CONTINUOUS
 90
31
 70
0
 10
10.4193640743
 20
24.1560933051
 10
10.4190210358
 20
24.1691767911
 10
10.4179937459
 20
24.1822244177
 10
10.4162850203
 20
24.1952004239
 10
10.4138995424
 20
24.2080692447
 10
10.4108438502
 20
24.2207956093
 10
10.4071263188
 20
24.2333446369
 10
10.4027571373
 20
24.2456819332
 10
10.3977482808
 20
24.2577736838
 10
10.3921134776
 20
24.2695867476
 10
10.3858681717
 20
24.2810887472
 10
10.3790294803
 20
24.2922481577
 10
10.3716161469
 20
24.3030343933
 10
10.3636484902
 20
24.313417891
 10
10.3551483479
 20
24.3233701914
 10
10.3461390173
 20
24.3328640173
 10
10.3366451914
 20
24.3418733479
 10
10.326692891
 20
24.3503734902
 10
10.3163093933
 20
24.3583411469
 10
10.3055231577
 20
24.3657544803
 10
10.2943637472
 20
24.3725931717
 10
10.2828617476
 20
24.3788384776
 10
10.2710486838
 20
24.3844732808
 10
10.2589569332
 20
24.3894821373
 10
10.2466196369
 20
24.3938513188
 10
10.2340706093
 20
24.3975688502
 10
10.2213442447
 20
24.4006245424
 10
10.2084754239
 20
24.4030100203
 10
10.1954994177
 20
24.4047187459
 10
10.1824517911
 20
24.4057460358
 10
10.1693683051
 20
24.4060890743
  0
LWPOLYLINE
  5
35A
100
AcDbEntity
  8
RACCORDO
100
AcDbPolyline
 62
253
  6
CONTINUOUS
 90
34
 70
0
 10
10.7816624628
 20
21.4185981077
 10
10.7810751628
 20
21.4423426572
 10
10.7793580206
 20
21.4660334809
 10
10.7765149215
 20
21.4896169737
 10
10.7725522984
 20
21.5130397736
 10
10.7674791173
 20
21.5362488822
 10
10.7613068574
 20
21.5591917844
 10
10.7540494842
 20
21.5818165677
 10
10.7457234191
 20
21.6040720392
 10
10.736347501
 20
21.6259078417
 10
10.7259429448
 20
21.6472745676
 10
10.7145332925
 20
21.6681238707
 10
10.7021443607
 20
21.6884085754
 10
10.6888041815
 20
21.7080827837
 10
10.6745429394
 20
21.7271019789
 10
10.6593929033
 20
21.7454231266
 10
10.6433883528
 20
21.7630047716
 10
10.6265655011
 20
21.7798071319
 10
10.6089624132
 20
21.7957921892
 10
10.5906189193
 20
21.810923774
 10
10.5715765249
 20
21.8251676482
 10
10.5518783171
 20
21.8384915824
 10
10.5315688668
 20
21.8508654284
 10
10.5106941278
 20
21.8622611881
 10
10.4893013333
 20
21.8726530764
 10
10.4674388886
 20
21.8820175795
 10
10.4451562615
 20
21.8903335085
 10
10.4225038707
 20
21.8975820468
 10
10.3995329717
 20
21.9037467933
 10
10.3762955403
 20
21.9088137991
 10
10.3528441558
 20
21.9127715989
 10
10.3292318815
 20
21.9156112376
 10
10.3055121445
 20
21.9173262899
 10
10.2817386152
 20
21.917912875
  0
LWPOLYLINE
  5
35B
100
AcDbEntity
  8
RACCORDO
100
AcDbPolyline
 62
7
  6
CONTINUOUS
 90
34
 70
0
 10
10.4324626531
 20
24.1691918838
 10
10.4321795028
 20
24.1810871691
 10
10.4313306873
 20
24.1929555086
 10
10.4299181272
 20
24.2047700192
 10
10.4279450208
 20
24.2165039405
 10
10.4254158348
 20
24.2281306919
 10
10.4223362948
 20
24.2396239321
 10
10.4187133744
 20
24.2509576268
 10
10.4145552788
 20
24.2621061024
 10
10.4098714252
 20
24.2730440994
 10
10.4046724219
 20
24.2837468407
 10
10.3989700447
 20
24.2941900813
 10
10.3927772112
 20
24.304350159
 10
10.3861079485
 20
24.3142040582
 10
10.3789773638
 20
24.3237294569
 10
10.3714016119
 20
24.3329047721
 10
10.3633978535
 20
24.3417092191
 10
10.3549842191
 20
24.3501228535
 10
10.3461797721
 20
24.3581266119
 10
10.3370044569
 20
24.3657023638
 10
10.3274790582
 20
24.3728329485
 10
10.317625159
 20
24.3795022112
 10
10.3074650813
 20
24.3856950447
 10
10.2970218407
 20
24.3913974219
 10
10.2863190994
 20
24.3965964252
 10
10.2753811024
 20
24.4012802788
 10
10.2642326268
 20
24.4054383744
 10
10.2528989321
 20
24.4090612948
 10
10.2414056919
 20
24.4121408348
 10
10.2297789405
 20
24.4146700208
 10
10.2180450192
 20
24.4166431272
 10
10.2062305086
 20
24.4180556873
 10
10.1943621691
 20
24.4189045028
 10
10.1824668838
 20
24.4191876531
  0
LINE
  5
35C
100
AcDbEntity
  8
RACCORDO
100
AcDbLine
 62
7
  6
CONTINUOUS
 10
10.9324626531
 20
-21.9719902875
 11
10.9324626531
 21
21.8103655937
  0
LWPOLYLINE
  5
35D
100
AcDbEntity
  8
RACCORDO
100
AcDbPolyline
 62
7
  6
CONTINUOUS
 90
27
 70
0
 10
10.9150457506
 20
-21.9806980755
 10
10.9146135149
 20
-22.0012999898
 10
10.9133302358
 20
-22.0219042088
 10
10.9111934598
 20
-22.0424753486
 10
10.9082027171
 20
-22.0629746109
 10
10.9043582764
 20
-22.0833693494
 10
10.8996598555
 20
-22.1036328867
 10
10.8941119329
 20
-22.1237218835
 10
10.8877169634
 20
-22.1436070283
 10
10.8804690463
 20
-22.1632810992
 10
10.8723705004
 20
-22.1827087114
 10
10.8634274335
 20
-22.2018489841
 10
10.853635817
 20
-22.2206836903
 10
10.8429925003
 20
-22.2391883865
 10
10.8315135751
 20
-22.2573067334
 10
10.8192274847
 20
-22.2749732594
 10
10.8061440205
 20
-22.2921569811
 10
10.7922851886
 20
-22.3088130059
 10
10.7777096158
 20
-22.3248624636
 10
10.762440341
 20
-22.3402770822
 10
10.746507733
 20
-22.3550234239
 10
10.7299954514
 20
-22.36902804
 10
10.7129668694
 20
-22.3822499089
 10
10.695432468
 20
-22.3946931408
 10
10.6774012429
 20
-22.406357898
 10
10.6589205538
 20
-22.4172184706
 10
10.6384997271
 20
-22.4280261487
  0
LWPOLYLINE
  5
35E
100
AcDbEntity
  8
RACCORDO
100
AcDbPolyline
 62
253
  6
CONTINUOUS
 90
34
 70
0
 10
10.7816624628
 20
-21.5802228015
 10
10.7810751624
 20
-21.6039673601
 10
10.779358019
 20
-21.627658192
 10
10.7765149179
 20
-21.6512416925
 10
10.7725522922
 20
-21.6746644994
 10
10.7674791081
 20
-21.6978736141
 10
10.7613068446
 20
-21.7208165217
 10
10.7540494676
 20
-21.7434413095
 10
10.7457233983
 20
-21.7656967847
 10
10.7363474761
 20
-21.7875325901
 10
10.7259429156
 20
-21.8088993179
 10
10.7145332592
 20
-21.8297486221
 10
10.7021443234
 20
-21.8500333272
 10
10.6888041405
 20
-21.869707535
 10
10.6745428951
 20
-21.8887267291
 10
10.659392856
 20
-21.907047875
 10
10.6433883031
 20
-21.9246295175
 10
10.6265654496
 20
-21.941431875
 10
10.6089623604
 20
-21.9574169288
 10
10.5906188658
 20
-21.9725485099
 10
10.5715764715
 20
-21.9867923802
 10
10.5518782644
 20
-22.0001163101
 10
10.5315688154
 20
-22.0124901519
 10
10.5106940786
 20
-22.0238859074
 10
10.4893012869
 20
-22.0342777915
 10
10.4674388455
 20
-22.0436422907
 10
10.4451562224
 20
-22.0519582159
 10
10.4225038361
 20
-22.0592067509
 10
10.399532942
 20
-22.0653714944
 10
10.3762955161
 20
-22.0704384976
 10
10.3528441373
 20
-22.0743962955
 10
10.329231869
 20
-22.0772359327
 10
10.3055121381
 20
-22.078950984
 10
10.2817386152
 20
-22.0795375689
  0
LINE
  5
35F
100
AcDbEntity
  8
RACCORDO
100
AcDbLine
 62
7
  6
CONTINUOUS
 10
-4.6146115087
 20
-23.8778865087
 11
-4.6175373469
 21
-23.8808123469
  0
LINE
  5
360
100
AcDbEntity
  8
RACCORDO
100
AcDbLine
 62
7
  6
CONTINUOUS
 10
-4.6146115087
 20
23.7162618149
 11
-4.6175373469
 21
23.7191876531
  0
LINE
  5
361
100
AcDbEntity
  8
RACCORDO
100
AcDbLine
 62
7
  6
CONTINUOUS
 10
-4.1856279374
 20
-23.7208880886
 11
-4.1146199703
 21
-23.6761546984
  0
LINE
  5
362
100
AcDbEntity
  8
RACCORDO
100
AcDbLine
 62
7
  6
CONTINUOUS
 10
-4.2140955307
 20
-23.738593548
 11
-4.1856279374
 21
-23.7208880886
  0
LINE
  5
363
100
AcDbEntity
  8
RACCORDO
100
AcDbLine
 62
7
  6
CONTINUOUS
 10
-4.242485667
 20
23.5943673328
 11
-4.2140955307
 21
23.5769688542
  0
LINE
  5
364
100
AcDbEntity
  8
RACCORDO
100
AcDbLine
 62
7
  6
CONTINUOUS
 10
-4.2140955307
 20
23.5769688542
 11
-4.1713761622
 21
23.5503414992
  0
LINE
  5
365
100
AcDbEntity
  8
RACCORDO
100
AcDbLine
 62
7
  6
CONTINUOUS
 10
-4.1713761622
 20
23.5503414992
 11
-4.1146199703
 21
23.5145300045
  0
LINE
  5
366
100
AcDbEntity
  8
RACCORDO
100
AcDbLine
 62
253
  6
CONTINUOUS
 10
-11.0750296402
 20
20.4744374862
 11
-11.0422540103
 21
20.4758494353
  0
LINE
  5
367
100
AcDbEntity
  8
RACCORDO
100
AcDbLine
 62
253
  6
CONTINUOUS
 10
-11.0422540103
 20
20.4758494353
 11
-11.0064498008
 21
20.4771307008
  0
LINE
  5
368
100
AcDbEntity
  8
RACCORDO
100
AcDbLine
 62
253
  6
CONTINUOUS
 10
-11.0064498008
 20
20.4771307008
 11
-10.9679341061
 21
20.4782699356
  0
LINE
  5
369
100
AcDbEntity
  8
RACCORDO
100
AcDbLine
 62
253
  6
CONTINUOUS
 10
-10.9679341061
 20
20.4782699356
 11
-10.927048034
 21
20.47925705
  0
LINE
  5
36A
100
AcDbEntity
  8
RACCORDO
100
AcDbLine
 62
253
  6
CONTINUOUS
 10
-10.927048034
 20
20.47925705
 11
-10.8841536856
 21
20.4800833019
  0
LINE
  5
36B
100
AcDbEntity
  8
RACCORDO
100
AcDbLine
 62
253
  6
CONTINUOUS
 10
-10.8841536856
 20
20.4800833019
 11
-10.8168816852
 21
20.4810054612
  0
LINE
  5
36C
100
AcDbEntity
  8
RACCORDO
100
AcDbLine
 62
253
  6
CONTINUOUS
 10
-10.8168816852
 20
20.4810054612
 11
-10.7472884659
 21
20.4815312059
  0
LINE
  5
36D
100
AcDbEntity
  8
RACCORDO
100
AcDbLine
 62
253
  6
CONTINUOUS
 10
10.2652118446
 20
20.4816559779
 11
-10.7472884659
 21
20.4815312059
  0
LINE
  5
36E
100
AcDbEntity
  8
RACCORDO
100
AcDbLine
 62
253
  6
CONTINUOUS
 10
10.3355845644
 20
20.4814008217
 11
10.2652118446
 21
20.4816559779
  0
LINE
  5
36F
100
AcDbEntity
  8
RACCORDO
100
AcDbLine
 62
253
  6
CONTINUOUS
 10
10.4045562777
 20
20.4807413799
 11
10.3355845644
 21
20.4814008217
  0
LINE
  5
370
100
AcDbEntity
  8
RACCORDO
100
AcDbLine
 62
253
  6
CONTINUOUS
 10
10.4490790226
 20
20.4800833078
 11
10.4045562777
 21
20.4807413799
  0
LINE
  5
371
100
AcDbEntity
  8
RACCORDO
100
AcDbLine
 62
253
  6
CONTINUOUS
 10
10.4919733771
 20
20.4792570555
 11
10.4490790226
 21
20.4800833078
  0
LINE
  5
372
100
AcDbEntity
  8
RACCORDO
100
AcDbLine
 62
253
  6
CONTINUOUS
 10
10.5328594542
 20
20.4782699407
 11
10.4919733771
 21
20.4792570555
  0
LINE
  5
373
100
AcDbEntity
  8
RACCORDO
100
AcDbLine
 62
253
  6
CONTINUOUS
 10
10.5713751527
 20
20.4771307055
 11
10.5328594542
 21
20.4782699407
  0
LINE
  5
374
100
AcDbEntity
  8
RACCORDO
100
AcDbLine
 62
253
  6
CONTINUOUS
 10
10.6071793645
 20
20.4758494394
 11
10.5713751527
 21
20.4771307055
  0
LWPOLYLINE
  5
375
100
AcDbEntity
  8
RACCORDO
100
AcDbPolyline
 62
7
  6
CONTINUOUS
 90
13
 70
0
 10
-10.8264526869
 20
22.2470984917
 10
-10.8316870288
 20
22.2475527886
 10
-10.8365070339
 20
22.2479960088
 10
-10.8409033276
 20
22.2484281525
 10
-10.8448675844
 20
22.2488411219
 10
-10.8483916893
 20
22.2492430148
 10
-10.851468068
 20
22.2496581237
 10
-10.854090851
 20
22.2500899641
 10
-10.8562550718
 20
22.2505350207
 10
-10.8579563243
 20
22.2510070394
 10
-10.859191541
 20
22.2515106023
 10
-10.8599587143
 20
22.2520411273
 10
-10.860256598
 20
22.2525986145
  0
LWPOLYLINE
  5
376
100
AcDbEntity
  8
RACCORDO
100
AcDbPolyline
 62
253
  6
CONTINUOUS
 90
16
 70
0
 10
10.7651356922
 20
-20.6227182034
 10
10.7641716825
 20
-20.623685898
 10
10.7621023217
 20
-20.6246514488
 10
10.758932194
 20
-20.6256127168
 10
10.7546683222
 20
-20.6265675726
 10
10.7493201521
 20
-20.6275139008
 10
10.7428995316
 20
-20.628449605
 10
10.7354206844
 20
-20.6293726124
 10
10.7269001784
 20
-20.6302808781
 10
10.7173568892
 20
-20.6311723902
 10
10.7068119581
 20
-20.6320451735
 10
10.6952887455
 20
-20.6328972948
 10
10.6828127789
 20
-20.6337268661
 10
10.6694116963
 20
-20.6345320498
 10
10.6551151854
 20
-20.6353110621
 10
10.6399549174
 20
-20.6360621774
  0
LINE
  5
377
100
AcDbEntity
  8
RACCORDO
100
AcDbLine
 62
253
  6
CONTINUOUS
 10
8.0324626531
 20
-24.3308165777
 11
8.0455612318
 21
-24.317717999
  0
LINE
  5
378
100
AcDbEntity
  8
RACCORDO
100
AcDbLine
 62
253
  6
CONTINUOUS
 10
8.2824584223
 20
-24.5808123469
 11
8.295557001
 21
-24.5677137682
  0
LWPOLYLINE
  5
379
100
AcDbEntity
  8
RACCORDO
100
AcDbPolyline
 62
7
  6
CONTINUOUS
 90
23
 70
0
 10
4.0786699667
 20
23.7145266199
 10
4.0678808433
 20
23.7139792179
 10
4.0567933812
 20
23.712551548
 10
4.0454075803
 20
23.710324141
 10
4.0336988
 20
23.7073855496
 10
4.021691681
 20
23.7038115246
 10
4.0094601451
 20
23.6996471663
 10
3.9970114048
 20
23.6949520233
 10
3.9843382476
 20
23.6897894627
 10
3.9714929575
 20
23.6841829634
 10
3.9584798254
 20
23.678177885
 10
3.9452945603
 20
23.6718242178
 10
3.9319765734
 20
23.6651337113
 10
3.9185280863
 20
23.6581419362
 10
3.9049468775
 20
23.6508890452
 10
3.8912656927
 20
23.6433813261
 10
3.8774855809
 20
23.6356478409
 10
3.8636054932
 20
23.6277216041
 10
3.8496550287
 20
23.6196068431
 10
3.8356344281
 20
23.6113281821
 10
3.8215434506
 20
23.6029136123
 10
3.8074109732
 20
23.5943673328
 10
3.7790208369
 20
23.5769688542
  0
LWPOLYLINE
  5
37A
100
AcDbEntity
  8
RACCORDO
100
AcDbPolyline
 62
7
  6
CONTINUOUS
 90
34
 70
0
 10
10.1751861349
 20
23.0418373839
 10
10.1882106101
 20
23.0420909613
 10
10.2011401823
 20
23.04271636
 10
10.2139407807
 20
23.0437135802
 10
10.2265908378
 20
23.0450952455
 10
10.2390469881
 20
23.0468487323
 10
10.2512455016
 20
23.0489361688
 10
10.2631461239
 20
23.0513586375
 10
10.2747365229
 20
23.0541150559
 10
10.2859985079
 20
23.0571643053
 10
10.2969096804
 20
23.0605068643
 10
10.3074497852
 20
23.0641422541
 10
10.3176056785
 20
23.0680279201
 10
10.32735982
 20
23.0721639083
 10
10.3366965351
 20
23.0765501725
 10
10.3456068695
 20
23.0811440199
 10
10.3540777124
 20
23.0859452453
 10
10.3620974447
 20
23.0909540537
 10
10.3696603481
 20
23.0961283672
 10
10.3767572405
 20
23.1014678498
 10
10.3833801496
 20
23.1069728374
 10
10.3895258935
 20
23.1126022595
 10
10.3951887745
 20
23.1183557101
 10
10.4003641317
 20
23.1242335951
 10
10.4050509097
 20
23.1301960615
 10
10.4092465347
 20
23.1362426459
 10
10.4129493849
 20
23.1423738117
 10
10.416160362
 20
23.1485510968
 10
10.418879729
 20
23.1547739557
 10
10.4211086754
 20
23.1610429338
 10
10.4228500382
 20
23.167321205
 10
10.4241067769
 20
23.1735964939
 10
10.4248824817
 20
23.179881076
 10
10.4251819042
 20
23.1861749512
  0
LINE
  5
37B
100
AcDbEntity
  8
RACCORDO
100
AcDbLine
 62
253
  6
CONTINUOUS
 10
10.2817386152
 20
21.917912875
 11
-10.7168133091
 21
21.917912875
  0
LINE
  5
37C
100
AcDbEntity
  8
RACCORDO
100
AcDbLine
 62
7
  6
CONTINUOUS
 10
10.1751861349
 20
22.2405759841
 11
8.2897391712
 21
22.2405759841
  0
LINE
  5
37D
100
AcDbEntity
  8
RACCORDO
100
AcDbLine
 62
7
  6
CONTINUOUS
 10
-8.7248138651
 20
22.2405759841
 11
-10.6102608288
 21
22.2405759841
  0
LINE
  5
37E
100
AcDbEntity
  8
RACCORDO
100
AcDbLine
 62
7
  6
CONTINUOUS
 10
-4.1146199703
 20
22.2667798738
 11
3.6795452764
 21
22.2667798738
  0
LINE
  5
37F
100
AcDbEntity
  8
DRAFT
100
AcDbLine
 62
7
  6
CONTINUOUS
 10
-8.4675373469
 20
22.3191876531
 11
-4.6175373469
 21
22.3191876531
  0
LINE
  5
380
100
AcDbEntity
  8
DRAFT
100
AcDbLine
 62
7
  6
CONTINUOUS
 10
4.1824626531
 20
22.3191876531
 11
8.0324626531
 21
22.3191876531
  0
LINE
  5
381
100
AcDbEntity
  8
RACCORDO
100
AcDbLine
 62
7
  6
CONTINUOUS
 10
10.1744589062
 20
23.0418373839
 11
8.2904663999
 21
23.0418373839
  0
LINE
  5
382
100
AcDbEntity
  8
RACCORDO
100
AcDbLine
 62
7
  6
CONTINUOUS
 10
-8.7255410938
 20
23.0418373839
 11
-10.6095336001
 21
23.0418373839
  0
LWPOLYLINE
  5
383
100
AcDbEntity
  8
RACCORDO
100
AcDbPolyline
 62
7
  6
CONTINUOUS
 90
34
 70
0
 10
-10.6102608288
 20
23.0418373839
 10
-10.623285304
 20
23.0420909613
 10
-10.6362148762
 20
23.04271636
 10
-10.6490154746
 20
23.0437135802
 10
-10.6616655317
 20
23.0450952455
 10
-10.674121682
 20
23.0468487323
 10
-10.6863201955
 20
23.0489361688
 10
-10.6982208178
 20
23.0513586375
 10
-10.7098112167
 20
23.0541150559
 10
-10.7210732017
 20
23.0571643053
 10
-10.7319843743
 20
23.0605068643
 10
-10.7425244791
 20
23.0641422541
 10
-10.7526803723
 20
23.0680279201
 10
-10.7624345139
 20
23.0721639083
 10
-10.7717712289
 20
23.0765501725
 10
-10.7806815634
 20
23.0811440199
 10
-10.7891524063
 20
23.0859452453
 10
-10.7971721386
 20
23.0909540537
 10
-10.804735042
 20
23.0961283672
 10
-10.8118319344
 20
23.1014678498
 10
-10.8184548434
 20
23.1069728374
 10
-10.8246005874
 20
23.1126022595
 10
-10.8302634684
 20
23.1183557101
 10
-10.8354388255
 20
23.1242335951
 10
-10.8401256036
 20
23.1301960615
 10
-10.8443212285
 20
23.1362426459
 10
-10.8480240787
 20
23.1423738117
 10
-10.8512350559
 20
23.1485510968
 10
-10.8539544229
 20
23.1547739557
 10
-10.8561833693
 20
23.1610429338
 10
-10.8579247321
 20
23.167321205
 10
-10.8591814708
 20
23.1735964939
 10
-10.8599571756
 20
23.179881076
 10
-10.860256598
 20
23.1861749512
  0
LWPOLYLINE
  5
384
100
AcDbEntity
  8
RACCORDO
100
AcDbPolyline
 62
7
  6
CONTINUOUS
 90
22
 70
0
 10
-4.5137446606
 20
23.7145266199
 10
-4.5029555372
 20
23.7139792179
 10
-4.491868075
 20
23.712551548
 10
-4.4804822741
 20
23.710324141
 10
-4.4687734939
 20
23.7073855496
 10
-4.4567663749
 20
23.7038115246
 10
-4.444534839
 20
23.6996471663
 10
-4.4320860987
 20
23.6949520233
 10
-4.4194129415
 20
23.6897894627
 10
-4.4065676514
 20
23.6841829634
 10
-4.3935545192
 20
23.678177885
 10
-4.3803692542
 20
23.6718242178
 10
-4.3670512672
 20
23.6651337113
 10
-4.3536027802
 20
23.6581419362
 10
-4.3400215714
 20
23.6508890452
 10
-4.3263403866
 20
23.6433813261
 10
-4.3125602748
 20
23.6356478409
 10
-4.2986801871
 20
23.6277216041
 10
-4.2847297226
 20
23.6196068431
 10
-4.270709122
 20
23.6113281821
 10
-4.2566181445
 20
23.6029136123
 10
-4.242485667
 20
23.5943673328
  0
LWPOLYLINE
  5
385
100
AcDbEntity
  8
RACCORDO
100
AcDbPolyline
 62
7
  6
CONTINUOUS
 90
11
 70
0
 10
10.4324617922
 20
22.3188788517
 10
10.4539510503
 20
22.3176613928
 10
10.4754060991
 20
22.315514957
 10
10.49678654
 20
22.3124386782
 10
10.5180745645
 20
22.3084286192
 10
10.5392061742
 20
22.3034903431
 10
10.5600735498
 20
22.2976487296
 10
10.5806223539
 20
22.2909244588
 10
10.6008321458
 20
22.2833297167
 10
10.6206501119
 20
22.2748900107
 10
10.6384997271
 20
22.2664014548
  0
LINE
  5
386
100
AcDbEntity
  8
RACCORDO
100
AcDbLine
 62
253
  6
CONTINUOUS
 10
8.0324626531
 20
24.1691918838
 11
8.0455612318
 21
24.1560933051
  0
LINE
  5
387
100
AcDbEntity
  8
RACCORDO
100
AcDbLine
 62
253
  6
CONTINUOUS
 10
8.2824584223
 20
24.4191876531
 11
8.295557001
 21
24.4060890743
  0
LWPOLYLINE
  5
388
100
AcDbEntity
  8
RACCORDO
100
AcDbPolyline
 62
253
  6
CONTINUOUS
 90
17
 70
0
 10
10.7651356922
 20
20.4610935096
 10
10.7641716926
 20
20.4620612045
 10
10.7621023412
 20
20.4630267556
 10
10.7589322222
 20
20.463988024
 10
10.7546683584
 20
20.4649428802
 10
10.7493201957
 20
20.4658892088
 10
10.7428995819
 20
20.4668249135
 10
10.7354207406
 20
20.4677479212
 10
10.7269002398
 20
20.4686561874
 10
10.7173569551
 20
20.4695476999
 10
10.7068120278
 20
20.4704204838
 10
10.6952888182
 20
20.4712726054
 10
10.6828128539
 20
20.4721021772
 10
10.669411773
 20
20.4729073614
 10
10.6551152631
 20
20.4736863742
 10
10.6399549953
 20
20.4744374898
 10
10.6071793645
 20
20.4758494394
  0
LINE
  5
389
100
AcDbEntity
  8
RACCORDO
100
AcDbLine
 62
253
  6
CONTINUOUS
 10
10.9150457506
 20
-21.9806980755
 11
10.9324626531
 21
-21.9719902875
  0
LINE
  5
38A
100
AcDbEntity
  8
RACCORDO
100
AcDbLine
 62
7
  6
CONTINUOUS
 10
10.6384770625
 20
-22.4280374809
 11
10.6559796551
 21
-22.4192868511
  0
LWPOLYLINE
  5
38B
100
AcDbEntity
  8
RACCORDO
100
AcDbPolyline
 62
7
  6
CONTINUOUS
 90
11
 70
0
 10
10.6384997271
 20
-22.4280261487
 10
10.6206501118
 20
-22.4365147046
 10
10.6008321458
 20
-22.4449544106
 10
10.5806223539
 20
-22.4525491527
 10
10.5600735498
 20
-22.4592734234
 10
10.5392061742
 20
-22.465115037
 10
10.5180745645
 20
-22.4700533131
 10
10.49678654
 20
-22.474063372
 10
10.4754060991
 20
-22.4771396509
 10
10.4539510503
 20
-22.4792860867
 10
10.4324617922
 20
-22.4805035456
  0
LWPOLYLINE
  5
38C
100
AcDbEntity
  8
RACCORDO
100
AcDbPolyline
 62
253
  6
CONTINUOUS
 90
31
 70
0
 10
8.295557001
 20
24.4060890743
 10
8.282504661
 20
24.4057476671
 10
8.2694797667
 20
24.4047244045
 10
8.2565179921
 20
24.4030208003
 10
8.2436522733
 20
24.4006396702
 10
8.2309208081
 20
24.3975865567
 10
8.2183666235
 20
24.393871117
 10
8.2060268196
 20
24.3895045659
 10
8.1939324635
 20
24.384498136
 10
8.1821163852
 20
24.3788653874
 10
8.1706107848
 20
24.3726215858
 10
8.1594474664
 20
24.365783904
 10
8.1486573872
 20
24.3583712739
 10
8.1382702614
 20
24.3504041317
 10
8.1283144242
 20
24.3419042348
 10
8.1188170897
 20
24.3328948129
 10
8.1098042706
 20
24.3234005198
 10
8.1013007291
 20
24.3134474164
 10
8.0933298209
 20
24.3030628271
 10
8.0859134141
 20
24.2922752368
 10
8.0790718383
 20
24.2811142108
 10
8.0728238591
 20
24.269610355
 10
8.0671866108
 20
24.2577952094
 10
8.0621755554
 20
24.2457011721
 10
8.0578044403
 20
24.233361416
 10
8.0540852508
 20
24.2208097686
 10
8.0510281896
 20
24.2080806547
 10
8.0486416469
 20
24.195209015
 10
8.0469321638
 20
24.1822301576
 10
8.0459044208
 20
24.1691796592
 10
8.0455612318
 20
24.1560933051
  0
LWPOLYLINE
  5
38D
100
AcDbEntity
  8
RACCORDO
100
AcDbPolyline
 62
253
  6
CONTINUOUS
 90
31
 70
0
 10
-10.604442999
 20
24.4060890743
 10
-10.6175293531
 20
24.4057458853
 10
-10.6305798515
 20
24.4047181424
 10
-10.6435587089
 20
24.4030086592
 10
-10.6564303485
 20
24.4006221165
 10
-10.6691594625
 20
24.3975650553
 10
-10.6817111099
 20
24.3938458658
 10
-10.694050866
 20
24.3894747508
 10
-10.7061449033
 20
24.3844636953
 10
-10.7179600489
 20
24.378826447
 10
-10.7294639047
 20
24.3725784678
 10
-10.7406249307
 20
24.365736892
 10
-10.751412521
 20
24.3583204852
 10
-10.7617971102
 20
24.350349577
 10
-10.7717502137
 20
24.3418460355
 10
-10.7812445068
 20
24.3328332164
 10
-10.7902539286
 20
24.3233358819
 10
-10.7987538256
 20
24.3133800448
 10
-10.8067209678
 20
24.3029929189
 10
-10.8141335978
 20
24.2922028397
 10
-10.8209712797
 20
24.2810395213
 10
-10.8272150813
 20
24.2695339209
 10
-10.8328478299
 20
24.2577178426
 10
-10.8378542598
 20
24.2456234865
 10
-10.8422208109
 20
24.2332836826
 10
-10.8459362506
 20
24.220729498
 10
-10.848989364
 20
24.2079980328
 10
-10.8513704942
 20
24.1951323141
 10
-10.8530740984
 20
24.1821705395
 10
-10.854097361
 20
24.1691456451
 10
-10.8544387682
 20
24.1560933051
  0
LWPOLYLINE
  5
38E
100
AcDbEntity
  8
RACCORDO
100
AcDbPolyline
 62
7
  6
CONTINUOUS
 90
34
 70
0
 10
8.2824584223
 20
24.4191876531
 10
8.270563137
 20
24.4189045028
 10
8.2586947975
 20
24.4180556873
 10
8.2468802869
 20
24.4166431272
 10
8.2351463656
 20
24.4146700208
 10
8.2235196143
 20
24.4121408348
 10
8.2120263741
 20
24.4090612948
 10
8.2006926793
 20
24.4054383744
 10
8.1895442038
 20
24.4012802788
 10
8.1786062068
 20
24.3965964252
 10
8.1679034655
 20
24.3913974219
 10
8.1574602248
 20
24.3856950447
 10
8.1473001472
 20
24.3795022112
 10
8.1374462479
 20
24.3728329485
 10
8.1279208492
 20
24.3657023638
 10
8.118745534
 20
24.3581266119
 10
8.109941087
 20
24.3501228535
 10
8.1015274526
 20
24.3417092191
 10
8.0935236942
 20
24.3329047721
 10
8.0859479424
 20
24.3237294569
 10
8.0788173576
 20
24.3142040582
 10
8.0721480949
 20
24.304350159
 10
8.0659552614
 20
24.2941900813
 10
8.0602528842
 20
24.2837468407
 10
8.0550538809
 20
24.2730440994
 10
8.0503700273
 20
24.2621061024
 10
8.0462119317
 20
24.2509576268
 10
8.0425890114
 20
24.2396239321
 10
8.0395094713
 20
24.2281306919
 10
8.0369802853
 20
24.2165039405
 10
8.0350071789
 20
24.2047700192
 10
8.0335946188
 20
24.1929555086
 10
8.0327458033
 20
24.1810871691
 10
8.0324626531
 20
24.1691918838
  0
LWPOLYLINE
  5
38F
100
AcDbEntity
  8
RACCORDO
100
AcDbPolyline
 62
7
  6
CONTINUOUS
 90
34
 70
0
 10
-10.6175415777
 20
24.4191876531
 10
-10.629436863
 20
24.4189045028
 10
-10.6413052025
 20
24.4180556873
 10
-10.6531197131
 20
24.4166431272
 10
-10.6648536344
 20
24.4146700208
 10
-10.6764803857
 20
24.4121408348
 10
-10.6879736259
 20
24.4090612948
 10
-10.6993073207
 20
24.4054383744
 10
-10.7104557962
 20
24.4012802788
 10
-10.7213937932
 20
24.3965964252
 10
-10.7320965345
 20
24.3913974219
 10
-10.7425397752
 20
24.3856950447
 10
-10.7526998528
 20
24.3795022112
 10
-10.7625537521
 20
24.3728329485
 10
-10.7720791508
 20
24.3657023638
 10
-10.781254466
 20
24.3581266119
 10
-10.790058913
 20
24.3501228535
 10
-10.7984725474
 20
24.3417092191
 10
-10.8064763058
 20
24.3329047721
 10
-10.8140520576
 20
24.3237294569
 10
-10.8211826424
 20
24.3142040582
 10
-10.8278519051
 20
24.304350159
 10
-10.8340447386
 20
24.2941900813
 10
-10.8397471158
 20
24.2837468407
 10
-10.8449461191
 20
24.2730440994
 10
-10.8496299727
 20
24.2621061024
 10
-10.8537880683
 20
24.2509576268
 10
-10.8574109886
 20
24.2396239321
 10
-10.8604905287
 20
24.2281306919
 10
-10.8630197147
 20
24.2165039405
 10
-10.8649928211
 20
24.2047700192
 10
-10.8664053812
 20
24.1929555086
 10
-10.8672541967
 20
24.1810871691
 10
-10.8675373469
 20
24.1691918838
  0
LINE
  5
390
100
AcDbEntity
  8
RACCORDO
100
AcDbLine
 62
253
  6
CONTINUOUS
 10
3.6795452764
 20
23.5145300045
 11
-4.1146199703
 21
23.5145300045
  0
LINE
  5
391
100
AcDbEntity
  8
RACCORDO
100
AcDbLine
 62
253
  6
CONTINUOUS
 10
-10.604442999
 20
23.5470188694
 11
-8.7306316949
 21
23.5470188694
  0
LINE
  5
392
100
AcDbEntity
  8
RACCORDO
100
AcDbLine
 62
253
  6
CONTINUOUS
 10
8.295557001
 20
23.5470188694
 11
10.1693683051
 21
23.5470188694
  0
LINE
  5
393
100
AcDbEntity
  8
RACCORDO
100
AcDbLine
 62
253
  6
CONTINUOUS
 10
4.0786699667
 20
23.7145266199
 11
-4.5137446606
 21
23.7145266199
  0
LINE
  5
394
100
AcDbEntity
  8
DRAFT
100
AcDbLine
 62
7
  6
CONTINUOUS
 10
-4.6175373469
 20
23.7191876531
 11
4.1824626531
 21
23.7191876531
  0
LINE
  5
395
100
AcDbEntity
  8
RACCORDO
100
AcDbLine
 62
253
  6
CONTINUOUS
 10
8.0455612318
 20
23.7635252204
 11
10.4193640743
 21
23.7635252204
  0
LINE
  5
396
100
AcDbEntity
  8
RACCORDO
100
AcDbLine
 62
253
  6
CONTINUOUS
 10
-8.4806359257
 20
23.7635252204
 11
-10.8544387682
 21
23.7635252204
  0
LINE
  5
397
100
AcDbEntity
  8
RACCORDO
100
AcDbLine
 62
253
  6
CONTINUOUS
 10
8.0455612318
 20
24.1560933051
 11
10.4193640743
 21
24.1560933051
  0
LINE
  5
398
100
AcDbEntity
  8
RACCORDO
100
AcDbLine
 62
253
  6
CONTINUOUS
 10
-8.4806359257
 20
24.1560933051
 11
-10.8544387682
 21
24.1560933051
  0
LINE
  5
399
100
AcDbEntity
  8
RACCORDO
100
AcDbLine
 62
253
  6
CONTINUOUS
 10
10.1693683051
 20
24.4060890743
 11
8.295557001
 21
24.4060890743
  0
LINE
  5
39A
100
AcDbEntity
  8
RACCORDO
100
AcDbLine
 62
253
  6
CONTINUOUS
 10
-8.7306316949
 20
24.4060890743
 11
-10.604442999
 21
24.4060890743
  0
LINE
  5
39B
100
AcDbEntity
  8
RACCORDO
100
AcDbLine
 62
7
  6
CONTINUOUS
 10
-10.6175415777
 20
24.4191876531
 11
-8.7175331162
 21
24.4191876531
  0
LINE
  5
39C
100
AcDbEntity
  8
RACCORDO
100
AcDbLine
 62
7
  6
CONTINUOUS
 10
8.2824584223
 20
24.4191876531
 11
10.1824668838
 21
24.4191876531
  0
LINE
  5
39D
100
AcDbEntity
  8
RACCORDO
100
AcDbLine
 62
253
  6
CONTINUOUS
 10
10.9324626531
 20
21.8103655937
 11
10.9150457506
 21
21.8190733816
  0
LINE
  5
39E
100
AcDbEntity
  8
RACCORDO
100
AcDbLine
 62
7
  6
CONTINUOUS
 10
10.6559796551
 20
22.2576621572
 11
10.6384770625
 21
22.266412787
  0
LWPOLYLINE
  5
39F
100
AcDbEntity
  8
RACCORDO
100
AcDbPolyline
 62
7
  6
CONTINUOUS
 90
27
 70
0
 10
10.6384997271
 20
22.2664014548
 10
10.6589205538
 20
22.2555937767
 10
10.6774012429
 20
22.2447332041
 10
10.695432468
 20
22.2330684469
 10
10.7129668694
 20
22.220625215
 10
10.7299954514
 20
22.2074033461
 10
10.746507733
 20
22.19339873
 10
10.762440341
 20
22.1786523883
 10
10.7777096158
 20
22.1632377697
 10
10.7922851886
 20
22.1471883121
 10
10.8061440205
 20
22.1305322872
 10
10.8192274847
 20
22.1133485656
 10
10.8315135751
 20
22.0956820396
 10
10.8429925003
 20
22.0775636926
 10
10.853635817
 20
22.0590589964
 10
10.8634274335
 20
22.0402242902
 10
10.8723705004
 20
22.0210840175
 10
10.8804690463
 20
22.0016564053
 10
10.8877169634
 20
21.9819823344
 10
10.8941119329
 20
21.9620971896
 10
10.8996598555
 20
21.9420081928
 10
10.9043582764
 20
21.9217446555
 10
10.9082027171
 20
21.901349917
 10
10.9111934598
 20
21.8808506548
 10
10.9133302358
 20
21.8602795149
 10
10.9146135149
 20
21.8396752959
 10
10.9150457506
 20
21.8190733816
  0
LINE
  5
3A0
100
AcDbEntity
  8
RACCORDO
100
AcDbLine
 62
7
  6
CONTINUOUS
 10
-40.5096014083
 20
-24.5764405129
 11
-41.2610558412
 21
-24.5808123469
  0
LINE
  5
3A1
100
AcDbEntity
  8
RACCORDO
100
AcDbLine
 62
253
  6
CONTINUOUS
 10
-40.5096014083
 20
-24.3264447437
 11
-41.2610558412
 21
-24.3308165777
  0
LINE
  5
3A2
100
AcDbEntity
  8
ASSI
100
AcDbLine
 62
7
  6
CONTINUOUS
 10
-40.2661472095
 20
-23.8750241378
 11
-33.7581469755
 21
-23.8371617001
  0
LINE
  5
3A3
100
AcDbEntity
  8
RACCORDO
100
AcDbLine
 62
253
  6
CONTINUOUS
 10
-40.2610558412
 20
-24.3264447437
 11
-40.5096014083
 21
-24.3264447437
  0
LINE
  5
3A4
100
AcDbEntity
  8
RACCORDO
100
AcDbLine
 62
253
  6
CONTINUOUS
 10
-43.7610558412
 20
-24.317717999
 11
-43.512510274
 21
-24.317717999
  0
LINE
  5
3A5
100
AcDbEntity
  8
RACCORDO
100
AcDbLine
 62
253
  6
CONTINUOUS
 10
-40.2610558412
 20
-23.9251499142
 11
-40.5096014083
 21
-23.9251499142
  0
LINE
  5
3A6
100
AcDbEntity
  8
RACCORDO
100
AcDbLine
 62
7
  6
CONTINUOUS
 10
-41.2610558412
 20
-24.5808123469
 11
-43.512510274
 21
-24.5677137682
  0
LINE
  5
3A7
100
AcDbEntity
  8
RACCORDO
100
AcDbLine
 62
253
  6
CONTINUOUS
 10
-41.2610558412
 20
-24.3308165777
 11
-43.512510274
 21
-24.317717999
  0
LINE
  5
3A8
100
AcDbEntity
  8
RACCORDO
100
AcDbLine
 62
7
  6
CONTINUOUS
 10
-42.7597049663
 20
23.04271636
 11
-42.7527618432
 21
23.0468487323
  0
LINE
  5
3A9
100
AcDbEntity
  8
RACCORDO
100
AcDbLine
 62
7
  6
CONTINUOUS
 10
-42.7527618432
 20
23.0468487323
 11
-42.7018813915
 21
23.0765501725
  0
LINE
  5
3AA
100
AcDbEntity
  8
RACCORDO
100
AcDbLine
 62
7
  6
CONTINUOUS
 10
-42.7018813915
 20
23.0765501725
 11
-42.512510274
 21
23.1861749512
  0
LINE
  5
3AB
100
AcDbEntity
  8
RACCORDO
100
AcDbLine
 62
7
  6
CONTINUOUS
 10
-30.8558199199
 20
-22.3900072287
 11
-41.2610558412
 21
-22.4808123469
  0
LINE
  5
3AC
100
AcDbEntity
  8
RACCORDO
100
AcDbLine
 62
253
  6
CONTINUOUS
 10
-41.2588695122
 20
-21.9806980755
 11
-40.2610558412
 21
-21.9719902875
  0
LINE
  5
3AD
100
AcDbEntity
  8
RACCORDO
100
AcDbLine
 62
7
  6
CONTINUOUS
 10
-30.7523296379
 20
-21.6467877802
 11
-40.2610558412
 21
-21.4808123469
  0
LINE
  5
3AE
100
AcDbEntity
  8
RACCORDO
100
AcDbLine
 62
7
  6
CONTINUOUS
 10
-42.6075132813
 20
-22.4100528464
 11
-42.5556297395
 21
-22.4121597146
  0
LINE
  5
3AF
100
AcDbEntity
  8
RACCORDO
100
AcDbLine
 62
7
  6
CONTINUOUS
 10
-42.5556297395
 20
-22.4121597146
 11
-42.5341534714
 21
-22.4131352962
  0
LINE
  5
3B0
100
AcDbEntity
  8
RACCORDO
100
AcDbLine
 62
7
  6
CONTINUOUS
 10
-42.6365989832
 20
-22.4087231856
 11
-42.6075132813
 21
-22.4100528464
  0
LINE
  5
3B1
100
AcDbEntity
  8
RACCORDO
100
AcDbLine
 62
7
  6
CONTINUOUS
 10
-42.6365989832
 20
-22.4087231856
 11
-48.9178347301
 21
-22.0795375689
  0
LINE
  5
3B2
100
AcDbEntity
  8
RACCORDO
100
AcDbLine
 62
253
  6
CONTINUOUS
 10
-48.9003929552
 20
-21.5802228015
 11
-41.2588695122
 21
-21.9806980755
  0
LINE
  5
3B3
100
AcDbEntity
  8
RACCORDO
100
AcDbLine
 62
7
  6
CONTINUOUS
 10
-41.2610558412
 20
-22.4805204241
 11
-42.5341534714
 21
-22.4131352962
  0
LINE
  5
3B4
100
AcDbEntity
  8
RACCORDO
100
AcDbLine
 62
7
  6
CONTINUOUS
 10
-42.512510274
 20
-23.347799645
 11
-42.6396589144
 21
-23.274271354
  0
LINE
  5
3B5
100
AcDbEntity
  8
RACCORDO
100
AcDbLine
 62
7
  6
CONTINUOUS
 10
-42.6396589144
 20
-23.274271354
 11
-42.7294862922
 21
-23.2221029172
  0
LINE
  5
3B6
100
AcDbEntity
  8
RACCORDO
100
AcDbLine
 62
7
  6
CONTINUOUS
 10
-43.7527618432
 20
-23.7858236953
 11
-43.512510274
 21
-23.9251499142
  0
LINE
  5
3B7
100
AcDbEntity
  8
RACCORDO
100
AcDbLine
 62
7
  6
CONTINUOUS
 10
-42.7294862922
 20
-23.2221029172
 11
-42.7557334617
 21
-23.2067149005
  0
LWPOLYLINE
  5
3B8
100
AcDbEntity
  8
RACCORDO
100
AcDbPolyline
 62
7
  6
CONTINUOUS
 90
3
 70
0
 10
-42.7610558412
 20
23.0418373839
 10
-42.7607163367
 20
23.0420909613
 10
-42.7597049663
 20
23.04271636
  0
LINE
  5
3B9
100
AcDbEntity
  8
RACCORDO
100
AcDbLine
 62
253
  6
CONTINUOUS
 10
-41.2610558412
 20
23.3296728013
 11
-40.5096014083
 21
23.7635252204
  0
LINE
  5
3BA
100
AcDbEntity
  8
RACCORDO
100
AcDbLine
 62
7
  6
CONTINUOUS
 10
-41.2610558412
 20
23.0418373839
 11
-40.2610558412
 21
23.6191876531
  0
LINE
  5
3BB
100
AcDbEntity
  8
RACCORDO
100
AcDbLine
 62
253
  6
CONTINUOUS
 10
-50.3375088743
 20
-20.64324101
 11
-50.3380615386
 21
-20.6432806604
  0
LINE
  5
3BC
100
AcDbEntity
  8
RACCORDO
100
AcDbLine
 62
253
  6
CONTINUOUS
 10
-50.3330907371
 20
-20.6430255046
 11
-50.3375088743
 21
-20.64324101
  0
LINE
  5
3BD
100
AcDbEntity
  8
RACCORDO
100
AcDbLine
 62
253
  6
CONTINUOUS
 10
-49.8472110109
 20
-20.6227182034
 11
-50.3330907371
 21
-20.6430255046
  0
LINE
  5
3BE
100
AcDbEntity
  8
RACCORDO
100
AcDbLine
 62
7
  6
CONTINUOUS
 10
-30.2610558412
 20
-20.9808123469
 11
-40.2610558412
 21
-20.9808123469
  0
LINE
  5
3BF
100
AcDbEntity
  8
RACCORDO
100
AcDbLine
 62
253
  6
CONTINUOUS
 10
-40.5096014083
 20
-23.9251499142
 11
-41.2610558412
 21
-23.4912974952
  0
LINE
  5
3C0
100
AcDbEntity
  8
RACCORDO
100
AcDbLine
 62
7
  6
CONTINUOUS
 10
-40.3860558412
 20
-23.7086435633
 11
-41.2610558412
 21
-23.2034620777
  0
LWPOLYLINE
  5
3C1
100
AcDbEntity
  8
RACCORDO
100
AcDbPolyline
 62
7
  6
CONTINUOUS
 90
5
 70
0
 10
-42.7557334617
 20
-23.2067149005
 10
-42.7580495863
 20
-23.2053287795
 10
-42.7597124705
 20
-23.2043056975
 10
-42.7607185039
 20
-23.2036765077
 10
-42.7610558412
 20
-23.2034620777
  0
LWPOLYLINE
  5
3C2
100
AcDbEntity
  8
RACCORDO
100
AcDbPolyline
 62
7
  6
CONTINUOUS
 90
4
 70
0
 10
-43.7610558412
 20
-23.7808123469
 10
-43.7607163367
 20
-23.7810659243
 10
-43.7597049663
 20
-23.7816913231
 10
-43.7527618432
 20
-23.7858236953
  0
LINE
  5
3C3
100
AcDbEntity
  8
RACCORDO
100
AcDbLine
 62
253
  6
CONTINUOUS
 10
-30.4598922949
 20
-18.9789196315
 11
-30.2610558412
 21
-18.9789196315
  0
LWPOLYLINE
  5
3C4
100
AcDbEntity
  8
RACCORDO
100
AcDbPolyline
 62
253
  6
CONTINUOUS
 90
5
 70
0
 10
-43.6335602387
 20
23.5518642373
 10
-43.6346926147
 20
23.5497734449
 10
-43.6354873003
 20
23.5482664749
 10
-43.6359421231
 20
23.5473474465
 10
-43.6360558412
 20
23.5470188694
  0
LINE
  5
3C5
100
AcDbEntity
  8
RACCORDO
100
AcDbLine
 62
253
  6
CONTINUOUS
 10
-43.6302956884
 20
23.5577728902
 11
-43.6335602387
 21
23.5518642373
  0
LINE
  5
3C6
100
AcDbEntity
  8
RACCORDO
100
AcDbLine
 62
253
  6
CONTINUOUS
 10
-43.6229728309
 20
23.5708211326
 11
-43.6302956884
 21
23.5577728902
  0
LINE
  5
3C7
100
AcDbEntity
  8
RACCORDO
100
AcDbLine
 62
253
  6
CONTINUOUS
 10
-43.6003355753
 20
23.6106670572
 11
-43.6229728309
 21
23.5708211326
  0
LINE
  5
3C8
100
AcDbEntity
  8
RACCORDO
100
AcDbLine
 62
253
  6
CONTINUOUS
 10
-43.5255317102
 20
23.7409569441
 11
-43.6003355753
 21
23.6106670572
  0
LINE
  5
3C9
100
AcDbEntity
  8
RACCORDO
100
AcDbLine
 62
253
  6
CONTINUOUS
 10
-43.512510274
 20
23.7635252204
 11
-43.5255317102
 21
23.7409569441
  0
LINE
  5
3CA
100
AcDbEntity
  8
RACCORDO
100
AcDbLine
 62
253
  6
CONTINUOUS
 10
-40.2610558412
 20
15.310524443
 11
-30.4598922949
 21
18.8172949376
  0
LINE
  5
3CB
100
AcDbEntity
  8
RACCORDO
100
AcDbLine
 62
253
  6
CONTINUOUS
 10
-30.4598922949
 20
-18.9789196315
 11
-40.2610558412
 21
-15.4721491368
  0
LINE
  5
3CC
100
AcDbEntity
  8
RACCORDO
100
AcDbLine
 62
7
  6
CONTINUOUS
 10
-40.2610558412
 20
14.7794853104
 11
-30.3926518118
 21
18.3712906368
  0
LINE
  5
3CD
100
AcDbEntity
  8
RACCORDO
100
AcDbLine
 62
7
  6
CONTINUOUS
 10
-30.3926518118
 20
-18.5329153307
 11
-40.2610558412
 21
-14.9411100043
  0
LWPOLYLINE
  5
3CE
100
AcDbEntity
  8
RACCORDO
100
AcDbPolyline
 62
253
  6
CONTINUOUS
 90
43
 70
0
 10
-49.8472110109
 20
-20.6227182034
 10
-49.8451404993
 20
-20.6578765232
 10
-49.841846943
 20
-20.6928604479
 10
-49.8373303421
 20
-20.7276699777
 10
-49.8315820686
 20
-20.7623495394
 10
-49.8246107505
 20
-20.7968547062
 10
-49.8164422713
 20
-20.8310521973
 10
-49.8070721674
 20
-20.8649393258
 10
-49.7965049025
 20
-20.8985187787
 10
-49.7847797515
 20
-20.9316653361
 10
-49.7718925028
 20
-20.9643770118
 10
-49.7578473679
 20
-20.9966557921
 10
-49.742696256
 20
-21.0283824152
 10
-49.7264350703
 20
-21.0595549075
 10
-49.7090679076
 20
-21.0901752426
 10
-49.6906589665
 20
-21.1201300799
 10
-49.6712043075
 20
-21.1494170524
 10
-49.6507078701
 20
-21.1780385271
 10
-49.629245672
 20
-21.2058882635
 10
-49.6068141908
 20
-21.2329633091
 10
-49.5834169487
 20
-21.2592666166
 10
-49.5591405299
 20
-21.2847008032
 10
-49.5339816714
 20
-21.3092626626
 10
-49.5079436361
 20
-21.3329554012
 10
-49.4811227963
 20
-21.3556912555
 10
-49.4535161427
 20
-21.3774667408
 10
-49.4251266845
 20
-21.3982853418
 10
-49.3960598226
 20
-21.4180697483
 10
-49.3663131534
 20
-21.436816036
 10
-49.3358890804
 20
-21.4545281292
 10
-49.3049002145
 20
-21.4711404902
 10
-49.2733445239
 20
-21.4866490431
 10
-49.2412240405
 20
-21.5010578638
 10
-49.2086574707
 20
-21.5143136427
 10
-49.1756427816
 20
-21.5264121919
 10
-49.142182006
 20
-21.5373576993
 10
-49.1083999496
 20
-21.5471094177
 10
-49.0742944132
 20
-21.5556628708
 10
-49.0398675959
 20
-21.5630225349
 10
-49.0052509011
 20
-21.5691610919
 10
-48.97048813
 20
-21.5740694356
 10
-48.9355354813
 20
-21.5777566722
 10
-48.9003929552
 20
-21.5802228015
  0
LWPOLYLINE
  5
3CF
100
AcDbEntity
  8
RACCORDO
100
AcDbPolyline
 62
253
  6
CONTINUOUS
 90
22
 70
0
 10
-49.8472110109
 20
20.4610935096
 10
-49.9238606
 20
18.5056227416
 10
-49.9928468207
 20
16.5499266437
 10
-50.054169673
 20
14.5940052159
 10
-50.1078298641
 20
12.6378283955
 10
-50.1538266868
 20
10.6814262452
 10
-50.1921580195
 20
8.7248889527
 10
-50.2228235076
 20
6.7682165483
 10
-50.2458235058
 20
4.8114090018
 10
-50.2611569552
 20
2.8545564093
 10
-50.268823503
 20
0.8976587726
 10
-50.2688235022
 20
-1.0592839101
 10
-50.2611569526
 20
-3.0161815467
 10
-50.2458235014
 20
-4.9730341389
 10
-50.2228235015
 20
-6.9298416852
 10
-50.1921580116
 20
-8.8865140892
 10
-50.1538266766
 20
-10.8430513978
 10
-50.1078298516
 20
-12.7994535642
 10
-50.0541696601
 20
-14.7556303516
 10
-49.9928468101
 20
-16.7115516812
 10
-49.9238605937
 20
-18.6672476318
 10
-49.8472110109
 20
-20.6227182034
  0
LINE
  5
3D0
100
AcDbEntity
  8
RACCORDO
100
AcDbLine
 62
253
  6
CONTINUOUS
 10
-48.9003929552
 20
21.4185981077
 11
-48.9074058493
 21
21.5591917844
  0
LINE
  5
3D1
100
AcDbEntity
  8
RACCORDO
100
AcDbLine
 62
253
  6
CONTINUOUS
 10
-48.9074058493
 20
21.5591917844
 11
-48.9122983026
 21
21.6681238707
  0
LINE
  5
3D2
100
AcDbEntity
  8
RACCORDO
100
AcDbLine
 62
253
  6
CONTINUOUS
 10
-48.9122983026
 20
21.6681238707
 11
-48.9153869059
 21
21.7454231266
  0
LINE
  5
3D3
100
AcDbEntity
  8
RACCORDO
100
AcDbLine
 62
253
  6
CONTINUOUS
 10
-48.9153869059
 20
21.7454231266
 11
-48.9171463691
 21
21.7957921892
  0
LINE
  5
3D4
100
AcDbEntity
  8
RACCORDO
100
AcDbLine
 62
253
  6
CONTINUOUS
 10
-48.9171463691
 20
21.7957921892
 11
-48.9180332986
 21
21.8251676482
  0
LINE
  5
3D5
100
AcDbEntity
  8
RACCORDO
100
AcDbLine
 62
253
  6
CONTINUOUS
 10
-48.9180332986
 20
21.8251676482
 11
-48.9186817259
 21
21.8508654284
  0
LWPOLYLINE
  5
3D6
100
AcDbEntity
  8
RACCORDO
100
AcDbPolyline
 62
253
  6
CONTINUOUS
 90
11
 70
0
 10
-48.9186817259
 20
21.8508654284
 10
-48.9190857855
 20
21.8726530764
 10
-48.9191949479
 20
21.8820175795
 10
-48.9192418226
 20
21.8903335085
 10
-48.9192263034
 20
21.8975820468
 10
-48.9191484255
 20
21.9037467933
 10
-48.9190083651
 20
21.9088137991
 10
-48.9188064391
 20
21.9127715989
 10
-48.9185431045
 20
21.9156112376
 10
-48.918218957
 20
21.9173262899
 10
-48.91783473
 20
21.917912875
  0
LWPOLYLINE
  5
3D7
100
AcDbEntity
  8
RACCORDO
100
AcDbPolyline
 62
253
  6
CONTINUOUS
 90
10
 70
0
 10
-48.9190857855
 20
-22.0342777915
 10
-48.9191949478
 20
-22.0436422907
 10
-48.9192418223
 20
-22.0519582159
 10
-48.9192263031
 20
-22.0592067509
 10
-48.9191484252
 20
-22.0653714944
 10
-48.9190083648
 20
-22.0704384976
 10
-48.9188064388
 20
-22.0743962955
 10
-48.9185431042
 20
-22.0772359327
 10
-48.9182189568
 20
-22.078950984
 10
-48.9178347301
 20
-22.0795375689
  0
LINE
  5
3D8
100
AcDbEntity
  8
RACCORDO
100
AcDbLine
 62
253
  6
CONTINUOUS
 10
-48.9186817262
 20
-22.0124901519
 11
-48.9190857855
 21
-22.0342777915
  0
LINE
  5
3D9
100
AcDbEntity
  8
RACCORDO
100
AcDbLine
 62
253
  6
CONTINUOUS
 10
-48.9180332993
 20
-21.9867923802
 11
-48.9186817262
 21
-22.0124901519
  0
LINE
  5
3DA
100
AcDbEntity
  8
RACCORDO
100
AcDbLine
 62
253
  6
CONTINUOUS
 10
-48.9166158921
 20
-21.941431875
 11
-48.9180332993
 21
-21.9867923802
  0
LINE
  5
3DB
100
AcDbEntity
  8
RACCORDO
100
AcDbLine
 62
253
  6
CONTINUOUS
 10
-48.9146911819
 20
-21.8887267291
 11
-48.9166158921
 21
-21.941431875
  0
LINE
  5
3DC
100
AcDbEntity
  8
RACCORDO
100
AcDbLine
 62
253
  6
CONTINUOUS
 10
-48.9114047952
 20
-21.8088993179
 11
-48.9146911819
 21
-21.8887267291
  0
LINE
  5
3DD
100
AcDbEntity
  8
RACCORDO
100
AcDbLine
 62
253
  6
CONTINUOUS
 10
-48.9063112016
 20
-21.6978736141
 11
-48.9114047952
 21
-21.8088993179
  0
LINE
  5
3DE
100
AcDbEntity
  8
RACCORDO
100
AcDbLine
 62
253
  6
CONTINUOUS
 10
-48.9003929552
 20
-21.5802228015
 11
-48.9063112016
 21
-21.6978736141
  0
LWPOLYLINE
  5
3DF
100
AcDbEntity
  8
RACCORDO
100
AcDbPolyline
 62
7
  6
CONTINUOUS
 90
11
 70
0
 10
-41.261203814
 20
22.3188788517
 10
-41.2616180596
 20
22.3176613928
 10
-41.261995035
 20
22.315514957
 10
-41.2623340426
 20
22.3124386782
 10
-41.2626288948
 20
22.3084286192
 10
-41.2628843371
 20
22.3034903431
 10
-41.2631160036
 20
22.2976487296
 10
-41.2633280308
 20
22.2909244588
 10
-41.2635146902
 20
22.2833297167
 10
-41.2636767742
 20
22.2748900107
 10
-41.2639236513
 20
22.2555937767
  0
LWPOLYLINE
  5
3E0
100
AcDbEntity
  8
RACCORDO
100
AcDbPolyline
 62
253
  6
CONTINUOUS
 90
7
 70
0
 10
-43.512510274
 20
-24.5677137682
 10
-43.5125843958
 20
-24.5673707296
 10
-43.512654328
 20
-24.5663434398
 10
-43.5127198792
 20
-24.5646347142
 10
-43.5127808695
 20
-24.5622492362
 10
-43.5128371318
 20
-24.559193544
 10
-43.5128885119
 20
-24.5554760127
  0
LINE
  5
3E1
100
AcDbEntity
  8
RACCORDO
100
AcDbLine
 62
253
  6
CONTINUOUS
 10
-43.5128885119
 20
-24.5554760127
 11
-43.5130120202
 21
-24.5404631715
  0
LINE
  5
3E2
100
AcDbEntity
  8
RACCORDO
100
AcDbLine
 62
253
  6
CONTINUOUS
 10
-43.512510274
 20
24.1560933051
 11
-43.5131014179
 21
24.313417891
  0
LINE
  5
3E3
100
AcDbEntity
  8
RACCORDO
100
AcDbLine
 62
253
  6
CONTINUOUS
 10
-43.5130120202
 20
-24.5404631715
 11
-43.5131098663
 21
-24.5034980418
  0
LINE
  5
3E4
100
AcDbEntity
  8
RACCORDO
100
AcDbLine
 62
7
  6
CONTINUOUS
 10
-43.7610558412
 20
-24.317717999
 11
-43.7610558412
 21
-23.7808123469
  0
LINE
  5
3E5
100
AcDbEntity
  8
RACCORDO
100
AcDbLine
 62
7
  6
CONTINUOUS
 10
-43.7610558412
 20
23.7635252204
 11
-43.7610558412
 21
24.1560933051
  0
LINE
  5
3E6
100
AcDbEntity
  8
RACCORDO
100
AcDbLine
 62
253
  6
CONTINUOUS
 10
-43.512510274
 20
-24.317717999
 11
-43.512510274
 21
-23.9251499142
  0
LINE
  5
3E7
100
AcDbEntity
  8
RACCORDO
100
AcDbLine
 62
253
  6
CONTINUOUS
 10
-43.512510274
 20
23.7635252204
 11
-43.512510274
 21
24.1560933051
  0
LINE
  5
3E8
100
AcDbEntity
  8
RACCORDO
100
AcDbLine
 62
7
  6
CONTINUOUS
 10
-42.7610558412
 20
-23.2034620777
 11
-42.7610558412
 21
-22.402200678
  0
LINE
  5
3E9
100
AcDbEntity
  8
RACCORDO
100
AcDbLine
 62
7
  6
CONTINUOUS
 10
-42.7610558412
 20
22.2405759841
 11
-42.7610558412
 21
23.0418373839
  0
LINE
  5
3EA
100
AcDbEntity
  8
RACCORDO
100
AcDbLine
 62
253
  6
CONTINUOUS
 10
-42.512510274
 20
-23.347799645
 11
-42.512510274
 21
-22.4142233084
  0
LINE
  5
3EB
100
AcDbEntity
  8
RACCORDO
100
AcDbLine
 62
253
  6
CONTINUOUS
 10
-42.512510274
 20
22.2525986145
 11
-42.512510274
 21
23.1861749512
  0
LINE
  5
3EC
100
AcDbEntity
  8
RACCORDO
100
AcDbLine
 62
253
  6
CONTINUOUS
 10
-43.5131014179
 20
24.313417891
 11
-43.51306774
 21
24.3657544803
  0
LINE
  5
3ED
100
AcDbEntity
  8
RACCORDO
100
AcDbLine
 62
253
  6
CONTINUOUS
 10
-43.5131098663
 20
-24.5034980418
 11
-43.5128885119
 21
-24.3949693308
  0
LINE
  5
3EE
100
AcDbEntity
  8
RACCORDO
100
AcDbLine
 62
253
  6
CONTINUOUS
 10
-43.5128885119
 20
-24.3949693308
 11
-43.512510274
 21
-24.317717999
  0
LINE
  5
3EF
100
AcDbEntity
  8
RACCORDO
100
AcDbLine
 62
253
  6
CONTINUOUS
 10
-43.51306774
 20
24.3657544803
 11
-43.5129760761
 21
24.3844732808
  0
LWPOLYLINE
  5
3F0
100
AcDbEntity
  8
RACCORDO
100
AcDbPolyline
 62
253
  6
CONTINUOUS
 90
8
 70
0
 10
-43.5129760761
 20
24.3844732808
 10
-43.5128885119
 20
24.3938513188
 10
-43.5128371318
 20
24.3975688502
 10
-43.5127808695
 20
24.4006245424
 10
-43.5127198792
 20
24.4030100203
 10
-43.512654328
 20
24.4047187459
 10
-43.5125843958
 20
24.4057460358
 10
-43.512510274
 20
24.4060890743
  0
LWPOLYLINE
  5
3F1
100
AcDbEntity
  8
RACCORDO
100
AcDbPolyline
 62
7
  6
CONTINUOUS
 90
10
 70
0
 10
-41.2636767742
 20
-22.4365147046
 10
-41.2635146902
 20
-22.4449544106
 10
-41.2633280308
 20
-22.4525491527
 10
-41.2631160036
 20
-22.4592734234
 10
-41.2628843371
 20
-22.465115037
 10
-41.2626288948
 20
-22.4700533131
 10
-41.2623340426
 20
-22.474063372
 10
-41.261995035
 20
-22.4771396509
 10
-41.2616180596
 20
-22.4792860867
 10
-41.261203814
 20
-22.4805035456
  0
LINE
  5
3F2
100
AcDbEntity
  8
RACCORDO
100
AcDbLine
 62
7
  6
CONTINUOUS
 10
-41.2612833982
 20
21.9420081928
 11
-41.2588695122
 21
21.8190733816
  0
LINE
  5
3F3
100
AcDbEntity
  8
RACCORDO
100
AcDbLine
 62
7
  6
CONTINUOUS
 10
-41.263034104
 20
22.0590589964
 11
-41.2612833982
 21
21.9420081928
  0
LINE
  5
3F4
100
AcDbEntity
  8
RACCORDO
100
AcDbLine
 62
7
  6
CONTINUOUS
 10
-41.2639236513
 20
-22.4172184706
 11
-41.2636767742
 21
-22.4365147046
  0
LINE
  5
3F5
100
AcDbEntity
  8
RACCORDO
100
AcDbLine
 62
7
  6
CONTINUOUS
 10
-41.2637641946
 20
22.1305322872
 11
-41.263034104
 21
22.0590589964
  0
LINE
  5
3F6
100
AcDbEntity
  8
RACCORDO
100
AcDbLine
 62
7
  6
CONTINUOUS
 10
-41.2640697378
 20
-22.3946931408
 11
-41.2639236513
 21
-22.4172184706
  0
LINE
  5
3F7
100
AcDbEntity
  8
RACCORDO
100
AcDbLine
 62
253
  6
CONTINUOUS
 10
-40.509069017
 20
24.3813052126
 11
-40.5091767443
 21
24.3982014955
  0
LINE
  5
3F8
100
AcDbEntity
  8
RACCORDO
100
AcDbLine
 62
7
  6
CONTINUOUS
 10
-41.264095514
 20
22.19339873
 11
-41.2637641946
 21
22.1305322872
  0
LINE
  5
3F9
100
AcDbEntity
  8
RACCORDO
100
AcDbLine
 62
253
  6
CONTINUOUS
 10
-40.5090102318
 20
-24.483798855
 11
-40.5096014083
 21
-24.3264447437
  0
LINE
  5
3FA
100
AcDbEntity
  8
RACCORDO
100
AcDbLine
 62
7
  6
CONTINUOUS
 10
-41.2610558412
 20
-22.4805023149
 11
-41.2610558412
 21
-24.5808123469
  0
LINE
  5
3FB
100
AcDbEntity
  8
RACCORDO
100
AcDbLine
 62
7
  6
CONTINUOUS
 10
-41.2610558412
 20
22.318877621
 11
-41.2610558412
 21
24.4191876531
  0
LINE
  5
3FC
100
AcDbEntity
  8
RACCORDO
100
AcDbLine
 62
253
  6
CONTINUOUS
 10
-40.5096014083
 20
24.1648200498
 11
-40.5096014083
 21
23.7635252204
  0
LINE
  5
3FD
100
AcDbEntity
  8
RACCORDO
100
AcDbLine
 62
253
  6
CONTINUOUS
 10
-40.5096014083
 20
-23.9251499142
 11
-40.5096014083
 21
-24.3264447437
  0
LINE
  5
3FE
100
AcDbEntity
  8
RACCORDO
100
AcDbLine
 62
253
  6
CONTINUOUS
 10
-40.5090018359
 20
24.3320626266
 11
-40.509069017
 21
24.3813052126
  0
LINE
  5
3FF
100
AcDbEntity
  8
RACCORDO
100
AcDbLine
 62
7
  6
CONTINUOUS
 10
-41.264095514
 20
-22.3550234239
 11
-41.2640697378
 21
-22.3946931408
  0
LINE
  5
400
100
AcDbEntity
  8
RACCORDO
100
AcDbLine
 62
253
  6
CONTINUOUS
 10
-40.5090440348
 20
-24.5361353425
 11
-40.5090102318
 21
-24.483798855
  0
LINE
  5
401
100
AcDbEntity
  8
RACCORDO
100
AcDbLine
 62
7
  6
CONTINUOUS
 10
-41.2640697378
 20
22.2330684469
 11
-41.264095514
 21
22.19339873
  0
LINE
  5
402
100
AcDbEntity
  8
RACCORDO
100
AcDbLine
 62
253
  6
CONTINUOUS
 10
-40.5094576348
 20
24.1908972842
 11
-40.5090018359
 21
24.3320626266
  0
LINE
  5
403
100
AcDbEntity
  8
RACCORDO
100
AcDbLine
 62
253
  6
CONTINUOUS
 10
-40.5096014083
 20
24.1648200498
 11
-40.5094576348
 21
24.1908972842
  0
LINE
  5
404
100
AcDbEntity
  8
RACCORDO
100
AcDbLine
 62
7
  6
CONTINUOUS
 10
-41.2637641946
 20
-22.2921569811
 11
-41.264095514
 21
-22.3550234239
  0
LINE
  5
405
100
AcDbEntity
  8
RACCORDO
100
AcDbLine
 62
7
  6
CONTINUOUS
 10
-41.2639236513
 20
22.2555937767
 11
-41.2640697378
 21
22.2330684469
  0
LWPOLYLINE
  5
406
100
AcDbEntity
  8
RACCORDO
100
AcDbPolyline
 62
253
  6
CONTINUOUS
 90
3
 70
0
 10
-40.5091770228
 20
-24.5598560045
 10
-40.5091357865
 20
-24.5548495746
 10
-40.5090440348
 20
-24.5361353425
  0
LINE
  5
407
100
AcDbEntity
  8
RACCORDO
100
AcDbLine
 62
7
  6
CONTINUOUS
 10
-41.2627944785
 20
-22.2018489841
 11
-41.2637641946
 21
-22.2921569811
  0
LINE
  5
408
100
AcDbEntity
  8
RACCORDO
100
AcDbLine
 62
7
  6
CONTINUOUS
 10
-41.2609236376
 20
-22.0833693494
 11
-41.2627944785
 21
-22.2018489841
  0
LINE
  5
409
100
AcDbEntity
  8
RACCORDO
100
AcDbLine
 62
7
  6
CONTINUOUS
 10
-41.2588695122
 20
-21.9806980755
 11
-41.2609236376
 21
-22.0833693494
  0
LWPOLYLINE
  5
40A
100
AcDbEntity
  8
RACCORDO
100
AcDbPolyline
 62
253
  6
CONTINUOUS
 90
6
 70
0
 10
-40.5092744902
 20
24.4062918001
 10
-40.5093307606
 20
24.4093488612
 10
-40.5093917611
 20
24.4117354039
 10
-40.5094573244
 20
24.4134448871
 10
-40.5095272708
 20
24.4144726301
 10
-40.5096014083
 20
24.4148158191
  0
LINE
  5
40B
100
AcDbEntity
  8
RACCORDO
100
AcDbLine
 62
253
  6
CONTINUOUS
 10
-40.5091767443
 20
24.3982014955
 11
-40.5092744902
 21
24.4062918001
  0
LINE
  5
40C
100
AcDbEntity
  8
RACCORDO
100
AcDbLine
 62
7
  6
CONTINUOUS
 10
-40.2610558412
 20
24.1648200498
 11
-40.2610558412
 21
23.6191876531
  0
LINE
  5
40D
100
AcDbEntity
  8
RACCORDO
100
AcDbLine
 62
7
  6
CONTINUOUS
 10
-40.2610558412
 20
-23.9251499142
 11
-40.2610558412
 21
-24.3264447437
  0
LINE
  5
40E
100
AcDbEntity
  8
RACCORDO
100
AcDbLine
 62
7
  6
CONTINUOUS
 10
-40.2610558412
 20
-22.4720854791
 11
-40.2610558412
 21
22.3104607853
  0
LWPOLYLINE
  5
40F
100
AcDbEntity
  8
RACCORDO
100
AcDbPolyline
 62
253
  6
CONTINUOUS
 90
7
 70
0
 10
-40.5096014083
 20
-24.5764405129
 10
-40.5095274583
 20
-24.5760991057
 10
-40.5094576348
 20
-24.5750758431
 10
-40.5093921367
 20
-24.5733722389
 10
-40.5093311392
 20
-24.5709911087
 10
-40.5092748322
 20
-24.5679379953
 10
-40.5091770228
 20
-24.5598560045
  0
LINE
  5
410
100
AcDbEntity
  8
ASSI
100
AcDbLine
 62
253
  6
CONTINUOUS
 10
-33.6865360144
 20
-22.4147105138
 11
-33.6865360144
 21
-23.8315857717
  0
LINE
  5
411
100
AcDbEntity
  8
ASSI
100
AcDbLine
 62
253
  6
CONTINUOUS
 10
-33.6865360144
 20
22.25308582
 11
-33.6865360144
 21
23.6699610778
  0
LINE
  5
412
100
AcDbEntity
  8
RACCORDO
100
AcDbLine
 62
7
  6
CONTINUOUS
 10
-33.2610558412
 20
-22.4110077589
 11
-33.2610558412
 21
-23.3371701616
  0
LINE
  5
413
100
AcDbEntity
  8
RACCORDO
100
AcDbLine
 62
7
  6
CONTINUOUS
 10
-33.2610558412
 20
22.249383065
 11
-33.2610558412
 21
23.1755454678
  0
LINE
  5
414
100
AcDbEntity
  8
RACCORDO
100
AcDbLine
 62
253
  6
CONTINUOUS
 10
-30.7523296379
 20
21.4851630863
 11
-30.7523296379
 21
20.8191876531
  0
LINE
  5
415
100
AcDbEntity
  8
RACCORDO
100
AcDbLine
 62
253
  6
CONTINUOUS
 10
-30.7523296379
 20
-20.9808123469
 11
-30.7523296379
 21
-21.6467877802
  0
LINE
  5
416
100
AcDbEntity
  8
RACCORDO
100
AcDbLine
 62
253
  6
CONTINUOUS
 10
-30.4598922949
 20
-20.9808123469
 11
-30.4598922949
 21
-18.9789196315
  0
LINE
  5
417
100
AcDbEntity
  8
RACCORDO
100
AcDbLine
 62
253
  6
CONTINUOUS
 10
-30.4598922949
 20
18.8172949376
 11
-30.4598922949
 21
20.8191876531
  0
LINE
  5
418
100
AcDbEntity
  8
RACCORDO
100
AcDbLine
 62
7
  6
CONTINUOUS
 10
-30.2610558412
 20
-21.7900300749
 11
-30.2610558412
 21
-18.7208538551
  0
LINE
  5
419
100
AcDbEntity
  8
RACCORDO
100
AcDbLine
 62
7
  6
CONTINUOUS
 10
-30.2610558412
 20
18.5592291612
 11
-30.2610558412
 21
21.628405381
  0
LWPOLYLINE
  5
41A
100
AcDbEntity
  8
RACCORDO
100
AcDbPolyline
 62
253
  6
CONTINUOUS
 90
5
 70
0
 10
-40.3885514436
 20
-23.7134889312
 10
-40.3874190676
 20
-23.7113981387
 10
-40.3866243821
 20
-23.7098911688
 10
-40.3861695593
 20
-23.7089721404
 10
-40.3860558412
 20
-23.7086435633
  0
LINE
  5
41B
100
AcDbEntity
  8
RACCORDO
100
AcDbLine
 62
253
  6
CONTINUOUS
 10
-40.391815994
 20
-23.7193975841
 11
-40.3885514436
 21
-23.7134889312
  0
LINE
  5
41C
100
AcDbEntity
  8
RACCORDO
100
AcDbLine
 62
253
  6
CONTINUOUS
 10
-40.3991388514
 20
-23.7324458265
 11
-40.391815994
 21
-23.7193975841
  0
LINE
  5
41D
100
AcDbEntity
  8
RACCORDO
100
AcDbLine
 62
253
  6
CONTINUOUS
 10
-40.421776107
 20
-23.7722917511
 11
-40.3991388514
 21
-23.7324458265
  0
LINE
  5
41E
100
AcDbEntity
  8
RACCORDO
100
AcDbLine
 62
253
  6
CONTINUOUS
 10
-40.4965799721
 20
-23.9025816379
 11
-40.421776107
 21
-23.7722917511
  0
LINE
  5
41F
100
AcDbEntity
  8
RACCORDO
100
AcDbLine
 62
253
  6
CONTINUOUS
 10
-40.5096014083
 20
-23.9251499142
 11
-40.4965799721
 21
-23.9025816379
  0
LINE
  5
420
100
AcDbEntity
  8
RACCORDO
100
AcDbLine
 62
253
  6
CONTINUOUS
 10
-30.4598922949
 20
-18.9789196315
 11
-30.3926518118
 21
-18.5329153307
  0
LINE
  5
421
100
AcDbEntity
  8
RACCORDO
100
AcDbLine
 62
253
  6
CONTINUOUS
 10
-30.3926518118
 20
18.3712906368
 11
-30.4598922949
 21
18.8172949376
  0
LINE
  5
422
100
AcDbEntity
  8
RACCORDO
100
AcDbLine
 62
7
  6
CONTINUOUS
 10
-42.7610558412
 20
-23.2034620777
 11
-43.7610558412
 21
-23.7808123469
  0
LINE
  5
423
100
AcDbEntity
  8
RACCORDO
100
AcDbLine
 62
253
  6
CONTINUOUS
 10
-42.512510274
 20
-23.347799645
 11
-43.512510274
 21
-23.9251499142
  0
LINE
  5
424
100
AcDbEntity
  8
RACCORDO
100
AcDbLine
 62
253
  6
CONTINUOUS
 10
-30.4598922949
 20
18.8172949376
 11
-30.2610558412
 21
18.8172949376
  0
LINE
  5
425
100
AcDbEntity
  8
RACCORDO
100
AcDbLine
 62
7
  6
CONTINUOUS
 10
-43.6360558412
 20
23.5470188694
 11
-42.7610558412
 21
23.0418373839
  0
LINE
  5
426
100
AcDbEntity
  8
RACCORDO
100
AcDbLine
 62
253
  6
CONTINUOUS
 10
-43.512510274
 20
23.7635252204
 11
-42.512510274
 21
23.1861749512
  0
LWPOLYLINE
  5
427
100
AcDbEntity
  8
RACCORDO
100
AcDbPolyline
 62
7
  6
CONTINUOUS
 90
4
 70
0
 10
-40.2610558412
 20
23.6191876531
 10
-40.2613953456
 20
23.6194412305
 10
-40.262406716
 20
23.6200666292
 10
-40.2693498391
 20
23.6241990015
  0
LINE
  5
428
100
AcDbEntity
  8
RACCORDO
100
AcDbLine
 62
7
  6
CONTINUOUS
 10
-30.7523296379
 20
21.4851630863
 11
-40.2610558412
 21
21.3191876531
  0
LINE
  5
429
100
AcDbEntity
  8
RACCORDO
100
AcDbLine
 62
7
  6
CONTINUOUS
 10
-30.2610558412
 20
20.8191876531
 11
-40.2610558412
 21
20.8191876531
  0
LINE
  5
42A
100
AcDbEntity
  8
RACCORDO
100
AcDbLine
 62
253
  6
CONTINUOUS
 10
-49.8472110109
 20
20.4610935096
 11
-50.3330910078
 21
20.4814008217
  0
LWPOLYLINE
  5
42B
100
AcDbEntity
  8
RACCORDO
100
AcDbPolyline
 62
253
  6
CONTINUOUS
 90
3
 70
0
 10
-50.3330910078
 20
20.4814008217
 10
-50.3375091485
 20
20.4816163274
 10
-50.3380618134
 20
20.4816559779
  0
LINE
  5
42C
100
AcDbEntity
  8
RACCORDO
100
AcDbLine
 62
7
  6
CONTINUOUS
 10
-40.2989088949
 20
23.6414925233
 11
-40.5096014083
 21
23.7635252204
  0
LINE
  5
42D
100
AcDbEntity
  8
RACCORDO
100
AcDbLine
 62
7
  6
CONTINUOUS
 10
-40.2693498391
 20
23.6241990015
 11
-40.2989088949
 21
23.6414925233
  0
LWPOLYLINE
  5
42E
100
AcDbEntity
  8
RACCORDO
100
AcDbPolyline
 62
253
  6
CONTINUOUS
 90
43
 70
0
 10
-48.9003929552
 20
21.4185981077
 10
-48.935528775
 20
21.4161328679
 10
-48.970476372
 20
21.4124464389
 10
-49.0052357461
 20
21.4075388208
 10
-49.039851244
 20
21.4014008731
 10
-49.074278519
 20
21.3940417362
 10
-49.108384531
 20
21.3854888316
 10
-49.1421665354
 20
21.3757377223
 10
-49.1756272768
 20
21.3647928452
 10
-49.2086419489
 20
21.3526949329
 10
-49.2412085136
 20
21.3394397938
 10
-49.273329009
 20
21.3250316194
 10
-49.3048847436
 20
21.3095237174
 10
-49.3358736932
 20
21.2929120112
 10
-49.366297882
 20
21.2752005774
 10
-49.3960446907
 20
21.2564549532
 10
-49.4251117005
 20
21.2366712269
 10
-49.4535013302
 20
21.2158533102
 10
-49.481108217
 20
21.1940784754
 10
-49.5079293616
 20
21.1713432374
 10
-49.5339677634
 20
21.1476510812
 10
-49.5591270571
 20
21.1230897346
 10
-49.5834039944
 20
21.0976559766
 10
-49.6068018237
 20
21.0713530282
 10
-49.6292339251
 20
21.0442782796
 10
-49.650696777
 20
21.016428768
 10
-49.671193901
 20
20.9878074562
 10
-49.6906492423
 20
20.9585206227
 10
-49.7090588488
 20
20.9285659162
 10
-49.7264266726
 20
20.8979456881
 10
-49.7426885143
 20
20.8667732708
 10
-49.7578402778
 20
20.835046683
 10
-49.7718860592
 20
20.802767906
 10
-49.7847739473
 20
20.7700562168
 10
-49.7964997349
 20
20.7369096345
 10
-49.8070676291
 20
20.70333014
 10
-49.8164383408
 20
20.6694429527
 10
-49.8246073731
 20
20.6352459312
 10
-49.8315792229
 20
20.6007412168
 10
-49.8373280915
 20
20.5660604531
 10
-49.8418453792
 20
20.5312475213
 10
-49.8451396856
 20
20.4962585401
 10
-49.8472110109
 20
20.4610935096
  0
LINE
  5
42F
100
AcDbEntity
  8
RACCORDO
100
AcDbLine
 62
253
  6
CONTINUOUS
 10
-41.2588695122
 20
21.8190733816
 11
-48.9003929552
 21
21.4185981077
  0
LINE
  5
430
100
AcDbEntity
  8
RACCORDO
100
AcDbLine
 62
7
  6
CONTINUOUS
 10
-48.9178347301
 20
21.917912875
 11
-42.6365989832
 21
22.2470984917
  0
LINE
  5
431
100
AcDbEntity
  8
RACCORDO
100
AcDbLine
 62
7
  6
CONTINUOUS
 10
-41.2610558412
 20
22.3188957302
 11
-42.5341534714
 21
22.2515106023
  0
LINE
  5
432
100
AcDbEntity
  8
RACCORDO
100
AcDbLine
 62
7
  6
CONTINUOUS
 10
-42.5341534714
 20
22.2515106023
 11
-42.5556297395
 21
22.2505350207
  0
LINE
  5
433
100
AcDbEntity
  8
RACCORDO
100
AcDbLine
 62
7
  6
CONTINUOUS
 10
-42.6075132813
 20
22.2484281525
 11
-42.6365989832
 21
22.2470984917
  0
LINE
  5
434
100
AcDbEntity
  8
RACCORDO
100
AcDbLine
 62
7
  6
CONTINUOUS
 10
-42.5556297395
 20
22.2505350207
 11
-42.6075132813
 21
22.2484281525
  0
LINE
  5
435
100
AcDbEntity
  8
RACCORDO
100
AcDbLine
 62
253
  6
CONTINUOUS
 10
-40.2610558412
 20
21.8103655937
 11
-41.2588695122
 21
21.8190733816
  0
LINE
  5
436
100
AcDbEntity
  8
RACCORDO
100
AcDbLine
 62
7
  6
CONTINUOUS
 10
-30.8558199199
 20
22.2283825348
 11
-41.2610558412
 21
22.3191876531
  0
LINE
  5
437
100
AcDbEntity
  8
RACCORDO
100
AcDbLine
 62
253
  6
CONTINUOUS
 10
-41.2610558412
 20
24.1691918838
 11
-43.512510274
 21
24.1560933051
  0
LINE
  5
438
100
AcDbEntity
  8
RACCORDO
100
AcDbLine
 62
7
  6
CONTINUOUS
 10
-41.2610558412
 20
24.4191876531
 11
-43.512510274
 21
24.4060890743
  0
LINE
  5
439
100
AcDbEntity
  8
RACCORDO
100
AcDbLine
 62
253
  6
CONTINUOUS
 10
-43.7610558412
 20
23.7635252204
 11
-43.512510274
 21
23.7635252204
  0
LINE
  5
43A
100
AcDbEntity
  8
RACCORDO
100
AcDbLine
 62
253
  6
CONTINUOUS
 10
-43.7610558412
 20
24.1560933051
 11
-43.512510274
 21
24.1560933051
  0
LINE
  5
43B
100
AcDbEntity
  8
RACCORDO
100
AcDbLine
 62
253
  6
CONTINUOUS
 10
-40.2610558412
 20
24.1648200498
 11
-40.5096014083
 21
24.1648200498
  0
LINE
  5
43C
100
AcDbEntity
  8
ASSI
100
AcDbLine
 62
7
  6
CONTINUOUS
 10
-40.2610558412
 20
23.7133698233
 11
-33.7581469755
 21
23.6755370062
  0
LINE
  5
43D
100
AcDbEntity
  8
RACCORDO
100
AcDbLine
 62
253
  6
CONTINUOUS
 10
-40.5096014083
 20
24.1648200498
 11
-41.2610558412
 21
24.1691918838
  0
LINE
  5
43E
100
AcDbEntity
  8
RACCORDO
100
AcDbLine
 62
7
  6
CONTINUOUS
 10
-40.5096014083
 20
24.4148158191
 11
-41.2610558412
 21
24.4191876531
  0
ARC
  5
43F
100
AcDbEntity
  8
RACCORDO
100
AcDbCircle
 62
7
  6
CONTINUOUS
 10
-48.8393307957
 20
-20.5815932668
 40
1.5
100
AcDbArc
 50
182.3569499908
 51
267.0
  0
ARC
  5
440
100
AcDbEntity
  8
RACCORDO
100
AcDbCircle
 62
7
  6
CONTINUOUS
 10
-30.8610558412
 20
-21.7900300749
 40
0.6
100
AcDbArc
 50
270.5
 51
360.0
  0
ARC
  5
441
100
AcDbEntity
  8
ASSI
100
AcDbCircle
 62
7
  6
CONTINUOUS
 10
-33.7610558412
 20
-23.3371701616
 40
0.5
100
AcDbArc
 50
270.3333333333
 51
360.0
  0
ARC
  5
442
100
AcDbEntity
  8
RACCORDO
100
AcDbCircle
 62
7
  6
CONTINUOUS
 10
-40.5110558412
 20
-24.3264447437
 40
0.25
100
AcDbArc
 50
270.3333333333
 51
360.0
  0
ARC
  5
443
100
AcDbEntity
  8
RACCORDO
100
AcDbCircle
 62
7
  6
CONTINUOUS
 10
-40.5110558412
 20
-23.9251499142
 40
0.25
100
AcDbArc
 50
0.0
 51
60.0
  0
ARC
  5
444
100
AcDbEntity
  8
RACCORDO
100
AcDbCircle
 62
7
  6
CONTINUOUS
 10
-43.5110558412
 20
-24.317717999
 40
0.25
100
AcDbArc
 50
180.0
 51
269.6666666667
  0
ARC
  5
445
100
AcDbEntity
  8
RACCORDO
100
AcDbCircle
 62
7
  6
CONTINUOUS
 10
-30.4610558412
 20
-18.7208538551
 40
0.2
100
AcDbArc
 50
0.0
 51
69.9999998483
  0
ARC
  5
446
100
AcDbEntity
  8
RACCORDO
100
AcDbCircle
 62
7
  6
CONTINUOUS
 10
-48.8393307957
 20
20.4199685729
 40
1.5
100
AcDbArc
 50
93.0
 51
177.6430500092
  0
ARC
  5
447
100
AcDbEntity
  8
RACCORDO
100
AcDbCircle
 62
7
  6
CONTINUOUS
 10
-30.8610558412
 20
21.628405381
 40
0.6
100
AcDbArc
 50
0.0
 51
89.5
  0
ARC
  5
448
100
AcDbEntity
  8
ASSI
100
AcDbCircle
 62
7
  6
CONTINUOUS
 10
-33.7610558412
 20
23.1755454678
 40
0.5
100
AcDbArc
 50
0.0
 51
89.6666666667
  0
ARC
  5
449
100
AcDbEntity
  8
RACCORDO
100
AcDbCircle
 62
7
  6
CONTINUOUS
 10
-43.5110558412
 20
24.1560933051
 40
0.25
100
AcDbArc
 50
90.3333333333
 51
180.0
  0
ARC
  5
44A
100
AcDbEntity
  8
RACCORDO
100
AcDbCircle
 62
7
  6
CONTINUOUS
 10
-40.5110558412
 20
24.1648200498
 40
0.25
100
AcDbArc
 50
0.0
 51
89.6666666667
  0
ARC
  5
44B
100
AcDbEntity
  8
RACCORDO
100
AcDbCircle
 62
7
  6
CONTINUOUS
 10
-43.5110558412
 20
23.7635252204
 40
0.25
100
AcDbArc
 50
180.0
 51
240.0
  0
ARC
  5
44C
100
AcDbEntity
  8
RACCORDO
100
AcDbCircle
 62
7
  6
CONTINUOUS
 10
-30.4610558412
 20
18.5592291612
 40
0.2
100
AcDbArc
 50
290.0000001518
 51
360.0
  0
ARC
  5
44D
100
AcDbEntity
  8
RACCORDO
100
AcDbCircle
 62
7
  6
CONTINUOUS
 10
449.2389441588
 20
-0.0808123469
 40
500.0
100
AcDbArc
 50
177.6430500092
 51
182.3569499908
  0
ELLIPSE
  5
44E
100
AcDbEntity
  8
RACCORDO
100
AcDbEllipse
 62
7
  6
CONTINUOUS
 10
10.432386489
 20
21.8104417461
 30
0.0
 11
0.4473055582
 21
-0.2236357461
 31
0.0
 40
0.9998096356
 41
0.4635410001
 42
1.5708581097
  0
ELLIPSE
  5
44F
100
AcDbEntity
  8
RACCORDO
100
AcDbEllipse
 62
7
  6
CONTINUOUS
 10
-10.8674611829
 20
-21.97206644
 30
0.0
 11
0.4473055582
 21
-0.2236357461
 31
0.0
 40
0.9998096356
 41
-2.6780516535
 42
-1.5707345439
  0
ELLIPSE
  5
450
100
AcDbEntity
  8
RACCORDO
100
AcDbEllipse
 62
7
  6
CONTINUOUS
 10
10.432386489
 20
-21.97206644
 30
0.0
 11
0.4473055582
 21
0.2236357461
 31
0.0
 40
0.9998096356
 41
-1.5708581097
 42
-0.4635410001
  0
ELLIPSE
  5
451
100
AcDbEntity
  8
RACCORDO
100
AcDbEllipse
 62
7
  6
CONTINUOUS
 10
-10.8674611829
 20
21.8104417461
 30
0.0
 11
0.4473055582
 21
0.2236357461
 31
0.0
 40
0.9998096356
 41
1.5707345439
 42
2.6780516535
  0
ELLIPSE
  5
452
100
AcDbEntity
  8
RACCORDO
100
AcDbEllipse
 62
7
  6
CONTINUOUS
 10
-4.1146199703
 20
22.2929837634
 30
0.0
 11
0.5
 21
0.0
 31
0.0
 40
0.0524077793
 41
-3.1357748894
 42
-1.5707963268
  0
ELLIPSE
  5
453
100
AcDbEntity
  8
RACCORDO
100
AcDbEllipse
 62
7
  6
CONTINUOUS
 10
3.6795452764
 20
22.2929837634
 30
0.0
 11
0.5
 21
0.0
 31
0.0
 40
0.0524077793
 41
-1.5707963268
 42
-0.0058177642
  0
ELLIPSE
  5
454
100
AcDbEntity
  8
RACCORDO
100
AcDbEllipse
 62
7
  6
CONTINUOUS
 10
3.6795452764
 20
23.7162787382
 30
0.0
 11
0.5
 21
-0.0
 31
0.0
 40
0.0058178298
 41
-0.6464131586
 42
-0.0058177642
  0
ELLIPSE
  5
455
100
AcDbEntity
  8
RACCORDO
100
AcDbEllipse
 62
7
  6
CONTINUOUS
 10
-10.6102608288
 20
22.253677929
 30
0.0
 11
0.25
 21
0.0
 31
0.0
 40
0.0524077793
 41
-2.6154833905
 42
-1.5707963268
  0
ELLIPSE
  5
456
100
AcDbEntity
  8
RACCORDO
100
AcDbEllipse
 62
7
  6
CONTINUOUS
 10
-8.7248138651
 20
22.253677929
 30
0.0
 11
0.25
 21
0.0
 31
0.0
 40
0.0524077793
 41
-1.5707963268
 42
-0.0058177642
  0
ELLIPSE
  5
457
100
AcDbEntity
  8
RACCORDO
100
AcDbEllipse
 62
7
  6
CONTINUOUS
 10
8.2897391712
 20
22.253677929
 30
0.0
 11
0.25
 21
0.0
 31
0.0
 40
0.0524077793
 41
-3.1357748894
 42
-1.5707963268
  0
ELLIPSE
  5
458
100
AcDbEntity
  8
RACCORDO
100
AcDbEllipse
 62
7
  6
CONTINUOUS
 10
10.1751861349
 20
22.253677929
 30
0.0
 11
0.25
 21
0.0
 31
0.0
 40
0.0524077793
 41
-1.5707963268
 42
-0.5261092631
  0
ELLIPSE
  5
459
100
AcDbEntity
  8
RACCORDO
100
AcDbEllipse
 62
7
  6
CONTINUOUS
 10
-10.6102608288
 20
-22.4153026228
 30
0.0
 11
0.25
 21
-0.0
 31
0.0
 40
0.0524077793
 41
1.5707963268
 42
2.6154833905
  0
ELLIPSE
  5
45A
100
AcDbEntity
  8
RACCORDO
100
AcDbEllipse
 62
7
  6
CONTINUOUS
 10
-4.1146199703
 20
-22.4546084573
 30
0.0
 11
0.5
 21
0.0
 31
0.0
 40
0.0524077793
 41
1.5707963268
 42
3.1357748894
  0
ELLIPSE
  5
45B
100
AcDbEntity
  8
RACCORDO
100
AcDbEllipse
 62
7
  6
CONTINUOUS
 10
-8.7248138651
 20
-22.4153026228
 30
0.0
 11
0.25
 21
-0.0
 31
0.0
 40
0.0524077793
 41
0.0058177642
 42
1.5707963268
  0
ELLIPSE
  5
45C
100
AcDbEntity
  8
RACCORDO
100
AcDbEllipse
 62
7
  6
CONTINUOUS
 10
10.1751861349
 20
-22.4153026228
 30
0.0
 11
0.25
 21
0.0
 31
0.0
 40
0.0524077793
 41
0.5261092631
 42
1.5707963268
  0
ELLIPSE
  5
45D
100
AcDbEntity
  8
RACCORDO
100
AcDbEllipse
 62
7
  6
CONTINUOUS
 10
8.2897391712
 20
-22.4153026228
 30
0.0
 11
0.25
 21
0.0
 31
0.0
 40
0.0524077793
 41
1.5707963268
 42
3.1357748894
  0
ELLIPSE
  5
45E
100
AcDbEntity
  8
RACCORDO
100
AcDbEllipse
 62
7
  6
CONTINUOUS
 10
-4.1146199703
 20
-23.877903432
 30
0.0
 11
0.5
 21
0.0
 31
0.0
 40
0.0058178298
 41
2.495179495
 42
3.1357748894
  0
ELLIPSE
  5
45F
100
AcDbEntity
  8
RACCORDO
100
AcDbEllipse
 62
7
  6
CONTINUOUS
 10
3.6795452764
 20
-23.877903432
 30
0.0
 11
0.5
 21
0.0
 31
0.0
 40
0.0058178298
 41
0.0058177642
 42
0.6464131586
  0
ELLIPSE
  5
460
100
AcDbEntity
  8
RACCORDO
100
AcDbEllipse
 62
7
  6
CONTINUOUS
 10
3.6795452764
 20
-22.4546084573
 30
0.0
 11
0.5
 21
-0.0
 31
0.0
 40
0.0524077793
 41
0.0058177642
 42
1.5707963268
  0
ELLIPSE
  5
461
100
AcDbEntity
  8
RACCORDO
100
AcDbEllipse
 62
7
  6
CONTINUOUS
 10
-4.1146199703
 20
23.7162787382
 30
0.0
 11
0.5
 21
-0.0
 31
0.0
 40
0.0058178298
 41
-3.1357748894
 42
-2.495179495
  0
ELLIPSE
  5
462
100
AcDbEntity
  8
RACCORDO
100
AcDbEllipse
 62
7
  6
CONTINUOUS
 10
-30.7610558412
 20
21.9850869339
 30
0.0
 11
-0.0
 21
0.5
 31
0.0
 40
1.0
 41
-3.1241393611
 42
-1.9176930468
  0
ELLIPSE
  5
463
100
AcDbEntity
  8
RACCORDO
100
AcDbEllipse
 62
7
  6
CONTINUOUS
 10
-30.7610558412
 20
-22.1467116278
 30
0.0
 11
-0.0
 21
0.5
 31
0.0
 40
1.0
 41
-1.2238996068
 42
-0.0174532925
  0
ENDSEC
  0
SECTION
  2
OBJECTS
  0
DICTIONARY
  5
C
100
AcDbDictionary
280
0
281
1
  3
ACAD_GROUP
350
D
  3
ACAD_MLINESTYLE
350
17
  3
ACAD_LAYOUT
350
1A
  3
ACAD_PLOTSETTINGS
350
19
  3
ACAD_PLOTSTYLENAME
350
E
  0
DICTIONARY
  5
D
102
{ACAD_REACTORS
330
C
102
}
100
AcDbDictionary
280
0
281
1
  0
ACDBDICTIONARYWDFLT
  5
E
102
{ACAD_REACTORS
330
C
102
}
100
AcDbDictionary
281
1
  3
Normal
350
F
100
AcDbDictionaryWithDefault
340
F
  0
DICTIONARY
  5
17
102
{ACAD_REACTORS
330
C
102
}
100
AcDbDictionary
280
0
281
1
  3
Standard
350
18
  0
DICTIONARY
  5
19
102
{ACAD_REACTORS
330
C
102
}
100
AcDbDictionary
281
1
  0
DICTIONARY
  5
1A
102
{ACAD_REACTORS
330
C
102
}
100
AcDbDictionary
281
1
  3
Model
350
464
  3
Layout1
350
465
  0
ACDBPLACEHOLDER
  5
F
102
{ACAD_REACTORS
330
E
102
}
  0
MLINESTYLE
  5
18
102
{ACAD_REACTORS
330
17
102
}
100
AcDbMlineStyle
  2
STANDARD
 70
0
  3

 62
256
 51
90.0
 52
90.0
 71
2
 49
0.5
 62
256
  6
BYLAYER
 49
-0.5
 62
256
  6
BYLAYER
  0
LAYOUT
  5
464
102
{ACAD_REACTORS
330
1A
102
}
100
AcDbPlotSettings
  1

  2
none_device
  4
ISO_A4_(297.00_x_210.00_MM)
  6

 40
0.0
 41
0.0
 42
0.0
 43
0.0
 44
297.0
 45
210.0
 46
0.0
 47
0.0
 48
0.0
 49
0.0
140
0.0
141
0.0
142
1.0
143
1.0
 70
1024
 72
1
 73
0
 74
0
  7

 75
0
147
1.0
148
0.0
149
0.0
100
AcDbLayout
  1
Model
 70
0
 71
0
 10
0.0
 20
0.0
 11
297.0
 21
210.0
 12
0.0
 22
0.0
 32
0.0
 14
0.0
 24
0.0
 34
0.0
 15
0.0
 25
0.0
 35
0.0
146
0.0
 13
0.0
 23
0.0
 33
0.0
 16
1.0
 26
0.0
 36
0.0
 17
0.0
 27
1.0
 37
0.0
 76
0
330
212
345
0
346
0
  0
LAYOUT
  5
465
102
{ACAD_REACTORS
330
1A
102
}
100
AcDbPlotSettings
  1

  2
none_device
  4
ISO_A4_(297.00_x_210.00_MM)
  6

 40
0.0
 41
0.0
 42
0.0
 43
0.0
 44
297.0
 45
210.0
 46
0.0
 47
0.0
 48
0.0
 49
0.0
140
0.0
141
0.0
142
1.0
143
1.0
 70
0
 72
1
 73
0
 74
0
  7

 75
0
147
1.0
148
0.0
149
0.0
100
AcDbLayout
  1
Layout1
 70
0
 71
1
 10
0.0
 20
0.0
 11
297.0
 21
210.0
 12
0.0
 22
0.0
 32
0.0
 14
0.0
 24
0.0
 34
0.0
 15
0.0
 25
0.0
 35
0.0
146
0.0
 13
0.0
 23
0.0
 33
0.0
 16
1.0
 26
0.0
 36
0.0
 17
0.0
 27
1.0
 37
0.0
 76
0
330
213
345
0
346
0
  0
ENDSEC
  0
EOF
