  0
SECTION
  2
HEADER
  9
$ACADVER
  1
AC1015
  9
$DWGCODEPAGE
  3
ANSI_1252
  9
$EXTMAX
 10
297.0
 20
210.0
 30
0.0
  9
$EXTMIN
 10
0.0
 20
0.0
 30
0.0
  9
$LIMMIN
 10
0.0
 20
0.0
  9
$LIMMAX
 10
297.0
 20
210.0
  9
$VIEWCTR
 10
148.5
 20
105.0
  9
$VIEWSIZE
 40
210.0
  9
$CLAYER
  8
0
  9
$LTSCALE
 40
16.335
  9
$CELTYPE
  6
BYLAYER
  9
$DIMSCALE
 40
1.0
  9
$DIMASZ
 40
3.0
  9
$DIMEXO
 40
1.85625
  9
$DIMDLI
 40
11.286
  9
$DIMEXE
 40
5.346
  9
$DIMCEN
 40
2.673
  9
$DIMLFAC
 40
1.0
  9
$DIMBLK
  1
_FILLED
  9
$DIMTXT
 40
3.0
  9
$DIMTOL
 70
1
  9
$DIMLIM
 70
0
  9
$DIMTFAC
 40
1.0
  9
$DIMTP
 40
0.01
  9
$DIMTM
 40
0.01
  9
$PDMODE
 70
3
  9
$PDSIZE
 40
3.0
  9
$HANDSEED
  5
905
  9
$TILEMODE
 70
1
  9
$MEASUREMENT
 70
1
  9
$INSUNITS
 70
4
  0
ENDSEC
  0
SECTION
  2
CLASSES
  0
CLASS
  1
ACDBDICTIONARYWDFLT
  2
AcDbDictionaryWithDefault
  3
AutoCAD 2000
 90
0
280
0
281
0
  0
CLASS
  1
ACDBPLACEHOLDER
  2
AcDbPlaceHolder
  3
AutoCAD 2000
 90
0
280
0
281
0
  0
CLASS
  1
LAYOUT
  2
AcDbLayout
  3
AutoCAD 2000
 90
0
280
0
281
0
  0
ENDSEC
  0
SECTION
  2
TABLES
  0
TABLE
  2
VPORT
  5
8
100
AcDbSymbolTable
 70
2
  0
VPORT
  5
1F4
100
AcDbSymbolTableRecord
100
AcDbViewportTableRecord
  2
*ACTIVE
 70
0
 10
0.0
 20
0.0
 11
1.0
 21
1.0
 12
148.5
 22
105.0
 13
0.0
 23
0.0
 14
1.0
 24
1.0
 15
0.0
 25
0.0
 16
0.0
 26
0.0
 36
1.0
 17
0.0
 27
0.0
 37
0.0
 40
210.0
 41
1.4142857143
 42
50.0
 43
0.0
 44
0.0
 50
0.0
 51
0.0
 71
0
 72
100
 73
1
 74
1
 75
0
 76
0
 77
0
 78
0
  0
ENDTAB
  0
TABLE
  2
LTYPE
  5
5
100
AcDbSymbolTable
 70
6
  0
LTYPE
  5
14
100
AcDbSymbolTableRecord
100
AcDbLinetypeTableRecord
  2
BYBLOCK
 70
0
  3

 72
65
 73
0
 40
0.0
  0
LTYPE
  5
15
100
AcDbSymbolTableRecord
100
AcDbLinetypeTableRecord
  2
BYLAYER
 70
0
  3

 72
65
 73
0
 40
0.0
  0
LTYPE
  5
16
100
AcDbSymbolTableRecord
100
AcDbLinetypeTableRecord
  2
CONTINUOUS
 70
64
  3
Solid line
 72
65
 73
0
 40
0.0
  0
LTYPE
  5
1F5
100
AcDbSymbolTableRecord
100
AcDbLinetypeTableRecord
  2
CENTER
 70
64
  3
____ _ ____ _ ____ _ ____ _ ____ _ ____ _ ____
 72
65
 73
4
 40
0.6
 49
0.375
 74
0
 49
-0.075
 74
0
 49
0.075
 74
0
 49
-0.075
 74
0
  0
LTYPE
  5
1F6
100
AcDbSymbolTableRecord
100
AcDbLinetypeTableRecord
  2
HIDDEN
 70
64
  3
- - - - - - - - - - - - - - - - - - - -
 72
65
 73
2
 40
0.2
 49
0.1
 74
0
 49
-0.1
 74
0
  0
LTYPE
  5
1F7
100
AcDbSymbolTableRecord
100
AcDbLinetypeTableRecord
  2
PHANTOM
 70
64
  3
_____ _ _ _____ _ _ _____ _ _ _____
 72
65
 73
6
 40
0.8
 49
0.45
 74
0
 49
-0.05
 74
0
 49
0.1
 74
0
 49
-0.05
 74
0
 49
0.1
 74
0
 49
-0.05
 74
0
  0
LTYPE
  5
1F8
100
AcDbSymbolTableRecord
100
AcDbLinetypeTableRecord
  2
DOT
 70
64
  3
. . . . . . . . . . . . . . . . . . . .
 72
65
 73
2
 40
0.2
 49
0.1
 74
0
 49
-0.1
 74
0
  0
LTYPE
  5
1F9
100
AcDbSymbolTableRecord
100
AcDbLinetypeTableRecord
  2
DASHED
 70
64
  3
- - - - - - - - - - - - - - - - - - - -
 72
65
 73
2
 40
0.2
 49
0.1
 74
0
 49
-0.1
 74
0
  0
ENDTAB
  0
TABLE
  2
LAYER
  5
2
100
AcDbSymbolTable
 70
36
  0
LAYER
  5
10
100
AcDbSymbolTableRecord
100
AcDbLayerTableRecord
  2
0
 70
0
 62
7
  6
CONTINUOUS
370
-3
390
F
  0
LAYER
  5
1FA
100
AcDbSymbolTableRecord
100
AcDbLayerTableRecord
  2
DEFAULT_1
 70
0
 62
7
  6
CENTER
370
-3
390
F
  0
LAYER
  5
1FB
100
AcDbSymbolTableRecord
100
AcDbLayerTableRecord
  2
DEFAULT_2
 70
0
 62
7
  6
HIDDEN
370
-3
390
F
  0
LAYER
  5
1FC
100
AcDbSymbolTableRecord
100
AcDbLayerTableRecord
  2
DEFAULT_3
 70
0
 62
7
  6
PHANTOM
370
-3
390
F
  0
LAYER
  5
1FD
100
AcDbSymbolTableRecord
100
AcDbLayerTableRecord
  2
ASSI
 70
0
 62
7
  6
CONTINUOUS
370
-3
390
F
  0
LAYER
  5
1FE
100
AcDbSymbolTableRecord
100
AcDbLayerTableRecord
  2
COLORE_MATERIALE
 70
0
 62
7
  6
CONTINUOUS
370
-3
390
F
  0
LAYER
  5
1FF
100
AcDbSymbolTableRecord
100
AcDbLayerTableRecord
  2
COORDINATE
 70
0
 62
7
  6
CONTINUOUS
370
-3
390
F
  0
LAYER
  5
200
100
AcDbSymbolTableRecord
100
AcDbLayerTableRecord
  2
COORD_ORIGINE
 70
0
 62
7
  6
CONTINUOUS
370
-3
390
F
  0
LAYER
  5
201
100
AcDbSymbolTableRecord
100
AcDbLayerTableRecord
  2
COPY
 70
0
 62
7
  6
CONTINUOUS
370
-3
390
F
  0
LAYER
  5
202
100
AcDbSymbolTableRecord
100
AcDbLayerTableRecord
  2
COPY_PUBLISH
 70
0
 62
7
  6
CONTINUOUS
370
-3
390
F
  0
LAYER
  5
203
100
AcDbSymbolTableRecord
100
AcDbLayerTableRecord
  2
COSMETICI
 70
0
 62
7
  6
CONTINUOUS
370
-3
390
F
  0
LAYER
  5
204
100
AcDbSymbolTableRecord
100
AcDbLayerTableRecord
  2
CURVE
 70
0
 62
7
  6
CONTINUOUS
370
-3
390
F
  0
LAYER
  5
205
100
AcDbSymbolTableRecord
100
AcDbLayerTableRecord
  2
DRAFT
 70
0
 62
7
  6
CONTINUOUS
370
-3
390
F
  0
LAYER
  5
206
100
AcDbSymbolTableRecord
100
AcDbLayerTableRecord
  2
IMPORT_IGES
 70
0
 62
7
  6
CONTINUOUS
370
-3
390
F
  0
LAYER
  5
207
100
AcDbSymbolTableRecord
100
AcDbLayerTableRecord
  2
INTFCLR_2
 70
0
 62
7
  6
CONTINUOUS
370
-3
390
F
  0
LAYER
  5
208
100
AcDbSymbolTableRecord
100
AcDbLayerTableRecord
  2
INTF_1
 70
0
 62
7
  6
CONTINUOUS
370
-3
390
F
  0
LAYER
  5
209
100
AcDbSymbolTableRecord
100
AcDbLayerTableRecord
  2
NOTE
 70
0
 62
7
  6
CONTINUOUS
370
-3
390
F
  0
LAYER
  5
20A
100
AcDbSymbolTableRecord
100
AcDbLayerTableRecord
  2
PIANI
 70
0
 62
7
  6
CONTINUOUS
370
-3
390
F
  0
LAYER
  5
20B
100
AcDbSymbolTableRecord
100
AcDbLayerTableRecord
  2
PIANI_ORIGINE
 70
0
 62
7
  6
CONTINUOUS
370
-3
390
F
  0
LAYER
  5
20C
100
AcDbSymbolTableRecord
100
AcDbLayerTableRecord
  2
PIANI_RIFERIMENTO
 70
0
 62
7
  6
CONTINUOUS
370
-3
390
F
  0
LAYER
  5
20D
100
AcDbSymbolTableRecord
100
AcDbLayerTableRecord
  2
PIANI_SFORMO
 70
0
 62
7
  6
CONTINUOUS
370
-3
390
F
  0
LAYER
  5
20E
100
AcDbSymbolTableRecord
100
AcDbLayerTableRecord
  2
PUNTI
 70
0
 62
7
  6
CONTINUOUS
370
-3
390
F
  0
LAYER
  5
20F
100
AcDbSymbolTableRecord
100
AcDbLayerTableRecord
  2
RACCORDO
 70
0
 62
7
  6
CONTINUOUS
370
-3
390
F
  0
LAYER
  5
210
100
AcDbSymbolTableRecord
100
AcDbLayerTableRecord
  2
SIMBOLI
 70
0
 62
7
  6
CONTINUOUS
370
-3
390
F
  0
LAYER
  5
211
100
AcDbSymbolTableRecord
100
AcDbLayerTableRecord
  2
SMUSSO
 70
0
 62
7
  6
CONTINUOUS
370
-3
390
F
  0
LAYER
  5
212
100
AcDbSymbolTableRecord
100
AcDbLayerTableRecord
  2
SNAPLINE
 70
0
 62
7
  6
CONTINUOUS
370
-3
390
F
  0
LAYER
  5
213
100
AcDbSymbolTableRecord
100
AcDbLayerTableRecord
  2
SUPERFICI
 70
0
 62
7
  6
CONTINUOUS
370
-3
390
F
  0
LAYER
  5
214
100
AcDbSymbolTableRecord
100
AcDbLayerTableRecord
  2
TRASH
 70
0
 62
7
  6
CONTINUOUS
370
-3
390
F
  0
LAYER
  5
215
100
AcDbSymbolTableRecord
100
AcDbLayerTableRecord
  2
XSEC_DATUMS
 70
0
 62
7
  6
CONTINUOUS
370
-3
390
F
  0
ENDTAB
  0
TABLE
  2
STYLE
  5
3
100
AcDbSymbolTable
 70
1
  0
STYLE
  5
11
100
AcDbSymbolTableRecord
100
AcDbTextStyleTableRecord
  2
STANDARD
 70
0
 40
0.0
 41
0.8
 50
0.0
 71
0
 42
0.2
  3
txt
  4

  0
STYLE
  5
216
100
AcDbSymbolTableRecord
100
AcDbTextStyleTableRecord
  2
TEXTSTYLE_1
 70
0
 40
0.0
 41
0.8
 50
0.0
 71
0
 42
0.2
  3
gdt
  4

  0
ENDTAB
  0
TABLE
  2
VIEW
  5
6
100
AcDbSymbolTable
 70
0
  0
ENDTAB
  0
TABLE
  2
UCS
  5
7
100
AcDbSymbolTable
 70
0
  0
ENDTAB
  0
TABLE
  2
APPID
  5
9
100
AcDbSymbolTable
 70
1
  0
APPID
  5
217
100
AcDbSymbolTableRecord
100
AcDbRegAppTableRecord
  2
ACAD
 70
0
  0
ENDTAB
  0
TABLE
  2
BLOCK_RECORD
  5
1
100
AcDbSymbolTable
 70
0
  0
BLOCK_RECORD
  5
218
100
AcDbSymbolTableRecord
100
AcDbBlockTableRecord
  2
*Model_Space
  0
BLOCK_RECORD
  5
219
100
AcDbSymbolTableRecord
100
AcDbBlockTableRecord
  2
*Paper_Space
  0
BLOCK_RECORD
  5
21A
100
AcDbSymbolTableRecord
100
AcDbBlockTableRecord
  2
_FILLED
  0
BLOCK_RECORD
  5
21B
100
AcDbSymbolTableRecord
100
AcDbBlockTableRecord
  2
*D0
  0
BLOCK_RECORD
  5
21C
100
AcDbSymbolTableRecord
100
AcDbBlockTableRecord
  2
*D1
  0
BLOCK_RECORD
  5
21D
100
AcDbSymbolTableRecord
100
AcDbBlockTableRecord
  2
*D2
  0
BLOCK_RECORD
  5
21E
100
AcDbSymbolTableRecord
100
AcDbBlockTableRecord
  2
*D3
  0
ENDTAB
  0
TABLE
  2
DIMSTYLE
  5
A
100
AcDbSymbolTable
 70
1
100
AcDbDimStyleTable
 71
0
  0
DIMSTYLE
105
21F
100
AcDbSymbolTableRecord
100
AcDbDimStyleTableRecord
  2
STANDARD
 70
0
  3

  4

 40
1.0
 41
3.0
 42
0.0625
 43
0.38
 44
0.18
 45
0.0
 46
0.0
 47
0.01
 48
0.01
140
3.0
141
0.09
142
0.0
143
25.4
144
1.0
145
0.0
146
1.0
147
0.09
 71
1.0
 72
0.0
 73
0
 74
0
 75
0
 76
0
 77
1
 78
8
170
0
171
2
172
0
173
0
174
0
175
0
176
0
177
0
178
0
270
2
271
2
272
2
273
2
274
2
275
0
280
0
281
0
282
0
283
1
284
8
285
0
286
0
287
3
288
0
340
11
341
21A
342
21A
343
21A
344
21A
  0
DIMSTYLE
105
220
100
AcDbSymbolTableRecord
100
AcDbDimStyleTableRecord
  2
DIMSTYLE_1
 70
0
  3

  4

 40
1.0
 41
3.0
 42
0.0625
 43
0.38
 44
0.18
 45
0.0
 46
0.0
 47
0.0
 48
0.0
140
3.0
141
0.09
142
0.0
143
25.4
144
1.0
145
0.0
146
1.0
147
0.09
 71
0.0
 72
0.0
 73
0
 74
0
 75
0
 76
0
 77
1
 78
8
170
0
171
2
172
0
173
0
174
0
175
0
176
0
177
0
178
0
270
2
271
2
272
2
273
2
274
2
275
0
280
0
281
0
282
0
283
1
284
8
285
0
286
0
287
3
288
0
340
11
341
21A
342
21A
343
21A
344
21A
  0
ENDTAB
  0
ENDSEC
  0
SECTION
  2
BLOCKS
  0
BLOCK
  5
20
100
AcDbEntity
  8
0
100
AcDbBlockBegin
  2
*Model_Space
 70
0
 10
0.0
 20
0.0
 30
0.0
  3
*Model_Space
  1

  0
ENDBLK
  5
21
100
AcDbEntity
  8
0
100
AcDbBlockEnd
  0
BLOCK
  5
1C
100
AcDbEntity
  8
0
100
AcDbBlockBegin
  2
*Paper_Space
 70
0
 10
0.0
 20
0.0
 30
0.0
  3
*Paper_Space
  1

  0
ENDBLK
  5
1D
100
AcDbEntity
  8
0
100
AcDbBlockEnd
  0
BLOCK
  5
221
100
AcDbEntity
  8
0
100
AcDbBlockBegin
  2
_FILLED
 70
64
 10
0.0
 20
0.0
  3
_FILLED
  1

  0
SOLID
  5
222
100
AcDbEntity
  8
0
  6
BYBLOCK
 62
0
100
AcDbTrace
 10
0.0
 20
0.0
 11
-1.0
 21
0.3166666667
 12
-1.0
 22
-0.3166666667
 13
-1.0
 23
-0.3166666667
  0
ENDBLK
  5
223
100
AcDbEntity
  8
0
  6
BYBLOCK
 62
0
100
AcDbBlockEnd
  0
BLOCK
  5
224
100
AcDbEntity
  8
0
100
AcDbBlockBegin
 62
7
  6
CONTINUOUS
  2
*D0
 70
65
 10
0.0
 20
0.0
  3
*D0
  1

  0
LINE
  5
225
100
AcDbEntity
  8
0
100
AcDbLine
 62
7
  6
CONTINUOUS
 10
8.9999957692
 20
24.5
 11
20.65
 21
24.5
  0
LINE
  5
226
100
AcDbEntity
  8
0
100
AcDbLine
 62
7
  6
CONTINUOUS
 10
10.9000042308
 20
-24.5
 11
20.65
 21
-24.5
  0
LINE
  5
227
100
AcDbEntity
  8
0
100
AcDbLine
 62
7
  6
CONTINUOUS
 10
19.15
 20
24.5
 11
19.15
 21
0.0
  0
LINE
  5
228
100
AcDbEntity
  8
0
100
AcDbLine
 62
7
  6
CONTINUOUS
 10
19.15
 20
-24.5
 11
19.15
 21
0.0
  0
INSERT
  5
229
100
AcDbEntity
  8
0
100
AcDbBlockReference
 62
7
  6
CONTINUOUS
  2
_FILLED
 10
19.15
 20
24.5
 41
3.0
 42
3.0
 43
3.0
 50
90.0
  0
INSERT
  5
22A
100
AcDbEntity
  8
0
100
AcDbBlockReference
 62
7
  6
CONTINUOUS
  2
_FILLED
 10
19.15
 20
-24.5
 41
3.0
 42
3.0
 43
3.0
 50
270.0
  0
ENDBLK
  5
22B
100
AcDbEntity
  8
0
  6
BYBLOCK
 62
0
100
AcDbBlockEnd
  0
BLOCK
  5
22C
100
AcDbEntity
  8
0
100
AcDbBlockBegin
 62
7
  6
CONTINUOUS
  2
*D1
 70
65
 10
0.0
 20
0.0
  3
*D1
  1

  0
LINE
  5
22D
100
AcDbEntity
  8
0
100
AcDbLine
 62
7
  6
CONTINUOUS
 10
11.15
 20
22.4311855559
 11
11.15
 21
34.0
  0
LINE
  5
22E
100
AcDbEntity
  8
0
100
AcDbLine
 62
7
  6
CONTINUOUS
 10
-11.15
 20
22.4311855559
 11
-11.15
 21
34.0
  0
LINE
  5
22F
100
AcDbEntity
  8
0
100
AcDbLine
 62
7
  6
CONTINUOUS
 10
11.15
 20
32.5
 11
-0.0
 21
32.5
  0
LINE
  5
230
100
AcDbEntity
  8
0
100
AcDbLine
 62
7
  6
CONTINUOUS
 10
-11.15
 20
32.5
 11
-0.0
 21
32.5
  0
INSERT
  5
231
100
AcDbEntity
  8
0
100
AcDbBlockReference
 62
7
  6
CONTINUOUS
  2
_FILLED
 10
11.15
 20
32.5
 41
3.0
 42
3.0
 43
3.0
  0
INSERT
  5
232
100
AcDbEntity
  8
0
100
AcDbBlockReference
 62
7
  6
CONTINUOUS
  2
_FILLED
 10
-11.15
 20
32.5
 41
3.0
 42
3.0
 43
3.0
 50
180.0
  0
ENDBLK
  5
233
100
AcDbEntity
  8
0
  6
BYBLOCK
 62
0
100
AcDbBlockEnd
  0
BLOCK
  5
234
100
AcDbEntity
  8
0
100
AcDbBlockBegin
 62
7
  6
CONTINUOUS
  2
*D2
 70
65
 10
0.0
 20
0.0
  3
*D2
  1

  0
LINE
  5
235
100
AcDbEntity
  8
0
100
AcDbLine
 62
7
  6
CONTINUOUS
 10
-77.2591026603
 20
22.4311855559
 11
-77.2591026603
 21
34.0
  0
LINE
  5
236
100
AcDbEntity
  8
0
100
AcDbLine
 62
7
  6
CONTINUOUS
 10
-36.7591026603
 20
11.65
 11
-36.7591026603
 21
34.0
  0
LINE
  5
237
100
AcDbEntity
  8
0
100
AcDbLine
 62
7
  6
CONTINUOUS
 10
-77.2591026603
 20
32.5
 11
-57.0091026603
 21
32.5
  0
LINE
  5
238
100
AcDbEntity
  8
0
100
AcDbLine
 62
7
  6
CONTINUOUS
 10
-36.7591026603
 20
32.5
 11
-57.0091026603
 21
32.5
  0
INSERT
  5
239
100
AcDbEntity
  8
0
100
AcDbBlockReference
 62
7
  6
CONTINUOUS
  2
_FILLED
 10
-77.2591026603
 20
32.5
 41
3.0
 42
3.0
 43
3.0
 50
180.0
  0
INSERT
  5
23A
100
AcDbEntity
  8
0
100
AcDbBlockReference
 62
7
  6
CONTINUOUS
  2
_FILLED
 10
-36.7591026603
 20
32.5
 41
3.0
 42
3.0
 43
3.0
  0
ENDBLK
  5
23B
100
AcDbEntity
  8
0
  6
BYBLOCK
 62
0
100
AcDbBlockEnd
  0
BLOCK
  5
23C
100
AcDbEntity
  8
0
100
AcDbBlockBegin
 62
7
  6
CONTINUOUS
  2
*D3
 70
65
 10
0.0
 20
0.0
  3
*D3
  1

  0
LINE
  5
23D
100
AcDbEntity
  8
0
100
AcDbLine
 62
7
  6
CONTINUOUS
 10
-36.7591026603
 20
11.65
 11
-36.7591026603
 21
44.0
  0
LINE
  5
23E
100
AcDbEntity
  8
0
100
AcDbLine
 62
7
  6
CONTINUOUS
 10
-87.7591026603
 20
0.5
 11
-87.7591026603
 21
44.0
  0
LINE
  5
23F
100
AcDbEntity
  8
0
100
AcDbLine
 62
7
  6
CONTINUOUS
 10
-36.7591026603
 20
42.5
 11
-62.2591026603
 21
42.5
  0
LINE
  5
240
100
AcDbEntity
  8
0
100
AcDbLine
 62
7
  6
CONTINUOUS
 10
-87.7591026603
 20
42.5
 11
-62.2591026603
 21
42.5
  0
INSERT
  5
241
100
AcDbEntity
  8
0
100
AcDbBlockReference
 62
7
  6
CONTINUOUS
  2
_FILLED
 10
-36.7591026603
 20
42.5
 41
3.0
 42
3.0
 43
3.0
  0
INSERT
  5
242
100
AcDbEntity
  8
0
100
AcDbBlockReference
 62
7
  6
CONTINUOUS
  2
_FILLED
 10
-87.7591026603
 20
42.5
 41
3.0
 42
3.0
 43
3.0
 50
180.0
  0
ENDBLK
  5
243
100
AcDbEntity
  8
0
  6
BYBLOCK
 62
0
100
AcDbBlockEnd
  0
ENDSEC
  0
SECTION
  2
ENTITIES
  0
DIMENSION
  5
244
100
AcDbEntity
  8
0
100
AcDbDimension
 62
7
  6
CONTINUOUS
  2
*D0
 10
19.15
 20
-24.5
 11
18.4
 21
-2.3571428571
 70
160
 71
2
 42
49.0
  3
DIMSTYLE_1
100
AcDbAlignedDimension
 13
8.9999957692
 23
24.5
 14
10.9000042308
 24
-24.5
 50
270.0
100
AcDbRotatedDimension
  0
DIMENSION
  5
245
100
AcDbEntity
  8
0
100
AcDbDimension
 62
7
  6
CONTINUOUS
  2
*D1
 10
-11.15
 20
32.5
 11
-4.2857142857
 21
33.25
 70
160
 71
2
 42
22.3
  3
DIMSTYLE_1
100
AcDbAlignedDimension
 13
11.15
 23
22.4311855559
 14
-11.15
 24
22.4311855559
 50
180.0
100
AcDbRotatedDimension
  0
DIMENSION
  5
246
100
AcDbEntity
  8
0
100
AcDbDimension
 62
7
  6
CONTINUOUS
  2
*D2
 10
-36.7591026603
 20
32.5
 11
-61.294816946
 21
33.25
 70
160
 71
2
 42
40.5
  3
DIMSTYLE_1
100
AcDbAlignedDimension
 13
-77.2591026603
 23
22.4311855559
 14
-36.7591026603
 24
11.65
100
AcDbRotatedDimension
  0
DIMENSION
  5
247
100
AcDbEntity
  8
0
100
AcDbDimension
 62
7
  6
CONTINUOUS
  2
*D3
 10
-87.7591026603
 20
42.5
 11
-64.1876740889
 21
43.25
 70
160
 71
2
 42
51.0
  3
DIMSTYLE_1
100
AcDbAlignedDimension
 13
-36.7591026603
 23
11.65
 14
-87.7591026603
 24
0.5
 50
180.0
100
AcDbRotatedDimension
  0
LWPOLYLINE
  5
248
100
AcDbEntity
  8
0
100
AcDbPolyline
 62
7
  6
CONTINUOUS
 90
5
 70
0
 43
0.3500000006
 10
3.0000000658
 20
34.9642857056
 10
3.357142951
 20
35.1785701904
 10
3.357142951
 20
35.8214281769
 10
3.0000000658
 20
36.2500016785
 10
2.1428571696
 20
36.2500016785
  0
LINE
  5
249
100
AcDbEntity
  8
RACCORDO
100
AcDbLine
 62
253
  6
CONTINUOUS
 10
-8.4999957692
 20
24.5
 11
-8.5130943479
 21
24.4869014213
  0
LINE
  5
24A
100
AcDbEntity
  8
RACCORDO
100
AcDbLine
 62
7
  6
CONTINUOUS
 10
-10.8781368764
 20
22.3514471107
 11
-10.8956356419
 21
22.3426983943
  0
LINE
  5
24B
100
AcDbEntity
  8
RACCORDO
100
AcDbLine
 62
253
  6
CONTINUOUS
 10
-11.1325800446
 20
21.9398948703
 11
-11.15
 21
21.9311855559
  0
LWPOLYLINE
  5
24C
100
AcDbEntity
  8
RACCORDO
100
AcDbPolyline
 62
7
  6
CONTINUOUS
 90
11
 70
0
 10
-10.8781358696
 20
22.3514476141
 10
-10.8636662667
 20
22.3583692267
 10
-10.8435417088
 20
22.3669953998
 10
-10.8230308823
 20
22.3746537028
 10
-10.8021808394
 20
22.3813267495
 10
-10.7810476923
 20
22.3869974846
 10
-10.7596707202
 20
22.391656261
 10
-10.7380719098
 20
22.395296553
 10
-10.7162907806
 20
22.3979074049
 10
-10.6943851815
 20
22.3994776137
 10
-10.6724047959
 20
22.4
  0
LWPOLYLINE
  5
24D
100
AcDbEntity
  8
RACCORDO
100
AcDbPolyline
 62
7
  6
CONTINUOUS
 90
23
 70
0
 10
-4.2962073137
 20
-23.7953389668
 10
-4.2854181903
 20
-23.7947915649
 10
-4.2743307281
 20
-23.793363895
 10
-4.2629449272
 20
-23.7911364879
 10
-4.2512361469
 20
-23.7881978965
 10
-4.239229028
 20
-23.7846238716
 10
-4.226997492
 20
-23.7804595132
 10
-4.2145487518
 20
-23.7757643703
 10
-4.2018755946
 20
-23.7706018097
 10
-4.1890303044
 20
-23.7649953104
 10
-4.1760171723
 20
-23.758990232
 10
-4.1628319072
 20
-23.7526365647
 10
-4.1495139203
 20
-23.7459460582
 10
-4.1360654333
 20
-23.7389542831
 10
-4.1224842244
 20
-23.7317013921
 10
-4.1088030396
 20
-23.724193673
 10
-4.0950229279
 20
-23.7164601879
 10
-4.0811428402
 20
-23.708533951
 10
-4.0671923756
 20
-23.7004191901
 10
-4.053171775
 20
-23.6921405291
 10
-4.0390807976
 20
-23.6837259593
 10
-4.0249483201
 20
-23.6751796798
 10
-3.9965581838
 20
-23.6577812011
  0
LWPOLYLINE
  5
24E
100
AcDbEntity
  8
RACCORDO
100
AcDbPolyline
 62
253
  6
CONTINUOUS
 90
31
 70
0
 10
10.3869056521
 20
-24.4869014213
 10
10.3999920062
 20
-24.4865582323
 10
10.4130425045
 20
-24.4855304893
 10
10.4260213619
 20
-24.4838210061
 10
10.4388930016
 20
-24.4814344634
 10
10.4516221155
 20
-24.4783774023
 10
10.464173763
 20
-24.4746582128
 10
10.4765135191
 20
-24.4702870977
 10
10.4886075563
 20
-24.4652760422
 10
10.5004227019
 20
-24.4596387939
 10
10.5119265577
 20
-24.4533908148
 10
10.5230875837
 20
-24.446549239
 10
10.533875174
 20
-24.4391328321
 10
10.5442597633
 20
-24.4311619239
 10
10.5542128667
 20
-24.4226583824
 10
10.5637071599
 20
-24.4136455633
 10
10.5727165817
 20
-24.4041482289
 10
10.5812164786
 20
-24.3941923917
 10
10.5891836209
 20
-24.3838052658
 10
10.5965962509
 20
-24.3730151866
 10
10.6034339327
 20
-24.3618518682
 10
10.6096777344
 20
-24.3503462678
 10
10.615310483
 20
-24.3385301896
 10
10.6203169129
 20
-24.3264358334
 10
10.624683464
 20
-24.3140960295
 10
10.6283989037
 20
-24.3015418449
 10
10.6314520171
 20
-24.2888103798
 10
10.6338331472
 20
-24.275944661
 10
10.6355367515
 20
-24.2629828864
 10
10.6365600141
 20
-24.249957992
 10
10.6369014213
 20
-24.2369056521
  0
LWPOLYLINE
  5
24F
100
AcDbEntity
  8
RACCORDO
100
AcDbPolyline
 62
253
  6
CONTINUOUS
 90
31
 70
0
 10
-8.5130943479
 20
-24.4869014213
 10
-8.500042008
 20
-24.4865600141
 10
-8.4870171136
 20
-24.4855367515
 10
-8.474055339
 20
-24.4838331472
 10
-8.4611896202
 20
-24.4814520171
 10
-8.4484581551
 20
-24.4783989037
 10
-8.4359039705
 20
-24.474683464
 10
-8.4235641666
 20
-24.4703169129
 10
-8.4114698104
 20
-24.465310483
 10
-8.3996537322
 20
-24.4596777344
 10
-8.3881481318
 20
-24.4534339327
 10
-8.3769848134
 20
-24.4465962509
 10
-8.3661947342
 20
-24.4391836209
 10
-8.3558076083
 20
-24.4312164786
 10
-8.3458517711
 20
-24.4227165817
 10
-8.3363544367
 20
-24.4137071599
 10
-8.3273416176
 20
-24.4042128667
 10
-8.3188380761
 20
-24.3942597633
 10
-8.3108671679
 20
-24.383875174
 10
-8.303450761
 20
-24.3730875837
 10
-8.2966091852
 20
-24.3619265577
 10
-8.2903612061
 20
-24.3504227019
 10
-8.2847239578
 20
-24.3386075563
 10
-8.2797129023
 20
-24.3265135191
 10
-8.2753417872
 20
-24.314173763
 10
-8.2716225977
 20
-24.3016221155
 10
-8.2685655366
 20
-24.2888930016
 10
-8.2661789939
 20
-24.2760213619
 10
-8.2644695107
 20
-24.2630425045
 10
-8.2634417677
 20
-24.2499920062
 10
-8.2630985787
 20
-24.2369056521
  0
LWPOLYLINE
  5
250
100
AcDbEntity
  8
RACCORDO
100
AcDbPolyline
 62
7
  6
CONTINUOUS
 90
34
 70
0
 10
10.4000042308
 20
-24.5
 10
10.411899516
 20
-24.4997168498
 10
10.4237678556
 20
-24.4988680342
 10
10.4355823661
 20
-24.4974554741
 10
10.4473162875
 20
-24.4954823677
 10
10.4589430388
 20
-24.4929531817
 10
10.470436279
 20
-24.4898736417
 10
10.4817699738
 20
-24.4862507213
 10
10.4929184493
 20
-24.4820926258
 10
10.5038564463
 20
-24.4774087722
 10
10.5145591876
 20
-24.4722097688
 10
10.5250024283
 20
-24.4665073916
 10
10.5351625059
 20
-24.4603145581
 10
10.5450164051
 20
-24.4536452955
 10
10.5545418038
 20
-24.4465147107
 10
10.5637171191
 20
-24.4389389589
 10
10.5725215661
 20
-24.4309352005
 10
10.5809352005
 20
-24.4225215661
 10
10.5889389589
 20
-24.4137171191
 10
10.5965147107
 20
-24.4045418038
 10
10.6036452955
 20
-24.3950164051
 10
10.6103145581
 20
-24.3851625059
 10
10.6165073916
 20
-24.3750024283
 10
10.6222097688
 20
-24.3645591876
 10
10.6274087722
 20
-24.3538564463
 10
10.6320926258
 20
-24.3429184493
 10
10.6362507213
 20
-24.3317699738
 10
10.6398736417
 20
-24.320436279
 10
10.6429531817
 20
-24.3089430388
 10
10.6454823677
 20
-24.2973162875
 10
10.6474554741
 20
-24.2855823661
 10
10.6488680342
 20
-24.2737678556
 10
10.6497168498
 20
-24.261899516
 10
10.65
 20
-24.2500042308
  0
LWPOLYLINE
  5
251
100
AcDbEntity
  8
RACCORDO
100
AcDbPolyline
 62
7
  6
CONTINUOUS
 90
34
 70
0
 10
-8.4999957692
 20
-24.5
 10
-8.488100484
 20
-24.4997168498
 10
-8.4762321444
 20
-24.4988680342
 10
-8.4644176339
 20
-24.4974554741
 10
-8.4526837125
 20
-24.4954823677
 10
-8.4410569612
 20
-24.4929531817
 10
-8.429563721
 20
-24.4898736417
 10
-8.4182300262
 20
-24.4862507213
 10
-8.4070815507
 20
-24.4820926258
 10
-8.3961435537
 20
-24.4774087722
 10
-8.3854408124
 20
-24.4722097688
 10
-8.3749975717
 20
-24.4665073916
 10
-8.3648374941
 20
-24.4603145581
 10
-8.3549835949
 20
-24.4536452955
 10
-8.3454581962
 20
-24.4465147107
 10
-8.3362828809
 20
-24.4389389589
 10
-8.3274784339
 20
-24.4309352005
 10
-8.3190647995
 20
-24.4225215661
 10
-8.3110610411
 20
-24.4137171191
 10
-8.3034852893
 20
-24.4045418038
 10
-8.2963547045
 20
-24.3950164051
 10
-8.2896854419
 20
-24.3851625059
 10
-8.2834926084
 20
-24.3750024283
 10
-8.2777902312
 20
-24.3645591876
 10
-8.2725912278
 20
-24.3538564463
 10
-8.2679073742
 20
-24.3429184493
 10
-8.2637492787
 20
-24.3317699738
 10
-8.2601263583
 20
-24.320436279
 10
-8.2570468183
 20
-24.3089430388
 10
-8.2545176323
 20
-24.2973162875
 10
-8.2525445259
 20
-24.2855823661
 10
-8.2511319658
 20
-24.2737678556
 10
-8.2502831502
 20
-24.261899516
 10
-8.25
 20
-24.2500042308
  0
LINE
  5
252
100
AcDbEntity
  8
RACCORDO
100
AcDbLine
 62
7
  6
CONTINUOUS
 10
10.4000042308
 20
-24.5
 11
8.4999957692
 21
-24.5
  0
LINE
  5
253
100
AcDbEntity
  8
RACCORDO
100
AcDbLine
 62
7
  6
CONTINUOUS
 10
-8.4999957692
 20
-24.5
 11
-10.4000042308
 21
-24.5
  0
LINE
  5
254
100
AcDbEntity
  8
RACCORDO
100
AcDbLine
 62
253
  6
CONTINUOUS
 10
-10.3869056521
 20
-24.4869014213
 11
-8.5130943479
 21
-24.4869014213
  0
LINE
  5
255
100
AcDbEntity
  8
RACCORDO
100
AcDbLine
 62
253
  6
CONTINUOUS
 10
8.5130943479
 20
-24.4869014213
 11
10.3869056521
 21
-24.4869014213
  0
LINE
  5
256
100
AcDbEntity
  8
RACCORDO
100
AcDbLine
 62
253
  6
CONTINUOUS
 10
8.2630985787
 20
-24.2369056521
 11
10.6369014213
 21
-24.2369056521
  0
LINE
  5
257
100
AcDbEntity
  8
RACCORDO
100
AcDbLine
 62
253
  6
CONTINUOUS
 10
-8.2630985787
 20
-24.2369056521
 11
-10.6369014213
 21
-24.2369056521
  0
LINE
  5
258
100
AcDbEntity
  8
RACCORDO
100
AcDbLine
 62
253
  6
CONTINUOUS
 10
8.2630985787
 20
-23.8443375673
 11
10.6369014213
 21
-23.8443375673
  0
LINE
  5
259
100
AcDbEntity
  8
RACCORDO
100
AcDbLine
 62
253
  6
CONTINUOUS
 10
-8.2630985787
 20
-23.8443375673
 11
-10.6369014213
 21
-23.8443375673
  0
LINE
  5
25A
100
AcDbEntity
  8
DRAFT
100
AcDbLine
 62
7
  6
CONTINUOUS
 10
4.4
 20
-23.8
 11
-4.4
 21
-23.8
  0
LINE
  5
25B
100
AcDbEntity
  8
RACCORDO
100
AcDbLine
 62
253
  6
CONTINUOUS
 10
-4.2962073137
 20
-23.7953389668
 11
4.2962073137
 21
-23.7953389668
  0
LINE
  5
25C
100
AcDbEntity
  8
RACCORDO
100
AcDbLine
 62
253
  6
CONTINUOUS
 10
10.3869056521
 20
-23.6278312164
 11
8.5130943479
 21
-23.6278312164
  0
LINE
  5
25D
100
AcDbEntity
  8
RACCORDO
100
AcDbLine
 62
253
  6
CONTINUOUS
 10
-8.5130943479
 20
-23.6278312164
 11
-10.3869056521
 21
-23.6278312164
  0
LINE
  5
25E
100
AcDbEntity
  8
RACCORDO
100
AcDbLine
 62
253
  6
CONTINUOUS
 10
-3.8970826234
 20
-23.5953423515
 11
3.8970826234
 21
-23.5953423515
  0
LINE
  5
25F
100
AcDbEntity
  8
RACCORDO
100
AcDbLine
 62
7
  6
CONTINUOUS
 10
-10.3919962532
 20
-23.1226497308
 11
-8.5080037468
 21
-23.1226497308
  0
LINE
  5
260
100
AcDbEntity
  8
RACCORDO
100
AcDbLine
 62
7
  6
CONTINUOUS
 10
8.5080037468
 20
-23.1226497308
 11
10.3919962532
 21
-23.1226497308
  0
LWPOLYLINE
  5
261
100
AcDbEntity
  8
RACCORDO
100
AcDbPolyline
 62
7
  6
CONTINUOUS
 90
22
 70
0
 10
4.2962073137
 20
-23.7953389668
 10
4.2854181903
 20
-23.7947915649
 10
4.2743307281
 20
-23.793363895
 10
4.2629449272
 20
-23.7911364879
 10
4.2512361469
 20
-23.7881978965
 10
4.239229028
 20
-23.7846238716
 10
4.226997492
 20
-23.7804595132
 10
4.2145487518
 20
-23.7757643703
 10
4.2018755946
 20
-23.7706018097
 10
4.1890303044
 20
-23.7649953104
 10
4.1760171723
 20
-23.758990232
 10
4.1628319072
 20
-23.7526365647
 10
4.1495139203
 20
-23.7459460582
 10
4.1360654333
 20
-23.7389542831
 10
4.1224842244
 20
-23.7317013921
 10
4.1088030396
 20
-23.724193673
 10
4.0950229279
 20
-23.7164601879
 10
4.0811428402
 20
-23.708533951
 10
4.0671923756
 20
-23.7004191901
 10
4.053171775
 20
-23.6921405291
 10
4.0390807976
 20
-23.6837259593
 10
4.0249483201
 20
-23.6751796798
  0
LWPOLYLINE
  5
262
100
AcDbEntity
  8
RACCORDO
100
AcDbPolyline
 62
7
  6
CONTINUOUS
 90
11
 70
0
 10
-10.8781376822
 20
-22.3514467217
 10
-10.8637546227
 20
-22.3583288271
 10
-10.8436362165
 20
-22.3669574975
 10
-10.8231289654
 20
-22.374619709
 10
-10.8022786984
 20
-22.3812979667
 10
-10.7811237332
 20
-22.3869789767
 10
-10.7597205444
 20
-22.3916466126
 10
-10.7381440172
 20
-22.3952861536
 10
-10.7164524121
 20
-22.3978919436
 10
-10.6946863527
 20
-22.3994632509
 10
-10.6728950868
 20
-22.4
  0
LINE
  5
263
100
AcDbEntity
  8
RACCORDO
100
AcDbLine
 62
7
  6
CONTINUOUS
 10
-10.8956356419
 20
-22.3426983943
 11
-10.8781368745
 21
-22.3514471117
  0
LINE
  5
264
100
AcDbEntity
  8
RACCORDO
100
AcDbLine
 62
253
  6
CONTINUOUS
 10
-11.15
 20
-21.9311855559
 11
-11.1325800446
 21
-21.9398948703
  0
LINE
  5
265
100
AcDbEntity
  8
RACCORDO
100
AcDbLine
 62
253
  6
CONTINUOUS
 10
-8.4999957692
 20
-24.5
 11
-8.5130943479
 21
-24.4869014213
  0
LINE
  5
266
100
AcDbEntity
  8
RACCORDO
100
AcDbLine
 62
253
  6
CONTINUOUS
 10
-8.25
 20
24.2500042308
 11
-8.2630985787
 21
24.2369056521
  0
LWPOLYLINE
  5
267
100
AcDbEntity
  8
ASSI
100
AcDbPolyline
 62
253
  6
CONTINUOUS
 90
15
 70
0
 10
-10.9837657663
 20
20.5419058565
 10
-10.9826445049
 20
20.542970238
 10
-10.980186242
 20
20.5440317664
 10
-10.9763975666
 20
20.5450875965
 10
-10.9712886342
 20
20.5461348981
 10
-10.9648731387
 20
20.5471708641
 10
-10.9571682764
 20
20.5481927177
 10
-10.9481946996
 20
20.5491977197
 10
-10.9379764613
 20
20.5501831765
 10
-10.9265409507
 20
20.5511464465
 10
-10.9139188197
 20
20.5520849478
 10
-10.900143901
 20
20.5529961648
 10
-10.8852531173
 20
20.5538776551
 10
-10.869286382
 20
20.5547270559
 10
-10.8522864928
 20
20.5555420904
  0
LWPOLYLINE
  5
268
100
AcDbEntity
  8
RACCORDO
100
AcDbPolyline
 62
253
  6
CONTINUOUS
 90
15
 70
0
 10
-10.9837657663
 20
20.5419058565
 10
-10.982644509
 20
20.5429702381
 10
-10.9801862499
 20
20.5440317667
 10
-10.976397578
 20
20.545087597
 10
-10.9712886488
 20
20.5461348988
 10
-10.9648731562
 20
20.547170865
 10
-10.9571682964
 20
20.5481927188
 10
-10.9481947219
 20
20.549197721
 10
-10.9379764855
 20
20.550183178
 10
-10.9265409764
 20
20.5511464482
 10
-10.9139188467
 20
20.5520849498
 10
-10.900143929
 20
20.552996167
 10
-10.8852531458
 20
20.5538776575
 10
-10.8692864108
 20
20.5547270585
 10
-10.8522865217
 20
20.5555420932
  0
LINE
  5
269
100
AcDbEntity
  8
ASSI
100
AcDbLine
 62
7
  6
CONTINUOUS
 10
4.3
 20
-22.2322951063
 11
3.6
 21
-22.2689805518
  0
LINE
  5
26A
100
AcDbEntity
  8
0
100
AcDbLine
 62
7
  6
CONTINUOUS
 10
3.6
 20
-22.2689805518
 11
4.3
 21
-22.2322951063
  0
LINE
  5
26B
100
AcDbEntity
  8
0
100
AcDbLine
 62
7
  6
CONTINUOUS
 10
-7.6
 20
-22.2689805518
 11
-6.9
 21
-22.2322951063
  0
LINE
  5
26C
100
AcDbEntity
  8
ASSI
100
AcDbLine
 62
7
  6
CONTINUOUS
 10
-6.9
 20
-22.2322951063
 11
-7.6
 21
-22.2689805518
  0
LINE
  5
26D
100
AcDbEntity
  8
RACCORDO
100
AcDbLine
 62
7
  6
CONTINUOUS
 10
10.6728950868
 20
-22.4
 11
10.65
 21
-22.4
  0
LINE
  5
26E
100
AcDbEntity
  8
DRAFT
100
AcDbLine
 62
7
  6
CONTINUOUS
 10
8.25
 20
-22.4
 11
4.4
 21
-22.4
  0
LINE
  5
26F
100
AcDbEntity
  8
DRAFT
100
AcDbLine
 62
7
  6
CONTINUOUS
 10
-4.4
 20
-22.4
 11
-8.25
 21
-22.4
  0
LINE
  5
270
100
AcDbEntity
  8
RACCORDO
100
AcDbLine
 62
7
  6
CONTINUOUS
 10
-10.65
 20
-22.4
 11
-10.6728950868
 21
-22.4
  0
LINE
  5
271
100
AcDbEntity
  8
RACCORDO
100
AcDbLine
 62
7
  6
CONTINUOUS
 10
3.8970826234
 20
-22.3475922207
 11
-3.8970826234
 21
-22.3475922207
  0
LINE
  5
272
100
AcDbEntity
  8
RACCORDO
100
AcDbLine
 62
7
  6
CONTINUOUS
 10
-10.3927234819
 20
-22.3213883311
 11
-8.5072765181
 21
-22.3213883311
  0
LINE
  5
273
100
AcDbEntity
  8
RACCORDO
100
AcDbLine
 62
7
  6
CONTINUOUS
 10
8.5072765181
 20
-22.3213883311
 11
10.3927234819
 21
-22.3213883311
  0
LINE
  5
274
100
AcDbEntity
  8
ASSI
100
AcDbLine
 62
7
  6
CONTINUOUS
 10
-10.5903805997
 20
-22.2689805518
 11
-7.6
 21
-22.2689805518
  0
LINE
  5
275
100
AcDbEntity
  8
RACCORDO
100
AcDbLine
 62
7
  6
CONTINUOUS
 10
10.6292574245
 20
-22.2689805518
 11
7.5
 21
-22.2689805518
  0
LINE
  5
276
100
AcDbEntity
  8
ASSI
100
AcDbLine
 62
7
  6
CONTINUOUS
 10
-3.6
 20
-22.2689805518
 11
3.6
 21
-22.2689805518
  0
LINE
  5
277
100
AcDbEntity
  8
ASSI
100
AcDbLine
 62
7
  6
CONTINUOUS
 10
7.6
 20
-22.2689805518
 11
10.5903805997
 21
-22.2689805518
  0
LINE
  5
278
100
AcDbEntity
  8
0
100
AcDbLine
 62
7
  6
CONTINUOUS
 10
7.5
 20
-22.2689805518
 11
-7.5
 21
-22.2689805518
  0
LINE
  5
279
100
AcDbEntity
  8
RACCORDO
100
AcDbLine
 62
7
  6
CONTINUOUS
 10
-7.5
 20
-22.2689805518
 11
-10.6292574245
 21
-22.2689805518
  0
LINE
  5
27A
100
AcDbEntity
  8
0
100
AcDbLine
 62
7
  6
CONTINUOUS
 10
-6.9
 20
-22.2322951063
 11
-4.3
 21
-22.2322951063
  0
LINE
  5
27B
100
AcDbEntity
  8
ASSI
100
AcDbLine
 62
7
  6
CONTINUOUS
 10
6.9
 20
-22.2322951063
 11
4.3
 21
-22.2322951063
  0
LINE
  5
27C
100
AcDbEntity
  8
0
100
AcDbLine
 62
7
  6
CONTINUOUS
 10
4.3
 20
-22.2322951063
 11
6.9
 21
-22.2322951063
  0
LINE
  5
27D
100
AcDbEntity
  8
ASSI
100
AcDbLine
 62
7
  6
CONTINUOUS
 10
-4.3
 20
-22.2322951063
 11
-6.9
 21
-22.2322951063
  0
LINE
  5
27E
100
AcDbEntity
  8
ASSI
100
AcDbLine
 62
253
  6
CONTINUOUS
 10
-10.500368927
 20
-21.9987259353
 11
10.500368927
 21
-21.9987259353
  0
LINE
  5
27F
100
AcDbEntity
  8
RACCORDO
100
AcDbLine
 62
253
  6
CONTINUOUS
 10
10.5003688946
 20
-21.9987258379
 11
-10.5003688946
 21
-21.9987258379
  0
LINE
  5
280
100
AcDbEntity
  8
0
100
AcDbLine
 62
7
  6
CONTINUOUS
 10
-4.3
 20
-22.2322951063
 11
-3.6
 21
-22.2689805518
  0
LINE
  5
281
100
AcDbEntity
  8
ASSI
100
AcDbLine
 62
7
  6
CONTINUOUS
 10
-3.6
 20
-22.2689805518
 11
-4.3
 21
-22.2322951063
  0
LINE
  5
282
100
AcDbEntity
  8
ASSI
100
AcDbLine
 62
7
  6
CONTINUOUS
 10
7.6
 20
-22.2689805518
 11
6.9
 21
-22.2322951063
  0
LINE
  5
283
100
AcDbEntity
  8
0
100
AcDbLine
 62
7
  6
CONTINUOUS
 10
6.9
 20
-22.2322951063
 11
7.6
 21
-22.2689805518
  0
LWPOLYLINE
  5
284
100
AcDbEntity
  8
RACCORDO
100
AcDbPolyline
 62
253
  6
CONTINUOUS
 90
17
 70
0
 10
-10.9837657663
 20
-20.5419058565
 10
-10.982644516
 20
-20.5429702383
 10
-10.9801862633
 20
-20.5440317672
 10
-10.9763975973
 20
-20.5450875977
 10
-10.9712886735
 20
-20.5461348998
 10
-10.9648731857
 20
-20.5471708662
 10
-10.9571683303
 20
-20.5481927202
 10
-10.9481947595
 20
-20.5491977228
 10
-10.9379765264
 20
-20.55018318
 10
-10.92654102
 20
-20.5511464505
 10
-10.9139188924
 20
-20.5520849524
 10
-10.9001439762
 20
-20.5529961699
 10
-10.8852531941
 20
-20.5538776607
 10
-10.8692864597
 20
-20.5547270619
 10
-10.8522865706
 20
-20.5555420969
 10
-10.8342990936
 20
-20.556320581
 10
-10.7955567505
 20
-20.5577596534
  0
LWPOLYLINE
  5
285
100
AcDbEntity
  8
ASSI
100
AcDbPolyline
 62
253
  6
CONTINUOUS
 90
17
 70
0
 10
-10.9837657663
 20
-20.5419058565
 10
-10.982644516
 20
-20.5429702383
 10
-10.9801862633
 20
-20.5440317672
 10
-10.9763975974
 20
-20.5450875977
 10
-10.9712886735
 20
-20.5461348998
 10
-10.9648731857
 20
-20.5471708662
 10
-10.9571683303
 20
-20.5481927202
 10
-10.9481947596
 20
-20.5491977228
 10
-10.9379765264
 20
-20.55018318
 10
-10.92654102
 20
-20.5511464505
 10
-10.9139188924
 20
-20.5520849524
 10
-10.9001439763
 20
-20.5529961699
 10
-10.8852531942
 20
-20.5538776607
 10
-10.8692864598
 20
-20.5547270619
 10
-10.8522865706
 20
-20.5555420969
 10
-10.8342990937
 20
-20.556320581
 10
-10.7955567505
 20
-20.5577596534
  0
LINE
  5
286
100
AcDbEntity
  8
RACCORDO
100
AcDbLine
 62
253
  6
CONTINUOUS
 10
-8.25
 20
-24.2500042308
 11
-8.2630985787
 21
-24.2369056521
  0
LINE
  5
287
100
AcDbEntity
  8
RACCORDO
100
AcDbLine
 62
253
  6
CONTINUOUS
 10
10.8522864928
 20
-20.5555420904
 11
10.8153721673
 21
-20.5570604202
  0
LINE
  5
288
100
AcDbEntity
  8
ASSI
100
AcDbLine
 62
253
  6
CONTINUOUS
 10
10.8522865217
 20
-20.5555420932
 11
10.8153721954
 21
-20.5570604233
  0
LINE
  5
289
100
AcDbEntity
  8
RACCORDO
100
AcDbLine
 62
253
  6
CONTINUOUS
 10
10.8153721673
 20
-20.5570604202
 11
10.7749056595
 21
-20.5584163761
  0
LINE
  5
28A
100
AcDbEntity
  8
ASSI
100
AcDbLine
 62
253
  6
CONTINUOUS
 10
10.8153721954
 20
-20.5570604233
 11
10.7749056858
 21
-20.5584163796
  0
LINE
  5
28B
100
AcDbEntity
  8
RACCORDO
100
AcDbLine
 62
253
  6
CONTINUOUS
 10
10.7749056595
 20
-20.5584163761
 11
10.7313205481
 21
-20.5595954299
  0
LINE
  5
28C
100
AcDbEntity
  8
ASSI
100
AcDbLine
 62
253
  6
CONTINUOUS
 10
10.7749056858
 20
-20.5584163796
 11
10.7313205715
 21
-20.5595954337
  0
LINE
  5
28D
100
AcDbEntity
  8
RACCORDO
100
AcDbLine
 62
253
  6
CONTINUOUS
 10
10.7313205481
 20
-20.5595954299
 11
10.6850838258
 21
-20.5605849486
  0
LINE
  5
28E
100
AcDbEntity
  8
ASSI
100
AcDbLine
 62
253
  6
CONTINUOUS
 10
10.7313205715
 20
-20.5595954337
 11
10.6850838456
 21
-20.5605849526
  0
LINE
  5
28F
100
AcDbEntity
  8
RACCORDO
100
AcDbLine
 62
253
  6
CONTINUOUS
 10
10.6850838258
 20
-20.5605849486
 11
10.6366908962
 21
-20.56137433
  0
LINE
  5
290
100
AcDbEntity
  8
ASSI
100
AcDbLine
 62
253
  6
CONTINUOUS
 10
10.6850838456
 20
-20.5605849526
 11
10.6366909117
 21
-20.5613743342
  0
LINE
  5
291
100
AcDbEntity
  8
RACCORDO
100
AcDbLine
 62
253
  6
CONTINUOUS
 10
10.6366908962
 20
-20.56137433
 11
10.5866602657
 21
-20.5619551162
  0
LINE
  5
292
100
AcDbEntity
  8
ASSI
100
AcDbLine
 62
253
  6
CONTINUOUS
 10
10.6366909117
 20
-20.5613743342
 11
10.5866602763
 21
-20.5619551206
  0
LINE
  5
293
100
AcDbEntity
  8
RACCORDO
100
AcDbLine
 62
253
  6
CONTINUOUS
 10
10.5866602657
 20
-20.5619551162
 11
10.5355279875
 21
-20.5623210844
  0
LINE
  5
294
100
AcDbEntity
  8
ASSI
100
AcDbLine
 62
253
  6
CONTINUOUS
 10
10.5866602763
 20
-20.5619551206
 11
10.5355279929
 21
-20.5623210889
  0
LINE
  5
295
100
AcDbEntity
  8
ASSI
100
AcDbLine
 62
253
  6
CONTINUOUS
 10
-10.4838419059
 20
-20.5624565036
 11
10.5355279929
 21
-20.5623210889
  0
LINE
  5
296
100
AcDbEntity
  8
RACCORDO
100
AcDbLine
 62
253
  6
CONTINUOUS
 10
10.5355279875
 20
-20.5623210844
 11
-10.4838419038
 21
-20.5624546348
  0
LINE
  5
297
100
AcDbEntity
  8
RACCORDO
100
AcDbLine
 62
253
  6
CONTINUOUS
 10
-10.5611978214
 20
-20.5621652632
 11
-10.4838419188
 21
-20.5624683248
  0
LINE
  5
298
100
AcDbEntity
  8
ASSI
100
AcDbLine
 62
253
  6
CONTINUOUS
 10
-10.5611978214
 20
-20.5621652632
 11
-10.4838419188
 21
-20.5624683248
  0
LINE
  5
299
100
AcDbEntity
  8
RACCORDO
100
AcDbLine
 62
253
  6
CONTINUOUS
 10
-10.6118471702
 20
-20.5616912503
 11
-10.5611978214
 21
-20.5621652632
  0
LINE
  5
29A
100
AcDbEntity
  8
ASSI
100
AcDbLine
 62
253
  6
CONTINUOUS
 10
-10.6118471702
 20
-20.5616912503
 11
-10.5611978214
 21
-20.5621652632
  0
LINE
  5
29B
100
AcDbEntity
  8
RACCORDO
100
AcDbLine
 62
253
  6
CONTINUOUS
 10
-10.6611250053
 20
-20.5610052466
 11
-10.6118471702
 21
-20.5616912503
  0
LINE
  5
29C
100
AcDbEntity
  8
ASSI
100
AcDbLine
 62
253
  6
CONTINUOUS
 10
-10.6611250053
 20
-20.5610052466
 11
-10.6118471702
 21
-20.5616912503
  0
LINE
  5
29D
100
AcDbEntity
  8
RACCORDO
100
AcDbLine
 62
253
  6
CONTINUOUS
 10
-10.708503339
 20
-20.5601146023
 11
-10.6611250053
 21
-20.5610052466
  0
LINE
  5
29E
100
AcDbEntity
  8
ASSI
100
AcDbLine
 62
253
  6
CONTINUOUS
 10
-10.708503339
 20
-20.5601146023
 11
-10.6611250053
 21
-20.5610052466
  0
LINE
  5
29F
100
AcDbEntity
  8
RACCORDO
100
AcDbLine
 62
253
  6
CONTINUOUS
 10
-10.7534745355
 20
-20.5590288601
 11
-10.708503339
 21
-20.5601146023
  0
LINE
  5
2A0
100
AcDbEntity
  8
ASSI
100
AcDbLine
 62
253
  6
CONTINUOUS
 10
-10.7534745355
 20
-20.5590288601
 11
-10.708503339
 21
-20.5601146023
  0
LINE
  5
2A1
100
AcDbEntity
  8
RACCORDO
100
AcDbLine
 62
253
  6
CONTINUOUS
 10
-10.7955567505
 20
-20.5577596534
 11
-10.7534745355
 21
-20.5590288601
  0
LINE
  5
2A2
100
AcDbEntity
  8
ASSI
100
AcDbLine
 62
253
  6
CONTINUOUS
 10
-10.7955567505
 20
-20.5577596534
 11
-10.7534745355
 21
-20.5590288601
  0
LINE
  5
2A3
100
AcDbEntity
  8
RACCORDO
100
AcDbLine
 62
7
  6
CONTINUOUS
 10
3.9680905905
 20
23.6400757416
 11
3.8970826234
 21
23.5953423515
  0
LINE
  5
2A4
100
AcDbEntity
  8
RACCORDO
100
AcDbLine
 62
7
  6
CONTINUOUS
 10
3.9965581838
 20
23.6577812011
 11
3.9680905905
 21
23.6400757416
  0
LINE
  5
2A5
100
AcDbEntity
  8
CURVE
100
AcDbLine
 62
253
  6
CONTINUOUS
 10
-7.5470478158
 20
-17.0658382178
 11
-7.5207375941
 21
-17.0701688936
  0
LINE
  5
2A6
100
AcDbEntity
  8
CURVE
100
AcDbLine
 62
253
  6
CONTINUOUS
 10
-7.5709207956
 20
-17.0589095644
 11
-7.5470478158
 21
-17.0658382178
  0
LINE
  5
2A7
100
AcDbEntity
  8
CURVE
100
AcDbLine
 62
253
  6
CONTINUOUS
 10
-7.5922908956
 20
-17.0496185327
 11
-7.5709207956
 21
-17.0589095644
  0
LINE
  5
2A8
100
AcDbEntity
  8
CURVE
100
AcDbLine
 62
253
  6
CONTINUOUS
 10
-7.6110903842
 20
-17.0382005055
 11
-7.5922908956
 21
-17.0496185327
  0
LINE
  5
2A9
100
AcDbEntity
  8
RACCORDO
100
AcDbLine
 62
7
  6
CONTINUOUS
 10
4.0249483201
 20
-23.6751796798
 11
3.9965581838
 21
-23.6577812011
  0
LINE
  5
2AA
100
AcDbEntity
  8
RACCORDO
100
AcDbLine
 62
7
  6
CONTINUOUS
 10
3.9965581838
 20
-23.6577812011
 11
3.9538388153
 21
-23.6311538461
  0
LINE
  5
2AB
100
AcDbEntity
  8
RACCORDO
100
AcDbLine
 62
7
  6
CONTINUOUS
 10
3.9538388153
 20
-23.6311538461
 11
3.8970826234
 21
-23.5953423515
  0
LINE
  5
2AC
100
AcDbEntity
  8
CURVE
100
AcDbLine
 62
253
  6
CONTINUOUS
 10
-7.6272492456
 20
-17.0248915242
 11
-7.6110903842
 21
-17.0382005055
  0
LINE
  5
2AD
100
AcDbEntity
  8
0
100
AcDbLine
 62
7
  6
CONTINUOUS
 10
-11.09
 20
13.2250898701
 11
-11.1150898701
 21
13.2
  0
LINE
  5
2AE
100
AcDbEntity
  8
CURVE
100
AcDbLine
 62
253
  6
CONTINUOUS
 10
-4.4896513982
 20
-17.0716651749
 11
-4.4693829576
 21
-17.0701664165
  0
LINE
  5
2AF
100
AcDbEntity
  8
CURVE
100
AcDbLine
 62
253
  6
CONTINUOUS
 10
-2.5381316375
 20
-16.2497285817
 11
-2.5262778105
 21
-16.2488882674
  0
LINE
  5
2B0
100
AcDbEntity
  8
CURVE
100
AcDbLine
 62
253
  6
CONTINUOUS
 10
-2.5500613604
 20
-16.2500093596
 11
-2.5381316375
 21
-16.2497285817
  0
LINE
  5
2B1
100
AcDbEntity
  8
CURVE
100
AcDbLine
 62
253
  6
CONTINUOUS
 10
-7.4920540942
 20
-17.0716651749
 11
-4.4896513982
 21
-17.0716651749
  0
LINE
  5
2B2
100
AcDbEntity
  8
CURVE
100
AcDbLine
 62
253
  6
CONTINUOUS
 10
-2.5620484915
 20
-16.2497285817
 11
-2.5500613604
 21
-16.2500093596
  0
LINE
  5
2B3
100
AcDbEntity
  8
CURVE
100
AcDbLine
 62
253
  6
CONTINUOUS
 10
-7.5207375941
 20
-17.0701688936
 11
-7.4920540942
 21
-17.0716651749
  0
LINE
  5
2B4
100
AcDbEntity
  8
CURVE
100
AcDbLine
 62
253
  6
CONTINUOUS
 10
-2.5739527724
 20
-16.2488884769
 11
-2.5620484915
 21
-16.2497285817
  0
LINE
  5
2B5
100
AcDbEntity
  8
CURVE
100
AcDbLine
 62
253
  6
CONTINUOUS
 10
-2.5857606059
 20
-16.2474924358
 11
-2.5739527724
 21
-16.2488884769
  0
LINE
  5
2B6
100
AcDbEntity
  8
CURVE
100
AcDbLine
 62
253
  6
CONTINUOUS
 10
-2.514563734
 20
-15.7522990899
 11
-2.5263127405
 21
-15.7509022387
  0
LINE
  5
2B7
100
AcDbEntity
  8
CURVE
100
AcDbLine
 62
253
  6
CONTINUOUS
 10
-2.5974572543
 20
-16.2455440423
 11
-2.5857606059
 21
-16.2474924358
  0
LINE
  5
2B8
100
AcDbEntity
  8
CURVE
100
AcDbLine
 62
253
  6
CONTINUOUS
 10
-2.5029177064
 20
-15.7542492749
 11
-2.514563734
 21
-15.7522990899
  0
LINE
  5
2B9
100
AcDbEntity
  8
CURVE
100
AcDbLine
 62
253
  6
CONTINUOUS
 10
-2.6090267998
 20
-16.2430472471
 11
-2.5974572543
 21
-16.2455440423
  0
LINE
  5
2BA
100
AcDbEntity
  8
CURVE
100
AcDbLine
 62
253
  6
CONTINUOUS
 10
-2.4913907913
 20
-15.7567492056
 11
-2.5029177064
 21
-15.7542492749
  0
LINE
  5
2BB
100
AcDbEntity
  8
CURVE
100
AcDbLine
 62
253
  6
CONTINUOUS
 10
-2.6204521285
 20
-16.2400065493
 11
-2.6090267998
 21
-16.2430472471
  0
LINE
  5
2BC
100
AcDbEntity
  8
CURVE
100
AcDbLine
 62
253
  6
CONTINUOUS
 10
-2.631714943
 20
-16.2364271829
 11
-2.6204521285
 21
-16.2400065493
  0
LINE
  5
2BD
100
AcDbEntity
  8
CURVE
100
AcDbLine
 62
253
  6
CONTINUOUS
 10
-2.6427958066
 20
-16.2323153013
 11
-2.631714943
 21
-16.2364271829
  0
LINE
  5
2BE
100
AcDbEntity
  8
CURVE
100
AcDbLine
 62
253
  6
CONTINUOUS
 10
-2.6536742209
 20
-16.2276781552
 11
-2.6427958066
 21
-16.2323153013
  0
LINE
  5
2BF
100
AcDbEntity
  8
0
100
AcDbLine
 62
7
  6
CONTINUOUS
 10
-11.09
 20
-13.2250898701
 11
-11.1150898701
 21
-13.2
  0
LINE
  5
2C0
100
AcDbEntity
  8
CURVE
100
AcDbLine
 62
253
  6
CONTINUOUS
 10
-7.6406953918
 20
-17.0099293348
 11
-7.6272492456
 21
-17.0248915242
  0
LINE
  5
2C1
100
AcDbEntity
  8
0
100
AcDbLine
 62
7
  6
CONTINUOUS
 10
-11.15
 20
8.9650898701
 11
-11.1150898701
 21
9.0
  0
LINE
  5
2C2
100
AcDbEntity
  8
CURVE
100
AcDbLine
 62
253
  6
CONTINUOUS
 10
-2.4913159864
 20
-16.2430422086
 11
-2.4799161018
 21
-16.2399976458
  0
LINE
  5
2C3
100
AcDbEntity
  8
CURVE
100
AcDbLine
 62
253
  6
CONTINUOUS
 10
-2.6089517874
 20
-15.7567441695
 11
-2.6203676333
 21
-15.7597858169
  0
LINE
  5
2C4
100
AcDbEntity
  8
CURVE
100
AcDbLine
 62
253
  6
CONTINUOUS
 10
-4.4693829576
 20
-17.0701664165
 11
-4.4492438902
 21
-17.0656645022
  0
LINE
  5
2C5
100
AcDbEntity
  8
CURVE
100
AcDbLine
 62
253
  6
CONTINUOUS
 10
-2.5028543526
 20
-16.2455415858
 11
-2.4913159864
 21
-16.2430422086
  0
LINE
  5
2C6
100
AcDbEntity
  8
CURVE
100
AcDbLine
 62
253
  6
CONTINUOUS
 10
-2.5973937
 20
-15.7542468202
 11
-2.6089517874
 21
-15.7567441695
  0
LINE
  5
2C7
100
AcDbEntity
  8
CURVE
100
AcDbLine
 62
253
  6
CONTINUOUS
 10
-2.5145137096
 20
-16.2474915027
 11
-2.5028543526
 21
-16.2455415858
  0
LINE
  5
2C8
100
AcDbEntity
  8
CURVE
100
AcDbLine
 62
253
  6
CONTINUOUS
 10
-2.585710401
 20
-15.7522981577
 11
-2.5973937
 21
-15.7542468202
  0
LINE
  5
2C9
100
AcDbEntity
  8
CURVE
100
AcDbLine
 62
253
  6
CONTINUOUS
 10
-2.5262778105
 20
-16.2488882674
 11
-2.5145137096
 21
-16.2474915027
  0
LINE
  5
2CA
100
AcDbEntity
  8
CURVE
100
AcDbLine
 62
253
  6
CONTINUOUS
 10
-2.5739176994
 20
-15.7509020295
 11
-2.585710401
 21
-15.7522981577
  0
LINE
  5
2CB
100
AcDbEntity
  8
CURVE
100
AcDbLine
 62
253
  6
CONTINUOUS
 10
-4.471896906
 20
-15.0291204089
 11
-4.4935551171
 21
-15.0313628921
  0
LINE
  5
2CC
100
AcDbEntity
  8
CURVE
100
AcDbLine
 62
253
  6
CONTINUOUS
 10
-2.5620302026
 20
-15.7500619276
 11
-2.5739176994
 21
-15.7509020295
  0
LINE
  5
2CD
100
AcDbEntity
  8
CURVE
100
AcDbLine
 62
253
  6
CONTINUOUS
 10
-2.5500613604
 20
-15.7497811652
 11
-2.5620302026
 21
-15.7500619276
  0
LINE
  5
2CE
100
AcDbEntity
  8
CURVE
100
AcDbLine
 62
253
  6
CONTINUOUS
 10
-2.5381498421
 20
-15.7500619276
 11
-2.5500613604
 21
-15.7497811652
  0
LINE
  5
2CF
100
AcDbEntity
  8
CURVE
100
AcDbLine
 62
253
  6
CONTINUOUS
 10
-4.4515576409
 20
-15.0299592077
 11
-4.471896906
 21
-15.0291204089
  0
LINE
  5
2D0
100
AcDbEntity
  8
CURVE
100
AcDbLine
 62
253
  6
CONTINUOUS
 10
-2.5263127405
 20
-15.7509022387
 11
-2.5381498421
 21
-15.7500619276
  0
LINE
  5
2D1
100
AcDbEntity
  8
CURVE
100
AcDbLine
 62
253
  6
CONTINUOUS
 10
-4.4325920642
 20
-15.033703268
 11
-4.4515576409
 21
-15.0299592077
  0
LINE
  5
2D2
100
AcDbEntity
  8
CURVE
100
AcDbLine
 62
253
  6
CONTINUOUS
 10
-2.4800003915
 20
-15.7597947186
 11
-2.4913907913
 21
-15.7567492056
  0
LINE
  5
2D3
100
AcDbEntity
  8
CURVE
100
AcDbLine
 62
253
  6
CONTINUOUS
 10
-2.4687651685
 20
-15.7633808771
 11
-2.4800003915
 21
-15.7597947186
  0
LINE
  5
2D4
100
AcDbEntity
  8
CURVE
100
AcDbLine
 62
253
  6
CONTINUOUS
 10
-4.4150439846
 20
-15.0402248239
 11
-4.4325920642
 21
-15.033703268
  0
LINE
  5
2D5
100
AcDbEntity
  8
CURVE
100
AcDbLine
 62
253
  6
CONTINUOUS
 10
-2.4577049982
 20
-15.7675017735
 11
-2.4687651685
 21
-15.7633808771
  0
LINE
  5
2D6
100
AcDbEntity
  8
CURVE
100
AcDbLine
 62
253
  6
CONTINUOUS
 10
-2.4468408907
 20
-15.7721503409
 11
-2.4577049982
 21
-15.7675017735
  0
LINE
  5
2D7
100
AcDbEntity
  8
CURVE
100
AcDbLine
 62
253
  6
CONTINUOUS
 10
-2.6643287385
 20
-16.222524255
 11
-2.6536742209
 21
-16.2276781552
  0
LINE
  5
2D8
100
AcDbEntity
  8
CURVE
100
AcDbLine
 62
253
  6
CONTINUOUS
 10
-2.4361948726
 20
-15.7773181789
 11
-2.4468408907
 21
-15.7721503409
  0
LINE
  5
2D9
100
AcDbEntity
  8
CURVE
100
AcDbLine
 62
253
  6
CONTINUOUS
 10
-4.4068122895
 20
-15.04450475
 11
-4.4150439846
 21
-15.0402248239
  0
LINE
  5
2DA
100
AcDbEntity
  8
CURVE
100
AcDbLine
 62
253
  6
CONTINUOUS
 10
-2.6747371117
 20
-16.2168635124
 11
-2.6643287385
 21
-16.222524255
  0
LINE
  5
2DB
100
AcDbEntity
  8
CURVE
100
AcDbLine
 62
253
  6
CONTINUOUS
 10
-2.4257898305
 20
-15.7829954029
 11
-2.4361948726
 21
-15.7773181789
  0
LINE
  5
2DC
100
AcDbEntity
  8
CURVE
100
AcDbLine
 62
253
  6
CONTINUOUS
 10
-3.1557095463
 20
-15.6450501933
 11
-3.5022863807
 21
-15.4452345234
  0
LINE
  5
2DD
100
AcDbEntity
  8
CURVE
100
AcDbLine
 62
253
  6
CONTINUOUS
 10
-1.5937022228
 20
-16.5469767864
 11
-1.9399345475
 21
-16.3471611164
  0
LINE
  5
2DE
100
AcDbEntity
  8
CURVE
100
AcDbLine
 62
253
  6
CONTINUOUS
 10
-2.6848764735
 20
-16.210707353
 11
-2.6747371117
 21
-16.2168635124
  0
LINE
  5
2DF
100
AcDbEntity
  8
CURVE
100
AcDbLine
 62
253
  6
CONTINUOUS
 10
-2.4156493201
 20
-15.7891705241
 11
-2.4257898305
 21
-15.7829954029
  0
LINE
  5
2E0
100
AcDbEntity
  8
CURVE
100
AcDbLine
 62
253
  6
CONTINUOUS
 10
-4.3989649754
 20
-15.0494506638
 11
-4.4068122895
 21
-15.04450475
  0
LINE
  5
2E1
100
AcDbEntity
  8
CURVE
100
AcDbLine
 62
253
  6
CONTINUOUS
 10
-2.6947235491
 20
-16.2040687933
 11
-2.6848764735
 21
-16.210707353
  0
LINE
  5
2E2
100
AcDbEntity
  8
CURVE
100
AcDbLine
 62
253
  6
CONTINUOUS
 10
-2.4057973413
 20
-15.7958303676
 11
-2.4156493201
 21
-15.7891705241
  0
LINE
  5
2E3
100
AcDbEntity
  8
CURVE
100
AcDbLine
 62
253
  6
CONTINUOUS
 10
-2.704254892
 20
-16.1969624769
 11
-2.6947235491
 21
-16.2040687933
  0
LINE
  5
2E4
100
AcDbEntity
  8
CURVE
100
AcDbLine
 62
253
  6
CONTINUOUS
 10
-4.3844953017
 20
-15.0612990812
 11
-4.3989649754
 21
-15.0494506638
  0
LINE
  5
2E5
100
AcDbEntity
  8
CURVE
100
AcDbLine
 62
253
  6
CONTINUOUS
 10
-2.7134471371
 20
-16.1894046654
 11
-2.704254892
 21
-16.1969624769
  0
LINE
  5
2E6
100
AcDbEntity
  8
0
100
AcDbLine
 62
7
  6
CONTINUOUS
 10
-11.15
 20
-8.9650898701
 11
-11.1150898701
 21
-9.0
  0
LINE
  5
2E7
100
AcDbEntity
  8
CURVE
100
AcDbLine
 62
253
  6
CONTINUOUS
 10
-7.6513554008
 20
-16.9935543839
 11
-7.6406953918
 21
-17.0099293348
  0
LINE
  5
2E8
100
AcDbEntity
  8
RACCORDO
100
AcDbLine
 62
7
  6
CONTINUOUS
 10
4.3970741618
 20
23.7970741618
 11
4.4
 21
23.8
  0
LINE
  5
2E9
100
AcDbEntity
  8
CURVE
100
AcDbLine
 62
253
  6
CONTINUOUS
 10
-4.4935551171
 20
-15.0313628921
 11
-4.5164519252
 21
-15.0368976015
  0
LINE
  5
2EA
100
AcDbEntity
  8
0
100
AcDbLine
 62
7
  6
CONTINUOUS
 10
-11.1150898701
 20
-13.2
 11
-11.09
 21
-13.2
  0
LINE
  5
2EB
100
AcDbEntity
  8
0
100
AcDbLine
 62
7
  6
CONTINUOUS
 10
11.1150898701
 20
-13.2
 11
11.09
 21
-13.2
  0
LINE
  5
2EC
100
AcDbEntity
  8
CURVE
100
AcDbLine
 62
253
  6
CONTINUOUS
 10
-2.396258088
 20
-15.8029600346
 11
-2.4057973413
 21
-15.7958303676
  0
LINE
  5
2ED
100
AcDbEntity
  8
CURVE
100
AcDbLine
 62
253
  6
CONTINUOUS
 10
-2.3870556779
 20
-15.8105429128
 11
-2.396258088
 21
-15.8029600346
  0
LINE
  5
2EE
100
AcDbEntity
  8
CURVE
100
AcDbLine
 62
253
  6
CONTINUOUS
 10
-2.7222772627
 20
-16.1814131814
 11
-2.7134471371
 21
-16.1894046654
  0
LINE
  5
2EF
100
AcDbEntity
  8
CURVE
100
AcDbLine
 62
253
  6
CONTINUOUS
 10
-2.378213873
 20
-15.8185607385
 11
-2.3870556779
 21
-15.8105429128
  0
LINE
  5
2F0
100
AcDbEntity
  8
CURVE
100
AcDbLine
 62
253
  6
CONTINUOUS
 10
-2.731148508
 20
-16.1725836494
 11
-2.7222772627
 21
-16.1814131814
  0
LINE
  5
2F1
100
AcDbEntity
  8
CURVE
100
AcDbLine
 62
253
  6
CONTINUOUS
 10
-2.3693955602
 20
-15.8273528811
 11
-2.378213873
 21
-15.8185607385
  0
LINE
  5
2F2
100
AcDbEntity
  8
RACCORDO
100
AcDbLine
 62
7
  6
CONTINUOUS
 10
4.3970741618
 20
-23.7970741618
 11
4.4
 21
-23.8
  0
LINE
  5
2F3
100
AcDbEntity
  8
CURVE
100
AcDbLine
 62
253
  6
CONTINUOUS
 10
-2.7395440728
 20
-16.1633057571
 11
-2.731148508
 21
-16.1725836494
  0
LINE
  5
2F4
100
AcDbEntity
  8
CURVE
100
AcDbLine
 62
253
  6
CONTINUOUS
 10
-2.3610428105
 20
-15.8365835872
 11
-2.3693955602
 21
-15.8273528811
  0
LINE
  5
2F5
100
AcDbEntity
  8
CURVE
100
AcDbLine
 62
253
  6
CONTINUOUS
 10
-4.3717254159
 20
-15.0757576076
 11
-4.3844953017
 21
-15.0612990812
  0
LINE
  5
2F6
100
AcDbEntity
  8
CURVE
100
AcDbLine
 62
253
  6
CONTINUOUS
 10
-2.7471036023
 20
-16.1541102
 11
-2.7395440728
 21
-16.1633057571
  0
LINE
  5
2F7
100
AcDbEntity
  8
CURVE
100
AcDbLine
 62
253
  6
CONTINUOUS
 10
-7.6591557641
 20
-16.9760104515
 11
-7.6513554008
 21
-16.9935543839
  0
LWPOLYLINE
  5
2F8
100
AcDbEntity
  8
RACCORDO
100
AcDbPolyline
 62
253
  6
CONTINUOUS
 90
31
 70
0
 10
-11.000292537
 20
-21.4994104546
 10
-10.9995843214
 20
-21.5255273941
 10
-10.9975093815
 20
-21.5515728326
 10
-10.9940733978
 20
-21.5774754642
 10
-10.9892857772
 20
-21.6031643743
 10
-10.9831596269
 20
-21.6285692332
 10
-10.9757117186
 20
-21.6536204888
 10
-10.9669624427
 20
-21.6782495573
 10
-10.9569357524
 20
-21.7023890106
 10
-10.9456590982
 20
-21.7259727609
 10
-10.9331633526
 20
-21.748936242
 10
-10.9194827257
 20
-21.7712165858
 10
-10.9046546715
 20
-21.7927527942
 10
-10.8887197853
 20
-21.8134859066
 10
-10.8717216929
 20
-21.833359161
 10
-10.8537069304
 20
-21.8523181494
 10
-10.8347248178
 20
-21.870310967
 10
-10.8148273232
 20
-21.887288354
 10
-10.7940689208
 20
-21.9032038304
 10
-10.7725064419
 20
-21.9180138238
 10
-10.7501989188
 20
-21.9316777881
 10
-10.7272074241
 20
-21.9441583148
 10
-10.7035949025
 20
-21.9554212354
 10
-10.679425999
 20
-21.9654357148
 10
-10.6547668821
 20
-21.9741743359
 10
-10.629685062
 20
-21.9816131744
 10
-10.6042492065
 20
-21.9877318648
 10
-10.5785289525
 20
-21.9925136555
 10
-10.5525947155
 20
-21.9959454553
 10
-10.5265174969
 20
-21.9980178687
 10
-10.5003686894
 20
-21.998725222
  0
LWPOLYLINE
  5
2F9
100
AcDbEntity
  8
ASSI
100
AcDbPolyline
 62
253
  6
CONTINUOUS
 90
31
 70
0
 10
-11.000292537
 20
-21.4994104546
 10
-10.9995843216
 20
-21.52552739
 10
-10.9975093823
 20
-21.5515728247
 10
-10.9940733996
 20
-21.5774754529
 10
-10.9892857803
 20
-21.6031643599
 10
-10.9831596315
 20
-21.6285692161
 10
-10.9757117249
 20
-21.6536204694
 10
-10.9669624509
 20
-21.678249536
 10
-10.9569357626
 20
-21.7023889878
 10
-10.9456591104
 20
-21.7259727371
 10
-10.9331633667
 20
-21.7489362176
 10
-10.9194827417
 20
-21.7712165612
 10
-10.9046546892
 20
-21.7927527698
 10
-10.8887198046
 20
-21.8134858828
 10
-10.8717217135
 20
-21.8333591381
 10
-10.8537069521
 20
-21.8523181278
 10
-10.8347248403
 20
-21.8703109468
 10
-10.8148273461
 20
-21.8872883354
 10
-10.7940689438
 20
-21.9032038137
 10
-10.7725064646
 20
-21.918013809
 10
-10.7501989409
 20
-21.9316777754
 10
-10.7272074452
 20
-21.9441583041
 10
-10.7035949222
 20
-21.9554212266
 10
-10.6794260171
 20
-21.9654357079
 10
-10.6547668982
 20
-21.9741743306
 10
-10.6296850759
 20
-21.9816131707
 10
-10.6042492179
 20
-21.9877318623
 10
-10.5785289613
 20
-21.9925136541
 10
-10.5525947215
 20
-21.9959454547
 10
-10.5265174999
 20
-21.9980178685
 10
-10.5003686894
 20
-21.998725222
  0
LWPOLYLINE
  5
2FA
100
AcDbEntity
  8
RACCORDO
100
AcDbPolyline
 62
253
  6
CONTINUOUS
 90
31
 70
0
 10
-10.6369014213
 20
-24.2369056521
 10
-10.6365583827
 20
-24.2499891381
 10
-10.6355310928
 20
-24.2630367647
 10
-10.6338223673
 20
-24.2760127708
 10
-10.6314368893
 20
-24.2888815916
 10
-10.6283811971
 20
-24.3016079562
 10
-10.6246636657
 20
-24.3141569839
 10
-10.6202944842
 20
-24.3264942801
 10
-10.6152856277
 20
-24.3385860308
 10
-10.6096508246
 20
-24.3503990946
 10
-10.6034055187
 20
-24.3619010942
 10
-10.5965668272
 20
-24.3730605047
 10
-10.5891534939
 20
-24.3838467403
 10
-10.5811858371
 20
-24.3942302379
 10
-10.5726856948
 20
-24.4041825384
 10
-10.5636763643
 20
-24.4136763643
 10
-10.5541825384
 20
-24.4226856948
 10
-10.5442302379
 20
-24.4311858371
 10
-10.5338467403
 20
-24.4391534939
 10
-10.5230605047
 20
-24.4465668272
 10
-10.5119010942
 20
-24.4534055187
 10
-10.5003990946
 20
-24.4596508246
 10
-10.4885860308
 20
-24.4652856277
 10
-10.4764942801
 20
-24.4702944842
 10
-10.4641569839
 20
-24.4746636657
 10
-10.4516079562
 20
-24.4783811971
 10
-10.4388815916
 20
-24.4814368893
 10
-10.4260127708
 20
-24.4838223673
 10
-10.4130367647
 20
-24.4855310928
 10
-10.3999891381
 20
-24.4865583827
 10
-10.3869056521
 20
-24.4869014213
  0
LWPOLYLINE
  5
2FB
100
AcDbEntity
  8
RACCORDO
100
AcDbPolyline
 62
7
  6
CONTINUOUS
 90
25
 70
0
 10
-11.1325800446
 20
-21.9398948703
 10
-11.1320506827
 20
-21.9617902899
 10
-11.1304805283
 20
-21.9836338764
 10
-11.1278734598
 20
-22.0053762448
 10
-11.1242357649
 20
-22.0269681457
 10
-11.1195759544
 20
-22.0483609296
 10
-11.1139046495
 20
-22.0695066366
 10
-11.1072349155
 20
-22.0903575307
 10
-11.0995820782
 20
-22.110866553
 10
-11.0909633681
 20
-22.1309877354
 10
-11.0813984289
 20
-22.1506756671
 10
-11.070909048
 20
-22.1698859258
 10
-11.0595187249
 20
-22.1885754393
 10
-11.0472532908
 20
-22.2067020138
 10
-11.0341405642
 20
-22.2242247328
 10
-11.0202098552
 20
-22.2411042658
 10
-11.0054926756
 20
-22.2573024632
 10
-10.9900223273
 20
-22.2727827213
 10
-10.9738333566
 20
-22.2875102311
 10
-10.9569623382
 20
-22.3014516398
 10
-10.9394474044
 20
-22.3145753788
 10
-10.9213276593
 20
-22.3268518548
 10
-10.9026440244
 20
-22.3382531725
 10
-10.8834387149
 20
-22.3487534248
 10
-10.8781376822
 20
-22.3514467217
  0
LWPOLYLINE
  5
2FC
100
AcDbEntity
  8
RACCORDO
100
AcDbPolyline
 62
7
  6
CONTINUOUS
 90
34
 70
0
 10
-10.65
 20
-24.2500042308
 10
-10.6497168498
 20
-24.261899516
 10
-10.6488680342
 20
-24.2737678556
 10
-10.6474554741
 20
-24.2855823661
 10
-10.6454823677
 20
-24.2973162875
 10
-10.6429531817
 20
-24.3089430388
 10
-10.6398736417
 20
-24.320436279
 10
-10.6362507213
 20
-24.3317699738
 10
-10.6320926258
 20
-24.3429184493
 10
-10.6274087722
 20
-24.3538564463
 10
-10.6222097688
 20
-24.3645591876
 10
-10.6165073916
 20
-24.3750024283
 10
-10.6103145581
 20
-24.3851625059
 10
-10.6036452955
 20
-24.3950164051
 10
-10.5965147107
 20
-24.4045418038
 10
-10.5889389589
 20
-24.4137171191
 10
-10.5809352005
 20
-24.4225215661
 10
-10.5725215661
 20
-24.4309352005
 10
-10.5637171191
 20
-24.4389389589
 10
-10.5545418038
 20
-24.4465147107
 10
-10.5450164051
 20
-24.4536452955
 10
-10.5351625059
 20
-24.4603145581
 10
-10.5250024283
 20
-24.4665073916
 10
-10.5145591876
 20
-24.4722097688
 10
-10.5038564463
 20
-24.4774087722
 10
-10.4929184493
 20
-24.4820926258
 10
-10.4817699738
 20
-24.4862507213
 10
-10.470436279
 20
-24.4898736417
 10
-10.4589430388
 20
-24.4929531817
 10
-10.4473162875
 20
-24.4954823677
 10
-10.4355823661
 20
-24.4974554741
 10
-10.4237678556
 20
-24.4988680342
 10
-10.411899516
 20
-24.4997168498
 10
-10.4000042308
 20
-24.5
  0
LINE
  5
2FD
100
AcDbEntity
  8
ASSI
100
AcDbLine
 62
253
  6
CONTINUOUS
 10
-10.9883703723
 20
21.1784582149
 11
-10.9901558747
 21
21.2748796014
  0
LINE
  5
2FE
100
AcDbEntity
  8
RACCORDO
100
AcDbLine
 62
253
  6
CONTINUOUS
 10
-10.9883704957
 20
21.1784658819
 11
-10.9901560118
 21
21.2748860173
  0
LINE
  5
2FF
100
AcDbEntity
  8
ASSI
100
AcDbLine
 62
253
  6
CONTINUOUS
 10
-10.9864984954
 20
21.0393269652
 11
-10.9883703723
 21
21.1784582149
  0
LINE
  5
300
100
AcDbEntity
  8
RACCORDO
100
AcDbLine
 62
253
  6
CONTINUOUS
 10
-10.9864985835
 20
21.0393348818
 11
-10.9883704957
 21
21.1784658819
  0
LINE
  5
301
100
AcDbEntity
  8
RACCORDO
100
AcDbLine
 62
253
  6
CONTINUOUS
 10
-10.6369014213
 20
-23.8443375673
 11
-10.6427192511
 21
-23.2669872981
  0
LINE
  5
302
100
AcDbEntity
  8
RACCORDO
100
AcDbLine
 62
253
  6
CONTINUOUS
 10
-10.3869056521
 20
-23.6278312164
 11
-10.3919962532
 21
-23.1226497308
  0
LINE
  5
303
100
AcDbEntity
  8
ASSI
100
AcDbLine
 62
253
  6
CONTINUOUS
 10
-10.984855611
 20
20.8508687671
 11
-10.9864984954
 21
21.0393269652
  0
LINE
  5
304
100
AcDbEntity
  8
RACCORDO
100
AcDbLine
 62
253
  6
CONTINUOUS
 10
-10.9848556591
 20
20.850876196
 11
-10.9864985835
 21
21.0393348818
  0
LINE
  5
305
100
AcDbEntity
  8
ASSI
100
AcDbLine
 62
253
  6
CONTINUOUS
 10
-10.9838594373
 20
20.6120655562
 11
-10.984855611
 21
20.8508687671
  0
LINE
  5
306
100
AcDbEntity
  8
RACCORDO
100
AcDbLine
 62
253
  6
CONTINUOUS
 10
-10.983859449
 20
20.6120705919
 11
-10.9848556591
 21
20.850876196
  0
LWPOLYLINE
  5
307
100
AcDbEntity
  8
RACCORDO
100
AcDbPolyline
 62
253
  6
CONTINUOUS
 90
3
 70
0
 10
-10.9812236836
 20
16.6307385957
 10
-10.9824278427
 20
18.5864348511
 10
-10.983859449
 20
20.6120705919
  0
LWPOLYLINE
  5
308
100
AcDbEntity
  8
ASSI
100
AcDbPolyline
 62
253
  6
CONTINUOUS
 90
3
 70
0
 10
-10.9812236837
 20
16.6307387095
 10
-10.9824278427
 20
18.5864349161
 10
-10.9838594373
 20
20.6120655562
  0
LINE
  5
309
100
AcDbEntity
  8
RACCORDO
100
AcDbLine
 62
253
  6
CONTINUOUS
 10
-10.9784137697
 20
10.7622382581
 11
-10.9812236836
 21
16.6307385957
  0
LINE
  5
30A
100
AcDbEntity
  8
ASSI
100
AcDbLine
 62
253
  6
CONTINUOUS
 10
-10.9784137697
 20
10.7622384105
 11
-10.9812236837
 21
16.6307387095
  0
LINE
  5
30B
100
AcDbEntity
  8
RACCORDO
100
AcDbLine
 62
253
  6
CONTINUOUS
 10
-10.9772094258
 20
6.8490287537
 11
-10.9784137697
 21
10.7622382581
  0
LINE
  5
30C
100
AcDbEntity
  8
ASSI
100
AcDbLine
 62
253
  6
CONTINUOUS
 10
-10.9772094258
 20
6.8490289012
 11
-10.9784137697
 21
10.7622384105
  0
LINE
  5
30D
100
AcDbEntity
  8
RACCORDO
100
AcDbLine
 62
7
  6
CONTINUOUS
 10
-11.15
 20
-21.9311855559
 11
-11.15
 21
21.9311855559
  0
LINE
  5
30E
100
AcDbEntity
  8
0
100
AcDbLine
 62
7
  6
CONTINUOUS
 10
-11.15
 20
-17.6716990487
 11
-11.15
 21
17.6716990487
  0
LINE
  5
30F
100
AcDbEntity
  8
ASSI
100
AcDbLine
 62
7
  6
CONTINUOUS
 10
-11.09
 20
21.7687516997
 11
-11.09
 21
-21.7687516997
  0
LINE
  5
310
100
AcDbEntity
  8
RACCORDO
100
AcDbLine
 62
7
  6
CONTINUOUS
 10
-11.09
 20
-21.7687516997
 11
-11.09
 21
-13.2
  0
LINE
  5
311
100
AcDbEntity
  8
0
100
AcDbLine
 62
7
  6
CONTINUOUS
 10
-11.09
 20
-13.2
 11
-11.09
 21
13.2
  0
LINE
  5
312
100
AcDbEntity
  8
RACCORDO
100
AcDbLine
 62
7
  6
CONTINUOUS
 10
-11.09
 20
13.2
 11
-11.09
 21
21.7687516997
  0
LINE
  5
313
100
AcDbEntity
  8
RACCORDO
100
AcDbLine
 62
7
  6
CONTINUOUS
 10
-11.0889072728
 20
21.8087700079
 11
-11.0889072728
 21
21.7998772199
  0
LINE
  5
314
100
AcDbEntity
  8
RACCORDO
100
AcDbLine
 62
7
  6
CONTINUOUS
 10
-11.0889072728
 20
-21.7998772199
 11
-11.0889072728
 21
-21.8087700079
  0
LINE
  5
315
100
AcDbEntity
  8
RACCORDO
100
AcDbLine
 62
253
  6
CONTINUOUS
 10
-10.9764064929
 20
0.9784712263
 11
-10.9772094258
 21
6.8490287537
  0
LINE
  5
316
100
AcDbEntity
  8
ASSI
100
AcDbLine
 62
253
  6
CONTINUOUS
 10
-10.9764064929
 20
0.9784713745
 11
-10.9772094258
 21
6.8490289012
  0
LINE
  5
317
100
AcDbEntity
  8
RACCORDO
100
AcDbLine
 62
7
  6
CONTINUOUS
 10
-10.65
 20
-22.4
 11
-10.65
 21
-24.2500042308
  0
LINE
  5
318
100
AcDbEntity
  8
RACCORDO
100
AcDbLine
 62
7
  6
CONTINUOUS
 10
-10.65
 20
22.4
 11
-10.65
 21
24.2500042308
  0
LINE
  5
319
100
AcDbEntity
  8
RACCORDO
100
AcDbLine
 62
253
  6
CONTINUOUS
 10
-10.6427192511
 20
-23.2669872981
 11
-10.6427192511
 21
-22.3344140523
  0
LINE
  5
31A
100
AcDbEntity
  8
RACCORDO
100
AcDbLine
 62
253
  6
CONTINUOUS
 10
-10.6427192511
 20
22.3344140523
 11
-10.6427192511
 21
23.2669872981
  0
LINE
  5
31B
100
AcDbEntity
  8
RACCORDO
100
AcDbLine
 62
253
  6
CONTINUOUS
 10
-10.6369014213
 20
24.2369056521
 11
-10.6369014213
 21
23.8443375673
  0
LINE
  5
31C
100
AcDbEntity
  8
RACCORDO
100
AcDbLine
 62
253
  6
CONTINUOUS
 10
-10.6369014213
 20
-23.8443375673
 11
-10.6369014213
 21
-24.2369056521
  0
LINE
  5
31D
100
AcDbEntity
  8
RACCORDO
100
AcDbLine
 62
253
  6
CONTINUOUS
 10
-10.976540313
 20
-2.9353689289
 11
-10.9764064929
 21
0.9784712263
  0
LINE
  5
31E
100
AcDbEntity
  8
ASSI
100
AcDbLine
 62
253
  6
CONTINUOUS
 10
-10.976540313
 20
-2.9353687809
 11
-10.9764064929
 21
0.9784713745
  0
LWPOLYLINE
  5
31F
100
AcDbEntity
  8
RACCORDO
100
AcDbPolyline
 62
253
  6
CONTINUOUS
 90
3
 70
0
 10
-10.9777446939
 20
-8.8057012222
 10
-10.9772094258
 20
-6.8490289012
 10
-10.976540313
 20
-2.9353689289
  0
LWPOLYLINE
  5
320
100
AcDbEntity
  8
ASSI
100
AcDbPolyline
 62
253
  6
CONTINUOUS
 90
3
 70
0
 10
-10.9777446938
 20
-8.8057010749
 10
-10.9772094258
 20
-6.8490287537
 10
-10.976540313
 20
-2.9353687809
  0
LWPOLYLINE
  5
321
100
AcDbEntity
  8
RACCORDO
100
AcDbPolyline
 62
253
  6
CONTINUOUS
 90
3
 70
0
 10
-10.9801532893
 20
-14.6748172369
 10
-10.9792166472
 20
-12.7186404567
 10
-10.9777446939
 20
-8.8057012222
  0
LWPOLYLINE
  5
322
100
AcDbEntity
  8
ASSI
100
AcDbPolyline
 62
253
  6
CONTINUOUS
 90
3
 70
0
 10
-10.9801532892
 20
-14.6748170904
 10
-10.9792166471
 20
-12.7186402992
 10
-10.9777446938
 20
-8.8057010749
  0
LINE
  5
323
100
AcDbEntity
  8
RACCORDO
100
AcDbLine
 62
253
  6
CONTINUOUS
 10
-10.9824278427
 20
-18.5864349161
 11
-10.9801532893
 21
-14.6748172369
  0
LINE
  5
324
100
AcDbEntity
  8
ASSI
100
AcDbLine
 62
253
  6
CONTINUOUS
 10
-10.9824278427
 20
-18.5864348511
 11
-10.9801532892
 21
-14.6748170904
  0
LINE
  5
325
100
AcDbEntity
  8
RACCORDO
100
AcDbLine
 62
253
  6
CONTINUOUS
 10
-10.9844664876
 20
-20.7841455082
 11
-10.9824278427
 21
-18.5864349161
  0
LINE
  5
326
100
AcDbEntity
  8
ASSI
100
AcDbLine
 62
253
  6
CONTINUOUS
 10
-10.9844665238
 20
-20.7841526745
 11
-10.9824278427
 21
-18.5864348511
  0
LINE
  5
327
100
AcDbEntity
  8
RACCORDO
100
AcDbLine
 62
253
  6
CONTINUOUS
 10
-10.9858740266
 20
-20.9787539691
 11
-10.9844664876
 21
-20.7841455082
  0
LINE
  5
328
100
AcDbEntity
  8
ASSI
100
AcDbLine
 62
253
  6
CONTINUOUS
 10
-10.9858741006
 20
-20.9787618029
 11
-10.9844665238
 21
-20.7841526745
  0
LINE
  5
329
100
AcDbEntity
  8
RACCORDO
100
AcDbLine
 62
253
  6
CONTINUOUS
 10
-10.6427192511
 20
23.2669872981
 11
-10.6369014213
 21
23.8443375673
  0
LINE
  5
32A
100
AcDbEntity
  8
RACCORDO
100
AcDbLine
 62
253
  6
CONTINUOUS
 10
-10.3919962532
 20
23.1226497308
 11
-10.3869056521
 21
23.6278312164
  0
LINE
  5
32B
100
AcDbEntity
  8
RACCORDO
100
AcDbLine
 62
253
  6
CONTINUOUS
 10
-10.9875704474
 20
-21.1250817868
 11
-10.9858740266
 21
-20.9787539691
  0
LINE
  5
32C
100
AcDbEntity
  8
ASSI
100
AcDbLine
 62
253
  6
CONTINUOUS
 10
-10.9875705578
 20
-21.1250897139
 11
-10.9858741006
 21
-20.9787618029
  0
LINE
  5
32D
100
AcDbEntity
  8
RACCORDO
100
AcDbLine
 62
253
  6
CONTINUOUS
 10
-10.989233246
 20
-21.2284525413
 11
-10.9875704474
 21
-21.1250817868
  0
LINE
  5
32E
100
AcDbEntity
  8
ASSI
100
AcDbLine
 62
253
  6
CONTINUOUS
 10
-10.9892333785
 20
-21.2284596956
 11
-10.9875705578
 21
-21.1250897139
  0
LINE
  5
32F
100
AcDbEntity
  8
RACCORDO
100
AcDbLine
 62
253
  6
CONTINUOUS
 10
-10.9901558747
 20
-21.2748796015
 11
-10.989233246
 21
-21.2284525413
  0
LINE
  5
330
100
AcDbEntity
  8
ASSI
100
AcDbLine
 62
253
  6
CONTINUOUS
 10
-10.9901560118
 20
-21.2748860175
 11
-10.9892333785
 21
-21.2284596956
  0
LWPOLYLINE
  5
331
100
AcDbEntity
  8
RACCORDO
100
AcDbPolyline
 62
7
  6
CONTINUOUS
 90
25
 70
0
 10
-11.1325800446
 20
21.9398948703
 10
-11.1320519918
 20
21.9617610743
 10
-11.1304855524
 20
21.9835806081
 10
-11.1278838455
 20
22.0053041354
 10
-11.1242522772
 20
22.0268826782
 10
-11.1195986849
 20
22.0482672071
 10
-11.1139333971
 20
22.0694087685
 10
-11.10726889
 20
22.0902594599
 10
-11.0996199097
 20
22.1107720013
 10
-11.0910037234
 20
22.1308993617
 10
-11.0814395783
 20
22.1505958888
 10
-11.0709488777
 20
22.1698168796
 10
-11.0595554842
 20
22.1885182205
 10
-11.047285025
 20
22.2066574744
 10
-11.0341651246
 20
22.2241934574
 10
-11.0202257561
 20
22.2410859052
 10
-11.0054983998
 20
22.2572964914
 10
-10.9900163287
 20
22.2727884238
 10
-10.9738150042
 20
22.2875261451
 10
-10.9569311044
 20
22.3014762499
 10
-10.9394028544
 20
22.3146071157
 10
-10.9212704599
 20
22.3268886488
 10
-10.9025750271
 20
22.3382930704
 10
-10.8833589295
 20
22.3487945937
 10
-10.8781358696
 20
22.3514476141
  0
LWPOLYLINE
  5
332
100
AcDbEntity
  8
RACCORDO
100
AcDbPolyline
 62
253
  6
CONTINUOUS
 90
31
 70
0
 10
-11.000292537
 20
21.4994104546
 10
-10.9995843211
 20
21.5255273998
 10
-10.9975093803
 20
21.5515728436
 10
-10.9940733953
 20
21.57747548
 10
-10.9892857729
 20
21.6031643943
 10
-10.9831596205
 20
21.6285692569
 10
-10.9757117098
 20
21.6536205157
 10
-10.9669624314
 20
21.6782495866
 10
-10.9569357385
 20
21.7023890418
 10
-10.9456590816
 20
21.7259727934
 10
-10.9331633334
 20
21.7489362752
 10
-10.919482704
 20
21.7712166191
 10
-10.9046546476
 20
21.7927528271
 10
-10.8887197594
 20
21.8134859386
 10
-10.8717216652
 20
21.8333591917
 10
-10.8537069014
 20
21.8523181784
 10
-10.8347247879
 20
21.870310994
 10
-10.8148272928
 20
21.8872883786
 10
-10.7940688903
 20
21.9032038526
 10
-10.7725064118
 20
21.9180138434
 10
-10.7501988896
 20
21.931677805
 10
-10.7272073962
 20
21.9441583291
 10
-10.7035948764
 20
21.955421247
 10
-10.6794259752
 20
21.965435724
 10
-10.6547668609
 20
21.9741743428
 10
-10.6296850438
 20
21.9816131793
 10
-10.6042491916
 20
21.987731868
 10
-10.5785289411
 20
21.9925136574
 10
-10.5525947078
 20
21.9959454561
 10
-10.526517493
 20
21.9980178689
 10
-10.5003686894
 20
21.998725222
  0
LWPOLYLINE
  5
333
100
AcDbEntity
  8
ASSI
100
AcDbPolyline
 62
253
  6
CONTINUOUS
 90
31
 70
0
 10
-11.000292537
 20
21.4994104546
 10
-10.9995843211
 20
21.5255273998
 10
-10.9975093803
 20
21.5515728436
 10
-10.9940733953
 20
21.57747548
 10
-10.9892857729
 20
21.6031643943
 10
-10.9831596205
 20
21.6285692569
 10
-10.9757117098
 20
21.6536205157
 10
-10.9669624314
 20
21.6782495866
 10
-10.9569357385
 20
21.7023890418
 10
-10.9456590816
 20
21.7259727934
 10
-10.9331633334
 20
21.7489362752
 10
-10.919482704
 20
21.7712166191
 10
-10.9046546476
 20
21.7927528271
 10
-10.8887197594
 20
21.8134859386
 10
-10.8717216652
 20
21.8333591917
 10
-10.8537069014
 20
21.8523181784
 10
-10.8347247879
 20
21.870310994
 10
-10.8148272928
 20
21.8872883786
 10
-10.7940688903
 20
21.9032038526
 10
-10.7725064118
 20
21.9180138434
 10
-10.7501988896
 20
21.931677805
 10
-10.7272073962
 20
21.9441583291
 10
-10.7035948764
 20
21.955421247
 10
-10.6794259752
 20
21.965435724
 10
-10.6547668609
 20
21.9741743428
 10
-10.6296850438
 20
21.9816131793
 10
-10.6042491916
 20
21.987731868
 10
-10.5785289411
 20
21.9925136574
 10
-10.5525947078
 20
21.9959454561
 10
-10.526517493
 20
21.9980178689
 10
-10.5003686894
 20
21.998725222
  0
LINE
  5
334
100
AcDbEntity
  8
RACCORDO
100
AcDbLine
 62
7
  6
CONTINUOUS
 10
-8.25
 20
22.4
 11
-8.2572807489
 21
22.3344140523
  0
LINE
  5
335
100
AcDbEntity
  8
CURVE
100
AcDbLine
 62
253
  6
CONTINUOUS
 10
-2.3534649095
 20
-15.845799481
 11
-2.3610428105
 21
-15.8365835872
  0
LINE
  5
336
100
AcDbEntity
  8
CURVE
100
AcDbLine
 62
253
  6
CONTINUOUS
 10
-2.3463388802
 20
-15.8553540546
 11
-2.3534649095
 21
-15.845799481
  0
LINE
  5
337
100
AcDbEntity
  8
CURVE
100
AcDbLine
 62
253
  6
CONTINUOUS
 10
-2.7542121792
 20
-16.1445746918
 11
-2.7471036023
 21
-16.1541102
  0
LINE
  5
338
100
AcDbEntity
  8
CURVE
100
AcDbLine
 62
253
  6
CONTINUOUS
 10
-2.3396815174
 20
-15.8652231071
 11
-2.3463388802
 21
-15.8553540546
  0
LINE
  5
339
100
AcDbEntity
  8
CURVE
100
AcDbLine
 62
253
  6
CONTINUOUS
 10
-2.7608533952
 20
-16.134722732
 11
-2.7542121792
 21
-16.1445746918
  0
LINE
  5
33A
100
AcDbEntity
  8
CURVE
100
AcDbLine
 62
253
  6
CONTINUOUS
 10
-4.3607851626
 20
-15.0928502306
 11
-4.3717254159
 21
-15.0757576076
  0
LINE
  5
33B
100
AcDbEntity
  8
CURVE
100
AcDbLine
 62
253
  6
CONTINUOUS
 10
-2.7670124501
 20
-16.124577952
 11
-2.7608533952
 21
-16.134722732
  0
LINE
  5
33C
100
AcDbEntity
  8
CURVE
100
AcDbLine
 62
253
  6
CONTINUOUS
 10
-7.663864917
 20
-16.9584153852
 11
-7.6591557641
 21
-16.9760104515
  0
LINE
  5
33D
100
AcDbEntity
  8
RACCORDO
100
AcDbLine
 62
7
  6
CONTINUOUS
 10
-8.25
 20
-22.4
 11
-8.2572807489
 21
-22.3344140523
  0
LINE
  5
33E
100
AcDbEntity
  8
CURVE
100
AcDbLine
 62
253
  6
CONTINUOUS
 10
-7.6658727961
 20
-16.9393075723
 11
-7.663864917
 21
-16.9584153852
  0
LWPOLYLINE
  5
33F
100
AcDbEntity
  8
RACCORDO
100
AcDbPolyline
 62
7
  6
CONTINUOUS
 90
34
 70
0
 10
-10.6427192511
 20
23.2669872981
 10
-10.6424215247
 20
23.260745719
 10
-10.6416502733
 20
23.254472608
 10
-10.6403999106
 20
23.2481861919
 10
-10.6386658633
 20
23.2419121598
 10
-10.6364444206
 20
23.2356626215
 10
-10.6337324006
 20
23.2294361375
 10
-10.6305279037
 20
23.2232532001
 10
-10.6268299792
 20
23.2171335699
 10
-10.6226377282
 20
23.2110754134
 10
-10.617952244
 20
23.2051002367
 10
-10.6127756021
 20
23.199228829
 10
-10.6071092313
 20
23.1934590071
 10
-10.6009574474
 20
23.1878130261
 10
-10.594325665
 20
23.182312533
 10
-10.5872178622
 20
23.1769551973
 10
-10.5796418667
 20
23.171763745
 10
-10.5716067847
 20
23.1667604362
 10
-10.5631195591
 20
23.1619430222
 10
-10.5541918496
 20
23.1573343288
 10
-10.5448368709
 20
23.1529569199
 10
-10.5350651963
 20
23.148808872
 10
-10.5248926851
 20
23.1449126131
 10
-10.514337098
 20
23.1412905703
 10
-10.5034134972
 20
23.137941334
 10
-10.4921424397
 20
23.1348863009
 10
-10.4805465152
 20
23.1321470947
 10
-10.4686458174
 20
23.1297228132
 10
-10.4564789897
 20
23.1276360125
 10
-10.4440609348
 20
23.1259025536
 10
-10.4313769407
 20
23.1245164325
 10
-10.4184422301
 20
23.1234933505
 10
-10.4053037286
 20
23.1228641607
 10
-10.3919962532
 20
23.1226497308
  0
LWPOLYLINE
  5
340
100
AcDbEntity
  8
RACCORDO
100
AcDbPolyline
 62
7
  6
CONTINUOUS
 90
34
 70
0
 10
-8.2572807489
 20
-23.2669872981
 10
-8.2575784753
 20
-23.260745719
 10
-8.2583497267
 20
-23.254472608
 10
-8.2596000894
 20
-23.2481861919
 10
-8.2613341367
 20
-23.2419121598
 10
-8.2635555794
 20
-23.2356626215
 10
-8.2662675994
 20
-23.2294361375
 10
-8.2694720963
 20
-23.2232532001
 10
-8.2731700208
 20
-23.2171335699
 10
-8.2773622718
 20
-23.2110754134
 10
-8.282047756
 20
-23.2051002367
 10
-8.2872243979
 20
-23.199228829
 10
-8.2928907687
 20
-23.1934590071
 10
-8.2990425526
 20
-23.1878130261
 10
-8.305674335
 20
-23.182312533
 10
-8.3127821378
 20
-23.1769551973
 10
-8.3203581333
 20
-23.171763745
 10
-8.3283932153
 20
-23.1667604362
 10
-8.3368804409
 20
-23.1619430222
 10
-8.3458081504
 20
-23.1573343288
 10
-8.3551631291
 20
-23.1529569199
 10
-8.3649348037
 20
-23.148808872
 10
-8.3751073149
 20
-23.1449126131
 10
-8.385662902
 20
-23.1412905703
 10
-8.3965865028
 20
-23.137941334
 10
-8.4078575603
 20
-23.1348863009
 10
-8.4194534848
 20
-23.1321470947
 10
-8.4313541826
 20
-23.1297228132
 10
-8.4435210103
 20
-23.1276360125
 10
-8.4559390652
 20
-23.1259025536
 10
-8.4686230593
 20
-23.1245164325
 10
-8.4815577699
 20
-23.1234933505
 10
-8.4946962714
 20
-23.1228641607
 10
-8.5080037468
 20
-23.1226497308
  0
LWPOLYLINE
  5
341
100
AcDbEntity
  8
ASSI
100
AcDbPolyline
 62
253
  6
CONTINUOUS
 90
10
 70
0
 10
-10.9949116261
 20
21.4334983322
 10
-10.9954878781
 20
21.4455967784
 10
-10.996071915
 20
21.4565422297
 10
-10.9966615629
 20
21.4662940046
 10
-10.9972568525
 20
21.4748476404
 10
-10.9978577531
 20
21.4822075998
 10
-10.9984619984
 20
21.4883465902
 10
-10.9990688332
 20
21.493255514
 10
-10.9996790127
 20
21.4969434688
 10
-11.000292537
 20
21.4994104546
  0
LWPOLYLINE
  5
342
100
AcDbEntity
  8
RACCORDO
100
AcDbPolyline
 62
253
  6
CONTINUOUS
 90
10
 70
0
 10
-10.9949117553
 20
21.4335011781
 10
-10.9954880052
 20
21.4455992743
 10
-10.9960720398
 20
21.4565443857
 10
-10.9966616853
 20
21.4662958448
 10
-10.9972569761
 20
21.474849211
 10
-10.9978578778
 20
21.482208925
 10
-10.9984621125
 20
21.4883476408
 10
-10.999068921
 20
21.4932562434
 10
-10.9996790625
 20
21.496943848
 10
-11.000292537
 20
21.4994104546
  0
LWPOLYLINE
  5
343
100
AcDbEntity
  8
ASSI
100
AcDbPolyline
 62
253
  6
CONTINUOUS
 90
8
 70
0
 10
-10.4961479286
 20
21.9344155914
 10
-10.4967375662
 20
21.9490465115
 10
-10.4973328178
 20
21.9618853915
 10
-10.4979336741
 20
21.9729165231
 10
-10.4985379242
 20
21.9821263566
 10
-10.4991448309
 20
21.9895035428
 10
-10.4997551314
 20
21.9950389742
 10
-10.5003688255
 20
21.9987258379
  0
LWPOLYLINE
  5
344
100
AcDbEntity
  8
RACCORDO
100
AcDbPolyline
 62
253
  6
CONTINUOUS
 90
8
 70
0
 10
-10.4961479797
 20
21.9344167904
 10
-10.4967376173
 20
21.9490475752
 10
-10.4973328714
 20
21.9618863393
 10
-10.4979337311
 20
21.9729173476
 10
-10.49853798
 20
21.9821270084
 10
-10.4991448797
 20
21.9895039889
 10
-10.4997551687
 20
21.9950392263
 10
-10.5003688471
 20
21.9987259352
  0
LINE
  5
345
100
AcDbEntity
  8
ASSI
100
AcDbLine
 62
253
  6
CONTINUOUS
 10
-10.993782544
 20
21.405834021
 11
-10.9949116261
 21
21.4334983322
  0
LINE
  5
346
100
AcDbEntity
  8
RACCORDO
100
AcDbLine
 62
253
  6
CONTINUOUS
 10
-10.9937826772
 20
21.405837588
 11
-10.9949117553
 21
21.4335011781
  0
LWPOLYLINE
  5
347
100
AcDbEntity
  8
RACCORDO
100
AcDbPolyline
 62
253
  6
CONTINUOUS
 90
31
 70
0
 10
-10.6369014213
 20
23.8443375673
 10
-10.6365220896
 20
23.8330274168
 10
-10.6354611076
 20
23.8217481519
 10
-10.6337213727
 20
23.810530574
 10
-10.6313076358
 20
23.7994053159
 10
-10.6282264882
 20
23.7884027584
 10
-10.624486344
 20
23.7775529472
 10
-10.6200974166
 20
23.7668855107
 10
-10.6150716913
 20
23.7564295797
 10
-10.6094228923
 20
23.7462137069
 10
-10.6031664453
 20
23.7362657898
 10
-10.5963194354
 20
23.7266129942
 10
-10.5889005603
 20
23.7172816797
 10
-10.5809300794
 20
23.7082973282
 10
-10.5724297583
 20
23.6996844742
 10
-10.5634228098
 20
23.6914666374
 10
-10.5539338299
 20
23.6836662592
 10
-10.543988731
 20
23.6763046407
 10
-10.5336146711
 20
23.6694018849
 10
-10.5228399796
 20
23.6629768418
 10
-10.5116940799
 20
23.6570470569
 10
-10.5002074091
 20
23.6516287232
 10
-10.4884113349
 20
23.646736637
 10
-10.47633807
 20
23.6423841576
 10
-10.4640205838
 20
23.6385831707
 10
-10.451492513
 20
23.6353440559
 10
-10.4387880689
 20
23.6326756587
 10
-10.4259419448
 20
23.6305852658
 10
-10.4129892207
 20
23.6290785857
 10
-10.3999652679
 20
23.6281597328
 10
-10.3869056521
 20
23.6278312164
  0
LWPOLYLINE
  5
348
100
AcDbEntity
  8
RACCORDO
100
AcDbPolyline
 62
253
  6
CONTINUOUS
 90
31
 70
0
 10
-8.2630985787
 20
-23.8443375673
 10
-8.2634771343
 20
-23.833039595
 10
-8.2645362619
 20
-23.821769291
 10
-8.2662736384
 20
-23.8105574212
 10
-8.2686853398
 20
-23.7994336121
 10
-8.2717652101
 20
-23.78842936
 10
-8.2755042611
 20
-23.7775778202
 10
-8.2798918055
 20
-23.7669096972
 10
-8.2849162045
 20
-23.7564530239
 10
-8.2905638851
 20
-23.746236105
 10
-8.2968195777
 20
-23.7362866999
 10
-8.3036661523
 20
-23.7266321754
 10
-8.3110847605
 20
-23.7172991519
 10
-8.3190550646
 20
-23.7083132018
 10
-8.3275553594
 20
-23.6996987826
 10
-8.3365624499
 20
-23.6914794042
 10
-8.3460517535
 20
-23.6836775075
 10
-8.3559973406
 20
-23.6763144193
 10
-8.3663720235
 20
-23.6694102704
 10
-8.3771474559
 20
-23.6629839239
 10
-8.3882942139
 20
-23.6570529269
 10
-8.399781851
 20
-23.6516334796
 10
-8.4115790077
 20
-23.6467403776
 10
-8.4236534441
 20
-23.6423869945
 10
-8.4359721237
 20
-23.6385852371
 10
-8.4485013591
 20
-23.6353454907
 10
-8.4612069619
 20
-23.6326765842
 10
-8.4740542827
 20
-23.6305857918
 10
-8.48700825
 20
-23.6290788219
 10
-8.5000334638
 20
-23.6281597935
 10
-8.5130943479
 20
-23.6278312164
  0
LINE
  5
349
100
AcDbEntity
  8
ASSI
100
AcDbLine
 62
253
  6
CONTINUOUS
 10
-10.9926908574
 20
21.3737136526
 11
-10.993782544
 21
21.405834021
  0
LINE
  5
34A
100
AcDbEntity
  8
RACCORDO
100
AcDbLine
 62
253
  6
CONTINUOUS
 10
-10.9926909933
 20
21.3737179831
 11
-10.9937826772
 21
21.405837588
  0
LINE
  5
34B
100
AcDbEntity
  8
ASSI
100
AcDbLine
 62
253
  6
CONTINUOUS
 10
-10.4949876511
 20
21.8998526109
 11
-10.4961479286
 21
21.9344155914
  0
LINE
  5
34C
100
AcDbEntity
  8
RACCORDO
100
AcDbLine
 62
253
  6
CONTINUOUS
 10
-10.4949877033
 20
21.8998540789
 11
-10.4961479797
 21
21.9344167904
  0
LINE
  5
34D
100
AcDbEntity
  8
ASSI
100
AcDbLine
 62
253
  6
CONTINUOUS
 10
-10.4938586023
 20
21.8583688257
 11
-10.4949876511
 21
21.8998526109
  0
LINE
  5
34E
100
AcDbEntity
  8
RACCORDO
100
AcDbLine
 62
253
  6
CONTINUOUS
 10
-10.4938586534
 20
21.8583705666
 11
-10.4949877033
 21
21.8998540789
  0
LINE
  5
34F
100
AcDbEntity
  8
ASSI
100
AcDbLine
 62
253
  6
CONTINUOUS
 10
-10.9911332582
 20
21.3174722952
 11
-10.9926908574
 21
21.3737136526
  0
LINE
  5
350
100
AcDbEntity
  8
RACCORDO
100
AcDbLine
 62
253
  6
CONTINUOUS
 10
-10.9911333959
 20
21.3174778606
 11
-10.9926909933
 21
21.3737179831
  0
LINE
  5
351
100
AcDbEntity
  8
ASSI
100
AcDbLine
 62
253
  6
CONTINUOUS
 10
-10.9901558747
 20
21.2748796014
 11
-10.9911332582
 21
21.3174722952
  0
LINE
  5
352
100
AcDbEntity
  8
RACCORDO
100
AcDbLine
 62
253
  6
CONTINUOUS
 10
-10.9901560118
 20
21.2748860173
 11
-10.9911333959
 21
21.3174778606
  0
LINE
  5
353
100
AcDbEntity
  8
ASSI
100
AcDbLine
 62
253
  6
CONTINUOUS
 10
-10.4922359232
 20
21.7836238905
 11
-10.4938586023
 21
21.8583688257
  0
LINE
  5
354
100
AcDbEntity
  8
RACCORDO
100
AcDbLine
 62
253
  6
CONTINUOUS
 10
-10.4922359719
 20
21.7836259984
 11
-10.4938586534
 21
21.8583705666
  0
LINE
  5
355
100
AcDbEntity
  8
ASSI
100
AcDbLine
 62
253
  6
CONTINUOUS
 10
-10.4902320363
 20
21.6619296354
 11
-10.4922359232
 21
21.7836238905
  0
LINE
  5
356
100
AcDbEntity
  8
RACCORDO
100
AcDbLine
 62
253
  6
CONTINUOUS
 10
-10.4902320813
 20
21.6619321932
 11
-10.4922359719
 21
21.7836259984
  0
LINE
  5
357
100
AcDbEntity
  8
ASSI
100
AcDbLine
 62
253
  6
CONTINUOUS
 10
-10.4880381945
 20
21.4778686834
 11
-10.4902320363
 21
21.6619296354
  0
LINE
  5
358
100
AcDbEntity
  8
RACCORDO
100
AcDbLine
 62
253
  6
CONTINUOUS
 10
-10.4880382322
 20
21.4778717513
 11
-10.4902320813
 21
21.6619321932
  0
LINE
  5
359
100
AcDbEntity
  8
ASSI
100
AcDbLine
 62
253
  6
CONTINUOUS
 10
-10.485950261
 20
21.2177754592
 11
-10.4880381945
 21
21.4778686834
  0
LINE
  5
35A
100
AcDbEntity
  8
RACCORDO
100
AcDbLine
 62
253
  6
CONTINUOUS
 10
-10.4859502874
 20
21.2177790444
 11
-10.4880382322
 21
21.4778717513
  0
LINE
  5
35B
100
AcDbEntity
  8
ASSI
100
AcDbLine
 62
253
  6
CONTINUOUS
 10
-10.4843791367
 20
20.8750208717
 11
-10.485950261
 21
21.2177754592
  0
LINE
  5
35C
100
AcDbEntity
  8
RACCORDO
100
AcDbLine
 62
253
  6
CONTINUOUS
 10
-10.4843791481
 20
20.87502482
 11
-10.4859502874
 21
21.2177790444
  0
LINE
  5
35D
100
AcDbEntity
  8
RACCORDO
100
AcDbLine
 62
253
  6
CONTINUOUS
 10
-10.4838419059
 20
20.5624565034
 11
-10.4843791481
 21
20.87502482
  0
LINE
  5
35E
100
AcDbEntity
  8
ASSI
100
AcDbLine
 62
253
  6
CONTINUOUS
 10
-10.4838419038
 20
20.5624546347
 11
-10.4843791367
 21
20.8750208717
  0
LINE
  5
35F
100
AcDbEntity
  8
RACCORDO
100
AcDbLine
 62
253
  6
CONTINUOUS
 10
-10.4812998343
 20
16.6474232311
 11
-10.4838419115
 21
20.5624565034
  0
LINE
  5
360
100
AcDbEntity
  8
ASSI
100
AcDbLine
 62
253
  6
CONTINUOUS
 10
-10.4812998341
 20
16.6474228154
 11
-10.4838419103
 21
20.5624546347
  0
LINE
  5
361
100
AcDbEntity
  8
RACCORDO
100
AcDbLine
 62
253
  6
CONTINUOUS
 10
-10.4784899223
 20
10.7730215685
 11
-10.4812998343
 21
16.6474232311
  0
LINE
  5
362
100
AcDbEntity
  8
ASSI
100
AcDbLine
 62
253
  6
CONTINUOUS
 10
-10.4784899224
 20
10.7730216373
 11
-10.4812998341
 21
16.6474228154
  0
LINE
  5
363
100
AcDbEntity
  8
RACCORDO
100
AcDbLine
 62
253
  6
CONTINUOUS
 10
-10.4772855782
 20
6.855874551
 11
-10.4784899223
 21
10.7730215685
  0
LINE
  5
364
100
AcDbEntity
  8
ASSI
100
AcDbLine
 62
253
  6
CONTINUOUS
 10
-10.4772855782
 20
6.8558745504
 11
-10.4784899224
 21
10.7730216373
  0
LINE
  5
365
100
AcDbEntity
  8
RACCORDO
100
AcDbLine
 62
253
  6
CONTINUOUS
 10
-10.4764826454
 20
0.9794407091
 11
-10.4772855782
 21
6.855874551
  0
LINE
  5
366
100
AcDbEntity
  8
ASSI
100
AcDbLine
 62
253
  6
CONTINUOUS
 10
-10.4764826454
 20
0.9794407085
 11
-10.4772855782
 21
6.8558745504
  0
LINE
  5
367
100
AcDbEntity
  8
RACCORDO
100
AcDbLine
 62
253
  6
CONTINUOUS
 10
-10.3927234819
 20
-23.1226497308
 11
-10.3927234819
 21
-22.3213883311
  0
LINE
  5
368
100
AcDbEntity
  8
RACCORDO
100
AcDbLine
 62
253
  6
CONTINUOUS
 10
-10.3927234819
 20
22.3213883311
 11
-10.3927234819
 21
23.1226497308
  0
LINE
  5
369
100
AcDbEntity
  8
RACCORDO
100
AcDbLine
 62
253
  6
CONTINUOUS
 10
-10.3869056521
 20
-23.6278312164
 11
-10.3869056521
 21
-24.4869014213
  0
LINE
  5
36A
100
AcDbEntity
  8
RACCORDO
100
AcDbLine
 62
253
  6
CONTINUOUS
 10
-10.3869056521
 20
23.6278312164
 11
-10.3869056521
 21
24.4869014213
  0
LINE
  5
36B
100
AcDbEntity
  8
RACCORDO
100
AcDbLine
 62
253
  6
CONTINUOUS
 10
-10.4766164654
 20
-2.9383071007
 11
-10.4764826454
 21
0.9794407091
  0
LINE
  5
36C
100
AcDbEntity
  8
ASSI
100
AcDbLine
 62
253
  6
CONTINUOUS
 10
-10.4766164654
 20
-2.9383071012
 11
-10.4764826454
 21
0.9794407085
  0
LWPOLYLINE
  5
36D
100
AcDbEntity
  8
RACCORDO
100
AcDbPolyline
 62
253
  6
CONTINUOUS
 90
3
 70
0
 10
-10.4778208462
 20
-8.8145154809
 10
-10.4772855782
 20
-6.8558745504
 10
-10.4766164654
 20
-2.9383071007
  0
LWPOLYLINE
  5
36E
100
AcDbEntity
  8
ASSI
100
AcDbPolyline
 62
253
  6
CONTINUOUS
 90
3
 70
0
 10
-10.4778208462
 20
-8.8145154814
 10
-10.4772855782
 20
-6.855874551
 10
-10.4766164654
 20
-2.9383071012
  0
LWPOLYLINE
  5
36F
100
AcDbEntity
  8
RACCORDO
100
AcDbPolyline
 62
253
  6
CONTINUOUS
 90
3
 70
0
 10
-10.4802294415
 20
-14.6895063658
 10
-10.4792928001
 20
-12.7313624541
 10
-10.4778208462
 20
-8.8145154809
  0
LWPOLYLINE
  5
370
100
AcDbEntity
  8
ASSI
100
AcDbPolyline
 62
253
  6
CONTINUOUS
 90
3
 70
0
 10
-10.4802294415
 20
-14.6895063663
 10
-10.4792928
 20
-12.7313623161
 10
-10.4778208462
 20
-8.8145154814
  0
LINE
  5
371
100
AcDbEntity
  8
RACCORDO
100
AcDbLine
 62
253
  6
CONTINUOUS
 10
-10.4825039903
 20
-18.6050822541
 11
-10.4802294415
 21
-14.6895063658
  0
LINE
  5
372
100
AcDbEntity
  8
ASSI
100
AcDbLine
 62
253
  6
CONTINUOUS
 10
-10.482503991
 20
-18.6050832926
 11
-10.4802294415
 21
-14.6895063663
  0
LINE
  5
373
100
AcDbEntity
  8
RACCORDO
100
AcDbLine
 62
253
  6
CONTINUOUS
 10
-10.4847271686
 20
-20.9761952249
 11
-10.4825039903
 21
-18.6050822541
  0
LINE
  5
374
100
AcDbEntity
  8
ASSI
100
AcDbLine
 62
253
  6
CONTINUOUS
 10
-10.484727185
 20
-20.9761990768
 11
-10.482503991
 21
-18.6050832926
  0
LINE
  5
375
100
AcDbEntity
  8
RACCORDO
100
AcDbLine
 62
253
  6
CONTINUOUS
 10
-10.486574728
 20
-21.3086116827
 11
-10.4847271686
 21
-20.9761952249
  0
LINE
  5
376
100
AcDbEntity
  8
ASSI
100
AcDbLine
 62
253
  6
CONTINUOUS
 10
-10.4865747583
 20
-21.3086150935
 11
-10.484727185
 21
-20.9761990768
  0
LINE
  5
377
100
AcDbEntity
  8
RACCORDO
100
AcDbLine
 62
253
  6
CONTINUOUS
 10
-10.4888703043
 20
-21.5554509658
 11
-10.486574728
 21
-21.3086116827
  0
LINE
  5
378
100
AcDbEntity
  8
ASSI
100
AcDbLine
 62
253
  6
CONTINUOUS
 10
-10.4888703455
 20
-21.5554538492
 11
-10.4865747583
 21
-21.3086150935
  0
LINE
  5
379
100
AcDbEntity
  8
RACCORDO
100
AcDbLine
 62
253
  6
CONTINUOUS
 10
-10.4912093907
 20
-21.7258069625
 11
-10.4888703043
 21
-21.5554509658
  0
LINE
  5
37A
100
AcDbEntity
  8
ASSI
100
AcDbLine
 62
253
  6
CONTINUOUS
 10
-10.4912094377
 20
-21.7258092962
 11
-10.4888703455
 21
-21.5554538492
  0
LINE
  5
37B
100
AcDbEntity
  8
RACCORDO
100
AcDbLine
 62
253
  6
CONTINUOUS
 10
-10.4927669476
 20
-21.8101690522
 11
-10.4912093907
 21
-21.7258069625
  0
LINE
  5
37C
100
AcDbEntity
  8
ASSI
100
AcDbLine
 62
253
  6
CONTINUOUS
 10
-10.4927669971
 20
-21.8101710462
 11
-10.4912094377
 21
-21.7258092962
  0
LINE
  5
37D
100
AcDbEntity
  8
RACCORDO
100
AcDbLine
 62
253
  6
CONTINUOUS
 10
-10.9916406055
 20
-21.3372561186
 11
-10.9901558747
 21
-21.2748796015
  0
LINE
  5
37E
100
AcDbEntity
  8
ASSI
100
AcDbLine
 62
253
  6
CONTINUOUS
 10
-10.9916407427
 20
-21.3372612547
 11
-10.9901560118
 21
-21.2748860175
  0
LINE
  5
37F
100
AcDbEntity
  8
RACCORDO
100
AcDbLine
 62
253
  6
CONTINUOUS
 10
-10.4944192327
 20
-21.8799637957
 11
-10.4927669476
 21
-21.8101690522
  0
LINE
  5
380
100
AcDbEntity
  8
ASSI
100
AcDbLine
 62
253
  6
CONTINUOUS
 10
-10.4944192844
 20
-21.8799653998
 11
-10.4927669971
 21
-21.8101710462
  0
LINE
  5
381
100
AcDbEntity
  8
RACCORDO
100
AcDbLine
 62
253
  6
CONTINUOUS
 10
-10.9926908574
 20
-21.3737136527
 11
-10.9916406055
 21
-21.3372561186
  0
LINE
  5
382
100
AcDbEntity
  8
ASSI
100
AcDbLine
 62
253
  6
CONTINUOUS
 10
-10.9926909934
 20
-21.3737179832
 11
-10.9916407427
 21
-21.3372612547
  0
LWPOLYLINE
  5
383
100
AcDbEntity
  8
RACCORDO
100
AcDbPolyline
 62
253
  6
CONTINUOUS
 90
31
 70
0
 10
-10.6369014213
 20
-23.8443375673
 10
-10.6365228657
 20
-23.833039595
 10
-10.6354637381
 20
-23.821769291
 10
-10.6337263616
 20
-23.8105574212
 10
-10.6313146602
 20
-23.7994336121
 10
-10.6282347899
 20
-23.78842936
 10
-10.6244957389
 20
-23.7775778202
 10
-10.6201081945
 20
-23.7669096972
 10
-10.6150837955
 20
-23.7564530239
 10
-10.6094361149
 20
-23.746236105
 10
-10.6031804223
 20
-23.7362866999
 10
-10.5963338477
 20
-23.7266321754
 10
-10.5889152395
 20
-23.7172991519
 10
-10.5809449354
 20
-23.7083132018
 10
-10.5724446406
 20
-23.6996987826
 10
-10.5634375501
 20
-23.6914794042
 10
-10.5539482465
 20
-23.6836775075
 10
-10.5440026594
 20
-23.6763144193
 10
-10.5336279765
 20
-23.6694102704
 10
-10.5228525441
 20
-23.6629839239
 10
-10.5117057861
 20
-23.6570529269
 10
-10.500218149
 20
-23.6516334796
 10
-10.4884209923
 20
-23.6467403776
 10
-10.4763465559
 20
-23.6423869945
 10
-10.4640278763
 20
-23.6385852371
 10
-10.4514986409
 20
-23.6353454907
 10
-10.4387930381
 20
-23.6326765842
 10
-10.4259457173
 20
-23.6305857918
 10
-10.41299175
 20
-23.6290788219
 10
-10.3999665362
 20
-23.6281597935
 10
-10.3869056521
 20
-23.6278312164
  0
LWPOLYLINE
  5
384
100
AcDbEntity
  8
RACCORDO
100
AcDbPolyline
 62
253
  6
CONTINUOUS
 90
31
 70
0
 10
-8.2630985787
 20
23.8443375673
 10
-8.2634779104
 20
23.8330274168
 10
-8.2645388924
 20
23.8217481519
 10
-8.2662786273
 20
23.810530574
 10
-8.2686923642
 20
23.7994053159
 10
-8.2717735118
 20
23.7884027584
 10
-8.275513656
 20
23.7775529472
 10
-8.2799025834
 20
23.7668855107
 10
-8.2849283087
 20
23.7564295797
 10
-8.2905771077
 20
23.7462137069
 10
-8.2968335547
 20
23.7362657898
 10
-8.3036805646
 20
23.7266129942
 10
-8.3110994397
 20
23.7172816797
 10
-8.3190699206
 20
23.7082973282
 10
-8.3275702417
 20
23.6996844742
 10
-8.3365771902
 20
23.6914666374
 10
-8.3460661701
 20
23.6836662592
 10
-8.356011269
 20
23.6763046407
 10
-8.3663853289
 20
23.6694018849
 10
-8.3771600204
 20
23.6629768418
 10
-8.3883059201
 20
23.6570470569
 10
-8.3997925909
 20
23.6516287232
 10
-8.4115886651
 20
23.646736637
 10
-8.42366193
 20
23.6423841576
 10
-8.4359794162
 20
23.6385831707
 10
-8.448507487
 20
23.6353440559
 10
-8.4612119311
 20
23.6326756587
 10
-8.4740580552
 20
23.6305852658
 10
-8.4870107793
 20
23.6290785857
 10
-8.5000347321
 20
23.6281597328
 10
-8.5130943479
 20
23.6278312164
  0
LINE
  5
385
100
AcDbEntity
  8
RACCORDO
100
AcDbLine
 62
253
  6
CONTINUOUS
 10
-10.993782544
 20
-21.4058340211
 11
-10.9926908574
 21
-21.3737136527
  0
LINE
  5
386
100
AcDbEntity
  8
ASSI
100
AcDbLine
 62
253
  6
CONTINUOUS
 10
-10.9937826773
 20
-21.4058375881
 11
-10.9926909934
 21
-21.3737179832
  0
LWPOLYLINE
  5
387
100
AcDbEntity
  8
RACCORDO
100
AcDbPolyline
 62
7
  6
CONTINUOUS
 90
34
 70
0
 10
-10.6427192511
 20
-23.2669872981
 10
-10.6424198287
 20
-23.2606934229
 10
-10.6416441239
 20
-23.2544088409
 10
-10.6403873851
 20
-23.2481335519
 10
-10.6386460224
 20
-23.2418552807
 10
-10.6364170759
 20
-23.2355863026
 10
-10.633697709
 20
-23.2293634437
 10
-10.6304867318
 20
-23.2231861587
 10
-10.6267838816
 20
-23.2170549928
 10
-10.6225882567
 20
-23.2110084085
 10
-10.6179014786
 20
-23.205045942
 10
-10.6127261214
 20
-23.199168057
 10
-10.6070632404
 20
-23.1934146064
 10
-10.6009174965
 20
-23.1877851844
 10
-10.5942945874
 20
-23.1822801967
 10
-10.5871976951
 20
-23.1769407141
 10
-10.5796347916
 20
-23.1717664006
 10
-10.5716150594
 20
-23.1667575922
 10
-10.5631442164
 20
-23.1619563668
 10
-10.554233882
 20
-23.1573625195
 10
-10.544897167
 20
-23.1529762552
 10
-10.5351430254
 20
-23.1488402671
 10
-10.5249871321
 20
-23.1449546011
 10
-10.5144470274
 20
-23.1413192112
 10
-10.5035358548
 20
-23.1379766523
 10
-10.4922738698
 20
-23.1349274029
 10
-10.4806834708
 20
-23.1321709844
 10
-10.4687828486
 20
-23.1297485157
 10
-10.456584335
 20
-23.1276610792
 10
-10.4441281847
 20
-23.1259075925
 10
-10.4314781276
 20
-23.1245259271
 10
-10.4186775292
 20
-23.123528707
 10
-10.405747957
 20
-23.1229033082
 10
-10.3927234819
 20
-23.1226497308
  0
LWPOLYLINE
  5
388
100
AcDbEntity
  8
RACCORDO
100
AcDbPolyline
 62
7
  6
CONTINUOUS
 90
34
 70
0
 10
-8.2572807489
 20
23.2669872981
 10
-8.2575784753
 20
23.260745719
 10
-8.2583497267
 20
23.254472608
 10
-8.2596000894
 20
23.2481861919
 10
-8.2613341367
 20
23.2419121598
 10
-8.2635555794
 20
23.2356626215
 10
-8.2662675994
 20
23.2294361375
 10
-8.2694720963
 20
23.2232532001
 10
-8.2731700208
 20
23.2171335699
 10
-8.2773622718
 20
23.2110754134
 10
-8.282047756
 20
23.2051002367
 10
-8.2872243979
 20
23.199228829
 10
-8.2928907687
 20
23.1934590071
 10
-8.2990425526
 20
23.1878130261
 10
-8.305674335
 20
23.182312533
 10
-8.3127821378
 20
23.1769551973
 10
-8.3203581333
 20
23.171763745
 10
-8.3283932153
 20
23.1667604362
 10
-8.3368804409
 20
23.1619430222
 10
-8.3458081504
 20
23.1573343288
 10
-8.3551631291
 20
23.1529569199
 10
-8.3649348037
 20
23.148808872
 10
-8.3751073149
 20
23.1449126131
 10
-8.385662902
 20
23.1412905703
 10
-8.3965865028
 20
23.137941334
 10
-8.4078575603
 20
23.1348863009
 10
-8.4194534848
 20
23.1321470947
 10
-8.4313541826
 20
23.1297228132
 10
-8.4435210103
 20
23.1276360125
 10
-8.4559390652
 20
23.1259025536
 10
-8.4686230593
 20
23.1245164325
 10
-8.4815577699
 20
23.1234933505
 10
-8.4946962714
 20
23.1228641607
 10
-8.5080037468
 20
23.1226497308
  0
LWPOLYLINE
  5
389
100
AcDbEntity
  8
0
100
AcDbPolyline
 62
7
  6
CONTINUOUS
 90
3
 70
0
 43
0.3500000006
 10
1.1428571477
 20
33.5357164307
 10
1.0714285848
 20
33.3214274139
 10
0.9285714591
 20
33.0357162781
  0
LINE
  5
38A
100
AcDbEntity
  8
RACCORDO
100
AcDbLine
 62
253
  6
CONTINUOUS
 10
10.4000042308
 20
24.5
 11
10.3869056521
 21
24.4869014213
  0
LINE
  5
38B
100
AcDbEntity
  8
RACCORDO
100
AcDbLine
 62
253
  6
CONTINUOUS
 10
10.65
 20
24.2500042308
 11
10.6369014213
 21
24.2369056521
  0
LINE
  5
38C
100
AcDbEntity
  8
0
100
AcDbLine
 62
7
  6
CONTINUOUS
 10
-11.1150898701
 20
-9.0
 11
-11.09
 21
-9.0
  0
LINE
  5
38D
100
AcDbEntity
  8
0
100
AcDbLine
 62
7
  6
CONTINUOUS
 10
11.09
 20
-9.0
 11
11.1150898701
 21
-9.0
  0
LINE
  5
38E
100
AcDbEntity
  8
RACCORDO
100
AcDbLine
 62
253
  6
CONTINUOUS
 10
10.4000042308
 20
-24.5
 11
10.3869056521
 21
-24.4869014213
  0
LINE
  5
38F
100
AcDbEntity
  8
RACCORDO
100
AcDbLine
 62
253
  6
CONTINUOUS
 10
10.65
 20
-24.2500042308
 11
10.6369014213
 21
-24.2369056521
  0
LINE
  5
390
100
AcDbEntity
  8
CURVE
100
AcDbLine
 62
253
  6
CONTINUOUS
 10
-2.333507914
 20
-15.8753823139
 11
-2.3396815174
 21
-15.8652231071
  0
LINE
  5
391
100
AcDbEntity
  8
CURVE
100
AcDbLine
 62
253
  6
CONTINUOUS
 10
-2.3278314417
 20
-15.8858074997
 11
-2.333507914
 21
-15.8753823139
  0
LINE
  5
392
100
AcDbEntity
  8
CURVE
100
AcDbLine
 62
253
  6
CONTINUOUS
 10
-2.7726761711
 20
-16.1141638593
 11
-2.7670124501
 21
-16.124577952
  0
LINE
  5
393
100
AcDbEntity
  8
CURVE
100
AcDbLine
 62
253
  6
CONTINUOUS
 10
-2.3226637808
 20
-15.8964748934
 11
-2.3278314417
 21
-15.8858074997
  0
LINE
  5
394
100
AcDbEntity
  8
CURVE
100
AcDbLine
 62
253
  6
CONTINUOUS
 10
-2.7778329849
 20
-16.1035035956
 11
-2.7726761711
 21
-16.1141638593
  0
LINE
  5
395
100
AcDbEntity
  8
CURVE
100
AcDbLine
 62
253
  6
CONTINUOUS
 10
-4.3518512681
 20
-15.1126172098
 11
-4.3607851626
 21
-15.0928502306
  0
LINE
  5
396
100
AcDbEntity
  8
CURVE
100
AcDbLine
 62
253
  6
CONTINUOUS
 10
-2.7824728491
 20
-16.0926197196
 11
-2.7778329849
 21
-16.1035035956
  0
LWPOLYLINE
  5
397
100
AcDbEntity
  8
RACCORDO
100
AcDbPolyline
 62
253
  6
CONTINUOUS
 90
31
 70
0
 10
-8.2630985787
 20
24.2369056521
 10
-8.2634417677
 20
24.2499920062
 10
-8.2644695107
 20
24.2630425045
 10
-8.2661789939
 20
24.2760213619
 10
-8.2685655366
 20
24.2888930016
 10
-8.2716225977
 20
24.3016221155
 10
-8.2753417872
 20
24.314173763
 10
-8.2797129023
 20
24.3265135191
 10
-8.2847239578
 20
24.3386075563
 10
-8.2903612061
 20
24.3504227019
 10
-8.2966091852
 20
24.3619265577
 10
-8.303450761
 20
24.3730875837
 10
-8.3108671679
 20
24.383875174
 10
-8.3188380761
 20
24.3942597633
 10
-8.3273416176
 20
24.4042128667
 10
-8.3363544367
 20
24.4137071599
 10
-8.3458517711
 20
24.4227165817
 10
-8.3558076083
 20
24.4312164786
 10
-8.3661947342
 20
24.4391836209
 10
-8.3769848134
 20
24.4465962509
 10
-8.3881481318
 20
24.4534339327
 10
-8.3996537322
 20
24.4596777344
 10
-8.4114698104
 20
24.465310483
 10
-8.4235641666
 20
24.4703169129
 10
-8.4359039705
 20
24.474683464
 10
-8.4484581551
 20
24.4783989037
 10
-8.4611896202
 20
24.4814520171
 10
-8.474055339
 20
24.4838331472
 10
-8.4870171136
 20
24.4855367515
 10
-8.500042008
 20
24.4865600141
 10
-8.5130943479
 20
24.4869014213
  0
LWPOLYLINE
  5
398
100
AcDbEntity
  8
RACCORDO
100
AcDbPolyline
 62
7
  6
CONTINUOUS
 90
34
 70
0
 10
-8.25
 20
24.2500042308
 10
-8.2502831502
 20
24.261899516
 10
-8.2511319658
 20
24.2737678556
 10
-8.2525445259
 20
24.2855823661
 10
-8.2545176323
 20
24.2973162875
 10
-8.2570468183
 20
24.3089430388
 10
-8.2601263583
 20
24.320436279
 10
-8.2637492787
 20
24.3317699738
 10
-8.2679073742
 20
24.3429184493
 10
-8.2725912278
 20
24.3538564463
 10
-8.2777902312
 20
24.3645591876
 10
-8.2834926084
 20
24.3750024283
 10
-8.2896854419
 20
24.3851625059
 10
-8.2963547045
 20
24.3950164051
 10
-8.3034852893
 20
24.4045418038
 10
-8.3110610411
 20
24.4137171191
 10
-8.3190647995
 20
24.4225215661
 10
-8.3274784339
 20
24.4309352005
 10
-8.3362828809
 20
24.4389389589
 10
-8.3454581962
 20
24.4465147107
 10
-8.3549835949
 20
24.4536452955
 10
-8.3648374941
 20
24.4603145581
 10
-8.3749975717
 20
24.4665073916
 10
-8.3854408124
 20
24.4722097688
 10
-8.3961435537
 20
24.4774087722
 10
-8.4070815507
 20
24.4820926258
 10
-8.4182300262
 20
24.4862507213
 10
-8.429563721
 20
24.4898736417
 10
-8.4410569612
 20
24.4929531817
 10
-8.4526837125
 20
24.4954823677
 10
-8.4644176339
 20
24.4974554741
 10
-8.4762321444
 20
24.4988680342
 10
-8.488100484
 20
24.4997168498
 10
-8.4999957692
 20
24.5
  0
LINE
  5
399
100
AcDbEntity
  8
RACCORDO
100
AcDbLine
 62
253
  6
CONTINUOUS
 10
-8.5130943479
 20
23.6278312164
 11
-8.5080037468
 21
23.1226497308
  0
LINE
  5
39A
100
AcDbEntity
  8
RACCORDO
100
AcDbLine
 62
253
  6
CONTINUOUS
 10
-8.2630985787
 20
23.8443375673
 11
-8.2572807489
 21
23.2669872981
  0
LINE
  5
39B
100
AcDbEntity
  8
RACCORDO
100
AcDbLine
 62
253
  6
CONTINUOUS
 10
-8.5130943479
 20
-23.6278312164
 11
-8.5130943479
 21
-24.4869014213
  0
LINE
  5
39C
100
AcDbEntity
  8
RACCORDO
100
AcDbLine
 62
253
  6
CONTINUOUS
 10
-8.5130943479
 20
23.6278312164
 11
-8.5130943479
 21
24.4869014213
  0
LINE
  5
39D
100
AcDbEntity
  8
RACCORDO
100
AcDbLine
 62
253
  6
CONTINUOUS
 10
-8.5072765181
 20
23.1226497308
 11
-8.5072765181
 21
22.3213883311
  0
LINE
  5
39E
100
AcDbEntity
  8
RACCORDO
100
AcDbLine
 62
253
  6
CONTINUOUS
 10
-8.5072765181
 20
-22.3213883311
 11
-8.5072765181
 21
-23.1226497308
  0
LINE
  5
39F
100
AcDbEntity
  8
RACCORDO
100
AcDbLine
 62
253
  6
CONTINUOUS
 10
-8.2630985787
 20
-24.2369056521
 11
-8.2630985787
 21
-23.8443375673
  0
LINE
  5
3A0
100
AcDbEntity
  8
RACCORDO
100
AcDbLine
 62
253
  6
CONTINUOUS
 10
-8.2630985787
 20
23.8443375673
 11
-8.2630985787
 21
24.2369056521
  0
LINE
  5
3A1
100
AcDbEntity
  8
RACCORDO
100
AcDbLine
 62
253
  6
CONTINUOUS
 10
-8.2572807489
 20
23.2669872981
 11
-8.2572807489
 21
22.3344140523
  0
LINE
  5
3A2
100
AcDbEntity
  8
RACCORDO
100
AcDbLine
 62
253
  6
CONTINUOUS
 10
-8.2572807489
 20
-22.3344140523
 11
-8.2572807489
 21
-23.2669872981
  0
LINE
  5
3A3
100
AcDbEntity
  8
RACCORDO
100
AcDbLine
 62
7
  6
CONTINUOUS
 10
-8.25
 20
-22.4
 11
-8.25
 21
-24.2500042308
  0
LINE
  5
3A4
100
AcDbEntity
  8
RACCORDO
100
AcDbLine
 62
7
  6
CONTINUOUS
 10
-8.25
 20
22.4
 11
-8.25
 21
24.2500042308
  0
LINE
  5
3A5
100
AcDbEntity
  8
0
100
AcDbLine
 62
7
  6
CONTINUOUS
 10
-7.5
 20
22.2689805518
 11
-7.5
 21
22.2637397739
  0
LINE
  5
3A6
100
AcDbEntity
  8
0
100
AcDbLine
 62
7
  6
CONTINUOUS
 10
-7.5
 20
-22.2637397739
 11
-7.5
 21
-22.2689805518
  0
LINE
  5
3A7
100
AcDbEntity
  8
RACCORDO
100
AcDbLine
 62
253
  6
CONTINUOUS
 10
-8.5080037468
 20
-23.1226497308
 11
-8.5130943479
 21
-23.6278312164
  0
LINE
  5
3A8
100
AcDbEntity
  8
RACCORDO
100
AcDbLine
 62
253
  6
CONTINUOUS
 10
-8.2572807489
 20
-23.2669872981
 11
-8.2630985787
 21
-23.8443375673
  0
LINE
  5
3A9
100
AcDbEntity
  8
RACCORDO
100
AcDbLine
 62
7
  6
CONTINUOUS
 10
-10.65
 20
-22.4
 11
-10.6427192511
 21
-22.3344140523
  0
LINE
  5
3AA
100
AcDbEntity
  8
CURVE
100
AcDbLine
 62
253
  6
CONTINUOUS
 10
-2.3180149949
 20
-15.9073613573
 11
-2.3226637808
 21
-15.8964748934
  0
LINE
  5
3AB
100
AcDbEntity
  8
CURVE
100
AcDbLine
 62
253
  6
CONTINUOUS
 10
-2.3138936446
 20
-15.9184445857
 11
-2.3180149949
 21
-15.9073613573
  0
LINE
  5
3AC
100
AcDbEntity
  8
CURVE
100
AcDbLine
 62
253
  6
CONTINUOUS
 10
-2.7865871461
 20
-16.0815340184
 11
-2.7824728491
 21
-16.0926197196
  0
LINE
  5
3AD
100
AcDbEntity
  8
CURVE
100
AcDbLine
 62
253
  6
CONTINUOUS
 10
-2.3103069327
 20
-15.9297032666
 11
-2.3138936446
 21
-15.9184445857
  0
LINE
  5
3AE
100
AcDbEntity
  8
CURVE
100
AcDbLine
 62
253
  6
CONTINUOUS
 10
-2.7901685469
 20
-16.0702673515
 11
-2.7865871461
 21
-16.0815340184
  0
LINE
  5
3AF
100
AcDbEntity
  8
CURVE
100
AcDbLine
 62
253
  6
CONTINUOUS
 10
-4.345143869
 20
-15.1350957556
 11
-4.3518512681
 21
-15.1126172098
  0
LINE
  5
3B0
100
AcDbEntity
  8
RACCORDO
100
AcDbLine
 62
7
  6
CONTINUOUS
 10
-10.65
 20
22.4
 11
-10.6427192511
 21
22.3344140523
  0
LINE
  5
3B1
100
AcDbEntity
  8
0
100
AcDbLine
 62
7
  6
CONTINUOUS
 10
-6.9
 20
22.2689805518
 11
-6.9
 21
22.2322951063
  0
LINE
  5
3B2
100
AcDbEntity
  8
0
100
AcDbLine
 62
7
  6
CONTINUOUS
 10
-6.9
 20
-22.2322951063
 11
-6.9
 21
-22.2689805518
  0
LINE
  5
3B3
100
AcDbEntity
  8
CURVE
100
AcDbLine
 62
253
  6
CONTINUOUS
 10
-7.6648194524
 20
-16.9197720466
 11
-7.6658727961
 21
-16.9393075723
  0
LWPOLYLINE
  5
3B4
100
AcDbEntity
  8
RACCORDO
100
AcDbPolyline
 62
253
  6
CONTINUOUS
 90
10
 70
0
 10
-10.5003688255
 20
-21.9987258379
 10
-10.4997551314
 20
-21.9950389743
 10
-10.4991448309
 20
-21.9895035429
 10
-10.4985379242
 20
-21.9821263567
 10
-10.4979336741
 20
-21.9729165231
 10
-10.4973328178
 20
-21.9618853916
 10
-10.4967375662
 20
-21.9490465116
 10
-10.4961479286
 20
-21.9344155916
 10
-10.4955638958
 20
-21.9180107646
 10
-10.4944192327
 20
-21.8799637957
  0
LWPOLYLINE
  5
3B5
100
AcDbEntity
  8
ASSI
100
AcDbPolyline
 62
253
  6
CONTINUOUS
 90
10
 70
0
 10
-10.5003688471
 20
-21.9987259352
 10
-10.4997551687
 20
-21.9950392263
 10
-10.4991448797
 20
-21.9895039889
 10
-10.49853798
 20
-21.9821270084
 10
-10.4979337311
 20
-21.9729173476
 10
-10.4973328714
 20
-21.9618863393
 10
-10.4967376173
 20
-21.9490475753
 10
-10.4961479797
 20
-21.9344167904
 10
-10.4955639476
 20
-21.9180120982
 10
-10.4944192844
 20
-21.8799653998
  0
LWPOLYLINE
  5
3B6
100
AcDbEntity
  8
RACCORDO
100
AcDbPolyline
 62
253
  6
CONTINUOUS
 90
11
 70
0
 10
-11.000292537
 20
-21.4994104546
 10
-10.9996790127
 20
-21.4969434688
 10
-10.9990688332
 20
-21.493255514
 10
-10.9984619985
 20
-21.4883465902
 10
-10.9978577531
 20
-21.4822075998
 10
-10.9972568525
 20
-21.4748476404
 10
-10.9966615629
 20
-21.4662940047
 10
-10.996071915
 20
-21.4565422297
 10
-10.9954878781
 20
-21.4455967785
 10
-10.9949116261
 20
-21.4334983323
 10
-10.993782544
 20
-21.4058340211
  0
LWPOLYLINE
  5
3B7
100
AcDbEntity
  8
ASSI
100
AcDbPolyline
 62
253
  6
CONTINUOUS
 90
11
 70
0
 10
-11.000292537
 20
-21.4994104546
 10
-10.9996790625
 20
-21.496943848
 10
-10.999068921
 20
-21.4932562435
 10
-10.9984621125
 20
-21.4883476409
 10
-10.9978578778
 20
-21.482208925
 10
-10.9972569761
 20
-21.4748492111
 10
-10.9966616853
 20
-21.4662958449
 10
-10.9960720398
 20
-21.4565443858
 10
-10.9954880052
 20
-21.4455992743
 10
-10.9949117553
 20
-21.4335011782
 10
-10.9937826773
 20
-21.4058375881
  0
LINE
  5
3B8
100
AcDbEntity
  8
CURVE
100
AcDbLine
 62
253
  6
CONTINUOUS
 10
-2.3072608745
 20
-15.9411172067
 11
-2.3103069327
 21
-15.9297032666
  0
LINE
  5
3B9
100
AcDbEntity
  8
CURVE
100
AcDbLine
 62
253
  6
CONTINUOUS
 10
-2.7932108521
 20
-16.0588395306
 11
-2.7901685469
 21
-16.0702673515
  0
LINE
  5
3BA
100
AcDbEntity
  8
CURVE
100
AcDbLine
 62
253
  6
CONTINUOUS
 10
-2.3047604836
 20
-15.9526674176
 11
-2.3072608745
 21
-15.9411172067
  0
LINE
  5
3BB
100
AcDbEntity
  8
CURVE
100
AcDbLine
 62
253
  6
CONTINUOUS
 10
-2.795708817
 20
-16.0472692346
 11
-2.7932108521
 21
-16.0588395306
  0
LINE
  5
3BC
100
AcDbEntity
  8
CURVE
100
AcDbLine
 62
253
  6
CONTINUOUS
 10
-4.3409168866
 20
-15.1603039554
 11
-4.345143869
 21
-15.1350957556
  0
LINE
  5
3BD
100
AcDbEntity
  8
CURVE
100
AcDbLine
 62
253
  6
CONTINUOUS
 10
-2.7976579673
 20
-16.0355739586
 11
-2.795708817
 21
-16.0472692346
  0
LINE
  5
3BE
100
AcDbEntity
  8
CURVE
100
AcDbLine
 62
253
  6
CONTINUOUS
 10
-2.3005725425
 20
-15.9879646859
 11
-2.3014129257
 21
-15.9761069907
  0
LINE
  5
3BF
100
AcDbEntity
  8
CURVE
100
AcDbLine
 62
253
  6
CONTINUOUS
 10
-2.7998946641
 20
-16.0118724484
 11
-2.7990544127
 21
-16.0237699959
  0
LINE
  5
3C0
100
AcDbEntity
  8
CURVE
100
AcDbLine
 62
253
  6
CONTINUOUS
 10
-4.3394451359
 20
-15.1882302306
 11
-4.3409168866
 21
-15.1603039554
  0
LINE
  5
3C1
100
AcDbEntity
  8
DRAFT
100
AcDbLine
 62
7
  6
CONTINUOUS
 10
-4.4
 20
-23.8
 11
-4.4
 21
-22.4
  0
LINE
  5
3C2
100
AcDbEntity
  8
DRAFT
100
AcDbLine
 62
7
  6
CONTINUOUS
 10
-4.4
 20
22.4
 11
-4.4
 21
23.8
  0
LINE
  5
3C3
100
AcDbEntity
  8
RACCORDO
100
AcDbLine
 62
253
  6
CONTINUOUS
 10
-4.3970741618
 20
23.7970741618
 11
-4.3970741618
 21
22.3736436632
  0
LINE
  5
3C4
100
AcDbEntity
  8
RACCORDO
100
AcDbLine
 62
253
  6
CONTINUOUS
 10
-4.3970741618
 20
-22.3736436632
 11
-4.3970741618
 21
-23.7970741618
  0
LINE
  5
3C5
100
AcDbEntity
  8
CURVE
100
AcDbLine
 62
253
  6
CONTINUOUS
 10
-4.3394451359
 20
-16.9218034224
 11
-4.3394451359
 21
-15.1882301866
  0
LINE
  5
3C6
100
AcDbEntity
  8
0
100
AcDbLine
 62
7
  6
CONTINUOUS
 10
-4.3
 20
-22.2689805518
 11
-4.3
 21
-22.2322951063
  0
LINE
  5
3C7
100
AcDbEntity
  8
0
100
AcDbLine
 62
7
  6
CONTINUOUS
 10
-4.3
 20
22.2322951063
 11
-4.3
 21
22.2689805518
  0
LINE
  5
3C8
100
AcDbEntity
  8
RACCORDO
100
AcDbLine
 62
253
  6
CONTINUOUS
 10
-3.8970826234
 20
23.5953423515
 11
-3.8970826234
 21
22.3475922207
  0
LINE
  5
3C9
100
AcDbEntity
  8
RACCORDO
100
AcDbLine
 62
253
  6
CONTINUOUS
 10
-3.8970826234
 20
-22.3475922207
 11
-3.8970826234
 21
-23.5953423515
  0
LINE
  5
3CA
100
AcDbEntity
  8
0
100
AcDbLine
 62
7
  6
CONTINUOUS
 10
-3.7
 20
-22.2689805518
 11
-3.7
 21
-22.2637397739
  0
LINE
  5
3CB
100
AcDbEntity
  8
0
100
AcDbLine
 62
7
  6
CONTINUOUS
 10
-3.7
 20
22.2637397739
 11
-3.7
 21
22.2689805518
  0
LINE
  5
3CC
100
AcDbEntity
  8
CURVE
100
AcDbLine
 62
253
  6
CONTINUOUS
 10
-7.6606451852
 20
-16.900057193
 11
-7.6648194524
 21
-16.9197720466
  0
LINE
  5
3CD
100
AcDbEntity
  8
RACCORDO
100
AcDbLine
 62
253
  6
CONTINUOUS
 10
-11.09
 20
-21.7687516997
 11
-11.000292537
 21
-21.4994104546
  0
LINE
  5
3CE
100
AcDbEntity
  8
ASSI
100
AcDbLine
 62
253
  6
CONTINUOUS
 10
-11.09
 20
-21.7687516997
 11
-11.000292537
 21
-21.4994104546
  0
LINE
  5
3CF
100
AcDbEntity
  8
RACCORDO
100
AcDbLine
 62
253
  6
CONTINUOUS
 10
-11.1325800446
 20
-21.9398948703
 11
-11.0889072728
 21
-21.8087700079
  0
LINE
  5
3D0
100
AcDbEntity
  8
RACCORDO
100
AcDbLine
 62
253
  6
CONTINUOUS
 10
-11.000292537
 20
21.4994104546
 11
-11.09
 21
21.7687516997
  0
LINE
  5
3D1
100
AcDbEntity
  8
ASSI
100
AcDbLine
 62
253
  6
CONTINUOUS
 10
-11.000292537
 20
21.4994104546
 11
-11.09
 21
21.7687516997
  0
LINE
  5
3D2
100
AcDbEntity
  8
RACCORDO
100
AcDbLine
 62
253
  6
CONTINUOUS
 10
-11.0889072728
 20
21.8087700079
 11
-11.1325800446
 21
21.9398948703
  0
LINE
  5
3D3
100
AcDbEntity
  8
CURVE
100
AcDbLine
 62
253
  6
CONTINUOUS
 10
-2.3028099676
 20
-15.9643361663
 11
-2.3047604836
 21
-15.9526674176
  0
LINE
  5
3D4
100
AcDbEntity
  8
CURVE
100
AcDbLine
 62
253
  6
CONTINUOUS
 10
-2.3014129257
 20
-15.9761069907
 11
-2.3028099676
 21
-15.9643361663
  0
LINE
  5
3D5
100
AcDbEntity
  8
CURVE
100
AcDbLine
 62
253
  6
CONTINUOUS
 10
-2.7990544127
 20
-16.0237699959
 11
-2.7976579673
 21
-16.0355739586
  0
LINE
  5
3D6
100
AcDbEntity
  8
CURVE
100
AcDbLine
 62
253
  6
CONTINUOUS
 10
-2.300291773
 20
-15.9998952624
 11
-2.3005725425
 21
-15.9879646859
  0
LINE
  5
3D7
100
AcDbEntity
  8
CURVE
100
AcDbLine
 62
253
  6
CONTINUOUS
 10
-2.8001754577
 20
-15.9998952624
 11
-2.7998946641
 21
-16.0118724484
  0
LINE
  5
3D8
100
AcDbEntity
  8
CURVE
100
AcDbLine
 62
253
  6
CONTINUOUS
 10
-2.5486833213
 20
-17.0985369374
 11
-2.5486833213
 21
-16.6985610765
  0
LINE
  5
3D9
100
AcDbEntity
  8
CURVE
100
AcDbLine
 62
253
  6
CONTINUOUS
 10
-2.5486833213
 20
-15.2946837514
 11
-2.5486833213
 21
-14.8947078991
  0
LINE
  5
3DA
100
AcDbEntity
  8
CURVE
100
AcDbLine
 62
253
  6
CONTINUOUS
 10
-2.7998946641
 20
-15.9879463947
 11
-2.8001754577
 21
-15.9998952624
  0
LINE
  5
3DB
100
AcDbEntity
  8
CURVE
100
AcDbLine
 62
253
  6
CONTINUOUS
 10
-2.3005725425
 20
-16.0118541162
 11
-2.300291773
 21
-15.9998952624
  0
LINE
  5
3DC
100
AcDbEntity
  8
CURVE
100
AcDbLine
 62
253
  6
CONTINUOUS
 10
-2.7990542685
 20
-15.9760724312
 11
-2.7998946641
 21
-15.9879463947
  0
LINE
  5
3DD
100
AcDbEntity
  8
CURVE
100
AcDbLine
 62
253
  6
CONTINUOUS
 10
-4.3409437416
 20
-16.9420157266
 11
-4.3394451359
 21
-16.9218034224
  0
LINE
  5
3DE
100
AcDbEntity
  8
RACCORDO
100
AcDbLine
 62
7
  6
CONTINUOUS
 10
-4.4
 20
-22.4
 11
-4.3970741618
 21
-22.3736436632
  0
LINE
  5
3DF
100
AcDbEntity
  8
RACCORDO
100
AcDbLine
 62
253
  6
CONTINUOUS
 10
-10.6728950868
 20
-22.4
 11
-10.6292574245
 21
-22.2689805518
  0
LINE
  5
3E0
100
AcDbEntity
  8
RACCORDO
100
AcDbLine
 62
253
  6
CONTINUOUS
 10
-10.5903805997
 20
-22.2689805518
 11
-10.5003688946
 21
-21.9987258379
  0
LINE
  5
3E1
100
AcDbEntity
  8
ASSI
100
AcDbLine
 62
253
  6
CONTINUOUS
 10
-10.5903805997
 20
-22.2689805518
 11
-10.500368927
 21
-21.9987259353
  0
LINE
  5
3E2
100
AcDbEntity
  8
RACCORDO
100
AcDbLine
 62
253
  6
CONTINUOUS
 10
-10.6292574245
 20
22.2689805518
 11
-10.6728950868
 21
22.4
  0
LINE
  5
3E3
100
AcDbEntity
  8
RACCORDO
100
AcDbLine
 62
253
  6
CONTINUOUS
 10
-10.500368927
 20
21.9987259353
 11
-10.5903805997
 21
22.2689805518
  0
LINE
  5
3E4
100
AcDbEntity
  8
ASSI
100
AcDbLine
 62
253
  6
CONTINUOUS
 10
-10.5003688946
 20
21.9987258379
 11
-10.5903805997
 21
22.2689805518
  0
LINE
  5
3E5
100
AcDbEntity
  8
RACCORDO
100
AcDbLine
 62
7
  6
CONTINUOUS
 10
-4.4
 20
22.4
 11
-4.3970741618
 21
22.3736436632
  0
LINE
  5
3E6
100
AcDbEntity
  8
CURVE
100
AcDbLine
 62
253
  6
CONTINUOUS
 10
-2.3014127817
 20
-16.0237353715
 11
-2.3005725425
 21
-16.0118541162
  0
LINE
  5
3E7
100
AcDbEntity
  8
CURVE
100
AcDbLine
 62
253
  6
CONTINUOUS
 10
-2.7976573286
 20
-15.9642875178
 11
-2.7990542685
 21
-15.9760724312
  0
LINE
  5
3E8
100
AcDbEntity
  8
CURVE
100
AcDbLine
 62
253
  6
CONTINUOUS
 10
-2.3028093296
 20
-16.0355252351
 11
-2.3014127817
 21
-16.0237353715
  0
LINE
  5
3E9
100
AcDbEntity
  8
CURVE
100
AcDbLine
 62
253
  6
CONTINUOUS
 10
-2.7957071458
 20
-15.9526069895
 11
-2.7976573286
 21
-15.9642875178
  0
LINE
  5
3EA
100
AcDbEntity
  8
CURVE
100
AcDbLine
 62
253
  6
CONTINUOUS
 10
-4.3454440547
 20
-16.9620864737
 11
-4.3409437416
 21
-16.9420157266
  0
LINE
  5
3EB
100
AcDbEntity
  8
CURVE
100
AcDbLine
 62
253
  6
CONTINUOUS
 10
-7.6532922532
 20
-16.8804086722
 11
-7.6606451852
 21
-16.900057193
  0
LINE
  5
3EC
100
AcDbEntity
  8
0
100
AcDbLine
 62
7
  6
CONTINUOUS
 10
-11.09
 20
-8.9749101299
 11
-11.1150898701
 21
-9.0
  0
LINE
  5
3ED
100
AcDbEntity
  8
0
100
AcDbLine
 62
7
  6
CONTINUOUS
 10
11.15
 20
13.2349101299
 11
11.1150898701
 21
13.2
  0
LWPOLYLINE
  5
3EE
100
AcDbEntity
  8
0
100
AcDbPolyline
 62
7
  6
CONTINUOUS
 90
2
 70
0
 43
0.3500000006
 10
18.3999999504
 20
-1.3571429443
 10
16.8999994926
 20
-1.3571429443
  0
LINE
  5
3EF
100
AcDbEntity
  8
0
100
AcDbLine
 62
7
  6
CONTINUOUS
 10
-11.09
 20
8.9749101299
 11
-11.1150898701
 21
9.0
  0
LINE
  5
3F0
100
AcDbEntity
  8
0
100
AcDbLine
 62
7
  6
CONTINUOUS
 10
11.15
 20
-13.2349101299
 11
11.1150898701
 21
-13.2
  0
LINE
  5
3F1
100
AcDbEntity
  8
RACCORDO
100
AcDbLine
 62
7
  6
CONTINUOUS
 10
4.4
 20
22.4
 11
4.3970741618
 21
22.3736436632
  0
LINE
  5
3F2
100
AcDbEntity
  8
CURVE
100
AcDbLine
 62
253
  6
CONTINUOUS
 10
-2.3047588135
 20
-16.047208731
 11
-2.3028093296
 21
-16.0355252351
  0
LINE
  5
3F3
100
AcDbEntity
  8
CURVE
100
AcDbLine
 62
253
  6
CONTINUOUS
 10
-2.7932074454
 20
-15.9410474058
 11
-2.7957071458
 21
-15.9526069895
  0
LINE
  5
3F4
100
AcDbEntity
  8
CURVE
100
AcDbLine
 62
253
  6
CONTINUOUS
 10
-2.307257469
 20
-16.0587696601
 11
-2.3047588135
 21
-16.047208731
  0
LINE
  5
3F5
100
AcDbEntity
  8
CURVE
100
AcDbLine
 62
253
  6
CONTINUOUS
 10
-2.3103009515
 20
-16.0701905844
 11
-2.307257469
 21
-16.0587696601
  0
LINE
  5
3F6
100
AcDbEntity
  8
CURVE
100
AcDbLine
 62
253
  6
CONTINUOUS
 10
-2.7901625654
 20
-15.9296265605
 11
-2.7932074454
 21
-15.9410474058
  0
LINE
  5
3F7
100
AcDbEntity
  8
CURVE
100
AcDbLine
 62
253
  6
CONTINUOUS
 10
-4.3529367072
 20
-16.9817252657
 11
-4.3454440547
 21
-16.9620864737
  0
LINE
  5
3F8
100
AcDbEntity
  8
CURVE
100
AcDbLine
 62
253
  6
CONTINUOUS
 10
-7.6427035054
 20
-16.8610691731
 11
-7.6532922532
 21
-16.8804086722
  0
LINE
  5
3F9
100
AcDbEntity
  8
0
100
AcDbLine
 62
7
  6
CONTINUOUS
 10
-11.15
 20
-13.2349101299
 11
-11.1150898701
 21
-13.2
  0
LINE
  5
3FA
100
AcDbEntity
  8
0
100
AcDbLine
 62
7
  6
CONTINUOUS
 10
11.09
 20
8.9749101299
 11
11.1150898701
 21
9.0
  0
LINE
  5
3FB
100
AcDbEntity
  8
0
100
AcDbLine
 62
7
  6
CONTINUOUS
 10
-11.15
 20
13.2349101299
 11
-11.1150898701
 21
13.2
  0
LINE
  5
3FC
100
AcDbEntity
  8
0
100
AcDbLine
 62
7
  6
CONTINUOUS
 10
11.09
 20
-8.9749101299
 11
11.1150898701
 21
-9.0
  0
LINE
  5
3FD
100
AcDbEntity
  8
RACCORDO
100
AcDbLine
 62
7
  6
CONTINUOUS
 10
4.4
 20
-22.4
 11
4.3970741618
 21
-22.3736436632
  0
LINE
  5
3FE
100
AcDbEntity
  8
0
100
AcDbLine
 62
7
  6
CONTINUOUS
 10
3.7
 20
22.2689805518
 11
3.7
 21
22.2637397739
  0
LINE
  5
3FF
100
AcDbEntity
  8
0
100
AcDbLine
 62
7
  6
CONTINUOUS
 10
3.7
 20
-22.2637397739
 11
3.7
 21
-22.2689805518
  0
LINE
  5
400
100
AcDbEntity
  8
CURVE
100
AcDbLine
 62
253
  6
CONTINUOUS
 10
-2.3138841433
 20
-16.0814528411
 11
-2.3103009515
 21
-16.0701905844
  0
LINE
  5
401
100
AcDbEntity
  8
CURVE
100
AcDbLine
 62
253
  6
CONTINUOUS
 10
-2.7865776474
 20
-15.9183634607
 11
-2.7901625654
 21
-15.9296265605
  0
LINE
  5
402
100
AcDbEntity
  8
RACCORDO
100
AcDbLine
 62
253
  6
CONTINUOUS
 10
10.5903805997
 20
22.2689805518
 11
10.500368927
 21
21.9987259353
  0
LINE
  5
403
100
AcDbEntity
  8
ASSI
100
AcDbLine
 62
253
  6
CONTINUOUS
 10
10.5903805997
 20
22.2689805518
 11
10.5003688946
 21
21.9987258379
  0
LINE
  5
404
100
AcDbEntity
  8
RACCORDO
100
AcDbLine
 62
253
  6
CONTINUOUS
 10
10.6728950868
 20
22.4
 11
10.6292574245
 21
22.2689805518
  0
LINE
  5
405
100
AcDbEntity
  8
RACCORDO
100
AcDbLine
 62
253
  6
CONTINUOUS
 10
11.1325800446
 20
21.9398948703
 11
11.0889072728
 21
21.8087700079
  0
LINE
  5
406
100
AcDbEntity
  8
RACCORDO
100
AcDbLine
 62
253
  6
CONTINUOUS
 10
11.09
 20
21.7687516997
 11
11.000292537
 21
21.4994104546
  0
LINE
  5
407
100
AcDbEntity
  8
ASSI
100
AcDbLine
 62
253
  6
CONTINUOUS
 10
11.09
 20
21.7687516997
 11
11.000292537
 21
21.4994104546
  0
LINE
  5
408
100
AcDbEntity
  8
CURVE
100
AcDbLine
 62
253
  6
CONTINUOUS
 10
-2.3180009626
 20
-16.0925365893
 11
-2.3138841433
 21
-16.0814528411
  0
LINE
  5
409
100
AcDbEntity
  8
CURVE
100
AcDbLine
 62
253
  6
CONTINUOUS
 10
-2.7824588248
 20
-15.9072782734
 11
-2.7865776474
 21
-15.9183634607
  0
LINE
  5
40A
100
AcDbEntity
  8
CURVE
100
AcDbLine
 62
253
  6
CONTINUOUS
 10
-2.7778134016
 20
-15.8963922352
 11
-2.7824588248
 21
-15.9072782734
  0
LINE
  5
40B
100
AcDbEntity
  8
RACCORDO
100
AcDbLine
 62
253
  6
CONTINUOUS
 10
10.5003688946
 20
-21.9987258379
 11
10.5903805997
 21
-22.2689805518
  0
LINE
  5
40C
100
AcDbEntity
  8
ASSI
100
AcDbLine
 62
253
  6
CONTINUOUS
 10
10.500368927
 20
-21.9987259353
 11
10.5903805997
 21
-22.2689805518
  0
LINE
  5
40D
100
AcDbEntity
  8
RACCORDO
100
AcDbLine
 62
253
  6
CONTINUOUS
 10
10.6292574245
 20
-22.2689805518
 11
10.6728950868
 21
-22.4
  0
LINE
  5
40E
100
AcDbEntity
  8
RACCORDO
100
AcDbLine
 62
253
  6
CONTINUOUS
 10
11.0889072728
 20
-21.8087700079
 11
11.1325800446
 21
-21.9398948703
  0
LINE
  5
40F
100
AcDbEntity
  8
RACCORDO
100
AcDbLine
 62
253
  6
CONTINUOUS
 10
11.000292537
 20
-21.4994104546
 11
11.09
 21
-21.7687516997
  0
LINE
  5
410
100
AcDbEntity
  8
ASSI
100
AcDbLine
 62
253
  6
CONTINUOUS
 10
11.000292537
 20
-21.4994104546
 11
11.09
 21
-21.7687516997
  0
LINE
  5
411
100
AcDbEntity
  8
RACCORDO
100
AcDbLine
 62
253
  6
CONTINUOUS
 10
3.8970826234
 20
-23.5953423515
 11
3.8970826234
 21
-22.3475922207
  0
LINE
  5
412
100
AcDbEntity
  8
RACCORDO
100
AcDbLine
 62
253
  6
CONTINUOUS
 10
3.8970826234
 20
22.3475922207
 11
3.8970826234
 21
23.5953423515
  0
LINE
  5
413
100
AcDbEntity
  8
0
100
AcDbLine
 62
7
  6
CONTINUOUS
 10
4.3
 20
22.2689805518
 11
4.3
 21
22.2322951063
  0
LINE
  5
414
100
AcDbEntity
  8
0
100
AcDbLine
 62
7
  6
CONTINUOUS
 10
4.3
 20
-22.2322951063
 11
4.3
 21
-22.2689805518
  0
LINE
  5
415
100
AcDbEntity
  8
RACCORDO
100
AcDbLine
 62
253
  6
CONTINUOUS
 10
4.3970741618
 20
-23.7970741618
 11
4.3970741618
 21
-22.3736436632
  0
LINE
  5
416
100
AcDbEntity
  8
RACCORDO
100
AcDbLine
 62
253
  6
CONTINUOUS
 10
4.3970741618
 20
22.3736436632
 11
4.3970741618
 21
23.7970741618
  0
LINE
  5
417
100
AcDbEntity
  8
DRAFT
100
AcDbLine
 62
7
  6
CONTINUOUS
 10
4.4
 20
23.8
 11
4.4
 21
22.4
  0
LINE
  5
418
100
AcDbEntity
  8
DRAFT
100
AcDbLine
 62
7
  6
CONTINUOUS
 10
4.4
 20
-22.4
 11
4.4
 21
-23.8
  0
LWPOLYLINE
  5
419
100
AcDbEntity
  8
RACCORDO
100
AcDbPolyline
 62
253
  6
CONTINUOUS
 90
12
 70
0
 10
11.000292537
 20
21.4994104546
 10
10.9996790625
 20
21.496943848
 10
10.999068921
 20
21.4932562435
 10
10.9984621125
 20
21.4883476409
 10
10.9978578778
 20
21.482208925
 10
10.9972569761
 20
21.4748492111
 10
10.9966616853
 20
21.4662958449
 10
10.9960720398
 20
21.4565443858
 10
10.9954880052
 20
21.4455992743
 10
10.9949117553
 20
21.4335011782
 10
10.9943433239
 20
21.4202458755
 10
10.9932318885
 20
21.390329649
  0
LWPOLYLINE
  5
41A
100
AcDbEntity
  8
ASSI
100
AcDbPolyline
 62
253
  6
CONTINUOUS
 90
12
 70
0
 10
11.000292537
 20
21.4994104546
 10
10.9996790127
 20
21.4969434688
 10
10.9990688332
 20
21.493255514
 10
10.9984619985
 20
21.4883465902
 10
10.9978577531
 20
21.4822075998
 10
10.9972568525
 20
21.4748476404
 10
10.9966615629
 20
21.4662940047
 10
10.996071915
 20
21.4565422297
 10
10.9954878781
 20
21.4455967785
 10
10.9949116261
 20
21.4334983323
 10
10.9943431926
 20
21.4202426742
 10
10.9932317537
 20
21.3903257058
  0
LINE
  5
41B
100
AcDbEntity
  8
CURVE
100
AcDbLine
 62
253
  6
CONTINUOUS
 10
-2.3226441806
 20
-16.1034208923
 11
-2.3180009626
 21
-16.0925365893
  0
LINE
  5
41C
100
AcDbEntity
  8
CURVE
100
AcDbLine
 62
253
  6
CONTINUOUS
 10
-2.3278052544
 20
-16.1140838365
 11
-2.3226441806
 21
-16.1034208923
  0
LINE
  5
41D
100
AcDbEntity
  8
CURVE
100
AcDbLine
 62
253
  6
CONTINUOUS
 10
-2.7726500137
 20
-15.8857275266
 11
-2.7778134016
 21
-15.8963922352
  0
LINE
  5
41E
100
AcDbEntity
  8
CURVE
100
AcDbLine
 62
253
  6
CONTINUOUS
 10
-2.7669787658
 20
-15.8753071094
 11
-2.7726500137
 21
-15.8857275266
  0
LINE
  5
41F
100
AcDbEntity
  8
CURVE
100
AcDbLine
 62
253
  6
CONTINUOUS
 10
-4.3633545697
 20
-17.0005445203
 11
-4.3529367072
 21
-16.9817252657
  0
LINE
  5
420
100
AcDbEntity
  8
CURVE
100
AcDbLine
 62
253
  6
CONTINUOUS
 10
-7.6288211975
 20
-16.8422787613
 11
-7.6427035054
 21
-16.8610691731
  0
LINE
  5
421
100
AcDbEntity
  8
0
100
AcDbLine
 62
7
  6
CONTINUOUS
 10
6.9
 20
-22.2689805518
 11
6.9
 21
-22.2322951063
  0
LINE
  5
422
100
AcDbEntity
  8
0
100
AcDbLine
 62
7
  6
CONTINUOUS
 10
6.9
 20
22.2322951063
 11
6.9
 21
22.2689805518
  0
LWPOLYLINE
  5
423
100
AcDbEntity
  8
RACCORDO
100
AcDbPolyline
 62
253
  6
CONTINUOUS
 90
10
 70
0
 10
10.5003688471
 20
21.9987259352
 10
10.4997551687
 20
21.9950392263
 10
10.4991448797
 20
21.9895039889
 10
10.49853798
 20
21.9821270084
 10
10.4979337311
 20
21.9729173476
 10
10.4973328714
 20
21.9618863393
 10
10.4967376173
 20
21.9490475753
 10
10.4961479797
 20
21.9344167904
 10
10.4955639476
 20
21.9180120982
 10
10.4944192844
 20
21.8799653998
  0
LWPOLYLINE
  5
424
100
AcDbEntity
  8
ASSI
100
AcDbPolyline
 62
253
  6
CONTINUOUS
 90
10
 70
0
 10
10.5003688255
 20
21.9987258379
 10
10.4997551314
 20
21.9950389743
 10
10.4991448309
 20
21.9895035429
 10
10.4985379242
 20
21.9821263567
 10
10.4979336741
 20
21.9729165231
 10
10.4973328178
 20
21.9618853916
 10
10.4967375662
 20
21.9490465116
 10
10.4961479286
 20
21.9344155916
 10
10.4955638958
 20
21.9180107646
 10
10.4944192327
 20
21.8799637957
  0
LINE
  5
425
100
AcDbEntity
  8
CURVE
100
AcDbLine
 62
253
  6
CONTINUOUS
 10
-2.3334741823
 20
-16.1245026868
 11
-2.3278052544
 21
-16.1140838365
  0
LINE
  5
426
100
AcDbEntity
  8
CURVE
100
AcDbLine
 62
253
  6
CONTINUOUS
 10
-2.3396393903
 20
-16.1346540772
 11
-2.3334741823
 21
-16.1245026868
  0
LINE
  5
427
100
AcDbEntity
  8
CURVE
100
AcDbLine
 62
253
  6
CONTINUOUS
 10
-2.7608113374
 20
-15.8651545306
 11
-2.7669787658
 21
-15.8753071094
  0
LINE
  5
428
100
AcDbEntity
  8
CURVE
100
AcDbLine
 62
253
  6
CONTINUOUS
 10
-2.3462876551
 20
-16.1445142318
 11
-2.3396393903
 21
-16.1346540772
  0
LINE
  5
429
100
AcDbEntity
  8
CURVE
100
AcDbLine
 62
253
  6
CONTINUOUS
 10
-2.7541610495
 20
-15.8552936962
 11
-2.7608113374
 21
-15.8651545306
  0
LINE
  5
42A
100
AcDbEntity
  8
CURVE
100
AcDbLine
 62
253
  6
CONTINUOUS
 10
-2.7470428885
 20
-15.8457486221
 11
-2.7541610495
 21
-15.8552936962
  0
LINE
  5
42B
100
AcDbEntity
  8
CURVE
100
AcDbLine
 62
253
  6
CONTINUOUS
 10
-4.376528948
 20
-17.0180727008
 11
-4.3633545697
 21
-17.0005445203
  0
LINE
  5
42C
100
AcDbEntity
  8
CURVE
100
AcDbLine
 62
253
  6
CONTINUOUS
 10
-7.6115861954
 20
-16.8242755843
 11
-7.6288211975
 21
-16.8422787613
  0
LWPOLYLINE
  5
42D
100
AcDbEntity
  8
RACCORDO
100
AcDbPolyline
 62
253
  6
CONTINUOUS
 90
31
 70
0
 10
8.2630985787
 20
23.8443375673
 10
8.2634779104
 20
23.8330274168
 10
8.2645388924
 20
23.8217481519
 10
8.2662786273
 20
23.810530574
 10
8.2686923642
 20
23.7994053159
 10
8.2717735118
 20
23.7884027584
 10
8.275513656
 20
23.7775529472
 10
8.2799025834
 20
23.7668855107
 10
8.2849283087
 20
23.7564295797
 10
8.2905771077
 20
23.7462137069
 10
8.2968335547
 20
23.7362657898
 10
8.3036805646
 20
23.7266129942
 10
8.3110994397
 20
23.7172816797
 10
8.3190699206
 20
23.7082973282
 10
8.3275702417
 20
23.6996844742
 10
8.3365771902
 20
23.6914666374
 10
8.3460661701
 20
23.6836662592
 10
8.356011269
 20
23.6763046407
 10
8.3663853289
 20
23.6694018849
 10
8.3771600204
 20
23.6629768418
 10
8.3883059201
 20
23.6570470569
 10
8.3997925909
 20
23.6516287232
 10
8.4115886651
 20
23.646736637
 10
8.42366193
 20
23.6423841576
 10
8.4359794162
 20
23.6385831707
 10
8.448507487
 20
23.6353440559
 10
8.4612119311
 20
23.6326756587
 10
8.4740580552
 20
23.6305852658
 10
8.4870107793
 20
23.6290785857
 10
8.5000347321
 20
23.6281597328
 10
8.5130943479
 20
23.6278312164
  0
LWPOLYLINE
  5
42E
100
AcDbEntity
  8
RACCORDO
100
AcDbPolyline
 62
253
  6
CONTINUOUS
 90
31
 70
0
 10
8.2630985787
 20
-24.2369056521
 10
8.2634399859
 20
-24.249957992
 10
8.2644632485
 20
-24.2629828864
 10
8.2661668528
 20
-24.275944661
 10
8.2685479829
 20
-24.2888103798
 10
8.2716010963
 20
-24.3015418449
 10
8.275316536
 20
-24.3140960295
 10
8.2796830871
 20
-24.3264358334
 10
8.284689517
 20
-24.3385301896
 10
8.2903222656
 20
-24.3503462678
 10
8.2965660673
 20
-24.3618518682
 10
8.3034037491
 20
-24.3730151866
 10
8.3108163791
 20
-24.3838052658
 10
8.3187835214
 20
-24.3941923917
 10
8.3272834183
 20
-24.4041482289
 10
8.3362928401
 20
-24.4136455633
 10
8.3457871333
 20
-24.4226583824
 10
8.3557402367
 20
-24.4311619239
 10
8.366124826
 20
-24.4391328321
 10
8.3769124163
 20
-24.446549239
 10
8.3880734423
 20
-24.4533908148
 10
8.3995772981
 20
-24.4596387939
 10
8.4113924437
 20
-24.4652760422
 10
8.4234864809
 20
-24.4702870977
 10
8.435826237
 20
-24.4746582128
 10
8.4483778845
 20
-24.4783774023
 10
8.4611069984
 20
-24.4814344634
 10
8.4739786381
 20
-24.4838210061
 10
8.4869574955
 20
-24.4855304893
 10
8.5000079938
 20
-24.4865582323
 10
8.5130943479
 20
-24.4869014213
  0
LWPOLYLINE
  5
42F
100
AcDbEntity
  8
RACCORDO
100
AcDbPolyline
 62
7
  6
CONTINUOUS
 90
34
 70
0
 10
8.25
 20
-24.2500042308
 10
8.2502831502
 20
-24.261899516
 10
8.2511319658
 20
-24.2737678556
 10
8.2525445259
 20
-24.2855823661
 10
8.2545176323
 20
-24.2973162875
 10
8.2570468183
 20
-24.3089430388
 10
8.2601263583
 20
-24.320436279
 10
8.2637492787
 20
-24.3317699738
 10
8.2679073742
 20
-24.3429184493
 10
8.2725912278
 20
-24.3538564463
 10
8.2777902312
 20
-24.3645591876
 10
8.2834926084
 20
-24.3750024283
 10
8.2896854419
 20
-24.3851625059
 10
8.2963547045
 20
-24.3950164051
 10
8.3034852893
 20
-24.4045418038
 10
8.3110610411
 20
-24.4137171191
 10
8.3190647995
 20
-24.4225215661
 10
8.3274784339
 20
-24.4309352005
 10
8.3362828809
 20
-24.4389389589
 10
8.3454581962
 20
-24.4465147107
 10
8.3549835949
 20
-24.4536452955
 10
8.3648374941
 20
-24.4603145581
 10
8.3749975717
 20
-24.4665073916
 10
8.3854408124
 20
-24.4722097688
 10
8.3961435537
 20
-24.4774087722
 10
8.4070815507
 20
-24.4820926258
 10
8.4182300262
 20
-24.4862507213
 10
8.429563721
 20
-24.4898736417
 10
8.4410569612
 20
-24.4929531817
 10
8.4526837125
 20
-24.4954823677
 10
8.4644176339
 20
-24.4974554741
 10
8.4762321444
 20
-24.4988680342
 10
8.488100484
 20
-24.4997168498
 10
8.4999957692
 20
-24.5
  0
LINE
  5
430
100
AcDbEntity
  8
RACCORDO
100
AcDbLine
 62
253
  6
CONTINUOUS
 10
8.2630985787
 20
-23.8443375673
 11
8.2572807489
 21
-23.2669872981
  0
LINE
  5
431
100
AcDbEntity
  8
RACCORDO
100
AcDbLine
 62
253
  6
CONTINUOUS
 10
8.5130943479
 20
-23.6278312164
 11
8.5080037468
 21
-23.1226497308
  0
LINE
  5
432
100
AcDbEntity
  8
0
100
AcDbLine
 62
7
  6
CONTINUOUS
 10
7.5
 20
-22.2689805518
 11
7.5
 21
-22.2637397739
  0
LINE
  5
433
100
AcDbEntity
  8
0
100
AcDbLine
 62
7
  6
CONTINUOUS
 10
7.5
 20
22.2637397739
 11
7.5
 21
22.2689805518
  0
LINE
  5
434
100
AcDbEntity
  8
RACCORDO
100
AcDbLine
 62
7
  6
CONTINUOUS
 10
8.25
 20
-22.4
 11
8.25
 21
-24.2500042308
  0
LINE
  5
435
100
AcDbEntity
  8
RACCORDO
100
AcDbLine
 62
7
  6
CONTINUOUS
 10
8.25
 20
22.4
 11
8.25
 21
24.2500042308
  0
LINE
  5
436
100
AcDbEntity
  8
RACCORDO
100
AcDbLine
 62
253
  6
CONTINUOUS
 10
8.2572807489
 20
-23.2669872981
 11
8.2572807489
 21
-22.3344140523
  0
LINE
  5
437
100
AcDbEntity
  8
RACCORDO
100
AcDbLine
 62
253
  6
CONTINUOUS
 10
8.2572807489
 20
22.3344140523
 11
8.2572807489
 21
23.2669872981
  0
LINE
  5
438
100
AcDbEntity
  8
RACCORDO
100
AcDbLine
 62
253
  6
CONTINUOUS
 10
8.2630985787
 20
24.2369056521
 11
8.2630985787
 21
23.8443375673
  0
LINE
  5
439
100
AcDbEntity
  8
RACCORDO
100
AcDbLine
 62
253
  6
CONTINUOUS
 10
8.2630985787
 20
-23.8443375673
 11
8.2630985787
 21
-24.2369056521
  0
LINE
  5
43A
100
AcDbEntity
  8
RACCORDO
100
AcDbLine
 62
253
  6
CONTINUOUS
 10
8.5072765181
 20
-23.1226497308
 11
8.5072765181
 21
-22.3213883311
  0
LINE
  5
43B
100
AcDbEntity
  8
RACCORDO
100
AcDbLine
 62
253
  6
CONTINUOUS
 10
8.5072765181
 20
22.3213883311
 11
8.5072765181
 21
23.1226497308
  0
LINE
  5
43C
100
AcDbEntity
  8
RACCORDO
100
AcDbLine
 62
253
  6
CONTINUOUS
 10
8.5130943479
 20
-23.6278312164
 11
8.5130943479
 21
-24.4869014213
  0
LINE
  5
43D
100
AcDbEntity
  8
RACCORDO
100
AcDbLine
 62
253
  6
CONTINUOUS
 10
8.5130943479
 20
23.6278312164
 11
8.5130943479
 21
24.4869014213
  0
LINE
  5
43E
100
AcDbEntity
  8
RACCORDO
100
AcDbLine
 62
253
  6
CONTINUOUS
 10
8.2572807489
 20
23.2669872981
 11
8.2630985787
 21
23.8443375673
  0
LINE
  5
43F
100
AcDbEntity
  8
RACCORDO
100
AcDbLine
 62
253
  6
CONTINUOUS
 10
8.5080037468
 20
23.1226497308
 11
8.5130943479
 21
23.6278312164
  0
LWPOLYLINE
  5
440
100
AcDbEntity
  8
RACCORDO
100
AcDbPolyline
 62
253
  6
CONTINUOUS
 90
31
 70
0
 10
8.2630985787
 20
-23.8443375673
 10
8.2634771343
 20
-23.833039595
 10
8.2645362619
 20
-23.821769291
 10
8.2662736384
 20
-23.8105574212
 10
8.2686853398
 20
-23.7994336121
 10
8.2717652101
 20
-23.78842936
 10
8.2755042611
 20
-23.7775778202
 10
8.2798918055
 20
-23.7669096972
 10
8.2849162045
 20
-23.7564530239
 10
8.2905638851
 20
-23.746236105
 10
8.2968195777
 20
-23.7362866999
 10
8.3036661523
 20
-23.7266321754
 10
8.3110847605
 20
-23.7172991519
 10
8.3190550646
 20
-23.7083132018
 10
8.3275553594
 20
-23.6996987826
 10
8.3365624499
 20
-23.6914794042
 10
8.3460517535
 20
-23.6836775075
 10
8.3559973406
 20
-23.6763144193
 10
8.3663720235
 20
-23.6694102704
 10
8.3771474559
 20
-23.6629839239
 10
8.3882942139
 20
-23.6570529269
 10
8.399781851
 20
-23.6516334796
 10
8.4115790077
 20
-23.6467403776
 10
8.4236534441
 20
-23.6423869945
 10
8.4359721237
 20
-23.6385852371
 10
8.4485013591
 20
-23.6353454907
 10
8.4612069619
 20
-23.6326765842
 10
8.4740542827
 20
-23.6305857918
 10
8.48700825
 20
-23.6290788219
 10
8.5000334638
 20
-23.6281597935
 10
8.5130943479
 20
-23.6278312164
  0
LINE
  5
441
100
AcDbEntity
  8
RACCORDO
100
AcDbLine
 62
7
  6
CONTINUOUS
 10
10.65
 20
22.4
 11
10.6427192511
 21
22.3344140523
  0
LINE
  5
442
100
AcDbEntity
  8
CURVE
100
AcDbLine
 62
253
  6
CONTINUOUS
 10
-2.3534040708
 20
-16.1540592119
 11
-2.3462876551
 21
-16.1445142318
  0
LINE
  5
443
100
AcDbEntity
  8
CURVE
100
AcDbLine
 62
253
  6
CONTINUOUS
 10
-2.7394734821
 20
-15.836543169
 11
-2.7470428885
 21
-15.8457486221
  0
LINE
  5
444
100
AcDbEntity
  8
CURVE
100
AcDbLine
 62
253
  6
CONTINUOUS
 10
-2.3609720633
 20
-16.1632651796
 11
-2.3534040708
 21
-16.1540592119
  0
LINE
  5
445
100
AcDbEntity
  8
CURVE
100
AcDbLine
 62
253
  6
CONTINUOUS
 10
-2.3689734532
 20
-16.1721086713
 11
-2.3609720633
 21
-16.1632651796
  0
LINE
  5
446
100
AcDbEntity
  8
CURVE
100
AcDbLine
 62
253
  6
CONTINUOUS
 10
-2.7310741813
 20
-15.827262273
 11
-2.7394734821
 21
-15.836543169
  0
LINE
  5
447
100
AcDbEntity
  8
CURVE
100
AcDbLine
 62
253
  6
CONTINUOUS
 10
-4.3921613233
 20
-17.0337949689
 11
-4.376528948
 21
-17.0180727008
  0
LINE
  5
448
100
AcDbEntity
  8
CURVE
100
AcDbLine
 62
253
  6
CONTINUOUS
 10
-7.5909375999
 20
-16.8072966833
 11
-7.6115861954
 21
-16.8242755843
  0
LINE
  5
449
100
AcDbEntity
  8
0
100
AcDbLine
 62
7
  6
CONTINUOUS
 10
11.1150898701
 20
9.0
 11
11.09
 21
9.0
  0
LINE
  5
44A
100
AcDbEntity
  8
0
100
AcDbLine
 62
7
  6
CONTINUOUS
 10
-11.09
 20
9.0
 11
-11.1150898701
 21
9.0
  0
LINE
  5
44B
100
AcDbEntity
  8
RACCORDO
100
AcDbLine
 62
7
  6
CONTINUOUS
 10
10.65
 20
-22.4
 11
10.6427192511
 21
-22.3344140523
  0
LWPOLYLINE
  5
44C
100
AcDbEntity
  8
RACCORDO
100
AcDbPolyline
 62
7
  6
CONTINUOUS
 90
34
 70
0
 10
8.2572807489
 20
23.2669872981
 10
8.2575784753
 20
23.260745719
 10
8.2583497267
 20
23.254472608
 10
8.2596000894
 20
23.2481861919
 10
8.2613341367
 20
23.2419121598
 10
8.2635555794
 20
23.2356626215
 10
8.2662675994
 20
23.2294361375
 10
8.2694720963
 20
23.2232532001
 10
8.2731700208
 20
23.2171335699
 10
8.2773622718
 20
23.2110754134
 10
8.282047756
 20
23.2051002367
 10
8.2872243979
 20
23.199228829
 10
8.2928907687
 20
23.1934590071
 10
8.2990425526
 20
23.1878130261
 10
8.305674335
 20
23.182312533
 10
8.3127821378
 20
23.1769551973
 10
8.3203581333
 20
23.171763745
 10
8.3283932153
 20
23.1667604362
 10
8.3368804409
 20
23.1619430222
 10
8.3458081504
 20
23.1573343288
 10
8.3551631291
 20
23.1529569199
 10
8.3649348037
 20
23.148808872
 10
8.3751073149
 20
23.1449126131
 10
8.385662902
 20
23.1412905703
 10
8.3965865028
 20
23.137941334
 10
8.4078575603
 20
23.1348863009
 10
8.4194534848
 20
23.1321470947
 10
8.4313541826
 20
23.1297228132
 10
8.4435210103
 20
23.1276360125
 10
8.4559390652
 20
23.1259025536
 10
8.4686230593
 20
23.1245164325
 10
8.4815577699
 20
23.1234933505
 10
8.4946962714
 20
23.1228641607
 10
8.5080037468
 20
23.1226497308
  0
LWPOLYLINE
  5
44D
100
AcDbEntity
  8
RACCORDO
100
AcDbPolyline
 62
7
  6
CONTINUOUS
 90
34
 70
0
 10
10.6427192511
 20
-23.2669872981
 10
10.6424198287
 20
-23.2606934229
 10
10.6416441239
 20
-23.2544088409
 10
10.6403873851
 20
-23.2481335519
 10
10.6386460224
 20
-23.2418552807
 10
10.6364170759
 20
-23.2355863026
 10
10.633697709
 20
-23.2293634437
 10
10.6304867318
 20
-23.2231861587
 10
10.6267838816
 20
-23.2170549928
 10
10.6225882567
 20
-23.2110084085
 10
10.6179014786
 20
-23.205045942
 10
10.6127261214
 20
-23.199168057
 10
10.6070632404
 20
-23.1934146064
 10
10.6009174965
 20
-23.1877851844
 10
10.5942945874
 20
-23.1822801967
 10
10.5871976951
 20
-23.1769407141
 10
10.5796347916
 20
-23.1717664006
 10
10.5716150594
 20
-23.1667575922
 10
10.5631442164
 20
-23.1619563668
 10
10.554233882
 20
-23.1573625195
 10
10.544897167
 20
-23.1529762552
 10
10.5351430254
 20
-23.1488402671
 10
10.5249871321
 20
-23.1449546011
 10
10.5144470274
 20
-23.1413192112
 10
10.5035358548
 20
-23.1379766523
 10
10.4922738698
 20
-23.1349274029
 10
10.4806834708
 20
-23.1321709844
 10
10.4687828486
 20
-23.1297485157
 10
10.456584335
 20
-23.1276610792
 10
10.4441281847
 20
-23.1259075925
 10
10.4314781276
 20
-23.1245259271
 10
10.4186775292
 20
-23.123528707
 10
10.405747957
 20
-23.1229033082
 10
10.3927234819
 20
-23.1226497308
  0
LWPOLYLINE
  5
44E
100
AcDbEntity
  8
ASSI
100
AcDbPolyline
 62
253
  6
CONTINUOUS
 90
10
 70
0
 10
10.9949117553
 20
-21.4335011781
 10
10.9954880052
 20
-21.4455992743
 10
10.9960720398
 20
-21.4565443857
 10
10.9966616853
 20
-21.4662958448
 10
10.9972569761
 20
-21.474849211
 10
10.9978578778
 20
-21.482208925
 10
10.9984621125
 20
-21.4883476408
 10
10.999068921
 20
-21.4932562434
 10
10.9996790625
 20
-21.496943848
 10
11.000292537
 20
-21.4994104546
  0
LWPOLYLINE
  5
44F
100
AcDbEntity
  8
RACCORDO
100
AcDbPolyline
 62
253
  6
CONTINUOUS
 90
10
 70
0
 10
10.9949116261
 20
-21.4334983322
 10
10.9954878781
 20
-21.4455967784
 10
10.996071915
 20
-21.4565422297
 10
10.9966615629
 20
-21.4662940046
 10
10.9972568525
 20
-21.4748476404
 10
10.9978577531
 20
-21.4822075998
 10
10.9984619984
 20
-21.4883465902
 10
10.9990688332
 20
-21.493255514
 10
10.9996790127
 20
-21.4969434688
 10
11.000292537
 20
-21.4994104546
  0
LWPOLYLINE
  5
450
100
AcDbEntity
  8
ASSI
100
AcDbPolyline
 62
253
  6
CONTINUOUS
 90
8
 70
0
 10
10.4961479797
 20
-21.9344167904
 10
10.4967376173
 20
-21.9490475752
 10
10.4973328714
 20
-21.9618863393
 10
10.4979337311
 20
-21.9729173476
 10
10.49853798
 20
-21.9821270084
 10
10.4991448797
 20
-21.9895039889
 10
10.4997551687
 20
-21.9950392263
 10
10.5003688471
 20
-21.9987259352
  0
LWPOLYLINE
  5
451
100
AcDbEntity
  8
RACCORDO
100
AcDbPolyline
 62
253
  6
CONTINUOUS
 90
8
 70
0
 10
10.4961479286
 20
-21.9344155914
 10
10.4967375662
 20
-21.9490465115
 10
10.4973328178
 20
-21.9618853915
 10
10.4979336741
 20
-21.9729165231
 10
10.4985379242
 20
-21.9821263566
 10
10.4991448309
 20
-21.9895035428
 10
10.4997551314
 20
-21.9950389742
 10
10.5003688255
 20
-21.9987258379
  0
LINE
  5
452
100
AcDbEntity
  8
ASSI
100
AcDbLine
 62
253
  6
CONTINUOUS
 10
10.9937826772
 20
-21.405837588
 11
10.9949117553
 21
-21.4335011781
  0
LINE
  5
453
100
AcDbEntity
  8
RACCORDO
100
AcDbLine
 62
253
  6
CONTINUOUS
 10
10.993782544
 20
-21.405834021
 11
10.9949116261
 21
-21.4334983322
  0
LWPOLYLINE
  5
454
100
AcDbEntity
  8
RACCORDO
100
AcDbPolyline
 62
253
  6
CONTINUOUS
 90
31
 70
0
 10
10.6369014213
 20
-23.8443375673
 10
10.6365228657
 20
-23.833039595
 10
10.6354637381
 20
-23.821769291
 10
10.6337263616
 20
-23.8105574212
 10
10.6313146602
 20
-23.7994336121
 10
10.6282347899
 20
-23.78842936
 10
10.6244957389
 20
-23.7775778202
 10
10.6201081945
 20
-23.7669096972
 10
10.6150837955
 20
-23.7564530239
 10
10.6094361149
 20
-23.746236105
 10
10.6031804223
 20
-23.7362866999
 10
10.5963338477
 20
-23.7266321754
 10
10.5889152395
 20
-23.7172991519
 10
10.5809449354
 20
-23.7083132018
 10
10.5724446406
 20
-23.6996987826
 10
10.5634375501
 20
-23.6914794042
 10
10.5539482465
 20
-23.6836775075
 10
10.5440026594
 20
-23.6763144193
 10
10.5336279765
 20
-23.6694102704
 10
10.5228525441
 20
-23.6629839239
 10
10.5117057861
 20
-23.6570529269
 10
10.500218149
 20
-23.6516334796
 10
10.4884209923
 20
-23.6467403776
 10
10.4763465559
 20
-23.6423869945
 10
10.4640278763
 20
-23.6385852371
 10
10.4514986409
 20
-23.6353454907
 10
10.4387930381
 20
-23.6326765842
 10
10.4259457173
 20
-23.6305857918
 10
10.41299175
 20
-23.6290788219
 10
10.3999665362
 20
-23.6281597935
 10
10.3869056521
 20
-23.6278312164
  0
LINE
  5
455
100
AcDbEntity
  8
ASSI
100
AcDbLine
 62
253
  6
CONTINUOUS
 10
10.9926909933
 20
-21.3737179831
 11
10.9937826772
 21
-21.405837588
  0
LINE
  5
456
100
AcDbEntity
  8
RACCORDO
100
AcDbLine
 62
253
  6
CONTINUOUS
 10
10.9926908574
 20
-21.3737136526
 11
10.993782544
 21
-21.405834021
  0
LINE
  5
457
100
AcDbEntity
  8
ASSI
100
AcDbLine
 62
253
  6
CONTINUOUS
 10
10.4949877033
 20
-21.8998540789
 11
10.4961479797
 21
-21.9344167904
  0
LINE
  5
458
100
AcDbEntity
  8
RACCORDO
100
AcDbLine
 62
253
  6
CONTINUOUS
 10
10.4949876511
 20
-21.8998526109
 11
10.4961479286
 21
-21.9344155914
  0
LINE
  5
459
100
AcDbEntity
  8
ASSI
100
AcDbLine
 62
253
  6
CONTINUOUS
 10
10.4938586534
 20
-21.8583705666
 11
10.4949877033
 21
-21.8998540789
  0
LINE
  5
45A
100
AcDbEntity
  8
RACCORDO
100
AcDbLine
 62
253
  6
CONTINUOUS
 10
10.4938586023
 20
-21.8583688257
 11
10.4949876511
 21
-21.8998526109
  0
LINE
  5
45B
100
AcDbEntity
  8
ASSI
100
AcDbLine
 62
253
  6
CONTINUOUS
 10
10.9911333959
 20
-21.3174778606
 11
10.9926909933
 21
-21.3737179831
  0
LINE
  5
45C
100
AcDbEntity
  8
RACCORDO
100
AcDbLine
 62
253
  6
CONTINUOUS
 10
10.9911332582
 20
-21.3174722952
 11
10.9926908574
 21
-21.3737136526
  0
LINE
  5
45D
100
AcDbEntity
  8
ASSI
100
AcDbLine
 62
253
  6
CONTINUOUS
 10
10.9896878643
 20
-21.2521512905
 11
10.9911333959
 21
-21.3174778606
  0
LINE
  5
45E
100
AcDbEntity
  8
RACCORDO
100
AcDbLine
 62
253
  6
CONTINUOUS
 10
10.989687729
 20
-21.2521444916
 11
10.9911332582
 21
-21.3174722952
  0
LINE
  5
45F
100
AcDbEntity
  8
ASSI
100
AcDbLine
 62
253
  6
CONTINUOUS
 10
10.4922359719
 20
-21.7836259984
 11
10.4938586534
 21
-21.8583705666
  0
LINE
  5
460
100
AcDbEntity
  8
RACCORDO
100
AcDbLine
 62
253
  6
CONTINUOUS
 10
10.4922359232
 20
-21.7836238905
 11
10.4938586023
 21
-21.8583688257
  0
LINE
  5
461
100
AcDbEntity
  8
ASSI
100
AcDbLine
 62
253
  6
CONTINUOUS
 10
10.9879620987
 20
-21.1521636633
 11
10.9896878643
 21
-21.2521512905
  0
LINE
  5
462
100
AcDbEntity
  8
RACCORDO
100
AcDbLine
 62
253
  6
CONTINUOUS
 10
10.9879619816
 20
-21.152155839
 11
10.989687729
 21
-21.2521444916
  0
LINE
  5
463
100
AcDbEntity
  8
ASSI
100
AcDbLine
 62
253
  6
CONTINUOUS
 10
10.4902320813
 20
-21.6619321932
 11
10.4922359719
 21
-21.7836259984
  0
LINE
  5
464
100
AcDbEntity
  8
RACCORDO
100
AcDbLine
 62
253
  6
CONTINUOUS
 10
10.4902320363
 20
-21.6619296354
 11
10.4922359232
 21
-21.7836238905
  0
LINE
  5
465
100
AcDbEntity
  8
ASSI
100
AcDbLine
 62
253
  6
CONTINUOUS
 10
10.9861772507
 20
-21.0093811047
 11
10.9879620987
 21
-21.1521636633
  0
LINE
  5
466
100
AcDbEntity
  8
RACCORDO
100
AcDbLine
 62
253
  6
CONTINUOUS
 10
10.9861771697
 20
-21.0093732216
 11
10.9879619816
 21
-21.152155839
  0
LINE
  5
467
100
AcDbEntity
  8
ASSI
100
AcDbLine
 62
253
  6
CONTINUOUS
 10
10.4880382322
 20
-21.4778717513
 11
10.4902320813
 21
-21.6619321932
  0
LINE
  5
468
100
AcDbEntity
  8
RACCORDO
100
AcDbLine
 62
253
  6
CONTINUOUS
 10
10.4880381945
 20
-21.4778686834
 11
10.4902320363
 21
-21.6619296354
  0
LINE
  5
469
100
AcDbEntity
  8
RACCORDO
100
AcDbLine
 62
253
  6
CONTINUOUS
 10
10.3869056521
 20
23.6278312164
 11
10.3919962532
 21
23.1226497308
  0
LINE
  5
46A
100
AcDbEntity
  8
RACCORDO
100
AcDbLine
 62
253
  6
CONTINUOUS
 10
10.6369014213
 20
23.8443375673
 11
10.6427192511
 21
23.2669872981
  0
LINE
  5
46B
100
AcDbEntity
  8
ASSI
100
AcDbLine
 62
253
  6
CONTINUOUS
 10
10.4859502874
 20
-21.2177790444
 11
10.4880382322
 21
-21.4778717513
  0
LINE
  5
46C
100
AcDbEntity
  8
RACCORDO
100
AcDbLine
 62
253
  6
CONTINUOUS
 10
10.485950261
 20
-21.2177754592
 11
10.4880381945
 21
-21.4778686834
  0
LINE
  5
46D
100
AcDbEntity
  8
ASSI
100
AcDbLine
 62
253
  6
CONTINUOUS
 10
10.9846509864
 20
-20.817730848
 11
10.9861772507
 21
-21.0093811047
  0
LINE
  5
46E
100
AcDbEntity
  8
RACCORDO
100
AcDbLine
 62
253
  6
CONTINUOUS
 10
10.9846509443
 20
-20.8177235464
 11
10.9861771697
 21
-21.0093732216
  0
LINE
  5
46F
100
AcDbEntity
  8
ASSI
100
AcDbLine
 62
253
  6
CONTINUOUS
 10
10.4843791481
 20
-20.87502482
 11
10.4859502874
 21
-21.2177790444
  0
LINE
  5
470
100
AcDbEntity
  8
RACCORDO
100
AcDbLine
 62
253
  6
CONTINUOUS
 10
10.4843791367
 20
-20.8750208717
 11
10.485950261
 21
-21.2177754592
  0
LINE
  5
471
100
AcDbEntity
  8
ASSI
100
AcDbLine
 62
253
  6
CONTINUOUS
 10
10.9838019351
 20
-20.577077117
 11
10.9846509864
 21
-20.817730848
  0
LINE
  5
472
100
AcDbEntity
  8
RACCORDO
100
AcDbLine
 62
253
  6
CONTINUOUS
 10
10.983801929
 20
-20.5770742623
 11
10.9846509443
 21
-20.8177235464
  0
LINE
  5
473
100
AcDbEntity
  8
RACCORDO
100
AcDbLine
 62
253
  6
CONTINUOUS
 10
10.4838419038
 20
-20.5624546347
 11
10.4843791367
 21
-20.8750208717
  0
LINE
  5
474
100
AcDbEntity
  8
ASSI
100
AcDbLine
 62
253
  6
CONTINUOUS
 10
10.4838419059
 20
-20.5624565034
 11
10.4843791481
 21
-20.87502482
  0
LWPOLYLINE
  5
475
100
AcDbEntity
  8
RACCORDO
100
AcDbPolyline
 62
253
  6
CONTINUOUS
 90
3
 70
0
 10
10.4802294415
 20
-14.6895063658
 10
10.4812998341
 20
-16.6474228154
 10
10.4838419103
 20
-20.5624546347
  0
LWPOLYLINE
  5
476
100
AcDbEntity
  8
ASSI
100
AcDbPolyline
 62
253
  6
CONTINUOUS
 90
3
 70
0
 10
10.4802294415
 20
-14.6895063663
 10
10.4812998343
 20
-16.6474232311
 10
10.4838419115
 20
-20.5624565034
  0
LWPOLYLINE
  5
477
100
AcDbEntity
  8
RACCORDO
100
AcDbPolyline
 62
253
  6
CONTINUOUS
 90
3
 70
0
 10
10.9801532893
 20
-14.6748172369
 10
10.9812236837
 20
-16.6307387095
 10
10.983801929
 20
-20.5770742623
  0
LWPOLYLINE
  5
478
100
AcDbEntity
  8
ASSI
100
AcDbPolyline
 62
253
  6
CONTINUOUS
 90
3
 70
0
 10
10.9801532892
 20
-14.6748170904
 10
10.9812236836
 20
-16.6307385957
 10
10.9838019351
 20
-20.577077117
  0
LINE
  5
479
100
AcDbEntity
  8
RACCORDO
100
AcDbLine
 62
253
  6
CONTINUOUS
 10
10.4784899224
 20
-10.7730216373
 11
10.4802294415
 21
-14.6895063658
  0
LINE
  5
47A
100
AcDbEntity
  8
ASSI
100
AcDbLine
 62
253
  6
CONTINUOUS
 10
10.4784899223
 20
-10.7730215685
 11
10.4802294415
 21
-14.6895063663
  0
LINE
  5
47B
100
AcDbEntity
  8
RACCORDO
100
AcDbLine
 62
253
  6
CONTINUOUS
 10
10.9784137697
 20
-10.7622384105
 11
10.9801532893
 21
-14.6748172369
  0
LINE
  5
47C
100
AcDbEntity
  8
ASSI
100
AcDbLine
 62
253
  6
CONTINUOUS
 10
10.9784137697
 20
-10.7622382581
 11
10.9801532892
 21
-14.6748170904
  0
LINE
  5
47D
100
AcDbEntity
  8
RACCORDO
100
AcDbLine
 62
253
  6
CONTINUOUS
 10
10.4772855782
 20
-6.8558745504
 11
10.4784899224
 21
-10.7730216373
  0
LINE
  5
47E
100
AcDbEntity
  8
ASSI
100
AcDbLine
 62
253
  6
CONTINUOUS
 10
10.4772855782
 20
-6.855874551
 11
10.4784899223
 21
-10.7730215685
  0
LINE
  5
47F
100
AcDbEntity
  8
RACCORDO
100
AcDbLine
 62
253
  6
CONTINUOUS
 10
10.4766164654
 20
-2.9383071007
 11
10.4772855782
 21
-6.8558745504
  0
LINE
  5
480
100
AcDbEntity
  8
ASSI
100
AcDbLine
 62
253
  6
CONTINUOUS
 10
10.4766164654
 20
-2.9383071012
 11
10.4772855782
 21
-6.855874551
  0
LINE
  5
481
100
AcDbEntity
  8
RACCORDO
100
AcDbLine
 62
253
  6
CONTINUOUS
 10
10.9772094258
 20
-6.8490289012
 11
10.9784137697
 21
-10.7622384105
  0
LINE
  5
482
100
AcDbEntity
  8
ASSI
100
AcDbLine
 62
253
  6
CONTINUOUS
 10
10.9772094258
 20
-6.8490287537
 11
10.9784137697
 21
-10.7622382581
  0
LINE
  5
483
100
AcDbEntity
  8
RACCORDO
100
AcDbLine
 62
253
  6
CONTINUOUS
 10
10.976540313
 20
-2.9353689289
 11
10.9772094258
 21
-6.8490289012
  0
LINE
  5
484
100
AcDbEntity
  8
ASSI
100
AcDbLine
 62
253
  6
CONTINUOUS
 10
10.976540313
 20
-2.9353687809
 11
10.9772094258
 21
-6.8490287537
  0
LINE
  5
485
100
AcDbEntity
  8
RACCORDO
100
AcDbLine
 62
253
  6
CONTINUOUS
 10
10.3869056521
 20
-23.6278312164
 11
10.3869056521
 21
-24.4869014213
  0
LINE
  5
486
100
AcDbEntity
  8
RACCORDO
100
AcDbLine
 62
253
  6
CONTINUOUS
 10
10.3869056521
 20
23.6278312164
 11
10.3869056521
 21
24.4869014213
  0
LINE
  5
487
100
AcDbEntity
  8
RACCORDO
100
AcDbLine
 62
253
  6
CONTINUOUS
 10
10.3927234819
 20
23.1226497308
 11
10.3927234819
 21
22.3213883311
  0
LINE
  5
488
100
AcDbEntity
  8
RACCORDO
100
AcDbLine
 62
253
  6
CONTINUOUS
 10
10.3927234819
 20
-22.3213883311
 11
10.3927234819
 21
-23.1226497308
  0
LINE
  5
489
100
AcDbEntity
  8
RACCORDO
100
AcDbLine
 62
253
  6
CONTINUOUS
 10
10.6369014213
 20
-24.2369056521
 11
10.6369014213
 21
-23.8443375673
  0
LINE
  5
48A
100
AcDbEntity
  8
RACCORDO
100
AcDbLine
 62
253
  6
CONTINUOUS
 10
10.6369014213
 20
23.8443375673
 11
10.6369014213
 21
24.2369056521
  0
LINE
  5
48B
100
AcDbEntity
  8
RACCORDO
100
AcDbLine
 62
253
  6
CONTINUOUS
 10
10.6427192511
 20
23.2669872981
 11
10.6427192511
 21
22.3344140523
  0
LINE
  5
48C
100
AcDbEntity
  8
RACCORDO
100
AcDbLine
 62
253
  6
CONTINUOUS
 10
10.6427192511
 20
-22.3344140523
 11
10.6427192511
 21
-23.2669872981
  0
LINE
  5
48D
100
AcDbEntity
  8
RACCORDO
100
AcDbLine
 62
7
  6
CONTINUOUS
 10
10.65
 20
-22.4
 11
10.65
 21
-24.2500042308
  0
LINE
  5
48E
100
AcDbEntity
  8
RACCORDO
100
AcDbLine
 62
7
  6
CONTINUOUS
 10
10.65
 20
22.4
 11
10.65
 21
24.2500042308
  0
LWPOLYLINE
  5
48F
100
AcDbEntity
  8
RACCORDO
100
AcDbPolyline
 62
253
  6
CONTINUOUS
 90
3
 70
0
 10
10.4766164654
 20
2.9383071012
 10
10.4764826454
 20
0.9794407091
 10
10.4766164654
 20
-2.9383071007
  0
LWPOLYLINE
  5
490
100
AcDbEntity
  8
ASSI
100
AcDbPolyline
 62
253
  6
CONTINUOUS
 90
3
 70
0
 10
10.4766164654
 20
2.9383071007
 10
10.4764826454
 20
0.9794407085
 10
10.4766164654
 20
-2.9383071012
  0
LWPOLYLINE
  5
491
100
AcDbEntity
  8
RACCORDO
100
AcDbPolyline
 62
253
  6
CONTINUOUS
 90
3
 70
0
 10
10.976540313
 20
2.9353687809
 10
10.9764064929
 20
0.9784712263
 10
10.976540313
 20
-2.9353689289
  0
LWPOLYLINE
  5
492
100
AcDbEntity
  8
ASSI
100
AcDbPolyline
 62
253
  6
CONTINUOUS
 90
3
 70
0
 10
10.976540313
 20
2.9353689289
 10
10.9764064929
 20
0.9784713745
 10
10.976540313
 20
-2.9353687809
  0
LINE
  5
493
100
AcDbEntity
  8
RACCORDO
100
AcDbLine
 62
253
  6
CONTINUOUS
 10
10.4778208462
 20
8.8145154814
 11
10.4766164654
 21
2.9383071012
  0
LINE
  5
494
100
AcDbEntity
  8
ASSI
100
AcDbLine
 62
253
  6
CONTINUOUS
 10
10.4778208462
 20
8.8145154809
 11
10.4766164654
 21
2.9383071007
  0
LINE
  5
495
100
AcDbEntity
  8
RACCORDO
100
AcDbLine
 62
253
  6
CONTINUOUS
 10
10.9777446938
 20
8.8057010749
 11
10.976540313
 21
2.9353687809
  0
LINE
  5
496
100
AcDbEntity
  8
ASSI
100
AcDbLine
 62
253
  6
CONTINUOUS
 10
10.9777446939
 20
8.8057012222
 11
10.976540313
 21
2.9353689289
  0
LINE
  5
497
100
AcDbEntity
  8
RACCORDO
100
AcDbLine
 62
253
  6
CONTINUOUS
 10
10.4792928
 20
12.7313623161
 11
10.4778208462
 21
8.8145154814
  0
LINE
  5
498
100
AcDbEntity
  8
ASSI
100
AcDbLine
 62
253
  6
CONTINUOUS
 10
10.4792928001
 20
12.7313624541
 11
10.4778208462
 21
8.8145154809
  0
LINE
  5
499
100
AcDbEntity
  8
RACCORDO
100
AcDbLine
 62
253
  6
CONTINUOUS
 10
10.9792166471
 20
12.7186402992
 11
10.9777446938
 21
8.8057010749
  0
LINE
  5
49A
100
AcDbEntity
  8
ASSI
100
AcDbLine
 62
253
  6
CONTINUOUS
 10
10.9792166472
 20
12.7186404567
 11
10.9777446939
 21
8.8057012222
  0
LINE
  5
49B
100
AcDbEntity
  8
RACCORDO
100
AcDbLine
 62
253
  6
CONTINUOUS
 10
10.482503991
 20
18.6050832926
 11
10.4792928
 21
12.7313623161
  0
LINE
  5
49C
100
AcDbEntity
  8
ASSI
100
AcDbLine
 62
253
  6
CONTINUOUS
 10
10.4825039903
 20
18.6050822541
 11
10.4792928001
 21
12.7313624541
  0
LINE
  5
49D
100
AcDbEntity
  8
RACCORDO
100
AcDbLine
 62
253
  6
CONTINUOUS
 10
10.9824278427
 20
18.5864348511
 11
10.9792166471
 21
12.7186402992
  0
LINE
  5
49E
100
AcDbEntity
  8
ASSI
100
AcDbLine
 62
253
  6
CONTINUOUS
 10
10.9824278427
 20
18.5864349161
 11
10.9792166472
 21
12.7186404567
  0
LINE
  5
49F
100
AcDbEntity
  8
RACCORDO
100
AcDbLine
 62
253
  6
CONTINUOUS
 10
10.484727185
 20
20.9761990768
 11
10.482503991
 21
18.6050832926
  0
LINE
  5
4A0
100
AcDbEntity
  8
ASSI
100
AcDbLine
 62
253
  6
CONTINUOUS
 10
10.4847271686
 20
20.9761952249
 11
10.4825039903
 21
18.6050822541
  0
LINE
  5
4A1
100
AcDbEntity
  8
RACCORDO
100
AcDbLine
 62
253
  6
CONTINUOUS
 10
10.9844665238
 20
20.7841526745
 11
10.9824278427
 21
18.5864348511
  0
LINE
  5
4A2
100
AcDbEntity
  8
ASSI
100
AcDbLine
 62
253
  6
CONTINUOUS
 10
10.9844664876
 20
20.7841455082
 11
10.9824278427
 21
18.5864349161
  0
LINE
  5
4A3
100
AcDbEntity
  8
RACCORDO
100
AcDbLine
 62
253
  6
CONTINUOUS
 10
10.4865747583
 20
21.3086150935
 11
10.484727185
 21
20.9761990768
  0
LINE
  5
4A4
100
AcDbEntity
  8
ASSI
100
AcDbLine
 62
253
  6
CONTINUOUS
 10
10.486574728
 20
21.3086116827
 11
10.4847271686
 21
20.9761952249
  0
LINE
  5
4A5
100
AcDbEntity
  8
RACCORDO
100
AcDbLine
 62
253
  6
CONTINUOUS
 10
10.9858741006
 20
20.9787618029
 11
10.9844665238
 21
20.7841526745
  0
LINE
  5
4A6
100
AcDbEntity
  8
ASSI
100
AcDbLine
 62
253
  6
CONTINUOUS
 10
10.9858740266
 20
20.9787539691
 11
10.9844664876
 21
20.7841455082
  0
LINE
  5
4A7
100
AcDbEntity
  8
RACCORDO
100
AcDbLine
 62
253
  6
CONTINUOUS
 10
10.3919962532
 20
-23.1226497308
 11
10.3869056521
 21
-23.6278312164
  0
LINE
  5
4A8
100
AcDbEntity
  8
RACCORDO
100
AcDbLine
 62
253
  6
CONTINUOUS
 10
10.6427192511
 20
-23.2669872981
 11
10.6369014213
 21
-23.8443375673
  0
LINE
  5
4A9
100
AcDbEntity
  8
RACCORDO
100
AcDbLine
 62
253
  6
CONTINUOUS
 10
10.4888703455
 20
21.5554538492
 11
10.4865747583
 21
21.3086150935
  0
LINE
  5
4AA
100
AcDbEntity
  8
ASSI
100
AcDbLine
 62
253
  6
CONTINUOUS
 10
10.4888703043
 20
21.5554509658
 11
10.486574728
 21
21.3086116827
  0
LINE
  5
4AB
100
AcDbEntity
  8
RACCORDO
100
AcDbLine
 62
253
  6
CONTINUOUS
 10
10.9875705578
 20
21.1250897139
 11
10.9858741006
 21
20.9787618029
  0
LINE
  5
4AC
100
AcDbEntity
  8
ASSI
100
AcDbLine
 62
253
  6
CONTINUOUS
 10
10.9875704474
 20
21.1250817868
 11
10.9858740266
 21
20.9787539691
  0
LINE
  5
4AD
100
AcDbEntity
  8
RACCORDO
100
AcDbLine
 62
253
  6
CONTINUOUS
 10
10.4912094377
 20
21.7258092962
 11
10.4888703455
 21
21.5554538492
  0
LINE
  5
4AE
100
AcDbEntity
  8
ASSI
100
AcDbLine
 62
253
  6
CONTINUOUS
 10
10.4912093907
 20
21.7258069625
 11
10.4888703043
 21
21.5554509658
  0
LINE
  5
4AF
100
AcDbEntity
  8
RACCORDO
100
AcDbLine
 62
253
  6
CONTINUOUS
 10
10.9892333785
 20
21.2284596956
 11
10.9875705578
 21
21.1250897139
  0
LINE
  5
4B0
100
AcDbEntity
  8
ASSI
100
AcDbLine
 62
253
  6
CONTINUOUS
 10
10.989233246
 20
21.2284525413
 11
10.9875704474
 21
21.1250817868
  0
LINE
  5
4B1
100
AcDbEntity
  8
RACCORDO
100
AcDbLine
 62
253
  6
CONTINUOUS
 10
10.4927669971
 20
21.8101710462
 11
10.4912094377
 21
21.7258092962
  0
LINE
  5
4B2
100
AcDbEntity
  8
ASSI
100
AcDbLine
 62
253
  6
CONTINUOUS
 10
10.4927669476
 20
21.8101690522
 11
10.4912093907
 21
21.7258069625
  0
LINE
  5
4B3
100
AcDbEntity
  8
RACCORDO
100
AcDbLine
 62
253
  6
CONTINUOUS
 10
10.990637873
 20
21.2966603732
 11
10.9892333785
 21
21.2284596956
  0
LINE
  5
4B4
100
AcDbEntity
  8
ASSI
100
AcDbLine
 62
253
  6
CONTINUOUS
 10
10.9906377351
 20
21.2966543687
 11
10.989233246
 21
21.2284525413
  0
LINE
  5
4B5
100
AcDbEntity
  8
RACCORDO
100
AcDbLine
 62
253
  6
CONTINUOUS
 10
10.4944192844
 20
21.8799653998
 11
10.4927669971
 21
21.8101710462
  0
LINE
  5
4B6
100
AcDbEntity
  8
ASSI
100
AcDbLine
 62
253
  6
CONTINUOUS
 10
10.4944192327
 20
21.8799637957
 11
10.4927669476
 21
21.8101690522
  0
LINE
  5
4B7
100
AcDbEntity
  8
RACCORDO
100
AcDbLine
 62
253
  6
CONTINUOUS
 10
10.9921599561
 20
21.3560066658
 11
10.990637873
 21
21.2966603732
  0
LINE
  5
4B8
100
AcDbEntity
  8
ASSI
100
AcDbLine
 62
253
  6
CONTINUOUS
 10
10.9921598193
 20
21.3560019373
 11
10.9906377351
 21
21.2966543687
  0
LINE
  5
4B9
100
AcDbEntity
  8
RACCORDO
100
AcDbLine
 62
253
  6
CONTINUOUS
 10
10.9932318885
 20
21.390329649
 11
10.9921599561
 21
21.3560066658
  0
LINE
  5
4BA
100
AcDbEntity
  8
ASSI
100
AcDbLine
 62
253
  6
CONTINUOUS
 10
10.9932317537
 20
21.3903257058
 11
10.9921598193
 21
21.3560019373
  0
LWPOLYLINE
  5
4BB
100
AcDbEntity
  8
RACCORDO
100
AcDbPolyline
 62
253
  6
CONTINUOUS
 90
31
 70
0
 10
10.6369014213
 20
23.8443375673
 10
10.6365220896
 20
23.8330274168
 10
10.6354611076
 20
23.8217481519
 10
10.6337213727
 20
23.810530574
 10
10.6313076358
 20
23.7994053159
 10
10.6282264882
 20
23.7884027584
 10
10.624486344
 20
23.7775529472
 10
10.6200974166
 20
23.7668855107
 10
10.6150716913
 20
23.7564295797
 10
10.6094228923
 20
23.7462137069
 10
10.6031664453
 20
23.7362657898
 10
10.5963194354
 20
23.7266129942
 10
10.5889005603
 20
23.7172816797
 10
10.5809300794
 20
23.7082973282
 10
10.5724297583
 20
23.6996844742
 10
10.5634228098
 20
23.6914666374
 10
10.5539338299
 20
23.6836662592
 10
10.543988731
 20
23.6763046407
 10
10.5336146711
 20
23.6694018849
 10
10.5228399796
 20
23.6629768418
 10
10.5116940799
 20
23.6570470569
 10
10.5002074091
 20
23.6516287232
 10
10.4884113349
 20
23.646736637
 10
10.47633807
 20
23.6423841576
 10
10.4640205838
 20
23.6385831707
 10
10.451492513
 20
23.6353440559
 10
10.4387880689
 20
23.6326756587
 10
10.4259419448
 20
23.6305852658
 10
10.4129892207
 20
23.6290785857
 10
10.3999652679
 20
23.6281597328
 10
10.3869056521
 20
23.6278312164
  0
LWPOLYLINE
  5
4BC
100
AcDbEntity
  8
RACCORDO
100
AcDbPolyline
 62
7
  6
CONTINUOUS
 90
34
 70
0
 10
8.2572807489
 20
-23.2669872981
 10
8.2575784753
 20
-23.260745719
 10
8.2583497267
 20
-23.254472608
 10
8.2596000894
 20
-23.2481861919
 10
8.2613341367
 20
-23.2419121598
 10
8.2635555794
 20
-23.2356626215
 10
8.2662675994
 20
-23.2294361375
 10
8.2694720963
 20
-23.2232532001
 10
8.2731700208
 20
-23.2171335699
 10
8.2773622718
 20
-23.2110754134
 10
8.282047756
 20
-23.2051002367
 10
8.2872243979
 20
-23.199228829
 10
8.2928907687
 20
-23.1934590071
 10
8.2990425526
 20
-23.1878130261
 10
8.305674335
 20
-23.182312533
 10
8.3127821378
 20
-23.1769551973
 10
8.3203581333
 20
-23.171763745
 10
8.3283932153
 20
-23.1667604362
 10
8.3368804409
 20
-23.1619430222
 10
8.3458081504
 20
-23.1573343288
 10
8.3551631291
 20
-23.1529569199
 10
8.3649348037
 20
-23.148808872
 10
8.3751073149
 20
-23.1449126131
 10
8.385662902
 20
-23.1412905703
 10
8.3965865028
 20
-23.137941334
 10
8.4078575603
 20
-23.1348863009
 10
8.4194534848
 20
-23.1321470947
 10
8.4313541826
 20
-23.1297228132
 10
8.4435210103
 20
-23.1276360125
 10
8.4559390652
 20
-23.1259025536
 10
8.4686230593
 20
-23.1245164325
 10
8.4815577699
 20
-23.1234933505
 10
8.4946962714
 20
-23.1228641607
 10
8.5080037468
 20
-23.1226497308
  0
LWPOLYLINE
  5
4BD
100
AcDbEntity
  8
RACCORDO
100
AcDbPolyline
 62
7
  6
CONTINUOUS
 90
34
 70
0
 10
10.6427192511
 20
23.2669872981
 10
10.6424215247
 20
23.260745719
 10
10.6416502733
 20
23.254472608
 10
10.6403999106
 20
23.2481861919
 10
10.6386658633
 20
23.2419121598
 10
10.6364444206
 20
23.2356626215
 10
10.6337324006
 20
23.2294361375
 10
10.6305279037
 20
23.2232532001
 10
10.6268299792
 20
23.2171335699
 10
10.6226377282
 20
23.2110754134
 10
10.617952244
 20
23.2051002367
 10
10.6127756021
 20
23.199228829
 10
10.6071092313
 20
23.1934590071
 10
10.6009574474
 20
23.1878130261
 10
10.594325665
 20
23.182312533
 10
10.5872178622
 20
23.1769551973
 10
10.5796418667
 20
23.171763745
 10
10.5716067847
 20
23.1667604362
 10
10.5631195591
 20
23.1619430222
 10
10.5541918496
 20
23.1573343288
 10
10.5448368709
 20
23.1529569199
 10
10.5350651963
 20
23.148808872
 10
10.5248926851
 20
23.1449126131
 10
10.514337098
 20
23.1412905703
 10
10.5034134972
 20
23.137941334
 10
10.4921424397
 20
23.1348863009
 10
10.4805465152
 20
23.1321470947
 10
10.4686458174
 20
23.1297228132
 10
10.4564789897
 20
23.1276360125
 10
10.4440609348
 20
23.1259025536
 10
10.4313769407
 20
23.1245164325
 10
10.4184422301
 20
23.1234933505
 10
10.4053037286
 20
23.1228641607
 10
10.3919962532
 20
23.1226497308
  0
LINE
  5
4BE
100
AcDbEntity
  8
RACCORDO
100
AcDbLine
 62
7
  6
CONTINUOUS
 10
8.25
 20
-22.4
 11
8.2572807489
 21
-22.3344140523
  0
LINE
  5
4BF
100
AcDbEntity
  8
CURVE
100
AcDbLine
 62
253
  6
CONTINUOUS
 10
-2.377754117
 20
-16.1809342879
 11
-2.3689734532
 21
-16.1721086713
  0
LINE
  5
4C0
100
AcDbEntity
  8
RACCORDO
100
AcDbLine
 62
253
  6
CONTINUOUS
 10
-10.65
 20
-24.2500042308
 11
-10.6369014213
 21
-24.2369056521
  0
LINE
  5
4C1
100
AcDbEntity
  8
RACCORDO
100
AcDbLine
 62
253
  6
CONTINUOUS
 10
-10.4000042308
 20
-24.5
 11
-10.3869056521
 21
-24.4869014213
  0
LINE
  5
4C2
100
AcDbEntity
  8
CURVE
100
AcDbLine
 62
253
  6
CONTINUOUS
 10
-2.7222013316
 20
-15.8184297806
 11
-2.7310741813
 21
-15.827262273
  0
LINE
  5
4C3
100
AcDbEntity
  8
CURVE
100
AcDbLine
 62
253
  6
CONTINUOUS
 10
-2.3869724841
 20
-16.1892913843
 11
-2.377754117
 21
-16.1809342879
  0
LINE
  5
4C4
100
AcDbEntity
  8
CURVE
100
AcDbLine
 62
253
  6
CONTINUOUS
 10
-2.7133637179
 20
-15.8104294285
 11
-2.7222013316
 21
-15.8184297806
  0
LINE
  5
4C5
100
AcDbEntity
  8
CURVE
100
AcDbLine
 62
253
  6
CONTINUOUS
 10
-2.396168335
 20
-16.1968660781
 11
-2.3869724841
 21
-16.1892913843
  0
LINE
  5
4C6
100
AcDbEntity
  8
CURVE
100
AcDbLine
 62
253
  6
CONTINUOUS
 10
-2.7041649326
 20
-15.8028634781
 11
-2.7133637179
 21
-15.8104294285
  0
LINE
  5
4C7
100
AcDbEntity
  8
CURVE
100
AcDbLine
 62
253
  6
CONTINUOUS
 10
-4.4106480202
 20
-17.0477504229
 11
-4.3921613233
 21
-17.0337949689
  0
LINE
  5
4C8
100
AcDbEntity
  8
CURVE
100
AcDbLine
 62
253
  6
CONTINUOUS
 10
-7.5668127156
 20
-16.7915787272
 11
-7.5909375999
 21
-16.8072966833
  0
LINE
  5
4C9
100
AcDbEntity
  8
CURVE
100
AcDbLine
 62
253
  6
CONTINUOUS
 10
-4.5647545293
 20
-15.0583500452
 11
-7.5668127156
 21
-16.7915787272
  0
LINE
  5
4CA
100
AcDbEntity
  8
RACCORDO
100
AcDbLine
 62
253
  6
CONTINUOUS
 10
-10.65
 20
24.2500042308
 11
-10.6369014213
 21
24.2369056521
  0
LINE
  5
4CB
100
AcDbEntity
  8
RACCORDO
100
AcDbLine
 62
253
  6
CONTINUOUS
 10
-10.4000042308
 20
24.5
 11
-10.3869056521
 21
24.4869014213
  0
LINE
  5
4CC
100
AcDbEntity
  8
RACCORDO
100
AcDbLine
 62
7
  6
CONTINUOUS
 10
8.25
 20
22.4
 11
8.2572807489
 21
22.3344140523
  0
LWPOLYLINE
  5
4CD
100
AcDbEntity
  8
RACCORDO
100
AcDbPolyline
 62
253
  6
CONTINUOUS
 90
31
 70
0
 10
11.000292537
 20
21.4994104546
 10
10.9995843216
 20
21.52552739
 10
10.9975093823
 20
21.5515728247
 10
10.9940733996
 20
21.5774754529
 10
10.9892857803
 20
21.6031643599
 10
10.9831596315
 20
21.6285692161
 10
10.9757117249
 20
21.6536204694
 10
10.9669624509
 20
21.678249536
 10
10.9569357626
 20
21.7023889878
 10
10.9456591104
 20
21.7259727371
 10
10.9331633667
 20
21.7489362176
 10
10.9194827417
 20
21.7712165612
 10
10.9046546892
 20
21.7927527698
 10
10.8887198046
 20
21.8134858828
 10
10.8717217135
 20
21.8333591381
 10
10.8537069521
 20
21.8523181278
 10
10.8347248403
 20
21.8703109468
 10
10.8148273461
 20
21.8872883354
 10
10.7940689438
 20
21.9032038137
 10
10.7725064646
 20
21.918013809
 10
10.7501989409
 20
21.9316777754
 10
10.7272074452
 20
21.9441583041
 10
10.7035949222
 20
21.9554212266
 10
10.6794260171
 20
21.9654357079
 10
10.6547668982
 20
21.9741743306
 10
10.6296850759
 20
21.9816131707
 10
10.6042492179
 20
21.9877318623
 10
10.5785289613
 20
21.9925136541
 10
10.5525947215
 20
21.9959454547
 10
10.5265174999
 20
21.9980178685
 10
10.5003686894
 20
21.998725222
  0
LWPOLYLINE
  5
4CE
100
AcDbEntity
  8
ASSI
100
AcDbPolyline
 62
253
  6
CONTINUOUS
 90
31
 70
0
 10
11.000292537
 20
21.4994104546
 10
10.9995843214
 20
21.5255273941
 10
10.9975093815
 20
21.5515728326
 10
10.9940733978
 20
21.5774754642
 10
10.9892857772
 20
21.6031643743
 10
10.9831596269
 20
21.6285692332
 10
10.9757117186
 20
21.6536204888
 10
10.9669624427
 20
21.6782495573
 10
10.9569357524
 20
21.7023890106
 10
10.9456590982
 20
21.7259727609
 10
10.9331633526
 20
21.748936242
 10
10.9194827257
 20
21.7712165858
 10
10.9046546715
 20
21.7927527942
 10
10.8887197853
 20
21.8134859066
 10
10.8717216929
 20
21.833359161
 10
10.8537069304
 20
21.8523181494
 10
10.8347248178
 20
21.870310967
 10
10.8148273232
 20
21.887288354
 10
10.7940689208
 20
21.9032038304
 10
10.7725064419
 20
21.9180138238
 10
10.7501989188
 20
21.9316777881
 10
10.7272074241
 20
21.9441583148
 10
10.7035949025
 20
21.9554212354
 10
10.679425999
 20
21.9654357148
 10
10.6547668821
 20
21.9741743359
 10
10.629685062
 20
21.9816131744
 10
10.6042492065
 20
21.9877318648
 10
10.5785289525
 20
21.9925136555
 10
10.5525947155
 20
21.9959454553
 10
10.5265174969
 20
21.9980178687
 10
10.5003686894
 20
21.998725222
  0
LWPOLYLINE
  5
4CF
100
AcDbEntity
  8
RACCORDO
100
AcDbPolyline
 62
253
  6
CONTINUOUS
 90
31
 70
0
 10
10.6369014213
 20
24.2369056521
 10
10.6365583827
 20
24.2499891381
 10
10.6355310928
 20
24.2630367647
 10
10.6338223673
 20
24.2760127708
 10
10.6314368893
 20
24.2888815916
 10
10.6283811971
 20
24.3016079562
 10
10.6246636657
 20
24.3141569839
 10
10.6202944842
 20
24.3264942801
 10
10.6152856277
 20
24.3385860308
 10
10.6096508246
 20
24.3503990946
 10
10.6034055187
 20
24.3619010942
 10
10.5965668272
 20
24.3730605047
 10
10.5891534939
 20
24.3838467403
 10
10.5811858371
 20
24.3942302379
 10
10.5726856948
 20
24.4041825384
 10
10.5636763643
 20
24.4136763643
 10
10.5541825384
 20
24.4226856948
 10
10.5442302379
 20
24.4311858371
 10
10.5338467403
 20
24.4391534939
 10
10.5230605047
 20
24.4465668272
 10
10.5119010942
 20
24.4534055187
 10
10.5003990946
 20
24.4596508246
 10
10.4885860308
 20
24.4652856277
 10
10.4764942801
 20
24.4702944842
 10
10.4641569839
 20
24.4746636657
 10
10.4516079562
 20
24.4783811971
 10
10.4388815916
 20
24.4814368893
 10
10.4260127708
 20
24.4838223673
 10
10.4130367647
 20
24.4855310928
 10
10.3999891381
 20
24.4865583827
 10
10.3869056521
 20
24.4869014213
  0
LWPOLYLINE
  5
4D0
100
AcDbEntity
  8
RACCORDO
100
AcDbPolyline
 62
7
  6
CONTINUOUS
 90
25
 70
0
 10
11.1325800446
 20
21.9398948703
 10
11.1320506827
 20
21.9617902899
 10
11.1304805283
 20
21.9836338764
 10
11.1278734598
 20
22.0053762448
 10
11.1242357649
 20
22.0269681457
 10
11.1195759544
 20
22.0483609296
 10
11.1139046495
 20
22.0695066366
 10
11.1072349155
 20
22.0903575307
 10
11.0995820782
 20
22.110866553
 10
11.0909633681
 20
22.1309877354
 10
11.0813984289
 20
22.1506756671
 10
11.070909048
 20
22.1698859258
 10
11.0595187249
 20
22.1885754393
 10
11.0472532908
 20
22.2067020138
 10
11.0341405642
 20
22.2242247328
 10
11.0202098552
 20
22.2411042658
 10
11.0054926756
 20
22.2573024632
 10
10.9900223273
 20
22.2727827213
 10
10.9738333566
 20
22.2875102311
 10
10.9569623382
 20
22.3014516398
 10
10.9394474044
 20
22.3145753788
 10
10.9213276593
 20
22.3268518548
 10
10.9026440244
 20
22.3382531725
 10
10.8834387149
 20
22.3487534248
 10
10.8781376822
 20
22.3514467217
  0
LWPOLYLINE
  5
4D1
100
AcDbEntity
  8
RACCORDO
100
AcDbPolyline
 62
7
  6
CONTINUOUS
 90
34
 70
0
 10
10.65
 20
24.2500042308
 10
10.6497168498
 20
24.261899516
 10
10.6488680342
 20
24.2737678556
 10
10.6474554741
 20
24.2855823661
 10
10.6454823677
 20
24.2973162875
 10
10.6429531817
 20
24.3089430388
 10
10.6398736417
 20
24.320436279
 10
10.6362507213
 20
24.3317699738
 10
10.6320926258
 20
24.3429184493
 10
10.6274087722
 20
24.3538564463
 10
10.6222097688
 20
24.3645591876
 10
10.6165073916
 20
24.3750024283
 10
10.6103145581
 20
24.3851625059
 10
10.6036452955
 20
24.3950164051
 10
10.5965147107
 20
24.4045418038
 10
10.5889389589
 20
24.4137171191
 10
10.5809352005
 20
24.4225215661
 10
10.5725215661
 20
24.4309352005
 10
10.5637171191
 20
24.4389389589
 10
10.5545418038
 20
24.4465147107
 10
10.5450164051
 20
24.4536452955
 10
10.5351625059
 20
24.4603145581
 10
10.5250024283
 20
24.4665073916
 10
10.5145591876
 20
24.4722097688
 10
10.5038564463
 20
24.4774087722
 10
10.4929184493
 20
24.4820926258
 10
10.4817699738
 20
24.4862507213
 10
10.470436279
 20
24.4898736417
 10
10.4589430388
 20
24.4929531817
 10
10.4473162875
 20
24.4954823677
 10
10.4355823661
 20
24.4974554741
 10
10.4237678556
 20
24.4988680342
 10
10.411899516
 20
24.4997168498
 10
10.4000042308
 20
24.5
  0
LINE
  5
4D2
100
AcDbEntity
  8
RACCORDO
100
AcDbLine
 62
7
  6
CONTINUOUS
 10
11.0889072728
 20
21.8087700079
 11
11.0889072728
 21
21.7998772199
  0
LINE
  5
4D3
100
AcDbEntity
  8
RACCORDO
100
AcDbLine
 62
7
  6
CONTINUOUS
 10
11.0889072728
 20
-21.7998772199
 11
11.0889072728
 21
-21.8087700079
  0
LINE
  5
4D4
100
AcDbEntity
  8
ASSI
100
AcDbLine
 62
7
  6
CONTINUOUS
 10
11.09
 20
21.7687516997
 11
11.09
 21
-21.7687516997
  0
LINE
  5
4D5
100
AcDbEntity
  8
RACCORDO
100
AcDbLine
 62
7
  6
CONTINUOUS
 10
11.09
 20
-21.7687516997
 11
11.09
 21
-13.2
  0
LINE
  5
4D6
100
AcDbEntity
  8
0
100
AcDbLine
 62
7
  6
CONTINUOUS
 10
11.09
 20
-13.2
 11
11.09
 21
13.2
  0
LINE
  5
4D7
100
AcDbEntity
  8
RACCORDO
100
AcDbLine
 62
7
  6
CONTINUOUS
 10
11.09
 20
13.2
 11
11.09
 21
21.7687516997
  0
LINE
  5
4D8
100
AcDbEntity
  8
0
100
AcDbLine
 62
7
  6
CONTINUOUS
 10
11.15
 20
17.6716990487
 11
11.15
 21
-17.6716990487
  0
LINE
  5
4D9
100
AcDbEntity
  8
RACCORDO
100
AcDbLine
 62
7
  6
CONTINUOUS
 10
11.15
 20
21.9311855559
 11
11.15
 21
-21.9311855559
  0
LWPOLYLINE
  5
4DA
100
AcDbEntity
  8
RACCORDO
100
AcDbPolyline
 62
7
  6
CONTINUOUS
 90
25
 70
0
 10
11.1325800446
 20
-21.9398948703
 10
11.1320519918
 20
-21.9617610743
 10
11.1304855524
 20
-21.9835806081
 10
11.1278838455
 20
-22.0053041354
 10
11.1242522772
 20
-22.0268826782
 10
11.1195986849
 20
-22.0482672071
 10
11.1139333971
 20
-22.0694087685
 10
11.10726889
 20
-22.0902594599
 10
11.0996199097
 20
-22.1107720013
 10
11.0910037234
 20
-22.1308993617
 10
11.0814395783
 20
-22.1505958888
 10
11.0709488777
 20
-22.1698168796
 10
11.0595554842
 20
-22.1885182205
 10
11.047285025
 20
-22.2066574744
 10
11.0341651246
 20
-22.2241934574
 10
11.0202257561
 20
-22.2410859052
 10
11.0054983998
 20
-22.2572964914
 10
10.9900163287
 20
-22.2727884238
 10
10.9738150042
 20
-22.2875261451
 10
10.9569311044
 20
-22.3014762499
 10
10.9394028544
 20
-22.3146071157
 10
10.9212704599
 20
-22.3268886488
 10
10.9025750271
 20
-22.3382930704
 10
10.8833589295
 20
-22.3487945937
 10
10.8781358696
 20
-22.3514476141
  0
LWPOLYLINE
  5
4DB
100
AcDbEntity
  8
RACCORDO
100
AcDbPolyline
 62
253
  6
CONTINUOUS
 90
31
 70
0
 10
11.000292537
 20
-21.4994104546
 10
10.9995843211
 20
-21.5255273998
 10
10.9975093803
 20
-21.5515728436
 10
10.9940733953
 20
-21.57747548
 10
10.9892857729
 20
-21.6031643943
 10
10.9831596205
 20
-21.6285692569
 10
10.9757117098
 20
-21.6536205157
 10
10.9669624314
 20
-21.6782495866
 10
10.9569357385
 20
-21.7023890418
 10
10.9456590816
 20
-21.7259727934
 10
10.9331633334
 20
-21.7489362752
 10
10.919482704
 20
-21.7712166191
 10
10.9046546476
 20
-21.7927528271
 10
10.8887197594
 20
-21.8134859386
 10
10.8717216652
 20
-21.8333591917
 10
10.8537069014
 20
-21.8523181784
 10
10.8347247879
 20
-21.870310994
 10
10.8148272928
 20
-21.8872883786
 10
10.7940688903
 20
-21.9032038526
 10
10.7725064118
 20
-21.9180138434
 10
10.7501988896
 20
-21.931677805
 10
10.7272073962
 20
-21.9441583291
 10
10.7035948764
 20
-21.955421247
 10
10.6794259752
 20
-21.965435724
 10
10.6547668609
 20
-21.9741743428
 10
10.6296850438
 20
-21.9816131793
 10
10.6042491916
 20
-21.987731868
 10
10.5785289411
 20
-21.9925136574
 10
10.5525947078
 20
-21.9959454561
 10
10.526517493
 20
-21.9980178689
 10
10.5003686894
 20
-21.998725222
  0
LWPOLYLINE
  5
4DC
100
AcDbEntity
  8
ASSI
100
AcDbPolyline
 62
253
  6
CONTINUOUS
 90
31
 70
0
 10
11.000292537
 20
-21.4994104546
 10
10.9995843211
 20
-21.5255273998
 10
10.9975093803
 20
-21.5515728436
 10
10.9940733953
 20
-21.57747548
 10
10.9892857729
 20
-21.6031643943
 10
10.9831596205
 20
-21.6285692569
 10
10.9757117098
 20
-21.6536205157
 10
10.9669624314
 20
-21.6782495866
 10
10.9569357385
 20
-21.7023890418
 10
10.9456590816
 20
-21.7259727934
 10
10.9331633334
 20
-21.7489362752
 10
10.919482704
 20
-21.7712166191
 10
10.9046546476
 20
-21.7927528271
 10
10.8887197594
 20
-21.8134859386
 10
10.8717216652
 20
-21.8333591917
 10
10.8537069014
 20
-21.8523181784
 10
10.8347247879
 20
-21.870310994
 10
10.8148272928
 20
-21.8872883786
 10
10.7940688903
 20
-21.9032038526
 10
10.7725064118
 20
-21.9180138434
 10
10.7501988896
 20
-21.931677805
 10
10.7272073962
 20
-21.9441583291
 10
10.7035948764
 20
-21.955421247
 10
10.6794259752
 20
-21.965435724
 10
10.6547668609
 20
-21.9741743428
 10
10.6296850438
 20
-21.9816131793
 10
10.6042491916
 20
-21.987731868
 10
10.5785289411
 20
-21.9925136574
 10
10.5525947078
 20
-21.9959454561
 10
10.526517493
 20
-21.9980178689
 10
10.5003686894
 20
-21.998725222
  0
LINE
  5
4DD
100
AcDbEntity
  8
CURVE
100
AcDbLine
 62
253
  6
CONTINUOUS
 10
-2.4057022276
 20
-16.2039884102
 11
-2.396168335
 21
-16.1968660781
  0
LINE
  5
4DE
100
AcDbEntity
  8
CURVE
100
AcDbLine
 62
253
  6
CONTINUOUS
 10
-2.6946282445
 20
-15.7957498676
 11
-2.7041649326
 21
-15.8028634781
  0
LINE
  5
4DF
100
AcDbEntity
  8
CURVE
100
AcDbLine
 62
253
  6
CONTINUOUS
 10
-2.4155502698
 20
-16.2106418391
 11
-2.4057022276
 21
-16.2039884102
  0
LINE
  5
4E0
100
AcDbEntity
  8
CURVE
100
AcDbLine
 62
253
  6
CONTINUOUS
 10
-2.684777243
 20
-15.789104928
 11
-2.6946282445
 21
-15.7957498676
  0
LINE
  5
4E1
100
AcDbEntity
  8
CURVE
100
AcDbLine
 62
253
  6
CONTINUOUS
 10
-2.4256884641
 20
-16.2168114935
 11
-2.4155502698
 21
-16.2106418391
  0
LINE
  5
4E2
100
AcDbEntity
  8
CURVE
100
AcDbLine
 62
253
  6
CONTINUOUS
 10
-2.6746355702
 20
-15.78294333
 11
-2.684777243
 21
-15.789104928
  0
LINE
  5
4E3
100
AcDbEntity
  8
CURVE
100
AcDbLine
 62
253
  6
CONTINUOUS
 10
-1.5937022228
 20
-15.4442009941
 11
-1.9399345475
 21
-15.6443611738
  0
LINE
  5
4E4
100
AcDbEntity
  8
CURVE
100
AcDbLine
 62
253
  6
CONTINUOUS
 10
-3.1557095463
 20
-16.3464720969
 11
-3.5022863807
 21
-16.5462877668
  0
LINE
  5
4E5
100
AcDbEntity
  8
CURVE
100
AcDbLine
 62
253
  6
CONTINUOUS
 10
-4.429533335
 20
-17.058169103
 11
-4.4106480202
 21
-17.0477504229
  0
LINE
  5
4E6
100
AcDbEntity
  8
CURVE
100
AcDbLine
 62
253
  6
CONTINUOUS
 10
-2.6642266629
 20
-15.777278079
 11
-2.6746355702
 21
-15.78294333
  0
LINE
  5
4E7
100
AcDbEntity
  8
CURVE
100
AcDbLine
 62
253
  6
CONTINUOUS
 10
-4.5404728783
 20
-15.0459537535
 11
-4.5647545293
 21
-15.0583500452
  0
LINE
  5
4E8
100
AcDbEntity
  8
CURVE
100
AcDbLine
 62
253
  6
CONTINUOUS
 10
-4.5164519252
 20
-15.0368976015
 11
-4.5404728783
 21
-15.0459537535
  0
LINE
  5
4E9
100
AcDbEntity
  8
RACCORDO
100
AcDbLine
 62
7
  6
CONTINUOUS
 10
-4.3970741618
 20
-23.7970741618
 11
-4.4
 21
-23.8
  0
LINE
  5
4EA
100
AcDbEntity
  8
0
100
AcDbLine
 62
7
  6
CONTINUOUS
 10
11.15
 20
-8.9650898701
 11
11.1150898701
 21
-9.0
  0
LINE
  5
4EB
100
AcDbEntity
  8
CURVE
100
AcDbLine
 62
253
  6
CONTINUOUS
 10
-2.4360929724
 20
-16.2224841874
 11
-2.4256884641
 21
-16.2168114935
  0
LINE
  5
4EC
100
AcDbEntity
  8
CURVE
100
AcDbLine
 62
253
  6
CONTINUOUS
 10
-2.4467403644
 20
-16.2276483878
 11
-2.4360929724
 21
-16.2224841874
  0
LINE
  5
4ED
100
AcDbEntity
  8
CURVE
100
AcDbLine
 62
253
  6
CONTINUOUS
 10
-2.653573514
 20
-15.7721205567
 11
-2.6642266629
 21
-15.777278079
  0
LINE
  5
4EE
100
AcDbEntity
  8
CURVE
100
AcDbLine
 62
253
  6
CONTINUOUS
 10
-2.4576078396
 20
-16.232294139
 11
-2.4467403644
 21
-16.2276483878
  0
LINE
  5
4EF
100
AcDbEntity
  8
CURVE
100
AcDbLine
 62
253
  6
CONTINUOUS
 10
-2.6426984591
 20
-15.7674806045
 11
-2.653573514
 21
-15.7721205567
  0
LINE
  5
4F0
100
AcDbEntity
  8
CURVE
100
AcDbLine
 62
253
  6
CONTINUOUS
 10
-4.4492438902
 20
-17.0656645022
 11
-4.429533335
 21
-17.058169103
  0
LINE
  5
4F1
100
AcDbEntity
  8
CURVE
100
AcDbLine
 62
253
  6
CONTINUOUS
 10
-2.4686734189
 20
-16.2364129491
 11
-2.4576078396
 21
-16.232294139
  0
LINE
  5
4F2
100
AcDbEntity
  8
CURVE
100
AcDbLine
 62
253
  6
CONTINUOUS
 10
-2.6316229952
 20
-15.7633666425
 11
-2.6426984591
 21
-15.7674806045
  0
LINE
  5
4F3
100
AcDbEntity
  8
CURVE
100
AcDbLine
 62
253
  6
CONTINUOUS
 10
-2.6203676333
 20
-15.7597858169
 11
-2.6316229952
 21
-15.7633666425
  0
LINE
  5
4F4
100
AcDbEntity
  8
0
100
AcDbLine
 62
7
  6
CONTINUOUS
 10
-11.1150898701
 20
13.2
 11
-11.09
 21
13.2
  0
LINE
  5
4F5
100
AcDbEntity
  8
0
100
AcDbLine
 62
7
  6
CONTINUOUS
 10
11.1150898701
 20
13.2
 11
11.09
 21
13.2
  0
LWPOLYLINE
  5
4F6
100
AcDbEntity
  8
0
100
AcDbPolyline
 62
7
  6
CONTINUOUS
 90
10
 70
0
 43
0.3500000006
 10
18.3999999504
 20
0.4285709152
 10
17.5428574791
 20
1.2857133865
 10
16.6857138748
 20
1.5000001373
 10
15.8285714035
 20
1.5000001373
 10
15.4000001678
 20
1.0714289017
 10
15.4000001678
 20
0.4285709152
 10
15.8285714035
 20
-0.0000003204
 10
16.6857138748
 20
-0.0000003204
 10
17.1142862434
 20
0.4285709152
 10
17.1142862434
 20
1.3571423035
  0
LINE
  5
4F7
100
AcDbEntity
  8
RACCORDO
100
AcDbLine
 62
7
  6
CONTINUOUS
 10
-4.3970741618
 20
23.7970741618
 11
-4.4
 21
23.8
  0
LINE
  5
4F8
100
AcDbEntity
  8
0
100
AcDbLine
 62
7
  6
CONTINUOUS
 10
11.15
 20
8.9650898701
 11
11.1150898701
 21
9.0
  0
LINE
  5
4F9
100
AcDbEntity
  8
CURVE
100
AcDbLine
 62
253
  6
CONTINUOUS
 10
-2.4799161018
 20
-16.2399976458
 11
-2.4686734189
 21
-16.2364129491
  0
LWPOLYLINE
  5
4FA
100
AcDbEntity
  8
0
100
AcDbPolyline
 62
7
  6
CONTINUOUS
 90
10
 70
0
 43
0.3500000006
 10
1.0714285848
 20
33.7500009155
 10
1.1428571477
 20
33.6071430817
 10
1.1428571477
 20
33.5357164307
 10
1.0000000219
 20
33.3928585968
 10
0.9285714591
 20
33.3928585968
 10
0.8571428254
 20
33.4642852478
 10
0.8571428254
 20
33.5357164307
 10
0.9285714591
 20
33.6785697327
 10
1.0000000219
 20
33.7500009155
 10
1.0714285848
 20
33.7500009155
  0
LWPOLYLINE
  5
4FB
100
AcDbEntity
  8
0
100
AcDbPolyline
 62
7
  6
CONTINUOUS
 90
3
 70
0
 43
0.3500000006
 10
17.7571430969
 20
-0.8571427917
 10
17.7571430969
 20
-2.3571432495
 10
15.4000001678
 20
-1.7142852631
  0
LINE
  5
4FC
100
AcDbEntity
  8
0
100
AcDbLine
 62
7
  6
CONTINUOUS
 10
11.09
 20
-13.2250898701
 11
11.1150898701
 21
-13.2
  0
LINE
  5
4FD
100
AcDbEntity
  8
RACCORDO
100
AcDbLine
 62
7
  6
CONTINUOUS
 10
-3.9680905905
 20
-23.6400757416
 11
-3.8970826234
 21
-23.5953423515
  0
LINE
  5
4FE
100
AcDbEntity
  8
RACCORDO
100
AcDbLine
 62
7
  6
CONTINUOUS
 10
-3.9965581838
 20
-23.6577812011
 11
-3.9680905905
 21
-23.6400757416
  0
LINE
  5
4FF
100
AcDbEntity
  8
RACCORDO
100
AcDbLine
 62
7
  6
CONTINUOUS
 10
-4.0249483201
 20
23.6751796798
 11
-3.9965581838
 21
23.6577812011
  0
LINE
  5
500
100
AcDbEntity
  8
RACCORDO
100
AcDbLine
 62
7
  6
CONTINUOUS
 10
-3.9965581838
 20
23.6577812011
 11
-3.9538388153
 21
23.6311538461
  0
LINE
  5
501
100
AcDbEntity
  8
RACCORDO
100
AcDbLine
 62
7
  6
CONTINUOUS
 10
-3.9538388153
 20
23.6311538461
 11
-3.8970826234
 21
23.5953423515
  0
LINE
  5
502
100
AcDbEntity
  8
0
100
AcDbLine
 62
7
  6
CONTINUOUS
 10
11.09
 20
13.2250898701
 11
11.1150898701
 21
13.2
  0
LINE
  5
503
100
AcDbEntity
  8
RACCORDO
100
AcDbLine
 62
253
  6
CONTINUOUS
 10
-10.8522865217
 20
20.5555420932
 11
-10.8153721954
 21
20.5570604233
  0
LINE
  5
504
100
AcDbEntity
  8
ASSI
100
AcDbLine
 62
253
  6
CONTINUOUS
 10
-10.8522864928
 20
20.5555420904
 11
-10.8153721673
 21
20.5570604202
  0
LINE
  5
505
100
AcDbEntity
  8
RACCORDO
100
AcDbLine
 62
253
  6
CONTINUOUS
 10
-10.8153721954
 20
20.5570604233
 11
-10.7749056858
 21
20.5584163796
  0
LINE
  5
506
100
AcDbEntity
  8
ASSI
100
AcDbLine
 62
253
  6
CONTINUOUS
 10
-10.8153721673
 20
20.5570604202
 11
-10.7749056595
 21
20.5584163761
  0
LINE
  5
507
100
AcDbEntity
  8
RACCORDO
100
AcDbLine
 62
253
  6
CONTINUOUS
 10
-10.7749056858
 20
20.5584163796
 11
-10.7313205715
 21
20.5595954337
  0
LINE
  5
508
100
AcDbEntity
  8
ASSI
100
AcDbLine
 62
253
  6
CONTINUOUS
 10
-10.7749056595
 20
20.5584163761
 11
-10.7313205481
 21
20.5595954299
  0
LINE
  5
509
100
AcDbEntity
  8
RACCORDO
100
AcDbLine
 62
253
  6
CONTINUOUS
 10
-10.7313205715
 20
20.5595954337
 11
-10.6850838456
 21
20.5605849526
  0
LINE
  5
50A
100
AcDbEntity
  8
ASSI
100
AcDbLine
 62
253
  6
CONTINUOUS
 10
-10.7313205481
 20
20.5595954299
 11
-10.6850838258
 21
20.5605849486
  0
LINE
  5
50B
100
AcDbEntity
  8
RACCORDO
100
AcDbLine
 62
253
  6
CONTINUOUS
 10
-10.6850838456
 20
20.5605849526
 11
-10.6366909117
 21
20.5613743342
  0
LINE
  5
50C
100
AcDbEntity
  8
ASSI
100
AcDbLine
 62
253
  6
CONTINUOUS
 10
-10.6850838258
 20
20.5605849486
 11
-10.6366908962
 21
20.56137433
  0
LINE
  5
50D
100
AcDbEntity
  8
RACCORDO
100
AcDbLine
 62
253
  6
CONTINUOUS
 10
-10.6366909117
 20
20.5613743342
 11
-10.5866602763
 21
20.5619551206
  0
LINE
  5
50E
100
AcDbEntity
  8
ASSI
100
AcDbLine
 62
253
  6
CONTINUOUS
 10
-10.6366908962
 20
20.56137433
 11
-10.5866602657
 21
20.5619551162
  0
LINE
  5
50F
100
AcDbEntity
  8
RACCORDO
100
AcDbLine
 62
253
  6
CONTINUOUS
 10
-10.5866602763
 20
20.5619551206
 11
-10.5355279929
 21
20.5623210889
  0
LINE
  5
510
100
AcDbEntity
  8
ASSI
100
AcDbLine
 62
253
  6
CONTINUOUS
 10
-10.5866602657
 20
20.5619551162
 11
-10.5355279875
 21
20.5623210844
  0
LINE
  5
511
100
AcDbEntity
  8
ASSI
100
AcDbLine
 62
253
  6
CONTINUOUS
 10
-10.5355279875
 20
20.5623210844
 11
10.4838419038
 21
20.5624546348
  0
LINE
  5
512
100
AcDbEntity
  8
RACCORDO
100
AcDbLine
 62
253
  6
CONTINUOUS
 10
10.4838419059
 20
20.5624565036
 11
-10.5355279929
 21
20.5623210889
  0
LINE
  5
513
100
AcDbEntity
  8
RACCORDO
100
AcDbLine
 62
253
  6
CONTINUOUS
 10
10.5611978214
 20
20.5621652632
 11
10.4838419188
 21
20.5624683248
  0
LINE
  5
514
100
AcDbEntity
  8
ASSI
100
AcDbLine
 62
253
  6
CONTINUOUS
 10
10.5611978214
 20
20.5621652632
 11
10.4838419188
 21
20.5624683248
  0
LINE
  5
515
100
AcDbEntity
  8
RACCORDO
100
AcDbLine
 62
253
  6
CONTINUOUS
 10
10.6118471702
 20
20.5616912503
 11
10.5611978214
 21
20.5621652632
  0
LINE
  5
516
100
AcDbEntity
  8
ASSI
100
AcDbLine
 62
253
  6
CONTINUOUS
 10
10.6118471702
 20
20.5616912503
 11
10.5611978214
 21
20.5621652632
  0
LINE
  5
517
100
AcDbEntity
  8
RACCORDO
100
AcDbLine
 62
253
  6
CONTINUOUS
 10
10.6611250053
 20
20.5610052466
 11
10.6118471702
 21
20.5616912503
  0
LINE
  5
518
100
AcDbEntity
  8
ASSI
100
AcDbLine
 62
253
  6
CONTINUOUS
 10
10.6611250053
 20
20.5610052466
 11
10.6118471702
 21
20.5616912503
  0
LINE
  5
519
100
AcDbEntity
  8
RACCORDO
100
AcDbLine
 62
253
  6
CONTINUOUS
 10
10.708503339
 20
20.5601146023
 11
10.6611250053
 21
20.5610052466
  0
LINE
  5
51A
100
AcDbEntity
  8
ASSI
100
AcDbLine
 62
253
  6
CONTINUOUS
 10
10.708503339
 20
20.5601146023
 11
10.6611250053
 21
20.5610052466
  0
LINE
  5
51B
100
AcDbEntity
  8
RACCORDO
100
AcDbLine
 62
253
  6
CONTINUOUS
 10
10.7534745355
 20
20.5590288601
 11
10.708503339
 21
20.5601146023
  0
LINE
  5
51C
100
AcDbEntity
  8
ASSI
100
AcDbLine
 62
253
  6
CONTINUOUS
 10
10.7534745355
 20
20.5590288601
 11
10.708503339
 21
20.5601146023
  0
LINE
  5
51D
100
AcDbEntity
  8
RACCORDO
100
AcDbLine
 62
253
  6
CONTINUOUS
 10
10.7955567505
 20
20.5577596534
 11
10.7534745355
 21
20.5590288601
  0
LINE
  5
51E
100
AcDbEntity
  8
ASSI
100
AcDbLine
 62
253
  6
CONTINUOUS
 10
10.7955567505
 20
20.5577596534
 11
10.7534745355
 21
20.5590288601
  0
LINE
  5
51F
100
AcDbEntity
  8
RACCORDO
100
AcDbLine
 62
253
  6
CONTINUOUS
 10
8.25
 20
-24.2500042308
 11
8.2630985787
 21
-24.2369056521
  0
LINE
  5
520
100
AcDbEntity
  8
RACCORDO
100
AcDbLine
 62
253
  6
CONTINUOUS
 10
8.4999957692
 20
-24.5
 11
8.5130943479
 21
-24.4869014213
  0
LWPOLYLINE
  5
521
100
AcDbEntity
  8
ASSI
100
AcDbPolyline
 62
253
  6
CONTINUOUS
 90
15
 70
0
 10
10.9837657663
 20
-20.5419058565
 10
10.982644509
 20
-20.5429702381
 10
10.9801862499
 20
-20.5440317667
 10
10.976397578
 20
-20.545087597
 10
10.9712886488
 20
-20.5461348988
 10
10.9648731562
 20
-20.547170865
 10
10.9571682964
 20
-20.5481927188
 10
10.9481947219
 20
-20.549197721
 10
10.9379764855
 20
-20.550183178
 10
10.9265409764
 20
-20.5511464482
 10
10.9139188467
 20
-20.5520849498
 10
10.900143929
 20
-20.552996167
 10
10.8852531458
 20
-20.5538776575
 10
10.8692864108
 20
-20.5547270585
 10
10.8522865217
 20
-20.5555420932
  0
LWPOLYLINE
  5
522
100
AcDbEntity
  8
RACCORDO
100
AcDbPolyline
 62
253
  6
CONTINUOUS
 90
15
 70
0
 10
10.9837657663
 20
-20.5419058565
 10
10.9826445049
 20
-20.542970238
 10
10.980186242
 20
-20.5440317664
 10
10.9763975666
 20
-20.5450875965
 10
10.9712886342
 20
-20.5461348981
 10
10.9648731387
 20
-20.5471708641
 10
10.9571682764
 20
-20.5481927177
 10
10.9481946996
 20
-20.5491977197
 10
10.9379764613
 20
-20.5501831765
 10
10.9265409507
 20
-20.5511464465
 10
10.9139188197
 20
-20.5520849478
 10
10.900143901
 20
-20.5529961648
 10
10.8852531173
 20
-20.5538776551
 10
10.869286382
 20
-20.5547270559
 10
10.8522864928
 20
-20.5555420904
  0
LINE
  5
523
100
AcDbEntity
  8
ASSI
100
AcDbLine
 62
7
  6
CONTINUOUS
 10
7.6
 20
22.2689805518
 11
6.9
 21
22.2322951063
  0
LINE
  5
524
100
AcDbEntity
  8
0
100
AcDbLine
 62
7
  6
CONTINUOUS
 10
6.9
 20
22.2322951063
 11
7.6
 21
22.2689805518
  0
LINE
  5
525
100
AcDbEntity
  8
0
100
AcDbLine
 62
7
  6
CONTINUOUS
 10
-4.3
 20
22.2322951063
 11
-3.6
 21
22.2689805518
  0
LINE
  5
526
100
AcDbEntity
  8
ASSI
100
AcDbLine
 62
7
  6
CONTINUOUS
 10
-3.6
 20
22.2689805518
 11
-4.3
 21
22.2322951063
  0
LWPOLYLINE
  5
527
100
AcDbEntity
  8
RACCORDO
100
AcDbPolyline
 62
7
  6
CONTINUOUS
 90
23
 70
0
 10
4.2962073137
 20
23.7953389668
 10
4.2854181903
 20
23.7947915649
 10
4.2743307281
 20
23.793363895
 10
4.2629449272
 20
23.7911364879
 10
4.2512361469
 20
23.7881978965
 10
4.239229028
 20
23.7846238716
 10
4.226997492
 20
23.7804595132
 10
4.2145487518
 20
23.7757643703
 10
4.2018755946
 20
23.7706018097
 10
4.1890303044
 20
23.7649953104
 10
4.1760171723
 20
23.758990232
 10
4.1628319072
 20
23.7526365647
 10
4.1495139203
 20
23.7459460582
 10
4.1360654333
 20
23.7389542831
 10
4.1224842244
 20
23.7317013921
 10
4.1088030396
 20
23.724193673
 10
4.0950229279
 20
23.7164601879
 10
4.0811428402
 20
23.708533951
 10
4.0671923756
 20
23.7004191901
 10
4.053171775
 20
23.6921405291
 10
4.0390807976
 20
23.6837259593
 10
4.0249483201
 20
23.6751796798
 10
3.9965581838
 20
23.6577812011
  0
LINE
  5
528
100
AcDbEntity
  8
ASSI
100
AcDbLine
 62
253
  6
CONTINUOUS
 10
-10.5003688946
 20
21.9987258379
 11
10.5003688946
 21
21.9987258379
  0
LINE
  5
529
100
AcDbEntity
  8
RACCORDO
100
AcDbLine
 62
253
  6
CONTINUOUS
 10
10.500368927
 20
21.9987259353
 11
-10.500368927
 21
21.9987259353
  0
LINE
  5
52A
100
AcDbEntity
  8
0
100
AcDbLine
 62
7
  6
CONTINUOUS
 10
-6.9
 20
22.2322951063
 11
-4.3
 21
22.2322951063
  0
LINE
  5
52B
100
AcDbEntity
  8
ASSI
100
AcDbLine
 62
7
  6
CONTINUOUS
 10
6.9
 20
22.2322951063
 11
4.3
 21
22.2322951063
  0
LINE
  5
52C
100
AcDbEntity
  8
0
100
AcDbLine
 62
7
  6
CONTINUOUS
 10
4.3
 20
22.2322951063
 11
6.9
 21
22.2322951063
  0
LINE
  5
52D
100
AcDbEntity
  8
ASSI
100
AcDbLine
 62
7
  6
CONTINUOUS
 10
-4.3
 20
22.2322951063
 11
-6.9
 21
22.2322951063
  0
LINE
  5
52E
100
AcDbEntity
  8
ASSI
100
AcDbLine
 62
7
  6
CONTINUOUS
 10
-10.5903805997
 20
22.2689805518
 11
-7.6
 21
22.2689805518
  0
LINE
  5
52F
100
AcDbEntity
  8
RACCORDO
100
AcDbLine
 62
7
  6
CONTINUOUS
 10
10.6292574245
 20
22.2689805518
 11
7.5
 21
22.2689805518
  0
LINE
  5
530
100
AcDbEntity
  8
ASSI
100
AcDbLine
 62
7
  6
CONTINUOUS
 10
-3.6
 20
22.2689805518
 11
3.6
 21
22.2689805518
  0
LINE
  5
531
100
AcDbEntity
  8
0
100
AcDbLine
 62
7
  6
CONTINUOUS
 10
-7.5
 20
22.2689805518
 11
7.5
 21
22.2689805518
  0
LINE
  5
532
100
AcDbEntity
  8
ASSI
100
AcDbLine
 62
7
  6
CONTINUOUS
 10
7.6
 20
22.2689805518
 11
10.5903805997
 21
22.2689805518
  0
LINE
  5
533
100
AcDbEntity
  8
RACCORDO
100
AcDbLine
 62
7
  6
CONTINUOUS
 10
-7.5
 20
22.2689805518
 11
-10.6292574245
 21
22.2689805518
  0
LINE
  5
534
100
AcDbEntity
  8
RACCORDO
100
AcDbLine
 62
7
  6
CONTINUOUS
 10
-10.3927234819
 20
22.3213883311
 11
-8.5072765181
 21
22.3213883311
  0
LINE
  5
535
100
AcDbEntity
  8
RACCORDO
100
AcDbLine
 62
7
  6
CONTINUOUS
 10
8.5072765181
 20
22.3213883311
 11
10.3927234819
 21
22.3213883311
  0
LINE
  5
536
100
AcDbEntity
  8
RACCORDO
100
AcDbLine
 62
7
  6
CONTINUOUS
 10
3.8970826234
 20
22.3475922207
 11
-3.8970826234
 21
22.3475922207
  0
LINE
  5
537
100
AcDbEntity
  8
RACCORDO
100
AcDbLine
 62
7
  6
CONTINUOUS
 10
10.6724047959
 20
22.4
 11
10.65
 21
22.4
  0
LINE
  5
538
100
AcDbEntity
  8
DRAFT
100
AcDbLine
 62
7
  6
CONTINUOUS
 10
8.25
 20
22.4
 11
4.4
 21
22.4
  0
LINE
  5
539
100
AcDbEntity
  8
DRAFT
100
AcDbLine
 62
7
  6
CONTINUOUS
 10
-4.4
 20
22.4
 11
-8.25
 21
22.4
  0
LINE
  5
53A
100
AcDbEntity
  8
RACCORDO
100
AcDbLine
 62
7
  6
CONTINUOUS
 10
-10.65
 20
22.4
 11
-10.6724047959
 21
22.4
  0
LINE
  5
53B
100
AcDbEntity
  8
RACCORDO
100
AcDbLine
 62
7
  6
CONTINUOUS
 10
-10.3927234819
 20
23.1226497308
 11
-8.5072765181
 21
23.1226497308
  0
LINE
  5
53C
100
AcDbEntity
  8
RACCORDO
100
AcDbLine
 62
7
  6
CONTINUOUS
 10
8.5072765181
 20
23.1226497308
 11
10.3927234819
 21
23.1226497308
  0
LWPOLYLINE
  5
53D
100
AcDbEntity
  8
RACCORDO
100
AcDbPolyline
 62
7
  6
CONTINUOUS
 90
22
 70
0
 10
-4.2962073137
 20
23.7953389668
 10
-4.2854181903
 20
23.7947915649
 10
-4.2743307281
 20
23.793363895
 10
-4.2629449272
 20
23.7911364879
 10
-4.2512361469
 20
23.7881978965
 10
-4.239229028
 20
23.7846238716
 10
-4.226997492
 20
23.7804595132
 10
-4.2145487518
 20
23.7757643703
 10
-4.2018755946
 20
23.7706018097
 10
-4.1890303044
 20
23.7649953104
 10
-4.1760171723
 20
23.758990232
 10
-4.1628319072
 20
23.7526365647
 10
-4.1495139203
 20
23.7459460582
 10
-4.1360654333
 20
23.7389542831
 10
-4.1224842244
 20
23.7317013921
 10
-4.1088030396
 20
23.724193673
 10
-4.0950229279
 20
23.7164601879
 10
-4.0811428402
 20
23.708533951
 10
-4.0671923756
 20
23.7004191901
 10
-4.053171775
 20
23.6921405291
 10
-4.0390807976
 20
23.6837259593
 10
-4.0249483201
 20
23.6751796798
  0
LINE
  5
53E
100
AcDbEntity
  8
0
100
AcDbLine
 62
7
  6
CONTINUOUS
 10
-7.6
 20
22.2689805518
 11
-6.9
 21
22.2322951063
  0
LINE
  5
53F
100
AcDbEntity
  8
ASSI
100
AcDbLine
 62
7
  6
CONTINUOUS
 10
-6.9
 20
22.2322951063
 11
-7.6
 21
22.2689805518
  0
LINE
  5
540
100
AcDbEntity
  8
ASSI
100
AcDbLine
 62
7
  6
CONTINUOUS
 10
4.3
 20
22.2322951063
 11
3.6
 21
22.2689805518
  0
LINE
  5
541
100
AcDbEntity
  8
0
100
AcDbLine
 62
7
  6
CONTINUOUS
 10
3.6
 20
22.2689805518
 11
4.3
 21
22.2322951063
  0
LWPOLYLINE
  5
542
100
AcDbEntity
  8
RACCORDO
100
AcDbPolyline
 62
253
  6
CONTINUOUS
 90
17
 70
0
 10
10.9837657663
 20
20.5419058565
 10
10.982644516
 20
20.5429702383
 10
10.9801862633
 20
20.5440317672
 10
10.9763975974
 20
20.5450875977
 10
10.9712886735
 20
20.5461348998
 10
10.9648731857
 20
20.5471708662
 10
10.9571683303
 20
20.5481927202
 10
10.9481947596
 20
20.5491977228
 10
10.9379765264
 20
20.55018318
 10
10.92654102
 20
20.5511464505
 10
10.9139188924
 20
20.5520849524
 10
10.9001439763
 20
20.5529961699
 10
10.8852531942
 20
20.5538776607
 10
10.8692864598
 20
20.5547270619
 10
10.8522865706
 20
20.5555420969
 10
10.8342990937
 20
20.556320581
 10
10.7955567505
 20
20.5577596534
  0
LWPOLYLINE
  5
543
100
AcDbEntity
  8
ASSI
100
AcDbPolyline
 62
253
  6
CONTINUOUS
 90
17
 70
0
 10
10.9837657663
 20
20.5419058565
 10
10.982644516
 20
20.5429702383
 10
10.9801862633
 20
20.5440317672
 10
10.9763975973
 20
20.5450875977
 10
10.9712886735
 20
20.5461348998
 10
10.9648731857
 20
20.5471708662
 10
10.9571683303
 20
20.5481927202
 10
10.9481947595
 20
20.5491977228
 10
10.9379765264
 20
20.55018318
 10
10.92654102
 20
20.5511464505
 10
10.9139188924
 20
20.5520849524
 10
10.9001439762
 20
20.5529961699
 10
10.8852531941
 20
20.5538776607
 10
10.8692864597
 20
20.5547270619
 10
10.8522865706
 20
20.5555420969
 10
10.8342990936
 20
20.556320581
 10
10.7955567505
 20
20.5577596534
  0
LINE
  5
544
100
AcDbEntity
  8
RACCORDO
100
AcDbLine
 62
253
  6
CONTINUOUS
 10
8.25
 20
24.2500042308
 11
8.2630985787
 21
24.2369056521
  0
LINE
  5
545
100
AcDbEntity
  8
RACCORDO
100
AcDbLine
 62
253
  6
CONTINUOUS
 10
8.4999957692
 20
24.5
 11
8.5130943479
 21
24.4869014213
  0
LINE
  5
546
100
AcDbEntity
  8
RACCORDO
100
AcDbLine
 62
253
  6
CONTINUOUS
 10
11.1325800446
 20
-21.9398948703
 11
11.15
 21
-21.9311855559
  0
LINE
  5
547
100
AcDbEntity
  8
RACCORDO
100
AcDbLine
 62
7
  6
CONTINUOUS
 10
10.8781368764
 20
-22.3514471107
 11
10.8956356419
 21
-22.3426983943
  0
LWPOLYLINE
  5
548
100
AcDbEntity
  8
RACCORDO
100
AcDbPolyline
 62
7
  6
CONTINUOUS
 90
11
 70
0
 10
10.8781358696
 20
-22.3514476141
 10
10.8636662667
 20
-22.3583692267
 10
10.8435417088
 20
-22.3669953998
 10
10.8230308823
 20
-22.3746537028
 10
10.8021808394
 20
-22.3813267495
 10
10.7810476923
 20
-22.3869974846
 10
10.7596707202
 20
-22.391656261
 10
10.7380719098
 20
-22.395296553
 10
10.7162907806
 20
-22.3979074049
 10
10.6943851815
 20
-22.3994776137
 10
10.6724047959
 20
-22.4
  0
LWPOLYLINE
  5
549
100
AcDbEntity
  8
RACCORDO
100
AcDbPolyline
 62
253
  6
CONTINUOUS
 90
31
 70
0
 10
8.5130943479
 20
24.4869014213
 10
8.5000079938
 20
24.4865582323
 10
8.4869574955
 20
24.4855304893
 10
8.4739786381
 20
24.4838210061
 10
8.4611069984
 20
24.4814344634
 10
8.4483778845
 20
24.4783774023
 10
8.435826237
 20
24.4746582128
 10
8.4234864809
 20
24.4702870977
 10
8.4113924437
 20
24.4652760422
 10
8.3995772981
 20
24.4596387939
 10
8.3880734423
 20
24.4533908148
 10
8.3769124163
 20
24.446549239
 10
8.366124826
 20
24.4391328321
 10
8.3557402367
 20
24.4311619239
 10
8.3457871333
 20
24.4226583824
 10
8.3362928401
 20
24.4136455633
 10
8.3272834183
 20
24.4041482289
 10
8.3187835214
 20
24.3941923917
 10
8.3108163791
 20
24.3838052658
 10
8.3034037491
 20
24.3730151866
 10
8.2965660673
 20
24.3618518682
 10
8.2903222656
 20
24.3503462678
 10
8.284689517
 20
24.3385301896
 10
8.2796830871
 20
24.3264358334
 10
8.275316536
 20
24.3140960295
 10
8.2716010963
 20
24.3015418449
 10
8.2685479829
 20
24.2888103798
 10
8.2661668528
 20
24.275944661
 10
8.2644632485
 20
24.2629828864
 10
8.2634399859
 20
24.249957992
 10
8.2630985787
 20
24.2369056521
  0
LWPOLYLINE
  5
54A
100
AcDbEntity
  8
RACCORDO
100
AcDbPolyline
 62
253
  6
CONTINUOUS
 90
31
 70
0
 10
-10.3869056521
 20
24.4869014213
 10
-10.3999891381
 20
24.4865583827
 10
-10.4130367647
 20
24.4855310928
 10
-10.4260127708
 20
24.4838223673
 10
-10.4388815916
 20
24.4814368893
 10
-10.4516079562
 20
24.4783811971
 10
-10.4641569839
 20
24.4746636657
 10
-10.4764942801
 20
24.4702944842
 10
-10.4885860308
 20
24.4652856277
 10
-10.5003990946
 20
24.4596508246
 10
-10.5119010942
 20
24.4534055187
 10
-10.5230605047
 20
24.4465668272
 10
-10.5338467403
 20
24.4391534939
 10
-10.5442302379
 20
24.4311858371
 10
-10.5541825384
 20
24.4226856948
 10
-10.5636763643
 20
24.4136763643
 10
-10.5726856948
 20
24.4041825384
 10
-10.5811858371
 20
24.3942302379
 10
-10.5891534939
 20
24.3838467403
 10
-10.5965668272
 20
24.3730605047
 10
-10.6034055187
 20
24.3619010942
 10
-10.6096508246
 20
24.3503990946
 10
-10.6152856277
 20
24.3385860308
 10
-10.6202944842
 20
24.3264942801
 10
-10.6246636657
 20
24.3141569839
 10
-10.6283811971
 20
24.3016079562
 10
-10.6314368893
 20
24.2888815916
 10
-10.6338223673
 20
24.2760127708
 10
-10.6355310928
 20
24.2630367647
 10
-10.6365583827
 20
24.2499891381
 10
-10.6369014213
 20
24.2369056521
  0
LWPOLYLINE
  5
54B
100
AcDbEntity
  8
RACCORDO
100
AcDbPolyline
 62
7
  6
CONTINUOUS
 90
34
 70
0
 10
8.4999957692
 20
24.5
 10
8.488100484
 20
24.4997168498
 10
8.4762321444
 20
24.4988680342
 10
8.4644176339
 20
24.4974554741
 10
8.4526837125
 20
24.4954823677
 10
8.4410569612
 20
24.4929531817
 10
8.429563721
 20
24.4898736417
 10
8.4182300262
 20
24.4862507213
 10
8.4070815507
 20
24.4820926258
 10
8.3961435537
 20
24.4774087722
 10
8.3854408124
 20
24.4722097688
 10
8.3749975717
 20
24.4665073916
 10
8.3648374941
 20
24.4603145581
 10
8.3549835949
 20
24.4536452955
 10
8.3454581962
 20
24.4465147107
 10
8.3362828809
 20
24.4389389589
 10
8.3274784339
 20
24.4309352005
 10
8.3190647995
 20
24.4225215661
 10
8.3110610411
 20
24.4137171191
 10
8.3034852893
 20
24.4045418038
 10
8.2963547045
 20
24.3950164051
 10
8.2896854419
 20
24.3851625059
 10
8.2834926084
 20
24.3750024283
 10
8.2777902312
 20
24.3645591876
 10
8.2725912278
 20
24.3538564463
 10
8.2679073742
 20
24.3429184493
 10
8.2637492787
 20
24.3317699738
 10
8.2601263583
 20
24.320436279
 10
8.2570468183
 20
24.3089430388
 10
8.2545176323
 20
24.2973162875
 10
8.2525445259
 20
24.2855823661
 10
8.2511319658
 20
24.2737678556
 10
8.2502831502
 20
24.261899516
 10
8.25
 20
24.2500042308
  0
LWPOLYLINE
  5
54C
100
AcDbEntity
  8
RACCORDO
100
AcDbPolyline
 62
7
  6
CONTINUOUS
 90
34
 70
0
 10
-10.4000042308
 20
24.5
 10
-10.411899516
 20
24.4997168498
 10
-10.4237678556
 20
24.4988680342
 10
-10.4355823661
 20
24.4974554741
 10
-10.4473162875
 20
24.4954823677
 10
-10.4589430388
 20
24.4929531817
 10
-10.470436279
 20
24.4898736417
 10
-10.4817699738
 20
24.4862507213
 10
-10.4929184493
 20
24.4820926258
 10
-10.5038564463
 20
24.4774087722
 10
-10.5145591876
 20
24.4722097688
 10
-10.5250024283
 20
24.4665073916
 10
-10.5351625059
 20
24.4603145581
 10
-10.5450164051
 20
24.4536452955
 10
-10.5545418038
 20
24.4465147107
 10
-10.5637171191
 20
24.4389389589
 10
-10.5725215661
 20
24.4309352005
 10
-10.5809352005
 20
24.4225215661
 10
-10.5889389589
 20
24.4137171191
 10
-10.5965147107
 20
24.4045418038
 10
-10.6036452955
 20
24.3950164051
 10
-10.6103145581
 20
24.3851625059
 10
-10.6165073916
 20
24.3750024283
 10
-10.6222097688
 20
24.3645591876
 10
-10.6274087722
 20
24.3538564463
 10
-10.6320926258
 20
24.3429184493
 10
-10.6362507213
 20
24.3317699738
 10
-10.6398736417
 20
24.320436279
 10
-10.6429531817
 20
24.3089430388
 10
-10.6454823677
 20
24.2973162875
 10
-10.6474554741
 20
24.2855823661
 10
-10.6488680342
 20
24.2737678556
 10
-10.6497168498
 20
24.261899516
 10
-10.65
 20
24.2500042308
  0
LINE
  5
54D
100
AcDbEntity
  8
RACCORDO
100
AcDbLine
 62
253
  6
CONTINUOUS
 10
3.8970826234
 20
23.5953423515
 11
-3.8970826234
 21
23.5953423515
  0
LINE
  5
54E
100
AcDbEntity
  8
RACCORDO
100
AcDbLine
 62
253
  6
CONTINUOUS
 10
-10.3869056521
 20
23.6278312164
 11
-8.5130943479
 21
23.6278312164
  0
LINE
  5
54F
100
AcDbEntity
  8
RACCORDO
100
AcDbLine
 62
253
  6
CONTINUOUS
 10
8.5130943479
 20
23.6278312164
 11
10.3869056521
 21
23.6278312164
  0
LINE
  5
550
100
AcDbEntity
  8
RACCORDO
100
AcDbLine
 62
253
  6
CONTINUOUS
 10
4.2962073137
 20
23.7953389668
 11
-4.2962073137
 21
23.7953389668
  0
LINE
  5
551
100
AcDbEntity
  8
DRAFT
100
AcDbLine
 62
7
  6
CONTINUOUS
 10
-4.4
 20
23.8
 11
4.4
 21
23.8
  0
LINE
  5
552
100
AcDbEntity
  8
RACCORDO
100
AcDbLine
 62
253
  6
CONTINUOUS
 10
8.2630985787
 20
23.8443375673
 11
10.6369014213
 21
23.8443375673
  0
LINE
  5
553
100
AcDbEntity
  8
RACCORDO
100
AcDbLine
 62
253
  6
CONTINUOUS
 10
-8.2630985787
 20
23.8443375673
 11
-10.6369014213
 21
23.8443375673
  0
LINE
  5
554
100
AcDbEntity
  8
RACCORDO
100
AcDbLine
 62
253
  6
CONTINUOUS
 10
8.2630985787
 20
24.2369056521
 11
10.6369014213
 21
24.2369056521
  0
LINE
  5
555
100
AcDbEntity
  8
RACCORDO
100
AcDbLine
 62
253
  6
CONTINUOUS
 10
-8.2630985787
 20
24.2369056521
 11
-10.6369014213
 21
24.2369056521
  0
LINE
  5
556
100
AcDbEntity
  8
RACCORDO
100
AcDbLine
 62
253
  6
CONTINUOUS
 10
10.3869056521
 20
24.4869014213
 11
8.5130943479
 21
24.4869014213
  0
LINE
  5
557
100
AcDbEntity
  8
RACCORDO
100
AcDbLine
 62
253
  6
CONTINUOUS
 10
-8.5130943479
 20
24.4869014213
 11
-10.3869056521
 21
24.4869014213
  0
LINE
  5
558
100
AcDbEntity
  8
RACCORDO
100
AcDbLine
 62
7
  6
CONTINUOUS
 10
-10.4000042308
 20
24.5
 11
-8.4999957692
 21
24.5
  0
LINE
  5
559
100
AcDbEntity
  8
RACCORDO
100
AcDbLine
 62
7
  6
CONTINUOUS
 10
8.4999957692
 20
24.5
 11
10.4000042308
 21
24.5
  0
LWPOLYLINE
  5
55A
100
AcDbEntity
  8
0
100
AcDbPolyline
 62
7
  6
CONTINUOUS
 90
7
 70
0
 43
0.3500000006
 10
-0.4285714127
 20
33.2500007629
 10
-1.9285714102
 20
33.2500007629
 10
-0.4285714127
 20
35.3928592072
 10
-0.4285714127
 20
35.8214281769
 10
-0.8571428254
 20
36.2500016785
 10
-1.5000000329
 20
36.2500016785
 10
-1.9285714102
 20
35.607143692
  0
LWPOLYLINE
  5
55B
100
AcDbEntity
  8
0
100
AcDbPolyline
 62
7
  6
CONTINUOUS
 90
6
 70
0
 43
0.3500000006
 10
2.1428571696
 20
33.2500007629
 10
3.2142856836
 20
33.2500007629
 10
3.4285713015
 20
33.4642852478
 10
3.4285713015
 20
34.535712204
 10
3.0000000658
 20
34.9642857056
 10
2.5714285469
 20
34.9642857056
  0
LWPOLYLINE
  5
55C
100
AcDbEntity
  8
0
100
AcDbPolyline
 62
7
  6
CONTINUOUS
 90
7
 70
0
 43
0.3500000006
 10
-2.7857141647
 20
33.2500007629
 10
-4.2857143393
 20
33.2500007629
 10
-2.7857141647
 20
35.3928592072
 10
-2.7857141647
 20
35.8214281769
 10
-3.2142856836
 20
36.2500016785
 10
-3.8571428204
 20
36.2500016785
 10
-4.2857143393
 20
35.607143692
  0
LWPOLYLINE
  5
55D
100
AcDbEntity
  8
RACCORDO
100
AcDbPolyline
 62
7
  6
CONTINUOUS
 90
11
 70
0
 10
10.8781376822
 20
22.3514467217
 10
10.8637546227
 20
22.3583288271
 10
10.8436362165
 20
22.3669574975
 10
10.8231289654
 20
22.374619709
 10
10.8022786984
 20
22.3812979667
 10
10.7811237332
 20
22.3869789767
 10
10.7597205444
 20
22.3916466126
 10
10.7381440172
 20
22.3952861536
 10
10.7164524121
 20
22.3978919436
 10
10.6946863527
 20
22.3994632509
 10
10.6728950868
 20
22.4
  0
LINE
  5
55E
100
AcDbEntity
  8
RACCORDO
100
AcDbLine
 62
253
  6
CONTINUOUS
 10
11.15
 20
21.9311855559
 11
11.1325800446
 21
21.9398948703
  0
LINE
  5
55F
100
AcDbEntity
  8
RACCORDO
100
AcDbLine
 62
7
  6
CONTINUOUS
 10
10.8956356419
 20
22.3426983943
 11
10.8781368745
 21
22.3514471117
  0
LWPOLYLINE
  5
560
100
AcDbEntity
  8
0
100
AcDbPolyline
 62
7
  6
CONTINUOUS
 90
3
 70
0
 43
0.3500000006
 10
-62.0448163605
 20
45.3928577271
 10
-61.1876738892
 20
46.2500001984
 10
-61.1876738892
 20
43.2499992828
  0
LWPOLYLINE
  5
561
100
AcDbEntity
  8
RACCORDO
100
AcDbPolyline
 62
7
  6
CONTINUOUS
 90
5
 70
0
 10
-79.7537802809
 20
23.1259025536
 10
-79.7560964054
 20
23.1245164325
 10
-79.7577592896
 20
23.1234933505
 10
-79.7587653231
 20
23.1228641607
 10
-79.7591026603
 20
23.1226497308
  0
LINE
  5
562
100
AcDbEntity
  8
RACCORDO
100
AcDbLine
 62
7
  6
CONTINUOUS
 10
-79.7431725965
 20
23.1321470947
 11
-79.7537802809
 21
23.1259025536
  0
LINE
  5
563
100
AcDbEntity
  8
RACCORDO
100
AcDbLine
 62
253
  6
CONTINUOUS
 10
-78.2591026603
 20
23.4104851482
 11
-77.5076482275
 21
23.8443375673
  0
LINE
  5
564
100
AcDbEntity
  8
RACCORDO
100
AcDbLine
 62
7
  6
CONTINUOUS
 10
-78.2591026603
 20
23.1226497308
 11
-77.3841026603
 21
23.6278312164
  0
LINE
  5
565
100
AcDbEntity
  8
RACCORDO
100
AcDbLine
 62
7
  6
CONTINUOUS
 10
-79.5214021294
 20
23.260745719
 11
-79.7431725965
 21
23.1321470947
  0
LINE
  5
566
100
AcDbEntity
  8
RACCORDO
100
AcDbLine
 62
7
  6
CONTINUOUS
 10
-79.5105570931
 20
23.2669872981
 11
-79.5214021294
 21
23.260745719
  0
LINE
  5
567
100
AcDbEntity
  8
RACCORDO
100
AcDbLine
 62
253
  6
CONTINUOUS
 10
-77.5076482275
 20
-23.8443375673
 11
-78.2591026603
 21
-23.4104851482
  0
LINE
  5
568
100
AcDbEntity
  8
RACCORDO
100
AcDbLine
 62
7
  6
CONTINUOUS
 10
-77.3841026603
 20
-23.6278312164
 11
-78.2591026603
 21
-23.1226497308
  0
LINE
  5
569
100
AcDbEntity
  8
RACCORDO
100
AcDbLine
 62
7
  6
CONTINUOUS
 10
-79.5105570931
 20
-23.2669872981
 11
-79.6751272437
 21
-23.1717664006
  0
LINE
  5
56A
100
AcDbEntity
  8
RACCORDO
100
AcDbLine
 62
7
  6
CONTINUOUS
 10
-79.6751272437
 20
-23.1717664006
 11
-79.7508086624
 21
-23.1276610792
  0
LWPOLYLINE
  5
56B
100
AcDbEntity
  8
RACCORDO
100
AcDbPolyline
 62
7
  6
CONTINUOUS
 90
4
 70
0
 10
-79.7508086624
 20
-23.1276610792
 10
-79.7577517854
 20
-23.123528707
 10
-79.7587631559
 20
-23.1229033082
 10
-79.7591026603
 20
-23.1226497308
  0
LWPOLYLINE
  5
56C
100
AcDbEntity
  8
ASSI
100
AcDbPolyline
 62
253
  6
CONTINUOUS
 90
43
 70
0
 10
-86.84525783
 20
-20.5419058565
 10
-86.8431857232
 20
-20.577077117
 10
-86.8398907531
 20
-20.6120705919
 10
-86.8353729197
 20
-20.6468862811
 10
-86.8296236258
 20
-20.6815675447
 10
-86.8226514686
 20
-20.7160710226
 10
-86.8144822397
 20
-20.7502666346
 10
-86.8051114606
 20
-20.7841526742
 10
-86.7945436098
 20
-20.817730848
 10
-86.7828179139
 20
-20.850876196
 10
-86.7699301375
 20
-20.8835868481
 10
-86.7558845159
 20
-20.9158646744
 10
-86.740732982
 20
-20.9475903258
 10
-86.7244714397
 20
-20.9787618027
 10
-86.7071039852
 20
-21.0093811047
 10
-86.6886948392
 20
-21.0393348818
 10
-86.6692400729
 20
-21.0686207527
 10
-86.6487436151
 20
-21.0972410987
 10
-86.6272814738
 20
-21.1250897137
 10
-86.6048501098
 20
-21.1521636633
 10
-86.5814530622
 20
-21.1784658819
 10
-86.5571769561
 20
-21.2038989668
 10
-86.5320185407
 20
-21.2284596955
 10
-86.5059810667
 20
-21.2521512905
 10
-86.4791609117
 20
-21.2748860173
 10
-86.4515551045
 20
-21.296660373
 10
-86.4231666163
 20
-21.3174778606
 10
-86.3941007381
 20
-21.3372612546
 10
-86.3643550229
 20
-21.3560066657
 10
-86.3339319177
 20
-21.3737179831
 10
-86.3029440547
 20
-21.3903296489
 10
-86.2713893889
 20
-21.405837588
 10
-86.2392699653
 20
-21.4202458754
 10
-86.2067045509
 20
-21.4335011781
 10
-86.1736912189
 20
-21.4455992743
 10
-86.1402318962
 20
-21.4565443857
 10
-86.1064511305
 20
-21.4662958448
 10
-86.0723469399
 20
-21.474849211
 10
-86.0379213063
 20
-21.482208925
 10
-86.0033047236
 20
-21.4883476408
 10
-85.9685406896
 20
-21.4932562434
 10
-85.9335857065
 20
-21.496943848
 10
-85.8984397743
 20
-21.4994104546
  0
LWPOLYLINE
  5
56D
100
AcDbEntity
  8
RACCORDO
100
AcDbPolyline
 62
253
  6
CONTINUOUS
 90
43
 70
0
 10
-86.84525783
 20
-20.5419058565
 10
-86.8431860704
 20
-20.5770742623
 10
-86.8398914259
 20
-20.6120655562
 10
-86.8353738966
 20
-20.646879738
 10
-86.82962487
 20
-20.6815603898
 10
-86.8226529585
 20
-20.7160639297
 10
-86.8144839994
 20
-20.7502596119
 10
-86.8051135342
 20
-20.784145508
 10
-86.7945460214
 20
-20.8177235464
 10
-86.7828206738
 20
-20.8508687671
 10
-86.7699332514
 20
-20.8835792953
 10
-86.7558879942
 20
-20.9158570058
 10
-86.7407368356
 20
-20.9475825616
 10
-86.7244756801
 20
-20.9787539689
 10
-86.7071086233
 20
-21.0093732216
 10
-86.6886998849
 20
-21.0393269652
 10
-86.6692455477
 20
-21.068612804
 10
-86.648749529
 20
-21.0972331336
 10
-86.6272877999
 20
-21.1250817866
 10
-86.6048568203
 20
-21.152155839
 10
-86.5814601303
 20
-21.1784582149
 10
-86.557184321
 20
-21.2038915185
 10
-86.532026128
 20
-21.2284525411
 10
-86.5059888156
 20
-21.2521444916
 10
-86.4791687682
 20
-21.2748796014
 10
-86.4515630041
 20
-21.2966543686
 10
-86.4231745049
 20
-21.3174722952
 10
-86.3941086
 20
-21.3372561184
 10
-86.3643628566
 20
-21.3560019372
 10
-86.3339397073
 20
-21.3737136526
 10
-86.3029517798
 20
-21.3903257057
 10
-86.2713970235
 20
-21.405834021
 10
-86.2392774888
 20
-21.4202426741
 10
-86.2067119551
 20
-21.4334983322
 10
-86.1736984997
 20
-21.4455967784
 10
-86.1402390453
 20
-21.4565422297
 10
-86.1064581391
 20
-21.4662940046
 10
-86.0723540204
 20
-21.4748476404
 10
-86.0379284499
 20
-21.4822075998
 10
-86.003311257
 20
-21.4883465902
 10
-85.9685457184
 20
-21.493255514
 10
-85.9335885575
 20
-21.4969434688
 10
-85.8984397743
 20
-21.4994104546
  0
LWPOLYLINE
  5
56E
100
AcDbEntity
  8
RACCORDO
100
AcDbPolyline
 62
253
  6
CONTINUOUS
 90
5
 70
0
 10
-80.6316075633
 20
23.6326756587
 10
-80.6327397156
 20
23.6305852658
 10
-80.633534241
 20
23.6290785857
 10
-80.6339889698
 20
23.6281597328
 10
-80.6341026603
 20
23.6278312164
  0
LINE
  5
56F
100
AcDbEntity
  8
RACCORDO
100
AcDbLine
 62
253
  6
CONTINUOUS
 10
-80.6283436581
 20
23.6385831707
 11
-80.6316075633
 21
23.6326756587
  0
LINE
  5
570
100
AcDbEntity
  8
RACCORDO
100
AcDbLine
 62
253
  6
CONTINUOUS
 10
-80.6210223336
 20
23.6516287232
 11
-80.6283436581
 21
23.6385831707
  0
LINE
  5
571
100
AcDbEntity
  8
RACCORDO
100
AcDbLine
 62
253
  6
CONTINUOUS
 10
-80.5983896796
 20
23.6914666374
 11
-80.6210223336
 21
23.6516287232
  0
LINE
  5
572
100
AcDbEntity
  8
RACCORDO
100
AcDbLine
 62
253
  6
CONTINUOUS
 10
-80.5235907187
 20
23.8217481519
 11
-80.5983896796
 21
23.6914666374
  0
LINE
  5
573
100
AcDbEntity
  8
RACCORDO
100
AcDbLine
 62
253
  6
CONTINUOUS
 10
-80.5105570931
 20
23.8443375673
 11
-80.5235907187
 21
23.8217481519
  0
LINE
  5
574
100
AcDbEntity
  8
RACCORDO
100
AcDbLine
 62
253
  6
CONTINUOUS
 10
-80.5105570931
 20
-23.8443375673
 11
-80.5727441075
 21
-23.7362866999
  0
LINE
  5
575
100
AcDbEntity
  8
RACCORDO
100
AcDbLine
 62
253
  6
CONTINUOUS
 10
-80.5727441075
 20
-23.7362866999
 11
-80.614598151
 21
-23.6629839239
  0
LINE
  5
576
100
AcDbEntity
  8
RACCORDO
100
AcDbLine
 62
253
  6
CONTINUOUS
 10
-80.614598151
 20
-23.6629839239
 11
-80.6262192298
 21
-23.6423869945
  0
LWPOLYLINE
  5
577
100
AcDbEntity
  8
RACCORDO
100
AcDbPolyline
 62
253
  6
CONTINUOUS
 90
7
 70
0
 10
-80.6262192298
 20
-23.6423869945
 10
-80.630140083
 20
-23.6353454907
 10
-80.6316070578
 20
-23.6326765842
 10
-80.6327394339
 20
-23.6305857918
 10
-80.6335341194
 20
-23.6290788219
 10
-80.6339889422
 20
-23.6281597935
 10
-80.6341026603
 20
-23.6278312164
  0
LWPOLYLINE
  5
578
100
AcDbEntity
  8
RACCORDO
100
AcDbPolyline
 62
253
  6
CONTINUOUS
 90
10
 70
0
 10
-85.9169813039
 20
-21.9441583291
 10
-85.9171594103
 20
-21.955421247
 10
-85.9172623771
 20
-21.965435724
 10
-85.9172899222
 20
-21.9741743428
 10
-85.9172419704
 20
-21.9816131793
 10
-85.9171186528
 20
-21.987731868
 10
-85.9169203071
 20
-21.9925136574
 10
-85.9166474764
 20
-21.9959454561
 10
-85.9163009074
 20
-21.9980178689
 10
-85.9158815492
 20
-21.998725222
  0
LWPOLYLINE
  5
579
100
AcDbEntity
  8
ASSI
100
AcDbPolyline
 62
253
  6
CONTINUOUS
 90
10
 70
0
 10
-85.9169813039
 20
-21.9441583291
 10
-85.9171594103
 20
-21.955421247
 10
-85.9172623771
 20
-21.965435724
 10
-85.9172899222
 20
-21.9741743428
 10
-85.9172419704
 20
-21.9816131793
 10
-85.9171186528
 20
-21.987731868
 10
-85.9169203071
 20
-21.9925136574
 10
-85.9166474764
 20
-21.9959454561
 10
-85.9163009074
 20
-21.9980178689
 10
-85.9158815492
 20
-21.998725222
  0
LWPOLYLINE
  5
57A
100
AcDbEntity
  8
RACCORDO
100
AcDbPolyline
 62
253
  6
CONTINUOUS
 90
22
 70
0
 10
-86.84525783
 20
20.5419058565
 10
-86.9219074264
 20
18.5864348511
 10
-86.9908936517
 20
16.6307385957
 10
-87.052216506
 20
14.6748170904
 10
-87.1058766954
 20
12.7186402992
 10
-87.1518735137
 20
10.7622382581
 10
-87.1902048425
 20
8.8057010749
 10
-87.2208703287
 20
6.8490287537
 10
-87.2438703255
 20
4.8922212904
 10
-87.2592037741
 20
2.9353687809
 10
-87.2668703219
 20
0.9784712263
 10
-87.2668703216
 20
-0.9784713745
 10
-87.2592037733
 20
-2.9353689289
 10
-87.243870324
 20
-4.8922214382
 10
-87.2208703267
 20
-6.8490289012
 10
-87.1902048399
 20
-8.8057012222
 10
-87.1518735103
 20
-10.7622384105
 10
-87.1058766912
 20
-12.7186404567
 10
-87.0522165018
 20
-14.6748172369
 10
-86.9908936483
 20
-16.6307387095
 10
-86.9219074243
 20
-18.5864349161
 10
-86.84525783
 20
-20.5419058565
  0
LWPOLYLINE
  5
57B
100
AcDbEntity
  8
ASSI
100
AcDbPolyline
 62
253
  6
CONTINUOUS
 90
22
 70
0
 10
-86.84525783
 20
20.5419058565
 10
-86.9219074243
 20
18.5864349161
 10
-86.9908936483
 20
16.6307387095
 10
-87.0522165018
 20
14.6748172369
 10
-87.1058766912
 20
12.7186404567
 10
-87.1518735103
 20
10.7622384105
 10
-87.1902048399
 20
8.8057012222
 10
-87.2208703267
 20
6.8490289012
 10
-87.243870324
 20
4.8922214382
 10
-87.2592037733
 20
2.9353689289
 10
-87.2668703216
 20
0.9784713745
 10
-87.2668703219
 20
-0.9784712263
 10
-87.2592037741
 20
-2.9353687809
 10
-87.2438703255
 20
-4.8922212904
 10
-87.2208703287
 20
-6.8490287537
 10
-87.1902048425
 20
-8.8057010749
 10
-87.1518735137
 20
-10.7622382581
 10
-87.1058766954
 20
-12.7186402992
 10
-87.052216506
 20
-14.6748170904
 10
-86.9908936517
 20
-16.6307385957
 10
-86.9219074264
 20
-18.5864348511
 10
-86.84525783
 20
-20.5419058565
  0
LINE
  5
57C
100
AcDbEntity
  8
RACCORDO
100
AcDbLine
 62
7
  6
CONTINUOUS
 10
-77.5076482275
 20
-24.495628166
 11
-78.2591026603
 21
-24.5
  0
LINE
  5
57D
100
AcDbEntity
  8
RACCORDO
100
AcDbLine
 62
253
  6
CONTINUOUS
 10
-77.5076482275
 20
-24.2456323968
 11
-78.2591026603
 21
-24.2500042308
  0
LINE
  5
57E
100
AcDbEntity
  8
ASSI
100
AcDbLine
 62
7
  6
CONTINUOUS
 10
-77.264193752
 20
-23.7942117893
 11
-70.7561937946
 21
-23.7563493531
  0
LINE
  5
57F
100
AcDbEntity
  8
RACCORDO
100
AcDbLine
 62
253
  6
CONTINUOUS
 10
-77.2591026603
 20
-24.2456323968
 11
-77.5076482275
 21
-24.2456323968
  0
LINE
  5
580
100
AcDbEntity
  8
RACCORDO
100
AcDbLine
 62
253
  6
CONTINUOUS
 10
-80.7591026603
 20
-24.2369056521
 11
-80.5105570931
 21
-24.2369056521
  0
LINE
  5
581
100
AcDbEntity
  8
RACCORDO
100
AcDbLine
 62
253
  6
CONTINUOUS
 10
-80.7591026603
 20
-23.8443375673
 11
-80.5105570931
 21
-23.8443375673
  0
LINE
  5
582
100
AcDbEntity
  8
RACCORDO
100
AcDbLine
 62
253
  6
CONTINUOUS
 10
-77.2591026603
 20
-23.8443375673
 11
-77.5076482275
 21
-23.8443375673
  0
LINE
  5
583
100
AcDbEntity
  8
RACCORDO
100
AcDbLine
 62
7
  6
CONTINUOUS
 10
-78.2591026603
 20
-24.5
 11
-80.5105570931
 21
-24.4869014213
  0
LINE
  5
584
100
AcDbEntity
  8
RACCORDO
100
AcDbLine
 62
253
  6
CONTINUOUS
 10
-78.2591026603
 20
-24.2500042308
 11
-80.5105570931
 21
-24.2369056521
  0
LINE
  5
585
100
AcDbEntity
  8
RACCORDO
100
AcDbLine
 62
253
  6
CONTINUOUS
 10
-85.8984397743
 20
21.4994104546
 11
-85.9036851626
 21
21.6031643599
  0
LINE
  5
586
100
AcDbEntity
  8
ASSI
100
AcDbLine
 62
253
  6
CONTINUOUS
 10
-85.8984397743
 20
21.4994104546
 11
-85.9036851632
 21
21.6031643743
  0
LINE
  5
587
100
AcDbEntity
  8
RACCORDO
100
AcDbLine
 62
253
  6
CONTINUOUS
 10
-85.9036851626
 20
21.6031643599
 11
-85.9083206334
 21
21.7023889878
  0
LINE
  5
588
100
AcDbEntity
  8
ASSI
100
AcDbLine
 62
253
  6
CONTINUOUS
 10
-85.9036851632
 20
21.6031643743
 11
-85.9083206344
 21
21.7023890106
  0
LINE
  5
589
100
AcDbEntity
  8
RACCORDO
100
AcDbLine
 62
253
  6
CONTINUOUS
 10
-85.9083206334
 20
21.7023889878
 11
-85.9112739889
 21
21.7712165612
  0
LINE
  5
58A
100
AcDbEntity
  8
ASSI
100
AcDbLine
 62
253
  6
CONTINUOUS
 10
-85.9083206344
 20
21.7023890106
 11
-85.9112739898
 21
21.7712165858
  0
LINE
  5
58B
100
AcDbEntity
  8
RACCORDO
100
AcDbLine
 62
253
  6
CONTINUOUS
 10
-85.9112739889
 20
21.7712165612
 11
-85.9136970715
 21
21.8333591381
  0
LINE
  5
58C
100
AcDbEntity
  8
ASSI
100
AcDbLine
 62
253
  6
CONTINUOUS
 10
-85.9112739898
 20
21.7712165858
 11
-85.9136970723
 21
21.833359161
  0
LINE
  5
58D
100
AcDbEntity
  8
RACCORDO
100
AcDbLine
 62
253
  6
CONTINUOUS
 10
-85.9136970715
 20
21.8333591381
 11
-85.9155302861
 21
21.8872883354
  0
LINE
  5
58E
100
AcDbEntity
  8
ASSI
100
AcDbLine
 62
253
  6
CONTINUOUS
 10
-85.9136970723
 20
21.833359161
 11
-85.9155302866
 21
21.887288354
  0
LINE
  5
58F
100
AcDbEntity
  8
RACCORDO
100
AcDbLine
 62
253
  6
CONTINUOUS
 10
-85.9155302861
 20
21.8872883354
 11
-85.9164018262
 21
21.918013809
  0
LINE
  5
590
100
AcDbEntity
  8
ASSI
100
AcDbLine
 62
253
  6
CONTINUOUS
 10
-85.9155302866
 20
21.887288354
 11
-85.9164018265
 21
21.9180138238
  0
LWPOLYLINE
  5
591
100
AcDbEntity
  8
RACCORDO
100
AcDbPolyline
 62
253
  6
CONTINUOUS
 90
11
 70
0
 10
-85.9164018262
 20
21.918013809
 10
-85.9169813037
 20
21.9441583041
 10
-85.9171594103
 20
21.9554212266
 10
-85.9172623772
 20
21.9654357079
 10
-85.9172899225
 20
21.9741743306
 10
-85.9172419707
 20
21.9816131707
 10
-85.9171186532
 20
21.9877318623
 10
-85.9169203075
 20
21.9925136541
 10
-85.9166474766
 20
21.9959454547
 10
-85.9163009076
 20
21.9980178685
 10
-85.9158815492
 20
21.998725222
  0
LWPOLYLINE
  5
592
100
AcDbEntity
  8
ASSI
100
AcDbPolyline
 62
253
  6
CONTINUOUS
 90
11
 70
0
 10
-85.9164018265
 20
21.9180138238
 10
-85.9169813039
 20
21.9441583148
 10
-85.9171594104
 20
21.9554212354
 10
-85.9172623773
 20
21.9654357148
 10
-85.9172899225
 20
21.9741743359
 10
-85.9172419706
 20
21.9816131744
 10
-85.9171186531
 20
21.9877318648
 10
-85.9169203074
 20
21.9925136555
 10
-85.9166474765
 20
21.9959454553
 10
-85.9163009075
 20
21.9980178687
 10
-85.9158815492
 20
21.998725222
  0
LINE
  5
593
100
AcDbEntity
  8
RACCORDO
100
AcDbLine
 62
253
  6
CONTINUOUS
 10
-85.9164018267
 20
-21.9180138434
 11
-85.9169813039
 21
-21.9441583291
  0
LINE
  5
594
100
AcDbEntity
  8
ASSI
100
AcDbLine
 62
253
  6
CONTINUOUS
 10
-85.9164018267
 20
-21.9180138434
 11
-85.9169813039
 21
-21.9441583291
  0
LINE
  5
595
100
AcDbEntity
  8
RACCORDO
100
AcDbLine
 62
253
  6
CONTINUOUS
 10
-85.915530287
 20
-21.8872883786
 11
-85.9164018267
 21
-21.9180138434
  0
LINE
  5
596
100
AcDbEntity
  8
ASSI
100
AcDbLine
 62
253
  6
CONTINUOUS
 10
-85.915530287
 20
-21.8872883786
 11
-85.9164018267
 21
-21.9180138434
  0
LINE
  5
597
100
AcDbEntity
  8
RACCORDO
100
AcDbLine
 62
253
  6
CONTINUOUS
 10
-85.9136970731
 20
-21.8333591917
 11
-85.915530287
 21
-21.8872883786
  0
LINE
  5
598
100
AcDbEntity
  8
ASSI
100
AcDbLine
 62
253
  6
CONTINUOUS
 10
-85.9136970731
 20
-21.8333591917
 11
-85.915530287
 21
-21.8872883786
  0
LINE
  5
599
100
AcDbEntity
  8
RACCORDO
100
AcDbLine
 62
253
  6
CONTINUOUS
 10
-85.9103451238
 20
-21.7489362752
 11
-85.9136970731
 21
-21.8333591917
  0
LINE
  5
59A
100
AcDbEntity
  8
ASSI
100
AcDbLine
 62
253
  6
CONTINUOUS
 10
-85.9103451238
 20
-21.7489362752
 11
-85.9136970731
 21
-21.8333591917
  0
LINE
  5
59B
100
AcDbEntity
  8
RACCORDO
100
AcDbLine
 62
253
  6
CONTINUOUS
 10
-85.9049096441
 20
-21.6285692569
 11
-85.9103451238
 21
-21.7489362752
  0
LINE
  5
59C
100
AcDbEntity
  8
ASSI
100
AcDbLine
 62
253
  6
CONTINUOUS
 10
-85.9049096441
 20
-21.6285692569
 11
-85.9103451238
 21
-21.7489362752
  0
LINE
  5
59D
100
AcDbEntity
  8
RACCORDO
100
AcDbLine
 62
253
  6
CONTINUOUS
 10
-85.8984397743
 20
-21.4994104546
 11
-85.9049096441
 21
-21.6285692569
  0
LINE
  5
59E
100
AcDbEntity
  8
ASSI
100
AcDbLine
 62
253
  6
CONTINUOUS
 10
-85.8984397743
 20
-21.4994104546
 11
-85.9049096441
 21
-21.6285692569
  0
LINE
  5
59F
100
AcDbEntity
  8
RACCORDO
100
AcDbLine
 62
7
  6
CONTINUOUS
 10
-68.2503761248
 20
-22.3126551668
 11
-78.2591026603
 21
-22.4
  0
LINE
  5
5A0
100
AcDbEntity
  8
RACCORDO
100
AcDbLine
 62
253
  6
CONTINUOUS
 10
-78.2570912376
 20
-21.9398948703
 11
-77.2591026603
 21
-21.9311855559
  0
LINE
  5
5A1
100
AcDbEntity
  8
0
100
AcDbLine
 62
7
  6
CONTINUOUS
 10
-80.7591026603
 20
-22.2689805518
 11
-81.3591026603
 21
-22.2689805518
  0
LINE
  5
5A2
100
AcDbEntity
  8
RACCORDO
100
AcDbLine
 62
7
  6
CONTINUOUS
 10
-67.2591026603
 20
-20.9959955457
 11
-77.0593159001
 21
-20.9104703804
  0
LINE
  5
5A3
100
AcDbEntity
  8
RACCORDO
100
AcDbLine
 62
7
  6
CONTINUOUS
 10
-67.7503764571
 20
-21.5659754333
 11
-77.2591026603
 21
-21.4
  0
LINE
  5
5A4
100
AcDbEntity
  8
ASSI
100
AcDbLine
 62
7
  6
CONTINUOUS
 10
-85.9158679384
 20
-21.9987259353
 11
-80.7591026603
 21
-22.2689805518
  0
LINE
  5
5A5
100
AcDbEntity
  8
RACCORDO
100
AcDbLine
 62
7
  6
CONTINUOUS
 10
-85.9158697966
 20
-21.9987258379
 11
-78.2591026603
 21
-22.4
  0
LINE
  5
5A6
100
AcDbEntity
  8
RACCORDO
100
AcDbLine
 62
253
  6
CONTINUOUS
 10
-80.7591026603
 20
-21.8087700079
 11
-78.2570912376
 21
-21.9398948703
  0
LINE
  5
5A7
100
AcDbEntity
  8
RACCORDO
100
AcDbLine
 62
253
  6
CONTINUOUS
 10
-85.8984397743
 20
-21.4994104546
 11
-80.7591026603
 21
-21.7687516997
  0
LINE
  5
5A8
100
AcDbEntity
  8
ASSI
100
AcDbLine
 62
253
  6
CONTINUOUS
 10
-85.8984397743
 20
-21.4994104546
 11
-80.7591026603
 21
-21.7687516997
  0
LINE
  5
5A9
100
AcDbEntity
  8
DRAFT
100
AcDbLine
 62
7
  6
CONTINUOUS
 10
-77.0593159001
 20
-20.9104703804
 11
-77.2591026603
 21
-20.9
  0
LWPOLYLINE
  5
5AA
100
AcDbEntity
  8
RACCORDO
100
AcDbPolyline
 62
253
  6
CONTINUOUS
 90
7
 70
0
 10
-80.5105570931
 20
-24.4869014213
 10
-80.5106312307
 20
-24.4865582323
 10
-80.510701177
 20
-24.4855304893
 10
-80.5107667403
 20
-24.4838210061
 10
-80.5108277409
 20
-24.4814344634
 10
-80.5108840112
 20
-24.4783774023
 10
-80.5109353969
 20
-24.4746582128
  0
LINE
  5
5AB
100
AcDbEntity
  8
0
100
AcDbLine
 62
7
  6
CONTINUOUS
 10
-80.5510243579
 20
-13.2225505771
 11
-80.5537712204
 21
-13.1964159264
  0
LINE
  5
5AC
100
AcDbEntity
  8
0
100
AcDbLine
 62
7
  6
CONTINUOUS
 10
-80.7297889553
 20
-13.2256709248
 11
-80.7317509466
 21
-13.1995225741
  0
LINE
  5
5AD
100
AcDbEntity
  8
0
100
AcDbLine
 62
7
  6
CONTINUOUS
 10
-81.3591026603
 20
-22.2689805518
 11
-81.3591026603
 21
-22.2375358842
  0
LINE
  5
5AE
100
AcDbEntity
  8
0
100
AcDbLine
 62
7
  6
CONTINUOUS
 10
-81.3591026603
 20
22.2375358842
 11
-81.3591026603
 21
22.2689805518
  0
LINE
  5
5AF
100
AcDbEntity
  8
0
100
AcDbLine
 62
7
  6
CONTINUOUS
 10
-80.5537712204
 20
13.1964159264
 11
-80.5510243579
 21
13.2225505771
  0
LINE
  5
5B0
100
AcDbEntity
  8
CURVE
100
AcDbLine
 62
7
  6
CONTINUOUS
 10
-72.8591026603
 20
17.0
 11
-75.7582203592
 21
15.991935
  0
LINE
  5
5B1
100
AcDbEntity
  8
CURVE
100
AcDbLine
 62
7
  6
CONTINUOUS
 10
-73.4735544496
 20
16.164584
 11
-72.8591026603
 21
16.373574
  0
LINE
  5
5B2
100
AcDbEntity
  8
CURVE
100
AcDbLine
 62
7
  6
CONTINUOUS
 10
-75.2040651988
 20
15.606449
 11
-73.9553406593
 21
16.007869
  0
LINE
  5
5B3
100
AcDbEntity
  8
RACCORDO
100
AcDbLine
 62
253
  6
CONTINUOUS
 10
-87.3354395834
 20
-20.5624221952
 11
-87.3361083578
 21
-20.5624683135
  0
LINE
  5
5B4
100
AcDbEntity
  8
ASSI
100
AcDbLine
 62
253
  6
CONTINUOUS
 10
-87.3354396934
 20
-20.5624221997
 11
-87.336108468
 21
-20.562468318
  0
LINE
  5
5B5
100
AcDbEntity
  8
RACCORDO
100
AcDbLine
 62
253
  6
CONTINUOUS
 10
-87.3300955579
 20
-20.5621652522
 11
-87.3354395834
 21
-20.5624221952
  0
LINE
  5
5B6
100
AcDbEntity
  8
ASSI
100
AcDbLine
 62
253
  6
CONTINUOUS
 10
-87.3300956663
 20
-20.5621652566
 11
-87.3354396934
 21
-20.5624221997
  0
LINE
  5
5B7
100
AcDbEntity
  8
RACCORDO
100
AcDbLine
 62
253
  6
CONTINUOUS
 10
-87.0455608225
 20
-20.5501831765
 11
-87.3300955579
 21
-20.5621652522
  0
LINE
  5
5B8
100
AcDbEntity
  8
ASSI
100
AcDbLine
 62
253
  6
CONTINUOUS
 10
-87.0455608608
 20
-20.550183178
 11
-87.3300956663
 21
-20.5621652566
  0
LWPOLYLINE
  5
5B9
100
AcDbEntity
  8
RACCORDO
100
AcDbPolyline
 62
253
  6
CONTINUOUS
 90
5
 70
0
 10
-86.84525783
 20
-20.5419058565
 10
-86.8710980176
 20
-20.542970238
 10
-86.8968455522
 20
-20.5440317664
 10
-86.9224314193
 20
-20.5450875965
 10
-87.0455608225
 20
-20.5501831765
  0
LWPOLYLINE
  5
5BA
100
AcDbEntity
  8
ASSI
100
AcDbPolyline
 62
253
  6
CONTINUOUS
 90
5
 70
0
 10
-86.84525783
 20
-20.5419058565
 10
-86.8710980219
 20
-20.5429702381
 10
-86.896845561
 20
-20.5440317667
 10
-86.9224314328
 20
-20.545087597
 10
-87.0455608608
 20
-20.550183178
  0
LINE
  5
5BB
100
AcDbEntity
  8
RACCORDO
100
AcDbLine
 62
7
  6
CONTINUOUS
 10
-69.2591026603
 20
-19.3458892987
 11
-66.5538669384
 21
-19.2986692336
  0
LINE
  5
5BC
100
AcDbEntity
  8
0
100
AcDbLine
 62
7
  6
CONTINUOUS
 10
-69.2591026603
 20
-19.3458892987
 11
-66.5538669384
 21
-19.2986692336
  0
LINE
  5
5BD
100
AcDbEntity
  8
RACCORDO
100
AcDbLine
 62
253
  6
CONTINUOUS
 10
-68.1126560509
 20
-19.0295350787
 11
-66.4055492697
 21
-18.999737419
  0
LINE
  5
5BE
100
AcDbEntity
  8
0
100
AcDbLine
 62
253
  6
CONTINUOUS
 10
-68.1126560509
 20
-19.0295350787
 11
-66.4055492697
 21
-18.999737419
  0
LINE
  5
5BF
100
AcDbEntity
  8
RACCORDO
100
AcDbLine
 62
253
  6
CONTINUOUS
 10
-69.2591026603
 20
-19.0458436003
 11
-68.4662094415
 21
-19.0320035977
  0
LINE
  5
5C0
100
AcDbEntity
  8
0
100
AcDbLine
 62
253
  6
CONTINUOUS
 10
-69.2591026603
 20
-19.0458436003
 11
-68.4662094415
 21
-19.0320035977
  0
LINE
  5
5C1
100
AcDbEntity
  8
RACCORDO
100
AcDbLine
 62
253
  6
CONTINUOUS
 10
-77.2591026603
 20
-19.0856972195
 11
-70.2591026603
 21
-19.0350863471
  0
LINE
  5
5C2
100
AcDbEntity
  8
0
100
AcDbLine
 62
253
  6
CONTINUOUS
 10
-77.2591026603
 20
-19.0856972195
 11
-70.2591026603
 21
-19.0350863471
  0
LINE
  5
5C3
100
AcDbEntity
  8
RACCORDO
100
AcDbLine
 62
253
  6
CONTINUOUS
 10
-68.4662094415
 20
-19.0320035977
 11
-68.1126560509
 21
-19.0295350787
  0
LINE
  5
5C4
100
AcDbEntity
  8
0
100
AcDbLine
 62
253
  6
CONTINUOUS
 10
-68.4662094415
 20
-19.0320035977
 11
-68.1126560509
 21
-19.0295350787
  0
LINE
  5
5C5
100
AcDbEntity
  8
RACCORDO
100
AcDbLine
 62
253
  6
CONTINUOUS
 10
-66.4055492697
 20
-18.999737419
 11
-66.2591026603
 21
-18.998714925
  0
LINE
  5
5C6
100
AcDbEntity
  8
0
100
AcDbLine
 62
253
  6
CONTINUOUS
 10
-66.4055492697
 20
-18.999737419
 11
-66.2591026603
 21
-18.998714925
  0
LINE
  5
5C7
100
AcDbEntity
  8
DRAFT
100
AcDbLine
 62
7
  6
CONTINUOUS
 10
-77.2591026603
 20
-20.85
 11
-70.2591026603
 21
-20.85
  0
LINE
  5
5C8
100
AcDbEntity
  8
0
100
AcDbLine
 62
7
  6
CONTINUOUS
 10
-77.2591026603
 20
-20.85
 11
-69.2591026603
 21
-20.85
  0
LINE
  5
5C9
100
AcDbEntity
  8
ASSI
100
AcDbLine
 62
7
  6
CONTINUOUS
 10
-38.2591026603
 20
-19.6
 11
-69.2591026603
 21
-19.6
  0
LINE
  5
5CA
100
AcDbEntity
  8
ASSI
100
AcDbLine
 62
253
  6
CONTINUOUS
 10
-42.2541700426
 20
-18.89
 11
-66.2591026603
 21
-18.89
  0
LINE
  5
5CB
100
AcDbEntity
  8
0
100
AcDbLine
 62
7
  6
CONTINUOUS
 10
-67.0091026603
 20
-18.6
 11
-62.0091026603
 21
-18.6
  0
LINE
  5
5CC
100
AcDbEntity
  8
ASSI
100
AcDbLine
 62
7
  6
CONTINUOUS
 10
-62.0091026603
 20
-18.6
 11
-56.5091026603
 21
-18.6
  0
LINE
  5
5CD
100
AcDbEntity
  8
0
100
AcDbLine
 62
7
  6
CONTINUOUS
 10
-56.5091026603
 20
-18.6
 11
-51.5091026603
 21
-18.6
  0
LINE
  5
5CE
100
AcDbEntity
  8
ASSI
100
AcDbLine
 62
7
  6
CONTINUOUS
 10
-51.5091026603
 20
-18.6
 11
-46.0091026603
 21
-18.6
  0
LINE
  5
5CF
100
AcDbEntity
  8
0
100
AcDbLine
 62
7
  6
CONTINUOUS
 10
-46.0091026603
 20
-18.6
 11
-41.0091026603
 21
-18.6
  0
LINE
  5
5D0
100
AcDbEntity
  8
RACCORDO
100
AcDbLine
 62
253
  6
CONTINUOUS
 10
-40.4163765212
 20
-19.2830135809
 11
-40.0671863984
 21
-19.2842325153
  0
LINE
  5
5D1
100
AcDbEntity
  8
ASSI
100
AcDbLine
 62
253
  6
CONTINUOUS
 10
-40.4163765212
 20
-19.2830135809
 11
-40.0671863984
 21
-19.2842325153
  0
LINE
  5
5D2
100
AcDbEntity
  8
RACCORDO
100
AcDbLine
 62
253
  6
CONTINUOUS
 10
-42.2541700426
 20
-19.267742212
 11
-42.1077234332
 21
-19.26825342
  0
LINE
  5
5D3
100
AcDbEntity
  8
ASSI
100
AcDbLine
 62
253
  6
CONTINUOUS
 10
-42.2541700426
 20
-19.267742212
 11
-42.1077234332
 21
-19.26825342
  0
LINE
  5
5D4
100
AcDbEntity
  8
RACCORDO
100
AcDbLine
 62
7
  6
CONTINUOUS
 10
-67.457939114
 20
-19.7570215015
 11
-69.2591026603
 21
-19.7465426385
  0
LINE
  5
5D5
100
AcDbEntity
  8
RACCORDO
100
AcDbLine
 62
7
  6
CONTINUOUS
 10
-41.9567880032
 20
-19.5677307889
 11
-36.7591026603
 21
-19.6130903017
  0
LINE
  5
5D6
100
AcDbEntity
  8
ASSI
100
AcDbLine
 62
7
  6
CONTINUOUS
 10
-41.9567880032
 20
-19.5677307889
 11
-36.7591026603
 21
-19.6130903017
  0
LINE
  5
5D7
100
AcDbEntity
  8
RACCORDO
100
AcDbLine
 62
253
  6
CONTINUOUS
 10
-42.1077234332
 20
-19.26825342
 11
-40.4163765212
 21
-19.2830135809
  0
LINE
  5
5D8
100
AcDbEntity
  8
ASSI
100
AcDbLine
 62
253
  6
CONTINUOUS
 10
-42.1077234332
 20
-19.26825342
 11
-40.4163765212
 21
-19.2830135809
  0
LINE
  5
5D9
100
AcDbEntity
  8
RACCORDO
100
AcDbLine
 62
253
  6
CONTINUOUS
 10
-40.0671863984
 20
-19.2842325153
 11
-36.7591026603
 21
-19.3131017248
  0
LINE
  5
5DA
100
AcDbEntity
  8
ASSI
100
AcDbLine
 62
253
  6
CONTINUOUS
 10
-40.0671863984
 20
-19.2842325153
 11
-36.7591026603
 21
-19.3131017248
  0
LINE
  5
5DB
100
AcDbEntity
  8
0
100
AcDbLine
 62
7
  6
CONTINUOUS
 10
-69.0962039572
 20
-18.2560210044
 11
-69.2611467739
 21
-18.2179409547
  0
LINE
  5
5DC
100
AcDbEntity
  8
CURVE
100
AcDbLine
 62
253
  6
CONTINUOUS
 10
-71.674239117
 20
-17.0
 11
-71.8599251064
 21
-16.8235714207
  0
LWPOLYLINE
  5
5DD
100
AcDbEntity
  8
RACCORDO
100
AcDbPolyline
 62
7
  6
CONTINUOUS
 90
10
 70
0
 10
-78.2615284757
 20
-22.3583692267
 10
-78.2613651354
 20
-22.3669953998
 10
-78.2611745711
 20
-22.3746537028
 10
-78.2609561786
 20
-22.3813267495
 10
-78.2607107174
 20
-22.3869974846
 10
-78.2604393262
 20
-22.391656261
 10
-78.2601419754
 20
-22.395296553
 10
-78.2598192937
 20
-22.3979074049
 10
-78.2594725454
 20
-22.3994776137
 10
-78.2591026603
 20
-22.4
  0
LINE
  5
5DE
100
AcDbEntity
  8
RACCORDO
100
AcDbLine
 62
7
  6
CONTINUOUS
 10
-78.2617692196
 20
-22.3382930704
 11
-78.2615284757
 21
-22.3583692267
  0
LINE
  5
5DF
100
AcDbEntity
  8
RACCORDO
100
AcDbLine
 62
253
  6
CONTINUOUS
 10
-80.5109353969
 20
-24.4746582128
 11
-80.5110589067
 21
-24.4596387939
  0
LINE
  5
5E0
100
AcDbEntity
  8
RACCORDO
100
AcDbLine
 62
253
  6
CONTINUOUS
 10
-80.5105570931
 20
24.2369056521
 11
-80.5110588393
 21
24.3503990946
  0
LINE
  5
5E1
100
AcDbEntity
  8
RACCORDO
100
AcDbLine
 62
253
  6
CONTINUOUS
 10
-80.5110589067
 20
-24.4596387939
 11
-80.511156703
 21
-24.4226583824
  0
LINE
  5
5E2
100
AcDbEntity
  8
RACCORDO
100
AcDbLine
 62
7
  6
CONTINUOUS
 10
-80.7591026603
 20
-24.2369056521
 11
-80.7591026603
 21
-23.8443375673
  0
LINE
  5
5E3
100
AcDbEntity
  8
ASSI
100
AcDbLine
 62
7
  6
CONTINUOUS
 10
-80.7591026603
 20
21.8635181777
 11
-80.7591026603
 21
-21.8635181777
  0
LINE
  5
5E4
100
AcDbEntity
  8
RACCORDO
100
AcDbLine
 62
7
  6
CONTINUOUS
 10
-80.7591026603
 20
-22.2689805518
 11
-80.7591026603
 21
-13.2
  0
LINE
  5
5E5
100
AcDbEntity
  8
0
100
AcDbLine
 62
7
  6
CONTINUOUS
 10
-80.7591026603
 20
-13.2
 11
-80.7591026603
 21
13.2
  0
LINE
  5
5E6
100
AcDbEntity
  8
RACCORDO
100
AcDbLine
 62
7
  6
CONTINUOUS
 10
-80.7591026603
 20
13.2
 11
-80.7591026603
 21
22.2689805518
  0
LINE
  5
5E7
100
AcDbEntity
  8
RACCORDO
100
AcDbLine
 62
7
  6
CONTINUOUS
 10
-80.7591026603
 20
23.8443375673
 11
-80.7591026603
 21
24.2369056521
  0
LINE
  5
5E8
100
AcDbEntity
  8
RACCORDO
100
AcDbLine
 62
253
  6
CONTINUOUS
 10
-80.5105570931
 20
-24.2369056521
 11
-80.5105570931
 21
-23.8443375673
  0
LINE
  5
5E9
100
AcDbEntity
  8
RACCORDO
100
AcDbLine
 62
253
  6
CONTINUOUS
 10
-80.5105570931
 20
23.8443375673
 11
-80.5105570931
 21
24.2369056521
  0
LINE
  5
5EA
100
AcDbEntity
  8
0
100
AcDbLine
 62
7
  6
CONTINUOUS
 10
-79.9591026603
 20
13.2122185454
 11
-79.9591026603
 21
13.1860359481
  0
LINE
  5
5EB
100
AcDbEntity
  8
0
100
AcDbLine
 62
7
  6
CONTINUOUS
 10
-79.9591026603
 20
9.0139640519
 11
-79.9591026603
 21
8.9877814546
  0
LINE
  5
5EC
100
AcDbEntity
  8
0
100
AcDbLine
 62
7
  6
CONTINUOUS
 10
-79.9591026603
 20
-8.9877814546
 11
-79.9591026603
 21
-9.0139640519
  0
LINE
  5
5ED
100
AcDbEntity
  8
0
100
AcDbLine
 62
7
  6
CONTINUOUS
 10
-79.9591026603
 20
-13.1860359481
 11
-79.9591026603
 21
-13.2122185454
  0
LINE
  5
5EE
100
AcDbEntity
  8
RACCORDO
100
AcDbLine
 62
7
  6
CONTINUOUS
 10
-79.7591026603
 20
23.1226497308
 11
-79.7591026603
 21
22.3213883311
  0
LINE
  5
5EF
100
AcDbEntity
  8
RACCORDO
100
AcDbLine
 62
7
  6
CONTINUOUS
 10
-79.7591026603
 20
-22.3213883311
 11
-79.7591026603
 21
-23.1226497308
  0
LINE
  5
5F0
100
AcDbEntity
  8
RACCORDO
100
AcDbLine
 62
253
  6
CONTINUOUS
 10
-79.5105570931
 20
23.2669872981
 11
-79.5105570931
 21
22.3344140523
  0
LINE
  5
5F1
100
AcDbEntity
  8
RACCORDO
100
AcDbLine
 62
253
  6
CONTINUOUS
 10
-79.5105570931
 20
-22.3344140523
 11
-79.5105570931
 21
-23.2669872981
  0
LINE
  5
5F2
100
AcDbEntity
  8
0
100
AcDbLine
 62
7
  6
CONTINUOUS
 10
-79.2591026603
 20
-13.2
 11
-79.2591026603
 21
-13.1738174026
  0
LINE
  5
5F3
100
AcDbEntity
  8
0
100
AcDbLine
 62
7
  6
CONTINUOUS
 10
-79.2591026603
 20
-9.0261825974
 11
-79.2591026603
 21
-9.0
  0
LINE
  5
5F4
100
AcDbEntity
  8
0
100
AcDbLine
 62
7
  6
CONTINUOUS
 10
-79.2591026603
 20
9.0
 11
-79.2591026603
 21
9.0261825974
  0
LINE
  5
5F5
100
AcDbEntity
  8
0
100
AcDbLine
 62
7
  6
CONTINUOUS
 10
-79.2591026603
 20
13.1738174026
 11
-79.2591026603
 21
13.2
  0
LINE
  5
5F6
100
AcDbEntity
  8
RACCORDO
100
AcDbLine
 62
253
  6
CONTINUOUS
 10
-78.7056867857
 20
13.1641574926
 11
-78.7056867857
 21
9.0358425074
  0
LINE
  5
5F7
100
AcDbEntity
  8
RACCORDO
100
AcDbLine
 62
253
  6
CONTINUOUS
 10
-78.7056867857
 20
-9.0358425074
 11
-78.7056867857
 21
-13.1641574926
  0
LINE
  5
5F8
100
AcDbEntity
  8
ASSI
100
AcDbLine
 62
253
  6
CONTINUOUS
 10
-78.7056867857
 20
-13.1641574926
 11
-78.7056867857
 21
-9.0358425074
  0
LINE
  5
5F9
100
AcDbEntity
  8
ASSI
100
AcDbLine
 62
253
  6
CONTINUOUS
 10
-78.7056867857
 20
9.0358425074
 11
-78.7056867857
 21
13.1641574926
  0
LINE
  5
5FA
100
AcDbEntity
  8
RACCORDO
100
AcDbLine
 62
253
  6
CONTINUOUS
 10
-80.5110588393
 20
24.3503990946
 11
-80.511148237
 21
24.4311858371
  0
LINE
  5
5FB
100
AcDbEntity
  8
RACCORDO
100
AcDbLine
 62
253
  6
CONTINUOUS
 10
-80.511156703
 20
-24.4226583824
 11
-80.5109814786
 21
-24.3264358334
  0
LINE
  5
5FC
100
AcDbEntity
  8
RACCORDO
100
AcDbLine
 62
253
  6
CONTINUOUS
 10
-80.511148237
 20
24.4311858371
 11
-80.5110588393
 21
24.4596508246
  0
LINE
  5
5FD
100
AcDbEntity
  8
RACCORDO
100
AcDbLine
 62
253
  6
CONTINUOUS
 10
-80.5109814786
 20
-24.3264358334
 11
-80.5105570931
 21
-24.2369056521
  0
LWPOLYLINE
  5
5FE
100
AcDbEntity
  8
RACCORDO
100
AcDbPolyline
 62
253
  6
CONTINUOUS
 90
8
 70
0
 10
-80.5110588393
 20
24.4596508246
 10
-80.5109353311
 20
24.4746636657
 10
-80.5108839509
 20
24.4783811971
 10
-80.5108276886
 20
24.4814368893
 10
-80.5107666983
 20
24.4838223673
 10
-80.5107011472
 20
24.4855310928
 10
-80.5106312149
 20
24.4865583827
 10
-80.5105570931
 20
24.4869014213
  0
LWPOLYLINE
  5
5FF
100
AcDbEntity
  8
RACCORDO
100
AcDbPolyline
 62
7
  6
CONTINUOUS
 90
11
 70
0
 10
-78.2617702473
 20
22.3382531725
 10
-78.2615291364
 20
22.3583288271
 10
-78.2613665358
 20
22.3669574975
 10
-78.2611754129
 20
22.374619709
 10
-78.2609572587
 20
22.3812979667
 10
-78.2607124076
 20
22.3869789767
 10
-78.2604406379
 20
22.3916466126
 10
-78.2601430071
 20
22.3952861536
 10
-78.2598204095
 20
22.3978919436
 10
-78.259473342
 20
22.3994632509
 10
-78.2591026603
 20
22.4
  0
LINE
  5
600
100
AcDbEntity
  8
CURVE
100
AcDbLine
 62
253
  6
CONTINUOUS
 10
-71.3742848055
 20
15.178571558
 11
-71.6456720774
 21
14.907142663
  0
LINE
  5
601
100
AcDbEntity
  8
CURVE
100
AcDbLine
 62
253
  6
CONTINUOUS
 10
-72.1884465082
 20
15.1333331823
 11
-72.4598337235
 21
14.907142663
  0
LINE
  5
602
100
AcDbEntity
  8
RACCORDO
100
AcDbLine
 62
253
  6
CONTINUOUS
 10
-66.5299230535
 20
18.2
 11
-66.4638258758
 21
18.2330485889
  0
LINE
  5
603
100
AcDbEntity
  8
0
100
AcDbLine
 62
253
  6
CONTINUOUS
 10
-66.5299230535
 20
18.2
 11
-66.4638258758
 21
18.2330485889
  0
LINE
  5
604
100
AcDbEntity
  8
CURVE
100
AcDbLine
 62
7
  6
CONTINUOUS
 10
-75.7582203592
 20
12.216139
 11
-73.4608063336
 21
13.328754
  0
LINE
  5
605
100
AcDbEntity
  8
CURVE
100
AcDbLine
 62
7
  6
CONTINUOUS
 10
-72.8591026603
 20
13.027546
 11
-75.2854673972
 21
11.87477
  0
LINE
  5
606
100
AcDbEntity
  8
RACCORDO
100
AcDbLine
 62
253
  6
CONTINUOUS
 10
-66.5759889075
 20
-19.2945698019
 11
-66.6124455821
 21
-19.2996917276
  0
LINE
  5
607
100
AcDbEntity
  8
0
100
AcDbLine
 62
253
  6
CONTINUOUS
 10
-66.5759889075
 20
-19.2945698019
 11
-66.6124455821
 21
-19.2996917276
  0
LINE
  5
608
100
AcDbEntity
  8
DRAFT
100
AcDbLine
 62
7
  6
CONTINUOUS
 10
-70.2591026603
 20
-18.2661694676
 11
-69.2591026603
 21
-18.2574425998
  0
LINE
  5
609
100
AcDbEntity
  8
RACCORDO
100
AcDbLine
 62
7
  6
CONTINUOUS
 10
-67.0087727474
 20
-18.2378042682
 11
-69.2591026603
 21
-18.2574425998
  0
LINE
  5
60A
100
AcDbEntity
  8
0
100
AcDbLine
 62
7
  6
CONTINUOUS
 10
-67.0087727474
 20
-18.2378042682
 11
-70.2591026603
 21
-18.2661694676
  0
LINE
  5
60B
100
AcDbEntity
  8
RACCORDO
100
AcDbLine
 62
253
  6
CONTINUOUS
 10
-77.2591026603
 20
-17.6716990487
 11
-70.2591026603
 21
-17.6210881763
  0
LINE
  5
60C
100
AcDbEntity
  8
0
100
AcDbLine
 62
253
  6
CONTINUOUS
 10
-77.2591026603
 20
-17.6716990487
 11
-70.2591026603
 21
-17.6210881763
  0
LINE
  5
60D
100
AcDbEntity
  8
RACCORDO
100
AcDbLine
 62
7
  6
CONTINUOUS
 10
-38.2591026603
 20
-18.3
 11
-41.0091026603
 21
-18.3
  0
LINE
  5
60E
100
AcDbEntity
  8
ASSI
100
AcDbLine
 62
7
  6
CONTINUOUS
 10
-38.2591026603
 20
-18.3
 11
-41.0091026603
 21
-18.3
  0
LINE
  5
60F
100
AcDbEntity
  8
ASSI
100
AcDbLine
 62
253
  6
CONTINUOUS
 10
-70.2591026603
 20
-18.21
 11
-69.3007557818
 21
-18.21
  0
LINE
  5
610
100
AcDbEntity
  8
ASSI
100
AcDbLine
 62
253
  6
CONTINUOUS
 10
-68.3967149682
 20
-18.21
 11
-68.2591026603
 21
-18.21
  0
LINE
  5
611
100
AcDbEntity
  8
ASSI
100
AcDbLine
 62
253
  6
CONTINUOUS
 10
-40.2541700426
 20
-18.21
 11
-38.2591026603
 21
-18.21
  0
LINE
  5
612
100
AcDbEntity
  8
ASSI
100
AcDbLine
 62
7
  6
CONTINUOUS
 10
-38.2591026603
 20
-18.2
 11
-41.0091026603
 21
-18.2
  0
LINE
  5
613
100
AcDbEntity
  8
ASSI
100
AcDbLine
 62
7
  6
CONTINUOUS
 10
-46.0091026603
 20
-18.2
 11
-51.5091026603
 21
-18.2
  0
LINE
  5
614
100
AcDbEntity
  8
ASSI
100
AcDbLine
 62
7
  6
CONTINUOUS
 10
-56.5091026603
 20
-18.2
 11
-62.0091026603
 21
-18.2
  0
LINE
  5
615
100
AcDbEntity
  8
ASSI
100
AcDbLine
 62
7
  6
CONTINUOUS
 10
-67.0091026603
 20
-18.2
 11
-70.2591026603
 21
-18.2
  0
LINE
  5
616
100
AcDbEntity
  8
0
100
AcDbLine
 62
7
  6
CONTINUOUS
 10
-46.0091026603
 20
-18.1937377106
 11
-46.5091026603
 21
-18.1937377106
  0
LINE
  5
617
100
AcDbEntity
  8
0
100
AcDbLine
 62
7
  6
CONTINUOUS
 10
-56.5091026603
 20
-18.1937377106
 11
-57.0091026603
 21
-18.1937377106
  0
LINE
  5
618
100
AcDbEntity
  8
0
100
AcDbLine
 62
7
  6
CONTINUOUS
 10
-67.0091026603
 20
-18.1937377106
 11
-67.5091026603
 21
-18.1937377106
  0
LINE
  5
619
100
AcDbEntity
  8
0
100
AcDbLine
 62
253
  6
CONTINUOUS
 10
-38.2591026603
 20
-17.9920458146
 11
-41.0091026603
 21
-17.9920458146
  0
LINE
  5
61A
100
AcDbEntity
  8
0
100
AcDbLine
 62
253
  6
CONTINUOUS
 10
-46.5091026603
 20
-17.9920458146
 11
-51.5091026603
 21
-17.9920458146
  0
LINE
  5
61B
100
AcDbEntity
  8
0
100
AcDbLine
 62
253
  6
CONTINUOUS
 10
-57.0091026603
 20
-17.9920458146
 11
-62.0091026603
 21
-17.9920458146
  0
LINE
  5
61C
100
AcDbEntity
  8
0
100
AcDbLine
 62
253
  6
CONTINUOUS
 10
-67.5091026603
 20
-17.9920458146
 11
-70.2591026603
 21
-17.9920458146
  0
LINE
  5
61D
100
AcDbEntity
  8
ASSI
100
AcDbLine
 62
7
  6
CONTINUOUS
 10
-46.0091026603
 20
-17.5
 11
-46.5091026603
 21
-17.5
  0
LINE
  5
61E
100
AcDbEntity
  8
ASSI
100
AcDbLine
 62
7
  6
CONTINUOUS
 10
-56.5091026603
 20
-17.5
 11
-57.0091026603
 21
-17.5
  0
LINE
  5
61F
100
AcDbEntity
  8
ASSI
100
AcDbLine
 62
7
  6
CONTINUOUS
 10
-67.0091026603
 20
-17.5
 11
-67.5091026603
 21
-17.5
  0
LINE
  5
620
100
AcDbEntity
  8
0
100
AcDbLine
 62
7
  6
CONTINUOUS
 10
-46.0091026603
 20
-17.4999117987
 11
-46.5091026603
 21
-17.4999117987
  0
LINE
  5
621
100
AcDbEntity
  8
0
100
AcDbLine
 62
7
  6
CONTINUOUS
 10
-56.5091026603
 20
-17.4999117987
 11
-57.0091026603
 21
-17.4999117987
  0
LINE
  5
622
100
AcDbEntity
  8
0
100
AcDbLine
 62
7
  6
CONTINUOUS
 10
-67.0091026603
 20
-17.4999117987
 11
-67.5091026603
 21
-17.4999117987
  0
LINE
  5
623
100
AcDbEntity
  8
0
100
AcDbLine
 62
7
  6
CONTINUOUS
 10
-67.4591026603
 20
-17.4
 11
-67.0091026603
 21
-17.4
  0
LINE
  5
624
100
AcDbEntity
  8
0
100
AcDbLine
 62
7
  6
CONTINUOUS
 10
-57.0091026603
 20
-17.4
 11
-56.5091026603
 21
-17.4
  0
LINE
  5
625
100
AcDbEntity
  8
0
100
AcDbLine
 62
7
  6
CONTINUOUS
 10
-46.5091026603
 20
-17.4
 11
-46.0091026603
 21
-17.4
  0
LINE
  5
626
100
AcDbEntity
  8
0
100
AcDbLine
 62
253
  6
CONTINUOUS
 10
-38.2591026603
 20
-17.2079541854
 11
-41.0091026603
 21
-17.2079541854
  0
LINE
  5
627
100
AcDbEntity
  8
0
100
AcDbLine
 62
253
  6
CONTINUOUS
 10
-46.5091026603
 20
-17.2079541854
 11
-51.5091026603
 21
-17.2079541854
  0
LINE
  5
628
100
AcDbEntity
  8
0
100
AcDbLine
 62
253
  6
CONTINUOUS
 10
-57.0091026603
 20
-17.2079541854
 11
-62.0091026603
 21
-17.2079541854
  0
LINE
  5
629
100
AcDbEntity
  8
0
100
AcDbLine
 62
253
  6
CONTINUOUS
 10
-67.5091026603
 20
-17.2079541854
 11
-70.2591026603
 21
-17.2079541854
  0
LINE
  5
62A
100
AcDbEntity
  8
0
100
AcDbLine
 62
253
  6
CONTINUOUS
 10
-67.0091026603
 20
-17.2
 11
-62.0091026603
 21
-17.2
  0
LINE
  5
62B
100
AcDbEntity
  8
0
100
AcDbLine
 62
253
  6
CONTINUOUS
 10
-56.5091026603
 20
-17.2
 11
-51.5091026603
 21
-17.2
  0
LINE
  5
62C
100
AcDbEntity
  8
0
100
AcDbLine
 62
253
  6
CONTINUOUS
 10
-46.0091026603
 20
-17.2
 11
-41.0091026603
 21
-17.2
  0
LINE
  5
62D
100
AcDbEntity
  8
0
100
AcDbLine
 62
7
  6
CONTINUOUS
 10
-67.5091026603
 20
-17.05
 11
-67.0091026603
 21
-17.05
  0
LINE
  5
62E
100
AcDbEntity
  8
0
100
AcDbLine
 62
7
  6
CONTINUOUS
 10
-57.0091026603
 20
-17.05
 11
-56.5091026603
 21
-17.05
  0
LINE
  5
62F
100
AcDbEntity
  8
0
100
AcDbLine
 62
7
  6
CONTINUOUS
 10
-46.5091026603
 20
-17.05
 11
-46.0091026603
 21
-17.05
  0
LINE
  5
630
100
AcDbEntity
  8
CURVE
100
AcDbLine
 62
253
  6
CONTINUOUS
 10
-71.4885531275
 20
-17.0
 11
-71.674239117
 21
-17.0
  0
LINE
  5
631
100
AcDbEntity
  8
0
100
AcDbLine
 62
253
  6
CONTINUOUS
 10
-38.2591026603
 20
-16.7059083707
 11
-41.0091026603
 21
-16.7059083707
  0
LINE
  5
632
100
AcDbEntity
  8
0
100
AcDbLine
 62
253
  6
CONTINUOUS
 10
-46.5091026603
 20
-16.7059083707
 11
-51.5091026603
 21
-16.7059083707
  0
LINE
  5
633
100
AcDbEntity
  8
0
100
AcDbLine
 62
253
  6
CONTINUOUS
 10
-57.0091026603
 20
-16.7059083707
 11
-62.0091026603
 21
-16.7059083707
  0
LINE
  5
634
100
AcDbEntity
  8
0
100
AcDbLine
 62
253
  6
CONTINUOUS
 10
-67.5091026603
 20
-16.7059083707
 11
-70.2591026603
 21
-16.7059083707
  0
LINE
  5
635
100
AcDbEntity
  8
CURVE
100
AcDbLine
 62
253
  6
CONTINUOUS
 10
-70.7458091116
 20
-16.3825
 11
-70.9314951204
 21
-16.3825
  0
LINE
  5
636
100
AcDbEntity
  8
RACCORDO
100
AcDbLine
 62
253
  6
CONTINUOUS
 10
-36.7591026603
 20
-17.2983042468
 11
-38.2591026603
 21
-17.2928820663
  0
LINE
  5
637
100
AcDbEntity
  8
ASSI
100
AcDbLine
 62
253
  6
CONTINUOUS
 10
-36.7591026603
 20
-17.2983042468
 11
-38.2591026603
 21
-17.2928820663
  0
LINE
  5
638
100
AcDbEntity
  8
RACCORDO
100
AcDbLine
 62
253
  6
CONTINUOUS
 10
-36.7591026603
 20
-16.5912243901
 11
-38.2591026603
 21
-16.5858022096
  0
LINE
  5
639
100
AcDbEntity
  8
ASSI
100
AcDbLine
 62
253
  6
CONTINUOUS
 10
-36.7591026603
 20
-16.5912243901
 11
-38.2591026603
 21
-16.5858022096
  0
LINE
  5
63A
100
AcDbEntity
  8
RACCORDO
100
AcDbLine
 62
7
  6
CONTINUOUS
 10
-38.2591026603
 20
-18.2
 11
-36.7591026603
 21
-18.2130903017
  0
LINE
  5
63B
100
AcDbEntity
  8
ASSI
100
AcDbLine
 62
7
  6
CONTINUOUS
 10
-38.2591026603
 20
-18.2
 11
-36.7591026603
 21
-18.2130903017
  0
LINE
  5
63C
100
AcDbEntity
  8
RACCORDO
100
AcDbLine
 62
253
  6
CONTINUOUS
 10
-38.2591026603
 20
-17.9071179337
 11
-36.7591026603
 21
-17.9202082353
  0
LINE
  5
63D
100
AcDbEntity
  8
ASSI
100
AcDbLine
 62
253
  6
CONTINUOUS
 10
-38.2591026603
 20
-17.9071179337
 11
-36.7591026603
 21
-17.9202082353
  0
LINE
  5
63E
100
AcDbEntity
  8
RACCORDO
100
AcDbLine
 62
253
  6
CONTINUOUS
 10
-41.9257661964
 20
-19.5654549699
 11
-41.8982093595
 21
-19.568241997
  0
LINE
  5
63F
100
AcDbEntity
  8
ASSI
100
AcDbLine
 62
253
  6
CONTINUOUS
 10
-41.9257661964
 20
-19.5654549699
 11
-41.8982093595
 21
-19.568241997
  0
LINE
  5
640
100
AcDbEntity
  8
CURVE
100
AcDbLine
 62
253
  6
CONTINUOUS
 10
-70.5601231027
 20
-15.2357142437
 11
-71.8599251064
 21
-14.8828571218
  0
LINE
  5
641
100
AcDbEntity
  8
CURVE
100
AcDbLine
 62
253
  6
CONTINUOUS
 10
-73.7705609578
 20
-15.790021
 11
-75.7658740273
 21
-15.22041
  0
LINE
  5
642
100
AcDbEntity
  8
CURVE
100
AcDbLine
 62
253
  6
CONTINUOUS
 10
-75.7658740273
 20
-14.615552
 11
-72.8671042224
 21
-15.547617
  0
LINE
  5
643
100
AcDbEntity
  8
RACCORDO
100
AcDbLine
 62
7
  6
CONTINUOUS
 10
-67.2591026603
 20
-17.5
 11
-67.5091026603
 21
-17.375
  0
LINE
  5
644
100
AcDbEntity
  8
0
100
AcDbLine
 62
7
  6
CONTINUOUS
 10
-67.2591026603
 20
-17.5
 11
-67.5091026603
 21
-17.375
  0
LINE
  5
645
100
AcDbEntity
  8
CURVE
100
AcDbLine
 62
253
  6
CONTINUOUS
 10
-70.5601231027
 20
-16.5589285609
 11
-70.7458091116
 21
-16.3825
  0
LINE
  5
646
100
AcDbEntity
  8
RACCORDO
100
AcDbLine
 62
7
  6
CONTINUOUS
 10
-78.2570912376
 20
21.9398948703
 11
-78.258846051
 21
22.0269681457
  0
LWPOLYLINE
  5
647
100
AcDbEntity
  8
RACCORDO
100
AcDbPolyline
 62
253
  6
CONTINUOUS
 90
6
 70
0
 10
-77.5073213697
 20
24.4871079418
 10
-77.507377632
 20
24.490163634
 10
-77.5074386223
 20
24.492549112
 10
-77.5075041734
 20
24.4942578375
 10
-77.5075741057
 20
24.4952851274
 10
-77.5076482275
 20
24.495628166
  0
LINE
  5
648
100
AcDbEntity
  8
RACCORDO
100
AcDbLine
 62
7
  6
CONTINUOUS
 10
-78.258846051
 20
22.0269681457
 11
-78.260245444
 21
22.110866553
  0
LINE
  5
649
100
AcDbEntity
  8
RACCORDO
100
AcDbLine
 62
7
  6
CONTINUOUS
 10
-78.260245444
 20
22.110866553
 11
-78.2612421784
 21
22.1885754393
  0
LINE
  5
64A
100
AcDbEntity
  8
RACCORDO
100
AcDbLine
 62
253
  6
CONTINUOUS
 10
-77.5072236324
 20
24.4790212289
 11
-77.5073213697
 21
24.4871079418
  0
LINE
  5
64B
100
AcDbEntity
  8
RACCORDO
100
AcDbLine
 62
7
  6
CONTINUOUS
 10
-78.2612421784
 20
22.1885754393
 11
-78.2617992187
 21
22.2573024632
  0
LINE
  5
64C
100
AcDbEntity
  8
RACCORDO
100
AcDbLine
 62
253
  6
CONTINUOUS
 10
-77.5071158987
 20
24.4621322634
 11
-77.5072236324
 21
24.4790212289
  0
LINE
  5
64D
100
AcDbEntity
  8
RACCORDO
100
AcDbLine
 62
7
  6
CONTINUOUS
 10
-78.261895774
 20
-22.3146071157
 11
-78.2617692196
 21
-22.3382930704
  0
LINE
  5
64E
100
AcDbEntity
  8
RACCORDO
100
AcDbLine
 62
253
  6
CONTINUOUS
 10
-77.5070570509
 20
-24.402986508
 11
-77.5076482275
 21
-24.2456323968
  0
LINE
  5
64F
100
AcDbEntity
  8
RACCORDO
100
AcDbLine
 62
7
  6
CONTINUOUS
 10
-78.2617992187
 20
22.2573024632
 11
-78.2619154148
 21
22.3014516398
  0
LINE
  5
650
100
AcDbEntity
  8
RACCORDO
100
AcDbLine
 62
7
  6
CONTINUOUS
 10
-78.2591026603
 20
-22.4
 11
-78.2591026603
 21
-24.5
  0
LINE
  5
651
100
AcDbEntity
  8
RACCORDO
100
AcDbLine
 62
7
  6
CONTINUOUS
 10
-78.2591026603
 20
22.4
 11
-78.2591026603
 21
24.5
  0
LINE
  5
652
100
AcDbEntity
  8
RACCORDO
100
AcDbLine
 62
7
  6
CONTINUOUS
 10
-77.8126924988
 20
13.1485702193
 11
-77.8126924988
 21
9.0514297807
  0
LINE
  5
653
100
AcDbEntity
  8
RACCORDO
100
AcDbLine
 62
7
  6
CONTINUOUS
 10
-77.8126924988
 20
-9.0514297807
 11
-77.8126924988
 21
-13.1485702193
  0
LINE
  5
654
100
AcDbEntity
  8
ASSI
100
AcDbLine
 62
7
  6
CONTINUOUS
 10
-77.8126924988
 20
-13.1485702193
 11
-77.8126924988
 21
-9.0514297807
  0
LINE
  5
655
100
AcDbEntity
  8
ASSI
100
AcDbLine
 62
7
  6
CONTINUOUS
 10
-77.8126924988
 20
9.0514297807
 11
-77.8126924988
 21
13.1485702193
  0
LINE
  5
656
100
AcDbEntity
  8
RACCORDO
100
AcDbLine
 62
253
  6
CONTINUOUS
 10
-77.5076482275
 20
24.2456323968
 11
-77.5076482275
 21
23.8443375673
  0
LINE
  5
657
100
AcDbEntity
  8
RACCORDO
100
AcDbLine
 62
253
  6
CONTINUOUS
 10
-77.5076482275
 20
-23.8443375673
 11
-77.5076482275
 21
-24.2456323968
  0
LINE
  5
658
100
AcDbEntity
  8
RACCORDO
100
AcDbLine
 62
7
  6
CONTINUOUS
 10
-77.2591026603
 20
24.2456323968
 11
-77.2591026603
 21
23.8443375673
  0
LINE
  5
659
100
AcDbEntity
  8
0
100
AcDbLine
 62
7
  6
CONTINUOUS
 10
-77.2591026603
 20
17.6716990487
 11
-77.2591026603
 21
-17.6716990487
  0
LINE
  5
65A
100
AcDbEntity
  8
RACCORDO
100
AcDbLine
 62
7
  6
CONTINUOUS
 10
-77.2591026603
 20
22.3912731322
 11
-77.2591026603
 21
-22.3912731322
  0
LINE
  5
65B
100
AcDbEntity
  8
RACCORDO
100
AcDbLine
 62
7
  6
CONTINUOUS
 10
-77.2591026603
 20
-23.7941821702
 11
-77.2591026603
 21
-24.2456323968
  0
LINE
  5
65C
100
AcDbEntity
  8
RACCORDO
100
AcDbLine
 62
253
  6
CONTINUOUS
 10
-77.5070486352
 20
24.4129092831
 11
-77.5071158987
 21
24.4621322634
  0
LINE
  5
65D
100
AcDbEntity
  8
RACCORDO
100
AcDbLine
 62
7
  6
CONTINUOUS
 10
-78.2618668146
 20
-22.2727884238
 11
-78.261895774
 21
-22.3146071157
  0
LINE
  5
65E
100
AcDbEntity
  8
RACCORDO
100
AcDbLine
 62
253
  6
CONTINUOUS
 10
-77.507090854
 20
-24.4553229956
 11
-77.5070570509
 21
-24.402986508
  0
LWPOLYLINE
  5
65F
100
AcDbEntity
  8
RACCORDO
100
AcDbPolyline
 62
7
  6
CONTINUOUS
 90
3
 70
0
 10
-78.2619154148
 20
22.3014516398
 10
-78.2618472473
 20
22.3268518548
 10
-78.2617702473
 20
22.3382531725
  0
LINE
  5
660
100
AcDbEntity
  8
RACCORDO
100
AcDbLine
 62
253
  6
CONTINUOUS
 10
-77.5075041734
 20
24.2717635094
 11
-77.5070486352
 21
24.4129092831
  0
LINE
  5
661
100
AcDbEntity
  8
RACCORDO
100
AcDbLine
 62
253
  6
CONTINUOUS
 10
-77.5076482275
 20
24.2456323968
 11
-77.5075041734
 21
24.2717635094
  0
LINE
  5
662
100
AcDbEntity
  8
RACCORDO
100
AcDbLine
 62
253
  6
CONTINUOUS
 10
-77.5071826056
 20
-24.4740372277
 11
-77.507090854
 21
-24.4553229956
  0
LINE
  5
663
100
AcDbEntity
  8
RACCORDO
100
AcDbLine
 62
7
  6
CONTINUOUS
 10
-78.2615771493
 20
-22.2241934574
 11
-78.2618668146
 21
-22.2727884238
  0
LINE
  5
664
100
AcDbEntity
  8
RACCORDO
100
AcDbLine
 62
7
  6
CONTINUOUS
 10
-78.2607955914
 20
-22.1505958888
 11
-78.2615771493
 21
-22.2241934574
  0
LINE
  5
665
100
AcDbEntity
  8
RACCORDO
100
AcDbLine
 62
7
  6
CONTINUOUS
 10
-78.2592298081
 20
-22.0482672071
 11
-78.2607955914
 21
-22.1505958888
  0
LINE
  5
666
100
AcDbEntity
  8
RACCORDO
100
AcDbLine
 62
7
  6
CONTINUOUS
 10
-78.2570912376
 20
-21.9398948703
 11
-78.2592298081
 21
-22.0482672071
  0
LINE
  5
667
100
AcDbEntity
  8
CURVE
100
AcDbLine
 62
7
  6
CONTINUOUS
 10
-72.8591026603
 20
10.975074
 11
-75.7582203592
 21
9.9669
  0
LINE
  5
668
100
AcDbEntity
  8
CURVE
100
AcDbLine
 62
253
  6
CONTINUOUS
 10
-71.8599251064
 20
-16.0296428782
 11
-70.5601231027
 21
-16.0296428782
  0
LINE
  5
669
100
AcDbEntity
  8
0
100
AcDbLine
 62
253
  6
CONTINUOUS
 10
-41.0091026603
 20
-15.7726821461
 11
-46.0091026603
 21
-15.7726821461
  0
LINE
  5
66A
100
AcDbEntity
  8
0
100
AcDbLine
 62
7
  6
CONTINUOUS
 10
-46.0091026603
 20
-15.75
 11
-46.5091026603
 21
-15.75
  0
LINE
  5
66B
100
AcDbEntity
  8
0
100
AcDbLine
 62
253
  6
CONTINUOUS
 10
-67.0091026603
 20
-15.0724746079
 11
-62.0091026603
 21
-15.0724746079
  0
LINE
  5
66C
100
AcDbEntity
  8
0
100
AcDbLine
 62
253
  6
CONTINUOUS
 10
-56.5091026603
 20
-15.0724746079
 11
-51.5091026603
 21
-15.0724746079
  0
LINE
  5
66D
100
AcDbEntity
  8
0
100
AcDbLine
 62
7
  6
CONTINUOUS
 10
-41.0091026603
 20
-14.6275368478
 11
-46.0091026603
 21
-14.6275368478
  0
LINE
  5
66E
100
AcDbEntity
  8
0
100
AcDbLine
 62
7
  6
CONTINUOUS
 10
-56.5091026603
 20
-14.55
 11
-57.0091026603
 21
-14.55
  0
LINE
  5
66F
100
AcDbEntity
  8
0
100
AcDbLine
 62
7
  6
CONTINUOUS
 10
-67.0091026603
 20
-14.55
 11
-67.5091026603
 21
-14.55
  0
LINE
  5
670
100
AcDbEntity
  8
CURVE
100
AcDbLine
 62
253
  6
CONTINUOUS
 10
-75.7660479743
 20
-14.390935
 11
-72.8671042224
 21
-14.390935
  0
LINE
  5
671
100
AcDbEntity
  8
CURVE
100
AcDbLine
 62
253
  6
CONTINUOUS
 10
-72.8671042224
 20
-13.459827
 11
-75.7658740273
 21
-13.198005
  0
LINE
  5
672
100
AcDbEntity
  8
CURVE
100
AcDbLine
 62
253
  6
CONTINUOUS
 10
-70.5601231027
 20
-13.8242857563
 11
-71.8599251064
 21
-13.4714284873
  0
LINE
  5
673
100
AcDbEntity
  8
CURVE
100
AcDbLine
 62
253
  6
CONTINUOUS
 10
-74.1564683798
 20
-11.994355
 11
-75.7658740273
 21
-11.389084
  0
LINE
  5
674
100
AcDbEntity
  8
CURVE
100
AcDbLine
 62
253
  6
CONTINUOUS
 10
-74.7520559166
 20
-11.235548
 11
-72.8671042224
 21
-11.955216
  0
LWPOLYLINE
  5
675
100
AcDbEntity
  8
CURVE
100
AcDbPolyline
 62
253
  6
CONTINUOUS
 90
22
 70
0
 10
-75.2720397466
 20
-7.2788012718
 10
-75.2757163415
 20
-7.2564939542
 10
-75.2791435985
 20
-7.2341211981
 10
-75.2823156653
 20
-7.2116890337
 10
-75.2852266896
 20
-7.1892034912
 10
-75.2878708191
 20
-7.1666706009
 10
-75.2902422015
 20
-7.1440963929
 10
-75.2923349846
 20
-7.1214868974
 10
-75.2941433161
 20
-7.0988481447
 10
-75.2956613437
 20
-7.0761861649
 10
-75.2968832151
 20
-7.0535069883
 10
-75.297803078
 20
-7.030816645
 10
-75.2984150801
 20
-7.0081211653
 10
-75.2987133692
 20
-6.9854265793
 10
-75.2986920929
 20
-6.9627389173
 10
-75.2983453991
 20
-6.9400642094
 10
-75.2976674353
 20
-6.9174084859
 10
-75.2966523493
 20
-6.894777777
 10
-75.2952942889
 20
-6.8721781128
 10
-75.2935874016
 20
-6.8496155236
 10
-75.2915258354
 20
-6.8270960396
 10
-75.2891037378
 20
-6.804625691
  0
LINE
  5
676
100
AcDbEntity
  8
CURVE
100
AcDbLine
 62
7
  6
CONTINUOUS
 10
-74.4657288518
 20
4.763813985
 11
-74.4608684724
 21
4.7174608972
  0
LWPOLYLINE
  5
677
100
AcDbEntity
  8
CURVE
100
AcDbPolyline
 62
7
  6
CONTINUOUS
 90
52
 70
0
 10
-73.9801688504
 20
4.7161926514
 10
-73.9820304046
 20
4.7588610061
 10
-73.9842698477
 20
4.8014996594
 10
-73.9870199103
 20
4.8440875432
 10
-73.9904133229
 20
4.8866035898
 10
-73.9945828161
 20
4.9290267311
 10
-73.9996611206
 20
4.9713358993
 10
-74.0057809668
 20
5.0135100265
 10
-74.01177253
 20
5.0485872491
 10
-74.0186023795
 20
5.0835268969
 10
-74.0262908494
 20
5.1183001346
 10
-74.0348582743
 20
5.1528781268
 10
-74.0443249885
 20
5.1872320381
 10
-74.0547113264
 20
5.2213330331
 10
-74.0643641585
 20
5.2503249994
 10
-74.074756335
 20
5.2790611291
 10
-74.0859370568
 20
5.3074924559
 10
-74.0979555249
 20
5.3355700132
 10
-74.1108609401
 20
5.3632448345
 10
-74.1247025033
 20
5.3904679533
 10
-74.1395294154
 20
5.4171904032
 10
-74.1533575244
 20
5.4401418668
 10
-74.1679765412
 20
5.4626202132
 10
-74.1833837877
 20
5.4845739416
 10
-74.1995765858
 20
5.5059515511
 10
-74.2165522573
 20
5.5267015407
 10
-74.2343081242
 20
5.5467724095
 10
-74.2528415083
 20
5.5661126565
 10
-74.2721497315
 20
5.584670781
 10
-74.2922024949
 20
5.6023848181
 10
-74.3129798817
 20
5.6192561756
 10
-74.3344358929
 20
5.6352741362
 10
-74.3565245295
 20
5.6504279827
 10
-74.3791997926
 20
5.664706998
 10
-74.402415683
 20
5.6781004649
 10
-74.4261262019
 20
5.6905976661
 10
-74.4502853501
 20
5.7021878845
 10
-74.4763319554
 20
5.7134775061
 10
-74.5027922656
 20
5.7237688281
 10
-74.5296277067
 20
5.7330944131
 10
-74.5567997045
 20
5.741486824
 10
-74.5842696848
 20
5.7489786235
 10
-74.6119990735
 20
5.7556023744
 10
-74.6399492965
 20
5.7613906394
 10
-74.6680817796
 20
5.7663759814
 10
-74.6963579487
 20
5.770590963
 10
-74.7247392297
 20
5.774068147
 10
-74.7531870483
 20
5.7768400962
 10
-74.7816628304
 20
5.7789393734
 10
-74.810128002
 20
5.7803985413
 10
-74.8385439888
 20
5.7812501627
 10
-74.8668722168
 20
5.7815268003
  0
LINE
  5
678
100
AcDbEntity
  8
CURVE
100
AcDbLine
 62
7
  6
CONTINUOUS
 10
-73.975524215
 20
4.5882200575
 11
-73.9801688504
 21
4.7161926514
  0
LINE
  5
679
100
AcDbEntity
  8
CURVE
100
AcDbLine
 62
253
  6
CONTINUOUS
 10
-75.7660479743
 20
-13.785664
 11
-75.7660479743
 21
-14.390935
  0
LINE
  5
67A
100
AcDbEntity
  8
CURVE
100
AcDbLine
 62
253
  6
CONTINUOUS
 10
-75.7658740273
 20
-17.00026
 11
-75.7658740273
 21
-16.342748
  0
LINE
  5
67B
100
AcDbEntity
  8
CURVE
100
AcDbLine
 62
253
  6
CONTINUOUS
 10
-75.7658740273
 20
-15.22041
 11
-75.7658740273
 21
-14.615552
  0
LINE
  5
67C
100
AcDbEntity
  8
CURVE
100
AcDbLine
 62
253
  6
CONTINUOUS
 10
-75.7658740273
 20
-13.198005
 11
-75.7658740273
 21
-12.593234
  0
LINE
  5
67D
100
AcDbEntity
  8
CURVE
100
AcDbLine
 62
253
  6
CONTINUOUS
 10
-75.7658740273
 20
-11.389084
 11
-75.7658740273
 21
-10.790227
  0
LINE
  5
67E
100
AcDbEntity
  8
CURVE
100
AcDbLine
 62
253
  6
CONTINUOUS
 10
-75.7658740273
 20
-9.514517
 11
-75.7658740273
 21
-8.92899
  0
LINE
  5
67F
100
AcDbEntity
  8
CURVE
100
AcDbLine
 62
7
  6
CONTINUOUS
 10
-75.7582203592
 20
15.991935
 11
-75.7582203592
 21
15.252884
  0
LINE
  5
680
100
AcDbEntity
  8
CURVE
100
AcDbLine
 62
7
  6
CONTINUOUS
 10
-75.7582203592
 20
9.9669
 11
-75.7582203592
 21
9.227849
  0
LINE
  5
681
100
AcDbEntity
  8
CURVE
100
AcDbLine
 62
7
  6
CONTINUOUS
 10
-75.7582203592
 20
4.58822
 11
-75.7582203592
 21
3.70079
  0
LINE
  5
682
100
AcDbEntity
  8
CURVE
100
AcDbLine
 62
7
  6
CONTINUOUS
 10
-75.7582203592
 20
6.171133
 11
-75.7582203592
 21
6.793739
  0
LINE
  5
683
100
AcDbEntity
  8
CURVE
100
AcDbLine
 62
7
  6
CONTINUOUS
 10
-75.7582203592
 20
11.292325
 11
-75.7582203592
 21
12.216139
  0
LINE
  5
684
100
AcDbEntity
  8
CURVE
100
AcDbLine
 62
7
  6
CONTINUOUS
 10
-75.7582203592
 20
13.328754
 11
-75.7582203592
 21
13.911198
  0
LINE
  5
685
100
AcDbEntity
  8
CURVE
100
AcDbLine
 62
7
  6
CONTINUOUS
 10
-75.2764341494
 20
4.323396
 11
-75.2764341494
 21
4.686612
  0
LINE
  5
686
100
AcDbEntity
  8
CURVE
100
AcDbLine
 62
253
  6
CONTINUOUS
 10
-75.25940727
 20
0.1171428782
 11
-75.25940727
 21
0.5582142437
  0
LINE
  5
687
100
AcDbEntity
  8
CURVE
100
AcDbLine
 62
253
  6
CONTINUOUS
 10
-75.25940727
 20
1.2345238376
 11
-75.25940727
 21
1.7638095939
  0
LINE
  5
688
100
AcDbEntity
  8
CURVE
100
AcDbLine
 62
253
  6
CONTINUOUS
 10
-74.7023493016
 20
1.5873808122
 11
-74.7023493016
 21
1.2345238376
  0
LINE
  5
689
100
AcDbEntity
  8
CURVE
100
AcDbLine
 62
253
  6
CONTINUOUS
 10
-74.4762708438
 20
-6.9328946758
 11
-74.4762708438
 21
-7.2788012718
  0
LINE
  5
68A
100
AcDbEntity
  8
CURVE
100
AcDbLine
 62
7
  6
CONTINUOUS
 10
-74.4573107194
 20
4.323396
 11
-74.4573107194
 21
4.686612
  0
LINE
  5
68B
100
AcDbEntity
  8
CURVE
100
AcDbLine
 62
253
  6
CONTINUOUS
 10
-74.3309772839
 20
-0.8238095203
 11
-74.3309772839
 21
-0.3533332843
  0
LINE
  5
68C
100
AcDbEntity
  8
CURVE
100
AcDbLine
 62
253
  6
CONTINUOUS
 10
-74.0015223506
 20
-7.2587313832
 11
-74.0015223506
 21
-6.9341993273
  0
LINE
  5
68D
100
AcDbEntity
  8
CURVE
100
AcDbLine
 62
7
  6
CONTINUOUS
 10
-73.9755245097
 20
4.58822
 11
-73.9755245097
 21
4.323396
  0
LINE
  5
68E
100
AcDbEntity
  8
CURVE
100
AcDbLine
 62
253
  6
CONTINUOUS
 10
-73.9596052663
 20
0.5582142437
 11
-73.9596052663
 21
0.1171428782
  0
LINE
  5
68F
100
AcDbEntity
  8
CURVE
100
AcDbLine
 62
253
  6
CONTINUOUS
 10
-73.9596052663
 20
1.2345238376
 11
-73.9596052663
 21
1.7638095939
  0
LINE
  5
690
100
AcDbEntity
  8
CURVE
100
AcDbLine
 62
7
  6
CONTINUOUS
 10
-73.9553406593
 20
16.007869
 11
-73.9553406593
 21
15.176491
  0
LINE
  5
691
100
AcDbEntity
  8
CURVE
100
AcDbLine
 62
7
  6
CONTINUOUS
 10
-73.9553406593
 20
9.982943
 11
-73.9553406593
 21
9.151456
  0
LINE
  5
692
100
AcDbEntity
  8
CURVE
100
AcDbLine
 62
253
  6
CONTINUOUS
 10
-73.8935954718
 20
-9.5345
 11
-73.8935954718
 21
-8.954996
  0
LWPOLYLINE
  5
693
100
AcDbEntity
  8
CURVE
100
AcDbPolyline
 62
253
  6
CONTINUOUS
 90
45
 70
0
 10
-74.0015223506
 20
-6.9341993273
 10
-74.0014021836
 20
-6.925143355
 10
-74.0010399288
 20
-6.9160749476
 10
-74.0004329558
 20
-6.9070052084
 10
-73.9995786338
 20
-6.8979452406
 10
-73.9984743323
 20
-6.8889061474
 10
-73.9971174208
 20
-6.8798990323
 10
-73.9955052687
 20
-6.8709349983
 10
-73.9936352453
 20
-6.8620251489
 10
-73.9915047203
 20
-6.8531805873
 10
-73.9891110628
 20
-6.8444124167
 10
-73.9864516425
 20
-6.8357317405
 10
-73.9835238287
 20
-6.8271496619
 10
-73.9802109805
 20
-6.8183826646
 10
-73.9766180753
 20
-6.8097334285
 10
-73.9727552642
 20
-6.8012022486
 10
-73.9686326985
 20
-6.7927894202
 10
-73.9642605293
 20
-6.7844952385
 10
-73.9596489078
 20
-6.7763199985
 10
-73.9548079853
 20
-6.7682639955
 10
-73.949747913
 20
-6.7603275247
 10
-73.9444788419
 20
-6.7525108811
 10
-73.9390109234
 20
-6.7448143601
 10
-73.9333543086
 20
-6.7372382567
 10
-73.9275191487
 20
-6.7297828661
 10
-73.9202785281
 20
-6.7209791174
 10
-73.9128016737
 20
-6.7123575346
 10
-73.9050958519
 20
-6.7039253041
 10
-73.8971683291
 20
-6.6956896125
 10
-73.8890263714
 20
-6.6876576463
 10
-73.8806772453
 20
-6.6798365921
 10
-73.872128217
 20
-6.6722336362
 10
-73.8633865528
 20
-6.6648559654
 10
-73.8544595191
 20
-6.657710766
 10
-73.8453543821
 20
-6.6508052246
 10
-73.8360784082
 20
-6.6441465278
 10
-73.8266388637
 20
-6.637741862
 10
-73.8170430149
 20
-6.6315984137
 10
-73.807298128
 20
-6.6257233696
 10
-73.7974114695
 20
-6.620123916
 10
-73.7873903056
 20
-6.6148072396
 10
-73.7772419026
 20
-6.6097805268
 10
-73.7669735269
 20
-6.6050509642
 10
-73.7565924447
 20
-6.6006257382
 10
-73.7461059223
 20
-6.5965120355
  0
LWPOLYLINE
  5
694
100
AcDbEntity
  8
CURVE
100
AcDbPolyline
 62
7
  6
CONTINUOUS
 90
54
 70
0
 10
-75.2728759611
 20
4.7174608972
 10
-75.2680155817
 20
4.763813985
 10
-75.2662944812
 20
4.7792495632
 10
-75.264427844
 20
4.794662096
 10
-75.2623586403
 20
4.8100423913
 10
-75.2600298403
 20
4.8253812571
 10
-75.2573844142
 20
4.8406695016
 10
-75.2543653322
 20
4.8558979327
 10
-75.2520321898
 20
4.8663734222
 10
-75.2494742163
 20
4.8768018468
 10
-75.2466719991
 20
4.8871690543
 10
-75.2436061258
 20
4.8974608925
 10
-75.2402571838
 20
4.907663209
 10
-75.2366057608
 20
4.9177618517
 10
-75.2326324443
 20
4.9277426683
 10
-75.2283178217
 20
4.9375915065
 10
-75.2242161105
 20
4.9461556907
 10
-75.2198343518
 20
4.9545891942
 10
-75.2151730799
 20
4.9628750024
 10
-75.2102328291
 20
4.9709961011
 10
-75.2050141336
 20
4.9789354759
 10
-75.1995175277
 20
4.9866761124
 10
-75.1937435457
 20
4.9942009963
 10
-75.1876927217
 20
5.001493113
 10
-75.18136559
 20
5.0085354483
 10
-75.1747127308
 20
5.0153674044
 10
-75.1677989077
 20
5.0219361053
 10
-75.160643288
 20
5.0282493076
 10
-75.1532650389
 20
5.0343147679
 10
-75.1456833278
 20
5.0401402428
 10
-75.1379173218
 20
5.0457334888
 10
-75.1299861884
 20
5.0511022627
 10
-75.1219090947
 20
5.0562543208
 10
-75.1137052082
 20
5.0611974199
 10
-75.1030023734
 20
5.0672512393
 10
-75.0921299594
 20
5.0729664611
 10
-75.0810961043
 20
5.0783367237
 10
-75.0699089458
 20
5.0833556651
 10
-75.0585766219
 20
5.0880169238
 10
-75.0471072704
 20
5.0923141379
 10
-75.0355090291
 20
5.0962409458
 10
-75.0229763962
 20
5.1000267408
 10
-75.0103196235
 20
5.103400823
 10
-74.9975525932
 20
5.1063821336
 10
-74.9846891876
 20
5.1089896139
 10
-74.9717432889
 20
5.1112422052
 10
-74.9587287794
 20
5.1131588488
 10
-74.9456595413
 20
5.1147584859
 10
-74.9325494568
 20
5.1160600579
 10
-74.9194124081
 20
5.1170825061
 10
-74.9062622775
 20
5.1178447717
 10
-74.8931129473
 20
5.118365796
 10
-74.8799782996
 20
5.1186645203
 10
-74.8668722168
 20
5.1187598859
  0
LWPOLYLINE
  5
695
100
AcDbEntity
  8
CURVE
100
AcDbPolyline
 62
7
  6
CONTINUOUS
 90
3
 70
0
 10
-75.2764340771
 20
4.6866121309
 10
-75.2745852129
 20
4.7020250568
 10
-75.2728759611
 20
4.7174608972
  0
LWPOLYLINE
  5
696
100
AcDbEntity
  8
CURVE
100
AcDbPolyline
 62
253
  6
CONTINUOUS
 90
49
 70
0
 10
-75.2891037378
 20
-6.804625691
 10
-75.287670929
 20
-6.793561482
 10
-75.2859403281
 20
-6.7824965657
 10
-75.2839127208
 20
-6.771443063
 10
-75.2815888925
 20
-6.7604130948
 10
-75.2789696289
 20
-6.749418782
 10
-75.2760557155
 20
-6.7384722454
 10
-75.2728479379
 20
-6.727585606
 10
-75.2693470816
 20
-6.7167709845
 10
-75.2655539322
 20
-6.7060405019
 10
-75.2614692753
 20
-6.695406279
 10
-75.2570938965
 20
-6.6848804368
 10
-75.2524285813
 20
-6.6744750961
 10
-75.2474741152
 20
-6.6642023778
 10
-75.2422312839
 20
-6.6540744027
 10
-75.2367008729
 20
-6.6441032918
 10
-75.2308836678
 20
-6.6343011659
 10
-75.2247804541
 20
-6.6246801459
 10
-75.2183920174
 20
-6.6152523527
 10
-75.2117191434
 20
-6.6060299072
 10
-75.2047626174
 20
-6.5970249301
 10
-75.1975232252
 20
-6.5882495425
 10
-75.1900017522
 20
-6.5797158652
 10
-75.1821989841
 20
-6.571436019
 10
-75.1741157064
 20
-6.5634221249
 10
-75.1657577742
 20
-6.5556875616
 10
-75.1571335165
 20
-6.5482344547
 10
-75.1482561343
 20
-6.541066384
 10
-75.1391388287
 20
-6.5341869293
 10
-75.1297948007
 20
-6.5275996704
 10
-75.1202372516
 20
-6.521308187
 10
-75.1104793823
 20
-6.5153160589
 10
-75.1005343939
 20
-6.5096268658
 10
-75.0904154876
 20
-6.5042441876
 10
-75.0801358643
 20
-6.4991716039
 10
-75.0697087253
 20
-6.4944126945
 10
-75.0591472716
 20
-6.4899710392
 10
-75.0484647042
 20
-6.4858502177
 10
-75.0376742242
 20
-6.4820538098
 10
-75.0267890328
 20
-6.4785853953
 10
-75.015822331
 20
-6.4754485539
 10
-75.0047873199
 20
-6.4726468654
 10
-74.9936972006
 20
-6.4701839095
 10
-74.9825651742
 20
-6.468063266
 10
-74.9714044417
 20
-6.4662885147
 10
-74.9602282043
 20
-6.4648632352
 10
-74.949049663
 20
-6.4637910075
 10
-74.9378820189
 20
-6.4630754112
 10
-74.9267384731
 20
-6.4627200261
  0
LINE
  5
697
100
AcDbEntity
  8
CURVE
100
AcDbLine
 62
7
  6
CONTINUOUS
 10
-73.4735544496
 20
10.139549
 11
-72.8591026603
 21
10.348431
  0
LINE
  5
698
100
AcDbEntity
  8
CURVE
100
AcDbLine
 62
7
  6
CONTINUOUS
 10
-75.2042291488
 20
9.581471
 11
-73.9553406593
 21
9.982943
  0
LINE
  5
699
100
AcDbEntity
  8
CURVE
100
AcDbLine
 62
253
  6
CONTINUOUS
 10
-75.7658740273
 20
-16.342748
 11
-73.7705609578
 21
-15.790021
  0
LINE
  5
69A
100
AcDbEntity
  8
CURVE
100
AcDbLine
 62
253
  6
CONTINUOUS
 10
-71.8599251064
 20
-14.8828571218
 11
-70.5601231027
 21
-14.53
  0
LINE
  5
69B
100
AcDbEntity
  8
0
100
AcDbLine
 62
7
  6
CONTINUOUS
 10
-80.7591026603
 20
-13.2261825974
 11
-79.2591026603
 21
-13.2
  0
LINE
  5
69C
100
AcDbEntity
  8
RACCORDO
100
AcDbLine
 62
7
  6
CONTINUOUS
 10
-77.8126924988
 20
-13.1485702193
 11
-80.7591026603
 21
-13.2
  0
LINE
  5
69D
100
AcDbEntity
  8
ASSI
100
AcDbLine
 62
7
  6
CONTINUOUS
 10
-77.8126924988
 20
-13.1485702193
 11
-80.7591026603
 21
-13.2
  0
LINE
  5
69E
100
AcDbEntity
  8
CURVE
100
AcDbLine
 62
253
  6
CONTINUOUS
 10
-72.8671042224
 20
-13.785664
 11
-75.7660479743
 21
-13.785664
  0
LINE
  5
69F
100
AcDbEntity
  8
0
100
AcDbLine
 62
7
  6
CONTINUOUS
 10
-46.5091026603
 20
-13.7
 11
-41.0091026603
 21
-13.7
  0
LINE
  5
6A0
100
AcDbEntity
  8
0
100
AcDbLine
 62
7
  6
CONTINUOUS
 10
-67.0091026603
 20
-13.6724746079
 11
-62.0091026603
 21
-13.6724746079
  0
LINE
  5
6A1
100
AcDbEntity
  8
0
100
AcDbLine
 62
7
  6
CONTINUOUS
 10
-56.5091026603
 20
-13.6724746079
 11
-51.5091026603
 21
-13.6724746079
  0
LINE
  5
6A2
100
AcDbEntity
  8
CURVE
100
AcDbLine
 62
253
  6
CONTINUOUS
 10
-70.5601231027
 20
-13.1479761624
 11
-71.8599251064
 21
-13.1479761624
  0
LINE
  5
6A3
100
AcDbEntity
  8
0
100
AcDbLine
 62
7
  6
CONTINUOUS
 10
-67.5091026603
 20
-12.9
 11
-62.0091026603
 21
-12.9
  0
LINE
  5
6A4
100
AcDbEntity
  8
0
100
AcDbLine
 62
7
  6
CONTINUOUS
 10
-57.0091026603
 20
-12.9
 11
-51.5091026603
 21
-12.9
  0
LINE
  5
6A5
100
AcDbEntity
  8
0
100
AcDbLine
 62
7
  6
CONTINUOUS
 10
-77.2591026603
 20
-13.2349101299
 11
-79.2591026603
 21
-13.2
  0
LINE
  5
6A6
100
AcDbEntity
  8
CURVE
100
AcDbLine
 62
253
  6
CONTINUOUS
 10
-74.7599465125
 20
-12.750162
 11
-72.8671042224
 21
-12.880779
  0
LINE
  5
6A7
100
AcDbEntity
  8
CURVE
100
AcDbLine
 62
253
  6
CONTINUOUS
 10
-74.9693657068
 20
-9.233126
 11
-73.8935954718
 21
-9.5345
  0
LINE
  5
6A8
100
AcDbEntity
  8
CURVE
100
AcDbLine
 62
253
  6
CONTINUOUS
 10
-73.4458019052
 20
-9.658312
 11
-72.8671042224
 21
-9.825329
  0
LINE
  5
6A9
100
AcDbEntity
  8
CURVE
100
AcDbLine
 62
253
  6
CONTINUOUS
 10
-72.8671042224
 20
-10.424033
 11
-75.7658740273
 21
-9.514517
  0
LINE
  5
6AA
100
AcDbEntity
  8
CURVE
100
AcDbLine
 62
253
  6
CONTINUOUS
 10
-71.1171811099
 20
-9.0313092995
 11
-71.8599251064
 21
-8.6784523249
  0
LINE
  5
6AB
100
AcDbEntity
  8
CURVE
100
AcDbLine
 62
253
  6
CONTINUOUS
 10
-70.7458091116
 20
-10.6779761624
 11
-70.5601231027
 21
-10.8544046497
  0
LWPOLYLINE
  5
6AC
100
AcDbEntity
  8
CURVE
100
AcDbPolyline
 62
253
  6
CONTINUOUS
 90
62
 70
0
 10
-74.3127037262
 20
-6.1854704217
 10
-74.3314617341
 20
-6.1640680998
 10
-74.3504403475
 20
-6.1432380584
 10
-74.3699718682
 20
-6.1229750287
 10
-74.3899420398
 20
-6.1036490017
 10
-74.4107104493
 20
-6.0849693937
 10
-74.4322223522
 20
-6.0670413309
 10
-74.454423004
 20
-6.0499699399
 10
-74.4775875276
 20
-6.0336171054
 10
-74.501362831
 20
-6.0182262631
 10
-74.5257076291
 20
-6.0037702092
 10
-74.5505806373
 20
-5.9902217399
 10
-74.5759572975
 20
-5.9775515264
 10
-74.6017825266
 20
-5.9657696619
 10
-74.6280173469
 20
-5.9548829905
 10
-74.6546227805
 20
-5.9448983562
 10
-74.6815598498
 20
-5.9358226033
 10
-74.7087895769
 20
-5.9276625757
 10
-74.736272984
 20
-5.9204251176
 10
-74.7639710934
 20
-5.914117073
 10
-74.7917070187
 20
-5.9087657588
 10
-74.8195920027
 20
-5.9043233645
 10
-74.8476011375
 20
-5.900771919
 10
-74.8757095155
 20
-5.8980934514
 10
-74.9038922288
 20
-5.8962699906
 10
-74.9321243696
 20
-5.8952835656
 10
-74.9603810302
 20
-5.8951162053
 10
-74.9886373028
 20
-5.8957499389
 10
-75.0168703695
 20
-5.8971737689
 10
-75.0450485245
 20
-5.8994036451
 10
-75.0731421569
 20
-5.9024623317
 10
-75.1011216561
 20
-5.9063725927
 10
-75.1289574112
 20
-5.9111571921
 10
-75.1566198115
 20
-5.916838894
 10
-75.1840792462
 20
-5.9234404624
 10
-75.2113061045
 20
-5.9309846614
 10
-75.2382902601
 20
-5.9394959632
 10
-75.2649696199
 20
-5.9489638599
 10
-75.2913019975
 20
-5.9593779986
 10
-75.3172452059
 20
-5.9707280263
 10
-75.3427570586
 20
-5.9830035901
 10
-75.3677953688
 20
-5.9961943373
 10
-75.3923179499
 20
-6.0102899148
 10
-75.416282615
 20
-6.0252799698
 10
-75.4396553044
 20
-6.0411537615
 10
-75.4624142726
 20
-6.057885094
 10
-75.4845460744
 20
-6.0754471279
 10
-75.5060372647
 20
-6.0938130237
 10
-75.5268743985
 20
-6.1129559419
 10
-75.5470440306
 20
-6.132849043
 10
-75.566532716
 20
-6.1534654875
 10
-75.5853270095
 20
-6.1747784359
 10
-75.5998234694
 20
-6.1922853013
 10
-75.6138169294
 20
-6.2102119919
 10
-75.6272559772
 20
-6.2285510984
 10
-75.6400892007
 20
-6.2472952118
 10
-75.6522651876
 20
-6.2664369227
 10
-75.6637325258
 20
-6.285968822
 10
-75.674439803
 20
-6.3058835006
 10
-75.6843356071
 20
-6.326173549
 10
-75.693368526
 20
-6.3468315583
 10
-75.7014871473
 20
-6.3678501192
  0
LWPOLYLINE
  5
6AD
100
AcDbEntity
  8
CURVE
100
AcDbPolyline
 62
253
  6
CONTINUOUS
 90
12
 70
0
 10
-74.2373532299
 20
-6.30544429
 10
-74.2391869324
 20
-6.2953992916
 10
-74.241988641
 20
-6.2856463252
 10
-74.2456557479
 20
-6.2761638106
 10
-74.2500856455
 20
-6.2669301671
 10
-74.2551757261
 20
-6.2579238142
 10
-74.2608233819
 20
-6.2491231715
 10
-74.2669260055
 20
-6.2405066585
 10
-74.2733809889
 20
-6.2320526946
 10
-74.2800857247
 20
-6.2237396994
 10
-74.286937605
 20
-6.2155460923
 10
-74.3127037262
 20
-6.1854704217
  0
LWPOLYLINE
  5
6AE
100
AcDbEntity
  8
CURVE
100
AcDbPolyline
 62
7
  6
CONTINUOUS
 90
3
 70
0
 10
-74.4608684724
 20
4.7174608972
 10
-74.4591592206
 20
4.7020250568
 10
-74.4573103565
 20
4.6866121309
  0
LINE
  5
6AF
100
AcDbEntity
  8
CURVE
100
AcDbLine
 62
7
  6
CONTINUOUS
 10
-73.4735544496
 20
8.990812
 11
-73.4735544496
 21
10.139549
  0
LINE
  5
6B0
100
AcDbEntity
  8
CURVE
100
AcDbLine
 62
7
  6
CONTINUOUS
 10
-73.4735544496
 20
15.015846
 11
-73.4735544496
 21
16.164584
  0
LINE
  5
6B1
100
AcDbEntity
  8
CURVE
100
AcDbLine
 62
253
  6
CONTINUOUS
 10
-73.4458019052
 20
-8.834033
 11
-73.4458019052
 21
-9.658312
  0
LINE
  5
6B2
100
AcDbEntity
  8
CURVE
100
AcDbLine
 62
7
  6
CONTINUOUS
 10
-73.34088887
 20
6.793739
 11
-73.34088887
 21
7.866738
  0
LINE
  5
6B3
100
AcDbEntity
  8
CURVE
100
AcDbLine
 62
253
  6
CONTINUOUS
 10
-72.8671042224
 20
-8.039304
 11
-72.8671042224
 21
-8.677235
  0
LINE
  5
6B4
100
AcDbEntity
  8
CURVE
100
AcDbLine
 62
253
  6
CONTINUOUS
 10
-72.8671042224
 20
-9.825329
 11
-72.8671042224
 21
-10.424033
  0
LINE
  5
6B5
100
AcDbEntity
  8
CURVE
100
AcDbLine
 62
253
  6
CONTINUOUS
 10
-72.8671042224
 20
-10.519077
 11
-72.8671042224
 21
-11.111193
  0
LINE
  5
6B6
100
AcDbEntity
  8
CURVE
100
AcDbLine
 62
253
  6
CONTINUOUS
 10
-72.8671042224
 20
-11.955216
 11
-72.8671042224
 21
-12.040105
  0
LINE
  5
6B7
100
AcDbEntity
  8
CURVE
100
AcDbLine
 62
253
  6
CONTINUOUS
 10
-72.8671042224
 20
-12.880779
 11
-72.8671042224
 21
-13.459827
  0
LINE
  5
6B8
100
AcDbEntity
  8
CURVE
100
AcDbLine
 62
253
  6
CONTINUOUS
 10
-72.8671042224
 20
-15.547617
 11
-72.8671042224
 21
-16.081013
  0
LINE
  5
6B9
100
AcDbEntity
  8
CURVE
100
AcDbLine
 62
253
  6
CONTINUOUS
 10
-72.8671042224
 20
-14.390935
 11
-72.8671042224
 21
-13.785664
  0
LINE
  5
6BA
100
AcDbEntity
  8
CURVE
100
AcDbLine
 62
253
  6
CONTINUOUS
 10
-72.8671038702
 20
-7.8615673444
 11
-72.8671038702
 21
-7.2587313832
  0
LINE
  5
6BB
100
AcDbEntity
  8
CURVE
100
AcDbLine
 62
253
  6
CONTINUOUS
 10
-72.8671038702
 20
-6.3318417383
 11
-72.8671038702
 21
-5.7496410148
  0
LINE
  5
6BC
100
AcDbEntity
  8
CURVE
100
AcDbLine
 62
7
  6
CONTINUOUS
 10
-72.8591026603
 20
13.911198
 11
-72.8591026603
 21
13.027546
  0
LINE
  5
6BD
100
AcDbEntity
  8
CURVE
100
AcDbLine
 62
7
  6
CONTINUOUS
 10
-72.8591026603
 20
11.87477
 11
-72.8591026603
 21
11.292325
  0
LINE
  5
6BE
100
AcDbEntity
  8
CURVE
100
AcDbLine
 62
7
  6
CONTINUOUS
 10
-72.8591026603
 20
7.866738
 11
-72.8591026603
 21
6.171133
  0
LINE
  5
6BF
100
AcDbEntity
  8
CURVE
100
AcDbLine
 62
7
  6
CONTINUOUS
 10
-72.8591026603
 20
3.70079
 11
-72.8591026603
 21
4.323396
  0
LINE
  5
6C0
100
AcDbEntity
  8
CURVE
100
AcDbLine
 62
7
  6
CONTINUOUS
 10
-72.8591026603
 20
8.179514
 11
-72.8591026603
 21
8.773964
  0
LINE
  5
6C1
100
AcDbEntity
  8
CURVE
100
AcDbLine
 62
7
  6
CONTINUOUS
 10
-72.8591026603
 20
10.348431
 11
-72.8591026603
 21
10.975074
  0
LINE
  5
6C2
100
AcDbEntity
  8
CURVE
100
AcDbLine
 62
7
  6
CONTINUOUS
 10
-72.8591026603
 20
14.20444
 11
-72.8591026603
 21
14.798889
  0
LINE
  5
6C3
100
AcDbEntity
  8
CURVE
100
AcDbLine
 62
7
  6
CONTINUOUS
 10
-72.8591026603
 20
16.373574
 11
-72.8591026603
 21
17.0
  0
LINE
  5
6C4
100
AcDbEntity
  8
CURVE
100
AcDbLine
 62
253
  6
CONTINUOUS
 10
-72.4598337235
 20
14.907142663
 11
-72.4598337235
 21
14.364285779
  0
LINE
  5
6C5
100
AcDbEntity
  8
CURVE
100
AcDbLine
 62
253
  6
CONTINUOUS
 10
-72.4598337235
 20
15.721428442
 11
-72.4598337235
 21
16.671428442
  0
LINE
  5
6C6
100
AcDbEntity
  8
CURVE
100
AcDbLine
 62
253
  6
CONTINUOUS
 10
-71.8599251064
 20
-16.8235714207
 11
-71.8599251064
 21
-16.4707142805
  0
LINE
  5
6C7
100
AcDbEntity
  8
CURVE
100
AcDbLine
 62
253
  6
CONTINUOUS
 10
-71.8599251064
 20
-13.1479761624
 11
-71.8599251064
 21
-12.6186904061
  0
LINE
  5
6C8
100
AcDbEntity
  8
CURVE
100
AcDbLine
 62
253
  6
CONTINUOUS
 10
-71.8599251064
 20
-11.2954761624
 11
-71.8599251064
 21
-10.8544046497
  0
LINE
  5
6C9
100
AcDbEntity
  8
CURVE
100
AcDbLine
 62
253
  6
CONTINUOUS
 10
-71.8599251064
 20
-7.2670238376
 11
-71.8599251064
 21
-6.7377383757
  0
LINE
  5
6CA
100
AcDbEntity
  8
CURVE
100
AcDbLine
 62
253
  6
CONTINUOUS
 10
-71.8599251064
 20
-6.3848814011
 11
-71.8599251064
 21
-5.9438092995
  0
LINE
  5
6CB
100
AcDbEntity
  8
CURVE
100
AcDbLine
 62
253
  6
CONTINUOUS
 10
-71.8599251064
 20
-1.6119047731
 11
-71.8599251064
 21
-0.8690475971
  0
LINE
  5
6CC
100
AcDbEntity
  8
CURVE
100
AcDbLine
 62
253
  6
CONTINUOUS
 10
-71.6456720774
 20
14.907142663
 11
-71.6456720774
 21
14.635714221
  0
LWPOLYLINE
  5
6CD
100
AcDbEntity
  8
RACCORDO
100
AcDbPolyline
 62
253
  6
CONTINUOUS
 90
8
 70
0
 10
-77.5076482275
 20
-24.495628166
 10
-77.5075742774
 20
-24.4952867588
 10
-77.507504454
 20
-24.4942634962
 10
-77.5074389558
 20
-24.492559892
 10
-77.5073779583
 20
-24.4901787618
 10
-77.5073216513
 20
-24.4871256484
 10
-77.507270229
 20
-24.4834102087
 10
-77.5071826056
 20
-24.4740372277
  0
LWPOLYLINE
  5
6CE
100
AcDbEntity
  8
CURVE
100
AcDbPolyline
 62
253
  6
CONTINUOUS
 90
32
 70
0
 10
-75.7014871473
 20
-6.3678501192
 10
-75.7137075236
 20
-6.403218224
 10
-75.7249724735
 20
-6.4389132399
 10
-75.7353208319
 20
-6.4749042133
 10
-75.7447914335
 20
-6.5111601911
 10
-75.7534231131
 20
-6.5476502197
 10
-75.7612547053
 20
-6.584343346
 10
-75.768325045
 20
-6.6212086164
 10
-75.7746729668
 20
-6.6582150778
 10
-75.7803373057
 20
-6.6953317766
 10
-75.7853568962
 20
-6.7325277596
 10
-75.7907992145
 20
-6.7793054656
 10
-75.7953204675
 20
-6.8261476869
 10
-75.7989548913
 20
-6.8730427391
 10
-75.801736722
 20
-6.9199789375
 10
-75.8037001954
 20
-6.9669445979
 10
-75.8048795477
 20
-7.0139280357
 10
-75.805309015
 20
-7.0609175664
 10
-75.8050228332
 20
-7.1079015056
 10
-75.8037267583
 20
-7.1661225689
 10
-75.8014536317
 20
-7.2243139598
 10
-75.7982735334
 20
-7.2824725541
 10
-75.7942565432
 20
-7.3405952274
 10
-75.7894727411
 20
-7.3986788556
 10
-75.7839922071
 20
-7.4567203144
 10
-75.7778850212
 20
-7.5147164794
 10
-75.7712212634
 20
-7.5726642266
 10
-75.7640710135
 20
-7.6305604315
 10
-75.7565043516
 20
-7.6884019701
 10
-75.7485913576
 20
-7.7461857179
 10
-75.7404021115
 20
-7.8039085507
 10
-75.7320066933
 20
-7.8615673444
  0
LINE
  5
6CF
100
AcDbEntity
  8
CURVE
100
AcDbLine
 62
253
  6
CONTINUOUS
 10
-75.25940727
 20
0.5582142437
 11
-75.0737212805
 21
0.734642731
  0
LINE
  5
6D0
100
AcDbEntity
  8
CURVE
100
AcDbLine
 62
253
  6
CONTINUOUS
 10
-71.8599251064
 20
-14.177142731
 11
-70.5601231027
 21
-13.8242857563
  0
LINE
  5
6D1
100
AcDbEntity
  8
CURVE
100
AcDbLine
 62
253
  6
CONTINUOUS
 10
-75.7658740273
 20
-10.790227
 11
-72.8671042224
 21
-10.519077
  0
LINE
  5
6D2
100
AcDbEntity
  8
CURVE
100
AcDbLine
 62
253
  6
CONTINUOUS
 10
-72.8671042224
 20
-11.111193
 11
-74.7520559166
 21
-11.235548
  0
LINE
  5
6D3
100
AcDbEntity
  8
CURVE
100
AcDbLine
 62
253
  6
CONTINUOUS
 10
-70.5601231027
 20
-11.2954761624
 11
-71.8599251064
 21
-11.2954761624
  0
LINE
  5
6D4
100
AcDbEntity
  8
CURVE
100
AcDbLine
 62
253
  6
CONTINUOUS
 10
-71.674239117
 20
-10.6779761624
 11
-70.7458091116
 21
-10.6779761624
  0
LINE
  5
6D5
100
AcDbEntity
  8
CURVE
100
AcDbLine
 62
253
  6
CONTINUOUS
 10
-70.5601231027
 20
-9.9428569746
 11
-71.8599251064
 21
-9.9428569746
  0
LINE
  5
6D6
100
AcDbEntity
  8
CURVE
100
AcDbLine
 62
253
  6
CONTINUOUS
 10
-70.5601231027
 20
-9.384166863
 11
-71.8599251064
 21
-9.384166863
  0
LINE
  5
6D7
100
AcDbEntity
  8
RACCORDO
100
AcDbLine
 62
7
  6
CONTINUOUS
 10
-80.7591026603
 20
-9.0
 11
-77.8126924988
 21
-9.0514297807
  0
LINE
  5
6D8
100
AcDbEntity
  8
ASSI
100
AcDbLine
 62
7
  6
CONTINUOUS
 10
-80.7591026603
 20
-9.0
 11
-77.8126924988
 21
-9.0514297807
  0
LINE
  5
6D9
100
AcDbEntity
  8
0
100
AcDbLine
 62
7
  6
CONTINUOUS
 10
-80.7591026603
 20
-8.9738174026
 11
-79.2591026603
 21
-9.0
  0
LINE
  5
6DA
100
AcDbEntity
  8
CURVE
100
AcDbLine
 62
253
  6
CONTINUOUS
 10
-71.1171811099
 20
-7.9727383757
 11
-71.8599251064
 21
-7.6198808122
  0
LINE
  5
6DB
100
AcDbEntity
  8
CURVE
100
AcDbLine
 62
253
  6
CONTINUOUS
 10
-71.3028671381
 20
-5.7673814011
 11
-71.1171811099
 21
-5.9438092995
  0
LINE
  5
6DC
100
AcDbEntity
  8
CURVE
100
AcDbLine
 62
253
  6
CONTINUOUS
 10
-71.3028671381
 20
-6.9141662741
 11
-71.3028671381
 21
-7.2670238376
  0
LINE
  5
6DD
100
AcDbEntity
  8
CURVE
100
AcDbLine
 62
253
  6
CONTINUOUS
 10
-71.3028671381
 20
-12.7951191878
 11
-71.3028671381
 21
-13.1479761624
  0
LINE
  5
6DE
100
AcDbEntity
  8
CURVE
100
AcDbLine
 62
253
  6
CONTINUOUS
 10
-71.1171811099
 20
-5.9438092995
 11
-71.1171811099
 21
-6.3848814011
  0
LINE
  5
6DF
100
AcDbEntity
  8
CURVE
100
AcDbLine
 62
253
  6
CONTINUOUS
 10
-70.9672039541
 20
12.735714221
 11
-70.9672039541
 21
11.7857143342
  0
LINE
  5
6E0
100
AcDbEntity
  8
CURVE
100
AcDbLine
 62
253
  6
CONTINUOUS
 10
-70.9314951204
 20
-15.118095203
 11
-70.9314951204
 21
-14.6476190406
  0
LINE
  5
6E1
100
AcDbEntity
  8
CURVE
100
AcDbLine
 62
253
  6
CONTINUOUS
 10
-70.9314951204
 20
-0.3738095313
 11
-70.9314951204
 21
0.1214285344
  0
LINE
  5
6E2
100
AcDbEntity
  8
ASSI
100
AcDbLine
 62
253
  6
CONTINUOUS
 10
-70.6845828335
 20
23.7507734247
 11
-70.6845828335
 21
22.3338981669
  0
LINE
  5
6E3
100
AcDbEntity
  8
ASSI
100
AcDbLine
 62
253
  6
CONTINUOUS
 10
-70.6845828335
 20
-22.3338981669
 11
-70.6845828335
 21
-23.7507734247
  0
LINE
  5
6E4
100
AcDbEntity
  8
CURVE
100
AcDbLine
 62
253
  6
CONTINUOUS
 10
-70.5601231027
 20
-10.8544046497
 11
-70.5601231027
 21
-11.2954761624
  0
LINE
  5
6E5
100
AcDbEntity
  8
CURVE
100
AcDbLine
 62
253
  6
CONTINUOUS
 10
-70.5601231027
 20
-16.9117857103
 11
-70.5601231027
 21
-16.5589285609
  0
LINE
  5
6E6
100
AcDbEntity
  8
CURVE
100
AcDbLine
 62
253
  6
CONTINUOUS
 10
-70.5601231027
 20
-16.0296428782
 11
-70.5601231027
 21
-15.5885713655
  0
LINE
  5
6E7
100
AcDbEntity
  8
CURVE
100
AcDbLine
 62
253
  6
CONTINUOUS
 10
-70.5601231027
 20
-13.1479761624
 11
-70.5601231027
 21
-12.6186904061
  0
LINE
  5
6E8
100
AcDbEntity
  8
CURVE
100
AcDbLine
 62
253
  6
CONTINUOUS
 10
-70.5601231027
 20
-7.2670238376
 11
-70.5601231027
 21
-6.7377383757
  0
LINE
  5
6E9
100
AcDbEntity
  8
CURVE
100
AcDbLine
 62
253
  6
CONTINUOUS
 10
-70.5601231027
 20
0.6166667551
 11
-70.5601231027
 21
1.080952248
  0
LINE
  5
6EA
100
AcDbEntity
  8
CURVE
100
AcDbLine
 62
253
  6
CONTINUOUS
 10
-70.5601231027
 20
14.364285779
 11
-70.5601231027
 21
15.042857337
  0
LINE
  5
6EB
100
AcDbEntity
  8
ASSI
100
AcDbLine
 62
7
  6
CONTINUOUS
 10
-70.2591026603
 20
23.2563578147
 11
-70.2591026603
 21
22.3301954119
  0
LINE
  5
6EC
100
AcDbEntity
  8
RACCORDO
100
AcDbLine
 62
7
  6
CONTINUOUS
 10
-70.2591026603
 20
20.85
 11
-70.2591026603
 21
-20.85
  0
LINE
  5
6ED
100
AcDbEntity
  8
0
100
AcDbLine
 62
7
  6
CONTINUOUS
 10
-70.2591026603
 20
20.85
 11
-70.2591026603
 21
-20.85
  0
LINE
  5
6EE
100
AcDbEntity
  8
ASSI
100
AcDbLine
 62
7
  6
CONTINUOUS
 10
-70.2591026603
 20
-22.3301954119
 11
-70.2591026603
 21
-23.2563578147
  0
LINE
  5
6EF
100
AcDbEntity
  8
DRAFT
100
AcDbLine
 62
7
  6
CONTINUOUS
 10
-69.2591026603
 20
20.85
 11
-69.2591026603
 21
18.2574425998
  0
LINE
  5
6F0
100
AcDbEntity
  8
0
100
AcDbLine
 62
7
  6
CONTINUOUS
 10
-69.2591026603
 20
20.85
 11
-69.2591026603
 21
18.2574425998
  0
LINE
  5
6F1
100
AcDbEntity
  8
DRAFT
100
AcDbLine
 62
7
  6
CONTINUOUS
 10
-69.2591026603
 20
-18.2574425998
 11
-69.2591026603
 21
-20.85
  0
LINE
  5
6F2
100
AcDbEntity
  8
0
100
AcDbLine
 62
7
  6
CONTINUOUS
 10
-69.2591026603
 20
-18.2574425998
 11
-69.2591026603
 21
-20.85
  0
LINE
  5
6F3
100
AcDbEntity
  8
0
100
AcDbLine
 62
7
  6
CONTINUOUS
 10
-77.2591026603
 20
-8.9650898701
 11
-79.2591026603
 21
-9.0
  0
LINE
  5
6F4
100
AcDbEntity
  8
CURVE
100
AcDbLine
 62
253
  6
CONTINUOUS
 10
-71.8599251064
 20
-8.6784523249
 11
-70.5601231027
 21
-8.6784523249
  0
LINE
  5
6F5
100
AcDbEntity
  8
CURVE
100
AcDbLine
 62
253
  6
CONTINUOUS
 10
-70.5601231027
 20
-8.3255953503
 11
-71.8599251064
 21
-8.3255953503
  0
LINE
  5
6F6
100
AcDbEntity
  8
CURVE
100
AcDbLine
 62
253
  6
CONTINUOUS
 10
-75.7320066933
 20
-7.8615673444
 11
-72.8671038702
 21
-7.8615673444
  0
LINE
  5
6F7
100
AcDbEntity
  8
CURVE
100
AcDbLine
 62
253
  6
CONTINUOUS
 10
-71.8599251064
 20
-7.6198808122
 11
-70.5601231027
 21
-7.6198808122
  0
LINE
  5
6F8
100
AcDbEntity
  8
CURVE
100
AcDbLine
 62
253
  6
CONTINUOUS
 10
-74.4762708438
 20
-7.2788012718
 11
-75.2720397466
 21
-7.2788012718
  0
LINE
  5
6F9
100
AcDbEntity
  8
CURVE
100
AcDbLine
 62
253
  6
CONTINUOUS
 10
-70.5601231027
 20
-7.2670238376
 11
-71.8599251064
 21
-7.2670238376
  0
LINE
  5
6FA
100
AcDbEntity
  8
CURVE
100
AcDbLine
 62
253
  6
CONTINUOUS
 10
-72.8671038702
 20
-7.2587313832
 11
-74.0015223506
 21
-7.2587313832
  0
LINE
  5
6FB
100
AcDbEntity
  8
CURVE
100
AcDbLine
 62
253
  6
CONTINUOUS
 10
-74.1452912751
 20
0.734642731
 11
-73.9596052663
 21
0.5582142437
  0
LINE
  5
6FC
100
AcDbEntity
  8
RACCORDO
100
AcDbLine
 62
253
  6
CONTINUOUS
 10
-68.4662094415
 20
-19.0320035977
 11
-68.4609737195
 21
-19.3319579062
  0
LINE
  5
6FD
100
AcDbEntity
  8
0
100
AcDbLine
 62
253
  6
CONTINUOUS
 10
-68.4662094415
 20
-19.0320035977
 11
-68.4609737195
 21
-19.3319579062
  0
LINE
  5
6FE
100
AcDbEntity
  8
RACCORDO
100
AcDbLine
 62
253
  6
CONTINUOUS
 10
-68.4662094415
 20
19.0320035977
 11
-68.4662094415
 21
18.2505231255
  0
LINE
  5
6FF
100
AcDbEntity
  8
0
100
AcDbLine
 62
253
  6
CONTINUOUS
 10
-68.4662094415
 20
19.0320035977
 11
-68.4662094415
 21
18.2505231255
  0
LINE
  5
700
100
AcDbEntity
  8
RACCORDO
100
AcDbLine
 62
253
  6
CONTINUOUS
 10
-68.4662094415
 20
-18.2505231255
 11
-68.4662094415
 21
-19.0320035977
  0
LINE
  5
701
100
AcDbEntity
  8
0
100
AcDbLine
 62
253
  6
CONTINUOUS
 10
-68.4662094415
 20
-18.2505231255
 11
-68.4662094415
 21
-19.0320035977
  0
LINE
  5
702
100
AcDbEntity
  8
RACCORDO
100
AcDbLine
 62
7
  6
CONTINUOUS
 10
-68.2591026603
 20
18.248715732
 11
-68.2591026603
 21
18.2
  0
LINE
  5
703
100
AcDbEntity
  8
0
100
AcDbLine
 62
7
  6
CONTINUOUS
 10
-68.2591026603
 20
18.248715732
 11
-68.2591026603
 21
18.2
  0
LINE
  5
704
100
AcDbEntity
  8
RACCORDO
100
AcDbLine
 62
7
  6
CONTINUOUS
 10
-68.2591026603
 20
-18.2
 11
-68.2591026603
 21
-18.248715732
  0
LINE
  5
705
100
AcDbEntity
  8
0
100
AcDbLine
 62
7
  6
CONTINUOUS
 10
-68.2591026603
 20
-18.2
 11
-68.2591026603
 21
-18.248715732
  0
LINE
  5
706
100
AcDbEntity
  8
RACCORDO
100
AcDbLine
 62
253
  6
CONTINUOUS
 10
-68.1126560509
 20
19.0295350787
 11
-68.1126560509
 21
18.2474377118
  0
LINE
  5
707
100
AcDbEntity
  8
0
100
AcDbLine
 62
253
  6
CONTINUOUS
 10
-68.1126560509
 20
19.0295350787
 11
-68.1126560509
 21
18.2474377118
  0
LINE
  5
708
100
AcDbEntity
  8
RACCORDO
100
AcDbLine
 62
253
  6
CONTINUOUS
 10
-68.1126560509
 20
-18.2474377118
 11
-68.1126560509
 21
-19.0295350787
  0
LINE
  5
709
100
AcDbEntity
  8
0
100
AcDbLine
 62
253
  6
CONTINUOUS
 10
-68.1126560509
 20
-18.2474377118
 11
-68.1126560509
 21
-19.0295350787
  0
LINE
  5
70A
100
AcDbEntity
  8
RACCORDO
100
AcDbLine
 62
253
  6
CONTINUOUS
 10
-67.7503764571
 20
21.5659754333
 11
-67.7503764571
 21
20.9917082642
  0
LINE
  5
70B
100
AcDbEntity
  8
RACCORDO
100
AcDbLine
 62
253
  6
CONTINUOUS
 10
-67.7503764571
 20
-20.9917082642
 11
-67.7503764571
 21
-21.5659754333
  0
LINE
  5
70C
100
AcDbEntity
  8
0
100
AcDbLine
 62
7
  6
CONTINUOUS
 10
-67.5091026603
 20
-18.1937377106
 11
-67.5091026603
 21
-12.9
  0
LINE
  5
70D
100
AcDbEntity
  8
RACCORDO
100
AcDbLine
 62
7
  6
CONTINUOUS
 10
-67.2591026603
 20
-19.9570181168
 11
-67.2591026603
 21
-21.3126932437
  0
LINE
  5
70E
100
AcDbEntity
  8
RACCORDO
100
AcDbLine
 62
7
  6
CONTINUOUS
 10
-67.2591026603
 20
19.9570181168
 11
-67.2591026603
 21
21.3126932437
  0
LINE
  5
70F
100
AcDbEntity
  8
0
100
AcDbLine
 62
7
  6
CONTINUOUS
 10
-67.0091026603
 20
-13.6724746276
 11
-67.0091026603
 21
-15.0724746079
  0
LINE
  5
710
100
AcDbEntity
  8
ASSI
100
AcDbLine
 62
7
  6
CONTINUOUS
 10
-67.0091026603
 20
-15.0724746079
 11
-67.0091026603
 21
-17.2
  0
LINE
  5
711
100
AcDbEntity
  8
0
100
AcDbLine
 62
7
  6
CONTINUOUS
 10
-67.0091026603
 20
-17.2
 11
-67.0091026603
 21
-18.6
  0
LINE
  5
712
100
AcDbEntity
  8
RACCORDO
100
AcDbLine
 62
253
  6
CONTINUOUS
 10
-68.4609737195
 20
19.3319579062
 11
-68.4662094411
 21
19.0320035977
  0
LINE
  5
713
100
AcDbEntity
  8
0
100
AcDbLine
 62
253
  6
CONTINUOUS
 10
-68.4609737195
 20
19.3319579062
 11
-68.4662094411
 21
19.0320035977
  0
LWPOLYLINE
  5
714
100
AcDbEntity
  8
RACCORDO
100
AcDbPolyline
 62
253
  6
CONTINUOUS
 90
10
 70
0
 10
-68.1126560509
 20
-19.0295350787
 10
-68.1153774302
 20
-19.0812204345
 10
-68.1243623037
 20
-19.1313598726
 10
-68.1393419322
 20
-19.1784537162
 10
-68.1598682698
 20
-19.2210933826
 10
-68.1853273732
 20
-19.258003515
 10
-68.2149577656
 20
-19.2880801287
 10
-68.247873201
 20
-19.3104236289
 10
-68.2830891715
 20
-19.3243657182
 10
-68.3195523633
 20
-19.3294893873
  0
LWPOLYLINE
  5
715
100
AcDbEntity
  8
0
100
AcDbPolyline
 62
253
  6
CONTINUOUS
 90
10
 70
0
 10
-68.1126560509
 20
-19.0295350787
 10
-68.1153774302
 20
-19.0812204345
 10
-68.1243623037
 20
-19.1313598726
 10
-68.1393419322
 20
-19.1784537162
 10
-68.1598682698
 20
-19.2210933826
 10
-68.1853273732
 20
-19.258003515
 10
-68.2149577656
 20
-19.2880801287
 10
-68.247873201
 20
-19.3104236289
 10
-68.2830891715
 20
-19.3243657182
 10
-68.3195523633
 20
-19.3294893873
  0
LWPOLYLINE
  5
716
100
AcDbEntity
  8
0
100
AcDbPolyline
 62
7
  6
CONTINUOUS
 90
3
 70
0
 43
0.3500000006
 10
-55.866245636
 20
33.5357164307
 10
-55.937672287
 20
33.3214274139
 10
-56.0805301208
 20
33.0357162781
  0
LINE
  5
717
100
AcDbEntity
  8
CURVE
100
AcDbLine
 62
253
  6
CONTINUOUS
 10
-71.8599251064
 20
1.4523809522
 11
-71.3028671381
 21
1.8238096565
  0
LINE
  5
718
100
AcDbEntity
  8
CURVE
100
AcDbLine
 62
253
  6
CONTINUOUS
 10
-73.5596661882
 20
-0.2119047731
 11
-72.2598641845
 21
0.4380953044
  0
LINE
  5
719
100
AcDbEntity
  8
CURVE
100
AcDbLine
 62
253
  6
CONTINUOUS
 10
-72.8671042224
 20
-8.677235
 11
-73.4458019052
 21
-8.834033
  0
LINE
  5
71A
100
AcDbEntity
  8
CURVE
100
AcDbLine
 62
253
  6
CONTINUOUS
 10
-73.8935954718
 20
-8.954996
 11
-74.9693657068
 21
-9.233126
  0
LWPOLYLINE
  5
71B
100
AcDbEntity
  8
CURVE
100
AcDbPolyline
 62
253
  6
CONTINUOUS
 90
59
 70
0
 10
-74.9267384731
 20
-6.4627200261
 10
-74.9141790693
 20
-6.4626808006
 10
-74.9015243165
 20
-6.4629498901
 10
-74.8887915975
 20
-6.4635283562
 10
-74.875998295
 20
-6.4644172607
 10
-74.8631617917
 20
-6.4656176651
 10
-74.8502994704
 20
-6.4671306311
 10
-74.8374287138
 20
-6.4689572203
 10
-74.8245669048
 20
-6.4710984944
 10
-74.811731426
 20
-6.4735555149
 10
-74.7989396602
 20
-6.4763293435
 10
-74.7862089901
 20
-6.4794210418
 10
-74.7735567985
 20
-6.4828316715
 10
-74.7610004682
 20
-6.4865622942
 10
-74.7485573818
 20
-6.4906139715
 10
-74.7362449222
 20
-6.4949877651
 10
-74.7240804721
 20
-6.4996847366
 10
-74.7120814142
 20
-6.5047059476
 10
-74.7002651313
 20
-6.5100524598
 10
-74.6886490061
 20
-6.5157253348
 10
-74.6772504214
 20
-6.5217256342
 10
-74.66608676
 20
-6.5280544196
 10
-74.6551754045
 20
-6.5347127527
 10
-74.6445337378
 20
-6.5417016952
 10
-74.6341791426
 20
-6.5490223086
 10
-74.6241290016
 20
-6.5566756546
 10
-74.6144006976
 20
-6.5646627948
 10
-74.6050116133
 20
-6.5729847908
 10
-74.5959791315
 20
-6.5816427043
 10
-74.5873206349
 20
-6.590637597
 10
-74.5791149228
 20
-6.5998907667
 10
-74.5712870098
 20
-6.6094614623
 10
-74.5638296515
 20
-6.6193346315
 10
-74.5567356038
 20
-6.6294952224
 10
-74.5499976223
 20
-6.6399281828
 10
-74.5436084628
 20
-6.6506184606
 10
-74.5375608809
 20
-6.6615510038
 10
-74.5318476325
 20
-6.6727107602
 10
-74.5264614733
 20
-6.6840826779
 10
-74.521395159
 20
-6.6956517047
 10
-74.5166414453
 20
-6.7074027885
 10
-74.512193088
 20
-6.7193208773
 10
-74.5080428427
 20
-6.7313909189
 10
-74.5041834654
 20
-6.7435978614
 10
-74.5006077116
 20
-6.7559266525
 10
-74.4973083371
 20
-6.7683622402
 10
-74.4942780976
 20
-6.7808895725
 10
-74.4915097489
 20
-6.7934935973
 10
-74.4889960467
 20
-6.8061592624
 10
-74.4867297467
 20
-6.8188715158
 10
-74.4847036048
 20
-6.8316153054
 10
-74.4829103765
 20
-6.8443755791
 10
-74.4813428176
 20
-6.8571372849
 10
-74.479993684
 20
-6.8698853706
 10
-74.4788557312
 20
-6.8826047842
 10
-74.4779217151
 20
-6.8952804736
 10
-74.4771843913
 20
-6.9078973867
 10
-74.4766365156
 20
-6.9204404715
 10
-74.4762708438
 20
-6.9328946758
  0
LINE
  5
71C
100
AcDbEntity
  8
CURVE
100
AcDbLine
 62
253
  6
CONTINUOUS
 10
-70.5601231027
 20
-6.3848814011
 11
-71.8599251064
 21
-6.3848814011
  0
LINE
  5
71D
100
AcDbEntity
  8
CURVE
100
AcDbLine
 62
253
  6
CONTINUOUS
 10
-74.220224026
 20
-6.30544429
 11
-74.2373532299
 21
-6.30544429
  0
LINE
  5
71E
100
AcDbEntity
  8
CURVE
100
AcDbLine
 62
253
  6
CONTINUOUS
 10
-71.674239117
 20
-5.7673814011
 11
-71.3028671381
 21
-5.7673814011
  0
LINE
  5
71F
100
AcDbEntity
  8
ASSI
100
AcDbLine
 62
7
  6
CONTINUOUS
 10
-38.2591026603
 20
-5.1
 11
-46.7591026603
 21
-5.1
  0
LINE
  5
720
100
AcDbEntity
  8
RACCORDO
100
AcDbLine
 62
7
  6
CONTINUOUS
 10
-38.2591026603
 20
-5.0
 11
-46.6591026603
 21
-5.0
  0
LINE
  5
721
100
AcDbEntity
  8
ASSI
100
AcDbLine
 62
7
  6
CONTINUOUS
 10
-38.2591026603
 20
-5.0
 11
-46.6591026603
 21
-5.0
  0
LINE
  5
722
100
AcDbEntity
  8
CURVE
100
AcDbLine
 62
253
  6
CONTINUOUS
 10
-74.5166632734
 20
-1.6471428414
 11
-75.25940727
 21
-1.2942856827
  0
LINE
  5
723
100
AcDbEntity
  8
RACCORDO
100
AcDbLine
 62
253
  6
CONTINUOUS
 10
-66.4055492697
 20
-18.999737419
 11
-66.4055492697
 21
-18.6
  0
LINE
  5
724
100
AcDbEntity
  8
0
100
AcDbLine
 62
253
  6
CONTINUOUS
 10
-66.4055492697
 20
-18.999737419
 11
-66.4055492697
 21
-18.6
  0
LINE
  5
725
100
AcDbEntity
  8
RACCORDO
100
AcDbLine
 62
253
  6
CONTINUOUS
 10
-66.4055492697
 20
18.2325400167
 11
-66.4055492697
 21
18.999737419
  0
LINE
  5
726
100
AcDbEntity
  8
0
100
AcDbLine
 62
253
  6
CONTINUOUS
 10
-66.4055492697
 20
18.2325400167
 11
-66.4055492697
 21
18.999737419
  0
LINE
  5
727
100
AcDbEntity
  8
RACCORDO
100
AcDbLine
 62
7
  6
CONTINUOUS
 10
-66.2591026603
 20
-18.998714925
 11
-66.2591026603
 21
-18.6
  0
LINE
  5
728
100
AcDbEntity
  8
0
100
AcDbLine
 62
7
  6
CONTINUOUS
 10
-66.2591026603
 20
-18.998714925
 11
-66.2591026603
 21
-18.6
  0
LINE
  5
729
100
AcDbEntity
  8
RACCORDO
100
AcDbLine
 62
7
  6
CONTINUOUS
 10
-66.2591026603
 20
18.2
 11
-66.2591026603
 21
18.998714925
  0
LINE
  5
72A
100
AcDbEntity
  8
0
100
AcDbLine
 62
7
  6
CONTINUOUS
 10
-66.2591026603
 20
18.2
 11
-66.2591026603
 21
18.998714925
  0
LWPOLYLINE
  5
72B
100
AcDbEntity
  8
RACCORDO
100
AcDbPolyline
 62
253
  6
CONTINUOUS
 90
3
 70
0
 10
-66.4055492697
 20
-18.999737419
 10
-66.4082715151
 20
-19.0514311168
 10
-66.4172588312
 20
-19.101576269
  0
LWPOLYLINE
  5
72C
100
AcDbEntity
  8
0
100
AcDbPolyline
 62
253
  6
CONTINUOUS
 90
3
 70
0
 10
-66.4055492697
 20
-18.999737419
 10
-66.4082715151
 20
-19.0514311168
 10
-66.4172588312
 20
-19.101576269
  0
LINE
  5
72D
100
AcDbEntity
  8
0
100
AcDbLine
 62
253
  6
CONTINUOUS
 10
-69.3053277416
 20
-18.2
 11
-69.3067827261
 21
-18.2089905218
  0
LINE
  5
72E
100
AcDbEntity
  8
0
100
AcDbLine
 62
253
  6
CONTINUOUS
 10
-69.2570047781
 20
-18.2
 11
-69.2611467739
 21
-18.2179409547
  0
LWPOLYLINE
  5
72F
100
AcDbEntity
  8
RACCORDO
100
AcDbPolyline
 62
253
  6
CONTINUOUS
 90
5
 70
0
 10
-77.3865982628
 20
-23.6326765842
 10
-77.3854658867
 20
-23.6305857918
 10
-77.3846712012
 20
-23.6290788219
 10
-77.3842163784
 20
-23.6281597935
 10
-77.3841026603
 20
-23.6278312164
  0
LINE
  5
730
100
AcDbEntity
  8
CURVE
100
AcDbLine
 62
253
  6
CONTINUOUS
 10
-71.8599251064
 20
-5.9438092995
 11
-71.674239117
 21
-5.7673814011
  0
LINE
  5
731
100
AcDbEntity
  8
CURVE
100
AcDbLine
 62
253
  6
CONTINUOUS
 10
-75.25940727
 20
-2.0
 11
-74.5166632734
 21
-1.6471428414
  0
LINE
  5
732
100
AcDbEntity
  8
CURVE
100
AcDbLine
 62
253
  6
CONTINUOUS
 10
-71.8599251064
 20
-0.1261904985
 11
-70.5601231027
 21
0.2452380508
  0
LWPOLYLINE
  5
733
100
AcDbEntity
  8
CURVE
100
AcDbPolyline
 62
253
  6
CONTINUOUS
 90
42
 70
0
 10
-73.7257370712
 20
-5.9768915215
 10
-73.744173787
 20
-5.9821209164
 10
-73.7625708035
 20
-5.9874642666
 10
-73.7809238851
 20
-5.9929493098
 10
-73.7992287963
 20
-5.9986037837
 10
-73.8174813016
 20
-6.0044554262
 10
-73.8356771655
 20
-6.0105319749
 10
-73.8538121523
 20
-6.0168611677
 10
-73.8718820267
 20
-6.0234707421
 10
-73.889882553
 20
-6.0303884361
 10
-73.9078094957
 20
-6.0376419873
 10
-73.9256586193
 20
-6.0452591334
 10
-73.9434256883
 20
-6.0532676123
 10
-73.9611064671
 20
-6.0616951617
 10
-73.9786967202
 20
-6.0705695192
 10
-73.9900510299
 20
-6.0765752397
 10
-74.0013499054
 20
-6.0827813411
 10
-74.0125777631
 20
-6.0891886396
 10
-74.0237190196
 20
-6.0957979509
 10
-74.0347580915
 20
-6.102610091
 10
-74.0456793953
 20
-6.1096258759
 10
-74.0564673475
 20
-6.1168461214
 10
-74.0671063646
 20
-6.1242716435
 10
-74.0775808633
 20
-6.1319032581
 10
-74.0878752599
 20
-6.1397417811
 10
-74.0979739712
 20
-6.1477880285
 10
-74.1078614135
 20
-6.1560428161
 10
-74.1175220035
 20
-6.1645069599
 10
-74.1269401576
 20
-6.1731812758
 10
-74.1361002925
 20
-6.1820665798
 10
-74.1449868246
 20
-6.1911636877
 10
-74.1535841705
 20
-6.2004734155
 10
-74.1618767467
 20
-6.2099965791
 10
-74.1698489698
 20
-6.2197339945
 10
-74.1774852563
 20
-6.2296864774
 10
-74.1847700227
 20
-6.239854844
 10
-74.1916876856
 20
-6.25023991
 10
-74.1982226615
 20
-6.2608424915
 10
-74.204359367
 20
-6.2716634043
 10
-74.2100822185
 20
-6.2827034644
 10
-74.2153756327
 20
-6.2939634877
 10
-74.220224026
 20
-6.30544429
  0
LINE
  5
734
100
AcDbEntity
  8
CURVE
100
AcDbLine
 62
253
  6
CONTINUOUS
 10
-73.6887614837
 20
-5.9666636465
 11
-73.7257370712
 21
-5.9768915215
  0
LWPOLYLINE
  5
735
100
AcDbEntity
  8
CURVE
100
AcDbPolyline
 62
253
  6
CONTINUOUS
 90
3
 70
0
 10
-72.8671038702
 20
-5.7496410148
 10
-72.9650503185
 20
-5.7759741012
 10
-73.0631094278
 20
-5.8018864136
  0
LWPOLYLINE
  5
736
100
AcDbEntity
  8
CURVE
100
AcDbPolyline
 62
253
  6
CONTINUOUS
 90
4
 70
0
 10
-73.3575784289
 20
-5.8785334756
 10
-73.4557038895
 20
-5.9041974609
 10
-73.5537498647
 20
-5.9301580566
 10
-73.6887614837
 20
-5.9666636465
  0
LINE
  5
737
100
AcDbEntity
  8
CURVE
100
AcDbLine
 62
253
  6
CONTINUOUS
 10
-73.0631094278
 20
-5.8018864136
 11
-73.3575784289
 21
-5.8785334756
  0
LINE
  5
738
100
AcDbEntity
  8
0
100
AcDbLine
 62
7
  6
CONTINUOUS
 10
-47.2591026603
 20
-3.5
 11
-47.1591026603
 21
-3.5
  0
LINE
  5
739
100
AcDbEntity
  8
RACCORDO
100
AcDbLine
 62
253
  6
CONTINUOUS
 10
-36.7591026603
 20
-3.45
 11
-43.0117206209
 21
-3.45
  0
LINE
  5
73A
100
AcDbEntity
  8
ASSI
100
AcDbLine
 62
253
  6
CONTINUOUS
 10
-36.7591026603
 20
-3.45
 11
-43.0117206209
 21
-3.45
  0
LINE
  5
73B
100
AcDbEntity
  8
RACCORDO
100
AcDbLine
 62
7
  6
CONTINUOUS
 10
-36.7591026603
 20
-3.15
 11
-43.0091026575
 21
-3.15
  0
LINE
  5
73C
100
AcDbEntity
  8
ASSI
100
AcDbLine
 62
7
  6
CONTINUOUS
 10
-36.7591026603
 20
-3.15
 11
-43.0091026575
 21
-3.15
  0
LINE
  5
73D
100
AcDbEntity
  8
CURVE
100
AcDbLine
 62
253
  6
CONTINUOUS
 10
-70.5601231027
 20
-2.1999999955
 11
-71.8599251064
 21
-2.1999999955
  0
LWPOLYLINE
  5
73E
100
AcDbEntity
  8
RACCORDO
100
AcDbPolyline
 62
253
  6
CONTINUOUS
 90
46
 70
0
 10
-43.0117206209
 20
-3.45
 10
-43.1851453159
 20
-3.4436752602
 10
-43.3559631029
 20
-3.4256118656
 10
-43.5241739821
 20
-3.3958098161
 10
-43.6906135574
 20
-3.3539563869
 10
-43.8544462248
 20
-3.3003643027
 10
-44.0131651724
 20
-3.2359717385
 10
-44.166604745
 20
-3.1606531949
 10
-44.3149305978
 20
-3.0745341711
 10
-44.4561328851
 20
-2.9789293394
 10
-44.5901099928
 20
-2.8737324191
 10
-44.7169635349
 20
-2.7590496909
 10
-44.8349885082
 20
-2.6365146681
 10
-44.9440764766
 20
-2.5060384898
 10
-45.0443358761
 20
-2.3677100169
 10
-45.1343870115
 20
-2.2234293453
 10
-45.2141145926
 20
-2.0730910224
 10
-45.2836339096
 20
-1.9168005008
 10
-45.3419111377
 20
-1.7567742348
 10
-45.3887892366
 20
-1.5929409359
 10
-45.4244252467
 20
-1.4253718926
 10
-45.4482564639
 20
-1.2564974241
 10
-45.4600953216
 20
-1.0862583886
 10
-45.4601293864
 20
-0.9147139278
 10
-45.4483586539
 20
-0.7444717867
 10
-45.4245960271
 20
-0.5755919868
 10
-45.3890286028
 20
-0.4080145065
 10
-45.3422176673
 20
-0.2441670267
 10
-45.284006831
 20
-0.0841204328
 10
-45.2145524834
 20
0.0721961607
 10
-45.1348850788
 20
0.2225677293
 10
-45.0448901786
 20
0.3668892596
 10
-44.9446822215
 20
0.5052657651
 10
-44.8356349766
 20
0.6357972611
 10
-44.7176385407
 20
0.7583967957
 10
-44.5908028172
 20
0.8731513209
 10
-44.4568312853
 20
0.9784217082
 10
-44.3156213826
 20
1.0741020272
 10
-44.1672756715
 20
1.1602982082
 10
-44.0138053185
 20
1.2356889135
 10
-43.8550535801
 20
1.3001476039
 10
-43.6911771998
 20
1.3538008184
 10
-43.5246575741
 20
1.3957068374
 10
-43.3563218351
 20
1.4255517539
 10
-43.1853428508
 20
1.4436494748
 10
-43.0117206209
 20
1.45
  0
LWPOLYLINE
  5
73F
100
AcDbEntity
  8
ASSI
100
AcDbPolyline
 62
253
  6
CONTINUOUS
 90
46
 70
0
 10
-43.0117206209
 20
-3.45
 10
-43.1851453159
 20
-3.4436752602
 10
-43.3559631029
 20
-3.4256118656
 10
-43.5241739821
 20
-3.3958098161
 10
-43.6906135574
 20
-3.3539563869
 10
-43.8544462248
 20
-3.3003643027
 10
-44.0131651724
 20
-3.2359717385
 10
-44.166604745
 20
-3.1606531949
 10
-44.3149305978
 20
-3.0745341711
 10
-44.4561328851
 20
-2.9789293394
 10
-44.5901099928
 20
-2.8737324191
 10
-44.7169635349
 20
-2.7590496909
 10
-44.8349885082
 20
-2.6365146681
 10
-44.9440764766
 20
-2.5060384898
 10
-45.0443358761
 20
-2.3677100169
 10
-45.1343870115
 20
-2.2234293453
 10
-45.2141145926
 20
-2.0730910224
 10
-45.2836339096
 20
-1.9168005008
 10
-45.3419111377
 20
-1.7567742348
 10
-45.3887892366
 20
-1.5929409359
 10
-45.4244252467
 20
-1.4253718926
 10
-45.4482564639
 20
-1.2564974241
 10
-45.4600953216
 20
-1.0862583886
 10
-45.4601293864
 20
-0.9147139278
 10
-45.4483586539
 20
-0.7444717867
 10
-45.4245960271
 20
-0.5755919868
 10
-45.3890286028
 20
-0.4080145065
 10
-45.3422176673
 20
-0.2441670267
 10
-45.284006831
 20
-0.0841204328
 10
-45.2145524834
 20
0.0721961607
 10
-45.1348850788
 20
0.2225677293
 10
-45.0448901786
 20
0.3668892596
 10
-44.9446822215
 20
0.5052657651
 10
-44.8356349766
 20
0.6357972611
 10
-44.7176385407
 20
0.7583967957
 10
-44.5908028172
 20
0.8731513209
 10
-44.4568312853
 20
0.9784217082
 10
-44.3156213826
 20
1.0741020272
 10
-44.1672756715
 20
1.1602982082
 10
-44.0138053185
 20
1.2356889135
 10
-43.8550535801
 20
1.3001476039
 10
-43.6911771998
 20
1.3538008184
 10
-43.5246575741
 20
1.3957068374
 10
-43.3563218351
 20
1.4255517539
 10
-43.1853428508
 20
1.4436494748
 10
-43.0117206209
 20
1.45
  0
LINE
  5
740
100
AcDbEntity
  8
CURVE
100
AcDbLine
 62
253
  6
CONTINUOUS
 10
-73.9596052663
 20
-0.9414285609
 11
-75.25940727
 21
-0.5885713655
  0
LINE
  5
741
100
AcDbEntity
  8
CURVE
100
AcDbLine
 62
253
  6
CONTINUOUS
 10
-70.5601231027
 20
-0.4976190478
 11
-71.8599251064
 21
-0.1261904985
  0
LINE
  5
742
100
AcDbEntity
  8
CURVE
100
AcDbLine
 62
253
  6
CONTINUOUS
 10
-71.3028671381
 20
1.8238096565
 11
-71.8599251064
 21
2.1952380508
  0
LINE
  5
743
100
AcDbEntity
  8
0
100
AcDbLine
 62
253
  6
CONTINUOUS
 10
-69.2570047781
 20
18.2
 11
-69.2611467739
 21
18.2179409547
  0
LINE
  5
744
100
AcDbEntity
  8
0
100
AcDbLine
 62
253
  6
CONTINUOUS
 10
-69.3053277416
 20
18.2
 11
-69.3067827261
 21
18.2089905218
  0
LINE
  5
745
100
AcDbEntity
  8
0
100
AcDbLine
 62
7
  6
CONTINUOUS
 10
-62.0091026603
 20
-18.6
 11
-62.0091026603
 21
-12.9
  0
LINE
  5
746
100
AcDbEntity
  8
0
100
AcDbLine
 62
7
  6
CONTINUOUS
 10
-68.3944062863
 20
-18.2
 11
-68.4059490589
 21
-18.2499972411
  0
LINE
  5
747
100
AcDbEntity
  8
RACCORDO
100
AcDbLine
 62
253
  6
CONTINUOUS
 10
-77.3898628131
 20
-23.6385852371
 11
-77.3865982628
 21
-23.6326765842
  0
LINE
  5
748
100
AcDbEntity
  8
RACCORDO
100
AcDbLine
 62
253
  6
CONTINUOUS
 10
-77.3971856705
 20
-23.6516334796
 11
-77.3898628131
 21
-23.6385852371
  0
LINE
  5
749
100
AcDbEntity
  8
RACCORDO
100
AcDbLine
 62
253
  6
CONTINUOUS
 10
-77.4198229261
 20
-23.6914794042
 11
-77.3971856705
 21
-23.6516334796
  0
LINE
  5
74A
100
AcDbEntity
  8
RACCORDO
100
AcDbLine
 62
253
  6
CONTINUOUS
 10
-77.4946267913
 20
-23.821769291
 11
-77.4198229261
 21
-23.6914794042
  0
LINE
  5
74B
100
AcDbEntity
  8
RACCORDO
100
AcDbLine
 62
253
  6
CONTINUOUS
 10
-77.5076482275
 20
-23.8443375673
 11
-77.4946267913
 21
-23.821769291
  0
LINE
  5
74C
100
AcDbEntity
  8
CURVE
100
AcDbLine
 62
253
  6
CONTINUOUS
 10
-73.9596052663
 20
-2.0
 11
-75.25940727
 21
-2.0
  0
LINE
  5
74D
100
AcDbEntity
  8
CURVE
100
AcDbLine
 62
253
  6
CONTINUOUS
 10
-75.25940727
 20
-1.2942856827
 11
-73.9596052663
 21
-1.2942856827
  0
LINE
  5
74E
100
AcDbEntity
  8
CURVE
100
AcDbLine
 62
253
  6
CONTINUOUS
 10
-70.5601231027
 20
-1.2404762238
 11
-71.8599251064
 21
-1.2404762238
  0
LINE
  5
74F
100
AcDbEntity
  8
CURVE
100
AcDbLine
 62
253
  6
CONTINUOUS
 10
-72.2598641845
 20
-0.7999999955
 11
-73.5596661882
 21
-0.7999999955
  0
LINE
  5
750
100
AcDbEntity
  8
CURVE
100
AcDbLine
 62
253
  6
CONTINUOUS
 10
-72.2598641845
 20
-0.2119047731
 11
-73.5596661882
 21
-0.2119047731
  0
LINE
  5
751
100
AcDbEntity
  8
CURVE
100
AcDbLine
 62
253
  6
CONTINUOUS
 10
-73.9596052663
 20
0.1171428782
 11
-75.25940727
 21
0.1171428782
  0
LINE
  5
752
100
AcDbEntity
  8
CURVE
100
AcDbLine
 62
253
  6
CONTINUOUS
 10
-71.6456720774
 20
14.907142663
 11
-71.7813656285
 21
15.1333331823
  0
LINE
  5
753
100
AcDbEntity
  8
RACCORDO
100
AcDbLine
 62
253
  6
CONTINUOUS
 10
-77.5076482275
 20
23.8443375673
 11
-77.4454612131
 21
23.7362866999
  0
LINE
  5
754
100
AcDbEntity
  8
RACCORDO
100
AcDbLine
 62
253
  6
CONTINUOUS
 10
-77.4454612131
 20
23.7362866999
 11
-77.4036071696
 21
23.6629839239
  0
LINE
  5
755
100
AcDbEntity
  8
RACCORDO
100
AcDbLine
 62
253
  6
CONTINUOUS
 10
-77.4036071696
 20
23.6629839239
 11
-77.3919860908
 21
23.6423869945
  0
LWPOLYLINE
  5
756
100
AcDbEntity
  8
RACCORDO
100
AcDbPolyline
 62
253
  6
CONTINUOUS
 90
7
 70
0
 10
-77.3919860908
 20
23.6423869945
 10
-77.3880652376
 20
23.6353454907
 10
-77.3865982628
 20
23.6326765842
 10
-77.3854658867
 20
23.6305857918
 10
-77.3846712012
 20
23.6290788219
 10
-77.3842163784
 20
23.6281597935
 10
-77.3841026603
 20
23.6278312164
  0
LINE
  5
757
100
AcDbEntity
  8
0
100
AcDbLine
 62
7
  6
CONTINUOUS
 10
-68.3944062863
 20
18.2
 11
-68.4059490589
 21
18.2499972411
  0
LWPOLYLINE
  5
758
100
AcDbEntity
  8
RACCORDO
100
AcDbPolyline
 62
253
  6
CONTINUOUS
 90
3
 70
0
 10
-66.4172564614
 20
19.1015656721
 10
-66.4082709256
 20
19.0514248265
 10
-66.405549253
 20
18.9997374188
  0
LWPOLYLINE
  5
759
100
AcDbEntity
  8
0
100
AcDbPolyline
 62
253
  6
CONTINUOUS
 90
3
 70
0
 10
-66.4172564614
 20
19.1015656721
 10
-66.4082709256
 20
19.0514248265
 10
-66.405549253
 20
18.9997374188
  0
LINE
  5
75A
100
AcDbEntity
  8
RACCORDO
100
AcDbLine
 62
7
  6
CONTINUOUS
 10
-66.2954572163
 20
18.2
 11
-66.2998391607
 21
18.2316174985
  0
LINE
  5
75B
100
AcDbEntity
  8
0
100
AcDbLine
 62
7
  6
CONTINUOUS
 10
-66.2954572163
 20
18.2
 11
-66.2998391607
 21
18.2316174985
  0
LWPOLYLINE
  5
75C
100
AcDbEntity
  8
0
100
AcDbPolyline
 62
7
  6
CONTINUOUS
 90
2
 70
0
 43
0.3500000006
 10
-60.2948158264
 20
33.2500007629
 10
-60.2948158264
 20
34.7500012207
  0
LWPOLYLINE
  5
75D
100
AcDbEntity
  8
RACCORDO
100
AcDbPolyline
 62
253
  6
CONTINUOUS
 90
7
 70
0
 10
-66.4172588312
 20
-19.101576269
 10
-66.4322416346
 20
-19.148672918
 10
-66.452771127
 20
-19.1913127111
 10
-66.4782325607
 20
-19.2282205867
 10
-66.5078635246
 20
-19.2582930691
 10
-66.540777169
 20
-19.2806317334
 10
-66.5759889075
 20
-19.2945698019
  0
LWPOLYLINE
  5
75E
100
AcDbEntity
  8
0
100
AcDbPolyline
 62
253
  6
CONTINUOUS
 90
7
 70
0
 10
-66.4172588312
 20
-19.101576269
 10
-66.4322416346
 20
-19.148672918
 10
-66.452771127
 20
-19.1913127111
 10
-66.4782325607
 20
-19.2282205867
 10
-66.5078635246
 20
-19.2582930691
 10
-66.540777169
 20
-19.2806317334
 10
-66.5759889075
 20
-19.2945698019
  0
LINE
  5
75F
100
AcDbEntity
  8
CURVE
100
AcDbLine
 62
253
  6
CONTINUOUS
 10
-71.8599251064
 20
-10.8544046497
 11
-71.674239117
 21
-10.6779761624
  0
LINE
  5
760
100
AcDbEntity
  8
CURVE
100
AcDbLine
 62
253
  6
CONTINUOUS
 10
-71.1171811099
 20
-6.1202383757
 11
-70.5601231027
 21
-5.7673814011
  0
LWPOLYLINE
  5
761
100
AcDbEntity
  8
CURVE
100
AcDbPolyline
 62
253
  6
CONTINUOUS
 90
8
 70
0
 10
-73.7461059223
 20
-6.5965120355
 10
-73.7069370727
 20
-6.5821496629
 10
-73.6675643962
 20
-6.5683752311
 10
-73.6280113862
 20
-6.5551224623
 10
-73.5883015362
 20
-6.5423250787
 10
-73.5484583394
 20
-6.5299168024
 10
-73.5085052894
 20
-6.5178313556
 10
-73.4684658794
 20
-6.5060024606
  0
LINE
  5
762
100
AcDbEntity
  8
CURVE
100
AcDbLine
 62
253
  6
CONTINUOUS
 10
-72.2598641845
 20
0.4380953044
 11
-73.5596661882
 21
0.4380953044
  0
LINE
  5
763
100
AcDbEntity
  8
CURVE
100
AcDbLine
 62
253
  6
CONTINUOUS
 10
-71.8599251064
 20
0.6166667551
 11
-70.5601231027
 21
0.6166667551
  0
LINE
  5
764
100
AcDbEntity
  8
CURVE
100
AcDbLine
 62
253
  6
CONTINUOUS
 10
-75.0737212805
 20
0.734642731
 11
-74.1452912751
 21
0.734642731
  0
LINE
  5
765
100
AcDbEntity
  8
RACCORDO
100
AcDbLine
 62
7
  6
CONTINUOUS
 10
-43.0091026603
 20
1.15
 11
-36.7591026603
 21
1.15
  0
LINE
  5
766
100
AcDbEntity
  8
ASSI
100
AcDbLine
 62
7
  6
CONTINUOUS
 10
-43.0091026603
 20
1.15
 11
-36.7591026603
 21
1.15
  0
LINE
  5
767
100
AcDbEntity
  8
CURVE
100
AcDbLine
 62
253
  6
CONTINUOUS
 10
-73.9596052663
 20
1.2345238376
 11
-75.25940727
 21
1.2345238376
  0
LINE
  5
768
100
AcDbEntity
  8
RACCORDO
100
AcDbLine
 62
253
  6
CONTINUOUS
 10
-43.0117206209
 20
1.45
 11
-36.7591026603
 21
1.45
  0
LINE
  5
769
100
AcDbEntity
  8
ASSI
100
AcDbLine
 62
253
  6
CONTINUOUS
 10
-43.0117206209
 20
1.45
 11
-36.7591026603
 21
1.45
  0
LINE
  5
76A
100
AcDbEntity
  8
RACCORDO
100
AcDbLine
 62
253
  6
CONTINUOUS
 10
-36.7591026603
 20
1.55
 11
-43.0117206209
 21
1.55
  0
LINE
  5
76B
100
AcDbEntity
  8
ASSI
100
AcDbLine
 62
253
  6
CONTINUOUS
 10
-36.7591026603
 20
1.55
 11
-43.0117206209
 21
1.55
  0
LINE
  5
76C
100
AcDbEntity
  8
CURVE
100
AcDbLine
 62
253
  6
CONTINUOUS
 10
-71.3028671381
 20
1.8238096565
 11
-70.5601231027
 21
1.8238096565
  0
LINE
  5
76D
100
AcDbEntity
  8
RACCORDO
100
AcDbLine
 62
7
  6
CONTINUOUS
 10
-36.7591026603
 20
1.85
 11
-43.0091026575
 21
1.85
  0
LINE
  5
76E
100
AcDbEntity
  8
ASSI
100
AcDbLine
 62
7
  6
CONTINUOUS
 10
-36.7591026603
 20
1.85
 11
-43.0091026575
 21
1.85
  0
LWPOLYLINE
  5
76F
100
AcDbEntity
  8
RACCORDO
100
AcDbPolyline
 62
253
  6
CONTINUOUS
 90
46
 70
0
 10
-43.0117206209
 20
1.55
 10
-43.1851453159
 20
1.5563247398
 10
-43.3559631029
 20
1.5743881344
 10
-43.5241739821
 20
1.6041901839
 10
-43.6906135574
 20
1.6460436131
 10
-43.8544462248
 20
1.6996356973
 10
-44.0131651724
 20
1.7640282615
 10
-44.166604745
 20
1.8393468051
 10
-44.3149305978
 20
1.9254658289
 10
-44.4561328851
 20
2.0210706606
 10
-44.5901099928
 20
2.1262675809
 10
-44.7169635349
 20
2.2409503091
 10
-44.8349885082
 20
2.3634853319
 10
-44.9440764766
 20
2.4939615102
 10
-45.0443358761
 20
2.6322899831
 10
-45.1343870115
 20
2.7765706547
 10
-45.2141145926
 20
2.9269089776
 10
-45.2836339096
 20
3.0831994992
 10
-45.3419111377
 20
3.2432257652
 10
-45.3887892366
 20
3.4070590641
 10
-45.4244252467
 20
3.5746281074
 10
-45.4482564639
 20
3.7435025759
 10
-45.4600953216
 20
3.9137416114
 10
-45.4601293864
 20
4.0852860722
 10
-45.4483586539
 20
4.2555282133
 10
-45.4245960271
 20
4.4244080132
 10
-45.3890286028
 20
4.5919854935
 10
-45.3422176673
 20
4.7558329733
 10
-45.284006831
 20
4.9158795672
 10
-45.2145524834
 20
5.0721961607
 10
-45.1348850788
 20
5.2225677293
 10
-45.0448901786
 20
5.3668892596
 10
-44.9446822215
 20
5.5052657651
 10
-44.8356349766
 20
5.6357972611
 10
-44.7176385407
 20
5.7583967957
 10
-44.5908028172
 20
5.8731513209
 10
-44.4568312853
 20
5.9784217082
 10
-44.3156213826
 20
6.0741020272
 10
-44.1672756715
 20
6.1602982082
 10
-44.0138053185
 20
6.2356889135
 10
-43.8550535801
 20
6.3001476039
 10
-43.6911771998
 20
6.3538008184
 10
-43.5246575741
 20
6.3957068374
 10
-43.3563218351
 20
6.4255517539
 10
-43.1853428508
 20
6.4436494748
 10
-43.0117206209
 20
6.45
  0
LWPOLYLINE
  5
770
100
AcDbEntity
  8
ASSI
100
AcDbPolyline
 62
253
  6
CONTINUOUS
 90
46
 70
0
 10
-43.0117206209
 20
1.55
 10
-43.1851453159
 20
1.5563247398
 10
-43.3559631029
 20
1.5743881344
 10
-43.5241739821
 20
1.6041901839
 10
-43.6906135574
 20
1.6460436131
 10
-43.8544462248
 20
1.6996356973
 10
-44.0131651724
 20
1.7640282615
 10
-44.166604745
 20
1.8393468051
 10
-44.3149305978
 20
1.9254658289
 10
-44.4561328851
 20
2.0210706606
 10
-44.5901099928
 20
2.1262675809
 10
-44.7169635349
 20
2.2409503091
 10
-44.8349885082
 20
2.3634853319
 10
-44.9440764766
 20
2.4939615102
 10
-45.0443358761
 20
2.6322899831
 10
-45.1343870115
 20
2.7765706547
 10
-45.2141145926
 20
2.9269089776
 10
-45.2836339096
 20
3.0831994992
 10
-45.3419111377
 20
3.2432257652
 10
-45.3887892366
 20
3.4070590641
 10
-45.4244252467
 20
3.5746281074
 10
-45.4482564639
 20
3.7435025759
 10
-45.4600953216
 20
3.9137416114
 10
-45.4601293864
 20
4.0852860722
 10
-45.4483586539
 20
4.2555282133
 10
-45.4245960271
 20
4.4244080132
 10
-45.3890286028
 20
4.5919854935
 10
-45.3422176673
 20
4.7558329733
 10
-45.284006831
 20
4.9158795672
 10
-45.2145524834
 20
5.0721961607
 10
-45.1348850788
 20
5.2225677293
 10
-45.0448901786
 20
5.3668892596
 10
-44.9446822215
 20
5.5052657651
 10
-44.8356349766
 20
5.6357972611
 10
-44.7176385407
 20
5.7583967957
 10
-44.5908028172
 20
5.8731513209
 10
-44.4568312853
 20
5.9784217082
 10
-44.3156213826
 20
6.0741020272
 10
-44.1672756715
 20
6.1602982082
 10
-44.0138053185
 20
6.2356889135
 10
-43.8550535801
 20
6.3001476039
 10
-43.6911771998
 20
6.3538008184
 10
-43.5246575741
 20
6.3957068374
 10
-43.3563218351
 20
6.4255517539
 10
-43.1853428508
 20
6.4436494748
 10
-43.0117206209
 20
6.45
  0
LINE
  5
771
100
AcDbEntity
  8
CURVE
100
AcDbLine
 62
253
  6
CONTINUOUS
 10
-71.9170592928
 20
10.7
 11
-72.4598337235
 21
11.2428571671
  0
LINE
  5
772
100
AcDbEntity
  8
CURVE
100
AcDbLine
 62
253
  6
CONTINUOUS
 10
-71.9170592928
 20
13.2785713315
 11
-72.4598337235
 21
13.8214286685
  0
LWPOLYLINE
  5
773
100
AcDbEntity
  8
0
100
AcDbPolyline
 62
7
  6
CONTINUOUS
 90
13
 70
0
 43
0.3500000006
 10
-58.9376732025
 20
34.1071432343
 10
-58.9376732025
 20
35.3928592072
 10
-58.7233887177
 20
35.8214281769
 10
-58.2948152161
 20
36.2500016785
 10
-58.0805307312
 20
36.2500016785
 10
-57.6519617615
 20
35.8214281769
 10
-57.4376727448
 20
35.3928592072
 10
-57.4376727448
 20
34.1071432343
 10
-57.6519617615
 20
33.6785697327
 10
-58.0805307312
 20
33.2500007629
 10
-58.2948152161
 20
33.2500007629
 10
-58.7233887177
 20
33.6785697327
 10
-58.9376732025
 20
34.1071432343
  0
LINE
  5
774
100
AcDbEntity
  8
CURVE
100
AcDbLine
 62
253
  6
CONTINUOUS
 10
-70.9314951204
 20
-16.3825
 11
-71.4885531275
 21
-17.0
  0
LINE
  5
775
100
AcDbEntity
  8
CURVE
100
AcDbLine
 62
253
  6
CONTINUOUS
 10
-71.8599251064
 20
-8.3255953503
 11
-71.1171811099
 21
-7.9727383757
  0
LINE
  5
776
100
AcDbEntity
  8
CURVE
100
AcDbLine
 62
253
  6
CONTINUOUS
 10
-71.8599251064
 20
-9.384166863
 11
-71.1171811099
 21
-9.0313092995
  0
LINE
  5
777
100
AcDbEntity
  8
CURVE
100
AcDbLine
 62
253
  6
CONTINUOUS
 10
-75.7658740273
 20
-8.92899
 11
-72.8671042224
 21
-8.039304
  0
LINE
  5
778
100
AcDbEntity
  8
CURVE
100
AcDbLine
 62
253
  6
CONTINUOUS
 10
-73.1976205009
 20
-6.4280820816
 11
-72.9773198269
 21
-6.3637704762
  0
LINE
  5
779
100
AcDbEntity
  8
CURVE
100
AcDbLine
 62
253
  6
CONTINUOUS
 10
-72.9773198269
 20
-6.3637704762
 11
-72.8671038702
 21
-6.3318417383
  0
LWPOLYLINE
  5
77A
100
AcDbEntity
  8
CURVE
100
AcDbPolyline
 62
253
  6
CONTINUOUS
 90
3
 70
0
 10
-73.4684658794
 20
-6.5060024606
 10
-73.388221953
 20
-6.4828492144
 10
-73.1976205009
 20
-6.4280820816
  0
LINE
  5
77B
100
AcDbEntity
  8
CURVE
100
AcDbLine
 62
253
  6
CONTINUOUS
 10
-75.25940727
 20
-0.5885713655
 11
-73.9596052663
 21
-0.2357142437
  0
LINE
  5
77C
100
AcDbEntity
  8
CURVE
100
AcDbLine
 62
7
  6
CONTINUOUS
 10
-75.7582203592
 20
3.70079
 11
-72.8591026603
 21
3.70079
  0
LINE
  5
77D
100
AcDbEntity
  8
CURVE
100
AcDbLine
 62
7
  6
CONTINUOUS
 10
-72.8591026603
 20
4.323396
 11
-73.9755245097
 21
4.323396
  0
LINE
  5
77E
100
AcDbEntity
  8
CURVE
100
AcDbLine
 62
7
  6
CONTINUOUS
 10
-74.4573107194
 20
4.323396
 11
-75.2764341494
 21
4.323396
  0
LWPOLYLINE
  5
77F
100
AcDbEntity
  8
CURVE
100
AcDbPolyline
 62
7
  6
CONTINUOUS
 90
53
 70
0
 10
-74.8668722168
 20
5.1187598859
 10
-74.8537661339
 20
5.1186645203
 10
-74.8406314862
 20
5.118365796
 10
-74.827482156
 20
5.1178447717
 10
-74.8143320254
 20
5.1170825061
 10
-74.8011949768
 20
5.1160600579
 10
-74.7880848923
 20
5.1147584859
 10
-74.7750156541
 20
5.1131588488
 10
-74.7620011446
 20
5.1112422052
 10
-74.7490552459
 20
5.1089896139
 10
-74.7361918403
 20
5.1063821336
 10
-74.7234248101
 20
5.103400823
 10
-74.7107680373
 20
5.1000267408
 10
-74.6982354044
 20
5.0962409458
 10
-74.6866371632
 20
5.0923141379
 10
-74.6751678116
 20
5.0880169238
 10
-74.6638354877
 20
5.0833556651
 10
-74.6526483292
 20
5.0783367237
 10
-74.6416144741
 20
5.0729664611
 10
-74.6307420602
 20
5.0672512393
 10
-74.6200392254
 20
5.0611974199
 10
-74.6118353388
 20
5.0562543208
 10
-74.6037582451
 20
5.0511022627
 10
-74.5958271117
 20
5.0457334888
 10
-74.5880611058
 20
5.0401402428
 10
-74.5804793946
 20
5.0343147679
 10
-74.5731011455
 20
5.0282493076
 10
-74.5659455258
 20
5.0219361053
 10
-74.5590317027
 20
5.0153674044
 10
-74.5523788435
 20
5.0085354483
 10
-74.5460517119
 20
5.001493113
 10
-74.5400008879
 20
4.9942009963
 10
-74.5342269058
 20
4.9866761124
 10
-74.5287302999
 20
4.9789354759
 10
-74.5235116044
 20
4.9709961011
 10
-74.5185713536
 20
4.9628750024
 10
-74.5139100818
 20
4.9545891942
 10
-74.5095283231
 20
4.9461556907
 10
-74.5054266118
 20
4.9375915065
 10
-74.5011119893
 20
4.9277426683
 10
-74.4971386727
 20
4.9177618517
 10
-74.4934872497
 20
4.907663209
 10
-74.4901383078
 20
4.8974608925
 10
-74.4870724344
 20
4.8871690543
 10
-74.4842702172
 20
4.8768018468
 10
-74.4817122437
 20
4.8663734222
 10
-74.4793791014
 20
4.8558979327
 10
-74.4763600193
 20
4.8406695016
 10
-74.4737145932
 20
4.8253812571
 10
-74.4713857932
 20
4.8100423913
 10
-74.4693165895
 20
4.794662096
 10
-74.4674499523
 20
4.7792495632
 10
-74.4657288518
 20
4.763813985
  0
LINE
  5
780
100
AcDbEntity
  8
CURVE
100
AcDbLine
 62
7
  6
CONTINUOUS
 10
-73.9553406593
 20
9.151456
 11
-75.2042291488
 21
9.581471
  0
LINE
  5
781
100
AcDbEntity
  8
CURVE
100
AcDbLine
 62
7
  6
CONTINUOUS
 10
-72.8591026603
 20
8.773964
 11
-73.4735544496
 21
8.990812
  0
LINE
  5
782
100
AcDbEntity
  8
CURVE
100
AcDbLine
 62
7
  6
CONTINUOUS
 10
-75.7582203592
 20
9.227849
 11
-72.8591026603
 21
8.179514
  0
LINE
  5
783
100
AcDbEntity
  8
CURVE
100
AcDbLine
 62
253
  6
CONTINUOUS
 10
-70.5601231027
 20
15.042857337
 11
-70.6958167246
 21
15.178571558
  0
LINE
  5
784
100
AcDbEntity
  8
0
100
AcDbLine
 62
7
  6
CONTINUOUS
 10
-57.0091026603
 20
-18.1937377106
 11
-57.0091026603
 21
-12.9
  0
LINE
  5
785
100
AcDbEntity
  8
0
100
AcDbLine
 62
7
  6
CONTINUOUS
 10
-56.5091026603
 20
-13.6724746276
 11
-56.5091026603
 21
-15.0724746079
  0
LINE
  5
786
100
AcDbEntity
  8
ASSI
100
AcDbLine
 62
7
  6
CONTINUOUS
 10
-56.5091026603
 20
-15.0724746079
 11
-56.5091026603
 21
-17.2
  0
LINE
  5
787
100
AcDbEntity
  8
0
100
AcDbLine
 62
7
  6
CONTINUOUS
 10
-56.5091026603
 20
-17.2
 11
-56.5091026603
 21
-18.6
  0
LINE
  5
788
100
AcDbEntity
  8
CURVE
100
AcDbLine
 62
253
  6
CONTINUOUS
 10
-71.8599251064
 20
-16.4707142805
 11
-71.767082073
 21
-16.3825
  0
LINE
  5
789
100
AcDbEntity
  8
CURVE
100
AcDbLine
 62
253
  6
CONTINUOUS
 10
-70.6529661072
 20
-17.0
 11
-70.5601231027
 21
-16.9117857103
  0
LINE
  5
78A
100
AcDbEntity
  8
CURVE
100
AcDbLine
 62
253
  6
CONTINUOUS
 10
-75.7658740273
 20
-12.593234
 11
-74.1564683798
 21
-11.994355
  0
LWPOLYLINE
  5
78B
100
AcDbEntity
  8
CURVE
100
AcDbPolyline
 62
7
  6
CONTINUOUS
 90
53
 70
0
 10
-74.8668722168
 20
5.7815268003
 10
-74.8952004447
 20
5.7812501627
 10
-74.9236164315
 20
5.7803985413
 10
-74.9520816031
 20
5.7789393734
 10
-74.9805573853
 20
5.7768400962
 10
-75.0090052039
 20
5.774068147
 10
-75.0373864848
 20
5.770590963
 10
-75.0656626539
 20
5.7663759814
 10
-75.093795137
 20
5.7613906394
 10
-75.12174536
 20
5.7556023744
 10
-75.1494747487
 20
5.7489786235
 10
-75.1769447291
 20
5.741486824
 10
-75.2041167268
 20
5.7330944131
 10
-75.2309521679
 20
5.7237688281
 10
-75.2574124782
 20
5.7134775061
 10
-75.2834590834
 20
5.7021878845
 10
-75.3076182317
 20
5.6905976661
 10
-75.3313287505
 20
5.6781004649
 10
-75.354544641
 20
5.664706998
 10
-75.377219904
 20
5.6504279827
 10
-75.3993085406
 20
5.6352741362
 10
-75.4207645519
 20
5.6192561756
 10
-75.4415419386
 20
5.6023848181
 10
-75.461594702
 20
5.584670781
 10
-75.4809029252
 20
5.5661126565
 10
-75.4994363094
 20
5.5467724095
 10
-75.5171921762
 20
5.5267015407
 10
-75.5341678478
 20
5.5059515511
 10
-75.5503606458
 20
5.4845739416
 10
-75.5657678923
 20
5.4626202132
 10
-75.5803869091
 20
5.4401418668
 10
-75.5942150182
 20
5.4171904032
 10
-75.6090419303
 20
5.3904679533
 10
-75.6228834935
 20
5.3632448345
 10
-75.6357889087
 20
5.3355700132
 10
-75.6478073767
 20
5.3074924559
 10
-75.6589880986
 20
5.2790611291
 10
-75.6693802751
 20
5.2503249994
 10
-75.6790331071
 20
5.2213330331
 10
-75.689419445
 20
5.1872320381
 10
-75.6988861592
 20
5.1528781268
 10
-75.7074535841
 20
5.1183001346
 10
-75.7151420541
 20
5.0835268969
 10
-75.7219719035
 20
5.0485872491
 10
-75.7279634667
 20
5.0135100265
 10
-75.734083313
 20
4.9713358993
 10
-75.7391616174
 20
4.9290267311
 10
-75.7433311106
 20
4.8866035898
 10
-75.7467245232
 20
4.8440875432
 10
-75.7494745858
 20
4.8014996594
 10
-75.7517140289
 20
4.7588610061
 10
-75.7535755831
 20
4.7161926514
 10
-75.7582202185
 20
4.5882200575
  0
LINE
  5
78C
100
AcDbEntity
  8
RACCORDO
100
AcDbLine
 62
7
  6
CONTINUOUS
 10
-43.0091026603
 20
6.15
 11
-36.7591026603
 21
6.15
  0
LINE
  5
78D
100
AcDbEntity
  8
ASSI
100
AcDbLine
 62
7
  6
CONTINUOUS
 10
-43.0091026603
 20
6.15
 11
-36.7591026603
 21
6.15
  0
LINE
  5
78E
100
AcDbEntity
  8
CURVE
100
AcDbLine
 62
7
  6
CONTINUOUS
 10
-72.8591026603
 20
6.171133
 11
-75.7582203592
 21
6.171133
  0
LINE
  5
78F
100
AcDbEntity
  8
RACCORDO
100
AcDbLine
 62
253
  6
CONTINUOUS
 10
-43.0117206209
 20
6.45
 11
-36.7591026603
 21
6.45
  0
LINE
  5
790
100
AcDbEntity
  8
ASSI
100
AcDbLine
 62
253
  6
CONTINUOUS
 10
-43.0117206209
 20
6.45
 11
-36.7591026603
 21
6.45
  0
LINE
  5
791
100
AcDbEntity
  8
RACCORDO
100
AcDbLine
 62
253
  6
CONTINUOUS
 10
-36.7591026603
 20
6.55
 11
-43.0117206209
 21
6.55
  0
LINE
  5
792
100
AcDbEntity
  8
ASSI
100
AcDbLine
 62
253
  6
CONTINUOUS
 10
-36.7591026603
 20
6.55
 11
-43.0117206209
 21
6.55
  0
LINE
  5
793
100
AcDbEntity
  8
CURVE
100
AcDbLine
 62
7
  6
CONTINUOUS
 10
-75.7582203592
 20
6.793739
 11
-73.34088887
 21
6.793739
  0
LINE
  5
794
100
AcDbEntity
  8
RACCORDO
100
AcDbLine
 62
7
  6
CONTINUOUS
 10
-36.7591026603
 20
6.85
 11
-43.0091026603
 21
6.85
  0
LINE
  5
795
100
AcDbEntity
  8
ASSI
100
AcDbLine
 62
7
  6
CONTINUOUS
 10
-36.7591026603
 20
6.85
 11
-43.0091026603
 21
6.85
  0
LWPOLYLINE
  5
796
100
AcDbEntity
  8
RACCORDO
100
AcDbPolyline
 62
253
  6
CONTINUOUS
 90
46
 70
0
 10
-43.0117206209
 20
6.55
 10
-43.1851453159
 20
6.5563247398
 10
-43.3559631029
 20
6.5743881344
 10
-43.5241739821
 20
6.6041901839
 10
-43.6906135574
 20
6.6460436131
 10
-43.8544462248
 20
6.6996356973
 10
-44.0131651724
 20
6.7640282615
 10
-44.166604745
 20
6.8393468051
 10
-44.3149305978
 20
6.9254658289
 10
-44.4561328851
 20
7.0210706606
 10
-44.5901099928
 20
7.1262675809
 10
-44.7169635349
 20
7.2409503091
 10
-44.8349885082
 20
7.3634853319
 10
-44.9440764766
 20
7.4939615102
 10
-45.0443358761
 20
7.6322899831
 10
-45.1343870115
 20
7.7765706547
 10
-45.2141145926
 20
7.9269089776
 10
-45.2836339096
 20
8.0831994992
 10
-45.3419111377
 20
8.2432257652
 10
-45.3887892366
 20
8.4070590641
 10
-45.4244252467
 20
8.5746281074
 10
-45.4482564639
 20
8.7435025759
 10
-45.4600953216
 20
8.9137416114
 10
-45.4601293864
 20
9.0852860722
 10
-45.4483586539
 20
9.2555282133
 10
-45.4245960271
 20
9.4244080132
 10
-45.3890286028
 20
9.5919854935
 10
-45.3422176673
 20
9.7558329733
 10
-45.284006831
 20
9.9158795672
 10
-45.2145524834
 20
10.0721961607
 10
-45.1348850788
 20
10.2225677293
 10
-45.0448901786
 20
10.3668892596
 10
-44.9446822215
 20
10.5052657651
 10
-44.8356349766
 20
10.6357972611
 10
-44.7176385407
 20
10.7583967957
 10
-44.5908028172
 20
10.8731513209
 10
-44.4568312853
 20
10.9784217082
 10
-44.3156213826
 20
11.0741020272
 10
-44.1672756715
 20
11.1602982082
 10
-44.0138053185
 20
11.2356889135
 10
-43.8550535801
 20
11.3001476039
 10
-43.6911771998
 20
11.3538008184
 10
-43.5246575741
 20
11.3957068374
 10
-43.3563218351
 20
11.4255517539
 10
-43.1853428508
 20
11.4436494748
 10
-43.0117206209
 20
11.45
  0
LWPOLYLINE
  5
797
100
AcDbEntity
  8
ASSI
100
AcDbPolyline
 62
253
  6
CONTINUOUS
 90
46
 70
0
 10
-43.0117206209
 20
6.55
 10
-43.1851453159
 20
6.5563247398
 10
-43.3559631029
 20
6.5743881344
 10
-43.5241739821
 20
6.6041901839
 10
-43.6906135574
 20
6.6460436131
 10
-43.8544462248
 20
6.6996356973
 10
-44.0131651724
 20
6.7640282615
 10
-44.166604745
 20
6.8393468051
 10
-44.3149305978
 20
6.9254658289
 10
-44.4561328851
 20
7.0210706606
 10
-44.5901099928
 20
7.1262675809
 10
-44.7169635349
 20
7.2409503091
 10
-44.8349885082
 20
7.3634853319
 10
-44.9440764766
 20
7.4939615102
 10
-45.0443358761
 20
7.6322899831
 10
-45.1343870115
 20
7.7765706547
 10
-45.2141145926
 20
7.9269089776
 10
-45.2836339096
 20
8.0831994992
 10
-45.3419111377
 20
8.2432257652
 10
-45.3887892366
 20
8.4070590641
 10
-45.4244252467
 20
8.5746281074
 10
-45.4482564639
 20
8.7435025759
 10
-45.4600953216
 20
8.9137416114
 10
-45.4601293864
 20
9.0852860722
 10
-45.4483586539
 20
9.2555282133
 10
-45.4245960271
 20
9.4244080132
 10
-45.3890286028
 20
9.5919854935
 10
-45.3422176673
 20
9.7558329733
 10
-45.284006831
 20
9.9158795672
 10
-45.2145524834
 20
10.0721961607
 10
-45.1348850788
 20
10.2225677293
 10
-45.0448901786
 20
10.3668892596
 10
-44.9446822215
 20
10.5052657651
 10
-44.8356349766
 20
10.6357972611
 10
-44.7176385407
 20
10.7583967957
 10
-44.5908028172
 20
10.8731513209
 10
-44.4568312853
 20
10.9784217082
 10
-44.3156213826
 20
11.0741020272
 10
-44.1672756715
 20
11.1602982082
 10
-44.0138053185
 20
11.2356889135
 10
-43.8550535801
 20
11.3001476039
 10
-43.6911771998
 20
11.3538008184
 10
-43.5246575741
 20
11.3957068374
 10
-43.3563218351
 20
11.4255517539
 10
-43.1853428508
 20
11.4436494748
 10
-43.0117206209
 20
11.45
  0
LINE
  5
798
100
AcDbEntity
  8
CURVE
100
AcDbLine
 62
253
  6
CONTINUOUS
 10
-72.8671042224
 20
-12.040105
 11
-74.7599465125
 21
-12.750162
  0
LINE
  5
799
100
AcDbEntity
  8
0
100
AcDbLine
 62
7
  6
CONTINUOUS
 10
-80.7591026603
 20
8.9738174026
 11
-79.2591026603
 21
9.0
  0
LINE
  5
79A
100
AcDbEntity
  8
RACCORDO
100
AcDbLine
 62
7
  6
CONTINUOUS
 10
-77.8126924988
 20
9.0514297807
 11
-80.7591026603
 21
9.0
  0
LINE
  5
79B
100
AcDbEntity
  8
ASSI
100
AcDbLine
 62
7
  6
CONTINUOUS
 10
-77.8126924988
 20
9.0514297807
 11
-80.7591026603
 21
9.0
  0
LINE
  5
79C
100
AcDbEntity
  8
CURVE
100
AcDbLine
 62
7
  6
CONTINUOUS
 10
-73.34088887
 20
7.866738
 11
-72.8591026603
 21
7.866738
  0
LINE
  5
79D
100
AcDbEntity
  8
0
100
AcDbLine
 62
7
  6
CONTINUOUS
 10
-77.2591026603
 20
8.9650898701
 11
-79.2591026603
 21
9.0
  0
LINE
  5
79E
100
AcDbEntity
  8
0
100
AcDbLine
 62
253
  6
CONTINUOUS
 10
-77.8126924988
 20
9.1747223557
 11
-77.2591026603
 21
9.1650594092
  0
LINE
  5
79F
100
AcDbEntity
  8
CURVE
100
AcDbLine
 62
253
  6
CONTINUOUS
 10
-70.9672039541
 20
11.7857143342
 11
-72.4598337235
 21
12.1928571105
  0
LWPOLYLINE
  5
7A0
100
AcDbEntity
  8
RACCORDO
100
AcDbPolyline
 62
253
  6
CONTINUOUS
 90
4
 70
0
 10
-66.4782237443
 20
19.2282094951
 10
-66.4527640561
 20
19.1912999126
 10
-66.4322369144
 20
19.1486602091
 10
-66.4172564614
 20
19.1015656721
  0
LWPOLYLINE
  5
7A1
100
AcDbEntity
  8
0
100
AcDbPolyline
 62
253
  6
CONTINUOUS
 90
4
 70
0
 10
-66.4782237443
 20
19.2282094951
 10
-66.4527640561
 20
19.1912999126
 10
-66.4322369144
 20
19.1486602091
 10
-66.4172564614
 20
19.1015656721
  0
LINE
  5
7A2
100
AcDbEntity
  8
0
100
AcDbLine
 62
7
  6
CONTINUOUS
 10
-51.5091026603
 20
-18.6
 11
-51.5091026603
 21
-12.9
  0
LINE
  5
7A3
100
AcDbEntity
  8
RACCORDO
100
AcDbLine
 62
7
  6
CONTINUOUS
 10
-51.2591026603
 20
19.1891573555
 11
-51.2591026603
 21
18.3
  0
LINE
  5
7A4
100
AcDbEntity
  8
ASSI
100
AcDbLine
 62
7
  6
CONTINUOUS
 10
-51.2591026603
 20
19.1891573555
 11
-51.2591026603
 21
18.3
  0
LINE
  5
7A5
100
AcDbEntity
  8
RACCORDO
100
AcDbLine
 62
253
  6
CONTINUOUS
 10
-51.1126560509
 20
19.1896685636
 11
-51.1126560509
 21
18.3
  0
LINE
  5
7A6
100
AcDbEntity
  8
ASSI
100
AcDbLine
 62
253
  6
CONTINUOUS
 10
-51.1126560509
 20
19.1896685636
 11
-51.1126560509
 21
18.3
  0
LWPOLYLINE
  5
7A7
100
AcDbEntity
  8
RACCORDO
100
AcDbPolyline
 62
253
  6
CONTINUOUS
 90
12
 70
0
 10
-51.1126560509
 20
19.1896685636
 10
-51.1110255503
 20
19.2286735102
 10
-51.1058213927
 20
19.26701615
 10
-51.0971319619
 20
19.3040455542
 10
-51.0851048038
 20
19.3391331104
 10
-51.0699441327
 20
19.3716831568
 10
-51.0519073741
 20
19.4011431031
 10
-51.031300767
 20
19.427012862
 10
-51.0084741612
 20
19.4488533164
 10
-50.9838151
 20
19.466293747
 10
-50.9577422212
 20
19.4790381474
 10
-50.9306981465
 20
19.4868702405
  0
LWPOLYLINE
  5
7A8
100
AcDbEntity
  8
ASSI
100
AcDbPolyline
 62
253
  6
CONTINUOUS
 90
12
 70
0
 10
-51.1126560509
 20
19.1896685636
 10
-51.1110255503
 20
19.2286735102
 10
-51.1058213927
 20
19.26701615
 10
-51.0971319619
 20
19.3040455542
 10
-51.0851048038
 20
19.3391331104
 10
-51.0699441327
 20
19.3716831568
 10
-51.0519073741
 20
19.4011431031
 10
-51.031300767
 20
19.427012862
 10
-51.0084741612
 20
19.4488533164
 10
-50.9838151
 20
19.466293747
 10
-50.9577422212
 20
19.4790381474
 10
-50.9306981465
 20
19.4868702405
  0
LWPOLYLINE
  5
7A9
100
AcDbEntity
  8
RACCORDO
100
AcDbPolyline
 62
253
  6
CONTINUOUS
 90
13
 70
0
 10
-49.5005858326
 20
19.2037368873
 10
-49.4989554158
 20
19.2427410512
 10
-49.4937514602
 20
19.2810830687
 10
-49.4850623097
 20
19.3181120341
 10
-49.473035474
 20
19.3531993325
 10
-49.4578751242
 20
19.3857493114
 10
-49.439838627
 20
19.4152093925
 10
-49.4192321752
 20
19.4410794527
 10
-49.3964055904
 20
19.462920314
 10
-49.3717463833
 20
19.4803611994
 10
-49.3456731763
 20
19.4931060271
 10
-49.3186285958
 20
19.5009384372
 10
-49.2910717589
 20
19.5037254642
  0
LWPOLYLINE
  5
7AA
100
AcDbEntity
  8
ASSI
100
AcDbPolyline
 62
253
  6
CONTINUOUS
 90
13
 70
0
 10
-49.5005858326
 20
19.2037368873
 10
-49.4989554158
 20
19.2427410512
 10
-49.4937514602
 20
19.2810830687
 10
-49.4850623097
 20
19.3181120341
 10
-49.473035474
 20
19.3531993325
 10
-49.4578751242
 20
19.3857493114
 10
-49.439838627
 20
19.4152093925
 10
-49.4192321752
 20
19.4410794527
 10
-49.3964055904
 20
19.462920314
 10
-49.3717463833
 20
19.4803611994
 10
-49.3456731763
 20
19.4931060271
 10
-49.3186285958
 20
19.5009384372
 10
-49.2910717589
 20
19.5037254642
  0
LINE
  5
7AB
100
AcDbEntity
  8
RACCORDO
100
AcDbLine
 62
7
  6
CONTINUOUS
 10
-79.7591026603
 20
-23.1226497308
 11
-80.6341026603
 21
-23.6278312164
  0
LINE
  5
7AC
100
AcDbEntity
  8
RACCORDO
100
AcDbLine
 62
253
  6
CONTINUOUS
 10
-79.5105570931
 20
-23.2669872981
 11
-80.5105570931
 21
-23.8443375673
  0
LINE
  5
7AD
100
AcDbEntity
  8
RACCORDO
100
AcDbLine
 62
7
  6
CONTINUOUS
 10
-43.0091026603
 20
11.15
 11
-36.7591026603
 21
11.15
  0
LINE
  5
7AE
100
AcDbEntity
  8
ASSI
100
AcDbLine
 62
7
  6
CONTINUOUS
 10
-43.0091026603
 20
11.15
 11
-36.7591026603
 21
11.15
  0
LINE
  5
7AF
100
AcDbEntity
  8
RACCORDO
100
AcDbLine
 62
253
  6
CONTINUOUS
 10
-47.1591026603
 20
11.2
 11
-47.2591026603
 21
11.2
  0
LINE
  5
7B0
100
AcDbEntity
  8
ASSI
100
AcDbLine
 62
253
  6
CONTINUOUS
 10
-47.1591026603
 20
11.2
 11
-47.2591026603
 21
11.2
  0
LINE
  5
7B1
100
AcDbEntity
  8
CURVE
100
AcDbLine
 62
253
  6
CONTINUOUS
 10
-72.4598337235
 20
11.2428571671
 11
-70.5601231027
 21
11.2428571671
  0
LINE
  5
7B2
100
AcDbEntity
  8
CURVE
100
AcDbLine
 62
7
  6
CONTINUOUS
 10
-72.8591026603
 20
11.292325
 11
-75.7582203592
 21
11.292325
  0
LINE
  5
7B3
100
AcDbEntity
  8
RACCORDO
100
AcDbLine
 62
253
  6
CONTINUOUS
 10
-43.0117206209
 20
11.45
 11
-36.7591026603
 21
11.45
  0
LINE
  5
7B4
100
AcDbEntity
  8
ASSI
100
AcDbLine
 62
253
  6
CONTINUOUS
 10
-43.0117206209
 20
11.45
 11
-36.7591026603
 21
11.45
  0
LINE
  5
7B5
100
AcDbEntity
  8
RACCORDO
100
AcDbLine
 62
253
  6
CONTINUOUS
 10
-36.7591026603
 20
11.55
 11
-43.0117206209
 21
11.55
  0
LINE
  5
7B6
100
AcDbEntity
  8
ASSI
100
AcDbLine
 62
253
  6
CONTINUOUS
 10
-36.7591026603
 20
11.55
 11
-43.0117206209
 21
11.55
  0
LINE
  5
7B7
100
AcDbEntity
  8
RACCORDO
100
AcDbLine
 62
7
  6
CONTINUOUS
 10
-36.7591026603
 20
11.85
 11
-43.0091026603
 21
11.85
  0
LINE
  5
7B8
100
AcDbEntity
  8
ASSI
100
AcDbLine
 62
7
  6
CONTINUOUS
 10
-36.7591026603
 20
11.85
 11
-43.0091026603
 21
11.85
  0
LINE
  5
7B9
100
AcDbEntity
  8
CURVE
100
AcDbLine
 62
7
  6
CONTINUOUS
 10
-75.2854673972
 20
11.87477
 11
-72.8591026603
 21
11.87477
  0
LINE
  5
7BA
100
AcDbEntity
  8
RACCORDO
100
AcDbLine
 62
7
  6
CONTINUOUS
 10
-47.1591026603
 20
11.0019241144
 11
-47.2591026603
 21
11.0020482451
  0
LINE
  5
7BB
100
AcDbEntity
  8
ASSI
100
AcDbLine
 62
7
  6
CONTINUOUS
 10
-47.1591026603
 20
11.0019241144
 11
-47.2591026603
 21
11.0020482451
  0
LINE
  5
7BC
100
AcDbEntity
  8
CURVE
100
AcDbLine
 62
7
  6
CONTINUOUS
 10
-73.9553406593
 20
15.176491
 11
-75.2040651988
 21
15.606449
  0
LINE
  5
7BD
100
AcDbEntity
  8
CURVE
100
AcDbLine
 62
7
  6
CONTINUOUS
 10
-72.8591026603
 20
14.798889
 11
-73.4735544496
 21
15.015846
  0
LINE
  5
7BE
100
AcDbEntity
  8
CURVE
100
AcDbLine
 62
7
  6
CONTINUOUS
 10
-75.7582203592
 20
15.252884
 11
-72.8591026603
 21
14.20444
  0
LINE
  5
7BF
100
AcDbEntity
  8
RACCORDO
100
AcDbLine
 62
7
  6
CONTINUOUS
 10
-80.6341026603
 20
23.6278312164
 11
-79.7591026603
 21
23.1226497308
  0
LINE
  5
7C0
100
AcDbEntity
  8
RACCORDO
100
AcDbLine
 62
253
  6
CONTINUOUS
 10
-80.5105570931
 20
23.8443375673
 11
-79.5105570931
 21
23.2669872981
  0
LINE
  5
7C1
100
AcDbEntity
  8
RACCORDO
100
AcDbLine
 62
253
  6
CONTINUOUS
 10
-49.1513957098
 20
19.2049558217
 11
-49.1521981364
 21
19.3197530464
  0
LINE
  5
7C2
100
AcDbEntity
  8
ASSI
100
AcDbLine
 62
253
  6
CONTINUOUS
 10
-49.1513957098
 20
19.2049558217
 11
-49.1521981364
 21
19.3197530464
  0
LINE
  5
7C3
100
AcDbEntity
  8
RACCORDO
100
AcDbLine
 62
253
  6
CONTINUOUS
 10
-49.1521981364
 20
19.3197530464
 11
-49.1524798966
 21
19.4170737351
  0
LINE
  5
7C4
100
AcDbEntity
  8
ASSI
100
AcDbLine
 62
253
  6
CONTINUOUS
 10
-49.1521981364
 20
19.3197530464
 11
-49.1524798966
 21
19.4170737351
  0
LINE
  5
7C5
100
AcDbEntity
  8
RACCORDO
100
AcDbLine
 62
253
  6
CONTINUOUS
 10
-49.5005858326
 20
18.3
 11
-49.5005858326
 21
19.2037368873
  0
LINE
  5
7C6
100
AcDbEntity
  8
ASSI
100
AcDbLine
 62
253
  6
CONTINUOUS
 10
-49.5005858326
 20
18.3
 11
-49.5005858326
 21
19.2037368873
  0
LINE
  5
7C7
100
AcDbEntity
  8
RACCORDO
100
AcDbLine
 62
7
  6
CONTINUOUS
 10
-49.2591026603
 20
18.2
 11
-49.2591026603
 21
18.3
  0
LINE
  5
7C8
100
AcDbEntity
  8
ASSI
100
AcDbLine
 62
7
  6
CONTINUOUS
 10
-49.2591026603
 20
18.2
 11
-49.2591026603
 21
18.3
  0
LINE
  5
7C9
100
AcDbEntity
  8
RACCORDO
100
AcDbLine
 62
253
  6
CONTINUOUS
 10
-49.1513957098
 20
18.3
 11
-49.1513957098
 21
19.2049558217
  0
LINE
  5
7CA
100
AcDbEntity
  8
ASSI
100
AcDbLine
 62
253
  6
CONTINUOUS
 10
-49.1513957098
 20
18.3
 11
-49.1513957098
 21
19.2049558217
  0
LWPOLYLINE
  5
7CB
100
AcDbEntity
  8
RACCORDO
100
AcDbPolyline
 62
253
  6
CONTINUOUS
 90
6
 70
0
 10
-49.1524798966
 20
19.4170737351
 10
-49.1523537583
 20
19.4647472572
 10
-49.1521981159
 20
19.4821034369
 10
-49.1519839607
 20
19.4947180465
 10
-49.1517149577
 20
19.502375344
 10
-49.1513957098
 20
19.5049443986
  0
LWPOLYLINE
  5
7CC
100
AcDbEntity
  8
ASSI
100
AcDbPolyline
 62
253
  6
CONTINUOUS
 90
6
 70
0
 10
-49.1524798966
 20
19.4170737351
 10
-49.1523537583
 20
19.4647472572
 10
-49.1521981159
 20
19.4821034369
 10
-49.1519839607
 20
19.4947180465
 10
-49.1517149577
 20
19.502375344
 10
-49.1513957098
 20
19.5049443986
  0
LINE
  5
7CD
100
AcDbEntity
  8
CURVE
100
AcDbLine
 62
253
  6
CONTINUOUS
 10
-72.8671042224
 20
-16.081013
 11
-75.7658740273
 21
-17.00026
  0
LINE
  5
7CE
100
AcDbEntity
  8
0
100
AcDbLine
 62
7
  6
CONTINUOUS
 10
-77.2591026603
 20
13.2349101299
 11
-79.2591026603
 21
13.2
  0
LINE
  5
7CF
100
AcDbEntity
  8
CURVE
100
AcDbLine
 62
253
  6
CONTINUOUS
 10
-70.5601231027
 20
12.4190476298
 11
-71.5099784131
 21
12.4190476298
  0
LINE
  5
7D0
100
AcDbEntity
  8
CURVE
100
AcDbLine
 62
7
  6
CONTINUOUS
 10
-73.4608063336
 20
13.328754
 11
-75.7582203592
 21
13.328754
  0
LINE
  5
7D1
100
AcDbEntity
  8
CURVE
100
AcDbLine
 62
253
  6
CONTINUOUS
 10
-72.4598337235
 20
13.8214286685
 11
-70.5601231027
 21
13.8214286685
  0
LINE
  5
7D2
100
AcDbEntity
  8
CURVE
100
AcDbLine
 62
7
  6
CONTINUOUS
 10
-75.7582203592
 20
13.911198
 11
-72.8591026603
 21
13.911198
  0
LINE
  5
7D3
100
AcDbEntity
  8
RACCORDO
100
AcDbLine
 62
7
  6
CONTINUOUS
 10
-80.7591026603
 20
13.2
 11
-77.8126924988
 21
13.1485702193
  0
LINE
  5
7D4
100
AcDbEntity
  8
ASSI
100
AcDbLine
 62
7
  6
CONTINUOUS
 10
-80.7591026603
 20
13.2
 11
-77.8126924988
 21
13.1485702193
  0
LINE
  5
7D5
100
AcDbEntity
  8
0
100
AcDbLine
 62
7
  6
CONTINUOUS
 10
-80.7591026603
 20
13.2261825974
 11
-79.2591026603
 21
13.2
  0
LWPOLYLINE
  5
7D6
100
AcDbEntity
  8
RACCORDO
100
AcDbPolyline
 62
253
  6
CONTINUOUS
 90
46
 70
0
 10
-43.0117206209
 20
11.55
 10
-43.1851453159
 20
11.5563247398
 10
-43.3559631029
 20
11.5743881344
 10
-43.5241739821
 20
11.6041901839
 10
-43.6906135574
 20
11.6460436131
 10
-43.8544462248
 20
11.6996356973
 10
-44.0131651724
 20
11.7640282615
 10
-44.166604745
 20
11.8393468051
 10
-44.3149305978
 20
11.9254658289
 10
-44.4561328851
 20
12.0210706606
 10
-44.5901099928
 20
12.1262675809
 10
-44.7169635349
 20
12.2409503091
 10
-44.8349885082
 20
12.3634853319
 10
-44.9440764766
 20
12.4939615102
 10
-45.0443358761
 20
12.6322899831
 10
-45.1343870115
 20
12.7765706547
 10
-45.2141145926
 20
12.9269089776
 10
-45.2836339096
 20
13.0831994992
 10
-45.3419111377
 20
13.2432257652
 10
-45.3887892366
 20
13.4070590641
 10
-45.4244252467
 20
13.5746281074
 10
-45.4482564639
 20
13.7435025759
 10
-45.4600953216
 20
13.9137416114
 10
-45.4601293864
 20
14.0852860722
 10
-45.4483586539
 20
14.2555282133
 10
-45.4245960271
 20
14.4244080132
 10
-45.3890286028
 20
14.5919854935
 10
-45.3422176673
 20
14.7558329733
 10
-45.284006831
 20
14.9158795672
 10
-45.2145524834
 20
15.0721961607
 10
-45.1348850788
 20
15.2225677293
 10
-45.0448901786
 20
15.3668892596
 10
-44.9446822215
 20
15.5052657651
 10
-44.8356349766
 20
15.6357972611
 10
-44.7176385407
 20
15.7583967957
 10
-44.5908028172
 20
15.8731513209
 10
-44.4568312853
 20
15.9784217082
 10
-44.3156213826
 20
16.0741020272
 10
-44.1672756715
 20
16.1602982082
 10
-44.0138053185
 20
16.2356889135
 10
-43.8550535801
 20
16.3001476039
 10
-43.6911771998
 20
16.3538008184
 10
-43.5246575741
 20
16.3957068374
 10
-43.3563218351
 20
16.4255517539
 10
-43.1853428508
 20
16.4436494748
 10
-43.0117206209
 20
16.45
  0
LWPOLYLINE
  5
7D7
100
AcDbEntity
  8
ASSI
100
AcDbPolyline
 62
253
  6
CONTINUOUS
 90
46
 70
0
 10
-43.0117206209
 20
11.55
 10
-43.1851453159
 20
11.5563247398
 10
-43.3559631029
 20
11.5743881344
 10
-43.5241739821
 20
11.6041901839
 10
-43.6906135574
 20
11.6460436131
 10
-43.8544462248
 20
11.6996356973
 10
-44.0131651724
 20
11.7640282615
 10
-44.166604745
 20
11.8393468051
 10
-44.3149305978
 20
11.9254658289
 10
-44.4561328851
 20
12.0210706606
 10
-44.5901099928
 20
12.1262675809
 10
-44.7169635349
 20
12.2409503091
 10
-44.8349885082
 20
12.3634853319
 10
-44.9440764766
 20
12.4939615102
 10
-45.0443358761
 20
12.6322899831
 10
-45.1343870115
 20
12.7765706547
 10
-45.2141145926
 20
12.9269089776
 10
-45.2836339096
 20
13.0831994992
 10
-45.3419111377
 20
13.2432257652
 10
-45.3887892366
 20
13.4070590641
 10
-45.4244252467
 20
13.5746281074
 10
-45.4482564639
 20
13.7435025759
 10
-45.4600953216
 20
13.9137416114
 10
-45.4601293864
 20
14.0852860722
 10
-45.4483586539
 20
14.2555282133
 10
-45.4245960271
 20
14.4244080132
 10
-45.3890286028
 20
14.5919854935
 10
-45.3422176673
 20
14.7558329733
 10
-45.284006831
 20
14.9158795672
 10
-45.2145524834
 20
15.0721961607
 10
-45.1348850788
 20
15.2225677293
 10
-45.0448901786
 20
15.3668892596
 10
-44.9446822215
 20
15.5052657651
 10
-44.8356349766
 20
15.6357972611
 10
-44.7176385407
 20
15.7583967957
 10
-44.5908028172
 20
15.8731513209
 10
-44.4568312853
 20
15.9784217082
 10
-44.3156213826
 20
16.0741020272
 10
-44.1672756715
 20
16.1602982082
 10
-44.0138053185
 20
16.2356889135
 10
-43.8550535801
 20
16.3001476039
 10
-43.6911771998
 20
16.3538008184
 10
-43.5246575741
 20
16.3957068374
 10
-43.3563218351
 20
16.4255517539
 10
-43.1853428508
 20
16.4436494748
 10
-43.0117206209
 20
16.45
  0
LINE
  5
7D8
100
AcDbEntity
  8
CURVE
100
AcDbLine
 62
253
  6
CONTINUOUS
 10
-72.4598337235
 20
16.671428442
 11
-70.5601231027
 21
16.128571558
  0
LINE
  5
7D9
100
AcDbEntity
  8
ASSI
100
AcDbLine
 62
7
  6
CONTINUOUS
 10
-47.2591026603
 20
-4.6
 11
-47.2591026603
 21
18.3
  0
LINE
  5
7DA
100
AcDbEntity
  8
ASSI
100
AcDbLine
 62
7
  6
CONTINUOUS
 10
-47.2591026603
 20
19.5214581899
 11
-47.2591026603
 21
19.6
  0
LINE
  5
7DB
100
AcDbEntity
  8
RACCORDO
100
AcDbLine
 62
7
  6
CONTINUOUS
 10
-47.1591026603
 20
-4.5
 11
-47.1591026603
 21
18.1223308767
  0
LINE
  5
7DC
100
AcDbEntity
  8
ASSI
100
AcDbLine
 62
7
  6
CONTINUOUS
 10
-47.1591026603
 20
-4.5
 11
-47.1591026603
 21
18.1223308767
  0
LINE
  5
7DD
100
AcDbEntity
  8
RACCORDO
100
AcDbLine
 62
7
  6
CONTINUOUS
 10
-47.1591026603
 20
18.1240765056
 11
-47.1591026603
 21
18.4223194536
  0
LINE
  5
7DE
100
AcDbEntity
  8
ASSI
100
AcDbLine
 62
7
  6
CONTINUOUS
 10
-47.1591026603
 20
18.1240765056
 11
-47.1591026603
 21
18.4223194536
  0
LINE
  5
7DF
100
AcDbEntity
  8
0
100
AcDbLine
 62
7
  6
CONTINUOUS
 10
-46.5091026603
 20
-18.1937377106
 11
-46.5091026603
 21
-13.7
  0
LINE
  5
7E0
100
AcDbEntity
  8
ASSI
100
AcDbLine
 62
7
  6
CONTINUOUS
 10
-46.0091026603
 20
-15.7726821461
 11
-46.0091026603
 21
-17.2
  0
LINE
  5
7E1
100
AcDbEntity
  8
0
100
AcDbLine
 62
7
  6
CONTINUOUS
 10
-46.0091026603
 20
-17.2
 11
-46.0091026603
 21
-18.6
  0
LINE
  5
7E2
100
AcDbEntity
  8
0
100
AcDbLine
 62
7
  6
CONTINUOUS
 10
-46.0091026603
 20
-15.7726821461
 11
-46.0091026603
 21
-14.6275368639
  0
LINE
  5
7E3
100
AcDbEntity
  8
RACCORDO
100
AcDbLine
 62
253
  6
CONTINUOUS
 10
-47.1591026603
 20
16.5536306053
 11
-36.7591026603
 21
16.5912243901
  0
LINE
  5
7E4
100
AcDbEntity
  8
ASSI
100
AcDbLine
 62
253
  6
CONTINUOUS
 10
-47.1591026603
 20
16.5536306053
 11
-36.7591026603
 21
16.5912243901
  0
LINE
  5
7E5
100
AcDbEntity
  8
RACCORDO
100
AcDbLine
 62
7
  6
CONTINUOUS
 10
-47.2591026603
 20
15.9979517549
 11
-47.1591026603
 21
15.9980758856
  0
LINE
  5
7E6
100
AcDbEntity
  8
ASSI
100
AcDbLine
 62
7
  6
CONTINUOUS
 10
-47.2591026603
 20
15.9979517549
 11
-47.1591026603
 21
15.9980758856
  0
LINE
  5
7E7
100
AcDbEntity
  8
CURVE
100
AcDbLine
 62
253
  6
CONTINUOUS
 10
-71.7813656285
 20
15.1333331823
 11
-72.1884465082
 21
15.1333331823
  0
LINE
  5
7E8
100
AcDbEntity
  8
CURVE
100
AcDbLine
 62
253
  6
CONTINUOUS
 10
-70.6958167246
 20
15.178571558
 11
-71.3742848055
 21
15.178571558
  0
LINE
  5
7E9
100
AcDbEntity
  8
CURVE
100
AcDbLine
 62
253
  6
CONTINUOUS
 10
-72.0527528439
 20
15.721428442
 11
-72.4598337235
 21
15.721428442
  0
LINE
  5
7EA
100
AcDbEntity
  8
RACCORDO
100
AcDbLine
 62
253
  6
CONTINUOUS
 10
-47.2591026603
 20
15.8
 11
-47.1591026603
 21
15.8
  0
LINE
  5
7EB
100
AcDbEntity
  8
ASSI
100
AcDbLine
 62
253
  6
CONTINUOUS
 10
-47.2591026603
 20
15.8
 11
-47.1591026603
 21
15.8
  0
LINE
  5
7EC
100
AcDbEntity
  8
RACCORDO
100
AcDbLine
 62
7
  6
CONTINUOUS
 10
-43.0091026603
 20
16.15
 11
-36.7591026603
 21
16.15
  0
LINE
  5
7ED
100
AcDbEntity
  8
ASSI
100
AcDbLine
 62
7
  6
CONTINUOUS
 10
-43.0091026603
 20
16.15
 11
-36.7591026603
 21
16.15
  0
LINE
  5
7EE
100
AcDbEntity
  8
RACCORDO
100
AcDbLine
 62
253
  6
CONTINUOUS
 10
-43.0117206209
 20
16.45
 11
-36.7591026603
 21
16.45
  0
LINE
  5
7EF
100
AcDbEntity
  8
ASSI
100
AcDbLine
 62
253
  6
CONTINUOUS
 10
-43.0117206209
 20
16.45
 11
-36.7591026603
 21
16.45
  0
LINE
  5
7F0
100
AcDbEntity
  8
0
100
AcDbLine
 62
7
  6
CONTINUOUS
 10
-47.1591026603
 20
16.5
 11
-47.2591026603
 21
16.5
  0
LINE
  5
7F1
100
AcDbEntity
  8
ASSI
100
AcDbLine
 62
253
  6
CONTINUOUS
 10
-47.2591026603
 20
16.7059083707
 11
-70.2591026603
 21
16.7059083707
  0
LWPOLYLINE
  5
7F2
100
AcDbEntity
  8
RACCORDO
100
AcDbPolyline
 62
253
  6
CONTINUOUS
 90
7
 70
0
 10
-43.0111796049
 20
11.7326316586
 10
-43.0106963452
 20
11.788008295
 10
-43.010411613
 20
11.8098092502
 10
-43.0101044861
 20
11.8271648613
 10
-43.0097802192
 20
11.8397782338
 10
-43.0094443609
 20
11.8474335896
 10
-43.0091026575
 20
11.85
  0
LWPOLYLINE
  5
7F3
100
AcDbEntity
  8
ASSI
100
AcDbPolyline
 62
253
  6
CONTINUOUS
 90
7
 70
0
 10
-43.0111796049
 20
11.7326316586
 10
-43.0106963452
 20
11.788008295
 10
-43.010411613
 20
11.8098092502
 10
-43.0101044861
 20
11.8271648613
 10
-43.0097802192
 20
11.8397782338
 10
-43.0094443609
 20
11.8474335896
 10
-43.0091026575
 20
11.85
  0
LINE
  5
7F4
100
AcDbEntity
  8
RACCORDO
100
AcDbLine
 62
253
  6
CONTINUOUS
 10
-50.9306981465
 20
19.4868702405
 11
-50.9031419772
 21
19.4896571405
  0
LINE
  5
7F5
100
AcDbEntity
  8
ASSI
100
AcDbLine
 62
253
  6
CONTINUOUS
 10
-50.9306981465
 20
19.4868702405
 11
-50.9031419772
 21
19.4896571405
  0
LINE
  5
7F6
100
AcDbEntity
  8
RACCORDO
100
AcDbLine
 62
253
  6
CONTINUOUS
 10
-47.1591026603
 20
17.8294488103
 11
-36.7591026603
 21
17.9202082353
  0
LINE
  5
7F7
100
AcDbEntity
  8
ASSI
100
AcDbLine
 62
253
  6
CONTINUOUS
 10
-47.1591026603
 20
17.8294488103
 11
-36.7591026603
 21
17.9202082353
  0
LINE
  5
7F8
100
AcDbEntity
  8
RACCORDO
100
AcDbLine
 62
7
  6
CONTINUOUS
 10
-47.1591026603
 20
18.1223308767
 11
-36.7591026603
 21
18.2130903017
  0
LINE
  5
7F9
100
AcDbEntity
  8
ASSI
100
AcDbLine
 62
7
  6
CONTINUOUS
 10
-47.1591026603
 20
18.1223308767
 11
-36.7591026603
 21
18.2130903017
  0
LINE
  5
7FA
100
AcDbEntity
  8
RACCORDO
100
AcDbLine
 62
253
  6
CONTINUOUS
 10
-36.7591026603
 20
18.5130788786
 11
-47.1591026603
 21
18.4223194536
  0
LINE
  5
7FB
100
AcDbEntity
  8
ASSI
100
AcDbLine
 62
253
  6
CONTINUOUS
 10
-36.7591026603
 20
18.5130788786
 11
-47.1591026603
 21
18.4223194536
  0
LINE
  5
7FC
100
AcDbEntity
  8
RACCORDO
100
AcDbLine
 62
253
  6
CONTINUOUS
 10
-36.7591026603
 20
19.3131017248
 11
-49.1513957098
 21
19.2049558217
  0
LINE
  5
7FD
100
AcDbEntity
  8
ASSI
100
AcDbLine
 62
253
  6
CONTINUOUS
 10
-36.7591026603
 20
19.3131017248
 11
-49.1513957098
 21
19.2049558217
  0
LINE
  5
7FE
100
AcDbEntity
  8
RACCORDO
100
AcDbLine
 62
253
  6
CONTINUOUS
 10
-49.5005858326
 20
19.2037368873
 11
-51.1126560509
 21
19.1896685636
  0
LINE
  5
7FF
100
AcDbEntity
  8
ASSI
100
AcDbLine
 62
253
  6
CONTINUOUS
 10
-49.5005858326
 20
19.2037368873
 11
-51.1126560509
 21
19.1896685636
  0
LINE
  5
800
100
AcDbEntity
  8
RACCORDO
100
AcDbLine
 62
253
  6
CONTINUOUS
 10
-47.1591026603
 20
17.2607104621
 11
-36.7591026603
 21
17.2983042468
  0
LINE
  5
801
100
AcDbEntity
  8
ASSI
100
AcDbLine
 62
253
  6
CONTINUOUS
 10
-47.1591026603
 20
17.2607104621
 11
-36.7591026603
 21
17.2983042468
  0
LINE
  5
802
100
AcDbEntity
  8
RACCORDO
100
AcDbLine
 62
253
  6
CONTINUOUS
 10
-51.1126560509
 20
19.1896685636
 11
-51.2591026603
 21
19.1891573555
  0
LINE
  5
803
100
AcDbEntity
  8
ASSI
100
AcDbLine
 62
253
  6
CONTINUOUS
 10
-51.1126560509
 20
19.1896685636
 11
-51.2591026603
 21
19.1891573555
  0
LINE
  5
804
100
AcDbEntity
  8
RACCORDO
100
AcDbLine
 62
253
  6
CONTINUOUS
 10
-49.1513957098
 20
19.2049558217
 11
-49.5005858326
 21
19.2037368873
  0
LINE
  5
805
100
AcDbEntity
  8
ASSI
100
AcDbLine
 62
253
  6
CONTINUOUS
 10
-49.1513957098
 20
19.2049558217
 11
-49.5005858326
 21
19.2037368873
  0
LINE
  5
806
100
AcDbEntity
  8
ASSI
100
AcDbLine
 62
253
  6
CONTINUOUS
 10
-47.2591026603
 20
17.2079541854
 11
-70.2591026603
 21
17.2079541854
  0
LINE
  5
807
100
AcDbEntity
  8
0
100
AcDbLine
 62
7
  6
CONTINUOUS
 10
-47.2591026603
 20
17.4
 11
-47.1591026603
 21
17.4
  0
LINE
  5
808
100
AcDbEntity
  8
ASSI
100
AcDbLine
 62
253
  6
CONTINUOUS
 10
-47.2591026603
 20
17.9920458146
 11
-70.2591026603
 21
17.9920458146
  0
LINE
  5
809
100
AcDbEntity
  8
ASSI
100
AcDbLine
 62
7
  6
CONTINUOUS
 10
-47.2591026603
 20
18.2
 11
-70.2591026603
 21
18.2
  0
LINE
  5
80A
100
AcDbEntity
  8
ASSI
100
AcDbLine
 62
253
  6
CONTINUOUS
 10
-70.2591026603
 20
18.21
 11
-69.3007557818
 21
18.21
  0
LINE
  5
80B
100
AcDbEntity
  8
ASSI
100
AcDbLine
 62
253
  6
CONTINUOUS
 10
-68.3967149682
 20
18.21
 11
-68.2591026603
 21
18.21
  0
LINE
  5
80C
100
AcDbEntity
  8
ASSI
100
AcDbLine
 62
253
  6
CONTINUOUS
 10
-66.2591026603
 20
18.21
 11
-51.1241436358
 21
18.21
  0
LINE
  5
80D
100
AcDbEntity
  8
ASSI
100
AcDbLine
 62
253
  6
CONTINUOUS
 10
-49.2591026603
 20
18.21
 11
-47.2591026603
 21
18.21
  0
LINE
  5
80E
100
AcDbEntity
  8
RACCORDO
100
AcDbLine
 62
7
  6
CONTINUOUS
 10
-47.1591026603
 20
18.3
 11
-51.2591026603
 21
18.3
  0
LINE
  5
80F
100
AcDbEntity
  8
ASSI
100
AcDbLine
 62
7
  6
CONTINUOUS
 10
-47.1591026603
 20
18.3
 11
-51.2591026603
 21
18.3
  0
LINE
  5
810
100
AcDbEntity
  8
0
100
AcDbLine
 62
7
  6
CONTINUOUS
 10
-66.2591026603
 20
18.31
 11
-51.2591026605
 21
18.31
  0
LINE
  5
811
100
AcDbEntity
  8
0
100
AcDbLine
 62
7
  6
CONTINUOUS
 10
-51.2591026603
 20
18.5
 11
-66.2591026603
 21
18.5
  0
LINE
  5
812
100
AcDbEntity
  8
ASSI
100
AcDbLine
 62
253
  6
CONTINUOUS
 10
-51.2591026603
 20
18.89
 11
-66.2591026603
 21
18.89
  0
LINE
  5
813
100
AcDbEntity
  8
RACCORDO
100
AcDbLine
 62
253
  6
CONTINUOUS
 10
-66.4055492697
 20
18.999737419
 11
-66.2591026603
 21
18.998714925
  0
LINE
  5
814
100
AcDbEntity
  8
0
100
AcDbLine
 62
253
  6
CONTINUOUS
 10
-66.4055492697
 20
18.999737419
 11
-66.2591026603
 21
18.998714925
  0
LINE
  5
815
100
AcDbEntity
  8
RACCORDO
100
AcDbLine
 62
253
  6
CONTINUOUS
 10
-68.4662094415
 20
19.0320035977
 11
-68.1126560509
 21
19.0295350787
  0
LINE
  5
816
100
AcDbEntity
  8
0
100
AcDbLine
 62
253
  6
CONTINUOUS
 10
-68.4662094415
 20
19.0320035977
 11
-68.1126560509
 21
19.0295350787
  0
LINE
  5
817
100
AcDbEntity
  8
RACCORDO
100
AcDbLine
 62
253
  6
CONTINUOUS
 10
-70.2591026603
 20
17.6210881763
 11
-77.2591026603
 21
17.6716990487
  0
LINE
  5
818
100
AcDbEntity
  8
0
100
AcDbLine
 62
253
  6
CONTINUOUS
 10
-70.2591026603
 20
17.6210881763
 11
-77.2591026603
 21
17.6716990487
  0
LINE
  5
819
100
AcDbEntity
  8
RACCORDO
100
AcDbLine
 62
253
  6
CONTINUOUS
 10
-70.2591026603
 20
19.0350863471
 11
-77.2591026603
 21
19.0856972195
  0
LINE
  5
81A
100
AcDbEntity
  8
0
100
AcDbLine
 62
253
  6
CONTINUOUS
 10
-70.2591026603
 20
19.0350863471
 11
-77.2591026603
 21
19.0856972195
  0
LINE
  5
81B
100
AcDbEntity
  8
DRAFT
100
AcDbLine
 62
7
  6
CONTINUOUS
 10
-70.2591026603
 20
18.2661694676
 11
-69.2591026603
 21
18.2574425998
  0
LINE
  5
81C
100
AcDbEntity
  8
RACCORDO
100
AcDbLine
 62
7
  6
CONTINUOUS
 10
-66.2998391607
 20
18.2316174985
 11
-69.2591026603
 21
18.2574425998
  0
LINE
  5
81D
100
AcDbEntity
  8
0
100
AcDbLine
 62
7
  6
CONTINUOUS
 10
-66.2998391607
 20
18.2316174985
 11
-70.2591026603
 21
18.2661694676
  0
LINE
  5
81E
100
AcDbEntity
  8
RACCORDO
100
AcDbLine
 62
253
  6
CONTINUOUS
 10
-69.2591026603
 20
19.0458436003
 11
-68.4662094415
 21
19.0320035977
  0
LINE
  5
81F
100
AcDbEntity
  8
0
100
AcDbLine
 62
253
  6
CONTINUOUS
 10
-69.2591026603
 20
19.0458436003
 11
-68.4662094415
 21
19.0320035977
  0
LINE
  5
820
100
AcDbEntity
  8
RACCORDO
100
AcDbLine
 62
253
  6
CONTINUOUS
 10
-68.1126560509
 20
19.0295350787
 11
-66.4055492697
 21
18.999737419
  0
LINE
  5
821
100
AcDbEntity
  8
0
100
AcDbLine
 62
253
  6
CONTINUOUS
 10
-68.1126560509
 20
19.0295350787
 11
-66.4055492697
 21
18.999737419
  0
LWPOLYLINE
  5
822
100
AcDbEntity
  8
RACCORDO
100
AcDbPolyline
 62
253
  6
CONTINUOUS
 90
10
 70
0
 10
-68.3195523633
 20
19.3294893873
 10
-68.2830891692
 20
19.3243657178
 10
-68.2478731951
 20
19.3104236274
 10
-68.2149577553
 20
19.2880801256
 10
-68.1853273551
 20
19.2580035094
 10
-68.159868243
 20
19.221093374
 10
-68.1393419028
 20
19.1784537062
 10
-68.1243622796
 20
19.1313598636
 10
-68.1153774162
 20
19.0812204289
 10
-68.1126560509
 20
19.0295350787
  0
LWPOLYLINE
  5
823
100
AcDbEntity
  8
0
100
AcDbPolyline
 62
253
  6
CONTINUOUS
 90
10
 70
0
 10
-68.3195523633
 20
19.3294893873
 10
-68.2830891692
 20
19.3243657178
 10
-68.2478731951
 20
19.3104236274
 10
-68.2149577553
 20
19.2880801256
 10
-68.1853273551
 20
19.2580035094
 10
-68.159868243
 20
19.221093374
 10
-68.1393419028
 20
19.1784537062
 10
-68.1243622796
 20
19.1313598636
 10
-68.1153774162
 20
19.0812204289
 10
-68.1126560509
 20
19.0295350787
  0
LWPOLYLINE
  5
824
100
AcDbEntity
  8
RACCORDO
100
AcDbPolyline
 62
253
  6
CONTINUOUS
 90
5
 70
0
 10
-66.6124455821
 20
19.2996917276
 10
-66.5759840848
 20
19.2945684912
 10
-66.5407692207
 20
19.280627397
 10
-66.5078542653
 20
19.2582850919
 10
-66.4782237443
 20
19.2282094951
  0
LWPOLYLINE
  5
825
100
AcDbEntity
  8
0
100
AcDbPolyline
 62
253
  6
CONTINUOUS
 90
5
 70
0
 10
-66.6124455821
 20
19.2996917276
 10
-66.5759840848
 20
19.2945684912
 10
-66.5407692207
 20
19.280627397
 10
-66.5078542653
 20
19.2582850919
 10
-66.4782237443
 20
19.2282094951
  0
LWPOLYLINE
  5
826
100
AcDbEntity
  8
RACCORDO
100
AcDbPolyline
 62
253
  6
CONTINUOUS
 90
12
 70
0
 10
-42.1077234332
 20
-19.26825342
 10
-42.1060930168
 20
-19.307257584
 10
-42.1008890615
 20
-19.3455996014
 10
-42.0921999111
 20
-19.3826285668
 10
-42.0801730754
 20
-19.4177158652
 10
-42.0650127254
 20
-19.4502658441
 10
-42.0469762279
 20
-19.4797259253
 10
-42.0263697761
 20
-19.5055959855
 10
-42.0035431911
 20
-19.5274368468
 10
-41.978883984
 20
-19.5448777321
 10
-41.9528107769
 20
-19.5576225599
 10
-41.9257661964
 20
-19.5654549699
  0
LWPOLYLINE
  5
827
100
AcDbEntity
  8
ASSI
100
AcDbPolyline
 62
253
  6
CONTINUOUS
 90
12
 70
0
 10
-42.1077234332
 20
-19.26825342
 10
-42.1060930168
 20
-19.307257584
 10
-42.1008890615
 20
-19.3455996014
 10
-42.0921999111
 20
-19.3826285668
 10
-42.0801730754
 20
-19.4177158652
 10
-42.0650127254
 20
-19.4502658441
 10
-42.0469762279
 20
-19.4797259253
 10
-42.0263697761
 20
-19.5055959855
 10
-42.0035431911
 20
-19.5274368468
 10
-41.978883984
 20
-19.5448777321
 10
-41.9528107769
 20
-19.5576225599
 10
-41.9257661964
 20
-19.5654549699
  0
LWPOLYLINE
  5
828
100
AcDbEntity
  8
RACCORDO
100
AcDbPolyline
 62
253
  6
CONTINUOUS
 90
13
 70
0
 10
-40.4163765212
 20
-19.2830135809
 10
-40.4147460526
 20
-19.3220184994
 10
-40.4095419262
 20
-19.3603611168
 10
-40.4008525245
 20
-19.3973905052
 10
-40.3888253921
 20
-19.432478052
 10
-40.3736647418
 20
-19.4650280959
 10
-40.3556279961
 20
-19.4944880469
 10
-40.3350213918
 20
-19.5203578166
 10
-40.3121947782
 20
-19.5421982855
 10
-40.2875356979
 20
-19.5596387325
 10
-40.2614627881
 20
-19.5723831483
 10
-40.2344186707
 20
-19.580215253
 10
-40.2068624475
 20
-19.5830021578
  0
LWPOLYLINE
  5
829
100
AcDbEntity
  8
ASSI
100
AcDbPolyline
 62
253
  6
CONTINUOUS
 90
13
 70
0
 10
-40.4163765212
 20
-19.2830135809
 10
-40.4147460526
 20
-19.3220184994
 10
-40.4095419262
 20
-19.3603611168
 10
-40.4008525245
 20
-19.3973905052
 10
-40.3888253921
 20
-19.432478052
 10
-40.3736647418
 20
-19.4650280959
 10
-40.3556279961
 20
-19.4944880469
 10
-40.3350213918
 20
-19.5203578166
 10
-40.3121947782
 20
-19.5421982855
 10
-40.2875356979
 20
-19.5596387325
 10
-40.2614627881
 20
-19.5723831483
 10
-40.2344186707
 20
-19.580215253
 10
-40.2068624475
 20
-19.5830021578
  0
LWPOLYLINE
  5
82A
100
AcDbEntity
  8
RACCORDO
100
AcDbPolyline
 62
253
  6
CONTINUOUS
 90
5
 70
0
 10
-43.0104116399
 20
1.1901923789
 10
-43.0101045097
 20
1.1728361403
 10
-43.0097802378
 20
1.1602222521
 10
-43.0094443724
 20
1.1525665416
 10
-43.0091026603
 20
1.15
  0
LWPOLYLINE
  5
82B
100
AcDbEntity
  8
ASSI
100
AcDbPolyline
 62
253
  6
CONTINUOUS
 90
5
 70
0
 10
-43.0104116399
 20
1.1901923789
 10
-43.0101045097
 20
1.1728361403
 10
-43.0097802378
 20
1.1602222521
 10
-43.0094443724
 20
1.1525665416
 10
-43.0091026603
 20
1.15
  0
LWPOLYLINE
  5
82C
100
AcDbEntity
  8
RACCORDO
100
AcDbPolyline
 62
253
  6
CONTINUOUS
 90
5
 70
0
 10
-43.0104116399
 20
6.1901923789
 10
-43.0101045097
 20
6.1728361403
 10
-43.0097802378
 20
6.1602222521
 10
-43.0094443724
 20
6.1525665416
 10
-43.0091026603
 20
6.15
  0
LWPOLYLINE
  5
82D
100
AcDbEntity
  8
ASSI
100
AcDbPolyline
 62
253
  6
CONTINUOUS
 90
5
 70
0
 10
-43.0104116399
 20
6.1901923789
 10
-43.0101045097
 20
6.1728361403
 10
-43.0097802378
 20
6.1602222521
 10
-43.0094443724
 20
6.1525665416
 10
-43.0091026603
 20
6.15
  0
LWPOLYLINE
  5
82E
100
AcDbEntity
  8
RACCORDO
100
AcDbPolyline
 62
253
  6
CONTINUOUS
 90
5
 70
0
 10
-43.0104116399
 20
11.1901923789
 10
-43.0101045097
 20
11.1728361403
 10
-43.0097802378
 20
11.1602222521
 10
-43.0094443724
 20
11.1525665416
 10
-43.0091026603
 20
11.15
  0
LWPOLYLINE
  5
82F
100
AcDbEntity
  8
ASSI
100
AcDbPolyline
 62
253
  6
CONTINUOUS
 90
5
 70
0
 10
-43.0104116399
 20
11.1901923789
 10
-43.0101045097
 20
11.1728361403
 10
-43.0097802378
 20
11.1602222521
 10
-43.0094443724
 20
11.1525665416
 10
-43.0091026603
 20
11.15
  0
LWPOLYLINE
  5
830
100
AcDbEntity
  8
RACCORDO
100
AcDbPolyline
 62
253
  6
CONTINUOUS
 90
5
 70
0
 10
-43.0104116399
 20
16.1901923789
 10
-43.0101045097
 20
16.1728361403
 10
-43.0097802378
 20
16.1602222521
 10
-43.0094443724
 20
16.1525665416
 10
-43.0091026603
 20
16.15
  0
LWPOLYLINE
  5
831
100
AcDbEntity
  8
ASSI
100
AcDbPolyline
 62
253
  6
CONTINUOUS
 90
5
 70
0
 10
-43.0104116399
 20
16.1901923789
 10
-43.0101045097
 20
16.1728361403
 10
-43.0097802378
 20
16.1602222521
 10
-43.0094443724
 20
16.1525665416
 10
-43.0091026603
 20
16.15
  0
LINE
  5
832
100
AcDbEntity
  8
RACCORDO
100
AcDbLine
 62
253
  6
CONTINUOUS
 10
-43.0109538377
 20
1.2378679657
 11
-43.0104116399
 21
1.1901923789
  0
LINE
  5
833
100
AcDbEntity
  8
ASSI
100
AcDbLine
 62
253
  6
CONTINUOUS
 10
-43.0109538377
 20
1.2378679657
 11
-43.0104116399
 21
1.1901923789
  0
LINE
  5
834
100
AcDbEntity
  8
RACCORDO
100
AcDbLine
 62
253
  6
CONTINUOUS
 10
-43.0109538377
 20
6.2378679657
 11
-43.0104116399
 21
6.1901923789
  0
LINE
  5
835
100
AcDbEntity
  8
ASSI
100
AcDbLine
 62
253
  6
CONTINUOUS
 10
-43.0109538377
 20
6.2378679657
 11
-43.0104116399
 21
6.1901923789
  0
LINE
  5
836
100
AcDbEntity
  8
RACCORDO
100
AcDbLine
 62
253
  6
CONTINUOUS
 10
-43.0109538377
 20
11.2378679657
 11
-43.0104116399
 21
11.1901923789
  0
LINE
  5
837
100
AcDbEntity
  8
ASSI
100
AcDbLine
 62
253
  6
CONTINUOUS
 10
-43.0109538377
 20
11.2378679657
 11
-43.0104116399
 21
11.1901923789
  0
LINE
  5
838
100
AcDbEntity
  8
RACCORDO
100
AcDbLine
 62
253
  6
CONTINUOUS
 10
-43.0109538377
 20
16.2378679657
 11
-43.0104116399
 21
16.1901923789
  0
LINE
  5
839
100
AcDbEntity
  8
ASSI
100
AcDbLine
 62
253
  6
CONTINUOUS
 10
-43.0109538377
 20
16.2378679657
 11
-43.0104116399
 21
16.1901923789
  0
LINE
  5
83A
100
AcDbEntity
  8
RACCORDO
100
AcDbLine
 62
253
  6
CONTINUOUS
 10
-43.0115213405
 20
1.3351949703
 11
-43.0109538377
 21
1.2378679657
  0
LINE
  5
83B
100
AcDbEntity
  8
ASSI
100
AcDbLine
 62
253
  6
CONTINUOUS
 10
-43.0115213405
 20
1.3351949703
 11
-43.0109538377
 21
1.2378679657
  0
LINE
  5
83C
100
AcDbEntity
  8
RACCORDO
100
AcDbLine
 62
253
  6
CONTINUOUS
 10
-43.0115213405
 20
6.3351949703
 11
-43.0109538377
 21
6.2378679657
  0
LINE
  5
83D
100
AcDbEntity
  8
ASSI
100
AcDbLine
 62
253
  6
CONTINUOUS
 10
-43.0115213405
 20
6.3351949703
 11
-43.0109538377
 21
6.2378679657
  0
LINE
  5
83E
100
AcDbEntity
  8
RACCORDO
100
AcDbLine
 62
253
  6
CONTINUOUS
 10
-43.0115213405
 20
11.3351949703
 11
-43.0109538377
 21
11.2378679657
  0
LINE
  5
83F
100
AcDbEntity
  8
ASSI
100
AcDbLine
 62
253
  6
CONTINUOUS
 10
-43.0115213405
 20
11.3351949703
 11
-43.0109538377
 21
11.2378679657
  0
LINE
  5
840
100
AcDbEntity
  8
RACCORDO
100
AcDbLine
 62
253
  6
CONTINUOUS
 10
-43.0115213405
 20
16.3351949703
 11
-43.0109538377
 21
16.2378679657
  0
LINE
  5
841
100
AcDbEntity
  8
ASSI
100
AcDbLine
 62
253
  6
CONTINUOUS
 10
-43.0115213405
 20
16.3351949703
 11
-43.0109538377
 21
16.2378679657
  0
LINE
  5
842
100
AcDbEntity
  8
RACCORDO
100
AcDbLine
 62
253
  6
CONTINUOUS
 10
-43.0117206209
 20
1.45
 11
-43.0115213405
 21
1.3351949703
  0
LINE
  5
843
100
AcDbEntity
  8
ASSI
100
AcDbLine
 62
253
  6
CONTINUOUS
 10
-43.0117206209
 20
1.45
 11
-43.0115213405
 21
1.3351949703
  0
LINE
  5
844
100
AcDbEntity
  8
RACCORDO
100
AcDbLine
 62
253
  6
CONTINUOUS
 10
-43.0117206209
 20
6.45
 11
-43.0115213405
 21
6.3351949703
  0
LINE
  5
845
100
AcDbEntity
  8
ASSI
100
AcDbLine
 62
253
  6
CONTINUOUS
 10
-43.0117206209
 20
6.45
 11
-43.0115213405
 21
6.3351949703
  0
LINE
  5
846
100
AcDbEntity
  8
RACCORDO
100
AcDbLine
 62
253
  6
CONTINUOUS
 10
-43.0117206209
 20
11.45
 11
-43.0115213405
 21
11.3351949703
  0
LINE
  5
847
100
AcDbEntity
  8
ASSI
100
AcDbLine
 62
253
  6
CONTINUOUS
 10
-43.0117206209
 20
11.45
 11
-43.0115213405
 21
11.3351949703
  0
LINE
  5
848
100
AcDbEntity
  8
RACCORDO
100
AcDbLine
 62
253
  6
CONTINUOUS
 10
-43.0117206209
 20
16.45
 11
-43.0115213405
 21
16.3351949703
  0
LINE
  5
849
100
AcDbEntity
  8
ASSI
100
AcDbLine
 62
253
  6
CONTINUOUS
 10
-43.0117206209
 20
16.45
 11
-43.0115213405
 21
16.3351949703
  0
LINE
  5
84A
100
AcDbEntity
  8
RACCORDO
100
AcDbLine
 62
7
  6
CONTINUOUS
 10
-42.2541700426
 20
-18.6
 11
-42.2541700426
 21
-19.267742212
  0
LINE
  5
84B
100
AcDbEntity
  8
ASSI
100
AcDbLine
 62
7
  6
CONTINUOUS
 10
-42.2541700426
 20
-18.6
 11
-42.2541700426
 21
-19.267742212
  0
LINE
  5
84C
100
AcDbEntity
  8
RACCORDO
100
AcDbLine
 62
253
  6
CONTINUOUS
 10
-42.1077234332
 20
-18.6
 11
-42.1077234332
 21
-19.26825342
  0
LINE
  5
84D
100
AcDbEntity
  8
ASSI
100
AcDbLine
 62
253
  6
CONTINUOUS
 10
-42.1077234332
 20
-18.6
 11
-42.1077234332
 21
-19.26825342
  0
LINE
  5
84E
100
AcDbEntity
  8
0
100
AcDbLine
 62
7
  6
CONTINUOUS
 10
-41.0091026603
 20
-18.6
 11
-41.0091026603
 21
-13.7
  0
LINE
  5
84F
100
AcDbEntity
  8
RACCORDO
100
AcDbLine
 62
253
  6
CONTINUOUS
 10
-43.0117206209
 20
11.55
 11
-43.0115213285
 21
11.6648081387
  0
LINE
  5
850
100
AcDbEntity
  8
ASSI
100
AcDbLine
 62
253
  6
CONTINUOUS
 10
-43.0117206209
 20
11.55
 11
-43.0115213285
 21
11.6648081387
  0
LINE
  5
851
100
AcDbEntity
  8
RACCORDO
100
AcDbLine
 62
253
  6
CONTINUOUS
 10
-43.0117206209
 20
6.55
 11
-43.0115213285
 21
6.6648081387
  0
LINE
  5
852
100
AcDbEntity
  8
ASSI
100
AcDbLine
 62
253
  6
CONTINUOUS
 10
-43.0117206209
 20
6.55
 11
-43.0115213285
 21
6.6648081387
  0
LINE
  5
853
100
AcDbEntity
  8
RACCORDO
100
AcDbLine
 62
253
  6
CONTINUOUS
 10
-43.0117206209
 20
1.55
 11
-43.0115213285
 21
1.6648081387
  0
LINE
  5
854
100
AcDbEntity
  8
ASSI
100
AcDbLine
 62
253
  6
CONTINUOUS
 10
-43.0117206209
 20
1.55
 11
-43.0115213285
 21
1.6648081387
  0
LINE
  5
855
100
AcDbEntity
  8
RACCORDO
100
AcDbLine
 62
253
  6
CONTINUOUS
 10
-43.0117206209
 20
-3.45
 11
-43.0115213285
 21
-3.3351918613
  0
LINE
  5
856
100
AcDbEntity
  8
ASSI
100
AcDbLine
 62
253
  6
CONTINUOUS
 10
-43.0117206209
 20
-3.45
 11
-43.0115213285
 21
-3.3351918613
  0
LINE
  5
857
100
AcDbEntity
  8
RACCORDO
100
AcDbLine
 62
253
  6
CONTINUOUS
 10
-43.0115213285
 20
11.6648081387
 11
-43.0111796049
 21
11.7326316586
  0
LINE
  5
858
100
AcDbEntity
  8
ASSI
100
AcDbLine
 62
253
  6
CONTINUOUS
 10
-43.0115213285
 20
11.6648081387
 11
-43.0111796049
 21
11.7326316586
  0
LWPOLYLINE
  5
859
100
AcDbEntity
  8
RACCORDO
100
AcDbPolyline
 62
253
  6
CONTINUOUS
 90
8
 70
0
 10
-43.0115213285
 20
6.6648081387
 10
-43.0109538111
 20
6.7621348921
 10
-43.0106963452
 20
6.788008295
 10
-43.010411613
 20
6.8098092502
 10
-43.0101044861
 20
6.8271648613
 10
-43.0097802192
 20
6.8397782338
 10
-43.0094443609
 20
6.8474335896
 10
-43.0091026575
 20
6.85
  0
LWPOLYLINE
  5
85A
100
AcDbEntity
  8
ASSI
100
AcDbPolyline
 62
253
  6
CONTINUOUS
 90
8
 70
0
 10
-43.0115213285
 20
6.6648081387
 10
-43.0109538111
 20
6.7621348921
 10
-43.0106963452
 20
6.788008295
 10
-43.010411613
 20
6.8098092502
 10
-43.0101044861
 20
6.8271648613
 10
-43.0097802192
 20
6.8397782338
 10
-43.0094443609
 20
6.8474335896
 10
-43.0091026575
 20
6.85
  0
LINE
  5
85B
100
AcDbEntity
  8
RACCORDO
100
AcDbLine
 62
253
  6
CONTINUOUS
 10
-43.0115213285
 20
1.6648081387
 11
-43.0109538111
 21
1.7621348921
  0
LINE
  5
85C
100
AcDbEntity
  8
ASSI
100
AcDbLine
 62
253
  6
CONTINUOUS
 10
-43.0115213285
 20
1.6648081387
 11
-43.0109538111
 21
1.7621348921
  0
LINE
  5
85D
100
AcDbEntity
  8
RACCORDO
100
AcDbLine
 62
253
  6
CONTINUOUS
 10
-43.0115213285
 20
-3.3351918613
 11
-43.0109538111
 21
-3.2378651079
  0
LINE
  5
85E
100
AcDbEntity
  8
ASSI
100
AcDbLine
 62
253
  6
CONTINUOUS
 10
-43.0115213285
 20
-3.3351918613
 11
-43.0109538111
 21
-3.2378651079
  0
LWPOLYLINE
  5
85F
100
AcDbEntity
  8
RACCORDO
100
AcDbPolyline
 62
253
  6
CONTINUOUS
 90
6
 70
0
 10
-43.0109538111
 20
1.7621348921
 10
-43.010411613
 20
1.8098092502
 10
-43.0101044861
 20
1.8271648613
 10
-43.0097802192
 20
1.8397782338
 10
-43.0094443609
 20
1.8474335896
 10
-43.0091026575
 20
1.85
  0
LWPOLYLINE
  5
860
100
AcDbEntity
  8
ASSI
100
AcDbPolyline
 62
253
  6
CONTINUOUS
 90
6
 70
0
 10
-43.0109538111
 20
1.7621348921
 10
-43.010411613
 20
1.8098092502
 10
-43.0101044861
 20
1.8271648613
 10
-43.0097802192
 20
1.8397782338
 10
-43.0094443609
 20
1.8474335896
 10
-43.0091026575
 20
1.85
  0
LWPOLYLINE
  5
861
100
AcDbEntity
  8
RACCORDO
100
AcDbPolyline
 62
253
  6
CONTINUOUS
 90
6
 70
0
 10
-43.0109538111
 20
-3.2378651079
 10
-43.010411613
 20
-3.1901907498
 10
-43.0101044861
 20
-3.1728351387
 10
-43.0097802192
 20
-3.1602217662
 10
-43.0094443609
 20
-3.1525664104
 10
-43.0091026575
 20
-3.15
  0
LWPOLYLINE
  5
862
100
AcDbEntity
  8
ASSI
100
AcDbPolyline
 62
253
  6
CONTINUOUS
 90
6
 70
0
 10
-43.0109538111
 20
-3.2378651079
 10
-43.010411613
 20
-3.1901907498
 10
-43.0101044861
 20
-3.1728351387
 10
-43.0097802192
 20
-3.1602217662
 10
-43.0094443609
 20
-3.1525664104
 10
-43.0091026575
 20
-3.15
  0
LINE
  5
863
100
AcDbEntity
  8
0
100
AcDbLine
 62
7
  6
CONTINUOUS
 10
-69.2611467739
 20
18.2179409547
 11
-69.0962039572
 21
18.2560210044
  0
LINE
  5
864
100
AcDbEntity
  8
RACCORDO
100
AcDbLine
 62
7
  6
CONTINUOUS
 10
-36.7591026603
 20
19.6130903017
 11
-50.9617206209
 21
19.4891459325
  0
LINE
  5
865
100
AcDbEntity
  8
ASSI
100
AcDbLine
 62
7
  6
CONTINUOUS
 10
-36.7591026603
 20
19.6130903017
 11
-50.9617206209
 21
19.4891459325
  0
LINE
  5
866
100
AcDbEntity
  8
RACCORDO
100
AcDbLine
 62
7
  6
CONTINUOUS
 10
-67.2591026603
 20
20.9959955457
 11
-77.0593159001
 21
20.9104703804
  0
LINE
  5
867
100
AcDbEntity
  8
RACCORDO
100
AcDbLine
 62
7
  6
CONTINUOUS
 10
-67.457939114
 20
19.7570215015
 11
-69.2591026603
 21
19.7465426385
  0
LINE
  5
868
100
AcDbEntity
  8
ASSI
100
AcDbLine
 62
7
  6
CONTINUOUS
 10
-47.2591026603
 20
19.6
 11
-69.2591026603
 21
19.6
  0
LINE
  5
869
100
AcDbEntity
  8
DRAFT
100
AcDbLine
 62
7
  6
CONTINUOUS
 10
-77.2591026603
 20
20.85
 11
-70.2591026603
 21
20.85
  0
LINE
  5
86A
100
AcDbEntity
  8
0
100
AcDbLine
 62
7
  6
CONTINUOUS
 10
-77.2591026603
 20
20.85
 11
-69.2591026603
 21
20.85
  0
LINE
  5
86B
100
AcDbEntity
  8
RACCORDO
100
AcDbLine
 62
7
  6
CONTINUOUS
 10
-69.2591026603
 20
19.3458892987
 11
-66.5538669384
 21
19.2986692336
  0
LINE
  5
86C
100
AcDbEntity
  8
0
100
AcDbLine
 62
7
  6
CONTINUOUS
 10
-69.2591026603
 20
19.3458892987
 11
-66.5538669384
 21
19.2986692336
  0
LINE
  5
86D
100
AcDbEntity
  8
RACCORDO
100
AcDbLine
 62
253
  6
CONTINUOUS
 10
-86.84525783
 20
20.5419058565
 11
-87.2572513133
 21
20.5590288601
  0
LINE
  5
86E
100
AcDbEntity
  8
ASSI
100
AcDbLine
 62
253
  6
CONTINUOUS
 10
-86.84525783
 20
20.5419058565
 11
-87.2572513132
 21
20.5590288601
  0
LWPOLYLINE
  5
86F
100
AcDbEntity
  8
RACCORDO
100
AcDbPolyline
 62
253
  6
CONTINUOUS
 90
4
 70
0
 10
-87.2572513133
 20
20.5590288601
 10
-87.3334337969
 20
20.5623210955
 10
-87.3354398575
 20
20.5624222064
 10
-87.3361086326
 20
20.5624683248
  0
LWPOLYLINE
  5
870
100
AcDbEntity
  8
ASSI
100
AcDbPolyline
 62
253
  6
CONTINUOUS
 90
4
 70
0
 10
-87.2572513132
 20
20.5590288601
 10
-87.3334337968
 20
20.5623210955
 10
-87.3354398574
 20
20.5624222064
 10
-87.3361086325
 20
20.5624683248
  0
LINE
  5
871
100
AcDbEntity
  8
RACCORDO
100
AcDbLine
 62
7
  6
CONTINUOUS
 10
-51.2591026603
 20
18.3
 11
-51.1091481886
 21
18.2
  0
LINE
  5
872
100
AcDbEntity
  8
ASSI
100
AcDbLine
 62
7
  6
CONTINUOUS
 10
-51.2591026603
 20
18.3
 11
-51.1091481886
 21
18.2
  0
LWPOLYLINE
  5
873
100
AcDbEntity
  8
0
100
AcDbPolyline
 62
7
  6
CONTINUOUS
 90
10
 70
0
 43
0.3500000006
 10
-55.937672287
 20
33.7500009155
 10
-55.866245636
 20
33.6071430817
 10
-55.866245636
 20
33.5357164307
 10
-56.0091034698
 20
33.3928585968
 10
-56.0805301208
 20
33.3928585968
 10
-56.1519613037
 20
33.4642852478
 10
-56.1519613037
 20
33.5357164307
 10
-56.0805301208
 20
33.6785697327
 10
-56.0091034698
 20
33.7500009155
 10
-55.937672287
 20
33.7500009155
  0
LWPOLYLINE
  5
874
100
AcDbEntity
  8
RACCORDO
100
AcDbPolyline
 62
253
  6
CONTINUOUS
 90
5
 70
0
 10
-40.0681445146
 20
-19.5440226293
 10
-40.067988865
 20
-19.5613792652
 10
-40.0677746966
 20
-19.5739943024
 10
-40.0675056735
 20
-19.5816519152
 10
-40.0671863984
 20
-19.5842210923
  0
LWPOLYLINE
  5
875
100
AcDbEntity
  8
ASSI
100
AcDbPolyline
 62
253
  6
CONTINUOUS
 90
5
 70
0
 10
-40.0681445146
 20
-19.5440226293
 10
-40.067988865
 20
-19.5613792652
 10
-40.0677746966
 20
-19.5739943024
 10
-40.0675056735
 20
-19.5816519152
 10
-40.0671863984
 20
-19.5842210923
  0
LINE
  5
876
100
AcDbEntity
  8
RACCORDO
100
AcDbLine
 62
253
  6
CONTINUOUS
 10
-40.0682706524
 20
-19.4963483961
 11
-40.0681445146
 21
-19.5440226293
  0
LINE
  5
877
100
AcDbEntity
  8
ASSI
100
AcDbLine
 62
253
  6
CONTINUOUS
 10
-40.0682706524
 20
-19.4963483961
 11
-40.0681445146
 21
-19.5440226293
  0
LINE
  5
878
100
AcDbEntity
  8
RACCORDO
100
AcDbLine
 62
253
  6
CONTINUOUS
 10
-40.4163765212
 20
-19.2830135809
 11
-40.4163765212
 21
-18.3
  0
LINE
  5
879
100
AcDbEntity
  8
ASSI
100
AcDbLine
 62
253
  6
CONTINUOUS
 10
-40.4163765212
 20
-19.2830135809
 11
-40.4163765212
 21
-18.3
  0
LINE
  5
87A
100
AcDbEntity
  8
RACCORDO
100
AcDbLine
 62
7
  6
CONTINUOUS
 10
-40.2541700426
 20
-18.3
 11
-40.2541700426
 21
-18.2
  0
LINE
  5
87B
100
AcDbEntity
  8
ASSI
100
AcDbLine
 62
7
  6
CONTINUOUS
 10
-40.2541700426
 20
-18.3
 11
-40.2541700426
 21
-18.2
  0
LINE
  5
87C
100
AcDbEntity
  8
RACCORDO
100
AcDbLine
 62
253
  6
CONTINUOUS
 10
-40.0671863984
 20
-19.2842325153
 11
-40.0671863984
 21
-18.3
  0
LINE
  5
87D
100
AcDbEntity
  8
ASSI
100
AcDbLine
 62
253
  6
CONTINUOUS
 10
-40.0671863984
 20
-19.2842325153
 11
-40.0671863984
 21
-18.3
  0
LINE
  5
87E
100
AcDbEntity
  8
0
100
AcDbLine
 62
7
  6
CONTINUOUS
 10
-38.6591026603
 20
-3.15
 11
-38.6591026603
 21
1.15
  0
LINE
  5
87F
100
AcDbEntity
  8
0
100
AcDbLine
 62
7
  6
CONTINUOUS
 10
-38.6591026603
 20
1.85
 11
-38.6591026603
 21
6.15
  0
LINE
  5
880
100
AcDbEntity
  8
0
100
AcDbLine
 62
7
  6
CONTINUOUS
 10
-38.6591026603
 20
6.85
 11
-38.6591026603
 21
11.15
  0
LINE
  5
881
100
AcDbEntity
  8
0
100
AcDbLine
 62
7
  6
CONTINUOUS
 10
-38.6591026603
 20
11.85
 11
-38.6591026603
 21
16.15
  0
LINE
  5
882
100
AcDbEntity
  8
RACCORDO
100
AcDbLine
 62
253
  6
CONTINUOUS
 10
-40.0679888651
 20
-19.3990278976
 11
-40.0682706524
 21
-19.4963483961
  0
LINE
  5
883
100
AcDbEntity
  8
ASSI
100
AcDbLine
 62
253
  6
CONTINUOUS
 10
-40.0679888651
 20
-19.3990278976
 11
-40.0682706524
 21
-19.4963483961
  0
LINE
  5
884
100
AcDbEntity
  8
RACCORDO
100
AcDbLine
 62
253
  6
CONTINUOUS
 10
-40.0671863984
 20
-19.2842325153
 11
-40.0679888651
 21
-19.3990278976
  0
LINE
  5
885
100
AcDbEntity
  8
ASSI
100
AcDbLine
 62
253
  6
CONTINUOUS
 10
-40.0671863984
 20
-19.2842325153
 11
-40.0679888651
 21
-19.3990278976
  0
LWPOLYLINE
  5
886
100
AcDbEntity
  8
RACCORDO
100
AcDbPolyline
 62
253
  6
CONTINUOUS
 90
43
 70
0
 10
-85.8984397743
 20
21.4994104546
 10
-85.9335857065
 20
21.496943848
 10
-85.9685406895
 20
21.4932562435
 10
-86.0033047234
 20
21.4883476409
 10
-86.0379213061
 20
21.482208925
 10
-86.0723469397
 20
21.4748492111
 10
-86.1064511303
 20
21.4662958449
 10
-86.140231896
 20
21.4565443858
 10
-86.1736912187
 20
21.4455992743
 10
-86.2067045507
 20
21.4335011782
 10
-86.2392699651
 20
21.4202458755
 10
-86.2713893887
 20
21.4058375881
 10
-86.3029440545
 20
21.390329649
 10
-86.3339319175
 20
21.3737179832
 10
-86.3643550227
 20
21.3560066658
 10
-86.3941007379
 20
21.3372612547
 10
-86.4231666161
 20
21.3174778608
 10
-86.4515551043
 20
21.2966603732
 10
-86.4791609115
 20
21.2748860175
 10
-86.5059810665
 20
21.2521512906
 10
-86.5320185405
 20
21.2284596956
 10
-86.557176956
 20
21.203898967
 10
-86.5814530621
 20
21.178465882
 10
-86.6048501096
 20
21.1521636635
 10
-86.6272814736
 20
21.1250897139
 10
-86.648743615
 20
21.0972410989
 10
-86.6692400727
 20
21.0686207529
 10
-86.6886948391
 20
21.039334882
 10
-86.707103985
 20
21.0093811049
 10
-86.7244714396
 20
20.9787618029
 10
-86.7407329819
 20
20.9475903261
 10
-86.7558845158
 20
20.9158646746
 10
-86.7699301374
 20
20.8835868483
 10
-86.7828179138
 20
20.8508761963
 10
-86.7945436097
 20
20.8177308482
 10
-86.8051114605
 20
20.7841526745
 10
-86.8144822396
 20
20.7502666349
 10
-86.8226514685
 20
20.7160710228
 10
-86.8296236258
 20
20.681567545
 10
-86.8353729197
 20
20.6468862814
 10
-86.8398907531
 20
20.6120705921
 10
-86.8431857232
 20
20.5770771172
 10
-86.84525783
 20
20.5419058565
  0
LWPOLYLINE
  5
887
100
AcDbEntity
  8
ASSI
100
AcDbPolyline
 62
253
  6
CONTINUOUS
 90
43
 70
0
 10
-85.8984397743
 20
21.4994104546
 10
-85.9335885574
 20
21.4969434688
 10
-85.9685457182
 20
21.493255514
 10
-86.0033112568
 20
21.4883465902
 10
-86.0379284496
 20
21.4822075998
 10
-86.0723540201
 20
21.4748476404
 10
-86.1064581388
 20
21.4662940047
 10
-86.140239045
 20
21.4565422297
 10
-86.1736984995
 20
21.4455967785
 10
-86.2067119548
 20
21.4334983323
 10
-86.2392774885
 20
21.4202426742
 10
-86.2713970232
 20
21.4058340211
 10
-86.3029517796
 20
21.3903257058
 10
-86.3339397071
 20
21.3737136527
 10
-86.3643628563
 20
21.3560019373
 10
-86.3941085998
 20
21.3372561186
 10
-86.4231745047
 20
21.3174722953
 10
-86.4515630039
 20
21.2966543687
 10
-86.479168768
 20
21.2748796015
 10
-86.5059888154
 20
21.2521444917
 10
-86.5320261278
 20
21.2284525413
 10
-86.5571843209
 20
21.2038915187
 10
-86.5814601302
 20
21.178458215
 10
-86.6048568202
 20
21.1521558392
 10
-86.6272877998
 20
21.1250817868
 10
-86.6487495289
 20
21.0972331338
 10
-86.6692455476
 20
21.0686128041
 10
-86.6886998847
 20
21.0393269654
 10
-86.7071086232
 20
21.0093732218
 10
-86.72447568
 20
20.9787539691
 10
-86.7407368355
 20
20.9475825618
 10
-86.7558879941
 20
20.9158570059
 10
-86.7699332513
 20
20.8835792955
 10
-86.7828206737
 20
20.8508687673
 10
-86.7945460213
 20
20.8177235466
 10
-86.8051135341
 20
20.7841455082
 10
-86.8144839993
 20
20.7502596121
 10
-86.8226529584
 20
20.7160639299
 10
-86.8296248699
 20
20.68156039
 10
-86.8353738966
 20
20.6468797382
 10
-86.8398914259
 20
20.6120655563
 10
-86.8431860704
 20
20.5770742624
 10
-86.84525783
 20
20.5419058565
  0
LINE
  5
888
100
AcDbEntity
  8
DRAFT
100
AcDbLine
 62
7
  6
CONTINUOUS
 10
-77.0593159001
 20
20.9104703804
 11
-77.2591026603
 21
20.9
  0
LINE
  5
889
100
AcDbEntity
  8
RACCORDO
100
AcDbLine
 62
253
  6
CONTINUOUS
 10
-80.7591026603
 20
21.7687516997
 11
-85.8984397743
 21
21.4994104546
  0
LINE
  5
88A
100
AcDbEntity
  8
ASSI
100
AcDbLine
 62
253
  6
CONTINUOUS
 10
-80.7591026603
 20
21.7687516997
 11
-85.8984397743
 21
21.4994104546
  0
LINE
  5
88B
100
AcDbEntity
  8
RACCORDO
100
AcDbLine
 62
253
  6
CONTINUOUS
 10
-78.2570912376
 20
21.9398948703
 11
-80.7591026603
 21
21.8087700079
  0
LINE
  5
88C
100
AcDbEntity
  8
RACCORDO
100
AcDbLine
 62
7
  6
CONTINUOUS
 10
-78.2591026603
 20
22.4
 11
-85.9158679383
 21
21.9987259353
  0
LINE
  5
88D
100
AcDbEntity
  8
ASSI
100
AcDbLine
 62
7
  6
CONTINUOUS
 10
-80.7591026603
 20
22.2689805518
 11
-85.9158697964
 21
21.9987258379
  0
LINE
  5
88E
100
AcDbEntity
  8
RACCORDO
100
AcDbLine
 62
7
  6
CONTINUOUS
 10
-67.7503764571
 20
21.5659754333
 11
-77.2591026603
 21
21.4
  0
LINE
  5
88F
100
AcDbEntity
  8
0
100
AcDbLine
 62
7
  6
CONTINUOUS
 10
-81.3591026603
 20
22.2689805518
 11
-80.7591026603
 21
22.2689805518
  0
LINE
  5
890
100
AcDbEntity
  8
RACCORDO
100
AcDbLine
 62
253
  6
CONTINUOUS
 10
-80.7591026603
 20
23.8443375673
 11
-80.5105570931
 21
23.8443375673
  0
LINE
  5
891
100
AcDbEntity
  8
RACCORDO
100
AcDbLine
 62
253
  6
CONTINUOUS
 10
-77.2591026603
 20
23.8443375673
 11
-77.5076482275
 21
23.8443375673
  0
LINE
  5
892
100
AcDbEntity
  8
ASSI
100
AcDbLine
 62
7
  6
CONTINUOUS
 10
-77.264195318
 20
23.7942117984
 11
-70.7561937946
 21
23.7563493531
  0
LINE
  5
893
100
AcDbEntity
  8
RACCORDO
100
AcDbLine
 62
253
  6
CONTINUOUS
 10
-77.2591026603
 20
21.9311855559
 11
-78.2570912376
 21
21.9398948703
  0
LINE
  5
894
100
AcDbEntity
  8
RACCORDO
100
AcDbLine
 62
7
  6
CONTINUOUS
 10
-68.2503761248
 20
22.3126551668
 11
-78.2591026603
 21
22.4
  0
LINE
  5
895
100
AcDbEntity
  8
RACCORDO
100
AcDbLine
 62
253
  6
CONTINUOUS
 10
-50.7210015699
 20
18.3
 11
-50.5710470982
 21
18.2
  0
LINE
  5
896
100
AcDbEntity
  8
ASSI
100
AcDbLine
 62
253
  6
CONTINUOUS
 10
-50.7210015699
 20
18.3
 11
-50.5710470982
 21
18.2
  0
LINE
  5
897
100
AcDbEntity
  8
ASSI
100
AcDbLine
 62
7
  6
CONTINUOUS
 10
-38.2591026603
 20
-5.0
 11
-38.2591026603
 21
-5.1
  0
LINE
  5
898
100
AcDbEntity
  8
ASSI
100
AcDbLine
 62
7
  6
CONTINUOUS
 10
-38.2591026603
 20
-5.1
 11
-38.2591026603
 21
-18.2
  0
LINE
  5
899
100
AcDbEntity
  8
DRAFT
100
AcDbLine
 62
7
  6
CONTINUOUS
 10
-38.2591026603
 20
-18.3
 11
-38.2591026603
 21
-18.2
  0
LINE
  5
89A
100
AcDbEntity
  8
ASSI
100
AcDbLine
 62
7
  6
CONTINUOUS
 10
-38.2591026603
 20
-18.3
 11
-38.2591026603
 21
-18.2
  0
LINE
  5
89B
100
AcDbEntity
  8
RACCORDO
100
AcDbLine
 62
7
  6
CONTINUOUS
 10
-38.2591026603
 20
-18.0309944869
 11
-38.2591026603
 21
-17.1948662267
  0
LINE
  5
89C
100
AcDbEntity
  8
RACCORDO
100
AcDbLine
 62
7
  6
CONTINUOUS
 10
-38.2591026603
 20
-16.7159909208
 11
-38.2591026603
 21
-5.0
  0
LINE
  5
89D
100
AcDbEntity
  8
DRAFT
100
AcDbLine
 62
7
  6
CONTINUOUS
 10
-38.2591026603
 20
-3.15
 11
-38.2591026603
 21
1.15
  0
LINE
  5
89E
100
AcDbEntity
  8
ASSI
100
AcDbLine
 62
7
  6
CONTINUOUS
 10
-38.2591026603
 20
-3.15
 11
-38.2591026603
 21
1.15
  0
LINE
  5
89F
100
AcDbEntity
  8
DRAFT
100
AcDbLine
 62
7
  6
CONTINUOUS
 10
-38.2591026603
 20
1.85
 11
-38.2591026603
 21
6.15
  0
LINE
  5
8A0
100
AcDbEntity
  8
ASSI
100
AcDbLine
 62
7
  6
CONTINUOUS
 10
-38.2591026603
 20
1.85
 11
-38.2591026603
 21
6.15
  0
LINE
  5
8A1
100
AcDbEntity
  8
DRAFT
100
AcDbLine
 62
7
  6
CONTINUOUS
 10
-38.2591026603
 20
6.85
 11
-38.2591026603
 21
11.15
  0
LINE
  5
8A2
100
AcDbEntity
  8
ASSI
100
AcDbLine
 62
7
  6
CONTINUOUS
 10
-38.2591026603
 20
6.85
 11
-38.2591026603
 21
11.15
  0
LINE
  5
8A3
100
AcDbEntity
  8
DRAFT
100
AcDbLine
 62
7
  6
CONTINUOUS
 10
-38.2591026603
 20
11.85
 11
-38.2591026603
 21
16.15
  0
LINE
  5
8A4
100
AcDbEntity
  8
ASSI
100
AcDbLine
 62
7
  6
CONTINUOUS
 10
-38.2591026603
 20
11.85
 11
-38.2591026603
 21
16.15
  0
LINE
  5
8A5
100
AcDbEntity
  8
RACCORDO
100
AcDbLine
 62
7
  6
CONTINUOUS
 10
-36.7591026603
 20
11.85
 11
-36.7591026603
 21
11.15
  0
LINE
  5
8A6
100
AcDbEntity
  8
RACCORDO
100
AcDbLine
 62
7
  6
CONTINUOUS
 10
-36.7591026603
 20
6.85
 11
-36.7591026603
 21
6.15
  0
LINE
  5
8A7
100
AcDbEntity
  8
RACCORDO
100
AcDbLine
 62
7
  6
CONTINUOUS
 10
-36.7591026603
 20
1.85
 11
-36.7591026603
 21
1.15
  0
LINE
  5
8A8
100
AcDbEntity
  8
RACCORDO
100
AcDbLine
 62
7
  6
CONTINUOUS
 10
-36.7591026603
 20
-19.6130903017
 11
-36.7591026603
 21
-3.15
  0
LINE
  5
8A9
100
AcDbEntity
  8
RACCORDO
100
AcDbLine
 62
7
  6
CONTINUOUS
 10
-36.7591026603
 20
16.15
 11
-36.7591026603
 21
19.6130903017
  0
LINE
  5
8AA
100
AcDbEntity
  8
ASSI
100
AcDbLine
 62
7
  6
CONTINUOUS
 10
-36.7591026603
 20
-19.6130903017
 11
-36.7591026603
 21
19.6130903017
  0
LINE
  5
8AB
100
AcDbEntity
  8
RACCORDO
100
AcDbLine
 62
253
  6
CONTINUOUS
 10
-78.2591026603
 20
24.2500042308
 11
-80.5105570931
 21
24.2369056521
  0
LINE
  5
8AC
100
AcDbEntity
  8
RACCORDO
100
AcDbLine
 62
7
  6
CONTINUOUS
 10
-78.2591026603
 20
24.5
 11
-80.5105570931
 21
24.4869014213
  0
LINE
  5
8AD
100
AcDbEntity
  8
RACCORDO
100
AcDbLine
 62
253
  6
CONTINUOUS
 10
-80.7591026603
 20
24.2369056521
 11
-80.5105570931
 21
24.2369056521
  0
LINE
  5
8AE
100
AcDbEntity
  8
RACCORDO
100
AcDbLine
 62
253
  6
CONTINUOUS
 10
-77.2591026603
 20
24.2456323968
 11
-77.5076482275
 21
24.2456323968
  0
LINE
  5
8AF
100
AcDbEntity
  8
RACCORDO
100
AcDbLine
 62
253
  6
CONTINUOUS
 10
-77.5076482275
 20
24.2456323968
 11
-78.2591026603
 21
24.2500042308
  0
LINE
  5
8B0
100
AcDbEntity
  8
RACCORDO
100
AcDbLine
 62
7
  6
CONTINUOUS
 10
-77.5076482275
 20
24.495628166
 11
-78.2591026603
 21
24.5
  0
LWPOLYLINE
  5
8B1
100
AcDbEntity
  8
0
100
AcDbPolyline
 62
7
  6
CONTINUOUS
 90
8
 70
0
 43
0.3500000006
 10
-54.8662453308
 20
33.2500007629
 10
-54.0091028595
 20
33.2500007629
 10
-53.5805293579
 20
33.6785697327
 10
-53.5805293579
 20
34.535712204
 10
-54.0091028595
 20
34.9642857056
 10
-54.8662453308
 20
34.9642857056
 10
-54.8662453308
 20
36.2500016785
 10
-53.5805293579
 20
36.2500016785
  0
LWPOLYLINE
  5
8B2
100
AcDbEntity
  8
0
100
AcDbPolyline
 62
7
  6
CONTINUOUS
 90
3
 70
0
 43
0.3500000006
 10
-59.7948156738
 20
33.8928587494
 10
-61.2948161316
 20
33.8928587494
 10
-60.6519581451
 20
36.2500016785
  0
LWPOLYLINE
  5
8B3
100
AcDbEntity
  8
0
100
AcDbPolyline
 62
7
  6
CONTINUOUS
 90
8
 70
0
 43
0.3500000006
 10
-64.1876748047
 20
43.2499992828
 10
-63.3305323334
 20
43.2499992828
 10
-62.9019588318
 20
43.6785727844
 10
-62.9019588318
 20
44.5357152557
 10
-63.3305323334
 20
44.9642842255
 10
-64.1876748047
 20
44.9642842255
 10
-64.1876748047
 20
46.2500001984
 10
-62.9019588318
 20
46.2500001984
  0
ARC
  5
8B4
100
AcDbEntity
  8
RACCORDO
100
AcDbCircle
 62
7
  6
CONTINUOUS
 10
-77.5091026603
 20
-24.2456323968
 40
0.25
100
AcDbArc
 50
270.3333333333
 51
360.0
  0
ARC
  5
8B5
100
AcDbEntity
  8
RACCORDO
100
AcDbCircle
 62
7
  6
CONTINUOUS
 10
-77.5091026603
 20
-23.8443375673
 40
0.25
100
AcDbArc
 50
0.0
 51
60.0
  0
ARC
  5
8B6
100
AcDbEntity
  8
RACCORDO
100
AcDbCircle
 62
7
  6
CONTINUOUS
 10
-80.5091026603
 20
-24.2369056521
 40
0.25
100
AcDbArc
 50
180.0
 51
269.6666666667
  0
ARC
  5
8B7
100
AcDbEntity
  8
RACCORDO
100
AcDbCircle
 62
7
  6
CONTINUOUS
 10
-80.5091026603
 20
-23.8443375673
 40
0.25
100
AcDbArc
 50
120.0
 51
180.0
  0
ARC
  5
8B8
100
AcDbEntity
  8
RACCORDO
100
AcDbCircle
 62
7
  6
CONTINUOUS
 10
-85.8373776148
 20
-20.5007809198
 40
1.5
100
AcDbArc
 50
182.3564266244
 51
267.0004495319
  0
ARC
  5
8B9
100
AcDbEntity
  8
ASSI
100
AcDbCircle
 62
7
  6
CONTINUOUS
 10
-85.8373776148
 20
-20.5007809198
 40
1.5
100
AcDbArc
 50
182.3564980703
 51
267.0005206114
  0
ARC
  5
8BA
100
AcDbEntity
  8
ASSI
100
AcDbCircle
 62
7
  6
CONTINUOUS
 10
-70.7591026603
 20
-23.2563578147
 40
0.5
100
AcDbArc
 50
270.3333333333
 51
360.0
  0
ARC
  5
8BB
100
AcDbEntity
  8
RACCORDO
100
AcDbCircle
 62
7
  6
CONTINUOUS
 10
-68.2591026603
 20
-21.3126932437
 40
1.0
100
AcDbArc
 50
270.5
 51
360.0
  0
ARC
  5
8BC
100
AcDbEntity
  8
0
100
AcDbCircle
 62
7
  6
CONTINUOUS
 10
-69.4186125119
 20
-18.9
 40
0.7
100
AcDbArc
 50
77.0
 51
90.0
  0
ARC
  5
8BD
100
AcDbEntity
  8
RACCORDO
100
AcDbCircle
 62
7
  6
CONTINUOUS
 10
-66.5591570416
 20
-18.9987158742
 40
0.3
100
AcDbArc
 50
271.0103876392
 51
0.0001812564
  0
ARC
  5
8BE
100
AcDbEntity
  8
0
100
AcDbCircle
 62
7
  6
CONTINUOUS
 10
-66.5591026603
 20
-18.998714925
 40
0.3
100
AcDbArc
 50
271.0
 51
360.0
  0
ARC
  5
8BF
100
AcDbEntity
  8
RACCORDO
100
AcDbCircle
 62
7
  6
CONTINUOUS
 10
-67.4591026603
 20
-19.9570181168
 40
0.2
100
AcDbArc
 50
0.0
 51
89.6666666667
  0
ARC
  5
8C0
100
AcDbEntity
  8
RACCORDO
100
AcDbCircle
 62
7
  6
CONTINUOUS
 10
-41.9541632839
 20
-19.2677422709
 40
0.3
100
AcDbArc
 50
179.9999887354
 51
269.4987091308
  0
ARC
  5
8C1
100
AcDbEntity
  8
ASSI
100
AcDbCircle
 62
7
  6
CONTINUOUS
 10
-41.9541632839
 20
-19.2677422709
 40
0.3
100
AcDbArc
 50
179.9999887354
 51
269.4987091308
  0
ARC
  5
8C2
100
AcDbEntity
  8
RACCORDO
100
AcDbCircle
 62
7
  6
CONTINUOUS
 10
-43.0091026603
 20
-1.0
 40
2.15
100
AcDbArc
 50
90.0
 51
270.0
  0
ARC
  5
8C3
100
AcDbEntity
  8
ASSI
100
AcDbCircle
 62
7
  6
CONTINUOUS
 10
-43.0091026603
 20
-1.0
 40
2.15
100
AcDbArc
 50
90.0
 51
270.0
  0
CIRCLE
  5
8C4
100
AcDbEntity
  8
ASSI
100
AcDbCircle
 62
7
  6
CONTINUOUS
 10
-42.6591026603
 20
-1.0
 40
2.0
  0
ARC
  5
8C5
100
AcDbEntity
  8
RACCORDO
100
AcDbCircle
 62
7
  6
CONTINUOUS
 10
-46.6591026603
 20
-4.5
 40
0.5
100
AcDbArc
 50
180.0
 51
270.0
  0
ARC
  5
8C6
100
AcDbEntity
  8
ASSI
100
AcDbCircle
 62
7
  6
CONTINUOUS
 10
-46.6591026603
 20
-4.5
 40
0.5
100
AcDbArc
 50
180.0
 51
270.0
  0
ARC
  5
8C7
100
AcDbEntity
  8
ASSI
100
AcDbCircle
 62
7
  6
CONTINUOUS
 10
-46.7591026603
 20
-4.6
 40
0.5
100
AcDbArc
 50
180.0
 51
270.0
  0
ARC
  5
8C8
100
AcDbEntity
  8
RACCORDO
100
AcDbCircle
 62
7
  6
CONTINUOUS
 10
-85.8373776148
 20
20.5007809198
 40
1.5
100
AcDbArc
 50
92.9994793886
 51
177.6435019297
  0
ARC
  5
8C9
100
AcDbEntity
  8
ASSI
100
AcDbCircle
 62
7
  6
CONTINUOUS
 10
-85.8373776148
 20
20.5007809198
 40
1.5
100
AcDbArc
 50
92.9995504681
 51
177.6435733756
  0
ARC
  5
8CA
100
AcDbEntity
  8
RACCORDO
100
AcDbCircle
 62
7
  6
CONTINUOUS
 10
-77.5091026603
 20
24.2456323968
 40
0.25
100
AcDbArc
 50
0.0
 51
89.6666666667
  0
ARC
  5
8CB
100
AcDbEntity
  8
RACCORDO
100
AcDbCircle
 62
7
  6
CONTINUOUS
 10
-77.5091026603
 20
23.8443375673
 40
0.25
100
AcDbArc
 50
300.0
 51
360.0
  0
ARC
  5
8CC
100
AcDbEntity
  8
RACCORDO
100
AcDbCircle
 62
7
  6
CONTINUOUS
 10
-80.5091026603
 20
24.2369056521
 40
0.25
100
AcDbArc
 50
90.3333333333
 51
180.0
  0
ARC
  5
8CD
100
AcDbEntity
  8
RACCORDO
100
AcDbCircle
 62
7
  6
CONTINUOUS
 10
-80.5091026603
 20
23.8443375673
 40
0.25
100
AcDbArc
 50
180.0
 51
240.0
  0
ARC
  5
8CE
100
AcDbEntity
  8
RACCORDO
100
AcDbCircle
 62
7
  6
CONTINUOUS
 10
-68.2591026603
 20
21.3126932437
 40
1.0
100
AcDbArc
 50
0.0
 51
89.5
  0
ARC
  5
8CF
100
AcDbEntity
  8
0
100
AcDbCircle
 62
7
  6
CONTINUOUS
 10
-69.4186125119
 20
18.9
 40
0.7
100
AcDbArc
 50
270.0
 51
283.0
  0
ARC
  5
8D0
100
AcDbEntity
  8
RACCORDO
100
AcDbCircle
 62
7
  6
CONTINUOUS
 10
-66.5591013269
 20
18.9987149017
 40
0.3
100
AcDbArc
 50
0.0
 51
89.0002547066
  0
ARC
  5
8D1
100
AcDbEntity
  8
0
100
AcDbCircle
 62
7
  6
CONTINUOUS
 10
-66.5591026603
 20
18.998714925
 40
0.3
100
AcDbArc
 50
0.0
 51
89.0
  0
ARC
  5
8D2
100
AcDbEntity
  8
RACCORDO
100
AcDbCircle
 62
7
  6
CONTINUOUS
 10
-67.4591026603
 20
19.9570181168
 40
0.2
100
AcDbArc
 50
270.3333333333
 51
360.0
  0
ARC
  5
8D3
100
AcDbEntity
  8
ASSI
100
AcDbCircle
 62
7
  6
CONTINUOUS
 10
-70.7591026603
 20
23.2563578147
 40
0.5
100
AcDbArc
 50
0.0
 51
89.6666666667
  0
ARC
  5
8D4
100
AcDbEntity
  8
RACCORDO
100
AcDbCircle
 62
7
  6
CONTINUOUS
 10
-43.0091026603
 20
14.0
 40
2.15
100
AcDbArc
 50
90.0
 51
270.0
  0
ARC
  5
8D5
100
AcDbEntity
  8
RACCORDO
100
AcDbCircle
 62
7
  6
CONTINUOUS
 10
-43.0091026603
 20
9.0
 40
2.15
100
AcDbArc
 50
90.0
 51
270.0
  0
ARC
  5
8D6
100
AcDbEntity
  8
RACCORDO
100
AcDbCircle
 62
7
  6
CONTINUOUS
 10
-43.0091026603
 20
4.0
 40
2.15
100
AcDbArc
 50
90.0
 51
270.0
  0
ARC
  5
8D7
100
AcDbEntity
  8
ASSI
100
AcDbCircle
 62
7
  6
CONTINUOUS
 10
-43.0091026603
 20
14.0
 40
2.15
100
AcDbArc
 50
90.0
 51
270.0
  0
ARC
  5
8D8
100
AcDbEntity
  8
ASSI
100
AcDbCircle
 62
7
  6
CONTINUOUS
 10
-43.0091026603
 20
9.0
 40
2.15
100
AcDbArc
 50
90.0
 51
270.0
  0
ARC
  5
8D9
100
AcDbEntity
  8
ASSI
100
AcDbCircle
 62
7
  6
CONTINUOUS
 10
-43.0091026603
 20
4.0
 40
2.15
100
AcDbArc
 50
90.0
 51
270.0
  0
CIRCLE
  5
8DA
100
AcDbEntity
  8
ASSI
100
AcDbCircle
 62
7
  6
CONTINUOUS
 10
-42.6591026603
 20
14.0
 40
2.0
  0
CIRCLE
  5
8DB
100
AcDbEntity
  8
ASSI
100
AcDbCircle
 62
7
  6
CONTINUOUS
 10
-42.6591026603
 20
9.0
 40
2.0
  0
CIRCLE
  5
8DC
100
AcDbEntity
  8
ASSI
100
AcDbCircle
 62
7
  6
CONTINUOUS
 10
-42.6591026603
 20
4.0
 40
2.0
  0
ARC
  5
8DD
100
AcDbEntity
  8
RACCORDO
100
AcDbCircle
 62
7
  6
CONTINUOUS
 10
-50.9590959016
 20
19.1891574145
 40
0.3
100
AcDbArc
 50
90.5012908692
 51
180.0000112646
  0
ARC
  5
8DE
100
AcDbEntity
  8
ASSI
100
AcDbCircle
 62
7
  6
CONTINUOUS
 10
-50.9590959016
 20
19.1891574145
 40
0.3
100
AcDbArc
 50
90.5012908692
 51
180.0000112646
  0
ARC
  5
8DF
100
AcDbEntity
  8
RACCORDO
100
AcDbCircle
 62
7
  6
CONTINUOUS
 10
412.2408973397
 20
-0.0
 40
500.0
100
AcDbArc
 50
177.643051365
 51
182.3569484207
  0
ARC
  5
8E0
100
AcDbEntity
  8
ASSI
100
AcDbCircle
 62
7
  6
CONTINUOUS
 10
412.2408973397
 20
-0.0
 40
500.0
100
AcDbArc
 50
177.6430515793
 51
182.356948635
  0
ELLIPSE
  5
8E1
100
AcDbEntity
  8
RACCORDO
100
AcDbEllipse
 62
7
  6
CONTINUOUS
 10
10.589923836
 20
21.7682943788
 30
0.0
 11
0.1582391023
 21
0.4751033573
 31
0.0
 40
0.9984778551
 41
-1.2488325878
 42
0.3210503505
  0
ELLIPSE
  5
8E2
100
AcDbEntity
  8
RACCORDO
100
AcDbEllipse
 62
7
  6
CONTINUOUS
 10
-10.589923836
 20
21.7682943788
 30
0.0
 11
-0.1582391023
 21
0.4751033573
 31
0.0
 40
0.9984778551
 41
-0.3210503505
 42
1.2488325878
  0
ELLIPSE
  5
8E3
100
AcDbEntity
  8
RACCORDO
100
AcDbEllipse
 62
7
  6
CONTINUOUS
 10
10.589923836
 20
-21.7682943788
 30
0.0
 11
-0.1582391023
 21
0.4751033573
 31
0.0
 40
0.9984778551
 41
-3.4626430041
 42
-1.8927600658
  0
ELLIPSE
  5
8E4
100
AcDbEntity
  8
RACCORDO
100
AcDbEllipse
 62
7
  6
CONTINUOUS
 10
-10.589923836
 20
-21.7682943788
 30
0.0
 11
0.1582391023
 21
0.4751033573
 31
0.0
 40
0.9984778551
 41
-4.3904252414
 42
-2.8205423031
  0
ELLIPSE
  5
8E5
100
AcDbEntity
  8
ASSI
100
AcDbEllipse
 62
7
  6
CONTINUOUS
 10
-10.589923836
 20
-21.7682943788
 30
0.0
 11
0.1582391023
 21
0.4751033573
 31
0.0
 40
0.9984778551
 41
-4.3904252414
 42
-2.8205423031
  0
ELLIPSE
  5
8E6
100
AcDbEntity
  8
ASSI
100
AcDbEllipse
 62
7
  6
CONTINUOUS
 10
10.589923836
 20
-21.7682943788
 30
0.0
 11
-0.1582391023
 21
0.4751033573
 31
0.0
 40
0.9984778551
 41
-3.4626430041
 42
-1.8927600658
  0
ELLIPSE
  5
8E7
100
AcDbEntity
  8
ASSI
100
AcDbEllipse
 62
7
  6
CONTINUOUS
 10
-10.589923836
 20
21.7682943788
 30
0.0
 11
-0.1582391023
 21
0.4751033573
 31
0.0
 40
0.9984778551
 41
-0.3210503505
 42
1.2488325878
  0
ELLIPSE
  5
8E8
100
AcDbEntity
  8
ASSI
100
AcDbEllipse
 62
7
  6
CONTINUOUS
 10
10.589923836
 20
21.7682943788
 30
0.0
 11
0.1582391023
 21
0.4751033573
 31
0.0
 40
0.9984778551
 41
-1.2488325878
 42
0.3210503505
  0
ELLIPSE
  5
8E9
100
AcDbEntity
  8
RACCORDO
100
AcDbEllipse
 62
7
  6
CONTINUOUS
 10
-10.6899299291
 20
21.9312556162
 30
0.0
 11
0.4115211136
 21
0.2057448864
 31
0.0
 40
0.9998096356
 41
1.5707505574
 42
2.6780516535
  0
ELLIPSE
  5
8EA
100
AcDbEntity
  8
RACCORDO
100
AcDbEllipse
 62
7
  6
CONTINUOUS
 10
-10.6899299291
 20
-21.9312556162
 30
0.0
 11
0.4115211136
 21
-0.2057448864
 31
0.0
 40
0.9998096356
 41
-2.6780516535
 42
-1.5707505574
  0
ELLIPSE
  5
8EB
100
AcDbEntity
  8
RACCORDO
100
AcDbEllipse
 62
7
  6
CONTINUOUS
 10
10.6899299291
 20
21.9312556162
 30
0.0
 11
0.4115211136
 21
-0.2057448864
 31
0.0
 40
0.9998096356
 41
0.4635410001
 42
1.5708420962
  0
ELLIPSE
  5
8EC
100
AcDbEntity
  8
RACCORDO
100
AcDbEllipse
 62
7
  6
CONTINUOUS
 10
10.6899299291
 20
-21.9312556162
 30
0.0
 11
0.4115211136
 21
0.2057448864
 31
0.0
 40
0.9998096356
 41
-1.5708420962
 42
-0.4635410001
  0
ELLIPSE
  5
8ED
100
AcDbEntity
  8
RACCORDO
100
AcDbEllipse
 62
7
  6
CONTINUOUS
 10
3.8970826234
 20
22.3737961104
 30
0.0
 11
0.5
 21
-0.0
 31
0.0
 40
0.0524077793
 41
-1.5707963268
 42
-0.0058177642
  0
ELLIPSE
  5
8EE
100
AcDbEntity
  8
RACCORDO
100
AcDbEllipse
 62
7
  6
CONTINUOUS
 10
3.8970826234
 20
23.7970910851
 30
0.0
 11
0.5
 21
0.0
 31
0.0
 40
0.0058178298
 41
-0.6464131586
 42
-0.0058177642
  0
ELLIPSE
  5
8EF
100
AcDbEntity
  8
RACCORDO
100
AcDbEllipse
 62
7
  6
CONTINUOUS
 10
-3.8970826234
 20
23.7970910851
 30
0.0
 11
0.5
 21
0.0
 31
0.0
 40
0.0058178298
 41
-3.1357748894
 42
-2.495179495
  0
ELLIPSE
  5
8F0
100
AcDbEntity
  8
RACCORDO
100
AcDbEllipse
 62
7
  6
CONTINUOUS
 10
-3.8970826234
 20
22.3737961104
 30
0.0
 11
0.5
 21
0.0
 31
0.0
 40
0.0524077793
 41
-3.1357748894
 42
-1.5707963268
  0
ELLIPSE
  5
8F1
100
AcDbEntity
  8
RACCORDO
100
AcDbEllipse
 62
7
  6
CONTINUOUS
 10
3.8970826234
 20
-23.7970910851
 30
0.0
 11
0.5
 21
-0.0
 31
0.0
 40
0.0058178298
 41
0.0058177642
 42
0.6464131586
  0
ELLIPSE
  5
8F2
100
AcDbEntity
  8
RACCORDO
100
AcDbEllipse
 62
7
  6
CONTINUOUS
 10
3.8970826234
 20
-22.3737961104
 30
0.0
 11
0.5
 21
0.0
 31
0.0
 40
0.0524077793
 41
0.0058177642
 42
1.5707963268
  0
ELLIPSE
  5
8F3
100
AcDbEntity
  8
RACCORDO
100
AcDbEllipse
 62
7
  6
CONTINUOUS
 10
-3.8970826234
 20
-22.3737961104
 30
0.0
 11
0.5
 21
-0.0
 31
0.0
 40
0.0524077793
 41
1.5707963268
 42
3.1357748894
  0
ELLIPSE
  5
8F4
100
AcDbEntity
  8
RACCORDO
100
AcDbEllipse
 62
7
  6
CONTINUOUS
 10
-3.8970826234
 20
-23.7970910851
 30
0.0
 11
0.5
 21
0.0
 31
0.0
 40
0.0058178298
 41
2.495179495
 42
3.1357748894
  0
ELLIPSE
  5
8F5
100
AcDbEntity
  8
RACCORDO
100
AcDbEllipse
 62
7
  6
CONTINUOUS
 10
10.3927234819
 20
-22.3344902759
 30
0.0
 11
0.25
 21
0.0
 31
0.0
 40
0.0524077793
 41
0.0058177642
 42
1.5707963268
  0
ELLIPSE
  5
8F6
100
AcDbEntity
  8
RACCORDO
100
AcDbEllipse
 62
7
  6
CONTINUOUS
 10
8.5072765181
 20
-22.3344902759
 30
0.0
 11
0.25
 21
0.0
 31
0.0
 40
0.0524077793
 41
1.5707963268
 42
3.1357748894
  0
ELLIPSE
  5
8F7
100
AcDbEntity
  8
RACCORDO
100
AcDbEllipse
 62
7
  6
CONTINUOUS
 10
-8.5072765181
 20
-22.3344902759
 30
0.0
 11
0.25
 21
-0.0
 31
0.0
 40
0.0524077793
 41
0.0058177642
 42
1.5707963268
  0
ELLIPSE
  5
8F8
100
AcDbEntity
  8
RACCORDO
100
AcDbEllipse
 62
7
  6
CONTINUOUS
 10
-10.3927234819
 20
-22.3344902759
 30
0.0
 11
0.25
 21
-0.0
 31
0.0
 40
0.0524077793
 41
1.5707963268
 42
3.1357748894
  0
ELLIPSE
  5
8F9
100
AcDbEntity
  8
RACCORDO
100
AcDbEllipse
 62
7
  6
CONTINUOUS
 10
10.3927234819
 20
22.3344902759
 30
0.0
 11
0.25
 21
0.0
 31
0.0
 40
0.0524077793
 41
-1.5707963268
 42
-0.0058177642
  0
ELLIPSE
  5
8FA
100
AcDbEntity
  8
RACCORDO
100
AcDbEllipse
 62
7
  6
CONTINUOUS
 10
10.6288372019
 20
21.8083492726
 30
0.0
 11
0.1455799742
 21
0.4370950887
 31
0.0
 40
0.9984778551
 41
-1.2488325878
 42
0.3210503505
  0
ELLIPSE
  5
8FB
100
AcDbEntity
  8
RACCORDO
100
AcDbEllipse
 62
7
  6
CONTINUOUS
 10
8.5072765181
 20
22.3344902759
 30
0.0
 11
0.25
 21
0.0
 31
0.0
 40
0.0524077793
 41
-3.1357748894
 42
-1.5707963268
  0
ELLIPSE
  5
8FC
100
AcDbEntity
  8
RACCORDO
100
AcDbEllipse
 62
7
  6
CONTINUOUS
 10
-8.5072765181
 20
22.3344902759
 30
0.0
 11
0.25
 21
-0.0
 31
0.0
 40
0.0524077793
 41
-1.5707963268
 42
-0.0058177642
  0
ELLIPSE
  5
8FD
100
AcDbEntity
  8
RACCORDO
100
AcDbEllipse
 62
7
  6
CONTINUOUS
 10
-10.3927234819
 20
22.3344902759
 30
0.0
 11
0.25
 21
0.0
 31
0.0
 40
0.0524077793
 41
-3.1357748894
 42
-1.5707963268
  0
ELLIPSE
  5
8FE
100
AcDbEntity
  8
RACCORDO
100
AcDbEllipse
 62
7
  6
CONTINUOUS
 10
-10.6288372019
 20
21.8083492726
 30
0.0
 11
0.1455799742
 21
-0.4370950887
 31
0.0
 40
0.9984778551
 41
2.8205423031
 42
4.3904252414
  0
ELLIPSE
  5
8FF
100
AcDbEntity
  8
RACCORDO
100
AcDbEllipse
 62
7
  6
CONTINUOUS
 10
-10.6288372019
 20
-21.8083492726
 30
0.0
 11
-0.1455799742
 21
-0.4370950887
 31
0.0
 40
0.9984778551
 41
-1.2488325878
 42
0.3210503505
  0
ELLIPSE
  5
900
100
AcDbEntity
  8
RACCORDO
100
AcDbEllipse
 62
7
  6
CONTINUOUS
 10
10.6288372019
 20
-21.8083492726
 30
0.0
 11
-0.1455799742
 21
0.4370950887
 31
0.0
 40
0.9984778551
 41
2.8205423031
 42
4.3904252414
  0
ELLIPSE
  5
901
100
AcDbEntity
  8
RACCORDO
100
AcDbEllipse
 62
7
  6
CONTINUOUS
 10
-67.7591026603
 20
-22.0658992808
 30
0.0
 11
0.4998649925
 21
0.011618487
 31
0.0
 40
1.0
 41
0.6373289854
 42
1.5301039686
  0
ELLIPSE
  5
902
100
AcDbEntity
  8
RACCORDO
100
AcDbEllipse
 62
7
  6
CONTINUOUS
 10
-67.7591026603
 20
22.0658992808
 30
0.0
 11
0.4999459664
 21
0.0073505573
 31
0.0
 40
1.0
 41
-1.5680446784
 42
-0.6752696952
  0
ENDSEC
  0
SECTION
  2
OBJECTS
  0
DICTIONARY
  5
C
100
AcDbDictionary
280
0
281
1
  3
ACAD_GROUP
350
D
  3
ACAD_MLINESTYLE
350
17
  3
ACAD_LAYOUT
350
1A
  3
ACAD_PLOTSETTINGS
350
19
  3
ACAD_PLOTSTYLENAME
350
E
  0
DICTIONARY
  5
D
102
{ACAD_REACTORS
330
C
102
}
100
AcDbDictionary
280
0
281
1
  0
ACDBDICTIONARYWDFLT
  5
E
102
{ACAD_REACTORS
330
C
102
}
100
AcDbDictionary
281
1
  3
Normal
350
F
100
AcDbDictionaryWithDefault
340
F
  0
DICTIONARY
  5
17
102
{ACAD_REACTORS
330
C
102
}
100
AcDbDictionary
280
0
281
1
  3
Standard
350
18
  0
DICTIONARY
  5
19
102
{ACAD_REACTORS
330
C
102
}
100
AcDbDictionary
281
1
  0
DICTIONARY
  5
1A
102
{ACAD_REACTORS
330
C
102
}
100
AcDbDictionary
281
1
  3
Model
350
903
  3
Layout1
350
904
  0
ACDBPLACEHOLDER
  5
F
102
{ACAD_REACTORS
330
E
102
}
  0
MLINESTYLE
  5
18
102
{ACAD_REACTORS
330
17
102
}
100
AcDbMlineStyle
  2
STANDARD
 70
0
  3

 62
256
 51
90.0
 52
90.0
 71
2
 49
0.5
 62
256
  6
BYLAYER
 49
-0.5
 62
256
  6
BYLAYER
  0
LAYOUT
  5
903
102
{ACAD_REACTORS
330
1A
102
}
100
AcDbPlotSettings
  1

  2
none_device
  4
ISO_A4_(297.00_x_210.00_MM)
  6

 40
0.0
 41
0.0
 42
0.0
 43
0.0
 44
297.0
 45
210.0
 46
0.0
 47
0.0
 48
0.0
 49
0.0
140
0.0
141
0.0
142
1.0
143
1.0
 70
1024
 72
1
 73
0
 74
0
  7

 75
0
147
1.0
148
0.0
149
0.0
100
AcDbLayout
  1
Model
 70
0
 71
0
 10
0.0
 20
0.0
 11
297.0
 21
210.0
 12
0.0
 22
0.0
 32
0.0
 14
0.0
 24
0.0
 34
0.0
 15
0.0
 25
0.0
 35
0.0
146
0.0
 13
0.0
 23
0.0
 33
0.0
 16
1.0
 26
0.0
 36
0.0
 17
0.0
 27
1.0
 37
0.0
 76
0
330
218
345
0
346
0
  0
LAYOUT
  5
904
102
{ACAD_REACTORS
330
1A
102
}
100
AcDbPlotSettings
  1

  2
none_device
  4
ISO_A4_(297.00_x_210.00_MM)
  6

 40
0.0
 41
0.0
 42
0.0
 43
0.0
 44
297.0
 45
210.0
 46
0.0
 47
0.0
 48
0.0
 49
0.0
140
0.0
141
0.0
142
1.0
143
1.0
 70
0
 72
1
 73
0
 74
0
  7

 75
0
147
1.0
148
0.0
149
0.0
100
AcDbLayout
  1
Layout1
 70
0
 71
1
 10
0.0
 20
0.0
 11
297.0
 21
210.0
 12
0.0
 22
0.0
 32
0.0
 14
0.0
 24
0.0
 34
0.0
 15
0.0
 25
0.0
 35
0.0
146
0.0
 13
0.0
 23
0.0
 33
0.0
 16
1.0
 26
0.0
 36
0.0
 17
0.0
 27
1.0
 37
0.0
 76
0
330
219
345
0
346
0
  0
ENDSEC
  0
EOF
