  0
SECTION
  2
HEADER
  9
$ACADVER
  1
AC1024
  9
$DWGCODEPAGE
  3
ANSI_1252
  9
$EXTMAX
 10
297.0
 20
210.0
 30
0.0
  9
$EXTMIN
 10
0.0
 20
0.0
 30
0.0
  9
$LIMMIN
 10
0.0
 20
0.0
  9
$LIMMAX
 10
297.0
 20
210.0
  9
$VIEWCTR
 10
148.5
 20
105.0
  9
$VIEWSIZE
 40
210.0
  9
$CLAYER
  8
0
  9
$LTSCALE
 40
16.335
  9
$CELTYPE
  6
BYLAYER
  9
$DIMSCALE
 40
1.0
  9
$DIMASZ
 40
3.0
  9
$DIMEXO
 40
0.5
  9
$DIMDLI
 40
11.286
  9
$DIMEXE
 40
1.5
  9
$DIMCEN
 40
2.673
  9
$DIMLFAC
 40
1.0
  9
$DIMBLK
  1
_FILLED
  9
$DIMALT
 70
0
  9
$DIMALTF
 40
0.0393700787
  9
$DIMTXT
 40
3.0
  9
$DIMTOL
 70
1
  9
$DIMLIM
 70
0
  9
$DIMTFAC
 40
1.0
  9
$DIMTP
 40
0.01
  9
$DIMTM
 40
0.01
  9
$DIMGAP
 40
0.625
  9
$DIMDSEP
 70
44
  9
$AUNITS
 70
0
  9
$PDMODE
 70
3
  9
$PDSIZE
 40
3.0
  9
$HANDSEED
  5
73D
  9
$TILEMODE
 70
1
  9
$MEASUREMENT
 70
1
  9
$INSUNITS
 70
4
  0
ENDSEC
  0
SECTION
  2
CLASSES
  0
CLASS
  1
ACDBDICTIONARYWDFLT
  2
AcDbDictionaryWithDefault
  3
AutoCAD 2000
 90
0
 91
1
280
0
281
0
  0
CLASS
  1
ACDBPLACEHOLDER
  2
AcDbPlaceHolder
  3
AutoCAD 2000
 90
0
 91
1
280
0
281
0
  0
CLASS
  1
LAYOUT
  2
AcDbLayout
  3
AutoCAD 2000
 90
0
 91
0
280
0
281
0
  0
ENDSEC
  0
SECTION
  2
TABLES
  0
TABLE
  2
VPORT
  5
8
100
AcDbSymbolTable
 70
2
  0
VPORT
  5
1F4
100
AcDbSymbolTableRecord
100
AcDbViewportTableRecord
  2
*ACTIVE
 70
0
 10
0.0
 20
0.0
 11
1.0
 21
1.0
 12
148.5
 22
105.0
 13
0.0
 23
0.0
 14
1.0
 24
1.0
 15
0.0
 25
0.0
 16
0.0
 26
0.0
 36
1.0
 17
0.0
 27
0.0
 37
0.0
 40
210.0
 41
1.4142857143
 42
50.0
 43
0.0
 44
0.0
 50
0.0
 51
0.0
 71
0
 72
100
 73
1
 74
1
 75
0
 76
0
 77
0
 78
0
  0
ENDTAB
  0
TABLE
  2
LTYPE
  5
5
100
AcDbSymbolTable
 70
6
  0
LTYPE
  5
14
100
AcDbSymbolTableRecord
100
AcDbLinetypeTableRecord
  2
BYBLOCK
 70
0
  3

 72
65
 73
0
 40
0.0
  0
LTYPE
  5
15
100
AcDbSymbolTableRecord
100
AcDbLinetypeTableRecord
  2
BYLAYER
 70
0
  3

 72
65
 73
0
 40
0.0
  0
LTYPE
  5
16
100
AcDbSymbolTableRecord
100
AcDbLinetypeTableRecord
  2
CONTINUOUS
 70
64
  3
Solid line
 72
65
 73
0
 40
0.0
  0
LTYPE
  5
1F5
100
AcDbSymbolTableRecord
100
AcDbLinetypeTableRecord
  2
CENTER
 70
64
  3
____ _ ____ _ ____ _ ____ _ ____ _ ____ _ ____
 72
65
 73
4
 40
0.6
 49
0.375
 74
0
 49
-0.075
 74
0
 49
0.075
 74
0
 49
-0.075
 74
0
  0
LTYPE
  5
1F6
100
AcDbSymbolTableRecord
100
AcDbLinetypeTableRecord
  2
HIDDEN
 70
64
  3
- - - - - - - - - - - - - - - - - - - -
 72
65
 73
2
 40
0.2
 49
0.1
 74
0
 49
-0.1
 74
0
  0
LTYPE
  5
1F7
100
AcDbSymbolTableRecord
100
AcDbLinetypeTableRecord
  2
PHANTOM
 70
64
  3
_____ _ _ _____ _ _ _____ _ _ _____
 72
65
 73
6
 40
0.8
 49
0.45
 74
0
 49
-0.05
 74
0
 49
0.1
 74
0
 49
-0.05
 74
0
 49
0.1
 74
0
 49
-0.05
 74
0
  0
LTYPE
  5
1F8
100
AcDbSymbolTableRecord
100
AcDbLinetypeTableRecord
  2
DOT
 70
64
  3
. . . . . . . . . . . . . . . . . . . .
 72
65
 73
2
 40
0.2
 49
0.1
 74
0
 49
-0.1
 74
0
  0
LTYPE
  5
1F9
100
AcDbSymbolTableRecord
100
AcDbLinetypeTableRecord
  2
DASHED
 70
64
  3
- - - - - - - - - - - - - - - - - - - -
 72
65
 73
2
 40
0.2
 49
0.1
 74
0
 49
-0.1
 74
0
  0
ENDTAB
  0
TABLE
  2
LAYER
  5
2
100
AcDbSymbolTable
 70
36
  0
LAYER
  5
10
100
AcDbSymbolTableRecord
100
AcDbLayerTableRecord
  2
0
 70
0
 62
7
  6
CONTINUOUS
370
-3
390
F
  0
LAYER
  5
1FA
100
AcDbSymbolTableRecord
100
AcDbLayerTableRecord
  2
DEFAULT_1
 70
0
 62
7
  6
CENTER
370
-3
390
F
  0
LAYER
  5
1FB
100
AcDbSymbolTableRecord
100
AcDbLayerTableRecord
  2
DEFAULT_2
 70
0
 62
7
  6
HIDDEN
370
-3
390
F
  0
LAYER
  5
1FC
100
AcDbSymbolTableRecord
100
AcDbLayerTableRecord
  2
DEFAULT_3
 70
0
 62
7
  6
PHANTOM
370
-3
390
F
  0
LAYER
  5
1FD
100
AcDbSymbolTableRecord
100
AcDbLayerTableRecord
  2
ASSI
 70
0
 62
7
  6
CONTINUOUS
370
-3
390
F
  0
LAYER
  5
1FE
100
AcDbSymbolTableRecord
100
AcDbLayerTableRecord
  2
COORDINATE
 70
0
 62
7
  6
CONTINUOUS
370
-3
390
F
  0
LAYER
  5
1FF
100
AcDbSymbolTableRecord
100
AcDbLayerTableRecord
  2
COORD_ORIGINE
 70
0
 62
7
  6
CONTINUOUS
370
-3
390
F
  0
LAYER
  5
200
100
AcDbSymbolTableRecord
100
AcDbLayerTableRecord
  2
CURVE
 70
0
 62
7
  6
CONTINUOUS
370
-3
390
F
  0
LAYER
  5
201
100
AcDbSymbolTableRecord
100
AcDbLayerTableRecord
  2
DRAFT
 70
0
 62
7
  6
CONTINUOUS
370
-3
390
F
  0
LAYER
  5
202
100
AcDbSymbolTableRecord
100
AcDbLayerTableRecord
  2
IGES
 70
0
 62
7
  6
CONTINUOUS
370
-3
390
F
  0
LAYER
  5
203
100
AcDbSymbolTableRecord
100
AcDbLayerTableRecord
  2
INTF_1
 70
0
 62
7
  6
CONTINUOUS
370
-3
390
F
  0
LAYER
  5
204
100
AcDbSymbolTableRecord
100
AcDbLayerTableRecord
  2
INTF_5
 70
0
 62
7
  6
CONTINUOUS
370
-3
390
F
  0
LAYER
  5
205
100
AcDbSymbolTableRecord
100
AcDbLayerTableRecord
  2
INTF_7
 70
0
 62
7
  6
CONTINUOUS
370
-3
390
F
  0
LAYER
  5
206
100
AcDbSymbolTableRecord
100
AcDbLayerTableRecord
  2
INTF_MAGENTA
 70
0
 62
7
  6
CONTINUOUS
370
-3
390
F
  0
LAYER
  5
207
100
AcDbSymbolTableRecord
100
AcDbLayerTableRecord
  2
NOTE
 70
0
 62
7
  6
CONTINUOUS
370
-3
390
F
  0
LAYER
  5
208
100
AcDbSymbolTableRecord
100
AcDbLayerTableRecord
  2
PIANI
 70
0
 62
7
  6
CONTINUOUS
370
-3
390
F
  0
LAYER
  5
209
100
AcDbSymbolTableRecord
100
AcDbLayerTableRecord
  2
PIANI_COS_SUPERFICE
 70
0
 62
7
  6
CONTINUOUS
370
-3
390
F
  0
LAYER
  5
20A
100
AcDbSymbolTableRecord
100
AcDbLayerTableRecord
  2
PIANI_ORIGINE
 70
0
 62
7
  6
CONTINUOUS
370
-3
390
F
  0
LAYER
  5
20B
100
AcDbSymbolTableRecord
100
AcDbLayerTableRecord
  2
PIANI_RIF_SFORMI
 70
0
 62
7
  6
CONTINUOUS
370
-3
390
F
  0
LAYER
  5
20C
100
AcDbSymbolTableRecord
100
AcDbLayerTableRecord
  2
PUNTI
 70
0
 62
7
  6
CONTINUOUS
370
-3
390
F
  0
LAYER
  5
20D
100
AcDbSymbolTableRecord
100
AcDbLayerTableRecord
  2
RACCORDO
 70
0
 62
7
  6
CONTINUOUS
370
-3
390
F
  0
LAYER
  5
20E
100
AcDbSymbolTableRecord
100
AcDbLayerTableRecord
  2
RGB__255__255__255__
 70
0
 62
7
  6
CONTINUOUS
370
-3
390
F
  0
LAYER
  5
20F
100
AcDbSymbolTableRecord
100
AcDbLayerTableRecord
  2
RGB____0____0____0__
 70
0
 62
7
  6
CONTINUOUS
370
-3
390
F
  0
LAYER
  5
210
100
AcDbSymbolTableRecord
100
AcDbLayerTableRecord
  2
SNAPLINE
 70
0
 62
7
  6
CONTINUOUS
370
-3
390
F
  0
LAYER
  5
211
100
AcDbSymbolTableRecord
100
AcDbLayerTableRecord
  2
SOLIDO
 70
0
 62
7
  6
CONTINUOUS
370
-3
390
F
  0
LAYER
  5
212
100
AcDbSymbolTableRecord
100
AcDbLayerTableRecord
  2
SUPERFICI
 70
0
 62
7
  6
CONTINUOUS
370
-3
390
F
  0
LAYER
  5
213
100
AcDbSymbolTableRecord
100
AcDbLayerTableRecord
  2
SUPERFICI1
 70
0
 62
7
  6
CONTINUOUS
370
-3
390
F
  0
LAYER
  5
214
100
AcDbSymbolTableRecord
100
AcDbLayerTableRecord
  2
TRASH
 70
0
 62
7
  6
CONTINUOUS
370
-3
390
F
  0
ENDTAB
  0
TABLE
  2
STYLE
  5
3
100
AcDbSymbolTable
 70
1
  0
STYLE
  5
11
100
AcDbSymbolTableRecord
100
AcDbTextStyleTableRecord
  2
STANDARD
 70
0
 40
0.0
 41
0.8
 50
0.0
 71
0
 42
0.2
  3
txt
  4

  0
STYLE
  5
215
100
AcDbSymbolTableRecord
100
AcDbTextStyleTableRecord
  2
TEXTSTYLE_1
 70
0
 40
0.0
 41
0.8
 50
0.0
 71
0
 42
0.2
  3
gdt
  4

  0
ENDTAB
  0
TABLE
  2
VIEW
  5
6
100
AcDbSymbolTable
 70
0
  0
ENDTAB
  0
TABLE
  2
UCS
  5
7
100
AcDbSymbolTable
 70
0
  0
ENDTAB
  0
TABLE
  2
APPID
  5
9
100
AcDbSymbolTable
 70
1
  0
APPID
  5
216
100
AcDbSymbolTableRecord
100
AcDbRegAppTableRecord
  2
ACAD
 70
0
  0
ENDTAB
  0
TABLE
  2
BLOCK_RECORD
  5
1
100
AcDbSymbolTable
 70
0
  0
BLOCK_RECORD
  5
217
100
AcDbSymbolTableRecord
100
AcDbBlockTableRecord
  2
*Model_Space
  0
BLOCK_RECORD
  5
218
100
AcDbSymbolTableRecord
100
AcDbBlockTableRecord
  2
*Paper_Space
  0
BLOCK_RECORD
  5
219
100
AcDbSymbolTableRecord
100
AcDbBlockTableRecord
  2
_FILLED
  0
BLOCK_RECORD
  5
21A
100
AcDbSymbolTableRecord
100
AcDbBlockTableRecord
  2
*D0
  0
BLOCK_RECORD
  5
21B
100
AcDbSymbolTableRecord
100
AcDbBlockTableRecord
  2
*D1
  0
BLOCK_RECORD
  5
21C
100
AcDbSymbolTableRecord
100
AcDbBlockTableRecord
  2
*D2
  0
ENDTAB
  0
TABLE
  2
DIMSTYLE
  5
A
100
AcDbSymbolTable
 70
1
100
AcDbDimStyleTable
 71
0
  0
DIMSTYLE
105
21D
100
AcDbSymbolTableRecord
100
AcDbDimStyleTableRecord
  2
STANDARD
 70
0
  3

  4

 40
1.0
 41
3.0
 42
0.5
 43
0.38
 44
1.5
 45
0.0
 46
0.0
 47
0.01
 48
0.01
140
3.0
141
0.09
142
0.0
143
25.4
144
1.0
145
0.0
146
1.0
147
0.625
 71
1
 72
0
 73
0
 74
0
 75
0
 76
0
 77
1
 78
8
 79
2
170
0
171
1
172
0
173
0
174
0
175
0
176
0
177
0
178
0
270
2
179
2
271
2
272
2
273
2
274
2
275
0
280
0
281
0
282
0
283
1
284
8
285
0
286
0
287
3
288
0
340
11
278
44
341
219
342
219
343
219
344
219
  0
DIMSTYLE
105
21E
100
AcDbSymbolTableRecord
100
AcDbDimStyleTableRecord
  2
DIMSTYLE_1
 70
0
  3

  4

 40
1.0
 41
3.0
 42
0.5
 43
0.38
 44
1.5
 45
0.0
 46
0.0
 47
0.0
 48
0.0
140
3.0
141
0.09
142
0.0
143
25.4
144
1.0
145
0.0
146
1.0
147
0.75
 71
0
 72
0
 73
0
 74
0
 75
0
 76
0
 77
1
 78
8
 79
2
170
0
171
1
172
0
173
0
174
0
175
0
176
0
177
0
178
0
270
2
179
2
271
2
272
2
273
2
274
2
275
0
280
0
281
0
282
0
283
1
284
8
285
0
286
0
287
3
288
0
340
11
278
44
341
219
342
219
343
219
344
219
  0
ENDTAB
  0
ENDSEC
  0
SECTION
  2
BLOCKS
  0
BLOCK
  5
20
100
AcDbEntity
  8
0
100
AcDbBlockBegin
  2
*Model_Space
 70
0
 10
0.0
 20
0.0
 30
0.0
  3
*Model_Space
  1

  0
ENDBLK
  5
21
100
AcDbEntity
  8
0
100
AcDbBlockEnd
  0
BLOCK
  5
1C
100
AcDbEntity
  8
0
100
AcDbBlockBegin
  2
*Paper_Space
 70
0
 10
0.0
 20
0.0
 30
0.0
  3
*Paper_Space
  1

  0
ENDBLK
  5
1D
100
AcDbEntity
  8
0
100
AcDbBlockEnd
  0
BLOCK
  5
21F
100
AcDbEntity
  8
0
100
AcDbBlockBegin
  2
_FILLED
 70
64
 10
0.0
 20
0.0
  3
_FILLED
  1

  0
SOLID
  5
220
100
AcDbEntity
  8
0
  6
BYBLOCK
 62
0
100
AcDbTrace
 10
0.0
 20
0.0
 11
-1.0
 21
0.3166666667
 12
-1.0
 22
-0.3166666667
 13
-1.0
 23
-0.3166666667
  0
ENDBLK
  5
221
100
AcDbEntity
  8
0
  6
BYBLOCK
 62
0
100
AcDbBlockEnd
  0
BLOCK
  5
222
100
AcDbEntity
  8
0
100
AcDbBlockBegin
 62
7
  6
CONTINUOUS
  2
*D0
 70
65
 10
0.0
 20
0.0
  3
*D0
  1

  0
LINE
  5
223
100
AcDbEntity
  8
0
100
AcDbLine
 62
7
  6
CONTINUOUS
 10
-40.0
 20
37.4999999999
 11
-40.0
 21
49.5
  0
LINE
  5
224
100
AcDbEntity
  8
0
100
AcDbLine
 62
7
  6
CONTINUOUS
 10
40.0
 20
37.4999999999
 11
40.0
 21
49.5
  0
LINE
  5
225
100
AcDbEntity
  8
0
100
AcDbLine
 62
7
  6
CONTINUOUS
 10
-40.0
 20
48.0
 11
0.0
 21
48.0
  0
LINE
  5
226
100
AcDbEntity
  8
0
100
AcDbLine
 62
7
  6
CONTINUOUS
 10
40.0
 20
48.0
 11
0.0
 21
48.0
  0
INSERT
  5
227
100
AcDbEntity
  8
0
100
AcDbBlockReference
 62
7
  6
CONTINUOUS
  2
_FILLED
 10
-40.0
 20
48.0
 41
3.0
 42
3.0
 43
3.0
 50
180.0
  0
INSERT
  5
228
100
AcDbEntity
  8
0
100
AcDbBlockReference
 62
7
  6
CONTINUOUS
  2
_FILLED
 10
40.0
 20
48.0
 41
3.0
 42
3.0
 43
3.0
  0
ENDBLK
  5
229
100
AcDbEntity
  8
0
  6
BYBLOCK
 62
0
100
AcDbBlockEnd
  0
BLOCK
  5
22A
100
AcDbEntity
  8
0
100
AcDbBlockBegin
 62
7
  6
CONTINUOUS
  2
*D1
 70
65
 10
0.0
 20
0.0
  3
*D1
  1

  0
LINE
  5
22B
100
AcDbEntity
  8
0
100
AcDbLine
 62
7
  6
CONTINUOUS
 10
-62.7546897085
 20
22.8
 11
-62.7546897085
 21
49.5
  0
LINE
  5
22C
100
AcDbEntity
  8
0
100
AcDbLine
 62
7
  6
CONTINUOUS
 10
-53.7546897085
 20
40.5
 11
-53.7546897085
 21
49.5
  0
LINE
  5
22D
100
AcDbEntity
  8
0
100
AcDbLine
 62
7
  6
CONTINUOUS
 10
-62.7546897085
 20
48.0
 11
-66.7546897085
 21
48.0
  0
LINE
  5
22E
100
AcDbEntity
  8
0
100
AcDbLine
 62
7
  6
CONTINUOUS
 10
-66.7546897085
 20
48.0
 11
-58.2546897085
 21
48.0
  0
LINE
  5
22F
100
AcDbEntity
  8
0
100
AcDbLine
 62
7
  6
CONTINUOUS
 10
-53.7546897085
 20
48.0
 11
-49.7546897085
 21
48.0
  0
LINE
  5
230
100
AcDbEntity
  8
0
100
AcDbLine
 62
7
  6
CONTINUOUS
 10
-49.7546897085
 20
48.0
 11
-58.2546897085
 21
48.0
  0
INSERT
  5
231
100
AcDbEntity
  8
0
100
AcDbBlockReference
 62
7
  6
CONTINUOUS
  2
_FILLED
 10
-62.7546897085
 20
48.0
 41
3.0
 42
3.0
 43
3.0
  0
INSERT
  5
232
100
AcDbEntity
  8
0
100
AcDbBlockReference
 62
7
  6
CONTINUOUS
  2
_FILLED
 10
-53.7546897085
 20
48.0
 41
3.0
 42
3.0
 43
3.0
 50
180.0
  0
ENDBLK
  5
233
100
AcDbEntity
  8
0
  6
BYBLOCK
 62
0
100
AcDbBlockEnd
  0
BLOCK
  5
234
100
AcDbEntity
  8
0
100
AcDbBlockBegin
 62
7
  6
CONTINUOUS
  2
*D2
 70
65
 10
0.0
 20
0.0
  3
*D2
  1

  0
LINE
  5
235
100
AcDbEntity
  8
0
100
AcDbLine
 62
7
  6
CONTINUOUS
 10
-54.2546897085
 20
40.0
 11
-72.2546897085
 21
40.0
  0
LINE
  5
236
100
AcDbEntity
  8
0
100
AcDbLine
 62
7
  6
CONTINUOUS
 10
-54.2546897085
 20
-40.0
 11
-72.2546897085
 21
-40.0
  0
LINE
  5
237
100
AcDbEntity
  8
0
100
AcDbLine
 62
7
  6
CONTINUOUS
 10
-70.7546897085
 20
40.0
 11
-70.7546897085
 21
-0.0
  0
LINE
  5
238
100
AcDbEntity
  8
0
100
AcDbLine
 62
7
  6
CONTINUOUS
 10
-70.7546897085
 20
-40.0
 11
-70.7546897085
 21
-0.0
  0
INSERT
  5
239
100
AcDbEntity
  8
0
100
AcDbBlockReference
 62
7
  6
CONTINUOUS
  2
_FILLED
 10
-70.7546897085
 20
40.0
 41
3.0
 42
3.0
 43
3.0
 50
90.0
  0
INSERT
  5
23A
100
AcDbEntity
  8
0
100
AcDbBlockReference
 62
7
  6
CONTINUOUS
  2
_FILLED
 10
-70.7546897085
 20
-40.0
 41
3.0
 42
3.0
 43
3.0
 50
270.0
  0
ENDBLK
  5
23B
100
AcDbEntity
  8
0
  6
BYBLOCK
 62
0
100
AcDbBlockEnd
  0
ENDSEC
  0
SECTION
  2
ENTITIES
  0
DIMENSION
  5
23C
100
AcDbEntity
  8
0
100
AcDbDimension
 62
7
  6
CONTINUOUS
  2
*D0
 10
40.0
 20
48.0
 11
-2.3571428571
 21
48.0
 70
160
 71
2
 72
2
 41
0.9
 42
80.0
  3
DIMSTYLE_1
100
AcDbAlignedDimension
 13
-40.0
 23
36.9999999999
 14
40.0
 24
36.9999999999
100
AcDbRotatedDimension
  0
DIMENSION
  5
23D
100
AcDbEntity
  8
0
100
AcDbDimension
 62
7
  6
CONTINUOUS
  2
*D1
 10
-53.7546897085
 20
48.0
 11
-59.4332611371
 21
48.0
 70
160
 71
2
 72
2
 41
0.9
 42
9.0
  3
DIMSTYLE_1
100
AcDbAlignedDimension
 13
-62.7546897085
 23
22.3
 14
-53.7546897085
 24
40.0
100
AcDbRotatedDimension
  0
DIMENSION
  5
23E
100
AcDbEntity
  8
0
100
AcDbDimension
 62
7
  6
CONTINUOUS
  2
*D2
 10
-70.7546897085
 20
-40.0
 11
-70.7546897085
 21
-2.3571428571
 70
160
 71
2
 72
2
 41
0.9
 42
80.0
  3
DIMSTYLE_1
100
AcDbAlignedDimension
 13
-53.7546897085
 23
40.0
 14
-53.7546897085
 24
-40.0
 50
270.0
100
AcDbRotatedDimension
  0
LINE
  5
23F
100
AcDbEntity
  8
RACCORDO
100
AcDbLine
 62
250
  6
CONTINUOUS
 10
-38.9499698215
 20
-36.2614084101
 11
-38.9443728646
 21
-36.3406944977
  0
LWPOLYLINE
  5
240
100
AcDbEntity
  8
RACCORDO
100
AcDbPolyline
 62
250
  6
CONTINUOUS
 90
3
 70
0
 10
-38.9443728646
 20
-36.3406944977
 10
-38.9388752752
 20
-36.4269714185
 10
-38.936183858
 20
-36.4728549797
  0
LINE
  5
241
100
AcDbEntity
  8
RACCORDO
100
AcDbLine
 62
250
  6
CONTINUOUS
 10
-38.9362085648
 20
36.4724112083
 11
-38.9416391236
 21
36.382402917
  0
LWPOLYLINE
  5
242
100
AcDbEntity
  8
RACCORDO
100
AcDbPolyline
 62
250
  6
CONTINUOUS
 90
5
 70
0
 10
-38.9606803856
 20
36.1191181617
 10
-38.9627163178
 20
36.0866380201
 10
-38.9641448068
 20
36.054892587
 10
-38.9649280334
 20
36.0238106116
 10
-38.9653098245
 20
35.9933460198
  0
LINE
  5
243
100
AcDbEntity
  8
RACCORDO
100
AcDbLine
 62
250
  6
CONTINUOUS
 10
-38.9416391236
 20
36.382402917
 11
-38.9471970243
 21
36.2997788022
  0
LINE
  5
244
100
AcDbEntity
  8
RACCORDO
100
AcDbLine
 62
250
  6
CONTINUOUS
 10
-38.9471970243
 20
36.2997788022
 11
-38.9606803856
 21
36.1191181617
  0
LWPOLYLINE
  5
245
100
AcDbEntity
  8
RACCORDO
100
AcDbPolyline
 62
250
  6
CONTINUOUS
 90
15
 70
0
 10
-37.0175465921
 20
-39.624188961
 10
-37.0163869971
 20
-39.6421178698
 10
-37.0152068358
 20
-39.6589531657
 10
-37.0140075896
 20
-39.6746737185
 10
-37.0127907635
 20
-39.6892597968
 10
-37.0115578847
 20
-39.7026930934
 10
-37.0103105004
 20
-39.7149567479
 10
-37.0090501762
 20
-39.7260353677
 10
-37.0077784938
 20
-39.735915048
 10
-37.0064970494
 20
-39.7445833885
 10
-37.0052074511
 20
-39.7520295093
 10
-37.0039113174
 20
-39.7582440647
 10
-37.0026102751
 20
-39.7632192546
 10
-37.0013059569
 20
-39.7669488345
 10
-37.0
 20
-39.7694281234
  0
LINE
  5
246
100
AcDbEntity
  8
RACCORDO
100
AcDbLine
 62
250
  6
CONTINUOUS
 10
-37.0197982901
 20
-39.5851416613
 11
-37.0175465921
 21
-39.624188961
  0
LINE
  5
247
100
AcDbEntity
  8
RACCORDO
100
AcDbLine
 62
250
  6
CONTINUOUS
 10
-38.936183858
 20
-36.4728549797
 11
-38.930867989
 21
-36.5707431395
  0
LWPOLYLINE
  5
248
100
AcDbEntity
  8
RACCORDO
100
AcDbPolyline
 62
250
  6
CONTINUOUS
 90
61
 70
0
 10
-38.910213791
 20
-37.0515813975
 10
-38.9078758301
 20
-37.0991482744
 10
-38.9043126723
 20
-37.1467169912
 10
-38.8995298729
 20
-37.1942479706
 10
-38.8935321242
 20
-37.2417071689
 10
-38.8863238949
 20
-37.2890597369
 10
-38.8779109643
 20
-37.3362655723
 10
-38.8682992376
 20
-37.3832904928
 10
-38.8574947379
 20
-37.4301050725
 10
-38.8455043025
 20
-37.4766763192
 10
-38.8323359462
 20
-37.5229694714
 10
-38.8179968189
 20
-37.5689571045
 10
-38.8024919937
 20
-37.6146170926
 10
-38.7858271773
 20
-37.6599259901
 10
-38.7680159943
 20
-37.7048449994
 10
-38.7490760471
 20
-37.749329038
 10
-38.7290221348
 20
-37.7933430783
 10
-38.7078648651
 20
-37.8368630916
 10
-38.685616588
 20
-37.8798609314
 10
-38.662290375
 20
-37.9223082215
 10
-38.6379004256
 20
-37.964177589
 10
-38.6124607669
 20
-38.0054423486
 10
-38.5859832423
 20
-38.0460800497
 10
-38.5584873731
 20
-38.086059448
 10
-38.5299997261
 20
-38.1253412983
 10
-38.5005442772
 20
-38.1638932453
 10
-38.4701365341
 20
-38.2016973862
 10
-38.4387907803
 20
-38.238736407
 10
-38.406528054
 20
-38.274984687
 10
-38.373367878
 20
-38.3104202474
 10
-38.3393209432
 20
-38.3450300935
 10
-38.3043997431
 20
-38.3787983497
 10
-38.268632414
 20
-38.4116960334
 10
-38.2320533029
 20
-38.4436906834
 10
-38.1946894081
 20
-38.4747585498
 10
-38.1565619792
 20
-38.5048830602
 10
-38.1176976505
 20
-38.5340435281
 10
-38.078123534
 20
-38.56221957
 10
-38.0378640591
 20
-38.5893947735
 10
-37.9969417168
 20
-38.6155542489
 10
-37.9553766826
 20
-38.6406844855
 10
-37.913200758
 20
-38.6647667854
 10
-37.870454292
 20
-38.6877792529
 10
-37.8271720615
 20
-38.7097048015
 10
-37.7833755212
 20
-38.7305350079
 10
-37.7390852524
 20
-38.7502614081
 10
-37.6943307572
 20
-38.7688712318
 10
-37.649141927
 20
-38.7863528673
 10
-37.6035393424
 20
-38.8026982282
 10
-37.5575454602
 20
-38.8178979352
 10
-37.5111977374
 20
-38.8319398294
 10
-37.4645392733
 20
-38.8448119743
 10
-37.4175988841
 20
-38.8565074866
 10
-37.3704084733
 20
-38.8670200619
 10
-37.3230163176
 20
-38.8763409753
 10
-37.2754589153
 20
-38.8844653539
 10
-37.2277615549
 20
-38.8913919336
 10
-37.1799557796
 20
-38.8971189007
 10
-37.1320725775
 20
-38.901644826
 10
-37.0841460555
 20
-38.904969198
 10
-37.0362125764
 20
-38.9070917709
  0
LINE
  5
249
100
AcDbEntity
  8
RACCORDO
100
AcDbLine
 62
250
  6
CONTINUOUS
 10
-38.930867989
 20
-36.5707431395
 11
-38.9256222645
 21
-36.6769920634
  0
LINE
  5
24A
100
AcDbEntity
  8
RACCORDO
100
AcDbLine
 62
250
  6
CONTINUOUS
 10
-37.0219506294
 20
-39.5420072418
 11
-37.0197982901
 21
-39.5851416613
  0
LINE
  5
24B
100
AcDbEntity
  8
RACCORDO
100
AcDbLine
 62
250
  6
CONTINUOUS
 10
-38.9256222645
 20
-36.6769920634
 11
-38.9204360571
 21
-36.7921647512
  0
LINE
  5
24C
100
AcDbEntity
  8
RACCORDO
100
AcDbLine
 62
250
  6
CONTINUOUS
 10
-37.0239928085
 20
-39.4950021905
 11
-37.0219506294
 21
-39.5420072418
  0
LWPOLYLINE
  5
24D
100
AcDbEntity
  8
RACCORDO
100
AcDbPolyline
 62
250
  6
CONTINUOUS
 90
3
 70
0
 10
-38.9204360571
 20
-36.7921647512
 10
-38.9127480448
 20
-36.9830525395
 10
-38.9102137942
 20
-37.0515813987
  0
LINE
  5
24E
100
AcDbEntity
  8
RACCORDO
100
AcDbLine
 62
250
  6
CONTINUOUS
 10
-37.0259145787
 20
-39.4443624218
 11
-37.0239928085
 21
-39.4950021905
  0
LINE
  5
24F
100
AcDbEntity
  8
RACCORDO
100
AcDbLine
 62
250
  6
CONTINUOUS
 10
-37.0285505472
 20
-39.3621483177
 11
-37.0259145787
 21
-39.4443624218
  0
LINE
  5
250
100
AcDbEntity
  8
RACCORDO
100
AcDbLine
 62
250
  6
CONTINUOUS
 10
-37.0308643
 20
-39.2732598523
 11
-37.0285505472
 21
-39.3621483177
  0
LINE
  5
251
100
AcDbEntity
  8
RACCORDO
100
AcDbLine
 62
250
  6
CONTINUOUS
 10
-37.0328297252
 20
-39.1787002793
 11
-37.0308643
 21
-39.2732598523
  0
LINE
  5
252
100
AcDbEntity
  8
RACCORDO
100
AcDbLine
 62
250
  6
CONTINUOUS
 10
-38.9990525628
 20
-33.6918000762
 11
-38.9768085597
 21
-35.1784889975
  0
LINE
  5
253
100
AcDbEntity
  8
RACCORDO
100
AcDbLine
 62
250
  6
CONTINUOUS
 10
-38.9768085597
 20
-35.1784889975
 11
-38.9753651371
 21
-35.2762373106
  0
LWPOLYLINE
  5
254
100
AcDbEntity
  8
RACCORDO
100
AcDbPolyline
 62
250
  6
CONTINUOUS
 90
3
 70
0
 10
-39.0031517873
 20
-33.4137651249
 10
-39.0017531106
 20
-33.5089589531
 10
-38.9990525628
 20
-33.6918000762
  0
LINE
  5
255
100
AcDbEntity
  8
RACCORDO
100
AcDbLine
 62
250
  6
CONTINUOUS
 10
-38.9753651371
 20
-35.2762373106
 11
-38.9740160419
 21
-35.3684247141
  0
LINE
  5
256
100
AcDbEntity
  8
RACCORDO
100
AcDbLine
 62
250
  6
CONTINUOUS
 10
-39.0060424924
 20
-33.2155870339
 11
-39.0031517873
 21
-33.4137651249
  0
LINE
  5
257
100
AcDbEntity
  8
RACCORDO
100
AcDbLine
 62
250
  6
CONTINUOUS
 10
-37.0344246423
 20
-39.07953686
 11
-37.0328297252
 21
-39.1787002793
  0
LINE
  5
258
100
AcDbEntity
  8
RACCORDO
100
AcDbLine
 62
250
  6
CONTINUOUS
 10
-39.0106075888
 20
-32.8974601051
 11
-39.0060424924
 21
-33.2155870339
  0
LINE
  5
259
100
AcDbEntity
  8
RACCORDO
100
AcDbLine
 62
250
  6
CONTINUOUS
 10
-39.0292496266
 20
-31.4794092899
 11
-39.0106075888
 21
-32.8974601051
  0
LWPOLYLINE
  5
25A
100
AcDbEntity
  8
RACCORDO
100
AcDbPolyline
 62
250
  6
CONTINUOUS
 90
61
 70
0
 10
-39.7686319911
 20
-37.0
 10
-39.7678109064
 20
-37.0723450107
 10
-39.7650935804
 20
-37.1446625144
 10
-39.7604804932
 20
-37.2169026422
 10
-39.7539729178
 20
-37.2890190212
 10
-39.7455743074
 20
-37.3609582799
 10
-39.7352912093
 20
-37.4326602308
 10
-39.7231308697
 20
-37.5040717243
 10
-39.7091006589
 20
-37.5751471114
 10
-39.6932100415
 20
-37.6458378813
 10
-39.6754707082
 20
-37.7160904553
 10
-39.6558933212
 20
-37.7858610824
 10
-39.634486524
 20
-37.8551161424
 10
-39.6112595855
 20
-37.923818308
 10
-39.5862301425
 20
-37.9919085272
 10
-39.5594215776
 20
-38.0593213297
 10
-39.5308551833
 20
-38.126003489
 10
-39.500547875
 20
-38.1919157229
 10
-39.4685195513
 20
-38.2570147104
 10
-39.4347919389
 20
-38.3212554935
 10
-39.3993880174
 20
-38.3845934978
 10
-39.3623310114
 20
-38.4469867255
 10
-39.3236415792
 20
-38.5083987866
 10
-39.2833500808
 20
-38.5687799156
 10
-39.2414973203
 20
-38.6280699823
 10
-39.1981213556
 20
-38.6862182401
 10
-39.1532455139
 20
-38.7431964056
 10
-39.1068904241
 20
-38.7989794379
 10
-39.0590886151
 20
-38.8535281486
 10
-39.0098723023
 20
-38.9068056841
 10
-38.9592608738
 20
-38.9587898473
 10
-38.9072770325
 20
-39.009454068
 10
-38.8539658493
 20
-39.0587512319
 10
-38.7993818923
 20
-39.1066299754
 10
-38.7435695914
 20
-39.1530521612
 10
-38.686561319
 20
-39.1979916502
 10
-38.628396121
 20
-39.2414179958
 10
-38.5691159686
 20
-39.2833003008
 10
-38.5087602251
 20
-39.3236111402
 10
-38.4473648536
 20
-39.3623264067
 10
-38.3849635278
 20
-39.399424102
 10
-38.3216074009
 20
-39.4348730475
 10
-38.257360295
 20
-39.4686381529
 10
-38.1922787338
 20
-39.5006920214
 10
-38.1263970283
 20
-39.5310200117
 10
-38.0597468502
 20
-39.5596084297
 10
-37.9923754048
 20
-39.5864374702
 10
-37.9243280552
 20
-39.6114894494
 10
-37.8556334361
 20
-39.6347531563
 10
-37.7863258766
 20
-39.6562152072
 10
-37.7164652452
 20
-39.675855286
 10
-37.6461191295
 20
-39.6936537434
 10
-37.575334781
 20
-39.7095990335
 10
-37.5041625242
 20
-39.7236802143
 10
-37.4326758306
 20
-39.7358838987
 10
-37.3609321384
 20
-39.7462030312
 10
-37.2889735462
 20
-39.7546342767
 10
-37.2168510714
 20
-39.7611737922
 10
-37.1446149774
 20
-39.7658194388
 10
-37.0723146979
 20
-39.768570676
 10
-37.0
 20
-39.7694281234
  0
LINE
  5
25B
100
AcDbEntity
  8
RACCORDO
100
AcDbLine
 62
250
  6
CONTINUOUS
 10
-38.9740160419
 20
-35.3684247141
 11
-38.9661007992
 21
-35.9033492599
  0
LINE
  5
25C
100
AcDbEntity
  8
RACCORDO
100
AcDbLine
 62
250
  6
CONTINUOUS
 10
-39.0398911133
 20
-30.5025124647
 11
-39.0292496266
 21
-31.4794092899
  0
LINE
  5
25D
100
AcDbEntity
  8
RACCORDO
100
AcDbLine
 62
250
  6
CONTINUOUS
 10
-39.0483770535
 20
-29.5523923007
 11
-39.0398911133
 21
-30.5025124647
  0
LWPOLYLINE
  5
25E
100
AcDbEntity
  8
RACCORDO
100
AcDbPolyline
 62
250
  6
CONTINUOUS
 90
3
 70
0
 10
-37.0362125807
 20
-38.9070917871
 10
-37.0359443719
 20
-38.9420978033
 10
-37.0344246423
 20
-39.07953686
  0
LWPOLYLINE
  5
25F
100
AcDbEntity
  8
RACCORDO
100
AcDbPolyline
 62
250
  6
CONTINUOUS
 90
7
 70
0
 10
-38.9661007992
 20
-35.9033492599
 10
-38.9653168812
 20
-35.9939626381
 10
-38.9649308372
 20
-36.0244122089
 10
-38.9641229915
 20
-36.0554936492
 10
-38.9626632817
 20
-36.0872472113
 10
-38.9606220292
 20
-36.119724282
 10
-38.9499698215
 20
-36.2614084101
  0
LINE
  5
260
100
AcDbEntity
  8
RACCORDO
100
AcDbLine
 62
250
  6
CONTINUOUS
 10
-39.0545312922
 20
-28.6898397052
 11
-39.0483770535
 21
-29.5523923007
  0
LINE
  5
261
100
AcDbEntity
  8
RACCORDO
100
AcDbLine
 62
250
  6
CONTINUOUS
 10
-39.0598465534
 20
-27.72467262
 11
-39.0545312922
 21
-28.6898397052
  0
LINE
  5
262
100
AcDbEntity
  8
RACCORDO
100
AcDbLine
 62
250
  6
CONTINUOUS
 10
-39.0641544085
 20
-26.6475629153
 11
-39.0598465534
 21
-27.72467262
  0
LINE
  5
263
100
AcDbEntity
  8
RACCORDO
100
AcDbLine
 62
250
  6
CONTINUOUS
 10
-39.0659968571
 20
-26.0642478314
 11
-39.0641544085
 21
-26.6475629153
  0
LINE
  5
264
100
AcDbEntity
  8
RACCORDO
100
AcDbLine
 62
250
  6
CONTINUOUS
 10
-39.0677789932
 20
-25.4493876954
 11
-39.0659968571
 21
-26.0642478314
  0
LINE
  5
265
100
AcDbEntity
  8
RACCORDO
100
AcDbLine
 62
250
  6
CONTINUOUS
 10
-39.0695349477
 20
-24.8011675738
 11
-39.0677789932
 21
-25.4493876954
  0
LINE
  5
266
100
AcDbEntity
  8
RACCORDO
100
AcDbLine
 62
250
  6
CONTINUOUS
 10
-39.0712857778
 20
-24.118256932
 11
-39.0695349477
 21
-24.8011675738
  0
LWPOLYLINE
  5
267
100
AcDbEntity
  8
RACCORDO
100
AcDbPolyline
 62
250
  6
CONTINUOUS
 90
3
 70
0
 10
-39.0757947044
 20
-22.2445592575
 10
-39.0748786564
 20
-22.6392490884
 10
-39.0712857778
 20
-24.118256932
  0
LWPOLYLINE
  5
268
100
AcDbEntity
  8
RACCORDO
100
AcDbPolyline
 62
250
  6
CONTINUOUS
 90
3
 70
0
 10
-39.0785440019
 20
-20.9950050667
 10
-39.0776303735
 20
-21.4224365378
 10
-39.0757947044
 20
-22.2445592575
  0
LWPOLYLINE
  5
269
100
AcDbEntity
  8
RACCORDO
100
AcDbPolyline
 62
250
  6
CONTINUOUS
 90
3
 70
0
 10
-39.0812630503
 20
-19.6416312647
 10
-39.0803617789
 20
-20.1046025374
 10
-39.0785440019
 20
-20.9950050667
  0
LINE
  5
26A
100
AcDbEntity
  8
RACCORDO
100
AcDbLine
 62
250
  6
CONTINUOUS
 10
-39.0830482625
 20
-18.6769749342
 11
-39.0812630503
 21
-19.6416312647
  0
LINE
  5
26B
100
AcDbEntity
  8
RACCORDO
100
AcDbLine
 62
250
  6
CONTINUOUS
 10
-39.7686319911
 20
37.0
 11
-39.7672824082
 21
36.3962697031
  0
LWPOLYLINE
  5
26C
100
AcDbEntity
  8
RACCORDO
100
AcDbPolyline
 62
250
  6
CONTINUOUS
 90
3
 70
0
 10
-39.0856533246
 20
-17.1297747327
 10
-39.0847972161
 20
-17.6595454923
 10
-39.0830482625
 20
-18.6769749342
  0
LINE
  5
26D
100
AcDbEntity
  8
RACCORDO
100
AcDbLine
 62
250
  6
CONTINUOUS
 10
-39.087318037
 20
-16.0268161113
 11
-39.0856533246
 21
-17.1297747327
  0
LWPOLYLINE
  5
26E
100
AcDbEntity
  8
RACCORDO
100
AcDbPolyline
 62
250
  6
CONTINUOUS
 90
3
 70
0
 10
-39.0896688556
 20
-14.2563895218
 10
-39.0889073612
 20
-14.862730212
 10
-39.087318037
 20
-16.0268161113
  0
LINE
  5
26F
100
AcDbEntity
  8
RACCORDO
100
AcDbLine
 62
250
  6
CONTINUOUS
 10
-39.094158479
 20
-9.519808873
 11
-39.0896688556
 21
-14.2563895218
  0
LINE
  5
270
100
AcDbEntity
  8
RACCORDO
100
AcDbLine
 62
250
  6
CONTINUOUS
 10
-39.7672824082
 20
36.3962697031
 11
-39.7656384581
 21
34.1701522352
  0
LINE
  5
271
100
AcDbEntity
  8
RACCORDO
100
AcDbLine
 62
250
  6
CONTINUOUS
 10
-39.7656384581
 20
34.1701522352
 11
-39.7634517196
 21
29.7437134777
  0
LINE
  5
272
100
AcDbEntity
  8
RACCORDO
100
AcDbLine
 62
250
  6
CONTINUOUS
 10
-39.0964298106
 20
-4.6783908074
 11
-39.094158479
 21
-9.519808873
  0
LINE
  5
273
100
AcDbEntity
  8
RACCORDO
100
AcDbLine
 62
7
  6
CONTINUOUS
 10
-40.0
 20
-36.9999999999
 11
-40.0
 21
-4.2017932267
  0
LINE
  5
274
100
AcDbEntity
  8
RACCORDO
100
AcDbLine
 62
7
  6
CONTINUOUS
 10
-40.0
 20
4.2017932267
 11
-40.0
 21
36.9999999999
  0
LINE
  5
275
100
AcDbEntity
  8
RACCORDO
100
AcDbLine
 62
7
  6
CONTINUOUS
 10
-39.8951844414
 20
3.0615117685
 11
-39.8951844414
 21
-3.0615117685
  0
LWPOLYLINE
  5
276
100
AcDbEntity
  8
RACCORDO
100
AcDbPolyline
 62
250
  6
CONTINUOUS
 90
3
 70
0
 10
-39.7634517196
 20
29.7437134777
 10
-39.7627452004
 20
26.0564381778
 10
-39.7616713918
 20
-12.9930216687
  0
LINE
  5
277
100
AcDbEntity
  8
RACCORDO
100
AcDbLine
 62
250
  6
CONTINUOUS
 10
-39.7616713918
 20
-12.9930216687
 11
-39.7625228298
 21
-24.1163237124
  0
LINE
  5
278
100
AcDbEntity
  8
RACCORDO
100
AcDbLine
 62
250
  6
CONTINUOUS
 10
-39.7625228298
 20
-24.1163237124
 11
-39.7634529683
 21
-29.7477869665
  0
LINE
  5
279
100
AcDbEntity
  8
RACCORDO
100
AcDbLine
 62
250
  6
CONTINUOUS
 10
-39.7634529683
 20
-29.7477869665
 11
-39.7646509943
 21
-32.5421874213
  0
LINE
  5
27A
100
AcDbEntity
  8
RACCORDO
100
AcDbLine
 62
250
  6
CONTINUOUS
 10
-39.7646509943
 20
-32.5421874213
 11
-39.766906222
 21
-36.074156756
  0
LINE
  5
27B
100
AcDbEntity
  8
RACCORDO
100
AcDbLine
 62
250
  6
CONTINUOUS
 10
-39.766906222
 20
-36.074156756
 11
-39.7669856838
 21
-36.1701577667
  0
LINE
  5
27C
100
AcDbEntity
  8
RACCORDO
100
AcDbLine
 62
250
  6
CONTINUOUS
 10
-39.7669856838
 20
-36.1701577667
 11
-39.7670602424
 21
-36.2392972544
  0
LINE
  5
27D
100
AcDbEntity
  8
RACCORDO
100
AcDbLine
 62
250
  6
CONTINUOUS
 10
-39.0904069896
 20
13.631676879
 11
-39.0964298106
 21
-4.6783908074
  0
LINE
  5
27E
100
AcDbEntity
  8
RACCORDO
100
AcDbLine
 62
250
  6
CONTINUOUS
 10
-39.7670602424
 20
-36.2392972544
 11
-39.767216956
 21
-36.3546572911
  0
LINE
  5
27F
100
AcDbEntity
  8
RACCORDO
100
AcDbLine
 62
250
  6
CONTINUOUS
 10
-39.0864978042
 20
16.5832821885
 11
-39.0904069896
 21
13.631676879
  0
LINE
  5
280
100
AcDbEntity
  8
RACCORDO
100
AcDbLine
 62
250
  6
CONTINUOUS
 10
-39.767216956
 20
-36.3546572911
 11
-39.7673565401
 21
-36.4406249728
  0
LINE
  5
281
100
AcDbEntity
  8
RACCORDO
100
AcDbLine
 62
250
  6
CONTINUOUS
 10
-39.0821659308
 20
19.1620995179
 11
-39.0864978042
 21
16.5832821885
  0
LINE
  5
282
100
AcDbEntity
  8
RACCORDO
100
AcDbLine
 62
250
  6
CONTINUOUS
 10
-39.7673565401
 20
-36.4406249728
 11
-39.7676286182
 21
-36.5846581352
  0
LINE
  5
283
100
AcDbEntity
  8
RACCORDO
100
AcDbLine
 62
250
  6
CONTINUOUS
 10
-39.7676286182
 20
-36.5846581352
 11
-39.7678580852
 21
-36.6914992087
  0
LINE
  5
284
100
AcDbEntity
  8
RACCORDO
100
AcDbLine
 62
250
  6
CONTINUOUS
 10
-39.0748911222
 20
22.6339403773
 11
-39.0821659308
 21
19.1620995179
  0
LINE
  5
285
100
AcDbEntity
  8
RACCORDO
100
AcDbLine
 62
250
  6
CONTINUOUS
 10
-39.7678580852
 20
-36.6914992087
 11
-39.7682855105
 21
-36.8692209294
  0
LINE
  5
286
100
AcDbEntity
  8
RACCORDO
100
AcDbLine
 62
250
  6
CONTINUOUS
 10
-39.7682855105
 20
-36.8692209294
 11
-39.7686319911
 21
-37.0
  0
LINE
  5
287
100
AcDbEntity
  8
RACCORDO
100
AcDbLine
 62
250
  6
CONTINUOUS
 10
-39.0631905014
 20
26.9226212308
 11
-39.0748911222
 21
22.6339403773
  0
LINE
  5
288
100
AcDbEntity
  8
RACCORDO
100
AcDbLine
 62
250
  6
CONTINUOUS
 10
-39.0586332454
 20
27.9713885318
 11
-39.0631905014
 21
26.9226212308
  0
LINE
  5
289
100
AcDbEntity
  8
RACCORDO
100
AcDbLine
 62
250
  6
CONTINUOUS
 10
-39.0530911309
 20
28.9102273772
 11
-39.0586332454
 21
27.9713885318
  0
LINE
  5
28A
100
AcDbEntity
  8
RACCORDO
100
AcDbLine
 62
250
  6
CONTINUOUS
 10
-39.0450983152
 20
29.9446373148
 11
-39.0530911309
 21
28.9102273772
  0
LINE
  5
28B
100
AcDbEntity
  8
RACCORDO
100
AcDbLine
 62
250
  6
CONTINUOUS
 10
-39.0346256517
 20
31.0077572502
 11
-39.0450983152
 21
29.9446373148
  0
LINE
  5
28C
100
AcDbEntity
  8
RACCORDO
100
AcDbLine
 62
250
  6
CONTINUOUS
 10
-37.0362125764
 20
38.9070917709
 11
-37.0348709282
 21
39.0456514673
  0
LINE
  5
28D
100
AcDbEntity
  8
RACCORDO
100
AcDbLine
 62
250
  6
CONTINUOUS
 10
-38.9653098245
 20
35.9933460198
 11
-38.9668238538
 21
35.8414916594
  0
LINE
  5
28E
100
AcDbEntity
  8
RACCORDO
100
AcDbLine
 62
250
  6
CONTINUOUS
 10
-39.0138482686
 20
32.666980337
 11
-39.0346256517
 21
31.0077572502
  0
LINE
  5
28F
100
AcDbEntity
  8
RACCORDO
100
AcDbLine
 62
250
  6
CONTINUOUS
 10
-38.9952908623
 20
33.9449266881
 11
-39.0138482686
 21
32.666980337
  0
LINE
  5
290
100
AcDbEntity
  8
RACCORDO
100
AcDbLine
 62
250
  6
CONTINUOUS
 10
-37.0348709282
 20
39.0456514673
 11
-37.0334038511
 21
39.1461029816
  0
LWPOLYLINE
  5
291
100
AcDbEntity
  8
RACCORDO
100
AcDbPolyline
 62
250
  6
CONTINUOUS
 90
3
 70
0
 10
-38.9668238538
 20
35.8414916594
 10
-38.968761355
 20
35.7137849344
 10
-38.9952908623
 20
33.9449266881
  0
LINE
  5
292
100
AcDbEntity
  8
RACCORDO
100
AcDbLine
 62
250
  6
CONTINUOUS
 10
-37.0334038511
 20
39.1461029816
 11
-37.0315597564
 21
39.2423185645
  0
LINE
  5
293
100
AcDbEntity
  8
RACCORDO
100
AcDbLine
 62
250
  6
CONTINUOUS
 10
-37.0315597564
 20
39.2423185645
 11
-37.0293594576
 21
39.333212264
  0
LINE
  5
294
100
AcDbEntity
  8
RACCORDO
100
AcDbLine
 62
250
  6
CONTINUOUS
 10
-37.0293594576
 20
39.333212264
 11
-37.0268277887
 21
39.4177581945
  0
LINE
  5
295
100
AcDbEntity
  8
RACCORDO
100
AcDbLine
 62
250
  6
CONTINUOUS
 10
-37.0268277887
 20
39.4177581945
 11
-37.0249698812
 21
39.4701211004
  0
LINE
  5
296
100
AcDbEntity
  8
RACCORDO
100
AcDbLine
 62
250
  6
CONTINUOUS
 10
-38.910213797
 20
37.0515813997
 11
-38.9178691047
 21
36.8531432742
  0
LINE
  5
297
100
AcDbEntity
  8
RACCORDO
100
AcDbLine
 62
250
  6
CONTINUOUS
 10
-37.0249698812
 20
39.4701211004
 11
-37.022986652
 21
39.5189741656
  0
LINE
  5
298
100
AcDbEntity
  8
RACCORDO
100
AcDbLine
 62
250
  6
CONTINUOUS
 10
-38.9178691047
 20
36.8531432742
 11
-38.9230320047
 21
36.733206649
  0
LINE
  5
299
100
AcDbEntity
  8
RACCORDO
100
AcDbLine
 62
250
  6
CONTINUOUS
 10
-37.022986652
 20
39.5189741656
 11
-37.0208880548
 21
39.5640722007
  0
LINE
  5
29A
100
AcDbEntity
  8
RACCORDO
100
AcDbLine
 62
250
  6
CONTINUOUS
 10
-38.9230320047
 20
36.733206649
 11
-38.9282557128
 21
36.6224120588
  0
LWPOLYLINE
  5
29B
100
AcDbEntity
  8
RACCORDO
100
AcDbPolyline
 62
250
  6
CONTINUOUS
 90
3
 70
0
 10
-38.9282557128
 20
36.6224120588
 10
-38.9335390971
 20
36.5203635914
 10
-38.9362085648
 20
36.4724112083
  0
LWPOLYLINE
  5
29C
100
AcDbEntity
  8
RACCORDO
100
AcDbPolyline
 62
250
  6
CONTINUOUS
 90
17
 70
0
 10
-37.0208880548
 20
39.5640722007
 10
-37.0186846221
 20
39.6051888624
 10
-37.0175470294
 20
39.6241888809
 10
-37.016387413
 20
39.6421177898
 10
-37.0152072283
 20
39.6589530861
 10
-37.0140079567
 20
39.6746736396
 10
-37.0127911035
 20
39.6892597189
 10
-37.0115581958
 20
39.7026930168
 10
-37.0103107812
 20
39.7149566728
 10
-37.0090504252
 20
39.7260352945
 10
-37.0077787099
 20
39.7359149769
 10
-37.0064972313
 20
39.7445833198
 10
-37.005207598
 20
39.7520294433
 10
-37.0039114284
 20
39.7582440017
 10
-37.0026103495
 20
39.7632191949
 10
-37.0013059944
 20
39.7669487785
 10
-37.0
 20
39.7694280713
  0
LWPOLYLINE
  5
29D
100
AcDbEntity
  8
RACCORDO
100
AcDbPolyline
 62
250
  6
CONTINUOUS
 90
19
 70
0
 10
39.5423832772
 20
-37.0312145799
 10
39.5643360241
 20
-37.0297015859
 10
39.5852974328
 20
-37.0281515239
 10
39.605241343
 20
-37.0265663284
 10
39.6241428646
 20
-37.0249479778
 10
39.6419784082
 20
-37.0232984918
 10
39.6587257148
 20
-37.021619929
 10
39.6743638836
 20
-37.0199143843
 10
39.688873398
 20
-37.0181839861
 10
39.7022361499
 20
-37.0164308941
 10
39.7144354624
 20
-37.0146572961
 10
39.7254561106
 20
-37.0128654056
 10
39.7352843407
 20
-37.0110574589
 10
39.7439078868
 20
-37.0092357123
 10
39.7513159866
 20
-37.0074024395
 10
39.7574993948
 20
-37.0055599284
 10
39.7624503944
 20
-37.0037104783
 10
39.7661628065
 20
-37.0018563976
 10
39.7686319979
 20
-37.0
  0
LINE
  5
29E
100
AcDbEntity
  8
RACCORDO
100
AcDbLine
 62
250
  6
CONTINUOUS
 10
39.4956145607
 20
-37.0341218598
 11
39.5423832772
 21
-37.0312145799
  0
LINE
  5
29F
100
AcDbEntity
  8
RACCORDO
100
AcDbLine
 62
250
  6
CONTINUOUS
 10
39.4452246823
 20
-37.0368588547
 11
39.4956145607
 21
-37.0341218598
  0
LINE
  5
2A0
100
AcDbEntity
  8
RACCORDO
100
AcDbLine
 62
250
  6
CONTINUOUS
 10
36.5601447352
 20
-38.9252397732
 11
36.6603199625
 21
-38.9204839109
  0
LINE
  5
2A1
100
AcDbEntity
  8
RACCORDO
100
AcDbLine
 62
250
  6
CONTINUOUS
 10
39.3914651121
 20
-37.0394119057
 11
39.4452246823
 21
-37.0368588547
  0
LWPOLYLINE
  5
2A2
100
AcDbEntity
  8
RACCORDO
100
AcDbPolyline
 62
250
  6
CONTINUOUS
 90
61
 70
0
 10
37.0362125764
 20
-38.9070917709
 10
37.0841460537
 20
-38.9049691981
 10
37.132072577
 20
-38.901644826
 10
37.1799557808
 20
-38.8971189006
 10
37.2277615566
 20
-38.8913919335
 10
37.2754589167
 20
-38.8844653537
 10
37.3230163186
 20
-38.8763409751
 10
37.3704084741
 20
-38.8670200617
 10
37.417598885
 20
-38.8565074864
 10
37.4645392743
 20
-38.844811974
 10
37.5111977385
 20
-38.8319398291
 10
37.5575454613
 20
-38.8178979349
 10
37.6035393434
 20
-38.8026982278
 10
37.649141928
 20
-38.7863528669
 10
37.6943307582
 20
-38.7688712314
 10
37.7390852534
 20
-38.7502614077
 10
37.7833755221
 20
-38.7305350075
 10
37.8271720624
 20
-38.709704801
 10
37.870454293
 20
-38.6877792524
 10
37.9132007589
 20
-38.6647667849
 10
37.9553766835
 20
-38.6406844849
 10
37.9969417178
 20
-38.6155542483
 10
38.03786406
 20
-38.5893947729
 10
38.0781235349
 20
-38.5622195694
 10
38.1176976514
 20
-38.5340435274
 10
38.1565619801
 20
-38.5048830595
 10
38.194689409
 20
-38.474758549
 10
38.2320533038
 20
-38.4436906826
 10
38.2686324148
 20
-38.4116960326
 10
38.3043997439
 20
-38.3787983489
 10
38.339320944
 20
-38.3450300927
 10
38.3733678789
 20
-38.3104202465
 10
38.4065280548
 20
-38.2749846861
 10
38.4387907811
 20
-38.2387364061
 10
38.4701365349
 20
-38.2016973853
 10
38.500544278
 20
-38.1638932443
 10
38.5299997268
 20
-38.1253412974
 10
38.5584873738
 20
-38.0860594471
 10
38.585983243
 20
-38.0460800487
 10
38.6124607675
 20
-38.0054423476
 10
38.6379004261
 20
-37.9641775881
 10
38.6622903756
 20
-37.9223082206
 10
38.6856165884
 20
-37.8798609305
 10
38.7078648656
 20
-37.8368630907
 10
38.7290221352
 20
-37.7933430773
 10
38.7490760475
 20
-37.749329037
 10
38.7680159947
 20
-37.7048449984
 10
38.7858271777
 20
-37.6599259891
 10
38.8024919941
 20
-37.6146170916
 10
38.8179968192
 20
-37.5689571034
 10
38.8323359465
 20
-37.5229694703
 10
38.8455043028
 20
-37.4766763182
 10
38.8574947382
 20
-37.4301050715
 10
38.8682992378
 20
-37.3832904919
 10
38.8779109645
 20
-37.3362655713
 10
38.8863238951
 20
-37.2890597354
 10
38.8935321244
 20
-37.2417071671
 10
38.8995298731
 20
-37.1942479692
 10
38.9043126723
 20
-37.1467169912
 10
38.90787583
 20
-37.0991482757
 10
38.910213791
 20
-37.0515813975
  0
LINE
  5
2A3
100
AcDbEntity
  8
RACCORDO
100
AcDbLine
 62
250
  6
CONTINUOUS
 10
39.3346041371
 20
-37.0417682717
 11
39.3914651121
 21
-37.0394119057
  0
LINE
  5
2A4
100
AcDbEntity
  8
RACCORDO
100
AcDbLine
 62
250
  6
CONTINUOUS
 10
36.6603199625
 20
-38.9204839109
 11
36.8416882981
 21
-38.9136529785
  0
LINE
  5
2A5
100
AcDbEntity
  8
RACCORDO
100
AcDbLine
 62
250
  6
CONTINUOUS
 10
39.2749255214
 20
-37.0439161935
 11
39.3346041371
 21
-37.0417682717
  0
LINE
  5
2A6
100
AcDbEntity
  8
RACCORDO
100
AcDbLine
 62
250
  6
CONTINUOUS
 10
36.8416882981
 20
-38.9136529785
 11
37.036212576
 21
-38.9070917696
  0
LINE
  5
2A7
100
AcDbEntity
  8
RACCORDO
100
AcDbLine
 62
250
  6
CONTINUOUS
 10
39.2127270907
 20
-37.0458449517
 11
39.2749255214
 21
-37.0439161935
  0
LINE
  5
2A8
100
AcDbEntity
  8
RACCORDO
100
AcDbLine
 62
250
  6
CONTINUOUS
 10
39.148319246
 20
-37.047544921
 11
39.2127270907
 21
-37.0458449517
  0
LINE
  5
2A9
100
AcDbEntity
  8
RACCORDO
100
AcDbLine
 62
250
  6
CONTINUOUS
 10
39.04827057
 20
-37.0496476601
 11
39.148319246
 21
-37.047544921
  0
LINE
  5
2AA
100
AcDbEntity
  8
RACCORDO
100
AcDbLine
 62
250
  6
CONTINUOUS
 10
31.1443881067
 20
-39.0062477296
 11
31.9660201515
 21
-38.9920341567
  0
LINE
  5
2AB
100
AcDbEntity
  8
RACCORDO
100
AcDbLine
 62
250
  6
CONTINUOUS
 10
31.9660201515
 20
-38.9920341567
 11
32.1554970388
 21
-38.9889177751
  0
LINE
  5
2AC
100
AcDbEntity
  8
RACCORDO
100
AcDbLine
 62
250
  6
CONTINUOUS
 10
34.1254222089
 20
-38.9612736852
 11
34.4759499866
 21
-38.9562442136
  0
LWPOLYLINE
  5
2AD
100
AcDbEntity
  8
RACCORDO
100
AcDbPolyline
 62
250
  6
CONTINUOUS
 90
3
 70
0
 10
30.2107799993
 20
-39.0204490568
 10
30.4553064875
 20
-39.0170383923
 10
31.1443881067
 20
-39.0062477296
  0
LINE
  5
2AE
100
AcDbEntity
  8
RACCORDO
100
AcDbLine
 62
250
  6
CONTINUOUS
 10
34.4759499866
 20
-38.9562442136
 11
34.6926092826
 21
-38.9531915047
  0
LINE
  5
2AF
100
AcDbEntity
  8
RACCORDO
100
AcDbLine
 62
250
  6
CONTINUOUS
 10
34.6926092826
 20
-38.9531915047
 11
34.9945316751
 21
-38.9490165161
  0
LINE
  5
2B0
100
AcDbEntity
  8
RACCORDO
100
AcDbLine
 62
250
  6
CONTINUOUS
 10
34.9945316751
 20
-38.9490165161
 11
35.1815298501
 21
-38.9464789074
  0
LINE
  5
2B1
100
AcDbEntity
  8
RACCORDO
100
AcDbLine
 62
250
  6
CONTINUOUS
 10
35.1815298501
 20
-38.9464789074
 11
35.3582605579
 21
-38.9441093409
  0
LINE
  5
2B2
100
AcDbEntity
  8
RACCORDO
100
AcDbLine
 62
250
  6
CONTINUOUS
 10
35.3582605579
 20
-38.9441093409
 11
35.5252766726
 21
-38.9418968612
  0
LINE
  5
2B3
100
AcDbEntity
  8
RACCORDO
100
AcDbLine
 62
250
  6
CONTINUOUS
 10
35.5252766726
 20
-38.9418968612
 11
35.6833504933
 21
-38.9398300649
  0
LWPOLYLINE
  5
2B4
100
AcDbEntity
  8
RACCORDO
100
AcDbPolyline
 62
250
  6
CONTINUOUS
 90
3
 70
0
 10
35.6833504933
 20
-38.9398300649
 10
35.9036251539
 20
-38.9370182114
 10
36.1045102834
 20
-38.934426856
  0
LINE
  5
2B5
100
AcDbEntity
  8
RACCORDO
100
AcDbLine
 62
250
  6
CONTINUOUS
 10
32.1554970388
 20
-38.9889177751
 11
34.1254222089
 21
-38.9612736852
  0
LWPOLYLINE
  5
2B6
100
AcDbEntity
  8
RACCORDO
100
AcDbPolyline
 62
250
  6
CONTINUOUS
 90
61
 70
0
 10
37.0
 20
-39.7694281234
 10
37.0723146979
 20
-39.768570676
 10
37.1446149774
 20
-39.7658194388
 10
37.2168510714
 20
-39.7611737922
 10
37.2889735462
 20
-39.7546342767
 10
37.3609321384
 20
-39.7462030312
 10
37.4326758306
 20
-39.7358838987
 10
37.5041625242
 20
-39.7236802143
 10
37.5753347811
 20
-39.7095990335
 10
37.6461191296
 20
-39.6936537434
 10
37.7164652452
 20
-39.675855286
 10
37.7863258766
 20
-39.6562152072
 10
37.8556334362
 20
-39.6347531563
 10
37.9243280553
 20
-39.6114894493
 10
37.9923754049
 20
-39.5864374701
 10
38.0597468503
 20
-39.5596084297
 10
38.1263970284
 20
-39.5310200117
 10
38.1922787338
 20
-39.5006920214
 10
38.257360295
 20
-39.4686381529
 10
38.321607401
 20
-39.4348730475
 10
38.3849635279
 20
-39.3994241019
 10
38.4473648537
 20
-39.3623264066
 10
38.5087602252
 20
-39.3236111402
 10
38.5691159687
 20
-39.2833003007
 10
38.6283961211
 20
-39.2414179957
 10
38.6865613191
 20
-39.1979916502
 10
38.7435695915
 20
-39.1530521611
 10
38.7993818924
 20
-39.1066299754
 10
38.8539658494
 20
-39.0587512318
 10
38.9072770326
 20
-39.0094540679
 10
38.9592608739
 20
-38.9587898472
 10
39.0098723024
 20
-38.906805684
 10
39.0590886152
 20
-38.8535281485
 10
39.1068904243
 20
-38.7989794378
 10
39.153245514
 20
-38.7431964055
 10
39.1981213558
 20
-38.6862182399
 10
39.2414973204
 20
-38.6280699822
 10
39.2833500808
 20
-38.5687799154
 10
39.3236415793
 20
-38.5083987865
 10
39.3623310115
 20
-38.4469867255
 10
39.3993880174
 20
-38.3845934978
 10
39.4347919388
 20
-38.3212554936
 10
39.4685195512
 20
-38.2570147105
 10
39.5005478749
 20
-38.191915723
 10
39.5308551833
 20
-38.1260034891
 10
39.5594215776
 20
-38.0593213298
 10
39.5862301425
 20
-37.9919085273
 10
39.6112595854
 20
-37.9238183081
 10
39.634486524
 20
-37.8551161425
 10
39.6558933212
 20
-37.7858610824
 10
39.6754707082
 20
-37.7160904554
 10
39.6932100415
 20
-37.6458378813
 10
39.7091006589
 20
-37.5751471115
 10
39.7231308697
 20
-37.5040717243
 10
39.7352912093
 20
-37.4326602309
 10
39.7455743074
 20
-37.3609582799
 10
39.7539729178
 20
-37.2890190212
 10
39.7604804932
 20
-37.2169026422
 10
39.7650935804
 20
-37.1446625144
 10
39.7678109064
 20
-37.0723450107
 10
39.7686319911
 20
-37.0
  0
LWPOLYLINE
  5
2B7
100
AcDbEntity
  8
RACCORDO
100
AcDbPolyline
 62
250
  6
CONTINUOUS
 90
3
 70
0
 10
38.9102137943
 20
-37.0515813987
 10
38.9450989549
 20
-37.0511932148
 10
39.04827057
 20
-37.0496476601
  0
LINE
  5
2B8
100
AcDbEntity
  8
RACCORDO
100
AcDbLine
 62
250
  6
CONTINUOUS
 10
26.2808598006
 20
-39.0662759664
 11
30.2107799993
 21
-39.0204490568
  0
LINE
  5
2B9
100
AcDbEntity
  8
RACCORDO
100
AcDbLine
 62
250
  6
CONTINUOUS
 10
25.5288201556
 20
-39.0741169257
 11
26.2808598006
 21
-39.0662759664
  0
LWPOLYLINE
  5
2BA
100
AcDbEntity
  8
RACCORDO
100
AcDbPolyline
 62
250
  6
CONTINUOUS
 90
7
 70
0
 10
36.1045102834
 20
-38.934426856
 10
36.2870011024
 20
-38.9324078449
 10
36.3442972555
 20
-38.9315838759
 10
36.4001596477
 20
-38.9304501198
 10
36.4546481166
 20
-38.9290806595
 10
36.5079698834
 20
-38.9274056519
 10
36.5601447352
 20
-38.9252397732
  0
LINE
  5
2BB
100
AcDbEntity
  8
RACCORDO
100
AcDbLine
 62
250
  6
CONTINUOUS
 10
24.728954035
 20
-39.0815595602
 11
25.5288201556
 21
-39.0741169257
  0
LWPOLYLINE
  5
2BC
100
AcDbEntity
  8
RACCORDO
100
AcDbPolyline
 62
250
  6
CONTINUOUS
 90
4
 70
0
 10
22.971583
 20
-39.094337436
 10
23.4317926999
 20
-39.0914787028
 10
23.8774120547
 20
-39.0883543122
 10
24.728954035
 20
-39.0815595602
  0
LINE
  5
2BD
100
AcDbEntity
  8
RACCORDO
100
AcDbLine
 62
250
  6
CONTINUOUS
 10
-15.3913031112
 20
-39.10199345
 11
-13.9995797682
 21
-39.0993703087
  0
LINE
  5
2BE
100
AcDbEntity
  8
RACCORDO
100
AcDbLine
 62
250
  6
CONTINUOUS
 10
-17.3386792271
 20
-39.1051221326
 11
-15.3913031112
 21
-39.10199345
  0
LWPOLYLINE
  5
2BF
100
AcDbEntity
  8
RACCORDO
100
AcDbPolyline
 62
250
  6
CONTINUOUS
 90
3
 70
0
 10
-13.9995797682
 20
-39.0993703087
 10
-12.5210598278
 20
-39.0975951602
 10
-11.7500131317
 20
-39.0969288544
  0
LWPOLYLINE
  5
2C0
100
AcDbEntity
  8
RACCORDO
100
AcDbPolyline
 62
250
  6
CONTINUOUS
 90
7
 70
0
 10
19.3182738045
 20
-39.105729588
 10
19.8895022023
 20
-39.1051694984
 10
20.4437153811
 20
-39.1042187766
 10
20.9808528689
 20
-39.1029020129
 10
21.5020951092
 20
-39.1012532958
 10
22.0073894707
 20
-39.0992583535
 10
22.971583
 20
-39.094337436
  0
LINE
  5
2C1
100
AcDbEntity
  8
RACCORDO
100
AcDbLine
 62
250
  6
CONTINUOUS
 10
-37.0
 20
-39.7694281234
 11
-36.4540366767
 21
-39.7687006186
  0
LINE
  5
2C2
100
AcDbEntity
  8
RACCORDO
100
AcDbLine
 62
250
  6
CONTINUOUS
 10
-36.4540366767
 20
-39.7687006186
 11
-30.7625467719
 21
-39.7648708386
  0
LINE
  5
2C3
100
AcDbEntity
  8
RACCORDO
100
AcDbLine
 62
250
  6
CONTINUOUS
 10
-30.7625467719
 20
-39.7648708386
 11
-26.3135194112
 21
-39.762524774
  0
LINE
  5
2C4
100
AcDbEntity
  8
RACCORDO
100
AcDbLine
 62
250
  6
CONTINUOUS
 10
-26.3135194112
 20
-39.762524774
 11
-21.7666391832
 21
-39.7611477077
  0
LINE
  5
2C5
100
AcDbEntity
  8
0
100
AcDbLine
 62
7
  6
CONTINUOUS
 10
36.9999999999
 20
-40.0
 11
-36.9999999999
 21
-40.0
  0
LINE
  5
2C6
100
AcDbEntity
  8
RACCORDO
100
AcDbLine
 62
250
  6
CONTINUOUS
 10
11.7500262635
 20
-39.7614222832
 11
19.8889676001
 21
-39.7609926321
  0
LINE
  5
2C7
100
AcDbEntity
  8
RACCORDO
100
AcDbLine
 62
250
  6
CONTINUOUS
 10
-11.7500131317
 20
-39.096928824
 11
11.7500131317
 21
-39.096928824
  0
LINE
  5
2C8
100
AcDbEntity
  8
RACCORDO
100
AcDbLine
 62
250
  6
CONTINUOUS
 10
-17.339805469
 20
-39.7610523835
 11
11.7500262635
 21
-39.7614222832
  0
LINE
  5
2C9
100
AcDbEntity
  8
RACCORDO
100
AcDbLine
 62
250
  6
CONTINUOUS
 10
-21.7666391832
 20
-39.7611477077
 11
-17.339805469
 21
-39.7610523835
  0
LINE
  5
2CA
100
AcDbEntity
  8
RACCORDO
100
AcDbLine
 62
250
  6
CONTINUOUS
 10
18.1232822303
 20
-39.1057914955
 11
19.3182738045
 21
-39.105729588
  0
LINE
  5
2CB
100
AcDbEntity
  8
RACCORDO
100
AcDbLine
 62
250
  6
CONTINUOUS
 10
19.8889676001
 20
-39.7609926321
 11
23.4272308199
 21
-39.7614758817
  0
LINE
  5
2CC
100
AcDbEntity
  8
RACCORDO
100
AcDbLine
 62
250
  6
CONTINUOUS
 10
23.4272308199
 20
-39.7614758817
 11
26.6314631901
 21
-39.7626752931
  0
LWPOLYLINE
  5
2CD
100
AcDbEntity
  8
RACCORDO
100
AcDbPolyline
 62
250
  6
CONTINUOUS
 90
4
 70
0
 10
26.6314631901
 20
-39.7626752931
 10
30.6813980154
 20
-39.7648234411
 10
30.9103724824
 20
-39.7649620114
 10
31.1320899794
 20
-39.7651066366
  0
LINE
  5
2CE
100
AcDbEntity
  8
RACCORDO
100
AcDbLine
 62
250
  6
CONTINUOUS
 10
31.1320899794
 20
-39.7651066366
 11
36.4937792162
 21
-39.7687282703
  0
LINE
  5
2CF
100
AcDbEntity
  8
RACCORDO
100
AcDbLine
 62
250
  6
CONTINUOUS
 10
36.4937792162
 20
-39.7687282703
 11
36.592012779
 21
-39.7688169186
  0
LINE
  5
2D0
100
AcDbEntity
  8
RACCORDO
100
AcDbLine
 62
250
  6
CONTINUOUS
 10
11.7499868572
 20
-39.0969288249
 11
13.3229582242
 21
-39.0985004239
  0
LINE
  5
2D1
100
AcDbEntity
  8
RACCORDO
100
AcDbLine
 62
250
  6
CONTINUOUS
 10
36.592012779
 20
-39.7688169186
 11
36.7285935667
 21
-39.7689798466
  0
LINE
  5
2D2
100
AcDbEntity
  8
RACCORDO
100
AcDbLine
 62
250
  6
CONTINUOUS
 10
16.8552266208
 20
-39.1044647775
 11
18.1232822303
 21
-39.1057914955
  0
LINE
  5
2D3
100
AcDbEntity
  8
RACCORDO
100
AcDbLine
 62
250
  6
CONTINUOUS
 10
36.7285935667
 20
-39.7689798466
 11
36.812752723
 21
-39.7691018725
  0
LINE
  5
2D4
100
AcDbEntity
  8
RACCORDO
100
AcDbLine
 62
250
  6
CONTINUOUS
 10
36.812752723
 20
-39.7691018725
 11
36.8914775598
 21
-39.7692303111
  0
LWPOLYLINE
  5
2D5
100
AcDbEntity
  8
RACCORDO
100
AcDbPolyline
 62
250
  6
CONTINUOUS
 90
4
 70
0
 10
13.3229582242
 20
-39.0985004239
 10
14.8026076234
 20
-39.1007777117
 10
15.5072980996
 20
-39.1022106236
 10
16.8552266208
 20
-39.1044647775
  0
LWPOLYLINE
  5
2D6
100
AcDbEntity
  8
RACCORDO
100
AcDbPolyline
 62
250
  6
CONTINUOUS
 90
3
 70
0
 10
36.8914775598
 20
-39.7692303111
 10
36.9651129538
 20
-39.7693613513
 10
37.0
 20
-39.7694281234
  0
LWPOLYLINE
  5
2D7
100
AcDbEntity
  8
RACCORDO
100
AcDbPolyline
 62
250
  6
CONTINUOUS
 90
8
 70
0
 10
-21.7691192999
 20
-39.1002485494
 10
-21.2725094862
 20
-39.102034817
 10
-20.76023393
 20
-39.1034892559
 10
-20.2323459255
 20
-39.104625602
 10
-19.6877024832
 20
-39.1054165131
 10
-19.1262135446
 20
-39.1058380433
 10
-18.5479803035
 20
-39.1059139799
 10
-17.3386792271
 20
-39.1051221326
  0
LWPOLYLINE
  5
2D8
100
AcDbEntity
  8
RACCORDO
100
AcDbPolyline
 62
250
  6
CONTINUOUS
 90
3
 70
0
 10
-23.1690712774
 20
-39.0931568807
 10
-22.7167611612
 20
-39.095780082
 10
-21.7691192999
 20
-39.1002485494
  0
LINE
  5
2D9
100
AcDbEntity
  8
RACCORDO
100
AcDbLine
 62
250
  6
CONTINUOUS
 10
-24.0319783848
 20
-39.0872132208
 11
-23.1690712774
 21
-39.0931568807
  0
LINE
  5
2DA
100
AcDbEntity
  8
RACCORDO
100
AcDbLine
 62
250
  6
CONTINUOUS
 10
-24.8427894402
 20
-39.0805457595
 11
-24.0319783848
 21
-39.0872132208
  0
LINE
  5
2DB
100
AcDbEntity
  8
RACCORDO
100
AcDbLine
 62
250
  6
CONTINUOUS
 10
-25.6052702044
 20
-39.0733634923
 11
-24.8427894402
 21
-39.0805457595
  0
LINE
  5
2DC
100
AcDbEntity
  8
RACCORDO
100
AcDbLine
 62
250
  6
CONTINUOUS
 10
-26.6641914383
 20
-39.0620680391
 11
-25.6052702044
 21
-39.0733634923
  0
LINE
  5
2DD
100
AcDbEntity
  8
RACCORDO
100
AcDbLine
 62
250
  6
CONTINUOUS
 10
-27.9350906588
 20
-39.0473246265
 11
-26.6641914383
 21
-39.0620680391
  0
LINE
  5
2DE
100
AcDbEntity
  8
RACCORDO
100
AcDbLine
 62
250
  6
CONTINUOUS
 10
-36.2994049851
 20
-38.9322677739
 11
-36.116052032
 21
-38.9342844638
  0
LWPOLYLINE
  5
2DF
100
AcDbEntity
  8
RACCORDO
100
AcDbPolyline
 62
250
  6
CONTINUOUS
 90
3
 70
0
 10
-30.5511272131
 20
-39.0156900004
 10
-30.3215516222
 20
-39.018782598
 10
-27.9350906588
 20
-39.0473246265
  0
LINE
  5
2E0
100
AcDbEntity
  8
RACCORDO
100
AcDbLine
 62
250
  6
CONTINUOUS
 10
-36.116052032
 20
-38.9342844638
 11
-35.2783904649
 21
-38.9451772711
  0
LINE
  5
2E1
100
AcDbEntity
  8
RACCORDO
100
AcDbLine
 62
250
  6
CONTINUOUS
 10
-35.2783904649
 20
-38.9451772711
 11
-34.3842628263
 21
-38.9575492481
  0
LWPOLYLINE
  5
2E2
100
AcDbEntity
  8
RACCORDO
100
AcDbPolyline
 62
250
  6
CONTINUOUS
 90
4
 70
0
 10
-34.3842628263
 20
-38.9575492481
 10
-33.5295420779
 20
-38.9700162724
 10
-33.3939618914
 20
-38.9720336137
 10
-32.3248975787
 20
-38.9866420266
  0
LINE
  5
2E3
100
AcDbEntity
  8
RACCORDO
100
AcDbLine
 62
250
  6
CONTINUOUS
 10
-38.910213791
 20
-37.0515813975
 11
-39.0141704315
 21
-37.0502257388
  0
LINE
  5
2E4
100
AcDbEntity
  8
RACCORDO
100
AcDbLine
 62
250
  6
CONTINUOUS
 10
-32.3248975787
 20
-38.9866420266
 11
-31.7878741609
 21
-38.9952665702
  0
LINE
  5
2E5
100
AcDbEntity
  8
RACCORDO
100
AcDbLine
 62
250
  6
CONTINUOUS
 10
-31.1983420261
 20
-39.0053043864
 11
-30.5511272131
 21
-39.0156900004
  0
LINE
  5
2E6
100
AcDbEntity
  8
RACCORDO
100
AcDbLine
 62
250
  6
CONTINUOUS
 10
-31.7878741609
 20
-38.9952665702
 11
-31.1983420261
 21
-39.0053043864
  0
LINE
  5
2E7
100
AcDbEntity
  8
RACCORDO
100
AcDbLine
 62
250
  6
CONTINUOUS
 10
-39.0141704315
 20
-37.0502257388
 11
-39.1153868305
 21
-37.0483064082
  0
LINE
  5
2E8
100
AcDbEntity
  8
RACCORDO
100
AcDbLine
 62
250
  6
CONTINUOUS
 10
-39.1153868305
 20
-37.0483064082
 11
-39.1807794679
 21
-37.046724087
  0
LINE
  5
2E9
100
AcDbEntity
  8
RACCORDO
100
AcDbLine
 62
250
  6
CONTINUOUS
 10
-39.1807794679
 20
-37.046724087
 11
-39.2441221254
 21
-37.0449085897
  0
LINE
  5
2EA
100
AcDbEntity
  8
RACCORDO
100
AcDbLine
 62
250
  6
CONTINUOUS
 10
-39.2441221254
 20
-37.0449085897
 11
-39.305098692
 21
-37.0428689764
  0
LINE
  5
2EB
100
AcDbEntity
  8
RACCORDO
100
AcDbLine
 62
250
  6
CONTINUOUS
 10
-37.0362125807
 20
-38.9070917871
 11
-36.8475069386
 21
-38.9134477426
  0
LINE
  5
2EC
100
AcDbEntity
  8
RACCORDO
100
AcDbLine
 62
250
  6
CONTINUOUS
 10
-36.8475069386
 20
-38.9134477426
 11
-36.6702919818
 21
-38.9200818932
  0
LINE
  5
2ED
100
AcDbEntity
  8
RACCORDO
100
AcDbLine
 62
250
  6
CONTINUOUS
 10
-39.305098692
 20
-37.0428689764
 11
-39.3634048646
 21
-37.0406154259
  0
LINE
  5
2EE
100
AcDbEntity
  8
RACCORDO
100
AcDbLine
 62
250
  6
CONTINUOUS
 10
-39.3634048646
 20
-37.0406154259
 11
-39.4187496667
 21
-37.0381591844
  0
LWPOLYLINE
  5
2EF
100
AcDbEntity
  8
RACCORDO
100
AcDbPolyline
 62
250
  6
CONTINUOUS
 90
7
 70
0
 10
-36.6702919818
 20
-38.9200818932
 10
-36.5718407015
 20
-38.9246911839
 10
-36.520181963
 20
-38.9268441441
 10
-36.4670654224
 20
-38.928620485
 10
-36.412610188
 20
-38.9301516645
 10
-36.3567482323
 20
-38.9314073497
 10
-36.2994049851
 20
-38.9322677739
  0
LINE
  5
2F0
100
AcDbEntity
  8
RACCORDO
100
AcDbLine
 62
250
  6
CONTINUOUS
 10
-39.4187496667
 20
-37.0381591844
 11
-39.4708569005
 21
-37.0355125099
  0
LWPOLYLINE
  5
2F1
100
AcDbEntity
  8
RACCORDO
100
AcDbPolyline
 62
250
  6
CONTINUOUS
 90
21
 70
0
 10
-39.4708569005
 20
-37.0355125099
 10
-39.5194665252
 20
-37.0326886104
 10
-39.5423832104
 20
-37.0312145727
 10
-39.5643359548
 20
-37.0297015788
 10
-39.585297361
 20
-37.028151517
 10
-39.6052412689
 20
-37.0265663217
 10
-39.6241427883
 20
-37.0249479714
 10
-39.6419783298
 20
-37.0232984857
 10
-39.6587256345
 20
-37.0216199232
 10
-39.6743638014
 20
-37.0199143787
 10
-39.6888733141
 20
-37.0181839809
 10
-39.7022360644
 20
-37.0164308893
 10
-39.7144353754
 20
-37.0146572918
 10
-39.7254560223
 20
-37.0128654017
 10
-39.7352842512
 20
-37.0110574555
 10
-39.7439077962
 20
-37.0092357095
 10
-39.7513158952
 20
-37.0074024372
 10
-39.7574993027
 20
-37.0055599266
 10
-39.7624503017
 20
-37.0037104771
 10
-39.7661627133
 20
-37.001856397
 10
-39.7686319045
 20
-37.0
  0
LINE
  5
2F2
100
AcDbEntity
  8
RACCORDO
100
AcDbLine
 62
250
  6
CONTINUOUS
 10
-37.0
 20
40.0
 11
-37.0
 21
39.7694281234
  0
LINE
  5
2F3
100
AcDbEntity
  8
RACCORDO
100
AcDbLine
 62
250
  6
CONTINUOUS
 10
-37.0
 20
-39.7694281234
 11
-37.0
 21
-40.0
  0
LINE
  5
2F4
100
AcDbEntity
  8
RACCORDO
100
AcDbLine
 62
7
  6
CONTINUOUS
 10
-39.9179680371
 20
-3.5572341992
 11
-39.9772164043
 21
-3.706070796
  0
LINE
  5
2F5
100
AcDbEntity
  8
RACCORDO
100
AcDbLine
 62
250
  6
CONTINUOUS
 10
-40.0
 20
-37.0
 11
-39.7686319911
 21
-37.0
  0
LINE
  5
2F6
100
AcDbEntity
  8
RACCORDO
100
AcDbLine
 62
250
  6
CONTINUOUS
 10
39.7686319911
 20
-37.0
 11
40.0
 21
-37.0
  0
LINE
  5
2F7
100
AcDbEntity
  8
RACCORDO
100
AcDbLine
 62
7
  6
CONTINUOUS
 10
-39.9772164043
 20
3.706070796
 11
-39.9179680371
 21
3.5572341992
  0
LWPOLYLINE
  5
2F8
100
AcDbEntity
  8
RACCORDO
100
AcDbPolyline
 62
250
  6
CONTINUOUS
 90
53
 70
0
 10
-25.4836826535
 20
23.6774363505
 10
-25.4618986936
 20
23.7327210433
 10
-25.4379924902
 20
23.7893737074
 10
-25.4122842396
 20
23.847131234
 10
-25.3841586685
 20
23.9069655762
 10
-25.3531740085
 20
23.9693877478
 10
-25.31950034
 20
24.0336150798
 10
-25.2834261833
 20
24.098672277
 10
-25.2447393287
 20
24.1646534431
 10
-25.20346664
 20
24.231286254
 10
-25.160408762
 20
24.2971091164
 10
-25.1158551723
 20
24.3616615569
 10
-25.0695658598
 20
24.4253053167
 10
-25.0216513005
 20
24.4878704003
 10
-24.9722117683
 20
24.5492137337
 10
-24.9212033781
 20
24.6093952636
 10
-24.868517695
 20
24.6685468461
 10
-24.8140479732
 20
24.7267388821
 10
-24.7579175999
 20
24.7838029167
 10
-24.7003646876
 20
24.8395181049
 10
-24.6409697367
 20
24.8942501395
 10
-24.580274471
 20
24.9474802121
 10
-24.5200656657
 20
24.9977938619
 10
-24.4616973849
 20
25.0443328712
 10
-24.4038786686
 20
25.0883498505
 10
-24.3444073322
 20
25.1315816279
 10
-24.2826071537
 20
25.1743776823
 10
-24.2188508624
 20
25.2164160825
 10
-24.15230124
 20
25.2582784504
 10
-24.082781665
 20
25.2999734507
 10
-24.0108880634
 20
25.3408958701
 10
-23.9369416969
 20
25.3806310721
 10
-23.8610912939
 20
25.4189575669
 10
-23.7837850821
 20
25.4555907823
 10
-23.705802893
 20
25.4901133331
 10
-23.6268924548
 20
25.5226280425
 10
-23.5468404229
 20
25.5532583391
 10
-23.4665075393
 20
25.5817566254
 10
-23.3861278638
 20
25.6080896981
 10
-23.305562767
 20
25.6323361615
 10
-23.2251438707
 20
25.6544923717
 10
-23.144414627
 20
25.6746347387
 10
-23.0637834025
 20
25.6927650653
 10
-22.9848556989
 20
25.7089116428
 10
-22.9086503048
 20
25.7231533585
 10
-22.8340100349
 20
25.7357711126
 10
-22.759326979
 20
25.7470851526
 10
-22.6854210557
 20
25.7571184467
 10
-22.6118172735
 20
25.765858663
 10
-22.534865441
 20
25.7732355756
 10
-22.4535067886
 20
25.7789618974
 10
-22.369124469
 20
25.7828206671
 10
-22.2816459933
 20
25.7845941075
  0
LWPOLYLINE
  5
2F9
100
AcDbEntity
  8
RACCORDO
100
AcDbPolyline
 62
7
  6
CONTINUOUS
 90
7
 70
0
 10
-22.3280928147
 20
22.4732784482
 10
-22.3584684785
 20
22.4572207016
 10
-22.3865671812
 20
22.4378879611
 10
-22.412010409
 20
22.4156075809
 10
-22.4345857823
 20
22.3907059797
 10
-22.45357191
 20
22.3643533913
 10
-22.4688965846
 20
22.3373247484
  0
LWPOLYLINE
  5
2FA
100
AcDbEntity
  8
RACCORDO
100
AcDbPolyline
 62
7
  6
CONTINUOUS
 90
6
 70
0
 10
-22.3421445685
 20
-22.4664283844
 10
-22.3140979
 20
-22.4792432368
 10
-22.2858472463
 20
-22.4888165737
 10
-22.2579430557
 20
-22.4953176306
 10
-22.230528185
 20
-22.499021194
 10
-22.2038653186
 20
-22.5001718207
  0
LWPOLYLINE
  5
2FB
100
AcDbEntity
  8
RACCORDO
100
AcDbPolyline
 62
7
  6
CONTINUOUS
 90
6
 70
0
 10
-22.4580115783
 20
-22.3571536811
 10
-22.4392936043
 20
-22.3847454817
 10
-22.418058646
 20
-22.4094974993
 10
-22.3944952705
 20
-22.4314867607
 10
-22.3691011829
 20
-22.4504744975
 10
-22.3421445685
 20
-22.4664283844
  0
LINE
  5
2FC
100
AcDbEntity
  8
RACCORDO
100
AcDbLine
 62
250
  6
CONTINUOUS
 10
-25.4788502392
 20
-23.6897296755
 11
-25.5436701398
 21
-23.5163012471
  0
LWPOLYLINE
  5
2FD
100
AcDbEntity
  8
RACCORDO
100
AcDbPolyline
 62
250
  6
CONTINUOUS
 90
18
 70
0
 10
-25.5436701398
 20
-23.5163012471
 10
-25.565697338
 20
-23.4563053573
 10
-25.5879923504
 20
-23.3935064532
 10
-25.6105306062
 20
-23.3278486727
 10
-25.6328260492
 20
-23.2598701206
 10
-25.6542287923
 20
-23.188880701
 10
-25.6745269866
 20
-23.1139294022
 10
-25.693506006
 20
-23.0361114738
 10
-25.7106374175
 20
-22.9578294235
 10
-25.7258924408
 20
-22.8795050181
 10
-25.7393123197
 20
-22.8007052054
 10
-25.7507149517
 20
-22.7226156122
 10
-25.76011022
 20
-22.6455982267
 10
-25.76762314
 20
-22.5694390434
 10
-25.7733425759
 20
-22.4944571352
 10
-25.7773625075
 20
-22.420776737
 10
-25.7797610983
 20
-22.3483397089
 10
-25.7806206776
 20
-22.2771931087
  0
LWPOLYLINE
  5
2FE
100
AcDbEntity
  8
RACCORDO
100
AcDbPolyline
 62
250
  6
CONTINUOUS
 90
19
 70
0
 10
-25.7806206809
 20
22.277193109
 10
-25.7797400743
 20
22.3492956475
 10
-25.7772765526
 20
22.4227463184
 10
-25.7731427598
 20
22.4974969601
 10
-25.7672435565
 20
22.5737405803
 10
-25.7594859433
 20
22.6512129685
 10
-25.7498309587
 20
22.7291842071
 10
-25.7381682385
 20
22.8079036183
 10
-25.72451718
 20
22.8869812842
 10
-25.7091954045
 20
22.9647378802
 10
-25.692356679
 20
23.0410357187
 10
-25.673983863
 20
23.1160340605
 10
-25.654325137
 20
23.1885550027
 10
-25.6334076036
 20
23.2580768518
 10
-25.6115191794
 20
23.3250412553
 10
-25.589362595
 20
23.3897322776
 10
-25.5673969715
 20
23.451582063
 10
-25.5457040988
 20
23.5105758174
 10
-25.4836826535
 20
23.6774363505
  0
LWPOLYLINE
  5
2FF
100
AcDbEntity
  8
RACCORDO
100
AcDbPolyline
 62
7
  6
CONTINUOUS
 90
6
 70
0
 10
-22.4688965846
 20
22.3373247484
 10
-22.4808879649
 20
22.3098548975
 10
-22.4897595163
 20
22.2824422525
 10
-22.4957579425
 20
22.2554695775
 10
-22.4991361607
 20
22.2291980835
 10
-22.5001713963
 20
22.2038648941
  0
LINE
  5
300
100
AcDbEntity
  8
RACCORDO
100
AcDbLine
 62
7
  6
CONTINUOUS
 10
-22.2968700703
 20
22.4854604561
 11
-22.3280928147
 21
22.4732784482
  0
LWPOLYLINE
  5
301
100
AcDbEntity
  8
RACCORDO
100
AcDbPolyline
 62
250
  6
CONTINUOUS
 90
4
 70
0
 10
22.2816460026
 20
-25.7845942298
 10
21.9303713939
 20
-25.7872786988
 10
21.5644211911
 20
-25.7895830657
 10
21.1837624271
 20
-25.7916203302
  0
LWPOLYLINE
  5
302
100
AcDbEntity
  8
RACCORDO
100
AcDbPolyline
 62
250
  6
CONTINUOUS
 90
53
 70
0
 10
-22.2816459931
 20
-25.7845941036
 10
-22.3679880483
 20
-25.782855581
 10
-22.4512864076
 20
-25.7790881232
 10
-22.531583327
 20
-25.7735055467
 10
-22.6075797356
 20
-25.7663202794
 10
-22.6803187892
 20
-25.7578000397
 10
-22.7532842375
 20
-25.7480036986
 10
-22.8268415209
 20
-25.736945585
 10
-22.9002310722
 20
-25.7246285339
 10
-22.9751361439
 20
-25.7107702171
 10
-23.0526894625
 20
-25.6951180741
 10
-23.1319038828
 20
-25.6775786453
 10
-23.2113580341
 20
-25.6580738937
 10
-23.2907841519
 20
-25.6365520085
 10
-23.3705314602
 20
-25.6129498548
 10
-23.4500665506
 20
-25.5873191779
 10
-23.5293103708
 20
-25.5596618756
 10
-23.6081413932
 20
-25.5300010004
 10
-23.6859796281
 20
-25.4984918261
 10
-23.7633798079
 20
-25.4648652708
 10
-23.8403927105
 20
-25.4290536629
 10
-23.915727467
 20
-25.3916621279
 10
-23.9884188771
 20
-25.3532467949
 10
-24.0588467654
 20
-25.3138186247
 10
-24.1276723585
 20
-25.2732571252
 10
-24.1945037959
 20
-25.2319806652
 10
-24.2591341173
 20
-25.1901332954
 10
-24.3224530918
 20
-25.1470405778
 10
-24.3845416496
 20
-25.1026201616
 10
-24.4455042674
 20
-25.0568554303
 10
-24.5061460633
 20
-25.0090836141
 10
-24.5672056945
 20
-24.958608199
 10
-24.6280180953
 20
-24.9058332471
 10
-24.687313345
 20
-24.8517786353
 10
-24.7446425641
 20
-24.7969002723
 10
-24.800358831
 20
-24.7409209728
 10
-24.8544593277
 20
-24.6838422852
 10
-24.9069079535
 20
-24.6257338881
 10
-24.9577221716
 20
-24.5666166822
 10
-25.0069688179
 20
-24.5064125381
 10
-25.0546215599
 20
-24.4451644507
 10
-25.1006641133
 20
-24.3829179056
 10
-25.1451623065
 20
-24.319587127
 10
-25.1883148872
 20
-24.2548573373
 10
-25.2298507329
 20
-24.1891228152
 10
-25.2691870502
 20
-24.1233932822
 10
-25.3064141747
 20
-24.0576252794
 10
-25.3415292018
 20
-23.9919920609
 10
-25.3739629092
 20
-23.9278976109
 10
-25.4034694908
 20
-23.8662500728
 10
-25.430545987
 20
-23.8064307182
 10
-25.4557598451
 20
-23.7475591774
 10
-25.4788502392
 20
-23.6897296755
  0
LWPOLYLINE
  5
303
100
AcDbEntity
  8
RACCORDO
100
AcDbPolyline
 62
7
  6
CONTINUOUS
 90
3
 70
0
 10
-22.4856115542
 20
-22.2964038895
 10
-22.473667236
 20
-22.3272384203
 10
-22.4580115783
 20
-22.3571536811
  0
LWPOLYLINE
  5
304
100
AcDbEntity
  8
RACCORDO
100
AcDbPolyline
 62
7
  6
CONTINUOUS
 90
4
 70
0
 10
-22.5001713963
 20
-22.2038648941
 10
-22.498641936
 20
-22.2345098799
 10
-22.493844266
 20
-22.2654764582
 10
-22.4856115542
 20
-22.2964038895
  0
LINE
  5
305
100
AcDbEntity
  8
RACCORDO
100
AcDbLine
 62
250
  6
CONTINUOUS
 10
-22.3
 20
-24.2067713328
 11
-22.2944882022
 21
-24.618305753
  0
LINE
  5
306
100
AcDbEntity
  8
RACCORDO
100
AcDbLine
 62
250
  6
CONTINUOUS
 10
-22.2944882022
 20
-24.618305753
 11
-22.2891199893
 21
-25.0672657862
  0
LINE
  5
307
100
AcDbEntity
  8
RACCORDO
100
AcDbLine
 62
250
  6
CONTINUOUS
 10
-22.2891199893
 20
-25.0672657862
 11
-22.2832278724
 21
-25.6224016274
  0
LINE
  5
308
100
AcDbEntity
  8
RACCORDO
100
AcDbLine
 62
250
  6
CONTINUOUS
 10
-22.2832278724
 20
-25.6224016274
 11
-22.2816459931
 21
-25.7845941036
  0
LINE
  5
309
100
AcDbEntity
  8
RACCORDO
100
AcDbLine
 62
250
  6
CONTINUOUS
 10
-25.7854520074
 20
-19.7968019039
 11
-25.791912097
 21
-17.5212590699
  0
LINE
  5
30A
100
AcDbEntity
  8
RACCORDO
100
AcDbLine
 62
250
  6
CONTINUOUS
 10
-25.791912097
 20
-17.5212590699
 11
-25.7952448769
 21
-16.0215682788
  0
LINE
  5
30B
100
AcDbEntity
  8
RACCORDO
100
AcDbLine
 62
250
  6
CONTINUOUS
 10
-25.7824864951
 20
-21.1572099741
 11
-25.7854520074
 21
-19.7968019039
  0
LINE
  5
30C
100
AcDbEntity
  8
RACCORDO
100
AcDbLine
 62
250
  6
CONTINUOUS
 10
-25.7952448769
 20
-16.0215682788
 11
-25.7974459258
 21
-14.7835446443
  0
LINE
  5
30D
100
AcDbEntity
  8
RACCORDO
100
AcDbLine
 62
250
  6
CONTINUOUS
 10
-24.2069363068
 20
21.3551095357
 11
-24.208854214
 21
22.3
  0
LINE
  5
30E
100
AcDbEntity
  8
RACCORDO
100
AcDbLine
 62
250
  6
CONTINUOUS
 10
-25.7806206633
 20
-22.2771931074
 11
-25.7824864951
 21
-21.1572099741
  0
LINE
  5
30F
100
AcDbEntity
  8
RACCORDO
100
AcDbLine
 62
250
  6
CONTINUOUS
 10
-25.7974459258
 20
-14.7835446443
 11
-25.7993858878
 21
-13.4353167779
  0
LINE
  5
310
100
AcDbEntity
  8
RACCORDO
100
AcDbLine
 62
250
  6
CONTINUOUS
 10
-25.7993858878
 20
-13.4353167779
 11
-25.8005306134
 21
-12.4702631765
  0
LINE
  5
311
100
AcDbEntity
  8
RACCORDO
100
AcDbLine
 62
250
  6
CONTINUOUS
 10
-25.8005306134
 20
-12.4702631765
 11
-25.8015470248
 21
-11.448024619
  0
LINE
  5
312
100
AcDbEntity
  8
RACCORDO
100
AcDbLine
 62
250
  6
CONTINUOUS
 10
-25.8015470248
 20
-11.448024619
 11
-25.8031553403
 21
-9.2206850633
  0
LINE
  5
313
100
AcDbEntity
  8
RACCORDO
100
AcDbLine
 62
250
  6
CONTINUOUS
 10
-24.2056582884
 20
19.9371762327
 11
-24.2069363068
 21
21.3551095357
  0
LINE
  5
314
100
AcDbEntity
  8
RACCORDO
100
AcDbLine
 62
250
  6
CONTINUOUS
 10
-24.2051680328
 20
18.9656510113
 11
-24.2056582884
 21
19.9371762327
  0
LINE
  5
315
100
AcDbEntity
  8
RACCORDO
100
AcDbLine
 62
250
  6
CONTINUOUS
 10
-25.8031553403
 20
-9.2206850633
 11
-25.8041409896
 21
-6.7244715405
  0
LINE
  5
316
100
AcDbEntity
  8
RACCORDO
100
AcDbLine
 62
250
  6
CONTINUOUS
 10
-24.2032015459
 20
14.1057683552
 11
-24.2051680328
 21
18.9656510113
  0
LINE
  5
317
100
AcDbEntity
  8
RACCORDO
100
AcDbLine
 62
250
  6
CONTINUOUS
 10
-25.8041409896
 20
-6.7244715405
 11
-25.8044771159
 21
-3.9326421547
  0
LINE
  5
318
100
AcDbEntity
  8
RACCORDO
100
AcDbLine
 62
250
  6
CONTINUOUS
 10
-24.2023726127
 20
9.7441954554
 11
-24.2032015459
 21
14.1057683552
  0
LINE
  5
319
100
AcDbEntity
  8
0
100
AcDbLine
 62
7
  6
CONTINUOUS
 10
-22.6
 20
-22.3
 11
-22.6
 21
22.3
  0
LINE
  5
31A
100
AcDbEntity
  8
RACCORDO
100
AcDbLine
 62
7
  6
CONTINUOUS
 10
-22.5950306642
 20
22.298724162
 11
-22.5950306642
 21
-22.298724162
  0
LINE
  5
31B
100
AcDbEntity
  8
DRAFT
100
AcDbLine
 62
7
  6
CONTINUOUS
 10
-22.5
 20
-10.0
 11
-22.5001709117
 21
-22.1853529118
  0
LINE
  5
31C
100
AcDbEntity
  8
DRAFT
100
AcDbLine
 62
7
  6
CONTINUOUS
 10
-22.5001709117
 20
22.1853529118
 11
-22.5
 21
-10.0
  0
LINE
  5
31D
100
AcDbEntity
  8
RACCORDO
100
AcDbLine
 62
7
  6
CONTINUOUS
 10
-22.5001713963
 20
22.2038648941
 11
-22.5001709117
 21
22.1853529118
  0
LINE
  5
31E
100
AcDbEntity
  8
RACCORDO
100
AcDbLine
 62
7
  6
CONTINUOUS
 10
-22.5001709117
 20
-22.1853529118
 11
-22.5001713963
 21
-22.2038648941
  0
LINE
  5
31F
100
AcDbEntity
  8
RACCORDO
100
AcDbLine
 62
250
  6
CONTINUOUS
 10
-22.3
 20
24.2067709591
 11
-22.3
 21
22.6
  0
LINE
  5
320
100
AcDbEntity
  8
RACCORDO
100
AcDbLine
 62
250
  6
CONTINUOUS
 10
-22.3
 20
-24.2067709591
 11
-22.3
 21
-22.6
  0
LINE
  5
321
100
AcDbEntity
  8
RACCORDO
100
AcDbLine
 62
250
  6
CONTINUOUS
 10
-25.8044771159
 20
-3.9326421547
 11
-25.8042095218
 21
6.4307365761
  0
LINE
  5
322
100
AcDbEntity
  8
RACCORDO
100
AcDbLine
 62
250
  6
CONTINUOUS
 10
-25.8042095218
 20
6.4307365761
 11
-25.8032104782
 21
9.119958027
  0
LINE
  5
323
100
AcDbEntity
  8
RACCORDO
100
AcDbLine
 62
250
  6
CONTINUOUS
 10
-24.2057508264
 20
-20.0926728172
 11
-24.2023726127
 21
9.7441954554
  0
LINE
  5
324
100
AcDbEntity
  8
RACCORDO
100
AcDbLine
 62
250
  6
CONTINUOUS
 10
-25.8032104782
 20
9.119958027
 11
-25.8009666117
 21
12.0551570078
  0
LINE
  5
325
100
AcDbEntity
  8
RACCORDO
100
AcDbLine
 62
250
  6
CONTINUOUS
 10
-25.8009666117
 20
12.0551570078
 11
-25.7977721415
 21
14.5779039579
  0
LINE
  5
326
100
AcDbEntity
  8
RACCORDO
100
AcDbLine
 62
250
  6
CONTINUOUS
 10
-25.7977721415
 20
14.5779039579
 11
-25.7954453519
 21
15.918026549
  0
LINE
  5
327
100
AcDbEntity
  8
RACCORDO
100
AcDbLine
 62
250
  6
CONTINUOUS
 10
-24.207830907
 20
-21.8754681609
 11
-24.2057508264
 21
-20.0926728172
  0
LINE
  5
328
100
AcDbEntity
  8
RACCORDO
100
AcDbLine
 62
250
  6
CONTINUOUS
 10
-25.7954453519
 20
15.918026549
 11
-25.7918893291
 21
17.5282444055
  0
LINE
  5
329
100
AcDbEntity
  8
RACCORDO
100
AcDbLine
 62
250
  6
CONTINUOUS
 10
-25.7850834817
 20
19.9325005259
 11
-25.7806206681
 21
22.2771931078
  0
LINE
  5
32A
100
AcDbEntity
  8
RACCORDO
100
AcDbLine
 62
250
  6
CONTINUOUS
 10
-24.208854214
 20
-22.3
 11
-24.207830907
 21
-21.8754681609
  0
LINE
  5
32B
100
AcDbEntity
  8
RACCORDO
100
AcDbLine
 62
250
  6
CONTINUOUS
 10
-25.7918893291
 20
17.5282444055
 11
-25.7850834817
 21
19.9325005259
  0
LWPOLYLINE
  5
32C
100
AcDbEntity
  8
RACCORDO
100
AcDbPolyline
 62
250
  6
CONTINUOUS
 90
73
 70
0
 10
-24.208854214
 20
22.3
 10
-24.2086781816
 20
22.3374390992
 10
-24.207703247
 20
22.3755893947
 10
-24.2058865964
 20
22.4144323561
 10
-24.2031773975
 20
22.4540666315
 10
-24.1995348398
 20
22.4943504906
 10
-24.1949533765
 20
22.5349036146
 10
-24.1893859565
 20
22.5758630983
 10
-24.1828316855
 20
22.6170419721
 10
-24.175432133
 20
22.657582856
 10
-24.1672348238
 20
22.6974004576
 10
-24.1582647273
 20
22.736550539
 10
-24.1487227845
 20
22.7744077107
 10
-24.1387565948
 20
22.8106957453
 10
-24.1283691883
 20
22.8456946256
 10
-24.1175676854
 20
22.8796231085
 10
-24.106469138
 20
22.9122680682
 10
-24.0950666891
 20
22.9438511505
 10
-24.0831215557
 20
22.9752278476
 10
-24.0706368434
 20
23.0064142173
 10
-24.0576160082
 20
23.0373759289
 10
-24.0437352093
 20
23.0688617451
 10
-24.0289496862
 20
23.1008665097
 10
-24.0132299717
 20
23.1333383315
 10
-23.9961957536
 20
23.1669176415
 10
-23.9775567871
 20
23.2019400529
 10
-23.9574308152
 20
23.2379462449
 10
-23.9360411676
 20
23.2743767339
 10
-23.9132844353
 20
23.3112730238
 10
-23.8891652168
 20
23.3484875097
 10
-23.8641546606
 20
23.3852256147
 10
-23.8384197396
 20
23.4212490533
 10
-23.8118177242
 20
23.4567593436
 10
-23.7844138861
 20
23.4916598614
 10
-23.7562688163
 20
23.5258771084
 10
-23.7273518127
 20
23.5594517155
 10
-23.6975906333
 20
23.5924567121
 10
-23.6669274941
 20
23.6249375158
 10
-23.6354341433
 20
23.6567998874
 10
-23.6032352352
 20
23.6879093869
 10
-23.5700963251
 20
23.7184801812
 10
-23.5362775744
 20
23.7482571438
 10
-23.50270984
 20
23.7764726864
 10
-23.4700770985
 20
23.8027003053
 10
-23.4378534957
 20
23.8274931603
 10
-23.4051605149
 20
23.8515579448
 10
-23.3718805181
 20
23.8749882438
 10
-23.3381612789
 20
23.8976700334
 10
-23.3034570353
 20
23.9199050215
 10
-23.2677738105
 20
23.9416325936
 10
-23.2311034515
 20
23.9628267862
 10
-23.1928370353
 20
23.9837646328
 10
-23.1524820989
 20
24.0045763207
 10
-23.1104844542
 20
24.0249283742
 10
-23.0676487465
 20
24.0444159561
 10
-23.0240620649
 20
24.062986815
 10
-22.9796658834
 20
24.080621049
 10
-22.9350911912
 20
24.0970665418
 10
-22.8905442273
 20
24.1122774088
 10
-22.8458870966
 20
24.1263256459
 10
-22.8012539425
 20
24.1391901492
 10
-22.7563001649
 20
24.1509865888
 10
-22.7114306098
 20
24.1616183651
 10
-22.6679268601
 20
24.17084402
 10
-22.626601751
 20
24.1786444888
 10
-22.5867371934
 20
24.1852836509
 10
-22.5473233655
 20
24.1909635707
 10
-22.5087538025
 20
24.1956694269
 10
-22.4706847279
 20
24.1994990662
 10
-22.4309765715
 20
24.2026263494
 10
-22.3889208161
 20
24.2049821223
 10
-22.3452544052
 20
24.2063998479
 10
-22.3
 20
24.2067709591
  0
LWPOLYLINE
  5
32D
100
AcDbEntity
  8
RACCORDO
100
AcDbPolyline
 62
250
  6
CONTINUOUS
 90
3
 70
0
 10
-22.3
 20
24.2067709594
 10
-22.2990767314
 20
24.2722826555
 10
-22.2816460026
 20
25.7845942298
  0
LWPOLYLINE
  5
32E
100
AcDbEntity
  8
RACCORDO
100
AcDbPolyline
 62
7
  6
CONTINUOUS
 90
4
 70
0
 10
22.2038653186
 20
-22.5001718207
 10
22.2345283189
 20
-22.4986434945
 10
22.2656542833
 20
-22.4938102083
 10
22.2968700703
 20
-22.4854604561
  0
LINE
  5
32F
100
AcDbEntity
  8
RACCORDO
100
AcDbLine
 62
250
  6
CONTINUOUS
 10
24.2088541318
 20
-22.3
 11
24.6185644402
 21
-22.2931476227
  0
LINE
  5
330
100
AcDbEntity
  8
RACCORDO
100
AcDbLine
 62
250
  6
CONTINUOUS
 10
24.6185644402
 20
-22.2931476227
 11
25.0657207565
 21
-22.2864765375
  0
LINE
  5
331
100
AcDbEntity
  8
RACCORDO
100
AcDbLine
 62
250
  6
CONTINUOUS
 10
25.0657207565
 20
-22.2864765375
 11
25.5385051776
 21
-22.2801630824
  0
LINE
  5
332
100
AcDbEntity
  8
RACCORDO
100
AcDbLine
 62
250
  6
CONTINUOUS
 10
25.5385051776
 20
-22.2801630824
 11
25.7806206809
 21
-22.277193109
  0
LINE
  5
333
100
AcDbEntity
  8
RACCORDO
100
AcDbLine
 62
250
  6
CONTINUOUS
 10
21.1837624271
 20
-25.7916203302
 11
20.3780926875
 21
-25.7952633016
  0
LINE
  5
334
100
AcDbEntity
  8
RACCORDO
100
AcDbLine
 62
250
  6
CONTINUOUS
 10
20.3780926875
 20
-25.7952633016
 11
19.5159774756
 21
-25.7983678649
  0
LINE
  5
335
100
AcDbEntity
  8
RACCORDO
100
AcDbLine
 62
250
  6
CONTINUOUS
 10
19.5159774756
 20
-25.7983678649
 11
18.5973879373
 21
-25.8009026796
  0
LINE
  5
336
100
AcDbEntity
  8
RACCORDO
100
AcDbLine
 62
250
  6
CONTINUOUS
 10
18.5973879373
 20
-25.8009026796
 11
17.6189943743
 21
-25.8028317408
  0
LINE
  5
337
100
AcDbEntity
  8
RACCORDO
100
AcDbLine
 62
250
  6
CONTINUOUS
 10
-21.1942958118
 20
-24.2049354207
 11
-22.3
 21
-24.2067709591
  0
LINE
  5
338
100
AcDbEntity
  8
RACCORDO
100
AcDbLine
 62
250
  6
CONTINUOUS
 10
17.6189943743
 20
-25.8028317408
 11
16.5774069653
 21
-25.8041878955
  0
LINE
  5
339
100
AcDbEntity
  8
RACCORDO
100
AcDbLine
 62
250
  6
CONTINUOUS
 10
16.5774069653
 20
-25.8041878955
 11
15.4708144634
 21
-25.8050255774
  0
LINE
  5
33A
100
AcDbEntity
  8
RACCORDO
100
AcDbLine
 62
250
  6
CONTINUOUS
 10
-18.6036741879
 20
-24.2030481643
 11
-21.1942958118
 21
-24.2049354207
  0
LINE
  5
33B
100
AcDbEntity
  8
RACCORDO
100
AcDbLine
 62
250
  6
CONTINUOUS
 10
15.4708144634
 20
-25.8050255774
 11
13.6844528816
 21
-25.8054831785
  0
LINE
  5
33C
100
AcDbEntity
  8
RACCORDO
100
AcDbLine
 62
250
  6
CONTINUOUS
 10
13.6844528816
 20
-25.8054831785
 11
-11.749930173
 21
-25.8055757917
  0
LINE
  5
33D
100
AcDbEntity
  8
RACCORDO
100
AcDbLine
 62
250
  6
CONTINUOUS
 10
-16.0382747159
 20
-24.2024210991
 11
-18.6036741879
 21
-24.2030481643
  0
LINE
  5
33E
100
AcDbEntity
  8
0
100
AcDbLine
 62
7
  6
CONTINUOUS
 10
22.3
 20
-22.6
 11
-22.3
 21
-22.6
  0
LINE
  5
33F
100
AcDbEntity
  8
RACCORDO
100
AcDbLine
 62
7
  6
CONTINUOUS
 10
-22.298724162
 20
-22.5950306642
 11
22.298724162
 21
-22.5950306642
  0
LINE
  5
340
100
AcDbEntity
  8
DRAFT
100
AcDbLine
 62
7
  6
CONTINUOUS
 10
-22.1853533817
 20
-22.5001713676
 11
22.1853533817
 21
-22.5001713676
  0
LINE
  5
341
100
AcDbEntity
  8
RACCORDO
100
AcDbLine
 62
7
  6
CONTINUOUS
 10
-22.2038653186
 20
-22.5001718207
 11
-22.1853533817
 21
-22.5001713676
  0
LINE
  5
342
100
AcDbEntity
  8
RACCORDO
100
AcDbLine
 62
7
  6
CONTINUOUS
 10
22.1853533817
 20
-22.5001713676
 11
22.2038653186
 21
-22.5001718207
  0
LINE
  5
343
100
AcDbEntity
  8
RACCORDO
100
AcDbLine
 62
250
  6
CONTINUOUS
 10
-24.208854214
 20
-22.3
 11
-22.6
 21
-22.3
  0
LINE
  5
344
100
AcDbEntity
  8
RACCORDO
100
AcDbLine
 62
250
  6
CONTINUOUS
 10
24.208854214
 20
-22.3
 11
22.6
 21
-22.3
  0
LINE
  5
345
100
AcDbEntity
  8
RACCORDO
100
AcDbLine
 62
250
  6
CONTINUOUS
 10
-11.7498603461
 20
-24.2024851842
 11
-16.0382747159
 21
-24.2024210991
  0
LINE
  5
346
100
AcDbEntity
  8
RACCORDO
100
AcDbLine
 62
250
  6
CONTINUOUS
 10
-11.7500698045
 20
-25.8055757921
 11
-14.89833142
 21
-25.8052674716
  0
LWPOLYLINE
  5
347
100
AcDbEntity
  8
RACCORDO
100
AcDbPolyline
 62
250
  6
CONTINUOUS
 90
3
 70
0
 10
18.1185706672
 20
-24.2028592092
 10
17.6212940567
 20
-24.2027044971
 10
-11.7498603461
 20
-24.2024851842
  0
LINE
  5
348
100
AcDbEntity
  8
RACCORDO
100
AcDbLine
 62
250
  6
CONTINUOUS
 10
19.0683975005
 20
-24.2032666795
 11
18.1185706672
 21
-24.2028592092
  0
LINE
  5
349
100
AcDbEntity
  8
RACCORDO
100
AcDbLine
 62
250
  6
CONTINUOUS
 10
-14.89833142
 20
-25.8052674716
 11
-16.0374565499
 21
-25.8046645616
  0
LINE
  5
34A
100
AcDbEntity
  8
RACCORDO
100
AcDbLine
 62
250
  6
CONTINUOUS
 10
20.3848993188
 20
-24.2041331495
 11
19.0683975005
 21
-24.2032666795
  0
LINE
  5
34B
100
AcDbEntity
  8
RACCORDO
100
AcDbLine
 62
250
  6
CONTINUOUS
 10
-16.0374565499
 20
-25.8046645616
 11
-17.1102806076
 21
-25.803572154
  0
LINE
  5
34C
100
AcDbEntity
  8
RACCORDO
100
AcDbLine
 62
250
  6
CONTINUOUS
 10
-17.1102806076
 20
-25.803572154
 11
-18.1188066163
 21
-25.8019367342
  0
LWPOLYLINE
  5
34D
100
AcDbEntity
  8
RACCORDO
100
AcDbPolyline
 62
250
  6
CONTINUOUS
 90
3
 70
0
 10
22.3
 20
-24.2067709591
 10
21.9453413907
 20
-24.206079702
 10
20.3848993188
 20
-24.2041331495
  0
LINE
  5
34E
100
AcDbEntity
  8
RACCORDO
100
AcDbLine
 62
250
  6
CONTINUOUS
 10
-18.1188066163
 20
-25.8019367342
 11
-19.0665245052
 21
-25.7997025132
  0
LINE
  5
34F
100
AcDbEntity
  8
RACCORDO
100
AcDbLine
 62
250
  6
CONTINUOUS
 10
-19.0665245052
 20
-25.7997025132
 11
-19.9554663211
 21
-25.7968781942
  0
LWPOLYLINE
  5
350
100
AcDbEntity
  8
RACCORDO
100
AcDbPolyline
 62
250
  6
CONTINUOUS
 90
6
 70
0
 10
-19.9554663211
 20
-25.7968781942
 10
-20.7892867156
 20
-25.793502784
 10
-21.1845134014
 20
-25.7916165228
 10
-21.5649041569
 20
-25.7895801545
 10
-21.9306039901
 20
-25.7872770122
 10
-22.2816460027
 20
-25.7845942307
  0
LWPOLYLINE
  5
351
100
AcDbEntity
  8
RACCORDO
100
AcDbPolyline
 62
250
  6
CONTINUOUS
 90
73
 70
0
 10
-22.3
 20
-24.2067709591
 10
-22.3446594108
 20
-24.2064122664
 10
-22.3877612498
 20
-24.2050337176
 10
-22.4292836879
 20
-24.2027404383
 10
-22.4685352381
 20
-24.1996910108
 10
-22.5061797702
 20
-24.1959539127
 10
-22.5442233377
 20
-24.1913725627
 10
-22.5829343352
 20
-24.1858685
 10
-22.6219987578
 20
-24.179454132
 10
-22.6625260938
 20
-24.1719169515
 10
-22.7052408419
 20
-24.1629962168
 10
-22.7493278608
 20
-24.1527126945
 10
-22.7935896192
 20
-24.1412828911
 10
-22.8376925705
 20
-24.128775124
 10
-22.8819084836
 20
-24.115087154
 10
-22.9259715455
 20
-24.1002796576
 10
-22.9698927656
 20
-24.0843335729
 10
-23.0136004795
 20
-24.0672559622
 10
-23.0567196307
 20
-24.0491906144
 10
-23.0995355984
 20
-24.03003398
 10
-23.1417175166
 20
-24.0099196391
 10
-23.1820172875
 20
-23.9894647849
 10
-23.2196810696
 20
-23.9691953622
 10
-23.2555345961
 20
-23.9488341709
 10
-23.2907021018
 20
-23.9278049605
 10
-23.3252877617
 20
-23.9060449029
 10
-23.3591648952
 20
-23.8836620753
 10
-23.3930424104
 20
-23.8602171163
 10
-23.4270956235
 20
-23.8355369005
 10
-23.461064555
 20
-23.8097446351
 10
-23.4949728385
 20
-23.7827956329
 10
-23.5290036643
 20
-23.7544814964
 10
-23.5628735131
 20
-23.7249568317
 10
-23.5959399238
 20
-23.6947618936
 10
-23.6279951413
 20
-23.6641149381
 10
-23.6592369873
 20
-23.6328539399
 10
-23.6896697904
 20
-23.6009909697
 10
-23.7192695418
 20
-23.5685655095
 10
-23.7480447916
 20
-23.5355833833
 10
-23.7760444757
 20
-23.5020012347
 10
-23.8032586681
 20
-23.467835695
 10
-23.8296753096
 20
-23.4331070397
 10
-23.8553321229
 20
-23.3977701487
 10
-23.8803458192
 20
-23.3616480784
 10
-23.9045624804
 20
-23.3249433747
 10
-23.9276456965
 20
-23.2882008568
 10
-23.9496608769
 20
-23.2513895276
 10
-23.9705857305
 20
-23.2146144287
 10
-23.9900387718
 20
-23.1786746541
 10
-24.0078592705
 20
-23.1440976707
 10
-24.024372548
 20
-23.1104802113
 10
-24.0399371072
 20
-23.07722875
 10
-24.0546207277
 20
-23.0442999116
 10
-24.0684200179
 20
-23.0117931887
 10
-24.0815255045
 20
-22.9792987657
 10
-24.0938783744
 20
-22.9470468335
 10
-24.1055654592
 20
-22.9148416299
 10
-24.1169137335
 20
-22.8816047059
 10
-24.1279298708
 20
-22.8471198077
 10
-24.1384993106
 20
-22.8115967878
 10
-24.1486797209
 20
-22.7745718542
 10
-24.158524564
 20
-22.735464485
 10
-24.1677875672
 20
-22.6948431944
 10
-24.1761274763
 20
-22.6539840446
 10
-24.1834942069
 20
-22.6131450476
 10
-24.1899350503
 20
-22.5721136692
 10
-24.1953750705
 20
-22.5314857334
 10
-24.1998298326
 20
-22.4914308269
 10
-24.2033537199
 20
-22.4518304742
 10
-24.205976585
 20
-22.4128523139
 10
-24.2077396488
 20
-22.3745659609
 10
-24.208685388
 20
-22.3369426114
 10
-24.208854214
 20
-22.3
  0
LINE
  5
352
100
AcDbEntity
  8
RACCORDO
100
AcDbLine
 62
250
  6
CONTINUOUS
 10
-24.4772757582
 20
-22.2954206819
 11
-25.7806206633
 21
-22.2771931074
  0
LINE
  5
353
100
AcDbEntity
  8
RACCORDO
100
AcDbLine
 62
250
  6
CONTINUOUS
 10
-24.2088542115
 20
-22.3
 11
-24.4772757582
 21
-22.2954206819
  0
LINE
  5
354
100
AcDbEntity
  8
RACCORDO
100
AcDbLine
 62
250
  6
CONTINUOUS
 10
-11.7498603461
 20
24.2024851842
 11
-11.7500262635
 21
39.7614222832
  0
LWPOLYLINE
  5
355
100
AcDbEntity
  8
RACCORDO
100
AcDbPolyline
 62
250
  6
CONTINUOUS
 90
3
 70
0
 10
-11.7498603461
 20
-24.2024851842
 10
-11.7500300488
 20
-25.3966034176
 10
-11.7500262635
 20
-39.7614222832
  0
LWPOLYLINE
  5
356
100
AcDbEntity
  8
0
100
AcDbPolyline
 62
7
  6
CONTINUOUS
 90
4
 70
0
 43
0.3500000006
 10
-2.3571427875
 20
49.178569931
 10
-2.3571427875
 20
50.0357124023
 10
-1.9285714102
 20
50.4642859039
 10
-1.2857142735
 20
50.4642859039
  0
LWPOLYLINE
  5
357
100
AcDbEntity
  8
0
100
AcDbPolyline
 62
7
  6
CONTINUOUS
 90
13
 70
0
 43
0.3500000006
 10
0.0
 20
49.6071434326
 10
0.0
 20
50.8928594055
 10
0.2142857063
 20
51.3214283752
 10
0.6428571367
 20
51.7500018768
 10
0.8571428254
 20
51.7500018768
 10
1.2857142735
 20
51.3214283752
 10
1.5000000329
 20
50.8928594055
 10
1.5000000329
 20
49.6071434326
 10
1.2857142735
 20
49.178569931
 10
0.8571428254
 20
48.7500009613
 10
0.6428571367
 20
48.7500009613
 10
0.2142857063
 20
49.178569931
 10
0.0
 20
49.6071434326
  0
LINE
  5
358
100
AcDbEntity
  8
RACCORDO
100
AcDbLine
 62
250
  6
CONTINUOUS
 10
22.298724162
 20
22.5950306642
 11
22.2038653186
 21
22.5001718207
  0
LINE
  5
359
100
AcDbEntity
  8
RACCORDO
100
AcDbLine
 62
250
  6
CONTINUOUS
 10
-22.5950306642
 20
-22.298724162
 11
-22.5001713963
 21
-22.2038648941
  0
LINE
  5
35A
100
AcDbEntity
  8
RACCORDO
100
AcDbLine
 62
250
  6
CONTINUOUS
 10
22.5950306642
 20
22.298724162
 11
22.5001713963
 21
22.2038648941
  0
LINE
  5
35B
100
AcDbEntity
  8
RACCORDO
100
AcDbLine
 62
250
  6
CONTINUOUS
 10
-22.298724162
 20
-22.5950306642
 11
-22.2038653186
 21
-22.5001718207
  0
LINE
  5
35C
100
AcDbEntity
  8
RACCORDO
100
AcDbLine
 62
250
  6
CONTINUOUS
 10
-24.2022017498
 20
0.0
 11
-39.7614201801
 21
0.0
  0
LINE
  5
35D
100
AcDbEntity
  8
RACCORDO
100
AcDbLine
 62
250
  6
CONTINUOUS
 10
24.2022017498
 20
0.0
 11
39.7614201801
 21
0.0
  0
LINE
  5
35E
100
AcDbEntity
  8
RACCORDO
100
AcDbLine
 62
250
  6
CONTINUOUS
 10
-22.5950306642
 20
22.298724162
 11
-22.5001713963
 21
22.2038648941
  0
LINE
  5
35F
100
AcDbEntity
  8
RACCORDO
100
AcDbLine
 62
250
  6
CONTINUOUS
 10
22.298724162
 20
-22.5950306642
 11
22.2038653186
 21
-22.5001718207
  0
LINE
  5
360
100
AcDbEntity
  8
RACCORDO
100
AcDbLine
 62
250
  6
CONTINUOUS
 10
-22.298724162
 20
22.5950306642
 11
-22.2038653186
 21
22.5001718207
  0
LINE
  5
361
100
AcDbEntity
  8
RACCORDO
100
AcDbLine
 62
250
  6
CONTINUOUS
 10
22.5950306642
 20
-22.298724162
 11
22.5001713963
 21
-22.2038648941
  0
LINE
  5
362
100
AcDbEntity
  8
RACCORDO
100
AcDbLine
 62
250
  6
CONTINUOUS
 10
11.7498603461
 20
-24.2024851842
 11
11.749930173
 21
-25.8055757917
  0
LINE
  5
363
100
AcDbEntity
  8
RACCORDO
100
AcDbLine
 62
250
  6
CONTINUOUS
 10
11.75
 20
-25.805575842
 11
11.7500262635
 21
-39.7614222832
  0
LINE
  5
364
100
AcDbEntity
  8
RACCORDO
100
AcDbLine
 62
250
  6
CONTINUOUS
 10
11.7500154127
 20
25.3159578776
 11
11.7500262635
 21
39.7614222832
  0
LINE
  5
365
100
AcDbEntity
  8
RACCORDO
100
AcDbLine
 62
250
  6
CONTINUOUS
 10
11.7498603461
 20
24.2024851842
 11
11.7500154127
 21
25.3159578776
  0
LINE
  5
366
100
AcDbEntity
  8
RACCORDO
100
AcDbLine
 62
250
  6
CONTINUOUS
 10
22.3
 20
24.2067713328
 11
22.2944882022
 21
24.618305753
  0
LINE
  5
367
100
AcDbEntity
  8
RACCORDO
100
AcDbLine
 62
250
  6
CONTINUOUS
 10
22.2944882022
 20
24.618305753
 11
22.2891199893
 21
25.0672657862
  0
LINE
  5
368
100
AcDbEntity
  8
RACCORDO
100
AcDbLine
 62
250
  6
CONTINUOUS
 10
22.2891199893
 20
25.0672657862
 11
22.2832278724
 21
25.6224016274
  0
LINE
  5
369
100
AcDbEntity
  8
RACCORDO
100
AcDbLine
 62
250
  6
CONTINUOUS
 10
22.2832278724
 20
25.6224016274
 11
22.2816459931
 21
25.7845941036
  0
LINE
  5
36A
100
AcDbEntity
  8
RACCORDO
100
AcDbLine
 62
250
  6
CONTINUOUS
 10
22.3
 20
24.2067709591
 11
22.3
 21
22.6
  0
LINE
  5
36B
100
AcDbEntity
  8
RACCORDO
100
AcDbLine
 62
250
  6
CONTINUOUS
 10
22.3
 20
-24.2067709591
 11
22.3
 21
-22.6
  0
LINE
  5
36C
100
AcDbEntity
  8
RACCORDO
100
AcDbLine
 62
7
  6
CONTINUOUS
 10
22.5001713963
 20
-22.2038648941
 11
22.5001709117
 21
-22.1853529118
  0
LINE
  5
36D
100
AcDbEntity
  8
RACCORDO
100
AcDbLine
 62
7
  6
CONTINUOUS
 10
22.5001709117
 20
22.1853529118
 11
22.5001713963
 21
22.2038648941
  0
LINE
  5
36E
100
AcDbEntity
  8
DRAFT
100
AcDbLine
 62
7
  6
CONTINUOUS
 10
22.5001709117
 20
-22.1853529118
 11
22.5
 21
-10.0
  0
LINE
  5
36F
100
AcDbEntity
  8
DRAFT
100
AcDbLine
 62
7
  6
CONTINUOUS
 10
22.5001709117
 20
22.1853529118
 11
22.5
 21
-10.0
  0
LINE
  5
370
100
AcDbEntity
  8
RACCORDO
100
AcDbLine
 62
7
  6
CONTINUOUS
 10
22.5950306642
 20
-22.298724162
 11
22.5950306642
 21
22.298724162
  0
LINE
  5
371
100
AcDbEntity
  8
0
100
AcDbLine
 62
7
  6
CONTINUOUS
 10
22.6
 20
22.3
 11
22.6
 21
-22.3
  0
LWPOLYLINE
  5
372
100
AcDbEntity
  8
RACCORDO
100
AcDbPolyline
 62
250
  6
CONTINUOUS
 90
3
 70
0
 10
22.3
 20
-24.2067709594
 10
22.2990767314
 20
-24.2722826555
 10
22.2816460026
 20
-25.7845942298
  0
LINE
  5
373
100
AcDbEntity
  8
RACCORDO
100
AcDbLine
 62
250
  6
CONTINUOUS
 10
-24.2088541318
 20
22.3
 11
-24.6185644402
 21
22.2931476227
  0
LINE
  5
374
100
AcDbEntity
  8
RACCORDO
100
AcDbLine
 62
250
  6
CONTINUOUS
 10
-24.6185644402
 20
22.2931476227
 11
-25.0657207565
 21
22.2864765375
  0
LINE
  5
375
100
AcDbEntity
  8
RACCORDO
100
AcDbLine
 62
250
  6
CONTINUOUS
 10
-25.0657207565
 20
22.2864765375
 11
-25.5385051776
 21
22.2801630824
  0
LINE
  5
376
100
AcDbEntity
  8
RACCORDO
100
AcDbLine
 62
250
  6
CONTINUOUS
 10
-25.5385051776
 20
22.2801630824
 11
-25.7806206809
 21
22.277193109
  0
LINE
  5
377
100
AcDbEntity
  8
RACCORDO
100
AcDbLine
 62
250
  6
CONTINUOUS
 10
-24.208854214
 20
22.3
 11
-22.6
 21
22.3
  0
LINE
  5
378
100
AcDbEntity
  8
RACCORDO
100
AcDbLine
 62
250
  6
CONTINUOUS
 10
24.208854214
 20
22.3
 11
22.6
 21
22.3
  0
LINE
  5
379
100
AcDbEntity
  8
RACCORDO
100
AcDbLine
 62
7
  6
CONTINUOUS
 10
22.2038653186
 20
22.5001718207
 11
22.1853533817
 21
22.5001713676
  0
LINE
  5
37A
100
AcDbEntity
  8
RACCORDO
100
AcDbLine
 62
7
  6
CONTINUOUS
 10
-22.1853533817
 20
22.5001713676
 11
-22.2038653186
 21
22.5001718207
  0
LINE
  5
37B
100
AcDbEntity
  8
DRAFT
100
AcDbLine
 62
7
  6
CONTINUOUS
 10
22.1853533817
 20
22.5001713676
 11
-10.0
 21
22.5
  0
LINE
  5
37C
100
AcDbEntity
  8
DRAFT
100
AcDbLine
 62
7
  6
CONTINUOUS
 10
-10.0
 20
22.5
 11
-22.1853533817
 21
22.5001713676
  0
LINE
  5
37D
100
AcDbEntity
  8
RACCORDO
100
AcDbLine
 62
7
  6
CONTINUOUS
 10
22.298724162
 20
22.5950306642
 11
-22.298724162
 21
22.5950306642
  0
LINE
  5
37E
100
AcDbEntity
  8
0
100
AcDbLine
 62
7
  6
CONTINUOUS
 10
-22.3
 20
22.6
 11
22.3
 21
22.6
  0
LINE
  5
37F
100
AcDbEntity
  8
RACCORDO
100
AcDbLine
 62
250
  6
CONTINUOUS
 10
24.4772757582
 20
22.2954206819
 11
25.7806206633
 21
22.2771931074
  0
LINE
  5
380
100
AcDbEntity
  8
RACCORDO
100
AcDbLine
 62
250
  6
CONTINUOUS
 10
24.2088542115
 20
22.3
 11
24.4772757582
 21
22.2954206819
  0
LWPOLYLINE
  5
381
100
AcDbEntity
  8
RACCORDO
100
AcDbPolyline
 62
7
  6
CONTINUOUS
 90
4
 70
0
 10
22.5001713963
 20
22.2038648941
 10
22.4986406617
 20
22.2345215299
 10
22.4938404538
 20
22.2654943249
 10
22.4856055039
 20
22.296422564
  0
LINE
  5
382
100
AcDbEntity
  8
RACCORDO
100
AcDbLine
 62
250
  6
CONTINUOUS
 10
24.2069363068
 20
-21.3551095357
 11
24.208854214
 21
-22.3
  0
LINE
  5
383
100
AcDbEntity
  8
RACCORDO
100
AcDbLine
 62
250
  6
CONTINUOUS
 10
25.7944471029
 20
16.4119369054
 11
25.7974459258
 21
14.7835446443
  0
LINE
  5
384
100
AcDbEntity
  8
RACCORDO
100
AcDbLine
 62
250
  6
CONTINUOUS
 10
25.7806206633
 20
22.2771931074
 11
25.7944471029
 21
16.4119369054
  0
LINE
  5
385
100
AcDbEntity
  8
RACCORDO
100
AcDbLine
 62
250
  6
CONTINUOUS
 10
25.7974459258
 20
14.7835446443
 11
25.8005306134
 21
12.4702631765
  0
LINE
  5
386
100
AcDbEntity
  8
RACCORDO
100
AcDbLine
 62
250
  6
CONTINUOUS
 10
25.8005306134
 20
12.4702631765
 11
25.8024249034
 21
10.366118923
  0
LWPOLYLINE
  5
387
100
AcDbEntity
  8
RACCORDO
100
AcDbPolyline
 62
250
  6
CONTINUOUS
 90
3
 70
0
 10
24.2054831226
 20
-19.6232461794
 10
24.2056582884
 20
-19.9371762326
 10
24.2069363068
 20
-21.3551095357
  0
LINE
  5
388
100
AcDbEntity
  8
RACCORDO
100
AcDbLine
 62
250
  6
CONTINUOUS
 10
25.8024249034
 20
10.366118923
 11
25.803955963
 21
7.3753243247
  0
LINE
  5
389
100
AcDbEntity
  8
RACCORDO
100
AcDbLine
 62
250
  6
CONTINUOUS
 10
24.2021624477
 20
-6.4309624429
 11
24.2054831226
 21
-19.6232461794
  0
LINE
  5
38A
100
AcDbEntity
  8
RACCORDO
100
AcDbLine
 62
250
  6
CONTINUOUS
 10
25.803955963
 20
7.3753243247
 11
25.8044409492
 21
2.4198315158
  0
LINE
  5
38B
100
AcDbEntity
  8
RACCORDO
100
AcDbLine
 62
250
  6
CONTINUOUS
 10
24.2022701044
 20
8.6234334835
 11
24.2021624477
 21
-6.4309624429
  0
LINE
  5
38C
100
AcDbEntity
  8
RACCORDO
100
AcDbLine
 62
250
  6
CONTINUOUS
 10
25.8044409492
 20
2.4198315158
 11
25.8044716484
 21
-4.1937014479
  0
LINE
  5
38D
100
AcDbEntity
  8
RACCORDO
100
AcDbLine
 62
250
  6
CONTINUOUS
 10
25.8044716484
 20
-4.1937014479
 11
25.8040301069
 21
-7.1336926618
  0
LINE
  5
38E
100
AcDbEntity
  8
RACCORDO
100
AcDbLine
 62
250
  6
CONTINUOUS
 10
25.8040301069
 20
-7.1336926618
 11
25.8028460586
 21
-9.7432969073
  0
LINE
  5
38F
100
AcDbEntity
  8
RACCORDO
100
AcDbLine
 62
250
  6
CONTINUOUS
 10
25.8028460586
 20
-9.7432969073
 11
25.8019880087
 21
-10.9342377622
  0
LINE
  5
390
100
AcDbEntity
  8
RACCORDO
100
AcDbLine
 62
250
  6
CONTINUOUS
 10
25.8019880087
 20
-10.9342377622
 11
25.8009666117
 21
-12.0551570078
  0
LINE
  5
391
100
AcDbEntity
  8
RACCORDO
100
AcDbLine
 62
250
  6
CONTINUOUS
 10
25.8009666117
 20
-12.0551570078
 11
25.799151905
 21
-13.6142906948
  0
LINE
  5
392
100
AcDbEntity
  8
RACCORDO
100
AcDbLine
 62
250
  6
CONTINUOUS
 10
25.799151905
 20
-13.6142906948
 11
25.7977721415
 21
-14.5779039579
  0
LINE
  5
393
100
AcDbEntity
  8
RACCORDO
100
AcDbLine
 62
250
  6
CONTINUOUS
 10
24.207830907
 20
21.8754681609
 11
24.2022701044
 21
8.6234334835
  0
LINE
  5
394
100
AcDbEntity
  8
RACCORDO
100
AcDbLine
 62
250
  6
CONTINUOUS
 10
25.7977721415
 20
-14.5779039579
 11
25.7954453519
 21
-15.9180265489
  0
LWPOLYLINE
  5
395
100
AcDbEntity
  8
RACCORDO
100
AcDbPolyline
 62
250
  6
CONTINUOUS
 90
3
 70
0
 10
25.7837561969
 20
-20.5286895886
 10
25.7826288367
 20
-21.0826536413
 10
25.7806206681
 20
-22.2771931078
  0
LINE
  5
396
100
AcDbEntity
  8
RACCORDO
100
AcDbLine
 62
250
  6
CONTINUOUS
 10
25.7954453519
 20
-15.9180265489
 11
25.7937255029
 21
-16.7468027875
  0
LINE
  5
397
100
AcDbEntity
  8
RACCORDO
100
AcDbLine
 62
250
  6
CONTINUOUS
 10
24.208854214
 20
22.3
 11
24.207830907
 21
21.8754681609
  0
LINE
  5
398
100
AcDbEntity
  8
RACCORDO
100
AcDbLine
 62
250
  6
CONTINUOUS
 10
25.7937255029
 20
-16.7468027875
 11
25.790922108
 21
-17.9023536413
  0
LINE
  5
399
100
AcDbEntity
  8
RACCORDO
100
AcDbLine
 62
250
  6
CONTINUOUS
 10
25.790922108
 20
-17.9023536413
 11
25.7889048057
 21
-18.6187034221
  0
LINE
  5
39A
100
AcDbEntity
  8
RACCORDO
100
AcDbLine
 62
250
  6
CONTINUOUS
 10
25.7889048057
 20
-18.6187034221
 11
25.7837561969
 21
-20.5286895886
  0
LWPOLYLINE
  5
39B
100
AcDbEntity
  8
RACCORDO
100
AcDbPolyline
 62
250
  6
CONTINUOUS
 90
73
 70
0
 10
24.208854214
 20
-22.3
 10
24.2086781816
 20
-22.3374390992
 10
24.207703247
 20
-22.3755893947
 10
24.2058865964
 20
-22.4144323561
 10
24.2031773975
 20
-22.4540666315
 10
24.1995348398
 20
-22.4943504906
 10
24.1949533765
 20
-22.5349036146
 10
24.1893859565
 20
-22.5758630983
 10
24.1828316855
 20
-22.6170419721
 10
24.175432133
 20
-22.657582856
 10
24.1672348238
 20
-22.6974004576
 10
24.1582647273
 20
-22.736550539
 10
24.1487227845
 20
-22.7744077107
 10
24.1387565948
 20
-22.8106957453
 10
24.1283691883
 20
-22.8456946256
 10
24.1175676854
 20
-22.8796231085
 10
24.106469138
 20
-22.9122680682
 10
24.0950666891
 20
-22.9438511505
 10
24.0831215557
 20
-22.9752278476
 10
24.0706368434
 20
-23.0064142173
 10
24.0576160082
 20
-23.0373759289
 10
24.0437352093
 20
-23.0688617451
 10
24.0289496862
 20
-23.1008665097
 10
24.0132299717
 20
-23.1333383315
 10
23.9961957536
 20
-23.1669176415
 10
23.9775567871
 20
-23.2019400529
 10
23.9574308152
 20
-23.2379462449
 10
23.9360411676
 20
-23.2743767339
 10
23.9132844353
 20
-23.3112730238
 10
23.8891652168
 20
-23.3484875097
 10
23.8641546606
 20
-23.3852256147
 10
23.8384197395
 20
-23.4212490533
 10
23.8118177242
 20
-23.4567593436
 10
23.7844138861
 20
-23.4916598614
 10
23.7562688163
 20
-23.5258771084
 10
23.7273518127
 20
-23.5594517155
 10
23.6975906333
 20
-23.5924567121
 10
23.6669274941
 20
-23.6249375158
 10
23.6354341433
 20
-23.6567998874
 10
23.6032352352
 20
-23.6879093869
 10
23.5700963251
 20
-23.7184801812
 10
23.5362775744
 20
-23.7482571438
 10
23.50270984
 20
-23.7764726864
 10
23.4700770985
 20
-23.8027003053
 10
23.4378534957
 20
-23.8274931603
 10
23.4051605149
 20
-23.8515579448
 10
23.3718805181
 20
-23.8749882438
 10
23.3381612789
 20
-23.8976700334
 10
23.3034570353
 20
-23.9199050215
 10
23.2677738105
 20
-23.9416325936
 10
23.2311034515
 20
-23.9628267862
 10
23.1928370353
 20
-23.9837646328
 10
23.152482099
 20
-24.0045763207
 10
23.1104844542
 20
-24.0249283742
 10
23.0676487465
 20
-24.0444159561
 10
23.0240620649
 20
-24.062986815
 10
22.9796658834
 20
-24.080621049
 10
22.9350911912
 20
-24.0970665418
 10
22.8905442273
 20
-24.1122774088
 10
22.8458870966
 20
-24.1263256459
 10
22.8012539425
 20
-24.1391901492
 10
22.7563001649
 20
-24.1509865888
 10
22.7114306098
 20
-24.1616183651
 10
22.6679268601
 20
-24.17084402
 10
22.626601751
 20
-24.1786444888
 10
22.5867371934
 20
-24.1852836509
 10
22.5473233655
 20
-24.1909635707
 10
22.5087538025
 20
-24.1956694269
 10
22.4706847279
 20
-24.1994990662
 10
22.4309765715
 20
-24.2026263494
 10
22.3889208161
 20
-24.2049821223
 10
22.3452544052
 20
-24.2063998479
 10
22.3
 20
-24.2067709591
  0
LWPOLYLINE
  5
39C
100
AcDbEntity
  8
RACCORDO
100
AcDbPolyline
 62
250
  6
CONTINUOUS
 90
19
 70
0
 10
25.7806206809
 20
-22.277193109
 10
25.7797400743
 20
-22.3492956475
 10
25.7772765526
 20
-22.4227463184
 10
25.7731427598
 20
-22.4974969601
 10
25.7672435565
 20
-22.5737405803
 10
25.7594859433
 20
-22.6512129685
 10
25.7498309587
 20
-22.7291842071
 10
25.7381682385
 20
-22.8079036183
 10
25.72451718
 20
-22.8869812842
 10
25.7091954045
 20
-22.9647378802
 10
25.692356679
 20
-23.0410357187
 10
25.673983863
 20
-23.1160340605
 10
25.654325137
 20
-23.1885550027
 10
25.6334076036
 20
-23.2580768518
 10
25.6115191794
 20
-23.3250412553
 10
25.589362595
 20
-23.3897322776
 10
25.5673969715
 20
-23.451582063
 10
25.5457040988
 20
-23.5105758174
 10
25.4836826535
 20
-23.6774363505
  0
LWPOLYLINE
  5
39D
100
AcDbEntity
  8
RACCORDO
100
AcDbPolyline
 62
7
  6
CONTINUOUS
 90
4
 70
0
 10
-22.2038653186
 20
22.5001718207
 10
-22.2345283189
 20
22.4986434945
 10
-22.2656542833
 20
22.4938102083
 10
-22.2968700703
 20
22.4854604561
  0
LWPOLYLINE
  5
39E
100
AcDbEntity
  8
RACCORDO
100
AcDbPolyline
 62
250
  6
CONTINUOUS
 90
3
 70
0
 10
-22.2816460026
 20
25.7845942298
 10
-21.9303713939
 20
25.7872786988
 10
-21.5644211911
 20
25.7895830657
  0
LINE
  5
39F
100
AcDbEntity
  8
RACCORDO
100
AcDbLine
 62
250
  6
CONTINUOUS
 10
-21.5644211911
 20
25.7895830657
 11
-20.7882506743
 21
25.7935074182
  0
LINE
  5
3A0
100
AcDbEntity
  8
RACCORDO
100
AcDbLine
 62
250
  6
CONTINUOUS
 10
-20.7882506743
 20
25.7935074182
 11
-19.9538066299
 21
25.7968842663
  0
LINE
  5
3A1
100
AcDbEntity
  8
RACCORDO
100
AcDbLine
 62
250
  6
CONTINUOUS
 10
-19.9538066299
 20
25.7968842663
 11
-19.0641680882
 21
25.7997090364
  0
LINE
  5
3A2
100
AcDbEntity
  8
RACCORDO
100
AcDbLine
 62
250
  6
CONTINUOUS
 10
-19.0641680882
 20
25.7997090364
 11
-18.1156714487
 21
25.8019428888
  0
LINE
  5
3A3
100
AcDbEntity
  8
RACCORDO
100
AcDbLine
 62
250
  6
CONTINUOUS
 10
21.1942958118
 20
24.2049354207
 11
22.3
 21
24.2067709591
  0
LINE
  5
3A4
100
AcDbEntity
  8
RACCORDO
100
AcDbLine
 62
250
  6
CONTINUOUS
 10
-18.1156714487
 20
25.8019428888
 11
-17.1062799197
 21
25.8035773754
  0
LINE
  5
3A5
100
AcDbEntity
  8
RACCORDO
100
AcDbLine
 62
250
  6
CONTINUOUS
 10
-17.1062799197
 20
25.8035773754
 11
-16.0324919873
 21
25.8046683142
  0
LINE
  5
3A6
100
AcDbEntity
  8
RACCORDO
100
AcDbLine
 62
250
  6
CONTINUOUS
 10
19.9612951491
 20
24.2038130873
 11
21.1942958118
 21
24.2049354207
  0
LWPOLYLINE
  5
3A7
100
AcDbEntity
  8
RACCORDO
100
AcDbPolyline
 62
250
  6
CONTINUOUS
 90
3
 70
0
 10
18.1217097991
 20
24.2028603068
 10
18.6036741879
 20
24.2030481643
 10
19.9612951491
 20
24.2038130873
  0
LINE
  5
3A8
100
AcDbEntity
  8
RACCORDO
100
AcDbLine
 62
250
  6
CONTINUOUS
 10
17.1120355548
 20
24.20258033
 11
18.1217097991
 21
24.2028603068
  0
LINE
  5
3A9
100
AcDbEntity
  8
RACCORDO
100
AcDbLine
 62
250
  6
CONTINUOUS
 10
-16.0324919873
 20
25.8046683142
 11
-14.296465495
 21
25.8054153269
  0
LINE
  5
3AA
100
AcDbEntity
  8
RACCORDO
100
AcDbLine
 62
250
  6
CONTINUOUS
 10
11.7498603461
 20
24.2024851842
 11
17.1120355548
 21
24.20258033
  0
LINE
  5
3AB
100
AcDbEntity
  8
RACCORDO
100
AcDbLine
 62
250
  6
CONTINUOUS
 10
-14.296465495
 20
25.8054153269
 11
13.6915119592
 21
25.80548274
  0
LINE
  5
3AC
100
AcDbEntity
  8
RACCORDO
100
AcDbLine
 62
250
  6
CONTINUOUS
 10
-19.0683975005
 20
24.2032666795
 11
11.7498603461
 21
24.2024851842
  0
LINE
  5
3AD
100
AcDbEntity
  8
RACCORDO
100
AcDbLine
 62
250
  6
CONTINUOUS
 10
13.6915119592
 20
25.80548274
 11
15.4762853909
 21
25.8050227098
  0
LINE
  5
3AE
100
AcDbEntity
  8
RACCORDO
100
AcDbLine
 62
250
  6
CONTINUOUS
 10
15.4762853909
 20
25.8050227098
 11
16.5818782369
 21
25.8041833483
  0
LINE
  5
3AF
100
AcDbEntity
  8
RACCORDO
100
AcDbLine
 62
250
  6
CONTINUOUS
 10
-21.5765217275
 20
24.2054675089
 11
-19.0683975005
 21
24.2032666795
  0
LINE
  5
3B0
100
AcDbEntity
  8
RACCORDO
100
AcDbLine
 62
250
  6
CONTINUOUS
 10
16.5818782369
 20
25.8041833483
 11
17.6225509241
 21
25.8028259819
  0
LINE
  5
3B1
100
AcDbEntity
  8
RACCORDO
100
AcDbLine
 62
250
  6
CONTINUOUS
 10
-22.3
 20
24.2067709591
 11
-21.5765217275
 21
24.2054675089
  0
LINE
  5
3B2
100
AcDbEntity
  8
RACCORDO
100
AcDbLine
 62
250
  6
CONTINUOUS
 10
17.6225509241
 20
25.8028259819
 11
18.6001229602
 21
25.8008962675
  0
LINE
  5
3B3
100
AcDbEntity
  8
RACCORDO
100
AcDbLine
 62
250
  6
CONTINUOUS
 10
18.6001229602
 20
25.8008962675
 11
19.5179763404
 21
25.7983614354
  0
LINE
  5
3B4
100
AcDbEntity
  8
RACCORDO
100
AcDbLine
 62
250
  6
CONTINUOUS
 10
19.5179763404
 20
25.7983614354
 11
20.3794312262
 21
25.7952578675
  0
LWPOLYLINE
  5
3B5
100
AcDbEntity
  8
RACCORDO
100
AcDbPolyline
 62
250
  6
CONTINUOUS
 90
5
 70
0
 10
20.3794312262
 20
25.7952578675
 10
21.1845134014
 20
25.7916165228
 10
21.5649041569
 20
25.7895801545
 10
21.9306039901
 20
25.7872770122
 10
22.2816460027
 20
25.7845942307
  0
LWPOLYLINE
  5
3B6
100
AcDbEntity
  8
RACCORDO
100
AcDbPolyline
 62
250
  6
CONTINUOUS
 90
73
 70
0
 10
22.3
 20
24.2067709591
 10
22.3446594108
 20
24.2064122664
 10
22.3877612498
 20
24.2050337176
 10
22.4292836879
 20
24.2027404383
 10
22.4685352381
 20
24.1996910108
 10
22.5061797702
 20
24.1959539127
 10
22.5442233376
 20
24.1913725627
 10
22.5829343352
 20
24.1858685
 10
22.6219987578
 20
24.179454132
 10
22.6625260938
 20
24.1719169515
 10
22.7052408419
 20
24.1629962168
 10
22.7493278608
 20
24.1527126945
 10
22.7935896192
 20
24.1412828911
 10
22.8376925705
 20
24.128775124
 10
22.8819084836
 20
24.115087154
 10
22.9259715455
 20
24.1002796576
 10
22.9698927656
 20
24.0843335729
 10
23.0136004795
 20
24.0672559622
 10
23.0567196307
 20
24.0491906144
 10
23.0995355984
 20
24.03003398
 10
23.1417175166
 20
24.0099196391
 10
23.1820172875
 20
23.9894647849
 10
23.2196810696
 20
23.9691953623
 10
23.2555345961
 20
23.9488341709
 10
23.2907021018
 20
23.9278049605
 10
23.3252877617
 20
23.9060449029
 10
23.3591648952
 20
23.8836620753
 10
23.3930424103
 20
23.8602171163
 10
23.4270956235
 20
23.8355369005
 10
23.4610645549
 20
23.8097446351
 10
23.4949728385
 20
23.7827956329
 10
23.5290036643
 20
23.7544814964
 10
23.5628735131
 20
23.7249568317
 10
23.5959399238
 20
23.6947618936
 10
23.6279951413
 20
23.6641149381
 10
23.6592369873
 20
23.6328539399
 10
23.6896697904
 20
23.6009909697
 10
23.7192695418
 20
23.5685655095
 10
23.7480447916
 20
23.5355833833
 10
23.7760444757
 20
23.5020012347
 10
23.8032586681
 20
23.4678356951
 10
23.8296753096
 20
23.4331070398
 10
23.8553321229
 20
23.3977701487
 10
23.8803458192
 20
23.3616480785
 10
23.9045624804
 20
23.3249433747
 10
23.9276456965
 20
23.2882008568
 10
23.9496608769
 20
23.2513895277
 10
23.9705857305
 20
23.2146144287
 10
23.9900387718
 20
23.1786746541
 10
24.0078592705
 20
23.1440976707
 10
24.024372548
 20
23.1104802113
 10
24.0399371072
 20
23.07722875
 10
24.0546207277
 20
23.0442999116
 10
24.0684200179
 20
23.0117931887
 10
24.0815255045
 20
22.9792987657
 10
24.0938783743
 20
22.9470468335
 10
24.1055654592
 20
22.9148416299
 10
24.1169137335
 20
22.881604706
 10
24.1279298708
 20
22.8471198077
 10
24.1384993106
 20
22.8115967879
 10
24.1486797209
 20
22.7745718542
 10
24.158524564
 20
22.735464485
 10
24.1677875672
 20
22.6948431944
 10
24.1761274763
 20
22.6539840446
 10
24.1834942069
 20
22.6131450475
 10
24.1899350503
 20
22.5721136692
 10
24.1953750705
 20
22.5314857334
 10
24.1998298326
 20
22.4914308269
 10
24.2033537199
 20
22.4518304742
 10
24.205976585
 20
22.4128523139
 10
24.2077396488
 20
22.3745659609
 10
24.208685388
 20
22.3369426114
 10
24.208854214
 20
22.3
  0
LWPOLYLINE
  5
3B7
100
AcDbEntity
  8
RACCORDO
100
AcDbPolyline
 62
250
  6
CONTINUOUS
 90
53
 70
0
 10
22.2816459931
 20
25.7845941036
 10
22.3679880483
 20
25.782855581
 10
22.4512864075
 20
25.7790881232
 10
22.531583327
 20
25.7735055467
 10
22.6075797356
 20
25.7663202794
 10
22.6803187892
 20
25.7578000397
 10
22.7532842375
 20
25.7480036986
 10
22.8268415209
 20
25.736945585
 10
22.9002310722
 20
25.7246285339
 10
22.9751361439
 20
25.7107702171
 10
23.0526894625
 20
25.6951180741
 10
23.1319038828
 20
25.6775786453
 10
23.211358034
 20
25.6580738937
 10
23.2907841518
 20
25.6365520085
 10
23.3705314602
 20
25.6129498548
 10
23.4500665506
 20
25.5873191779
 10
23.5293103708
 20
25.5596618756
 10
23.6081413932
 20
25.5300010004
 10
23.6859796281
 20
25.4984918261
 10
23.7633798079
 20
25.4648652708
 10
23.8403927105
 20
25.4290536629
 10
23.915727467
 20
25.3916621279
 10
23.9884188771
 20
25.3532467949
 10
24.0588467654
 20
25.3138186247
 10
24.1276723585
 20
25.2732571252
 10
24.1945037958
 20
25.2319806652
 10
24.2591341173
 20
25.1901332954
 10
24.3224530918
 20
25.1470405778
 10
24.3845416496
 20
25.1026201616
 10
24.4455042674
 20
25.0568554303
 10
24.5061460633
 20
25.0090836141
 10
24.5672056945
 20
24.958608199
 10
24.6280180953
 20
24.9058332471
 10
24.687313345
 20
24.8517786353
 10
24.7446425641
 20
24.7969002723
 10
24.800358831
 20
24.7409209728
 10
24.8544593277
 20
24.6838422852
 10
24.9069079535
 20
24.6257338881
 10
24.9577221716
 20
24.5666166822
 10
25.0069688179
 20
24.5064125381
 10
25.0546215599
 20
24.4451644507
 10
25.1006641132
 20
24.3829179056
 10
25.1451623064
 20
24.3195871271
 10
25.1883148872
 20
24.2548573374
 10
25.2298507329
 20
24.1891228152
 10
25.2691870502
 20
24.1233932823
 10
25.3064141747
 20
24.0576252794
 10
25.3415292018
 20
23.9919920609
 10
25.3739629092
 20
23.9278976109
 10
25.4034694908
 20
23.8662500729
 10
25.430545987
 20
23.8064307182
 10
25.4557598451
 20
23.7475591774
 10
25.4788502392
 20
23.6897296755
  0
LWPOLYLINE
  5
3B8
100
AcDbEntity
  8
RACCORDO
100
AcDbPolyline
 62
7
  6
CONTINUOUS
 90
6
 70
0
 10
22.4688965846
 20
-22.3373247484
 10
22.4808879649
 20
-22.3098548975
 10
22.4897595163
 20
-22.2824422525
 10
22.4957579425
 20
-22.2554695775
 10
22.4991361607
 20
-22.2291980835
 10
22.5001713963
 20
-22.2038648941
  0
LWPOLYLINE
  5
3B9
100
AcDbEntity
  8
RACCORDO
100
AcDbPolyline
 62
7
  6
CONTINUOUS
 90
7
 70
0
 10
22.3280928147
 20
-22.4732784482
 10
22.3584684785
 20
-22.4572207016
 10
22.3865671812
 20
-22.4378879611
 10
22.412010409
 20
-22.4156075809
 10
22.4345857823
 20
-22.3907059797
 10
22.45357191
 20
-22.3643533913
 10
22.4688965846
 20
-22.3373247484
  0
LINE
  5
3BA
100
AcDbEntity
  8
RACCORDO
100
AcDbLine
 62
7
  6
CONTINUOUS
 10
22.2968700703
 20
-22.4854604561
 11
22.3280928147
 21
-22.4732784482
  0
LWPOLYLINE
  5
3BB
100
AcDbEntity
  8
RACCORDO
100
AcDbPolyline
 62
7
  6
CONTINUOUS
 90
6
 70
0
 10
22.3421807705
 20
22.4664094169
 10
22.3141311716
 20
22.4792300451
 10
22.2858750137
 20
22.488808702
 10
22.2579638317
 20
22.4953138287
 10
22.2305396406
 20
22.4990201642
 10
22.2038653186
 20
22.5001718207
  0
LWPOLYLINE
  5
3BC
100
AcDbEntity
  8
RACCORDO
100
AcDbPolyline
 62
7
  6
CONTINUOUS
 90
3
 70
0
 10
22.4856055039
 20
22.296422564
 10
22.4736613959
 20
22.3272514635
 10
22.4580096708
 20
22.3571569294
  0
LWPOLYLINE
  5
3BD
100
AcDbEntity
  8
RACCORDO
100
AcDbPolyline
 62
250
  6
CONTINUOUS
 90
53
 70
0
 10
25.4836826535
 20
-23.6774363505
 10
25.4618986936
 20
-23.7327210433
 10
25.4379924902
 20
-23.7893737074
 10
25.4122842396
 20
-23.847131234
 10
25.3841586685
 20
-23.9069655762
 10
25.3531740085
 20
-23.9693877478
 10
25.31950034
 20
-24.0336150799
 10
25.2834261833
 20
-24.098672277
 10
25.2447393287
 20
-24.1646534431
 10
25.20346664
 20
-24.231286254
 10
25.160408762
 20
-24.2971091164
 10
25.1158551723
 20
-24.3616615569
 10
25.0695658598
 20
-24.4253053167
 10
25.0216513005
 20
-24.4878704003
 10
24.9722117683
 20
-24.5492137337
 10
24.9212033781
 20
-24.6093952636
 10
24.868517695
 20
-24.6685468461
 10
24.8140479732
 20
-24.7267388821
 10
24.7579175999
 20
-24.7838029167
 10
24.7003646876
 20
-24.8395181049
 10
24.6409697367
 20
-24.8942501395
 10
24.580274471
 20
-24.9474802121
 10
24.5200656656
 20
-24.9977938619
 10
24.4616973849
 20
-25.0443328712
 10
24.4038786686
 20
-25.0883498505
 10
24.3444073322
 20
-25.1315816279
 10
24.2826071537
 20
-25.1743776823
 10
24.2188508624
 20
-25.2164160825
 10
24.15230124
 20
-25.2582784504
 10
24.082781665
 20
-25.2999734507
 10
24.0108880634
 20
-25.3408958701
 10
23.9369416969
 20
-25.3806310721
 10
23.8610912939
 20
-25.4189575669
 10
23.7837850821
 20
-25.4555907822
 10
23.705802893
 20
-25.4901133331
 10
23.6268924548
 20
-25.5226280425
 10
23.5468404229
 20
-25.5532583391
 10
23.4665075393
 20
-25.5817566254
 10
23.3861278638
 20
-25.6080896981
 10
23.305562767
 20
-25.6323361615
 10
23.2251438707
 20
-25.6544923717
 10
23.144414627
 20
-25.6746347387
 10
23.0637834025
 20
-25.6927650653
 10
22.9848556989
 20
-25.7089116428
 10
22.9086503048
 20
-25.7231533585
 10
22.8340100349
 20
-25.7357711126
 10
22.759326979
 20
-25.7470851526
 10
22.6854210557
 20
-25.7571184467
 10
22.6118172735
 20
-25.765858663
 10
22.534865441
 20
-25.7732355756
 10
22.4535067886
 20
-25.7789618974
 10
22.369124469
 20
-25.7828206671
 10
22.2816459933
 20
-25.7845941075
  0
LWPOLYLINE
  5
3BE
100
AcDbEntity
  8
RACCORDO
100
AcDbPolyline
 62
7
  6
CONTINUOUS
 90
6
 70
0
 10
22.4580096708
 20
22.3571569294
 10
22.4392981267
 20
22.3847395732
 10
22.4180723862
 20
22.4094832565
 10
22.3945205485
 20
22.4314657416
 10
22.3691352217
 20
22.4504518146
 10
22.3421807705
 20
22.4664094169
  0
LINE
  5
3BF
100
AcDbEntity
  8
RACCORDO
100
AcDbLine
 62
250
  6
CONTINUOUS
 10
25.4788502392
 20
23.6897296755
 11
25.5436701397
 21
23.5163012472
  0
LWPOLYLINE
  5
3C0
100
AcDbEntity
  8
RACCORDO
100
AcDbPolyline
 62
250
  6
CONTINUOUS
 90
18
 70
0
 10
25.5436701397
 20
23.5163012472
 10
25.565697338
 20
23.4563053574
 10
25.5879923504
 20
23.3935064532
 10
25.6105306062
 20
23.3278486728
 10
25.6328260492
 20
23.2598701206
 10
25.6542287923
 20
23.188880701
 10
25.6745269866
 20
23.1139294022
 10
25.693506006
 20
23.0361114738
 10
25.7106374175
 20
22.9578294235
 10
25.7258924408
 20
22.8795050181
 10
25.7393123197
 20
22.8007052054
 10
25.7507149517
 20
22.7226156122
 10
25.76011022
 20
22.6455982267
 10
25.76762314
 20
22.5694390434
 10
25.7733425759
 20
22.4944571352
 10
25.7773625075
 20
22.420776737
 10
25.7797610983
 20
22.3483397089
 10
25.7806206776
 20
22.2771931087
  0
LINE
  5
3C1
100
AcDbEntity
  8
RACCORDO
100
AcDbLine
 62
250
  6
CONTINUOUS
 10
37.0301304086
 20
39.3035703956
 11
37.0277061538
 21
39.3903420495
  0
LINE
  5
3C2
100
AcDbEntity
  8
RACCORDO
100
AcDbLine
 62
250
  6
CONTINUOUS
 10
37.0322146251
 20
39.2107855302
 11
37.0301304086
 21
39.3035703956
  0
LINE
  5
3C3
100
AcDbEntity
  8
RACCORDO
100
AcDbLine
 62
250
  6
CONTINUOUS
 10
37.0339352828
 20
39.1130346841
 11
37.0322146251
 21
39.2107855302
  0
LINE
  5
3C4
100
AcDbEntity
  8
RACCORDO
100
AcDbLine
 62
250
  6
CONTINUOUS
 10
37.0356310155
 20
38.9768887935
 11
37.0339352828
 21
39.1130346841
  0
LINE
  5
3C5
100
AcDbEntity
  8
RACCORDO
100
AcDbLine
 62
250
  6
CONTINUOUS
 10
37.0362125754
 20
38.9070917671
 11
37.0356310155
 21
38.9768887935
  0
LINE
  5
3C6
100
AcDbEntity
  8
RACCORDO
100
AcDbLine
 62
250
  6
CONTINUOUS
 10
37.0
 20
-39.7694281234
 11
37.0
 21
-40.0
  0
LINE
  5
3C7
100
AcDbEntity
  8
RACCORDO
100
AcDbLine
 62
250
  6
CONTINUOUS
 10
37.0
 20
39.7694281234
 11
37.0
 21
40.0
  0
LINE
  5
3C8
100
AcDbEntity
  8
RACCORDO
100
AcDbLine
 62
250
  6
CONTINUOUS
 10
37.0362125764
 20
-38.9070917709
 11
37.0348709282
 21
-39.0456514673
  0
LINE
  5
3C9
100
AcDbEntity
  8
RACCORDO
100
AcDbLine
 62
250
  6
CONTINUOUS
 10
37.0348709282
 20
-39.0456514673
 11
37.0334038511
 21
-39.1461029816
  0
LINE
  5
3CA
100
AcDbEntity
  8
RACCORDO
100
AcDbLine
 62
250
  6
CONTINUOUS
 10
37.0334038511
 20
-39.1461029816
 11
37.0315597564
 21
-39.2423185645
  0
LINE
  5
3CB
100
AcDbEntity
  8
RACCORDO
100
AcDbLine
 62
250
  6
CONTINUOUS
 10
37.0315597564
 20
-39.2423185645
 11
37.0293594576
 21
-39.333212264
  0
LINE
  5
3CC
100
AcDbEntity
  8
RACCORDO
100
AcDbLine
 62
250
  6
CONTINUOUS
 10
37.0293594576
 20
-39.333212264
 11
37.027706807
 21
-39.3903420252
  0
LINE
  5
3CD
100
AcDbEntity
  8
RACCORDO
100
AcDbLine
 62
7
  6
CONTINUOUS
 10
39.9772164043
 20
3.706070796
 11
39.9179680371
 21
3.5572341992
  0
LINE
  5
3CE
100
AcDbEntity
  8
RACCORDO
100
AcDbLine
 62
250
  6
CONTINUOUS
 10
-39.1807795026
 20
37.0467240976
 11
-39.2441221674
 21
37.0449086016
  0
LINE
  5
3CF
100
AcDbEntity
  8
RACCORDO
100
AcDbLine
 62
250
  6
CONTINUOUS
 10
-39.0820234194
 20
37.0490076214
 11
-39.1807795026
 21
37.0467240976
  0
LINE
  5
3D0
100
AcDbEntity
  8
RACCORDO
100
AcDbLine
 62
250
  6
CONTINUOUS
 10
-38.9797655966
 20
37.0507411434
 11
-39.0820234194
 21
37.0490076214
  0
LINE
  5
3D1
100
AcDbEntity
  8
RACCORDO
100
AcDbLine
 62
250
  6
CONTINUOUS
 10
-38.910213797
 20
37.0515813997
 11
-38.9797655966
 21
37.0507411434
  0
LINE
  5
3D2
100
AcDbEntity
  8
RACCORDO
100
AcDbLine
 62
250
  6
CONTINUOUS
 10
40.0
 20
37.0
 11
39.7686319911
 21
37.0
  0
LINE
  5
3D3
100
AcDbEntity
  8
RACCORDO
100
AcDbLine
 62
250
  6
CONTINUOUS
 10
-39.7686319911
 20
37.0
 11
-40.0
 21
37.0
  0
LINE
  5
3D4
100
AcDbEntity
  8
RACCORDO
100
AcDbLine
 62
250
  6
CONTINUOUS
 10
38.910213791
 20
37.0515813975
 11
39.0141704315
 21
37.0502257388
  0
LINE
  5
3D5
100
AcDbEntity
  8
RACCORDO
100
AcDbLine
 62
250
  6
CONTINUOUS
 10
39.0141704315
 20
37.0502257388
 11
39.1153868305
 21
37.0483064082
  0
LINE
  5
3D6
100
AcDbEntity
  8
RACCORDO
100
AcDbLine
 62
250
  6
CONTINUOUS
 10
39.1153868305
 20
37.0483064082
 11
39.1807794679
 21
37.046724087
  0
LINE
  5
3D7
100
AcDbEntity
  8
RACCORDO
100
AcDbLine
 62
250
  6
CONTINUOUS
 10
39.1807794679
 20
37.046724087
 11
39.2441221254
 21
37.0449085897
  0
LINE
  5
3D8
100
AcDbEntity
  8
RACCORDO
100
AcDbLine
 62
7
  6
CONTINUOUS
 10
39.9179680371
 20
-3.5572341992
 11
39.9772164043
 21
-3.706070796
  0
LINE
  5
3D9
100
AcDbEntity
  8
RACCORDO
100
AcDbLine
 62
250
  6
CONTINUOUS
 10
38.949979276
 20
36.2612769806
 11
38.9443826365
 21
36.3405677037
  0
LWPOLYLINE
  5
3DA
100
AcDbEntity
  8
RACCORDO
100
AcDbPolyline
 62
250
  6
CONTINUOUS
 90
15
 70
0
 10
37.0175464722
 20
39.624188922
 10
37.0163868831
 20
39.6421178322
 10
37.0152067284
 20
39.6589531298
 10
37.0140074891
 20
39.6746736845
 10
37.0127906705
 20
39.6892597649
 10
37.0115577996
 20
39.7026930638
 10
37.0103104236
 20
39.7149567208
 10
37.0090501081
 20
39.7260353433
 10
37.0077784348
 20
39.7359150265
 10
37.0064969997
 20
39.7445833701
 10
37.005207411
 20
39.7520294942
 10
37.0039112871
 20
39.758244053
 10
37.0026102547
 20
39.7632192466
 10
37.0013059467
 20
39.7669488304
 10
37.0
 20
39.7694281234
  0
LINE
  5
3DB
100
AcDbEntity
  8
RACCORDO
100
AcDbLine
 62
250
  6
CONTINUOUS
 10
38.9443826365
 20
36.3405677037
 11
38.9388811807
 21
36.4268596771
  0
LINE
  5
3DC
100
AcDbEntity
  8
RACCORDO
100
AcDbLine
 62
250
  6
CONTINUOUS
 10
37.0197981601
 20
39.5851416199
 11
37.0175464722
 21
39.624188922
  0
LINE
  5
3DD
100
AcDbEntity
  8
RACCORDO
100
AcDbLine
 62
250
  6
CONTINUOUS
 10
38.9388811807
 20
36.4268596771
 11
38.9335216096
 21
36.5206855578
  0
LINE
  5
3DE
100
AcDbEntity
  8
RACCORDO
100
AcDbLine
 62
250
  6
CONTINUOUS
 10
38.9335216096
 20
36.5206855578
 11
38.9282423
 21
36.6226840888
  0
LWPOLYLINE
  5
3DF
100
AcDbEntity
  8
RACCORDO
100
AcDbPolyline
 62
250
  6
CONTINUOUS
 90
61
 70
0
 10
38.910213791
 20
37.0515813975
 10
38.9078758301
 20
37.0991482744
 10
38.9043126723
 20
37.1467169912
 10
38.8995298729
 20
37.1942479706
 10
38.8935321242
 20
37.2417071689
 10
38.8863238949
 20
37.2890597369
 10
38.8779109643
 20
37.3362655723
 10
38.8682992376
 20
37.3832904928
 10
38.8574947379
 20
37.4301050725
 10
38.8455043025
 20
37.4766763192
 10
38.8323359462
 20
37.5229694714
 10
38.8179968189
 20
37.5689571045
 10
38.8024919937
 20
37.6146170926
 10
38.7858271773
 20
37.6599259901
 10
38.7680159943
 20
37.7048449994
 10
38.7490760471
 20
37.749329038
 10
38.7290221348
 20
37.7933430783
 10
38.7078648651
 20
37.8368630916
 10
38.685616588
 20
37.8798609314
 10
38.662290375
 20
37.9223082215
 10
38.6379004256
 20
37.964177589
 10
38.6124607669
 20
38.0054423486
 10
38.5859832423
 20
38.0460800497
 10
38.5584873731
 20
38.086059448
 10
38.5299997261
 20
38.1253412983
 10
38.5005442772
 20
38.1638932453
 10
38.4701365341
 20
38.2016973862
 10
38.4387907803
 20
38.238736407
 10
38.406528054
 20
38.274984687
 10
38.373367878
 20
38.3104202474
 10
38.3393209432
 20
38.3450300935
 10
38.3043997431
 20
38.3787983497
 10
38.268632414
 20
38.4116960334
 10
38.2320533029
 20
38.4436906834
 10
38.1946894081
 20
38.4747585498
 10
38.1565619792
 20
38.5048830602
 10
38.1176976505
 20
38.5340435281
 10
38.078123534
 20
38.56221957
 10
38.0378640591
 20
38.5893947735
 10
37.9969417168
 20
38.6155542489
 10
37.9553766826
 20
38.6406844855
 10
37.913200758
 20
38.6647667854
 10
37.870454292
 20
38.6877792529
 10
37.8271720615
 20
38.7097048015
 10
37.7833755212
 20
38.7305350079
 10
37.7390852524
 20
38.7502614081
 10
37.6943307572
 20
38.7688712318
 10
37.649141927
 20
38.7863528673
 10
37.6035393424
 20
38.8026982282
 10
37.5575454602
 20
38.8178979352
 10
37.5111977374
 20
38.8319398294
 10
37.4645392733
 20
38.8448119743
 10
37.4175988841
 20
38.8565074866
 10
37.3704084733
 20
38.8670200619
 10
37.3230163176
 20
38.8763409753
 10
37.2754589153
 20
38.8844653539
 10
37.2277615549
 20
38.8913919336
 10
37.1799557796
 20
38.8971189007
 10
37.1320725775
 20
38.901644826
 10
37.0841460555
 20
38.904969198
 10
37.0362125764
 20
38.9070917709
  0
LINE
  5
3E0
100
AcDbEntity
  8
RACCORDO
100
AcDbLine
 62
250
  6
CONTINUOUS
 10
37.021950492
 20
39.5420071989
 11
37.0197981601
 21
39.5851416199
  0
LINE
  5
3E1
100
AcDbEntity
  8
RACCORDO
100
AcDbLine
 62
250
  6
CONTINUOUS
 10
38.9282423
 20
36.6226840888
 11
38.9230225099
 21
36.7334172338
  0
LINE
  5
3E2
100
AcDbEntity
  8
RACCORDO
100
AcDbLine
 62
250
  6
CONTINUOUS
 10
37.0239926665
 20
39.4950021468
 11
37.021950492
 21
39.5420071989
  0
LINE
  5
3E3
100
AcDbEntity
  8
RACCORDO
100
AcDbLine
 62
250
  6
CONTINUOUS
 10
38.9230225099
 20
36.7334172338
 11
38.9152988538
 21
36.9169422701
  0
LINE
  5
3E4
100
AcDbEntity
  8
RACCORDO
100
AcDbLine
 62
250
  6
CONTINUOUS
 10
38.9152988538
 20
36.9169422701
 11
38.9102137969
 21
37.0515813997
  0
LINE
  5
3E5
100
AcDbEntity
  8
RACCORDO
100
AcDbLine
 62
250
  6
CONTINUOUS
 10
37.0259144352
 20
39.4443623781
 11
37.0239926665
 21
39.4950021468
  0
LINE
  5
3E6
100
AcDbEntity
  8
RACCORDO
100
AcDbLine
 62
250
  6
CONTINUOUS
 10
37.0277061538
 20
39.3903420495
 11
37.0259144352
 21
39.4443623781
  0
LINE
  5
3E7
100
AcDbEntity
  8
RACCORDO
100
AcDbLine
 62
250
  6
CONTINUOUS
 10
38.9740191663
 20
35.3682078875
 11
38.9727589984
 21
35.4547368811
  0
LINE
  5
3E8
100
AcDbEntity
  8
RACCORDO
100
AcDbLine
 62
250
  6
CONTINUOUS
 10
39.0257257101
 20
31.7695856902
 11
38.9740191663
 21
35.3682078875
  0
LWPOLYLINE
  5
3E9
100
AcDbEntity
  8
RACCORDO
100
AcDbPolyline
 62
250
  6
CONTINUOUS
 90
61
 70
0
 10
39.7686319911
 20
37.0
 10
39.7678109064
 20
37.0723450107
 10
39.7650935804
 20
37.1446625144
 10
39.7604804932
 20
37.2169026422
 10
39.7539729178
 20
37.2890190212
 10
39.7455743074
 20
37.3609582799
 10
39.7352912093
 20
37.4326602308
 10
39.7231308698
 20
37.5040717243
 10
39.7091006589
 20
37.5751471114
 10
39.6932100415
 20
37.6458378813
 10
39.6754707082
 20
37.7160904553
 10
39.6558933212
 20
37.7858610824
 10
39.634486524
 20
37.8551161424
 10
39.6112595855
 20
37.923818308
 10
39.5862301425
 20
37.9919085272
 10
39.5594215776
 20
38.0593213297
 10
39.5308551833
 20
38.126003489
 10
39.500547875
 20
38.1919157229
 10
39.4685195513
 20
38.2570147104
 10
39.4347919389
 20
38.3212554935
 10
39.3993880174
 20
38.3845934978
 10
39.3623310114
 20
38.4469867255
 10
39.3236415792
 20
38.5083987866
 10
39.2833500808
 20
38.5687799156
 10
39.2414973203
 20
38.6280699823
 10
39.1981213556
 20
38.6862182401
 10
39.1532455139
 20
38.7431964056
 10
39.1068904241
 20
38.7989794379
 10
39.0590886151
 20
38.8535281486
 10
39.0098723023
 20
38.9068056841
 10
38.9592608738
 20
38.9587898473
 10
38.9072770325
 20
39.009454068
 10
38.8539658493
 20
39.0587512319
 10
38.7993818923
 20
39.1066299754
 10
38.7435695914
 20
39.1530521612
 10
38.686561319
 20
39.1979916502
 10
38.628396121
 20
39.2414179958
 10
38.5691159686
 20
39.2833003008
 10
38.5087602251
 20
39.3236111402
 10
38.4473648536
 20
39.3623264067
 10
38.3849635278
 20
39.399424102
 10
38.3216074009
 20
39.4348730475
 10
38.257360295
 20
39.4686381529
 10
38.1922787338
 20
39.5006920214
 10
38.1263970283
 20
39.5310200117
 10
38.0597468502
 20
39.5596084297
 10
37.9923754048
 20
39.5864374702
 10
37.9243280552
 20
39.6114894494
 10
37.8556334361
 20
39.6347531563
 10
37.7863258766
 20
39.6562152072
 10
37.7164652452
 20
39.675855286
 10
37.6461191295
 20
39.6936537434
 10
37.575334781
 20
39.7095990335
 10
37.5041625242
 20
39.7236802143
 10
37.4326758306
 20
39.7358838987
 10
37.3609321384
 20
39.7462030312
 10
37.2889735462
 20
39.7546342767
 10
37.2168510714
 20
39.7611737922
 10
37.1446149774
 20
39.7658194388
 10
37.0723146979
 20
39.768570676
 10
37.0
 20
39.7694281234
  0
LINE
  5
3EA
100
AcDbEntity
  8
RACCORDO
100
AcDbLine
 62
250
  6
CONTINUOUS
 10
38.9727589984
 20
35.4547368811
 11
38.9661073698
 21
35.9032305328
  0
LINE
  5
3EB
100
AcDbEntity
  8
RACCORDO
100
AcDbLine
 62
250
  6
CONTINUOUS
 10
39.0381400619
 20
30.6761287949
 11
39.0257257101
 21
31.7695856902
  0
LINE
  5
3EC
100
AcDbEntity
  8
RACCORDO
100
AcDbLine
 62
250
  6
CONTINUOUS
 10
39.0467434447
 20
29.7525091819
 11
39.0381400619
 21
30.6761287949
  0
LWPOLYLINE
  5
3ED
100
AcDbEntity
  8
RACCORDO
100
AcDbPolyline
 62
250
  6
CONTINUOUS
 90
7
 70
0
 10
38.9661073698
 20
35.9032305328
 10
38.9653030776
 20
35.9938560024
 10
38.9649167778
 20
36.0243048362
 10
38.9641276371
 20
36.0553732903
 10
38.9626926618
 20
36.0871067827
 10
38.9606507619
 20
36.1195761251
 10
38.949979276
 20
36.2612769806
  0
LINE
  5
3EE
100
AcDbEntity
  8
RACCORDO
100
AcDbLine
 62
250
  6
CONTINUOUS
 10
39.0530674177
 20
28.9137464994
 11
39.0467434447
 21
29.7525091819
  0
LINE
  5
3EF
100
AcDbEntity
  8
RACCORDO
100
AcDbLine
 62
250
  6
CONTINUOUS
 10
39.0586135357
 20
27.9752445493
 11
39.0530674177
 21
28.9137464994
  0
LINE
  5
3F0
100
AcDbEntity
  8
RACCORDO
100
AcDbLine
 62
250
  6
CONTINUOUS
 10
39.0631747281
 20
26.9269171812
 11
39.0586135357
 21
27.9752445493
  0
LINE
  5
3F1
100
AcDbEntity
  8
RACCORDO
100
AcDbLine
 62
250
  6
CONTINUOUS
 10
39.0677818915
 20
25.4484182036
 11
39.0631747281
 21
26.9269171812
  0
LINE
  5
3F2
100
AcDbEntity
  8
RACCORDO
100
AcDbLine
 62
250
  6
CONTINUOUS
 10
39.7686319911
 20
-37.0
 11
39.7684525556
 21
-36.9333420954
  0
LINE
  5
3F3
100
AcDbEntity
  8
RACCORDO
100
AcDbLine
 62
250
  6
CONTINUOUS
 10
39.7684525556
 20
-36.9333420954
 11
39.7681301577
 21
-36.8073612571
  0
LINE
  5
3F4
100
AcDbEntity
  8
RACCORDO
100
AcDbLine
 62
250
  6
CONTINUOUS
 10
39.0748809955
 20
22.6382541672
 11
39.0677818915
 21
25.4484182036
  0
LINE
  5
3F5
100
AcDbEntity
  8
RACCORDO
100
AcDbLine
 62
250
  6
CONTINUOUS
 10
39.7681301577
 20
-36.8073612571
 11
39.7677377438
 21
-36.6367274272
  0
LINE
  5
3F6
100
AcDbEntity
  8
RACCORDO
100
AcDbLine
 62
250
  6
CONTINUOUS
 10
39.0803637191
 20
20.1036229098
 11
39.0748809955
 21
22.6382541672
  0
LINE
  5
3F7
100
AcDbEntity
  8
RACCORDO
100
AcDbLine
 62
250
  6
CONTINUOUS
 10
39.7677377438
 20
-36.6367274272
 11
39.7675287234
 21
-36.5343067236
  0
LINE
  5
3F8
100
AcDbEntity
  8
RACCORDO
100
AcDbLine
 62
250
  6
CONTINUOUS
 10
39.0847987613
 20
17.658609488
 11
39.0803637191
 21
20.1036229098
  0
LINE
  5
3F9
100
AcDbEntity
  8
RACCORDO
100
AcDbLine
 62
250
  6
CONTINUOUS
 10
39.7675287234
 20
-36.5343067236
 11
39.76728258
 21
-36.3963757579
  0
LINE
  5
3FA
100
AcDbEntity
  8
RACCORDO
100
AcDbLine
 62
250
  6
CONTINUOUS
 10
39.0889084683
 20
14.8618746336
 11
39.0847987613
 21
17.658609488
  0
LINE
  5
3FB
100
AcDbEntity
  8
RACCORDO
100
AcDbLine
 62
250
  6
CONTINUOUS
 10
39.76728258
 20
-36.3963757579
 11
39.7671057533
 21
-36.2757686377
  0
LINE
  5
3FC
100
AcDbEntity
  8
RACCORDO
100
AcDbLine
 62
250
  6
CONTINUOUS
 10
39.7671057533
 20
-36.2757686377
 11
39.7670196596
 21
-36.2035851884
  0
LWPOLYLINE
  5
3FD
100
AcDbEntity
  8
RACCORDO
100
AcDbPolyline
 62
250
  6
CONTINUOUS
 90
3
 70
0
 10
39.7670196596
 20
-36.2035851884
 10
39.7669284039
 20
-36.1048036131
 10
39.7669059007
 20
-36.0737026054
  0
LINE
  5
3FE
100
AcDbEntity
  8
RACCORDO
100
AcDbLine
 62
250
  6
CONTINUOUS
 10
39.7669059007
 20
-36.0737026054
 11
39.7641768095
 21
-31.6152846496
  0
LINE
  5
3FF
100
AcDbEntity
  8
RACCORDO
100
AcDbLine
 62
250
  6
CONTINUOUS
 10
39.7641768095
 20
-31.6152846496
 11
39.7631700508
 21
-28.6821697394
  0
LINE
  5
400
100
AcDbEntity
  8
RACCORDO
100
AcDbLine
 62
250
  6
CONTINUOUS
 10
39.0969042886
 20
1.9460695493
 11
39.0889084683
 21
14.8618746336
  0
LINE
  5
401
100
AcDbEntity
  8
RACCORDO
100
AcDbLine
 62
250
  6
CONTINUOUS
 10
39.7631700508
 20
-28.6821697394
 11
39.7620942039
 21
-19.6372921433
  0
LINE
  5
402
100
AcDbEntity
  8
RACCORDO
100
AcDbLine
 62
250
  6
CONTINUOUS
 10
39.7620942039
 20
-19.6372921433
 11
39.7615005984
 21
-7.9924206507
  0
LINE
  5
403
100
AcDbEntity
  8
RACCORDO
100
AcDbLine
 62
250
  6
CONTINUOUS
 10
39.7615005984
 20
-7.9924206507
 11
39.7614207142
 21
0.9853972928
  0
LINE
  5
404
100
AcDbEntity
  8
RACCORDO
100
AcDbLine
 62
7
  6
CONTINUOUS
 10
39.8951844414
 20
3.0615117685
 11
39.8951844414
 21
-3.0615117685
  0
LINE
  5
405
100
AcDbEntity
  8
RACCORDO
100
AcDbLine
 62
7
  6
CONTINUOUS
 10
40.0
 20
-36.9999999999
 11
40.0
 21
-4.2017932267
  0
LINE
  5
406
100
AcDbEntity
  8
RACCORDO
100
AcDbLine
 62
7
  6
CONTINUOUS
 10
40.0
 20
4.2017932267
 11
40.0
 21
36.9999999999
  0
LWPOLYLINE
  5
407
100
AcDbEntity
  8
RACCORDO
100
AcDbPolyline
 62
250
  6
CONTINUOUS
 90
3
 70
0
 10
39.7614207142
 20
0.9853972928
 10
39.761701808
 20
13.6317547203
 10
39.7631706693
 20
28.6848952825
  0
LINE
  5
408
100
AcDbEntity
  8
RACCORDO
100
AcDbLine
 62
250
  6
CONTINUOUS
 10
39.0958628002
 20
-6.3808750462
 11
39.0969042886
 21
1.9460695493
  0
LINE
  5
409
100
AcDbEntity
  8
RACCORDO
100
AcDbLine
 62
250
  6
CONTINUOUS
 10
39.7631706693
 20
28.6848952825
 11
39.7647813559
 21
32.7745305132
  0
LINE
  5
40A
100
AcDbEntity
  8
RACCORDO
100
AcDbLine
 62
250
  6
CONTINUOUS
 10
39.0924382786
 20
-11.6598168281
 11
39.0958628002
 21
-6.3808750462
  0
LWPOLYLINE
  5
40B
100
AcDbEntity
  8
RACCORDO
100
AcDbPolyline
 62
250
  6
CONTINUOUS
 90
3
 70
0
 10
39.0896701934
 20
-14.2552920026
 10
39.0904060621
 20
-13.6324876749
 10
39.0924382786
 20
-11.6598168281
  0
LINE
  5
40C
100
AcDbEntity
  8
RACCORDO
100
AcDbLine
 62
250
  6
CONTINUOUS
 10
39.0881253574
 20
-15.4510080507
 11
39.0896701934
 21
-14.2552920026
  0
LWPOLYLINE
  5
40D
100
AcDbEntity
  8
RACCORDO
100
AcDbPolyline
 62
250
  6
CONTINUOUS
 90
3
 70
0
 10
39.0856563785
 20
-17.1278430956
 10
39.0864964347
 20
-16.5841910313
 10
39.0881253574
 20
-15.4510080507
  0
LINE
  5
40E
100
AcDbEntity
  8
RACCORDO
100
AcDbLine
 62
250
  6
CONTINUOUS
 10
39.0839318301
 20
-18.1729913922
 11
39.0856563785
 21
-17.1278430956
  0
LWPOLYLINE
  5
40F
100
AcDbEntity
  8
RACCORDO
100
AcDbPolyline
 62
250
  6
CONTINUOUS
 90
3
 70
0
 10
39.0812685571
 20
-19.638756006
 10
39.082164142
 20
-19.1630655553
 10
39.0839318301
 20
-18.1729913922
  0
LWPOLYLINE
  5
410
100
AcDbEntity
  8
RACCORDO
100
AcDbPolyline
 62
250
  6
CONTINUOUS
 90
3
 70
0
 10
39.0785513234
 20
-20.9915281536
 10
39.0794616316
 20
-20.5524399533
 10
39.0812685571
 20
-19.638756006
  0
LINE
  5
411
100
AcDbEntity
  8
RACCORDO
100
AcDbLine
 62
250
  6
CONTINUOUS
 10
39.7647813559
 20
32.7745305132
 11
39.7676284882
 21
36.5845945477
  0
LINE
  5
412
100
AcDbEntity
  8
RACCORDO
100
AcDbLine
 62
250
  6
CONTINUOUS
 10
39.0767220288
 20
-21.8350584308
 11
39.0785513234
 21
-20.9915281536
  0
LINE
  5
413
100
AcDbEntity
  8
RACCORDO
100
AcDbLine
 62
250
  6
CONTINUOUS
 10
39.0748887839
 20
-22.6349353984
 11
39.0767220288
 21
-21.8350584308
  0
LWPOLYLINE
  5
414
100
AcDbEntity
  8
RACCORDO
100
AcDbPolyline
 62
250
  6
CONTINUOUS
 90
3
 70
0
 10
39.0704212493
 20
-24.4592894853
 10
39.0712982997
 20
-24.113257954
 10
39.0748887839
 20
-22.6349353984
  0
LINE
  5
415
100
AcDbEntity
  8
RACCORDO
100
AcDbLine
 62
250
  6
CONTINUOUS
 10
39.0686731009
 20
-25.1245281475
 11
39.0704212493
 21
-24.4592894853
  0
LINE
  5
416
100
AcDbEntity
  8
RACCORDO
100
AcDbLine
 62
250
  6
CONTINUOUS
 10
39.7676284882
 20
36.5845945477
 11
39.7686319911
 21
37.0
  0
LINE
  5
417
100
AcDbEntity
  8
RACCORDO
100
AcDbLine
 62
250
  6
CONTINUOUS
 10
39.0669057961
 20
-25.7560052551
 11
39.0686731009
 21
-25.1245281475
  0
LINE
  5
418
100
AcDbEntity
  8
RACCORDO
100
AcDbLine
 62
250
  6
CONTINUOUS
 10
39.0610373604
 20
-27.4621370862
 11
39.0669057961
 21
-25.7560052551
  0
LINE
  5
419
100
AcDbEntity
  8
RACCORDO
100
AcDbLine
 62
250
  6
CONTINUOUS
 10
39.0559708088
 20
-28.4548380986
 11
39.0610373604
 21
-27.4621370862
  0
LINE
  5
41A
100
AcDbEntity
  8
RACCORDO
100
AcDbLine
 62
250
  6
CONTINUOUS
 10
39.0500048945
 20
-29.3424926339
 11
39.0559708088
 21
-28.4548380986
  0
LINE
  5
41B
100
AcDbEntity
  8
RACCORDO
100
AcDbLine
 62
250
  6
CONTINUOUS
 10
39.0416664615
 20
-30.3198779049
 11
39.0500048945
 21
-29.3424926339
  0
LINE
  5
41C
100
AcDbEntity
  8
RACCORDO
100
AcDbLine
 62
250
  6
CONTINUOUS
 10
38.9653237569
 20
-35.9934524618
 11
38.9664476961
 21
-35.8723311454
  0
LINE
  5
41D
100
AcDbEntity
  8
RACCORDO
100
AcDbLine
 62
250
  6
CONTINUOUS
 10
39.0292848622
 20
-31.4764379038
 11
39.0416664615
 21
-30.3198779049
  0
LINE
  5
41E
100
AcDbEntity
  8
RACCORDO
100
AcDbLine
 62
250
  6
CONTINUOUS
 10
39.0138403546
 20
-32.6675513248
 11
39.0292848622
 21
-31.4764379038
  0
LINE
  5
41F
100
AcDbEntity
  8
RACCORDO
100
AcDbLine
 62
250
  6
CONTINUOUS
 10
39.0090981604
 20
-33.0034279299
 11
39.0138403546
 21
-32.6675513248
  0
LWPOLYLINE
  5
420
100
AcDbEntity
  8
RACCORDO
100
AcDbPolyline
 62
250
  6
CONTINUOUS
 90
3
 70
0
 10
38.9727733439
 20
-35.4537482933
 10
38.9740354536
 20
-35.3670917712
 10
38.9746993472
 20
-35.3216275095
  0
LWPOLYLINE
  5
421
100
AcDbEntity
  8
RACCORDO
100
AcDbPolyline
 62
250
  6
CONTINUOUS
 90
3
 70
0
 10
39.0031965021
 20
-33.4107149453
 10
39.0046253567
 20
-33.3130111438
 10
39.0090981604
 20
-33.0034279299
  0
LWPOLYLINE
  5
422
100
AcDbEntity
  8
RACCORDO
100
AcDbPolyline
 62
250
  6
CONTINUOUS
 90
3
 70
0
 10
38.9746993472
 20
-35.3216275095
 10
38.9760985477
 20
-35.2264701866
 10
38.9768329371
 20
-35.1768440386
  0
LWPOLYLINE
  5
423
100
AcDbEntity
  8
RACCORDO
100
AcDbPolyline
 62
250
  6
CONTINUOUS
 90
4
 70
0
 10
38.9977952815
 20
-33.776573865
 10
38.9990980922
 20
-33.6887266891
 10
39.0004316258
 20
-33.5985725833
 10
39.0031965021
 20
-33.4107149453
  0
LWPOLYLINE
  5
424
100
AcDbEntity
  8
RACCORDO
100
AcDbPolyline
 62
250
  6
CONTINUOUS
 90
3
 70
0
 10
38.9768329371
 20
-35.1768440386
 10
38.9783693708
 20
-35.0736071109
 10
38.9791723932
 20
-35.0199662125
  0
LINE
  5
425
100
AcDbEntity
  8
RACCORDO
100
AcDbLine
 62
250
  6
CONTINUOUS
 10
38.9791723932
 20
-35.0199662125
 11
38.9977952815
 21
-33.776573865
  0
LWPOLYLINE
  5
426
100
AcDbEntity
  8
RACCORDO
100
AcDbPolyline
 62
250
  6
CONTINUOUS
 90
3
 70
0
 10
38.9664476961
 20
-35.8723311454
 10
38.968757456
 20
-35.7139334227
 10
38.9727733439
 20
-35.4537482933
  0
LINE
  5
427
100
AcDbEntity
  8
RACCORDO
100
AcDbLine
 62
250
  6
CONTINUOUS
 10
37.027706807
 20
-39.3903420252
 11
37.0259150983
 21
-39.4443623501
  0
LINE
  5
428
100
AcDbEntity
  8
RACCORDO
100
AcDbLine
 62
250
  6
CONTINUOUS
 10
37.0259150983
 20
-39.4443623501
 11
37.0239933239
 21
-39.4950021152
  0
LINE
  5
429
100
AcDbEntity
  8
RACCORDO
100
AcDbLine
 62
250
  6
CONTINUOUS
 10
38.9102137943
 20
-37.0515813987
 11
38.9178679864
 21
-36.853171187
  0
LINE
  5
42A
100
AcDbEntity
  8
RACCORDO
100
AcDbLine
 62
250
  6
CONTINUOUS
 10
38.9178679864
 20
-36.853171187
 11
38.9230300271
 21
-36.7332519783
  0
LINE
  5
42B
100
AcDbEntity
  8
RACCORDO
100
AcDbLine
 62
250
  6
CONTINUOUS
 10
37.0239933239
 20
-39.4950021152
 11
37.0219511291
 21
-39.5420071639
  0
LINE
  5
42C
100
AcDbEntity
  8
RACCORDO
100
AcDbLine
 62
250
  6
CONTINUOUS
 10
38.9230300271
 20
-36.7332519783
 11
38.9282521253
 21
-36.6224783637
  0
LINE
  5
42D
100
AcDbEntity
  8
RACCORDO
100
AcDbLine
 62
250
  6
CONTINUOUS
 10
37.0219511291
 20
-39.5420071639
 11
37.0197987634
 21
-39.5851415818
  0
LINE
  5
42E
100
AcDbEntity
  8
RACCORDO
100
AcDbLine
 62
250
  6
CONTINUOUS
 10
38.9282521253
 20
-36.6224783637
 11
38.9335342892
 21
-36.520453432
  0
LINE
  5
42F
100
AcDbEntity
  8
RACCORDO
100
AcDbLine
 62
250
  6
CONTINUOUS
 10
38.9335342892
 20
-36.520453432
 11
38.9388970664
 21
-36.4266101734
  0
LWPOLYLINE
  5
430
100
AcDbEntity
  8
RACCORDO
100
AcDbPolyline
 62
250
  6
CONTINUOUS
 90
16
 70
0
 10
37.0197987634
 20
-39.5851415818
 10
37.0175470294
 20
-39.6241888809
 10
37.016387413
 20
-39.6421177898
 10
37.0152072283
 20
-39.6589530861
 10
37.0140079567
 20
-39.6746736396
 10
37.0127911035
 20
-39.6892597189
 10
37.0115581958
 20
-39.7026930168
 10
37.0103107812
 20
-39.7149566728
 10
37.0090504252
 20
-39.7260352945
 10
37.0077787099
 20
-39.7359149769
 10
37.0064972313
 20
-39.7445833198
 10
37.005207598
 20
-39.7520294433
 10
37.0039114284
 20
-39.7582440017
 10
37.0026103495
 20
-39.7632191949
 10
37.0013059944
 20
-39.7669487785
 10
37.0
 20
-39.7694280713
  0
LWPOLYLINE
  5
431
100
AcDbEntity
  8
RACCORDO
100
AcDbPolyline
 62
250
  6
CONTINUOUS
 90
5
 70
0
 10
38.960651615
 20
-36.1192662916
 10
38.9626869122
 20
-36.0867784384
 10
38.9641402112
 20
-36.0550128956
 10
38.9649422269
 20
-36.0239178434
 10
38.9653237569
 20
-35.9934524618
  0
LINE
  5
432
100
AcDbEntity
  8
RACCORDO
100
AcDbLine
 62
250
  6
CONTINUOUS
 10
38.9388970664
 20
-36.4266101734
 11
38.9443990923
 21
-36.3403022542
  0
LINE
  5
433
100
AcDbEntity
  8
RACCORDO
100
AcDbLine
 62
250
  6
CONTINUOUS
 10
38.9443990923
 20
-36.3403022542
 11
38.9500010063
 21
-36.2609913959
  0
LINE
  5
434
100
AcDbEntity
  8
RACCORDO
100
AcDbLine
 62
250
  6
CONTINUOUS
 10
38.9500010063
 20
-36.2609913959
 11
38.960651615
 21
-36.1192662916
  0
LWPOLYLINE
  5
435
100
AcDbEntity
  8
RACCORDO
100
AcDbPolyline
 62
250
  6
CONTINUOUS
 90
19
 70
0
 10
-39.5423832882
 20
37.031214586
 10
-39.5643360352
 20
37.0297015918
 10
-39.585297444
 20
37.0281515296
 10
-39.6052413543
 20
37.0265663339
 10
-39.6241428759
 20
37.0249479831
 10
-39.6419784196
 20
37.0232984968
 10
-39.6587257262
 20
37.0216199337
 10
-39.674363895
 20
37.0199143886
 10
-39.6888734093
 20
37.0181839901
 10
-39.7022361611
 20
37.0164308977
 10
-39.7144354735
 20
37.0146572994
 10
-39.7254561216
 20
37.0128654085
 10
-39.7352843514
 20
37.0110574614
 10
-39.7439078973
 20
37.0092357145
 10
-39.7513159969
 20
37.0074024412
 10
-39.7574994048
 20
37.0055599297
 10
-39.7624504041
 20
37.0037104792
 10
-39.7661628158
 20
37.001856398
 10
-39.7686320069
 20
37.0
  0
LINE
  5
436
100
AcDbEntity
  8
RACCORDO
100
AcDbLine
 62
250
  6
CONTINUOUS
 10
-39.4956145713
 20
37.0341218661
 11
-39.5423832882
 21
37.031214586
  0
LINE
  5
437
100
AcDbEntity
  8
RACCORDO
100
AcDbLine
 62
250
  6
CONTINUOUS
 10
-39.4452246924
 20
37.0368588611
 11
-39.4956145713
 21
37.0341218661
  0
LINE
  5
438
100
AcDbEntity
  8
RACCORDO
100
AcDbLine
 62
250
  6
CONTINUOUS
 10
-39.3914651216
 20
37.0394119121
 11
-39.4452246924
 21
37.0368588611
  0
LINE
  5
439
100
AcDbEntity
  8
RACCORDO
100
AcDbLine
 62
250
  6
CONTINUOUS
 10
-36.5756314746
 20
38.9245016537
 11
-36.6731796278
 21
38.9199672365
  0
LWPOLYLINE
  5
43A
100
AcDbEntity
  8
RACCORDO
100
AcDbPolyline
 62
250
  6
CONTINUOUS
 90
61
 70
0
 10
-37.0362125764
 20
38.9070917709
 10
-37.0841460537
 20
38.9049691981
 10
-37.132072577
 20
38.901644826
 10
-37.1799557808
 20
38.8971189006
 10
-37.2277615566
 20
38.8913919335
 10
-37.2754589167
 20
38.8844653537
 10
-37.3230163186
 20
38.8763409751
 10
-37.3704084741
 20
38.8670200617
 10
-37.417598885
 20
38.8565074864
 10
-37.4645392743
 20
38.844811974
 10
-37.5111977385
 20
38.8319398291
 10
-37.5575454613
 20
38.8178979349
 10
-37.6035393434
 20
38.8026982278
 10
-37.649141928
 20
38.7863528669
 10
-37.6943307582
 20
38.7688712314
 10
-37.7390852534
 20
38.7502614077
 10
-37.7833755221
 20
38.7305350075
 10
-37.8271720624
 20
38.709704801
 10
-37.870454293
 20
38.6877792524
 10
-37.9132007589
 20
38.6647667849
 10
-37.9553766835
 20
38.6406844849
 10
-37.9969417178
 20
38.6155542483
 10
-38.03786406
 20
38.5893947729
 10
-38.0781235349
 20
38.5622195694
 10
-38.1176976514
 20
38.5340435274
 10
-38.1565619801
 20
38.5048830595
 10
-38.194689409
 20
38.474758549
 10
-38.2320533038
 20
38.4436906826
 10
-38.2686324148
 20
38.4116960326
 10
-38.3043997439
 20
38.3787983489
 10
-38.339320944
 20
38.3450300927
 10
-38.3733678789
 20
38.3104202465
 10
-38.4065280548
 20
38.2749846861
 10
-38.4387907811
 20
38.2387364061
 10
-38.4701365349
 20
38.2016973853
 10
-38.500544278
 20
38.1638932443
 10
-38.5299997268
 20
38.1253412974
 10
-38.5584873738
 20
38.0860594471
 10
-38.585983243
 20
38.0460800487
 10
-38.6124607675
 20
38.0054423476
 10
-38.6379004261
 20
37.9641775881
 10
-38.6622903756
 20
37.9223082206
 10
-38.6856165884
 20
37.8798609305
 10
-38.7078648656
 20
37.8368630907
 10
-38.7290221352
 20
37.7933430773
 10
-38.7490760475
 20
37.749329037
 10
-38.7680159947
 20
37.7048449984
 10
-38.7858271777
 20
37.6599259891
 10
-38.8024919941
 20
37.6146170916
 10
-38.8179968192
 20
37.5689571034
 10
-38.8323359465
 20
37.5229694703
 10
-38.8455043028
 20
37.4766763182
 10
-38.8574947382
 20
37.4301050715
 10
-38.8682992378
 20
37.3832904919
 10
-38.8779109645
 20
37.3362655713
 10
-38.8863238951
 20
37.2890597354
 10
-38.8935321244
 20
37.2417071671
 10
-38.8995298731
 20
37.1942479692
 10
-38.9043126723
 20
37.1467169912
 10
-38.90787583
 20
37.0991482757
 10
-38.910213791
 20
37.0515813975
  0
LINE
  5
43B
100
AcDbEntity
  8
RACCORDO
100
AcDbLine
 62
250
  6
CONTINUOUS
 10
-39.3346041459
 20
37.041768278
 11
-39.3914651216
 21
37.0394119121
  0
LINE
  5
43C
100
AcDbEntity
  8
RACCORDO
100
AcDbLine
 62
250
  6
CONTINUOUS
 10
-36.6731796278
 20
38.9199672365
 11
-36.848900101
 21
38.9133985873
  0
LWPOLYLINE
  5
43D
100
AcDbEntity
  8
RACCORDO
100
AcDbPolyline
 62
250
  6
CONTINUOUS
 90
3
 70
0
 10
-39.2441221674
 20
37.0449086016
 10
-39.2749255294
 20
37.0439161994
 10
-39.3346041459
 20
37.041768278
  0
LINE
  5
43E
100
AcDbEntity
  8
RACCORDO
100
AcDbLine
 62
250
  6
CONTINUOUS
 10
-36.848900101
 20
38.9133985873
 11
-37.0362125816
 21
38.9070917904
  0
LINE
  5
43F
100
AcDbEntity
  8
RACCORDO
100
AcDbLine
 62
250
  6
CONTINUOUS
 10
-31.9973053327
 20
38.9915446187
 11
-32.186468215
 21
38.9884607654
  0
LINE
  5
440
100
AcDbEntity
  8
RACCORDO
100
AcDbLine
 62
250
  6
CONTINUOUS
 10
-30.9546877755
 20
39.0093257155
 11
-31.9973053327
 21
38.9915446187
  0
LWPOLYLINE
  5
441
100
AcDbEntity
  8
RACCORDO
100
AcDbPolyline
 62
250
  6
CONTINUOUS
 90
3
 70
0
 10
-30.2440553403
 20
39.0200418875
 10
-30.4883973226
 20
39.0165934412
 10
-30.9546877755
 20
39.0093257155
  0
LINE
  5
442
100
AcDbEntity
  8
RACCORDO
100
AcDbLine
 62
250
  6
CONTINUOUS
 10
-34.8206366924
 20
38.9514095008
 11
-35.7047258405
 21
38.9395543075
  0
LINE
  5
443
100
AcDbEntity
  8
RACCORDO
100
AcDbLine
 62
250
  6
CONTINUOUS
 10
-35.7047258405
 20
38.9395543075
 11
-35.9241155562
 21
38.9367558839
  0
LWPOLYLINE
  5
444
100
AcDbEntity
  8
RACCORDO
100
AcDbPolyline
 62
250
  6
CONTINUOUS
 90
3
 70
0
 10
-32.186468215
 20
38.9884607654
 10
-32.5459915775
 20
38.983759467
 10
-34.8206366924
 20
38.9514095008
  0
LWPOLYLINE
  5
445
100
AcDbEntity
  8
RACCORDO
100
AcDbPolyline
 62
250
  6
CONTINUOUS
 90
61
 70
0
 10
-37.0
 20
39.7694281234
 10
-37.0723146979
 20
39.768570676
 10
-37.1446149774
 20
39.7658194388
 10
-37.2168510714
 20
39.7611737922
 10
-37.2889735462
 20
39.7546342767
 10
-37.3609321384
 20
39.7462030312
 10
-37.4326758306
 20
39.7358838987
 10
-37.5041625242
 20
39.7236802143
 10
-37.5753347811
 20
39.7095990335
 10
-37.6461191295
 20
39.6936537434
 10
-37.7164652452
 20
39.675855286
 10
-37.7863258766
 20
39.6562152072
 10
-37.8556334362
 20
39.6347531563
 10
-37.9243280553
 20
39.6114894493
 10
-37.9923754049
 20
39.5864374701
 10
-38.0597468503
 20
39.5596084297
 10
-38.1263970284
 20
39.5310200117
 10
-38.1922787338
 20
39.5006920214
 10
-38.257360295
 20
39.4686381529
 10
-38.321607401
 20
39.4348730475
 10
-38.3849635279
 20
39.3994241019
 10
-38.4473648537
 20
39.3623264066
 10
-38.5087602252
 20
39.3236111402
 10
-38.5691159687
 20
39.2833003007
 10
-38.6283961211
 20
39.2414179957
 10
-38.6865613191
 20
39.1979916502
 10
-38.7435695915
 20
39.1530521611
 10
-38.7993818924
 20
39.1066299754
 10
-38.8539658494
 20
39.0587512318
 10
-38.9072770326
 20
39.0094540679
 10
-38.9592608739
 20
38.9587898472
 10
-39.0098723024
 20
38.906805684
 10
-39.0590886152
 20
38.8535281485
 10
-39.1068904243
 20
38.7989794378
 10
-39.153245514
 20
38.7431964055
 10
-39.1981213558
 20
38.6862182399
 10
-39.2414973204
 20
38.6280699822
 10
-39.2833500808
 20
38.5687799154
 10
-39.3236415793
 20
38.5083987865
 10
-39.3623310115
 20
38.4469867255
 10
-39.3993880174
 20
38.3845934978
 10
-39.4347919388
 20
38.3212554936
 10
-39.4685195512
 20
38.2570147105
 10
-39.5005478749
 20
38.191915723
 10
-39.5308551833
 20
38.1260034891
 10
-39.5594215776
 20
38.0593213298
 10
-39.5862301425
 20
37.9919085273
 10
-39.6112595854
 20
37.9238183081
 10
-39.634486524
 20
37.8551161425
 10
-39.6558933212
 20
37.7858610824
 10
-39.6754707082
 20
37.7160904554
 10
-39.6932100415
 20
37.6458378813
 10
-39.7091006589
 20
37.5751471115
 10
-39.7231308697
 20
37.5040717243
 10
-39.7352912093
 20
37.4326602309
 10
-39.7455743074
 20
37.3609582799
 10
-39.7539729178
 20
37.2890190212
 10
-39.7604804932
 20
37.2169026422
 10
-39.7650935804
 20
37.1446625144
 10
-39.7678109064
 20
37.0723450107
 10
-39.7686319911
 20
37.0
  0
LINE
  5
446
100
AcDbEntity
  8
RACCORDO
100
AcDbLine
 62
250
  6
CONTINUOUS
 10
-29.7324183838
 20
39.0260852895
 11
-30.2440553403
 21
39.0200418875
  0
LINE
  5
447
100
AcDbEntity
  8
RACCORDO
100
AcDbLine
 62
250
  6
CONTINUOUS
 10
-26.3130142119
 20
39.0659268694
 11
-29.7324183838
 21
39.0260852895
  0
LWPOLYLINE
  5
448
100
AcDbEntity
  8
RACCORDO
100
AcDbPolyline
 62
250
  6
CONTINUOUS
 90
8
 70
0
 10
-35.9241155562
 20
38.9367558839
 10
-36.2472901196
 20
38.9327687169
 10
-36.3056843758
 20
38.9321926951
 10
-36.3624495892
 20
38.9313247852
 10
-36.4177882024
 20
38.9300299944
 10
-36.4717668912
 20
38.9284450312
 10
-36.5244275701
 20
38.926638699
 10
-36.5756314746
 20
38.9245016537
  0
LINE
  5
449
100
AcDbEntity
  8
RACCORDO
100
AcDbLine
 62
250
  6
CONTINUOUS
 10
-25.5603421517
 20
39.0738034704
 11
-26.3130142119
 21
39.0659268694
  0
LINE
  5
44A
100
AcDbEntity
  8
RACCORDO
100
AcDbLine
 62
250
  6
CONTINUOUS
 10
-24.7596422353
 20
39.081292263
 11
-25.5603421517
 21
39.0738034704
  0
LWPOLYLINE
  5
44B
100
AcDbEntity
  8
RACCORDO
100
AcDbPolyline
 62
250
  6
CONTINUOUS
 90
4
 70
0
 10
-22.9999391361
 20
39.0941704731
 10
-23.4608253565
 20
39.0912865017
 10
-23.9070515549
 20
39.0881366695
 10
-24.7596422353
 20
39.081292263
  0
LINE
  5
44C
100
AcDbEntity
  8
RACCORDO
100
AcDbLine
 62
250
  6
CONTINUOUS
 10
37.0
 20
39.7694281234
 11
36.928429241
 21
39.7692944928
  0
LINE
  5
44D
100
AcDbEntity
  8
RACCORDO
100
AcDbLine
 62
250
  6
CONTINUOUS
 10
36.928429241
 20
39.7692944928
 11
36.8516681699
 21
39.7691638969
  0
LINE
  5
44E
100
AcDbEntity
  8
RACCORDO
100
AcDbLine
 62
250
  6
CONTINUOUS
 10
17.3226651383
 20
39.1051041035
 11
13.992704603
 21
39.0993581749
  0
LINE
  5
44F
100
AcDbEntity
  8
RACCORDO
100
AcDbLine
 62
250
  6
CONTINUOUS
 10
36.8516681699
 20
39.7691638969
 11
36.7696266997
 21
39.769037472
  0
LINE
  5
450
100
AcDbEntity
  8
RACCORDO
100
AcDbLine
 62
250
  6
CONTINUOUS
 10
36.7696266997
 20
39.769037472
 11
36.6819620711
 21
39.7689185108
  0
LWPOLYLINE
  5
451
100
AcDbEntity
  8
RACCORDO
100
AcDbPolyline
 62
250
  6
CONTINUOUS
 90
3
 70
0
 10
13.992704603
 20
39.0993581749
 10
12.5186504596
 20
39.0975908252
 10
11.7500131317
 20
39.0969288543
  0
LWPOLYLINE
  5
452
100
AcDbEntity
  8
RACCORDO
100
AcDbPolyline
 62
250
  6
CONTINUOUS
 90
7
 70
0
 10
-19.3396805514
 20
39.1057148068
 10
-19.9121802016
 20
39.1051385917
 10
-20.4675599482
 20
39.1041691887
 10
-21.0057637941
 20
39.1028313318
 10
-21.5279887719
 20
39.1011602414
 10
-22.0341830872
 20
39.0991416101
 10
-22.9999391361
 20
39.0941704731
  0
LINE
  5
453
100
AcDbEntity
  8
RACCORDO
100
AcDbLine
 62
250
  6
CONTINUOUS
 10
36.6819620711
 20
39.7689185108
 11
36.5400284847
 21
39.7687672472
  0
LINE
  5
454
100
AcDbEntity
  8
RACCORDO
100
AcDbLine
 62
250
  6
CONTINUOUS
 10
30.7314526556
 20
39.7648520602
 11
30.5093344668
 21
39.7647201693
  0
LINE
  5
455
100
AcDbEntity
  8
RACCORDO
100
AcDbLine
 62
250
  6
CONTINUOUS
 10
36.5400284847
 20
39.7687672472
 11
30.7314526556
 21
39.7648520602
  0
LINE
  5
456
100
AcDbEntity
  8
RACCORDO
100
AcDbLine
 62
250
  6
CONTINUOUS
 10
30.5093344668
 20
39.7647201693
 11
24.4090666704
 21
39.7617640813
  0
LINE
  5
457
100
AcDbEntity
  8
RACCORDO
100
AcDbLine
 62
250
  6
CONTINUOUS
 10
11.7500131317
 20
39.096928824
 11
-11.7500131317
 21
39.096928824
  0
LINE
  5
458
100
AcDbEntity
  8
RACCORDO
100
AcDbLine
 62
250
  6
CONTINUOUS
 10
24.4090666704
 20
39.7617640813
 11
21.246180199
 21
39.7610834742
  0
LINE
  5
459
100
AcDbEntity
  8
RACCORDO
100
AcDbLine
 62
250
  6
CONTINUOUS
 10
-15.5204146606
 20
39.7611958294
 11
-20.4664872169
 21
39.7610189846
  0
LINE
  5
45A
100
AcDbEntity
  8
0
100
AcDbLine
 62
7
  6
CONTINUOUS
 10
36.9999999999
 20
40.0
 11
-36.9999999999
 21
40.0
  0
LINE
  5
45B
100
AcDbEntity
  8
RACCORDO
100
AcDbLine
 62
250
  6
CONTINUOUS
 10
-18.1418429358
 20
39.1058012046
 11
-19.3396805514
 21
39.1057148068
  0
LINE
  5
45C
100
AcDbEntity
  8
RACCORDO
100
AcDbLine
 62
250
  6
CONTINUOUS
 10
21.246180199
 20
39.7610834742
 11
16.6945574116
 21
39.7610998898
  0
LINE
  5
45D
100
AcDbEntity
  8
RACCORDO
100
AcDbLine
 62
250
  6
CONTINUOUS
 10
16.6945574116
 20
39.7610998898
 11
-15.5204146606
 21
39.7611958294
  0
LINE
  5
45E
100
AcDbEntity
  8
RACCORDO
100
AcDbLine
 62
250
  6
CONTINUOUS
 10
-20.4664872169
 20
39.7610189846
 11
-25.1591268324
 21
39.7620332218
  0
LINE
  5
45F
100
AcDbEntity
  8
RACCORDO
100
AcDbLine
 62
250
  6
CONTINUOUS
 10
-25.1591268324
 20
39.7620332218
 11
-32.1724023759
 21
39.7658729739
  0
LINE
  5
460
100
AcDbEntity
  8
RACCORDO
100
AcDbLine
 62
250
  6
CONTINUOUS
 10
-11.7499868572
 20
39.096928825
 11
-13.3280325044
 21
39.0985096952
  0
LINE
  5
461
100
AcDbEntity
  8
RACCORDO
100
AcDbLine
 62
250
  6
CONTINUOUS
 10
-16.8705371814
 20
39.1044861931
 11
-18.1418429358
 21
39.1058012046
  0
LWPOLYLINE
  5
462
100
AcDbEntity
  8
RACCORDO
100
AcDbPolyline
 62
250
  6
CONTINUOUS
 90
4
 70
0
 10
-13.3280325044
 20
39.0985096952
 10
-14.8121792638
 20
39.1007953582
 10
-15.5189008342
 20
39.1022323506
 10
-16.8705371814
 20
39.1044861931
  0
LWPOLYLINE
  5
463
100
AcDbEntity
  8
RACCORDO
100
AcDbPolyline
 62
250
  6
CONTINUOUS
 90
3
 70
0
 10
-32.1724023759
 20
39.7658729739
 10
-36.9664530512
 20
39.7693638771
 10
-37.0
 20
39.7694281234
  0
LWPOLYLINE
  5
464
100
AcDbEntity
  8
RACCORDO
100
AcDbPolyline
 62
250
  6
CONTINUOUS
 90
8
 70
0
 10
21.7438306703
 20
39.1003484964
 10
21.2480718091
 20
39.1021134278
 10
20.736725919
 20
39.1035478298
 10
20.209846659
 20
39.1046654024
 10
19.6663053699
 20
39.1054397894
 10
19.1060128436
 20
39.1058471793
 10
18.5290693707
 20
39.1059111928
 10
17.3226651383
 20
39.1051041035
  0
LWPOLYLINE
  5
465
100
AcDbEntity
  8
RACCORDO
100
AcDbPolyline
 62
250
  6
CONTINUOUS
 90
3
 70
0
 10
23.1416655492
 20
39.0933255199
 10
22.6899951733
 20
39.0959255967
 10
21.7438306703
 20
39.1003484964
  0
LINE
  5
466
100
AcDbEntity
  8
RACCORDO
100
AcDbLine
 62
250
  6
CONTINUOUS
 10
24.0034784653
 20
39.087428286
 11
23.1416655492
 21
39.0933255199
  0
LINE
  5
467
100
AcDbEntity
  8
RACCORDO
100
AcDbLine
 62
250
  6
CONTINUOUS
 10
24.8134067405
 20
39.0808057249
 11
24.0034784653
 21
39.087428286
  0
LINE
  5
468
100
AcDbEntity
  8
RACCORDO
100
AcDbLine
 62
250
  6
CONTINUOUS
 10
25.5751996262
 20
39.0736633294
 11
24.8134067405
 21
39.0808057249
  0
LINE
  5
469
100
AcDbEntity
  8
RACCORDO
100
AcDbLine
 62
250
  6
CONTINUOUS
 10
26.6333909656
 20
39.0624126517
 11
25.5751996262
 21
39.0736633294
  0
LINE
  5
46A
100
AcDbEntity
  8
RACCORDO
100
AcDbLine
 62
250
  6
CONTINUOUS
 10
27.9036861624
 20
39.0476967315
 11
26.6333909656
 21
39.0624126517
  0
LINE
  5
46B
100
AcDbEntity
  8
RACCORDO
100
AcDbLine
 62
250
  6
CONTINUOUS
 10
29.8096916563
 20
39.0250519846
 11
27.9036861624
 21
39.0476967315
  0
LINE
  5
46C
100
AcDbEntity
  8
RACCORDO
100
AcDbLine
 62
250
  6
CONTINUOUS
 10
35.8929464405
 20
38.9371545189
 11
35.8209336142
 21
38.9380635822
  0
LINE
  5
46D
100
AcDbEntity
  8
RACCORDO
100
AcDbLine
 62
250
  6
CONTINUOUS
 10
36.030541108
 20
38.9353891256
 11
35.8929464405
 21
38.9371545189
  0
LWPOLYLINE
  5
46E
100
AcDbEntity
  8
RACCORDO
100
AcDbPolyline
 62
250
  6
CONTINUOUS
 90
3
 70
0
 10
35.8209336142
 20
38.9380635822
 10
35.5108251093
 20
38.9420873565
 10
35.4278911097
 20
38.943183708
  0
LINE
  5
46F
100
AcDbEntity
  8
RACCORDO
100
AcDbLine
 62
250
  6
CONTINUOUS
 10
35.4278911097
 20
38.943183708
 11
35.2554046407
 21
38.9454854414
  0
LINE
  5
470
100
AcDbEntity
  8
RACCORDO
100
AcDbLine
 62
250
  6
CONTINUOUS
 10
30.5196994301
 20
39.0161618251
 11
29.8096916563
 21
39.0250519846
  0
LINE
  5
471
100
AcDbEntity
  8
RACCORDO
100
AcDbLine
 62
250
  6
CONTINUOUS
 10
35.2554046407
 20
38.9454854414
 11
35.0738068574
 21
38.9479360189
  0
LINE
  5
472
100
AcDbEntity
  8
RACCORDO
100
AcDbLine
 62
250
  6
CONTINUOUS
 10
35.0738068574
 20
38.9479360189
 11
34.8825142074
 21
38.9505547851
  0
LINE
  5
473
100
AcDbEntity
  8
RACCORDO
100
AcDbLine
 62
250
  6
CONTINUOUS
 10
34.8825142074
 20
38.9505547851
 11
34.5765548492
 21
38.9548213281
  0
LINE
  5
474
100
AcDbEntity
  8
RACCORDO
100
AcDbLine
 62
250
  6
CONTINUOUS
 10
34.5765548492
 20
38.9548213281
 11
34.3591689532
 21
38.957907937
  0
LINE
  5
475
100
AcDbEntity
  8
RACCORDO
100
AcDbLine
 62
250
  6
CONTINUOUS
 10
34.3591689532
 20
38.957907937
 11
34.1303610122
 21
38.9612021367
  0
LINE
  5
476
100
AcDbEntity
  8
RACCORDO
100
AcDbLine
 62
250
  6
CONTINUOUS
 10
34.1303610122
 20
38.9612021367
 11
33.8892364697
 21
38.9647132963
  0
LINE
  5
477
100
AcDbEntity
  8
RACCORDO
100
AcDbLine
 62
250
  6
CONTINUOUS
 10
33.8892364697
 20
38.9647132963
 11
33.6351318996
 21
38.9684472375
  0
LWPOLYLINE
  5
478
100
AcDbEntity
  8
RACCORDO
100
AcDbPolyline
 62
250
  6
CONTINUOUS
 90
3
 70
0
 10
33.6351318996
 20
38.9684472375
 10
33.3670149208
 20
38.9724356498
 10
32.295888767
 20
38.9870192725
  0
LINE
  5
479
100
AcDbEntity
  8
RACCORDO
100
AcDbLine
 62
250
  6
CONTINUOUS
 10
31.1676087691
 20
39.0058152192
 11
30.5196994301
 21
39.0161618251
  0
LINE
  5
47A
100
AcDbEntity
  8
RACCORDO
100
AcDbLine
 62
250
  6
CONTINUOUS
 10
32.295888767
 20
38.9870192725
 11
31.7578160544
 21
38.9957854846
  0
LINE
  5
47B
100
AcDbEntity
  8
RACCORDO
100
AcDbLine
 62
250
  6
CONTINUOUS
 10
31.7578160544
 20
38.9957854846
 11
31.1676087691
 21
39.0058152192
  0
LINE
  5
47C
100
AcDbEntity
  8
RACCORDO
100
AcDbLine
 62
250
  6
CONTINUOUS
 10
39.2441221254
 20
37.0449085897
 11
39.305098692
 21
37.0428689764
  0
LINE
  5
47D
100
AcDbEntity
  8
RACCORDO
100
AcDbLine
 62
250
  6
CONTINUOUS
 10
37.0362125754
 20
38.9070917671
 11
36.8402220207
 21
38.9137047707
  0
LINE
  5
47E
100
AcDbEntity
  8
RACCORDO
100
AcDbLine
 62
250
  6
CONTINUOUS
 10
39.305098692
 20
37.0428689764
 11
39.3634048646
 21
37.0406154259
  0
LINE
  5
47F
100
AcDbEntity
  8
RACCORDO
100
AcDbLine
 62
250
  6
CONTINUOUS
 10
36.8402220207
 20
38.9137047707
 11
36.6573098048
 21
38.9206053907
  0
LINE
  5
480
100
AcDbEntity
  8
RACCORDO
100
AcDbLine
 62
250
  6
CONTINUOUS
 10
39.3634048646
 20
37.0406154259
 11
39.4187496667
 21
37.0381591844
  0
LWPOLYLINE
  5
481
100
AcDbEntity
  8
RACCORDO
100
AcDbPolyline
 62
250
  6
CONTINUOUS
 90
7
 70
0
 10
36.6573098048
 20
38.9206053907
 10
36.5562106042
 20
38.9254240263
 10
36.5035691222
 20
38.9276012157
 10
36.4497870578
 20
38.9292466599
 10
36.3948247671
 20
38.9305653929
 10
36.3384449353
 20
38.931663315
 10
36.030541108
 20
38.9353891256
  0
LINE
  5
482
100
AcDbEntity
  8
RACCORDO
100
AcDbLine
 62
250
  6
CONTINUOUS
 10
39.4187496667
 20
37.0381591844
 11
39.4708569005
 21
37.0355125099
  0
LWPOLYLINE
  5
483
100
AcDbEntity
  8
RACCORDO
100
AcDbPolyline
 62
250
  6
CONTINUOUS
 90
21
 70
0
 10
39.4708569005
 20
37.0355125099
 10
39.5194665252
 20
37.0326886104
 10
39.5423832104
 20
37.0312145727
 10
39.5643359548
 20
37.0297015788
 10
39.585297361
 20
37.028151517
 10
39.6052412689
 20
37.0265663217
 10
39.6241427883
 20
37.0249479714
 10
39.6419783298
 20
37.0232984857
 10
39.6587256345
 20
37.0216199232
 10
39.6743638014
 20
37.0199143787
 10
39.6888733141
 20
37.0181839809
 10
39.7022360644
 20
37.0164308893
 10
39.7144353754
 20
37.0146572918
 10
39.7254560223
 20
37.0128654017
 10
39.7352842512
 20
37.0110574555
 10
39.7439077962
 20
37.0092357095
 10
39.7513158952
 20
37.0074024372
 10
39.7574993027
 20
37.0055599266
 10
39.7624503017
 20
37.0037104771
 10
39.7661627133
 20
37.001856397
 10
39.7686319045
 20
37.0
  0
LWPOLYLINE
  5
484
100
AcDbEntity
  8
0
100
AcDbPolyline
 62
7
  6
CONTINUOUS
 90
13
 70
0
 43
0.3500000006
 10
-1.9285714102
 20
50.4642859039
 10
-2.2142856617
 20
50.6785703888
 10
-2.2142856617
 20
51.3214283752
 10
-1.9285714102
 20
51.7500018768
 10
-1.2857142735
 20
51.7500018768
 10
-1.0000000219
 20
51.3214283752
 10
-1.0000000219
 20
50.6785703888
 10
-1.2857142735
 20
50.4642859039
 10
-0.8571428254
 20
50.0357124023
 10
-0.8571428254
 20
49.178569931
 10
-1.2857142735
 20
48.7500009613
 10
-1.9285714102
 20
48.7500009613
 10
-2.3571427875
 20
49.178569931
  0
LINE
  5
485
100
AcDbEntity
  8
RACCORDO
100
AcDbLine
 62
7
  6
CONTINUOUS
 10
-58.3158156124
 20
-39.7609597449
 11
-53.7546897085
 21
-40.0
  0
LINE
  5
486
100
AcDbEntity
  8
RACCORDO
100
AcDbLine
 62
7
  6
CONTINUOUS
 10
-58.3257238346
 20
-39.7603886642
 11
-58.315714188
 21
-39.7609647766
  0
LINE
  5
487
100
AcDbEntity
  8
RACCORDO
100
AcDbLine
 62
7
  6
CONTINUOUS
 10
-58.3620664802
 20
-39.7574407556
 11
-58.3386705176
 21
-39.7594913992
  0
LWPOLYLINE
  5
488
100
AcDbEntity
  8
0
100
AcDbPolyline
 62
7
  6
CONTINUOUS
 90
10
 70
0
 43
0.3500000006
 10
-59.0046903534
 20
48.7500009613
 10
-58.1475478821
 20
49.6071434326
 10
-57.9332633972
 20
50.4642859039
 10
-57.9332633972
 20
51.3214283752
 10
-58.3618323669
 20
51.7500018768
 10
-59.0046903534
 20
51.7500018768
 10
-59.4332593231
 20
51.3214283752
 10
-59.4332593231
 20
50.4642859039
 10
-59.0046903534
 20
50.0357124023
 10
-58.0761166992
 20
50.0357124023
  0
LINE
  5
489
100
AcDbEntity
  8
RACCORDO
100
AcDbLine
 62
250
  6
CONTINUOUS
 10
-59.105895462
 20
-37.0515813987
 11
-59.0935530892
 21
-37.0507411411
  0
LINE
  5
48A
100
AcDbEntity
  8
RACCORDO
100
AcDbLine
 62
250
  6
CONTINUOUS
 10
-59.0935530892
 20
-37.0507411411
 11
-59.0543355849
 21
-37.0483064128
  0
LINE
  5
48B
100
AcDbEntity
  8
RACCORDO
100
AcDbLine
 62
250
  6
CONTINUOUS
 10
-59.0543355849
 20
-37.0483064128
 11
-58.82953807
 21
-37.0355125173
  0
LINE
  5
48C
100
AcDbEntity
  8
RACCORDO
100
AcDbLine
 62
250
  6
CONTINUOUS
 10
-58.82953807
 20
-37.0355125173
 11
-58.3438846016
 21
-37.0092357123
  0
LINE
  5
48D
100
AcDbEntity
  8
RACCORDO
100
AcDbLine
 62
250
  6
CONTINUOUS
 10
-58.3438846016
 20
-37.0092357123
 11
-58.1694543113
 21
-37.0
  0
LINE
  5
48E
100
AcDbEntity
  8
RACCORDO
100
AcDbLine
 62
250
  6
CONTINUOUS
 10
-58.1694543109
 20
-37.0
 11
-53.7546897085
 21
-37.0
  0
LWPOLYLINE
  5
48F
100
AcDbEntity
  8
RACCORDO
100
AcDbPolyline
 62
250
  6
CONTINUOUS
 90
7
 70
0
 10
-62.0194840226
 20
-22.2832644012
 10
-62.0006065437
 20
-22.2822172851
 10
-61.9838826642
 20
-22.2811832585
 10
-61.969324688
 20
-22.2801630824
 10
-61.9569433258
 20
-22.2791575074
 10
-61.9467476866
 20
-22.2781672734
 10
-61.9387452716
 20
-22.277193109
  0
LINE
  5
490
100
AcDbEntity
  8
RACCORDO
100
AcDbLine
 62
250
  6
CONTINUOUS
 10
-62.0636426501
 20
-22.2853948112
 11
-62.0194840226
 21
-22.2832644012
  0
LINE
  5
491
100
AcDbEntity
  8
RACCORDO
100
AcDbLine
 62
250
  6
CONTINUOUS
 10
-62.1162286177
 20
-22.2875682192
 11
-62.0636426501
 21
-22.2853948112
  0
LINE
  5
492
100
AcDbEntity
  8
RACCORDO
100
AcDbLine
 62
250
  6
CONTINUOUS
 10
-62.210563701
 20
-22.2908949318
 11
-62.1162286177
 21
-22.2875682192
  0
LINE
  5
493
100
AcDbEntity
  8
RACCORDO
100
AcDbLine
 62
250
  6
CONTINUOUS
 10
-62.3641927689
 20
-22.2954204968
 11
-62.210563701
 21
-22.2908949318
  0
LINE
  5
494
100
AcDbEntity
  8
RACCORDO
100
AcDbLine
 62
250
  6
CONTINUOUS
 10
-62.5479717367
 20
-22.3
 11
-62.3641927689
 21
-22.2954204968
  0
LINE
  5
495
100
AcDbEntity
  8
RACCORDO
100
AcDbLine
 62
250
  6
CONTINUOUS
 10
-62.5479718438
 20
-22.3
 11
-62.7546897085
 21
-22.3
  0
LINE
  5
496
100
AcDbEntity
  8
RACCORDO
100
AcDbLine
 62
7
  6
CONTINUOUS
 10
-62.3459587225
 20
24.5156069886
 11
-62.3532322734
 21
24.5030104841
  0
LINE
  5
497
100
AcDbEntity
  8
RACCORDO
100
AcDbLine
 62
7
  6
CONTINUOUS
 10
-62.3532322734
 20
24.5030104841
 11
-62.3604535558
 21
24.4906422993
  0
LINE
  5
498
100
AcDbEntity
  8
RACCORDO
100
AcDbLine
 62
7
  6
CONTINUOUS
 10
-62.3604535558
 20
24.4906422993
 11
-62.3676174217
 21
24.4785048363
  0
LINE
  5
499
100
AcDbEntity
  8
RACCORDO
100
AcDbLine
 62
7
  6
CONTINUOUS
 10
-62.3676174217
 20
24.4785048363
 11
-62.3747186825
 21
24.4666005027
  0
LINE
  5
49A
100
AcDbEntity
  8
RACCORDO
100
AcDbLine
 62
7
  6
CONTINUOUS
 10
-62.3747186825
 20
24.4666005027
 11
-62.3817524303
 21
24.4549311853
  0
LINE
  5
49B
100
AcDbEntity
  8
RACCORDO
100
AcDbLine
 62
7
  6
CONTINUOUS
 10
-62.3817524303
 20
24.4549311853
 11
-62.388714979
 21
24.443496744
  0
LINE
  5
49C
100
AcDbEntity
  8
RACCORDO
100
AcDbLine
 62
7
  6
CONTINUOUS
 10
-62.388714979
 20
24.443496744
 11
-62.3956037247
 21
24.4322953403
  0
LINE
  5
49D
100
AcDbEntity
  8
RACCORDO
100
AcDbLine
 62
7
  6
CONTINUOUS
 10
-62.3956037247
 20
24.4322953403
 11
-62.4046694981
 21
24.4177195506
  0
LINE
  5
49E
100
AcDbEntity
  8
RACCORDO
100
AcDbLine
 62
7
  6
CONTINUOUS
 10
-62.4046694981
 20
24.4177195506
 11
-62.4135936437
 21
24.4035506548
  0
LINE
  5
49F
100
AcDbEntity
  8
RACCORDO
100
AcDbLine
 62
7
  6
CONTINUOUS
 10
-62.4135936437
 20
24.4035506548
 11
-62.4223704694
 21
24.3897845081
  0
LINE
  5
4A0
100
AcDbEntity
  8
RACCORDO
100
AcDbLine
 62
7
  6
CONTINUOUS
 10
-62.4223704694
 20
24.3897845081
 11
-62.4309945021
 21
24.376416984
  0
LINE
  5
4A1
100
AcDbEntity
  8
RACCORDO
100
AcDbLine
 62
7
  6
CONTINUOUS
 10
-62.4309945021
 20
24.376416984
 11
-62.4394602522
 21
24.3634443338
  0
LINE
  5
4A2
100
AcDbEntity
  8
RACCORDO
100
AcDbLine
 62
7
  6
CONTINUOUS
 10
-62.4394602522
 20
24.3634443338
 11
-62.4477575396
 21
24.3508702117
  0
LINE
  5
4A3
100
AcDbEntity
  8
RACCORDO
100
AcDbLine
 62
7
  6
CONTINUOUS
 10
-62.4477575396
 20
24.3508702117
 11
-62.4558712274
 21
24.3387056847
  0
LINE
  5
4A4
100
AcDbEntity
  8
RACCORDO
100
AcDbLine
 62
7
  6
CONTINUOUS
 10
-62.4558712274
 20
24.3387056847
 11
-62.4637853249
 21
24.3269628185
  0
LINE
  5
4A5
100
AcDbEntity
  8
RACCORDO
100
AcDbLine
 62
7
  6
CONTINUOUS
 10
-62.4637853249
 20
24.3269628185
 11
-62.4714849729
 21
24.3156517674
  0
LINE
  5
4A6
100
AcDbEntity
  8
RACCORDO
100
AcDbLine
 62
7
  6
CONTINUOUS
 10
-62.4714849729
 20
24.3156517674
 11
-62.4789618014
 21
24.3047731511
  0
LINE
  5
4A7
100
AcDbEntity
  8
RACCORDO
100
AcDbLine
 62
7
  6
CONTINUOUS
 10
-62.4789618014
 20
24.3047731511
 11
-62.4879881021
 21
24.2917752383
  0
LINE
  5
4A8
100
AcDbEntity
  8
RACCORDO
100
AcDbLine
 62
7
  6
CONTINUOUS
 10
-62.4879881021
 20
24.2917752383
 11
-62.4966519899
 21
24.2794353454
  0
LINE
  5
4A9
100
AcDbEntity
  8
RACCORDO
100
AcDbLine
 62
7
  6
CONTINUOUS
 10
-62.4966519899
 20
24.2794353454
 11
-62.5049414714
 21
24.2677508976
  0
LINE
  5
4AA
100
AcDbEntity
  8
RACCORDO
100
AcDbLine
 62
7
  6
CONTINUOUS
 10
-62.5049414714
 20
24.2677508976
 11
-62.5128169982
 21
24.256758412
  0
LINE
  5
4AB
100
AcDbEntity
  8
RACCORDO
100
AcDbLine
 62
7
  6
CONTINUOUS
 10
-62.5128169982
 20
24.256758412
 11
-62.5216666614
 21
24.2445298669
  0
LINE
  5
4AC
100
AcDbEntity
  8
RACCORDO
100
AcDbLine
 62
7
  6
CONTINUOUS
 10
-62.5216666614
 20
24.2445298669
 11
-62.5298497917
 21
24.2333364976
  0
LINE
  5
4AD
100
AcDbEntity
  8
RACCORDO
100
AcDbLine
 62
7
  6
CONTINUOUS
 10
-62.5298497917
 20
24.2333364976
 11
-62.5384963696
 21
24.2216260369
  0
LINE
  5
4AE
100
AcDbEntity
  8
RACCORDO
100
AcDbLine
 62
250
  6
CONTINUOUS
 10
-62.5495669201
 20
24.2067713328
 11
-62.5464444912
 21
24.2109654536
  0
LWPOLYLINE
  5
4AF
100
AcDbEntity
  8
RACCORDO
100
AcDbPolyline
 62
250
  6
CONTINUOUS
 90
22
 70
0
 10
-62.5384963696
 20
24.2216260369
 10
-62.5009539266
 20
24.2722830101
 10
-62.4541404084
 20
24.3390924302
 10
-62.4091609857
 20
24.407150185
 10
-62.3660489227
 20
24.4764059433
 10
-62.3248361022
 20
24.5468084877
 10
-62.2855530029
 20
24.618305753
 10
-62.248228676
 20
24.690844864
 10
-62.2128907242
 20
24.7643721755
 10
-62.1795652814
 20
24.8388333111
 10
-62.1482769931
 20
24.914173204
 10
-62.119048998
 20
24.9903361375
 10
-62.0919029114
 20
25.0672657862
 10
-62.0668588089
 20
25.1449052577
 10
-62.0439352116
 20
25.2231971346
 10
-62.0231490722
 20
25.3020835172
 10
-62.0045157631
 20
25.3815060659
 10
-61.9880490642
 20
25.4614060448
 10
-61.9737611533
 20
25.5417243648
 10
-61.9616625968
 20
25.6224016274
 10
-61.9517623421
 20
25.7033781687
 10
-61.9440677108
 20
25.7845941036
  0
LINE
  5
4B0
100
AcDbEntity
  8
RACCORDO
100
AcDbLine
 62
7
  6
CONTINUOUS
 10
-62.5384963696
 20
24.2216260369
 11
-62.547144229
 21
24.2100316221
  0
LINE
  5
4B1
100
AcDbEntity
  8
RACCORDO
100
AcDbLine
 62
7
  6
CONTINUOUS
 10
-62.5519828267
 20
24.2035949309
 11
-62.5520008485
 21
24.2035710239
  0
LINE
  5
4B2
100
AcDbEntity
  8
RACCORDO
100
AcDbLine
 62
7
  6
CONTINUOUS
 10
-62.547144229
 20
24.2100316221
 11
-62.5518546612
 21
24.2037649638
  0
LINE
  5
4B3
100
AcDbEntity
  8
RACCORDO
100
AcDbLine
 62
7
  6
CONTINUOUS
 10
-62.5524465944
 20
24.202979876
 11
-62.5528992454
 21
24.2023798928
  0
LINE
  5
4B4
100
AcDbEntity
  8
RACCORDO
100
AcDbLine
 62
250
  6
CONTINUOUS
 10
-62.5495664309
 20
-24.2067709594
 11
-62.5458731411
 21
-24.2117285991
  0
LWPOLYLINE
  5
4B5
100
AcDbEntity
  8
RACCORDO
100
AcDbPolyline
 62
250
  6
CONTINUOUS
 90
22
 70
0
 10
-62.5298498663
 20
-24.233336396
 10
-62.5009535063
 20
-24.2722826555
 10
-62.4541400599
 20
-24.3390920955
 10
-62.4091607123
 20
-24.4071498712
 10
-62.3660487272
 20
-24.4764056511
 10
-62.3248359878
 20
-24.5468082181
 10
-62.2855529724
 20
-24.6183055065
 10
-62.2482287324
 20
-24.6908446413
 10
-62.2128908705
 20
-24.7643719771
 10
-62.1795655204
 20
-24.8388331376
 10
-62.1482773276
 20
-24.9141730556
 10
-62.1190494308
 20
-24.9903360146
 10
-62.0919034453
 20
-25.067265689
 10
-62.0668594466
 20
-25.1449051862
 10
-62.0439359556
 20
-25.2231970889
 10
-62.0231499252
 20
-25.3020834971
 10
-62.0045167275
 20
-25.3815060713
 10
-61.9880501424
 20
-25.4614060753
 10
-61.9737623477
 20
-25.54172442
 10
-61.9616639097
 20
-25.6224017069
 10
-61.9517637756
 20
-25.7033782719
 10
-61.9440692671
 20
-25.7845942298
  0
LINE
  5
4B6
100
AcDbEntity
  8
RACCORDO
100
AcDbLine
 62
7
  6
CONTINUOUS
 10
-62.5458731411
 20
-24.2117285991
 11
-62.5373293101
 21
-24.2231997144
  0
LINE
  5
4B7
100
AcDbEntity
  8
RACCORDO
100
AcDbLine
 62
7
  6
CONTINUOUS
 10
-62.5379892905
 20
-24.2223095248
 11
-62.529305608
 21
-24.2340775031
  0
LINE
  5
4B8
100
AcDbEntity
  8
RACCORDO
100
AcDbLine
 62
7
  6
CONTINUOUS
 10
-62.5298498663
 20
-24.233336396
 11
-62.5212894974
 21
-24.245048401
  0
LINE
  5
4B9
100
AcDbEntity
  8
RACCORDO
100
AcDbLine
 62
7
  6
CONTINUOUS
 10
-62.5216667407
 20
-24.244529758
 11
-62.5128960807
 21
-24.2566485594
  0
LINE
  5
4BA
100
AcDbEntity
  8
RACCORDO
100
AcDbLine
 62
7
  6
CONTINUOUS
 10
-62.5128960807
 20
-24.2566485594
 11
-62.5042132485
 21
-24.2687726409
  0
LINE
  5
4BB
100
AcDbEntity
  8
RACCORDO
100
AcDbLine
 62
7
  6
CONTINUOUS
 10
-62.5049415582
 20
-24.2677507758
 11
-62.4968187506
 21
-24.2791991185
  0
LINE
  5
4BC
100
AcDbEntity
  8
RACCORDO
100
AcDbLine
 62
7
  6
CONTINUOUS
 10
-62.4968187506
 20
-24.2791991185
 11
-62.4879881936
 21
-24.2917751073
  0
LINE
  5
4BD
100
AcDbEntity
  8
RACCORDO
100
AcDbLine
 62
7
  6
CONTINUOUS
 10
-62.4893035261
 20
-24.2898931798
 11
-62.4807957915
 21
-24.3021203239
  0
LINE
  5
4BE
100
AcDbEntity
  8
RACCORDO
100
AcDbLine
 62
7
  6
CONTINUOUS
 10
-62.4816609762
 20
-24.3008709663
 11
-62.473375327
 21
-24.3128916441
  0
LINE
  5
4BF
100
AcDbEntity
  8
RACCORDO
100
AcDbLine
 62
7
  6
CONTINUOUS
 10
-62.473883609
 20
-24.3121506216
 11
-62.4657308368
 21
-24.3240943053
  0
LINE
  5
4C0
100
AcDbEntity
  8
RACCORDO
100
AcDbLine
 62
7
  6
CONTINUOUS
 10
-62.4659645997
 20
-24.3237501186
 11
-62.4578691206
 21
-24.3357299238
  0
LINE
  5
4C1
100
AcDbEntity
  8
RACCORDO
100
AcDbLine
 62
7
  6
CONTINUOUS
 10
-62.4595228592
 20
-24.3332725612
 11
-62.451332463
 21
-24.3454946371
  0
LINE
  5
4C2
100
AcDbEntity
  8
RACCORDO
100
AcDbLine
 62
7
  6
CONTINUOUS
 10
-62.4518384279
 20
-24.3447358455
 11
-62.4429878974
 21
-24.3580815702
  0
LINE
  5
4C3
100
AcDbEntity
  8
RACCORDO
100
AcDbLine
 62
7
  6
CONTINUOUS
 10
-62.4436310658
 20
-24.3571065068
 11
-62.4352477043
 21
-24.3698812163
  0
LINE
  5
4C4
100
AcDbEntity
  8
RACCORDO
100
AcDbLine
 62
7
  6
CONTINUOUS
 10
-62.4362100889
 20
-24.3684074891
 11
-62.4276230292
 21
-24.3816243653
  0
LINE
  5
4C5
100
AcDbEntity
  8
RACCORDO
100
AcDbLine
 62
7
  6
CONTINUOUS
 10
-62.4288532098
 20
-24.3797215638
 11
-62.4206712057
 21
-24.3924368766
  0
LINE
  5
4C6
100
AcDbEntity
  8
RACCORDO
100
AcDbLine
 62
7
  6
CONTINUOUS
 10
-62.4223705677
 20
-24.3897843548
 11
-62.413593742
 21
-24.4035504998
  0
LINE
  5
4C7
100
AcDbEntity
  8
RACCORDO
100
AcDbLine
 62
7
  6
CONTINUOUS
 10
-62.4154144438
 20
-24.4006811725
 11
-62.4069141387
 21
-24.4141391825
  0
LINE
  5
4C8
100
AcDbEntity
  8
RACCORDO
100
AcDbLine
 62
7
  6
CONTINUOUS
 10
-62.4083544594
 20
-24.4118476514
 11
-62.4001540505
 21
-24.4249561632
  0
LINE
  5
4C9
100
AcDbEntity
  8
RACCORDO
100
AcDbLine
 62
7
  6
CONTINUOUS
 10
-62.401242761
 20
-24.4232071615
 11
-62.3933159303
 21
-24.4360032059
  0
LINE
  5
4CA
100
AcDbEntity
  8
RACCORDO
100
AcDbLine
 62
7
  6
CONTINUOUS
 10
-62.3940841656
 20
-24.4347567698
 11
-62.3864022975
 21
-24.4472820851
  0
LINE
  5
4CB
100
AcDbEntity
  8
RACCORDO
100
AcDbLine
 62
7
  6
CONTINUOUS
 10
-62.3868817811
 20
-24.4464962431
 11
-62.3794157393
 21
-24.4587945853
  0
LINE
  5
4CC
100
AcDbEntity
  8
RACCORDO
100
AcDbLine
 62
7
  6
CONTINUOUS
 10
-62.3796387377
 20
-24.4584253201
 11
-62.3723590128
 21
-24.4705423287
  0
LINE
  5
4CD
100
AcDbEntity
  8
RACCORDO
100
AcDbLine
 62
7
  6
CONTINUOUS
 10
-62.3723582235
 20
-24.4705436493
 11
-62.3650434008
 21
-24.4828509236
  0
LINE
  5
4CE
100
AcDbEntity
  8
RACCORDO
100
AcDbLine
 62
7
  6
CONTINUOUS
 10
-62.365236288
 20
-24.4825246659
 11
-62.3576974455
 21
-24.4953468158
  0
LINE
  5
4CF
100
AcDbEntity
  8
RACCORDO
100
AcDbLine
 62
7
  6
CONTINUOUS
 10
-62.3580527091
 20
-24.4947393003
 11
-62.3503235831
 21
-24.5080309122
  0
LINE
  5
4D0
100
AcDbEntity
  8
RACCORDO
100
AcDbLine
 62
7
  6
CONTINUOUS
 10
-62.3508134318
 20
-24.5071838599
 11
-62.3447767925
 21
-24.5176672775
  0
LWPOLYLINE
  5
4D1
100
AcDbEntity
  8
RACCORDO
100
AcDbPolyline
 62
7
  6
CONTINUOUS
 90
37
 70
0
 10
-59.1922516426
 20
-39.1319517149
 10
-59.1797761904
 20
-39.1618924972
 10
-59.1663296621
 20
-39.1914268462
 10
-59.1519248535
 20
-39.2205230384
 10
-59.1365872486
 20
-39.249128843
 10
-59.1203337365
 20
-39.2772145143
 10
-59.103182149
 20
-39.3047508936
 10
-59.0851648594
 20
-39.3316897737
 10
-59.066303412
 20
-39.3580046122
 10
-59.0466201378
 20
-39.3836696601
 10
-59.0261535843
 20
-39.4086417294
 10
-59.0049286907
 20
-39.4328989294
 10
-58.9829721797
 20
-39.4564189244
 10
-58.9603298857
 20
-39.4791624695
 10
-58.9370240521
 20
-39.5011179283
 10
-58.9130903732
 20
-39.5222620269
 10
-58.8886007021
 20
-39.5425453458
 10
-58.8635839738
 20
-39.5619605743
 10
-58.8380772196
 20
-39.58049514
 10
-58.8121716687
 20
-39.5981028344
 10
-58.7859035632
 20
-39.6147825065
 10
-58.7593087754
 20
-39.6305342317
 10
-58.732484326
 20
-39.6453265792
 10
-58.7054656825
 20
-39.6591689181
 10
-58.6782911661
 20
-39.6720698215
 10
-58.6510667609
 20
-39.6840104233
 10
-58.6238383966
 20
-39.6950054727
 10
-58.5966322356
 20
-39.7050784542
 10
-58.5695266739
 20
-39.714235307
 10
-58.5425655837
 20
-39.722497992
 10
-58.5157698547
 20
-39.7298960393
 10
-58.4891824517
 20
-39.7364528231
 10
-58.4627209611
 20
-39.7422189869
 10
-58.4365210787
 20
-39.7471946763
 10
-58.4109558167
 20
-39.7513569032
 10
-58.3861683694
 20
-39.7547471957
 10
-58.3620664802
 20
-39.7574407556
  0
LWPOLYLINE
  5
4D2
100
AcDbEntity
  8
SUPERFICI
100
AcDbPolyline
 62
7
  6
CONTINUOUS
 90
23
 70
0
 10
-59.3412441634
 20
38.7194788491
 10
-59.3848011085
 20
38.5958270133
 10
-59.4278772151
 20
38.4722748594
 10
-59.4704682861
 20
38.3488511972
 10
-59.5125766112
 20
38.2255664906
 10
-59.5542063105
 20
38.1024257387
 10
-59.5953562025
 20
37.9794496285
 10
-59.6360288184
 20
37.8566480512
 10
-59.6762282247
 20
37.7340261798
 10
-59.7159556928
 20
37.6115976103
 10
-59.7552145913
 20
37.4893694934
 10
-59.7940081942
 20
37.3673491326
 10
-59.8323377216
 20
37.2455502577
 10
-59.8702060629
 20
37.1239813462
 10
-59.9076170372
 20
37.0026477648
 10
-59.9445733162
 20
36.8815584558
 10
-59.9810774991
 20
36.760722552
 10
-60.0171336847
 20
36.6401441065
 10
-60.0527467583
 20
36.5198242576
 10
-60.0879194068
 20
36.3997713282
 10
-60.1226555083
 20
36.2799894586
 10
-60.1569615965
 20
36.160473269
 10
-60.2242953859
 20
35.9222651104
  0
LINE
  5
4D3
100
AcDbEntity
  8
SUPERFICI
100
AcDbLine
 62
7
  6
CONTINUOUS
 10
-59.297202639
 20
38.8432244701
 11
-59.3412445657
 21
38.7194777129
  0
LINE
  5
4D4
100
AcDbEntity
  8
SUPERFICI
100
AcDbLine
 62
7
  6
CONTINUOUS
 10
-59.2022401788
 20
39.1057785644
 11
-59.2972023017
 21
38.8432254131
  0
LINE
  5
4D5
100
AcDbEntity
  8
RACCORDO
100
AcDbLine
 62
7
  6
CONTINUOUS
 10
-62.1710443999
 20
24.8732932066
 11
-62.1784301055
 21
24.8554088552
  0
LINE
  5
4D6
100
AcDbEntity
  8
RACCORDO
100
AcDbLine
 62
7
  6
CONTINUOUS
 10
-62.1784301055
 20
24.8554088552
 11
-62.1858552152
 21
24.8377511392
  0
LINE
  5
4D7
100
AcDbEntity
  8
RACCORDO
100
AcDbLine
 62
7
  6
CONTINUOUS
 10
-62.1858552152
 20
24.8377511392
 11
-62.1933150663
 21
24.8203215005
  0
LINE
  5
4D8
100
AcDbEntity
  8
RACCORDO
100
AcDbLine
 62
7
  6
CONTINUOUS
 10
-62.1933150663
 20
24.8203215005
 11
-62.2008049906
 21
24.8031213268
  0
LINE
  5
4D9
100
AcDbEntity
  8
RACCORDO
100
AcDbLine
 62
7
  6
CONTINUOUS
 10
-62.2008049906
 20
24.8031213268
 11
-62.2083203159
 21
24.7861519533
  0
LINE
  5
4DA
100
AcDbEntity
  8
RACCORDO
100
AcDbLine
 62
7
  6
CONTINUOUS
 10
-62.2083203159
 20
24.7861519533
 11
-62.2158563684
 21
24.7694146629
  0
LINE
  5
4DB
100
AcDbEntity
  8
RACCORDO
100
AcDbLine
 62
7
  6
CONTINUOUS
 10
-62.2158563684
 20
24.7694146629
 11
-62.2234084747
 21
24.7529106861
  0
LINE
  5
4DC
100
AcDbEntity
  8
RACCORDO
100
AcDbLine
 62
7
  6
CONTINUOUS
 10
-62.2234084747
 20
24.7529106861
 11
-62.2309722515
 21
24.7366405884
  0
LINE
  5
4DD
100
AcDbEntity
  8
RACCORDO
100
AcDbLine
 62
7
  6
CONTINUOUS
 10
-62.2309722515
 20
24.7366405884
 11
-62.2385440372
 21
24.7206034143
  0
LINE
  5
4DE
100
AcDbEntity
  8
RACCORDO
100
AcDbLine
 62
7
  6
CONTINUOUS
 10
-62.2385440372
 20
24.7206034143
 11
-62.2461203292
 21
24.7047979663
  0
LINE
  5
4DF
100
AcDbEntity
  8
RACCORDO
100
AcDbLine
 62
7
  6
CONTINUOUS
 10
-62.2461203292
 20
24.7047979663
 11
-62.2536976831
 21
24.6892230277
  0
LINE
  5
4E0
100
AcDbEntity
  8
RACCORDO
100
AcDbLine
 62
7
  6
CONTINUOUS
 10
-62.2536976831
 20
24.6892230277
 11
-62.2612727129
 21
24.6738773627
  0
LINE
  5
4E1
100
AcDbEntity
  8
RACCORDO
100
AcDbLine
 62
7
  6
CONTINUOUS
 10
-62.2612727129
 20
24.6738773627
 11
-62.26884209
 21
24.6587597188
  0
LINE
  5
4E2
100
AcDbEntity
  8
RACCORDO
100
AcDbLine
 62
7
  6
CONTINUOUS
 10
-62.26884209
 20
24.6587597188
 11
-62.2764025436
 21
24.6438688273
  0
LINE
  5
4E3
100
AcDbEntity
  8
RACCORDO
100
AcDbLine
 62
7
  6
CONTINUOUS
 10
-62.2764025436
 20
24.6438688273
 11
-62.2839508598
 21
24.6292034046
  0
LINE
  5
4E4
100
AcDbEntity
  8
RACCORDO
100
AcDbLine
 62
7
  6
CONTINUOUS
 10
-62.2839508598
 20
24.6292034046
 11
-62.2914838815
 21
24.6147621538
  0
LINE
  5
4E5
100
AcDbEntity
  8
RACCORDO
100
AcDbLine
 62
7
  6
CONTINUOUS
 10
-62.2914838815
 20
24.6147621538
 11
-62.2989985078
 21
24.6005437654
  0
LINE
  5
4E6
100
AcDbEntity
  8
RACCORDO
100
AcDbLine
 62
7
  6
CONTINUOUS
 10
-62.2989985078
 20
24.6005437654
 11
-62.3064916937
 21
24.5865469189
  0
LINE
  5
4E7
100
AcDbEntity
  8
RACCORDO
100
AcDbLine
 62
7
  6
CONTINUOUS
 10
-62.3064916937
 20
24.5865469189
 11
-62.3139604501
 21
24.5727702834
  0
LINE
  5
4E8
100
AcDbEntity
  8
RACCORDO
100
AcDbLine
 62
7
  6
CONTINUOUS
 10
-62.3139604501
 20
24.5727702834
 11
-62.3214018427
 21
24.5592125193
  0
LINE
  5
4E9
100
AcDbEntity
  8
RACCORDO
100
AcDbLine
 62
7
  6
CONTINUOUS
 10
-62.3214018427
 20
24.5592125193
 11
-62.3288126599
 21
24.545872873
  0
LINE
  5
4EA
100
AcDbEntity
  8
RACCORDO
100
AcDbLine
 62
7
  6
CONTINUOUS
 10
-62.3288126599
 20
24.545872873
 11
-62.3361882427
 21
24.5327532122
  0
LWPOLYLINE
  5
4EB
100
AcDbEntity
  8
RACCORDO
100
AcDbPolyline
 62
7
  6
CONTINUOUS
 90
3
 70
0
 10
-62.3361882427
 20
24.5327532122
 10
-62.3435235045
 20
24.5198560933
 10
-62.3459587225
 20
24.5156069886
  0
LINE
  5
4EC
100
AcDbEntity
  8
RACCORDO
100
AcDbLine
 62
7
  6
CONTINUOUS
 10
-62.3459588166
 20
-24.5156068246
 11
-62.3373618048
 21
-24.5306798095
  0
LINE
  5
4ED
100
AcDbEntity
  8
RACCORDO
100
AcDbLine
 62
7
  6
CONTINUOUS
 10
-62.3386381287
 20
-24.5284292033
 11
-62.3312754192
 21
-24.5414749649
  0
LINE
  5
4EE
100
AcDbEntity
  8
RACCORDO
100
AcDbLine
 62
7
  6
CONTINUOUS
 10
-62.3317878737
 20
-24.5405620154
 11
-62.3238758125
 21
-24.5547415153
  0
LINE
  5
4EF
100
AcDbEntity
  8
RACCORDO
100
AcDbLine
 62
7
  6
CONTINUOUS
 10
-62.3243416375
 20
-24.5539016741
 11
-62.3168820223
 21
-24.5674275788
  0
LINE
  5
4F0
100
AcDbEntity
  8
RACCORDO
100
AcDbLine
 62
7
  6
CONTINUOUS
 10
-62.3189247114
 20
-24.5637073315
 11
-62.311280476
 21
-24.5776939485
  0
LINE
  5
4F1
100
AcDbEntity
  8
RACCORDO
100
AcDbLine
 62
7
  6
CONTINUOUS
 10
-62.3114738495
 20
-24.5773379476
 11
-62.3038051397
 21
-24.5915448063
  0
LINE
  5
4F2
100
AcDbEntity
  8
RACCORDO
100
AcDbLine
 62
7
  6
CONTINUOUS
 10
-62.30399662
 20
-24.5911878384
 11
-62.2963238997
 21
-24.6055832613
  0
LINE
  5
4F3
100
AcDbEntity
  8
RACCORDO
100
AcDbLine
 62
7
  6
CONTINUOUS
 10
-62.2964959512
 20
-24.605258385
 11
-62.2889748508
 21
-24.6195509149
  0
LINE
  5
4F4
100
AcDbEntity
  8
RACCORDO
100
AcDbLine
 62
7
  6
CONTINUOUS
 10
-62.2889748508
 20
-24.6195509149
 11
-62.2814363823
 21
-24.6340667452
  0
LINE
  5
4F5
100
AcDbEntity
  8
RACCORDO
100
AcDbLine
 62
7
  6
CONTINUOUS
 10
-62.2813479761
 20
-24.6342381307
 11
-62.2738836654
 21
-24.6488071811
  0
LINE
  5
4F6
100
AcDbEntity
  8
RACCORDO
100
AcDbLine
 62
7
  6
CONTINUOUS
 10
-62.2738557524
 20
-24.6488620312
 11
-62.266319876
 21
-24.6637735154
  0
LINE
  5
4F7
100
AcDbEntity
  8
RACCORDO
100
AcDbLine
 62
7
  6
CONTINUOUS
 10
-62.266362429
 20
-24.6636887311
 11
-62.2587482469
 21
-24.6789670266
  0
LINE
  5
4F8
100
AcDbEntity
  8
RACCORDO
100
AcDbLine
 62
7
  6
CONTINUOUS
 10
-62.2588694963
 20
-24.6787220162
 11
-62.2511720684
 21
-24.6943889784
  0
LINE
  5
4F9
100
AcDbEntity
  8
RACCORDO
100
AcDbLine
 62
7
  6
CONTINUOUS
 10
-62.2532510022
 20
-24.6901348538
 11
-62.2457626324
 21
-24.7055388831
  0
LINE
  5
4FA
100
AcDbEntity
  8
RACCORDO
100
AcDbLine
 62
7
  6
CONTINUOUS
 10
-62.246120407
 20
-24.7047978053
 11
-62.2382792307
 21
-24.7211601582
  0
LINE
  5
4FB
100
AcDbEntity
  8
RACCORDO
100
AcDbLine
 62
7
  6
CONTINUOUS
 10
-62.2385441135
 20
-24.720603254
 11
-62.2308027052
 21
-24.7370025186
  0
LINE
  5
4FC
100
AcDbEntity
  8
RACCORDO
100
AcDbLine
 62
7
  6
CONTINUOUS
 10
-62.2309723262
 20
-24.736640429
 11
-62.2234085478
 21
-24.7529105276
  0
LINE
  5
4FD
100
AcDbEntity
  8
RACCORDO
100
AcDbLine
 62
7
  6
CONTINUOUS
 10
-62.2233351862
 20
-24.753069586
 11
-62.2158564399
 21
-24.7694145054
  0
LINE
  5
4FE
100
AcDbEntity
  8
RACCORDO
100
AcDbLine
 62
7
  6
CONTINUOUS
 10
-62.2177410671
 20
-24.7652711473
 11
-62.2108303197
 21
-24.7805468774
  0
LINE
  5
4FF
100
AcDbEntity
  8
RACCORDO
100
AcDbLine
 62
7
  6
CONTINUOUS
 10
-62.2121492029
 20
-24.7776139562
 11
-62.2058127547
 21
-24.7917825039
  0
LINE
  5
500
100
AcDbEntity
  8
RACCORDO
100
AcDbLine
 62
7
  6
CONTINUOUS
 10
-62.2065546003
 20
-24.7901134956
 11
-62.2008050587
 21
-24.8031211717
  0
LINE
  5
501
100
AcDbEntity
  8
RACCORDO
100
AcDbLine
 62
7
  6
CONTINUOUS
 10
-62.2009524703
 20
-24.8027855751
 11
-62.1953383609
 21
-24.8156460583
  0
LINE
  5
502
100
AcDbEntity
  8
RACCORDO
100
AcDbLine
 62
7
  6
CONTINUOUS
 10
-62.1958086523
 20
-24.8145624185
 11
-62.1883382564
 21
-24.831915722
  0
LINE
  5
503
100
AcDbEntity
  8
RACCORDO
100
AcDbLine
 62
7
  6
CONTINUOUS
 10
-62.1897081398
 20
-24.8287109244
 11
-62.1833761635
 21
-24.843611594
  0
LINE
  5
504
100
AcDbEntity
  8
RACCORDO
100
AcDbLine
 62
7
  6
CONTINUOUS
 10
-62.1840580051
 20
-24.8419962676
 11
-62.1784301684
 21
-24.8554087044
  0
LINE
  5
505
100
AcDbEntity
  8
RACCORDO
100
AcDbLine
 62
7
  6
CONTINUOUS
 10
-62.1783844974
 20
-24.8555182974
 11
-62.1726845124
 21
-24.8692933386
  0
LINE
  5
506
100
AcDbEntity
  8
RACCORDO
100
AcDbLine
 62
7
  6
CONTINUOUS
 10
-62.1735016866
 20
-24.8673065428
 11
-62.1707780723
 21
-24.8739442716
  0
LINE
  5
507
100
AcDbEntity
  8
RACCORDO
100
AcDbLine
 62
7
  6
CONTINUOUS
 10
-59.202240383
 20
-39.1057776216
 11
-59.1922516426
 21
-39.1319517149
  0
LINE
  5
508
100
AcDbEntity
  8
SUPERFICI
100
AcDbLine
 62
7
  6
CONTINUOUS
 10
-60.5945049986
 20
34.515641122
 11
-60.6508127636
 21
34.2852497949
  0
LINE
  5
509
100
AcDbEntity
  8
SUPERFICI
100
AcDbLine
 62
7
  6
CONTINUOUS
 10
-60.5366750753
 20
34.7473248282
 11
-60.5945049986
 21
34.515641122
  0
LINE
  5
50A
100
AcDbEntity
  8
SUPERFICI
100
AcDbLine
 62
7
  6
CONTINUOUS
 10
-60.4773198125
 20
34.9801850508
 11
-60.5366750753
 21
34.7473248282
  0
LINE
  5
50B
100
AcDbEntity
  8
SUPERFICI
100
AcDbLine
 62
7
  6
CONTINUOUS
 10
-60.4164326976
 20
35.2141239248
 11
-60.4773198125
 21
34.9801850508
  0
LINE
  5
50C
100
AcDbEntity
  8
SUPERFICI
100
AcDbLine
 62
7
  6
CONTINUOUS
 10
-60.3539922868
 20
35.4491023783
 11
-60.4164326976
 21
35.2141239248
  0
LINE
  5
50D
100
AcDbEntity
  8
SUPERFICI
100
AcDbLine
 62
7
  6
CONTINUOUS
 10
-60.2899606505
 20
35.6851398217
 11
-60.3539922868
 21
35.4491023783
  0
LINE
  5
50E
100
AcDbEntity
  8
SUPERFICI
100
AcDbLine
 62
7
  6
CONTINUOUS
 10
-60.2242953859
 20
35.9222651104
 11
-60.2899606505
 21
35.6851398217
  0
LINE
  5
50F
100
AcDbEntity
  8
RACCORDO
100
AcDbLine
 62
7
  6
CONTINUOUS
 10
-62.0557876394
 20
25.210988424
 11
-62.0598109156
 21
25.1965578867
  0
LINE
  5
510
100
AcDbEntity
  8
RACCORDO
100
AcDbLine
 62
7
  6
CONTINUOUS
 10
-62.0598109156
 20
25.1965578867
 11
-62.0638842858
 21
25.1822240162
  0
LINE
  5
511
100
AcDbEntity
  8
RACCORDO
100
AcDbLine
 62
7
  6
CONTINUOUS
 10
-62.0638842858
 20
25.1822240162
 11
-62.0680065
 21
25.1679868774
  0
LINE
  5
512
100
AcDbEntity
  8
RACCORDO
100
AcDbLine
 62
7
  6
CONTINUOUS
 10
-62.0680065
 20
25.1679868774
 11
-62.0721763101
 21
25.153846542
  0
LINE
  5
513
100
AcDbEntity
  8
RACCORDO
100
AcDbLine
 62
7
  6
CONTINUOUS
 10
-62.0721763101
 20
25.153846542
 11
-62.0763924746
 21
25.1398030718
  0
LINE
  5
514
100
AcDbEntity
  8
RACCORDO
100
AcDbLine
 62
7
  6
CONTINUOUS
 10
-62.0763924746
 20
25.1398030718
 11
-62.0806537638
 21
25.1258565011
  0
LINE
  5
515
100
AcDbEntity
  8
RACCORDO
100
AcDbLine
 62
7
  6
CONTINUOUS
 10
-62.0806537638
 20
25.1258565011
 11
-62.0849589499
 21
25.112006872
  0
LINE
  5
516
100
AcDbEntity
  8
RACCORDO
100
AcDbLine
 62
7
  6
CONTINUOUS
 10
-62.0849589499
 20
25.112006872
 11
-62.0893068117
 21
25.0982542168
  0
LINE
  5
517
100
AcDbEntity
  8
RACCORDO
100
AcDbLine
 62
7
  6
CONTINUOUS
 10
-62.0893068117
 20
25.0982542168
 11
-62.0936961406
 21
25.084598541
  0
LINE
  5
518
100
AcDbEntity
  8
RACCORDO
100
AcDbLine
 62
7
  6
CONTINUOUS
 10
-62.0936961406
 20
25.084598541
 11
-62.0981257294
 21
25.0710398582
  0
LINE
  5
519
100
AcDbEntity
  8
RACCORDO
100
AcDbLine
 62
7
  6
CONTINUOUS
 10
-62.0981257294
 20
25.0710398582
 11
-62.102594378
 21
25.0575781726
  0
LINE
  5
51A
100
AcDbEntity
  8
RACCORDO
100
AcDbLine
 62
7
  6
CONTINUOUS
 10
-62.102594378
 20
25.0575781726
 11
-62.1071008991
 21
25.0442134625
  0
LINE
  5
51B
100
AcDbEntity
  8
RACCORDO
100
AcDbLine
 62
7
  6
CONTINUOUS
 10
-62.1071008991
 20
25.0442134625
 11
-62.1116441068
 21
25.0309457143
  0
LINE
  5
51C
100
AcDbEntity
  8
RACCORDO
100
AcDbLine
 62
7
  6
CONTINUOUS
 10
-62.1116441068
 20
25.0309457143
 11
-62.1162228225
 21
25.0177749058
  0
LINE
  5
51D
100
AcDbEntity
  8
RACCORDO
100
AcDbLine
 62
7
  6
CONTINUOUS
 10
-62.1162228225
 20
25.0177749058
 11
-62.1208358806
 21
25.0047009892
  0
LINE
  5
51E
100
AcDbEntity
  8
RACCORDO
100
AcDbLine
 62
7
  6
CONTINUOUS
 10
-62.1208358806
 20
25.0047009892
 11
-62.1254821172
 21
24.9917239252
  0
LINE
  5
51F
100
AcDbEntity
  8
RACCORDO
100
AcDbLine
 62
7
  6
CONTINUOUS
 10
-62.1254821172
 20
24.9917239252
 11
-62.1301603766
 21
24.978843663
  0
LINE
  5
520
100
AcDbEntity
  8
RACCORDO
100
AcDbLine
 62
7
  6
CONTINUOUS
 10
-62.1301603766
 20
24.978843663
 11
-62.1348695117
 21
24.9660601409
  0
LINE
  5
521
100
AcDbEntity
  8
RACCORDO
100
AcDbLine
 62
7
  6
CONTINUOUS
 10
-62.1348695117
 20
24.9660601409
 11
-62.1396083994
 21
24.9533732449
  0
LINE
  5
522
100
AcDbEntity
  8
RACCORDO
100
AcDbLine
 62
7
  6
CONTINUOUS
 10
-62.1396083994
 20
24.9533732449
 11
-62.1443757231
 21
24.9407833831
  0
LINE
  5
523
100
AcDbEntity
  8
RACCORDO
100
AcDbLine
 62
7
  6
CONTINUOUS
 10
-62.1443757231
 20
24.9407833831
 11
-62.1491702149
 21
24.9282908235
  0
LINE
  5
524
100
AcDbEntity
  8
RACCORDO
100
AcDbLine
 62
7
  6
CONTINUOUS
 10
-62.1491702149
 20
24.9282908235
 11
-62.1539904694
 21
24.9158961792
  0
LINE
  5
525
100
AcDbEntity
  8
RACCORDO
100
AcDbLine
 62
7
  6
CONTINUOUS
 10
-62.1539904694
 20
24.9158961792
 11
-62.158835085
 21
24.9036000291
  0
LINE
  5
526
100
AcDbEntity
  8
RACCORDO
100
AcDbLine
 62
7
  6
CONTINUOUS
 10
-62.158835085
 20
24.9036000291
 11
-62.1637027539
 21
24.8914026964
  0
LINE
  5
527
100
AcDbEntity
  8
RACCORDO
100
AcDbLine
 62
7
  6
CONTINUOUS
 10
-62.1637027539
 20
24.8914026964
 11
-62.1710443999
 21
24.8732932066
  0
LWPOLYLINE
  5
528
100
AcDbEntity
  8
0
100
AcDbPolyline
 62
7
  6
CONTINUOUS
 90
13
 70
0
 43
0.3500000006
 10
-73.2189745789
 20
-1.9285708809
 10
-73.4332590637
 20
-2.2142854156
 10
-74.0761170502
 20
-2.2142854156
 10
-74.5046905518
 20
-1.9285708809
 10
-74.5046905518
 20
-1.2857140274
 10
-74.0761170502
 20
-1.0000006256
 10
-73.4332590637
 20
-1.0000006256
 10
-73.2189745789
 20
-1.2857140274
 10
-72.7904056091
 20
-0.8571427917
 10
-71.9332631378
 20
-0.8571427917
 10
-71.5046896362
 20
-1.2857140274
 10
-71.5046896362
 20
-1.9285708809
 10
-71.9332631378
 20
-2.3571432495
  0
LINE
  5
529
100
AcDbEntity
  8
RACCORDO
100
AcDbLine
 62
7
  6
CONTINUOUS
 10
-62.171044461
 20
-24.8732930573
 11
-62.1637028131
 21
-24.8914025489
  0
LINE
  5
52A
100
AcDbEntity
  8
RACCORDO
100
AcDbLine
 62
7
  6
CONTINUOUS
 10
-62.1650385969
 20
-24.8880822547
 11
-62.158835143
 21
-24.9035998828
  0
LINE
  5
52B
100
AcDbEntity
  8
RACCORDO
100
AcDbLine
 62
7
  6
CONTINUOUS
 10
-62.1592668625
 20
-24.9025117884
 11
-62.1534606272
 21
-24.9172506747
  0
LINE
  5
52C
100
AcDbEntity
  8
RACCORDO
100
AcDbLine
 62
7
  6
CONTINUOUS
 10
-62.1539905262
 20
-24.9158960342
 11
-62.1475977428
 21
-24.9323697454
  0
LINE
  5
52D
100
AcDbEntity
  8
RACCORDO
100
AcDbLine
 62
7
  6
CONTINUOUS
 10
-62.1491702704
 20
-24.9282906798
 11
-62.1436341136
 21
-24.9427307133
  0
LINE
  5
52E
100
AcDbEntity
  8
RACCORDO
100
AcDbLine
 62
7
  6
CONTINUOUS
 10
-62.1443757774
 20
-24.9407832407
 11
-62.1375658303
 21
-24.9588201787
  0
LINE
  5
52F
100
AcDbEntity
  8
RACCORDO
100
AcDbLine
 62
7
  6
CONTINUOUS
 10
-62.1396084524
 20
-24.9533731039
 11
-62.1334288021
 21
-24.969952165
  0
LINE
  5
530
100
AcDbEntity
  8
RACCORDO
100
AcDbLine
 62
7
  6
CONTINUOUS
 10
-62.1348695635
 20
-24.9660600014
 11
-62.1292240817
 21
-24.9814068632
  0
LINE
  5
531
100
AcDbEntity
  8
RACCORDO
100
AcDbLine
 62
7
  6
CONTINUOUS
 10
-62.1301604271
 20
-24.978843525
 11
-62.1249706072
 21
-24.9931434268
  0
LINE
  5
532
100
AcDbEntity
  8
RACCORDO
100
AcDbLine
 62
7
  6
CONTINUOUS
 10
-62.1254821664
 20
-24.9917237887
 11
-62.1206873765
 21
-25.005118883
  0
LINE
  5
533
100
AcDbEntity
  8
RACCORDO
100
AcDbLine
 62
7
  6
CONTINUOUS
 10
-62.1208359286
 20
-25.0047008542
 11
-62.1163872764
 21
-25.017305493
  0
LINE
  5
534
100
AcDbEntity
  8
RACCORDO
100
AcDbLine
 62
7
  6
CONTINUOUS
 10
-62.1185251801
 20
-25.0112257009
 11
-62.1120876896
 21
-25.0296610518
  0
LINE
  5
535
100
AcDbEntity
  8
RACCORDO
100
AcDbLine
 62
7
  6
CONTINUOUS
 10
-62.1139291452
 20
-25.0243480628
 11
-62.1078055195
 21
-25.0421424017
  0
LINE
  5
536
100
AcDbEntity
  8
RACCORDO
100
AcDbLine
 62
7
  6
CONTINUOUS
 10
-62.1093680347
 20
-25.0375673416
 11
-62.1035511923
 21
-25.0547231825
  0
LINE
  5
537
100
AcDbEntity
  8
RACCORDO
100
AcDbLine
 62
7
  6
CONTINUOUS
 10
-62.1048430234
 20
-25.0508835638
 11
-62.0993400091
 21
-25.0673607396
  0
LINE
  5
538
100
AcDbEntity
  8
RACCORDO
100
AcDbLine
 62
7
  6
CONTINUOUS
 10
-62.1003552879
 20
-25.0642967643
 11
-62.0951731067
 21
-25.0800533138
  0
LINE
  5
539
100
AcDbEntity
  8
RACCORDO
100
AcDbLine
 62
7
  6
CONTINUOUS
 10
-62.0959060177
 20
-25.0778069524
 11
-62.0910516632
 21
-25.0927989148
  0
LINE
  5
53A
100
AcDbEntity
  8
RACCORDO
100
AcDbLine
 62
7
  6
CONTINUOUS
 10
-62.0914964093
 20
-25.0914141282
 11
-62.0869754063
 21
-25.1056000263
  0
LINE
  5
53B
100
AcDbEntity
  8
RACCORDO
100
AcDbLine
 62
7
  6
CONTINUOUS
 10
-62.0871276607
 20
-25.1051182999
 11
-62.0828009826
 21
-25.1189194496
  0
LINE
  5
53C
100
AcDbEntity
  8
RACCORDO
100
AcDbLine
 62
7
  6
CONTINUOUS
 10
-62.0829444188
 20
-25.1184581544
 11
-62.0785175927
 21
-25.1328175495
  0
LINE
  5
53D
100
AcDbEntity
  8
RACCORDO
100
AcDbLine
 62
7
  6
CONTINUOUS
 10
-62.078958978
 20
-25.1313742741
 11
-62.07427871
 21
-25.1468125799
  0
LINE
  5
53E
100
AcDbEntity
  8
RACCORDO
100
AcDbLine
 62
7
  6
CONTINUOUS
 10
-62.0750192213
 20
-25.1443498979
 11
-62.0700855661
 21
-25.160904494
  0
LINE
  5
53F
100
AcDbEntity
  8
RACCORDO
100
AcDbLine
 62
7
  6
CONTINUOUS
 10
-62.071125317
 20
-25.1573865418
 11
-62.065939399
 21
-25.175093235
  0
LWPOLYLINE
  5
540
100
AcDbEntity
  8
SUPERFICI
100
AcDbPolyline
 62
7
  6
CONTINUOUS
 90
25
 70
0
 10
-60.1569615965
 20
-36.160473269
 10
-60.1226555083
 20
-36.2799894586
 10
-60.0879194068
 20
-36.3997713282
 10
-60.0527467583
 20
-36.5198242576
 10
-60.0171336847
 20
-36.6401441065
 10
-59.9810774991
 20
-36.760722552
 10
-59.9445733162
 20
-36.8815584558
 10
-59.9076170372
 20
-37.0026477648
 10
-59.8702060629
 20
-37.1239813462
 10
-59.8323377216
 20
-37.2455502577
 10
-59.7940081942
 20
-37.3673491326
 10
-59.7552145913
 20
-37.4893694934
 10
-59.7159556928
 20
-37.6115976103
 10
-59.6762282247
 20
-37.7340261798
 10
-59.6360288184
 20
-37.8566480512
 10
-59.5953562025
 20
-37.9794496285
 10
-59.5542063105
 20
-38.1024257387
 10
-59.5125766112
 20
-38.2255664906
 10
-59.4704682861
 20
-38.3488511972
 10
-59.4278772151
 20
-38.4722748594
 10
-59.3848011085
 20
-38.5958270133
 10
-59.3412441634
 20
-38.7194788491
 10
-59.2972023017
 20
-38.8432254131
 10
-59.2526735013
 20
-38.967055819
 10
-59.2022401826
 20
-39.105778554
  0
LINE
  5
541
100
AcDbEntity
  8
RACCORDO
100
AcDbLine
 62
7
  6
CONTINUOUS
 10
-62.0672776215
 20
-25.1704851885
 11
-62.0618414486
 21
-25.1893787535
  0
LINE
  5
542
100
AcDbEntity
  8
RACCORDO
100
AcDbLine
 62
7
  6
CONTINUOUS
 10
-62.0634763591
 20
-25.1836473592
 11
-62.0598109464
 21
-25.1965577774
  0
LINE
  5
543
100
AcDbEntity
  8
SUPERFICI
100
AcDbLine
 62
7
  6
CONTINUOUS
 10
-60.2242953859
 20
-35.9222651104
 11
-60.1569615965
 21
-36.160473269
  0
LINE
  5
544
100
AcDbEntity
  8
RACCORDO
100
AcDbLine
 62
7
  6
CONTINUOUS
 10
-62.0598109464
 20
-25.1965577774
 11
-62.055787669
 21
-25.2109883168
  0
LINE
  5
545
100
AcDbEntity
  8
SUPERFICI
100
AcDbLine
 62
7
  6
CONTINUOUS
 10
-60.2899606505
 20
-35.6851398217
 11
-60.2242953859
 21
-35.9222651104
  0
LINE
  5
546
100
AcDbEntity
  8
SUPERFICI
100
AcDbLine
 62
7
  6
CONTINUOUS
 10
-60.3539922868
 20
-35.4491023783
 11
-60.2899606505
 21
-35.6851398217
  0
LINE
  5
547
100
AcDbEntity
  8
SUPERFICI
100
AcDbLine
 62
7
  6
CONTINUOUS
 10
-60.4164326976
 20
-35.2141239248
 11
-60.3539922868
 21
-35.4491023783
  0
LINE
  5
548
100
AcDbEntity
  8
SUPERFICI
100
AcDbLine
 62
7
  6
CONTINUOUS
 10
-60.4773198125
 20
-34.9801850508
 11
-60.4164326976
 21
-35.2141239248
  0
LINE
  5
549
100
AcDbEntity
  8
SUPERFICI
100
AcDbLine
 62
7
  6
CONTINUOUS
 10
-60.5366750753
 20
-34.7473248282
 11
-60.4773198125
 21
-34.9801850508
  0
LWPOLYLINE
  5
54A
100
AcDbEntity
  8
SUPERFICI
100
AcDbPolyline
 62
7
  6
CONTINUOUS
 90
3
 70
0
 10
-60.6508127636
 20
-34.2852497949
 10
-60.6228484824
 20
-34.400278349
 10
-60.5366750753
 20
-34.7473248282
  0
LINE
  5
54B
100
AcDbEntity
  8
SUPERFICI
100
AcDbLine
 62
7
  6
CONTINUOUS
 10
-61.4638702137
 20
30.1805731612
 11
-61.4920251084
 21
29.9977435455
  0
LINE
  5
54C
100
AcDbEntity
  8
SUPERFICI
100
AcDbLine
 62
7
  6
CONTINUOUS
 10
-61.4345280333
 20
30.3666361279
 11
-61.4638702137
 21
30.1805731612
  0
LINE
  5
54D
100
AcDbEntity
  8
SUPERFICI
100
AcDbLine
 62
7
  6
CONTINUOUS
 10
-61.4039495038
 20
30.5560011168
 11
-61.4345280333
 21
30.3666361279
  0
LINE
  5
54E
100
AcDbEntity
  8
RACCORDO
100
AcDbLine
 62
7
  6
CONTINUOUS
 10
-61.9851569273
 20
25.5361054491
 11
-61.9878277609
 21
25.5196825741
  0
LINE
  5
54F
100
AcDbEntity
  8
SUPERFICI
100
AcDbLine
 62
7
  6
CONTINUOUS
 10
-61.3720847319
 20
30.7487296763
 11
-61.4039495038
 21
30.5560011168
  0
LINE
  5
550
100
AcDbEntity
  8
RACCORDO
100
AcDbLine
 62
7
  6
CONTINUOUS
 10
-61.9878277609
 20
25.5196825741
 11
-61.9905764002
 21
25.5033521032
  0
LINE
  5
551
100
AcDbEntity
  8
SUPERFICI
100
AcDbLine
 62
7
  6
CONTINUOUS
 10
-61.3389261591
 20
30.9446244661
 11
-61.3720847319
 21
30.7487296763
  0
LINE
  5
552
100
AcDbEntity
  8
SUPERFICI
100
AcDbLine
 62
7
  6
CONTINUOUS
 10
-61.3044539438
 20
31.1435701957
 11
-61.3389261591
 21
30.9446244661
  0
LINE
  5
553
100
AcDbEntity
  8
RACCORDO
100
AcDbLine
 62
7
  6
CONTINUOUS
 10
-61.9905764002
 20
25.5033521032
 11
-61.9934014735
 21
25.487114354
  0
LINE
  5
554
100
AcDbEntity
  8
SUPERFICI
100
AcDbLine
 62
7
  6
CONTINUOUS
 10
-61.2686603779
 20
31.3453887061
 11
-61.3044539438
 21
31.1435701957
  0
LINE
  5
555
100
AcDbEntity
  8
RACCORDO
100
AcDbLine
 62
7
  6
CONTINUOUS
 10
-61.9934014735
 20
25.487114354
 11
-61.9963016113
 21
25.4709696484
  0
LINE
  5
556
100
AcDbEntity
  8
SUPERFICI
100
AcDbLine
 62
7
  6
CONTINUOUS
 10
-61.2315408778
 20
31.5498957678
 11
-61.2686603779
 21
31.3453887061
  0
LINE
  5
557
100
AcDbEntity
  8
SUPERFICI
100
AcDbLine
 62
7
  6
CONTINUOUS
 10
-61.1930830933
 20
31.7569601731
 11
-61.2315408778
 21
31.5498957678
  0
LINE
  5
558
100
AcDbEntity
  8
RACCORDO
100
AcDbLine
 62
7
  6
CONTINUOUS
 10
-61.9963016113
 20
25.4709696484
 11
-61.9992754486
 21
25.4549182946
  0
LINE
  5
559
100
AcDbEntity
  8
SUPERFICI
100
AcDbLine
 62
7
  6
CONTINUOUS
 10
-61.1532893241
 20
31.9663810093
 11
-61.1930830933
 21
31.7569601731
  0
LINE
  5
55A
100
AcDbEntity
  8
RACCORDO
100
AcDbLine
 62
7
  6
CONTINUOUS
 10
-61.9992754486
 20
25.4549182946
 11
-62.0023216288
 21
25.4389605698
  0
LINE
  5
55B
100
AcDbEntity
  8
SUPERFICI
100
AcDbLine
 62
7
  6
CONTINUOUS
 10
-61.1121523938
 20
32.1780183232
 11
-61.1532893241
 21
31.9663810093
  0
LINE
  5
55C
100
AcDbEntity
  8
RACCORDO
100
AcDbLine
 62
7
  6
CONTINUOUS
 10
-62.0023216288
 20
25.4389605698
 11
-62.0054387968
 21
25.4230967556
  0
LINE
  5
55D
100
AcDbEntity
  8
SUPERFICI
100
AcDbLine
 62
7
  6
CONTINUOUS
 10
-61.0696543461
 20
32.3917932603
 11
-61.1121523938
 21
32.1780183232
  0
LINE
  5
55E
100
AcDbEntity
  8
RACCORDO
100
AcDbLine
 62
7
  6
CONTINUOUS
 10
-62.0054387968
 20
25.4230967556
 11
-62.0086256028
 21
25.4073271207
  0
LINE
  5
55F
100
AcDbEntity
  8
SUPERFICI
100
AcDbLine
 62
7
  6
CONTINUOUS
 10
-61.0257746203
 20
32.6076417623
 11
-61.0696543461
 21
32.3917932603
  0
LINE
  5
560
100
AcDbEntity
  8
SUPERFICI
100
AcDbLine
 62
7
  6
CONTINUOUS
 10
-60.9804944087
 20
32.8254922079
 11
-61.0257746203
 21
32.6076417623
  0
LINE
  5
561
100
AcDbEntity
  8
RACCORDO
100
AcDbLine
 62
7
  6
CONTINUOUS
 10
-62.0086256028
 20
25.4073271207
 11
-62.0118807057
 21
25.3916519032
  0
LINE
  5
562
100
AcDbEntity
  8
SUPERFICI
100
AcDbLine
 62
7
  6
CONTINUOUS
 10
-60.9337925605
 20
33.0452852408
 11
-60.9804944087
 21
32.8254922079
  0
LINE
  5
563
100
AcDbEntity
  8
RACCORDO
100
AcDbLine
 62
7
  6
CONTINUOUS
 10
-62.0118807057
 20
25.3916519032
 11
-62.0152027664
 21
25.376071346
  0
LINE
  5
564
100
AcDbEntity
  8
SUPERFICI
100
AcDbLine
 62
7
  6
CONTINUOUS
 10
-60.8856522832
 20
33.2669418828
 11
-60.9337925605
 21
33.0452852408
  0
LINE
  5
565
100
AcDbEntity
  8
RACCORDO
100
AcDbLine
 62
7
  6
CONTINUOUS
 10
-62.0152027664
 20
25.376071346
 11
-62.018590451
 21
25.3605856798
  0
LINE
  5
566
100
AcDbEntity
  8
SUPERFICI
100
AcDbLine
 62
7
  6
CONTINUOUS
 10
-60.8360586969
 20
33.4903764584
 11
-60.8856522832
 21
33.2669418828
  0
LINE
  5
567
100
AcDbEntity
  8
RACCORDO
100
AcDbLine
 62
7
  6
CONTINUOUS
 10
-62.018590451
 20
25.3605856798
 11
-62.0220424351
 21
25.345195105
  0
LINE
  5
568
100
AcDbEntity
  8
SUPERFICI
100
AcDbLine
 62
7
  6
CONTINUOUS
 10
-60.7849936811
 20
33.7155197606
 11
-60.8360586969
 21
33.4903764584
  0
LINE
  5
569
100
AcDbEntity
  8
RACCORDO
100
AcDbLine
 62
7
  6
CONTINUOUS
 10
-62.0220424351
 20
25.345195105
 11
-62.0255573962
 21
25.3298998274
  0
LINE
  5
56A
100
AcDbEntity
  8
SUPERFICI
100
AcDbLine
 62
7
  6
CONTINUOUS
 10
-60.732444573
 20
33.9422801678
 11
-60.7849936811
 21
33.7155197606
  0
LINE
  5
56B
100
AcDbEntity
  8
RACCORDO
100
AcDbLine
 62
7
  6
CONTINUOUS
 10
-62.0255573962
 20
25.3298998274
 11
-62.0291340173
 21
25.314700041
  0
LWPOLYLINE
  5
56C
100
AcDbEntity
  8
SUPERFICI
100
AcDbPolyline
 62
7
  6
CONTINUOUS
 90
3
 70
0
 10
-60.6508127636
 20
34.2852497949
 10
-60.6784009661
 20
34.1705593254
 10
-60.732444573
 20
33.9422801678
  0
LINE
  5
56D
100
AcDbEntity
  8
RACCORDO
100
AcDbLine
 62
7
  6
CONTINUOUS
 10
-62.0291340173
 20
25.314700041
 11
-62.0327709915
 21
25.2995959099
  0
LINE
  5
56E
100
AcDbEntity
  8
RACCORDO
100
AcDbLine
 62
7
  6
CONTINUOUS
 10
-62.0327709915
 20
25.2995959099
 11
-62.0364670137
 21
25.2845876045
  0
LINE
  5
56F
100
AcDbEntity
  8
RACCORDO
100
AcDbLine
 62
7
  6
CONTINUOUS
 10
-62.0364670137
 20
25.2845876045
 11
-62.0402207849
 21
25.2696752833
  0
LINE
  5
570
100
AcDbEntity
  8
RACCORDO
100
AcDbLine
 62
7
  6
CONTINUOUS
 10
-62.0402207849
 20
25.2696752833
 11
-62.0440310162
 21
25.254859076
  0
LINE
  5
571
100
AcDbEntity
  8
RACCORDO
100
AcDbLine
 62
7
  6
CONTINUOUS
 10
-62.0440310162
 20
25.254859076
 11
-62.047896421
 21
25.2401391185
  0
LINE
  5
572
100
AcDbEntity
  8
RACCORDO
100
AcDbLine
 62
7
  6
CONTINUOUS
 10
-62.047896421
 20
25.2401391185
 11
-62.0518157186
 21
25.2255155357
  0
LINE
  5
573
100
AcDbEntity
  8
RACCORDO
100
AcDbLine
 62
7
  6
CONTINUOUS
 10
-62.0518157186
 20
25.2255155357
 11
-62.0557876394
 21
25.210988424
  0
LINE
  5
574
100
AcDbEntity
  8
RACCORDO
100
AcDbLine
 62
7
  6
CONTINUOUS
 10
-62.0560143406
 20
-25.2101678325
 11
-62.0518157471
 21
-25.2255154307
  0
LINE
  5
575
100
AcDbEntity
  8
RACCORDO
100
AcDbLine
 62
7
  6
CONTINUOUS
 10
-62.0523543361
 20
-25.2235286503
 11
-62.0478964483
 21
-25.2401390157
  0
LINE
  5
576
100
AcDbEntity
  8
RACCORDO
100
AcDbLine
 62
7
  6
CONTINUOUS
 10
-62.0487421197
 20
-25.2369585607
 11
-62.0440310424
 21
-25.2548589754
  0
LINE
  5
577
100
AcDbEntity
  8
RACCORDO
100
AcDbLine
 62
7
  6
CONTINUOUS
 10
-62.0451782132
 20
-25.2504585539
 11
-62.0402208099
 21
-25.269675185
  0
LINE
  5
578
100
AcDbEntity
  8
RACCORDO
100
AcDbLine
 62
7
  6
CONTINUOUS
 10
-62.0416630228
 20
-25.2640301607
 11
-62.0381969889
 21
-25.2776749134
  0
LINE
  5
579
100
AcDbEntity
  8
RACCORDO
100
AcDbLine
 62
7
  6
CONTINUOUS
 10
-62.0383367858
 20
-25.2771193404
 11
-62.0347807199
 21
-25.2913938015
  0
LINE
  5
57A
100
AcDbEntity
  8
RACCORDO
100
AcDbLine
 62
7
  6
CONTINUOUS
 10
-62.0364670376
 20
-25.2845875085
 11
-62.0327710143
 21
-25.2995958163
  0
LINE
  5
57B
100
AcDbEntity
  8
RACCORDO
100
AcDbLine
 62
7
  6
CONTINUOUS
 10
-62.0330913777
 20
-25.2982816268
 11
-62.029134039
 21
-25.3146999498
  0
LINE
  5
57C
100
AcDbEntity
  8
SUPERFICI
100
AcDbLine
 62
7
  6
CONTINUOUS
 10
-60.7056105665
 20
-34.0562345087
 11
-60.6508127636
 21
-34.2852497949
  0
LINE
  5
57D
100
AcDbEntity
  8
RACCORDO
100
AcDbLine
 62
7
  6
CONTINUOUS
 10
-62.0297507241
 20
-25.3121145218
 11
-62.0255574168
 21
-25.3298997387
  0
LINE
  5
57E
100
AcDbEntity
  8
SUPERFICI
100
AcDbLine
 62
7
  6
CONTINUOUS
 10
-60.7589062335
 20
-33.8286999765
 11
-60.7056105665
 21
-34.0562345087
  0
LINE
  5
57F
100
AcDbEntity
  8
RACCORDO
100
AcDbLine
 62
7
  6
CONTINUOUS
 10
-62.026461218
 20
-25.3260251085
 11
-62.0220424547
 21
-25.3451950187
  0
LINE
  5
580
100
AcDbEntity
  8
SUPERFICI
100
AcDbLine
 62
7
  6
CONTINUOUS
 10
-60.8107100498
 20
-33.6027441005
 11
-60.7589062335
 21
-33.8286999765
  0
LINE
  5
581
100
AcDbEntity
  8
RACCORDO
100
AcDbLine
 62
7
  6
CONTINUOUS
 10
-62.0232234452
 20
-25.3400149175
 11
-62.0200381496
 21
-25.354084932
  0
LINE
  5
582
100
AcDbEntity
  8
SUPERFICI
100
AcDbLine
 62
7
  6
CONTINUOUS
 10
-60.8610383605
 20
-33.3784409422
 11
-60.8107100498
 21
-33.6027441005
  0
LINE
  5
583
100
AcDbEntity
  8
RACCORDO
100
AcDbLine
 62
7
  6
CONTINUOUS
 10
-62.0203085082
 20
-25.3528784045
 11
-62.0168885067
 21
-25.3683165562
  0
LINE
  5
584
100
AcDbEntity
  8
SUPERFICI
100
AcDbLine
 62
7
  6
CONTINUOUS
 10
-60.9099039176
 20
-33.1558825141
 11
-60.8610383605
 21
-33.3784409422
  0
LINE
  5
585
100
AcDbEntity
  8
RACCORDO
100
AcDbLine
 62
7
  6
CONTINUOUS
 10
-62.0184653598
 20
-25.361150596
 11
-62.0152027839
 21
-25.3760712648
  0
LINE
  5
586
100
AcDbEntity
  8
SUPERFICI
100
AcDbLine
 62
7
  6
CONTINUOUS
 10
-60.9573215462
 20
-32.9351541418
 11
-60.9099039176
 21
-33.1558825141
  0
LINE
  5
587
100
AcDbEntity
  8
RACCORDO
100
AcDbLine
 62
7
  6
CONTINUOUS
 10
-62.0153600256
 20
-25.3753437125
 11
-62.0118807222
 21
-25.3916518245
  0
LINE
  5
588
100
AcDbEntity
  8
SUPERFICI
100
AcDbLine
 62
7
  6
CONTINUOUS
 10
-61.0033109638
 20
-32.7163201381
 11
-60.9573215462
 21
-32.9351541418
  0
LINE
  5
589
100
AcDbEntity
  8
RACCORDO
100
AcDbLine
 62
7
  6
CONTINUOUS
 10
-62.0123089198
 20
-25.3896205741
 11
-62.0086256183
 21
-25.4073270447
  0
LINE
  5
58A
100
AcDbEntity
  8
SUPERFICI
100
AcDbLine
 62
7
  6
CONTINUOUS
 10
-61.0478889808
 20
-32.4994598135
 11
-61.0033109638
 21
-32.7163201381
  0
LINE
  5
58B
100
AcDbEntity
  8
RACCORDO
100
AcDbLine
 62
7
  6
CONTINUOUS
 10
-62.0093127807
 20
-25.403982702
 11
-62.0054388114
 21
-25.4230966822
  0
LINE
  5
58C
100
AcDbEntity
  8
SUPERFICI
100
AcDbLine
 62
7
  6
CONTINUOUS
 10
-61.0910743062
 20
-32.2846450693
 11
-61.0478889808
 21
-32.4994598135
  0
LINE
  5
58D
100
AcDbEntity
  8
RACCORDO
100
AcDbLine
 62
7
  6
CONTINUOUS
 10
-62.0063724945
 20
-25.418431066
 11
-62.0034888671
 21
-25.43296718
  0
LINE
  5
58E
100
AcDbEntity
  8
SUPERFICI
100
AcDbLine
 62
7
  6
CONTINUOUS
 10
-61.1328890047
 20
-32.0719320722
 11
-61.0910743062
 21
-32.2846450693
  0
LINE
  5
58F
100
AcDbEntity
  8
RACCORDO
100
AcDbLine
 62
7
  6
CONTINUOUS
 10
-62.0038714373
 20
-25.4310168381
 11
-62.0006627426
 21
-25.4475925545
  0
LINE
  5
590
100
AcDbEntity
  8
SUPERFICI
100
AcDbLine
 62
7
  6
CONTINUOUS
 10
-61.173355364
 20
-31.8613759748
 11
-61.1328890047
 21
-32.0719320722
  0
LINE
  5
591
100
AcDbEntity
  8
SUPERFICI
100
AcDbLine
 62
7
  6
CONTINUOUS
 10
-61.2124773364
 20
-31.6531308138
 11
-61.173355364
 21
-31.8613759748
  0
LINE
  5
592
100
AcDbEntity
  8
RACCORDO
100
AcDbLine
 62
7
  6
CONTINUOUS
 10
-62.0007895945
 20
-25.446927638
 11
-61.9977794148
 21
-25.4629322184
  0
LINE
  5
593
100
AcDbEntity
  8
SUPERFICI
100
AcDbLine
 62
7
  6
CONTINUOUS
 10
-61.2502672019
 20
-31.4473141969
 11
-61.2124773364
 21
-31.6531308138
  0
LINE
  5
594
100
AcDbEntity
  8
RACCORDO
100
AcDbLine
 62
7
  6
CONTINUOUS
 10
-61.9978951062
 20
-25.4623081458
 11
-61.9948422556
 21
-25.4790302908
  0
LINE
  5
595
100
AcDbEntity
  8
SUPERFICI
100
AcDbLine
 62
7
  6
CONTINUOUS
 10
-61.2867245379
 20
-31.2441213277
 11
-61.2502672019
 21
-31.4473141969
  0
LINE
  5
596
100
AcDbEntity
  8
RACCORDO
100
AcDbLine
 62
7
  6
CONTINUOUS
 10
-61.9951868717
 20
-25.4771154547
 11
-61.9919794794
 21
-25.4952215537
  0
LINE
  5
597
100
AcDbEntity
  8
SUPERFICI
100
AcDbLine
 62
7
  6
CONTINUOUS
 10
-61.3218529779
 20
-31.0437375177
 11
-61.2867245379
 21
-31.2441213277
  0
LINE
  5
598
100
AcDbEntity
  8
SUPERFICI
100
AcDbLine
 62
7
  6
CONTINUOUS
 10
-61.3556686267
 20
-30.8462873372
 11
-61.3218529779
 21
-31.0437375177
  0
LINE
  5
599
100
AcDbEntity
  8
RACCORDO
100
AcDbLine
 62
7
  6
CONTINUOUS
 10
-61.9925389926
 20
-25.492015977
 11
-61.9891924505
 21
-25.5115057099
  0
LINE
  5
59A
100
AcDbEntity
  8
SUPERFICI
100
AcDbLine
 62
7
  6
CONTINUOUS
 10
-61.3881794721
 20
-30.6519509109
 11
-61.3556686267
 21
-30.8462873372
  0
LINE
  5
59B
100
AcDbEntity
  8
RACCORDO
100
AcDbLine
 62
7
  6
CONTINUOUS
 10
-61.9899525562
 20
-25.5070106517
 11
-61.9874285881
 21
-25.5221009622
  0
LINE
  5
59C
100
AcDbEntity
  8
RACCORDO
100
AcDbLine
 62
7
  6
CONTINUOUS
 10
-61.9878277703
 20
-25.5196825175
 11
-61.9878050137
 21
-25.5198212317
  0
LINE
  5
59D
100
AcDbEntity
  8
SUPERFICI
100
AcDbLine
 62
7
  6
CONTINUOUS
 10
-61.4193962532
 20
-30.4609028368
 11
-61.3881794721
 21
-30.6519509109
  0
LINE
  5
59E
100
AcDbEntity
  8
RACCORDO
100
AcDbLine
 62
7
  6
CONTINUOUS
 10
-61.9874285881
 20
-25.5221009622
 11
-61.9849681543
 21
-25.5372883856
  0
LINE
  5
59F
100
AcDbEntity
  8
SUPERFICI
100
AcDbLine
 62
7
  6
CONTINUOUS
 10
-61.4493519629
 20
-30.2731872517
 11
-61.4193962532
 21
-30.4609028368
  0
LINE
  5
5A0
100
AcDbEntity
  8
SUPERFICI
100
AcDbLine
 62
7
  6
CONTINUOUS
 10
-61.4920251084
 20
-29.9977435455
 11
-61.4493519629
 21
-30.2731872517
  0
LINE
  5
5A1
100
AcDbEntity
  8
RACCORDO
100
AcDbLine
 62
7
  6
CONTINUOUS
 10
-61.9658844812
 20
-25.678545135
 11
-61.9641284215
 21
-25.694770878
  0
LINE
  5
5A2
100
AcDbEntity
  8
SUPERFICI
100
AcDbLine
 62
7
  6
CONTINUOUS
 10
-61.7978945096
 20
-27.616167695
 11
-61.7737177562
 21
-27.8420585082
  0
LINE
  5
5A3
100
AcDbEntity
  8
RACCORDO
100
AcDbLine
 62
7
  6
CONTINUOUS
 10
-61.9641284215
 20
-25.694770878
 11
-61.9624505393
 21
-25.7111071632
  0
LINE
  5
5A4
100
AcDbEntity
  8
SUPERFICI
100
AcDbLine
 62
7
  6
CONTINUOUS
 10
-61.8277378973
 20
-27.3231630784
 11
-61.7978945096
 21
-27.616167695
  0
LINE
  5
5A5
100
AcDbEntity
  8
RACCORDO
100
AcDbLine
 62
7
  6
CONTINUOUS
 10
-61.9624505393
 20
-25.7111071632
 11
-61.9608523888
 21
-25.7275553432
  0
LINE
  5
5A6
100
AcDbEntity
  8
SUPERFICI
100
AcDbLine
 62
7
  6
CONTINUOUS
 10
-61.8547244459
 20
-27.0423260298
 11
-61.8277378973
 21
-27.3231630784
  0
LINE
  5
5A7
100
AcDbEntity
  8
RACCORDO
100
AcDbLine
 62
7
  6
CONTINUOUS
 10
-61.9608523888
 20
-25.7275553432
 11
-61.9593356207
 21
-25.7441161991
  0
LINE
  5
5A8
100
AcDbEntity
  8
SUPERFICI
100
AcDbLine
 62
7
  6
CONTINUOUS
 10
-61.8787266014
 20
-26.7773447181
 11
-61.8547244459
 21
-27.0423260298
  0
LINE
  5
5A9
100
AcDbEntity
  8
RACCORDO
100
AcDbLine
 62
7
  6
CONTINUOUS
 10
-61.9593356207
 20
-25.7441161991
 11
-61.9579018735
 21
-25.7607910539
  0
LINE
  5
5AA
100
AcDbEntity
  8
SUPERFICI
100
AcDbLine
 62
7
  6
CONTINUOUS
 10
-61.8997702494
 20
-26.5308915532
 11
-61.8787266014
 21
-26.7773447181
  0
LINE
  5
5AB
100
AcDbEntity
  8
RACCORDO
100
AcDbLine
 62
7
  6
CONTINUOUS
 10
-61.9579018735
 20
-25.7607910539
 11
-61.9565528329
 21
-25.7775812148
  0
LINE
  5
5AC
100
AcDbEntity
  8
SUPERFICI
100
AcDbLine
 62
7
  6
CONTINUOUS
 10
-61.9180810085
 20
-26.3035685145
 11
-61.8997702494
 21
-26.5308915532
  0
LINE
  5
5AD
100
AcDbEntity
  8
SUPERFICI
100
AcDbLine
 62
7
  6
CONTINUOUS
 10
-61.937524374
 20
-26.0463267413
 11
-61.9180810085
 21
-26.3035685145
  0
LINE
  5
5AE
100
AcDbEntity
  8
RACCORDO
100
AcDbLine
 62
7
  6
CONTINUOUS
 10
-61.9565528329
 20
-25.7775812148
 11
-61.9552902729
 21
-25.7944874145
  0
LINE
  5
5AF
100
AcDbEntity
  8
RACCORDO
100
AcDbLine
 62
7
  6
CONTINUOUS
 10
-61.9552902729
 20
-25.7944874145
 11
-61.9545322706
 21
-25.8053126383
  0
LINE
  5
5B0
100
AcDbEntity
  8
SUPERFICI
100
AcDbLine
 62
7
  6
CONTINUOUS
 10
-61.954532183
 20
-25.8053125691
 11
-61.937524374
 21
-26.0463267413
  0
LINE
  5
5B1
100
AcDbEntity
  8
RACCORDO
100
AcDbLine
 62
7
  6
CONTINUOUS
 10
-61.9545322719
 20
25.8053126401
 11
-61.9553780915
 21
25.7932684802
  0
LINE
  5
5B2
100
AcDbEntity
  8
SUPERFICI
100
AcDbLine
 62
7
  6
CONTINUOUS
 10
-61.9375234764
 20
26.0463390434
 11
-61.9545321834
 21
25.8053125633
  0
LINE
  5
5B3
100
AcDbEntity
  8
RACCORDO
100
AcDbLine
 62
7
  6
CONTINUOUS
 10
-61.9553780915
 20
25.7932684802
 11
-61.9567142009
 21
25.775508977
  0
LINE
  5
5B4
100
AcDbEntity
  8
SUPERFICI
100
AcDbLine
 62
7
  6
CONTINUOUS
 10
-61.91808
 20
26.3035814075
 11
-61.9375234764
 21
26.0463390434
  0
LINE
  5
5B5
100
AcDbEntity
  8
SUPERFICI
100
AcDbLine
 62
7
  6
CONTINUOUS
 10
-61.8997691411
 20
26.5309049271
 11
-61.91808
 21
26.3035814075
  0
LINE
  5
5B6
100
AcDbEntity
  8
RACCORDO
100
AcDbLine
 62
7
  6
CONTINUOUS
 10
-61.9567142009
 20
25.775508977
 11
-61.9581491956
 21
25.7578351833
  0
LINE
  5
5B7
100
AcDbEntity
  8
SUPERFICI
100
AcDbLine
 62
7
  6
CONTINUOUS
 10
-61.8787253806
 20
26.7773586076
 11
-61.8997691411
 21
26.5309049271
  0
LINE
  5
5B8
100
AcDbEntity
  8
RACCORDO
100
AcDbLine
 62
7
  6
CONTINUOUS
 10
-61.9581491956
 20
25.7578351833
 11
-61.9596816482
 21
25.7402476411
  0
LINE
  5
5B9
100
AcDbEntity
  8
SUPERFICI
100
AcDbLine
 62
7
  6
CONTINUOUS
 10
-61.8547231053
 20
27.0423404042
 11
-61.8787253806
 21
26.7773586076
  0
LINE
  5
5BA
100
AcDbEntity
  8
RACCORDO
100
AcDbLine
 62
7
  6
CONTINUOUS
 10
-61.9596816482
 20
25.7402476411
 11
-61.9613101327
 21
25.7227468943
  0
LINE
  5
5BB
100
AcDbEntity
  8
SUPERFICI
100
AcDbLine
 62
7
  6
CONTINUOUS
 10
-61.8277364439
 20
27.3231777705
 11
-61.8547231053
 21
27.0423404042
  0
LINE
  5
5BC
100
AcDbEntity
  8
RACCORDO
100
AcDbLine
 62
7
  6
CONTINUOUS
 10
-61.9613101327
 20
25.7227468943
 11
-61.9630332256
 21
25.7053334712
  0
LINE
  5
5BD
100
AcDbEntity
  8
SUPERFICI
100
AcDbLine
 62
7
  6
CONTINUOUS
 10
-61.7978929611
 20
27.6161824737
 11
-61.8277364439
 21
27.3231777705
  0
LINE
  5
5BE
100
AcDbEntity
  8
RACCORDO
100
AcDbLine
 62
7
  6
CONTINUOUS
 10
-61.9630332256
 20
25.7053334712
 11
-61.9648495082
 21
25.6880078658
  0
LINE
  5
5BF
100
AcDbEntity
  8
SUPERFICI
100
AcDbLine
 62
7
  6
CONTINUOUS
 10
-61.7737161452
 20
27.8420732506
 11
-61.7978929611
 21
27.6161824737
  0
LINE
  5
5C0
100
AcDbEntity
  8
RACCORDO
100
AcDbLine
 62
7
  6
CONTINUOUS
 10
-61.9648495082
 20
25.6880078658
 11
-61.9667575631
 21
25.670770575
  0
LINE
  5
5C1
100
AcDbEntity
  8
SUPERFICI
100
AcDbLine
 62
7
  6
CONTINUOUS
 10
-61.747978796
 20
28.0727829542
 11
-61.7737161452
 21
27.8420732506
  0
LINE
  5
5C2
100
AcDbEntity
  8
SUPERFICI
100
AcDbLine
 62
7
  6
CONTINUOUS
 10
-61.7206277766
 20
28.3082113526
 11
-61.747978796
 21
28.0727829542
  0
LINE
  5
5C3
100
AcDbEntity
  8
RACCORDO
100
AcDbLine
 62
7
  6
CONTINUOUS
 10
-61.9667575631
 20
25.670770575
 11
-61.9687559761
 21
25.65362208
  0
LINE
  5
5C4
100
AcDbEntity
  8
SUPERFICI
100
AcDbLine
 62
7
  6
CONTINUOUS
 10
-61.6916009315
 20
28.5483198799
 11
-61.7206277766
 21
28.3082113526
  0
LINE
  5
5C5
100
AcDbEntity
  8
RACCORDO
100
AcDbLine
 62
7
  6
CONTINUOUS
 10
-61.9687559761
 20
25.65362208
 11
-61.9708433384
 21
25.6365628287
  0
LINE
  5
5C6
100
AcDbEntity
  8
SUPERFICI
100
AcDbLine
 62
7
  6
CONTINUOUS
 10
-61.6608539575
 20
28.7929243218
 11
-61.6916009315
 21
28.5483198799
  0
LINE
  5
5C7
100
AcDbEntity
  8
RACCORDO
100
AcDbLine
 62
7
  6
CONTINUOUS
 10
-61.9708433384
 20
25.6365628287
 11
-61.9730182427
 21
25.619593272
  0
LINE
  5
5C8
100
AcDbEntity
  8
SUPERFICI
100
AcDbLine
 62
7
  6
CONTINUOUS
 10
-61.6283531296
 20
29.0417761783
 11
-61.6608539575
 21
28.7929243218
  0
LINE
  5
5C9
100
AcDbEntity
  8
RACCORDO
100
AcDbLine
 62
7
  6
CONTINUOUS
 10
-61.9730182427
 20
25.619593272
 11
-61.9752792853
 21
25.6027138457
  0
LINE
  5
5CA
100
AcDbEntity
  8
SUPERFICI
100
AcDbLine
 62
7
  6
CONTINUOUS
 10
-61.5940064345
 20
29.2950735069
 11
-61.6283531296
 21
29.0417761783
  0
LINE
  5
5CB
100
AcDbEntity
  8
RACCORDO
100
AcDbLine
 62
7
  6
CONTINUOUS
 10
-61.9752792853
 20
25.6027138457
 11
-61.9776250687
 21
25.5859249529
  0
LINE
  5
5CC
100
AcDbEntity
  8
SUPERFICI
100
AcDbLine
 62
7
  6
CONTINUOUS
 10
-61.5576343861
 20
29.5535854099
 11
-61.5940064345
 21
29.2950735069
  0
LINE
  5
5CD
100
AcDbEntity
  8
RACCORDO
100
AcDbLine
 62
7
  6
CONTINUOUS
 10
-61.9776250687
 20
25.5859249529
 11
-61.980054197
 21
25.569227
  0
LINE
  5
5CE
100
AcDbEntity
  8
SUPERFICI
100
AcDbLine
 62
7
  6
CONTINUOUS
 10
-61.5190583306
 20
29.8179541905
 11
-61.5576343861
 21
29.5535854099
  0
LINE
  5
5CF
100
AcDbEntity
  8
SUPERFICI
100
AcDbLine
 62
7
  6
CONTINUOUS
 10
-61.4920251084
 20
29.9977435455
 11
-61.5190583306
 21
29.8179541905
  0
LINE
  5
5D0
100
AcDbEntity
  8
RACCORDO
100
AcDbLine
 62
7
  6
CONTINUOUS
 10
-61.980054197
 20
25.569227
 11
-61.9825652782
 21
25.5526203788
  0
LWPOLYLINE
  5
5D1
100
AcDbEntity
  8
RACCORDO
100
AcDbPolyline
 62
250
  6
CONTINUOUS
 90
40
 70
0
 10
-59.0919336876
 20
38.9070917671
 10
-59.0864903607
 20
38.9420977811
 10
-59.0798112861
 20
38.9768887935
 10
-59.0719048468
 20
39.0114211374
 10
-59.0627809663
 20
39.0456514705
 10
-59.0524510963
 20
39.0795368295
 10
-59.040928202
 20
39.1130346841
 10
-59.0282267461
 20
39.1461029904
 10
-59.0143626704
 20
39.1787002436
 10
-58.9993533762
 20
39.2107855302
 10
-58.9832177018
 20
39.2423185791
 10
-58.9659758995
 20
39.2732598126
 10
-58.94764961
 20
39.3035703956
 10
-58.9282618349
 20
39.3332122845
 10
-58.9078369084
 20
39.3621482752
 10
-58.8864004662
 20
39.3903420495
 10
-58.8639794136
 20
39.4177582207
 10
-58.840601892
 20
39.4443623781
 10
-58.8162972428
 20
39.4701211302
 10
-58.7910959715
 20
39.4950021468
 10
-58.7650297088
 20
39.5189741989
 10
-58.738131171
 20
39.5420071989
 10
-58.710434119
 20
39.5640722373
 10
-58.6819733161
 20
39.5851416199
 10
-58.6527844841
 20
39.6051889021
 10
-58.6229042586
 20
39.624188922
 10
-58.5923701429
 20
39.6421178322
 10
-58.5612204611
 20
39.6589531298
 10
-58.5294943099
 20
39.6746736845
 10
-58.4972315094
 20
39.6892597649
 10
-58.4644725535
 20
39.7026930638
 10
-58.4312585587
 20
39.7149567208
 10
-58.3976312127
 20
39.7260353433
 10
-58.3636327218
 20
39.7359150265
 10
-58.3293057584
 20
39.7445833701
 10
-58.294693407
 20
39.7520294942
 10
-58.2598391103
 20
39.758244053
 10
-58.2247866149
 20
39.7632192466
 10
-58.1895799159
 20
39.7669488304
 10
-58.154263202
 20
39.7694281234
  0
LINE
  5
5D2
100
AcDbEntity
  8
RACCORDO
100
AcDbLine
 62
7
  6
CONTINUOUS
 10
-61.9825652782
 20
25.5526203788
 11
-61.9851569273
 21
25.5361054491
  0
LWPOLYLINE
  5
5D3
100
AcDbEntity
  8
RACCORDO
100
AcDbPolyline
 62
250
  6
CONTINUOUS
 90
40
 70
0
 10
-59.0919337145
 20
-38.9070917709
 10
-59.0864903829
 20
-38.9420977831
 10
-59.0798113038
 20
-38.9768887938
 10
-59.0719048603
 20
-39.011421136
 10
-59.0627809758
 20
-39.0456514673
 10
-59.0524511021
 20
-39.0795368244
 10
-59.0409282043
 20
-39.1130346772
 10
-59.0282267451
 20
-39.1461029816
 10
-59.0143626665
 20
-39.1787002328
 10
-58.9993533694
 20
-39.2107855175
 10
-58.9832176925
 20
-39.2423185645
 10
-58.965975888
 20
-39.273259796
 10
-58.9476495964
 20
-39.303570377
 10
-58.9282618195
 20
-39.333212264
 10
-58.9078368914
 20
-39.3621482528
 10
-58.8864004478
 20
-39.3903420252
 10
-58.8639793941
 20
-39.4177581945
 10
-58.8406018715
 20
-39.4443623501
 10
-58.8162972216
 20
-39.4701211004
 10
-58.7910959497
 20
-39.4950021152
 10
-58.7650296866
 20
-39.5189741656
 10
-58.7381311486
 20
-39.5420071639
 10
-58.7104340967
 20
-39.5640722007
 10
-58.681973294
 20
-39.5851415818
 10
-58.6527844624
 20
-39.6051888624
 10
-58.6229042374
 20
-39.6241888809
 10
-58.5923701223
 20
-39.6421177898
 10
-58.5612204413
 20
-39.6589530861
 10
-58.529494291
 20
-39.6746736396
 10
-58.4972314916
 20
-39.6892597189
 10
-58.4644725369
 20
-39.7026930168
 10
-58.4312585433
 20
-39.7149566728
 10
-58.3976311986
 20
-39.7260352945
 10
-58.3636327092
 20
-39.7359149769
 10
-58.3293057473
 20
-39.7445833198
 10
-58.2946933974
 20
-39.7520294433
 10
-58.2598391025
 20
-39.7582440017
 10
-58.2247866087
 20
-39.7632191949
 10
-58.1895799114
 20
-39.7669487785
 10
-58.1542631993
 20
-39.7694280713
  0
LINE
  5
5D4
100
AcDbEntity
  8
RACCORDO
100
AcDbLine
 62
7
  6
CONTINUOUS
 10
-61.9849681543
 20
-25.5372883856
 11
-61.9825724479
 21
-25.5525738392
  0
LINE
  5
5D5
100
AcDbEntity
  8
RACCORDO
100
AcDbLine
 62
7
  6
CONTINUOUS
 10
-61.9825724479
 20
-25.5525738392
 11
-61.9802426095
 21
-25.5679587846
  0
LINE
  5
5D6
100
AcDbEntity
  8
SUPERFICI
100
AcDbLine
 62
7
  6
CONTINUOUS
 10
-61.5321745168
 20
-29.7291345695
 11
-61.4920251084
 21
-29.9977435455
  0
LINE
  5
5D7
100
AcDbEntity
  8
RACCORDO
100
AcDbLine
 62
7
  6
CONTINUOUS
 10
-61.9802426095
 20
-25.5679587846
 11
-61.9779798217
 21
-25.5834446757
  0
LINE
  5
5D8
100
AcDbEntity
  8
SUPERFICI
100
AcDbLine
 62
7
  6
CONTINUOUS
 10
-61.5699955252
 20
-29.4667859633
 11
-61.5321745168
 21
-29.7291345695
  0
LINE
  5
5D9
100
AcDbEntity
  8
RACCORDO
100
AcDbLine
 62
7
  6
CONTINUOUS
 10
-61.9779798217
 20
-25.5834446757
 11
-61.9757853866
 21
-25.5990324033
  0
LINE
  5
5DA
100
AcDbEntity
  8
SUPERFICI
100
AcDbLine
 62
7
  6
CONTINUOUS
 10
-61.6056731356
 20
-29.2100850759
 11
-61.5699955252
 21
-29.4667859633
  0
LINE
  5
5DB
100
AcDbEntity
  8
RACCORDO
100
AcDbLine
 62
7
  6
CONTINUOUS
 10
-61.9757853866
 20
-25.5990324033
 11
-61.9736605636
 21
-25.6147234027
  0
LINE
  5
5DC
100
AcDbEntity
  8
SUPERFICI
100
AcDbLine
 62
7
  6
CONTINUOUS
 10
-61.6393831862
 20
-28.9583717723
 11
-61.6056731356
 21
-29.2100850759
  0
LINE
  5
5DD
100
AcDbEntity
  8
RACCORDO
100
AcDbLine
 62
7
  6
CONTINUOUS
 10
-61.9736605636
 20
-25.6147234027
 11
-61.9716066555
 21
-25.6305190995
  0
LINE
  5
5DE
100
AcDbEntity
  8
SUPERFICI
100
AcDbLine
 62
7
  6
CONTINUOUS
 10
-61.6712948751
 20
-28.7109159687
 11
-61.6393831862
 21
-28.9583717723
  0
LINE
  5
5DF
100
AcDbEntity
  8
RACCORDO
100
AcDbLine
 62
7
  6
CONTINUOUS
 10
-61.9716066555
 20
-25.6305190995
 11
-61.9696250769
 21
-25.6464203534
  0
LINE
  5
5E0
100
AcDbEntity
  8
SUPERFICI
100
AcDbLine
 62
7
  6
CONTINUOUS
 10
-61.7014660688
 20
-28.4677705923
 11
-61.6712948751
 21
-28.7109159687
  0
LINE
  5
5E1
100
AcDbEntity
  8
RACCORDO
100
AcDbLine
 62
7
  6
CONTINUOUS
 10
-61.9696250769
 20
-25.6464203534
 11
-61.9677172099
 21
-25.6624285679
  0
LINE
  5
5E2
100
AcDbEntity
  8
SUPERFICI
100
AcDbLine
 62
7
  6
CONTINUOUS
 10
-61.7299283403
 20
-28.2292095376
 11
-61.7014660688
 21
-28.4677705923
  0
LINE
  5
5E3
100
AcDbEntity
  8
SUPERFICI
100
AcDbLine
 62
7
  6
CONTINUOUS
 10
-61.7567337461
 20
-27.9953572263
 11
-61.7299283403
 21
-28.2292095376
  0
LINE
  5
5E4
100
AcDbEntity
  8
RACCORDO
100
AcDbLine
 62
7
  6
CONTINUOUS
 10
-61.9677172099
 20
-25.6624285679
 11
-61.9658844812
 21
-25.678545135
  0
LINE
  5
5E5
100
AcDbEntity
  8
SUPERFICI
100
AcDbLine
 62
7
  6
CONTINUOUS
 10
-61.7737177562
 20
-27.8420585082
 11
-61.7567337461
 21
-27.9953572263
  0
LWPOLYLINE
  5
5E6
100
AcDbEntity
  8
RACCORDO
100
AcDbPolyline
 62
250
  6
CONTINUOUS
 90
14
 70
0
 10
-59.2022454205
 20
-39.1057634028
 10
-59.2022919305
 20
-39.1051694984
 10
-59.2021788269
 20
-39.1042187766
 10
-59.2019065443
 20
-39.1029020129
 10
-59.201463309
 20
-39.1012532958
 10
-59.2008597259
 20
-39.0992583535
 10
-59.2001039795
 20
-39.0969287496
 10
-59.1991799203
 20
-39.094337436
 10
-59.1981049634
 20
-39.0914787028
 10
-59.1968999573
 20
-39.0883543122
 10
-59.1955504398
 20
-39.0850490709
 10
-59.1940780175
 20
-39.0815595602
 10
-59.1925038065
 20
-39.0778854062
 10
-59.1908086657
 20
-39.0741169257
  0
LINE
  5
5E7
100
AcDbEntity
  8
RACCORDO
100
AcDbLine
 62
250
  6
CONTINUOUS
 10
-59.0996480503
 20
-37.1942479692
 11
-59.1145646445
 21
-36.853171187
  0
LWPOLYLINE
  5
5E8
100
AcDbEntity
  8
RACCORDO
100
AcDbPolyline
 62
250
  6
CONTINUOUS
 90
7
 70
0
 10
-61.9437949082
 20
-25.7470851526
 10
-61.9435280084
 20
-25.7571184467
 10
-61.9433650198
 20
-25.765858663
 10
-61.9433229852
 20
-25.7732355756
 10
-61.9434199735
 20
-25.7789618974
 10
-61.9436613322
 20
-25.7828206671
 10
-61.9440677596
 20
-25.7845941075
  0
LWPOLYLINE
  5
5E9
100
AcDbEntity
  8
RACCORDO
100
AcDbPolyline
 62
250
  6
CONTINUOUS
 90
4
 70
0
 10
-61.9452474021
 20
-25.6927650653
 10
-61.9449146547
 20
-25.7089116428
 10
-61.9445364145
 20
-25.7231533585
 10
-61.9437949082
 20
-25.7470851526
  0
LWPOLYLINE
  5
5EA
100
AcDbEntity
  8
RACCORDO
100
AcDbPolyline
 62
250
  6
CONTINUOUS
 90
7
 70
0
 10
-62.5495267292
 20
-24.1786444888
 10
-62.5493388515
 20
-24.1909635707
 10
-62.5492930509
 20
-24.1956694269
 10
-62.5492751716
 20
-24.1994990662
 10
-62.5492928183
 20
-24.2026263494
 10
-62.5493485205
 20
-24.2049821223
 10
-62.5494397316
 20
-24.2063998479
  0
LINE
  5
5EB
100
AcDbEntity
  8
RACCORDO
100
AcDbLine
 62
250
  6
CONTINUOUS
 10
-61.9471081315
 20
23.6327200917
 11
-61.941256024
 21
23.2598701206
  0
LINE
  5
5EC
100
AcDbEntity
  8
RACCORDO
100
AcDbLine
 62
250
  6
CONTINUOUS
 10
-61.9457913326
 20
-25.6544923717
 11
-61.9452474021
 21
-25.6927650653
  0
LINE
  5
5ED
100
AcDbEntity
  8
RACCORDO
100
AcDbLine
 62
250
  6
CONTINUOUS
 10
-61.941256024
 20
23.2598701206
 11
-61.9395453937
 21
23.1139294022
  0
LINE
  5
5EE
100
AcDbEntity
  8
RACCORDO
100
AcDbLine
 62
250
  6
CONTINUOUS
 10
-62.5498494196
 20
-24.1509865888
 11
-62.5495267292
 21
-24.1786444888
  0
LINE
  5
5EF
100
AcDbEntity
  8
RACCORDO
100
AcDbLine
 62
250
  6
CONTINUOUS
 10
-61.9504561937
 20
-24.9474802121
 11
-61.9470132192
 21
-25.2582784504
  0
LINE
  5
5F0
100
AcDbEntity
  8
RACCORDO
100
AcDbLine
 62
250
  6
CONTINUOUS
 10
-61.9504423531
 20
23.9919920609
 11
-61.9471081315
 21
23.6327200917
  0
LINE
  5
5F1
100
AcDbEntity
  8
RACCORDO
100
AcDbLine
 62
250
  6
CONTINUOUS
 10
-61.9395453937
 20
23.1139294022
 11
-61.9382855275
 21
22.9578294235
  0
LINE
  5
5F2
100
AcDbEntity
  8
RACCORDO
100
AcDbLine
 62
250
  6
CONTINUOUS
 10
-61.9461635612
 20
-25.6080896981
 11
-61.9457913326
 21
-25.6544923717
  0
LINE
  5
5F3
100
AcDbEntity
  8
RACCORDO
100
AcDbLine
 62
250
  6
CONTINUOUS
 10
-61.9470132192
 20
-25.2582784504
 11
-61.9463963767
 21
-25.3408958701
  0
LINE
  5
5F4
100
AcDbEntity
  8
RACCORDO
100
AcDbLine
 62
250
  6
CONTINUOUS
 10
-61.9415916012
 20
-21.8324250648
 11
-61.9378631427
 21
-22.4227463184
  0
LINE
  5
5F5
100
AcDbEntity
  8
RACCORDO
100
AcDbLine
 62
250
  6
CONTINUOUS
 10
-62.551413808
 20
23.2513895277
 11
-62.5485858532
 21
22.8471198077
  0
LINE
  5
5F6
100
AcDbEntity
  8
RACCORDO
100
AcDbLine
 62
250
  6
CONTINUOUS
 10
-62.5501637499
 20
-24.0970665418
 11
-62.5498494196
 21
-24.1509865888
  0
LINE
  5
5F7
100
AcDbEntity
  8
RACCORDO
100
AcDbLine
 62
250
  6
CONTINUOUS
 10
-61.9437879254
 20
-21.3436322201
 11
-61.9415916012
 21
-21.8324250648
  0
LINE
  5
5F8
100
AcDbEntity
  8
RACCORDO
100
AcDbLine
 62
250
  6
CONTINUOUS
 10
-61.9382855275
 20
22.9578294235
 11
-61.9375417414
 21
22.8007052054
  0
LINE
  5
5F9
100
AcDbEntity
  8
RACCORDO
100
AcDbLine
 62
250
  6
CONTINUOUS
 10
-61.9519499871
 20
-24.6685468461
 11
-61.9504561937
 21
-24.9474802121
  0
LINE
  5
5FA
100
AcDbEntity
  8
RACCORDO
100
AcDbLine
 62
250
  6
CONTINUOUS
 10
-62.5485858532
 20
22.8471198077
 11
-62.5476833183
 21
22.6539840446
  0
LINE
  5
5FB
100
AcDbEntity
  8
RACCORDO
100
AcDbLine
 62
250
  6
CONTINUOUS
 10
-61.9519949484
 20
24.3195871271
 11
-61.9504423531
 21
23.9919920609
  0
LINE
  5
5FC
100
AcDbEntity
  8
RACCORDO
100
AcDbLine
 62
250
  6
CONTINUOUS
 10
-61.9378631427
 20
-22.4227463184
 11
-61.9373880662
 21
-22.5737405803
  0
LINE
  5
5FD
100
AcDbEntity
  8
RACCORDO
100
AcDbLine
 62
250
  6
CONTINUOUS
 10
-61.9460163604
 20
-20.5286895886
 11
-61.9437879254
 21
-21.3436322201
  0
LINE
  5
5FE
100
AcDbEntity
  8
RACCORDO
100
AcDbLine
 62
250
  6
CONTINUOUS
 10
-62.5519258542
 20
-23.6249375158
 11
-62.5503320622
 21
-23.9628267862
  0
LINE
  5
5FF
100
AcDbEntity
  8
RACCORDO
100
AcDbLine
 62
250
  6
CONTINUOUS
 10
-62.5487968683
 20
-21.8489110582
 11
-62.547615011
 21
-22.4144323561
  0
LINE
  5
600
100
AcDbEntity
  8
RACCORDO
100
AcDbLine
 62
250
  6
CONTINUOUS
 10
-61.9464270121
 20
-25.5226280425
 11
-61.9461635612
 21
-25.6080896981
  0
LINE
  5
601
100
AcDbEntity
  8
RACCORDO
100
AcDbLine
 62
250
  6
CONTINUOUS
 10
-61.9477761918
 20
-19.2953250442
 11
-61.9460163604
 21
-20.5286895886
  0
LINE
  5
602
100
AcDbEntity
  8
RACCORDO
100
AcDbLine
 62
250
  6
CONTINUOUS
 10
-62.5499160304
 20
-20.8188911782
 11
-62.5487968683
 21
-21.8489110582
  0
LINE
  5
603
100
AcDbEntity
  8
RACCORDO
100
AcDbLine
 62
250
  6
CONTINUOUS
 10
-62.5502678493
 20
-20.2411864122
 11
-62.5499160304
 21
-20.8188911782
  0
LINE
  5
604
100
AcDbEntity
  8
RACCORDO
100
AcDbLine
 62
250
  6
CONTINUOUS
 10
-61.9463963767
 20
-25.3408958701
 11
-61.9462301583
 21
-25.4189575669
  0
LINE
  5
605
100
AcDbEntity
  8
RACCORDO
100
AcDbLine
 62
250
  6
CONTINUOUS
 10
-61.95386915
 20
-12.0551570078
 11
-61.9477761918
 21
-19.2953250442
  0
LINE
  5
606
100
AcDbEntity
  8
RACCORDO
100
AcDbLine
 62
250
  6
CONTINUOUS
 10
-61.9375417414
 20
22.8007052054
 11
-61.9373205134
 21
22.6455982267
  0
LINE
  5
607
100
AcDbEntity
  8
RACCORDO
100
AcDbLine
 62
250
  6
CONTINUOUS
 10
-62.5505478544
 20
-19.6232461794
 11
-62.5502678493
 21
-20.2411864122
  0
LINE
  5
608
100
AcDbEntity
  8
0
100
AcDbLine
 62
7
  6
CONTINUOUS
 10
-62.7546897085
 20
23.6
 11
-62.7546897085
 21
-23.6
  0
LINE
  5
609
100
AcDbEntity
  8
RACCORDO
100
AcDbLine
 62
250
  6
CONTINUOUS
 10
-62.5520153746
 20
23.5355833833
 11
-62.551413808
 21
23.2513895277
  0
LINE
  5
60A
100
AcDbEntity
  8
RACCORDO
100
AcDbLine
 62
250
  6
CONTINUOUS
 10
-61.9551974599
 20
-4.9613496857
 11
-61.95386915
 21
-12.0551570078
  0
LINE
  5
60B
100
AcDbEntity
  8
RACCORDO
100
AcDbLine
 62
250
  6
CONTINUOUS
 10
-62.5529442105
 20
9.2214547452
 11
-62.5505478544
 21
-19.6232461794
  0
LINE
  5
60C
100
AcDbEntity
  8
RACCORDO
100
AcDbLine
 62
250
  6
CONTINUOUS
 10
-62.5521206835
 20
14.7862174132
 11
-62.5529442105
 21
9.2214547452
  0
LINE
  5
60D
100
AcDbEntity
  8
RACCORDO
100
AcDbLine
 62
250
  6
CONTINUOUS
 10
-62.5503320622
 20
-23.9628267862
 11
-62.5501637499
 21
-24.0970665418
  0
LINE
  5
60E
100
AcDbEntity
  8
RACCORDO
100
AcDbLine
 62
250
  6
CONTINUOUS
 10
-61.9373880662
 20
-22.5737405803
 11
-61.9373763887
 21
-22.7291842071
  0
LINE
  5
60F
100
AcDbEntity
  8
RACCORDO
100
AcDbLine
 62
250
  6
CONTINUOUS
 10
-62.5476833183
 20
22.6539840446
 11
-62.5475527449
 21
22.4518304742
  0
LINE
  5
610
100
AcDbEntity
  8
RACCORDO
100
AcDbLine
 62
250
  6
CONTINUOUS
 10
-61.9507855093
 20
16.4119369054
 11
-61.9551974599
 21
-4.9613496857
  0
LINE
  5
611
100
AcDbEntity
  8
RACCORDO
100
AcDbLine
 62
250
  6
CONTINUOUS
 10
-61.9520855446
 20
-24.3616615569
 11
-61.9519499871
 21
-24.6685468461
  0
LINE
  5
612
100
AcDbEntity
  8
RACCORDO
100
AcDbLine
 62
250
  6
CONTINUOUS
 10
-62.547615011
 20
-22.4144323561
 11
-62.5476004644
 21
-22.6170419721
  0
LINE
  5
613
100
AcDbEntity
  8
RACCORDO
100
AcDbLine
 62
250
  6
CONTINUOUS
 10
-62.5483840963
 20
22.0924836916
 11
-62.5521206835
 21
14.7862174132
  0
LINE
  5
614
100
AcDbEntity
  8
RACCORDO
100
AcDbLine
 62
250
  6
CONTINUOUS
 10
-61.9520593462
 20
24.6257338881
 11
-61.9519949484
 21
24.3195871271
  0
LINE
  5
615
100
AcDbEntity
  8
RACCORDO
100
AcDbLine
 62
250
  6
CONTINUOUS
 10
-61.9463764194
 20
25.5596618756
 11
-61.9462455421
 21
25.3916621279
  0
LINE
  5
616
100
AcDbEntity
  8
RACCORDO
100
AcDbLine
 62
250
  6
CONTINUOUS
 10
-61.9457815328
 20
20.6412995653
 11
-61.9507855093
 21
16.4119369054
  0
LINE
  5
617
100
AcDbEntity
  8
RACCORDO
100
AcDbLine
 62
250
  6
CONTINUOUS
 10
-62.5517623487
 20
-23.3484875097
 11
-62.5519258542
 21
-23.6249375158
  0
LINE
  5
618
100
AcDbEntity
  8
RACCORDO
100
AcDbLine
 62
250
  6
CONTINUOUS
 10
-61.9462301583
 20
-25.4189575669
 11
-61.9464270121
 21
-25.5226280425
  0
LINE
  5
619
100
AcDbEntity
  8
RACCORDO
100
AcDbLine
 62
250
  6
CONTINUOUS
 10
-62.5501521101
 20
24.1002796576
 11
-62.5503812116
 21
23.9488341709
  0
LINE
  5
61A
100
AcDbEntity
  8
RACCORDO
100
AcDbLine
 62
250
  6
CONTINUOUS
 10
-61.9435700303
 20
21.4008719277
 11
-61.9457815328
 21
20.6412995653
  0
LINE
  5
61B
100
AcDbEntity
  8
RACCORDO
100
AcDbLine
 62
250
  6
CONTINUOUS
 10
-62.5475527449
 20
22.4518304742
 11
-62.5483840963
 21
22.0924836916
  0
LINE
  5
61C
100
AcDbEntity
  8
RACCORDO
100
AcDbLine
 62
250
  6
CONTINUOUS
 10
-61.9373205134
 20
22.6455982267
 11
-61.9378723999
 21
22.420776737
  0
LINE
  5
61D
100
AcDbEntity
  8
RACCORDO
100
AcDbLine
 62
250
  6
CONTINUOUS
 10
-61.9373763887
 20
-22.7291842071
 11
-61.9378840929
 21
-22.8869812842
  0
LINE
  5
61E
100
AcDbEntity
  8
RACCORDO
100
AcDbLine
 62
250
  6
CONTINUOUS
 10
-62.5513899217
 20
23.7827956329
 11
-62.5520153746
 21
23.5355833833
  0
LINE
  5
61F
100
AcDbEntity
  8
RACCORDO
100
AcDbLine
 62
250
  6
CONTINUOUS
 10
-61.9462455421
 20
25.3916621279
 11
-61.9465523894
 21
25.3138186247
  0
LINE
  5
620
100
AcDbEntity
  8
RACCORDO
100
AcDbLine
 62
250
  6
CONTINUOUS
 10
-61.9414481902
 20
21.8586476414
 11
-61.9435700303
 21
21.4008719277
  0
LINE
  5
621
100
AcDbEntity
  8
RACCORDO
100
AcDbLine
 62
250
  6
CONTINUOUS
 10
-62.5476004644
 20
-22.6170419721
 11
-62.5483513026
 21
-22.8106957453
  0
LINE
  5
622
100
AcDbEntity
  8
RACCORDO
100
AcDbLine
 62
250
  6
CONTINUOUS
 10
-61.9507200904
 20
-24.0336150799
 11
-61.9520855446
 21
-24.3616615569
  0
LINE
  5
623
100
AcDbEntity
  8
RACCORDO
100
AcDbLine
 62
250
  6
CONTINUOUS
 10
-61.9507769984
 20
24.9058332471
 11
-61.9520593462
 21
24.6257338881
  0
LINE
  5
624
100
AcDbEntity
  8
RACCORDO
100
AcDbLine
 62
250
  6
CONTINUOUS
 10
-62.5503812116
 20
23.9488341709
 11
-62.5513899217
 21
23.7827956329
  0
LINE
  5
625
100
AcDbEntity
  8
RACCORDO
100
AcDbLine
 62
250
  6
CONTINUOUS
 10
-61.9378723999
 20
22.420776737
 11
-61.9414481902
 21
21.8586476414
  0
LINE
  5
626
100
AcDbEntity
  8
RACCORDO
100
AcDbLine
 62
250
  6
CONTINUOUS
 10
-61.9459647034
 20
25.6365520085
 11
-61.9463764194
 21
25.5596618756
  0
LINE
  5
627
100
AcDbEntity
  8
RACCORDO
100
AcDbLine
 62
250
  6
CONTINUOUS
 10
-61.9378840929
 20
-22.8869812842
 11
-61.9388939243
 21
-23.0410357187
  0
LINE
  5
628
100
AcDbEntity
  8
RACCORDO
100
AcDbLine
 62
250
  6
CONTINUOUS
 10
-62.5501341089
 20
-23.0373759289
 11
-62.5517623487
 21
-23.3484875097
  0
LINE
  5
629
100
AcDbEntity
  8
RACCORDO
100
AcDbLine
 62
250
  6
CONTINUOUS
 10
-62.5498336856
 20
24.1527126945
 11
-62.5501521101
 21
24.1002796576
  0
LINE
  5
62A
100
AcDbEntity
  8
RACCORDO
100
AcDbLine
 62
250
  6
CONTINUOUS
 10
-62.5483513026
 20
-22.8106957453
 11
-62.5501341089
 21
-23.0373759289
  0
LINE
  5
62B
100
AcDbEntity
  8
RACCORDO
100
AcDbLine
 62
250
  6
CONTINUOUS
 10
-62.5492909254
 20
24.1959539127
 11
-62.5493342173
 21
24.1913725627
  0
LINE
  5
62C
100
AcDbEntity
  8
RACCORDO
100
AcDbLine
 62
250
  6
CONTINUOUS
 10
-61.9388939243
 20
-23.0410357187
 11
-61.9403390921
 21
-23.1885550027
  0
LINE
  5
62D
100
AcDbEntity
  8
RACCORDO
100
AcDbLine
 62
250
  6
CONTINUOUS
 10
-61.9476071082
 20
-23.6774363505
 11
-61.9507200904
 21
-24.0336150799
  0
LWPOLYLINE
  5
62E
100
AcDbEntity
  8
RACCORDO
100
AcDbPolyline
 62
250
  6
CONTINUOUS
 90
4
 70
0
 10
-61.9465523894
 20
25.3138186247
 10
-61.9478051014
 20
25.1901332954
 10
-61.9483423021
 20
25.1470405778
 10
-61.9507769984
 20
24.9058332471
  0
LINE
  5
62F
100
AcDbEntity
  8
RACCORDO
100
AcDbLine
 62
250
  6
CONTINUOUS
 10
-61.9403390921
 20
-23.1885550027
 11
-61.9422236647
 21
-23.3250412553
  0
LINE
  5
630
100
AcDbEntity
  8
RACCORDO
100
AcDbLine
 62
250
  6
CONTINUOUS
 10
-61.9453574017
 20
-23.5105758174
 11
-61.9476071082
 21
-23.6774363505
  0
LINE
  5
631
100
AcDbEntity
  8
RACCORDO
100
AcDbLine
 62
250
  6
CONTINUOUS
 10
-62.5493342173
 20
24.1913725627
 11
-62.5498336856
 21
24.1527126945
  0
LINE
  5
632
100
AcDbEntity
  8
RACCORDO
100
AcDbLine
 62
250
  6
CONTINUOUS
 10
-61.9422236647
 20
-23.3250412553
 11
-61.9453574017
 21
-23.5105758174
  0
LWPOLYLINE
  5
633
100
AcDbEntity
  8
RACCORDO
100
AcDbPolyline
 62
250
  6
CONTINUOUS
 90
4
 70
0
 10
-61.9448698191
 20
25.7107702171
 10
-61.9452014725
 20
25.6951180741
 10
-61.9454945996
 20
25.6775786453
 10
-61.9459647034
 20
25.6365520085
  0
LWPOLYLINE
  5
634
100
AcDbEntity
  8
RACCORDO
100
AcDbPolyline
 62
250
  6
CONTINUOUS
 90
18
 70
0
 10
-61.9545322587
 20
25.8053128327
 10
-61.9545336183
 20
25.8052674716
 10
-61.954506423
 20
25.8050227098
 10
-61.9544213361
 20
25.8046645616
 10
-61.9542725645
 20
25.8041833483
 10
-61.9540558445
 20
25.803572154
 10
-61.9537679682
 20
25.8028259819
 10
-61.9534044976
 20
25.8019367342
 10
-61.9529612001
 20
25.8008962675
 10
-61.9524368284
 20
25.7997025132
 10
-61.9518345886
 20
25.7983614354
 10
-61.9511575736
 20
25.7968781942
 10
-61.9504005406
 20
25.7952578675
 10
-61.9495243388
 20
25.793502784
 10
-61.9484899544
 20
25.7916165228
 10
-61.9472640315
 20
25.7895801545
 10
-61.9458021547
 20
25.7872770122
 10
-61.9440692781
 20
25.7845942307
  0
LINE
  5
635
100
AcDbEntity
  8
RACCORDO
100
AcDbLine
 62
250
  6
CONTINUOUS
 10
-59.1145602972
 20
36.8532800404
 11
-59.1090424522
 21
36.983043123
  0
LINE
  5
636
100
AcDbEntity
  8
RACCORDO
100
AcDbLine
 62
250
  6
CONTINUOUS
 10
-59.1090424522
 20
36.983043123
 11
-59.0996480502
 21
37.1942479706
  0
LWPOLYLINE
  5
637
100
AcDbEntity
  8
0
100
AcDbPolyline
 62
7
  6
CONTINUOUS
 90
4
 70
0
 43
0.3500000006
 10
-71.9332631378
 20
-2.3571432495
 10
-72.7904056091
 20
-2.3571432495
 10
-73.2189745789
 20
-1.9285708809
 10
-73.2189745789
 20
-1.2857140274
  0
LINE
  5
638
100
AcDbEntity
  8
RACCORDO
100
AcDbLine
 62
7
  6
CONTINUOUS
 10
-55.3199528046
 20
-3.5572341992
 11
-54.1894266124
 21
-3.706070796
  0
LINE
  5
639
100
AcDbEntity
  8
RACCORDO
100
AcDbLine
 62
250
  6
CONTINUOUS
 10
-58.1694543109
 20
-37.0
 11
-58.1790298641
 21
-36.8073612571
  0
LINE
  5
63A
100
AcDbEntity
  8
RACCORDO
100
AcDbLine
 62
250
  6
CONTINUOUS
 10
-58.1790298641
 20
-36.8073612571
 11
-58.1865175668
 21
-36.6367274272
  0
LINE
  5
63B
100
AcDbEntity
  8
RACCORDO
100
AcDbLine
 62
250
  6
CONTINUOUS
 10
-59.1145646445
 20
-36.853171187
 11
-59.119106954
 21
-36.7332519783
  0
LINE
  5
63C
100
AcDbEntity
  8
RACCORDO
100
AcDbLine
 62
250
  6
CONTINUOUS
 10
-59.0942572231
 20
-37.3362655713
 11
-59.0996480503
 21
-37.1942479692
  0
LINE
  5
63D
100
AcDbEntity
  8
RACCORDO
100
AcDbLine
 62
250
  6
CONTINUOUS
 10
-58.1865175668
 20
-36.6367274272
 11
-58.1922362795
 21
-36.4862709655
  0
LINE
  5
63E
100
AcDbEntity
  8
RACCORDO
100
AcDbLine
 62
250
  6
CONTINUOUS
 10
-59.119106954
 20
-36.7332519783
 11
-59.1227737551
 21
-36.6224783637
  0
LINE
  5
63F
100
AcDbEntity
  8
RACCORDO
100
AcDbLine
 62
250
  6
CONTINUOUS
 10
-59.0896378711
 20
-37.4766763182
 11
-59.0942572231
 21
-37.3362655713
  0
LINE
  5
640
100
AcDbEntity
  8
RACCORDO
100
AcDbLine
 62
250
  6
CONTINUOUS
 10
-58.1922362795
 20
-36.4862709655
 11
-58.1964652143
 21
-36.3542971622
  0
LINE
  5
641
100
AcDbEntity
  8
RACCORDO
100
AcDbLine
 62
250
  6
CONTINUOUS
 10
-58.1605792393
 20
-37.2890190212
 11
-58.1694543109
 21
-37.0
  0
LINE
  5
642
100
AcDbEntity
  8
RACCORDO
100
AcDbLine
 62
250
  6
CONTINUOUS
 10
-59.1227737551
 20
-36.6224783637
 11
-59.1256472655
 21
-36.520453432
  0
LINE
  5
643
100
AcDbEntity
  8
RACCORDO
100
AcDbLine
 62
250
  6
CONTINUOUS
 10
-59.0845486906
 20
-37.6599259891
 11
-59.0896378711
 21
-37.4766763182
  0
LINE
  5
644
100
AcDbEntity
  8
RACCORDO
100
AcDbLine
 62
250
  6
CONTINUOUS
 10
-58.1964652143
 20
-36.3542971622
 11
-58.1994540101
 21
-36.2389031025
  0
LINE
  5
645
100
AcDbEntity
  8
RACCORDO
100
AcDbLine
 62
250
  6
CONTINUOUS
 10
-58.1532695156
 20
-37.5751471115
 11
-58.1605792393
 21
-37.2890190212
  0
LINE
  5
646
100
AcDbEntity
  8
RACCORDO
100
AcDbLine
 62
250
  6
CONTINUOUS
 10
-59.075597684
 20
38.7097048015
 11
-59.0766199013
 21
38.7502614081
  0
LINE
  5
647
100
AcDbEntity
  8
RACCORDO
100
AcDbLine
 62
250
  6
CONTINUOUS
 10
-59.1256472655
 20
-36.520453432
 11
-59.1278065716
 21
-36.4266101734
  0
LINE
  5
648
100
AcDbEntity
  8
RACCORDO
100
AcDbLine
 62
250
  6
CONTINUOUS
 10
-59.0805435432
 20
-37.8368630907
 11
-59.0845486906
 21
-37.6599259891
  0
LINE
  5
649
100
AcDbEntity
  8
RACCORDO
100
AcDbLine
 62
250
  6
CONTINUOUS
 10
-58.1460484448
 20
-37.9238183081
 11
-58.1532695156
 21
-37.5751471115
  0
LINE
  5
64A
100
AcDbEntity
  8
RACCORDO
100
AcDbLine
 62
250
  6
CONTINUOUS
 10
-58.1994540101
 20
-36.2389031025
 11
-58.2014574675
 21
-36.1368077146
  0
LINE
  5
64B
100
AcDbEntity
  8
RACCORDO
100
AcDbLine
 62
250
  6
CONTINUOUS
 10
-59.0747827098
 20
38.6647667854
 11
-59.075597684
 21
38.7097048015
  0
LINE
  5
64C
100
AcDbEntity
  8
RACCORDO
100
AcDbLine
 62
250
  6
CONTINUOUS
 10
-59.0775106421
 20
-38.0054423476
 11
-59.0805435432
 21
-37.8368630907
  0
LINE
  5
64D
100
AcDbEntity
  8
RACCORDO
100
AcDbLine
 62
250
  6
CONTINUOUS
 10
-59.1278065716
 20
-36.4266101734
 11
-59.1293158298
 21
-36.3403022542
  0
LINE
  5
64E
100
AcDbEntity
  8
RACCORDO
100
AcDbLine
 62
250
  6
CONTINUOUS
 10
-58.1398110437
 20
-38.3212554936
 11
-58.1460484448
 21
-37.9238183081
  0
LINE
  5
64F
100
AcDbEntity
  8
RACCORDO
100
AcDbLine
 62
250
  6
CONTINUOUS
 10
-58.205488781
 20
-35.8290272367
 11
-58.2063039754
 21
-35.7663813596
  0
LINE
  5
650
100
AcDbEntity
  8
RACCORDO
100
AcDbLine
 62
250
  6
CONTINUOUS
 10
-58.2063039754
 20
-35.7663813596
 11
-58.2071468142
 21
-35.7014028075
  0
LINE
  5
651
100
AcDbEntity
  8
RACCORDO
100
AcDbLine
 62
250
  6
CONTINUOUS
 10
-58.2071468142
 20
-35.7014028075
 11
-58.2080285285
 21
-35.6329718215
  0
LINE
  5
652
100
AcDbEntity
  8
RACCORDO
100
AcDbLine
 62
250
  6
CONTINUOUS
 10
-58.2046979574
 20
-35.8903549932
 11
-58.205488781
 21
-35.8290272367
  0
LINE
  5
653
100
AcDbEntity
  8
RACCORDO
100
AcDbLine
 62
250
  6
CONTINUOUS
 10
-58.2080285285
 20
-35.6329718215
 11
-58.2197028348
 21
-34.7186596925
  0
LWPOLYLINE
  5
654
100
AcDbEntity
  8
RACCORDO
100
AcDbPolyline
 62
250
  6
CONTINUOUS
 90
3
 70
0
 10
-58.2197028348
 20
-34.7186596925
 10
-58.22212788
 20
-34.5264717518
 10
-58.2229755194
 20
-34.4589573649
  0
LWPOLYLINE
  5
655
100
AcDbEntity
  8
RACCORDO
100
AcDbPolyline
 62
250
  6
CONTINUOUS
 90
4
 70
0
 10
-58.2229755194
 20
-34.4589573649
 10
-58.2247315742
 20
-34.3185367041
 10
-58.2256402084
 20
-34.2455005588
 10
-58.2265694148
 20
-34.1705490674
  0
LWPOLYLINE
  5
656
100
AcDbEntity
  8
RACCORDO
100
AcDbPolyline
 62
250
  6
CONTINUOUS
 90
3
 70
0
 10
-58.2265694148
 20
-34.1705490674
 10
-58.2284897901
 20
-34.0146907736
 10
-58.2294814019
 20
-33.9336229904
  0
LINE
  5
657
100
AcDbEntity
  8
RACCORDO
100
AcDbLine
 62
250
  6
CONTINUOUS
 10
-58.2294814019
 20
-33.9336229904
 11
-58.2315272489
 21
-33.764989148
  0
LINE
  5
658
100
AcDbEntity
  8
RACCORDO
100
AcDbLine
 62
250
  6
CONTINUOUS
 10
-58.2014574675
 20
-36.1368077146
 11
-58.2046979574
 21
-35.8903549932
  0
LINE
  5
659
100
AcDbEntity
  8
RACCORDO
100
AcDbLine
 62
250
  6
CONTINUOUS
 10
-59.0753650674
 20
-38.1638932443
 11
-59.0775106421
 21
-38.0054423476
  0
LINE
  5
65A
100
AcDbEntity
  8
RACCORDO
100
AcDbLine
 62
250
  6
CONTINUOUS
 10
-58.2315272489
 20
-33.764989148
 11
-58.2336571272
 21
-33.5871614757
  0
LINE
  5
65B
100
AcDbEntity
  8
RACCORDO
100
AcDbLine
 62
250
  6
CONTINUOUS
 10
-58.2336571272
 20
-33.5871614757
 11
-58.2370041196
 21
-33.3019172051
  0
LINE
  5
65C
100
AcDbEntity
  8
RACCORDO
100
AcDbLine
 62
250
  6
CONTINUOUS
 10
-59.0741703588
 20
38.6155542489
 11
-59.0747827098
 21
38.6647667854
  0
LINE
  5
65D
100
AcDbEntity
  8
RACCORDO
100
AcDbLine
 62
250
  6
CONTINUOUS
 10
-58.2370041196
 20
-33.3019172051
 11
-58.2417308512
 21
-32.8839206107
  0
LINE
  5
65E
100
AcDbEntity
  8
RACCORDO
100
AcDbLine
 62
250
  6
CONTINUOUS
 10
-59.1318487171
 20
-35.9631569766
 11
-59.1321725002
 21
-35.9329369817
  0
LINE
  5
65F
100
AcDbEntity
  8
RACCORDO
100
AcDbLine
 62
250
  6
CONTINUOUS
 10
-59.1293158298
 20
-36.3403022542
 11
-59.1302478213
 21
-36.2609913959
  0
LINE
  5
660
100
AcDbEntity
  8
RACCORDO
100
AcDbLine
 62
250
  6
CONTINUOUS
 10
-58.2417308512
 20
-32.8839206107
 11
-58.2492715411
 21
-32.1650150588
  0
LWPOLYLINE
  5
661
100
AcDbEntity
  8
RACCORDO
100
AcDbPolyline
 62
250
  6
CONTINUOUS
 90
4
 70
0
 10
-59.1357053935
 20
-35.5727512643
 10
-59.1394875706
 20
-35.1768440386
 10
-59.1399701066
 20
-35.125897522
 10
-59.140463607
 20
-35.0736071109
  0
LWPOLYLINE
  5
662
100
AcDbEntity
  8
RACCORDO
100
AcDbPolyline
 62
250
  6
CONTINUOUS
 90
3
 70
0
 10
-59.1350195439
 20
-35.6454027685
 10
-59.1353555114
 20
-35.6097215336
 10
-59.1357053935
 20
-35.5727512643
  0
LINE
  5
663
100
AcDbEntity
  8
RACCORDO
100
AcDbLine
 62
250
  6
CONTINUOUS
 10
-59.1321725002
 20
-35.9329369817
 11
-59.1350195439
 21
-35.6454027685
  0
LWPOLYLINE
  5
664
100
AcDbEntity
  8
RACCORDO
100
AcDbPolyline
 62
250
  6
CONTINUOUS
 90
4
 70
0
 10
-59.140463607
 20
-35.0736071109
 10
-59.1414818033
 20
-34.9650216106
 10
-59.1420061732
 20
-34.9087269793
 10
-59.1425422738
 20
-34.8509361415
  0
LWPOLYLINE
  5
665
100
AcDbEntity
  8
RACCORDO
100
AcDbPolyline
 62
250
  6
CONTINUOUS
 90
5
 70
0
 10
-59.1425422738
 20
-34.8509361415
 10
-59.1436493752
 20
-34.7308763245
 10
-59.1442214647
 20
-34.668442647
 10
-59.1448061195
 20
-34.6043466611
 10
-59.1454030086
 20
-34.5385944101
  0
LWPOLYLINE
  5
666
100
AcDbEntity
  8
RACCORDO
100
AcDbPolyline
 62
250
  6
CONTINUOUS
 90
3
 70
0
 10
-59.1454030086
 20
-34.5385944101
 10
-59.1466361167
 20
-34.4016931561
 10
-59.1472714932
 20
-34.3305436037
  0
LINE
  5
667
100
AcDbEntity
  8
RACCORDO
100
AcDbLine
 62
250
  6
CONTINUOUS
 10
-58.2492715411
 20
-32.1650150588
 11
-58.2557693757
 21
-31.4681381938
  0
LINE
  5
668
100
AcDbEntity
  8
RACCORDO
100
AcDbLine
 62
250
  6
CONTINUOUS
 10
-59.1472714932
 20
-34.3305436037
 11
-59.1485805795
 21
-34.1824604032
  0
LINE
  5
669
100
AcDbEntity
  8
RACCORDO
100
AcDbLine
 62
250
  6
CONTINUOUS
 10
-58.1358795596
 20
-38.6862182399
 11
-58.1398110437
 21
-38.3212554936
  0
LWPOLYLINE
  5
66A
100
AcDbEntity
  8
RACCORDO
100
AcDbPolyline
 62
250
  6
CONTINUOUS
 90
3
 70
0
 10
-59.1485805795
 20
-34.1824604032
 10
-59.1499384259
 20
-34.0264877774
 10
-59.1506357041
 20
-33.9453550108
  0
LINE
  5
66B
100
AcDbEntity
  8
RACCORDO
100
AcDbLine
 62
250
  6
CONTINUOUS
 10
-59.1506357041
 20
-33.9453550108
 11
-59.1520651655
 21
-33.776573865
  0
LINE
  5
66C
100
AcDbEntity
  8
RACCORDO
100
AcDbLine
 62
250
  6
CONTINUOUS
 10
-59.1520651655
 20
-33.776573865
 11
-59.1542934436
 21
-33.5058999966
  0
LINE
  5
66D
100
AcDbEntity
  8
RACCORDO
100
AcDbLine
 62
250
  6
CONTINUOUS
 10
-59.1542934436
 20
-33.5058999966
 11
-59.156611288
 21
-33.2125585666
  0
LINE
  5
66E
100
AcDbEntity
  8
RACCORDO
100
AcDbLine
 62
250
  6
CONTINUOUS
 10
-58.2557693757
 20
-31.4681381938
 11
-58.2609429236
 21
-30.8362310461
  0
LINE
  5
66F
100
AcDbEntity
  8
RACCORDO
100
AcDbLine
 62
250
  6
CONTINUOUS
 10
-59.1310120493
 20
-36.0550128956
 11
-59.1318487171
 21
-35.9631569766
  0
LINE
  5
670
100
AcDbEntity
  8
RACCORDO
100
AcDbLine
 62
250
  6
CONTINUOUS
 10
-59.0740440107
 20
-38.3104202465
 11
-59.0753650674
 21
-38.1638932443
  0
LINE
  5
671
100
AcDbEntity
  8
RACCORDO
100
AcDbLine
 62
250
  6
CONTINUOUS
 10
-59.156611288
 20
-33.2125585666
 11
-59.1614445241
 21
-32.5492893325
  0
LINE
  5
672
100
AcDbEntity
  8
RACCORDO
100
AcDbLine
 62
250
  6
CONTINUOUS
 10
-58.2609429236
 20
-30.8362310461
 11
-58.2659277174
 21
-30.1291100374
  0
LINE
  5
673
100
AcDbEntity
  8
RACCORDO
100
AcDbLine
 62
250
  6
CONTINUOUS
 10
-59.1614445241
 20
-32.5492893325
 11
-59.1655414461
 21
-31.9068329018
  0
LINE
  5
674
100
AcDbEntity
  8
RACCORDO
100
AcDbLine
 62
250
  6
CONTINUOUS
 10
-58.2659277174
 20
-30.1291100374
 11
-58.2694360533
 21
-29.5438362363
  0
LINE
  5
675
100
AcDbEntity
  8
RACCORDO
100
AcDbLine
 62
250
  6
CONTINUOUS
 10
-59.1655414461
 20
-31.9068329018
 11
-59.1695599732
 21
-31.1687613743
  0
LINE
  5
676
100
AcDbEntity
  8
RACCORDO
100
AcDbLine
 62
250
  6
CONTINUOUS
 10
-59.1302478213
 20
-36.2609913959
 11
-59.1307027447
 21
-36.18777553
  0
LINE
  5
677
100
AcDbEntity
  8
RACCORDO
100
AcDbLine
 62
250
  6
CONTINUOUS
 10
-59.0736233653
 20
38.5340435281
 11
-59.0741703588
 21
38.6155542489
  0
LINE
  5
678
100
AcDbEntity
  8
RACCORDO
100
AcDbLine
 62
250
  6
CONTINUOUS
 10
-58.2694360533
 20
-29.5438362363
 11
-58.2726679572
 21
-28.9067232439
  0
LINE
  5
679
100
AcDbEntity
  8
RACCORDO
100
AcDbLine
 62
250
  6
CONTINUOUS
 10
-58.1341873553
 20
-38.9587898472
 11
-58.1358795596
 21
-38.6862182399
  0
LINE
  5
67A
100
AcDbEntity
  8
RACCORDO
100
AcDbLine
 62
250
  6
CONTINUOUS
 10
-59.1695599732
 20
-31.1687613743
 11
-59.1725989865
 21
-30.4994067272
  0
LINE
  5
67B
100
AcDbEntity
  8
RACCORDO
100
AcDbLine
 62
250
  6
CONTINUOUS
 10
-58.2726679572
 20
-28.9067232439
 11
-58.2755659161
 21
-28.2133070843
  0
LINE
  5
67C
100
AcDbEntity
  8
RACCORDO
100
AcDbLine
 62
250
  6
CONTINUOUS
 10
-59.1725989865
 20
-30.4994067272
 11
-59.1753747714
 21
-29.7500419625
  0
LWPOLYLINE
  5
67D
100
AcDbEntity
  8
RACCORDO
100
AcDbPolyline
 62
250
  6
CONTINUOUS
 90
3
 70
0
 10
-58.2755659161
 20
-28.2133070843
 10
-58.2781095513
 20
-27.4592944627
 10
-58.2788828047
 20
-27.1939001423
  0
LINE
  5
67E
100
AcDbEntity
  8
RACCORDO
100
AcDbLine
 62
250
  6
CONTINUOUS
 10
-59.1753747714
 20
-29.7500419625
 11
-59.1778058555
 21
-28.9110816243
  0
LWPOLYLINE
  5
67F
100
AcDbEntity
  8
RACCORDO
100
AcDbPolyline
 62
250
  6
CONTINUOUS
 90
3
 70
0
 10
-58.2788828047
 20
-27.1939001423
 10
-58.2817787931
 20
-26.057395371
 10
-58.2824851819
 20
-25.7538607349
  0
LWPOLYLINE
  5
680
100
AcDbEntity
  8
RACCORDO
100
AcDbPolyline
 62
250
  6
CONTINUOUS
 90
3
 70
0
 10
-58.2824851819
 20
-25.7538607349
 10
-58.2838943748
 20
-25.1224859107
 10
-58.2846035111
 20
-24.7941410149
  0
LINE
  5
681
100
AcDbEntity
  8
RACCORDO
100
AcDbLine
 62
250
  6
CONTINUOUS
 10
-59.1778058555
 20
-28.9110816243
 11
-59.1798451391
 21
-27.9722852854
  0
LINE
  5
682
100
AcDbEntity
  8
RACCORDO
100
AcDbLine
 62
250
  6
CONTINUOUS
 10
-58.2846035111
 20
-24.7941410149
 11
-58.2874988773
 21
-23.3918852986
  0
LINE
  5
683
100
AcDbEntity
  8
RACCORDO
100
AcDbLine
 62
250
  6
CONTINUOUS
 10
-59.0735127763
 20
-38.4436906826
 11
-59.0740440107
 21
-38.3104202465
  0
LINE
  5
684
100
AcDbEntity
  8
RACCORDO
100
AcDbLine
 62
250
  6
CONTINUOUS
 10
-58.2874988773
 20
-23.3918852986
 11
-58.290481146
 21
-21.8333568457
  0
LINE
  5
685
100
AcDbEntity
  8
RACCORDO
100
AcDbLine
 62
250
  6
CONTINUOUS
 10
-59.1798451391
 20
-27.9722852854
 11
-59.1807314637
 21
-27.4621370862
  0
LINE
  5
686
100
AcDbEntity
  8
RACCORDO
100
AcDbLine
 62
250
  6
CONTINUOUS
 10
-58.290481146
 20
-21.8333568457
 11
-58.2927206568
 21
-20.5508804824
  0
LINE
  5
687
100
AcDbEntity
  8
RACCORDO
100
AcDbLine
 62
250
  6
CONTINUOUS
 10
-58.2927206568
 20
-20.5508804824
 11
-58.2942027223
 21
-19.6372921433
  0
LWPOLYLINE
  5
688
100
AcDbEntity
  8
RACCORDO
100
AcDbPolyline
 62
250
  6
CONTINUOUS
 90
3
 70
0
 10
-59.1807314637
 20
-27.4621370862
 10
-59.1815616195
 20
-26.9235535473
 10
-59.1819689543
 20
-26.6431512474
  0
LINE
  5
689
100
AcDbEntity
  8
RACCORDO
100
AcDbLine
 62
250
  6
CONTINUOUS
 10
-58.2942027223
 20
-19.6372921433
 11
-58.2963863541
 21
-18.1716790383
  0
LINE
  5
68A
100
AcDbEntity
  8
RACCORDO
100
AcDbLine
 62
250
  6
CONTINUOUS
 10
-59.1819689543
 20
-26.6431512474
 11
-59.1861370382
 21
-23.3937540107
  0
LINE
  5
68B
100
AcDbEntity
  8
RACCORDO
100
AcDbLine
 62
250
  6
CONTINUOUS
 10
-59.1307027447
 20
-36.18777553
 11
-59.1310120493
 21
-36.0550128956
  0
LINE
  5
68C
100
AcDbEntity
  8
RACCORDO
100
AcDbLine
 62
250
  6
CONTINUOUS
 10
-58.2963863541
 20
-18.1716790383
 11
-58.2984883372
 21
-16.5830395076
  0
LINE
  5
68D
100
AcDbEntity
  8
RACCORDO
100
AcDbLine
 62
250
  6
CONTINUOUS
 10
-58.2984883372
 20
-16.5830395076
 11
-58.301088328
 21
-14.254364004
  0
LINE
  5
68E
100
AcDbEntity
  8
RACCORDO
100
AcDbLine
 62
250
  6
CONTINUOUS
 10
-59.1861370382
 20
-23.3937540107
 11
-59.1891694863
 21
-20.5524399533
  0
LINE
  5
68F
100
AcDbEntity
  8
RACCORDO
100
AcDbLine
 62
250
  6
CONTINUOUS
 10
-58.1338165047
 20
39.1530521612
 11
-58.134306814
 21
39.3236111402
  0
LINE
  5
690
100
AcDbEntity
  8
RACCORDO
100
AcDbLine
 62
250
  6
CONTINUOUS
 10
-59.1891694863
 20
-20.5524399533
 11
-59.1920725271
 21
-17.1278430956
  0
LINE
  5
691
100
AcDbEntity
  8
RACCORDO
100
AcDbLine
 62
250
  6
CONTINUOUS
 10
-58.301088328
 20
-14.254364004
 11
-58.3033530379
 21
-11.6591189507
  0
LINE
  5
692
100
AcDbEntity
  8
RACCORDO
100
AcDbLine
 62
250
  6
CONTINUOUS
 10
-59.1920725271
 20
-17.1278430956
 11
-59.1942633547
 21
-13.6324876749
  0
LINE
  5
693
100
AcDbEntity
  8
RACCORDO
100
AcDbLine
 62
250
  6
CONTINUOUS
 10
-58.3033530379
 20
-11.6591189507
 11
-58.3051626238
 21
-8.7663992789
  0
LINE
  5
694
100
AcDbEntity
  8
RACCORDO
100
AcDbLine
 62
250
  6
CONTINUOUS
 10
-59.1942633547
 20
-13.6324876749
 11
-59.1957261594
 21
-10.2526439493
  0
LINE
  5
695
100
AcDbEntity
  8
RACCORDO
100
AcDbLine
 62
250
  6
CONTINUOUS
 10
-59.1957261594
 20
-10.2526439493
 11
-59.1967327195
 21
-6.3808750462
  0
LINE
  5
696
100
AcDbEntity
  8
RACCORDO
100
AcDbLine
 62
250
  6
CONTINUOUS
 10
-58.3051626238
 20
-8.7663992789
 11
-58.3064022178
 21
-5.5409496717
  0
LINE
  5
697
100
AcDbEntity
  8
RACCORDO
100
AcDbLine
 62
250
  6
CONTINUOUS
 10
-59.1967327195
 20
-6.3808750462
 11
-59.1972001716
 21
-1.9463185713
  0
LINE
  5
698
100
AcDbEntity
  8
RACCORDO
100
AcDbLine
 62
250
  6
CONTINUOUS
 10
-58.3064022178
 20
-5.5409496717
 11
-58.3070034346
 21
-1.9462472522
  0
LINE
  5
699
100
AcDbEntity
  8
RACCORDO
100
AcDbLine
 62
250
  6
CONTINUOUS
 10
-59.1972001716
 20
-1.9463185713
 11
-59.197151235
 21
2.8819182677
  0
LINE
  5
69A
100
AcDbEntity
  8
RACCORDO
100
AcDbLine
 62
250
  6
CONTINUOUS
 10
-58.3070034346
 20
-1.9462472522
 11
-58.3070034554
 21
1.9459994653
  0
LINE
  5
69B
100
AcDbEntity
  8
RACCORDO
100
AcDbLine
 62
250
  6
CONTINUOUS
 10
-59.197151235
 20
2.8819182677
 11
-59.1954665598
 21
10.9657949754
  0
LINE
  5
69C
100
AcDbEntity
  8
RACCORDO
100
AcDbLine
 62
250
  6
CONTINUOUS
 10
-59.0735127763
 20
38.4436906834
 11
-59.0736233653
 21
38.5340435281
  0
LINE
  5
69D
100
AcDbEntity
  8
RACCORDO
100
AcDbLine
 62
250
  6
CONTINUOUS
 10
-58.3070034554
 20
1.9459994653
 11
-58.3058586671
 21
7.1966488416
  0
LINE
  5
69E
100
AcDbEntity
  8
RACCORDO
100
AcDbLine
 62
250
  6
CONTINUOUS
 10
-59.1954665598
 20
10.9657949754
 11
-59.192071788
 21
17.1288515912
  0
LINE
  5
69F
100
AcDbEntity
  8
RACCORDO
100
AcDbLine
 62
250
  6
CONTINUOUS
 10
-58.3058586671
 20
7.1966488416
 11
-58.3033531752
 21
11.6589366542
  0
LINE
  5
6A0
100
AcDbEntity
  8
RACCORDO
100
AcDbLine
 62
250
  6
CONTINUOUS
 10
-59.192071788
 20
17.1288515912
 11
-59.1874387796
 21
22.2435648044
  0
LINE
  5
6A1
100
AcDbEntity
  8
RACCORDO
100
AcDbLine
 62
250
  6
CONTINUOUS
 10
-58.3033531752
 20
11.6589366542
 11
-58.2998213805
 21
15.450507097
  0
LINE
  5
6A2
100
AcDbEntity
  8
RACCORDO
100
AcDbLine
 62
250
  6
CONTINUOUS
 10
-58.1338583512
 20
-39.1979916502
 11
-58.1341873553
 21
-38.9587898472
  0
LINE
  5
6A3
100
AcDbEntity
  8
RACCORDO
100
AcDbLine
 62
250
  6
CONTINUOUS
 10
-59.1874387796
 20
22.2435648044
 11
-59.1819640549
 21
26.6466222409
  0
LINE
  5
6A4
100
AcDbEntity
  8
RACCORDO
100
AcDbLine
 62
250
  6
CONTINUOUS
 10
-58.2998213805
 20
15.450507097
 11
-58.2927168308
 21
20.5531698814
  0
LINE
  5
6A5
100
AcDbEntity
  8
RACCORDO
100
AcDbLine
 62
250
  6
CONTINUOUS
 10
-59.1819640549
 20
26.6466222409
 11
-59.1798396103
 21
27.9752445493
  0
LINE
  5
6A6
100
AcDbEntity
  8
RACCORDO
100
AcDbLine
 62
250
  6
CONTINUOUS
 10
-58.2927168308
 20
20.5531698814
 11
-58.2874914559
 21
23.3955952464
  0
LINE
  5
6A7
100
AcDbEntity
  8
RACCORDO
100
AcDbLine
 62
250
  6
CONTINUOUS
 10
-59.1798396103
 20
27.9752445493
 11
-59.1777991307
 21
28.9137464994
  0
LINE
  5
6A8
100
AcDbEntity
  8
RACCORDO
100
AcDbLine
 62
250
  6
CONTINUOUS
 10
-58.2874914559
 20
23.3955952464
 11
-58.2817700285
 21
26.0610814123
  0
LINE
  5
6A9
100
AcDbEntity
  8
RACCORDO
100
AcDbLine
 62
250
  6
CONTINUOUS
 10
-59.0736233653
 20
-38.5340435274
 11
-59.0735127763
 21
-38.4436906826
  0
LINE
  5
6AA
100
AcDbEntity
  8
RACCORDO
100
AcDbLine
 62
250
  6
CONTINUOUS
 10
-58.2817700285
 20
26.0610814123
 11
-58.278100035
 21
27.4624412842
  0
LINE
  5
6AB
100
AcDbEntity
  8
RACCORDO
100
AcDbLine
 62
250
  6
CONTINUOUS
 10
-59.1777991307
 20
28.9137464994
 11
-59.1753666292
 21
29.7525091819
  0
LINE
  5
6AC
100
AcDbEntity
  8
RACCORDO
100
AcDbLine
 62
250
  6
CONTINUOUS
 10
-58.278100035
 20
27.4624412842
 11
-58.2755550999
 21
28.2161800918
  0
LINE
  5
6AD
100
AcDbEntity
  8
RACCORDO
100
AcDbLine
 62
250
  6
CONTINUOUS
 10
-59.1753666292
 20
29.7525091819
 11
-59.1725892821
 21
30.5017561875
  0
LINE
  5
6AE
100
AcDbEntity
  8
RACCORDO
100
AcDbLine
 62
250
  6
CONTINUOUS
 10
-58.1344154949
 20
38.9068056841
 11
-58.1338165047
 21
39.1530521612
  0
LINE
  5
6AF
100
AcDbEntity
  8
RACCORDO
100
AcDbLine
 62
250
  6
CONTINUOUS
 10
-58.2755550999
 20
28.2161800918
 11
-58.272655642
 21
28.9093847621
  0
LINE
  5
6B0
100
AcDbEntity
  8
RACCORDO
100
AcDbLine
 62
250
  6
CONTINUOUS
 10
-59.1725892821
 20
30.5017561875
 11
-59.1695485762
 21
31.171057971
  0
LINE
  5
6B1
100
AcDbEntity
  8
RACCORDO
100
AcDbLine
 62
250
  6
CONTINUOUS
 10
-59.1310108663
 20
36.0553732903
 11
-59.1305265365
 21
36.223916757
  0
LINE
  5
6B2
100
AcDbEntity
  8
RACCORDO
100
AcDbLine
 62
250
  6
CONTINUOUS
 10
-58.134306814
 20
-39.3236111402
 11
-58.1338583512
 21
-39.1979916502
  0
LINE
  5
6B3
100
AcDbEntity
  8
RACCORDO
100
AcDbLine
 62
250
  6
CONTINUOUS
 10
-58.272655642
 20
28.9093847621
 11
-58.2694221757
 21
29.5463411477
  0
LINE
  5
6B4
100
AcDbEntity
  8
RACCORDO
100
AcDbLine
 62
250
  6
CONTINUOUS
 10
-59.1695485762
 20
31.171057971
 11
-59.1655277816
 21
31.9091361218
  0
LINE
  5
6B5
100
AcDbEntity
  8
RACCORDO
100
AcDbLine
 62
250
  6
CONTINUOUS
 10
-59.0740440107
 20
38.3104202474
 11
-59.0735127763
 21
38.4436906834
  0
LINE
  5
6B6
100
AcDbEntity
  8
RACCORDO
100
AcDbLine
 62
250
  6
CONTINUOUS
 10
-58.2694221757
 20
29.5463411477
 11
-58.2659122307
 21
30.1315058532
  0
LINE
  5
6B7
100
AcDbEntity
  8
RACCORDO
100
AcDbLine
 62
250
  6
CONTINUOUS
 10
-59.1655277816
 20
31.9091361218
 11
-59.1606101823
 21
32.6699417876
  0
LINE
  5
6B8
100
AcDbEntity
  8
RACCORDO
100
AcDbLine
 62
250
  6
CONTINUOUS
 10
-58.2659122307
 20
30.1315058532
 11
-58.260925234
 21
30.8385430438
  0
LINE
  5
6B9
100
AcDbEntity
  8
RACCORDO
100
AcDbLine
 62
250
  6
CONTINUOUS
 10
-59.1606101823
 20
32.6699417876
 11
-59.1550365526
 21
33.4132733971
  0
LINE
  5
6BA
100
AcDbEntity
  8
RACCORDO
100
AcDbLine
 62
250
  6
CONTINUOUS
 10
-58.260925234
 20
30.8385430438
 11
-58.2557494061
 21
31.4704249119
  0
LINE
  5
6BB
100
AcDbEntity
  8
RACCORDO
100
AcDbLine
 62
250
  6
CONTINUOUS
 10
-59.1550365526
 20
33.4132733971
 11
-59.1478968495
 21
34.2600667489
  0
LINE
  5
6BC
100
AcDbEntity
  8
RACCORDO
100
AcDbLine
 62
250
  6
CONTINUOUS
 10
-59.0741703588
 20
-38.6155542483
 11
-59.0736233653
 21
-38.5340435274
  0
LINE
  5
6BD
100
AcDbEntity
  8
RACCORDO
100
AcDbLine
 62
250
  6
CONTINUOUS
 10
-59.1478968495
 20
34.2600667489
 11
-59.1394743305
 21
35.1782396116
  0
LINE
  5
6BE
100
AcDbEntity
  8
RACCORDO
100
AcDbLine
 62
250
  6
CONTINUOUS
 10
-58.1369520695
 20
38.5687799156
 11
-58.1344154949
 21
38.9068056841
  0
LINE
  5
6BF
100
AcDbEntity
  8
RACCORDO
100
AcDbLine
 62
250
  6
CONTINUOUS
 10
-58.2557494061
 20
31.4704249119
 11
-58.249248544
 21
32.167335882
  0
LINE
  5
6C0
100
AcDbEntity
  8
RACCORDO
100
AcDbLine
 62
250
  6
CONTINUOUS
 10
-59.1305265365
 20
36.223916757
 11
-59.1298442428
 21
36.3001837546
  0
LWPOLYLINE
  5
6C1
100
AcDbEntity
  8
RACCORDO
100
AcDbPolyline
 62
250
  6
CONTINUOUS
 90
3
 70
0
 10
-59.1394743305
 20
35.1782396116
 10
-59.1324874265
 20
35.9032305328
 10
-59.1310108663
 20
36.0553732903
  0
LINE
  5
6C2
100
AcDbEntity
  8
RACCORDO
100
AcDbLine
 62
250
  6
CONTINUOUS
 10
-59.0753650674
 20
38.1638932453
 11
-59.0740440107
 21
38.3104202474
  0
LINE
  5
6C3
100
AcDbEntity
  8
RACCORDO
100
AcDbLine
 62
250
  6
CONTINUOUS
 10
-58.249248544
 20
32.167335882
 11
-58.2417040161
 21
32.8863527508
  0
LINE
  5
6C4
100
AcDbEntity
  8
RACCORDO
100
AcDbLine
 62
250
  6
CONTINUOUS
 10
-58.2417040161
 20
32.8863527508
 11
-58.2325504709
 21
33.6798370275
  0
LINE
  5
6C5
100
AcDbEntity
  8
RACCORDO
100
AcDbLine
 62
250
  6
CONTINUOUS
 10
-58.2325504709
 20
33.6798370275
 11
-58.2115718894
 21
35.3558271667
  0
LINE
  5
6C6
100
AcDbEntity
  8
RACCORDO
100
AcDbLine
 62
250
  6
CONTINUOUS
 10
-59.0747827098
 20
-38.6647667849
 11
-59.0741703588
 21
-38.6155542483
  0
LINE
  5
6C7
100
AcDbEntity
  8
RACCORDO
100
AcDbLine
 62
250
  6
CONTINUOUS
 10
-58.1416195252
 20
38.1919157229
 11
-58.1369520695
 21
38.5687799156
  0
LINE
  5
6C8
100
AcDbEntity
  8
RACCORDO
100
AcDbLine
 62
250
  6
CONTINUOUS
 10
-59.0775106421
 20
38.0054423486
 11
-59.0753650674
 21
38.1638932453
  0
LINE
  5
6C9
100
AcDbEntity
  8
RACCORDO
100
AcDbLine
 62
250
  6
CONTINUOUS
 10
-58.2115718894
 20
35.3558271667
 11
-58.2014520772
 21
36.1370950144
  0
LINE
  5
6CA
100
AcDbEntity
  8
RACCORDO
100
AcDbLine
 62
250
  6
CONTINUOUS
 10
-59.1298442428
 20
36.3001837546
 11
-59.1286341575
 21
36.382780782
  0
LINE
  5
6CB
100
AcDbEntity
  8
RACCORDO
100
AcDbLine
 62
250
  6
CONTINUOUS
 10
-58.1473367668
 20
37.8551161424
 11
-58.1416195252
 21
38.1919157229
  0
LINE
  5
6CC
100
AcDbEntity
  8
RACCORDO
100
AcDbLine
 62
250
  6
CONTINUOUS
 10
-59.0805435431
 20
37.8368630916
 11
-59.0775106421
 21
38.0054423486
  0
LINE
  5
6CD
100
AcDbEntity
  8
RACCORDO
100
AcDbLine
 62
250
  6
CONTINUOUS
 10
-59.075597684
 20
-38.709704801
 11
-59.0747827098
 21
-38.6647667849
  0
LINE
  5
6CE
100
AcDbEntity
  8
RACCORDO
100
AcDbLine
 62
250
  6
CONTINUOUS
 10
-59.1286341575
 20
36.382780782
 11
-59.1268076755
 21
36.4727541611
  0
LINE
  5
6CF
100
AcDbEntity
  8
RACCORDO
100
AcDbLine
 62
250
  6
CONTINUOUS
 10
-58.2014520772
 20
36.1370950144
 11
-58.1994480375
 21
36.2391688369
  0
LINE
  5
6D0
100
AcDbEntity
  8
RACCORDO
100
AcDbLine
 62
250
  6
CONTINUOUS
 10
-58.1549594115
 20
37.5040717243
 11
-58.1473367668
 21
37.8551161424
  0
LINE
  5
6D1
100
AcDbEntity
  8
RACCORDO
100
AcDbLine
 62
250
  6
CONTINUOUS
 10
-59.0845486906
 20
37.6599259901
 11
-59.0805435431
 21
37.8368630916
  0
LINE
  5
6D2
100
AcDbEntity
  8
RACCORDO
100
AcDbLine
 62
250
  6
CONTINUOUS
 10
-59.1268076755
 20
36.4727541611
 11
-59.1242969828
 21
36.5706647361
  0
LINE
  5
6D3
100
AcDbEntity
  8
RACCORDO
100
AcDbLine
 62
250
  6
CONTINUOUS
 10
-58.1994480375
 20
36.2391688369
 11
-58.1964580935
 21
36.3545431684
  0
LINE
  5
6D4
100
AcDbEntity
  8
RACCORDO
100
AcDbLine
 62
250
  6
CONTINUOUS
 10
-58.1626448386
 20
37.2169026422
 11
-58.1549594115
 21
37.5040717243
  0
LINE
  5
6D5
100
AcDbEntity
  8
RACCORDO
100
AcDbLine
 62
250
  6
CONTINUOUS
 10
-59.0896378711
 20
37.4766763192
 11
-59.0845486906
 21
37.6599259901
  0
LINE
  5
6D6
100
AcDbEntity
  8
RACCORDO
100
AcDbLine
 62
250
  6
CONTINUOUS
 10
-59.1242969828
 20
36.5706647361
 11
-59.1210381162
 21
36.6769372242
  0
LINE
  5
6D7
100
AcDbEntity
  8
RACCORDO
100
AcDbLine
 62
250
  6
CONTINUOUS
 10
-58.1694543109
 20
37.0
 11
-58.1626448386
 21
37.2169026422
  0
LINE
  5
6D8
100
AcDbEntity
  8
RACCORDO
100
AcDbLine
 62
250
  6
CONTINUOUS
 10
-58.1964580935
 20
36.3545431684
 11
-58.1922284988
 21
36.4864939352
  0
LINE
  5
6D9
100
AcDbEntity
  8
RACCORDO
100
AcDbLine
 62
250
  6
CONTINUOUS
 10
-59.094257223
 20
37.3362655723
 11
-59.0896378711
 21
37.4766763192
  0
LWPOLYLINE
  5
6DA
100
AcDbEntity
  8
RACCORDO
100
AcDbPolyline
 62
250
  6
CONTINUOUS
 90
3
 70
0
 10
-59.1210381162
 20
36.6769372242
 10
-59.1169474954
 20
36.7921281697
 10
-59.1145602972
 20
36.8532800404
  0
LINE
  5
6DB
100
AcDbEntity
  8
RACCORDO
100
AcDbLine
 62
250
  6
CONTINUOUS
 10
-59.0996480502
 20
37.1942479706
 11
-59.094257223
 21
37.3362655723
  0
LINE
  5
6DC
100
AcDbEntity
  8
RACCORDO
100
AcDbLine
 62
250
  6
CONTINUOUS
 10
-58.1922284988
 20
36.4864939352
 11
-58.1865101556
 21
36.6369087707
  0
LINE
  5
6DD
100
AcDbEntity
  8
RACCORDO
100
AcDbLine
 62
250
  6
CONTINUOUS
 10
-58.1865101556
 20
36.6369087707
 11
-58.1790249419
 21
36.807466823
  0
LINE
  5
6DE
100
AcDbEntity
  8
RACCORDO
100
AcDbLine
 62
250
  6
CONTINUOUS
 10
-58.1790249419
 20
36.807466823
 11
-58.1694543109
 21
37.0
  0
LWPOLYLINE
  5
6DF
100
AcDbEntity
  8
0
100
AcDbPolyline
 62
7
  6
CONTINUOUS
 90
13
 70
0
 43
0.3500000006
 10
-72.3618321075
 20
-0.0000003204
 10
-73.6475480804
 20
-0.0000003204
 10
-74.0761170502
 20
0.2142864304
 10
-74.5046905518
 20
0.642857666
 10
-74.5046905518
 20
0.8571421509
 10
-74.0761170502
 20
1.2857133865
 10
-73.6475480804
 20
1.5000001373
 10
-72.3618321075
 20
1.5000001373
 10
-71.9332631378
 20
1.2857133865
 10
-71.5046896362
 20
0.8571421509
 10
-71.5046896362
 20
0.642857666
 10
-71.9332631378
 20
0.2142864304
 10
-72.3618321075
 20
-0.0000003204
  0
LINE
  5
6E0
100
AcDbEntity
  8
RACCORDO
100
AcDbLine
 62
250
  6
CONTINUOUS
 10
-62.5530336523
 20
0.0
 11
-58.3070638633
 21
0.0
  0
LWPOLYLINE
  5
6E1
100
AcDbEntity
  8
RACCORDO
100
AcDbPolyline
 62
250
  6
CONTINUOUS
 90
14
 70
0
 10
-58.1386689058
 20
39.6114894494
 10
-58.1394497427
 20
39.6347531563
 10
-58.1402940824
 20
39.6562152072
 10
-58.1412021199
 20
39.675855286
 10
-58.1421786718
 20
39.6936537434
 10
-58.1432235965
 20
39.7095990335
 10
-58.1443370355
 20
39.7236802143
 10
-58.145524231
 20
39.7358838987
 10
-58.1467848399
 20
39.7462030312
 10
-58.1481192052
 20
39.7546342767
 10
-58.149533597
 20
39.7611737922
 10
-58.1510301055
 20
39.7658194388
 10
-58.1526066405
 20
39.768570676
 10
-58.154263202
 20
39.7694281234
  0
LWPOLYLINE
  5
6E2
100
AcDbEntity
  8
RACCORDO
100
AcDbPolyline
 62
250
  6
CONTINUOUS
 90
16
 70
0
 10
-59.0766199013
 20
38.7502614081
 10
-59.0772106135
 20
38.7688712318
 10
-59.0778559004
 20
38.7863528673
 10
-59.0785573171
 20
38.8026982282
 10
-59.0793164535
 20
38.8178979352
 10
-59.0801347835
 20
38.8319398294
 10
-59.0810136773
 20
38.8448119743
 10
-59.0819547677
 20
38.8565074866
 10
-59.0829598154
 20
38.8670200619
 10
-59.0840302635
 20
38.8763409753
 10
-59.0851677767
 20
38.8844653539
 10
-59.0863744445
 20
38.8913919336
 10
-59.0876522698
 20
38.8971189007
 10
-59.089003289
 20
38.901644826
 10
-59.0904296946
 20
38.904969198
 10
-59.0919337145
 20
38.9070917709
  0
LINE
  5
6E3
100
AcDbEntity
  8
RACCORDO
100
AcDbLine
 62
250
  6
CONTINUOUS
 10
-58.1372940942
 20
39.5596084297
 11
-58.1386689058
 21
39.6114894494
  0
LINE
  5
6E4
100
AcDbEntity
  8
RACCORDO
100
AcDbLine
 62
250
  6
CONTINUOUS
 10
-58.1361560337
 20
39.5006920214
 11
-58.1372940942
 21
39.5596084297
  0
LINE
  5
6E5
100
AcDbEntity
  8
RACCORDO
100
AcDbLine
 62
250
  6
CONTINUOUS
 10
-58.1352478651
 20
39.4348730475
 11
-58.1361560337
 21
39.5006920214
  0
LINE
  5
6E6
100
AcDbEntity
  8
RACCORDO
100
AcDbLine
 62
250
  6
CONTINUOUS
 10
-58.134306814
 20
39.3236111402
 11
-58.1352478651
 21
39.4348730475
  0
LINE
  5
6E7
100
AcDbEntity
  8
RACCORDO
100
AcDbLine
 62
7
  6
CONTINUOUS
 10
-55.7546897085
 20
3.0615117685
 11
-55.7546897085
 21
-3.0615117685
  0
LINE
  5
6E8
100
AcDbEntity
  8
RACCORDO
100
AcDbLine
 62
250
  6
CONTINUOUS
 10
-58.1352478651
 20
-39.4348730475
 11
-58.134306814
 21
-39.3236111402
  0
LINE
  5
6E9
100
AcDbEntity
  8
RACCORDO
100
AcDbLine
 62
250
  6
CONTINUOUS
 10
-58.1361560337
 20
-39.5006920214
 11
-58.1352478651
 21
-39.4348730475
  0
LINE
  5
6EA
100
AcDbEntity
  8
RACCORDO
100
AcDbLine
 62
250
  6
CONTINUOUS
 10
-58.1372940942
 20
-39.5596084297
 11
-58.1361560337
 21
-39.5006920214
  0
LWPOLYLINE
  5
6EB
100
AcDbEntity
  8
RACCORDO
100
AcDbPolyline
 62
250
  6
CONTINUOUS
 90
9
 70
0
 10
-61.9440677108
 20
25.7845941036
 10
-61.9436669402
 20
25.782855581
 10
-61.9434256306
 20
25.7790881232
 10
-61.9433225405
 20
25.7735055467
 10
-61.9433547862
 20
25.7663202794
 10
-61.9435086166
 20
25.7578000397
 10
-61.9437693188
 20
25.7480036986
 10
-61.9441153697
 20
25.736945585
 10
-61.9448698191
 20
25.7107702171
  0
LINE
  5
6EC
100
AcDbEntity
  8
0
100
AcDbLine
 62
7
  6
CONTINUOUS
 10
-53.7546897085
 20
40.0
 11
-53.7546897085
 21
36.9999999999
  0
LINE
  5
6ED
100
AcDbEntity
  8
0
100
AcDbLine
 62
7
  6
CONTINUOUS
 10
-53.7546897085
 20
-40.0
 11
-53.7546897085
 21
-36.9999999999
  0
LINE
  5
6EE
100
AcDbEntity
  8
RACCORDO
100
AcDbLine
 62
7
  6
CONTINUOUS
 10
-53.7546897085
 20
-36.9999999999
 11
-53.7546897085
 21
-4.2017932267
  0
LINE
  5
6EF
100
AcDbEntity
  8
RACCORDO
100
AcDbLine
 62
7
  6
CONTINUOUS
 10
-53.7546897085
 20
4.2017932267
 11
-53.7546897085
 21
36.9999999999
  0
LINE
  5
6F0
100
AcDbEntity
  8
RACCORDO
100
AcDbLine
 62
250
  6
CONTINUOUS
 10
-62.5494397316
 20
-24.2063998479
 11
-62.5495664305
 21
-24.2067709591
  0
LINE
  5
6F1
100
AcDbEntity
  8
RACCORDO
100
AcDbLine
 62
7
  6
CONTINUOUS
 10
-54.1894266124
 20
3.706070796
 11
-55.3199528046
 21
3.5572341992
  0
LWPOLYLINE
  5
6F2
100
AcDbEntity
  8
RACCORDO
100
AcDbPolyline
 62
250
  6
CONTINUOUS
 90
6
 70
0
 10
-62.5495664305
 20
24.2067709591
 10
-62.5494409629
 20
24.2064122664
 10
-62.549350182
 20
24.2050337176
 10
-62.5492941083
 20
24.2027404383
 10
-62.5492751547
 20
24.1996910108
 10
-62.5492909254
 20
24.1959539127
  0
LWPOLYLINE
  5
6F3
100
AcDbEntity
  8
RACCORDO
100
AcDbPolyline
 62
250
  6
CONTINUOUS
 90
12
 70
0
 10
-59.1027296619
 20
-38.9274056519
 10
-59.1017144493
 20
-38.9227698235
 10
-59.1010464228
 20
-38.9204839109
 10
-59.1002480729
 20
-38.9185731674
 10
-59.0993647176
 20
-38.9168450574
 10
-59.0984183004
 20
-38.9152128848
 10
-59.0974220281
 20
-38.9136529785
 10
-59.0963813533
 20
-38.9121882135
 10
-59.0953045562
 20
-38.9108016985
 10
-59.0941993499
 20
-38.9094875817
 10
-59.0930734293
 20
-38.9082510391
 10
-59.0919337055
 20
-38.9070917696
  0
LWPOLYLINE
  5
6F4
100
AcDbEntity
  8
RACCORDO
100
AcDbPolyline
 62
7
  6
CONTINUOUS
 90
18
 70
0
 10
-61.9440692671
 20
-25.7845942298
 10
-61.9458030845
 20
-25.7872786988
 10
-61.9472656837
 20
-25.7895830657
 10
-61.9484921144
 20
-25.7916203302
 10
-61.9495268362
 20
-25.7935074182
 10
-61.9504032422
 20
-25.7952633016
 10
-61.9511603682
 20
-25.7968842663
 10
-61.9518374239
 20
-25.7983678649
 10
-61.9524396663
 20
-25.7997090364
 10
-61.9529639683
 20
-25.8009026796
 10
-61.9534070894
 20
-25.8019428888
 10
-61.9537702784
 20
-25.8028317408
 10
-61.9540577865
 20
-25.8035773754
 10
-61.9542740765
 20
-25.8041878955
 10
-61.9544223706
 20
-25.8046683142
 10
-61.9545069466
 20
-25.8050255774
 10
-61.9545336233
 20
-25.805269527
 10
-61.9545322583
 20
-25.8053128186
  0
LWPOLYLINE
  5
6F5
100
AcDbEntity
  8
RACCORDO
100
AcDbPolyline
 62
250
  6
CONTINUOUS
 90
11
 70
0
 10
-59.10276121
 20
38.9276012157
 10
-59.1031947069
 20
38.9292466599
 10
-59.1036073698
 20
38.9305653929
 10
-59.1040417457
 20
38.931663315
 10
-59.1045477686
 20
38.932482949
 10
-59.1051186278
 20
38.9330798222
 10
-59.1057089776
 20
38.9337292203
 10
-59.1062999708
 20
38.9345328865
 10
-59.1069078175
 20
38.9353891256
 10
-59.1075391507
 20
38.9362679894
 10
-59.1081971207
 20
38.9371545189
  0
LWPOLYLINE
  5
6F6
100
AcDbEntity
  8
RACCORDO
100
AcDbPolyline
 62
250
  6
CONTINUOUS
 90
9
 70
0
 10
-59.1908086657
 20
-39.0741169257
 10
-59.1871577268
 20
-39.0662759664
 10
-59.1852198156
 20
-39.0623205514
 10
-59.1832278508
 20
-39.058394319
 10
-59.1812182667
 20
-39.0544792763
 10
-59.1791888157
 20
-39.0506389596
 10
-59.1771590322
 20
-39.0468848
 10
-59.175148006
 20
-39.043204219
 10
-59.1731488623
 20
-39.0396253319
  0
LWPOLYLINE
  5
6F7
100
AcDbEntity
  8
RACCORDO
100
AcDbPolyline
 62
250
  6
CONTINUOUS
 90
15
 70
0
 10
-59.1888901242
 20
39.0699207573
 10
-59.1922270145
 20
39.0772938893
 10
-59.1937683254
 20
39.0808057249
 10
-59.1951950997
 20
39.0842088677
 10
-59.1965226623
 20
39.087428286
 10
-59.197730901
 20
39.0904670257
 10
-59.1988011532
 20
39.0933255199
 10
-59.1997472139
 20
39.0959255967
 10
-59.2005509277
 20
39.0982645046
 10
-59.2011967097
 20
39.1003484964
 10
-59.2016992107
 20
39.1021134278
 10
-59.2020523688
 20
39.1035478298
 10
-59.2022473417
 20
39.1046654024
 10
-59.2022942776
 20
39.1054397894
 10
-59.2022429492
 20
39.1057706875
  0
LWPOLYLINE
  5
6F8
100
AcDbEntity
  8
RACCORDO
100
AcDbPolyline
 62
250
  6
CONTINUOUS
 90
24
 70
0
 10
-59.1731488623
 20
-39.0396253319
 10
-59.169237727
 20
-39.0327820173
 10
-59.1673570043
 20
-39.0295240381
 10
-59.1655110787
 20
-39.0264788459
 10
-59.1637035249
 20
-39.0235487148
 10
-59.1619742749
 20
-39.0204490568
 10
-59.160328431
 20
-39.0170383923
 10
-59.1586863747
 20
-39.0134607819
 10
-59.1569698586
 20
-39.0098590694
 10
-59.1551542422
 20
-39.0062477296
 10
-59.1532595824
 20
-39.0026125013
 10
-59.1512803851
 20
-38.9990536762
 10
-59.1492611273
 20
-38.9955079076
 10
-59.1472502234
 20
-38.9920341567
 10
-59.1452411675
 20
-38.9889177751
 10
-59.1432402911
 20
-38.9863615939
 10
-59.1413117882
 20
-38.9841613686
 10
-59.1395250386
 20
-38.9819924527
 10
-59.137898933
 20
-38.979752242
 10
-59.1363771024
 20
-38.9775453558
 10
-59.134916957
 20
-38.9753572419
 10
-59.1334950754
 20
-38.9731667999
 10
-59.1321062329
 20
-38.9709967164
 10
-59.1307412149
 20
-38.9688978579
  0
LWPOLYLINE
  5
6F9
100
AcDbEntity
  8
RACCORDO
100
AcDbPolyline
 62
250
  6
CONTINUOUS
 90
3
 70
0
 10
-59.1664504443
 20
39.0280510487
 10
-59.1700698562
 20
39.0341966686
 10
-59.1719192598
 20
39.0374369515
  0
LINE
  5
6FA
100
AcDbEntity
  8
RACCORDO
100
AcDbLine
 62
250
  6
CONTINUOUS
 10
-59.1647474941
 20
39.0250519846
 11
-59.1664504443
 21
39.0280510487
  0
LWPOLYLINE
  5
6FB
100
AcDbEntity
  8
RACCORDO
100
AcDbPolyline
 62
250
  6
CONTINUOUS
 90
3
 70
0
 10
-59.1719192598
 20
39.0374369515
 10
-59.1756859741
 20
39.0441896199
 10
-59.1776023166
 20
39.0476967315
  0
LWPOLYLINE
  5
6FC
100
AcDbEntity
  8
RACCORDO
100
AcDbPolyline
 62
250
  6
CONTINUOUS
 90
6
 70
0
 10
-59.1776023166
 20
39.0476967315
 10
-59.1814571404
 20
39.0549316268
 10
-59.183372816
 20
39.0586443348
 10
-59.1852527875
 20
39.0624126517
 10
-59.1871027116
 20
39.0661673316
 10
-59.1888901242
 20
39.0699207573
  0
LWPOLYLINE
  5
6FD
100
AcDbEntity
  8
RACCORDO
100
AcDbPolyline
 62
250
  6
CONTINUOUS
 90
3
 70
0
 10
-59.1307412149
 20
-38.9688978579
 10
-59.1281007808
 20
-38.9649500283
 10
-59.1268297977
 20
-38.9630782824
  0
LINE
  5
6FE
100
AcDbEntity
  8
RACCORDO
100
AcDbLine
 62
250
  6
CONTINUOUS
 10
-59.1268297977
 20
-38.9630782824
 11
-59.1243891109
 21
-38.9595358239
  0
LWPOLYLINE
  5
6FF
100
AcDbEntity
  8
RACCORDO
100
AcDbPolyline
 62
250
  6
CONTINUOUS
 90
3
 70
0
 10
-59.1243891109
 20
-38.9595358239
 10
-59.1220832587
 20
-38.9562442136
 10
-59.1209826309
 20
-38.9546905083
  0
LWPOLYLINE
  5
700
100
AcDbEntity
  8
RACCORDO
100
AcDbPolyline
 62
250
  6
CONTINUOUS
 90
17
 70
0
 10
-59.0919337145
 20
-38.9070917709
 10
-59.0904296946
 20
-38.9049691981
 10
-59.089003289
 20
-38.901644826
 10
-59.0876522697
 20
-38.8971189006
 10
-59.0863744444
 20
-38.8913919335
 10
-59.0851677767
 20
-38.8844653537
 10
-59.0840302634
 20
-38.8763409751
 10
-59.0829598154
 20
-38.8670200617
 10
-59.0819547677
 20
-38.8565074864
 10
-59.0810136773
 20
-38.844811974
 10
-59.0801347834
 20
-38.8319398291
 10
-59.0793164535
 20
-38.8178979349
 10
-59.0785573171
 20
-38.8026982278
 10
-59.0778559004
 20
-38.7863528669
 10
-59.0772106135
 20
-38.7688712314
 10
-59.0766199012
 20
-38.7502614077
 10
-59.075597684
 20
-38.709704801
  0
LINE
  5
701
100
AcDbEntity
  8
RACCORDO
100
AcDbLine
 62
250
  6
CONTINUOUS
 10
-59.1210756144
 20
38.9548213281
 11
-59.1232533343
 21
38.957907937
  0
LWPOLYLINE
  5
702
100
AcDbEntity
  8
RACCORDO
100
AcDbPolyline
 62
250
  6
CONTINUOUS
 90
4
 70
0
 10
-59.1232533343
 20
38.957907937
 10
-59.1255424299
 20
38.9612021367
 10
-59.1267285928
 20
38.9629301022
 10
-59.1279409383
 20
38.9647132963
  0
LWPOLYLINE
  5
703
100
AcDbEntity
  8
RACCORDO
100
AcDbPolyline
 62
250
  6
CONTINUOUS
 90
5
 70
0
 10
-59.1279409383
 20
38.9647132963
 10
-59.1304429604
 20
38.9684472375
 10
-59.1317289168
 20
38.9704125422
 10
-59.1330334874
 20
38.9724356498
 10
-59.1357169316
 20
38.9765518165
  0
LWPOLYLINE
  5
704
100
AcDbEntity
  8
RACCORDO
100
AcDbPolyline
 62
250
  6
CONTINUOUS
 90
17
 70
0
 10
-59.1357169316
 20
38.9765518165
 10
-59.1371088345
 20
38.9786440813
 10
-59.1385729323
 20
38.9807401782
 10
-59.1401543273
 20
38.9827403434
 10
-59.1418566491
 20
38.9847418512
 10
-59.1436568018
 20
38.9870192725
 10
-59.145534258
 20
38.9897106551
 10
-59.1474651258
 20
38.9926787587
 10
-59.1494115252
 20
38.9957854846
 10
-59.1513104177
 20
38.9990226618
 10
-59.1531443437
 20
39.0024017799
 10
-59.1549378245
 20
39.0058152192
 10
-59.1566695148
 20
39.0092938865
 10
-59.1583238344
 20
39.0128084054
 10
-59.1599323622
 20
39.0161618251
 10
-59.1615254063
 20
39.0192235112
 10
-59.1647474941
 20
39.0250519846
  0
LINE
  5
705
100
AcDbEntity
  8
RACCORDO
100
AcDbLine
 62
250
  6
CONTINUOUS
 10
-59.1209826309
 20
-38.9546905083
 11
-59.118880059
 21
-38.9517472909
  0
LINE
  5
706
100
AcDbEntity
  8
RACCORDO
100
AcDbLine
 62
250
  6
CONTINUOUS
 10
-59.118880059
 20
-38.9517472909
 11
-59.115970771
 21
-38.9477236246
  0
LINE
  5
707
100
AcDbEntity
  8
RACCORDO
100
AcDbLine
 62
250
  6
CONTINUOUS
 10
-59.115970771
 20
-38.9477236246
 11
-59.1109408502
 21
-38.9408449366
  0
LINE
  5
708
100
AcDbEntity
  8
RACCORDO
100
AcDbLine
 62
250
  6
CONTINUOUS
 10
-59.1109408502
 20
-38.9408449366
 11
-59.1094692168
 21
-38.9388522842
  0
LWPOLYLINE
  5
709
100
AcDbEntity
  8
RACCORDO
100
AcDbPolyline
 62
250
  6
CONTINUOUS
 90
12
 70
0
 10
-59.1094692168
 20
-38.9388522842
 10
-59.1080967065
 20
-38.9370182114
 10
-59.1074466824
 20
-38.9361419732
 10
-59.1068222193
 20
-38.9352732758
 10
-59.1062208633
 20
-38.934426856
 10
-59.1056368001
 20
-38.9336318103
 10
-59.1050535582
 20
-38.9329941479
 10
-59.1044895912
 20
-38.9324078449
 10
-59.1039906703
 20
-38.9315838759
 10
-59.1035649086
 20
-38.9304501198
 10
-59.1031602058
 20
-38.9290806595
 10
-59.1027296619
 20
-38.9274056519
  0
LINE
  5
70A
100
AcDbEntity
  8
RACCORDO
100
AcDbLine
 62
250
  6
CONTINUOUS
 10
-62.5479718438
 20
22.3
 11
-62.7546897085
 21
22.3
  0
LINE
  5
70B
100
AcDbEntity
  8
RACCORDO
100
AcDbLine
 62
250
  6
CONTINUOUS
 10
-62.5479718405
 20
22.3
 11
-62.3641928248
 21
22.2954206819
  0
LINE
  5
70C
100
AcDbEntity
  8
RACCORDO
100
AcDbLine
 62
250
  6
CONTINUOUS
 10
-62.3641928248
 20
22.2954206819
 11
-62.2105637033
 21
22.2908952211
  0
LINE
  5
70D
100
AcDbEntity
  8
RACCORDO
100
AcDbLine
 62
250
  6
CONTINUOUS
 10
-62.2105637033
 20
22.2908952211
 11
-62.1162285762
 21
22.2875685293
  0
LINE
  5
70E
100
AcDbEntity
  8
RACCORDO
100
AcDbLine
 62
250
  6
CONTINUOUS
 10
-62.1162285762
 20
22.2875685293
 11
-62.0636425779
 21
22.2853951065
  0
LWPOLYLINE
  5
70F
100
AcDbEntity
  8
RACCORDO
100
AcDbPolyline
 62
250
  6
CONTINUOUS
 90
8
 70
0
 10
-62.0636425779
 20
22.2853951065
 10
-62.0194839184
 20
22.2832646583
 10
-62.0006064232
 20
22.2822175141
 10
-61.983882527
 20
22.2811834535
 10
-61.9693245339
 20
22.2801632373
 10
-61.9569431545
 20
22.2791576162
 10
-61.9467474979
 20
22.27816733
 10
-61.9387450654
 20
22.2771931074
  0
LINE
  5
710
100
AcDbEntity
  8
RACCORDO
100
AcDbLine
 62
250
  6
CONTINUOUS
 10
-59.1081971207
 20
38.9371545189
 11
-59.109586652
 21
38.9390099605
  0
LINE
  5
711
100
AcDbEntity
  8
RACCORDO
100
AcDbLine
 62
250
  6
CONTINUOUS
 10
-59.109586652
 20
38.9390099605
 11
-59.1126574065
 21
38.943183708
  0
LINE
  5
712
100
AcDbEntity
  8
RACCORDO
100
AcDbLine
 62
250
  6
CONTINUOUS
 10
-59.1126574065
 20
38.943183708
 11
-59.1170592181
 21
38.9492235339
  0
LWPOLYLINE
  5
713
100
AcDbEntity
  8
RACCORDO
100
AcDbPolyline
 62
250
  6
CONTINUOUS
 90
3
 70
0
 10
-59.1170592181
 20
38.9492235339
 10
-59.1200290916
 20
38.9533514813
 10
-59.1210756144
 20
38.9548213281
  0
LWPOLYLINE
  5
714
100
AcDbEntity
  8
RACCORDO
100
AcDbPolyline
 62
250
  6
CONTINUOUS
 90
12
 70
0
 10
-59.0919336876
 20
38.9070917671
 10
-59.0930812442
 20
38.9082593631
 10
-59.094214798
 20
38.9095052954
 10
-59.0953272133
 20
38.9108298757
 10
-59.0964106406
 20
38.9122276562
 10
-59.0974572732
 20
38.9137047707
 10
-59.0984586905
 20
38.9152789513
 10
-59.0994091273
 20
38.9169275857
 10
-59.1002947502
 20
38.9186741255
 10
-59.1010928317
 20
38.9206053907
 10
-59.1017565096
 20
38.9229216637
 10
-59.10276121
 20
38.9276012157
  0
LWPOLYLINE
  5
715
100
AcDbEntity
  8
RACCORDO
100
AcDbPolyline
 62
250
  6
CONTINUOUS
 90
15
 70
0
 10
-58.154263202
 20
-39.7694281234
 10
-58.1526066405
 20
-39.768570676
 10
-58.1510301055
 20
-39.7658194388
 10
-58.149533597
 20
-39.7611737922
 10
-58.1481192052
 20
-39.7546342767
 10
-58.1467848399
 20
-39.7462030312
 10
-58.145524231
 20
-39.7358838987
 10
-58.1443370356
 20
-39.7236802143
 10
-58.1432235965
 20
-39.7095990335
 10
-58.1421786718
 20
-39.6936537434
 10
-58.1412021199
 20
-39.675855286
 10
-58.1402940824
 20
-39.6562152072
 10
-58.1394497427
 20
-39.6347531563
 10
-58.1386689058
 20
-39.6114894493
 10
-58.1372940942
 20
-39.5596084297
  0
LWPOLYLINE
  5
716
100
AcDbEntity
  8
RACCORDO
100
AcDbPolyline
 62
7
  6
CONTINUOUS
 90
39
 70
0
 10
-58.3156848846
 20
39.7609683295
 10
-58.3393089041
 20
39.7594427884
 10
-58.3638242666
 20
39.7572642981
 10
-58.389209973
 20
39.754365146
 10
-58.4155912176
 20
39.7506526122
 10
-58.4427878382
 20
39.7460703276
 10
-58.4703209366
 20
39.7406396447
 10
-58.4980250905
 20
39.7343577522
 10
-58.5260063094
 20
39.727164404
 10
-58.554196469
 20
39.7190354638
 10
-58.5825761349
 20
39.7099347594
 10
-58.6110918263
 20
39.6998366362
 10
-58.6396244318
 20
39.6887443407
 10
-58.6681441763
 20
39.6766332976
 10
-58.6966012822
 20
39.6634876027
 10
-58.724851211
 20
39.6493425457
 10
-58.7528536684
 20
39.6341922619
 10
-58.7805707419
 20
39.6180305827
 10
-58.8078699283
 20
39.6009134279
 10
-58.834715689
 20
39.5828474707
 10
-58.861072664
 20
39.5638404979
 10
-58.8868199194
 20
39.5439698304
 10
-58.9119180583
 20
39.5232632945
 10
-58.9363498453
 20
39.5017324617
 10
-58.9600390151
 20
39.4794453257
 10
-58.9829460121
 20
39.4564460963
 10
-59.0050677307
 20
39.432745101
 10
-59.0263879234
 20
39.408364971
 10
-59.0468850749
 20
39.3833354312
 10
-59.0665419649
 20
39.3576828261
 10
-59.0853486949
 20
39.3314242722
 10
-59.1032871628
 20
39.3045882493
 10
-59.120340228
 20
39.2772037559
 10
-59.1364986223
 20
39.2492879053
 10
-59.1517459617
 20
39.220869988
 10
-59.1660668231
 20
39.1919797936
 10
-59.1794524282
 20
39.1626345994
 10
-59.1918880542
 20
39.1328645697
 10
-59.2022404085
 20
39.1057776358
  0
LINE
  5
717
100
AcDbEntity
  8
RACCORDO
100
AcDbLine
 62
7
  6
CONTINUOUS
 10
-58.3153863356
 20
39.7609840178
 11
-53.7546897085
 21
40.0
  0
LINE
  5
718
100
AcDbEntity
  8
RACCORDO
100
AcDbLine
 62
250
  6
CONTINUOUS
 10
-53.7546897085
 20
37.0
 11
-58.1694543109
 21
37.0
  0
LINE
  5
719
100
AcDbEntity
  8
RACCORDO
100
AcDbLine
 62
250
  6
CONTINUOUS
 10
-59.027656133
 20
37.046724087
 11
-58.1694543064
 21
37.0
  0
LINE
  5
71A
100
AcDbEntity
  8
RACCORDO
100
AcDbLine
 62
250
  6
CONTINUOUS
 10
-59.0855497362
 20
37.0502257388
 11
-59.027656133
 21
37.046724087
  0
LWPOLYLINE
  5
71B
100
AcDbEntity
  8
RACCORDO
100
AcDbPolyline
 62
250
  6
CONTINUOUS
 90
3
 70
0
 10
-59.105895439
 20
37.0515813975
 10
-59.1003377857
 20
37.051193213
 10
-59.0855497362
 20
37.0502257388
  0
ARC
  5
71C
100
AcDbEntity
  8
0
100
AcDbCircle
 62
7
  6
CONTINUOUS
 10
37.0
 20
37.0
 40
3.0
100
AcDbArc
 50
0.0
 51
90.0000000028
  0
ARC
  5
71D
100
AcDbEntity
  8
0
100
AcDbCircle
 62
7
  6
CONTINUOUS
 10
-37.0
 20
37.0
 40
3.0
100
AcDbArc
 50
89.9999999972
 51
180.0000000016
  0
ARC
  5
71E
100
AcDbEntity
  8
0
100
AcDbCircle
 62
7
  6
CONTINUOUS
 10
37.0
 20
-37.0
 40
3.0
100
AcDbArc
 50
269.9999999972
 51
360.0
  0
ARC
  5
71F
100
AcDbEntity
  8
0
100
AcDbCircle
 62
7
  6
CONTINUOUS
 10
-37.0
 20
-37.0
 40
3.0
100
AcDbArc
 50
179.9999999984
 51
270.0000000028
  0
ARC
  5
720
100
AcDbEntity
  8
0
100
AcDbCircle
 62
7
  6
CONTINUOUS
 10
-22.3
 20
22.3
 40
0.3
100
AcDbArc
 50
90.0
 51
180.0
  0
ARC
  5
721
100
AcDbEntity
  8
0
100
AcDbCircle
 62
7
  6
CONTINUOUS
 10
-22.3
 20
-22.3
 40
0.3
100
AcDbArc
 50
180.0
 51
270.0
  0
ARC
  5
722
100
AcDbEntity
  8
0
100
AcDbCircle
 62
7
  6
CONTINUOUS
 10
22.3
 20
-22.3
 40
0.3
100
AcDbArc
 50
270.0
 51
360.0
  0
ARC
  5
723
100
AcDbEntity
  8
0
100
AcDbCircle
 62
7
  6
CONTINUOUS
 10
22.3
 20
22.3
 40
0.3
100
AcDbArc
 50
0.0
 51
90.0
  0
ARC
  5
724
100
AcDbEntity
  8
RACCORDO
100
AcDbCircle
 62
7
  6
CONTINUOUS
 10
-58.2630596113
 20
-38.7623539992
 40
1.0
100
AcDbArc
 50
200.0856003138
 51
266.9817130852
  0
ARC
  5
725
100
AcDbEntity
  8
RACCORDO
100
AcDbCircle
 62
7
  6
CONTINUOUS
 10
-61.7546897085
 20
-23.6
 40
1.0
100
AcDbArc
 50
180.0
 51
217.3563867197
  0
ARC
  5
726
100
AcDbEntity
  8
0
100
AcDbCircle
 62
7
  6
CONTINUOUS
 10
-61.7546897085
 20
-23.6
 40
1.0
100
AcDbArc
 50
180.0
 51
217.3563867197
  0
ARC
  5
727
100
AcDbEntity
  8
RACCORDO
100
AcDbCircle
 62
7
  6
CONTINUOUS
 10
-61.7546897085
 20
23.6
 40
1.0
100
AcDbArc
 50
142.6436132803
 51
180.0
  0
ARC
  5
728
100
AcDbEntity
  8
0
100
AcDbCircle
 62
7
  6
CONTINUOUS
 10
-61.7546897085
 20
23.6
 40
1.0
100
AcDbArc
 50
142.6436132803
 51
180.0
  0
ARC
  5
729
100
AcDbEntity
  8
RACCORDO
100
AcDbCircle
 62
7
  6
CONTINUOUS
 10
-58.2546877782
 20
38.7627927484
 40
1.0
100
AcDbArc
 50
92.9999999862
 51
93.480177726
  0
ARC
  5
72A
100
AcDbEntity
  8
RACCORDO
100
AcDbCircle
 62
7
  6
CONTINUOUS
 10
-58.2546877823
 20
-38.7627927482
 40
1.0
100
AcDbArc
 50
265.9269915117
 51
267.0000002241
  0
ARC
  5
72B
100
AcDbEntity
  8
RACCORDO
100
AcDbCircle
 62
7
  6
CONTINUOUS
 10
-55.2546897085
 20
3.0615117685
 40
0.5
100
AcDbArc
 50
97.5
 51
180.0
  0
ARC
  5
72C
100
AcDbEntity
  8
RACCORDO
100
AcDbCircle
 62
7
  6
CONTINUOUS
 10
-55.2546897085
 20
-3.0615117685
 40
0.5
100
AcDbArc
 50
180.0
 51
262.5
  0
ARC
  5
72D
100
AcDbEntity
  8
RACCORDO
100
AcDbCircle
 62
7
  6
CONTINUOUS
 10
-54.2546897085
 20
4.2017932267
 40
0.5
100
AcDbArc
 50
277.5
 51
360.0
  0
ARC
  5
72E
100
AcDbEntity
  8
RACCORDO
100
AcDbCircle
 62
7
  6
CONTINUOUS
 10
-54.2546897085
 20
-4.2017932267
 40
0.5
100
AcDbArc
 50
0.0
 51
82.5
  0
ELLIPSE
  5
72F
100
AcDbEntity
  8
RACCORDO
100
AcDbEllipse
 62
7
  6
CONTINUOUS
 10
22.2912911265
 20
22.2912911265
 30
0.0
 11
0.2173883778
 21
0.2173883778
 31
0.0
 40
0.9758204948
 41
-0.7731610709
 42
0.7731610709
  0
ELLIPSE
  5
730
100
AcDbEntity
  8
RACCORDO
100
AcDbEllipse
 62
7
  6
CONTINUOUS
 10
22.2912911265
 20
-22.2912911265
 30
0.0
 11
0.2173883778
 21
-0.2173883778
 31
0.0
 40
0.9758204948
 41
-0.7731610709
 42
0.7731610709
  0
ELLIPSE
  5
731
100
AcDbEntity
  8
RACCORDO
100
AcDbEllipse
 62
7
  6
CONTINUOUS
 10
-22.2912911265
 20
-22.2912911265
 30
0.0
 11
0.2173883778
 21
0.2173883778
 31
0.0
 40
0.9758204948
 41
-3.9147537245
 42
-2.3684315827
  0
ELLIPSE
  5
732
100
AcDbEntity
  8
RACCORDO
100
AcDbEllipse
 62
7
  6
CONTINUOUS
 10
-22.2912911265
 20
22.2912911265
 30
0.0
 11
0.2173883778
 21
-0.2173883778
 31
0.0
 40
0.9758204948
 41
2.3684315827
 42
3.9147537245
  0
ELLIPSE
  5
733
100
AcDbEntity
  8
RACCORDO
100
AcDbEllipse
 62
7
  6
CONTINUOUS
 10
-39.9737961104
 20
4.2017932267
 30
0.0
 11
-0.0
 21
0.5
 31
0.0
 40
0.0524077793
 41
-4.7123889804
 42
-3.2724923475
  0
ELLIPSE
  5
734
100
AcDbEntity
  8
RACCORDO
100
AcDbEllipse
 62
7
  6
CONTINUOUS
 10
-39.9737961104
 20
-4.2017932267
 30
0.0
 11
-0.0
 21
0.5
 31
0.0
 40
0.0524077793
 41
0.1308996939
 42
1.5707963268
  0
ELLIPSE
  5
735
100
AcDbEntity
  8
RACCORDO
100
AcDbEllipse
 62
7
  6
CONTINUOUS
 10
39.9737961104
 20
-4.2017932267
 30
0.0
 11
0.0
 21
0.5
 31
0.0
 40
0.0524077793
 41
-1.5707963268
 42
-0.1308996939
  0
ELLIPSE
  5
736
100
AcDbEntity
  8
RACCORDO
100
AcDbEllipse
 62
7
  6
CONTINUOUS
 10
39.9737961104
 20
4.2017932267
 30
0.0
 11
-0.0
 21
0.5
 31
0.0
 40
0.0524077793
 41
-3.0106929597
 42
-1.5707963268
  0
ELLIPSE
  5
737
100
AcDbEntity
  8
RACCORDO
100
AcDbEllipse
 62
7
  6
CONTINUOUS
 10
39.9213883311
 20
-3.0615117685
 30
0.0
 11
0.0
 21
0.5
 31
0.0
 40
0.0524077793
 41
-4.7123889804
 42
-3.2724923475
  0
ELLIPSE
  5
738
100
AcDbEntity
  8
RACCORDO
100
AcDbEllipse
 62
7
  6
CONTINUOUS
 10
-39.9213883311
 20
-3.0615117685
 30
0.0
 11
0.0
 21
0.5
 31
0.0
 40
0.0524077793
 41
-3.0106929597
 42
-1.5707963268
  0
ELLIPSE
  5
739
100
AcDbEntity
  8
RACCORDO
100
AcDbEllipse
 62
7
  6
CONTINUOUS
 10
39.9213883311
 20
3.0615117685
 30
0.0
 11
0.0
 21
0.5
 31
0.0
 40
0.0524077793
 41
0.1308996939
 42
1.5707963268
  0
ELLIPSE
  5
73A
100
AcDbEntity
  8
RACCORDO
100
AcDbEllipse
 62
7
  6
CONTINUOUS
 10
-39.9213883311
 20
3.0615117685
 30
0.0
 11
0.0
 21
0.5
 31
0.0
 40
0.0524077793
 41
-1.5707963268
 42
-0.1308996939
  0
ENDSEC
  0
SECTION
  2
OBJECTS
  0
DICTIONARY
  5
C
100
AcDbDictionary
280
0
281
1
  3
ACAD_GROUP
350
D
  3
ACAD_MLINESTYLE
350
17
  3
ACAD_LAYOUT
350
1A
  3
ACAD_PLOTSETTINGS
350
19
  3
ACAD_PLOTSTYLENAME
350
E
  0
DICTIONARY
  5
D
102
{ACAD_REACTORS
330
C
102
}
100
AcDbDictionary
280
0
281
1
  0
ACDBDICTIONARYWDFLT
  5
E
102
{ACAD_REACTORS
330
C
102
}
100
AcDbDictionary
281
1
  3
Normal
350
F
100
AcDbDictionaryWithDefault
340
F
  0
DICTIONARY
  5
17
102
{ACAD_REACTORS
330
C
102
}
100
AcDbDictionary
280
0
281
1
  3
Standard
350
18
  0
DICTIONARY
  5
19
102
{ACAD_REACTORS
330
C
102
}
100
AcDbDictionary
281
1
  0
DICTIONARY
  5
1A
102
{ACAD_REACTORS
330
C
102
}
100
AcDbDictionary
281
1
  3
Model
350
73B
  3
Layout1
350
73C
  0
ACDBPLACEHOLDER
  5
F
102
{ACAD_REACTORS
330
E
102
}
  0
MLINESTYLE
  5
18
102
{ACAD_REACTORS
330
17
102
}
100
AcDbMlineStyle
  2
STANDARD
 70
0
  3

 62
256
 51
90.0
 52
90.0
 71
2
 49
0.5
 62
256
  6
BYLAYER
 49
-0.5
 62
256
  6
BYLAYER
  0
LAYOUT
  5
73B
102
{ACAD_REACTORS
330
1A
102
}
100
AcDbPlotSettings
  1

  2
none_device
  4
ISO_A4_(297.00_x_210.00_MM)
  6

 40
0.0
 41
0.0
 42
0.0
 43
0.0
 44
297.0
 45
210.0
 46
0.0
 47
0.0
 48
0.0
 49
0.0
140
0.0
141
0.0
142
1.0
143
1.0
 70
1024
 72
1
 73
0
 74
0
  7

 75
0
147
1.0
148
0.0
149
0.0
100
AcDbLayout
  1
Model
 70
0
 71
0
 10
0.0
 20
0.0
 11
297.0
 21
210.0
 12
0.0
 22
0.0
 32
0.0
 14
0.0
 24
0.0
 34
0.0
 15
0.0
 25
0.0
 35
0.0
146
0.0
 13
0.0
 23
0.0
 33
0.0
 16
1.0
 26
0.0
 36
0.0
 17
0.0
 27
1.0
 37
0.0
 76
0
330
217
345
0
346
0
  0
LAYOUT
  5
73C
102
{ACAD_REACTORS
330
1A
102
}
100
AcDbPlotSettings
  1

  2
none_device
  4
ISO_A4_(297.00_x_210.00_MM)
  6

 40
0.0
 41
0.0
 42
0.0
 43
0.0
 44
297.0
 45
210.0
 46
0.0
 47
0.0
 48
0.0
 49
0.0
140
0.0
141
0.0
142
1.0
143
1.0
 70
0
 72
1
 73
0
 74
0
  7

 75
0
147
1.0
148
0.0
149
0.0
100
AcDbLayout
  1
Layout1
 70
0
 71
1
 10
0.0
 20
0.0
 11
297.0
 21
210.0
 12
0.0
 22
0.0
 32
0.0
 14
0.0
 24
0.0
 34
0.0
 15
0.0
 25
0.0
 35
0.0
146
0.0
 13
0.0
 23
0.0
 33
0.0
 16
1.0
 26
0.0
 36
0.0
 17
0.0
 27
1.0
 37
0.0
 76
0
330
218
345
0
346
0
  0
ENDSEC
  0
EOF
