  0
SECTION
  2
HEADER
  9
$ACADVER
  1
AC1024
  9
$DWGCODEPAGE
  3
ANSI_1252
  9
$EXTMAX
 10
297.0
 20
210.0
 30
0.0
  9
$EXTMIN
 10
0.0
 20
0.0
 30
0.0
  9
$LIMMIN
 10
0.0
 20
0.0
  9
$LIMMAX
 10
297.0
 20
210.0
  9
$VIEWCTR
 10
148.5
 20
105.0
  9
$VIEWSIZE
 40
210.0
  9
$CLAYER
  8
0
  9
$LTSCALE
 40
16.335
  9
$CELTYPE
  6
BYLAYER
  9
$DIMSCALE
 40
1.0
  9
$DIMASZ
 40
3.0
  9
$DIMEXO
 40
0.5
  9
$DIMDLI
 40
11.286
  9
$DIMEXE
 40
1.5
  9
$DIMCEN
 40
2.673
  9
$DIMLFAC
 40
1.0
  9
$DIMBLK
  1
_FILLED
  9
$DIMALT
 70
0
  9
$DIMALTF
 40
0.0393700787
  9
$DIMTXT
 40
3.0
  9
$DIMTOL
 70
1
  9
$DIMLIM
 70
0
  9
$DIMTFAC
 40
1.0
  9
$DIMTP
 40
0.01
  9
$DIMTM
 40
0.01
  9
$DIMGAP
 40
0.625
  9
$DIMDSEP
 70
44
  9
$AUNITS
 70
0
  9
$PDMODE
 70
3
  9
$PDSIZE
 40
3.0
  9
$HANDSEED
  5
4A3
  9
$TILEMODE
 70
1
  9
$MEASUREMENT
 70
1
  9
$INSUNITS
 70
4
  0
ENDSEC
  0
SECTION
  2
CLASSES
  0
CLASS
  1
ACDBDICTIONARYWDFLT
  2
AcDbDictionaryWithDefault
  3
AutoCAD 2000
 90
0
 91
1
280
0
281
0
  0
CLASS
  1
ACDBPLACEHOLDER
  2
AcDbPlaceHolder
  3
AutoCAD 2000
 90
0
 91
1
280
0
281
0
  0
CLASS
  1
LAYOUT
  2
AcDbLayout
  3
AutoCAD 2000
 90
0
 91
0
280
0
281
0
  0
ENDSEC
  0
SECTION
  2
TABLES
  0
TABLE
  2
VPORT
  5
8
100
AcDbSymbolTable
 70
2
  0
VPORT
  5
1F4
100
AcDbSymbolTableRecord
100
AcDbViewportTableRecord
  2
*ACTIVE
 70
0
 10
0.0
 20
0.0
 11
1.0
 21
1.0
 12
148.5
 22
105.0
 13
0.0
 23
0.0
 14
1.0
 24
1.0
 15
0.0
 25
0.0
 16
0.0
 26
0.0
 36
1.0
 17
0.0
 27
0.0
 37
0.0
 40
210.0
 41
1.4142857143
 42
50.0
 43
0.0
 44
0.0
 50
0.0
 51
0.0
 71
0
 72
100
 73
1
 74
1
 75
0
 76
0
 77
0
 78
0
  0
ENDTAB
  0
TABLE
  2
LTYPE
  5
5
100
AcDbSymbolTable
 70
6
  0
LTYPE
  5
14
100
AcDbSymbolTableRecord
100
AcDbLinetypeTableRecord
  2
BYBLOCK
 70
0
  3

 72
65
 73
0
 40
0.0
  0
LTYPE
  5
15
100
AcDbSymbolTableRecord
100
AcDbLinetypeTableRecord
  2
BYLAYER
 70
0
  3

 72
65
 73
0
 40
0.0
  0
LTYPE
  5
16
100
AcDbSymbolTableRecord
100
AcDbLinetypeTableRecord
  2
CONTINUOUS
 70
64
  3
Solid line
 72
65
 73
0
 40
0.0
  0
LTYPE
  5
1F5
100
AcDbSymbolTableRecord
100
AcDbLinetypeTableRecord
  2
CENTER
 70
64
  3
____ _ ____ _ ____ _ ____ _ ____ _ ____ _ ____
 72
65
 73
4
 40
0.6
 49
0.375
 74
0
 49
-0.075
 74
0
 49
0.075
 74
0
 49
-0.075
 74
0
  0
LTYPE
  5
1F6
100
AcDbSymbolTableRecord
100
AcDbLinetypeTableRecord
  2
HIDDEN
 70
64
  3
- - - - - - - - - - - - - - - - - - - -
 72
65
 73
2
 40
0.2
 49
0.1
 74
0
 49
-0.1
 74
0
  0
LTYPE
  5
1F7
100
AcDbSymbolTableRecord
100
AcDbLinetypeTableRecord
  2
PHANTOM
 70
64
  3
_____ _ _ _____ _ _ _____ _ _ _____
 72
65
 73
6
 40
0.8
 49
0.45
 74
0
 49
-0.05
 74
0
 49
0.1
 74
0
 49
-0.05
 74
0
 49
0.1
 74
0
 49
-0.05
 74
0
  0
LTYPE
  5
1F8
100
AcDbSymbolTableRecord
100
AcDbLinetypeTableRecord
  2
DOT
 70
64
  3
. . . . . . . . . . . . . . . . . . . .
 72
65
 73
2
 40
0.2
 49
0.1
 74
0
 49
-0.1
 74
0
  0
LTYPE
  5
1F9
100
AcDbSymbolTableRecord
100
AcDbLinetypeTableRecord
  2
DASHED
 70
64
  3
- - - - - - - - - - - - - - - - - - - -
 72
65
 73
2
 40
0.2
 49
0.1
 74
0
 49
-0.1
 74
0
  0
ENDTAB
  0
TABLE
  2
LAYER
  5
2
100
AcDbSymbolTable
 70
36
  0
LAYER
  5
10
100
AcDbSymbolTableRecord
100
AcDbLayerTableRecord
  2
0
 70
0
 62
7
  6
CONTINUOUS
370
-3
390
F
  0
LAYER
  5
1FA
100
AcDbSymbolTableRecord
100
AcDbLayerTableRecord
  2
DEFAULT_1
 70
0
 62
7
  6
CENTER
370
-3
390
F
  0
LAYER
  5
1FB
100
AcDbSymbolTableRecord
100
AcDbLayerTableRecord
  2
DEFAULT_2
 70
0
 62
7
  6
HIDDEN
370
-3
390
F
  0
LAYER
  5
1FC
100
AcDbSymbolTableRecord
100
AcDbLayerTableRecord
  2
DEFAULT_3
 70
0
 62
7
  6
PHANTOM
370
-3
390
F
  0
LAYER
  5
1FD
100
AcDbSymbolTableRecord
100
AcDbLayerTableRecord
  2
ASSI
 70
0
 62
7
  6
CONTINUOUS
370
-3
390
F
  0
LAYER
  5
1FE
100
AcDbSymbolTableRecord
100
AcDbLayerTableRecord
  2
COORDINATE
 70
0
 62
7
  6
CONTINUOUS
370
-3
390
F
  0
LAYER
  5
1FF
100
AcDbSymbolTableRecord
100
AcDbLayerTableRecord
  2
COORD_ORIGINE
 70
0
 62
7
  6
CONTINUOUS
370
-3
390
F
  0
LAYER
  5
200
100
AcDbSymbolTableRecord
100
AcDbLayerTableRecord
  2
CURVE
 70
0
 62
7
  6
CONTINUOUS
370
-3
390
F
  0
LAYER
  5
201
100
AcDbSymbolTableRecord
100
AcDbLayerTableRecord
  2
DRAFT
 70
0
 62
7
  6
CONTINUOUS
370
-3
390
F
  0
LAYER
  5
202
100
AcDbSymbolTableRecord
100
AcDbLayerTableRecord
  2
MARCHI_SOTTO
 70
0
 62
7
  6
CONTINUOUS
370
-3
390
F
  0
LAYER
  5
203
100
AcDbSymbolTableRecord
100
AcDbLayerTableRecord
  2
NOTE
 70
0
 62
7
  6
CONTINUOUS
370
-3
390
F
  0
LAYER
  5
204
100
AcDbSymbolTableRecord
100
AcDbLayerTableRecord
  2
PIANI
 70
0
 62
7
  6
CONTINUOUS
370
-3
390
F
  0
LAYER
  5
205
100
AcDbSymbolTableRecord
100
AcDbLayerTableRecord
  2
PIANI_ORIGINE
 70
0
 62
7
  6
CONTINUOUS
370
-3
390
F
  0
LAYER
  5
206
100
AcDbSymbolTableRecord
100
AcDbLayerTableRecord
  2
PUNTI
 70
0
 62
7
  6
CONTINUOUS
370
-3
390
F
  0
LAYER
  5
207
100
AcDbSymbolTableRecord
100
AcDbLayerTableRecord
  2
RACCORDO
 70
0
 62
7
  6
CONTINUOUS
370
-3
390
F
  0
LAYER
  5
208
100
AcDbSymbolTableRecord
100
AcDbLayerTableRecord
  2
SCRITTA_VIMAR
 70
0
 62
7
  6
CONTINUOUS
370
-3
390
F
  0
LAYER
  5
209
100
AcDbSymbolTableRecord
100
AcDbLayerTableRecord
  2
SNAPLINE
 70
0
 62
7
  6
CONTINUOUS
370
-3
390
F
  0
LAYER
  5
20A
100
AcDbSymbolTableRecord
100
AcDbLayerTableRecord
  2
SUPERFICI
 70
0
 62
7
  6
CONTINUOUS
370
-3
390
F
  0
LAYER
  5
20B
100
AcDbSymbolTableRecord
100
AcDbLayerTableRecord
  2
TRASH
 70
0
 62
7
  6
CONTINUOUS
370
-3
390
F
  0
LAYER
  5
20C
100
AcDbSymbolTableRecord
100
AcDbLayerTableRecord
  2
XSEC_DATUMS
 70
0
 62
7
  6
CONTINUOUS
370
-3
390
F
  0
ENDTAB
  0
TABLE
  2
STYLE
  5
3
100
AcDbSymbolTable
 70
1
  0
STYLE
  5
11
100
AcDbSymbolTableRecord
100
AcDbTextStyleTableRecord
  2
STANDARD
 70
0
 40
0.0
 41
0.8
 50
0.0
 71
0
 42
0.2
  3
txt
  4

  0
STYLE
  5
20D
100
AcDbSymbolTableRecord
100
AcDbTextStyleTableRecord
  2
TEXTSTYLE_1
 70
0
 40
0.0
 41
0.8
 50
0.0
 71
0
 42
0.2
  3
gdt
  4

  0
ENDTAB
  0
TABLE
  2
VIEW
  5
6
100
AcDbSymbolTable
 70
0
  0
ENDTAB
  0
TABLE
  2
UCS
  5
7
100
AcDbSymbolTable
 70
0
  0
ENDTAB
  0
TABLE
  2
APPID
  5
9
100
AcDbSymbolTable
 70
1
  0
APPID
  5
20E
100
AcDbSymbolTableRecord
100
AcDbRegAppTableRecord
  2
ACAD
 70
0
  0
ENDTAB
  0
TABLE
  2
BLOCK_RECORD
  5
1
100
AcDbSymbolTable
 70
0
  0
BLOCK_RECORD
  5
20F
100
AcDbSymbolTableRecord
100
AcDbBlockTableRecord
  2
*Model_Space
  0
BLOCK_RECORD
  5
210
100
AcDbSymbolTableRecord
100
AcDbBlockTableRecord
  2
*Paper_Space
  0
BLOCK_RECORD
  5
211
100
AcDbSymbolTableRecord
100
AcDbBlockTableRecord
  2
_FILLED
  0
BLOCK_RECORD
  5
212
100
AcDbSymbolTableRecord
100
AcDbBlockTableRecord
  2
*D0
  0
BLOCK_RECORD
  5
213
100
AcDbSymbolTableRecord
100
AcDbBlockTableRecord
  2
*D1
  0
BLOCK_RECORD
  5
214
100
AcDbSymbolTableRecord
100
AcDbBlockTableRecord
  2
*D2
  0
ENDTAB
  0
TABLE
  2
DIMSTYLE
  5
A
100
AcDbSymbolTable
 70
1
100
AcDbDimStyleTable
 71
0
  0
DIMSTYLE
105
215
100
AcDbSymbolTableRecord
100
AcDbDimStyleTableRecord
  2
STANDARD
 70
0
  3

  4

 40
1.0
 41
3.0
 42
0.5
 43
0.38
 44
1.5
 45
0.0
 46
0.0
 47
0.01
 48
0.01
140
3.0
141
0.09
142
0.0
143
25.4
144
1.0
145
0.0
146
1.0
147
0.625
 71
1
 72
0
 73
0
 74
0
 75
0
 76
0
 77
1
 78
8
 79
2
170
0
171
1
172
0
173
0
174
0
175
0
176
0
177
0
178
0
270
2
179
2
271
2
272
2
273
2
274
2
275
0
280
0
281
0
282
0
283
1
284
8
285
0
286
0
287
3
288
0
340
11
278
44
341
211
342
211
343
211
344
211
  0
DIMSTYLE
105
216
100
AcDbSymbolTableRecord
100
AcDbDimStyleTableRecord
  2
DIMSTYLE_1
 70
0
  3

  4

 40
1.0
 41
3.0
 42
0.5
 43
0.38
 44
1.5
 45
0.0
 46
0.0
 47
0.0
 48
0.0
140
3.0
141
0.09
142
0.0
143
25.4
144
1.0
145
0.0
146
1.0
147
0.75
 71
0
 72
0
 73
0
 74
0
 75
0
 76
0
 77
1
 78
8
 79
2
170
0
171
1
172
0
173
0
174
0
175
0
176
0
177
0
178
0
270
2
179
2
271
2
272
2
273
2
274
2
275
0
280
0
281
0
282
0
283
1
284
8
285
0
286
0
287
3
288
0
340
11
278
44
341
211
342
211
343
211
344
211
  0
ENDTAB
  0
ENDSEC
  0
SECTION
  2
BLOCKS
  0
BLOCK
  5
20
100
AcDbEntity
  8
0
100
AcDbBlockBegin
  2
*Model_Space
 70
0
 10
0.0
 20
0.0
 30
0.0
  3
*Model_Space
  1

  0
ENDBLK
  5
21
100
AcDbEntity
  8
0
100
AcDbBlockEnd
  0
BLOCK
  5
1C
100
AcDbEntity
  8
0
100
AcDbBlockBegin
  2
*Paper_Space
 70
0
 10
0.0
 20
0.0
 30
0.0
  3
*Paper_Space
  1

  0
ENDBLK
  5
1D
100
AcDbEntity
  8
0
100
AcDbBlockEnd
  0
BLOCK
  5
217
100
AcDbEntity
  8
0
100
AcDbBlockBegin
  2
_FILLED
 70
64
 10
0.0
 20
0.0
  3
_FILLED
  1

  0
SOLID
  5
218
100
AcDbEntity
  8
0
  6
BYBLOCK
 62
0
100
AcDbTrace
 10
0.0
 20
0.0
 11
-1.0
 21
0.3166666667
 12
-1.0
 22
-0.3166666667
 13
-1.0
 23
-0.3166666667
  0
ENDBLK
  5
219
100
AcDbEntity
  8
0
  6
BYBLOCK
 62
0
100
AcDbBlockEnd
  0
BLOCK
  5
21A
100
AcDbEntity
  8
0
100
AcDbBlockBegin
 62
7
  6
CONTINUOUS
  2
*D0
 70
65
 10
0.0
 20
0.0
  3
*D0
  1

  0
LINE
  5
21B
100
AcDbEntity
  8
0
100
AcDbLine
 62
7
  6
CONTINUOUS
 10
-40.0
 20
37.5041113957
 11
-40.0
 21
49.5
  0
LINE
  5
21C
100
AcDbEntity
  8
0
100
AcDbLine
 62
7
  6
CONTINUOUS
 10
40.0
 20
37.5041113957
 11
40.0
 21
49.5
  0
LINE
  5
21D
100
AcDbEntity
  8
0
100
AcDbLine
 62
7
  6
CONTINUOUS
 10
-40.0
 20
48.0
 11
0.0
 21
48.0
  0
LINE
  5
21E
100
AcDbEntity
  8
0
100
AcDbLine
 62
7
  6
CONTINUOUS
 10
40.0
 20
48.0
 11
0.0
 21
48.0
  0
INSERT
  5
21F
100
AcDbEntity
  8
0
100
AcDbBlockReference
 62
7
  6
CONTINUOUS
  2
_FILLED
 10
-40.0
 20
48.0
 41
3.0
 42
3.0
 43
3.0
 50
180.0
  0
INSERT
  5
220
100
AcDbEntity
  8
0
100
AcDbBlockReference
 62
7
  6
CONTINUOUS
  2
_FILLED
 10
40.0
 20
48.0
 41
3.0
 42
3.0
 43
3.0
  0
ENDBLK
  5
221
100
AcDbEntity
  8
0
  6
BYBLOCK
 62
0
100
AcDbBlockEnd
  0
BLOCK
  5
222
100
AcDbEntity
  8
0
100
AcDbBlockBegin
 62
7
  6
CONTINUOUS
  2
*D1
 70
65
 10
0.0
 20
0.0
  3
*D1
  1

  0
LINE
  5
223
100
AcDbEntity
  8
0
100
AcDbLine
 62
7
  6
CONTINUOUS
 10
-62.0377523643
 20
22.8
 11
-62.0377523643
 21
49.5
  0
LINE
  5
224
100
AcDbEntity
  8
0
100
AcDbLine
 62
7
  6
CONTINUOUS
 10
-52.5377523643
 20
40.5
 11
-52.5377523643
 21
49.5
  0
LINE
  5
225
100
AcDbEntity
  8
0
100
AcDbLine
 62
7
  6
CONTINUOUS
 10
-62.0377523643
 20
48.0
 11
-66.0377523643
 21
48.0
  0
LINE
  5
226
100
AcDbEntity
  8
0
100
AcDbLine
 62
7
  6
CONTINUOUS
 10
-66.0377523643
 20
48.0
 11
-57.2877523643
 21
48.0
  0
LINE
  5
227
100
AcDbEntity
  8
0
100
AcDbLine
 62
7
  6
CONTINUOUS
 10
-52.5377523643
 20
48.0
 11
-48.5377523643
 21
48.0
  0
LINE
  5
228
100
AcDbEntity
  8
0
100
AcDbLine
 62
7
  6
CONTINUOUS
 10
-48.5377523643
 20
48.0
 11
-57.2877523643
 21
48.0
  0
INSERT
  5
229
100
AcDbEntity
  8
0
100
AcDbBlockReference
 62
7
  6
CONTINUOUS
  2
_FILLED
 10
-62.0377523643
 20
48.0
 41
3.0
 42
3.0
 43
3.0
  0
INSERT
  5
22A
100
AcDbEntity
  8
0
100
AcDbBlockReference
 62
7
  6
CONTINUOUS
  2
_FILLED
 10
-52.5377523643
 20
48.0
 41
3.0
 42
3.0
 43
3.0
 50
180.0
  0
ENDBLK
  5
22B
100
AcDbEntity
  8
0
  6
BYBLOCK
 62
0
100
AcDbBlockEnd
  0
BLOCK
  5
22C
100
AcDbEntity
  8
0
100
AcDbBlockBegin
 62
7
  6
CONTINUOUS
  2
*D2
 70
65
 10
0.0
 20
0.0
  3
*D2
  1

  0
LINE
  5
22D
100
AcDbEntity
  8
0
100
AcDbLine
 62
7
  6
CONTINUOUS
 10
-53.0377523643
 20
40.0
 11
-71.5377523643
 21
40.0
  0
LINE
  5
22E
100
AcDbEntity
  8
0
100
AcDbLine
 62
7
  6
CONTINUOUS
 10
-53.0377523643
 20
-40.0
 11
-71.5377523643
 21
-40.0
  0
LINE
  5
22F
100
AcDbEntity
  8
0
100
AcDbLine
 62
7
  6
CONTINUOUS
 10
-70.0377523643
 20
40.0
 11
-70.0377523643
 21
0.0
  0
LINE
  5
230
100
AcDbEntity
  8
0
100
AcDbLine
 62
7
  6
CONTINUOUS
 10
-70.0377523643
 20
-40.0
 11
-70.0377523643
 21
0.0
  0
INSERT
  5
231
100
AcDbEntity
  8
0
100
AcDbBlockReference
 62
7
  6
CONTINUOUS
  2
_FILLED
 10
-70.0377523643
 20
40.0
 41
3.0
 42
3.0
 43
3.0
 50
90.0
  0
INSERT
  5
232
100
AcDbEntity
  8
0
100
AcDbBlockReference
 62
7
  6
CONTINUOUS
  2
_FILLED
 10
-70.0377523643
 20
-40.0
 41
3.0
 42
3.0
 43
3.0
 50
270.0
  0
ENDBLK
  5
233
100
AcDbEntity
  8
0
  6
BYBLOCK
 62
0
100
AcDbBlockEnd
  0
ENDSEC
  0
SECTION
  2
ENTITIES
  0
DIMENSION
  5
234
100
AcDbEntity
  8
0
100
AcDbDimension
 62
7
  6
CONTINUOUS
  2
*D0
 10
40.0
 20
48.0
 11
-2.3571428571
 21
48.0
 70
160
 71
2
 72
2
 41
0.9
 42
80.0
  3
DIMSTYLE_1
100
AcDbAlignedDimension
 13
-40.0
 23
37.0041113957
 14
40.0
 24
37.0041113957
100
AcDbRotatedDimension
  0
DIMENSION
  5
235
100
AcDbEntity
  8
0
100
AcDbDimension
 62
7
  6
CONTINUOUS
  2
*D1
 10
-52.5377523643
 20
48.0
 11
-60.3948952215
 21
48.0
 70
160
 71
2
 72
2
 41
0.9
 42
9.5
  3
DIMSTYLE_1
100
AcDbAlignedDimension
 13
-62.0377523643
 23
22.3
 14
-52.5377523643
 24
40.0
100
AcDbRotatedDimension
  0
DIMENSION
  5
236
100
AcDbEntity
  8
0
100
AcDbDimension
 62
7
  6
CONTINUOUS
  2
*D2
 10
-70.0377523643
 20
-40.0
 11
-70.0377523643
 21
-2.3571428571
 70
160
 71
2
 72
2
 41
0.9
 42
80.0
  3
DIMSTYLE_1
100
AcDbAlignedDimension
 13
-52.5377523643
 23
40.0
 14
-52.5377523643
 24
-40.0
 50
270.0
100
AcDbRotatedDimension
  0
LWPOLYLINE
  5
237
100
AcDbEntity
  8
RACCORDO
100
AcDbPolyline
 62
250
  6
CONTINUOUS
 90
13
 70
0
 10
-39.7412054455
 20
36.7453543547
 10
-39.7287312909
 20
36.7508985372
 10
-39.7033923106
 20
36.7563704114
 10
-39.665519066
 20
36.7616985935
 10
-39.6156056348
 20
36.7668135745
 10
-39.554303166
 20
36.7716486265
 10
-39.4824113848
 20
36.776140673
 10
-39.4008681601
 20
36.7802311128
 10
-39.3107372694
 20
36.783866584
 10
-39.2131945208
 20
36.7869996599
 10
-39.1095124147
 20
36.7895894678
 10
-39.0010435426
 20
36.7916022226
 10
-38.8892029421
 20
36.7930116668
  0
LWPOLYLINE
  5
238
100
AcDbEntity
  8
RACCORDO
100
AcDbPolyline
 62
250
  6
CONTINUOUS
 90
13
 70
0
 10
-39.7412429667
 20
-36.7453543625
 10
-39.7287679399
 20
-36.750898719
 10
-39.7034275003
 20
-36.7563707465
 10
-39.6655522403
 20
-36.7616990582
 10
-39.6156362822
 20
-36.7668141424
 10
-39.5543308317
 20
-36.7716492688
 10
-39.4824356821
 20
-36.7761413594
 10
-39.4008887807
 20
-36.7802318114
 10
-39.3107539918
 20
-36.7838672622
 10
-39.2132072174
 20
-36.7870002852
 10
-39.1095210569
 20
-36.7895900081
 10
-39.0010482042
 20
-36.791602647
 10
-38.8892038008
 20
-36.7930119462
  0
LWPOLYLINE
  5
239
100
AcDbEntity
  8
RACCORDO
100
AcDbPolyline
 62
250
  6
CONTINUOUS
 90
11
 70
0
 10
-36.7464187043
 20
39.7423073086
 10
-36.7498597985
 20
39.7297827406
 10
-36.7532558369
 20
39.7043325577
 10
-36.7565623321
 20
39.6662903545
 10
-36.7597359706
 20
39.6161547789
 10
-36.7627351796
 20
39.5545829954
 10
-36.7655206724
 20
39.4823820716
 10
-36.7680559634
 20
39.4004983991
 10
-36.7703078467
 20
39.3100052886
 10
-36.7722468312
 20
39.2120889013
 10
-36.7750889772
 20
38.9992006291
  0
LWPOLYLINE
  5
23A
100
AcDbEntity
  8
RACCORDO
100
AcDbPolyline
 62
250
  6
CONTINUOUS
 90
10
 70
0
 10
-36.7464186976
 20
-39.7422720652
 10
-36.749860647
 20
-39.7297481534
 10
-36.7532574739
 20
-39.7042992095
 10
-36.756564656
 20
-39.6662587997
 10
-36.7597388471
 20
-39.6161255301
 10
-36.7627384449
 20
-39.5545565107
 10
-36.7655241369
 20
-39.4823587435
 10
-36.7680594161
 20
-39.4004785439
 10
-36.7703110595
 20
-39.3099891378
 10
-36.7722495631
 20
-39.2120765942
  0
LWPOLYLINE
  5
23B
100
AcDbEntity
  8
RACCORDO
100
AcDbPolyline
 62
250
  6
CONTINUOUS
 90
7
 70
0
 10
-38.9245628103
 20
-36.0964932778
 10
-38.9280986203
 20
-36.0413332838
 10
-38.9313014751
 20
-35.9873524225
 10
-38.9341767375
 20
-35.9347710252
 10
-38.9363033052
 20
-35.8829257905
 10
-38.9372588639
 20
-35.8315887903
 10
-38.9377566459
 20
-35.7287335768
  0
LWPOLYLINE
  5
23C
100
AcDbEntity
  8
RACCORDO
100
AcDbPolyline
 62
250
  6
CONTINUOUS
 90
3
 70
0
 10
-38.913466372
 20
-36.2682506001
 10
-38.9169513604
 20
-36.2096953793
 10
-38.9245628103
 20
-36.0964932778
  0
LWPOLYLINE
  5
23D
100
AcDbEntity
  8
RACCORDO
100
AcDbPolyline
 62
250
  6
CONTINUOUS
 90
22
 70
0
 10
-39.7412429667
 20
36.7453543625
 10
-39.7330794075
 20
36.9689010579
 10
-39.7082809994
 20
37.1912536184
 10
-39.6669634211
 20
37.4111801195
 10
-39.6093523575
 20
37.6273919521
 10
-39.5357372702
 20
37.8387537127
 10
-39.4464223725
 20
38.0442733491
 10
-39.3417098758
 20
38.2430110424
 10
-39.2222217485
 20
38.4335724808
 10
-39.0889447865
 20
38.6143860708
 10
-38.9429081363
 20
38.7842273889
 10
-38.7847818318
 20
38.9424709894
 10
-38.6151612291
 20
39.0885460516
 10
-38.4347947662
 20
39.2217350047
 10
-38.2448254306
 20
39.3411226179
 10
-38.0464917282
 20
39.4459200277
 10
-37.8409609789
 20
39.5355342864
 10
-37.6293363464
 20
39.6095055614
 10
-37.4128464337
 20
39.6674225007
 10
-37.1927174085
 20
39.7089826798
 10
-36.9701623249
 20
39.733982926
 10
-36.7464187043
 20
39.7423073086
  0
LWPOLYLINE
  5
23E
100
AcDbEntity
  8
RACCORDO
100
AcDbPolyline
 62
250
  6
CONTINUOUS
 90
4
 70
0
 10
-38.9168449035
 20
36.2114422041
 10
-38.9133853507
 20
36.2696503095
 10
-38.9100370969
 20
36.3291803453
 10
-38.9036372296
 20
36.4539613641
  0
LWPOLYLINE
  5
23F
100
AcDbEntity
  8
RACCORDO
100
AcDbPolyline
 62
250
  6
CONTINUOUS
 90
3
 70
0
 10
-38.9311351306
 20
35.9905116883
 10
-38.9243815973
 20
36.0989339247
 10
-38.9168449035
 20
36.2114422041
  0
LWPOLYLINE
  5
240
100
AcDbEntity
  8
RACCORDO
100
AcDbPolyline
 62
250
  6
CONTINUOUS
 90
22
 70
0
 10
-38.8892029421
 20
36.7930116668
 10
-38.8777656768
 20
36.9467088782
 10
-38.8552612868
 20
37.099684168
 10
-38.8217969007
 20
37.2509624248
 10
-38.7775682229
 20
37.3996554223
 10
-38.7227958111
 20
37.5450408506
 10
-38.6576515035
 20
37.6864688491
 10
-38.5823218353
 20
37.823333003
 10
-38.4972481264
 20
37.9547259806
 10
-38.4030684851
 20
38.0795842534
 10
-38.3004364449
 20
38.1970779568
 10
-38.1897999452
 20
38.3068428272
 10
-38.0715169343
 20
38.4085272378
 10
-37.9460343465
 20
38.5016455703
 10
-37.8141277778
 20
38.5856280527
 10
-37.6766239546
 20
38.6599751701
 10
-37.534272816
 20
38.7242719591
 10
-37.3877719896
 20
38.7782487549
 10
-37.2378907687
 20
38.8216839235
 10
-37.0853822005
 20
38.8543731667
 10
-36.9310797314
 20
38.8761758331
 10
-36.7759547799
 20
38.8870184789
  0
LWPOLYLINE
  5
241
100
AcDbEntity
  8
RACCORDO
100
AcDbPolyline
 62
250
  6
CONTINUOUS
 90
22
 70
0
 10
-36.7464187043
 20
-39.7423073086
 10
-36.9701596623
 20
-39.733983115
 10
-37.1927148453
 20
-39.7089830435
 10
-37.4128466616
 20
-39.6674224158
 10
-37.6293404543
 20
-39.6095042634
 10
-37.8409713253
 20
-39.5355302053
 10
-38.0465144451
 20
-39.4459090687
 10
-38.2448727237
 20
-39.3410952777
 10
-38.4348701964
 20
-39.2216835238
 10
-38.6152517394
 20
-39.0884738171
 10
-38.7848699939
 20
-38.9423891355
 10
-38.9429846864
 20
-38.7841448304
 10
-39.0890048735
 20
-38.6143106692
 10
-39.222260386
 20
-38.4335157795
 10
-39.3417260578
 20
-38.2429830318
 10
-39.4464227875
 20
-38.0442725739
 10
-39.5357287001
 20
-37.8387757302
 10
-39.609339662
 20
-37.6274333893
 10
-39.6669520253
 20
-37.4112303506
 10
-39.7082741938
 20
-37.1912989928
 10
-39.7330772662
 20
-36.9689296902
 10
-39.7412429667
 20
-36.7453543625
  0
LWPOLYLINE
  5
242
100
AcDbEntity
  8
RACCORDO
100
AcDbPolyline
 62
250
  6
CONTINUOUS
 90
22
 70
0
 10
-36.7759547404
 20
-38.8870183014
 10
-36.9310888531
 20
-38.8761764496
 10
-37.0853944078
 20
-38.8543725817
 10
-37.2378983137
 20
-38.8216813798
 10
-37.387777342
 20
-38.7782474092
 10
-37.5342801338
 20
-38.7242700713
 10
-37.6766396369
 20
-38.6599656072
 10
-37.814162556
 20
-38.5856067371
 10
-37.9460906486
 20
-38.5016085696
 10
-38.0715827285
 20
-38.4084744767
 10
-38.1898636329
 20
-38.3067829232
 10
-38.3004930858
 20
-38.1970188895
 10
-38.4031130137
 20
-38.079529665
 10
-38.4972764659
 20
-37.9546827212
 10
-38.5823358578
 20
-37.8233106885
 10
-38.6576545577
 20
-37.6864667814
 10
-38.7227898803
 20
-37.5450546214
 10
-38.7775595554
 20
-37.3996819511
 10
-38.8217896548
 20
-37.2509918246
 10
-38.8552555333
 20
-37.0997037719
 10
-38.8777633086
 20
-36.946718152
 10
-38.8892030235
 20
-36.7930116933
  0
LINE
  5
243
100
AcDbEntity
  8
RACCORDO
100
AcDbLine
 62
250
  6
CONTINUOUS
 10
-38.9068249316
 20
-36.3897763209
 11
-38.913466372
 21
-36.2682506001
  0
LINE
  5
244
100
AcDbEntity
  8
RACCORDO
100
AcDbLine
 62
250
  6
CONTINUOUS
 10
-38.9005929575
 20
-36.5190760855
 11
-38.9068249316
 21
-36.3897763209
  0
LWPOLYLINE
  5
245
100
AcDbEntity
  8
RACCORDO
100
AcDbPolyline
 62
250
  6
CONTINUOUS
 90
3
 70
0
 10
-38.8892038008
 20
-36.7930119462
 10
-38.8919192171
 20
-36.7227135004
 10
-38.9005929575
 20
-36.5190760855
  0
LINE
  5
246
100
AcDbEntity
  8
RACCORDO
100
AcDbLine
 62
250
  6
CONTINUOUS
 10
-38.944411237
 20
-35.2702716732
 11
-38.977311958
 21
-32.9744891803
  0
LINE
  5
247
100
AcDbEntity
  8
RACCORDO
100
AcDbLine
 62
250
  6
CONTINUOUS
 10
-38.977311958
 20
-32.9744891803
 11
-38.9844073563
 21
-32.4581321086
  0
LINE
  5
248
100
AcDbEntity
  8
RACCORDO
100
AcDbLine
 62
250
  6
CONTINUOUS
 10
-38.9377566459
 20
-35.7287335768
 11
-38.944411237
 21
-35.2702716732
  0
LINE
  5
249
100
AcDbEntity
  8
RACCORDO
100
AcDbLine
 62
250
  6
CONTINUOUS
 10
-38.9844073563
 20
-32.4581321086
 11
-38.9956845224
 21
-31.5809112783
  0
LWPOLYLINE
  5
24A
100
AcDbEntity
  8
RACCORDO
100
AcDbPolyline
 62
250
  6
CONTINUOUS
 90
3
 70
0
 10
-36.7722495631
 20
-39.2120765942
 10
-36.7750900034
 20
-38.9991960346
 10
-36.7759547404
 20
-38.8870183014
  0
LINE
  5
24B
100
AcDbEntity
  8
RACCORDO
100
AcDbLine
 62
250
  6
CONTINUOUS
 10
-38.9956845224
 20
-31.5809112783
 11
-39.0052466489
 21
-30.7382263801
  0
LINE
  5
24C
100
AcDbEntity
  8
RACCORDO
100
AcDbLine
 62
250
  6
CONTINUOUS
 10
-39.0052466489
 20
-30.7382263801
 11
-39.0127030335
 21
-29.9802145836
  0
LINE
  5
24D
100
AcDbEntity
  8
RACCORDO
100
AcDbLine
 62
250
  6
CONTINUOUS
 10
-39.0127030335
 20
-29.9802145836
 11
-39.019668605
 21
-29.1399729605
  0
LINE
  5
24E
100
AcDbEntity
  8
RACCORDO
100
AcDbLine
 62
250
  6
CONTINUOUS
 10
-39.019668605
 20
-29.1399729605
 11
-39.024392518
 21
-28.4506239658
  0
LINE
  5
24F
100
AcDbEntity
  8
RACCORDO
100
AcDbLine
 62
250
  6
CONTINUOUS
 10
-39.024392518
 20
-28.4506239658
 11
-39.0285642815
 21
-27.7061819196
  0
LINE
  5
250
100
AcDbEntity
  8
RACCORDO
100
AcDbLine
 62
250
  6
CONTINUOUS
 10
-39.0285642815
 20
-27.7061819196
 11
-39.0331344739
 21
-26.6208330746
  0
LINE
  5
251
100
AcDbEntity
  8
RACCORDO
100
AcDbLine
 62
250
  6
CONTINUOUS
 10
-39.0331344739
 20
-26.6208330746
 11
-39.0358918258
 21
-25.7319319446
  0
LINE
  5
252
100
AcDbEntity
  8
RACCORDO
100
AcDbLine
 62
250
  6
CONTINUOUS
 10
-39.0358918258
 20
-25.7319319446
 11
-39.0376295129
 21
-25.1011283045
  0
LINE
  5
253
100
AcDbEntity
  8
RACCORDO
100
AcDbLine
 62
250
  6
CONTINUOUS
 10
-39.0376295129
 20
-25.1011283045
 11
-39.0393286207
 21
-24.4377195887
  0
LINE
  5
254
100
AcDbEntity
  8
RACCORDO
100
AcDbLine
 62
250
  6
CONTINUOUS
 10
-39.0393286207
 20
-24.4377195887
 11
-39.0462026134
 21
-21.425786682
  0
LINE
  5
255
100
AcDbEntity
  8
RACCORDO
100
AcDbLine
 62
250
  6
CONTINUOUS
 10
-39.0462026134
 20
-21.425786682
 11
-39.0513146199
 21
-18.7339956194
  0
LINE
  5
256
100
AcDbEntity
  8
RACCORDO
100
AcDbLine
 62
250
  6
CONTINUOUS
 10
-39.0513146199
 20
-18.7339956194
 11
-39.0560738178
 21
-15.6020929693
  0
LINE
  5
257
100
AcDbEntity
  8
RACCORDO
100
AcDbLine
 62
250
  6
CONTINUOUS
 10
-39.0560738178
 20
-15.6020929693
 11
-39.0595193602
 21
-12.6032723064
  0
LINE
  5
258
100
AcDbEntity
  8
RACCORDO
100
AcDbLine
 62
250
  6
CONTINUOUS
 10
-39.7397596534
 20
35.8722696022
 11
-39.7412429667
 21
36.7453543625
  0
LINE
  5
259
100
AcDbEntity
  8
RACCORDO
100
AcDbLine
 62
250
  6
CONTINUOUS
 10
-39.0595193602
 20
-12.6032723064
 11
-39.0622435398
 21
-9.1983945182
  0
LINE
  5
25A
100
AcDbEntity
  8
RACCORDO
100
AcDbLine
 62
250
  6
CONTINUOUS
 10
-39.0622435398
 20
-9.1983945182
 11
-39.0640225355
 21
-5.3332740097
  0
LINE
  5
25B
100
AcDbEntity
  8
RACCORDO
100
AcDbLine
 62
250
  6
CONTINUOUS
 10
-39.7353037022
 20
28.4602211571
 11
-39.7397596534
 21
35.8722696022
  0
LINE
  5
25C
100
AcDbEntity
  8
RACCORDO
100
AcDbLine
 62
7
  6
CONTINUOUS
 10
-40.0
 20
37.0041113957
 11
-40.0
 21
5.0
  0
LINE
  5
25D
100
AcDbEntity
  8
RACCORDO
100
AcDbLine
 62
7
  6
CONTINUOUS
 10
-40.0
 20
-5.0
 11
-40.0
 21
-37.0041113957
  0
LINE
  5
25E
100
AcDbEntity
  8
0
100
AcDbLine
 62
7
  6
CONTINUOUS
 10
-39.9056659973
 20
2.6
 11
-39.9056659973
 21
-2.6
  0
LINE
  5
25F
100
AcDbEntity
  8
RACCORDO
100
AcDbLine
 62
250
  6
CONTINUOUS
 10
-39.7338453888
 20
18.2581221319
 11
-39.7353037022
 21
28.4602211571
  0
LINE
  5
260
100
AcDbEntity
  8
RACCORDO
100
AcDbLine
 62
250
  6
CONTINUOUS
 10
-39.0640225355
 20
-5.3332740097
 11
-39.0647172505
 21
-0.9450883286
  0
LINE
  5
261
100
AcDbEntity
  8
RACCORDO
100
AcDbLine
 62
250
  6
CONTINUOUS
 10
-39.0647172505
 20
-0.9450883286
 11
-39.0642467534
 21
4.504594705
  0
LINE
  5
262
100
AcDbEntity
  8
RACCORDO
100
AcDbLine
 62
250
  6
CONTINUOUS
 10
-39.0642467534
 20
4.504594705
 11
-39.061248029
 21
10.6233628411
  0
LINE
  5
263
100
AcDbEntity
  8
RACCORDO
100
AcDbLine
 62
250
  6
CONTINUOUS
 10
-39.739948354
 20
-36.0748791818
 11
-39.7338453888
 21
18.2581221319
  0
LINE
  5
264
100
AcDbEntity
  8
RACCORDO
100
AcDbLine
 62
250
  6
CONTINUOUS
 10
-39.061248029
 20
10.6233628411
 11
-39.0567908505
 21
15.0460682359
  0
LINE
  5
265
100
AcDbEntity
  8
RACCORDO
100
AcDbLine
 62
250
  6
CONTINUOUS
 10
-39.0567908505
 20
15.0460682359
 11
-39.0504520273
 21
19.2273302943
  0
LINE
  5
266
100
AcDbEntity
  8
RACCORDO
100
AcDbLine
 62
250
  6
CONTINUOUS
 10
-39.7403772405
 20
-36.355165543
 11
-39.739948354
 21
-36.0748791818
  0
LINE
  5
267
100
AcDbEntity
  8
RACCORDO
100
AcDbLine
 62
250
  6
CONTINUOUS
 10
-39.7407636281
 20
-36.5444377848
 11
-39.7403772405
 21
-36.355165543
  0
LINE
  5
268
100
AcDbEntity
  8
RACCORDO
100
AcDbLine
 62
250
  6
CONTINUOUS
 10
-39.0504520273
 20
19.2273302943
 11
-39.0426869923
 21
23.0240632675
  0
LINE
  5
269
100
AcDbEntity
  8
RACCORDO
100
AcDbLine
 62
250
  6
CONTINUOUS
 10
-39.7412429667
 20
-36.7453543625
 11
-39.7407636281
 21
-36.5444377848
  0
LINE
  5
26A
100
AcDbEntity
  8
RACCORDO
100
AcDbLine
 62
250
  6
CONTINUOUS
 10
-39.0426869923
 20
23.0240632675
 11
-39.0340498688
 21
26.3477647677
  0
LINE
  5
26B
100
AcDbEntity
  8
RACCORDO
100
AcDbLine
 62
250
  6
CONTINUOUS
 10
-39.0340498688
 20
26.3477647677
 11
-39.0297467584
 21
27.4603147259
  0
LINE
  5
26C
100
AcDbEntity
  8
RACCORDO
100
AcDbLine
 62
250
  6
CONTINUOUS
 10
-39.0297467584
 20
27.4603147259
 11
-39.025763185
 21
28.2235302082
  0
LINE
  5
26D
100
AcDbEntity
  8
RACCORDO
100
AcDbLine
 62
250
  6
CONTINUOUS
 10
-38.9377108761
 20
35.7327808825
 11
-38.9372068843
 21
35.8353978813
  0
LINE
  5
26E
100
AcDbEntity
  8
RACCORDO
100
AcDbLine
 62
250
  6
CONTINUOUS
 10
-39.025763185
 20
28.2235302082
 11
-39.0211946896
 21
28.9302674102
  0
LINE
  5
26F
100
AcDbEntity
  8
RACCORDO
100
AcDbLine
 62
250
  6
CONTINUOUS
 10
-39.0211946896
 20
28.9302674102
 11
-39.0143883458
 21
29.7917499558
  0
LINE
  5
270
100
AcDbEntity
  8
RACCORDO
100
AcDbLine
 62
250
  6
CONTINUOUS
 10
-39.0143883458
 20
29.7917499558
 11
-39.0070083896
 21
30.56875581
  0
LINE
  5
271
100
AcDbEntity
  8
RACCORDO
100
AcDbLine
 62
250
  6
CONTINUOUS
 10
-39.0070083896
 20
30.56875581
 11
-38.9974611875
 21
31.4329052087
  0
LINE
  5
272
100
AcDbEntity
  8
RACCORDO
100
AcDbLine
 62
250
  6
CONTINUOUS
 10
-38.9974611875
 20
31.4329052087
 11
-38.9861066143
 21
32.3317319521
  0
LINE
  5
273
100
AcDbEntity
  8
RACCORDO
100
AcDbLine
 62
250
  6
CONTINUOUS
 10
-38.9861066143
 20
32.3317319521
 11
-38.9452616949
 21
35.2095815029
  0
LINE
  5
274
100
AcDbEntity
  8
RACCORDO
100
AcDbLine
 62
250
  6
CONTINUOUS
 10
-38.9452616949
 20
35.2095815029
 11
-38.9377108761
 21
35.7327808825
  0
LWPOLYLINE
  5
275
100
AcDbEntity
  8
RACCORDO
100
AcDbPolyline
 62
250
  6
CONTINUOUS
 90
4
 70
0
 10
-38.9372068843
 20
35.8353978813
 10
-38.9362338714
 20
35.8866188592
 10
-38.9340644858
 20
35.9382580893
 10
-38.9311351306
 20
35.9905116883
  0
LINE
  5
276
100
AcDbEntity
  8
RACCORDO
100
AcDbLine
 62
250
  6
CONTINUOUS
 10
-38.8976193396
 20
36.585778057
 11
-38.8892038016
 21
36.7930119462
  0
LINE
  5
277
100
AcDbEntity
  8
RACCORDO
100
AcDbLine
 62
250
  6
CONTINUOUS
 10
-38.9036372296
 20
36.4539613641
 11
-38.8976193396
 21
36.585778057
  0
LWPOLYLINE
  5
278
100
AcDbEntity
  8
RACCORDO
100
AcDbPolyline
 62
250
  6
CONTINUOUS
 90
5
 70
0
 10
36.7759549346
 20
-38.8870192278
 10
36.6352436458
 20
-38.8934256163
 10
36.4985926091
 20
-38.8986414142
 10
36.3669899
 20
-38.9026608335
 10
36.2426251157
 20
-38.9050747487
  0
LINE
  5
279
100
AcDbEntity
  8
RACCORDO
100
AcDbLine
 62
250
  6
CONTINUOUS
 10
31.9259997095
 20
-38.9620647635
 11
30.6804849283
 21
-38.9824558458
  0
LINE
  5
27A
100
AcDbEntity
  8
RACCORDO
100
AcDbLine
 62
250
  6
CONTINUOUS
 10
34.9211561989
 20
-38.9213014295
 11
32.5920784502
 21
-38.9534628103
  0
LINE
  5
27B
100
AcDbEntity
  8
RACCORDO
100
AcDbLine
 62
250
  6
CONTINUOUS
 10
35.0703506859
 20
-38.9193326832
 11
34.9211561989
 21
-38.9213014295
  0
LINE
  5
27C
100
AcDbEntity
  8
RACCORDO
100
AcDbLine
 62
250
  6
CONTINUOUS
 10
35.3566287773
 20
-38.9155976723
 11
35.0703506859
 21
-38.9193326832
  0
LINE
  5
27D
100
AcDbEntity
  8
RACCORDO
100
AcDbLine
 62
250
  6
CONTINUOUS
 10
30.6804849283
 20
-38.9824558458
 11
30.1338016126
 21
-38.9899907514
  0
LINE
  5
27E
100
AcDbEntity
  8
RACCORDO
100
AcDbLine
 62
250
  6
CONTINUOUS
 10
32.5920784502
 20
-38.9534628103
 11
31.9259997095
 21
-38.9620647635
  0
LINE
  5
27F
100
AcDbEntity
  8
RACCORDO
100
AcDbLine
 62
250
  6
CONTINUOUS
 10
28.6329063277
 20
-39.0070482787
 11
27.9752415223
 21
-39.0144522786
  0
LINE
  5
280
100
AcDbEntity
  8
RACCORDO
100
AcDbLine
 62
250
  6
CONTINUOUS
 10
30.1338016126
 20
-38.9899907514
 11
28.6329063277
 21
-39.0070482787
  0
LINE
  5
281
100
AcDbEntity
  8
RACCORDO
100
AcDbLine
 62
250
  6
CONTINUOUS
 10
27.9752415223
 20
-39.0144522786
 11
26.5539805804
 21
-39.0299717006
  0
LINE
  5
282
100
AcDbEntity
  8
RACCORDO
100
AcDbLine
 62
250
  6
CONTINUOUS
 10
36.2426251157
 20
-38.9050747487
 11
35.3566287773
 21
-38.9155976723
  0
LINE
  5
283
100
AcDbEntity
  8
RACCORDO
100
AcDbLine
 62
250
  6
CONTINUOUS
 10
26.5539805804
 20
-39.0299717006
 11
25.3849286541
 21
-39.0416614911
  0
LINE
  5
284
100
AcDbEntity
  8
RACCORDO
100
AcDbLine
 62
250
  6
CONTINUOUS
 10
25.3849286541
 20
-39.0416614911
 11
24.5517551129
 21
-39.0489445928
  0
LINE
  5
285
100
AcDbEntity
  8
RACCORDO
100
AcDbLine
 62
250
  6
CONTINUOUS
 10
24.5517551129
 20
-39.0489445928
 11
23.6723478191
 21
-39.0555301355
  0
LINE
  5
286
100
AcDbEntity
  8
RACCORDO
100
AcDbLine
 62
250
  6
CONTINUOUS
 10
23.6723478191
 20
-39.0555301355
 11
22.7447723255
 21
-39.0612768441
  0
LINE
  5
287
100
AcDbEntity
  8
RACCORDO
100
AcDbLine
 62
250
  6
CONTINUOUS
 10
22.7447723255
 20
-39.0612768441
 11
21.7659209078
 21
-39.0659821824
  0
LINE
  5
288
100
AcDbEntity
  8
RACCORDO
100
AcDbLine
 62
250
  6
CONTINUOUS
 10
21.7659209078
 20
-39.0659821824
 11
20.7326961976
 21
-39.0694787897
  0
LINE
  5
289
100
AcDbEntity
  8
RACCORDO
100
AcDbLine
 62
250
  6
CONTINUOUS
 10
20.7326961976
 20
-39.0694787897
 11
19.6431047485
 21
-39.0716909866
  0
LINE
  5
28A
100
AcDbEntity
  8
RACCORDO
100
AcDbLine
 62
250
  6
CONTINUOUS
 10
-13.4471840651
 20
-39.0664603453
 11
-16.4957544574
 21
-39.071194693
  0
LINE
  5
28B
100
AcDbEntity
  8
RACCORDO
100
AcDbLine
 62
250
  6
CONTINUOUS
 10
-11.7499445063
 20
-39.0646774313
 11
-13.4471840651
 21
-39.0664603453
  0
LINE
  5
28C
100
AcDbEntity
  8
RACCORDO
100
AcDbLine
 62
250
  6
CONTINUOUS
 10
-16.4957544574
 20
-39.071194693
 11
-17.8657226763
 21
-39.0724247914
  0
LINE
  5
28D
100
AcDbEntity
  8
RACCORDO
100
AcDbLine
 62
250
  6
CONTINUOUS
 10
-31.0354258276
 20
-39.7376979802
 11
-36.7464187043
 21
-39.7423073086
  0
LINE
  5
28E
100
AcDbEntity
  8
RACCORDO
100
AcDbLine
 62
250
  6
CONTINUOUS
 10
19.6431047485
 20
-39.0716909866
 11
18.4941025746
 21
-39.0725125016
  0
LINE
  5
28F
100
AcDbEntity
  8
RACCORDO
100
AcDbLine
 62
7
  6
CONTINUOUS
 10
-37.0041113957
 20
-40.0
 11
37.0041113957
 21
-40.0
  0
LINE
  5
290
100
AcDbEntity
  8
RACCORDO
100
AcDbLine
 62
250
  6
CONTINUOUS
 10
11.749977532
 20
-39.0646774357
 11
-11.7499445063
 21
-39.0646774354
  0
LINE
  5
291
100
AcDbEntity
  8
RACCORDO
100
AcDbLine
 62
250
  6
CONTINUOUS
 10
-11.7499940355
 20
-39.733118734
 11
-31.0354258276
 21
-39.7376979802
  0
LINE
  5
292
100
AcDbEntity
  8
RACCORDO
100
AcDbLine
 62
250
  6
CONTINUOUS
 10
-17.8657226763
 20
-39.0724247914
 11
-19.1470317866
 21
-39.0722105789
  0
LINE
  5
293
100
AcDbEntity
  8
RACCORDO
100
AcDbLine
 62
250
  6
CONTINUOUS
 10
28.29634846
 20
-39.7358523055
 11
-11.7499940355
 21
-39.733118734
  0
LINE
  5
294
100
AcDbEntity
  8
RACCORDO
100
AcDbLine
 62
250
  6
CONTINUOUS
 10
18.4941025746
 20
-39.0725125016
 11
17.2833027629
 21
-39.0720590527
  0
LINE
  5
295
100
AcDbEntity
  8
RACCORDO
100
AcDbLine
 62
250
  6
CONTINUOUS
 10
36.7464187043
 20
-39.7423073086
 11
28.29634846
 21
-39.7358523055
  0
LWPOLYLINE
  5
296
100
AcDbEntity
  8
RACCORDO
100
AcDbPolyline
 62
250
  6
CONTINUOUS
 90
4
 70
0
 10
17.2833027629
 20
-39.0720590527
 10
15.3478249758
 20
-39.0694011078
 10
14.6701090782
 20
-39.0681344217
 10
11.749977532
 20
-39.064677464
  0
LINE
  5
297
100
AcDbEntity
  8
RACCORDO
100
AcDbLine
 62
250
  6
CONTINUOUS
 10
-19.1470317866
 20
-39.0722105789
 11
-20.3455705414
 21
-39.0704410697
  0
LINE
  5
298
100
AcDbEntity
  8
RACCORDO
100
AcDbLine
 62
250
  6
CONTINUOUS
 10
-20.3455705414
 20
-39.0704410697
 11
-21.4694257432
 21
-39.0671219368
  0
LINE
  5
299
100
AcDbEntity
  8
RACCORDO
100
AcDbLine
 62
250
  6
CONTINUOUS
 10
-21.4694257432
 20
-39.0671219368
 11
-22.5249916054
 21
-39.0624617064
  0
LINE
  5
29A
100
AcDbEntity
  8
RACCORDO
100
AcDbLine
 62
250
  6
CONTINUOUS
 10
-22.5249916054
 20
-39.0624617064
 11
-23.5162854284
 21
-39.056592002
  0
LINE
  5
29B
100
AcDbEntity
  8
RACCORDO
100
AcDbLine
 62
250
  6
CONTINUOUS
 10
-23.5162854284
 20
-39.056592002
 11
-24.4489271807
 21
-39.0497607888
  0
LINE
  5
29C
100
AcDbEntity
  8
RACCORDO
100
AcDbLine
 62
250
  6
CONTINUOUS
 10
-24.4489271807
 20
-39.0497607888
 11
-25.3275077804
 21
-39.0422009873
  0
LINE
  5
29D
100
AcDbEntity
  8
RACCORDO
100
AcDbLine
 62
250
  6
CONTINUOUS
 10
-25.3275077804
 20
-39.0422009873
 11
-26.5508105154
 21
-39.0300289509
  0
LINE
  5
29E
100
AcDbEntity
  8
RACCORDO
100
AcDbLine
 62
250
  6
CONTINUOUS
 10
-26.5508105154
 20
-39.0300289509
 11
-29.9400193073
 21
-38.9925609432
  0
LINE
  5
29F
100
AcDbEntity
  8
RACCORDO
100
AcDbLine
 62
250
  6
CONTINUOUS
 10
-29.9400193073
 20
-38.9925609432
 11
-30.2289333453
 21
-38.9890486434
  0
LINE
  5
2A0
100
AcDbEntity
  8
RACCORDO
100
AcDbLine
 62
250
  6
CONTINUOUS
 10
-35.7489610929
 20
-38.9106206962
 11
-36.2391575473
 21
-38.9051453585
  0
LINE
  5
2A1
100
AcDbEntity
  8
RACCORDO
100
AcDbLine
 62
250
  6
CONTINUOUS
 10
-33.9075006935
 20
-38.9352182448
 11
-35.7489610929
 21
-38.9106206962
  0
LINE
  5
2A2
100
AcDbEntity
  8
RACCORDO
100
AcDbLine
 62
250
  6
CONTINUOUS
 10
-31.8071890756
 20
-38.964046059
 11
-33.3393828726
 21
-38.9433688897
  0
LWPOLYLINE
  5
2A3
100
AcDbEntity
  8
RACCORDO
100
AcDbPolyline
 62
250
  6
CONTINUOUS
 90
3
 70
0
 10
-33.3393828726
 20
-38.9433688897
 10
-33.534151183
 20
-38.940548937
 10
-33.9075006935
 20
-38.9352182448
  0
LINE
  5
2A4
100
AcDbEntity
  8
RACCORDO
100
AcDbLine
 62
250
  6
CONTINUOUS
 10
-30.2289333453
 20
-38.9890486434
 11
-30.7837344319
 21
-38.9807445012
  0
LINE
  5
2A5
100
AcDbEntity
  8
RACCORDO
100
AcDbLine
 62
250
  6
CONTINUOUS
 10
-30.7837344319
 20
-38.9807445012
 11
-31.8071890756
 21
-38.964046059
  0
LWPOLYLINE
  5
2A6
100
AcDbEntity
  8
RACCORDO
100
AcDbPolyline
 62
250
  6
CONTINUOUS
 90
5
 70
0
 10
-36.2391575473
 20
-38.9051453585
 10
-36.3641890167
 20
-38.9027281628
 10
-36.4965325406
 20
-38.8986935825
 10
-36.6341150633
 20
-38.8934550505
 10
-36.7759544933
 20
-38.8870170701
  0
LINE
  5
2A7
100
AcDbEntity
  8
RACCORDO
100
AcDbLine
 62
250
  6
CONTINUOUS
 10
-36.7750889772
 20
38.9992006291
 11
-36.7759549352
 21
38.8870192305
  0
LINE
  5
2A8
100
AcDbEntity
  8
RACCORDO
100
AcDbLine
 62
250
  6
CONTINUOUS
 10
-25.5666589918
 20
-23.4527863394
 11
-25.5972417198
 21
-23.3676794136
  0
LWPOLYLINE
  5
2A9
100
AcDbEntity
  8
RACCORDO
100
AcDbPolyline
 62
250
  6
CONTINUOUS
 90
20
 70
0
 10
-25.5972417198
 20
-23.3676794136
 10
-25.6122937566
 20
-23.3242057936
 10
-25.6268387892
 20
-23.2798035916
 10
-25.640879244
 20
-23.2349699356
 10
-25.6545011951
 20
-23.1888347875
 10
-25.6676486752
 20
-23.1411245219
 10
-25.6803295495
 20
-23.0918983624
 10
-25.692679813
 20
-23.0407370592
 10
-25.7046785026
 20
-22.9875148653
 10
-25.7161674436
 20
-22.9323608173
 10
-25.7270442294
 20
-22.8752704913
 10
-25.7372252083
 20
-22.8161981738
 10
-25.7466056241
 20
-22.7552065154
 10
-25.7550571837
 20
-22.6924535891
 10
-25.7624650529
 20
-22.6280775202
 10
-25.7687657395
 20
-22.5619613299
 10
-25.77389965
 20
-22.4938811948
 10
-25.7777654248
 20
-22.4237739052
 10
-25.7802348961
 20
-22.3517397081
 10
-25.781191019
 20
-22.2778070157
  0
LWPOLYLINE
  5
2AA
100
AcDbEntity
  8
RACCORDO
100
AcDbPolyline
 62
250
  6
CONTINUOUS
 90
70
 70
0
 10
-25.7811909406
 20
22.2778070085
 10
-25.7792022599
 20
22.3887305428
 10
-25.7734636959
 20
22.5010819469
 10
-25.7638444569
 20
22.6146563499
 10
-25.7501888823
 20
22.7296680225
 10
-25.7323240721
 20
22.8457020039
 10
-25.7101988315
 20
22.9616418505
 10
-25.6832518779
 20
23.0779900411
 10
-25.652019053
 20
23.1937107321
 10
-25.6185774795
 20
23.305354242
 10
-25.5838895583
 20
23.4119644315
 10
-25.5479961021
 20
23.5137362528
 10
-25.511837837
 20
23.609734069
 10
-25.4765243986
 20
23.699796278
 10
-25.4414575783
 20
23.7853071617
 10
-25.4050070642
 20
23.8674854864
 10
-25.366868254
 20
23.9463625688
 10
-25.3275962174
 20
24.0221770037
 10
-25.2867310925
 20
24.0961458778
 10
-25.2442083555
 20
24.1685070401
 10
-25.2003132498
 20
24.2388804099
 10
-25.1549837597
 20
24.3075327047
 10
-25.1082526852
 20
24.374503821
 10
-25.0602166067
 20
24.4397268438
 10
-25.0108782577
 20
24.5033010275
 10
-24.9600435411
 20
24.5655012235
 10
-24.9080165511
 20
24.6260028769
 10
-24.8555989176
 20
24.6840460669
 10
-24.8028920498
 20
24.739668922
 10
-24.7500274589
 20
24.7928931875
 10
-24.6979369245
 20
24.8430478722
 10
-24.6471065435
 20
24.8899166823
 10
-24.5973144519
 20
24.9339392144
 10
-24.5484849529
 20
24.9754419248
 10
-24.5009598869
 20
25.0143402572
 10
-24.4547211579
 20
25.0508038176
 10
-24.4090156751
 20
25.0855520641
 10
-24.3636242517
 20
25.1188140228
 10
-24.3184495428
 20
25.1507455691
 10
-24.2728165245
 20
25.1819135531
 10
-24.2268803153
 20
25.2122129839
 10
-24.1807848138
 20
25.241565832
 10
-24.1339154185
 20
25.2704244241
 10
-24.0862409299
 20
25.2987907995
 10
-24.0376959294
 20
25.326662171
 10
-23.9875119086
 20
25.3544589843
 10
-23.9359833821
 20
25.3820422369
 10
-23.8835732883
 20
25.4090407373
 10
-23.829987962
 20
25.4353430165
 10
-23.7749526359
 20
25.4609096745
 10
-23.7182352828
 20
25.4859004703
 10
-23.6591650599
 20
25.5106629158
 10
-23.5974996664
 20
25.5352228246
 10
-23.5333628003
 20
25.5593452146
 10
-23.4668343186
 20
25.5828528496
 10
-23.3975170565
 20
25.605725568
 10
-23.3258132442
 20
25.6276958984
 10
-23.2530037941
 20
25.6483081534
 10
-23.1794568849
 20
25.667377182
 10
-23.1048449225
 20
25.6850086734
 10
-23.029423067
 20
25.7012808724
 10
-22.9531627115
 20
25.7160842308
 10
-22.8755630181
 20
25.7295223682
 10
-22.7960686445
 20
25.7419901953
 10
-22.7147366747
 20
25.7537054729
 10
-22.6317544803
 20
25.7642116944
 10
-22.5467987811
 20
25.7728142597
 10
-22.460117911
 20
25.7791427524
 10
-22.3720297023
 20
25.7832665282
 10
-22.2823866827
 20
25.785091627
  0
LWPOLYLINE
  5
2AB
100
AcDbEntity
  8
RACCORDO
100
AcDbPolyline
 62
250
  6
CONTINUOUS
 90
7
 70
0
 10
22.2823867281
 20
-25.7850922262
 10
21.2388873484
 20
-25.7919112338
 10
20.1611590959
 20
-25.7967471353
 10
19.0510879672
 20
-25.800147082
 10
17.9100615771
 20
-25.8026148121
 10
16.7384036513
 20
-25.8042875611
 10
15.5366000739
 20
-25.8052561793
  0
LWPOLYLINE
  5
2AC
100
AcDbEntity
  8
RACCORDO
100
AcDbPolyline
 62
250
  6
CONTINUOUS
 90
63
 70
0
 10
-22.282386718
 20
-25.785092089
 10
-22.3728517428
 20
-25.7832440399
 10
-22.4620331355
 20
-25.7790423468
 10
-22.5500844104
 20
-25.7725564597
 10
-22.6366815045
 20
-25.7636740747
 10
-22.7217761475
 20
-25.7527393313
 10
-22.8058994599
 20
-25.7404431184
 10
-22.8887387961
 20
-25.7272548028
 10
-22.9700854587
 20
-25.7129088169
 10
-23.0507735369
 20
-25.6968623418
 10
-23.1315765665
 20
-25.6788737542
 10
-23.2123976629
 20
-25.6590348281
 10
-23.2926235557
 20
-25.6373118928
 10
-23.3729013134
 20
-25.6134541618
 10
-23.452401444
 20
-25.5877418586
 10
-23.5283441022
 20
-25.5611809675
 10
-23.5998144598
 20
-25.5343639169
 10
-23.6678769552
 20
-25.5071299622
 10
-23.7328384559
 20
-25.4795012039
 10
-23.7946744416
 20
-25.4516503986
 10
-23.8537374819
 20
-25.4236055174
 10
-23.9108210148
 20
-25.3951275054
 10
-23.9657988331
 20
-25.3663402082
 10
-24.0187046824
 20
-25.3373716526
 10
-24.0704932424
 20
-25.3079146665
 10
-24.1209896011
 20
-25.2781849769
 10
-24.1699881476
 20
-25.2482994918
 10
-24.2184133346
 20
-25.2176654976
 10
-24.2663314239
 20
-25.1862528696
 10
-24.3135587848
 20
-25.1541859661
 10
-24.3606297215
 20
-25.1210048264
 10
-24.4075735439
 20
-25.0866262482
 10
-24.4544576065
 20
-25.0509940072
 10
-24.5018151034
 20
-25.0136410148
 10
-24.5496002413
 20
-24.9745251958
 10
-24.5978405263
 20
-24.9335035748
 10
-24.6470822138
 20
-24.8899265195
 10
-24.6976601128
 20
-24.8432951354
 10
-24.7489576771
 20
-24.7939558721
 10
-24.8000975792
 20
-24.7425372234
 10
-24.8511219323
 20
-24.6888594626
 10
-24.9018057691
 20
-24.6330370314
 10
-24.9509886209
 20
-24.576256976
 10
-24.9984410005
 20
-24.5188112483
 10
-25.0443758185
 20
-24.4605037118
 10
-25.0884082038
 20
-24.4018820202
 10
-25.1304981483
 20
-24.3430871252
 10
-25.1707356118
 20
-24.2841075069
 10
-25.2089832986
 20
-24.2252923461
 10
-25.2452855242
 20
-24.1667058274
 10
-25.2796870655
 20
-24.1084165799
 10
-25.3120850984
 20
-24.0508014336
 10
-25.3425385506
 20
-23.993932596
 10
-25.371111894
 20
-23.9378800706
 10
-25.3977563974
 20
-23.8830072378
 10
-25.4225414424
 20
-23.8294154717
 10
-25.4455725079
 20
-23.7770970999
 10
-25.4668527772
 20
-23.7263107646
 10
-25.4862916258
 20
-23.6772690715
 10
-25.5041202973
 20
-23.6299381134
 10
-25.5208955261
 20
-23.5840094462
 10
-25.5366719728
 20
-23.5394533793
 10
-25.5666589918
 20
-23.4527863394
  0
LINE
  5
2AD
100
AcDbEntity
  8
RACCORDO
100
AcDbLine
 62
250
  6
CONTINUOUS
 10
-22.3000000001
 20
-24.2061747333
 11
-22.2918273531
 21
-24.8638041462
  0
LWPOLYLINE
  5
2AE
100
AcDbEntity
  8
RACCORDO
100
AcDbPolyline
 62
250
  6
CONTINUOUS
 90
3
 70
0
 10
-22.2918273531
 20
-24.8638041462
 10
-22.2841643796
 20
-25.5958798337
 10
-22.282386718
 20
-25.785092089
  0
LINE
  5
2AF
100
AcDbEntity
  8
RACCORDO
100
AcDbLine
 62
250
  6
CONTINUOUS
 10
-25.7914313914
 20
-17.926381627
 11
-25.7951395063
 21
-16.3134322427
  0
LWPOLYLINE
  5
2B0
100
AcDbEntity
  8
RACCORDO
100
AcDbPolyline
 62
250
  6
CONTINUOUS
 90
3
 70
0
 10
-25.7811915202
 20
-22.2778070599
 10
-25.7837559957
 20
-20.9168475453
 10
-25.7914313914
 20
-17.926381627
  0
LINE
  5
2B1
100
AcDbEntity
  8
RACCORDO
100
AcDbLine
 62
250
  6
CONTINUOUS
 10
-25.7951395063
 20
-16.3134322427
 11
-25.7993891271
 21
-13.7351048648
  0
LINE
  5
2B2
100
AcDbEntity
  8
RACCORDO
100
AcDbLine
 62
250
  6
CONTINUOUS
 10
-24.2052487793
 20
20.2110124646
 11
-24.2081932204
 21
22.3
  0
LINE
  5
2B3
100
AcDbEntity
  8
RACCORDO
100
AcDbLine
 62
250
  6
CONTINUOUS
 10
-25.7993891271
 20
-13.7351048648
 11
-25.8023092501
 21
-10.9508892479
  0
LINE
  5
2B4
100
AcDbEntity
  8
RACCORDO
100
AcDbLine
 62
250
  6
CONTINUOUS
 10
-25.8023092501
 20
-10.9508892479
 11
-25.8040443168
 21
-7.9458272038
  0
LINE
  5
2B5
100
AcDbEntity
  8
RACCORDO
100
AcDbLine
 62
250
  6
CONTINUOUS
 10
-25.8040443168
 20
-7.9458272038
 11
-25.8047128898
 21
-4.705616643
  0
LINE
  5
2B6
100
AcDbEntity
  8
RACCORDO
100
AcDbLine
 62
250
  6
CONTINUOUS
 10
-24.201968596
 20
9.9797099773
 11
-24.2052487793
 21
20.2110124646
  0
LINE
  5
2B7
100
AcDbEntity
  8
0
100
AcDbLine
 62
7
  6
CONTINUOUS
 10
-22.6
 20
22.3
 11
-22.6
 21
-22.3
  0
LINE
  5
2B8
100
AcDbEntity
  8
RACCORDO
100
AcDbLine
 62
250
  6
CONTINUOUS
 10
-22.3
 20
-22.6
 11
-22.3
 21
-24.2061739337
  0
LINE
  5
2B9
100
AcDbEntity
  8
RACCORDO
100
AcDbLine
 62
250
  6
CONTINUOUS
 10
-22.3
 20
22.6
 11
-22.3
 21
24.2061739337
  0
LINE
  5
2BA
100
AcDbEntity
  8
RACCORDO
100
AcDbLine
 62
250
  6
CONTINUOUS
 10
-25.8046276107
 20
-1.2181401811
 11
-25.8043756936
 21
6.8969102359
  0
LINE
  5
2BB
100
AcDbEntity
  8
RACCORDO
100
AcDbLine
 62
250
  6
CONTINUOUS
 10
-25.8047128898
 20
-4.705616643
 11
-25.8046276107
 21
-1.2181401811
  0
LINE
  5
2BC
100
AcDbEntity
  8
RACCORDO
100
AcDbLine
 62
250
  6
CONTINUOUS
 10
-24.2038121486
 20
-17.1328515719
 11
-24.201968596
 21
9.9797099773
  0
LINE
  5
2BD
100
AcDbEntity
  8
RACCORDO
100
AcDbLine
 62
250
  6
CONTINUOUS
 10
-25.8043756936
 20
6.8969102359
 11
-25.8030118185
 21
9.978875591
  0
LINE
  5
2BE
100
AcDbEntity
  8
RACCORDO
100
AcDbLine
 62
250
  6
CONTINUOUS
 10
-25.8030118185
 20
9.978875591
 11
-25.8004937721
 21
12.8359552007
  0
LINE
  5
2BF
100
AcDbEntity
  8
RACCORDO
100
AcDbLine
 62
250
  6
CONTINUOUS
 10
-24.2060224606
 20
-20.9251819482
 11
-24.2038121486
 21
-17.1328515719
  0
LINE
  5
2C0
100
AcDbEntity
  8
RACCORDO
100
AcDbLine
 62
250
  6
CONTINUOUS
 10
-25.8004937721
 20
12.8359552007
 11
-25.7967039973
 21
15.4826521818
  0
LINE
  5
2C1
100
AcDbEntity
  8
RACCORDO
100
AcDbLine
 62
250
  6
CONTINUOUS
 10
-24.2081932204
 20
-22.3
 11
-24.2060224606
 21
-20.9251819482
  0
LINE
  5
2C2
100
AcDbEntity
  8
RACCORDO
100
AcDbLine
 62
250
  6
CONTINUOUS
 10
-25.7967039973
 20
15.4826521818
 11
-25.7933676659
 21
17.1374450198
  0
LINE
  5
2C3
100
AcDbEntity
  8
RACCORDO
100
AcDbLine
 62
250
  6
CONTINUOUS
 10
-25.7871103682
 20
19.4699912776
 11
-25.7811914966
 21
22.2778070579
  0
LINE
  5
2C4
100
AcDbEntity
  8
RACCORDO
100
AcDbLine
 62
250
  6
CONTINUOUS
 10
-25.7933676659
 20
17.1374450198
 11
-25.7871103682
 21
19.4699912776
  0
LWPOLYLINE
  5
2C5
100
AcDbEntity
  8
RACCORDO
100
AcDbPolyline
 62
250
  6
CONTINUOUS
 90
70
 70
0
 10
-24.2081932204
 20
22.3
 10
-24.2075987404
 20
22.3575703873
 10
-24.2051299146
 20
22.4159160316
 10
-24.2007141378
 20
22.4749710184
 10
-24.1942536204
 20
22.5348917024
 10
-24.1856910231
 20
22.5953734284
 10
-24.1750821329
 20
22.6556602297
 10
-24.1624030285
 20
22.7157483531
 10
-24.147676311
 20
22.7754936391
 10
-24.1311809018
 20
22.8339606173
 10
-24.1129430849
 20
22.8911911235
 10
-24.0931116174
 20
22.9470527812
 10
-24.0723359858
 20
23.0004275621
 10
-24.0510757864
 20
23.0507947607
 10
-24.0292623254
 20
23.0987408388
 10
-24.006796569
 20
23.1448476002
 10
-23.9838239559
 20
23.1890938251
 10
-23.9604259935
 20
23.2315452485
 10
-23.9363046442
 20
23.2728703979
 10
-23.911409503
 20
23.3132269171
 10
-23.8858906913
 20
23.3524535201
 10
-23.859687565
 20
23.3907060243
 10
-23.8328171744
 20
23.4280125665
 10
-23.8053406031
 20
23.4643390222
 10
-23.7772468139
 20
23.4997384444
 10
-23.7484292145
 20
23.5343739856
 10
-23.7190550999
 20
23.5680712673
 10
-23.6895505949
 20
23.6004017422
 10
-23.6599717335
 20
23.6314000589
 10
-23.6303840161
 20
23.6610874031
 10
-23.6012837112
 20
23.6890716467
 10
-23.5729530861
 20
23.7152289719
 10
-23.5452728447
 20
23.7398086224
 10
-23.5181501722
 20
23.7629970863
 10
-23.491707925
 20
23.7847904233
 10
-23.4659374424
 20
23.8052928553
 10
-23.4405205655
 20
23.8248247408
 10
-23.4154667279
 20
23.8434373116
 10
-23.3908321265
 20
23.8611379684
 10
-23.3663417394
 20
23.8781482612
 10
-23.3420667241
 20
23.8944494068
 10
-23.3179765224
 20
23.9100930208
 10
-23.2936196413
 20
23.9253712008
 10
-23.2690215573
 20
23.9402646582
 10
-23.2441684708
 20
23.9547834509
 10
-23.2185229468
 20
23.9692184919
 10
-23.1920665808
 20
23.9835380795
 10
-23.1648030406
 20
23.9977126953
 10
-23.1362008816
 20
24.0119856373
 10
-23.1060333678
 20
24.0263941509
 10
-23.0744856545
 20
24.0407707889
 10
-23.0416330078
 20
24.0550272207
 10
-23.0074858829
 20
24.0690947489
 10
-22.9720062588
 20
24.0829125649
 10
-22.9352007065
 20
24.0964062938
 10
-22.8968315151
 20
24.1095808321
 10
-22.8571172536
 20
24.1222773945
 10
-22.8167672585
 20
24.1342195595
 10
-22.7759628887
 20
24.1453358887
 10
-22.7345488684
 20
24.1556452425
 10
-22.6927499013
 20
24.1650667017
 10
-22.6506015528
 20
24.1735920511
 10
-22.60810479
 20
24.1811990625
 10
-22.5654418036
 20
24.1878112098
 10
-22.5229739079
 20
24.1933796117
 10
-22.4803896936
 20
24.1979617226
 10
-22.4368622673
 20
24.2015949451
 10
-22.3921295165
 20
24.2042255369
 10
-22.3464994641
 20
24.2057724689
 10
-22.3
 20
24.2061739337
  0
LWPOLYLINE
  5
2C6
100
AcDbEntity
  8
RACCORDO
100
AcDbPolyline
 62
250
  6
CONTINUOUS
 90
3
 70
0
 10
-22.3
 20
24.2061732711
 10
-22.2979344922
 20
24.3611870247
 10
-22.2823867281
 20
25.7850922262
  0
LINE
  5
2C7
100
AcDbEntity
  8
RACCORDO
100
AcDbLine
 62
250
  6
CONTINUOUS
 10
24.2081930143
 20
-22.3
 11
24.6906059875
 21
-22.2922322563
  0
LINE
  5
2C8
100
AcDbEntity
  8
RACCORDO
100
AcDbLine
 62
250
  6
CONTINUOUS
 10
24.6906059875
 20
-22.2922322563
 11
25.2213024409
 21
-22.2847447636
  0
LINE
  5
2C9
100
AcDbEntity
  8
RACCORDO
100
AcDbLine
 62
250
  6
CONTINUOUS
 10
25.2213024409
 20
-22.2847447636
 11
25.7811909412
 21
-22.2778070086
  0
LINE
  5
2CA
100
AcDbEntity
  8
RACCORDO
100
AcDbLine
 62
250
  6
CONTINUOUS
 10
-20.1649961094
 20
-24.2036560057
 11
-22.3
 21
-24.2061739337
  0
LINE
  5
2CB
100
AcDbEntity
  8
RACCORDO
100
AcDbLine
 62
250
  6
CONTINUOUS
 10
-17.9099859539
 20
-24.2023081468
 11
-20.1649961094
 21
-24.2036560057
  0
LINE
  5
2CC
100
AcDbEntity
  8
RACCORDO
100
AcDbLine
 62
250
  6
CONTINUOUS
 10
15.5366000739
 20
-25.8052561793
 11
11.7498982148
 21
-25.8058456072
  0
LINE
  5
2CD
100
AcDbEntity
  8
0
100
AcDbLine
 62
7
  6
CONTINUOUS
 10
-22.3
 20
-22.6
 11
22.3
 21
-22.6
  0
LINE
  5
2CE
100
AcDbEntity
  8
RACCORDO
100
AcDbLine
 62
250
  6
CONTINUOUS
 10
22.6
 20
-22.3
 11
24.2081932204
 21
-22.3
  0
LINE
  5
2CF
100
AcDbEntity
  8
RACCORDO
100
AcDbLine
 62
250
  6
CONTINUOUS
 10
-22.6
 20
-22.3
 11
-24.2081932204
 21
-22.3
  0
LWPOLYLINE
  5
2D0
100
AcDbEntity
  8
RACCORDO
100
AcDbPolyline
 62
250
  6
CONTINUOUS
 90
9
 70
0
 10
11.7498982147
 20
-25.8058456699
 10
-14.3033979081
 20
-25.8056562428
 10
-15.5348137589
 20
-25.8052574308
 10
-16.7361792809
 20
-25.8042866922
 10
-17.9075325792
 20
-25.8026136795
 10
-19.0486019641
 20
-25.8001514633
 10
-20.1591322476
 20
-25.7967622332
 10
-21.2376803386
 20
-25.7919295381
 10
-22.282386716
 20
-25.7850920612
  0
LINE
  5
2D1
100
AcDbEntity
  8
RACCORDO
100
AcDbLine
 62
250
  6
CONTINUOUS
 10
-11.7498280987
 20
-24.2020659325
 11
-17.9099859539
 21
-24.2023081468
  0
LINE
  5
2D2
100
AcDbEntity
  8
RACCORDO
100
AcDbLine
 62
250
  6
CONTINUOUS
 10
17.9125168081
 20
-24.2023096198
 11
-11.7498280987
 21
-24.2020659325
  0
LINE
  5
2D3
100
AcDbEntity
  8
RACCORDO
100
AcDbLine
 62
250
  6
CONTINUOUS
 10
20.1670099879
 20
-24.2036576839
 11
17.9125168081
 21
-24.2023096198
  0
LINE
  5
2D4
100
AcDbEntity
  8
RACCORDO
100
AcDbLine
 62
250
  6
CONTINUOUS
 10
22.3
 20
-24.2061739337
 11
20.1670099879
 21
-24.2036576839
  0
LWPOLYLINE
  5
2D5
100
AcDbEntity
  8
RACCORDO
100
AcDbPolyline
 62
250
  6
CONTINUOUS
 90
85
 70
0
 10
-22.3
 20
-24.2061739337
 10
-22.346908714
 20
-24.2057655007
 10
-22.3931394011
 20
-24.2041801394
 10
-22.4386624767
 20
-24.2014665274
 10
-22.4831138716
 20
-24.1976978988
 10
-22.5268069512
 20
-24.192913971
 10
-22.5707257764
 20
-24.1870429701
 10
-22.615195084
 20
-24.1799994138
 10
-22.659827414
 20
-24.1718104302
 10
-22.7045344379
 20
-24.1625082158
 10
-22.7493959768
 20
-24.1520620416
 10
-22.7942718607
 20
-24.1404678946
 10
-22.838753789
 20
-24.1278309843
 10
-22.8831893568
 20
-24.1140494382
 10
-22.9271795959
 20
-24.099236842
 10
-22.9692410202
 20
-24.0839575136
 10
-23.0089464605
 20
-24.0685099472
 10
-23.0467702928
 20
-24.0528460981
 10
-23.0826253718
 20
-24.0371170779
 10
-23.1163848096
 20
-24.0215128912
 10
-23.1482398128
 20
-24.0060576468
 10
-23.1785745744
 20
-23.9906318762
 10
-23.2072582145
 20
-23.9753808357
 10
-23.23447083
 20
-23.960302663
 10
-23.2610310709
 20
-23.9449921887
 10
-23.2869824286
 20
-23.9294438697
 10
-23.3122873089
 20
-23.9137083832
 10
-23.3376024426
 20
-23.8973933859
 10
-23.3630451296
 20
-23.8803982138
 10
-23.3884643847
 20
-23.8628029758
 10
-23.4140875458
 20
-23.8444437438
 10
-23.439896322
 20
-23.8253001769
 10
-23.4658588274
 20
-23.8053535974
 10
-23.4921647091
 20
-23.784419586
 10
-23.5187259025
 20
-23.7625124205
 10
-23.5455564108
 20
-23.739559581
 10
-23.5729706158
 20
-23.7152152413
 10
-23.6011591819
 20
-23.689190961
 10
-23.6297938715
 20
-23.6616651723
 10
-23.6584123142
 20
-23.6329975449
 10
-23.6870443985
 20
-23.6030833163
 10
-23.715558973
 20
-23.5719782114
 10
-23.7433184051
 20
-23.540349729
 10
-23.7702007958
 20
-23.5083592345
 10
-23.7963209504
 20
-23.4758891088
 10
-23.821459579
 20
-23.4432432415
 10
-23.8455981112
 20
-23.4104998343
 10
-23.8687842527
 20
-23.3776465183
 10
-23.8909272151
 20
-23.3448714356
 10
-23.9120526569
 20
-23.3122106874
 10
-23.9321857159
 20
-23.279698708
 10
-23.9512550739
 20
-23.2475319937
 10
-23.969298586
 20
-23.2157452195
 10
-23.9863506718
 20
-23.184375622
 10
-24.0023544648
 20
-23.1536322132
 10
-24.0173373703
 20
-23.1235891076
 10
-24.0313641705
 20
-23.0942422955
 10
-24.0444462989
 20
-23.0656872963
 10
-24.0566171965
 20
-23.0379878617
 10
-24.0679372971
 20
-23.0111392568
 10
-24.078458705
 20
-22.9851322084
 10
-24.0881852025
 20
-22.9601020383
 10
-24.0971991562
 20
-22.9359596087
 10
-24.1056521916
 20
-22.9123507342
 10
-24.1135151708
 20
-22.8894422257
 10
-24.1208690225
 20
-22.8670952446
 10
-24.12798378
 20
-22.8444806902
 10
-24.1348795738
 20
-22.8214937418
 10
-24.1415181619
 20
-22.7982427359
 10
-24.1480309356
 20
-22.774202654
 10
-24.1544198612
 20
-22.7492544525
 10
-24.1606214954
 20
-22.723511136
 10
-24.1666401896
 20
-22.6967891262
 10
-24.1724489157
 20
-22.6690264355
 10
-24.1779921468
 20
-22.64028068
 10
-24.1832216318
 20
-22.6105476874
 10
-24.1880969426
 20
-22.5798032179
 10
-24.1925679401
 20
-22.5480745469
 10
-24.1965731951
 20
-22.5154377611
 10
-24.2000621381
 20
-22.4819648428
 10
-24.2029978638
 20
-22.4475971653
 10
-24.2053346652
 20
-22.4122177548
 10
-24.2070174334
 20
-22.3757952677
 10
-24.2079893033
 20
-22.3383843654
 10
-24.2081932204
 20
-22.3
  0
LINE
  5
2D6
100
AcDbEntity
  8
RACCORDO
100
AcDbLine
 62
250
  6
CONTINUOUS
 10
-24.6906064117
 20
-22.2922334057
 11
-25.7811915202
 21
-22.2778070599
  0
LINE
  5
2D7
100
AcDbEntity
  8
RACCORDO
100
AcDbLine
 62
250
  6
CONTINUOUS
 10
-24.2081927723
 20
-22.3
 11
-24.6906064117
 21
-22.2922334057
  0
LINE
  5
2D8
100
AcDbEntity
  8
RACCORDO
100
AcDbLine
 62
250
  6
CONTINUOUS
 10
-11.7498447698
 20
24.2020659322
 11
-11.7500330347
 21
39.7331187339
  0
LINE
  5
2D9
100
AcDbEntity
  8
RACCORDO
100
AcDbLine
 62
250
  6
CONTINUOUS
 10
-11.7499614423
 20
-25.0512965299
 11
-11.7499745481
 21
-39.0646773538
  0
LINE
  5
2DA
100
AcDbEntity
  8
RACCORDO
100
AcDbLine
 62
250
  6
CONTINUOUS
 10
-11.7499940355
 20
-39.733118734
 11
-11.7499445063
 21
-39.0646774354
  0
LINE
  5
2DB
100
AcDbEntity
  8
RACCORDO
100
AcDbLine
 62
250
  6
CONTINUOUS
 10
-11.7498280987
 20
-24.2020659325
 11
-11.7499614423
 21
-25.0512965299
  0
LWPOLYLINE
  5
2DC
100
AcDbEntity
  8
0
100
AcDbPolyline
 62
7
  6
CONTINUOUS
 90
4
 70
0
 43
0.3500000006
 10
-2.3571427875
 20
49.178569931
 10
-2.3571427875
 20
50.0357124023
 10
-1.9285714102
 20
50.4642859039
 10
-1.2857142735
 20
50.4642859039
  0
LWPOLYLINE
  5
2DD
100
AcDbEntity
  8
0
100
AcDbPolyline
 62
7
  6
CONTINUOUS
 90
13
 70
0
 43
0.3500000006
 10
0.0
 20
49.6071434326
 10
0.0
 20
50.8928594055
 10
0.2142857063
 20
51.3214283752
 10
0.6428571367
 20
51.7500018768
 10
0.8571428254
 20
51.7500018768
 10
1.2857142735
 20
51.3214283752
 10
1.5000000329
 20
50.8928594055
 10
1.5000000329
 20
49.6071434326
 10
1.2857142735
 20
49.178569931
 10
0.8571428254
 20
48.7500009613
 10
0.6428571367
 20
48.7500009613
 10
0.2142857063
 20
49.178569931
 10
0.0
 20
49.6071434326
  0
LINE
  5
2DE
100
AcDbEntity
  8
RACCORDO
100
AcDbLine
 62
250
  6
CONTINUOUS
 10
-39.7412429667
 20
-36.7453543625
 11
-40.0
 21
-37.0041113957
  0
LINE
  5
2DF
100
AcDbEntity
  8
RACCORDO
100
AcDbLine
 62
250
  6
CONTINUOUS
 10
36.7464187043
 20
39.7423073086
 11
37.0041113957
 21
40.0
  0
LINE
  5
2E0
100
AcDbEntity
  8
RACCORDO
100
AcDbLine
 62
250
  6
CONTINUOUS
 10
-39.7331159804
 20
-0.0000052546
 11
-24.201781698
 21
-0.0000050772
  0
LINE
  5
2E1
100
AcDbEntity
  8
RACCORDO
100
AcDbLine
 62
250
  6
CONTINUOUS
 10
24.201781698
 20
-0.0000050772
 11
39.7331159804
 21
-0.0000052546
  0
LINE
  5
2E2
100
AcDbEntity
  8
RACCORDO
100
AcDbLine
 62
250
  6
CONTINUOUS
 10
36.7464187043
 20
-39.7423073086
 11
37.0041113957
 21
-40.0
  0
LINE
  5
2E3
100
AcDbEntity
  8
RACCORDO
100
AcDbLine
 62
250
  6
CONTINUOUS
 10
-39.7412429667
 20
36.7453543625
 11
-40.0
 21
37.0041113957
  0
LINE
  5
2E4
100
AcDbEntity
  8
RACCORDO
100
AcDbLine
 62
250
  6
CONTINUOUS
 10
-36.7464187043
 20
-39.7423073086
 11
-37.0041113957
 21
-40.0
  0
LINE
  5
2E5
100
AcDbEntity
  8
RACCORDO
100
AcDbLine
 62
250
  6
CONTINUOUS
 10
39.7412429667
 20
36.7453543625
 11
40.0
 21
37.0041113957
  0
LINE
  5
2E6
100
AcDbEntity
  8
RACCORDO
100
AcDbLine
 62
250
  6
CONTINUOUS
 10
39.7412429667
 20
-36.7453543625
 11
40.0
 21
-37.0041113957
  0
LINE
  5
2E7
100
AcDbEntity
  8
RACCORDO
100
AcDbLine
 62
250
  6
CONTINUOUS
 10
-36.7464187043
 20
39.7423073086
 11
-37.0041113957
 21
40.0
  0
LINE
  5
2E8
100
AcDbEntity
  8
RACCORDO
100
AcDbLine
 62
250
  6
CONTINUOUS
 10
11.7498280987
 20
-24.2020659325
 11
11.7499940355
 21
-39.733118734
  0
LINE
  5
2E9
100
AcDbEntity
  8
RACCORDO
100
AcDbLine
 62
250
  6
CONTINUOUS
 10
11.7498280987
 20
24.2020659325
 11
11.7499614423
 21
25.0512965299
  0
LINE
  5
2EA
100
AcDbEntity
  8
RACCORDO
100
AcDbLine
 62
250
  6
CONTINUOUS
 10
11.7499940355
 20
39.733118734
 11
11.7499445063
 21
39.0646774354
  0
LINE
  5
2EB
100
AcDbEntity
  8
RACCORDO
100
AcDbLine
 62
250
  6
CONTINUOUS
 10
11.7499614423
 20
25.0512965299
 11
11.7499745481
 21
39.0646773538
  0
LINE
  5
2EC
100
AcDbEntity
  8
RACCORDO
100
AcDbLine
 62
250
  6
CONTINUOUS
 10
22.3000000001
 20
24.2061747337
 11
22.2918273566
 21
24.8638041464
  0
LWPOLYLINE
  5
2ED
100
AcDbEntity
  8
RACCORDO
100
AcDbPolyline
 62
250
  6
CONTINUOUS
 90
3
 70
0
 10
22.2918273566
 20
24.8638041464
 10
22.2841643811
 20
25.5958798338
 10
22.282386718
 20
25.7850920892
  0
LINE
  5
2EE
100
AcDbEntity
  8
RACCORDO
100
AcDbLine
 62
250
  6
CONTINUOUS
 10
22.3
 20
-22.6
 11
22.3
 21
-24.2061739337
  0
LINE
  5
2EF
100
AcDbEntity
  8
RACCORDO
100
AcDbLine
 62
250
  6
CONTINUOUS
 10
22.3
 20
22.6
 11
22.3
 21
24.2061739337
  0
LINE
  5
2F0
100
AcDbEntity
  8
0
100
AcDbLine
 62
7
  6
CONTINUOUS
 10
22.6
 20
-22.3
 11
22.6
 21
22.3
  0
LWPOLYLINE
  5
2F1
100
AcDbEntity
  8
RACCORDO
100
AcDbPolyline
 62
250
  6
CONTINUOUS
 90
3
 70
0
 10
22.3
 20
-24.2061732711
 10
22.2979344922
 20
-24.3611870247
 10
22.2823867281
 20
-25.7850922262
  0
LINE
  5
2F2
100
AcDbEntity
  8
RACCORDO
100
AcDbLine
 62
250
  6
CONTINUOUS
 10
-24.2081930123
 20
22.3
 11
-24.6906059869
 21
22.2922322475
  0
LINE
  5
2F3
100
AcDbEntity
  8
RACCORDO
100
AcDbLine
 62
250
  6
CONTINUOUS
 10
-24.6906059869
 20
22.2922322475
 11
-25.2213024407
 21
22.2847447543
  0
LINE
  5
2F4
100
AcDbEntity
  8
RACCORDO
100
AcDbLine
 62
250
  6
CONTINUOUS
 10
-25.2213024407
 20
22.2847447543
 11
-25.7811909406
 21
22.2778070085
  0
LINE
  5
2F5
100
AcDbEntity
  8
RACCORDO
100
AcDbLine
 62
250
  6
CONTINUOUS
 10
22.6
 20
22.3
 11
24.2081932204
 21
22.3
  0
LINE
  5
2F6
100
AcDbEntity
  8
RACCORDO
100
AcDbLine
 62
250
  6
CONTINUOUS
 10
-22.6
 20
22.3
 11
-24.2081932204
 21
22.3
  0
LINE
  5
2F7
100
AcDbEntity
  8
0
100
AcDbLine
 62
7
  6
CONTINUOUS
 10
22.3
 20
22.6
 11
-22.3
 21
22.6
  0
LINE
  5
2F8
100
AcDbEntity
  8
RACCORDO
100
AcDbLine
 62
250
  6
CONTINUOUS
 10
24.6906064117
 20
22.2922334057
 11
25.7811915202
 21
22.2778070599
  0
LINE
  5
2F9
100
AcDbEntity
  8
RACCORDO
100
AcDbLine
 62
250
  6
CONTINUOUS
 10
24.2081927723
 20
22.3
 11
24.6906064117
 21
22.2922334057
  0
LINE
  5
2FA
100
AcDbEntity
  8
RACCORDO
100
AcDbLine
 62
250
  6
CONTINUOUS
 10
25.787125049
 20
19.4645720159
 11
25.7933861602
 21
17.129536147
  0
LINE
  5
2FB
100
AcDbEntity
  8
RACCORDO
100
AcDbLine
 62
250
  6
CONTINUOUS
 10
25.7933861602
 20
17.129536147
 11
25.7967160728
 21
15.4757375508
  0
LINE
  5
2FC
100
AcDbEntity
  8
RACCORDO
100
AcDbLine
 62
250
  6
CONTINUOUS
 10
25.7811915202
 20
22.2778070599
 11
25.787125049
 21
19.4645720159
  0
LINE
  5
2FD
100
AcDbEntity
  8
RACCORDO
100
AcDbLine
 62
250
  6
CONTINUOUS
 10
25.7967160728
 20
15.4757375508
 11
25.8004999862
 21
12.8305143805
  0
LINE
  5
2FE
100
AcDbEntity
  8
RACCORDO
100
AcDbLine
 62
250
  6
CONTINUOUS
 10
24.2052487797
 20
-20.2110129796
 11
24.2081932204
 21
-22.3
  0
LINE
  5
2FF
100
AcDbEntity
  8
RACCORDO
100
AcDbLine
 62
250
  6
CONTINUOUS
 10
25.8004999862
 20
12.8305143805
 11
25.8030147912
 21
9.9742797859
  0
LINE
  5
300
100
AcDbEntity
  8
RACCORDO
100
AcDbLine
 62
250
  6
CONTINUOUS
 10
24.2017816983
 20
-0.0000050772
 11
24.2052487797
 21
-20.2110129796
  0
LINE
  5
301
100
AcDbEntity
  8
RACCORDO
100
AcDbLine
 62
250
  6
CONTINUOUS
 10
25.8030147912
 20
9.9742797859
 11
25.8047128904
 21
4.7056090347
  0
LINE
  5
302
100
AcDbEntity
  8
RACCORDO
100
AcDbLine
 62
250
  6
CONTINUOUS
 10
25.8047128904
 20
4.7056090347
 11
25.8040426432
 21
-7.9502606295
  0
LINE
  5
303
100
AcDbEntity
  8
RACCORDO
100
AcDbLine
 62
250
  6
CONTINUOUS
 10
25.8040426432
 20
-7.9502606295
 11
25.8023054135
 21
-10.9556904029
  0
LINE
  5
304
100
AcDbEntity
  8
RACCORDO
100
AcDbLine
 62
250
  6
CONTINUOUS
 10
24.2060224603
 20
20.9251815691
 11
24.2017816983
 21
-0.0000050772
  0
LINE
  5
305
100
AcDbEntity
  8
RACCORDO
100
AcDbLine
 62
250
  6
CONTINUOUS
 10
25.8023054135
 20
-10.9556904029
 11
25.7993812992
 21
-13.7410102283
  0
LINE
  5
306
100
AcDbEntity
  8
RACCORDO
100
AcDbLine
 62
250
  6
CONTINUOUS
 10
24.2081932204
 20
22.3
 11
24.2060224603
 21
20.9251815691
  0
LINE
  5
307
100
AcDbEntity
  8
RACCORDO
100
AcDbLine
 62
250
  6
CONTINUOUS
 10
25.7993812992
 20
-13.7410102283
 11
25.7951244819
 21
-16.320873908
  0
LINE
  5
308
100
AcDbEntity
  8
RACCORDO
100
AcDbLine
 62
250
  6
CONTINUOUS
 10
25.7951244819
 20
-16.320873908
 11
25.7914104179
 21
-17.9342217919
  0
LWPOLYLINE
  5
309
100
AcDbEntity
  8
RACCORDO
100
AcDbPolyline
 62
250
  6
CONTINUOUS
 90
3
 70
0
 10
25.7914104179
 20
-17.9342217919
 10
25.7871103661
 20
-19.4699919843
 10
25.7811914966
 20
-22.2778070579
  0
LWPOLYLINE
  5
30A
100
AcDbEntity
  8
RACCORDO
100
AcDbPolyline
 62
250
  6
CONTINUOUS
 90
70
 70
0
 10
24.2081932204
 20
-22.3
 10
24.2075990291
 20
-22.3575594012
 10
24.2051311509
 20
-22.4158948035
 10
24.2007169264
 20
-22.4749403239
 10
24.1942585606
 20
-22.5348520074
 10
24.1856986247
 20
-22.5953255666
 10
24.1750926133
 20
-22.6556060595
 10
24.1624163523
 20
-22.7156901678
 10
24.1476923279
 20
-22.7754332674
 10
24.1311992991
 20
-22.8338995273
 10
24.1129632859
 20
-22.8911310616
 10
24.0931330269
 20
-22.9469951182
 10
24.0723583733
 20
-23.0003723577
 10
24.051099052
 20
-23.0507417225
 10
24.0292862631
 20
-23.0986900108
 10
24.0068211225
 20
-23.1447988017
 10
23.9838491686
 20
-23.189046733
 10
23.960451851
 20
-23.231499691
 10
23.9363310418
 20
-23.2728264225
 10
23.9114363154
 20
-23.3131846042
 10
23.8859178075
 20
-23.3524129065
 10
23.8597148106
 20
-23.3906672392
 10
23.8328443532
 20
-23.4279757495
 10
23.8053675228
 20
-23.4643042825
 10
23.7772732489
 20
-23.4997059155
 10
23.7484549215
 20
-23.5343438051
 10
23.7190798337
 20
-23.5680435433
 10
23.6895741021
 20
-23.600376556
 10
23.6599937147
 20
-23.6313775241
 10
23.6304042074
 20
-23.6610675772
 10
23.6013019785
 20
-23.6890544406
 10
23.5729693014
 20
-23.7152142952
 10
23.5452868906
 20
-23.7397963887
 10
23.5181620853
 20
-23.7629870894
 10
23.4917178347
 20
-23.7847824015
 10
23.4659454131
 20
-23.8052866245
 10
23.4405265789
 20
-23.8248201983
 10
23.4154707556
 20
-23.8434343701
 10
23.3908341606
 20
-23.8611365317
 10
23.3663417279
 20
-23.8781482678
 10
23.3420646289
 20
-23.8944507892
 10
23.3179722967
 20
-23.9100957187
 10
23.2936131557
 20
-23.9253751999
 10
23.2690126751
 20
-23.9402699403
 10
23.2441570611
 20
-23.9547899912
 10
23.2185088073
 20
-23.9692262957
 10
23.1920495204
 20
-23.9835471302
 10
23.1647828509
 20
-23.9977229756
 10
23.1361772342
 20
-24.0119971765
 10
23.1060058238
 20
-24.0264070059
 10
23.0744538697
 20
-24.0407849391
 10
23.0415968267
 20
-24.0550425343
 10
23.0074450767
 20
-24.0691111076
 10
22.9719606714
 20
-24.082929804
 10
22.9351506061
 20
-24.0964240846
 10
22.896776966
 20
-24.1095989218
 10
22.8570585444
 20
-24.1222954668
 10
22.8167057772
 20
-24.1342370267
 10
22.7759004909
 20
-24.1453521492
 10
22.7344870065
 20
-24.1556599137
 10
22.6926898352
 20
-24.1650795429
 10
22.6505446465
 20
-24.1736028886
 10
22.6080523338
 20
-24.1812078289
 10
22.5653946118
 20
-24.1878179929
 10
22.5229326452
 20
-24.1933845643
 10
22.4803551716
 20
-24.1979650291
 10
22.4368352557
 20
-24.201596868
 10
22.392110764
 20
-24.2042264092
 10
22.3464897205
 20
-24.2057726786
 10
22.3
 20
-24.2061739337
  0
LWPOLYLINE
  5
30B
100
AcDbEntity
  8
RACCORDO
100
AcDbPolyline
 62
250
  6
CONTINUOUS
 90
70
 70
0
 10
25.7811909412
 20
-22.2778070086
 10
25.7792030129
 20
-22.3887092711
 10
25.7734665188
 20
-22.5010408387
 10
25.7638505117
 20
-22.6145970659
 10
25.7501991802
 20
-22.7295919286
 10
25.7323395283
 20
-22.8456109717
 10
25.7102201785
 20
-22.961538861
 10
25.6832801678
 20
-23.0778778989
 10
25.6520546138
 20
-23.1935917727
 10
25.6186182284
 20
-23.305232524
 10
25.5839308205
 20
-23.4118462642
 10
25.5480343123
 20
-23.5136268169
 10
25.5118735197
 20
-23.6096334511
 10
25.4765605005
 20
-23.6997021521
 10
25.4414957996
 20
-23.7852175875
 10
25.4050476074
 20
-23.8673990548
 10
25.3669106019
 20
-23.9462784471
 10
25.3276400406
 20
-24.022095224
 10
25.286776083
 20
-24.0960668501
 10
25.2442543073
 20
-24.1684310805
 10
25.2003600196
 20
-24.2388075245
 10
25.1550310539
 20
-24.3074630649
 10
25.1083001357
 20
-24.3744376591
 10
25.0602638371
 20
-24.4396643883
 10
25.0109248362
 20
-24.5032425451
 10
24.9600890172
 20
-24.5654469728
 10
24.9080604752
 20
-24.6259530497
 10
24.8556408139
 20
-24.6840008037
 10
24.8029313488
 20
-24.7396284244
 10
24.7500636546
 20
-24.7928575634
 10
24.6979697436
 20
-24.8430169698
 10
24.6471357247
 20
-24.88989034
 10
24.5973397608
 20
-24.9339172714
 10
24.548506454
 20
-24.9754239999
 10
24.5009778186
 20
-25.014325866
 10
24.4547356355
 20
-25.0507926169
 10
24.4090266526
 20
-25.0855438717
 10
24.3636316597
 20
-25.1188086829
 10
24.3184533375
 20
-25.1507429188
 10
24.2728165424
 20
-25.1819135303
 10
24.226876388
 20
-25.2122155271
 10
24.1807767672
 20
-25.2415708774
 10
24.1339029723
 20
-25.27043197
 10
24.0862238242
 20
-25.2988008249
 10
24.0376739216
 20
-25.3266746166
 10
23.9874845978
 20
-25.3544738252
 10
23.935950351
 20
-25.3820594264
 10
23.8835342458
 20
-25.4090601711
 10
23.8299427751
 20
-25.435364514
 10
23.7749012382
 20
-25.4609330031
 10
23.7181773992
 20
-25.4859254647
 10
23.6591001083
 20
-25.5106895092
 10
23.5974265459
 20
-25.5352511187
 10
23.5332808377
 20
-25.5593750782
 10
23.4667439622
 20
-25.5828837104
 10
23.3974185963
 20
-25.6057568968
 10
23.3257073382
 20
-25.6277270924
 10
23.2528930584
 20
-25.6483381927
 10
23.1793446582
 20
-25.667405013
 10
23.1047335075
 20
-25.6850337348
 10
23.0293140305
 20
-25.7013030809
 10
22.9530578574
 20
-25.7161038019
 10
22.875464686
 20
-25.7295393168
 10
22.7959792241
 20
-25.7420041601
 10
22.7146583281
 20
-25.7537160212
 10
22.6316890289
 20
-25.7642188568
 10
22.5467474822
 20
-25.7728185306
 10
22.460082025
 20
-25.7791448435
 10
22.3720109064
 20
-25.7832671525
 10
22.2823866826
 20
-25.7850916258
  0
LWPOLYLINE
  5
30C
100
AcDbEntity
  8
RACCORDO
100
AcDbPolyline
 62
250
  6
CONTINUOUS
 90
7
 70
0
 10
-22.2823867281
 20
25.7850922262
 10
-21.2388901938
 20
25.7919112156
 10
-20.1611645657
 20
25.7967471112
 10
-19.0510958184
 20
25.8001470568
 10
-17.9100715872
 20
25.8026147903
 10
-16.7384155889
 20
25.804287547
 10
-15.5366136511
 20
25.8052561739
  0
LINE
  5
30D
100
AcDbEntity
  8
RACCORDO
100
AcDbLine
 62
250
  6
CONTINUOUS
 10
20.1649963525
 20
24.2036560059
 11
22.3
 21
24.2061739337
  0
LINE
  5
30E
100
AcDbEntity
  8
RACCORDO
100
AcDbLine
 62
250
  6
CONTINUOUS
 10
17.9099863098
 20
24.202308147
 11
20.1649963525
 21
24.2036560059
  0
LINE
  5
30F
100
AcDbEntity
  8
RACCORDO
100
AcDbLine
 62
250
  6
CONTINUOUS
 10
-15.5366136511
 20
25.8052561739
 11
11.7498982147
 21
25.8058456699
  0
LINE
  5
310
100
AcDbEntity
  8
RACCORDO
100
AcDbLine
 62
250
  6
CONTINUOUS
 10
11.7498280987
 20
24.2020659325
 11
17.9099863098
 21
24.202308147
  0
LWPOLYLINE
  5
311
100
AcDbEntity
  8
RACCORDO
100
AcDbPolyline
 62
250
  6
CONTINUOUS
 90
8
 70
0
 10
11.7500384253
 20
25.8058455775
 10
15.5348140913
 20
25.8052574306
 10
16.7361796443
 20
25.8042866918
 10
17.9075329347
 20
25.8026136789
 10
19.0486022786
 20
25.8001514624
 10
20.15913249
 20
25.7967622322
 10
21.2376804759
 20
25.7919295374
 10
22.282386716
 20
25.7850920612
  0
LINE
  5
312
100
AcDbEntity
  8
RACCORDO
100
AcDbLine
 62
250
  6
CONTINUOUS
 10
-19.0550142155
 20
24.2028157018
 11
11.7498280987
 21
24.2020659325
  0
LWPOLYLINE
  5
313
100
AcDbEntity
  8
RACCORDO
100
AcDbPolyline
 62
250
  6
CONTINUOUS
 90
3
 70
0
 10
-22.3
 20
24.2061739337
 10
-21.2486773943
 20
24.2047773944
 10
-19.0550142155
 20
24.2028157018
  0
LWPOLYLINE
  5
314
100
AcDbEntity
  8
RACCORDO
100
AcDbPolyline
 62
250
  6
CONTINUOUS
 90
85
 70
0
 10
22.3
 20
24.2061739337
 10
22.3469099212
 20
24.205765475
 10
22.393141751
 20
24.2041800296
 10
22.4386659028
 20
24.2014662809
 10
22.4831183211
 20
24.1976974663
 10
22.5268123545
 20
24.192913311
 10
22.5707320161
 20
24.1870420548
 10
22.6152020471
 20
24.1799982226
 10
22.6598349827
 20
24.1718089498
 10
22.7045424362
 20
24.1625064528
 10
22.749404248
 20
24.1520600102
 10
22.7942802323
 20
24.1404656247
 10
22.8387619814
 20
24.1278285512
 10
22.883196974
 20
24.1140469745
 10
22.9271863732
 20
24.0992344687
 10
22.969246954
 20
24.0839552803
 10
23.0089516166
 20
24.0685078757
 10
23.0467746688
 20
24.0528442314
 10
23.0826290119
 20
24.0371154371
 10
23.1163877608
 20
24.0215114911
 10
23.1482421179
 20
24.0060564996
 10
23.1785763094
 20
23.990630973
 10
23.2072594804
 20
23.9753801483
 10
23.2344716988
 20
23.960302172
 10
23.2610315688
 20
23.9449918962
 10
23.2869825731
 20
23.9294437817
 10
23.3122871254
 20
23.9137084995
 10
23.3376019389
 20
23.8973937163
 10
23.3630443088
 20
23.8803987717
 10
23.3884632553
 20
23.8628037712
 10
23.414086113
 20
23.8444447886
 10
23.4398945936
 20
23.8253014817
 10
23.4658568096
 20
23.8053551747
 10
23.4921624008
 20
23.7844214556
 10
23.5187233038
 20
23.7625146029
 10
23.5455535227
 20
23.7395620975
 10
23.5729674327
 20
23.7152181224
 10
23.6011556746
 20
23.6891942638
 10
23.6297900398
 20
23.6616689313
 10
23.6584082267
 20
23.6330017257
 10
23.6870401401
 20
23.6030878615
 10
23.7155546064
 20
23.5719830792
 10
23.7433139972
 20
23.5403548619
 10
23.7701964175
 20
23.5083645597
 10
23.7963166597
 20
23.4758945607
 10
23.8214554124
 20
23.4432487718
 10
23.8455940998
 20
23.4105053961
 10
23.8687804271
 20
23.3776520591
 10
23.8909235941
 20
23.3448769136
 10
23.912049258
 20
23.3122160586
 10
23.9321825533
 20
23.2797039284
 10
23.9512521506
 20
23.2475370335
 10
23.9692959043
 20
23.215750048
 10
23.9863482321
 20
23.1843802092
 10
24.0023522572
 20
23.1536365467
 10
24.0173353851
 20
23.1235931748
 10
24.0313623977
 20
23.0942460851
 10
24.0444447193
 20
23.065690818
 10
24.0566157888
 20
23.0379911332
 10
24.0679360447
 20
23.0111422896
 10
24.0784575926
 20
22.9851350146
 10
24.0881842175
 20
22.9601046261
 10
24.0971982852
 20
22.9359619914
 10
24.1056514183
 20
22.9123529389
 10
24.1135144773
 20
22.8894442884
 10
24.1208683953
 20
22.8670971938
 10
24.1279832104
 20
22.8444825434
 10
24.1348790531
 20
22.82149552
 10
24.1415176828
 20
22.7982444573
 10
24.1480304975
 20
22.7742043159
 10
24.1544194651
 20
22.7492560463
 10
24.1606211403
 20
22.7235126589
 10
24.1666398753
 20
22.6967905718
 10
24.172448642
 20
22.6690277961
 10
24.1779919127
 20
22.6402819492
 10
24.1832214357
 20
22.6105488595
 10
24.1880967823
 20
22.5798042876
 10
24.1925678133
 20
22.5480755085
 10
24.1965730989
 20
22.5154386087
 10
24.2000620689
 20
22.4819655715
 10
24.202997818
 20
22.4475977691
 10
24.2053346388
 20
22.4122182236
 10
24.2070174216
 20
22.3757955901
 10
24.2079893006
 20
22.3383845315
 10
24.2081932204
 20
22.3
  0
LWPOLYLINE
  5
315
100
AcDbEntity
  8
RACCORDO
100
AcDbPolyline
 62
250
  6
CONTINUOUS
 90
63
 70
0
 10
22.282386718
 20
25.7850920892
 10
22.3728541218
 20
25.7832439582
 10
22.4620377099
 20
25.7790420767
 10
22.5500909761
 20
25.7725559103
 10
22.6366898901
 20
25.7636731572
 10
22.7217862253
 20
25.7527379736
 10
22.8059110345
 20
25.7404412998
 10
22.8887516619
 20
25.7272525537
 10
22.9700993298
 20
25.7129061687
 10
23.0507880692
 20
25.6968592918
 10
23.1315915029
 20
25.6788702713
 10
23.2124127606
 20
25.6590309251
 10
23.2926383456
 20
25.6373076887
 10
23.3729150835
 20
25.6134498893
 10
23.4524137046
 20
25.5877377283
 10
23.528354829
 20
25.5611770744
 10
23.599823741
 20
25.534360318
 10
23.6678847669
 20
25.5071267445
 10
23.7328449255
 20
25.4794983811
 10
23.7946797608
 20
25.4516479381
 10
23.8537417917
 20
25.4236034039
 10
23.9108244037
 20
25.3951257516
 10
23.9658013597
 20
25.3663388432
 10
24.0187064006
 20
25.337370693
 10
24.0704941938
 20
25.3079141197
 10
24.1209898525
 20
25.2781848281
 10
24.1699877759
 20
25.2482997214
 10
24.2184123757
 20
25.2176661129
 10
24.2663298997
 20
25.1862538874
 10
24.3135567114
 20
25.1541874045
 10
24.3606271065
 20
25.1210067088
 10
24.4075704029
 20
25.0866285922
 10
24.4544539569
 20
25.0509968309
 10
24.5018109434
 20
25.0136443553
 10
24.5495955646
 20
24.9745290967
 10
24.5978353318
 20
24.9335080791
 10
24.6470764938
 20
24.8899316832
 10
24.6976538203
 20
24.84330106
 10
24.7489508166
 20
24.7939626182
 10
24.8000902775
 20
24.7425447291
 10
24.8511143469
 20
24.6888676254
 10
24.9017980162
 20
24.6330457763
 10
24.9509808212
 20
24.5762661982
 10
24.9984332816
 20
24.5188208163
 10
25.0443682852
 20
24.4605135069
 10
25.0884009197
 20
24.4018919546
 10
25.1304911664
 20
24.3430971139
 10
25.1707289848
 20
24.2841174561
 10
25.2089770573
 20
24.2253021791
 10
25.2452796963
 20
24.1667154639
 10
25.2796816743
 20
24.1084259391
 10
25.3120801459
 20
24.0508104607
 10
25.3425340371
 20
23.993941235
 10
25.3711078164
 20
23.9378882683
 10
25.3977527339
 20
23.8830149731
 10
25.4225381721
 20
23.829422723
 10
25.4455696103
 20
23.7771038463
 10
25.4668502167
 20
23.7263170226
 10
25.486289369
 20
23.6772748709
 10
25.5041183103
 20
23.6299434796
 10
25.520893756
 20
23.5840144207
 10
25.5366703542
 20
23.5394580081
 10
25.566657555
 20
23.4527904403
  0
LINE
  5
316
100
AcDbEntity
  8
RACCORDO
100
AcDbLine
 62
250
  6
CONTINUOUS
 10
25.566657555
 20
23.4527904403
 11
25.5972404219
 21
23.3676831546
  0
LWPOLYLINE
  5
317
100
AcDbEntity
  8
RACCORDO
100
AcDbPolyline
 62
250
  6
CONTINUOUS
 90
20
 70
0
 10
25.5972404219
 20
23.3676831546
 10
25.612292541
 20
23.3242093669
 10
25.6268376754
 20
23.2798070168
 10
25.6408782379
 20
23.2349732406
 10
25.6545002906
 20
23.1888379706
 10
25.667647861
 20
23.141127572
 10
25.6803288197
 20
23.0919012772
 10
25.692679166
 20
23.0407398281
 10
25.7046779373
 20
22.9875174746
 10
25.7161669573
 20
22.9323632543
 10
25.7270438195
 20
22.8752727439
 10
25.737224872
 20
22.8162002307
 10
25.7466053571
 20
22.7552083652
 10
25.75505698
 20
22.6924552199
 10
25.7624649051
 20
22.6280789226
 10
25.7687656401
 20
22.5619624923
 10
25.773899591
 20
22.4938820977
 10
25.7777653971
 20
22.4237745264
 10
25.7802348887
 20
22.3517400281
 10
25.781191019
 20
22.2778070157
  0
LWPOLYLINE
  5
318
100
AcDbEntity
  8
RACCORDO
100
AcDbPolyline
 62
250
  6
CONTINUOUS
 90
3
 70
0
 10
36.7722495631
 20
39.2120765942
 10
36.7750900034
 20
38.9991960346
 10
36.7759547404
 20
38.8870183014
  0
LINE
  5
319
100
AcDbEntity
  8
RACCORDO
100
AcDbLine
 62
250
  6
CONTINUOUS
 10
38.9169533549
 20
36.2096631562
 11
38.924564028
 21
36.0964740775
  0
LWPOLYLINE
  5
31A
100
AcDbEntity
  8
RACCORDO
100
AcDbPolyline
 62
250
  6
CONTINUOUS
 90
7
 70
0
 10
38.924564028
 20
36.0964740775
 10
38.9280994031
 20
36.0413219717
 10
38.9313018615
 20
35.9873494453
 10
38.9341767426
 20
35.9347768544
 10
38.9363030222
 20
35.8829407715
 10
38.9372584637
 20
35.8316131855
 10
38.9377561491
 20
35.7287777786
  0
LINE
  5
31B
100
AcDbEntity
  8
RACCORDO
100
AcDbLine
 62
250
  6
CONTINUOUS
 10
38.9100970531
 20
36.3280846562
 11
38.9169533549
 21
36.2096631562
  0
LINE
  5
31C
100
AcDbEntity
  8
RACCORDO
100
AcDbLine
 62
250
  6
CONTINUOUS
 10
38.903659582
 20
36.4534991927
 11
38.9100970531
 21
36.3280846562
  0
LINE
  5
31D
100
AcDbEntity
  8
RACCORDO
100
AcDbLine
 62
250
  6
CONTINUOUS
 10
38.894724399
 20
36.6536368352
 11
38.903659582
 21
36.4534991927
  0
LINE
  5
31E
100
AcDbEntity
  8
RACCORDO
100
AcDbLine
 62
250
  6
CONTINUOUS
 10
38.8892038008
 20
36.7930119462
 11
38.894724399
 21
36.6536368352
  0
LINE
  5
31F
100
AcDbEntity
  8
RACCORDO
100
AcDbLine
 62
250
  6
CONTINUOUS
 10
38.9377561491
 20
35.7287777786
 11
38.9880990025
 21
32.1810575141
  0
LINE
  5
320
100
AcDbEntity
  8
RACCORDO
100
AcDbLine
 62
250
  6
CONTINUOUS
 10
38.9880990025
 20
32.1810575141
 11
38.9975928631
 21
31.421781517
  0
LINE
  5
321
100
AcDbEntity
  8
RACCORDO
100
AcDbLine
 62
250
  6
CONTINUOUS
 10
38.9975928631
 20
31.421781517
 11
39.007131559
 21
30.5567183758
  0
LINE
  5
322
100
AcDbEntity
  8
RACCORDO
100
AcDbLine
 62
250
  6
CONTINUOUS
 10
39.007131559
 20
30.5567183758
 11
39.0144995839
 21
29.7789951583
  0
LINE
  5
323
100
AcDbEntity
  8
RACCORDO
100
AcDbLine
 62
250
  6
CONTINUOUS
 10
39.0144995839
 20
29.7789951583
 11
39.0212898106
 21
28.9168323202
  0
LINE
  5
324
100
AcDbEntity
  8
RACCORDO
100
AcDbLine
 62
250
  6
CONTINUOUS
 10
39.0212898106
 20
28.9168323202
 11
39.0258445022
 21
28.2096067624
  0
LINE
  5
325
100
AcDbEntity
  8
RACCORDO
100
AcDbLine
 62
250
  6
CONTINUOUS
 10
39.0258445022
 20
28.2096067624
 11
39.0298129422
 21
27.4459384555
  0
LINE
  5
326
100
AcDbEntity
  8
RACCORDO
100
AcDbLine
 62
250
  6
CONTINUOUS
 10
39.0298129422
 20
27.4459384555
 11
39.034098373
 21
26.3328417078
  0
LINE
  5
327
100
AcDbEntity
  8
RACCORDO
100
AcDbLine
 62
250
  6
CONTINUOUS
 10
39.034098373
 20
26.3328417078
 11
39.0393261492
 21
24.4387119671
  0
LINE
  5
328
100
AcDbEntity
  8
RACCORDO
100
AcDbLine
 62
250
  6
CONTINUOUS
 10
39.740912983
 20
-36.6100538545
 11
39.7412429667
 21
-36.7453543625
  0
LINE
  5
329
100
AcDbEntity
  8
RACCORDO
100
AcDbLine
 62
250
  6
CONTINUOUS
 10
39.0393261492
 20
24.4387119671
 11
39.0470661798
 21
21.0058593111
  0
LINE
  5
32A
100
AcDbEntity
  8
RACCORDO
100
AcDbLine
 62
250
  6
CONTINUOUS
 10
39.7404963538
 20
-36.4171367348
 11
39.740912983
 21
-36.6100538545
  0
LINE
  5
32B
100
AcDbEntity
  8
RACCORDO
100
AcDbLine
 62
250
  6
CONTINUOUS
 10
39.0470661798
 20
21.0058593111
 11
39.053757651
 21
17.2283731795
  0
LINE
  5
32C
100
AcDbEntity
  8
RACCORDO
100
AcDbLine
 62
250
  6
CONTINUOUS
 10
39.7401773479
 20
-36.2399353509
 11
39.7404963538
 21
-36.4171367348
  0
LINE
  5
32D
100
AcDbEntity
  8
RACCORDO
100
AcDbLine
 62
250
  6
CONTINUOUS
 10
39.053757651
 20
17.2283731795
 11
39.0595185679
 21
12.6040820071
  0
LINE
  5
32E
100
AcDbEntity
  8
RACCORDO
100
AcDbLine
 62
250
  6
CONTINUOUS
 10
39.7398428979
 20
-35.9738329827
 11
39.7401773479
 21
-36.2399353509
  0
LINE
  5
32F
100
AcDbEntity
  8
RACCORDO
100
AcDbLine
 62
250
  6
CONTINUOUS
 10
39.0595185679
 20
12.6040820071
 11
39.0630802825
 21
7.711554763
  0
LINE
  5
330
100
AcDbEntity
  8
RACCORDO
100
AcDbLine
 62
250
  6
CONTINUOUS
 10
39.0630802825
 20
7.711554763
 11
39.0645679948
 21
2.7680180003
  0
LINE
  5
331
100
AcDbEntity
  8
RACCORDO
100
AcDbLine
 62
250
  6
CONTINUOUS
 10
39.7332120179
 20
-7.7167655856
 11
39.7398428979
 21
-35.9738329827
  0
LINE
  5
332
100
AcDbEntity
  8
0
100
AcDbLine
 62
7
  6
CONTINUOUS
 10
39.9056659973
 20
2.6
 11
39.9056659973
 21
-2.6
  0
LINE
  5
333
100
AcDbEntity
  8
RACCORDO
100
AcDbLine
 62
7
  6
CONTINUOUS
 10
40.0
 20
-37.0041113957
 11
40.0
 21
-5.0
  0
LINE
  5
334
100
AcDbEntity
  8
RACCORDO
100
AcDbLine
 62
7
  6
CONTINUOUS
 10
40.0
 20
5.0
 11
40.0
 21
37.0041113957
  0
LINE
  5
335
100
AcDbEntity
  8
RACCORDO
100
AcDbLine
 62
250
  6
CONTINUOUS
 10
39.0645679948
 20
2.7680180003
 11
39.0642470518
 21
-4.5033671326
  0
LINE
  5
336
100
AcDbEntity
  8
RACCORDO
100
AcDbLine
 62
250
  6
CONTINUOUS
 10
39.733617486
 20
15.6016523025
 11
39.7332120179
 21
-7.7167655856
  0
LINE
  5
337
100
AcDbEntity
  8
RACCORDO
100
AcDbLine
 62
250
  6
CONTINUOUS
 10
39.0642470518
 20
-4.5033671326
 11
39.0626788524
 21
-8.4711840515
  0
LINE
  5
338
100
AcDbEntity
  8
RACCORDO
100
AcDbLine
 62
250
  6
CONTINUOUS
 10
39.0626788524
 20
-8.4711840515
 11
39.06012082
 21
-11.9653502707
  0
LINE
  5
339
100
AcDbEntity
  8
RACCORDO
100
AcDbLine
 62
250
  6
CONTINUOUS
 10
39.06012082
 20
-11.9653502707
 11
39.0567948955
 21
-15.0428515123
  0
LINE
  5
33A
100
AcDbEntity
  8
RACCORDO
100
AcDbLine
 62
250
  6
CONTINUOUS
 10
39.0567948955
 20
-15.0428515123
 11
39.0521205702
 21
-18.256309193
  0
LINE
  5
33B
100
AcDbEntity
  8
RACCORDO
100
AcDbLine
 62
250
  6
CONTINUOUS
 10
39.0521205702
 20
-18.256309193
 11
39.0470423351
 21
-21.0176015859
  0
LINE
  5
33C
100
AcDbEntity
  8
RACCORDO
100
AcDbLine
 62
250
  6
CONTINUOUS
 10
39.0470423351
 20
-21.0176015859
 11
39.0401364151
 21
-24.1066326448
  0
LINE
  5
33D
100
AcDbEntity
  8
RACCORDO
100
AcDbLine
 62
250
  6
CONTINUOUS
 10
39.0401364151
 20
-24.1066326448
 11
39.0384491075
 21
-24.7865230298
  0
LINE
  5
33E
100
AcDbEntity
  8
RACCORDO
100
AcDbLine
 62
250
  6
CONTINUOUS
 10
39.7412429667
 20
36.7453543625
 11
39.733617486
 21
15.6016523025
  0
LINE
  5
33F
100
AcDbEntity
  8
RACCORDO
100
AcDbLine
 62
250
  6
CONTINUOUS
 10
39.0384491075
 20
-24.7865230298
 11
39.0367350734
 21
-25.4331939336
  0
LINE
  5
340
100
AcDbEntity
  8
RACCORDO
100
AcDbLine
 62
250
  6
CONTINUOUS
 10
39.0367350734
 20
-25.4331939336
 11
39.0320467775
 21
-26.9149063822
  0
LINE
  5
341
100
AcDbEntity
  8
RACCORDO
100
AcDbLine
 62
250
  6
CONTINUOUS
 10
39.0320467775
 20
-26.9149063822
 11
39.0285044269
 21
-27.71815083
  0
LINE
  5
342
100
AcDbEntity
  8
RACCORDO
100
AcDbLine
 62
250
  6
CONTINUOUS
 10
38.9377125911
 20
-35.7326264061
 11
38.9372083378
 21
-35.8353133188
  0
LINE
  5
343
100
AcDbEntity
  8
RACCORDO
100
AcDbLine
 62
250
  6
CONTINUOUS
 10
39.0285044269
 20
-27.71815083
 11
39.0243200063
 21
-28.4622261453
  0
LINE
  5
344
100
AcDbEntity
  8
RACCORDO
100
AcDbLine
 62
250
  6
CONTINUOUS
 10
39.0243200063
 20
-28.4622261453
 11
39.0179011547
 21
-29.3691880476
  0
LINE
  5
345
100
AcDbEntity
  8
RACCORDO
100
AcDbLine
 62
250
  6
CONTINUOUS
 10
39.0179011547
 20
-29.3691880476
 11
39.0107741692
 21
-30.187698113
  0
LINE
  5
346
100
AcDbEntity
  8
RACCORDO
100
AcDbLine
 62
250
  6
CONTINUOUS
 10
39.0107741692
 20
-30.187698113
 11
39.0032356255
 21
-30.9256999504
  0
LINE
  5
347
100
AcDbEntity
  8
RACCORDO
100
AcDbLine
 62
250
  6
CONTINUOUS
 10
39.0032356255
 20
-30.9256999504
 11
38.9936618214
 21
-31.7459357398
  0
LINE
  5
348
100
AcDbEntity
  8
RACCORDO
100
AcDbLine
 62
250
  6
CONTINUOUS
 10
38.9936618214
 20
-31.7459357398
 11
38.9806913877
 21
-32.7308803548
  0
LINE
  5
349
100
AcDbEntity
  8
RACCORDO
100
AcDbLine
 62
250
  6
CONTINUOUS
 10
38.9806913877
 20
-32.7308803548
 11
38.975493072
 21
-33.1041937333
  0
LINE
  5
34A
100
AcDbEntity
  8
RACCORDO
100
AcDbLine
 62
250
  6
CONTINUOUS
 10
38.947231472
 20
-35.0709559821
 11
38.9434605872
 21
-35.3382880109
  0
LINE
  5
34B
100
AcDbEntity
  8
RACCORDO
100
AcDbLine
 62
250
  6
CONTINUOUS
 10
38.975493072
 20
-33.1041937333
 11
38.9705556509
 21
-33.4522595612
  0
LINE
  5
34C
100
AcDbEntity
  8
RACCORDO
100
AcDbLine
 62
250
  6
CONTINUOUS
 10
38.9493281459
 20
-34.9248044786
 11
38.947231472
 21
-35.0709559821
  0
LINE
  5
34D
100
AcDbEntity
  8
RACCORDO
100
AcDbLine
 62
250
  6
CONTINUOUS
 10
38.9705556509
 20
-33.4522595612
 11
38.9493281459
 21
-34.9248044786
  0
LINE
  5
34E
100
AcDbEntity
  8
RACCORDO
100
AcDbLine
 62
250
  6
CONTINUOUS
 10
38.9434605872
 20
-35.3382880109
 11
38.9377125911
 21
-35.7326264061
  0
LWPOLYLINE
  5
34F
100
AcDbEntity
  8
RACCORDO
100
AcDbPolyline
 62
250
  6
CONTINUOUS
 90
3
 70
0
 10
38.9372083378
 20
-35.8353133188
 10
38.9362349339
 20
-35.8865679131
 10
38.9340644988
 20
-35.9382396534
  0
LWPOLYLINE
  5
350
100
AcDbEntity
  8
RACCORDO
100
AcDbPolyline
 62
250
  6
CONTINUOUS
 90
22
 70
0
 10
39.7412429667
 20
-36.7453543625
 10
39.7330793983
 20
-36.9689011819
 10
39.7082809658
 20
-37.1912538424
 10
39.6669633533
 20
-37.4111804183
 10
39.6093522454
 20
-37.6273923174
 10
39.5357371115
 20
-37.8387541185
 10
39.4464221941
 20
-38.0442737209
 10
39.3417097499
 20
-38.2430112613
 10
39.2222217396
 20
-38.433572494
 10
39.088944894
 20
-38.6143859359
 10
38.9429083289
 20
-38.7842271812
 10
38.7847820854
 20
-38.942470754
 10
38.6151614832
 20
-39.0885458488
 10
38.4347948929
 20
-39.2217349182
 10
38.2448253423
 20
-39.3411226687
 10
38.0464914801
 20
-39.4459201472
 10
37.8409607134
 20
-39.5355343905
 10
37.6293361425
 20
-39.6095056242
 10
37.4128462964
 20
-39.6674225319
 10
37.192717315
 20
-39.7089826939
 10
36.9701622774
 20
-39.7339829296
 10
36.7464187043
 20
-39.7423073086
  0
LINE
  5
351
100
AcDbEntity
  8
RACCORDO
100
AcDbLine
 62
250
  6
CONTINUOUS
 10
38.8976149588
 20
-36.5858786651
 11
38.8892038015
 21
-36.7930119461
  0
LINE
  5
352
100
AcDbEntity
  8
RACCORDO
100
AcDbLine
 62
250
  6
CONTINUOUS
 10
38.9036306936
 20
-36.4540963575
 11
38.8976149588
 21
-36.5858786651
  0
LINE
  5
353
100
AcDbEntity
  8
RACCORDO
100
AcDbLine
 62
250
  6
CONTINUOUS
 10
38.9100295922
 20
-36.3293191452
 11
38.9036306936
 21
-36.4540963575
  0
LINE
  5
354
100
AcDbEntity
  8
RACCORDO
100
AcDbLine
 62
250
  6
CONTINUOUS
 10
38.9168378936
 20
-36.211555792
 11
38.9100295922
 21
-36.3293191452
  0
LWPOLYLINE
  5
355
100
AcDbEntity
  8
RACCORDO
100
AcDbPolyline
 62
250
  6
CONTINUOUS
 90
4
 70
0
 10
38.9340644988
 20
-35.9382396534
 10
38.9278997205
 20
-36.0441757561
 10
38.9243772517
 20
-36.0990020461
 10
38.9168378936
 20
-36.211555792
  0
LWPOLYLINE
  5
356
100
AcDbEntity
  8
RACCORDO
100
AcDbPolyline
 62
250
  6
CONTINUOUS
 90
22
 70
0
 10
38.8892029421
 20
-36.7930116668
 10
38.8777656674
 20
-36.9467089634
 10
38.8552612584
 20
-37.0996843221
 10
38.8217968474
 20
-37.2509626305
 10
38.7775681381
 20
-37.3996556738
 10
38.7227956942
 20
-37.54504113
 10
38.6576513744
 20
-37.6864691052
 10
38.5823217453
 20
-37.8233331539
 10
38.49724812
 20
-37.9547259898
 10
38.4030685608
 20
-38.0795841602
 10
38.30043658
 20
-38.1970778129
 10
38.1898001224
 20
-38.3068426637
 10
38.0715171112
 20
-38.4085270963
 10
37.9460344345
 20
-38.5016455096
 10
37.8141277165
 20
-38.5856280884
 10
37.6766237825
 20
-38.6599752552
 10
37.5342726319
 20
-38.7242720345
 10
37.3877718483
 20
-38.7782488015
 10
37.2378906736
 20
-38.8216839475
 10
37.0853821358
 20
-38.8543731782
 10
36.9310796986
 20
-38.8761758365
 10
36.7759547799
 20
-38.8870184789
  0
LWPOLYLINE
  5
357
100
AcDbEntity
  8
RACCORDO
100
AcDbPolyline
 62
250
  6
CONTINUOUS
 90
5
 70
0
 10
-36.7759549352
 20
38.8870192305
 10
-36.6352399004
 20
38.8934257456
 10
-36.4985850331
 20
38.8986416404
 10
-36.3669784192
 20
38.9026611236
 10
-36.2426096521
 20
38.9050750546
  0
LINE
  5
358
100
AcDbEntity
  8
RACCORDO
100
AcDbLine
 62
250
  6
CONTINUOUS
 10
-31.9259228821
 20
38.9620660633
 11
-30.6803947434
 21
38.9824572351
  0
LINE
  5
359
100
AcDbEntity
  8
RACCORDO
100
AcDbLine
 62
250
  6
CONTINUOUS
 10
-30.6803947434
 20
38.9824572351
 11
-30.1337074367
 21
38.9899920285
  0
LINE
  5
35A
100
AcDbEntity
  8
RACCORDO
100
AcDbLine
 62
250
  6
CONTINUOUS
 10
-30.1337074367
 20
38.9899920285
 11
-28.6328096903
 21
39.0070493691
  0
LINE
  5
35B
100
AcDbEntity
  8
RACCORDO
100
AcDbLine
 62
250
  6
CONTINUOUS
 10
-28.6328096903
 20
39.0070493691
 11
-26.553890391
 21
39.0299726513
  0
LINE
  5
35C
100
AcDbEntity
  8
RACCORDO
100
AcDbLine
 62
250
  6
CONTINUOUS
 10
-36.2426096521
 20
38.9050750546
 11
-31.9259228821
 21
38.9620660633
  0
LINE
  5
35D
100
AcDbEntity
  8
RACCORDO
100
AcDbLine
 62
250
  6
CONTINUOUS
 10
-26.553890391
 20
39.0299726513
 11
-25.3848436214
 21
39.0416622854
  0
LINE
  5
35E
100
AcDbEntity
  8
RACCORDO
100
AcDbLine
 62
250
  6
CONTINUOUS
 10
-25.3848436214
 20
39.0416622854
 11
-24.5516744051
 21
39.0489452509
  0
LINE
  5
35F
100
AcDbEntity
  8
RACCORDO
100
AcDbLine
 62
250
  6
CONTINUOUS
 10
-24.5516744051
 20
39.0489452509
 11
-23.6722722313
 21
39.0555306542
  0
LINE
  5
360
100
AcDbEntity
  8
RACCORDO
100
AcDbLine
 62
250
  6
CONTINUOUS
 10
-23.6722722313
 20
39.0555306542
 11
-22.7447027061
 21
39.0612772277
  0
LINE
  5
361
100
AcDbEntity
  8
RACCORDO
100
AcDbLine
 62
250
  6
CONTINUOUS
 10
-22.7447027061
 20
39.0612772277
 11
-21.7658582126
 21
39.0659824395
  0
LINE
  5
362
100
AcDbEntity
  8
RACCORDO
100
AcDbLine
 62
250
  6
CONTINUOUS
 10
-21.7658582126
 20
39.0659824395
 11
-20.7326414856
 21
39.0694789381
  0
LINE
  5
363
100
AcDbEntity
  8
RACCORDO
100
AcDbLine
 62
250
  6
CONTINUOUS
 10
-20.7326414856
 20
39.0694789381
 11
-19.6430591507
 21
39.0716910486
  0
LINE
  5
364
100
AcDbEntity
  8
RACCORDO
100
AcDbLine
 62
250
  6
CONTINUOUS
 10
13.4471805444
 20
39.0664603388
 11
16.4957453976
 21
39.071194681
  0
LINE
  5
365
100
AcDbEntity
  8
RACCORDO
100
AcDbLine
 62
250
  6
CONTINUOUS
 10
11.7499445063
 20
39.0646774313
 11
13.4471805444
 21
39.0664603388
  0
LINE
  5
366
100
AcDbEntity
  8
RACCORDO
100
AcDbLine
 62
250
  6
CONTINUOUS
 10
16.4957453976
 20
39.071194681
 11
17.8657114719
 21
39.0724247869
  0
LINE
  5
367
100
AcDbEntity
  8
RACCORDO
100
AcDbLine
 62
250
  6
CONTINUOUS
 10
35.984677141
 20
39.7416131492
 11
36.7464187043
 21
39.7423073086
  0
LINE
  5
368
100
AcDbEntity
  8
RACCORDO
100
AcDbLine
 62
250
  6
CONTINUOUS
 10
-19.6430591507
 20
39.0716910486
 11
-18.4940673375
 21
39.0725125071
  0
LINE
  5
369
100
AcDbEntity
  8
RACCORDO
100
AcDbLine
 62
250
  6
CONTINUOUS
 10
-11.7500165201
 20
39.0646774357
 11
11.7499445063
 21
39.0646774354
  0
LINE
  5
36A
100
AcDbEntity
  8
RACCORDO
100
AcDbLine
 62
7
  6
CONTINUOUS
 10
37.0041113957
 20
40.0
 11
-37.0041113957
 21
40.0
  0
LWPOLYLINE
  5
36B
100
AcDbEntity
  8
RACCORDO
100
AcDbPolyline
 62
250
  6
CONTINUOUS
 90
3
 70
0
 10
11.7499940355
 20
39.733118734
 10
15.7759480581
 20
39.7327967642
 10
35.984677141
 20
39.7416131492
  0
LINE
  5
36C
100
AcDbEntity
  8
RACCORDO
100
AcDbLine
 62
250
  6
CONTINUOUS
 10
17.8657114719
 20
39.0724247869
 11
19.1470187642
 21
39.0722105893
  0
LINE
  5
36D
100
AcDbEntity
  8
RACCORDO
100
AcDbLine
 62
250
  6
CONTINUOUS
 10
-18.4940673375
 20
39.0725125071
 11
-17.2832792508
 21
39.0720590331
  0
LINE
  5
36E
100
AcDbEntity
  8
RACCORDO
100
AcDbLine
 62
250
  6
CONTINUOUS
 10
-30.9288216003
 20
39.7376161264
 11
11.7499940355
 21
39.733118734
  0
LINE
  5
36F
100
AcDbEntity
  8
RACCORDO
100
AcDbLine
 62
250
  6
CONTINUOUS
 10
-36.7464187043
 20
39.7423073086
 11
-30.9288216003
 21
39.7376161264
  0
LWPOLYLINE
  5
370
100
AcDbEntity
  8
RACCORDO
100
AcDbPolyline
 62
250
  6
CONTINUOUS
 90
4
 70
0
 10
-17.2832792508
 20
39.0720590331
 10
-15.3478218968
 20
39.0694011032
 10
-14.6701136552
 20
39.0681344332
 10
-11.7500165202
 20
39.064677466
  0
LINE
  5
371
100
AcDbEntity
  8
RACCORDO
100
AcDbLine
 62
250
  6
CONTINUOUS
 10
19.1470187642
 20
39.0722105893
 11
20.3455559928
 21
39.0704411018
  0
LINE
  5
372
100
AcDbEntity
  8
RACCORDO
100
AcDbLine
 62
250
  6
CONTINUOUS
 10
20.3455559928
 20
39.0704411018
 11
21.4694099139
 21
39.0671219954
  0
LINE
  5
373
100
AcDbEntity
  8
RACCORDO
100
AcDbLine
 62
250
  6
CONTINUOUS
 10
21.4694099139
 20
39.0671219954
 11
22.5249747094
 21
39.062461794
  0
LINE
  5
374
100
AcDbEntity
  8
RACCORDO
100
AcDbLine
 62
250
  6
CONTINUOUS
 10
22.5249747094
 20
39.062461794
 11
23.5162676584
 21
39.0565921199
  0
LINE
  5
375
100
AcDbEntity
  8
RACCORDO
100
AcDbLine
 62
250
  6
CONTINUOUS
 10
23.5162676584
 20
39.0565921199
 11
24.4489086985
 21
39.0497609368
  0
LINE
  5
376
100
AcDbEntity
  8
RACCORDO
100
AcDbLine
 62
250
  6
CONTINUOUS
 10
24.4489086985
 20
39.0497609368
 11
25.3274887315
 21
39.0422011628
  0
LINE
  5
377
100
AcDbEntity
  8
RACCORDO
100
AcDbLine
 62
250
  6
CONTINUOUS
 10
25.3274887315
 20
39.0422011628
 11
26.5507908738
 21
39.0300291577
  0
LINE
  5
378
100
AcDbEntity
  8
RACCORDO
100
AcDbLine
 62
250
  6
CONTINUOUS
 10
26.5507908738
 20
39.0300291577
 11
27.3083620082
 21
39.0218422441
  0
LINE
  5
379
100
AcDbEntity
  8
RACCORDO
100
AcDbLine
 62
250
  6
CONTINUOUS
 10
27.3083620082
 20
39.0218422441
 11
30.2289134695
 21
38.9890489156
  0
LINE
  5
37A
100
AcDbEntity
  8
RACCORDO
100
AcDbLine
 62
250
  6
CONTINUOUS
 10
35.204838361
 20
38.9175713828
 11
36.2391538413
 21
38.9051454303
  0
LINE
  5
37B
100
AcDbEntity
  8
RACCORDO
100
AcDbLine
 62
250
  6
CONTINUOUS
 10
32.5015128664
 20
38.9545561142
 11
32.9322787391
 21
38.9489383641
  0
LINE
  5
37C
100
AcDbEntity
  8
RACCORDO
100
AcDbLine
 62
250
  6
CONTINUOUS
 10
34.5920513225
 20
38.9257226888
 11
35.204838361
 21
38.9175713828
  0
LINE
  5
37D
100
AcDbEntity
  8
RACCORDO
100
AcDbLine
 62
250
  6
CONTINUOUS
 10
33.9074875937
 20
38.9352184299
 11
34.5920513225
 21
38.9257226888
  0
LINE
  5
37E
100
AcDbEntity
  8
RACCORDO
100
AcDbLine
 62
250
  6
CONTINUOUS
 10
31.8071714262
 20
38.9640463511
 11
32.5015128664
 21
38.9545561142
  0
LWPOLYLINE
  5
37F
100
AcDbEntity
  8
RACCORDO
100
AcDbPolyline
 62
250
  6
CONTINUOUS
 90
3
 70
0
 10
32.9322787391
 20
38.9489383641
 10
33.5341370621
 20
38.94054914
 10
33.9074875937
 20
38.9352184299
  0
LINE
  5
380
100
AcDbEntity
  8
RACCORDO
100
AcDbLine
 62
250
  6
CONTINUOUS
 10
30.2289134695
 20
38.9890489156
 11
30.7837151822
 21
38.9807447977
  0
LINE
  5
381
100
AcDbEntity
  8
RACCORDO
100
AcDbLine
 62
250
  6
CONTINUOUS
 10
30.7837151822
 20
38.9807447977
 11
31.8071714262
 21
38.9640463511
  0
LWPOLYLINE
  5
382
100
AcDbEntity
  8
RACCORDO
100
AcDbPolyline
 62
250
  6
CONTINUOUS
 90
5
 70
0
 10
36.2391538413
 20
38.9051454303
 10
36.3641862627
 20
38.9027282303
 10
36.4965307301
 20
38.898693635
 10
36.6341141753
 20
38.8934550804
 10
36.7759544934
 20
38.8870170706
  0
LWPOLYLINE
  5
383
100
AcDbEntity
  8
RACCORDO
100
AcDbPolyline
 62
250
  6
CONTINUOUS
 90
22
 70
0
 10
36.7464187043
 20
39.7423073086
 10
36.9701596704
 20
39.7339831144
 10
37.1927148613
 20
39.7089830411
 10
37.4128466854
 20
39.6674224104
 10
37.6293404908
 20
39.6095042522
 10
37.8409713737
 20
39.5355301863
 10
38.0465144887
 20
39.4459090478
 10
38.2448727315
 20
39.3410952732
 10
38.4348701568
 20
39.2216835509
 10
38.6152516727
 20
39.0884738703
 10
38.7848699291
 20
38.9423891956
 10
38.9429846374
 20
38.7841448833
 10
39.0890048462
 20
38.6143107035
 10
39.2222603883
 20
38.433515776
 10
39.3417260897
 20
38.2429829763
 10
39.4464228326
 20
38.0442724799
 10
39.5357287399
 20
37.8387756285
 10
39.6093396898
 20
37.6274332988
 10
39.6669520419
 20
37.4112302775
 10
39.7082742019
 20
37.1912989383
 10
39.7330772684
 20
36.9689296602
 10
39.7412429667
 20
36.7453543625
  0
LWPOLYLINE
  5
384
100
AcDbEntity
  8
RACCORDO
100
AcDbPolyline
 62
250
  6
CONTINUOUS
 90
22
 70
0
 10
36.7759547404
 20
38.8870183014
 10
36.9310888587
 20
38.876176449
 10
37.0853944189
 20
38.8543725797
 10
37.2378983301
 20
38.8216813757
 10
37.3877773673
 20
38.7782474009
 10
37.5342801674
 20
38.7242700576
 10
37.6766396671
 20
38.6599655923
 10
37.8141625613
 20
38.585606734
 10
37.946090621
 20
38.5016085886
 10
38.071582682
 20
38.4084745139
 10
38.1898635876
 20
38.306782965
 10
38.3004930515
 20
38.1970189262
 10
38.4031129945
 20
38.0795296887
 10
38.4972764675
 20
37.9546827187
 10
38.5823358806
 20
37.8233106502
 10
38.6576545904
 20
37.6864667167
 10
38.7227899096
 20
37.5450545513
 10
38.7775595764
 20
37.3996818887
 10
38.8217896678
 20
37.2509917743
 10
38.8552555401
 20
37.0997037344
 10
38.8777633109
 20
36.9467181314
 10
38.8892030235
 20
36.7930116933
  0
LWPOLYLINE
  5
385
100
AcDbEntity
  8
0
100
AcDbPolyline
 62
7
  6
CONTINUOUS
 90
13
 70
0
 43
0.3500000006
 10
-1.9285714102
 20
50.4642859039
 10
-2.2142856617
 20
50.6785703888
 10
-2.2142856617
 20
51.3214283752
 10
-1.9285714102
 20
51.7500018768
 10
-1.2857142735
 20
51.7500018768
 10
-1.0000000219
 20
51.3214283752
 10
-1.0000000219
 20
50.6785703888
 10
-1.2857142735
 20
50.4642859039
 10
-0.8571428254
 20
50.0357124023
 10
-0.8571428254
 20
49.178569931
 10
-1.2857142735
 20
48.7500009613
 10
-1.9285714102
 20
48.7500009613
 10
-2.3571427875
 20
49.178569931
  0
LWPOLYLINE
  5
386
100
AcDbEntity
  8
RACCORDO
100
AcDbPolyline
 62
250
  6
CONTINUOUS
 90
12
 70
0
 10
36.7464187043
 20
-39.7423073086
 10
36.7498597926
 20
-39.7297827389
 10
36.7532558253
 20
-39.7043325547
 10
36.7565623156
 20
-39.6662903504
 10
36.75973595
 20
-39.616154774
 10
36.762735156
 20
-39.55458299
 10
36.765520647
 20
-39.4823820659
 10
36.7680559376
 20
-39.4004983933
 10
36.7703078223
 20
-39.3100052831
 10
36.7722468099
 20
-39.2120888962
 10
36.7738475103
 20
-39.1080326961
 10
36.7759549346
 20
-38.8870192278
  0
LWPOLYLINE
  5
387
100
AcDbEntity
  8
RACCORDO
100
AcDbPolyline
 62
250
  6
CONTINUOUS
 90
10
 70
0
 10
36.7464186976
 20
39.7422720652
 10
36.749860647
 20
39.7297481534
 10
36.7532574739
 20
39.7042992095
 10
36.756564656
 20
39.6662587997
 10
36.7597388471
 20
39.6161255301
 10
36.7627384449
 20
39.5545565107
 10
36.7655241369
 20
39.4823587435
 10
36.7680594161
 20
39.4004785439
 10
36.7703110595
 20
39.3099891378
 10
36.7722495631
 20
39.2120765942
  0
LWPOLYLINE
  5
388
100
AcDbEntity
  8
RACCORDO
100
AcDbPolyline
 62
250
  6
CONTINUOUS
 90
13
 70
0
 10
39.7412054455
 20
-36.7453543547
 10
39.7287312909
 20
-36.7508985372
 10
39.7033923106
 20
-36.7563704114
 10
39.6655190659
 20
-36.7616985935
 10
39.6156056347
 20
-36.7668135745
 10
39.5543031659
 20
-36.7716486265
 10
39.4824113847
 20
-36.776140673
 10
39.4008681601
 20
-36.7802311128
 10
39.3107372693
 20
-36.783866584
 10
39.2131945208
 20
-36.7869996599
 10
39.1095124147
 20
-36.7895894678
 10
39.0010435426
 20
-36.7916022226
 10
38.8892029421
 20
-36.7930116668
  0
LWPOLYLINE
  5
389
100
AcDbEntity
  8
RACCORDO
100
AcDbPolyline
 62
250
  6
CONTINUOUS
 90
13
 70
0
 10
39.7412429667
 20
36.7453543625
 10
39.7287679399
 20
36.750898719
 10
39.7034275003
 20
36.7563707465
 10
39.6655522403
 20
36.7616990581
 10
39.6156362822
 20
36.7668141423
 10
39.5543308317
 20
36.7716492688
 10
39.4824356822
 20
36.7761413593
 10
39.4008887808
 20
36.7802318113
 10
39.3107539918
 20
36.7838672622
 10
39.2132072174
 20
36.7870002851
 10
39.1095210569
 20
36.7895900081
 10
39.0010482042
 20
36.791602647
 10
38.8892038008
 20
36.7930119462
  0
LINE
  5
38A
100
AcDbEntity
  8
RACCORDO
100
AcDbLine
 62
7
  6
CONTINUOUS
 10
-57.8422267716
 20
39.7011578578
 11
-57.9444175666
 21
39.668372413
  0
LINE
  5
38B
100
AcDbEntity
  8
RACCORDO
100
AcDbLine
 62
7
  6
CONTINUOUS
 10
-57.6405877129
 20
-39.7325717313
 11
-52.5377523643
 21
-40.0
  0
LWPOLYLINE
  5
38C
100
AcDbEntity
  8
RACCORDO
100
AcDbPolyline
 62
250
  6
CONTINUOUS
 90
13
 70
0
 10
-57.4548218326
 20
-39.7423073086
 10
-57.5685716789
 20
-39.7297827389
 10
-57.6801444756
 20
-39.7043325547
 10
-57.7880777538
 20
-39.6662903504
 10
-57.8909567502
 20
-39.616154774
 10
-57.9874329519
 20
-39.55458299
 10
-58.0762417725
 20
-39.4823820659
 10
-58.1562191272
 20
-39.4004983933
 10
-58.2263166923
 20
-39.3100052831
 10
-58.2856156457
 20
-39.2120888962
 10
-58.3333387108
 20
-39.1080326961
 10
-58.3688603448
 20
-38.9992006255
 10
-58.3917149384
 20
-38.8870192278
  0
LWPOLYLINE
  5
38D
100
AcDbEntity
  8
0
100
AcDbPolyline
 62
7
  6
CONTINUOUS
 90
10
 70
0
 43
0.3500000006
 10
-59.9663239288
 20
48.7500009613
 10
-59.1091814575
 20
49.6071434326
 10
-58.8948969727
 20
50.4642859039
 10
-58.8948969727
 20
51.3214283752
 10
-59.3234659424
 20
51.7500018768
 10
-59.9663239288
 20
51.7500018768
 10
-60.3948974304
 20
51.3214283752
 10
-60.3948974304
 20
50.4642859039
 10
-59.9663239288
 20
50.0357124023
 10
-59.0377502747
 20
50.0357124023
  0
LWPOLYLINE
  5
38E
100
AcDbEntity
  8
RACCORDO
100
AcDbPolyline
 62
7
  6
CONTINUOUS
 90
9
 70
0
 10
-57.9444175666
 20
39.668372413
 10
-58.0395523265
 20
39.6263244677
 10
-58.1298326161
 20
39.5746042608
 10
-58.214272276
 20
39.5137657737
 10
-58.2919503238
 20
39.4444620843
 10
-58.3620206035
 20
39.3674367206
 10
-58.4237171373
 20
39.2835185161
 10
-58.4763634762
 20
39.1936124091
 10
-58.5193803153
 20
39.0986899328
  0
LWPOLYLINE
  5
38F
100
AcDbEntity
  8
RACCORDO
100
AcDbPolyline
 62
7
  6
CONTINUOUS
 90
7
 70
0
 10
-57.9401368354
 20
39.6699929241
 10
-58.0346231814
 20
39.6288003503
 10
-58.1246282638
 20
39.5779345628
 10
-58.2091051235
 20
39.5178860985
 10
-58.2870864946
 20
39.4492468486
 10
-58.3576925771
 20
39.3726870817
 10
-58.4201012164
 20
39.2889771373
  0
LINE
  5
390
100
AcDbEntity
  8
RACCORDO
100
AcDbLine
 62
250
  6
CONTINUOUS
 10
-58.3877077141
 20
-36.7916022226
 11
-58.4108376207
 21
-36.7930116668
  0
LINE
  5
391
100
AcDbEntity
  8
RACCORDO
100
AcDbLine
 62
250
  6
CONTINUOUS
 10
-58.2448128731
 20
-36.783866584
 11
-58.3877077141
 21
-36.7916022226
  0
LINE
  5
392
100
AcDbEntity
  8
RACCORDO
100
AcDbLine
 62
250
  6
CONTINUOUS
 10
-57.475128719
 20
-36.7453543547
 11
-58.2448128731
 21
-36.783866584
  0
LINE
  5
393
100
AcDbEntity
  8
RACCORDO
100
AcDbLine
 62
250
  6
CONTINUOUS
 10
-57.4751306849
 20
-36.7453543625
 11
-52.5377523643
 21
-37.0041113957
  0
LWPOLYLINE
  5
394
100
AcDbEntity
  8
RACCORDO
100
AcDbPolyline
 62
250
  6
CONTINUOUS
 90
6
 70
0
 10
-61.4503640289
 20
-22.289691675
 10
-61.3818989515
 20
-22.2871925038
 10
-61.3247801243
 20
-22.2847447636
 10
-61.2792364705
 20
-22.2823582692
 10
-61.2454505222
 20
-22.2800425893
 10
-61.2235576881
 20
-22.2778070086
  0
LINE
  5
395
100
AcDbEntity
  8
RACCORDO
100
AcDbLine
 62
250
  6
CONTINUOUS
 10
-61.6201909698
 20
-22.2948040602
 11
-61.4503640289
 21
-22.289691675
  0
LINE
  5
396
100
AcDbEntity
  8
RACCORDO
100
AcDbLine
 62
250
  6
CONTINUOUS
 10
-61.8315411143
 20
-22.3
 11
-61.6201909698
 21
-22.2948040602
  0
LINE
  5
397
100
AcDbEntity
  8
RACCORDO
100
AcDbLine
 62
250
  6
CONTINUOUS
 10
-62.0377523643
 20
-22.3
 11
-61.8315413833
 21
-22.3
  0
LWPOLYLINE
  5
398
100
AcDbEntity
  8
RACCORDO
100
AcDbPolyline
 62
7
  6
CONTINUOUS
 90
4
 70
0
 10
-58.4201012164
 20
39.2889771373
 10
-58.4735663096
 20
39.1989778466
 10
-58.5174287181
 20
39.1036345807
 10
-58.5293030385
 20
39.0722695496
  0
LINE
  5
399
100
AcDbEntity
  8
RACCORDO
100
AcDbLine
 62
7
  6
CONTINUOUS
 10
-61.6151720224
 20
24.5405715785
 11
-61.6383271602
 21
24.5000165128
  0
LINE
  5
39A
100
AcDbEntity
  8
RACCORDO
100
AcDbLine
 62
7
  6
CONTINUOUS
 10
-61.6323714307
 20
24.5103087005
 11
-61.6554022211
 21
24.4710194475
  0
LINE
  5
39B
100
AcDbEntity
  8
RACCORDO
100
AcDbLine
 62
7
  6
CONTINUOUS
 10
-61.649597963
 20
24.4807932844
 11
-61.6725251978
 21
24.4426674249
  0
LINE
  5
39C
100
AcDbEntity
  8
RACCORDO
100
AcDbLine
 62
7
  6
CONTINUOUS
 10
-61.6669573224
 20
24.4518094232
 11
-61.6893305385
 21
24.4155111365
  0
LINE
  5
39D
100
AcDbEntity
  8
RACCORDO
100
AcDbLine
 62
7
  6
CONTINUOUS
 10
-61.6843070322
 20
24.4235614143
 11
-61.7059205654
 21
24.3893207741
  0
LINE
  5
39E
100
AcDbEntity
  8
RACCORDO
100
AcDbLine
 62
7
  6
CONTINUOUS
 10
-61.7011459145
 20
24.3967973314
 11
-61.7221305129
 21
24.3642952403
  0
LINE
  5
39F
100
AcDbEntity
  8
RACCORDO
100
AcDbLine
 62
7
  6
CONTINUOUS
 10
-61.7175962131
 20
24.3712407561
 11
-61.73714287
 21
24.3415944386
  0
LWPOLYLINE
  5
3A0
100
AcDbEntity
  8
RACCORDO
100
AcDbPolyline
 62
7
  6
CONTINUOUS
 90
4
 70
0
 10
-61.7334573509
 20
24.3471261397
 10
-61.7508743994
 20
24.3212149646
 10
-61.7632935433
 20
24.3030883109
 10
-61.773611352
 20
24.2882422436
  0
LINE
  5
3A1
100
AcDbEntity
  8
RACCORDO
100
AcDbLine
 62
7
  6
CONTINUOUS
 10
-61.773611352
 20
24.2882422436
 11
-61.7864422055
 21
24.27004261
  0
LWPOLYLINE
  5
3A2
100
AcDbEntity
  8
RACCORDO
100
AcDbPolyline
 62
7
  6
CONTINUOUS
 90
4
 70
0
 10
-61.8330855219
 20
24.2061747337
 10
-61.7225372247
 20
24.3611879857
 10
-61.6220457257
 20
24.5229023213
 10
-61.5429089875
 20
24.6689448888
  0
LINE
  5
3A3
100
AcDbEntity
  8
RACCORDO
100
AcDbLine
 62
7
  6
CONTINUOUS
 10
-61.7864422055
 20
24.27004261
 11
-61.7962530216
 21
24.2563177073
  0
LINE
  5
3A4
100
AcDbEntity
  8
RACCORDO
100
AcDbLine
 62
7
  6
CONTINUOUS
 10
-61.7962530216
 20
24.2563177073
 11
-61.8046500371
 21
24.2446989745
  0
LINE
  5
3A5
100
AcDbEntity
  8
RACCORDO
100
AcDbLine
 62
7
  6
CONTINUOUS
 10
-61.8046500371
 20
24.2446989745
 11
-61.8126530709
 21
24.2337343129
  0
LINE
  5
3A6
100
AcDbEntity
  8
RACCORDO
100
AcDbLine
 62
7
  6
CONTINUOUS
 10
-61.8125534383
 20
24.233870089
 11
-61.8202379373
 21
24.2234411164
  0
LINE
  5
3A7
100
AcDbEntity
  8
RACCORDO
100
AcDbLine
 62
7
  6
CONTINUOUS
 10
-61.8202379373
 20
24.2234411164
 11
-61.8276697168
 21
24.2134474441
  0
LINE
  5
3A8
100
AcDbEntity
  8
RACCORDO
100
AcDbLine
 62
7
  6
CONTINUOUS
 10
-61.8276697168
 20
24.2134474441
 11
-61.8324212646
 21
24.2071061698
  0
LINE
  5
3A9
100
AcDbEntity
  8
RACCORDO
100
AcDbLine
 62
7
  6
CONTINUOUS
 10
-61.8323632375
 20
-24.2071833928
 11
-61.8248136665
 21
-24.2172775516
  0
LINE
  5
3AA
100
AcDbEntity
  8
RACCORDO
100
AcDbLine
 62
7
  6
CONTINUOUS
 10
-61.8248136665
 20
-24.2172775516
 11
-61.8172047742
 21
-24.2275458805
  0
LINE
  5
3AB
100
AcDbEntity
  8
RACCORDO
100
AcDbLine
 62
7
  6
CONTINUOUS
 10
-61.8172527428
 20
-24.2274806618
 11
-61.8094028945
 21
-24.2381743223
  0
LINE
  5
3AC
100
AcDbEntity
  8
RACCORDO
100
AcDbLine
 62
7
  6
CONTINUOUS
 10
-61.8095724593
 20
-24.2379422525
 11
-61.801488221
 21
-24.24906005
  0
LINE
  5
3AD
100
AcDbEntity
  8
RACCORDO
100
AcDbLine
 62
7
  6
CONTINUOUS
 10
-61.8021514804
 20
-24.2481439316
 11
-61.7940120893
 21
-24.2594383218
  0
LWPOLYLINE
  5
3AE
100
AcDbEntity
  8
RACCORDO
100
AcDbPolyline
 62
7
  6
CONTINUOUS
 90
4
 70
0
 10
-61.833083603
 20
-24.2061732711
 10
-61.7225359767
 20
-24.3611870247
 10
-61.6220450925
 20
-24.5229017713
 10
-61.5605434527
 20
-24.6346805258
  0
LINE
  5
3AF
100
AcDbEntity
  8
RACCORDO
100
AcDbLine
 62
7
  6
CONTINUOUS
 10
-61.7945972925
 20
-24.2586224715
 11
-61.7864421908
 21
-24.2700426306
  0
LINE
  5
3B0
100
AcDbEntity
  8
RACCORDO
100
AcDbLine
 62
7
  6
CONTINUOUS
 10
-61.7879052825
 20
-24.267985341
 11
-61.7763445898
 21
-24.2843411344
  0
LINE
  5
3B1
100
AcDbEntity
  8
RACCORDO
100
AcDbLine
 62
7
  6
CONTINUOUS
 10
-61.7811321297
 20
-24.2775398027
 11
-61.7673351349
 21
-24.2972501106
  0
LINE
  5
3B2
100
AcDbEntity
  8
RACCORDO
100
AcDbLine
 62
7
  6
CONTINUOUS
 10
-61.7736113407
 20
-24.2882422598
 11
-61.7550149205
 21
-24.3151398168
  0
LINE
  5
3B3
100
AcDbEntity
  8
RACCORDO
100
AcDbLine
 62
7
  6
CONTINUOUS
 10
-61.7632935351
 20
-24.3030883229
 11
-61.7508743947
 21
-24.3212149715
  0
LINE
  5
3B4
100
AcDbEntity
  8
RACCORDO
100
AcDbLine
 62
7
  6
CONTINUOUS
 10
-61.7550149205
 20
-24.3151398168
 11
-61.7371428682
 21
-24.3415944413
  0
LINE
  5
3B5
100
AcDbEntity
  8
RACCORDO
100
AcDbLine
 62
7
  6
CONTINUOUS
 10
-61.7402647436
 20
-24.3369293778
 11
-61.7221305126
 21
-24.3642952408
  0
LWPOLYLINE
  5
3B6
100
AcDbEntity
  8
RACCORDO
100
AcDbPolyline
 62
7
  6
CONTINUOUS
 90
38
 70
0
 10
-61.7241998571
 20
-24.3611393756
 10
-61.7068394673
 20
-24.3878875064
 10
-61.6883091393
 20
-24.4171434311
 10
-61.6697932581
 20
-24.4471439356
 10
-61.6516369122
 20
-24.477350319
 10
-61.6335248812
 20
-24.5083080826
 10
-61.6155839186
 20
-24.5398371876
 10
-61.5978608125
 20
-24.5718830243
 10
-61.5803386807
 20
-24.6045046394
 10
-61.5630419432
 20
-24.6376878796
 10
-61.5459851813
 20
-24.6714365232
 10
-61.529185439
 20
-24.7057497248
 10
-61.5126697067
 20
-24.7406052035
 10
-61.4964528935
 20
-24.77600446
 10
-61.4805512481
 20
-24.8119462391
 10
-61.4649921196
 20
-24.8484027559
 10
-61.4497914027
 20
-24.8853705251
 10
-61.4349631944
 20
-24.9228503997
 10
-61.4205304813
 20
-24.9608198232
 10
-61.4065085158
 20
-24.9992743781
 10
-61.3929112001
 20
-25.0382132592
 10
-61.3797582237
 20
-25.0776182928
 10
-61.3670634832
 20
-25.1174869644
 10
-61.3548416927
 20
-25.1578141774
 10
-61.3431124952
 20
-25.1985769311
 10
-61.3318895763
 20
-25.2397703289
 10
-61.3211866641
 20
-25.2813891583
 10
-61.3110219491
 20
-25.3234089983
 10
-61.301408416
 20
-25.3658237533
 10
-61.2923590616
 20
-25.4086269963
 10
-61.2838904765
 20
-25.4517929312
 10
-61.2760148155
 20
-25.4953143073
 10
-61.2687442103
 20
-25.5391835475
 10
-61.2620935026
 20
-25.5833735691
 10
-61.2560738908
 20
-25.6278760332
 10
-61.2506965163
 20
-25.6726822887
 10
-61.2459743289
 20
-25.7177640818
 10
-61.2419174517
 20
-25.7631120703
  0
LWPOLYLINE
  5
3B7
100
AcDbEntity
  8
0
100
AcDbPolyline
 62
7
  6
CONTINUOUS
 90
3
 70
0
 43
0.3500000006
 10
-57.323465332
 20
49.0357120972
 10
-57.3948965149
 20
48.8214276123
 10
-57.5377543488
 20
48.5357164764
  0
LWPOLYLINE
  5
3B8
100
AcDbEntity
  8
SUPERFICI
100
AcDbPolyline
 62
7
  6
CONTINUOUS
 90
11
 70
0
 10
-58.6079120555
 20
38.8516359017
 10
-58.7525749017
 20
38.4348327852
 10
-58.8915714906
 20
38.0204207934
 10
-59.0250630011
 20
37.6086301703
 10
-59.153241329
 20
37.1995633555
 10
-59.2761675274
 20
36.7937191674
 10
-59.3940531887
 20
36.3910884463
 10
-59.5072861157
 20
35.990973797
 10
-59.6160139454
 20
35.593424036
 10
-59.7203002798
 20
35.1987756344
 10
-59.8203704981
 20
34.8067270787
  0
LINE
  5
3B9
100
AcDbEntity
  8
SUPERFICI
100
AcDbLine
 62
7
  6
CONTINUOUS
 10
-58.5293027065
 20
39.0722711645
 11
-58.6079120555
 21
38.8516359017
  0
LWPOLYLINE
  5
3BA
100
AcDbEntity
  8
RACCORDO
100
AcDbPolyline
 62
250
  6
CONTINUOUS
 90
8
 70
0
 10
-61.5429089875
 20
24.6689448888
 10
-61.5320158337
 20
24.6906663086
 10
-61.452810215
 20
24.8638041464
 10
-61.3847479326
 20
25.0416183857
 10
-61.328103161
 20
25.2233927399
 10
-61.2831040817
 20
25.4083949699
 10
-61.249931964
 20
25.5958798338
 10
-61.228720435
 20
25.7850920892
  0
LWPOLYLINE
  5
3BB
100
AcDbEntity
  8
RACCORDO
100
AcDbPolyline
 62
250
  6
CONTINUOUS
 90
8
 70
0
 10
-61.5605434527
 20
-24.6346805258
 10
-61.5320157536
 20
-24.6906660825
 10
-61.4528106213
 20
-24.8638041609
 10
-61.3847487543
 20
-25.0416185619
 10
-61.3281043234
 20
-25.2233930038
 10
-61.2831055071
 20
-25.4083952528
 10
-61.2499335724
 20
-25.5958800725
 10
-61.2287221449
 20
-25.7850922262
  0
LWPOLYLINE
  5
3BC
100
AcDbEntity
  8
RACCORDO
100
AcDbPolyline
 62
7
  6
CONTINUOUS
 90
13
 70
0
 10
-58.5293030384
 20
-39.0722695496
 10
-58.5174287287
 20
-39.1036345536
 10
-58.4735663247
 20
-39.1989778177
 10
-58.4201012357
 20
-39.2889771083
 10
-58.3576926001
 20
-39.3726870538
 10
-58.2870865204
 20
-39.4492468233
 10
-58.209105151
 20
-39.5178860766
 10
-58.1246282917
 20
-39.577934545
 10
-58.0346232082
 20
-39.6288003369
 10
-57.9401368591
 20
-39.6699929151
 10
-57.8422267905
 20
-39.7011578528
 10
-57.7419410569
 20
-39.7220638104
 10
-57.6406107816
 20
-39.7325705224
  0
LWPOLYLINE
  5
3BD
100
AcDbEntity
  8
SUPERFICI
100
AcDbPolyline
 62
7
  6
CONTINUOUS
 90
20
 70
0
 10
-59.9164303257
 20
34.416975124
 10
-60.0084519313
 20
34.0301398524
 10
-60.0963190552
 20
33.6472935169
 10
-60.1801442237
 20
33.2685804353
 10
-60.2600384103
 20
32.8941357691
 10
-60.3359234373
 20
32.525015927
 10
-60.4079222067
 20
32.1613698524
 10
-60.4761681319
 20
31.8032741504
 10
-60.5406347029
 20
31.4516689797
 10
-60.6016515303
 20
31.1055489107
 10
-60.6591557123
 20
30.7660688328
 10
-60.7126287868
 20
30.4374053326
 10
-60.762028498
 20
30.1212857537
 10
-60.8078396445
 20
29.8160718944
 10
-60.8503896527
 20
29.5208869751
 10
-60.889787536
 20
29.2362542614
 10
-60.926276841
 20
28.961694399
 10
-60.960322371
 20
28.6948161621
 10
-60.9923188623
 20
28.4333513932
 10
-61.0220889228
 20
28.1795859384
  0
LINE
  5
3BE
100
AcDbEntity
  8
SUPERFICI
100
AcDbLine
 62
7
  6
CONTINUOUS
 10
-59.8203704981
 20
34.8067270787
 11
-59.9164303257
 21
34.416975124
  0
LWPOLYLINE
  5
3BF
100
AcDbEntity
  8
RACCORDO
100
AcDbPolyline
 62
7
  6
CONTINUOUS
 90
20
 70
0
 10
-61.3335554898
 20
25.2335045529
 10
-61.3480374919
 20
25.1811958261
 10
-61.3597380897
 20
25.1414118309
 10
-61.371903174
 20
25.1020595776
 10
-61.384519293
 20
25.0631436017
 10
-61.3975733906
 20
25.0246670997
 10
-61.4110408544
 20
24.986665183
 10
-61.4249075096
 20
24.9491401043
 10
-61.4391590083
 20
24.9120945987
 10
-61.4537680596
 20
24.8755630893
 10
-61.4687205091
 20
24.8395442503
 10
-61.4840002961
 20
24.8040415212
 10
-61.4995746889
 20
24.7690948393
 10
-61.5154271366
 20
24.7347045418
 10
-61.5315419918
 20
24.7008691561
 10
-61.5478853015
 20
24.6676241186
 10
-61.5644399716
 20
24.6349679147
 10
-61.5811896644
 20
24.6028977803
 10
-61.5980993478
 20
24.5714455207
 10
-61.6151720224
 20
24.5405715785
  0
LINE
  5
3C0
100
AcDbEntity
  8
RACCORDO
100
AcDbLine
 62
7
  6
CONTINUOUS
 10
-61.2387199921
 20
25.8056575102
 11
-61.2387463229
 21
25.8055637444
  0
LWPOLYLINE
  5
3C1
100
AcDbEntity
  8
RACCORDO
100
AcDbPolyline
 62
7
  6
CONTINUOUS
 90
20
 70
0
 10
-61.3444296428
 20
25.1938871473
 10
-61.3557790801
 20
25.1546455596
 10
-61.3675826809
 20
25.1158161565
 10
-61.3798278615
 20
25.0774031914
 10
-61.3925022772
 20
25.0394100556
 10
-61.4055827215
 20
25.0018706077
 10
-61.4190556374
 20
24.9647876994
 10
-61.4329076862
 20
24.9281635617
 10
-61.4471137501
 20
24.8920298311
 10
-61.4616605012
 20
24.856385507
 10
-61.4765328545
 20
24.8212340446
 10
-61.4917007228
 20
24.7866122931
 10
-61.5071487188
 20
24.7525205351
 10
-61.5228620068
 20
24.7189579704
 10
-61.5388089555
 20
24.6859581963
 10
-61.5549733867
 20
24.6535203048
 10
-61.5713400339
 20
24.6216417607
 10
-61.5878765802
 20
24.5903521125
 10
-61.6045748411
 20
24.5596338567
 10
-61.6214112558
 20
24.5294984601
  0
LWPOLYLINE
  5
3C2
100
AcDbEntity
  8
0
100
AcDbPolyline
 62
7
  6
CONTINUOUS
 90
13
 70
0
 43
0.3500000006
 10
-72.5020388031
 20
-1.9285708809
 10
-72.716323288
 20
-2.2142854156
 10
-73.3591812744
 20
-2.2142854156
 10
-73.7877502441
 20
-1.9285708809
 10
-73.7877502441
 20
-1.2857140274
 10
-73.3591812744
 20
-1.0000006256
 10
-72.716323288
 20
-1.0000006256
 10
-72.5020388031
 20
-1.2857140274
 10
-72.0734653015
 20
-0.8571427917
 10
-71.2163228302
 20
-0.8571427917
 10
-70.7877538605
 20
-1.2857140274
 10
-70.7877538605
 20
-1.9285708809
 10
-71.2163228302
 20
-2.3571432495
  0
LINE
  5
3C3
100
AcDbEntity
  8
RACCORDO
100
AcDbLine
 62
7
  6
CONTINUOUS
 10
-61.2387472346
 20
-25.8055635256
 11
-61.2387201436
 21
-25.8056568406
  0
LINE
  5
3C4
100
AcDbEntity
  8
RACCORDO
100
AcDbLine
 62
7
  6
CONTINUOUS
 10
-61.2651592102
 20
25.5624410577
 11
-61.2730802193
 21
25.5125402011
  0
LINE
  5
3C5
100
AcDbEntity
  8
RACCORDO
100
AcDbLine
 62
7
  6
CONTINUOUS
 10
-61.2717889863
 20
25.5203134698
 11
-61.2805129019
 21
25.4700119148
  0
LINE
  5
3C6
100
AcDbEntity
  8
RACCORDO
100
AcDbLine
 62
7
  6
CONTINUOUS
 10
-61.2789875791
 20
25.4784481267
 11
-61.2885233166
 21
25.4277649988
  0
LINE
  5
3C7
100
AcDbEntity
  8
RACCORDO
100
AcDbLine
 62
7
  6
CONTINUOUS
 10
-61.2867465807
 20
25.4368522275
 11
-61.2971024986
 21
25.3858067418
  0
LINE
  5
3C8
100
AcDbEntity
  8
RACCORDO
100
AcDbLine
 62
7
  6
CONTINUOUS
 10
-61.2950575286
 20
25.3955327543
 11
-61.3062336173
 21
25.3441786522
  0
LINE
  5
3C9
100
AcDbEntity
  8
RACCORDO
100
AcDbLine
 62
7
  6
CONTINUOUS
 10
-61.303904674
 20
25.3545289104
 11
-61.315906147
 21
25.3028872279
  0
LINE
  5
3CA
100
AcDbEntity
  8
RACCORDO
100
AcDbLine
 62
7
  6
CONTINUOUS
 10
-61.3132781038
 20
25.3138469481
 11
-61.3261095425
 21
25.2619387019
  0
LINE
  5
3CB
100
AcDbEntity
  8
RACCORDO
100
AcDbLine
 62
7
  6
CONTINUOUS
 10
-61.3231678841
 20
25.273492874
 11
-61.3368239867
 21
25.2213731294
  0
LWPOLYLINE
  5
3CC
100
AcDbEntity
  8
SUPERFICI
100
AcDbPolyline
 62
7
  6
CONTINUOUS
 90
49
 70
0
 10
-61.2077052382
 20
-26.2377845815
 10
-61.1926920917
 20
-26.4301478827
 10
-61.176465387
 20
-26.6280263723
 10
-61.1591747713
 20
-26.8290068065
 10
-61.1405653748
 20
-27.0354836026
 10
-61.1208738937
 20
-27.2443327035
 10
-61.1001967665
 20
-27.454339811
 10
-61.0783977699
 20
-27.6667068038
 10
-61.0553967443
 20
-27.8819368005
 10
-61.0311743773
 20
-28.0999175132
 10
-61.005683882
 20
-28.3207556761
 10
-60.978785734
 20
-28.545283766
 10
-60.9503910902
 20
-28.7738107964
 10
-60.9204865697
 20
-29.0060192402
 10
-60.8890351012
 20
-29.241800647
 10
-60.8559612317
 20
-29.4813263824
 10
-60.8212370825
 20
-29.7244096717
 10
-60.7849062304
 20
-29.9704034185
 10
-60.7470100821
 20
-30.2187488546
 10
-60.7074251392
 20
-30.4699806604
 10
-60.6659409919
 20
-30.7250885616
 10
-60.6224511461
 20
-30.9843249129
 10
-60.5769376749
 20
-31.2473972387
 10
-60.5293037459
 20
-31.5144723961
 10
-60.4794475742
 20
-31.7857129902
 10
-60.427337975
 20
-32.0608824514
 10
-60.3729866092
 20
-32.3395411256
 10
-60.3163284014
 20
-32.6216626436
 10
-60.257306008
 20
-32.9071739084
 10
-60.1959558403
 20
-33.1955622186
 10
-60.1322194251
 20
-33.4867858535
 10
-60.0660446777
 20
-33.780767112
 10
-59.9974934559
 20
-34.0769382379
 10
-59.926522575
 20
-34.3752152045
 10
-59.8530801575
 20
-34.6755459341
 10
-59.7772315369
 20
-34.9774114687
 10
-59.6990035253
 20
-35.2804840448
 10
-59.6182924358
 20
-35.5849451726
 10
-59.5349698161
 20
-35.8910360257
 10
-59.4490073362
 20
-36.1986069299
 10
-59.3603402331
 20
-36.5076354257
 10
-59.2687689519
 20
-36.8185393745
 10
-59.1742126895
 20
-37.1312915329
 10
-59.0766347921
 20
-37.4457103578
 10
-58.975885567
 20
-37.7619657835
 10
-58.871862904
 20
-38.0800487874
 10
-58.7645360036
 20
-38.3997220947
 10
-58.6538568691
 20
-38.7208016911
 10
-58.529302695
 20
-39.0722711965
  0
LINE
  5
3CD
100
AcDbEntity
  8
RACCORDO
100
AcDbLine
 62
7
  6
CONTINUOUS
 10
-61.2419174517
 20
-25.7631120703
 11
-61.2387483016
 21
-25.8055477296
  0
LWPOLYLINE
  5
3CE
100
AcDbEntity
  8
SUPERFICI
100
AcDbPolyline
 62
7
  6
CONTINUOUS
 90
3
 70
0
 10
-61.2387286726
 20
-25.8055323255
 10
-61.2319794016
 20
-25.9040644098
 10
-61.2077052382
 20
-26.2377845815
  0
LINE
  5
3CF
100
AcDbEntity
  8
RACCORDO
100
AcDbLine
 62
7
  6
CONTINUOUS
 10
-61.2387473805
 20
25.8055480879
 11
-61.2411604608
 21
25.7725474325
  0
LINE
  5
3D0
100
AcDbEntity
  8
RACCORDO
100
AcDbLine
 62
7
  6
CONTINUOUS
 10
-61.2408785002
 20
25.7761493415
 11
-61.2449283845
 21
25.728743967
  0
LINE
  5
3D1
100
AcDbEntity
  8
RACCORDO
100
AcDbLine
 62
7
  6
CONTINUOUS
 10
-61.2445276744
 20
25.7330583869
 11
-61.2493267898
 21
25.6851024402
  0
LWPOLYLINE
  5
3D2
100
AcDbEntity
  8
SUPERFICI
100
AcDbPolyline
 62
7
  6
CONTINUOUS
 90
12
 70
0
 10
-61.0492639231
 20
27.9379273372
 10
-61.0736828634
 20
27.7115299581
 10
-61.0958599211
 20
27.4972912257
 10
-61.1164103412
 20
27.2904299365
 10
-61.1354576158
 20
27.0905541933
 10
-61.1530453863
 20
26.898070846
 10
-61.1695632799
 20
26.7093943673
 10
-61.1851087762
 20
26.5238282619
 10
-61.1996584709
 20
26.3420836665
 10
-61.2133620095
 20
26.1626868606
 10
-61.2262839104
 20
25.9851560452
 10
-61.2387287511
 20
25.8055310862
  0
LINE
  5
3D3
100
AcDbEntity
  8
SUPERFICI
100
AcDbLine
 62
7
  6
CONTINUOUS
 10
-61.0220889228
 20
28.1795859384
 11
-61.0492605657
 21
27.9379578362
  0
LINE
  5
3D4
100
AcDbEntity
  8
RACCORDO
100
AcDbLine
 62
7
  6
CONTINUOUS
 10
-61.2487870336
 20
25.6901238331
 11
-61.2543502591
 21
25.6416317284
  0
LINE
  5
3D5
100
AcDbEntity
  8
RACCORDO
100
AcDbLine
 62
7
  6
CONTINUOUS
 10
-61.2536514088
 20
25.6473541336
 11
-61.2599884412
 21
25.5983755697
  0
LINE
  5
3D6
100
AcDbEntity
  8
RACCORDO
100
AcDbLine
 62
7
  6
CONTINUOUS
 10
-61.2591110621
 20
25.6047905471
 11
-61.2662341772
 21
25.5553423349
  0
LINE
  5
3D7
100
AcDbEntity
  8
RACCORDO
100
AcDbLine
 62
250
  6
CONTINUOUS
 10
-58.416447212
 20
-36.6535935632
 11
-58.4047362992
 21
-36.9467089634
  0
LINE
  5
3D8
100
AcDbEntity
  8
RACCORDO
100
AcDbLine
 62
250
  6
CONTINUOUS
 10
-58.4047362992
 20
-36.9467089634
 11
-58.3994641953
 21
-37.0996843221
  0
LINE
  5
3D9
100
AcDbEntity
  8
RACCORDO
100
AcDbLine
 62
250
  6
CONTINUOUS
 10
-58.4211569533
 20
-36.5193285061
 11
-58.416447212
 21
-36.6535935632
  0
LWPOLYLINE
  5
3DA
100
AcDbEntity
  8
RACCORDO
100
AcDbPolyline
 62
250
  6
CONTINUOUS
 90
3
 70
0
 10
-61.2300663342
 20
-25.6850337348
 10
-61.2297651432
 20
-25.7013030809
 10
-61.2281635115
 20
-25.7642188568
  0
LWPOLYLINE
  5
3DB
100
AcDbEntity
  8
RACCORDO
100
AcDbPolyline
 62
250
  6
CONTINUOUS
 90
5
 70
0
 10
-61.2281635115
 20
-25.7642188568
 10
-61.2280232712
 20
-25.7728185306
 10
-61.2280710797
 20
-25.7791448435
 10
-61.2283030314
 20
-25.7832671525
 10
-61.228714652
 20
-25.7850916258
  0
LINE
  5
3DC
100
AcDbEntity
  8
RACCORDO
100
AcDbLine
 62
250
  6
CONTINUOUS
 10
-61.2306941488
 20
23.5394580081
 11
-61.2259186425
 21
23.2349732406
  0
LWPOLYLINE
  5
3DD
100
AcDbEntity
  8
RACCORDO
100
AcDbPolyline
 62
250
  6
CONTINUOUS
 90
7
 70
0
 10
-61.8332387895
 20
-24.1650795429
 10
-61.8328634926
 20
-24.1933845643
 10
-61.8328244492
 20
-24.1979650291
 10
-61.8328253903
 20
-24.201596868
 10
-61.8328717867
 20
-24.2042264092
 10
-61.8329581549
 20
-24.2057726786
 10
-61.8330844723
 20
-24.2061739337
  0
LINE
  5
3DE
100
AcDbEntity
  8
RACCORDO
100
AcDbLine
 62
250
  6
CONTINUOUS
 10
-61.2304821571
 20
-25.6483381927
 11
-61.2300663342
 21
-25.6850337348
  0
LINE
  5
3DF
100
AcDbEntity
  8
RACCORDO
100
AcDbLine
 62
250
  6
CONTINUOUS
 10
-61.2259186425
 20
23.2349732406
 11
-61.2238624843
 21
23.0407398281
  0
LINE
  5
3E0
100
AcDbEntity
  8
RACCORDO
100
AcDbLine
 62
250
  6
CONTINUOUS
 10
-61.2337134057
 20
23.829422723
 11
-61.2306941488
 21
23.5394580081
  0
LINE
  5
3E1
100
AcDbEntity
  8
RACCORDO
100
AcDbLine
 62
250
  6
CONTINUOUS
 10
-61.8335018141
 20
-24.1342370267
 11
-61.8332387895
 21
-24.1650795429
  0
LINE
  5
3E2
100
AcDbEntity
  8
RACCORDO
100
AcDbLine
 62
250
  6
CONTINUOUS
 10
-61.2352390197
 20
-24.88989034
 11
-61.2311416684
 21
-25.2988008249
  0
LINE
  5
3E3
100
AcDbEntity
  8
RACCORDO
100
AcDbLine
 62
250
  6
CONTINUOUS
 10
-61.2308540655
 20
-25.5828837104
 11
-61.2304821571
 21
-25.6483381927
  0
LINE
  5
3E4
100
AcDbEntity
  8
RACCORDO
100
AcDbLine
 62
250
  6
CONTINUOUS
 10
-61.2238624843
 20
23.0407398281
 11
-61.2225177324
 21
22.8162002307
  0
LINE
  5
3E5
100
AcDbEntity
  8
RACCORDO
100
AcDbLine
 62
250
  6
CONTINUOUS
 10
-61.227419852
 20
-21.6102285837
 11
-61.2224322899
 21
-22.5010408387
  0
LINE
  5
3E6
100
AcDbEntity
  8
RACCORDO
100
AcDbLine
 62
250
  6
CONTINUOUS
 10
-61.2360883293
 20
24.2253021791
 11
-61.2337134057
 21
23.829422723
  0
LINE
  5
3E7
100
AcDbEntity
  8
RACCORDO
100
AcDbLine
 62
250
  6
CONTINUOUS
 10
-61.2297641162
 20
-20.9194684682
 11
-61.227419852
 21
-21.6102285837
  0
LINE
  5
3E8
100
AcDbEntity
  8
RACCORDO
100
AcDbLine
 62
250
  6
CONTINUOUS
 10
-61.2363882248
 20
-24.6259530497
 11
-61.2352390197
 21
-24.88989034
  0
LINE
  5
3E9
100
AcDbEntity
  8
RACCORDO
100
AcDbLine
 62
250
  6
CONTINUOUS
 10
-61.2311416684
 20
-25.2988008249
 11
-61.230790407
 21
-25.3820594264
  0
LINE
  5
3EA
100
AcDbEntity
  8
RACCORDO
100
AcDbLine
 62
250
  6
CONTINUOUS
 10
-61.8353465511
 20
-23.6313775241
 11
-61.8337883543
 21
-23.9692262957
  0
LINE
  5
3EB
100
AcDbEntity
  8
RACCORDO
100
AcDbLine
 62
250
  6
CONTINUOUS
 10
-61.2321879151
 20
-19.4699919843
 11
-61.2297641162
 21
-20.9194684682
  0
LINE
  5
3EC
100
AcDbEntity
  8
RACCORDO
100
AcDbLine
 62
250
  6
CONTINUOUS
 10
-61.8337553706
 20
-24.0550425343
 11
-61.8335018141
 21
-24.1342370267
  0
LINE
  5
3ED
100
AcDbEntity
  8
RACCORDO
100
AcDbLine
 62
250
  6
CONTINUOUS
 10
-61.2366601113
 20
-14.6226887867
 11
-61.2321879151
 21
-19.4699919843
  0
LINE
  5
3EE
100
AcDbEntity
  8
RACCORDO
100
AcDbLine
 62
250
  6
CONTINUOUS
 10
-61.8341714903
 20
-19.4735244033
 11
-61.8311139942
 21
-22.4749403239
  0
LINE
  5
3EF
100
AcDbEntity
  8
RACCORDO
100
AcDbLine
 62
250
  6
CONTINUOUS
 10
-61.2392207786
 20
-7.9502606295
 11
-61.2366601113
 21
-14.6226887867
  0
LINE
  5
3F0
100
AcDbEntity
  8
0
100
AcDbLine
 62
7
  6
CONTINUOUS
 10
-62.0377523643
 20
-23.6
 11
-62.0377523643
 21
23.6
  0
LINE
  5
3F1
100
AcDbEntity
  8
RACCORDO
100
AcDbLine
 62
250
  6
CONTINUOUS
 10
-61.8364129854
 20
-0.0000050772
 11
-61.8341714903
 21
-19.4735244033
  0
LINE
  5
3F2
100
AcDbEntity
  8
RACCORDO
100
AcDbLine
 62
250
  6
CONTINUOUS
 10
-61.2309684177
 20
-25.5106895092
 11
-61.2308540655
 21
-25.5828837104
  0
LINE
  5
3F3
100
AcDbEntity
  8
RACCORDO
100
AcDbLine
 62
250
  6
CONTINUOUS
 10
-61.8354485684
 20
23.5403548619
 11
-61.8313317137
 21
22.6690277961
  0
LINE
  5
3F4
100
AcDbEntity
  8
RACCORDO
100
AcDbLine
 62
250
  6
CONTINUOUS
 10
-61.8363449107
 20
8.9731845596
 11
-61.8364129854
 21
-0.0000050772
  0
LINE
  5
3F5
100
AcDbEntity
  8
RACCORDO
100
AcDbLine
 62
250
  6
CONTINUOUS
 10
-61.8337883543
 20
-23.9692262957
 11
-61.8337553706
 21
-24.0550425343
  0
LINE
  5
3F6
100
AcDbEntity
  8
RACCORDO
100
AcDbLine
 62
250
  6
CONTINUOUS
 10
-61.2224322899
 20
-22.5010408387
 11
-61.2222754709
 21
-22.7295919286
  0
LINE
  5
3F7
100
AcDbEntity
  8
RACCORDO
100
AcDbLine
 62
250
  6
CONTINUOUS
 10
-61.2359926133
 20
15.4757375508
 11
-61.2392207786
 21
-7.9502606295
  0
LINE
  5
3F8
100
AcDbEntity
  8
RACCORDO
100
AcDbLine
 62
250
  6
CONTINUOUS
 10
-61.8324503667
 20
21.6228279778
 11
-61.8363449107
 21
8.9731845596
  0
LINE
  5
3F9
100
AcDbEntity
  8
RACCORDO
100
AcDbLine
 62
250
  6
CONTINUOUS
 10
-61.8313317137
 20
22.6690277961
 11
-61.8311427666
 21
22.4475977691
  0
LINE
  5
3FA
100
AcDbEntity
  8
RACCORDO
100
AcDbLine
 62
250
  6
CONTINUOUS
 10
-61.2364751536
 20
24.5762661982
 11
-61.2360883293
 21
24.2253021791
  0
LINE
  5
3FB
100
AcDbEntity
  8
RACCORDO
100
AcDbLine
 62
250
  6
CONTINUOUS
 10
-61.2225177324
 20
22.8162002307
 11
-61.2222864202
 21
22.5619624923
  0
LINE
  5
3FC
100
AcDbEntity
  8
RACCORDO
100
AcDbLine
 62
250
  6
CONTINUOUS
 10
-61.230915874
 20
25.5611770744
 11
-61.2307893042
 21
25.3663388432
  0
LINE
  5
3FD
100
AcDbEntity
  8
RACCORDO
100
AcDbLine
 62
250
  6
CONTINUOUS
 10
-61.2363317888
 20
-24.3074630649
 11
-61.2363882248
 21
-24.6259530497
  0
LINE
  5
3FE
100
AcDbEntity
  8
RACCORDO
100
AcDbLine
 62
250
  6
CONTINUOUS
 10
-61.8352354298
 20
-23.3524129065
 11
-61.8353465511
 21
-23.6313775241
  0
LINE
  5
3FF
100
AcDbEntity
  8
RACCORDO
100
AcDbLine
 62
250
  6
CONTINUOUS
 10
-61.230790407
 20
-25.3820594264
 11
-61.2309684177
 21
-25.5106895092
  0
LINE
  5
400
100
AcDbEntity
  8
RACCORDO
100
AcDbLine
 62
250
  6
CONTINUOUS
 10
-61.8336621135
 20
24.0992344687
 11
-61.8338671305
 21
23.9449918962
  0
LINE
  5
401
100
AcDbEntity
  8
RACCORDO
100
AcDbLine
 62
250
  6
CONTINUOUS
 10
-61.8311139942
 20
-22.4749403239
 11
-61.8315029113
 21
-22.7156901678
  0
LWPOLYLINE
  5
402
100
AcDbEntity
  8
RACCORDO
100
AcDbPolyline
 62
250
  6
CONTINUOUS
 90
4
 70
0
 10
-61.2274261258
 20
21.6089208556
 10
-61.2297707701
 20
20.9168471683
 10
-61.2311905886
 20
20.2020823122
 10
-61.2359926133
 20
15.4757375508
  0
LINE
  5
403
100
AcDbEntity
  8
RACCORDO
100
AcDbLine
 62
250
  6
CONTINUOUS
 10
-61.8311427666
 20
22.4475977691
 11
-61.8324503667
 21
21.6228279778
  0
LINE
  5
404
100
AcDbEntity
  8
RACCORDO
100
AcDbLine
 62
250
  6
CONTINUOUS
 10
-61.8348277694
 20
23.7844214556
 11
-61.8354485684
 21
23.5403548619
  0
LWPOLYLINE
  5
405
100
AcDbEntity
  8
RACCORDO
100
AcDbPolyline
 62
250
  6
CONTINUOUS
 90
3
 70
0
 10
-61.2222864202
 20
22.5619624923
 10
-61.2230759141
 20
22.3517400281
 10
-61.2274261258
 20
21.6089208556
  0
LINE
  5
406
100
AcDbEntity
  8
RACCORDO
100
AcDbLine
 62
250
  6
CONTINUOUS
 10
-61.2355324622
 20
24.84330106
 11
-61.2364751536
 21
24.5762661982
  0
LINE
  5
407
100
AcDbEntity
  8
RACCORDO
100
AcDbLine
 62
250
  6
CONTINUOUS
 10
-61.2222754709
 20
-22.7295919286
 11
-61.2232501555
 21
-22.961538861
  0
LINE
  5
408
100
AcDbEntity
  8
RACCORDO
100
AcDbLine
 62
250
  6
CONTINUOUS
 10
-61.2305719909
 20
25.6373076887
 11
-61.230915874
 21
25.5611770744
  0
LINE
  5
409
100
AcDbEntity
  8
RACCORDO
100
AcDbLine
 62
250
  6
CONTINUOUS
 10
-61.2346184273
 20
-23.9462784471
 11
-61.2363317888
 21
-24.3074630649
  0
LINE
  5
40A
100
AcDbEntity
  8
RACCORDO
100
AcDbLine
 62
250
  6
CONTINUOUS
 10
-61.8338671305
 20
23.9449918962
 11
-61.8348277694
 21
23.7844214556
  0
LINE
  5
40B
100
AcDbEntity
  8
RACCORDO
100
AcDbLine
 62
250
  6
CONTINUOUS
 10
-61.8334288568
 20
-23.0003723577
 11
-61.8352354298
 21
-23.3524129065
  0
LINE
  5
40C
100
AcDbEntity
  8
RACCORDO
100
AcDbLine
 62
250
  6
CONTINUOUS
 10
-61.2307893042
 20
25.3663388432
 11
-61.2313237797
 21
25.2781848281
  0
LINE
  5
40D
100
AcDbEntity
  8
RACCORDO
100
AcDbLine
 62
250
  6
CONTINUOUS
 10
-61.8333659725
 20
24.1520600102
 11
-61.8336621135
 21
24.0992344687
  0
LINE
  5
40E
100
AcDbEntity
  8
RACCORDO
100
AcDbLine
 62
250
  6
CONTINUOUS
 10
-61.8315029113
 20
-22.7156901678
 11
-61.8334288568
 21
-23.0003723577
  0
LINE
  5
40F
100
AcDbEntity
  8
RACCORDO
100
AcDbLine
 62
250
  6
CONTINUOUS
 10
-61.2326087141
 20
-23.6997021521
 11
-61.2346184273
 21
-23.9462784471
  0
LINE
  5
410
100
AcDbEntity
  8
RACCORDO
100
AcDbLine
 62
250
  6
CONTINUOUS
 10
-61.2338937246
 20
25.0509968309
 11
-61.2355324622
 21
24.84330106
  0
LINE
  5
411
100
AcDbEntity
  8
RACCORDO
100
AcDbLine
 62
250
  6
CONTINUOUS
 10
-61.2232501555
 20
-22.961538861
 11
-61.2255404821
 21
-23.1935917727
  0
LINE
  5
412
100
AcDbEntity
  8
RACCORDO
100
AcDbLine
 62
250
  6
CONTINUOUS
 10
-61.2313237797
 20
25.2781848281
 11
-61.2338937246
 21
25.0509968309
  0
LWPOLYLINE
  5
413
100
AcDbEntity
  8
RACCORDO
100
AcDbPolyline
 62
250
  6
CONTINUOUS
 90
4
 70
0
 10
-61.8328266992
 20
24.1976974663
 10
-61.8330351724
 20
24.1799982226
 10
-61.833154259
 20
24.1718089498
 10
-61.8333659725
 20
24.1520600102
  0
LINE
  5
414
100
AcDbEntity
  8
RACCORDO
100
AcDbLine
 62
250
  6
CONTINUOUS
 10
-61.2255404821
 20
-23.1935917727
 11
-61.2326087141
 21
-23.6997021521
  0
LWPOLYLINE
  5
415
100
AcDbEntity
  8
RACCORDO
100
AcDbPolyline
 62
250
  6
CONTINUOUS
 90
3
 70
0
 10
-61.2298436008
 20
25.6968592918
 10
-61.2301535508
 20
25.6788702713
 10
-61.2305719909
 20
25.6373076887
  0
LWPOLYLINE
  5
416
100
AcDbEntity
  8
RACCORDO
100
AcDbPolyline
 62
250
  6
CONTINUOUS
 90
3
 70
0
 10
-61.2281677731
 20
25.7636731572
 10
-61.2288101647
 20
25.7404412998
 10
-61.2298436008
 20
25.6968592918
  0
LINE
  5
417
100
AcDbEntity
  8
RACCORDO
100
AcDbLine
 62
250
  6
CONTINUOUS
 10
-58.4164456759
 20
36.6536368352
 11
-58.4211663369
 21
36.5190412881
  0
LINE
  5
418
100
AcDbEntity
  8
RACCORDO
100
AcDbLine
 62
250
  6
CONTINUOUS
 10
-58.4047358857
 20
36.9467181314
 11
-58.4164456759
 21
36.6536368352
  0
LWPOLYLINE
  5
419
100
AcDbEntity
  8
0
100
AcDbPolyline
 62
7
  6
CONTINUOUS
 90
4
 70
0
 43
0.3500000006
 10
-71.2163228302
 20
-2.3571432495
 10
-72.0734653015
 20
-2.3571432495
 10
-72.5020388031
 20
-1.9285708809
 10
-72.5020388031
 20
-1.2857140274
  0
LINE
  5
41A
100
AcDbEntity
  8
RACCORDO
100
AcDbLine
 62
250
  6
CONTINUOUS
 10
-57.4842753737
 20
-36.5444736065
 11
-57.4751306849
 21
-36.7453543625
  0
LINE
  5
41B
100
AcDbEntity
  8
RACCORDO
100
AcDbLine
 62
250
  6
CONTINUOUS
 10
-57.4893769078
 20
-36.4171367348
 11
-57.4842753737
 21
-36.5444736065
  0
LINE
  5
41C
100
AcDbEntity
  8
RACCORDO
100
AcDbLine
 62
250
  6
CONTINUOUS
 10
-57.4936457872
 20
-36.2970468259
 11
-57.4893769078
 21
-36.4171367348
  0
LINE
  5
41D
100
AcDbEntity
  8
RACCORDO
100
AcDbLine
 62
250
  6
CONTINUOUS
 10
-57.4970956299
 20
-36.1842434398
 11
-57.4936457872
 21
-36.2970468259
  0
LINE
  5
41E
100
AcDbEntity
  8
RACCORDO
100
AcDbLine
 62
250
  6
CONTINUOUS
 10
-58.4249632914
 20
-36.3906558857
 11
-58.4211569533
 21
-36.5193285061
  0
LINE
  5
41F
100
AcDbEntity
  8
RACCORDO
100
AcDbLine
 62
250
  6
CONTINUOUS
 10
-58.3994641953
 20
-37.0996843221
 11
-58.3910113687
 21
-37.3996556738
  0
LINE
  5
420
100
AcDbEntity
  8
RACCORDO
100
AcDbLine
 62
250
  6
CONTINUOUS
 10
-57.4997829671
 20
-36.0773331692
 11
-57.4970956299
 21
-36.1842434398
  0
LINE
  5
421
100
AcDbEntity
  8
RACCORDO
100
AcDbLine
 62
250
  6
CONTINUOUS
 10
-58.4278011323
 20
-36.269779013
 11
-58.4249632914
 21
-36.3906558857
  0
LINE
  5
422
100
AcDbEntity
  8
RACCORDO
100
AcDbLine
 62
250
  6
CONTINUOUS
 10
-58.3910113687
 20
-37.3996556738
 11
-58.3848816404
 21
-37.6864691052
  0
LINE
  5
423
100
AcDbEntity
  8
RACCORDO
100
AcDbLine
 62
250
  6
CONTINUOUS
 10
-57.5018455893
 20
-35.9738329827
 11
-57.4997829671
 21
-36.0773331692
  0
LINE
  5
424
100
AcDbEntity
  8
RACCORDO
100
AcDbLine
 62
250
  6
CONTINUOUS
 10
-57.5080788217
 20
-35.5580690475
 11
-57.5064454726
 21
-35.665761183
  0
LINE
  5
425
100
AcDbEntity
  8
RACCORDO
100
AcDbLine
 62
250
  6
CONTINUOUS
 10
-58.4297160572
 20
-36.1546527722
 11
-58.4278011323
 21
-36.269779013
  0
LINE
  5
426
100
AcDbEntity
  8
RACCORDO
100
AcDbLine
 62
250
  6
CONTINUOUS
 10
-58.3848816404
 20
-37.6864691052
 11
-58.3806442833
 21
-37.9547259898
  0
LWPOLYLINE
  5
427
100
AcDbEntity
  8
RACCORDO
100
AcDbPolyline
 62
250
  6
CONTINUOUS
 90
3
 70
0
 10
-57.5332117827
 20
-33.8643356792
 10
-57.5317606176
 20
-33.9641349875
 10
-57.5080788217
 20
-35.5580690475
  0
LINE
  5
428
100
AcDbEntity
  8
RACCORDO
100
AcDbLine
 62
250
  6
CONTINUOUS
 10
-57.5362042464
 20
-33.6569191177
 11
-57.5332117827
 21
-33.8643356792
  0
LINE
  5
429
100
AcDbEntity
  8
RACCORDO
100
AcDbLine
 62
250
  6
CONTINUOUS
 10
-57.5064454726
 20
-35.665761183
 11
-57.5018455893
 21
-35.9738329827
  0
LINE
  5
42A
100
AcDbEntity
  8
RACCORDO
100
AcDbLine
 62
250
  6
CONTINUOUS
 10
-57.5409043679
 20
-33.3254969847
 11
-57.5362042464
 21
-33.6569191177
  0
LINE
  5
42B
100
AcDbEntity
  8
RACCORDO
100
AcDbLine
 62
250
  6
CONTINUOUS
 10
-57.4751306849
 20
-36.7453543625
 11
-57.4696799268
 21
-37.1912538424
  0
LINE
  5
42C
100
AcDbEntity
  8
RACCORDO
100
AcDbLine
 62
250
  6
CONTINUOUS
 10
-57.566590533
 20
-31.2566929494
 11
-57.5409043679
 21
-33.3254969847
  0
LINE
  5
42D
100
AcDbEntity
  8
RACCORDO
100
AcDbLine
 62
250
  6
CONTINUOUS
 10
-58.3806442833
 20
-37.9547259898
 11
-58.3780677302
 21
-38.1970778129
  0
LINE
  5
42E
100
AcDbEntity
  8
RACCORDO
100
AcDbLine
 62
250
  6
CONTINUOUS
 10
-57.5799637367
 20
-29.7818256936
 11
-57.566590533
 21
-31.2566929494
  0
LINE
  5
42F
100
AcDbEntity
  8
RACCORDO
100
AcDbLine
 62
250
  6
CONTINUOUS
 10
-58.4781732221
 20
-31.4306786524
 11
-58.4317778961
 21
-35.8865679131
  0
LINE
  5
430
100
AcDbEntity
  8
RACCORDO
100
AcDbLine
 62
250
  6
CONTINUOUS
 10
-57.4696799268
 20
-37.1912538424
 11
-57.4659784091
 21
-37.6273923174
  0
LWPOLYLINE
  5
431
100
AcDbEntity
  8
RACCORDO
100
AcDbPolyline
 62
250
  6
CONTINUOUS
 90
3
 70
0
 10
-58.4317778961
 20
-35.8865679131
 10
-58.4311697348
 20
-35.9905239666
 10
-58.4297160572
 20
-36.1546527722
  0
LINE
  5
432
100
AcDbEntity
  8
RACCORDO
100
AcDbLine
 62
250
  6
CONTINUOUS
 10
-57.5897137272
 20
-28.2158051164
 11
-57.5799637367
 21
-29.7818256936
  0
LINE
  5
433
100
AcDbEntity
  8
RACCORDO
100
AcDbLine
 62
250
  6
CONTINUOUS
 10
-58.4893888539
 20
-29.5817984707
 11
-58.4781732221
 21
-31.4306786524
  0
LWPOLYLINE
  5
434
100
AcDbEntity
  8
RACCORDO
100
AcDbPolyline
 62
250
  6
CONTINUOUS
 90
3
 70
0
 10
-57.4659784091
 20
-37.6273923174
 10
-57.4625378116
 20
-38.2430112613
 10
-57.4600295924
 20
-38.7842271812
  0
LWPOLYLINE
  5
435
100
AcDbEntity
  8
RACCORDO
100
AcDbPolyline
 62
250
  6
CONTINUOUS
 90
4
 70
0
 10
-57.4545962986
 20
-39.6674225319
 10
-57.4543920755
 20
-39.7089826939
 10
-57.4544476602
 20
-39.7339829296
 10
-57.4548218326
 20
-39.7423073086
  0
LINE
  5
436
100
AcDbEntity
  8
RACCORDO
100
AcDbLine
 62
250
  6
CONTINUOUS
 10
-57.4600295924
 20
-38.7842271812
 11
-57.4545962986
 21
-39.6674225319
  0
LINE
  5
437
100
AcDbEntity
  8
RACCORDO
100
AcDbLine
 62
250
  6
CONTINUOUS
 10
-58.3780677302
 20
-38.1970778129
 11
-58.376993184
 21
-38.4085270963
  0
LINE
  5
438
100
AcDbEntity
  8
RACCORDO
100
AcDbLine
 62
250
  6
CONTINUOUS
 10
-57.5978739019
 20
-26.045565336
 11
-57.5897137272
 21
-28.2158051164
  0
LINE
  5
439
100
AcDbEntity
  8
RACCORDO
100
AcDbLine
 62
250
  6
CONTINUOUS
 10
-57.5996674709
 20
-25.4305313685
 11
-57.5978739019
 21
-26.045565336
  0
LINE
  5
43A
100
AcDbEntity
  8
RACCORDO
100
AcDbLine
 62
250
  6
CONTINUOUS
 10
-58.4967652401
 20
-27.4571242535
 11
-58.4893888539
 21
-29.5817984707
  0
LINE
  5
43B
100
AcDbEntity
  8
RACCORDO
100
AcDbLine
 62
250
  6
CONTINUOUS
 10
-58.4986447073
 20
-26.6332489247
 11
-58.4967652401
 21
-27.4571242535
  0
LINE
  5
43C
100
AcDbEntity
  8
RACCORDO
100
AcDbLine
 62
250
  6
CONTINUOUS
 10
-57.6180692777
 20
-17.2374433052
 11
-57.5996674709
 21
-25.4305313685
  0
LINE
  5
43D
100
AcDbEntity
  8
RACCORDO
100
AcDbLine
 62
250
  6
CONTINUOUS
 10
-58.5147754035
 20
-16.1689264727
 11
-58.4986447073
 21
-26.6332489247
  0
LINE
  5
43E
100
AcDbEntity
  8
RACCORDO
100
AcDbLine
 62
250
  6
CONTINUOUS
 10
-57.6263491183
 20
-10.6200131191
 11
-57.6180692777
 21
-17.2374433052
  0
LINE
  5
43F
100
AcDbEntity
  8
RACCORDO
100
AcDbLine
 62
250
  6
CONTINUOUS
 10
-58.521036966
 20
-6.1513402791
 11
-58.5147754035
 21
-16.1689264727
  0
LINE
  5
440
100
AcDbEntity
  8
RACCORDO
100
AcDbLine
 62
250
  6
CONTINUOUS
 10
-57.6300244239
 20
-2.7700947018
 11
-57.6263491183
 21
-10.6200131191
  0
LINE
  5
441
100
AcDbEntity
  8
RACCORDO
100
AcDbLine
 62
250
  6
CONTINUOUS
 10
-58.3773615153
 20
38.585606734
 11
-58.3769932229
 21
38.4084745139
  0
LWPOLYLINE
  5
442
100
AcDbEntity
  8
RACCORDO
100
AcDbPolyline
 62
250
  6
CONTINUOUS
 90
9
 70
0
 10
-58.376993184
 20
-38.4085270963
 10
-58.3773618543
 20
-38.5856280884
 10
-58.3781030753
 20
-38.6599752552
 10
-58.3792292949
 20
-38.7242720345
 10
-58.3807642434
 20
-38.7782488015
 10
-58.3827393735
 20
-38.8216839475
 10
-58.3851864488
 20
-38.8543731782
 10
-58.3881536479
 20
-38.8761758365
 10
-58.3917097724
 20
-38.8870184789
  0
LINE
  5
443
100
AcDbEntity
  8
RACCORDO
100
AcDbLine
 62
250
  6
CONTINUOUS
 10
-58.4884350493
 20
29.7789951583
 11
-58.521036966
 21
-6.1513402791
  0
LINE
  5
444
100
AcDbEntity
  8
RACCORDO
100
AcDbLine
 62
250
  6
CONTINUOUS
 10
-57.5885315531
 20
28.4464760363
 11
-57.6300244239
 21
-2.7700947018
  0
LINE
  5
445
100
AcDbEntity
  8
RACCORDO
100
AcDbLine
 62
250
  6
CONTINUOUS
 10
-58.3769932229
 20
38.4084745139
 11
-58.3780682881
 21
38.1970189262
  0
LINE
  5
446
100
AcDbEntity
  8
RACCORDO
100
AcDbLine
 62
250
  6
CONTINUOUS
 10
-57.4646583209
 20
37.8387756285
 11
-57.4676256122
 21
37.4112302775
  0
LINE
  5
447
100
AcDbEntity
  8
RACCORDO
100
AcDbLine
 62
250
  6
CONTINUOUS
 10
-57.4543924342
 20
39.7089830411
 11
-57.4646583209
 21
37.8387756285
  0
LINE
  5
448
100
AcDbEntity
  8
RACCORDO
100
AcDbLine
 62
250
  6
CONTINUOUS
 10
-57.5768596722
 20
30.169969742
 11
-57.5885315531
 21
28.4464760363
  0
LINE
  5
449
100
AcDbEntity
  8
RACCORDO
100
AcDbLine
 62
250
  6
CONTINUOUS
 10
-58.4303443987
 20
36.0964740775
 11
-58.4318202673
 21
35.8829407715
  0
LINE
  5
44A
100
AcDbEntity
  8
RACCORDO
100
AcDbLine
 62
250
  6
CONTINUOUS
 10
-58.4683605682
 20
32.5924444967
 11
-58.4884350493
 21
29.7789951583
  0
LWPOLYLINE
  5
44B
100
AcDbEntity
  8
RACCORDO
100
AcDbPolyline
 62
250
  6
CONTINUOUS
 90
3
 70
0
 10
-57.4676256122
 20
37.4112302775
 10
-57.4721620839
 20
36.9689296602
 10
-57.4751306849
 20
36.7453543625
  0
LINE
  5
44C
100
AcDbEntity
  8
RACCORDO
100
AcDbLine
 62
250
  6
CONTINUOUS
 10
-58.4489136002
 20
34.4343867694
 11
-58.4683605682
 21
32.5924444967
  0
LINE
  5
44D
100
AcDbEntity
  8
RACCORDO
100
AcDbLine
 62
250
  6
CONTINUOUS
 10
-58.3780682881
 20
38.1970189262
 11
-58.3806446617
 21
37.9546827187
  0
LINE
  5
44E
100
AcDbEntity
  8
RACCORDO
100
AcDbLine
 62
250
  6
CONTINUOUS
 10
-57.5527066872
 20
32.4464444149
 11
-57.5768596722
 21
30.169969742
  0
LINE
  5
44F
100
AcDbEntity
  8
RACCORDO
100
AcDbLine
 62
250
  6
CONTINUOUS
 10
-58.4318202673
 20
35.8829407715
 11
-58.4489136002
 21
34.4343867694
  0
LINE
  5
450
100
AcDbEntity
  8
RACCORDO
100
AcDbLine
 62
250
  6
CONTINUOUS
 10
-58.4289164977
 20
36.2096631562
 11
-58.4303443987
 21
36.0964740775
  0
LINE
  5
451
100
AcDbEntity
  8
RACCORDO
100
AcDbLine
 62
250
  6
CONTINUOUS
 10
-57.5276838454
 20
34.2422004581
 11
-57.5527066872
 21
32.4464444149
  0
LINE
  5
452
100
AcDbEntity
  8
RACCORDO
100
AcDbLine
 62
250
  6
CONTINUOUS
 10
-58.3806446617
 20
37.9546827187
 11
-58.3848816978
 21
37.6864667167
  0
LINE
  5
453
100
AcDbEntity
  8
RACCORDO
100
AcDbLine
 62
250
  6
CONTINUOUS
 10
-57.5009438852
 20
36.0224699265
 11
-57.5276838454
 21
34.2422004581
  0
LINE
  5
454
100
AcDbEntity
  8
RACCORDO
100
AcDbLine
 62
250
  6
CONTINUOUS
 10
-58.4265264851
 20
36.3280846562
 11
-58.4289164977
 21
36.2096631562
  0
LINE
  5
455
100
AcDbEntity
  8
RACCORDO
100
AcDbLine
 62
250
  6
CONTINUOUS
 10
-58.3848816978
 20
37.6864667167
 11
-58.3910107583
 21
37.3996818887
  0
LINE
  5
456
100
AcDbEntity
  8
RACCORDO
100
AcDbLine
 62
250
  6
CONTINUOUS
 10
-57.498584491
 20
36.1279515263
 11
-57.5009438852
 21
36.0224699265
  0
LWPOLYLINE
  5
457
100
AcDbEntity
  8
RACCORDO
100
AcDbPolyline
 62
250
  6
CONTINUOUS
 90
13
 70
0
 10
-58.5293076052
 20
39.0722552245
 10
-58.5293271862
 20
39.0715142015
 10
-58.5290446205
 20
39.0704411018
 10
-58.5284761517
 20
39.0689707427
 10
-58.5276252907
 20
39.0671219954
 10
-58.5264779313
 20
39.0649556823
 10
-58.5250540958
 20
39.062461794
 10
-58.523381526
 20
39.0596457417
 10
-58.5214507719
 20
39.0565921199
 10
-58.5192909105
 20
39.0532979762
 10
-58.5169361237
 20
39.0497609368
 10
-58.5143766478
 20
39.0460675137
 10
-58.5087938566
 20
39.0381729352
  0
LINE
  5
458
100
AcDbEntity
  8
RACCORDO
100
AcDbLine
 62
250
  6
CONTINUOUS
 10
-57.495510034
 20
36.2384553683
 11
-57.498584491
 21
36.1279515263
  0
LWPOLYLINE
  5
459
100
AcDbEntity
  8
RACCORDO
100
AcDbPolyline
 62
250
  6
CONTINUOUS
 90
3
 70
0
 10
-58.3910107583
 20
37.3996818887
 10
-58.3994632364
 20
37.0997037344
 10
-58.4047358857
 20
36.9467181314
  0
LWPOLYLINE
  5
45A
100
AcDbEntity
  8
RACCORDO
100
AcDbPolyline
 62
250
  6
CONTINUOUS
 90
3
 70
0
 10
-58.4211663369
 20
36.5190412881
 10
-58.4231983502
 20
36.4534991927
 10
-58.4265264851
 20
36.3280846562
  0
LINE
  5
45B
100
AcDbEntity
  8
RACCORDO
100
AcDbLine
 62
250
  6
CONTINUOUS
 10
-57.4916511052
 20
36.3551265967
 11
-57.495510034
 21
36.2384553683
  0
LINE
  5
45C
100
AcDbEntity
  8
RACCORDO
100
AcDbLine
 62
250
  6
CONTINUOUS
 10
-57.4869368202
 20
36.4798364199
 11
-57.4916511052
 21
36.3551265967
  0
LWPOLYLINE
  5
45D
100
AcDbEntity
  8
RACCORDO
100
AcDbPolyline
 62
250
  6
CONTINUOUS
 90
3
 70
0
 10
-57.4751306849
 20
36.7453543625
 10
-57.4783770325
 20
36.6770771224
 10
-57.4869368202
 20
36.4798364199
  0
LINE
  5
45E
100
AcDbEntity
  8
RACCORDO
100
AcDbLine
 62
250
  6
CONTINUOUS
 10
-57.6302028222
 20
-0.0000052546
 11
-61.836412985
 21
-0.0000050772
  0
LWPOLYLINE
  5
45F
100
AcDbEntity
  8
0
100
AcDbPolyline
 62
7
  6
CONTINUOUS
 90
13
 70
0
 43
0.3500000006
 10
-71.6448963318
 20
-0.0000003204
 10
-72.9306077728
 20
-0.0000003204
 10
-73.3591812744
 20
0.2142864304
 10
-73.7877502441
 20
0.642857666
 10
-73.7877502441
 20
0.8571421509
 10
-73.3591812744
 20
1.2857133865
 10
-72.9306077728
 20
1.5000001373
 10
-71.6448963318
 20
1.5000001373
 10
-71.2163228302
 20
1.2857133865
 10
-70.7877538605
 20
0.8571421509
 10
-70.7877538605
 20
0.642857666
 10
-71.2163228302
 20
0.2142864304
 10
-71.6448963318
 20
-0.0000003204
  0
LWPOLYLINE
  5
460
100
AcDbEntity
  8
RACCORDO
100
AcDbPolyline
 62
7
  6
CONTINUOUS
 90
4
 70
0
 10
-61.238746757
 20
25.8055561937
 10
-61.2387002541
 20
25.8052574306
 10
-61.2383460669
 20
25.8042866918
 10
-61.237671229
 20
25.8026136789
  0
LWPOLYLINE
  5
461
100
AcDbEntity
  8
RACCORDO
100
AcDbPolyline
 62
250
  6
CONTINUOUS
 90
3
 70
0
 10
-57.4548218326
 20
39.7423073086
 10
-57.4544478362
 20
39.7339831144
 10
-57.4543924342
 20
39.7089830411
  0
LINE
  5
462
100
AcDbEntity
  8
0
100
AcDbLine
 62
7
  6
CONTINUOUS
 10
-54.3377523643
 20
2.6
 11
-54.3377523643
 21
-2.6
  0
LWPOLYLINE
  5
463
100
AcDbEntity
  8
RACCORDO
100
AcDbPolyline
 62
250
  6
CONTINUOUS
 90
5
 70
0
 10
-61.8330844723
 20
24.2061739337
 10
-61.832955797
 20
24.205765475
 10
-61.8328689141
 20
24.2041800296
 10
-61.832823847
 20
24.2014662809
 10
-61.8328266992
 20
24.1976974663
  0
LWPOLYLINE
  5
464
100
AcDbEntity
  8
RACCORDO
100
AcDbPolyline
 62
250
  6
CONTINUOUS
 90
5
 70
0
 10
-61.228720435
 20
25.7850920892
 10
-61.228303244
 20
25.7832439582
 10
-61.2280620321
 20
25.7790420767
 10
-61.2280108326
 20
25.7725559103
 10
-61.2281677731
 20
25.7636731572
  0
LINE
  5
465
100
AcDbEntity
  8
RACCORDO
100
AcDbLine
 62
7
  6
CONTINUOUS
 10
-52.5377523643
 20
-5.0
 11
-52.5377523643
 21
-40.0
  0
LINE
  5
466
100
AcDbEntity
  8
RACCORDO
100
AcDbLine
 62
7
  6
CONTINUOUS
 10
-52.5377523643
 20
5.0
 11
-52.5377523643
 21
40.0
  0
LWPOLYLINE
  5
467
100
AcDbEntity
  8
RACCORDO
100
AcDbPolyline
 62
7
  6
CONTINUOUS
 90
5
 70
0
 10
-61.2354186202
 20
-25.7967471353
 10
-61.2376667404
 20
-25.8026148121
 10
-61.2383437427
 20
-25.8042875611
 10
-61.2387002899
 20
-25.8052561793
 10
-61.238747565
 20
-25.8055580281
  0
LWPOLYLINE
  5
468
100
AcDbEntity
  8
RACCORDO
100
AcDbPolyline
 62
7
  6
CONTINUOUS
 90
4
 70
0
 10
-61.237671229
 20
25.8026136789
 10
-61.2354191166
 20
25.7967622322
 10
-61.2330276525
 20
25.7919295374
 10
-61.2287200854
 20
25.7850920612
  0
LWPOLYLINE
  5
469
100
AcDbEntity
  8
RACCORDO
100
AcDbPolyline
 62
7
  6
CONTINUOUS
 90
3
 70
0
 10
-61.2287221449
 20
-25.7850922262
 10
-61.2330316274
 20
-25.7919112338
 10
-61.2354186202
 20
-25.7967471353
  0
LWPOLYLINE
  5
46A
100
AcDbEntity
  8
RACCORDO
100
AcDbPolyline
 62
250
  6
CONTINUOUS
 90
8
 70
0
 10
-58.391708547
 20
38.8870183014
 10
-58.3881529126
 20
38.876176449
 10
-58.3851867068
 20
38.8543725797
 10
-58.382739556
 20
38.8216813757
 10
-58.3807644279
 20
38.7782474009
 10
-58.3792293999
 20
38.7242700576
 10
-58.3781027464
 20
38.6599655923
 10
-58.3773615153
 20
38.585606734
  0
LWPOLYLINE
  5
46B
100
AcDbEntity
  8
RACCORDO
100
AcDbPolyline
 62
250
  6
CONTINUOUS
 90
9
 70
0
 10
-58.3944436891
 20
-38.8934256163
 10
-58.3981087386
 20
-38.9026608335
 10
-58.3994550432
 20
-38.9050747487
 10
-58.4007279871
 20
-38.9062770677
 10
-58.401973441
 20
-38.9074676711
 10
-58.4032740643
 20
-38.9090137764
 10
-58.4046749963
 20
-38.9105412455
 10
-58.4061534965
 20
-38.9121372924
 10
-58.4076780832
 20
-38.9138323184
  0
LINE
  5
46C
100
AcDbEntity
  8
RACCORDO
100
AcDbLine
 62
250
  6
CONTINUOUS
 10
-58.3917149384
 20
-38.8870192278
 11
-58.3944436891
 21
-38.8934256163
  0
LINE
  5
46D
100
AcDbEntity
  8
RACCORDO
100
AcDbLine
 62
250
  6
CONTINUOUS
 10
-58.3944641497
 20
38.8934550804
 11
-58.3917000484
 21
38.8870170706
  0
LWPOLYLINE
  5
46E
100
AcDbEntity
  8
RACCORDO
100
AcDbPolyline
 62
250
  6
CONTINUOUS
 90
3
 70
0
 10
-58.3995062067
 20
38.9051454303
 10
-58.3981737396
 20
38.9027282303
 10
-58.3944641497
 20
38.8934550804
  0
LWPOLYLINE
  5
46F
100
AcDbEntity
  8
RACCORDO
100
AcDbPolyline
 62
250
  6
CONTINUOUS
 90
14
 70
0
 10
-58.5112795189
 20
-39.0416614911
 10
-58.5139074371
 20
-39.0453583144
 10
-58.5163640713
 20
-39.0489445928
 10
-58.5186606742
 20
-39.0523359746
 10
-58.5207720771
 20
-39.0555301355
 10
-58.5226713931
 20
-39.0585337572
 10
-58.524362979
 20
-39.0612768441
 10
-58.5258212414
 20
-39.0637576692
 10
-58.5270265171
 20
-39.0659821824
 10
-58.5279884027
 20
-39.0678924341
 10
-58.5286971499
 20
-39.0694787897
 10
-58.5291445967
 20
-39.070753388
 10
-58.529342209
 20
-39.0716909866
 10
-58.5293067087
 20
-39.0722593406
  0
LWPOLYLINE
  5
470
100
AcDbEntity
  8
RACCORDO
100
AcDbPolyline
 62
250
  6
CONTINUOUS
 90
3
 70
0
 10
-58.502680032
 20
-39.0299717006
 10
-58.5056472276
 20
-39.0339074092
 10
-58.5112795189
 20
-39.0416614911
  0
LWPOLYLINE
  5
471
100
AcDbEntity
  8
RACCORDO
100
AcDbPolyline
 62
250
  6
CONTINUOUS
 90
3
 70
0
 10
-58.4707778687
 20
-38.9899907514
 10
-58.475940474
 20
-38.9966522422
 10
-58.4786664906
 20
-39.000076629
  0
LWPOLYLINE
  5
472
100
AcDbEntity
  8
RACCORDO
100
AcDbPolyline
 62
250
  6
CONTINUOUS
 90
3
 70
0
 10
-58.4935316005
 20
-39.0182554727
 10
-58.4965948502
 20
-39.0221243838
 10
-58.502680032
 20
-39.0299717006
  0
LWPOLYLINE
  5
473
100
AcDbEntity
  8
RACCORDO
100
AcDbPolyline
 62
250
  6
CONTINUOUS
 90
15
 70
0
 10
-58.4303388283
 20
-38.9398188027
 10
-58.434825664
 20
-38.945246243
 10
-58.4371198285
 20
-38.9479584908
 10
-58.4394936111
 20
-38.9506884497
 10
-58.4420312367
 20
-38.9534628103
 10
-58.4448291216
 20
-38.9561772043
 10
-58.4478439994
 20
-38.9589330543
 10
-58.4509514645
 20
-38.9620647635
 10
-58.4540315247
 20
-38.9658010293
 10
-58.457059868
 20
-38.9699177005
 10
-58.4600397196
 20
-38.9740709622
 10
-58.4628959886
 20
-38.9782425195
 10
-58.4655966781
 20
-38.9824558458
 10
-58.4682072017
 20
-38.9864323443
 10
-58.4707778687
 20
-38.9899907514
  0
LWPOLYLINE
  5
474
100
AcDbEntity
  8
RACCORDO
100
AcDbPolyline
 62
250
  6
CONTINUOUS
 90
4
 70
0
 10
-58.4786664906
 20
-39.000076629
 10
-58.4844827166
 20
-39.0070482787
 10
-58.4874683444
 20
-39.0107047328
 10
-58.4935316005
 20
-39.0182554727
  0
LINE
  5
475
100
AcDbEntity
  8
RACCORDO
100
AcDbLine
 62
250
  6
CONTINUOUS
 10
-58.4281485918
 20
-38.9371995016
 11
-58.4303388283
 21
-38.9398188027
  0
LINE
  5
476
100
AcDbEntity
  8
RACCORDO
100
AcDbLine
 62
250
  6
CONTINUOUS
 10
-58.4239205486
 20
-38.9322576189
 11
-58.4281485918
 21
-38.9371995016
  0
LINE
  5
477
100
AcDbEntity
  8
RACCORDO
100
AcDbLine
 62
250
  6
CONTINUOUS
 10
-62.0377523643
 20
22.3
 11
-61.8315413833
 21
22.3
  0
LINE
  5
478
100
AcDbEntity
  8
RACCORDO
100
AcDbLine
 62
250
  6
CONTINUOUS
 10
-61.8315407984
 20
22.3
 11
-61.6201922186
 21
22.2948049192
  0
LWPOLYLINE
  5
479
100
AcDbEntity
  8
RACCORDO
100
AcDbPolyline
 62
250
  6
CONTINUOUS
 90
7
 70
0
 10
-61.6201922186
 20
22.2948049192
 10
-61.4503668857
 20
22.2896930018
 10
-61.3819026196
 20
22.2871938807
 10
-61.3247846037
 20
22.2847460501
 10
-61.2792417579
 20
22.2823593121
 10
-61.2454566108
 20
22.2800432241
 10
-61.2235645678
 20
22.2778070599
  0
LWPOLYLINE
  5
47A
100
AcDbEntity
  8
RACCORDO
100
AcDbPolyline
 62
250
  6
CONTINUOUS
 90
4
 70
0
 10
-58.4869279464
 20
39.0100529137
 10
-58.4808454498
 20
39.002673619
 10
-58.4779668176
 20
38.9991240507
 10
-58.4724699742
 20
38.9925612
  0
LINE
  5
47B
100
AcDbEntity
  8
RACCORDO
100
AcDbLine
 62
250
  6
CONTINUOUS
 10
-58.4900518117
 20
39.0139009211
 11
-58.4869279464
 21
39.0100529137
  0
LWPOLYLINE
  5
47C
100
AcDbEntity
  8
RACCORDO
100
AcDbPolyline
 62
250
  6
CONTINUOUS
 90
3
 70
0
 10
-58.4995549039
 20
39.0259083928
 10
-58.4963766173
 20
39.0218422441
 10
-58.4900518117
 20
39.0139009211
  0
LWPOLYLINE
  5
47D
100
AcDbEntity
  8
RACCORDO
100
AcDbPolyline
 62
250
  6
CONTINUOUS
 90
18
 70
0
 10
-58.4724699742
 20
38.9925612
 10
-58.4698136013
 20
38.9890489156
 10
-58.4672061123
 20
38.9850349562
 10
-58.4645503312
 20
38.9807447977
 10
-58.4617356534
 20
38.9764725531
 10
-58.4587580884
 20
38.9722107705
 10
-58.4556842942
 20
38.9679639155
 10
-58.4525114565
 20
38.9640463511
 10
-58.4492772423
 20
38.9606263759
 10
-58.4461203343
 20
38.9575292183
 10
-58.443170834
 20
38.9545561142
 10
-58.4404851431
 20
38.9516842179
 10
-58.4379832342
 20
38.9489383641
 10
-58.4355879942
 20
38.9461905318
 10
-58.4332445013
 20
38.9433691016
 10
-58.4309411822
 20
38.94054914
 10
-58.4286753733
 20
38.9378220534
 10
-58.4243075024
 20
38.9327068298
  0
LWPOLYLINE
  5
47E
100
AcDbEntity
  8
RACCORDO
100
AcDbPolyline
 62
250
  6
CONTINUOUS
 90
3
 70
0
 10
-58.5087938566
 20
39.0381729352
 10
-58.5057973805
 20
39.0341121797
 10
-58.4995549039
 20
39.0259083928
  0
LWPOLYLINE
  5
47F
100
AcDbEntity
  8
0
100
AcDbPolyline
 62
7
  6
CONTINUOUS
 90
10
 70
0
 43
0.3500000006
 10
-57.3948965149
 20
49.2500011139
 10
-57.323465332
 20
49.10714328
 10
-57.323465332
 20
49.0357120972
 10
-57.4663231659
 20
48.8928587952
 10
-57.5377543488
 20
48.8928587952
 10
-57.6091809998
 20
48.9642854462
 10
-57.6091809998
 20
49.0357120972
 10
-57.5377543488
 20
49.178569931
 10
-57.4663231659
 20
49.2500011139
 10
-57.3948965149
 20
49.2500011139
  0
LINE
  5
480
100
AcDbEntity
  8
RACCORDO
100
AcDbLine
 62
250
  6
CONTINUOUS
 10
-58.4199092238
 20
-38.9276422886
 11
-58.4239205486
 21
-38.9322576189
  0
LINE
  5
481
100
AcDbEntity
  8
RACCORDO
100
AcDbLine
 62
250
  6
CONTINUOUS
 10
-58.4161192869
 20
-38.9233429281
 11
-58.4199092238
 21
-38.9276422886
  0
LWPOLYLINE
  5
482
100
AcDbEntity
  8
RACCORDO
100
AcDbPolyline
 62
250
  6
CONTINUOUS
 90
3
 70
0
 10
-58.4076780832
 20
-38.9138323184
 10
-58.4125493405
 20
-38.9193326832
 10
-58.4161192869
 20
-38.9233429281
  0
LWPOLYLINE
  5
483
100
AcDbEntity
  8
RACCORDO
100
AcDbPolyline
 62
250
  6
CONTINUOUS
 90
4
 70
0
 10
-58.4062394313
 20
38.9122293797
 10
-58.4033314519
 20
38.9090829042
 10
-58.4020143251
 20
38.9075305641
 10
-58.3995062067
 20
38.9051454303
  0
LINE
  5
484
100
AcDbEntity
  8
RACCORDO
100
AcDbLine
 62
250
  6
CONTINUOUS
 10
-58.4077739065
 20
38.9139375465
 11
-58.4062394313
 21
38.9122293797
  0
LWPOLYLINE
  5
485
100
AcDbEntity
  8
RACCORDO
100
AcDbPolyline
 62
250
  6
CONTINUOUS
 90
3
 70
0
 10
-58.4163179075
 20
38.9235668902
 10
-58.4109849707
 20
38.9175713828
 10
-58.4077739065
 20
38.9139375465
  0
LWPOLYLINE
  5
486
100
AcDbEntity
  8
RACCORDO
100
AcDbPolyline
 62
250
  6
CONTINUOUS
 90
4
 70
0
 10
-58.4243075024
 20
38.9327068298
 10
-58.4222154427
 20
38.9302859463
 10
-58.4201862983
 20
38.9279588915
 10
-58.4163179075
 20
38.9235668902
  0
LINE
  5
487
100
AcDbEntity
  8
RACCORDO
100
AcDbLine
 62
7
  6
CONTINUOUS
 10
-57.7419410448
 20
39.7220638123
 11
-57.845463253
 21
39.7003021718
  0
LWPOLYLINE
  5
488
100
AcDbEntity
  8
RACCORDO
100
AcDbPolyline
 62
250
  6
CONTINUOUS
 90
13
 70
0
 10
-57.4548199858
 20
39.7422720652
 10
-57.5685676796
 20
39.7297481534
 10
-57.6801384256
 20
39.7042992095
 10
-57.7880698357
 20
39.6662587997
 10
-57.8909472239
 20
39.6161255301
 10
-57.9874221485
 20
39.5545565107
 10
-58.0762300865
 20
39.4823587435
 10
-58.1562070083
 20
39.4004785439
 10
-58.2263046346
 20
39.3099891378
 10
-58.2856041766
 20
39.2120765942
 10
-58.333328379
 20
39.1080242792
 10
-58.3688517072
 20
38.9991960346
 10
-58.391708547
 20
38.8870183014
  0
LINE
  5
489
100
AcDbEntity
  8
RACCORDO
100
AcDbLine
 62
7
  6
CONTINUOUS
 10
-57.6406103437
 20
39.7325705453
 11
-57.7437609535
 21
39.7217790186
  0
LINE
  5
48A
100
AcDbEntity
  8
RACCORDO
100
AcDbLine
 62
250
  6
CONTINUOUS
 10
-57.4751306849
 20
36.7453543625
 11
-52.5377523643
 21
37.0041113957
  0
LINE
  5
48B
100
AcDbEntity
  8
RACCORDO
100
AcDbLine
 62
7
  6
CONTINUOUS
 10
-57.6405877128
 20
39.7325717313
 11
-52.5377523643
 21
40.0
  0
LWPOLYLINE
  5
48C
100
AcDbEntity
  8
0
100
AcDbPolyline
 62
7
  6
CONTINUOUS
 90
8
 70
0
 43
0.3500000006
 10
-56.3234650269
 20
48.7500009613
 10
-55.4663225555
 20
48.7500009613
 10
-55.0377535858
 20
49.178569931
 10
-55.0377535858
 20
50.0357124023
 10
-55.4663225555
 20
50.4642859039
 10
-56.3234650269
 20
50.4642859039
 10
-56.3234650269
 20
51.7500018768
 10
-55.0377535858
 20
51.7500018768
  0
LINE
  5
48D
100
AcDbEntity
  8
RACCORDO
100
AcDbLine
 62
250
  6
CONTINUOUS
 10
-57.4751306849
 20
36.7453543625
 11
-58.0948924356
 21
36.7761413593
  0
LWPOLYLINE
  5
48E
100
AcDbEntity
  8
RACCORDO
100
AcDbPolyline
 62
250
  6
CONTINUOUS
 90
4
 70
0
 10
-58.0948924356
 20
36.7761413593
 10
-58.3519998556
 20
36.7895900081
 10
-58.3877158314
 20
36.791602647
 10
-58.4108434073
 20
36.7930119462
  0
ARC
  5
48F
100
AcDbEntity
  8
0
100
AcDbCircle
 62
7
  6
CONTINUOUS
 10
22.3
 20
-22.3
 40
0.3
100
AcDbArc
 50
270.0
 51
360.0
  0
ARC
  5
490
100
AcDbEntity
  8
0
100
AcDbCircle
 62
7
  6
CONTINUOUS
 10
22.3
 20
22.3
 40
0.3
100
AcDbArc
 50
0.0
 51
90.0
  0
ARC
  5
491
100
AcDbEntity
  8
0
100
AcDbCircle
 62
7
  6
CONTINUOUS
 10
-22.3
 20
22.3
 40
0.3
100
AcDbArc
 50
90.0
 51
180.0
  0
ARC
  5
492
100
AcDbEntity
  8
0
100
AcDbCircle
 62
7
  6
CONTINUOUS
 10
-22.3
 20
-22.3
 40
0.3
100
AcDbArc
 50
180.0
 51
270.0
  0
ARC
  5
493
100
AcDbEntity
  8
0
100
AcDbCircle
 62
7
  6
CONTINUOUS
 10
-51.8377523643
 20
2.6
 40
2.5
100
AcDbArc
 50
106.2602047083
 51
180.0
  0
ARC
  5
494
100
AcDbEntity
  8
0
100
AcDbCircle
 62
7
  6
CONTINUOUS
 10
-51.8377523643
 20
-2.6
 40
2.5
100
AcDbArc
 50
180.0
 51
253.7397952917
  0
ARC
  5
495
100
AcDbEntity
  8
RACCORDO
100
AcDbCircle
 62
7
  6
CONTINUOUS
 10
-61.0377523643
 20
-23.6
 40
1.0
100
AcDbArc
 50
180.0
 51
217.3133646562
  0
ARC
  5
496
100
AcDbEntity
  8
0
100
AcDbCircle
 62
7
  6
CONTINUOUS
 10
-61.0377523643
 20
-23.6
 40
1.0
100
AcDbArc
 50
180.0
 51
217.3133646562
  0
ARC
  5
497
100
AcDbEntity
  8
RACCORDO
100
AcDbCircle
 62
7
  6
CONTINUOUS
 10
-61.0377523643
 20
23.6
 40
1.0
100
AcDbArc
 50
142.6866353438
 51
180.0
  0
ARC
  5
498
100
AcDbEntity
  8
0
100
AcDbCircle
 62
7
  6
CONTINUOUS
 10
-61.0377523643
 20
23.6
 40
1.0
100
AcDbArc
 50
142.6866353438
 51
180.0
  0
ELLIPSE
  5
499
100
AcDbEntity
  8
0
100
AcDbEllipse
 62
7
  6
CONTINUOUS
 10
-40.0366854455
 20
-2.6
 30
0.0
 11
-0.0
 21
2.5
 31
0.0
 40
0.0524077793
 41
-2.8577985444
 42
-1.5707963268
  0
ELLIPSE
  5
49A
100
AcDbEntity
  8
0
100
AcDbEllipse
 62
7
  6
CONTINUOUS
 10
-40.0366854455
 20
2.6
 30
0.0
 11
0.0
 21
2.5
 31
0.0
 40
0.0524077793
 41
-1.5707963268
 42
-0.2837941092
  0
ELLIPSE
  5
49B
100
AcDbEntity
  8
0
100
AcDbEllipse
 62
7
  6
CONTINUOUS
 10
40.0366854455
 20
2.6
 30
0.0
 11
0.0
 21
2.5
 31
0.0
 40
0.0524077793
 41
0.2837941092
 42
1.5707963268
  0
ELLIPSE
  5
49C
100
AcDbEntity
  8
0
100
AcDbEllipse
 62
7
  6
CONTINUOUS
 10
40.0366854455
 20
-2.6
 30
0.0
 11
-0.0
 21
2.5
 31
0.0
 40
0.0524077793
 41
-4.7123889804
 42
-3.4253867628
  0
ELLIPSE
  5
49D
100
AcDbEntity
  8
RACCORDO
100
AcDbEllipse
 62
7
  6
CONTINUOUS
 10
-36.995882962
 20
36.995882962
 30
0.0
 11
2.1271387303
 21
-2.1271387303
 31
0.0
 40
0.9972646886
 41
2.3575640181
 42
3.9256212891
  0
ELLIPSE
  5
49E
100
AcDbEntity
  8
RACCORDO
100
AcDbEllipse
 62
7
  6
CONTINUOUS
 10
-36.995882962
 20
-36.995882962
 30
0.0
 11
2.1271387303
 21
2.1271387303
 31
0.0
 40
0.9972646886
 41
-3.9256212891
 42
-2.3575640181
  0
ELLIPSE
  5
49F
100
AcDbEntity
  8
RACCORDO
100
AcDbEllipse
 62
7
  6
CONTINUOUS
 10
36.995882962
 20
36.995882962
 30
0.0
 11
2.1271387303
 21
2.1271387303
 31
0.0
 40
0.9972646886
 41
-0.7840286355
 42
0.7840286355
  0
ELLIPSE
  5
4A0
100
AcDbEntity
  8
RACCORDO
100
AcDbEllipse
 62
7
  6
CONTINUOUS
 10
36.995882962
 20
-36.995882962
 30
0.0
 11
2.1271387303
 21
-2.1271387303
 31
0.0
 40
0.9972646886
 41
-0.7840286355
 42
0.7840286355
  0
ENDSEC
  0
SECTION
  2
OBJECTS
  0
DICTIONARY
  5
C
100
AcDbDictionary
280
0
281
1
  3
ACAD_GROUP
350
D
  3
ACAD_MLINESTYLE
350
17
  3
ACAD_LAYOUT
350
1A
  3
ACAD_PLOTSETTINGS
350
19
  3
ACAD_PLOTSTYLENAME
350
E
  0
DICTIONARY
  5
D
102
{ACAD_REACTORS
330
C
102
}
100
AcDbDictionary
280
0
281
1
  0
ACDBDICTIONARYWDFLT
  5
E
102
{ACAD_REACTORS
330
C
102
}
100
AcDbDictionary
281
1
  3
Normal
350
F
100
AcDbDictionaryWithDefault
340
F
  0
DICTIONARY
  5
17
102
{ACAD_REACTORS
330
C
102
}
100
AcDbDictionary
280
0
281
1
  3
Standard
350
18
  0
DICTIONARY
  5
19
102
{ACAD_REACTORS
330
C
102
}
100
AcDbDictionary
281
1
  0
DICTIONARY
  5
1A
102
{ACAD_REACTORS
330
C
102
}
100
AcDbDictionary
281
1
  3
Model
350
4A1
  3
Layout1
350
4A2
  0
ACDBPLACEHOLDER
  5
F
102
{ACAD_REACTORS
330
E
102
}
  0
MLINESTYLE
  5
18
102
{ACAD_REACTORS
330
17
102
}
100
AcDbMlineStyle
  2
STANDARD
 70
0
  3

 62
256
 51
90.0
 52
90.0
 71
2
 49
0.5
 62
256
  6
BYLAYER
 49
-0.5
 62
256
  6
BYLAYER
  0
LAYOUT
  5
4A1
102
{ACAD_REACTORS
330
1A
102
}
100
AcDbPlotSettings
  1

  2
none_device
  4
ISO_A4_(297.00_x_210.00_MM)
  6

 40
0.0
 41
0.0
 42
0.0
 43
0.0
 44
297.0
 45
210.0
 46
0.0
 47
0.0
 48
0.0
 49
0.0
140
0.0
141
0.0
142
1.0
143
1.0
 70
1024
 72
1
 73
0
 74
0
  7

 75
0
147
1.0
148
0.0
149
0.0
100
AcDbLayout
  1
Model
 70
0
 71
0
 10
0.0
 20
0.0
 11
297.0
 21
210.0
 12
0.0
 22
0.0
 32
0.0
 14
0.0
 24
0.0
 34
0.0
 15
0.0
 25
0.0
 35
0.0
146
0.0
 13
0.0
 23
0.0
 33
0.0
 16
1.0
 26
0.0
 36
0.0
 17
0.0
 27
1.0
 37
0.0
 76
0
330
20F
345
0
346
0
  0
LAYOUT
  5
4A2
102
{ACAD_REACTORS
330
1A
102
}
100
AcDbPlotSettings
  1

  2
none_device
  4
ISO_A4_(297.00_x_210.00_MM)
  6

 40
0.0
 41
0.0
 42
0.0
 43
0.0
 44
297.0
 45
210.0
 46
0.0
 47
0.0
 48
0.0
 49
0.0
140
0.0
141
0.0
142
1.0
143
1.0
 70
0
 72
1
 73
0
 74
0
  7

 75
0
147
1.0
148
0.0
149
0.0
100
AcDbLayout
  1
Layout1
 70
0
 71
1
 10
0.0
 20
0.0
 11
297.0
 21
210.0
 12
0.0
 22
0.0
 32
0.0
 14
0.0
 24
0.0
 34
0.0
 15
0.0
 25
0.0
 35
0.0
146
0.0
 13
0.0
 23
0.0
 33
0.0
 16
1.0
 26
0.0
 36
0.0
 17
0.0
 27
1.0
 37
0.0
 76
0
330
210
345
0
346
0
  0
ENDSEC
  0
EOF
