  0
SECTION
  2
HEADER
  9
$ACADVER
  1
AC1024
  9
$DWGCODEPAGE
  3
ANSI_1252
  9
$EXTMAX
 10
297.0
 20
210.0
 30
0.0
  9
$EXTMIN
 10
0.0
 20
0.0
 30
0.0
  9
$LIMMIN
 10
0.0
 20
0.0
  9
$LIMMAX
 10
297.0
 20
210.0
  9
$VIEWCTR
 10
148.5
 20
105.0
  9
$VIEWSIZE
 40
210.0
  9
$CLAYER
  8
0
  9
$LTSCALE
 40
16.335
  9
$CELTYPE
  6
BYLAYER
  9
$DIMSCALE
 40
1.0
  9
$DIMASZ
 40
3.0
  9
$DIMEXO
 40
0.5
  9
$DIMDLI
 40
11.286
  9
$DIMEXE
 40
1.5
  9
$DIMCEN
 40
2.673
  9
$DIMLFAC
 40
1.0
  9
$DIMBLK
  1
_FILLED
  9
$DIMALT
 70
0
  9
$DIMALTF
 40
0.0393700787
  9
$DIMTXT
 40
3.0
  9
$DIMTOL
 70
1
  9
$DIMLIM
 70
0
  9
$DIMTFAC
 40
1.0
  9
$DIMTP
 40
0.01
  9
$DIMTM
 40
0.01
  9
$DIMGAP
 40
0.625
  9
$DIMDSEP
 70
44
  9
$AUNITS
 70
0
  9
$PDMODE
 70
3
  9
$PDSIZE
 40
3.0
  9
$HANDSEED
  5
548
  9
$TILEMODE
 70
1
  9
$MEASUREMENT
 70
1
  9
$INSUNITS
 70
4
  0
ENDSEC
  0
SECTION
  2
CLASSES
  0
CLASS
  1
ACDBDICTIONARYWDFLT
  2
AcDbDictionaryWithDefault
  3
AutoCAD 2000
 90
0
 91
1
280
0
281
0
  0
CLASS
  1
ACDBPLACEHOLDER
  2
AcDbPlaceHolder
  3
AutoCAD 2000
 90
0
 91
1
280
0
281
0
  0
CLASS
  1
LAYOUT
  2
AcDbLayout
  3
AutoCAD 2000
 90
0
 91
0
280
0
281
0
  0
ENDSEC
  0
SECTION
  2
TABLES
  0
TABLE
  2
VPORT
  5
8
100
AcDbSymbolTable
 70
2
  0
VPORT
  5
1F4
100
AcDbSymbolTableRecord
100
AcDbViewportTableRecord
  2
*ACTIVE
 70
0
 10
0.0
 20
0.0
 11
1.0
 21
1.0
 12
148.5
 22
105.0
 13
0.0
 23
0.0
 14
1.0
 24
1.0
 15
0.0
 25
0.0
 16
0.0
 26
0.0
 36
1.0
 17
0.0
 27
0.0
 37
0.0
 40
210.0
 41
1.4142857143
 42
50.0
 43
0.0
 44
0.0
 50
0.0
 51
0.0
 71
0
 72
100
 73
1
 74
1
 75
0
 76
0
 77
0
 78
0
  0
ENDTAB
  0
TABLE
  2
LTYPE
  5
5
100
AcDbSymbolTable
 70
6
  0
LTYPE
  5
14
100
AcDbSymbolTableRecord
100
AcDbLinetypeTableRecord
  2
BYBLOCK
 70
0
  3

 72
65
 73
0
 40
0.0
  0
LTYPE
  5
15
100
AcDbSymbolTableRecord
100
AcDbLinetypeTableRecord
  2
BYLAYER
 70
0
  3

 72
65
 73
0
 40
0.0
  0
LTYPE
  5
16
100
AcDbSymbolTableRecord
100
AcDbLinetypeTableRecord
  2
CONTINUOUS
 70
64
  3
Solid line
 72
65
 73
0
 40
0.0
  0
LTYPE
  5
1F5
100
AcDbSymbolTableRecord
100
AcDbLinetypeTableRecord
  2
CENTER
 70
64
  3
____ _ ____ _ ____ _ ____ _ ____ _ ____ _ ____
 72
65
 73
4
 40
0.6
 49
0.375
 74
0
 49
-0.075
 74
0
 49
0.075
 74
0
 49
-0.075
 74
0
  0
LTYPE
  5
1F6
100
AcDbSymbolTableRecord
100
AcDbLinetypeTableRecord
  2
HIDDEN
 70
64
  3
- - - - - - - - - - - - - - - - - - - -
 72
65
 73
2
 40
0.2
 49
0.1
 74
0
 49
-0.1
 74
0
  0
LTYPE
  5
1F7
100
AcDbSymbolTableRecord
100
AcDbLinetypeTableRecord
  2
PHANTOM
 70
64
  3
_____ _ _ _____ _ _ _____ _ _ _____
 72
65
 73
6
 40
0.8
 49
0.45
 74
0
 49
-0.05
 74
0
 49
0.1
 74
0
 49
-0.05
 74
0
 49
0.1
 74
0
 49
-0.05
 74
0
  0
LTYPE
  5
1F8
100
AcDbSymbolTableRecord
100
AcDbLinetypeTableRecord
  2
DOT
 70
64
  3
. . . . . . . . . . . . . . . . . . . .
 72
65
 73
2
 40
0.2
 49
0.1
 74
0
 49
-0.1
 74
0
  0
LTYPE
  5
1F9
100
AcDbSymbolTableRecord
100
AcDbLinetypeTableRecord
  2
DASHED
 70
64
  3
- - - - - - - - - - - - - - - - - - - -
 72
65
 73
2
 40
0.2
 49
0.1
 74
0
 49
-0.1
 74
0
  0
ENDTAB
  0
TABLE
  2
LAYER
  5
2
100
AcDbSymbolTable
 70
36
  0
LAYER
  5
10
100
AcDbSymbolTableRecord
100
AcDbLayerTableRecord
  2
0
 70
0
 62
7
  6
CONTINUOUS
370
-3
390
F
  0
LAYER
  5
1FA
100
AcDbSymbolTableRecord
100
AcDbLayerTableRecord
  2
DEFAULT_1
 70
0
 62
7
  6
CENTER
370
-3
390
F
  0
LAYER
  5
1FB
100
AcDbSymbolTableRecord
100
AcDbLayerTableRecord
  2
DEFAULT_2
 70
0
 62
7
  6
HIDDEN
370
-3
390
F
  0
LAYER
  5
1FC
100
AcDbSymbolTableRecord
100
AcDbLayerTableRecord
  2
DEFAULT_3
 70
0
 62
7
  6
PHANTOM
370
-3
390
F
  0
LAYER
  5
1FD
100
AcDbSymbolTableRecord
100
AcDbLayerTableRecord
  2
ASSI
 70
0
 62
7
  6
CONTINUOUS
370
-3
390
F
  0
LAYER
  5
1FE
100
AcDbSymbolTableRecord
100
AcDbLayerTableRecord
  2
COLOR5
 70
0
 62
7
  6
CONTINUOUS
370
-3
390
F
  0
LAYER
  5
1FF
100
AcDbSymbolTableRecord
100
AcDbLayerTableRecord
  2
COORDINATE
 70
0
 62
7
  6
CONTINUOUS
370
-3
390
F
  0
LAYER
  5
200
100
AcDbSymbolTableRecord
100
AcDbLayerTableRecord
  2
COORD_ORIGINE
 70
0
 62
7
  6
CONTINUOUS
370
-3
390
F
  0
LAYER
  5
201
100
AcDbSymbolTableRecord
100
AcDbLayerTableRecord
  2
CURVE
 70
0
 62
7
  6
CONTINUOUS
370
-3
390
F
  0
LAYER
  5
202
100
AcDbSymbolTableRecord
100
AcDbLayerTableRecord
  2
DRAFT
 70
0
 62
7
  6
CONTINUOUS
370
-3
390
F
  0
LAYER
  5
203
100
AcDbSymbolTableRecord
100
AcDbLayerTableRecord
  2
ESTRATTORI
 70
0
 62
7
  6
CONTINUOUS
370
-3
390
F
  0
LAYER
  5
204
100
AcDbSymbolTableRecord
100
AcDbLayerTableRecord
  2
IGES
 70
0
 62
7
  6
CONTINUOUS
370
-3
390
F
  0
LAYER
  5
205
100
AcDbSymbolTableRecord
100
AcDbLayerTableRecord
  2
INTF_5
 70
0
 62
7
  6
CONTINUOUS
370
-3
390
F
  0
LAYER
  5
206
100
AcDbSymbolTableRecord
100
AcDbLayerTableRecord
  2
INTF_MAGENTA
 70
0
 62
7
  6
CONTINUOUS
370
-3
390
F
  0
LAYER
  5
207
100
AcDbSymbolTableRecord
100
AcDbLayerTableRecord
  2
INTF_RED
 70
0
 62
7
  6
CONTINUOUS
370
-3
390
F
  0
LAYER
  5
208
100
AcDbSymbolTableRecord
100
AcDbLayerTableRecord
  2
NOTE
 70
0
 62
7
  6
CONTINUOUS
370
-3
390
F
  0
LAYER
  5
209
100
AcDbSymbolTableRecord
100
AcDbLayerTableRecord
  2
PIANI
 70
0
 62
7
  6
CONTINUOUS
370
-3
390
F
  0
LAYER
  5
20A
100
AcDbSymbolTableRecord
100
AcDbLayerTableRecord
  2
PIANI_ORIGINE
 70
0
 62
7
  6
CONTINUOUS
370
-3
390
F
  0
LAYER
  5
20B
100
AcDbSymbolTableRecord
100
AcDbLayerTableRecord
  2
PLACCA
 70
0
 62
7
  6
CONTINUOUS
370
-3
390
F
  0
LAYER
  5
20C
100
AcDbSymbolTableRecord
100
AcDbLayerTableRecord
  2
PUNTI
 70
0
 62
7
  6
CONTINUOUS
370
-3
390
F
  0
LAYER
  5
20D
100
AcDbSymbolTableRecord
100
AcDbLayerTableRecord
  2
RACCORDO
 70
0
 62
7
  6
CONTINUOUS
370
-3
390
F
  0
LAYER
  5
20E
100
AcDbSymbolTableRecord
100
AcDbLayerTableRecord
  2
SMUSSO
 70
0
 62
7
  6
CONTINUOUS
370
-3
390
F
  0
LAYER
  5
20F
100
AcDbSymbolTableRecord
100
AcDbLayerTableRecord
  2
SNAPLINE
 70
0
 62
7
  6
CONTINUOUS
370
-3
390
F
  0
LAYER
  5
210
100
AcDbSymbolTableRecord
100
AcDbLayerTableRecord
  2
SUPERFICI
 70
0
 62
7
  6
CONTINUOUS
370
-3
390
F
  0
LAYER
  5
211
100
AcDbSymbolTableRecord
100
AcDbLayerTableRecord
  2
SUPPORTO
 70
0
 62
7
  6
CONTINUOUS
370
-3
390
F
  0
LAYER
  5
212
100
AcDbSymbolTableRecord
100
AcDbLayerTableRecord
  2
TRASH
 70
0
 62
7
  6
CONTINUOUS
370
-3
390
F
  0
LAYER
  5
213
100
AcDbSymbolTableRecord
100
AcDbLayerTableRecord
  2
XSEC_DATUMS
 70
0
 62
7
  6
CONTINUOUS
370
-3
390
F
  0
ENDTAB
  0
TABLE
  2
STYLE
  5
3
100
AcDbSymbolTable
 70
1
  0
STYLE
  5
11
100
AcDbSymbolTableRecord
100
AcDbTextStyleTableRecord
  2
STANDARD
 70
0
 40
0.0
 41
0.8
 50
0.0
 71
0
 42
0.2
  3
txt
  4

  0
STYLE
  5
214
100
AcDbSymbolTableRecord
100
AcDbTextStyleTableRecord
  2
TEXTSTYLE_1
 70
0
 40
0.0
 41
0.8
 50
0.0
 71
0
 42
0.2
  3
gdt
  4

  0
ENDTAB
  0
TABLE
  2
VIEW
  5
6
100
AcDbSymbolTable
 70
0
  0
ENDTAB
  0
TABLE
  2
UCS
  5
7
100
AcDbSymbolTable
 70
0
  0
ENDTAB
  0
TABLE
  2
APPID
  5
9
100
AcDbSymbolTable
 70
1
  0
APPID
  5
215
100
AcDbSymbolTableRecord
100
AcDbRegAppTableRecord
  2
ACAD
 70
0
  0
ENDTAB
  0
TABLE
  2
BLOCK_RECORD
  5
1
100
AcDbSymbolTable
 70
0
  0
BLOCK_RECORD
  5
216
100
AcDbSymbolTableRecord
100
AcDbBlockTableRecord
  2
*Model_Space
  0
BLOCK_RECORD
  5
217
100
AcDbSymbolTableRecord
100
AcDbBlockTableRecord
  2
*Paper_Space
  0
BLOCK_RECORD
  5
218
100
AcDbSymbolTableRecord
100
AcDbBlockTableRecord
  2
_FILLED
  0
BLOCK_RECORD
  5
219
100
AcDbSymbolTableRecord
100
AcDbBlockTableRecord
  2
*D0
  0
BLOCK_RECORD
  5
21A
100
AcDbSymbolTableRecord
100
AcDbBlockTableRecord
  2
*D1
  0
BLOCK_RECORD
  5
21B
100
AcDbSymbolTableRecord
100
AcDbBlockTableRecord
  2
*D2
  0
ENDTAB
  0
TABLE
  2
DIMSTYLE
  5
A
100
AcDbSymbolTable
 70
1
100
AcDbDimStyleTable
 71
0
  0
DIMSTYLE
105
21C
100
AcDbSymbolTableRecord
100
AcDbDimStyleTableRecord
  2
STANDARD
 70
0
  3

  4

 40
1.0
 41
3.0
 42
0.5
 43
0.38
 44
1.5
 45
0.0
 46
0.0
 47
0.01
 48
0.01
140
3.0
141
0.09
142
0.0
143
25.4
144
1.0
145
0.0
146
1.0
147
0.625
 71
1
 72
0
 73
0
 74
0
 75
0
 76
0
 77
1
 78
8
 79
2
170
0
171
1
172
0
173
0
174
0
175
0
176
0
177
0
178
0
270
2
179
2
271
2
272
2
273
2
274
2
275
0
280
0
281
0
282
0
283
1
284
8
285
0
286
0
287
3
288
0
340
11
278
44
341
218
342
218
343
218
344
218
  0
DIMSTYLE
105
21D
100
AcDbSymbolTableRecord
100
AcDbDimStyleTableRecord
  2
DIMSTYLE_1
 70
0
  3

  4

 40
1.0
 41
3.0
 42
0.5
 43
0.38
 44
1.5
 45
0.0
 46
0.0
 47
0.0
 48
0.0
140
3.0
141
0.09
142
0.0
143
25.4
144
1.0
145
0.0
146
1.0
147
0.75
 71
0
 72
0
 73
0
 74
0
 75
0
 76
0
 77
1
 78
8
 79
2
170
0
171
1
172
0
173
0
174
0
175
0
176
0
177
0
178
0
270
2
179
2
271
2
272
2
273
2
274
2
275
0
280
0
281
0
282
0
283
1
284
8
285
0
286
0
287
3
288
0
340
11
278
44
341
218
342
218
343
218
344
218
  0
ENDTAB
  0
ENDSEC
  0
SECTION
  2
BLOCKS
  0
BLOCK
  5
20
100
AcDbEntity
  8
0
100
AcDbBlockBegin
  2
*Model_Space
 70
0
 10
0.0
 20
0.0
 30
0.0
  3
*Model_Space
  1

  0
ENDBLK
  5
21
100
AcDbEntity
  8
0
100
AcDbBlockEnd
  0
BLOCK
  5
1C
100
AcDbEntity
  8
0
100
AcDbBlockBegin
  2
*Paper_Space
 70
0
 10
0.0
 20
0.0
 30
0.0
  3
*Paper_Space
  1

  0
ENDBLK
  5
1D
100
AcDbEntity
  8
0
100
AcDbBlockEnd
  0
BLOCK
  5
21E
100
AcDbEntity
  8
0
100
AcDbBlockBegin
  2
_FILLED
 70
64
 10
0.0
 20
0.0
  3
_FILLED
  1

  0
SOLID
  5
21F
100
AcDbEntity
  8
0
  6
BYBLOCK
 62
0
100
AcDbTrace
 10
0.0
 20
0.0
 11
-1.0
 21
0.3166666667
 12
-1.0
 22
-0.3166666667
 13
-1.0
 23
-0.3166666667
  0
ENDBLK
  5
220
100
AcDbEntity
  8
0
  6
BYBLOCK
 62
0
100
AcDbBlockEnd
  0
BLOCK
  5
221
100
AcDbEntity
  8
0
100
AcDbBlockBegin
 62
7
  6
CONTINUOUS
  2
*D0
 70
65
 10
0.0
 20
0.0
  3
*D0
  1

  0
LINE
  5
222
100
AcDbEntity
  8
0
100
AcDbLine
 62
7
  6
CONTINUOUS
 10
-40.0
 20
37.4999998429
 11
-40.0
 21
50.3800989372
  0
LINE
  5
223
100
AcDbEntity
  8
0
100
AcDbLine
 62
7
  6
CONTINUOUS
 10
40.0
 20
37.4999998429
 11
40.0
 21
50.3800989372
  0
LINE
  5
224
100
AcDbEntity
  8
0
100
AcDbLine
 62
7
  6
CONTINUOUS
 10
-40.0
 20
48.8800989372
 11
0.0
 21
48.8800989372
  0
LINE
  5
225
100
AcDbEntity
  8
0
100
AcDbLine
 62
7
  6
CONTINUOUS
 10
40.0
 20
48.8800989372
 11
0.0
 21
48.8800989372
  0
INSERT
  5
226
100
AcDbEntity
  8
0
100
AcDbBlockReference
 62
7
  6
CONTINUOUS
  2
_FILLED
 10
-40.0
 20
48.8800989372
 41
3.0
 42
3.0
 43
3.0
 50
180.0
  0
INSERT
  5
227
100
AcDbEntity
  8
0
100
AcDbBlockReference
 62
7
  6
CONTINUOUS
  2
_FILLED
 10
40.0
 20
48.8800989372
 41
3.0
 42
3.0
 43
3.0
  0
ENDBLK
  5
228
100
AcDbEntity
  8
0
  6
BYBLOCK
 62
0
100
AcDbBlockEnd
  0
BLOCK
  5
229
100
AcDbEntity
  8
0
100
AcDbBlockBegin
 62
7
  6
CONTINUOUS
  2
*D1
 70
65
 10
0.0
 20
0.0
  3
*D1
  1

  0
LINE
  5
22A
100
AcDbEntity
  8
0
100
AcDbLine
 62
7
  6
CONTINUOUS
 10
-54.7113389052
 20
40.0000045338
 11
-72.729197328
 21
40.0000045338
  0
LINE
  5
22B
100
AcDbEntity
  8
0
100
AcDbLine
 62
7
  6
CONTINUOUS
 10
-54.7113389052
 20
-40.0000045338
 11
-72.729197328
 21
-40.0000045338
  0
LINE
  5
22C
100
AcDbEntity
  8
0
100
AcDbLine
 62
7
  6
CONTINUOUS
 10
-71.229197328
 20
40.0000045338
 11
-71.229197328
 21
-0.0
  0
LINE
  5
22D
100
AcDbEntity
  8
0
100
AcDbLine
 62
7
  6
CONTINUOUS
 10
-71.229197328
 20
-40.0000045338
 11
-71.229197328
 21
-0.0
  0
INSERT
  5
22E
100
AcDbEntity
  8
0
100
AcDbBlockReference
 62
7
  6
CONTINUOUS
  2
_FILLED
 10
-71.229197328
 20
40.0000045338
 41
3.0
 42
3.0
 43
3.0
 50
90.0
  0
INSERT
  5
22F
100
AcDbEntity
  8
0
100
AcDbBlockReference
 62
7
  6
CONTINUOUS
  2
_FILLED
 10
-71.229197328
 20
-40.0000045338
 41
3.0
 42
3.0
 43
3.0
 50
270.0
  0
ENDBLK
  5
230
100
AcDbEntity
  8
0
  6
BYBLOCK
 62
0
100
AcDbBlockEnd
  0
BLOCK
  5
231
100
AcDbEntity
  8
0
100
AcDbBlockBegin
 62
7
  6
CONTINUOUS
  2
*D2
 70
65
 10
0.0
 20
0.0
  3
*D2
  1

  0
LINE
  5
232
100
AcDbEntity
  8
0
100
AcDbLine
 62
7
  6
CONTINUOUS
 10
-63.2059589661
 20
22.6997536121
 11
-63.2068590813
 21
50.3799494311
  0
LINE
  5
233
100
AcDbEntity
  8
0
100
AcDbLine
 62
7
  6
CONTINUOUS
 10
-54.0113551887
 20
39.0087754284
 11
-54.0117249706
 21
50.380248442
  0
LINE
  5
234
100
AcDbEntity
  8
0
100
AcDbLine
 62
7
  6
CONTINUOUS
 10
-63.2068103037
 20
48.8799494319
 11
-67.2068103016
 21
48.8798193584
  0
LINE
  5
235
100
AcDbEntity
  8
0
100
AcDbLine
 62
7
  6
CONTINUOUS
 10
-67.2068103016
 20
48.8798193584
 11
-58.6092432484
 21
48.8800989374
  0
LINE
  5
236
100
AcDbEntity
  8
0
100
AcDbLine
 62
7
  6
CONTINUOUS
 10
-54.011676193
 20
48.8802484428
 11
-50.0116761951
 21
48.8803785163
  0
LINE
  5
237
100
AcDbEntity
  8
0
100
AcDbLine
 62
7
  6
CONTINUOUS
 10
-50.0116761951
 20
48.8803785163
 11
-58.6092432484
 21
48.8800989374
  0
INSERT
  5
238
100
AcDbEntity
  8
0
100
AcDbBlockReference
 62
7
  6
CONTINUOUS
  2
_FILLED
 10
-63.2068103037
 20
48.8799494319
 41
3.0
 42
3.0
 43
3.0
 50
0.001863166
  0
INSERT
  5
239
100
AcDbEntity
  8
0
100
AcDbBlockReference
 62
7
  6
CONTINUOUS
  2
_FILLED
 10
-54.011676193
 20
48.8802484428
 41
3.0
 42
3.0
 43
3.0
 50
180.001863166
  0
ENDBLK
  5
23A
100
AcDbEntity
  8
0
  6
BYBLOCK
 62
0
100
AcDbBlockEnd
  0
ENDSEC
  0
SECTION
  2
ENTITIES
  0
DIMENSION
  5
23B
100
AcDbEntity
  8
0
100
AcDbDimension
 62
7
  6
CONTINUOUS
  2
*D0
 10
40.0
 20
48.8800989372
 11
-2.3571428571
 21
48.8800989372
 70
160
 71
2
 72
2
 41
0.9
 42
80.0
  3
DIMSTYLE_1
100
AcDbAlignedDimension
 13
-40.0
 23
36.9999998429
 14
40.0
 24
36.9999998429
100
AcDbRotatedDimension
  0
DIMENSION
  5
23C
100
AcDbEntity
  8
0
100
AcDbDimension
 62
7
  6
CONTINUOUS
  2
*D1
 10
-71.229197328
 20
-40.0000045338
 11
-71.229197328
 21
-2.3571428571
 70
160
 71
2
 72
2
 41
0.9
 42
80.0000090677
  3
DIMSTYLE_1
100
AcDbAlignedDimension
 13
-54.2113389052
 23
40.0000045338
 14
-54.2113389052
 24
-40.0000045338
 50
270.0
100
AcDbRotatedDimension
  0
DIMENSION
  5
23D
100
AcDbEntity
  8
0
100
AcDbDimension
 62
7
  6
CONTINUOUS
  2
*D2
 10
-54.011676193
 20
48.8802484428
 11
-61.8235093123
 21
48.8799944146
 70
160
 71
2
 72
2
 41
0.9
 42
9.1951341156
  3
DIMSTYLE_1
100
AcDbAlignedDimension
 13
-63.205942707
 23
22.1997536123
 14
-54.0113389295
 24
38.5087754287
 50
0.001863166
100
AcDbRotatedDimension
  0
LWPOLYLINE
  5
23E
100
AcDbEntity
  8
SUPERFICI
100
AcDbPolyline
 62
250
  6
CONTINUOUS
 90
10
 70
0
 10
-34.5835975041
 20
32.7555229602
 10
-34.5966352017
 20
32.7293241509
 10
-34.6095674347
 20
32.7029927755
 10
-34.622395554
 20
32.6765281453
 10
-34.6351217469
 20
32.6499278815
 10
-34.6477466172
 20
32.6231929645
 10
-34.6602692695
 20
32.5963277758
 10
-34.6726904954
 20
32.5693333458
 10
-34.6850126896
 20
32.5422073122
 10
-34.6972374882
 20
32.5149489992
  0
LWPOLYLINE
  5
23F
100
AcDbEntity
  8
SUPERFICI
100
AcDbPolyline
 62
250
  6
CONTINUOUS
 90
10
 70
0
 10
-32.5136085933
 20
34.6983583088
 10
-32.8286791623
 20
34.5472986527
 10
-33.1241626814
 20
34.381015116
 10
-33.397208507
 20
34.1994133834
 10
-33.6432987771
 20
34.0050719777
 10
-33.8643323069
 20
33.7968472405
 10
-34.0682404248
 20
33.5667370888
 10
-34.2571181946
 20
33.313433566
 10
-34.4283611654
 20
33.0426823873
 10
-34.5835975041
 20
32.7555229602
  0
LWPOLYLINE
  5
240
100
AcDbEntity
  8
SUPERFICI
100
AcDbPolyline
 62
250
  6
CONTINUOUS
 90
10
 70
0
 10
-32.5136085933
 20
-34.6983583088
 10
-32.8286791622
 20
-34.5472986527
 10
-33.1241626813
 20
-34.3810151161
 10
-33.3972085069
 20
-34.1994133835
 10
-33.643298777
 20
-34.0050719779
 10
-33.8643323068
 20
-33.7968472407
 10
-34.0682404247
 20
-33.5667370889
 10
-34.2571181946
 20
-33.3134335661
 10
-34.4283611653
 20
-33.0426823874
 10
-34.5835975041
 20
-32.7555229602
  0
LWPOLYLINE
  5
241
100
AcDbEntity
  8
SUPERFICI
100
AcDbPolyline
 62
250
  6
CONTINUOUS
 90
7
 70
0
 10
-39.0789198005
 20
37.1475743012
 10
-39.0808620388
 20
37.1148009532
 10
-39.0823208051
 20
37.0818267505
 10
-39.0833518064
 20
37.0486590761
 10
-39.0840128622
 20
37.0152944078
 10
-39.0843645923
 20
36.9817509668
 10
-39.08447843
 20
36.948064542
  0
LWPOLYLINE
  5
242
100
AcDbEntity
  8
SUPERFICI
100
AcDbPolyline
 62
250
  6
CONTINUOUS
 90
16
 70
0
 10
-39.0789449279
 20
37.1475760374
 10
-39.0532305589
 20
37.3583876374
 10
-39.005638487
 20
37.5667360031
 10
-38.9367837968
 20
37.7699557794
 10
-38.8467581763
 20
37.966153535
 10
-38.735855155
 20
38.1534350012
 10
-38.6058492704
 20
38.3284935646
 10
-38.4586441014
 20
38.4887062599
 10
-38.2955056238
 20
38.632578834
 10
-38.1182649385
 20
38.7587553725
 10
-37.9294674448
 20
38.8655274655
 10
-37.7303433023
 20
38.9520662955
 10
-37.5204106125
 20
39.0181438191
 10
-37.3013870095
 20
39.0624279241
 10
-37.0758922788
 20
39.0826298647
 10
-36.8461853515
 20
39.0842599925
  0
LWPOLYLINE
  5
243
100
AcDbEntity
  8
SUPERFICI
100
AcDbPolyline
 62
250
  6
CONTINUOUS
 90
10
 70
0
 10
-34.6972374882
 20
32.5149489992
 10
-34.7639296161
 20
32.3599091649
 10
-34.8276727653
 20
32.2010800607
 10
-34.8885403086
 20
32.0388150726
 10
-34.9466206102
 20
31.8733292395
 10
-35.0019231628
 20
31.7046154848
 10
-35.0544268577
 20
31.5326979403
 10
-35.1041301093
 20
31.3576584503
 10
-35.1510547378
 20
31.1795193886
 10
-35.1952253949
 20
30.9983204474
  0
LWPOLYLINE
  5
244
100
AcDbEntity
  8
SUPERFICI
100
AcDbPolyline
 62
250
  6
CONTINUOUS
 90
10
 70
0
 10
30.9999605717
 20
-35.1949136289
 10
31.1806738421
 20
-35.1507587445
 10
31.3583823278
 20
-35.1038607706
 10
31.5330348529
 20
-35.0542089935
 10
31.704587157
 20
-35.0017959201
 10
31.8729388747
 20
-34.9466318638
 10
32.0381095605
 20
-34.8887463828
 10
32.2001164755
 20
-34.8281279906
 10
32.3587488131
 20
-34.7646913668
 10
32.5136085933
 20
-34.6983583088
  0
LWPOLYLINE
  5
245
100
AcDbEntity
  8
SUPERFICI
100
AcDbPolyline
 62
250
  6
CONTINUOUS
 90
10
 70
0
 10
-32.5136085933
 20
-34.6983583088
 10
-32.3587473401
 20
-34.7646917067
 10
-32.2001154507
 20
-34.8281289027
 10
-32.0381046978
 20
-34.8887463458
 10
-31.872939093
 20
-34.9466330586
 10
-31.7045853575
 20
-35.0017960745
 10
-31.5330342086
 20
-35.0542091138
 10
-31.3583825305
 20
-35.1038609582
 10
-31.1806740216
 20
-35.1507588259
 10
-30.9999605717
 20
-35.1949136289
  0
LWPOLYLINE
  5
246
100
AcDbEntity
  8
SUPERFICI
100
AcDbPolyline
 62
250
  6
CONTINUOUS
 90
10
 70
0
 10
-34.6972374882
 20
-32.5149489992
 10
-34.6850127043
 20
-32.5422072796
 10
-34.6726905205
 20
-32.5693332908
 10
-34.6602693007
 20
-32.5963277086
 10
-34.6477466486
 20
-32.6231928977
 10
-34.6351217736
 20
-32.6499278251
 10
-34.622395575
 20
-32.6765281017
 10
-34.60956745
 20
-32.7029927442
 10
-34.5966352099
 20
-32.7293241341
 10
-34.5835975041
 20
-32.7555229602
  0
LWPOLYLINE
  5
247
100
AcDbEntity
  8
SUPERFICI
100
AcDbPolyline
 62
250
  6
CONTINUOUS
 90
10
 70
0
 10
-34.6972374882
 20
-32.5149489992
 10
-34.7639296161
 20
-32.3599091649
 10
-34.8276727653
 20
-32.2010800607
 10
-34.8885403086
 20
-32.0388150726
 10
-34.9466206102
 20
-31.8733292394
 10
-35.0019231628
 20
-31.7046154848
 10
-35.0544268577
 20
-31.5326979403
 10
-35.1041301093
 20
-31.3576584502
 10
-35.1510547378
 20
-31.1795193886
 10
-35.1952253949
 20
-30.9983204474
  0
LWPOLYLINE
  5
248
100
AcDbEntity
  8
SUPERFICI
100
AcDbPolyline
 62
250
  6
CONTINUOUS
 90
16
 70
0
 10
-39.0789449383
 20
-37.1475758827
 10
-39.0532305782
 20
-37.3583874954
 10
-39.0056385148
 20
-37.5667358735
 10
-38.9367838328
 20
-37.769955662
 10
-38.8467582202
 20
-37.9661534296
 10
-38.7358552064
 20
-38.1534349075
 10
-38.6058493296
 20
-38.3284934817
 10
-38.4586441688
 20
-38.4887061868
 10
-38.2955056999
 20
-38.63257877
 10
-38.1182650241
 20
-38.7587553173
 10
-37.929467541
 20
-38.8655274186
 10
-37.7303434101
 20
-38.952066257
 10
-37.5204107322
 20
-39.0181437895
 10
-37.3013871411
 20
-39.062427904
 10
-37.0758924225
 20
-39.0826298547
 10
-36.8461855074
 20
-39.0842599932
  0
LWPOLYLINE
  5
249
100
AcDbEntity
  8
SUPERFICI
100
AcDbPolyline
 62
250
  6
CONTINUOUS
 90
6
 70
0
 10
-39.0843070634
 20
-36.9818567176
 10
-39.0839811664
 20
-37.0153933019
 10
-39.0833555509
 20
-37.0487441916
 10
-39.0823556145
 20
-37.0818958465
 10
-39.0809088247
 20
-37.1148428637
 10
-39.078944917
 20
-37.1475761919
  0
LINE
  5
24A
100
AcDbEntity
  8
SUPERFICI
100
AcDbLine
 62
250
  6
CONTINUOUS
 10
-39.08447843
 20
36.948064542
 11
-39.0841078051
 21
36.7816775829
  0
LINE
  5
24B
100
AcDbEntity
  8
RACCORDO
100
AcDbLine
 62
7
  6
CONTINUOUS
 10
-40.0
 20
-36.9999998428
 11
-40.0
 21
-3.9848721447
  0
LINE
  5
24C
100
AcDbEntity
  8
RACCORDO
100
AcDbLine
 62
7
  6
CONTINUOUS
 10
-40.0
 20
3.9848721447
 11
-40.0
 21
36.9999998429
  0
LINE
  5
24D
100
AcDbEntity
  8
RACCORDO
100
AcDbLine
 62
7
  6
CONTINUOUS
 10
-39.8674790937
 20
3.2251006478
 11
-39.8674790937
 21
-3.2251006478
  0
LINE
  5
24E
100
AcDbEntity
  8
SUPERFICI
100
AcDbLine
 62
250
  6
CONTINUOUS
 10
-39.7484790161
 20
-37.0
 11
-39.7484790161
 21
37.0
  0
LINE
  5
24F
100
AcDbEntity
  8
0
100
AcDbLine
 62
250
  6
CONTINUOUS
 10
-36.9999998429
 20
-40.0
 11
-36.9999998429
 21
-39.7484790161
  0
LINE
  5
250
100
AcDbEntity
  8
0
100
AcDbLine
 62
250
  6
CONTINUOUS
 10
-36.9999998429
 20
39.7484790161
 11
-36.9999998429
 21
40.0
  0
LINE
  5
251
100
AcDbEntity
  8
SUPERFICI
100
AcDbLine
 62
250
  6
CONTINUOUS
 10
-39.0841078051
 20
36.7816775829
 11
-39.0841154184
 21
-36.8139533975
  0
LWPOLYLINE
  5
252
100
AcDbEntity
  8
SUPERFICI
100
AcDbPolyline
 62
250
  6
CONTINUOUS
 90
3
 70
0
 10
-39.0841154184
 20
-36.8139533975
 10
-39.0843701535
 20
-36.914305718
 10
-39.0843070634
 20
-36.9818567176
  0
LWPOLYLINE
  5
253
100
AcDbEntity
  8
SUPERFICI
100
AcDbPolyline
 62
250
  6
CONTINUOUS
 90
10
 70
0
 10
-35.1952253949
 20
30.9983204474
 10
-35.2665070658
 20
30.6715603715
 10
-35.329310617
 20
30.3374848553
 10
-35.3841948057
 20
29.9961736989
 10
-35.4317039817
 20
29.6480937936
 10
-35.4725532064
 20
29.2936734082
 10
-35.5076489893
 20
28.9333501772
 10
-35.5377411716
 20
28.5674427177
 10
-35.5630452793
 20
28.1959777098
 10
-35.5837101741
 20
27.8189626045
  0
LWPOLYLINE
  5
254
100
AcDbEntity
  8
SUPERFICI
100
AcDbPolyline
 62
250
  6
CONTINUOUS
 90
10
 70
0
 10
-30.4507359896
 20
26.5522107386
 10
-30.5492144382
 20
26.2863050106
 10
-30.6402591594
 20
26.0123809581
 10
-30.7235638807
 20
25.7304393513
 10
-30.7987899527
 20
25.4406082008
 10
-30.8655869769
 20
25.1431354162
 10
-30.9236917334
 20
24.8379647092
 10
-30.9728083942
 20
24.5252582715
 10
-31.0126226965
 20
24.2054083239
 10
-31.0428583296
 20
23.8787684896
  0
LWPOLYLINE
  5
255
100
AcDbEntity
  8
SUPERFICI
100
AcDbPolyline
 62
250
  6
CONTINUOUS
 90
10
 70
0
 10
-29.8401316492
 20
27.7802643023
 10
-29.916125853
 20
27.6551523132
 10
-29.9902043505
 20
27.5272160763
 10
-30.06233567
 20
27.3964035471
 10
-30.1324128088
 20
27.2627850001
 10
-30.2003741324
 20
27.1263836293
 10
-30.2662359901
 20
26.9870851961
 10
-30.3299746546
 20
26.8448746349
 10
-30.3914959446
 20
26.6998896584
 10
-30.4507359896
 20
26.5522107386
  0
LINE
  5
256
100
AcDbEntity
  8
SUPERFICI
100
AcDbLine
 62
250
  6
CONTINUOUS
 10
-29.81302632
 20
27.8234890747
 11
-29.8401316492
 21
27.7802643023
  0
LINE
  5
257
100
AcDbEntity
  8
SUPERFICI
100
AcDbLine
 62
250
  6
CONTINUOUS
 10
-29.7857125914
 20
27.8663368459
 11
-29.81302632
 21
27.8234890747
  0
LINE
  5
258
100
AcDbEntity
  8
SUPERFICI
100
AcDbLine
 62
250
  6
CONTINUOUS
 10
-29.7581783858
 20
27.9088299887
 11
-29.7857125914
 21
27.8663368459
  0
LWPOLYLINE
  5
259
100
AcDbEntity
  8
SUPERFICI
100
AcDbPolyline
 62
250
  6
CONTINUOUS
 90
3
 70
0
 10
-29.716425002
 20
27.9719715713
 10
-29.7304043302
 20
27.9510016782
 10
-29.7581783858
 20
27.9088299887
  0
LWPOLYLINE
  5
25A
100
AcDbEntity
  8
SUPERFICI
100
AcDbPolyline
 62
250
  6
CONTINUOUS
 90
10
 70
0
 10
-27.9537134761
 20
29.7297993469
 10
-28.1863974235
 20
29.5677797644
 10
-28.410326226
 20
29.3970199364
 10
-28.6242223429
 20
29.2185471423
 10
-28.8261390628
 20
29.0343683974
 10
-29.0175210516
 20
28.8436296291
 10
-29.2023459541
 20
28.6422351638
 10
-29.3814266896
 20
28.4288620174
 10
-29.5528738226
 20
28.2053905894
 10
-29.716425002
 20
27.9719715713
  0
LWPOLYLINE
  5
25B
100
AcDbEntity
  8
SUPERFICI
100
AcDbPolyline
 62
250
  6
CONTINUOUS
 90
10
 70
0
 10
-26.7549907543
 20
30.369619874
 10
-26.8999405878
 20
30.3068398408
 10
-27.0420054819
 20
30.2418325331
 10
-27.1811529355
 20
30.1746625052
 10
-27.3173387062
 20
30.1054029433
 10
-27.450582669
 20
30.0340964914
 10
-27.5808865261
 20
29.9607992015
 10
-27.7081832158
 20
29.8856058912
 10
-27.8324367128
 20
29.8085981048
 10
-27.9537134761
 20
29.7297993469
  0
LWPOLYLINE
  5
25C
100
AcDbEntity
  8
SUPERFICI
100
AcDbPolyline
 62
250
  6
CONTINUOUS
 90
10
 70
0
 10
27.8243897177
 20
-35.5828566402
 10
28.2009726933
 20
-35.562244867
 10
28.5720641547
 20
-35.537526334
 10
28.9375386149
 20
-35.507975508
 10
29.2973858073
 20
-35.4729247856
 10
29.6513835657
 20
-35.4317932846
 10
29.999107168
 20
-35.3841090583
 10
30.3398974193
 20
-35.3291874236
 10
30.6734798425
 20
-35.2663227602
 10
30.9999605717
 20
-35.1949136289
  0
LINE
  5
25D
100
AcDbEntity
  8
0
100
AcDbLine
 62
7
  6
CONTINUOUS
 10
36.9999998429
 20
-40.0
 11
-36.9999998429
 21
-40.0
  0
LINE
  5
25E
100
AcDbEntity
  8
SUPERFICI
100
AcDbLine
 62
250
  6
CONTINUOUS
 10
36.9999998429
 20
-39.7484790161
 11
-36.9999998429
 21
-39.7484790161
  0
LINE
  5
25F
100
AcDbEntity
  8
0
100
AcDbLine
 62
250
  6
CONTINUOUS
 10
-40.0
 20
-36.9999998428
 11
-39.7484790161
 21
-37.0
  0
LINE
  5
260
100
AcDbEntity
  8
0
100
AcDbLine
 62
250
  6
CONTINUOUS
 10
40.0
 20
-36.9999998428
 11
39.7484790161
 21
-37.0
  0
LINE
  5
261
100
AcDbEntity
  8
SUPERFICI
100
AcDbLine
 62
250
  6
CONTINUOUS
 10
36.8461856633
 20
-39.0842599932
 11
-36.8461858345
 21
-39.0842600296
  0
LWPOLYLINE
  5
262
100
AcDbEntity
  8
SUPERFICI
100
AcDbPolyline
 62
250
  6
CONTINUOUS
 90
10
 70
0
 10
-27.8243897177
 20
-35.5828566402
 10
-28.2009726932
 20
-35.562244867
 10
-28.5720641547
 20
-35.537526334
 10
-28.9375386148
 20
-35.507975508
 10
-29.2973858072
 20
-35.4729247856
 10
-29.6513835656
 20
-35.4317932846
 10
-29.999107168
 20
-35.3841090583
 10
-30.3398974192
 20
-35.3291874236
 10
-30.6734798424
 20
-35.2663227602
 10
-30.9999605717
 20
-35.1949136289
  0
LWPOLYLINE
  5
263
100
AcDbEntity
  8
SUPERFICI
100
AcDbPolyline
 62
250
  6
CONTINUOUS
 90
10
 70
0
 10
-26.7549907543
 20
-30.369619874
 10
-26.8999405878
 20
-30.3068398408
 10
-27.0420054819
 20
-30.2418325331
 10
-27.1811529355
 20
-30.1746625052
 10
-27.3173387062
 20
-30.1054029433
 10
-27.450582669
 20
-30.0340964914
 10
-27.5808865261
 20
-29.9607992015
 10
-27.7081832158
 20
-29.8856058912
 10
-27.8324367128
 20
-29.8085981048
 10
-27.9537134761
 20
-29.7297993469
  0
LWPOLYLINE
  5
264
100
AcDbEntity
  8
SUPERFICI
100
AcDbPolyline
 62
250
  6
CONTINUOUS
 90
10
 70
0
 10
-27.9537134761
 20
-29.7297993469
 10
-28.1863974235
 20
-29.5677797644
 10
-28.410326226
 20
-29.3970199364
 10
-28.6242223429
 20
-29.2185471423
 10
-28.8261390628
 20
-29.0343683974
 10
-29.0175210516
 20
-28.8436296291
 10
-29.2023459541
 20
-28.6422351638
 10
-29.3814266896
 20
-28.4288620174
 10
-29.5528738226
 20
-28.2053905894
 10
-29.716425002
 20
-27.9719715713
  0
LINE
  5
265
100
AcDbEntity
  8
SUPERFICI
100
AcDbLine
 62
250
  6
CONTINUOUS
 10
-29.716425002
 20
-27.9719715713
 11
-29.7443217337
 21
-27.9299552171
  0
LINE
  5
266
100
AcDbEntity
  8
SUPERFICI
100
AcDbLine
 62
250
  6
CONTINUOUS
 10
-29.7443217337
 20
-27.9299552171
 11
-29.7719746617
 21
-27.8876250294
  0
LINE
  5
267
100
AcDbEntity
  8
SUPERFICI
100
AcDbLine
 62
250
  6
CONTINUOUS
 10
-29.7719746617
 20
-27.8876250294
 11
-29.7993958118
 21
-27.8449593869
  0
LWPOLYLINE
  5
268
100
AcDbEntity
  8
SUPERFICI
100
AcDbPolyline
 62
250
  6
CONTINUOUS
 90
3
 70
0
 10
-29.7993958118
 20
-27.8449593869
 10
-29.8266045214
 20
-27.8019248332
 10
-29.8401316492
 20
-27.7802643023
  0
LWPOLYLINE
  5
269
100
AcDbEntity
  8
SUPERFICI
100
AcDbPolyline
 62
250
  6
CONTINUOUS
 90
10
 70
0
 10
-30.4507359896
 20
-26.5522107386
 10
-30.3915203225
 20
-26.6998308718
 10
-30.3300234637
 20
-26.8447632228
 10
-30.266308333
 20
-26.9869279695
 10
-30.2004753275
 20
-27.1261745049
 10
-30.1325456694
 20
-27.2625269245
 10
-30.0624746317
 20
-27.3961444397
 10
-29.9903189589
 20
-27.5270096675
 10
-29.9162016786
 20
-27.6550257788
 10
-29.8401316492
 20
-27.7802643023
  0
LWPOLYLINE
  5
26A
100
AcDbEntity
  8
SUPERFICI
100
AcDbPolyline
 62
250
  6
CONTINUOUS
 90
10
 70
0
 10
-30.4507359896
 20
-26.5522107386
 10
-30.5492144382
 20
-26.2863050106
 10
-30.6402591594
 20
-26.0123809581
 10
-30.7235638807
 20
-25.7304393513
 10
-30.7987899527
 20
-25.4406082008
 10
-30.8655869769
 20
-25.1431354162
 10
-30.9236917334
 20
-24.8379647092
 10
-30.9728083942
 20
-24.5252582715
 10
-31.0126226965
 20
-24.2054083239
 10
-31.0428583296
 20
-23.8787684896
  0
LWPOLYLINE
  5
26B
100
AcDbEntity
  8
SUPERFICI
100
AcDbPolyline
 62
250
  6
CONTINUOUS
 90
10
 70
0
 10
-35.1952253949
 20
-30.9983204474
 10
-35.2665070659
 20
-30.6715603714
 10
-35.329310617
 20
-30.3374848553
 10
-35.3841948058
 20
-29.9961736989
 10
-35.4317039817
 20
-29.6480937936
 10
-35.4725532064
 20
-29.2936734082
 10
-35.5076489893
 20
-28.9333501772
 10
-35.5377411716
 20
-28.5674427177
 10
-35.5630452793
 20
-28.1959777098
 10
-35.5837101741
 20
-27.8189626045
  0
LINE
  5
26C
100
AcDbEntity
  8
SUPERFICI
100
AcDbLine
 62
250
  6
CONTINUOUS
 10
-35.5837101741
 20
-27.8189626045
 11
-35.634755802
 21
-26.2595862605
  0
LINE
  5
26D
100
AcDbEntity
  8
SUPERFICI
100
AcDbLine
 62
250
  6
CONTINUOUS
 10
-35.634755802
 20
-26.2595862605
 11
-35.7208101056
 21
-23.0229062456
  0
LWPOLYLINE
  5
26E
100
AcDbEntity
  8
SUPERFICI
100
AcDbPolyline
 62
250
  6
CONTINUOUS
 90
12
 70
0
 10
-35.7208101056
 20
-23.0229062456
 10
-35.7986635098
 20
-19.6317575761
 10
-35.8341476152
 20
-17.8741184261
 10
-35.8670366353
 20
-16.0741108503
 10
-35.8970895111
 20
-14.2316333578
 10
-35.9241012926
 20
-12.3430555183
 10
-35.9477889036
 20
-10.4085189516
 10
-35.9678669091
 20
-8.4278889892
 10
-35.984068849
 20
-6.3971214451
 10
-35.9960724237
 20
-4.3148719266
 10
-36.0035284383
 20
-2.1824956881
 10
-36.0060918145
 20
-0.0
  0
LWPOLYLINE
  5
26F
100
AcDbEntity
  8
SUPERFICI
100
AcDbPolyline
 62
250
  6
CONTINUOUS
 90
10
 70
0
 10
-35.8341476323
 20
17.8741175363
 10
-35.8670366515
 20
16.0741099121
 10
-35.8970895257
 20
14.2316324023
 10
-35.924101305
 20
12.3430545816
 10
-35.9477889135
 20
10.4085180696
 10
-35.9678669162
 20
8.427888198
 10
-35.9840688535
 20
6.397120787
 10
-35.9960724259
 20
4.3148714456
 10
-36.0035284389
 20
2.1824954265
 10
-36.0060918145
 20
-0.0
  0
LINE
  5
270
100
AcDbEntity
  8
SUPERFICI
100
AcDbLine
 62
250
  6
CONTINUOUS
 10
-35.7608313091
 20
21.34691491
 11
-35.8341476323
 21
17.8741175363
  0
LWPOLYLINE
  5
271
100
AcDbEntity
  8
SUPERFICI
100
AcDbPolyline
 62
250
  6
CONTINUOUS
 90
4
 70
0
 10
-35.5837101741
 20
27.8189626045
 10
-35.6347558082
 20
26.2595860462
 10
-35.6787615165
 20
24.6608332354
 10
-35.7608313091
 20
21.34691491
  0
LWPOLYLINE
  5
272
100
AcDbEntity
  8
SUPERFICI
100
AcDbPolyline
 62
7
  6
CONTINUOUS
 90
10
 70
0
 10
-25.3342758969
 20
23.9867323983
 10
-25.344111002
 20
23.9677959524
 10
-25.3538145021
 20
23.9488018121
 10
-25.3633871744
 20
23.9297484976
 10
-25.3728281702
 20
23.9106378499
 10
-25.382139945
 20
23.8914650781
 10
-25.391328029
 20
23.872218663
 10
-25.4003945628
 20
23.8528936676
 10
-25.4093385273
 20
23.8334918333
 10
-25.4181605135
 20
23.8140115601
  0
LWPOLYLINE
  5
273
100
AcDbEntity
  8
SUPERFICI
100
AcDbPolyline
 62
7
  6
CONTINUOUS
 90
10
 70
0
 10
-23.8140066113
 20
25.4181496252
 10
-24.0235756409
 20
25.314708272
 10
-24.2263667662
 20
25.1951699226
 10
-24.4204510519
 20
25.0603794742
 10
-24.6044108959
 20
24.9113158795
 10
-24.7772683977
 20
24.7487208566
 10
-24.9376437094
 20
24.5737927688
 10
-25.0844954392
 20
24.3877815811
 10
-25.2171973569
 20
24.1913765898
 10
-25.334275989
 20
23.9867322225
  0
LWPOLYLINE
  5
274
100
AcDbEntity
  8
SUPERFICI
100
AcDbPolyline
 62
250
  6
CONTINUOUS
 90
10
 70
0
 10
24.0865663579
 20
-31.0246453689
 10
24.4141423095
 20
-30.9874062559
 10
24.7346544955
 20
-30.940490595
 10
25.0477338911
 20
-30.8842335932
 10
25.3528378908
 20
-30.8190355936
 10
25.6498752562
 20
-30.7452299966
 10
25.9391795355
 20
-30.6630166278
 10
26.2197683598
 20
-30.5728798883
 10
26.4917312908
 20
-30.4749899953
 10
26.7549907543
 20
-30.369619874
  0
LINE
  5
275
100
AcDbEntity
  8
SUPERFICI
100
AcDbLine
 62
250
  6
CONTINUOUS
 10
26.2945622738
 20
-35.6313395223
 11
27.8243897177
 21
-35.5828566402
  0
LINE
  5
276
100
AcDbEntity
  8
SUPERFICI
100
AcDbLine
 62
250
  6
CONTINUOUS
 10
23.1104177487
 20
-35.7071776223
 11
26.2945622738
 21
-35.6313395223
  0
LWPOLYLINE
  5
277
100
AcDbEntity
  8
SUPERFICI
100
AcDbPolyline
 62
250
  6
CONTINUOUS
 90
9
 70
0
 10
6.4967671817
 20
-35.9106256653
 10
8.5477396121
 20
-35.9049897996
 10
10.5422251219
 20
-35.8933041414
 10
12.4852038136
 20
-35.8769952326
 10
14.3768764483
 20
-35.8566135623
 10
16.2170327272
 20
-35.8325675545
 10
18.0100302575
 20
-35.8052439127
 10
19.7560142319
 20
-35.7750101011
 10
23.1104177487
 20
-35.7071776223
  0
LINE
  5
278
100
AcDbEntity
  8
SUPERFICI
100
AcDbLine
 62
250
  6
CONTINUOUS
 10
-6.4905631318
 20
-35.9106343118
 11
6.4967671817
 21
-35.9106256653
  0
LWPOLYLINE
  5
279
100
AcDbEntity
  8
SUPERFICI
100
AcDbPolyline
 62
250
  6
CONTINUOUS
 90
8
 70
0
 10
-19.7527360157
 20
-35.7750701713
 10
-18.0060553367
 20
-35.80530869
 10
-16.2120877069
 20
-35.8326376254
 10
-14.3708719053
 20
-35.8566853136
 10
-12.4784987295
 20
-35.8770594479
 10
-10.5352364432
 20
-35.8933546795
 10
-8.5408264053
 20
-35.9050195345
 10
-6.4905631318
 20
-35.9106343118
  0
LINE
  5
27A
100
AcDbEntity
  8
SUPERFICI
100
AcDbLine
 62
250
  6
CONTINUOUS
 10
-23.1083679416
 20
-35.707222922
 11
-19.7527360157
 21
-35.7750701713
  0
LWPOLYLINE
  5
27B
100
AcDbEntity
  8
SUPERFICI
100
AcDbPolyline
 62
250
  6
CONTINUOUS
 90
3
 70
0
 10
-27.8243897177
 20
-35.5828566402
 10
-26.2938652748
 20
-35.6313573103
 10
-23.1083679416
 20
-35.707222922
  0
LWPOLYLINE
  5
27C
100
AcDbEntity
  8
SUPERFICI
100
AcDbPolyline
 62
250
  6
CONTINUOUS
 90
10
 70
0
 10
-24.0865663579
 20
-31.0246453689
 10
-24.4141423095
 20
-30.9874062559
 10
-24.7346544955
 20
-30.940490595
 10
-25.0477338911
 20
-30.8842335932
 10
-25.3528378908
 20
-30.8190355936
 10
-25.6498752562
 20
-30.7452299966
 10
-25.9391795355
 20
-30.6630166278
 10
-26.2197683598
 20
-30.5728798883
 10
-26.4917312908
 20
-30.4749899953
 10
-26.7549907543
 20
-30.369619874
  0
LWPOLYLINE
  5
27D
100
AcDbEntity
  8
SUPERFICI
100
AcDbPolyline
 62
7
  6
CONTINUOUS
 90
10
 70
0
 10
-23.8140066113
 20
-25.4181496252
 10
-24.0235756409
 20
-25.314708272
 10
-24.2263667662
 20
-25.1951699226
 10
-24.4204510519
 20
-25.0603794742
 10
-24.6044108959
 20
-24.9113158795
 10
-24.7772683977
 20
-24.7487208566
 10
-24.9376437094
 20
-24.5737927688
 10
-25.0844954392
 20
-24.3877815811
 10
-25.2171973569
 20
-24.1913765898
 10
-25.334275989
 20
-23.9867322225
  0
LWPOLYLINE
  5
27E
100
AcDbEntity
  8
SUPERFICI
100
AcDbPolyline
 62
7
  6
CONTINUOUS
 90
10
 70
0
 10
-25.3342758969
 20
-23.9867323983
 10
-25.344111002
 20
-23.9677959524
 10
-25.3538145021
 20
-23.9488018121
 10
-25.3633871744
 20
-23.9297484976
 10
-25.3728281702
 20
-23.9106378499
 10
-25.382139945
 20
-23.8914650781
 10
-25.391328029
 20
-23.872218663
 10
-25.4003945628
 20
-23.8528936676
 10
-25.4093385273
 20
-23.8334918333
 10
-25.4181605135
 20
-23.8140115601
  0
LINE
  5
27F
100
AcDbEntity
  8
SUPERFICI
100
AcDbLine
 62
250
  6
CONTINUOUS
 10
-31.0428583296
 20
-23.8787684896
 11
-31.1283178806
 21
-22.3838933771
  0
LINE
  5
280
100
AcDbEntity
  8
SUPERFICI
100
AcDbLine
 62
250
  6
CONTINUOUS
 10
-31.1283178806
 20
-22.3838933771
 11
-31.2100043561
 21
-20.8136263263
  0
LINE
  5
281
100
AcDbEntity
  8
SUPERFICI
100
AcDbLine
 62
250
  6
CONTINUOUS
 10
-31.2100043561
 20
-20.8136263263
 11
-31.289347751
 21
-19.1662987749
  0
LINE
  5
282
100
AcDbEntity
  8
SUPERFICI
100
AcDbLine
 62
250
  6
CONTINUOUS
 10
-31.289347751
 20
-19.1662987749
 11
-31.3656452836
 21
-17.4360604102
  0
LINE
  5
283
100
AcDbEntity
  8
SUPERFICI
100
AcDbLine
 62
250
  6
CONTINUOUS
 10
-31.3656452836
 20
-17.4360604102
 11
-31.4380316739
 21
-15.6178172396
  0
LINE
  5
284
100
AcDbEntity
  8
SUPERFICI
100
AcDbLine
 62
250
  6
CONTINUOUS
 10
-31.4380316739
 20
-15.6178172396
 11
-31.5054787895
 21
-13.7080027167
  0
LINE
  5
285
100
AcDbEntity
  8
SUPERFICI
100
AcDbLine
 62
250
  6
CONTINUOUS
 10
-31.5054787895
 20
-13.7080027167
 11
-31.5668782295
 21
-11.7011097896
  0
LINE
  5
286
100
AcDbEntity
  8
SUPERFICI
100
AcDbLine
 62
250
  6
CONTINUOUS
 10
-31.5668782295
 20
-11.7011097896
 11
-31.6209732423
 21
-9.5907692619
  0
LINE
  5
287
100
AcDbEntity
  8
SUPERFICI
100
AcDbLine
 62
250
  6
CONTINUOUS
 10
-31.6209732423
 20
-9.5907692619
 11
-31.6662693439
 21
-7.3725162105
  0
LWPOLYLINE
  5
288
100
AcDbEntity
  8
SUPERFICI
100
AcDbPolyline
 62
250
  6
CONTINUOUS
 90
6
 70
0
 10
-31.6662693439
 20
-7.3725162105
 10
-31.7011260298
 20
-5.0392772593
 10
-31.7140621591
 20
-3.8269953176
 10
-31.7236612464
 20
-2.5826013872
 10
-31.7296324318
 20
-1.3069349888
 10
-31.7316879503
 20
-0.0
  0
LWPOLYLINE
  5
289
100
AcDbEntity
  8
SUPERFICI
100
AcDbPolyline
 62
250
  6
CONTINUOUS
 90
5
 70
0
 10
-31.7011260298
 20
5.0392772593
 10
-31.7140621591
 20
3.8269953176
 10
-31.7236612464
 20
2.5826013872
 10
-31.7296324318
 20
1.3069349888
 10
-31.7316879503
 20
0.0
  0
LINE
  5
28A
100
AcDbEntity
  8
SUPERFICI
100
AcDbLine
 62
250
  6
CONTINUOUS
 10
-31.6662693439
 20
7.3725162105
 11
-31.7011260298
 21
5.0392772593
  0
LINE
  5
28B
100
AcDbEntity
  8
SUPERFICI
100
AcDbLine
 62
250
  6
CONTINUOUS
 10
-31.6209732423
 20
9.5907692619
 11
-31.6662693439
 21
7.3725162105
  0
LINE
  5
28C
100
AcDbEntity
  8
SUPERFICI
100
AcDbLine
 62
250
  6
CONTINUOUS
 10
-31.5668782295
 20
11.7011097896
 11
-31.6209732423
 21
9.5907692619
  0
LINE
  5
28D
100
AcDbEntity
  8
SUPERFICI
100
AcDbLine
 62
250
  6
CONTINUOUS
 10
-31.5054787895
 20
13.7080027167
 11
-31.5668782295
 21
11.7011097896
  0
LINE
  5
28E
100
AcDbEntity
  8
SUPERFICI
100
AcDbLine
 62
250
  6
CONTINUOUS
 10
-31.4380316739
 20
15.6178172396
 11
-31.5054787895
 21
13.7080027167
  0
LINE
  5
28F
100
AcDbEntity
  8
SUPERFICI
100
AcDbLine
 62
250
  6
CONTINUOUS
 10
-31.3656452836
 20
17.4360604102
 11
-31.4380316739
 21
15.6178172396
  0
LINE
  5
290
100
AcDbEntity
  8
SUPERFICI
100
AcDbLine
 62
250
  6
CONTINUOUS
 10
-31.289347751
 20
19.1662987749
 11
-31.3656452836
 21
17.4360604102
  0
LINE
  5
291
100
AcDbEntity
  8
SUPERFICI
100
AcDbLine
 62
250
  6
CONTINUOUS
 10
-31.1693693173
 20
21.6079326789
 11
-31.289347751
 21
19.1662987749
  0
LWPOLYLINE
  5
292
100
AcDbEntity
  8
SUPERFICI
100
AcDbPolyline
 62
250
  6
CONTINUOUS
 90
3
 70
0
 10
-31.0428583296
 20
23.8787684896
 10
-31.0866078756
 20
23.1408724535
 10
-31.1693693173
 20
21.6079326789
  0
LWPOLYLINE
  5
293
100
AcDbEntity
  8
SUPERFICI
100
AcDbPolyline
 62
7
  6
CONTINUOUS
 90
10
 70
0
 10
-25.4181604325
 20
23.8140117406
 10
-25.4678936115
 20
23.697017673
 10
-25.51296893
 20
23.5779988012
 10
-25.5534315262
 20
23.4567686096
 10
-25.589149998
 20
23.3336271421
 10
-25.6199937973
 20
23.2089529043
 10
-25.6459039926
 20
23.0829203639
 10
-25.6668525527
 20
22.9556027088
 10
-25.682793026
 20
22.8271116364
 10
-25.6936771012
 20
22.697553935
  0
LINE
  5
294
100
AcDbEntity
  8
RACCORDO
100
AcDbLine
 62
7
  6
CONTINUOUS
 10
-39.8826004623
 20
-3.5239590572
 11
-39.9848786315
 21
-3.6860137352
  0
LINE
  5
295
100
AcDbEntity
  8
SUPERFICI
100
AcDbLine
 62
250
  6
CONTINUOUS
 10
23.2191558819
 20
-31.0867739105
 11
24.0865663579
 21
-31.0246453689
  0
LINE
  5
296
100
AcDbEntity
  8
SUPERFICI
100
AcDbLine
 62
250
  6
CONTINUOUS
 10
21.3982877745
 20
-31.1909263996
 11
23.2191558819
 21
-31.0867739105
  0
LINE
  5
297
100
AcDbEntity
  8
SUPERFICI
100
AcDbLine
 62
250
  6
CONTINUOUS
 10
19.4842580931
 20
-31.2873615357
 11
21.3982877745
 21
-31.1909263996
  0
LWPOLYLINE
  5
298
100
AcDbEntity
  8
SUPERFICI
100
AcDbPolyline
 62
250
  6
CONTINUOUS
 90
12
 70
0
 10
5.6566265885
 20
-31.6431639582
 10
6.9810849178
 20
-31.6349324246
 10
8.2722682633
 20
-31.621327638
 10
9.5301390359
 20
-31.6028062069
 10
10.7547015769
 20
-31.5802907254
 10
11.9484056977
 20
-31.5539756136
 10
13.1112636609
 20
-31.5241411833
 10
14.24326337
 20
-31.4911454103
 10
15.3468209428
 20
-31.455265738
 10
16.4218314889
 20
-31.4167949104
 10
17.4683319843
 20
-31.3759638973
 10
19.4842580931
 20
-31.2873615357
  0
LWPOLYLINE
  5
299
100
AcDbEntity
  8
SUPERFICI
100
AcDbPolyline
 62
250
  6
CONTINUOUS
 90
3
 70
0
 10
-4.325064894
 20
-31.6470271053
 10
2.8999651149
 20
-31.6476996849
 10
5.6566265885
 20
-31.6431639582
  0
LWPOLYLINE
  5
29A
100
AcDbEntity
  8
SUPERFICI
100
AcDbPolyline
 62
250
  6
CONTINUOUS
 90
11
 70
0
 10
-16.4673299046
 20
-31.4150887849
 10
-15.3949282278
 20
-31.4536113474
 10
-14.2932176642
 20
-31.4896094733
 10
-13.162261402
 20
-31.5227411654
 10
-11.999462908
 20
-31.5527470973
 10
-10.8048364242
 20
-31.5792764998
 10
-9.5783657043
 20
-31.6020082816
 10
-8.3174034691
 20
-31.6207230881
 10
-7.0219243308
 20
-31.6346347839
 10
-5.6919838344
 20
-31.6432006601
 10
-4.325064894
 20
-31.6470271053
  0
LINE
  5
29B
100
AcDbEntity
  8
SUPERFICI
100
AcDbLine
 62
250
  6
CONTINUOUS
 10
-18.527064901
 20
-31.3311095378
 11
-16.4673299046
 21
-31.4150887849
  0
LINE
  5
29C
100
AcDbEntity
  8
SUPERFICI
100
AcDbLine
 62
250
  6
CONTINUOUS
 10
-20.481090418
 20
-31.2386360539
 11
-18.527064901
 21
-31.3311095378
  0
LWPOLYLINE
  5
29D
100
AcDbEntity
  8
SUPERFICI
100
AcDbPolyline
 62
250
  6
CONTINUOUS
 90
4
 70
0
 10
-24.0865663579
 20
-31.0246453689
 10
-23.226952555
 20
-31.0862684908
 10
-22.3360840712
 20
-31.1386423899
 10
-20.481090418
 20
-31.2386360539
  0
LINE
  5
29E
100
AcDbEntity
  8
RACCORDO
100
AcDbLine
 62
7
  6
CONTINUOUS
 10
-39.9848786315
 20
3.6860137352
 11
-39.8826004623
 21
3.5239590572
  0
LWPOLYLINE
  5
29F
100
AcDbEntity
  8
SUPERFICI
100
AcDbPolyline
 62
7
  6
CONTINUOUS
 90
10
 70
0
 10
-25.4181604325
 20
-23.8140117406
 10
-25.4678936115
 20
-23.697017673
 10
-25.51296893
 20
-23.5779988012
 10
-25.5534315262
 20
-23.4567686096
 10
-25.589149998
 20
-23.3336271421
 10
-25.6199937973
 20
-23.2089529043
 10
-25.6459039926
 20
-23.0829203639
 10
-25.6668525527
 20
-22.9556027088
 10
-25.682793026
 20
-22.8271116364
 10
-25.6936771012
 20
-22.697553935
  0
LWPOLYLINE
  5
2A0
100
AcDbEntity
  8
SUPERFICI
100
AcDbPolyline
 62
7
  6
CONTINUOUS
 90
10
 70
0
 10
-25.6930384606
 20
-22.6975045784
 10
-25.6944476909
 20
-22.6751820589
 10
-25.6957103446
 20
-22.6528295776
 10
-25.6968261675
 20
-22.6304478342
 10
-25.6977948831
 20
-22.6080380883
 10
-25.6986162664
 20
-22.5856004856
 10
-25.6992901074
 20
-22.5631340533
 10
-25.6998161291
 20
-22.5406389347
 10
-25.7001940244
 20
-22.5181163937
 10
-25.7004235043
 20
-22.4955671375
  0
LINE
  5
2A1
100
AcDbEntity
  8
SUPERFICI
100
AcDbLine
 62
7
  6
CONTINUOUS
 10
-25.7004235043
 20
-22.4955671375
 11
-25.7004239475
 21
22.49556714
  0
LWPOLYLINE
  5
2A2
100
AcDbEntity
  8
SUPERFICI
100
AcDbPolyline
 62
7
  6
CONTINUOUS
 90
16
 70
0
 10
-24.2143662665
 20
22.2017569107
 10
-24.2035264117
 20
22.401873173
 10
-24.171368141
 20
22.6031343318
 10
-24.1184371683
 20
22.8021205325
 10
-24.0451601826
 20
22.9956665473
 10
-23.9521595543
 20
23.1799805625
 10
-23.8406610894
 20
23.351085963
 10
-23.7129514079
 20
23.5074800341
 10
-23.5708194995
 20
23.6496848493
 10
-23.4145752968
 20
23.777444422
 10
-23.2438846803
 20
23.8889056542
 10
-23.0601187865
 20
23.9818933053
 10
-22.866767324
 20
24.0553581271
 10
-22.6674180721
 20
24.1086094009
 10
-22.4653827796
 20
24.1410460027
 10
-22.2641175103
 20
24.1520056669
  0
LWPOLYLINE
  5
2A3
100
AcDbEntity
  8
SUPERFICI
100
AcDbPolyline
 62
7
  6
CONTINUOUS
 90
10
 70
0
 10
-25.6936770885
 20
22.6975541339
 10
-25.6950123527
 20
22.6754122856
 10
-25.6961875101
 20
22.653190004
 10
-25.6972082954
 20
22.6308894521
 10
-25.6980805322
 20
22.6085128396
 10
-25.6988101358
 20
22.5860623768
 10
-25.6994031119
 20
22.5635402745
 10
-25.6998655559
 20
22.5409488064
 10
-25.700203654
 20
22.5182903098
 10
-25.7004236849
 20
22.4955671387
  0
LWPOLYLINE
  5
2A4
100
AcDbEntity
  8
SUPERFICI
100
AcDbPolyline
 62
7
  6
CONTINUOUS
 90
10
 70
0
 10
22.6975533314
 20
-25.6936696952
 10
22.8270109643
 20
-25.6827822297
 10
22.9554414908
 20
-25.6668385782
 10
23.0827290869
 20
-25.6458881794
 10
23.2087476853
 20
-25.619979807
 10
23.3334210376
 20
-25.5891416529
 10
23.456582434
 20
-25.5534289545
 10
23.5778524188
 20
-25.5129698746
 10
23.6969291707
 20
-25.4678941966
 10
23.8140068827
 20
-25.4181495036
  0
LWPOLYLINE
  5
2A5
100
AcDbEntity
  8
SUPERFICI
100
AcDbPolyline
 62
7
  6
CONTINUOUS
 90
10
 70
0
 10
22.4957839709
 20
-25.7004235177
 10
22.5184824407
 20
-25.7002027027
 10
22.5411162734
 20
-25.6998637434
 10
22.5636831663
 20
-25.699400387
 10
22.586180863
 20
-25.6988064753
 10
22.6086071117
 20
-25.6980759453
 10
22.6309596645
 20
-25.6972028293
 10
22.6532363341
 20
-25.6961812531
 10
22.6754349928
 20
-25.695005434
 10
22.6975535308
 20
-25.6936696823
  0
LINE
  5
2A6
100
AcDbEntity
  8
SUPERFICI
100
AcDbLine
 62
7
  6
CONTINUOUS
 10
22.4957839709
 20
-25.7004235177
 11
-22.4957839733
 21
-25.7004239387
  0
LWPOLYLINE
  5
2A7
100
AcDbEntity
  8
SUPERFICI
100
AcDbPolyline
 62
7
  6
CONTINUOUS
 90
10
 70
0
 10
-22.4957839721
 20
-25.7004236916
 10
-22.5184824286
 20
-25.7002028913
 10
-22.5411162469
 20
-25.6998639273
 10
-22.5636831248
 20
-25.6994005515
 10
-22.5861808061
 20
-25.6988066106
 10
-22.60860704
 20
-25.6980760464
 10
-22.6309595805
 20
-25.6972028959
 10
-22.6532362411
 20
-25.6961812894
 10
-22.6754348945
 20
-25.6950054488
 10
-22.6975534312
 20
-25.693669689
  0
LWPOLYLINE
  5
2A8
100
AcDbEntity
  8
SUPERFICI
100
AcDbPolyline
 62
7
  6
CONTINUOUS
 90
16
 70
0
 10
-22.2641175103
 20
-24.1520056669
 10
-22.4623772625
 20
-24.1411931863
 10
-22.6608274329
 20
-24.1091488279
 10
-22.8569929231
 20
-24.0564696411
 10
-23.0487599051
 20
-23.9835891128
 10
-23.2331511827
 20
-23.8912183513
 10
-23.4065161361
 20
-23.7807431552
 10
-23.5656201876
 20
-23.6539096483
 10
-23.7092465782
 20
-23.5111089772
 10
-23.8372814449
 20
-23.3522710261
 10
-23.9492737089
 20
-23.1783500518
 10
-24.0431883117
 20
-22.9926627997
 10
-24.117291739
 20
-22.7993701615
 10
-24.1708134233
 20
-22.6016946402
 10
-24.2033767359
 20
-22.4016448354
 10
-24.2143662665
 20
-22.2017569107
  0
LWPOLYLINE
  5
2A9
100
AcDbEntity
  8
SUPERFICI
100
AcDbPolyline
 62
7
  6
CONTINUOUS
 90
10
 70
0
 10
-22.6975532318
 20
-25.6936697018
 10
-22.8270108659
 20
-25.6827822401
 10
-22.9554413937
 20
-25.6668385923
 10
-23.082728991
 20
-25.6458881973
 10
-23.2087475905
 20
-25.6199798285
 10
-23.3334209439
 20
-25.5891416781
 10
-23.4565823413
 20
-25.5534289835
 10
-23.5778523269
 20
-25.5129699074
 10
-23.6969290795
 20
-25.4678942332
 10
-23.8140067922
 20
-25.418149544
  0
LWPOLYLINE
  5
2AA
100
AcDbEntity
  8
SUPERFICI
100
AcDbPolyline
 62
250
  6
CONTINUOUS
 90
10
 70
0
 10
-22.4957839733
 20
25.7004239387
 10
-22.4886018462
 20
25.5189004216
 10
-22.4766876582
 20
25.3376249076
 10
-22.4600414093
 20
25.157345567
 10
-22.4385398816
 20
24.9784221342
 10
-22.4123062929
 20
24.8021063296
 10
-22.3817102961
 20
24.6304417911
 10
-22.3468751089
 20
24.4645722492
 10
-22.3076775137
 20
24.3048422292
 10
-22.2641175103
 20
24.1520063295
  0
LWPOLYLINE
  5
2AB
100
AcDbEntity
  8
SUPERFICI
100
AcDbPolyline
 62
250
  6
CONTINUOUS
 90
4
 70
0
 10
-22.2615932563
 20
22.6486969955
 10
-22.2606912039
 20
22.5967607705
 10
-22.2597289593
 20
22.5642725291
 10
-22.258706465
 20
22.5517100749
  0
LINE
  5
2AC
100
AcDbEntity
  8
SUPERFICI
100
AcDbLine
 62
250
  6
CONTINUOUS
 10
-22.2632474838
 20
22.8082043409
 11
-22.2615932563
 21
22.6486969955
  0
LINE
  5
2AD
100
AcDbEntity
  8
SUPERFICI
100
AcDbLine
 62
250
  6
CONTINUOUS
 10
-22.265333476
 20
23.3119444982
 11
-22.2632474838
 21
22.8082043409
  0
LINE
  5
2AE
100
AcDbEntity
  8
SUPERFICI
100
AcDbLine
 62
250
  6
CONTINUOUS
 10
-22.2641175076
 20
-24.1521107976
 11
-22.2655278318
 21
-23.6099028607
  0
LINE
  5
2AF
100
AcDbEntity
  8
SUPERFICI
100
AcDbLine
 62
250
  6
CONTINUOUS
 10
-24.2144765672
 20
-22.2017569079
 11
-24.2144765672
 21
22.2017569079
  0
LINE
  5
2B0
100
AcDbEntity
  8
SUPERFICI
100
AcDbLine
 62
250
  6
CONTINUOUS
 10
-22.6016323361
 20
-22.2089552239
 11
-22.6016323361
 21
22.2089552239
  0
LINE
  5
2B1
100
AcDbEntity
  8
0
100
AcDbLine
 62
7
  6
CONTINUOUS
 10
-22.5926016864
 20
-22.2089552239
 11
-22.5926016864
 21
22.2089552239
  0
LINE
  5
2B2
100
AcDbEntity
  8
DRAFT
100
AcDbLine
 62
7
  6
CONTINUOUS
 10
-22.5768909659
 20
22.2089552239
 11
-22.5768784196
 21
2.5
  0
LINE
  5
2B3
100
AcDbEntity
  8
DRAFT
100
AcDbLine
 62
7
  6
CONTINUOUS
 10
-22.5768752367
 20
-2.5
 11
-22.5768626904
 21
-22.2089552239
  0
LINE
  5
2B4
100
AcDbEntity
  8
0
100
AcDbLine
 62
250
  6
CONTINUOUS
 10
-22.2587064677
 20
22.5518810923
 11
-22.2587064677
 21
22.5428504426
  0
LINE
  5
2B5
100
AcDbEntity
  8
0
100
AcDbLine
 62
250
  6
CONTINUOUS
 10
-22.2587064677
 20
-22.5428504426
 11
-22.2587064677
 21
-22.5518810923
  0
LINE
  5
2B6
100
AcDbEntity
  8
SUPERFICI
100
AcDbLine
 62
250
  6
CONTINUOUS
 10
-22.2651235598
 20
23.8973699643
 11
-22.265333476
 21
23.3119444982
  0
LINE
  5
2B7
100
AcDbEntity
  8
SUPERFICI
100
AcDbLine
 62
250
  6
CONTINUOUS
 10
-22.2655278318
 20
-23.6099028607
 11
-22.2645232621
 21
-23.034832006
  0
LINE
  5
2B8
100
AcDbEntity
  8
SUPERFICI
100
AcDbLine
 62
250
  6
CONTINUOUS
 10
-22.2641175076
 20
24.1521107976
 11
-22.2651235598
 21
23.8973699643
  0
LWPOLYLINE
  5
2B9
100
AcDbEntity
  8
SUPERFICI
100
AcDbPolyline
 62
250
  6
CONTINUOUS
 90
6
 70
0
 10
-22.2645232621
 20
-23.034832006
 10
-22.2624504063
 20
-22.719455211
 10
-22.2615932563
 20
-22.6486969955
 10
-22.2606912039
 20
-22.5967607705
 10
-22.2597289593
 20
-22.5642725291
 10
-22.258706465
 20
-22.5517100749
  0
LWPOLYLINE
  5
2BA
100
AcDbEntity
  8
SUPERFICI
100
AcDbPolyline
 62
250
  6
CONTINUOUS
 90
10
 70
0
 10
-22.4957839733
 20
-25.7004239387
 10
-22.4886018462
 20
-25.5189004216
 10
-22.4766876582
 20
-25.3376249076
 10
-22.4600414093
 20
-25.157345567
 10
-22.4385398816
 20
-24.9784221342
 10
-22.4123062929
 20
-24.8021063296
 10
-22.3817102961
 20
-24.6304417911
 10
-22.3468751089
 20
-24.4645722492
 10
-22.3076775137
 20
-24.3048422292
 10
-22.2641175103
 20
-24.1520063295
  0
LWPOLYLINE
  5
2BB
100
AcDbEntity
  8
SUPERFICI
100
AcDbPolyline
 62
250
  6
CONTINUOUS
 90
10
 70
0
 10
-25.7004239475
 20
-22.49556714
 10
-25.5271788914
 20
-22.4867199811
 10
-25.3538504051
 20
-22.4718420982
 10
-25.1811922409
 20
-22.450933491
 10
-25.0096571746
 20
-22.4238860015
 10
-24.8404391484
 20
-22.3908077877
 10
-24.6753887701
 20
-22.3520233243
 10
-24.5156371806
 20
-22.3076407694
 10
-24.3616816551
 20
-22.2575519649
 10
-24.2143670218
 20
-22.2017569107
  0
LWPOLYLINE
  5
2BC
100
AcDbEntity
  8
SUPERFICI
100
AcDbPolyline
 62
250
  6
CONTINUOUS
 90
4
 70
0
 10
22.6997198093
 20
-22.2050396134
 10
22.6470963216
 20
-22.206262051
 10
22.6141768013
 20
-22.207567274
 10
22.6014564049
 20
-22.2089552211
  0
LINE
  5
2BD
100
AcDbEntity
  8
SUPERFICI
100
AcDbLine
 62
250
  6
CONTINUOUS
 10
22.8612656933
 20
-22.202801948
 11
22.6997198093
 21
-22.2050396134
  0
LINE
  5
2BE
100
AcDbEntity
  8
SUPERFICI
100
AcDbLine
 62
250
  6
CONTINUOUS
 10
23.2266232162
 20
-22.2004439887
 11
22.8612656933
 21
-22.202801948
  0
LINE
  5
2BF
100
AcDbEntity
  8
SUPERFICI
100
AcDbLine
 62
250
  6
CONTINUOUS
 10
-24.2144765672
 20
-22.2017569079
 11
-23.8190701144
 21
-22.1999601012
  0
LINE
  5
2C0
100
AcDbEntity
  8
SUPERFICI
100
AcDbLine
 62
250
  6
CONTINUOUS
 10
22.2641175103
 20
-24.1520063295
 11
-22.2641175076
 21
-24.1521107976
  0
LINE
  5
2C1
100
AcDbEntity
  8
SUPERFICI
100
AcDbLine
 62
250
  6
CONTINUOUS
 10
22.2587064677
 20
-22.5518810923
 11
-22.2587064677
 21
-22.5518810923
  0
LINE
  5
2C2
100
AcDbEntity
  8
0
100
AcDbLine
 62
7
  6
CONTINUOUS
 10
22.2587064677
 20
-22.5428504426
 11
-22.2587064677
 21
-22.5428504426
  0
LINE
  5
2C3
100
AcDbEntity
  8
DRAFT
100
AcDbLine
 62
7
  6
CONTINUOUS
 10
-22.2587064677
 20
-22.5271112441
 11
-2.5
 21
-22.5271112441
  0
LINE
  5
2C4
100
AcDbEntity
  8
DRAFT
100
AcDbLine
 62
7
  6
CONTINUOUS
 10
2.5
 20
-22.5271112441
 11
22.2587064677
 21
-22.5271112441
  0
LINE
  5
2C5
100
AcDbEntity
  8
0
100
AcDbLine
 62
250
  6
CONTINUOUS
 10
-22.6016323361
 20
-22.2089552239
 11
-22.5926016864
 21
-22.2089552239
  0
LINE
  5
2C6
100
AcDbEntity
  8
0
100
AcDbLine
 62
250
  6
CONTINUOUS
 10
22.5926016864
 20
-22.2089552239
 11
22.6016323361
 21
-22.2089552239
  0
LINE
  5
2C7
100
AcDbEntity
  8
SUPERFICI
100
AcDbLine
 62
250
  6
CONTINUOUS
 10
23.8190701144
 20
-22.1999601012
 11
23.2266232162
 21
-22.2004439887
  0
LINE
  5
2C8
100
AcDbEntity
  8
SUPERFICI
100
AcDbLine
 62
250
  6
CONTINUOUS
 10
-23.8190701144
 20
-22.1999601012
 11
-23.2266232162
 21
-22.2004439887
  0
LINE
  5
2C9
100
AcDbEntity
  8
SUPERFICI
100
AcDbLine
 62
250
  6
CONTINUOUS
 10
24.2144765672
 20
-22.2017569079
 11
23.8190701144
 21
-22.1999601012
  0
LINE
  5
2CA
100
AcDbEntity
  8
SUPERFICI
100
AcDbLine
 62
250
  6
CONTINUOUS
 10
-23.2266232162
 20
-22.2004439887
 11
-22.8612656933
 21
-22.202801948
  0
LWPOLYLINE
  5
2CB
100
AcDbEntity
  8
SUPERFICI
100
AcDbPolyline
 62
250
  6
CONTINUOUS
 90
5
 70
0
 10
-22.8612656933
 20
-22.202801948
 10
-22.6997198093
 20
-22.2050396134
 10
-22.6470963216
 20
-22.206262051
 10
-22.6141768013
 20
-22.207567274
 10
-22.6014564049
 20
-22.2089552211
  0
LWPOLYLINE
  5
2CC
100
AcDbEntity
  8
SUPERFICI
100
AcDbPolyline
 62
250
  6
CONTINUOUS
 90
10
 70
0
 10
25.7004239475
 20
-22.49556714
 10
25.5271788914
 20
-22.4867199811
 10
25.3538504051
 20
-22.4718420982
 10
25.1811922409
 20
-22.450933491
 10
25.0096571746
 20
-22.4238860015
 10
24.8404391484
 20
-22.3908077877
 10
24.6753887701
 20
-22.3520233243
 10
24.5156371806
 20
-22.3076407694
 10
24.3616816551
 20
-22.2575519649
 10
24.2143670218
 20
-22.2017569107
  0
LWPOLYLINE
  5
2CD
100
AcDbEntity
  8
SUPERFICI
100
AcDbPolyline
 62
250
  6
CONTINUOUS
 90
13
 70
0
 10
-36.83145662
 20
-39.7484790161
 10
-36.8272111586
 20
-39.7386986989
 10
-36.814237678
 20
-39.7200861976
 10
-36.7922293686
 20
-39.6924879444
 10
-36.7608813935
 20
-39.6557701224
 10
-36.7200737775
 20
-39.6100360741
 10
-36.6700362717
 20
-39.555780164
 10
-36.6110102876
 20
-39.4935067354
 10
-36.543159746
 20
-39.4236595135
 10
-36.4668874436
 20
-39.3469575407
 10
-36.382655891
 20
-39.2642044894
 10
-36.2909668715
 20
-39.176274748
 10
-36.192447177
 20
-39.0842009192
  0
LWPOLYLINE
  5
2CE
100
AcDbEntity
  8
SUPERFICI
100
AcDbPolyline
 62
250
  6
CONTINUOUS
 90
10
 70
0
 10
39.7453132125
 20
37.1319684617
 10
39.7301567127
 20
37.1248460913
 10
39.6991400648
 20
37.1038102537
 10
39.6522978832
 20
37.0684119278
 10
39.5898413398
 20
37.0182683302
 10
39.5124626068
 20
36.9532983383
 10
39.4215406073
 20
36.8739269466
 10
39.3186704459
 20
36.7806988935
 10
39.2055095309
 20
36.6741052146
 10
39.0842009192
 20
36.5549468208
  0
LWPOLYLINE
  5
2CF
100
AcDbEntity
  8
SUPERFICI
100
AcDbPolyline
 62
250
  6
CONTINUOUS
 90
10
 70
0
 10
39.7484790162
 20
36.83145662
 10
39.7332652623
 20
36.8247115376
 10
39.7020304731
 20
36.8040604363
 10
39.6548143766
 20
36.7689806446
 10
39.5918598972
 20
36.7190178907
 10
39.5139056542
 20
36.6540075917
 10
39.4223831369
 20
36.5742708229
 10
39.3189752641
 20
36.4802549527
 10
39.2054774025
 20
36.3723700144
 10
39.0842009192
 20
36.2513322422
  0
LWPOLYLINE
  5
2D0
100
AcDbEntity
  8
SUPERFICI
100
AcDbPolyline
 62
250
  6
CONTINUOUS
 90
10
 70
0
 10
39.7484790161
 20
-36.8314569315
 10
39.7332652808
 20
-36.8247118442
 10
39.7020305233
 20
-36.8040607268
 10
39.6548144583
 20
-36.7689809081
 10
39.5918599924
 20
-36.7190181151
 10
39.5139057387
 20
-36.6540077756
 10
39.4223832019
 20
-36.5742709876
 10
39.3189753108
 20
-36.4802551184
 10
39.205477427
 20
-36.3723701824
 10
39.0842009192
 20
-36.2513323977
  0
LWPOLYLINE
  5
2D1
100
AcDbEntity
  8
SUPERFICI
100
AcDbPolyline
 62
250
  6
CONTINUOUS
 90
10
 70
0
 10
39.7453131978
 20
-37.1319687685
 10
39.7301567008
 20
-37.1248463955
 10
39.6991400584
 20
-37.10381055
 10
39.6522978834
 20
-37.0684122108
 10
39.5898413461
 20
-37.0182685947
 10
39.5124626174
 20
-36.9532985802
 10
39.42154062
 20
-36.8739271638
 10
39.3186704578
 20
-36.7806990865
 10
39.2055095388
 20
-36.6741053867
 10
39.0842009192
 20
-36.5549469784
  0
LWPOLYLINE
  5
2D2
100
AcDbEntity
  8
SUPERFICI
100
AcDbPolyline
 62
250
  6
CONTINUOUS
 90
13
 70
0
 10
-36.8314563088
 20
39.7484790161
 10
-36.8272108486
 20
39.7386986971
 10
-36.814237372
 20
39.7200861926
 10
-36.7922290696
 20
39.6924879355
 10
-36.7608811053
 20
39.6557701101
 10
-36.7200735036
 20
39.6100360593
 10
-36.6700360148
 20
39.5557801476
 10
-36.6110100494
 20
39.4935067183
 10
-36.5431595275
 20
39.4236594972
 10
-36.4668872447
 20
39.3469575265
 10
-36.3826557101
 20
39.2642044786
 10
-36.2909667056
 20
39.176274742
 10
-36.1924470213
 20
39.0842009192
  0
LWPOLYLINE
  5
2D3
100
AcDbEntity
  8
SUPERFICI
100
AcDbPolyline
 62
250
  6
CONTINUOUS
 90
10
 70
0
 10
31.4098632768
 20
39.0842009192
 10
30.9902141686
 20
38.7138142218
 10
30.5765857645
 20
38.339364559
 10
30.1687903287
 20
37.9607199963
 10
29.7670289893
 20
37.5781238121
 10
29.3707237947
 20
37.1910869313
 10
28.9785599634
 20
36.7983346399
 10
28.5900207521
 20
36.3993053543
 10
28.2053451903
 20
35.9942038887
 10
27.8243897177
 20
35.5828566402
  0
LWPOLYLINE
  5
2D4
100
AcDbEntity
  8
SUPERFICI
100
AcDbPolyline
 62
250
  6
CONTINUOUS
 90
10
 70
0
 10
31.4098631222
 20
-39.0842009192
 10
30.9902143013
 20
-38.7138144738
 10
30.5765861183
 20
-38.3393650071
 10
30.1687908379
 20
-37.9607205825
 10
29.7670295893
 20
-37.5781244774
 10
29.3707244194
 20
-37.1910876127
 10
28.9785605413
 20
-36.7983352665
 10
28.5900212098
 20
-36.3993058505
 10
28.2053454556
 20
-35.9942041772
 10
27.8243897177
 20
-35.5828566402
  0
LWPOLYLINE
  5
2D5
100
AcDbEntity
  8
SUPERFICI
100
AcDbPolyline
 62
250
  6
CONTINUOUS
 90
10
 70
0
 10
-35.5837101741
 20
-27.8189626045
 10
-35.9900774923
 20
-28.2114486071
 10
-36.3906491535
 20
-28.6041467065
 10
-36.785929739
 20
-28.997539306
 10
-37.1760597795
 20
-29.3917381517
 10
-37.5619153964
 20
-29.7875926807
 10
-37.9450705585
 20
-30.1867078514
 10
-38.3263569396
 20
-30.5899662407
 10
-38.7059017274
 20
-30.9975102768
 10
-39.0842009193
 20
-31.4098631156
  0
LWPOLYLINE
  5
2D6
100
AcDbEntity
  8
SUPERFICI
100
AcDbPolyline
 62
250
  6
CONTINUOUS
 90
10
 70
0
 10
-35.5837101741
 20
27.8189626045
 10
-35.0778943461
 20
27.3385434728
 10
-34.5730464224
 20
26.8684840164
 10
-34.068759413
 20
26.4089023465
 10
-33.5645360144
 20
25.959768085
 10
-33.0602160279
 20
25.5212876249
 10
-32.5559968848
 20
25.0938931499
 10
-32.0518507282
 20
24.6777355364
 10
-31.5474995502
 20
24.2726970723
 10
-31.0428583296
 20
23.8787684896
  0
LWPOLYLINE
  5
2D7
100
AcDbEntity
  8
SUPERFICI
100
AcDbPolyline
 62
250
  6
CONTINUOUS
 90
10
 70
0
 10
-39.0842009192
 20
35.0340785899
 10
-38.6612634854
 20
34.5781174976
 10
-38.2360648583
 20
34.1240768224
 10
-37.8085961059
 20
33.6719463248
 10
-37.3788622327
 20
33.2217302966
 10
-36.9468405471
 20
32.7734038741
 10
-36.5124799011
 20
32.3269136277
 10
-36.075756549
 20
31.8822355288
 10
-35.6366749083
 20
31.4393743613
 10
-35.1952253949
 20
30.9983204474
  0
LWPOLYLINE
  5
2D8
100
AcDbEntity
  8
SUPERFICI
100
AcDbPolyline
 62
250
  6
CONTINUOUS
 90
10
 70
0
 10
-39.0842009193
 20
31.4098633476
 10
-38.7035730336
 20
30.9949912335
 10
-38.3223397043
 20
30.58568569
 10
-37.9400117876
 20
30.1813988127
 10
-37.5565905009
 20
29.7820887785
 10
-37.1711481537
 20
29.3867379953
 10
-36.781778048
 20
28.9933764094
 10
-36.3874988456
 20
28.6010352323
 10
-35.9883044917
 20
28.2097234642
 10
-35.5837101741
 20
27.8189626045
  0
LINE
  5
2D9
100
AcDbEntity
  8
DRAFT
100
AcDbLine
 62
7
  6
CONTINUOUS
 10
-2.5
 20
22.5428504426
 11
-2.5
 21
22.5271399246
  0
LINE
  5
2DA
100
AcDbEntity
  8
DRAFT
100
AcDbLine
 62
7
  6
CONTINUOUS
 10
-2.5
 20
-22.5271112441
 11
-2.5
 21
-22.5428504426
  0
LWPOLYLINE
  5
2DB
100
AcDbEntity
  8
0
100
AcDbPolyline
 62
7
  6
CONTINUOUS
 90
4
 70
0
 43
0.3500000006
 10
-2.3571427875
 20
50.0586708069
 10
-2.3571427875
 20
50.9158132782
 10
-1.9285714102
 20
51.3443867798
 10
-1.2857142735
 20
51.3443867798
  0
LINE
  5
2DC
100
AcDbEntity
  8
SUPERFICI
100
AcDbLine
 62
250
  6
CONTINUOUS
 10
-0.0000000026
 20
22.5520522228
 11
0.0
 21
39.7484790162
  0
LWPOLYLINE
  5
2DD
100
AcDbEntity
  8
0
100
AcDbPolyline
 62
7
  6
CONTINUOUS
 90
13
 70
0
 43
0.3500000006
 10
0.0
 20
50.4872397766
 10
0.0
 20
51.7729557495
 10
0.2142857063
 20
52.2015292511
 10
0.6428571367
 20
52.6300982208
 10
0.8571428254
 20
52.6300982208
 10
1.2857142735
 20
52.2015292511
 10
1.5000000329
 20
51.7729557495
 10
1.5000000329
 20
50.4872397766
 10
1.2857142735
 20
50.0586708069
 10
0.8571428254
 20
49.6300973053
 10
0.6428571367
 20
49.6300973053
 10
0.2142857063
 20
50.0586708069
 10
0.0
 20
50.4872397766
  0
LINE
  5
2DE
100
AcDbEntity
  8
SUPERFICI
100
AcDbLine
 62
250
  6
CONTINUOUS
 10
0.0000000026
 20
-22.5520522228
 11
-0.0
 21
-39.7484790161
  0
LWPOLYLINE
  5
2DF
100
AcDbEntity
  8
SUPERFICI
100
AcDbPolyline
 62
250
  6
CONTINUOUS
 90
10
 70
0
 10
-20.350212833
 20
-25.7004238655
 10
-20.7407746611
 20
-26.2926965278
 10
-21.1405948434
 20
-26.8894022975
 10
-21.548664058
 20
-27.489000296
 10
-21.9646815784
 20
-28.0909711292
 10
-22.386780092
 20
-28.6925166591
 10
-22.8114825804
 20
-29.2886637271
 10
-23.2367931332
 20
-29.8766668091
 10
-23.662238895
 20
-30.4559027288
 10
-24.0865663579
 20
-31.0246453689
  0
LWPOLYLINE
  5
2E0
100
AcDbEntity
  8
SUPERFICI
100
AcDbPolyline
 62
250
  6
CONTINUOUS
 90
10
 70
0
 10
24.0865663579
 20
31.0246453689
 10
24.5030482017
 20
31.5744059269
 10
24.916672644
 20
32.1117288008
 10
25.328899262
 20
32.6376876581
 10
25.7421281798
 20
33.1545308931
 10
26.1568336766
 20
33.6620807747
 10
26.5714916048
 20
34.1579101981
 10
26.9863774013
 20
34.6420190264
 10
27.403640718
 20
35.1166587525
 10
27.8243897177
 20
35.5828566402
  0
LINE
  5
2E1
100
AcDbEntity
  8
SUPERFICI
100
AcDbLine
 62
250
  6
CONTINUOUS
 10
25.4071259667
 20
28.8019568828
 11
26.7549907543
 21
30.369619874
  0
LWPOLYLINE
  5
2E2
100
AcDbEntity
  8
SUPERFICI
100
AcDbPolyline
 62
250
  6
CONTINUOUS
 90
7
 70
0
 10
27.7122828498
 20
31.4891907813
 10
28.659427707
 20
32.5895890601
 10
29.1287301338
 20
33.1279171714
 10
29.5973129092
 20
33.6588179845
 10
30.0657887145
 20
34.1815914828
 10
30.5333696936
 20
34.6940555944
 10
30.9999605717
 20
35.1949136289
  0
LINE
  5
2E3
100
AcDbEntity
  8
SUPERFICI
100
AcDbLine
 62
250
  6
CONTINUOUS
 10
-24.9610355414
 20
-28.2862405276
 11
-26.303385573
 21
-29.8428257808
  0
LINE
  5
2E4
100
AcDbEntity
  8
SUPERFICI
100
AcDbLine
 62
250
  6
CONTINUOUS
 10
24.0664643691
 20
27.2568166489
 11
25.4071259667
 21
28.8019568828
  0
LINE
  5
2E5
100
AcDbEntity
  8
SUPERFICI
100
AcDbLine
 62
250
  6
CONTINUOUS
 10
-23.6146077034
 20
-26.7392519537
 11
-24.9610355414
 21
-28.2862405276
  0
LINE
  5
2E6
100
AcDbEntity
  8
SUPERFICI
100
AcDbLine
 62
250
  6
CONTINUOUS
 10
-22.6975534312
 20
-25.693669689
 11
-23.6146077034
 21
-26.7392519537
  0
LINE
  5
2E7
100
AcDbEntity
  8
SUPERFICI
100
AcDbLine
 62
250
  6
CONTINUOUS
 10
22.6975534312
 20
25.693669689
 11
24.0664643691
 21
27.2568166489
  0
LINE
  5
2E8
100
AcDbEntity
  8
SUPERFICI
100
AcDbLine
 62
250
  6
CONTINUOUS
 10
-31.0092693525
 20
-33.073728084
 11
-28.9751929694
 21
-30.8420318826
  0
LINE
  5
2E9
100
AcDbEntity
  8
SUPERFICI
100
AcDbLine
 62
250
  6
CONTINUOUS
 10
-28.9751929694
 20
-30.8420318826
 11
-27.9537134761
 21
-29.7297993469
  0
LINE
  5
2EA
100
AcDbEntity
  8
SUPERFICI
100
AcDbLine
 62
250
  6
CONTINUOUS
 10
27.9537134761
 20
29.7297993469
 11
28.9734928153
 21
30.8401693466
  0
LWPOLYLINE
  5
2EB
100
AcDbEntity
  8
SUPERFICI
100
AcDbPolyline
 62
250
  6
CONTINUOUS
 90
3
 70
0
 10
31.0105742172
 20
33.0751528864
 10
32.0165460505
 20
34.1662606625
 10
32.5136085933
 20
34.6983583088
  0
LWPOLYLINE
  5
2EC
100
AcDbEntity
  8
SUPERFICI
100
AcDbPolyline
 62
250
  6
CONTINUOUS
 90
3
 70
0
 10
-32.5136085933
 20
-34.6983583088
 10
-32.0156046886
 20
-34.1652478592
 10
-31.0092693525
 20
-33.073728084
  0
LINE
  5
2ED
100
AcDbEntity
  8
SUPERFICI
100
AcDbLine
 62
250
  6
CONTINUOUS
 10
-27.0410587201
 20
-28.751519111
 11
-27.9537134761
 21
-29.7297993469
  0
LINE
  5
2EE
100
AcDbEntity
  8
SUPERFICI
100
AcDbLine
 62
250
  6
CONTINUOUS
 10
27.0410587201
 20
28.751519111
 11
27.9537134761
 21
29.7297993469
  0
LINE
  5
2EF
100
AcDbEntity
  8
SUPERFICI
100
AcDbLine
 62
250
  6
CONTINUOUS
 10
26.1362693364
 20
27.7970497208
 11
27.0410587201
 21
28.751519111
  0
LINE
  5
2F0
100
AcDbEntity
  8
SUPERFICI
100
AcDbLine
 62
250
  6
CONTINUOUS
 10
-26.1362693364
 20
-27.7970497208
 11
-27.0410587201
 21
-28.751519111
  0
LWPOLYLINE
  5
2F1
100
AcDbEntity
  8
SUPERFICI
100
AcDbPolyline
 62
250
  6
CONTINUOUS
 90
10
 70
0
 10
30.9999605717
 20
35.1949136289
 10
31.4286543139
 20
35.645041731
 10
31.8628735391
 20
36.0913241186
 10
32.3023966821
 20
36.5335281653
 10
32.7471584954
 20
36.9715735671
 10
33.1967842334
 20
37.4050719211
 10
33.6505731043
 20
37.8333430937
 10
34.108128495
 20
38.2560229217
 10
34.5693745149
 20
38.6730468405
 10
35.0340785908
 20
39.0842009192
  0
LINE
  5
2F2
100
AcDbEntity
  8
SUPERFICI
100
AcDbLine
 62
250
  6
CONTINUOUS
 10
25.2241617067
 20
26.8509885394
 11
26.1362693364
 21
27.7970497208
  0
LINE
  5
2F3
100
AcDbEntity
  8
SUPERFICI
100
AcDbLine
 62
250
  6
CONTINUOUS
 10
-25.2241617067
 20
-26.8509885394
 11
-26.1362693364
 21
-27.7970497208
  0
LWPOLYLINE
  5
2F4
100
AcDbEntity
  8
SUPERFICI
100
AcDbPolyline
 62
250
  6
CONTINUOUS
 90
3
 70
0
 10
23.8140067922
 20
25.418149544
 10
24.2934951359
 20
25.9016219485
 10
25.2241617067
 20
26.8509885394
  0
LWPOLYLINE
  5
2F5
100
AcDbEntity
  8
SUPERFICI
100
AcDbPolyline
 62
250
  6
CONTINUOUS
 90
10
 70
0
 10
-35.1952253949
 20
-30.9983204474
 10
-35.6367491376
 20
-31.4394488673
 10
-36.0758886038
 20
-31.8823693186
 10
-36.512653636
 20
-32.3270912912
 10
-36.9470438407
 20
-32.7736137023
 10
-37.3790794095
 20
-33.2219565297
 10
-37.8088005635
 20
-33.6721612488
 10
-38.2362267209
 20
-34.1242484596
 10
-38.6613570536
 20
-34.578217449
 10
-39.0842009192
 20
-35.0340781245
  0
LINE
  5
2F6
100
AcDbEntity
  8
SUPERFICI
100
AcDbLine
 62
250
  6
CONTINUOUS
 10
-35.5744995312
 20
-33.7340508011
 11
-32.3931103299
 21
-30.582395909
  0
LINE
  5
2F7
100
AcDbEntity
  8
SUPERFICI
100
AcDbLine
 62
250
  6
CONTINUOUS
 10
-37.1388203287
 20
-34.9288635121
 11
-39.0841885048
 21
-36.8461856528
  0
LINE
  5
2F8
100
AcDbEntity
  8
SUPERFICI
100
AcDbLine
 62
250
  6
CONTINUOUS
 10
-32.5140981542
 20
-30.3592882893
 11
-37.1388203287
 21
-34.9288635121
  0
LINE
  5
2F9
100
AcDbEntity
  8
SUPERFICI
100
AcDbLine
 62
250
  6
CONTINUOUS
 10
-32.3931103299
 20
-30.582395909
 11
-31.3154315005
 21
-29.5202263422
  0
LINE
  5
2FA
100
AcDbEntity
  8
SUPERFICI
100
AcDbLine
 62
250
  6
CONTINUOUS
 10
-37.080906292
 20
-35.2102625113
 11
-35.5744995312
 21
-33.7340508011
  0
LWPOLYLINE
  5
2FB
100
AcDbEntity
  8
SUPERFICI
100
AcDbPolyline
 62
250
  6
CONTINUOUS
 90
3
 70
0
 10
-31.3154315005
 20
-29.5202263422
 10
-30.2443518735
 20
-28.4781112249
 10
-29.716425002
 20
-27.9719715713
  0
LWPOLYLINE
  5
2FC
100
AcDbEntity
  8
SUPERFICI
100
AcDbPolyline
 62
250
  6
CONTINUOUS
 90
10
 70
0
 10
36.8461855074
 20
39.0842599932
 10
36.3628165057
 20
38.6163765945
 10
35.877047463
 20
38.1407805231
 10
35.3898830094
 20
37.6584454832
 10
34.9017632396
 20
37.1697784634
 10
34.4143756917
 20
36.6764304505
 10
33.9306049816
 20
36.1813104563
 10
33.4521182382
 20
35.6861404721
 10
32.9794161074
 20
35.1914422466
 10
32.5136085933
 20
34.6983583088
  0
LWPOLYLINE
  5
2FD
100
AcDbEntity
  8
SUPERFICI
100
AcDbPolyline
 62
250
  6
CONTINUOUS
 90
10
 70
0
 10
36.8013077801
 20
39.0842009193
 10
36.925358237
 20
39.2039360129
 10
37.0380247626
 20
39.3140118462
 10
37.1378498163
 20
39.4128323697
 10
37.223874938
 20
39.4993089867
 10
37.2949707174
 20
39.5721885439
 10
37.3501491117
 20
39.6303325227
 10
37.3893061459
 20
39.6734798376
 10
37.4128583738
 20
39.7019160386
 10
37.4212973073
 20
39.716002577
  0
LWPOLYLINE
  5
2FE
100
AcDbEntity
  8
SUPERFICI
100
AcDbPolyline
 62
250
  6
CONTINUOUS
 90
3
 70
0
 10
-39.078944917
 20
-37.1475761919
 10
-38.5839423987
 20
-36.669863509
 10
-37.080906292
 20
-35.2102625113
  0
LINE
  5
2FF
100
AcDbEntity
  8
SUPERFICI
100
AcDbLine
 62
250
  6
CONTINUOUS
 10
39.078944917
 20
37.1475761919
 11
38.085144101
 21
36.1869690473
  0
LWPOLYLINE
  5
300
100
AcDbEntity
  8
SUPERFICI
100
AcDbPolyline
 62
250
  6
CONTINUOUS
 90
3
 70
0
 10
29.716425002
 20
27.9719715713
 10
30.2443023726
 20
28.4780634986
 10
31.315379119
 20
29.5201749852
  0
LWPOLYLINE
  5
301
100
AcDbEntity
  8
SUPERFICI
100
AcDbPolyline
 62
250
  6
CONTINUOUS
 90
5
 70
0
 10
-29.8401316492
 20
-27.7802643023
 10
-30.3673987684
 20
-28.2794969787
 10
-30.9004809539
 20
-28.7897830332
 10
-31.4376063822
 20
-29.3086154645
 10
-32.5140981542
 20
-30.3592882893
  0
LWPOLYLINE
  5
302
100
AcDbEntity
  8
SUPERFICI
100
AcDbPolyline
 62
250
  6
CONTINUOUS
 90
5
 70
0
 10
29.8401316492
 20
27.7802643023
 10
30.3673987684
 20
28.2794969787
 10
30.9004809539
 20
28.7897830332
 10
31.4376063822
 20
29.3086154645
 10
32.5140981542
 20
30.3592882893
  0
LWPOLYLINE
  5
303
100
AcDbEntity
  8
SUPERFICI
100
AcDbPolyline
 62
250
  6
CONTINUOUS
 90
10
 70
0
 10
-30.4507359896
 20
-26.5522107386
 10
-30.9704578632
 20
-27.0105536633
 10
-31.4942533101
 20
-27.4803966402
 10
-32.0207994283
 20
-27.9602630572
 10
-32.5474873765
 20
-28.4474756384
 10
-33.0742500497
 20
-28.9416898811
 10
-33.6035279997
 20
-29.4450267682
 10
-34.1351219282
 20
-29.9572330333
 10
-34.6662250314
 20
-30.4755464685
 10
-35.1952253949
 20
-30.9983204474
  0
LWPOLYLINE
  5
304
100
AcDbEntity
  8
SUPERFICI
100
AcDbPolyline
 62
250
  6
CONTINUOUS
 90
10
 70
0
 10
30.4507359896
 20
26.5522107386
 10
30.9704578632
 20
27.0105536633
 10
31.4942533101
 20
27.4803966402
 10
32.0207994283
 20
27.9602630572
 10
32.5474873765
 20
28.4474756384
 10
33.0742500497
 20
28.9416898811
 10
33.6035279997
 20
29.4450267682
 10
34.1351219282
 20
29.9572330333
 10
34.6662250314
 20
30.4755464685
 10
35.1952253949
 20
30.9983204474
  0
LWPOLYLINE
  5
305
100
AcDbEntity
  8
SUPERFICI
100
AcDbPolyline
 62
250
  6
CONTINUOUS
 90
10
 70
0
 10
25.334275989
 20
23.9867322225
 10
25.8444100885
 20
24.4314950354
 10
26.3420417997
 20
24.8696414347
 10
26.8305809148
 20
25.3043110159
 10
27.3142409127
 20
25.7393642135
 10
27.7952118307
 20
26.1768445776
 10
28.2736150144
 20
26.6168414999
 10
28.7511963538
 20
27.0608469399
 10
29.2313823906
 20
27.5119030444
 10
29.716425002
 20
27.9719715713
  0
LWPOLYLINE
  5
306
100
AcDbEntity
  8
SUPERFICI
100
AcDbPolyline
 62
250
  6
CONTINUOUS
 90
10
 70
0
 10
25.4181605135
 20
23.8140115601
 10
25.9326320325
 20
24.2559221629
 10
26.434903613
 20
24.6917446584
 10
26.9281971823
 20
25.1244018132
 10
27.4163990818
 20
25.5574032469
 10
27.9016762214
 20
25.9927356017
 10
28.3844438763
 20
26.4307520837
 10
28.8664831271
 20
26.8729669911
 10
29.3509820572
 20
27.3221746397
 10
29.8401316492
 20
27.7802643023
  0
LWPOLYLINE
  5
307
100
AcDbEntity
  8
SUPERFICI
100
AcDbPolyline
 62
250
  6
CONTINUOUS
 90
10
 70
0
 10
-31.0428583296
 20
-23.8787684896
 10
-31.547578791
 20
-24.2727598198
 10
-32.0519848271
 20
-24.6778447342
 10
-32.55616272
 20
-25.0940318881
 10
-33.0603888028
 20
-25.5214359725
 10
-33.5646949314
 20
-25.959907964
 10
-34.0688928969
 20
-26.4090226394
 10
-34.5731460923
 20
-26.8685758501
 10
-35.0779494188
 20
-27.3385952758
 10
-35.5837101741
 20
-27.8189626046
  0
LWPOLYLINE
  5
308
100
AcDbEntity
  8
SUPERFICI
100
AcDbPolyline
 62
250
  6
CONTINUOUS
 90
10
 70
0
 10
31.0428583296
 20
23.8787684896
 10
31.547578791
 20
24.2727598198
 10
32.0519848271
 20
24.6778447342
 10
32.55616272
 20
25.0940318881
 10
33.0603888028
 20
25.5214359725
 10
33.5646949314
 20
25.959907964
 10
34.0688928969
 20
26.4090226394
 10
34.5731460923
 20
26.8685758501
 10
35.0779494188
 20
27.3385952758
 10
35.5837101741
 20
27.8189626046
  0
LWPOLYLINE
  5
309
100
AcDbEntity
  8
SUPERFICI
100
AcDbPolyline
 62
250
  6
CONTINUOUS
 90
10
 70
0
 10
25.6936771012
 20
22.697553935
 10
26.248882258
 20
23.117754909
 10
26.7932124885
 20
23.5366559776
 10
27.3283746481
 20
23.9555937151
 10
27.8553945674
 20
24.3753534369
 10
28.3764596679
 20
24.7976325353
 10
28.8949042083
 20
25.2251145717
 10
29.4127935685
 20
25.6595128935
 10
29.9309405623
 20
26.1014979141
 10
30.4507359896
 20
26.5522107386
  0
LWPOLYLINE
  5
30A
100
AcDbEntity
  8
SUPERFICI
100
AcDbPolyline
 62
250
  6
CONTINUOUS
 90
10
 70
0
 10
31.0428583296
 20
23.8787684896
 10
30.4863978227
 20
23.4578284841
 10
29.917136986
 20
23.0414689318
 10
29.3359945782
 20
22.6304866411
 10
28.7422273088
 20
22.2245627853
 10
28.1384133204
 20
21.8256898026
 10
27.5306792831
 20
21.437936606
 10
26.9218977917
 20
21.0629513504
 10
26.31146103
 20
20.7001967964
 10
25.7004238655
 20
20.3502128378
  0
LINE
  5
30B
100
AcDbEntity
  8
DRAFT
100
AcDbLine
 62
7
  6
CONTINUOUS
 10
-22.5926016864
 20
-2.5000018359
 11
-22.5768752367
 21
-2.5
  0
LINE
  5
30C
100
AcDbEntity
  8
SUPERFICI
100
AcDbLine
 62
250
  6
CONTINUOUS
 10
22.6018083918
 20
0.0000000028
 11
39.7484790161
 21
-0.0
  0
LINE
  5
30D
100
AcDbEntity
  8
SUPERFICI
100
AcDbLine
 62
250
  6
CONTINUOUS
 10
-22.6018083918
 20
0.0000000028
 11
-39.7484790161
 21
0.0
  0
LINE
  5
30E
100
AcDbEntity
  8
DRAFT
100
AcDbLine
 62
7
  6
CONTINUOUS
 10
22.5768752367
 20
-2.5
 11
22.5926016864
 21
-2.5000018359
  0
LWPOLYLINE
  5
30F
100
AcDbEntity
  8
SUPERFICI
100
AcDbPolyline
 62
250
  6
CONTINUOUS
 90
10
 70
0
 10
31.0428583296
 20
-23.8787684896
 10
30.4863975927
 20
-23.4578283125
 10
29.9171365016
 20
-23.0414685791
 10
29.3359938154
 20
-22.6304860958
 10
28.7422261421
 20
-22.2245619657
 10
28.1384117243
 20
-21.825688697
 10
27.5306775475
 20
-21.4379354053
 10
26.9218963229
 20
-21.0629503065
 10
26.3114601384
 20
-20.7001960885
 10
25.7004238655
 20
-20.3502126373
  0
LWPOLYLINE
  5
310
100
AcDbEntity
  8
SUPERFICI
100
AcDbPolyline
 62
250
  6
CONTINUOUS
 90
10
 70
0
 10
-31.0428583296
 20
23.8787684896
 10
-30.4863978226
 20
23.457828484
 10
-29.9171369859
 20
23.0414689318
 10
-29.335994578
 20
22.630486641
 10
-28.7422273086
 20
22.2245627852
 10
-28.1384133202
 20
21.8256898025
 10
-27.530679283
 20
21.4379366059
 10
-26.9218977916
 20
21.0629513503
 10
-26.3114610299
 20
20.7001967964
 10
-25.7004238655
 20
20.3502128378
  0
LWPOLYLINE
  5
311
100
AcDbEntity
  8
SUPERFICI
100
AcDbPolyline
 62
250
  6
CONTINUOUS
 90
10
 70
0
 10
25.6936771078
 20
-22.6975538356
 10
26.2488821692
 20
-23.1177547406
 10
26.7932123243
 20
-23.5366557594
 10
27.3283744274
 20
-23.9555934642
 10
27.8553943013
 20
-24.3753531631
 10
28.3764593741
 20
-24.7976322523
 10
28.8949039245
 20
-25.2251143092
 10
29.4127933397
 20
-25.6595126871
 10
29.9309404276
 20
-26.1014977948
 10
30.4507359896
 20
-26.5522107386
  0
LWPOLYLINE
  5
312
100
AcDbEntity
  8
SUPERFICI
100
AcDbPolyline
 62
250
  6
CONTINUOUS
 90
10
 70
0
 10
-29.8401316492
 20
27.7802643023
 10
-29.3447064427
 20
27.3163267488
 10
-28.8556298523
 20
26.8629579257
 10
-28.3705477173
 20
26.4180755358
 10
-27.8860328548
 20
25.9786247969
 10
-27.4003484778
 20
25.5430892935
 10
-26.9134062707
 20
25.111359396
 10
-26.4231902038
 20
24.6815284207
 10
-25.9257938742
 20
24.250019896
 10
-25.4181604325
 20
23.8140117406
  0
LWPOLYLINE
  5
313
100
AcDbEntity
  8
SUPERFICI
100
AcDbPolyline
 62
250
  6
CONTINUOUS
 90
10
 70
0
 10
29.8401316492
 20
-27.7802643023
 10
29.3447063305
 20
-27.3163266402
 10
28.8556296618
 20
-26.8629577348
 10
28.370547479
 20
-26.4180752867
 10
27.8860325951
 20
-25.9786245112
 10
27.4003482223
 20
-25.5430889933
 10
26.9134060466
 20
-25.1113591061
 10
26.4231900391
 20
-24.681528168
 10
25.925793797
 20
-24.2500197086
 10
25.4181604729
 20
-23.8140116503
  0
LWPOLYLINE
  5
314
100
AcDbEntity
  8
SUPERFICI
100
AcDbPolyline
 62
250
  6
CONTINUOUS
 90
3
 70
0
 10
-29.8401316492
 20
27.7802643023
 10
-30.3673987684
 20
28.2794969787
 10
-30.9004809539
 20
28.7897830332
  0
LWPOLYLINE
  5
315
100
AcDbEntity
  8
SUPERFICI
100
AcDbPolyline
 62
250
  6
CONTINUOUS
 90
3
 70
0
 10
29.8401316492
 20
-27.7802643023
 10
30.3673987684
 20
-28.2794969787
 10
30.9004809539
 20
-28.7897830332
  0
LWPOLYLINE
  5
316
100
AcDbEntity
  8
SUPERFICI
100
AcDbPolyline
 62
250
  6
CONTINUOUS
 90
10
 70
0
 10
-29.716425002
 20
27.9719715713
 10
-29.2247556879
 20
27.5056478406
 10
-28.7397497519
 20
27.0501505434
 10
-28.2589717002
 20
26.603302347
 10
-27.7787279108
 20
26.1617703178
 10
-27.2973176354
 20
25.7240600577
 10
-26.8149758729
 20
25.2903540597
 10
-26.3296768422
 20
24.8586999141
 10
-25.8371854482
 20
24.4251665584
 10
-25.3342758969
 20
23.9867323983
  0
LWPOLYLINE
  5
317
100
AcDbEntity
  8
SUPERFICI
100
AcDbPolyline
 62
250
  6
CONTINUOUS
 90
10
 70
0
 10
29.716425002
 20
-27.9719715713
 10
29.22475557
 20
-27.505647725
 10
28.7397495521
 20
-27.0501503411
 10
28.2589714506
 20
-26.6033020838
 10
27.7787276392
 20
-26.1617700168
 10
27.2973173685
 20
-25.7240597422
 10
26.8149756392
 20
-25.2903537562
 10
26.3296766715
 20
-24.8586996512
 10
25.8371853699
 20
-24.4251663662
 10
25.3342759429
 20
-23.9867323104
  0
LINE
  5
318
100
AcDbEntity
  8
SUPERFICI
100
AcDbLine
 62
250
  6
CONTINUOUS
 10
-30.2443518735
 20
28.4781112249
 11
-29.716425002
 21
27.9719715713
  0
LINE
  5
319
100
AcDbEntity
  8
SUPERFICI
100
AcDbLine
 62
250
  6
CONTINUOUS
 10
30.2443518735
 20
-28.4781112249
 11
29.716425002
 21
-27.9719715713
  0
LWPOLYLINE
  5
31A
100
AcDbEntity
  8
SUPERFICI
100
AcDbPolyline
 62
250
  6
CONTINUOUS
 90
10
 70
0
 10
36.8013076207
 20
-39.0842009192
 10
36.9253580668
 20
-39.2039360102
 10
37.0380245746
 20
-39.314011846
 10
37.1378496067
 20
-39.4128323758
 10
37.2238747063
 20
-39.4993090021
 10
37.2949704647
 20
-39.5721885695
 10
37.3501488401
 20
-39.630332557
 10
37.389305859
 20
-39.6734798784
 10
37.4128580771
 20
-39.7019160837
 10
37.4212970071
 20
-39.7160026235
  0
LWPOLYLINE
  5
31B
100
AcDbEntity
  8
SUPERFICI
100
AcDbPolyline
 62
250
  6
CONTINUOUS
 90
10
 70
0
 10
36.8461853515
 20
-39.0842599925
 10
36.3628169549
 20
-38.6163771733
 10
35.8770483836
 20
-38.1407815481
 10
35.3898842585
 20
-37.658446814
 10
34.9017646696
 20
-37.1697799577
 10
34.4143771464
 20
-36.6764319596
 10
33.9306062971
 20
-36.1813118224
 10
33.4521192563
 20
-35.6861415353
 10
32.9794166829
 20
-35.1914428527
 10
32.5136085933
 20
-34.6983583088
  0
LINE
  5
31C
100
AcDbEntity
  8
SUPERFICI
100
AcDbLine
 62
250
  6
CONTINUOUS
 10
38.0851572929
 20
-36.1869790501
 11
39.0789449279
 21
-37.1475760374
  0
LINE
  5
31D
100
AcDbEntity
  8
SUPERFICI
100
AcDbLine
 62
250
  6
CONTINUOUS
 10
-37.58371193
 20
35.7000206988
 11
-39.0789449279
 21
37.1475760374
  0
LINE
  5
31E
100
AcDbEntity
  8
SUPERFICI
100
AcDbLine
 62
250
  6
CONTINUOUS
 10
-30.9004809539
 20
28.7897830332
 11
-31.9755100754
 21
29.8320593005
  0
LINE
  5
31F
100
AcDbEntity
  8
SUPERFICI
100
AcDbLine
 62
250
  6
CONTINUOUS
 10
-31.3154315005
 20
29.5202263422
 11
-30.2443518735
 21
28.4781112249
  0
LINE
  5
320
100
AcDbEntity
  8
SUPERFICI
100
AcDbLine
 62
250
  6
CONTINUOUS
 10
-36.0753344289
 20
34.2263310418
 11
-37.58371193
 21
35.7000206988
  0
LINE
  5
321
100
AcDbEntity
  8
SUPERFICI
100
AcDbLine
 62
250
  6
CONTINUOUS
 10
-31.9755100754
 20
29.8320593005
 11
-33.0565603824
 21
30.8927753166
  0
LINE
  5
322
100
AcDbEntity
  8
SUPERFICI
100
AcDbLine
 62
250
  6
CONTINUOUS
 10
-39.0841885055
 20
36.8461861193
 11
-36.6482560425
 21
34.4445279495
  0
LWPOLYLINE
  5
323
100
AcDbEntity
  8
SUPERFICI
100
AcDbPolyline
 62
250
  6
CONTINUOUS
 90
10
 70
0
 10
-35.1952253949
 20
30.9983204474
 10
-34.6662366306
 20
30.4755578598
 10
-34.1351494909
 20
29.9572597622
 10
-33.6035758918
 20
29.4450726146
 10
-33.0743320875
 20
28.9417673776
 10
-32.5476077907
 20
28.4475878296
 10
-32.020933573
 20
27.9603862425
 10
-31.4943669091
 20
27.4804993658
 10
-30.9705265127
 20
27.0106147322
 10
-30.4507359896
 20
26.5522107386
  0
LINE
  5
324
100
AcDbEntity
  8
SUPERFICI
100
AcDbLine
 62
250
  6
CONTINUOUS
 10
-34.5835975041
 20
32.7555229602
 11
-36.0753344289
 21
34.2263310418
  0
LINE
  5
325
100
AcDbEntity
  8
SUPERFICI
100
AcDbLine
 62
250
  6
CONTINUOUS
 10
-36.6482560425
 20
34.4445279495
 11
-33.0565603824
 21
30.8927753166
  0
LINE
  5
326
100
AcDbEntity
  8
SUPERFICI
100
AcDbLine
 62
250
  6
CONTINUOUS
 10
-32.9365474073
 20
31.1209484082
 11
-31.3154315005
 21
29.5202263422
  0
LINE
  5
327
100
AcDbEntity
  8
SUPERFICI
100
AcDbLine
 62
250
  6
CONTINUOUS
 10
-34.5835975041
 20
32.7555229602
 11
-32.9365474073
 21
31.1209484082
  0
LINE
  5
328
100
AcDbEntity
  8
SUPERFICI
100
AcDbLine
 62
250
  6
CONTINUOUS
 10
24.75260927
 20
-26.368051474
 11
23.8140067018
 21
-25.4181495847
  0
LINE
  5
329
100
AcDbEntity
  8
SUPERFICI
100
AcDbLine
 62
250
  6
CONTINUOUS
 10
25.6676428769
 20
-27.3089683209
 11
24.75260927
 21
-26.368051474
  0
LWPOLYLINE
  5
32A
100
AcDbEntity
  8
SUPERFICI
100
AcDbPolyline
 62
250
  6
CONTINUOUS
 90
10
 70
0
 10
30.9999605717
 20
-35.1949136289
 10
31.4286545266
 20
-35.6450419575
 10
31.8628739048
 20
-36.0913245105
 10
32.3023971414
 20
-36.5335286627
 10
32.7471589879
 20
-36.9715741104
 10
33.1967847007
 20
-37.4050724535
 10
33.6505734927
 20
-37.833343564
 10
34.1081287531
 20
-38.2560232819
 10
34.5693745913
 20
-38.6730470431
 10
35.0340784353
 20
-39.0842009192
  0
LINE
  5
32B
100
AcDbEntity
  8
SUPERFICI
100
AcDbLine
 62
250
  6
CONTINUOUS
 10
26.5769891806
 20
-28.2599874497
 11
25.6676428769
 21
-27.3089683209
  0
LINE
  5
32C
100
AcDbEntity
  8
SUPERFICI
100
AcDbLine
 62
250
  6
CONTINUOUS
 10
-26.5769894285
 20
28.2599877451
 11
-25.6676431326
 21
27.3089686632
  0
LINE
  5
32D
100
AcDbEntity
  8
SUPERFICI
100
AcDbLine
 62
250
  6
CONTINUOUS
 10
-27.4899242534
 20
29.2307985009
 11
-26.5769894285
 21
28.2599877451
  0
LINE
  5
32E
100
AcDbEntity
  8
SUPERFICI
100
AcDbLine
 62
250
  6
CONTINUOUS
 10
27.4899241337
 20
-29.2307983682
 11
26.5769891806
 21
-28.2599874497
  0
LINE
  5
32F
100
AcDbEntity
  8
SUPERFICI
100
AcDbLine
 62
250
  6
CONTINUOUS
 10
-32.5136085933
 20
34.6983583088
 11
-32.0156046886
 21
34.1652478592
  0
LINE
  5
330
100
AcDbEntity
  8
SUPERFICI
100
AcDbLine
 62
250
  6
CONTINUOUS
 10
32.5136085933
 20
-34.6983583088
 11
32.0156046886
 21
-34.1652478592
  0
LWPOLYLINE
  5
331
100
AcDbEntity
  8
SUPERFICI
100
AcDbPolyline
 62
250
  6
CONTINUOUS
 90
6
 70
0
 10
30.9999605717
 20
-35.1949136289
 10
30.5332994252
 20
-34.6939793435
 10
30.0656567723
 20
-34.1814455021
 10
29.5971276968
 20
-33.658609632
 10
29.1284867055
 20
-33.1276395287
 10
28.6591343147
 20
-32.5892507539
  0
LINE
  5
332
100
AcDbEntity
  8
SUPERFICI
100
AcDbLine
 62
250
  6
CONTINUOUS
 10
-28.4638267119
 20
30.283247813
 11
-27.4899242534
 21
29.2307985009
  0
LINE
  5
333
100
AcDbEntity
  8
SUPERFICI
100
AcDbLine
 62
250
  6
CONTINUOUS
 10
-32.0156046886
 20
34.1652478592
 11
-31.0092693525
 21
33.073728084
  0
LINE
  5
334
100
AcDbEntity
  8
SUPERFICI
100
AcDbLine
 62
250
  6
CONTINUOUS
 10
32.0156046886
 20
-34.1652478592
 11
31.0092693525
 21
-33.073728084
  0
LWPOLYLINE
  5
335
100
AcDbEntity
  8
SUPERFICI
100
AcDbPolyline
 62
250
  6
CONTINUOUS
 90
3
 70
0
 10
28.9751929694
 20
-30.8420318826
 10
28.4638267119
 20
-30.283247813
 10
27.4899241337
 20
-29.2307983682
  0
LINE
  5
336
100
AcDbEntity
  8
SUPERFICI
100
AcDbLine
 62
250
  6
CONTINUOUS
 10
-31.0092693525
 20
33.073728084
 11
-28.4638267119
 21
30.283247813
  0
LWPOLYLINE
  5
337
100
AcDbEntity
  8
SUPERFICI
100
AcDbPolyline
 62
250
  6
CONTINUOUS
 90
10
 70
0
 10
27.8243897177
 20
-35.5828566402
 10
27.4037117853
 20
-35.1167385454
 10
26.986503866
 20
-34.6421647438
 10
26.5716589824
 20
-34.1581079366
 10
26.1570338304
 20
-33.6623229561
 10
25.7423482308
 20
-33.154803221
 10
25.3291108788
 20
-32.6379550642
 10
24.9168424537
 20
-32.1119474846
 10
24.5031478022
 20
-31.5745363945
 10
24.0865663579
 20
-31.0246453689
  0
LINE
  5
338
100
AcDbEntity
  8
SUPERFICI
100
AcDbLine
 62
250
  6
CONTINUOUS
 10
-24.0605492379
 20
27.2500311661
 11
-22.6975532318
 21
25.6936697018
  0
LINE
  5
339
100
AcDbEntity
  8
SUPERFICI
100
AcDbLine
 62
250
  6
CONTINUOUS
 10
24.0605490339
 20
-27.250030843
 11
22.6975533314
 21
-25.6936696952
  0
LINE
  5
33A
100
AcDbEntity
  8
SUPERFICI
100
AcDbLine
 62
250
  6
CONTINUOUS
 10
-25.4015847293
 20
28.795541157
 11
-24.0605492379
 21
27.2500311661
  0
LINE
  5
33B
100
AcDbEntity
  8
SUPERFICI
100
AcDbLine
 62
250
  6
CONTINUOUS
 10
25.4015845495
 20
-28.7955409175
 11
24.0605490339
 21
-27.250030843
  0
LWPOLYLINE
  5
33C
100
AcDbEntity
  8
SUPERFICI
100
AcDbPolyline
 62
250
  6
CONTINUOUS
 90
3
 70
0
 10
-28.6591343147
 20
32.5892507539
 10
-27.7120415412
 20
31.488908892
 10
-25.4015847293
 20
28.795541157
  0
LINE
  5
33D
100
AcDbEntity
  8
SUPERFICI
100
AcDbLine
 62
250
  6
CONTINUOUS
 10
28.6591343147
 20
-32.5892507539
 11
27.7120415412
 21
-31.488908892
  0
LINE
  5
33E
100
AcDbEntity
  8
SUPERFICI
100
AcDbLine
 62
250
  6
CONTINUOUS
 10
26.7549907543
 20
-30.369619874
 11
25.4015845495
 21
-28.7955409175
  0
LWPOLYLINE
  5
33F
100
AcDbEntity
  8
SUPERFICI
100
AcDbPolyline
 62
250
  6
CONTINUOUS
 90
10
 70
0
 10
-20.350212833
 20
25.7004238655
 10
-20.7407746611
 20
26.2926965278
 10
-21.1405948434
 20
26.8894022976
 10
-21.548664058
 20
27.4890002961
 10
-21.9646815784
 20
28.0909711292
 10
-22.386780092
 20
28.6925166591
 10
-22.8114825804
 20
29.2886637272
 10
-23.2367931333
 20
29.8766668092
 10
-23.6622388951
 20
30.4559027288
 10
-24.0865663579
 20
31.0246453689
  0
LINE
  5
340
100
AcDbEntity
  8
DRAFT
100
AcDbLine
 62
7
  6
CONTINUOUS
 10
2.5
 20
-22.5428504426
 11
2.5
 21
-22.5271112441
  0
LINE
  5
341
100
AcDbEntity
  8
DRAFT
100
AcDbLine
 62
7
  6
CONTINUOUS
 10
2.5
 20
22.5271399246
 11
2.5
 21
22.5428504426
  0
LWPOLYLINE
  5
342
100
AcDbEntity
  8
SUPERFICI
100
AcDbPolyline
 62
250
  6
CONTINUOUS
 90
10
 70
0
 10
20.3502126327
 20
25.7004238655
 10
20.7407741654
 20
26.2926960645
 10
21.1405941381
 20
26.8894014838
 10
21.5486632251
 20
27.4889992471
 10
21.9646806905
 20
28.0909699554
 10
22.3867792185
 20
28.6925154751
 10
22.8114817994
 20
29.2886626605
 10
23.2367925295
 20
29.8766659871
 10
23.6622385516
 20
30.4559022656
 10
24.0865663579
 20
31.0246453689
  0
LINE
  5
343
100
AcDbEntity
  8
SUPERFICI
100
AcDbLine
 62
250
  6
CONTINUOUS
 10
26.7549907543
 20
30.369619874
 11
27.7122828498
 21
31.4891907813
  0
LWPOLYLINE
  5
344
100
AcDbEntity
  8
SUPERFICI
100
AcDbPolyline
 62
250
  6
CONTINUOUS
 90
10
 70
0
 10
-27.8243897177
 20
-35.5828566402
 10
-27.4037117853
 20
-35.1167385454
 10
-26.986503866
 20
-34.6421647438
 10
-26.5716589824
 20
-34.1581079366
 10
-26.1570338304
 20
-33.6623229561
 10
-25.7423482308
 20
-33.154803221
 10
-25.3291108788
 20
-32.6379550642
 10
-24.9168424537
 20
-32.1119474846
 10
-24.5031478022
 20
-31.5745363945
 10
-24.0865663579
 20
-31.0246453689
  0
LINE
  5
345
100
AcDbEntity
  8
SUPERFICI
100
AcDbLine
 62
250
  6
CONTINUOUS
 10
28.9734928153
 20
30.8401693466
 11
31.0105742172
 21
33.0751528864
  0
LWPOLYLINE
  5
346
100
AcDbEntity
  8
SUPERFICI
100
AcDbPolyline
 62
250
  6
CONTINUOUS
 90
8
 70
0
 10
-30.9999605717
 20
-35.1949136289
 10
-30.5332994252
 20
-34.6939793435
 10
-30.0656567723
 20
-34.1814455021
 10
-29.5971276968
 20
-33.658609632
 10
-29.1284867055
 20
-33.1276395287
 10
-28.6591343147
 20
-32.5892507539
 10
-28.1871579442
 20
-32.0426942193
 10
-26.303385573
 20
-29.8428257808
  0
LWPOLYLINE
  5
347
100
AcDbEntity
  8
SUPERFICI
100
AcDbPolyline
 62
250
  6
CONTINUOUS
 90
10
 70
0
 10
-30.9999605717
 20
-35.1949136289
 10
-31.4286543139
 20
-35.645041731
 10
-31.8628735391
 20
-36.0913241186
 10
-32.3023966821
 20
-36.5335281653
 10
-32.7471584954
 20
-36.9715735671
 10
-33.1967842334
 20
-37.4050719211
 10
-33.6505731043
 20
-37.8333430937
 10
-34.108128495
 20
-38.2560229217
 10
-34.5693745149
 20
-38.6730468405
 10
-35.0340785908
 20
-39.0842009192
  0
LWPOLYLINE
  5
348
100
AcDbEntity
  8
SUPERFICI
100
AcDbPolyline
 62
250
  6
CONTINUOUS
 90
3
 70
0
 10
-23.8140067922
 20
-25.418149544
 10
-24.2934951359
 20
-25.9016219485
 10
-25.2241617067
 20
-26.8509885394
  0
LWPOLYLINE
  5
349
100
AcDbEntity
  8
SUPERFICI
100
AcDbPolyline
 62
250
  6
CONTINUOUS
 90
10
 70
0
 10
35.1952253949
 20
30.9983204474
 10
35.6367491376
 20
31.4394488673
 10
36.0758886038
 20
31.8823693186
 10
36.512653636
 20
32.3270912912
 10
36.9470438407
 20
32.7736137023
 10
37.3790794095
 20
33.2219565297
 10
37.8088005635
 20
33.6721612488
 10
38.2362267209
 20
34.1242484596
 10
38.6613570536
 20
34.578217449
 10
39.0842009192
 20
35.0340781245
  0
LINE
  5
34A
100
AcDbEntity
  8
SUPERFICI
100
AcDbLine
 62
250
  6
CONTINUOUS
 10
35.5744995312
 20
33.7340508011
 11
32.3932497385
 21
30.5825338828
  0
LINE
  5
34B
100
AcDbEntity
  8
SUPERFICI
100
AcDbLine
 62
250
  6
CONTINUOUS
 10
37.1388203287
 20
34.9288635121
 11
39.0841885048
 21
36.8461856528
  0
LINE
  5
34C
100
AcDbEntity
  8
SUPERFICI
100
AcDbLine
 62
250
  6
CONTINUOUS
 10
31.315379119
 20
29.5201749852
 11
32.3932497385
 21
30.5825338828
  0
LINE
  5
34D
100
AcDbEntity
  8
SUPERFICI
100
AcDbLine
 62
250
  6
CONTINUOUS
 10
32.5140981542
 20
30.3592882893
 11
37.1388203287
 21
34.9288635121
  0
LINE
  5
34E
100
AcDbEntity
  8
SUPERFICI
100
AcDbLine
 62
250
  6
CONTINUOUS
 10
37.080906292
 20
35.2102625113
 11
35.5744995312
 21
33.7340508011
  0
LINE
  5
34F
100
AcDbEntity
  8
SUPERFICI
100
AcDbLine
 62
250
  6
CONTINUOUS
 10
38.085144101
 20
36.1869690473
 11
37.080906292
 21
35.2102625113
  0
LWPOLYLINE
  5
350
100
AcDbEntity
  8
SUPERFICI
100
AcDbPolyline
 62
250
  6
CONTINUOUS
 90
10
 70
0
 10
-36.8461855074
 20
-39.0842599932
 10
-36.3628165057
 20
-38.6163765945
 10
-35.877047463
 20
-38.1407805231
 10
-35.3898830094
 20
-37.6584454832
 10
-34.9017632396
 20
-37.1697784634
 10
-34.4143756917
 20
-36.6764304505
 10
-33.9306049816
 20
-36.1813104563
 10
-33.4521182382
 20
-35.6861404721
 10
-32.9794161074
 20
-35.1914422466
 10
-32.5136085933
 20
-34.6983583088
  0
LWPOLYLINE
  5
351
100
AcDbEntity
  8
SUPERFICI
100
AcDbPolyline
 62
250
  6
CONTINUOUS
 90
10
 70
0
 10
35.5837101741
 20
27.8189626045
 10
35.9900774923
 20
28.2114486071
 10
36.3906491535
 20
28.6041467065
 10
36.785929739
 20
28.997539306
 10
37.1760597795
 20
29.3917381517
 10
37.5619153964
 20
29.7875926807
 10
37.9450705585
 20
30.1867078514
 10
38.3263569396
 20
30.5899662407
 10
38.7059017274
 20
30.9975102768
 10
39.0842009193
 20
31.4098631156
  0
LWPOLYLINE
  5
352
100
AcDbEntity
  8
SUPERFICI
100
AcDbPolyline
 62
250
  6
CONTINUOUS
 90
10
 70
0
 10
-36.8013077801
 20
-39.0842009192
 10
-36.9253582372
 20
-39.2039360131
 10
-37.0380247628
 20
-39.3140118467
 10
-37.1378498166
 20
-39.4128323705
 10
-37.2238749383
 20
-39.4993089877
 10
-37.2949707177
 20
-39.5721885453
 10
-37.350149112
 20
-39.6303325243
 10
-37.3893061462
 20
-39.6734798394
 10
-37.4128583741
 20
-39.7019160406
 10
-37.4212973076
 20
-39.716002579
  0
LWPOLYLINE
  5
353
100
AcDbEntity
  8
SUPERFICI
100
AcDbPolyline
 62
250
  6
CONTINUOUS
 90
10
 70
0
 10
-25.334275989
 20
-23.9867322225
 10
-25.8444100885
 20
-24.4314950354
 10
-26.3420417997
 20
-24.8696414347
 10
-26.8305809148
 20
-25.3043110159
 10
-27.3142409127
 20
-25.7393642135
 10
-27.7952118307
 20
-26.1768445776
 10
-28.2736150144
 20
-26.6168414999
 10
-28.7511963538
 20
-27.0608469399
 10
-29.2313823906
 20
-27.5119030444
 10
-29.716425002
 20
-27.9719715713
  0
LWPOLYLINE
  5
354
100
AcDbEntity
  8
SUPERFICI
100
AcDbPolyline
 62
250
  6
CONTINUOUS
 90
10
 70
0
 10
-25.4181605135
 20
-23.8140115601
 10
-25.9326320325
 20
-24.2559221629
 10
-26.434903613
 20
-24.6917446584
 10
-26.9281971823
 20
-25.1244018132
 10
-27.4163990818
 20
-25.5574032469
 10
-27.9016762214
 20
-25.9927356017
 10
-28.3844438763
 20
-26.4307520837
 10
-28.8664831271
 20
-26.8729669911
 10
-29.3509820572
 20
-27.3221746397
 10
-29.8401316492
 20
-27.7802643023
  0
LWPOLYLINE
  5
355
100
AcDbEntity
  8
SUPERFICI
100
AcDbPolyline
 62
250
  6
CONTINUOUS
 90
10
 70
0
 10
-25.6936771012
 20
-22.697553935
 10
-26.248882258
 20
-23.117754909
 10
-26.7932124885
 20
-23.5366559776
 10
-27.3283746481
 20
-23.9555937151
 10
-27.8553945674
 20
-24.3753534369
 10
-28.3764596679
 20
-24.7976325353
 10
-28.8949042083
 20
-25.2251145717
 10
-29.4127935685
 20
-25.6595128935
 10
-29.9309405623
 20
-26.1014979141
 10
-30.4507359896
 20
-26.5522107386
  0
LINE
  5
356
100
AcDbEntity
  8
DRAFT
100
AcDbLine
 62
7
  6
CONTINUOUS
 10
-22.5768784196
 20
2.5
 11
-22.5926016864
 21
2.4999981642
  0
LINE
  5
357
100
AcDbEntity
  8
DRAFT
100
AcDbLine
 62
7
  6
CONTINUOUS
 10
22.5926016864
 20
2.4999981642
 11
22.5768784196
 21
2.5
  0
LWPOLYLINE
  5
358
100
AcDbEntity
  8
SUPERFICI
100
AcDbPolyline
 62
250
  6
CONTINUOUS
 90
10
 70
0
 10
-25.6936771012
 20
22.697553935
 10
-26.248882258
 20
23.117754909
 10
-26.7932124885
 20
23.5366559776
 10
-27.3283746481
 20
23.9555937151
 10
-27.8553945674
 20
24.3753534369
 10
-28.3764596679
 20
24.7976325353
 10
-28.8949042083
 20
25.2251145717
 10
-29.4127935685
 20
25.6595128935
 10
-29.9309405623
 20
26.1014979141
 10
-30.4507359896
 20
26.5522107386
  0
LWPOLYLINE
  5
359
100
AcDbEntity
  8
SUPERFICI
100
AcDbPolyline
 62
250
  6
CONTINUOUS
 90
10
 70
0
 10
35.5837101741
 20
-27.8189626045
 10
35.0778943461
 20
-27.3385434728
 10
34.5730464224
 20
-26.8684840164
 10
34.068759413
 20
-26.4089023465
 10
33.5645360144
 20
-25.959768085
 10
33.0602160279
 20
-25.5212876249
 10
32.5559968848
 20
-25.0938931499
 10
32.0518507282
 20
-24.6777355364
 10
31.5474995502
 20
-24.2726970723
 10
31.0428583296
 20
-23.8787684896
  0
LWPOLYLINE
  5
35A
100
AcDbEntity
  8
SUPERFICI
100
AcDbPolyline
 62
250
  6
CONTINUOUS
 90
10
 70
0
 10
-36.8013076207
 20
39.0842009192
 10
-36.9253580204
 20
39.2039359666
 10
-37.0380245053
 20
39.3140117831
 10
-37.1378495353
 20
39.4128323148
 10
-37.2238746541
 20
39.4993089649
 10
-37.2949704401
 20
39.5721885654
 10
-37.350148834
 20
39.6303325767
 10
-37.389305861
 20
39.6734799104
 10
-37.4128580826
 20
39.7019161221
 10
-37.4212970134
 20
39.7160026637
  0
LWPOLYLINE
  5
35B
100
AcDbEntity
  8
SUPERFICI
100
AcDbPolyline
 62
250
  6
CONTINUOUS
 90
10
 70
0
 10
-36.8461853515
 20
39.0842599925
 10
-36.3628169549
 20
38.6163771733
 10
-35.8770483836
 20
38.1407815481
 10
-35.3898842585
 20
37.658446814
 10
-34.9017646696
 20
37.1697799577
 10
-34.4143771464
 20
36.6764319596
 10
-33.9306062971
 20
36.1813118224
 10
-33.4521192563
 20
35.6861415353
 10
-32.9794166829
 20
35.1914428527
 10
-32.5136085933
 20
34.6983583088
  0
LINE
  5
35C
100
AcDbEntity
  8
SUPERFICI
100
AcDbLine
 62
250
  6
CONTINUOUS
 10
30.9004809539
 20
-28.7897830332
 11
31.9755100754
 21
-29.8320593005
  0
LINE
  5
35D
100
AcDbEntity
  8
SUPERFICI
100
AcDbLine
 62
250
  6
CONTINUOUS
 10
36.577854724
 20
-34.7187741518
 11
38.0851572929
 21
-36.1869790501
  0
LINE
  5
35E
100
AcDbEntity
  8
SUPERFICI
100
AcDbLine
 62
250
  6
CONTINUOUS
 10
31.3154315005
 20
-29.5202263422
 11
30.2443518735
 21
-28.4781112249
  0
LINE
  5
35F
100
AcDbEntity
  8
SUPERFICI
100
AcDbLine
 62
250
  6
CONTINUOUS
 10
31.9755100754
 20
-29.8320593005
 11
33.0565603824
 21
-30.8927753166
  0
LINE
  5
360
100
AcDbEntity
  8
SUPERFICI
100
AcDbLine
 62
250
  6
CONTINUOUS
 10
35.0768077109
 20
-33.2433442631
 11
36.577854724
 21
-34.7187741518
  0
LINE
  5
361
100
AcDbEntity
  8
SUPERFICI
100
AcDbLine
 62
250
  6
CONTINUOUS
 10
39.0841885055
 20
-36.8461861193
 11
36.6482560425
 21
-34.4445279495
  0
LWPOLYLINE
  5
362
100
AcDbEntity
  8
SUPERFICI
100
AcDbPolyline
 62
250
  6
CONTINUOUS
 90
10
 70
0
 10
35.1952253949
 20
-30.9983204474
 10
34.6662366306
 20
-30.4755578598
 10
34.1351494909
 20
-29.9572597622
 10
33.6035758918
 20
-29.4450726146
 10
33.0743320875
 20
-28.9417673776
 10
32.5476077907
 20
-28.4475878296
 10
32.020933573
 20
-27.9603862425
 10
31.4943669091
 20
-27.4804993658
 10
30.9705265127
 20
-27.0106147322
 10
30.4507359896
 20
-26.5522107386
  0
LINE
  5
363
100
AcDbEntity
  8
SUPERFICI
100
AcDbLine
 62
250
  6
CONTINUOUS
 10
33.0565603824
 20
-30.8927753166
 11
36.6482560425
 21
-34.4445279495
  0
LINE
  5
364
100
AcDbEntity
  8
SUPERFICI
100
AcDbLine
 62
250
  6
CONTINUOUS
 10
32.9365474073
 20
-31.1209484082
 11
31.3154315005
 21
-29.5202263422
  0
LINE
  5
365
100
AcDbEntity
  8
SUPERFICI
100
AcDbLine
 62
250
  6
CONTINUOUS
 10
35.0768077109
 20
-33.2433442631
 11
32.9365474073
 21
-31.1209484082
  0
LINE
  5
366
100
AcDbEntity
  8
SUPERFICI
100
AcDbLine
 62
250
  6
CONTINUOUS
 10
-24.7526094134
 20
26.3680517358
 11
-23.8140066113
 21
25.4181496252
  0
LINE
  5
367
100
AcDbEntity
  8
SUPERFICI
100
AcDbLine
 62
250
  6
CONTINUOUS
 10
-25.6676431326
 20
27.3089686632
 11
-24.7526094134
 21
26.3680517358
  0
LWPOLYLINE
  5
368
100
AcDbEntity
  8
SUPERFICI
100
AcDbPolyline
 62
250
  6
CONTINUOUS
 90
10
 70
0
 10
-30.9999605717
 20
35.1949136289
 10
-31.4286545266
 20
35.6450419575
 10
-31.8628739048
 20
36.0913245105
 10
-32.3023971414
 20
36.5335286627
 10
-32.7471589879
 20
36.9715741104
 10
-33.1967847007
 20
37.4050724535
 10
-33.6505734927
 20
37.833343564
 10
-34.1081287531
 20
38.2560232819
 10
-34.5693745913
 20
38.6730470431
 10
-35.0340784353
 20
39.0842009192
  0
LWPOLYLINE
  5
369
100
AcDbEntity
  8
SUPERFICI
100
AcDbPolyline
 62
250
  6
CONTINUOUS
 90
6
 70
0
 10
-30.9999605717
 20
35.1949136289
 10
-30.5332994252
 20
34.6939793435
 10
-30.0656567723
 20
34.1814455021
 10
-29.5971276968
 20
33.658609632
 10
-29.1284867055
 20
33.1276395287
 10
-28.6591343147
 20
32.5892507539
  0
LINE
  5
36A
100
AcDbEntity
  8
SUPERFICI
100
AcDbLine
 62
250
  6
CONTINUOUS
 10
31.0092693525
 20
-33.073728084
 11
28.9751929694
 21
-30.8420318826
  0
LWPOLYLINE
  5
36B
100
AcDbEntity
  8
SUPERFICI
100
AcDbPolyline
 62
250
  6
CONTINUOUS
 90
10
 70
0
 10
-27.8243897177
 20
35.5828566402
 10
-27.4037117853
 20
35.1167385454
 10
-26.986503866
 20
34.6421647438
 10
-26.5716589824
 20
34.1581079366
 10
-26.1570338304
 20
33.6623229561
 10
-25.7423482308
 20
33.154803221
 10
-25.3291108788
 20
32.6379550642
 10
-24.9168424537
 20
32.1119474846
 10
-24.5031478022
 20
31.5745363945
 10
-24.0865663579
 20
31.0246453689
  0
LINE
  5
36C
100
AcDbEntity
  8
SUPERFICI
100
AcDbLine
 62
250
  6
CONTINUOUS
 10
27.7120415412
 20
-31.488908892
 11
26.7549907543
 21
-30.369619874
  0
LWPOLYLINE
  5
36D
100
AcDbEntity
  8
SUPERFICI
100
AcDbPolyline
 62
250
  6
CONTINUOUS
 90
10
 70
0
 10
20.350212833
 20
-25.7004238655
 10
20.7407746611
 20
-26.2926965278
 10
21.1405948434
 20
-26.8894022975
 10
21.548664058
 20
-27.489000296
 10
21.9646815784
 20
-28.0909711292
 10
22.386780092
 20
-28.6925166591
 10
22.8114825804
 20
-29.2886637271
 10
23.2367931332
 20
-29.8766668091
 10
23.662238895
 20
-30.4559027288
 10
24.0865663579
 20
-31.0246453689
  0
LWPOLYLINE
  5
36E
100
AcDbEntity
  8
SUPERFICI
100
AcDbPolyline
 62
250
  6
CONTINUOUS
 90
10
 70
0
 10
-31.4098632768
 20
-39.0842009192
 10
-30.9902141686
 20
-38.7138142218
 10
-30.5765857645
 20
-38.339364559
 10
-30.1687903287
 20
-37.9607199963
 10
-29.7670289893
 20
-37.5781238121
 10
-29.3707237947
 20
-37.1910869313
 10
-28.9785599634
 20
-36.7983346399
 10
-28.5900207521
 20
-36.3993053543
 10
-28.2053451903
 20
-35.9942038887
 10
-27.8243897177
 20
-35.5828566402
  0
LWPOLYLINE
  5
36F
100
AcDbEntity
  8
SUPERFICI
100
AcDbPolyline
 62
250
  6
CONTINUOUS
 90
10
 70
0
 10
-25.7004238655
 20
-20.3502126373
 10
-26.3082762002
 20
-20.6983384844
 10
-26.9165271426
 20
-21.0597021102
 10
-27.5241100631
 20
-21.4338188796
 10
-28.1318191563
 20
-21.8214093771
 10
-28.7365385452
 20
-22.2207401261
 10
-29.3314959182
 20
-22.627358793
 10
-29.9138956691
 20
-23.0391379445
 10
-30.484664186
 20
-23.4565390317
 10
-31.0428583296
 20
-23.8787684896
  0
LWPOLYLINE
  5
370
100
AcDbEntity
  8
SUPERFICI
100
AcDbPolyline
 62
250
  6
CONTINUOUS
 90
10
 70
0
 10
-31.4098631222
 20
39.0842009192
 10
-30.9902143013
 20
38.7138144738
 10
-30.5765861183
 20
38.3393650071
 10
-30.1687908379
 20
37.9607205825
 10
-29.7670295893
 20
37.5781244774
 10
-29.3707244194
 20
37.1910876127
 10
-28.9785605413
 20
36.7983352665
 10
-28.5900212098
 20
36.3993058505
 10
-28.2053454556
 20
35.9942041772
 10
-27.8243897177
 20
35.5828566402
  0
LWPOLYLINE
  5
371
100
AcDbEntity
  8
SUPERFICI
100
AcDbPolyline
 62
250
  6
CONTINUOUS
 90
10
 70
0
 10
39.0842009192
 20
-35.0340785899
 10
38.6612634854
 20
-34.5781174977
 10
38.2360648583
 20
-34.1240768224
 10
37.808596106
 20
-33.6719463249
 10
37.3788622327
 20
-33.2217302966
 10
36.9468405471
 20
-32.7734038741
 10
36.5124799011
 20
-32.3269136277
 10
36.075756549
 20
-31.8822355289
 10
35.6366749083
 20
-31.4393743613
 10
35.1952253949
 20
-30.9983204474
  0
LWPOLYLINE
  5
372
100
AcDbEntity
  8
SUPERFICI
100
AcDbPolyline
 62
250
  6
CONTINUOUS
 90
10
 70
0
 10
39.0842009192
 20
-31.4098635796
 10
38.7035724229
 20
-30.9949907892
 10
38.322338683
 20
-30.5856847792
 10
37.9400105584
 20
-30.1813976501
 10
37.5565893449
 20
-29.7820876616
 10
37.1711472853
 20
-29.3867371513
 10
36.781777462
 20
-28.9933758387
 10
36.3874984608
 20
-28.6010348573
 10
35.9883043021
 20
-28.2097232804
 10
35.5837101741
 20
-27.8189626045
  0
LWPOLYLINE
  5
373
100
AcDbEntity
  8
SUPERFICI
100
AcDbPolyline
 62
250
  6
CONTINUOUS
 90
10
 70
0
 10
-39.7453132159
 20
-37.1319684619
 10
-39.7301567161
 20
-37.1248460915
 10
-39.6991400681
 20
-37.1038102539
 10
-39.6522978862
 20
-37.0684119282
 10
-39.5898413424
 20
-37.0182683306
 10
-39.5124626088
 20
-36.9532983388
 10
-39.4215406087
 20
-36.873926947
 10
-39.3186704467
 20
-36.7806988938
 10
-39.2055095313
 20
-36.6741052148
 10
-39.0842009192
 20
-36.5549468208
  0
LWPOLYLINE
  5
374
100
AcDbEntity
  8
SUPERFICI
100
AcDbPolyline
 62
250
  6
CONTINUOUS
 90
10
 70
0
 10
-39.745312102
 20
37.1319684083
 10
-39.7301556057
 20
37.1248460277
 10
-39.6991389948
 20
37.1038101686
 10
-39.6522968905
 20
37.0684118217
 10
-39.5898404698
 20
37.0182682154
 10
-39.5124619011
 20
36.9532982354
 10
-39.4215400913
 20
36.8739268765
 10
-39.3186701254
 20
36.7806988771
 10
-39.2055093921
 20
36.6741052748
 10
-39.0842009193
 20
36.5549469784
  0
LWPOLYLINE
  5
375
100
AcDbEntity
  8
SUPERFICI
100
AcDbPolyline
 62
250
  6
CONTINUOUS
 90
13
 70
0
 10
36.83145662
 20
39.7484790161
 10
36.8272111586
 20
39.7386986989
 10
36.814237678
 20
39.7200861976
 10
36.7922293686
 20
39.6924879444
 10
36.7608813935
 20
39.6557701224
 10
36.7200737775
 20
39.6100360741
 10
36.6700362717
 20
39.555780164
 10
36.6110102876
 20
39.4935067354
 10
36.543159746
 20
39.4236595135
 10
36.4668874436
 20
39.3469575407
 10
36.382655891
 20
39.2642044894
 10
36.2909668715
 20
39.1762747481
 10
36.192447177
 20
39.0842009192
  0
LWPOLYLINE
  5
376
100
AcDbEntity
  8
SUPERFICI
100
AcDbPolyline
 62
250
  6
CONTINUOUS
 90
10
 70
0
 10
-39.7484790162
 20
-36.83145662
 10
-39.7332652623
 20
-36.8247115376
 10
-39.7020304731
 20
-36.8040604363
 10
-39.6548143766
 20
-36.7689806446
 10
-39.5918598972
 20
-36.7190178907
 10
-39.5139056543
 20
-36.6540075917
 10
-39.4223831369
 20
-36.5742708229
 10
-39.3189752641
 20
-36.4802549527
 10
-39.2054774025
 20
-36.3723700145
 10
-39.0842009192
 20
-36.2513322422
  0
LWPOLYLINE
  5
377
100
AcDbEntity
  8
SUPERFICI
100
AcDbPolyline
 62
250
  6
CONTINUOUS
 90
10
 70
0
 10
25.7004239475
 20
22.49556714
 10
25.5271788914
 20
22.4867199811
 10
25.3538504051
 20
22.4718420982
 10
25.1811922409
 20
22.450933491
 10
25.0096571746
 20
22.4238860015
 10
24.8404391484
 20
22.3908077877
 10
24.6753887701
 20
22.3520233243
 10
24.5156371806
 20
22.3076407694
 10
24.3616816551
 20
22.2575519649
 10
24.2143670218
 20
22.2017569107
  0
LWPOLYLINE
  5
378
100
AcDbEntity
  8
SUPERFICI
100
AcDbPolyline
 62
250
  6
CONTINUOUS
 90
10
 70
0
 10
-25.7004239475
 20
22.49556714
 10
-25.5271788914
 20
22.4867199811
 10
-25.3538504051
 20
22.4718420982
 10
-25.1811922409
 20
22.450933491
 10
-25.0096571746
 20
22.4238860015
 10
-24.8404391484
 20
22.3908077877
 10
-24.6753887701
 20
22.3520233243
 10
-24.5156371806
 20
22.3076407694
 10
-24.3616816551
 20
22.2575519649
 10
-24.2143670218
 20
22.2017569107
  0
LWPOLYLINE
  5
379
100
AcDbEntity
  8
SUPERFICI
100
AcDbPolyline
 62
250
  6
CONTINUOUS
 90
10
 70
0
 10
-39.7484790161
 20
36.83145662
 10
-39.7332652611
 20
36.8247115368
 10
-39.70203047
 20
36.8040604329
 10
-39.6548143722
 20
36.7689806369
 10
-39.5918598936
 20
36.7190178769
 10
-39.5139056538
 20
36.6540075691
 10
-39.4223831393
 20
36.5742707864
 10
-39.3189752673
 20
36.480254899
 10
-39.2054774049
 20
36.3723699454
 10
-39.0842009192
 20
36.2513321645
  0
LWPOLYLINE
  5
37A
100
AcDbEntity
  8
SUPERFICI
100
AcDbPolyline
 62
250
  6
CONTINUOUS
 90
13
 70
0
 10
36.8314563088
 20
-39.7484790161
 10
36.8272108486
 20
-39.7386986971
 10
36.814237372
 20
-39.7200861926
 10
36.7922290696
 20
-39.6924879355
 10
36.7608811053
 20
-39.6557701101
 10
36.7200735036
 20
-39.6100360593
 10
36.6700360148
 20
-39.5557801476
 10
36.6110100494
 20
-39.4935067183
 10
36.5431595275
 20
-39.4236594972
 10
36.4668872447
 20
-39.3469575265
 10
36.3826557101
 20
-39.2642044786
 10
36.2909667056
 20
-39.176274742
 10
36.1924470213
 20
-39.0842009192
  0
LWPOLYLINE
  5
37B
100
AcDbEntity
  8
SUPERFICI
100
AcDbPolyline
 62
7
  6
CONTINUOUS
 90
16
 70
0
 10
24.2143662665
 20
22.2017569107
 10
24.2035264117
 20
22.4018731728
 10
24.1713681411
 20
22.6031343314
 10
24.1184371685
 20
22.802120532
 10
24.0451601829
 20
22.9956665467
 10
23.9521595546
 20
23.179980562
 10
23.8406610897
 20
23.3510859626
 10
23.7129514083
 20
23.5074800337
 10
23.5708194999
 20
23.649684849
 10
23.4145752972
 20
23.7774444217
 10
23.2438846806
 20
23.8889056539
 10
23.0601187869
 20
23.9818933051
 10
22.8667673244
 20
24.055358127
 10
22.6674180724
 20
24.1086094009
 10
22.4653827797
 20
24.1410460027
 10
22.2641175103
 20
24.1520056669
  0
LWPOLYLINE
  5
37C
100
AcDbEntity
  8
SUPERFICI
100
AcDbPolyline
 62
250
  6
CONTINUOUS
 90
10
 70
0
 10
22.4957839733
 20
-25.7004239387
 10
22.4886018462
 20
-25.5189004216
 10
22.4766876582
 20
-25.3376249076
 10
22.4600414093
 20
-25.157345567
 10
22.4385398816
 20
-24.9784221342
 10
22.4123062929
 20
-24.8021063296
 10
22.3817102961
 20
-24.6304417911
 10
22.3468751089
 20
-24.4645722492
 10
22.3076775137
 20
-24.3048422292
 10
22.2641175103
 20
-24.1520063295
  0
LWPOLYLINE
  5
37D
100
AcDbEntity
  8
SUPERFICI
100
AcDbPolyline
 62
250
  6
CONTINUOUS
 90
4
 70
0
 10
22.2615932563
 20
-22.6486969955
 10
22.2606912039
 20
-22.5967607705
 10
22.2597289593
 20
-22.5642725291
 10
22.258706465
 20
-22.5517100749
  0
LINE
  5
37E
100
AcDbEntity
  8
SUPERFICI
100
AcDbLine
 62
250
  6
CONTINUOUS
 10
22.2632474838
 20
-22.8082043409
 11
22.2615932563
 21
-22.6486969955
  0
LINE
  5
37F
100
AcDbEntity
  8
SUPERFICI
100
AcDbLine
 62
250
  6
CONTINUOUS
 10
22.265333476
 20
-23.3119444982
 11
22.2632474838
 21
-22.8082043409
  0
LINE
  5
380
100
AcDbEntity
  8
SUPERFICI
100
AcDbLine
 62
250
  6
CONTINUOUS
 10
22.2641175076
 20
24.1521107976
 11
22.2655278318
 21
23.6099028607
  0
LINE
  5
381
100
AcDbEntity
  8
0
100
AcDbLine
 62
250
  6
CONTINUOUS
 10
22.2587064677
 20
-22.5518810923
 11
22.2587064677
 21
-22.5428504426
  0
LINE
  5
382
100
AcDbEntity
  8
0
100
AcDbLine
 62
250
  6
CONTINUOUS
 10
22.2587064677
 20
22.5428504426
 11
22.2587064677
 21
22.5518810923
  0
LINE
  5
383
100
AcDbEntity
  8
DRAFT
100
AcDbLine
 62
7
  6
CONTINUOUS
 10
22.5768626904
 20
-22.2089552239
 11
22.5768752367
 21
-2.5
  0
LINE
  5
384
100
AcDbEntity
  8
DRAFT
100
AcDbLine
 62
7
  6
CONTINUOUS
 10
22.5768784196
 20
2.5
 11
22.5768909659
 21
22.2089552239
  0
LINE
  5
385
100
AcDbEntity
  8
0
100
AcDbLine
 62
7
  6
CONTINUOUS
 10
22.5926016864
 20
-22.2089552239
 11
22.5926016864
 21
22.2089552239
  0
LINE
  5
386
100
AcDbEntity
  8
SUPERFICI
100
AcDbLine
 62
250
  6
CONTINUOUS
 10
22.6016323361
 20
-22.2089552239
 11
22.6016323361
 21
22.2089552239
  0
LINE
  5
387
100
AcDbEntity
  8
SUPERFICI
100
AcDbLine
 62
250
  6
CONTINUOUS
 10
24.2143670218
 20
22.2017569107
 11
24.2144765672
 21
-22.2017569079
  0
LINE
  5
388
100
AcDbEntity
  8
SUPERFICI
100
AcDbLine
 62
250
  6
CONTINUOUS
 10
22.2651235598
 20
-23.8973699643
 11
22.265333476
 21
-23.3119444982
  0
LINE
  5
389
100
AcDbEntity
  8
SUPERFICI
100
AcDbLine
 62
250
  6
CONTINUOUS
 10
22.2655278318
 20
23.6099028607
 11
22.2645232621
 21
23.034832006
  0
LINE
  5
38A
100
AcDbEntity
  8
SUPERFICI
100
AcDbLine
 62
250
  6
CONTINUOUS
 10
22.2641175076
 20
-24.1521107976
 11
22.2651235598
 21
-23.8973699643
  0
LWPOLYLINE
  5
38B
100
AcDbEntity
  8
SUPERFICI
100
AcDbPolyline
 62
250
  6
CONTINUOUS
 90
6
 70
0
 10
22.2645232621
 20
23.034832006
 10
22.2624504063
 20
22.719455211
 10
22.2615932563
 20
22.6486969955
 10
22.2606912039
 20
22.5967607705
 10
22.2597289593
 20
22.5642725291
 10
22.258706465
 20
22.5517100749
  0
LWPOLYLINE
  5
38C
100
AcDbEntity
  8
SUPERFICI
100
AcDbPolyline
 62
250
  6
CONTINUOUS
 90
10
 70
0
 10
22.4957839733
 20
25.7004239387
 10
22.4886018462
 20
25.5189004216
 10
22.4766876582
 20
25.3376249076
 10
22.4600414093
 20
25.157345567
 10
22.4385398816
 20
24.9784221342
 10
22.4123062929
 20
24.8021063296
 10
22.3817102961
 20
24.6304417911
 10
22.3468751089
 20
24.4645722492
 10
22.3076775137
 20
24.3048422292
 10
22.2641175103
 20
24.1520063295
  0
LWPOLYLINE
  5
38D
100
AcDbEntity
  8
SUPERFICI
100
AcDbPolyline
 62
7
  6
CONTINUOUS
 90
16
 70
0
 10
24.2143662665
 20
-22.2017569107
 10
24.2035264117
 20
-22.4018731729
 10
24.171368141
 20
-22.6031343316
 10
24.1184371684
 20
-22.8021205323
 10
24.0451601828
 20
-22.995666547
 10
23.9521595545
 20
-23.1799805623
 10
23.8406610896
 20
-23.3510859628
 10
23.7129514081
 20
-23.5074800339
 10
23.5708194997
 20
-23.6496848492
 10
23.414575297
 20
-23.7774444219
 10
23.2438846804
 20
-23.8889056541
 10
23.0601187867
 20
-23.9818933052
 10
22.8667673241
 20
-24.055358127
 10
22.6674180722
 20
-24.1086094009
 10
22.4653827796
 20
-24.1410460027
 10
22.2641175103
 20
-24.1520056669
  0
LWPOLYLINE
  5
38E
100
AcDbEntity
  8
SUPERFICI
100
AcDbPolyline
 62
250
  6
CONTINUOUS
 90
4
 70
0
 10
-22.6997198093
 20
22.2050396134
 10
-22.6470963216
 20
22.206262051
 10
-22.6141768013
 20
22.207567274
 10
-22.6014564049
 20
22.2089552211
  0
LINE
  5
38F
100
AcDbEntity
  8
SUPERFICI
100
AcDbLine
 62
250
  6
CONTINUOUS
 10
-22.8612656933
 20
22.202801948
 11
-22.6997198093
 21
22.2050396134
  0
LINE
  5
390
100
AcDbEntity
  8
SUPERFICI
100
AcDbLine
 62
250
  6
CONTINUOUS
 10
-23.2266232162
 20
22.2004439887
 11
-22.8612656933
 21
22.202801948
  0
LINE
  5
391
100
AcDbEntity
  8
SUPERFICI
100
AcDbLine
 62
250
  6
CONTINUOUS
 10
24.2144765672
 20
22.2017569079
 11
23.8190701144
 21
22.1999601012
  0
LINE
  5
392
100
AcDbEntity
  8
0
100
AcDbLine
 62
250
  6
CONTINUOUS
 10
22.6016323361
 20
22.2089552239
 11
22.5926016864
 21
22.2089552239
  0
LINE
  5
393
100
AcDbEntity
  8
0
100
AcDbLine
 62
250
  6
CONTINUOUS
 10
-22.5926016864
 20
22.2089552239
 11
-22.6016323361
 21
22.2089552239
  0
LINE
  5
394
100
AcDbEntity
  8
DRAFT
100
AcDbLine
 62
7
  6
CONTINUOUS
 10
22.2587064677
 20
22.5271399246
 11
2.5
 21
22.5271399246
  0
LINE
  5
395
100
AcDbEntity
  8
DRAFT
100
AcDbLine
 62
7
  6
CONTINUOUS
 10
-2.5
 20
22.5271399246
 11
-22.2587064677
 21
22.5271399246
  0
LINE
  5
396
100
AcDbEntity
  8
0
100
AcDbLine
 62
7
  6
CONTINUOUS
 10
22.2587064677
 20
22.5428504426
 11
-22.2587064677
 21
22.5428504426
  0
LINE
  5
397
100
AcDbEntity
  8
SUPERFICI
100
AcDbLine
 62
250
  6
CONTINUOUS
 10
22.2587064677
 20
22.5518810923
 11
-22.2587064677
 21
22.5518810923
  0
LINE
  5
398
100
AcDbEntity
  8
SUPERFICI
100
AcDbLine
 62
250
  6
CONTINUOUS
 10
-22.2641175103
 20
24.1520063295
 11
22.2641175076
 21
24.1521107976
  0
LINE
  5
399
100
AcDbEntity
  8
SUPERFICI
100
AcDbLine
 62
250
  6
CONTINUOUS
 10
-23.8190701144
 20
22.1999601012
 11
-23.2266232162
 21
22.2004439887
  0
LINE
  5
39A
100
AcDbEntity
  8
SUPERFICI
100
AcDbLine
 62
250
  6
CONTINUOUS
 10
23.8190701144
 20
22.1999601012
 11
23.2266232162
 21
22.2004439887
  0
LINE
  5
39B
100
AcDbEntity
  8
SUPERFICI
100
AcDbLine
 62
250
  6
CONTINUOUS
 10
-24.2144765672
 20
22.2017569079
 11
-23.8190701144
 21
22.1999601012
  0
LINE
  5
39C
100
AcDbEntity
  8
SUPERFICI
100
AcDbLine
 62
250
  6
CONTINUOUS
 10
23.2266232162
 20
22.2004439887
 11
22.8612656933
 21
22.202801948
  0
LWPOLYLINE
  5
39D
100
AcDbEntity
  8
SUPERFICI
100
AcDbPolyline
 62
250
  6
CONTINUOUS
 90
5
 70
0
 10
22.8612656933
 20
22.202801948
 10
22.6997198093
 20
22.2050396134
 10
22.6470963216
 20
22.206262051
 10
22.6141768013
 20
22.207567274
 10
22.6014564049
 20
22.2089552211
  0
LWPOLYLINE
  5
39E
100
AcDbEntity
  8
SUPERFICI
100
AcDbPolyline
 62
7
  6
CONTINUOUS
 90
10
 70
0
 10
25.6936770885
 20
22.6975541339
 10
25.6950123527
 20
22.6754122856
 10
25.6961875101
 20
22.653190004
 10
25.6972082954
 20
22.6308894521
 10
25.6980805322
 20
22.6085128396
 10
25.6988101358
 20
22.5860623768
 10
25.6994031119
 20
22.5635402745
 10
25.6998655559
 20
22.5409488064
 10
25.700203654
 20
22.5182903098
 10
25.7004236849
 20
22.4955671387
  0
LINE
  5
39F
100
AcDbEntity
  8
SUPERFICI
100
AcDbLine
 62
7
  6
CONTINUOUS
 10
25.7004239475
 20
-22.49556714
 11
25.7004239475
 21
22.49556714
  0
LWPOLYLINE
  5
3A0
100
AcDbEntity
  8
SUPERFICI
100
AcDbPolyline
 62
7
  6
CONTINUOUS
 90
10
 70
0
 10
25.6936770951
 20
-22.6975540345
 10
25.695010157
 20
-22.6754132342
 10
25.696179908
 20
-22.6531915132
 10
25.6971936522
 20
-22.6308910319
 10
25.6980588162
 20
-22.6085136885
 10
25.6987829148
 20
-22.5860620001
 10
25.6993735701
 20
-22.5635391057
 10
25.6998385478
 20
-22.5409475902
 10
25.70018574
 20
-22.5182894819
 10
25.7004231432
 20
-22.495567135
  0
LWPOLYLINE
  5
3A1
100
AcDbEntity
  8
SUPERFICI
100
AcDbPolyline
 62
7
  6
CONTINUOUS
 90
10
 70
0
 10
-22.6975532318
 20
25.6936697018
 10
-22.8270108659
 20
25.6827822401
 10
-22.9554413937
 20
25.6668385923
 10
-23.082728991
 20
25.6458881973
 10
-23.2087475905
 20
25.6199798285
 10
-23.3334209439
 20
25.5891416781
 10
-23.4565823413
 20
25.5534289835
 10
-23.5778523269
 20
25.5129699074
 10
-23.6969290795
 20
25.4678942332
 10
-23.8140067922
 20
25.418149544
  0
LWPOLYLINE
  5
3A2
100
AcDbEntity
  8
SUPERFICI
100
AcDbPolyline
 62
7
  6
CONTINUOUS
 90
10
 70
0
 10
-22.4957839721
 20
25.7004236916
 10
-22.5184824286
 20
25.7002028913
 10
-22.5411162469
 20
25.6998639273
 10
-22.5636831248
 20
25.6994005515
 10
-22.5861808061
 20
25.6988066106
 10
-22.60860704
 20
25.6980760464
 10
-22.6309595805
 20
25.6972028959
 10
-22.6532362411
 20
25.6961812894
 10
-22.6754348945
 20
25.6950054488
 10
-22.6975534312
 20
25.693669689
  0
LINE
  5
3A3
100
AcDbEntity
  8
SUPERFICI
100
AcDbLine
 62
7
  6
CONTINUOUS
 10
22.4957839733
 20
25.7004239387
 11
-22.4957839721
 21
25.7004236916
  0
LWPOLYLINE
  5
3A4
100
AcDbEntity
  8
SUPERFICI
100
AcDbPolyline
 62
7
  6
CONTINUOUS
 90
10
 70
0
 10
22.4957839709
 20
25.7004235177
 10
22.5184816075
 20
25.7001853781
 10
22.5411150425
 20
25.6998373124
 10
22.5636819729
 20
25.6993713634
 10
22.5861804488
 20
25.698779681
 10
22.6086079102
 20
25.6980545464
 10
22.6309611904
 20
25.6971883904
 10
22.653237798
 20
25.6961737541
 10
22.6754359141
 20
25.6950032679
 10
22.6975534312
 20
25.693669689
  0
LWPOLYLINE
  5
3A5
100
AcDbEntity
  8
SUPERFICI
100
AcDbPolyline
 62
7
  6
CONTINUOUS
 90
10
 70
0
 10
22.6975532318
 20
25.6936697018
 10
22.8270108659
 20
25.6827822401
 10
22.9554413937
 20
25.6668385923
 10
23.082728991
 20
25.6458881973
 10
23.2087475905
 20
25.6199798285
 10
23.3334209439
 20
25.5891416781
 10
23.4565823413
 20
25.5534289835
 10
23.5778523269
 20
25.5129699074
 10
23.6969290795
 20
25.4678942332
 10
23.8140067922
 20
25.418149544
  0
LINE
  5
3A6
100
AcDbEntity
  8
SUPERFICI
100
AcDbLine
 62
250
  6
CONTINUOUS
 10
31.0428583296
 20
23.8787684896
 11
31.1283178806
 21
22.3838933771
  0
LINE
  5
3A7
100
AcDbEntity
  8
SUPERFICI
100
AcDbLine
 62
250
  6
CONTINUOUS
 10
31.1283178806
 20
22.3838933771
 11
31.2100043561
 21
20.8136263263
  0
LINE
  5
3A8
100
AcDbEntity
  8
SUPERFICI
100
AcDbLine
 62
250
  6
CONTINUOUS
 10
31.2100043561
 20
20.8136263263
 11
31.289347751
 21
19.1662987749
  0
LINE
  5
3A9
100
AcDbEntity
  8
SUPERFICI
100
AcDbLine
 62
250
  6
CONTINUOUS
 10
31.289347751
 20
19.1662987749
 11
31.3656452836
 21
17.4360604102
  0
LINE
  5
3AA
100
AcDbEntity
  8
SUPERFICI
100
AcDbLine
 62
250
  6
CONTINUOUS
 10
31.3656452836
 20
17.4360604102
 11
31.4380316739
 21
15.6178172396
  0
LINE
  5
3AB
100
AcDbEntity
  8
SUPERFICI
100
AcDbLine
 62
250
  6
CONTINUOUS
 10
31.4380316739
 20
15.6178172396
 11
31.5054787895
 21
13.7080027167
  0
LINE
  5
3AC
100
AcDbEntity
  8
SUPERFICI
100
AcDbLine
 62
250
  6
CONTINUOUS
 10
31.5054787895
 20
13.7080027167
 11
31.5668782295
 21
11.7011097896
  0
LINE
  5
3AD
100
AcDbEntity
  8
SUPERFICI
100
AcDbLine
 62
250
  6
CONTINUOUS
 10
31.5668782295
 20
11.7011097896
 11
31.6209732423
 21
9.5907692619
  0
LINE
  5
3AE
100
AcDbEntity
  8
SUPERFICI
100
AcDbLine
 62
250
  6
CONTINUOUS
 10
31.6209732423
 20
9.5907692619
 11
31.6662693439
 21
7.3725162105
  0
LWPOLYLINE
  5
3AF
100
AcDbEntity
  8
SUPERFICI
100
AcDbPolyline
 62
250
  6
CONTINUOUS
 90
6
 70
0
 10
31.6662693439
 20
7.3725162105
 10
31.7011260298
 20
5.0392772593
 10
31.7140621591
 20
3.8269953176
 10
31.7236612464
 20
2.5826013872
 10
31.7296324318
 20
1.3069349888
 10
31.7316879503
 20
0.0
  0
LWPOLYLINE
  5
3B0
100
AcDbEntity
  8
SUPERFICI
100
AcDbPolyline
 62
250
  6
CONTINUOUS
 90
5
 70
0
 10
31.7316879503
 20
0.0
 10
31.7296316168
 20
-1.3071901241
 10
31.7236582099
 20
-2.5830837782
 10
31.7140558183
 20
-3.8276769884
 10
31.7011156282
 20
-5.0401289492
  0
LINE
  5
3B1
100
AcDbEntity
  8
SUPERFICI
100
AcDbLine
 62
250
  6
CONTINUOUS
 10
31.7011156282
 20
-5.0401289492
 11
31.6662496317
 21
-7.3736268549
  0
LINE
  5
3B2
100
AcDbEntity
  8
SUPERFICI
100
AcDbLine
 62
250
  6
CONTINUOUS
 10
31.6662496317
 20
-7.3736268549
 11
31.6209439967
 21
-9.5920408455
  0
LINE
  5
3B3
100
AcDbEntity
  8
SUPERFICI
100
AcDbLine
 62
250
  6
CONTINUOUS
 10
31.6209439967
 20
-9.5920408455
 11
31.566840084
 21
-11.7024584556
  0
LINE
  5
3B4
100
AcDbEntity
  8
SUPERFICI
100
AcDbLine
 62
250
  6
CONTINUOUS
 10
31.566840084
 20
-11.7024584556
 11
31.5054341157
 21
-13.7093465598
  0
LINE
  5
3B5
100
AcDbEntity
  8
SUPERFICI
100
AcDbLine
 62
250
  6
CONTINUOUS
 10
31.5054341157
 20
-13.7093465598
 11
31.4379844504
 21
-15.6190826966
  0
LINE
  5
3B6
100
AcDbEntity
  8
SUPERFICI
100
AcDbLine
 62
250
  6
CONTINUOUS
 10
31.4379844504
 20
-15.6190826966
 11
31.3655967503
 21
-17.4371881216
  0
LINE
  5
3B7
100
AcDbEntity
  8
SUPERFICI
100
AcDbLine
 62
250
  6
CONTINUOUS
 10
31.3655967503
 20
-17.4371881216
 11
31.2893087163
 21
-19.1672275743
  0
LINE
  5
3B8
100
AcDbEntity
  8
SUPERFICI
100
AcDbLine
 62
250
  6
CONTINUOUS
 10
31.2893087163
 20
-19.1672275743
 11
31.2099646407
 21
-20.8142936047
  0
LINE
  5
3B9
100
AcDbEntity
  8
SUPERFICI
100
AcDbLine
 62
250
  6
CONTINUOUS
 10
31.2099646407
 20
-20.8142936047
 11
31.1282253215
 21
-22.384237888
  0
LINE
  5
3BA
100
AcDbEntity
  8
SUPERFICI
100
AcDbLine
 62
250
  6
CONTINUOUS
 10
31.1282253215
 20
-22.384237888
 11
31.0428583296
 21
-23.8787684896
  0
LWPOLYLINE
  5
3BB
100
AcDbEntity
  8
SUPERFICI
100
AcDbPolyline
 62
7
  6
CONTINUOUS
 90
10
 70
0
 10
25.4181604729
 20
-23.8140116503
 10
25.467893648
 20
-23.697017582
 10
25.5129689628
 20
-23.5779987095
 10
25.5534315552
 20
-23.4567685171
 10
25.5891500232
 20
-23.3336270487
 10
25.6199938188
 20
-23.20895281
 10
25.6459040104
 20
-23.0829202684
 10
25.6668525668
 20
-22.9556026122
 10
25.6827930364
 20
-22.8271115384
 10
25.6936771078
 20
-22.6975538356
  0
LWPOLYLINE
  5
3BC
100
AcDbEntity
  8
SUPERFICI
100
AcDbPolyline
 62
7
  6
CONTINUOUS
 90
10
 70
0
 10
25.3342759429
 20
-23.9867323104
 10
25.3441110474
 20
-23.9677958642
 10
25.3538145468
 20
-23.9488017236
 10
25.3633872185
 20
-23.9297484089
 10
25.3728282137
 20
-23.9106377609
 10
25.3821399879
 20
-23.8914649889
 10
25.3913280712
 20
-23.8722185735
 10
25.4003946044
 20
-23.8528935779
 10
25.4093385683
 20
-23.8334917433
 10
25.4181605539
 20
-23.8140114698
  0
LINE
  5
3BD
100
AcDbEntity
  8
RACCORDO
100
AcDbLine
 62
7
  6
CONTINUOUS
 10
39.9848786315
 20
3.6860137352
 11
39.8826004623
 21
3.5239590572
  0
LWPOLYLINE
  5
3BE
100
AcDbEntity
  8
SUPERFICI
100
AcDbPolyline
 62
7
  6
CONTINUOUS
 90
10
 70
0
 10
23.8140067018
 20
-25.4181495847
 10
24.0235757257
 20
-25.3147082268
 10
24.2263668455
 20
-25.1951698725
 10
24.4204511259
 20
-25.0603794193
 10
24.6044109648
 20
-24.9113158196
 10
24.7772684617
 20
-24.7487207917
 10
24.9376437687
 20
-24.5737926985
 10
25.084495494
 20
-24.3877815052
 10
25.2171974073
 20
-24.191376508
 10
25.334276035
 20
-23.9867321345
  0
LWPOLYLINE
  5
3BF
100
AcDbEntity
  8
SUPERFICI
100
AcDbPolyline
 62
250
  6
CONTINUOUS
 90
10
 70
0
 10
-24.0865663579
 20
31.0246453689
 10
-24.4141423095
 20
30.9874062559
 10
-24.7346544955
 20
30.940490595
 10
-25.0477338911
 20
30.8842335932
 10
-25.3528378908
 20
30.8190355936
 10
-25.6498752562
 20
30.7452299966
 10
-25.9391795355
 20
30.6630166278
 10
-26.2197683598
 20
30.5728798883
 10
-26.4917312908
 20
30.4749899953
 10
-26.7549907543
 20
30.369619874
  0
LINE
  5
3C0
100
AcDbEntity
  8
SUPERFICI
100
AcDbLine
 62
250
  6
CONTINUOUS
 10
-23.2191558819
 20
31.0867739105
 11
-24.0865663579
 21
31.0246453689
  0
LINE
  5
3C1
100
AcDbEntity
  8
SUPERFICI
100
AcDbLine
 62
250
  6
CONTINUOUS
 10
-21.3982877745
 20
31.1909263996
 11
-23.2191558819
 21
31.0867739105
  0
LINE
  5
3C2
100
AcDbEntity
  8
SUPERFICI
100
AcDbLine
 62
250
  6
CONTINUOUS
 10
-19.4842580931
 20
31.2873615357
 11
-21.3982877745
 21
31.1909263996
  0
LWPOLYLINE
  5
3C3
100
AcDbEntity
  8
SUPERFICI
100
AcDbPolyline
 62
250
  6
CONTINUOUS
 90
12
 70
0
 10
-5.6566265885
 20
31.6431639582
 10
-6.9810849178
 20
31.6349324246
 10
-8.2722682633
 20
31.621327638
 10
-9.5301390359
 20
31.6028062069
 10
-10.7547015769
 20
31.5802907254
 10
-11.9484056977
 20
31.5539756136
 10
-13.1112636609
 20
31.5241411833
 10
-14.24326337
 20
31.4911454103
 10
-15.3468209428
 20
31.455265738
 10
-16.4218314889
 20
31.4167949104
 10
-17.4683319843
 20
31.3759638973
 10
-19.4842580931
 20
31.2873615357
  0
LINE
  5
3C4
100
AcDbEntity
  8
SUPERFICI
100
AcDbLine
 62
250
  6
CONTINUOUS
 10
-2.8999651149
 20
31.6476996849
 11
-5.6566265885
 21
31.6431639582
  0
LWPOLYLINE
  5
3C5
100
AcDbEntity
  8
SUPERFICI
100
AcDbPolyline
 62
250
  6
CONTINUOUS
 90
12
 70
0
 10
16.4673299043
 20
31.415088785
 10
15.3949282275
 20
31.4536113474
 10
14.2932176639
 20
31.4896094734
 10
13.1622614016
 20
31.5227411654
 10
11.9994629076
 20
31.5527470973
 10
10.8048364239
 20
31.5792764998
 10
9.578365704
 20
31.6020082816
 10
8.3174034688
 20
31.6207230881
 10
7.0219243305
 20
31.6346347839
 10
5.6919838342
 20
31.6432006601
 10
4.3250648938
 20
31.6470271053
 10
-2.8999651149
 20
31.6476996849
  0
LINE
  5
3C6
100
AcDbEntity
  8
SUPERFICI
100
AcDbLine
 62
250
  6
CONTINUOUS
 10
18.5270649008
 20
31.3311095378
 11
16.4673299043
 21
31.415088785
  0
LINE
  5
3C7
100
AcDbEntity
  8
SUPERFICI
100
AcDbLine
 62
250
  6
CONTINUOUS
 10
20.4810904178
 20
31.2386360539
 11
18.5270649008
 21
31.3311095378
  0
LWPOLYLINE
  5
3C8
100
AcDbEntity
  8
SUPERFICI
100
AcDbPolyline
 62
250
  6
CONTINUOUS
 90
4
 70
0
 10
24.0865663579
 20
31.0246453689
 10
23.226952555
 20
31.0862684908
 10
22.3360840711
 20
31.1386423899
 10
20.4810904178
 20
31.2386360539
  0
LWPOLYLINE
  5
3C9
100
AcDbEntity
  8
SUPERFICI
100
AcDbPolyline
 62
250
  6
CONTINUOUS
 90
10
 70
0
 10
24.0865663579
 20
31.0246453689
 10
24.4141423095
 20
30.9874062559
 10
24.7346544955
 20
30.940490595
 10
25.0477338911
 20
30.8842335932
 10
25.3528378908
 20
30.8190355936
 10
25.6498752562
 20
30.7452299966
 10
25.9391795355
 20
30.6630166278
 10
26.2197683598
 20
30.5728798883
 10
26.4917312908
 20
30.4749899953
 10
26.7549907543
 20
30.369619874
  0
LWPOLYLINE
  5
3CA
100
AcDbEntity
  8
SUPERFICI
100
AcDbPolyline
 62
7
  6
CONTINUOUS
 90
10
 70
0
 10
23.8140066113
 20
25.4181496252
 10
24.0235756409
 20
25.314708272
 10
24.2263667662
 20
25.1951699226
 10
24.4204510519
 20
25.0603794742
 10
24.6044108959
 20
24.9113158795
 10
24.7772683977
 20
24.7487208566
 10
24.9376437094
 20
24.5737927688
 10
25.0844954392
 20
24.3877815811
 10
25.2171973569
 20
24.1913765898
 10
25.334275989
 20
23.9867322225
  0
LINE
  5
3CB
100
AcDbEntity
  8
RACCORDO
100
AcDbLine
 62
7
  6
CONTINUOUS
 10
39.8826004623
 20
-3.5239590572
 11
39.9848786315
 21
-3.6860137352
  0
LWPOLYLINE
  5
3CC
100
AcDbEntity
  8
SUPERFICI
100
AcDbPolyline
 62
7
  6
CONTINUOUS
 90
10
 70
0
 10
25.3342758969
 20
23.9867323983
 10
25.344111002
 20
23.9677959524
 10
25.3538145021
 20
23.9488018121
 10
25.3633871744
 20
23.9297484976
 10
25.3728281702
 20
23.9106378499
 10
25.382139945
 20
23.8914650781
 10
25.391328029
 20
23.872218663
 10
25.4003945628
 20
23.8528936676
 10
25.4093385273
 20
23.8334918333
 10
25.4181605135
 20
23.8140115601
  0
LWPOLYLINE
  5
3CD
100
AcDbEntity
  8
SUPERFICI
100
AcDbPolyline
 62
7
  6
CONTINUOUS
 90
10
 70
0
 10
25.4181604325
 20
23.8140117406
 10
25.4678936115
 20
23.697017673
 10
25.51296893
 20
23.5779988012
 10
25.5534315262
 20
23.4567686096
 10
25.589149998
 20
23.3336271421
 10
25.6199937973
 20
23.2089529043
 10
25.6459039926
 20
23.0829203639
 10
25.6668525527
 20
22.9556027088
 10
25.682793026
 20
22.8271116364
 10
25.6936771012
 20
22.697553935
  0
LINE
  5
3CE
100
AcDbEntity
  8
SUPERFICI
100
AcDbLine
 62
250
  6
CONTINUOUS
 10
35.5837101741
 20
27.8189626045
 11
35.634755802
 21
26.2595862609
  0
LINE
  5
3CF
100
AcDbEntity
  8
SUPERFICI
100
AcDbLine
 62
250
  6
CONTINUOUS
 10
35.634755802
 20
26.2595862609
 11
35.7208101056
 21
23.0229062465
  0
LWPOLYLINE
  5
3D0
100
AcDbEntity
  8
SUPERFICI
100
AcDbPolyline
 62
250
  6
CONTINUOUS
 90
12
 70
0
 10
35.7208101056
 20
23.0229062465
 10
35.7986635098
 20
19.6317575774
 10
35.8341476152
 20
17.8741184275
 10
35.8670366352
 20
16.0741108518
 10
35.897089511
 20
14.2316333593
 10
35.9241012926
 20
12.3430555197
 10
35.9477889036
 20
10.408518953
 10
35.967866909
 20
8.4278889904
 10
35.984068849
 20
6.3971214461
 10
35.9960724237
 20
4.3148719273
 10
36.0035284383
 20
2.1824956885
 10
36.0060918145
 20
-0.0
  0
LINE
  5
3D1
100
AcDbEntity
  8
0
100
AcDbLine
 62
250
  6
CONTINUOUS
 10
36.9999998429
 20
40.0
 11
36.9999998429
 21
39.7484790161
  0
LINE
  5
3D2
100
AcDbEntity
  8
0
100
AcDbLine
 62
250
  6
CONTINUOUS
 10
36.9999998429
 20
-39.7484790161
 11
36.9999998429
 21
-40.0
  0
LWPOLYLINE
  5
3D3
100
AcDbEntity
  8
SUPERFICI
100
AcDbPolyline
 62
250
  6
CONTINUOUS
 90
10
 70
0
 10
35.8341476152
 20
-17.8741184275
 10
35.8670366352
 20
-16.0741108517
 10
35.897089511
 20
-14.2316333593
 10
35.9241012926
 20
-12.3430555197
 10
35.9477889036
 20
-10.408518953
 10
35.967866909
 20
-8.4278889904
 10
35.984068849
 20
-6.3971214461
 10
35.9960724237
 20
-4.3148719273
 10
36.0035284383
 20
-2.1824956885
 10
36.0060918145
 20
0.0
  0
LINE
  5
3D4
100
AcDbEntity
  8
SUPERFICI
100
AcDbLine
 62
250
  6
CONTINUOUS
 10
35.760831293
 20
-21.3469156115
 11
35.8341476152
 21
-17.8741184275
  0
LWPOLYLINE
  5
3D5
100
AcDbEntity
  8
SUPERFICI
100
AcDbPolyline
 62
250
  6
CONTINUOUS
 90
4
 70
0
 10
35.5837101741
 20
-27.8189626045
 10
35.634755802
 20
-26.2595862609
 10
35.6787615058
 20
-24.6608336384
 10
35.760831293
 20
-21.3469156115
  0
LWPOLYLINE
  5
3D6
100
AcDbEntity
  8
SUPERFICI
100
AcDbPolyline
 62
250
  6
CONTINUOUS
 90
10
 70
0
 10
30.4507359896
 20
-26.5522107386
 10
30.5492144382
 20
-26.2863050106
 10
30.6402591594
 20
-26.0123809581
 10
30.7235638807
 20
-25.7304393513
 10
30.7987899527
 20
-25.4406082008
 10
30.8655869769
 20
-25.1431354162
 10
30.9236917334
 20
-24.8379647092
 10
30.9728083942
 20
-24.5252582715
 10
31.0126226965
 20
-24.2054083239
 10
31.0428583296
 20
-23.8787684896
  0
LWPOLYLINE
  5
3D7
100
AcDbEntity
  8
SUPERFICI
100
AcDbPolyline
 62
250
  6
CONTINUOUS
 90
10
 70
0
 10
-27.8243897177
 20
35.5828566402
 10
-28.2009726933
 20
35.562244867
 10
-28.5720641547
 20
35.537526334
 10
-28.9375386149
 20
35.507975508
 10
-29.2973858073
 20
35.4729247856
 10
-29.6513835657
 20
35.4317932846
 10
-29.999107168
 20
35.3841090583
 10
-30.3398974193
 20
35.3291874236
 10
-30.6734798425
 20
35.2663227602
 10
-30.9999605717
 20
35.1949136289
  0
LINE
  5
3D8
100
AcDbEntity
  8
SUPERFICI
100
AcDbLine
 62
250
  6
CONTINUOUS
 10
-26.2945622738
 20
35.6313395223
 11
-27.8243897177
 21
35.5828566402
  0
LINE
  5
3D9
100
AcDbEntity
  8
SUPERFICI
100
AcDbLine
 62
250
  6
CONTINUOUS
 10
-23.1104177487
 20
35.7071776223
 11
-26.2945622738
 21
35.6313395223
  0
LWPOLYLINE
  5
3DA
100
AcDbEntity
  8
SUPERFICI
100
AcDbPolyline
 62
250
  6
CONTINUOUS
 90
9
 70
0
 10
-6.4967671817
 20
35.9106256653
 10
-8.5477396121
 20
35.9049897996
 10
-10.5422251219
 20
35.8933041414
 10
-12.4852038136
 20
35.8769952326
 10
-14.3768764483
 20
35.8566135623
 10
-16.2170327272
 20
35.8325675545
 10
-18.0100302575
 20
35.8052439127
 10
-19.7560142319
 20
35.7750101011
 10
-23.1104177487
 20
35.7071776223
  0
LINE
  5
3DB
100
AcDbEntity
  8
0
100
AcDbLine
 62
250
  6
CONTINUOUS
 10
-40.0
 20
36.9999998429
 11
-39.7484790161
 21
37.0
  0
LINE
  5
3DC
100
AcDbEntity
  8
0
100
AcDbLine
 62
250
  6
CONTINUOUS
 10
40.0
 20
36.9999998429
 11
39.7484790161
 21
37.0
  0
LWPOLYLINE
  5
3DD
100
AcDbEntity
  8
SUPERFICI
100
AcDbPolyline
 62
250
  6
CONTINUOUS
 90
9
 70
0
 10
-6.4967671817
 20
35.9106256653
 10
6.4967671814
 20
35.9106256653
 10
8.5477396117
 20
35.9049897996
 10
10.5422251214
 20
35.8933041414
 10
12.4852038131
 20
35.8769952326
 10
14.3768764477
 20
35.8566135623
 10
16.2170327267
 20
35.8325675545
 10
18.010030257
 20
35.8052439128
 10
19.7560142314
 20
35.7750101011
  0
LINE
  5
3DE
100
AcDbEntity
  8
SUPERFICI
100
AcDbLine
 62
250
  6
CONTINUOUS
 10
19.7560142314
 20
35.7750101011
 11
23.1104177484
 21
35.7071776223
  0
LWPOLYLINE
  5
3DF
100
AcDbEntity
  8
SUPERFICI
100
AcDbPolyline
 62
250
  6
CONTINUOUS
 90
3
 70
0
 10
23.1104177484
 20
35.7071776223
 10
26.2945622737
 20
35.6313395223
 10
27.8243897177
 20
35.5828566402
  0
LWPOLYLINE
  5
3E0
100
AcDbEntity
  8
SUPERFICI
100
AcDbPolyline
 62
250
  6
CONTINUOUS
 90
10
 70
0
 10
27.8243897177
 20
35.5828566402
 10
28.2009726932
 20
35.562244867
 10
28.5720641547
 20
35.537526334
 10
28.9375386148
 20
35.507975508
 10
29.2973858072
 20
35.4729247856
 10
29.6513835656
 20
35.4317932846
 10
29.999107168
 20
35.3841090583
 10
30.3398974192
 20
35.3291874236
 10
30.6734798424
 20
35.2663227602
 10
30.9999605717
 20
35.1949136289
  0
LWPOLYLINE
  5
3E1
100
AcDbEntity
  8
SUPERFICI
100
AcDbPolyline
 62
250
  6
CONTINUOUS
 90
10
 70
0
 10
30.4507359896
 20
26.5522107386
 10
30.5492144382
 20
26.2863050106
 10
30.6402591594
 20
26.0123809581
 10
30.7235638807
 20
25.7304393513
 10
30.7987899527
 20
25.4406082008
 10
30.8655869769
 20
25.1431354162
 10
30.9236917334
 20
24.8379647092
 10
30.9728083942
 20
24.5252582715
 10
31.0126226965
 20
24.2054083239
 10
31.0428583296
 20
23.8787684896
  0
LWPOLYLINE
  5
3E2
100
AcDbEntity
  8
SUPERFICI
100
AcDbPolyline
 62
250
  6
CONTINUOUS
 90
6
 70
0
 10
39.0843070634
 20
36.9818567176
 10
39.0839811664
 20
37.0153933019
 10
39.0833555509
 20
37.0487441916
 10
39.0823556145
 20
37.0818958465
 10
39.0809088247
 20
37.1148428637
 10
39.078944917
 20
37.1475761919
  0
LINE
  5
3E3
100
AcDbEntity
  8
SUPERFICI
100
AcDbLine
 62
250
  6
CONTINUOUS
 10
39.08447843
 20
-36.948064542
 11
39.0841078051
 21
-36.7816775829
  0
LINE
  5
3E4
100
AcDbEntity
  8
SUPERFICI
100
AcDbLine
 62
250
  6
CONTINUOUS
 10
39.7484790161
 20
-37.0
 11
39.7484790161
 21
37.0
  0
LINE
  5
3E5
100
AcDbEntity
  8
RACCORDO
100
AcDbLine
 62
7
  6
CONTINUOUS
 10
39.8674790937
 20
3.2251006478
 11
39.8674790937
 21
-3.2251006478
  0
LINE
  5
3E6
100
AcDbEntity
  8
RACCORDO
100
AcDbLine
 62
7
  6
CONTINUOUS
 10
40.0
 20
36.9999998429
 11
40.0
 21
3.9848721447
  0
LINE
  5
3E7
100
AcDbEntity
  8
RACCORDO
100
AcDbLine
 62
7
  6
CONTINUOUS
 10
40.0
 20
-3.9848721447
 11
40.0
 21
-36.9999998428
  0
LINE
  5
3E8
100
AcDbEntity
  8
SUPERFICI
100
AcDbLine
 62
250
  6
CONTINUOUS
 10
39.0841078051
 20
-36.7816775829
 11
39.0842057688
 21
-36.6198262861
  0
LWPOLYLINE
  5
3E9
100
AcDbEntity
  8
SUPERFICI
100
AcDbPolyline
 62
250
  6
CONTINUOUS
 90
4
 70
0
 10
39.0842057688
 20
-36.6198262861
 10
39.0842683351
 20
36.8803119725
 10
39.0843701535
 20
36.914305718
 10
39.0843070634
 20
36.9818567176
  0
LWPOLYLINE
  5
3EA
100
AcDbEntity
  8
SUPERFICI
100
AcDbPolyline
 62
250
  6
CONTINUOUS
 90
7
 70
0
 10
39.0789198005
 20
-37.1475743012
 10
39.0808620388
 20
-37.1148009532
 10
39.0823208051
 20
-37.0818267505
 10
39.0833518064
 20
-37.0486590761
 10
39.0840128622
 20
-37.0152944078
 10
39.0843645923
 20
-36.9817509668
 10
39.08447843
 20
-36.948064542
  0
LWPOLYLINE
  5
3EB
100
AcDbEntity
  8
SUPERFICI
100
AcDbPolyline
 62
250
  6
CONTINUOUS
 90
10
 70
0
 10
35.1952253949
 20
-30.9983204474
 10
35.2665070658
 20
-30.6715603714
 10
35.329310617
 20
-30.3374848553
 10
35.3841948057
 20
-29.9961736989
 10
35.4317039817
 20
-29.6480937936
 10
35.4725532064
 20
-29.2936734082
 10
35.5076489893
 20
-28.9333501772
 10
35.5377411716
 20
-28.5674427177
 10
35.5630452793
 20
-28.1959777098
 10
35.5837101741
 20
-27.8189626045
  0
LWPOLYLINE
  5
3EC
100
AcDbEntity
  8
SUPERFICI
100
AcDbPolyline
 62
250
  6
CONTINUOUS
 90
10
 70
0
 10
29.8401316492
 20
-27.7802643023
 10
29.916125853
 20
-27.6551523132
 10
29.9902043505
 20
-27.5272160763
 10
30.06233567
 20
-27.3964035471
 10
30.1324128088
 20
-27.2627850001
 10
30.2003741324
 20
-27.1263836293
 10
30.2662359901
 20
-26.9870851961
 10
30.3299746546
 20
-26.8448746349
 10
30.3914959446
 20
-26.6998896584
 10
30.4507359896
 20
-26.5522107386
  0
LINE
  5
3ED
100
AcDbEntity
  8
SUPERFICI
100
AcDbLine
 62
250
  6
CONTINUOUS
 10
29.81302632
 20
-27.8234890747
 11
29.8401316492
 21
-27.7802643023
  0
LINE
  5
3EE
100
AcDbEntity
  8
SUPERFICI
100
AcDbLine
 62
250
  6
CONTINUOUS
 10
29.7857125914
 20
-27.8663368459
 11
29.81302632
 21
-27.8234890747
  0
LINE
  5
3EF
100
AcDbEntity
  8
SUPERFICI
100
AcDbLine
 62
250
  6
CONTINUOUS
 10
29.7581783858
 20
-27.9088299887
 11
29.7857125914
 21
-27.8663368459
  0
LWPOLYLINE
  5
3F0
100
AcDbEntity
  8
SUPERFICI
100
AcDbPolyline
 62
250
  6
CONTINUOUS
 90
3
 70
0
 10
29.716425002
 20
-27.9719715713
 10
29.7304043302
 20
-27.9510016782
 10
29.7581783858
 20
-27.9088299887
  0
LWPOLYLINE
  5
3F1
100
AcDbEntity
  8
SUPERFICI
100
AcDbPolyline
 62
250
  6
CONTINUOUS
 90
10
 70
0
 10
27.9537134761
 20
-29.7297993469
 10
28.1863974235
 20
-29.5677797644
 10
28.410326226
 20
-29.3970199364
 10
28.6242223429
 20
-29.2185471423
 10
28.8261390628
 20
-29.0343683974
 10
29.0175210516
 20
-28.8436296291
 10
29.2023459541
 20
-28.6422351638
 10
29.3814266896
 20
-28.4288620174
 10
29.5528738226
 20
-28.2053905894
 10
29.716425002
 20
-27.9719715713
  0
LWPOLYLINE
  5
3F2
100
AcDbEntity
  8
SUPERFICI
100
AcDbPolyline
 62
250
  6
CONTINUOUS
 90
10
 70
0
 10
26.7549907543
 20
-30.369619874
 10
26.8999405878
 20
-30.3068398408
 10
27.0420054819
 20
-30.2418325331
 10
27.1811529355
 20
-30.1746625052
 10
27.3173387062
 20
-30.1054029433
 10
27.450582669
 20
-30.0340964914
 10
27.5808865261
 20
-29.9607992015
 10
27.7081832158
 20
-29.8856058912
 10
27.8324367128
 20
-29.8085981048
 10
27.9537134761
 20
-29.7297993469
  0
LWPOLYLINE
  5
3F3
100
AcDbEntity
  8
SUPERFICI
100
AcDbPolyline
 62
250
  6
CONTINUOUS
 90
10
 70
0
 10
-30.9999605717
 20
35.1949136289
 10
-31.1806738421
 20
35.1507587445
 10
-31.3583823278
 20
35.1038607706
 10
-31.5330348529
 20
35.0542089935
 10
-31.704587157
 20
35.0017959201
 10
-31.8729388747
 20
34.9466318638
 10
-32.0381095605
 20
34.8887463828
 10
-32.2001164755
 20
34.8281279906
 10
-32.3587488131
 20
34.7646913668
 10
-32.5136085933
 20
34.6983583088
  0
LINE
  5
3F4
100
AcDbEntity
  8
SUPERFICI
100
AcDbLine
 62
250
  6
CONTINUOUS
 10
36.9999998429
 20
39.7484790161
 11
-36.9999998429
 21
39.7484790161
  0
LINE
  5
3F5
100
AcDbEntity
  8
0
100
AcDbLine
 62
7
  6
CONTINUOUS
 10
-36.9999998429
 20
40.0
 11
36.9999998429
 21
40.0
  0
LINE
  5
3F6
100
AcDbEntity
  8
SUPERFICI
100
AcDbLine
 62
250
  6
CONTINUOUS
 10
-36.8461856633
 20
39.0842599932
 11
36.8461858345
 21
39.0842600296
  0
LWPOLYLINE
  5
3F7
100
AcDbEntity
  8
SUPERFICI
100
AcDbPolyline
 62
250
  6
CONTINUOUS
 90
10
 70
0
 10
30.9999605717
 20
35.1949136289
 10
31.1806731178
 20
35.1507589286
 10
31.3583810735
 20
35.1038611145
 10
31.5330332602
 20
35.054209463
 10
31.7045854257
 20
35.0017964677
 10
31.8729371947
 20
34.9466324346
 10
32.0381080768
 20
34.8887469174
 10
32.2001153578
 20
34.8281284338
 10
32.3587480802
 20
34.7646916039
 10
32.5136086677
 20
34.6983583302
  0
LWPOLYLINE
  5
3F8
100
AcDbEntity
  8
SUPERFICI
100
AcDbPolyline
 62
250
  6
CONTINUOUS
 90
10
 70
0
 10
26.7549907543
 20
30.369619874
 10
26.8999405878
 20
30.3068398408
 10
27.0420054819
 20
30.2418325331
 10
27.1811529355
 20
30.1746625052
 10
27.3173387062
 20
30.1054029433
 10
27.450582669
 20
30.0340964914
 10
27.5808865261
 20
29.9607992015
 10
27.7081832158
 20
29.8856058912
 10
27.8324367128
 20
29.8085981048
 10
27.9537134761
 20
29.7297993469
  0
LWPOLYLINE
  5
3F9
100
AcDbEntity
  8
SUPERFICI
100
AcDbPolyline
 62
250
  6
CONTINUOUS
 90
10
 70
0
 10
27.9537134761
 20
29.7297993469
 10
28.1863974235
 20
29.5677797644
 10
28.410326226
 20
29.3970199364
 10
28.6242223429
 20
29.2185471423
 10
28.8261390628
 20
29.0343683974
 10
29.0175210516
 20
28.8436296291
 10
29.2023459541
 20
28.6422351638
 10
29.3814266896
 20
28.4288620174
 10
29.5528738226
 20
28.2053905894
 10
29.716425002
 20
27.9719715713
  0
LWPOLYLINE
  5
3FA
100
AcDbEntity
  8
0
100
AcDbPolyline
 62
7
  6
CONTINUOUS
 90
13
 70
0
 43
0.3500000006
 10
-1.9285714102
 20
51.3443867798
 10
-2.2142856617
 20
51.5586712646
 10
-2.2142856617
 20
52.2015292511
 10
-1.9285714102
 20
52.6300982208
 10
-1.2857142735
 20
52.6300982208
 10
-1.0000000219
 20
52.2015292511
 10
-1.0000000219
 20
51.5586712646
 10
-1.2857142735
 20
51.3443867798
 10
-0.8571428254
 20
50.9158132782
 10
-0.8571428254
 20
50.0586708069
 10
-1.2857142735
 20
49.6300973053
 10
-1.9285714102
 20
49.6300973053
 10
-2.3571427875
 20
50.0586708069
  0
LINE
  5
3FB
100
AcDbEntity
  8
SUPERFICI
100
AcDbLine
 62
250
  6
CONTINUOUS
 10
29.716425002
 20
27.9719715713
 11
29.7443217337
 21
27.9299552171
  0
LINE
  5
3FC
100
AcDbEntity
  8
SUPERFICI
100
AcDbLine
 62
250
  6
CONTINUOUS
 10
29.7443217337
 20
27.9299552171
 11
29.7719746617
 21
27.8876250294
  0
LINE
  5
3FD
100
AcDbEntity
  8
SUPERFICI
100
AcDbLine
 62
250
  6
CONTINUOUS
 10
29.7719746617
 20
27.8876250294
 11
29.7993958118
 21
27.8449593869
  0
LWPOLYLINE
  5
3FE
100
AcDbEntity
  8
SUPERFICI
100
AcDbPolyline
 62
250
  6
CONTINUOUS
 90
3
 70
0
 10
29.7993958118
 20
27.8449593869
 10
29.8266045214
 20
27.8019248332
 10
29.8401316492
 20
27.7802643023
  0
LWPOLYLINE
  5
3FF
100
AcDbEntity
  8
SUPERFICI
100
AcDbPolyline
 62
250
  6
CONTINUOUS
 90
10
 70
0
 10
29.8401316492
 20
27.7802643023
 10
29.916125853
 20
27.6551523132
 10
29.9902043505
 20
27.5272160763
 10
30.06233567
 20
27.3964035471
 10
30.1324128088
 20
27.2627850001
 10
30.2003741324
 20
27.1263836293
 10
30.2662359901
 20
26.9870851961
 10
30.3299746546
 20
26.8448746349
 10
30.3914959446
 20
26.6998896584
 10
30.4507359896
 20
26.5522107386
  0
LWPOLYLINE
  5
400
100
AcDbEntity
  8
SUPERFICI
100
AcDbPolyline
 62
250
  6
CONTINUOUS
 90
10
 70
0
 10
35.1952253949
 20
30.9983204474
 10
35.2665070659
 20
30.6715603714
 10
35.329310617
 20
30.3374848553
 10
35.3841948058
 20
29.9961736989
 10
35.4317039817
 20
29.6480937936
 10
35.4725532064
 20
29.2936734082
 10
35.5076489893
 20
28.9333501772
 10
35.5377411716
 20
28.5674427177
 10
35.5630452793
 20
28.1959777098
 10
35.5837101741
 20
27.8189626045
  0
LWPOLYLINE
  5
401
100
AcDbEntity
  8
SUPERFICI
100
AcDbPolyline
 62
250
  6
CONTINUOUS
 90
16
 70
0
 10
39.0789449279
 20
-37.1475760374
 10
39.0532305589
 20
-37.3583876374
 10
39.005638487
 20
-37.5667360031
 10
38.9367837968
 20
-37.7699557794
 10
38.8467581763
 20
-37.966153535
 10
38.735855155
 20
-38.1534350012
 10
38.6058492704
 20
-38.3284935646
 10
38.4586441014
 20
-38.4887062599
 10
38.2955056238
 20
-38.632578834
 10
38.1182649385
 20
-38.7587553725
 10
37.9294674448
 20
-38.8655274655
 10
37.7303433023
 20
-38.9520662955
 10
37.5204106125
 20
-39.0181438191
 10
37.3013870095
 20
-39.0624279241
 10
37.0758922788
 20
-39.0826298647
 10
36.8461853515
 20
-39.0842599925
  0
LWPOLYLINE
  5
402
100
AcDbEntity
  8
SUPERFICI
100
AcDbPolyline
 62
250
  6
CONTINUOUS
 90
10
 70
0
 10
34.6972374882
 20
-32.5149489992
 10
34.7639296161
 20
-32.3599091649
 10
34.8276727653
 20
-32.2010800607
 10
34.8885403086
 20
-32.0388150726
 10
34.9466206102
 20
-31.8733292395
 10
35.0019231628
 20
-31.7046154848
 10
35.0544268577
 20
-31.5326979403
 10
35.1041301093
 20
-31.3576584503
 10
35.1510547378
 20
-31.1795193886
 10
35.1952253949
 20
-30.9983204474
  0
LWPOLYLINE
  5
403
100
AcDbEntity
  8
SUPERFICI
100
AcDbPolyline
 62
250
  6
CONTINUOUS
 90
10
 70
0
 10
34.5835975041
 20
-32.7555229602
 10
34.5966352017
 20
-32.7293241509
 10
34.6095674347
 20
-32.7029927755
 10
34.622395554
 20
-32.6765281453
 10
34.6351217469
 20
-32.6499278815
 10
34.6477466172
 20
-32.6231929645
 10
34.6602692695
 20
-32.5963277758
 10
34.6726904954
 20
-32.5693333458
 10
34.6850126896
 20
-32.5422073122
 10
34.6972374882
 20
-32.5149489992
  0
LWPOLYLINE
  5
404
100
AcDbEntity
  8
SUPERFICI
100
AcDbPolyline
 62
250
  6
CONTINUOUS
 90
10
 70
0
 10
32.5136085933
 20
-34.6983583088
 10
32.8286791623
 20
-34.5472986527
 10
33.1241626814
 20
-34.381015116
 10
33.397208507
 20
-34.1994133834
 10
33.6432987771
 20
-34.0050719777
 10
33.8643323069
 20
-33.7968472405
 10
34.0682404248
 20
-33.5667370888
 10
34.2571181946
 20
-33.313433566
 10
34.4283611654
 20
-33.0426823873
 10
34.5835975041
 20
-32.7555229602
  0
LWPOLYLINE
  5
405
100
AcDbEntity
  8
SUPERFICI
100
AcDbPolyline
 62
250
  6
CONTINUOUS
 90
10
 70
0
 10
32.5136085933
 20
34.6983583088
 10
32.8286791622
 20
34.5472986527
 10
33.1241626813
 20
34.3810151161
 10
33.3972085069
 20
34.1994133835
 10
33.643298777
 20
34.0050719779
 10
33.8643323068
 20
33.7968472407
 10
34.0682404247
 20
33.5667370889
 10
34.2571181946
 20
33.3134335661
 10
34.4283611653
 20
33.0426823874
 10
34.5835975041
 20
32.7555229602
  0
LWPOLYLINE
  5
406
100
AcDbEntity
  8
SUPERFICI
100
AcDbPolyline
 62
250
  6
CONTINUOUS
 90
10
 70
0
 10
34.5835975041
 20
32.7555229602
 10
34.5966352016
 20
32.7293241509
 10
34.6095674347
 20
32.7029927755
 10
34.6223955539
 20
32.6765281453
 10
34.6351217469
 20
32.6499278815
 10
34.6477466172
 20
32.6231929645
 10
34.6602692695
 20
32.5963277758
 10
34.6726904954
 20
32.5693333458
 10
34.6850126896
 20
32.5422073122
 10
34.6972374882
 20
32.5149489992
  0
LWPOLYLINE
  5
407
100
AcDbEntity
  8
SUPERFICI
100
AcDbPolyline
 62
250
  6
CONTINUOUS
 90
10
 70
0
 10
34.6972374882
 20
32.5149489992
 10
34.7639296161
 20
32.3599091649
 10
34.8276727653
 20
32.2010800607
 10
34.8885403086
 20
32.0388150726
 10
34.9466206102
 20
31.8733292394
 10
35.0019231628
 20
31.7046154848
 10
35.0544268577
 20
31.5326979403
 10
35.1041301093
 20
31.3576584502
 10
35.1510547378
 20
31.1795193886
 10
35.1952253949
 20
30.9983204474
  0
LWPOLYLINE
  5
408
100
AcDbEntity
  8
SUPERFICI
100
AcDbPolyline
 62
250
  6
CONTINUOUS
 90
16
 70
0
 10
39.0789449383
 20
37.1475758827
 10
39.0532305782
 20
37.3583874954
 10
39.0056385148
 20
37.5667358735
 10
38.9367838328
 20
37.769955662
 10
38.8467582202
 20
37.9661534296
 10
38.7358552064
 20
38.1534349075
 10
38.6058493296
 20
38.3284934817
 10
38.4586441688
 20
38.4887061868
 10
38.2955056999
 20
38.63257877
 10
38.1182650241
 20
38.7587553173
 10
37.929467541
 20
38.8655274186
 10
37.7303434101
 20
38.952066257
 10
37.5204107322
 20
39.0181437895
 10
37.3013871411
 20
39.062427904
 10
37.0758924225
 20
39.0826298547
 10
36.8461855074
 20
39.0842599932
  0
LWPOLYLINE
  5
409
100
AcDbEntity
  8
SUPERFICI
100
AcDbPolyline
 62
7
  6
CONTINUOUS
 90
3
 70
0
 10
-59.0019340064
 20
39.7096051078
 10
-59.0305357937
 20
39.7010646421
 10
-59.0587026959
 20
39.6917671219
  0
LINE
  5
40A
100
AcDbEntity
  8
0
100
AcDbLine
 62
7
  6
CONTINUOUS
 10
-58.7664720193
 20
-39.7484790161
 11
-54.2113389593
 21
-40.0
  0
LINE
  5
40B
100
AcDbEntity
  8
RACCORDO
100
AcDbLine
 62
7
  6
CONTINUOUS
 10
-54.2113389593
 20
-38.4977104845
 11
-54.0113389593
 21
-38.5087709117
  0
LWPOLYLINE
  5
40C
100
AcDbEntity
  8
SUPERFICI
100
AcDbPolyline
 62
7
  6
CONTINUOUS
 90
8
 70
0
 10
-58.7664720193
 20
-39.7484790161
 10
-58.8645253125
 20
-39.7386986971
 10
-58.9612564387
 20
-39.7200861926
 10
-59.0559357663
 20
-39.6924879355
 10
-59.1479364357
 20
-39.6557701101
 10
-59.2361865535
 20
-39.6100360593
 10
-59.3192916082
 20
-39.5557801476
 10
-59.3962408965
 20
-39.4935067183
  0
LWPOLYLINE
  5
40D
100
AcDbEntity
  8
0
100
AcDbPolyline
 62
7
  6
CONTINUOUS
 90
10
 70
0
 43
0.3500000006
 10
-61.3949611816
 20
49.6300973053
 10
-60.5378187103
 20
50.4872397766
 10
-60.3235342255
 20
51.3443867798
 10
-60.3235342255
 20
52.2015292511
 10
-60.7521031952
 20
52.6300982208
 10
-61.3949611816
 20
52.6300982208
 10
-61.8235346832
 20
52.2015292511
 10
-61.8235346832
 20
51.3443867798
 10
-61.3949611816
 20
50.9158132782
 10
-60.4663920593
 20
50.9158132782
  0
LWPOLYLINE
  5
40E
100
AcDbEntity
  8
SUPERFICI
100
AcDbPolyline
 62
7
  6
CONTINUOUS
 90
4
 70
0
 10
-59.1658976535
 20
39.6477272041
 10
-59.1909776504
 20
39.6352763773
 10
-59.2153492553
 20
39.6223233691
 10
-59.2390497173
 20
39.6088791928
  0
LINE
  5
40F
100
AcDbEntity
  8
SUPERFICI
100
AcDbLine
 62
7
  6
CONTINUOUS
 10
-59.1400481889
 20
39.6596729362
 11
-59.1659059613
 21
39.6477262361
  0
LINE
  5
410
100
AcDbEntity
  8
SUPERFICI
100
AcDbLine
 62
7
  6
CONTINUOUS
 10
-59.1134618375
 20
39.6710513339
 11
-59.1400384409
 21
39.6596742303
  0
LINE
  5
411
100
AcDbEntity
  8
SUPERFICI
100
AcDbLine
 62
7
  6
CONTINUOUS
 10
-59.0587152109
 20
39.6917658651
 11
-59.0863498996
 21
39.6817579046
  0
LWPOLYLINE
  5
412
100
AcDbEntity
  8
SUPERFICI
100
AcDbPolyline
 62
250
  6
CONTINUOUS
 90
4
 70
0
 10
-59.1459842811
 20
39.6303325227
 10
-59.0229520987
 20
39.6734798376
 10
-58.8958188593
 20
39.7019160386
 10
-58.7664734004
 20
39.716002577
  0
LINE
  5
413
100
AcDbEntity
  8
0
100
AcDbLine
 62
250
  6
CONTINUOUS
 10
-54.2113389593
 20
-36.9999998428
 11
-58.7664720193
 21
-37.0
  0
LINE
  5
414
100
AcDbEntity
  8
RACCORDO
100
AcDbLine
 62
250
  6
CONTINUOUS
 10
-54.0113389593
 20
-36.8084910489
 11
-54.2113389593
 21
-36.8084910378
  0
LWPOLYLINE
  5
415
100
AcDbEntity
  8
SUPERFICI
100
AcDbPolyline
 62
250
  6
CONTINUOUS
 90
10
 70
0
 10
-58.7664720193
 20
-36.8314569315
 10
-58.8970096982
 20
-36.8247118442
 10
-59.024609356
 20
-36.8040607268
 10
-59.1474918885
 20
-36.7689809081
 10
-59.2638041162
 20
-36.7190181151
 10
-59.3710961482
 20
-36.6540077756
 10
-59.4664899748
 20
-36.5742709876
 10
-59.5472898163
 20
-36.4802551184
 10
-59.61078105
 20
-36.3723701824
 10
-59.6538408137
 20
-36.2513323977
  0
LWPOLYLINE
  5
416
100
AcDbEntity
  8
SUPERFICI
100
AcDbPolyline
 62
250
  6
CONTINUOUS
 90
10
 70
0
 10
-58.7664723727
 20
-37.1319687685
 10
-58.8975082177
 20
-37.1248463955
 10
-59.0255505701
 20
-37.10381055
 10
-59.1487965783
 20
-37.0684122108
 10
-59.2653764193
 20
-37.0182685947
 10
-59.3727957869
 20
-36.9532985802
 10
-59.4681181048
 20
-36.8739271638
 10
-59.5486193947
 20
-36.7806990865
 10
-59.6115741016
 20
-36.6741053867
 10
-59.6538408137
 20
-36.5549469784
  0
LWPOLYLINE
  5
417
100
AcDbEntity
  8
SUPERFICI
100
AcDbPolyline
 62
250
  6
CONTINUOUS
 90
4
 70
0
 10
-59.1459842862
 20
-39.630332557
 10
-59.0229521022
 20
-39.6734798784
 10
-58.8958188611
 20
-39.7019160837
 10
-58.7664734004
 20
-39.7160026235
  0
LWPOLYLINE
  5
418
100
AcDbEntity
  8
SUPERFICI
100
AcDbPolyline
 62
7
  6
CONTINUOUS
 90
12
 70
0
 10
-59.0863465153
 20
-39.6817591373
 10
-59.0587120006
 20
-39.6917669335
 10
-59.0305449564
 20
-39.7010647904
 10
-59.0019426788
 20
-39.7096056694
 10
-58.972940328
 20
-39.7173691471
 10
-58.9435269502
 20
-39.7243480528
 10
-58.9137360527
 20
-39.7305241002
 10
-58.8835684176
 20
-39.7358871336
 10
-58.853047355
 20
-39.7404229232
 10
-58.822243241
 20
-39.744113875
 10
-58.7911566513
 20
-39.7469547169
 10
-58.7664720798
 20
-39.7485897653
  0
LWPOLYLINE
  5
419
100
AcDbEntity
  8
SUPERFICI
100
AcDbPolyline
 62
7
  6
CONTINUOUS
 90
5
 70
0
 10
-59.2620838123
 20
39.5949693292
 10
-59.2844499112
 20
39.5806224158
 10
-59.3061721388
 20
39.5658490236
 10
-59.3272534435
 20
39.5506713033
 10
-59.3476921087
 20
39.5351142422
  0
LINE
  5
41A
100
AcDbEntity
  8
SUPERFICI
100
AcDbLine
 62
7
  6
CONTINUOUS
 10
-59.2390546044
 20
39.608879191
 11
-59.262087605
 21
39.5949697571
  0
LINE
  5
41B
100
AcDbEntity
  8
RACCORDO
100
AcDbLine
 62
250
  6
CONTINUOUS
 10
-54.0113389593
 20
-33.5438409051
 11
-54.2113389593
 21
-33.5457713829
  0
LINE
  5
41C
100
AcDbEntity
  8
RACCORDO
100
AcDbLine
 62
250
  6
CONTINUOUS
 10
-54.0113389593
 20
-34.1095897456
 11
-54.2113389593
 21
-34.11079327
  0
LWPOLYLINE
  5
41D
100
AcDbEntity
  8
SUPERFICI
100
AcDbPolyline
 62
250
  6
CONTINUOUS
 90
4
 70
0
 10
-59.4674326497
 20
39.4128323697
 10
-59.3713350811
 20
39.4993089867
 10
-59.2630468329
 20
39.5721885439
 10
-59.1459842811
 20
39.6303325227
  0
LWPOLYLINE
  5
41E
100
AcDbEntity
  8
SUPERFICI
100
AcDbPolyline
 62
7
  6
CONTINUOUS
 90
3
 70
0
 10
-59.3675028576
 20
39.519189254
 10
-59.3866873537
 20
39.502916238
 10
-59.4052439411
 20
39.4863174909
  0
LINE
  5
41F
100
AcDbEntity
  8
SUPERFICI
100
AcDbLine
 62
7
  6
CONTINUOUS
 10
-59.3092952763
 20
-39.5470652564
 11
-59.28730671
 21
-39.5631793649
  0
LWPOLYLINE
  5
420
100
AcDbEntity
  8
SUPERFICI
100
AcDbPolyline
 62
7
  6
CONTINUOUS
 90
11
 70
0
 10
-59.3476871094
 20
-39.5351204724
 10
-59.3272493931
 20
-39.5506767263
 10
-59.306169119
 20
-39.5658536603
 10
-59.2844480009
 20
-39.5806262935
 10
-59.2620830949
 20
-39.5949724763
 10
-59.239050238
 20
-39.6088816647
 10
-59.2153510374
 20
-39.622325234
 10
-59.1909807342
 20
-39.6352776936
 10
-59.1659020981
 20
-39.6477280224
 10
-59.1400444858
 20
-39.6596745251
 10
-59.113469547
 20
-39.6710511733
  0
LWPOLYLINE
  5
421
100
AcDbEntity
  8
SUPERFICI
100
AcDbPolyline
 62
250
  6
CONTINUOUS
 90
4
 70
0
 10
-59.4674326573
 20
-39.4128323758
 10
-59.3713350894
 20
-39.4993090021
 10
-59.2630468398
 20
-39.5721885695
 10
-59.1459842862
 20
-39.630332557
  0
LWPOLYLINE
  5
422
100
AcDbEntity
  8
SUPERFICI
100
AcDbPolyline
 62
7
  6
CONTINUOUS
 90
3
 70
0
 10
-59.4404979334
 20
39.45220217
 10
-59.4571974109
 20
39.4347193482
 10
-59.4732736726
 20
39.4169837208
  0
LWPOLYLINE
  5
423
100
AcDbEntity
  8
SUPERFICI
100
AcDbPolyline
 62
7
  6
CONTINUOUS
 90
6
 70
0
 10
-59.3962408775
 20
39.4935067354
 10
-59.4661924724
 20
39.4236595135
 10
-59.5280473553
 20
39.3469575407
 10
-59.5807090787
 20
39.2642044894
 10
-59.6230490714
 20
39.1762747481
 10
-59.6321461187
 20
39.1490726506
  0
LINE
  5
424
100
AcDbEntity
  8
SUPERFICI
100
AcDbLine
 62
7
  6
CONTINUOUS
 10
-59.4052416874
 20
39.4863216628
 11
-59.4231780226
 21
39.469410467
  0
LINE
  5
425
100
AcDbEntity
  8
RACCORDO
100
AcDbLine
 62
250
  6
CONTINUOUS
 10
-54.2113389593
 20
-28.8892068288
 11
-54.0113389593
 21
-28.8904102545
  0
LINE
  5
426
100
AcDbEntity
  8
RACCORDO
100
AcDbLine
 62
250
  6
CONTINUOUS
 10
-54.2113389593
 20
-29.4542287325
 11
-54.0113389593
 21
-29.4561590897
  0
LWPOLYLINE
  5
427
100
AcDbEntity
  8
SUPERFICI
100
AcDbPolyline
 62
7
  6
CONTINUOUS
 90
4
 70
0
 10
-59.4231732498
 20
-39.4694149575
 10
-59.4052368337
 20
-39.486325995
 10
-59.386680831
 20
-39.5029240149
 10
-59.3674970332
 20
-39.5191962732
  0
LWPOLYLINE
  5
428
100
AcDbEntity
  8
SUPERFICI
100
AcDbPolyline
 62
7
  6
CONTINUOUS
 90
6
 70
0
 10
-59.3962408965
 20
-39.4935067183
 10
-59.466192487
 20
-39.4236594972
 10
-59.5280473656
 20
-39.3469575265
 10
-59.5807090847
 20
-39.2642044786
 10
-59.6230490739
 20
-39.176274742
 10
-59.6321481239
 20
-39.1490666556
  0
LWPOLYLINE
  5
429
100
AcDbEntity
  8
SUPERFICI
100
AcDbPolyline
 62
7
  6
CONTINUOUS
 90
4
 70
0
 10
-59.5246451213
 20
39.3295600516
 10
-59.5250627315
 20
39.3290178788
 10
-59.5750866704
 20
39.2538380771
 10
-59.6261339353
 20
39.1557240159
  0
LWPOLYLINE
  5
42A
100
AcDbEntity
  8
SUPERFICI
100
AcDbPolyline
 62
7
  6
CONTINUOUS
 90
13
 70
0
 10
-59.4732736726
 20
39.4169837208
 10
-59.4887360621
 20
39.3990029049
 10
-59.5035751123
 20
39.3808055463
 10
-59.5177636691
 20
39.3624460218
 10
-59.5314083609
 20
39.3437987536
 10
-59.5444013087
 20
39.3250231456
 10
-59.5564398866
 20
39.3066197802
 10
-59.5675409389
 20
39.288670661
 10
-59.5777815979
 20
39.2711588767
 10
-59.5870199634
 20
39.2544593245
 10
-59.5955179846
 20
39.2382291693
 10
-59.6031333303
 20
39.2228703776
 10
-59.6092458085
 20
39.2099043363
  0
LINE
  5
42B
100
AcDbEntity
  8
SUPERFICI
100
AcDbLine
 62
250
  6
CONTINUOUS
 10
-62.4179859915
 20
22.49556714
 11
-62.991290411
 21
22.2017569107
  0
LINE
  5
42C
100
AcDbEntity
  8
SUPERFICI
100
AcDbLine
 62
250
  6
CONTINUOUS
 10
-62.9914286167
 20
-22.2017569079
 11
-63.2069980909
 21
-22.1997392341
  0
LINE
  5
42D
100
AcDbEntity
  8
SUPERFICI
100
AcDbLine
 62
250
  6
CONTINUOUS
 10
-62.4179859915
 20
-22.49556714
 11
-62.991290411
 21
-22.2017569107
  0
LWPOLYLINE
  5
42E
100
AcDbEntity
  8
SUPERFICI
100
AcDbPolyline
 62
7
  6
CONTINUOUS
 90
5
 70
0
 10
-59.5410702658
 20
-39.3065524566
 10
-59.5392447734
 20
-39.3091816053
 10
-59.5339592435
 20
-39.3166940723
 10
-59.5257849726
 20
-39.3280318841
 10
-59.5251645288
 20
-39.3288648543
  0
LINE
  5
42F
100
AcDbEntity
  8
SUPERFICI
100
AcDbLine
 62
7
  6
CONTINUOUS
 10
-59.5750865029
 20
-39.2538383561
 11
-59.5250624752
 21
-39.3290182282
  0
LWPOLYLINE
  5
430
100
AcDbEntity
  8
SUPERFICI
100
AcDbPolyline
 62
250
  6
CONTINUOUS
 90
3
 70
0
 10
-59.6116754285
 20
39.2039360129
 10
-59.548452838
 20
39.3140118462
 10
-59.4674326497
 20
39.4128323697
  0
LWPOLYLINE
  5
431
100
AcDbEntity
  8
SUPERFICI
100
AcDbPolyline
 62
7
  6
CONTINUOUS
 90
11
 70
0
 10
-59.5777800401
 20
-39.2711615206
 10
-59.5675388757
 20
-39.2886739853
 10
-59.5564373419
 20
-39.3066236659
 10
-59.5443983919
 20
-39.3250273583
 10
-59.5314051188
 20
-39.34380318
 10
-59.5177601242
 20
-39.3624506018
 10
-59.5035712813
 20
-39.3808102365
 10
-59.4887319756
 20
-39.3990076484
 10
-59.4732693608
 20
-39.4169884684
 10
-59.4571929089
 20
-39.4347240519
 10
-59.4404932791
 20
-39.4522067847
  0
LWPOLYLINE
  5
432
100
AcDbEntity
  8
SUPERFICI
100
AcDbPolyline
 62
250
  6
CONTINUOUS
 90
3
 70
0
 10
-59.6116754306
 20
-39.2039360102
 10
-59.548452843
 20
-39.314011846
 10
-59.4674326573
 20
-39.4128323758
  0
LINE
  5
433
100
AcDbEntity
  8
SUPERFICI
100
AcDbLine
 62
7
  6
CONTINUOUS
 10
-59.5870187591
 20
-39.2544614781
 11
-59.5777800401
 21
-39.2711615206
  0
LWPOLYLINE
  5
434
100
AcDbEntity
  8
SUPERFICI
100
AcDbPolyline
 62
7
  6
CONTINUOUS
 90
5
 70
0
 10
-59.6092469848
 20
39.2099014936
 10
-59.6135881087
 20
39.2003036182
 10
-59.6167151611
 20
39.1931696636
 10
-59.619262905
 20
39.1872113145
 10
-59.6211957798
 20
39.1825996408
  0
LWPOLYLINE
  5
435
100
AcDbEntity
  8
SUPERFICI
100
AcDbPolyline
 62
7
  6
CONTINUOUS
 90
3
 70
0
 10
-62.7931906882
 20
24.4645722492
 10
-62.891945119
 20
24.3048422292
 10
-62.9057102609
 20
24.2807987674
  0
LINE
  5
436
100
AcDbEntity
  8
SUPERFICI
100
AcDbLine
 62
7
  6
CONTINUOUS
 10
-63.0808369333
 20
24.0302850326
 11
-63.0009772466
 21
24.1519005589
  0
LINE
  5
437
100
AcDbEntity
  8
SUPERFICI
100
AcDbLine
 62
7
  6
CONTINUOUS
 10
-62.891945119
 20
24.3048422292
 11
-63.001115382
 21
24.1520063295
  0
LINE
  5
438
100
AcDbEntity
  8
SUPERFICI
100
AcDbLine
 62
7
  6
CONTINUOUS
 10
-62.9057102609
 20
24.2807987674
 11
-63.001115382
 21
24.1520063295
  0
LWPOLYLINE
  5
439
100
AcDbEntity
  8
SUPERFICI
100
AcDbPolyline
 62
7
  6
CONTINUOUS
 90
6
 70
0
 10
-63.0012516265
 20
-24.1521107976
 10
-63.0816141618
 20
-24.0297955159
 10
-63.1430420382
 20
-23.8973699643
 10
-63.184332361
 20
-23.7568878797
 10
-63.204301327
 20
-23.6099028607
 10
-63.2031462711
 20
-23.5641234981
  0
LWPOLYLINE
  5
43A
100
AcDbEntity
  8
0
100
AcDbPolyline
 62
7
  6
CONTINUOUS
 90
3
 70
0
 43
0.3500000006
 10
-58.7521071167
 20
49.915812973
 10
-58.8235337677
 20
49.7015284882
 10
-58.9663916016
 20
49.4158128204
  0
LWPOLYLINE
  5
43B
100
AcDbEntity
  8
SUPERFICI
100
AcDbPolyline
 62
7
  6
CONTINUOUS
 90
8
 70
0
 10
-59.8125957638
 20
38.6310875433
 10
-59.9517495067
 20
38.2221255696
 10
-60.0841144137
 20
37.8213607515
 10
-60.2122555527
 20
37.4212092293
 10
-60.335488945
 20
37.0241066886
 10
-60.45008726
 20
36.6433923751
 10
-60.5553027933
 20
36.2838238844
 10
-60.6613389618
 20
35.9116382553
  0
LINE
  5
43C
100
AcDbEntity
  8
SUPERFICI
100
AcDbLine
 62
7
  6
CONTINUOUS
 10
-59.6603498717
 20
39.0658751956
 11
-59.8125957638
 21
38.6310875433
  0
LINE
  5
43D
100
AcDbEntity
  8
SUPERFICI
100
AcDbLine
 62
7
  6
CONTINUOUS
 10
-59.6655427519
 20
39.0512427007
 11
-59.6538408137
 21
39.0842009193
  0
LWPOLYLINE
  5
43E
100
AcDbEntity
  8
SUPERFICI
100
AcDbPolyline
 62
7
  6
CONTINUOUS
 90
7
 70
0
 10
-59.6226112889
 20
39.1791710166
 10
-59.6242569034
 20
39.1751263157
 10
-59.6264125158
 20
39.1697261754
 10
-59.6287577878
 20
39.1637094745
 10
-59.6311163723
 20
39.1574968539
 10
-59.6334776223
 20
39.1510993362
 10
-59.6339889153
 20
39.1496889269
  0
LINE
  5
43F
100
AcDbEntity
  8
SUPERFICI
100
AcDbLine
 62
250
  6
CONTINUOUS
 10
-59.6339889153
 20
39.1496889269
 11
-59.6242569034
 21
39.1751263157
  0
LINE
  5
440
100
AcDbEntity
  8
SUPERFICI
100
AcDbLine
 62
250
  6
CONTINUOUS
 10
-59.6226112889
 20
39.1791710166
 11
-59.6116754285
 21
39.2039360129
  0
LINE
  5
441
100
AcDbEntity
  8
SUPERFICI
100
AcDbLine
 62
7
  6
CONTINUOUS
 10
-59.6211995662
 20
39.1825906494
 11
-59.6226149935
 21
39.1791620791
  0
LINE
  5
442
100
AcDbEntity
  8
SUPERFICI
100
AcDbLine
 62
7
  6
CONTINUOUS
 10
-62.7081038578
 20
24.6243903216
 11
-62.6278880218
 21
24.8021063296
  0
LWPOLYLINE
  5
443
100
AcDbEntity
  8
SUPERFICI
100
AcDbPolyline
 62
7
  6
CONTINUOUS
 90
5
 70
0
 10
-63.0816141618
 20
24.0297955159
 10
-63.1430420382
 20
23.8973699643
 10
-63.184332361
 20
23.7568878797
 10
-63.204301327
 20
23.6099028607
 10
-63.2031462711
 20
23.5641234981
  0
LINE
  5
444
100
AcDbEntity
  8
SUPERFICI
100
AcDbLine
 62
7
  6
CONTINUOUS
 10
-62.7958725019
 20
24.4599024236
 11
-62.7051339495
 21
24.6304417911
  0
LINE
  5
445
100
AcDbEntity
  8
SUPERFICI
100
AcDbLine
 62
250
  6
CONTINUOUS
 10
-59.6339910643
 20
-39.14968298
 11
-59.6242590041
 21
-39.17512119
  0
LINE
  5
446
100
AcDbEntity
  8
SUPERFICI
100
AcDbLine
 62
250
  6
CONTINUOUS
 10
-59.6211978339
 20
-39.1825948145
 11
-59.6116754306
 21
-39.2039360102
  0
LWPOLYLINE
  5
447
100
AcDbEntity
  8
SUPERFICI
100
AcDbPolyline
 62
7
  6
CONTINUOUS
 90
15
 70
0
 10
-59.6339910643
 20
-39.14968298
 10
-59.633479034
 20
-39.1510954583
 10
-59.6311179835
 20
-39.1574925697
 10
-59.6287596037
 20
-39.1637047924
 10
-59.6264145237
 20
-39.1697211467
 10
-59.6242590041
 20
-39.17512119
 10
-59.6226134208
 20
-39.1791659168
 10
-59.6211978339
 20
-39.1825948145
 10
-59.6192645416
 20
-39.187207586
 10
-59.6167157652
 20
-39.1931684373
 10
-59.6135872696
 20
-39.200305709
 10
-59.6092447762
 20
-39.2099065347
 10
-59.6031323511
 20
-39.2228723496
 10
-59.5955169496
 20
-39.2382311304
 10
-59.5870187591
 20
-39.2544614781
  0
LINE
  5
448
100
AcDbEntity
  8
SUPERFICI
100
AcDbLine
 62
7
  6
CONTINUOUS
 10
-59.6538408137
 20
-39.0842009193
 11
-59.6655427538
 21
-39.0512426951
  0
LWPOLYLINE
  5
449
100
AcDbEntity
  8
SUPERFICI
100
AcDbPolyline
 62
7
  6
CONTINUOUS
 90
8
 70
0
 10
-60.6613389618
 20
35.9116382943
 10
-60.7442229744
 20
35.6142043548
 10
-60.8200066789
 20
35.336974447
 10
-60.8955020733
 20
35.0549029224
 10
-60.9703263594
 20
34.7686339871
 10
-61.0432386357
 20
34.4823696381
 10
-61.1144089633
 20
34.1951318107
 10
-61.1840391349
 20
33.9058388532
  0
LINE
  5
44A
100
AcDbEntity
  8
SUPERFICI
100
AcDbLine
 62
250
  6
CONTINUOUS
 10
-59.7708025185
 20
38.6730468405
 11
-59.6538408137
 21
39.0842009192
  0
LINE
  5
44B
100
AcDbEntity
  8
SUPERFICI
100
AcDbLine
 62
7
  6
CONTINUOUS
 10
-59.6538408137
 20
39.0842009193
 11
-59.6339889153
 21
39.1496889269
  0
LINE
  5
44C
100
AcDbEntity
  8
SUPERFICI
100
AcDbLine
 62
7
  6
CONTINUOUS
 10
-62.5640369145
 20
24.9722723857
 11
-62.5079669789
 21
25.157345567
  0
LWPOLYLINE
  5
44D
100
AcDbEntity
  8
SUPERFICI
100
AcDbPolyline
 62
7
  6
CONTINUOUS
 90
4
 70
0
 10
-59.6542254832
 20
39.0829937423
 10
-59.659726058
 20
39.0657317355
 10
-59.6568640151
 20
39.0749401522
 10
-59.6541985908
 20
39.0831049651
  0
LWPOLYLINE
  5
44E
100
AcDbEntity
  8
SUPERFICI
100
AcDbPolyline
 62
250
  6
CONTINUOUS
 90
10
 70
0
 10
-59.6602370084
 20
39.0641878417
 10
-59.7722166825
 20
38.7138142218
 10
-59.8887855406
 20
38.339364559
 10
-60.0036007367
 20
37.9607199963
 10
-60.1166062984
 20
37.5781238121
 10
-60.2279655003
 20
37.1910869313
 10
-60.3380478958
 20
36.7983346399
 10
-60.4469980271
 20
36.3993053543
 10
-60.5547483973
 20
35.9942038887
 10
-60.661338959
 20
35.5828566402
  0
LINE
  5
44F
100
AcDbEntity
  8
SUPERFICI
100
AcDbLine
 62
7
  6
CONTINUOUS
 10
-62.6305810243
 20
24.7955773588
 11
-62.5619570539
 21
24.9784221342
  0
LWPOLYLINE
  5
450
100
AcDbEntity
  8
0
100
AcDbPolyline
 62
7
  6
CONTINUOUS
 90
13
 70
0
 43
0.3500000006
 10
-73.693483017
 20
-1.9285708809
 10
-73.9077675018
 20
-2.2142854156
 10
-74.5506254883
 20
-2.2142854156
 10
-74.9791989899
 20
-1.9285708809
 10
-74.9791989899
 20
-1.2857140274
 10
-74.5506254883
 20
-1.0000006256
 10
-73.9077675018
 20
-1.0000006256
 10
-73.693483017
 20
-1.2857140274
 10
-73.2649095154
 20
-0.8571427917
 10
-72.4077670441
 20
-0.8571427917
 10
-71.9791980743
 20
-1.2857140274
 10
-71.9791980743
 20
-1.9285708809
 10
-72.4077670441
 20
-2.3571432495
  0
LWPOLYLINE
  5
451
100
AcDbEntity
  8
SUPERFICI
100
AcDbPolyline
 62
250
  6
CONTINUOUS
 90
10
 70
0
 10
-59.6538408137
 20
-39.0842009192
 10
-59.7722166031
 20
-38.7138144738
 10
-59.888785403
 20
-38.3393650071
 10
-60.0036005613
 20
-37.9607205825
 10
-60.1166061045
 20
-37.5781244774
 10
-60.2279653068
 20
-37.1910876127
 10
-60.3380477225
 20
-36.7983352665
 10
-60.4469978934
 20
-36.3993058505
 10
-60.5547483215
 20
-35.9942041772
 10
-60.661338959
 20
-35.5828566402
  0
LINE
  5
452
100
AcDbEntity
  8
SUPERFICI
100
AcDbLine
 62
7
  6
CONTINUOUS
 10
-59.6538408137
 20
-39.0842009192
 11
-59.6339910643
 21
-39.14968298
  0
LWPOLYLINE
  5
453
100
AcDbEntity
  8
SUPERFICI
100
AcDbPolyline
 62
7
  6
CONTINUOUS
 90
9
 70
0
 10
-60.6613389618
 20
-35.9116382553
 10
-60.5553028176
 20
-36.2838238001
 10
-60.4500873117
 20
-36.6433922008
 10
-60.3354890514
 20
-37.0241063404
 10
-60.2122557262
 20
-37.421208679
 10
-60.0841146183
 20
-37.8213601224
 10
-59.9517496875
 20
-38.2221250304
 10
-59.8125958788
 20
-38.6310872102
 10
-59.6655427538
 20
-39.0512426951
  0
LINE
  5
454
100
AcDbEntity
  8
SUPERFICI
100
AcDbLine
 62
250
  6
CONTINUOUS
 10
-59.7708024615
 20
-38.6730470431
 11
-59.6538408137
 21
-39.0842009192
  0
LWPOLYLINE
  5
455
100
AcDbEntity
  8
SUPERFICI
100
AcDbPolyline
 62
250
  6
CONTINUOUS
 90
10
 70
0
 10
-60.661338959
 20
-35.5828566402
 10
-60.7789066102
 20
-35.1167385454
 10
-60.895135449
 20
-34.6421647438
 10
-61.0099810866
 20
-34.1581079366
 10
-61.1236622594
 20
-33.6623229561
 10
-61.2358623649
 20
-33.154803221
 10
-61.3457882384
 20
-32.6379550642
 10
-61.4532067904
 20
-32.1119474846
 10
-61.5583862723
 20
-31.5745363945
 10
-61.6613389546
 20
-31.0246453689
  0
LINE
  5
456
100
AcDbEntity
  8
SUPERFICI
100
AcDbLine
 62
7
  6
CONTINUOUS
 10
-61.883230585
 20
30.3645834505
 11
-61.9179972841
 21
30.1425834488
  0
LINE
  5
457
100
AcDbEntity
  8
SUPERFICI
100
AcDbLine
 62
7
  6
CONTINUOUS
 10
-61.8447262549
 20
30.6033592266
 11
-61.883230585
 21
30.3645834505
  0
LINE
  5
458
100
AcDbEntity
  8
SUPERFICI
100
AcDbLine
 62
7
  6
CONTINUOUS
 10
-62.466835222
 20
25.3336023334
 11
-62.4363361684
 21
25.5166374379
  0
LINE
  5
459
100
AcDbEntity
  8
SUPERFICI
100
AcDbLine
 62
250
  6
CONTINUOUS
 10
-62.4179847593
 20
25.418149544
 11
-62.2589834626
 21
26.3782752355
  0
LINE
  5
45A
100
AcDbEntity
  8
SUPERFICI
100
AcDbLine
 62
250
  6
CONTINUOUS
 10
-62.2589834626
 20
26.3782752355
 11
-62.0972218267
 21
27.3232662846
  0
LINE
  5
45B
100
AcDbEntity
  8
SUPERFICI
100
AcDbLine
 62
7
  6
CONTINUOUS
 10
-61.739120429
 20
31.2226712604
 11
-61.7967503561
 21
30.8909708123
  0
LINE
  5
45C
100
AcDbEntity
  8
SUPERFICI
100
AcDbLine
 62
250
  6
CONTINUOUS
 10
-62.0972218267
 20
27.3232662846
 11
-61.9292197611
 21
28.272625464
  0
LWPOLYLINE
  5
45D
100
AcDbEntity
  8
SUPERFICI
100
AcDbPolyline
 62
7
  6
CONTINUOUS
 90
3
 70
0
 10
-61.7738920993
 20
31.0241970913
 10
-61.7745232122
 20
31.0207031009
 10
-61.8825557409
 20
30.3692010398
  0
LINE
  5
45E
100
AcDbEntity
  8
SUPERFICI
100
AcDbLine
 62
7
  6
CONTINUOUS
 10
-61.7068529382
 20
31.4020852024
 11
-61.739120429
 21
31.2226712604
  0
LINE
  5
45F
100
AcDbEntity
  8
SUPERFICI
100
AcDbLine
 62
250
  6
CONTINUOUS
 10
-61.9292197611
 20
28.272625464
 11
-61.7532628473
 21
29.2365937452
  0
LINE
  5
460
100
AcDbEntity
  8
SUPERFICI
100
AcDbLine
 62
250
  6
CONTINUOUS
 10
-62.4179847593
 20
23.9867322225
 11
-62.1763377497
 21
25.3043110159
  0
LINE
  5
461
100
AcDbEntity
  8
SUPERFICI
100
AcDbLine
 62
7
  6
CONTINUOUS
 10
-61.6723483622
 20
31.5890722172
 11
-61.7068529382
 21
31.4020852024
  0
LINE
  5
462
100
AcDbEntity
  8
SUPERFICI
100
AcDbLine
 62
250
  6
CONTINUOUS
 10
-62.4179847593
 20
23.8140115601
 11
-62.1770282368
 21
25.1244018132
  0
LWPOLYLINE
  5
463
100
AcDbEntity
  8
SUPERFICI
100
AcDbPolyline
 62
250
  6
CONTINUOUS
 90
10
 70
0
 10
-61.661338956
 20
30.369619874
 10
-61.5567876986
 20
30.9307084125
 10
-61.4497451707
 20
31.4891907813
 10
-61.3406731715
 20
32.0430389006
 10
-61.2301683803
 20
32.5895890601
 10
-61.1184840194
 20
33.1279171714
 10
-61.0054918421
 20
33.6588179845
 10
-60.8913477611
 20
34.1815914828
 10
-60.776531177
 20
34.6940555944
 10
-60.6613389626
 20
35.1949136289
  0
LWPOLYLINE
  5
464
100
AcDbEntity
  8
SUPERFICI
100
AcDbPolyline
 62
250
  6
CONTINUOUS
 90
10
 70
0
 10
-61.6613389546
 20
31.0246453689
 10
-61.5584112541
 20
31.5744059269
 10
-61.453250523
 20
32.1117288008
 10
-61.3458439839
 20
32.6376876581
 10
-61.2359214355
 20
33.1545308931
 10
-61.1237168076
 20
33.6620807747
 10
-61.0100272267
 20
34.1579101981
 10
-60.8951705886
 20
34.6420190264
 10
-60.7789264499
 20
35.1166587525
 10
-60.661338959
 20
35.5828566402
  0
LINE
  5
465
100
AcDbEntity
  8
SUPERFICI
100
AcDbLine
 62
250
  6
CONTINUOUS
 10
-61.7532628473
 20
29.2365937452
 11
-61.5568678841
 21
30.2820534229
  0
LINE
  5
466
100
AcDbEntity
  8
SUPERFICI
100
AcDbLine
 62
250
  6
CONTINUOUS
 10
-62.3413734274
 20
23.117754909
 11
-62.1841961643
 21
23.9555937151
  0
LINE
  5
467
100
AcDbEntity
  8
SUPERFICI
100
AcDbLine
 62
250
  6
CONTINUOUS
 10
-62.1770282368
 20
25.1244018132
 11
-62.0123638719
 21
25.9927356017
  0
LINE
  5
468
100
AcDbEntity
  8
SUPERFICI
100
AcDbLine
 62
250
  6
CONTINUOUS
 10
-62.1763377497
 20
25.3043110159
 11
-61.9270985931
 21
26.6168414999
  0
LINE
  5
469
100
AcDbEntity
  8
SUPERFICI
100
AcDbLine
 62
250
  6
CONTINUOUS
 10
-61.5568678841
 20
30.2820534229
 11
-61.3399953877
 21
31.4011855723
  0
LINE
  5
46A
100
AcDbEntity
  8
SUPERFICI
100
AcDbLine
 62
250
  6
CONTINUOUS
 10
-62.1841961643
 20
23.9555937151
 11
-62.0203279255
 21
24.7976325353
  0
LINE
  5
46B
100
AcDbEntity
  8
SUPERFICI
100
AcDbLine
 62
250
  6
CONTINUOUS
 10
-62.0123638719
 20
25.9927356017
 11
-61.7526971906
 21
27.3221746397
  0
LINE
  5
46C
100
AcDbEntity
  8
SUPERFICI
100
AcDbLine
 62
250
  6
CONTINUOUS
 10
-61.9270985931
 20
26.6168414999
 11
-61.6613389581
 21
27.9719715713
  0
LINE
  5
46D
100
AcDbEntity
  8
SUPERFICI
100
AcDbLine
 62
250
  6
CONTINUOUS
 10
-61.3399953877
 20
31.4011855723
 11
-61.1164194875
 21
32.5203624088
  0
LINE
  5
46E
100
AcDbEntity
  8
SUPERFICI
100
AcDbLine
 62
250
  6
CONTINUOUS
 10
-61.7526971906
 20
27.3221746397
 11
-61.5606918813
 21
28.2794969787
  0
LINE
  5
46F
100
AcDbEntity
  8
SUPERFICI
100
AcDbLine
 62
250
  6
CONTINUOUS
 10
-62.0203279255
 20
24.7976325353
 11
-61.846766585
 21
25.6595128935
  0
LINE
  5
470
100
AcDbEntity
  8
SUPERFICI
100
AcDbLine
 62
250
  6
CONTINUOUS
 10
-61.6613389581
 20
27.9719715713
 11
-61.3481682022
 21
29.5201749852
  0
LINE
  5
471
100
AcDbEntity
  8
SUPERFICI
100
AcDbLine
 62
250
  6
CONTINUOUS
 10
-61.5606918813
 20
28.2794969787
 11
-61.3495411084
 21
29.3086154645
  0
LINE
  5
472
100
AcDbEntity
  8
SUPERFICI
100
AcDbLine
 62
250
  6
CONTINUOUS
 10
-61.1164194875
 20
32.5203624088
 11
-60.8891592751
 21
33.6245780218
  0
LWPOLYLINE
  5
473
100
AcDbEntity
  8
SUPERFICI
100
AcDbPolyline
 62
7
  6
CONTINUOUS
 90
6
 70
0
 10
-61.4370155743
 20
32.7742457569
 10
-61.4932293372
 20
32.5035150608
 10
-61.54665835
 20
32.2391418091
 10
-61.5967869077
 20
31.9846945696
 10
-61.6434729281
 20
31.7420491038
 10
-61.6723483622
 20
31.5890722172
  0
LINE
  5
474
100
AcDbEntity
  8
SUPERFICI
100
AcDbLine
 62
250
  6
CONTINUOUS
 10
-61.3481682022
 20
29.5201749852
 11
-61.1274842271
 21
30.5825338828
  0
LINE
  5
475
100
AcDbEntity
  8
SUPERFICI
100
AcDbLine
 62
250
  6
CONTINUOUS
 10
-61.846766585
 20
25.6595128935
 11
-61.6613389561
 21
26.5522107386
  0
LINE
  5
476
100
AcDbEntity
  8
SUPERFICI
100
AcDbLine
 62
250
  6
CONTINUOUS
 10
-61.3495411084
 20
29.3086154645
 11
-61.1291211933
 21
30.3592882893
  0
LINE
  5
477
100
AcDbEntity
  8
SUPERFICI
100
AcDbLine
 62
250
  6
CONTINUOUS
 10
-61.1274842271
 20
30.5825338828
 11
-60.8978445671
 21
31.6649861671
  0
LINE
  5
478
100
AcDbEntity
  8
SUPERFICI
100
AcDbLine
 62
250
  6
CONTINUOUS
 10
-60.8891592751
 20
33.6245780218
 11
-60.661338964
 21
34.6983583088
  0
LINE
  5
479
100
AcDbEntity
  8
SUPERFICI
100
AcDbLine
 62
250
  6
CONTINUOUS
 10
-61.1291211933
 20
30.3592882893
 11
-60.8990393808
 21
31.4320416065
  0
LINE
  5
47A
100
AcDbEntity
  8
SUPERFICI
100
AcDbLine
 62
250
  6
CONTINUOUS
 10
-61.6613389561
 20
26.5522107386
 11
-61.4627413793
 21
27.4803966402
  0
LINE
  5
47B
100
AcDbEntity
  8
SUPERFICI
100
AcDbLine
 62
250
  6
CONTINUOUS
 10
-60.8978445671
 20
31.6649861671
 11
-60.6613389626
 21
32.7555229602
  0
LINE
  5
47C
100
AcDbEntity
  8
SUPERFICI
100
AcDbLine
 62
250
  6
CONTINUOUS
 10
-60.4452981803
 20
35.6861404721
 11
-60.661338964
 21
34.6983583088
  0
LINE
  5
47D
100
AcDbEntity
  8
SUPERFICI
100
AcDbLine
 62
250
  6
CONTINUOUS
 10
-60.8990393808
 20
31.4320416065
 11
-60.661338949
 21
32.5149489992
  0
LINE
  5
47E
100
AcDbEntity
  8
SUPERFICI
100
AcDbLine
 62
250
  6
CONTINUOUS
 10
-61.4627413793
 20
27.4803966402
 11
-61.2498362293
 21
28.4474756384
  0
LINE
  5
47F
100
AcDbEntity
  8
SUPERFICI
100
AcDbLine
 62
250
  6
CONTINUOUS
 10
-60.3336396107
 20
34.2263289922
 11
-60.6613389626
 21
32.7555229602
  0
LINE
  5
480
100
AcDbEntity
  8
SUPERFICI
100
AcDbLine
 62
250
  6
CONTINUOUS
 10
-60.661338949
 20
32.5149489992
 11
-60.4454630227
 21
33.4762481992
  0
LINE
  5
481
100
AcDbEntity
  8
SUPERFICI
100
AcDbLine
 62
250
  6
CONTINUOUS
 10
-60.2224789652
 20
36.6764304505
 11
-60.4452981803
 21
35.6861404721
  0
LINE
  5
482
100
AcDbEntity
  8
SUPERFICI
100
AcDbLine
 62
250
  6
CONTINUOUS
 10
-61.2498362293
 20
28.4474756384
 11
-61.0242903424
 21
29.4450267682
  0
LWPOLYLINE
  5
483
100
AcDbEntity
  8
SUPERFICI
100
AcDbPolyline
 62
250
  6
CONTINUOUS
 90
9
 70
0
 10
-61.7599375442
 20
23.4578284841
 10
-61.8555199472
 20
23.0414689318
 10
-61.947885651
 20
22.6304866411
 10
-62.0370761694
 20
22.2245627853
 10
-62.1226190592
 20
21.8256898026
 10
-62.2036383081
 20
21.437936606
 10
-62.2798193644
 20
21.0629513504
 10
-62.3512986165
 20
20.7001967964
 10
-62.4179847593
 20
20.3502128378
  0
LINE
  5
484
100
AcDbEntity
  8
SUPERFICI
100
AcDbLine
 62
250
  6
CONTINUOUS
 10
-59.9955670307
 20
35.7000090233
 11
-60.3336396107
 21
34.2263289922
  0
LINE
  5
485
100
AcDbEntity
  8
SUPERFICI
100
AcDbLine
 62
250
  6
CONTINUOUS
 10
-60.4454630227
 20
33.4762481992
 11
-60.1108611418
 21
34.9288635121
  0
LINE
  5
486
100
AcDbEntity
  8
SUPERFICI
100
AcDbLine
 62
250
  6
CONTINUOUS
 10
-59.9953131108
 20
37.6584454832
 11
-60.2224789652
 21
36.6764304505
  0
LWPOLYLINE
  5
487
100
AcDbEntity
  8
SUPERFICI
100
AcDbPolyline
 62
7
  6
CONTINUOUS
 90
5
 70
0
 10
-61.1840391349
 20
33.9058388532
 10
-61.2510516911
 20
33.6189797986
 10
-61.3155460234
 20
33.3344646473
 10
-61.3777960118
 20
33.0514859506
 10
-61.4370155743
 20
32.7742457569
  0
LINE
  5
488
100
AcDbEntity
  8
SUPERFICI
100
AcDbLine
 62
250
  6
CONTINUOUS
 10
-61.0242903424
 20
29.4450267682
 11
-60.7851126213
 21
30.4755464685
  0
LINE
  5
489
100
AcDbEntity
  8
SUPERFICI
100
AcDbLine
 62
7
  6
CONTINUOUS
 10
-62.5093764496
 20
25.1520735595
 11
-62.4660347816
 21
25.3376249076
  0
LWPOLYLINE
  5
48A
100
AcDbEntity
  8
SUPERFICI
100
AcDbPolyline
 62
250
  6
CONTINUOUS
 90
9
 70
0
 10
-60.6613389626
 20
35.1949136289
 10
-60.555178593
 20
35.645041731
 10
-60.4474132218
 20
36.0913241186
 10
-60.3380977158
 20
36.5335281653
 10
-60.2272479425
 20
36.9715735671
 10
-60.1149568261
 20
37.4050719211
 10
-60.0013992739
 20
37.8333430937
 10
-59.8866747836
 20
38.2560229217
 10
-59.7708025185
 20
38.6730468405
  0
LINE
  5
48B
100
AcDbEntity
  8
SUPERFICI
100
AcDbLine
 62
250
  6
CONTINUOUS
 10
-60.1108611418
 20
34.9288635121
 11
-59.8831938799
 21
35.8933422223
  0
LINE
  5
48C
100
AcDbEntity
  8
SUPERFICI
100
AcDbLine
 62
250
  6
CONTINUOUS
 10
-59.6538408137
 20
37.1475761919
 11
-59.9955670307
 21
35.7000090233
  0
LINE
  5
48D
100
AcDbEntity
  8
SUPERFICI
100
AcDbLine
 62
250
  6
CONTINUOUS
 10
-61.7599375442
 20
23.4578284841
 11
-61.5673783093
 21
24.2727598198
  0
LINE
  5
48E
100
AcDbEntity
  8
SUPERFICI
100
AcDbLine
 62
250
  6
CONTINUOUS
 10
-60.7851126213
 20
30.4755464685
 11
-60.5556235062
 21
31.4394488673
  0
LINE
  5
48F
100
AcDbEntity
  8
SUPERFICI
100
AcDbLine
 62
250
  6
CONTINUOUS
 10
-59.8831938799
 20
35.8933422223
 11
-59.6538408137
 21
36.8461856528
  0
LINE
  5
490
100
AcDbEntity
  8
SUPERFICI
100
AcDbLine
 62
7
  6
CONTINUOUS
 10
-59.6538408137
 20
39.0845848122
 11
-59.6622080218
 21
39.0500341435
  0
LWPOLYLINE
  5
491
100
AcDbEntity
  8
SUPERFICI
100
AcDbPolyline
 62
250
  6
CONTINUOUS
 90
3
 70
0
 10
-59.6622080218
 20
39.0500341435
 10
-59.7674933128
 20
38.6163765945
 10
-59.9953131108
 20
37.6584454832
  0
LINE
  5
492
100
AcDbEntity
  8
SUPERFICI
100
AcDbLine
 62
250
  6
CONTINUOUS
 10
-60.5556235062
 20
31.4394488673
 11
-60.3395404444
 21
32.3270912912
  0
LINE
  5
493
100
AcDbEntity
  8
SUPERFICI
100
AcDbLine
 62
250
  6
CONTINUOUS
 10
-61.5673783093
 20
24.2727598198
 11
-61.3667823865
 21
25.0940318881
  0
LINE
  5
494
100
AcDbEntity
  8
SUPERFICI
100
AcDbLine
 62
250
  6
CONTINUOUS
 10
-60.3395404444
 20
32.3270912912
 11
-60.1172452715
 21
33.2219565297
  0
LINE
  5
495
100
AcDbEntity
  8
SUPERFICI
100
AcDbLine
 62
250
  6
CONTINUOUS
 10
-61.3667823865
 20
25.0940318881
 11
-61.1488870715
 21
25.959907964
  0
LINE
  5
496
100
AcDbEntity
  8
SUPERFICI
100
AcDbLine
 62
250
  6
CONTINUOUS
 10
-60.1172452715
 20
33.2219565297
 11
-59.8886881054
 21
34.1242484596
  0
LINE
  5
497
100
AcDbEntity
  8
SUPERFICI
100
AcDbLine
 62
250
  6
CONTINUOUS
 10
-59.8886881054
 20
34.1242484596
 11
-59.6538408137
 21
35.0340781245
  0
LINE
  5
498
100
AcDbEntity
  8
SUPERFICI
100
AcDbLine
 62
250
  6
CONTINUOUS
 10
-61.1488870715
 20
25.959907964
 11
-60.9137628958
 21
26.8685758501
  0
LINE
  5
499
100
AcDbEntity
  8
SUPERFICI
100
AcDbLine
 62
250
  6
CONTINUOUS
 10
-60.9137628958
 20
26.8685758501
 11
-60.6613389492
 21
27.8189626046
  0
LINE
  5
49A
100
AcDbEntity
  8
SUPERFICI
100
AcDbLine
 62
250
  6
CONTINUOUS
 10
-60.6613389492
 20
27.8189626045
 11
-60.4481324689
 21
28.6041467065
  0
LINE
  5
49B
100
AcDbEntity
  8
SUPERFICI
100
AcDbLine
 62
250
  6
CONTINUOUS
 10
-60.4481324689
 20
28.6041467065
 11
-60.2301725827
 21
29.3917381517
  0
LINE
  5
49C
100
AcDbEntity
  8
SUPERFICI
100
AcDbLine
 62
250
  6
CONTINUOUS
 10
-60.2301725827
 20
29.3917381517
 11
-60.0061129135
 21
30.1867078514
  0
LWPOLYLINE
  5
49D
100
AcDbEntity
  8
SUPERFICI
100
AcDbPolyline
 62
250
  6
CONTINUOUS
 90
3
 70
0
 10
-60.0061129135
 20
30.1867078514
 10
-59.7735777571
 20
30.9975102768
 10
-59.6538408137
 20
31.4098631156
  0
LINE
  5
49E
100
AcDbEntity
  8
SUPERFICI
100
AcDbLine
 62
250
  6
CONTINUOUS
 10
-59.6538408137
 20
-31.4098635796
 11
-59.8921800302
 21
-30.5856847792
  0
LINE
  5
49F
100
AcDbEntity
  8
SUPERFICI
100
AcDbLine
 62
250
  6
CONTINUOUS
 10
-59.8921800302
 20
-30.5856847792
 11
-60.1206537761
 21
-29.7820876616
  0
LINE
  5
4A0
100
AcDbEntity
  8
SUPERFICI
100
AcDbLine
 62
250
  6
CONTINUOUS
 10
-60.1206537761
 20
-29.7820876616
 11
-60.3409248035
 21
-28.9933758387
  0
LINE
  5
4A1
100
AcDbEntity
  8
SUPERFICI
100
AcDbLine
 62
250
  6
CONTINUOUS
 10
-60.3409248035
 20
-28.9933758387
 11
-60.5557465678
 21
-28.2097232804
  0
LINE
  5
4A2
100
AcDbEntity
  8
SUPERFICI
100
AcDbLine
 62
250
  6
CONTINUOUS
 10
-60.5557465678
 20
-28.2097232804
 11
-60.7897373779
 21
-27.3385434728
  0
LINE
  5
4A3
100
AcDbEntity
  8
SUPERFICI
100
AcDbLine
 62
250
  6
CONTINUOUS
 10
-60.7897373779
 20
-27.3385434728
 11
-61.0334986733
 21
-26.4089023465
  0
LINE
  5
4A4
100
AcDbEntity
  8
SUPERFICI
100
AcDbLine
 62
250
  6
CONTINUOUS
 10
-59.6538408137
 20
-35.0340785899
 11
-59.888732095
 21
-34.1240768224
  0
LINE
  5
4A5
100
AcDbEntity
  8
SUPERFICI
100
AcDbLine
 62
250
  6
CONTINUOUS
 10
-61.0334986733
 20
-26.4089023465
 11
-61.2600496033
 21
-25.5212876249
  0
LINE
  5
4A6
100
AcDbEntity
  8
SUPERFICI
100
AcDbLine
 62
250
  6
CONTINUOUS
 10
-59.888732095
 20
-34.1240768224
 11
-60.1173020804
 21
-33.2217302966
  0
LINE
  5
4A7
100
AcDbEntity
  8
SUPERFICI
100
AcDbLine
 62
250
  6
CONTINUOUS
 10
-60.1173020804
 20
-33.2217302966
 11
-60.3395841568
 21
-32.3269136277
  0
LINE
  5
4A8
100
AcDbEntity
  8
SUPERFICI
100
AcDbLine
 62
250
  6
CONTINUOUS
 10
-61.2600496033
 20
-25.5212876249
 11
-61.469237661
 21
-24.6777355364
  0
LINE
  5
4A9
100
AcDbEntity
  8
SUPERFICI
100
AcDbLine
 62
7
  6
CONTINUOUS
 10
-59.6628298481
 20
-39.0474755094
 11
-59.6538408137
 21
-39.0845848162
  0
LINE
  5
4AA
100
AcDbEntity
  8
SUPERFICI
100
AcDbLine
 62
250
  6
CONTINUOUS
 10
-60.3395841568
 20
-32.3269136277
 11
-60.5556414579
 21
-31.4393743613
  0
LINE
  5
4AB
100
AcDbEntity
  8
SUPERFICI
100
AcDbLine
 62
250
  6
CONTINUOUS
 10
-59.6628298481
 20
-39.0474755094
 11
-59.881395936
 21
-38.1407815481
  0
LINE
  5
4AC
100
AcDbEntity
  8
SUPERFICI
100
AcDbLine
 62
250
  6
CONTINUOUS
 10
-59.6538408137
 20
-36.8461861193
 11
-59.8831992563
 21
-35.8933200488
  0
LINE
  5
4AD
100
AcDbEntity
  8
SUPERFICI
100
AcDbLine
 62
250
  6
CONTINUOUS
 10
-61.469237661
 20
-24.6777355364
 11
-61.6613389514
 21
-23.8787684896
  0
LINE
  5
4AE
100
AcDbEntity
  8
SUPERFICI
100
AcDbLine
 62
250
  6
CONTINUOUS
 10
-60.5556414579
 20
-31.4393743613
 11
-60.7851099424
 21
-30.4755578598
  0
LWPOLYLINE
  5
4AF
100
AcDbEntity
  8
SUPERFICI
100
AcDbPolyline
 62
250
  6
CONTINUOUS
 90
9
 70
0
 10
-60.6613389626
 20
-35.1949136289
 10
-60.555178539
 20
-35.6450419575
 10
-60.447413126
 20
-36.0913245105
 10
-60.3380975914
 20
-36.5335286627
 10
-60.2272478034
 20
-36.9715741104
 10
-60.1149566866
 20
-37.4050724535
 10
-60.0013991478
 20
-37.833343564
 10
-59.8866746847
 20
-38.2560232819
 10
-59.7708024615
 20
-38.6730470431
  0
LWPOLYLINE
  5
4B0
100
AcDbEntity
  8
SUPERFICI
100
AcDbPolyline
 62
250
  6
CONTINUOUS
 90
10
 70
0
 10
-61.6613389514
 20
-23.8787684896
 10
-61.7599375839
 20
-23.4578283125
 10
-61.8555200263
 20
-23.0414685791
 10
-61.9478857689
 20
-22.6304860958
 10
-62.0370763396
 20
-22.2245619657
 10
-62.1226192786
 20
-21.825688697
 10
-62.2036385323
 20
-21.4379354053
 10
-62.2798195423
 20
-21.0629503065
 10
-62.3512987174
 20
-20.7001960885
 10
-62.4179847593
 20
-20.3502126373
  0
LINE
  5
4B1
100
AcDbEntity
  8
SUPERFICI
100
AcDbLine
 62
250
  6
CONTINUOUS
 10
-59.9955643719
 20
-35.7000206988
 11
-59.6538408137
 21
-37.1475760374
  0
LINE
  5
4B2
100
AcDbEntity
  8
SUPERFICI
100
AcDbLine
 62
250
  6
CONTINUOUS
 10
-59.881395936
 20
-38.1407815481
 11
-60.1091390053
 21
-37.1697799577
  0
LINE
  5
4B3
100
AcDbEntity
  8
SUPERFICI
100
AcDbLine
 62
250
  6
CONTINUOUS
 10
-59.8831992563
 20
-35.8933200488
 11
-60.2235302627
 21
-34.4445279495
  0
LINE
  5
4B4
100
AcDbEntity
  8
SUPERFICI
100
AcDbLine
 62
250
  6
CONTINUOUS
 10
-60.7851099424
 20
-30.4755578598
 11
-61.0242798414
 21
-29.4450726146
  0
LWPOLYLINE
  5
4B5
100
AcDbEntity
  8
SUPERFICI
100
AcDbPolyline
 62
250
  6
CONTINUOUS
 90
10
 70
0
 10
-60.6613389626
 20
-35.1949136289
 10
-60.7765484849
 20
-34.6939793435
 10
-60.8913800475
 20
-34.1814455021
 10
-61.0055367555
 20
-33.658609632
 10
-61.1185423613
 20
-33.1276395287
 10
-61.2302376728
 20
-32.5892507539
 10
-61.3407419575
 20
-32.0426942193
 10
-61.4497999444
 20
-31.488908892
 10
-61.5568191152
 20
-30.930542203
 10
-61.661338956
 20
-30.369619874
  0
LINE
  5
4B6
100
AcDbEntity
  8
SUPERFICI
100
AcDbLine
 62
250
  6
CONTINUOUS
 10
-60.2235302627
 20
-34.4445279495
 11
-60.4454667413
 21
-33.476231843
  0
LINE
  5
4B7
100
AcDbEntity
  8
SUPERFICI
100
AcDbLine
 62
250
  6
CONTINUOUS
 10
-60.3336392232
 20
-34.2263310418
 11
-59.9955643719
 21
-35.7000206988
  0
LINE
  5
4B8
100
AcDbEntity
  8
SUPERFICI
100
AcDbLine
 62
250
  6
CONTINUOUS
 10
-60.1091390053
 20
-37.1697799577
 11
-60.3346601406
 21
-36.1813118224
  0
LINE
  5
4B9
100
AcDbEntity
  8
SUPERFICI
100
AcDbLine
 62
250
  6
CONTINUOUS
 10
-61.0242798414
 20
-29.4450726146
 11
-61.2498111961
 21
-28.4475878296
  0
LINE
  5
4BA
100
AcDbEntity
  8
SUPERFICI
100
AcDbLine
 62
250
  6
CONTINUOUS
 10
-60.4454667413
 20
-33.476231843
 11
-60.661338949
 21
-32.5149489992
  0
LINE
  5
4BB
100
AcDbEntity
  8
SUPERFICI
100
AcDbLine
 62
250
  6
CONTINUOUS
 10
-60.6613389626
 20
-32.7555229602
 11
-60.3336392232
 21
-34.2263310418
  0
LINE
  5
4BC
100
AcDbEntity
  8
SUPERFICI
100
AcDbLine
 62
250
  6
CONTINUOUS
 10
-60.3346601406
 20
-36.1813118224
 11
-60.5542765399
 21
-35.1914428527
  0
LINE
  5
4BD
100
AcDbEntity
  8
SUPERFICI
100
AcDbLine
 62
250
  6
CONTINUOUS
 10
-61.2498111961
 20
-28.4475878296
 11
-61.4627190775
 21
-27.4804993658
  0
LINE
  5
4BE
100
AcDbEntity
  8
SUPERFICI
100
AcDbLine
 62
250
  6
CONTINUOUS
 10
-60.8990393808
 20
-31.4320416065
 11
-60.661338949
 21
-32.5149489992
  0
LINE
  5
4BF
100
AcDbEntity
  8
SUPERFICI
100
AcDbLine
 62
250
  6
CONTINUOUS
 10
-60.6613389626
 20
-32.7555229602
 11
-60.8978845217
 21
-31.664799844
  0
LINE
  5
4C0
100
AcDbEntity
  8
SUPERFICI
100
AcDbLine
 62
250
  6
CONTINUOUS
 10
-60.5542765399
 20
-35.1914428527
 11
-60.7753317294
 21
-34.1652478592
  0
LINE
  5
4C1
100
AcDbEntity
  8
SUPERFICI
100
AcDbLine
 62
250
  6
CONTINUOUS
 10
-61.1291211933
 20
-30.3592882893
 11
-60.8990393808
 21
-31.4320416065
  0
LINE
  5
4C2
100
AcDbEntity
  8
SUPERFICI
100
AcDbLine
 62
250
  6
CONTINUOUS
 10
-61.4627190775
 20
-27.4804993658
 11
-61.6613389561
 21
-26.5522107386
  0
LINE
  5
4C3
100
AcDbEntity
  8
SUPERFICI
100
AcDbLine
 62
250
  6
CONTINUOUS
 10
-60.8978845217
 20
-31.664799844
 11
-61.1275131876
 21
-30.582395909
  0
LINE
  5
4C4
100
AcDbEntity
  8
SUPERFICI
100
AcDbLine
 62
250
  6
CONTINUOUS
 10
-61.3495411084
 20
-29.3086154645
 11
-61.1291211933
 21
-30.3592882893
  0
LINE
  5
4C5
100
AcDbEntity
  8
SUPERFICI
100
AcDbLine
 62
250
  6
CONTINUOUS
 10
-60.7753317294
 20
-34.1652478592
 11
-61.003380924
 21
-33.073728084
  0
LINE
  5
4C6
100
AcDbEntity
  8
SUPERFICI
100
AcDbLine
 62
250
  6
CONTINUOUS
 10
-61.1275131876
 20
-30.582395909
 11
-61.3481576453
 21
-29.5202263422
  0
LINE
  5
4C7
100
AcDbEntity
  8
SUPERFICI
100
AcDbLine
 62
250
  6
CONTINUOUS
 10
-61.8467666247
 20
-25.6595126871
 11
-61.6613389561
 21
-26.5522107386
  0
LINE
  5
4C8
100
AcDbEntity
  8
SUPERFICI
100
AcDbLine
 62
250
  6
CONTINUOUS
 10
-61.5606918813
 20
-28.2794969787
 11
-61.3495411084
 21
-29.3086154645
  0
LINE
  5
4C9
100
AcDbEntity
  8
SUPERFICI
100
AcDbLine
 62
250
  6
CONTINUOUS
 10
-61.003380924
 20
-33.073728084
 11
-61.2285879138
 21
-31.9630477809
  0
LINE
  5
4CA
100
AcDbEntity
  8
SUPERFICI
100
AcDbLine
 62
250
  6
CONTINUOUS
 10
-61.3481576453
 20
-29.5202263422
 11
-61.6613389581
 21
-27.9719715713
  0
LINE
  5
4CB
100
AcDbEntity
  8
SUPERFICI
100
AcDbLine
 62
250
  6
CONTINUOUS
 10
-62.0203279735
 20
-24.7976322523
 11
-61.8467666247
 21
-25.6595126871
  0
LINE
  5
4CC
100
AcDbEntity
  8
SUPERFICI
100
AcDbLine
 62
250
  6
CONTINUOUS
 10
-61.5606918813
 20
-28.2794969787
 11
-61.8433607799
 21
-26.8629577348
  0
LWPOLYLINE
  5
4CD
100
AcDbEntity
  8
SUPERFICI
100
AcDbPolyline
 62
7
  6
CONTINUOUS
 90
15
 70
0
 10
-61.5967869077
 20
-31.9846945696
 10
-61.54665835
 20
-32.2391418091
 10
-61.4932293372
 20
-32.5035150608
 10
-61.4370155743
 20
-32.7742457569
 10
-61.3777960118
 20
-33.0514859506
 10
-61.3155460234
 20
-33.3344646473
 10
-61.2510516911
 20
-33.6189797986
 10
-61.1840391349
 20
-33.9058388532
 10
-61.1144089633
 20
-34.1951318107
 10
-61.0432386357
 20
-34.4823696381
 10
-60.9703263594
 20
-34.7686339871
 10
-60.8955020733
 20
-35.0549029224
 10
-60.8200066789
 20
-35.336974447
 10
-60.7442229744
 20
-35.6142043548
 10
-60.6613389618
 20
-35.9116382943
  0
LINE
  5
4CE
100
AcDbEntity
  8
SUPERFICI
100
AcDbLine
 62
250
  6
CONTINUOUS
 10
-61.2285879138
 20
-31.9630477809
 11
-61.4491974357
 21
-30.8420318826
  0
LINE
  5
4CF
100
AcDbEntity
  8
SUPERFICI
100
AcDbLine
 62
250
  6
CONTINUOUS
 10
-61.6613389581
 20
-27.9719715713
 11
-61.9297130015
 21
-26.6033020838
  0
LINE
  5
4D0
100
AcDbEntity
  8
SUPERFICI
100
AcDbLine
 62
250
  6
CONTINUOUS
 10
-61.8433607799
 20
-26.8629577348
 11
-62.0150722114
 21
-25.9786245112
  0
LINE
  5
4D1
100
AcDbEntity
  8
SUPERFICI
100
AcDbLine
 62
250
  6
CONTINUOUS
 10
-62.1841961984
 20
-23.9555934642
 11
-62.0203279735
 21
-24.7976322523
  0
LINE
  5
4D2
100
AcDbEntity
  8
SUPERFICI
100
AcDbLine
 62
7
  6
CONTINUOUS
 10
-61.6613389577
 20
-31.6477316737
 11
-61.5967869077
 21
-31.9846945696
  0
LINE
  5
4D3
100
AcDbEntity
  8
SUPERFICI
100
AcDbLine
 62
250
  6
CONTINUOUS
 10
-61.4491974357
 20
-30.8420318826
 11
-61.6613389644
 21
-29.7297993469
  0
LINE
  5
4D4
100
AcDbEntity
  8
SUPERFICI
100
AcDbLine
 62
250
  6
CONTINUOUS
 10
-62.0150722114
 20
-25.9786245112
 11
-62.1794704871
 21
-25.1113591061
  0
LINE
  5
4D5
100
AcDbEntity
  8
SUPERFICI
100
AcDbLine
 62
250
  6
CONTINUOUS
 10
-61.9297130015
 20
-26.6033020838
 11
-62.1789415218
 21
-25.2903537562
  0
LINE
  5
4D6
100
AcDbEntity
  8
SUPERFICI
100
AcDbLine
 62
7
  6
CONTINUOUS
 10
-61.6937146651
 20
-31.4738715209
 11
-61.6613389576
 21
-31.6476916034
  0
LINE
  5
4D7
100
AcDbEntity
  8
SUPERFICI
100
AcDbLine
 62
250
  6
CONTINUOUS
 10
-61.6613389644
 20
-29.7297993469
 11
-61.844264956
 21
-28.74156814
  0
LINE
  5
4D8
100
AcDbEntity
  8
SUPERFICI
100
AcDbLine
 62
250
  6
CONTINUOUS
 10
-62.1794704871
 20
-25.1113591061
 11
-62.4179847593
 21
-23.8140116503
  0
LINE
  5
4D9
100
AcDbEntity
  8
SUPERFICI
100
AcDbLine
 62
250
  6
CONTINUOUS
 10
-62.1789415218
 20
-25.2903537562
 11
-62.4179847593
 21
-23.9867323104
  0
LWPOLYLINE
  5
4DA
100
AcDbEntity
  8
SUPERFICI
100
AcDbPolyline
 62
250
  6
CONTINUOUS
 90
10
 70
0
 10
-61.661338956
 20
-30.369619874
 10
-61.7573558982
 20
-29.8399726868
 10
-61.8499018101
 20
-29.3156333432
 10
-61.9391654946
 20
-28.7955409175
 10
-62.0252750049
 20
-28.2790052455
 10
-62.1084880023
 20
-27.7645705304
 10
-62.1891705737
 20
-27.250030843
 10
-62.2675559062
 20
-26.7339236708
 10
-62.3437655054
 20
-26.2155142141
 10
-62.4179847593
 20
-25.6936696952
  0
LWPOLYLINE
  5
4DB
100
AcDbEntity
  8
SUPERFICI
100
AcDbPolyline
 62
7
  6
CONTINUOUS
 90
3
 70
0
 10
-61.7741077223
 20
-31.0230033516
 10
-61.7745232122
 20
-31.0207031009
 10
-61.8825557409
 20
-30.3692010398
  0
LINE
  5
4DC
100
AcDbEntity
  8
SUPERFICI
100
AcDbLine
 62
7
  6
CONTINUOUS
 10
-61.7273092447
 20
-31.2888600877
 11
-61.6937146651
 21
-31.4738715209
  0
LINE
  5
4DD
100
AcDbEntity
  8
SUPERFICI
100
AcDbLine
 62
250
  6
CONTINUOUS
 10
-61.844264956
 20
-28.74156814
 11
-62.0165545791
 21
-27.782961523
  0
LINE
  5
4DE
100
AcDbEntity
  8
SUPERFICI
100
AcDbLine
 62
7
  6
CONTINUOUS
 10
-61.7724094541
 20
-31.0328630055
 11
-61.7273092447
 21
-31.2888600877
  0
LINE
  5
4DF
100
AcDbEntity
  8
SUPERFICI
100
AcDbLine
 62
250
  6
CONTINUOUS
 10
-62.0165545791
 20
-27.782961523
 11
-62.1809759695
 21
-26.8379512932
  0
LINE
  5
4E0
100
AcDbEntity
  8
SUPERFICI
100
AcDbLine
 62
7
  6
CONTINUOUS
 10
-61.8121037663
 20
-30.800090728
 11
-61.7724094541
 21
-31.0328630055
  0
LWPOLYLINE
  5
4E1
100
AcDbEntity
  8
SUPERFICI
100
AcDbPolyline
 62
250
  6
CONTINUOUS
 90
3
 70
0
 10
-62.1809759695
 20
-26.8379512932
 10
-62.3395374976
 20
-25.8957111331
 10
-62.4179847593
 20
-25.4181495847
  0
LINE
  5
4E2
100
AcDbEntity
  8
SUPERFICI
100
AcDbLine
 62
7
  6
CONTINUOUS
 10
-61.9066489697
 20
-30.2157343466
 11
-61.8679518737
 21
-30.4602025725
  0
LINE
  5
4E3
100
AcDbEntity
  8
SUPERFICI
100
AcDbLine
 62
7
  6
CONTINUOUS
 10
-61.9066489697
 20
-30.2157343466
 11
-61.9191717356
 21
-30.1349744371
  0
LWPOLYLINE
  5
4E4
100
AcDbEntity
  8
SUPERFICI
100
AcDbPolyline
 62
250
  6
CONTINUOUS
 90
10
 70
0
 10
-62.4179847593
 20
-25.7004238655
 10
-62.3542027865
 20
-26.2926965278
 10
-62.2847923574
 20
-26.8894022975
 10
-62.2099139055
 20
-27.489000296
 10
-62.1295894032
 20
-28.0909711292
 10
-62.044138192
 20
-28.6925166591
 10
-61.954256483
 20
-29.2886637271
 10
-61.8603907155
 20
-29.8766668091
 10
-61.7626583399
 20
-30.4559027288
 10
-61.6613389546
 20
-31.0246453689
  0
LWPOLYLINE
  5
4E5
100
AcDbEntity
  8
SUPERFICI
100
AcDbPolyline
 62
7
  6
CONTINUOUS
 90
10
 70
0
 10
-62.4179858586
 20
-25.7004239387
 10
-62.4360379829
 20
-25.5189004216
 10
-62.4660347816
 20
-25.3376249076
 10
-62.5079669789
 20
-25.157345567
 10
-62.5619570539
 20
-24.9784221342
 10
-62.6278880218
 20
-24.8021063296
 10
-62.7051339495
 20
-24.6304417911
 10
-62.7931906882
 20
-24.4645722492
 10
-62.891945119
 20
-24.3048422292
 10
-63.001115382
 20
-24.1520063295
  0
LINE
  5
4E6
100
AcDbEntity
  8
SUPERFICI
100
AcDbLine
 62
7
  6
CONTINUOUS
 10
-62.4179796351
 20
25.7004990058
 11
-62.4179822812
 21
25.700459911
  0
LINE
  5
4E7
100
AcDbEntity
  8
SUPERFICI
100
AcDbLine
 62
7
  6
CONTINUOUS
 10
-62.4179858586
 20
25.7004239387
 11
-62.4360379829
 21
25.5189004216
  0
LWPOLYLINE
  5
4E8
100
AcDbEntity
  8
SUPERFICI
100
AcDbPolyline
 62
250
  6
CONTINUOUS
 90
10
 70
0
 10
-62.4179847593
 20
25.7004238655
 10
-62.3542028384
 20
26.2926960645
 10
-62.2847924556
 20
26.8894014838
 10
-62.209914041
 20
27.4889992471
 10
-62.1295895649
 20
28.0909699554
 10
-62.0441383653
 20
28.6925154751
 10
-61.9542566485
 20
29.2886626605
 10
-61.8603908504
 20
29.8766659871
 10
-61.7626584202
 20
30.4559022656
 10
-61.6613389546
 20
31.0246453689
  0
LINE
  5
4E9
100
AcDbEntity
  8
SUPERFICI
100
AcDbLine
 62
7
  6
CONTINUOUS
 10
-62.4179784677
 20
25.7004752818
 11
-62.4179861822
 21
25.700412656
  0
LINE
  5
4EA
100
AcDbEntity
  8
SUPERFICI
100
AcDbLine
 62
7
  6
CONTINUOUS
 10
-62.4179878114
 20
25.7004043025
 11
-62.4181379167
 21
25.6992316568
  0
LINE
  5
4EB
100
AcDbEntity
  8
SUPERFICI
100
AcDbLine
 62
7
  6
CONTINUOUS
 10
-62.417959783
 20
25.7008158752
 11
-62.4163311842
 21
25.7130682809
  0
LWPOLYLINE
  5
4EC
100
AcDbEntity
  8
SUPERFICI
100
AcDbPolyline
 62
250
  6
CONTINUOUS
 90
10
 70
0
 10
-62.4179847593
 20
25.693669689
 10
-62.3433210901
 20
26.2185873031
 10
-62.2667595567
 20
26.7392519537
 10
-62.1881230544
 20
27.2568166489
 10
-62.1073082334
 20
27.7719757877
 10
-62.0240864936
 20
28.2862405276
 10
-61.9380798987
 20
28.8019568828
 10
-61.849034719
 20
29.3206138468
 10
-61.7568454291
 20
29.8428257808
 10
-61.661338956
 20
30.369619874
  0
LWPOLYLINE
  5
4ED
100
AcDbEntity
  8
SUPERFICI
100
AcDbPolyline
 62
7
  6
CONTINUOUS
 90
8
 70
0
 10
-61.8825557409
 20
30.3692010398
 10
-61.9842837795
 20
29.7016488309
 10
-62.0783743862
 20
29.0284743927
 10
-62.1642988176
 20
28.354750705
 10
-62.2420803303
 20
27.67989603
 10
-62.3110183004
 20
27.0075427684
 10
-62.3699333734
 20
26.3458747388
 10
-62.4179847593
 20
25.7004238655
  0
LINE
  5
4EE
100
AcDbEntity
  8
SUPERFICI
100
AcDbLine
 62
250
  6
CONTINUOUS
 10
-62.4179847593
 20
22.697553935
 11
-62.3413734274
 21
23.117754909
  0
LWPOLYLINE
  5
4EF
100
AcDbEntity
  8
SUPERFICI
100
AcDbPolyline
 62
250
  6
CONTINUOUS
 90
3
 70
0
 10
-62.4179847593
 20
-22.6975538356
 10
-62.3413734407
 20
-23.1177547406
 10
-62.1841961984
 20
-23.9555934642
  0
LWPOLYLINE
  5
4F0
100
AcDbEntity
  8
SUPERFICI
100
AcDbPolyline
 62
7
  6
CONTINUOUS
 90
8
 70
0
 10
-61.8825557409
 20
-30.3692010398
 10
-61.9842837795
 20
-29.7016488309
 10
-62.0783743862
 20
-29.0284743927
 10
-62.1642988176
 20
-28.354750705
 10
-62.2420803303
 20
-27.67989603
 10
-62.3110183004
 20
-27.0075427684
 10
-62.3699333734
 20
-26.3458747388
 10
-62.4179847593
 20
-25.7004238655
  0
LINE
  5
4F1
100
AcDbEntity
  8
SUPERFICI
100
AcDbLine
 62
7
  6
CONTINUOUS
 10
-62.4180415095
 20
-25.699982074
 11
-62.4179892551
 21
-25.7003897849
  0
LINE
  5
4F2
100
AcDbEntity
  8
SUPERFICI
100
AcDbLine
 62
7
  6
CONTINUOUS
 10
-62.9975122637
 20
23.9818933051
 11
-62.9986582525
 21
24.1520056669
  0
LINE
  5
4F3
100
AcDbEntity
  8
SUPERFICI
100
AcDbLine
 62
7
  6
CONTINUOUS
 10
-63.2050923111
 20
-23.2113304205
 11
-63.2031474058
 21
-23.5639946712
  0
LINE
  5
4F4
100
AcDbEntity
  8
SUPERFICI
100
AcDbLine
 62
7
  6
CONTINUOUS
 10
-62.9937457225
 20
22.2017569107
 11
-62.9975122637
 21
23.9818933051
  0
LINE
  5
4F5
100
AcDbEntity
  8
SUPERFICI
100
AcDbLine
 62
250
  6
CONTINUOUS
 10
-62.991290411
 20
22.2017569107
 11
-62.9914286167
 21
-22.2017569079
  0
LINE
  5
4F6
100
AcDbEntity
  8
SUPERFICI
100
AcDbLine
 62
7
  6
CONTINUOUS
 10
-62.4179847593
 20
-25.7005678486
 11
-62.4179847593
 21
25.7004235177
  0
LINE
  5
4F7
100
AcDbEntity
  8
SUPERFICI
100
AcDbLine
 62
7
  6
CONTINUOUS
 10
-61.6613389581
 20
-31.6476916008
 11
-61.6613389577
 21
-31.6477316737
  0
LINE
  5
4F8
100
AcDbEntity
  8
SUPERFICI
100
AcDbLine
 62
250
  6
CONTINUOUS
 10
-61.6613389576
 20
-31.6477299016
 11
-61.6613389576
 21
31.6476916034
  0
LINE
  5
4F9
100
AcDbEntity
  8
SUPERFICI
100
AcDbLine
 62
7
  6
CONTINUOUS
 10
-63.2050923111
 20
23.2113304063
 11
-63.2050923111
 21
-23.2113304205
  0
LINE
  5
4FA
100
AcDbEntity
  8
SUPERFICI
100
AcDbLine
 62
7
  6
CONTINUOUS
 10
-62.4179847593
 20
25.7006285663
 11
-62.4179858586
 21
25.7004239387
  0
LINE
  5
4FB
100
AcDbEntity
  8
SUPERFICI
100
AcDbLine
 62
7
  6
CONTINUOUS
 10
-62.9937457225
 20
-22.2017569107
 11
-62.997934521
 21
-24.055358127
  0
LINE
  5
4FC
100
AcDbEntity
  8
SUPERFICI
100
AcDbLine
 62
7
  6
CONTINUOUS
 10
-63.2031474058
 20
23.5639946712
 11
-63.2050923111
 21
23.2113304063
  0
LINE
  5
4FD
100
AcDbEntity
  8
SUPERFICI
100
AcDbLine
 62
7
  6
CONTINUOUS
 10
-63.2031462711
 20
23.5641234981
 11
-63.2031474052
 21
23.5639947404
  0
LINE
  5
4FE
100
AcDbEntity
  8
SUPERFICI
100
AcDbLine
 62
7
  6
CONTINUOUS
 10
-62.997934521
 20
-24.055358127
 11
-62.9986582525
 21
-24.1520056669
  0
LINE
  5
4FF
100
AcDbEntity
  8
RACCORDO
100
AcDbLine
 62
7
  6
CONTINUOUS
 10
-56.3374856821
 20
-3.5239590572
 11
-54.4851922365
 21
-3.6860137352
  0
LINE
  5
500
100
AcDbEntity
  8
SUPERFICI
100
AcDbLine
 62
250
  6
CONTINUOUS
 10
-60.6613389618
 20
-35.9116382943
 11
-60.6613389618
 21
35.9116382943
  0
LINE
  5
501
100
AcDbEntity
  8
SUPERFICI
100
AcDbLine
 62
7
  6
CONTINUOUS
 10
-59.6538408137
 20
39.0845848122
 11
-59.6538408137
 21
39.0842599932
  0
LINE
  5
502
100
AcDbEntity
  8
SUPERFICI
100
AcDbLine
 62
7
  6
CONTINUOUS
 10
-59.6538408137
 20
-39.0845848162
 11
-59.6538408137
 21
-39.0842599925
  0
LINE
  5
503
100
AcDbEntity
  8
SUPERFICI
100
AcDbLine
 62
250
  6
CONTINUOUS
 10
-59.6538408137
 20
-39.0826298647
 11
-59.6538408137
 21
39.0826298547
  0
LINE
  5
504
100
AcDbEntity
  8
SUPERFICI
100
AcDbLine
 62
250
  6
CONTINUOUS
 10
-58.7664722478
 20
-39.7484831532
 11
-58.7664722478
 21
39.7484831532
  0
LWPOLYLINE
  5
505
100
AcDbEntity
  8
0
100
AcDbPolyline
 62
7
  6
CONTINUOUS
 90
4
 70
0
 43
0.3500000006
 10
-72.4077670441
 20
-2.3571432495
 10
-73.2649095154
 20
-2.3571432495
 10
-73.693483017
 20
-1.9285708809
 10
-73.693483017
 20
-1.2857140274
  0
LWPOLYLINE
  5
506
100
AcDbEntity
  8
0
100
AcDbPolyline
 62
7
  6
CONTINUOUS
 90
13
 70
0
 43
0.3500000006
 10
-72.8363405457
 20
-0.0000003204
 10
-74.1220565186
 20
-0.0000003204
 10
-74.5506254883
 20
0.2142864304
 10
-74.9791989899
 20
0.642857666
 10
-74.9791989899
 20
0.8571421509
 10
-74.5506254883
 20
1.2857133865
 10
-74.1220565186
 20
1.5000001373
 10
-72.8363405457
 20
1.5000001373
 10
-72.4077670441
 20
1.2857133865
 10
-71.9791980743
 20
0.8571421509
 10
-71.9791980743
 20
0.642857666
 10
-72.4077670441
 20
0.2142864304
 10
-72.8363405457
 20
-0.0000003204
  0
LINE
  5
507
100
AcDbEntity
  8
SUPERFICI
100
AcDbLine
 62
250
  6
CONTINUOUS
 10
-63.2052208069
 20
0.0000000039
 11
-58.7664720193
 21
-0.0
  0
LINE
  5
508
100
AcDbEntity
  8
RACCORDO
100
AcDbLine
 62
7
  6
CONTINUOUS
 10
-56.6113389593
 20
3.2251006478
 11
-56.6113389593
 21
-3.2251006478
  0
LINE
  5
509
100
AcDbEntity
  8
RACCORDO
100
AcDbLine
 62
7
  6
CONTINUOUS
 10
-54.2113389593
 20
36.9999998429
 11
-54.2113389593
 21
3.9848721447
  0
LINE
  5
50A
100
AcDbEntity
  8
0
100
AcDbLine
 62
7
  6
CONTINUOUS
 10
-54.2113389593
 20
-40.0
 11
-54.2113389593
 21
-37.0000287715
  0
LINE
  5
50B
100
AcDbEntity
  8
RACCORDO
100
AcDbLine
 62
7
  6
CONTINUOUS
 10
-54.2113389593
 20
-3.9848721447
 11
-54.2113389593
 21
-36.9999998428
  0
LINE
  5
50C
100
AcDbEntity
  8
0
100
AcDbLine
 62
7
  6
CONTINUOUS
 10
-54.2113389593
 20
37.0000287715
 11
-54.2113389593
 21
40.0
  0
LINE
  5
50D
100
AcDbEntity
  8
0
100
AcDbLine
 62
7
  6
CONTINUOUS
 10
-54.0113389593
 20
38.5087709117
 11
-54.0113389593
 21
36.8085253489
  0
LINE
  5
50E
100
AcDbEntity
  8
RACCORDO
100
AcDbLine
 62
7
  6
CONTINUOUS
 10
-54.0113389593
 20
-36.8085253489
 11
-54.0113389593
 21
-4.2031338449
  0
LINE
  5
50F
100
AcDbEntity
  8
0
100
AcDbLine
 62
7
  6
CONTINUOUS
 10
-54.0113389593
 20
-36.8085253489
 11
-54.0113389593
 21
-38.5087709117
  0
LINE
  5
510
100
AcDbEntity
  8
RACCORDO
100
AcDbLine
 62
7
  6
CONTINUOUS
 10
-54.0113389593
 20
4.2031338449
 11
-54.0113389593
 21
36.8085253489
  0
LINE
  5
511
100
AcDbEntity
  8
RACCORDO
100
AcDbLine
 62
7
  6
CONTINUOUS
 10
-54.4851922365
 20
3.6860137352
 11
-56.3374856821
 21
3.5239590572
  0
LINE
  5
512
100
AcDbEntity
  8
SUPERFICI
100
AcDbLine
 62
7
  6
CONTINUOUS
 10
-63.0009772466
 20
24.1519005589
 11
-63.0012516265
 21
24.1521107976
  0
LINE
  5
513
100
AcDbEntity
  8
SUPERFICI
100
AcDbLine
 62
250
  6
CONTINUOUS
 10
-62.9914286167
 20
22.2017569079
 11
-63.2069980909
 21
22.1997392341
  0
LWPOLYLINE
  5
514
100
AcDbEntity
  8
0
100
AcDbPolyline
 62
7
  6
CONTINUOUS
 90
10
 70
0
 43
0.3500000006
 10
-58.8235337677
 20
50.1300974579
 10
-58.7521071167
 20
49.987239624
 10
-58.7521071167
 20
49.915812973
 10
-58.8949604187
 20
49.7729551392
 10
-58.9663916016
 20
49.7729551392
 10
-59.0378182526
 20
49.844386322
 10
-59.0378182526
 20
49.915812973
 10
-58.9663916016
 20
50.0586708069
 10
-58.8949604187
 20
50.1300974579
 10
-58.8235337677
 20
50.1300974579
  0
LINE
  5
515
100
AcDbEntity
  8
RACCORDO
100
AcDbLine
 62
250
  6
CONTINUOUS
 10
-54.0113389593
 20
29.4561590897
 11
-54.2113389593
 21
29.4542287325
  0
LINE
  5
516
100
AcDbEntity
  8
RACCORDO
100
AcDbLine
 62
250
  6
CONTINUOUS
 10
-54.0113389593
 20
28.8904102545
 11
-54.2113389593
 21
28.8892068288
  0
LINE
  5
517
100
AcDbEntity
  8
RACCORDO
100
AcDbLine
 62
250
  6
CONTINUOUS
 10
-54.2113389593
 20
34.11079327
 11
-54.0113389593
 21
34.1095897456
  0
LINE
  5
518
100
AcDbEntity
  8
RACCORDO
100
AcDbLine
 62
250
  6
CONTINUOUS
 10
-54.2113389593
 20
33.5457713829
 11
-54.0113389593
 21
33.5438409051
  0
LWPOLYLINE
  5
519
100
AcDbEntity
  8
SUPERFICI
100
AcDbPolyline
 62
7
  6
CONTINUOUS
 90
3
 70
0
 10
-58.9435294546
 20
39.7243475197
 10
-58.972943005
 20
39.7173684993
 10
-59.0019455307
 20
39.7096048946
  0
LINE
  5
51A
100
AcDbEntity
  8
SUPERFICI
100
AcDbLine
 62
7
  6
CONTINUOUS
 10
-58.913738387
 20
39.7305236701
 11
-58.9435294546
 21
39.7243475197
  0
LWPOLYLINE
  5
51B
100
AcDbEntity
  8
SUPERFICI
100
AcDbPolyline
 62
7
  6
CONTINUOUS
 90
8
 70
0
 10
-58.7664720193
 20
39.7484790161
 10
-58.8645253002
 20
39.7386986989
 10
-58.9612564179
 20
39.7200861976
 10
-59.0559357406
 20
39.6924879444
 10
-59.1479364088
 20
39.6557701224
 10
-59.2361865281
 20
39.6100360741
 10
-59.3192915856
 20
39.555780164
 10
-59.3962408775
 20
39.4935067354
  0
LWPOLYLINE
  5
51C
100
AcDbEntity
  8
SUPERFICI
100
AcDbPolyline
 62
7
  6
CONTINUOUS
 90
6
 70
0
 10
-58.7664722067
 20
39.7485897595
 10
-58.7911583293
 20
39.7469545912
 10
-58.8222450857
 20
39.7441136878
 10
-58.853049363
 20
39.7404226651
 10
-58.8835705868
 20
39.7358867949
 10
-58.913738387
 20
39.7305236701
  0
LINE
  5
51D
100
AcDbEntity
  8
RACCORDO
100
AcDbLine
 62
7
  6
CONTINUOUS
 10
-54.0113389593
 20
38.5087709117
 11
-54.2113389593
 21
38.4977104844
  0
LINE
  5
51E
100
AcDbEntity
  8
0
100
AcDbLine
 62
7
  6
CONTINUOUS
 10
-54.2113389593
 20
40.0
 11
-58.7664720193
 21
39.7484790161
  0
LWPOLYLINE
  5
51F
100
AcDbEntity
  8
SUPERFICI
100
AcDbPolyline
 62
250
  6
CONTINUOUS
 90
10
 70
0
 10
-58.7664723727
 20
37.1319684617
 10
-58.8975082313
 20
37.1248460913
 10
-59.0255505921
 20
37.1038102537
 10
-59.148796604
 20
37.0684119278
 10
-59.2653764444
 20
37.0182683302
 10
-59.3727958079
 20
36.9532983383
 10
-59.4681181203
 20
36.8739269466
 10
-59.5486194042
 20
36.7806988935
 10
-59.6115741054
 20
36.6741052146
 10
-59.6538408137
 20
36.5549468208
  0
LWPOLYLINE
  5
520
100
AcDbEntity
  8
SUPERFICI
100
AcDbPolyline
 62
250
  6
CONTINUOUS
 90
10
 70
0
 10
-58.7664720193
 20
36.83145662
 10
-58.8970098011
 20
36.8247115376
 10
-59.0246095165
 20
36.8040604363
 10
-59.1474920661
 20
36.7689806446
 10
-59.2638042674
 20
36.7190178907
 10
-59.3710962493
 20
36.6540075917
 10
-59.4664900337
 20
36.5742708229
 10
-59.5472898475
 20
36.4802549527
 10
-59.6107810612
 20
36.3723700144
 10
-59.6538408137
 20
36.2513322422
  0
LINE
  5
521
100
AcDbEntity
  8
RACCORDO
100
AcDbLine
 62
250
  6
CONTINUOUS
 10
-54.0113389593
 20
36.8084910488
 11
-54.2113389593
 21
36.8084910378
  0
LINE
  5
522
100
AcDbEntity
  8
0
100
AcDbLine
 62
250
  6
CONTINUOUS
 10
-54.2113389593
 20
36.9999998429
 11
-58.7664720193
 21
37.0
  0
LWPOLYLINE
  5
523
100
AcDbEntity
  8
0
100
AcDbPolyline
 62
7
  6
CONTINUOUS
 90
7
 70
0
 43
0.3500000006
 10
-56.2521063538
 20
49.6300973053
 10
-57.7521068115
 20
49.6300973053
 10
-56.2521063538
 20
51.7729557495
 10
-56.2521063538
 20
52.2015292511
 10
-56.6806753235
 20
52.6300982208
 10
-57.3235333099
 20
52.6300982208
 10
-57.7521068115
 20
51.9872402344
  0
ARC
  5
524
100
AcDbEntity
  8
0
100
AcDbCircle
 62
7
  6
CONTINUOUS
 10
-37.0000029587
 20
-37.0000029587
 40
3.0000015799
100
AcDbArc
 50
180.000493553
 51
269.9995064471
  0
ARC
  5
525
100
AcDbEntity
  8
SUPERFICI
100
AcDbCircle
 62
250
  6
CONTINUOUS
 10
-37.0000027106
 20
-37.0000027106
 40
2.7484804117
100
AcDbArc
 50
179.999946626
 51
270.0000565066
  0
ARC
  5
526
100
AcDbEntity
  8
SUPERFICI
100
AcDbCircle
 62
250
  6
CONTINUOUS
 10
-22.2587064677
 20
-22.2089552239
 40
0.3429258685
100
AcDbArc
 50
180.0000000014
 51
269.9999999986
  0
ARC
  5
527
100
AcDbEntity
  8
0
100
AcDbCircle
 62
7
  6
CONTINUOUS
 10
-22.2587064677
 20
-22.2089552239
 40
0.3338952187
100
AcDbArc
 50
180.0000000011
 51
269.9999999989
  0
ARC
  5
528
100
AcDbEntity
  8
DRAFT
100
AcDbCircle
 62
7
  6
CONTINUOUS
 10
-22.2587064677
 20
-22.2089552239
 40
0.3181560868
100
AcDbArc
 50
180.0
 51
270.0
  0
ARC
  5
529
100
AcDbEntity
  8
0
100
AcDbCircle
 62
7
  6
CONTINUOUS
 10
-37.0000029587
 20
37.0000029587
 40
3.0000015799
100
AcDbArc
 50
90.0004935533
 51
179.9995064466
  0
ARC
  5
52A
100
AcDbEntity
  8
SUPERFICI
100
AcDbCircle
 62
250
  6
CONTINUOUS
 10
-37.0000027106
 20
37.0000027106
 40
2.7484804228
100
AcDbArc
 50
89.9999434935
 51
180.0000533738
  0
ARC
  5
52B
100
AcDbEntity
  8
SUPERFICI
100
AcDbCircle
 62
250
  6
CONTINUOUS
 10
-22.2587064677
 20
22.2089552239
 40
0.3429258685
100
AcDbArc
 50
90.0000000014
 51
179.9999999987
  0
ARC
  5
52C
100
AcDbEntity
  8
0
100
AcDbCircle
 62
7
  6
CONTINUOUS
 10
-22.2587064677
 20
22.2089552239
 40
0.3338952187
100
AcDbArc
 50
90.0000000011
 51
179.999999999
  0
ARC
  5
52D
100
AcDbEntity
  8
DRAFT
100
AcDbCircle
 62
7
  6
CONTINUOUS
 10
-22.2587064677
 20
22.2089552239
 40
0.3181846342
100
AcDbArc
 50
90.0
 51
180.0
  0
ARC
  5
52E
100
AcDbEntity
  8
0
100
AcDbCircle
 62
7
  6
CONTINUOUS
 10
37.0000029753
 20
-37.0000029753
 40
3.0000015586
100
AcDbArc
 50
270.0004926717
 51
359.999507329
  0
ARC
  5
52F
100
AcDbEntity
  8
SUPERFICI
100
AcDbCircle
 62
250
  6
CONTINUOUS
 10
37.0000027251
 20
-37.0000027251
 40
2.7484803964
100
AcDbArc
 50
269.9999431908
 51
0.0000536768
  0
ARC
  5
530
100
AcDbEntity
  8
SUPERFICI
100
AcDbCircle
 62
250
  6
CONTINUOUS
 10
22.2587064677
 20
-22.2089552239
 40
0.3429258685
100
AcDbArc
 50
270.0000000014
 51
359.9999999987
  0
ARC
  5
531
100
AcDbEntity
  8
0
100
AcDbCircle
 62
7
  6
CONTINUOUS
 10
22.2587064677
 20
-22.2089552239
 40
0.3338952187
100
AcDbArc
 50
270.0000000011
 51
359.999999999
  0
ARC
  5
532
100
AcDbEntity
  8
DRAFT
100
AcDbCircle
 62
7
  6
CONTINUOUS
 10
22.2587064677
 20
-22.2089552239
 40
0.3181560868
100
AcDbArc
 50
270.0
 51
360.0
  0
ARC
  5
533
100
AcDbEntity
  8
0
100
AcDbCircle
 62
7
  6
CONTINUOUS
 10
37.0000029753
 20
37.0000029753
 40
3.0000015586
100
AcDbArc
 50
0.0004926711
 51
89.9995073296
  0
ARC
  5
534
100
AcDbEntity
  8
SUPERFICI
100
AcDbCircle
 62
250
  6
CONTINUOUS
 10
37.0000027251
 20
37.0000027251
 40
2.7484803931
100
AcDbArc
 50
359.9999463232
 51
90.0000568094
  0
ARC
  5
535
100
AcDbEntity
  8
SUPERFICI
100
AcDbCircle
 62
250
  6
CONTINUOUS
 10
22.2587064677
 20
22.2089552239
 40
0.3429258685
100
AcDbArc
 50
0.0000000014
 51
89.9999999986
  0
ARC
  5
536
100
AcDbEntity
  8
0
100
AcDbCircle
 62
7
  6
CONTINUOUS
 10
22.2587064677
 20
22.2089552239
 40
0.3338952187
100
AcDbArc
 50
0.0000000011
 51
89.9999999989
  0
ARC
  5
537
100
AcDbEntity
  8
DRAFT
100
AcDbCircle
 62
7
  6
CONTINUOUS
 10
22.2587064677
 20
22.2089552239
 40
0.3181846342
100
AcDbArc
 50
0.0
 51
90.0
  0
ARC
  5
538
100
AcDbEntity
  8
RACCORDO
100
AcDbCircle
 62
7
  6
CONTINUOUS
 10
-54.3113389593
 20
-4.2031338449
 40
0.3
100
AcDbArc
 50
0.0
 51
72.2932130241
  0
ARC
  5
539
100
AcDbEntity
  8
RACCORDO
100
AcDbCircle
 62
7
  6
CONTINUOUS
 10
-54.3113389593
 20
4.2031338449
 40
0.3
100
AcDbArc
 50
287.7067869759
 51
360.0
  0
ARC
  5
53A
100
AcDbEntity
  8
RACCORDO
100
AcDbCircle
 62
7
  6
CONTINUOUS
 10
-54.5113389593
 20
-3.9848721447
 40
0.3
100
AcDbArc
 50
0.0
 51
85.0
  0
ARC
  5
53B
100
AcDbEntity
  8
RACCORDO
100
AcDbCircle
 62
7
  6
CONTINUOUS
 10
-54.5113389593
 20
3.9848721447
 40
0.3
100
AcDbArc
 50
275.0
 51
360.0
  0
ARC
  5
53C
100
AcDbEntity
  8
RACCORDO
100
AcDbCircle
 62
7
  6
CONTINUOUS
 10
-56.3113389593
 20
-3.2251006478
 40
0.3
100
AcDbArc
 50
180.0
 51
265.0
  0
ARC
  5
53D
100
AcDbEntity
  8
RACCORDO
100
AcDbCircle
 62
7
  6
CONTINUOUS
 10
-56.3113389593
 20
3.2251006478
 40
0.3
100
AcDbArc
 50
95.0
 51
180.0
  0
ELLIPSE
  5
53E
100
AcDbEntity
  8
RACCORDO
100
AcDbEllipse
 62
7
  6
CONTINUOUS
 10
39.9834348867
 20
-3.9848721447
 30
0.0
 11
-0.0
 21
0.3
 31
0.0
 40
0.0552170443
 41
-1.5707963268
 42
-0.0872664626
  0
ELLIPSE
  5
53F
100
AcDbEntity
  8
RACCORDO
100
AcDbEllipse
 62
7
  6
CONTINUOUS
 10
39.9834348867
 20
3.9848721447
 30
0.0
 11
-0.0
 21
0.3
 31
0.0
 40
0.0552170443
 41
-3.054326191
 42
-1.5707963268
  0
ELLIPSE
  5
540
100
AcDbEntity
  8
RACCORDO
100
AcDbEllipse
 62
7
  6
CONTINUOUS
 10
-39.9834348867
 20
3.9848721447
 30
0.0
 11
-0.0
 21
0.3
 31
0.0
 40
0.0552170443
 41
-4.7123889804
 42
-3.2288591162
  0
ELLIPSE
  5
541
100
AcDbEntity
  8
RACCORDO
100
AcDbEllipse
 62
7
  6
CONTINUOUS
 10
-39.9834348867
 20
-3.9848721447
 30
0.0
 11
-0.0
 21
0.3
 31
0.0
 40
0.0552170443
 41
0.0872664626
 42
1.5707963268
  0
ELLIPSE
  5
542
100
AcDbEntity
  8
RACCORDO
100
AcDbEllipse
 62
7
  6
CONTINUOUS
 10
-39.884044207
 20
-3.2251006478
 30
0.0
 11
0.0
 21
0.3
 31
0.0
 40
0.0552170443
 41
-3.054326191
 42
-1.5707963268
  0
ELLIPSE
  5
543
100
AcDbEntity
  8
RACCORDO
100
AcDbEllipse
 62
7
  6
CONTINUOUS
 10
-39.884044207
 20
3.2251006478
 30
0.0
 11
-0.0
 21
0.3
 31
0.0
 40
0.0552170443
 41
-1.5707963268
 42
-0.0872664626
  0
ELLIPSE
  5
544
100
AcDbEntity
  8
RACCORDO
100
AcDbEllipse
 62
7
  6
CONTINUOUS
 10
39.884044207
 20
3.2251006478
 30
0.0
 11
-0.0
 21
0.3
 31
0.0
 40
0.0552170443
 41
0.0872664626
 42
1.5707963268
  0
ELLIPSE
  5
545
100
AcDbEntity
  8
RACCORDO
100
AcDbEllipse
 62
7
  6
CONTINUOUS
 10
39.884044207
 20
-3.2251006478
 30
0.0
 11
0.0
 21
0.3
 31
0.0
 40
0.0552170443
 41
-4.7123889804
 42
-3.2288591162
  0
ENDSEC
  0
SECTION
  2
OBJECTS
  0
DICTIONARY
  5
C
100
AcDbDictionary
280
0
281
1
  3
ACAD_GROUP
350
D
  3
ACAD_MLINESTYLE
350
17
  3
ACAD_LAYOUT
350
1A
  3
ACAD_PLOTSETTINGS
350
19
  3
ACAD_PLOTSTYLENAME
350
E
  0
DICTIONARY
  5
D
102
{ACAD_REACTORS
330
C
102
}
100
AcDbDictionary
280
0
281
1
  0
ACDBDICTIONARYWDFLT
  5
E
102
{ACAD_REACTORS
330
C
102
}
100
AcDbDictionary
281
1
  3
Normal
350
F
100
AcDbDictionaryWithDefault
340
F
  0
DICTIONARY
  5
17
102
{ACAD_REACTORS
330
C
102
}
100
AcDbDictionary
280
0
281
1
  3
Standard
350
18
  0
DICTIONARY
  5
19
102
{ACAD_REACTORS
330
C
102
}
100
AcDbDictionary
281
1
  0
DICTIONARY
  5
1A
102
{ACAD_REACTORS
330
C
102
}
100
AcDbDictionary
281
1
  3
Model
350
546
  3
Layout1
350
547
  0
ACDBPLACEHOLDER
  5
F
102
{ACAD_REACTORS
330
E
102
}
  0
MLINESTYLE
  5
18
102
{ACAD_REACTORS
330
17
102
}
100
AcDbMlineStyle
  2
STANDARD
 70
0
  3

 62
256
 51
90.0
 52
90.0
 71
2
 49
0.5
 62
256
  6
BYLAYER
 49
-0.5
 62
256
  6
BYLAYER
  0
LAYOUT
  5
546
102
{ACAD_REACTORS
330
1A
102
}
100
AcDbPlotSettings
  1

  2
none_device
  4
ISO_A4_(297.00_x_210.00_MM)
  6

 40
0.0
 41
0.0
 42
0.0
 43
0.0
 44
297.0
 45
210.0
 46
0.0
 47
0.0
 48
0.0
 49
0.0
140
0.0
141
0.0
142
1.0
143
1.0
 70
1024
 72
1
 73
0
 74
0
  7

 75
0
147
1.0
148
0.0
149
0.0
100
AcDbLayout
  1
Model
 70
0
 71
0
 10
0.0
 20
0.0
 11
297.0
 21
210.0
 12
0.0
 22
0.0
 32
0.0
 14
0.0
 24
0.0
 34
0.0
 15
0.0
 25
0.0
 35
0.0
146
0.0
 13
0.0
 23
0.0
 33
0.0
 16
1.0
 26
0.0
 36
0.0
 17
0.0
 27
1.0
 37
0.0
 76
0
330
216
345
0
346
0
  0
LAYOUT
  5
547
102
{ACAD_REACTORS
330
1A
102
}
100
AcDbPlotSettings
  1

  2
none_device
  4
ISO_A4_(297.00_x_210.00_MM)
  6

 40
0.0
 41
0.0
 42
0.0
 43
0.0
 44
297.0
 45
210.0
 46
0.0
 47
0.0
 48
0.0
 49
0.0
140
0.0
141
0.0
142
1.0
143
1.0
 70
0
 72
1
 73
0
 74
0
  7

 75
0
147
1.0
148
0.0
149
0.0
100
AcDbLayout
  1
Layout1
 70
0
 71
1
 10
0.0
 20
0.0
 11
297.0
 21
210.0
 12
0.0
 22
0.0
 32
0.0
 14
0.0
 24
0.0
 34
0.0
 15
0.0
 25
0.0
 35
0.0
146
0.0
 13
0.0
 23
0.0
 33
0.0
 16
1.0
 26
0.0
 36
0.0
 17
0.0
 27
1.0
 37
0.0
 76
0
330
217
345
0
346
0
  0
ENDSEC
  0
EOF
