  0
SECTION
  2
HEADER
  9
$ACADVER
  1
AC1015
  9
$DWGCODEPAGE
  3
ANSI_1252
  9
$EXTMAX
 10
558.8
 20
431.8
 30
0.0
  9
$EXTMIN
 10
0.0
 20
0.0
 30
0.0
  9
$LIMMIN
 10
0.0
 20
0.0
  9
$LIMMAX
 10
558.8
 20
431.8
  9
$VIEWCTR
 10
279.4
 20
215.9
  9
$VIEWSIZE
 40
431.8
  9
$CLAYER
  8
0
  9
$LTSCALE
 40
30.734
  9
$CELTYPE
  6
BYLAYER
  9
$DIMSCALE
 40
1.0
  9
$DIMASZ
 40
3.0
  9
$DIMEXO
 40
3.4925
  9
$DIMDLI
 40
21.2344
  9
$DIMEXE
 40
10.0584
  9
$DIMCEN
 40
5.0292
  9
$DIMLFAC
 40
1.0
  9
$DIMBLK
  1
_FILLED
  9
$DIMTXT
 40
3.0
  9
$DIMTOL
 70
1
  9
$DIMLIM
 70
0
  9
$DIMTFAC
 40
1.0
  9
$DIMTP
 40
0.01
  9
$DIMTM
 40
0.01
  9
$PDMODE
 70
3
  9
$PDSIZE
 40
3.0
  9
$HANDSEED
  5
62D
  9
$TILEMODE
 70
1
  9
$MEASUREMENT
 70
1
  9
$INSUNITS
 70
4
  0
ENDSEC
  0
SECTION
  2
CLASSES
  0
CLASS
  1
ACDBDICTIONARYWDFLT
  2
AcDbDictionaryWithDefault
  3
AutoCAD 2000
 90
0
280
0
281
0
  0
CLASS
  1
ACDBPLACEHOLDER
  2
AcDbPlaceHolder
  3
AutoCAD 2000
 90
0
280
0
281
0
  0
CLASS
  1
LAYOUT
  2
AcDbLayout
  3
AutoCAD 2000
 90
0
280
0
281
0
  0
ENDSEC
  0
SECTION
  2
TABLES
  0
TABLE
  2
VPORT
  5
8
100
AcDbSymbolTable
 70
2
  0
VPORT
  5
1F4
100
AcDbSymbolTableRecord
100
AcDbViewportTableRecord
  2
*ACTIVE
 70
0
 10
0.0
 20
0.0
 11
1.0
 21
1.0
 12
279.4
 22
215.9
 13
0.0
 23
0.0
 14
1.0
 24
1.0
 15
0.0
 25
0.0
 16
0.0
 26
0.0
 36
1.0
 17
0.0
 27
0.0
 37
0.0
 40
431.8
 41
1.2941176471
 42
50.0
 43
0.0
 44
0.0
 50
0.0
 51
0.0
 71
0
 72
100
 73
1
 74
1
 75
0
 76
0
 77
0
 78
0
  0
ENDTAB
  0
TABLE
  2
LTYPE
  5
5
100
AcDbSymbolTable
 70
6
  0
LTYPE
  5
14
100
AcDbSymbolTableRecord
100
AcDbLinetypeTableRecord
  2
BYBLOCK
 70
0
  3

 72
65
 73
0
 40
0.0
  0
LTYPE
  5
15
100
AcDbSymbolTableRecord
100
AcDbLinetypeTableRecord
  2
BYLAYER
 70
0
  3

 72
65
 73
0
 40
0.0
  0
LTYPE
  5
16
100
AcDbSymbolTableRecord
100
AcDbLinetypeTableRecord
  2
CONTINUOUS
 70
64
  3
Solid line
 72
65
 73
0
 40
0.0
  0
LTYPE
  5
1F5
100
AcDbSymbolTableRecord
100
AcDbLinetypeTableRecord
  2
CENTER
 70
64
  3
____ _ ____ _ ____ _ ____ _ ____ _ ____ _ ____
 72
65
 73
4
 40
0.6
 49
0.375
 74
0
 49
-0.075
 74
0
 49
0.075
 74
0
 49
-0.075
 74
0
  0
LTYPE
  5
1F6
100
AcDbSymbolTableRecord
100
AcDbLinetypeTableRecord
  2
HIDDEN
 70
64
  3
- - - - - - - - - - - - - - - - - - - -
 72
65
 73
2
 40
0.2
 49
0.1
 74
0
 49
-0.1
 74
0
  0
LTYPE
  5
1F7
100
AcDbSymbolTableRecord
100
AcDbLinetypeTableRecord
  2
PHANTOM
 70
64
  3
_____ _ _ _____ _ _ _____ _ _ _____
 72
65
 73
6
 40
0.8
 49
0.45
 74
0
 49
-0.05
 74
0
 49
0.1
 74
0
 49
-0.05
 74
0
 49
0.1
 74
0
 49
-0.05
 74
0
  0
LTYPE
  5
1F8
100
AcDbSymbolTableRecord
100
AcDbLinetypeTableRecord
  2
DOT
 70
64
  3
. . . . . . . . . . . . . . . . . . . .
 72
65
 73
2
 40
0.2
 49
0.1
 74
0
 49
-0.1
 74
0
  0
LTYPE
  5
1F9
100
AcDbSymbolTableRecord
100
AcDbLinetypeTableRecord
  2
DASHED
 70
64
  3
- - - - - - - - - - - - - - - - - - - -
 72
65
 73
2
 40
0.2
 49
0.1
 74
0
 49
-0.1
 74
0
  0
ENDTAB
  0
TABLE
  2
LAYER
  5
2
100
AcDbSymbolTable
 70
36
  0
LAYER
  5
10
100
AcDbSymbolTableRecord
100
AcDbLayerTableRecord
  2
0
 70
0
 62
7
  6
CONTINUOUS
370
-3
390
F
  0
LAYER
  5
1FA
100
AcDbSymbolTableRecord
100
AcDbLayerTableRecord
  2
DEFAULT_1
 70
0
 62
7
  6
CENTER
370
-3
390
F
  0
LAYER
  5
1FB
100
AcDbSymbolTableRecord
100
AcDbLayerTableRecord
  2
DEFAULT_2
 70
0
 62
7
  6
HIDDEN
370
-3
390
F
  0
LAYER
  5
1FC
100
AcDbSymbolTableRecord
100
AcDbLayerTableRecord
  2
DEFAULT_3
 70
0
 62
7
  6
PHANTOM
370
-3
390
F
  0
LAYER
  5
1FD
100
AcDbSymbolTableRecord
100
AcDbLayerTableRecord
  2
ASSI
 70
0
 62
7
  6
CONTINUOUS
370
-3
390
F
  0
LAYER
  5
1FE
100
AcDbSymbolTableRecord
100
AcDbLayerTableRecord
  2
COORDINATE
 70
0
 62
7
  6
CONTINUOUS
370
-3
390
F
  0
LAYER
  5
1FF
100
AcDbSymbolTableRecord
100
AcDbLayerTableRecord
  2
COORD_ORIGINE
 70
0
 62
7
  6
CONTINUOUS
370
-3
390
F
  0
LAYER
  5
200
100
AcDbSymbolTableRecord
100
AcDbLayerTableRecord
  2
CURVE
 70
0
 62
7
  6
CONTINUOUS
370
-3
390
F
  0
LAYER
  5
201
100
AcDbSymbolTableRecord
100
AcDbLayerTableRecord
  2
DRAFT
 70
0
 62
7
  6
CONTINUOUS
370
-3
390
F
  0
LAYER
  5
202
100
AcDbSymbolTableRecord
100
AcDbLayerTableRecord
  2
IGES
 70
0
 62
7
  6
CONTINUOUS
370
-3
390
F
  0
LAYER
  5
203
100
AcDbSymbolTableRecord
100
AcDbLayerTableRecord
  2
IGES-SCRITTE
 70
0
 62
7
  6
CONTINUOUS
370
-3
390
F
  0
LAYER
  5
204
100
AcDbSymbolTableRecord
100
AcDbLayerTableRecord
  2
PIANI
 70
0
 62
7
  6
CONTINUOUS
370
-3
390
F
  0
LAYER
  5
205
100
AcDbSymbolTableRecord
100
AcDbLayerTableRecord
  2
PIANI_ORIGINE
 70
0
 62
7
  6
CONTINUOUS
370
-3
390
F
  0
LAYER
  5
206
100
AcDbSymbolTableRecord
100
AcDbLayerTableRecord
  2
PIANI_RIF
 70
0
 62
7
  6
CONTINUOUS
370
-3
390
F
  0
LAYER
  5
207
100
AcDbSymbolTableRecord
100
AcDbLayerTableRecord
  2
PPP
 70
0
 62
7
  6
CONTINUOUS
370
-3
390
F
  0
LAYER
  5
208
100
AcDbSymbolTableRecord
100
AcDbLayerTableRecord
  2
RACCORDO
 70
0
 62
7
  6
CONTINUOUS
370
-3
390
F
  0
LAYER
  5
209
100
AcDbSymbolTableRecord
100
AcDbLayerTableRecord
  2
SNAPLINE
 70
0
 62
7
  6
CONTINUOUS
370
-3
390
F
  0
LAYER
  5
20A
100
AcDbSymbolTableRecord
100
AcDbLayerTableRecord
  2
SUPERFICI
 70
0
 62
7
  6
CONTINUOUS
370
-3
390
F
  0
LAYER
  5
20B
100
AcDbSymbolTableRecord
100
AcDbLayerTableRecord
  2
TRASH
 70
0
 62
7
  6
CONTINUOUS
370
-3
390
F
  0
LAYER
  5
20C
100
AcDbSymbolTableRecord
100
AcDbLayerTableRecord
  2
___SHELL
 70
0
 62
7
  6
CONTINUOUS
370
-3
390
F
  0
ENDTAB
  0
TABLE
  2
STYLE
  5
3
100
AcDbSymbolTable
 70
1
  0
STYLE
  5
11
100
AcDbSymbolTableRecord
100
AcDbTextStyleTableRecord
  2
STANDARD
 70
0
 40
0.0
 41
0.8
 50
0.0
 71
0
 42
0.2
  3
txt
  4

  0
STYLE
  5
20D
100
AcDbSymbolTableRecord
100
AcDbTextStyleTableRecord
  2
TEXTSTYLE_1
 70
0
 40
0.0
 41
0.8
 50
0.0
 71
0
 42
0.2
  3
gdt
  4

  0
ENDTAB
  0
TABLE
  2
VIEW
  5
6
100
AcDbSymbolTable
 70
0
  0
ENDTAB
  0
TABLE
  2
UCS
  5
7
100
AcDbSymbolTable
 70
0
  0
ENDTAB
  0
TABLE
  2
APPID
  5
9
100
AcDbSymbolTable
 70
1
  0
APPID
  5
20E
100
AcDbSymbolTableRecord
100
AcDbRegAppTableRecord
  2
ACAD
 70
0
  0
ENDTAB
  0
TABLE
  2
BLOCK_RECORD
  5
1
100
AcDbSymbolTable
 70
0
  0
BLOCK_RECORD
  5
20F
100
AcDbSymbolTableRecord
100
AcDbBlockTableRecord
  2
*Model_Space
  0
BLOCK_RECORD
  5
210
100
AcDbSymbolTableRecord
100
AcDbBlockTableRecord
  2
*Paper_Space
  0
BLOCK_RECORD
  5
211
100
AcDbSymbolTableRecord
100
AcDbBlockTableRecord
  2
_FILLED
  0
BLOCK_RECORD
  5
212
100
AcDbSymbolTableRecord
100
AcDbBlockTableRecord
  2
*D0
  0
BLOCK_RECORD
  5
213
100
AcDbSymbolTableRecord
100
AcDbBlockTableRecord
  2
*D1
  0
BLOCK_RECORD
  5
214
100
AcDbSymbolTableRecord
100
AcDbBlockTableRecord
  2
*D2
  0
ENDTAB
  0
TABLE
  2
DIMSTYLE
  5
A
100
AcDbSymbolTable
 70
1
100
AcDbDimStyleTable
 71
0
  0
DIMSTYLE
105
215
100
AcDbSymbolTableRecord
100
AcDbDimStyleTableRecord
  2
STANDARD
 70
0
  3

  4

 40
1.0
 41
3.0
 42
0.0625
 43
0.38
 44
0.18
 45
0.0
 46
0.0
 47
0.01
 48
0.01
140
3.0
141
0.09
142
0.0
143
25.4
144
1.0
145
0.0
146
1.0
147
0.09
 71
1.0
 72
0.0
 73
0
 74
0
 75
0
 76
0
 77
1
 78
8
170
0
171
2
172
0
173
0
174
0
175
0
176
0
177
0
178
0
270
2
271
2
272
2
273
2
274
2
275
0
280
0
281
0
282
0
283
1
284
8
285
0
286
0
287
3
288
0
340
11
341
211
342
211
343
211
344
211
  0
DIMSTYLE
105
216
100
AcDbSymbolTableRecord
100
AcDbDimStyleTableRecord
  2
DIMSTYLE_1
 70
0
  3

  4

 40
1.0
 41
3.0
 42
0.0625
 43
0.38
 44
0.18
 45
0.0
 46
0.0
 47
0.0
 48
0.0
140
3.0
141
0.09
142
0.0
143
25.4
144
1.0
145
0.0
146
1.0
147
0.09
 71
0.0
 72
0.0
 73
0
 74
0
 75
0
 76
0
 77
1
 78
8
170
0
171
2
172
0
173
0
174
0
175
0
176
0
177
0
178
0
270
2
271
1
272
1
273
2
274
2
275
0
280
0
281
0
282
0
283
1
284
8
285
0
286
0
287
3
288
0
340
11
341
211
342
211
343
211
344
211
  0
DIMSTYLE
105
217
100
AcDbSymbolTableRecord
100
AcDbDimStyleTableRecord
  2
DIMSTYLE_2
 70
0
  3

  4

 40
1.0
 41
3.0
 42
0.0625
 43
0.38
 44
0.18
 45
0.0
 46
0.0
 47
0.0
 48
0.0
140
3.0
141
0.09
142
0.0
143
25.4
144
1.0
145
0.0
146
1.0
147
0.09
 71
0.0
 72
0.0
 73
0
 74
0
 75
0
 76
0
 77
1
 78
8
170
0
171
2
172
0
173
0
174
0
175
0
176
0
177
0
178
0
270
2
271
2
272
2
273
2
274
2
275
0
280
0
281
0
282
0
283
1
284
8
285
0
286
0
287
3
288
0
340
11
341
211
342
211
343
211
344
211
  0
ENDTAB
  0
ENDSEC
  0
SECTION
  2
BLOCKS
  0
BLOCK
  5
20
100
AcDbEntity
  8
0
100
AcDbBlockBegin
  2
*Model_Space
 70
0
 10
0.0
 20
0.0
 30
0.0
  3
*Model_Space
  1

  0
ENDBLK
  5
21
100
AcDbEntity
  8
0
100
AcDbBlockEnd
  0
BLOCK
  5
1C
100
AcDbEntity
  8
0
100
AcDbBlockBegin
  2
*Paper_Space
 70
0
 10
0.0
 20
0.0
 30
0.0
  3
*Paper_Space
  1

  0
ENDBLK
  5
1D
100
AcDbEntity
  8
0
100
AcDbBlockEnd
  0
BLOCK
  5
218
100
AcDbEntity
  8
0
100
AcDbBlockBegin
  2
_FILLED
 70
64
 10
0.0
 20
0.0
  3
_FILLED
  1

  0
SOLID
  5
219
100
AcDbEntity
  8
0
  6
BYBLOCK
 62
0
100
AcDbTrace
 10
0.0
 20
0.0
 11
-1.0
 21
0.3166666667
 12
-1.0
 22
-0.3166666667
 13
-1.0
 23
-0.3166666667
  0
ENDBLK
  5
21A
100
AcDbEntity
  8
0
  6
BYBLOCK
 62
0
100
AcDbBlockEnd
  0
BLOCK
  5
21B
100
AcDbEntity
  8
0
100
AcDbBlockBegin
 62
7
  6
CONTINUOUS
  2
*D0
 70
65
 10
0.0
 20
0.0
  3
*D0
  1

  0
MTEXT
  5
21C
100
AcDbEntity
  8
0
100
AcDbMText
 62
7
  6
CONTINUOUS
  7
STANDARD
 71
2
 72
1
 10
-100.896739677
 20
51.7500171785
 30
0.0
 11
1.0
 21
0.0
 31
0.0
 44
0.9
  1
9
 40
3.0
 41
2.3571428571
  0
LINE
  5
21D
100
AcDbEntity
  8
0
100
AcDbLine
 62
7
  6
CONTINUOUS
 10
-96.3767160524
 20
37.5414682025
 11
-96.3767160524
 21
49.5000171785
  0
LINE
  5
21E
100
AcDbEntity
  8
0
100
AcDbLine
 62
7
  6
CONTINUOUS
 10
-105.4167633016
 20
22.77077515
 11
-105.4167633016
 21
49.5000171785
  0
LINE
  5
21F
100
AcDbEntity
  8
0
100
AcDbLine
 62
7
  6
CONTINUOUS
 10
-96.3767160524
 20
48.0000171785
 11
-92.3767160524
 21
48.0000171785
  0
LINE
  5
220
100
AcDbEntity
  8
0
100
AcDbLine
 62
7
  6
CONTINUOUS
 10
-92.3767160524
 20
48.0000171785
 11
-100.896739677
 21
48.0000171785
  0
LINE
  5
221
100
AcDbEntity
  8
0
100
AcDbLine
 62
7
  6
CONTINUOUS
 10
-105.4167633016
 20
48.0000171785
 11
-109.4167633016
 21
48.0000171785
  0
LINE
  5
222
100
AcDbEntity
  8
0
100
AcDbLine
 62
7
  6
CONTINUOUS
 10
-109.4167633016
 20
48.0000171785
 11
-100.896739677
 21
48.0000171785
  0
INSERT
  5
223
100
AcDbEntity
  8
0
100
AcDbBlockReference
 62
7
  6
CONTINUOUS
  2
_FILLED
 10
-96.3767160524
 20
48.0000171785
 41
3.0
 42
3.0
 43
3.0
 50
180.0
  0
INSERT
  5
224
100
AcDbEntity
  8
0
100
AcDbBlockReference
 62
7
  6
CONTINUOUS
  2
_FILLED
 10
-105.4167633016
 20
48.0000171785
 41
3.0
 42
3.0
 43
3.0
  0
ENDBLK
  5
225
100
AcDbEntity
  8
0
  6
BYBLOCK
 62
0
100
AcDbBlockEnd
  0
BLOCK
  5
226
100
AcDbEntity
  8
0
100
AcDbBlockBegin
 62
7
  6
CONTINUOUS
  2
*D1
 70
65
 10
0.0
 20
0.0
  3
*D1
  1

  0
MTEXT
  5
227
100
AcDbEntity
  8
0
100
AcDbMText
 62
7
  6
CONTINUOUS
  7
STANDARD
 71
2
 72
1
 10
0.0000000721
 20
51.7500171785
 30
0.0
 11
1.0
 21
0.0
 31
0.0
 44
0.9
  1
120
 40
3.0
 41
6.4285714286
  0
LINE
  5
228
100
AcDbEntity
  8
0
100
AcDbLine
 62
7
  6
CONTINUOUS
 10
-60.0144306326
 20
37.541468365
 11
-60.0144306146
 21
49.5000172686
  0
LINE
  5
229
100
AcDbEntity
  8
0
100
AcDbLine
 62
7
  6
CONTINUOUS
 10
60.0144307453
 20
37.5414682025
 11
60.0144307633
 21
49.5000170884
  0
LINE
  5
22A
100
AcDbEntity
  8
0
100
AcDbLine
 62
7
  6
CONTINUOUS
 10
-60.0144306169
 20
48.0000172686
 11
0.0000000721
 21
48.0000171785
  0
LINE
  5
22B
100
AcDbEntity
  8
0
100
AcDbLine
 62
7
  6
CONTINUOUS
 10
60.014430761
 20
48.0000170884
 11
0.0000000721
 21
48.0000171785
  0
INSERT
  5
22C
100
AcDbEntity
  8
0
100
AcDbBlockReference
 62
7
  6
CONTINUOUS
  2
_FILLED
 10
-60.0144306169
 20
48.0000172686
 41
3.0
 42
3.0
 43
3.0
 50
179.999999914
  0
INSERT
  5
22D
100
AcDbEntity
  8
0
100
AcDbBlockReference
 62
7
  6
CONTINUOUS
  2
_FILLED
 10
60.014430761
 20
48.0000170884
 41
3.0
 42
3.0
 43
3.0
 50
359.999999914
  0
ENDBLK
  5
22E
100
AcDbEntity
  8
0
  6
BYBLOCK
 62
0
100
AcDbBlockEnd
  0
BLOCK
  5
22F
100
AcDbEntity
  8
0
100
AcDbBlockBegin
 62
7
  6
CONTINUOUS
  2
*D2
 70
65
 10
0.0
 20
0.0
  3
*D2
  1

  0
MTEXT
  5
230
100
AcDbEntity
  8
0
100
AcDbMText
 62
7
  6
CONTINUOUS
  7
STANDARD
 71
2
 72
1
 10
64.2644307446
 20
0.0
 30
0.0
 11
0.0
 21
1.0
 31
0.0
 44
0.9
  1
80
 40
3.0
 41
4.7142857143
  0
LINE
  5
231
100
AcDbEntity
  8
0
100
AcDbLine
 62
7
  6
CONTINUOUS
 10
57.5560215924
 20
40.0000171785
 11
69.5144307446
 21
40.0000171785
  0
LINE
  5
232
100
AcDbEntity
  8
0
100
AcDbLine
 62
7
  6
CONTINUOUS
 10
57.556021592
 20
-40.0000171785
 11
69.5144307446
 21
-40.0000171785
  0
LINE
  5
233
100
AcDbEntity
  8
0
100
AcDbLine
 62
7
  6
CONTINUOUS
 10
68.0144307446
 20
40.0000171785
 11
68.0144307446
 21
0.0
  0
LINE
  5
234
100
AcDbEntity
  8
0
100
AcDbLine
 62
7
  6
CONTINUOUS
 10
68.0144307446
 20
-40.0000171785
 11
68.0144307446
 21
0.0
  0
INSERT
  5
235
100
AcDbEntity
  8
0
100
AcDbBlockReference
 62
7
  6
CONTINUOUS
  2
_FILLED
 10
68.0144307446
 20
40.0000171785
 41
3.0
 42
3.0
 43
3.0
 50
90.0
  0
INSERT
  5
236
100
AcDbEntity
  8
0
100
AcDbBlockReference
 62
7
  6
CONTINUOUS
  2
_FILLED
 10
68.0144307446
 20
-40.0000171785
 41
3.0
 42
3.0
 43
3.0
 50
270.0
  0
ENDBLK
  5
237
100
AcDbEntity
  8
0
  6
BYBLOCK
 62
0
100
AcDbBlockEnd
  0
ENDSEC
  0
SECTION
  2
ENTITIES
  0
DIMENSION
  5
238
100
AcDbEntity
  8
0
100
AcDbDimension
 62
7
  6
CONTINUOUS
  2
*D0
 10
-105.4167633016
 20
48.0000171785
 11
-102.0753111056
 21
50.2500171785
 70
160
 71
2
 42
9.0400472492
  3
DIMSTYLE_1
100
AcDbAlignedDimension
 13
-96.3767160524
 23
37.5414682025
 14
-105.4167633016
 24
22.77077515
 50
180.0
100
AcDbRotatedDimension
  0
DIMENSION
  5
239
100
AcDbEntity
  8
0
100
AcDbDimension
 62
7
  6
CONTINUOUS
  2
*D1
 10
60.014430761
 20
48.0000170884
 11
-3.2142856422
 21
50.2500171785
 70
160
 71
2
 42
120.0288613779
  3
DIMSTYLE_1
100
AcDbAlignedDimension
 13
-60.0144306326
 23
37.541468365
 14
60.0144307453
 24
37.5414682025
 50
359.999999914
100
AcDbRotatedDimension
  0
DIMENSION
  5
23A
100
AcDbEntity
  8
0
100
AcDbDimension
 62
7
  6
CONTINUOUS
  2
*D2
 10
68.0144307446
 20
-40.0000171785
 11
66.8206042683
 21
-2.1072778499
 70
160
 71
2
 42
80.000034357
  3
DIMSTYLE_2
100
AcDbAlignedDimension
 13
57.5560215924
 23
40.0000171785
 14
57.556021592
 24
-40.0000171785
 50
270.0
100
AcDbRotatedDimension
  0
LINE
  5
23B
100
AcDbEntity
  8
RACCORDO
100
AcDbLine
 62
7
  6
CONTINUOUS
 10
-60.0144306333
 20
37.041468365
 11
-60.0144306826
 21
4.2017731098
  0
LINE
  5
23C
100
AcDbEntity
  8
RACCORDO
100
AcDbLine
 62
7
  6
CONTINUOUS
 10
-60.0144306953
 20
-4.2018133435
 11
-60.0144307446
 21
-37.0414682034
  0
LINE
  5
23D
100
AcDbEntity
  8
RACCORDO
100
AcDbLine
 62
7
  6
CONTINUOUS
 10
-59.9095676754
 20
3.0614916516
 11
-59.9095676846
 21
-3.0615318854
  0
LINE
  5
23E
100
AcDbEntity
  8
SUPERFICI
100
AcDbLine
 62
7
  6
CONTINUOUS
 10
-59.7793862641
 20
-37.041528033
 11
-59.7793860135
 21
37.0415282172
  0
LINE
  5
23F
100
AcDbEntity
  8
0
100
AcDbLine
 62
253
  6
CONTINUOUS
 10
-57.0560584637
 20
40.0000171765
 11
-57.0560426185
 21
39.7652449073
  0
LINE
  5
240
100
AcDbEntity
  8
0
100
AcDbLine
 62
253
  6
CONTINUOUS
 10
-57.0560268936
 20
-39.7652449043
 11
-57.056042739
 21
-40.0000171785
  0
LINE
  5
241
100
AcDbEntity
  8
RACCORDO
100
AcDbLine
 62
7
  6
CONTINUOUS
 10
-59.9323615953
 20
-3.5572543161
 11
-59.9916367846
 21
-3.7060909128
  0
LINE
  5
242
100
AcDbEntity
  8
RACCORDO
100
AcDbLine
 62
7
  6
CONTINUOUS
 10
-59.9916367735
 20
3.7060506791
 11
-59.9323615846
 21
3.5572140823
  0
LINE
  5
243
100
AcDbEntity
  8
0
100
AcDbLine
 62
7
  6
CONTINUOUS
 10
-57.0560194764
 20
-40.0000171785
 11
57.056021592
 21
-40.0000171785
  0
LINE
  5
244
100
AcDbEntity
  8
SUPERFICI
100
AcDbLine
 62
253
  6
CONTINUOUS
 10
56.8292162955
 20
-39.7651716251
 11
-56.8292166499
 21
-39.7651626484
  0
LINE
  5
245
100
AcDbEntity
  8
SUPERFICI
100
AcDbLine
 62
253
  6
CONTINUOUS
 10
-33.8807110199
 20
-22.2690501701
 11
-33.8807109537
 21
22.2690502784
  0
LINE
  5
246
100
AcDbEntity
  8
0
100
AcDbLine
 62
7
  6
CONTINUOUS
 10
-33.857253429
 20
-22.2590517627
 11
-33.8572533621
 21
22.2590582356
  0
LINE
  5
247
100
AcDbEntity
  8
SUPERFICI
100
AcDbLine
 62
253
  6
CONTINUOUS
 10
-35.5075644273
 20
22.2707977367
 11
-35.5047795265
 21
-22.2707990378
  0
LINE
  5
248
100
AcDbEntity
  8
0
100
AcDbLine
 62
253
  6
CONTINUOUS
 10
59.7793859137
 20
-37.0415281228
 11
60.0144307446
 21
-37.0415193283
  0
LINE
  5
249
100
AcDbEntity
  8
0
100
AcDbLine
 62
253
  6
CONTINUOUS
 10
-59.7793862641
 20
-37.041528033
 11
-60.0144307446
 21
-37.0415104437
  0
LINE
  5
24A
100
AcDbEntity
  8
SUPERFICI
100
AcDbLine
 62
253
  6
CONTINUOUS
 10
-29.2678202233
 20
25.8213738376
 11
-29.2678202562
 21
24.2025938286
  0
LINE
  5
24B
100
AcDbEntity
  8
SUPERFICI
100
AcDbLine
 62
253
  6
CONTINUOUS
 10
-29.2678197513
 20
-25.8217039374
 11
-29.2678197191
 21
-24.1990425004
  0
LINE
  5
24C
100
AcDbEntity
  8
0
100
AcDbLine
 62
7
  6
CONTINUOUS
 10
31.6118832938
 20
-28.7846585041
 11
31.0318612938
 21
-28.7846665041
  0
LINE
  5
24D
100
AcDbEntity
  8
0
100
AcDbLine
 62
7
  6
CONTINUOUS
 10
29.5167782938
 20
-28.7846585041
 11
28.9367702938
 21
-28.7846665041
  0
LINE
  5
24E
100
AcDbEntity
  8
0
100
AcDbLine
 62
7
  6
CONTINUOUS
 10
36.1817392938
 20
-28.7846515041
 11
35.5284342938
 21
-28.7846585041
  0
LINE
  5
24F
100
AcDbEntity
  8
0
100
AcDbLine
 62
7
  6
CONTINUOUS
 10
27.2283662938
 20
-28.7846665041
 11
26.6483442938
 21
-28.7846735041
  0
LINE
  5
250
100
AcDbEntity
  8
0
100
AcDbLine
 62
7
  6
CONTINUOUS
 10
25.3305332938
 20
-28.7846665041
 11
24.7504902938
 21
-28.7846735041
  0
LINE
  5
251
100
AcDbEntity
  8
0
100
AcDbLine
 62
7
  6
CONTINUOUS
 10
30.6451822938
 20
-28.7846665041
 11
30.0651602938
 21
-28.7846665041
  0
LINE
  5
252
100
AcDbEntity
  8
0
100
AcDbLine
 62
7
  6
CONTINUOUS
 10
28.3883952938
 20
-28.7846665041
 11
27.8083732938
 21
-28.7846665041
  0
LINE
  5
253
100
AcDbEntity
  8
0
100
AcDbLine
 62
7
  6
CONTINUOUS
 10
34.4408832938
 20
-28.7846585041
 11
33.8608542938
 21
-28.7846585041
  0
LINE
  5
254
100
AcDbEntity
  8
0
100
AcDbLine
 62
7
  6
CONTINUOUS
 10
33.4741762938
 20
-28.7846665041
 11
32.8941472938
 21
-28.7846585041
  0
LINE
  5
255
100
AcDbEntity
  8
0
100
AcDbLine
 62
7
  6
CONTINUOUS
 10
32.7110412938
 20
-28.2143305041
 11
31.7949962938
 21
-28.2143305041
  0
LINE
  5
256
100
AcDbEntity
  8
0
100
AcDbLine
 62
7
  6
CONTINUOUS
 10
31.9719182938
 20
-27.6633085041
 11
32.5341122938
 21
-27.6633085041
  0
LINE
  5
257
100
AcDbEntity
  8
0
100
AcDbLine
 62
7
  6
CONTINUOUS
 10
34.9471802938
 20
-27.6633085041
 11
34.4409492938
 21
-27.6633015041
  0
LINE
  5
258
100
AcDbEntity
  8
0
100
AcDbLine
 62
7
  6
CONTINUOUS
 10
34.4328872938
 20
-27.1267795041
 11
35.1385632938
 21
-27.1267795041
  0
LINE
  5
259
100
AcDbEntity
  8
0
100
AcDbLine
 62
7
  6
CONTINUOUS
 10
35.1385632938
 20
-26.4210495041
 11
34.4328792938
 21
-26.4210495041
  0
LINE
  5
25A
100
AcDbEntity
  8
0
100
AcDbLine
 62
7
  6
CONTINUOUS
 10
23.8193582938
 20
-25.8845355041
 11
24.3993872938
 21
-25.8845355041
  0
LINE
  5
25B
100
AcDbEntity
  8
0
100
AcDbLine
 62
7
  6
CONTINUOUS
 10
25.6816442938
 20
-25.8845355041
 11
26.2616732938
 21
-25.8845355041
  0
LINE
  5
25C
100
AcDbEntity
  8
0
100
AcDbLine
 62
7
  6
CONTINUOUS
 10
26.6483512938
 20
-25.8845355041
 11
27.2283732938
 21
-25.8845355041
  0
LINE
  5
25D
100
AcDbEntity
  8
0
100
AcDbLine
 62
7
  6
CONTINUOUS
 10
27.8083732938
 20
-25.8845355041
 11
28.6852102938
 21
-25.8845355041
  0
LINE
  5
25E
100
AcDbEntity
  8
0
100
AcDbLine
 62
7
  6
CONTINUOUS
 10
29.7683452938
 20
-25.8845355041
 11
30.6451822938
 21
-25.8845355041
  0
LINE
  5
25F
100
AcDbEntity
  8
0
100
AcDbLine
 62
7
  6
CONTINUOUS
 10
31.9629862938
 20
-25.8845285041
 11
32.5430362938
 21
-25.8845285041
  0
LINE
  5
260
100
AcDbEntity
  8
0
100
AcDbLine
 62
7
  6
CONTINUOUS
 10
33.8608542938
 20
-25.8845285041
 11
35.2190692938
 21
-25.8845285041
  0
LINE
  5
261
100
AcDbEntity
  8
SUPERFICI
100
AcDbLine
 62
253
  6
CONTINUOUS
 10
31.2050771781
 20
-24.1990401076
 11
29.2678191887
 21
-24.1990425443
  0
LINE
  5
262
100
AcDbEntity
  8
SUPERFICI
100
AcDbLine
 62
253
  6
CONTINUOUS
 10
-29.2678197191
 20
-24.1990425004
 11
-31.2050779576
 21
-24.1990400607
  0
LINE
  5
263
100
AcDbEntity
  8
SUPERFICI
100
AcDbLine
 62
253
  6
CONTINUOUS
 10
33.5785953429
 20
-22.5707970253
 11
-33.5785958357
 21
-22.5707970151
  0
LINE
  5
264
100
AcDbEntity
  8
0
100
AcDbLine
 62
7
  6
CONTINUOUS
 10
-33.5685392544
 20
-22.5476327475
 11
33.5646919107
 21
-22.5476327475
  0
LINE
  5
265
100
AcDbEntity
  8
0
100
AcDbLine
 62
7
  6
CONTINUOUS
 10
-33.5785957675
 20
22.570797024
 11
-33.5656929087
 21
22.5476327512
  0
LINE
  5
266
100
AcDbEntity
  8
SUPERFICI
100
AcDbLine
 62
253
  6
CONTINUOUS
 10
-0.0000001899
 20
39.7651070306
 11
-0.0000002699
 21
22.5707575742
  0
LINE
  5
267
100
AcDbEntity
  8
SUPERFICI
100
AcDbLine
 62
253
  6
CONTINUOUS
 10
-0.0000001608
 20
-39.765107027
 11
-0.0000002371
 21
-22.5707575682
  0
LINE
  5
268
100
AcDbEntity
  8
0
100
AcDbLine
 62
7
  6
CONTINUOUS
 10
33.8807105275
 20
22.2690502276
 11
33.857253045
 21
22.254592271
  0
LINE
  5
269
100
AcDbEntity
  8
SUPERFICI
100
AcDbLine
 62
253
  6
CONTINUOUS
 10
-35.5040891984
 20
0.000000057
 11
-33.8805825228
 21
0.000000054
  0
LINE
  5
26A
100
AcDbEntity
  8
SUPERFICI
100
AcDbLine
 62
253
  6
CONTINUOUS
 10
35.5040887043
 20
0.0000000037
 11
33.8805820639
 21
0.0000000037
  0
LINE
  5
26B
100
AcDbEntity
  8
SUPERFICI
100
AcDbLine
 62
253
  6
CONTINUOUS
 10
-59.7793057775
 20
0.0000000914
 11
-37.3717763778
 21
0.0000000592
  0
LINE
  5
26C
100
AcDbEntity
  8
SUPERFICI
100
AcDbLine
 62
253
  6
CONTINUOUS
 10
37.371775914
 20
0.0000000036
 11
59.7793054827
 21
0.0000000017
  0
LINE
  5
26D
100
AcDbEntity
  8
0
100
AcDbLine
 62
7
  6
CONTINUOUS
 10
33.8807105506
 20
-22.2684683186
 11
33.857253045
 21
-22.2556039625
  0
LINE
  5
26E
100
AcDbEntity
  8
0
100
AcDbLine
 62
7
  6
CONTINUOUS
 10
24.7504902938
 20
-28.7846735041
 11
23.8193582938
 21
-25.8845355041
  0
LINE
  5
26F
100
AcDbEntity
  8
0
100
AcDbLine
 62
7
  6
CONTINUOUS
 10
33.5785953429
 20
-22.5707970253
 11
33.5646919107
 21
-22.5476327475
  0
LINE
  5
270
100
AcDbEntity
  8
0
100
AcDbLine
 62
7
  6
CONTINUOUS
 10
35.5284342938
 20
-28.7846585041
 11
34.9471802938
 21
-27.6633085041
  0
LINE
  5
271
100
AcDbEntity
  8
0
100
AcDbLine
 62
7
  6
CONTINUOUS
 10
35.5643350845
 20
-27.593554171
 11
36.1817392938
 21
-28.7846515041
  0
LINE
  5
272
100
AcDbEntity
  8
0
100
AcDbLine
 62
7
  6
CONTINUOUS
 10
24.3993872938
 20
-25.8845355041
 11
25.0405192938
 21
-27.8814315041
  0
LINE
  5
273
100
AcDbEntity
  8
0
100
AcDbLine
 62
7
  6
CONTINUOUS
 10
-33.5656929087
 20
22.5476327512
 11
33.5685290588
 21
22.5476327524
  0
LINE
  5
274
100
AcDbEntity
  8
SUPERFICI
100
AcDbLine
 62
253
  6
CONTINUOUS
 10
-33.5785957675
 20
22.570797024
 11
33.5785953425
 21
22.5707970351
  0
LINE
  5
275
100
AcDbEntity
  8
SUPERFICI
100
AcDbLine
 62
253
  6
CONTINUOUS
 10
29.2678191856
 20
24.1990425514
 11
31.2050774268
 21
24.1990401147
  0
LINE
  5
276
100
AcDbEntity
  8
SUPERFICI
100
AcDbLine
 62
253
  6
CONTINUOUS
 10
-29.2678196516
 20
24.1987513061
 11
-33.5804705183
 21
24.19980415
  0
LINE
  5
277
100
AcDbEntity
  8
0
100
AcDbLine
 62
7
  6
CONTINUOUS
 10
32.5341122938
 20
-27.6633085041
 11
32.2530072938
 21
-26.7877695041
  0
LINE
  5
278
100
AcDbEntity
  8
0
100
AcDbLine
 62
7
  6
CONTINUOUS
 10
32.8941472938
 20
-28.7846585041
 11
32.7110412938
 21
-28.2143305041
  0
LINE
  5
279
100
AcDbEntity
  8
0
100
AcDbLine
 62
7
  6
CONTINUOUS
 10
32.5430362938
 20
-25.8845285041
 11
33.4741762938
 21
-28.7846665041
  0
LINE
  5
27A
100
AcDbEntity
  8
0
100
AcDbLine
 62
7
  6
CONTINUOUS
 10
28.9367702938
 20
-28.7846665041
 11
28.3883952938
 21
-26.8722245041
  0
LINE
  5
27B
100
AcDbEntity
  8
0
100
AcDbLine
 62
7
  6
CONTINUOUS
 10
28.6852102938
 20
-25.8845355041
 11
29.2267782938
 21
-27.7732035041
  0
LINE
  5
27C
100
AcDbEntity
  8
0
100
AcDbLine
 62
7
  6
CONTINUOUS
 10
26.6483442938
 20
-28.7846735041
 11
26.6483512938
 21
-25.8845355041
  0
LINE
  5
27D
100
AcDbEntity
  8
0
100
AcDbLine
 62
7
  6
CONTINUOUS
 10
27.2283732938
 20
-25.8845355041
 11
27.2283662938
 21
-28.7846665041
  0
LINE
  5
27E
100
AcDbEntity
  8
0
100
AcDbLine
 62
7
  6
CONTINUOUS
 10
27.8083732938
 20
-28.7846665041
 11
27.8083732938
 21
-25.8845355041
  0
LINE
  5
27F
100
AcDbEntity
  8
0
100
AcDbLine
 62
7
  6
CONTINUOUS
 10
28.3883952938
 20
-26.8722245041
 11
28.3883952938
 21
-28.7846665041
  0
LINE
  5
280
100
AcDbEntity
  8
SUPERFICI
100
AcDbLine
 62
253
  6
CONTINUOUS
 10
29.2678197996
 20
-25.8213737871
 11
29.2678197996
 21
-24.2025937776
  0
LINE
  5
281
100
AcDbEntity
  8
SUPERFICI
100
AcDbLine
 62
253
  6
CONTINUOUS
 10
29.2678197984
 20
24.2025937847
 11
29.2678197983
 21
25.8213737935
  0
LINE
  5
282
100
AcDbEntity
  8
0
100
AcDbLine
 62
7
  6
CONTINUOUS
 10
30.0651602938
 20
-28.7846665041
 11
30.0651532938
 21
-26.8722245041
  0
LINE
  5
283
100
AcDbEntity
  8
0
100
AcDbLine
 62
7
  6
CONTINUOUS
 10
30.6451822938
 20
-25.8845355041
 11
30.6451822938
 21
-28.7846665041
  0
LINE
  5
284
100
AcDbEntity
  8
0
100
AcDbLine
 62
7
  6
CONTINUOUS
 10
33.857253045
 20
-22.2556039625
 11
33.857253045
 21
22.254592271
  0
LINE
  5
285
100
AcDbEntity
  8
0
100
AcDbLine
 62
7
  6
CONTINUOUS
 10
33.8608542938
 20
-28.7846585041
 11
33.8608542938
 21
-25.8845285041
  0
LINE
  5
286
100
AcDbEntity
  8
SUPERFICI
100
AcDbLine
 62
253
  6
CONTINUOUS
 10
33.8807105275
 20
22.2690502276
 11
33.8807105506
 21
-22.2684683186
  0
LINE
  5
287
100
AcDbEntity
  8
0
100
AcDbLine
 62
7
  6
CONTINUOUS
 10
25.0405192938
 20
-27.8814315041
 11
25.6816442938
 21
-25.8845355041
  0
LINE
  5
288
100
AcDbEntity
  8
0
100
AcDbLine
 62
7
  6
CONTINUOUS
 10
26.2616732938
 20
-25.8845355041
 11
25.3305332938
 21
-28.7846665041
  0
LINE
  5
289
100
AcDbEntity
  8
0
100
AcDbLine
 62
7
  6
CONTINUOUS
 10
34.4328792938
 20
-26.4210495041
 11
34.4328872938
 21
-27.1267795041
  0
LINE
  5
28A
100
AcDbEntity
  8
0
100
AcDbLine
 62
7
  6
CONTINUOUS
 10
34.4409492938
 20
-27.6633015041
 11
34.4408832938
 21
-28.7846585041
  0
LINE
  5
28B
100
AcDbEntity
  8
SUPERFICI
100
AcDbLine
 62
253
  6
CONTINUOUS
 10
35.5075639669
 20
-22.2707976762
 11
35.5047789985
 21
22.2707990983
  0
LINE
  5
28C
100
AcDbEntity
  8
0
100
AcDbLine
 62
7
  6
CONTINUOUS
 10
29.2267782938
 20
-27.7732035041
 11
29.7683452938
 21
-25.8845355041
  0
LINE
  5
28D
100
AcDbEntity
  8
0
100
AcDbLine
 62
7
  6
CONTINUOUS
 10
30.0651532938
 20
-26.8722245041
 11
29.5167782938
 21
-28.7846585041
  0
LINE
  5
28E
100
AcDbEntity
  8
0
100
AcDbLine
 62
7
  6
CONTINUOUS
 10
31.0318612938
 20
-28.7846665041
 11
31.9629862938
 21
-25.8845285041
  0
LINE
  5
28F
100
AcDbEntity
  8
0
100
AcDbLine
 62
7
  6
CONTINUOUS
 10
32.2530072938
 20
-26.7877695041
 11
31.9719182938
 21
-27.6633085041
  0
LINE
  5
290
100
AcDbEntity
  8
0
100
AcDbLine
 62
7
  6
CONTINUOUS
 10
31.7949962938
 20
-28.2143305041
 11
31.6118832938
 21
-28.7846585041
  0
LINE
  5
291
100
AcDbEntity
  8
0
100
AcDbLine
 62
253
  6
CONTINUOUS
 10
59.7795744865
 20
37.0415193314
 11
60.0144307446
 21
37.0415105354
  0
LINE
  5
292
100
AcDbEntity
  8
0
100
AcDbLine
 62
253
  6
CONTINUOUS
 10
-59.7793860135
 20
37.0415282172
 11
-60.0144306333
 21
37.0415194215
  0
LINE
  5
293
100
AcDbEntity
  8
SUPERFICI
100
AcDbLine
 62
253
  6
CONTINUOUS
 10
-56.8292165298
 20
39.7651717643
 11
56.8292162948
 21
39.7651625849
  0
LINE
  5
294
100
AcDbEntity
  8
0
100
AcDbLine
 62
7
  6
CONTINUOUS
 10
57.0560215924
 20
40.0000171785
 11
-57.0560211173
 21
40.0000171765
  0
LINE
  5
295
100
AcDbEntity
  8
0
100
AcDbLine
 62
253
  6
CONTINUOUS
 10
57.0560424873
 20
-39.7652447676
 11
57.0560584356
 21
-40.0000171785
  0
LINE
  5
296
100
AcDbEntity
  8
0
100
AcDbLine
 62
253
  6
CONTINUOUS
 10
57.0560265385
 20
39.7652447721
 11
57.0560424867
 21
40.0000171785
  0
LINE
  5
297
100
AcDbEntity
  8
RACCORDO
100
AcDbLine
 62
7
  6
CONTINUOUS
 10
59.9916368147
 20
3.7060506791
 11
59.9323615735
 21
3.5572140823
  0
LINE
  5
298
100
AcDbEntity
  8
RACCORDO
100
AcDbLine
 62
7
  6
CONTINUOUS
 10
59.9323615735
 20
-3.5572543161
 11
59.9916368147
 21
-3.7060909128
  0
LINE
  5
299
100
AcDbEntity
  8
RACCORDO
100
AcDbLine
 62
7
  6
CONTINUOUS
 10
59.9095676436
 20
3.0614916516
 11
59.9095676436
 21
-3.0615318854
  0
LINE
  5
29A
100
AcDbEntity
  8
RACCORDO
100
AcDbLine
 62
7
  6
CONTINUOUS
 10
60.0144307446
 20
-37.0414682211
 11
60.0144307446
 21
-4.2018133435
  0
LINE
  5
29B
100
AcDbEntity
  8
RACCORDO
100
AcDbLine
 62
7
  6
CONTINUOUS
 10
60.0144307446
 20
4.2017731098
 11
60.0144307446
 21
37.0414682025
  0
LINE
  5
29C
100
AcDbEntity
  8
0
100
AcDbLine
 62
7
  6
CONTINUOUS
 10
-100.8571115799
 20
-39.7652447676
 11
-96.3767160524
 21
-40.0000171785
  0
LWPOLYLINE
  5
29D
100
AcDbEntity
  8
SUPERFICI
100
AcDbPolyline
 62
7
  6
CONTINUOUS
 90
5
 70
0
 10
-100.8934867257
 20
-39.7625608041
 10
-100.8814848028
 20
-39.7635824841
 10
-100.8728659957
 20
-39.7642268207
 10
-100.8666018636
 20
-39.7646485133
 10
-100.8595586129
 20
-39.7650757788
  0
LINE
  5
29E
100
AcDbEntity
  8
SUPERFICI
100
AcDbLine
 62
7
  6
CONTINUOUS
 10
-100.9244587426
 20
-39.7592493279
 11
-100.9078166744
 21
-39.7611500973
  0
LINE
  5
29F
100
AcDbEntity
  8
SUPERFICI
100
AcDbLine
 62
7
  6
CONTINUOUS
 10
-101.3033637835
 20
39.6343249101
 11
-101.3054841219
 21
39.6331015243
  0
LINE
  5
2A0
100
AcDbEntity
  8
SUPERFICI
100
AcDbLine
 62
7
  6
CONTINUOUS
 10
-101.2986850757
 20
39.6369998649
 11
-101.3011101326
 21
39.6356175961
  0
LINE
  5
2A1
100
AcDbEntity
  8
SUPERFICI
100
AcDbLine
 62
7
  6
CONTINUOUS
 10
-101.3034423777
 20
39.6344397993
 11
-101.2868355715
 21
39.643744307
  0
LWPOLYLINE
  5
2A2
100
AcDbEntity
  8
SUPERFICI
100
AcDbPolyline
 62
7
  6
CONTINUOUS
 90
7
 70
0
 10
-101.2620768815
 20
39.6567904229
 10
-101.2670577329
 20
39.654214219
 10
-101.2716835756
 20
39.6517892727
 10
-101.2759729928
 20
39.6495126052
 10
-101.2799765129
 20
39.6473631249
 10
-101.2836930191
 20
39.6453463909
 10
-101.2903364086
 20
39.6416898106
  0
LINE
  5
2A3
100
AcDbEntity
  8
SUPERFICI
100
AcDbLine
 62
7
  6
CONTINUOUS
 10
-101.219391471
 20
39.6774256054
 11
-101.2933646663
 21
39.6400008371
  0
LINE
  5
2A4
100
AcDbEntity
  8
0
100
AcDbLine
 62
253
  6
CONTINUOUS
 10
-100.8596052399
 20
-37.0415281228
 11
-96.3767160524
 21
-37.0415193283
  0
LWPOLYLINE
  5
2A5
100
AcDbEntity
  8
SUPERFICI
100
AcDbPolyline
 62
7
  6
CONTINUOUS
 90
16
 70
0
 10
-101.2476316388
 20
-39.6640603656
 10
-101.2306703166
 20
-39.6722220867
 10
-101.2107287697
 20
-39.6813151055
 10
-101.1881056725
 20
-39.6909934268
 10
-101.163438982
 20
-39.7007995392
 10
-101.1363168258
 20
-39.7107139501
 10
-101.107056501
 20
-39.7204251892
 10
-101.0774722068
 20
-39.7292368111
 10
-101.0476428353
 20
-39.737124962
 10
-101.0175323611
 20
-39.7440980915
 10
-100.9888811209
 20
-39.7498303318
 10
-100.9618926292
 20
-39.7544390768
 10
-100.9364639902
 20
-39.7580896684
 10
-100.9139241246
 20
-39.7607707101
 10
-100.894749188
 20
-39.762644454
 10
-100.8785437197
 20
-39.7639379369
  0
LWPOLYLINE
  5
2A6
100
AcDbEntity
  8
SUPERFICI
100
AcDbPolyline
 62
7
  6
CONTINUOUS
 90
4
 70
0
 10
-101.2925039247
 20
-39.6404823897
 10
-101.2844391931
 20
-39.6449390069
 10
-101.2743448248
 20
-39.6503799834
 10
-101.2620384895
 20
-39.6568101499
  0
LINE
  5
2A7
100
AcDbEntity
  8
SUPERFICI
100
AcDbLine
 62
7
  6
CONTINUOUS
 10
-101.3052631832
 20
-39.633229337
 11
-101.2994056158
 21
-39.6365901155
  0
LINE
  5
2A8
100
AcDbEntity
  8
SUPERFICI
100
AcDbLine
 62
7
  6
CONTINUOUS
 10
-101.4073518149
 20
39.5659136637
 11
-101.4113874174
 21
39.5628743842
  0
LWPOLYLINE
  5
2A9
100
AcDbEntity
  8
SUPERFICI
100
AcDbPolyline
 62
7
  6
CONTINUOUS
 90
3
 70
0
 10
-101.4026983733
 20
39.5693777059
 10
-101.4035970795
 20
39.5687120609
 10
-101.4073518149
 20
39.5659136637
  0
LINE
  5
2AA
100
AcDbEntity
  8
SUPERFICI
100
AcDbLine
 62
7
  6
CONTINUOUS
 10
-101.3959433206
 20
39.5743302447
 11
-101.4000774198
 21
39.5713098696
  0
LINE
  5
2AB
100
AcDbEntity
  8
SUPERFICI
100
AcDbLine
 62
7
  6
CONTINUOUS
 10
-101.3920759644
 20
39.5771259169
 11
-101.3959433206
 21
39.5743302447
  0
LINE
  5
2AC
100
AcDbEntity
  8
SUPERFICI
100
AcDbLine
 62
7
  6
CONTINUOUS
 10
-101.3884496397
 20
39.579721546
 11
-101.3920759644
 21
39.5771259169
  0
LINE
  5
2AD
100
AcDbEntity
  8
SUPERFICI
100
AcDbLine
 62
7
  6
CONTINUOUS
 10
-101.3843866873
 20
39.582600468
 11
-101.3884496397
 21
39.579721546
  0
LINE
  5
2AE
100
AcDbEntity
  8
SUPERFICI
100
AcDbLine
 62
7
  6
CONTINUOUS
 10
-101.3806101403
 20
39.5852491458
 11
-101.3843866873
 21
39.582600468
  0
LINE
  5
2AF
100
AcDbEntity
  8
SUPERFICI
100
AcDbLine
 62
7
  6
CONTINUOUS
 10
-101.377094665
 20
39.5876914217
 11
-101.3806101403
 21
39.5852491458
  0
LINE
  5
2B0
100
AcDbEntity
  8
SUPERFICI
100
AcDbLine
 62
7
  6
CONTINUOUS
 10
-101.3727769947
 20
39.590660719
 11
-101.3765325574
 21
39.5880798677
  0
LINE
  5
2B1
100
AcDbEntity
  8
SUPERFICI
100
AcDbLine
 62
7
  6
CONTINUOUS
 10
-101.3693156397
 20
39.5930173716
 11
-101.3727769947
 21
39.590660719
  0
LINE
  5
2B2
100
AcDbEntity
  8
SUPERFICI
100
AcDbLine
 62
7
  6
CONTINUOUS
 10
-101.3652598595
 20
39.5957522773
 11
-101.3688437213
 21
39.5933370568
  0
LINE
  5
2B3
100
AcDbEntity
  8
SUPERFICI
100
AcDbLine
 62
7
  6
CONTINUOUS
 10
-101.361609212
 20
39.5981899647
 11
-101.3648349126
 21
39.5960371947
  0
LINE
  5
2B4
100
AcDbEntity
  8
SUPERFICI
100
AcDbLine
 62
7
  6
CONTINUOUS
 10
-101.3576425298
 20
39.6008133351
 11
-101.3608491271
 21
39.5986946778
  0
LINE
  5
2B5
100
AcDbEntity
  8
SUPERFICI
100
AcDbLine
 62
7
  6
CONTINUOUS
 10
-101.353647525
 20
39.6034292884
 11
-101.3569753031
 21
39.6012520484
  0
LINE
  5
2B6
100
AcDbEntity
  8
SUPERFICI
100
AcDbLine
 62
7
  6
CONTINUOUS
 10
-101.3496007816
 20
39.6060531057
 11
-101.3528448047
 21
39.6039518076
  0
LINE
  5
2B7
100
AcDbEntity
  8
SUPERFICI
100
AcDbLine
 62
7
  6
CONTINUOUS
 10
-101.3399158082
 20
39.6122411763
 11
-101.348808929
 21
39.6065635465
  0
LINE
  5
2B8
100
AcDbEntity
  8
SUPERFICI
100
AcDbLine
 62
7
  6
CONTINUOUS
 10
-101.3356567649
 20
39.6149246489
 11
-101.3389619029
 21
39.6128447429
  0
LINE
  5
2B9
100
AcDbEntity
  8
SUPERFICI
100
AcDbLine
 62
7
  6
CONTINUOUS
 10
-101.3316786015
 20
39.6174046116
 11
-101.3352355198
 21
39.6151884649
  0
LINE
  5
2BA
100
AcDbEntity
  8
SUPERFICI
100
AcDbLine
 62
7
  6
CONTINUOUS
 10
-101.3240210674
 20
39.6221062961
 11
-101.3283171899
 21
39.6194801316
  0
LWPOLYLINE
  5
2BB
100
AcDbEntity
  8
SUPERFICI
100
AcDbPolyline
 62
7
  6
CONTINUOUS
 90
3
 70
0
 10
-101.3184480739
 20
39.6254689934
 10
-101.3196864105
 20
39.6247260657
 10
-101.3240210674
 20
39.6221062961
  0
LINE
  5
2BC
100
AcDbEntity
  8
SUPERFICI
100
AcDbLine
 62
7
  6
CONTINUOUS
 10
-101.3110873366
 20
39.6298349645
 11
-101.3157568504
 21
39.6270751848
  0
LINE
  5
2BD
100
AcDbEntity
  8
SUPERFICI
100
AcDbLine
 62
7
  6
CONTINUOUS
 10
-101.2868355715
 20
39.643744307
 11
-101.3318107341
 21
39.6175568527
  0
LWPOLYLINE
  5
2BE
100
AcDbEntity
  8
SUPERFICI
100
AcDbPolyline
 62
7
  6
CONTINUOUS
 90
5
 70
0
 10
-101.3318704123
 20
-39.617519994
 10
-101.2867822117
 20
-39.6437735446
 10
-101.3032274869
 20
-39.6345628895
 10
-101.2955667171
 20
-39.638904468
 10
-101.2190682728
 20
-39.6775719044
  0
LINE
  5
2BF
100
AcDbEntity
  8
SUPERFICI
100
AcDbLine
 62
7
  6
CONTINUOUS
 10
-101.3140878444
 20
-39.628065553
 11
-101.3099817015
 21
-39.6304834181
  0
LWPOLYLINE
  5
2C0
100
AcDbEntity
  8
SUPERFICI
100
AcDbPolyline
 62
7
  6
CONTINUOUS
 90
3
 70
0
 10
-101.3232882642
 20
-39.6225513053
 10
-101.3206543954
 20
-39.6241436472
 10
-101.3140878444
 20
-39.628065553
  0
LINE
  5
2C1
100
AcDbEntity
  8
SUPERFICI
100
AcDbLine
 62
7
  6
CONTINUOUS
 10
-101.3309599075
 20
-39.6178499195
 11
-101.3256166492
 21
-39.62113441
  0
LINE
  5
2C2
100
AcDbEntity
  8
SUPERFICI
100
AcDbLine
 62
7
  6
CONTINUOUS
 10
-101.3356610731
 20
-39.6149219617
 11
-101.3309599075
 21
-39.6178499195
  0
LINE
  5
2C3
100
AcDbEntity
  8
SUPERFICI
100
AcDbLine
 62
7
  6
CONTINUOUS
 10
-101.339745795
 20
-39.6123488687
 11
-101.3356610731
 21
-39.6149219617
  0
LINE
  5
2C4
100
AcDbEntity
  8
SUPERFICI
100
AcDbLine
 62
7
  6
CONTINUOUS
 10
-101.3430978365
 20
-39.6102177617
 11
-101.339745795
 21
-39.6123488687
  0
LINE
  5
2C5
100
AcDbEntity
  8
SUPERFICI
100
AcDbLine
 62
7
  6
CONTINUOUS
 10
-101.3547110882
 20
-39.6027354011
 11
-101.3514143201
 21
-39.6048804398
  0
LINE
  5
2C6
100
AcDbEntity
  8
SUPERFICI
100
AcDbLine
 62
7
  6
CONTINUOUS
 10
-101.3585702157
 20
-39.6002021611
 11
-101.3553738202
 21
-39.6023020926
  0
LINE
  5
2C7
100
AcDbEntity
  8
SUPERFICI
100
AcDbLine
 62
7
  6
CONTINUOUS
 10
-101.3627892367
 20
-39.5974044929
 11
-101.3593143289
 21
-39.599710889
  0
LINE
  5
2C8
100
AcDbEntity
  8
SUPERFICI
100
AcDbLine
 62
7
  6
CONTINUOUS
 10
-101.3664508513
 20
-39.5949521126
 11
-101.3631869714
 21
-39.5971392112
  0
LINE
  5
2C9
100
AcDbEntity
  8
SUPERFICI
100
AcDbLine
 62
7
  6
CONTINUOUS
 10
-101.3707567372
 20
-39.5920387648
 11
-101.3672907146
 21
-39.5943863803
  0
LINE
  5
2CA
100
AcDbEntity
  8
SUPERFICI
100
AcDbLine
 62
7
  6
CONTINUOUS
 10
-101.3773037272
 20
-39.5875468184
 11
-101.3739474233
 21
-39.5898590888
  0
LINE
  5
2CB
100
AcDbEntity
  8
SUPERFICI
100
AcDbLine
 62
7
  6
CONTINUOUS
 10
-101.3813604977
 20
-39.5847249728
 11
-101.3777975068
 21
-39.5872049381
  0
LINE
  5
2CC
100
AcDbEntity
  8
SUPERFICI
100
AcDbLine
 62
7
  6
CONTINUOUS
 10
-101.3851244287
 20
-39.5820800099
 11
-101.3813604977
 21
-39.5847249728
  0
LINE
  5
2CD
100
AcDbEntity
  8
SUPERFICI
100
AcDbLine
 62
7
  6
CONTINUOUS
 10
-101.38852871
 20
-39.579665228
 11
-101.3851244287
 21
-39.5820800099
  0
LINE
  5
2CE
100
AcDbEntity
  8
SUPERFICI
100
AcDbLine
 62
7
  6
CONTINUOUS
 10
-101.3927327985
 20
-39.5766531264
 11
-101.389113454
 21
-39.5792482709
  0
LINE
  5
2CF
100
AcDbEntity
  8
SUPERFICI
100
AcDbLine
 62
7
  6
CONTINUOUS
 10
-101.3965551445
 20
-39.5738853495
 11
-101.3927327985
 21
-39.5766531264
  0
LINE
  5
2D0
100
AcDbEntity
  8
SUPERFICI
100
AcDbLine
 62
7
  6
CONTINUOUS
 10
-101.4027155716
 20
-39.5693649981
 11
-101.3992260212
 21
-39.571934635
  0
LINE
  5
2D1
100
AcDbEntity
  8
SUPERFICI
100
AcDbLine
 62
7
  6
CONTINUOUS
 10
-101.4064071343
 20
-39.5666203982
 11
-101.4027155716
 21
-39.5693649981
  0
LWPOLYLINE
  5
2D2
100
AcDbEntity
  8
SUPERFICI
100
AcDbPolyline
 62
7
  6
CONTINUOUS
 90
15
 70
0
 10
-101.4661206447
 20
39.5181969367
 10
-101.469610569
 20
39.5151139449
 10
-101.473366552
 20
39.51176218
 10
-101.477431672
 20
39.5080945681
 10
-101.481959329
 20
39.5039599456
 10
-101.4867829751
 20
39.4994963835
 10
-101.4914723193
 20
39.4950980068
 10
-101.4959500777
 20
39.4908426728
 10
-101.5002976977
 20
39.486658237
 10
-101.504334441
 20
39.4827256041
 10
-101.507981963
 20
39.4791322126
 10
-101.5113286953
 20
39.4758012481
 10
-101.5144460664
 20
39.4726689408
 10
-101.5173483626
 20
39.4697266956
 10
-101.5225170395
 20
39.4644237412
  0
LINE
  5
2D3
100
AcDbEntity
  8
SUPERFICI
100
AcDbLine
 62
7
  6
CONTINUOUS
 10
-101.4599877531
 20
39.5235427656
 11
-101.4661206447
 21
39.5181969367
  0
LWPOLYLINE
  5
2D4
100
AcDbEntity
  8
SUPERFICI
100
AcDbPolyline
 62
7
  6
CONTINUOUS
 90
3
 70
0
 10
-101.452247201
 20
39.530161735
 10
-101.454650822
 20
39.5281214961
 10
-101.4599877531
 20
39.5235427656
  0
LINE
  5
2D5
100
AcDbEntity
  8
SUPERFICI
100
AcDbLine
 62
7
  6
CONTINUOUS
 10
-101.4477579143
 20
39.5339364121
 11
-101.4499534597
 21
39.5320961689
  0
LINE
  5
2D6
100
AcDbEntity
  8
SUPERFICI
100
AcDbLine
 62
7
  6
CONTINUOUS
 10
-101.4436681905
 20
39.537334924
 11
-101.4456740272
 21
39.5356728511
  0
LINE
  5
2D7
100
AcDbEntity
  8
SUPERFICI
100
AcDbLine
 62
7
  6
CONTINUOUS
 10
-101.4398817026
 20
39.5404477573
 11
-101.4417353718
 21
39.5389278947
  0
LINE
  5
2D8
100
AcDbEntity
  8
SUPERFICI
100
AcDbLine
 62
7
  6
CONTINUOUS
 10
-101.4363581664
 20
39.5433156946
 11
-101.4380899278
 21
39.5419095885
  0
LINE
  5
2D9
100
AcDbEntity
  8
SUPERFICI
100
AcDbLine
 62
7
  6
CONTINUOUS
 10
-101.4299950119
 20
39.5484258036
 11
-101.4346890665
 21
39.544664668
  0
LWPOLYLINE
  5
2DA
100
AcDbEntity
  8
SUPERFICI
100
AcDbPolyline
 62
7
  6
CONTINUOUS
 90
3
 70
0
 10
-101.4243536794
 20
39.552883111
 10
-101.4257070276
 20
39.5518200023
 10
-101.4299950119
 20
39.5484258036
  0
LINE
  5
2DB
100
AcDbEntity
  8
SUPERFICI
100
AcDbLine
 62
7
  6
CONTINUOUS
 10
-101.4204932873
 20
39.5558943412
 11
-101.4217491692
 21
39.5549181534
  0
LINE
  5
2DC
100
AcDbEntity
  8
SUPERFICI
100
AcDbLine
 62
7
  6
CONTINUOUS
 10
-101.4168953502
 20
39.558672768
 11
-101.418068208
 21
39.557770011
  0
LINE
  5
2DD
100
AcDbEntity
  8
SUPERFICI
100
AcDbLine
 62
7
  6
CONTINUOUS
 10
-101.4135235831
 20
39.5612522317
 11
-101.4146244771
 21
39.5604125974
  0
LINE
  5
2DE
100
AcDbEntity
  8
SUPERFICI
100
AcDbLine
 62
7
  6
CONTINUOUS
 10
-101.3318107341
 20
39.6175568527
 11
-101.3418245461
 21
39.6099345628
  0
LWPOLYLINE
  5
2DF
100
AcDbEntity
  8
SUPERFICI
100
AcDbPolyline
 62
7
  6
CONTINUOUS
 90
4
 70
0
 10
-101.4120145463
 20
-39.5623991381
 10
-101.4111783406
 20
-39.5630326686
 10
-101.4103543333
 20
-39.5636555681
 10
-101.4064071343
 20
-39.5666203982
  0
LINE
  5
2E0
100
AcDbEntity
  8
SUPERFICI
100
AcDbLine
 62
7
  6
CONTINUOUS
 10
-101.4182612597
 20
-39.5576211605
 11
-101.4146028318
 21
-39.560429146
  0
LINE
  5
2E1
100
AcDbEntity
  8
SUPERFICI
100
AcDbLine
 62
7
  6
CONTINUOUS
 10
-101.4940520381
 20
-39.4925058194
 11
-101.3334432926
 21
-39.6163075735
  0
LINE
  5
2E2
100
AcDbEntity
  8
SUPERFICI
100
AcDbLine
 62
7
  6
CONTINUOUS
 10
-101.4221894296
 20
-39.554575175
 11
-101.4182612597
 21
-39.5576211605
  0
LWPOLYLINE
  5
2E3
100
AcDbEntity
  8
SUPERFICI
100
AcDbPolyline
 62
7
  6
CONTINUOUS
 90
3
 70
0
 10
-101.427546328
 20
-39.550368925
 10
-101.4264310519
 20
-39.5512496702
 10
-101.4221894296
 20
-39.554575175
  0
LINE
  5
2E4
100
AcDbEntity
  8
SUPERFICI
100
AcDbLine
 62
7
  6
CONTINUOUS
 10
-101.4310476056
 20
-39.5475865858
 11
-101.4298547061
 21
-39.5485375059
  0
LINE
  5
2E5
100
AcDbEntity
  8
SUPERFICI
100
AcDbLine
 62
7
  6
CONTINUOUS
 10
-101.4374953125
 20
-39.5423931519
 11
-101.4335260548
 21
-39.5456010249
  0
LINE
  5
2E6
100
AcDbEntity
  8
SUPERFICI
100
AcDbLine
 62
7
  6
CONTINUOUS
 10
-101.4418339094
 20
-39.5388469038
 11
-101.4374953125
 21
-39.5423931519
  0
LWPOLYLINE
  5
2E7
100
AcDbEntity
  8
SUPERFICI
100
AcDbPolyline
 62
7
  6
CONTINUOUS
 90
3
 70
0
 10
-101.4483771065
 20
-39.5334185625
 10
-101.446647317
 20
-39.53486309
 10
-101.4418339094
 20
-39.5388469038
  0
LINE
  5
2E8
100
AcDbEntity
  8
SUPERFICI
100
AcDbLine
 62
7
  6
CONTINUOUS
 10
-101.4521078635
 20
-39.5302796122
 11
-101.450199652
 21
-39.5318891435
  0
LINE
  5
2E9
100
AcDbEntity
  8
SUPERFICI
100
AcDbLine
 62
7
  6
CONTINUOUS
 10
-101.4562466822
 20
-39.5267594362
 11
-101.4541076087
 21
-39.5285837858
  0
LINE
  5
2EA
100
AcDbEntity
  8
SUPERFICI
100
AcDbLine
 62
7
  6
CONTINUOUS
 10
-101.4662256896
 20
-39.5181045962
 11
-101.4609634152
 21
-39.5226984038
  0
LINE
  5
2EB
100
AcDbEntity
  8
SUPERFICI
100
AcDbLine
 62
7
  6
CONTINUOUS
 10
-101.5515403488
 20
39.4330666358
 11
-101.5551740071
 21
39.4289415284
  0
LINE
  5
2EC
100
AcDbEntity
  8
SUPERFICI
100
AcDbLine
 62
7
  6
CONTINUOUS
 10
-101.5476975996
 20
39.4373790893
 11
-101.5515403488
 21
39.4330666358
  0
LWPOLYLINE
  5
2ED
100
AcDbEntity
  8
SUPERFICI
100
AcDbPolyline
 62
7
  6
CONTINUOUS
 90
3
 70
0
 10
-101.5421696747
 20
39.4434942355
 10
-101.5436018719
 20
39.4419197999
 10
-101.5476975996
 20
39.4373790893
  0
LINE
  5
2EE
100
AcDbEntity
  8
SUPERFICI
100
AcDbLine
 62
7
  6
CONTINUOUS
 10
-101.5391873315
 20
39.4467508194
 11
-101.54070184
 21
39.4451007355
  0
LINE
  5
2EF
100
AcDbEntity
  8
SUPERFICI
100
AcDbLine
 62
7
  6
CONTINUOUS
 10
-101.5360221766
 20
39.4501749348
 11
-101.5376284171
 21
39.4484413812
  0
LINE
  5
2F0
100
AcDbEntity
  8
SUPERFICI
100
AcDbLine
 62
7
  6
CONTINUOUS
 10
-101.53261595
 20
39.4538234245
 11
-101.5343495477
 21
39.4519712132
  0
LINE
  5
2F1
100
AcDbEntity
  8
SUPERFICI
100
AcDbLine
 62
7
  6
CONTINUOUS
 10
-101.528909221
 20
39.4577514994
 11
-101.530814954
 21
39.4557374319
  0
LINE
  5
2F2
100
AcDbEntity
  8
SUPERFICI
100
AcDbLine
 62
7
  6
CONTINUOUS
 10
-101.5248061654
 20
39.4620489552
 11
-101.5269109567
 21
39.4598510318
  0
LINE
  5
2F3
100
AcDbEntity
  8
0
100
AcDbLine
 62
7
  6
CONTINUOUS
 10
-104.2049213497
 20
-28.7846585041
 11
-104.1881130959
 21
-28.7846585041
  0
LINE
  5
2F4
100
AcDbEntity
  8
0
100
AcDbLine
 62
7
  6
CONTINUOUS
 10
-104.175675292
 20
-28.7846515041
 11
-104.1454154608
 21
-28.7846515041
  0
LINE
  5
2F5
100
AcDbEntity
  8
0
100
AcDbLine
 62
7
  6
CONTINUOUS
 10
-104.3027147649
 20
-28.2143305041
 11
-104.3032644725
 21
-28.2143305041
  0
LINE
  5
2F6
100
AcDbEntity
  8
0
100
AcDbLine
 62
7
  6
CONTINUOUS
 10
-104.3363036263
 20
-27.593554171
 11
-104.3060836834
 21
-27.593554171
  0
LINE
  5
2F7
100
AcDbEntity
  8
0
100
AcDbLine
 62
7
  6
CONTINUOUS
 10
-104.3380474148
 20
-27.6633085041
 11
-104.3439202802
 21
-27.6633026757
  0
LWPOLYLINE
  5
2F8
100
AcDbEntity
  8
SUPERFICI
100
AcDbPolyline
 62
7
  6
CONTINUOUS
 90
13
 70
0
 10
-101.5139956628
 20
-39.4731233068
 10
-101.510883617
 20
-39.4762461402
 10
-101.507508993
 20
-39.4796003478
 10
-101.5038225663
 20
-39.4832268548
 10
-101.4998656112
 20
-39.4870764816
 10
-101.4957753306
 20
-39.4910097886
 10
-101.4914714537
 20
-39.4950988451
 10
-101.4870299743
 20
-39.4992661941
 10
-101.4828316126
 20
-39.503157311
 10
-101.4790177647
 20
-39.5066521842
 10
-101.4754574719
 20
-39.50988097
 10
-101.4721287256
 20
-39.5128707046
 10
-101.4662256896
 20
-39.5181045962
  0
LWPOLYLINE
  5
2F9
100
AcDbEntity
  8
SUPERFICI
100
AcDbPolyline
 62
7
  6
CONTINUOUS
 90
3
 70
0
 10
-101.5216974903
 20
-39.4652700503
 10
-101.5193993872
 20
-39.4676321502
 10
-101.5139956628
 20
-39.4731233068
  0
LINE
  5
2FA
100
AcDbEntity
  8
SUPERFICI
100
AcDbLine
 62
7
  6
CONTINUOUS
 10
-101.5258841144
 20
-39.4609250606
 11
-101.5238530355
 21
-39.4630397454
  0
LINE
  5
2FB
100
AcDbEntity
  8
SUPERFICI
100
AcDbLine
 62
7
  6
CONTINUOUS
 10
-101.5295868084
 20
-39.457036737
 11
-101.5277751791
 21
-39.4589445782
  0
LINE
  5
2FC
100
AcDbEntity
  8
SUPERFICI
100
AcDbLine
 62
7
  6
CONTINUOUS
 10
-101.5329967012
 20
-39.4534174752
 11
-101.5313308719
 21
-39.4551902238
  0
LINE
  5
2FD
100
AcDbEntity
  8
SUPERFICI
100
AcDbLine
 62
7
  6
CONTINUOUS
 10
-101.5361761791
 20
-39.4500091151
 11
-101.5346102765
 21
-39.4516918308
  0
LINE
  5
2FE
100
AcDbEntity
  8
SUPERFICI
100
AcDbLine
 62
7
  6
CONTINUOUS
 10
-101.5420073116
 20
-39.4436723152
 11
-101.5376905536
 21
-39.4483741747
  0
LINE
  5
2FF
100
AcDbEntity
  8
SUPERFICI
100
AcDbLine
 62
7
  6
CONTINUOUS
 10
-101.5460292261
 20
-39.4392356239
 11
-101.5420073116
 21
-39.4436723152
  0
LINE
  5
300
100
AcDbEntity
  8
SUPERFICI
100
AcDbLine
 62
7
  6
CONTINUOUS
 10
-101.5498044871
 20
-39.4350210165
 11
-101.5460292261
 21
-39.4392356239
  0
LINE
  5
301
100
AcDbEntity
  8
SUPERFICI
100
AcDbLine
 62
7
  6
CONTINUOUS
 10
-101.6075286017
 20
39.3638697994
 11
-101.6107049373
 21
39.3595451832
  0
LINE
  5
302
100
AcDbEntity
  8
SUPERFICI
100
AcDbLine
 62
7
  6
CONTINUOUS
 10
-101.60484041
 20
39.3674928578
 11
-101.610925975
 21
39.3593281588
  0
LINE
  5
303
100
AcDbEntity
  8
SUPERFICI
100
AcDbLine
 62
7
  6
CONTINUOUS
 10
-101.6020279896
 20
39.3712477386
 11
-101.60484041
 21
39.3674928578
  0
LINE
  5
304
100
AcDbEntity
  8
SUPERFICI
100
AcDbLine
 62
7
  6
CONTINUOUS
 10
-101.5991008926
 20
39.3751177049
 11
-101.6020279896
 21
39.3712477386
  0
LINE
  5
305
100
AcDbEntity
  8
SUPERFICI
100
AcDbLine
 62
7
  6
CONTINUOUS
 10
-101.601946478
 20
39.3713559106
 11
-101.6026651007
 21
39.3704116409
  0
LINE
  5
306
100
AcDbEntity
  8
SUPERFICI
100
AcDbLine
 62
7
  6
CONTINUOUS
 10
-101.5960662296
 20
39.3790896474
 11
-101.5991008926
 21
39.3751177049
  0
LINE
  5
307
100
AcDbEntity
  8
SUPERFICI
100
AcDbLine
 62
7
  6
CONTINUOUS
 10
-101.5929296343
 20
39.3831527073
 11
-101.5960662296
 21
39.3790896474
  0
LINE
  5
308
100
AcDbEntity
  8
SUPERFICI
100
AcDbLine
 62
7
  6
CONTINUOUS
 10
-101.5896956484
 20
39.3872977053
 11
-101.5929296343
 21
39.3831527073
  0
LINE
  5
309
100
AcDbEntity
  8
SUPERFICI
100
AcDbLine
 62
7
  6
CONTINUOUS
 10
-101.5863673355
 20
39.3915175669
 11
-101.5896956484
 21
39.3872977053
  0
LINE
  5
30A
100
AcDbEntity
  8
SUPERFICI
100
AcDbLine
 62
7
  6
CONTINUOUS
 10
-101.5829460877
 20
39.3958074697
 11
-101.5863673355
 21
39.3915175669
  0
LINE
  5
30B
100
AcDbEntity
  8
SUPERFICI
100
AcDbLine
 62
7
  6
CONTINUOUS
 10
-101.4852847814
 20
39.5007358375
 11
-101.6641887937
 21
39.279027504
  0
LINE
  5
30C
100
AcDbEntity
  8
SUPERFICI
100
AcDbLine
 62
7
  6
CONTINUOUS
 10
-101.5794262751
 20
39.4001713284
 11
-101.5829460877
 21
39.3958074697
  0
LWPOLYLINE
  5
30D
100
AcDbEntity
  8
SUPERFICI
100
AcDbPolyline
 62
7
  6
CONTINUOUS
 90
3
 70
0
 10
-101.5748691074
 20
39.4057480166
 10
-101.5757956975
 20
39.4046207465
 10
-101.5794262751
 20
39.4001713284
  0
LINE
  5
30E
100
AcDbEntity
  8
SUPERFICI
100
AcDbLine
 62
7
  6
CONTINUOUS
 10
-101.572038102
 20
39.4091715033
 11
-101.5729903483
 21
39.4080234253
  0
LINE
  5
30F
100
AcDbEntity
  8
SUPERFICI
100
AcDbLine
 62
7
  6
CONTINUOUS
 10
-101.5691234585
 20
39.4126639787
 11
-101.5701047021
 21
39.4114918159
  0
LINE
  5
310
100
AcDbEntity
  8
SUPERFICI
100
AcDbLine
 62
7
  6
CONTINUOUS
 10
-101.566113677
 20
39.4162367116
 11
-101.5671279989
 21
39.4150364696
  0
LINE
  5
311
100
AcDbEntity
  8
SUPERFICI
100
AcDbLine
 62
7
  6
CONTINUOUS
 10
-101.5629946236
 20
39.4199035127
 11
-101.5640470524
 21
39.4186702853
  0
LWPOLYLINE
  5
312
100
AcDbEntity
  8
SUPERFICI
100
AcDbPolyline
 62
7
  6
CONTINUOUS
 90
3
 70
0
 10
-101.5563446747
 20
39.4276026071
 10
-101.5574956038
 20
39.4262815043
 10
-101.560843685
 20
39.4224113301
  0
LINE
  5
313
100
AcDbEntity
  8
0
100
AcDbLine
 62
7
  6
CONTINUOUS
 10
-104.4905468491
 20
-26.4210495041
 11
-104.4914815927
 21
-26.4210495041
  0
LINE
  5
314
100
AcDbEntity
  8
0
100
AcDbLine
 62
7
  6
CONTINUOUS
 10
-104.5287977294
 20
-25.8845285041
 11
-104.4986529537
 21
-25.8845285041
  0
LINE
  5
315
100
AcDbEntity
  8
0
100
AcDbLine
 62
7
  6
CONTINUOUS
 10
-104.5590214543
 20
-25.8845285041
 11
-104.5342476984
 21
-25.8845285041
  0
LWPOLYLINE
  5
316
100
AcDbEntity
  8
SUPERFICI
100
AcDbPolyline
 62
7
  6
CONTINUOUS
 90
4
 70
0
 10
-101.555622296
 20
-39.4284294104
 10
-101.5545034777
 20
-39.4297062676
 10
-101.5533624274
 20
-39.4310039453
 10
-101.5498044871
 20
-39.4350210165
  0
LINE
  5
317
100
AcDbEntity
  8
SUPERFICI
100
AcDbLine
 62
7
  6
CONTINUOUS
 10
-101.5588592866
 20
-39.4247100773
 11
-101.5577985407
 21
-39.425933015
  0
LINE
  5
318
100
AcDbEntity
  8
SUPERFICI
100
AcDbLine
 62
7
  6
CONTINUOUS
 10
-101.5619423394
 20
-39.4211325291
 11
-101.5609293869
 21
-39.4223117584
  0
LINE
  5
319
100
AcDbEntity
  8
SUPERFICI
100
AcDbLine
 62
7
  6
CONTINUOUS
 10
-101.5648964745
 20
-39.417671985
 11
-101.563924998
 21
-39.4188135438
  0
LINE
  5
31A
100
AcDbEntity
  8
SUPERFICI
100
AcDbLine
 62
7
  6
CONTINUOUS
 10
-101.5704711024
 20
-39.4110532152
 11
-101.5668010361
 21
-39.4154238105
  0
LINE
  5
31B
100
AcDbEntity
  8
SUPERFICI
100
AcDbLine
 62
7
  6
CONTINUOUS
 10
-101.5739733414
 20
-39.4068346348
 11
-101.5704711024
 21
-39.4110532152
  0
LINE
  5
31C
100
AcDbEntity
  8
SUPERFICI
100
AcDbLine
 62
7
  6
CONTINUOUS
 10
-101.5773261213
 20
-39.4027515261
 11
-101.5739733414
 21
-39.4068346348
  0
LINE
  5
31D
100
AcDbEntity
  8
SUPERFICI
100
AcDbLine
 62
7
  6
CONTINUOUS
 10
-101.5805432531
 20
-39.3987919258
 11
-101.5773261213
 21
-39.4027515261
  0
LINE
  5
31E
100
AcDbEntity
  8
SUPERFICI
100
AcDbLine
 62
7
  6
CONTINUOUS
 10
-101.5836356589
 20
-39.394946701
 11
-101.5805432531
 21
-39.3987919258
  0
LINE
  5
31F
100
AcDbEntity
  8
SUPERFICI
100
AcDbLine
 62
7
  6
CONTINUOUS
 10
-101.6642097443
 20
-39.2789922499
 11
-101.4940520381
 21
-39.4925058194
  0
LINE
  5
320
100
AcDbEntity
  8
SUPERFICI
100
AcDbLine
 62
7
  6
CONTINUOUS
 10
-101.5866122546
 20
-39.3912086444
 11
-101.5836356589
 21
-39.394946701
  0
LINE
  5
321
100
AcDbEntity
  8
SUPERFICI
100
AcDbLine
 62
7
  6
CONTINUOUS
 10
-101.5894797318
 20
-39.3875728961
 11
-101.5866122546
 21
-39.3912086444
  0
LINE
  5
322
100
AcDbEntity
  8
SUPERFICI
100
AcDbLine
 62
7
  6
CONTINUOUS
 10
-101.592243217
 20
-39.3840362441
 11
-101.5894797318
 21
-39.3875728961
  0
LINE
  5
323
100
AcDbEntity
  8
SUPERFICI
100
AcDbLine
 62
7
  6
CONTINUOUS
 10
-101.5955570888
 20
-39.3797521081
 11
-101.592243217
 21
-39.3840362441
  0
LINE
  5
324
100
AcDbEntity
  8
SUPERFICI
100
AcDbLine
 62
7
  6
CONTINUOUS
 10
-101.5987190879
 20
-39.3756197019
 11
-101.5955570888
 21
-39.3797521081
  0
LINE
  5
325
100
AcDbEntity
  8
SUPERFICI
100
AcDbLine
 62
7
  6
CONTINUOUS
 10
-101.6043295327
 20
-39.3682043249
 11
-101.5987190879
 21
-39.3756197019
  0
LWPOLYLINE
  5
326
100
AcDbEntity
  8
SUPERFICI
100
AcDbPolyline
 62
7
  6
CONTINUOUS
 90
8
 70
0
 10
-101.6520597396
 20
39.2987516529
 10
-101.6572526349
 20
39.2903655934
 10
-101.6623369302
 20
39.281968763
 10
-101.6672026882
 20
39.2737516193
 10
-101.6718371509
 20
39.2657518982
 10
-101.6762659116
 20
39.2579414157
 10
-101.6804442981
 20
39.2504165281
 10
-101.6843636792
 20
39.2432137514
  0
LWPOLYLINE
  5
327
100
AcDbEntity
  8
SUPERFICI
100
AcDbPolyline
 62
7
  6
CONTINUOUS
 90
6
 70
0
 10
-101.6253609034
 20
39.3391517385
 10
-101.6306231308
 20
39.3315222133
 10
-101.6359432984
 20
39.3236498145
 10
-101.6413217982
 20
39.3155215317
 10
-101.6467460281
 20
39.3071434504
 10
-101.6520597396
 20
39.2987516529
  0
LINE
  5
328
100
AcDbEntity
  8
SUPERFICI
100
AcDbLine
 62
7
  6
CONTINUOUS
 10
-101.622018173
 20
39.3437432993
 11
-101.624220286
 21
39.3405924949
  0
LINE
  5
329
100
AcDbEntity
  8
SUPERFICI
100
AcDbLine
 62
7
  6
CONTINUOUS
 10
-101.6191269247
 20
39.347842427
 11
-101.6253609034
 21
39.3391517385
  0
LINE
  5
32A
100
AcDbEntity
  8
SUPERFICI
100
AcDbLine
 62
7
  6
CONTINUOUS
 10
-101.6163294817
 20
39.3517683808
 11
-101.6191269247
 21
39.347842427
  0
LWPOLYLINE
  5
32B
100
AcDbEntity
  8
SUPERFICI
100
AcDbPolyline
 62
7
  6
CONTINUOUS
 90
3
 70
0
 10
-101.610925975
 20
39.3593281588
 10
-101.6155015948
 20
39.353047482
 10
-101.6203057854
 20
39.3463397308
  0
LINE
  5
32C
100
AcDbEntity
  8
SUPERFICI
100
AcDbLine
 62
7
  6
CONTINUOUS
 10
-101.6136576431
 20
-39.3554818514
 11
-101.6108624348
 21
-39.3593295345
  0
LINE
  5
32D
100
AcDbEntity
  8
SUPERFICI
100
AcDbLine
 62
7
  6
CONTINUOUS
 10
-101.6197828592
 20
-39.3469162238
 11
-101.617363414
 21
-39.3503219438
  0
LINE
  5
32E
100
AcDbEntity
  8
SUPERFICI
100
AcDbLine
 62
7
  6
CONTINUOUS
 10
-101.6233336826
 20
-39.3418640836
 11
-101.6231734369
 21
-39.3420934759
  0
LWPOLYLINE
  5
32F
100
AcDbEntity
  8
SUPERFICI
100
AcDbPolyline
 62
7
  6
CONTINUOUS
 90
6
 70
0
 10
-101.630740644
 20
-39.3313501106
 10
-101.6248871843
 20
-39.3398311559
 10
-101.6192035965
 20
-39.347889143
 10
-101.6138543373
 20
-39.3553205476
 10
-101.6089087755
 20
-39.3620645384
 10
-101.6043295327
 20
-39.3682043249
  0
LWPOLYLINE
  5
330
100
AcDbEntity
  8
SUPERFICI
100
AcDbPolyline
 62
7
  6
CONTINUOUS
 90
4
 70
0
 10
-101.6490590511
 20
-39.303513549
 10
-101.6429714985
 20
-39.3129930875
 10
-101.6367838217
 20
-39.3223910375
 10
-101.630740644
 20
-39.3313501106
  0
LINE
  5
331
100
AcDbEntity
  8
SUPERFICI
100
AcDbLine
 62
7
  6
CONTINUOUS
 10
-101.6975670516
 20
39.2175038345
 11
-101.6912078629
 21
39.2299323055
  0
LWPOLYLINE
  5
332
100
AcDbEntity
  8
SUPERFICI
100
AcDbPolyline
 62
7
  6
CONTINUOUS
 90
3
 70
0
 10
-101.6867267242
 20
39.2384327742
 10
-101.6959353595
 20
39.2207669586
 10
-101.7153158763
 20
39.1805688071
  0
LINE
  5
333
100
AcDbEntity
  8
SUPERFICI
100
AcDbLine
 62
7
  6
CONTINUOUS
 10
-101.6843636792
 20
39.2432137514
 11
-101.6880490567
 21
39.2363075175
  0
LINE
  5
334
100
AcDbEntity
  8
SUPERFICI
100
AcDbLine
 62
7
  6
CONTINUOUS
 10
-105.1821860231
 20
24.2265790618
 11
-105.1888111764
 21
24.2182777335
  0
LINE
  5
335
100
AcDbEntity
  8
SUPERFICI
100
AcDbLine
 62
7
  6
CONTINUOUS
 10
-105.1905253639
 20
24.2161404379
 11
-105.1970486268
 21
24.2080466678
  0
LINE
  5
336
100
AcDbEntity
  8
SUPERFICI
100
AcDbLine
 62
7
  6
CONTINUOUS
 10
-105.1981006361
 20
24.2067472104
 11
-105.199193467
 21
24.2053990285
  0
LINE
  5
337
100
AcDbEntity
  8
SUPERFICI
100
AcDbLine
 62
7
  6
CONTINUOUS
 10
-105.2323899943
 20
24.1652441958
 11
-105.2463807077
 21
24.1487511578
  0
LINE
  5
338
100
AcDbEntity
  8
SUPERFICI
100
AcDbLine
 62
7
  6
CONTINUOUS
 10
-105.2463043928
 20
24.1488419127
 11
-105.2586195527
 21
24.1345350321
  0
LINE
  5
339
100
AcDbEntity
  8
SUPERFICI
100
AcDbLine
 62
7
  6
CONTINUOUS
 10
-105.2586831131
 20
24.1344601841
 11
-105.2737714185
 21
24.1171890184
  0
LWPOLYLINE
  5
33A
100
AcDbEntity
  8
SUPERFICI
100
AcDbPolyline
 62
7
  6
CONTINUOUS
 90
9
 70
0
 10
-101.6899461741
 20
-39.23270003
 10
-101.6858703827
 20
-39.2404062796
 10
-101.681498836
 20
-39.2484926317
 10
-101.6767964828
 20
-39.2569944983
 10
-101.6717747812
 20
-39.2658607586
 10
-101.6664915405
 20
-39.2749640321
 10
-101.6609015101
 20
-39.2843586294
 10
-101.6550311105
 20
-39.2939761648
 10
-101.6490590511
 20
-39.303513549
  0
LINE
  5
33B
100
AcDbEntity
  8
SUPERFICI
100
AcDbLine
 62
7
  6
CONTINUOUS
 10
-101.6972549307
 20
-39.2184501008
 11
-101.6937408971
 21
-39.2253728542
  0
LWPOLYLINE
  5
33C
100
AcDbEntity
  8
SUPERFICI
100
AcDbPolyline
 62
7
  6
CONTINUOUS
 90
3
 70
0
 10
-101.7153158763
 20
39.1805688071
 10
-101.7405483216
 20
39.1201967203
 10
-101.7456276292
 20
39.1065805054
  0
LWPOLYLINE
  5
33D
100
AcDbEntity
  8
SUPERFICI
100
AcDbPolyline
 62
7
  6
CONTINUOUS
 90
3
 70
0
 10
-101.7123727633
 20
39.1869935342
 10
-101.7142926264
 20
39.1827839646
 10
-101.7149320558
 20
39.1813649095
  0
LWPOLYLINE
  5
33E
100
AcDbEntity
  8
SUPERFICI
100
AcDbPolyline
 62
7
  6
CONTINUOUS
 90
3
 70
0
 10
-101.7056412785
 20
39.2014984597
 10
-101.716330291
 20
39.1783902948
 10
-101.7199336252
 20
39.1700966764
  0
LINE
  5
33F
100
AcDbEntity
  8
SUPERFICI
100
AcDbLine
 62
7
  6
CONTINUOUS
 10
-101.6641887937
 20
39.279027504
 11
-101.7187603162
 21
39.164004956
  0
LWPOLYLINE
  5
340
100
AcDbEntity
  8
SUPERFICI
100
AcDbPolyline
 62
7
  6
CONTINUOUS
 90
3
 70
0
 10
-101.7057524781
 20
39.2011224659
 10
-101.7080954836
 20
39.1961884752
 10
-101.7103044031
 20
39.1914709132
  0
LINE
  5
341
100
AcDbEntity
  8
SUPERFICI
100
AcDbLine
 62
7
  6
CONTINUOUS
 10
-101.7005985191
 20
39.2117343332
 11
-101.7032613106
 21
39.2062922133
  0
LINE
  5
342
100
AcDbEntity
  8
SUPERFICI
100
AcDbLine
 62
7
  6
CONTINUOUS
 10
-101.6922108758
 20
39.2285089713
 11
-101.7056412785
 21
39.2014984597
  0
LINE
  5
343
100
AcDbEntity
  8
SUPERFICI
100
AcDbLine
 62
7
  6
CONTINUOUS
 10
-101.6947403308
 20
39.2234176348
 11
-101.697760433
 21
39.2174429344
  0
LINE
  5
344
100
AcDbEntity
  8
SUPERFICI
100
AcDbLine
 62
7
  6
CONTINUOUS
 10
-105.1607719661
 20
24.2538504068
 11
-105.1690246743
 21
24.2432607257
  0
LINE
  5
345
100
AcDbEntity
  8
SUPERFICI
100
AcDbLine
 62
7
  6
CONTINUOUS
 10
-105.1878442601
 20
24.2194781783
 11
-105.1658220569
 21
24.247358087
  0
LINE
  5
346
100
AcDbEntity
  8
SUPERFICI
100
AcDbLine
 62
7
  6
CONTINUOUS
 10
-104.9648980038
 20
-24.5394809837
 11
-104.9597007578
 21
-24.5481241225
  0
LINE
  5
347
100
AcDbEntity
  8
SUPERFICI
100
AcDbLine
 62
7
  6
CONTINUOUS
 10
-104.9597007578
 20
-24.5481241225
 11
-104.951602791
 21
-24.5617259295
  0
LINE
  5
348
100
AcDbEntity
  8
SUPERFICI
100
AcDbLine
 62
7
  6
CONTINUOUS
 10
-104.951602791
 20
-24.5617259295
 11
-104.9462127041
 21
-24.5708706893
  0
LINE
  5
349
100
AcDbEntity
  8
SUPERFICI
100
AcDbLine
 62
7
  6
CONTINUOUS
 10
-104.944530076
 20
-24.5737406011
 11
-104.9368795474
 21
-24.5868820201
  0
LINE
  5
34A
100
AcDbEntity
  8
SUPERFICI
100
AcDbLine
 62
7
  6
CONTINUOUS
 10
-104.9368795474
 20
-24.5868820201
 11
-104.9328250028
 21
-24.5939090197
  0
LINE
  5
34B
100
AcDbEntity
  8
SUPERFICI
100
AcDbLine
 62
7
  6
CONTINUOUS
 10
-101.7056417848
 20
-39.2014974528
 11
-101.6922118126
 21
-39.2285072045
  0
LINE
  5
34C
100
AcDbEntity
  8
SUPERFICI
100
AcDbLine
 62
7
  6
CONTINUOUS
 10
-101.7035396513
 20
-39.2057184565
 11
-101.7005076
 21
-39.2119187097
  0
LWPOLYLINE
  5
34D
100
AcDbEntity
  8
SUPERFICI
100
AcDbPolyline
 62
7
  6
CONTINUOUS
 90
3
 70
0
 10
-101.715316021
 20
-39.1805685439
 10
-101.6959355281
 20
-39.2207666755
 10
-101.6867268611
 20
-39.2384325635
  0
LINE
  5
34E
100
AcDbEntity
  8
SUPERFICI
100
AcDbLine
 62
7
  6
CONTINUOUS
 10
-101.7338311664
 20
-39.1322406903
 11
-101.6642097443
 21
-39.2789922499
  0
LINE
  5
34F
100
AcDbEntity
  8
SUPERFICI
100
AcDbLine
 62
7
  6
CONTINUOUS
 10
-101.708984564
 20
-39.1942975512
 11
-101.7063655354
 21
-39.1998383363
  0
LINE
  5
350
100
AcDbEntity
  8
SUPERFICI
100
AcDbLine
 62
7
  6
CONTINUOUS
 10
-101.7163305031
 20
-39.1783898762
 11
-101.7056417848
 21
-39.2014974528
  0
LINE
  5
351
100
AcDbEntity
  8
SUPERFICI
100
AcDbLine
 62
7
  6
CONTINUOUS
 10
-101.7156209601
 20
-39.1798389348
 11
-101.7136565958
 21
-39.1841844285
  0
LINE
  5
352
100
AcDbEntity
  8
SUPERFICI
100
AcDbLine
 62
7
  6
CONTINUOUS
 10
-101.7200392498
 20
-39.1698536296
 11
-101.7163305031
 21
-39.1783898762
  0
LWPOLYLINE
  5
353
100
AcDbEntity
  8
SUPERFICI
100
AcDbPolyline
 62
7
  6
CONTINUOUS
 90
4
 70
0
 10
-101.9244667558
 20
38.6068854136
 10
-101.9838894066
 20
38.4354718302
 10
-102.0402355366
 20
38.2702252577
 10
-102.1367938628
 20
37.9809956866
  0
LINE
  5
354
100
AcDbEntity
  8
SUPERFICI
100
AcDbLine
 62
7
  6
CONTINUOUS
 10
-101.8308855212
 20
38.8709067371
 11
-101.9244667558
 21
38.6068854136
  0
LINE
  5
355
100
AcDbEntity
  8
SUPERFICI
100
AcDbLine
 62
7
  6
CONTINUOUS
 10
-101.7700225061
 20
39.0388083527
 11
-101.837967277
 21
38.8508061197
  0
LINE
  5
356
100
AcDbEntity
  8
SUPERFICI
100
AcDbLine
 62
7
  6
CONTINUOUS
 10
-101.7453353867
 20
39.1060209077
 11
-101.7700225061
 21
39.0388083527
  0
LINE
  5
357
100
AcDbEntity
  8
SUPERFICI
100
AcDbLine
 62
7
  6
CONTINUOUS
 10
-104.9315527614
 20
-24.5961230105
 11
-104.9257391838
 21
-24.6062956602
  0
LINE
  5
358
100
AcDbEntity
  8
SUPERFICI
100
AcDbLine
 62
7
  6
CONTINUOUS
 10
-104.9246780027
 20
-24.6081624798
 11
-104.9181021926
 21
-24.6198001852
  0
LINE
  5
359
100
AcDbEntity
  8
SUPERFICI
100
AcDbLine
 62
7
  6
CONTINUOUS
 10
-104.9181021926
 20
-24.6198001852
 11
-104.9128458725
 21
-24.6291901969
  0
LINE
  5
35A
100
AcDbEntity
  8
SUPERFICI
100
AcDbLine
 62
7
  6
CONTINUOUS
 10
-104.9115591863
 20
-24.6315007925
 11
-104.9054188024
 21
-24.642593686
  0
LINE
  5
35B
100
AcDbEntity
  8
SUPERFICI
100
AcDbLine
 62
7
  6
CONTINUOUS
 10
-104.9048477879
 20
-24.6436308646
 11
-104.9046111389
 21
-24.644060991
  0
LWPOLYLINE
  5
35C
100
AcDbEntity
  8
SUPERFICI
100
AcDbPolyline
 62
7
  6
CONTINUOUS
 90
3
 70
0
 10
-101.7456276894
 20
-39.1065804093
 10
-101.740548413
 20
-39.1201965464
 10
-101.715316021
 20
-39.1805685439
  0
LWPOLYLINE
  5
35D
100
AcDbEntity
  8
SUPERFICI
100
AcDbPolyline
 62
7
  6
CONTINUOUS
 90
5
 70
0
 10
-102.0402355544
 20
-38.2702252782
 10
-101.9838895148
 20
-38.4354715879
 10
-101.9244669907
 20
-38.6068848132
 10
-101.8721760368
 20
-38.7553068728
 10
-101.7975070326
 20
-38.963322216
  0
LINE
  5
35E
100
AcDbEntity
  8
SUPERFICI
100
AcDbLine
 62
7
  6
CONTINUOUS
 10
-102.1367938834
 20
-37.9809956987
 11
-102.0402355544
 21
-38.2702252782
  0
LINE
  5
35F
100
AcDbEntity
  8
SUPERFICI
100
AcDbLine
 62
7
  6
CONTINUOUS
 10
-103.2079413031
 20
34.2726862017
 11
-103.2631527299
 21
34.0495526093
  0
LINE
  5
360
100
AcDbEntity
  8
SUPERFICI
100
AcDbLine
 62
7
  6
CONTINUOUS
 10
-103.1546778206
 20
34.4835225606
 11
-103.2079413031
 21
34.2726862017
  0
LINE
  5
361
100
AcDbEntity
  8
SUPERFICI
100
AcDbLine
 62
7
  6
CONTINUOUS
 10
-103.097566203
 20
34.7051852582
 11
-103.1546778206
 21
34.4835225606
  0
LINE
  5
362
100
AcDbEntity
  8
SUPERFICI
100
AcDbLine
 62
7
  6
CONTINUOUS
 10
-103.0349596438
 20
34.9434361641
 11
-103.097566203
 21
34.7051852582
  0
LINE
  5
363
100
AcDbEntity
  8
SUPERFICI
100
AcDbLine
 62
7
  6
CONTINUOUS
 10
-102.9433638651
 20
35.2838930967
 11
-103.0349596438
 21
34.9434361641
  0
LINE
  5
364
100
AcDbEntity
  8
SUPERFICI
100
AcDbLine
 62
7
  6
CONTINUOUS
 10
-102.8691467532
 20
35.5546879247
 11
-102.9472337123
 21
35.2699355852
  0
LINE
  5
365
100
AcDbEntity
  8
SUPERFICI
100
AcDbLine
 62
7
  6
CONTINUOUS
 10
-102.7992392885
 20
35.8057270737
 11
-102.8691467532
 21
35.5546879247
  0
LINE
  5
366
100
AcDbEntity
  8
SUPERFICI
100
AcDbLine
 62
7
  6
CONTINUOUS
 10
-102.7018655364
 20
36.1489928453
 11
-102.7992387239
 21
35.8057294083
  0
LINE
  5
367
100
AcDbEntity
  8
SUPERFICI
100
AcDbLine
 62
7
  6
CONTINUOUS
 10
-102.6162516369
 20
36.4438742451
 11
-102.7018655364
 21
36.1489928453
  0
LINE
  5
368
100
AcDbEntity
  8
SUPERFICI
100
AcDbLine
 62
7
  6
CONTINUOUS
 10
-102.5386365268
 20
36.7053619859
 11
-102.6162516369
 21
36.4438742451
  0
LINE
  5
369
100
AcDbEntity
  8
SUPERFICI
100
AcDbLine
 62
7
  6
CONTINUOUS
 10
-102.4704779275
 20
36.9304175324
 11
-102.5386365268
 21
36.7053619859
  0
LINE
  5
36A
100
AcDbEntity
  8
SUPERFICI
100
AcDbLine
 62
7
  6
CONTINUOUS
 10
-102.3940467233
 20
37.1779089225
 11
-102.4704779275
 21
36.9304175324
  0
LINE
  5
36B
100
AcDbEntity
  8
SUPERFICI
100
AcDbLine
 62
7
  6
CONTINUOUS
 10
-102.3064298461
 20
37.4560626632
 11
-102.3940467233
 21
37.1779089225
  0
LINE
  5
36C
100
AcDbEntity
  8
SUPERFICI
100
AcDbLine
 62
7
  6
CONTINUOUS
 10
-102.2281368901
 20
37.7007702497
 11
-102.3111986208
 21
37.4410077021
  0
LINE
  5
36D
100
AcDbEntity
  8
SUPERFICI
100
AcDbLine
 62
7
  6
CONTINUOUS
 10
-102.1367938628
 20
37.9809956866
 11
-102.2281368901
 21
37.7007702497
  0
LINE
  5
36E
100
AcDbEntity
  8
SUPERFICI
100
AcDbLine
 62
7
  6
CONTINUOUS
 10
-102.2281369238
 20
-37.7007702209
 11
-102.1367938834
 21
-37.9809956987
  0
LINE
  5
36F
100
AcDbEntity
  8
SUPERFICI
100
AcDbLine
 62
7
  6
CONTINUOUS
 10
-102.3758899899
 20
-37.2359943866
 11
-102.2281369238
 21
-37.7007702209
  0
LINE
  5
370
100
AcDbEntity
  8
SUPERFICI
100
AcDbLine
 62
7
  6
CONTINUOUS
 10
-102.4416777456
 20
-37.024261449
 11
-102.3758899899
 21
-37.2359943866
  0
LINE
  5
371
100
AcDbEntity
  8
SUPERFICI
100
AcDbLine
 62
7
  6
CONTINUOUS
 10
-102.5029311997
 20
-36.8237853962
 11
-102.4416777456
 21
-37.024261449
  0
LINE
  5
372
100
AcDbEntity
  8
SUPERFICI
100
AcDbLine
 62
7
  6
CONTINUOUS
 10
-102.5764208994
 20
-36.5787634873
 11
-102.5029311997
 21
-36.8237853962
  0
LINE
  5
373
100
AcDbEntity
  8
SUPERFICI
100
AcDbLine
 62
7
  6
CONTINUOUS
 10
-102.6583243332
 20
-36.2997985433
 11
-102.5764208994
 21
-36.5787634873
  0
LINE
  5
374
100
AcDbEntity
  8
SUPERFICI
100
AcDbLine
 62
7
  6
CONTINUOUS
 10
-102.7467225554
 20
-35.991866703
 11
-102.6583243332
 21
-36.2997985433
  0
LINE
  5
375
100
AcDbEntity
  8
SUPERFICI
100
AcDbLine
 62
7
  6
CONTINUOUS
 10
-102.8397173903
 20
-35.660809628
 11
-102.7467225554
 21
-35.991866703
  0
LINE
  5
376
100
AcDbEntity
  8
SUPERFICI
100
AcDbLine
 62
7
  6
CONTINUOUS
 10
-102.9762949882
 20
-35.1626524602
 11
-102.8397173903
 21
-35.660809628
  0
LINE
  5
377
100
AcDbEntity
  8
SUPERFICI
100
AcDbLine
 62
7
  6
CONTINUOUS
 10
-103.0392820834
 20
-34.9271355809
 11
-102.9745861305
 21
-35.1689840168
  0
LINE
  5
378
100
AcDbEntity
  8
SUPERFICI
100
AcDbLine
 62
7
  6
CONTINUOUS
 10
-103.1002368488
 20
-34.6949154832
 11
-103.0380272199
 21
-34.9318700748
  0
LINE
  5
379
100
AcDbEntity
  8
SUPERFICI
100
AcDbLine
 62
7
  6
CONTINUOUS
 10
-103.151511557
 20
-34.4959271869
 11
-103.0946264941
 21
-34.7164794229
  0
LINE
  5
37A
100
AcDbEntity
  8
SUPERFICI
100
AcDbLine
 62
7
  6
CONTINUOUS
 10
-103.2058397402
 20
-34.281084848
 11
-103.151511557
 21
-34.4959271869
  0
LINE
  5
37B
100
AcDbEntity
  8
SUPERFICI
100
AcDbLine
 62
7
  6
CONTINUOUS
 10
-103.2504639411
 20
-34.1012683279
 11
-103.2027436897
 21
-34.2934454557
  0
LINE
  5
37C
100
AcDbEntity
  8
SUPERFICI
100
AcDbLine
 62
7
  6
CONTINUOUS
 10
-103.2712769273
 20
-34.0163002035
 11
-103.2491090474
 21
-34.106774802
  0
LINE
  5
37D
100
AcDbEntity
  8
SUPERFICI
100
AcDbLine
 62
7
  6
CONTINUOUS
 10
-104.0199491215
 20
30.262827306
 11
-104.0608142118
 21
30.0011764786
  0
LINE
  5
37E
100
AcDbEntity
  8
SUPERFICI
100
AcDbLine
 62
7
  6
CONTINUOUS
 10
-103.9744140968
 20
30.5446911065
 11
-104.0199491215
 21
30.262827306
  0
LINE
  5
37F
100
AcDbEntity
  8
SUPERFICI
100
AcDbLine
 62
7
  6
CONTINUOUS
 10
-103.93615695
 20
30.7742026899
 11
-103.9744140968
 21
30.5446911065
  0
LINE
  5
380
100
AcDbEntity
  8
SUPERFICI
100
AcDbLine
 62
7
  6
CONTINUOUS
 10
-103.8932498638
 20
31.0242338873
 11
-103.93615695
 21
30.7742026899
  0
LINE
  5
381
100
AcDbEntity
  8
SUPERFICI
100
AcDbLine
 62
7
  6
CONTINUOUS
 10
-103.8447880461
 20
31.2978746397
 11
-103.8932498638
 21
31.0242338873
  0
LINE
  5
382
100
AcDbEntity
  8
SUPERFICI
100
AcDbLine
 62
7
  6
CONTINUOUS
 10
-103.7926573421
 20
31.5826226126
 11
-103.8447880461
 21
31.2978746397
  0
LINE
  5
383
100
AcDbEntity
  8
SUPERFICI
100
AcDbLine
 62
7
  6
CONTINUOUS
 10
-103.7532692719
 20
31.7919461803
 11
-103.7978306629
 21
31.5547379191
  0
LINE
  5
384
100
AcDbEntity
  8
SUPERFICI
100
AcDbLine
 62
7
  6
CONTINUOUS
 10
-103.7128815279
 20
32.0014031956
 11
-103.7551335224
 21
31.78167469
  0
LINE
  5
385
100
AcDbEntity
  8
SUPERFICI
100
AcDbLine
 62
7
  6
CONTINUOUS
 10
-103.6712327069
 20
32.2121998793
 11
-103.7128815279
 21
32.0014031956
  0
LINE
  5
386
100
AcDbEntity
  8
SUPERFICI
100
AcDbLine
 62
7
  6
CONTINUOUS
 10
-103.6307319746
 20
32.412389368
 11
-103.6712327069
 21
32.2121998793
  0
LINE
  5
387
100
AcDbEntity
  8
SUPERFICI
100
AcDbLine
 62
7
  6
CONTINUOUS
 10
-103.5897373142
 20
32.6104521299
 11
-103.6307319746
 21
32.412389368
  0
LINE
  5
388
100
AcDbEntity
  8
SUPERFICI
100
AcDbLine
 62
7
  6
CONTINUOUS
 10
-103.5480308293
 20
32.8074742458
 11
-103.5897373142
 21
32.6104521299
  0
LINE
  5
389
100
AcDbEntity
  8
SUPERFICI
100
AcDbLine
 62
7
  6
CONTINUOUS
 10
-103.5066196928
 20
32.9988547752
 11
-103.5480308293
 21
32.8074742458
  0
LINE
  5
38A
100
AcDbEntity
  8
SUPERFICI
100
AcDbLine
 62
7
  6
CONTINUOUS
 10
-103.4593237739
 20
33.2125327091
 11
-103.5066196928
 21
32.9988547752
  0
LINE
  5
38B
100
AcDbEntity
  8
SUPERFICI
100
AcDbLine
 62
7
  6
CONTINUOUS
 10
-103.4171056519
 20
33.3991004395
 11
-103.4593237739
 21
33.2125327091
  0
LINE
  5
38C
100
AcDbEntity
  8
SUPERFICI
100
AcDbLine
 62
7
  6
CONTINUOUS
 10
-103.3711224894
 20
33.5980930797
 11
-103.4171056519
 21
33.3991004395
  0
LINE
  5
38D
100
AcDbEntity
  8
SUPERFICI
100
AcDbLine
 62
7
  6
CONTINUOUS
 10
-103.3197231146
 20
33.8156459739
 11
-103.3711224894
 21
33.5980930797
  0
LINE
  5
38E
100
AcDbEntity
  8
SUPERFICI
100
AcDbLine
 62
7
  6
CONTINUOUS
 10
-103.2631527299
 20
34.0495526093
 11
-103.3197231146
 21
33.8156459739
  0
LINE
  5
38F
100
AcDbEntity
  8
SUPERFICI
100
AcDbLine
 62
7
  6
CONTINUOUS
 10
-103.3280945332
 20
-33.7805498375
 11
-103.2720105289
 21
-34.013292089
  0
LINE
  5
390
100
AcDbEntity
  8
SUPERFICI
100
AcDbLine
 62
7
  6
CONTINUOUS
 10
-103.3767800266
 20
-33.5738383858
 11
-103.3254817859
 21
-33.7915172412
  0
LINE
  5
391
100
AcDbEntity
  8
SUPERFICI
100
AcDbLine
 62
7
  6
CONTINUOUS
 10
-103.4205823674
 20
-33.3838794876
 11
-103.3717709728
 21
-33.5953162021
  0
LINE
  5
392
100
AcDbEntity
  8
SUPERFICI
100
AcDbLine
 62
7
  6
CONTINUOUS
 10
-103.4648062816
 20
-33.1880216183
 11
-103.4179160458
 21
-33.3955548858
  0
LINE
  5
393
100
AcDbEntity
  8
SUPERFICI
100
AcDbLine
 62
7
  6
CONTINUOUS
 10
-103.5063360506
 20
-33.0001516314
 11
-103.460311515
 21
-33.2081217145
  0
LINE
  5
394
100
AcDbEntity
  8
SUPERFICI
100
AcDbLine
 62
7
  6
CONTINUOUS
 10
-103.5477985506
 20
-32.8085594108
 11
-103.5055337706
 21
-33.0038184815
  0
LINE
  5
395
100
AcDbEntity
  8
SUPERFICI
100
AcDbLine
 62
7
  6
CONTINUOUS
 10
-103.5900759671
 20
-32.608834248
 11
-103.5483748769
 21
-32.8058669209
  0
LINE
  5
396
100
AcDbEntity
  8
SUPERFICI
100
AcDbLine
 62
7
  6
CONTINUOUS
 10
-103.6318347938
 20
-32.4069988554
 11
-103.589379424
 21
-32.612161802
  0
LINE
  5
397
100
AcDbEntity
  8
SUPERFICI
100
AcDbLine
 62
7
  6
CONTINUOUS
 10
-103.6744783294
 20
-32.1959560776
 11
-103.6310991792
 21
-32.4105949331
  0
LINE
  5
398
100
AcDbEntity
  8
SUPERFICI
100
AcDbLine
 62
7
  6
CONTINUOUS
 10
-103.7125268358
 20
-32.0032203879
 11
-103.6712479073
 21
-32.2121239794
  0
LINE
  5
399
100
AcDbEntity
  8
SUPERFICI
100
AcDbLine
 62
7
  6
CONTINUOUS
 10
-103.758603409
 20
-31.7634568798
 11
-103.7107701437
 21
-32.0122142658
  0
LINE
  5
39A
100
AcDbEntity
  8
SUPERFICI
100
AcDbLine
 62
7
  6
CONTINUOUS
 10
-103.8014277661
 20
-31.5352944731
 11
-103.7501407288
 21
-31.8083551922
  0
LINE
  5
39B
100
AcDbEntity
  8
SUPERFICI
100
AcDbLine
 62
7
  6
CONTINUOUS
 10
-103.8372696753
 20
-31.3395349216
 11
-103.783738411
 21
-31.6304722439
  0
LINE
  5
39C
100
AcDbEntity
  8
SUPERFICI
100
AcDbLine
 62
7
  6
CONTINUOUS
 10
-103.880963976
 20
-31.0944613393
 11
-103.8372696753
 21
-31.3395349216
  0
LINE
  5
39D
100
AcDbEntity
  8
SUPERFICI
100
AcDbLine
 62
7
  6
CONTINUOUS
 10
-103.9252480795
 20
-30.8384912889
 11
-103.880963976
 21
-31.0944613393
  0
LINE
  5
39E
100
AcDbEntity
  8
SUPERFICI
100
AcDbLine
 62
7
  6
CONTINUOUS
 10
-103.9701211186
 20
-30.570767885
 11
-103.9252480795
 21
-30.8384912889
  0
LINE
  5
39F
100
AcDbEntity
  8
SUPERFICI
100
AcDbLine
 62
7
  6
CONTINUOUS
 10
-104.0142287609
 20
-30.2987805877
 11
-103.9701211186
 21
-30.570767885
  0
LINE
  5
3A0
100
AcDbEntity
  8
SUPERFICI
100
AcDbLine
 62
7
  6
CONTINUOUS
 10
-104.0554353233
 20
-30.036112335
 11
-104.0142287609
 21
-30.2987805877
  0
LINE
  5
3A1
100
AcDbEntity
  8
SUPERFICI
100
AcDbLine
 62
7
  6
CONTINUOUS
 10
-104.541632174
 20
-25.8002059448
 11
-104.540312446
 21
-25.8201992414
  0
LINE
  5
3A2
100
AcDbEntity
  8
SUPERFICI
100
AcDbLine
 62
7
  6
CONTINUOUS
 10
-104.5402041985
 20
25.8219225818
 11
-104.5416321562
 21
25.8002059514
  0
LINE
  5
3A3
100
AcDbEntity
  8
SUPERFICI
100
AcDbLine
 62
7
  6
CONTINUOUS
 10
-104.543806362
 20
25.7715536015
 11
-104.5456747796
 21
25.7556141443
  0
LINE
  5
3A4
100
AcDbEntity
  8
SUPERFICI
100
AcDbLine
 62
7
  6
CONTINUOUS
 10
-104.2851719488
 20
28.3770501038
 11
-104.3133525115
 21
28.1438881051
  0
LINE
  5
3A5
100
AcDbEntity
  8
SUPERFICI
100
AcDbLine
 62
7
  6
CONTINUOUS
 10
-104.2527149979
 20
28.6360459048
 11
-104.2851719488
 21
28.3770501038
  0
LINE
  5
3A6
100
AcDbEntity
  8
SUPERFICI
100
AcDbLine
 62
7
  6
CONTINUOUS
 10
-104.2210377303
 20
28.8797854861
 11
-104.2527149979
 21
28.6360459048
  0
LINE
  5
3A7
100
AcDbEntity
  8
SUPERFICI
100
AcDbLine
 62
7
  6
CONTINUOUS
 10
-104.1858626862
 20
29.1409046449
 11
-104.2210377303
 21
28.8797854861
  0
LINE
  5
3A8
100
AcDbEntity
  8
SUPERFICI
100
AcDbLine
 62
7
  6
CONTINUOUS
 10
-104.1479589025
 20
29.4121504069
 11
-104.1858626862
 21
29.1409046449
  0
LINE
  5
3A9
100
AcDbEntity
  8
SUPERFICI
100
AcDbLine
 62
7
  6
CONTINUOUS
 10
-104.106660855
 20
29.696912763
 11
-104.1479589025
 21
29.4121504069
  0
LWPOLYLINE
  5
3AA
100
AcDbEntity
  8
SUPERFICI
100
AcDbPolyline
 62
7
  6
CONTINUOUS
 90
3
 70
0
 10
-104.0608142118
 20
30.0011764786
 10
-104.0704037073
 20
29.9385067911
 10
-104.106660855
 20
29.696912763
  0
LWPOLYLINE
  5
3AB
100
AcDbEntity
  8
SUPERFICI
100
AcDbPolyline
 62
7
  6
CONTINUOUS
 90
5
 70
0
 10
-104.5383453587
 20
25.8757970312
 10
-104.5383139301
 20
25.8760023525
 10
-104.5382935387
 20
25.8759494383
 10
-104.5382825479
 20
25.8756866156
 10
-104.5382815628
 20
25.8752281119
  0
LINE
  5
3AC
100
AcDbEntity
  8
SUPERFICI
100
AcDbLine
 62
7
  6
CONTINUOUS
 10
-104.0936047747
 20
-29.7847775224
 11
-104.0554353233
 21
-30.036112335
  0
LINE
  5
3AD
100
AcDbEntity
  8
SUPERFICI
100
AcDbLine
 62
7
  6
CONTINUOUS
 10
-104.1290273951
 20
-29.5440159141
 11
-104.0936047747
 21
-29.7847775224
  0
LINE
  5
3AE
100
AcDbEntity
  8
SUPERFICI
100
AcDbLine
 62
7
  6
CONTINUOUS
 10
-104.1698211791
 20
-29.256921193
 11
-104.1290273951
 21
-29.5440159141
  0
LINE
  5
3AF
100
AcDbEntity
  8
SUPERFICI
100
AcDbLine
 62
7
  6
CONTINUOUS
 10
-104.2072719201
 20
-28.9831161774
 11
-104.1698211791
 21
-29.256921193
  0
LINE
  5
3B0
100
AcDbEntity
  8
SUPERFICI
100
AcDbLine
 62
7
  6
CONTINUOUS
 10
-104.2335284655
 20
-28.7846665041
 11
-104.2072719201
 21
-28.9831161774
  0
LINE
  5
3B1
100
AcDbEntity
  8
SUPERFICI
100
AcDbLine
 62
7
  6
CONTINUOUS
 10
-104.5463229999
 20
-25.7501074581
 11
-104.543804764
 21
-25.7715674787
  0
LWPOLYLINE
  5
3B2
100
AcDbEntity
  8
SUPERFICI
100
AcDbPolyline
 62
7
  6
CONTINUOUS
 90
4
 70
0
 10
-104.5382875461
 20
25.8733725461
 10
-104.5382846612
 20
25.8731561065
 10
-104.5382803466
 20
25.873016003
 10
-104.5382743359
 20
25.8729178857
  0
LINE
  5
3B3
100
AcDbEntity
  8
SUPERFICI
100
AcDbLine
 62
7
  6
CONTINUOUS
 10
-105.426438284
 20
23.5707493088
 11
-105.4264382855
 21
22.27075456
  0
LINE
  5
3B4
100
AcDbEntity
  8
SUPERFICI
100
AcDbLine
 62
7
  6
CONTINUOUS
 10
-105.4264382998
 20
-22.2709461387
 11
-105.4264383003
 21
-23.5707493012
  0
LINE
  5
3B5
100
AcDbEntity
  8
SUPERFICI
100
AcDbLine
 62
7
  6
CONTINUOUS
 10
-105.4167633016
 20
22.27077515
 11
-105.416763317
 21
-22.2708832314
  0
LINE
  5
3B6
100
AcDbEntity
  8
SUPERFICI
100
AcDbLine
 62
253
  6
CONTINUOUS
 10
-105.2006927935
 20
22.2707990983
 11
-105.2029512023
 21
-22.2707976762
  0
LINE
  5
3B7
100
AcDbEntity
  8
SUPERFICI
100
AcDbLine
 62
7
  6
CONTINUOUS
 10
-104.5382836928
 20
-25.8710913425
 11
-104.5383109678
 21
-25.8758608548
  0
LINE
  5
3B8
100
AcDbEntity
  8
SUPERFICI
100
AcDbLine
 62
7
  6
CONTINUOUS
 10
-104.5382867443
 20
25.8746561834
 11
-104.5382900323
 21
25.874120821
  0
LWPOLYLINE
  5
3B9
100
AcDbEntity
  8
SUPERFICI
100
AcDbPolyline
 62
7
  6
CONTINUOUS
 90
4
 70
0
 10
-104.5385019932
 20
25.86350415
 10
-104.538515141
 20
25.8627353484
 10
-104.5385195959
 20
25.862060256
 10
-104.5385150147
 20
25.8614857515
  0
LINE
  5
3BA
100
AcDbEntity
  8
SUPERFICI
100
AcDbLine
 62
7
  6
CONTINUOUS
 10
-104.5382870106
 20
25.8709077885
 11
-104.5383005973
 21
25.8703173091
  0
LINE
  5
3BB
100
AcDbEntity
  8
SUPERFICI
100
AcDbLine
 62
7
  6
CONTINUOUS
 10
-104.538333354
 20
25.8689552033
 11
-104.5385019932
 21
25.86350415
  0
LINE
  5
3BC
100
AcDbEntity
  8
RACCORDO
100
AcDbLine
 62
7
  6
CONTINUOUS
 10
-97.9419791485
 20
-3.5572543161
 11
-96.8114529563
 21
-3.7060909128
  0
LWPOLYLINE
  5
3BD
100
AcDbEntity
  8
SUPERFICI
100
AcDbPolyline
 62
7
  6
CONTINUOUS
 90
5
 70
0
 10
-104.5382670712
 20
25.8728301228
 10
-104.5382589786
 20
25.8727370871
 10
-104.538252225
 20
25.8726021222
 10
-104.5382505798
 20
25.8723704514
 10
-104.5382576176
 20
25.8719907547
  0
LINE
  5
3BE
100
AcDbEntity
  8
SUPERFICI
100
AcDbLine
 62
253
  6
CONTINUOUS
 10
-102.7992386078
 20
-26.6050140911
 11
-102.7992386223
 21
26.6050139694
  0
LINE
  5
3BF
100
AcDbEntity
  8
SUPERFICI
100
AcDbLine
 62
253
  6
CONTINUOUS
 10
-100.8611191628
 20
0.0000000017
 11
-104.54128602
 21
0.0000000036
  0
LINE
  5
3C0
100
AcDbEntity
  8
SUPERFICI
100
AcDbLine
 62
253
  6
CONTINUOUS
 10
-105.2012233174
 20
0.0000000037
 11
-105.416763317
 21
0.0000000037
  0
LINE
  5
3C1
100
AcDbEntity
  8
RACCORDO
100
AcDbLine
 62
7
  6
CONTINUOUS
 10
-98.3767160524
 20
3.0614916516
 11
-98.3767160524
 21
-3.0615318854
  0
LINE
  5
3C2
100
AcDbEntity
  8
RACCORDO
100
AcDbLine
 62
7
  6
CONTINUOUS
 10
-96.3767160524
 20
-37.0414682211
 11
-96.3767160524
 21
-4.2018133435
  0
LINE
  5
3C3
100
AcDbEntity
  8
0
100
AcDbLine
 62
7
  6
CONTINUOUS
 10
-96.3767160524
 20
-37.0414682211
 11
-96.3767160524
 21
-40.0000171785
  0
LINE
  5
3C4
100
AcDbEntity
  8
RACCORDO
100
AcDbLine
 62
7
  6
CONTINUOUS
 10
-96.3767160524
 20
4.2017731098
 11
-96.3767160524
 21
37.0414682025
  0
LINE
  5
3C5
100
AcDbEntity
  8
0
100
AcDbLine
 62
7
  6
CONTINUOUS
 10
-96.3767160524
 20
37.0414682025
 11
-96.3767160524
 21
40.0000171785
  0
LINE
  5
3C6
100
AcDbEntity
  8
RACCORDO
100
AcDbLine
 62
7
  6
CONTINUOUS
 10
-96.8114529563
 20
3.7060506791
 11
-97.9419791485
 21
3.5572140823
  0
LINE
  5
3C7
100
AcDbEntity
  8
SUPERFICI
100
AcDbLine
 62
7
  6
CONTINUOUS
 10
-105.4264382998
 20
-22.2709461387
 11
-105.4262474388
 21
-22.2708687079
  0
LWPOLYLINE
  5
3C8
100
AcDbEntity
  8
SUPERFICI
100
AcDbPolyline
 62
7
  6
CONTINUOUS
 90
40
 70
0
 10
-100.9622246739
 20
39.754386988
 10
-100.9682237216
 20
39.7534261712
 10
-100.9743274454
 20
39.7524101437
 10
-100.9805352304
 20
39.7513368915
 10
-100.9868416824
 20
39.750205237
 10
-100.9932508973
 20
39.7490122958
 10
-100.9997763911
 20
39.7477531686
 10
-101.0064185296
 20
39.7464251943
 10
-101.0131753125
 20
39.7450261289
 10
-101.0200565349
 20
39.7435511423
 10
-101.0270632616
 20
39.7419970042
 10
-101.0341924381
 20
39.7403613255
 10
-101.0414475336
 20
39.7386401492
 10
-101.0488311974
 20
39.7368295187
 10
-101.0563384397
 20
39.7349272579
 10
-101.0639612119
 20
39.7329320664
 10
-101.071700845
 20
39.7308402406
 10
-101.0795534426
 20
39.7286494108
 10
-101.0875031861
 20
39.7263607264
 10
-101.0955538642
 20
39.7239698971
 10
-101.1036990086
 20
39.7214755852
 10
-101.1119076899
 20
39.7188844343
 10
-101.1201841097
 20
39.716192588
 10
-101.1285216028
 20
39.7133996452
 10
-101.1368735399
 20
39.7105193712
 10
-101.1452424603
 20
39.7075496367
 10
-101.1536240714
 20
39.7044906623
 10
-101.16196246
 20
39.7013623884
 10
-101.1702648691
 20
39.6981623536
 10
-101.1785234648
 20
39.6948938305
 10
-101.1866610722
 20
39.6915889284
 10
-101.1946839554
 20
39.6882477679
 10
-101.2025869345
 20
39.684875153
 10
-101.2102774792
 20
39.6815147169
 10
-101.2177555314
 20
39.6781720134
 10
-101.2250243493
 20
39.6748510148
 10
-101.2319982682
 20
39.6715974219
 10
-101.2386715737
 20
39.6684216387
 10
-101.2450549072
 20
39.6653260748
 10
-101.2510885582
 20
39.6623475912
  0
LINE
  5
3C9
100
AcDbEntity
  8
0
100
AcDbLine
 62
7
  6
CONTINUOUS
 10
-100.8571115525
 20
39.7652447721
 11
-96.3767160524
 21
40.0000171785
  0
LINE
  5
3CA
100
AcDbEntity
  8
0
100
AcDbLine
 62
253
  6
CONTINUOUS
 10
-100.8560086881
 20
37.0415193314
 11
-96.3767160524
 21
37.0415105354
  0
ARC
  5
3CB
100
AcDbEntity
  8
SUPERFICI
100
AcDbCircle
 62
253
  6
CONTINUOUS
 10
-8365.0661610645
 20
-3.4820535754
 40
8424.0899902987
100
AcDbArc
 50
359.8562976348
 51
0.0236829117
  0
ARC
  5
3CC
100
AcDbEntity
  8
SUPERFICI
100
AcDbCircle
 62
253
  6
CONTINUOUS
 10
-14.3700711098
 20
-2529.3705654783
 40
2555.2353687424
100
AcDbArc
 50
90.1156576468
 51
90.3340525468
  0
ARC
  5
3CD
100
AcDbEntity
  8
SUPERFICI
100
AcDbCircle
 62
253
  6
CONTINUOUS
 10
-839.0895544136
 20
-29.1237955502
 40
898.0685996453
100
AcDbArc
 50
359.651583571
 51
359.8960880162
  0
ARC
  5
3CE
100
AcDbEntity
  8
SUPERFICI
100
AcDbCircle
 62
253
  6
CONTINUOUS
 10
-77.9041740197
 20
-668.2570645359
 40
655.5177473725
100
AcDbArc
 50
79.8948380673
 51
80.0395097599
  0
ARC
  5
3CF
100
AcDbEntity
  8
SUPERFICI
100
AcDbCircle
 62
253
  6
CONTINUOUS
 10
-398.7300889038
 20
-24.7320347118
 40
429.9354964609
100
AcDbArc
 50
359.8576488288
 51
0.0710300717
  0
ARC
  5
3D0
100
AcDbEntity
  8
SUPERFICI
100
AcDbCircle
 62
253
  6
CONTINUOUS
 10
-213.7699198347
 20
-0.1257205873
 40
268.2783884225
100
AcDbArc
 50
4.5800086377
 51
5.7183279771
  0
ARC
  5
3D1
100
AcDbEntity
  8
SUPERFICI
100
AcDbCircle
 62
253
  6
CONTINUOUS
 10
-212.4498352645
 20
-0.0031910363
 40
266.9527334334
100
AcDbArc
 50
0.0006848893
 51
4.5764186684
  0
ARC
  5
3D2
100
AcDbEntity
  8
SUPERFICI
100
AcDbCircle
 62
253
  6
CONTINUOUS
 10
-27.6989316983
 20
-206.9651376644
 40
232.7919303318
100
AcDbArc
 50
90.3861443419
 51
90.8627361934
  0
ARC
  5
3D3
100
AcDbEntity
  8
SUPERFICI
100
AcDbCircle
 62
253
  6
CONTINUOUS
 10
-115.4519440362
 20
-67.7755975921
 40
124.2233901244
100
AcDbArc
 50
56.0472526839
 51
59.3611452227
  0
ARC
  5
3D4
100
AcDbEntity
  8
SUPERFICI
100
AcDbCircle
 62
253
  6
CONTINUOUS
 10
-74.3540407516
 20
-17.3231750568
 40
111.5940181908
100
AcDbArc
 50
357.9188872617
 51
359.1238146201
  0
ARC
  5
3D5
100
AcDbEntity
  8
SUPERFICI
100
AcDbCircle
 62
253
  6
CONTINUOUS
 10
-33.6894945209
 20
-22.3244597234
 40
3.4699162778
100
AcDbArc
 50
189.6835035253
 51
206.5695449921
  0
ARC
  5
3D6
100
AcDbEntity
  8
SUPERFICI
100
AcDbCircle
 62
253
  6
CONTINUOUS
 10
-33.9440626066
 20
-22.3564272181
 40
3.2135293111
100
AcDbArc
 50
187.8410791508
 51
189.8851112743
  0
ARC
  5
3D7
100
AcDbEntity
  8
0
100
AcDbCircle
 62
7
  6
CONTINUOUS
 10
-57.056101216
 20
-37.041687413
 40
2.9583305615
100
AcDbArc
 50
179.9957544335
 51
270.0015831006
  0
ARC
  5
3D8
100
AcDbEntity
  8
SUPERFICI
100
AcDbCircle
 62
253
  6
CONTINUOUS
 10
-57.0455514521
 20
-37.0414557433
 40
2.7340256351
100
AcDbArc
 50
180.0015149921
 51
192.603363758
  0
ARC
  5
3D9
100
AcDbEntity
  8
SUPERFICI
100
AcDbCircle
 62
253
  6
CONTINUOUS
 10
-57.0573598848
 20
-37.0432386708
 40
2.7220743732
100
AcDbArc
 50
192.6209735948
 51
270.0294963
  0
ARC
  5
3DA
100
AcDbEntity
  8
SUPERFICI
100
AcDbCircle
 62
253
  6
CONTINUOUS
 10
-33.5823360636
 20
-22.2762197007
 40
1.9285962159
100
AcDbArc
 50
190.2609402452
 51
270.0553755489
  0
ARC
  5
3DB
100
AcDbEntity
  8
SUPERFICI
100
AcDbCircle
 62
253
  6
CONTINUOUS
 10
-33.5899205312
 20
-22.2848495575
 40
1.9196273006
100
AcDbArc
 50
179.5806805925
 51
190.0478056833
  0
ARC
  5
3DC
100
AcDbEntity
  8
0
100
AcDbCircle
 62
7
  6
CONTINUOUS
 10
-33.556825617
 20
-22.2471787588
 40
0.300656472
100
AcDbArc
 50
182.2347298089
 51
267.8970866962
  0
ARC
  5
3DD
100
AcDbEntity
  8
SUPERFICI
100
AcDbCircle
 62
253
  6
CONTINUOUS
 10
-33.5806789519
 20
-22.2709249556
 40
0.2998597647
100
AcDbArc
 50
179.6418605073
 51
270.3980314673
  0
ARC
  5
3DE
100
AcDbEntity
  8
SUPERFICI
100
AcDbCircle
 62
253
  6
CONTINUOUS
 10
-8365.0662223675
 20
3.48205379
 40
8424.0900516118
100
AcDbArc
 50
359.976317087
 51
0.1437023629
  0
ARC
  5
3DF
100
AcDbEntity
  8
SUPERFICI
100
AcDbCircle
 62
253
  6
CONTINUOUS
 10
-12.9943123691
 20
2879.9264012759
 40
2905.7933441814
100
AcDbArc
 50
269.6791209889
 51
269.871168471
  0
ARC
  5
3E0
100
AcDbEntity
  8
SUPERFICI
100
AcDbCircle
 62
253
  6
CONTINUOUS
 10
-839.0881740317
 20
29.1238002161
 40
898.0672192574
100
AcDbArc
 50
0.103911795
 51
0.3484168619
  0
ARC
  5
3E1
100
AcDbEntity
  8
SUPERFICI
100
AcDbCircle
 62
253
  6
CONTINUOUS
 10
-708.8491828604
 20
24.5390184085
 40
740.0543383796
100
AcDbArc
 50
359.9736785246
 51
0.0976425776
  0
ARC
  5
3E2
100
AcDbEntity
  8
SUPERFICI
100
AcDbCircle
 62
253
  6
CONTINUOUS
 10
-79.099062457
 20
675.0098612089
 40
662.3754390996
100
AcDbArc
 50
279.9612560739
 51
280.1044299505
  0
ARC
  5
3E3
100
AcDbEntity
  8
SUPERFICI
100
AcDbCircle
 62
253
  6
CONTINUOUS
 10
-213.7699326298
 20
0.1257208396
 40
268.2784013996
100
AcDbArc
 50
354.2816722202
 51
355.4199915095
  0
ARC
  5
3E4
100
AcDbEntity
  8
SUPERFICI
100
AcDbCircle
 62
253
  6
CONTINUOUS
 10
-212.6088320287
 20
0.0095451871
 40
267.111730349
100
AcDbArc
 50
355.4249438975
 51
359.9979525469
  0
ARC
  5
3E5
100
AcDbEntity
  8
SUPERFICI
100
AcDbCircle
 62
253
  6
CONTINUOUS
 10
-27.7131493093
 20
205.6605893101
 40
231.4873157551
100
AcDbArc
 50
269.1359206387
 51
269.6151984787
  0
ARC
  5
3E6
100
AcDbEntity
  8
SUPERFICI
100
AcDbCircle
 62
253
  6
CONTINUOUS
 10
-116.3462966001
 20
69.1905536937
 40
125.8966071147
100
AcDbArc
 50
300.6608821172
 51
303.9307196406
  0
ARC
  5
3E7
100
AcDbEntity
  8
SUPERFICI
100
AcDbCircle
 62
253
  6
CONTINUOUS
 10
-74.3540393688
 20
17.3231743786
 40
111.5940168257
100
AcDbArc
 50
0.8761857437
 51
2.0811131138
  0
ARC
  5
3E8
100
AcDbEntity
  8
SUPERFICI
100
AcDbCircle
 62
253
  6
CONTINUOUS
 10
-33.6894949761
 20
22.3244598769
 40
3.4699157651
100
AcDbArc
 50
153.4304516883
 51
170.3164955934
  0
ARC
  5
3E9
100
AcDbEntity
  8
SUPERFICI
100
AcDbCircle
 62
253
  6
CONTINUOUS
 10
-33.9440625529
 20
22.3564273288
 40
3.2135292971
100
AcDbArc
 50
170.1148885481
 51
172.1589206799
  0
ARC
  5
3EA
100
AcDbEntity
  8
0
100
AcDbCircle
 62
7
  6
CONTINUOUS
 10
-57.0561011041
 20
37.0416875858
 40
2.9583305601
100
AcDbArc
 50
89.9984508462
 51
180.0042457835
  0
ARC
  5
3EB
100
AcDbEntity
  8
SUPERFICI
100
AcDbCircle
 62
253
  6
CONTINUOUS
 10
-57.0455495072
 20
37.041455722
 40
2.734027467
100
AcDbArc
 50
167.3966404172
 51
179.9987950875
  0
ARC
  5
3EC
100
AcDbEntity
  8
SUPERFICI
100
AcDbCircle
 62
253
  6
CONTINUOUS
 10
-57.0573589355
 20
37.0432380498
 40
2.722073881
100
AcDbArc
 50
89.9719592065
 51
167.3790137157
  0
ARC
  5
3ED
100
AcDbEntity
  8
SUPERFICI
100
AcDbCircle
 62
253
  6
CONTINUOUS
 10
-33.5823359768
 20
22.2762197834
 40
1.9285962377
100
AcDbArc
 50
89.944625162
 51
169.7390589466
  0
ARC
  5
3EE
100
AcDbEntity
  8
SUPERFICI
100
AcDbCircle
 62
253
  6
CONTINUOUS
 10
-33.5899184731
 20
22.2848495018
 40
1.9196292901
100
AcDbArc
 50
169.9521996982
 51
180.4193139125
  0
ARC
  5
3EF
100
AcDbEntity
  8
0
100
AcDbCircle
 62
7
  6
CONTINUOUS
 10
-33.5569745519
 20
22.2472434587
 40
0.3005054584
100
AcDbArc
 50
91.5931795234
 51
177.7745652039
  0
ARC
  5
3F0
100
AcDbEntity
  8
SUPERFICI
100
AcDbCircle
 62
253
  6
CONTINUOUS
 10
-33.5806786237
 20
22.2709249513
 40
0.2998600215
100
AcDbArc
 50
89.531528754
 51
180.3581159297
  0
ARC
  5
3F1
100
AcDbEntity
  8
SUPERFICI
100
AcDbCircle
 62
253
  6
CONTINUOUS
 10
8365.0662319432
 20
-3.4820661723
 40
8424.0900615259
100
AcDbArc
 50
179.9763170022
 51
180.1437022777
  0
ARC
  5
3F2
100
AcDbEntity
  8
SUPERFICI
100
AcDbCircle
 62
253
  6
CONTINUOUS
 10
12.9943162791
 20
-2879.9264019085
 40
2905.7933448397
100
AcDbArc
 50
89.679121076
 51
89.871168558
  0
ARC
  5
3F3
100
AcDbEntity
  8
SUPERFICI
100
AcDbCircle
 62
253
  6
CONTINUOUS
 10
1260.5512394356
 20
-1.4964128563
 40
1297.923878442
100
AcDbArc
 50
179.2613799777
 51
179.9339420709
  0
ARC
  5
3F4
100
AcDbEntity
  8
SUPERFICI
100
AcDbCircle
 62
253
  6
CONTINUOUS
 10
839.0881798492
 20
-29.123801486
 40
898.0672254563
100
AcDbArc
 50
180.1039117072
 51
180.3484167725
  0
ARC
  5
3F5
100
AcDbEntity
  8
SUPERFICI
100
AcDbCircle
 62
253
  6
CONTINUOUS
 10
31.0861567836
 20
-831.983701368
 40
807.7845319173
100
AcDbArc
 50
89.8230793152
 51
89.9915650403
  0
ARC
  5
3F6
100
AcDbEntity
  8
SUPERFICI
100
AcDbCircle
 62
253
  6
CONTINUOUS
 10
79.0991542174
 20
-675.0114993238
 40
662.3770691117
100
AcDbArc
 50
99.9612394245
 51
100.1044129443
  0
ARC
  5
3F7
100
AcDbEntity
  8
SUPERFICI
100
AcDbCircle
 62
253
  6
CONTINUOUS
 10
398.6902463158
 20
-24.7320873812
 40
429.8956546373
100
AcDbArc
 50
179.9289641079
 51
180.1423573377
  0
ARC
  5
3F8
100
AcDbEntity
  8
SUPERFICI
100
AcDbCircle
 62
253
  6
CONTINUOUS
 10
213.7699194795
 20
-0.1257209108
 40
268.2783884514
100
AcDbArc
 50
174.281671937
 51
175.4199912762
  0
ARC
  5
3F9
100
AcDbEntity
  8
SUPERFICI
100
AcDbCircle
 62
253
  6
CONTINUOUS
 10
212.6088316418
 20
-0.0095455052
 40
267.111730346
100
AcDbArc
 50
175.4249438104
 51
179.9979524598
  0
ARC
  5
3FA
100
AcDbEntity
  8
SUPERFICI
100
AcDbCircle
 62
253
  6
CONTINUOUS
 10
27.7131491519
 20
-205.6605899399
 40
231.487316433
100
AcDbArc
 50
89.1359207267
 51
89.6151985654
  0
ARC
  5
3FB
100
AcDbEntity
  8
SUPERFICI
100
AcDbCircle
 62
253
  6
CONTINUOUS
 10
116.3462953033
 20
-69.1905527312
 40
125.8966058986
100
AcDbArc
 50
120.6608819682
 51
123.9307195416
  0
ARC
  5
3FC
100
AcDbEntity
  8
SUPERFICI
100
AcDbCircle
 62
253
  6
CONTINUOUS
 10
74.3760454063
 20
-17.3225647561
 40
111.6160309883
100
AcDbArc
 50
180.8762074602
 51
182.0810155861
  0
ARC
  5
3FD
100
AcDbEntity
  8
SUPERFICI
100
AcDbCircle
 62
253
  6
CONTINUOUS
 10
33.6894939223
 20
-22.3244597343
 40
3.469916382
100
AcDbArc
 50
333.4304550899
 51
350.3164960234
  0
ARC
  5
3FE
100
AcDbEntity
  8
SUPERFICI
100
AcDbCircle
 62
253
  6
CONTINUOUS
 10
33.944062288
 20
-22.356427298
 40
3.2135291297
100
AcDbArc
 50
350.1148885987
 51
352.1589211419
  0
ARC
  5
3FF
100
AcDbEntity
  8
0
100
AcDbCircle
 62
7
  6
CONTINUOUS
 10
57.0561010716
 20
-37.0416874987
 40
2.9583307035
100
AcDbArc
 50
269.9984606697
 51
0.0042468827
  0
ARC
  5
400
100
AcDbEntity
  8
SUPERFICI
100
AcDbCircle
 62
253
  6
CONTINUOUS
 10
57.0455492672
 20
-37.0414556324
 40
2.7340274687
100
AcDbArc
 50
347.3966405253
 51
359.9987951874
  0
ARC
  5
401
100
AcDbEntity
  8
SUPERFICI
100
AcDbCircle
 62
253
  6
CONTINUOUS
 10
57.0573596032
 20
-37.0432390642
 40
2.7220738804
100
AcDbArc
 50
269.9719402121
 51
347.379032325
  0
ARC
  5
402
100
AcDbEntity
  8
SUPERFICI
100
AcDbCircle
 62
253
  6
CONTINUOUS
 10
33.5823353309
 20
-22.2762196475
 40
1.9285964052
100
AcDbArc
 50
269.9446304941
 51
349.7390577234
  0
ARC
  5
403
100
AcDbEntity
  8
SUPERFICI
100
AcDbCircle
 62
253
  6
CONTINUOUS
 10
33.5899225491
 20
-22.2848496502
 40
1.9196247552
100
AcDbArc
 50
349.9521822195
 51
0.4193211394
  0
ARC
  5
404
100
AcDbEntity
  8
0
100
AcDbCircle
 62
7
  6
CONTINUOUS
 10
35.2190692938
 20
-26.7739165041
 40
0.8893898871
100
AcDbArc
 50
292.842868527
 51
90.0
  0
ARC
  5
405
100
AcDbEntity
  8
0
100
AcDbCircle
 62
7
  6
CONTINUOUS
 10
35.1385632938
 20
-26.7739165041
 40
0.352865
100
AcDbArc
 50
270.0
 51
90.0
  0
ARC
  5
406
100
AcDbEntity
  8
0
100
AcDbCircle
 62
7
  6
CONTINUOUS
 10
33.557105538
 20
-22.2474671114
 40
0.3002543634
100
AcDbArc
 50
271.3929403806
 51
358.4713562106
  0
ARC
  5
407
100
AcDbEntity
  8
SUPERFICI
100
AcDbCircle
 62
253
  6
CONTINUOUS
 10
33.5806784417
 20
-22.2709249896
 40
0.299859779
100
AcDbArc
 50
269.6019730889
 51
0.3581345272
  0
ARC
  5
408
100
AcDbEntity
  8
SUPERFICI
100
AcDbCircle
 62
253
  6
CONTINUOUS
 10
8365.0662818394
 20
3.4820412442
 40
8424.0901114143
100
AcDbArc
 50
179.8562975523
 51
180.0236828269
  0
ARC
  5
409
100
AcDbEntity
  8
SUPERFICI
100
AcDbCircle
 62
253
  6
CONTINUOUS
 10
1260.5421865374
 20
1.4963453997
 40
1297.9148254719
100
AcDbArc
 50
180.0660554067
 51
180.738622205
  0
ARC
  5
40A
100
AcDbEntity
  8
SUPERFICI
100
AcDbCircle
 62
253
  6
CONTINUOUS
 10
839.0895575081
 20
29.1237942881
 40
898.0686030327
100
AcDbArc
 50
179.6515834858
 51
179.8960879301
  0
ARC
  5
40B
100
AcDbEntity
  8
SUPERFICI
100
AcDbCircle
 62
253
  6
CONTINUOUS
 10
77.9046390611
 20
668.2585668115
 40
655.5193068946
100
AcDbArc
 50
259.8948210485
 51
260.0394923916
  0
ARC
  5
40C
100
AcDbEntity
  8
SUPERFICI
100
AcDbCircle
 62
253
  6
CONTINUOUS
 10
398.7328530861
 20
24.7320242919
 40
429.9382613345
100
AcDbArc
 50
179.857648349
 51
180.0710282191
  0
ARC
  5
40D
100
AcDbEntity
  8
SUPERFICI
100
AcDbCircle
 62
253
  6
CONTINUOUS
 10
213.7698088667
 20
0.1257106745
 40
268.2782774253
100
AcDbArc
 50
184.5800084883
 51
185.7183121964
  0
ARC
  5
40E
100
AcDbEntity
  8
SUPERFICI
100
AcDbCircle
 62
253
  6
CONTINUOUS
 10
212.4498348796
 20
0.0031907181
 40
266.9527334322
100
AcDbArc
 50
180.0006848022
 51
184.5764186758
  0
ARC
  5
40F
100
AcDbEntity
  8
0
100
AcDbCircle
 62
253
  6
CONTINUOUS
 10
126.0308361952
 20
81.8338228724
 40
141.8391298493
100
AcDbArc
 50
229.4722087933
 51
229.764378668
  0
ARC
  5
410
100
AcDbEntity
  8
0
100
AcDbCircle
 62
253
  6
CONTINUOUS
 10
122.7510780738
 20
77.8534233268
 40
136.6866466888
100
AcDbArc
 50
229.7495439495
 51
230.152849368
  0
ARC
  5
411
100
AcDbEntity
  8
0
100
AcDbCircle
 62
253
  6
CONTINUOUS
 10
122.1233201182
 20
77.2299148548
 40
135.7973197024
100
AcDbArc
 50
230.2108586397
 51
230.4513826344
  0
ARC
  5
412
100
AcDbEntity
  8
SUPERFICI
100
AcDbCircle
 62
253
  6
CONTINUOUS
 10
115.4519457803
 20
67.7756023289
 40
124.2233951577
100
AcDbArc
 50
236.04724449
 51
239.3611455148
  0
ARC
  5
413
100
AcDbEntity
  8
SUPERFICI
100
AcDbCircle
 62
253
  6
CONTINUOUS
 10
74.3540404787
 20
17.3231742386
 40
111.5940183736
100
AcDbArc
 50
177.9188868145
 51
179.1238141678
  0
ARC
  5
414
100
AcDbEntity
  8
SUPERFICI
100
AcDbCircle
 62
253
  6
CONTINUOUS
 10
30.4824439473
 20
36.3085729783
 40
62.1133454983
100
AcDbArc
 50
270.6656848554
 51
271.2586300216
  0
ARC
  5
415
100
AcDbEntity
  8
SUPERFICI
100
AcDbCircle
 62
253
  6
CONTINUOUS
 10
36.8140315587
 20
54.6289424202
 40
37.3245366554
100
AcDbArc
 50
302.5489118493
 51
306.4638737947
  0
ARC
  5
416
100
AcDbEntity
  8
SUPERFICI
100
AcDbCircle
 62
253
  6
CONTINUOUS
 10
33.6894944432
 20
22.3244597798
 40
3.4699158717
100
AcDbArc
 50
9.6835047934
 51
26.5695481461
  0
ARC
  5
417
100
AcDbEntity
  8
SUPERFICI
100
AcDbCircle
 62
253
  6
CONTINUOUS
 10
33.9440621119
 20
22.356427277
 40
3.2135293076
100
AcDbArc
 50
7.8410792248
 51
9.8851113498
  0
ARC
  5
418
100
AcDbEntity
  8
0
100
AcDbCircle
 62
7
  6
CONTINUOUS
 10
57.056101071
 20
37.0416875001
 40
2.9583307021
100
AcDbArc
 50
359.9957527285
 51
90.0015393103
  0
ARC
  5
419
100
AcDbEntity
  8
SUPERFICI
100
AcDbCircle
 62
253
  6
CONTINUOUS
 10
57.0455510997
 20
37.0414558341
 40
2.7340256367
100
AcDbArc
 50
0.0015150658
 51
12.603363824
  0
ARC
  5
41A
100
AcDbEntity
  8
SUPERFICI
100
AcDbCircle
 62
253
  6
CONTINUOUS
 10
57.0573528697
 20
37.0432344222
 40
2.7220811497
100
AcDbArc
 50
12.6210321498
 51
90.0293560641
  0
ARC
  5
41B
100
AcDbEntity
  8
SUPERFICI
100
AcDbCircle
 62
253
  6
CONTINUOUS
 10
33.5823355517
 20
22.2762197513
 40
1.9285962109
100
AcDbArc
 50
10.2609406208
 51
90.0553761173
  0
ARC
  5
41C
100
AcDbEntity
  8
SUPERFICI
100
AcDbCircle
 62
253
  6
CONTINUOUS
 10
33.589919718
 20
22.2848496026
 40
1.9196275854
100
AcDbArc
 50
359.5806811128
 51
10.0478046513
  0
ARC
  5
41D
100
AcDbEntity
  8
0
100
AcDbCircle
 62
7
  6
CONTINUOUS
 10
33.5569357396
 20
22.2474290402
 40
0.3004024245
100
AcDbArc
 50
1.3639856979
 51
87.9158822558
  0
ARC
  5
41E
100
AcDbEntity
  8
SUPERFICI
100
AcDbCircle
 62
253
  6
CONTINUOUS
 10
33.5806784588
 20
22.2709250123
 40
0.299859765
100
AcDbArc
 50
359.6418606479
 51
90.3980315118
  0
ARC
  5
41F
100
AcDbEntity
  8
SUPERFICI
100
AcDbCircle
 62
253
  6
CONTINUOUS
 10
-1113.911901231
 20
-18.0047773958
 40
1009.3680796224
100
AcDbArc
 50
359.8086564299
 51
359.9418246819
  0
ARC
  5
420
100
AcDbEntity
  8
SUPERFICI
100
AcDbCircle
 62
253
  6
CONTINUOUS
 10
-1113.9118096011
 20
18.004777878
 40
1009.3679880057
100
AcDbArc
 50
0.0581752965
 51
0.1913435603
  0
ARC
  5
421
100
AcDbEntity
  8
SUPERFICI
100
AcDbCircle
 62
253
  6
CONTINUOUS
 10
-344.2543784295
 20
-84.6268193598
 40
247.5792552543
100
AcDbArc
 50
11.6611098437
 51
12.7703204944
  0
ARC
  5
422
100
AcDbEntity
  8
SUPERFICI
100
AcDbCircle
 62
253
  6
CONTINUOUS
 10
-274.1037998005
 20
-70.7839763057
 40
176.9096830381
100
AcDbArc
 50
13.0785183517
 51
14.4613168951
  0
ARC
  5
423
100
AcDbEntity
  8
SUPERFICI
100
AcDbCircle
 62
253
  6
CONTINUOUS
 10
-212.2974629529
 20
-56.7775929958
 40
115.1031631377
100
AcDbArc
 50
16.2275034005
 51
17.9538805793
  0
ARC
  5
424
100
AcDbEntity
  8
0
100
AcDbCircle
 62
7
  6
CONTINUOUS
 10
-166.4187096434
 20
-32.9946515088
 40
62.3169276491
100
AcDbArc
 50
5.5432337033
 51
5.8953460454
  0
ARC
  5
425
100
AcDbEntity
  8
0
100
AcDbCircle
 62
7
  6
CONTINUOUS
 10
-159.2038463502
 20
-32.2725925619
 40
55.0960710693
100
AcDbArc
 50
5.5616954333
 51
5.8992668481
  0
ARC
  5
426
100
AcDbEntity
  8
0
100
AcDbCircle
 62
7
  6
CONTINUOUS
 10
-135.3178530348
 20
-29.8071366985
 40
31.0531722936
100
AcDbArc
 50
5.9391973448
 51
6.1841448375
  0
ARC
  5
427
100
AcDbEntity
  8
0
100
AcDbCircle
 62
7
  6
CONTINUOUS
 10
-134.1901635766
 20
-29.6962839859
 40
29.950066079
100
AcDbArc
 50
5.9150240948
 51
6.4004653655
  0
ARC
  5
428
100
AcDbEntity
  8
SUPERFICI
100
AcDbCircle
 62
253
  6
CONTINUOUS
 10
-100.8028229978
 20
-38.766365123
 40
1.0003332505
100
AcDbArc
 50
261.9744102878
 51
266.7928996459
  0
ARC
  5
429
100
AcDbEntity
  8
SUPERFICI
100
AcDbCircle
 62
253
  6
CONTINUOUS
 10
-100.8029885322
 20
-38.7708292498
 40
0.9958898409
100
AcDbArc
 50
194.0490459241
 51
261.9479829912
  0
ARC
  5
42A
100
AcDbEntity
  8
0
100
AcDbCircle
 62
7
  6
CONTINUOUS
 10
-121.429969322
 20
-28.6178352615
 40
17.0981413712
100
AcDbArc
 50
5.6080100286
 51
6.6251404548
  0
ARC
  5
42B
100
AcDbEntity
  8
0
100
AcDbCircle
 62
7
  6
CONTINUOUS
 10
-114.3782793001
 20
-27.9390079437
 40
10.0138752656
100
AcDbArc
 50
5.1017997002
 51
5.6854078391
  0
ARC
  5
42C
100
AcDbEntity
  8
SUPERFICI
100
AcDbCircle
 62
7
  6
CONTINUOUS
 10
-107.5904900595
 20
-26.1086337361
 40
3.0640260912
100
AcDbArc
 50
15.7879795638
 51
18.7913256124
  0
ARC
  5
42D
100
AcDbEntity
  8
SUPERFICI
100
AcDbCircle
 62
7
  6
CONTINUOUS
 10
-107.586154387
 20
-26.1074384459
 40
3.0595287691
100
AcDbArc
 50
12.9250678754
 51
15.788530975
  0
ARC
  5
42E
100
AcDbEntity
  8
SUPERFICI
100
AcDbCircle
 62
7
  6
CONTINUOUS
 10
-107.5777027586
 20
-26.1066185464
 40
3.051617712
100
AcDbArc
 50
12.4594099204
 51
13.3514277303
  0
ARC
  5
42F
100
AcDbEntity
  8
SUPERFICI
100
AcDbCircle
 62
7
  6
CONTINUOUS
 10
-107.5747755589
 20
-26.1112896735
 40
3.0466540513
100
AcDbArc
 50
19.6945767693
 51
23.5670562301
  0
ARC
  5
430
100
AcDbEntity
  8
SUPERFICI
100
AcDbCircle
 62
7
  6
CONTINUOUS
 10
-107.569541503
 20
-26.1142714554
 40
3.0443974926
100
AcDbArc
 50
6.8041954468
 51
24.0998352281
  0
ARC
  5
431
100
AcDbEntity
  8
SUPERFICI
100
AcDbCircle
 62
7
  6
CONTINUOUS
 10
-107.5668724523
 20
-26.1031540398
 40
3.0397760882
100
AcDbArc
 50
9.0567462707
 51
12.5609148771
  0
ARC
  5
432
100
AcDbEntity
  8
SUPERFICI
100
AcDbCircle
 62
7
  6
CONTINUOUS
 10
-107.5680871229
 20
-26.1083451239
 40
3.0393461834
100
AcDbArc
 50
23.5665893104
 51
27.4288874008
  0
ARC
  5
433
100
AcDbEntity
  8
SUPERFICI
100
AcDbCircle
 62
7
  6
CONTINUOUS
 10
-107.5676057682
 20
-26.108749586
 40
3.0390476509
100
AcDbArc
 50
15.8305944367
 51
19.6950436677
  0
ARC
  5
434
100
AcDbEntity
  8
SUPERFICI
100
AcDbCircle
 62
7
  6
CONTINUOUS
 10
-107.5628419719
 20
-26.111812618
 40
3.0372610325
100
AcDbArc
 50
16.5894875956
 51
20.3398860537
  0
ARC
  5
435
100
AcDbEntity
  8
SUPERFICI
100
AcDbCircle
 62
7
  6
CONTINUOUS
 10
-107.5520569284
 20
-26.1016776155
 40
3.0254963733
100
AcDbArc
 50
9.1720430353
 51
9.436162877
  0
ARC
  5
436
100
AcDbEntity
  8
SUPERFICI
100
AcDbCircle
 62
7
  6
CONTINUOUS
 10
-107.5468848715
 20
-26.1035195379
 40
3.0193254638
100
AcDbArc
 50
24.0891440064
 51
35.3220410195
  0
ARC
  5
437
100
AcDbEntity
  8
SUPERFICI
100
AcDbCircle
 62
7
  6
CONTINUOUS
 10
-107.5465919317
 20
-26.1028104967
 40
3.0172106695
100
AcDbArc
 50
11.9689706758
 51
15.8309479164
  0
ARC
  5
438
100
AcDbEntity
  8
SUPERFICI
100
AcDbCircle
 62
7
  6
CONTINUOUS
 10
-107.5430537566
 20
-26.1059358045
 40
3.0166185983
100
AcDbArc
 50
12.8455876463
 51
16.5898217366
  0
ARC
  5
439
100
AcDbEntity
  8
SUPERFICI
100
AcDbCircle
 62
7
  6
CONTINUOUS
 10
-107.5384151296
 20
-26.0995661577
 40
3.0116924323
100
AcDbArc
 50
6.6362649305
 51
9.1737559003
  0
ARC
  5
43A
100
AcDbEntity
  8
SUPERFICI
100
AcDbCircle
 62
7
  6
CONTINUOUS
 10
-107.5362667292
 20
-26.0913501391
 40
3.0032742707
100
AcDbArc
 50
27.4207510384
 51
35.1535668777
  0
ARC
  5
43B
100
AcDbEntity
  8
SUPERFICI
100
AcDbCircle
 62
7
  6
CONTINUOUS
 10
-107.5219801825
 20
-26.0975491501
 40
2.995134507
100
AcDbArc
 50
6.2458272608
 51
6.6342721178
  0
ARC
  5
43C
100
AcDbEntity
  8
SUPERFICI
100
AcDbCircle
 62
7
  6
CONTINUOUS
 10
-107.5163716892
 20
-26.0969380098
 40
2.9894928155
100
AcDbArc
 50
5.6964449391
 51
6.2458782488
  0
ARC
  5
43D
100
AcDbEntity
  8
SUPERFICI
100
AcDbCircle
 62
7
  6
CONTINUOUS
 10
-107.5129617907
 20
-26.0956916939
 40
2.9828353348
100
AcDbArc
 50
8.0807897302
 51
12.8457866018
  0
ARC
  5
43E
100
AcDbEntity
  8
SUPERFICI
100
AcDbCircle
 62
7
  6
CONTINUOUS
 10
-107.4776063849
 20
-26.0905150007
 40
2.9471032984
100
AcDbArc
 50
5.6462807547
 51
9.0772653499
  0
ARC
  5
43F
100
AcDbEntity
  8
SUPERFICI
100
AcDbCircle
 62
7
  6
CONTINUOUS
 10
-107.4829257577
 20
-26.0603265316
 40
2.9421677946
100
AcDbArc
 50
35.3558772459
 51
39.1546933351
  0
ARC
  5
440
100
AcDbEntity
  8
SUPERFICI
100
AcDbCircle
 62
7
  6
CONTINUOUS
 10
-107.4854314601
 20
-26.0564999506
 40
2.9416451686
100
AcDbArc
 50
35.1686715209
 51
38.7177356703
  0
ARC
  5
441
100
AcDbEntity
  8
SUPERFICI
100
AcDbCircle
 62
7
  6
CONTINUOUS
 10
-107.4598506818
 20
-26.0909875549
 40
2.9320181045
100
AcDbArc
 50
6.2503303008
 51
6.6473114949
  0
ARC
  5
442
100
AcDbEntity
  8
SUPERFICI
100
AcDbCircle
 62
7
  6
CONTINUOUS
 10
-107.4597884704
 20
-26.0886460134
 40
2.9291879502
100
AcDbArc
 50
5.2186601103
 51
5.6441902961
  0
ARC
  5
443
100
AcDbEntity
  8
SUPERFICI
100
AcDbCircle
 62
7
  6
CONTINUOUS
 10
-107.4538149056
 20
-26.0903293808
 40
2.9259465496
100
AcDbArc
 50
5.6886132368
 51
6.2503864804
  0
ARC
  5
444
100
AcDbEntity
  8
SUPERFICI
100
AcDbCircle
 62
7
  6
CONTINUOUS
 10
-107.4522231079
 20
-26.0879624225
 40
2.9215917702
100
AcDbArc
 50
4.4550792306
 51
5.218804542
  0
ARC
  5
445
100
AcDbEntity
  8
SUPERFICI
100
AcDbCircle
 62
7
  6
CONTINUOUS
 10
-107.4475543924
 20
-26.0897030215
 40
2.9196547816
100
AcDbArc
 50
5.2731775594
 51
5.6885598577
  0
ARC
  5
446
100
AcDbEntity
  8
SUPERFICI
100
AcDbCircle
 62
7
  6
CONTINUOUS
 10
-107.4655010443
 20
-26.0408329035
 40
2.9162952436
100
AcDbArc
 50
38.7224931967
 51
39.0944894744
  0
ARC
  5
447
100
AcDbEntity
  8
SUPERFICI
100
AcDbCircle
 62
7
  6
CONTINUOUS
 10
-107.4452460513
 20
-26.0874094632
 40
2.914592842
100
AcDbArc
 50
4.1450617742
 51
4.4548958501
  0
ARC
  5
448
100
AcDbEntity
  8
SUPERFICI
100
AcDbCircle
 62
253
  6
CONTINUOUS
 10
-60.7083665356
 20
-37.2052163757
 40
41.0796885988
100
AcDbArc
 50
179.5548054961
 51
180.350472613
  0
ARC
  5
449
100
AcDbEntity
  8
SUPERFICI
100
AcDbCircle
 62
7
  6
CONTINUOUS
 10
-49.5514369165
 20
-21.5246843764
 40
55.1663962357
100
AcDbArc
 50
188.9522928518
 51
189.2799090314
  0
ARC
  5
44A
100
AcDbEntity
  8
SUPERFICI
100
AcDbCircle
 62
7
  6
CONTINUOUS
 10
-49.8791974634
 20
-21.5786546658
 40
54.8342219417
100
AcDbArc
 50
189.3227368803
 51
189.798350175
  0
ARC
  5
44B
100
AcDbEntity
  8
SUPERFICI
100
AcDbCircle
 62
7
  6
CONTINUOUS
 10
-49.9205302495
 20
-21.5818333028
 40
54.7929060536
100
AcDbArc
 50
188.3461261391
 51
188.9533203407
  0
ARC
  5
44C
100
AcDbEntity
  8
SUPERFICI
100
AcDbCircle
 62
7
  6
CONTINUOUS
 10
-51.2671018051
 20
-21.8190415095
 40
53.4256525113
100
AcDbArc
 50
189.8788115721
 51
190.329527845
  0
ARC
  5
44D
100
AcDbEntity
  8
SUPERFICI
100
AcDbCircle
 62
7
  6
CONTINUOUS
 10
-51.5917103679
 20
-21.8234004389
 40
53.1043609591
100
AcDbArc
 50
187.5408936025
 51
188.3499753996
  0
ARC
  5
44E
100
AcDbEntity
  8
SUPERFICI
100
AcDbCircle
 62
7
  6
CONTINUOUS
 10
-51.9678377522
 20
-21.3713583208
 40
52.8403408089
100
AcDbArc
 50
194.6731317007
 51
195.1999097077
  0
ARC
  5
44F
100
AcDbEntity
  8
SUPERFICI
100
AcDbCircle
 62
7
  6
CONTINUOUS
 10
-53.7649142969
 20
-22.257837522
 40
50.8887489263
100
AcDbArc
 50
187.3788360498
 51
190.5937141471
  0
ARC
  5
450
100
AcDbEntity
  8
SUPERFICI
100
AcDbCircle
 62
7
  6
CONTINUOUS
 10
-57.4832485013
 20
-22.9884656521
 40
47.1003975848
100
AcDbArc
 50
190.8904226327
 51
191.6498311574
  0
ARC
  5
451
100
AcDbEntity
  8
SUPERFICI
100
AcDbCircle
 62
7
  6
CONTINUOUS
 10
-58.7873075788
 20
-23.174666593
 40
45.7834110588
100
AcDbArc
 50
190.6997385398
 51
190.9613474471
  0
ARC
  5
452
100
AcDbEntity
  8
SUPERFICI
100
AcDbCircle
 62
7
  6
CONTINUOUS
 10
-60.3404932045
 20
-23.5423524592
 40
44.1907789436
100
AcDbArc
 50
193.2815315942
 51
194.5603529828
  0
ARC
  5
453
100
AcDbEntity
  8
SUPERFICI
100
AcDbCircle
 62
7
  6
CONTINUOUS
 10
-61.1796586124
 20
-23.7509465303
 40
43.3261564931
100
AcDbArc
 50
191.7735069868
 51
193.0901544703
  0
ARC
  5
454
100
AcDbEntity
  8
SUPERFICI
100
AcDbCircle
 62
7
  6
CONTINUOUS
 10
-61.7618698399
 20
-23.8813570358
 40
42.7295384717
100
AcDbArc
 50
193.0966440171
 51
193.276978215
  0
ARC
  5
455
100
AcDbEntity
  8
0
100
AcDbCircle
 62
7
  6
CONTINUOUS
 10
-68.0269928919
 20
-21.7011686301
 40
36.7707684604
100
AcDbArc
 50
186.5569261427
 51
186.6775912015
  0
ARC
  5
456
100
AcDbEntity
  8
0
100
AcDbCircle
 62
7
  6
CONTINUOUS
 10
-14.4534470611
 20
-16.7822423488
 40
90.5623543385
100
AcDbArc
 50
186.9771889937
 51
187.2515947782
  0
ARC
  5
457
100
AcDbEntity
  8
0
100
AcDbCircle
 62
253
  6
CONTINUOUS
 10
-20.7686944222
 20
-15.5824469731
 40
84.421968546
100
AcDbArc
 50
187.0724226293
 51
187.3778942643
  0
ARC
  5
458
100
AcDbEntity
  8
0
100
AcDbCircle
 62
253
  6
CONTINUOUS
 10
-27.7349520636
 20
-16.5075498809
 40
77.3944384644
100
AcDbArc
 50
187.9297639017
 51
188.1803304019
  0
ARC
  5
459
100
AcDbEntity
  8
0
100
AcDbCircle
 62
7
  6
CONTINUOUS
 10
-28.0917895607
 20
-18.521267652
 40
76.8135878516
100
AcDbArc
 50
187.2489137957
 51
187.6785030308
  0
ARC
  5
45A
100
AcDbEntity
  8
0
100
AcDbCircle
 62
7
  6
CONTINUOUS
 10
-28.6775392438
 20
-18.8762238059
 40
76.2029365284
100
AcDbArc
 50
186.7530242766
 51
187.0397068569
  0
ARC
  5
45B
100
AcDbEntity
  8
0
100
AcDbCircle
 62
7
  6
CONTINUOUS
 10
-29.2906757222
 20
-18.9003197452
 40
75.5941560962
100
AcDbArc
 50
186.7534023045
 51
187.0041461341
  0
ARC
  5
45C
100
AcDbEntity
  8
0
100
AcDbCircle
 62
253
  6
CONTINUOUS
 10
-30.8217475262
 20
-16.9607975219
 40
74.2448108014
100
AcDbArc
 50
188.2832925706
 51
189.1574623662
  0
ARC
  5
45D
100
AcDbEntity
  8
0
100
AcDbCircle
 62
7
  6
CONTINUOUS
 10
-33.7366696384
 20
-19.4891921071
 40
71.1039545069
100
AcDbArc
 50
187.048507702
 51
187.3575893377
  0
ARC
  5
45E
100
AcDbEntity
  8
SUPERFICI
100
AcDbCircle
 62
7
  6
CONTINUOUS
 10
-34.8114128478
 20
-16.8668180678
 40
70.5727710919
100
AcDbArc
 50
195.0804687625
 51
195.5553301339
  0
ARC
  5
45F
100
AcDbEntity
  8
SUPERFICI
100
AcDbCircle
 62
7
  6
CONTINUOUS
 10
-40.6557663436
 20
-18.291894241
 40
64.5640787184
100
AcDbArc
 50
195.2051006074
 51
195.727838449
  0
ARC
  5
460
100
AcDbEntity
  8
RACCORDO
100
AcDbCircle
 62
7
  6
CONTINUOUS
 10
-96.8767160524
 20
-4.2018133435
 40
0.5
100
AcDbArc
 50
0.0
 51
82.5
  0
ARC
  5
461
100
AcDbEntity
  8
RACCORDO
100
AcDbCircle
 62
7
  6
CONTINUOUS
 10
-97.8767160524
 20
-3.0615318854
 40
0.5
100
AcDbArc
 50
180.0
 51
262.5
  0
ARC
  5
462
100
AcDbEntity
  8
SUPERFICI
100
AcDbCircle
 62
253
  6
CONTINUOUS
 10
43.0129173699
 20
-36.8784887093
 40
144.8013576152
100
AcDbArc
 50
180.228709322
 51
180.6377322244
  0
ARC
  5
463
100
AcDbEntity
  8
0
100
AcDbCircle
 62
7
  6
CONTINUOUS
 10
97.2960188015
 20
-3.8576033927
 40
203.0487205877
100
AcDbArc
 50
186.55325569
 51
186.7192955394
  0
ARC
  5
464
100
AcDbEntity
  8
0
100
AcDbCircle
 62
7
  6
CONTINUOUS
 10
0.4345868646
 20
-14.2339558981
 40
105.62974485
100
AcDbArc
 50
187.3714112452
 51
187.8486981491
  0
ARC
  5
465
100
AcDbEntity
  8
0
100
AcDbCircle
 62
7
  6
CONTINUOUS
 10
-0.3670083428
 20
-14.1878704847
 40
104.8299092047
100
AcDbArc
 50
187.490668164
 51
187.9296563151
  0
ARC
  5
466
100
AcDbEntity
  8
0
100
AcDbCircle
 62
7
  6
CONTINUOUS
 10
-0.4284546417
 20
-14.1966440398
 40
104.7378748942
100
AcDbArc
 50
187.4923171816
 51
187.931752301
  0
ARC
  5
467
100
AcDbEntity
  8
0
100
AcDbCircle
 62
7
  6
CONTINUOUS
 10
-0.4400951324
 20
-15.0719009942
 40
104.6797026516
100
AcDbArc
 50
186.6143410403
 51
186.9079521775
  0
ARC
  5
468
100
AcDbEntity
  8
0
100
AcDbCircle
 62
7
  6
CONTINUOUS
 10
-10.186976494
 20
-16.4748520113
 40
94.8204929245
100
AcDbArc
 50
186.7764665747
 51
187.3821270304
  0
ARC
  5
469
100
AcDbEntity
  8
SUPERFICI
100
AcDbCircle
 62
253
  6
CONTINUOUS
 10
-449.3242103616
 20
25.6949213532
 40
344.7858539678
100
AcDbArc
 50
359.6978164891
 51
359.9335808359
  0
ARC
  5
46A
100
AcDbEntity
  8
SUPERFICI
100
AcDbCircle
 62
253
  6
CONTINUOUS
 10
-366.7200481706
 20
89.4905212881
 40
270.5643946113
100
AcDbArc
 50
347.2767953152
 51
348.2917731399
  0
ARC
  5
46B
100
AcDbEntity
  8
SUPERFICI
100
AcDbCircle
 62
253
  6
CONTINUOUS
 10
-285.0763144903
 20
73.4729738903
 40
188.2061113449
100
AcDbArc
 50
345.5801856231
 51
346.8799826369
  0
ARC
  5
46C
100
AcDbEntity
  8
SUPERFICI
100
AcDbCircle
 62
253
  6
CONTINUOUS
 10
-211.8105818819
 20
56.627979767
 40
114.5939236114
100
AcDbArc
 50
342.042178764
 51
343.7760848714
  0
ARC
  5
46D
100
AcDbEntity
  8
SUPERFICI
100
AcDbCircle
 62
7
  6
CONTINUOUS
 10
-39.3914707243
 20
18.1252302669
 40
65.8230068617
100
AcDbArc
 50
164.4308211931
 51
165.1076053435
  0
ARC
  5
46E
100
AcDbEntity
  8
SUPERFICI
100
AcDbCircle
 62
7
  6
CONTINUOUS
 10
-43.1138601388
 20
18.9749315118
 40
62.0128665197
100
AcDbArc
 50
164.2640032712
 51
164.9853631194
  0
ARC
  5
46F
100
AcDbEntity
  8
RACCORDO
100
AcDbCircle
 62
7
  6
CONTINUOUS
 10
-96.8767160524
 20
4.2017731098
 40
0.5
100
AcDbArc
 50
277.5
 51
360.0
  0
ARC
  5
470
100
AcDbEntity
  8
RACCORDO
100
AcDbCircle
 62
7
  6
CONTINUOUS
 10
-97.8767160524
 20
3.0614916516
 40
0.5
100
AcDbArc
 50
97.5
 51
180.0
  0
ARC
  5
471
100
AcDbEntity
  8
SUPERFICI
100
AcDbCircle
 62
7
  6
CONTINUOUS
 10
-107.5776959498
 20
26.1066173729
 40
3.0516122152
100
AcDbArc
 50
344.4934744567
 51
347.5425677498
  0
ARC
  5
472
100
AcDbEntity
  8
SUPERFICI
100
AcDbCircle
 62
7
  6
CONTINUOUS
 10
-107.5747755591
 20
26.1112896984
 40
3.0466540744
100
AcDbArc
 50
336.432358897
 51
340.3048446024
  0
ARC
  5
473
100
AcDbEntity
  8
SUPERFICI
100
AcDbCircle
 62
7
  6
CONTINUOUS
 10
-107.5695414982
 20
26.1142714834
 40
3.0443975122
100
AcDbArc
 50
335.8992535228
 51
353.1958060272
  0
ARC
  5
474
100
AcDbEntity
  8
SUPERFICI
100
AcDbCircle
 62
7
  6
CONTINUOUS
 10
-107.5695016317
 20
26.1048404037
 40
3.0432275023
100
AcDbArc
 50
347.5419559058
 51
349.5262957688
  0
ARC
  5
475
100
AcDbEntity
  8
SUPERFICI
100
AcDbCircle
 62
7
  6
CONTINUOUS
 10
-107.5659050212
 20
26.1040957152
 40
3.0395535551
100
AcDbArc
 50
347.5312531698
 51
350.5584590717
  0
ARC
  5
476
100
AcDbEntity
  8
SUPERFICI
100
AcDbCircle
 62
7
  6
CONTINUOUS
 10
-107.5680851824
 20
26.1083442232
 40
3.0393440574
100
AcDbArc
 50
332.5705793917
 51
336.432825776
  0
ARC
  5
477
100
AcDbEntity
  8
SUPERFICI
100
AcDbCircle
 62
7
  6
CONTINUOUS
 10
-107.5676077764
 20
26.1087502506
 40
3.0390497804
100
AcDbArc
 50
340.3043776606
 51
344.1688864576
  0
ARC
  5
478
100
AcDbEntity
  8
SUPERFICI
100
AcDbCircle
 62
7
  6
CONTINUOUS
 10
-107.5628449302
 20
26.1118136307
 40
3.0372641731
100
AcDbArc
 50
339.659229703
 51
343.4097312798
  0
ARC
  5
479
100
AcDbEntity
  8
SUPERFICI
100
AcDbCircle
 62
7
  6
CONTINUOUS
 10
-107.5520966624
 20
26.1016841465
 40
3.0255366569
100
AcDbArc
 50
350.5606133982
 51
350.8224898355
  0
ARC
  5
47A
100
AcDbEntity
  8
SUPERFICI
100
AcDbCircle
 62
7
  6
CONTINUOUS
 10
-107.5468806618
 20
26.1035171787
 40
3.0193206613
100
AcDbArc
 50
324.6775672459
 51
335.9099459619
  0
ARC
  5
47B
100
AcDbEntity
  8
SUPERFICI
100
AcDbCircle
 62
7
  6
CONTINUOUS
 10
-107.5465952374
 20
26.1028113295
 40
3.0172140932
100
AcDbArc
 50
344.1685328686
 51
348.0306232013
  0
ARC
  5
47C
100
AcDbEntity
  8
SUPERFICI
100
AcDbCircle
 62
7
  6
CONTINUOUS
 10
-107.5385658189
 20
26.0995879156
 40
3.0118446881
100
AcDbArc
 50
350.820802692
 51
353.3400895467
  0
ARC
  5
47D
100
AcDbEntity
  8
SUPERFICI
100
AcDbCircle
 62
7
  6
CONTINUOUS
 10
-107.5362637038
 20
26.0913483123
 40
3.0032707511
100
AcDbArc
 50
324.8461879617
 51
332.5787155064
  0
ARC
  5
47E
100
AcDbEntity
  8
SUPERFICI
100
AcDbCircle
 62
7
  6
CONTINUOUS
 10
-107.5295903296
 20
26.1023227814
 40
3.0026840716
100
AcDbArc
 50
343.4021123285
 51
350.9065999668
  0
ARC
  5
47F
100
AcDbEntity
  8
SUPERFICI
100
AcDbCircle
 62
7
  6
CONTINUOUS
 10
-107.522737779
 20
26.0976356068
 40
2.9958970365
100
AcDbArc
 50
353.3420682931
 51
353.6486625123
  0
ARC
  5
480
100
AcDbEntity
  8
SUPERFICI
100
AcDbCircle
 62
7
  6
CONTINUOUS
 10
-107.5170152396
 20
26.0970045159
 40
2.9901398063
100
AcDbArc
 50
353.6485506519
 51
354.3035110729
  0
ARC
  5
481
100
AcDbEntity
  8
SUPERFICI
100
AcDbCircle
 62
7
  6
CONTINUOUS
 10
-107.5169556094
 20
26.0844865111
 40
2.9839029768
100
AcDbArc
 50
324.6438937126
 51
328.3040748324
  0
ARC
  5
482
100
AcDbEntity
  8
SUPERFICI
100
AcDbCircle
 62
7
  6
CONTINUOUS
 10
-107.5129650488
 20
26.0956922756
 40
2.9828386601
100
AcDbArc
 50
348.0304262933
 51
351.9189754185
  0
ARC
  5
483
100
AcDbEntity
  8
SUPERFICI
100
AcDbCircle
 62
7
  6
CONTINUOUS
 10
-107.4886008814
 20
26.0645045269
 40
2.9492149696
100
AcDbArc
 50
322.0576618868
 51
324.6417389099
  0
ARC
  5
484
100
AcDbEntity
  8
SUPERFICI
100
AcDbCircle
 62
7
  6
CONTINUOUS
 10
-107.4776078119
 20
26.0905151733
 40
2.9471047526
100
AcDbArc
 50
350.9222844808
 51
354.3537190167
  0
ARC
  5
485
100
AcDbEntity
  8
SUPERFICI
100
AcDbCircle
 62
7
  6
CONTINUOUS
 10
-107.4897473338
 20
26.059651468
 40
2.9469884615
100
AcDbArc
 50
322.192895341
 51
324.8293266936
  0
ARC
  5
486
100
AcDbEntity
  8
SUPERFICI
100
AcDbCircle
 62
7
  6
CONTINUOUS
 10
-107.460105257
 20
26.0910173829
 40
2.9322744359
100
AcDbArc
 50
353.4191506718
 51
353.641860259
  0
ARC
  5
487
100
AcDbEntity
  8
SUPERFICI
100
AcDbCircle
 62
7
  6
CONTINUOUS
 10
-107.4597884511
 20
26.0886460214
 40
2.929187949
100
AcDbArc
 50
354.3558098941
 51
354.7813400093
  0
ARC
  5
488
100
AcDbEntity
  8
SUPERFICI
100
AcDbCircle
 62
7
  6
CONTINUOUS
 10
-107.4545046899
 20
26.0904006267
 40
2.926640016
100
AcDbArc
 50
353.6417181226
 51
354.3113376567
  0
ARC
  5
489
100
AcDbEntity
  8
SUPERFICI
100
AcDbCircle
 62
7
  6
CONTINUOUS
 10
-107.4701084076
 20
26.0502135526
 40
2.9258431764
100
AcDbArc
 50
320.8403910506
 51
322.1032356066
  0
ARC
  5
48A
100
AcDbEntity
  8
SUPERFICI
100
AcDbCircle
 62
7
  6
CONTINUOUS
 10
-107.4718025174
 20
26.0458720606
 40
2.924363795
100
AcDbArc
 50
321.2348726574
 51
322.1906727188
  0
ARC
  5
48B
100
AcDbEntity
  8
SUPERFICI
100
AcDbCircle
 62
7
  6
CONTINUOUS
 10
-107.4522230881
 20
26.0879624305
 40
2.9215917684
100
AcDbArc
 50
354.7811955778
 51
355.5449208918
  0
ARC
  5
48C
100
AcDbEntity
  8
SUPERFICI
100
AcDbCircle
 62
7
  6
CONTINUOUS
 10
-107.4475543712
 20
26.0897030298
 40
2.9196547784
100
AcDbArc
 50
354.3114402126
 51
354.7268223979
  0
ARC
  5
48D
100
AcDbEntity
  8
SUPERFICI
100
AcDbCircle
 62
7
  6
CONTINUOUS
 10
-107.465288447
 20
26.0463263021
 40
2.9196521105
100
AcDbArc
 50
320.8398277388
 51
321.148392975
  0
ARC
  5
48E
100
AcDbEntity
  8
SUPERFICI
100
AcDbCircle
 62
7
  6
CONTINUOUS
 10
-107.4452460309
 20
26.0874094711
 40
2.9145928396
100
AcDbArc
 50
355.5451042723
 51
355.8549381863
  0
ARC
  5
48F
100
AcDbEntity
  8
SUPERFICI
100
AcDbCircle
 62
253
  6
CONTINUOUS
 10
-78.5469423777
 20
30.9222197685
 40
24.5995938763
100
AcDbArc
 50
160.5690332196
 51
161.2001218329
  0
ARC
  5
490
100
AcDbEntity
  8
SUPERFICI
100
AcDbCircle
 62
7
  6
CONTINUOUS
 10
-46.9231568601
 20
21.3284048553
 40
57.7934106771
100
AcDbArc
 50
173.2265401299
 51
175.5013304251
  0
ARC
  5
491
100
AcDbEntity
  8
SUPERFICI
100
AcDbCircle
 62
7
  6
CONTINUOUS
 10
-49.6234952196
 20
21.5364085391
 40
55.0933904038
100
AcDbArc
 50
170.5652083994
 51
170.8333998347
  0
ARC
  5
492
100
AcDbEntity
  8
SUPERFICI
100
AcDbCircle
 62
7
  6
CONTINUOUS
 10
-49.6268788577
 20
21.5367462022
 40
55.0899961858
100
AcDbArc
 50
170.8331859173
 51
171.5013096678
  0
ARC
  5
493
100
AcDbEntity
  8
SUPERFICI
100
AcDbCircle
 62
7
  6
CONTINUOUS
 10
-50.0920643798
 20
21.6147259763
 40
54.618321486
100
AcDbArc
 50
170.2010137338
 51
170.5656781714
  0
ARC
  5
494
100
AcDbEntity
  8
SUPERFICI
100
AcDbCircle
 62
7
  6
CONTINUOUS
 10
-51.566275378
 20
21.8230017367
 40
53.1295910349
100
AcDbArc
 50
171.4975298404
 51
173.1456677736
  0
ARC
  5
495
100
AcDbEntity
  8
SUPERFICI
100
AcDbCircle
 62
7
  6
CONTINUOUS
 10
-51.6769919845
 20
21.8915599879
 40
53.0094016691
100
AcDbArc
 50
169.56378475
 51
170.2043137685
  0
ARC
  5
496
100
AcDbEntity
  8
SUPERFICI
100
AcDbCircle
 62
7
  6
CONTINUOUS
 10
-53.3166214959
 20
21.7280241044
 40
51.4452010808
100
AcDbArc
 50
165.0030876559
 51
165.315584849
  0
ARC
  5
497
100
AcDbEntity
  8
SUPERFICI
100
AcDbCircle
 62
7
  6
CONTINUOUS
 10
-54.602640724
 20
22.1807393551
 40
50.0722283166
100
AcDbArc
 50
173.1597169736
 51
175.7680366983
  0
ARC
  5
498
100
AcDbEntity
  8
SUPERFICI
100
AcDbCircle
 62
7
  6
CONTINUOUS
 10
-54.6905918416
 20
22.449812205
 40
49.9445282202
100
AcDbArc
 50
169.1348290619
 51
169.4727378885
  0
ARC
  5
499
100
AcDbEntity
  8
SUPERFICI
100
AcDbCircle
 62
7
  6
CONTINUOUS
 10
-58.2172660909
 20
23.1343231669
 40
46.3520462876
100
AcDbArc
 50
168.2763546962
 51
169.1440593686
  0
ARC
  5
49A
100
AcDbEntity
  8
SUPERFICI
100
AcDbCircle
 62
7
  6
CONTINUOUS
 10
-58.7408728996
 20
23.1615170213
 40
45.8315971037
100
AcDbArc
 50
169.0487271748
 51
169.5018578552
  0
ARC
  5
49B
100
AcDbEntity
  8
SUPERFICI
100
AcDbCircle
 62
7
  6
CONTINUOUS
 10
-59.3810703003
 20
23.3041328764
 40
45.1792794986
100
AcDbArc
 50
165.4372423984
 51
166.6622519133
  0
ARC
  5
49C
100
AcDbEntity
  8
SUPERFICI
100
AcDbCircle
 62
7
  6
CONTINUOUS
 10
-61.5734328
 20
23.8381513762
 40
42.9228637935
100
AcDbArc
 50
166.8641780159
 51
168.1518924003
  0
ARC
  5
49D
100
AcDbEntity
  8
SUPERFICI
100
AcDbCircle
 62
7
  6
CONTINUOUS
 10
-61.7257018905
 20
23.8728691755
 40
42.7666889983
100
AcDbArc
 50
166.6790129804
 51
166.8631124907
  0
ARC
  5
49E
100
AcDbEntity
  8
SUPERFICI
100
AcDbCircle
 62
253
  6
CONTINUOUS
 10
35.8632144842
 20
36.9344195669
 40
137.6514556321
100
AcDbArc
 50
179.3524256027
 51
179.782692252
  0
SPLINE
  5
49F
100
AcDbEntity
  8
SUPERFICI
100
AcDbSpline
 62
253
  6
CONTINUOUS
 70
0
 71
3
 72
11
 73
7
 74
5
 42
0.0000001
 43
0.0000001
 44
0.0000000001
 12
-1.6458343541
 22
0.0845354542
 32
0.0
 13
-1.6479019489
 23
0.0183338753
 33
0.0
 40
0.0
 40
0.0
 40
0.0
 40
0.0
 40
0.2694501943
 40
0.5295786915
 40
0.7749581033
 40
1.0
 40
1.0
 40
1.0
 40
1.0
 10
37.1551547834
 20
22.2456418574
 30
0.0
 10
37.0073313212
 20
22.2532345555
 30
0.0
 10
36.716662485
 20
22.2664634506
 30
0.0
 10
36.2908976763
 20
22.2696517
 30
0.0
 10
35.8895929077
 20
22.2663203964
 30
0.0
 10
35.6311796266
 20
22.2694223944
 30
0.0
 10
35.5075639666
 20
22.2707976911
 30
0.0
 11
37.1551547834
 21
22.2456418574
 31
0.0
 11
36.7114726776
 21
22.2638356582
 31
0.0
 11
36.2828058279
 21
22.2685512735
 31
0.0
 11
35.8784205846
 21
22.2676553116
 31
0.0
 11
35.5075639666
 21
22.2707976911
 31
0.0
  0
SPLINE
  5
4A0
100
AcDbEntity
  8
SUPERFICI
100
AcDbSpline
 62
253
  6
CONTINUOUS
 70
0
 71
3
 72
20
 73
16
 74
14
 42
0.0000001
 43
0.0000001
 44
0.0000000001
 12
-1.6241647121
 22
-0.0117629465
 32
0.0
 13
-1.5049955344
 23
-0.6107682214
 33
0.0
 40
0.0
 40
0.0
 40
0.0
 40
0.0
 40
0.1484841328
 40
0.3138810092
 40
0.4847846733
 40
0.6485043803
 40
0.7901716699
 40
0.8496001496
 40
0.9003977646
 40
0.9418012791
 40
0.9729154565
 40
0.9842913404
 40
0.9926908209
 40
0.9979710053
 40
1.0
 40
1.0
 40
1.0
 40
1.0
 10
35.5047789985
 20
22.2707990983
 30
0.0
 10
35.4243914356
 20
22.2702168946
 30
0.0
 10
35.2544535692
 20
22.2699592997
 30
0.0
 10
34.9919914429
 20
22.2706320211
 30
0.0
 10
34.7212786424
 20
22.2709916394
 30
0.0
 10
34.4634150568
 20
22.2702225197
 30
0.0
 10
34.2659025061
 20
22.2696653144
 30
0.0
 10
34.1295300801
 20
22.2691556968
 30
0.0
 10
34.0474322654
 20
22.2689757578
 30
0.0
 10
33.9806835607
 20
22.2690237595
 30
0.0
 10
33.935231664
 20
22.2693372576
 30
0.0
 10
33.9077255071
 20
22.2692659418
 30
0.0
 10
33.8940809766
 20
22.2695657865
 30
0.0
 10
33.8857255474
 20
22.2689498432
 30
0.0
 10
33.8815999411
 20
22.2694633094
 30
0.0
 10
33.8805820651
 20
22.2690502276
 30
0.0
 11
35.5047789985
 21
22.2707990983
 31
0.0
 11
35.2636109178
 21
22.2701282977
 31
0.0
 11
34.9949724657
 21
22.2705700039
 31
0.0
 11
34.7173895752
 21
22.2707930781
 31
0.0
 11
34.4514755041
 21
22.2701945848
 31
0.0
 11
34.2213795351
 21
22.2694902259
 31
0.0
 11
34.1248559119
 21
22.2691650358
 31
0.0
 11
34.0423502025
 21
22.2690087156
 31
0.0
 11
33.9751023833
 21
22.2691068988
 31
0.0
 11
33.9245668552
 21
22.2692939473
 31
0.0
 11
33.9060901441
 21
22.2693492552
 31
0.0
 11
33.8924476503
 21
22.2693391731
 31
0.0
 11
33.8838721109
 21
22.2692398898
 31
0.0
 11
33.8805820651
 21
22.2690502276
 31
0.0
  0
SPLINE
  5
4A1
100
AcDbEntity
  8
SUPERFICI
100
AcDbSpline
 62
253
  6
CONTINUOUS
 70
0
 71
3
 72
21
 73
17
 74
15
 42
0.0000001
 43
0.0000001
 44
0.0000000001
 12
1.4118147979
 22
-0.8229575477
 32
0.0
 13
0.0250788714
 23
-1.6339679309
 33
0.0
 40
0.0
 40
0.0
 40
0.0
 40
0.0
 40
0.0019684608
 40
0.0068704886
 40
0.0147381987
 40
0.0255500843
 40
0.0558158845
 40
0.0970361504
 40
0.1484101677
 40
0.208911805
 40
0.2773479646
 40
0.3523749787
 40
0.5162090191
 40
0.6875691169
 40
0.8530939339
 40
1.0
 40
1.0
 40
1.0
 40
1.0
 10
33.5785952662
 20
-22.5707936027
 30
0.0
 10
33.5795216335
 20
-22.5713335892
 30
0.0
 10
33.5793785702
 20
-22.5759653175
 30
0.0
 10
33.5803043383
 20
-22.5832017029
 30
0.0
 10
33.5799365264
 20
-22.5964704295
 30
0.0
 10
33.5798630482
 20
-22.6228820754
 30
0.0
 10
33.5798068826
 20
-22.667892651
 30
0.0
 10
33.5797820983
 20
-22.7347324362
 30
0.0
 10
33.5797195947
 20
-22.8181584114
 30
0.0
 10
33.5796929875
 20
-22.9163670562
 30
0.0
 10
33.5796232686
 20
-23.0274742475
 30
0.0
 10
33.579594841
 20
-23.194863903
 30
0.0
 10
33.5795762255
 20
-23.4183201465
 30
0.0
 10
33.5790897266
 20
-23.6910723463
 30
0.0
 10
33.5790649482
 20
-23.9545993679
 30
0.0
 10
33.5792435007
 20
-24.1247952863
 30
0.0
 10
33.5804715802
 20
-24.2048085532
 30
0.0
 11
33.5785952662
 21
-22.5707936027
 31
0.0
 11
33.5794868254
 21
-22.573884363
 31
0.0
 11
33.5799704978
 21
-22.5818804478
 31
0.0
 11
33.5800291601
 21
-22.594737414
 31
0.0
 11
33.579894583
 21
-22.6124052566
 31
0.0
 11
33.5798205188
 21
-22.6618643727
 31
0.0
 11
33.5797803566
 21
-22.729224886
 31
0.0
 11
33.5797294714
 21
-22.8131782543
 31
0.0
 11
33.5796886435
 21
-22.9120476245
 31
0.0
 11
33.5796336605
 21
-23.0238832717
 31
0.0
 11
33.5796041671
 21
-23.146489442
 31
0.0
 11
33.5795023973
 21
-23.4142205205
 31
0.0
 11
33.5791642815
 21
-23.6942501988
 31
0.0
 11
33.579118603
 21
-23.964744293
 31
0.0
 11
33.5804715802
 21
-24.2048085532
 31
0.0
  0
SPLINE
  5
4A2
100
AcDbEntity
  8
SUPERFICI
100
AcDbSpline
 62
253
  6
CONTINUOUS
 70
0
 71
3
 72
21
 73
17
 74
15
 42
0.0000001
 43
0.0000001
 44
0.0000000001
 12
-1.6287744853
 22
0.0228623566
 32
0.0
 13
-1.1321596772
 23
1.1711718391
 33
0.0
 40
0.0
 40
0.0
 40
0.0
 40
0.0
 40
0.1474627625
 40
0.3132579808
 40
0.4846652557
 40
0.6483787801
 40
0.7233031788
 40
0.7916186129
 40
0.851994405
 40
0.9032492143
 40
0.9443651809
 40
0.9745521346
 40
0.9853387072
 40
0.9931900671
 40
0.9980776566
 40
1.0
 40
1.0
 40
1.0
 40
1.0
 10
35.5094958961
 20
-22.2708009356
 30
0.0
 10
35.4294347011
 20
-22.2696771535
 30
0.0
 10
35.2593313176
 20
-22.2700465175
 30
0.0
 10
34.9961757527
 20
-22.2713818347
 30
0.0
 10
34.7241875265
 20
-22.2706513535
 30
0.0
 10
34.5015420339
 20
-22.2703910474
 30
0.0
 10
34.3348748016
 20
-22.2698226967
 30
0.0
 10
34.2243140247
 20
-22.2694994982
 30
0.0
 10
34.1266151335
 20
-22.2692055132
 30
0.0
 10
34.0436554947
 20
-22.2690203747
 30
0.0
 10
33.9771676861
 20
-22.268910911
 30
0.0
 10
33.9324697243
 20
-22.2690782392
 30
0.0
 10
33.9061327767
 20
-22.2694011099
 30
0.0
 10
33.8930751664
 20
-22.2700792223
 30
0.0
 10
33.8856465295
 20
-22.2692736819
 30
0.0
 10
33.8813431
 20
-22.2698006435
 30
0.0
 10
33.8806176334
 20
-22.2690501787
 30
0.0
 11
35.5094958961
 21
-22.2708009356
 31
0.0
 11
35.2692895763
 21
-22.2701343039
 31
0.0
 11
34.9992214155
 21
-22.2710229031
 31
0.0
 11
34.7200102906
 21
-22.2707123282
 31
0.0
 11
34.4533321078
 21
-22.2701980238
 31
0.0
 11
34.3312857204
 21
-22.2698208173
 31
0.0
 11
34.2200048296
 21
-22.2694852114
 31
0.0
 11
34.1216569938
 21
-22.2692043815
 31
0.0
 11
34.0381664544
 21
-22.2690171555
 31
0.0
 11
33.9711912363
 21
-22.2689706532
 31
0.0
 11
33.9220192828
 21
-22.2692195205
 31
0.0
 11
33.9044519411
 21
-22.26955918
 31
0.0
 11
33.8916641524
 21
-22.2697592983
 31
0.0
 11
33.8837047219
 21
-22.2695749424
 31
0.0
 11
33.8806176334
 21
-22.2690501787
 31
0.0
  0
SPLINE
  5
4A3
100
AcDbEntity
  8
SUPERFICI
100
AcDbSpline
 62
253
  6
CONTINUOUS
 70
0
 71
3
 72
8
 73
4
 74
2
 42
0.0000001
 43
0.0000001
 44
0.0000000001
 12
0.0220517763
 22
-0.5494579915
 32
0.0
 13
-0.0735099615
 23
-0.5449648161
 33
0.0
 40
0.0
 40
0.0
 40
0.0
 40
0.0
 40
1.0
 40
1.0
 40
1.0
 40
1.0
 10
37.1552105199
 20
-22.2456399411
 30
0.0
 10
37.1625611119
 20
-22.428792605
 30
0.0
 10
37.1521389186
 20
-22.6131935138
 30
0.0
 10
37.1276355981
 20
-22.7948484525
 30
0.0
 11
37.1552105199
 21
-22.2456399411
 31
0.0
 11
37.1276355981
 21
-22.7948484525
 31
0.0
  0
SPLINE
  5
4A4
100
AcDbEntity
  8
SUPERFICI
100
AcDbSpline
 62
253
  6
CONTINUOUS
 70
0
 71
3
 72
9
 73
5
 74
3
 42
0.0000001
 43
0.0000001
 44
0.0000000001
 12
-0.0310473107
 22
-0.8696409428
 32
0.0
 13
0.0115196816
 23
-0.8701187286
 33
0.0
 40
0.0
 40
0.0
 40
0.0
 40
0.0
 40
0.2545165994
 40
1.0
 40
1.0
 40
1.0
 40
1.0
 10
37.1664205031
 20
-21.3755644857
 30
0.0
 10
37.1637864845
 20
-21.4493438375
 30
0.0
 10
37.1548847326
 20
-21.7392700598
 30
0.0
 10
37.1522921915
 20
-22.0294210208
 30
0.0
 10
37.1551547687
 20
-22.2456407104
 30
0.0
 11
37.1664205031
 21
-21.3755644857
 31
0.0
 11
37.1596638997
 21
-21.5969404681
 31
0.0
 11
37.1551547687
 21
-22.2456407104
 31
0.0
  0
SPLINE
  5
4A5
100
AcDbEntity
  8
SUPERFICI
100
AcDbSpline
 62
253
  6
CONTINUOUS
 70
0
 71
3
 72
11
 73
7
 74
5
 42
0.0000001
 43
0.0000001
 44
0.0000000001
 12
-0.431820279
 22
-1.9491277511
 32
0.0
 13
-0.8344721213
 23
-1.8136217969
 33
0.0
 40
0.0
 40
0.0
 40
0.0
 40
0.0
 40
0.2497389953
 40
0.4996246696
 40
0.749656446
 40
1.0
 40
1.0
 40
1.0
 40
1.0
 10
52.7071788625
 20
-29.9009653277
 30
0.0
 10
52.6712314082
 20
-30.0632230631
 30
0.0
 10
52.5909896301
 20
-30.3859557909
 30
0.0
 10
52.461694382
 20
-30.8678016632
 30
0.0
 10
52.3119635753
 20
-31.3444060874
 30
0.0
 10
52.1866232125
 20
-31.6534682945
 30
0.0
 10
52.116988307
 20
-31.8048111366
 30
0.0
 11
52.7071788625
 21
-29.9009653277
 31
0.0
 11
52.5895316021
 21
-30.3854622333
 31
0.0
 11
52.4583347499
 21
-30.866770446
 31
0.0
 11
52.3056638214
 21
-31.3420102793
 31
0.0
 11
52.116988307
 21
-31.8048111366
 31
0.0
  0
SPLINE
  5
4A6
100
AcDbEntity
  8
SUPERFICI
100
AcDbSpline
 62
253
  6
CONTINUOUS
 70
0
 71
3
 72
11
 73
7
 74
5
 42
0.0000001
 43
0.0000001
 44
0.0000000001
 12
0.0645488684
 22
2.300280889
 32
0.0
 13
0.0360985292
 23
2.3009032185
 33
0.0
 40
0.0
 40
0.0
 40
0.0
 40
0.0
 40
0.2499933559
 40
0.500005257
 40
0.750000108
 40
1.0
 40
1.0
 40
1.0
 40
1.0
 10
58.9458928123
 20
-36.8860247181
 30
0.0
 10
58.9512717417
 20
-36.6943397385
 30
0.0
 10
58.9486890073
 20
-36.3107102698
 30
0.0
 10
58.9481631052
 20
-35.7354442121
 30
0.0
 10
58.9548506675
 20
-35.1601616879
 30
0.0
 10
58.9603825839
 20
-34.7766782304
 30
0.0
 10
58.9633907933
 20
-34.5849363784
 30
0.0
 11
58.9458928123
 21
-36.8860247181
 31
0.0
 11
58.949247094
 21
-36.3107531931
 31
0.0
 11
58.9493654256
 21
-35.7354292253
 31
0.0
 11
58.9551190241
 21
-35.1601732532
 31
0.0
 11
58.9633907933
 21
-34.5849363784
 31
0.0
  0
SPLINE
  5
4A7
100
AcDbEntity
  8
SUPERFICI
100
AcDbSpline
 62
253
  6
CONTINUOUS
 70
0
 71
3
 72
9
 73
5
 74
3
 42
0.0000001
 43
0.0000001
 44
0.0000000001
 12
-6.5528737618
 22
5.4371000181
 32
0.0
 13
-7.0705028148
 23
4.7444916577
 33
0.0
 40
0.0
 40
0.0
 40
0.0
 40
0.0
 40
0.5124997325
 40
1.0
 40
1.0
 40
1.0
 40
1.0
 10
58.946833853
 20
-36.8848623649
 30
0.0
 10
57.8273851698
 20
-35.95602493
 30
0.0
 10
55.5917363551
 20
-34.2045247541
 30
0.0
 10
53.2660137742
 20
-32.5756958107
 30
0.0
 10
52.1170564362
 20
-31.8047154932
 30
0.0
 11
58.946833853
 21
-36.8848623649
 31
0.0
 11
55.5121879181
 21
-34.1929585192
 31
0.0
 11
52.1170564362
 21
-31.8047154932
 31
0.0
  0
SPLINE
  5
4A8
100
AcDbEntity
  8
SUPERFICI
100
AcDbSpline
 62
253
  6
CONTINUOUS
 70
0
 71
3
 72
16
 73
12
 74
10
 42
0.0000001
 43
0.0000001
 44
0.0000000001
 12
-1.069703154
 22
-0.9139722877
 32
0.0
 13
-1.3859874921
 23
-0.2421752508
 33
0.0
 40
0.0
 40
0.0
 40
0.0
 40
0.0
 40
0.2498773604
 40
0.3749047136
 40
0.4999264971
 40
0.6249476657
 40
0.7499624229
 40
0.812478668
 40
0.8749965035
 40
0.9375294341
 40
1.0
 40
1.0
 40
1.0
 40
1.0
 10
58.2379703693
 20
-38.4901708601
 30
0.0
 10
58.1488721692
 20
-38.5662978543
 30
0.0
 10
58.0053067552
 20
-38.6697014351
 30
0.0
 10
57.7984990958
 20
-38.7807922908
 30
0.0
 10
57.6358030783
 20
-38.8482173937
 30
0.0
 10
57.4692770063
 20
-38.9053443929
 30
0.0
 10
57.3267751953
 20
-38.9404516706
 30
0.0
 10
57.2119071694
 20
-38.9639096434
 30
0.0
 10
57.1253171863
 20
-38.9799624578
 30
0.0
 10
57.0373419577
 20
-38.9855546319
 30
0.0
 10
56.9799510469
 20
-38.9981189461
 30
0.0
 10
56.9510899059
 20
-39.0031618877
 30
0.0
 11
58.2379703693
 21
-38.4901708601
 31
0.0
 11
57.9523776624
 21
-38.695210082
 31
0.0
 11
57.797240327
 21
-38.7781399009
 31
0.0
 11
57.6351635439
 21
-38.8465014919
 31
0.0
 11
57.4685284841
 21
-38.9028454641
 31
0.0
 11
57.2979925247
 21
-38.9459290969
 31
0.0
 11
57.2118370734
 21
-38.96365227
 31
0.0
 11
57.1250897541
 21
-38.9782182888
 31
0.0
 11
57.0376265649
 21
-38.987767826
 31
0.0
 11
56.9510899059
 21
-39.0031618877
 31
0.0
  0
SPLINE
  5
4A9
100
AcDbEntity
  8
SUPERFICI
100
AcDbSpline
 62
253
  6
CONTINUOUS
 70
0
 71
3
 72
9
 73
5
 74
3
 42
0.0000001
 43
0.0000001
 44
0.0000000001
 12
-0.3043224191
 22
-1.1876846585
 32
0.0
 13
-0.9259773804
 23
-0.8035999463
 33
0.0
 40
0.0
 40
0.0
 40
0.0
 40
0.0
 40
0.5000884873
 40
1.0
 40
1.0
 40
1.0
 40
1.0
 10
58.870870223
 20
-37.4564951987
 30
0.0
 10
58.8201408436
 20
-37.6544776735
 30
0.0
 10
58.6602186192
 20
-38.0378695409
 30
0.0
 10
58.3922726203
 20
-38.3562612385
 30
0.0
 10
58.2379703693
 20
-38.4901708601
 30
0.0
 11
58.870870223
 21
-37.4564951987
 31
0.0
 11
58.6331748138
 21
-38.0216815969
 31
0.0
 11
58.2379703693
 21
-38.4901708601
 31
0.0
  0
SPLINE
  5
4AA
100
AcDbEntity
  8
SUPERFICI
100
AcDbSpline
 62
253
  6
CONTINUOUS
 70
0
 71
3
 72
13
 73
9
 74
7
 42
0.0000001
 43
0.0000001
 44
0.0000000001
 12
4.6865576542
 22
0.1386370275
 32
0.0
 13
4.6859385021
 23
0.1581873122
 33
0.0
 40
0.0
 40
0.0
 40
0.0
 40
0.0
 40
0.2499943126
 40
0.4999986224
 40
0.6249987458
 40
0.7499989517
 40
0.874998874
 40
1.0
 40
1.0
 40
1.0
 40
1.0
 10
52.1446282582
 20
-39.105800623
 30
0.0
 10
52.5351658446
 20
-39.0942478002
 30
0.0
 10
53.3164041025
 20
-39.0746397111
 30
0.0
 10
54.2932192687
 20
-39.0707771427
 30
0.0
 10
55.0745717829
 20
-39.0581471802
 30
0.0
 10
55.6604493754
 20
-39.0426594727
 30
0.0
 10
56.2461942756
 20
-39.0224097132
 30
0.0
 10
56.636962673
 20
-39.0192624573
 30
0.0
 10
56.8322118694
 20
-39.0126712599
 30
0.0
 11
52.1446282582
 21
-39.105800623
 31
0.0
 11
53.3164418023
 21
-39.0787694472
 31
0.0
 11
54.4885530908
 21
-39.0668246014
 31
0.0
 11
55.0745496958
 21
-39.0571446294
 31
0.0
 11
55.660427442
 21
-39.041865793
 31
0.0
 11
56.2462602612
 21
-39.0249979021
 31
0.0
 11
56.8322118694
 21
-39.0126712599
 31
0.0
  0
SPLINE
  5
4AB
100
AcDbEntity
  8
SUPERFICI
100
AcDbSpline
 62
253
  6
CONTINUOUS
 70
0
 71
3
 72
10
 73
6
 74
4
 42
0.0000001
 43
0.0000001
 44
0.0000000001
 12
-6.8039946397
 22
5.5968745716
 32
0.0
 13
-7.2316655623
 23
5.0321328703
 33
0.0
 40
0.0
 40
0.0
 40
0.0
 40
0.0
 40
0.2420283434
 40
0.621237287
 40
1.0
 40
1.0
 40
1.0
 40
1.0
 10
58.2379703976
 20
-38.4901667018
 30
0.0
 10
57.6890505474
 20
-38.0386326083
 30
0.0
 10
56.2687973065
 20
-36.8932378307
 30
0.0
 10
53.9300677515
 20
-35.1162675415
 30
0.0
 10
52.121074635
 20
-33.8186562462
 30
0.0
 10
51.2080462124
 20
-33.1833281468
 30
0.0
 11
58.2379703976
 21
-38.4901667018
 31
0.0
 11
56.577459232
 21
-37.1524570825
 31
0.0
 11
53.9199378491
 21
-35.1278095682
 31
0.0
 11
51.2080462124
 21
-33.1833281468
 31
0.0
  0
SPLINE
  5
4AC
100
AcDbEntity
  8
SUPERFICI
100
AcDbSpline
 62
253
  6
CONTINUOUS
 70
0
 71
3
 72
8
 73
4
 74
2
 42
0.0000001
 43
0.0000001
 44
0.0000000001
 12
0.1192170221
 22
-0.0031519388
 32
0.0
 13
0.117327046
 23
0.0213774961
 33
0.0
 40
0.0
 40
0.0
 40
0.0
 40
0.0
 40
1.0
 40
1.0
 40
1.0
 40
1.0
 10
56.8322118694
 20
-39.0126712599
 30
0.0
 10
56.8719508767
 20
-39.0137219062
 30
0.0
 10
56.9119799343
 20
-39.0102643666
 30
0.0
 10
56.9510889497
 20
-39.0031385346
 30
0.0
 11
56.8322118694
 21
-39.0126712599
 31
0.0
 11
56.9510889497
 21
-39.0031385346
 31
0.0
  0
SPLINE
  5
4AD
100
AcDbEntity
  8
SUPERFICI
100
AcDbSpline
 62
253
  6
CONTINUOUS
 70
0
 71
3
 72
13
 73
9
 74
7
 42
0.0000001
 43
0.0000001
 44
0.0000000001
 12
0.0652130983
 22
0.7497311444
 32
0.0
 13
0.0004145349
 23
0.752561868
 33
0.0
 40
0.0
 40
0.0
 40
0.0
 40
0.0
 40
0.0283791327
 40
0.0890911046
 40
0.1808398653
 40
0.3012914124
 40
0.6153984007
 40
1.0
 40
1.0
 40
1.0
 40
1.0
 10
56.8292353582
 20
-39.7651316904
 30
0.0
 10
56.8298522553
 20
-39.7580394505
 30
0.0
 10
56.8297247741
 20
-39.7356524143
 30
0.0
 10
56.8303944467
 20
-39.6903200811
 30
0.0
 10
56.8306782808
 20
-39.6218452256
 30
0.0
 10
56.8315126564
 20
-39.4898292194
 30
0.0
 10
56.8322342469
 20
-39.284335029
 30
0.0
 10
56.8321489782
 20
-39.109062724
 30
0.0
 10
56.8322021218
 20
-39.0125838914
 30
0.0
 11
56.8292353582
 21
-39.7651316904
 31
0.0
 11
56.8298174506
 21
-39.743782568
 31
0.0
 11
56.8302151294
 21
-39.6980947769
 31
0.0
 11
56.8306700618
 21
-39.6290496464
 31
0.0
 11
56.8311821274
 21
-39.5384038377
 31
0.0
 11
56.8320305274
 21
-39.3020203824
 31
0.0
 11
56.8322021218
 21
-39.0125838914
 31
0.0
  0
SPLINE
  5
4AE
100
AcDbEntity
  8
SUPERFICI
100
AcDbSpline
 62
253
  6
CONTINUOUS
 70
0
 71
3
 72
8
 73
4
 74
2
 42
0.0000001
 43
0.0000001
 44
0.0000000001
 12
30.2339081233
 22
0.0112495764
 32
0.0
 13
30.233910193
 23
0.0011835913
 33
0.0
 40
0.0
 40
0.0
 40
0.0
 40
0.0
 40
1.0
 40
1.0
 40
1.0
 40
1.0
 10
-30.2339101625
 20
-39.1140924589
 30
0.0
 10
-20.1559407881
 20
-39.1103426001
 30
0.0
 10
-10.0779702348
 20
-39.1108049621
 30
0.0
 10
-0.0000001705
 20
-39.1104104316
 30
0.0
 11
-30.2339101625
 21
-39.1140924589
 31
0.0
 11
-0.0000001705
 21
-39.1104104316
 31
0.0
  0
SPLINE
  5
4AF
100
AcDbEntity
  8
SUPERFICI
100
AcDbSpline
 62
253
  6
CONTINUOUS
 70
0
 71
3
 72
8
 73
4
 74
2
 42
0.0000001
 43
0.0000001
 44
0.0000000001
 12
30.2339101945
 22
-0.0011836364
 32
0.0
 13
30.2339081248
 23
-0.0112496227
 33
0.0
 40
0.0
 40
0.0
 40
0.0
 40
0.0
 40
1.0
 40
1.0
 40
1.0
 40
1.0
 10
-0.000000225
 20
-39.1104104097
 30
0.0
 10
10.0779698398
 20
-39.1108049551
 30
0.0
 10
20.1559403935
 20
-39.1103426079
 30
0.0
 10
30.2339097685
 20
-39.1140924821
 30
0.0
 11
-0.000000225
 21
-39.1104104097
 31
0.0
 11
30.2339097685
 21
-39.1140924821
 31
0.0
  0
SPLINE
  5
4B0
100
AcDbEntity
  8
SUPERFICI
100
AcDbSpline
 62
253
  6
CONTINUOUS
 70
0
 71
3
 72
12
 73
8
 74
6
 42
0.0000001
 43
0.0000001
 44
0.0000000001
 12
21.909952049
 22
-0.0140573812
 32
0.0
 13
21.9093013129
 23
0.1694472755
 33
0.0
 40
0.0
 40
0.0
 40
0.0
 40
0.0
 40
0.2500046606
 40
0.4999972681
 40
0.7499944759
 40
0.8749954341
 40
1.0
 40
1.0
 40
1.0
 40
1.0
 10
30.2346492407
 20
-39.1107787897
 30
0.0
 10
32.0605126162
 20
-39.11195026
 30
0.0
 10
35.7121514638
 20
-39.1145467104
 30
0.0
 10
41.1895992666
 20
-39.115804648
 30
0.0
 10
45.7541077413
 20
-39.1201063698
 30
0.0
 10
49.4057828533
 20
-39.1165398186
 30
0.0
 10
51.2316543603
 20
-39.1104088941
 30
0.0
 10
52.1445752601
 20
-39.1033483331
 30
0.0
 11
30.2346492407
 21
-39.1107787897
 31
0.0
 11
35.7122394833
 21
-39.1141072958
 31
0.0
 11
41.1895661492
 21
-39.1164553143
 31
0.0
 11
46.6669936803
 21
-39.1186307552
 31
0.0
 11
49.4057574011
 21
-39.1154529709
 31
0.0
 11
52.1445752601
 21
-39.1033483331
 31
0.0
  0
SPLINE
  5
4B1
100
AcDbEntity
  8
SUPERFICI
100
AcDbSpline
 62
253
  6
CONTINUOUS
 70
0
 71
3
 72
11
 73
7
 74
5
 42
0.0000001
 43
0.0000001
 44
0.0000000001
 12
3.4799116129
 22
-3.3607036016
 32
0.0
 13
3.41676966
 23
-3.4248793587
 33
0.0
 40
0.0
 40
0.0
 40
0.0
 40
0.0
 40
0.2542888659
 40
0.5016011748
 40
0.7501980026
 40
1.0
 40
1.0
 40
1.0
 40
1.0
 10
26.716274589
 20
-35.7922514869
 30
0.0
 10
27.0112421815
 20
-36.0771146561
 30
0.0
 10
27.6026130589
 20
-36.629132883
 30
0.0
 10
28.498080593
 20
-37.442536078
 30
0.0
 10
29.3763171649
 20
-38.2641098805
 30
0.0
 10
29.9501429436
 20
-38.8269789839
 30
0.0
 10
30.2346482388
 20
-39.1121595521
 30
0.0
 11
26.716274589
 21
-35.7922514869
 31
0.0
 11
27.6127300182
 21
-36.6347144331
 31
0.0
 11
28.4945832474
 21
-37.4432993251
 31
0.0
 11
29.3716269627
 21
-38.2662072767
 31
0.0
 11
30.2346482388
 21
-39.1121595521
 31
0.0
  0
SPLINE
  5
4B2
100
AcDbEntity
  8
0
100
AcDbSpline
 62
7
  6
CONTINUOUS
 70
0
 71
3
 72
8
 73
4
 74
2
 42
0.0000001
 43
0.0000001
 44
0.0000000001
 12
-0.0037137686
 22
-0.0249824336
 32
0.0
 13
-0.0147257507
 23
-0.0205199008
 33
0.0
 40
0.0
 40
0.0
 40
0.0
 40
0.0
 40
1.0
 40
1.0
 40
1.0
 40
1.0
 10
33.5785953425
 20
22.5707970351
 30
0.0
 10
33.5773574196
 20
22.5624695573
 30
0.0
 10
33.5734376424
 20
22.5544727193
 30
0.0
 10
33.5685290588
 20
22.5476327524
 30
0.0
 11
33.5785953425
 21
22.5707970351
 31
0.0
 11
33.5685290588
 21
22.5476327524
 31
0.0
  0
SPLINE
  5
4B3
100
AcDbEntity
  8
0
100
AcDbSpline
 62
7
  6
CONTINUOUS
 70
0
 71
3
 72
9
 73
5
 74
3
 42
0.0000001
 43
0.0000001
 44
0.0000000001
 12
0.0255213384
 22
0.0026097091
 32
0.0
 13
0.0207063942
 23
0.0151457762
 33
0.0
 40
0.0
 40
0.0
 40
0.0
 40
0.0
 40
0.726300818
 40
1.0
 40
1.0
 40
1.0
 40
1.0
 10
-33.8807110199
 20
-22.2690501701
 30
0.0
 10
-33.8745322969
 20
-22.2684183588
 30
0.0
 10
-33.8662414905
 20
-22.2651664601
 30
0.0
 10
-33.8591425367
 20
-22.2604335583
 30
0.0
 10
-33.857253429
 20
-22.2590517627
 30
0.0
 11
-33.8807110199
 21
-22.2690501701
 31
0.0
 11
-33.8631177755
 21
-22.2629133972
 31
0.0
 11
-33.857253429
 21
-22.2590517627
 31
0.0
  0
SPLINE
  5
4B4
100
AcDbEntity
  8
0
100
AcDbSpline
 62
7
  6
CONTINUOUS
 70
0
 71
3
 72
9
 73
5
 74
3
 42
0.0000001
 43
0.0000001
 44
0.0000000001
 12
0.0255301749
 22
-0.0025190013
 32
0.0
 13
0.0206899894
 23
-0.0151677136
 33
0.0
 40
0.0
 40
0.0
 40
0.0
 40
0.0
 40
0.7261216596
 40
1.0
 40
1.0
 40
1.0
 40
1.0
 10
-33.8807109537
 20
22.2690502784
 30
0.0
 10
-33.8745316161
 20
22.268440578
 30
0.0
 10
-33.8662351956
 20
22.2651828643
 30
0.0
 10
-33.8591422088
 20
22.2604429383
 30
0.0
 10
-33.8572533621
 20
22.2590582356
 30
0.0
 11
-33.8807109537
 21
22.2690502784
 31
0.0
 11
-33.8631177085
 21
22.2629280847
 31
0.0
 11
-33.8572533621
 21
22.2590582356
 31
0.0
  0
SPLINE
  5
4B5
100
AcDbEntity
  8
0
100
AcDbSpline
 62
7
  6
CONTINUOUS
 70
0
 71
3
 72
8
 73
4
 74
2
 42
0.0000001
 43
0.0000001
 44
0.0000000001
 12
-0.0147207586
 22
-0.0205187083
 32
0.0
 13
-0.0036969026
 23
-0.0249810134
 33
0.0
 40
0.0
 40
0.0
 40
0.0
 40
0.0
 40
1.0
 40
1.0
 40
1.0
 40
1.0
 10
-33.5685392544
 20
-22.5476327475
 30
0.0
 10
-33.573446174
 20
-22.5544723169
 30
0.0
 10
-33.5773635348
 20
-22.5624700106
 30
0.0
 10
-33.5785958357
 20
-22.5707970151
 30
0.0
 11
-33.5685392544
 21
-22.5476327475
 31
0.0
 11
-33.5785958357
 21
-22.5707970151
 31
0.0
  0
SPLINE
  5
4B6
100
AcDbEntity
  8
SUPERFICI
100
AcDbSpline
 62
253
  6
CONTINUOUS
 70
0
 71
3
 72
21
 73
17
 74
15
 42
0.0000001
 43
0.0000001
 44
0.0000000001
 12
0.0250936501
 22
1.6339675914
 32
0.0
 13
1.4117367165
 23
0.8230912614
 33
0.0
 40
0.0
 40
0.0
 40
0.0
 40
0.0
 40
0.1469059312
 40
0.3124305923
 40
0.4837905242
 40
0.6476244399
 40
0.7226514297
 40
0.7910875961
 40
0.851589264
 40
0.9029633386
 40
0.9441836927
 40
0.9744496068
 40
0.9852615603
 40
0.9931293448
 40
0.998031453
 40
1.0
 40
1.0
 40
1.0
 40
1.0
 10
-33.5804721097
 20
-24.2048084112
 30
0.0
 10
-33.5792433077
 20
-24.1247952343
 30
0.0
 10
-33.5790646894
 20
-23.9545994685
 30
0.0
 10
-33.5790953701
 20
-23.6910727221
 30
0.0
 10
-33.5795842726
 20
-23.4183207848
 30
0.0
 10
-33.5795955322
 20
-23.1948647257
 30
0.0
 10
-33.5796235716
 20
-23.0274751589
 30
0.0
 10
-33.5796936171
 20
-22.916367969
 30
0.0
 10
-33.5797200793
 20
-22.818159277
 30
0.0
 10
-33.5797826182
 20
-22.734733218
 30
0.0
 10
-33.5798074477
 20
-22.6678932793
 30
0.0
 10
-33.5798634767
 20
-22.6228825955
 30
0.0
 10
-33.5799370131
 20
-22.596470763
 30
0.0
 10
-33.5803048402
 20
-22.5832019977
 30
0.0
 10
-33.5793791294
 20
-22.575965336
 30
0.0
 10
-33.5795221363
 20
-22.5713336689
 30
0.0
 10
-33.5785957796
 20
-22.5707935709
 30
0.0
 11
-33.5804721097
 21
-24.2048084112
 31
0.0
 11
-33.5791192054
 21
-23.9647443875
 31
0.0
 11
-33.579169252
 21
-23.6942505676
 31
0.0
 11
-33.5795084891
 21
-23.4142211808
 31
0.0
 11
-33.5796051389
 21
-23.1464903227
 31
0.0
 11
-33.5796340675
 21
-23.0238842004
 31
0.0
 11
-33.5796891985
 21
-22.9120485499
 31
0.0
 11
-33.5797299826
 21
-22.8131791365
 31
0.0
 11
-33.5797808828
 21
-22.7292256804
 31
0.0
 11
-33.5798210397
 21
-22.6618650275
 31
0.0
 11
-33.5798950426
 21
-22.6124057287
 31
0.0
 11
-33.5800296464
 21
-22.5947377765
 31
0.0
 11
-33.5799710199
 21
-22.5818806894
 31
0.0
 11
-33.5794873542
 21
-22.5738844733
 31
0.0
 11
-33.5785957796
 21
-22.5707935709
 31
0.0
  0
SPLINE
  5
4B7
100
AcDbEntity
  8
SUPERFICI
100
AcDbSpline
 62
253
  6
CONTINUOUS
 70
0
 71
3
 72
9
 73
5
 74
3
 42
0.0000001
 43
0.0000001
 44
0.0000000001
 12
0.0115197354
 22
0.8701227103
 32
0.0
 13
-0.0310474513
 23
0.8696449224
 33
0.0
 40
0.0
 40
0.0
 40
0.0
 40
0.0
 40
0.2446991232
 40
1.0
 40
1.0
 40
1.0
 40
1.0
 10
-37.1551552663
 20
-22.2456406546
 30
0.0
 10
-37.1542156433
 20
-22.1746678999
 30
0.0
 10
-37.1526764877
 20
-21.8845983324
 30
0.0
 10
-37.158604277
 20
-21.5945122874
 30
0.0
 10
-37.1664209994
 20
-21.37556443
 30
0.0
 11
-37.1551552663
 21
-22.2456406546
 31
0.0
 11
-37.1539094864
 21
-22.0327073756
 31
0.0
 11
-37.1664209994
 21
-21.37556443
 31
0.0
  0
SPLINE
  5
4B8
100
AcDbEntity
  8
SUPERFICI
100
AcDbSpline
 62
253
  6
CONTINUOUS
 70
0
 71
3
 72
8
 73
4
 74
2
 42
0.0000001
 43
0.0000001
 44
0.0000000001
 12
-0.0734945183
 22
0.5449669162
 32
0.0
 13
0.0219507674
 23
0.5494620531
 33
0.0
 40
0.0
 40
0.0
 40
0.0
 40
0.0
 40
1.0
 40
1.0
 40
1.0
 40
1.0
 10
-37.1276360941
 20
-22.7948484136
 30
0.0
 10
-37.1521342669
 20
-22.6131927749
 30
0.0
 10
-37.16252794
 20
-22.428793903
 30
0.0
 10
-37.1552110175
 20
-22.2456398853
 30
0.0
 11
-37.1276360941
 21
-22.7948484136
 31
0.0
 11
-37.1552110175
 21
-22.2456398853
 31
0.0
  0
SPLINE
  5
4B9
100
AcDbEntity
  8
SUPERFICI
100
AcDbSpline
 62
253
  6
CONTINUOUS
 70
0
 71
3
 72
11
 73
7
 74
5
 42
0.0000001
 43
0.0000001
 44
0.0000000001
 12
-0.8344721186
 22
1.8136217981
 32
0.0
 13
-0.4318202761
 23
1.9491277517
 33
0.0
 40
0.0
 40
0.0
 40
0.0
 40
0.0
 40
0.250343554
 40
0.5003753304
 40
0.7502610047
 40
1.0
 40
1.0
 40
1.0
 40
1.0
 10
-52.1169887385
 20
-31.8048110583
 30
0.0
 10
-52.1866236438
 20
-31.6534682161
 30
0.0
 10
-52.3119640062
 20
-31.3444060089
 30
0.0
 10
-52.4616948121
 20
-30.8678015844
 30
0.0
 10
-52.5909900596
 20
-30.3859557119
 30
0.0
 10
-52.6712318372
 20
-30.063222984
 30
0.0
 10
-52.7071792912
 20
-29.9009652485
 30
0.0
 11
-52.1169887385
 21
-31.8048110583
 31
0.0
 11
-52.3056642523
 21
-31.3420102007
 31
0.0
 11
-52.4583351801
 21
-30.8667703672
 31
0.0
 11
-52.5895320316
 21
-30.3854621543
 31
0.0
 11
-52.7071792912
 21
-29.9009652485
 31
0.0
  0
SPLINE
  5
4BA
100
AcDbEntity
  8
SUPERFICI
100
AcDbSpline
 62
253
  6
CONTINUOUS
 70
0
 71
3
 72
11
 73
7
 74
5
 42
0.0000001
 43
0.0000001
 44
0.0000000001
 12
0.0361179894
 22
-2.3009029302
 32
0.0
 13
0.0645452984
 23
-2.3002810063
 33
0.0
 40
0.0
 40
0.0
 40
0.0
 40
0.0
 40
0.2499998853
 40
0.4999947433
 40
0.7500066653
 40
1.0
 40
1.0
 40
1.0
 40
1.0
 10
-58.9633911825
 20
-34.5849362899
 30
0.0
 10
-58.9603813515
 20
-34.7766781127
 30
0.0
 10
-58.9548517457
 20
-35.1601616054
 30
0.0
 10
-58.9481610743
 20
-35.7354441231
 30
0.0
 10
-58.9486914304
 20
-36.310710205
 30
0.0
 10
-58.9512718365
 20
-36.6943396564
 30
0.0
 10
-58.945893205
 20
-36.8860246296
 30
0.0
 11
-58.9633911825
 21
-34.5849362899
 31
0.0
 11
-58.9551190067
 21
-35.1601731477
 31
0.0
 11
-58.9493646554
 21
-35.7354291326
 31
0.0
 11
-58.9492481928
 21
-36.3107531532
 31
0.0
 11
-58.945893205
 21
-36.8860246296
 31
0.0
  0
SPLINE
  5
4BB
100
AcDbEntity
  8
SUPERFICI
100
AcDbSpline
 62
253
  6
CONTINUOUS
 70
0
 71
3
 72
11
 73
7
 74
5
 42
0.0000001
 43
0.0000001
 44
0.0000000001
 12
5.8820595758
 22
5.1559507328
 32
0.0
 13
6.5573877697
 23
4.2641667943
 33
0.0
 40
0.0
 40
0.0
 40
0.0
 40
0.0
 40
0.2570948248
 40
0.5088435963
 40
0.753590276
 40
1.0
 40
1.0
 40
1.0
 40
1.0
 10
-58.962948524
 20
-34.5854579306
 30
0.0
 10
-58.4588661652
 20
-34.1436018471
 30
0.0
 10
-57.4422312335
 20
-33.2904999304
 30
0.0
 10
-55.888472846
 20
-32.0870364612
 30
0.0
 10
-54.3116579295
 20
-30.9613282525
 30
0.0
 10
-53.2457000771
 20
-30.2513177485
 30
0.0
 10
-52.707098707
 20
-29.9010736942
 30
0.0
 11
-58.962948524
 21
-34.5854579306
 31
0.0
 11
-57.423252839
 21
-33.2918739154
 31
0.0
 11
-55.8662887829
 21
-32.0862826083
 31
0.0
 11
-54.3093576066
 21
-30.9723474313
 31
0.0
 11
-52.707098707
 21
-29.9010736942
 31
0.0
  0
SPLINE
  5
4BC
100
AcDbEntity
  8
SUPERFICI
100
AcDbSpline
 62
253
  6
CONTINUOUS
 70
0
 71
3
 72
11
 73
7
 74
5
 42
0.0000001
 43
0.0000001
 44
0.0000000001
 12
0.331488398
 22
-3.3136363506
 32
0.0
 13
0.7202682614
 23
-3.251351112
 33
0.0
 40
0.0
 40
0.0
 40
0.0
 40
0.0
 40
0.2499944574
 40
0.4999997748
 40
0.7500136035
 40
1.0
 40
1.0
 40
1.0
 40
1.0
 10
-53.1734580276
 20
-26.6049843715
 30
0.0
 10
-53.1458346068
 20
-26.881114612
 30
0.0
 10
-53.0884462859
 20
-27.4331893537
 30
0.0
 10
-52.9863058381
 20
-28.2595274744
 30
0.0
 10
-52.8670973374
 20
-29.0835324401
 30
0.0
 10
-52.7672458555
 20
-29.6298670961
 30
0.0
 10
-52.7072267664
 20
-29.9007982789
 30
0.0
 11
-53.1734580276
 21
-26.6049843715
 31
0.0
 11
-53.0857716373
 21
-27.4328791505
 31
0.0
 11
-52.9834621477
 21
-28.2591307191
 31
0.0
 11
-52.8619974933
 21
-29.0828129527
 31
0.0
 11
-52.7072267664
 21
-29.9007982789
 31
0.0
  0
SPLINE
  5
4BD
100
AcDbEntity
  8
SUPERFICI
100
AcDbSpline
 62
253
  6
CONTINUOUS
 70
0
 71
3
 72
11
 73
7
 74
5
 42
0.0000001
 43
0.0000001
 44
0.0000000001
 12
14.8682191009
 22
9.6685357517
 32
0.0
 13
15.9753779713
 23
7.7027152023
 33
0.0
 40
0.0
 40
0.0
 40
0.0
 40
0.0
 40
0.2523437964
 40
0.5048635676
 40
0.7529858862
 40
1.0
 40
1.0
 40
1.0
 40
1.0
 10
-52.7072267664
 20
-29.9007982789
 30
0.0
 10
-51.4565924819
 20
-29.0875332731
 30
0.0
 10
-48.9059291103
 20
-27.5347473957
 30
0.0
 10
-45.0162036043
 20
-25.369068621
 30
0.0
 10
-41.1045060361
 20
-23.310327779
 30
0.0
 10
-38.481753907
 20
-22.0098582386
 30
0.0
 10
-37.1663726295
 20
-21.3756317821
 30
0.0
 11
-52.7072267664
 21
-29.9007982789
 31
0.0
 11
-48.8924961562
 21
-27.5604553296
 31
0.0
 11
-44.9850541831
 21
-25.3720273217
 31
0.0
 11
-41.0906157155
 21
-23.3230804034
 31
0.0
 11
-37.1663726295
 21
-21.3756317821
 31
0.0
  0
SPLINE
  5
4BE
100
AcDbEntity
  8
SUPERFICI
100
AcDbSpline
 62
253
  6
CONTINUOUS
 70
0
 71
3
 72
11
 73
7
 74
5
 42
0.0000001
 43
0.0000001
 44
0.0000000001
 12
1.645834324
 22
-0.0845354554
 32
0.0
 13
1.6479019189
 23
-0.0183338772
 33
0.0
 40
0.0
 40
0.0
 40
0.0
 40
0.0
 40
0.2694501973
 40
0.5295786954
 40
0.7749581062
 40
1.0
 40
1.0
 40
1.0
 40
1.0
 10
-37.1551552814
 20
-22.2456417948
 30
0.0
 10
-37.0073318203
 20
-22.2532344932
 30
0.0
 10
-36.7166629872
 20
-22.2664633887
 30
0.0
 10
-36.2908981846
 20
-22.2696516386
 30
0.0
 10
-35.889593425
 20
-22.2663203355
 30
0.0
 10
-35.6311801508
 20
-22.2694223338
 30
0.0
 10
-35.5075644946
 20
-22.2707976306
 30
0.0
 11
-37.1551552814
 21
-22.2456417948
 31
0.0
 11
-36.7114731789
 21
-22.2638355963
 31
0.0
 11
-36.2828063353
 21
-22.2685512121
 31
0.0
 11
-35.878421101
 21
-22.2676552507
 31
0.0
 11
-35.5075644946
 21
-22.2707976306
 31
0.0
  0
SPLINE
  5
4BF
100
AcDbEntity
  8
SUPERFICI
100
AcDbSpline
 62
253
  6
CONTINUOUS
 70
0
 71
3
 72
20
 73
16
 74
14
 42
0.0000001
 43
0.0000001
 44
0.0000000001
 12
1.6241647472
 22
0.0117629462
 32
0.0
 13
1.5049967377
 23
0.6107653499
 33
0.0
 40
0.0
 40
0.0
 40
0.0
 40
0.0
 40
0.1484841257
 40
0.3138809965
 40
0.4847846569
 40
0.6485043626
 40
0.7901716536
 40
0.8496001348
 40
0.9003977519
 40
0.941801269
 40
0.9729154493
 40
0.9842913349
 40
0.9926908171
 40
0.9979710034
 40
1.0
 40
1.0
 40
1.0
 40
1.0
 10
-35.5047795265
 20
-22.2707990378
 30
0.0
 10
-35.4243919656
 20
-22.2702168342
 30
0.0
 10
-35.2544541025
 20
-22.2699592395
 30
0.0
 10
-34.9919919793
 20
-22.2706319612
 30
0.0
 10
-34.7212791786
 20
-22.27099158
 30
0.0
 10
-34.4634155894
 20
-22.2702224607
 30
0.0
 10
-34.2659030336
 20
-22.2696652558
 30
0.0
 10
-34.129530602
 20
-22.2691556386
 30
0.0
 10
-34.0474327822
 20
-22.2689756997
 30
0.0
 10
-33.9806840718
 20
-22.2690237019
 30
0.0
 10
-33.9352321705
 20
-22.2693371994
 30
0.0
 10
-33.9077260092
 20
-22.2692658848
 30
0.0
 10
-33.8940814763
 20
-22.2695657276
 30
0.0
 10
-33.8857260424
 20
-22.2689497878
 30
0.0
 10
-33.8816004356
 20
-22.2694632503
 30
0.0
 10
-33.8805825579
 20
-22.2690501701
 30
0.0
 11
-35.5047795265
 21
-22.2707990378
 31
0.0
 11
-35.263611452
 21
-22.2701282375
 31
0.0
 11
-34.9949730032
 21
-22.270569944
 31
0.0
 11
-34.7173901126
 21
-22.2707930187
 31
0.0
 11
-34.4514760379
 21
-22.2701945258
 31
0.0
 11
-34.2213800617
 21
-22.2694901674
 31
0.0
 11
-34.124856434
 21
-22.2691649776
 31
0.0
 11
-34.0423507194
 21
-22.2690086576
 31
0.0
 11
-33.9751028946
 21
-22.2691068409
 31
0.0
 11
-33.9245673605
 21
-22.2692938896
 31
0.0
 11
-33.9060906464
 21
-22.2693491977
 31
0.0
 11
-33.8924481494
 21
-22.2693391156
 31
0.0
 11
-33.8838726069
 21
-22.2692398323
 31
0.0
 11
-33.8805825579
 21
-22.2690501701
 31
0.0
  0
SPLINE
  5
4C0
100
AcDbEntity
  8
SUPERFICI
100
AcDbSpline
 62
253
  6
CONTINUOUS
 70
0
 71
3
 72
21
 73
17
 74
15
 42
0.0000001
 43
0.0000001
 44
0.0000000001
 12
1.6287745206
 22
-0.0228623596
 32
0.0
 13
1.1321625331
 23
-1.1711691274
 33
0.0
 40
0.0
 40
0.0
 40
0.0
 40
0.0
 40
0.1474627552
 40
0.3132579679
 40
0.4846652393
 40
0.6483787626
 40
0.7233031616
 40
0.7916185965
 40
0.8519943901
 40
0.9032492015
 40
0.9443651707
 40
0.9745521274
 40
0.9853387017
 40
0.9931900634
 40
0.9980776547
 40
1.0
 40
1.0
 40
1.0
 40
1.0
 10
-35.5094963566
 20
22.2708009961
 30
0.0
 10
-35.4294351638
 20
22.2696772139
 30
0.0
 10
-35.2593317836
 20
22.2700465776
 30
0.0
 10
-34.9961762218
 20
22.2713818947
 30
0.0
 10
-34.7241879953
 20
22.2706514129
 30
0.0
 10
-34.5015425003
 20
22.2703911065
 30
0.0
 10
-34.3348752643
 20
22.2698227554
 30
0.0
 10
-34.2243144836
 20
22.2694995567
 30
0.0
 10
-34.1266155878
 20
22.2692055715
 30
0.0
 10
-34.0436559441
 20
22.2690204328
 30
0.0
 10
-33.9771681295
 20
22.2689109692
 30
0.0
 10
-33.9324701635
 20
22.2690782966
 30
0.0
 10
-33.9061332108
 20
22.2694011681
 30
0.0
 10
-33.8930755991
 20
22.2700792791
 30
0.0
 10
-33.8856469558
 20
22.269273741
 30
0.0
 10
-33.8813435276
 20
22.2698007
 30
0.0
 10
-33.8806180585
 20
22.2690502362
 30
0.0
 11
-35.5094963566
 21
22.2708009961
 31
0.0
 11
-35.2692900433
 21
22.2701343641
 31
0.0
 11
-34.9992218858
 21
22.271022963
 31
0.0
 11
-34.7200107606
 21
22.2707123877
 31
0.0
 11
-34.453332574
 21
22.2701980828
 31
0.0
 11
-34.3312861835
 21
22.269820876
 31
0.0
 11
-34.2200052887
 21
22.2694852699
 31
0.0
 11
-34.1216574484
 21
22.2692044398
 31
0.0
 11
-34.0381669039
 21
22.2690172136
 31
0.0
 11
-33.9711916801
 21
22.2689707111
 31
0.0
 11
-33.9220197205
 21
22.2692195783
 31
0.0
 11
-33.9044523757
 21
22.2695592377
 31
0.0
 11
-33.8916645839
 21
22.269759356
 31
0.0
 11
-33.8837051502
 21
22.269575
 31
0.0
 11
-33.8806180585
 21
22.2690502362
 31
0.0
  0
SPLINE
  5
4C1
100
AcDbEntity
  8
SUPERFICI
100
AcDbSpline
 62
253
  6
CONTINUOUS
 70
0
 71
3
 72
8
 73
4
 74
2
 42
0.0000001
 43
0.0000001
 44
0.0000000001
 12
-0.022051776
 22
0.5494580086
 32
0.0
 13
0.0735099671
 23
0.5449648326
 33
0.0
 40
0.0
 40
0.0
 40
0.0
 40
0.0
 40
1.0
 40
1.0
 40
1.0
 40
1.0
 10
-37.1552109503
 20
22.2456400037
 30
0.0
 10
-37.1625615423
 20
22.4287926732
 30
0.0
 10
-37.1521393477
 20
22.6131935877
 30
0.0
 10
-37.1276360253
 20
22.7948485319
 30
0.0
 11
-37.1552109503
 21
22.2456400037
 31
0.0
 11
-37.1276360253
 21
22.7948485319
 31
0.0
  0
SPLINE
  5
4C2
100
AcDbEntity
  8
SUPERFICI
100
AcDbSpline
 62
253
  6
CONTINUOUS
 70
0
 71
3
 72
9
 73
5
 74
3
 42
0.0000001
 43
0.0000001
 44
0.0000000001
 12
0.0310473118
 22
0.8696409428
 32
0.0
 13
-0.0115196801
 23
0.8701187286
 33
0.0
 40
0.0
 40
0.0
 40
0.0
 40
0.0
 40
0.2545165994
 40
1.0
 40
1.0
 40
1.0
 40
1.0
 10
-37.1664209349
 20
21.3755645483
 30
0.0
 10
-37.1637869161
 20
21.4493439001
 30
0.0
 10
-37.1548851638
 20
21.7392701223
 30
0.0
 10
-37.1522926223
 20
22.0294210834
 30
0.0
 10
-37.1551551991
 20
22.245640773
 30
0.0
 11
-37.1664209349
 21
21.3755645483
 31
0.0
 11
-37.1596643311
 21
21.5969405307
 31
0.0
 11
-37.1551551991
 21
22.245640773
 31
0.0
  0
SPLINE
  5
4C3
100
AcDbEntity
  8
SUPERFICI
100
AcDbSpline
 62
253
  6
CONTINUOUS
 70
0
 71
3
 72
11
 73
7
 74
5
 42
0.0000001
 43
0.0000001
 44
0.0000000001
 12
0.431820282
 22
1.9491277504
 32
0.0
 13
0.8344721241
 23
1.8136217956
 33
0.0
 40
0.0
 40
0.0
 40
0.0
 40
0.0
 40
0.2497389953
 40
0.4996246696
 40
0.749656446
 40
1.0
 40
1.0
 40
1.0
 40
1.0
 10
-52.7071792008
 20
29.9009654126
 30
0.0
 10
-52.6712317464
 20
30.063223148
 30
0.0
 10
-52.5909899678
 20
30.3859558757
 30
0.0
 10
-52.4616947189
 20
30.8678017478
 30
0.0
 10
-52.3119639115
 20
31.3444061718
 30
0.0
 10
-52.1866235482
 20
31.6534683787
 30
0.0
 10
-52.1169886425
 20
31.8048112207
 30
0.0
 11
-52.7071792008
 21
29.9009654126
 31
0.0
 11
-52.5895319398
 21
30.3854623181
 31
0.0
 11
-52.4583350868
 21
30.8667705306
 31
0.0
 11
-52.3056641576
 21
31.3420103637
 31
0.0
 11
-52.1169886425
 21
31.8048112207
 31
0.0
  0
SPLINE
  5
4C4
100
AcDbEntity
  8
SUPERFICI
100
AcDbSpline
 62
253
  6
CONTINUOUS
 70
0
 71
3
 72
11
 73
7
 74
5
 42
0.0000001
 43
0.0000001
 44
0.0000000001
 12
-0.0645488719
 22
-2.3002808889
 32
0.0
 13
-0.0360985325
 23
-2.3009032184
 33
0.0
 40
0.0
 40
0.0
 40
0.0
 40
0.0
 40
0.2499933559
 40
0.500005257
 40
0.750000108
 40
1.0
 40
1.0
 40
1.0
 40
1.0
 10
-58.9458930936
 20
36.8860248119
 30
0.0
 10
-58.9512720233
 20
36.6943398323
 30
0.0
 10
-58.9486892894
 20
36.3107103635
 30
0.0
 10
-58.9481633882
 20
35.7354443059
 30
0.0
 10
-58.9548509514
 20
35.1601617816
 30
0.0
 10
-58.9603828683
 20
34.7766783242
 30
0.0
 10
-58.9633910781
 20
34.5849364722
 30
0.0
 11
-58.9458930936
 21
36.8860248119
 31
0.0
 11
-58.9492473761
 21
36.3107532869
 31
0.0
 11
-58.9493657087
 21
35.7354293191
 31
0.0
 11
-58.955119308
 21
35.160173347
 31
0.0
 11
-58.9633910781
 21
34.5849364722
 31
0.0
  0
SPLINE
  5
4C5
100
AcDbEntity
  8
SUPERFICI
100
AcDbSpline
 62
253
  6
CONTINUOUS
 70
0
 71
3
 72
9
 73
5
 74
3
 42
0.0000001
 43
0.0000001
 44
0.0000000001
 12
6.552873705
 22
-5.4371000275
 32
0.0
 13
7.0705027625
 23
-4.7444916681
 33
0.0
 40
0.0
 40
0.0
 40
0.0
 40
0.0
 40
0.5124997324
 40
1.0
 40
1.0
 40
1.0
 40
1.0
 10
-58.9468341343
 20
36.8848624586
 30
0.0
 10
-57.8273854608
 20
35.9560250222
 30
0.0
 10
-55.5917366645
 20
34.2045248431
 30
0.0
 10
-53.2660141012
 20
32.5756958965
 30
0.0
 10
-52.1170567717
 20
31.8047155773
 30
0.0
 11
-58.9468341343
 21
36.8848624586
 31
0.0
 11
-55.5121882277
 21
34.1929586081
 31
0.0
 11
-52.1170567717
 21
31.8047155773
 31
0.0
  0
LINE
  5
4C6
100
AcDbEntity
  8
0
100
AcDbLine
 62
253
  6
CONTINUOUS
 10
34.4123434862
 20
-26.4454020516
 11
34.4323656253
 21
-26.4623397884
  0
SPLINE
  5
4C7
100
AcDbEntity
  8
SUPERFICI
100
AcDbSpline
 62
253
  6
CONTINUOUS
 70
0
 71
3
 72
16
 73
12
 74
10
 42
0.0000001
 43
0.0000001
 44
0.0000000001
 12
19.3682407251
 22
0.1222196729
 32
0.0
 13
19.2129408993
 23
2.4508342316
 33
0.0
 40
0.0
 40
0.0
 40
0.0
 40
0.0
 40
0.2500096115
 40
0.3750184023
 40
0.5000216978
 40
0.6250295506
 40
0.749997899
 40
0.8124918432
 40
0.8749952937
 40
0.9374857435
 40
1.0
 40
1.0
 40
1.0
 40
1.0
 10
26.7166287634
 20
-35.7922641433
 30
0.0
 10
28.3307108767
 20
-35.782078779
 30
0.0
 10
30.7518170735
 20
-35.7592380966
 30
0.0
 10
33.9797773103
 20
-35.716158326
 30
0.0
 10
36.4006600941
 20
-35.6764093279
 30
0.0
 10
38.8212024965
 20
-35.6319280817
 30
0.0
 10
40.8380332269
 20
-35.5848140777
 30
0.0
 10
42.4512465712
 20
-35.5397947022
 30
0.0
 10
43.6605685348
 20
-35.4839702084
 30
0.0
 10
44.8679420599
 20
-35.3952419943
 30
0.0
 10
45.6716403722
 20
-35.3186004422
 30
0.0
 10
46.0720012775
 20
-35.2675297489
 30
0.0
 11
26.7166287634
 21
-35.7922641433
 31
0.0
 11
31.5587638263
 21
-35.7474163582
 31
0.0
 11
33.9797942758
 21
-35.7149179949
 31
0.0
 11
36.4006174548
 21
-35.6756203389
 31
0.0
 11
38.8214163868
 21
-35.629913197
 31
0.0
 11
41.2412112863
 21
-35.5729514017
 31
0.0
 11
42.4510726642
 21
-35.5361205577
 31
0.0
 11
43.6603057748
 21
-35.4784827576
 31
0.0
 11
44.8674857176
 21
-35.390882486
 31
0.0
 11
46.0720012775
 21
-35.2675297489
 31
0.0
  0
LINE
  5
4C8
100
AcDbEntity
  8
SUPERFICI
100
AcDbLine
 62
253
  6
CONTINUOUS
 10
29.2678180218
 20
-25.8213737971
 11
28.82464794
 21
-25.8239098241
  0
LINE
  5
4C9
100
AcDbEntity
  8
SUPERFICI
100
AcDbLine
 62
253
  6
CONTINUOUS
 10
28.82464794
 20
-25.8239098241
 11
28.6232847646
 21
-25.8250476057
  0
LINE
  5
4CA
100
AcDbEntity
  8
SUPERFICI
100
AcDbLine
 62
253
  6
CONTINUOUS
 10
28.6232847646
 20
-25.8250476057
 11
27.8582744919
 21
-25.8291916286
  0
LINE
  5
4CB
100
AcDbEntity
  8
SUPERFICI
100
AcDbLine
 62
253
  6
CONTINUOUS
 10
27.8582744919
 20
-25.8291916286
 11
27.8080864514
 21
-25.8294533221
  0
LINE
  5
4CC
100
AcDbEntity
  8
SUPERFICI
100
AcDbLine
 62
253
  6
CONTINUOUS
 10
27.8080864514
 20
-25.8294533221
 11
27.2281171263
 21
-25.8323897667
  0
LINE
  5
4CD
100
AcDbEntity
  8
SUPERFICI
100
AcDbLine
 62
253
  6
CONTINUOUS
 10
27.2281171263
 20
-25.8323897667
 11
27.2141736459
 21
-25.8324584261
  0
LINE
  5
4CE
100
AcDbEntity
  8
SUPERFICI
100
AcDbLine
 62
253
  6
CONTINUOUS
 10
27.2141736459
 20
-25.8324584261
 11
26.8260894435
 21
-25.8343342946
  0
LINE
  5
4CF
100
AcDbEntity
  8
SUPERFICI
100
AcDbLine
 62
253
  6
CONTINUOUS
 10
26.8260894435
 20
-25.8343342946
 11
26.6481435128
 21
-25.8351722722
  0
LINE
  5
4D0
100
AcDbEntity
  8
SUPERFICI
100
AcDbLine
 62
253
  6
CONTINUOUS
 10
26.6481435128
 20
-25.8351722722
 11
26.2614704836
 21
-25.8369468927
  0
LINE
  5
4D1
100
AcDbEntity
  8
SUPERFICI
100
AcDbLine
 62
253
  6
CONTINUOUS
 10
26.2614704836
 20
-25.8369468927
 11
25.7784466869
 21
-25.8390779983
  0
LINE
  5
4D2
100
AcDbEntity
  8
SUPERFICI
100
AcDbLine
 62
253
  6
CONTINUOUS
 10
25.7784466869
 20
-25.8390779983
 11
25.560715462
 21
-25.8400086629
  0
LINE
  5
4D3
100
AcDbEntity
  8
SUPERFICI
100
AcDbLine
 62
253
  6
CONTINUOUS
 10
25.560715462
 20
-25.8400086629
 11
24.5573645929
 21
-25.844069507
  0
LINE
  5
4D4
100
AcDbEntity
  8
SUPERFICI
100
AcDbLine
 62
253
  6
CONTINUOUS
 10
24.5573645929
 20
-25.844069507
 11
24.2831050954
 21
-25.8451171782
  0
LINE
  5
4D5
100
AcDbEntity
  8
SUPERFICI
100
AcDbLine
 62
253
  6
CONTINUOUS
 10
24.2831050954
 20
-25.8451171782
 11
24.0014192676
 21
-25.8461665435
  0
SPLINE
  5
4D6
100
AcDbEntity
  8
SUPERFICI
100
AcDbSpline
 62
253
  6
CONTINUOUS
 70
0
 71
3
 72
9
 73
5
 74
3
 42
0.0000001
 43
0.0000001
 44
0.0000000001
 12
-4.4733268008
 22
-0.016452969
 32
0.0
 13
-4.473344337
 23
-0.0106681254
 33
0.0
 40
0.0
 40
0.0
 40
0.0
 40
0.0
 40
0.2222396089
 40
1.0
 40
1.0
 40
1.0
 40
1.0
 10
24.0014192676
 20
-25.8461665435
 30
0.0
 10
23.6700358014
 20
-25.8473853773
 30
0.0
 10
22.1789259634
 20
-25.8526221338
 30
0.0
 10
20.6878125543
 20
-25.8568314793
 30
0.0
 10
19.5280825405
 20
-25.8595972278
 30
0.0
 11
24.0014192676
 21
-25.8461665435
 31
0.0
 11
23.0072682907
 21
-25.8496622625
 31
0.0
 11
19.5280825405
 21
-25.8595972278
 31
0.0
  0
LINE
  5
4D7
100
AcDbEntity
  8
SUPERFICI
100
AcDbLine
 62
253
  6
CONTINUOUS
 10
31.2040835947
 20
-25.800402547
 11
30.5637177233
 21
-25.8091661229
  0
LINE
  5
4D8
100
AcDbEntity
  8
SUPERFICI
100
AcDbLine
 62
253
  6
CONTINUOUS
 10
30.5637177233
 20
-25.8091661229
 11
29.9182948176
 21
-25.8162212886
  0
LINE
  5
4D9
100
AcDbEntity
  8
SUPERFICI
100
AcDbLine
 62
253
  6
CONTINUOUS
 10
29.9182948176
 20
-25.8162212886
 11
29.702016261
 21
-25.8181829181
  0
LINE
  5
4DA
100
AcDbEntity
  8
SUPERFICI
100
AcDbLine
 62
253
  6
CONTINUOUS
 10
29.702016261
 20
-25.8181829181
 11
29.2678183195
 21
-25.8215058474
  0
SPLINE
  5
4DB
100
AcDbEntity
  8
SUPERFICI
100
AcDbSpline
 62
253
  6
CONTINUOUS
 70
0
 71
3
 72
11
 73
7
 74
5
 42
0.0000001
 43
0.0000001
 44
0.0000000001
 12
-1.5527219109
 22
0.0767757289
 32
0.0
 13
-1.5541491958
 23
-0.0382115482
 33
0.0
 40
0.0
 40
0.0
 40
0.0
 40
0.0
 40
0.1453326784
 40
0.3622642805
 40
0.6480875548
 40
1.0
 40
1.0
 40
1.0
 40
1.0
 10
33.5856973052
 20
-25.750766828
 30
0.0
 10
33.5104768939
 20
-25.7470474872
 30
0.0
 10
33.3225933661
 20
-25.7484588177
 30
0.0
 10
32.9869411187
 20
-25.7572400681
 30
0.0
 10
32.5442477943
 20
-25.7716268311
 30
0.0
 10
32.2139089882
 20
-25.7810044083
 30
0.0
 10
32.0316008403
 20
-25.7854867814
 30
0.0
 11
33.5856973052
 21
-25.750766828
 31
0.0
 11
33.3597694472
 21
-25.7487427267
 31
0.0
 11
33.0226153533
 21
-25.7566139848
 31
0.0
 11
32.5784781192
 21
-25.7702416528
 31
0.0
 11
32.0316008403
 21
-25.7854867814
 31
0.0
  0
LINE
  5
4DC
100
AcDbEntity
  8
SUPERFICI
100
AcDbLine
 62
253
  6
CONTINUOUS
 10
32.0316008403
 20
-25.7854867814
 11
31.846792851
 21
-25.7897864288
  0
LINE
  5
4DD
100
AcDbEntity
  8
0
100
AcDbLine
 62
253
  6
CONTINUOUS
 10
35.6567206308
 20
-27.4813033189
 11
35.7035285336
 21
-27.5199376512
  0
SPLINE
  5
4DE
100
AcDbEntity
  8
SUPERFICI
100
AcDbSpline
 62
253
  6
CONTINUOUS
 70
0
 71
3
 72
16
 73
12
 74
10
 42
0.0000001
 43
0.0000001
 44
0.0000000001
 12
1.0697031559
 22
0.9139722861
 32
0.0
 13
1.3859874929
 23
0.2421752481
 33
0.0
 40
0.0
 40
0.0
 40
0.0
 40
0.0
 40
0.2498773604
 40
0.3749047136
 40
0.4999264971
 40
0.6249476657
 40
0.7499624228
 40
0.8124786679
 40
0.8749965034
 40
0.937529434
 40
1.0
 40
1.0
 40
1.0
 40
1.0
 10
-58.2379706478
 20
38.4901709528
 30
0.0
 10
-58.1488724475
 20
38.5662979469
 30
0.0
 10
-58.0053070333
 20
38.6697015274
 30
0.0
 10
-57.7984993738
 20
38.7807923827
 30
0.0
 10
-57.6358033561
 20
38.8482174855
 30
0.0
 10
-57.469277284
 20
38.9053444843
 30
0.0
 10
-57.3267754729
 20
38.9404517619
 30
0.0
 10
-57.211907447
 20
38.9639097346
 30
0.0
 10
-57.1253174638
 20
38.9799625488
 30
0.0
 10
-57.0373422351
 20
38.9855547227
 30
0.0
 10
-56.9799513243
 20
38.9981190368
 30
0.0
 10
-56.9510901832
 20
39.0031619784
 30
0.0
 11
-58.2379706478
 21
38.4901709528
 31
0.0
 11
-57.9523779405
 21
38.6952101742
 31
0.0
 11
-57.797240605
 21
38.7781399929
 31
0.0
 11
-57.6351638217
 21
38.8465015836
 31
0.0
 11
-57.4685287618
 21
38.9028455556
 31
0.0
 11
-57.2979928023
 21
38.9459291881
 31
0.0
 11
-57.2118373509
 21
38.9636523611
 31
0.0
 11
-57.1250900316
 21
38.9782183798
 31
0.0
 11
-57.0376268424
 21
38.9877679168
 31
0.0
 11
-56.9510901832
 21
39.0031619784
 31
0.0
  0
SPLINE
  5
4DF
100
AcDbEntity
  8
SUPERFICI
100
AcDbSpline
 62
253
  6
CONTINUOUS
 70
0
 71
3
 72
9
 73
5
 74
3
 42
0.0000001
 43
0.0000001
 44
0.0000000001
 12
0.3043278284
 22
1.1876826059
 32
0.0
 13
0.9259552403
 23
0.8036244723
 33
0.0
 40
0.0
 40
0.0
 40
0.0
 40
0.0
 40
0.5000889799
 40
1.0
 40
1.0
 40
1.0
 40
1.0
 10
-58.8708705035
 20
37.4564952923
 30
0.0
 10
-58.8201401724
 20
37.65447762
 30
0.0
 10
-58.6602174253
 20
38.0378697993
 30
0.0
 10
-58.3922690574
 20
38.3562573762
 30
0.0
 10
-58.2379706478
 20
38.4901709528
 30
0.0
 11
-58.8708705035
 21
37.4564952923
 31
0.0
 11
-58.6331729473
 21
38.0216810925
 31
0.0
 11
-58.2379706478
 21
38.4901709528
 31
0.0
  0
SPLINE
  5
4E0
100
AcDbEntity
  8
SUPERFICI
100
AcDbSpline
 62
253
  6
CONTINUOUS
 70
0
 71
3
 72
13
 73
9
 74
7
 42
0.0000001
 43
0.0000001
 44
0.0000000001
 12
-4.6865576555
 22
-0.1386370204
 32
0.0
 13
-4.6859385035
 23
-0.1581873052
 33
0.0
 40
0.0
 40
0.0
 40
0.0
 40
0.0
 40
0.2499943126
 40
0.4999986224
 40
0.6249987458
 40
0.7499989517
 40
0.874998874
 40
1.0
 40
1.0
 40
1.0
 40
1.0
 10
-52.1446285342
 20
39.1058007064
 30
0.0
 10
-52.5351661207
 20
39.0942478842
 30
0.0
 10
-53.3164043789
 20
39.0746397962
 30
0.0
 10
-54.2932195453
 20
39.0707772293
 30
0.0
 10
-55.0745720597
 20
39.058147268
 30
0.0
 10
-55.6604496523
 20
39.0426595614
 30
0.0
 10
-56.2461945528
 20
39.0224098028
 30
0.0
 10
-56.6369629502
 20
39.0192625475
 30
0.0
 10
-56.8322121466
 20
39.0126713504
 30
0.0
 11
-52.1446285342
 21
39.1058007064
 31
0.0
 11
-53.3164420788
 21
39.0787695323
 31
0.0
 11
-54.4885533674
 21
39.0668246883
 31
0.0
 11
-55.0745499726
 21
39.0571447173
 31
0.0
 11
-55.660427719
 21
39.0418658817
 31
0.0
 11
-56.2462605384
 21
39.0249979917
 31
0.0
 11
-56.8322121466
 21
39.0126713504
 31
0.0
  0
SPLINE
  5
4E1
100
AcDbEntity
  8
SUPERFICI
100
AcDbSpline
 62
253
  6
CONTINUOUS
 70
0
 71
3
 72
10
 73
6
 74
4
 42
0.0000001
 43
0.0000001
 44
0.0000000001
 12
6.8039945676
 22
-5.5968745749
 32
0.0
 13
7.2316654959
 23
-5.0321328717
 33
0.0
 40
0.0
 40
0.0
 40
0.0
 40
0.0
 40
0.2420283432
 40
0.6212372868
 40
1.0
 40
1.0
 40
1.0
 40
1.0
 10
-58.2379706762
 20
38.4901667945
 30
0.0
 10
-57.689050832
 20
38.038632701
 30
0.0
 10
-56.2687976063
 20
36.8932379232
 30
0.0
 10
-53.9300680738
 20
35.1162676339
 30
0.0
 10
-52.1210749736
 20
33.8186563385
 30
0.0
 10
-51.2080465589
 20
33.1833282386
 30
0.0
 11
-58.2379706762
 21
38.4901667945
 31
0.0
 11
-56.5774595286
 21
37.1524571754
 31
0.0
 11
-53.919938172
 21
35.1278096612
 31
0.0
 11
-51.2080465589
 21
33.1833282386
 31
0.0
  0
SPLINE
  5
4E2
100
AcDbEntity
  8
SUPERFICI
100
AcDbSpline
 62
253
  6
CONTINUOUS
 70
0
 71
3
 72
8
 73
4
 74
2
 42
0.0000001
 43
0.0000001
 44
0.0000000001
 12
-0.1192178712
 22
0.0031196585
 32
0.0
 13
-0.1173351271
 23
-0.0213330972
 33
0.0
 40
0.0
 40
0.0
 40
0.0
 40
0.0
 40
1.0
 40
1.0
 40
1.0
 40
1.0
 10
-56.8322121466
 20
39.0126713504
 30
0.0
 10
-56.871951437
 20
39.0137112366
 30
0.0
 10
-56.911977518
 20
39.0102496577
 30
0.0
 10
-56.951089227
 20
39.0031386253
 30
0.0
 11
-56.8322121466
 21
39.0126713504
 31
0.0
 11
-56.951089227
 21
39.0031386253
 31
0.0
  0
SPLINE
  5
4E3
100
AcDbEntity
  8
SUPERFICI
100
AcDbSpline
 62
253
  6
CONTINUOUS
 70
0
 71
3
 72
13
 73
9
 74
7
 42
0.0000001
 43
0.0000001
 44
0.0000000001
 12
-0.0652137093
 22
-0.749731091
 32
0.0
 13
-0.0004145446
 23
-0.7525618678
 33
0.0
 40
0.0
 40
0.0
 40
0.0
 40
0.0
 40
0.0283791329
 40
0.0890911047
 40
0.1808398653
 40
0.3012914124
 40
0.6153984007
 40
1.0
 40
1.0
 40
1.0
 40
1.0
 10
-56.8292355925
 20
39.7651317803
 30
0.0
 10
-56.8298524954
 20
39.7580395409
 30
0.0
 10
-56.829725016
 20
39.735652504
 30
0.0
 10
-56.8303946975
 20
39.6903201714
 30
0.0
 10
-56.8306785365
 20
39.6218453158
 30
0.0
 10
-56.8315129213
 20
39.4898293098
 30
0.0
 10
-56.8322345192
 20
39.2843351194
 30
0.0
 10
-56.8321492542
 20
39.1090628145
 30
0.0
 10
-56.832202399
 20
39.0125839819
 30
0.0
 11
-56.8292355925
 21
39.7651317803
 31
0.0
 11
-56.8298176921
 21
39.743782658
 31
0.0
 11
-56.8302153779
 21
39.698094867
 31
0.0
 11
-56.8306703169
 21
39.6290497366
 31
0.0
 11
-56.8311823886
 21
39.538403928
 31
0.0
 11
-56.8320307985
 21
39.3020204729
 31
0.0
 11
-56.832202399
 21
39.0125839819
 31
0.0
  0
SPLINE
  5
4E4
100
AcDbEntity
  8
SUPERFICI
100
AcDbSpline
 62
253
  6
CONTINUOUS
 70
0
 71
3
 72
25
 73
21
 74
19
 42
0.0000001
 43
0.0000001
 44
0.0000000001
 12
-29.2117335849
 22
-1.8129982564
 32
0.0
 13
-29.2672670182
 23
0.1985522493
 33
0.0
 40
0.0
 40
0.0
 40
0.0
 40
0.0
 40
0.03124023
 40
0.0468654023
 40
0.0624905697
 40
0.0937409051
 40
0.1249912404
 40
0.1562415758
 40
0.1874919111
 40
0.2499925818
 40
0.3124932526
 40
0.3749939233
 40
0.4374945941
 40
0.4999952649
 40
0.6249966059
 40
0.7499979437
 40
0.8124986137
 40
0.87499936
 40
0.9374998419
 40
1.0
 40
1.0
 40
1.0
 40
1.0
 10
29.2678197996
 20
-24.2025937776
 30
0.0
 10
28.9636260405
 20
-24.2214732718
 30
0.0
 10
28.5057989378
 20
-24.2136771346
 30
0.0
 10
27.8962747949
 20
-24.2158935251
 30
0.0
 10
27.286486909
 20
-24.2151061058
 30
0.0
 10
26.5243087392
 20
-24.2154266679
 30
0.0
 10
25.609670657
 20
-24.2152375209
 30
0.0
 10
24.6950390695
 20
-24.2152055853
 30
0.0
 10
23.4755280164
 20
-24.215121931
 30
0.0
 10
21.9511399773
 20
-24.2150481698
 30
0.0
 10
20.121873995
 20
-24.214971802
 30
0.0
 10
18.2926081015
 20
-24.2149148475
 30
0.0
 10
16.4633421823
 20
-24.2148699638
 30
0.0
 10
14.0243209764
 20
-24.2148455196
 30
0.0
 10
10.9755444514
 20
-24.2147279852
 30
0.0
 10
7.926768125
 20
-24.215065662
 30
0.0
 10
5.4877459148
 20
-24.2143199221
 30
0.0
 10
3.6584820243
 20
-24.2166050481
 30
0.0
 10
1.8292200706
 20
-24.2133102968
 30
0.0
 10
0.6097360343
 20
-24.2059502356
 30
0.0
 10
-0.0000002372
 20
-24.20181372
 30
0.0
 11
29.2678197996
 21
-24.2025937776
 31
0.0
 11
28.353570651
 21
-24.2152823436
 31
0.0
 11
27.8962541008
 21
-24.2155180041
 31
0.0
 11
27.4389376488
 21
-24.2153899497
 31
0.0
 11
26.5243046924
 21
-24.215331031
 31
0.0
 11
25.6096717393
 21
-24.2152637228
 31
0.0
 11
24.6950387861
 21
-24.2152004511
 31
0.0
 11
23.7804058318
 21
-24.2151448984
 31
0.0
 11
21.9511399217
 21
-24.2150501941
 31
0.0
 11
20.1218740101
 21
-24.2149750375
 31
0.0
 11
18.2926080974
 21
-24.2149168593
 31
0.0
 11
16.4633421839
 21
-24.2148743889
 31
0.0
 11
14.6340762711
 21
-24.214845832
 31
0.0
 11
10.9755444579
 21
-24.2148190274
 31
0.0
 11
7.31701274
 21
-24.2147945703
 31
0.0
 11
5.487746849
 21
-24.214793994
 31
0.0
 11
3.6584789349
 21
-24.2156750666
 31
0.0
 11
1.8292222008
 21
-24.2120193931
 31
0.0
 11
-0.0000002372
 21
-24.20181372
 31
0.0
  0
SPLINE
  5
4E5
100
AcDbEntity
  8
SUPERFICI
100
AcDbSpline
 62
253
  6
CONTINUOUS
 70
0
 71
3
 72
25
 73
21
 74
19
 42
0.0000001
 43
0.0000001
 44
0.0000000001
 12
-29.2672902015
 22
-0.1950427065
 32
0.0
 13
-29.2116444674
 23
1.8144268819
 33
0.0
 40
0.0
 40
0.0
 40
0.0
 40
0.0
 40
0.0625001713
 40
0.1250006507
 40
0.1875013943
 40
0.2500020664
 40
0.3750034041
 40
0.5000047456
 40
0.5625054165
 40
0.6250060875
 40
0.6875067584
 40
0.7500074294
 40
0.8125081003
 40
0.8437584358
 40
0.8750087712
 40
0.9062591066
 40
0.9375094422
 40
0.9531346097
 40
0.9687597817
 40
1.0
 40
1.0
 40
1.0
 40
1.0
 10
-0.0000002979
 20
-24.20181372
 30
0.0
 10
-0.6097371817
 20
-24.2058771208
 30
0.0
 10
-1.8292215124
 20
-24.2131593208
 30
0.0
 10
-3.6584831348
 20
-24.216613068
 30
0.0
 10
-5.4877470956
 20
-24.214349239
 30
0.0
 10
-7.9267692221
 20
-24.2150386583
 30
0.0
 10
-10.9755455502
 20
-24.2147370284
 30
0.0
 10
-14.0243220311
 20
-24.2148443491
 30
0.0
 10
-16.463343211
 20
-24.2148701616
 30
0.0
 10
-18.29260911
 20
-24.214914759
 30
0.0
 10
-20.1218749835
 20
-24.2149717885
 30
0.0
 10
-21.9511409458
 20
-24.2150481327
 30
0.0
 10
-23.4755289679
 20
-24.2151218951
 30
0.0
 10
-24.6950400084
 20
-24.2152055456
 30
0.0
 10
-25.6096715834
 20
-24.2152375203
 30
0.0
 10
-26.5243096649
 20
-24.2154264373
 30
0.0
 10
-27.2864877972
 20
-24.2151064527
 30
0.0
 10
-27.8962757349
 20
-24.2158932345
 30
0.0
 10
-28.5057995102
 20
-24.2136750487
 30
0.0
 10
-28.9636276135
 20
-24.2214880976
 30
0.0
 10
-29.2678203301
 20
-24.2025937336
 30
0.0
 11
-0.0000002979
 21
-24.20181372
 31
0.0
 11
-1.8292236811
 21
-24.2119143822
 31
0.0
 11
-3.6584801334
 21
-24.2156601366
 31
0.0
 11
-5.4877479548
 21
-24.2148127214
 31
0.0
 11
-7.3170138826
 21
-24.2147887433
 31
0.0
 11
-10.975545547
 21
-24.2148188185
 31
0.0
 11
-14.6340773197
 21
-24.2148457986
 31
0.0
 11
-16.4633432124
 21
-24.2148743679
 31
0.0
 11
-18.2926091059
 21
-24.214916831
 31
0.0
 11
-20.1218749985
 21
-24.2149750076
 31
0.0
 11
-21.9511408901
 21
-24.2150501612
 31
0.0
 11
-23.7804067802
 21
-24.2151448611
 31
0.0
 11
-24.6950397244
 21
-24.2152004184
 31
0.0
 11
-25.6096726676
 21
-24.2152636773
 31
0.0
 11
-26.5243056107
 21
-24.2153309542
 31
0.0
 11
-27.4389385567
 21
-24.2153900456
 31
0.0
 11
-27.8962550055
 21
-24.2155175687
 31
0.0
 11
-28.3535715449
 21
-24.2152827361
 31
0.0
 11
-29.2678203301
 21
-24.2025937336
 31
0.0
  0
SPLINE
  5
4E6
100
AcDbEntity
  8
SUPERFICI
100
AcDbSpline
 62
253
  6
CONTINUOUS
 70
0
 71
3
 72
9
 73
5
 74
3
 42
0.0000001
 43
0.0000001
 44
0.0000000001
 12
-2.3753937166
 22
-0.0024532279
 32
0.0
 13
-2.3753764835
 23
-0.0093749105
 33
0.0
 40
0.0
 40
0.0
 40
0.0
 40
0.0
 40
0.3572956646
 40
1.0
 40
1.0
 40
1.0
 40
1.0
 10
-31.2050778574
 20
-24.1991781637
 30
0.0
 10
-31.4879838163
 20
-24.1994703396
 30
0.0
 10
-32.279781054
 20
-24.2004960001
 30
0.0
 10
-33.0715813225
 20
-24.2010120064
 30
0.0
 10
-33.5804695772
 20
-24.2030204383
 30
0.0
 11
-31.2050778574
 21
-24.1991781637
 31
0.0
 11
-32.0537956438
 21
-24.2001382052
 31
0.0
 11
-33.5804695772
 21
-24.2030204383
 31
0.0
  0
SPLINE
  5
4E7
100
AcDbEntity
  8
SUPERFICI
100
AcDbSpline
 62
253
  6
CONTINUOUS
 70
0
 71
3
 72
10
 73
6
 74
4
 42
0.0000001
 43
0.0000001
 44
0.0000000001
 12
0.0176280697
 22
1.5486202766
 32
0.0
 13
-0.0206856493
 23
1.5485824531
 33
0.0
 40
0.0
 40
0.0
 40
0.0
 40
0.0
 40
0.5299099077
 40
0.7750423112
 40
1.0
 40
1.0
 40
1.0
 40
1.0
 10
-33.5856680362
 20
-25.7513556321
 30
0.0
 10
-33.5825542733
 20
-25.4778125561
 30
0.0
 10
-33.5776729873
 20
-25.0777353651
 30
0.0
 10
-33.5757210998
 20
-24.5614831817
 30
0.0
 10
-33.5789194947
 20
-24.3188178664
 30
0.0
 10
-33.5804706266
 20
-24.2026960232
 30
0.0
 11
-33.5856680362
 21
-25.7513556321
 31
0.0
 11
-33.5774540995
 21
-24.930714346
 31
0.0
 11
-33.5768009274
 21
-24.5510733037
 31
0.0
 11
-33.5804706266
 21
-24.2026960232
 31
0.0
  0
SPLINE
  5
4E8
100
AcDbEntity
  8
SUPERFICI
100
AcDbSpline
 62
253
  6
CONTINUOUS
 70
0
 71
3
 72
11
 73
7
 74
5
 42
0.0000001
 43
0.0000001
 44
0.0000000001
 12
-15.2433494625
 22
-8.5803964669
 32
0.0
 13
-14.5252262254
 23
-9.7468307396
 33
0.0
 40
0.0
 40
0.0
 40
0.0
 40
0.0
 40
0.2343863332
 40
0.4741146535
 40
0.7328094939
 40
1.0
 40
1.0
 40
1.0
 40
1.0
 10
-37.1276362012
 20
-22.7948480156
 30
0.0
 10
-38.3185804631
 20
-23.4652239039
 30
0.0
 10
-40.720987529
 20
-24.8330884512
 30
0.0
 10
-44.4093445039
 20
-26.9904183223
 30
0.0
 10
-48.2371063053
 20
-29.2877519705
 30
0.0
 10
-50.8233447137
 20
-30.9367412475
 30
0.0
 10
-52.1170122293
 20
-31.804828127
 30
0.0
 11
-37.1276362012
 21
-22.7948480156
 31
0.0
 11
-40.6899826411
 21
-24.824492428
 31
0.0
 11
-44.3100116146
 21
-26.9411232748
 31
0.0
 11
-48.1842312832
 21
-29.2794393904
 31
0.0
 11
-52.1170122293
 21
-31.804828127
 31
0.0
  0
SPLINE
  5
4E9
100
AcDbEntity
  8
SUPERFICI
100
AcDbSpline
 62
253
  6
CONTINUOUS
 70
0
 71
3
 72
9
 73
5
 74
3
 42
0.0000001
 43
0.0000001
 44
0.0000000001
 12
-7.0705160373
 22
-4.7444991823
 32
0.0
 13
-6.552885867
 23
-5.4371091895
 33
0.0
 40
0.0
 40
0.0
 40
0.0
 40
0.0
 40
0.4875002587
 40
1.0
 40
1.0
 40
1.0
 40
1.0
 10
-52.1170427434
 20
-31.8047087859
 30
0.0
 10
-53.2660022091
 20
-32.5756903121
 30
0.0
 10
-55.5917291342
 20
-34.2045218727
 30
0.0
 10
-57.8273821279
 20
-35.956024924
 30
0.0
 10
-58.9468328985
 20
-36.8848639417
 30
0.0
 11
-52.1170427434
 21
-31.8047087859
 31
0.0
 11
-55.5121805088
 21
-34.1929556038
 31
0.0
 11
-58.9468328985
 21
-36.8848639417
 31
0.0
  0
SPLINE
  5
4EA
100
AcDbEntity
  8
SUPERFICI
100
AcDbSpline
 62
253
  6
CONTINUOUS
 70
0
 71
3
 72
9
 73
5
 74
3
 42
0.0000001
 43
0.0000001
 44
0.0000000001
 12
-1.1231391725
 22
1.2174109814
 32
0.0
 13
-0.6923250303
 23
1.5047315876
 33
0.0
 40
0.0
 40
0.0
 40
0.0
 40
0.0
 40
0.5040646153
 40
1.0
 40
1.0
 40
1.0
 40
1.0
 10
-51.2080481704
 20
-33.1833282684
 30
0.0
 10
-51.3967597421
 20
-32.9787770024
 30
0.0
 10
-51.7368785133
 20
-32.5400716222
 30
0.0
 10
-52.0025444375
 20
-32.0535612438
 30
0.0
 10
-52.1169939309
 20
-31.8048113642
 30
0.0
 11
-51.2080481704
 21
-33.1833282684
 31
0.0
 11
-51.7207263533
 21
-32.5243589367
 31
0.0
 11
-52.1169939309
 21
-31.8048113642
 31
0.0
  0
SPLINE
  5
4EB
100
AcDbEntity
  8
SUPERFICI
100
AcDbSpline
 62
253
  6
CONTINUOUS
 70
0
 71
3
 72
16
 73
12
 74
10
 42
0.0000001
 43
0.0000001
 44
0.0000000001
 12
-1.3859837681
 22
0.2421966217
 32
0.0
 13
-1.0697029814
 23
0.9139725053
 33
0.0
 40
0.0
 40
0.0
 40
0.0
 40
0.0
 40
0.0624705588
 40
0.1250034959
 40
0.1875213417
 40
0.2500375855
 40
0.3750523331
 40
0.5000735069
 40
0.6250952935
 40
0.7501226361
 40
1.0
 40
1.0
 40
1.0
 40
1.0
 10
-56.9510903011
 20
-39.0031618022
 30
0.0
 10
-56.9799513612
 20
-38.9981184161
 30
0.0
 10
-57.0373423434
 20
-38.9855544831
 30
0.0
 10
-57.1253175874
 20
-38.9799625017
 30
0.0
 10
-57.211907562
 20
-38.9639095455
 30
0.0
 10
-57.3267755533
 20
-38.9404514147
 30
0.0
 10
-57.46927736
 20
-38.9053441703
 30
0.0
 10
-57.6358035618
 20
-38.8482175272
 30
0.0
 10
-57.798499465
 20
-38.7807921393
 30
0.0
 10
-58.0053071675
 20
-38.6697013907
 30
0.0
 10
-58.1488725771
 20
-38.5662977861
 30
0.0
 10
-58.2379707641
 20
-38.4901707726
 30
0.0
 11
-56.9510903011
 21
-39.0031618022
 31
0.0
 11
-57.0376269281
 21
-38.9877676149
 31
0.0
 11
-57.125090149
 21
-38.9782182771
 31
0.0
 11
-57.2118374697
 21
-38.9636521746
 31
0.0
 11
-57.2979928979
 21
-38.945928895
 31
0.0
 11
-57.4685288533
 21
-38.9028452962
 31
0.0
 11
-57.6351639877
 21
-38.846501518
 31
0.0
 11
-57.7972407265
 21
-38.7781398076
 31
0.0
 11
-57.952378054
 21
-38.6952100028
 31
0.0
 11
-58.2379707641
 21
-38.4901707726
 31
0.0
  0
SPLINE
  5
4EC
100
AcDbEntity
  8
SUPERFICI
100
AcDbSpline
 62
253
  6
CONTINUOUS
 70
0
 71
3
 72
13
 73
9
 74
7
 42
0.0000001
 43
0.0000001
 44
0.0000000001
 12
-0.0709782092
 22
0.7492483536
 32
0.0
 13
-0.0004205926
 23
0.7526027004
 33
0.0
 40
0.0
 40
0.0
 40
0.0
 40
0.0
 40
0.0277646634
 40
0.0878820829
 40
0.1789990798
 40
0.2997147104
 40
0.6143539767
 40
1.0
 40
1.0
 40
1.0
 40
1.0
 10
-56.8292192933
 20
-39.7651715636
 30
0.0
 10
-56.8298761887
 20
-39.7582373542
 30
0.0
 10
-56.8297244189
 20
-39.7361454922
 30
0.0
 10
-56.8304091144
 20
-39.6912780516
 30
0.0
 10
-56.8305425007
 20
-39.6230371604
 30
0.0
 10
-56.8316205403
 20
-39.4909757684
 30
0.0
 10
-56.832186288
 20
-39.2850065681
 30
0.0
 10
-56.8321508591
 20
-39.1093298792
 30
0.0
 10
-56.8322049257
 20
-39.0125837997
 30
0.0
 11
-56.8292192933
 21
-39.7651715636
 31
0.0
 11
-56.8298289927
 21
-39.7442846966
 31
0.0
 11
-56.8302108474
 21
-39.6990417687
 31
0.0
 11
-56.8305890136
 21
-39.6304679028
 31
0.0
 11
-56.8311779748
 21
-39.539618888
 31
0.0
 11
-56.8320327896
 21
-39.3028220325
 31
0.0
 11
-56.8322049257
 21
-39.0125837997
 31
0.0
  0
SPLINE
  5
4ED
100
AcDbEntity
  8
SUPERFICI
100
AcDbSpline
 62
253
  6
CONTINUOUS
 70
0
 71
3
 72
9
 73
5
 74
3
 42
0.0000001
 43
0.0000001
 44
0.0000000001
 12
-0.9259774564
 22
0.8035998647
 32
0.0
 13
-0.3043224479
 23
1.1876846551
 33
0.0
 40
0.0
 40
0.0
 40
0.0
 40
0.0
 40
0.4999116229
 40
1.0
 40
1.0
 40
1.0
 40
1.0
 10
-58.2379707641
 20
-38.4901707726
 30
0.0
 10
-58.3922730618
 20
-38.3562611351
 30
0.0
 10
-58.6602190564
 20
-38.0378694172
 30
0.0
 10
-58.8201412436
 20
-37.6544775409
 30
0.0
 10
-58.8708706166
 20
-37.4564951103
 30
0.0
 11
-58.2379707641
 21
-38.4901707726
 31
0.0
 11
-58.6331752899
 21
-38.0216813987
 31
0.0
 11
-58.8708706166
 21
-37.4564951103
 31
0.0
  0
SPLINE
  5
4EE
100
AcDbEntity
  8
SUPERFICI
100
AcDbSpline
 62
253
  6
CONTINUOUS
 70
0
 71
3
 72
13
 73
9
 74
7
 42
0.0000001
 43
0.0000001
 44
0.0000000001
 12
4.6859178432
 22
-0.1587666492
 32
0.0
 13
4.6865049922
 23
-0.1403703705
 33
0.0
 40
0.0
 40
0.0
 40
0.0
 40
0.0
 40
0.1250011314
 40
0.2500009596
 40
0.3750012396
 40
0.500001474
 40
0.7500058918
 40
1.0
 40
1.0
 40
1.0
 40
1.0
 10
-56.8322122645
 20
-39.0126711745
 30
0.0
 10
-56.6369639205
 20
-39.0192865115
 30
0.0
 10
-56.2462012701
 20
-39.0226851898
 30
0.0
 10
-55.6604437609
 20
-39.0424610817
 30
0.0
 10
-55.0745737507
 20
-39.0582374918
 30
0.0
 10
-54.2932175893
 20
-39.0707279012
 30
0.0
 10
-53.3164062305
 20
-39.0747137459
 30
0.0
 10
-52.5351617688
 20
-39.0941034303
 30
0.0
 10
-52.1446288901
 20
-39.1058006855
 30
0.0
 11
-56.8322122645
 21
-39.0126711745
 31
0.0
 11
-56.2462635928
 21
-39.0251315471
 31
0.0
 11
-55.6604254831
 21
-39.0417944881
 31
0.0
 11
-55.0745500352
 21
-39.0571693776
 31
0.0
 11
-54.4885527248
 21
-39.0668300982
 31
0.0
 11
-53.3164410875
 21
-39.0787642316
 31
0.0
 11
-52.1446288901
 21
-39.1058006855
 31
0.0
  0
SPLINE
  5
4EF
100
AcDbEntity
  8
SUPERFICI
100
AcDbSpline
 62
253
  6
CONTINUOUS
 70
0
 71
3
 72
8
 73
4
 74
2
 42
0.0000001
 43
0.0000001
 44
0.0000000001
 12
0.1173347693
 22
-0.021335065
 32
0.0
 13
0.1192179511
 23
0.0031166025
 33
0.0
 40
0.0
 40
0.0
 40
0.0
 40
0.0
 40
1.0
 40
1.0
 40
1.0
 40
1.0
 10
-56.9510893448
 20
-39.003138449
 30
0.0
 10
-56.9119777551
 20
-39.0102501374
 30
0.0
 10
-56.8719515815
 20
-39.0137100421
 30
0.0
 10
-56.8322122645
 20
-39.0126711745
 30
0.0
 11
-56.9510893448
 21
-39.003138449
 31
0.0
 11
-56.8322122645
 21
-39.0126711745
 31
0.0
  0
SPLINE
  5
4F0
100
AcDbEntity
  8
SUPERFICI
100
AcDbSpline
 62
253
  6
CONTINUOUS
 70
0
 71
3
 72
10
 73
6
 74
4
 42
0.0000001
 43
0.0000001
 44
0.0000000001
 12
-7.2316610178
 22
-5.0321296891
 32
0.0
 13
-6.8039903284
 23
-5.5968710809
 33
0.0
 40
0.0
 40
0.0
 40
0.0
 40
0.0
 40
0.2494229736
 40
0.6348285959
 40
1.0
 40
1.0
 40
1.0
 40
1.0
 10
-51.2080467861
 20
-33.1833279415
 30
0.0
 10
-51.8092942511
 20
-33.6017041916
 30
0.0
 10
-53.3289973399
 20
-34.6817620723
 30
0.0
 10
-55.68595196
 20
-36.4344196983
 30
0.0
 10
-57.4097633775
 20
-37.80889406
 30
0.0
 10
-58.2379709448
 20
-38.4901664837
 30
0.0
 11
-51.2080467861
 21
-33.1833279415
 31
0.0
 11
-52.9998527338
 21
-34.4554388853
 31
0.0
 11
-55.7217086008
 21
-36.4854313827
 31
0.0
 11
-58.2379709448
 21
-38.4901664837
 31
0.0
  0
SPLINE
  5
4F1
100
AcDbEntity
  8
SUPERFICI
100
AcDbSpline
 62
253
  6
CONTINUOUS
 70
0
 71
3
 72
12
 73
8
 74
6
 42
0.0000001
 43
0.0000001
 44
0.0000000001
 12
21.9093013111
 22
-0.1694473082
 32
0.0
 13
21.9099520475
 23
0.0140573483
 33
0.0
 40
0.0
 40
0.0
 40
0.0
 40
0.0
 40
0.1250045659
 40
0.2500055241
 40
0.5000027319
 40
0.7499953394
 40
1.0
 40
1.0
 40
1.0
 40
1.0
 10
-52.1445756526
 20
-39.1033482548
 30
0.0
 10
-51.2316547529
 20
-39.1104088172
 30
0.0
 10
-49.4057832459
 20
-39.1165397444
 30
0.0
 10
-45.7541081341
 20
-39.1201063011
 30
0.0
 10
-41.1895996597
 20
-39.1158045861
 30
0.0
 10
-35.7121518575
 20
-39.1145466567
 30
0.0
 10
-32.0605130101
 20
-39.1119502118
 30
0.0
 10
-30.2346496348
 20
-39.1107787443
 30
0.0
 11
-52.1445756526
 21
-39.1033482548
 31
0.0
 11
-49.4057577937
 21
-39.1154528967
 31
0.0
 11
-46.666994073
 21
-39.1186306851
 31
0.0
 11
-41.1895665424
 21
-39.1164552524
 31
0.0
 11
-35.7122398769
 21
-39.1141072422
 31
0.0
 11
-30.2346496348
 21
-39.1107787443
 31
0.0
  0
SPLINE
  5
4F2
100
AcDbEntity
  8
SUPERFICI
100
AcDbSpline
 62
253
  6
CONTINUOUS
 70
0
 71
3
 72
11
 73
7
 74
5
 42
0.0000001
 43
0.0000001
 44
0.0000000001
 12
3.4167605055
 22
3.4248702292
 32
0.0
 13
3.4799034615
 23
3.360693431
 33
0.0
 40
0.0
 40
0.0
 40
0.0
 40
0.0
 40
0.2498020269
 40
0.4983988966
 40
0.745711222
 40
1.0
 40
1.0
 40
1.0
 40
1.0
 10
-30.2346486329
 20
-39.1121595067
 30
0.0
 10
-29.9501440663
 20
-38.8269796651
 30
0.0
 10
-29.3763197553
 20
-38.2641119695
 30
0.0
 10
-28.4980855158
 20
-37.4425401706
 30
0.0
 10
-27.6026204289
 20
-36.62913916
 30
0.0
 10
-27.0112511014
 20
-36.0771226128
 30
0.0
 10
-26.7162843018
 20
-35.7922604043
 30
0.0
 11
-30.2346486329
 21
-39.1121595067
 31
0.0
 11
-29.3716295905
 21
-38.2662093624
 31
0.0
 11
-28.4945881378
 21
-37.4433034005
 31
0.0
 11
-27.6127372057
 21
-36.6347206155
 31
0.0
 11
-26.7162843018
 21
-35.7922604043
 31
0.0
  0
SPLINE
  5
4F3
100
AcDbEntity
  8
SUPERFICI
100
AcDbSpline
 62
253
  6
CONTINUOUS
 70
0
 71
3
 72
11
 73
7
 74
5
 42
0.0000001
 43
0.0000001
 44
0.0000000001
 12
-2.3820936157
 22
0.0273113884
 32
0.0
 13
-2.3793433287
 23
-0.1176487566
 33
0.0
 40
0.0
 40
0.0
 40
0.0
 40
0.0
 40
0.3614743717
 40
0.6513847798
 40
0.8655923889
 40
1.0
 40
1.0
 40
1.0
 40
1.0
 10
-31.2040854275
 20
-25.8005790097
 30
0.0
 10
-31.4911073586
 20
-25.7972882207
 30
0.0
 10
-32.0082696592
 20
-25.7876304957
 30
0.0
 10
-32.6953849629
 20
-25.7665361306
 30
0.0
 10
-33.2020036349
 20
-25.7513027773
 30
0.0
 10
-33.479097252
 20
-25.7454945938
 30
0.0
 10
-33.5856978696
 20
-25.7507655565
 30
0.0
 11
-31.2040854275
 21
-25.8005790097
 31
0.0
 11
-32.0650605683
 21
-25.784655108
 31
0.0
 11
-32.7554135552
 21
-25.7647767571
 31
0.0
 11
-33.2655055888
 21
-25.7503461693
 31
0.0
 11
-33.5856978696
 21
-25.7507655565
 31
0.0
  0
SPLINE
  5
4F4
100
AcDbEntity
  8
SUPERFICI
100
AcDbSpline
 62
253
  6
CONTINUOUS
 70
0
 71
3
 72
16
 73
12
 74
10
 42
0.0000001
 43
0.0000001
 44
0.0000000001
 12
19.2129426201
 22
-2.4508327117
 32
0.0
 13
19.3682422399
 23
-0.1222196329
 33
0.0
 40
0.0
 40
0.0
 40
0.0
 40
0.0
 40
0.0625142563
 40
0.1250047057
 40
0.1875081561
 40
0.2500021004
 40
0.3749704487
 40
0.4999783018
 40
0.6249815972
 40
0.7499903882
 40
1.0
 40
1.0
 40
1.0
 40
1.0
 10
-46.0720055402
 20
-35.2675322524
 30
0.0
 10
-45.6716446007
 20
-35.3186029138
 30
0.0
 10
-44.8679462246
 20
-35.3952444176
 30
0.0
 10
-43.6605726048
 20
-35.4839725759
 30
0.0
 10
-42.4512505468
 20
-35.5397970227
 30
0.0
 10
-40.8380370757
 20
-35.5848163543
 30
0.0
 10
-38.8212061857
 20
-35.6319303319
 30
0.0
 10
-36.4006635926
 20
-35.6764115455
 30
0.0
 10
-33.9797806168
 20
-35.7161605281
 30
0.0
 10
-30.7518201239
 20
-35.7592402718
 30
0.0
 10
-28.3307137346
 20
-35.7820809563
 30
0.0
 10
-26.7166314931
 20
-35.7922663173
 30
0.0
 11
-46.0720055402
 21
-35.2675322524
 31
0.0
 11
-44.8674898821
 21
-35.3908849121
 31
0.0
 11
-43.6603098469
 21
-35.4784851264
 31
0.0
 11
-42.4510766408
 21
-35.5361228805
 31
0.0
 11
-41.2412151663
 21
-35.5729536912
 31
0.0
 11
-38.8214200778
 21
-35.629915447
 31
0.0
 11
-36.400620952
 21
-35.6756225594
 31
0.0
 11
-33.9797975837
 21
-35.7149201963
 31
0.0
 11
-31.5587669406
 21
-35.7474185426
 31
0.0
 11
-26.7166314931
 21
-35.7922663173
 31
0.0
  0
SPLINE
  5
4F5
100
AcDbEntity
  8
SUPERFICI
100
AcDbSpline
 62
253
  6
CONTINUOUS
 70
0
 71
3
 72
13
 73
9
 74
7
 42
0.0000001
 43
0.0000001
 44
0.0000000001
 12
3.83270024
 22
-4.1543958732
 32
0.0
 13
5.6068745718
 23
-0.7152298494
 33
0.0
 40
0.0
 40
0.0
 40
0.0
 40
0.0
 40
0.1267926934
 40
0.252672255
 40
0.5021150201
 40
0.6270069007
 40
0.7516348975
 40
1.0
 40
1.0
 40
1.0
 40
1.0
 10
-51.2080070773
 20
-33.1833015339
 30
0.0
 10
-51.0460209485
 20
-33.3588838812
 30
0.0
 10
-50.6967164203
 20
-33.6854868485
 30
0.0
 10
-49.9148922362
 20
-34.2233567333
 30
0.0
 10
-49.0427018133
 20
-34.6013680901
 30
0.0
 10
-48.1430127902
 20
-34.8737827851
 30
0.0
 10
-47.2307281515
 20
-35.0945242302
 30
0.0
 10
-46.5361260145
 20
-35.2082768184
 30
0.0
 10
-46.071942022
 20
-35.2674895301
 30
0.0
 11
-51.2080070773
 21
-33.1833015339
 31
0.0
 11
-50.6843437441
 21
-33.6725813239
 31
0.0
 11
-50.0994109514
 21
-34.0776743382
 31
0.0
 11
-48.8156430863
 21
-34.6606287226
 31
0.0
 11
-48.1407115603
 21
-34.8675128893
 31
0.0
 11
-47.4562082697
 21
-35.0339017033
 31
0.0
 11
-46.071942022
 21
-35.2674895301
 31
0.0
  0
SPLINE
  5
4F6
100
AcDbEntity
  8
SUPERFICI
100
AcDbSpline
 62
253
  6
CONTINUOUS
 70
0
 71
3
 72
9
 73
5
 74
3
 42
0.0000001
 43
0.0000001
 44
0.0000000001
 12
-14.5523067007
 22
-9.0922221433
 32
0.0
 13
-14.0847931728
 23
-9.8008537941
 33
0.0
 40
0.0
 40
0.0
 40
0.0
 40
0.0
 40
0.467322098
 40
1.0
 40
1.0
 40
1.0
 40
1.0
 10
-36.7929580048
 20
-23.8764956108
 30
0.0
 10
-39.0598295042
 20
-25.29282772
 30
0.0
 10
-43.8961914532
 20
-28.3454749202
 30
0.0
 10
-48.7071210514
 20
-31.4430687882
 30
0.0
 10
-51.2080070773
 20
-33.1833015339
 30
0.0
 11
-36.7929580048
 21
-23.8764956108
 31
0.0
 11
-43.5745529599
 21
-28.1557826083
 31
0.0
 11
-51.2080070773
 21
-33.1833015339
 31
0.0
  0
SPLINE
  5
4F7
100
AcDbEntity
  8
SUPERFICI
100
AcDbSpline
 62
253
  6
CONTINUOUS
 70
0
 71
3
 72
12
 73
8
 74
6
 42
0.0000001
 43
0.0000001
 44
0.0000000001
 12
-3.9172284116
 22
-0.1830830453
 32
0.0
 13
-1.7472684888
 23
3.5107336353
 33
0.0
 40
0.0
 40
0.0
 40
0.0
 40
0.0
 40
0.1252343692
 40
0.2504898321
 40
0.5003227785
 40
0.7501305882
 40
1.0
 40
1.0
 40
1.0
 40
1.0
 10
-33.5856680412
 20
-25.7513558083
 30
0.0
 10
-33.7491919176
 20
-25.7589985715
 30
0.0
 10
-34.0778770793
 20
-25.753106737
 30
0.0
 10
-34.7249533011
 20
-25.6457515967
 30
0.0
 10
-35.4939984751
 20
-25.3345894687
 30
0.0
 10
-36.2695337275
 20
-24.7149573244
 30
0.0
 10
-36.647428355
 20
-24.168903927
 30
0.0
 10
-36.7929580048
 20
-23.8764956108
 30
0.0
 11
-33.5856680412
 21
-25.7513558083
 31
0.0
 11
-34.0766690322
 21
-25.7411451955
 31
0.0
 11
-34.5612149584
 21
-25.6606297947
 31
0.0
 11
-35.4695503159
 21
-25.2935055923
 31
0.0
 11
-36.2346953669
 21
-24.6817759025
 31
0.0
 11
-36.7929580048
 21
-23.8764956108
 31
0.0
  0
SPLINE
  5
4F8
100
AcDbEntity
  8
SUPERFICI
100
AcDbSpline
 62
253
  6
CONTINUOUS
 70
0
 71
3
 72
9
 73
5
 74
3
 42
0.0000001
 43
0.0000001
 44
0.0000000001
 12
13.0328776419
 22
8.7641313736
 32
0.0
 13
11.933428761
 23
10.2107382871
 33
0.0
 40
0.0
 40
0.0
 40
0.0
 40
0.0
 40
0.4992272854
 40
1.0
 40
1.0
 40
1.0
 40
1.0
 10
-46.071942022
 20
-35.2674895301
 30
0.0
 10
-43.9031526468
 20
-33.8090583587
 30
0.0
 10
-39.6511835603
 20
-30.748844544
 30
0.0
 10
-35.5776465464
 20
-27.4557755185
 30
0.0
 10
-33.5856680412
 20
-25.7513558083
 30
0.0
 11
-46.071942022
 21
-35.2674895301
 31
0.0
 11
-39.7022249255
 21
-30.695539877
 31
0.0
 11
-33.5856680412
 21
-25.7513558083
 31
0.0
  0
SPLINE
  5
4F9
100
AcDbEntity
  8
SUPERFICI
100
AcDbSpline
 62
253
  6
CONTINUOUS
 70
0
 71
3
 72
14
 73
10
 74
8
 42
0.0000001
 43
0.0000001
 44
0.0000000001
 12
26.716092916
 22
-0.1685878701
 32
0.0
 13
26.7166245381
 23
-0.0039819656
 33
0.0
 40
0.0
 40
0.0
 40
0.0
 40
0.0
 40
0.1249997725
 40
0.1874994067
 40
0.2500024298
 40
0.3750117227
 40
0.5000064241
 40
0.7499964949
 40
1.0
 40
1.0
 40
1.0
 40
1.0
 10
-26.7165990373
 20
-35.7922349533
 30
0.0
 10
-25.6034305251
 20
-35.7992594351
 30
0.0
 10
-23.9336514204
 20
-35.8066273439
 30
0.0
 10
-21.7072433255
 20
-35.8054078244
 30
0.0
 10
-19.4807519297
 20
-35.804661311
 30
0.0
 10
-16.6977074698
 20
-35.8049312923
 30
0.0
 10
-12.2449896493
 20
-35.804127292
 30
0.0
 10
-6.6791304637
 20
-35.8038634197
 30
0.0
 10
-2.2264169326
 20
-35.8046686475
 30
0.0
 10
-0.0000003393
 20
-35.8050004826
 30
0.0
 11
-26.7165990373
 21
-35.7922349533
 31
0.0
 11
-23.3770529687
 21
-35.8054021894
 31
0.0
 11
-21.7072736901
 21
-35.8054669677
 31
0.0
 11
-20.0374039599
 21
-35.8049281565
 31
0.0
 11
-16.6975775831
 21
-35.8047767882
 31
0.0
 11
-13.3581410641
 21
-35.8043776939
 31
0.0
 11
-6.6792501349
 21
-35.8041174934
 31
0.0
 11
-0.0000003393
 21
-35.8050004826
 31
0.0
  0
SPLINE
  5
4FA
100
AcDbEntity
  8
SUPERFICI
100
AcDbSpline
 62
253
  6
CONTINUOUS
 70
0
 71
3
 72
12
 73
8
 74
6
 42
0.0000001
 43
0.0000001
 44
0.0000000001
 12
-5.4046051942
 22
-11.0694788021
 32
0.0
 13
-8.8548876321
 23
-8.5635321731
 33
0.0
 40
0.0
 40
0.0
 40
0.0
 40
0.0
 40
0.2515618166
 40
0.5022346658
 40
0.6271177803
 40
0.7516808261
 40
1.0
 40
1.0
 40
1.0
 40
1.0
 10
-19.528367398
 20
-25.8614857158
 30
0.0
 10
-19.9815648316
 20
-26.7897051146
 30
0.0
 10
-20.9720435642
 20
-28.6018010091
 30
0.0
 10
-22.3857071448
 20
-30.7575928283
 30
0.0
 10
-23.6212566105
 20
-32.3987435816
 30
0.0
 10
-24.9263492233
 20
-33.972454023
 30
0.0
 10
-25.9836529101
 20
-35.0834052084
 30
0.0
 10
-26.7165990373
 20
-35.7922349533
 30
0.0
 11
-19.528367398
 21
-25.8614857158
 31
0.0
 11
-21.0093398283
 21
-28.5835314824
 31
0.0
 11
-22.7054538726
 21
-31.1638920881
 31
0.0
 11
-23.6315126552
 21
-32.3922931965
 31
0.0
 11
-24.6107601239
 21
-33.5736116944
 31
0.0
 11
-26.7165990373
 21
-35.7922349533
 31
0.0
  0
SPLINE
  5
4FB
100
AcDbEntity
  8
SUPERFICI
100
AcDbSpline
 62
253
  6
CONTINUOUS
 70
0
 71
3
 72
10
 73
6
 74
4
 42
0.0000001
 43
0.0000001
 44
0.0000000001
 12
-19.5283732486
 22
0.003736541
 32
0.0
 13
-19.5283180181
 23
0.0465948577
 33
0.0
 40
0.0
 40
0.0
 40
0.0
 40
0.0
 40
0.2788456679
 40
0.5520774495
 40
1.0
 40
1.0
 40
1.0
 40
1.0
 10
-0.0000005164
 20
-25.8767371965
 30
0.0
 10
-1.8151346102
 20
-25.8763898904
 30
0.0
 10
-5.4088584386
 20
-25.8727515294
 30
0.0
 10
-11.9183165295
 20
-25.8736450378
 30
0.0
 10
-16.6126401368
 20
-25.8673632625
 30
0.0
 10
-19.5283648082
 20
-25.8604063
 30
0.0
 11
-0.0000005164
 21
-25.8767371965
 31
0.0
 11
-5.4454020884
 21
-25.8737685573
 31
0.0
 11
-10.7811742477
 21
-25.8724946974
 31
0.0
 11
-19.5283648082
 21
-25.8604063
 31
0.0
  0
SPLINE
  5
4FC
100
AcDbEntity
  8
SUPERFICI
100
AcDbSpline
 62
253
  6
CONTINUOUS
 70
0
 71
3
 72
10
 73
6
 74
4
 42
0.0000001
 43
0.0000001
 44
0.0000000001
 12
-19.5283178593
 22
-0.0465928668
 32
0.0
 13
-19.5283730851
 23
-0.0037362614
 33
0.0
 40
0.0
 40
0.0
 40
0.0
 40
0.0
 40
0.4479225517
 40
0.7211543329
 40
1.0
 40
1.0
 40
1.0
 40
1.0
 10
19.5283641322
 20
-25.8603337678
 30
0.0
 10
16.6126394768
 20
-25.8672904331
 30
0.0
 10
11.9183159035
 20
-25.8735719425
 30
0.0
 10
5.4088578672
 20
-25.8726784713
 30
0.0
 10
1.8151340765
 20
-25.8763166754
 30
0.0
 10
0.0000000031
 20
-25.8766639555
 30
0.0
 11
19.5283641322
 21
-25.8603337678
 31
0.0
 11
10.7811736212
 21
-25.8724216506
 31
0.0
 11
5.4454015138
 21
-25.8736954555
 31
0.0
 11
0.0000000031
 21
-25.8766639555
 31
0.0
  0
SPLINE
  5
4FD
100
AcDbEntity
  8
SUPERFICI
100
AcDbSpline
 62
253
  6
CONTINUOUS
 70
0
 71
3
 72
13
 73
9
 74
7
 42
0.0000001
 43
0.0000001
 44
0.0000000001
 12
-8.8677678904
 22
8.5513146255
 32
0.0
 13
-5.4216864044
 23
11.0619892295
 33
0.0
 40
0.0
 40
0.0
 40
0.0
 40
0.0
 40
0.2483080086
 40
0.3728568672
 40
0.4977281777
 40
0.6229395878
 40
0.7484496158
 40
1.0
 40
1.0
 40
1.0
 40
1.0
 10
26.7165985765
 20
-35.7922349935
 30
0.0
 10
25.9826193148
 20
-35.0844483585
 30
0.0
 10
24.923696183
 20
-33.9749282073
 30
0.0
 10
23.6193265416
 20
-32.4006159434
 30
0.0
 10
22.6953910312
 20
-31.1698615159
 30
0.0
 10
21.8240760379
 20
-29.8966514727
 30
0.0
 10
20.7277242647
 20
-28.1493020162
 30
0.0
 10
19.9829759949
 20
-26.7890349588
 30
0.0
 10
19.5283668955
 20
-25.8614857451
 30
0.0
 11
26.7165985765
 21
-35.7922349935
 31
0.0
 11
24.6084942937
 21
-33.5756873108
 31
0.0
 11
23.6297740389
 21
-32.3940330637
 31
0.0
 11
22.7053586528
 21
-31.1644551202
 31
0.0
 11
21.8333389276
 21
-29.8920970059
 31
0.0
 11
21.0115182174
 21
-28.5824074548
 31
0.0
 11
19.5283668955
 21
-25.8614857451
 31
0.0
  0
SPLINE
  5
4FE
100
AcDbEntity
  8
SUPERFICI
100
AcDbSpline
 62
253
  6
CONTINUOUS
 70
0
 71
3
 72
14
 73
10
 74
8
 42
0.0000001
 43
0.0000001
 44
0.0000000001
 12
26.7166245103
 22
0.0039819256
 32
0.0
 13
26.7160928885
 23
0.1685878294
 33
0.0
 40
0.0
 40
0.0
 40
0.0
 40
0.0
 40
0.2500035051
 40
0.4999935759
 40
0.6249882773
 40
0.7499975702
 40
0.8125005933
 40
0.8750002275
 40
1.0
 40
1.0
 40
1.0
 40
1.0
 10
-0.0000000938
 20
-35.8050004826
 30
0.0
 10
2.2264164972
 20
-35.8046686508
 30
0.0
 10
6.6791300237
 20
-35.8038634297
 30
0.0
 10
12.2449892035
 20
-35.8041273104
 30
0.0
 10
16.6977070193
 20
-35.8049313174
 30
0.0
 10
19.4807514764
 20
-35.8046613403
 30
0.0
 10
21.7072428699
 20
-35.805407857
 30
0.0
 10
23.9336509624
 20
-35.8066273799
 30
0.0
 10
25.6034300654
 20
-35.7992594737
 30
0.0
 10
26.7165985765
 20
-35.7922349935
 30
0.0
 11
-0.0000000938
 21
-35.8050004826
 31
0.0
 11
6.6792496949
 21
-35.8041175035
 31
0.0
 11
13.3581406172
 21
-35.8043777139
 31
0.0
 11
16.6975771327
 21
-35.8047768132
 31
0.0
 11
20.0374035059
 21
-35.8049281866
 31
0.0
 11
21.7072732345
 21
-35.8054670003
 31
0.0
 11
23.3770525113
 21
-35.8054022245
 31
0.0
 11
26.7165985765
 21
-35.7922349935
 31
0.0
  0
SPLINE
  5
4FF
100
AcDbEntity
  8
SUPERFICI
100
AcDbSpline
 62
253
  6
CONTINUOUS
 70
0
 71
3
 72
9
 73
5
 74
3
 42
0.0000001
 43
0.0000001
 44
0.0000000001
 12
-0.1335916934
 22
0.5602203462
 32
0.0
 13
-0.0393201452
 23
0.5745846352
 33
0.0
 40
0.0
 40
0.0
 40
0.0
 40
0.0
 40
0.4998982258
 40
1.0
 40
1.0
 40
1.0
 40
1.0
 10
-58.8708706152
 20
-37.4564951099
 30
0.0
 10
-58.8931313654
 20
-37.3631440576
 30
0.0
 10
-58.9252689544
 20
-37.173335995
 30
0.0
 10
-58.939394452
 20
-36.9818094023
 30
0.0
 10
-58.9459491435
 20
-36.8860258038
 30
0.0
 11
-58.8708706152
 21
-37.4564951099
 31
0.0
 11
-58.9207612229
 21
-37.1729451725
 31
0.0
 11
-58.9459491435
 21
-36.8860258038
 31
0.0
  0
SPLINE
  5
500
100
AcDbEntity
  8
SUPERFICI
100
AcDbSpline
 62
253
  6
CONTINUOUS
 70
0
 71
3
 72
13
 73
9
 74
7
 42
0.0000001
 43
0.0000001
 44
0.0000000001
 12
0.8600114242
 22
0.0613754066
 32
0.0
 13
0.8415548823
 23
0.187541916
 33
0.0
 40
0.0
 40
0.0
 40
0.0
 40
0.0
 40
0.0279522707
 40
0.0893031888
 40
0.1823099194
 40
0.3043944993
 40
0.6204493131
 40
1.0
 40
1.0
 40
1.0
 40
1.0
 10
-59.7136975724
 20
-37.6380215295
 30
0.0
 10
-59.7056844817
 20
-37.6374496688
 30
0.0
 10
-59.6804951929
 20
-37.6320115717
 30
0.0
 10
-59.6290815656
 20
-37.622315507
 30
0.0
 10
-59.5513469989
 20
-37.6056878918
 30
0.0
 10
-59.4020781683
 20
-37.5738429453
 30
0.0
 10
-59.1725223615
 20
-37.5234548115
 30
0.0
 10
-58.9773415264
 20
-37.480222331
 30
0.0
 10
-58.8708706152
 20
-37.4564951099
 30
0.0
 11
-59.7136975724
 21
-37.6380215295
 31
0.0
 11
-59.6899162369
 21
-37.634112833
 31
0.0
 11
-59.638028785
 21
-37.6238292901
 31
0.0
 11
-59.559530216
 21
-37.6074446641
 31
0.0
 11
-59.4565999512
 21
-37.5854157391
 31
0.0
 11
-59.1903689152
 21
-37.5272917189
 31
0.0
 11
-58.8708706152
 21
-37.4564951099
 31
0.0
  0
SPLINE
  5
501
100
AcDbEntity
  8
SUPERFICI
100
AcDbSpline
 62
253
  6
CONTINUOUS
 70
0
 71
3
 72
13
 73
9
 74
7
 42
0.0000001
 43
0.0000001
 44
0.0000000001
 12
-0.8415548286
 22
0.1875421556
 32
0.0
 13
-0.8600117361
 23
0.0613710309
 33
0.0
 40
0.0
 40
0.0
 40
0.0
 40
0.0
 40
0.3795485278
 40
0.6956004942
 40
0.8176842342
 40
0.910693984
 40
0.9720470796
 40
1.0
 40
1.0
 40
1.0
 40
1.0
 10
-58.870870502
 20
37.456495292
 30
0.0
 10
-58.9773408008
 20
37.4802224083
 30
0.0
 10
-59.1725201915
 20
37.5234547502
 30
0.0
 10
-59.4020743261
 20
37.5738426818
 30
0.0
 10
-59.5513431432
 20
37.6056867661
 30
0.0
 10
-59.6290788492
 20
37.6223150615
 30
0.0
 10
-59.6804940802
 20
37.632011637
 30
0.0
 10
-59.7056841788
 20
37.6374498802
 30
0.0
 10
-59.7136974587
 20
37.6380217134
 30
0.0
 11
-58.870870502
 21
37.456495292
 31
0.0
 11
-59.1903669386
 21
37.5272917052
 31
0.0
 11
-59.4565956208
 21
37.585414996
 31
0.0
 11
-59.5595252409
 21
37.6074434738
 31
0.0
 11
-59.6380263004
 21
37.6238289076
 31
0.0
 11
-59.6899155632
 21
37.6341129705
 31
0.0
 11
-59.7136974587
 21
37.6380217134
 31
0.0
  0
SPLINE
  5
502
100
AcDbEntity
  8
SUPERFICI
100
AcDbSpline
 62
253
  6
CONTINUOUS
 70
0
 71
3
 72
9
 73
5
 74
3
 42
0.0000001
 43
0.0000001
 44
0.0000000001
 12
0.0387516538
 22
0.5746078642
 32
0.0
 13
0.133518524
 23
0.5602220025
 33
0.0
 40
0.0
 40
0.0
 40
0.0
 40
0.0
 40
0.7499115014
 40
1.0
 40
1.0
 40
1.0
 40
1.0
 10
-58.945949032
 20
36.886025986
 30
0.0
 10
-58.9362622617
 20
37.0296610014
 30
0.0
 10
-58.9213668709
 20
37.2217238904
 30
0.0
 10
-58.8820009844
 20
37.4097935988
 30
0.0
 10
-58.870870502
 20
37.456495292
 30
0.0
 11
-58.945949032
 21
36.886025986
 31
0.0
 11
-58.9001604064
 21
37.3154757063
 31
0.0
 11
-58.870870502
 21
37.456495292
 31
0.0
  0
SPLINE
  5
503
100
AcDbEntity
  8
SUPERFICI
100
AcDbSpline
 62
253
  6
CONTINUOUS
 70
0
 71
3
 72
11
 73
7
 74
5
 42
0.0000001
 43
0.0000001
 44
0.0000000001
 12
-5.5739818264
 22
-2.9269269387
 32
0.0
 13
-5.062984754
 23
-3.7419727533
 33
0.0
 40
0.0
 40
0.0
 40
0.0
 40
0.0
 40
0.2526851172
 40
0.4963238133
 40
0.7453897066
 40
1.0
 40
1.0
 40
1.0
 40
1.0
 10
-53.6516638882
 20
-21.2968869055
 30
0.0
 10
-54.1211513053
 20
-21.5434171977
 30
0.0
 10
-55.0374581792
 20
-22.039059464
 30
0.0
 10
-56.3853747472
 20
-22.8336163441
 30
0.0
 10
-57.7027114548
 20
-23.6853409739
 30
0.0
 10
-58.5671988593
 20
-24.2941977923
 30
0.0
 10
-58.9968948705
 20
-24.6117793858
 30
0.0
 11
-53.6516638882
 21
-21.2968869055
 31
0.0
 11
-55.0492903987
 21
-22.0567557859
 31
0.0
 11
-56.3700693986
 21
-22.8367165543
 31
0.0
 11
-57.687222748
 21
-23.6875340144
 31
0.0
 11
-58.9968948705
 21
-24.6117793858
 31
0.0
  0
SPLINE
  5
504
100
AcDbEntity
  8
SUPERFICI
100
AcDbSpline
 62
253
  6
CONTINUOUS
 70
0
 71
3
 72
11
 73
7
 74
5
 42
0.0000001
 43
0.0000001
 44
0.0000000001
 12
5.4415855064
 22
4.6254935454
 32
0.0
 13
6.0971918823
 23
3.7189103933
 33
0.0
 40
0.0
 40
0.0
 40
0.0
 40
0.0
 40
0.2558903239
 40
0.5063663562
 40
0.7506047356
 40
1.0
 40
1.0
 40
1.0
 40
1.0
 10
-58.9792066386
 20
-30.7517704328
 30
0.0
 10
-58.515056946
 20
-30.3572307523
 30
0.0
 10
-57.5778441894
 20
-29.5983360427
 30
0.0
 10
-56.1426412566
 20
-28.5329644994
 30
0.0
 10
-54.6762581296
 20
-27.5382697174
 30
0.0
 10
-53.6803043971
 20
-26.9141348641
 30
0.0
 10
-53.1734341365
 20
-26.6049753172
 30
0.0
 11
-58.9792066386
 21
-30.7517704328
 31
0.0
 11
-57.5599087256
 21
-29.6004833688
 31
0.0
 11
-56.123283962
 21
-28.5345852409
 31
0.0
 11
-54.6807478893
 21
-27.5539110521
 31
0.0
 11
-53.1734341365
 21
-26.6049753172
 31
0.0
  0
LINE
  5
505
100
AcDbEntity
  8
SUPERFICI
100
AcDbLine
 62
253
  6
CONTINUOUS
 10
-58.9958375337
 20
-24.6106010261
 11
-58.9802050761
 21
-30.7525446051
  0
SPLINE
  5
506
100
AcDbEntity
  8
SUPERFICI
100
AcDbSpline
 62
253
  6
CONTINUOUS
 70
0
 71
3
 72
11
 73
7
 74
5
 42
0.0000001
 43
0.0000001
 44
0.0000000001
 12
15.0916783913
 22
9.2049967514
 32
0.0
 13
16.561321458
 23
6.1816950284
 33
0.0
 40
0.0
 40
0.0
 40
0.0
 40
0.0
 40
0.2333626993
 40
0.4759300476
 40
0.7352270145
 40
1.0
 40
1.0
 40
1.0
 40
1.0
 10
-53.1733889684
 20
-26.6050508065
 30
0.0
 10
-51.999444033
 20
-25.8890165102
 30
0.0
 10
-49.5589922624
 20
-24.5035300758
 30
0.0
 10
-45.6810723272
 20
-22.5688095712
 30
0.0
 10
-41.5574366592
 20
-20.7214374121
 30
0.0
 10
-38.688769035
 20
-19.5751277929
 30
0.0
 10
-37.2271055264
 20
-19.0295458436
 30
0.0
 11
-53.1733889684
 21
-26.6050508065
 31
0.0
 11
-49.5894053992
 21
-24.5623251282
 31
0.0
 11
-45.7570709473
 21
-22.6388312368
 31
0.0
 11
-41.5747080418
 21
-20.7631638091
 31
0.0
 11
-37.2271055264
 21
-19.0295458436
 31
0.0
  0
SPLINE
  5
507
100
AcDbEntity
  8
SUPERFICI
100
AcDbSpline
 62
253
  6
CONTINUOUS
 70
0
 71
3
 72
9
 73
5
 74
3
 42
0.0000001
 43
0.0000001
 44
0.0000000001
 12
1.722738315
 22
0.0121646907
 32
0.0
 13
1.7227791791
 23
0.0026798519
 33
0.0
 40
0.0
 40
0.0
 40
0.0
 40
0.0
 40
0.2690440028
 40
1.0
 40
1.0
 40
1.0
 40
1.0
 10
-37.2270536328
 20
-19.0296860139
 30
0.0
 10
-37.0725561621
 20
-19.0285950682
 30
0.0
 10
-36.4983017943
 20
-19.0253731097
 30
0.0
 10
-35.9240373873
 20
-19.0275707721
 30
0.0
 10
-35.5042787964
 20
-19.0269178208
 30
0.0
 11
-37.2270536328
 21
-19.0296860139
 31
0.0
 11
-36.7635560479
 21
-19.0272536685
 31
0.0
 11
-35.5042787964
 21
-19.0269178208
 31
0.0
  0
SPLINE
  5
508
100
AcDbEntity
  8
SUPERFICI
100
AcDbSpline
 62
253
  6
CONTINUOUS
 70
0
 71
3
 72
11
 73
7
 74
5
 42
0.0000001
 43
0.0000001
 44
0.0000000001
 12
-0.0291004915
 22
-3.7948157764
 32
0.0
 13
0.0346228638
 23
-3.7947694097
 33
0.0
 40
0.0
 40
0.0
 40
0.0
 40
0.0
 40
0.2500028269
 40
0.499997691
 40
0.7500009824
 40
1.0
 40
1.0
 40
1.0
 40
1.0
 10
-37.2647918807
 20
-15.2350659896
 30
0.0
 10
-37.2672169491
 20
-15.5513042135
 30
0.0
 10
-37.270740604
 20
-16.1838064198
 30
0.0
 10
-37.2579024671
 20
-17.1324906224
 30
0.0
 10
-37.2379852264
 20
-18.0810060961
 30
0.0
 10
-37.2299388601
 20
-18.7134564724
 30
0.0
 10
-37.2270536328
 20
-19.0296860139
 30
0.0
 11
-37.2647918807
 21
-15.2350659896
 31
0.0
 11
-37.2677199734
 21
-16.1838040373
 31
0.0
 11
-37.2567227895
 21
-17.1324526452
 31
0.0
 11
-37.2392931116
 21
-18.0810368574
 31
0.0
 11
-37.2270536328
 21
-19.0296860139
 31
0.0
  0
LINE
  5
509
100
AcDbEntity
  8
SUPERFICI
100
AcDbLine
 62
253
  6
CONTINUOUS
 10
-37.3717763907
 20
-0.0000002235
 11
-35.5042873011
 21
0.0000000949
  0
SPLINE
  5
50A
100
AcDbEntity
  8
SUPERFICI
100
AcDbSpline
 62
253
  6
CONTINUOUS
 70
0
 71
3
 72
11
 73
7
 74
5
 42
0.0000001
 43
0.0000001
 44
0.0000000001
 12
-1.6479018155
 22
-0.0187193264
 32
0.0
 13
-1.6457655392
 23
-0.0859453117
 33
0.0
 40
0.0
 40
0.0
 40
0.0
 40
0.0
 40
0.2250389738
 40
0.4704221214
 40
0.730555602
 40
1.0
 40
1.0
 40
1.0
 40
1.0
 10
-35.5075644273
 20
22.2707977367
 30
0.0
 10
-35.6311784718
 20
22.269393544
 30
0.0
 10
-35.8895933154
 20
22.2663095404
 30
0.0
 10
-36.2909018227
 20
22.2696994581
 30
0.0
 10
-36.7166697027
 20
22.2665952247
 30
0.0
 10
-37.0073411127
 20
22.2533610875
 30
0.0
 10
-37.1551552144
 20
22.2456419265
 30
0.0
 11
-35.5075644273
 21
22.2707977367
 31
0.0
 11
-35.8784171126
 21
22.267648202
 31
0.0
 11
-36.2828094127
 21
22.2686011922
 31
0.0
 11
-36.7114862845
 21
22.2639511473
 31
0.0
 11
-37.1551552144
 21
22.2456419265
 31
0.0
  0
SPLINE
  5
50B
100
AcDbEntity
  8
SUPERFICI
100
AcDbSpline
 62
253
  6
CONTINUOUS
 70
0
 71
3
 72
9
 73
5
 74
3
 42
0.0000001
 43
0.0000001
 44
0.0000000001
 12
1.7226925442
 22
-0.0114496787
 32
0.0
 13
1.7227276772
 23
-0.0031696894
 33
0.0
 40
0.0
 40
0.0
 40
0.0
 40
0.0
 40
0.2691823548
 40
1.0
 40
1.0
 40
1.0
 40
1.0
 10
-37.2269291363
 20
19.0296855997
 30
0.0
 10
-37.0723563244
 20
19.0286582492
 30
0.0
 10
-36.4981193042
 20
19.025390008
 30
0.0
 10
-35.9238713215
 20
19.0276899735
 30
0.0
 10
-35.5042047267
 20
19.0269178185
 30
0.0
 11
-37.2269291363
 21
19.0296855997
 31
0.0
 11
-36.7632065835
 21
19.027302211
 31
0.0
 11
-35.5042047267
 21
19.0269178185
 31
0.0
  0
SPLINE
  5
50C
100
AcDbEntity
  8
SUPERFICI
100
AcDbSpline
 62
253
  6
CONTINUOUS
 70
0
 71
3
 72
11
 73
7
 74
5
 42
0.0000001
 43
0.0000001
 44
0.0000000001
 12
-15.9753779558
 22
7.7027152527
 32
0.0
 13
-14.8682190791
 23
9.6685357999
 33
0.0
 40
0.0
 40
0.0
 40
0.0
 40
0.0
 40
0.2470141138
 40
0.4951364324
 40
0.7476562036
 40
1.0
 40
1.0
 40
1.0
 40
1.0
 10
-37.1663725572
 20
21.3756318967
 30
0.0
 10
-38.4817538335
 20
22.0098583575
 30
0.0
 10
-41.10450596
 20
23.3103279061
 30
0.0
 10
-45.0162035239
 20
25.3690687605
 30
0.0
 10
-48.9059290253
 20
27.5347475476
 30
0.0
 10
-51.4565923934
 20
29.0875334332
 30
0.0
 10
-52.7072266761
 20
29.900798443
 30
0.0
 11
-37.1663725572
 21
21.3756318967
 31
0.0
 11
-41.0906156394
 21
23.3230805305
 31
0.0
 11
-44.9850541026
 21
25.3720274611
 31
0.0
 11
-48.8924960711
 21
27.5604554814
 31
0.0
 11
-52.7072266761
 21
29.900798443
 31
0.0
  0
SPLINE
  5
50D
100
AcDbEntity
  8
SUPERFICI
100
AcDbSpline
 62
253
  6
CONTINUOUS
 70
0
 71
3
 72
10
 73
6
 74
4
 42
0.0000001
 43
0.0000001
 44
0.0000000001
 12
0.3315028775
 22
3.3138021674
 32
0.0
 13
0.7203528049
 23
3.2515028524
 33
0.0
 40
0.0
 40
0.0
 40
0.0
 40
0.0
 40
0.4999895674
 40
0.7500105093
 40
1.0
 40
1.0
 40
1.0
 40
1.0
 10
-53.1734708499
 20
26.6049419629
 30
0.0
 10
-53.1182215231
 20
27.1572308003
 30
0.0
 10
-53.0271303479
 20
27.985078764
 30
0.0
 10
-52.866995282
 20
29.0836400389
 30
0.0
 10
-52.7672261312
 20
29.6300193691
 30
0.0
 10
-52.7071992543
 20
29.9009665498
 30
0.0
 11
-53.1734708499
 21
26.6049419629
 31
0.0
 11
-52.9838776217
 21
28.2592495039
 31
0.0
 11
-52.8620646392
 21
29.0829463063
 31
0.0
 11
-52.7071992543
 21
29.9009665498
 31
0.0
  0
SPLINE
  5
50E
100
AcDbEntity
  8
SUPERFICI
100
AcDbSpline
 62
253
  6
CONTINUOUS
 70
0
 71
3
 72
11
 73
7
 74
5
 42
0.0000001
 43
0.0000001
 44
0.0000000001
 12
-6.5573875787
 22
4.2641667496
 32
0.0
 13
-5.8820595911
 23
5.1559504353
 33
0.0
 40
0.0
 40
0.0
 40
0.0
 40
0.0
 40
0.2464097243
 40
0.4911564034
 40
0.7429051726
 40
1.0
 40
1.0
 40
1.0
 40
1.0
 10
-52.7070978568
 20
29.9010750414
 30
0.0
 10
-53.245699212
 20
30.2513190925
 30
0.0
 10
-54.3116570343
 20
30.9613295853
 30
0.0
 10
-55.8884719126
 20
32.0870377573
 30
0.0
 10
-57.4422302806
 20
33.2905011741
 30
0.0
 10
-58.4588652093
 20
34.1436030466
 30
0.0
 10
-58.9629475743
 20
34.585459109
 30
0.0
 11
-52.7070978568
 21
29.9010750414
 31
0.0
 11
-54.3093567154
 21
30.9723487628
 31
0.0
 11
-55.8662878554
 21
32.0862839041
 31
0.0
 11
-57.4232518788
 21
33.2918751494
 31
0.0
 11
-58.9629475743
 21
34.585459109
 31
0.0
  0
SPLINE
  5
50F
100
AcDbEntity
  8
SUPERFICI
100
AcDbSpline
 62
253
  6
CONTINUOUS
 70
0
 71
3
 72
11
 73
7
 74
5
 42
0.0000001
 43
0.0000001
 44
0.0000000001
 12
5.0629847527
 22
-3.7419727789
 32
0.0
 13
5.5739818329
 23
-2.9269269568
 33
0.0
 40
0.0
 40
0.0
 40
0.0
 40
0.0
 40
0.2546102934
 40
0.5036761871
 40
0.7473148831
 40
1.0
 40
1.0
 40
1.0
 40
1.0
 10
-58.9968948557
 20
24.6117794839
 30
0.0
 10
-58.5671988447
 20
24.2941978882
 30
0.0
 10
-57.7027114394
 20
23.6853410655
 30
0.0
 10
-56.3853747305
 20
22.8336164296
 30
0.0
 10
-55.0374581616
 20
22.0390595441
 30
0.0
 10
-54.1211512875
 20
21.543417275
 30
0.0
 10
-53.6516638705
 20
21.2968869816
 30
0.0
 11
-58.9968948557
 21
24.6117794839
 31
0.0
 11
-57.6872227332
 21
23.6875341064
 31
0.0
 11
-56.3700693813
 21
22.8367166394
 31
0.0
 11
-55.0492903804
 21
22.0567558657
 31
0.0
 11
-53.6516638705
 21
21.2968869816
 31
0.0
  0
LINE
  5
510
100
AcDbEntity
  8
SUPERFICI
100
AcDbLine
 62
253
  6
CONTINUOUS
 10
-58.9802049831
 20
30.7525447875
 11
-58.9958374593
 21
24.6106012085
  0
SPLINE
  5
511
100
AcDbEntity
  8
SUPERFICI
100
AcDbSpline
 62
253
  6
CONTINUOUS
 70
0
 71
3
 72
11
 73
7
 74
5
 42
0.0000001
 43
0.0000001
 44
0.0000000001
 12
-6.0971919682
 22
3.7189104477
 32
0.0
 13
-5.4415855382
 23
4.625493665
 33
0.0
 40
0.0
 40
0.0
 40
0.0
 40
0.0
 40
0.2493952624
 40
0.4936336419
 40
0.7441096764
 40
1.0
 40
1.0
 40
1.0
 40
1.0
 10
-53.1734344154
 20
26.6049748822
 30
0.0
 10
-53.6803046791
 20
26.9141344312
 30
0.0
 10
-54.6762584212
 20
27.5382692924
 30
0.0
 10
-56.1426415655
 20
28.5329640953
 30
0.0
 10
-57.5778445159
 20
29.5983356656
 30
0.0
 10
-58.5150572835
 20
30.3572303962
 30
0.0
 10
-58.9792069782
 20
30.7517700864
 30
0.0
 11
-53.1734344154
 21
26.6049748822
 31
0.0
 11
-54.6807481762
 21
27.5539106252
 31
0.0
 11
-56.1232842662
 21
28.5345848343
 31
0.0
 11
-57.5599090564
 21
29.6004829957
 31
0.0
 11
-58.9792069782
 21
30.7517700864
 31
0.0
  0
SPLINE
  5
512
100
AcDbEntity
  8
SUPERFICI
100
AcDbSpline
 62
253
  6
CONTINUOUS
 70
0
 71
3
 72
11
 73
7
 74
5
 42
0.0000001
 43
0.0000001
 44
0.0000000001
 12
-16.5614395444
 22
6.1816993503
 32
0.0
 13
-15.091771543
 23
9.2050593879
 33
0.0
 40
0.0
 40
0.0
 40
0.0
 40
0.0
 40
0.2647733346
 40
0.5240705298
 40
0.7666376536
 40
1.0
 40
1.0
 40
1.0
 40
1.0
 10
-37.2270560883
 20
19.0294781456
 30
0.0
 10
-38.6887319462
 20
19.5750611957
 30
0.0
 10
-41.55742303
 20
20.7213741633
 30
0.0
 10
-45.6810893098
 20
22.5687532623
 30
0.0
 10
-49.5590334593
 20
24.5034823146
 30
0.0
 10
-51.9994977384
 20
25.8889759633
 30
0.0
 10
-53.1734481448
 20
26.6050140493
 30
0.0
 11
-37.2270560883
 21
19.0294781456
 31
0.0
 11
-41.5746950956
 21
20.7631014224
 31
0.0
 11
-45.7570906976
 21
22.6387768648
 31
0.0
 11
-49.5894472475
 21
24.5622785198
 31
0.0
 11
-53.1734481448
 21
26.6050140493
 31
0.0
  0
SPLINE
  5
513
100
AcDbEntity
  8
SUPERFICI
100
AcDbSpline
 62
253
  6
CONTINUOUS
 70
0
 71
3
 72
10
 73
6
 74
4
 42
0.0000001
 43
0.0000001
 44
0.0000000001
 12
-0.0386944317
 22
3.7944665395
 32
0.0
 13
0.0482045119
 23
3.7943576404
 33
0.0
 40
0.0
 40
0.0
 40
0.0
 40
0.0
 40
0.2500030082
 40
0.6250001308
 40
1.0
 40
1.0
 40
1.0
 40
1.0
 10
-37.2647920432
 20
15.2351146698
 30
0.0
 10
-37.268016618
 20
15.5513240196
 30
0.0
 10
-37.2721263945
 20
16.341926779
 30
0.0
 10
-37.2458779755
 20
17.6066193207
 30
0.0
 10
-37.2330816502
 20
18.555183606
 30
0.0
 10
-37.2270560883
 20
19.0294781456
 30
0.0
 11
-37.2647920432
 21
15.2351146698
 31
0.0
 11
-37.2680219938
 21
16.1837865437
 31
0.0
 11
-37.2476005125
 21
17.606628018
 31
0.0
 11
-37.2270560883
 21
19.0294781456
 31
0.0
  0
SPLINE
  5
514
100
AcDbEntity
  8
SUPERFICI
100
AcDbSpline
 62
253
  6
CONTINUOUS
 70
0
 71
3
 72
14
 73
10
 74
8
 42
0.0000001
 43
0.0000001
 44
0.0000000001
 12
-17.0089253557
 22
4.1665362585
 32
0.0
 13
-15.504271446
 23
8.1413225632
 33
0.0
 40
0.0
 40
0.0
 40
0.0
 40
0.0
 40
0.1431700007
 40
0.2881036632
 40
0.4295133683
 40
0.5621253952
 40
0.681889662
 40
0.7914938566
 40
1.0
 40
1.0
 40
1.0
 40
1.0
 10
-37.264791502
 20
15.2351163994
 30
0.0
 10
-38.0765141202
 20
15.4339573991
 30
0.0
 10
-39.7026452968
 20
15.8643234614
 30
0.0
 10
-42.1056771549
 20
16.5807046414
 30
0.0
 10
-44.4277545002
 20
17.349074172
 30
0.0
 10
-46.5897397659
 20
18.1306061307
 30
0.0
 10
-48.5561210895
 20
18.9048715355
 30
0.0
 10
-50.9039203923
 20
19.9160666684
 30
0.0
 10
-52.5742216425
 20
20.7307743797
 30
0.0
 10
-53.6518002576
 20
21.2966129697
 30
0.0
 11
-37.264791502
 21
15.2351163994
 31
0.0
 11
-39.6891704353
 21
15.8740756754
 31
0.0
 11
-42.1215608733
 21
16.5987687359
 31
0.0
 11
-44.4727003911
 21
17.3762028109
 31
0.0
 11
-46.6562378796
 21
18.1668570208
 31
0.0
 11
-48.6069061842
 21
18.9372567695
 31
0.0
 11
-50.3694312598
 21
19.6971772577
 31
0.0
 11
-53.6518002576
 21
21.2966129697
 31
0.0
  0
SPLINE
  5
515
100
AcDbEntity
  8
SUPERFICI
100
AcDbSpline
 62
253
  6
CONTINUOUS
 70
0
 71
3
 72
14
 73
10
 74
8
 42
0.0000001
 43
0.0000001
 44
0.0000000001
 12
15.5042714329
 22
8.1413226164
 32
0.0
 13
17.0089253481
 23
4.1665363447
 33
0.0
 40
0.0
 40
0.0
 40
0.0
 40
0.0
 40
0.2085061453
 40
0.3181103406
 40
0.4378746077
 40
0.5704866343
 40
0.7118963387
 40
0.8568300003
 40
1.0
 40
1.0
 40
1.0
 40
1.0
 10
-53.6518002868
 20
-21.2966132412
 30
0.0
 10
-52.5742216629
 20
-20.7307746424
 30
0.0
 10
-50.9039204001
 20
-19.916066919
 30
0.0
 10
-48.5561210836
 20
-18.9048717706
 30
0.0
 10
-46.5897397577
 20
-18.130606356
 30
0.0
 10
-44.4277544975
 20
-17.349074389
 30
0.0
 10
-42.1056771644
 20
-16.5807048512
 30
0.0
 10
-39.7026453223
 20
-15.8643236641
 30
0.0
 10
-38.0765141573
 20
-15.4339575967
 30
0.0
 10
-37.2647915449
 20
-15.2351165943
 30
0.0
 11
-53.6518002868
 21
-21.2966132412
 31
0.0
 11
-50.3694312617
 21
-19.6971775035
 31
0.0
 11
-48.6069061759
 21
-18.9372570037
 31
0.0
 11
-46.6562378683
 21
-18.1668572451
 31
0.0
 11
-44.4727003861
 21
-17.3762030272
 31
0.0
 11
-42.1215608814
 21
-16.5987689452
 31
0.0
 11
-39.6891704605
 21
-15.8740758779
 31
0.0
 11
-37.2647915449
 21
-15.2351165943
 31
0.0
  0
SPLINE
  5
516
100
AcDbEntity
  8
SUPERFICI
100
AcDbSpline
 62
253
  6
CONTINUOUS
 70
0
 71
3
 72
8
 73
4
 74
2
 42
0.0000001
 43
0.0000001
 44
0.0000000001
 12
-30.2339081233
 22
-0.0112496224
 32
0.0
 13
-30.2339101931
 23
-0.0011836373
 33
0.0
 40
0.0
 40
0.0
 40
0.0
 40
0.0
 40
1.0
 40
1.0
 40
1.0
 40
1.0
 10
30.2339097678
 20
39.114092509
 30
0.0
 10
20.1559403933
 20
39.1103426349
 30
0.0
 10
10.0779698401
 20
39.1108049815
 30
0.0
 10
-0.0000002243
 20
39.1104104358
 30
0.0
 11
30.2339097678
 21
39.114092509
 31
0.0
 11
-0.0000002243
 21
39.1104104358
 31
0.0
  0
SPLINE
  5
517
100
AcDbEntity
  8
SUPERFICI
100
AcDbSpline
 62
253
  6
CONTINUOUS
 70
0
 71
3
 72
8
 73
4
 74
2
 42
0.0000001
 43
0.0000001
 44
0.0000000001
 12
-30.2339100737
 22
0.0011836824
 32
0.0
 13
-30.233908004
 23
0.0112496686
 33
0.0
 40
0.0
 40
0.0
 40
0.0
 40
0.0
 40
1.0
 40
1.0
 40
1.0
 40
1.0
 10
-0.0000001717
 20
39.1104104138
 30
0.0
 10
-10.0779701962
 20
39.1108049746
 30
0.0
 10
-20.1559407097
 20
39.1103426426
 30
0.0
 10
-30.2339100443
 20
39.1140925322
 30
0.0
 11
-0.0000001717
 21
39.1104104138
 31
0.0
 11
-30.2339100443
 21
39.1140925322
 31
0.0
  0
SPLINE
  5
518
100
AcDbEntity
  8
SUPERFICI
100
AcDbSpline
 62
253
  6
CONTINUOUS
 70
0
 71
3
 72
12
 73
8
 74
6
 42
0.0000001
 43
0.0000001
 44
0.0000000001
 12
-21.9099520491
 22
0.0140574145
 32
0.0
 13
-21.9093013133
 23
-0.1694472421
 33
0.0
 40
0.0
 40
0.0
 40
0.0
 40
0.0
 40
0.2500046606
 40
0.4999972681
 40
0.7499944759
 40
0.8749954341
 40
1.0
 40
1.0
 40
1.0
 40
1.0
 10
-30.2346495167
 20
39.1107788398
 30
0.0
 10
-32.0605128921
 20
39.1119503128
 30
0.0
 10
-35.7121517397
 20
39.1145467688
 30
0.0
 10
-41.1895995424
 20
39.1158047147
 30
0.0
 10
-45.754108017
 20
39.1201064435
 30
0.0
 10
-49.4057831291
 20
39.1165398978
 30
0.0
 10
-51.2316546363
 20
39.1104089761
 30
0.0
 10
-52.1445755362
 20
39.1033484164
 30
0.0
 11
-30.2346495167
 21
39.1107788398
 31
0.0
 11
-35.7122397591
 21
39.1141073543
 31
0.0
 11
-41.1895664251
 21
39.116455381
 31
0.0
 11
-46.666993956
 21
39.1186308302
 31
0.0
 11
-49.4057576769
 21
39.1154530501
 31
0.0
 11
-52.1445755362
 21
39.1033484164
 31
0.0
  0
LINE
  5
519
100
AcDbEntity
  8
SUPERFICI
100
AcDbLine
 62
253
  6
CONTINUOUS
 10
-56.8292166499
 20
-39.7651626484
 11
-57.0560268936
 21
-39.7652449043
  0
LINE
  5
51A
100
AcDbEntity
  8
SUPERFICI
100
AcDbLine
 62
253
  6
CONTINUOUS
 10
57.0560424873
 20
-39.7652447676
 11
56.8292162955
 21
-39.7651716251
  0
SPLINE
  5
51B
100
AcDbEntity
  8
SUPERFICI
100
AcDbSpline
 62
253
  6
CONTINUOUS
 70
0
 71
3
 72
11
 73
7
 74
5
 42
0.0000001
 43
0.0000001
 44
0.0000000001
 12
-3.4799034513
 22
3.3606934409
 32
0.0
 13
-3.4167604953
 23
3.4248702387
 33
0.0
 40
0.0
 40
0.0
 40
0.0
 40
0.0
 40
0.254288778
 40
0.5016011035
 40
0.7501979731
 40
1.0
 40
1.0
 40
1.0
 40
1.0
 10
-26.7162841937
 20
35.7922604899
 30
0.0
 10
-27.0112509924
 20
36.0771226992
 30
0.0
 10
-27.6026203182
 20
36.6291392481
 30
0.0
 10
-28.4980854027
 20
37.4425402612
 30
0.0
 10
-29.3763196397
 20
38.2641120626
 30
0.0
 10
-29.950143949
 20
38.8269797598
 30
0.0
 10
-30.2346485147
 20
39.1121596022
 30
0.0
 11
-26.7162841937
 21
35.7922604899
 31
0.0
 11
-27.612737095
 21
36.6347207036
 31
0.0
 11
-28.4945880247
 21
37.4433034911
 31
0.0
 11
-29.3716294749
 21
38.2662094555
 31
0.0
 11
-30.2346485147
 21
39.1121596022
 31
0.0
  0
SPLINE
  5
51C
100
AcDbEntity
  8
SUPERFICI
100
AcDbSpline
 62
253
  6
CONTINUOUS
 70
0
 71
3
 72
11
 73
7
 74
5
 42
0.0000001
 43
0.0000001
 44
0.0000000001
 12
2.3793432528
 22
-0.1176487669
 32
0.0
 13
2.3820935402
 23
0.0273114036
 33
0.0
 40
0.0
 40
0.0
 40
0.0
 40
0.0
 40
0.1344076215
 40
0.3486152345
 40
0.6385256393
 40
1.0
 40
1.0
 40
1.0
 40
1.0
 10
-33.5856977301
 20
25.7507668851
 30
0.0
 10
-33.4790971076
 20
25.7454959215
 30
0.0
 10
-33.2020034879
 20
25.7513041092
 30
0.0
 10
-32.6953848236
 20
25.7665374733
 30
0.0
 10
-32.0082695502
 20
25.7876318509
 30
0.0
 10
-31.4911072773
 20
25.7972895815
 30
0.0
 10
-31.2040853642
 20
25.8005803722
 30
0.0
 11
-33.5856977301
 21
25.7507668851
 31
0.0
 11
-33.2655054347
 21
25.7503475006
 31
0.0
 11
-32.7554134083
 21
25.7647780986
 31
0.0
 11
-32.0650604513
 21
25.7846564615
 31
0.0
 11
-31.2040853642
 21
25.8005803722
 31
0.0
  0
SPLINE
  5
51D
100
AcDbEntity
  8
SUPERFICI
100
AcDbSpline
 62
253
  6
CONTINUOUS
 70
0
 71
3
 72
16
 73
12
 74
10
 42
0.0000001
 43
0.0000001
 44
0.0000000001
 12
-19.3682422408
 22
-0.1222195745
 32
0.0
 13
-19.212942628
 23
-2.4508326538
 33
0.0
 40
0.0
 40
0.0
 40
0.0
 40
0.0
 40
0.2500096118
 40
0.3750184028
 40
0.5000216982
 40
0.6250295513
 40
0.7499978996
 40
0.8124918439
 40
0.8749952943
 40
0.9374857437
 40
1.0
 40
1.0
 40
1.0
 40
1.0
 10
-26.7166313844
 20
35.7922664029
 30
0.0
 10
-28.330713626
 20
35.7820810468
 30
0.0
 10
-30.7518200155
 20
35.7592403696
 30
0.0
 10
-33.9797805086
 20
35.7161606357
 30
0.0
 10
-36.4006634846
 20
35.6764116604
 30
0.0
 10
-38.8212060779
 20
35.6319304541
 30
0.0
 10
-40.8380369681
 20
35.5848164825
 30
0.0
 10
-42.4512504394
 20
35.5397971558
 30
0.0
 10
-43.6605724976
 20
35.4839727127
 30
0.0
 10
-44.8679461176
 20
35.395244558
 30
0.0
 10
-45.671644494
 20
35.3186030567
 30
0.0
 10
-46.0720054336
 20
35.2675323965
 30
0.0
 11
-26.7166313844
 21
35.7922664029
 31
0.0
 11
-31.5587668323
 21
35.7474186428
 31
0.0
 11
-33.9797974755
 21
35.7149203038
 31
0.0
 11
-36.400620844
 21
35.6756226743
 31
0.0
 11
-38.8214199699
 21
35.6299155692
 31
0.0
 11
-41.2412150588
 21
35.5729538206
 31
0.0
 11
-42.4510765333
 21
35.5361230136
 31
0.0
 11
-43.6603097397
 21
35.4784852632
 31
0.0
 11
-44.8674897752
 21
35.3908850525
 31
0.0
 11
-46.0720054336
 21
35.2675323965
 31
0.0
  0
LINE
  5
51E
100
AcDbEntity
  8
SUPERFICI
100
AcDbLine
 62
253
  6
CONTINUOUS
 10
59.7793859137
 20
-37.0415281228
 11
59.7793859137
 21
-0.0000000307
  0
SPLINE
  5
51F
100
AcDbEntity
  8
SUPERFICI
100
AcDbSpline
 62
253
  6
CONTINUOUS
 70
0
 71
3
 72
13
 73
9
 74
7
 42
0.0000001
 43
0.0000001
 44
0.0000000001
 12
0.8415549077
 22
-0.1875419918
 32
0.0
 13
0.8600108176
 23
-0.0613844847
 33
0.0
 40
0.0
 40
0.0
 40
0.0
 40
0.0
 40
0.3795539474
 40
0.6956060985
 40
0.8176895203
 40
0.9106960571
 40
0.9720472108
 40
1.0
 40
1.0
 40
1.0
 40
1.0
 10
58.8708702216
 20
-37.4564951983
 30
0.0
 10
58.9773420507
 20
-37.4802226328
 30
0.0
 10
59.1725230675
 20
-37.5234551357
 30
0.0
 10
59.4020787262
 20
-37.5738432321
 30
0.0
 10
59.5513464401
 20
-37.6056879382
 30
0.0
 10
59.6290806841
 20
-37.6223155104
 30
0.0
 10
59.6804944862
 20
-37.6320116105
 30
0.0
 10
59.7056839877
 20
-37.6374496633
 30
0.0
 10
59.7136972214
 20
-37.6380216191
 30
0.0
 11
58.8708702216
 21
-37.4564951983
 31
0.0
 11
59.1903712832
 21
-37.5272924117
 31
0.0
 11
59.4566000907
 21
-37.5854159365
 31
0.0
 11
59.5595293831
 21
-37.6074446585
 31
0.0
 11
59.6380277885
 21
-37.6238292689
 31
0.0
 11
59.6899154497
 21
-37.6341128136
 31
0.0
 11
59.7136972214
 21
-37.6380216191
 31
0.0
  0
SPLINE
  5
520
100
AcDbEntity
  8
SUPERFICI
100
AcDbSpline
 62
253
  6
CONTINUOUS
 70
0
 71
3
 72
9
 73
5
 74
3
 42
0.0000001
 43
0.0000001
 44
0.0000000001
 12
-0.0388522906
 22
-0.5746011758
 32
0.0
 13
-0.1335483151
 23
-0.5602150116
 33
0.0
 40
0.0
 40
0.0
 40
0.0
 40
0.0
 40
0.7499122107
 40
1.0
 40
1.0
 40
1.0
 40
1.0
 10
58.9459487507
 20
-36.8860258923
 30
0.0
 10
58.936236815
 20
-37.0296593716
 30
0.0
 10
58.9213699211
 20
-37.2217238625
 30
0.0
 10
58.8820031559
 20
-37.4097942204
 30
0.0
 10
58.8708702216
 20
-37.4564951983
 30
0.0
 11
58.9459487507
 21
-36.8860258923
 31
0.0
 11
58.9001611329
 21
-37.3154762117
 31
0.0
 11
58.8708702216
 21
-37.4564951983
 31
0.0
  0
SPLINE
  5
521
100
AcDbEntity
  8
SUPERFICI
100
AcDbSpline
 62
253
  6
CONTINUOUS
 70
0
 71
3
 72
10
 73
6
 74
4
 42
0.0000001
 43
0.0000001
 44
0.0000000001
 12
-0.0000020126
 22
37.0415193641
 32
0.0
 13
0.0098042923
 23
37.0415180666
 33
0.0
 40
0.0
 40
0.0
 40
0.0
 40
0.0
 40
0.5000000786
 40
0.7500001179
 40
1.0
 40
1.0
 40
1.0
 40
1.0
 10
59.7793859137
 20
-0.0000000307
 30
0.0
 10
59.7793855783
 20
6.1735875002
 30
0.0
 10
59.7792144323
 20
15.4339688255
 30
0.0
 10
59.7796714098
 20
27.7811418696
 30
0.0
 10
59.7787574626
 20
33.9547276145
 30
0.0
 10
59.7795744865
 20
37.0415193314
 30
0.0
 11
59.7793859137
 21
-0.0000000307
 31
0.0
 11
59.7793857744
 21
18.5207625621
 31
0.0
 11
59.7793858007
 21
27.7811438582
 31
0.0
 11
59.7795744865
 21
37.0415193314
 31
0.0
  0
LINE
  5
522
100
AcDbEntity
  8
SUPERFICI
100
AcDbLine
 62
253
  6
CONTINUOUS
 10
-57.0560426185
 20
39.7652449073
 11
-56.8292165298
 21
39.7651717643
  0
SPLINE
  5
523
100
AcDbEntity
  8
SUPERFICI
100
AcDbSpline
 62
253
  6
CONTINUOUS
 70
0
 71
3
 72
16
 73
12
 74
10
 42
0.0000001
 43
0.0000001
 44
0.0000000001
 12
1.3859837681
 22
-0.2421966193
 32
0.0
 13
1.0697029825
 23
-0.9139725035
 33
0.0
 40
0.0
 40
0.0
 40
0.0
 40
0.0
 40
0.0624705587
 40
0.1250034959
 40
0.1875213417
 40
0.2500375855
 40
0.3750523331
 40
0.5000735069
 40
0.6250952935
 40
0.7501226361
 40
1.0
 40
1.0
 40
1.0
 40
1.0
 10
56.9510899052
 20
39.0031618929
 30
0.0
 10
56.9799509653
 20
38.9981185068
 30
0.0
 10
57.0373419475
 20
38.9855545739
 30
0.0
 10
57.1253171915
 20
38.9799625926
 30
0.0
 10
57.211907166
 20
38.9639096366
 30
0.0
 10
57.3267751574
 20
38.940451506
 30
0.0
 10
57.4692769641
 20
38.9053442618
 30
0.0
 10
57.635803166
 20
38.8482176189
 30
0.0
 10
57.7984990692
 20
38.7807922313
 30
0.0
 10
58.0053067718
 20
38.669701483
 30
0.0
 10
58.1488721815
 20
38.5662978786
 30
0.0
 10
58.2379703687
 20
38.4901708653
 30
0.0
 11
56.9510899052
 21
39.0031618929
 31
0.0
 11
57.0376265322
 21
38.9877677057
 31
0.0
 11
57.1250897531
 21
38.978218368
 31
0.0
 11
57.2118370737
 21
38.9636522657
 31
0.0
 11
57.2979925019
 21
38.9459289862
 31
0.0
 11
57.4685284574
 21
38.9028453877
 31
0.0
 11
57.6351635918
 21
38.8465016098
 31
0.0
 11
57.7972403307
 21
38.7781398996
 31
0.0
 11
57.9523776583
 21
38.695210095
 31
0.0
 11
58.2379703687
 21
38.4901708653
 31
0.0
  0
SPLINE
  5
524
100
AcDbEntity
  8
SUPERFICI
100
AcDbSpline
 62
253
  6
CONTINUOUS
 70
0
 71
3
 72
13
 73
9
 74
7
 42
0.0000001
 43
0.0000001
 44
0.0000000001
 12
0.0709775577
 22
-0.7492484143
 32
0.0
 13
0.0004205851
 23
-0.7526026994
 33
0.0
 40
0.0
 40
0.0
 40
0.0
 40
0.0
 40
0.0277646631
 40
0.0878820824
 40
0.1789990793
 40
0.2997147099
 40
0.6143539764
 40
1.0
 40
1.0
 40
1.0
 40
1.0
 10
56.8292189382
 20
39.7651716535
 30
0.0
 10
56.8298758276
 20
39.7582374436
 30
0.0
 10
56.8297240565
 20
39.7361455825
 30
0.0
 10
56.8304087429
 20
39.6912781414
 30
0.0
 10
56.8305421248
 20
39.6230372506
 30
0.0
 10
56.8316201554
 20
39.4909758586
 30
0.0
 10
56.8321858964
 20
39.2850066585
 30
0.0
 10
56.8321504643
 20
39.1093299697
 30
0.0
 10
56.8322045299
 20
39.0125838902
 30
0.0
 11
56.8292189382
 21
39.7651716535
 31
0.0
 11
56.8298286304
 21
39.7442847865
 31
0.0
 11
56.8302104783
 21
39.6990418587
 31
0.0
 11
56.8305886382
 21
39.6304679929
 31
0.0
 11
56.8311775935
 21
39.5396189782
 31
0.0
 11
56.8320323991
 21
39.3028221229
 31
0.0
 11
56.8322045299
 21
39.0125838902
 31
0.0
  0
LINE
  5
525
100
AcDbEntity
  8
SUPERFICI
100
AcDbLine
 62
253
  6
CONTINUOUS
 10
57.0560265385
 20
39.7652447721
 11
56.8292162948
 21
39.7651625849
  0
SPLINE
  5
526
100
AcDbEntity
  8
SUPERFICI
100
AcDbSpline
 62
253
  6
CONTINUOUS
 70
0
 71
3
 72
13
 73
9
 74
7
 42
0.0000001
 43
0.0000001
 44
0.0000000001
 12
0.8418677864
 22
0.1879949827
 32
0.0
 13
0.8601231736
 23
0.0653575519
 33
0.0
 40
0.0
 40
0.0
 40
0.0
 40
0.0
 40
0.3794185337
 40
0.6952830555
 40
0.8174509799
 40
0.9106733526
 40
0.9721215889
 40
1.0
 40
1.0
 40
1.0
 40
1.0
 10
58.8708702148
 20
37.4564952337
 30
0.0
 10
58.9773436285
 20
37.4802714939
 30
0.0
 10
59.1725119845
 20
37.5235667016
 30
0.0
 10
59.4021241057
 20
37.5738869887
 30
0.0
 10
59.5515062739
 20
37.6057004124
 30
0.0
 10
59.6293885241
 20
37.6223474455
 30
0.0
 10
59.6808928033
 20
37.632091987
 30
0.0
 10
59.7060939482
 20
37.6375324778
 30
0.0
 10
59.714086904
 20
37.6381398327
 30
0.0
 11
58.8708702148
 21
37.4564952337
 31
0.0
 11
59.1903900127
 21
37.5273767131
 31
0.0
 11
59.4565993547
 21
37.58542919
 31
0.0
 11
59.5596550951
 21
37.6074510353
 31
0.0
 11
59.6383730865
 21
37.6238787234
 31
0.0
 11
59.6903635004
 21
37.6342020508
 31
0.0
 11
59.714086904
 21
37.6381398327
 31
0.0
  0
SPLINE
  5
527
100
AcDbEntity
  8
SUPERFICI
100
AcDbSpline
 62
253
  6
CONTINUOUS
 70
0
 71
3
 72
13
 73
9
 74
7
 42
0.0000001
 43
0.0000001
 44
0.0000000001
 12
-4.6859178424
 22
0.158766642
 32
0.0
 13
-4.6865049913
 23
0.1403703634
 33
0.0
 40
0.0
 40
0.0
 40
0.0
 40
0.0
 40
0.1250011314
 40
0.2500009596
 40
0.3750012396
 40
0.500001474
 40
0.7500058919
 40
1.0
 40
1.0
 40
1.0
 40
1.0
 10
56.8322118687
 20
39.0126712651
 30
0.0
 10
56.6369635247
 20
39.0192866017
 30
0.0
 10
56.2462008744
 20
39.0226852794
 30
0.0
 10
55.6604433653
 20
39.0424611704
 30
0.0
 10
55.0745733552
 20
39.0582375796
 30
0.0
 10
54.2932171939
 20
39.0707279878
 30
0.0
 10
53.3164058353
 20
39.074713831
 30
0.0
 10
52.5351613738
 20
39.0941035143
 30
0.0
 10
52.1446284952
 20
39.1058007689
 30
0.0
 11
56.8322118687
 21
39.0126712651
 31
0.0
 11
56.2462631971
 21
39.0251316368
 31
0.0
 11
55.6604250875
 21
39.0417945769
 31
0.0
 11
55.0745496398
 21
39.0571694654
 31
0.0
 11
54.4885523295
 21
39.0668301851
 31
0.0
 11
53.3164406923
 21
39.0787643168
 31
0.0
 11
52.1446284952
 21
39.1058007689
 31
0.0
  0
SPLINE
  5
528
100
AcDbEntity
  8
SUPERFICI
100
AcDbSpline
 62
253
  6
CONTINUOUS
 70
0
 71
3
 72
8
 73
4
 74
2
 42
0.0000001
 43
0.0000001
 44
0.0000000001
 12
-0.1173347693
 22
0.0213350649
 32
0.0
 13
-0.1192179511
 23
-0.0031166027
 33
0.0
 40
0.0
 40
0.0
 40
0.0
 40
0.0
 40
1.0
 40
1.0
 40
1.0
 40
1.0
 10
56.951088949
 20
39.0031385397
 30
0.0
 10
56.9119773592
 20
39.010250228
 30
0.0
 10
56.8719511857
 20
39.0137101326
 30
0.0
 10
56.8322118687
 20
39.0126712651
 30
0.0
 11
56.951088949
 21
39.0031385397
 31
0.0
 11
56.8322118687
 21
39.0126712651
 31
0.0
  0
SPLINE
  5
529
100
AcDbEntity
  8
SUPERFICI
100
AcDbSpline
 62
253
  6
CONTINUOUS
 70
0
 71
3
 72
12
 73
8
 74
6
 42
0.0000001
 43
0.0000001
 44
0.0000000001
 12
-21.9093013112
 22
0.1694472749
 32
0.0
 13
-21.9099520473
 23
-0.0140573816
 33
0.0
 40
0.0
 40
0.0
 40
0.0
 40
0.0
 40
0.1250045659
 40
0.2500055241
 40
0.5000027319
 40
0.7499953394
 40
1.0
 40
1.0
 40
1.0
 40
1.0
 10
52.1445752577
 20
39.1033483381
 30
0.0
 10
51.231654358
 20
39.1104088992
 30
0.0
 10
49.4057828511
 20
39.1165398236
 30
0.0
 10
45.7541077394
 20
39.1201063748
 30
0.0
 10
41.1895992651
 20
39.1158046528
 30
0.0
 10
35.7121514628
 20
39.1145467152
 30
0.0
 10
32.0605126154
 20
39.1119502647
 30
0.0
 10
30.2346492401
 20
39.1107787944
 30
0.0
 11
52.1445752577
 21
39.1033483381
 31
0.0
 11
49.405757399
 21
39.1154529759
 31
0.0
 11
46.6669936783
 21
39.1186307601
 31
0.0
 11
41.1895661477
 21
39.1164553192
 31
0.0
 11
35.7122394822
 21
39.1141073006
 31
0.0
 11
30.2346492401
 21
39.1107787944
 31
0.0
  0
SPLINE
  5
52A
100
AcDbEntity
  8
SUPERFICI
100
AcDbSpline
 62
253
  6
CONTINUOUS
 70
0
 71
3
 72
11
 73
7
 74
5
 42
0.0000001
 43
0.0000001
 44
0.0000000001
 12
-3.4167605539
 22
-3.42487023
 32
0.0
 13
-3.4799035025
 23
-3.3606934387
 33
0.0
 40
0.0
 40
0.0
 40
0.0
 40
0.0
 40
0.2498020271
 40
0.4983988968
 40
0.7457112222
 40
1.0
 40
1.0
 40
1.0
 40
1.0
 10
30.2346482381
 20
39.1121595568
 30
0.0
 10
29.9501436674
 20
38.8269797149
 30
0.0
 10
29.3763193482
 20
38.2641120187
 30
0.0
 10
28.4980850976
 20
37.4425402186
 30
0.0
 10
27.6026200005
 20
36.6291392068
 30
0.0
 10
27.0112506664
 20
36.0771226587
 30
0.0
 10
26.7162838636
 20
35.7922604497
 30
0.0
 11
30.2346482381
 21
39.1121595568
 31
0.0
 11
29.3716291834
 21
38.2662094114
 31
0.0
 11
28.4945877195
 21
37.4433034483
 31
0.0
 11
27.6127367773
 21
36.6347206621
 31
0.0
 11
26.7162838636
 21
35.7922604497
 31
0.0
  0
SPLINE
  5
52B
100
AcDbEntity
  8
SUPERFICI
100
AcDbSpline
 62
253
  6
CONTINUOUS
 70
0
 71
3
 72
11
 73
7
 74
5
 42
0.0000001
 43
0.0000001
 44
0.0000000001
 12
2.3820936155
 22
-0.0273113848
 32
0.0
 13
2.3793433283
 23
0.1176487601
 33
0.0
 40
0.0
 40
0.0
 40
0.0
 40
0.0
 40
0.3614743717
 40
0.6513847798
 40
0.8655923888
 40
1.0
 40
1.0
 40
1.0
 40
1.0
 10
31.2040849245
 20
25.8005790632
 30
0.0
 10
31.4911068556
 20
25.7972882746
 30
0.0
 10
32.0082691561
 20
25.7876305504
 30
0.0
 10
32.6953844598
 20
25.7665361863
 30
0.0
 10
33.2020031318
 20
25.7513028338
 30
0.0
 10
33.4790967488
 20
25.7454946507
 30
0.0
 10
33.5856973664
 20
25.7507656136
 30
0.0
 11
31.2040849245
 21
25.8005790632
 31
0.0
 11
32.0650600653
 21
25.7846551628
 31
0.0
 11
32.7554130521
 21
25.764776813
 31
0.0
 11
33.2655050856
 21
25.7503462259
 31
0.0
 11
33.5856973664
 21
25.7507656136
 31
0.0
  0
SPLINE
  5
52C
100
AcDbEntity
  8
SUPERFICI
100
AcDbSpline
 62
253
  6
CONTINUOUS
 70
0
 71
3
 72
16
 73
12
 74
10
 42
0.0000001
 43
0.0000001
 44
0.0000000001
 12
-19.2129426238
 22
2.4508326828
 32
0.0
 13
-19.3682422401
 23
0.1222196035
 33
0.0
 40
0.0
 40
0.0
 40
0.0
 40
0.0
 40
0.0625142563
 40
0.1250047057
 40
0.1875081561
 40
0.2500021004
 40
0.3749704487
 40
0.4999783018
 40
0.6249815972
 40
0.7499903882
 40
1.0
 40
1.0
 40
1.0
 40
1.0
 10
46.0720051028
 20
35.2675323273
 30
0.0
 10
45.6716441632
 20
35.3186029881
 30
0.0
 10
44.867945787
 20
35.3952444907
 30
0.0
 10
43.6605721671
 20
35.4839726471
 30
0.0
 10
42.451250109
 20
35.539797092
 30
0.0
 10
40.8380366378
 20
35.5848164212
 30
0.0
 10
38.8212057478
 20
35.6319303958
 30
0.0
 10
36.4006631546
 20
35.6764116057
 30
0.0
 10
33.9797801787
 20
35.7161605846
 30
0.0
 10
30.7518196858
 20
35.7592403234
 30
0.0
 10
28.3307132964
 20
35.7820810042
 30
0.0
 10
26.7166310549
 20
35.7922663628
 30
0.0
 11
46.0720051028
 21
35.2675323273
 31
0.0
 11
44.8674894446
 21
35.3908849851
 31
0.0
 11
43.6603094092
 21
35.4784851976
 31
0.0
 11
42.451076203
 21
35.5361229499
 31
0.0
 11
41.2412147285
 21
35.5729537587
 31
0.0
 11
38.8214196398
 21
35.6299155109
 31
0.0
 11
36.400620514
 21
35.6756226196
 31
0.0
 11
33.9797971456
 21
35.7149202528
 31
0.0
 11
31.5587665025
 21
35.7474185954
 31
0.0
 11
26.7166310549
 21
35.7922663628
 31
0.0
  0
SPLINE
  5
52D
100
AcDbEntity
  8
SUPERFICI
100
AcDbSpline
 62
253
  6
CONTINUOUS
 70
0
 71
3
 72
9
 73
5
 74
3
 42
0.0000001
 43
0.0000001
 44
0.0000000001
 12
2.3753931789
 22
0.0024538963
 32
0.0
 13
2.3753759538
 23
0.0093730443
 33
0.0
 40
0.0
 40
0.0
 40
0.0
 40
0.0
 40
0.3572955467
 40
1.0
 40
1.0
 40
1.0
 40
1.0
 10
31.2050772648
 20
24.199136304
 30
0.0
 10
31.4879830663
 20
24.1994285594
 30
0.0
 10
32.2797801252
 20
24.2004544327
 30
0.0
 10
33.0715802109
 20
24.2009717832
 30
0.0
 10
33.5804684455
 20
24.2029798156
 30
0.0
 11
31.2050772648
 21
24.199136304
 31
0.0
 11
32.0537945787
 21
24.2000967213
 31
0.0
 11
33.5804684455
 21
24.2029798156
 31
0.0
  0
SPLINE
  5
52E
100
AcDbEntity
  8
SUPERFICI
100
AcDbSpline
 62
253
  6
CONTINUOUS
 70
0
 71
3
 72
25
 73
21
 74
19
 42
0.0000001
 43
0.0000001
 44
0.0000000001
 12
29.267290205
 22
0.1950427507
 32
0.0
 13
29.2116444737
 23
-1.8144268397
 33
0.0
 40
0.0
 40
0.0
 40
0.0
 40
0.0
 40
0.0625001713
 40
0.1250006507
 40
0.1875013943
 40
0.2500020664
 40
0.3750034042
 40
0.5000047456
 40
0.5625054165
 40
0.6250060875
 40
0.6875067585
 40
0.7500074294
 40
0.8125081003
 40
0.8437584358
 40
0.8750087712
 40
0.9062591067
 40
0.9375094422
 40
0.9531346097
 40
0.9687597817
 40
1.0
 40
1.0
 40
1.0
 40
1.0
 10
-0.0000002376
 20
24.2018137265
 30
0.0
 10
0.6097366465
 20
24.2058771283
 30
0.0
 10
1.8292209774
 20
24.2131593301
 30
0.0
 10
3.6584826002
 20
24.2166130801
 30
0.0
 10
5.4877465613
 20
24.2143492539
 30
0.0
 10
7.9267686881
 20
24.2150386768
 30
0.0
 10
10.9755450166
 20
24.2147370516
 30
0.0
 10
14.0243214979
 20
24.214844377
 30
0.0
 10
16.463342678
 20
24.2148701931
 30
0.0
 10
18.2926085773
 20
24.2149147934
 30
0.0
 10
20.121874451
 20
24.2149718256
 30
0.0
 10
21.9511404136
 20
24.2150481726
 30
0.0
 10
23.4755284359
 20
24.2151219373
 30
0.0
 10
24.6950394766
 20
24.2152055897
 30
0.0
 10
25.6096710516
 20
24.2152375657
 30
0.0
 10
26.5243091333
 20
24.2154264841
 30
0.0
 10
27.2864872656
 20
24.2151065007
 30
0.0
 10
27.8962752034
 20
24.2158932834
 30
0.0
 10
28.5057989787
 20
24.2136750985
 30
0.0
 10
28.9636270819
 20
24.2214881482
 30
0.0
 10
29.2678197984
 20
24.2025937847
 30
0.0
 11
-0.0000002376
 21
24.2018137265
 31
0.0
 11
1.8292231462
 21
24.2119143915
 31
0.0
 11
3.6584795989
 21
24.2156601487
 31
0.0
 11
5.4877474205
 21
24.2148127363
 31
0.0
 11
7.3170133486
 21
24.2147887609
 31
0.0
 11
10.9755450134
 21
24.2148188417
 31
0.0
 11
14.6340767865
 21
24.2148458273
 31
0.0
 11
16.4633426795
 21
24.2148743995
 31
0.0
 11
18.2926085732
 21
24.2149168654
 31
0.0
 11
20.1218744661
 21
24.2149750447
 31
0.0
 11
21.9511403579
 21
24.215050201
 31
0.0
 11
23.7804062482
 21
24.2151449038
 31
0.0
 11
24.6950391926
 21
24.2152004625
 31
0.0
 11
25.6096721359
 21
24.2152637228
 31
0.0
 11
26.5243050791
 21
24.215331001
 31
0.0
 11
27.4389380252
 21
24.2153900938
 31
0.0
 11
27.896254474
 21
24.2155176176
 31
0.0
 11
28.3535710135
 21
24.2152827857
 31
0.0
 11
29.2678197984
 21
24.2025937847
 31
0.0
  0
SPLINE
  5
52F
100
AcDbEntity
  8
SUPERFICI
100
AcDbSpline
 62
253
  6
CONTINUOUS
 70
0
 71
3
 72
25
 73
21
 74
19
 42
0.0000001
 43
0.0000001
 44
0.0000000001
 12
29.2117335066
 22
1.8129982043
 32
0.0
 13
29.2672669366
 23
-0.198552294
 33
0.0
 40
0.0
 40
0.0
 40
0.0
 40
0.0
 40
0.0312402301
 40
0.0468654023
 40
0.0624905697
 40
0.0937409051
 40
0.1249912405
 40
0.1562415758
 40
0.1874919111
 40
0.2499925819
 40
0.3124932526
 40
0.3749939234
 40
0.4374945941
 40
0.4999952649
 40
0.6249966059
 40
0.7499979437
 40
0.8124986137
 40
0.87499936
 40
0.937499842
 40
1.0
 40
1.0
 40
1.0
 40
1.0
 10
-29.2678202562
 20
24.2025938286
 30
0.0
 10
-28.9636264977
 20
24.2214733223
 30
0.0
 10
-28.5057993961
 20
24.2136771844
 30
0.0
 10
-27.8962752547
 20
24.215893574
 30
0.0
 10
-27.2864873705
 20
24.2151061538
 30
0.0
 10
-26.5243092029
 20
24.2154267148
 30
0.0
 10
-25.6096711232
 20
24.2152375663
 30
0.0
 10
-24.6950395383
 20
24.2152056294
 30
0.0
 10
-23.4755284886
 20
24.2151219732
 30
0.0
 10
-21.9511404537
 20
24.2150482097
 30
0.0
 10
-20.1218744765
 20
24.2149718391
 30
0.0
 10
-18.2926085881
 20
24.2149148818
 30
0.0
 10
-16.463342674
 20
24.2148699954
 30
0.0
 10
-14.0243214748
 20
24.2148455474
 30
0.0
 10
-10.9755449583
 20
24.2147280084
 30
0.0
 10
-7.9267686404
 20
24.2150656805
 30
0.0
 10
-5.4877464369
 20
24.214319937
 30
0.0
 10
-3.6584825515
 20
24.2166050602
 30
0.0
 10
-1.8292206031
 20
24.2133103061
 30
0.0
 10
-0.6097365703
 20
24.2059502431
 30
0.0
 10
-0.0000003007
 20
24.2018137265
 30
0.0
 11
-29.2678202562
 21
24.2025938286
 31
0.0
 11
-28.3535711096
 21
24.2152823932
 31
0.0
 11
-27.8962545607
 21
24.215518053
 31
0.0
 11
-27.43893811
 21
24.2153899979
 31
0.0
 11
-26.5243051561
 21
24.2153310778
 31
0.0
 11
-25.6096722055
 21
24.2152637683
 31
0.0
 11
-24.6950392548
 21
24.2152004952
 31
0.0
 11
-23.7804063031
 21
24.215144941
 31
0.0
 11
-21.9511403981
 21
24.215050234
 31
0.0
 11
-20.1218744915
 21
24.2149750746
 31
0.0
 11
-18.2926085839
 21
24.2149168936
 31
0.0
 11
-16.4633426755
 21
24.2148744205
 31
0.0
 11
-14.6340767678
 21
24.2148458608
 31
0.0
 11
-10.9755449648
 21
24.2148190506
 31
0.0
 11
-7.3170132571
 21
24.2147945879
 31
0.0
 11
-5.4877473711
 21
24.2147940089
 31
0.0
 11
-3.6584794621
 21
24.2156750787
 31
0.0
 11
-1.8292227332
 21
24.2120194024
 31
0.0
 11
-0.0000003007
 21
24.2018137265
 31
0.0
  0
SPLINE
  5
530
100
AcDbEntity
  8
SUPERFICI
100
AcDbSpline
 62
253
  6
CONTINUOUS
 70
0
 71
3
 72
10
 73
6
 74
4
 42
0.0000001
 43
0.0000001
 44
0.0000000001
 12
19.528317936
 22
0.0465947985
 32
0.0
 13
19.5283731663
 23
0.0037364824
 33
0.0
 40
0.0
 40
0.0
 40
0.0
 40
0.0
 40
0.4479225505
 40
0.721154332
 40
1.0
 40
1.0
 40
1.0
 40
1.0
 10
-19.5283647301
 20
25.8604063651
 30
0.0
 10
-16.6126400714
 20
25.8673633187
 30
0.0
 10
-11.9183164846
 20
25.8736450799
 30
0.0
 10
-5.4088584211
 20
25.8727515518
 30
0.0
 10
-1.8151346074
 20
25.8763899019
 30
0.0
 10
-0.0000005205
 20
25.8767372026
 30
0.0
 11
-19.5283647301
 21
25.8604063651
 31
0.0
 11
-10.7811742077
 21
25.872494736
 31
0.0
 11
-5.4454020719
 21
25.8737685798
 31
0.0
 11
-0.0000005205
 21
25.8767372026
 31
0.0
  0
SPLINE
  5
531
100
AcDbEntity
  8
SUPERFICI
100
AcDbSpline
 62
253
  6
CONTINUOUS
 70
0
 71
3
 72
13
 73
9
 74
7
 42
0.0000001
 43
0.0000001
 44
0.0000000001
 12
8.8555592634
 22
-8.5638349311
 32
0.0
 13
5.4048085512
 23
-11.070150998
 33
0.0
 40
0.0
 40
0.0
 40
0.0
 40
0.0
 40
0.2482962738
 40
0.3728472302
 40
0.4977236438
 40
0.6229356281
 40
0.7484457977
 40
1.0
 40
1.0
 40
1.0
 40
1.0
 10
-26.7165989286
 20
35.7922350389
 30
0.0
 10
-25.9836648061
 20
35.0834456047
 30
0.0
 10
-24.9259929677
 20
33.9729078966
 30
0.0
 10
-23.6211892373
 20
32.3990381155
 30
0.0
 10
-22.6956565311
 20
31.1694783301
 30
0.0
 10
-21.8225301895
 20
29.8974816479
 30
0.0
 10
-20.7250283915
 20
28.1508220402
 30
0.0
 10
-19.9815680878
 20
26.7897334488
 30
0.0
 10
-19.5283673199
 20
25.8614857809
 30
0.0
 11
-26.7165989286
 21
35.7922350389
 31
0.0
 11
-24.6105431333
 21
33.5739692756
 31
0.0
 11
-23.6314387072
 21
32.3926134899
 31
0.0
 11
-22.7055791116
 21
31.1640572007
 31
0.0
 11
-21.8319509303
 21
29.8928072572
 31
0.0
 11
-21.0093548085
 21
28.5836151091
 31
0.0
 11
-19.5283673199
 21
25.8614857809
 31
0.0
  0
SPLINE
  5
532
100
AcDbEntity
  8
SUPERFICI
100
AcDbSpline
 62
253
  6
CONTINUOUS
 70
0
 71
3
 72
14
 73
10
 74
8
 42
0.0000001
 43
0.0000001
 44
0.0000000001
 12
-26.716624425
 22
-0.0039818849
 32
0.0
 13
-26.7160928034
 23
-0.1685877887
 33
0.0
 40
0.0
 40
0.0
 40
0.0
 40
0.0
 40
0.2500035051
 40
0.4999935759
 40
0.6249882773
 40
0.7499975702
 40
0.8125005933
 40
0.8750002275
 40
1.0
 40
1.0
 40
1.0
 40
1.0
 10
-0.0000003436
 20
35.8050004875
 30
0.0
 10
-2.2264169274
 20
35.8046686591
 30
0.0
 10
-6.6791304398
 20
35.8038634448
 30
0.0
 10
-12.2449896018
 20
35.8041273339
 30
0.0
 10
-16.6977074034
 20
35.8049313477
 30
0.0
 10
-19.4807518515
 20
35.8046613748
 30
0.0
 10
-21.707243238
 20
35.8054078949
 30
0.0
 10
-23.9336513234
 20
35.8066274211
 30
0.0
 10
-25.603430421
 20
35.7992595173
 30
0.0
 10
-26.7165989286
 20
35.7922350389
 30
0.0
 11
-0.0000003436
 21
35.8050004875
 31
0.0
 11
-6.6792501109
 21
35.8041175185
 31
0.0
 11
-13.3581410119
 21
35.8043777391
 31
0.0
 11
-16.6975775167
 21
35.8047768435
 31
0.0
 11
-20.0374038793
 21
35.8049282219
 31
0.0
 11
-21.7072736025
 21
35.8054670382
 31
0.0
 11
-23.377052874
 21
35.8054022649
 31
0.0
 11
-26.7165989286
 21
35.7922350389
 31
0.0
  0
SPLINE
  5
533
100
AcDbEntity
  8
SUPERFICI
100
AcDbSpline
 62
253
  6
CONTINUOUS
 70
0
 71
3
 72
14
 73
10
 74
8
 42
0.0000001
 43
0.0000001
 44
0.0000000001
 12
-26.7160929136
 22
0.1685878295
 32
0.0
 13
-26.7166245355
 23
0.0039819251
 33
0.0
 40
0.0
 40
0.0
 40
0.0
 40
0.0
 40
0.1249997725
 40
0.1874994067
 40
0.2500024298
 40
0.3750117227
 40
0.5000064241
 40
0.7499964949
 40
1.0
 40
1.0
 40
1.0
 40
1.0
 10
26.7165985991
 20
35.7922349987
 30
0.0
 10
25.6034300869
 20
35.7992594789
 30
0.0
 10
23.9336509824
 20
35.8066273852
 30
0.0
 10
21.7072428878
 20
35.8054078623
 30
0.0
 10
19.4807514922
 20
35.8046613455
 30
0.0
 10
16.6977070325
 20
35.8049313226
 30
0.0
 10
12.2449892125
 20
35.8041273155
 30
0.0
 10
6.6791300275
 20
35.8038634347
 30
0.0
 10
2.2264164967
 20
35.8046686557
 30
0.0
 10
-0.0000000963
 20
35.8050004875
 30
0.0
 11
26.7165985991
 21
35.7922349987
 31
0.0
 11
23.3770525308
 21
35.8054022298
 31
0.0
 11
21.7072732524
 21
35.8054670056
 31
0.0
 11
20.0374035223
 21
35.8049281918
 31
0.0
 11
16.6975771459
 21
35.8047768184
 31
0.0
 11
13.3581406272
 21
35.804377719
 31
0.0
 11
6.6792496986
 21
35.8041175085
 31
0.0
 11
-0.0000000963
 21
35.8050004875
 31
0.0
  0
SPLINE
  5
534
100
AcDbEntity
  8
SUPERFICI
100
AcDbSpline
 62
253
  6
CONTINUOUS
 70
0
 71
3
 72
12
 73
8
 74
6
 42
0.0000001
 43
0.0000001
 44
0.0000000001
 12
5.4046052306
 22
11.069478837
 32
0.0
 13
8.8548877068
 23
8.5635321638
 33
0.0
 40
0.0
 40
0.0
 40
0.0
 40
0.0
 40
0.2515618161
 40
0.5022346651
 40
0.6271177796
 40
0.7516808256
 40
1.0
 40
1.0
 40
1.0
 40
1.0
 10
19.5283668951
 20
25.8614857515
 30
0.0
 10
19.9815643308
 20
26.7897051515
 30
0.0
 10
20.97204307
 20
28.6018010484
 30
0.0
 10
22.385706662
 20
30.757592869
 30
0.0
 10
23.6212561393
 20
32.3987436234
 30
0.0
 10
24.9263487661
 20
33.972454067
 30
0.0
 10
25.9836524643
 20
35.0834052532
 30
0.0
 10
26.7165985991
 20
35.7922349987
 30
0.0
 11
19.5283668951
 21
25.8614857515
 31
0.0
 11
21.009339334
 21
28.5835315202
 31
0.0
 11
22.7054533924
 21
31.1638921282
 31
0.0
 11
23.6315121838
 21
32.3922932378
 31
0.0
 11
24.6107596628
 21
33.573611737
 31
0.0
 11
26.7165985991
 21
35.7922349987
 31
0.0
  0
SPLINE
  5
535
100
AcDbEntity
  8
SUPERFICI
100
AcDbSpline
 62
253
  6
CONTINUOUS
 70
0
 71
3
 72
10
 73
6
 74
4
 42
0.0000001
 43
0.0000001
 44
0.0000000001
 12
19.5283730865
 22
-0.003736261
 32
0.0
 13
19.5283178607
 23
-0.0465928664
 33
0.0
 40
0.0
 40
0.0
 40
0.0
 40
0.0
 40
0.2788456671
 40
0.5520774483
 40
1.0
 40
1.0
 40
1.0
 40
1.0
 10
0.0000000013
 20
25.8766639616
 30
0.0
 10
1.8151340747
 20
25.8763166815
 30
0.0
 10
5.4088578657
 20
25.8726784775
 30
0.0
 10
11.9183159025
 20
25.8735719488
 30
0.0
 10
16.6126394761
 20
25.8672904394
 30
0.0
 10
19.5283641318
 20
25.8603337742
 30
0.0
 11
0.0000000013
 21
25.8766639616
 31
0.0
 11
5.4454015123
 21
25.8736954617
 31
0.0
 11
10.7811736201
 21
25.8724216568
 31
0.0
 11
19.5283641318
 21
25.8603337742
 31
0.0
  0
SPLINE
  5
536
100
AcDbEntity
  8
SUPERFICI
100
AcDbSpline
 62
253
  6
CONTINUOUS
 70
0
 71
3
 72
10
 73
6
 74
4
 42
0.0000001
 43
0.0000001
 44
0.0000000001
 12
-0.0176280758
 22
-1.5486202804
 32
0.0
 13
0.0206855935
 23
-1.5485824577
 33
0.0
 40
0.0
 40
0.0
 40
0.0
 40
0.0
 40
0.529909908
 40
0.7750423115
 40
1.0
 40
1.0
 40
1.0
 40
1.0
 10
33.585667533
 20
25.7513556892
 30
0.0
 10
33.582553769
 20
25.4778126124
 30
0.0
 10
33.577672479
 20
25.0777354203
 30
0.0
 10
33.5757205805
 20
24.5614832356
 30
0.0
 10
33.5789189681
 20
24.3188179198
 30
0.0
 10
33.5804700958
 20
24.2026960764
 30
0.0
 11
33.585667533
 21
25.7513556892
 31
0.0
 11
33.5774535877
 21
24.9307144007
 31
0.0
 11
33.5768004073
 21
24.5510733575
 31
0.0
 11
33.5804700958
 21
24.2026960764
 31
0.0
  0
SPLINE
  5
537
100
AcDbEntity
  8
SUPERFICI
100
AcDbSpline
 62
253
  6
CONTINUOUS
 70
0
 71
3
 72
11
 73
7
 74
5
 42
0.0000001
 43
0.0000001
 44
0.0000000001
 12
15.2433495236
 22
8.5803964972
 32
0.0
 13
14.5252262967
 23
9.7468307555
 33
0.0
 40
0.0
 40
0.0
 40
0.0
 40
0.0
 40
0.234386333
 40
0.4741146533
 40
0.7328094937
 40
1.0
 40
1.0
 40
1.0
 40
1.0
 10
37.1276357025
 20
22.7948480781
 30
0.0
 10
38.3185799683
 20
23.4652239683
 30
0.0
 10
40.7209870429
 20
24.8330885195
 30
0.0
 10
44.4093440331
 20
26.9904183959
 30
0.0
 10
48.2371058527
 20
29.2877520493
 30
0.0
 10
50.8233442746
 20
30.9367413297
 30
0.0
 10
52.1170117972
 20
31.8048282111
 30
0.0
 11
37.1276357025
 21
22.7948480781
 31
0.0
 11
40.6899821544
 21
24.8244924957
 31
0.0
 11
44.3100111429
 21
26.9411233477
 31
0.0
 11
48.1842308303
 21
29.2794394689
 31
0.0
 11
52.1170117972
 21
31.8048282111
 31
0.0
  0
SPLINE
  5
538
100
AcDbEntity
  8
SUPERFICI
100
AcDbSpline
 62
253
  6
CONTINUOUS
 70
0
 71
3
 72
9
 73
5
 74
3
 42
0.0000001
 43
0.0000001
 44
0.0000000001
 12
-0.3050092461
 22
1.187504099
 32
0.0
 13
-0.92632657
 23
0.8031909556
 33
0.0
 40
0.0
 40
0.0
 40
0.0
 40
0.0
 40
0.5000760768
 40
1.0
 40
1.0
 40
1.0
 40
1.0
 10
58.870865646
 20
37.4564939042
 30
0.0
 10
58.820023037
 20
37.6544413678
 30
0.0
 10
58.6602639296
 20
38.0378513432
 30
0.0
 10
58.3923364457
 20
38.356320441
 30
0.0
 10
58.2379721746
 20
38.4901652322
 30
0.0
 11
58.870865646
 21
37.4564939042
 31
0.0
 11
58.6331892978
 21
38.0216695201
 31
0.0
 11
58.2379721746
 21
38.4901652322
 31
0.0
  0
SPLINE
  5
539
100
AcDbEntity
  8
SUPERFICI
100
AcDbSpline
 62
253
  6
CONTINUOUS
 70
0
 71
3
 72
9
 73
5
 74
3
 42
0.0000001
 43
0.0000001
 44
0.0000000001
 12
-0.0466237242
 22
0.5740522907
 32
0.0
 13
-0.1320531035
 23
0.5605994844
 33
0.0
 40
0.0
 40
0.0
 40
0.0
 40
0.0
 40
0.500088041
 40
1.0
 40
1.0
 40
1.0
 40
1.0
 10
58.94589336
 20
36.886025029
 30
0.0
 10
58.9381213711
 20
36.9817172575
 30
0.0
 10
58.9264554824
 20
37.1734692362
 30
0.0
 10
58.8928706212
 20
37.3630771087
 30
0.0
 10
58.870865646
 20
37.4564939042
 30
0.0
 11
58.94589336
 21
36.886025029
 31
0.0
 11
58.9209717552
 21
37.1729667849
 31
0.0
 11
58.870865646
 21
37.4564939042
 31
0.0
  0
SPLINE
  5
53A
100
AcDbEntity
  8
SUPERFICI
100
AcDbSpline
 62
253
  6
CONTINUOUS
 70
0
 71
3
 72
9
 73
5
 74
3
 42
0.0000001
 43
0.0000001
 44
0.0000000001
 12
7.0705160751
 22
4.7444991922
 32
0.0
 13
6.5528859074
 23
5.4371091987
 33
0.0
 40
0.0
 40
0.0
 40
0.0
 40
0.0
 40
0.4875002587
 40
1.0
 40
1.0
 40
1.0
 40
1.0
 10
52.1170423113
 20
31.80470887
 30
0.0
 10
53.2660017831
 20
32.5756903978
 30
0.0
 10
55.5917287208
 20
34.2045219617
 30
0.0
 10
57.8273817276
 20
35.9560250162
 30
0.0
 10
58.9468325051
 20
36.8848640354
 30
0.0
 11
52.1170423113
 21
31.80470887
 31
0.0
 11
55.5121800953
 21
34.1929556927
 31
0.0
 11
58.9468325051
 21
36.8848640354
 31
0.0
  0
SPLINE
  5
53B
100
AcDbEntity
  8
SUPERFICI
100
AcDbSpline
 62
253
  6
CONTINUOUS
 70
0
 71
3
 72
9
 73
5
 74
3
 42
0.0000001
 43
0.0000001
 44
0.0000000001
 12
1.1231391743
 22
-1.2174109797
 32
0.0
 13
0.6923250325
 23
-1.5047315866
 33
0.0
 40
0.0
 40
0.0
 40
0.0
 40
0.0
 40
0.5040646153
 40
1.0
 40
1.0
 40
1.0
 40
1.0
 10
51.2080477362
 20
33.1833283511
 30
0.0
 10
51.3967593081
 20
32.9787770854
 30
0.0
 10
51.7368780801
 20
32.5400717057
 30
0.0
 10
52.002544005
 20
32.0535613277
 30
0.0
 10
52.1169934988
 20
31.8048114482
 30
0.0
 11
51.2080477362
 21
33.1833283511
 31
0.0
 11
51.72072592
 21
32.5243590202
 31
0.0
 11
52.1169934988
 21
31.8048114482
 31
0.0
  0
SPLINE
  5
53C
100
AcDbEntity
  8
SUPERFICI
100
AcDbSpline
 62
253
  6
CONTINUOUS
 70
0
 71
3
 72
10
 73
6
 74
4
 42
0.0000001
 43
0.0000001
 44
0.0000000001
 12
-6.8039271323
 22
-5.5969569196
 32
0.0
 13
-7.2316657858
 23
-5.0321328624
 33
0.0
 40
0.0
 40
0.0
 40
0.0
 40
0.0
 40
0.2420338389
 40
0.6212367124
 40
1.0
 40
1.0
 40
1.0
 40
1.0
 10
58.2379721746
 20
38.4901652322
 30
0.0
 10
57.6890453069
 20
38.0386142425
 30
0.0
 10
56.2687704035
 20
36.8932488511
 30
0.0
 10
53.930063514
 20
35.1162497078
 30
0.0
 10
52.1210766612
 20
33.8186565729
 30
0.0
 10
51.2080468253
 20
33.1833275107
 30
0.0
 11
58.2379721746
 21
38.4901652322
 31
0.0
 11
56.5774163564
 21
37.1524337957
 31
0.0
 11
53.9199433718
 21
35.1278108884
 31
0.0
 11
51.2080468253
 21
33.1833275107
 31
0.0
  0
SPLINE
  5
53D
100
AcDbEntity
  8
SUPERFICI
100
AcDbSpline
 62
253
  6
CONTINUOUS
 70
0
 71
3
 72
13
 73
9
 74
7
 42
0.0000001
 43
0.0000001
 44
0.0000000001
 12
-3.8327002464
 22
4.1543958673
 32
0.0
 13
-5.6068745728
 23
0.7152298409
 33
0.0
 40
0.0
 40
0.0
 40
0.0
 40
0.0
 40
0.1267926934
 40
0.252672255
 40
0.5021150201
 40
0.6270069007
 40
0.7516348975
 40
1.0
 40
1.0
 40
1.0
 40
1.0
 10
51.208006643
 20
33.1833016165
 30
0.0
 10
51.046020514
 20
33.3588839636
 30
0.0
 10
50.6967159853
 20
33.6854869304
 30
0.0
 10
49.9148918004
 20
34.223356814
 30
0.0
 10
49.0427013769
 20
34.6013681694
 30
0.0
 10
48.1430123534
 20
34.8737828631
 30
0.0
 10
47.2307277143
 20
35.0945243068
 30
0.0
 10
46.5361255772
 20
35.208276894
 30
0.0
 10
46.0719415846
 20
35.2674896049
 30
0.0
 11
51.208006643
 21
33.1833016165
 31
0.0
 11
50.6843433091
 21
33.6725814057
 31
0.0
 11
50.0994105158
 21
34.0776744192
 31
0.0
 11
48.8156426498
 21
34.6606288017
 31
0.0
 11
48.1407111235
 21
34.8675129673
 31
0.0
 11
47.4562078326
 21
35.0339017803
 31
0.0
 11
46.0719415846
 21
35.2674896049
 31
0.0
  0
SPLINE
  5
53E
100
AcDbEntity
  8
SUPERFICI
100
AcDbSpline
 62
253
  6
CONTINUOUS
 70
0
 71
3
 72
9
 73
5
 74
3
 42
0.0000001
 43
0.0000001
 44
0.0000000001
 12
14.5523067608
 22
9.0922221728
 32
0.0
 13
14.0847932409
 23
9.8008538128
 33
0.0
 40
0.0
 40
0.0
 40
0.0
 40
0.0
 40
0.4673220978
 40
1.0
 40
1.0
 40
1.0
 40
1.0
 10
36.7929575047
 20
23.8764956728
 30
0.0
 10
39.0598290124
 20
25.292827786
 30
0.0
 10
43.8961909825
 20
28.3454749945
 30
0.0
 10
48.7071206042
 20
31.443068867
 30
0.0
 10
51.208006643
 20
33.1833016165
 30
0.0
 11
36.7929575047
 21
23.8764956728
 31
0.0
 11
43.5745524865
 21
28.1557826801
 31
0.0
 11
51.208006643
 21
33.1833016165
 31
0.0
  0
SPLINE
  5
53F
100
AcDbEntity
  8
SUPERFICI
100
AcDbSpline
 62
253
  6
CONTINUOUS
 70
0
 71
3
 72
12
 73
8
 74
6
 42
0.0000001
 43
0.0000001
 44
0.0000000001
 12
3.9172284115
 22
0.183083051
 32
0.0
 13
1.7472684936
 23
-3.5107336331
 33
0.0
 40
0.0
 40
0.0
 40
0.0
 40
0.0
 40
0.1252343692
 40
0.2504898321
 40
0.5003227785
 40
0.7501305882
 40
1.0
 40
1.0
 40
1.0
 40
1.0
 10
33.585667538
 20
25.7513558654
 30
0.0
 10
33.7491914144
 20
25.7589986289
 30
0.0
 10
34.0778765763
 20
25.7531067949
 30
0.0
 10
34.7249527984
 20
25.6457516556
 30
0.0
 10
35.4939979728
 20
25.3345895288
 30
0.0
 10
36.2695332262
 20
24.7149573856
 30
0.0
 10
36.6474278544
 20
24.1689039888
 30
0.0
 10
36.7929575047
 20
23.8764956728
 30
0.0
 11
33.585667538
 21
25.7513558654
 31
0.0
 11
34.0766685292
 21
25.7411452534
 31
0.0
 11
34.5612144556
 21
25.6606298532
 31
0.0
 11
35.4695498138
 21
25.2935056523
 31
0.0
 11
36.2346948656
 21
24.6817759637
 31
0.0
 11
36.7929575047
 21
23.8764956728
 31
0.0
  0
SPLINE
  5
540
100
AcDbEntity
  8
SUPERFICI
100
AcDbSpline
 62
253
  6
CONTINUOUS
 70
0
 71
3
 72
9
 73
5
 74
3
 42
0.0000001
 43
0.0000001
 44
0.0000000001
 12
-13.0328777106
 22
-8.7641313847
 32
0.0
 13
-11.9334288181
 23
-10.2107383177
 33
0.0
 40
0.0
 40
0.0
 40
0.0
 40
0.0
 40
0.4992272857
 40
1.0
 40
1.0
 40
1.0
 40
1.0
 10
46.0719415846
 20
35.2674896049
 30
0.0
 10
43.9031521967
 20
33.8090584308
 30
0.0
 10
39.6511830866
 20
30.7488446129
 30
0.0
 10
35.5776460516
 20
27.4557755797
 30
0.0
 10
33.585667538
 20
25.7513558654
 30
0.0
 11
46.0719415846
 21
35.2674896049
 31
0.0
 11
39.7022244499
 21
30.6955399428
 31
0.0
 11
33.585667538
 21
25.7513558654
 31
0.0
  0
SPLINE
  5
541
100
AcDbEntity
  8
SUPERFICI
100
AcDbSpline
 62
253
  6
CONTINUOUS
 70
0
 71
3
 72
11
 73
7
 74
5
 42
0.0000001
 43
0.0000001
 44
0.0000000001
 12
-5.4415853266
 22
-4.625493048
 32
0.0
 13
-6.097191448
 23
-3.7189102235
 33
0.0
 40
0.0
 40
0.0
 40
0.0
 40
0.0
 40
0.2558903255
 40
0.5063663471
 40
0.7506047259
 40
1.0
 40
1.0
 40
1.0
 40
1.0
 10
58.9792041517
 20
30.7517730978
 30
0.0
 10
58.5150544716
 20
30.3572334573
 30
0.0
 10
57.5778417721
 20
29.5983388353
 30
0.0
 10
56.1426389304
 20
28.5329674012
 30
0.0
 10
54.6762558925
 20
27.5382726981
 30
0.0
 10
53.6803022095
 20
26.9141378675
 30
0.0
 10
53.1734319653
 20
26.6049783226
 30
0.0
 11
58.9792041517
 21
30.7517730978
 31
0.0
 11
57.559906288
 21
29.6004861417
 31
0.0
 11
56.1232816586
 21
28.5345881542
 31
0.0
 11
54.6807456748
 21
27.5539140417
 31
0.0
 11
53.1734319653
 21
26.6049783226
 31
0.0
  0
LINE
  5
542
100
AcDbEntity
  8
SUPERFICI
100
AcDbLine
 62
253
  6
CONTINUOUS
 10
58.9958371592
 20
24.6106011199
 11
58.9802046922
 21
30.7525446989
  0
SPLINE
  5
543
100
AcDbEntity
  8
SUPERFICI
100
AcDbSpline
 62
253
  6
CONTINUOUS
 70
0
 71
3
 72
9
 73
5
 74
3
 42
0.0000001
 43
0.0000001
 44
0.0000000001
 12
-3.1554258612
 22
-2.0170286404
 32
0.0
 13
-3.3156847582
 23
-1.7410776794
 33
0.0
 40
0.0
 40
0.0
 40
0.0
 40
0.0
 40
0.493549127
 40
1.0
 40
1.0
 40
1.0
 40
1.0
 10
56.8953561076
 20
23.1668789007
 30
0.0
 10
56.3762368812
 20
22.8350446592
 30
0.0
 10
55.3078459277
 20
22.1883052869
 30
0.0
 10
54.2114750161
 20
21.590673376
 30
0.0
 10
53.6517312027
 20
21.2967499391
 30
0.0
 11
56.8953561076
 21
23.1668789007
 31
0.0
 11
55.3148143776
 21
22.2086114768
 31
0.0
 11
53.6517312027
 21
21.2967499391
 31
0.0
  0
SPLINE
  5
544
100
AcDbEntity
  8
SUPERFICI
100
AcDbSpline
 62
253
  6
CONTINUOUS
 70
0
 71
3
 72
14
 73
10
 74
8
 42
0.0000001
 43
0.0000001
 44
0.0000000001
 12
17.0089590614
 22
4.1664044396
 32
0.0
 13
15.5042727001
 23
8.1413231325
 33
0.0
 40
0.0
 40
0.0
 40
0.0
 40
0.0
 40
0.1431700668
 40
0.2881036333
 40
0.4295133185
 40
0.5621253982
 40
0.6818896696
 40
0.7914938566
 40
1.0
 40
1.0
 40
1.0
 40
1.0
 10
37.2647916007
 20
15.2351146135
 30
0.0
 10
38.0765162021
 20
15.4339494141
 30
0.0
 10
39.7026485263
 20
15.8643120654
 30
0.0
 10
42.1056744118
 20
16.5807132204
 30
0.0
 10
44.4277489578
 20
17.349089684
 30
0.0
 10
46.589741256
 20
18.1306032229
 30
0.0
 10
48.5561243786
 20
18.9048658188
 30
0.0
 10
50.9039212293
 20
19.9160670453
 30
0.0
 10
52.574223442
 20
20.730772786
 30
0.0
 10
53.6518021442
 20
21.2966114155
 30
0.0
 11
37.2647916007
 21
15.2351146135
 31
0.0
 11
39.6891732998
 21
15.8740687087
 31
0.0
 11
42.1215582046
 21
16.5987751496
 31
0.0
 11
44.4726960878
 21
17.3762136781
 31
0.0
 11
46.656238941
 21
18.1668563228
 31
0.0
 11
48.6069089695
 21
18.9372523726
 31
0.0
 11
50.3694329365
 21
19.6971754805
 31
0.0
 11
53.6518021442
 21
21.2966114155
 31
0.0
  0
SPLINE
  5
545
100
AcDbEntity
  8
SUPERFICI
100
AcDbSpline
 62
253
  6
CONTINUOUS
 70
0
 71
3
 72
11
 73
7
 74
5
 42
0.0000001
 43
0.0000001
 44
0.0000000001
 12
-15.0917716496
 22
-9.2050593553
 32
0.0
 13
-16.5614396284
 23
-6.1816993369
 33
0.0
 40
0.0
 40
0.0
 40
0.0
 40
0.0
 40
0.2333623467
 40
0.4759294706
 40
0.7352266657
 40
1.0
 40
1.0
 40
1.0
 40
1.0
 10
53.1734478009
 20
26.6050139694
 30
0.0
 10
51.9994973849
 20
25.8889758852
 30
0.0
 10
49.5590330874
 20
24.5034822405
 30
0.0
 10
45.6810889125
 20
22.5687531941
 30
0.0
 10
41.557422611
 20
20.7213741012
 30
0.0
 10
38.6887315144
 20
19.5750611372
 30
0.0
 10
37.2270556509
 20
19.0294780889
 30
0.0
 11
53.1734478009
 21
26.6050139694
 31
0.0
 11
49.5894468756
 21
24.5622784451
 31
0.0
 11
45.7570903
 21
22.6387767957
 31
0.0
 11
41.5746946756
 21
20.7631013594
 31
0.0
 11
37.2270556509
 21
19.0294780889
 31
0.0
  0
SPLINE
  5
546
100
AcDbEntity
  8
SUPERFICI
100
AcDbSpline
 62
253
  6
CONTINUOUS
 70
0
 71
3
 72
9
 73
5
 74
3
 42
0.0000001
 43
0.0000001
 44
0.0000000001
 12
-1.7227383451
 22
-0.0121646935
 32
0.0
 13
-1.7227792093
 23
-0.0026798535
 33
0.0
 40
0.0
 40
0.0
 40
0.0
 40
0.0
 40
0.2690439998
 40
1.0
 40
1.0
 40
1.0
 40
1.0
 10
37.2270531399
 20
19.0296860766
 30
0.0
 10
37.0725556683
 20
19.0285951306
 30
0.0
 10
36.4983012904
 20
19.0253731712
 30
0.0
 10
35.9240368734
 20
19.027570833
 30
0.0
 10
35.5042782733
 20
19.0269178813
 30
0.0
 11
37.2270531399
 21
19.0296860766
 31
0.0
 11
36.7635555522
 21
19.0272537305
 31
0.0
 11
35.5042782733
 21
19.0269178813
 31
0.0
  0
SPLINE
  5
547
100
AcDbEntity
  8
SUPERFICI
100
AcDbSpline
 62
253
  6
CONTINUOUS
 70
0
 71
3
 72
11
 73
7
 74
5
 42
0.0000001
 43
0.0000001
 44
0.0000000001
 12
0.0291004857
 22
3.7948157764
 32
0.0
 13
-0.0346228696
 23
3.7947694096
 33
0.0
 40
0.0
 40
0.0
 40
0.0
 40
0.0
 40
0.2500028269
 40
0.499997691
 40
0.7500009824
 40
1.0
 40
1.0
 40
1.0
 40
1.0
 10
37.2647913937
 20
15.2350660523
 30
0.0
 10
37.2672164616
 20
15.5513042762
 30
0.0
 10
37.2707401156
 20
16.1838064825
 30
0.0
 10
37.2579019772
 20
17.1324906851
 30
0.0
 10
37.237984735
 20
18.0810061587
 30
0.0
 10
37.2299383677
 20
18.7134565351
 30
0.0
 10
37.2270531399
 20
19.0296860766
 30
0.0
 11
37.2647913937
 21
15.2350660523
 31
0.0
 11
37.267719485
 21
16.1838041
 31
0.0
 11
37.2567222996
 21
17.1324527078
 31
0.0
 11
37.2392926203
 21
18.0810369201
 31
0.0
 11
37.2270531399
 21
19.0296860766
 31
0.0
  0
SPLINE
  5
548
100
AcDbEntity
  8
SUPERFICI
100
AcDbSpline
 62
253
  6
CONTINUOUS
 70
0
 71
3
 72
11
 73
7
 74
5
 42
0.0000001
 43
0.0000001
 44
0.0000000001
 12
-0.0108394036
 22
15.2355184195
 32
0.0
 13
-0.168699195
 23
15.2345882644
 33
0.0
 40
0.0
 40
0.0
 40
0.0
 40
0.0
 40
0.2499999666
 40
0.5000001652
 40
0.7499999886
 40
1.0
 40
1.0
 40
1.0
 40
1.0
 10
37.3717759268
 20
-0.0000002926
 30
0.0
 10
37.3708726433
 20
1.2696260727
 30
0.0
 10
37.3640519093
 20
3.8088768943
 30
0.0
 10
37.3429481166
 20
7.6177044923
 30
0.0
 10
37.308732134
 20
11.426439169
 30
0.0
 10
37.2788496606
 20
13.9655169725
 30
0.0
 10
37.2647913937
 20
15.2350660523
 30
0.0
 11
37.3717759268
 21
-0.0000002926
 31
0.0
 11
37.3622397976
 21
3.8088678297
 31
0.0
 11
37.340762738
 21
7.6176908727
 31
0.0
 11
37.3069641872
 21
11.4264187908
 31
0.0
 11
37.2647913937
 21
15.2350660523
 31
0.0
  0
LINE
  5
549
100
AcDbEntity
  8
SUPERFICI
100
AcDbLine
 62
253
  6
CONTINUOUS
 10
37.3717759268
 20
0.0000002864
 11
35.5042868069
 21
-0.0000000344
  0
SPLINE
  5
54A
100
AcDbEntity
  8
SUPERFICI
100
AcDbSpline
 62
253
  6
CONTINUOUS
 70
0
 71
3
 72
11
 73
7
 74
5
 42
0.0000001
 43
0.0000001
 44
0.0000000001
 12
0.1686920063
 22
15.2345883307
 32
0.0
 13
0.0108403943
 23
15.2355184055
 33
0.0
 40
0.0
 40
0.0
 40
0.0
 40
0.0
 40
0.2500000115
 40
0.4999998348
 40
0.7500000334
 40
1.0
 40
1.0
 40
1.0
 40
1.0
 10
37.264791394
 20
-15.2350660456
 30
0.0
 10
37.2788490618
 20
-13.9655169598
 30
0.0
 10
37.308731372
 20
-11.4264391575
 30
0.0
 10
37.3429488023
 20
-7.6177044961
 30
0.0
 10
37.3640516215
 20
-3.8088768953
 30
0.0
 10
37.3708725608
 20
-1.2696260777
 30
0.0
 10
37.3717759268
 20
0.0000002864
 30
0.0
 11
37.264791394
 21
-15.2350660456
 31
0.0
 11
37.3069637073
 21
-11.4264187805
 31
0.0
 11
37.3407630202
 21
-7.6176908738
 31
0.0
 11
37.3622397234
 21
-3.8088678322
 31
0.0
 11
37.3717759268
 21
0.0000002864
 31
0.0
  0
SPLINE
  5
54B
100
AcDbEntity
  8
SUPERFICI
100
AcDbSpline
 62
253
  6
CONTINUOUS
 70
0
 71
3
 72
11
 73
7
 74
5
 42
0.0000001
 43
0.0000001
 44
0.0000000001
 12
1.6479018454
 22
0.0187193276
 32
0.0
 13
1.645765569
 23
0.0859453153
 33
0.0
 40
0.0
 40
0.0
 40
0.0
 40
0.0
 40
0.2250389768
 40
0.4704221254
 40
0.730555605
 40
1.0
 40
1.0
 40
1.0
 40
1.0
 10
35.5075639669
 20
-22.2707976762
 30
0.0
 10
35.6311780153
 20
-22.2693934834
 30
0.0
 10
35.8895928658
 20
-22.2663094795
 30
0.0
 10
36.290901382
 20
-22.2696993967
 30
0.0
 10
36.7166692682
 20
-22.2665951628
 30
0.0
 10
37.0073406812
 20
-22.2533610252
 30
0.0
 10
37.1551547839
 20
-22.245641864
 30
0.0
 11
35.5075639669
 21
-22.2707976762
 31
0.0
 11
35.8784166639
 21
-22.2676481411
 31
0.0
 11
36.282808973
 21
-22.2686011308
 31
0.0
 11
36.711485851
 21
-22.2639510854
 31
0.0
 11
37.1551547839
 21
-22.245641864
 31
0.0
  0
SPLINE
  5
54C
100
AcDbEntity
  8
SUPERFICI
100
AcDbSpline
 62
253
  6
CONTINUOUS
 70
0
 71
3
 72
9
 73
5
 74
3
 42
0.0000001
 43
0.0000001
 44
0.0000000001
 12
-1.7226919233
 22
0.0115530935
 32
0.0
 13
-1.7227279577
 23
0.0030529236
 33
0.0
 40
0.0
 40
0.0
 40
0.0
 40
0.0
 40
0.2691753833
 40
1.0
 40
1.0
 40
1.0
 40
1.0
 10
37.2269286941
 20
-19.0296855326
 30
0.0
 10
37.0723599412
 20
-19.0286489298
 30
0.0
 10
36.4981228596
 20
-19.0253833466
 30
0.0
 10
35.9238749279
 20
-19.0276614778
 30
0.0
 10
35.5042042614
 20
-19.0269177606
 30
0.0
 11
37.2269286941
 21
-19.0296855326
 31
0.0
 11
36.7632181819
 21
-19.0272925726
 31
0.0
 11
35.5042042614
 21
-19.0269177606
 31
0.0
  0
SPLINE
  5
54D
100
AcDbEntity
  8
SUPERFICI
100
AcDbSpline
 62
253
  6
CONTINUOUS
 70
0
 71
3
 72
11
 73
7
 74
5
 42
0.0000001
 43
0.0000001
 44
0.0000000001
 12
15.9753780329
 22
-7.7027152361
 32
0.0
 13
14.8682191751
 23
-9.6685357662
 33
0.0
 40
0.0
 40
0.0
 40
0.0
 40
0.0
 40
0.2470141136
 40
0.4951364321
 40
0.7476562034
 40
1.0
 40
1.0
 40
1.0
 40
1.0
 10
37.1663721333
 20
-21.3756318379
 30
0.0
 10
38.4817534146
 20
-22.0098582967
 30
0.0
 10
41.1045055526
 20
-23.3103278414
 30
0.0
 10
45.0162031361
 20
-25.3690686893
 30
0.0
 10
48.9059286608
 20
-27.5347474695
 30
0.0
 10
51.456592046
 20
-29.0875333505
 30
0.0
 10
52.7072263377
 20
-29.900798358
 30
0.0
 11
37.1663721333
 21
-21.3756318379
 31
0.0
 11
41.0906152312
 21
-23.3230804651
 31
0.0
 11
44.9850537142
 21
-25.3720273892
 31
0.0
 11
48.8924957064
 21
-27.560455403
 31
0.0
 11
52.7072263377
 21
-29.900798358
 31
0.0
  0
SPLINE
  5
54E
100
AcDbEntity
  8
SUPERFICI
100
AcDbSpline
 62
253
  6
CONTINUOUS
 70
0
 71
3
 72
10
 73
6
 74
4
 42
0.0000001
 43
0.0000001
 44
0.0000000001
 12
-0.3315028724
 22
-3.3138021679
 32
0.0
 13
-0.7203528
 23
-3.2515028535
 33
0.0
 40
0.0
 40
0.0
 40
0.0
 40
0.0
 40
0.4999895674
 40
0.7500105093
 40
1.0
 40
1.0
 40
1.0
 40
1.0
 10
53.1734705065
 20
-26.6049418772
 30
0.0
 10
53.1182211805
 20
-27.1572307147
 30
0.0
 10
53.0271300066
 20
-27.9850786785
 30
0.0
 10
52.8669949423
 20
-29.0836399537
 30
0.0
 10
52.7672257924
 20
-29.630019284
 30
0.0
 10
52.7071989159
 20
-29.9009664648
 30
0.0
 11
53.1734705065
 21
-26.6049418772
 31
0.0
 11
52.9838772808
 21
-28.2592494185
 31
0.0
 11
52.8620642995
 21
-29.0829462211
 31
0.0
 11
52.7071989159
 21
-29.9009664648
 31
0.0
  0
SPLINE
  5
54F
100
AcDbEntity
  8
SUPERFICI
100
AcDbSpline
 62
253
  6
CONTINUOUS
 70
0
 71
3
 72
11
 73
7
 74
5
 42
0.0000001
 43
0.0000001
 44
0.0000000001
 12
6.5573876296
 22
-4.2641667403
 32
0.0
 13
5.8820596482
 23
-5.1559504272
 33
0.0
 40
0.0
 40
0.0
 40
0.0
 40
0.0
 40
0.2464097243
 40
0.4911564034
 40
0.7429051726
 40
1.0
 40
1.0
 40
1.0
 40
1.0
 10
52.7070975184
 20
-29.9010749565
 30
0.0
 10
53.2456988777
 20
-30.2513190068
 30
0.0
 10
54.3116567085
 20
-30.9613294981
 30
0.0
 10
55.8884715998
 20
-32.0870376678
 30
0.0
 10
57.4422299815
 20
-33.2905010824
 30
0.0
 10
58.4588649197
 20
-34.1436029535
 30
0.0
 10
58.9629472896
 20
-34.5854590152
 30
0.0
 11
52.7070975184
 21
-29.9010749565
 31
0.0
 11
54.3093563896
 21
-30.9723486756
 31
0.0
 11
55.8662875426
 21
-32.0862838147
 31
0.0
 11
57.4232515797
 21
-33.2918750578
 31
0.0
 11
58.9629472896
 21
-34.5854590152
 31
0.0
  0
SPLINE
  5
550
100
AcDbEntity
  8
SUPERFICI
100
AcDbSpline
 62
253
  6
CONTINUOUS
 70
0
 71
3
 72
11
 73
7
 74
5
 42
0.0000001
 43
0.0000001
 44
0.0000000001
 12
-5.0629846307
 22
3.7419726405
 32
0.0
 13
-5.5739816768
 23
2.9269268661
 33
0.0
 40
0.0
 40
0.0
 40
0.0
 40
0.0
 40
0.2546102938
 40
0.5036761884
 40
0.7473148847
 40
1.0
 40
1.0
 40
1.0
 40
1.0
 10
58.9968945561
 20
-24.6117793901
 30
0.0
 10
58.5671985546
 20
-24.2941978056
 30
0.0
 10
57.7027111686
 20
-23.6853410031
 30
0.0
 10
56.3853744917
 20
-22.8336163945
 30
0.0
 10
55.0374579609
 20
-22.0390595346
 30
0.0
 10
54.1211511151
 20
-21.5434172819
 30
0.0
 10
53.6516637143
 20
-21.2968869977
 30
0.0
 11
58.9968945561
 21
-24.6117793901
 31
0.0
 11
57.6872224638
 21
-23.6875340442
 31
0.0
 11
56.3700691419
 21
-22.8367166032
 31
0.0
 11
55.0492901761
 21
-22.0567558536
 31
0.0
 11
53.6516637143
 21
-21.2968869977
 31
0.0
  0
LINE
  5
551
100
AcDbEntity
  8
SUPERFICI
100
AcDbLine
 62
253
  6
CONTINUOUS
 10
58.9802046927
 20
-30.7525446937
 11
58.9958371597
 21
-24.6106011147
  0
SPLINE
  5
552
100
AcDbEntity
  8
SUPERFICI
100
AcDbSpline
 62
253
  6
CONTINUOUS
 70
0
 71
3
 72
11
 73
7
 74
5
 42
0.0000001
 43
0.0000001
 44
0.0000000001
 12
6.097191797
 22
-3.7189103321
 32
0.0
 13
5.4415854085
 23
-4.625493499
 33
0.0
 40
0.0
 40
0.0
 40
0.0
 40
0.0
 40
0.2493952613
 40
0.493633641
 40
0.7441096762
 40
1.0
 40
1.0
 40
1.0
 40
1.0
 10
53.173434281
 20
-26.604974924
 30
0.0
 10
53.680304528
 20
-26.9141344619
 30
0.0
 10
54.6762582401
 20
-27.538269303
 30
0.0
 10
56.1426413432
 20
-28.5329640744
 30
0.0
 10
57.5778442577
 20
-29.5983356108
 30
0.0
 10
58.5150570037
 20
-30.3572303162
 30
0.0
 10
58.9792066877
 20
-30.7517699926
 30
0.0
 11
53.173434281
 21
-26.604974924
 31
0.0
 11
54.6807479924
 21
-27.5539106333
 31
0.0
 11
56.1232840438
 21
-28.5345848125
 31
0.0
 11
57.5599087998
 21
-29.6004829413
 31
0.0
 11
58.9792066877
 21
-30.7517699926
 31
0.0
  0
SPLINE
  5
553
100
AcDbEntity
  8
SUPERFICI
100
AcDbSpline
 62
253
  6
CONTINUOUS
 70
0
 71
3
 72
11
 73
7
 74
5
 42
0.0000001
 43
0.0000001
 44
0.0000000001
 12
16.5614393789
 22
-6.1816993346
 32
0.0
 13
15.091771415
 23
-9.2050592894
 33
0.0
 40
0.0
 40
0.0
 40
0.0
 40
0.0
 40
0.2647733351
 40
0.5240705297
 40
0.766637653
 40
1.0
 40
1.0
 40
1.0
 40
1.0
 10
37.2270561008
 20
-19.02947825
 30
0.0
 10
38.688731947
 20
-19.5750612998
 30
0.0
 10
41.5574230025
 20
-20.7213742612
 30
0.0
 10
45.6810892411
 20
-22.5687533432
 30
0.0
 10
49.5590333529
 20
-24.5034823759
 30
0.0
 10
51.9994976109
 20
-25.888976011
 30
0.0
 10
53.1734480103
 20
-26.6050140911
 30
0.0
 11
37.2270561008
 21
-19.02947825
 31
0.0
 11
41.5746950745
 21
-20.7631015217
 31
0.0
 11
45.7570906278
 21
-22.6387769444
 31
0.0
 11
49.5894471353
 21
-24.5622785773
 31
0.0
 11
53.1734480103
 21
-26.6050140911
 31
0.0
  0
SPLINE
  5
554
100
AcDbEntity
  8
SUPERFICI
100
AcDbSpline
 62
253
  6
CONTINUOUS
 70
0
 71
3
 72
8
 73
4
 74
2
 42
0.0000001
 43
0.0000001
 44
0.0000000001
 12
0.0182523648
 22
-3.794507406
 32
0.0
 13
-0.0683776524
 23
-3.7939351734
 33
0.0
 40
0.0
 40
0.0
 40
0.0
 40
0.0
 40
1.0
 40
1.0
 40
1.0
 40
1.0
 10
37.2647915011
 20
-15.2351145823
 30
0.0
 10
37.2708756227
 20
-16.4999503843
 30
0.0
 10
37.2498486516
 20
-17.7648331922
 30
0.0
 10
37.2270561008
 20
-19.02947825
 30
0.0
 11
37.2647915011
 21
-15.2351145823
 31
0.0
 11
37.2270561008
 21
-19.02947825
 31
0.0
  0
SPLINE
  5
555
100
AcDbEntity
  8
SUPERFICI
100
AcDbSpline
 62
253
  6
CONTINUOUS
 70
0
 71
3
 72
14
 73
10
 74
8
 42
0.0000001
 43
0.0000001
 44
0.0000000001
 12
-15.5042729588
 22
8.1413233359
 32
0.0
 13
-17.0089593822
 23
4.1664044905
 33
0.0
 40
0.0
 40
0.0
 40
0.0
 40
0.0
 40
0.2085061437
 40
0.3181103305
 40
0.4378746015
 40
0.570486681
 40
0.7118963664
 40
0.8568299331
 40
1.0
 40
1.0
 40
1.0
 40
1.0
 10
53.6518023397
 20
-21.2966115121
 30
0.0
 10
52.5742236177
 20
-20.7307728676
 30
0.0
 10
50.9039213768
 20
-19.916067106
 30
0.0
 10
48.5561244869
 20
-18.9048658566
 30
0.0
 10
46.5897413338
 20
-18.1306032453
 30
0.0
 10
44.4277489981
 20
-17.3490896909
 30
0.0
 10
42.1056744078
 20
-16.5807132119
 30
0.0
 10
39.7026484749
 20
-15.8643120436
 30
0.0
 10
38.0765161184
 20
-15.4339493854
 30
0.0
 10
37.2647915011
 20
-15.2351145823
 30
0.0
 11
53.6518023397
 21
-21.2966115121
 31
0.0
 11
50.3694330707
 21
-19.6971755346
 31
0.0
 11
48.6069090782
 21
-18.9372524111
 31
0.0
 11
46.6562390214
 21
-18.1668563467
 31
0.0
 11
44.4726961305
 21
-17.3762136863
 31
0.0
 11
42.1215582012
 21
-16.5987751419
 31
0.0
 11
39.6891732472
 21
-15.8740686871
 31
0.0
 11
37.2647915011
 21
-15.2351145823
 31
0.0
  0
SPLINE
  5
556
100
AcDbEntity
  8
SUPERFICI
100
AcDbSpline
 62
253
  6
CONTINUOUS
 70
0
 71
3
 72
10
 73
6
 74
4
 42
0.0000001
 43
0.0000001
 44
0.0000000001
 12
-0.0206841381
 22
-1.5485823816
 32
0.0
 13
0.0176277962
 23
-1.5486201881
 33
0.0
 40
0.0
 40
0.0
 40
0.0
 40
0.0
 40
0.2249577121
 40
0.4700901482
 40
1.0
 40
1.0
 40
1.0
 40
1.0
 10
33.5804700956
 20
-24.2026961646
 30
0.0
 10
33.5789190768
 20
-24.3188180144
 30
0.0
 10
33.5757206905
 20
-24.5614833433
 30
0.0
 10
33.5776723292
 20
-25.0777354973
 30
0.0
 10
33.5825538192
 20
-25.477812651
 30
0.0
 10
33.5856675335
 20
-25.7513556825
 30
0.0
 11
33.5804700956
 21
-24.2026961646
 31
0.0
 11
33.576800489
 21
-24.5510734615
 31
0.0
 11
33.5774535523
 21
-24.9307145319
 31
0.0
 11
33.5856675335
 21
-25.7513556825
 31
0.0
  0
SPLINE
  5
557
100
AcDbEntity
  8
SUPERFICI
100
AcDbSpline
 62
253
  6
CONTINUOUS
 70
0
 71
3
 72
11
 73
7
 74
5
 42
0.0000001
 43
0.0000001
 44
0.0000000001
 12
-14.5251965423
 22
9.7468020024
 32
0.0
 13
-15.2433140369
 23
8.5803765093
 33
0.0
 40
0.0
 40
0.0
 40
0.0
 40
0.0
 40
0.267190548
 40
0.5258853324
 40
0.7656136339
 40
1.0
 40
1.0
 40
1.0
 40
1.0
 10
52.1169779794
 20
-31.8048054836
 30
0.0
 10
50.823312905
 20
-30.9367210276
 30
0.0
 10
48.2370801466
 20
-29.2877363247
 30
0.0
 10
44.409327204
 20
-26.9904084575
 30
0.0
 10
40.7209789389
 20
-24.833083852
 30
0.0
 10
38.3185773668
 20
-23.4652224777
 30
0.0
 10
37.1276357053
 20
-22.7948480544
 30
0.0
 11
52.1169779794
 21
-31.8048054836
 31
0.0
 11
48.1842048312
 21
-29.2794233557
 31
0.0
 11
44.3099947492
 21
-26.9411136055
 31
0.0
 11
40.6899743915
 21
-24.8244879886
 31
0.0
 11
37.1276357053
 21
-22.7948480544
 31
0.0
  0
SPLINE
  5
558
100
AcDbEntity
  8
SUPERFICI
100
AcDbSpline
 62
253
  6
CONTINUOUS
 70
0
 71
3
 72
9
 73
5
 74
3
 42
0.0000001
 43
0.0000001
 44
0.0000000001
 12
1.1223547233
 22
1.2165585418
 32
0.0
 13
0.6918570626
 23
1.5036717114
 33
0.0
 40
0.0
 40
0.0
 40
0.0
 40
0.0
 40
0.2533156106
 40
1.0
 40
1.0
 40
1.0
 40
1.0
 10
51.2080655483
 20
-33.1833469137
 30
0.0
 10
51.3028355389
 20
-33.0806224904
 30
0.0
 10
51.659297774
 20
-32.6589293304
 30
0.0
 10
51.9448160289
 20
-32.1790788816
 30
0.0
 10
52.1170156517
 20
-31.804822817
 30
0.0
 11
51.2080655483
 21
-33.1833469137
 31
0.0
 11
51.4788780464
 21
-32.8632476865
 31
0.0
 11
52.1170156517
 21
-31.804822817
 31
0.0
  0
LINE
  5
559
100
AcDbEntity
  8
0
100
AcDbLine
 62
253
  6
CONTINUOUS
 10
35.1702397261
 20
-27.0886375323
 11
35.2085138922
 21
-27.1205668131
  0
SPLINE
  5
55A
100
AcDbEntity
  8
SUPERFICI
100
AcDbSpline
 62
253
  6
CONTINUOUS
 70
0
 71
3
 72
22
 73
18
 74
16
 42
0.0000001
 43
0.0000001
 44
0.0000000001
 12
0.020080387
 22
-1.6289932225
 32
0.0
 13
1.2838336977
 23
-1.0028924058
 33
0.0
 40
0.0
 40
0.0
 40
0.0
 40
0.0
 40
0.1480183495
 40
0.3131751082
 40
0.4840362988
 40
0.6478820531
 40
0.7223372215
 40
0.7897661603
 40
0.8493084608
 40
0.900211787
 40
0.9417040536
 40
0.9586450032
 40
0.972879804
 40
0.9842730801
 40
0.99268013
 40
0.9979601728
 40
1.0
 40
1.0
 40
1.0
 40
1.0
 10
-33.5804705183
 20
24.19980415
 30
0.0
 10
-33.579479763
 20
24.1194305206
 30
0.0
 10
-33.5789123811
 20
23.9493605178
 30
0.0
 10
-33.5793845492
 20
23.6865116582
 30
0.0
 10
-33.5794820374
 20
23.4150657025
 30
0.0
 10
-33.5795511288
 20
23.1928750006
 30
0.0
 10
-33.5796444874
 20
23.0268514658
 30
0.0
 10
-33.5796818462
 20
22.9174698774
 30
0.0
 10
-33.5796879528
 20
22.8208745668
 30
0.0
 10
-33.5797545488
 20
22.7383736953
 30
0.0
 10
-33.5799252338
 20
22.6789821199
 30
0.0
 10
-33.5799523629
 20
22.639548958
 30
0.0
 10
-33.5800235519
 20
22.6163697329
 30
0.0
 10
-33.5797366311
 20
22.5980555108
 30
0.0
 10
-33.5800402634
 20
22.5840390045
 30
0.0
 10
-33.5787993802
 20
22.5762458742
 30
0.0
 10
-33.5794687005
 20
22.5714395399
 30
0.0
 10
-33.5785957675
 20
22.5707576308
 30
0.0
 11
-33.5804705183
 21
24.19980415
 31
0.0
 11
-33.57913842
 21
23.9586686226
 31
0.0
 11
-33.5793156304
 21
23.6896090007
 31
0.0
 11
-33.5794811232
 21
23.4112561827
 31
0.0
 11
-33.5795816008
 21
23.1443323009
 31
0.0
 11
-33.5796419486
 21
23.0230361367
 31
0.0
 11
-33.5796778968
 21
22.9131865132
 31
0.0
 11
-33.579701217
 21
22.8161851431
 31
0.0
 11
-33.5797901613
 21
22.7332577177
 31
0.0
 11
-33.5799285658
 21
22.6656621033
 31
0.0
 11
-33.5799653313
 21
22.6380633391
 31
0.0
 11
-33.5799484283
 21
22.6148731895
 31
0.0
 11
-33.5798460898
 21
22.596312492
 31
0.0
 11
-33.5796081646
 21
22.5826184911
 31
0.0
 11
-33.5791924899
 21
22.5740267332
 31
0.0
 11
-33.5785957675
 21
22.5707576308
 31
0.0
  0
LINE
  5
55B
100
AcDbEntity
  8
0
100
AcDbLine
 62
253
  6
CONTINUOUS
 10
33.5860046007
 20
-25.7509695476
 11
33.8150041219
 21
-25.9476148429
  0
LINE
  5
55C
100
AcDbEntity
  8
0
100
AcDbLine
 62
253
  6
CONTINUOUS
 10
33.8150041219
 20
-25.9476148429
 11
33.8605194857
 21
-25.986599921
  0
SPLINE
  5
55D
100
AcDbEntity
  8
SUPERFICI
100
AcDbSpline
 62
253
  6
CONTINUOUS
 70
0
 71
3
 72
12
 73
8
 74
6
 42
0.0000001
 43
0.0000001
 44
0.0000000001
 12
-1.747125991
 22
-3.5108046696
 32
0.0
 13
-3.9172172063
 23
0.1833248891
 33
0.0
 40
0.0
 40
0.0
 40
0.0
 40
0.0
 40
0.2498664409
 40
0.4996750511
 40
0.7495095618
 40
0.8747657204
 40
1.0
 40
1.0
 40
1.0
 40
1.0
 10
36.792957505
 20
-23.876495666
 30
0.0
 10
36.6474414539
 20
-24.1689064218
 30
0.0
 10
36.2695340622
 20
-24.7149505938
 30
0.0
 10
35.4940055981
 20
-25.3345860558
 30
0.0
 10
34.7249544712
 20
-25.6457464954
 30
0.0
 10
34.0778779428
 20
-25.7531094854
 30
0.0
 10
33.7491908301
 20
-25.7590087122
 30
0.0
 10
33.5856675385
 20
-25.7513558588
 30
0.0
 11
36.792957505
 21
-23.876495666
 31
0.0
 11
36.2347038577
 21
-24.6817680464
 31
0.0
 11
35.4695567243
 21
-25.2935002006
 31
0.0
 11
34.5612159699
 21
-25.6606274903
 31
0.0
 11
34.0766682678
 21
-25.7411489292
 31
0.0
 11
33.5856675385
 21
-25.7513558588
 31
0.0
  0
SPLINE
  5
55E
100
AcDbEntity
  8
SUPERFICI
100
AcDbSpline
 62
253
  6
CONTINUOUS
 70
0
 71
3
 72
9
 73
5
 74
3
 42
0.0000001
 43
0.0000001
 44
0.0000000001
 12
-14.0848286069
 22
9.8008861967
 32
0.0
 13
-14.5523470664
 23
9.0922473562
 33
0.0
 40
0.0
 40
0.0
 40
0.0
 40
0.0
 40
0.5326779594
 40
1.0
 40
1.0
 40
1.0
 40
1.0
 10
51.2080456649
 20
-33.1833287636
 30
0.0
 10
48.7071530778
 20
-31.4430900769
 30
0.0
 10
43.8962103848
 20
-28.3454871659
 30
0.0
 10
39.0598350137
 20
-25.2928315286
 30
0.0
 10
36.792957505
 20
-23.876495666
 30
0.0
 11
51.2080456649
 21
-33.1833287636
 31
0.0
 11
43.5745703886
 21
-28.1557940819
 31
0.0
 11
36.792957505
 21
-23.876495666
 31
0.0
  0
SPLINE
  5
55F
100
AcDbEntity
  8
SUPERFICI
100
AcDbSpline
 62
253
  6
CONTINUOUS
 70
0
 71
3
 72
14
 73
10
 74
8
 42
0.0000001
 43
0.0000001
 44
0.0000000001
 12
5.6086749212
 22
0.7154570442
 32
0.0
 13
3.8339291963
 23
4.1557309912
 33
0.0
 40
0.0
 40
0.0
 40
0.0
 40
0.0
 40
0.248199517
 40
0.372882354
 40
0.49777275
 40
0.6225718258
 40
0.7474080878
 40
0.8731786423
 40
1.0
 40
1.0
 40
1.0
 40
1.0
 10
46.0719823547
 20
-35.2675114044
 30
0.0
 10
46.5360058234
 20
-35.2083193735
 30
0.0
 10
47.2306035843
 20
-35.0940658943
 30
0.0
 10
48.1429133113
 20
-34.8739417344
 30
0.0
 10
48.8188708028
 20
-34.669734698
 30
0.0
 10
49.4771141668
 20
-34.4124081527
 30
0.0
 10
50.1088127292
 20
-34.0902305618
 30
0.0
 10
50.6965672775
 20
-33.6854592857
 30
0.0
 10
51.0459709513
 20
-33.3590072351
 30
0.0
 10
51.2080456533
 20
-33.1833287529
 30
0.0
 11
46.0719823547
 21
-35.2675114044
 31
0.0
 11
47.4557323536
 21
-35.0337824474
 31
0.0
 11
48.1408381242
 21
-34.8676023131
 31
0.0
 11
48.8160349021
 21
-34.6608389155
 31
0.0
 11
49.4723801336
 21
-34.4017563446
 31
0.0
 11
50.0994396629
 21
-34.0777101173
 31
0.0
 11
50.6840350981
 21
-33.6728113176
 31
0.0
 11
51.2080456533
 21
-33.1833287529
 31
0.0
  0
SPLINE
  5
560
100
AcDbEntity
  8
0
100
AcDbSpline
 62
253
  6
CONTINUOUS
 70
0
 71
3
 72
9
 73
5
 74
3
 42
0.0000001
 43
0.0000001
 44
0.0000000001
 12
9.9998581606
 22
-8.2273356631
 32
0.0
 13
10.7467460799
 23
-7.2245182566
 33
0.0
 40
0.0
 40
0.0
 40
0.0
 40
0.0
 40
0.5005881121
 40
1.0
 40
1.0
 40
1.0
 40
1.0
 10
35.6980892442
 20
-27.5232642737
 30
0.0
 10
37.3666926169
 20
-28.8960997495
 30
0.0
 10
40.764856811
 20
-31.5604385126
 30
0.0
 10
44.2829655561
 20
-34.0648474512
 30
0.0
 10
46.0719831389
 20
-35.2675175517
 30
0.0
 11
35.6980892442
 21
-27.5232642737
 31
0.0
 11
40.7989105342
 21
-31.5234958043
 31
0.0
 11
46.0719831389
 21
-35.2675175517
 31
0.0
  0
SPLINE
  5
561
100
AcDbEntity
  8
SUPERFICI
100
AcDbSpline
 62
253
  6
CONTINUOUS
 70
0
 71
3
 72
10
 73
6
 74
4
 42
0.0000001
 43
0.0000001
 44
0.0000000001
 12
0.0206841944
 22
1.5485824729
 32
0.0
 13
-0.0176277865
 23
1.5486202803
 33
0.0
 40
0.0
 40
0.0
 40
0.0
 40
0.0
 40
0.2249577088
 40
0.4700901445
 40
1.0
 40
1.0
 40
1.0
 40
1.0
 10
-33.5804705535
 20
24.2026961296
 30
0.0
 10
-33.5789195305
 20
24.3188179846
 30
0.0
 10
-33.5757211356
 20
24.5614833259
 30
0.0
 10
-33.5776727603
 20
25.0777355106
 30
0.0
 10
-33.5825542458
 20
25.47781269
 30
0.0
 10
-33.5856679584
 20
25.7513557396
 30
0.0
 11
-33.5804705535
 21
24.2026961296
 31
0.0
 11
-33.5768009349
 21
24.5510734421
 31
0.0
 11
-33.577453988
 21
24.9307145344
 31
0.0
 11
-33.5856679584
 21
25.7513557396
 31
0.0
  0
SPLINE
  5
562
100
AcDbEntity
  8
SUPERFICI
100
AcDbSpline
 62
253
  6
CONTINUOUS
 70
0
 71
3
 72
11
 73
7
 74
5
 42
0.0000001
 43
0.0000001
 44
0.0000000001
 12
14.5251964361
 22
-9.746802029
 32
0.0
 13
15.2433139403
 23
-8.5803765314
 33
0.0
 40
0.0
 40
0.0
 40
0.0
 40
0.0
 40
0.267190548
 40
0.5258853324
 40
0.7656136338
 40
1.0
 40
1.0
 40
1.0
 40
1.0
 10
-52.1169783048
 20
31.8048055895
 30
0.0
 10
-50.8233132397
 20
30.9367211312
 30
0.0
 10
-48.2370805
 20
29.2877364233
 30
0.0
 10
-44.4093275839
 20
26.9904085488
 30
0.0
 10
-40.7209793435
 20
24.8330839371
 30
0.0
 10
-38.3185777866
 20
23.465222559
 30
0.0
 10
-37.1276361324
 20
22.7948481338
 30
0.0
 11
-52.1169783048
 21
31.8048055895
 31
0.0
 11
-48.1842051844
 21
29.279423454
 31
0.0
 11
-44.3099951298
 21
26.9411136969
 31
0.0
 11
-40.6899747965
 21
24.8244880739
 31
0.0
 11
-37.1276361324
 21
22.7948481338
 31
0.0
  0
SPLINE
  5
563
100
AcDbEntity
  8
SUPERFICI
100
AcDbSpline
 62
253
  6
CONTINUOUS
 70
0
 71
3
 72
9
 73
5
 74
3
 42
0.0000001
 43
0.0000001
 44
0.0000000001
 12
-1.1223547089
 22
-1.2165585224
 32
0.0
 13
-0.6918570588
 23
-1.5036716867
 33
0.0
 40
0.0
 40
0.0
 40
0.0
 40
0.0
 40
0.2533156105
 40
1.0
 40
1.0
 40
1.0
 40
1.0
 10
-51.2080658816
 20
33.1833469964
 30
0.0
 10
-51.3028358711
 20
33.0806225748
 30
0.0
 10
-51.6592981018
 20
32.6589294216
 30
0.0
 10
-51.9448163553
 20
32.1790789815
 30
0.0
 10
-52.1170159771
 20
31.804822923
 30
0.0
 11
-51.2080658816
 21
33.1833469964
 31
0.0
 11
-51.4788783765
 21
32.8632477744
 31
0.0
 11
-52.1170159771
 21
31.804822923
 31
0.0
  0
SPLINE
  5
564
100
AcDbEntity
  8
SUPERFICI
100
AcDbSpline
 62
253
  6
CONTINUOUS
 70
0
 71
3
 72
13
 73
9
 74
7
 42
0.0000001
 43
0.0000001
 44
0.0000000001
 12
-5.6068745739
 22
-0.7152298324
 32
0.0
 13
-3.8327002526
 23
-4.1543958615
 33
0.0
 40
0.0
 40
0.0
 40
0.0
 40
0.0
 40
0.2483651025
 40
0.3729930993
 40
0.4978849799
 40
0.747327745
 40
0.8732073066
 40
1.0
 40
1.0
 40
1.0
 40
1.0
 10
-46.0719419155
 20
35.2674896741
 30
0.0
 10
-46.5361259082
 20
35.2082769639
 30
0.0
 10
-47.2307280454
 20
35.0945243778
 30
0.0
 10
-48.1430126849
 20
34.8737829354
 30
0.0
 10
-49.0427017088
 20
34.6013682431
 30
0.0
 10
-49.9148921328
 20
34.223356889
 30
0.0
 10
-50.6967163185
 20
33.6854870066
 30
0.0
 10
-51.0460208477
 20
33.3588840403
 30
0.0
 10
-51.208006977
 20
33.1833016934
 30
0.0
 11
-46.0719419155
 21
35.2674896741
 31
0.0
 11
-47.4562081638
 21
35.0339018516
 31
0.0
 11
-48.140711455
 21
34.8675130396
 31
0.0
 11
-48.8156429816
 21
34.660628875
 31
0.0
 11
-50.0994108484
 21
34.0776744944
 31
0.0
 11
-50.6843436423
 21
33.6725814819
 31
0.0
 11
-51.208006977
 21
33.1833016934
 31
0.0
  0
SPLINE
  5
565
100
AcDbEntity
  8
SUPERFICI
100
AcDbSpline
 62
253
  6
CONTINUOUS
 70
0
 71
3
 72
9
 73
5
 74
3
 42
0.0000001
 43
0.0000001
 44
0.0000000001
 12
-11.9334399605
 22
10.2107252576
 32
0.0
 13
-13.0328738331
 23
8.7641371068
 33
0.0
 40
0.0
 40
0.0
 40
0.0
 40
0.0
 40
0.5007726882
 40
1.0
 40
1.0
 40
1.0
 40
1.0
 10
-33.5856679634
 20
25.7513559159
 30
0.0
 10
-35.5776482328
 20
27.4557733611
 30
0.0
 10
-39.6511812735
 20
30.7488472412
 30
0.0
 10
-43.9031530592
 20
33.8090574714
 30
0.0
 10
-46.0719419155
 20
35.2674896741
 30
0.0
 11
-33.5856679634
 21
25.7513559159
 31
0.0
 11
-39.7022240855
 21
30.6955402973
 31
0.0
 11
-46.0719419155
 21
35.2674896741
 31
0.0
  0
SPLINE
  5
566
100
AcDbEntity
  8
SUPERFICI
100
AcDbSpline
 62
253
  6
CONTINUOUS
 70
0
 71
3
 72
12
 73
8
 74
6
 42
0.0000001
 43
0.0000001
 44
0.0000000001
 12
1.7471259967
 22
3.5108046665
 32
0.0
 13
3.9172172058
 23
-0.1833248952
 33
0.0
 40
0.0
 40
0.0
 40
0.0
 40
0.0
 40
0.2498664409
 40
0.4996750512
 40
0.7495095618
 40
0.8747657204
 40
1.0
 40
1.0
 40
1.0
 40
1.0
 10
-36.7929579326
 20
23.876495728
 30
0.0
 10
-36.647441881
 20
24.1689064836
 30
0.0
 10
-36.2695344884
 20
24.714950655
 30
0.0
 10
-35.4940060233
 20
25.3345861158
 30
0.0
 10
-34.724954896
 20
25.6457465542
 30
0.0
 10
-34.0778783676
 20
25.7531095433
 30
0.0
 10
-33.7491912549
 20
25.7590087696
 30
0.0
 10
-33.5856679634
 20
25.7513559159
 30
0.0
 11
-36.7929579326
 21
23.876495728
 31
0.0
 11
-36.234704284
 21
24.6817681075
 31
0.0
 11
-35.4695571495
 21
25.2935002606
 31
0.0
 11
-34.5612163947
 21
25.6606275489
 31
0.0
 11
-34.0766686926
 21
25.7411489871
 31
0.0
 11
-33.5856679634
 21
25.7513559159
 31
0.0
  0
SPLINE
  5
567
100
AcDbEntity
  8
SUPERFICI
100
AcDbSpline
 62
253
  6
CONTINUOUS
 70
0
 71
3
 72
9
 73
5
 74
3
 42
0.0000001
 43
0.0000001
 44
0.0000000001
 12
14.0847931434
 22
-9.8008538355
 32
0.0
 13
14.5523066733
 23
-9.0922221863
 33
0.0
 40
0.0
 40
0.0
 40
0.0
 40
0.0
 40
0.532677902
 40
1.0
 40
1.0
 40
1.0
 40
1.0
 10
-51.208006977
 20
33.1833016934
 30
0.0
 10
-48.7071209564
 20
31.4430689405
 30
0.0
 10
-43.8961913675
 20
28.3454750584
 30
0.0
 10
-39.0598294276
 20
25.2928278438
 30
0.0
 10
-36.7929579326
 20
23.876495728
 30
0.0
 11
-51.208006977
 21
33.1833016934
 31
0.0
 11
-43.5745528747
 21
28.1557827455
 31
0.0
 11
-36.7929579326
 21
23.876495728
 31
0.0
  0
SPLINE
  5
568
100
AcDbEntity
  8
SUPERFICI
100
AcDbSpline
 62
253
  6
CONTINUOUS
 70
0
 71
3
 72
21
 73
17
 74
15
 42
0.0000001
 43
0.0000001
 44
0.0000000001
 12
-0.0250937089
 22
-1.6339675857
 32
0.0
 13
-1.4117356072
 23
-0.8230931543
 33
0.0
 40
0.0
 40
0.0
 40
0.0
 40
0.0
 40
0.1469059317
 40
0.312430593
 40
0.483790525
 40
0.6476244407
 40
0.7226514304
 40
0.7910875968
 40
0.8515892646
 40
0.9029633392
 40
0.9441836933
 40
0.9744496073
 40
0.9852615609
 40
0.9931293454
 40
0.9980314535
 40
1.0
 40
1.0
 40
1.0
 40
1.0
 10
33.5804715787
 20
24.2048084644
 30
0.0
 10
33.5792427738
 20
24.1247952876
 30
0.0
 10
33.5790641515
 20
23.9545995218
 30
0.0
 10
33.5790948293
 20
23.6910727757
 30
0.0
 10
33.5795837326
 20
23.4183208391
 30
0.0
 10
33.5795949954
 20
23.1948647806
 30
0.0
 10
33.5796230393
 20
23.0274752144
 30
0.0
 10
33.5796930888
 20
22.9163680249
 30
0.0
 10
33.5797195556
 20
22.8181593334
 30
0.0
 10
33.5797820997
 20
22.7347332746
 30
0.0
 10
33.5798069345
 20
22.667893336
 30
0.0
 10
33.579862969
 20
22.6228826526
 30
0.0
 10
33.5799365094
 20
22.5964708199
 30
0.0
 10
33.5803043406
 20
22.5832020552
 30
0.0
 10
33.5793786307
 20
22.5759653928
 30
0.0
 10
33.579521642
 20
22.571333727
 30
0.0
 10
33.5785952863
 20
22.5707936279
 30
0.0
 11
33.5804715787
 21
24.2048084644
 31
0.0
 11
33.5791186682
 21
23.9647444406
 31
0.0
 11
33.5791687118
 21
23.6942506212
 31
0.0
 11
33.5795079496
 21
23.4142212351
 31
0.0
 11
33.5796046036
 21
23.1464903778
 31
0.0
 11
33.5796335355
 21
23.0238842559
 31
0.0
 11
33.5796886705
 21
22.9120486059
 31
0.0
 11
33.5797294594
 21
22.8131791929
 31
0.0
 11
33.5797803649
 21
22.7292257371
 31
0.0
 11
33.5798205276
 21
22.6618650844
 31
0.0
 11
33.5798945366
 21
22.6124057857
 31
0.0
 11
33.5800291435
 21
22.5947378336
 31
0.0
 11
33.5799705202
 21
22.5818807465
 31
0.0
 11
33.5794868577
 21
22.5738845304
 31
0.0
 11
33.5785952863
 21
22.5707936279
 31
0.0
  0
SPLINE
  5
569
100
AcDbEntity
  8
SUPERFICI
100
AcDbSpline
 62
253
  6
CONTINUOUS
 70
0
 71
3
 72
9
 73
5
 74
3
 42
0.0000001
 43
0.0000001
 44
0.0000000001
 12
-0.0115197343
 22
-0.8701227103
 32
0.0
 13
0.0310474527
 23
-0.8696449224
 33
0.0
 40
0.0
 40
0.0
 40
0.0
 40
0.0
 40
0.2446991232
 40
1.0
 40
1.0
 40
1.0
 40
1.0
 10
37.1551547683
 20
22.2456407172
 30
0.0
 10
37.1542151453
 20
22.1746679624
 30
0.0
 10
37.1526759902
 20
21.884598395
 30
0.0
 10
37.15860378
 20
21.59451235
 30
0.0
 10
37.1664205028
 20
21.3755644925
 30
0.0
 11
37.1551547683
 21
22.2456407172
 31
0.0
 11
37.1539089887
 21
22.0327074381
 31
0.0
 11
37.1664205028
 21
21.3755644925
 31
0.0
  0
SPLINE
  5
56A
100
AcDbEntity
  8
SUPERFICI
100
AcDbSpline
 62
253
  6
CONTINUOUS
 70
0
 71
3
 72
8
 73
4
 74
2
 42
0.0000001
 43
0.0000001
 44
0.0000000001
 12
0.073494519
 22
-0.5449669161
 32
0.0
 13
-0.0219507667
 23
-0.5494620531
 33
0.0
 40
0.0
 40
0.0
 40
0.0
 40
0.0
 40
1.0
 40
1.0
 40
1.0
 40
1.0
 10
37.1276355954
 20
22.7948484761
 30
0.0
 10
37.1521337684
 20
22.6131928374
 30
0.0
 10
37.1625274417
 20
22.4287939656
 30
0.0
 10
37.1552105195
 20
22.2456399479
 30
0.0
 11
37.1276355954
 21
22.7948484761
 31
0.0
 11
37.1552105195
 21
22.2456399479
 31
0.0
  0
SPLINE
  5
56B
100
AcDbEntity
  8
SUPERFICI
100
AcDbSpline
 62
253
  6
CONTINUOUS
 70
0
 71
3
 72
11
 73
7
 74
5
 42
0.0000001
 43
0.0000001
 44
0.0000000001
 12
0.8344721214
 22
-1.8136217969
 32
0.0
 13
0.4318202791
 23
-1.9491277511
 33
0.0
 40
0.0
 40
0.0
 40
0.0
 40
0.0
 40
0.250343554
 40
0.5003753304
 40
0.7502610047
 40
1.0
 40
1.0
 40
1.0
 40
1.0
 10
52.1169883064
 20
31.8048111424
 30
0.0
 10
52.1866232119
 20
31.6534683003
 30
0.0
 10
52.3119635748
 20
31.3444060932
 30
0.0
 10
52.4616943814
 20
30.8678016689
 30
0.0
 10
52.5909896296
 20
30.3859557967
 30
0.0
 10
52.6712314077
 20
30.0632230689
 30
0.0
 10
52.7071788619
 20
29.9009653335
 30
0.0
 11
52.1169883064
 21
31.8048111424
 31
0.0
 11
52.3056638208
 21
31.3420102851
 31
0.0
 11
52.4583347493
 21
30.8667704518
 31
0.0
 11
52.5895316016
 21
30.3854622391
 31
0.0
 11
52.7071788619
 21
29.9009653335
 31
0.0
  0
SPLINE
  5
56C
100
AcDbEntity
  8
SUPERFICI
100
AcDbSpline
 62
253
  6
CONTINUOUS
 70
0
 71
3
 72
11
 73
7
 74
5
 42
0.0000001
 43
0.0000001
 44
0.0000000001
 12
-0.0361179932
 22
2.3009029302
 32
0.0
 13
-0.0645453019
 23
2.3002810062
 33
0.0
 40
0.0
 40
0.0
 40
0.0
 40
0.0
 40
0.2499998853
 40
0.4999947433
 40
0.7500066653
 40
1.0
 40
1.0
 40
1.0
 40
1.0
 10
58.9633907928
 20
34.5849363836
 30
0.0
 10
58.9603809614
 20
34.7766782065
 30
0.0
 10
58.954851355
 20
35.1601616991
 30
0.0
 10
58.9481606827
 20
35.7354442169
 30
0.0
 10
58.9486910379
 20
36.3107102987
 30
0.0
 10
58.9512714434
 20
36.6943397502
 30
0.0
 10
58.9458928117
 20
36.8860247234
 30
0.0
 11
58.9633907928
 21
34.5849363836
 31
0.0
 11
58.955118616
 21
35.1601732415
 31
0.0
 11
58.9493642638
 21
35.7354292264
 31
0.0
 11
58.9492478004
 21
36.3107532469
 31
0.0
 11
58.9458928117
 21
36.8860247234
 31
0.0
  0
SPLINE
  5
56D
100
AcDbEntity
  8
SUPERFICI
100
AcDbSpline
 62
253
  6
CONTINUOUS
 70
0
 71
3
 72
11
 73
7
 74
5
 42
0.0000001
 43
0.0000001
 44
0.0000000001
 12
-5.8820596173
 22
-5.1559507412
 32
0.0
 13
-6.5573878076
 23
-4.2641668036
 33
0.0
 40
0.0
 40
0.0
 40
0.0
 40
0.0
 40
0.2570948248
 40
0.5088435963
 40
0.753590276
 40
1.0
 40
1.0
 40
1.0
 40
1.0
 10
58.9629481342
 20
34.5854580244
 30
0.0
 10
58.4588657719
 20
34.1436019402
 30
0.0
 10
57.4422308332
 20
33.2905000221
 30
0.0
 10
55.8884724358
 20
32.0870365506
 30
0.0
 10
54.3116575096
 20
30.9613283397
 30
0.0
 10
53.245699651
 20
30.2513178342
 30
0.0
 10
52.7070982778
 20
29.9010737792
 30
0.0
 11
58.9629481342
 21
34.5854580244
 31
0.0
 11
57.4232524387
 21
33.2918740071
 31
0.0
 11
55.8662883726
 21
32.0862826978
 31
0.0
 11
54.3093571867
 21
30.9723475186
 31
0.0
 11
52.7070982778
 21
29.9010737792
 31
0.0
  0
SPLINE
  5
56E
100
AcDbEntity
  8
SUPERFICI
100
AcDbSpline
 62
253
  6
CONTINUOUS
 70
0
 71
3
 72
11
 73
7
 74
5
 42
0.0000001
 43
0.0000001
 44
0.0000000001
 12
-0.3314911332
 22
3.3136776177
 32
0.0
 13
-0.7202772063
 23
3.2513914669
 33
0.0
 40
0.0
 40
0.0
 40
0.0
 40
0.0
 40
0.2499944588
 40
0.4999997748
 40
0.7500136038
 40
1.0
 40
1.0
 40
1.0
 40
1.0
 10
53.1734617182
 20
26.6049433242
 30
0.0
 10
53.1458380694
 20
26.8810770051
 30
0.0
 10
53.0884493902
 20
27.4331586353
 30
0.0
 10
52.9863082055
 20
28.2595070795
 30
0.0
 10
52.867098663
 20
29.0835223334
 30
0.0
 10
52.7672461715
 20
29.6298638186
 30
0.0
 10
52.7072263371
 20
29.9007983638
 30
0.0
 11
53.1734617182
 21
26.6049433242
 31
0.0
 11
53.085774708
 21
27.4328484332
 31
0.0
 11
52.9834644645
 21
28.2591103167
 31
0.0
 11
52.86199874
 21
29.0828028395
 31
0.0
 11
52.7072263371
 21
29.9007983638
 31
0.0
  0
SPLINE
  5
56F
100
AcDbEntity
  8
SUPERFICI
100
AcDbSpline
 62
253
  6
CONTINUOUS
 70
0
 71
3
 72
11
 73
7
 74
5
 42
0.0000001
 43
0.0000001
 44
0.0000000001
 12
-14.8682191823
 22
-9.6685357697
 32
0.0
 13
-15.9753780405
 23
-7.7027152385
 33
0.0
 40
0.0
 40
0.0
 40
0.0
 40
0.0
 40
0.2523437966
 40
0.5048635679
 40
0.7529858864
 40
1.0
 40
1.0
 40
1.0
 40
1.0
 10
52.7072263371
 20
29.9007983638
 30
0.0
 10
51.4565920449
 20
29.087533356
 30
0.0
 10
48.9059286584
 20
27.5347474745
 30
0.0
 10
45.0162031319
 20
25.3690686936
 30
0.0
 10
41.1045055465
 20
23.3103278451
 30
0.0
 10
38.4817534072
 20
22.0098582999
 30
0.0
 10
37.1663721252
 20
21.375631841
 30
0.0
 11
52.7072263371
 21
29.9007983638
 31
0.0
 11
48.892495704
 21
27.560455408
 31
0.0
 11
44.9850537099
 21
25.3720273936
 31
0.0
 11
41.0906152251
 21
23.3230804688
 31
0.0
 11
37.1663721252
 21
21.375631841
 31
0.0
  0
SPLINE
  5
570
100
AcDbEntity
  8
SUPERFICI
100
AcDbSpline
 62
7
  6
CONTINUOUS
 70
0
 71
3
 72
8
 73
4
 74
2
 42
0.0000001
 43
0.0000001
 44
0.0000000001
 12
-0.4177012474
 22
-0.5358579696
 32
0.0
 13
-0.0127368938
 23
-0.674932292
 33
0.0
 40
0.0
 40
0.0
 40
0.0
 40
0.0
 40
1.0
 40
1.0
 40
1.0
 40
1.0
 10
-105.1965428868
 20
24.2006340005
 30
0.0
 10
-105.3357766359
 20
24.0220146772
 30
0.0
 10
-105.4124243801
 20
23.7955423988
 30
0.0
 10
-105.4166700114
 20
23.5705649682
 30
0.0
 11
-105.1965428868
 21
24.2006340005
 31
0.0
 11
-105.4166700114
 21
23.5705649682
 31
0.0
  0
SPLINE
  5
571
100
AcDbEntity
  8
SUPERFICI
100
AcDbSpline
 62
7
  6
CONTINUOUS
 70
0
 71
3
 72
9
 73
5
 74
3
 42
0.0000001
 43
0.0000001
 44
0.0000000001
 12
-0.0304259855
 22
0.0858971239
 32
0.0
 13
-0.0140931573
 23
0.0900302139
 33
0.0
 40
0.0
 40
0.0
 40
0.0
 40
0.0
 40
0.3054915371
 40
1.0
 40
1.0
 40
1.0
 40
1.0
 10
-101.7454145792
 20
-39.105800623
 30
0.0
 10
-101.7485128729
 20
-39.0970536749
 30
0.0
 10
-101.758481742
 20
-39.0683623219
 30
0.0
 10
-101.7655668269
 20
-39.0386662736
 30
0.0
 10
-101.7688294326
 20
-39.0178240251
 30
0.0
 11
-101.7454145792
 21
-39.105800623
 31
0.0
 11
-101.7543345538
 21
-39.0794299806
 31
0.0
 11
-101.7688294326
 21
-39.0178240251
 31
0.0
  0
LINE
  5
572
100
AcDbEntity
  8
SUPERFICI
100
AcDbLine
 62
7
  6
CONTINUOUS
 10
-101.7688294326
 20
-39.0178240251
 11
-101.7694424856
 21
-39.0126712599
  0
LINE
  5
573
100
AcDbEntity
  8
SUPERFICI
100
AcDbLine
 62
7
  6
CONTINUOUS
 10
-102.7992358057
 20
-35.7922514869
 11
-102.7957358947
 21
-35.8048231724
  0
SPLINE
  5
574
100
AcDbEntity
  8
SUPERFICI
100
AcDbSpline
 62
7
  6
CONTINUOUS
 70
0
 71
3
 72
9
 73
5
 74
3
 42
0.0000001
 43
0.0000001
 44
0.0000000001
 12
0.4578270901
 22
-1.6439088562
 32
0.0
 13
0.5157300195
 23
-1.6266728371
 33
0.0
 40
0.0
 40
0.0
 40
0.0
 40
0.0
 40
0.2588828253
 40
1.0
 40
1.0
 40
1.0
 40
1.0
 10
-102.7957358947
 20
-35.8048231724
 30
0.0
 10
-102.7562280379
 20
-35.9466830955
 30
0.0
 10
-102.6018765539
 20
-36.4941619904
 30
0.0
 10
-102.4386041034
 20
-37.0391559763
 30
0.0
 10
-102.311198645
 20
-37.4410077021
 30
0.0
 11
-102.7957358947
 21
-35.8048231724
 31
0.0
 11
-102.6757122554
 21
-36.2299823223
 31
0.0
 11
-102.311198645
 21
-37.4410077021
 31
0.0
  0
LINE
  5
575
100
AcDbEntity
  8
SUPERFICI
100
AcDbLine
 62
7
  6
CONTINUOUS
 10
-104.5402560814
 20
-25.8213737971
 11
-104.5390506363
 21
-25.8512042702
  0
LINE
  5
576
100
AcDbEntity
  8
SUPERFICI
100
AcDbLine
 62
7
  6
CONTINUOUS
 10
-104.5389381019
 20
-25.8543362961
 11
-104.5387782857
 21
-25.8588761303
  0
LINE
  5
577
100
AcDbEntity
  8
SUPERFICI
100
AcDbLine
 62
7
  6
CONTINUOUS
 10
-105.2014393242
 20
-24.2025937776
 11
-105.1909496025
 21
-24.2155674977
  0
LINE
  5
578
100
AcDbEntity
  8
SUPERFICI
100
AcDbLine
 62
7
  6
CONTINUOUS
 10
-103.9958331599
 20
-30.420694231
 11
-103.9891420731
 21
-30.4615477923
  0
LINE
  5
579
100
AcDbEntity
  8
SUPERFICI
100
AcDbLine
 62
7
  6
CONTINUOUS
 10
-103.913541601
 20
-30.9104042112
 11
-103.9006035929
 21
-30.9850022237
  0
LINE
  5
57A
100
AcDbEntity
  8
SUPERFICI
100
AcDbLine
 62
7
  6
CONTINUOUS
 10
-103.8268719498
 20
-31.3987548976
 11
-103.8199818147
 21
-31.4364726959
  0
LINE
  5
57B
100
AcDbEntity
  8
SUPERFICI
100
AcDbLine
 62
7
  6
CONTINUOUS
 10
-103.8199818147
 20
-31.4364726959
 11
-103.813891126
 21
-31.4696842903
  0
LINE
  5
57C
100
AcDbEntity
  8
SUPERFICI
100
AcDbLine
 62
7
  6
CONTINUOUS
 10
-103.813891126
 20
-31.4696842903
 11
-103.8094802422
 21
-31.4936605762
  0
LINE
  5
57D
100
AcDbEntity
  8
SUPERFICI
100
AcDbLine
 62
7
  6
CONTINUOUS
 10
-103.8094802422
 20
-31.4936605762
 11
-103.7940201712
 21
-31.577200627
  0
LINE
  5
57E
100
AcDbEntity
  8
SUPERFICI
100
AcDbLine
 62
7
  6
CONTINUOUS
 10
-103.7940201712
 20
-31.577200627
 11
-103.7760485651
 21
-31.6733535975
  0
LINE
  5
57F
100
AcDbEntity
  8
SUPERFICI
100
AcDbLine
 62
7
  6
CONTINUOUS
 10
-103.7760485651
 20
-31.6733535975
 11
-103.7634922648
 21
-31.7399298453
  0
LINE
  5
580
100
AcDbEntity
  8
SUPERFICI
100
AcDbLine
 62
7
  6
CONTINUOUS
 10
-103.7634922648
 20
-31.7399298453
 11
-103.7504794515
 21
-31.808409332
  0
LINE
  5
581
100
AcDbEntity
  8
SUPERFICI
100
AcDbLine
 62
7
  6
CONTINUOUS
 10
-103.7504794515
 20
-31.808409332
 11
-103.7373903955
 21
-31.8767648128
  0
LINE
  5
582
100
AcDbEntity
  8
SUPERFICI
100
AcDbLine
 62
7
  6
CONTINUOUS
 10
-103.7373903955
 20
-31.8767648128
 11
-103.7353824103
 21
-31.8872049736
  0
LINE
  5
583
100
AcDbEntity
  8
SUPERFICI
100
AcDbLine
 62
7
  6
CONTINUOUS
 10
-103.6133778064
 20
-32.4994394686
 11
-103.594312541
 21
-32.5913632954
  0
LINE
  5
584
100
AcDbEntity
  8
SUPERFICI
100
AcDbLine
 62
7
  6
CONTINUOUS
 10
-103.1120129628
 20
-34.6518997591
 11
-103.0848777016
 21
-34.7560452288
  0
LINE
  5
585
100
AcDbEntity
  8
SUPERFICI
100
AcDbLine
 62
7
  6
CONTINUOUS
 10
-104.5386955072
 20
-25.8603337678
 11
-104.5383134085
 21
-25.8732299885
  0
SPLINE
  5
586
100
AcDbEntity
  8
SUPERFICI
100
AcDbSpline
 62
7
  6
CONTINUOUS
 70
0
 71
3
 72
9
 73
5
 74
3
 42
0.0000001
 43
0.0000001
 44
0.0000000001
 12
-0.8912084973
 22
3.3099166634
 32
0.0
 13
-0.652603198
 23
3.3651017771
 33
0.0
 40
0.0
 40
0.0
 40
0.0
 40
0.0
 40
0.4868167458
 40
1.0
 40
1.0
 40
1.0
 40
1.0
 10
-102.9537548613
 20
-35.2281155305
 30
0.0
 10
-103.0983732682
 20
-34.6910079108
 30
0.0
 10
-103.3811327424
 20
-33.5837385963
 30
0.0
 10
-103.6217597021
 20
-32.4663800131
 30
0.0
 10
-103.733394713
 20
-31.8907420529
 30
0.0
 11
-102.9537548613
 21
-35.2281155305
 31
0.0
 11
-103.3636923548
 21
-33.6105423607
 31
0.0
 11
-103.733394713
 21
-31.8907420529
 31
0.0
  0
LINE
  5
587
100
AcDbEntity
  8
SUPERFICI
100
AcDbLine
 62
7
  6
CONTINUOUS
 10
-103.733394713
 20
-31.8907420529
 11
-103.7354315521
 21
-31.8802325976
  0
LINE
  5
588
100
AcDbEntity
  8
SUPERFICI
100
AcDbLine
 62
7
  6
CONTINUOUS
 10
-103.7747119446
 20
-31.6749122724
 11
-103.7862911798
 21
-31.6134038876
  0
LINE
  5
589
100
AcDbEntity
  8
SUPERFICI
100
AcDbLine
 62
7
  6
CONTINUOUS
 10
-104.5366714462
 20
-25.8848419296
 11
-104.5385150325
 21
-25.8614857451
  0
SPLINE
  5
58A
100
AcDbEntity
  8
0
100
AcDbSpline
 62
7
  6
CONTINUOUS
 70
0
 71
3
 72
9
 73
5
 74
3
 42
0.0000001
 43
0.0000001
 44
0.0000000001
 12
0.0061760483
 22
0.0
 32
0.0
 13
-0.0000388894
 23
0.0061759258
 33
0.0
 40
0.0
 40
0.0
 40
0.0
 40
0.0
 40
0.2543721928
 40
1.0
 40
1.0
 40
1.0
 40
1.0
 10
-104.3992444043
 20
-27.1267815041
 30
0.0
 10
-104.3987207326
 20
-27.1267815041
 30
0.0
 10
-104.3992487618
 20
-27.123512563
 30
0.0
 10
-104.3987700236
 20
-27.1221756788
 30
0.0
 10
-104.3987796893
 20
-27.1206406982
 30
0.0
 11
-104.3992444043
 21
-27.1267815041
 31
0.0
 11
-104.3989242214
 21
-27.1252434628
 31
0.0
 11
-104.3987796893
 21
-27.1206406982
 31
0.0
  0
SPLINE
  5
58B
100
AcDbEntity
  8
SUPERFICI
100
AcDbSpline
 62
7
  6
CONTINUOUS
 70
0
 71
3
 72
9
 73
5
 74
3
 42
0.0000001
 43
0.0000001
 44
0.0000000001
 12
0.0078865058
 22
0.0856116954
 32
0.0
 13
0.0280203266
 23
0.0812798908
 33
0.0
 40
0.0
 40
0.0
 40
0.0
 40
0.0
 40
0.312518103
 40
1.0
 40
1.0
 40
1.0
 40
1.0
 10
-101.7694424587
 20
39.0126712651
 30
0.0
 10
-101.7686209001
 20
39.0215896666
 30
0.0
 10
-101.7625776492
 20
39.0496981696
 30
0.0
 10
-101.7552444724
 20
39.0774233992
 30
0.0
 10
-101.7488233166
 20
39.0960495504
 30
0.0
 11
-101.7694424587
 21
39.0126712651
 31
0.0
 11
-101.7647176655
 21
39.0391210653
 31
0.0
 11
-101.7488233166
 21
39.0960495504
 31
0.0
  0
LINE
  5
58C
100
AcDbEntity
  8
SUPERFICI
100
AcDbLine
 62
7
  6
CONTINUOUS
 10
-104.5416046769
 20
25.8005790632
 11
-104.5457041201
 21
25.7593603105
  0
LINE
  5
58D
100
AcDbEntity
  8
SUPERFICI
100
AcDbLine
 62
7
  6
CONTINUOUS
 10
-104.538753288
 20
25.859597234
 11
-104.5402560636
 21
25.8213738035
  0
LINE
  5
58E
100
AcDbEntity
  8
SUPERFICI
100
AcDbLine
 62
7
  6
CONTINUOUS
 10
-105.200355413
 20
24.2040192642
 11
-105.1915793165
 21
24.2148674767
  0
LINE
  5
58F
100
AcDbEntity
  8
SUPERFICI
100
AcDbLine
 62
7
  6
CONTINUOUS
 10
-103.0814546449
 20
34.7691166926
 11
-103.1088665813
 21
34.6640240916
  0
LINE
  5
590
100
AcDbEntity
  8
SUPERFICI
100
AcDbLine
 62
7
  6
CONTINUOUS
 10
-103.581839638
 20
32.6509824292
 11
-103.6023641613
 21
32.552659973
  0
LINE
  5
591
100
AcDbEntity
  8
SUPERFICI
100
AcDbLine
 62
7
  6
CONTINUOUS
 10
-103.7944580641
 20
31.5748448705
 11
-103.8006746829
 21
31.5413364123
  0
LINE
  5
592
100
AcDbEntity
  8
SUPERFICI
100
AcDbLine
 62
7
  6
CONTINUOUS
 10
-103.8006746829
 20
31.5413364123
 11
-103.8071476756
 21
31.5063140776
  0
LINE
  5
593
100
AcDbEntity
  8
SUPERFICI
100
AcDbLine
 62
7
  6
CONTINUOUS
 10
-103.8071476756
 20
31.5063140776
 11
-103.8094682734
 21
31.4937254367
  0
LINE
  5
594
100
AcDbEntity
  8
SUPERFICI
100
AcDbLine
 62
7
  6
CONTINUOUS
 10
-104.3161376437
 20
28.1637804342
 11
-104.3184557331
 21
28.1444451306
  0
LINE
  5
595
100
AcDbEntity
  8
SUPERFICI
100
AcDbLine
 62
7
  6
CONTINUOUS
 10
-102.7992397761
 20
35.7922349987
 11
-102.7992392878
 21
35.8057270752
  0
SPLINE
  5
596
100
AcDbEntity
  8
SUPERFICI
100
AcDbSpline
 62
7
  6
CONTINUOUS
 70
0
 71
3
 72
9
 73
5
 74
3
 42
0.0000001
 43
0.0000001
 44
0.0000000001
 12
0.4001934435
 22
3.3645047806
 32
0.0
 13
0.6161593142
 23
3.3317255155
 33
0.0
 40
0.0
 40
0.0
 40
0.0
 40
0.0
 40
0.2561429319
 40
1.0
 40
1.0
 40
1.0
 40
1.0
 10
-104.3131838514
 20
28.1447909672
 30
0.0
 10
-104.2790149441
 20
28.4320556736
 30
0.0
 10
-104.1369800027
 20
29.5524994344
 30
0.0
 10
-103.9612694874
 20
30.6687805804
 30
0.0
 10
-103.8084913338
 20
31.4948897716
 30
0.0
 11
-104.3131838514
 21
28.1447909672
 31
0.0
 11
-104.2040430239
 21
29.0057700676
 31
0.0
 11
-103.8084913338
 21
31.4948897716
 31
0.0
  0
LINE
  5
597
100
AcDbEntity
  8
SUPERFICI
100
AcDbLine
 62
7
  6
CONTINUOUS
 10
-103.8084913338
 20
31.4948897716
 11
-103.8052864738
 21
31.5122009633
  0
SPLINE
  5
598
100
AcDbEntity
  8
SUPERFICI
100
AcDbSpline
 62
7
  6
CONTINUOUS
 70
0
 71
3
 72
9
 73
5
 74
3
 42
0.0000001
 43
0.0000001
 44
0.0000000001
 12
0.6189963416
 22
3.1986153447
 32
0.0
 13
0.836993157
 23
3.1486090658
 33
0.0
 40
0.0
 40
0.0
 40
0.0
 40
0.0
 40
0.2590799338
 40
1.0
 40
1.0
 40
1.0
 40
1.0
 10
-103.7378354579
 20
31.868333524
 30
0.0
 10
-103.6843789475
 20
32.1445658745
 30
0.0
 10
-103.4680690359
 20
33.2088513375
 30
0.0
 10
-103.2102111017
 20
34.2644177271
 30
0.0
 10
-103.0034960932
 20
35.042040273
 30
0.0
 11
-103.7378354579
 21
31.868333524
 31
0.0
 11
-103.5695070288
 21
32.6954506438
 31
0.0
 11
-103.0034960932
 21
35.042040273
 31
0.0
  0
SPLINE
  5
599
100
AcDbEntity
  8
SUPERFICI
100
AcDbSpline
 62
7
  6
CONTINUOUS
 70
0
 71
3
 72
8
 73
4
 74
2
 42
0.0000001
 43
0.0000001
 44
0.0000000001
 12
0.5111570944
 22
-0.6264220205
 32
0.0
 13
0.3237964867
 23
-0.7408386856
 33
0.0
 40
0.0
 40
0.0
 40
0.0
 40
0.0
 40
1.0
 40
1.0
 40
1.0
 40
1.0
 10
-105.1992975417
 20
-24.2026961646
 30
0.0
 10
-105.0289118436
 20
-24.4115035048
 30
0.0
 10
-104.8868569911
 20
-24.6463821864
 30
0.0
 10
-104.7789248289
 20
-24.893328415
 30
0.0
 11
-105.1992975417
 21
-24.2026961646
 31
0.0
 11
-104.7789248289
 21
-24.893328415
 31
0.0
  0
SPLINE
  5
59A
100
AcDbEntity
  8
SUPERFICI
100
AcDbSpline
 62
7
  6
CONTINUOUS
 70
0
 71
3
 72
8
 73
4
 74
2
 42
0.0000001
 43
0.0000001
 44
0.0000000001
 12
-0.3237981481
 22
-0.7408495195
 32
0.0
 13
-0.5111638189
 23
-0.6264302048
 33
0.0
 40
0.0
 40
0.0
 40
0.0
 40
0.0
 40
1.0
 40
1.0
 40
1.0
 40
1.0
 10
-104.7789205781
 20
24.8933381026
 30
0.0
 10
-104.8868532941
 20
24.6463882628
 30
0.0
 10
-105.0289096631
 20
24.4115061447
 30
0.0
 10
-105.1992976028
 20
24.2026960764
 30
0.0
 11
-104.7789205781
 21
24.8933381026
 31
0.0
 11
-105.1992976028
 21
24.2026960764
 31
0.0
  0
LINE
  5
59B
100
AcDbEntity
  8
SUPERFICI
100
AcDbLine
 62
7
  6
CONTINUOUS
 10
-104.5461208842
 20
25.7550710936
 11
-104.5465805962
 21
25.7493757681
  0
LINE
  5
59C
100
AcDbEntity
  8
SUPERFICI
100
AcDbLine
 62
7
  6
CONTINUOUS
 10
-102.3011113551
 20
37.4727793959
 11
-102.3063891983
 21
37.4561670043
  0
SPLINE
  5
59D
100
AcDbEntity
  8
SUPERFICI
100
AcDbSpline
 62
7
  6
CONTINUOUS
 70
0
 71
3
 72
9
 73
5
 74
3
 42
0.0000001
 43
0.0000001
 44
0.0000000001
 12
-0.5157319941
 22
-1.6266790618
 32
0.0
 13
-0.4578288365
 23
-1.6439151488
 33
0.0
 40
0.0
 40
0.0
 40
0.0
 40
0.0
 40
0.2455759109
 40
1.0
 40
1.0
 40
1.0
 40
1.0
 10
-102.3111986208
 20
37.4410077021
 30
0.0
 10
-102.3534157389
 20
37.3078499713
 30
0.0
 10
-102.5225753839
 20
36.7647499514
 30
0.0
 10
-102.6806035775
 20
36.2182259709
 30
0.0
 10
-102.7957359452
 20
35.804822908
 30
0.0
 11
-102.3111986208
 21
37.4410077021
 31
0.0
 11
-102.4358274964
 21
37.0408989166
 31
0.0
 11
-102.7957359452
 21
35.804822908
 31
0.0
  0
LINE
  5
59E
100
AcDbEntity
  8
SUPERFICI
100
AcDbLine
 62
7
  6
CONTINUOUS
 10
-102.7957359452
 20
35.804822908
 11
-102.7992332881
 21
35.7922604497
  0
LINE
  5
59F
100
AcDbEntity
  8
SUPERFICI
100
AcDbLine
 62
7
  6
CONTINUOUS
 10
-102.799239314
 20
-35.8057270622
 11
-102.7992398008
 21
-35.7922349935
  0
LINE
  5
5A0
100
AcDbEntity
  8
SUPERFICI
100
AcDbLine
 62
7
  6
CONTINUOUS
 10
-104.5458012407
 20
-25.7583827373
 11
-104.541846466
 21
-25.7975180042
  0
LINE
  5
5A1
100
AcDbEntity
  8
SUPERFICI
100
AcDbLine
 62
7
  6
CONTINUOUS
 10
-104.5465806119
 20
-25.74937413
 11
-104.5461211608
 21
-25.7550680392
  0
LINE
  5
5A2
100
AcDbEntity
  8
SUPERFICI
100
AcDbLine
 62
7
  6
CONTINUOUS
 10
-102.3063888582
 20
-37.456168152
 11
-102.3010930504
 21
-37.4728370452
  0
SPLINE
  5
5A3
100
AcDbEntity
  8
SUPERFICI
100
AcDbSpline
 62
7
  6
CONTINUOUS
 70
0
 71
3
 72
8
 73
4
 74
2
 42
0.0000001
 43
0.0000001
 44
0.0000000001
 12
0.0127368954
 22
-0.6749324143
 32
0.0
 13
0.4177013906
 23
-0.5358580151
 33
0.0
 40
0.0
 40
0.0
 40
0.0
 40
0.0
 40
1.0
 40
1.0
 40
1.0
 40
1.0
 10
-105.4166700277
 20
-23.5705649606
 30
0.0
 10
-105.4124243959
 20
-23.795542432
 30
0.0
 10
-105.3357766249
 20
-24.0220147518
 30
0.0
 10
-105.196542828
 20
-24.2006340902
 30
0.0
 11
-105.4166700277
 21
-23.5705649606
 31
0.0
 11
-105.196542828
 21
-24.2006340902
 31
0.0
  0
LINE
  5
5A4
100
AcDbEntity
  8
0
100
AcDbLine
 62
7
  6
CONTINUOUS
 10
-104.3517989656
 20
-27.8369130153
 11
-104.374548835
 21
-27.6423697601
  0
SPLINE
  5
5A5
100
AcDbEntity
  8
0
100
AcDbSpline
 62
7
  6
CONTINUOUS
 70
0
 71
3
 72
9
 73
5
 74
3
 42
0.0000001
 43
0.0000001
 44
0.0000000001
 12
-0.0034699619
 22
0.069425827
 32
0.0
 13
-0.0061250525
 23
0.0692421102
 33
0.0
 40
0.0
 40
0.0
 40
0.0
 40
0.0
 40
0.1602838774
 40
1.0
 40
1.0
 40
1.0
 40
1.0
 10
-104.3988615927
 20
-27.1178328434
 30
0.0
 10
-104.3990469857
 20
-27.1141235631
 30
0.0
 10
-104.4004277672
 20
-27.0909931325
 30
0.0
 10
-104.4023618425
 20
-27.0678994847
 30
0.0
 10
-104.4040762776
 20
-27.048518246
 30
0.0
 11
-104.3988615927
 21
-27.1178328434
 31
0.0
 11
-104.3995038343
 21
-27.1067096379
 31
0.0
 11
-104.4040762776
 21
-27.048518246
 31
0.0
  0
SPLINE
  5
5A6
100
AcDbEntity
  8
0
100
AcDbSpline
 62
7
  6
CONTINUOUS
 70
0
 71
3
 72
14
 73
10
 74
8
 42
0.0000001
 43
0.0000001
 44
0.0000000001
 12
-0.0262198025
 22
0.2251182252
 32
0.0
 13
-0.2266400083
 23
0.0
 33
0.0
 40
0.0
 40
0.0
 40
0.0
 40
0.0
 40
0.4046887915
 40
0.5767402864
 40
0.7233168984
 40
0.8411960028
 40
0.9277014234
 40
0.9808973784
 40
1.0
 40
1.0
 40
1.0
 40
1.0
 10
-104.4460052793
 20
-26.6451711371
 30
0.0
 10
-104.4495422327
 20
-26.6148035296
 30
0.0
 10
-104.4547084996
 20
-26.5714988762
 30
0.0
 10
-104.461744446
 20
-26.5174022136
 30
0.0
 10
-104.4661427166
 20
-26.4845122339
 30
0.0
 10
-104.4702835169
 20
-26.4588788568
 30
0.0
 10
-104.4729340163
 20
-26.438293192
 30
0.0
 10
-104.4763185863
 20
-26.4290563973
 30
0.0
 10
-104.4767290926
 20
-26.4210515041
 30
0.0
 10
-104.478172232
 20
-26.4210515041
 30
0.0
 11
-104.4460052793
 21
-26.6451711371
 31
0.0
 11
-104.4570109429
 21
-26.5541151654
 31
0.0
 11
-104.462024646
 21
-26.5154450801
 31
0.0
 11
-104.4665718044
 21
-26.4825376338
 31
0.0
 11
-104.4705511215
 21
-26.4561195307
 31
0.0
 11
-104.473867218
 21
-26.4367964194
 31
0.0
 11
-104.4764332521
 21
-26.4250163259
 31
0.0
 11
-104.478172232
 21
-26.4210515041
 31
0.0
  0
LINE
  5
5A7
100
AcDbEntity
  8
0
100
AcDbLine
 62
7
  6
CONTINUOUS
 10
-104.1881130959
 20
-28.7846585041
 11
-104.2056324914
 21
-28.6585006122
  0
LINE
  5
5A8
100
AcDbEntity
  8
0
100
AcDbLine
 62
7
  6
CONTINUOUS
 10
-104.3221602347
 20
-27.7863333374
 11
-104.3380474148
 21
-27.6633085041
  0
LINE
  5
5A9
100
AcDbEntity
  8
0
100
AcDbLine
 62
7
  6
CONTINUOUS
 10
-104.5572397994
 20
-25.9000344354
 11
-104.5590214543
 21
-25.8845285041
  0
LINE
  5
5AA
100
AcDbEntity
  8
0
100
AcDbLine
 62
7
  6
CONTINUOUS
 10
-104.5073359153
 20
-26.3271578898
 11
-104.5468213464
 21
-25.9897151335
  0
LINE
  5
5AB
100
AcDbEntity
  8
0
100
AcDbLine
 62
7
  6
CONTINUOUS
 10
-104.5468213464
 20
-25.9897151335
 11
-104.5483159735
 21
-25.9769578608
  0
LINE
  5
5AC
100
AcDbEntity
  8
SUPERFICI
100
AcDbLine
 62
7
  6
CONTINUOUS
 10
-105.190949606
 20
-24.2155675001
 11
-105.1974373555
 21
-24.2076052292
  0
LINE
  5
5AD
100
AcDbEntity
  8
SUPERFICI
100
AcDbLine
 62
7
  6
CONTINUOUS
 10
-105.1915792968
 20
24.2148676659
 11
-105.1967790327
 21
24.2083654748
  0
LINE
  5
5AE
100
AcDbEntity
  8
SUPERFICI
100
AcDbLine
 62
7
  6
CONTINUOUS
 10
-105.1915791877
 20
-24.214867662
 11
-105.1967779013
 21
-24.2083655761
  0
LINE
  5
5AF
100
AcDbEntity
  8
SUPERFICI
100
AcDbLine
 62
253
  6
CONTINUOUS
 10
-105.2038547279
 20
22.6197666245
 11
-105.2018978447
 21
24.2048085141
  0
SPLINE
  5
5B0
100
AcDbEntity
  8
SUPERFICI
100
AcDbSpline
 62
253
  6
CONTINUOUS
 70
0
 71
3
 72
9
 73
5
 74
3
 42
0.0000001
 43
0.0000001
 44
0.0000000001
 12
-0.003391905
 22
-0.8700717977
 32
0.0
 13
0.0030859555
 23
-0.8700729366
 33
0.0
 40
0.0
 40
0.0
 40
0.0
 40
0.0
 40
0.2447290401
 40
1.0
 40
1.0
 40
1.0
 40
1.0
 10
-104.5507988262
 20
22.2456407172
 30
0.0
 10
-104.5510755254
 20
22.1746634386
 30
0.0
 10
-104.5512032409
 20
21.8846362728
 30
0.0
 10
-104.5502233967
 20
21.5946114332
 30
0.0
 10
-104.5494464859
 20
21.3755644925
 30
0.0
 11
-104.5507988262
 21
22.2456407172
 31
0.0
 11
-104.5510717025
 21
22.0327074381
 31
0.0
 11
-104.5494464859
 21
21.3755644925
 31
0.0
  0
SPLINE
  5
5B1
100
AcDbEntity
  8
SUPERFICI
100
AcDbSpline
 62
253
  6
CONTINUOUS
 70
0
 71
3
 72
11
 73
7
 74
5
 42
0.0000001
 43
0.0000001
 44
0.0000000001
 12
0.7156115615
 22
0.1530929978
 32
0.0
 13
0.2921494579
 23
0.6709590652
 33
0.0
 40
0.0
 40
0.0
 40
0.0
 40
0.0
 40
0.361036458
 40
0.6477826715
 40
0.8581819741
 40
1.0
 40
1.0
 40
1.0
 40
1.0
 10
-105.2038593798
 20
22.6197647599
 30
0.0
 10
-105.1177387587
 20
22.6381888111
 30
0.0
 10
-104.9641548077
 20
22.6754601452
 30
0.0
 10
-104.7652437592
 20
22.7435520386
 30
0.0
 10
-104.6265974492
 20
22.8139426798
 30
0.0
 10
-104.5612091454
 20
22.8764000586
 30
0.0
 10
-104.5473984589
 20
22.9081180886
 30
0.0
 11
-105.2038593798
 21
22.6197647599
 31
0.0
 11
-104.9476096604
 21
22.6841227021
 31
0.0
 11
-104.7499949925
 21
22.7547069911
 31
0.0
 11
-104.6156550027
 21
22.8299390592
 31
0.0
 11
-104.5473984589
 21
22.9081180886
 31
0.0
  0
LINE
  5
5B2
100
AcDbEntity
  8
0
100
AcDbLine
 62
7
  6
CONTINUOUS
 10
-104.3060836834
 20
-27.593554171
 11
-104.3077234777
 21
-27.5728857388
  0
LINE
  5
5B3
100
AcDbEntity
  8
0
100
AcDbLine
 62
7
  6
CONTINUOUS
 10
-104.3077234777
 20
-27.5728857388
 11
-104.3116728985
 21
-27.5233626258
  0
LINE
  5
5B4
100
AcDbEntity
  8
SUPERFICI
100
AcDbLine
 62
253
  6
CONTINUOUS
 10
-104.5474050742
 20
22.9081038407
 11
-104.5479134278
 21
22.7948358141
  0
LINE
  5
5B5
100
AcDbEntity
  8
SUPERFICI
100
AcDbLine
 62
253
  6
CONTINUOUS
 10
-104.543151304
 20
23.876496919
 11
-104.5474058484
 21
22.908119036
  0
SPLINE
  5
5B6
100
AcDbEntity
  8
SUPERFICI
100
AcDbSpline
 62
253
  6
CONTINUOUS
 70
0
 71
3
 72
11
 73
7
 74
5
 42
0.0000001
 43
0.0000001
 44
0.0000000001
 12
1.3751674728
 22
9.0761002667
 32
0.0
 13
1.8699837406
 23
8.9872043728
 33
0.0
 40
0.0
 40
0.0
 40
0.0
 40
0.0
 40
0.2240194595
 40
0.4585937663
 40
0.7187661738
 40
1.0
 40
1.0
 40
1.0
 40
1.0
 10
-104.5478993334
 20
22.7948480781
 30
0.0
 10
-104.445211242
 20
23.4725891035
 30
0.0
 10
-104.2197964627
 20
24.8577565662
 30
0.0
 10
-103.8145618808
 20
27.0196792117
 30
0.0
 10
-103.3232379685
 20
29.3427995948
 30
0.0
 10
-102.9745337579
 20
30.9623262536
 30
0.0
 10
-102.7992328638
 20
31.8048282111
 30
0.0
 11
-104.5478993334
 21
22.7948480781
 31
0.0
 11
-104.2170773071
 21
24.8244924957
 31
0.0
 11
-103.821278273
 21
26.9411233477
 31
0.0
 11
-103.3352097919
 21
29.2794394689
 31
0.0
 11
-102.7992328638
 21
31.8048282111
 31
0.0
  0
SPLINE
  5
5B7
100
AcDbEntity
  8
SUPERFICI
100
AcDbSpline
 62
253
  6
CONTINUOUS
 70
0
 71
3
 72
9
 73
5
 74
3
 42
0.0000001
 43
0.0000001
 44
0.0000000001
 12
-0.0068854615
 22
0.5704344597
 32
0.0
 13
0.0036014725
 23
0.5704646455
 33
0.0
 40
0.0
 40
0.0
 40
0.0
 40
0.0
 40
0.2516985008
 40
1.0
 40
1.0
 40
1.0
 40
1.0
 10
-101.7864706565
 20
36.886025029
 30
0.0
 10
-101.7870483432
 20
36.9338841951
 30
0.0
 10
-101.7890137262
 20
37.1240344548
 30
0.0
 10
-101.7881494307
 20
37.314200721
 30
0.0
 10
-101.7872511017
 20
37.4564939042
 30
0.0
 11
-101.7864706565
 21
36.886025029
 31
0.0
 11
-101.787858445
 21
37.0296062798
 31
0.0
 11
-101.7872511017
 21
37.4564939042
 31
0.0
  0
SPLINE
  5
5B8
100
AcDbEntity
  8
SUPERFICI
100
AcDbSpline
 62
253
  6
CONTINUOUS
 70
0
 71
3
 72
9
 73
5
 74
3
 42
0.0000001
 43
0.0000001
 44
0.0000000001
 12
1.0552536849
 22
5.0715529928
 32
0.0
 13
0.9892283265
 23
5.084843893
 33
0.0
 40
0.0
 40
0.0
 40
0.0
 40
0.0
 40
0.4704094888
 40
1.0
 40
1.0
 40
1.0
 40
1.0
 10
-102.7992354666
 20
31.80470887
 30
0.0
 10
-102.6337683511
 20
32.5999444202
 30
0.0
 10
-102.2932139785
 20
34.2927818664
 30
0.0
 10
-101.9609496092
 20
35.9872356765
 30
0.0
 10
-101.7863209641
 20
36.8848640354
 30
0.0
 11
-102.7992354666
 21
31.80470887
 31
0.0
 11
-102.3152027886
 21
34.1929556927
 31
0.0
 11
-101.7863209641
 21
36.8848640354
 31
0.0
  0
LINE
  5
5B9
100
AcDbEntity
  8
SUPERFICI
100
AcDbLine
 62
253
  6
CONTINUOUS
 10
-102.7992363224
 20
33.1833283511
 11
-102.7992356389
 21
31.8048114482
  0
SPLINE
  5
5BA
100
AcDbEntity
  8
SUPERFICI
100
AcDbSpline
 62
253
  6
CONTINUOUS
 70
0
 71
3
 72
10
 73
6
 74
4
 42
0.0000001
 43
0.0000001
 44
0.0000000001
 12
-1.1533716466
 22
-5.2797495234
 32
0.0
 13
-1.0033319524
 23
-5.3103056577
 33
0.0
 40
0.0
 40
0.0
 40
0.0
 40
0.0
 40
0.2529476286
 40
0.5062630271
 40
1.0
 40
1.0
 40
1.0
 40
1.0
 10
-101.7794492979
 20
38.4901652322
 30
0.0
 10
-101.8766968389
 20
38.044998525
 30
0.0
 10
-102.0649308496
 20
37.152590566
 30
0.0
 10
-102.4050075625
 20
35.3834847841
 30
0.0
 10
-102.6341090971
 20
34.0572922576
 30
0.0
 10
-102.7992364574
 20
33.1833275107
 30
0.0
 11
-101.7794492979
 21
38.4901652322
 31
0.0
 11
-102.060783506
 21
37.1524337957
 31
0.0
 11
-102.3203766292
 21
35.808289621
 31
0.0
 11
-102.7992364574
 21
33.1833275107
 31
0.0
  0
LINE
  5
5BB
100
AcDbEntity
  8
SUPERFICI
100
AcDbLine
 62
253
  6
CONTINUOUS
 10
-102.7992415877
 20
33.1833016165
 11
-102.799241972
 21
35.2674896049
  0
SPLINE
  5
5BC
100
AcDbEntity
  8
SUPERFICI
100
AcDbSpline
 62
253
  6
CONTINUOUS
 70
0
 71
3
 72
11
 73
7
 74
5
 42
0.0000001
 43
0.0000001
 44
0.0000000001
 12
1.3527585703
 22
9.3732114712
 32
0.0
 13
1.7582232594
 23
9.3056810607
 33
0.0
 40
0.0
 40
0.0
 40
0.0
 40
0.0
 40
0.2243485459
 40
0.4583544862
 40
0.7178586415
 40
1.0
 40
1.0
 40
1.0
 40
1.0
 10
-104.5431516819
 20
23.8764956728
 30
0.0
 10
-104.4419885425
 20
24.5774511275
 30
0.0
 10
-104.219172936
 20
26.007273566
 30
0.0
 10
-103.8117748996
 20
28.2367801181
 30
0.0
 10
-103.308703103
 20
30.6331549568
 30
0.0
 10
-102.9645974207
 20
32.3081291179
 30
0.0
 10
-102.7992415877
 20
33.1833016165
 30
0.0
 11
-104.5431516819
 21
23.8764956728
 31
0.0
 11
-104.2149292425
 21
25.9756437863
 31
0.0
 11
-103.8172512326
 21
28.1557826801
 31
0.0
 11
-103.3250365841
 21
30.5635755417
 31
0.0
 11
-102.7992415877
 21
33.1833016165
 31
0.0
  0
SPLINE
  5
5BD
100
AcDbEntity
  8
SUPERFICI
100
AcDbSpline
 62
253
  6
CONTINUOUS
 70
0
 71
3
 72
16
 73
12
 74
10
 42
0.0000001
 43
0.0000001
 44
0.0000000001
 12
0.0851000941
 22
0.4566402007
 32
0.0
 13
-0.0002428724
 23
-0.4645021419
 33
0.0
 40
0.0
 40
0.0
 40
0.0
 40
0.0
 40
0.0082891529
 40
0.010523073
 40
0.0205639214
 40
0.0397644546
 40
0.0684227783
 40
0.1067749385
 40
0.2124803303
 40
0.5356321559
 40
1.0
 40
1.0
 40
1.0
 40
1.0
 10
-104.5458361017
 20
25.7513558654
 30
0.0
 10
-104.5456009658
 20
25.7526175856
 30
0.0
 10
-104.5459319313
 20
25.75570208
 30
0.0
 10
-104.5424213673
 20
25.7541328916
 30
0.0
 10
-104.5434892157
 20
25.748230247
 30
0.0
 10
-104.541588135
 20
25.740007645
 30
0.0
 10
-104.5414857213
 20
25.7263310317
 30
0.0
 10
-104.5402913567
 20
25.6997939516
 30
0.0
 10
-104.5394249684
 20
25.6272618186
 30
0.0
 10
-104.5385220067
 20
25.489132516
 30
0.0
 10
-104.5385504651
 20
25.3671342213
 30
0.0
 10
-104.5385880591
 20
25.2952342685
 30
0.0
 11
-104.5458361017
 21
25.7513558654
 31
0.0
 11
-104.5448023399
 21
25.7550648244
 31
0.0
 11
-104.5438373233
 21
25.7546834022
 31
0.0
 11
-104.5429482816
 21
25.7501049237
 31
0.0
 11
-104.5421424446
 21
25.7412227135
 31
0.0
 11
-104.5414270421
 21
25.7279300963
 31
0.0
 11
-104.5408087907
 21
25.7101261646
 31
0.0
 11
-104.5398501755
 21
25.6610351357
 31
0.0
 11
-104.5388036019
 21
25.5109340486
 31
0.0
 11
-104.5385880591
 21
25.2952342685
 31
0.0
  0
SPLINE
  5
5BE
100
AcDbEntity
  8
SUPERFICI
100
AcDbSpline
 62
253
  6
CONTINUOUS
 70
0
 71
3
 72
11
 73
7
 74
5
 42
0.0000001
 43
0.0000001
 44
0.0000000001
 12
-2.176746748
 22
-9.4323036766
 32
0.0
 13
-1.1659930766
 23
-9.6097366872
 33
0.0
 40
0.0
 40
0.0
 40
0.0
 40
0.0
 40
0.2369230167
 40
0.4831189017
 40
0.7375844182
 40
1.0
 40
1.0
 40
1.0
 40
1.0
 10
-102.799241972
 20
35.2674896049
 30
0.0
 10
-102.9711491074
 20
34.5225796577
 30
0.0
 10
-103.3186419476
 20
33.0028657318
 30
0.0
 10
-103.8003308359
 20
30.6718186003
 30
0.0
 10
-104.2195564739
 20
28.2449907363
 30
0.0
 10
-104.4438445179
 20
26.5919374133
 30
0.0
 10
-104.5458361017
 20
25.7513558654
 30
0.0
 11
-102.799241972
 21
35.2674896049
 31
0.0
 11
-103.3042797986
 21
33.0303211204
 31
0.0
 11
-103.7823789481
 21
30.6955399428
 31
0.0
 11
-104.2007241301
 21
28.2680430377
 31
0.0
 11
-104.5458361017
 21
25.7513558654
 31
0.0
  0
LINE
  5
5BF
100
AcDbEntity
  8
SUPERFICI
100
AcDbLine
 62
253
  6
CONTINUOUS
 10
-101.7802263189
 20
24.6106011199
 11
-101.7828026886
 21
30.7525446989
  0
SPLINE
  5
5C0
100
AcDbEntity
  8
SUPERFICI
100
AcDbSpline
 62
253
  6
CONTINUOUS
 70
0
 71
3
 72
8
 73
4
 74
2
 42
0.0000001
 43
0.0000001
 44
0.0000000001
 12
0.0018995734
 22
24.6103186475
 32
0.0
 13
-0.0113545602
 23
24.6103161015
 33
0.0
 40
0.0
 40
0.0
 40
0.0
 40
0.0
 40
1.0
 40
1.0
 40
1.0
 40
1.0
 10
-101.7746491397
 20
0.0000000024
 30
0.0
 10
-101.7740159486
 20
8.2034395516
 30
0.0
 10
-101.7761706592
 20
16.4068794507
 30
0.0
 10
-101.7799555126
 20
24.6103181512
 30
0.0
 11
-101.7746491397
 21
0.0000000024
 31
0.0
 11
-101.7799555126
 21
24.6103181512
 31
0.0
  0
SPLINE
  5
5C1
100
AcDbEntity
  8
SUPERFICI
100
AcDbSpline
 62
253
  6
CONTINUOUS
 70
0
 71
3
 72
8
 73
4
 74
2
 42
0.0000001
 43
0.0000001
 44
0.0000000001
 12
0.0113545767
 22
24.610316075
 32
0.0
 13
-0.0018995561
 23
24.6103186211
 33
0.0
 40
0.0
 40
0.0
 40
0.0
 40
0.0
 40
1.0
 40
1.0
 40
1.0
 40
1.0
 10
-101.779955532
 20
-24.6103181196
 30
0.0
 10
-101.7761706731
 20
-16.4068794279
 30
0.0
 10
-101.7740159569
 20
-8.2034395376
 30
0.0
 10
-101.7746491422
 20
0.0000000028
 30
0.0
 11
-101.779955532
 21
-24.6103181196
 31
0.0
 11
-101.7746491422
 21
0.0000000028
 31
0.0
  0
SPLINE
  5
5C2
100
AcDbEntity
  8
SUPERFICI
100
AcDbSpline
 62
253
  6
CONTINUOUS
 70
0
 71
3
 72
12
 73
8
 74
6
 42
0.0000001
 43
0.0000001
 44
0.0000000001
 12
0.9703633759
 22
6.238251548
 32
0.0
 13
1.948518793
 23
6.0050530365
 33
0.0
 40
0.0
 40
0.0
 40
0.0
 40
0.0
 40
0.1029319549
 40
0.2207386802
 40
0.4785899794
 40
0.733209042
 40
1.0
 40
1.0
 40
1.0
 40
1.0
 10
-104.5420778723
 20
15.2351146135
 30
0.0
 10
-104.5087840725
 20
15.4491530892
 30
0.0
 10
-104.4218327656
 20
15.9057371671
 30
0.0
 10
-104.1929642039
 20
16.8866871953
 30
0.0
 10
-103.8318932656
 20
18.1637485937
 30
0.0
 10
-103.3206706815
 20
19.7220100543
 30
0.0
 10
-102.9725178
 20
20.7625801313
 30
0.0
 10
-102.7992354016
 20
21.2966114155
 30
0.0
 11
-104.5420778723
 21
15.2351146135
 31
0.0
 11
-104.4236456983
 21
15.8740687087
 31
0.0
 11
-104.2564382884
 21
16.5987751496
 31
0.0
 11
-103.8192527294
 21
18.1668563228
 31
0.0
 11
-103.3272036854
 21
19.6971754805
 31
0.0
 11
-102.7992354016
 21
21.2966114155
 31
0.0
  0
SPLINE
  5
5C3
100
AcDbEntity
  8
SUPERFICI
100
AcDbSpline
 62
253
  6
CONTINUOUS
 70
0
 71
3
 72
11
 73
7
 74
5
 42
0.0000001
 43
0.0000001
 44
0.0000000001
 12
-1.9411428942
 22
-7.5314506562
 32
0.0
 13
-1.1657271278
 23
-7.6897246366
 33
0.0
 40
0.0
 40
0.0
 40
0.0
 40
0.0
 40
0.2714700532
 40
0.526587131
 40
0.7735892144
 40
1.0
 40
1.0
 40
1.0
 40
1.0
 10
-102.7992386223
 20
26.6050139694
 30
0.0
 10
-102.9748926772
 20
25.923492866
 30
0.0
 10
-103.3246669826
 20
24.6038942039
 30
0.0
 10
-103.8258661504
 20
22.6618057061
 30
0.0
 10
-104.2367029258
 20
20.8179083783
 30
0.0
 10
-104.4563574975
 20
19.6098236209
 30
0.0
 10
-104.5443352291
 20
19.0294780889
 30
0.0
 11
-102.7992386223
 21
26.6050139694
 31
0.0
 11
-103.3332422086
 21
24.5622784451
 31
0.0
 11
-103.8202405611
 21
22.6387767957
 31
0.0
 11
-104.2354347337
 21
20.7631013594
 31
0.0
 11
-104.5443352291
 21
19.0294780889
 31
0.0
  0
SPLINE
  5
5C4
100
AcDbEntity
  8
SUPERFICI
100
AcDbSpline
 62
253
  6
CONTINUOUS
 70
0
 71
3
 72
11
 73
7
 74
5
 42
0.0000001
 43
0.0000001
 44
0.0000000001
 12
-0.6515916501
 22
-0.0838137988
 32
0.0
 13
-0.6569587723
 23
-0.0012660093
 33
0.0
 40
0.0
 40
0.0
 40
0.0
 40
0.0
 40
0.0953901573
 40
0.2974068925
 40
0.6002389595
 40
1.0
 40
1.0
 40
1.0
 40
1.0
 10
-104.5443400533
 20
19.0296860766
 30
0.0
 10
-104.5650585299
 20
19.0270210727
 30
0.0
 10
-104.6304339227
 20
19.0275512577
 30
0.0
 10
-104.7616880291
 20
19.0265133811
 30
0.0
 10
-104.9598806432
 20
19.0277402166
 30
0.0
 10
-105.1137096287
 20
19.0270865817
 30
0.0
 10
-105.2012518028
 20
19.0269178813
 30
0.0
 11
-104.5443400533
 21
19.0296860766
 31
0.0
 11
-104.6069603485
 21
19.0272537305
 31
0.0
 11
-104.7396768836
 21
19.0269371105
 31
0.0
 11
-104.938625086
 21
19.0273103087
 31
0.0
 11
-105.2012518028
 21
19.0269178813
 31
0.0
  0
SPLINE
  5
5C5
100
AcDbEntity
  8
SUPERFICI
100
AcDbSpline
 62
253
  6
CONTINUOUS
 70
0
 71
3
 72
8
 73
4
 74
2
 42
0.0000001
 43
0.0000001
 44
0.0000000001
 12
0.0012802229
 22
3.794620485
 32
0.0
 13
-0.0026207398
 23
3.794619796
 33
0.0
 40
0.0
 40
0.0
 40
0.0
 40
0.0
 40
1.0
 40
1.0
 40
1.0
 40
1.0
 10
-104.5420738165
 20
15.2350660523
 30
0.0
 10
-104.5416470755
 20
16.4999395473
 30
0.0
 10
-104.5434664733
 20
17.7648128112
 30
0.0
 10
-104.5443400533
 20
19.0296860766
 30
0.0
 11
-104.5420738165
 21
15.2350660523
 31
0.0
 11
-104.5443400533
 21
19.0296860766
 31
0.0
  0
SPLINE
  5
5C6
100
AcDbEntity
  8
SUPERFICI
100
AcDbSpline
 62
253
  6
CONTINUOUS
 70
0
 71
3
 72
8
 73
4
 74
2
 42
0.0000001
 43
0.0000001
 44
0.0000000001
 12
-0.0000643616
 22
15.235066365
 32
0.0
 13
-0.0068095723
 23
15.2350648433
 33
0.0
 40
0.0
 40
0.0
 40
0.0
 40
0.0
 40
1.0
 40
1.0
 40
1.0
 40
1.0
 10
-104.5412881097
 20
-0.0000002926
 30
0.0
 10
-104.5413095636
 20
5.0783551624
 30
0.0
 10
-104.5398039591
 20
10.1567111045
 30
0.0
 10
-104.5420738165
 20
15.2350660523
 30
0.0
 11
-104.5412881097
 21
-0.0000002926
 31
0.0
 11
-104.5420738165
 21
15.2350660523
 31
0.0
  0
LINE
  5
5C7
100
AcDbEntity
  8
SUPERFICI
100
AcDbLine
 62
253
  6
CONTINUOUS
 10
-104.5412881097
 20
0.0000002864
 11
-105.2012451431
 21
-0.0000000344
  0
SPLINE
  5
5C8
100
AcDbEntity
  8
SUPERFICI
100
AcDbSpline
 62
253
  6
CONTINUOUS
 70
0
 71
3
 72
8
 73
4
 74
2
 42
0.0000001
 43
0.0000001
 44
0.0000000001
 12
0.0068092819
 22
15.2350648305
 32
0.0
 13
0.0000643782
 23
15.2350663521
 33
0.0
 40
0.0
 40
0.0
 40
0.0
 40
0.0
 40
1.0
 40
1.0
 40
1.0
 40
1.0
 10
-104.542073827
 20
-15.2350660456
 30
0.0
 10
-104.5398040664
 20
-10.1567111021
 30
0.0
 10
-104.5413095691
 20
-5.0783551643
 30
0.0
 10
-104.5412881097
 20
0.0000002864
 30
0.0
 11
-104.542073827
 21
-15.2350660456
 31
0.0
 11
-104.5412881097
 21
0.0000002864
 31
0.0
  0
SPLINE
  5
5C9
100
AcDbEntity
  8
SUPERFICI
100
AcDbSpline
 62
253
  6
CONTINUOUS
 70
0
 71
3
 72
12
 73
8
 74
6
 42
0.0000001
 43
0.0000001
 44
0.0000000001
 12
0.6549570749
 22
0.0092380966
 32
0.0
 13
0.5478899566
 23
0.3589856652
 33
0.0
 40
0.0
 40
0.0
 40
0.0
 40
0.0
 40
0.3867181229
 40
0.6862838127
 40
0.8914164443
 40
0.9572030394
 40
1.0
 40
1.0
 40
1.0
 40
1.0
 10
-105.2029512023
 20
-22.2707976762
 30
0.0
 10
-105.1185232788
 20
-22.2696068297
 30
0.0
 10
-104.968591127
 20
-22.2666282268
 30
0.0
 10
-104.7742971783
 20
-22.2684787834
 30
0.0
 10
-104.6490794225
 20
-22.2694266561
 30
0.0
 10
-104.5815581235
 20
-22.2584207371
 30
0.0
 10
-104.5586148454
 20
-22.2507630291
 30
0.0
 10
-104.5507988371
 20
-22.245641864
 30
0.0
 11
-105.2029512023
 21
-22.2707976762
 31
0.0
 11
-104.9496618186
 21
-22.2676481411
 31
0.0
 11
-104.7534419487
 21
-22.2686011308
 31
0.0
 11
-104.6191560031
 21
-22.2639510854
 31
0.0
 11
-104.5767668704
 21
-22.256201604
 31
0.0
 11
-104.5507988371
 21
-22.245641864
 31
0.0
  0
SPLINE
  5
5CA
100
AcDbEntity
  8
SUPERFICI
100
AcDbSpline
 62
253
  6
CONTINUOUS
 70
0
 71
3
 72
11
 73
7
 74
5
 42
0.0000001
 43
0.0000001
 44
0.0000000001
 12
-0.6521813027
 22
0.0795284815
 32
0.0
 13
-0.6570107678
 23
0.0014428856
 33
0.0
 40
0.0
 40
0.0
 40
0.0
 40
0.0
 40
0.0939697939
 40
0.2984268525
 40
0.6031564486
 40
1.0
 40
1.0
 40
1.0
 40
1.0
 10
-104.5443468731
 20
-19.0296855326
 30
0.0
 10
-104.5647753207
 20
-19.0271944409
 30
0.0
 10
-104.6303451895
 20
-19.027466161
 30
0.0
 10
-104.7622723279
 20
-19.0265275276
 30
0.0
 10
-104.9607794219
 20
-19.0277649296
 30
0.0
 10
-105.114401409
 20
-19.0271086272
 30
0.0
 10
-105.2013115712
 20
-19.0269177606
 30
0.0
 11
-104.5443468731
 21
-19.0296855326
 31
0.0
 11
-104.6060397966
 21
-19.0272925726
 31
0.0
 11
-104.7403701024
 21
-19.0269234546
 31
0.0
 11
-104.9405807891
 21
-19.0273345376
 31
0.0
 11
-105.2013115712
 21
-19.0269177606
 31
0.0
  0
SPLINE
  5
5CB
100
AcDbEntity
  8
SUPERFICI
100
AcDbSpline
 62
253
  6
CONTINUOUS
 70
0
 71
3
 72
10
 73
6
 74
4
 42
0.0000001
 43
0.0000001
 44
0.0000000001
 12
1.2883856854
 22
-8.6090985856
 32
0.0
 13
1.9252869454
 23
-8.4893925759
 33
0.0
 40
0.0
 40
0.0
 40
0.0
 40
0.0
 40
0.466609406
 40
0.7241509586
 40
1.0
 40
1.0
 40
1.0
 40
1.0
 10
-104.5494502249
 20
-21.3756318379
 30
0.0
 10
-104.3490592651
 20
-22.7146606303
 30
0.0
 10
-103.967769372
 20
-24.7827296725
 30
0.0
 10
-103.3270435429
 20
-27.6127420059
 30
0.0
 10
-102.976267731
 20
-29.1202014234
 30
0.0
 10
-102.7992382116
 20
-29.900798358
 30
0.0
 11
-104.5494502249
 21
-21.3756318379
 31
0.0
 11
-103.8233549222
 21
-25.3720273892
 31
0.0
 11
-103.3366710707
 21
-27.560455403
 31
0.0
 11
-102.7992382116
 21
-29.900798358
 31
0.0
  0
LINE
  5
5CC
100
AcDbEntity
  8
SUPERFICI
100
AcDbLine
 62
253
  6
CONTINUOUS
 10
-102.7992363451
 20
-26.6049418772
 11
-102.7992369474
 21
-29.9009664648
  0
SPLINE
  5
5CD
100
AcDbEntity
  8
SUPERFICI
100
AcDbSpline
 62
253
  6
CONTINUOUS
 70
0
 71
3
 72
8
 73
4
 74
2
 42
0.0000001
 43
0.0000001
 44
0.0000000001
 12
0.0031267861
 22
3.8323912833
 32
0.0
 13
0.0013226027
 23
3.8323923306
 33
0.0
 40
0.0
 40
0.0
 40
0.0
 40
0.0
 40
1.0
 40
1.0
 40
1.0
 40
1.0
 10
-101.7853839189
 20
-34.5849294888
 30
0.0
 10
-101.7843416569
 20
-33.3074657277
 30
0.0
 10
-101.7837666839
 20
-32.0300015928
 30
0.0
 10
-101.7833258163
 20
-30.7525374826
 30
0.0
 11
-101.7853839189
 21
-34.5849294888
 31
0.0
 11
-101.7833258163
 21
-30.7525374826
 31
0.0
  0
LINE
  5
5CE
100
AcDbEntity
  8
SUPERFICI
100
AcDbLine
 62
253
  6
CONTINUOUS
 10
-101.7828027099
 20
-30.7525446937
 11
-101.7802263359
 21
-24.6106011147
  0
SPLINE
  5
5CF
100
AcDbEntity
  8
SUPERFICI
100
AcDbSpline
 62
253
  6
CONTINUOUS
 70
0
 71
3
 72
11
 73
7
 74
5
 42
0.0000001
 43
0.0000001
 44
0.0000000001
 12
1.1657271625
 22
-7.6897245925
 32
0.0
 13
1.9411428737
 23
-7.5314506219
 33
0.0
 40
0.0
 40
0.0
 40
0.0
 40
0.0
 40
0.226410787
 40
0.47341287
 40
0.7285299469
 40
1.0
 40
1.0
 40
1.0
 40
1.0
 10
-104.5443352168
 20
-19.02947825
 30
0.0
 10
-104.456357482
 20
-19.6098237824
 30
0.0
 10
-104.2367029066
 20
-20.8179085355
 30
0.0
 10
-103.8258661285
 20
-22.6618058535
 30
0.0
 10
-103.3246669622
 20
-24.6038943376
 30
0.0
 10
-102.9748926608
 20
-25.9234929911
 30
0.0
 10
-102.7992386078
 20
-26.6050140911
 30
0.0
 11
-104.5443352168
 21
-19.02947825
 31
0.0
 11
-104.235434714
 21
-20.7631015217
 31
0.0
 11
-103.8202405396
 21
-22.6387769444
 31
0.0
 11
-103.3332421894
 21
-24.5622785773
 31
0.0
 11
-102.7992386078
 21
-26.6050140911
 31
0.0
  0
SPLINE
  5
5D0
100
AcDbEntity
  8
SUPERFICI
100
AcDbSpline
 62
253
  6
CONTINUOUS
 70
0
 71
3
 72
8
 73
4
 74
2
 42
0.0000001
 43
0.0000001
 44
0.0000000001
 12
0.0006268667
 22
-3.7943642874
 32
0.0
 13
-0.0044745175
 23
-3.7943617009
 33
0.0
 40
0.0
 40
0.0
 40
0.0
 40
0.0
 40
1.0
 40
1.0
 40
1.0
 40
1.0
 10
-104.5420778866
 20
-15.2351145823
 30
0.0
 10
-104.541868931
 20
-16.4999026781
 30
0.0
 10
-104.542843711
 20
-17.7646910164
 30
0.0
 10
-104.5443352168
 20
-19.02947825
 30
0.0
 11
-104.5420778866
 21
-15.2351145823
 31
0.0
 11
-104.5443352168
 21
-19.02947825
 31
0.0
  0
SPLINE
  5
5D1
100
AcDbEntity
  8
SUPERFICI
100
AcDbSpline
 62
253
  6
CONTINUOUS
 70
0
 71
3
 72
12
 73
8
 74
6
 42
0.0000001
 43
0.0000001
 44
0.0000000001
 12
-1.9485188238
 22
6.0050531654
 32
0.0
 13
-0.9703633749
 23
6.2382516819
 33
0.0
 40
0.0
 40
0.0
 40
0.0
 40
0.0
 40
0.2667909594
 40
0.5214100217
 40
0.7792613207
 40
0.8970680457
 40
1.0
 40
1.0
 40
1.0
 40
1.0
 10
-102.799235383
 20
-21.2966115121
 30
0.0
 10
-102.9725177852
 20
-20.7625802136
 30
0.0
 10
-103.3206706735
 20
-19.7220101123
 30
0.0
 10
-103.8318932693
 20
-18.1637486174
 30
0.0
 10
-104.1929642146
 20
-16.8866871937
 30
0.0
 10
-104.4218327796
 20
-15.905737147
 30
0.0
 10
-104.5087840871
 20
-15.4491530612
 30
0.0
 10
-104.5420778866
 20
-15.2351145823
 30
0.0
 11
-102.799235383
 21
-21.2966115121
 31
0.0
 11
-103.3272036791
 21
-19.6971755346
 31
0.0
 11
-103.8192527327
 21
-18.1668563467
 31
0.0
 11
-104.2564383002
 21
-16.5987751419
 31
0.0
 11
-104.4236457123
 21
-15.8740686871
 31
0.0
 11
-104.5420778866
 21
-15.2351145823
 31
0.0
  0
LINE
  5
5D2
100
AcDbEntity
  8
SUPERFICI
100
AcDbLine
 62
253
  6
CONTINUOUS
 10
-102.7992316886
 20
-35.7922641433
 11
-102.7992333126
 21
-35.7122972993
  0
LINE
  5
5D3
100
AcDbEntity
  8
SUPERFICI
100
AcDbLine
 62
253
  6
CONTINUOUS
 10
-102.7992333126
 20
-35.7122972993
 11
-102.7992321207
 21
-35.6944982683
  0
LINE
  5
5D4
100
AcDbEntity
  8
SUPERFICI
100
AcDbLine
 62
253
  6
CONTINUOUS
 10
-102.7992321207
 20
-35.6944982683
 11
-102.7992327311
 21
-35.2675297489
  0
SPLINE
  5
5D5
100
AcDbEntity
  8
SUPERFICI
100
AcDbSpline
 62
253
  6
CONTINUOUS
 70
0
 71
3
 72
11
 73
7
 74
5
 42
0.0000001
 43
0.0000001
 44
0.0000000001
 12
-0.2921498205
 22
0.6709587132
 32
0.0
 13
-0.7156114418
 23
0.1530927065
 33
0.0
 40
0.0
 40
0.0
 40
0.0
 40
0.0
 40
0.1418179354
 40
0.3522172195
 40
0.6389634674
 40
1.0
 40
1.0
 40
1.0
 40
1.0
 10
-104.5473984812
 20
-22.9081170361
 30
0.0
 10
-104.561209176
 20
-22.876399043
 30
0.0
 10
-104.6265975109
 20
-22.8139417636
 30
0.0
 10
-104.7652438145
 20
-22.74355125
 30
0.0
 10
-104.9641548732
 20
-22.6754594718
 30
0.0
 10
-105.1177388264
 20
-22.6381882022
 30
0.0
 10
-105.2038594509
 20
-22.6197641823
 30
0.0
 11
-104.5473984812
 21
-22.9081170361
 31
0.0
 11
-104.6156550318
 21
-22.8299381342
 31
0.0
 11
-104.7499950324
 21
-22.7547061895
 31
0.0
 11
-104.9476097145
 21
-22.6841220173
 31
0.0
 11
-105.2038594509
 21
-22.6197641823
 31
0.0
  0
LINE
  5
5D6
100
AcDbEntity
  8
SUPERFICI
100
AcDbLine
 62
253
  6
CONTINUOUS
 10
-104.5479134436
 20
-22.7948357904
 11
-104.54740509
 21
-22.9081038339
  0
SPLINE
  5
5D7
100
AcDbEntity
  8
SUPERFICI
100
AcDbSpline
 62
253
  6
CONTINUOUS
 70
0
 71
3
 72
11
 73
7
 74
5
 42
0.0000001
 43
0.0000001
 44
0.0000000001
 12
-1.8699801195
 22
8.9871814391
 32
0.0
 13
-1.3751639929
 23
9.0760773388
 33
0.0
 40
0.0
 40
0.0
 40
0.0
 40
0.0
 40
0.2812338025
 40
0.5414061546
 40
0.7759804703
 40
1.0
 40
1.0
 40
1.0
 40
1.0
 10
-102.7992376089
 20
-31.8048054836
 30
0.0
 10
-102.9745381488
 20
-30.9623057468
 30
0.0
 10
-103.323241481
 20
-29.3427834281
 30
0.0
 10
-103.8145638944
 20
-27.0196690778
 30
0.0
 10
-104.2197972684
 20
-24.8577517865
 30
0.0
 10
-104.4452114856
 20
-23.4725875799
 30
0.0
 10
-104.5478993492
 20
-22.7948480544
 30
0.0
 11
-102.7992376089
 21
-31.8048054836
 31
0.0
 11
-103.3352132422
 21
-29.2794233557
 31
0.0
 11
-103.8212802249
 21
-26.9411136055
 31
0.0
 11
-104.2170781078
 21
-24.8244879886
 31
0.0
 11
-104.5478993492
 21
-22.7948480544
 31
0.0
  0
LINE
  5
5D8
100
AcDbEntity
  8
SUPERFICI
100
AcDbLine
 62
253
  6
CONTINUOUS
 10
-102.7992335476
 20
-33.1833469137
 11
-102.7992327391
 21
-31.804822817
  0
LINE
  5
5D9
100
AcDbEntity
  8
SUPERFICI
100
AcDbLine
 62
253
  6
CONTINUOUS
 10
-104.547405865
 20
-22.9081190276
 11
-104.5431513185
 21
-23.8764969265
  0
LINE
  5
5DA
100
AcDbEntity
  8
SUPERFICI
100
AcDbLine
 62
253
  6
CONTINUOUS
 10
-104.5478992618
 20
22.7948484761
 11
-104.550790825
 21
22.2456399479
  0
LINE
  5
5DB
100
AcDbEntity
  8
SUPERFICI
100
AcDbLine
 62
253
  6
CONTINUOUS
 10
-102.7992362077
 20
31.8048111424
 11
-102.7992395443
 21
29.9009653335
  0
LINE
  5
5DC
100
AcDbEntity
  8
0
100
AcDbLine
 62
253
  6
CONTINUOUS
 10
-104.5458804503
 20
-25.7509695476
 11
-104.5410720194
 21
-25.7905302373
  0
LINE
  5
5DD
100
AcDbEntity
  8
0
100
AcDbLine
 62
253
  6
CONTINUOUS
 10
-104.5410720194
 20
-25.7905302373
 11
-104.5295673922
 21
-25.8845809517
  0
SPLINE
  5
5DE
100
AcDbEntity
  8
SUPERFICI
100
AcDbSpline
 62
253
  6
CONTINUOUS
 70
0
 71
3
 72
9
 73
5
 74
3
 42
0.0000001
 43
0.0000001
 44
0.0000000001
 12
0.0062472414
 22
-1.4174159184
 32
0.0
 13
0.0007611583
 23
-1.4174294812
 33
0.0
 40
0.0
 40
0.0
 40
0.0
 40
0.0
 40
0.2983348188
 40
1.0
 40
1.0
 40
1.0
 40
1.0
 10
-104.5431516984
 20
-23.876495666
 30
0.0
 10
-104.5425304418
 20
-24.0174505064
 30
0.0
 10
-104.5406647391
 20
-24.4899231247
 30
0.0
 10
-104.5387667844
 20
-24.9623974642
 30
0.0
 10
-104.5385887583
 20
-25.2939177689
 30
0.0
 11
-104.5431516984
 21
-23.876495666
 31
0.0
 11
-104.5414143631
 21
-24.2993607255
 31
0.0
 11
-104.5385887583
 21
-25.2939177689
 31
0.0
  0
SPLINE
  5
5DF
100
AcDbEntity
  8
SUPERFICI
100
AcDbSpline
 62
253
  6
CONTINUOUS
 70
0
 71
3
 72
16
 73
12
 74
10
 42
0.0000001
 43
0.0000001
 44
0.0000000001
 12
0.0002501504
 22
-0.4658302691
 32
0.0
 13
-0.0853031703
 23
0.4579533506
 33
0.0
 40
0.0
 40
0.0
 40
0.0
 40
0.0
 40
0.4642965407
 40
0.7874355493
 40
0.8931591335
 40
0.9315279793
 40
0.9602053941
 40
0.9794248207
 40
0.9894818488
 40
0.9917176988
 40
1.0
 40
1.0
 40
1.0
 40
1.0
 10
-104.5385887583
 20
-25.2939177689
 30
0.0
 10
-104.5385500436
 20
-25.3660122297
 30
0.0
 10
-104.5385197937
 20
-25.4883453201
 30
0.0
 10
-104.539421546
 20
-25.6268619519
 30
0.0
 10
-104.5402870174
 20
-25.6996019662
 30
0.0
 10
-104.5414815044
 20
-25.7262261949
 30
0.0
 10
-104.5415829662
 20
-25.7399456133
 30
0.0
 10
-104.5434869603
 20
-25.7482101478
 30
0.0
 10
-104.5424148993
 20
-25.7541213814
 30
0.0
 10
-104.5459291722
 20
-25.7557187049
 30
0.0
 10
-104.5456006173
 20
-25.7526201613
 30
0.0
 10
-104.5458361195
 20
-25.7513558588
 30
0.0
 11
-104.5385887583
 21
-25.2939177689
 31
0.0
 11
-104.5388012855
 21
-25.5102010781
 31
0.0
 11
-104.5398462371
 21
-25.6607254042
 31
0.0
 11
-104.5408044026
 21
-25.7099653353
 31
0.0
 11
-104.5414225253
 21
-25.727828016
 31
0.0
 11
-104.5421379958
 21
-25.7411676525
 31
0.0
 11
-104.5429442167
 21
-25.7500842703
 31
0.0
 11
-104.5438340618
 21
-25.7546838541
 31
0.0
 11
-104.5448004048
 21
-25.7550723887
 31
0.0
 11
-104.5458361195
 21
-25.7513558588
 31
0.0
  0
SPLINE
  5
5E0
100
AcDbEntity
  8
SUPERFICI
100
AcDbSpline
 62
253
  6
CONTINUOUS
 70
0
 71
3
 72
11
 73
7
 74
5
 42
0.0000001
 43
0.0000001
 44
0.0000000001
 12
-1.7582253884
 22
9.3057087784
 32
0.0
 13
-1.3527625107
 23
9.3732388199
 33
0.0
 40
0.0
 40
0.0
 40
0.0
 40
0.0
 40
0.282141415
 40
0.5416456237
 40
0.7756515452
 40
1.0
 40
1.0
 40
1.0
 40
1.0
 10
-102.7992364804
 20
-33.1833287636
 30
0.0
 10
-102.9645925467
 20
-32.3081534829
 30
0.0
 10
-103.3086990445
 20
-30.6331740376
 30
0.0
 10
-103.8117726115
 20
-28.2367919791
 30
0.0
 10
-104.2191720686
 20
-26.0072791446
 30
0.0
 10
-104.4419883054
 20
-24.5774528814
 30
0.0
 10
-104.5431516984
 20
-23.876495666
 30
0.0
 11
-102.7992364804
 21
-33.1833287636
 31
0.0
 11
-103.325032681
 21
-30.5635944335
 31
0.0
 11
-103.8172490189
 21
-28.1557940819
 31
0.0
 11
-104.2149283713
 21
-25.9756490421
 31
0.0
 11
-104.5431516984
 21
-23.876495666
 31
0.0
  0
LINE
  5
5E1
100
AcDbEntity
  8
SUPERFICI
100
AcDbLine
 62
253
  6
CONTINUOUS
 10
-102.7992367578
 20
-35.2675114044
 11
-102.7992364821
 21
-33.1833287529
  0
LINE
  5
5E2
100
AcDbEntity
  8
0
100
AcDbLine
 62
253
  6
CONTINUOUS
 10
-104.3113890104
 20
-27.5232642737
 11
-104.2920246724
 21
-27.6570729011
  0
SPLINE
  5
5E3
100
AcDbEntity
  8
0
100
AcDbSpline
 62
253
  6
CONTINUOUS
 70
0
 71
3
 72
10
 73
6
 74
4
 42
0.0000001
 43
0.0000001
 44
0.0000000001
 12
1.0550723996
 22
-6.5405389098
 32
0.0
 13
1.4898256061
 23
-6.4554044538
 33
0.0
 40
0.0
 40
0.0
 40
0.0
 40
0.0
 40
0.2591242245
 40
0.5125538819
 40
1.0
 40
1.0
 40
1.0
 40
1.0
 10
-104.1202853677
 20
-28.7767308843
 30
0.0
 10
-104.029153762
 20
-29.3416682419
 30
0.0
 10
-103.8352986375
 20
-30.4569958534
 30
0.0
 10
-103.4033552311
 20
-32.6228773684
 30
0.0
 10
-103.0413054487
 20
-34.2186302711
 30
0.0
 10
-102.7992355459
 20
-35.2675175517
 30
0.0
 11
-104.1202853677
 21
-28.7767308843
 31
0.0
 11
-103.8261062531
 21
-30.4680591602
 31
0.0
 11
-103.4995187605
 21
-32.1149844897
 31
0.0
 11
-102.7992355459
 21
-35.2675175517
 31
0.0
  0
SPLINE
  5
5E4
100
AcDbEntity
  8
0
100
AcDbSpline
 62
7
  6
CONTINUOUS
 70
0
 71
3
 72
9
 73
5
 74
3
 42
0.0000001
 43
0.0000001
 44
0.0000000001
 12
-0.0432332652
 22
0.4708412196
 32
0.0
 13
-0.0456087034
 23
0.4706170582
 33
0.0
 40
0.0
 40
0.0
 40
0.0
 40
0.0
 40
0.1963314934
 40
1.0
 40
1.0
 40
1.0
 40
1.0
 10
-104.3116728985
 20
-27.5233626258
 30
0.0
 10
-104.314502249
 20
-27.4925489725
 30
0.0
 10
-104.3279076685
 20
-27.3355113203
 30
0.0
 10
-104.3432672283
 20
-27.178649588
 30
0.0
 10
-104.3554853211
 20
-27.0525762185
 30
0.0
 11
-104.3116728985
 21
-27.5233626258
 31
0.0
 11
-104.3198413855
 21
-27.43089288
 31
0.0
 11
-104.3554853211
 21
-27.0525762185
 31
0.0
  0
LINE
  5
5E5
100
AcDbEntity
  8
0
100
AcDbLine
 62
7
  6
CONTINUOUS
 10
-104.3554853211
 20
-27.0525762185
 11
-104.3671446789
 21
-26.9328175584
  0
SPLINE
  5
5E6
100
AcDbEntity
  8
0
100
AcDbSpline
 62
7
  6
CONTINUOUS
 70
0
 71
3
 72
15
 73
11
 74
9
 42
0.0000001
 43
0.0000001
 44
0.0000000001
 12
-0.0538135799
 22
0.4766136787
 32
0.0
 13
-0.4796420541
 23
-0.0
 33
0.0
 40
0.0
 40
0.0
 40
0.0
 40
0.0
 40
0.4090881048
 40
0.5806221368
 40
0.7258350021
 40
0.842082767
 40
0.9271976023
 40
0.9797371722
 40
0.9936631385
 40
1.0
 40
1.0
 40
1.0
 40
1.0
 10
-104.4267758474
 20
-26.3575403575
 30
0.0
 10
-104.4341140125
 20
-26.2925480286
 30
0.0
 10
-104.4449216866
 20
-26.2003603894
 30
0.0
 10
-104.4599636712
 20
-26.0852552093
 30
0.0
 10
-104.4697265923
 20
-26.0167956975
 30
0.0
 10
-104.4785076441
 20
-25.9618705738
 30
0.0
 10
-104.4858981029
 20
-25.9224429715
 30
0.0
 10
-104.4916998853
 20
-25.8980112268
 30
0.0
 10
-104.4955049056
 20
-25.8878910185
 30
0.0
 10
-104.4976399862
 20
-25.884526617
 30
0.0
 10
-104.498653128
 20
-25.884526617
 30
0.0
 11
-104.4267758474
 21
-26.3575403575
 31
0.0
 11
-104.4499515997
 21
-26.162697991
 31
0.0
 11
-104.4606785581
 21
-26.0811253401
 31
0.0
 11
-104.4706046285
 21
-26.0121860693
 31
0.0
 11
-104.4795495132
 21
-25.9571509222
 31
0.0
 11
-104.4873287736
 21
-25.9170743016
 31
0.0
 11
-104.4937588461
 21
-25.8927082678
 31
0.0
 11
-104.4964098038
 21
-25.8865773736
 31
0.0
 11
-104.498653128
 21
-25.884526617
 31
0.0
  0
SPLINE
  5
5E7
100
AcDbEntity
  8
SUPERFICI
100
AcDbSpline
 62
253
  6
CONTINUOUS
 70
0
 71
3
 72
8
 73
4
 74
2
 42
0.0000001
 43
0.0000001
 44
0.0000000001
 12
-0.0056139973
 22
2.3010819444
 32
0.0
 13
-0.0021348386
 23
2.3010878024
 33
0.0
 40
0.0
 40
0.0
 40
0.0
 40
0.0
 40
1.0
 40
1.0
 40
1.0
 40
1.0
 10
-101.7850219106
 20
34.5849363836
 30
0.0
 10
-101.7868932431
 20
35.3519636984
 30
0.0
 10
-101.785754075
 20
36.1189954559
 30
0.0
 10
-101.7864656878
 20
36.8860247234
 30
0.0
 11
-101.7850219106
 21
34.5849363836
 31
0.0
 11
-101.7864656878
 21
36.8860247234
 31
0.0
  0
LINE
  5
5E8
100
AcDbEntity
  8
SUPERFICI
100
AcDbLine
 62
253
  6
CONTINUOUS
 10
-101.7517511077
 20
-39.087808967
 11
-101.7770717332
 21
-39.0154938056
  0
SPLINE
  5
5E9
100
AcDbEntity
  8
SUPERFICI
100
AcDbSpline
 62
253
  6
CONTINUOUS
 70
0
 71
3
 72
10
 73
6
 74
4
 42
0.0000001
 43
0.0000001
 44
0.0000000001
 12
-1.2788286793
 22
3.6704643087
 32
0.0
 13
-0.873971232
 23
3.7873322165
 33
0.0
 40
0.0
 40
0.0
 40
0.0
 40
0.0
 40
0.2373490433
 40
0.483149247
 40
1.0
 40
1.0
 40
1.0
 40
1.0
 10
-101.7770717332
 20
-39.0154938056
 30
0.0
 10
-101.8782479877
 20
-38.7251000748
 30
0.0
 10
-102.0732040023
 20
-38.1300465595
 30
0.0
 10
-102.4253260376
 20
-36.8828671709
 30
0.0
 10
-102.6486658016
 20
-35.9199985553
 30
0.0
 10
-102.799236698
 20
-35.2675033859
 30
0.0
 11
-101.7770717332
 21
-39.0154938056
 31
0.0
 11
-102.0638019858
 21
-38.1386402588
 31
0.0
 11
-102.3251873277
 21
-37.2196998572
 31
0.0
 11
-102.799236698
 21
-35.2675033859
 31
0.0
  0
LINE
  5
5EA
100
AcDbEntity
  8
SUPERFICI
100
AcDbLine
 62
253
  6
CONTINUOUS
 10
-102.7992376074
 20
26.6049433242
 11
-102.7992381909
 21
29.9007983638
  0
LINE
  5
5EB
100
AcDbEntity
  8
0
100
AcDbLine
 62
7
  6
CONTINUOUS
 10
-104.3751267093
 20
-27.664027693
 11
-104.3603199269
 21
-27.7899178732
  0
LINE
  5
5EC
100
AcDbEntity
  8
0
100
AcDbLine
 62
7
  6
CONTINUOUS
 10
-104.3206975872
 20
-28.1183593874
 11
-104.3086576897
 21
-28.2157990218
  0
SPLINE
  5
5ED
100
AcDbEntity
  8
SUPERFICI
100
AcDbSpline
 62
253
  6
CONTINUOUS
 70
0
 71
3
 72
10
 73
6
 74
4
 42
0.0000001
 43
0.0000001
 44
0.0000000001
 12
-1.9252869521
 22
-8.4893925785
 32
0.0
 13
-1.2883856914
 23
-8.6090985888
 33
0.0
 40
0.0
 40
0.0
 40
0.0
 40
0.0
 40
0.2758490414
 40
0.533390594
 40
1.0
 40
1.0
 40
1.0
 40
1.0
 10
-102.7992381909
 20
29.9007983638
 30
0.0
 10
-102.976267711
 20
29.120201429
 30
0.0
 10
-103.3270435241
 20
27.612742011
 30
0.0
 10
-103.9677693554
 20
24.7827296766
 30
0.0
 10
-104.34905925
 20
22.7146606338
 30
0.0
 10
-104.5494502107
 20
21.375631841
 30
0.0
 11
-102.7992381909
 21
29.9007983638
 31
0.0
 11
-103.336671052
 21
27.560455408
 31
0.0
 11
-103.8233549051
 21
25.3720273936
 31
0.0
 11
-104.5494502107
 21
21.375631841
 31
0.0
  0
LINE
  5
5EE
100
AcDbEntity
  8
0
100
AcDbLine
 62
7
  6
CONTINUOUS
 10
-104.255170249
 20
-28.5948726504
 11
-104.2304266243
 21
-28.7846585041
  0
SPLINE
  5
5EF
100
AcDbEntity
  8
SUPERFICI
100
AcDbSpline
 62
253
  6
CONTINUOUS
 70
0
 71
3
 72
12
 73
8
 74
6
 42
0.0000001
 43
0.0000001
 44
0.0000000001
 12
-0.5505642139
 22
0.3547945835
 32
0.0
 13
-0.6549185412
 23
0.0090473441
 33
0.0
 40
0.0
 40
0.0
 40
0.0
 40
0.0
 40
0.0427385987
 40
0.1085315335
 40
0.313666638
 40
0.6132403636
 40
1.0
 40
1.0
 40
1.0
 40
1.0
 10
-104.5507988218
 20
22.2456418574
 30
0.0
 10
-104.5586422694
 20
22.2506963318
 30
0.0
 10
-104.5815751481
 20
22.2582836606
 30
0.0
 10
-104.6490811881
 20
22.269330811
 30
0.0
 10
-104.7742911932
 20
22.2684419602
 30
0.0
 10
-104.9685866473
 20
22.2666486209
 30
0.0
 10
-105.118519168
 20
22.2696313086
 30
0.0
 10
-105.2029511869
 20
22.2707976911
 30
0.0
 11
-104.5507988218
 21
22.2456418574
 31
0.0
 11
-104.5767696102
 21
22.2560881292
 31
0.0
 11
-104.6191605662
 21
22.2638356582
 31
0.0
 11
-104.7534373909
 21
22.2685512735
 31
0.0
 11
-104.9496504528
 21
22.2676553116
 31
0.0
 11
-105.2029511869
 21
22.2707976911
 31
0.0
  0
LINE
  5
5F0
100
AcDbEntity
  8
0
100
AcDbLine
 62
7
  6
CONTINUOUS
 10
-104.561906817
 20
-25.8845285041
 11
-104.5517649743
 21
-25.9773314332
  0
LINE
  5
5F1
100
AcDbEntity
  8
0
100
AcDbLine
 62
7
  6
CONTINUOUS
 10
-104.5517649743
 20
-25.9773314332
 11
-104.5027778318
 21
-26.4237719491
  0
LINE
  5
5F2
100
AcDbEntity
  8
0
100
AcDbLine
 62
7
  6
CONTINUOUS
 10
-104.5027778318
 20
-26.4237719491
 11
-104.494132051
 21
-26.5018783165
  0
LINE
  5
5F3
100
AcDbEntity
  8
0
100
AcDbLine
 62
7
  6
CONTINUOUS
 10
-104.494132051
 20
-26.5018783165
 11
-104.4621986511
 21
-26.7873937699
  0
LINE
  5
5F4
100
AcDbEntity
  8
0
100
AcDbLine
 62
7
  6
CONTINUOUS
 10
-104.4621986511
 20
-26.7873937699
 11
-104.4589173849
 21
-26.8164200388
  0
LINE
  5
5F5
100
AcDbEntity
  8
0
100
AcDbLine
 62
7
  6
CONTINUOUS
 10
-104.4589173849
 20
-26.8164200388
 11
-104.4230461138
 21
-27.1295148721
  0
LINE
  5
5F6
100
AcDbEntity
  8
0
100
AcDbLine
 62
7
  6
CONTINUOUS
 10
-104.3598920611
 20
-27.6622128854
 11
-104.3451502592
 21
-27.7832295531
  0
LINE
  5
5F7
100
AcDbEntity
  8
0
100
AcDbLine
 62
7
  6
CONTINUOUS
 10
-104.4867996838
 20
-26.4616385536
 11
-104.4699226565
 21
-26.6059620932
  0
LINE
  5
5F8
100
AcDbEntity
  8
0
100
AcDbLine
 62
7
  6
CONTINUOUS
 10
-104.4699226565
 20
-26.6059620932
 11
-104.426626038
 21
-26.9755750254
  0
LINE
  5
5F9
100
AcDbEntity
  8
0
100
AcDbLine
 62
7
  6
CONTINUOUS
 10
-104.426626038
 20
-26.9755750254
 11
-104.4088224547
 21
-27.1267795041
  0
LINE
  5
5FA
100
AcDbEntity
  8
0
100
AcDbLine
 62
7
  6
CONTINUOUS
 10
-104.4914815927
 20
-26.4210495041
 11
-104.4867996838
 21
-26.4616385536
  0
LINE
  5
5FB
100
AcDbEntity
  8
0
100
AcDbLine
 62
7
  6
CONTINUOUS
 10
-104.1454154608
 20
-28.7846515041
 11
-104.1643171407
 21
-28.6497844922
  0
LINE
  5
5FC
100
AcDbEntity
  8
0
100
AcDbLine
 62
7
  6
CONTINUOUS
 10
-104.2721147189
 20
-27.8537557079
 11
-104.3060836834
 21
-27.593554171
  0
LINE
  5
5FD
100
AcDbEntity
  8
0
100
AcDbLine
 62
7
  6
CONTINUOUS
 10
-104.3422387298
 20
-27.5196328819
 11
-104.3363036263
 21
-27.593554171
  0
SPLINE
  5
5FE
100
AcDbEntity
  8
0
100
AcDbSpline
 62
7
  6
CONTINUOUS
 70
0
 71
3
 72
17
 73
13
 74
11
 42
0.0000001
 43
0.0000001
 44
0.0000000001
 12
0.5846808492
 22
0.0
 32
0.0
 13
0.0630155482
 23
-0.5812750951
 33
0.0
 40
0.0
 40
0.0
 40
0.0
 40
0.0
 40
0.0061760042
 40
0.0202933278
 40
0.0428835781
 40
0.0739299679
 40
0.1607045413
 40
0.2787132316
 40
0.4252703233
 40
0.5970257486
 40
0.7900622477
 40
1.0
 40
1.0
 40
1.0
 40
1.0
 10
-104.5287975552
 20
-25.884526617
 30
0.0
 10
-104.5275938914
 20
-25.884526617
 30
0.0
 10
-104.5252226248
 20
-25.8888962937
 30
0.0
 10
-104.5226641762
 20
-25.8960182898
 30
0.0
 10
-104.5191524398
 20
-25.9091952258
 30
0.0
 10
-104.5133875925
 20
-25.9356966638
 30
0.0
 10
-104.5053876127
 20
-25.9811527007
 30
0.0
 10
-104.4951461534
 20
-26.0487728529
 30
0.0
 10
-104.4837270443
 20
-26.1330736814
 30
0.0
 10
-104.4714075373
 20
-26.2319582234
 30
0.0
 10
-104.4584307148
 20
-26.3432195793
 30
0.0
 10
-104.4497947694
 20
-26.4212799516
 30
0.0
 10
-104.4453849885
 20
-26.4619571472
 30
0.0
 11
-104.5287975552
 21
-25.884526617
 31
0.0
 11
-104.5262580565
 21
-25.8870937565
 31
0.0
 11
-104.5232121837
 21
-25.8947653469
 31
0.0
 11
-104.5196932338
 21
-25.9074960401
 31
0.0
 11
-104.5157339821
 21
-25.9252112246
 31
0.0
 11
-104.5066226612
 21
-25.9751218229
 31
0.0
 11
-104.4961351025
 21
-26.0433175357
 31
0.0
 11
-104.4845268157
 21
-26.1282167336
 31
0.0
 11
-104.4720426111
 21
-26.2278598186
 31
0.0
 11
-104.4589185291
 21
-26.3399589218
 31
0.0
 11
-104.4453849885
 21
-26.4619571472
 31
0.0
  0
LINE
  5
5FF
100
AcDbEntity
  8
0
100
AcDbLine
 62
7
  6
CONTINUOUS
 10
-104.3932013345
 20
-26.9750343573
 11
-104.3710710436
 21
-27.2040690354
  0
SPLINE
  5
600
100
AcDbEntity
  8
0
100
AcDbSpline
 62
7
  6
CONTINUOUS
 70
0
 71
3
 72
9
 73
5
 74
3
 42
0.0000001
 43
0.0000001
 44
0.0000000001
 12
0.0301911891
 22
-0.3154375169
 32
0.0
 13
0.0288682406
 23
-0.3155613406
 33
0.0
 40
0.0
 40
0.0
 40
0.0
 40
0.0
 40
0.2908110601
 40
1.0
 40
1.0
 40
1.0
 40
1.0
 10
-104.3710710436
 20
-27.2040690354
 30
0.0
 10
-104.3681443997
 20
-27.2346466083
 30
0.0
 10
-104.3580557013
 20
-27.3397906053
 30
0.0
 10
-104.3490630755
 20
-27.4450353444
 30
0.0
 10
-104.3422387298
 20
-27.5196328819
 30
0.0
 11
-104.3710710436
 21
-27.2040690354
 31
0.0
 11
-104.3623692856
 21
-27.2958092026
 31
0.0
 11
-104.3422387298
 21
-27.5196328819
 31
0.0
  0
LINE
  5
601
100
AcDbEntity
  8
0
100
AcDbLine
 62
7
  6
CONTINUOUS
 10
-104.3363036263
 20
-27.593554171
 11
-104.302310339
 21
-27.8539914713
  0
LINE
  5
602
100
AcDbEntity
  8
0
100
AcDbLine
 62
7
  6
CONTINUOUS
 10
-104.1945537909
 20
-28.6499128745
 11
-104.175675292
 21
-28.7846515041
  0
SPLINE
  5
603
100
AcDbEntity
  8
SUPERFICI
100
AcDbSpline
 62
253
  6
CONTINUOUS
 70
0
 71
3
 72
9
 73
5
 74
3
 42
0.0000001
 43
0.0000001
 44
0.0000000001
 12
-0.2158877195
 22
-0.0020326178
 32
0.0
 13
-0.2154476897
 23
0.0139259455
 33
0.0
 40
0.0
 40
0.0
 40
0.0
 40
0.0
 40
0.729783805
 40
1.0
 40
1.0
 40
1.0
 40
1.0
 10
-105.2006927935
 20
22.2707990983
 30
0.0
 10
-105.253209914
 20
22.2703046411
 30
0.0
 10
-105.3251261551
 20
22.271069875
 30
0.0
 10
-105.3971801878
 20
22.2695011899
 30
0.0
 10
-105.4165860062
 20
22.2707555286
 30
0.0
 11
-105.2006927935
 21
22.2707990983
 31
0.0
 11
-105.3582499158
 21
22.2701785428
 31
0.0
 11
-105.4165860062
 21
22.2707555286
 31
0.0
  0
LINE
  5
604
100
AcDbEntity
  8
0
100
AcDbLine
 62
7
  6
CONTINUOUS
 10
-104.221529937
 20
-28.6579812162
 11
-104.2049213497
 21
-28.7846585041
  0
LINE
  5
605
100
AcDbEntity
  8
0
100
AcDbLine
 62
253
  6
CONTINUOUS
 10
-104.3987003313
 20
-27.1174005217
 11
-104.3974542125
 21
-27.1263996402
  0
LINE
  5
606
100
AcDbEntity
  8
0
100
AcDbLine
 62
253
  6
CONTINUOUS
 10
-104.3974542125
 20
-27.1263996402
 11
-104.3893395025
 21
-27.1848150546
  0
LINE
  5
607
100
AcDbEntity
  8
0
100
AcDbLine
 62
253
  6
CONTINUOUS
 10
-104.4917149361
 20
-26.4233237463
 11
-104.4866527619
 21
-26.4623397884
  0
SPLINE
  5
608
100
AcDbEntity
  8
SUPERFICI
100
AcDbSpline
 62
253
  6
CONTINUOUS
 70
0
 71
3
 72
20
 73
16
 74
14
 42
0.0000001
 43
0.0000001
 44
0.0000000001
 12
0.008685036
 22
-2.1286888906
 32
0.0
 13
-2.1259581302
 23
0.1081381128
 33
0.0
 40
0.0
 40
0.0
 40
0.0
 40
0.0
 40
0.2056985296
 40
0.397717598
 40
0.5703765552
 40
0.7189091598
 40
0.7827539299
 40
0.8390409529
 40
0.8873594311
 40
0.9273576853
 40
0.9587658442
 40
0.9813394466
 40
0.9949723863
 40
0.9984748314
 40
1.0
 40
1.0
 40
1.0
 40
1.0
 10
-100.8520816607
 20
-37.6380216914
 30
0.0
 10
-100.851486161
 20
-37.7839777497
 30
0.0
 10
-100.8503633395
 20
-38.0661836495
 30
0.0
 10
-100.8485207693
 20
-38.4709005116
 30
0.0
 10
-100.8468759437
 20
-38.8350563316
 30
0.0
 10
-100.8459503967
 20
-39.1082614712
 30
0.0
 10
-100.8454754638
 20
-39.2989021588
 30
0.0
 10
-100.8453199423
 20
-39.4184162207
 30
0.0
 10
-100.8453994817
 20
-39.5210613042
 30
0.0
 10
-100.8457696477
 20
-39.6059050928
 30
0.0
 10
-100.8468975195
 20
-39.6728674864
 30
0.0
 10
-100.8485599275
 20
-39.7201711656
 30
0.0
 10
-100.8515052929
 20
-39.7493635769
 30
0.0
 10
-100.853817759
 20
-39.7612678809
 30
0.0
 10
-100.8560306473
 20
-39.7652974953
 30
0.0
 10
-100.8571114621
 20
-39.765242519
 30
0.0
 11
-100.8520816607
 21
-37.6380216914
 31
0.0
 11
-100.8502813907
 21
-38.0758898098
 31
0.0
 11
-100.848460803
 21
-38.484638015
 31
0.0
 11
-100.8468729803
 21
-38.8521748484
 31
0.0
 11
-100.8458128968
 21
-39.168355408
 31
0.0
 11
-100.8454907582
 21
-39.3042618104
 31
0.0
 11
-100.8453572078
 21
-39.4240802937
 31
0.0
 11
-100.8454712502
 21
-39.5269360943
 31
0.0
 11
-100.8459958213
 21
-39.6120790264
 31
0.0
 11
-100.8472335307
 21
-39.6789263244
 31
0.0
 11
-100.8494776339
 21
-39.7269264715
 31
0.0
 11
-100.8527963061
 21
-39.7557566208
 31
0.0
 11
-100.8548343593
 21
-39.7629283343
 31
0.0
 11
-100.8571114621
 21
-39.765242519
 31
0.0
  0
SPLINE
  5
609
100
AcDbEntity
  8
SUPERFICI
100
AcDbSpline
 62
253
  6
CONTINUOUS
 70
0
 71
3
 72
9
 73
5
 74
3
 42
0.0000001
 43
0.0000001
 44
0.0000000001
 12
0.0020047926
 22
-0.5965186065
 32
0.0
 13
0.0039780797
 23
-0.5965087107
 33
0.0
 40
0.0
 40
0.0
 40
0.0
 40
0.0
 40
0.2518993629
 40
1.0
 40
1.0
 40
1.0
 40
1.0
 10
-100.8560088315
 20
-37.0415131234
 30
0.0
 10
-100.8558404961
 20
-37.0916006757
 30
0.0
 10
-100.8549998116
 20
-37.2904398828
 30
0.0
 10
-100.853073662
 20
-37.4892721759
 30
0.0
 10
-100.8520816607
 20
-37.6380216914
 30
0.0
 11
-100.8560088315
 21
-37.0415131234
 31
0.0
 11
-100.855348084
 21
-37.1917751762
 31
0.0
 11
-100.8520816607
 21
-37.6380216914
 31
0.0
  0
LINE
  5
60A
100
AcDbEntity
  8
SUPERFICI
100
AcDbLine
 62
253
  6
CONTINUOUS
 10
-100.8596052399
 20
-37.0415281228
 11
-100.8596052399
 21
-0.0000000307
  0
SPLINE
  5
60B
100
AcDbEntity
  8
SUPERFICI
100
AcDbSpline
 62
253
  6
CONTINUOUS
 70
0
 71
3
 72
12
 73
8
 74
6
 42
0.0000001
 43
0.0000001
 44
0.0000000001
 12
0.5076239732
 22
-0.8256305088
 32
0.0
 13
0.9691922227
 23
-0.0037776569
 33
0.0
 40
0.0
 40
0.0
 40
0.0
 40
0.0
 40
0.0539594091
 40
0.1306755697
 40
0.3540513774
 40
0.6545740516
 40
1.0
 40
1.0
 40
1.0
 40
1.0
 10
-101.7872866082
 20
-37.4564951983
 30
0.0
 10
-101.7781562449
 20
-37.4713453765
 30
0.0
 10
-101.7447576349
 20
-37.499540173
 30
0.0
 10
-101.6416220763
 20
-37.5490546658
 30
0.0
 10
-101.4511275747
 20
-37.5947169326
 30
0.0
 10
-101.1726098724
 20
-37.6294471506
 30
0.0
 10
-100.9636761275
 20
-37.6375866522
 30
0.0
 10
-100.8520814132
 20
-37.6380216191
 30
0.0
 11
-101.7872866082
 21
-37.4564951983
 31
0.0
 11
-101.7497780826
 21
-37.4929387494
 31
0.0
 11
-101.6838369362
 21
-37.5272924117
 31
0.0
 11
-101.4752894323
 21
-37.5854159365
 31
0.0
 11
-101.1865671412
 21
-37.6238292689
 31
0.0
 11
-100.8520814132
 21
-37.6380216191
 31
0.0
  0
SPLINE
  5
60C
100
AcDbEntity
  8
SUPERFICI
100
AcDbSpline
 62
253
  6
CONTINUOUS
 70
0
 71
3
 72
8
 73
4
 74
2
 42
0.0000001
 43
0.0000001
 44
0.0000000001
 12
0.0031267851
 22
-3.8323951378
 32
0.0
 13
0.0013226014
 23
-3.8323961852
 33
0.0
 40
0.0
 40
0.0
 40
0.0
 40
0.0
 40
1.0
 40
1.0
 40
1.0
 40
1.0
 10
-101.7853838975
 20
34.5849325454
 30
0.0
 10
-101.7843416358
 20
33.3074674995
 30
0.0
 10
-101.7837666619
 20
32.0300020797
 30
0.0
 10
-101.7833257948
 20
30.7525366847
 30
0.0
 11
-101.7853838975
 21
34.5849325454
 31
0.0
 11
-101.7833257948
 21
30.7525366847
 31
0.0
  0
SPLINE
  5
60D
100
AcDbEntity
  8
SUPERFICI
100
AcDbSpline
 62
253
  6
CONTINUOUS
 70
0
 71
3
 72
14
 73
10
 74
8
 42
0.0000001
 43
0.0000001
 44
0.0000000001
 12
-0.0000383861
 22
37.0415221641
 32
0.0
 13
0.1869898628
 23
37.0410501879
 33
0.0
 40
0.0
 40
0.0
 40
0.0
 40
0.0
 40
0.2500000204
 40
0.5000000408
 40
0.625000051
 40
0.7500000612
 40
0.8750000716
 40
0.9375000765
 40
1.0
 40
1.0
 40
1.0
 40
1.0
 10
-100.8596052399
 20
-0.0000000307
 30
0.0
 10
-100.8596084388
 20
3.0867937347
 30
0.0
 10
-100.8596095582
 20
9.2603813
 30
0.0
 10
-100.8596025172
 20
16.9773655849
 30
0.0
 10
-100.8596172506
 20
23.1509533734
 30
0.0
 10
-100.8595721887
 20
27.7811432388
 30
0.0
 10
-100.8597106739
 20
31.6396379044
 30
0.0
 10
-100.859472946
 20
34.7264256476
 30
0.0
 10
-100.8599043054
 20
36.2698317307
 30
0.0
 10
-100.8560086881
 20
37.0415193314
 30
0.0
 11
-100.8596052399
 21
-0.0000000307
 31
0.0
 11
-100.8596078702
 21
9.2603812657
 31
0.0
 11
-100.8596078978
 21
18.5207625621
 31
0.0
 11
-100.8596078986
 21
23.1509532103
 31
0.0
 11
-100.8596073961
 21
27.7811438582
 31
0.0
 11
-100.8596221989
 21
32.4113345157
 31
0.0
 11
-100.8596105019
 21
34.7264298325
 31
0.0
 11
-100.8560086881
 21
37.0415193314
 31
0.0
  0
SPLINE
  5
60E
100
AcDbEntity
  8
SUPERFICI
100
AcDbSpline
 62
253
  6
CONTINUOUS
 70
0
 71
3
 72
9
 73
5
 74
3
 42
0.0000001
 43
0.0000001
 44
0.0000000001
 12
-0.003977566
 22
-0.5964932423
 32
0.0
 13
-0.0020057055
 23
-0.5965031318
 33
0.0
 40
0.0
 40
0.0
 40
0.0
 40
0.0
 40
0.2473249496
 40
1.0
 40
1.0
 40
1.0
 40
1.0
 10
-100.8520816347
 20
37.638021696
 30
0.0
 10
-100.8524095518
 20
37.588845809
 30
0.0
 10
-100.8537549634
 20
37.3900150018
 30
0.0
 10
-100.8555055912
 20
37.1911858046
 30
0.0
 10
-100.856008806
 20
37.0415281297
 30
0.0
 11
-100.8520816347
 21
37.638021696
 31
0.0
 11
-100.8530998464
 21
37.4904942687
 31
0.0
 11
-100.856008806
 21
37.0415281297
 31
0.0
  0
LINE
  5
60F
100
AcDbEntity
  8
SUPERFICI
100
AcDbLine
 62
253
  6
CONTINUOUS
 10
-105.2038547704
 20
-22.6197666114
 11
-105.2057375943
 21
-22.2708009356
  0
LINE
  5
610
100
AcDbEntity
  8
SUPERFICI
100
AcDbLine
 62
253
  6
CONTINUOUS
 10
-105.2018981358
 20
-24.2048085532
 11
-105.2038547704
 21
-22.6197666114
  0
SPLINE
  5
611
100
AcDbEntity
  8
SUPERFICI
100
AcDbSpline
 62
253
  6
CONTINUOUS
 70
0
 71
3
 72
9
 73
5
 74
3
 42
0.0000001
 43
0.0000001
 44
0.0000000001
 12
-0.0167200701
 22
-0.0871785343
 32
0.0
 13
-0.0011478191
 23
-0.0887600141
 33
0.0
 40
0.0
 40
0.0
 40
0.0
 40
0.0
 40
0.4025551552
 40
1.0
 40
1.0
 40
1.0
 40
1.0
 10
-101.7708786739
 20
39.0031618929
 30
0.0
 10
-101.7731222574
 20
38.9914638367
 30
0.0
 10
-101.774665037
 20
38.9617676228
 30
0.0
 10
-101.7751494703
 20
38.9322381284
 30
0.0
 10
-101.7753780566
 20
38.9145617241
 30
0.0
 11
-101.7708786739
 21
39.0031618929
 31
0.0
 11
-101.7741928595
 21
38.9675821257
 31
0.0
 11
-101.7753780566
 21
38.9145617241
 31
0.0
  0
LINE
  5
612
100
AcDbEntity
  8
SUPERFICI
100
AcDbLine
 62
253
  6
CONTINUOUS
 10
-101.7753780566
 20
38.9145617241
 11
-101.7794706903
 21
38.4901708653
  0
SPLINE
  5
613
100
AcDbEntity
  8
SUPERFICI
100
AcDbSpline
 62
253
  6
CONTINUOUS
 70
0
 71
3
 72
11
 73
7
 74
5
 42
0.0000001
 43
0.0000001
 44
0.0000000001
 12
-1.2577706278
 22
-0.0656951328
 32
0.0
 13
-0.3057101906
 23
-1.2218199875
 33
0.0
 40
0.0
 40
0.0
 40
0.0
 40
0.0
 40
0.2493530821
 40
0.4986769605
 40
0.7493340838
 40
1.0
 40
1.0
 40
1.0
 40
1.0
 10
-100.8585073305
 20
39.7651716535
 30
0.0
 10
-100.9630503247
 20
39.7597112256
 30
0.0
 10
-101.1719747034
 20
39.714970306
 30
0.0
 10
-101.4470634777
 20
39.5520284168
 30
0.0
 10
-101.6591797704
 20
39.312127958
 30
0.0
 10
-101.7435458209
 20
39.1146734324
 30
0.0
 10
-101.7690895293
 20
39.0125838902
 30
0.0
 11
-100.8585073305
 21
39.7651716535
 31
0.0
 11
-101.1655225344
 21
39.6990418587
 31
0.0
 11
-101.4360640816
 21
39.5396189782
 31
0.0
 11
-101.6448535874
 21
39.3028221229
 31
0.0
 11
-101.7690895293
 21
39.0125838902
 31
0.0
  0
LINE
  5
614
100
AcDbEntity
  8
SUPERFICI
100
AcDbLine
 62
253
  6
CONTINUOUS
 10
-105.2057375789
 20
22.2708009428
 11
-105.2038547279
 21
22.6197666245
  0
SPLINE
  5
615
100
AcDbEntity
  8
SUPERFICI
100
AcDbSpline
 62
253
  6
CONTINUOUS
 70
0
 71
3
 72
20
 73
16
 74
14
 42
0.0000001
 43
0.0000001
 44
0.0000000001
 12
0.0086698119
 22
2.1286415657
 32
0.0
 13
-2.1257811056
 23
-0.1106560957
 33
0.0
 40
0.0
 40
0.0
 40
0.0
 40
0.0
 40
0.2056973489
 40
0.3976946458
 40
0.5703390984
 40
0.7188667115
 40
0.7827139376
 40
0.8390093125
 40
0.887334265
 40
0.9273490483
 40
0.9587703272
 40
0.9813489803
 40
0.9949921347
 40
0.9984950213
 40
1.0
 40
1.0
 40
1.0
 40
1.0
 10
-100.8520816347
 20
37.638021696
 30
0.0
 10
-100.8514871822
 20
37.7839736716
 30
0.0
 10
-100.850358694
 20
38.0661569845
 30
0.0
 10
-100.8485272003
 20
38.4708382865
 30
0.0
 10
-100.8468824471
 20
38.8349567857
 30
0.0
 10
-100.8459188372
 20
39.1081434129
 30
0.0
 10
-100.8454941255
 20
39.2987845181
 30
0.0
 10
-100.8453686065
 20
39.4183072348
 30
0.0
 10
-100.8453981949
 20
39.5209751198
 30
0.0
 10
-100.8457302358
 20
39.6058347977
 30
0.0
 10
-100.8468488249
 20
39.6728415493
 30
0.0
 10
-100.8486215632
 20
39.7201144676
 30
0.0
 10
-100.8515861013
 20
39.7493932295
 30
0.0
 10
-100.8539152218
 20
39.7612106454
 30
0.0
 10
-100.8560450136
 20
39.7652980367
 30
0.0
 10
-100.8571114321
 20
39.765242525
 30
0.0
 11
-100.8520816347
 21
37.638021696
 31
0.0
 11
-100.8502800646
 21
38.0758775482
 31
0.0
 11
-100.8484656753
 21
38.4845703373
 31
0.0
 11
-100.8468703298
 21
38.8520680805
 31
0.0
 11
-100.845802672
 21
39.1682309511
 31
0.0
 11
-100.8455105441
 21
39.3041396238
 31
0.0
 11
-100.8453914345
 21
39.4239732336
 31
0.0
 11
-100.84546778
 21
39.526840561
 31
0.0
 11
-100.8459586022
 21
39.6120169841
 31
0.0
 11
-100.8472156542
 21
39.6788903656
 31
0.0
 11
-100.8495372121
 21
39.7268965217
 31
0.0
 11
-100.8528883694
 21
39.7557441527
 31
0.0
 11
-100.8549007805
 21
39.7629239072
 31
0.0
 11
-100.8571114321
 21
39.765242525
 31
0.0
  0
SPLINE
  5
616
100
AcDbEntity
  8
SUPERFICI
100
AcDbSpline
 62
253
  6
CONTINUOUS
 70
0
 71
3
 72
12
 73
8
 74
6
 42
0.0000001
 43
0.0000001
 44
0.0000000001
 12
0.5068858457
 22
0.826111472
 32
0.0
 13
0.9692149468
 23
0.0039763872
 33
0.0
 40
0.0
 40
0.0
 40
0.0
 40
0.0
 40
0.0539822529
 40
0.130730285
 40
0.3542078324
 40
0.6545648862
 40
1.0
 40
1.0
 40
1.0
 40
1.0
 10
-101.7872865947
 20
37.4564952337
 30
0.0
 10
-101.7781656481
 20
37.4713603532
 30
0.0
 10
-101.7448073073
 20
37.4996320937
 30
0.0
 10
-101.6415890108
 20
37.5491410842
 30
0.0
 10
-101.4510804161
 20
37.5946563373
 30
0.0
 10
-101.1725937018
 20
37.629526728
 30
0.0
 10
-100.9637033919
 20
37.6376819715
 30
0.0
 10
-100.8521031001
 20
37.6381398327
 30
0.0
 11
-101.7872865947
 21
37.4564952337
 31
0.0
 11
-101.7498086844
 21
37.493003825
 31
0.0
 11
-101.6838406885
 21
37.5273767131
 31
0.0
 11
-101.475165588
 21
37.58542919
 31
0.0
 11
-101.1866029263
 21
37.6238787234
 31
0.0
 11
-100.8521031001
 21
37.6381398327
 31
0.0
  0
SPLINE
  5
617
100
AcDbEntity
  8
SUPERFICI
100
AcDbSpline
 62
253
  6
CONTINUOUS
 70
0
 71
3
 72
16
 73
12
 74
10
 42
0.0000001
 43
0.0000001
 44
0.0000000001
 12
-0.2207002787
 22
0.0038643056
 32
0.0
 13
-0.0010332397
 23
0.2207316884
 33
0.0
 40
0.0
 40
0.0
 40
0.0
 40
0.0
 40
0.4278182486
 40
0.599820302
 40
0.7422794021
 40
0.8542174099
 40
0.9348914595
 40
0.9633005577
 40
0.9836527499
 40
0.9958798986
 40
1.0
 40
1.0
 40
1.0
 40
1.0
 10
-105.2057375943
 20
-22.2708009356
 30
0.0
 10
-105.2372107965
 20
-22.2702498621
 30
0.0
 10
-105.2813514337
 20
-22.2696787009
 30
0.0
 10
-105.3359516186
 20
-22.2700160653
 30
0.0
 10
-105.3673552527
 20
-22.2703131832
 30
0.0
 10
-105.391927334
 20
-22.2703456007
 30
0.0
 10
-105.4083594373
 20
-22.2707544691
 30
0.0
 10
-105.4176462113
 20
-22.2708919702
 30
0.0
 10
-105.4225153227
 20
-22.2712973701
 30
0.0
 10
-105.4245363172
 20
-22.2708390766
 30
0.0
 10
-105.4264468697
 20
-22.2712645405
 30
0.0
 10
-105.4264482887
 20
-22.2709613948
 30
0.0
 11
-105.2057375943
 21
-22.2708009356
 31
0.0
 11
-105.3001670286
 21
-22.2698643519
 31
0.0
 11
-105.3381332831
 21
-22.2700522891
 31
0.0
 11
-105.3695779925
 21
-22.2702865807
 31
0.0
 11
-105.3942859011
 21
-22.2704626748
 31
0.0
 11
-105.4120901408
 21
-22.2708041638
 31
0.0
 11
-105.4183581548
 21
-22.2709929672
 31
0.0
 11
-105.4228491022
 21
-22.2711080985
 31
0.0
 11
-105.4255479907
 21
-22.2710900697
 31
0.0
 11
-105.4264482887
 21
-22.2709613948
 31
0.0
  0
SPLINE
  5
618
100
AcDbEntity
  8
SUPERFICI
100
AcDbSpline
 62
253
  6
CONTINUOUS
 70
0
 71
3
 72
9
 73
5
 74
3
 42
0.0000001
 43
0.0000001
 44
0.0000000001
 12
0.0016433563
 22
0.0094889872
 32
0.0
 13
-0.0039227131
 23
-0.008795102
 33
0.0
 40
0.0
 40
0.0
 40
0.0
 40
0.0
 40
0.4876534677
 40
1.0
 40
1.0
 40
1.0
 40
1.0
 10
-101.7707800192
 20
39.0031385397
 30
0.0
 10
-101.7705128898
 20
39.0046809856
 30
0.0
 10
-101.7702909717
 20
39.0063403886
 30
0.0
 10
-101.7687725292
 20
39.0141733117
 30
0.0
 10
-101.7694424587
 20
39.0126712651
 30
0.0
 11
-101.7707800192
 21
39.0031385397
 31
0.0
 11
-101.7699881304
 21
39.0077675124
 31
0.0
 11
-101.7694424587
 21
39.0126712651
 31
0.0
  0
SPLINE
  5
619
100
AcDbEntity
  8
SUPERFICI
100
AcDbSpline
 62
253
  6
CONTINUOUS
 70
0
 71
3
 72
10
 73
6
 74
4
 42
0.0000001
 43
0.0000001
 44
0.0000000001
 12
0.8345667986
 22
3.6165737719
 32
0.0
 13
1.1960008657
 23
3.5136433396
 33
0.0
 40
0.0
 40
0.0
 40
0.0
 40
0.0
 40
0.5160371466
 40
0.7625747122
 40
1.0
 40
1.0
 40
1.0
 40
1.0
 10
-102.7992342717
 20
35.2675138005
 30
0.0
 10
-102.6556784486
 20
35.8896092704
 30
0.0
 10
-102.4423237932
 20
36.8088871582
 30
0.0
 10
-102.1114349656
 20
38.0012873237
 30
0.0
 10
-101.9288001935
 20
38.5716995468
 30
0.0
 10
-101.8341465769
 20
38.8497754739
 30
0.0
 11
-102.7992342717
 21
35.2675138005
 31
0.0
 11
-102.3490759372
 21
37.1291950047
 31
0.0
 11
-102.1025818123
 21
38.0104231762
 31
0.0
 11
-101.8341465769
 21
38.8497754739
 31
0.0
  0
LINE
  5
61A
100
AcDbEntity
  8
SUPERFICI
100
AcDbLine
 62
253
  6
CONTINUOUS
 10
-104.5507908404
 20
-22.2456399411
 11
-104.5478992776
 21
-22.7948484525
  0
SPLINE
  5
61B
100
AcDbEntity
  8
SUPERFICI
100
AcDbSpline
 62
253
  6
CONTINUOUS
 70
0
 71
3
 72
9
 73
5
 74
3
 42
0.0000001
 43
0.0000001
 44
0.0000000001
 12
-0.0030859536
 22
-0.8700722322
 32
0.0
 13
0.0033919016
 23
-0.8700710933
 33
0.0
 40
0.0
 40
0.0
 40
0.0
 40
0.0
 40
0.2544337748
 40
1.0
 40
1.0
 40
1.0
 40
1.0
 10
-104.5494465006
 20
-21.3755644857
 30
0.0
 10
-104.5497082242
 20
-21.4493564065
 30
0.0
 10
-104.5505874559
 20
-21.7393803343
 30
0.0
 10
-104.551641804
 20
-22.0294088368
 30
0.0
 10
-104.5507988416
 20
-22.2456407104
 30
0.0
 11
-104.5494465006
 21
-21.3755644857
 31
0.0
 11
-104.5501669731
 21
-21.5969404681
 31
0.0
 11
-104.5507988416
 21
-22.2456407104
 31
0.0
  0
LINE
  5
61C
100
AcDbEntity
  8
SUPERFICI
100
AcDbLine
 62
253
  6
CONTINUOUS
 10
-102.799239565
 20
-29.9009653277
 11
-102.7992362297
 21
-31.8048111366
  0
LINE
  5
61D
100
AcDbEntity
  8
SUPERFICI
100
AcDbLine
 62
253
  6
CONTINUOUS
 10
-102.799232113
 20
35.2675323273
 11
-102.7992310477
 21
35.7922663628
  0
SPLINE
  5
61E
100
AcDbEntity
  8
SUPERFICI
100
AcDbSpline
 62
253
  6
CONTINUOUS
 70
0
 71
3
 72
8
 73
4
 74
2
 42
0.0000001
 43
0.0000001
 44
0.0000000001
 12
0.0021354061
 22
2.3010878018
 32
0.0
 13
0.0056104628
 23
2.301081953
 33
0.0
 40
0.0
 40
0.0
 40
0.0
 40
0.0
 40
1.0
 40
1.0
 40
1.0
 40
1.0
 10
-101.7864657133
 20
-36.8860247181
 30
0.0
 10
-101.7857539113
 20
-36.1189954509
 30
0.0
 10
-101.7868920888
 20
-35.3519636961
 30
0.0
 10
-101.7850219345
 20
-34.5849363784
 30
0.0
 11
-101.7864657133
 21
-36.8860247181
 31
0.0
 11
-101.7850219345
 21
-34.5849363784
 31
0.0
  0
SPLINE
  5
61F
100
AcDbEntity
  8
SUPERFICI
100
AcDbSpline
 62
253
  6
CONTINUOUS
 70
0
 71
3
 72
9
 73
5
 74
3
 42
0.0000001
 43
0.0000001
 44
0.0000000001
 12
-0.9892267815
 22
5.0848355843
 32
0.0
 13
-1.05525183
 23
5.0715447469
 33
0.0
 40
0.0
 40
0.0
 40
0.0
 40
0.0
 40
0.5295904919
 40
1.0
 40
1.0
 40
1.0
 40
1.0
 10
-101.7863207749
 20
-36.8848623649
 30
0.0
 10
-101.9609491408
 20
-35.9872355054
 30
0.0
 10
-102.2932129956
 20
-34.2927844649
 30
0.0
 10
-102.6337668249
 20
-32.5999497831
 30
0.0
 10
-102.7992336563
 20
-31.8047154932
 30
0.0
 11
-101.7863207749
 21
-36.8848623649
 31
0.0
 11
-102.3152017541
 21
-34.1929585192
 31
0.0
 11
-102.7992336563
 21
-31.8047154932
 31
0.0
  0
SPLINE
  5
620
100
AcDbEntity
  8
SUPERFICI
100
AcDbSpline
 62
253
  6
CONTINUOUS
 70
0
 71
3
 72
11
 73
7
 74
5
 42
0.0000001
 43
0.0000001
 44
0.0000000001
 12
0.0044541592
 22
-0.5131377222
 32
0.0
 13
0.0966552101
 23
-0.5039721538
 33
0.0
 40
0.0
 40
0.0
 40
0.0
 40
0.0
 40
0.399583604
 40
0.6944190538
 40
0.8881908032
 40
1.0
 40
1.0
 40
1.0
 40
1.0
 10
-101.7794707169
 20
-38.4901708601
 30
0.0
 10
-101.7788774472
 20
-38.5585180002
 30
0.0
 10
-101.7774261913
 20
-38.6772526362
 30
0.0
 10
-101.7765209977
 20
-38.8293013939
 30
0.0
 10
-101.7750575421
 20
-38.9317456457
 30
0.0
 10
-101.7744810147
 20
-38.9843789805
 30
0.0
 10
-101.7708787009
 20
-39.0031618877
 30
0.0
 11
-101.7794707169
 21
-38.4901708601
 31
0.0
 11
-101.7774534743
 21
-38.695210082
 31
0.0
 11
-101.7761656775
 21
-38.8465014919
 31
0.0
 11
-101.7749254374
 21
-38.9459290969
 31
0.0
 11
-101.7708787009
 21
-39.0031618877
 31
0.0
  0
SPLINE
  5
621
100
AcDbEntity
  8
SUPERFICI
100
AcDbSpline
 62
253
  6
CONTINUOUS
 70
0
 71
3
 72
10
 73
6
 74
4
 42
0.0000001
 43
0.0000001
 44
0.0000000001
 12
-1.1533416604
 22
5.2797570754
 32
0.0
 13
-1.0033320938
 23
5.3103066267
 33
0.0
 40
0.0
 40
0.0
 40
0.0
 40
0.0
 40
0.2529435914
 40
0.5062642384
 40
1.0
 40
1.0
 40
1.0
 40
1.0
 10
-101.779448709
 20
-38.4901667018
 30
0.0
 10
-101.8766921696
 20
-38.0450064631
 30
0.0
 10
-102.0649365357
 20
-37.1525982907
 30
0.0
 10
-102.4050009692
 20
-35.3834897182
 30
0.0
 10
-102.6341095036
 20
-34.057290909
 30
0.0
 10
-102.7992364821
 20
-33.1833281468
 30
0.0
 11
-101.779448709
 21
-38.4901667018
 31
0.0
 11
-102.0607818453
 21
-37.1524570825
 31
0.0
 11
-102.3203767988
 21
-35.8082841201
 31
0.0
 11
-102.7992364821
 21
-33.1833281468
 31
0.0
  0
SPLINE
  5
622
100
AcDbEntity
  8
SUPERFICI
100
AcDbSpline
 62
253
  6
CONTINUOUS
 70
0
 71
3
 72
9
 73
5
 74
3
 42
0.0000001
 43
0.0000001
 44
0.0000000001
 12
0.0039062691
 22
-0.0088024623
 32
0.0
 13
-0.0016445129
 23
0.0094888281
 33
0.0
 40
0.0
 40
0.0
 40
0.0
 40
0.0
 40
0.5115888164
 40
1.0
 40
1.0
 40
1.0
 40
1.0
 10
-101.7694424856
 20
-39.0126712599
 30
0.0
 10
-101.7687763511
 20
-39.0141723403
 30
0.0
 10
-101.7702886854
 20
-39.0063397053
 30
0.0
 10
-101.7705123133
 20
-39.0046833511
 30
0.0
 10
-101.7707800462
 20
-39.0031385346
 30
0.0
 11
-101.7694424856
 21
-39.0126712599
 31
0.0
 11
-101.7699864535
 21
-39.0077746389
 31
0.0
 11
-101.7707800462
 21
-39.0031385346
 31
0.0
  0
ELLIPSE
  5
623
100
AcDbEntity
  8
RACCORDO
100
AcDbEllipse
 62
7
  6
CONTINUOUS
 10
-59.988214943
 20
-4.2018133435
 30
0.0
 11
0.0000000008
 21
0.5
 31
0.0
 40
0.0524315045
 41
0.130899694
 42
1.5707963269
  0
ELLIPSE
  5
624
100
AcDbEntity
  8
RACCORDO
100
AcDbEllipse
 62
7
  6
CONTINUOUS
 10
-59.9882149304
 20
4.2017731098
 30
0.0
 11
0.0000000008
 21
0.5
 31
0.0
 40
0.0524315045
 41
-4.7123889803
 42
-3.2724923474
  0
ELLIPSE
  5
625
100
AcDbEntity
  8
RACCORDO
100
AcDbEllipse
 62
7
  6
CONTINUOUS
 10
59.9882149693
 20
-4.2018133435
 30
0.0
 11
0.0
 21
0.5
 31
0.0
 40
0.0524315505
 41
-1.5707963268
 42
-0.1308996939
  0
ELLIPSE
  5
626
100
AcDbEntity
  8
RACCORDO
100
AcDbEllipse
 62
7
  6
CONTINUOUS
 10
59.9882149693
 20
4.2017731098
 30
0.0
 11
-0.0
 21
0.5
 31
0.0
 40
0.0524315505
 41
-3.0106929597
 42
-1.5707963268
  0
ELLIPSE
  5
627
100
AcDbEntity
  8
RACCORDO
100
AcDbEllipse
 62
7
  6
CONTINUOUS
 10
-59.9357834277
 20
3.0614916516
 30
0.0
 11
0.0000000008
 21
0.5
 31
0.0
 40
0.0524315045
 41
-1.5707963267
 42
-0.1308996938
  0
ELLIPSE
  5
628
100
AcDbEntity
  8
RACCORDO
100
AcDbEllipse
 62
7
  6
CONTINUOUS
 10
-59.9357834369
 20
-3.0615318854
 30
0.0
 11
0.0000000008
 21
0.5
 31
0.0
 40
0.0524315045
 41
-3.0106929596
 42
-1.5707963267
  0
ELLIPSE
  5
629
100
AcDbEntity
  8
RACCORDO
100
AcDbEllipse
 62
7
  6
CONTINUOUS
 10
59.9357834188
 20
3.0614916516
 30
0.0
 11
-0.0
 21
0.5
 31
0.0
 40
0.0524315505
 41
0.1308996939
 42
1.5707963268
  0
ELLIPSE
  5
62A
100
AcDbEntity
  8
RACCORDO
100
AcDbEllipse
 62
7
  6
CONTINUOUS
 10
59.9357834188
 20
-3.0615318854
 30
0.0
 11
0.0
 21
0.5
 31
0.0
 40
0.0524315505
 41
-4.7123889804
 42
-3.2724923475
  0
ENDSEC
  0
SECTION
  2
OBJECTS
  0
DICTIONARY
  5
C
100
AcDbDictionary
280
0
281
1
  3
ACAD_GROUP
350
D
  3
ACAD_MLINESTYLE
350
17
  3
ACAD_LAYOUT
350
1A
  3
ACAD_PLOTSETTINGS
350
19
  3
ACAD_PLOTSTYLENAME
350
E
  0
DICTIONARY
  5
D
102
{ACAD_REACTORS
330
C
102
}
100
AcDbDictionary
280
0
281
1
  0
ACDBDICTIONARYWDFLT
  5
E
102
{ACAD_REACTORS
330
C
102
}
100
AcDbDictionary
281
1
  3
Normal
350
F
100
AcDbDictionaryWithDefault
340
F
  0
DICTIONARY
  5
17
102
{ACAD_REACTORS
330
C
102
}
100
AcDbDictionary
280
0
281
1
  3
Standard
350
18
  0
DICTIONARY
  5
19
102
{ACAD_REACTORS
330
C
102
}
100
AcDbDictionary
281
1
  0
DICTIONARY
  5
1A
102
{ACAD_REACTORS
330
C
102
}
100
AcDbDictionary
281
1
  3
Model
350
62B
  3
Layout1
350
62C
  0
ACDBPLACEHOLDER
  5
F
102
{ACAD_REACTORS
330
E
102
}
  0
MLINESTYLE
  5
18
102
{ACAD_REACTORS
330
17
102
}
100
AcDbMlineStyle
  2
STANDARD
 70
0
  3

 62
256
 51
90.0
 52
90.0
 71
2
 49
0.5
 62
256
  6
BYLAYER
 49
-0.5
 62
256
  6
BYLAYER
  0
LAYOUT
  5
62B
102
{ACAD_REACTORS
330
1A
102
}
100
AcDbPlotSettings
  1

  2
none_device
  4
ANSI_C_(22.00_x_17.00_Inches)
  6

 40
0.0
 41
0.0
 42
0.0
 43
0.0
 44
558.8
 45
431.8
 46
0.0
 47
0.0
 48
0.0
 49
0.0
140
0.0
141
0.0
142
1.0
143
1.0
 70
1024
 72
1
 73
0
 74
0
  7

 75
0
147
1.0
148
0.0
149
0.0
100
AcDbLayout
  1
Model
 70
0
 71
0
 10
0.0
 20
0.0
 11
558.8
 21
431.8
 12
0.0
 22
0.0
 32
0.0
 14
0.0
 24
0.0
 34
0.0
 15
0.0
 25
0.0
 35
0.0
146
0.0
 13
0.0
 23
0.0
 33
0.0
 16
1.0
 26
0.0
 36
0.0
 17
0.0
 27
1.0
 37
0.0
 76
0
330
20F
345
0
346
0
  0
LAYOUT
  5
62C
102
{ACAD_REACTORS
330
1A
102
}
100
AcDbPlotSettings
  1

  2
none_device
  4
ANSI_C_(22.00_x_17.00_Inches)
  6

 40
0.0
 41
0.0
 42
0.0
 43
0.0
 44
558.8
 45
431.8
 46
0.0
 47
0.0
 48
0.0
 49
0.0
140
0.0
141
0.0
142
1.0
143
1.0
 70
0
 72
1
 73
0
 74
0
  7

 75
0
147
1.0
148
0.0
149
0.0
100
AcDbLayout
  1
Layout1
 70
0
 71
1
 10
0.0
 20
0.0
 11
558.8
 21
431.8
 12
0.0
 22
0.0
 32
0.0
 14
0.0
 24
0.0
 34
0.0
 15
0.0
 25
0.0
 35
0.0
146
0.0
 13
0.0
 23
0.0
 33
0.0
 16
1.0
 26
0.0
 36
0.0
 17
0.0
 27
1.0
 37
0.0
 76
0
330
210
345
0
346
0
  0
ENDSEC
  0
EOF
