  0
SECTION
  2
HEADER
  9
$ACADVER
  1
AC1024
  9
$DWGCODEPAGE
  3
ANSI_1252
  9
$EXTMAX
 10
297.0
 20
210.0
 30
0.0
  9
$EXTMIN
 10
0.0
 20
0.0
 30
0.0
  9
$LIMMIN
 10
0.0
 20
0.0
  9
$LIMMAX
 10
297.0
 20
210.0
  9
$VIEWCTR
 10
148.5
 20
105.0
  9
$VIEWSIZE
 40
210.0
  9
$CLAYER
  8
0
  9
$LTSCALE
 40
16.335
  9
$CELTYPE
  6
BYLAYER
  9
$DIMSCALE
 40
1.0
  9
$DIMASZ
 40
3.0
  9
$DIMEXO
 40
0.5
  9
$DIMDLI
 40
11.286
  9
$DIMEXE
 40
1.5
  9
$DIMCEN
 40
2.673
  9
$DIMLFAC
 40
1.0
  9
$DIMBLK
  1
_FILLED
  9
$DIMALT
 70
0
  9
$DIMALTF
 40
0.0393700787
  9
$DIMTXT
 40
3.0
  9
$DIMTOL
 70
1
  9
$DIMLIM
 70
0
  9
$DIMTFAC
 40
1.0
  9
$DIMTP
 40
0.01
  9
$DIMTM
 40
0.01
  9
$DIMGAP
 40
0.625
  9
$DIMDSEP
 70
44
  9
$AUNITS
 70
0
  9
$PDMODE
 70
3
  9
$PDSIZE
 40
3.0
  9
$HANDSEED
  5
436
  9
$TILEMODE
 70
1
  9
$MEASUREMENT
 70
1
  9
$INSUNITS
 70
4
  0
ENDSEC
  0
SECTION
  2
CLASSES
  0
CLASS
  1
ACDBDICTIONARYWDFLT
  2
AcDbDictionaryWithDefault
  3
AutoCAD 2000
 90
0
 91
1
280
0
281
0
  0
CLASS
  1
ACDBPLACEHOLDER
  2
AcDbPlaceHolder
  3
AutoCAD 2000
 90
0
 91
1
280
0
281
0
  0
CLASS
  1
LAYOUT
  2
AcDbLayout
  3
AutoCAD 2000
 90
0
 91
0
280
0
281
0
  0
ENDSEC
  0
SECTION
  2
TABLES
  0
TABLE
  2
VPORT
  5
8
100
AcDbSymbolTable
 70
2
  0
VPORT
  5
1F4
100
AcDbSymbolTableRecord
100
AcDbViewportTableRecord
  2
*ACTIVE
 70
0
 10
0.0
 20
0.0
 11
1.0
 21
1.0
 12
148.5
 22
105.0
 13
0.0
 23
0.0
 14
1.0
 24
1.0
 15
0.0
 25
0.0
 16
0.0
 26
0.0
 36
1.0
 17
0.0
 27
0.0
 37
0.0
 40
210.0
 41
1.4142857143
 42
50.0
 43
0.0
 44
0.0
 50
0.0
 51
0.0
 71
0
 72
100
 73
1
 74
1
 75
0
 76
0
 77
0
 78
0
  0
ENDTAB
  0
TABLE
  2
LTYPE
  5
5
100
AcDbSymbolTable
 70
6
  0
LTYPE
  5
14
100
AcDbSymbolTableRecord
100
AcDbLinetypeTableRecord
  2
BYBLOCK
 70
0
  3

 72
65
 73
0
 40
0.0
  0
LTYPE
  5
15
100
AcDbSymbolTableRecord
100
AcDbLinetypeTableRecord
  2
BYLAYER
 70
0
  3

 72
65
 73
0
 40
0.0
  0
LTYPE
  5
16
100
AcDbSymbolTableRecord
100
AcDbLinetypeTableRecord
  2
CONTINUOUS
 70
64
  3
Solid line
 72
65
 73
0
 40
0.0
  0
LTYPE
  5
1F5
100
AcDbSymbolTableRecord
100
AcDbLinetypeTableRecord
  2
CENTER
 70
64
  3
____ _ ____ _ ____ _ ____ _ ____ _ ____ _ ____
 72
65
 73
4
 40
0.6
 49
0.375
 74
0
 49
-0.075
 74
0
 49
0.075
 74
0
 49
-0.075
 74
0
  0
LTYPE
  5
1F6
100
AcDbSymbolTableRecord
100
AcDbLinetypeTableRecord
  2
HIDDEN
 70
64
  3
- - - - - - - - - - - - - - - - - - - -
 72
65
 73
2
 40
0.2
 49
0.1
 74
0
 49
-0.1
 74
0
  0
LTYPE
  5
1F7
100
AcDbSymbolTableRecord
100
AcDbLinetypeTableRecord
  2
PHANTOM
 70
64
  3
_____ _ _ _____ _ _ _____ _ _ _____
 72
65
 73
6
 40
0.8
 49
0.45
 74
0
 49
-0.05
 74
0
 49
0.1
 74
0
 49
-0.05
 74
0
 49
0.1
 74
0
 49
-0.05
 74
0
  0
LTYPE
  5
1F8
100
AcDbSymbolTableRecord
100
AcDbLinetypeTableRecord
  2
DOT
 70
64
  3
. . . . . . . . . . . . . . . . . . . .
 72
65
 73
2
 40
0.2
 49
0.1
 74
0
 49
-0.1
 74
0
  0
LTYPE
  5
1F9
100
AcDbSymbolTableRecord
100
AcDbLinetypeTableRecord
  2
DASHED
 70
64
  3
- - - - - - - - - - - - - - - - - - - -
 72
65
 73
2
 40
0.2
 49
0.1
 74
0
 49
-0.1
 74
0
  0
ENDTAB
  0
TABLE
  2
LAYER
  5
2
100
AcDbSymbolTable
 70
36
  0
LAYER
  5
10
100
AcDbSymbolTableRecord
100
AcDbLayerTableRecord
  2
0
 70
0
 62
7
  6
CONTINUOUS
370
-3
390
F
  0
LAYER
  5
1FA
100
AcDbSymbolTableRecord
100
AcDbLayerTableRecord
  2
DEFAULT_1
 70
0
 62
7
  6
CENTER
370
-3
390
F
  0
LAYER
  5
1FB
100
AcDbSymbolTableRecord
100
AcDbLayerTableRecord
  2
DEFAULT_2
 70
0
 62
7
  6
HIDDEN
370
-3
390
F
  0
LAYER
  5
1FC
100
AcDbSymbolTableRecord
100
AcDbLayerTableRecord
  2
DEFAULT_3
 70
0
 62
7
  6
PHANTOM
370
-3
390
F
  0
LAYER
  5
1FD
100
AcDbSymbolTableRecord
100
AcDbLayerTableRecord
  2
262146410
 70
0
 62
7
  6
CONTINUOUS
370
-3
390
F
  0
LAYER
  5
1FE
100
AcDbSymbolTableRecord
100
AcDbLayerTableRecord
  2
262146420
 70
0
 62
7
  6
CONTINUOUS
370
-3
390
F
  0
LAYER
  5
1FF
100
AcDbSymbolTableRecord
100
AcDbLayerTableRecord
  2
262146520
 70
0
 62
7
  6
CONTINUOUS
370
-3
390
F
  0
LAYER
  5
200
100
AcDbSymbolTableRecord
100
AcDbLayerTableRecord
  2
262146530
 70
0
 62
7
  6
CONTINUOUS
370
-3
390
F
  0
LAYER
  5
201
100
AcDbSymbolTableRecord
100
AcDbLayerTableRecord
  2
262146540
 70
0
 62
7
  6
CONTINUOUS
370
-3
390
F
  0
LAYER
  5
202
100
AcDbSymbolTableRecord
100
AcDbLayerTableRecord
  2
262146570
 70
0
 62
7
  6
CONTINUOUS
370
-3
390
F
  0
LAYER
  5
203
100
AcDbSymbolTableRecord
100
AcDbLayerTableRecord
  2
ASSI
 70
0
 62
7
  6
CONTINUOUS
370
-3
390
F
  0
LAYER
  5
204
100
AcDbSymbolTableRecord
100
AcDbLayerTableRecord
  2
COORDINATE
 70
0
 62
7
  6
CONTINUOUS
370
-3
390
F
  0
LAYER
  5
205
100
AcDbSymbolTableRecord
100
AcDbLayerTableRecord
  2
COORD_ORIGINE
 70
0
 62
7
  6
CONTINUOUS
370
-3
390
F
  0
LAYER
  5
206
100
AcDbSymbolTableRecord
100
AcDbLayerTableRecord
  2
COPY_GEOMETRY
 70
0
 62
7
  6
CONTINUOUS
370
-3
390
F
  0
LAYER
  5
207
100
AcDbSymbolTableRecord
100
AcDbLayerTableRecord
  2
CURVE
 70
0
 62
7
  6
CONTINUOUS
370
-3
390
F
  0
LAYER
  5
208
100
AcDbSymbolTableRecord
100
AcDbLayerTableRecord
  2
DRAFT
 70
0
 62
7
  6
CONTINUOUS
370
-3
390
F
  0
LAYER
  5
209
100
AcDbSymbolTableRecord
100
AcDbLayerTableRecord
  2
IGES
 70
0
 62
7
  6
CONTINUOUS
370
-3
390
F
  0
LAYER
  5
20A
100
AcDbSymbolTableRecord
100
AcDbLayerTableRecord
  2
IGES_VERIFICA
 70
0
 62
7
  6
CONTINUOUS
370
-3
390
F
  0
LAYER
  5
20B
100
AcDbSymbolTableRecord
100
AcDbLayerTableRecord
  2
IGES_VIMAR
 70
0
 62
7
  6
CONTINUOUS
370
-3
390
F
  0
LAYER
  5
20C
100
AcDbSymbolTableRecord
100
AcDbLayerTableRecord
  2
INTF_1
 70
0
 62
7
  6
CONTINUOUS
370
-3
390
F
  0
LAYER
  5
20D
100
AcDbSymbolTableRecord
100
AcDbLayerTableRecord
  2
INTF_7
 70
0
 62
7
  6
CONTINUOUS
370
-3
390
F
  0
LAYER
  5
20E
100
AcDbSymbolTableRecord
100
AcDbLayerTableRecord
  2
INTF_GREEN
 70
0
 62
7
  6
CONTINUOUS
370
-3
390
F
  0
LAYER
  5
20F
100
AcDbSymbolTableRecord
100
AcDbLayerTableRecord
  2
INTF_YELLOW
 70
0
 62
7
  6
CONTINUOUS
370
-3
390
F
  0
LAYER
  5
210
100
AcDbSymbolTableRecord
100
AcDbLayerTableRecord
  2
PIANI
 70
0
 62
7
  6
CONTINUOUS
370
-3
390
F
  0
LAYER
  5
211
100
AcDbSymbolTableRecord
100
AcDbLayerTableRecord
  2
PIANI_ANGOLO
 70
0
 62
7
  6
CONTINUOUS
370
-3
390
F
  0
LAYER
  5
212
100
AcDbSymbolTableRecord
100
AcDbLayerTableRecord
  2
PIANI_DENTINI
 70
0
 62
7
  6
CONTINUOUS
370
-3
390
F
  0
LAYER
  5
213
100
AcDbSymbolTableRecord
100
AcDbLayerTableRecord
  2
PIANI_ORIGINE
 70
0
 62
7
  6
CONTINUOUS
370
-3
390
F
  0
LAYER
  5
214
100
AcDbSymbolTableRecord
100
AcDbLayerTableRecord
  2
PIANI_RIFERIMENTO
 70
0
 62
7
  6
CONTINUOUS
370
-3
390
F
  0
LAYER
  5
215
100
AcDbSymbolTableRecord
100
AcDbLayerTableRecord
  2
PUBLISH_GEOM
 70
0
 62
7
  6
CONTINUOUS
370
-3
390
F
  0
LAYER
  5
216
100
AcDbSymbolTableRecord
100
AcDbLayerTableRecord
  2
PUNTI
 70
0
 62
7
  6
CONTINUOUS
370
-3
390
F
  0
LAYER
  5
217
100
AcDbSymbolTableRecord
100
AcDbLayerTableRecord
  2
RACCORDO
 70
0
 62
7
  6
CONTINUOUS
370
-3
390
F
  0
LAYER
  5
218
100
AcDbSymbolTableRecord
100
AcDbLayerTableRecord
  2
RGB__255__255__255__
 70
0
 62
7
  6
CONTINUOUS
370
-3
390
F
  0
LAYER
  5
219
100
AcDbSymbolTableRecord
100
AcDbLayerTableRecord
  2
RGB____0____0____0__
 70
0
 62
7
  6
CONTINUOUS
370
-3
390
F
  0
LAYER
  5
21A
100
AcDbSymbolTableRecord
100
AcDbLayerTableRecord
  2
SNAPLINE
 70
0
 62
7
  6
CONTINUOUS
370
-3
390
F
  0
LAYER
  5
21B
100
AcDbSymbolTableRecord
100
AcDbLayerTableRecord
  2
SOLIDO
 70
0
 62
7
  6
CONTINUOUS
370
-3
390
F
  0
LAYER
  5
21C
100
AcDbSymbolTableRecord
100
AcDbLayerTableRecord
  2
SUPERFICE_ANGOLO
 70
0
 62
7
  6
CONTINUOUS
370
-3
390
F
  0
LAYER
  5
21D
100
AcDbSymbolTableRecord
100
AcDbLayerTableRecord
  2
SUPERFICI
 70
0
 62
7
  6
CONTINUOUS
370
-3
390
F
  0
LAYER
  5
21E
100
AcDbSymbolTableRecord
100
AcDbLayerTableRecord
  2
SUPERFICI_SCRITTA_VIMAR
 70
0
 62
7
  6
CONTINUOUS
370
-3
390
F
  0
LAYER
  5
21F
100
AcDbSymbolTableRecord
100
AcDbLayerTableRecord
  2
SUPERFICI_UTENSILE_INTERNO
 70
0
 62
7
  6
CONTINUOUS
370
-3
390
F
  0
LAYER
  5
220
100
AcDbSymbolTableRecord
100
AcDbLayerTableRecord
  2
TRASH
 70
0
 62
7
  6
CONTINUOUS
370
-3
390
F
  0
ENDTAB
  0
TABLE
  2
STYLE
  5
3
100
AcDbSymbolTable
 70
1
  0
STYLE
  5
11
100
AcDbSymbolTableRecord
100
AcDbTextStyleTableRecord
  2
STANDARD
 70
0
 40
0.0
 41
0.8
 50
0.0
 71
0
 42
0.2
  3
txt
  4

  0
STYLE
  5
221
100
AcDbSymbolTableRecord
100
AcDbTextStyleTableRecord
  2
TEXTSTYLE_1
 70
0
 40
0.0
 41
0.8
 50
0.0
 71
0
 42
0.2
  3
gdt
  4

  0
ENDTAB
  0
TABLE
  2
VIEW
  5
6
100
AcDbSymbolTable
 70
0
  0
ENDTAB
  0
TABLE
  2
UCS
  5
7
100
AcDbSymbolTable
 70
0
  0
ENDTAB
  0
TABLE
  2
APPID
  5
9
100
AcDbSymbolTable
 70
1
  0
APPID
  5
222
100
AcDbSymbolTableRecord
100
AcDbRegAppTableRecord
  2
ACAD
 70
0
  0
ENDTAB
  0
TABLE
  2
BLOCK_RECORD
  5
1
100
AcDbSymbolTable
 70
0
  0
BLOCK_RECORD
  5
223
100
AcDbSymbolTableRecord
100
AcDbBlockTableRecord
  2
*Model_Space
  0
BLOCK_RECORD
  5
224
100
AcDbSymbolTableRecord
100
AcDbBlockTableRecord
  2
*Paper_Space
  0
BLOCK_RECORD
  5
225
100
AcDbSymbolTableRecord
100
AcDbBlockTableRecord
  2
_FILLED
  0
BLOCK_RECORD
  5
226
100
AcDbSymbolTableRecord
100
AcDbBlockTableRecord
  2
*D0
  0
BLOCK_RECORD
  5
227
100
AcDbSymbolTableRecord
100
AcDbBlockTableRecord
  2
*D1
  0
BLOCK_RECORD
  5
228
100
AcDbSymbolTableRecord
100
AcDbBlockTableRecord
  2
*D2
  0
ENDTAB
  0
TABLE
  2
DIMSTYLE
  5
A
100
AcDbSymbolTable
 70
1
100
AcDbDimStyleTable
 71
0
  0
DIMSTYLE
105
229
100
AcDbSymbolTableRecord
100
AcDbDimStyleTableRecord
  2
STANDARD
 70
0
  3

  4

 40
1.0
 41
3.0
 42
0.5
 43
0.38
 44
1.5
 45
0.0
 46
0.0
 47
0.01
 48
0.01
140
3.0
141
0.09
142
0.0
143
25.4
144
1.0
145
0.0
146
1.0
147
0.625
 71
1
 72
0
 73
0
 74
0
 75
0
 76
0
 77
1
 78
8
 79
2
170
0
171
1
172
0
173
0
174
0
175
0
176
0
177
0
178
0
270
2
179
2
271
2
272
2
273
2
274
2
275
0
280
0
281
0
282
0
283
1
284
8
285
0
286
0
287
3
288
0
340
11
278
44
341
225
342
225
343
225
344
225
  0
DIMSTYLE
105
22A
100
AcDbSymbolTableRecord
100
AcDbDimStyleTableRecord
  2
DIMSTYLE_1
 70
0
  3

  4

 40
1.0
 41
3.0
 42
0.5
 43
0.38
 44
1.5
 45
0.0
 46
0.0
 47
0.0
 48
0.0
140
3.0
141
0.09
142
0.0
143
25.4
144
1.0
145
0.0
146
1.0
147
0.75
 71
0
 72
0
 73
0
 74
0
 75
0
 76
0
 77
1
 78
8
 79
2
170
0
171
1
172
0
173
0
174
0
175
0
176
0
177
0
178
0
270
2
179
2
271
2
272
2
273
2
274
2
275
0
280
0
281
0
282
0
283
1
284
8
285
0
286
0
287
3
288
0
340
11
278
44
341
225
342
225
343
225
344
225
  0
ENDTAB
  0
ENDSEC
  0
SECTION
  2
BLOCKS
  0
BLOCK
  5
20
100
AcDbEntity
  8
0
100
AcDbBlockBegin
  2
*Model_Space
 70
0
 10
0.0
 20
0.0
 30
0.0
  3
*Model_Space
  1

  0
ENDBLK
  5
21
100
AcDbEntity
  8
0
100
AcDbBlockEnd
  0
BLOCK
  5
1C
100
AcDbEntity
  8
0
100
AcDbBlockBegin
  2
*Paper_Space
 70
0
 10
0.0
 20
0.0
 30
0.0
  3
*Paper_Space
  1

  0
ENDBLK
  5
1D
100
AcDbEntity
  8
0
100
AcDbBlockEnd
  0
BLOCK
  5
22B
100
AcDbEntity
  8
0
100
AcDbBlockBegin
  2
_FILLED
 70
64
 10
0.0
 20
0.0
  3
_FILLED
  1

  0
SOLID
  5
22C
100
AcDbEntity
  8
0
  6
BYBLOCK
 62
0
100
AcDbTrace
 10
0.0
 20
0.0
 11
-1.0
 21
0.3166666667
 12
-1.0
 22
-0.3166666667
 13
-1.0
 23
-0.3166666667
  0
ENDBLK
  5
22D
100
AcDbEntity
  8
0
  6
BYBLOCK
 62
0
100
AcDbBlockEnd
  0
BLOCK
  5
22E
100
AcDbEntity
  8
0
100
AcDbBlockBegin
 62
7
  6
CONTINUOUS
  2
*D0
 70
65
 10
0.0
 20
0.0
  3
*D0
  1

  0
LINE
  5
22F
100
AcDbEntity
  8
0
100
AcDbLine
 62
7
  6
CONTINUOUS
 10
-71.25
 20
38.4820532992
 11
-71.25
 21
55.4953612938
  0
LINE
  5
230
100
AcDbEntity
  8
0
100
AcDbLine
 62
7
  6
CONTINUOUS
 10
71.25
 20
38.4820532992
 11
71.25
 21
55.4953612938
  0
LINE
  5
231
100
AcDbEntity
  8
0
100
AcDbLine
 62
7
  6
CONTINUOUS
 10
-71.25
 20
53.9953612938
 11
0.0
 21
53.9953612938
  0
LINE
  5
232
100
AcDbEntity
  8
0
100
AcDbLine
 62
7
  6
CONTINUOUS
 10
71.25
 20
53.9953612938
 11
0.0
 21
53.9953612938
  0
INSERT
  5
233
100
AcDbEntity
  8
0
100
AcDbBlockReference
 62
7
  6
CONTINUOUS
  2
_FILLED
 10
-71.25
 20
53.9953612938
 41
3.0
 42
3.0
 43
3.0
 50
180.0
  0
INSERT
  5
234
100
AcDbEntity
  8
0
100
AcDbBlockReference
 62
7
  6
CONTINUOUS
  2
_FILLED
 10
71.25
 20
53.9953612938
 41
3.0
 42
3.0
 43
3.0
  0
ENDBLK
  5
235
100
AcDbEntity
  8
0
  6
BYBLOCK
 62
0
100
AcDbBlockEnd
  0
BLOCK
  5
236
100
AcDbEntity
  8
0
100
AcDbBlockBegin
 62
7
  6
CONTINUOUS
  2
*D1
 70
65
 10
0.0
 20
0.0
  3
*D1
  1

  0
LINE
  5
237
100
AcDbEntity
  8
0
100
AcDbLine
 62
7
  6
CONTINUOUS
 10
-106.4217788848
 20
23.7820532992
 11
-106.4217788848
 21
55.4953612938
  0
LINE
  5
238
100
AcDbEntity
  8
0
100
AcDbLine
 62
7
  6
CONTINUOUS
 10
-97.4217788848
 20
41.4820532992
 11
-97.4217788848
 21
55.4953612938
  0
LINE
  5
239
100
AcDbEntity
  8
0
100
AcDbLine
 62
7
  6
CONTINUOUS
 10
-106.4217788848
 20
53.9953612938
 11
-110.4217788848
 21
53.9953612938
  0
LINE
  5
23A
100
AcDbEntity
  8
0
100
AcDbLine
 62
7
  6
CONTINUOUS
 10
-110.4217788848
 20
53.9953612938
 11
-101.9217788848
 21
53.9953612938
  0
LINE
  5
23B
100
AcDbEntity
  8
0
100
AcDbLine
 62
7
  6
CONTINUOUS
 10
-97.4217788848
 20
53.9953612938
 11
-93.4217788848
 21
53.9953612938
  0
LINE
  5
23C
100
AcDbEntity
  8
0
100
AcDbLine
 62
7
  6
CONTINUOUS
 10
-93.4217788848
 20
53.9953612938
 11
-101.9217788848
 21
53.9953612938
  0
INSERT
  5
23D
100
AcDbEntity
  8
0
100
AcDbBlockReference
 62
7
  6
CONTINUOUS
  2
_FILLED
 10
-106.4217788848
 20
53.9953612938
 41
3.0
 42
3.0
 43
3.0
  0
INSERT
  5
23E
100
AcDbEntity
  8
0
100
AcDbBlockReference
 62
7
  6
CONTINUOUS
  2
_FILLED
 10
-97.4217788848
 20
53.9953612938
 41
3.0
 42
3.0
 43
3.0
 50
180.0
  0
ENDBLK
  5
23F
100
AcDbEntity
  8
0
  6
BYBLOCK
 62
0
100
AcDbBlockEnd
  0
BLOCK
  5
240
100
AcDbEntity
  8
0
100
AcDbBlockBegin
 62
7
  6
CONTINUOUS
  2
*D2
 70
65
 10
0.0
 20
0.0
  3
*D2
  1

  0
LINE
  5
241
100
AcDbEntity
  8
0
100
AcDbLine
 62
7
  6
CONTINUOUS
 10
-97.9217788848
 20
40.9820532992
 11
-115.9217788848
 21
40.9820532992
  0
LINE
  5
242
100
AcDbEntity
  8
0
100
AcDbLine
 62
7
  6
CONTINUOUS
 10
-97.9217788848
 20
-39.0179467008
 11
-115.9217788848
 21
-39.0179467008
  0
LINE
  5
243
100
AcDbEntity
  8
0
100
AcDbLine
 62
7
  6
CONTINUOUS
 10
-114.4217788848
 20
40.9820532992
 11
-114.4217788848
 21
0.9820532992
  0
LINE
  5
244
100
AcDbEntity
  8
0
100
AcDbLine
 62
7
  6
CONTINUOUS
 10
-114.4217788848
 20
-39.0179467008
 11
-114.4217788848
 21
0.9820532992
  0
INSERT
  5
245
100
AcDbEntity
  8
0
100
AcDbBlockReference
 62
7
  6
CONTINUOUS
  2
_FILLED
 10
-114.4217788848
 20
40.9820532992
 41
3.0
 42
3.0
 43
3.0
 50
90.0
  0
INSERT
  5
246
100
AcDbEntity
  8
0
100
AcDbBlockReference
 62
7
  6
CONTINUOUS
  2
_FILLED
 10
-114.4217788848
 20
-39.0179467008
 41
3.0
 42
3.0
 43
3.0
 50
270.0
  0
ENDBLK
  5
247
100
AcDbEntity
  8
0
  6
BYBLOCK
 62
0
100
AcDbBlockEnd
  0
ENDSEC
  0
SECTION
  2
ENTITIES
  0
DIMENSION
  5
248
100
AcDbEntity
  8
0
100
AcDbDimension
 62
7
  6
CONTINUOUS
  2
*D0
 10
71.25
 20
53.9953612938
 11
-5.1428571429
 21
53.9953612938
 70
160
 71
2
 72
2
 41
0.9
 42
142.5
  3
DIMSTYLE_1
100
AcDbAlignedDimension
 13
-71.25
 23
37.9820532992
 14
71.25
 24
37.9820532992
100
AcDbRotatedDimension
  0
DIMENSION
  5
249
100
AcDbEntity
  8
0
100
AcDbDimension
 62
7
  6
CONTINUOUS
  2
*D1
 10
-97.4217788848
 20
53.9953612938
 11
-103.1003503134
 21
53.9953612938
 70
160
 71
2
 72
2
 41
0.9
 42
9.0
  3
DIMSTYLE_1
100
AcDbAlignedDimension
 13
-106.4217788848
 23
23.2820532992
 14
-97.4217788848
 24
40.9820532992
100
AcDbRotatedDimension
  0
DIMENSION
  5
24A
100
AcDbEntity
  8
0
100
AcDbDimension
 62
7
  6
CONTINUOUS
  2
*D2
 10
-114.4217788848
 20
-39.0179467008
 11
-114.4217788848
 21
-1.375089558
 70
160
 71
2
 72
2
 41
0.9
 42
80.0
  3
DIMSTYLE_1
100
AcDbAlignedDimension
 13
-97.4217788848
 23
40.9820532992
 14
-97.4217788848
 24
-39.0179467008
 50
270.0
100
AcDbRotatedDimension
  0
LWPOLYLINE
  5
24B
100
AcDbEntity
  8
RACCORDO
100
AcDbPolyline
 62
250
  6
CONTINUOUS
 90
19
 70
0
 10
-70.1399630151
 20
-36.0515081852
 10
-70.1289596797
 20
-36.2104859176
 10
-70.1045543829
 20
-36.3684424139
 10
-70.0668435455
 20
-36.5240808751
 10
-70.0161201962
 20
-36.6763368055
 10
-69.9527279486
 20
-36.8240796372
 10
-69.8770832014
 20
-36.9661026277
 10
-69.7897435482
 20
-37.1013932556
 10
-69.6913674537
 20
-37.2289871697
 10
-69.5827022699
 20
-37.3478281148
 10
-69.4645651115
 20
-37.4570055697
 10
-69.3378409516
 20
-37.5558650886
 10
-69.2034076568
 20
-37.6437617734
 10
-69.0621361041
 20
-37.7200506385
 10
-68.9151118148
 20
-37.7841805059
 10
-68.7635444806
 20
-37.8356871551
 10
-68.6085527618
 20
-37.8741793628
 10
-68.4512675802
 20
-37.8993956003
 10
-68.293062238
 20
-37.9112228783
  0
LWPOLYLINE
  5
24C
100
AcDbEntity
  8
RACCORDO
100
AcDbPolyline
 62
250
  6
CONTINUOUS
 90
19
 70
0
 10
-71.0201889283
 20
-36.0179467008
 10
-71.009918111
 20
-36.2591299801
 10
-70.9786266922
 20
-36.4986618928
 10
-70.9265129528
 20
-36.7347068896
 10
-70.8539182933
 20
-36.9654926181
 10
-70.7613706583
 20
-37.1891942184
 10
-70.6496173272
 20
-37.4039651711
 10
-70.5195114904
 20
-37.6081612172
 10
-70.372047768
 20
-37.8002119892
 10
-70.2084588965
 20
-37.9785413411
 10
-70.0301041491
 20
-38.1417431127
 10
-69.8383032637
 20
-38.2886753833
 10
-69.6343987267
 20
-38.4183251181
 10
-69.4198459057
 20
-38.5297455276
 10
-69.1963721606
 20
-38.6220156939
 10
-68.9658430042
 20
-38.6943745999
 10
-68.7300873793
 20
-38.7462939908
 10
-68.4908630869
 20
-38.7774380215
 10
-68.25
 20
-38.7876093553
  0
LINE
  5
24D
100
AcDbEntity
  8
RACCORDO
100
AcDbLine
 62
250
  6
CONTINUOUS
 10
-70.1546861344
 20
-35.582820279
 11
-70.149408408
 21
-35.7311872697
  0
LINE
  5
24E
100
AcDbEntity
  8
RACCORDO
100
AcDbLine
 62
250
  6
CONTINUOUS
 10
-70.149408408
 20
-35.7311872697
 11
-70.1399643941
 21
-36.0515085758
  0
LWPOLYLINE
  5
24F
100
AcDbEntity
  8
RACCORDO
100
AcDbPolyline
 62
250
  6
CONTINUOUS
 90
13
 70
0
 10
-68.2930627855
 20
-37.9112244312
 10
-68.2918880684
 20
-38.025593387
 10
-68.2901472996
 20
-38.1367640462
 10
-68.2878639966
 20
-38.2432337195
 10
-68.28506901
 20
-38.3435632606
 10
-68.2818001071
 20
-38.4363965192
 10
-68.2781014609
 20
-38.5204786718
 10
-68.2740230525
 20
-38.5946731834
 10
-68.2696199975
 20
-38.6579771697
 10
-68.264951801
 20
-38.7095349533
 10
-68.2600815507
 20
-38.7486496296
 10
-68.2550750639
 20
-38.774792487
 10
-68.25
 20
-38.7876101535
  0
LWPOLYLINE
  5
250
100
AcDbEntity
  8
RACCORDO
100
AcDbPolyline
 62
250
  6
CONTINUOUS
 90
6
 70
0
 10
-70.1686547032
 20
-35.1289695633
 10
-70.1681075933
 20
-35.189662069
 10
-70.1669753349
 20
-35.2509794194
 10
-70.1652890446
 20
-35.3130599327
 10
-70.1630919527
 20
-35.3772353232
 10
-70.1546861344
 20
-35.582820279
  0
LINE
  5
251
100
AcDbEntity
  8
RACCORDO
100
AcDbLine
 62
250
  6
CONTINUOUS
 10
-70.1689864154
 20
-35.0082904076
 11
-70.1686547032
 21
-35.1289695633
  0
LINE
  5
252
100
AcDbEntity
  8
RACCORDO
100
AcDbLine
 62
250
  6
CONTINUOUS
 10
-70.2666964458
 20
-15.590616616
 11
-70.1689864154
 21
-35.0082904076
  0
LINE
  5
253
100
AcDbEntity
  8
RACCORDO
100
AcDbLine
 62
7
  6
CONTINUOUS
 10
-71.25
 20
-36.0179467008
 11
-71.25
 21
-3.2197399275
  0
LINE
  5
254
100
AcDbEntity
  8
RACCORDO
100
AcDbLine
 62
7
  6
CONTINUOUS
 10
-71.25
 20
5.1838465259
 11
-71.25
 21
37.9820532992
  0
LINE
  5
255
100
AcDbEntity
  8
RACCORDO
100
AcDbLine
 62
7
  6
CONTINUOUS
 10
-71.1451844414
 20
4.0435650677
 11
-71.1451844414
 21
-2.0794584693
  0
LINE
  5
256
100
AcDbEntity
  8
RACCORDO
100
AcDbLine
 62
250
  6
CONTINUOUS
 10
-71.0201889283
 20
37.9820532992
 11
-71.0148165761
 21
-14.4410517974
  0
LINE
  5
257
100
AcDbEntity
  8
RACCORDO
100
AcDbLine
 62
250
  6
CONTINUOUS
 10
-68.25
 20
40.9820532992
 11
-68.25
 21
40.7517159537
  0
LINE
  5
258
100
AcDbEntity
  8
RACCORDO
100
AcDbLine
 62
250
  6
CONTINUOUS
 10
-68.25
 20
-38.7876093553
 11
-68.25
 21
-39.0179467008
  0
LWPOLYLINE
  5
259
100
AcDbEntity
  8
RACCORDO
100
AcDbPolyline
 62
250
  6
CONTINUOUS
 90
3
 70
0
 10
-70.2673748668
 20
-2.775050287
 10
-70.26890754
 20
-5.3455549184
 10
-70.2666964458
 20
-15.590616616
  0
LINE
  5
25A
100
AcDbEntity
  8
RACCORDO
100
AcDbLine
 62
250
  6
CONTINUOUS
 10
-70.1682436007
 20
37.1573745223
 11
-70.1682798161
 21
37.0784468896
  0
LINE
  5
25B
100
AcDbEntity
  8
RACCORDO
100
AcDbLine
 62
250
  6
CONTINUOUS
 10
-71.0148165761
 20
-14.4410517974
 11
-71.0201889283
 21
-36.0179467008
  0
LINE
  5
25C
100
AcDbEntity
  8
RACCORDO
100
AcDbLine
 62
250
  6
CONTINUOUS
 10
-70.2541952106
 20
21.9826573262
 11
-70.2673748668
 21
-2.775050287
  0
LINE
  5
25D
100
AcDbEntity
  8
RACCORDO
100
AcDbLine
 62
250
  6
CONTINUOUS
 10
-70.1682798161
 20
37.0784468896
 11
-70.2541952106
 21
21.9826573262
  0
LWPOLYLINE
  5
25E
100
AcDbEntity
  8
RACCORDO
100
AcDbPolyline
 62
250
  6
CONTINUOUS
 90
13
 70
0
 10
-68.2930622383
 20
39.8753294772
 10
-68.2918877522
 20
39.9896885329
 10
-68.2901472031
 20
40.1008487908
 10
-68.2878640941
 20
40.2073078381
 10
-68.2850692651
 20
40.3076268026
 10
-68.2818004757
 20
40.4004497995
 10
-68.2781018949
 20
40.4845222578
 10
-68.2740235033
 20
40.5587078763
 10
-68.2696204183
 20
40.6220039817
 10
-68.26495215
 20
40.6735550807
 10
-68.2600817935
 20
40.7126644222
 10
-68.2550751758
 20
40.7388034146
 10
-68.2499999674
 20
40.75161877
  0
LINE
  5
25F
100
AcDbEntity
  8
RACCORDO
100
AcDbLine
 62
250
  6
CONTINUOUS
 10
-70.1399643998
 20
38.0156151759
 11
-70.1478662236
 21
37.7443911756
  0
LINE
  5
260
100
AcDbEntity
  8
RACCORDO
100
AcDbLine
 62
250
  6
CONTINUOUS
 10
-70.1478662236
 20
37.7443911756
 11
-70.1543817884
 21
37.5551521686
  0
LINE
  5
261
100
AcDbEntity
  8
RACCORDO
100
AcDbLine
 62
250
  6
CONTINUOUS
 10
-70.1543817884
 20
37.5551521686
 11
-70.1592956326
 21
37.4293594082
  0
LWPOLYLINE
  5
262
100
AcDbEntity
  8
RACCORDO
100
AcDbPolyline
 62
250
  6
CONTINUOUS
 90
7
 70
0
 10
-70.1592956326
 20
37.4293594082
 10
-70.1628515152
 20
37.3504004675
 10
-70.1644542905
 20
37.3114860107
 10
-70.1658464905
 20
37.2727697977
 10
-70.1670487403
 20
37.2344573305
 10
-70.1679089016
 20
37.1960487376
 10
-70.1682436007
 20
37.1573745223
  0
LINE
  5
263
100
AcDbEntity
  8
RACCORDO
100
AcDbLine
 62
7
  6
CONTINUOUS
 10
-71.1679680371
 20
-2.5751809
 11
-71.2272164043
 21
-2.7240174968
  0
LINE
  5
264
100
AcDbEntity
  8
RACCORDO
100
AcDbLine
 62
7
  6
CONTINUOUS
 10
-71.2272164043
 20
4.6881240952
 11
-71.1679680371
 21
4.5392874984
  0
LINE
  5
265
100
AcDbEntity
  8
DRAFT
100
AcDbLine
 62
7
  6
CONTINUOUS
 10
-44.9993399065
 20
-21.240887225
 11
-45.0002120291
 21
-21.2179467008
  0
LINE
  5
266
100
AcDbEntity
  8
RACCORDO
100
AcDbLine
 62
250
  6
CONTINUOUS
 10
-44.8
 20
-23.21798981
 11
-44.7846188121
 21
-24.7893550232
  0
LINE
  5
267
100
AcDbEntity
  8
RACCORDO
100
AcDbLine
 62
250
  6
CONTINUOUS
 10
-48.3556125198
 20
-21.2971153605
 11
-48.3679123394
 21
-18.4995202971
  0
LINE
  5
268
100
AcDbEntity
  8
RACCORDO
100
AcDbLine
 62
250
  6
CONTINUOUS
 10
-48.3679123394
 20
-18.4995202971
 11
-48.3755816844
 21
0.9820532992
  0
LINE
  5
269
100
AcDbEntity
  8
0
100
AcDbLine
 62
7
  6
CONTINUOUS
 10
-45.1
 20
23.2820532992
 11
-45.1
 21
-21.3179467008
  0
LINE
  5
26A
100
AcDbEntity
  8
RACCORDO
100
AcDbLine
 62
250
  6
CONTINUOUS
 10
-44.8
 20
-21.6179467008
 11
-44.8
 21
-23.2179897685
  0
LINE
  5
26B
100
AcDbEntity
  8
RACCORDO
100
AcDbLine
 62
250
  6
CONTINUOUS
 10
-44.8
 20
23.5820532992
 11
-44.8
 21
25.1820963669
  0
LINE
  5
26C
100
AcDbEntity
  8
DRAFT
100
AcDbLine
 62
250
  6
CONTINUOUS
 10
-44.7
 20
-21.5182966604
 11
-44.7
 21
-21.612977365
  0
LINE
  5
26D
100
AcDbEntity
  8
DRAFT
100
AcDbLine
 62
250
  6
CONTINUOUS
 10
-44.7
 20
23.4824032588
 11
-44.7
 21
23.5770839634
  0
LINE
  5
26E
100
AcDbEntity
  8
DRAFT
100
AcDbLine
 62
7
  6
CONTINUOUS
 10
-45.0002120291
 20
-21.2179467008
 11
-45.0002120291
 21
23.1820532992
  0
LINE
  5
26F
100
AcDbEntity
  8
RACCORDO
100
AcDbLine
 62
250
  6
CONTINUOUS
 10
-46.6876717102
 20
-21.3179467008
 11
-46.6876717102
 21
23.2820532992
  0
LINE
  5
270
100
AcDbEntity
  8
RACCORDO
100
AcDbLine
 62
250
  6
CONTINUOUS
 10
-48.3755816844
 20
0.9820532992
 11
-48.3635232469
 21
21.9103080408
  0
LINE
  5
271
100
AcDbEntity
  8
RACCORDO
100
AcDbLine
 62
250
  6
CONTINUOUS
 10
-48.3635232469
 20
21.9103080408
 11
-48.3556124764
 21
23.2612219489
  0
LINE
  5
272
100
AcDbEntity
  8
RACCORDO
100
AcDbLine
 62
250
  6
CONTINUOUS
 10
-44.8000000001
 20
25.1820943436
 11
-44.7846188342
 21
26.7534619314
  0
LWPOLYLINE
  5
273
100
AcDbEntity
  8
RACCORDO
100
AcDbPolyline
 62
250
  6
CONTINUOUS
 90
76
 70
0
 10
-46.6876717102
 20
23.2820532992
 10
-46.6864457504
 20
23.3590663966
 10
-46.6822321827
 20
23.4334097045
 10
-46.6753409205
 20
23.5049781235
 10
-46.6661022222
 20
23.5734833786
 10
-46.6547965188
 20
23.6390729699
 10
-46.6415806724
 20
23.7023172787
 10
-46.62660469
 20
23.7633529603
 10
-46.6101252105
 20
23.8219769141
 10
-46.5923761988
 20
23.8782625748
 10
-46.5735599351
 20
23.9322149974
 10
-46.5538360328
 20
23.9838380258
 10
-46.5333492962
 20
24.0332181776
 10
-46.5122984592
 20
24.0802969457
 10
-46.4907958246
 20
24.1251826705
 10
-46.4688155396
 20
24.1682067886
 10
-46.4464467219
 20
24.2094327058
 10
-46.4238203389
 20
24.2488468912
 10
-46.4009290916
 20
24.2866509783
 10
-46.3778317528
 20
24.3229141273
 10
-46.3546385259
 20
24.357619349
 10
-46.3313984549
 20
24.3908330512
 10
-46.3081817915
 20
24.422589459
 10
-46.2850625945
 20
24.4529149163
 10
-46.2620866456
 20
24.4818630166
 10
-46.2393180494
 20
24.5094640418
 10
-46.2168148908
 20
24.5357526596
 10
-46.1946064635
 20
24.5607875456
 10
-46.1727619652
 20
24.5845825962
 10
-46.1513143348
 20
24.6071895432
 10
-46.1302289188
 20
24.6287188797
 10
-46.1095811084
 20
24.6491652457
 10
-46.0893752523
 20
24.6685928603
 10
-46.0694549246
 20
24.6872043309
 10
-46.049851929
 20
24.7050149256
 10
-46.0305869926
 20
24.7220504116
 10
-46.0114695315
 20
24.7385122816
 10
-45.9924632152
 20
24.7544582943
 10
-45.9736347687
 20
24.7698533444
 10
-45.9549380651
 20
24.7847489104
 10
-45.936414058
 20
24.7991356488
 10
-45.9180476811
 20
24.8130434439
 10
-45.8997029846
 20
24.8265751269
 10
-45.8814278927
 20
24.8397057867
 10
-45.8631915415
 20
24.8524710083
 10
-45.8447295593
 20
24.8650497871
 10
-45.8260843972
 20
24.8774118934
 10
-45.8072173862
 20
24.8895796988
 10
-45.7877273426
 20
24.9017875292
 10
-45.7675982222
 20
24.9140144111
 10
-45.7468325167
 20
24.9262422337
 10
-45.7250392574
 20
24.938680038
 10
-45.7020856077
 20
24.9513521626
 10
-45.6780722986
 20
24.9641557277
 10
-45.6529482497
 20
24.9770901444
 10
-45.6267129472
 20
24.9901100627
 10
-45.5993353185
 20
25.0031708167
 10
-45.5707154525
 20
25.0162641414
 10
-45.5408818654
 20
25.0293149282
 10
-45.5097754669
 20
25.0422874714
 10
-45.4771591476
 20
25.0552130427
 10
-45.4429868527
 20
25.0680265839
 10
-45.4072702741
 20
25.0806377871
 10
-45.3698529438
 20
25.0930144021
 10
-45.3305598951
 20
25.1051108753
 10
-45.2895366399
 20
25.116769973
 10
-45.2471151346
 20
25.1277995186
 10
-45.2034238525
 20
25.1381044509
 10
-45.1583399772
 20
25.1476137282
 10
-45.1118338082
 20
25.1561872403
 10
-45.0640593324
 20
25.1637039441
 10
-45.0148990849
 20
25.1701003333
 10
-44.9639246875
 20
25.1752811158
 10
-44.911014871
 20
25.1791051986
 10
-44.8563580398
 20
25.181425368
 10
-44.8
 20
25.1820963669
  0
LWPOLYLINE
  5
274
100
AcDbEntity
  8
RACCORDO
100
AcDbPolyline
 62
250
  6
CONTINUOUS
 90
76
 70
0
 10
-48.3556125377
 20
23.2612219624
 10
-48.3513479752
 20
23.4086497212
 10
-48.3412303525
 20
23.5509589616
 10
-48.3258106185
 20
23.6881655419
 10
-48.3054750345
 20
23.8201032258
 10
-48.2809137942
 20
23.9467824827
 10
-48.2531603922
 20
24.068126936
 10
-48.2230144915
 20
24.1836213448
 10
-48.190896307
 20
24.2929296269
 10
-48.1570403899
 20
24.3968455412
 10
-48.1218943075
 20
24.4958913625
 10
-48.0855759441
 20
24.5904089577
 10
-48.0477398113
 20
24.6807269943
 10
-48.0085162792
 20
24.7667355932
 10
-47.96832666
 20
24.8486104114
 10
-47.9271959458
 20
24.9269982063
 10
-47.8853034403
 20
25.0020185806
 10
-47.8428825828
 20
25.0736159007
 10
-47.7999555484
 20
25.1421593016
 10
-47.7566318976
 20
25.2077699573
 10
-47.7131128472
 20
25.2704176346
 10
-47.6695204298
 20
25.3302377461
 10
-47.62598703
 20
25.3872904798
 10
-47.5826465523
 20
25.4416236478
 10
-47.5396033884
 20
25.4933580066
 10
-47.4969717829
 20
25.5425528861
 10
-47.4548544983
 20
25.5892742366
 10
-47.4133236574
 20
25.6336513971
 10
-47.3725044052
 20
25.6757135812
 10
-47.332452392
 20
25.7155549649
 10
-47.2931168791
 20
25.7533949457
 10
-47.2546340337
 20
25.7892316815
 10
-47.2170052713
 20
25.8231797935
 10
-47.1799502842
 20
25.8556116517
 10
-47.1435371337
 20
25.8865502182
 10
-47.1077862089
 20
25.9160527607
 10
-47.07231286
 20
25.9445137504
 10
-47.0370710206
 20
25.9719858253
 10
-47.0021339321
 20
25.9984806017
 10
-46.9671709278
 20
26.0243806523
 10
-46.9320349627
 20
26.0498188095
 10
-46.8966038443
 20
26.074894715
 10
-46.860666537
 20
26.099833642
 10
-46.8243676132
 20
26.1245169357
 10
-46.7877491867
 20
26.1488966053
 10
-46.7504186154
 20
26.173285614
 10
-46.7123911211
 20
26.1976686764
 10
-46.6736213299
 20
26.222021786
 10
-46.6336545536
 20
26.246580271
 10
-46.5926459034
 20
26.2713542553
 10
-46.55074778
 20
26.2960403864
 10
-46.5075781062
 20
26.3203339416
 10
-46.4632576828
 20
26.3439026559
 10
-46.4181644905
 20
26.3667518136
 10
-46.3719855453
 20
26.3892249107
 10
-46.3243754072
 20
26.4115100272
 10
-46.2748109743
 20
26.4337376364
 10
-46.2227713763
 20
26.4560771773
 10
-46.1683430105
 20
26.4783779542
 10
-46.1116615037
 20
26.5004497157
 10
-46.0523957797
 20
26.5222925496
 10
-45.9904439745
 20
26.5438024608
 10
-45.9257817796
 20
26.5648481647
 10
-45.8581813995
 20
26.5853613164
 10
-45.7875746876
 20
26.6050692568
 10
-45.7142018838
 20
26.623862208
 10
-45.6379871667
 20
26.6419692582
 10
-45.558339113
 20
26.6592385391
 10
-45.4744846992
 20
26.6756937717
 10
-45.3863257733
 20
26.6917256504
 10
-45.2945234763
 20
26.7073957263
 10
-45.1995042915
 20
26.7218500116
 10
-45.1010618647
 20
26.7340310469
 10
-44.9990232512
 20
26.7434197999
 10
-44.893523723
 20
26.7499938551
 10
-44.7846188534
 20
26.7534622187
  0
LWPOLYLINE
  5
275
100
AcDbEntity
  8
DRAFT
100
AcDbPolyline
 62
7
  6
CONTINUOUS
 90
9
 70
0
 10
-45.0002120291
 20
23.1820532992
 10
-44.9993399571
 20
23.2049931633
 10
-44.9967202771
 20
23.2277834763
 10
-44.992371962
 20
23.2502916473
 10
-44.9863270875
 20
23.272376985
 10
-44.978622857
 20
23.2939226227
 10
-44.9692936355
 20
23.3148335919
 10
-44.9583849821
 20
23.3349961657
 10
-44.9459610909
 20
23.3542812467
  0
LINE
  5
276
100
AcDbEntity
  8
DRAFT
100
AcDbLine
 62
7
  6
CONTINUOUS
 10
-44.9459610909
 20
23.3542812467
 11
-44.9320913445
 21
23.3725744013
  0
LWPOLYLINE
  5
277
100
AcDbEntity
  8
DRAFT
100
AcDbPolyline
 62
7
  6
CONTINUOUS
 90
4
 70
0
 10
-44.9320913445
 20
23.3725744013
 10
-44.9270011819
 20
23.3786168506
 10
-44.9217537966
 20
23.3845232453
 10
-44.9163528264
 20
23.3902894973
  0
LWPOLYLINE
  5
278
100
AcDbEntity
  8
DRAFT
100
AcDbPolyline
 62
7
  6
CONTINUOUS
 90
7
 70
0
 10
-44.9163528264
 20
23.3902894973
 10
-44.9108020193
 20
23.3959116162
 10
-44.9051052195
 20
23.4013857105
 10
-44.8992663661
 20
23.4067079889
 10
-44.893289503
 20
23.4118747666
 10
-44.8871787764
 20
23.4168824691
 10
-44.8809384217
 20
23.4217276309
  0
LWPOLYLINE
  5
279
100
AcDbEntity
  8
DRAFT
100
AcDbPolyline
 62
7
  6
CONTINUOUS
 90
7
 70
0
 10
-44.8809384217
 20
23.4217276309
 10
-44.8614754252
 20
23.4352597409
 10
-44.8414860399
 20
23.4469575442
 10
-44.8211530072
 20
23.4568599165
 10
-44.8006607492
 20
23.4650157033
 10
-44.7801503727
 20
23.4714997241
 10
-44.7597158148
 20
23.4763997182
  0
LWPOLYLINE
  5
27A
100
AcDbEntity
  8
DRAFT
100
AcDbPolyline
 62
7
  6
CONTINUOUS
 90
6
 70
0
 10
-44.8809384217
 20
-21.4576210325
 10
-44.8871787738
 20
-21.4527758728
 10
-44.8932894985
 20
-21.447768172
 10
-44.8992663604
 20
-21.4426013955
 10
-44.9051052134
 20
-21.4372791178
 10
-44.9108020133
 20
-21.4318050237
  0
LWPOLYLINE
  5
27B
100
AcDbEntity
  8
DRAFT
100
AcDbPolyline
 62
7
  6
CONTINUOUS
 90
5
 70
0
 10
-44.9108020133
 20
-21.4318050237
 10
-44.9163528212
 20
-21.4261829043
 10
-44.9217537926
 20
-21.4204166513
 10
-44.9270011797
 20
-21.4145102548
 10
-44.9320913445
 20
-21.408467803
  0
LWPOLYLINE
  5
27C
100
AcDbEntity
  8
DRAFT
100
AcDbPolyline
 62
7
  6
CONTINUOUS
 90
7
 70
0
 10
-44.9320913445
 20
-21.408467803
 10
-44.9459479932
 20
-21.3901933643
 10
-44.95836604
 20
-21.3709215868
 10
-44.9692745942
 20
-21.3507656348
 10
-44.9786091638
 20
-21.3298501531
 10
-44.9863204786
 20
-21.3082913561
 10
-44.9923697355
 20
-21.2861945995
  0
LWPOLYLINE
  5
27D
100
AcDbEntity
  8
DRAFT
100
AcDbPolyline
 62
7
  6
CONTINUOUS
 90
3
 70
0
 10
-44.9923697355
 20
-21.2861945995
 10
-44.9967196791
 20
-21.263680763
 10
-44.9993399065
 20
-21.240887225
  0
LWPOLYLINE
  5
27E
100
AcDbEntity
  8
0
100
AcDbPolyline
 62
7
  6
CONTINUOUS
 90
3
 70
0
 43
0.3500000006
 10
-5.1428570938
 20
56.8882206116
 10
-4.2857143393
 20
57.745358551
 10
-4.2857143393
 20
54.7453621674
  0
LWPOLYLINE
  5
27F
100
AcDbEntity
  8
RACCORDO
100
AcDbPolyline
 62
250
  6
CONTINUOUS
 90
19
 70
0
 10
68.2930622383
 20
-37.9112228788
 10
68.4512676748
 20
-37.8993955772
 10
68.6085531018
 20
-37.8741792793
 10
68.7635449724
 20
-37.8356870224
 10
68.9151123127
 20
-37.7841803423
 10
69.0621365291
 20
-37.7200504511
 10
69.2034080026
 20
-37.6437615621
 10
69.337841258
 20
-37.5558648481
 10
69.4645654045
 20
-37.457005299
 10
69.5827025564
 20
-37.3478278213
 10
69.6913677232
 20
-37.2289868674
 10
69.7897437892
 20
-37.1013929485
 10
69.8770834088
 20
-36.9661023005
 10
69.9527281234
 20
-36.8240792555
 10
70.0161203422
 20
-36.6763363466
 10
70.0668436633
 20
-36.5240803808
 10
70.1045544668
 20
-36.3684419938
 10
70.1289597195
 20
-36.2104857185
 10
70.1399630149
 20
-36.0515081852
  0
LWPOLYLINE
  5
280
100
AcDbEntity
  8
RACCORDO
100
AcDbPolyline
 62
250
  6
CONTINUOUS
 90
3
 70
0
 10
67.7191465377
 20
-37.9340696248
 10
67.7916506552
 20
-37.9303278192
 10
67.8673955841
 20
-37.926854629
  0
LWPOLYLINE
  5
281
100
AcDbEntity
  8
RACCORDO
100
AcDbPolyline
 62
250
  6
CONTINUOUS
 90
19
 70
0
 10
68.25
 20
-38.7876093553
 10
68.4908630868
 20
-38.7774380218
 10
68.7300873793
 20
-38.7462939913
 10
68.9658430042
 20
-38.6943746004
 10
69.1963721606
 20
-38.6220156943
 10
69.4198459057
 20
-38.5297455276
 10
69.6343987267
 20
-38.4183251179
 10
69.8383032636
 20
-38.2886753831
 10
70.030104149
 20
-38.1417431126
 10
70.2084588965
 20
-37.978541341
 10
70.3720477681
 20
-37.8002119893
 10
70.5195114906
 20
-37.6081612173
 10
70.6496173274
 20
-37.4039651712
 10
70.7613706582
 20
-37.1891942184
 10
70.8539182929
 20
-36.9654926181
 10
70.9265129522
 20
-36.7347068896
 10
70.9786266916
 20
-36.4986618928
 10
71.0099181106
 20
-36.2591299802
 10
71.0201889283
 20
-36.0179467008
  0
LINE
  5
282
100
AcDbEntity
  8
RACCORDO
100
AcDbLine
 62
250
  6
CONTINUOUS
 10
67.8673955841
 20
-37.926854629
 11
68.0281639865
 21
-37.920454337
  0
LINE
  5
283
100
AcDbEntity
  8
RACCORDO
100
AcDbLine
 62
250
  6
CONTINUOUS
 10
68.0281639865
 20
-37.920454337
 11
68.2930627464
 21
-37.9112243226
  0
LWPOLYLINE
  5
284
100
AcDbEntity
  8
RACCORDO
100
AcDbPolyline
 62
250
  6
CONTINUOUS
 90
5
 70
0
 10
67.3438050708
 20
-37.9508080637
 10
67.4005605307
 20
-37.9495832709
 10
67.4591119118
 20
-37.9476533315
 10
67.5195764513
 20
-37.9450166173
 10
67.7191465377
 20
-37.9340696248
  0
LWPOLYLINE
  5
285
100
AcDbEntity
  8
RACCORDO
100
AcDbPolyline
 62
250
  6
CONTINUOUS
 90
11
 70
0
 10
70.3663167117
 20
-36.0492594566
 10
70.4732225774
 20
-36.0474873524
 10
70.5739896755
 20
-36.0453137389
 10
70.6672484326
 20
-36.0427681597
 10
70.7517313252
 20
-36.0398852138
 10
70.8262901061
 20
-36.0367040852
 10
70.8899114118
 20
-36.0332680113
 10
70.9417305351
 20
-36.029623695
 10
70.9810431775
 20
-36.0258206692
 10
71.0073150223
 20
-36.021910623
 10
71.0201889963
 20
-36.0179467008
  0
LINE
  5
286
100
AcDbEntity
  8
RACCORDO
100
AcDbLine
 62
250
  6
CONTINUOUS
 10
58.5974139693
 20
-38.0940083944
 11
65.8619927811
 21
-37.9727087246
  0
LINE
  5
287
100
AcDbEntity
  8
RACCORDO
100
AcDbLine
 62
250
  6
CONTINUOUS
 10
58.1476044286
 20
-38.0994559051
 11
58.5974139693
 21
-38.0940083944
  0
LINE
  5
288
100
AcDbEntity
  8
RACCORDO
100
AcDbLine
 62
250
  6
CONTINUOUS
 10
65.8619927811
 20
-37.9727087246
 11
67.3438050708
 21
-37.9508080637
  0
LINE
  5
289
100
AcDbEntity
  8
RACCORDO
100
AcDbLine
 62
250
  6
CONTINUOUS
 10
55.9632583316
 20
-38.1207922513
 11
57.2371513381
 21
-38.1049699291
  0
LINE
  5
28A
100
AcDbEntity
  8
RACCORDO
100
AcDbLine
 62
250
  6
CONTINUOUS
 10
70.1399643963
 20
-36.0515085766
 11
70.3663167117
 21
-36.0492594566
  0
LINE
  5
28B
100
AcDbEntity
  8
RACCORDO
100
AcDbLine
 62
250
  6
CONTINUOUS
 10
55.2633834205
 20
-38.1264675924
 11
55.9632583316
 21
-38.1207922513
  0
LINE
  5
28C
100
AcDbEntity
  8
RACCORDO
100
AcDbLine
 62
250
  6
CONTINUOUS
 10
57.2371513381
 20
-38.1049699291
 11
57.4917545419
 21
-38.1029935672
  0
LWPOLYLINE
  5
28D
100
AcDbEntity
  8
RACCORDO
100
AcDbPolyline
 62
250
  6
CONTINUOUS
 90
3
 70
0
 10
57.4917545419
 20
-38.1029935672
 10
57.7461912057
 20
-38.1021842835
 10
58.1476044286
 20
-38.0994559051
  0
LINE
  5
28E
100
AcDbEntity
  8
RACCORDO
100
AcDbLine
 62
250
  6
CONTINUOUS
 10
-68.25
 20
-38.7876093553
 11
-55.643984045
 21
-38.7784792949
  0
LINE
  5
28F
100
AcDbEntity
  8
0
100
AcDbLine
 62
7
  6
CONTINUOUS
 10
68.2499999999
 20
-39.0179467008
 11
-68.2499999999
 21
-39.0179467008
  0
LINE
  5
290
100
AcDbEntity
  8
RACCORDO
100
AcDbLine
 62
250
  6
CONTINUOUS
 10
-55.643984045
 20
-38.7784792949
 11
55.4475738729
 21
-38.7784653227
  0
LINE
  5
291
100
AcDbEntity
  8
RACCORDO
100
AcDbLine
 62
250
  6
CONTINUOUS
 10
-34.25
 20
-38.1148860028
 11
40.0968837921
 21
-38.120545423
  0
LINE
  5
292
100
AcDbEntity
  8
RACCORDO
100
AcDbLine
 62
250
  6
CONTINUOUS
 10
40.0968837921
 20
-38.120545423
 11
55.2633834205
 21
-38.1264675924
  0
LINE
  5
293
100
AcDbEntity
  8
RACCORDO
100
AcDbLine
 62
250
  6
CONTINUOUS
 10
55.4475738729
 20
-38.7784653227
 11
68.25
 21
-38.7876093553
  0
LINE
  5
294
100
AcDbEntity
  8
RACCORDO
100
AcDbLine
 62
250
  6
CONTINUOUS
 10
-55.2815447159
 20
-38.1263470065
 11
-34.25
 21
-38.1148859559
  0
LINE
  5
295
100
AcDbEntity
  8
RACCORDO
100
AcDbLine
 62
250
  6
CONTINUOUS
 10
-58.0360545358
 20
-38.1004542791
 11
-57.3873640796
 21
-38.1036573556
  0
LINE
  5
296
100
AcDbEntity
  8
RACCORDO
100
AcDbLine
 62
250
  6
CONTINUOUS
 10
-56.1420725004
 20
-38.1189304561
 11
-55.2815447159
 21
-38.1263470065
  0
LWPOLYLINE
  5
297
100
AcDbEntity
  8
RACCORDO
100
AcDbPolyline
 62
250
  6
CONTINUOUS
 90
12
 70
0
 10
-70.1399630151
 20
-36.0515081852
 10
-70.3662900529
 20
-36.0492580174
 10
-70.4731826418
 20
-36.047485577
 10
-70.5739364894
 20
-36.0453117504
 10
-70.6671823511
 20
-36.0427660774
 10
-70.7516530159
 20
-36.039883152
 10
-70.8262005277
 20
-36.0367021513
 10
-70.8898117858
 20
-36.0332663046
 10
-70.9416223134
 20
-36.0296223053
 10
-70.9809280055
 20
-36.0258196755
 10
-71.0071946975
 20
-36.021910093
 10
-71.0200654251
 20
-36.0179466894
  0
LINE
  5
298
100
AcDbEntity
  8
RACCORDO
100
AcDbLine
 62
250
  6
CONTINUOUS
 10
-58.4754966883
 20
-38.0956736501
 11
-58.0360545358
 21
-38.1004542791
  0
LINE
  5
299
100
AcDbEntity
  8
RACCORDO
100
AcDbLine
 62
250
  6
CONTINUOUS
 10
-57.3873640796
 20
-38.1036573556
 11
-56.1420725004
 21
-38.1189304561
  0
LINE
  5
29A
100
AcDbEntity
  8
RACCORDO
100
AcDbLine
 62
250
  6
CONTINUOUS
 10
-67.3824720572
 20
-37.949967212
 11
-62.069844434
 21
-38.0365463775
  0
LINE
  5
29B
100
AcDbEntity
  8
RACCORDO
100
AcDbLine
 62
250
  6
CONTINUOUS
 10
-62.069844434
 20
-38.0365463775
 11
-58.4754966883
 21
-38.0956736501
  0
LINE
  5
29C
100
AcDbEntity
  8
RACCORDO
100
AcDbLine
 62
250
  6
CONTINUOUS
 10
-68.2930627855
 20
-37.9112244312
 11
-68.0272612581
 21
-37.9204933975
  0
LWPOLYLINE
  5
29D
100
AcDbEntity
  8
RACCORDO
100
AcDbPolyline
 62
250
  6
CONTINUOUS
 90
4
 70
0
 10
-68.0272612581
 20
-37.9204933975
 10
-67.8625912625
 20
-37.9271322289
 10
-67.7846204424
 20
-37.9306439585
 10
-67.7099550389
 20
-37.9344099378
  0
LWPOLYLINE
  5
29E
100
AcDbEntity
  8
RACCORDO
100
AcDbPolyline
 62
250
  6
CONTINUOUS
 90
5
 70
0
 10
-67.7099550389
 20
-37.9344099378
 10
-67.5693706376
 20
-37.9426087449
 10
-67.5039992076
 20
-37.9460871309
 10
-67.4421232295
 20
-37.9485157118
 10
-67.3824720572
 20
-37.949967212
  0
LINE
  5
29F
100
AcDbEntity
  8
DRAFT
100
AcDbLine
 62
7
  6
CONTINUOUS
 10
-44.8614704426
 20
-21.4711563222
 11
-44.8809384217
 21
-21.4576210325
  0
LWPOLYLINE
  5
2A0
100
AcDbEntity
  8
RACCORDO
100
AcDbPolyline
 62
250
  6
CONTINUOUS
 90
3
 70
0
 10
-34.25
 20
-23.2203926515
 10
-34.2471879279
 20
-23.5420952762
 10
-34.2466343093
 20
-23.7124787869
  0
LINE
  5
2A1
100
AcDbEntity
  8
RACCORDO
100
AcDbLine
 62
250
  6
CONTINUOUS
 10
-34.25
 20
25.1844992499
 11
-34.2504809436
 21
40.7434754137
  0
LINE
  5
2A2
100
AcDbEntity
  8
RACCORDO
100
AcDbLine
 62
250
  6
CONTINUOUS
 10
-34.2466343093
 20
-23.7124787869
 11
-34.25
 21
-38.7793688219
  0
LINE
  5
2A3
100
AcDbEntity
  8
RACCORDO
100
AcDbLine
 62
250
  6
CONTINUOUS
 10
-71.25
 20
-36.0179467008
 11
-71.0201889283
 21
-36.0179467008
  0
LINE
  5
2A4
100
AcDbEntity
  8
RACCORDO
100
AcDbLine
 62
250
  6
CONTINUOUS
 10
71.0201889283
 20
-36.0179467008
 11
71.25
 21
-36.0179467008
  0
LWPOLYLINE
  5
2A5
100
AcDbEntity
  8
DRAFT
100
AcDbPolyline
 62
7
  6
CONTINUOUS
 90
3
 70
0
 10
44.7597158148
 20
-21.5122931198
 10
44.7394658916
 20
-21.5156885357
 10
44.7195276993
 20
-21.5176596651
  0
LINE
  5
2A6
100
AcDbEntity
  8
DRAFT
100
AcDbLine
 62
7
  6
CONTINUOUS
 10
44.7195276993
 20
-21.5176596651
 11
44.7
 21
-21.5182966604
  0
LINE
  5
2A7
100
AcDbEntity
  8
RACCORDO
100
AcDbLine
 62
250
  6
CONTINUOUS
 10
44.7846188342
 20
-24.7893553331
 11
43.7245623366
 21
-24.804067336
  0
LWPOLYLINE
  5
2A8
100
AcDbEntity
  8
RACCORDO
100
AcDbPolyline
 62
250
  6
CONTINUOUS
 90
3
 70
0
 10
46.6876746853
 20
-21.317946701
 10
48.1572377691
 20
-21.2992004917
 10
48.3556125377
 20
-21.2971153641
  0
LINE
  5
2A9
100
AcDbEntity
  8
RACCORDO
100
AcDbLine
 62
250
  6
CONTINUOUS
 10
43.7245623366
 20
-24.804067336
 11
41.5166315635
 21
-24.8190417609
  0
LWPOLYLINE
  5
2AA
100
AcDbEntity
  8
RACCORDO
100
AcDbPolyline
 62
250
  6
CONTINUOUS
 90
3
 70
0
 10
41.5166315635
 20
-24.8190417609
 10
37.9965114603
 20
-24.8235759514
 10
-34.25
 20
-24.8227208296
  0
LINE
  5
2AB
100
AcDbEntity
  8
0
100
AcDbLine
 62
7
  6
CONTINUOUS
 10
-44.8
 20
-21.6179467008
 11
44.8
 21
-21.6179467008
  0
LINE
  5
2AC
100
AcDbEntity
  8
RACCORDO
100
AcDbLine
 62
250
  6
CONTINUOUS
 10
-34.2468677432
 20
-23.2203926515
 11
-44.8
 21
-23.2179897685
  0
LINE
  5
2AD
100
AcDbEntity
  8
RACCORDO
100
AcDbLine
 62
250
  6
CONTINUOUS
 10
-34.2500000006
 20
-24.8227272462
 11
-40.3813028554
 21
-24.8221968474
  0
LINE
  5
2AE
100
AcDbEntity
  8
RACCORDO
100
AcDbLine
 62
250
  6
CONTINUOUS
 10
44.8
 20
-23.2179897685
 11
-34.25
 21
-23.2203926515
  0
LWPOLYLINE
  5
2AF
100
AcDbEntity
  8
RACCORDO
100
AcDbPolyline
 62
250
  6
CONTINUOUS
 90
4
 70
0
 10
-40.3813028554
 20
-24.8221968474
 10
-42.6399067596
 20
-24.8134367856
 10
-43.7270306239
 20
-24.8040646219
 10
-44.7846188223
 20
-24.7893551742
  0
LWPOLYLINE
  5
2B0
100
AcDbEntity
  8
RACCORDO
100
AcDbPolyline
 62
250
  6
CONTINUOUS
 90
76
 70
0
 10
-44.8
 20
-23.2179897685
 10
-44.8555230466
 20
-23.2173390247
 10
-44.9091571853
 20
-23.2151024211
 10
-44.9608600662
 20
-23.2114384637
 10
-45.0104482657
 20
-23.2065079006
 10
-45.0580464151
 20
-23.2004608603
 10
-45.1040842229
 20
-23.1933986946
 10
-45.1485149821
 20
-23.1854259567
 10
-45.191359895
 20
-23.1766497786
 10
-45.2331516668
 20
-23.1670993014
 10
-45.2741722624
 20
-23.1567778885
 10
-45.3141243863
 20
-23.1457916517
 10
-45.3526778514
 20
-23.1343060858
 10
-45.3897389656
 20
-23.1224354878
 10
-45.4254166642
 20
-23.1102232037
 10
-45.4596948753
 20
-23.0977472319
 10
-45.4925285354
 20
-23.0851014569
 10
-45.5239900082
 20
-23.0723330868
 10
-45.5542386929
 20
-23.0594394404
 10
-45.5832777505
 20
-23.0464789421
 10
-45.6111315885
 20
-23.0335009843
 10
-45.6379855478
 20
-23.0204697594
 10
-45.6639204047
 20
-23.0073955592
 10
-45.6888787096
 20
-22.9943453119
 10
-45.7128354785
 20
-22.981359142
 10
-45.735676385
 20
-22.9685483697
 10
-45.7575451769
 20
-22.9558783684
 10
-45.77879576
 20
-22.9431558273
 10
-45.7994126452
 20
-22.9304038799
 10
-45.8194229669
 20
-22.9176387657
 10
-45.8392268403
 20
-22.904627265
 10
-45.858874712
 20
-22.8913365161
 10
-45.8783092767
 20
-22.8778054802
 10
-45.8977541706
 20
-22.8638852228
 10
-45.9172231302
 20
-22.8495522572
 10
-45.9366842551
 20
-22.8348203359
 10
-45.9562828392
 20
-22.8195820204
 10
-45.9760383564
 20
-22.8038037034
 10
-45.9959030971
 20
-22.7874976304
 10
-46.0159154685
 20
-22.7706171407
 10
-46.0359835643
 20
-22.7532183858
 10
-46.0561674226
 20
-22.7352232163
 10
-46.0767203799
 20
-22.7163697929
 10
-46.097674815
 20
-22.6965745166
 10
-46.1189352143
 20
-22.6758718142
 10
-46.1405466036
 20
-22.6541614055
 10
-46.1625288687
 20
-22.6313542547
 10
-46.1847807208
 20
-22.6074831118
 10
-46.2071644806
 20
-22.5826319316
 10
-46.2295737213
 20
-22.5568586
 10
-46.2520384984
 20
-22.5300656597
 10
-46.2746219612
 20
-22.5021039464
 10
-46.2972748399
 20
-22.4729451389
 10
-46.3199412377
 20
-22.442567837
 10
-46.3426563942
 20
-22.4108229551
 10
-46.3653531262
 20
-22.3776829542
 10
-46.387962503
 20
-22.3431213121
 10
-46.4104965921
 20
-22.3069811684
 10
-46.4328633422
 20
-22.269245686
 10
-46.4549812388
 20
-22.2298773845
 10
-46.4768515389
 20
-22.1886789417
 10
-46.4983586341
 20
-22.1456308236
 10
-46.5193931247
 20
-22.1007014027
 10
-46.5399298979
 20
-22.0536654434
 10
-46.5598716934
 20
-22.0043964698
 10
-46.579018228
 20
-21.9529784032
 10
-46.5971734442
 20
-21.8995060278
 10
-46.61416812
 20
-21.8441032644
 10
-46.6298702849
 20
-21.786655099
 10
-46.6441160511
 20
-21.7269121553
 10
-46.6566839715
 20
-21.6649601412
 10
-46.6674087311
 20
-21.600777139
 10
-46.6761309926
 20
-21.5339617537
 10
-46.6826027353
 20
-21.464422065
 10
-46.6865396654
 20
-21.3923847922
 10
-46.6876717102
 20
-21.3179467008
  0
LWPOLYLINE
  5
2B1
100
AcDbEntity
  8
RACCORDO
100
AcDbPolyline
 62
250
  6
CONTINUOUS
 90
3
 70
0
 10
-46.6876707951
 20
-21.3179467008
 10
-46.8522925776
 20
-21.3154907898
 10
-48.3556125198
 20
-21.2971153605
  0
LWPOLYLINE
  5
2B2
100
AcDbEntity
  8
RACCORDO
100
AcDbPolyline
 62
250
  6
CONTINUOUS
 90
76
 70
0
 10
-44.7846188121
 20
-24.7893550232
 10
-44.891945249
 20
-24.7859341758
 10
-44.9955884425
 20
-24.779534218
 10
-45.09545915
 20
-24.7704777618
 10
-45.1912360161
 20
-24.7588949062
 10
-45.2829976775
 20
-24.7453025197
 10
-45.3712523199
 20
-24.730558461
 10
-45.4556316761
 20
-24.7153760013
 10
-45.5359001064
 20
-24.6997527673
 10
-45.6126848807
 20
-24.6833995267
 10
-45.6866767846
 20
-24.6663586296
 10
-45.7581219313
 20
-24.6487219668
 10
-45.8272728897
 20
-24.6301134075
 10
-45.8941332498
 20
-24.6105161767
 10
-45.9586627709
 20
-24.5902131663
 10
-46.0207522815
 20
-24.5693427993
 10
-46.0803361011
 20
-24.5480465374
 10
-46.1375720074
 20
-24.5263994966
 10
-46.1927312284
 20
-24.504412623
 10
-46.2456591124
 20
-24.4822600216
 10
-46.2962942872
 20
-24.4600878024
 10
-46.3449976757
 20
-24.4378477583
 10
-46.39216664
 20
-24.415520992
 10
-46.438214021
 20
-24.3928426586
 10
-46.4837080089
 20
-24.3692436838
 10
-46.5284613106
 20
-24.3445621395
 10
-46.5722631285
 20
-24.3191980974
 10
-46.6153685231
 20
-24.2935333423
 10
-46.6575904868
 20
-24.2678634491
 10
-46.6987626642
 20
-24.2421888693
 10
-46.7392361622
 20
-24.2163933493
 10
-46.7790169637
 20
-24.1905460688
 10
-46.8180849586
 20
-24.1646438181
 10
-46.8567851129
 20
-24.1383969044
 10
-46.8950899696
 20
-24.1118466839
 10
-46.9328395707
 20
-24.0851254989
 10
-46.9701091606
 20
-24.0581026211
 10
-47.0069212895
 20
-24.0307639157
 10
-47.0435371114
 20
-24.0028933137
 10
-47.0804692738
 20
-23.9739472245
 10
-47.1177043099
 20
-23.9438537192
 10
-47.1552389134
 20
-23.9126017396
 10
-47.193482843
 20
-23.8797698238
 10
-47.2324817229
 20
-23.8452312577
 10
-47.272076492
 20
-23.809025243
 10
-47.3123607284
 20
-23.7709353171
 10
-47.3533850485
 20
-23.7307920222
 10
-47.3949599178
 20
-23.6886536245
 10
-47.4368088875
 20
-23.6446540778
 10
-47.4787322046
 20
-23.5988969603
 10
-47.5207895302
 20
-23.5512062187
 10
-47.5630859458
 20
-23.5012963078
 10
-47.6055347591
 20
-23.4491139158
 10
-47.6480343557
 20
-23.3946154441
 10
-47.6906341931
 20
-23.3375113411
 10
-47.7332137095
 20
-23.2777530439
 10
-47.7756378776
 20
-23.2153005074
 10
-47.8178944369
 20
-23.1498650955
 10
-47.8598155022
 20
-23.081414522
 10
-47.9012637991
 20
-23.0098595428
 10
-47.9422265408
 20
-22.93480359
 10
-47.982507308
 20
-22.8562421715
 10
-48.0218401021
 20
-22.7742076889
 10
-48.0600307015
 20
-22.6883821939
 10
-48.0966261141
 20
-22.5985822119
 10
-48.1316645771
 20
-22.504651771
 10
-48.1656589111
 20
-22.4061716556
 10
-48.1985846124
 20
-22.3029666106
 10
-48.2298035801
 20
-22.1948822091
 10
-48.2588038805
 20
-22.0815114106
 10
-48.2851522065
 20
-21.9629909147
 10
-48.308305013
 20
-21.8395523847
 10
-48.3274684463
 20
-21.7110637595
 10
-48.342016309
 20
-21.5776837509
 10
-48.3515631287
 20
-21.4396708746
 10
-48.3556122265
 20
-21.2971152961
  0
LWPOLYLINE
  5
2B3
100
AcDbEntity
  8
DRAFT
100
AcDbPolyline
 62
7
  6
CONTINUOUS
 90
9
 70
0
 10
-44.7
 20
-21.5182966604
 10
-44.7195219105
 20
-21.517660043
 10
-44.7394558142
 20
-21.515689873
 10
-44.7597029829
 20
-21.5122957251
 10
-44.7801362996
 20
-21.5073970255
 10
-44.8006469225
 20
-21.5009140272
 10
-44.8211408769
 20
-21.4927586698
 10
-44.8414769293
 20
-21.4828558152
 10
-44.8614704426
 20
-21.4711563222
  0
LWPOLYLINE
  5
2B4
100
AcDbEntity
  8
0
100
AcDbPolyline
 62
7
  6
CONTINUOUS
 90
3
 70
0
 43
0.3500000006
 10
2.0000000439
 20
55.0310778351
 10
1.9285714102
 20
54.8167888184
 10
1.7857142844
 20
54.5310776825
  0
LINE
  5
2B5
100
AcDbEntity
  8
RACCORDO
100
AcDbLine
 62
250
  6
CONTINUOUS
 10
45.1
 20
-21.3179467008
 11
46.6876717102
 21
-21.3179467008
  0
LINE
  5
2B6
100
AcDbEntity
  8
RACCORDO
100
AcDbLine
 62
250
  6
CONTINUOUS
 10
-45.1
 20
-21.3179467008
 11
-46.6876717102
 21
-21.3179467008
  0
LINE
  5
2B7
100
AcDbEntity
  8
DRAFT
100
AcDbLine
 62
250
  6
CONTINUOUS
 10
-45.0002120291
 20
-21.2179467008
 11
-45.0950306642
 21
-21.2179467008
  0
LINE
  5
2B8
100
AcDbEntity
  8
DRAFT
100
AcDbLine
 62
250
  6
CONTINUOUS
 10
45.0002120291
 20
-21.2179467008
 11
45.0950306642
 21
-21.2179467008
  0
LINE
  5
2B9
100
AcDbEntity
  8
DRAFT
100
AcDbLine
 62
7
  6
CONTINUOUS
 10
44.7
 20
-21.5182966604
 11
-44.7
 21
-21.5182966604
  0
LWPOLYLINE
  5
2BA
100
AcDbEntity
  8
0
100
AcDbPolyline
 62
7
  6
CONTINUOUS
 90
2
 70
0
 43
0.3500000006
 10
-2.4285715628
 20
54.7453621674
 10
-2.4285715628
 20
56.2453580933
  0
LINE
  5
2BB
100
AcDbEntity
  8
RACCORDO
100
AcDbLine
 62
250
  6
CONTINUOUS
 10
46.6746055433
 20
0.9788223163
 11
70.2670229694
 21
0.9820532992
  0
LINE
  5
2BC
100
AcDbEntity
  8
RACCORDO
100
AcDbLine
 62
250
  6
CONTINUOUS
 10
-48.3755816845
 20
0.9820532992
 11
-70.6412663775
 21
0.9821393673
  0
LINE
  5
2BD
100
AcDbEntity
  8
RACCORDO
100
AcDbLine
 62
250
  6
CONTINUOUS
 10
70.2670229626
 20
0.9820532992
 11
70.641266376
 21
0.9819672311
  0
LINE
  5
2BE
100
AcDbEntity
  8
RACCORDO
100
AcDbLine
 62
250
  6
CONTINUOUS
 10
-70.6412663775
 20
0.9821393673
 11
-71.014915443
 21
0.982450281
  0
LINE
  5
2BF
100
AcDbEntity
  8
RACCORDO
100
AcDbLine
 62
250
  6
CONTINUOUS
 10
-46.6746055433
 20
0.985284282
 11
-48.3755816844
 21
0.9820532992
  0
LINE
  5
2C0
100
AcDbEntity
  8
RACCORDO
100
AcDbLine
 62
250
  6
CONTINUOUS
 10
70.641266376
 20
0.9819672311
 11
71.0149154403
 21
0.9816563174
  0
LINE
  5
2C1
100
AcDbEntity
  8
DRAFT
100
AcDbLine
 62
250
  6
CONTINUOUS
 10
45.0002120291
 20
23.1820532992
 11
45.0950306642
 21
23.1820532992
  0
LINE
  5
2C2
100
AcDbEntity
  8
DRAFT
100
AcDbLine
 62
250
  6
CONTINUOUS
 10
-45.0002120291
 20
23.1820532992
 11
-45.0950306642
 21
23.1820532992
  0
LINE
  5
2C3
100
AcDbEntity
  8
RACCORDO
100
AcDbLine
 62
250
  6
CONTINUOUS
 10
45.1
 20
23.2820532992
 11
46.6876717102
 21
23.2820532992
  0
LINE
  5
2C4
100
AcDbEntity
  8
RACCORDO
100
AcDbLine
 62
250
  6
CONTINUOUS
 10
-45.1
 20
23.2820532992
 11
-46.6876717102
 21
23.2820532992
  0
LINE
  5
2C5
100
AcDbEntity
  8
DRAFT
100
AcDbLine
 62
7
  6
CONTINUOUS
 10
-44.7
 20
23.4824032588
 11
44.7
 21
23.4824032588
  0
LWPOLYLINE
  5
2C6
100
AcDbEntity
  8
DRAFT
100
AcDbPolyline
 62
7
  6
CONTINUOUS
 90
3
 70
0
 10
-44.7597158148
 20
23.4763997182
 10
-44.7394658916
 20
23.4797951341
 10
-44.7195276993
 20
23.4817662634
  0
LINE
  5
2C7
100
AcDbEntity
  8
DRAFT
100
AcDbLine
 62
7
  6
CONTINUOUS
 10
-44.7195276993
 20
23.4817662634
 11
-44.7
 21
23.4824032588
  0
LINE
  5
2C8
100
AcDbEntity
  8
RACCORDO
100
AcDbLine
 62
250
  6
CONTINUOUS
 10
-44.7846188342
 20
26.7534619314
 11
-43.7245623366
 21
26.7681739343
  0
LWPOLYLINE
  5
2C9
100
AcDbEntity
  8
RACCORDO
100
AcDbPolyline
 62
250
  6
CONTINUOUS
 90
3
 70
0
 10
-46.6876746853
 20
23.2820532994
 10
-48.1572377691
 20
23.26330709
 10
-48.3556125377
 20
23.2612219624
  0
LINE
  5
2CA
100
AcDbEntity
  8
RACCORDO
100
AcDbLine
 62
250
  6
CONTINUOUS
 10
-43.7245623366
 20
26.7681739343
 11
-41.5166315635
 21
26.7831483593
  0
LINE
  5
2CB
100
AcDbEntity
  8
0
100
AcDbLine
 62
7
  6
CONTINUOUS
 10
44.8
 20
23.5820532992
 11
-44.8
 21
23.5820532992
  0
LWPOLYLINE
  5
2CC
100
AcDbEntity
  8
RACCORDO
100
AcDbPolyline
 62
250
  6
CONTINUOUS
 90
3
 70
0
 10
-41.5166315635
 20
26.7831483593
 10
-37.9965114603
 20
26.7876825498
 10
34.25
 20
26.786827428
  0
LINE
  5
2CD
100
AcDbEntity
  8
RACCORDO
100
AcDbLine
 62
250
  6
CONTINUOUS
 10
34.2468677432
 20
25.1844992499
 11
44.8
 21
25.1820963669
  0
LINE
  5
2CE
100
AcDbEntity
  8
RACCORDO
100
AcDbLine
 62
250
  6
CONTINUOUS
 10
-44.8
 20
25.1820963669
 11
34.25
 21
25.1844992499
  0
LINE
  5
2CF
100
AcDbEntity
  8
RACCORDO
100
AcDbLine
 62
250
  6
CONTINUOUS
 10
34.2500000006
 20
26.7868338446
 11
40.3813028554
 21
26.7863034458
  0
LWPOLYLINE
  5
2D0
100
AcDbEntity
  8
RACCORDO
100
AcDbPolyline
 62
250
  6
CONTINUOUS
 90
4
 70
0
 10
40.3813028554
 20
26.7863034458
 10
42.6399067596
 20
26.7775433839
 10
43.7270306239
 20
26.7681712202
 10
44.7846188223
 20
26.7534617726
  0
LWPOLYLINE
  5
2D1
100
AcDbEntity
  8
RACCORDO
100
AcDbPolyline
 62
250
  6
CONTINUOUS
 90
76
 70
0
 10
44.8
 20
25.1820963669
 10
44.8555230466
 20
25.1814456231
 10
44.9091571853
 20
25.1792090195
 10
44.9608600662
 20
25.1755450621
 10
45.0104482657
 20
25.1706144989
 10
45.0580464151
 20
25.1645674587
 10
45.1040842229
 20
25.157505293
 10
45.1485149821
 20
25.1495325551
 10
45.191359895
 20
25.140756377
 10
45.2331516668
 20
25.1312058998
 10
45.2741722624
 20
25.1208844869
 10
45.3141243863
 20
25.10989825
 10
45.3526778514
 20
25.0984126842
 10
45.3897389656
 20
25.0865420861
 10
45.4254166642
 20
25.074329802
 10
45.4596948753
 20
25.0618538302
 10
45.4925285354
 20
25.0492080553
 10
45.5239900082
 20
25.0364396851
 10
45.5542386929
 20
25.0235460388
 10
45.5832777505
 20
25.0105855405
 10
45.6111315885
 20
24.9976075826
 10
45.6379855478
 20
24.9845763578
 10
45.6639204047
 20
24.9715021576
 10
45.6888787096
 20
24.9584519103
 10
45.7128354785
 20
24.9454657404
 10
45.7356763851
 20
24.9326549681
 10
45.7575451769
 20
24.9199849668
 10
45.77879576
 20
24.9072624256
 10
45.7994126452
 20
24.8945104782
 10
45.8194229669
 20
24.881745364
 10
45.8392268403
 20
24.8687338633
 10
45.858874712
 20
24.8554431145
 10
45.8783092767
 20
24.8419120786
 10
45.8977541706
 20
24.8279918211
 10
45.9172231302
 20
24.8136588556
 10
45.9366842551
 20
24.7989269343
 10
45.9562828392
 20
24.7836886188
 10
45.9760383564
 20
24.7679103017
 10
45.9959030971
 20
24.7516042287
 10
46.0159154686
 20
24.7347237391
 10
46.0359835643
 20
24.7173249842
 10
46.0561674226
 20
24.6993298147
 10
46.0767203799
 20
24.6804763912
 10
46.097674815
 20
24.660681115
 10
46.1189352143
 20
24.6399784125
 10
46.1405466036
 20
24.6182680039
 10
46.1625288687
 20
24.595460853
 10
46.1847807208
 20
24.5715897101
 10
46.2071644806
 20
24.54673853
 10
46.2295737213
 20
24.5209651984
 10
46.2520384984
 20
24.4941722581
 10
46.2746219612
 20
24.4662105448
 10
46.2972748399
 20
24.4370517372
 10
46.3199412377
 20
24.4066744354
 10
46.3426563942
 20
24.3749295534
 10
46.3653531262
 20
24.3417895526
 10
46.387962503
 20
24.3072279105
 10
46.4104965921
 20
24.2710877667
 10
46.4328633422
 20
24.2333522844
 10
46.4549812388
 20
24.1939839828
 10
46.4768515389
 20
24.1527855401
 10
46.4983586341
 20
24.1097374219
 10
46.5193931247
 20
24.064808001
 10
46.5399298979
 20
24.0177720418
 10
46.5598716934
 20
23.9685030682
 10
46.579018228
 20
23.9170850016
 10
46.5971734442
 20
23.8636126262
 10
46.61416812
 20
23.8082098627
 10
46.6298702849
 20
23.7507616974
 10
46.6441160511
 20
23.6910187536
 10
46.6566839715
 20
23.6290667396
 10
46.6674087311
 20
23.5648837374
 10
46.6761309926
 20
23.498068352
 10
46.6826027353
 20
23.4285286633
 10
46.6865396654
 20
23.3564913905
 10
46.6876717102
 20
23.2820532992
  0
LWPOLYLINE
  5
2D2
100
AcDbEntity
  8
RACCORDO
100
AcDbPolyline
 62
250
  6
CONTINUOUS
 90
3
 70
0
 10
46.6876707951
 20
23.2820532992
 10
46.8522925776
 20
23.2795973882
 10
48.3556125198
 20
23.2612219589
  0
LWPOLYLINE
  5
2D3
100
AcDbEntity
  8
RACCORDO
100
AcDbPolyline
 62
250
  6
CONTINUOUS
 90
76
 70
0
 10
44.7846188121
 20
26.7534616215
 10
44.891945249
 20
26.7500407742
 10
44.9955884426
 20
26.7436408164
 10
45.09545915
 20
26.7345843602
 10
45.1912360161
 20
26.7230015046
 10
45.2829976775
 20
26.7094091181
 10
45.3712523199
 20
26.6946650593
 10
45.4556316761
 20
26.6794825997
 10
45.5359001064
 20
26.6638593657
 10
45.6126848807
 20
26.6475061251
 10
45.6866767846
 20
26.6304652279
 10
45.7581219313
 20
26.6128285651
 10
45.8272728898
 20
26.5942200059
 10
45.8941332498
 20
26.5746227751
 10
45.9586627709
 20
26.5543197647
 10
46.0207522815
 20
26.5334493977
 10
46.0803361011
 20
26.5121531358
 10
46.1375720074
 20
26.4905060949
 10
46.1927312284
 20
26.4685192214
 10
46.2456591124
 20
26.4463666199
 10
46.2962942872
 20
26.4241944008
 10
46.3449976757
 20
26.4019543566
 10
46.39216664
 20
26.3796275904
 10
46.438214021
 20
26.356949257
 10
46.4837080089
 20
26.3333502821
 10
46.5284613106
 20
26.3086687378
 10
46.5722631285
 20
26.2833046958
 10
46.6153685231
 20
26.2576399407
 10
46.6575904869
 20
26.2319700475
 10
46.6987626642
 20
26.2062954676
 10
46.7392361622
 20
26.1804999477
 10
46.7790169637
 20
26.1546526672
 10
46.8180849586
 20
26.1287504165
 10
46.8567851129
 20
26.1025035027
 10
46.8950899696
 20
26.0759532823
 10
46.9328395707
 20
26.0492320973
 10
46.9701091606
 20
26.0222092194
 10
47.0069212896
 20
25.994870514
 10
47.0435371114
 20
25.9669999121
 10
47.0804692738
 20
25.9380538229
 10
47.11770431
 20
25.9079603176
 10
47.1552389134
 20
25.876708338
 10
47.193482843
 20
25.8438764222
 10
47.2324817229
 20
25.809337856
 10
47.272076492
 20
25.7731318414
 10
47.3123607284
 20
25.7350419154
 10
47.3533850485
 20
25.6948986206
 10
47.3949599178
 20
25.6527602228
 10
47.4368088875
 20
25.6087606762
 10
47.4787322046
 20
25.5630035587
 10
47.5207895302
 20
25.5153128171
 10
47.5630859458
 20
25.4654029062
 10
47.6055347591
 20
25.4132205142
 10
47.6480343557
 20
25.3587220425
 10
47.6906341931
 20
25.3016179395
 10
47.7332137095
 20
25.2418596423
 10
47.7756378776
 20
25.1794071058
 10
47.8178944369
 20
25.1139716939
 10
47.8598155022
 20
25.0455211204
 10
47.9012637991
 20
24.9739661411
 10
47.9422265408
 20
24.8989101884
 10
47.982507308
 20
24.8203487699
 10
48.0218401021
 20
24.7383142872
 10
48.0600307015
 20
24.6524887923
 10
48.0966261141
 20
24.5626888103
 10
48.1316645771
 20
24.4687583693
 10
48.1656589111
 20
24.370278254
 10
48.1985846124
 20
24.267073209
 10
48.2298035801
 20
24.1589888075
 10
48.2588038805
 20
24.045618009
 10
48.2851522065
 20
23.9270975131
 10
48.308305013
 20
23.8036589831
 10
48.3274684463
 20
23.6751703579
 10
48.342016309
 20
23.5417903492
 10
48.3515631287
 20
23.403777473
 10
48.3556122265
 20
23.2612218945
  0
LWPOLYLINE
  5
2D4
100
AcDbEntity
  8
DRAFT
100
AcDbPolyline
 62
7
  6
CONTINUOUS
 90
9
 70
0
 10
44.7
 20
23.4824032588
 10
44.7195219105
 20
23.4817666414
 10
44.7394558142
 20
23.4797964713
 10
44.7597029829
 20
23.4764023235
 10
44.7801362996
 20
23.4715036239
 10
44.8006469225
 20
23.4650206256
 10
44.8211408769
 20
23.4568652682
 10
44.8414769293
 20
23.4469624136
 10
44.8614704426
 20
23.4352629206
  0
LWPOLYLINE
  5
2D5
100
AcDbEntity
  8
0
100
AcDbPolyline
 62
7
  6
CONTINUOUS
 90
10
 70
0
 43
0.3500000006
 10
1.9285714102
 20
55.2453623199
 10
2.0000000439
 20
55.1025044861
 10
2.0000000439
 20
55.0310778351
 10
1.8571429181
 20
54.8882200012
 10
1.7857142844
 20
54.8882200012
 10
1.7142856507
 20
54.9596466522
 10
1.7142856507
 20
55.0310778351
 10
1.7857142844
 20
55.1739311371
 10
1.8571429181
 20
55.2453623199
 10
1.9285714102
 20
55.2453623199
  0
LWPOLYLINE
  5
2D6
100
AcDbEntity
  8
RACCORDO
100
AcDbPolyline
 62
250
  6
CONTINUOUS
 90
3
 70
0
 10
34.25
 20
25.1844992499
 10
34.2471879279
 20
25.5062018745
 10
34.2466343093
 20
25.6765853852
  0
LINE
  5
2D7
100
AcDbEntity
  8
RACCORDO
100
AcDbLine
 62
250
  6
CONTINUOUS
 10
34.25
 20
-38.1148860028
 11
34.2504809436
 21
-38.7793688154
  0
LINE
  5
2D8
100
AcDbEntity
  8
RACCORDO
100
AcDbLine
 62
250
  6
CONTINUOUS
 10
34.25
 20
-23.2203926515
 11
34.25
 21
-38.1148859567
  0
LINE
  5
2D9
100
AcDbEntity
  8
RACCORDO
100
AcDbLine
 62
250
  6
CONTINUOUS
 10
34.2466343093
 20
25.6765853852
 11
34.25
 21
40.7434754203
  0
LWPOLYLINE
  5
2DA
100
AcDbEntity
  8
RACCORDO
100
AcDbPolyline
 62
250
  6
CONTINUOUS
 90
13
 70
0
 10
-70.1399643998
 20
38.0156151759
 10
-70.2547250867
 20
38.014712489
 10
-70.3663167083
 20
38.013365922
 10
-70.47322257
 20
38.011593776
 10
-70.5739896636
 20
38.0094201368
 10
-70.6672484158
 20
38.0068745465
 10
-70.7517313028
 20
38.0039916032
 10
-70.8262900776
 20
38.0008104893
 10
-70.8899113765
 20
37.9973744407
 10
-70.9417304923
 20
37.9937301585
 10
-70.9810431268
 20
37.9899271735
 10
-71.0073149631
 20
37.986017173
 10
-71.0201889283
 20
37.9820532992
  0
LINE
  5
2DB
100
AcDbEntity
  8
RACCORDO
100
AcDbLine
 62
250
  6
CONTINUOUS
 10
71.25
 20
37.9820532992
 11
71.0201889283
 21
37.9820532992
  0
LINE
  5
2DC
100
AcDbEntity
  8
RACCORDO
100
AcDbLine
 62
250
  6
CONTINUOUS
 10
-71.0201889283
 20
37.9820532992
 11
-71.25
 21
37.9820532992
  0
LWPOLYLINE
  5
2DD
100
AcDbEntity
  8
RACCORDO
100
AcDbPolyline
 62
250
  6
CONTINUOUS
 90
13
 70
0
 10
70.1399630151
 20
38.0156147836
 10
70.2547113927
 20
38.0147115858
 10
70.3662900529
 20
38.0133646158
 10
70.4731826418
 20
38.0115921754
 10
70.5739364894
 20
38.0094183489
 10
70.6671823511
 20
38.006872676
 10
70.7516530159
 20
38.0039897505
 10
70.8262005277
 20
38.00080875
 10
70.8898117858
 20
37.9973729034
 10
70.9416223134
 20
37.9937289041
 10
70.9809280055
 20
37.9899262743
 10
71.0071946975
 20
37.9860166916
 10
71.0200654251
 20
37.9820532877
  0
LINE
  5
2DE
100
AcDbEntity
  8
DRAFT
100
AcDbLine
 62
7
  6
CONTINUOUS
 10
44.9993399065
 20
23.2049938233
 11
45.0002120291
 21
23.1820532992
  0
LINE
  5
2DF
100
AcDbEntity
  8
RACCORDO
100
AcDbLine
 62
250
  6
CONTINUOUS
 10
44.8
 20
25.1820964083
 11
44.7846188121
 21
26.7534616215
  0
LINE
  5
2E0
100
AcDbEntity
  8
DRAFT
100
AcDbLine
 62
250
  6
CONTINUOUS
 10
44.7
 20
-21.5182966604
 11
44.7
 21
-21.612977365
  0
LINE
  5
2E1
100
AcDbEntity
  8
DRAFT
100
AcDbLine
 62
250
  6
CONTINUOUS
 10
44.7
 20
23.4824032588
 11
44.7
 21
23.5770839634
  0
LINE
  5
2E2
100
AcDbEntity
  8
RACCORDO
100
AcDbLine
 62
250
  6
CONTINUOUS
 10
44.8
 20
-21.6179467008
 11
44.8
 21
-23.2179897685
  0
LINE
  5
2E3
100
AcDbEntity
  8
RACCORDO
100
AcDbLine
 62
250
  6
CONTINUOUS
 10
44.8
 20
23.5820532992
 11
44.8
 21
25.1820963669
  0
LINE
  5
2E4
100
AcDbEntity
  8
0
100
AcDbLine
 62
7
  6
CONTINUOUS
 10
45.1
 20
-21.3179467008
 11
45.1
 21
23.2820532992
  0
LINE
  5
2E5
100
AcDbEntity
  8
DRAFT
100
AcDbLine
 62
7
  6
CONTINUOUS
 10
45.0002120291
 20
23.1820532992
 11
45.0002120291
 21
-21.2179467008
  0
LINE
  5
2E6
100
AcDbEntity
  8
RACCORDO
100
AcDbLine
 62
250
  6
CONTINUOUS
 10
44.8000000001
 20
-23.2179877452
 11
44.7846188342
 21
-24.7893553331
  0
LWPOLYLINE
  5
2E7
100
AcDbEntity
  8
DRAFT
100
AcDbPolyline
 62
7
  6
CONTINUOUS
 90
9
 70
0
 10
45.0002120291
 20
-21.2179467008
 10
44.9993399571
 20
-21.2408865649
 10
44.9967202771
 20
-21.2636768779
 10
44.992371962
 20
-21.2861850489
 10
44.9863270875
 20
-21.3082703866
 10
44.978622857
 20
-21.3298160243
 10
44.9692936355
 20
-21.3507269935
 10
44.9583849821
 20
-21.3708895673
 10
44.9459610909
 20
-21.3901746483
  0
LWPOLYLINE
  5
2E8
100
AcDbEntity
  8
DRAFT
100
AcDbPolyline
 62
7
  6
CONTINUOUS
 90
7
 70
0
 10
44.8809384217
 20
-21.4576210325
 10
44.8614754252
 20
-21.4711531425
 10
44.8414860399
 20
-21.4828509458
 10
44.8211530072
 20
-21.4927533181
 10
44.8006607492
 20
-21.500909105
 10
44.7801503727
 20
-21.5073931258
 10
44.7597158148
 20
-21.5122931198
  0
LWPOLYLINE
  5
2E9
100
AcDbEntity
  8
RACCORDO
100
AcDbPolyline
 62
250
  6
CONTINUOUS
 90
19
 70
0
 10
-68.2930622383
 20
39.8753294772
 10
-68.4512676748
 20
39.8635021756
 10
-68.6085531018
 20
39.8382858777
 10
-68.7635449724
 20
39.7997936208
 10
-68.9151123127
 20
39.7482869407
 10
-69.0621365291
 20
39.6841570495
 10
-69.2034080026
 20
39.6078681605
 10
-69.337841258
 20
39.5199714465
 10
-69.4645654045
 20
39.4211118974
 10
-69.5827025564
 20
39.3119344197
 10
-69.6913677232
 20
39.1930934658
 10
-69.7897437892
 20
39.0654995468
 10
-69.8770834088
 20
38.9302088989
 10
-69.9527281234
 20
38.7881858538
 10
-70.0161203422
 20
38.640442945
 10
-70.0668436633
 20
38.4881869792
 10
-70.1045544668
 20
38.3325485922
 10
-70.1289597195
 20
38.1745923168
 10
-70.1399630149
 20
38.0156147836
  0
LWPOLYLINE
  5
2EA
100
AcDbEntity
  8
RACCORDO
100
AcDbPolyline
 62
250
  6
CONTINUOUS
 90
3
 70
0
 10
-67.5648982297
 20
39.9069961188
 10
-67.7061472708
 20
39.8987457665
 10
-67.7812310304
 20
39.8949113432
  0
LWPOLYLINE
  5
2EB
100
AcDbEntity
  8
RACCORDO
100
AcDbPolyline
 62
250
  6
CONTINUOUS
 90
19
 70
0
 10
-68.25
 20
40.7517159537
 10
-68.4908630868
 20
40.7415446202
 10
-68.7300873793
 20
40.7104005897
 10
-68.9658430042
 20
40.6584811988
 10
-69.1963721606
 20
40.5861222927
 10
-69.4198459057
 20
40.493852126
 10
-69.6343987267
 20
40.3824317163
 10
-69.8383032636
 20
40.2527819815
 10
-70.030104149
 20
40.105849711
 10
-70.2084588965
 20
39.9426479394
 10
-70.3720477681
 20
39.7643185876
 10
-70.5195114906
 20
39.5722678156
 10
-70.6496173274
 20
39.3680717696
 10
-70.7613706582
 20
39.1533008168
 10
-70.8539182929
 20
38.9295992165
 10
-70.9265129522
 20
38.6988134879
 10
-70.9786266916
 20
38.4627684912
 10
-71.0099181106
 20
38.2232365785
 10
-71.0201889283
 20
37.9820532992
  0
LINE
  5
2EC
100
AcDbEntity
  8
RACCORDO
100
AcDbLine
 62
250
  6
CONTINUOUS
 10
-67.7812310304
 20
39.8949113432
 11
-67.9412519639
 21
39.887952685
  0
LWPOLYLINE
  5
2ED
100
AcDbEntity
  8
RACCORDO
100
AcDbPolyline
 62
250
  6
CONTINUOUS
 90
3
 70
0
 10
-67.9412519639
 20
39.887952685
 10
-68.2012260985
 20
39.8783693071
 10
-68.2930627774
 20
39.8753310079
  0
LWPOLYLINE
  5
2EE
100
AcDbEntity
  8
RACCORDO
100
AcDbPolyline
 62
250
  6
CONTINUOUS
 90
4
 70
0
 10
-67.3771832318
 20
39.9141819327
 10
-67.4371033169
 20
39.9127905581
 10
-67.4992430175
 20
39.910427573
 10
-67.5648982297
 20
39.9069961188
  0
LINE
  5
2EF
100
AcDbEntity
  8
RACCORDO
100
AcDbLine
 62
250
  6
CONTINUOUS
 10
-66.624145193
 20
39.9251348623
 11
-67.3771832318
 21
39.9141819327
  0
LINE
  5
2F0
100
AcDbEntity
  8
RACCORDO
100
AcDbLine
 62
250
  6
CONTINUOUS
 10
-58.2833742805
 20
40.0621595742
 11
-66.624145193
 21
39.9251348623
  0
LINE
  5
2F1
100
AcDbEntity
  8
RACCORDO
100
AcDbLine
 62
250
  6
CONTINUOUS
 10
-55.7498264169
 20
40.086984622
 11
-57.2174985745
 21
40.0694825403
  0
LINE
  5
2F2
100
AcDbEntity
  8
RACCORDO
100
AcDbLine
 62
250
  6
CONTINUOUS
 10
-57.8640892306
 20
40.0656628031
 11
-58.2833742805
 21
40.0621595742
  0
LINE
  5
2F3
100
AcDbEntity
  8
RACCORDO
100
AcDbLine
 62
250
  6
CONTINUOUS
 10
-55.2014823166
 20
40.0909005787
 11
-55.7498264169
 21
40.086984622
  0
LWPOLYLINE
  5
2F4
100
AcDbEntity
  8
RACCORDO
100
AcDbPolyline
 62
250
  6
CONTINUOUS
 90
3
 70
0
 10
-57.2174985745
 20
40.0694825403
 10
-57.6036828962
 20
40.0668110161
 10
-57.8640892306
 20
40.0656628031
  0
LINE
  5
2F5
100
AcDbEntity
  8
RACCORDO
100
AcDbLine
 62
250
  6
CONTINUOUS
 10
68.25
 20
40.7517159537
 11
52.8776255694
 21
40.7426158485
  0
LINE
  5
2F6
100
AcDbEntity
  8
0
100
AcDbLine
 62
7
  6
CONTINUOUS
 10
68.2499999999
 20
40.9820532992
 11
-68.2499999999
 21
40.9820532992
  0
LINE
  5
2F7
100
AcDbEntity
  8
RACCORDO
100
AcDbLine
 62
250
  6
CONTINUOUS
 10
52.8776255694
 20
40.7426158485
 11
-56.0771321906
 21
40.742659033
  0
LINE
  5
2F8
100
AcDbEntity
  8
RACCORDO
100
AcDbLine
 62
250
  6
CONTINUOUS
 10
34.25
 20
40.0789926012
 11
-36.3765935632
 21
40.0806005955
  0
LINE
  5
2F9
100
AcDbEntity
  8
RACCORDO
100
AcDbLine
 62
250
  6
CONTINUOUS
 10
-36.3765935632
 20
40.0806005955
 11
-55.2014823166
 21
40.0909005787
  0
LINE
  5
2FA
100
AcDbEntity
  8
RACCORDO
100
AcDbLine
 62
250
  6
CONTINUOUS
 10
-56.0771321906
 20
40.742659033
 11
-68.1605970549
 21
40.7515179029
  0
LINE
  5
2FB
100
AcDbEntity
  8
RACCORDO
100
AcDbLine
 62
250
  6
CONTINUOUS
 10
-68.1605970549
 20
40.7515179029
 11
-68.25
 21
40.7517159537
  0
LINE
  5
2FC
100
AcDbEntity
  8
RACCORDO
100
AcDbLine
 62
250
  6
CONTINUOUS
 10
55.3377840798
 20
40.0902620013
 11
34.25
 21
40.0789925542
  0
LINE
  5
2FD
100
AcDbEntity
  8
RACCORDO
100
AcDbLine
 62
250
  6
CONTINUOUS
 10
58.0932285773
 20
40.0640742584
 11
57.3070884658
 21
40.0685214272
  0
LINE
  5
2FE
100
AcDbEntity
  8
RACCORDO
100
AcDbLine
 62
250
  6
CONTINUOUS
 10
56.1931700589
 20
40.0824799049
 11
55.3377840798
 21
40.0902620013
  0
LINE
  5
2FF
100
AcDbEntity
  8
RACCORDO
100
AcDbLine
 62
250
  6
CONTINUOUS
 10
57.3070884658
 20
40.0685214272
 11
56.1931700589
 21
40.0824799049
  0
LINE
  5
300
100
AcDbEntity
  8
RACCORDO
100
AcDbLine
 62
250
  6
CONTINUOUS
 10
58.7069467191
 20
40.056620129
 11
58.0932285773
 21
40.0640742584
  0
LINE
  5
301
100
AcDbEntity
  8
RACCORDO
100
AcDbLine
 62
250
  6
CONTINUOUS
 10
67.3291180726
 20
39.9150898057
 11
67.0027594354
 21
39.919423241
  0
LINE
  5
302
100
AcDbEntity
  8
RACCORDO
100
AcDbLine
 62
250
  6
CONTINUOUS
 10
67.0027594354
 20
39.919423241
 11
62.5486948144
 21
39.9921267259
  0
LINE
  5
303
100
AcDbEntity
  8
RACCORDO
100
AcDbLine
 62
250
  6
CONTINUOUS
 10
62.5486948144
 20
39.9921267259
 11
58.7069467191
 21
40.056620129
  0
LINE
  5
304
100
AcDbEntity
  8
RACCORDO
100
AcDbLine
 62
250
  6
CONTINUOUS
 10
68.2930627689
 20
39.8753309828
 11
68.1075131273
 21
39.8816248407
  0
LWPOLYLINE
  5
305
100
AcDbEntity
  8
RACCORDO
100
AcDbPolyline
 62
250
  6
CONTINUOUS
 90
6
 70
0
 10
68.1075131273
 20
39.8816248407
 10
67.9363282798
 20
39.888123327
 10
67.8561199307
 20
39.8914625227
 10
67.7792670122
 20
39.8950242417
 10
67.7059481922
 20
39.8988736081
 10
67.5689477887
 20
39.9067095853
  0
LWPOLYLINE
  5
306
100
AcDbEntity
  8
RACCORDO
100
AcDbPolyline
 62
250
  6
CONTINUOUS
 90
5
 70
0
 10
67.5689477887
 20
39.9067095853
 10
67.5051356803
 20
39.9099359369
 10
67.4445816924
 20
39.9123318665
 10
67.3859694657
 20
39.9140085389
 10
67.3291180726
 20
39.9150898057
  0
LINE
  5
307
100
AcDbEntity
  8
DRAFT
100
AcDbLine
 62
7
  6
CONTINUOUS
 10
44.8614704426
 20
23.4352629206
 11
44.8809384217
 21
23.4217276309
  0
LWPOLYLINE
  5
308
100
AcDbEntity
  8
DRAFT
100
AcDbPolyline
 62
7
  6
CONTINUOUS
 90
6
 70
0
 10
44.8809384217
 20
23.4217276309
 10
44.8871787738
 20
23.4168824712
 10
44.8932894985
 20
23.4118747704
 10
44.8992663604
 20
23.4067079939
 10
44.9051052134
 20
23.4013857162
 10
44.9108020133
 20
23.3959116221
  0
LINE
  5
309
100
AcDbEntity
  8
RACCORDO
100
AcDbLine
 62
250
  6
CONTINUOUS
 10
48.3556125198
 20
23.2612219589
 11
48.3679123394
 21
20.4636268954
  0
LINE
  5
30A
100
AcDbEntity
  8
RACCORDO
100
AcDbLine
 62
250
  6
CONTINUOUS
 10
48.3679123394
 20
20.4636268954
 11
48.3749635537
 21
-3.6836065008
  0
LINE
  5
30B
100
AcDbEntity
  8
RACCORDO
100
AcDbLine
 62
250
  6
CONTINUOUS
 10
48.3749635537
 20
-3.6836065008
 11
48.3679146902
 21
-18.4983893316
  0
LINE
  5
30C
100
AcDbEntity
  8
RACCORDO
100
AcDbLine
 62
250
  6
CONTINUOUS
 10
46.6876717102
 20
23.2820532992
 11
46.6876717102
 21
-21.3179467008
  0
LINE
  5
30D
100
AcDbEntity
  8
RACCORDO
100
AcDbLine
 62
250
  6
CONTINUOUS
 10
48.3679146902
 20
-18.4983893316
 11
48.3556124764
 21
-21.2971153505
  0
LWPOLYLINE
  5
30E
100
AcDbEntity
  8
RACCORDO
100
AcDbPolyline
 62
250
  6
CONTINUOUS
 90
76
 70
0
 10
46.6876717102
 20
-21.3179467008
 10
46.6864457504
 20
-21.3949597982
 10
46.6822321827
 20
-21.4693031061
 10
46.6753409205
 20
-21.5408715251
 10
46.6661022222
 20
-21.6093767802
 10
46.6547965188
 20
-21.6749663715
 10
46.6415806724
 20
-21.7382106803
 10
46.62660469
 20
-21.7992463619
 10
46.6101252105
 20
-21.8578703157
 10
46.5923761988
 20
-21.9141559764
 10
46.5735599351
 20
-21.968108399
 10
46.5538360328
 20
-22.0197314275
 10
46.5333492962
 20
-22.0691115792
 10
46.5122984592
 20
-22.1161903473
 10
46.4907958246
 20
-22.1610760722
 10
46.4688155395
 20
-22.2041001902
 10
46.4464467219
 20
-22.2453261074
 10
46.4238203389
 20
-22.2847402929
 10
46.4009290916
 20
-22.32254438
 10
46.3778317528
 20
-22.3588075289
 10
46.3546385259
 20
-22.3935127506
 10
46.3313984549
 20
-22.4267264528
 10
46.3081817915
 20
-22.4584828606
 10
46.2850625945
 20
-22.488808318
 10
46.2620866456
 20
-22.5177564183
 10
46.2393180494
 20
-22.5453574434
 10
46.2168148908
 20
-22.5716460612
 10
46.1946064635
 20
-22.5966809472
 10
46.1727619652
 20
-22.6204759979
 10
46.1513143348
 20
-22.6430829448
 10
46.1302289188
 20
-22.6646122813
 10
46.1095811084
 20
-22.6850586473
 10
46.0893752523
 20
-22.7044862619
 10
46.0694549246
 20
-22.7230977326
 10
46.049851929
 20
-22.7409083272
 10
46.0305869926
 20
-22.7579438132
 10
46.0114695315
 20
-22.7744056832
 10
45.9924632152
 20
-22.7903516959
 10
45.9736347687
 20
-22.805746746
 10
45.9549380651
 20
-22.8206423121
 10
45.936414058
 20
-22.8350290504
 10
45.9180476811
 20
-22.8489368455
 10
45.8997029846
 20
-22.8624685285
 10
45.8814278927
 20
-22.8755991883
 10
45.8631915415
 20
-22.88836441
 10
45.8447295594
 20
-22.9009431887
 10
45.8260843972
 20
-22.913305295
 10
45.8072173862
 20
-22.9254731004
 10
45.7877273426
 20
-22.9376809308
 10
45.7675982222
 20
-22.9499078127
 10
45.7468325167
 20
-22.9621356353
 10
45.7250392574
 20
-22.9745734396
 10
45.7020856077
 20
-22.9872455643
 10
45.6780722986
 20
-23.0000491293
 10
45.6529482497
 20
-23.012983546
 10
45.6267129472
 20
-23.0260034643
 10
45.5993353185
 20
-23.0390642183
 10
45.5707154525
 20
-23.052157543
 10
45.5408818654
 20
-23.0652083299
 10
45.5097754669
 20
-23.078180873
 10
45.4771591476
 20
-23.0911064444
 10
45.4429868527
 20
-23.1039199855
 10
45.4072702741
 20
-23.1165311887
 10
45.3698529438
 20
-23.1289078037
 10
45.3305598951
 20
-23.1410042769
 10
45.2895366399
 20
-23.1526633746
 10
45.2471151346
 20
-23.1636929203
 10
45.2034238525
 20
-23.1739978525
 10
45.1583399772
 20
-23.1835071299
 10
45.1118338082
 20
-23.1920806419
 10
45.0640593324
 20
-23.1995973458
 10
45.0148990849
 20
-23.2059937349
 10
44.9639246875
 20
-23.2111745175
 10
44.911014871
 20
-23.2149986002
 10
44.8563580398
 20
-23.2173187697
 10
44.8
 20
-23.2179897685
  0
LWPOLYLINE
  5
30F
100
AcDbEntity
  8
RACCORDO
100
AcDbPolyline
 62
250
  6
CONTINUOUS
 90
76
 70
0
 10
48.3556125377
 20
-21.2971153641
 10
48.3513479752
 20
-21.4445431229
 10
48.3412303525
 20
-21.5868523632
 10
48.3258106185
 20
-21.7240589435
 10
48.3054750345
 20
-21.8559966274
 10
48.2809137942
 20
-21.9826758843
 10
48.2531603922
 20
-22.1040203376
 10
48.2230144915
 20
-22.2195147464
 10
48.190896307
 20
-22.3288230286
 10
48.1570403899
 20
-22.4327389429
 10
48.1218943075
 20
-22.5317847641
 10
48.0855759441
 20
-22.6263023593
 10
48.0477398113
 20
-22.7166203959
 10
48.0085162792
 20
-22.8026289948
 10
47.96832666
 20
-22.884503813
 10
47.9271959458
 20
-22.9628916079
 10
47.8853034403
 20
-23.0379119822
 10
47.8428825828
 20
-23.1095093023
 10
47.7999555484
 20
-23.1780527032
 10
47.7566318976
 20
-23.2436633589
 10
47.7131128472
 20
-23.3063110363
 10
47.6695204298
 20
-23.3661311477
 10
47.62598703
 20
-23.4231838814
 10
47.5826465523
 20
-23.4775170495
 10
47.5396033884
 20
-23.5292514082
 10
47.4969717829
 20
-23.5784462878
 10
47.4548544983
 20
-23.6251676382
 10
47.4133236574
 20
-23.6695447987
 10
47.3725044052
 20
-23.7116069829
 10
47.332452392
 20
-23.7514483665
 10
47.2931168791
 20
-23.7892883473
 10
47.2546340337
 20
-23.8251250831
 10
47.2170052713
 20
-23.8590731951
 10
47.1799502842
 20
-23.8915050533
 10
47.1435371337
 20
-23.9224436198
 10
47.1077862089
 20
-23.9519461623
 10
47.07231286
 20
-23.9804071521
 10
47.0370710206
 20
-24.0078792269
 10
47.0021339321
 20
-24.0343740033
 10
46.9671709278
 20
-24.0602740539
 10
46.9320349627
 20
-24.0857122111
 10
46.8966038444
 20
-24.1107881166
 10
46.860666537
 20
-24.1357270436
 10
46.8243676132
 20
-24.1604103374
 10
46.7877491867
 20
-24.1847900069
 10
46.7504186154
 20
-24.2091790156
 10
46.7123911211
 20
-24.233562078
 10
46.6736213299
 20
-24.2579151876
 10
46.6336545537
 20
-24.2824736727
 10
46.5926459034
 20
-24.3072476569
 10
46.55074778
 20
-24.331933788
 10
46.5075781062
 20
-24.3562273432
 10
46.4632576828
 20
-24.3797960575
 10
46.4181644905
 20
-24.4026452152
 10
46.3719855453
 20
-24.4251183123
 10
46.3243754072
 20
-24.4474034288
 10
46.2748109743
 20
-24.469631038
 10
46.2227713763
 20
-24.491970579
 10
46.1683430105
 20
-24.5142713558
 10
46.1116615037
 20
-24.5363431173
 10
46.0523957797
 20
-24.5581859512
 10
45.9904439745
 20
-24.5796958624
 10
45.9257817796
 20
-24.6007415663
 10
45.8581813995
 20
-24.621254718
 10
45.7875746876
 20
-24.6409626585
 10
45.7142018838
 20
-24.6597556097
 10
45.6379871667
 20
-24.6778626598
 10
45.558339113
 20
-24.6951319407
 10
45.4744846992
 20
-24.7115871733
 10
45.3863257733
 20
-24.727619052
 10
45.2945234762
 20
-24.743289128
 10
45.1995042915
 20
-24.7577434132
 10
45.1010618647
 20
-24.7699244485
 10
44.9990232512
 20
-24.7793132015
 10
44.893523723
 20
-24.7858872568
 10
44.7846188534
 20
-24.7893556203
  0
LINE
  5
310
100
AcDbEntity
  8
DRAFT
100
AcDbLine
 62
7
  6
CONTINUOUS
 10
44.9459610909
 20
-21.3901746483
 11
44.9320913445
 21
-21.408467803
  0
LWPOLYLINE
  5
311
100
AcDbEntity
  8
DRAFT
100
AcDbPolyline
 62
7
  6
CONTINUOUS
 90
4
 70
0
 10
44.9320913445
 20
-21.408467803
 10
44.9270011819
 20
-21.4145102522
 10
44.9217537966
 20
-21.420416647
 10
44.9163528264
 20
-21.4261828989
  0
LWPOLYLINE
  5
312
100
AcDbEntity
  8
DRAFT
100
AcDbPolyline
 62
7
  6
CONTINUOUS
 90
7
 70
0
 10
44.9163528264
 20
-21.4261828989
 10
44.9108020193
 20
-21.4318050178
 10
44.9051052195
 20
-21.4372791121
 10
44.8992663661
 20
-21.4426013905
 10
44.893289503
 20
-21.4477681683
 10
44.8871787764
 20
-21.4527758707
 10
44.8809384217
 20
-21.4576210325
  0
LWPOLYLINE
  5
313
100
AcDbEntity
  8
DRAFT
100
AcDbPolyline
 62
7
  6
CONTINUOUS
 90
5
 70
0
 10
44.9108020133
 20
23.3959116221
 10
44.9163528212
 20
23.3902895027
 10
44.9217537926
 20
23.3845232497
 10
44.9270011797
 20
23.3786168531
 10
44.9320913445
 20
23.3725744013
  0
LWPOLYLINE
  5
314
100
AcDbEntity
  8
DRAFT
100
AcDbPolyline
 62
7
  6
CONTINUOUS
 90
7
 70
0
 10
44.9320913445
 20
23.3725744013
 10
44.9459479932
 20
23.3542999627
 10
44.95836604
 20
23.3350281851
 10
44.9692745942
 20
23.3148722331
 10
44.9786091638
 20
23.2939567515
 10
44.9863204786
 20
23.2723979544
 10
44.9923697355
 20
23.2503011979
  0
LWPOLYLINE
  5
315
100
AcDbEntity
  8
DRAFT
100
AcDbPolyline
 62
7
  6
CONTINUOUS
 90
3
 70
0
 10
44.9923697355
 20
23.2503011979
 10
44.9967196791
 20
23.2277873614
 10
44.9993399065
 20
23.2049938233
  0
LWPOLYLINE
  5
316
100
AcDbEntity
  8
0
100
AcDbPolyline
 62
7
  6
CONTINUOUS
 90
7
 70
0
 43
0.3500000006
 10
0.4285714127
 20
54.7453621674
 10
-1.0714285848
 20
54.7453621674
 10
0.4285714127
 20
56.8882206116
 10
0.4285714127
 20
57.3167895813
 10
0.0
 20
57.745358551
 10
-0.6428571367
 20
57.745358551
 10
-1.0714285848
 20
57.1025050964
  0
LWPOLYLINE
  5
317
100
AcDbEntity
  8
0
100
AcDbPolyline
 62
7
  6
CONTINUOUS
 90
8
 70
0
 43
0.3500000006
 10
3.0000000658
 20
54.7453621674
 10
3.8571428204
 20
54.7453621674
 10
4.2857143393
 20
55.1739311371
 10
4.2857143393
 20
56.0310736084
 10
3.8571428204
 20
56.4596425781
 10
3.0000000658
 20
56.4596425781
 10
3.0000000658
 20
57.745358551
 10
4.2857143393
 20
57.745358551
  0
LWPOLYLINE
  5
318
100
AcDbEntity
  8
0
100
AcDbPolyline
 62
7
  6
CONTINUOUS
 90
3
 70
0
 43
0.3500000006
 10
-1.9285714102
 20
55.3882201538
 10
-3.4285713015
 20
55.3882201538
 10
-2.7857141647
 20
57.745358551
  0
LINE
  5
319
100
AcDbEntity
  8
RACCORDO
100
AcDbLine
 62
250
  6
CONTINUOUS
 10
68.25
 20
-38.7876093553
 11
68.25
 21
-39.0179467008
  0
LINE
  5
31A
100
AcDbEntity
  8
RACCORDO
100
AcDbLine
 62
250
  6
CONTINUOUS
 10
68.25
 20
40.7517159537
 11
68.25
 21
40.9820532992
  0
LWPOLYLINE
  5
31B
100
AcDbEntity
  8
RACCORDO
100
AcDbPolyline
 62
250
  6
CONTINUOUS
 90
13
 70
0
 10
68.2930622383
 20
-37.9112228788
 10
68.291887752
 20
-38.0255819345
 10
68.2901472027
 20
-38.1367421924
 10
68.2878640936
 20
-38.2432012398
 10
68.2850692644
 20
-38.3435202042
 10
68.2818004749
 20
-38.4363432011
 10
68.2781018941
 20
-38.5204156594
 10
68.2740235022
 20
-38.5946012779
 10
68.2696204171
 20
-38.6578973833
 10
68.2649521489
 20
-38.7094484824
 10
68.2600817926
 20
-38.7485578238
 10
68.2550751753
 20
-38.7746968162
 10
68.2499999674
 20
-38.7875121716
  0
LINE
  5
31C
100
AcDbEntity
  8
RACCORDO
100
AcDbLine
 62
7
  6
CONTINUOUS
 10
71.2272164043
 20
4.6881240952
 11
71.1679680371
 21
4.5392874984
  0
LINE
  5
31D
100
AcDbEntity
  8
RACCORDO
100
AcDbLine
 62
7
  6
CONTINUOUS
 10
71.1679680371
 20
-2.5751809
 11
71.2272164043
 21
-2.7240174968
  0
LWPOLYLINE
  5
31E
100
AcDbEntity
  8
RACCORDO
100
AcDbPolyline
 62
250
  6
CONTINUOUS
 90
19
 70
0
 10
70.1399630151
 20
38.0156147836
 10
70.1289596797
 20
38.174592516
 10
70.1045543829
 20
38.3325490123
 10
70.0668435455
 20
38.4881874735
 10
70.0161201962
 20
38.6404434039
 10
69.9527279486
 20
38.7881862355
 10
69.8770832014
 20
38.9302092261
 10
69.7897435482
 20
39.065499854
 10
69.6913674537
 20
39.1930937681
 10
69.5827022699
 20
39.3119347132
 10
69.4645651115
 20
39.4211121681
 10
69.3378409516
 20
39.5199716869
 10
69.2034076568
 20
39.6078683717
 10
69.0621361041
 20
39.6841572368
 10
68.9151118148
 20
39.7482871043
 10
68.7635444806
 20
39.7997937535
 10
68.6085527617
 20
39.8382859612
 10
68.4512675802
 20
39.8635021987
 10
68.293062238
 20
39.8753294766
  0
LINE
  5
31F
100
AcDbEntity
  8
RACCORDO
100
AcDbLine
 62
250
  6
CONTINUOUS
 10
70.162804881
 20
37.3513708663
 11
70.1592601925
 21
37.4302183494
  0
LWPOLYLINE
  5
320
100
AcDbEntity
  8
RACCORDO
100
AcDbPolyline
 62
250
  6
CONTINUOUS
 90
19
 70
0
 10
71.0201889283
 20
37.9820532992
 10
71.009918111
 20
38.2232365785
 10
70.9786266922
 20
38.4627684911
 10
70.9265129528
 20
38.6988134879
 10
70.8539182933
 20
38.9295992165
 10
70.7613706583
 20
39.1533008168
 10
70.6496173272
 20
39.3680717695
 10
70.5195114904
 20
39.5722678155
 10
70.372047768
 20
39.7643185876
 10
70.2084588965
 20
39.9426479394
 10
70.0301041491
 20
40.1058497111
 10
69.8383032637
 20
40.2527819816
 10
69.6343987267
 20
40.3824317164
 10
69.4198459057
 20
40.4938521259
 10
69.1963721606
 20
40.5861222923
 10
68.9658430042
 20
40.6584811983
 10
68.7300873793
 20
40.7104005892
 10
68.4908630869
 20
40.7415446199
 10
68.25
 20
40.7517159537
  0
LINE
  5
321
100
AcDbEntity
  8
RACCORDO
100
AcDbLine
 62
250
  6
CONTINUOUS
 10
70.1592601925
 20
37.4302183494
 11
70.1527218414
 21
37.6007494527
  0
LINE
  5
322
100
AcDbEntity
  8
RACCORDO
100
AcDbLine
 62
250
  6
CONTINUOUS
 10
70.1527218414
 20
37.6007494527
 11
70.1462461603
 21
37.7960997114
  0
LINE
  5
323
100
AcDbEntity
  8
RACCORDO
100
AcDbLine
 62
250
  6
CONTINUOUS
 10
70.1462461603
 20
37.7960997114
 11
70.1399643999
 21
38.0156151759
  0
LWPOLYLINE
  5
324
100
AcDbEntity
  8
RACCORDO
100
AcDbPolyline
 62
250
  6
CONTINUOUS
 90
13
 70
0
 10
68.2930627689
 20
39.8753309828
 10
68.2918891768
 20
39.9896999504
 10
68.2901492758
 20
40.1008706244
 10
68.2878665923
 20
40.2073403167
 10
68.2850719894
 20
40.307669882
 10
68.2818032498
 20
40.4005031708
 10
68.2781045652
 20
40.4845853604
 10
68.2740259382
 20
40.5587799162
 10
68.2696225083
 20
40.6220839543
 10
68.264953807
 20
40.6736417972
 10
68.2600829501
 20
40.7127565403
 10
68.2550757843
 20
40.7388994715
 10
68.25
 20
40.7517172182
  0
LWPOLYLINE
  5
325
100
AcDbEntity
  8
RACCORDO
100
AcDbPolyline
 62
250
  6
CONTINUOUS
 90
8
 70
0
 10
70.2689775978
 20
16.0510060096
 10
70.1682281668
 20
37.1197464727
 10
70.1682344225
 20
37.1586870847
 10
70.1678946468
 20
37.1972805826
 10
70.167023631
 20
37.2356144438
 10
70.1658077358
 20
37.2738592264
 10
70.1644069094
 20
37.3125135562
 10
70.162804881
 20
37.3513708663
  0
LINE
  5
326
100
AcDbEntity
  8
RACCORDO
100
AcDbLine
 62
250
  6
CONTINUOUS
 10
71.0201889283
 20
-36.0179467008
 11
71.0148270428
 21
7.9539324962
  0
LINE
  5
327
100
AcDbEntity
  8
RACCORDO
100
AcDbLine
 62
7
  6
CONTINUOUS
 10
71.1451844414
 20
4.0435650677
 11
71.1451844414
 21
-2.0794584693
  0
LINE
  5
328
100
AcDbEntity
  8
RACCORDO
100
AcDbLine
 62
7
  6
CONTINUOUS
 10
71.25
 20
-36.0179467008
 11
71.25
 21
-3.2197399275
  0
LINE
  5
329
100
AcDbEntity
  8
RACCORDO
100
AcDbLine
 62
7
  6
CONTINUOUS
 10
71.25
 20
5.1838465259
 11
71.25
 21
37.9820532992
  0
LINE
  5
32A
100
AcDbEntity
  8
RACCORDO
100
AcDbLine
 62
250
  6
CONTINUOUS
 10
71.0148270428
 20
7.9539324962
 11
71.0194147472
 21
37.3412646089
  0
LINE
  5
32B
100
AcDbEntity
  8
RACCORDO
100
AcDbLine
 62
250
  6
CONTINUOUS
 10
71.0194147472
 20
37.3412646089
 11
71.0201889283
 21
37.9820532992
  0
LINE
  5
32C
100
AcDbEntity
  8
RACCORDO
100
AcDbLine
 62
250
  6
CONTINUOUS
 10
70.2414399645
 20
-22.8961279821
 11
70.2689775978
 21
16.0510060096
  0
LINE
  5
32D
100
AcDbEntity
  8
RACCORDO
100
AcDbLine
 62
250
  6
CONTINUOUS
 10
70.1686392453
 20
-35.1226183966
 11
70.1693708104
 21
-34.940812732
  0
LINE
  5
32E
100
AcDbEntity
  8
RACCORDO
100
AcDbLine
 62
250
  6
CONTINUOUS
 10
70.1693708104
 20
-34.940812732
 11
70.2414399645
 21
-22.8961279821
  0
LINE
  5
32F
100
AcDbEntity
  8
RACCORDO
100
AcDbLine
 62
250
  6
CONTINUOUS
 10
70.1399643963
 20
-36.0515085766
 11
70.149553088
 21
-35.7265618123
  0
LWPOLYLINE
  5
330
100
AcDbEntity
  8
RACCORDO
100
AcDbPolyline
 62
250
  6
CONTINUOUS
 90
5
 70
0
 10
70.1634059113
 20
-35.3701768595
 10
70.1655073406
 20
-35.3060931803
 10
70.167071211
 20
-35.2442448086
 10
70.1681123562
 20
-35.1831472419
 10
70.1686392453
 20
-35.1226183966
  0
LINE
  5
331
100
AcDbEntity
  8
RACCORDO
100
AcDbLine
 62
250
  6
CONTINUOUS
 10
70.149553088
 20
-35.7265618123
 11
70.1549207389
 21
-35.57659325
  0
LINE
  5
332
100
AcDbEntity
  8
RACCORDO
100
AcDbLine
 62
250
  6
CONTINUOUS
 10
70.1549207389
 20
-35.57659325
 11
70.1634059113
 21
-35.3701768595
  0
LWPOLYLINE
  5
333
100
AcDbEntity
  8
0
100
AcDbPolyline
 62
7
  6
CONTINUOUS
 90
10
 70
0
 43
0.3500000006
 10
-102.6717797241
 20
54.7453621674
 10
-101.8146327209
 20
55.6025046387
 10
-101.6003482361
 20
56.4596425781
 10
-101.6003482361
 20
57.3167895813
 10
-102.0289262695
 20
57.745358551
 10
-102.6717797241
 20
57.745358551
 10
-103.1003486938
 20
57.3167895813
 10
-103.1003486938
 20
56.4596425781
 10
-102.6717797241
 20
56.0310736084
 10
-101.7432106018
 20
56.0310736084
  0
LINE
  5
334
100
AcDbEntity
  8
RACCORDO
100
AcDbLine
 62
7
  6
CONTINUOUS
 10
-101.9914768326
 20
-38.7784589794
 11
-97.4217788848
 21
-39.0179467008
  0
LINE
  5
335
100
AcDbEntity
  8
RACCORDO
100
AcDbLine
 62
7
  6
CONTINUOUS
 10
-101.8263112771
 20
-38.7870213242
 11
-101.8169619515
 21
-38.7876058992
  0
LINE
  5
336
100
AcDbEntity
  8
RACCORDO
100
AcDbLine
 62
250
  6
CONTINUOUS
 10
-101.9323090571
 20
-38.7746968162
 11
-101.8168721677
 21
-38.7875121716
  0
LINE
  5
337
100
AcDbEntity
  8
RACCORDO
100
AcDbLine
 62
250
  6
CONTINUOUS
 10
-102.7468974535
 20
-36.0515085766
 11
-102.6926688673
 21
-36.0492594566
  0
LINE
  5
338
100
AcDbEntity
  8
RACCORDO
100
AcDbLine
 62
250
  6
CONTINUOUS
 10
-102.6926688673
 20
-36.0492594566
 11
-101.8068353606
 21
-36.0179467008
  0
LINE
  5
339
100
AcDbEntity
  8
RACCORDO
100
AcDbLine
 62
250
  6
CONTINUOUS
 10
-101.806835357
 20
-36.0179467008
 11
-97.4217788848
 21
-36.0179467008
  0
LINE
  5
33A
100
AcDbEntity
  8
RACCORDO
100
AcDbLine
 62
250
  6
CONTINUOUS
 10
-106.0191751866
 20
-21.3130575147
 11
-105.8537732961
 21
-21.3082481588
  0
LINE
  5
33B
100
AcDbEntity
  8
RACCORDO
100
AcDbLine
 62
250
  6
CONTINUOUS
 10
-106.2308824563
 20
-21.317946701
 11
-106.0191751866
 21
-21.3130575147
  0
LINE
  5
33C
100
AcDbEntity
  8
RACCORDO
100
AcDbLine
 62
250
  6
CONTINUOUS
 10
-106.4217788848
 20
-21.3179467008
 11
-106.2308783602
 21
-21.3179467008
  0
LINE
  5
33D
100
AcDbEntity
  8
RACCORDO
100
AcDbLine
 62
7
  6
CONTINUOUS
 10
-106.1692898108
 20
25.2548477342
 11
-106.2235011661
 21
25.1797381698
  0
LINE
  5
33E
100
AcDbEntity
  8
RACCORDO
100
AcDbLine
 62
7
  6
CONTINUOUS
 10
-106.2217466374
 20
25.1820964083
 11
-106.2168776813
 21
25.1886060294
  0
LWPOLYLINE
  5
33F
100
AcDbEntity
  8
RACCORDO
100
AcDbPolyline
 62
250
  6
CONTINUOUS
 90
6
 70
0
 10
-105.8537732961
 20
-21.3082481588
 10
-105.7893770488
 20
-21.305899627
 10
-105.7375790194
 20
-21.303602213
 10
-105.6986066772
 20
-21.3013659205
 10
-105.6726311678
 20
-21.2992004917
 10
-105.6597665621
 20
-21.2971153641
  0
LWPOLYLINE
  5
340
100
AcDbEntity
  8
RACCORDO
100
AcDbPolyline
 62
250
  6
CONTINUOUS
 90
4
 70
0
 10
-105.9594935126
 20
25.5991527343
 10
-105.9261899899
 20
25.6652388037
 10
-105.8485979558
 20
25.8376232901
 10
-105.8368044301
 20
25.8748168029
  0
LINE
  5
341
100
AcDbEntity
  8
RACCORDO
100
AcDbLine
 62
7
  6
CONTINUOUS
 10
-106.1030415402
 20
25.3538095718
 11
-106.1692898108
 21
25.2548477342
  0
LWPOLYLINE
  5
342
100
AcDbEntity
  8
RACCORDO
100
AcDbPolyline
 62
7
  6
CONTINUOUS
 90
4
 70
0
 10
-106.2168776813
 20
25.1886060294
 10
-106.1131355227
 20
25.3368232734
 10
-106.0144860571
 20
25.4980842009
 10
-105.9594935126
 20
25.5991527343
  0
LINE
  5
343
100
AcDbEntity
  8
RACCORDO
100
AcDbLine
 62
7
  6
CONTINUOUS
 10
-106.2217438847
 20
-23.2179877452
 11
-106.2165436882
 21
-23.2249416426
  0
LINE
  5
344
100
AcDbEntity
  8
RACCORDO
100
AcDbLine
 62
7
  6
CONTINUOUS
 10
-106.2235017478
 20
-23.2156301287
 11
-106.1685146616
 21
-23.2918509381
  0
LWPOLYLINE
  5
345
100
AcDbEntity
  8
RACCORDO
100
AcDbPolyline
 62
7
  6
CONTINUOUS
 90
4
 70
0
 10
-106.2165436882
 20
-23.2249416426
 10
-106.11313362
 20
-23.3727151853
 10
-106.0144849911
 20
-23.5339766069
 10
-105.9734427517
 20
-23.6085178798
  0
LINE
  5
346
100
AcDbEntity
  8
RACCORDO
100
AcDbLine
 62
7
  6
CONTINUOUS
 10
-106.1685146616
 20
-23.2918509381
 11
-106.1019605476
 21
-23.3913903151
  0
LWPOLYLINE
  5
347
100
AcDbEntity
  8
RACCORDO
100
AcDbPolyline
 62
7
  6
CONTINUOUS
 90
4
 70
0
 10
-106.0459618298
 20
-23.4823983224
 10
-105.9989717788
 20
-23.5648536115
 10
-105.9604768384
 20
-23.637288143
 10
-105.9210957697
 20
-23.71676806
  0
LWPOLYLINE
  5
348
100
AcDbEntity
  8
RACCORDO
100
AcDbPolyline
 62
7
  6
CONTINUOUS
 90
11
 70
0
 10
-102.8769553102
 20
-38.1270010276
 10
-102.8507168542
 20
-38.1909893913
 10
-102.7930191563
 20
-38.3003229929
 10
-102.7223100958
 20
-38.4016539322
 10
-102.6396888504
 20
-38.4934470155
 10
-102.5464343068
 20
-38.5743165232
 10
-102.4439813042
 20
-38.6430492784
 10
-102.3338982498
 20
-38.6986200031
 10
-102.2178674552
 20
-38.7402033134
 10
-102.0976601958
 20
-38.76718703
 10
-101.99148967
 20
-38.7784586293
  0
LINE
  5
349
100
AcDbEntity
  8
RACCORDO
100
AcDbLine
 62
250
  6
CONTINUOUS
 10
-102.8772350038
 20
40.0902620013
 11
-102.8771305059
 21
40.0906266474
  0
LWPOLYLINE
  5
34A
100
AcDbEntity
  8
SUPERFICI
100
AcDbPolyline
 62
7
  6
CONTINUOUS
 90
4
 70
0
 10
-103.6112142498
 20
37.8880496477
 10
-103.6829537594
 20
37.6497647629
 10
-103.767749176
 20
37.3620965462
 10
-103.8626195155
 20
37.0321307058
  0
LINE
  5
34B
100
AcDbEntity
  8
SUPERFICI
100
AcDbLine
 62
7
  6
CONTINUOUS
 10
-103.4968544765
 20
38.2586917322
 11
-103.6112142498
 21
37.8880496477
  0
LINE
  5
34C
100
AcDbEntity
  8
SUPERFICI
100
AcDbLine
 62
7
  6
CONTINUOUS
 10
-103.4035627942
 20
38.5530355257
 11
-103.4968544765
 21
38.2586917322
  0
LINE
  5
34D
100
AcDbEntity
  8
SUPERFICI
100
AcDbLine
 62
7
  6
CONTINUOUS
 10
-103.3283018709
 20
38.7854848089
 11
-103.4035627942
 21
38.5530355257
  0
LINE
  5
34E
100
AcDbEntity
  8
RACCORDO
100
AcDbLine
 62
7
  6
CONTINUOUS
 10
-102.8771305059
 20
40.0906266474
 11
-102.8769897091
 21
40.0910522642
  0
LINE
  5
34F
100
AcDbEntity
  8
SUPERFICI
100
AcDbLine
 62
7
  6
CONTINUOUS
 10
-103.2400499736
 20
39.0525816693
 11
-103.3283018709
 21
38.7854848089
  0
LINE
  5
350
100
AcDbEntity
  8
SUPERFICI
100
AcDbLine
 62
7
  6
CONTINUOUS
 10
-103.1689821347
 20
39.2634977219
 11
-103.2400499736
 21
39.0525816693
  0
LINE
  5
351
100
AcDbEntity
  8
SUPERFICI
100
AcDbLine
 62
7
  6
CONTINUOUS
 10
-103.0938371466
 20
39.4825455262
 11
-103.1689821347
 21
39.2634977219
  0
LINE
  5
352
100
AcDbEntity
  8
SUPERFICI
100
AcDbLine
 62
7
  6
CONTINUOUS
 10
-103.0255702099
 20
39.6780362103
 11
-103.0938371466
 21
39.4825455262
  0
LINE
  5
353
100
AcDbEntity
  8
SUPERFICI
100
AcDbLine
 62
7
  6
CONTINUOUS
 10
-102.9695626891
 20
39.8359025733
 11
-103.0255702099
 21
39.6780362103
  0
LINE
  5
354
100
AcDbEntity
  8
SUPERFICI
100
AcDbLine
 62
7
  6
CONTINUOUS
 10
-102.9176781587
 20
39.9800012258
 11
-102.9695626891
 21
39.8359025733
  0
LINE
  5
355
100
AcDbEntity
  8
SUPERFICI
100
AcDbLine
 62
7
  6
CONTINUOUS
 10
-102.8772495806
 20
40.0902954138
 11
-102.9176781587
 21
39.9800012258
  0
LINE
  5
356
100
AcDbEntity
  8
RACCORDO
100
AcDbLine
 62
7
  6
CONTINUOUS
 10
-105.7977683659
 20
25.9797729598
 11
-105.8368044301
 21
25.8748168029
  0
LWPOLYLINE
  5
357
100
AcDbEntity
  8
RACCORDO
100
AcDbPolyline
 62
250
  6
CONTINUOUS
 90
6
 70
0
 10
-105.7977683659
 20
25.9797729598
 10
-105.7820180823
 20
26.0145530998
 10
-105.7267147665
 20
26.1953256225
 10
-105.6829076247
 20
26.3792229881
 10
-105.6507706204
 20
26.5655149173
 10
-105.6304313737
 20
26.7534616215
  0
LINE
  5
358
100
AcDbEntity
  8
RACCORDO
100
AcDbLine
 62
7
  6
CONTINUOUS
 10
-105.8367977191
 20
25.8748335377
 11
-105.8786174756
 21
25.7739397354
  0
LWPOLYLINE
  5
359
100
AcDbEntity
  8
RACCORDO
100
AcDbPolyline
 62
7
  6
CONTINUOUS
 90
5
 70
0
 10
-105.8785730965
 20
25.7740417243
 10
-105.9210957347
 20
25.6808747317
 10
-105.960476803
 20
25.6013948103
 10
-105.9989717447
 20
25.528960272
 10
-106.0443361106
 20
25.4492887281
  0
LWPOLYLINE
  5
35A
100
AcDbEntity
  8
RACCORDO
100
AcDbPolyline
 62
250
  6
CONTINUOUS
 90
4
 70
0
 10
-105.9734427517
 20
-23.6085178798
 10
-105.9261897423
 20
-23.7011316233
 10
-105.8485985038
 20
-23.8735164443
 10
-105.836804457
 20
-23.9107101361
  0
LWPOLYLINE
  5
35B
100
AcDbEntity
  8
RACCORDO
100
AcDbPolyline
 62
7
  6
CONTINUOUS
 90
11
 70
0
 10
-105.9210957697
 20
-23.71676806
 10
-105.878573128
 20
-23.8099350538
 10
-105.836804457
 20
-23.9107101361
 10
-105.7977683883
 20
-24.0156662978
 10
-105.7620911499
 20
-24.1239002825
 10
-105.7298041094
 20
-24.2362062026
 10
-105.7015117208
 20
-24.3514786607
 10
-105.6775304653
 20
-24.4692592685
 10
-105.6580289955
 20
-24.5897270635
 10
-105.6432657386
 20
-24.7126710048
 10
-105.6347180297
 20
-24.817533266
  0
LWPOLYLINE
  5
35C
100
AcDbEntity
  8
RACCORDO
100
AcDbPolyline
 62
250
  6
CONTINUOUS
 90
6
 70
0
 10
-105.7977683883
 20
-24.0156662978
 10
-105.7820193992
 20
-24.050446511
 10
-105.7267168214
 20
-24.2312192154
 10
-105.6829103835
 20
-24.4151166897
 10
-105.650774046
 20
-24.6014086573
 10
-105.6304354263
 20
-24.7893553331
  0
LINE
  5
35D
100
AcDbEntity
  8
SUPERFICI
100
AcDbLine
 62
7
  6
CONTINUOUS
 10
-102.917678161
 20
-38.0158946212
 11
-102.8772449536
 21
-38.1262013313
  0
LINE
  5
35E
100
AcDbEntity
  8
SUPERFICI
100
AcDbLine
 62
7
  6
CONTINUOUS
 10
-102.9954808414
 20
-37.7990188363
 11
-102.917678161
 21
-38.0158946212
  0
LINE
  5
35F
100
AcDbEntity
  8
SUPERFICI
100
AcDbLine
 62
7
  6
CONTINUOUS
 10
-103.0502064677
 20
-37.6437670713
 11
-102.9954808414
 21
-37.7990188363
  0
LINE
  5
360
100
AcDbEntity
  8
SUPERFICI
100
AcDbLine
 62
7
  6
CONTINUOUS
 10
-103.1107285369
 20
-37.4695533644
 11
-103.0502064677
 21
-37.6437670713
  0
LINE
  5
361
100
AcDbEntity
  8
SUPERFICI
100
AcDbLine
 62
7
  6
CONTINUOUS
 10
-103.1689821327
 20
-37.2993911295
 11
-103.1107285369
 21
-37.4695533644
  0
LINE
  5
362
100
AcDbEntity
  8
SUPERFICI
100
AcDbLine
 62
7
  6
CONTINUOUS
 10
-103.2400499707
 20
-37.0884750795
 11
-103.1689821327
 21
-37.2993911295
  0
LINE
  5
363
100
AcDbEntity
  8
RACCORDO
100
AcDbLine
 62
7
  6
CONTINUOUS
 10
-102.8769720531
 20
-38.1269557973
 11
-102.8771431335
 21
-38.126442019
  0
LINE
  5
364
100
AcDbEntity
  8
SUPERFICI
100
AcDbLine
 62
7
  6
CONTINUOUS
 10
-103.3283018669
 20
-36.8213782228
 11
-103.2400499707
 21
-37.0884750795
  0
LINE
  5
365
100
AcDbEntity
  8
SUPERFICI
100
AcDbLine
 62
7
  6
CONTINUOUS
 10
-103.4035627892
 20
-36.5889289432
 11
-103.3283018669
 21
-36.8213782228
  0
LINE
  5
366
100
AcDbEntity
  8
SUPERFICI
100
AcDbLine
 62
7
  6
CONTINUOUS
 10
-103.4968544699
 20
-36.2945851547
 11
-103.4035627892
 21
-36.5889289432
  0
LWPOLYLINE
  5
367
100
AcDbEntity
  8
SUPERFICI
100
AcDbPolyline
 62
7
  6
CONTINUOUS
 90
11
 70
0
 10
-104.8410664434
 20
32.8959706025
 10
-104.9240933348
 20
32.4516136986
 10
-105.0003294387
 20
32.0228884481
 10
-105.0701885276
 20
31.6099804915
 10
-105.1343303428
 20
31.2116628365
 10
-105.1931291084
 20
30.8280159266
 10
-105.2467589732
 20
30.460231592
 10
-105.2955382037
 20
30.1084044284
 10
-105.339766331
 20
29.7725830244
 10
-105.3797990873
 20
29.4524519827
 10
-105.4159928052
 20
29.1485091034
  0
LINE
  5
368
100
AcDbEntity
  8
SUPERFICI
100
AcDbLine
 62
7
  6
CONTINUOUS
 10
-104.7512633961
 20
33.3537152559
 11
-104.8410664244
 21
32.8959707016
  0
LWPOLYLINE
  5
369
100
AcDbEntity
  8
SUPERFICI
100
AcDbPolyline
 62
7
  6
CONTINUOUS
 90
5
 70
0
 10
-104.3237497624
 20
35.2811128359
 10
-104.4385276576
 20
34.7982483791
 10
-104.5501237801
 20
34.3063829883
 10
-104.6546976767
 20
33.8226687813
 10
-104.7512634154
 20
33.3537151597
  0
LINE
  5
36A
100
AcDbEntity
  8
SUPERFICI
100
AcDbLine
 62
7
  6
CONTINUOUS
 10
-104.2042446119
 20
35.7618260224
 11
-104.3237497624
 21
35.2811128359
  0
LWPOLYLINE
  5
36B
100
AcDbEntity
  8
SUPERFICI
100
AcDbPolyline
 62
7
  6
CONTINUOUS
 90
4
 70
0
 10
-103.8626195155
 20
37.0321307058
 10
-103.9665147944
 20
36.6602774058
 10
-104.0818261625
 20
36.2333738022
 10
-104.2042446119
 20
35.7618260224
  0
LINE
  5
36C
100
AcDbEntity
  8
RACCORDO
100
AcDbLine
 62
7
  6
CONTINUOUS
 10
-105.7620524366
 20
26.0881315724
 11
-105.7977372948
 21
25.9798610288
  0
LWPOLYLINE
  5
36D
100
AcDbEntity
  8
0
100
AcDbPolyline
 62
7
  6
CONTINUOUS
 90
13
 70
0
 43
0.3500000006
 10
-116.8860684814
 20
-0.9465178757
 10
-117.1003529663
 20
-1.2322335434
 10
-117.7432064209
 20
-1.2322335434
 10
-118.1717753906
 20
-0.9465178757
 10
-118.1717753906
 20
-0.3036598892
 10
-117.7432064209
 20
-0.0179464874
 10
-117.1003529663
 20
-0.0179464874
 10
-116.8860684814
 20
-0.3036598892
 10
-116.457490448
 20
0.1249113464
 10
-115.6003525085
 20
0.1249113464
 10
-115.1717744751
 20
-0.3036598892
 10
-115.1717744751
 20
-0.9465178757
 10
-115.6003525085
 20
-1.3750891113
  0
LWPOLYLINE
  5
36E
100
AcDbEntity
  8
RACCORDO
100
AcDbPolyline
 62
250
  6
CONTINUOUS
 90
46
 70
0
 10
-102.8771431335
 20
-38.126442019
 10
-102.8774370863
 20
-38.1253497996
 10
-102.8777177295
 20
-38.1239404447
 10
-102.8778998853
 20
-38.1223918365
 10
-102.877947686
 20
-38.1207922513
 10
-102.8778813721
 20
-38.1191413131
 10
-102.8777251394
 20
-38.1174392168
 10
-102.8774897495
 20
-38.115707854
 10
-102.8771801725
 20
-38.1139396364
 10
-102.8767983001
 20
-38.1121547377
 10
-102.8763646304
 20
-38.1103211142
 10
-102.8758700087
 20
-38.1084506602
 10
-102.8753011579
 20
-38.1065975499
 10
-102.8746030363
 20
-38.1049699291
 10
-102.8737612358
 20
-38.1037359815
 10
-102.8728134566
 20
-38.1029935672
 10
-102.8718633383
 20
-38.1025789783
 10
-102.870982142
 20
-38.1021842835
 10
-102.8702246883
 20
-38.1015747892
 10
-102.8695893172
 20
-38.1006682437
 10
-102.8690247084
 20
-38.0994559051
 10
-102.8684880152
 20
-38.0979336695
 10
-102.8679398783
 20
-38.0961010654
 10
-102.8673321919
 20
-38.0940083944
 10
-102.8666195749
 20
-38.0917336523
 10
-102.8657700266
 20
-38.0893405811
 10
-102.8647837331
 20
-38.0868117544
 10
-102.8636669934
 20
-38.0841023696
 10
-102.8624192592
 20
-38.0812076149
 10
-102.8610402975
 20
-38.0781571656
 10
-102.8595222972
 20
-38.0749651756
 10
-102.8578639272
 20
-38.0716343361
 10
-102.8560777927
 20
-38.068186585
 10
-102.8541660212
 20
-38.0646191202
 10
-102.8521337471
 20
-38.0609407097
 10
-102.8500044402
 20
-38.0571919318
 10
-102.8477803434
 20
-38.0533738142
 10
-102.8454723222
 20
-38.049501875
 10
-102.8431219664
 20
-38.0456404962
 10
-102.840736821
 20
-38.0417948713
 10
-102.8383282158
 20
-38.0379726743
 10
-102.8359465323
 20
-38.0342443593
 10
-102.8336079293
 20
-38.0306290473
 10
-102.8313113652
 20
-38.0271270682
 10
-102.8290820215
 20
-38.0237750071
 10
-102.8269346676
 20
-38.0205844223
  0
LWPOLYLINE
  5
36F
100
AcDbEntity
  8
SUPERFICI
100
AcDbPolyline
 62
7
  6
CONTINUOUS
 90
8
 70
0
 10
-104.2042445934
 20
-33.7977194969
 10
-104.0818261449
 20
-34.2692672703
 10
-103.9665147781
 20
-34.6961708669
 10
-103.8626195011
 20
-35.0680241582
 10
-103.767749164
 20
-35.3979899889
 10
-103.6829537495
 20
-35.6856581975
 10
-103.6112142414
 20
-35.9239430771
 10
-103.4968544699
 20
-36.2945851547
  0
LINE
  5
370
100
AcDbEntity
  8
SUPERFICI
100
AcDbLine
 62
7
  6
CONTINUOUS
 10
-104.3237497433
 20
-33.3170063164
 11
-104.2042445934
 21
-33.7977194969
  0
LWPOLYLINE
  5
371
100
AcDbEntity
  8
SUPERFICI
100
AcDbPolyline
 62
7
  6
CONTINUOUS
 90
3
 70
0
 10
-105.4768507762
 20
-26.6387206477
 10
-105.4480530576
 20
-26.9028221815
 10
-105.4159927927
 20
-27.1844026126
  0
LINE
  5
372
100
AcDbEntity
  8
SUPERFICI
100
AcDbLine
 62
7
  6
CONTINUOUS
 10
-105.578288504
 20
27.5442447548
 11
-105.5998289636
 21
27.2767026347
  0
LINE
  5
373
100
AcDbEntity
  8
RACCORDO
100
AcDbLine
 62
7
  6
CONTINUOUS
 10
-105.6347180297
 20
26.7816398643
 11
-105.6432642448
 21
26.6767959236
  0
LINE
  5
374
100
AcDbEntity
  8
SUPERFICI
100
AcDbLine
 62
7
  6
CONTINUOUS
 10
-105.5553430605
 20
27.8076301764
 11
-105.578288494
 21
27.544244874
  0
LWPOLYLINE
  5
375
100
AcDbEntity
  8
SUPERFICI
100
AcDbPolyline
 62
7
  6
CONTINUOUS
 90
4
 70
0
 10
-105.4768507875
 20
28.6028271401
 10
-105.504133764
 20
28.3407598177
 10
-105.5305140755
 20
28.0739166025
 10
-105.5553430709
 20
27.8076300609
  0
LWPOLYLINE
  5
376
100
AcDbEntity
  8
SUPERFICI
100
AcDbPolyline
 62
7
  6
CONTINUOUS
 90
3
 70
0
 10
-105.4159928052
 20
29.1485091034
 10
-105.4480530695
 20
28.8669286736
 10
-105.4768507875
 20
28.6028271401
  0
LWPOLYLINE
  5
377
100
AcDbEntity
  8
RACCORDO
100
AcDbPolyline
 62
7
  6
CONTINUOUS
 90
6
 70
0
 10
-105.6432657363
 20
26.6767776266
 10
-105.6580289911
 20
26.5538336928
 10
-105.6775304583
 20
26.433365905
 10
-105.7015117107
 20
26.315585304
 10
-105.7298040956
 20
26.2003128528
 10
-105.7620911319
 20
26.0880069391
  0
LWPOLYLINE
  5
378
100
AcDbEntity
  8
RACCORDO
100
AcDbPolyline
 62
250
  6
CONTINUOUS
 90
13
 70
0
 10
-102.7561083736
 20
39.8753309828
 10
-102.7352434663
 20
39.9896999504
 10
-102.7012576443
 20
40.1008706244
 10
-102.6546102917
 20
40.2073403167
 10
-102.5959319381
 20
40.307669882
 10
-102.5260157351
 20
40.4005031708
 10
-102.4458067362
 20
40.4845853604
 10
-102.3563891219
 20
40.5587799162
 10
-102.2589715448
 20
40.6220839543
 10
-102.1548707929
 20
40.6736417972
 10
-102.04549399
 20
40.7127565403
 10
-101.9323195765
 20
40.7388994715
 10
-101.8168773246
 20
40.7517172182
  0
LWPOLYLINE
  5
379
100
AcDbEntity
  8
RACCORDO
100
AcDbPolyline
 62
250
  6
CONTINUOUS
 90
12
 70
0
 10
-102.7560961669
 20
-37.9112228788
 10
-102.7352250402
 20
-38.0255819345
 10
-102.7012343925
 20
-38.1367421924
 10
-102.6545836337
 20
-38.2432012398
 10
-102.5959032836
 20
-38.3435202042
 10
-102.525986451
 20
-38.4363432011
 10
-102.4457781138
 20
-38.5204156594
 10
-102.356362347
 20
-38.5946012779
 10
-102.2589476706
 20
-38.6578973833
 10
-102.1548507155
 20
-38.7094484824
 10
-102.0454784287
 20
-38.7485578238
 10
-101.9323090571
 20
-38.7746968162
  0
LWPOLYLINE
  5
37A
100
AcDbEntity
  8
SUPERFICI
100
AcDbPolyline
 62
7
  6
CONTINUOUS
 90
16
 70
0
 10
-105.4159927927
 20
-27.1844026126
 10
-105.379799074
 20
-27.4883454933
 10
-105.3397663168
 20
-27.8084765365
 10
-105.2955381887
 20
-28.144297941
 10
-105.2467589575
 20
-28.4961251041
 10
-105.1931290921
 20
-28.8639094374
 10
-105.1343303259
 20
-29.2475563457
 10
-105.0701885101
 20
-29.645873999
 10
-105.0003294207
 20
-30.0587819537
 10
-104.9240933163
 20
-30.4875072019
 10
-104.8410664244
 20
-30.9318641033
 10
-104.7512633961
 20
-31.3896086576
 10
-104.6546976572
 20
-31.8585622757
 10
-104.5501237605
 20
-32.3422764786
 10
-104.438527638
 20
-32.8341418649
 10
-104.3237497433
 20
-33.3170063164
  0
LINE
  5
37B
100
AcDbEntity
  8
RACCORDO
100
AcDbLine
 62
7
  6
CONTINUOUS
 10
-105.6347125787
 20
-24.8176186099
 11
-105.6346774626
 21
-24.8180897388
  0
LWPOLYLINE
  5
37C
100
AcDbEntity
  8
SUPERFICI
100
AcDbPolyline
 62
7
  6
CONTINUOUS
 90
7
 70
0
 10
-105.6196986365
 20
-25.0422500892
 10
-105.5998289543
 20
-25.3125961567
 10
-105.578288494
 20
-25.5801382756
 10
-105.5553430605
 20
-25.8435235781
 10
-105.5305140649
 20
-26.1098101146
 10
-105.5041337531
 20
-26.3766533262
 10
-105.4768507762
 20
-26.6387206477
  0
LINE
  5
37D
100
AcDbEntity
  8
SUPERFICI
100
AcDbLine
 62
7
  6
CONTINUOUS
 10
-105.6346488432
 20
-24.8184645172
 11
-105.6196986449
 21
-25.0422499691
  0
LINE
  5
37E
100
AcDbEntity
  8
RACCORDO
100
AcDbLine
 62
250
  6
CONTINUOUS
 10
-105.6324474284
 20
-24.7115871733
 11
-105.6304948474
 21
-24.7577434132
  0
LWPOLYLINE
  5
37F
100
AcDbEntity
  8
RACCORDO
100
AcDbPolyline
 62
250
  6
CONTINUOUS
 90
5
 70
0
 10
-105.6304948474
 20
-24.7577434132
 10
-105.6301338049
 20
-24.7699244485
 10
-105.6300223491
 20
-24.7793132015
 10
-105.6301248465
 20
-24.7858872568
 10
-105.6304391834
 20
-24.7893556203
  0
LWPOLYLINE
  5
380
100
AcDbEntity
  8
RACCORDO
100
AcDbPolyline
 62
250
  6
CONTINUOUS
 90
4
 70
0
 10
-105.6344690285
 20
-24.6409626585
 10
-105.6340584167
 20
-24.6597556097
 10
-105.6335667264
 20
-24.6778626598
 10
-105.6324474284
 20
-24.7115871733
  0
LINE
  5
381
100
AcDbEntity
  8
RACCORDO
100
AcDbLine
 62
250
  6
CONTINUOUS
 10
-105.6445157584
 20
-23.9519461623
 11
-105.6385696147
 21
-24.2091790156
  0
LWPOLYLINE
  5
382
100
AcDbEntity
  8
RACCORDO
100
AcDbPolyline
 62
250
  6
CONTINUOUS
 90
6
 70
0
 10
-106.2224313765
 20
-23.1636929203
 10
-106.2216005737
 20
-23.2059937349
 10
-106.2215453483
 20
-23.2111745175
 10
-106.221555748
 20
-23.2149986002
 10
-106.2216228344
 20
-23.2173187697
 10
-106.2217465822
 20
-23.2179897685
  0
LINE
  5
383
100
AcDbEntity
  8
RACCORDO
100
AcDbLine
 62
250
  6
CONTINUOUS
 10
-105.6480913825
 20
-23.7514483665
 11
-105.6445157584
 21
-23.9519461623
  0
LINE
  5
384
100
AcDbEntity
  8
RACCORDO
100
AcDbLine
 62
250
  6
CONTINUOUS
 10
-105.6385696147
 20
-24.2091790156
 11
-105.6372736059
 21
-24.2824736727
  0
LINE
  5
385
100
AcDbEntity
  8
RACCORDO
100
AcDbLine
 62
250
  6
CONTINUOUS
 10
-105.6350993281
 20
-24.6007415663
 11
-105.6344690285
 21
-24.6409626585
  0
LINE
  5
386
100
AcDbEntity
  8
RACCORDO
100
AcDbLine
 62
250
  6
CONTINUOUS
 10
-106.2228996751
 20
-23.1289078037
 11
-106.2224313765
 21
-23.1636929203
  0
LINE
  5
387
100
AcDbEntity
  8
RACCORDO
100
AcDbLine
 62
250
  6
CONTINUOUS
 10
-105.6516149848
 20
-23.4775170495
 11
-105.6480913825
 21
-23.7514483665
  0
LINE
  5
388
100
AcDbEntity
  8
RACCORDO
100
AcDbLine
 62
250
  6
CONTINUOUS
 10
-106.2268745831
 20
-22.6850586473
 11
-106.2240163959
 21
-22.9254731004
  0
LINE
  5
389
100
AcDbEntity
  8
RACCORDO
100
AcDbLine
 62
250
  6
CONTINUOUS
 10
-105.6372736059
 20
-24.2824736727
 11
-105.6367071081
 21
-24.331933788
  0
LWPOLYLINE
  5
38A
100
AcDbEntity
  8
RACCORDO
100
AcDbPolyline
 62
250
  6
CONTINUOUS
 90
4
 70
0
 10
-105.6347109064
 20
26.7817435158
 10
-105.6346715707
 20
26.7775433839
 10
-105.6334524673
 20
26.7681712202
 10
-105.6304333485
 20
26.7534617726
  0
LINE
  5
38B
100
AcDbEntity
  8
RACCORDO
100
AcDbLine
 62
250
  6
CONTINUOUS
 10
-105.6359236751
 20
-24.5142713558
 11
-105.6350993281
 21
-24.6007415663
  0
LINE
  5
38C
100
AcDbEntity
  8
RACCORDO
100
AcDbLine
 62
250
  6
CONTINUOUS
 10
-105.6546652417
 20
-23.1095093023
 11
-105.6516149848
 21
-23.4775170495
  0
LINE
  5
38D
100
AcDbEntity
  8
RACCORDO
100
AcDbLine
 62
250
  6
CONTINUOUS
 10
-106.2233879572
 20
-23.0652083299
 11
-106.2228996751
 21
-23.1289078037
  0
LINE
  5
38E
100
AcDbEntity
  8
RACCORDO
100
AcDbLine
 62
250
  6
CONTINUOUS
 10
-106.2287035849
 20
-22.4267264528
 11
-106.2268745831
 21
-22.6850586473
  0
LINE
  5
38F
100
AcDbEntity
  8
RACCORDO
100
AcDbLine
 62
250
  6
CONTINUOUS
 10
-106.2240163959
 20
-22.9254731004
 11
-106.2237256326
 21
-22.9745734396
  0
LINE
  5
390
100
AcDbEntity
  8
RACCORDO
100
AcDbLine
 62
250
  6
CONTINUOUS
 10
-105.6367071081
 20
-24.331933788
 11
-105.6359236751
 21
-24.5142713558
  0
LINE
  5
391
100
AcDbEntity
  8
RACCORDO
100
AcDbLine
 62
250
  6
CONTINUOUS
 10
-106.2237256326
 20
-22.9745734396
 11
-106.2233879572
 21
-23.0652083299
  0
LINE
  5
392
100
AcDbEntity
  8
RACCORDO
100
AcDbLine
 62
250
  6
CONTINUOUS
 10
-105.6749076671
 20
-16.9567326602
 11
-105.6570836619
 21
-21.8559966274
  0
LINE
  5
393
100
AcDbEntity
  8
RACCORDO
100
AcDbLine
 62
250
  6
CONTINUOUS
 10
-105.6567964823
 20
-22.5317847641
 11
-105.6546652417
 21
-23.1095093023
  0
LINE
  5
394
100
AcDbEntity
  8
RACCORDO
100
AcDbLine
 62
250
  6
CONTINUOUS
 10
-106.229958806
 20
-21.9141559764
 11
-106.2287035849
 21
-22.4267264528
  0
LINE
  5
395
100
AcDbEntity
  8
0
100
AcDbLine
 62
7
  6
CONTINUOUS
 10
-106.4217788848
 20
-22.6179467008
 11
-106.4217788848
 21
24.5820532992
  0
LINE
  5
396
100
AcDbEntity
  8
RACCORDO
100
AcDbLine
 62
250
  6
CONTINUOUS
 10
-105.6570836619
 20
-21.8559966274
 11
-105.6567964823
 21
-22.5317847641
  0
LINE
  5
397
100
AcDbEntity
  8
RACCORDO
100
AcDbLine
 62
250
  6
CONTINUOUS
 10
-105.6906611525
 20
5.6492357117
 11
-105.6749076671
 21
-16.9567326602
  0
LINE
  5
398
100
AcDbEntity
  8
RACCORDO
100
AcDbLine
 62
250
  6
CONTINUOUS
 10
-105.6562279317
 20
24.7383142872
 11
-105.6575470127
 21
23.6751703579
  0
LINE
  5
399
100
AcDbEntity
  8
RACCORDO
100
AcDbLine
 62
250
  6
CONTINUOUS
 10
-106.2290839315
 20
24.3072279105
 11
-106.229958806
 21
-21.9141559764
  0
LINE
  5
39A
100
AcDbEntity
  8
RACCORDO
100
AcDbLine
 62
250
  6
CONTINUOUS
 10
-105.6636987549
 20
22.5983663819
 11
-105.6906611525
 21
5.6492357117
  0
LINE
  5
39B
100
AcDbEntity
  8
RACCORDO
100
AcDbLine
 62
250
  6
CONTINUOUS
 10
-106.2232695405
 20
25.0492080553
 11
-106.2238755646
 21
24.9072624256
  0
LINE
  5
39C
100
AcDbEntity
  8
RACCORDO
100
AcDbLine
 62
250
  6
CONTINUOUS
 10
-105.6575470127
 20
23.6751703579
 11
-105.6636987549
 21
22.5983663819
  0
LINE
  5
39D
100
AcDbEntity
  8
RACCORDO
100
AcDbLine
 62
250
  6
CONTINUOUS
 10
-105.6358345125
 20
26.4905060949
 11
-105.6366261391
 21
26.3086687378
  0
LINE
  5
39E
100
AcDbEntity
  8
RACCORDO
100
AcDbLine
 62
250
  6
CONTINUOUS
 10
-105.6534683881
 20
25.2418596423
 11
-105.6562279317
 21
24.7383142872
  0
LINE
  5
39F
100
AcDbEntity
  8
RACCORDO
100
AcDbLine
 62
250
  6
CONTINUOUS
 10
-106.2271591055
 20
24.6182680039
 11
-106.2290839315
 21
24.3072279105
  0
LINE
  5
3A0
100
AcDbEntity
  8
RACCORDO
100
AcDbLine
 62
250
  6
CONTINUOUS
 10
-106.2228403033
 20
25.0984126842
 11
-106.2232695405
 21
25.0492080553
  0
LINE
  5
3A1
100
AcDbEntity
  8
RACCORDO
100
AcDbLine
 62
250
  6
CONTINUOUS
 10
-105.6352285473
 20
26.5543197647
 11
-105.6358345125
 21
26.4905060949
  0
LINE
  5
3A2
100
AcDbEntity
  8
RACCORDO
100
AcDbLine
 62
250
  6
CONTINUOUS
 10
-105.6366261391
 20
26.3086687378
 11
-105.6371222253
 21
26.2576399407
  0
LINE
  5
3A3
100
AcDbEntity
  8
RACCORDO
100
AcDbLine
 62
250
  6
CONTINUOUS
 10
-106.2238755646
 20
24.9072624256
 11
-106.2243804167
 21
24.8554431145
  0
LINE
  5
3A4
100
AcDbEntity
  8
RACCORDO
100
AcDbLine
 62
250
  6
CONTINUOUS
 10
-105.6502136061
 20
25.5630035587
 11
-105.6534683881
 21
25.2418596423
  0
LINE
  5
3A5
100
AcDbEntity
  8
RACCORDO
100
AcDbLine
 62
250
  6
CONTINUOUS
 10
-106.2253338955
 20
24.7836886188
 11
-106.2271591055
 21
24.6182680039
  0
LINE
  5
3A6
100
AcDbEntity
  8
RACCORDO
100
AcDbLine
 62
250
  6
CONTINUOUS
 10
-106.2243804167
 20
24.8554431145
 11
-106.2253338955
 21
24.7836886188
  0
LINE
  5
3A7
100
AcDbEntity
  8
RACCORDO
100
AcDbLine
 62
250
  6
CONTINUOUS
 10
-105.6346599748
 20
26.5942200059
 11
-105.6352285473
 21
26.5543197647
  0
LINE
  5
3A8
100
AcDbEntity
  8
RACCORDO
100
AcDbLine
 62
250
  6
CONTINUOUS
 10
-106.2223733211
 20
25.1312058998
 11
-106.2228403033
 21
25.0984126842
  0
LINE
  5
3A9
100
AcDbEntity
  8
RACCORDO
100
AcDbLine
 62
250
  6
CONTINUOUS
 10
-105.6371222253
 20
26.2576399407
 11
-105.637928071
 21
26.2062954676
  0
LINE
  5
3AA
100
AcDbEntity
  8
RACCORDO
100
AcDbLine
 62
250
  6
CONTINUOUS
 10
-105.6465435925
 20
25.809337856
 11
-105.6502136061
 21
25.5630035587
  0
LINE
  5
3AB
100
AcDbEntity
  8
RACCORDO
100
AcDbLine
 62
250
  6
CONTINUOUS
 10
-106.2215909653
 20
25.1706144989
 11
-106.2218208438
 21
25.157505293
  0
LINE
  5
3AC
100
AcDbEntity
  8
RACCORDO
100
AcDbLine
 62
250
  6
CONTINUOUS
 10
-105.6434200635
 20
25.9669999121
 11
-105.6465435925
 21
25.809337856
  0
LINE
  5
3AD
100
AcDbEntity
  8
RACCORDO
100
AcDbLine
 62
250
  6
CONTINUOUS
 10
-106.2218208438
 20
25.157505293
 11
-106.2223733211
 21
25.1312058998
  0
LINE
  5
3AE
100
AcDbEntity
  8
RACCORDO
100
AcDbLine
 62
250
  6
CONTINUOUS
 10
-105.637928071
 20
26.2062954676
 11
-105.6395452488
 21
26.1287504165
  0
LINE
  5
3AF
100
AcDbEntity
  8
RACCORDO
100
AcDbLine
 62
250
  6
CONTINUOUS
 10
-105.6395452488
 20
26.1287504165
 11
-105.6434200635
 21
25.9669999121
  0
LWPOLYLINE
  5
3B0
100
AcDbEntity
  8
RACCORDO
100
AcDbPolyline
 62
250
  6
CONTINUOUS
 90
5
 70
0
 10
-105.6322718194
 20
26.6794825997
 10
-105.6328821552
 20
26.6638593657
 10
-105.6334266705
 20
26.6475061251
 10
-105.6339032793
 20
26.6304652279
 10
-105.6346599748
 20
26.5942200059
  0
LINE
  5
3B1
100
AcDbEntity
  8
SUPERFICI
100
AcDbLine
 62
7
  6
CONTINUOUS
 10
-105.6196986449
 20
27.0063565675
 11
-105.6346488432
 21
26.7825711155
  0
LINE
  5
3B2
100
AcDbEntity
  8
SUPERFICI
100
AcDbLine
 62
7
  6
CONTINUOUS
 10
-105.5998289543
 20
27.276702755
 11
-105.6196986365
 21
27.0063566876
  0
LINE
  5
3B3
100
AcDbEntity
  8
RACCORDO
100
AcDbLine
 62
7
  6
CONTINUOUS
 10
-105.6346772309
 20
26.7821971929
 11
-105.6347109064
 21
26.7817435158
  0
LWPOLYLINE
  5
3B4
100
AcDbEntity
  8
RACCORDO
100
AcDbPolyline
 62
250
  6
CONTINUOUS
 90
7
 70
0
 10
-105.6304313737
 20
26.7534616215
 10
-105.6301302518
 20
26.7500407742
 10
-105.6300402082
 20
26.7436408164
 10
-105.6301436462
 20
26.7345843602
 10
-105.6304557883
 20
26.7230015046
 10
-105.6309641531
 20
26.7094091181
 10
-105.6322718194
 20
26.6794825997
  0
LINE
  5
3B5
100
AcDbEntity
  8
RACCORDO
100
AcDbLine
 62
250
  6
CONTINUOUS
 10
-101.806835357
 20
-36.0179467008
 11
-101.8119222521
 21
-35.8563716862
  0
LINE
  5
3B6
100
AcDbEntity
  8
RACCORDO
100
AcDbLine
 62
250
  6
CONTINUOUS
 10
-102.742428612
 20
-36.2104857185
 11
-102.7515441459
 21
-35.884907648
  0
LINE
  5
3B7
100
AcDbEntity
  8
RACCORDO
100
AcDbLine
 62
250
  6
CONTINUOUS
 10
-101.8119222521
 20
-35.8563716862
 11
-101.8159739504
 21
-35.7031659081
  0
LINE
  5
3B8
100
AcDbEntity
  8
RACCORDO
100
AcDbLine
 62
250
  6
CONTINUOUS
 10
-102.7515441459
 20
-35.884907648
 11
-102.7550759553
 21
-35.7265618123
  0
LINE
  5
3B9
100
AcDbEntity
  8
RACCORDO
100
AcDbLine
 62
250
  6
CONTINUOUS
 10
-101.8159739504
 20
-35.7031659081
 11
-101.8190080082
 21
-35.5586811478
  0
LINE
  5
3BA
100
AcDbEntity
  8
RACCORDO
100
AcDbLine
 62
250
  6
CONTINUOUS
 10
-102.7357072758
 20
-36.5240803808
 11
-102.742428612
 21
-36.2104857185
  0
LINE
  5
3BB
100
AcDbEntity
  8
RACCORDO
100
AcDbLine
 62
250
  6
CONTINUOUS
 10
-101.7980744455
 20
-36.4986618928
 11
-101.806835357
 21
-36.0179467008
  0
LINE
  5
3BC
100
AcDbEntity
  8
RACCORDO
100
AcDbLine
 62
250
  6
CONTINUOUS
 10
-102.7550759553
 20
-35.7265618123
 11
-102.7574921029
 21
-35.57659325
  0
LINE
  5
3BD
100
AcDbEntity
  8
RACCORDO
100
AcDbLine
 62
250
  6
CONTINUOUS
 10
-101.8190080082
 20
-35.5586811478
 11
-101.821052072
 21
-35.4248854908
  0
LINE
  5
3BE
100
AcDbEntity
  8
RACCORDO
100
AcDbLine
 62
250
  6
CONTINUOUS
 10
-102.7314874768
 20
-36.8240792555
 11
-102.7357072758
 21
-36.5240803808
  0
LINE
  5
3BF
100
AcDbEntity
  8
RACCORDO
100
AcDbLine
 62
250
  6
CONTINUOUS
 10
-101.7920727834
 20
-36.9654926181
 11
-101.7980744455
 21
-36.4986618928
  0
LINE
  5
3C0
100
AcDbEntity
  8
RACCORDO
100
AcDbLine
 62
250
  6
CONTINUOUS
 10
-101.821052072
 20
-35.4248854908
 11
-101.8222967825
 21
-35.2986497546
  0
LINE
  5
3C1
100
AcDbEntity
  8
RACCORDO
100
AcDbLine
 62
250
  6
CONTINUOUS
 10
-102.7574921029
 20
-35.57659325
 11
-102.7588185298
 21
-35.4367637192
  0
LINE
  5
3C2
100
AcDbEntity
  8
RACCORDO
100
AcDbLine
 62
250
  6
CONTINUOUS
 10
-101.7887097967
 20
-37.4039651712
 11
-101.7920727834
 21
-36.9654926181
  0
LWPOLYLINE
  5
3C3
100
AcDbEntity
  8
RACCORDO
100
AcDbPolyline
 62
250
  6
CONTINUOUS
 90
10
 70
0
 10
-102.7293101505
 20
39.3119347132
 10
-102.7299790923
 20
39.4211121681
 10
-102.7311425452
 20
39.5199716869
 10
-102.7328196449
 20
39.6078683717
 10
-102.7350338952
 20
39.6841572368
 10
-102.7378324423
 20
39.7482871043
 10
-102.7412714508
 20
39.7997937535
 10
-102.7454076804
 20
39.8382859612
 10
-102.7503160837
 20
39.8635021987
 10
-102.7560961628
 20
39.8753294766
  0
LINE
  5
3C4
100
AcDbEntity
  8
RACCORDO
100
AcDbLine
 62
250
  6
CONTINUOUS
 10
-102.7294111092
 20
-37.1013929485
 11
-102.7314874768
 21
-36.8240792555
  0
LINE
  5
3C5
100
AcDbEntity
  8
RACCORDO
100
AcDbLine
 62
250
  6
CONTINUOUS
 10
-101.8222967825
 20
-35.2986497546
 11
-101.8951996933
 21
-20.9144042053
  0
LINE
  5
3C6
100
AcDbEntity
  8
RACCORDO
100
AcDbLine
 62
250
  6
CONTINUOUS
 10
-102.7588185298
 20
-35.4367637192
 11
-102.8151776713
 21
-20.9177365317
  0
LINE
  5
3C7
100
AcDbEntity
  8
RACCORDO
100
AcDbLine
 62
250
  6
CONTINUOUS
 10
-101.7875193812
 20
-37.8002119893
 11
-101.7887097967
 21
-37.4039651712
  0
LINE
  5
3C8
100
AcDbEntity
  8
RACCORDO
100
AcDbLine
 62
250
  6
CONTINUOUS
 10
-101.8951996933
 20
-20.9144042053
 11
-101.9080594332
 21
-15.553954791
  0
LINE
  5
3C9
100
AcDbEntity
  8
RACCORDO
100
AcDbLine
 62
250
  6
CONTINUOUS
 10
-101.7875193825
 20
39.7643185876
 11
-101.7884637639
 21
40.1058497111
  0
LINE
  5
3CA
100
AcDbEntity
  8
RACCORDO
100
AcDbLine
 62
250
  6
CONTINUOUS
 10
-102.8151776713
 20
-20.9177365317
 11
-102.824672852
 21
-14.4056307453
  0
LINE
  5
3CB
100
AcDbEntity
  8
RACCORDO
100
AcDbLine
 62
250
  6
CONTINUOUS
 10
-102.824672852
 20
-14.4056307453
 11
-102.8251190345
 21
15.4674119016
  0
LINE
  5
3CC
100
AcDbEntity
  8
RACCORDO
100
AcDbLine
 62
250
  6
CONTINUOUS
 10
-101.9080594332
 20
-15.553954791
 11
-101.90964335
 21
-6.9136616703
  0
LINE
  5
3CD
100
AcDbEntity
  8
RACCORDO
100
AcDbLine
 62
250
  6
CONTINUOUS
 10
-101.90964335
 20
-6.9136616703
 11
-101.910459873
 21
14.8678176905
  0
LINE
  5
3CE
100
AcDbEntity
  8
RACCORDO
100
AcDbLine
 62
250
  6
CONTINUOUS
 10
-102.7294111088
 20
39.065499854
 11
-102.7293101505
 21
39.3119347132
  0
LINE
  5
3CF
100
AcDbEntity
  8
RACCORDO
100
AcDbLine
 62
250
  6
CONTINUOUS
 10
-102.8251190345
 20
15.4674119016
 11
-102.8143234463
 21
23.2279220913
  0
LINE
  5
3D0
100
AcDbEntity
  8
RACCORDO
100
AcDbLine
 62
250
  6
CONTINUOUS
 10
-101.910459873
 20
14.8678176905
 11
-101.9018596341
 21
20.6807808432
  0
LINE
  5
3D1
100
AcDbEntity
  8
RACCORDO
100
AcDbLine
 62
250
  6
CONTINUOUS
 10
-102.8143234463
 20
23.2279220913
 11
-102.7700065388
 21
34.8817867195
  0
LINE
  5
3D2
100
AcDbEntity
  8
RACCORDO
100
AcDbLine
 62
250
  6
CONTINUOUS
 10
-101.7887098016
 20
39.3680717695
 11
-101.7875193825
 21
39.7643185876
  0
LINE
  5
3D3
100
AcDbEntity
  8
RACCORDO
100
AcDbLine
 62
250
  6
CONTINUOUS
 10
-101.9018596341
 20
20.6807808432
 11
-101.877817034
 21
26.9873185827
  0
LINE
  5
3D4
100
AcDbEntity
  8
RACCORDO
100
AcDbLine
 62
250
  6
CONTINUOUS
 10
-101.7920727759
 20
38.9295992165
 11
-101.7887098016
 21
39.3680717695
  0
LINE
  5
3D5
100
AcDbEntity
  8
RACCORDO
100
AcDbLine
 62
250
  6
CONTINUOUS
 10
-102.7700065388
 20
34.8817867195
 11
-102.7582889231
 21
37.4710063256
  0
LINE
  5
3D6
100
AcDbEntity
  8
RACCORDO
100
AcDbLine
 62
250
  6
CONTINUOUS
 10
-102.7314874724
 20
38.7881862355
 11
-102.7294111088
 21
39.065499854
  0
LINE
  5
3D7
100
AcDbEntity
  8
RACCORDO
100
AcDbLine
 62
250
  6
CONTINUOUS
 10
-101.877817034
 20
26.9873185827
 11
-101.821607612
 21
37.3412646089
  0
LINE
  5
3D8
100
AcDbEntity
  8
RACCORDO
100
AcDbLine
 62
250
  6
CONTINUOUS
 10
-101.7980744345
 20
38.4627684911
 11
-101.7920727759
 21
38.9295992165
  0
LINE
  5
3D9
100
AcDbEntity
  8
RACCORDO
100
AcDbLine
 62
250
  6
CONTINUOUS
 10
-102.7582889231
 20
37.4710063256
 11
-102.7566335625
 21
37.6007494527
  0
LINE
  5
3DA
100
AcDbEntity
  8
RACCORDO
100
AcDbLine
 62
250
  6
CONTINUOUS
 10
-101.821607612
 20
37.3412646089
 11
-101.8201376758
 21
37.4558430423
  0
LINE
  5
3DB
100
AcDbEntity
  8
RACCORDO
100
AcDbLine
 62
250
  6
CONTINUOUS
 10
-102.7357072659
 20
38.4881874735
 11
-102.7314874724
 21
38.7881862355
  0
LINE
  5
3DC
100
AcDbEntity
  8
RACCORDO
100
AcDbLine
 62
250
  6
CONTINUOUS
 10
-101.806835357
 20
37.9820532992
 11
-101.7980744345
 21
38.4627684911
  0
LINE
  5
3DD
100
AcDbEntity
  8
RACCORDO
100
AcDbLine
 62
250
  6
CONTINUOUS
 10
-101.8201376758
 20
37.4558430423
 11
-101.8178879474
 21
37.5805974474
  0
LINE
  5
3DE
100
AcDbEntity
  8
RACCORDO
100
AcDbLine
 62
250
  6
CONTINUOUS
 10
-102.7566335625
 20
37.6007494527
 11
-102.753967537
 21
37.7448382515
  0
LINE
  5
3DF
100
AcDbEntity
  8
RACCORDO
100
AcDbLine
 62
250
  6
CONTINUOUS
 10
-102.7424286086
 20
38.174592516
 11
-102.7357072659
 21
38.4881874735
  0
LINE
  5
3E0
100
AcDbEntity
  8
RACCORDO
100
AcDbLine
 62
250
  6
CONTINUOUS
 10
-101.8178879474
 20
37.5805974474
 11
-101.8146807701
 21
37.7196519402
  0
LINE
  5
3E1
100
AcDbEntity
  8
RACCORDO
100
AcDbLine
 62
250
  6
CONTINUOUS
 10
-102.753967537
 20
37.7448382515
 11
-102.7501433542
 21
37.9029577962
  0
LINE
  5
3E2
100
AcDbEntity
  8
RACCORDO
100
AcDbLine
 62
250
  6
CONTINUOUS
 10
-102.7501433542
 20
37.9029577962
 11
-102.7424286086
 21
38.174592516
  0
LINE
  5
3E3
100
AcDbEntity
  8
RACCORDO
100
AcDbLine
 62
250
  6
CONTINUOUS
 10
-101.8146807701
 20
37.7196519402
 11
-101.8103664557
 21
37.8727370007
  0
LINE
  5
3E4
100
AcDbEntity
  8
RACCORDO
100
AcDbLine
 62
250
  6
CONTINUOUS
 10
-101.8103664557
 20
37.8727370007
 11
-101.806835357
 21
37.9820532992
  0
LWPOLYLINE
  5
3E5
100
AcDbEntity
  8
0
100
AcDbPolyline
 62
7
  6
CONTINUOUS
 90
4
 70
0
 43
0.3500000006
 10
-115.6003525085
 20
-1.3750891113
 10
-116.457490448
 20
-1.3750891113
 10
-116.8860684814
 20
-0.9465178757
 10
-116.8860684814
 20
-0.3036598892
  0
LINE
  5
3E6
100
AcDbEntity
  8
RACCORDO
100
AcDbLine
 62
7
  6
CONTINUOUS
 10
-98.9870419809
 20
-2.5751809
 11
-97.8565157887
 21
-2.7240174968
  0
LWPOLYLINE
  5
3E7
100
AcDbEntity
  8
RACCORDO
100
AcDbPolyline
 62
250
  6
CONTINUOUS
 90
5
 70
0
 10
-106.2217465822
 20
25.1820963669
 10
-106.2216260876
 20
25.1814456231
 10
-106.2215587286
 20
25.1792090195
 10
-106.2215445291
 20
25.1755450621
 10
-106.2215909653
 20
25.1706144989
  0
LWPOLYLINE
  5
3E8
100
AcDbEntity
  8
RACCORDO
100
AcDbPolyline
 62
250
  6
CONTINUOUS
 90
9
 70
0
 10
-101.7884637639
 20
40.1058497111
 10
-101.7897237609
 20
40.2527819816
 10
-101.7915816716
 20
40.3824317164
 10
-101.7940042065
 20
40.4938521259
 10
-101.7970246552
 20
40.5861222923
 10
-101.8008058968
 20
40.6584811983
 10
-101.8054022243
 20
40.7104005892
 10
-101.8107593449
 20
40.7415446199
 10
-101.8168772583
 20
40.7517159537
  0
LINE
  5
3E9
100
AcDbEntity
  8
RACCORDO
100
AcDbLine
 62
7
  6
CONTINUOUS
 10
-99.4217788848
 20
4.0435650677
 11
-99.4217788848
 21
-2.0794584693
  0
LWPOLYLINE
  5
3EA
100
AcDbEntity
  8
RACCORDO
100
AcDbPolyline
 62
250
  6
CONTINUOUS
 90
6
 70
0
 10
-101.7970246488
 20
-38.6220156943
 10
-101.7940042053
 20
-38.5297455276
 10
-101.7915816741
 20
-38.4183251179
 10
-101.789723764
 20
-38.2886753831
 10
-101.7884637664
 20
-38.1417431126
 10
-101.7875193812
 20
-37.8002119893
  0
LWPOLYLINE
  5
3EB
100
AcDbEntity
  8
RACCORDO
100
AcDbPolyline
 62
250
  6
CONTINUOUS
 90
4
 70
0
 10
-105.6304354263
 20
-24.7893553331
 10
-105.6334643019
 20
-24.804067336
 10
-105.6346778872
 20
-24.8134544528
 10
-105.6347125787
 20
-24.8176186099
  0
LWPOLYLINE
  5
3EC
100
AcDbEntity
  8
RACCORDO
100
AcDbPolyline
 62
250
  6
CONTINUOUS
 90
3
 70
0
 10
-105.7256754499
 20
0.9813977484
 10
-105.7038866945
 20
0.981732085
 10
-105.6955895356
 20
0.9820532992
  0
LINE
  5
3ED
100
AcDbEntity
  8
RACCORDO
100
AcDbLine
 62
250
  6
CONTINUOUS
 10
-105.8707073737
 20
0.9803313368
 11
-105.7256754499
 21
0.9813977484
  0
LINE
  5
3EE
100
AcDbEntity
  8
RACCORDO
100
AcDbLine
 62
250
  6
CONTINUOUS
 10
-106.2402093764
 20
0.9788223163
 11
-105.8707073737
 21
0.9803313368
  0
LWPOLYLINE
  5
3EF
100
AcDbEntity
  8
0
100
AcDbPolyline
 62
7
  6
CONTINUOUS
 90
13
 70
0
 43
0.3500000006
 10
-116.0289214783
 20
0.9820538177
 10
-117.3146374512
 20
0.9820538177
 10
-117.7432064209
 20
1.1963383026
 10
-118.1717753906
 20
1.6249095383
 10
-118.1717753906
 20
1.8391962891
 10
-117.7432064209
 20
2.2677675247
 10
-117.3146374512
 20
2.4820542755
 10
-116.0289214783
 20
2.4820542755
 10
-115.6003525085
 20
2.2677675247
 10
-115.1717744751
 20
1.8391962891
 10
-115.1717744751
 20
1.6249095383
 10
-115.6003525085
 20
1.1963383026
 10
-116.0289214783
 20
0.9820538177
  0
LINE
  5
3F0
100
AcDbEntity
  8
RACCORDO
100
AcDbLine
 62
250
  6
CONTINUOUS
 10
-105.6955895403
 20
0.9820532992
 11
-101.9074595023
 21
0.9816563174
  0
LINE
  5
3F1
100
AcDbEntity
  8
0
100
AcDbLine
 62
7
  6
CONTINUOUS
 10
-97.4217788848
 20
40.9820532992
 11
-97.4217788848
 21
37.9820532992
  0
LINE
  5
3F2
100
AcDbEntity
  8
0
100
AcDbLine
 62
7
  6
CONTINUOUS
 10
-97.4217788848
 20
-39.0179467008
 11
-97.4217788848
 21
-36.0179467008
  0
LINE
  5
3F3
100
AcDbEntity
  8
RACCORDO
100
AcDbLine
 62
7
  6
CONTINUOUS
 10
-97.4217788848
 20
-36.0179467008
 11
-97.4217788848
 21
-3.2197399275
  0
LINE
  5
3F4
100
AcDbEntity
  8
RACCORDO
100
AcDbLine
 62
7
  6
CONTINUOUS
 10
-97.4217788848
 20
5.1838465259
 11
-97.4217788848
 21
37.9820532992
  0
LWPOLYLINE
  5
3F5
100
AcDbEntity
  8
RACCORDO
100
AcDbPolyline
 62
250
  6
CONTINUOUS
 90
5
 70
0
 10
-102.7754835602
 20
-37.9450166173
 10
-102.774892325
 20
-37.9417040833
 10
-102.7741013375
 20
-37.9379571238
 10
-102.7730591105
 20
-37.9340696248
 10
-102.7716944032
 20
-37.9303278192
  0
LINE
  5
3F6
100
AcDbEntity
  8
RACCORDO
100
AcDbLine
 62
7
  6
CONTINUOUS
 10
-97.8565157887
 20
4.6881240952
 11
-98.9870419809
 21
4.5392874984
  0
LWPOLYLINE
  5
3F7
100
AcDbEntity
  8
RACCORDO
100
AcDbPolyline
 62
250
  6
CONTINUOUS
 90
11
 70
0
 10
-102.7560961669
 20
-37.9112228788
 10
-102.7503160835
 20
-37.8993955772
 10
-102.7454076721
 20
-37.8741792793
 10
-102.741271438
 20
-37.8356870224
 10
-102.7378324302
 20
-37.7841803423
 10
-102.7350338868
 20
-37.7200504511
 10
-102.7328196403
 20
-37.6437615621
 10
-102.7311425426
 20
-37.5558648481
 10
-102.7299790908
 20
-37.457005299
 10
-102.7293101496
 20
-37.3478278213
 10
-102.7294111092
 20
-37.1013929485
  0
LWPOLYLINE
  5
3F8
100
AcDbEntity
  8
RACCORDO
100
AcDbPolyline
 62
250
  6
CONTINUOUS
 90
7
 70
0
 10
-102.7716944032
 20
-37.9303278192
 10
-102.7699666553
 20
-37.926854629
 10
-102.7678808104
 20
-37.9236044227
 10
-102.7654554585
 20
-37.920454337
 10
-102.7626979691
 20
-37.9173200951
 10
-102.7595901403
 20
-37.9142193054
 10
-102.756107872
 20
-37.9112243226
  0
LWPOLYLINE
  5
3F9
100
AcDbEntity
  8
RACCORDO
100
AcDbPolyline
 62
250
  6
CONTINUOUS
 90
5
 70
0
 10
-101.8168772583
 20
-38.7876093553
 10
-101.8107593395
 20
-38.7774380218
 10
-101.8054022159
 20
-38.7462939913
 10
-101.8008058876
 20
-38.6943746004
 10
-101.7970246488
 20
-38.6220156943
  0
LINE
  5
3FA
100
AcDbEntity
  8
RACCORDO
100
AcDbLine
 62
250
  6
CONTINUOUS
 10
-102.8248664387
 20
-38.0175334952
 11
-102.8191176338
 21
-38.0090984128
  0
LINE
  5
3FB
100
AcDbEntity
  8
RACCORDO
100
AcDbLine
 62
250
  6
CONTINUOUS
 10
-102.817337652
 20
-38.0065032083
 11
-102.8156174474
 21
-38.0040065823
  0
LINE
  5
3FC
100
AcDbEntity
  8
RACCORDO
100
AcDbLine
 62
250
  6
CONTINUOUS
 10
-102.8123499219
 20
-37.9992917745
 11
-102.8063981363
 21
-37.9907785068
  0
LWPOLYLINE
  5
3FD
100
AcDbEntity
  8
RACCORDO
100
AcDbPolyline
 62
250
  6
CONTINUOUS
 90
3
 70
0
 10
-102.7817697882
 20
-37.9567348116
 10
-102.7811664203
 20
-37.9558838697
 10
-102.7805724323
 20
-37.9550550536
  0
LWPOLYLINE
  5
3FE
100
AcDbEntity
  8
RACCORDO
100
AcDbPolyline
 62
250
  6
CONTINUOUS
 90
3
 70
0
 10
-102.8063981363
 20
-37.9907785068
 10
-102.8011603944
 20
-37.9833716794
 10
-102.799955939
 20
-37.9816805784
  0
LWPOLYLINE
  5
3FF
100
AcDbEntity
  8
RACCORDO
100
AcDbPolyline
 62
250
  6
CONTINUOUS
 90
3
 70
0
 10
-102.7965767867
 20
-37.976963965
 10
-102.7915975376
 20
-37.9700840006
 10
-102.7906850587
 20
-37.9688307931
  0
LINE
  5
400
100
AcDbEntity
  8
RACCORDO
100
AcDbLine
 62
250
  6
CONTINUOUS
 10
-102.7830120445
 20
-37.9584602443
 11
-102.7823841868
 21
-37.9575976692
  0
LWPOLYLINE
  5
401
100
AcDbEntity
  8
RACCORDO
100
AcDbPolyline
 62
250
  6
CONTINUOUS
 90
4
 70
0
 10
-102.7872933332
 20
-37.9641898249
 10
-102.7865133075
 20
-37.9631317276
 10
-102.7857594529
 20
-37.9621203962
 10
-102.7850343559
 20
-37.9611567981
  0
LINE
  5
402
100
AcDbEntity
  8
RACCORDO
100
AcDbLine
 62
250
  6
CONTINUOUS
 10
-102.8153157613
 20
39.9676767494
 11
-102.820247983
 21
39.9748573627
  0
LINE
  5
403
100
AcDbEntity
  8
RACCORDO
100
AcDbLine
 62
250
  6
CONTINUOUS
 10
-102.820247983
 20
39.9748573627
 11
-102.825735616
 21
39.9829210171
  0
LWPOLYLINE
  5
404
100
AcDbEntity
  8
RACCORDO
100
AcDbPolyline
 62
250
  6
CONTINUOUS
 90
45
 70
0
 10
-102.8277118249
 20
39.9858435018
 10
-102.8297694226
 20
39.9889130807
 10
-102.8318977674
 20
39.9921267259
 10
-102.8340866033
 20
39.9954749063
 10
-102.836337829
 20
39.9989601216
 10
-102.8386370671
 20
40.0025638178
 10
-102.8409490467
 20
40.0062379432
 10
-102.8432657762
 20
40.0099803269
 10
-102.8455764668
 20
40.0137822731
 10
-102.8478425192
 20
40.0175876895
 10
-102.8500547993
 20
40.0213874769
 10
-102.8522037928
 20
40.0251723096
 10
-102.8542544644
 20
40.0288862974
 10
-102.8562002403
 20
40.0325225722
 10
-102.8580335298
 20
40.0360764427
 10
-102.8597256812
 20
40.0394982493
 10
-102.861274681
 20
40.0427811691
 10
-102.8626853398
 20
40.0459149794
 10
-102.8639476698
 20
40.0488541202
 10
-102.8650640074
 20
40.051595148
 10
-102.8660351748
 20
40.0541780761
 10
-102.8668574905
 20
40.056620129
 10
-102.8675461726
 20
40.0588894288
 10
-102.8681369394
 20
40.0609286806
 10
-102.8686793567
 20
40.0626763192
 10
-102.8692330141
 20
40.0640742584
 10
-102.8698408079
 20
40.0651310267
 10
-102.8705414034
 20
40.0658992688
 10
-102.8713416938
 20
40.0664684616
 10
-102.8722320615
 20
40.0669676749
 10
-102.8731944706
 20
40.0675822668
 10
-102.8741199279
 20
40.0685214272
 10
-102.8749194372
 20
40.0698615717
 10
-102.8755641808
 20
40.0715839161
 10
-102.876109153
 20
40.0734570717
 10
-102.8765854537
 20
40.0753372198
 10
-102.8770088023
 20
40.0771608995
 10
-102.8773549787
 20
40.0789669648
 10
-102.8776246881
 20
40.0807387667
 10
-102.8778196433
 20
40.0824799049
 10
-102.8779337449
 20
40.0841610897
 10
-102.877936678
 20
40.0858014191
 10
-102.8777988464
 20
40.0874276625
 10
-102.8775398036
 20
40.0889745439
 10
-102.8772350038
 20
40.0902620013
  0
LWPOLYLINE
  5
405
100
AcDbEntity
  8
RACCORDO
100
AcDbPolyline
 62
250
  6
CONTINUOUS
 90
8
 70
0
 10
-102.779978735
 20
-37.9542416729
 10
-102.7793858704
 20
-37.9534546664
 10
-102.7787898948
 20
-37.9527349637
 10
-102.7781764004
 20
-37.9521211319
 10
-102.7775559101
 20
-37.9515531958
 10
-102.7769632831
 20
-37.9508080637
 10
-102.7764324805
 20
-37.9495832709
 10
-102.7759626412
 20
-37.9476533315
  0
LINE
  5
406
100
AcDbEntity
  8
RACCORDO
100
AcDbLine
 62
250
  6
CONTINUOUS
 10
-106.4217788848
 20
23.2820532992
 11
-106.2308783602
 21
23.2820532992
  0
LINE
  5
407
100
AcDbEntity
  8
RACCORDO
100
AcDbLine
 62
250
  6
CONTINUOUS
 10
-106.2308771003
 20
23.2820532992
 11
-106.0191725605
 21
23.2771522606
  0
LWPOLYLINE
  5
408
100
AcDbEntity
  8
RACCORDO
100
AcDbPolyline
 62
250
  6
CONTINUOUS
 90
7
 70
0
 10
-106.0191725605
 20
23.2771522606
 10
-105.8537725238
 20
23.2723371844
 10
-105.7893768407
 20
23.2699883672
 10
-105.7375791202
 20
23.2676925035
 10
-105.6986068241
 20
23.2654596685
 10
-105.6726310937
 20
23.2632996607
 10
-105.6597659976
 20
23.2612219589
  0
LINE
  5
409
100
AcDbEntity
  8
RACCORDO
100
AcDbLine
 62
250
  6
CONTINUOUS
 10
-102.7839164872
 20
39.9237808776
 11
-102.7846089478
 21
39.9246980701
  0
LINE
  5
40A
100
AcDbEntity
  8
RACCORDO
100
AcDbLine
 62
250
  6
CONTINUOUS
 10
-102.7860686417
 20
39.9266415798
 11
-102.7868412912
 21
39.9276828441
  0
LINE
  5
40B
100
AcDbEntity
  8
RACCORDO
100
AcDbLine
 62
250
  6
CONTINUOUS
 10
-102.7826068963
 20
39.9220134987
 11
-102.7832494778
 21
39.9228893618
  0
LINE
  5
40C
100
AcDbEntity
  8
RACCORDO
100
AcDbLine
 62
250
  6
CONTINUOUS
 10
-102.7876404694
 20
39.9287694139
 11
-102.7920214602
 21
39.9347737789
  0
LINE
  5
40D
100
AcDbEntity
  8
RACCORDO
100
AcDbLine
 62
250
  6
CONTINUOUS
 10
-102.7929703246
 20
39.9360806323
 11
-102.7939449147
 21
39.9374254135
  0
LINE
  5
40E
100
AcDbEntity
  8
RACCORDO
100
AcDbLine
 62
250
  6
CONTINUOUS
 10
-102.797025344
 20
39.9416942849
 11
-102.8015564925
 21
39.9480354659
  0
LINE
  5
40F
100
AcDbEntity
  8
RACCORDO
100
AcDbLine
 62
250
  6
CONTINUOUS
 10
-102.8015564925
 20
39.9480354659
 11
-102.8066342094
 21
39.9552208842
  0
LWPOLYLINE
  5
410
100
AcDbEntity
  8
RACCORDO
100
AcDbPolyline
 62
250
  6
CONTINUOUS
 90
3
 70
0
 10
-102.8066342094
 20
39.9552208842
 10
-102.8122718706
 20
39.9632861111
 10
-102.8137739685
 20
39.9654493561
  0
LWPOLYLINE
  5
411
100
AcDbEntity
  8
RACCORDO
100
AcDbPolyline
 62
250
  6
CONTINUOUS
 90
21
 70
0
 10
-102.7561083736
 20
39.8753309828
 10
-102.7597048625
 20
39.8784207729
 10
-102.7628928075
 20
39.8816248407
 10
-102.765701421
 20
39.8848672795
 10
-102.7681530402
 20
39.888123327
 10
-102.7702456116
 20
39.8914625227
 10
-102.7719586393
 20
39.8950242417
 10
-102.7732816858
 20
39.8988736081
 10
-102.7742617502
 20
39.9028936207
 10
-102.7750017402
 20
39.9067095853
 10
-102.7755784166
 20
39.9099359369
 10
-102.776077299
 20
39.9123318665
 10
-102.7765765188
 20
39.9140085389
 10
-102.7771249237
 20
39.9150898057
 10
-102.7777225551
 20
39.9158134573
 10
-102.7783452374
 20
39.9164112353
 10
-102.7789634979
 20
39.9170508189
 10
-102.7795652314
 20
39.9177865759
 10
-102.7801640948
 20
39.9185901039
 10
-102.7807643476
 20
39.919423241
 10
-102.7813664755
 20
39.9202702646
  0
LWPOLYLINE
  5
412
100
AcDbEntity
  8
RACCORDO
100
AcDbPolyline
 62
7
  6
CONTINUOUS
 90
10
 70
0
 10
-102.0978280554
 20
40.7312684321
 10
-102.2178545076
 20
40.7043172418
 10
-102.3337503417
 20
40.6627956523
 10
-102.4437467549
 20
40.6073006916
 10
-102.5461591707
 20
40.5386435565
 10
-102.6394128617
 20
40.4578376955
 10
-102.7220653835
 20
40.3660857759
 10
-102.792829044
 20
40.2647638813
 10
-102.8505933964
 20
40.1554002769
 10
-102.8769894925
 20
40.0910528493
  0
LINE
  5
413
100
AcDbEntity
  8
RACCORDO
100
AcDbLine
 62
250
  6
CONTINUOUS
 10
-97.4217788848
 20
37.9820532992
 11
-101.806835357
 21
37.9820532992
  0
LINE
  5
414
100
AcDbEntity
  8
RACCORDO
100
AcDbLine
 62
250
  6
CONTINUOUS
 10
-102.6926432123
 20
38.0133646158
 11
-101.8068288869
 21
37.9820532877
  0
LINE
  5
415
100
AcDbEntity
  8
RACCORDO
100
AcDbLine
 62
250
  6
CONTINUOUS
 10
-102.7468858858
 20
38.0156147836
 11
-102.6926432123
 21
38.0133646158
  0
LINE
  5
416
100
AcDbEntity
  8
RACCORDO
100
AcDbLine
 62
7
  6
CONTINUOUS
 10
-101.9915035824
 20
40.7425647562
 11
-102.0978280554
 21
40.7312684321
  0
LINE
  5
417
100
AcDbEntity
  8
RACCORDO
100
AcDbLine
 62
7
  6
CONTINUOUS
 10
-97.4217788848
 20
40.9820532992
 11
-101.9914995473
 21
40.7425643873
  0
ARC
  5
418
100
AcDbEntity
  8
0
100
AcDbCircle
 62
7
  6
CONTINUOUS
 10
-68.25
 20
-36.0179467008
 40
3.0
100
AcDbArc
 50
179.9999999996
 51
270.0000000013
  0
ARC
  5
419
100
AcDbEntity
  8
0
100
AcDbCircle
 62
7
  6
CONTINUOUS
 10
68.25
 20
-36.0179467008
 40
3.0
100
AcDbArc
 50
269.9999999987
 51
360.0
  0
ARC
  5
41A
100
AcDbEntity
  8
0
100
AcDbCircle
 62
7
  6
CONTINUOUS
 10
68.25
 20
37.9820532992
 40
3.0
100
AcDbArc
 50
0.0
 51
90.0000000013
  0
ARC
  5
41B
100
AcDbEntity
  8
0
100
AcDbCircle
 62
7
  6
CONTINUOUS
 10
-68.25
 20
37.9820532992
 40
3.0
100
AcDbArc
 50
89.9999999987
 51
180.0000000004
  0
ARC
  5
41C
100
AcDbEntity
  8
DRAFT
100
AcDbCircle
 62
7
  6
CONTINUOUS
 10
44.7
 20
23.1820532992
 40
0.3950306642
100
AcDbArc
 50
7.7224451222
 51
90.0
  0
ARC
  5
41D
100
AcDbEntity
  8
DRAFT
100
AcDbCircle
 62
7
  6
CONTINUOUS
 10
-44.7
 20
23.1820532992
 40
0.3950306642
100
AcDbArc
 50
97.7224451222
 51
180.0
  0
ARC
  5
41E
100
AcDbEntity
  8
DRAFT
100
AcDbCircle
 62
7
  6
CONTINUOUS
 10
-44.7
 20
-21.2179467008
 40
0.3950306642
100
AcDbArc
 50
187.7224451222
 51
270.0
  0
ARC
  5
41F
100
AcDbEntity
  8
DRAFT
100
AcDbCircle
 62
7
  6
CONTINUOUS
 10
44.7
 20
-21.2179467008
 40
0.3950306642
100
AcDbArc
 50
277.7224451222
 51
360.0
  0
ARC
  5
420
100
AcDbEntity
  8
0
100
AcDbCircle
 62
7
  6
CONTINUOUS
 10
-44.8
 20
-21.3179467008
 40
0.3
100
AcDbArc
 50
180.0
 51
270.0
  0
ARC
  5
421
100
AcDbEntity
  8
0
100
AcDbCircle
 62
7
  6
CONTINUOUS
 10
44.8
 20
-21.3179467008
 40
0.3
100
AcDbArc
 50
270.0
 51
360.0
  0
ARC
  5
422
100
AcDbEntity
  8
0
100
AcDbCircle
 62
7
  6
CONTINUOUS
 10
-44.8
 20
23.2820532992
 40
0.3
100
AcDbArc
 50
90.0
 51
180.0
  0
ARC
  5
423
100
AcDbEntity
  8
0
100
AcDbCircle
 62
7
  6
CONTINUOUS
 10
44.8
 20
23.2820532992
 40
0.3
100
AcDbArc
 50
0.0
 51
90.0
  0
ARC
  5
424
100
AcDbEntity
  8
0
100
AcDbCircle
 62
7
  6
CONTINUOUS
 10
-105.4217788848
 20
-22.6179467008
 40
1.0
100
AcDbArc
 50
180.0
 51
216.8729822062
  0
ARC
  5
425
100
AcDbEntity
  8
RACCORDO
100
AcDbCircle
 62
7
  6
CONTINUOUS
 10
-105.4217788848
 20
-22.6179467008
 40
1.0
100
AcDbArc
 50
180.0
 51
216.8729822062
  0
ARC
  5
426
100
AcDbEntity
  8
0
100
AcDbCircle
 62
7
  6
CONTINUOUS
 10
-105.4217788848
 20
24.5820532992
 40
1.0
100
AcDbArc
 50
143.1270177938
 51
180.0
  0
ARC
  5
427
100
AcDbEntity
  8
RACCORDO
100
AcDbCircle
 62
7
  6
CONTINUOUS
 10
-105.4217788848
 20
24.5820532992
 40
1.0
100
AcDbArc
 50
143.1270177938
 51
180.0
  0
ARC
  5
428
100
AcDbEntity
  8
RACCORDO
100
AcDbCircle
 62
7
  6
CONTINUOUS
 10
-98.9217788848
 20
-2.0794584693
 40
0.5
100
AcDbArc
 50
180.0
 51
262.5
  0
ARC
  5
429
100
AcDbEntity
  8
RACCORDO
100
AcDbCircle
 62
7
  6
CONTINUOUS
 10
-98.9217788848
 20
4.0435650677
 40
0.5
100
AcDbArc
 50
97.5
 51
180.0
  0
ARC
  5
42A
100
AcDbEntity
  8
RACCORDO
100
AcDbCircle
 62
7
  6
CONTINUOUS
 10
-97.9217788848
 20
-3.2197399275
 40
0.5
100
AcDbArc
 50
0.0
 51
82.5
  0
ARC
  5
42B
100
AcDbEntity
  8
RACCORDO
100
AcDbCircle
 62
7
  6
CONTINUOUS
 10
-97.9217788848
 20
5.1838465259
 40
0.5
100
AcDbArc
 50
277.5
 51
360.0
  0
ELLIPSE
  5
42C
100
AcDbEntity
  8
RACCORDO
100
AcDbEllipse
 62
7
  6
CONTINUOUS
 10
-71.2237961104
 20
5.1838465259
 30
0.0
 11
0.0
 21
0.5
 31
0.0
 40
0.0524077793
 41
-4.7123889804
 42
-3.2724923475
  0
ELLIPSE
  5
42D
100
AcDbEntity
  8
RACCORDO
100
AcDbEllipse
 62
7
  6
CONTINUOUS
 10
-71.2237961104
 20
-3.2197399275
 30
0.0
 11
0.0
 21
0.5
 31
0.0
 40
0.0524077793
 41
0.1308996939
 42
1.5707963268
  0
ELLIPSE
  5
42E
100
AcDbEntity
  8
RACCORDO
100
AcDbEllipse
 62
7
  6
CONTINUOUS
 10
71.2237961104
 20
5.1838465259
 30
0.0
 11
0.0
 21
0.5
 31
0.0
 40
0.0524077793
 41
-3.0106929597
 42
-1.5707963268
  0
ELLIPSE
  5
42F
100
AcDbEntity
  8
RACCORDO
100
AcDbEllipse
 62
7
  6
CONTINUOUS
 10
71.2237961104
 20
-3.2197399275
 30
0.0
 11
0.0
 21
0.5
 31
0.0
 40
0.0524077793
 41
-1.5707963268
 42
-0.1308996939
  0
ELLIPSE
  5
430
100
AcDbEntity
  8
RACCORDO
100
AcDbEllipse
 62
7
  6
CONTINUOUS
 10
-71.1713883311
 20
4.0435650677
 30
0.0
 11
-0.0
 21
0.5
 31
0.0
 40
0.0524077793
 41
-1.5707963268
 42
-0.1308996939
  0
ELLIPSE
  5
431
100
AcDbEntity
  8
RACCORDO
100
AcDbEllipse
 62
7
  6
CONTINUOUS
 10
-71.1713883311
 20
-2.0794584693
 30
0.0
 11
-0.0
 21
0.5
 31
0.0
 40
0.0524077793
 41
-3.0106929597
 42
-1.5707963268
  0
ELLIPSE
  5
432
100
AcDbEntity
  8
RACCORDO
100
AcDbEllipse
 62
7
  6
CONTINUOUS
 10
71.1713883311
 20
4.0435650677
 30
0.0
 11
-0.0
 21
0.5
 31
0.0
 40
0.0524077793
 41
0.1308996939
 42
1.5707963268
  0
ELLIPSE
  5
433
100
AcDbEntity
  8
RACCORDO
100
AcDbEllipse
 62
7
  6
CONTINUOUS
 10
71.1713883311
 20
-2.0794584693
 30
0.0
 11
-0.0
 21
0.5
 31
0.0
 40
0.0524077793
 41
-4.7123889804
 42
-3.2724923475
  0
ENDSEC
  0
SECTION
  2
OBJECTS
  0
DICTIONARY
  5
C
100
AcDbDictionary
280
0
281
1
  3
ACAD_GROUP
350
D
  3
ACAD_MLINESTYLE
350
17
  3
ACAD_LAYOUT
350
1A
  3
ACAD_PLOTSETTINGS
350
19
  3
ACAD_PLOTSTYLENAME
350
E
  0
DICTIONARY
  5
D
102
{ACAD_REACTORS
330
C
102
}
100
AcDbDictionary
280
0
281
1
  0
ACDBDICTIONARYWDFLT
  5
E
102
{ACAD_REACTORS
330
C
102
}
100
AcDbDictionary
281
1
  3
Normal
350
F
100
AcDbDictionaryWithDefault
340
F
  0
DICTIONARY
  5
17
102
{ACAD_REACTORS
330
C
102
}
100
AcDbDictionary
280
0
281
1
  3
Standard
350
18
  0
DICTIONARY
  5
19
102
{ACAD_REACTORS
330
C
102
}
100
AcDbDictionary
281
1
  0
DICTIONARY
  5
1A
102
{ACAD_REACTORS
330
C
102
}
100
AcDbDictionary
281
1
  3
Model
350
434
  3
Layout1
350
435
  0
ACDBPLACEHOLDER
  5
F
102
{ACAD_REACTORS
330
E
102
}
  0
MLINESTYLE
  5
18
102
{ACAD_REACTORS
330
17
102
}
100
AcDbMlineStyle
  2
STANDARD
 70
0
  3

 62
256
 51
90.0
 52
90.0
 71
2
 49
0.5
 62
256
  6
BYLAYER
 49
-0.5
 62
256
  6
BYLAYER
  0
LAYOUT
  5
434
102
{ACAD_REACTORS
330
1A
102
}
100
AcDbPlotSettings
  1

  2
none_device
  4
ISO_A4_(297.00_x_210.00_MM)
  6

 40
0.0
 41
0.0
 42
0.0
 43
0.0
 44
297.0
 45
210.0
 46
0.0
 47
0.0
 48
0.0
 49
0.0
140
0.0
141
0.0
142
1.0
143
1.0
 70
1024
 72
1
 73
0
 74
0
  7

 75
0
147
1.0
148
0.0
149
0.0
100
AcDbLayout
  1
Model
 70
0
 71
0
 10
0.0
 20
0.0
 11
297.0
 21
210.0
 12
0.0
 22
0.0
 32
0.0
 14
0.0
 24
0.0
 34
0.0
 15
0.0
 25
0.0
 35
0.0
146
0.0
 13
0.0
 23
0.0
 33
0.0
 16
1.0
 26
0.0
 36
0.0
 17
0.0
 27
1.0
 37
0.0
 76
0
330
223
345
0
346
0
  0
LAYOUT
  5
435
102
{ACAD_REACTORS
330
1A
102
}
100
AcDbPlotSettings
  1

  2
none_device
  4
ISO_A4_(297.00_x_210.00_MM)
  6

 40
0.0
 41
0.0
 42
0.0
 43
0.0
 44
297.0
 45
210.0
 46
0.0
 47
0.0
 48
0.0
 49
0.0
140
0.0
141
0.0
142
1.0
143
1.0
 70
0
 72
1
 73
0
 74
0
  7

 75
0
147
1.0
148
0.0
149
0.0
100
AcDbLayout
  1
Layout1
 70
0
 71
1
 10
0.0
 20
0.0
 11
297.0
 21
210.0
 12
0.0
 22
0.0
 32
0.0
 14
0.0
 24
0.0
 34
0.0
 15
0.0
 25
0.0
 35
0.0
146
0.0
 13
0.0
 23
0.0
 33
0.0
 16
1.0
 26
0.0
 36
0.0
 17
0.0
 27
1.0
 37
0.0
 76
0
330
224
345
0
346
0
  0
ENDSEC
  0
EOF
