  0
SECTION
  2
HEADER
  9
$ACADVER
  1
AC1024
  9
$DWGCODEPAGE
  3
ANSI_1252
  9
$EXTMAX
 10
297.0
 20
210.0
 30
0.0
  9
$EXTMIN
 10
0.0
 20
0.0
 30
0.0
  9
$LIMMIN
 10
0.0
 20
0.0
  9
$LIMMAX
 10
297.0
 20
210.0
  9
$VIEWCTR
 10
148.5
 20
105.0
  9
$VIEWSIZE
 40
210.0
  9
$CLAYER
  8
0
  9
$LTSCALE
 40
16.335
  9
$CELTYPE
  6
BYLAYER
  9
$DIMSCALE
 40
1.0
  9
$DIMASZ
 40
3.0
  9
$DIMEXO
 40
0.5
  9
$DIMDLI
 40
11.286
  9
$DIMEXE
 40
1.5
  9
$DIMCEN
 40
2.673
  9
$DIMLFAC
 40
1.0
  9
$DIMBLK
  1
_FILLED
  9
$DIMALT
 70
0
  9
$DIMALTF
 40
0.0393700787
  9
$DIMTXT
 40
3.0
  9
$DIMTOL
 70
1
  9
$DIMLIM
 70
0
  9
$DIMTFAC
 40
1.0
  9
$DIMTP
 40
0.01
  9
$DIMTM
 40
0.01
  9
$DIMGAP
 40
0.625
  9
$DIMDSEP
 70
44
  9
$AUNITS
 70
0
  9
$PDMODE
 70
3
  9
$PDSIZE
 40
3.0
  9
$HANDSEED
  5
61D
  9
$TILEMODE
 70
1
  9
$MEASUREMENT
 70
1
  9
$INSUNITS
 70
4
  0
ENDSEC
  0
SECTION
  2
CLASSES
  0
CLASS
  1
ACDBDICTIONARYWDFLT
  2
AcDbDictionaryWithDefault
  3
AutoCAD 2000
 90
0
 91
1
280
0
281
0
  0
CLASS
  1
ACDBPLACEHOLDER
  2
AcDbPlaceHolder
  3
AutoCAD 2000
 90
0
 91
1
280
0
281
0
  0
CLASS
  1
LAYOUT
  2
AcDbLayout
  3
AutoCAD 2000
 90
0
 91
0
280
0
281
0
  0
ENDSEC
  0
SECTION
  2
TABLES
  0
TABLE
  2
VPORT
  5
8
100
AcDbSymbolTable
 70
2
  0
VPORT
  5
1F4
100
AcDbSymbolTableRecord
100
AcDbViewportTableRecord
  2
*ACTIVE
 70
0
 10
0.0
 20
0.0
 11
1.0
 21
1.0
 12
148.5
 22
105.0
 13
0.0
 23
0.0
 14
1.0
 24
1.0
 15
0.0
 25
0.0
 16
0.0
 26
0.0
 36
1.0
 17
0.0
 27
0.0
 37
0.0
 40
210.0
 41
1.4142857143
 42
50.0
 43
0.0
 44
0.0
 50
0.0
 51
0.0
 71
0
 72
100
 73
1
 74
1
 75
0
 76
0
 77
0
 78
0
  0
ENDTAB
  0
TABLE
  2
LTYPE
  5
5
100
AcDbSymbolTable
 70
6
  0
LTYPE
  5
14
100
AcDbSymbolTableRecord
100
AcDbLinetypeTableRecord
  2
BYBLOCK
 70
0
  3

 72
65
 73
0
 40
0.0
  0
LTYPE
  5
15
100
AcDbSymbolTableRecord
100
AcDbLinetypeTableRecord
  2
BYLAYER
 70
0
  3

 72
65
 73
0
 40
0.0
  0
LTYPE
  5
16
100
AcDbSymbolTableRecord
100
AcDbLinetypeTableRecord
  2
CONTINUOUS
 70
64
  3
Solid line
 72
65
 73
0
 40
0.0
  0
LTYPE
  5
1F5
100
AcDbSymbolTableRecord
100
AcDbLinetypeTableRecord
  2
CENTER
 70
64
  3
____ _ ____ _ ____ _ ____ _ ____ _ ____ _ ____
 72
65
 73
4
 40
0.6
 49
0.375
 74
0
 49
-0.075
 74
0
 49
0.075
 74
0
 49
-0.075
 74
0
  0
LTYPE
  5
1F6
100
AcDbSymbolTableRecord
100
AcDbLinetypeTableRecord
  2
HIDDEN
 70
64
  3
- - - - - - - - - - - - - - - - - - - -
 72
65
 73
2
 40
0.2
 49
0.1
 74
0
 49
-0.1
 74
0
  0
LTYPE
  5
1F7
100
AcDbSymbolTableRecord
100
AcDbLinetypeTableRecord
  2
PHANTOM
 70
64
  3
_____ _ _ _____ _ _ _____ _ _ _____
 72
65
 73
6
 40
0.8
 49
0.45
 74
0
 49
-0.05
 74
0
 49
0.1
 74
0
 49
-0.05
 74
0
 49
0.1
 74
0
 49
-0.05
 74
0
  0
LTYPE
  5
1F8
100
AcDbSymbolTableRecord
100
AcDbLinetypeTableRecord
  2
DOT
 70
64
  3
. . . . . . . . . . . . . . . . . . . .
 72
65
 73
2
 40
0.2
 49
0.1
 74
0
 49
-0.1
 74
0
  0
LTYPE
  5
1F9
100
AcDbSymbolTableRecord
100
AcDbLinetypeTableRecord
  2
DASHED
 70
64
  3
- - - - - - - - - - - - - - - - - - - -
 72
65
 73
2
 40
0.2
 49
0.1
 74
0
 49
-0.1
 74
0
  0
ENDTAB
  0
TABLE
  2
LAYER
  5
2
100
AcDbSymbolTable
 70
36
  0
LAYER
  5
10
100
AcDbSymbolTableRecord
100
AcDbLayerTableRecord
  2
0
 70
0
 62
7
  6
CONTINUOUS
370
-3
390
F
  0
LAYER
  5
1FA
100
AcDbSymbolTableRecord
100
AcDbLayerTableRecord
  2
DEFAULT_1
 70
0
 62
7
  6
CENTER
370
-3
390
F
  0
LAYER
  5
1FB
100
AcDbSymbolTableRecord
100
AcDbLayerTableRecord
  2
DEFAULT_2
 70
0
 62
7
  6
HIDDEN
370
-3
390
F
  0
LAYER
  5
1FC
100
AcDbSymbolTableRecord
100
AcDbLayerTableRecord
  2
DEFAULT_3
 70
0
 62
7
  6
PHANTOM
370
-3
390
F
  0
LAYER
  5
1FD
100
AcDbSymbolTableRecord
100
AcDbLayerTableRecord
  2
ASSI
 70
0
 62
7
  6
CONTINUOUS
370
-3
390
F
  0
LAYER
  5
1FE
100
AcDbSymbolTableRecord
100
AcDbLayerTableRecord
  2
COLOR16
 70
0
 62
7
  6
CONTINUOUS
370
-3
390
F
  0
LAYER
  5
1FF
100
AcDbSymbolTableRecord
100
AcDbLayerTableRecord
  2
COLOR5
 70
0
 62
7
  6
CONTINUOUS
370
-3
390
F
  0
LAYER
  5
200
100
AcDbSymbolTableRecord
100
AcDbLayerTableRecord
  2
COORDINATE
 70
0
 62
7
  6
CONTINUOUS
370
-3
390
F
  0
LAYER
  5
201
100
AcDbSymbolTableRecord
100
AcDbLayerTableRecord
  2
COORD_ORIGINE
 70
0
 62
7
  6
CONTINUOUS
370
-3
390
F
  0
LAYER
  5
202
100
AcDbSymbolTableRecord
100
AcDbLayerTableRecord
  2
CURVE
 70
0
 62
7
  6
CONTINUOUS
370
-3
390
F
  0
LAYER
  5
203
100
AcDbSymbolTableRecord
100
AcDbLayerTableRecord
  2
DRAFT
 70
0
 62
7
  6
CONTINUOUS
370
-3
390
F
  0
LAYER
  5
204
100
AcDbSymbolTableRecord
100
AcDbLayerTableRecord
  2
ESTRATTORI
 70
0
 62
7
  6
CONTINUOUS
370
-3
390
F
  0
LAYER
  5
205
100
AcDbSymbolTableRecord
100
AcDbLayerTableRecord
  2
IGES
 70
0
 62
7
  6
CONTINUOUS
370
-3
390
F
  0
LAYER
  5
206
100
AcDbSymbolTableRecord
100
AcDbLayerTableRecord
  2
INTF_1
 70
0
 62
7
  6
CONTINUOUS
370
-3
390
F
  0
LAYER
  5
207
100
AcDbSymbolTableRecord
100
AcDbLayerTableRecord
  2
INTF_6
 70
0
 62
7
  6
CONTINUOUS
370
-3
390
F
  0
LAYER
  5
208
100
AcDbSymbolTableRecord
100
AcDbLayerTableRecord
  2
INTF_7
 70
0
 62
7
  6
CONTINUOUS
370
-3
390
F
  0
LAYER
  5
209
100
AcDbSymbolTableRecord
100
AcDbLayerTableRecord
  2
INTF_BLANK
 70
0
 62
7
  6
CONTINUOUS
370
-3
390
F
  0
LAYER
  5
20A
100
AcDbSymbolTableRecord
100
AcDbLayerTableRecord
  2
INTF_RED
 70
0
 62
7
  6
CONTINUOUS
370
-3
390
F
  0
LAYER
  5
20B
100
AcDbSymbolTableRecord
100
AcDbLayerTableRecord
  2
NOTE
 70
0
 62
7
  6
CONTINUOUS
370
-3
390
F
  0
LAYER
  5
20C
100
AcDbSymbolTableRecord
100
AcDbLayerTableRecord
  2
PIANI
 70
0
 62
7
  6
CONTINUOUS
370
-3
390
F
  0
LAYER
  5
20D
100
AcDbSymbolTableRecord
100
AcDbLayerTableRecord
  2
PIANI_ORIGINE
 70
0
 62
7
  6
CONTINUOUS
370
-3
390
F
  0
LAYER
  5
20E
100
AcDbSymbolTableRecord
100
AcDbLayerTableRecord
  2
PLACCA
 70
0
 62
7
  6
CONTINUOUS
370
-3
390
F
  0
LAYER
  5
20F
100
AcDbSymbolTableRecord
100
AcDbLayerTableRecord
  2
PUNTI
 70
0
 62
7
  6
CONTINUOUS
370
-3
390
F
  0
LAYER
  5
210
100
AcDbSymbolTableRecord
100
AcDbLayerTableRecord
  2
RACCORDO
 70
0
 62
7
  6
CONTINUOUS
370
-3
390
F
  0
LAYER
  5
211
100
AcDbSymbolTableRecord
100
AcDbLayerTableRecord
  2
RGB__255__255__255__
 70
0
 62
7
  6
CONTINUOUS
370
-3
390
F
  0
LAYER
  5
212
100
AcDbSymbolTableRecord
100
AcDbLayerTableRecord
  2
RGB____0____0____0__
 70
0
 62
7
  6
CONTINUOUS
370
-3
390
F
  0
LAYER
  5
213
100
AcDbSymbolTableRecord
100
AcDbLayerTableRecord
  2
SMUSSO
 70
0
 62
7
  6
CONTINUOUS
370
-3
390
F
  0
LAYER
  5
214
100
AcDbSymbolTableRecord
100
AcDbLayerTableRecord
  2
SNAPLINE
 70
0
 62
7
  6
CONTINUOUS
370
-3
390
F
  0
LAYER
  5
215
100
AcDbSymbolTableRecord
100
AcDbLayerTableRecord
  2
SUPERFICI
 70
0
 62
7
  6
CONTINUOUS
370
-3
390
F
  0
LAYER
  5
216
100
AcDbSymbolTableRecord
100
AcDbLayerTableRecord
  2
SUPPORTO
 70
0
 62
7
  6
CONTINUOUS
370
-3
390
F
  0
LAYER
  5
217
100
AcDbSymbolTableRecord
100
AcDbLayerTableRecord
  2
TEMP
 70
0
 62
7
  6
CONTINUOUS
370
-3
390
F
  0
LAYER
  5
218
100
AcDbSymbolTableRecord
100
AcDbLayerTableRecord
  2
TRASH
 70
0
 62
7
  6
CONTINUOUS
370
-3
390
F
  0
LAYER
  5
219
100
AcDbSymbolTableRecord
100
AcDbLayerTableRecord
  2
WHITE
 70
0
 62
7
  6
CONTINUOUS
370
-3
390
F
  0
LAYER
  5
21A
100
AcDbSymbolTableRecord
100
AcDbLayerTableRecord
  2
XSEC_DATUMS
 70
0
 62
7
  6
CONTINUOUS
370
-3
390
F
  0
ENDTAB
  0
TABLE
  2
STYLE
  5
3
100
AcDbSymbolTable
 70
1
  0
STYLE
  5
11
100
AcDbSymbolTableRecord
100
AcDbTextStyleTableRecord
  2
STANDARD
 70
0
 40
0.0
 41
0.8
 50
0.0
 71
0
 42
0.2
  3
txt
  4

  0
STYLE
  5
21B
100
AcDbSymbolTableRecord
100
AcDbTextStyleTableRecord
  2
TEXTSTYLE_1
 70
0
 40
0.0
 41
0.8
 50
0.0
 71
0
 42
0.2
  3
gdt
  4

  0
ENDTAB
  0
TABLE
  2
VIEW
  5
6
100
AcDbSymbolTable
 70
0
  0
ENDTAB
  0
TABLE
  2
UCS
  5
7
100
AcDbSymbolTable
 70
0
  0
ENDTAB
  0
TABLE
  2
APPID
  5
9
100
AcDbSymbolTable
 70
1
  0
APPID
  5
21C
100
AcDbSymbolTableRecord
100
AcDbRegAppTableRecord
  2
ACAD
 70
0
  0
ENDTAB
  0
TABLE
  2
BLOCK_RECORD
  5
1
100
AcDbSymbolTable
 70
0
  0
BLOCK_RECORD
  5
21D
100
AcDbSymbolTableRecord
100
AcDbBlockTableRecord
  2
*Model_Space
  0
BLOCK_RECORD
  5
21E
100
AcDbSymbolTableRecord
100
AcDbBlockTableRecord
  2
*Paper_Space
  0
BLOCK_RECORD
  5
21F
100
AcDbSymbolTableRecord
100
AcDbBlockTableRecord
  2
_FILLED
  0
BLOCK_RECORD
  5
220
100
AcDbSymbolTableRecord
100
AcDbBlockTableRecord
  2
*D0
  0
BLOCK_RECORD
  5
221
100
AcDbSymbolTableRecord
100
AcDbBlockTableRecord
  2
*D1
  0
BLOCK_RECORD
  5
222
100
AcDbSymbolTableRecord
100
AcDbBlockTableRecord
  2
*D2
  0
ENDTAB
  0
TABLE
  2
DIMSTYLE
  5
A
100
AcDbSymbolTable
 70
1
100
AcDbDimStyleTable
 71
0
  0
DIMSTYLE
105
223
100
AcDbSymbolTableRecord
100
AcDbDimStyleTableRecord
  2
STANDARD
 70
0
  3

  4

 40
1.0
 41
3.0
 42
0.5
 43
0.38
 44
1.5
 45
0.0
 46
0.0
 47
0.01
 48
0.01
140
3.0
141
0.09
142
0.0
143
25.4
144
1.0
145
0.0
146
1.0
147
0.625
 71
1
 72
0
 73
0
 74
0
 75
0
 76
0
 77
1
 78
8
 79
2
170
0
171
1
172
0
173
0
174
0
175
0
176
0
177
0
178
0
270
2
179
2
271
2
272
2
273
2
274
2
275
0
280
0
281
0
282
0
283
1
284
8
285
0
286
0
287
3
288
0
340
11
278
44
341
21F
342
21F
343
21F
344
21F
  0
DIMSTYLE
105
224
100
AcDbSymbolTableRecord
100
AcDbDimStyleTableRecord
  2
DIMSTYLE_1
 70
0
  3

  4

 40
1.0
 41
3.0
 42
0.5
 43
0.38
 44
1.5
 45
0.0
 46
0.0
 47
0.0
 48
0.0
140
3.0
141
0.09
142
0.0
143
25.4
144
1.0
145
0.0
146
1.0
147
0.75
 71
0
 72
0
 73
0
 74
0
 75
0
 76
0
 77
1
 78
8
 79
2
170
0
171
1
172
0
173
0
174
0
175
0
176
0
177
0
178
0
270
2
179
2
271
1
272
1
273
2
274
2
275
0
280
0
281
0
282
0
283
1
284
8
285
0
286
0
287
3
288
0
340
11
278
44
341
21F
342
21F
343
21F
344
21F
  0
DIMSTYLE
105
225
100
AcDbSymbolTableRecord
100
AcDbDimStyleTableRecord
  2
DIMSTYLE_2
 70
0
  3

  4

 40
1.0
 41
3.0
 42
0.5
 43
0.38
 44
1.5
 45
0.0
 46
0.0
 47
0.0
 48
0.0
140
3.0
141
0.09
142
0.0
143
25.4
144
1.0
145
0.0
146
1.0
147
0.75
 71
0
 72
0
 73
0
 74
0
 75
0
 76
0
 77
1
 78
8
 79
2
170
0
171
1
172
0
173
0
174
0
175
0
176
0
177
0
178
0
270
2
179
2
271
2
272
2
273
2
274
2
275
0
280
0
281
0
282
0
283
1
284
8
285
0
286
0
287
3
288
0
340
11
278
44
341
21F
342
21F
343
21F
344
21F
  0
ENDTAB
  0
ENDSEC
  0
SECTION
  2
BLOCKS
  0
BLOCK
  5
20
100
AcDbEntity
  8
0
100
AcDbBlockBegin
  2
*Model_Space
 70
0
 10
0.0
 20
0.0
 30
0.0
  3
*Model_Space
  1

  0
ENDBLK
  5
21
100
AcDbEntity
  8
0
100
AcDbBlockEnd
  0
BLOCK
  5
1C
100
AcDbEntity
  8
0
100
AcDbBlockBegin
  2
*Paper_Space
 70
0
 10
0.0
 20
0.0
 30
0.0
  3
*Paper_Space
  1

  0
ENDBLK
  5
1D
100
AcDbEntity
  8
0
100
AcDbBlockEnd
  0
BLOCK
  5
226
100
AcDbEntity
  8
0
100
AcDbBlockBegin
  2
_FILLED
 70
64
 10
0.0
 20
0.0
  3
_FILLED
  1

  0
SOLID
  5
227
100
AcDbEntity
  8
0
  6
BYBLOCK
 62
0
100
AcDbTrace
 10
0.0
 20
0.0
 11
-1.0
 21
0.3166666667
 12
-1.0
 22
-0.3166666667
 13
-1.0
 23
-0.3166666667
  0
ENDBLK
  5
228
100
AcDbEntity
  8
0
  6
BYBLOCK
 62
0
100
AcDbBlockEnd
  0
BLOCK
  5
229
100
AcDbEntity
  8
0
100
AcDbBlockBegin
 62
7
  6
CONTINUOUS
  2
*D0
 70
65
 10
0.0
 20
0.0
  3
*D0
  1

  0
LINE
  5
22A
100
AcDbEntity
  8
0
100
AcDbLine
 62
7
  6
CONTINUOUS
 10
-103.05892912
 20
37.541498446
 11
-103.05892912
 21
57.0
  0
LINE
  5
22B
100
AcDbEntity
  8
0
100
AcDbLine
 62
7
  6
CONTINUOUS
 10
103.05892912
 20
37.541498446
 11
103.05892912
 21
57.0
  0
LINE
  5
22C
100
AcDbEntity
  8
0
100
AcDbLine
 62
7
  6
CONTINUOUS
 10
-103.05892912
 20
55.5
 11
0.0
 21
55.5
  0
LINE
  5
22D
100
AcDbEntity
  8
0
100
AcDbLine
 62
7
  6
CONTINUOUS
 10
103.05892912
 20
55.5
 11
0.0
 21
55.5
  0
INSERT
  5
22E
100
AcDbEntity
  8
0
100
AcDbBlockReference
 62
7
  6
CONTINUOUS
  2
_FILLED
 10
-103.05892912
 20
55.5
 41
3.0
 42
3.0
 43
3.0
 50
180.0
  0
INSERT
  5
22F
100
AcDbEntity
  8
0
100
AcDbBlockReference
 62
7
  6
CONTINUOUS
  2
_FILLED
 10
103.05892912
 20
55.5
 41
3.0
 42
3.0
 43
3.0
  0
ENDBLK
  5
230
100
AcDbEntity
  8
0
  6
BYBLOCK
 62
0
100
AcDbBlockEnd
  0
BLOCK
  5
231
100
AcDbEntity
  8
0
100
AcDbBlockBegin
 62
7
  6
CONTINUOUS
  2
*D1
 70
65
 10
0.0
 20
0.0
  3
*D1
  1

  0
LINE
  5
232
100
AcDbEntity
  8
0
100
AcDbLine
 62
7
  6
CONTINUOUS
 10
-137.1330120037
 20
24.08887441
 11
-137.1735017847
 21
56.9943287224
  0
LINE
  5
233
100
AcDbEntity
  8
0
100
AcDbLine
 62
7
  6
CONTINUOUS
 10
-127.9360489842
 20
39.0066491852
 11
-127.9581965688
 21
57.0056680489
  0
LINE
  5
234
100
AcDbEntity
  8
0
100
AcDbLine
 62
7
  6
CONTINUOUS
 10
-137.1716560534
 20
55.4943298579
 11
-141.1716530252
 21
55.4894079079
  0
LINE
  5
235
100
AcDbEntity
  8
0
100
AcDbLine
 62
7
  6
CONTINUOUS
 10
-141.1716530252
 20
55.4894079079
 11
-132.5640034455
 21
55.4999995212
  0
LINE
  5
236
100
AcDbEntity
  8
0
100
AcDbLine
 62
7
  6
CONTINUOUS
 10
-127.9563508375
 20
55.5056691844
 11
-123.9563538657
 21
55.5105911345
  0
LINE
  5
237
100
AcDbEntity
  8
0
100
AcDbLine
 62
7
  6
CONTINUOUS
 10
-123.9563538657
 20
55.5105911345
 11
-132.5640034455
 21
55.4999995212
  0
INSERT
  5
238
100
AcDbEntity
  8
0
100
AcDbBlockReference
 62
7
  6
CONTINUOUS
  2
_FILLED
 10
-137.1716560534
 20
55.4943298579
 41
3.0
 42
3.0
 43
3.0
 50
0.0705017585
  0
INSERT
  5
239
100
AcDbEntity
  8
0
100
AcDbBlockReference
 62
7
  6
CONTINUOUS
  2
_FILLED
 10
-127.9563508375
 20
55.5056691844
 41
3.0
 42
3.0
 43
3.0
 50
180.0705017585
  0
ENDBLK
  5
23A
100
AcDbEntity
  8
0
  6
BYBLOCK
 62
0
100
AcDbBlockEnd
  0
BLOCK
  5
23B
100
AcDbEntity
  8
0
100
AcDbBlockBegin
 62
7
  6
CONTINUOUS
  2
*D2
 70
65
 10
0.0
 20
0.0
  3
*D2
  1

  0
LINE
  5
23C
100
AcDbEntity
  8
0
100
AcDbLine
 62
7
  6
CONTINUOUS
 10
-128.6354337405
 20
39.9999877898
 11
-147.7510699091
 21
39.9999877898
  0
LINE
  5
23D
100
AcDbEntity
  8
0
100
AcDbLine
 62
7
  6
CONTINUOUS
 10
-128.6354337405
 20
-39.9999877898
 11
-147.7510699091
 21
-39.9999877898
  0
LINE
  5
23E
100
AcDbEntity
  8
0
100
AcDbLine
 62
7
  6
CONTINUOUS
 10
-146.2510699091
 20
39.9999877898
 11
-146.2510699091
 21
-0.0
  0
LINE
  5
23F
100
AcDbEntity
  8
0
100
AcDbLine
 62
7
  6
CONTINUOUS
 10
-146.2510699091
 20
-39.9999877898
 11
-146.2510699091
 21
-0.0
  0
INSERT
  5
240
100
AcDbEntity
  8
0
100
AcDbBlockReference
 62
7
  6
CONTINUOUS
  2
_FILLED
 10
-146.2510699091
 20
39.9999877898
 41
3.0
 42
3.0
 43
3.0
 50
90.0
  0
INSERT
  5
241
100
AcDbEntity
  8
0
100
AcDbBlockReference
 62
7
  6
CONTINUOUS
  2
_FILLED
 10
-146.2510699091
 20
-39.9999877898
 41
3.0
 42
3.0
 43
3.0
 50
270.0
  0
ENDBLK
  5
242
100
AcDbEntity
  8
0
  6
BYBLOCK
 62
0
100
AcDbBlockEnd
  0
ENDSEC
  0
SECTION
  2
ENTITIES
  0
DIMENSION
  5
243
100
AcDbEntity
  8
0
100
AcDbDimension
 62
7
  6
CONTINUOUS
  2
*D0
 10
103.05892912
 20
55.5
 11
-5.25
 21
55.5
 70
160
 71
2
 72
2
 41
0.9
 42
206.11785824
  3
DIMSTYLE_1
100
AcDbAlignedDimension
 13
-103.05892912
 23
37.041498446
 14
103.05892912
 24
37.041498446
100
AcDbRotatedDimension
  0
DIMENSION
  5
244
100
AcDbEntity
  8
0
100
AcDbDimension
 62
7
  6
CONTINUOUS
  2
*D1
 10
-127.9563508375
 20
55.5056691844
 11
-135.7778976034
 21
55.4960448616
 70
160
 71
2
 72
2
 41
0.9
 42
9.2153121924
  3
DIMSTYLE_1
100
AcDbAlignedDimension
 13
-137.1323967599
 23
23.5888747885
 14
-127.9354337405
 24
38.5066495637
 50
0.0705017585
100
AcDbRotatedDimension
  0
DIMENSION
  5
245
100
AcDbEntity
  8
0
100
AcDbDimension
 62
7
  6
CONTINUOUS
  2
*D2
 10
-146.2510699091
 20
-39.9999877898
 11
-146.2510699091
 21
-2.3571428571
 70
160
 71
2
 72
2
 41
0.9
 42
79.9999755795
  3
DIMSTYLE_2
100
AcDbAlignedDimension
 13
-128.1354337405
 23
39.9999877898
 14
-128.1354337405
 24
-39.9999877898
 50
270.0
100
AcDbRotatedDimension
  0
LINE
  5
246
100
AcDbEntity
  8
RACCORDO
100
AcDbLine
 62
7
  6
CONTINUOUS
 10
-103.05892912
 20
37.041498446
 11
-103.05892912
 21
3.9848721447
  0
LINE
  5
247
100
AcDbEntity
  8
RACCORDO
100
AcDbLine
 62
7
  6
CONTINUOUS
 10
-103.05892912
 20
-3.9848721447
 11
-103.05892912
 21
-37.041498446
  0
LINE
  5
248
100
AcDbEntity
  8
RACCORDO
100
AcDbLine
 62
7
  6
CONTINUOUS
 10
-102.9331504497
 20
3.2251006478
 11
-102.9331504497
 21
-3.2251006478
  0
LWPOLYLINE
  5
249
100
AcDbEntity
  8
SUPERFICI
100
AcDbPolyline
 62
7
  6
CONTINUOUS
 90
13
 70
0
 10
-78.9850916715
 20
-22.2248808178
 10
-78.9822182016
 20
-22.2694231858
 10
-78.9735887094
 20
-22.3134407732
 10
-78.9592639699
 20
-22.3561801181
 10
-78.9393820324
 20
-22.3969313199
 10
-78.914217359
 20
-22.4349147197
 10
-78.8842300794
 20
-22.469328139
 10
-78.8498839921
 20
-22.4995779513
 10
-78.8117805326
 20
-22.5250806133
 10
-78.7708069585
 20
-22.5452643243
 10
-78.7277883449
 20
-22.5598184118
 10
-78.6834104781
 20
-22.568601148
 10
-78.6384424532
 20
-22.5715300361
  0
LWPOLYLINE
  5
24A
100
AcDbEntity
  8
SUPERFICI
100
AcDbPolyline
 62
7
  6
CONTINUOUS
 90
16
 70
0
 10
-80.5740338012
 20
-22.235697173
 10
-80.5636509645
 20
-22.4326296399
 10
-80.5326479681
 20
-22.6302589199
 10
-80.4812423408
 20
-22.8253407605
 10
-80.4099742107
 20
-23.0139148779
 10
-80.3190880334
 20
-23.1936260606
 10
-80.2095895873
 20
-23.3636535693
 10
-80.0820451498
 20
-23.522529209
 10
-79.9388668622
 20
-23.6667755593
 10
-79.7802383485
 20
-23.7959803439
 10
-79.6087630033
 20
-23.9083096853
 10
-79.4259861171
 20
-24.001498117
 10
-79.2343326209
 20
-24.0743087305
 10
-79.036929863
 20
-24.1266146122
 10
-78.837403444
 20
-24.1581276475
 10
-78.6391021566
 20
-24.1686709627
  0
LWPOLYLINE
  5
24B
100
AcDbEntity
  8
SUPERFICI
100
AcDbPolyline
 62
7
  6
CONTINUOUS
 90
5
 70
0
 10
-82.2485280381
 20
-22.2182230635
 10
-82.2532421647
 20
-21.9406561342
 10
-82.2562552422
 20
-21.664988968
 10
-82.2577713705
 20
-21.3913618577
 10
-82.2577905343
 20
-21.1198066078
  0
LWPOLYLINE
  5
24C
100
AcDbEntity
  8
SUPERFICI
100
AcDbPolyline
 62
7
  6
CONTINUOUS
 90
7
 70
0
 10
-82.255541048
 20
-18.3998709546
 10
-82.2563269455
 20
-18.3308901814
 10
-82.2555116813
 20
-18.274235475
 10
-82.253879421
 20
-18.2222561267
 10
-82.2525255223
 20
-18.1651590265
 10
-82.2518073655
 20
-18.0996790126
 10
-82.2511631581
 20
-17.9533683283
  0
LWPOLYLINE
  5
24D
100
AcDbEntity
  8
SUPERFICI
100
AcDbPolyline
 62
7
  6
CONTINUOUS
 90
3
 70
0
 10
-82.2564637324
 20
20.8501344062
 10
-82.2496749341
 20
20.0517389636
 10
-82.2489014516
 20
19.7906610082
  0
LINE
  5
24E
100
AcDbEntity
  8
SUPERFICI
100
AcDbLine
 62
7
  6
CONTINUOUS
 10
-82.2520895662
 20
-17.2283029099
 11
-82.2563827527
 21
-16.4912943415
  0
LINE
  5
24F
100
AcDbEntity
  8
SUPERFICI
100
AcDbLine
 62
7
  6
CONTINUOUS
 10
-82.2518073655
 20
18.0996790126
 11
-82.2511631581
 21
17.9533683283
  0
LINE
  5
250
100
AcDbEntity
  8
SUPERFICI
100
AcDbLine
 62
7
  6
CONTINUOUS
 10
-82.2511631581
 20
-17.9533683283
 11
-82.2520895662
 21
-17.2283029099
  0
LINE
  5
251
100
AcDbEntity
  8
SUPERFICI
100
AcDbLine
 62
7
  6
CONTINUOUS
 10
-80.5740338012
 20
-22.235697173
 11
-80.5740338012
 21
22.235697173
  0
LINE
  5
252
100
AcDbEntity
  8
SUPERFICI
100
AcDbLine
 62
7
  6
CONTINUOUS
 10
-82.2569159727
 20
16.242787947
 11
-82.2548733103
 21
14.4969094241
  0
LINE
  5
253
100
AcDbEntity
  8
SUPERFICI
100
AcDbLine
 62
7
  6
CONTINUOUS
 10
-82.2563827527
 20
-16.4912943415
 11
-82.2569414002
 21
-15.7419314932
  0
LWPOLYLINE
  5
254
100
AcDbEntity
  8
SUPERFICI
100
AcDbPolyline
 62
7
  6
CONTINUOUS
 90
18
 70
0
 10
-82.2489014603
 20
-19.7906610117
 10
-82.2497879245
 20
-19.3735964602
 10
-82.2486786281
 20
-19.3012867977
 10
-82.2471466255
 20
-19.2263441124
 10
-82.2466415262
 20
-19.1579133119
 10
-82.2484421458
 20
-19.1025939963
 10
-82.2513270403
 20
-19.0537869985
 10
-82.2529989173
 20
-19.0008396043
 10
-82.2519172551
 20
-18.9366900259
 10
-82.2495818211
 20
-18.8684088215
 10
-82.2482643319
 20
-18.8065379259
 10
-82.2492837821
 20
-18.7565244954
 10
-82.2513662256
 20
-18.7129167646
 10
-82.2529136246
 20
-18.6699047036
 10
-82.2530604756
 20
-18.628587234
 10
-82.2526697178
 20
-18.5878708562
 10
-82.2527147271
 20
-18.5386558267
 10
-82.255541048
 20
-18.3998709546
  0
LINE
  5
255
100
AcDbEntity
  8
SUPERFICI
100
AcDbLine
 62
7
  6
CONTINUOUS
 10
-82.2511631581
 20
17.9533683283
 11
-82.2520895662
 21
17.2283029099
  0
LINE
  5
256
100
AcDbEntity
  8
SUPERFICI
100
AcDbLine
 62
7
  6
CONTINUOUS
 10
-82.2548733103
 20
14.4969094241
 11
-82.2581207305
 21
11.9488570462
  0
LWPOLYLINE
  5
257
100
AcDbEntity
  8
SUPERFICI
100
AcDbPolyline
 62
7
  6
CONTINUOUS
 90
3
 70
0
 10
-82.25694139
 20
-15.7419315048
 10
-82.2558449073
 20
-15.3290532014
 10
-82.2581207305
 20
-11.9488570462
  0
LINE
  5
258
100
AcDbEntity
  8
SUPERFICI
100
AcDbLine
 62
7
  6
CONTINUOUS
 10
-82.2496749341
 20
-20.0517389636
 11
-82.2489014516
 21
-19.7906610082
  0
LWPOLYLINE
  5
259
100
AcDbEntity
  8
SUPERFICI
100
AcDbPolyline
 62
7
  6
CONTINUOUS
 90
18
 70
0
 10
-82.2489014603
 20
19.7906610117
 10
-82.2498680417
 20
19.4381168762
 10
-82.2497879245
 20
19.3735964602
 10
-82.2486786281
 20
19.3012867977
 10
-82.2471466255
 20
19.2263441124
 10
-82.2466415262
 20
19.1579133119
 10
-82.2484421458
 20
19.1025939963
 10
-82.2513270403
 20
19.0537869985
 10
-82.2529989173
 20
19.0008396043
 10
-82.2519172551
 20
18.9366900259
 10
-82.2495818211
 20
18.8684088215
 10
-82.2482643319
 20
18.8065379259
 10
-82.2492837821
 20
18.7565244954
 10
-82.2513662256
 20
18.7129167646
 10
-82.2529136246
 20
18.6699047036
 10
-82.2530604756
 20
18.628587234
 10
-82.2526697178
 20
18.5878708562
 10
-82.2527147271
 20
18.5386558267
  0
LINE
  5
25A
100
AcDbEntity
  8
SUPERFICI
100
AcDbLine
 62
7
  6
CONTINUOUS
 10
-82.2520895662
 20
17.2283029099
 11
-82.2569159727
 21
16.242787947
  0
LINE
  5
25B
100
AcDbEntity
  8
SUPERFICI
100
AcDbLine
 62
7
  6
CONTINUOUS
 10
-82.2577905343
 20
-21.1198066078
 11
-82.2496749341
 21
-20.0517389636
  0
LWPOLYLINE
  5
25C
100
AcDbEntity
  8
SUPERFICI
100
AcDbPolyline
 62
7
  6
CONTINUOUS
 90
6
 70
0
 10
-82.2485280381
 20
22.2182230635
 10
-82.2532421647
 20
21.9406561342
 10
-82.2562552422
 20
21.664988968
 10
-82.2577713705
 20
21.3913618577
 10
-82.2577905343
 20
21.1198066078
 10
-82.2564637324
 20
20.8501344062
  0
LWPOLYLINE
  5
25D
100
AcDbEntity
  8
SUPERFICI
100
AcDbPolyline
 62
7
  6
CONTINUOUS
 90
7
 70
0
 10
-82.2527147271
 20
18.5386558267
 10
-82.255541048
 20
18.3998709546
 10
-82.2563269455
 20
18.3308901814
 10
-82.2555116813
 20
18.274235475
 10
-82.253879421
 20
18.2222561267
 10
-82.2525255223
 20
18.1651590265
 10
-82.2518073655
 20
18.0996790126
  0
LWPOLYLINE
  5
25E
100
AcDbEntity
  8
SUPERFICI
100
AcDbPolyline
 62
7
  6
CONTINUOUS
 90
16
 70
0
 10
-80.5740338012
 20
22.235697173
 10
-80.5636509645
 20
22.4326296399
 10
-80.5326479681
 20
22.6302589199
 10
-80.4812423408
 20
22.8253407605
 10
-80.4099742107
 20
23.0139148779
 10
-80.3190880334
 20
23.1936260606
 10
-80.2095895873
 20
23.3636535693
 10
-80.0820451498
 20
23.522529209
 10
-79.9388668622
 20
23.6667755593
 10
-79.7802383485
 20
23.7959803439
 10
-79.6087630033
 20
23.9083096853
 10
-79.4259861171
 20
24.001498117
 10
-79.2343326209
 20
24.0743087305
 10
-79.036929863
 20
24.1266146122
 10
-78.837403444
 20
24.1581276475
 10
-78.6391021566
 20
24.1686709627
  0
LWPOLYLINE
  5
25F
100
AcDbEntity
  8
SUPERFICI
100
AcDbPolyline
 62
7
  6
CONTINUOUS
 90
13
 70
0
 10
-78.9850916715
 20
22.2248808178
 10
-78.9822182016
 20
22.2694231858
 10
-78.9735887094
 20
22.3134407732
 10
-78.9592639699
 20
22.3561801181
 10
-78.9393820324
 20
22.3969313199
 10
-78.914217359
 20
22.4349147197
 10
-78.8842300794
 20
22.469328139
 10
-78.8498839921
 20
22.4995779513
 10
-78.8117805326
 20
22.5250806133
 10
-78.7708069585
 20
22.5452643243
 10
-78.7277883449
 20
22.5598184118
 10
-78.6834104781
 20
22.568601148
 10
-78.6384424532
 20
22.5715300361
  0
LWPOLYLINE
  5
260
100
AcDbEntity
  8
SUPERFICI
100
AcDbPolyline
 62
7
  6
CONTINUOUS
 90
10
 70
0
 10
-82.0613346938
 20
23.3261887012
 10
-82.0993169258
 20
23.2183067448
 10
-82.1317459499
 20
23.105928724
 10
-82.159529614
 20
22.989483875
 10
-82.1840949643
 20
22.8695488327
 10
-82.20587691
 20
22.7464328038
 10
-82.2235728772
 20
22.6198486651
 10
-82.2365036857
 20
22.4896133746
 10
-82.2448875618
 20
22.3557527915
 10
-82.2485280381
 20
22.2182230635
  0
LINE
  5
261
100
AcDbEntity
  8
RACCORDO
100
AcDbLine
 62
7
  6
CONTINUOUS
 10
-102.9475024918
 20
-3.5239590572
 11
-103.0445770779
 21
-3.6860137352
  0
LINE
  5
262
100
AcDbEntity
  8
RACCORDO
100
AcDbLine
 62
7
  6
CONTINUOUS
 10
-103.0445770779
 20
3.6860137352
 11
-102.9475024918
 21
3.5239590572
  0
LWPOLYLINE
  5
263
100
AcDbEntity
  8
SUPERFICI
100
AcDbPolyline
 62
7
  6
CONTINUOUS
 90
10
 70
0
 10
-82.0613346938
 20
-23.3261887012
 10
-82.0993169258
 20
-23.2183067448
 10
-82.1317459499
 20
-23.105928724
 10
-82.159529614
 20
-22.989483875
 10
-82.1840949643
 20
-22.8695488327
 10
-82.20587691
 20
-22.7464328038
 10
-82.2235728772
 20
-22.6198486651
 10
-82.2365036857
 20
-22.4896133746
 10
-82.2448875618
 20
-22.3557527915
 10
-82.2485280381
 20
-22.2182230635
  0
LWPOLYLINE
  5
264
100
AcDbEntity
  8
SUPERFICI
100
AcDbPolyline
 62
7
  6
CONTINUOUS
 90
4
 70
0
 10
-78.6401483181
 20
22.6401122897
 10
-78.6395989753
 20
22.6034863701
 10
-78.6390293126
 20
22.580572768
 10
-78.6384437412
 20
22.5715300352
  0
LINE
  5
265
100
AcDbEntity
  8
SUPERFICI
100
AcDbLine
 62
7
  6
CONTINUOUS
 10
-78.6411665114
 20
22.7532739047
 11
-78.6401483181
 21
22.6401122897
  0
LINE
  5
266
100
AcDbEntity
  8
SUPERFICI
100
AcDbLine
 62
7
  6
CONTINUOUS
 10
-78.6429687425
 20
23.2387036887
 11
-78.6411665114
 21
22.7532739047
  0
LINE
  5
267
100
AcDbEntity
  8
0
100
AcDbLine
 62
7
  6
CONTINUOUS
 10
-78.975960662
 20
-22.2248814843
 11
-78.975960662
 21
22.2248814843
  0
LINE
  5
268
100
AcDbEntity
  8
0
100
AcDbLine
 62
7
  6
CONTINUOUS
 10
-78.9602509706
 20
22.2248821058
 11
-78.9602509706
 21
2.5
  0
LINE
  5
269
100
AcDbEntity
  8
0
100
AcDbLine
 62
7
  6
CONTINUOUS
 10
-78.9602509706
 20
-2.5
 11
-78.9602509706
 21
-22.2248821058
  0
LINE
  5
26A
100
AcDbEntity
  8
SUPERFICI
100
AcDbLine
 62
7
  6
CONTINUOUS
 10
-78.6431718278
 20
-23.3839365803
 11
-78.6423012167
 21
-24.1674297575
  0
LWPOLYLINE
  5
26B
100
AcDbEntity
  8
SUPERFICI
100
AcDbPolyline
 62
7
  6
CONTINUOUS
 90
3
 70
0
 10
-78.6423012167
 20
24.1674297575
 10
-78.6426325611
 20
24.067076264
 10
-78.6429687425
 20
23.2387036887
  0
LINE
  5
26C
100
AcDbEntity
  8
SUPERFICI
100
AcDbLine
 62
7
  6
CONTINUOUS
 10
-78.6417024389
 20
-22.8436910315
 11
-78.6431718278
 21
-23.3839365803
  0
LWPOLYLINE
  5
26D
100
AcDbEntity
  8
SUPERFICI
100
AcDbPolyline
 62
7
  6
CONTINUOUS
 90
5
 70
0
 10
-78.6384437412
 20
-22.5715300352
 10
-78.6390403119
 20
-22.5808795759
 10
-78.6396229037
 20
-22.6047728565
 10
-78.6401863476
 20
-22.6432211378
 10
-78.6417024389
 20
-22.8436910315
  0
LWPOLYLINE
  5
26E
100
AcDbEntity
  8
SUPERFICI
100
AcDbPolyline
 62
7
  6
CONTINUOUS
 90
10
 70
0
 10
-81.3349673294
 20
24.5345205694
 10
-81.4451814119
 20
24.4084530136
 10
-81.5480960824
 20
24.2803453273
 10
-81.6432903368
 20
24.1502462099
 10
-81.7303477624
 20
24.018727792
 10
-81.8099058971
 20
23.885776989
 10
-81.8826993281
 20
23.7503442528
 10
-81.9487172465
 20
23.6113948691
 10
-82.008109983
 20
23.4697743926
 10
-82.0613346936
 20
23.3261887011
  0
LWPOLYLINE
  5
26F
100
AcDbEntity
  8
SUPERFICI
100
AcDbPolyline
 62
7
  6
CONTINUOUS
 90
10
 70
0
 10
-81.3349673294
 20
-24.5345205694
 10
-81.4451814119
 20
-24.4084530136
 10
-81.5480960824
 20
-24.2803453273
 10
-81.6432903368
 20
-24.1502462099
 10
-81.7303477624
 20
-24.018727792
 10
-81.8099058971
 20
-23.885776989
 10
-81.8826993281
 20
-23.7503442528
 10
-81.9487172465
 20
-23.6113948691
 10
-82.008109983
 20
-23.4697743926
 10
-82.0613346936
 20
-23.3261887011
  0
LINE
  5
270
100
AcDbEntity
  8
0
100
AcDbLine
 62
7
  6
CONTINUOUS
 10
-70.0
 20
22.5623990265
 11
-70.0
 21
22.5466893352
  0
LINE
  5
271
100
AcDbEntity
  8
0
100
AcDbLine
 62
7
  6
CONTINUOUS
 10
-70.0
 20
-22.5466893352
 11
-70.0
 21
-22.5623990265
  0
LINE
  5
272
100
AcDbEntity
  8
0
100
AcDbLine
 62
7
  6
CONTINUOUS
 10
-65.0
 20
-22.5623990265
 11
-65.0
 21
-22.5466893352
  0
LINE
  5
273
100
AcDbEntity
  8
0
100
AcDbLine
 62
7
  6
CONTINUOUS
 10
-65.0
 20
22.5466893352
 11
-65.0
 21
22.5623990265
  0
LWPOLYLINE
  5
274
100
AcDbEntity
  8
SUPERFICI
100
AcDbPolyline
 62
7
  6
CONTINUOUS
 90
10
 70
0
 10
-80.9801561869
 20
24.8694480602
 10
-81.0232988398
 20
24.8334243143
 10
-81.065510536
 20
24.7969618983
 10
-81.1067969195
 20
24.7601530159
 10
-81.1471351988
 20
24.7231231158
 10
-81.1865603649
 20
24.6859234574
 10
-81.2251225195
 20
24.6484834918
 10
-81.2627761404
 20
24.610759535
 10
-81.2994178347
 20
24.572776771
 10
-81.3349733752
 20
24.5345242889
  0
LWPOLYLINE
  5
275
100
AcDbEntity
  8
SUPERFICI
100
AcDbPolyline
 62
7
  6
CONTINUOUS
 90
10
 70
0
 10
-80.9801561869
 20
-24.8694480602
 10
-81.0232988398
 20
-24.8334243143
 10
-81.065510536
 20
-24.7969618983
 10
-81.1067969195
 20
-24.7601530159
 10
-81.1471351988
 20
-24.7231231158
 10
-81.1865603649
 20
-24.6859234574
 10
-81.2251225195
 20
-24.6484834918
 10
-81.2627761404
 20
-24.610759535
 10
-81.2994178347
 20
-24.572776771
 10
-81.3349733752
 20
-24.5345242889
  0
LINE
  5
276
100
AcDbEntity
  8
0
100
AcDbLine
 62
7
  6
CONTINUOUS
 10
-47.5
 20
22.5623990265
 11
-47.5
 21
22.5466893352
  0
LINE
  5
277
100
AcDbEntity
  8
0
100
AcDbLine
 62
7
  6
CONTINUOUS
 10
-47.5
 20
-22.5466893352
 11
-47.5
 21
-22.5623990265
  0
LINE
  5
278
100
AcDbEntity
  8
SUPERFICI
100
AcDbLine
 62
7
  6
CONTINUOUS
 10
-43.0446020018
 20
35.805214626
 11
-43.044602572
 21
31.5700997936
  0
LINE
  5
279
100
AcDbEntity
  8
SUPERFICI
100
AcDbLine
 62
7
  6
CONTINUOUS
 10
-43.0446022913
 20
-31.5701269947
 11
-43.0446022934
 21
-35.8049943062
  0
LINE
  5
27A
100
AcDbEntity
  8
0
100
AcDbLine
 62
7
  6
CONTINUOUS
 10
-42.5
 20
-22.5623990265
 11
-42.5
 21
-22.5466893352
  0
LINE
  5
27B
100
AcDbEntity
  8
0
100
AcDbLine
 62
7
  6
CONTINUOUS
 10
-42.5
 20
22.5466893352
 11
-42.5
 21
22.5623990265
  0
LWPOLYLINE
  5
27C
100
AcDbEntity
  8
0
100
AcDbPolyline
 62
7
  6
CONTINUOUS
 90
10
 70
0
 43
0.3500000006
 10
0.5357142924
 20
59.2499996338
 10
-0.1071428532
 20
58.6071461792
 10
-0.5357142924
 20
57.749999176
 10
-0.5357142924
 20
56.678567688
 10
-0.1071428532
 20
56.2499987183
 10
0.5357142924
 20
56.2499987183
 10
0.9642857051
 20
56.678567688
 10
0.9642857051
 20
57.5357146912
 10
0.5357142924
 20
57.9642836609
 10
-0.3928571312
 20
57.9642836609
  0
LWPOLYLINE
  5
27D
100
AcDbEntity
  8
SUPERFICI
100
AcDbPolyline
 62
7
  6
CONTINUOUS
 90
10
 70
0
 10
-79.5860989189
 20
25.5789396446
 10
-79.7582385136
 20
25.5288087107
 10
-79.9258885521
 20
25.4718696786
 10
-80.0889316205
 20
25.408053547
 10
-80.2464833359
 20
25.3373963756
 10
-80.3991840326
 20
25.2596744787
 10
-80.5490828287
 20
25.1742456473
 10
-80.6966006411
 20
25.0805666496
 10
-80.8404907883
 20
24.9788523537
 10
-80.980158463
 20
24.8694495148
  0
LINE
  5
27E
100
AcDbEntity
  8
0
100
AcDbLine
 62
7
  6
CONTINUOUS
 10
-100.1004434766
 20
-39.9999840706
 11
100.1004434766
 21
-39.9999840706
  0
LWPOLYLINE
  5
27F
100
AcDbEntity
  8
SUPERFICI
100
AcDbPolyline
 62
7
  6
CONTINUOUS
 90
10
 70
0
 10
-79.5860989189
 20
-25.5789396446
 10
-79.7582385136
 20
-25.5288087107
 10
-79.9258885521
 20
-25.4718696786
 10
-80.0889316205
 20
-25.408053547
 10
-80.2464833359
 20
-25.3373963756
 10
-80.3991840326
 20
-25.2596744787
 10
-80.5490828287
 20
-25.1742456473
 10
-80.6966006411
 20
-25.0805666496
 10
-80.8404907883
 20
-24.9788523537
 10
-80.980158463
 20
-24.8694495148
  0
LWPOLYLINE
  5
280
100
AcDbEntity
  8
0
100
AcDbPolyline
 62
7
  6
CONTINUOUS
 90
3
 70
0
 43
0.3500000006
 10
3.5357143936
 20
58.3928526306
 10
4.3928571482
 20
59.2499996338
 10
4.3928571482
 20
56.2499987183
  0
LINE
  5
281
100
AcDbEntity
  8
0
100
AcDbLine
 62
7
  6
CONTINUOUS
 10
-25.0
 20
22.5623990265
 11
-25.0
 21
22.5466893352
  0
LINE
  5
282
100
AcDbEntity
  8
0
100
AcDbLine
 62
7
  6
CONTINUOUS
 10
-25.0
 20
-22.5466893352
 11
-25.0
 21
-22.5623990265
  0
LWPOLYLINE
  5
283
100
AcDbEntity
  8
SUPERFICI
100
AcDbPolyline
 62
7
  6
CONTINUOUS
 90
10
 70
0
 10
78.6292303322
 20
-25.7057117297
 10
78.7316203646
 20
-25.704154286
 10
78.8350900857
 20
-25.6996694262
 10
78.9395683692
 20
-25.6921604216
 10
79.0448629273
 20
-25.6814963227
 10
79.1510091972
 20
-25.6676156382
 10
79.2582682542
 20
-25.6505170432
 10
79.3666618376
 20
-25.6301255403
 10
79.4759740598
 20
-25.6063018746
 10
79.5860989199
 20
-25.5789396453
  0
LWPOLYLINE
  5
284
100
AcDbEntity
  8
SUPERFICI
100
AcDbPolyline
 62
7
  6
CONTINUOUS
 90
4
 70
0
 10
76.8877643375
 20
-25.7113062299
 10
77.0612808052
 20
-25.7098261377
 10
77.2397755017
 20
-25.7068812087
 10
77.4231798139
 20
-25.7050784969
  0
LINE
  5
285
100
AcDbEntity
  8
SUPERFICI
100
AcDbLine
 62
7
  6
CONTINUOUS
 10
76.8889945089
 20
-25.7111993911
 11
73.5589606895
 21
-25.7215567292
  0
LINE
  5
286
100
AcDbEntity
  8
SUPERFICI
100
AcDbLine
 62
7
  6
CONTINUOUS
 10
73.5589606895
 20
-25.7215567292
 11
70.2894669679
 21
-25.7269433413
  0
LINE
  5
287
100
AcDbEntity
  8
SUPERFICI
100
AcDbLine
 62
7
  6
CONTINUOUS
 10
77.4231798139
 20
-25.7050784969
 11
77.8045427785
 21
-25.7040398102
  0
LINE
  5
288
100
AcDbEntity
  8
SUPERFICI
100
AcDbLine
 62
7
  6
CONTINUOUS
 10
43.0446022927
 20
-24.1674297575
 11
78.6391021566
 21
-24.1686709627
  0
LINE
  5
289
100
AcDbEntity
  8
SUPERFICI
100
AcDbLine
 62
7
  6
CONTINUOUS
 10
-43.0446022927
 20
-24.1674297575
 11
-78.6391021566
 21
-24.1686709627
  0
LINE
  5
28A
100
AcDbEntity
  8
SUPERFICI
100
AcDbLine
 62
7
  6
CONTINUOUS
 10
70.2894669679
 20
-25.7269433413
 11
43.044602294
 21
-25.7265213799
  0
LINE
  5
28B
100
AcDbEntity
  8
SUPERFICI
100
AcDbLine
 62
7
  6
CONTINUOUS
 10
-76.1272128331
 20
-25.7264531299
 11
43.0446022927
 21
-25.7265524471
  0
LWPOLYLINE
  5
28C
100
AcDbEntity
  8
SUPERFICI
100
AcDbPolyline
 62
7
  6
CONTINUOUS
 90
3
 70
0
 10
77.8045427785
 20
-25.7040398102
 10
78.2064723591
 20
-25.7048380464
 10
78.6292303322
 20
-25.7057117297
  0
LINE
  5
28D
100
AcDbEntity
  8
SUPERFICI
100
AcDbLine
 62
7
  6
CONTINUOUS
 10
-76.8889945089
 20
-25.7111993911
 11
-76.1275887139
 21
-25.7137784747
  0
LWPOLYLINE
  5
28E
100
AcDbEntity
  8
SUPERFICI
100
AcDbPolyline
 62
7
  6
CONTINUOUS
 90
6
 70
0
 10
-76.8877643375
 20
-25.7113062299
 10
-77.0612808052
 20
-25.7098261377
 10
-77.2397755017
 20
-25.7068812087
 10
-77.4231798139
 20
-25.7050784969
 10
-77.6114036459
 20
-25.7042091628
 10
-78.6292303322
 20
-25.7057117297
  0
LWPOLYLINE
  5
28F
100
AcDbEntity
  8
SUPERFICI
100
AcDbPolyline
 62
7
  6
CONTINUOUS
 90
10
 70
0
 10
-78.6292303322
 20
-25.7057117297
 10
-78.7316203646
 20
-25.704154286
 10
-78.8350900857
 20
-25.6996694262
 10
-78.9395683692
 20
-25.6921604216
 10
-79.0448629273
 20
-25.6814963227
 10
-79.1510091972
 20
-25.6676156382
 10
-79.2582682542
 20
-25.6505170432
 10
-79.3666618376
 20
-25.6301255403
 10
-79.4759740598
 20
-25.6063018746
 10
-79.5860989199
 20
-25.5789396453
  0
LINE
  5
290
100
AcDbEntity
  8
0
100
AcDbLine
 62
7
  6
CONTINUOUS
 10
-20.0
 20
-22.5623990265
 11
-20.0
 21
-22.5466893352
  0
LINE
  5
291
100
AcDbEntity
  8
0
100
AcDbLine
 62
7
  6
CONTINUOUS
 10
-20.0
 20
22.5466893352
 11
-20.0
 21
22.5623990265
  0
LWPOLYLINE
  5
292
100
AcDbEntity
  8
0
100
AcDbPolyline
 62
7
  6
CONTINUOUS
 90
3
 70
0
 43
0.3500000006
 10
2.5357143717
 20
56.535714386
 10
2.464285738
 20
56.3214299011
 10
2.3214286122
 20
56.0357142334
  0
LINE
  5
293
100
AcDbEntity
  8
SUPERFICI
100
AcDbLine
 62
7
  6
CONTINUOUS
 10
-79.1757162255
 20
-22.2326319039
 11
-79.3466056573
 21
-22.2350937226
  0
LINE
  5
294
100
AcDbEntity
  8
SUPERFICI
100
AcDbLine
 62
7
  6
CONTINUOUS
 10
-79.3466056573
 20
-22.2350937226
 11
-79.6729574344
 21
-22.2375866251
  0
LINE
  5
295
100
AcDbEntity
  8
SUPERFICI
100
AcDbLine
 62
7
  6
CONTINUOUS
 10
80.5740338012
 20
-22.235697173
 11
80.2534897658
 21
-22.2378656003
  0
LINE
  5
296
100
AcDbEntity
  8
SUPERFICI
100
AcDbLine
 62
7
  6
CONTINUOUS
 10
-79.6729574344
 20
-22.2375866251
 11
-80.0307366694
 21
-22.2383288292
  0
LINE
  5
297
100
AcDbEntity
  8
0
100
AcDbLine
 62
7
  6
CONTINUOUS
 10
78.6384431197
 20
-22.5623990265
 11
-78.6384431198
 21
-22.5623990265
  0
LINE
  5
298
100
AcDbEntity
  8
0
100
AcDbLine
 62
7
  6
CONTINUOUS
 10
-78.6384437412
 20
-22.5466893352
 11
-70.0
 21
-22.5466893352
  0
LINE
  5
299
100
AcDbEntity
  8
0
100
AcDbLine
 62
7
  6
CONTINUOUS
 10
-65.0
 20
-22.5466893352
 11
-47.5
 21
-22.5466893352
  0
LINE
  5
29A
100
AcDbEntity
  8
0
100
AcDbLine
 62
7
  6
CONTINUOUS
 10
-42.5
 20
-22.5466893352
 11
-25.0
 21
-22.5466893352
  0
LINE
  5
29B
100
AcDbEntity
  8
0
100
AcDbLine
 62
7
  6
CONTINUOUS
 10
-20.0
 20
-22.5466893352
 11
-2.5
 21
-22.5466893352
  0
LINE
  5
29C
100
AcDbEntity
  8
0
100
AcDbLine
 62
7
  6
CONTINUOUS
 10
2.5
 20
-22.5466893352
 11
20.0
 21
-22.5466893352
  0
LINE
  5
29D
100
AcDbEntity
  8
0
100
AcDbLine
 62
7
  6
CONTINUOUS
 10
25.0
 20
-22.5466893352
 11
42.5
 21
-22.5466893352
  0
LINE
  5
29E
100
AcDbEntity
  8
0
100
AcDbLine
 62
7
  6
CONTINUOUS
 10
47.5
 20
-22.5466893352
 11
65.0
 21
-22.5466893352
  0
LINE
  5
29F
100
AcDbEntity
  8
0
100
AcDbLine
 62
7
  6
CONTINUOUS
 10
70.0
 20
-22.5466893352
 11
78.6384437412
 21
-22.5466893352
  0
LINE
  5
2A0
100
AcDbEntity
  8
SUPERFICI
100
AcDbLine
 62
7
  6
CONTINUOUS
 10
80.2534897658
 20
-22.2378656003
 11
79.8906425787
 21
-22.2382540123
  0
LINE
  5
2A1
100
AcDbEntity
  8
SUPERFICI
100
AcDbLine
 62
7
  6
CONTINUOUS
 10
-80.0307366694
 20
-22.2383288292
 11
-80.3709837211
 21
-22.2373036944
  0
LINE
  5
2A2
100
AcDbEntity
  8
SUPERFICI
100
AcDbLine
 62
7
  6
CONTINUOUS
 10
79.8906425787
 20
-22.2382540123
 11
79.5331700575
 21
-22.2367728549
  0
LINE
  5
2A3
100
AcDbEntity
  8
SUPERFICI
100
AcDbLine
 62
7
  6
CONTINUOUS
 10
-80.3709837211
 20
-22.2373036944
 11
-80.5740338012
 21
-22.235697173
  0
LINE
  5
2A4
100
AcDbEntity
  8
SUPERFICI
100
AcDbLine
 62
7
  6
CONTINUOUS
 10
79.5331700575
 20
-22.2367728549
 11
79.3278462756
 21
-22.2348770246
  0
LWPOLYLINE
  5
2A5
100
AcDbEntity
  8
SUPERFICI
100
AcDbPolyline
 62
7
  6
CONTINUOUS
 90
7
 70
0
 10
79.3278462756
 20
-22.2348770246
 10
79.1654985592
 20
-22.2324390427
 10
79.1028564492
 20
-22.2310664933
 10
79.053164812
 20
-22.2296107972
 10
79.016813052
 20
-22.2280861945
 10
78.9940705406
 20
-22.2265059031
 10
78.9850916706
 20
-22.2248821058
  0
LWPOLYLINE
  5
2A6
100
AcDbEntity
  8
SUPERFICI
100
AcDbPolyline
 62
7
  6
CONTINUOUS
 90
6
 70
0
 10
-78.9850916706
 20
-22.2248821058
 10
-78.994374533
 20
-22.2265363551
 10
-79.0180862097
 20
-22.2281523992
 10
-79.0562390485
 20
-22.2297159838
 10
-79.1089250865
 20
-22.2312170186
 10
-79.1757162255
 20
-22.2326319039
  0
LINE
  5
2A7
100
AcDbEntity
  8
SUPERFICI
100
AcDbLine
 62
7
  6
CONTINUOUS
 10
-80.5736137956
 20
-11.9488343537
 11
-82.258114556
 21
-11.9494069796
  0
LINE
  5
2A8
100
AcDbEntity
  8
SUPERFICI
100
AcDbLine
 62
7
  6
CONTINUOUS
 10
80.5736137956
 20
-11.9488343537
 11
82.258114556
 21
-11.9494069796
  0
LWPOLYLINE
  5
2A9
100
AcDbEntity
  8
0
100
AcDbPolyline
 62
7
  6
CONTINUOUS
 90
13
 70
0
 43
0.3500000006
 10
-2.8928572569
 20
57.1071457214
 10
-2.8928572569
 20
58.3928526306
 10
-2.6785713558
 20
58.8214306641
 10
-2.2499999785
 20
59.2499996338
 10
-2.0357142191
 20
59.2499996338
 10
-1.6071428418
 20
58.8214306641
 10
-1.3928570824
 20
58.3928526306
 10
-1.3928570824
 20
57.1071457214
 10
-1.6071428418
 20
56.678567688
 10
-2.0357142191
 20
56.2499987183
 10
-2.2499999785
 20
56.2499987183
 10
-2.6785713558
 20
56.678567688
 10
-2.8928572569
 20
57.1071457214
  0
LINE
  5
2AA
100
AcDbEntity
  8
0
100
AcDbLine
 62
7
  6
CONTINUOUS
 10
-2.5
 20
22.5623990265
 11
-2.5
 21
22.5466893352
  0
LINE
  5
2AB
100
AcDbEntity
  8
0
100
AcDbLine
 62
7
  6
CONTINUOUS
 10
-2.5
 20
-22.5466893352
 11
-2.5
 21
-22.5623990265
  0
LINE
  5
2AC
100
AcDbEntity
  8
SUPERFICI
100
AcDbLine
 62
7
  6
CONTINUOUS
 10
0.0
 20
-25.726552409
 11
0.0
 21
-39.1060423705
  0
LINE
  5
2AD
100
AcDbEntity
  8
SUPERFICI
100
AcDbLine
 62
7
  6
CONTINUOUS
 10
-0.0
 20
25.726552409
 11
-0.0
 21
39.1060423714
  0
LINE
  5
2AE
100
AcDbEntity
  8
0
100
AcDbLine
 62
7
  6
CONTINUOUS
 10
-78.975960662
 20
-2.5
 11
-78.9602509706
 21
-2.5
  0
LINE
  5
2AF
100
AcDbEntity
  8
0
100
AcDbLine
 62
7
  6
CONTINUOUS
 10
78.9602509706
 20
-2.5
 11
78.975960662
 21
-2.5
  0
LINE
  5
2B0
100
AcDbEntity
  8
0
100
AcDbLine
 62
7
  6
CONTINUOUS
 10
2.5
 20
-22.5623990265
 11
2.5
 21
-22.5466893352
  0
LINE
  5
2B1
100
AcDbEntity
  8
0
100
AcDbLine
 62
7
  6
CONTINUOUS
 10
2.5
 20
22.5466893352
 11
2.5
 21
22.5623990265
  0
LWPOLYLINE
  5
2B2
100
AcDbEntity
  8
SUPERFICI
100
AcDbPolyline
 62
7
  6
CONTINUOUS
 90
6
 70
0
 10
78.9850916706
 20
22.2248821058
 10
78.994374533
 20
22.2265363551
 10
79.0180862097
 20
22.2281523992
 10
79.0562390485
 20
22.2297159838
 10
79.1089250865
 20
22.2312170186
 10
79.1757162255
 20
22.2326319039
  0
LINE
  5
2B3
100
AcDbEntity
  8
0
100
AcDbLine
 62
7
  6
CONTINUOUS
 10
78.975960662
 20
2.5
 11
78.9602509706
 21
2.5
  0
LINE
  5
2B4
100
AcDbEntity
  8
0
100
AcDbLine
 62
7
  6
CONTINUOUS
 10
-78.9602509706
 20
2.5
 11
-78.975960662
 21
2.5
  0
LINE
  5
2B5
100
AcDbEntity
  8
SUPERFICI
100
AcDbLine
 62
7
  6
CONTINUOUS
 10
80.5736137956
 20
11.9488343537
 11
82.258114556
 21
11.9494069796
  0
LINE
  5
2B6
100
AcDbEntity
  8
SUPERFICI
100
AcDbLine
 62
7
  6
CONTINUOUS
 10
-80.5736137956
 20
11.9488343537
 11
-82.258114556
 21
11.9494069796
  0
LINE
  5
2B7
100
AcDbEntity
  8
0
100
AcDbLine
 62
7
  6
CONTINUOUS
 10
20.0
 20
22.5623990265
 11
20.0
 21
22.5466893352
  0
LINE
  5
2B8
100
AcDbEntity
  8
0
100
AcDbLine
 62
7
  6
CONTINUOUS
 10
20.0
 20
-22.5466893352
 11
20.0
 21
-22.5623990265
  0
LINE
  5
2B9
100
AcDbEntity
  8
0
100
AcDbLine
 62
7
  6
CONTINUOUS
 10
25.0
 20
-22.5623990265
 11
25.0
 21
-22.5466893352
  0
LINE
  5
2BA
100
AcDbEntity
  8
0
100
AcDbLine
 62
7
  6
CONTINUOUS
 10
25.0
 20
22.5466893352
 11
25.0
 21
22.5623990265
  0
LINE
  5
2BB
100
AcDbEntity
  8
SUPERFICI
100
AcDbLine
 62
7
  6
CONTINUOUS
 10
79.1757162255
 20
22.2326319039
 11
79.3466056573
 21
22.2350937226
  0
LINE
  5
2BC
100
AcDbEntity
  8
SUPERFICI
100
AcDbLine
 62
7
  6
CONTINUOUS
 10
79.3466056573
 20
22.2350937226
 11
79.6729574344
 21
22.2375866251
  0
LINE
  5
2BD
100
AcDbEntity
  8
SUPERFICI
100
AcDbLine
 62
7
  6
CONTINUOUS
 10
-80.5740338012
 20
22.235697173
 11
-80.2534897658
 21
22.2378656003
  0
LINE
  5
2BE
100
AcDbEntity
  8
SUPERFICI
100
AcDbLine
 62
7
  6
CONTINUOUS
 10
79.6729574344
 20
22.2375866251
 11
80.0307366694
 21
22.2383288292
  0
LINE
  5
2BF
100
AcDbEntity
  8
0
100
AcDbLine
 62
7
  6
CONTINUOUS
 10
78.6384437412
 20
22.5466893352
 11
70.0
 21
22.5466893352
  0
LINE
  5
2C0
100
AcDbEntity
  8
0
100
AcDbLine
 62
7
  6
CONTINUOUS
 10
65.0
 20
22.5466893352
 11
47.5
 21
22.5466893352
  0
LINE
  5
2C1
100
AcDbEntity
  8
0
100
AcDbLine
 62
7
  6
CONTINUOUS
 10
42.5
 20
22.5466893352
 11
25.0
 21
22.5466893352
  0
LINE
  5
2C2
100
AcDbEntity
  8
0
100
AcDbLine
 62
7
  6
CONTINUOUS
 10
20.0
 20
22.5466893352
 11
2.5
 21
22.5466893352
  0
LINE
  5
2C3
100
AcDbEntity
  8
0
100
AcDbLine
 62
7
  6
CONTINUOUS
 10
-2.5
 20
22.5466893352
 11
-20.0
 21
22.5466893352
  0
LINE
  5
2C4
100
AcDbEntity
  8
0
100
AcDbLine
 62
7
  6
CONTINUOUS
 10
-25.0
 20
22.5466893352
 11
-42.5
 21
22.5466893352
  0
LINE
  5
2C5
100
AcDbEntity
  8
0
100
AcDbLine
 62
7
  6
CONTINUOUS
 10
-47.5
 20
22.5466893352
 11
-65.0
 21
22.5466893352
  0
LINE
  5
2C6
100
AcDbEntity
  8
0
100
AcDbLine
 62
7
  6
CONTINUOUS
 10
-70.0
 20
22.5466893352
 11
-78.6384437412
 21
22.5466893352
  0
LINE
  5
2C7
100
AcDbEntity
  8
0
100
AcDbLine
 62
7
  6
CONTINUOUS
 10
78.6384431197
 20
22.5623990265
 11
-78.6384431198
 21
22.5623990265
  0
LINE
  5
2C8
100
AcDbEntity
  8
SUPERFICI
100
AcDbLine
 62
7
  6
CONTINUOUS
 10
43.0446022927
 20
24.1674297575
 11
78.6391021566
 21
24.1686709627
  0
LINE
  5
2C9
100
AcDbEntity
  8
SUPERFICI
100
AcDbLine
 62
7
  6
CONTINUOUS
 10
-43.0446022927
 20
24.1674297575
 11
-78.6423012167
 21
24.1674297575
  0
LINE
  5
2CA
100
AcDbEntity
  8
SUPERFICI
100
AcDbLine
 62
7
  6
CONTINUOUS
 10
-80.2534897658
 20
22.2378656003
 11
-79.8906425787
 21
22.2382540123
  0
LINE
  5
2CB
100
AcDbEntity
  8
SUPERFICI
100
AcDbLine
 62
7
  6
CONTINUOUS
 10
80.0307366694
 20
22.2383288292
 11
80.3709837211
 21
22.2373036944
  0
LINE
  5
2CC
100
AcDbEntity
  8
SUPERFICI
100
AcDbLine
 62
7
  6
CONTINUOUS
 10
-79.8906425787
 20
22.2382540123
 11
-79.5331700575
 21
22.2367728549
  0
LINE
  5
2CD
100
AcDbEntity
  8
SUPERFICI
100
AcDbLine
 62
7
  6
CONTINUOUS
 10
80.3709837211
 20
22.2373036944
 11
80.5740338012
 21
22.235697173
  0
LINE
  5
2CE
100
AcDbEntity
  8
SUPERFICI
100
AcDbLine
 62
7
  6
CONTINUOUS
 10
-79.5331700575
 20
22.2367728549
 11
-79.3278462756
 21
22.2348770246
  0
LWPOLYLINE
  5
2CF
100
AcDbEntity
  8
SUPERFICI
100
AcDbPolyline
 62
7
  6
CONTINUOUS
 90
7
 70
0
 10
-79.3278462756
 20
22.2348770246
 10
-79.1654985592
 20
22.2324390427
 10
-79.1028564492
 20
22.2310664933
 10
-79.053164812
 20
22.2296107972
 10
-79.016813052
 20
22.2280861945
 10
-78.9940705406
 20
22.2265059031
 10
-78.9850916706
 20
22.2248821058
  0
LWPOLYLINE
  5
2D0
100
AcDbEntity
  8
SUPERFICI
100
AcDbPolyline
 62
7
  6
CONTINUOUS
 90
10
 70
0
 10
-78.6292303322
 20
25.7057117297
 10
-78.7316203646
 20
25.704154286
 10
-78.8350900857
 20
25.6996694262
 10
-78.9395683692
 20
25.6921604216
 10
-79.0448629273
 20
25.6814963227
 10
-79.1510091972
 20
25.6676156382
 10
-79.2582682542
 20
25.6505170432
 10
-79.3666618376
 20
25.6301255403
 10
-79.4759740598
 20
25.6063018746
 10
-79.5860989199
 20
25.5789396453
  0
LWPOLYLINE
  5
2D1
100
AcDbEntity
  8
SUPERFICI
100
AcDbPolyline
 62
7
  6
CONTINUOUS
 90
4
 70
0
 10
-76.8877643375
 20
25.7113062299
 10
-77.0612808052
 20
25.7098261377
 10
-77.2397755017
 20
25.7068812087
 10
-77.4231798139
 20
25.7050784969
  0
LINE
  5
2D2
100
AcDbEntity
  8
SUPERFICI
100
AcDbLine
 62
7
  6
CONTINUOUS
 10
-76.8889945089
 20
25.7111993911
 11
-76.1275887139
 21
25.7137784747
  0
LINE
  5
2D3
100
AcDbEntity
  8
SUPERFICI
100
AcDbLine
 62
7
  6
CONTINUOUS
 10
-77.4231798139
 20
25.7050784969
 11
-77.8045427785
 21
25.7040398102
  0
LINE
  5
2D4
100
AcDbEntity
  8
SUPERFICI
100
AcDbLine
 62
7
  6
CONTINUOUS
 10
-69.0058747906
 20
25.7272946023
 11
-76.1272128331
 21
25.7264531299
  0
LINE
  5
2D5
100
AcDbEntity
  8
SUPERFICI
100
AcDbLine
 62
7
  6
CONTINUOUS
 10
-59.9237355723
 20
25.7268317307
 11
-69.0058747906
 21
25.7272946023
  0
LINE
  5
2D6
100
AcDbEntity
  8
SUPERFICI
100
AcDbLine
 62
7
  6
CONTINUOUS
 10
76.1272128331
 20
25.7264531299
 11
-59.9237355723
 21
25.7268317307
  0
LWPOLYLINE
  5
2D7
100
AcDbEntity
  8
SUPERFICI
100
AcDbPolyline
 62
7
  6
CONTINUOUS
 90
3
 70
0
 10
-77.8045427785
 20
25.7040398102
 10
-78.2064723591
 20
25.7048380464
 10
-78.6292303322
 20
25.7057117297
  0
LINE
  5
2D8
100
AcDbEntity
  8
SUPERFICI
100
AcDbLine
 62
7
  6
CONTINUOUS
 10
76.8889945089
 20
25.7111993911
 11
76.5514557621
 21
25.7122244862
  0
LINE
  5
2D9
100
AcDbEntity
  8
SUPERFICI
100
AcDbLine
 62
7
  6
CONTINUOUS
 10
76.5514557621
 20
25.7122244862
 11
76.1275887139
 21
25.7137784747
  0
LWPOLYLINE
  5
2DA
100
AcDbEntity
  8
SUPERFICI
100
AcDbPolyline
 62
7
  6
CONTINUOUS
 90
6
 70
0
 10
76.8877643375
 20
25.7113062299
 10
77.0612808052
 20
25.7098261377
 10
77.2397755017
 20
25.7068812087
 10
77.4231798139
 20
25.7050784969
 10
77.6114036459
 20
25.7042091628
 10
78.6292303322
 20
25.7057117297
  0
LWPOLYLINE
  5
2DB
100
AcDbEntity
  8
SUPERFICI
100
AcDbPolyline
 62
7
  6
CONTINUOUS
 90
10
 70
0
 10
78.6292303322
 20
25.7057117297
 10
78.7316203646
 20
25.704154286
 10
78.8350900857
 20
25.6996694262
 10
78.9395683692
 20
25.6921604216
 10
79.0448629273
 20
25.6814963227
 10
79.1510091972
 20
25.6676156382
 10
79.2582682542
 20
25.6505170432
 10
79.3666618376
 20
25.6301255403
 10
79.4759740598
 20
25.6063018746
 10
79.5860989199
 20
25.5789396453
  0
LWPOLYLINE
  5
2DC
100
AcDbEntity
  8
0
100
AcDbPolyline
 62
7
  6
CONTINUOUS
 90
10
 70
0
 43
0.3500000006
 10
2.464285738
 20
56.7499988708
 10
2.5357143717
 20
56.6071455688
 10
2.5357143717
 20
56.535714386
 10
2.3928571043
 20
56.392861084
 10
2.3214286122
 20
56.392861084
 10
2.2499999785
 20
56.4642832031
 10
2.2499999785
 20
56.535714386
 10
2.3214286122
 20
56.678567688
 10
2.3928571043
 20
56.7499988708
 10
2.464285738
 20
56.7499988708
  0
LINE
  5
2DD
100
AcDbEntity
  8
0
100
AcDbLine
 62
7
  6
CONTINUOUS
 10
100.1004434799
 20
39.9999840702
 11
-100.1004434799
 21
39.9999840702
  0
LINE
  5
2DE
100
AcDbEntity
  8
0
100
AcDbLine
 62
7
  6
CONTINUOUS
 10
42.5
 20
22.5623990265
 11
42.5
 21
22.5466893352
  0
LINE
  5
2DF
100
AcDbEntity
  8
0
100
AcDbLine
 62
7
  6
CONTINUOUS
 10
42.5
 20
-22.5466893352
 11
42.5
 21
-22.5623990265
  0
LINE
  5
2E0
100
AcDbEntity
  8
SUPERFICI
100
AcDbLine
 62
7
  6
CONTINUOUS
 10
43.0446022913
 20
-31.5701269947
 11
43.0446022934
 21
-35.8049943062
  0
LINE
  5
2E1
100
AcDbEntity
  8
SUPERFICI
100
AcDbLine
 62
7
  6
CONTINUOUS
 10
43.0446022913
 20
31.5701269947
 11
43.0446022934
 21
35.8049943062
  0
LINE
  5
2E2
100
AcDbEntity
  8
0
100
AcDbLine
 62
7
  6
CONTINUOUS
 10
47.5
 20
-22.5623990265
 11
47.5
 21
-22.5466893352
  0
LINE
  5
2E3
100
AcDbEntity
  8
0
100
AcDbLine
 62
7
  6
CONTINUOUS
 10
47.5
 20
22.5466893352
 11
47.5
 21
22.5623990265
  0
LWPOLYLINE
  5
2E4
100
AcDbEntity
  8
SUPERFICI
100
AcDbPolyline
 62
7
  6
CONTINUOUS
 90
10
 70
0
 10
79.5860989189
 20
-25.5789396446
 10
79.7582385136
 20
-25.5288087107
 10
79.9258885521
 20
-25.4718696786
 10
80.0889316205
 20
-25.408053547
 10
80.2464833359
 20
-25.3373963756
 10
80.3991840326
 20
-25.2596744787
 10
80.5490828287
 20
-25.1742456473
 10
80.6966006411
 20
-25.0805666496
 10
80.8404907883
 20
-24.9788523537
 10
80.980158463
 20
-24.8694495148
  0
LWPOLYLINE
  5
2E5
100
AcDbEntity
  8
SUPERFICI
100
AcDbPolyline
 62
7
  6
CONTINUOUS
 90
10
 70
0
 10
79.5860989189
 20
25.5789396446
 10
79.7582385136
 20
25.5288087107
 10
79.9258885521
 20
25.4718696786
 10
80.0889316205
 20
25.408053547
 10
80.2464833359
 20
25.3373963756
 10
80.3991840326
 20
25.2596744787
 10
80.5490828287
 20
25.1742456473
 10
80.6966006411
 20
25.0805666496
 10
80.8404907883
 20
24.9788523537
 10
80.980158463
 20
24.8694495148
  0
LWPOLYLINE
  5
2E6
100
AcDbEntity
  8
0
100
AcDbPolyline
 62
7
  6
CONTINUOUS
 90
7
 70
0
 43
0.3500000006
 10
-3.7500000114
 20
56.2499987183
 10
-5.2499999027
 20
56.2499987183
 10
-3.7500000114
 20
58.3928526306
 10
-3.7500000114
 20
58.8214306641
 10
-4.1785715303
 20
59.2499996338
 10
-4.8214286671
 20
59.2499996338
 10
-5.2499999027
 20
58.6071461792
  0
LINE
  5
2E7
100
AcDbEntity
  8
0
100
AcDbLine
 62
7
  6
CONTINUOUS
 10
65.0
 20
22.5623990265
 11
65.0
 21
22.5466893352
  0
LINE
  5
2E8
100
AcDbEntity
  8
0
100
AcDbLine
 62
7
  6
CONTINUOUS
 10
65.0
 20
-22.5466893352
 11
65.0
 21
-22.5623990265
  0
LINE
  5
2E9
100
AcDbEntity
  8
0
100
AcDbLine
 62
7
  6
CONTINUOUS
 10
70.0
 20
-22.5623990265
 11
70.0
 21
-22.5466893352
  0
LINE
  5
2EA
100
AcDbEntity
  8
0
100
AcDbLine
 62
7
  6
CONTINUOUS
 10
70.0
 20
22.5466893352
 11
70.0
 21
22.5623990265
  0
LWPOLYLINE
  5
2EB
100
AcDbEntity
  8
SUPERFICI
100
AcDbPolyline
 62
7
  6
CONTINUOUS
 90
10
 70
0
 10
80.9801561869
 20
-24.8694480602
 10
81.0232988398
 20
-24.8334243143
 10
81.065510536
 20
-24.7969618983
 10
81.1067969195
 20
-24.7601530159
 10
81.1471351988
 20
-24.7231231158
 10
81.1865603649
 20
-24.6859234574
 10
81.2251225195
 20
-24.6484834918
 10
81.2627761404
 20
-24.610759535
 10
81.2994178347
 20
-24.572776771
 10
81.3349733752
 20
-24.5345242889
  0
LWPOLYLINE
  5
2EC
100
AcDbEntity
  8
SUPERFICI
100
AcDbPolyline
 62
7
  6
CONTINUOUS
 90
10
 70
0
 10
80.9801561869
 20
24.8694480602
 10
81.0232988398
 20
24.8334243143
 10
81.065510536
 20
24.7969618983
 10
81.1067969195
 20
24.7601530159
 10
81.1471351988
 20
24.7231231158
 10
81.1865603649
 20
24.6859234574
 10
81.2251225195
 20
24.6484834918
 10
81.2627761404
 20
24.610759535
 10
81.2994178347
 20
24.572776771
 10
81.3349733752
 20
24.5345242889
  0
LWPOLYLINE
  5
2ED
100
AcDbEntity
  8
SUPERFICI
100
AcDbPolyline
 62
7
  6
CONTINUOUS
 90
13
 70
0
 10
78.9850916715
 20
22.2248808178
 10
78.9822182016
 20
22.2694231858
 10
78.9735887094
 20
22.3134407732
 10
78.9592639699
 20
22.3561801181
 10
78.9393820324
 20
22.3969313199
 10
78.914217359
 20
22.4349147197
 10
78.8842300794
 20
22.469328139
 10
78.8498839921
 20
22.4995779513
 10
78.8117805326
 20
22.5250806133
 10
78.7708069585
 20
22.5452643243
 10
78.7277883449
 20
22.5598184118
 10
78.6834104781
 20
22.568601148
 10
78.6384424532
 20
22.5715300361
  0
LWPOLYLINE
  5
2EE
100
AcDbEntity
  8
SUPERFICI
100
AcDbPolyline
 62
7
  6
CONTINUOUS
 90
4
 70
0
 10
78.6384437412
 20
-22.5715300352
 10
78.6390403119
 20
-22.5808795759
 10
78.6396229037
 20
-22.6047728565
 10
78.6401863476
 20
-22.6432211378
  0
LINE
  5
2EF
100
AcDbEntity
  8
SUPERFICI
100
AcDbLine
 62
7
  6
CONTINUOUS
 10
78.6401863476
 20
-22.6432211378
 11
78.6417024389
 21
-22.8436910315
  0
LINE
  5
2F0
100
AcDbEntity
  8
SUPERFICI
100
AcDbLine
 62
7
  6
CONTINUOUS
 10
78.6417024389
 20
-22.8436910315
 11
78.643257303
 21
-23.5044500026
  0
LINE
  5
2F1
100
AcDbEntity
  8
0
100
AcDbLine
 62
7
  6
CONTINUOUS
 10
78.9602509706
 20
-22.2248821058
 11
78.9602509706
 21
-2.5
  0
LINE
  5
2F2
100
AcDbEntity
  8
0
100
AcDbLine
 62
7
  6
CONTINUOUS
 10
78.9602509706
 20
2.5
 11
78.9602509706
 21
22.2248821058
  0
LINE
  5
2F3
100
AcDbEntity
  8
0
100
AcDbLine
 62
7
  6
CONTINUOUS
 10
78.975960662
 20
-22.2248814843
 11
78.975960662
 21
22.2248814843
  0
LINE
  5
2F4
100
AcDbEntity
  8
SUPERFICI
100
AcDbLine
 62
7
  6
CONTINUOUS
 10
80.5740338012
 20
22.235697173
 11
80.5740338012
 21
-22.235697173
  0
LINE
  5
2F5
100
AcDbEntity
  8
SUPERFICI
100
AcDbLine
 62
7
  6
CONTINUOUS
 10
78.6431718278
 20
23.3839365803
 11
78.6423012167
 21
24.1674297575
  0
LINE
  5
2F6
100
AcDbEntity
  8
SUPERFICI
100
AcDbLine
 62
7
  6
CONTINUOUS
 10
78.643257303
 20
-23.5044500026
 11
78.6423012167
 21
-24.1674297575
  0
LINE
  5
2F7
100
AcDbEntity
  8
SUPERFICI
100
AcDbLine
 62
7
  6
CONTINUOUS
 10
78.6417024389
 20
22.8436910315
 11
78.6431718278
 21
23.3839365803
  0
LWPOLYLINE
  5
2F8
100
AcDbEntity
  8
SUPERFICI
100
AcDbPolyline
 62
7
  6
CONTINUOUS
 90
5
 70
0
 10
78.6384437412
 20
22.5715300352
 10
78.6390403119
 20
22.5808795759
 10
78.6396229037
 20
22.6047728565
 10
78.6401863476
 20
22.6432211378
 10
78.6417024389
 20
22.8436910315
  0
LWPOLYLINE
  5
2F9
100
AcDbEntity
  8
SUPERFICI
100
AcDbPolyline
 62
7
  6
CONTINUOUS
 90
13
 70
0
 10
78.9850916715
 20
-22.2248808178
 10
78.9822182016
 20
-22.2694231858
 10
78.9735887094
 20
-22.3134407732
 10
78.9592639699
 20
-22.3561801181
 10
78.9393820324
 20
-22.3969313199
 10
78.914217359
 20
-22.4349147197
 10
78.8842300794
 20
-22.469328139
 10
78.8498839921
 20
-22.4995779513
 10
78.8117805326
 20
-22.5250806133
 10
78.7708069585
 20
-22.5452643243
 10
78.7277883449
 20
-22.5598184118
 10
78.6834104781
 20
-22.568601148
 10
78.6384424532
 20
-22.5715300361
  0
LWPOLYLINE
  5
2FA
100
AcDbEntity
  8
SUPERFICI
100
AcDbPolyline
 62
7
  6
CONTINUOUS
 90
10
 70
0
 10
81.3349673294
 20
-24.5345205694
 10
81.4451814119
 20
-24.4084530136
 10
81.5480960824
 20
-24.2803453273
 10
81.6432903368
 20
-24.1502462099
 10
81.7303477624
 20
-24.018727792
 10
81.8099058971
 20
-23.885776989
 10
81.8826993281
 20
-23.7503442528
 10
81.9487172465
 20
-23.6113948691
 10
82.008109983
 20
-23.4697743926
 10
82.0613346936
 20
-23.3261887011
  0
LWPOLYLINE
  5
2FB
100
AcDbEntity
  8
SUPERFICI
100
AcDbPolyline
 62
7
  6
CONTINUOUS
 90
10
 70
0
 10
81.3349673294
 20
24.5345205694
 10
81.4451814119
 20
24.4084530136
 10
81.5480960824
 20
24.2803453273
 10
81.6432903368
 20
24.1502462099
 10
81.7303477624
 20
24.018727792
 10
81.8099058971
 20
23.885776989
 10
81.8826993281
 20
23.7503442528
 10
81.9487172465
 20
23.6113948691
 10
82.008109983
 20
23.4697743926
 10
82.0613346936
 20
23.3261887011
  0
LWPOLYLINE
  5
2FC
100
AcDbEntity
  8
SUPERFICI
100
AcDbPolyline
 62
7
  6
CONTINUOUS
 90
16
 70
0
 10
80.5740338012
 20
22.235697173
 10
80.5636509645
 20
22.4326296399
 10
80.5326479681
 20
22.6302589199
 10
80.4812423408
 20
22.8253407605
 10
80.4099742107
 20
23.0139148779
 10
80.3190880334
 20
23.1936260606
 10
80.2095895873
 20
23.3636535693
 10
80.0820451498
 20
23.522529209
 10
79.9388668622
 20
23.6667755593
 10
79.7802383485
 20
23.7959803439
 10
79.6087630033
 20
23.9083096853
 10
79.4259861171
 20
24.001498117
 10
79.2343326209
 20
24.0743087305
 10
79.036929863
 20
24.1266146122
 10
78.837403444
 20
24.1581276475
 10
78.6391021566
 20
24.1686709627
  0
LWPOLYLINE
  5
2FD
100
AcDbEntity
  8
SUPERFICI
100
AcDbPolyline
 62
7
  6
CONTINUOUS
 90
5
 70
0
 10
82.2485280381
 20
22.2182230635
 10
82.2532421647
 20
21.9406561342
 10
82.2562552422
 20
21.664988968
 10
82.2577713705
 20
21.3913618577
 10
82.2577905343
 20
21.1198066078
  0
LWPOLYLINE
  5
2FE
100
AcDbEntity
  8
SUPERFICI
100
AcDbPolyline
 62
7
  6
CONTINUOUS
 90
7
 70
0
 10
82.255541048
 20
18.3998709546
 10
82.2563269455
 20
18.3308901814
 10
82.2555116813
 20
18.274235475
 10
82.253879421
 20
18.2222561267
 10
82.2525255223
 20
18.1651590265
 10
82.2518073655
 20
18.0996790126
 10
82.2511631581
 20
17.9533683283
  0
LWPOLYLINE
  5
2FF
100
AcDbEntity
  8
SUPERFICI
100
AcDbPolyline
 62
7
  6
CONTINUOUS
 90
3
 70
0
 10
82.2564637324
 20
-20.8501344062
 10
82.2496749341
 20
-20.0517389636
 10
82.2489014516
 20
-19.7906610082
  0
LINE
  5
300
100
AcDbEntity
  8
SUPERFICI
100
AcDbLine
 62
7
  6
CONTINUOUS
 10
82.2520895662
 20
17.2283029099
 11
82.2563827527
 21
16.4912943415
  0
LINE
  5
301
100
AcDbEntity
  8
SUPERFICI
100
AcDbLine
 62
7
  6
CONTINUOUS
 10
82.2518073655
 20
-18.0996790126
 11
82.2511631581
 21
-17.9533683283
  0
LINE
  5
302
100
AcDbEntity
  8
SUPERFICI
100
AcDbLine
 62
7
  6
CONTINUOUS
 10
82.2489014603
 20
19.7906610117
 11
82.2498680417
 21
19.4381168762
  0
LINE
  5
303
100
AcDbEntity
  8
SUPERFICI
100
AcDbLine
 62
7
  6
CONTINUOUS
 10
82.2511631581
 20
17.9533683283
 11
82.2520895662
 21
17.2283029099
  0
LINE
  5
304
100
AcDbEntity
  8
SUPERFICI
100
AcDbLine
 62
7
  6
CONTINUOUS
 10
82.2563827527
 20
16.4912943415
 11
82.2569414002
 21
15.7419314932
  0
LINE
  5
305
100
AcDbEntity
  8
SUPERFICI
100
AcDbLine
 62
7
  6
CONTINUOUS
 10
82.2569159727
 20
-16.242787947
 11
82.2548733103
 21
-14.4969094241
  0
LWPOLYLINE
  5
306
100
AcDbEntity
  8
SUPERFICI
100
AcDbPolyline
 62
7
  6
CONTINUOUS
 90
18
 70
0
 10
82.2498680417
 20
19.4381168762
 10
82.2497879245
 20
19.3735964602
 10
82.2486786281
 20
19.3012867977
 10
82.2471466255
 20
19.2263441124
 10
82.2466415262
 20
19.1579133119
 10
82.2484421458
 20
19.1025939963
 10
82.2513270403
 20
19.0537869985
 10
82.2529989173
 20
19.0008396043
 10
82.2519172551
 20
18.9366900259
 10
82.2495818211
 20
18.8684088215
 10
82.2482643319
 20
18.8065379259
 10
82.2492837821
 20
18.7565244954
 10
82.2513662256
 20
18.7129167646
 10
82.2529136246
 20
18.6699047036
 10
82.2530604756
 20
18.628587234
 10
82.2526697178
 20
18.5878708562
 10
82.2527147271
 20
18.5386558267
 10
82.255541048
 20
18.3998709546
  0
LINE
  5
307
100
AcDbEntity
  8
SUPERFICI
100
AcDbLine
 62
7
  6
CONTINUOUS
 10
82.2548733103
 20
-14.4969094241
 11
82.2581207305
 21
-11.9488570462
  0
LINE
  5
308
100
AcDbEntity
  8
SUPERFICI
100
AcDbLine
 62
7
  6
CONTINUOUS
 10
82.2511631581
 20
-17.9533683283
 11
82.2520895662
 21
-17.2283029099
  0
LWPOLYLINE
  5
309
100
AcDbEntity
  8
SUPERFICI
100
AcDbPolyline
 62
7
  6
CONTINUOUS
 90
3
 70
0
 10
82.25694139
 20
15.7419315048
 10
82.2558449073
 20
15.3290532014
 10
82.2581207305
 20
11.9488570462
  0
LINE
  5
30A
100
AcDbEntity
  8
SUPERFICI
100
AcDbLine
 62
7
  6
CONTINUOUS
 10
82.2496749341
 20
20.0517389636
 11
82.2489014516
 21
19.7906610082
  0
LWPOLYLINE
  5
30B
100
AcDbEntity
  8
SUPERFICI
100
AcDbPolyline
 62
7
  6
CONTINUOUS
 90
18
 70
0
 10
82.2489014603
 20
-19.7906610117
 10
82.2498680417
 20
-19.4381168762
 10
82.2497879245
 20
-19.3735964602
 10
82.2486786281
 20
-19.3012867977
 10
82.2471466255
 20
-19.2263441124
 10
82.2466415262
 20
-19.1579133119
 10
82.2484421458
 20
-19.1025939963
 10
82.2513270403
 20
-19.0537869985
 10
82.2529989173
 20
-19.0008396043
 10
82.2519172551
 20
-18.9366900259
 10
82.2495818211
 20
-18.8684088215
 10
82.2482643319
 20
-18.8065379259
 10
82.2492837821
 20
-18.7565244954
 10
82.2513662256
 20
-18.7129167646
 10
82.2529136246
 20
-18.6699047036
 10
82.2530604756
 20
-18.628587234
 10
82.2526697178
 20
-18.5878708562
 10
82.2527147271
 20
-18.5386558267
  0
LWPOLYLINE
  5
30C
100
AcDbEntity
  8
SUPERFICI
100
AcDbPolyline
 62
7
  6
CONTINUOUS
 90
3
 70
0
 10
82.2520895662
 20
-17.2283029099
 10
82.2551123163
 20
-16.7383538165
 10
82.2569159727
 20
-16.242787947
  0
LINE
  5
30D
100
AcDbEntity
  8
SUPERFICI
100
AcDbLine
 62
7
  6
CONTINUOUS
 10
82.2577905343
 20
21.1198066078
 11
82.2496749341
 21
20.0517389636
  0
LWPOLYLINE
  5
30E
100
AcDbEntity
  8
SUPERFICI
100
AcDbPolyline
 62
7
  6
CONTINUOUS
 90
6
 70
0
 10
82.2485280381
 20
-22.2182230635
 10
82.2532421647
 20
-21.9406561342
 10
82.2562552422
 20
-21.664988968
 10
82.2577713705
 20
-21.3913618577
 10
82.2577905343
 20
-21.1198066078
 10
82.2564637324
 20
-20.8501344062
  0
LWPOLYLINE
  5
30F
100
AcDbEntity
  8
SUPERFICI
100
AcDbPolyline
 62
7
  6
CONTINUOUS
 90
7
 70
0
 10
82.2527147271
 20
-18.5386558267
 10
82.255541048
 20
-18.3998709546
 10
82.2563269455
 20
-18.3308901814
 10
82.2555116813
 20
-18.274235475
 10
82.253879421
 20
-18.2222561267
 10
82.2525255223
 20
-18.1651590265
 10
82.2518073655
 20
-18.0996790126
  0
LWPOLYLINE
  5
310
100
AcDbEntity
  8
SUPERFICI
100
AcDbPolyline
 62
7
  6
CONTINUOUS
 90
16
 70
0
 10
80.5740338012
 20
-22.235697173
 10
80.5636509645
 20
-22.4326296399
 10
80.5326479681
 20
-22.6302589199
 10
80.4812423408
 20
-22.8253407605
 10
80.4099742107
 20
-23.0139148779
 10
80.3190880334
 20
-23.1936260606
 10
80.2095895873
 20
-23.3636535693
 10
80.0820451498
 20
-23.522529209
 10
79.9388668622
 20
-23.6667755593
 10
79.7802383485
 20
-23.7959803439
 10
79.6087630033
 20
-23.9083096853
 10
79.4259861171
 20
-24.001498117
 10
79.2343326209
 20
-24.0743087305
 10
79.036929863
 20
-24.1266146122
 10
78.837403444
 20
-24.1581276475
 10
78.6391021566
 20
-24.1686709627
  0
LWPOLYLINE
  5
311
100
AcDbEntity
  8
SUPERFICI
100
AcDbPolyline
 62
7
  6
CONTINUOUS
 90
10
 70
0
 10
82.0613346938
 20
-23.3261887012
 10
82.0993169258
 20
-23.2183067448
 10
82.1317459499
 20
-23.105928724
 10
82.159529614
 20
-22.989483875
 10
82.1840949643
 20
-22.8695488327
 10
82.20587691
 20
-22.7464328038
 10
82.2235728772
 20
-22.6198486651
 10
82.2365036857
 20
-22.4896133746
 10
82.2448875618
 20
-22.3557527915
 10
82.2485280381
 20
-22.2182230635
  0
LINE
  5
312
100
AcDbEntity
  8
RACCORDO
100
AcDbLine
 62
7
  6
CONTINUOUS
 10
103.0445770779
 20
3.6860137352
 11
102.9475024918
 21
3.5239590572
  0
LINE
  5
313
100
AcDbEntity
  8
RACCORDO
100
AcDbLine
 62
7
  6
CONTINUOUS
 10
102.9475024918
 20
-3.5239590572
 11
103.0445770779
 21
-3.6860137352
  0
LWPOLYLINE
  5
314
100
AcDbEntity
  8
SUPERFICI
100
AcDbPolyline
 62
7
  6
CONTINUOUS
 90
10
 70
0
 10
82.0613346938
 20
23.3261887012
 10
82.0993169258
 20
23.2183067448
 10
82.1317459499
 20
23.105928724
 10
82.159529614
 20
22.989483875
 10
82.1840949643
 20
22.8695488327
 10
82.20587691
 20
22.7464328038
 10
82.2235728772
 20
22.6198486651
 10
82.2365036857
 20
22.4896133746
 10
82.2448875618
 20
22.3557527915
 10
82.2485280381
 20
22.2182230635
  0
LINE
  5
315
100
AcDbEntity
  8
RACCORDO
100
AcDbLine
 62
7
  6
CONTINUOUS
 10
102.9331504497
 20
3.2251006478
 11
102.9331504497
 21
-3.2251006478
  0
LINE
  5
316
100
AcDbEntity
  8
RACCORDO
100
AcDbLine
 62
7
  6
CONTINUOUS
 10
103.05892912
 20
-37.041498446
 11
103.05892912
 21
-3.9848721447
  0
LINE
  5
317
100
AcDbEntity
  8
RACCORDO
100
AcDbLine
 62
7
  6
CONTINUOUS
 10
103.05892912
 20
3.9848721447
 11
103.05892912
 21
37.041498446
  0
LWPOLYLINE
  5
318
100
AcDbEntity
  8
0
100
AcDbPolyline
 62
7
  6
CONTINUOUS
 90
10
 70
0
 43
0.3500000006
 10
-135.3502452393
 20
56.2465726318
 10
-134.4941586914
 20
57.1047710266
 10
-134.2809346619
 20
57.962171814
 10
-134.2819860535
 20
58.8193188171
 10
-134.711080719
 20
59.2473620911
 10
-135.3539432373
 20
59.2465735474
 10
-135.7819865112
 20
58.8174698181
 10
-135.7809260559
 20
57.9603318787
 10
-135.3518313904
 20
57.5322886047
 10
-134.4232622681
 20
57.5334306335
  0
LINE
  5
319
100
AcDbEntity
  8
SUPERFICI
100
AcDbLine
 62
7
  6
CONTINUOUS
 10
-132.9519094228
 20
39.6888072835
 11
-132.9560972254
 21
39.6870454143
  0
LINE
  5
31A
100
AcDbEntity
  8
SUPERFICI
100
AcDbLine
 62
7
  6
CONTINUOUS
 10
-132.9413726781
 20
39.6931410512
 11
-132.9456012198
 21
39.6914188169
  0
LWPOLYLINE
  5
31B
100
AcDbEntity
  8
SUPERFICI
100
AcDbPolyline
 62
7
  6
CONTINUOUS
 90
3
 70
0
 10
-132.9323318438
 20
39.696387692
 10
-132.941813994
 20
39.6925598666
 10
-132.9504140134
 20
39.6889890957
  0
LINE
  5
31C
100
AcDbEntity
  8
SUPERFICI
100
AcDbLine
 62
7
  6
CONTINUOUS
 10
-132.9219556763
 20
39.7004466385
 11
-132.9396028113
 21
39.6937882143
  0
LINE
  5
31D
100
AcDbEntity
  8
SUPERFICI
100
AcDbLine
 62
7
  6
CONTINUOUS
 10
-132.9252711672
 20
39.6994934029
 11
-132.9296111794
 21
39.6978130091
  0
LINE
  5
31E
100
AcDbEntity
  8
SUPERFICI
100
AcDbLine
 62
7
  6
CONTINUOUS
 10
-132.9208883331
 20
39.7011667624
 11
-132.9252711672
 21
39.6994934029
  0
LINE
  5
31F
100
AcDbEntity
  8
SUPERFICI
100
AcDbLine
 62
7
  6
CONTINUOUS
 10
-132.9106752834
 20
39.7047072714
 11
-132.9260147122
 21
39.6991473263
  0
LINE
  5
320
100
AcDbEntity
  8
SUPERFICI
100
AcDbLine
 62
7
  6
CONTINUOUS
 10
-132.9108311326
 20
39.7049176201
 11
-132.9153383167
 21
39.7032519132
  0
LINE
  5
321
100
AcDbEntity
  8
SUPERFICI
100
AcDbLine
 62
7
  6
CONTINUOUS
 10
-132.8992277112
 20
39.7090928733
 11
-132.9039335328
 21
39.7074191057
  0
LINE
  5
322
100
AcDbEntity
  8
SUPERFICI
100
AcDbLine
 62
7
  6
CONTINUOUS
 10
-132.8819710436
 20
39.7150055117
 11
-132.8857825075
 21
39.7137298138
  0
LWPOLYLINE
  5
323
100
AcDbEntity
  8
SUPERFICI
100
AcDbPolyline
 62
250
  6
CONTINUOUS
 90
4
 70
0
 10
-132.8703093586
 20
39.7186861774
 10
-132.8230108599
 20
39.7321695616
 10
-132.7206720977
 20
39.7541284184
 10
-132.7106441508
 20
39.7560207231
  0
LINE
  5
324
100
AcDbEntity
  8
SUPERFICI
100
AcDbLine
 62
7
  6
CONTINUOUS
 10
-132.8659648951
 20
39.720178201
 11
-132.8700930983
 21
39.7188724517
  0
LINE
  5
325
100
AcDbEntity
  8
SUPERFICI
100
AcDbLine
 62
7
  6
CONTINUOUS
 10
-132.8498977151
 20
39.7250748341
 11
-132.8544470613
 21
39.7237181463
  0
LWPOLYLINE
  5
326
100
AcDbEntity
  8
SUPERFICI
100
AcDbPolyline
 62
7
  6
CONTINUOUS
 90
6
 70
0
 10
-132.8373979062
 20
39.7286608784
 10
-132.854496485
 20
39.7236351658
 10
-132.8703093586
 20
39.7186861774
 10
-132.8848672782
 20
39.7138700068
 10
-132.898320371
 20
39.7091943807
 10
-132.9106752834
 20
39.7047072714
  0
LWPOLYLINE
  5
327
100
AcDbEntity
  8
SUPERFICI
100
AcDbPolyline
 62
7
  6
CONTINUOUS
 90
5
 70
0
 10
-132.8358860787
 20
39.7290875582
 10
-132.8511511989
 20
39.7246777728
 10
-132.8665302187
 20
39.7199685257
 10
-132.8819813559
 20
39.7149632622
 10
-132.8970562002
 20
39.7098105537
  0
LINE
  5
328
100
AcDbEntity
  8
0
100
AcDbLine
 62
7
  6
CONTINUOUS
 10
-128.1354337405
 20
-39.9999840706
 11
-132.6160907217
 21
-39.7651627884
  0
LINE
  5
329
100
AcDbEntity
  8
RACCORDO
100
AcDbLine
 62
7
  6
CONTINUOUS
 10
-127.9354337405
 20
-38.5066495739
 11
-128.1354337405
 21
-38.4961692462
  0
LWPOLYLINE
  5
32A
100
AcDbEntity
  8
SUPERFICI
100
AcDbPolyline
 62
7
  6
CONTINUOUS
 90
4
 70
0
 10
-132.6367825673
 20
-39.7638450007
 10
-132.629207523
 20
-39.7643840757
 10
-132.6213220716
 20
-39.7648854733
 10
-132.6139976555
 20
-39.7652966327
  0
LWPOLYLINE
  5
32B
100
AcDbEntity
  8
SUPERFICI
100
AcDbPolyline
 62
7
  6
CONTINUOUS
 90
3
 70
0
 10
-132.6455232802
 20
-39.763152668
 10
-132.6449537535
 20
-39.7632003795
 10
-132.6367825673
 20
-39.7638450007
  0
LINE
  5
32C
100
AcDbEntity
  8
SUPERFICI
100
AcDbLine
 62
7
  6
CONTINUOUS
 10
-132.7106441508
 20
-39.7560207231
 11
-132.6186073055
 21
-39.7654921009
  0
LINE
  5
32D
100
AcDbEntity
  8
SUPERFICI
100
AcDbLine
 62
7
  6
CONTINUOUS
 10
-132.8069125282
 20
-39.7368819111
 11
-132.7561956211
 21
-39.7444293903
  0
LINE
  5
32E
100
AcDbEntity
  8
SUPERFICI
100
AcDbLine
 62
7
  6
CONTINUOUS
 10
-132.6356544338
 20
-39.7612985194
 11
-132.9141342452
 21
-39.7036884367
  0
LWPOLYLINE
  5
32F
100
AcDbEntity
  8
SUPERFICI
100
AcDbPolyline
 62
7
  6
CONTINUOUS
 90
8
 70
0
 10
-132.7780512341
 20
-39.7434698587
 10
-132.7648453309
 20
-39.7462502556
 10
-132.7522545986
 20
-39.7487302648
 10
-132.7402262863
 20
-39.750944877
 10
-132.7286703142
 20
-39.7529311382
 10
-132.7175327131
 20
-39.7547151145
 10
-132.706876033
 20
-39.756302858
 10
-132.7055844711
 20
-39.756481595
  0
LWPOLYLINE
  5
330
100
AcDbEntity
  8
SUPERFICI
100
AcDbPolyline
 62
250
  6
CONTINUOUS
 90
3
 70
0
 10
-132.7648453309
 20
-39.7462502556
 10
-132.7206720977
 20
-39.7541284184
 10
-132.7106441508
 20
-39.7560207231
  0
LWPOLYLINE
  5
331
100
AcDbEntity
  8
SUPERFICI
100
AcDbPolyline
 62
7
  6
CONTINUOUS
 90
3
 70
0
 10
-132.8207602582
 20
-39.7332010489
 10
-132.8060145636
 20
-39.7369692398
 10
-132.7918047913
 20
-39.7403773579
  0
LINE
  5
332
100
AcDbEntity
  8
SUPERFICI
100
AcDbLine
 62
7
  6
CONTINUOUS
 10
-132.8249554413
 20
-39.7321009747
 11
-132.8205005059
 21
-39.7332833916
  0
LWPOLYLINE
  5
333
100
AcDbEntity
  8
SUPERFICI
100
AcDbPolyline
 62
7
  6
CONTINUOUS
 90
8
 70
0
 10
-132.8346052994
 20
-39.7294499169
 10
-132.8163752992
 20
-39.7343840106
 10
-132.7967848895
 20
-39.7392722927
 10
-132.7757509985
 20
-39.744051029
 10
-132.7533177153
 20
-39.7486203284
 10
-132.729568519
 20
-39.7528738454
 10
-132.7045221927
 20
-39.7567190294
 10
-132.6781312527
 20
-39.7600693121
  0
LINE
  5
334
100
AcDbEntity
  8
SUPERFICI
100
AcDbLine
 62
7
  6
CONTINUOUS
 10
-132.8362067273
 20
-39.7290172905
 11
-132.8321103861
 21
-39.7301562105
  0
LINE
  5
335
100
AcDbEntity
  8
SUPERFICI
100
AcDbLine
 62
7
  6
CONTINUOUS
 10
-132.8414410777
 20
-39.7275347862
 11
-132.8375384691
 21
-39.7286430039
  0
LINE
  5
336
100
AcDbEntity
  8
SUPERFICI
100
AcDbLine
 62
7
  6
CONTINUOUS
 10
-132.8512085011
 20
-39.7246607254
 11
-132.8359431688
 21
-39.729071552
  0
LINE
  5
337
100
AcDbEntity
  8
SUPERFICI
100
AcDbLine
 62
7
  6
CONTINUOUS
 10
-132.8524570814
 20
-39.7243144699
 11
-132.847676104
 21
-39.7257288629
  0
LINE
  5
338
100
AcDbEntity
  8
SUPERFICI
100
AcDbLine
 62
7
  6
CONTINUOUS
 10
-132.8570791293
 20
-39.7229225163
 11
-132.8524570814
 21
-39.7243144699
  0
LINE
  5
339
100
AcDbEntity
  8
SUPERFICI
100
AcDbLine
 62
7
  6
CONTINUOUS
 10
-132.8680533486
 20
-39.7195200743
 11
-132.8637543749
 21
-39.7208693406
  0
LINE
  5
33A
100
AcDbEntity
  8
SUPERFICI
100
AcDbLine
 62
7
  6
CONTINUOUS
 10
-132.8722450503
 20
-39.7181840035
 11
-132.8680533486
 21
-39.7195200743
  0
LWPOLYLINE
  5
33B
100
AcDbEntity
  8
SUPERFICI
100
AcDbPolyline
 62
250
  6
CONTINUOUS
 90
3
 70
0
 10
-132.8793505552
 20
-39.7158727306
 10
-132.8230108599
 20
-39.7321695616
 10
-132.7780512341
 20
-39.7434698587
  0
LINE
  5
33C
100
AcDbEntity
  8
SUPERFICI
100
AcDbLine
 62
7
  6
CONTINUOUS
 10
-132.8832930754
 20
-39.7145649556
 11
-132.8793505552
 21
-39.7158727306
  0
LINE
  5
33D
100
AcDbEntity
  8
SUPERFICI
100
AcDbLine
 62
7
  6
CONTINUOUS
 10
-132.8881129414
 20
-39.7129414149
 11
-132.8842663983
 21
-39.7142392956
  0
LINE
  5
33E
100
AcDbEntity
  8
SUPERFICI
100
AcDbLine
 62
7
  6
CONTINUOUS
 10
-132.8974314631
 20
-39.7097247772
 11
-132.8937521898
 21
-39.7110071149
  0
LINE
  5
33F
100
AcDbEntity
  8
SUPERFICI
100
AcDbLine
 62
7
  6
CONTINUOUS
 10
-132.9019475131
 20
-39.7081287308
 11
-132.898341872
 21
-39.7094049847
  0
LINE
  5
340
100
AcDbEntity
  8
SUPERFICI
100
AcDbLine
 62
7
  6
CONTINUOUS
 10
-132.912449827
 20
-39.7043222456
 11
-132.9089965031
 21
-39.7055885777
  0
LINE
  5
341
100
AcDbEntity
  8
SUPERFICI
100
AcDbLine
 62
7
  6
CONTINUOUS
 10
-132.916711209
 20
-39.7027396221
 11
-132.9076343625
 21
-39.705828989
  0
LINE
  5
342
100
AcDbEntity
  8
SUPERFICI
100
AcDbLine
 62
7
  6
CONTINUOUS
 10
-132.9275633595
 20
-39.6986088052
 11
-132.9189554717
 21
-39.7015952039
  0
LINE
  5
343
100
AcDbEntity
  8
SUPERFICI
100
AcDbLine
 62
7
  6
CONTINUOUS
 10
-132.9316703937
 20
-39.6970075305
 11
-132.9275633595
 21
-39.6986088052
  0
LINE
  5
344
100
AcDbEntity
  8
SUPERFICI
100
AcDbLine
 62
7
  6
CONTINUOUS
 10
-132.9389424299
 20
-39.6937311171
 11
-132.9293885439
 21
-39.6975527639
  0
LINE
  5
345
100
AcDbEntity
  8
SUPERFICI
100
AcDbLine
 62
7
  6
CONTINUOUS
 10
-132.9454611619
 20
-39.6914762238
 11
-132.9414256538
 21
-39.6931196148
  0
LINE
  5
346
100
AcDbEntity
  8
SUPERFICI
100
AcDbLine
 62
7
  6
CONTINUOUS
 10
-132.9863315019
 20
-39.6709176719
 11
-132.9236983557
 21
-39.697055495
  0
LWPOLYLINE
  5
347
100
AcDbEntity
  8
SUPERFICI
100
AcDbPolyline
 62
7
  6
CONTINUOUS
 90
3
 70
0
 10
-132.9015812595
 20
-39.7062853163
 10
-132.8949781789
 20
-39.7090408884
 10
-132.8030218535
 20
-39.7372613303
  0
LINE
  5
348
100
AcDbEntity
  8
SUPERFICI
100
AcDbLine
 62
7
  6
CONTINUOUS
 10
-132.9543101393
 20
-39.6878000278
 11
-132.9502908741
 21
-39.6894821955
  0
LINE
  5
349
100
AcDbEntity
  8
SUPERFICI
100
AcDbLine
 62
7
  6
CONTINUOUS
 10
-132.9551138281
 20
-39.6874611722
 11
-132.9476298421
 21
-39.6901554743
  0
LINE
  5
34A
100
AcDbEntity
  8
SUPERFICI
100
AcDbLine
 62
7
  6
CONTINUOUS
 10
-133.1394489122
 20
39.585273074
 11
-133.1447744191
 21
39.5813903851
  0
LINE
  5
34B
100
AcDbEntity
  8
SUPERFICI
100
AcDbLine
 62
7
  6
CONTINUOUS
 10
-133.1356972114
 20
39.5878981993
 11
-133.1397271471
 21
39.5849381765
  0
LINE
  5
34C
100
AcDbEntity
  8
SUPERFICI
100
AcDbLine
 62
7
  6
CONTINUOUS
 10
-133.1320390349
 20
39.5904332411
 11
-133.1338585208
 21
39.5891754017
  0
LINE
  5
34D
100
AcDbEntity
  8
SUPERFICI
100
AcDbLine
 62
7
  6
CONTINUOUS
 10
-133.1249395363
 20
39.5952844385
 11
-133.1302383292
 21
39.591672225
  0
LINE
  5
34E
100
AcDbEntity
  8
SUPERFICI
100
AcDbLine
 62
7
  6
CONTINUOUS
 10
-133.159294276
 20
39.5666680946
 11
-133.0753901443
 21
39.6230152857
  0
LINE
  5
34F
100
AcDbEntity
  8
SUPERFICI
100
AcDbLine
 62
7
  6
CONTINUOUS
 10
-133.1197672525
 20
39.5987624372
 11
-133.1281915291
 21
39.5928766577
  0
LINE
  5
350
100
AcDbEntity
  8
SUPERFICI
100
AcDbLine
 62
7
  6
CONTINUOUS
 10
-133.1146962258
 20
39.6021268825
 11
-133.1228918188
 21
39.5964469374
  0
LINE
  5
351
100
AcDbEntity
  8
SUPERFICI
100
AcDbLine
 62
7
  6
CONTINUOUS
 10
-133.1097072847
 20
39.605393432
 11
-133.117229122
 21
39.6002101418
  0
LINE
  5
352
100
AcDbEntity
  8
SUPERFICI
100
AcDbLine
 62
7
  6
CONTINUOUS
 10
-133.1051473424
 20
39.6080798987
 11
-133.1101640848
 21
39.604833388
  0
LINE
  5
353
100
AcDbEntity
  8
SUPERFICI
100
AcDbLine
 62
7
  6
CONTINUOUS
 10
-133.1008967711
 20
39.6108060708
 11
-133.1038243819
 21
39.6089316684
  0
LINE
  5
354
100
AcDbEntity
  8
SUPERFICI
100
AcDbLine
 62
7
  6
CONTINUOUS
 10
-133.096698512
 20
39.6134687688
 11
-133.1001734429
 21
39.6112669526
  0
LINE
  5
355
100
AcDbEntity
  8
SUPERFICI
100
AcDbLine
 62
7
  6
CONTINUOUS
 10
-133.092007308
 20
39.6164090562
 11
-133.0956609688
 21
39.6141222451
  0
LINE
  5
356
100
AcDbEntity
  8
SUPERFICI
100
AcDbLine
 62
7
  6
CONTINUOUS
 10
-133.0890360485
 20
39.6182523233
 11
-133.0935219713
 21
39.61569973
  0
LINE
  5
357
100
AcDbEntity
  8
SUPERFICI
100
AcDbLine
 62
7
  6
CONTINUOUS
 10
-133.0835766317
 20
39.6216010401
 11
-133.088809852
 21
39.6186180779
  0
LINE
  5
358
100
AcDbEntity
  8
SUPERFICI
100
AcDbLine
 62
7
  6
CONTINUOUS
 10
-133.0765578663
 20
39.6258344651
 11
-133.0814434277
 21
39.622896195
  0
LINE
  5
359
100
AcDbEntity
  8
SUPERFICI
100
AcDbLine
 62
7
  6
CONTINUOUS
 10
-133.070778638
 20
39.6292604075
 11
-133.0765578663
 21
39.6258344651
  0
LINE
  5
35A
100
AcDbEntity
  8
SUPERFICI
100
AcDbLine
 62
7
  6
CONTINUOUS
 10
-133.0639169961
 20
39.6332587829
 11
-133.070778638
 21
39.6292604075
  0
LINE
  5
35B
100
AcDbEntity
  8
SUPERFICI
100
AcDbLine
 62
7
  6
CONTINUOUS
 10
-133.0600030155
 20
39.6355062415
 11
-133.0666792381
 21
39.6318431561
  0
LINE
  5
35C
100
AcDbEntity
  8
SUPERFICI
100
AcDbLine
 62
7
  6
CONTINUOUS
 10
-133.0753901443
 20
39.6230152857
 11
-132.9863315019
 21
39.6709176719
  0
LINE
  5
35D
100
AcDbEntity
  8
SUPERFICI
100
AcDbLine
 62
7
  6
CONTINUOUS
 10
-133.0099267511
 20
39.6616156835
 11
-133.0119294471
 21
39.6606115584
  0
LWPOLYLINE
  5
35E
100
AcDbEntity
  8
SUPERFICI
100
AcDbPolyline
 62
7
  6
CONTINUOUS
 90
10
 70
0
 10
-133.0051396056
 20
39.6645769536
 10
-133.0134587717
 20
39.6604513377
 10
-133.0210954864
 20
39.6565774432
 10
-133.0281603617
 20
39.6529186623
 10
-133.0346586772
 20
39.6494888299
 10
-133.0405974244
 20
39.6462996315
 10
-133.0460867969
 20
39.643304722
 10
-133.0511368298
 20
39.6405091529
 10
-133.0557455941
 20
39.6379237515
 10
-133.0625650153
 20
39.6342162026
  0
LINE
  5
35F
100
AcDbEntity
  8
SUPERFICI
100
AcDbLine
 62
7
  6
CONTINUOUS
 10
-132.9998454498
 20
39.6665873178
 11
-133.0063180433
 21
39.664110627
  0
LINE
  5
360
100
AcDbEntity
  8
SUPERFICI
100
AcDbLine
 62
7
  6
CONTINUOUS
 10
-132.9924624536
 20
39.6701405055
 11
-133.0051396056
 21
39.6645769536
  0
LINE
  5
361
100
AcDbEntity
  8
SUPERFICI
100
AcDbLine
 62
7
  6
CONTINUOUS
 10
-132.9880991014
 20
39.6722057345
 11
-132.9978479757
 21
39.668218144
  0
LINE
  5
362
100
AcDbEntity
  8
SUPERFICI
100
AcDbLine
 62
7
  6
CONTINUOUS
 10
-132.9832771305
 20
39.6744582104
 11
-132.9961156374
 21
39.668942357
  0
LINE
  5
363
100
AcDbEntity
  8
SUPERFICI
100
AcDbLine
 62
7
  6
CONTINUOUS
 10
-132.9779004925
 20
39.6769330658
 11
-132.9884096585
 21
39.6726788106
  0
LINE
  5
364
100
AcDbEntity
  8
SUPERFICI
100
AcDbLine
 62
7
  6
CONTINUOUS
 10
-132.9719763643
 20
39.6796153783
 11
-132.9863918458
 21
39.6735204678
  0
LWPOLYLINE
  5
365
100
AcDbEntity
  8
SUPERFICI
100
AcDbPolyline
 62
250
  6
CONTINUOUS
 90
3
 70
0
 10
-132.9719763643
 20
39.6796153783
 10
-132.922480998
 20
39.6994169593
 10
-132.8848672782
 20
39.7138700068
  0
LINE
  5
366
100
AcDbEntity
  8
SUPERFICI
100
AcDbLine
 62
7
  6
CONTINUOUS
 10
-132.9738186055
 20
39.6793374533
 11
-132.9779827991
 21
39.6774661971
  0
LINE
  5
367
100
AcDbEntity
  8
SUPERFICI
100
AcDbLine
 62
7
  6
CONTINUOUS
 10
-132.9654877151
 20
39.6825000749
 11
-132.9758956967
 21
39.6783181015
  0
LINE
  5
368
100
AcDbEntity
  8
SUPERFICI
100
AcDbLine
 62
7
  6
CONTINUOUS
 10
-132.9582995697
 20
39.6856313052
 11
-132.9686123629
 21
39.681644632
  0
LINE
  5
369
100
AcDbEntity
  8
SUPERFICI
100
AcDbLine
 62
7
  6
CONTINUOUS
 10
-132.9602748123
 20
39.6852652894
 11
-132.9644455078
 21
39.6834654871
  0
LINE
  5
36A
100
AcDbEntity
  8
SUPERFICI
100
AcDbLine
 62
7
  6
CONTINUOUS
 10
-132.952423173
 20
39.6885181991
 11
-132.96455657
 21
39.6833357744
  0
LINE
  5
36B
100
AcDbEntity
  8
SUPERFICI
100
AcDbLine
 62
250
  6
CONTINUOUS
 10
-133.5439776839
 20
-36.1152349379
 11
-132.6163718599
 21
-36.1033166861
  0
LINE
  5
36C
100
AcDbEntity
  8
0
100
AcDbLine
 62
250
  6
CONTINUOUS
 10
-128.1354337405
 20
-37.0414701762
 11
-132.6163718599
 21
-37.0414701762
  0
LINE
  5
36D
100
AcDbEntity
  8
RACCORDO
100
AcDbLine
 62
250
  6
CONTINUOUS
 10
-127.9354337405
 20
-36.848257729
 11
-128.1354337405
 21
-36.8482577285
  0
LINE
  5
36E
100
AcDbEntity
  8
SUPERFICI
100
AcDbLine
 62
7
  6
CONTINUOUS
 10
-132.9671906573
 20
-39.6822684571
 11
-132.963157405
 21
-39.6840237693
  0
LINE
  5
36F
100
AcDbEntity
  8
SUPERFICI
100
AcDbLine
 62
7
  6
CONTINUOUS
 10
-132.9777426368
 20
-39.6775747461
 11
-132.9694997196
 21
-39.6807229779
  0
LWPOLYLINE
  5
370
100
AcDbEntity
  8
SUPERFICI
100
AcDbPolyline
 62
250
  6
CONTINUOUS
 90
3
 70
0
 10
-132.9755387077
 20
-39.6780080108
 10
-132.922480998
 20
-39.6994169593
 10
-132.8832930754
 20
-39.7145649556
  0
LINE
  5
371
100
AcDbEntity
  8
SUPERFICI
100
AcDbLine
 62
7
  6
CONTINUOUS
 10
-132.98926208
 20
-39.672280939
 11
-132.9810341613
 21
-39.6754953387
  0
LINE
  5
372
100
AcDbEntity
  8
SUPERFICI
100
AcDbLine
 62
7
  6
CONTINUOUS
 10
-132.9993397514
 20
-39.6675019267
 11
-132.9959544356
 21
-39.6691228371
  0
LINE
  5
373
100
AcDbEntity
  8
SUPERFICI
100
AcDbLine
 62
7
  6
CONTINUOUS
 10
-133.0088181509
 20
-39.6628791109
 11
-133.0013455203
 21
-39.6658563263
  0
LWPOLYLINE
  5
374
100
AcDbEntity
  8
SUPERFICI
100
AcDbPolyline
 62
7
  6
CONTINUOUS
 90
13
 70
0
 10
-133.0136155348
 20
-39.6603726549
 10
-133.0052855738
 20
-39.6645054065
 10
-132.9962443887
 20
-39.6688808677
 10
-132.9864983032
 20
-39.6734710453
 10
-132.9759815029
 20
-39.6782794806
 10
-132.9646245242
 20
-39.6833062094
 10
-132.952474955
 20
-39.688496487
 10
-132.9396435807
 20
-39.6937717864
 10
-132.926052246
 20
-39.69913284
 10
-132.9117616701
 20
-39.7045229815
 10
-132.897099317
 20
-39.7097954297
 10
-132.8820290574
 20
-39.7149473795
 10
-132.866583854
 20
-39.7199516286
  0
LINE
  5
375
100
AcDbEntity
  8
SUPERFICI
100
AcDbLine
 62
7
  6
CONTINUOUS
 10
-133.0222821632
 20
-39.6560951431
 11
-133.0186168561
 21
-39.657967487
  0
LINE
  5
376
100
AcDbEntity
  8
SUPERFICI
100
AcDbLine
 62
7
  6
CONTINUOUS
 10
-133.0753901443
 20
-39.6230152857
 11
-132.9863315019
 21
-39.6709176719
  0
LWPOLYLINE
  5
377
100
AcDbEntity
  8
SUPERFICI
100
AcDbPolyline
 62
7
  6
CONTINUOUS
 90
6
 70
0
 10
-133.046199728
 20
-39.6432426306
 10
-133.040732995
 20
-39.6462262129
 10
-133.0348106566
 20
-39.649407869
 10
-133.0283217423
 20
-39.6528342365
 10
-133.0212581504
 20
-39.6564940165
 10
-133.010797536
 20
-39.6611797552
  0
LINE
  5
378
100
AcDbEntity
  8
SUPERFICI
100
AcDbLine
 62
7
  6
CONTINUOUS
 10
-133.0492959592
 20
-39.6416917048
 11
-133.0471173991
 21
-39.6428934291
  0
LINE
  5
379
100
AcDbEntity
  8
SUPERFICI
100
AcDbLine
 62
7
  6
CONTINUOUS
 10
-133.058370803
 20
-39.636608336
 11
-133.0512199976
 21
-39.6404627873
  0
LINE
  5
37A
100
AcDbEntity
  8
SUPERFICI
100
AcDbLine
 62
7
  6
CONTINUOUS
 10
-133.0631479841
 20
-39.6338815546
 11
-133.0595488078
 21
-39.6359392159
  0
LINE
  5
37B
100
AcDbEntity
  8
SUPERFICI
100
AcDbLine
 62
7
  6
CONTINUOUS
 10
-133.0681072813
 20
-39.6310132895
 11
-133.0643701936
 21
-39.6331782407
  0
LINE
  5
37C
100
AcDbEntity
  8
SUPERFICI
100
AcDbLine
 62
7
  6
CONTINUOUS
 10
-133.0719542716
 20
-39.6287617628
 11
-133.0681072813
 21
-39.6310132895
  0
LINE
  5
37D
100
AcDbEntity
  8
SUPERFICI
100
AcDbLine
 62
7
  6
CONTINUOUS
 10
-133.0759123454
 20
-39.6264207752
 11
-133.0719542716
 21
-39.6287617628
  0
LINE
  5
37E
100
AcDbEntity
  8
SUPERFICI
100
AcDbLine
 62
7
  6
CONTINUOUS
 10
-133.0799812683
 20
-39.6239881679
 11
-133.0759123454
 21
-39.6264207752
  0
LINE
  5
37F
100
AcDbEntity
  8
SUPERFICI
100
AcDbLine
 62
7
  6
CONTINUOUS
 10
-133.0841597477
 20
-39.621462334
 11
-133.0799812683
 21
-39.6239881679
  0
LINE
  5
380
100
AcDbEntity
  8
SUPERFICI
100
AcDbLine
 62
7
  6
CONTINUOUS
 10
-133.0884451912
 20
-39.6188424005
 11
-133.0841597477
 21
-39.621462334
  0
LINE
  5
381
100
AcDbEntity
  8
SUPERFICI
100
AcDbLine
 62
7
  6
CONTINUOUS
 10
-133.0913597024
 20
-39.6170434261
 11
-133.0870389147
 21
-39.6194830398
  0
LINE
  5
382
100
AcDbEntity
  8
SUPERFICI
100
AcDbLine
 62
7
  6
CONTINUOUS
 10
-133.0958135788
 20
-39.6142672086
 11
-133.0916257116
 21
-39.6166466082
  0
LINE
  5
383
100
AcDbEntity
  8
SUPERFICI
100
AcDbLine
 62
7
  6
CONTINUOUS
 10
-133.1018890715
 20
-39.6104269135
 11
-133.0973185354
 21
-39.6133216847
  0
LINE
  5
384
100
AcDbEntity
  8
SUPERFICI
100
AcDbLine
 62
7
  6
CONTINUOUS
 10
-133.1049771658
 20
-39.6084511494
 11
-133.100469222
 21
-39.6110785983
  0
LINE
  5
385
100
AcDbEntity
  8
SUPERFICI
100
AcDbLine
 62
7
  6
CONTINUOUS
 10
-133.1133557961
 20
-39.6027543836
 11
-133.1060847358
 21
-39.6074691644
  0
LINE
  5
386
100
AcDbEntity
  8
SUPERFICI
100
AcDbLine
 62
7
  6
CONTINUOUS
 10
-133.1164364462
 20
-39.6007327596
 11
-133.1138245127
 21
-39.602447758
  0
LINE
  5
387
100
AcDbEntity
  8
SUPERFICI
100
AcDbLine
 62
7
  6
CONTINUOUS
 10
-133.1205778723
 20
-39.5979910541
 11
-133.1179253455
 21
-39.599750282
  0
LINE
  5
388
100
AcDbEntity
  8
SUPERFICI
100
AcDbLine
 62
7
  6
CONTINUOUS
 10
-133.159294276
 20
-39.5666680946
 11
-133.0753901443
 21
-39.6230152857
  0
LINE
  5
389
100
AcDbEntity
  8
SUPERFICI
100
AcDbLine
 62
7
  6
CONTINUOUS
 10
-133.1246296602
 20
-39.5952814073
 11
-133.1193525366
 21
-39.5990392695
  0
LINE
  5
38A
100
AcDbEntity
  8
SUPERFICI
100
AcDbLine
 62
7
  6
CONTINUOUS
 10
-133.1291610664
 20
-39.5922183537
 11
-133.1226767222
 21
-39.5968118199
  0
LINE
  5
38B
100
AcDbEntity
  8
SUPERFICI
100
AcDbLine
 62
7
  6
CONTINUOUS
 10
-133.1323165925
 20
-39.5900645991
 11
-133.1295985133
 21
-39.5919208055
  0
LINE
  5
38C
100
AcDbEntity
  8
SUPERFICI
100
AcDbLine
 62
7
  6
CONTINUOUS
 10
-133.1367079438
 20
-39.5870385
 11
-133.131259083
 21
-39.5909706063
  0
LINE
  5
38D
100
AcDbEntity
  8
SUPERFICI
100
AcDbLine
 62
7
  6
CONTINUOUS
 10
-133.14095085
 20
-39.5840822553
 11
-133.1348236709
 21
-39.588505748
  0
LINE
  5
38E
100
AcDbEntity
  8
SUPERFICI
100
AcDbLine
 62
7
  6
CONTINUOUS
 10
-133.1443595681
 20
-39.5816837369
 11
-133.1384835136
 21
-39.5859510376
  0
LWPOLYLINE
  5
38F
100
AcDbEntity
  8
SUPERFICI
100
AcDbPolyline
 62
7
  6
CONTINUOUS
 90
9
 70
0
 10
-133.2248623661
 20
39.5181718313
 10
-133.2286767621
 20
39.5147963009
 10
-133.2329406922
 20
39.5109792651
 10
-133.2374895189
 20
39.50685567
 10
-133.2425722169
 20
39.5021842691
 10
-133.2479240481
 20
39.4971915202
 10
-133.2526310659
 20
39.492736556
 10
-133.2562846442
 20
39.4892368595
 10
-133.2593191444
 20
39.486302066
  0
LINE
  5
390
100
AcDbEntity
  8
SUPERFICI
100
AcDbLine
 62
7
  6
CONTINUOUS
 10
-133.2189032142
 20
39.5233725402
 11
-133.2248623661
 21
39.5181718313
  0
LINE
  5
391
100
AcDbEntity
  8
SUPERFICI
100
AcDbLine
 62
7
  6
CONTINUOUS
 10
-133.2139045085
 20
39.5276677254
 11
-133.2189032142
 21
39.5233725402
  0
LWPOLYLINE
  5
392
100
AcDbEntity
  8
SUPERFICI
100
AcDbPolyline
 62
7
  6
CONTINUOUS
 90
3
 70
0
 10
-133.2074551709
 20
39.5331207655
 10
-133.2095129766
 20
39.5313915581
 10
-133.2139045085
 20
39.5276677254
  0
LINE
  5
393
100
AcDbEntity
  8
SUPERFICI
100
AcDbLine
 62
7
  6
CONTINUOUS
 10
-133.2036236663
 20
39.5363140736
 11
-133.2055026949
 21
39.5347522902
  0
LINE
  5
394
100
AcDbEntity
  8
SUPERFICI
100
AcDbLine
 62
7
  6
CONTINUOUS
 10
-133.2000761186
 20
39.5392405163
 11
-133.2018126744
 21
39.5378115985
  0
LINE
  5
395
100
AcDbEntity
  8
SUPERFICI
100
AcDbLine
 62
7
  6
CONTINUOUS
 10
-133.1937175562
 20
39.5444144422
 11
-133.1983994797
 21
39.5406136225
  0
LINE
  5
396
100
AcDbEntity
  8
SUPERFICI
100
AcDbLine
 62
7
  6
CONTINUOUS
 10
-133.1894601846
 20
39.5478283588
 11
-133.1937175562
 21
39.5444144422
  0
LINE
  5
397
100
AcDbEntity
  8
SUPERFICI
100
AcDbLine
 62
7
  6
CONTINUOUS
 10
-133.1855453123
 20
39.5509326953
 11
-133.1894601846
 21
39.5478283588
  0
LINE
  5
398
100
AcDbEntity
  8
SUPERFICI
100
AcDbLine
 62
7
  6
CONTINUOUS
 10
-133.1819145733
 20
39.5537822541
 11
-133.1855453123
 21
39.5509326953
  0
LINE
  5
399
100
AcDbEntity
  8
SUPERFICI
100
AcDbLine
 62
7
  6
CONTINUOUS
 10
-133.178524795
 20
39.5564174459
 11
-133.1819145733
 21
39.5537822541
  0
LINE
  5
39A
100
AcDbEntity
  8
SUPERFICI
100
AcDbLine
 62
7
  6
CONTINUOUS
 10
-133.174323669
 20
39.559650007
 11
-133.178524795
 21
39.5564174459
  0
LINE
  5
39B
100
AcDbEntity
  8
SUPERFICI
100
AcDbLine
 62
7
  6
CONTINUOUS
 10
-133.1704348103
 20
39.562609841
 11
-133.174323669
 21
39.559650007
  0
LINE
  5
39C
100
AcDbEntity
  8
SUPERFICI
100
AcDbLine
 62
7
  6
CONTINUOUS
 10
-133.1668123735
 20
39.565339235
 11
-133.1704348103
 21
39.562609841
  0
LINE
  5
39D
100
AcDbEntity
  8
SUPERFICI
100
AcDbLine
 62
7
  6
CONTINUOUS
 10
-133.1604502358
 20
39.570093655
 11
-133.1668123735
 21
39.565339235
  0
LINE
  5
39E
100
AcDbEntity
  8
SUPERFICI
100
AcDbLine
 62
7
  6
CONTINUOUS
 10
-133.1558165918
 20
39.573514748
 11
-133.1634231368
 21
39.5678690794
  0
LINE
  5
39F
100
AcDbEntity
  8
SUPERFICI
100
AcDbLine
 62
7
  6
CONTINUOUS
 10
-133.1536023645
 20
39.5751349699
 11
-133.1587097182
 21
39.5713495767
  0
LINE
  5
3A0
100
AcDbEntity
  8
SUPERFICI
100
AcDbLine
 62
7
  6
CONTINUOUS
 10
-133.1493492258
 20
39.5782209591
 11
-133.1543595767
 21
39.5745234846
  0
LINE
  5
3A1
100
AcDbEntity
  8
SUPERFICI
100
AcDbLine
 62
7
  6
CONTINUOUS
 10
-133.145283698
 20
39.5811389547
 11
-133.1496808861
 21
39.5778968153
  0
LINE
  5
3A2
100
AcDbEntity
  8
SUPERFICI
100
AcDbLine
 62
7
  6
CONTINUOUS
 10
-133.1413616246
 20
39.5839247911
 11
-133.1459612209
 21
39.5805494228
  0
LINE
  5
3A3
100
AcDbEntity
  8
RACCORDO
100
AcDbLine
 62
250
  6
CONTINUOUS
 10
-127.9354337405
 20
-33.2278598362
 11
-128.1354337405
 21
-33.2301439341
  0
LINE
  5
3A4
100
AcDbEntity
  8
RACCORDO
100
AcDbLine
 62
250
  6
CONTINUOUS
 10
-127.9354337405
 20
-33.6325753553
 11
-128.1354337405
 21
-33.6344913216
  0
LINE
  5
3A5
100
AcDbEntity
  8
SUPERFICI
100
AcDbLine
 62
7
  6
CONTINUOUS
 10
-133.1479774738
 20
-39.57911476
 11
-133.1422502112
 21
-39.5832961272
  0
LINE
  5
3A6
100
AcDbEntity
  8
SUPERFICI
100
AcDbLine
 62
7
  6
CONTINUOUS
 10
-133.1518205922
 20
-39.5763592212
 11
-133.1461431463
 21
-39.5805246724
  0
LINE
  5
3A7
100
AcDbEntity
  8
SUPERFICI
100
AcDbLine
 62
7
  6
CONTINUOUS
 10
-133.155907706
 20
-39.573398127
 11
-133.1501941565
 21
-39.5776106205
  0
LINE
  5
3A8
100
AcDbEntity
  8
SUPERFICI
100
AcDbLine
 62
7
  6
CONTINUOUS
 10
-133.159512307
 20
-39.5707600006
 11
-133.1544237639
 21
-39.5745350189
  0
LINE
  5
3A9
100
AcDbEntity
  8
SUPERFICI
100
AcDbLine
 62
7
  6
CONTINUOUS
 10
-133.1633073162
 20
-39.5679551282
 11
-133.1566213604
 21
-39.5729235453
  0
LINE
  5
3AA
100
AcDbEntity
  8
SUPERFICI
100
AcDbLine
 62
7
  6
CONTINUOUS
 10
-133.1673232787
 20
-39.5649558862
 11
-133.1611776927
 21
-39.5695527865
  0
LINE
  5
3AB
100
AcDbEntity
  8
SUPERFICI
100
AcDbLine
 62
7
  6
CONTINUOUS
 10
-133.1715826215
 20
-39.5617394526
 11
-133.1681550613
 21
-39.56433065
  0
LINE
  5
3AC
100
AcDbEntity
  8
SUPERFICI
100
AcDbLine
 62
7
  6
CONTINUOUS
 10
-133.1751902445
 20
-39.5589862178
 11
-133.1715826215
 21
-39.5617394526
  0
LINE
  5
3AD
100
AcDbEntity
  8
SUPERFICI
100
AcDbLine
 62
7
  6
CONTINUOUS
 10
-133.1790133766
 20
-39.5560391175
 11
-133.1751902445
 21
-39.5589862178
  0
LINE
  5
3AE
100
AcDbEntity
  8
SUPERFICI
100
AcDbLine
 62
7
  6
CONTINUOUS
 10
-133.1830991062
 20
-39.5528556744
 11
-133.1790133766
 21
-39.5560391175
  0
LINE
  5
3AF
100
AcDbEntity
  8
SUPERFICI
100
AcDbLine
 62
7
  6
CONTINUOUS
 10
-133.1863751867
 20
-39.5502774078
 11
-133.1830991062
 21
-39.5528556744
  0
LINE
  5
3B0
100
AcDbEntity
  8
SUPERFICI
100
AcDbLine
 62
7
  6
CONTINUOUS
 10
-133.1898719474
 20
-39.5474999117
 11
-133.1863751867
 21
-39.5502774078
  0
LINE
  5
3B1
100
AcDbEntity
  8
SUPERFICI
100
AcDbLine
 62
7
  6
CONTINUOUS
 10
-133.1936394422
 20
-39.5444774406
 11
-133.1898719474
 21
-39.5474999117
  0
LINE
  5
3B2
100
AcDbEntity
  8
SUPERFICI
100
AcDbLine
 62
7
  6
CONTINUOUS
 10
-133.1977895341
 20
-39.5411115677
 11
-133.1936394422
 21
-39.5444774406
  0
LWPOLYLINE
  5
3B3
100
AcDbEntity
  8
SUPERFICI
100
AcDbPolyline
 62
7
  6
CONTINUOUS
 90
3
 70
0
 10
-133.2039958541
 20
-39.5360053727
 10
-133.2023720423
 20
-39.5373498566
 10
-133.1977895341
 20
-39.5411115677
  0
LINE
  5
3B4
100
AcDbEntity
  8
SUPERFICI
100
AcDbLine
 62
7
  6
CONTINUOUS
 10
-133.2073808084
 20
-39.5331830673
 11
-133.2056644967
 21
-39.5346174234
  0
LINE
  5
3B5
100
AcDbEntity
  8
SUPERFICI
100
AcDbLine
 62
7
  6
CONTINUOUS
 10
-133.2109772165
 20
-39.5301550477
 11
-133.2091545969
 21
-39.5316934273
  0
LINE
  5
3B6
100
AcDbEntity
  8
SUPERFICI
100
AcDbLine
 62
7
  6
CONTINUOUS
 10
-133.2148267896
 20
-39.5268798048
 11
-133.2128565308
 21
-39.5285605483
  0
LINE
  5
3B7
100
AcDbEntity
  8
SUPERFICI
100
AcDbLine
 62
7
  6
CONTINUOUS
 10
-133.2213104085
 20
-39.5212823257
 11
-133.2168363336
 21
-39.5251558942
  0
LINE
  5
3B8
100
AcDbEntity
  8
SUPERFICI
100
AcDbLine
 62
7
  6
CONTINUOUS
 10
-133.3376437208
 20
39.4006794987
 11
-133.3433901039
 21
39.3939121693
  0
LINE
  5
3B9
100
AcDbEntity
  8
SUPERFICI
100
AcDbLine
 62
7
  6
CONTINUOUS
 10
-133.3342645701
 20
39.4048134529
 11
-133.3376437208
 21
39.4006794987
  0
LINE
  5
3BA
100
AcDbEntity
  8
SUPERFICI
100
AcDbLine
 62
7
  6
CONTINUOUS
 10
-133.3308016331
 20
39.409003847
 11
-133.3342645701
 21
39.4048134529
  0
LINE
  5
3BB
100
AcDbEntity
  8
SUPERFICI
100
AcDbLine
 62
7
  6
CONTINUOUS
 10
-133.3272519229
 20
39.4132517305
 11
-133.3333292558
 21
39.4062467567
  0
LINE
  5
3BC
100
AcDbEntity
  8
SUPERFICI
100
AcDbLine
 62
7
  6
CONTINUOUS
 10
-133.3236112375
 20
39.4175594318
 11
-133.3272519229
 21
39.4132517305
  0
LINE
  5
3BD
100
AcDbEntity
  8
SUPERFICI
100
AcDbLine
 62
7
  6
CONTINUOUS
 10
-133.3198748702
 20
39.4219296481
 11
-133.3259074398
 21
39.4150931833
  0
LINE
  5
3BE
100
AcDbEntity
  8
SUPERFICI
100
AcDbLine
 62
7
  6
CONTINUOUS
 10
-133.3160377893
 20
39.4263652057
 11
-133.3198748702
 21
39.4219296481
  0
LINE
  5
3BF
100
AcDbEntity
  8
SUPERFICI
100
AcDbLine
 62
7
  6
CONTINUOUS
 10
-133.3120911312
 20
39.4308730149
 11
-133.3185773571
 21
39.4236293369
  0
LINE
  5
3C0
100
AcDbEntity
  8
SUPERFICI
100
AcDbLine
 62
7
  6
CONTINUOUS
 10
-133.3080214255
 20
39.4354646664
 11
-133.3120911312
 21
39.4308730149
  0
LINE
  5
3C1
100
AcDbEntity
  8
SUPERFICI
100
AcDbLine
 62
7
  6
CONTINUOUS
 10
-133.3066350268
 20
39.4370159198
 11
-133.3113248596
 21
39.4318863162
  0
LWPOLYLINE
  5
3C2
100
AcDbEntity
  8
SUPERFICI
100
AcDbPolyline
 62
250
  6
CONTINUOUS
 90
13
 70
0
 10
-133.5459862038
 20
37.4565050651
 10
-133.5241654728
 20
37.4809145484
 10
-133.4894737242
 20
37.5045333497
 10
-133.4424614845
 20
37.5270879496
 10
-133.3835722651
 20
37.5483376661
 10
-133.3134864095
 20
37.5679448637
 10
-133.2333304202
 20
37.5855122625
 10
-133.1440649438
 20
37.6007893369
 10
-133.0468977949
 20
37.6136376763
 10
-132.9435919773
 20
37.6238931966
 10
-132.8356820411
 20
37.6314525301
 10
-132.7243777607
 20
37.6362402081
 10
-132.6109834661
 20
37.6381691769
  0
LINE
  5
3C3
100
AcDbEntity
  8
SUPERFICI
100
AcDbLine
 62
7
  6
CONTINUOUS
 10
-133.3009144253
 20
39.4433483235
 11
-133.3052314367
 21
39.4385797744
  0
LINE
  5
3C4
100
AcDbEntity
  8
SUPERFICI
100
AcDbLine
 62
7
  6
CONTINUOUS
 10
-133.2994360811
 20
39.4449670932
 11
-133.3041401569
 21
39.4398878423
  0
LINE
  5
3C5
100
AcDbEntity
  8
SUPERFICI
100
AcDbLine
 62
7
  6
CONTINUOUS
 10
-133.2964141616
 20
39.4482538123
 11
-133.2979372599
 21
39.4466009686
  0
LINE
  5
3C6
100
AcDbEntity
  8
SUPERFICI
100
AcDbLine
 62
7
  6
CONTINUOUS
 10
-133.2932986154
 20
39.4516114305
 11
-133.2970168663
 21
39.4476520808
  0
LINE
  5
3C7
100
AcDbEntity
  8
SUPERFICI
100
AcDbLine
 62
7
  6
CONTINUOUS
 10
-133.2900529738
 20
39.4550763069
 11
-133.2916939644
 21
39.4533286449
  0
LINE
  5
3C8
100
AcDbEntity
  8
SUPERFICI
100
AcDbLine
 62
7
  6
CONTINUOUS
 10
-133.2866601491
 20
39.4586628667
 11
-133.2883769095
 21
39.4568525731
  0
LINE
  5
3C9
100
AcDbEntity
  8
SUPERFICI
100
AcDbLine
 62
7
  6
CONTINUOUS
 10
-133.283098487
 20
39.4623894849
 11
-133.2848999672
 21
39.4605094534
  0
LINE
  5
3CA
100
AcDbEntity
  8
SUPERFICI
100
AcDbLine
 62
7
  6
CONTINUOUS
 10
-133.2774624207
 20
39.4682075629
 11
-133.2812573249
 21
39.4643006774
  0
LINE
  5
3CB
100
AcDbEntity
  8
SUPERFICI
100
AcDbLine
 62
7
  6
CONTINUOUS
 10
-133.2734915489
 20
39.4722495513
 11
-133.2774624207
 21
39.4682075629
  0
LINE
  5
3CC
100
AcDbEntity
  8
SUPERFICI
100
AcDbLine
 62
7
  6
CONTINUOUS
 10
-133.2692776792
 20
39.4764881726
 11
-133.2734915489
 21
39.4722495513
  0
LINE
  5
3CD
100
AcDbEntity
  8
SUPERFICI
100
AcDbLine
 62
7
  6
CONTINUOUS
 10
-133.2646941575
 20
39.4810402193
 11
-133.2692776792
 21
39.4764881726
  0
LINE
  5
3CE
100
AcDbEntity
  8
SUPERFICI
100
AcDbLine
 62
7
  6
CONTINUOUS
 10
-133.2593191449
 20
39.4863020656
 11
-133.2646941575
 21
39.4810402193
  0
LINE
  5
3CF
100
AcDbEntity
  8
RACCORDO
100
AcDbLine
 62
250
  6
CONTINUOUS
 10
-128.1354337405
 20
-29.3655086884
 11
-127.9354337405
 21
-29.367424644
  0
LINE
  5
3D0
100
AcDbEntity
  8
RACCORDO
100
AcDbLine
 62
250
  6
CONTINUOUS
 10
-128.1354337405
 20
-29.7698560769
 11
-127.9354337405
 21
-29.7721401612
  0
LWPOLYLINE
  5
3D1
100
AcDbEntity
  8
SUPERFICI
100
AcDbPolyline
 62
7
  6
CONTINUOUS
 90
10
 70
0
 10
-133.2617329494
 20
-39.4839491765
 10
-133.2583182114
 20
-39.487272947
 10
-133.2544000174
 20
-39.4910467
 10
-133.2500824591
 20
-39.4951561581
 10
-133.2454982771
 20
-39.4994640192
 10
-133.2403710989
 20
-39.5042156069
 10
-133.2349649718
 20
-39.5091508295
 10
-133.2302453459
 20
-39.5133975102
 10
-133.2267001396
 20
-39.516550081
 10
-133.2213104085
 20
-39.5212823257
  0
LINE
  5
3D2
100
AcDbEntity
  8
SUPERFICI
100
AcDbLine
 62
7
  6
CONTINUOUS
 10
-133.2676001926
 20
-39.4781611513
 11
-133.2617329494
 21
-39.4839491765
  0
LINE
  5
3D3
100
AcDbEntity
  8
SUPERFICI
100
AcDbLine
 62
7
  6
CONTINUOUS
 10
-133.2727865655
 20
-39.4729622924
 11
-133.2676001926
 21
-39.4781611513
  0
LINE
  5
3D4
100
AcDbEntity
  8
SUPERFICI
100
AcDbLine
 62
7
  6
CONTINUOUS
 10
-133.2775374295
 20
-39.4681307597
 11
-133.2727865655
 21
-39.4729622924
  0
LINE
  5
3D5
100
AcDbEntity
  8
SUPERFICI
100
AcDbLine
 62
7
  6
CONTINUOUS
 10
-133.2819786457
 20
-39.4635531502
 11
-133.2775374295
 21
-39.4681307597
  0
LINE
  5
3D6
100
AcDbEntity
  8
SUPERFICI
100
AcDbLine
 62
7
  6
CONTINUOUS
 10
-133.2861823021
 20
-39.4591651183
 11
-133.2819786457
 21
-39.4635531502
  0
LINE
  5
3D7
100
AcDbEntity
  8
SUPERFICI
100
AcDbLine
 62
7
  6
CONTINUOUS
 10
-133.2919001567
 20
-39.453128658
 11
-133.2861823021
 21
-39.4591651183
  0
LINE
  5
3D8
100
AcDbEntity
  8
SUPERFICI
100
AcDbLine
 62
7
  6
CONTINUOUS
 10
-133.2962186441
 20
-39.4485119063
 11
-133.2919001567
 21
-39.453128658
  0
LINE
  5
3D9
100
AcDbEntity
  8
SUPERFICI
100
AcDbLine
 62
7
  6
CONTINUOUS
 10
-133.3005288521
 20
-39.4438447327
 11
-133.2940025487
 21
-39.4508555273
  0
LINE
  5
3DA
100
AcDbEntity
  8
SUPERFICI
100
AcDbLine
 62
7
  6
CONTINUOUS
 10
-133.3026813754
 20
-39.4414913811
 11
-133.2976687264
 21
-39.4468929245
  0
LINE
  5
3DB
100
AcDbEntity
  8
SUPERFICI
100
AcDbLine
 62
7
  6
CONTINUOUS
 10
-133.3069847407
 20
-39.4367406595
 11
-133.3026813754
 21
-39.4414913811
  0
LWPOLYLINE
  5
3DC
100
AcDbEntity
  8
SUPERFICI
100
AcDbPolyline
 62
250
  6
CONTINUOUS
 90
13
 70
0
 10
-133.5459862038
 20
-37.4565050651
 10
-133.5241654728
 20
-37.4809145484
 10
-133.4894737242
 20
-37.5045333497
 10
-133.4424614845
 20
-37.5270879496
 10
-133.3835722651
 20
-37.5483376661
 10
-133.3134864095
 20
-37.5679448637
 10
-133.2333304202
 20
-37.5855122625
 10
-133.1440649438
 20
-37.6007893369
 10
-133.0468977949
 20
-37.6136376763
 10
-132.9435919773
 20
-37.6238931966
 10
-132.8356820411
 20
-37.6314525301
 10
-132.7243777607
 20
-37.6362402081
 10
-132.6109834661
 20
-37.6381691769
  0
LINE
  5
3DD
100
AcDbEntity
  8
SUPERFICI
100
AcDbLine
 62
7
  6
CONTINUOUS
 10
-133.3112869609
 20
-39.4319289832
 11
-133.3045971413
 21
-39.4392843163
  0
LINE
  5
3DE
100
AcDbEntity
  8
SUPERFICI
100
AcDbLine
 62
7
  6
CONTINUOUS
 10
-133.3134390695
 20
-39.4294982553
 11
-133.3078812465
 21
-39.435621811
  0
LINE
  5
3DF
100
AcDbEntity
  8
SUPERFICI
100
AcDbLine
 62
7
  6
CONTINUOUS
 10
-133.3155918623
 20
-39.4270506568
 11
-133.3110567268
 21
-39.4320454969
  0
LINE
  5
3E0
100
AcDbEntity
  8
SUPERFICI
100
AcDbLine
 62
7
  6
CONTINUOUS
 10
-133.3199064108
 20
-39.4220960627
 11
-133.3155918623
 21
-39.4270506568
  0
LINE
  5
3E1
100
AcDbEntity
  8
SUPERFICI
100
AcDbLine
 62
7
  6
CONTINUOUS
 10
-133.3220678726
 20
-39.4195888921
 11
-133.3171029247
 21
-39.4251392118
  0
LINE
  5
3E2
100
AcDbEntity
  8
SUPERFICI
100
AcDbLine
 62
7
  6
CONTINUOUS
 10
-133.3264045846
 20
-39.4145071016
 11
-133.3199872272
 21
-39.4217989704
  0
LINE
  5
3E3
100
AcDbEntity
  8
SUPERFICI
100
AcDbLine
 62
7
  6
CONTINUOUS
 10
-133.3307607336
 20
-39.4093319968
 11
-133.324156872
 21
-39.4169169593
  0
LINE
  5
3E4
100
AcDbEntity
  8
SUPERFICI
100
AcDbLine
 62
7
  6
CONTINUOUS
 10
-133.3329481943
 20
-39.406706083
 11
-133.328154866
 21
-39.4121757055
  0
LINE
  5
3E5
100
AcDbEntity
  8
SUPERFICI
100
AcDbLine
 62
7
  6
CONTINUOUS
 10
-133.3373426938
 20
-39.4013746095
 11
-133.3329481943
 21
-39.406706083
  0
LWPOLYLINE
  5
3E6
100
AcDbEntity
  8
SUPERFICI
100
AcDbPolyline
 62
7
  6
CONTINUOUS
 90
3
 70
0
 10
-133.3417672083
 20
-39.3959293415
 10
-133.3395513376
 20
-39.3986662545
 10
-133.3344764976
 20
-39.4045555005
  0
LWPOLYLINE
  5
3E7
100
AcDbEntity
  8
SUPERFICI
100
AcDbPolyline
 62
7
  6
CONTINUOUS
 90
3
 70
0
 10
-133.4020241652
 20
39.3127586675
 10
-133.4047424423
 20
39.3085416543
 10
-133.4074511906
 20
39.3042921596
  0
LWPOLYLINE
  5
3E8
100
AcDbEntity
  8
SUPERFICI
100
AcDbPolyline
 62
7
  6
CONTINUOUS
 90
3
 70
0
 10
-133.3910975846
 20
39.329252139
 10
-133.3938322394
 20
39.3251909007
 10
-133.3965649643
 20
39.3210887331
  0
LINE
  5
3E9
100
AcDbEntity
  8
SUPERFICI
100
AcDbLine
 62
7
  6
CONTINUOUS
 10
-133.3808330994
 20
39.3435309693
 11
-133.3856392184
 21
39.3372310619
  0
LINE
  5
3EA
100
AcDbEntity
  8
SUPERFICI
100
AcDbLine
 62
7
  6
CONTINUOUS
 10
-133.380201804
 20
39.3450166093
 11
-133.3829166034
 21
39.3411493104
  0
LINE
  5
3EB
100
AcDbEntity
  8
SUPERFICI
100
AcDbLine
 62
7
  6
CONTINUOUS
 10
-133.3710318103
 20
39.3572557273
 11
-133.3739776075
 21
39.3531810281
  0
LINE
  5
3EC
100
AcDbEntity
  8
SUPERFICI
100
AcDbLine
 62
7
  6
CONTINUOUS
 10
-133.3670143978
 20
39.362745107
 11
-133.3694660113
 21
39.3594044159
  0
LINE
  5
3ED
100
AcDbEntity
  8
SUPERFICI
100
AcDbLine
 62
7
  6
CONTINUOUS
 10
-133.3608933289
 20
39.3709631196
 11
-133.3635787987
 21
39.3673789976
  0
LINE
  5
3EE
100
AcDbEntity
  8
SUPERFICI
100
AcDbLine
 62
7
  6
CONTINUOUS
 10
-133.358122826
 20
39.3746264332
 11
-133.3608933289
 21
39.3709631196
  0
LWPOLYLINE
  5
3EF
100
AcDbEntity
  8
SUPERFICI
100
AcDbPolyline
 62
7
  6
CONTINUOUS
 90
12
 70
0
 10
-133.3606425847
 20
39.3712957156
 10
-133.3630312712
 20
39.3681674272
 10
-133.3729486724
 20
39.354748397
 10
-133.3836758746
 20
39.3396804975
 10
-133.3942903388
 20
39.3241591293
 10
-133.4047339054
 20
39.3082411225
 10
-133.4150318566
 20
39.2918582155
 10
-133.4245159415
 20
39.2761081286
 10
-133.4330689734
 20
39.2613066652
 10
-133.4409019476
 20
39.2472065416
 10
-133.4479115646
 20
39.2341061095
 10
-133.4540670773
 20
39.222192946
  0
LINE
  5
3F0
100
AcDbEntity
  8
SUPERFICI
100
AcDbLine
 62
7
  6
CONTINUOUS
 10
-133.3552720987
 20
39.3783600872
 11
-133.358122826
 21
39.3746264332
  0
LINE
  5
3F1
100
AcDbEntity
  8
SUPERFICI
100
AcDbLine
 62
7
  6
CONTINUOUS
 10
-133.3523438927
 20
39.3821581317
 11
-133.3552720987
 21
39.3783600872
  0
LINE
  5
3F2
100
AcDbEntity
  8
SUPERFICI
100
AcDbLine
 62
7
  6
CONTINUOUS
 10
-133.3493390462
 20
39.3860171951
 11
-133.3523438927
 21
39.3821581317
  0
LINE
  5
3F3
100
AcDbEntity
  8
SUPERFICI
100
AcDbLine
 62
7
  6
CONTINUOUS
 10
-133.3462565423
 20
39.3899362995
 11
-133.3493390462
 21
39.3860171951
  0
LWPOLYLINE
  5
3F4
100
AcDbEntity
  8
SUPERFICI
100
AcDbPolyline
 62
7
  6
CONTINUOUS
 90
3
 70
0
 10
-133.3420220526
 20
39.3952557937
 10
-133.3430941326
 20
39.3939159614
 10
-133.3484962876
 20
39.3874943146
  0
LINE
  5
3F5
100
AcDbEntity
  8
SUPERFICI
100
AcDbLine
 62
7
  6
CONTINUOUS
 10
-133.3462249774
 20
-39.3903625299
 11
-133.3417672083
 21
-39.3959293415
  0
LINE
  5
3F6
100
AcDbEntity
  8
SUPERFICI
100
AcDbLine
 62
7
  6
CONTINUOUS
 10
-133.3484663274
 20
-39.3875322901
 11
-133.3438143546
 21
-39.3930132309
  0
LINE
  5
3F7
100
AcDbEntity
  8
SUPERFICI
100
AcDbLine
 62
7
  6
CONTINUOUS
 10
-133.352977083
 20
-39.3817714716
 11
-133.3484663274
 21
-39.3875322901
  0
LINE
  5
3F8
100
AcDbEntity
  8
SUPERFICI
100
AcDbLine
 62
7
  6
CONTINUOUS
 10
-133.3552458771
 20
-39.3788405169
 11
-133.3502568291
 21
-39.3848425888
  0
LINE
  5
3F9
100
AcDbEntity
  8
SUPERFICI
100
AcDbLine
 62
7
  6
CONTINUOUS
 10
-133.3579457772
 20
-39.374869233
 11
-133.3533079581
 21
-39.3809117953
  0
LINE
  5
3FA
100
AcDbEntity
  8
SUPERFICI
100
AcDbLine
 62
7
  6
CONTINUOUS
 10
-133.3667328491
 20
-39.3636438453
 11
-133.3621090725
 21
-39.3698340503
  0
LINE
  5
3FB
100
AcDbEntity
  8
SUPERFICI
100
AcDbLine
 62
7
  6
CONTINUOUS
 10
-133.3737410944
 20
-39.3540652777
 11
-133.3690590202
 21
-39.3604911563
  0
LINE
  5
3FC
100
AcDbEntity
  8
SUPERFICI
100
AcDbLine
 62
7
  6
CONTINUOUS
 10
-133.3808318002
 20
-39.3441226539
 11
-133.3760961968
 21
-39.3507916171
  0
LINE
  5
3FD
100
AcDbEntity
  8
SUPERFICI
100
AcDbLine
 62
7
  6
CONTINUOUS
 10
-133.3879878056
 20
-39.3338184174
 11
-133.383211477
 21
-39.3407268835
  0
LINE
  5
3FE
100
AcDbEntity
  8
SUPERFICI
100
AcDbLine
 62
7
  6
CONTINUOUS
 10
-133.3951806302
 20
-39.3231723272
 11
-133.3903836596
 21
-39.3303052929
  0
LINE
  5
3FF
100
AcDbEntity
  8
SUPERFICI
100
AcDbLine
 62
7
  6
CONTINUOUS
 10
-133.3999782431
 20
-39.3159019545
 11
-133.3975810262
 21
-39.31955213
  0
LINE
  5
400
100
AcDbEntity
  8
SUPERFICI
100
AcDbLine
 62
7
  6
CONTINUOUS
 10
-133.4095165797
 20
-39.3010195566
 11
-133.4023724231
 21
-39.3122210103
  0
LINE
  5
401
100
AcDbEntity
  8
SUPERFICI
100
AcDbLine
 62
7
  6
CONTINUOUS
 10
-133.4470600708
 20
39.2353389605
 11
-133.4650138988
 21
39.1997753981
  0
LINE
  5
402
100
AcDbEntity
  8
SUPERFICI
100
AcDbLine
 62
7
  6
CONTINUOUS
 10
-133.4451774345
 20
39.2394605417
 11
-133.4511809208
 21
39.2279998368
  0
LWPOLYLINE
  5
403
100
AcDbEntity
  8
SUPERFICI
100
AcDbPolyline
 62
7
  6
CONTINUOUS
 90
3
 70
0
 10
-133.4379945008
 20
39.2527126506
 10
-133.4402716794
 20
39.2485633348
 10
-133.442487103
 20
39.2444807553
  0
LWPOLYLINE
  5
404
100
AcDbEntity
  8
SUPERFICI
100
AcDbPolyline
 62
7
  6
CONTINUOUS
 90
3
 70
0
 10
-133.4308563967
 20
39.2654233098
 10
-133.4332876102
 20
39.2611431876
 10
-133.4356667531
 20
39.256906069
  0
LWPOLYLINE
  5
405
100
AcDbEntity
  8
SUPERFICI
100
AcDbPolyline
 62
7
  6
CONTINUOUS
 90
3
 70
0
 10
-133.4207399874
 20
39.2827210757
 10
-133.4233216994
 20
39.2783824705
 10
-133.4258738733
 20
39.2740433242
  0
LWPOLYLINE
  5
406
100
AcDbEntity
  8
SUPERFICI
100
AcDbPolyline
 62
7
  6
CONTINUOUS
 90
3
 70
0
 10
-133.4128283218
 20
39.2957121291
 10
-133.4154885
 20
39.2913940545
 10
-133.4181291476
 20
39.2870580325
  0
LWPOLYLINE
  5
407
100
AcDbEntity
  8
SUPERFICI
100
AcDbPolyline
 62
7
  6
CONTINUOUS
 90
9
 70
0
 10
-136.29991416
 20
25.7106910052
 10
-136.3040482546
 20
25.7068812087
 10
-136.3016891182
 20
25.7050784969
 10
-136.2973357945
 20
25.7042091628
 10
-136.2913818008
 20
25.7040398102
 10
-136.284206752
 20
25.7043326993
 10
-136.276187868
 20
25.7048380464
 10
-136.2676924147
 20
25.7053222425
 10
-136.2588748837
 20
25.7057117297
  0
LWPOLYLINE
  5
408
100
AcDbEntity
  8
SUPERFICI
100
AcDbPolyline
 62
7
  6
CONTINUOUS
 90
9
 70
0
 10
-136.3043273402
 20
-25.7114241224
 10
-136.3053045782
 20
-25.7116720807
 10
-136.30621378
 20
-25.7119399713
 10
-136.3070598655
 20
-25.7122244862
 10
-136.307847739
 20
-25.712522281
 10
-136.3085823051
 20
-25.7128299712
 10
-136.3092685519
 20
-25.7131441667
 10
-136.3099115359
 20
-25.7134614749
 10
-136.3105163228
 20
-25.7137784747
  0
LINE
  5
409
100
AcDbEntity
  8
SUPERFICI
100
AcDbLine
 62
7
  6
CONTINUOUS
 10
-136.3032772004
 20
-25.7111993911
 11
-136.3039816105
 21
-25.7113501358
  0
LWPOLYLINE
  5
40A
100
AcDbEntity
  8
SUPERFICI
100
AcDbPolyline
 62
7
  6
CONTINUOUS
 90
9
 70
0
 10
-136.2999141619
 20
-25.7106910054
 10
-136.3040482546
 20
-25.7068812087
 10
-136.3016891182
 20
-25.7050784969
 10
-136.2973357945
 20
-25.7042091628
 10
-136.2913818008
 20
-25.7040398102
 10
-136.284206752
 20
-25.7043326993
 10
-136.276187868
 20
-25.7048380464
 10
-136.2676924147
 20
-25.7053222425
 10
-136.2588748837
 20
-25.7057117297
  0
LWPOLYLINE
  5
40B
100
AcDbEntity
  8
SUPERFICI
100
AcDbPolyline
 62
7
  6
CONTINUOUS
 90
9
 70
0
 10
-133.4127626416
 20
-39.2955301833
 10
-133.4060864072
 20
-39.3061297127
 10
-133.3991085255
 20
-39.3168984216
 10
-133.3920596627
 20
-39.3274740864
 10
-133.3849191502
 20
-39.3378949174
 10
-133.3777162028
 20
-39.3481252415
 10
-133.370787191
 20
-39.3577136302
 10
-133.3642088629
 20
-39.3665985828
 10
-133.3579457772
 20
-39.374869233
  0
LINE
  5
40C
100
AcDbEntity
  8
SUPERFICI
100
AcDbLine
 62
7
  6
CONTINUOUS
 10
-133.4142266617
 20
-39.293448487
 11
-133.4118795204
 21
-39.2972403409
  0
LINE
  5
40D
100
AcDbEntity
  8
SUPERFICI
100
AcDbLine
 62
7
  6
CONTINUOUS
 10
-133.4256833811
 20
-39.2743689466
 11
-133.4234365192
 21
-39.2781883382
  0
LINE
  5
40E
100
AcDbEntity
  8
SUPERFICI
100
AcDbLine
 62
7
  6
CONTINUOUS
 10
-133.4384773299
 20
-39.2518367974
 11
-133.4343572566
 21
-39.2592442406
  0
LINE
  5
40F
100
AcDbEntity
  8
SUPERFICI
100
AcDbLine
 62
7
  6
CONTINUOUS
 10
-133.4461818065
 20
-39.2375684159
 11
-133.4443274934
 21
-39.2410540864
  0
LWPOLYLINE
  5
410
100
AcDbEntity
  8
SUPERFICI
100
AcDbPolyline
 62
7
  6
CONTINUOUS
 90
9
 70
0
 10
-133.45388011
 20
-39.2225607435
 10
-133.4499600552
 20
-39.2301856176
 10
-133.4457145269
 20
-39.2382637252
 10
-133.4411124988
 20
-39.2468198854
 10
-133.436157615
 20
-39.2558116966
 10
-133.4308569271
 20
-39.2651920876
 10
-133.4251695992
 20
-39.2749976369
 10
-133.4191073505
 20
-39.2851714966
 10
-133.4127626416
 20
-39.2955301833
  0
LWPOLYLINE
  5
411
100
AcDbEntity
  8
SUPERFICI
100
AcDbPolyline
 62
7
  6
CONTINUOUS
 90
3
 70
0
 10
-133.4469847599
 20
-39.2360445524
 10
-133.4604144974
 20
-39.2096214423
 10
-133.4790034945
 20
-39.1692603698
  0
LWPOLYLINE
  5
412
100
AcDbEntity
  8
0
100
AcDbPolyline
 62
7
  6
CONTINUOUS
 90
3
 70
0
 43
0.3500000006
 10
-132.7077446594
 20
56.5355421753
 10
-132.7789129944
 20
56.3211670532
 10
-132.9214128113
 20
56.0352701111
  0
LINE
  5
413
100
AcDbEntity
  8
SUPERFICI
100
AcDbLine
 62
7
  6
CONTINUOUS
 10
-133.4864885206
 20
39.1516018219
 11
-133.489235448
 21
39.1448696282
  0
LINE
  5
414
100
AcDbEntity
  8
SUPERFICI
100
AcDbLine
 62
7
  6
CONTINUOUS
 10
-133.5044709751
 20
39.1062040866
 11
-133.4752364433
 21
39.1765837701
  0
LINE
  5
415
100
AcDbEntity
  8
SUPERFICI
100
AcDbLine
 62
7
  6
CONTINUOUS
 10
-133.4820205762
 20
39.1623728056
 11
-133.4840004856
 21
39.1576904692
  0
LINE
  5
416
100
AcDbEntity
  8
SUPERFICI
100
AcDbLine
 62
7
  6
CONTINUOUS
 10
-133.4797786709
 20
39.1675953118
 11
-133.4830199913
 21
39.1599065038
  0
LINE
  5
417
100
AcDbEntity
  8
SUPERFICI
100
AcDbLine
 62
7
  6
CONTINUOUS
 10
-133.4785082523
 20
39.1704019684
 11
-133.4809021306
 21
39.1648750009
  0
LWPOLYLINE
  5
418
100
AcDbEntity
  8
SUPERFICI
100
AcDbPolyline
 62
7
  6
CONTINUOUS
 90
3
 70
0
 10
-133.4650138988
 20
39.1997753981
 10
-133.4925053266
 20
39.1374062914
 10
-133.5050456499
 20
39.1045948439
  0
LWPOLYLINE
  5
419
100
AcDbEntity
  8
SUPERFICI
100
AcDbPolyline
 62
7
  6
CONTINUOUS
 90
5
 70
0
 10
-133.4594964652
 20
39.211341327
 10
-133.4643348436
 20
39.2013784373
 10
-133.4686296772
 20
39.1922871881
 10
-133.4723920049
 20
39.1841190344
 10
-133.4756887008
 20
39.1767955156
  0
LINE
  5
41A
100
AcDbEntity
  8
SUPERFICI
100
AcDbLine
 62
7
  6
CONTINUOUS
 10
-133.4561948154
 20
39.2181388451
 11
-133.459503373
 21
39.2114782361
  0
LINE
  5
41B
100
AcDbEntity
  8
SUPERFICI
100
AcDbLine
 62
7
  6
CONTINUOUS
 10
-136.6594700186
 20
24.5847793061
 11
-136.6667034676
 21
24.5712641706
  0
LINE
  5
41C
100
AcDbEntity
  8
SUPERFICI
100
AcDbLine
 62
7
  6
CONTINUOUS
 10
-136.6653440622
 20
24.5737897343
 11
-136.6734360724
 21
24.5588500003
  0
LINE
  5
41D
100
AcDbEntity
  8
SUPERFICI
100
AcDbLine
 62
7
  6
CONTINUOUS
 10
-136.9854797093
 20
24.0970815927
 11
-137.0407561131
 21
23.9965152722
  0
LWPOLYLINE
  5
41E
100
AcDbEntity
  8
SUPERFICI
100
AcDbPolyline
 62
7
  6
CONTINUOUS
 90
3
 70
0
 10
-136.6736788252
 20
24.5584116725
 10
-136.6892900663
 20
24.5302231596
 10
-136.7112313518
 20
24.4919380173
  0
LINE
  5
41F
100
AcDbEntity
  8
SUPERFICI
100
AcDbLine
 62
7
  6
CONTINUOUS
 10
-136.6324951986
 20
24.6398261446
 11
-136.724949526
 21
24.4735919741
  0
LINE
  5
420
100
AcDbEntity
  8
SUPERFICI
100
AcDbLine
 62
7
  6
CONTINUOUS
 10
-136.7112313518
 20
24.4919380173
 11
-136.7397422735
 21
24.4443456822
  0
LWPOLYLINE
  5
421
100
AcDbEntity
  8
SUPERFICI
100
AcDbPolyline
 62
7
  6
CONTINUOUS
 90
3
 70
0
 10
-136.724949526
 20
24.4735919741
 10
-136.8262050087
 20
24.3158585876
 10
-136.8605311102
 20
24.2692848666
  0
LINE
  5
422
100
AcDbEntity
  8
SUPERFICI
100
AcDbLine
 62
7
  6
CONTINUOUS
 10
-137.0024467219
 20
24.0690312707
 11
-136.9369035933
 21
24.1674297575
  0
LWPOLYLINE
  5
423
100
AcDbEntity
  8
SUPERFICI
100
AcDbPolyline
 62
250
  6
CONTINUOUS
 90
9
 70
0
 10
-136.8261338993
 20
24.3106211155
 10
-136.7214737694
 20
24.4625103381
 10
-136.6246334579
 20
24.6236765692
 10
-136.5358618377
 20
24.7945174471
 10
-136.4566839844
 20
24.9731402418
 10
-136.3891904814
 20
25.1550345459
 10
-136.3339365891
 20
25.3378111642
 10
-136.2906545717
 20
25.5215254126
 10
-136.2595371813
 20
25.705103639
  0
LINE
  5
424
100
AcDbEntity
  8
SUPERFICI
100
AcDbLine
 62
7
  6
CONTINUOUS
 10
-136.9368060745
 20
24.1675600475
 11
-136.9854797093
 21
24.0970815927
  0
LWPOLYLINE
  5
425
100
AcDbEntity
  8
SUPERFICI
100
AcDbPolyline
 62
7
  6
CONTINUOUS
 90
3
 70
0
 10
-136.8594895145
 20
24.2685171822
 10
-136.8714952604
 20
24.2519840663
 10
-136.8770194968
 20
24.2444929686
  0
LINE
  5
426
100
AcDbEntity
  8
SUPERFICI
100
AcDbLine
 62
250
  6
CONTINUOUS
 10
-136.9220821208
 20
24.1876015761
 11
-136.8261338993
 21
24.3106211155
  0
LINE
  5
427
100
AcDbEntity
  8
SUPERFICI
100
AcDbLine
 62
7
  6
CONTINUOUS
 10
-136.9378556504
 20
24.1686709627
 11
-136.9220821208
 21
24.1876015761
  0
LWPOLYLINE
  5
428
100
AcDbEntity
  8
SUPERFICI
100
AcDbPolyline
 62
250
  6
CONTINUOUS
 90
4
 70
0
 10
-136.1525964864
 20
-22.2182228838
 10
-136.1951932038
 20
-22.2202410288
 10
-136.250877062
 20
-22.2224157729
 10
-136.3189042848
 20
-22.2246600381
  0
LINE
  5
429
100
AcDbEntity
  8
SUPERFICI
100
AcDbLine
 62
250
  6
CONTINUOUS
 10
-136.3189042848
 20
-22.2246600381
 11
-136.4893547943
 21
-22.2290570806
  0
LINE
  5
42A
100
AcDbEntity
  8
SUPERFICI
100
AcDbLine
 62
250
  6
CONTINUOUS
 10
-136.4893547943
 20
-22.2290570806
 11
-136.6990100973
 21
-22.2328660149
  0
LINE
  5
42B
100
AcDbEntity
  8
SUPERFICI
100
AcDbLine
 62
7
  6
CONTINUOUS
 10
-136.9395085774
 20
-22.235697173
 11
-137.1307347668
 21
-22.2383359431
  0
LINE
  5
42C
100
AcDbEntity
  8
SUPERFICI
100
AcDbLine
 62
250
  6
CONTINUOUS
 10
-136.6990100973
 20
-22.2328660149
 11
-136.9408110694
 21
-22.235697173
  0
LINE
  5
42D
100
AcDbEntity
  8
SUPERFICI
100
AcDbLine
 62
7
  6
CONTINUOUS
 10
-136.9378556504
 20
-24.1686709627
 11
-136.9242041977
 21
-24.1850346649
  0
LINE
  5
42E
100
AcDbEntity
  8
SUPERFICI
100
AcDbLine
 62
250
  6
CONTINUOUS
 10
-136.9242041977
 20
-24.1850346649
 11
-136.8261338993
 21
-24.3106211155
  0
LWPOLYLINE
  5
42F
100
AcDbEntity
  8
SUPERFICI
100
AcDbPolyline
 62
250
  6
CONTINUOUS
 90
9
 70
0
 10
-136.8261338993
 20
-24.3106211155
 10
-136.7214737694
 20
-24.4625103381
 10
-136.6246334579
 20
-24.6236765692
 10
-136.5358618377
 20
-24.7945174471
 10
-136.4566839844
 20
-24.9731402418
 10
-136.3891904814
 20
-25.1550345459
 10
-136.3339365891
 20
-25.3378111642
 10
-136.2906545717
 20
-25.5215254126
 10
-136.2595371813
 20
-25.705103639
  0
LWPOLYLINE
  5
430
100
AcDbEntity
  8
SUPERFICI
100
AcDbPolyline
 62
7
  6
CONTINUOUS
 90
3
 70
0
 10
-136.724949526
 20
-24.4735919741
 10
-136.8262050087
 20
-24.3158585876
 10
-136.860526399
 20
-24.2692553353
  0
LINE
  5
431
100
AcDbEntity
  8
SUPERFICI
100
AcDbLine
 62
7
  6
CONTINUOUS
 10
-136.6324951986
 20
-24.6398261446
 11
-136.724949526
 21
-24.4735919741
  0
LINE
  5
432
100
AcDbEntity
  8
SUPERFICI
100
AcDbLine
 62
7
  6
CONTINUOUS
 10
-136.6801368032
 20
-24.5466492696
 11
-136.6743965998
 21
-24.5570916599
  0
LINE
  5
433
100
AcDbEntity
  8
SUPERFICI
100
AcDbLine
 62
7
  6
CONTINUOUS
 10
-136.6743965998
 20
-24.5570916599
 11
-136.6689096425
 21
-24.5671788776
  0
LWPOLYLINE
  5
434
100
AcDbEntity
  8
SUPERFICI
100
AcDbPolyline
 62
7
  6
CONTINUOUS
 90
3
 70
0
 10
-136.6689096425
 20
-24.5671788776
 10
-136.6616888591
 20
-24.5806137621
 10
-136.6589206458
 20
-24.5858134054
  0
LWPOLYLINE
  5
435
100
AcDbEntity
  8
SUPERFICI
100
AcDbPolyline
 62
7
  6
CONTINUOUS
 90
4
 70
0
 10
-133.4695549128
 20
-39.1902966184
 10
-133.4668699411
 20
-39.1960413698
 10
-133.4639865934
 20
-39.2021051781
 10
-133.4608834242
 20
-39.2085144777
  0
LINE
  5
436
100
AcDbEntity
  8
SUPERFICI
100
AcDbLine
 62
7
  6
CONTINUOUS
 10
-133.4750517199
 20
-39.178344413
 11
-133.4726107839
 21
-39.1837630556
  0
LINE
  5
437
100
AcDbEntity
  8
SUPERFICI
100
AcDbLine
 62
7
  6
CONTINUOUS
 10
-133.4763531465
 20
-39.175299866
 11
-133.4743032629
 21
-39.1798927275
  0
LINE
  5
438
100
AcDbEntity
  8
SUPERFICI
100
AcDbLine
 62
7
  6
CONTINUOUS
 10
-133.4814613978
 20
-39.1635702736
 11
-133.4782062647
 21
-39.1710926665
  0
LINE
  5
439
100
AcDbEntity
  8
SUPERFICI
100
AcDbLine
 62
7
  6
CONTINUOUS
 10
-133.4841745231
 20
-39.1571657651
 11
-133.4814613978
 21
-39.1635702736
  0
LINE
  5
43A
100
AcDbEntity
  8
SUPERFICI
100
AcDbLine
 62
7
  6
CONTINUOUS
 10
-133.5044709751
 20
-39.1062040866
 11
-133.4694240786
 21
-39.1905765507
  0
LINE
  5
43B
100
AcDbEntity
  8
SUPERFICI
100
AcDbLine
 62
7
  6
CONTINUOUS
 10
-133.4884622347
 20
-39.146778969
 11
-133.4875080615
 21
-39.1491195772
  0
LINE
  5
43C
100
AcDbEntity
  8
SUPERFICI
100
AcDbLine
 62
7
  6
CONTINUOUS
 10
-133.489446409
 20
-39.1443459803
 11
-133.489342845
 21
-39.144603522
  0
LINE
  5
43D
100
AcDbEntity
  8
SUPERFICI
100
AcDbLine
 62
7
  6
CONTINUOUS
 10
-134.5003279348
 20
36.0101321968
 11
-134.5824383777
 21
35.7185351678
  0
LWPOLYLINE
  5
43E
100
AcDbEntity
  8
SUPERFICI
100
AcDbPolyline
 62
250
  6
CONTINUOUS
 90
8
 70
0
 10
-133.9605036473
 20
37.6955873738
 10
-134.0308469957
 20
37.4478317861
 10
-134.099666326
 20
37.1962803272
 10
-134.1671683433
 20
36.9411370904
 10
-134.2335158528
 20
36.6828027978
 10
-134.2989750622
 20
36.4213026728
 10
-134.3639082053
 20
36.1562706696
 10
-134.4931838582
 20
35.6160735101
  0
LWPOLYLINE
  5
43F
100
AcDbEntity
  8
SUPERFICI
100
AcDbPolyline
 62
250
  6
CONTINUOUS
 90
10
 70
0
 10
-133.5211976845
 20
39.0465825811
 10
-133.5745504848
 20
38.8593675751
 10
-133.6265235516
 20
38.6729488019
 10
-133.6772239452
 20
38.4869209591
 10
-133.726753736
 20
38.3008985562
 10
-133.7752187408
 20
38.1144832269
 10
-133.8227280512
 20
37.9272628983
 10
-133.8693827579
 20
37.7388551276
 10
-133.9152764584
 20
37.5489077782
 10
-133.9605036472
 20
37.3570658158
  0
LINE
  5
440
100
AcDbEntity
  8
SUPERFICI
100
AcDbLine
 62
7
  6
CONTINUOUS
 10
-134.6787844842
 20
35.4069770162
 11
-134.3846779113
 21
36.4292196807
  0
LINE
  5
441
100
AcDbEntity
  8
SUPERFICI
100
AcDbLine
 62
7
  6
CONTINUOUS
 10
-134.3935250601
 20
36.3805241015
 11
-134.5003279348
 21
36.0101321968
  0
LINE
  5
442
100
AcDbEntity
  8
SUPERFICI
100
AcDbLine
 62
7
  6
CONTINUOUS
 10
-134.2989679615
 20
36.6996508488
 11
-134.3935250601
 21
36.3805241015
  0
LINE
  5
443
100
AcDbEntity
  8
SUPERFICI
100
AcDbLine
 62
7
  6
CONTINUOUS
 10
-134.2219140815
 20
36.9536873449
 11
-134.2989679615
 21
36.6996508488
  0
LWPOLYLINE
  5
444
100
AcDbEntity
  8
SUPERFICI
100
AcDbPolyline
 62
250
  6
CONTINUOUS
 90
10
 70
0
 10
-133.528163211
 20
39.0111088013
 10
-133.4973006123
 20
39.112139862
 10
-133.4560477493
 20
39.2090184496
 10
-133.4046828603
 20
39.3010455405
 10
-133.343518858
 20
39.3875251001
 10
-133.2733168217
 20
39.4673653907
 10
-133.195103798
 20
39.539311185
 10
-133.1097914292
 20
39.6024154892
 10
-133.0184560855
 20
39.6560142787
 10
-132.9863918458
 20
39.6735204678
  0
LWPOLYLINE
  5
445
100
AcDbEntity
  8
SUPERFICI
100
AcDbPolyline
 62
250
  6
CONTINUOUS
 90
7
 70
0
 10
-133.9605036472
 20
37.7693600701
 10
-134.0334520043
 20
37.5337454531
 10
-134.1040962352
 20
37.2989313369
 10
-134.1727624845
 20
37.0645493403
 10
-134.2398604259
 20
36.829915267
 10
-134.3056037507
 20
36.595004681
 10
-134.4333230757
 20
36.1263636382
  0
LINE
  5
446
100
AcDbEntity
  8
SUPERFICI
100
AcDbLine
 62
7
  6
CONTINUOUS
 10
-134.1387218217
 20
37.2223433582
 11
-134.2219140815
 21
36.9536873449
  0
LINE
  5
447
100
AcDbEntity
  8
SUPERFICI
100
AcDbLine
 62
7
  6
CONTINUOUS
 10
-134.0527431294
 20
37.4948239257
 11
-134.1387218217
 21
37.2223433582
  0
LINE
  5
448
100
AcDbEntity
  8
SUPERFICI
100
AcDbLine
 62
7
  6
CONTINUOUS
 10
-134.3846779113
 20
36.4292196807
 11
-134.2870859635
 21
36.7356563888
  0
LINE
  5
449
100
AcDbEntity
  8
SUPERFICI
100
AcDbLine
 62
7
  6
CONTINUOUS
 10
-133.9679548834
 20
37.7591606625
 11
-134.0527431294
 21
37.4948239257
  0
LWPOLYLINE
  5
44A
100
AcDbEntity
  8
SUPERFICI
100
AcDbPolyline
 62
7
  6
CONTINUOUS
 90
3
 70
0
 10
-133.8646334799
 20
38.0686733144
 10
-133.9129416987
 20
37.9192665343
 10
-133.9605036472
 20
37.76936007
  0
LINE
  5
44B
100
AcDbEntity
  8
SUPERFICI
100
AcDbLine
 62
7
  6
CONTINUOUS
 10
-133.9132505147
 20
37.927101113
 11
-133.9679548834
 21
37.7591606625
  0
LINE
  5
44C
100
AcDbEntity
  8
SUPERFICI
100
AcDbLine
 62
7
  6
CONTINUOUS
 10
-133.8155361801
 20
38.217711816
 11
-133.9132505147
 21
37.927101113
  0
LINE
  5
44D
100
AcDbEntity
  8
SUPERFICI
100
AcDbLine
 62
7
  6
CONTINUOUS
 10
-133.7656398341
 20
38.3664165254
 11
-133.8540759367
 21
38.106137718
  0
LINE
  5
44E
100
AcDbEntity
  8
SUPERFICI
100
AcDbLine
 62
7
  6
CONTINUOUS
 10
-133.8020699762
 20
38.2200932468
 11
-133.5237364797
 21
39.0474375595
  0
LINE
  5
44F
100
AcDbEntity
  8
SUPERFICI
100
AcDbLine
 62
7
  6
CONTINUOUS
 10
-133.7148690641
 20
38.5150187266
 11
-133.776968616
 21
38.3351832021
  0
LWPOLYLINE
  5
450
100
AcDbEntity
  8
SUPERFICI
100
AcDbPolyline
 62
250
  6
CONTINUOUS
 90
9
 70
0
 10
-133.5591033535
 20
38.9509811472
 10
-133.6130266704
 20
38.7957333818
 10
-133.6656782255
 20
38.6406114501
 10
-133.7171242797
 20
38.4854209998
 10
-133.767480364
 20
38.3298215312
 10
-133.8169070448
 20
38.1733208332
 10
-133.8655110773
 20
38.0155802549
 10
-133.9133496624
 20
37.8564201923
 10
-133.9605036473
 20
37.6955873738
  0
LINE
  5
451
100
AcDbEntity
  8
SUPERFICI
100
AcDbLine
 62
7
  6
CONTINUOUS
 10
-133.65572063
 20
38.6853491722
 11
-133.7199249491
 21
38.5014722129
  0
LINE
  5
452
100
AcDbEntity
  8
SUPERFICI
100
AcDbLine
 62
250
  6
CONTINUOUS
 10
-133.5038150989
 20
39.1066318486
 11
-133.5561633045
 21
38.9635095472
  0
LINE
  5
453
100
AcDbEntity
  8
SUPERFICI
100
AcDbLine
 62
7
  6
CONTINUOUS
 10
-133.6045848285
 20
38.8292934188
 11
-133.6630775565
 21
38.6639451753
  0
LINE
  5
454
100
AcDbEntity
  8
SUPERFICI
100
AcDbLine
 62
7
  6
CONTINUOUS
 10
-137.0944504199
 20
23.8549297015
 11
-137.0551039951
 21
23.9645992453
  0
LINE
  5
455
100
AcDbEntity
  8
SUPERFICI
100
AcDbLine
 62
7
  6
CONTINUOUS
 10
-133.5296249621
 20
39.0363659592
 11
-133.6101811404
 21
38.8134286992
  0
LINE
  5
456
100
AcDbEntity
  8
SUPERFICI
100
AcDbLine
 62
7
  6
CONTINUOUS
 10
-133.5369615306
 20
39.0162545532
 11
-133.5406347557
 21
39.0062400542
  0
LINE
  5
457
100
AcDbEntity
  8
SUPERFICI
100
AcDbLine
 62
7
  6
CONTINUOUS
 10
-133.5062473243
 20
39.1000179665
 11
-133.5296249621
 21
39.0363659592
  0
LWPOLYLINE
  5
458
100
AcDbEntity
  8
SUPERFICI
100
AcDbPolyline
 62
7
  6
CONTINUOUS
 90
6
 70
0
 10
-136.5017321022
 20
24.9387626079
 10
-136.5079777222
 20
24.9219117094
 10
-136.5143462373
 20
24.9050467812
 10
-136.5208280934
 20
24.8881968212
 10
-136.5274642845
 20
24.8712602427
 10
-136.5342748868
 20
24.8541945443
  0
LINE
  5
459
100
AcDbEntity
  8
SUPERFICI
100
AcDbLine
 62
7
  6
CONTINUOUS
 10
-137.0407561131
 20
23.9965152722
 11
-137.0822386112
 21
23.8941890144
  0
LINE
  5
45A
100
AcDbEntity
  8
SUPERFICI
100
AcDbLine
 62
7
  6
CONTINUOUS
 10
-136.5342748868
 20
24.8541945443
 11
-136.541244043
 21
24.8370482148
  0
LWPOLYLINE
  5
45B
100
AcDbEntity
  8
SUPERFICI
100
AcDbPolyline
 62
7
  6
CONTINUOUS
 90
5
 70
0
 10
-136.5386998383
 20
24.8432715366
 10
-136.5535039366
 20
24.8076207724
 10
-136.5679618465
 20
24.7740448089
 10
-136.5819984062
 20
24.7425289062
 10
-136.5956025224
 20
24.7129286498
  0
LINE
  5
45C
100
AcDbEntity
  8
SUPERFICI
100
AcDbLine
 62
7
  6
CONTINUOUS
 10
-136.5483599883
 20
24.8198568334
 11
-136.555631195
 21
24.8026061646
  0
LINE
  5
45D
100
AcDbEntity
  8
SUPERFICI
100
AcDbLine
 62
7
  6
CONTINUOUS
 10
-136.5630518801
 20
24.785316181
 11
-136.5705866554
 21
24.7680728822
  0
LINE
  5
45E
100
AcDbEntity
  8
SUPERFICI
100
AcDbLine
 62
7
  6
CONTINUOUS
 10
-136.5782467618
 20
24.7508525725
 11
-136.5860206056
 21
24.7336833713
  0
LINE
  5
45F
100
AcDbEntity
  8
SUPERFICI
100
AcDbLine
 62
7
  6
CONTINUOUS
 10
-136.584721435
 20
24.736552701
 11
-136.5899198494
 21
24.7255464747
  0
LINE
  5
460
100
AcDbEntity
  8
SUPERFICI
100
AcDbLine
 62
7
  6
CONTINUOUS
 10
-136.5938338024
 20
24.7167267207
 11
-136.6086530322
 21
24.6853506427
  0
LINE
  5
461
100
AcDbEntity
  8
SUPERFICI
100
AcDbLine
 62
7
  6
CONTINUOUS
 10
-136.5625116254
 20
24.786574959
 11
-136.6324951986
 21
24.6398261446
  0
LINE
  5
462
100
AcDbEntity
  8
SUPERFICI
100
AcDbLine
 62
7
  6
CONTINUOUS
 10
-136.6096006607
 20
24.6833780028
 11
-136.6209051244
 21
24.6601462354
  0
LINE
  5
463
100
AcDbEntity
  8
SUPERFICI
100
AcDbLine
 62
7
  6
CONTINUOUS
 10
-136.6173987564
 20
24.6672936317
 11
-136.632296762
 21
24.6372772429
  0
LINE
  5
464
100
AcDbEntity
  8
SUPERFICI
100
AcDbLine
 62
7
  6
CONTINUOUS
 10
-136.6251073717
 20
24.6516481725
 11
-136.6326983935
 21
24.6364805693
  0
LINE
  5
465
100
AcDbEntity
  8
SUPERFICI
100
AcDbLine
 62
7
  6
CONTINUOUS
 10
-137.0551039951
 20
23.9645992453
 11
-137.0024467219
 21
24.0690312707
  0
LINE
  5
466
100
AcDbEntity
  8
SUPERFICI
100
AcDbLine
 62
7
  6
CONTINUOUS
 10
-136.6326983935
 20
24.6364805693
 11
-136.6427638981
 21
24.6167222639
  0
LWPOLYLINE
  5
467
100
AcDbEntity
  8
SUPERFICI
100
AcDbPolyline
 62
7
  6
CONTINUOUS
 90
3
 70
0
 10
-136.6399642574
 20
24.6221782109
 10
-136.6520463525
 20
24.5988458773
 10
-136.660019273
 20
24.5837465163
  0
LINE
  5
468
100
AcDbEntity
  8
SUPERFICI
100
AcDbLine
 62
7
  6
CONTINUOUS
 10
-136.6469003445
 20
24.6087160685
 11
-136.6534844051
 21
24.5961052571
  0
LINE
  5
469
100
AcDbEntity
  8
SUPERFICI
100
AcDbLine
 62
250
  6
CONTINUOUS
 10
-136.822033975
 20
16.5988340496
 11
-136.8474856493
 21
16.565824471
  0
LINE
  5
46A
100
AcDbEntity
  8
SUPERFICI
100
AcDbLine
 62
250
  6
CONTINUOUS
 10
-136.8474856493
 20
16.565824471
 11
-136.872380603
 21
16.5340849234
  0
LWPOLYLINE
  5
46B
100
AcDbEntity
  8
SUPERFICI
100
AcDbPolyline
 62
250
  6
CONTINUOUS
 90
6
 70
0
 10
-136.872380603
 20
16.5340849234
 10
-136.8962854262
 20
16.5041085527
 10
-136.9078700365
 20
16.4902993778
 10
-136.9191754705
 20
16.4784819449
 10
-136.9301647878
 20
16.4695474702
 10
-136.9408110694
 20
16.4642077502
  0
LWPOLYLINE
  5
46C
100
AcDbEntity
  8
SUPERFICI
100
AcDbPolyline
 62
250
  6
CONTINUOUS
 90
5
 70
0
 10
-136.9408110694
 20
-16.4642076141
 10
-136.9301638753
 20
-16.469547976
 10
-136.9191732541
 20
-16.4784838862
 10
-136.9078662064
 20
-16.4903034889
 10
-136.8962797685
 20
-16.5041153923
  0
LINE
  5
46D
100
AcDbEntity
  8
SUPERFICI
100
AcDbLine
 62
250
  6
CONTINUOUS
 10
-136.8962797685
 20
-16.5041153923
 11
-136.8723712797
 21
-16.5340979389
  0
LINE
  5
46E
100
AcDbEntity
  8
SUPERFICI
100
AcDbLine
 62
250
  6
CONTINUOUS
 10
-136.8723712797
 20
-16.5340979389
 11
-136.8474748975
 21
-16.5658428887
  0
LWPOLYLINE
  5
46F
100
AcDbEntity
  8
SUPERFICI
100
AcDbPolyline
 62
250
  6
CONTINUOUS
 90
46
 70
0
 10
-136.8474748975
 20
-16.5658428887
 10
-136.8220133959
 20
-16.5988710516
 10
-136.8091238542
 20
-16.6158187426
 10
-136.7960856314
 20
-16.6331239913
 10
-136.7829177004
 20
-16.6507721254
 10
-136.7696179595
 20
-16.668776823
 10
-136.7561269929
 20
-16.6872314202
 10
-136.7424454977
 20
-16.7061500767
 10
-136.7285960462
 20
-16.7255172821
 10
-136.7145559921
 20
-16.745381624
 10
-136.7003363713
 20
-16.765746035
 10
-136.6859537805
 20
-16.7866060534
 10
-136.6713967999
 20
-16.8079990184
 10
-136.6566875601
 20
-16.8299146314
 10
-136.6418358152
 20
-16.8523615286
 10
-136.6268152953
 20
-16.8754052577
 10
-136.6116461301
 20
-16.899043424
 10
-136.5963471325
 20
-16.9232765026
 10
-136.5808951974
 20
-16.9481740863
 10
-136.5653172484
 20
-16.9737290664
 10
-136.5496334718
 20
-16.9999463824
 10
-136.5338171615
 20
-17.0269133921
 10
-136.5178926483
 20
-17.0546364805
 10
-136.5018940059
 20
-17.083106766
 10
-136.4858161774
 20
-17.1123884098
 10
-136.4696926241
 20
-17.1424810998
 10
-136.4535589582
 20
-17.1733824852
 10
-136.4374201268
 20
-17.2051534318
 10
-136.4213187882
 20
-17.2377869522
 10
-136.4052931957
 20
-17.2712872894
 10
-136.3893498553
 20
-17.305731908
 10
-136.3735383858
 20
-17.3411144906
 10
-136.3579053995
 20
-17.3774385481
 10
-136.3424635296
 20
-17.4147960004
 10
-136.3272714155
 20
-17.4531808751
 10
-136.3123857749
 20
-17.4925963584
 10
-136.2978297501
 20
-17.5331478058
 10
-136.2836722889
 20
-17.5748325276
 10
-136.269983567
 20
-17.6176505948
 10
-136.2568045618
 20
-17.661711235
 10
-136.2442178915
 20
-17.7070117138
 10
-136.2323078822
 20
-17.7535526012
 10
-136.2211365198
 20
-17.8014478992
 10
-136.2107945415
 20
-17.8507350635
 10
-136.2013928579
 20
-17.9013752764
 10
-136.1930361842
 20
-17.9533682886
  0
LINE
  5
470
100
AcDbEntity
  8
SUPERFICI
100
AcDbLine
 62
7
  6
CONTINUOUS
 10
-136.6589206458
 20
-24.5858134054
 11
-136.6529092965
 21
-24.5972003751
  0
LINE
  5
471
100
AcDbEntity
  8
SUPERFICI
100
AcDbLine
 62
7
  6
CONTINUOUS
 10
-136.6529092965
 20
-24.5972003751
 11
-136.6463016859
 21
-24.609870766
  0
LINE
  5
472
100
AcDbEntity
  8
SUPERFICI
100
AcDbLine
 62
7
  6
CONTINUOUS
 10
-136.6463016859
 20
-24.609870766
 11
-136.6391810833
 21
-24.623709888
  0
LINE
  5
473
100
AcDbEntity
  8
SUPERFICI
100
AcDbLine
 62
7
  6
CONTINUOUS
 10
-136.6391810833
 20
-24.623709888
 11
-136.6316352541
 21
-24.638590812
  0
LINE
  5
474
100
AcDbEntity
  8
SUPERFICI
100
AcDbLine
 62
7
  6
CONTINUOUS
 10
-136.6316352541
 20
-24.638590812
 11
-136.6237262485
 21
-24.6544330866
  0
LINE
  5
475
100
AcDbEntity
  8
SUPERFICI
100
AcDbLine
 62
7
  6
CONTINUOUS
 10
-136.6237262485
 20
-24.6544330866
 11
-136.6155373448
 21
-24.6711091459
  0
LINE
  5
476
100
AcDbEntity
  8
SUPERFICI
100
AcDbLine
 62
7
  6
CONTINUOUS
 10
-136.6155373448
 20
-24.6711091459
 11
-136.6071431968
 21
-24.6885018142
  0
LINE
  5
477
100
AcDbEntity
  8
SUPERFICI
100
AcDbLine
 62
7
  6
CONTINUOUS
 10
-136.5625162497
 20
-24.7865652623
 11
-136.6324951986
 21
-24.6398261446
  0
LINE
  5
478
100
AcDbEntity
  8
SUPERFICI
100
AcDbLine
 62
7
  6
CONTINUOUS
 10
-136.5856561143
 20
-24.7345613538
 11
-136.5845253634
 21
-24.7369711243
  0
LINE
  5
479
100
AcDbEntity
  8
SUPERFICI
100
AcDbLine
 62
7
  6
CONTINUOUS
 10
-136.5985941962
 20
-24.706537824
 11
-136.5899547958
 21
-24.7251083572
  0
LINE
  5
47A
100
AcDbEntity
  8
SUPERFICI
100
AcDbLine
 62
7
  6
CONTINUOUS
 10
-136.5899547958
 20
-24.7251083572
 11
-136.5812772227
 21
-24.7441234515
  0
LINE
  5
47B
100
AcDbEntity
  8
SUPERFICI
100
AcDbLine
 62
7
  6
CONTINUOUS
 10
-136.5812772227
 20
-24.7441234515
 11
-136.5725955985
 21
-24.7635269685
  0
LINE
  5
47C
100
AcDbEntity
  8
SUPERFICI
100
AcDbLine
 62
7
  6
CONTINUOUS
 10
-136.5725955985
 20
-24.7635269685
 11
-136.563952053
 21
-24.7832398312
  0
LINE
  5
47D
100
AcDbEntity
  8
SUPERFICI
100
AcDbLine
 62
7
  6
CONTINUOUS
 10
-136.563952053
 20
-24.7832398312
 11
-136.5553780052
 21
-24.8032016328
  0
LINE
  5
47E
100
AcDbEntity
  8
SUPERFICI
100
AcDbLine
 62
7
  6
CONTINUOUS
 10
-136.5553780052
 20
-24.8032016328
 11
-136.546893451
 21
-24.8233743829
  0
LINE
  5
47F
100
AcDbEntity
  8
SUPERFICI
100
AcDbLine
 62
7
  6
CONTINUOUS
 10
-136.546893451
 20
-24.8233743829
 11
-136.5385223085
 21
-24.843707329
  0
LINE
  5
480
100
AcDbEntity
  8
SUPERFICI
100
AcDbLine
 62
7
  6
CONTINUOUS
 10
-136.5385223085
 20
-24.843707329
 11
-136.5302830937
 21
-24.8641589981
  0
LINE
  5
481
100
AcDbEntity
  8
SUPERFICI
100
AcDbLine
 62
7
  6
CONTINUOUS
 10
-136.5302830937
 20
-24.8641589981
 11
-136.5221802642
 21
-24.884720531
  0
LINE
  5
482
100
AcDbEntity
  8
SUPERFICI
100
AcDbLine
 62
7
  6
CONTINUOUS
 10
-136.5221802642
 20
-24.884720531
 11
-136.5142186709
 21
-24.9053815413
  0
LWPOLYLINE
  5
483
100
AcDbEntity
  8
SUPERFICI
100
AcDbPolyline
 62
7
  6
CONTINUOUS
 90
4
 70
0
 10
-133.5050456499
 20
-39.1045948439
 10
-133.4925053266
 20
-39.1374062914
 10
-133.4650138988
 20
-39.1997753981
 10
-133.4575182036
 20
-39.215334176
  0
LINE
  5
484
100
AcDbEntity
  8
SUPERFICI
100
AcDbLine
 62
7
  6
CONTINUOUS
 10
-136.5142186709
 20
-24.9053815413
 11
-136.5063293014
 21
-24.9263286931
  0
LINE
  5
485
100
AcDbEntity
  8
SUPERFICI
100
AcDbLine
 62
7
  6
CONTINUOUS
 10
-136.5063293014
 20
-24.9263286931
 11
-136.498474642
 21
-24.9476783161
  0
LINE
  5
486
100
AcDbEntity
  8
SUPERFICI
100
AcDbLine
 62
7
  6
CONTINUOUS
 10
-133.5741342391
 20
-38.9139676047
 11
-133.5062604597
 21
-39.099967937
  0
LINE
  5
487
100
AcDbEntity
  8
SUPERFICI
100
AcDbLine
 62
7
  6
CONTINUOUS
 10
-136.498474642
 20
-24.9476783161
 11
-136.4905924257
 21
-24.96962743
  0
LINE
  5
488
100
AcDbEntity
  8
SUPERFICI
100
AcDbLine
 62
7
  6
CONTINUOUS
 10
-133.6315862472
 20
-38.7535616364
 11
-133.5561633045
 21
-38.9635095472
  0
LINE
  5
489
100
AcDbEntity
  8
SUPERFICI
100
AcDbLine
 62
250
  6
CONTINUOUS
 10
-133.5561633045
 20
-38.9635095472
 11
-133.5038151667
 21
-39.1066318421
  0
LINE
  5
48A
100
AcDbEntity
  8
SUPERFICI
100
AcDbLine
 62
7
  6
CONTINUOUS
 10
-133.699853301
 20
-38.5593325805
 11
-133.6101811404
 21
-38.8134286992
  0
LINE
  5
48B
100
AcDbEntity
  8
SUPERFICI
100
AcDbLine
 62
7
  6
CONTINUOUS
 10
-136.4905924257
 20
-24.96962743
 11
-136.4826339874
 21
-24.9923535702
  0
LINE
  5
48C
100
AcDbEntity
  8
SUPERFICI
100
AcDbLine
 62
7
  6
CONTINUOUS
 10
-133.7584708859
 20
-38.3894038817
 11
-133.6630775565
 21
-38.6639451753
  0
LWPOLYLINE
  5
48D
100
AcDbEntity
  8
SUPERFICI
100
AcDbPolyline
 62
7
  6
CONTINUOUS
 90
3
 70
0
 10
-136.4826339874
 20
-24.9923535702
 10
-136.4745749038
 20
-25.0159811338
 10
-136.47049143
 20
-25.0282013953
  0
LINE
  5
48E
100
AcDbEntity
  8
SUPERFICI
100
AcDbLine
 62
7
  6
CONTINUOUS
 10
-133.8149797329
 20
-38.2228791738
 11
-133.7148690641
 21
-38.5150187266
  0
LINE
  5
48F
100
AcDbEntity
  8
SUPERFICI
100
AcDbLine
 62
7
  6
CONTINUOUS
 10
-133.8020694158
 20
-38.2200949322
 11
-133.5237364779
 21
-39.0474375589
  0
LINE
  5
490
100
AcDbEntity
  8
SUPERFICI
100
AcDbLine
 62
7
  6
CONTINUOUS
 10
-133.8738070828
 20
-38.0467501162
 11
-133.7656398341
 21
-38.3664165254
  0
LWPOLYLINE
  5
491
100
AcDbEntity
  8
SUPERFICI
100
AcDbPolyline
 62
7
  6
CONTINUOUS
 90
4
 70
0
 10
-133.8155361801
 20
-38.217711816
 10
-133.8646334799
 20
-38.0686733144
 10
-133.9129416987
 20
-37.9192665343
 10
-133.9605036472
 20
-37.76936007
  0
LINE
  5
492
100
AcDbEntity
  8
SUPERFICI
100
AcDbLine
 62
7
  6
CONTINUOUS
 10
-133.9326038055
 20
-37.8679481914
 11
-133.8738070828
 21
-38.0467501162
  0
LINE
  5
493
100
AcDbEntity
  8
SUPERFICI
100
AcDbLine
 62
7
  6
CONTINUOUS
 10
-134.0220770273
 20
-37.5909424727
 11
-133.9326037887
 21
-37.8679482431
  0
LINE
  5
494
100
AcDbEntity
  8
SUPERFICI
100
AcDbLine
 62
7
  6
CONTINUOUS
 10
-134.3846779097
 20
-36.4292196802
 11
-134.2870860015
 21
-36.7356562638
  0
LINE
  5
495
100
AcDbEntity
  8
SUPERFICI
100
AcDbLine
 62
7
  6
CONTINUOUS
 10
-134.1178447985
 20
-37.2889414721
 11
-134.0220770273
 21
-37.5909424727
  0
LINE
  5
496
100
AcDbEntity
  8
SUPERFICI
100
AcDbLine
 62
7
  6
CONTINUOUS
 10
-134.1895360589
 20
-37.0589030189
 11
-134.1178447985
 21
-37.2889414721
  0
LWPOLYLINE
  5
497
100
AcDbEntity
  8
SUPERFICI
100
AcDbPolyline
 62
250
  6
CONTINUOUS
 90
6
 70
0
 10
-133.9605036472
 20
-37.7693600701
 10
-134.0334520043
 20
-37.5337454531
 10
-134.1040962352
 20
-37.2989313369
 10
-134.1727624845
 20
-37.0645493403
 10
-134.2398604259
 20
-36.829915267
 10
-134.3056037507
 20
-36.595004681
  0
LWPOLYLINE
  5
498
100
AcDbEntity
  8
SUPERFICI
100
AcDbPolyline
 62
250
  6
CONTINUOUS
 90
10
 70
0
 10
-133.528163211
 20
-39.0111088013
 10
-133.4973006123
 20
-39.112139862
 10
-133.4560477493
 20
-39.2090184496
 10
-133.4046828603
 20
-39.3010455405
 10
-133.343518858
 20
-39.3875251001
 10
-133.2733168217
 20
-39.4673653907
 10
-133.195103798
 20
-39.539311185
 10
-133.1097914292
 20
-39.6024154892
 10
-133.0184560855
 20
-39.6560142787
 10
-132.9810341613
 20
-39.6754953387
  0
LINE
  5
499
100
AcDbEntity
  8
SUPERFICI
100
AcDbLine
 62
7
  6
CONTINUOUS
 10
-134.258416377
 20
-36.8339989611
 11
-134.1895360589
 21
-37.0589030189
  0
LINE
  5
49A
100
AcDbEntity
  8
SUPERFICI
100
AcDbLine
 62
7
  6
CONTINUOUS
 10
-134.3441414965
 20
-36.5482259756
 11
-134.258416377
 21
-36.8339989611
  0
LWPOLYLINE
  5
49B
100
AcDbEntity
  8
SUPERFICI
100
AcDbPolyline
 62
250
  6
CONTINUOUS
 90
9
 70
0
 10
-133.9605036473
 20
-37.6955873738
 10
-133.9132302461
 20
-37.8568148213
 10
-133.865294547
 20
-38.0162656131
 10
-133.8166181082
 20
-38.1741977518
 10
-133.7671453616
 20
-38.3307979949
 10
-133.7167735809
 20
-38.4864044232
 10
-133.6653488222
 20
-38.6415011909
 10
-133.6127605133
 20
-38.7964265426
 10
-133.5589454997
 20
-38.9513781132
  0
LINE
  5
49C
100
AcDbEntity
  8
SUPERFICI
100
AcDbLine
 62
7
  6
CONTINUOUS
 10
-134.4456786583
 20
-36.2009564983
 11
-134.3441414965
 21
-36.5482259756
  0
LINE
  5
49D
100
AcDbEntity
  8
SUPERFICI
100
AcDbLine
 62
7
  6
CONTINUOUS
 10
-134.6787844828
 20
-35.4069770158
 11
-134.3846779097
 21
-36.4292196802
  0
LINE
  5
49E
100
AcDbEntity
  8
SUPERFICI
100
AcDbLine
 62
7
  6
CONTINUOUS
 10
-134.5579467146
 20
-35.8060976563
 11
-134.4456786583
 21
-36.2009564983
  0
LINE
  5
49F
100
AcDbEntity
  8
SUPERFICI
100
AcDbLine
 62
7
  6
CONTINUOUS
 10
-134.5824383777
 20
-35.7185351678
 11
-134.5579467146
 21
-35.8060977243
  0
LINE
  5
4A0
100
AcDbEntity
  8
SUPERFICI
100
AcDbLine
 62
7
  6
CONTINUOUS
 10
-137.110629051
 20
23.7918809939
 11
-137.1270859875
 21
23.689819014
  0
LINE
  5
4A1
100
AcDbEntity
  8
SUPERFICI
100
AcDbLine
 62
7
  6
CONTINUOUS
 10
-135.6606839903
 20
30.9790921958
 11
-135.7002827998
 21
30.7480423026
  0
LINE
  5
4A2
100
AcDbEntity
  8
SUPERFICI
100
AcDbLine
 62
7
  6
CONTINUOUS
 10
-135.6187429606
 20
31.2163137435
 11
-135.6606839903
 21
30.9790921958
  0
LINE
  5
4A3
100
AcDbEntity
  8
SUPERFICI
100
AcDbLine
 62
7
  6
CONTINUOUS
 10
-135.5536851602
 20
31.5699796929
 11
-135.6671332579
 21
30.9456181153
  0
LWPOLYLINE
  5
4A4
100
AcDbEntity
  8
SUPERFICI
100
AcDbPolyline
 62
250
  6
CONTINUOUS
 90
10
 70
0
 10
-135.5536851602
 20
31.3648610385
 10
-135.6572383105
 20
30.7970321173
 10
-135.7566256767
 20
30.210208227
 10
-135.8515817204
 20
29.605497087
 10
-135.9421225142
 20
28.9819798949
 10
-136.0276538403
 20
28.3427695949
 10
-136.1071455275
 20
27.6954402542
 10
-136.180251919
 20
27.043672493
 10
-136.2471373086
 20
26.386825375
 10
-136.2584291526
 20
26.2689981454
  0
LWPOLYLINE
  5
4A5
100
AcDbEntity
  8
SUPERFICI
100
AcDbPolyline
 62
7
  6
CONTINUOUS
 90
26
 70
0
 10
-136.3468533486
 20
25.5245545842
 10
-136.3534528903
 20
25.4883581997
 10
-136.3600246442
 20
25.4539922174
 10
-136.3664902884
 20
25.4216530816
 10
-136.3728493681
 20
25.3911386793
 10
-136.3792025336
 20
25.3618200549
 10
-136.3855531079
 20
25.3335828988
 10
-136.3918545905
 20
25.3065374556
 10
-136.3981545806
 20
25.2803945616
 10
-136.4044519681
 20
25.2550932395
 10
-136.4107164747
 20
25.2306909627
 10
-136.4169608262
 20
25.2070777107
 10
-136.4231728992
 20
25.1842453398
 10
-136.4293370826
 20
25.1621985429
 10
-136.4354650706
 20
25.1408474318
 10
-136.4415330112
 20
25.1202301521
 10
-136.4475401951
 20
25.1003053468
 10
-136.4535390809
 20
25.0808651395
 10
-136.4595288168
 20
25.0618869592
 10
-136.4654949425
 20
25.043391712
 10
-136.4714763288
 20
25.0252382348
 10
-136.4774673293
 20
25.0074276462
 10
-136.4834631935
 20
24.9899582019
 10
-136.4895094779
 20
24.9726858019
 10
-136.4955983309
 20
24.955625329
 10
-136.5017321022
 20
24.9387626079
  0
LWPOLYLINE
  5
4A6
100
AcDbEntity
  8
SUPERFICI
100
AcDbPolyline
 62
250
  6
CONTINUOUS
 90
10
 70
0
 10
-135.5536851603
 20
29.591078995
 10
-135.6390375576
 20
29.1380542347
 10
-135.7212044534
 20
28.6899835276
 10
-135.8003928764
 20
28.2455278506
 10
-135.8768690293
 20
27.8030061479
 10
-135.9508132541
 20
27.3612303828
 10
-136.0223386178
 20
26.9194848684
 10
-136.0916729557
 20
26.4764372964
 10
-136.1591406403
 20
26.0301575486
 10
-136.2250302994
 20
25.5789396446
  0
LINE
  5
4A7
100
AcDbEntity
  8
SUPERFICI
100
AcDbLine
 62
7
  6
CONTINUOUS
 10
-135.5448411871
 20
31.6166781274
 11
-135.5834697166
 21
31.4104950978
  0
LINE
  5
4A8
100
AcDbEntity
  8
SUPERFICI
100
AcDbLine
 62
7
  6
CONTINUOUS
 10
-135.5492533297
 20
31.5934720202
 11
-135.5493647362
 21
31.5928857407
  0
LWPOLYLINE
  5
4A9
100
AcDbEntity
  8
SUPERFICI
100
AcDbPolyline
 62
250
  6
CONTINUOUS
 90
3
 70
0
 10
-134.5579467146
 20
33.4191567796
 10
-134.6617380379
 20
32.875024667
 10
-134.769007917
 20
32.3293544484
  0
LWPOLYLINE
  5
4AA
100
AcDbEntity
  8
SUPERFICI
100
AcDbPolyline
 62
250
  6
CONTINUOUS
 90
6
 70
0
 10
-135.5536851602
 20
30.7588482108
 10
-135.4559433238
 20
31.2666410799
 10
-135.3536517539
 20
31.7765306188
 10
-135.2474159314
 20
32.2875275028
 10
-135.1380659682
 20
32.7976695421
 10
-135.0260483859
 20
33.3068664422
  0
LINE
  5
4AB
100
AcDbEntity
  8
SUPERFICI
100
AcDbLine
 62
250
  6
CONTINUOUS
 10
-135.5536851602
 20
28.4883957015
 11
-135.7102192693
 21
27.6687727173
  0
LINE
  5
4AC
100
AcDbEntity
  8
SUPERFICI
100
AcDbLine
 62
250
  6
CONTINUOUS
 10
-135.4521963075
 20
30.1140377349
 11
-135.5536851603
 21
29.591078995
  0
LWPOLYLINE
  5
4AD
100
AcDbEntity
  8
SUPERFICI
100
AcDbPolyline
 62
250
  6
CONTINUOUS
 90
3
 70
0
 10
-135.5536851602
 20
28.041982254
 10
-135.6316949406
 20
27.6406171613
 10
-135.7798842344
 20
26.8524090061
  0
LWPOLYLINE
  5
4AE
100
AcDbEntity
  8
SUPERFICI
100
AcDbPolyline
 62
250
  6
CONTINUOUS
 90
8
 70
0
 10
-135.5536851602
 20
31.3648610385
 10
-135.4596804308
 20
31.8479439139
 10
-135.3609185174
 20
32.3289630218
 10
-135.2575548316
 20
32.8080954607
 10
-135.1496731458
 20
33.2861230773
 10
-135.0376198506
 20
33.7629633904
 10
-134.9220236723
 20
34.2377859798
 10
-134.8033408512
 20
34.710918976
  0
LINE
  5
4AF
100
AcDbEntity
  8
SUPERFICI
100
AcDbLine
 62
250
  6
CONTINUOUS
 10
-134.5579467146
 20
32.9316325135
 11
-134.6631698441
 21
32.3918721202
  0
LINE
  5
4B0
100
AcDbEntity
  8
SUPERFICI
100
AcDbLine
 62
7
  6
CONTINUOUS
 10
-135.5493647362
 20
31.5928857407
 11
-135.4598828153
 21
32.0539843317
  0
LINE
  5
4B1
100
AcDbEntity
  8
SUPERFICI
100
AcDbLine
 62
250
  6
CONTINUOUS
 10
-133.9166554646
 20
36.9049622169
 11
-134.0288934897
 21
36.3254540099
  0
LINE
  5
4B2
100
AcDbEntity
  8
SUPERFICI
100
AcDbLine
 62
250
  6
CONTINUOUS
 10
-133.7807806692
 20
37.0617442076
 11
-133.916375519
 21
36.3715419616
  0
LINE
  5
4B3
100
AcDbEntity
  8
SUPERFICI
100
AcDbLine
 62
250
  6
CONTINUOUS
 10
-135.4440104353
 20
29.0403049275
 11
-135.5536851602
 21
28.4883957015
  0
LINE
  5
4B4
100
AcDbEntity
  8
SUPERFICI
100
AcDbLine
 62
250
  6
CONTINUOUS
 10
-135.4448162909
 20
28.5876815163
 11
-135.5536851602
 21
28.041982254
  0
LINE
  5
4B5
100
AcDbEntity
  8
SUPERFICI
100
AcDbLine
 62
250
  6
CONTINUOUS
 10
-134.2988156799
 20
35.7770485239
 11
-134.5579467146
 21
34.4765392313
  0
LINE
  5
4B6
100
AcDbEntity
  8
SUPERFICI
100
AcDbLine
 62
7
  6
CONTINUOUS
 10
-135.4146120401
 20
32.2802560826
 11
-135.4597493925
 21
32.0555229914
  0
LINE
  5
4B7
100
AcDbEntity
  8
SUPERFICI
100
AcDbLine
 62
250
  6
CONTINUOUS
 10
-135.2374211785
 20
31.1799718193
 11
-135.4521963075
 21
30.1140377349
  0
LINE
  5
4B8
100
AcDbEntity
  8
SUPERFICI
100
AcDbLine
 62
250
  6
CONTINUOUS
 10
-133.8270636212
 20
37.3492092662
 11
-133.9166554646
 21
36.9049622169
  0
LINE
  5
4B9
100
AcDbEntity
  8
SUPERFICI
100
AcDbLine
 62
250
  6
CONTINUOUS
 10
-134.6631698441
 20
32.3918721202
 11
-134.8819706157
 21
31.3076198606
  0
LINE
  5
4BA
100
AcDbEntity
  8
SUPERFICI
100
AcDbLine
 62
250
  6
CONTINUOUS
 10
-133.6392254784
 20
37.7602524132
 11
-133.7807806692
 21
37.0617442076
  0
LINE
  5
4BB
100
AcDbEntity
  8
SUPERFICI
100
AcDbLine
 62
250
  6
CONTINUOUS
 10
-134.769007917
 20
32.3293544484
 11
-134.9908212579
 21
31.2371064542
  0
LINE
  5
4BC
100
AcDbEntity
  8
SUPERFICI
100
AcDbLine
 62
250
  6
CONTINUOUS
 10
-134.5579467146
 20
34.4765392313
 11
-134.7854023546
 21
33.3607993687
  0
LINE
  5
4BD
100
AcDbEntity
  8
SUPERFICI
100
AcDbLine
 62
250
  6
CONTINUOUS
 10
-135.4481644146
 20
27.0741533807
 11
-135.5536851602
 21
26.5625194829
  0
LINE
  5
4BE
100
AcDbEntity
  8
SUPERFICI
100
AcDbLine
 62
250
  6
CONTINUOUS
 10
-134.9908212579
 20
31.2371064542
 11
-135.4440104353
 21
29.0403049275
  0
LINE
  5
4BF
100
AcDbEntity
  8
SUPERFICI
100
AcDbLine
 62
7
  6
CONTINUOUS
 10
-135.3669737341
 20
32.5117630709
 11
-135.4146120401
 21
32.2802560826
  0
LINE
  5
4C0
100
AcDbEntity
  8
SUPERFICI
100
AcDbLine
 62
250
  6
CONTINUOUS
 10
-134.7854023546
 20
33.3607993687
 11
-135.2374211785
 21
31.1799718193
  0
LINE
  5
4C1
100
AcDbEntity
  8
SUPERFICI
100
AcDbLine
 62
250
  6
CONTINUOUS
 10
-134.8819706157
 20
31.3076198606
 11
-135.4448162909
 21
28.5876815163
  0
LINE
  5
4C2
100
AcDbEntity
  8
SUPERFICI
100
AcDbLine
 62
250
  6
CONTINUOUS
 10
-133.5404235987
 20
38.2360128906
 11
-133.6392254784
 21
37.7602524132
  0
LINE
  5
4C3
100
AcDbEntity
  8
SUPERFICI
100
AcDbLine
 62
250
  6
CONTINUOUS
 10
-134.356336325
 20
32.1360572314
 11
-134.0918283946
 21
33.4091077536
  0
LINE
  5
4C4
100
AcDbEntity
  8
SUPERFICI
100
AcDbLine
 62
250
  6
CONTINUOUS
 10
-133.7344063571
 20
37.7931317824
 11
-133.8270636212
 21
37.3492092662
  0
LINE
  5
4C5
100
AcDbEntity
  8
SUPERFICI
100
AcDbLine
 62
7
  6
CONTINUOUS
 10
-135.3229750131
 20
32.7206613849
 11
-135.3669737341
 21
32.5117630709
  0
LINE
  5
4C6
100
AcDbEntity
  8
SUPERFICI
100
AcDbLine
 62
250
  6
CONTINUOUS
 10
-134.5579467146
 20
31.1866115992
 11
-134.356336325
 21
32.1360572314
  0
LINE
  5
4C7
100
AcDbEntity
  8
SUPERFICI
100
AcDbLine
 62
250
  6
CONTINUOUS
 10
-135.2290480499
 20
28.1036760282
 11
-135.4481644146
 21
27.0741533807
  0
LINE
  5
4C8
100
AcDbEntity
  8
SUPERFICI
100
AcDbLine
 62
7
  6
CONTINUOUS
 10
-135.2782302394
 20
32.9284978891
 11
-135.3229750131
 21
32.7206613849
  0
LINE
  5
4C9
100
AcDbEntity
  8
SUPERFICI
100
AcDbLine
 62
250
  6
CONTINUOUS
 10
-133.6377943982
 20
38.2409233943
 11
-133.7344063571
 21
37.7931317824
  0
LINE
  5
4CA
100
AcDbEntity
  8
SUPERFICI
100
AcDbLine
 62
250
  6
CONTINUOUS
 10
-134.5579467146
 20
31.1866115992
 11
-135.2290480499
 21
28.1036760282
  0
LINE
  5
4CB
100
AcDbEntity
  8
SUPERFICI
100
AcDbLine
 62
7
  6
CONTINUOUS
 10
-135.2329262823
 20
33.1344378614
 11
-135.2782302394
 21
32.9284978891
  0
LINE
  5
4CC
100
AcDbEntity
  8
SUPERFICI
100
AcDbLine
 62
250
  6
CONTINUOUS
 10
-133.5364321675
 20
38.6962742782
 11
-133.6377943982
 21
38.2409233943
  0
LINE
  5
4CD
100
AcDbEntity
  8
SUPERFICI
100
AcDbLine
 62
7
  6
CONTINUOUS
 10
-137.1201060269
 20
23.7409535925
 11
-137.0944504199
 21
23.8549297015
  0
LINE
  5
4CE
100
AcDbEntity
  8
SUPERFICI
100
AcDbLine
 62
7
  6
CONTINUOUS
 10
-135.1870588973
 20
33.3385696473
 11
-135.2329262823
 21
33.1344378614
  0
LWPOLYLINE
  5
4CF
100
AcDbEntity
  8
SUPERFICI
100
AcDbPolyline
 62
250
  6
CONTINUOUS
 90
5
 70
0
 10
-133.9605036472
 20
37.3570658158
 10
-134.0308172235
 20
37.0488191162
 10
-134.0997152706
 20
36.735212307
 10
-134.1673239339
 20
36.4175348958
 10
-134.2988156799
 20
35.7770485239
  0
LWPOLYLINE
  5
4D0
100
AcDbEntity
  8
SUPERFICI
100
AcDbPolyline
 62
7
  6
CONTINUOUS
 90
9
 70
0
 10
-133.5211966261
 20
39.0465831071
 10
-133.5187563442
 20
39.0572631195
 10
-133.5164214285
 20
39.0664787248
 10
-133.5141983875
 20
39.0745530677
 10
-133.5120682448
 20
39.0817866646
 10
-133.5100515545
 20
39.0882653771
 10
-133.5082120446
 20
39.0939192341
 10
-133.5065705755
 20
39.0987867836
 10
-133.5050456499
 20
39.1045948439
  0
LINE
  5
4D1
100
AcDbEntity
  8
SUPERFICI
100
AcDbLine
 62
250
  6
CONTINUOUS
 10
-135.0260483859
 20
33.3068664422
 11
-134.794564303
 21
34.3272585279
  0
LINE
  5
4D2
100
AcDbEntity
  8
SUPERFICI
100
AcDbLine
 62
7
  6
CONTINUOUS
 10
-135.1405524777
 20
33.5412953576
 11
-135.1870588973
 21
33.3385696473
  0
LWPOLYLINE
  5
4D3
100
AcDbEntity
  8
SUPERFICI
100
AcDbPolyline
 62
7
  6
CONTINUOUS
 90
3
 70
0
 10
-135.1679886778
 20
33.4196817858
 10
-134.9306541541
 20
34.4346539353
 10
-134.6787844842
 20
35.4069770162
  0
LINE
  5
4D4
100
AcDbEntity
  8
SUPERFICI
100
AcDbLine
 62
250
  6
CONTINUOUS
 10
-134.4931838582
 20
35.6160735101
 11
-134.794564303
 21
34.3272585279
  0
LINE
  5
4D5
100
AcDbEntity
  8
SUPERFICI
100
AcDbLine
 62
7
  6
CONTINUOUS
 10
-135.0209994573
 20
34.0444168357
 11
-135.0694468422
 21
33.8435087011
  0
LINE
  5
4D6
100
AcDbEntity
  8
SUPERFICI
100
AcDbLine
 62
250
  6
CONTINUOUS
 10
-135.4505337217
 20
23.1631670524
 11
-135.5536851603
 21
22.7436179843
  0
LINE
  5
4D7
100
AcDbEntity
  8
SUPERFICI
100
AcDbLine
 62
7
  6
CONTINUOUS
 10
-134.9635497276
 20
34.2777882054
 11
-135.0209994573
 21
34.0444168357
  0
LINE
  5
4D8
100
AcDbEntity
  8
SUPERFICI
100
AcDbLine
 62
250
  6
CONTINUOUS
 10
-134.2915506839
 20
27.651271037
 11
-134.0933990243
 21
28.4482045138
  0
LINE
  5
4D9
100
AcDbEntity
  8
SUPERFICI
100
AcDbLine
 62
7
  6
CONTINUOUS
 10
-134.9054708239
 20
34.5087232222
 11
-134.9635497276
 21
34.2777882054
  0
LINE
  5
4DA
100
AcDbEntity
  8
SUPERFICI
100
AcDbLine
 62
250
  6
CONTINUOUS
 10
-134.4905334031
 20
26.8671937042
 11
-134.2915506839
 21
27.651271037
  0
LINE
  5
4DB
100
AcDbEntity
  8
SUPERFICI
100
AcDbLine
 62
250
  6
CONTINUOUS
 10
-135.237047346
 20
24.0038790282
 11
-135.4505337217
 21
23.1631670524
  0
LINE
  5
4DC
100
AcDbEntity
  8
SUPERFICI
100
AcDbLine
 62
7
  6
CONTINUOUS
 10
-134.847159234
 20
34.7359225384
 11
-134.9054708239
 21
34.5087232222
  0
LINE
  5
4DD
100
AcDbEntity
  8
SUPERFICI
100
AcDbLine
 62
250
  6
CONTINUOUS
 10
-134.4905334031
 20
26.8671937042
 11
-134.787642657
 21
25.7219434524
  0
LINE
  5
4DE
100
AcDbEntity
  8
SUPERFICI
100
AcDbLine
 62
250
  6
CONTINUOUS
 10
-134.8033408512
 20
34.710918976
 11
-134.5579467146
 21
35.6573132862
  0
LINE
  5
4DF
100
AcDbEntity
  8
SUPERFICI
100
AcDbLine
 62
250
  6
CONTINUOUS
 10
-134.787642657
 20
25.7219434524
 11
-135.237047346
 21
24.0038790282
  0
LINE
  5
4E0
100
AcDbEntity
  8
SUPERFICI
100
AcDbLine
 62
7
  6
CONTINUOUS
 10
-134.7890336694
 20
34.9581217483
 11
-134.847159234
 21
34.7359225384
  0
LINE
  5
4E1
100
AcDbEntity
  8
SUPERFICI
100
AcDbLine
 62
250
  6
CONTINUOUS
 10
-134.4333230757
 20
36.1263636382
 11
-134.5579467146
 21
35.6573132862
  0
LINE
  5
4E2
100
AcDbEntity
  8
SUPERFICI
100
AcDbLine
 62
7
  6
CONTINUOUS
 10
-134.7234050123
 20
35.2043190341
 11
-134.7890336694
 21
34.9581217483
  0
LINE
  5
4E3
100
AcDbEntity
  8
SUPERFICI
100
AcDbLine
 62
7
  6
CONTINUOUS
 10
-134.6514263807
 20
35.4691833175
 11
-134.7234050123
 21
35.2043190341
  0
LINE
  5
4E4
100
AcDbEntity
  8
SUPERFICI
100
AcDbLine
 62
7
  6
CONTINUOUS
 10
-137.0822386112
 20
23.8941890144
 11
-137.110629051
 21
23.7918809939
  0
LINE
  5
4E5
100
AcDbEntity
  8
SUPERFICI
100
AcDbLine
 62
7
  6
CONTINUOUS
 10
-134.5824383777
 20
35.7185351678
 11
-134.6514263807
 21
35.4691833175
  0
LWPOLYLINE
  5
4E6
100
AcDbEntity
  8
SUPERFICI
100
AcDbPolyline
 62
250
  6
CONTINUOUS
 90
3
 70
0
 10
-135.352480242
 20
18.8827793444
 10
-135.4539868721
 20
18.5648489595
 10
-135.5536851602
 20
18.2463532548
  0
LINE
  5
4E7
100
AcDbEntity
  8
SUPERFICI
100
AcDbLine
 62
250
  6
CONTINUOUS
 10
-134.5579467146
 20
21.2966137406
 11
-134.3592774691
 21
21.9144345593
  0
LINE
  5
4E8
100
AcDbEntity
  8
SUPERFICI
100
AcDbLine
 62
250
  6
CONTINUOUS
 10
-135.142540707
 20
19.5258047115
 11
-135.352480242
 21
18.8827793444
  0
LINE
  5
4E9
100
AcDbEntity
  8
SUPERFICI
100
AcDbLine
 62
250
  6
CONTINUOUS
 10
-134.5579467146
 20
21.2966137406
 11
-134.8043128368
 21
20.5457145451
  0
LINE
  5
4EA
100
AcDbEntity
  8
SUPERFICI
100
AcDbLine
 62
250
  6
CONTINUOUS
 10
-134.8043128368
 20
20.5457145451
 11
-135.142540707
 21
19.5258047115
  0
LWPOLYLINE
  5
4EB
100
AcDbEntity
  8
0
100
AcDbPolyline
 62
7
  6
CONTINUOUS
 90
13
 70
0
 43
0.3500000006
 10
-148.7153540039
 20
-1.9285708809
 10
-148.9296384888
 20
-2.2142854156
 10
-149.5725010071
 20
-2.2142854156
 10
-150.0010699768
 20
-1.9285708809
 10
-150.0010699768
 20
-1.2857140274
 10
-149.5725010071
 20
-1.0000006256
 10
-148.9296384888
 20
-1.0000006256
 10
-148.7153540039
 20
-1.2857140274
 10
-148.2867850342
 20
-0.8571427917
 10
-147.429638031
 20
-0.8571427917
 10
-147.0010690613
 20
-1.2857140274
 10
-147.0010690613
 20
-1.9285708809
 10
-147.429638031
 20
-2.3571432495
  0
LWPOLYLINE
  5
4EC
100
AcDbEntity
  8
SUPERFICI
100
AcDbPolyline
 62
250
  6
CONTINUOUS
 90
5
 70
0
 10
-134.6835789228
 20
-20.9118274989
 10
-135.2488054562
 20
-19.2022839346
 10
-135.352480242
 20
-18.8827793444
 10
-135.4539868721
 20
-18.5648489595
 10
-135.5536851602
 20
-18.2463532548
  0
LWPOLYLINE
  5
4ED
100
AcDbEntity
  8
SUPERFICI
100
AcDbPolyline
 62
7
  6
CONTINUOUS
 90
29
 70
0
 10
-136.47049143
 20
-25.0282013953
 10
-136.4622072808
 20
-25.0535344348
 10
-136.4579926282
 20
-25.0667143243
 10
-136.4537339885
 20
-25.0802409049
 10
-136.4494084689
 20
-25.0942031114
 10
-136.4450244453
 20
-25.1085924999
 10
-136.4405846744
 20
-25.1234191294
 10
-136.436060903
 20
-25.1388003223
 10
-136.4314652202
 20
-25.1547214148
 10
-136.4268006385
 20
-25.1711992499
 10
-136.4220298175
 20
-25.1883992825
 10
-136.4171709282
 20
-25.206294988
 10
-136.4122269355
 20
-25.224915863
 10
-136.4071449217
 20
-25.2445126909
 10
-136.4019535829
 20
-25.2650355625
 10
-136.396655268
 20
-25.286538542
 10
-136.3911701335
 20
-25.3094304592
 10
-136.3855422822
 20
-25.3336301739
 10
-136.3797766121
 20
-25.3592248573
 10
-136.3737573899
 20
-25.3868792677
 10
-136.3674907868
 20
-25.4167702976
 10
-136.3610578313
 20
-25.4487303494
 10
-136.3544745601
 20
-25.4829101648
 10
-136.3476987717
 20
-25.5198167965
 10
-136.3408780235
 20
-25.5589501189
 10
-136.3342791142
 20
-25.598946461
 10
-136.3278304969
 20
-25.6403377775
 10
-136.3216312512
 20
-25.68258452
 10
-136.3164237375
 20
-25.7202002684
  0
LINE
  5
4EE
100
AcDbEntity
  8
SUPERFICI
100
AcDbLine
 62
250
  6
CONTINUOUS
 10
-134.6835789228
 20
-20.9118274989
 11
-134.4910787786
 21
-21.5032772803
  0
LINE
  5
4EF
100
AcDbEntity
  8
SUPERFICI
100
AcDbLine
 62
250
  6
CONTINUOUS
 10
-134.4910787786
 20
-21.5032772803
 11
-134.3592774691
 21
-21.9144345593
  0
LINE
  5
4F0
100
AcDbEntity
  8
SUPERFICI
100
AcDbLine
 62
7
  6
CONTINUOUS
 10
-134.6592962274
 20
-35.4404684452
 11
-134.5824383777
 21
-35.7185351678
  0
LINE
  5
4F1
100
AcDbEntity
  8
SUPERFICI
100
AcDbLine
 62
250
  6
CONTINUOUS
 10
-134.3056037507
 20
-36.595004681
 11
-134.4333230757
 21
-36.1263636382
  0
LINE
  5
4F2
100
AcDbEntity
  8
SUPERFICI
100
AcDbLine
 62
7
  6
CONTINUOUS
 10
-134.7234050123
 20
-35.2043190341
 11
-134.6592962274
 21
-35.4404684452
  0
LINE
  5
4F3
100
AcDbEntity
  8
SUPERFICI
100
AcDbLine
 62
250
  6
CONTINUOUS
 10
-134.4333230757
 20
-36.1263636382
 11
-134.5579467146
 21
-35.6573132862
  0
LINE
  5
4F4
100
AcDbEntity
  8
SUPERFICI
100
AcDbLine
 62
7
  6
CONTINUOUS
 10
-134.7890336694
 20
-34.9581217483
 11
-134.7234050123
 21
-35.2043190341
  0
LINE
  5
4F5
100
AcDbEntity
  8
SUPERFICI
100
AcDbLine
 62
7
  6
CONTINUOUS
 10
-134.847159234
 20
-34.7359225384
 11
-134.7890336694
 21
-34.9581217483
  0
LINE
  5
4F6
100
AcDbEntity
  8
SUPERFICI
100
AcDbLine
 62
250
  6
CONTINUOUS
 10
-134.5579467146
 20
-26.6048774461
 11
-135.237047346
 21
-24.0038790282
  0
LINE
  5
4F7
100
AcDbEntity
  8
SUPERFICI
100
AcDbLine
 62
7
  6
CONTINUOUS
 10
-134.9054708239
 20
-34.5087232222
 11
-134.847159234
 21
-34.7359225384
  0
LINE
  5
4F8
100
AcDbEntity
  8
SUPERFICI
100
AcDbLine
 62
250
  6
CONTINUOUS
 10
-134.3574291465
 20
-27.3899563207
 11
-134.5579467146
 21
-26.6048774461
  0
LWPOLYLINE
  5
4F9
100
AcDbEntity
  8
SUPERFICI
100
AcDbPolyline
 62
250
  6
CONTINUOUS
 90
3
 70
0
 10
-135.237047346
 20
-24.0038790282
 10
-135.4505337217
 20
-23.1631670524
 10
-135.5536851603
 20
-22.7436179843
  0
LWPOLYLINE
  5
4FA
100
AcDbEntity
  8
SUPERFICI
100
AcDbPolyline
 62
250
  6
CONTINUOUS
 90
6
 70
0
 10
-134.2989772165
 20
-36.4212939675
 10
-134.233519472
 20
-36.6827885141
 10
-134.1671726457
 20
-36.9411205738
 10
-134.0996701174
 20
-37.1962662256
 10
-134.0308493788
 20
-37.4478232304
 10
-133.9605036473
 20
-37.6955873738
  0
LINE
  5
4FB
100
AcDbEntity
  8
SUPERFICI
100
AcDbLine
 62
7
  6
CONTINUOUS
 10
-134.9635497276
 20
-34.2777882054
 11
-134.9054708239
 21
-34.5087232222
  0
LWPOLYLINE
  5
4FC
100
AcDbEntity
  8
SUPERFICI
100
AcDbPolyline
 62
250
  6
CONTINUOUS
 90
3
 70
0
 10
-134.092934666
 20
-28.4500915033
 10
-134.1587708292
 20
-28.1834581667
 10
-134.3574291465
 20
-27.3899563207
  0
LINE
  5
4FD
100
AcDbEntity
  8
SUPERFICI
100
AcDbLine
 62
7
  6
CONTINUOUS
 10
-135.0209994573
 20
-34.0444168357
 11
-134.9635497276
 21
-34.2777882054
  0
LINE
  5
4FE
100
AcDbEntity
  8
SUPERFICI
100
AcDbLine
 62
250
  6
CONTINUOUS
 10
-134.4285841425
 20
-35.8877211865
 11
-134.2989772165
 21
-36.4212939675
  0
LINE
  5
4FF
100
AcDbEntity
  8
SUPERFICI
100
AcDbLine
 62
7
  6
CONTINUOUS
 10
-135.0694468422
 20
-33.8435087011
 11
-135.0209994573
 21
-34.0444168357
  0
LWPOLYLINE
  5
500
100
AcDbEntity
  8
SUPERFICI
100
AcDbPolyline
 62
250
  6
CONTINUOUS
 90
10
 70
0
 10
-133.9605036472
 20
-37.3570658158
 10
-133.9150756534
 20
-37.5497479039
 10
-133.8690253568
 20
-37.7403119746
 10
-133.8222593635
 20
-37.9291244199
 10
-133.7746841505
 20
-38.1165526022
 10
-133.7262024474
 20
-38.3029791714
 10
-133.676713016
 20
-38.4888017788
 10
-133.6261155121
 20
-38.6744144002
 10
-133.5743106883
 20
-38.8602076963
 10
-133.5211966261
 20
-39.0465831071
  0
LINE
  5
501
100
AcDbEntity
  8
SUPERFICI
100
AcDbLine
 62
250
  6
CONTINUOUS
 10
-134.6764926122
 20
-34.835949734
 11
-134.4285841425
 21
-35.8877211865
  0
LWPOLYLINE
  5
502
100
AcDbEntity
  8
SUPERFICI
100
AcDbPolyline
 62
7
  6
CONTINUOUS
 90
3
 70
0
 10
-135.1679887175
 20
-33.4196816107
 10
-134.9306541527
 20
-34.4346539349
 10
-134.6787844828
 20
-35.4069770158
  0
LINE
  5
503
100
AcDbEntity
  8
SUPERFICI
100
AcDbLine
 62
7
  6
CONTINUOUS
 10
-135.1638904559
 20
-33.4400831712
 11
-135.117037017
 21
-33.6422471296
  0
LWPOLYLINE
  5
504
100
AcDbEntity
  8
SUPERFICI
100
AcDbPolyline
 62
7
  6
CONTINUOUS
 90
9
 70
0
 10
-133.5211966261
 20
-39.0465831071
 10
-133.5187563442
 20
-39.0572631195
 10
-133.5164214285
 20
-39.0664787248
 10
-133.5141983875
 20
-39.0745530677
 10
-133.5120682448
 20
-39.0817866646
 10
-133.5100515545
 20
-39.0882653771
 10
-133.5082120446
 20
-39.0939192341
 10
-133.5065705755
 20
-39.0987867836
 10
-133.5050456499
 20
-39.1045948439
  0
LINE
  5
505
100
AcDbEntity
  8
SUPERFICI
100
AcDbLine
 62
7
  6
CONTINUOUS
 10
-135.2100673689
 20
-33.2367058478
 11
-135.1638904559
 21
-33.4400831712
  0
LINE
  5
506
100
AcDbEntity
  8
SUPERFICI
100
AcDbLine
 62
250
  6
CONTINUOUS
 10
-133.5364321675
 20
-38.6962742782
 11
-133.6377943982
 21
-38.2409233943
  0
LINE
  5
507
100
AcDbEntity
  8
SUPERFICI
100
AcDbLine
 62
7
  6
CONTINUOUS
 10
-135.2556452803
 20
-33.031713846
 11
-135.2100673689
 21
-33.2367058478
  0
LINE
  5
508
100
AcDbEntity
  8
SUPERFICI
100
AcDbLine
 62
7
  6
CONTINUOUS
 10
-135.3006787333
 20
-32.8247919292
 11
-135.2556452803
 21
-33.031713846
  0
LINE
  5
509
100
AcDbEntity
  8
SUPERFICI
100
AcDbLine
 62
250
  6
CONTINUOUS
 10
-133.6377943982
 20
-38.2409233943
 11
-133.7344063571
 21
-37.7931317824
  0
LWPOLYLINE
  5
50A
100
AcDbEntity
  8
SUPERFICI
100
AcDbPolyline
 62
250
  6
CONTINUOUS
 90
4
 70
0
 10
-134.1671686235
 20
-36.4182749112
 10
-134.0996007956
 20
-36.7357422175
 10
-134.0307542217
 20
-37.0491008158
 10
-133.9605036472
 20
-37.3570658157
  0
LINE
  5
50B
100
AcDbEntity
  8
SUPERFICI
100
AcDbLine
 62
250
  6
CONTINUOUS
 10
-134.423048976
 20
-31.8197490976
 11
-134.6687484109
 21
-30.6729229039
  0
LINE
  5
50C
100
AcDbEntity
  8
SUPERFICI
100
AcDbLine
 62
7
  6
CONTINUOUS
 10
-135.3451013885
 20
-32.6161845951
 11
-135.3006787333
 21
-32.8247919292
  0
LINE
  5
50D
100
AcDbEntity
  8
SUPERFICI
100
AcDbLine
 62
250
  6
CONTINUOUS
 10
-133.7344063571
 20
-37.7931317824
 11
-133.8270636212
 21
-37.3492092662
  0
LWPOLYLINE
  5
50E
100
AcDbEntity
  8
SUPERFICI
100
AcDbPolyline
 62
250
  6
CONTINUOUS
 90
4
 70
0
 10
-135.5536851602
 20
-26.5625194829
 10
-135.4481414074
 20
-27.0742635264
 10
-135.3395907245
 20
-27.5885653941
 10
-134.6687484109
 20
-30.6729229039
  0
LWPOLYLINE
  5
50F
100
AcDbEntity
  8
SUPERFICI
100
AcDbPolyline
 62
250
  6
CONTINUOUS
 90
3
 70
0
 10
-134.0918362524
 20
-33.409069526
 10
-134.1575845736
 20
-33.0900054907
 10
-134.423048976
 20
-31.8197490976
  0
LINE
  5
510
100
AcDbEntity
  8
SUPERFICI
100
AcDbLine
 62
7
  6
CONTINUOUS
 10
-135.3950040878
 20
-32.376233607
 11
-135.3451013885
 21
-32.6161845951
  0
LINE
  5
511
100
AcDbEntity
  8
SUPERFICI
100
AcDbLine
 62
250
  6
CONTINUOUS
 10
-134.6710539654
 20
-33.9176180505
 11
-135.2374211785
 21
-31.1799718193
  0
LINE
  5
512
100
AcDbEntity
  8
SUPERFICI
100
AcDbLine
 62
250
  6
CONTINUOUS
 10
-133.5404235987
 20
-38.2360128906
 11
-133.6872821094
 21
-37.5254569257
  0
LINE
  5
513
100
AcDbEntity
  8
SUPERFICI
100
AcDbLine
 62
250
  6
CONTINUOUS
 10
-134.2985909036
 20
-35.778163441
 11
-134.1671686235
 21
-36.4182749112
  0
LWPOLYLINE
  5
514
100
AcDbEntity
  8
SUPERFICI
100
AcDbPolyline
 62
250
  6
CONTINUOUS
 90
4
 70
0
 10
-134.8789343611
 20
-31.7833258576
 10
-134.7689224092
 20
-32.3297838275
 10
-134.6616923801
 20
-32.8752602149
 10
-134.5579467146
 20
-33.4191567796
  0
LINE
  5
515
100
AcDbEntity
  8
SUPERFICI
100
AcDbLine
 62
7
  6
CONTINUOUS
 10
-135.4424551063
 20
-32.1422651446
 11
-135.3950040878
 21
-32.376233607
  0
LINE
  5
516
100
AcDbEntity
  8
SUPERFICI
100
AcDbLine
 62
250
  6
CONTINUOUS
 10
-133.8270636212
 20
-37.3492092662
 11
-133.9166554646
 21
-36.9049622169
  0
LWPOLYLINE
  5
517
100
AcDbEntity
  8
SUPERFICI
100
AcDbPolyline
 62
250
  6
CONTINUOUS
 90
3
 70
0
 10
-134.8818876654
 20
-31.3080238278
 10
-134.6631358942
 20
-32.3920439726
 10
-134.5579467146
 20
-32.9316325135
  0
LWPOLYLINE
  5
518
100
AcDbEntity
  8
SUPERFICI
100
AcDbPolyline
 62
250
  6
CONTINUOUS
 90
3
 70
0
 10
-135.2374211785
 20
-31.1799718193
 10
-135.4521963075
 20
-30.1140377349
 10
-135.5536851603
 20
-29.591078995
  0
LWPOLYLINE
  5
519
100
AcDbEntity
  8
SUPERFICI
100
AcDbPolyline
 62
250
  6
CONTINUOUS
 90
3
 70
0
 10
-135.5536851602
 20
-28.041982254
 10
-135.4447717594
 20
-28.587901687
 10
-134.8818876654
 20
-31.3080238278
  0
LWPOLYLINE
  5
51A
100
AcDbEntity
  8
SUPERFICI
100
AcDbPolyline
 62
250
  6
CONTINUOUS
 90
3
 70
0
 10
-135.5536851602
 20
-28.4883957015
 10
-135.4439348187
 20
-29.0406799311
 10
-134.8789343611
 20
-31.7833258576
  0
LINE
  5
51B
100
AcDbEntity
  8
SUPERFICI
100
AcDbLine
 62
250
  6
CONTINUOUS
 10
-133.6872821094
 20
-37.5254569257
 11
-133.8265153499
 21
-36.8313919108
  0
LINE
  5
51C
100
AcDbEntity
  8
SUPERFICI
100
AcDbLine
 62
7
  6
CONTINUOUS
 10
-135.4603602495
 20
-32.0524444751
 11
-135.4424551063
 21
-32.1422651446
  0
LINE
  5
51D
100
AcDbEntity
  8
SUPERFICI
100
AcDbLine
 62
250
  6
CONTINUOUS
 10
-134.6710539654
 20
-33.9176180505
 11
-134.2985909036
 21
-35.778163441
  0
LINE
  5
51E
100
AcDbEntity
  8
SUPERFICI
100
AcDbLine
 62
250
  6
CONTINUOUS
 10
-133.5291082082
 20
-39.0056415628
 11
-133.5287919175
 21
-39.0072439345
  0
LWPOLYLINE
  5
51F
100
AcDbEntity
  8
SUPERFICI
100
AcDbPolyline
 62
250
  6
CONTINUOUS
 90
4
 70
0
 10
-133.5238850621
 20
-39.0338858066
 10
-133.5230947738
 20
-39.0379310732
 10
-133.5221971486
 20
-39.0422250555
 10
-133.5211976845
 20
-39.0465825811
  0
LWPOLYLINE
  5
520
100
AcDbEntity
  8
SUPERFICI
100
AcDbPolyline
 62
250
  6
CONTINUOUS
 90
9
 70
0
 10
-135.5536851602
 20
-31.3648610385
 10
-135.4596804308
 20
-31.8479439139
 10
-135.3609185174
 20
-32.3289630218
 10
-135.2575548316
 20
-32.8080954607
 10
-135.1496731458
 20
-33.2861230773
 10
-135.0376198506
 20
-33.7629633904
 10
-134.9220236723
 20
-34.2377859798
 10
-134.8033408512
 20
-34.710918976
 10
-134.5579467146
 20
-35.6573132862
  0
LINE
  5
521
100
AcDbEntity
  8
SUPERFICI
100
AcDbLine
 62
250
  6
CONTINUOUS
 10
-135.5536851602
 20
-28.041982254
 11
-135.6316949406
 21
-27.6406171613
  0
LINE
  5
522
100
AcDbEntity
  8
SUPERFICI
100
AcDbLine
 62
250
  6
CONTINUOUS
 10
-133.8265153499
 20
-36.8313919108
 11
-133.916375519
 21
-36.3715419616
  0
LINE
  5
523
100
AcDbEntity
  8
SUPERFICI
100
AcDbLine
 62
7
  6
CONTINUOUS
 10
-135.459965797
 20
-32.0535568679
 11
-135.5493647362
 21
-31.5928857407
  0
LWPOLYLINE
  5
524
100
AcDbEntity
  8
SUPERFICI
100
AcDbPolyline
 62
250
  6
CONTINUOUS
 90
8
 70
0
 10
-135.5536851602
 20
-30.7588482108
 10
-135.4559433238
 20
-31.2666410799
 10
-135.3536517539
 20
-31.7765306188
 10
-135.2474159314
 20
-32.2875275028
 10
-135.1380659682
 20
-32.7976695421
 10
-135.0260483859
 20
-33.3068664422
 10
-134.9113933085
 20
-33.8168258931
 10
-134.6764926122
 20
-34.835949734
  0
LINE
  5
525
100
AcDbEntity
  8
SUPERFICI
100
AcDbLine
 62
250
  6
CONTINUOUS
 10
-134.0288934897
 20
-36.3254540099
 11
-133.9166554646
 21
-36.9049622169
  0
LWPOLYLINE
  5
526
100
AcDbEntity
  8
SUPERFICI
100
AcDbPolyline
 62
250
  6
CONTINUOUS
 90
9
 70
0
 10
-135.5536851602
 20
-28.4883957015
 10
-135.7102192693
 20
-27.6687727173
 10
-135.7844470301
 20
-27.2654263154
 10
-135.8562843124
 20
-26.864482641
 10
-135.9258464643
 20
-26.4651256948
 10
-135.9931442145
 20
-26.0672252696
 10
-136.0583524587
 20
-25.6697924318
 10
-136.1217833382
 20
-25.2710210365
 10
-136.1836910333
 20
-24.8694480602
  0
LWPOLYLINE
  5
527
100
AcDbEntity
  8
SUPERFICI
100
AcDbPolyline
 62
250
  6
CONTINUOUS
 90
10
 70
0
 10
-135.5536851603
 20
-29.591078995
 10
-135.6390375576
 20
-29.1380542347
 10
-135.7212044534
 20
-28.6899835276
 10
-135.8003928764
 20
-28.2455278506
 10
-135.8768690293
 20
-27.8030061479
 10
-135.9508132541
 20
-27.3612303828
 10
-136.0223386178
 20
-26.9194848684
 10
-136.0916729557
 20
-26.4764372964
 10
-136.1591406403
 20
-26.0301575486
 10
-136.2250302994
 20
-25.5789396446
  0
LINE
  5
528
100
AcDbEntity
  8
SUPERFICI
100
AcDbLine
 62
7
  6
CONTINUOUS
 10
-135.5720089832
 20
-31.472321046
 11
-135.5346798029
 21
-31.6701614896
  0
LWPOLYLINE
  5
529
100
AcDbEntity
  8
SUPERFICI
100
AcDbPolyline
 62
250
  6
CONTINUOUS
 90
10
 70
0
 10
-135.5536851602
 20
-31.3648610385
 10
-135.6572383105
 20
-30.7970321173
 10
-135.7566256767
 20
-30.210208227
 10
-135.8515817204
 20
-29.605497087
 10
-135.9421225142
 20
-28.9819798949
 10
-136.0276538403
 20
-28.3427695949
 10
-136.1071455275
 20
-27.6954402542
 10
-136.180251919
 20
-27.043672493
 10
-136.2471373086
 20
-26.386825375
 10
-136.2584291526
 20
-26.2689981454
  0
LINE
  5
52A
100
AcDbEntity
  8
SUPERFICI
100
AcDbLine
 62
7
  6
CONTINUOUS
 10
-135.553677951
 20
-31.5701256558
 11
-135.6671332579
 21
-30.9456181153
  0
LINE
  5
52B
100
AcDbEntity
  8
SUPERFICI
100
AcDbLine
 62
7
  6
CONTINUOUS
 10
-135.677585203
 20
-30.8813390843
 11
-135.6369007486
 21
-31.1145339542
  0
LINE
  5
52C
100
AcDbEntity
  8
SUPERFICI
100
AcDbLine
 62
7
  6
CONTINUOUS
 10
-135.7055446237
 20
-30.7168040664
 11
-135.677585203
 21
-30.8813390843
  0
LINE
  5
52D
100
AcDbEntity
  8
SUPERFICI
100
AcDbLine
 62
7
  6
CONTINUOUS
 10
-136.2584291526
 20
-26.2689981454
 11
-136.3077062292
 21
-25.7262964239
  0
LINE
  5
52E
100
AcDbEntity
  8
SUPERFICI
100
AcDbLine
 62
7
  6
CONTINUOUS
 10
-136.3045891878
 20
-25.7626888593
 11
-136.2612985298
 21
-26.2692433653
  0
LINE
  5
52F
100
AcDbEntity
  8
SUPERFICI
100
AcDbLine
 62
7
  6
CONTINUOUS
 10
-136.2821871922
 20
-26.0560400838
 11
-136.2553128237
 21
-26.3751382796
  0
LINE
  5
530
100
AcDbEntity
  8
SUPERFICI
100
AcDbLine
 62
7
  6
CONTINUOUS
 10
-136.3078608316
 20
-25.7268592207
 11
-136.2592548741
 21
-26.3538113223
  0
LINE
  5
531
100
AcDbEntity
  8
SUPERFICI
100
AcDbLine
 62
7
  6
CONTINUOUS
 10
-136.3053551084
 20
-25.7521899507
 11
-136.2834420508
 21
-26.0525647087
  0
LWPOLYLINE
  5
532
100
AcDbEntity
  8
SUPERFICI
100
AcDbPolyline
 62
7
  6
CONTINUOUS
 90
7
 70
0
 10
-137.1323967599
 20
-23.5888747858
 10
-137.1270859879
 20
-23.6898190103
 10
-137.1106290519
 20
-23.7918809896
 10
-137.0822386127
 20
-23.8941890101
 10
-137.0407561149
 20
-23.9965152684
 10
-136.9854797111
 20
-24.0970815899
 10
-136.9368060745
 20
-24.1675600475
  0
LWPOLYLINE
  5
533
100
AcDbEntity
  8
SUPERFICI
100
AcDbPolyline
 62
7
  6
CONTINUOUS
 90
3
 70
0
 10
-137.1324528749
 20
-23.5897870066
 10
-137.1324374687
 20
-23.5902415139
 10
-137.1323967599
 20
-23.5888747858
  0
LWPOLYLINE
  5
534
100
AcDbEntity
  8
SUPERFICI
100
AcDbPolyline
 62
7
  6
CONTINUOUS
 90
7
 70
0
 10
-137.1324528749
 20
-23.5897870066
 10
-137.1317429673
 20
-23.6237293256
 10
-137.1201060269
 20
-23.7409535925
 10
-137.0944504199
 20
-23.8549297015
 10
-137.0551039951
 20
-23.9645992453
 10
-137.0024467219
 20
-24.0690312707
 10
-136.9369035933
 20
-24.1674297575
  0
LINE
  5
535
100
AcDbEntity
  8
SUPERFICI
100
AcDbLine
 62
7
  6
CONTINUOUS
 10
-137.1324528749
 20
23.5897869993
 11
-137.1317429673
 21
23.6237293256
  0
LINE
  5
536
100
AcDbEntity
  8
SUPERFICI
100
AcDbLine
 62
7
  6
CONTINUOUS
 10
-137.1270859875
 20
23.689819014
 11
-137.1323967599
 21
23.5888747885
  0
LINE
  5
537
100
AcDbEntity
  8
SUPERFICI
100
AcDbLine
 62
7
  6
CONTINUOUS
 10
-136.2592548741
 20
26.3538113223
 11
-136.3081212965
 21
25.7268256484
  0
LINE
  5
538
100
AcDbEntity
  8
SUPERFICI
100
AcDbLine
 62
7
  6
CONTINUOUS
 10
-136.2706699584
 20
26.2146966273
 11
-136.2861064916
 21
26.0075581069
  0
LINE
  5
539
100
AcDbEntity
  8
SUPERFICI
100
AcDbLine
 62
7
  6
CONTINUOUS
 10
-136.3045891947
 20
25.7626887857
 11
-136.2612985304
 21
26.2692433653
  0
LINE
  5
53A
100
AcDbEntity
  8
SUPERFICI
100
AcDbLine
 62
7
  6
CONTINUOUS
 10
-136.2553128237
 20
26.3751382796
 11
-136.2697334234
 21
26.2067286901
  0
LINE
  5
53B
100
AcDbEntity
  8
SUPERFICI
100
AcDbLine
 62
7
  6
CONTINUOUS
 10
-136.2584291526
 20
26.2689981454
 11
-136.3077062292
 21
25.7262964239
  0
LINE
  5
53C
100
AcDbEntity
  8
SUPERFICI
100
AcDbLine
 62
7
  6
CONTINUOUS
 10
-137.1317429673
 20
23.6237293256
 11
-137.1201060269
 21
23.7409535925
  0
LWPOLYLINE
  5
53D
100
AcDbEntity
  8
SUPERFICI
100
AcDbPolyline
 62
7
  6
CONTINUOUS
 90
4
 70
0
 10
-136.0556165325
 20
28.3151498925
 10
-136.1327821965
 20
27.6532810942
 10
-136.2009153692
 20
26.9975541953
 10
-136.2592548741
 20
26.3538113223
  0
LWPOLYLINE
  5
53E
100
AcDbEntity
  8
SUPERFICI
100
AcDbPolyline
 62
7
  6
CONTINUOUS
 90
4
 70
0
 10
-136.0450472964
 20
28.3723824021
 10
-136.1237630063
 20
27.7001614268
 10
-136.193858046
 20
27.0340121279
 10
-136.2553128237
 20
26.3751382796
  0
LWPOLYLINE
  5
53F
100
AcDbEntity
  8
SUPERFICI
100
AcDbPolyline
 62
250
  6
CONTINUOUS
 90
10
 70
0
 10
-136.3077087574
 20
25.7264531299
 10
-136.2371999384
 20
26.3209377195
 10
-136.1638502467
 20
26.9026576681
 10
-136.0875308116
 20
27.4729023908
 10
-136.0083409479
 20
28.0314064038
 10
-135.9259721194
 20
28.5808777032
 10
-135.8396015909
 20
29.1268886027
 10
-135.748780764
 20
29.671942377
 10
-135.6535413114
 20
30.2155835451
 10
-135.5536851602
 20
30.7588482108
  0
LINE
  5
540
100
AcDbEntity
  8
SUPERFICI
100
AcDbLine
 62
7
  6
CONTINUOUS
 10
-136.0213863154
 20
28.5586949865
 11
-136.0523354653
 21
28.3089351149
  0
LINE
  5
541
100
AcDbEntity
  8
SUPERFICI
100
AcDbLine
 62
250
  6
CONTINUOUS
 10
-133.5289644649
 20
39.0060928903
 11
-133.5288342875
 21
39.0071058751
  0
LINE
  5
542
100
AcDbEntity
  8
SUPERFICI
100
AcDbLine
 62
7
  6
CONTINUOUS
 10
-135.9700079178
 20
28.97908675
 11
-136.0556165325
 21
28.3151498925
  0
LINE
  5
543
100
AcDbEntity
  8
SUPERFICI
100
AcDbLine
 62
7
  6
CONTINUOUS
 10
-135.9583281598
 20
29.0442637201
 11
-136.0450472964
 21
28.3723824021
  0
LINE
  5
544
100
AcDbEntity
  8
SUPERFICI
100
AcDbLine
 62
7
  6
CONTINUOUS
 10
-136.2551220282
 20
26.0912867967
 11
-136.3043232707
 21
25.7086589994
  0
LINE
  5
545
100
AcDbEntity
  8
SUPERFICI
100
AcDbLine
 62
250
  6
CONTINUOUS
 10
-133.528706609
 20
39.0080752647
 11
-133.5285813934
 21
39.0090023333
  0
LWPOLYLINE
  5
546
100
AcDbEntity
  8
SUPERFICI
100
AcDbPolyline
 62
7
  6
CONTINUOUS
 90
6
 70
0
 10
-136.3164234458
 20
25.7202024275
 10
-136.3208638212
 20
25.687999178
 10
-136.3269752095
 20
25.6460156328
 10
-136.3335696243
 20
25.6033833469
 10
-136.340258055
 20
25.5626142384
 10
-136.3468533486
 20
25.5245545842
  0
LINE
  5
547
100
AcDbEntity
  8
SUPERFICI
100
AcDbLine
 62
7
  6
CONTINUOUS
 10
-135.9314989122
 20
29.2384161978
 11
-135.9697166367
 21
28.9571021921
  0
LINE
  5
548
100
AcDbEntity
  8
SUPERFICI
100
AcDbLine
 62
7
  6
CONTINUOUS
 10
-135.8650565625
 20
29.7045937713
 11
-135.9700079178
 21
28.97908675
  0
LINE
  5
549
100
AcDbEntity
  8
SUPERFICI
100
AcDbLine
 62
250
  6
CONTINUOUS
 10
-133.5284585921
 20
39.0098884341
 11
-133.5283381791
 21
39.0107348204
  0
LINE
  5
54A
100
AcDbEntity
  8
SUPERFICI
100
AcDbLine
 62
7
  6
CONTINUOUS
 10
-135.8412101186
 20
29.8639021007
 11
-135.875719438
 21
29.6308881877
  0
LINE
  5
54B
100
AcDbEntity
  8
SUPERFICI
100
AcDbLine
 62
250
  6
CONTINUOUS
 10
-133.5282201515
 20
39.0115426523
 11
-133.5281044826
 21
39.0123132116
  0
LINE
  5
54C
100
AcDbEntity
  8
SUPERFICI
100
AcDbLine
 62
7
  6
CONTINUOUS
 10
-135.7662441827
 20
30.347156688
 11
-135.8762650742
 21
29.6426497646
  0
LINE
  5
54D
100
AcDbEntity
  8
SUPERFICI
100
AcDbLine
 62
250
  6
CONTINUOUS
 10
-133.5279911225
 20
39.0130478934
 11
-133.5278800323
 21
39.0137480488
  0
LWPOLYLINE
  5
54E
100
AcDbEntity
  8
SUPERFICI
100
AcDbPolyline
 62
250
  6
CONTINUOUS
 90
45
 70
0
 10
-136.1930366805
 20
17.9533650113
 10
-136.2014150699
 20
17.9012225415
 10
-136.2108373994
 20
17.8504378307
 10
-136.2212000193
 20
17.8010113808
 10
-136.2323918508
 20
17.7529865362
 10
-136.2443237053
 20
17.7063217465
 10
-136.256937845
 20
17.6608902637
 10
-136.2701536373
 20
17.6166836702
 10
-136.2838873765
 20
17.5737127669
 10
-136.2980951169
 20
17.5318794163
 10
-136.3127092584
 20
17.4911769668
 10
-136.3276586638
 20
17.4516148521
 10
-136.3429075642
 20
17.4131188626
 10
-136.3583924377
 20
17.3756978615
 10
-136.3740575348
 20
17.3393460251
 10
-136.3898907378
 20
17.3039668554
 10
-136.4058396161
 20
17.2695663249
 10
-136.4218573197
 20
17.2361414463
 10
-136.4379524521
 20
17.2035818873
 10
-136.4540930233
 20
17.1718702297
 10
-136.4702294521
 20
17.1410264153
 10
-136.4863529549
 20
17.1109957896
 10
-136.5024265302
 20
17.081781951
 10
-136.5184168402
 20
17.0533838399
 10
-136.5343271395
 20
17.0257396128
 10
-136.5501204659
 20
16.9988620906
 10
-136.5657743088
 20
16.9727408882
 10
-136.5813209719
 20
16.9472790529
 10
-136.59674235
 20
16.9224682594
 10
-136.6120094944
 20
16.8983189284
 10
-136.6271452934
 20
16.8747619086
 10
-136.6421305991
 20
16.8517973411
 10
-136.6569459479
 20
16.8294269994
 10
-136.6716188984
 20
16.8075839198
 10
-136.6861383622
 20
16.78626186
 10
-136.7004840727
 20
16.7654687431
 10
-136.7146737702
 20
16.7451586385
 10
-136.7286962104
 20
16.7253291295
 10
-136.7425360335
 20
16.7059841315
 10
-136.7562075724
 20
16.6870870576
 10
-136.7696847926
 20
16.668658211
 10
-136.7829704673
 20
16.6506786446
 10
-136.7961258191
 20
16.6330526676
 10
-136.8091534191
 20
16.6157660736
 10
-136.822033975
 20
16.5988340496
  0
LINE
  5
54F
100
AcDbEntity
  8
SUPERFICI
100
AcDbLine
 62
7
  6
CONTINUOUS
 10
-135.7374051319
 20
30.5248709291
 11
-135.7802270152
 21
30.2590753042
  0
LINE
  5
550
100
AcDbEntity
  8
SUPERFICI
100
AcDbLine
 62
7
  6
CONTINUOUS
 10
-135.6622296004
 20
30.9703129012
 11
-135.7749780622
 21
30.3007220992
  0
LWPOLYLINE
  5
551
100
AcDbEntity
  8
SUPERFICI
100
AcDbPolyline
 62
250
  6
CONTINUOUS
 90
4
 70
0
 10
-135.9700224873
 20
24.3819444517
 10
-136.0319222191
 20
24.0290135486
 10
-136.0920109159
 20
23.6773156891
 10
-136.1504118076
 20
23.3261887012
  0
LWPOLYLINE
  5
552
100
AcDbEntity
  8
SUPERFICI
100
AcDbPolyline
 62
250
  6
CONTINUOUS
 90
5
 70
0
 10
-133.5278800323
 20
39.0137480488
 10
-133.527011772
 20
39.0185935161
 10
-133.5262502274
 20
39.0219394876
 10
-133.5255638652
 20
39.0248711972
 10
-133.5250001755
 20
39.0276715916
  0
LWPOLYLINE
  5
553
100
AcDbEntity
  8
SUPERFICI
100
AcDbPolyline
 62
250
  6
CONTINUOUS
 90
7
 70
0
 10
-135.7798842344
 20
26.8524090061
 10
-135.8504497477
 20
26.4631577715
 10
-135.9188470449
 20
26.0759306158
 10
-135.9850850741
 20
25.6906177572
 10
-136.0493243985
 20
25.3063216077
 10
-136.1118530042
 20
24.92139821
 10
-136.1729043966
 20
24.5345205694
  0
LWPOLYLINE
  5
554
100
AcDbEntity
  8
SUPERFICI
100
AcDbPolyline
 62
250
  6
CONTINUOUS
 90
5
 70
0
 10
-133.5250001755
 20
39.0276715916
 10
-133.5238850621
 20
39.0338858066
 10
-133.5230947738
 20
39.0379310732
 10
-133.5221971486
 20
39.0422250555
 10
-133.5211976845
 20
39.0465825811
  0
LWPOLYLINE
  5
555
100
AcDbEntity
  8
SUPERFICI
100
AcDbPolyline
 62
250
  6
CONTINUOUS
 90
8
 70
0
 10
-135.7102192693
 20
27.6687727173
 10
-135.7844470301
 20
27.2654263154
 10
-135.8562843124
 20
26.864482641
 10
-135.9258464643
 20
26.4651256948
 10
-135.9931442145
 20
26.0672252696
 10
-136.0583524587
 20
25.6697924318
 10
-136.1217833382
 20
25.2710210365
 10
-136.1836910333
 20
24.8694480602
  0
LINE
  5
556
100
AcDbEntity
  8
SUPERFICI
100
AcDbLine
 62
250
  6
CONTINUOUS
 10
-135.8403236623
 20
25.0940149415
 11
-135.9700224873
 21
24.3819444517
  0
LWPOLYLINE
  5
557
100
AcDbEntity
  8
SUPERFICI
100
AcDbPolyline
 62
250
  6
CONTINUOUS
 90
3
 70
0
 10
-134.5579467146
 20
33.4191567796
 10
-134.4915689618
 20
33.7777159415
 10
-134.1633724518
 20
35.5998407513
  0
LINE
  5
558
100
AcDbEntity
  8
SUPERFICI
100
AcDbLine
 62
250
  6
CONTINUOUS
 10
-133.5303570408
 20
38.998642747
 11
-133.5289644649
 21
39.0060928903
  0
LINE
  5
559
100
AcDbEntity
  8
SUPERFICI
100
AcDbLine
 62
250
  6
CONTINUOUS
 10
-134.1633724518
 20
35.5998407513
 11
-134.0288934897
 21
36.3254540099
  0
LINE
  5
55A
100
AcDbEntity
  8
SUPERFICI
100
AcDbLine
 62
250
  6
CONTINUOUS
 10
-134.0275606252
 20
35.7884173942
 11
-134.4908711044
 21
33.2843816171
  0
LINE
  5
55B
100
AcDbEntity
  8
SUPERFICI
100
AcDbLine
 62
250
  6
CONTINUOUS
 10
-134.4908711044
 20
33.2843816171
 11
-134.5579467146
 21
32.9316325135
  0
LINE
  5
55C
100
AcDbEntity
  8
SUPERFICI
100
AcDbLine
 62
250
  6
CONTINUOUS
 10
-133.916375519
 20
36.3715419616
 11
-134.0275606252
 21
35.7884173942
  0
LINE
  5
55D
100
AcDbEntity
  8
SUPERFICI
100
AcDbLine
 62
250
  6
CONTINUOUS
 10
-135.7018654504
 20
25.8191653718
 11
-135.8403236623
 21
25.0940149415
  0
LINE
  5
55E
100
AcDbEntity
  8
SUPERFICI
100
AcDbLine
 62
250
  6
CONTINUOUS
 10
-135.5536851602
 20
26.5625194829
 11
-135.7018654504
 21
25.8191653718
  0
LINE
  5
55F
100
AcDbEntity
  8
SUPERFICI
100
AcDbLine
 62
250
  6
CONTINUOUS
 10
-133.9605036473
 20
34.0509258772
 11
-133.5449862692
 21
36.1167124537
  0
LINE
  5
560
100
AcDbEntity
  8
SUPERFICI
100
AcDbLine
 62
250
  6
CONTINUOUS
 10
-134.0918283946
 20
33.4091077536
 11
-133.9605036473
 21
34.0509258772
  0
LINE
  5
561
100
AcDbEntity
  8
SUPERFICI
100
AcDbLine
 62
250
  6
CONTINUOUS
 10
-133.7783006813
 20
29.749583407
 11
-133.5416729427
 21
30.7546322422
  0
LWPOLYLINE
  5
562
100
AcDbEntity
  8
SUPERFICI
100
AcDbPolyline
 62
250
  6
CONTINUOUS
 90
10
 70
0
 10
-135.5536851603
 20
22.7436179843
 10
-135.633975838
 20
22.4080142823
 10
-135.7119609339
 20
22.0726704789
 10
-135.7874562182
 20
21.7382907875
 10
-135.8602567644
 20
21.4056743148
 10
-135.9301941535
 20
21.0754551209
 10
-135.997128411
 20
20.7481112182
 10
-136.0608746259
 20
20.4243104578
 10
-136.12121098
 20
20.1049016659
 10
-136.1779303078
 20
19.7906610117
  0
LINE
  5
563
100
AcDbEntity
  8
SUPERFICI
100
AcDbLine
 62
250
  6
CONTINUOUS
 10
-133.9605036473
 20
28.9918400504
 11
-133.7783006813
 21
29.749583407
  0
LINE
  5
564
100
AcDbEntity
  8
SUPERFICI
100
AcDbLine
 62
250
  6
CONTINUOUS
 10
-134.0933990243
 20
28.4482045138
 11
-133.9605036473
 21
28.9918400504
  0
LINE
  5
565
100
AcDbEntity
  8
SUPERFICI
100
AcDbLine
 62
250
  6
CONTINUOUS
 10
-133.7795060534
 20
23.798793712
 11
-133.5392050536
 21
24.618002201
  0
LINE
  5
566
100
AcDbEntity
  8
SUPERFICI
100
AcDbLine
 62
250
  6
CONTINUOUS
 10
-133.9162891303
 20
23.3409982318
 11
-133.7795060534
 21
23.798793712
  0
LWPOLYLINE
  5
567
100
AcDbEntity
  8
SUPERFICI
100
AcDbPolyline
 62
250
  6
CONTINUOUS
 90
10
 70
0
 10
-135.5536851579
 20
18.2463532583
 10
-135.6429791874
 20
17.9530430355
 10
-135.7290170104
 20
17.660563933
 10
-135.8113302375
 20
17.3706278829
 10
-135.889124742
 20
17.0861702554
 10
-135.9623579864
 20
16.8074363157
 10
-136.0315420048
 20
16.5321939073
 10
-136.0963569275
 20
16.2609877172
 10
-136.1558471377
 20
15.9969293825
 10
-136.2093613641
 20
15.7419315048
  0
LINE
  5
568
100
AcDbEntity
  8
SUPERFICI
100
AcDbLine
 62
250
  6
CONTINUOUS
 10
-134.0951508054
 20
22.7563315726
 11
-133.9162891303
 21
23.3409982318
  0
LWPOLYLINE
  5
569
100
AcDbEntity
  8
SUPERFICI
100
AcDbPolyline
 62
250
  6
CONTINUOUS
 90
3
 70
0
 10
-134.3592774691
 20
21.9144345593
 10
-134.2934799753
 20
22.1218184748
 10
-134.0951508054
 20
22.7563315726
  0
LINE
  5
56A
100
AcDbEntity
  8
SUPERFICI
100
AcDbLine
 62
7
  6
CONTINUOUS
 10
-136.9404343169
 20
-11.9488343537
 11
-136.2279642916
 21
-11.9494069796
  0
LINE
  5
56B
100
AcDbEntity
  8
SUPERFICI
100
AcDbLine
 62
250
  6
CONTINUOUS
 10
-136.2279827006
 20
-11.9488570462
 11
-132.6174657894
 21
-11.9487906887
  0
LINE
  5
56C
100
AcDbEntity
  8
SUPERFICI
100
AcDbLine
 62
250
  6
CONTINUOUS
 10
-134.3592774691
 20
-21.9144345593
 11
-134.1613582321
 21
-22.5429142373
  0
LINE
  5
56D
100
AcDbEntity
  8
SUPERFICI
100
AcDbLine
 62
250
  6
CONTINUOUS
 10
-134.1613582321
 20
-22.5429142373
 11
-133.9605036473
 21
-23.1952075549
  0
LWPOLYLINE
  5
56E
100
AcDbEntity
  8
SUPERFICI
100
AcDbPolyline
 62
250
  6
CONTINUOUS
 90
10
 70
0
 10
-135.5536851579
 20
-18.2463532583
 10
-135.6429791874
 20
-17.9530430355
 10
-135.7290170104
 20
-17.660563933
 10
-135.8113302375
 20
-17.3706278829
 10
-135.889124742
 20
-17.0861702554
 10
-135.9623579864
 20
-16.8074363157
 10
-136.0315420048
 20
-16.5321939073
 10
-136.0963569275
 20
-16.2609877172
 10
-136.1558471377
 20
-15.9969293825
 10
-136.2093613641
 20
-15.7419315048
  0
LINE
  5
56F
100
AcDbEntity
  8
SUPERFICI
100
AcDbLine
 62
250
  6
CONTINUOUS
 10
-133.9605036473
 20
-23.1952075549
 11
-133.8257025916
 21
-23.6431996674
  0
LWPOLYLINE
  5
570
100
AcDbEntity
  8
SUPERFICI
100
AcDbPolyline
 62
250
  6
CONTINUOUS
 90
3
 70
0
 10
-133.8257025916
 20
-23.6431996674
 10
-133.5884277735
 20
-24.4493307419
 10
-133.5392050536
 20
-24.618002201
  0
LINE
  5
571
100
AcDbEntity
  8
SUPERFICI
100
AcDbLine
 62
250
  6
CONTINUOUS
 10
-133.8717182514
 20
-29.3595113317
 11
-134.092934666
 21
-28.4500915033
  0
LINE
  5
572
100
AcDbEntity
  8
SUPERFICI
100
AcDbLine
 62
250
  6
CONTINUOUS
 10
-133.6389871162
 20
-30.3399432161
 11
-133.8717182514
 21
-29.3595113317
  0
LINE
  5
573
100
AcDbEntity
  8
SUPERFICI
100
AcDbLine
 62
250
  6
CONTINUOUS
 10
-133.5416732118
 20
-30.7554556826
 11
-133.6389871162
 21
-30.3399432161
  0
LINE
  5
574
100
AcDbEntity
  8
SUPERFICI
100
AcDbLine
 62
250
  6
CONTINUOUS
 10
-133.5439779079
 20
-36.1156530038
 11
-134.0918362524
 21
-33.409069526
  0
LINE
  5
575
100
AcDbEntity
  8
SUPERFICI
100
AcDbLine
 62
250
  6
CONTINUOUS
 10
-135.7012317371
 20
-25.8224115639
 11
-135.5536851602
 21
-26.5625194829
  0
LINE
  5
576
100
AcDbEntity
  8
SUPERFICI
100
AcDbLine
 62
250
  6
CONTINUOUS
 10
-133.916375519
 20
-36.3715419616
 11
-134.0275606252
 21
-35.7884173942
  0
LWPOLYLINE
  5
577
100
AcDbEntity
  8
SUPERFICI
100
AcDbPolyline
 62
250
  6
CONTINUOUS
 90
7
 70
0
 10
-133.5285515984
 20
-39.0084789961
 10
-133.5283798726
 20
-39.0093859823
 10
-133.5282665962
 20
-39.0100168367
 10
-133.5282014168
 20
-39.010424068
 10
-133.5281729393
 20
-39.0106650144
 10
-133.528167386
 20
-39.0108083504
 10
-133.5281693849
 20
-39.0109302943
  0
LINE
  5
578
100
AcDbEntity
  8
SUPERFICI
100
AcDbLine
 62
250
  6
CONTINUOUS
 10
-135.8393231946
 20
-25.0993761636
 11
-135.7012317371
 21
-25.8224115639
  0
LINE
  5
579
100
AcDbEntity
  8
SUPERFICI
100
AcDbLine
 62
250
  6
CONTINUOUS
 10
-134.4240693584
 20
-33.6416877196
 11
-134.5579467146
 21
-32.9316325135
  0
LWPOLYLINE
  5
57A
100
AcDbEntity
  8
SUPERFICI
100
AcDbPolyline
 62
250
  6
CONTINUOUS
 90
8
 70
0
 10
-135.6316949406
 20
-27.6406171613
 10
-135.7798842344
 20
-26.8524090061
 10
-135.8504497477
 20
-26.4631577715
 10
-135.9188470449
 20
-26.0759306158
 10
-135.9850850741
 20
-25.6906177572
 10
-136.0493243985
 20
-25.3063216077
 10
-136.1118530042
 20
-24.92139821
 10
-136.1729043966
 20
-24.5345205694
  0
LINE
  5
57B
100
AcDbEntity
  8
SUPERFICI
100
AcDbLine
 62
250
  6
CONTINUOUS
 10
-133.5299986233
 20
-39.0008182143
 11
-133.5291082082
 21
-39.0056415628
  0
LINE
  5
57C
100
AcDbEntity
  8
SUPERFICI
100
AcDbLine
 62
250
  6
CONTINUOUS
 10
-134.1633724518
 20
-35.5998407513
 11
-134.0288934897
 21
-36.3254540099
  0
LINE
  5
57D
100
AcDbEntity
  8
SUPERFICI
100
AcDbLine
 62
250
  6
CONTINUOUS
 10
-134.0275606252
 20
-35.7884173942
 11
-134.4240693584
 21
-33.6416877196
  0
LINE
  5
57E
100
AcDbEntity
  8
SUPERFICI
100
AcDbLine
 62
250
  6
CONTINUOUS
 10
-134.5579467146
 20
-33.4191567796
 11
-134.4253821691
 21
-34.1421644402
  0
LWPOLYLINE
  5
57F
100
AcDbEntity
  8
SUPERFICI
100
AcDbPolyline
 62
250
  6
CONTINUOUS
 90
10
 70
0
 10
-136.1779303084
 20
-19.7906610082
 10
-136.1211998609
 20
-20.104961845
 10
-136.0608561797
 20
-20.424406062
 10
-135.9971074136
 20
-20.7482158281
 10
-135.9301795825
 20
-21.0755251155
 10
-135.8602553829
 20
-21.4056807296
 10
-135.7874646562
 20
-21.7382528376
 10
-135.7119714774
 20
-22.0726244736
 10
-135.6339837195
 20
-22.4079808728
 10
-135.5536851603
 20
-22.7436179843
  0
LWPOLYLINE
  5
580
100
AcDbEntity
  8
SUPERFICI
100
AcDbPolyline
 62
250
  6
CONTINUOUS
 90
6
 70
0
 10
-133.5278800323
 20
-39.0137480488
 10
-133.527011772
 20
-39.0185935161
 10
-133.5262502274
 20
-39.0219394876
 10
-133.5255638652
 20
-39.0248711972
 10
-133.5250001755
 20
-39.0276715916
 10
-133.5238850621
 20
-39.0338858066
  0
LINE
  5
581
100
AcDbEntity
  8
SUPERFICI
100
AcDbLine
 62
250
  6
CONTINUOUS
 10
-134.4253821691
 20
-34.1421644402
 11
-134.1633724518
 21
-35.5998407513
  0
LINE
  5
582
100
AcDbEntity
  8
SUPERFICI
100
AcDbLine
 62
7
  6
CONTINUOUS
 10
-135.6622296004
 20
-30.9703129012
 11
-135.7749780622
 21
-30.3007220992
  0
LWPOLYLINE
  5
583
100
AcDbEntity
  8
SUPERFICI
100
AcDbPolyline
 62
250
  6
CONTINUOUS
 90
5
 70
0
 10
-136.1504118077
 20
-23.3261887011
 10
-136.0915423607
 20
-23.680094736
 10
-136.0310998956
 20
-24.0337627193
 10
-135.9689725854
 20
-24.3878532039
 10
-135.8393231946
 20
-25.0993761636
  0
LINE
  5
584
100
AcDbEntity
  8
SUPERFICI
100
AcDbLine
 62
7
  6
CONTINUOUS
 10
-135.7869300753
 20
-30.2166223176
 11
-135.7481464298
 21
-30.4590612323
  0
LINE
  5
585
100
AcDbEntity
  8
SUPERFICI
100
AcDbLine
 62
7
  6
CONTINUOUS
 10
-135.7662441827
 20
-30.347156688
 11
-135.8762650742
 21
-29.6426497646
  0
LINE
  5
586
100
AcDbEntity
  8
SUPERFICI
100
AcDbLine
 62
7
  6
CONTINUOUS
 10
-135.8871560383
 20
-29.5520643317
 11
-135.8497262112
 21
-29.8070579489
  0
LINE
  5
587
100
AcDbEntity
  8
SUPERFICI
100
AcDbLine
 62
7
  6
CONTINUOUS
 10
-135.8650565625
 20
-29.7045937713
 11
-135.9700079178
 21
-28.97908675
  0
LINE
  5
588
100
AcDbEntity
  8
SUPERFICI
100
AcDbLine
 62
7
  6
CONTINUOUS
 10
-135.9774109376
 20
-28.899143846
 11
-135.9427999595
 21
-29.156337165
  0
LINE
  5
589
100
AcDbEntity
  8
SUPERFICI
100
AcDbLine
 62
7
  6
CONTINUOUS
 10
-135.9583281598
 20
-29.0442637201
 11
-136.0450472964
 21
-28.3723824021
  0
LINE
  5
58A
100
AcDbEntity
  8
SUPERFICI
100
AcDbLine
 62
7
  6
CONTINUOUS
 10
-135.9700079178
 20
-28.97908675
 11
-136.0556165325
 21
-28.3151498925
  0
LINE
  5
58B
100
AcDbEntity
  8
SUPERFICI
100
AcDbLine
 62
7
  6
CONTINUOUS
 10
-136.3043232704
 20
-25.7086590016
 11
-136.2560523008
 21
-26.0841118369
  0
LINE
  5
58C
100
AcDbEntity
  8
SUPERFICI
100
AcDbLine
 62
7
  6
CONTINUOUS
 10
-136.0647008965
 20
-28.206584462
 11
-136.033354925
 21
-28.4631591761
  0
LWPOLYLINE
  5
58D
100
AcDbEntity
  8
SUPERFICI
100
AcDbPolyline
 62
250
  6
CONTINUOUS
 90
10
 70
0
 10
-136.3077087574
 20
-25.7264531299
 10
-136.2371999384
 20
-26.3209377195
 10
-136.1638502467
 20
-26.9026576681
 10
-136.0875308116
 20
-27.4729023908
 10
-136.0083409479
 20
-28.0314064038
 10
-135.9259721194
 20
-28.5808777032
 10
-135.8396015909
 20
-29.1268886027
 10
-135.748780764
 20
-29.671942377
 10
-135.6535413114
 20
-30.2155835451
 10
-135.5536851602
 20
-30.7588482108
  0
LWPOLYLINE
  5
58E
100
AcDbEntity
  8
SUPERFICI
100
AcDbPolyline
 62
7
  6
CONTINUOUS
 90
4
 70
0
 10
-136.0450472964
 20
-28.3723824021
 10
-136.1237630063
 20
-27.7001614268
 10
-136.193858046
 20
-27.0340121279
 10
-136.2553128237
 20
-26.3751382796
  0
LWPOLYLINE
  5
58F
100
AcDbEntity
  8
SUPERFICI
100
AcDbPolyline
 62
7
  6
CONTINUOUS
 90
4
 70
0
 10
-136.0556165325
 20
-28.3151498925
 10
-136.1327821965
 20
-27.6532810942
 10
-136.2009153692
 20
-26.9975541953
 10
-136.2592548741
 20
-26.3538113223
  0
LINE
  5
590
100
AcDbEntity
  8
SUPERFICI
100
AcDbLine
 62
7
  6
CONTINUOUS
 10
-136.191645786
 20
25.0805666496
 11
-136.1836908126
 21
24.8694495148
  0
LINE
  5
591
100
AcDbEntity
  8
SUPERFICI
100
AcDbLine
 62
7
  6
CONTINUOUS
 10
-137.1323967599
 20
23.5888747891
 11
-137.1324374687
 21
23.5902415142
  0
LINE
  5
592
100
AcDbEntity
  8
SUPERFICI
100
AcDbLine
 62
7
  6
CONTINUOUS
 10
-136.1836910333
 20
24.8694480602
 11
-136.1693306846
 21
24.4084530136
  0
LINE
  5
593
100
AcDbEntity
  8
SUPERFICI
100
AcDbLine
 62
7
  6
CONTINUOUS
 10
-136.1693306846
 20
24.4084530136
 11
-136.1626300749
 21
24.1502462099
  0
LWPOLYLINE
  5
594
100
AcDbEntity
  8
SUPERFICI
100
AcDbPolyline
 62
250
  6
CONTINUOUS
 90
4
 70
0
 10
-133.5336490034
 20
-38.9506335853
 10
-133.5332191707
 20
-38.9687079195
 10
-133.5327275554
 20
-38.98239059
 10
-133.5299986233
 20
-39.0008182143
  0
LINE
  5
595
100
AcDbEntity
  8
SUPERFICI
100
AcDbLine
 62
7
  6
CONTINUOUS
 10
-136.1626300749
 20
24.1502462099
 11
-136.1572549295
 21
23.885776989
  0
LINE
  5
596
100
AcDbEntity
  8
SUPERFICI
100
AcDbLine
 62
7
  6
CONTINUOUS
 10
-136.1572549295
 20
23.885776989
 11
-136.153324613
 21
23.6113948691
  0
LINE
  5
597
100
AcDbEntity
  8
SUPERFICI
100
AcDbLine
 62
7
  6
CONTINUOUS
 10
-137.1323967599
 20
23.5888747885
 11
-137.1322837333
 21
23.5797423058
  0
LINE
  5
598
100
AcDbEntity
  8
SUPERFICI
100
AcDbLine
 62
7
  6
CONTINUOUS
 10
-136.153324613
 20
23.6113948691
 11
-136.1492817877
 21
23.2183067448
  0
LINE
  5
599
100
AcDbEntity
  8
SUPERFICI
100
AcDbLine
 62
7
  6
CONTINUOUS
 10
-136.1497813245
 20
-22.4896133746
 11
-136.1734817705
 21
-20.3156720508
  0
LINE
  5
59A
100
AcDbEntity
  8
SUPERFICI
100
AcDbLine
 62
7
  6
CONTINUOUS
 10
-136.1833842268
 20
-19.0537869985
 11
-136.2048466404
 21
-16.4912943415
  0
LINE
  5
59B
100
AcDbEntity
  8
SUPERFICI
100
AcDbLine
 62
7
  6
CONTINUOUS
 10
-136.2048466404
 20
-16.4912943415
 11
-136.2279827006
 21
-11.9488570462
  0
LINE
  5
59C
100
AcDbEntity
  8
SUPERFICI
100
AcDbLine
 62
7
  6
CONTINUOUS
 10
-136.1734817705
 20
-20.3156720508
 11
-136.1833842268
 21
-19.0537869985
  0
LINE
  5
59D
100
AcDbEntity
  8
SUPERFICI
100
AcDbLine
 62
7
  6
CONTINUOUS
 10
-136.1484768706
 20
-22.7464328038
 11
-136.1497813245
 21
-22.4896133746
  0
LINE
  5
59E
100
AcDbEntity
  8
SUPERFICI
100
AcDbLine
 62
7
  6
CONTINUOUS
 10
-136.1492817877
 20
23.2183067448
 11
-136.1483477977
 21
22.989483875
  0
LINE
  5
59F
100
AcDbEntity
  8
SUPERFICI
100
AcDbLine
 62
7
  6
CONTINUOUS
 10
-137.1322837333
 20
23.5797423058
 11
-137.1316753555
 21
-22.2383359431
  0
LINE
  5
5A0
100
AcDbEntity
  8
SUPERFICI
100
AcDbLine
 62
250
  6
CONTINUOUS
 10
-136.2280626392
 20
-11.9488613472
 11
-136.2280626396
 21
11.9488613472
  0
LINE
  5
5A1
100
AcDbEntity
  8
SUPERFICI
100
AcDbLine
 62
7
  6
CONTINUOUS
 10
-135.5536851602
 20
-31.5699796929
 11
-135.5536851545
 21
-31.5701056683
  0
LINE
  5
5A2
100
AcDbEntity
  8
SUPERFICI
100
AcDbLine
 62
7
  6
CONTINUOUS
 10
-135.5536851602
 20
31.5699796929
 11
-135.5536851545
 21
31.5701056683
  0
LINE
  5
5A3
100
AcDbEntity
  8
SUPERFICI
100
AcDbLine
 62
250
  6
CONTINUOUS
 10
-135.5536851558
 20
-11.9490067819
 11
-135.5536851603
 21
-31.5698789373
  0
LINE
  5
5A4
100
AcDbEntity
  8
SUPERFICI
100
AcDbLine
 62
250
  6
CONTINUOUS
 10
-135.5536851558
 20
11.9490067819
 11
-135.5536851603
 21
31.5698789373
  0
LINE
  5
5A5
100
AcDbEntity
  8
SUPERFICI
100
AcDbLine
 62
7
  6
CONTINUOUS
 10
-134.5579467146
 20
-35.8053105375
 11
-134.5579467146
 21
-35.8060976563
  0
LINE
  5
5A6
100
AcDbEntity
  8
SUPERFICI
100
AcDbLine
 62
7
  6
CONTINUOUS
 10
-134.5579467146
 20
35.8053105375
 11
-134.5579467146
 21
35.8060976563
  0
LINE
  5
5A7
100
AcDbEntity
  8
SUPERFICI
100
AcDbLine
 62
250
  6
CONTINUOUS
 10
-134.5579467147
 20
-11.9488128112
 11
-134.5579467146
 21
-35.8060977243
  0
LINE
  5
5A8
100
AcDbEntity
  8
SUPERFICI
100
AcDbLine
 62
250
  6
CONTINUOUS
 10
-134.5579467147
 20
11.9488128112
 11
-134.5579467146
 21
35.8060977243
  0
LINE
  5
5A9
100
AcDbEntity
  8
SUPERFICI
100
AcDbLine
 62
7
  6
CONTINUOUS
 10
-136.9391581424
 20
-24.1686709627
 11
-136.9392741091
 21
23.9083096853
  0
LINE
  5
5AA
100
AcDbEntity
  8
SUPERFICI
100
AcDbLine
 62
7
  6
CONTINUOUS
 10
-136.9392741091
 20
23.9083096853
 11
-136.9391581424
 21
24.1686709627
  0
LINE
  5
5AB
100
AcDbEntity
  8
SUPERFICI
100
AcDbLine
 62
7
  6
CONTINUOUS
 10
-136.1483477977
 20
22.989483875
 11
-136.1489423676
 21
22.6198486651
  0
LINE
  5
5AC
100
AcDbEntity
  8
SUPERFICI
100
AcDbLine
 62
7
  6
CONTINUOUS
 10
-137.1307349375
 20
-22.2383359405
 11
-137.1322837334
 21
-23.5797423158
  0
LWPOLYLINE
  5
5AD
100
AcDbEntity
  8
SUPERFICI
100
AcDbPolyline
 62
7
  6
CONTINUOUS
 90
3
 70
0
 10
-136.1492817877
 20
-23.2183067448
 10
-136.1486240324
 20
-23.105928724
 10
-136.1484768706
 20
-22.7464328038
  0
LINE
  5
5AE
100
AcDbEntity
  8
SUPERFICI
100
AcDbLine
 62
7
  6
CONTINUOUS
 10
-136.182248439
 20
19.2263441124
 11
-136.1837178795
 21
19.0008396043
  0
LINE
  5
5AF
100
AcDbEntity
  8
SUPERFICI
100
AcDbLine
 62
7
  6
CONTINUOUS
 10
-136.1489423676
 20
22.6198486651
 11
-136.1509919063
 21
22.3557527915
  0
LINE
  5
5B0
100
AcDbEntity
  8
SUPERFICI
100
AcDbLine
 62
7
  6
CONTINUOUS
 10
-136.1916869952
 20
18.0996790126
 11
-136.2279827006
 21
11.9488570462
  0
LINE
  5
5B1
100
AcDbEntity
  8
SUPERFICI
100
AcDbLine
 62
7
  6
CONTINUOUS
 10
-136.1837178795
 20
19.0008396043
 11
-136.1916869952
 21
18.0996790126
  0
LINE
  5
5B2
100
AcDbEntity
  8
SUPERFICI
100
AcDbLine
 62
7
  6
CONTINUOUS
 10
-136.1509919063
 20
22.3557527915
 11
-136.182248439
 21
19.2263441124
  0
LINE
  5
5B3
100
AcDbEntity
  8
SUPERFICI
100
AcDbLine
 62
7
  6
CONTINUOUS
 10
-137.1322837332
 20
-23.5797422932
 11
-137.1323967599
 21
-23.5888747894
  0
LINE
  5
5B4
100
AcDbEntity
  8
SUPERFICI
100
AcDbLine
 62
7
  6
CONTINUOUS
 10
-136.1550888018
 20
-23.7503442528
 11
-136.1492817877
 21
-23.2183067448
  0
LINE
  5
5B5
100
AcDbEntity
  8
SUPERFICI
100
AcDbLine
 62
7
  6
CONTINUOUS
 10
-136.1597673025
 20
-24.018727792
 11
-136.1550888018
 21
-23.7503442528
  0
LWPOLYLINE
  5
5B6
100
AcDbEntity
  8
SUPERFICI
100
AcDbPolyline
 62
250
  6
CONTINUOUS
 90
5
 70
0
 10
-133.5340453022
 20
38.9111363884
 10
-133.5334882882
 20
38.9404299802
 10
-133.5326322366
 20
38.964992298
 10
-133.5315939775
 20
38.9841493606
 10
-133.5303570408
 20
38.998642747
  0
LINE
  5
5B7
100
AcDbEntity
  8
SUPERFICI
100
AcDbLine
 62
7
  6
CONTINUOUS
 10
-136.1658557246
 20
-24.2803453273
 11
-136.1597673025
 21
-24.018727792
  0
LINE
  5
5B8
100
AcDbEntity
  8
SUPERFICI
100
AcDbLine
 62
7
  6
CONTINUOUS
 10
-136.1751940056
 20
-24.610759535
 11
-136.1658557246
 21
-24.2803453273
  0
LINE
  5
5B9
100
AcDbEntity
  8
SUPERFICI
100
AcDbLine
 62
7
  6
CONTINUOUS
 10
-136.1836910333
 20
-24.8694480602
 11
-136.1751940056
 21
-24.610759535
  0
LWPOLYLINE
  5
5BA
100
AcDbEntity
  8
SUPERFICI
100
AcDbPolyline
 62
7
  6
CONTINUOUS
 90
8
 70
0
 10
-136.2250302994
 20
25.5789396446
 10
-136.2195329443
 20
25.5288087107
 10
-136.214279488
 20
25.4718696786
 10
-136.2092755311
 20
25.408053547
 10
-136.2045634305
 20
25.3373963756
 10
-136.2001056759
 20
25.2596744787
 10
-136.1958024143
 20
25.1742456473
 10
-136.191645786
 20
25.0805666496
  0
LINE
  5
5BB
100
AcDbEntity
  8
SUPERFICI
100
AcDbLine
 62
250
  6
CONTINUOUS
 10
-133.5342942701
 20
-38.8965916683
 11
-133.5336490034
 21
-38.9506335853
  0
LINE
  5
5BC
100
AcDbEntity
  8
SUPERFICI
100
AcDbLine
 62
250
  6
CONTINUOUS
 10
-133.5451461698
 20
-37.6478664133
 11
-133.5342942701
 21
-38.8965916683
  0
LINE
  5
5BD
100
AcDbEntity
  8
SUPERFICI
100
AcDbLine
 62
250
  6
CONTINUOUS
 10
-132.6141611517
 20
-37.0414701762
 11
-132.6041423002
 21
-39.243758473
  0
LINE
  5
5BE
100
AcDbEntity
  8
SUPERFICI
100
AcDbLine
 62
250
  6
CONTINUOUS
 10
-133.5462348331
 20
-37.3215986993
 11
-133.5451461698
 21
-37.6478664133
  0
LINE
  5
5BF
100
AcDbEntity
  8
SUPERFICI
100
AcDbLine
 62
250
  6
CONTINUOUS
 10
-132.6045556738
 20
39.5914540069
 11
-132.6040508804
 21
39.3786294964
  0
LINE
  5
5C0
100
AcDbEntity
  8
SUPERFICI
100
AcDbLine
 62
250
  6
CONTINUOUS
 10
-133.5338420405
 20
11.9488428838
 11
-133.5439779079
 21
36.1156530038
  0
LINE
  5
5C1
100
AcDbEntity
  8
SUPERFICI
100
AcDbLine
 62
250
  6
CONTINUOUS
 10
-133.9605036473
 20
-11.9488562179
 11
-133.9605036473
 21
-37.6955873738
  0
LINE
  5
5C2
100
AcDbEntity
  8
SUPERFICI
100
AcDbLine
 62
7
  6
CONTINUOUS
 10
-133.9605036473
 20
-37.6955873738
 11
-133.9605036473
 21
-37.7821678886
  0
LINE
  5
5C3
100
AcDbEntity
  8
SUPERFICI
100
AcDbLine
 62
250
  6
CONTINUOUS
 10
-133.9605036473
 20
11.9488562179
 11
-133.9605036473
 21
37.6955873738
  0
LINE
  5
5C4
100
AcDbEntity
  8
SUPERFICI
100
AcDbLine
 62
7
  6
CONTINUOUS
 10
-133.9605036473
 20
37.6955873738
 11
-133.9605036473
 21
37.7821678886
  0
LINE
  5
5C5
100
AcDbEntity
  8
SUPERFICI
100
AcDbLine
 62
250
  6
CONTINUOUS
 10
-132.6163718599
 20
-37.0414701762
 11
-132.6163718599
 21
37.0414701762
  0
LINE
  5
5C6
100
AcDbEntity
  8
SUPERFICI
100
AcDbLine
 62
250
  6
CONTINUOUS
 10
-133.5354226954
 20
11.9488613472
 11
-133.5368319587
 21
-24.618032395
  0
LINE
  5
5C7
100
AcDbEntity
  8
SUPERFICI
100
AcDbLine
 62
250
  6
CONTINUOUS
 10
-133.5392050536
 20
-24.618002201
 11
-133.5450796899
 21
-36.4356541779
  0
LWPOLYLINE
  5
5C8
100
AcDbEntity
  8
SUPERFICI
100
AcDbPolyline
 62
250
  6
CONTINUOUS
 90
7
 70
0
 10
-132.6041423002
 20
-39.243758473
 10
-132.604159688
 20
-39.4952756403
 10
-132.6045578048
 20
-39.5916659081
 10
-132.6056418814
 20
-39.667365075
 10
-132.6075441434
 20
-39.7217770266
 10
-132.6101323652
 20
-39.7545024435
 10
-132.6134065466
 20
-39.7653068871
  0
LINE
  5
5C9
100
AcDbEntity
  8
SUPERFICI
100
AcDbLine
 62
250
  6
CONTINUOUS
 10
-133.5449862692
 20
36.1167124537
 11
-133.5460308811
 21
37.4563650462
  0
LINE
  5
5CA
100
AcDbEntity
  8
SUPERFICI
100
AcDbLine
 62
250
  6
CONTINUOUS
 10
-133.5450796899
 20
-36.4356541779
 11
-133.5462348331
 21
-37.3215986993
  0
LINE
  5
5CB
100
AcDbEntity
  8
SUPERFICI
100
AcDbLine
 62
250
  6
CONTINUOUS
 10
-132.6040508804
 20
39.3786294964
 11
-132.6096645189
 21
37.8747527809
  0
LINE
  5
5CC
100
AcDbEntity
  8
SUPERFICI
100
AcDbLine
 62
250
  6
CONTINUOUS
 10
-132.6096645189
 20
37.8747527809
 11
-132.6141611517
 21
37.0414701762
  0
LINE
  5
5CD
100
AcDbEntity
  8
SUPERFICI
100
AcDbLine
 62
250
  6
CONTINUOUS
 10
-133.5460308811
 20
37.4563650462
 11
-133.5426570781
 21
37.9998913695
  0
LINE
  5
5CE
100
AcDbEntity
  8
SUPERFICI
100
AcDbLine
 62
250
  6
CONTINUOUS
 10
-133.5426570781
 20
37.9998913695
 11
-133.5340453022
 21
38.9111363884
  0
LWPOLYLINE
  5
5CF
100
AcDbEntity
  8
SUPERFICI
100
AcDbPolyline
 62
7
  6
CONTINUOUS
 90
9
 70
0
 10
-136.2250302994
 20
-25.5789396446
 10
-136.2195329443
 20
-25.5288087107
 10
-136.214279488
 20
-25.4718696786
 10
-136.2092755311
 20
-25.408053547
 10
-136.2045634305
 20
-25.3373963756
 10
-136.2001056759
 20
-25.2596744787
 10
-136.1958024143
 20
-25.1742456473
 10
-136.191645786
 20
-25.0805666496
 10
-136.1836908126
 20
-24.8694495148
  0
LINE
  5
5D0
100
AcDbEntity
  8
RACCORDO
100
AcDbLine
 62
7
  6
CONTINUOUS
 10
-130.2615804633
 20
-3.5239590572
 11
-128.4092870176
 21
-3.6860137352
  0
LINE
  5
5D1
100
AcDbEntity
  8
RACCORDO
100
AcDbLine
 62
7
  6
CONTINUOUS
 10
-130.5354337405
 20
3.2251006478
 11
-130.5354337405
 21
-3.2251006478
  0
LINE
  5
5D2
100
AcDbEntity
  8
0
100
AcDbLine
 62
7
  6
CONTINUOUS
 10
-128.1354337405
 20
39.9999840702
 11
-128.1354337405
 21
37.041498446
  0
LINE
  5
5D3
100
AcDbEntity
  8
0
100
AcDbLine
 62
7
  6
CONTINUOUS
 10
-128.1354337405
 20
-39.9999840706
 11
-128.1354337405
 21
-37.041498446
  0
LINE
  5
5D4
100
AcDbEntity
  8
RACCORDO
100
AcDbLine
 62
7
  6
CONTINUOUS
 10
-128.1354337405
 20
-37.041498446
 11
-128.1354337405
 21
-3.9848721447
  0
LINE
  5
5D5
100
AcDbEntity
  8
RACCORDO
100
AcDbLine
 62
7
  6
CONTINUOUS
 10
-128.1354337405
 20
3.9848721447
 11
-128.1354337405
 21
37.041498446
  0
LINE
  5
5D6
100
AcDbEntity
  8
0
100
AcDbLine
 62
7
  6
CONTINUOUS
 10
-127.9354337405
 20
38.5066495637
 11
-127.9354337405
 21
36.84829558
  0
LINE
  5
5D7
100
AcDbEntity
  8
RACCORDO
100
AcDbLine
 62
7
  6
CONTINUOUS
 10
-127.9354337405
 20
36.84829558
 11
-127.9354337405
 21
4.2031338449
  0
LINE
  5
5D8
100
AcDbEntity
  8
RACCORDO
100
AcDbLine
 62
7
  6
CONTINUOUS
 10
-127.9354337405
 20
-4.2031338449
 11
-127.9354337405
 21
-36.8482955995
  0
LINE
  5
5D9
100
AcDbEntity
  8
0
100
AcDbLine
 62
7
  6
CONTINUOUS
 10
-127.9354337405
 20
-36.8482955995
 11
-127.9354337405
 21
-38.5066495739
  0
LWPOLYLINE
  5
5DA
100
AcDbEntity
  8
0
100
AcDbPolyline
 62
7
  6
CONTINUOUS
 90
4
 70
0
 43
0.3500000006
 10
-147.429638031
 20
-2.3571432495
 10
-148.2867850342
 20
-2.3571432495
 10
-148.7153540039
 20
-1.9285708809
 10
-148.7153540039
 20
-1.2857140274
  0
LWPOLYLINE
  5
5DB
100
AcDbEntity
  8
0
100
AcDbPolyline
 62
7
  6
CONTINUOUS
 90
13
 70
0
 43
0.3500000006
 10
-147.8582160645
 20
-0.0000003204
 10
-149.1439229736
 20
-0.0000003204
 10
-149.5725010071
 20
0.2142864304
 10
-150.0010699768
 20
0.642857666
 10
-150.0010699768
 20
0.8571421509
 10
-149.5725010071
 20
1.2857133865
 10
-149.1439229736
 20
1.5000001373
 10
-147.8582160645
 20
1.5000001373
 10
-147.429638031
 20
1.2857133865
 10
-147.0010690613
 20
0.8571421509
 10
-147.0010690613
 20
0.642857666
 10
-147.429638031
 20
0.2142864304
 10
-147.8582160645
 20
-0.0000003204
  0
LINE
  5
5DC
100
AcDbEntity
  8
SUPERFICI
100
AcDbLine
 62
250
  6
CONTINUOUS
 10
-133.5343343502
 20
0.0
 11
-137.1323328072
 21
-0.0
  0
LINE
  5
5DD
100
AcDbEntity
  8
RACCORDO
100
AcDbLine
 62
7
  6
CONTINUOUS
 10
-128.4092870176
 20
3.6860137352
 11
-130.2615804633
 21
3.5239590572
  0
LWPOLYLINE
  5
5DE
100
AcDbEntity
  8
SUPERFICI
100
AcDbPolyline
 62
250
  6
CONTINUOUS
 90
5
 70
0
 10
-132.6134065466
 20
39.7653068871
 10
-132.6101308827
 20
39.7544843865
 10
-132.6075417732
 20
39.7217108804
 10
-132.6056392183
 20
39.6672304742
 10
-132.6045556738
 20
39.5914540069
  0
LINE
  5
5DF
100
AcDbEntity
  8
SUPERFICI
100
AcDbLine
 62
7
  6
CONTINUOUS
 10
-136.3032650406
 20
-25.7113062299
 11
-136.3031523309
 21
-25.7111753324
  0
LINE
  5
5E0
100
AcDbEntity
  8
SUPERFICI
100
AcDbLine
 62
7
  6
CONTINUOUS
 10
-136.9404343169
 20
11.9488343537
 11
-136.2279642916
 21
11.9494069796
  0
LINE
  5
5E1
100
AcDbEntity
  8
SUPERFICI
100
AcDbLine
 62
250
  6
CONTINUOUS
 10
-132.6174657894
 20
11.9487906887
 11
-136.2279827006
 21
11.9488570462
  0
LINE
  5
5E2
100
AcDbEntity
  8
SUPERFICI
100
AcDbLine
 62
7
  6
CONTINUOUS
 10
-136.3032650406
 20
25.7113062299
 11
-136.3031523303
 21
25.7111753323
  0
LWPOLYLINE
  5
5E3
100
AcDbEntity
  8
SUPERFICI
100
AcDbPolyline
 62
7
  6
CONTINUOUS
 90
5
 70
0
 10
-136.3105163228
 20
-25.7137784747
 10
-136.314022791
 20
-25.7160354126
 10
-136.3159128611
 20
-25.7180803322
 10
-136.3164471135
 20
-25.7199187775
 10
-136.3164237375
 20
-25.7202002684
  0
LWPOLYLINE
  5
5E4
100
AcDbEntity
  8
SUPERFICI
100
AcDbPolyline
 62
7
  6
CONTINUOUS
 90
10
 70
0
 10
-136.2588748837
 20
-25.7057117297
 10
-136.2547299891
 20
-25.704154286
 10
-136.2507161801
 20
-25.6996694262
 10
-136.2468249974
 20
-25.6921604216
 10
-136.2430532702
 20
-25.6814963227
 10
-136.2393794647
 20
-25.6676156382
 10
-136.2357635836
 20
-25.6505170432
 10
-136.2321783426
 20
-25.6301255403
 10
-136.2286091183
 20
-25.6063018746
 10
-136.2250302993
 20
-25.5789396453
  0
LINE
  5
5E5
100
AcDbEntity
  8
SUPERFICI
100
AcDbLine
 62
250
  6
CONTINUOUS
 10
-136.6990100973
 20
22.2328660149
 11
-136.9408110694
 21
22.235697173
  0
LINE
  5
5E6
100
AcDbEntity
  8
SUPERFICI
100
AcDbLine
 62
7
  6
CONTINUOUS
 10
-137.1316753555
 20
22.2383359431
 11
-136.9408110694
 21
22.235697173
  0
LINE
  5
5E7
100
AcDbEntity
  8
SUPERFICI
100
AcDbLine
 62
250
  6
CONTINUOUS
 10
-136.4893547943
 20
22.2290570806
 11
-136.6990100973
 21
22.2328660149
  0
LWPOLYLINE
  5
5E8
100
AcDbEntity
  8
SUPERFICI
100
AcDbPolyline
 62
250
  6
CONTINUOUS
 90
5
 70
0
 10
-136.1525964864
 20
22.2182228838
 10
-136.1951932038
 20
22.2202410288
 10
-136.250877062
 20
22.2224157729
 10
-136.3189042848
 20
22.2246600381
 10
-136.4893547943
 20
22.2290570806
  0
LWPOLYLINE
  5
5E9
100
AcDbEntity
  8
SUPERFICI
100
AcDbPolyline
 62
7
  6
CONTINUOUS
 90
9
 70
0
 10
-136.3043273402
 20
25.7114241224
 10
-136.3053045782
 20
25.7116720807
 10
-136.30621378
 20
25.7119399713
 10
-136.3070598655
 20
25.7122244862
 10
-136.307847739
 20
25.712522281
 10
-136.3085823051
 20
25.7128299712
 10
-136.3092685519
 20
25.7131441667
 10
-136.3099115359
 20
25.7134614749
 10
-136.3105163228
 20
25.7137784747
  0
LWPOLYLINE
  5
5EA
100
AcDbEntity
  8
SUPERFICI
100
AcDbPolyline
 62
7
  6
CONTINUOUS
 90
10
 70
0
 10
-136.2588748837
 20
25.7057117297
 10
-136.2547299891
 20
25.704154286
 10
-136.2507161801
 20
25.6996694262
 10
-136.2468249974
 20
25.6921604216
 10
-136.2430532702
 20
25.6814963227
 10
-136.2393794647
 20
25.6676156382
 10
-136.2357635836
 20
25.6505170432
 10
-136.2321783426
 20
25.6301255403
 10
-136.2286091183
 20
25.6063018746
 10
-136.2250302993
 20
25.5789396453
  0
LWPOLYLINE
  5
5EB
100
AcDbEntity
  8
0
100
AcDbPolyline
 62
7
  6
CONTINUOUS
 90
10
 70
0
 43
0.3500000006
 10
-132.7794386902
 20
56.7497360229
 10
-132.7078352966
 20
56.6069642944
 10
-132.7077446594
 20
56.5355421753
 10
-132.8504257507
 20
56.3925075989
 10
-132.9218569336
 20
56.3924169617
 10
-132.9933696899
 20
56.4637575073
 10
-132.9934603271
 20
56.5351886902
 10
-132.9222104187
 20
56.6781326294
 10
-132.850869873
 20
56.7496453857
 10
-132.7794386902
 20
56.7497360229
  0
LINE
  5
5EC
100
AcDbEntity
  8
SUPERFICI
100
AcDbLine
 62
7
  6
CONTINUOUS
 10
-136.3032772004
 20
25.7111993911
 11
-136.3039815839
 21
25.7113501301
  0
LINE
  5
5ED
100
AcDbEntity
  8
RACCORDO
100
AcDbLine
 62
250
  6
CONTINUOUS
 10
-127.9354337405
 20
29.3674246238
 11
-128.1354337405
 21
29.3655086681
  0
LINE
  5
5EE
100
AcDbEntity
  8
RACCORDO
100
AcDbLine
 62
250
  6
CONTINUOUS
 10
-127.9354337405
 20
29.772140145
 11
-128.1354337405
 21
29.7698560607
  0
LINE
  5
5EF
100
AcDbEntity
  8
RACCORDO
100
AcDbLine
 62
250
  6
CONTINUOUS
 10
-128.1354337405
 20
33.6344913441
 11
-127.9354337405
 21
33.6325753778
  0
LINE
  5
5F0
100
AcDbEntity
  8
RACCORDO
100
AcDbLine
 62
250
  6
CONTINUOUS
 10
-128.1354337405
 20
33.2301439526
 11
-127.9354337405
 21
33.2278598547
  0
LINE
  5
5F1
100
AcDbEntity
  8
RACCORDO
100
AcDbLine
 62
7
  6
CONTINUOUS
 10
-128.1354337405
 20
38.4961692371
 11
-127.9354337405
 21
38.5066495637
  0
LINE
  5
5F2
100
AcDbEntity
  8
RACCORDO
100
AcDbLine
 62
250
  6
CONTINUOUS
 10
-127.9354337405
 20
36.8482577095
 11
-128.1354337405
 21
36.84825771
  0
LINE
  5
5F3
100
AcDbEntity
  8
0
100
AcDbLine
 62
250
  6
CONTINUOUS
 10
-128.1354337405
 20
37.0414701762
 11
-132.6163718599
 21
37.0414701762
  0
LINE
  5
5F4
100
AcDbEntity
  8
SUPERFICI
100
AcDbLine
 62
250
  6
CONTINUOUS
 10
-132.6164586597
 20
36.1033166539
 11
-133.5448397313
 21
36.1040388741
  0
LINE
  5
5F5
100
AcDbEntity
  8
SUPERFICI
100
AcDbLine
 62
7
  6
CONTINUOUS
 10
-132.8352069454
 20
39.7292969827
 11
-132.8403079891
 21
39.7278582995
  0
LINE
  5
5F6
100
AcDbEntity
  8
SUPERFICI
100
AcDbLine
 62
7
  6
CONTINUOUS
 10
-132.8242655969
 20
39.732285497
 11
-132.826153568
 21
39.7317792512
  0
LWPOLYLINE
  5
5F7
100
AcDbEntity
  8
SUPERFICI
100
AcDbPolyline
 62
7
  6
CONTINUOUS
 90
3
 70
0
 10
-132.7992055882
 20
39.7386912622
 10
-132.8190070367
 20
39.7336947957
 10
-132.8373979062
 20
39.7286608784
  0
LWPOLYLINE
  5
5F8
100
AcDbEntity
  8
SUPERFICI
100
AcDbPolyline
 62
7
  6
CONTINUOUS
 90
6
 70
0
 10
-132.6786779892
 20
39.7600071396
 10
-132.7055570881
 20
39.7565730518
 10
-132.7310338525
 20
39.7526286118
 10
-132.755156124
 20
39.7482661443
 10
-132.7779068406
 20
39.7435833841
 10
-132.7992055882
 20
39.7386912622
  0
LINE
  5
5F9
100
AcDbEntity
  8
SUPERFICI
100
AcDbLine
 62
7
  6
CONTINUOUS
 10
-132.6723213702
 20
39.7606946657
 11
-132.676496832
 21
39.7602297632
  0
LINE
  5
5FA
100
AcDbEntity
  8
SUPERFICI
100
AcDbLine
 62
250
  6
CONTINUOUS
 10
-132.6680350267
 20
39.7611528194
 11
-132.6420126444
 21
39.7624278947
  0
LINE
  5
5FB
100
AcDbEntity
  8
SUPERFICI
100
AcDbLine
 62
7
  6
CONTINUOUS
 10
-132.7106441508
 20
39.7560207231
 11
-132.6186073055
 21
39.7654921009
  0
LWPOLYLINE
  5
5FC
100
AcDbEntity
  8
SUPERFICI
100
AcDbPolyline
 62
7
  6
CONTINUOUS
 90
10
 70
0
 10
-132.6193302618
 20
39.7649962924
 10
-132.6233946359
 20
39.7647716347
 10
-132.6287826057
 20
39.7644467645
 10
-132.6342179185
 20
39.764087834
 10
-132.6393366774
 20
39.7637211878
 10
-132.644502522
 20
39.7633230566
 10
-132.6495316198
 20
39.7629083634
 10
-132.6543617969
 20
39.7624849245
 10
-132.6590553081
 20
39.7620498808
 10
-132.6636152018
 20
39.761604974
  0
LINE
  5
5FD
100
AcDbEntity
  8
0
100
AcDbLine
 62
7
  6
CONTINUOUS
 10
-132.6160907217
 20
39.7651627891
 11
-128.1354337405
 21
39.9999840702
  0
LWPOLYLINE
  5
5FE
100
AcDbEntity
  8
0
100
AcDbPolyline
 62
7
  6
CONTINUOUS
 90
7
 70
0
 43
0.3500000006
 10
-130.2073994751
 20
56.2528991089
 10
-131.7073908691
 20
56.2510501099
 10
-130.2100370178
 20
58.3957530212
 10
-130.2105627136
 20
58.824321991
 10
-130.6396573792
 20
59.2523743286
 10
-131.2825108337
 20
59.2515767212
 10
-131.7102912598
 20
58.6081975708
  0
ARC
  5
5FF
100
AcDbEntity
  8
0
100
AcDbCircle
 62
7
  6
CONTINUOUS
 10
100.1004152256
 20
-37.0414701762
 40
2.9585176137
100
AcDbArc
 50
270.0005471202
 51
359.9994525162
  0
ARC
  5
600
100
AcDbEntity
  8
0
100
AcDbCircle
 62
7
  6
CONTINUOUS
 10
-100.1004152256
 20
-37.0414701762
 40
2.9585176137
100
AcDbArc
 50
180.0005474838
 51
269.9994528798
  0
ARC
  5
601
100
AcDbEntity
  8
0
100
AcDbCircle
 62
7
  6
CONTINUOUS
 10
-100.1004152256
 20
37.0414701762
 40
2.9585176137
100
AcDbArc
 50
90.0005471842
 51
179.9994525162
  0
ARC
  5
602
100
AcDbEntity
  8
0
100
AcDbCircle
 62
7
  6
CONTINUOUS
 10
100.1004152256
 20
37.0414701762
 40
2.9585176137
100
AcDbArc
 50
0.0005474838
 51
89.9994528158
  0
ARC
  5
603
100
AcDbEntity
  8
0
100
AcDbCircle
 62
7
  6
CONTINUOUS
 10
-78.6384437412
 20
-22.2248821058
 40
0.3375169208
100
AcDbArc
 50
179.9998945045
 51
270.0001054906
  0
ARC
  5
604
100
AcDbEntity
  8
0
100
AcDbCircle
 62
7
  6
CONTINUOUS
 10
-78.6384437412
 20
22.2248821058
 40
0.3375169208
100
AcDbArc
 50
89.9998945094
 51
180.0001054955
  0
ARC
  5
605
100
AcDbEntity
  8
0
100
AcDbCircle
 62
7
  6
CONTINUOUS
 10
78.6384437412
 20
22.2248821058
 40
0.3375169208
100
AcDbArc
 50
359.9998945045
 51
90.0001054948
  0
ARC
  5
606
100
AcDbEntity
  8
0
100
AcDbCircle
 62
7
  6
CONTINUOUS
 10
78.6384437412
 20
-22.2248821058
 40
0.3375169208
100
AcDbArc
 50
269.9998945052
 51
0.0001054955
  0
ARC
  5
607
100
AcDbEntity
  8
DRAFT
100
AcDbCircle
 62
7
  6
CONTINUOUS
 10
-78.6384437412
 20
22.2248821058
 40
0.3218072294
100
AcDbArc
 50
90.0
 51
180.0
  0
ARC
  5
608
100
AcDbEntity
  8
DRAFT
100
AcDbCircle
 62
7
  6
CONTINUOUS
 10
-78.6384437412
 20
-22.2248821058
 40
0.3218072294
100
AcDbArc
 50
180.0
 51
270.0
  0
ARC
  5
609
100
AcDbEntity
  8
DRAFT
100
AcDbCircle
 62
7
  6
CONTINUOUS
 10
78.6384437412
 20
-22.2248821058
 40
0.3218072294
100
AcDbArc
 50
270.0
 51
360.0
  0
ARC
  5
60A
100
AcDbEntity
  8
DRAFT
100
AcDbCircle
 62
7
  6
CONTINUOUS
 10
78.6384437412
 20
22.2248821058
 40
0.3218072294
100
AcDbArc
 50
0.0
 51
90.0
  0
ARC
  5
60B
100
AcDbEntity
  8
SUPERFICI
100
AcDbCircle
 62
7
  6
CONTINUOUS
 10
-84.9316490404
 20
-21.7352021496
 40
51.5848666102
100
AcDbArc
 50
199.5064842679
 51
199.6808543148
  0
ARC
  5
60C
100
AcDbEntity
  8
SUPERFICI
100
AcDbCircle
 62
7
  6
CONTINUOUS
 10
-84.9316490404
 20
21.7352021496
 40
51.5848666102
100
AcDbArc
 50
160.3191456852
 51
160.4943033788
  0
ARC
  5
60D
100
AcDbEntity
  8
RACCORDO
100
AcDbCircle
 62
7
  6
CONTINUOUS
 10
-128.2354337405
 20
-4.2031338449
 40
0.3
100
AcDbArc
 50
0.0
 51
72.1088075241
  0
ARC
  5
60E
100
AcDbEntity
  8
RACCORDO
100
AcDbCircle
 62
7
  6
CONTINUOUS
 10
-128.2354337405
 20
4.2031338449
 40
0.3
100
AcDbArc
 50
287.8911924759
 51
360.0
  0
ARC
  5
60F
100
AcDbEntity
  8
RACCORDO
100
AcDbCircle
 62
7
  6
CONTINUOUS
 10
-128.4354337405
 20
-3.9848721447
 40
0.3
100
AcDbArc
 50
0.0
 51
85.0
  0
ARC
  5
610
100
AcDbEntity
  8
RACCORDO
100
AcDbCircle
 62
7
  6
CONTINUOUS
 10
-128.4354337405
 20
3.9848721447
 40
0.3
100
AcDbArc
 50
275.0
 51
360.0
  0
ARC
  5
611
100
AcDbEntity
  8
RACCORDO
100
AcDbCircle
 62
7
  6
CONTINUOUS
 10
-130.2354337405
 20
-3.2251006478
 40
0.3
100
AcDbArc
 50
180.0
 51
265.0
  0
ARC
  5
612
100
AcDbEntity
  8
RACCORDO
100
AcDbCircle
 62
7
  6
CONTINUOUS
 10
-130.2354337405
 20
3.2251006478
 40
0.3
100
AcDbArc
 50
95.0
 51
180.0
  0
ELLIPSE
  5
613
100
AcDbEntity
  8
RACCORDO
100
AcDbEllipse
 62
7
  6
CONTINUOUS
 10
103.0432067862
 20
-3.9848721447
 30
0.0
 11
-0.0
 21
0.3
 31
0.0
 40
0.0524077793
 41
-1.5707963268
 42
-0.0872664626
  0
ELLIPSE
  5
614
100
AcDbEntity
  8
RACCORDO
100
AcDbEllipse
 62
7
  6
CONTINUOUS
 10
103.0432067862
 20
3.9848721447
 30
0.0
 11
0.0
 21
0.3
 31
0.0
 40
0.0524077793
 41
-3.054326191
 42
-1.5707963268
  0
ELLIPSE
  5
615
100
AcDbEntity
  8
RACCORDO
100
AcDbEllipse
 62
7
  6
CONTINUOUS
 10
-103.0432067862
 20
3.9848721447
 30
0.0
 11
0.0
 21
0.3
 31
0.0
 40
0.0524077793
 41
-4.7123889804
 42
-3.2288591162
  0
ELLIPSE
  5
616
100
AcDbEntity
  8
RACCORDO
100
AcDbEllipse
 62
7
  6
CONTINUOUS
 10
-103.0432067862
 20
-3.9848721447
 30
0.0
 11
-0.0
 21
0.3
 31
0.0
 40
0.0524077793
 41
0.0872664626
 42
1.5707963268
  0
ELLIPSE
  5
617
100
AcDbEntity
  8
RACCORDO
100
AcDbEllipse
 62
7
  6
CONTINUOUS
 10
-102.9488727835
 20
-3.2251006478
 30
0.0
 11
-0.0
 21
0.3
 31
0.0
 40
0.0524077793
 41
-3.054326191
 42
-1.5707963268
  0
ELLIPSE
  5
618
100
AcDbEntity
  8
RACCORDO
100
AcDbEllipse
 62
7
  6
CONTINUOUS
 10
-102.9488727835
 20
3.2251006478
 30
0.0
 11
-0.0
 21
0.3
 31
0.0
 40
0.0524077793
 41
-1.5707963268
 42
-0.0872664626
  0
ELLIPSE
  5
619
100
AcDbEntity
  8
RACCORDO
100
AcDbEllipse
 62
7
  6
CONTINUOUS
 10
102.9488727835
 20
3.2251006478
 30
0.0
 11
-0.0
 21
0.3
 31
0.0
 40
0.0524077793
 41
0.0872664626
 42
1.5707963268
  0
ELLIPSE
  5
61A
100
AcDbEntity
  8
RACCORDO
100
AcDbEllipse
 62
7
  6
CONTINUOUS
 10
102.9488727835
 20
-3.2251006478
 30
0.0
 11
0.0
 21
0.3
 31
0.0
 40
0.0524077793
 41
-4.7123889804
 42
-3.2288591162
  0
ENDSEC
  0
SECTION
  2
OBJECTS
  0
DICTIONARY
  5
C
100
AcDbDictionary
280
0
281
1
  3
ACAD_GROUP
350
D
  3
ACAD_MLINESTYLE
350
17
  3
ACAD_LAYOUT
350
1A
  3
ACAD_PLOTSETTINGS
350
19
  3
ACAD_PLOTSTYLENAME
350
E
  0
DICTIONARY
  5
D
102
{ACAD_REACTORS
330
C
102
}
100
AcDbDictionary
280
0
281
1
  0
ACDBDICTIONARYWDFLT
  5
E
102
{ACAD_REACTORS
330
C
102
}
100
AcDbDictionary
281
1
  3
Normal
350
F
100
AcDbDictionaryWithDefault
340
F
  0
DICTIONARY
  5
17
102
{ACAD_REACTORS
330
C
102
}
100
AcDbDictionary
280
0
281
1
  3
Standard
350
18
  0
DICTIONARY
  5
19
102
{ACAD_REACTORS
330
C
102
}
100
AcDbDictionary
281
1
  0
DICTIONARY
  5
1A
102
{ACAD_REACTORS
330
C
102
}
100
AcDbDictionary
281
1
  3
Model
350
61B
  3
Layout1
350
61C
  0
ACDBPLACEHOLDER
  5
F
102
{ACAD_REACTORS
330
E
102
}
  0
MLINESTYLE
  5
18
102
{ACAD_REACTORS
330
17
102
}
100
AcDbMlineStyle
  2
STANDARD
 70
0
  3

 62
256
 51
90.0
 52
90.0
 71
2
 49
0.5
 62
256
  6
BYLAYER
 49
-0.5
 62
256
  6
BYLAYER
  0
LAYOUT
  5
61B
102
{ACAD_REACTORS
330
1A
102
}
100
AcDbPlotSettings
  1

  2
none_device
  4
ISO_A4_(297.00_x_210.00_MM)
  6

 40
0.0
 41
0.0
 42
0.0
 43
0.0
 44
297.0
 45
210.0
 46
0.0
 47
0.0
 48
0.0
 49
0.0
140
0.0
141
0.0
142
1.0
143
1.0
 70
1024
 72
1
 73
0
 74
0
  7

 75
0
147
1.0
148
0.0
149
0.0
100
AcDbLayout
  1
Model
 70
0
 71
0
 10
0.0
 20
0.0
 11
297.0
 21
210.0
 12
0.0
 22
0.0
 32
0.0
 14
0.0
 24
0.0
 34
0.0
 15
0.0
 25
0.0
 35
0.0
146
0.0
 13
0.0
 23
0.0
 33
0.0
 16
1.0
 26
0.0
 36
0.0
 17
0.0
 27
1.0
 37
0.0
 76
0
330
21D
345
0
346
0
  0
LAYOUT
  5
61C
102
{ACAD_REACTORS
330
1A
102
}
100
AcDbPlotSettings
  1

  2
none_device
  4
ISO_A4_(297.00_x_210.00_MM)
  6

 40
0.0
 41
0.0
 42
0.0
 43
0.0
 44
297.0
 45
210.0
 46
0.0
 47
0.0
 48
0.0
 49
0.0
140
0.0
141
0.0
142
1.0
143
1.0
 70
0
 72
1
 73
0
 74
0
  7

 75
0
147
1.0
148
0.0
149
0.0
100
AcDbLayout
  1
Layout1
 70
0
 71
1
 10
0.0
 20
0.0
 11
297.0
 21
210.0
 12
0.0
 22
0.0
 32
0.0
 14
0.0
 24
0.0
 34
0.0
 15
0.0
 25
0.0
 35
0.0
146
0.0
 13
0.0
 23
0.0
 33
0.0
 16
1.0
 26
0.0
 36
0.0
 17
0.0
 27
1.0
 37
0.0
 76
0
330
21E
345
0
346
0
  0
ENDSEC
  0
EOF
