  0
SECTION
  2
HEADER
  9
$ACADVER
  1
AC1024
  9
$DWGCODEPAGE
  3
ANSI_1252
  9
$EXTMAX
 10
558.8
 20
431.8
 30
0.0
  9
$EXTMIN
 10
0.0
 20
0.0
 30
0.0
  9
$LIMMIN
 10
0.0
 20
0.0
  9
$LIMMAX
 10
558.8
 20
431.8
  9
$VIEWCTR
 10
279.4
 20
215.9
  9
$VIEWSIZE
 40
431.8
  9
$CLAYER
  8
0
  9
$LTSCALE
 40
30.734
  9
$CELTYPE
  6
BYLAYER
  9
$DIMSCALE
 40
1.0
  9
$DIMASZ
 40
3.0
  9
$DIMEXO
 40
0.5
  9
$DIMDLI
 40
21.2344
  9
$DIMEXE
 40
1.5
  9
$DIMCEN
 40
5.0292
  9
$DIMLFAC
 40
1.0
  9
$DIMBLK
  1
_FILLED
  9
$DIMALT
 70
0
  9
$DIMALTF
 40
0.0393700787
  9
$DIMTXT
 40
3.0
  9
$DIMTOL
 70
1
  9
$DIMLIM
 70
0
  9
$DIMTFAC
 40
1.0
  9
$DIMTP
 40
0.01
  9
$DIMTM
 40
0.01
  9
$DIMGAP
 40
0.625
  9
$DIMDSEP
 70
44
  9
$AUNITS
 70
0
  9
$PDMODE
 70
3
  9
$PDSIZE
 40
3.0
  9
$HANDSEED
  5
34C
  9
$TILEMODE
 70
1
  9
$MEASUREMENT
 70
1
  9
$INSUNITS
 70
4
  0
ENDSEC
  0
SECTION
  2
CLASSES
  0
CLASS
  1
ACDBDICTIONARYWDFLT
  2
AcDbDictionaryWithDefault
  3
AutoCAD 2000
 90
0
 91
1
280
0
281
0
  0
CLASS
  1
ACDBPLACEHOLDER
  2
AcDbPlaceHolder
  3
AutoCAD 2000
 90
0
 91
1
280
0
281
0
  0
CLASS
  1
LAYOUT
  2
AcDbLayout
  3
AutoCAD 2000
 90
0
 91
0
280
0
281
0
  0
ENDSEC
  0
SECTION
  2
TABLES
  0
TABLE
  2
VPORT
  5
8
100
AcDbSymbolTable
 70
2
  0
VPORT
  5
1F4
100
AcDbSymbolTableRecord
100
AcDbViewportTableRecord
  2
*ACTIVE
 70
0
 10
0.0
 20
0.0
 11
1.0
 21
1.0
 12
279.4
 22
215.9
 13
0.0
 23
0.0
 14
1.0
 24
1.0
 15
0.0
 25
0.0
 16
0.0
 26
0.0
 36
1.0
 17
0.0
 27
0.0
 37
0.0
 40
431.8
 41
1.2941176471
 42
50.0
 43
0.0
 44
0.0
 50
0.0
 51
0.0
 71
0
 72
100
 73
1
 74
1
 75
0
 76
0
 77
0
 78
0
  0
ENDTAB
  0
TABLE
  2
LTYPE
  5
5
100
AcDbSymbolTable
 70
6
  0
LTYPE
  5
14
100
AcDbSymbolTableRecord
100
AcDbLinetypeTableRecord
  2
BYBLOCK
 70
0
  3

 72
65
 73
0
 40
0.0
  0
LTYPE
  5
15
100
AcDbSymbolTableRecord
100
AcDbLinetypeTableRecord
  2
BYLAYER
 70
0
  3

 72
65
 73
0
 40
0.0
  0
LTYPE
  5
16
100
AcDbSymbolTableRecord
100
AcDbLinetypeTableRecord
  2
CONTINUOUS
 70
64
  3
Solid line
 72
65
 73
0
 40
0.0
  0
LTYPE
  5
1F5
100
AcDbSymbolTableRecord
100
AcDbLinetypeTableRecord
  2
CENTER
 70
64
  3
____ _ ____ _ ____ _ ____ _ ____ _ ____ _ ____
 72
65
 73
4
 40
0.6
 49
0.375
 74
0
 49
-0.075
 74
0
 49
0.075
 74
0
 49
-0.075
 74
0
  0
LTYPE
  5
1F6
100
AcDbSymbolTableRecord
100
AcDbLinetypeTableRecord
  2
HIDDEN
 70
64
  3
- - - - - - - - - - - - - - - - - - - -
 72
65
 73
2
 40
0.2
 49
0.1
 74
0
 49
-0.1
 74
0
  0
LTYPE
  5
1F7
100
AcDbSymbolTableRecord
100
AcDbLinetypeTableRecord
  2
PHANTOM
 70
64
  3
_____ _ _ _____ _ _ _____ _ _ _____
 72
65
 73
6
 40
0.8
 49
0.45
 74
0
 49
-0.05
 74
0
 49
0.1
 74
0
 49
-0.05
 74
0
 49
0.1
 74
0
 49
-0.05
 74
0
  0
LTYPE
  5
1F8
100
AcDbSymbolTableRecord
100
AcDbLinetypeTableRecord
  2
DOT
 70
64
  3
. . . . . . . . . . . . . . . . . . . .
 72
65
 73
2
 40
0.2
 49
0.1
 74
0
 49
-0.1
 74
0
  0
LTYPE
  5
1F9
100
AcDbSymbolTableRecord
100
AcDbLinetypeTableRecord
  2
DASHED
 70
64
  3
- - - - - - - - - - - - - - - - - - - -
 72
65
 73
2
 40
0.2
 49
0.1
 74
0
 49
-0.1
 74
0
  0
ENDTAB
  0
TABLE
  2
LAYER
  5
2
100
AcDbSymbolTable
 70
36
  0
LAYER
  5
10
100
AcDbSymbolTableRecord
100
AcDbLayerTableRecord
  2
0
 70
0
 62
7
  6
CONTINUOUS
370
-3
390
F
  0
LAYER
  5
1FA
100
AcDbSymbolTableRecord
100
AcDbLayerTableRecord
  2
DEFAULT_1
 70
0
 62
7
  6
CENTER
370
-3
390
F
  0
LAYER
  5
1FB
100
AcDbSymbolTableRecord
100
AcDbLayerTableRecord
  2
DEFAULT_2
 70
0
 62
7
  6
HIDDEN
370
-3
390
F
  0
LAYER
  5
1FC
100
AcDbSymbolTableRecord
100
AcDbLayerTableRecord
  2
DEFAULT_3
 70
0
 62
7
  6
PHANTOM
370
-3
390
F
  0
LAYER
  5
1FD
100
AcDbSymbolTableRecord
100
AcDbLayerTableRecord
  2
ASSI
 70
0
 62
7
  6
CONTINUOUS
370
-3
390
F
  0
LAYER
  5
1FE
100
AcDbSymbolTableRecord
100
AcDbLayerTableRecord
  2
COORDINATE
 70
0
 62
7
  6
CONTINUOUS
370
-3
390
F
  0
LAYER
  5
1FF
100
AcDbSymbolTableRecord
100
AcDbLayerTableRecord
  2
COPY_PUBLISH
 70
0
 62
7
  6
CONTINUOUS
370
-3
390
F
  0
LAYER
  5
200
100
AcDbSymbolTableRecord
100
AcDbLayerTableRecord
  2
COSMETIC
 70
0
 62
7
  6
CONTINUOUS
370
-3
390
F
  0
LAYER
  5
201
100
AcDbSymbolTableRecord
100
AcDbLayerTableRecord
  2
COSMETICI
 70
0
 62
7
  6
CONTINUOUS
370
-3
390
F
  0
LAYER
  5
202
100
AcDbSymbolTableRecord
100
AcDbLayerTableRecord
  2
CURVE
 70
0
 62
7
  6
CONTINUOUS
370
-3
390
F
  0
LAYER
  5
203
100
AcDbSymbolTableRecord
100
AcDbLayerTableRecord
  2
DRAFT
 70
0
 62
7
  6
CONTINUOUS
370
-3
390
F
  0
LAYER
  5
204
100
AcDbSymbolTableRecord
100
AcDbLayerTableRecord
  2
IMPORT_IGES
 70
0
 62
7
  6
CONTINUOUS
370
-3
390
F
  0
LAYER
  5
205
100
AcDbSymbolTableRecord
100
AcDbLayerTableRecord
  2
INTFCLR_1
 70
0
 62
7
  6
CONTINUOUS
370
-3
390
F
  0
LAYER
  5
206
100
AcDbSymbolTableRecord
100
AcDbLayerTableRecord
  2
INTF_1
 70
0
 62
7
  6
CONTINUOUS
370
-3
390
F
  0
LAYER
  5
207
100
AcDbSymbolTableRecord
100
AcDbLayerTableRecord
  2
INTF_7
 70
0
 62
7
  6
CONTINUOUS
370
-3
390
F
  0
LAYER
  5
208
100
AcDbSymbolTableRecord
100
AcDbLayerTableRecord
  2
INTF_CYAN
 70
0
 62
7
  6
CONTINUOUS
370
-3
390
F
  0
LAYER
  5
209
100
AcDbSymbolTableRecord
100
AcDbLayerTableRecord
  2
NOTE
 70
0
 62
7
  6
CONTINUOUS
370
-3
390
F
  0
LAYER
  5
20A
100
AcDbSymbolTableRecord
100
AcDbLayerTableRecord
  2
PIANI
 70
0
 62
7
  6
CONTINUOUS
370
-3
390
F
  0
LAYER
  5
20B
100
AcDbSymbolTableRecord
100
AcDbLayerTableRecord
  2
PUNTI
 70
0
 62
7
  6
CONTINUOUS
370
-3
390
F
  0
LAYER
  5
20C
100
AcDbSymbolTableRecord
100
AcDbLayerTableRecord
  2
RACCORDO
 70
0
 62
7
  6
CONTINUOUS
370
-3
390
F
  0
LAYER
  5
20D
100
AcDbSymbolTableRecord
100
AcDbLayerTableRecord
  2
RGB__255__255__255__
 70
0
 62
7
  6
CONTINUOUS
370
-3
390
F
  0
LAYER
  5
20E
100
AcDbSymbolTableRecord
100
AcDbLayerTableRecord
  2
RGB____0____0____0__
 70
0
 62
7
  6
CONTINUOUS
370
-3
390
F
  0
LAYER
  5
20F
100
AcDbSymbolTableRecord
100
AcDbLayerTableRecord
  2
SIMBOLI
 70
0
 62
7
  6
CONTINUOUS
370
-3
390
F
  0
LAYER
  5
210
100
AcDbSymbolTableRecord
100
AcDbLayerTableRecord
  2
SNAPLINE
 70
0
 62
7
  6
CONTINUOUS
370
-3
390
F
  0
LAYER
  5
211
100
AcDbSymbolTableRecord
100
AcDbLayerTableRecord
  2
SUPERFICI
 70
0
 62
7
  6
CONTINUOUS
370
-3
390
F
  0
LAYER
  5
212
100
AcDbSymbolTableRecord
100
AcDbLayerTableRecord
  2
TRASH
 70
0
 62
7
  6
CONTINUOUS
370
-3
390
F
  0
ENDTAB
  0
TABLE
  2
STYLE
  5
3
100
AcDbSymbolTable
 70
1
  0
STYLE
  5
11
100
AcDbSymbolTableRecord
100
AcDbTextStyleTableRecord
  2
STANDARD
 70
0
 40
0.0
 41
0.8
 50
0.0
 71
0
 42
0.2
  3
txt
  4

  0
STYLE
  5
213
100
AcDbSymbolTableRecord
100
AcDbTextStyleTableRecord
  2
TEXTSTYLE_1
 70
0
 40
0.0
 41
0.8
 50
0.0
 71
0
 42
0.2
  3
gdt
  4

  0
ENDTAB
  0
TABLE
  2
VIEW
  5
6
100
AcDbSymbolTable
 70
0
  0
ENDTAB
  0
TABLE
  2
UCS
  5
7
100
AcDbSymbolTable
 70
0
  0
ENDTAB
  0
TABLE
  2
APPID
  5
9
100
AcDbSymbolTable
 70
1
  0
APPID
  5
214
100
AcDbSymbolTableRecord
100
AcDbRegAppTableRecord
  2
ACAD
 70
0
  0
ENDTAB
  0
TABLE
  2
BLOCK_RECORD
  5
1
100
AcDbSymbolTable
 70
0
  0
BLOCK_RECORD
  5
215
100
AcDbSymbolTableRecord
100
AcDbBlockTableRecord
  2
*Model_Space
  0
BLOCK_RECORD
  5
216
100
AcDbSymbolTableRecord
100
AcDbBlockTableRecord
  2
*Paper_Space
  0
BLOCK_RECORD
  5
217
100
AcDbSymbolTableRecord
100
AcDbBlockTableRecord
  2
_FILLED
  0
BLOCK_RECORD
  5
218
100
AcDbSymbolTableRecord
100
AcDbBlockTableRecord
  2
*D0
  0
BLOCK_RECORD
  5
219
100
AcDbSymbolTableRecord
100
AcDbBlockTableRecord
  2
*D1
  0
BLOCK_RECORD
  5
21A
100
AcDbSymbolTableRecord
100
AcDbBlockTableRecord
  2
*D2
  0
ENDTAB
  0
TABLE
  2
DIMSTYLE
  5
A
100
AcDbSymbolTable
 70
1
100
AcDbDimStyleTable
 71
0
  0
DIMSTYLE
105
21B
100
AcDbSymbolTableRecord
100
AcDbDimStyleTableRecord
  2
STANDARD
 70
0
  3

  4

 40
1.0
 41
3.0
 42
0.5
 43
0.38
 44
1.5
 45
0.0
 46
0.0
 47
0.01
 48
0.01
140
3.0
141
0.09
142
0.0
143
25.4
144
1.0
145
0.0
146
1.0
147
0.625
 71
1.0
 72
0.0
 73
0
 74
0
 75
0
 76
0
 77
1
 78
8
 79
2
170
0
171
1
172
0
173
0
174
0
175
0
176
0
177
0
178
0
270
2
179
2
271
2
272
2
273
2
274
2
275
0
280
0
281
0
282
0
283
1
284
8
285
0
286
0
287
3
288
0
340
11
278
44
341
217
342
217
343
217
344
217
  0
DIMSTYLE
105
21C
100
AcDbSymbolTableRecord
100
AcDbDimStyleTableRecord
  2
DIMSTYLE_1
 70
0
  3

  4

 40
1.0
 41
3.0
 42
0.5
 43
0.38
 44
1.5
 45
0.0
 46
0.0
 47
0.0
 48
0.0
140
3.0
141
0.09
142
0.0
143
25.4
144
1.0
145
0.0
146
1.0
147
0.75
 71
0.0
 72
0.0
 73
0
 74
0
 75
0
 76
0
 77
1
 78
8
 79
2
170
0
171
1
172
0
173
0
174
0
175
0
176
0
177
0
178
0
270
2
179
2
271
2
272
2
273
2
274
2
275
0
280
0
281
0
282
0
283
1
284
8
285
0
286
0
287
3
288
0
340
11
278
44
341
217
342
217
343
217
344
217
  0
ENDTAB
  0
ENDSEC
  0
SECTION
  2
BLOCKS
  0
BLOCK
  5
20
100
AcDbEntity
  8
0
100
AcDbBlockBegin
  2
*Model_Space
 70
0
 10
0.0
 20
0.0
 30
0.0
  3
*Model_Space
  1

  0
ENDBLK
  5
21
100
AcDbEntity
  8
0
100
AcDbBlockEnd
  0
BLOCK
  5
1C
100
AcDbEntity
  8
0
100
AcDbBlockBegin
  2
*Paper_Space
 70
0
 10
0.0
 20
0.0
 30
0.0
  3
*Paper_Space
  1

  0
ENDBLK
  5
1D
100
AcDbEntity
  8
0
100
AcDbBlockEnd
  0
BLOCK
  5
21D
100
AcDbEntity
  8
0
100
AcDbBlockBegin
  2
_FILLED
 70
64
 10
0.0
 20
0.0
  3
_FILLED
  1

  0
SOLID
  5
21E
100
AcDbEntity
  8
0
  6
BYBLOCK
 62
0
100
AcDbTrace
 10
0.0
 20
0.0
 11
-1.0
 21
0.3166666667
 12
-1.0
 22
-0.3166666667
 13
-1.0
 23
-0.3166666667
  0
ENDBLK
  5
21F
100
AcDbEntity
  8
0
  6
BYBLOCK
 62
0
100
AcDbBlockEnd
  0
BLOCK
  5
220
100
AcDbEntity
  8
0
100
AcDbBlockBegin
 62
7
  6
CONTINUOUS
  2
*D0
 70
65
 10
0.0
 20
0.0
  3
*D0
  1

  0
LINE
  5
221
100
AcDbEntity
  8
0
100
AcDbLine
 62
7
  6
CONTINUOUS
 10
-38.6449981138
 20
37.5
 11
-38.6449981138
 21
49.5
  0
LINE
  5
222
100
AcDbEntity
  8
0
100
AcDbLine
 62
7
  6
CONTINUOUS
 10
-47.6443872054
 20
22.7508937204
 11
-47.6443872054
 21
49.5
  0
LINE
  5
223
100
AcDbEntity
  8
0
100
AcDbLine
 62
7
  6
CONTINUOUS
 10
-38.6449981138
 20
48.0
 11
-34.6449981138
 21
48.0
  0
LINE
  5
224
100
AcDbEntity
  8
0
100
AcDbLine
 62
7
  6
CONTINUOUS
 10
-34.6449981138
 20
48.0
 11
-43.1446926596
 21
48.0
  0
LINE
  5
225
100
AcDbEntity
  8
0
100
AcDbLine
 62
7
  6
CONTINUOUS
 10
-47.6443872054
 20
48.0
 11
-52.8030359705
 21
48.0
  0
LINE
  5
226
100
AcDbEntity
  8
0
100
AcDbLine
 62
7
  6
CONTINUOUS
 10
-52.8030359705
 20
48.0
 11
-43.1446926596
 21
48.0
  0
INSERT
  5
227
100
AcDbEntity
  8
0
100
AcDbBlockReference
 62
7
  6
CONTINUOUS
  2
_FILLED
 10
-38.6449981138
 20
48.0
 41
3.0
 42
3.0
 43
3.0
 50
180.0
  0
INSERT
  5
228
100
AcDbEntity
  8
0
100
AcDbBlockReference
 62
7
  6
CONTINUOUS
  2
_FILLED
 10
-47.6443872054
 20
48.0
 41
3.0
 42
3.0
 43
3.0
  0
ENDBLK
  5
229
100
AcDbEntity
  8
0
  6
BYBLOCK
 62
0
100
AcDbBlockEnd
  0
BLOCK
  5
22A
100
AcDbEntity
  8
0
100
AcDbBlockBegin
 62
7
  6
CONTINUOUS
  2
*D1
 70
65
 10
0.0
 20
0.0
  3
*D1
  1

  0
LINE
  5
22B
100
AcDbEntity
  8
0
100
AcDbLine
 62
7
  6
CONTINUOUS
 10
-20.0
 20
37.5
 11
-20.0
 21
49.5
  0
LINE
  5
22C
100
AcDbEntity
  8
0
100
AcDbLine
 62
7
  6
CONTINUOUS
 10
20.0
 20
37.5
 11
20.0
 21
49.5
  0
LINE
  5
22D
100
AcDbEntity
  8
0
100
AcDbLine
 62
7
  6
CONTINUOUS
 10
-20.0
 20
48.0
 11
-0.0
 21
48.0
  0
LINE
  5
22E
100
AcDbEntity
  8
0
100
AcDbLine
 62
7
  6
CONTINUOUS
 10
20.0
 20
48.0
 11
-0.0
 21
48.0
  0
INSERT
  5
22F
100
AcDbEntity
  8
0
100
AcDbBlockReference
 62
7
  6
CONTINUOUS
  2
_FILLED
 10
-20.0
 20
48.0
 41
3.0
 42
3.0
 43
3.0
 50
180.0
  0
INSERT
  5
230
100
AcDbEntity
  8
0
100
AcDbBlockReference
 62
7
  6
CONTINUOUS
  2
_FILLED
 10
20.0
 20
48.0
 41
3.0
 42
3.0
 43
3.0
 50
0.0
  0
ENDBLK
  5
231
100
AcDbEntity
  8
0
  6
BYBLOCK
 62
0
100
AcDbBlockEnd
  0
BLOCK
  5
232
100
AcDbEntity
  8
0
100
AcDbBlockBegin
 62
7
  6
CONTINUOUS
  2
*D2
 70
65
 10
0.0
 20
0.0
  3
*D2
  1

  0
LINE
  5
233
100
AcDbEntity
  8
0
100
AcDbLine
 62
7
  6
CONTINUOUS
 10
17.5
 20
40.0
 11
29.5
 21
40.0
  0
LINE
  5
234
100
AcDbEntity
  8
0
100
AcDbLine
 62
7
  6
CONTINUOUS
 10
17.5
 20
-40.0
 11
29.5
 21
-40.0
  0
LINE
  5
235
100
AcDbEntity
  8
0
100
AcDbLine
 62
7
  6
CONTINUOUS
 10
28.0
 20
40.0
 11
28.0
 21
0.0
  0
LINE
  5
236
100
AcDbEntity
  8
0
100
AcDbLine
 62
7
  6
CONTINUOUS
 10
28.0
 20
-40.0
 11
28.0
 21
0.0
  0
INSERT
  5
237
100
AcDbEntity
  8
0
100
AcDbBlockReference
 62
7
  6
CONTINUOUS
  2
_FILLED
 10
28.0
 20
40.0
 41
3.0
 42
3.0
 43
3.0
 50
90.0
  0
INSERT
  5
238
100
AcDbEntity
  8
0
100
AcDbBlockReference
 62
7
  6
CONTINUOUS
  2
_FILLED
 10
28.0
 20
-40.0
 41
3.0
 42
3.0
 43
3.0
 50
270.0
  0
ENDBLK
  5
239
100
AcDbEntity
  8
0
  6
BYBLOCK
 62
0
100
AcDbBlockEnd
  0
ENDSEC
  0
SECTION
  2
ENTITIES
  0
DIMENSION
  5
23A
100
AcDbEntity
  8
0
100
AcDbDimension
 62
7
  6
CONTINUOUS
  2
*D0
 10
-47.6443872054
 20
48.0
 11
-52.8030359705
 21
48.0
 70
160
 71
3
 72
2
 41
0.9
 42
8.9993890916
  3
DIMSTYLE_1
100
AcDbAlignedDimension
 13
-38.6449981138
 23
37.0
 14
-47.6443872054
 24
22.2508937204
 50
180.0
100
AcDbRotatedDimension
  0
DIMENSION
  5
23B
100
AcDbEntity
  8
0
100
AcDbDimension
 62
7
  6
CONTINUOUS
  2
*D1
 10
20.0
 20
48.0
 11
-2.3571428571
 21
48.0
 70
160
 71
2
 72
2
 41
0.9
 42
40.0
  3
DIMSTYLE_1
100
AcDbAlignedDimension
 13
-20.0
 23
37.0
 14
20.0
 24
37.0
100
AcDbRotatedDimension
  0
DIMENSION
  5
23C
100
AcDbEntity
  8
0
100
AcDbDimension
 62
7
  6
CONTINUOUS
  2
*D2
 10
28.0
 20
-40.0
 11
28.0
 21
-2.3571428571
 70
160
 71
2
 72
2
 41
0.9
 42
80.0
  3
DIMSTYLE_1
100
AcDbAlignedDimension
 13
17.0
 23
40.0
 14
17.0
 24
-40.0
 50
270.0
100
AcDbRotatedDimension
  0
LINE
  5
23D
100
AcDbEntity
  8
RACCORDO
100
AcDbLine
 62
7
  6
CONTINUOUS
 10
-17.0
 20
-40.0
 11
-4.2017932267
 21
-40.0
  0
LINE
  5
23E
100
AcDbEntity
  8
RACCORDO
100
AcDbLine
 62
7
  6
CONTINUOUS
 10
4.2017932267
 20
-40.0
 11
17.0
 21
-40.0
  0
LINE
  5
23F
100
AcDbEntity
  8
RACCORDO
100
AcDbLine
 62
7
  6
CONTINUOUS
 10
-3.0615117685
 20
-39.8951844414
 11
3.0615117685
 21
-39.8951844414
  0
LINE
  5
240
100
AcDbEntity
  8
RACCORDO
100
AcDbLine
 62
250
  6
CONTINUOUS
 10
-5.7499999041
 20
-39.760787523
 11
5.7499999041
 21
-39.760787523
  0
LINE
  5
241
100
AcDbEntity
  8
RACCORDO
100
AcDbLine
 62
250
  6
CONTINUOUS
 10
-5.75
 20
-39.0918563709
 11
5.75
 21
-39.0918563709
  0
LINE
  5
242
100
AcDbEntity
  8
RACCORDO
100
AcDbLine
 62
7
  6
CONTINUOUS
 10
3.5572341992
 20
39.9179680371
 11
3.706070796
 21
39.9772164043
  0
LINE
  5
243
100
AcDbEntity
  8
RACCORDO
100
AcDbLine
 62
250
  6
CONTINUOUS
 10
-20.0
 20
-37.0
 11
-19.7632489045
 21
-36.999903812
  0
LINE
  5
244
100
AcDbEntity
  8
RACCORDO
100
AcDbLine
 62
250
  6
CONTINUOUS
 10
20.0
 20
-37.0
 11
19.7632489045
 21
-36.9999037469
  0
LINE
  5
245
100
AcDbEntity
  8
RACCORDO
100
AcDbLine
 62
7
  6
CONTINUOUS
 10
3.5572341992
 20
-39.9179680371
 11
3.706070796
 21
-39.9772164043
  0
LINE
  5
246
100
AcDbEntity
  8
RACCORDO
100
AcDbLine
 62
250
  6
CONTINUOUS
 10
-5.75
 20
-25.9067504624
 11
5.75
 21
-25.9067504624
  0
LINE
  5
247
100
AcDbEntity
  8
RACCORDO
100
AcDbLine
 62
250
  6
CONTINUOUS
 10
-5.75
 20
-24.2585141874
 11
5.750090281
 21
-24.2585141867
  0
LINE
  5
248
100
AcDbEntity
  8
0
100
AcDbLine
 62
7
  6
CONTINUOUS
 10
-5.75
 20
-22.6784171143
 11
5.75
 21
-22.6784171143
  0
LINE
  5
249
100
AcDbEntity
  8
DRAFT
100
AcDbLine
 62
7
  6
CONTINUOUS
 10
-5.75
 20
-22.6502147778
 11
5.75
 21
-22.6502147778
  0
LINE
  5
24A
100
AcDbEntity
  8
0
100
AcDbLine
 62
7
  6
CONTINUOUS
 10
-10.95
 20
-22.55
 11
10.95
 21
-22.55
  0
LINE
  5
24B
100
AcDbEntity
  8
0
100
AcDbLine
 62
250
  6
CONTINUOUS
 10
-11.25
 20
-22.25
 11
-11.3501882459
 21
-22.25
  0
LINE
  5
24C
100
AcDbEntity
  8
0
100
AcDbLine
 62
250
  6
CONTINUOUS
 10
11.25
 20
-22.25
 11
11.3501882459
 21
-22.25
  0
LINE
  5
24D
100
AcDbEntity
  8
SUPERFICI
100
AcDbLine
 62
7
  6
CONTINUOUS
 10
-20.0
 20
37.0
 11
-20.0
 21
-37.0
  0
LINE
  5
24E
100
AcDbEntity
  8
RACCORDO
100
AcDbLine
 62
250
  6
CONTINUOUS
 10
-19.7494971171
 20
11.7500002799
 11
-19.7494971171
 21
-11.7500002799
  0
LINE
  5
24F
100
AcDbEntity
  8
RACCORDO
100
AcDbLine
 62
250
  6
CONTINUOUS
 10
-19.3589126687
 20
11.75
 11
-19.3589126687
 21
-11.75
  0
LINE
  5
250
100
AcDbEntity
  8
RACCORDO
100
AcDbLine
 62
250
  6
CONTINUOUS
 10
-17.0
 20
40.0
 11
-17.0
 21
39.7658898658
  0
LINE
  5
251
100
AcDbEntity
  8
RACCORDO
100
AcDbLine
 62
250
  6
CONTINUOUS
 10
-17.0
 20
-40.0
 11
-16.9998661072
 21
-39.7659040657
  0
LINE
  5
252
100
AcDbEntity
  8
RACCORDO
100
AcDbLine
 62
250
  6
CONTINUOUS
 10
-14.4879027025
 20
11.75
 11
-14.4879027025
 21
-11.75
  0
LINE
  5
253
100
AcDbEntity
  8
RACCORDO
100
AcDbLine
 62
250
  6
CONTINUOUS
 10
-13.0601262025
 20
11.75
 11
-13.0601261777
 21
-11.7505695349
  0
LINE
  5
254
100
AcDbEntity
  8
0
100
AcDbLine
 62
250
  6
CONTINUOUS
 10
11.3783700311
 20
-11.75
 11
11.3502094606
 21
-11.75
  0
LINE
  5
255
100
AcDbEntity
  8
0
100
AcDbLine
 62
250
  6
CONTINUOUS
 10
-11.3502094606
 20
-11.75
 11
-11.3783700311
 21
-11.75
  0
LINE
  5
256
100
AcDbEntity
  8
RACCORDO
100
AcDbLine
 62
250
  6
CONTINUOUS
 10
11.3783700311
 20
-11.75
 11
19.7494971171
 21
-11.7500002799
  0
LINE
  5
257
100
AcDbEntity
  8
RACCORDO
100
AcDbLine
 62
250
  6
CONTINUOUS
 10
-19.7494971171
 20
-11.7500002799
 11
-11.3783700311
 21
-11.7500009437
  0
LINE
  5
258
100
AcDbEntity
  8
0
100
AcDbLine
 62
7
  6
CONTINUOUS
 10
-11.3783700311
 20
-11.75
 11
-11.3783700311
 21
11.75
  0
LINE
  5
259
100
AcDbEntity
  8
DRAFT
100
AcDbLine
 62
7
  6
CONTINUOUS
 10
-11.3502094391
 20
-11.75
 11
-11.3502094391
 21
11.75
  0
LINE
  5
25A
100
AcDbEntity
  8
0
100
AcDbLine
 62
7
  6
CONTINUOUS
 10
-11.25
 20
22.25
 11
-11.25
 21
-22.25
  0
LINE
  5
25B
100
AcDbEntity
  8
0
100
AcDbLine
 62
250
  6
CONTINUOUS
 10
-10.95
 20
-22.55
 11
-10.95
 21
-22.6502163545
  0
LINE
  5
25C
100
AcDbEntity
  8
0
100
AcDbLine
 62
250
  6
CONTINUOUS
 10
-10.95
 20
22.55
 11
-10.95
 21
22.6502163519
  0
LINE
  5
25D
100
AcDbEntity
  8
RACCORDO
100
AcDbLine
 62
250
  6
CONTINUOUS
 10
-10.9500895042
 20
24.2635729498
 11
-10.9500001426
 21
22.6784231568
  0
LINE
  5
25E
100
AcDbEntity
  8
0
100
AcDbLine
 62
250
  6
CONTINUOUS
 10
-5.75
 20
-22.6502147796
 11
-5.75
 21
-22.6784171143
  0
LINE
  5
25F
100
AcDbEntity
  8
0
100
AcDbLine
 62
250
  6
CONTINUOUS
 10
-5.75
 20
22.6502147796
 11
-5.75
 21
22.6784171143
  0
LINE
  5
260
100
AcDbEntity
  8
RACCORDO
100
AcDbLine
 62
250
  6
CONTINUOUS
 10
-5.7499999041
 20
-39.760787523
 11
-5.75
 21
-22.6784171143
  0
LINE
  5
261
100
AcDbEntity
  8
RACCORDO
100
AcDbLine
 62
250
  6
CONTINUOUS
 10
-5.7499999041
 20
39.760787523
 11
-5.7500001498
 21
22.6784171143
  0
LWPOLYLINE
  5
262
100
AcDbEntity
  8
0
100
AcDbPolyline
 62
7
  6
CONTINUOUS
 90
2
 70
0
 43
0.3500000087
 10
-1.3571428883
 20
48.7499987732
 10
-1.3571428883
 20
50.250000238
  0
LWPOLYLINE
  5
263
100
AcDbEntity
  8
0
100
AcDbPolyline
 62
7
  6
CONTINUOUS
 90
13
 70
0
 43
0.3500000087
 10
-0.0
 20
49.6071449036
 10
-0.0
 20
50.8928555725
 10
0.2142857166
 20
51.3214286377
 10
0.6428571331
 20
51.7500017029
 10
0.8571428663
 20
51.7500017029
 10
1.2857142661
 20
51.3214286377
 10
1.4999999993
 20
50.8928555725
 10
1.4999999993
 20
49.6071449036
 10
1.2857142661
 20
49.1785718384
 10
0.8571428663
 20
48.7499987732
 10
0.6428571331
 20
48.7499987732
 10
0.2142857166
 20
49.1785718384
 10
-0.0
 20
49.6071449036
  0
LWPOLYLINE
  5
264
100
AcDbEntity
  8
0
100
AcDbPolyline
 62
7
  6
CONTINUOUS
 90
4
 70
0
 43
0.3500000087
 10
26.8214279663
 20
-2.3571431381
 10
25.9642860992
 20
-2.3571431381
 10
25.5357151657
 20
-1.9285722046
 10
25.5357151657
 20
-1.2857147385
  0
LWPOLYLINE
  5
265
100
AcDbEntity
  8
0
100
AcDbPolyline
 62
7
  6
CONTINUOUS
 90
13
 70
0
 43
0.3500000087
 10
26.3928570328
 20
0.0000001938
 10
25.1071421005
 20
0.0000001938
 10
24.678571167
 20
0.2142867264
 10
24.2500002335
 20
0.6428576599
 10
24.2500002335
 20
0.8571420609
 10
24.678571167
 20
1.285715126
 10
25.1071421005
 20
1.499999527
 10
26.3928570328
 20
1.499999527
 10
26.8214279663
 20
1.285715126
 10
27.2500010315
 20
0.8571420609
 10
27.2500010315
 20
0.6428576599
 10
26.8214279663
 20
0.2142867264
 10
26.3928570328
 20
0.0000001938
  0
LINE
  5
266
100
AcDbEntity
  8
0
100
AcDbLine
 62
250
  6
CONTINUOUS
 10
5.75
 20
-22.6502147796
 11
5.75
 21
-22.6784171143
  0
LINE
  5
267
100
AcDbEntity
  8
0
100
AcDbLine
 62
250
  6
CONTINUOUS
 10
5.75
 20
22.6502147796
 11
5.75
 21
22.6784171143
  0
LINE
  5
268
100
AcDbEntity
  8
RACCORDO
100
AcDbLine
 62
250
  6
CONTINUOUS
 10
5.75
 20
22.6784171143
 11
5.7499999041
 21
39.760787523
  0
LINE
  5
269
100
AcDbEntity
  8
RACCORDO
100
AcDbLine
 62
250
  6
CONTINUOUS
 10
5.7499999041
 20
-39.760787523
 11
5.7500001501
 21
-22.6784171143
  0
LINE
  5
26A
100
AcDbEntity
  8
RACCORDO
100
AcDbLine
 62
250
  6
CONTINUOUS
 10
10.9500896947
 20
-24.2635735382
 11
10.9500001429
 21
-22.6784231641
  0
LINE
  5
26B
100
AcDbEntity
  8
0
100
AcDbLine
 62
250
  6
CONTINUOUS
 10
10.95
 20
-22.55
 11
10.95
 21
-22.6502163545
  0
LINE
  5
26C
100
AcDbEntity
  8
0
100
AcDbLine
 62
250
  6
CONTINUOUS
 10
10.95
 20
22.55
 11
10.95
 21
22.6502163102
  0
LINE
  5
26D
100
AcDbEntity
  8
0
100
AcDbLine
 62
7
  6
CONTINUOUS
 10
11.25
 20
-22.25
 11
11.25
 21
22.25
  0
LINE
  5
26E
100
AcDbEntity
  8
DRAFT
100
AcDbLine
 62
7
  6
CONTINUOUS
 10
11.3502094391
 20
11.75
 11
11.3502094391
 21
-11.75
  0
LINE
  5
26F
100
AcDbEntity
  8
0
100
AcDbLine
 62
7
  6
CONTINUOUS
 10
11.3783700311
 20
11.75
 11
11.3783700311
 21
-11.75
  0
LINE
  5
270
100
AcDbEntity
  8
0
100
AcDbLine
 62
250
  6
CONTINUOUS
 10
-11.3783700311
 20
11.75
 11
-11.3502094606
 21
11.75
  0
LINE
  5
271
100
AcDbEntity
  8
0
100
AcDbLine
 62
250
  6
CONTINUOUS
 10
11.3502094606
 20
11.75
 11
11.3783700311
 21
11.75
  0
LINE
  5
272
100
AcDbEntity
  8
RACCORDO
100
AcDbLine
 62
250
  6
CONTINUOUS
 10
-19.7494971171
 20
11.7500002799
 11
-11.3783700311
 21
11.75
  0
LINE
  5
273
100
AcDbEntity
  8
RACCORDO
100
AcDbLine
 62
250
  6
CONTINUOUS
 10
19.7494971171
 20
11.7500002799
 11
11.3783700311
 21
11.7499999283
  0
LINE
  5
274
100
AcDbEntity
  8
RACCORDO
100
AcDbLine
 62
250
  6
CONTINUOUS
 10
13.0601262025
 20
-11.75
 11
13.0601261779
 21
11.7499999384
  0
LINE
  5
275
100
AcDbEntity
  8
RACCORDO
100
AcDbLine
 62
250
  6
CONTINUOUS
 10
14.4879027025
 20
-11.75
 11
14.4879027025
 21
11.75
  0
LINE
  5
276
100
AcDbEntity
  8
RACCORDO
100
AcDbLine
 62
250
  6
CONTINUOUS
 10
17.0
 20
-40.0
 11
16.9998659879
 21
-39.7659040657
  0
LINE
  5
277
100
AcDbEntity
  8
RACCORDO
100
AcDbLine
 62
250
  6
CONTINUOUS
 10
17.0
 20
40.0
 11
17.0
 21
39.7658908361
  0
LINE
  5
278
100
AcDbEntity
  8
RACCORDO
100
AcDbLine
 62
250
  6
CONTINUOUS
 10
19.3589126687
 20
-11.75
 11
19.3589126687
 21
11.75
  0
LINE
  5
279
100
AcDbEntity
  8
RACCORDO
100
AcDbLine
 62
250
  6
CONTINUOUS
 10
19.7494971171
 20
-11.7500002799
 11
19.7494971171
 21
11.7500002799
  0
LINE
  5
27A
100
AcDbEntity
  8
SUPERFICI
100
AcDbLine
 62
7
  6
CONTINUOUS
 10
20.0
 20
-37.0
 11
20.0
 21
37.0
  0
LWPOLYLINE
  5
27B
100
AcDbEntity
  8
0
100
AcDbPolyline
 62
7
  6
CONTINUOUS
 90
13
 70
0
 43
0.3500000087
 10
25.5357151657
 20
-1.9285722046
 10
25.3214286331
 20
-2.2142861603
 10
24.678571167
 20
-2.2142861603
 10
24.2500002335
 20
-1.9285722046
 10
24.2500002335
 20
-1.2857147385
 10
24.678571167
 20
-1.0000007828
 10
25.3214286331
 20
-1.0000007828
 10
25.5357151657
 20
-1.2857147385
 10
25.9642860992
 20
-0.8571438049
 10
26.8214279663
 20
-0.8571438049
 10
27.2500010315
 20
-1.2857147385
 10
27.2500010315
 20
-1.9285722046
 10
26.8214279663
 20
-2.3571431381
  0
LINE
  5
27C
100
AcDbEntity
  8
0
100
AcDbLine
 62
250
  6
CONTINUOUS
 10
-11.25
 20
22.25
 11
-11.3501881219
 21
22.25
  0
LINE
  5
27D
100
AcDbEntity
  8
0
100
AcDbLine
 62
250
  6
CONTINUOUS
 10
11.25
 20
22.25
 11
11.3501881239
 21
22.25
  0
LINE
  5
27E
100
AcDbEntity
  8
0
100
AcDbLine
 62
7
  6
CONTINUOUS
 10
10.95
 20
22.55
 11
-10.95
 21
22.55
  0
LINE
  5
27F
100
AcDbEntity
  8
DRAFT
100
AcDbLine
 62
7
  6
CONTINUOUS
 10
5.75
 20
22.6502147778
 11
-5.75
 21
22.6502147778
  0
LINE
  5
280
100
AcDbEntity
  8
0
100
AcDbLine
 62
7
  6
CONTINUOUS
 10
5.75
 20
22.6784171143
 11
-5.75
 21
22.6784171143
  0
LINE
  5
281
100
AcDbEntity
  8
RACCORDO
100
AcDbLine
 62
250
  6
CONTINUOUS
 10
5.75
 20
24.2585141874
 11
-5.7500900892
 21
24.2585141867
  0
LINE
  5
282
100
AcDbEntity
  8
RACCORDO
100
AcDbLine
 62
250
  6
CONTINUOUS
 10
5.75
 20
25.9067504624
 11
-5.75
 21
25.9067504624
  0
LINE
  5
283
100
AcDbEntity
  8
RACCORDO
100
AcDbLine
 62
7
  6
CONTINUOUS
 10
-3.706070796
 20
-39.9772164043
 11
-3.5572341992
 21
-39.9179680371
  0
LINE
  5
284
100
AcDbEntity
  8
RACCORDO
100
AcDbLine
 62
7
  6
CONTINUOUS
 10
-3.706070796
 20
39.9772164043
 11
-3.5572341992
 21
39.9179680371
  0
LINE
  5
285
100
AcDbEntity
  8
RACCORDO
100
AcDbLine
 62
250
  6
CONTINUOUS
 10
20.0
 20
37.0
 11
19.7632492379
 21
36.9998781305
  0
LINE
  5
286
100
AcDbEntity
  8
RACCORDO
100
AcDbLine
 62
250
  6
CONTINUOUS
 10
5.75
 20
39.0918563709
 11
-5.75
 21
39.0918563709
  0
LINE
  5
287
100
AcDbEntity
  8
RACCORDO
100
AcDbLine
 62
250
  6
CONTINUOUS
 10
-20.0
 20
37.0
 11
-19.7632493444
 21
36.9999044121
  0
LINE
  5
288
100
AcDbEntity
  8
RACCORDO
100
AcDbLine
 62
250
  6
CONTINUOUS
 10
5.7499999041
 20
39.760787523
 11
-5.7499999041
 21
39.760787523
  0
LINE
  5
289
100
AcDbEntity
  8
RACCORDO
100
AcDbLine
 62
7
  6
CONTINUOUS
 10
-3.0615117685
 20
39.8951844414
 11
3.0615117685
 21
39.8951844414
  0
LINE
  5
28A
100
AcDbEntity
  8
RACCORDO
100
AcDbLine
 62
7
  6
CONTINUOUS
 10
17.0
 20
40.0
 11
4.2017932267
 21
40.0
  0
LINE
  5
28B
100
AcDbEntity
  8
RACCORDO
100
AcDbLine
 62
7
  6
CONTINUOUS
 10
-4.2017932267
 20
40.0
 11
-17.0
 21
40.0
  0
LWPOLYLINE
  5
28C
100
AcDbEntity
  8
0
100
AcDbPolyline
 62
7
  6
CONTINUOUS
 90
3
 70
0
 43
0.3500000087
 10
-0.8571428663
 20
49.392858371
 10
-2.357142799
 20
49.392858371
 10
-1.7142857326
 20
51.7500017029
  0
LWPOLYLINE
  5
28D
100
AcDbEntity
  8
0
100
AcDbPolyline
 62
7
  6
CONTINUOUS
 90
10
 70
0
 43
0.3500000087
 10
-52.3744628113
 20
48.7499987732
 10
-51.5173209442
 20
49.6071449036
 10
-51.3030344116
 20
50.4642867706
 10
-51.3030344116
 20
51.3214286377
 10
-51.7316074768
 20
51.7500017029
 10
-52.3744628113
 20
51.7500017029
 10
-52.8030358765
 20
51.3214286377
 10
-52.8030358765
 20
50.4642867706
 10
-52.3744628113
 20
50.0357137054
 10
-51.4458935211
 20
50.0357137054
  0
LINE
  5
28E
100
AcDbEntity
  8
RACCORDO
100
AcDbLine
 62
7
  6
CONTINUOUS
 10
-38.6449981138
 20
-40.0
 11
-43.2094452368
 21
-39.7607874626
  0
LWPOLYLINE
  5
28F
100
AcDbEntity
  8
RACCORDO
100
AcDbPolyline
 62
7
  6
CONTINUOUS
 90
3
 70
0
 10
-43.3579560637
 20
-39.7417807077
 10
-43.2833178261
 20
-39.7541617117
 10
-43.2094458373
 20
-39.7607874312
  0
LINE
  5
290
100
AcDbEntity
  8
RACCORDO
100
AcDbLine
 62
7
  6
CONTINUOUS
 10
-43.4108249168
 20
-39.7294369357
 11
-43.3579560637
 21
-39.7417807077
  0
LINE
  5
291
100
AcDbEntity
  8
RACCORDO
100
AcDbLine
 62
250
  6
CONTINUOUS
 10
-38.6449981138
 20
-37.0
 11
-43.1624781289
 21
-36.9999037469
  0
LINE
  5
292
100
AcDbEntity
  8
RACCORDO
100
AcDbLine
 62
7
  6
CONTINUOUS
 10
-47.4283190068
 20
24.2632806698
 11
-47.4283680153
 21
24.2632188194
  0
LINE
  5
293
100
AcDbEntity
  8
RACCORDO
100
AcDbLine
 62
7
  6
CONTINUOUS
 10
-47.1887611561
 20
24.6199812045
 11
-47.2639771741
 21
24.4956115578
  0
LINE
  5
294
100
AcDbEntity
  8
RACCORDO
100
AcDbLine
 62
7
  6
CONTINUOUS
 10
-47.2639771741
 20
24.4956115578
 11
-47.3483186686
 21
24.3705390384
  0
LINE
  5
295
100
AcDbEntity
  8
RACCORDO
100
AcDbLine
 62
7
  6
CONTINUOUS
 10
-47.3483186686
 20
24.3705390384
 11
-47.4284628462
 21
24.2632896836
  0
LINE
  5
296
100
AcDbEntity
  8
RACCORDO
100
AcDbLine
 62
7
  6
CONTINUOUS
 10
-47.3882027966
 20
24.3153231164
 11
-47.3968881745
 21
24.303858169
  0
LINE
  5
297
100
AcDbEntity
  8
RACCORDO
100
AcDbLine
 62
7
  6
CONTINUOUS
 10
-47.3968881745
 20
24.303858169
 11
-47.4079062034
 21
24.2894791263
  0
LINE
  5
298
100
AcDbEntity
  8
RACCORDO
100
AcDbLine
 62
7
  6
CONTINUOUS
 10
-47.4079062034
 20
24.2894791263
 11
-47.4190113074
 21
24.2751683701
  0
LINE
  5
299
100
AcDbEntity
  8
RACCORDO
100
AcDbLine
 62
7
  6
CONTINUOUS
 10
-47.4297421499
 20
24.2615096748
 11
-47.4296959966
 21
24.2615688383
  0
LINE
  5
29A
100
AcDbEntity
  8
RACCORDO
100
AcDbLine
 62
7
  6
CONTINUOUS
 10
-47.4190113074
 20
24.2751683701
 11
-47.4296959903
 21
24.2615688468
  0
LINE
  5
29B
100
AcDbEntity
  8
RACCORDO
100
AcDbLine
 62
7
  6
CONTINUOUS
 10
-47.4297161449
 20
-24.2615455814
 11
-47.4214484112
 21
-24.272053784
  0
LINE
  5
29C
100
AcDbEntity
  8
RACCORDO
100
AcDbLine
 62
7
  6
CONTINUOUS
 10
-47.4214484112
 20
-24.272053784
 11
-47.4076789987
 21
-24.2897742033
  0
LINE
  5
29D
100
AcDbEntity
  8
RACCORDO
100
AcDbLine
 62
7
  6
CONTINUOUS
 10
-47.4076789987
 20
-24.2897742033
 11
-47.3978302693
 21
-24.3026208096
  0
LINE
  5
29E
100
AcDbEntity
  8
RACCORDO
100
AcDbLine
 62
7
  6
CONTINUOUS
 10
-47.3978302693
 20
-24.3026208096
 11
-47.3891884452
 21
-24.3140157639
  0
LINE
  5
29F
100
AcDbEntity
  8
RACCORDO
100
AcDbLine
 62
7
  6
CONTINUOUS
 10
-47.3891884452
 20
-24.3140157639
 11
-47.3842801867
 21
-24.3205394898
  0
LINE
  5
2A0
100
AcDbEntity
  8
RACCORDO
100
AcDbLine
 62
7
  6
CONTINUOUS
 10
-47.2245738407
 20
-24.5607632764
 11
-47.1887014904
 21
-24.6200854881
  0
LINE
  5
2A1
100
AcDbEntity
  8
RACCORDO
100
AcDbLine
 62
250
  6
CONTINUOUS
 10
-43.4248778623
 20
-11.7500002799
 11
-47.6449987318
 21
-11.75
  0
LINE
  5
2A2
100
AcDbEntity
  8
RACCORDO
100
AcDbLine
 62
250
  6
CONTINUOUS
 10
-47.3402956271
 20
-11.75
 11
-47.3402956525
 21
11.7499999384
  0
LINE
  5
2A3
100
AcDbEntity
  8
RACCORDO
100
AcDbLine
 62
250
  6
CONTINUOUS
 10
-46.5159547098
 20
-11.75
 11
-46.5159547098
 21
11.75
  0
LINE
  5
2A4
100
AcDbEntity
  8
SUPERFICI
100
AcDbLine
 62
7
  6
CONTINUOUS
 10
-47.6451928528
 20
23.6397289179
 11
-47.6446730884
 21
-17.8799567168
  0
LINE
  5
2A5
100
AcDbEntity
  8
SUPERFICI
100
AcDbLine
 62
7
  6
CONTINUOUS
 10
-47.6446730884
 20
-17.8799567168
 11
-47.6446833261
 21
-22.7762133489
  0
LINE
  5
2A6
100
AcDbEntity
  8
SUPERFICI
100
AcDbLine
 62
7
  6
CONTINUOUS
 10
-47.6444301418
 20
-22.6542627439
 11
-47.6452423271
 21
-23.6029635869
  0
LINE
  5
2A7
100
AcDbEntity
  8
SUPERFICI
100
AcDbLine
 62
7
  6
CONTINUOUS
 10
-47.6451857141
 20
23.6311626664
 11
-47.6452124481
 21
23.6271947734
  0
LINE
  5
2A8
100
AcDbEntity
  8
RACCORDO
100
AcDbLine
 62
250
  6
CONTINUOUS
 10
-44.1664521287
 20
-11.75
 11
-44.1664521287
 21
11.75
  0
LINE
  5
2A9
100
AcDbEntity
  8
RACCORDO
100
AcDbLine
 62
250
  6
CONTINUOUS
 10
-43.4248778623
 20
-11.7500002799
 11
-43.4248778623
 21
11.7500002799
  0
LINE
  5
2AA
100
AcDbEntity
  8
SUPERFICI
100
AcDbLine
 62
7
  6
CONTINUOUS
 10
-38.6449981138
 20
-40.0
 11
-38.6449981138
 21
40.0
  0
LINE
  5
2AB
100
AcDbEntity
  8
RACCORDO
100
AcDbLine
 62
250
  6
CONTINUOUS
 10
-47.6449987318
 20
11.75
 11
-43.4248778623
 21
11.7500002799
  0
LINE
  5
2AC
100
AcDbEntity
  8
RACCORDO
100
AcDbLine
 62
7
  6
CONTINUOUS
 10
-38.6449981138
 20
40.0
 11
-43.2094440856
 21
39.760787523
  0
LINE
  5
2AD
100
AcDbEntity
  8
RACCORDO
100
AcDbLine
 62
250
  6
CONTINUOUS
 10
-38.6449981138
 20
37.0
 11
-43.1624717662
 21
36.9998781305
  0
ARC
  5
2AE
100
AcDbEntity
  8
RACCORDO
100
AcDbCircle
 62
250
  6
CONTINUOUS
 10
-158.6031538644
 20
-29.1427859237
 40
147.7334175518
100
AcDbArc
 50
1.2669738678
 51
1.8926594266
  0
ARC
  5
2AF
100
AcDbEntity
  8
RACCORDO
100
AcDbCircle
 62
250
  6
CONTINUOUS
 10
158.4614641084
 20
-29.1487309363
 40
147.5921802793
100
AcDbArc
 50
178.1032190038
 51
178.7295053381
  0
ARC
  5
2B0
100
AcDbEntity
  8
RACCORDO
100
AcDbCircle
 62
250
  6
CONTINUOUS
 10
158.4535508133
 20
29.1438001691
 40
147.5839423347
100
AcDbArc
 50
181.2686483031
 51
181.894971425
  0
ARC
  5
2B1
100
AcDbEntity
  8
RACCORDO
100
AcDbCircle
 62
250
  6
CONTINUOUS
 10
-158.2633447657
 20
29.1484322154
 40
147.3941600799
100
AcDbArc
 50
358.100785749
 51
358.7279187268
  0
ARC
  5
2B2
100
AcDbEntity
  8
SUPERFICI
100
AcDbCircle
 62
7
  6
CONTINUOUS
 10
17.0
 20
37.0
 40
3.0
100
AcDbArc
 50
0.0
 51
90.0
  0
ARC
  5
2B3
100
AcDbEntity
  8
SUPERFICI
100
AcDbCircle
 62
7
  6
CONTINUOUS
 10
-17.0
 20
37.0
 40
3.0
100
AcDbArc
 50
90.0
 51
180.0
  0
ARC
  5
2B4
100
AcDbEntity
  8
SUPERFICI
100
AcDbCircle
 62
7
  6
CONTINUOUS
 10
-17.0
 20
-37.0
 40
3.0
100
AcDbArc
 50
180.0
 51
270.0
  0
ARC
  5
2B5
100
AcDbEntity
  8
SUPERFICI
100
AcDbCircle
 62
7
  6
CONTINUOUS
 10
17.0
 20
-37.0
 40
3.0
100
AcDbArc
 50
270.0
 51
360.0
  0
ARC
  5
2B6
100
AcDbEntity
  8
RACCORDO
100
AcDbCircle
 62
250
  6
CONTINUOUS
 10
-17.0031181997
 20
-37.0056015417
 40
2.7602756613
100
AcDbArc
 50
179.8817246686
 51
270.0675038623
  0
ARC
  5
2B7
100
AcDbEntity
  8
RACCORDO
100
AcDbCircle
 62
250
  6
CONTINUOUS
 10
17.0031182
 20
-37.005601543
 40
2.7602756601
100
AcDbArc
 50
269.9324936569
 51
0.1182767122
  0
ARC
  5
2B8
100
AcDbEntity
  8
RACCORDO
100
AcDbCircle
 62
250
  6
CONTINUOUS
 10
17.003149743
 20
37.0056099438
 40
2.7602453235
100
AcDbArc
 50
359.881015808
 51
90.0653799051
  0
ARC
  5
2B9
100
AcDbEntity
  8
RACCORDO
100
AcDbCircle
 62
250
  6
CONTINUOUS
 10
-17.0031783823
 20
37.0056365158
 40
2.7602094193
100
AcDbArc
 50
89.9340249658
 51
180.1189914524
  0
ARC
  5
2BA
100
AcDbEntity
  8
0
100
AcDbCircle
 62
7
  6
CONTINUOUS
 10
-10.9499968609
 20
22.2501526679
 40
0.4282745133
100
AcDbArc
 50
90.0004390401
 51
180.0214826303
  0
ARC
  5
2BB
100
AcDbEntity
  8
0
100
AcDbCircle
 62
7
  6
CONTINUOUS
 10
10.949997078
 20
-22.2501528736
 40
0.428274365
100
AcDbArc
 50
270.0004100303
 51
0.0215144601
  0
ARC
  5
2BC
100
AcDbEntity
  8
0
100
AcDbCircle
 62
7
  6
CONTINUOUS
 10
-10.9500002227
 20
-22.2501597184
 40
0.4282689709
100
AcDbArc
 50
179.9775620468
 51
270.0001752075
  0
ARC
  5
2BD
100
AcDbEntity
  8
0
100
AcDbCircle
 62
7
  6
CONTINUOUS
 10
10.9500003146
 20
22.2501597925
 40
0.4282688283
100
AcDbArc
 50
359.9775564743
 51
90.0001820331
  0
ARC
  5
2BE
100
AcDbEntity
  8
DRAFT
100
AcDbCircle
 62
7
  6
CONTINUOUS
 10
-10.9500091382
 20
-22.2500379148
 40
0.4001778459
100
AcDbArc
 50
179.9945715427
 51
270.0013083612
  0
ARC
  5
2BF
100
AcDbEntity
  8
DRAFT
100
AcDbCircle
 62
7
  6
CONTINUOUS
 10
10.9500091675
 20
22.2500380018
 40
0.4001777543
100
AcDbArc
 50
359.9945590748
 51
90.0013125557
  0
ARC
  5
2C0
100
AcDbEntity
  8
DRAFT
100
AcDbCircle
 62
7
  6
CONTINUOUS
 10
10.9500099254
 20
-22.2500386873
 40
0.4001769858
100
AcDbArc
 50
269.9985789261
 51
0.0055390742
  0
ARC
  5
2C1
100
AcDbEntity
  8
DRAFT
100
AcDbCircle
 62
7
  6
CONTINUOUS
 10
-10.9500105336
 20
22.2500387618
 40
0.40017655
100
AcDbArc
 50
89.9984918408
 51
180.0055497558
  0
ARC
  5
2C2
100
AcDbEntity
  8
0
100
AcDbCircle
 62
7
  6
CONTINUOUS
 10
-10.95
 20
22.25
 40
0.3
100
AcDbArc
 50
90.0
 51
180.0
  0
ARC
  5
2C3
100
AcDbEntity
  8
0
100
AcDbCircle
 62
7
  6
CONTINUOUS
 10
-10.95
 20
-22.25
 40
0.3
100
AcDbArc
 50
180.0
 51
270.0
  0
ARC
  5
2C4
100
AcDbEntity
  8
0
100
AcDbCircle
 62
7
  6
CONTINUOUS
 10
10.95
 20
22.25
 40
0.3
100
AcDbArc
 50
0.0
 51
90.0
  0
ARC
  5
2C5
100
AcDbEntity
  8
0
100
AcDbCircle
 62
7
  6
CONTINUOUS
 10
10.95
 20
-22.25
 40
0.3
100
AcDbArc
 50
270.0
 51
360.0
  0
ARC
  5
2C6
100
AcDbEntity
  8
RACCORDO
100
AcDbCircle
 62
7
  6
CONTINUOUS
 10
-49.7926733294
 20
-26.1098301367
 40
3.0
100
AcDbArc
 50
3.8815043566
 51
38.0046883878
  0
ARC
  5
2C7
100
AcDbEntity
  8
RACCORDO
100
AcDbCircle
 62
250
  6
CONTINUOUS
 10
-49.7750927876
 20
-26.1287820128
 40
2.9979082401
100
AcDbArc
 50
4.83221946
 51
38.4747747751
  0
ARC
  5
2C8
100
AcDbEntity
  8
SUPERFICI
100
AcDbCircle
 62
7
  6
CONTINUOUS
 10
-46.6452204662
 20
-23.6414113097
 40
1.0
100
AcDbArc
 50
178.5745743891
 51
218.4537213924
  0
ARC
  5
2C9
100
AcDbEntity
  8
RACCORDO
100
AcDbCircle
 62
7
  6
CONTINUOUS
 10
-46.6451961498
 20
-23.6414104605
 40
1.0
100
AcDbArc
 50
178.5748053322
 51
218.4742668606
  0
ARC
  5
2CA
100
AcDbEntity
  8
RACCORDO
100
AcDbCircle
 62
7
  6
CONTINUOUS
 10
-43.1571100268
 20
-38.7621578888
 40
1.0
100
AcDbArc
 50
199.2505465449
 51
267.0001088648
  0
ARC
  5
2CB
100
AcDbEntity
  8
RACCORDO
100
AcDbCircle
 62
250
  6
CONTINUOUS
 10
-43.0591675164
 20
-38.7678854309
 40
0.9994214928
100
AcDbArc
 50
192.0037801421
 51
266.9806180446
  0
ARC
  5
2CC
100
AcDbEntity
  8
RACCORDO
100
AcDbCircle
 62
7
  6
CONTINUOUS
 10
-49.7926733294
 20
26.1098301367
 40
3.0
100
AcDbArc
 50
322.00879644
 51
356.1184956434
  0
ARC
  5
2CD
100
AcDbEntity
  8
RACCORDO
100
AcDbCircle
 62
250
  6
CONTINUOUS
 10
-49.7750954221
 20
26.1287846593
 40
2.9979131112
100
AcDbArc
 50
321.5252465453
 51
355.167864615
  0
ARC
  5
2CE
100
AcDbEntity
  8
RACCORDO
100
AcDbCircle
 62
7
  6
CONTINUOUS
 10
-46.6440896736
 20
23.6406333998
 40
1.0013362364
100
AcDbArc
 50
145.8207056958
 51
151.8326568067
  0
ARC
  5
2CF
100
AcDbEntity
  8
SUPERFICI
100
AcDbCircle
 62
7
  6
CONTINUOUS
 10
-46.6452181309
 20
23.6414112281
 40
1.0
100
AcDbArc
 50
141.5473836321
 51
181.3025598177
  0
ARC
  5
2D0
100
AcDbEntity
  8
RACCORDO
100
AcDbCircle
 62
7
  6
CONTINUOUS
 10
-46.6454612216
 20
23.6414109841
 40
0.9997415154
100
AcDbArc
 50
156.3433023438
 51
165.276768134
  0
ARC
  5
2D1
100
AcDbEntity
  8
RACCORDO
100
AcDbCircle
 62
7
  6
CONTINUOUS
 10
-46.6457181621
 20
23.6419535396
 40
0.9992530344
100
AcDbArc
 50
142.0150341237
 51
145.8225538443
  0
ARC
  5
2D2
100
AcDbEntity
  8
RACCORDO
100
AcDbCircle
 62
7
  6
CONTINUOUS
 10
-46.6477648597
 20
23.642587523
 40
0.9971738522
100
AcDbArc
 50
151.8319578823
 51
156.3430216668
  0
ARC
  5
2D3
100
AcDbEntity
  8
RACCORDO
100
AcDbCircle
 62
7
  6
CONTINUOUS
 10
-46.6482240112
 20
23.6421468162
 40
0.996882603
100
AcDbArc
 50
165.2770181566
 51
181.3360543831
  0
ARC
  5
2D4
100
AcDbEntity
  8
RACCORDO
100
AcDbCircle
 62
7
  6
CONTINUOUS
 10
-46.6501103538
 20
23.6453180043
 40
0.9937205564
100
AcDbArc
 50
141.5257898243
 51
142.0120695205
  0
ARC
  5
2D5
100
AcDbEntity
  8
RACCORDO
100
AcDbCircle
 62
7
  6
CONTINUOUS
 10
-43.1571062018
 20
38.7621580892
 40
1.0
100
AcDbArc
 50
93.0001105934
 51
160.7495365546
  0
ARC
  5
2D6
100
AcDbEntity
  8
RACCORDO
100
AcDbCircle
 62
250
  6
CONTINUOUS
 10
-43.0594464906
 20
38.7678074912
 40
0.9994903547
100
AcDbArc
 50
93.017932691
 51
167.9508931217
  0
ARC
  5
2D7
100
AcDbEntity
  8
RACCORDO
100
AcDbCircle
 62
7
  6
CONTINUOUS
 10
3.4095878734
 20
-22.5
 40
50.3245859873
100
AcDbArc
 50
183.881637814
 51
199.2503752249
  0
ARC
  5
2D8
100
AcDbEntity
  8
RACCORDO
100
AcDbCircle
 62
7
  6
CONTINUOUS
 10
3.4095878734
 20
22.5
 40
50.3245859873
100
AcDbArc
 50
160.7496247751
 51
176.118362186
  0
LINE
  5
2D9
100
AcDbEntity
  8
0
100
AcDbLine
 62
7
  6
CONTINUOUS
 10
5.75
 20
22.6784170988
 11
10.949998954
 21
22.678423042
  0
SPLINE
  5
2DA
100
AcDbEntity
  8
0
100
AcDbSpline
 62
7
  6
CONTINUOUS
 70
0
 71
3
 72
8
 73
4
 74
0
 42
0.0000001
 43
0.0000001
 44
0.0000000001
 40
0.0
 40
0.0
 40
0.0
 40
0.0
 40
1.0
 40
1.0
 40
1.0
 40
1.0
 10
11.3782820019
 20
22.2499920288
 30
0.0
 10
11.3789025707
 20
18.7499947408
 30
0.0
 10
11.3783697757
 20
15.2499973431
 30
0.0
 10
11.378369781
 20
11.75
 30
0.0
  0
SPLINE
  5
2DB
100
AcDbEntity
  8
RACCORDO
100
AcDbSpline
 62
250
  6
CONTINUOUS
 70
0
 71
3
 72
30
 73
26
 74
0
 42
0.0000001
 43
0.0000001
 44
0.0000000001
 40
0.0
 40
0.0
 40
0.0
 40
0.0
 40
0.1250077745
 40
0.2500152161
 40
0.3750217102
 40
0.4375249924
 40
0.5000285745
 40
0.5625324851
 40
0.6250360137
 40
0.6875382973
 40
0.7187889283
 40
0.7500391564
 40
0.7812882854
 40
0.8125356795
 40
0.8437828992
 40
0.8750312327
 40
0.9062813116
 40
0.9140941167
 40
0.9219070276
 40
0.9297200432
 40
0.9375329606
 40
0.9531584869
 40
0.9687838542
 40
0.9844006313
 40
1.0
 40
1.0
 40
1.0
 40
1.0
 10
19.3588912441
 20
11.75
 30
0.0
 10
19.358892916
 20
12.8059301678
 30
0.0
 10
19.370754849
 20
14.9177789505
 30
0.0
 10
19.3989039982
 20
18.0854202644
 30
0.0
 10
19.4122809651
 20
20.725219614
 30
0.0
 10
19.4075877296
 20
22.8370661062
 30
0.0
 10
19.3952724907
 20
24.4209156805
 30
0.0
 10
19.3730726978
 20
26.0046589683
 30
0.0
 10
19.3421594596
 20
27.5882450833
 30
0.0
 10
19.308093574
 20
28.9076991664
 30
0.0
 10
19.2763837847
 20
29.9631153738
 30
0.0
 10
19.2503157035
 20
30.7545843979
 30
0.0
 10
19.223723779
 20
31.5460110877
 30
0.0
 10
19.2025184773
 20
32.3375780127
 30
0.0
 10
19.1846357665
 20
33.1292157746
 30
0.0
 10
19.1687120827
 20
33.9209172692
 30
0.0
 10
19.1571395749
 20
34.5147181163
 30
0.0
 10
19.1483334979
 20
34.910576136
 30
0.0
 10
19.1439086614
 20
35.1085117535
 30
0.0
 10
19.1374154218
 20
35.3063999251
 30
0.0
 10
19.1241463714
 20
35.5700517151
 30
0.0
 10
19.1018537202
 20
35.8993113897
 30
0.0
 10
19.0643541373
 20
36.2934334366
 30
0.0
 10
19.0316372393
 20
36.6877571083
 30
0.0
 10
19.0138706433
 20
36.9508456109
 30
0.0
 10
19.0053501071
 20
37.0823363934
 30
0.0
  0
SPLINE
  5
2DC
100
AcDbEntity
  8
RACCORDO
100
AcDbSpline
 62
250
  6
CONTINUOUS
 70
0
 71
3
 72
11
 73
7
 74
0
 42
0.0000001
 43
0.0000001
 44
0.0000000001
 40
0.0
 40
0.0
 40
0.0
 40
0.0
 40
0.2500032451
 40
0.5000070152
 40
0.7500101526
 40
1.0
 40
1.0
 40
1.0
 40
1.0
 10
14.4878902144
 20
11.75
 30
0.0
 10
14.4878721043
 20
12.6214501827
 30
0.0
 10
14.4945487626
 20
14.3643468954
 30
0.0
 10
14.5088232096
 20
16.9786612712
 30
0.0
 10
14.5205231051
 20
19.592927315
 30
0.0
 10
14.5213361446
 20
21.3358279135
 30
0.0
 10
14.5315915223
 20
22.2071710463
 30
0.0
  0
SPLINE
  5
2DD
100
AcDbEntity
  8
RACCORDO
100
AcDbSpline
 62
250
  6
CONTINUOUS
 70
0
 71
3
 72
21
 73
17
 74
0
 42
0.0000001
 43
0.0000001
 44
0.0000000001
 40
0.0
 40
0.0
 40
0.0
 40
0.0
 40
0.1251223322
 40
0.187722572
 40
0.2502796669
 40
0.3127768097
 40
0.3752094725
 40
0.4375935084
 40
0.4999588585
 40
0.5623327918
 40
0.6247366889
 40
0.6871817377
 40
0.7496884297
 40
0.8122598777
 40
0.87486542
 40
1.0
 40
1.0
 40
1.0
 40
1.0
 10
14.5315915223
 20
22.2071710463
 30
0.0
 10
14.5344156031
 20
22.4474735097
 30
0.0
 10
14.5071308207
 20
22.8094426778
 30
0.0
 10
14.4075060165
 20
23.2802032562
 30
0.0
 10
14.2979750129
 20
23.6243581923
 30
0.0
 10
14.150034966
 20
23.9535523837
 30
0.0
 10
13.9655829881
 20
24.2633139791
 30
0.0
 10
13.7501840907
 20
24.5517961079
 30
0.0
 10
13.5110191349
 20
24.8206993552
 30
0.0
 10
13.2466466471
 20
25.0651574416
 30
0.0
 10
12.9576565016
 20
25.2803861356
 30
0.0
 10
12.6457058058
 20
25.4613683475
 30
0.0
 10
12.3162247961
 20
25.608024083
 30
0.0
 10
11.9756478233
 20
25.7277117143
 30
0.0
 10
11.5078394428
 20
25.8410734796
 30
0.0
 10
11.1461271353
 20
25.8757154681
 30
0.0
 10
10.9057851487
 20
25.8762502582
 30
0.0
  0
SPLINE
  5
2DE
100
AcDbEntity
  8
RACCORDO
100
AcDbSpline
 62
250
  6
CONTINUOUS
 70
0
 71
3
 72
13
 73
9
 74
0
 42
0.0000001
 43
0.0000001
 44
0.0000000001
 40
0.0
 40
0.0
 40
0.0
 40
0.0
 40
0.1249955205
 40
0.249996403
 40
0.3749971722
 40
0.4999980458
 40
0.7499989373
 40
1.0
 40
1.0
 40
1.0
 40
1.0
 10
10.9057851487
 20
25.8762502582
 30
0.0
 10
10.690959458
 20
25.8767140721
 30
0.0
 10
10.2613325678
 20
25.8839742354
 30
0.0
 10
9.6169936451
 20
25.8980397195
 30
0.0
 10
8.9725101772
 20
25.9047853775
 30
0.0
 10
8.1131857425
 20
25.9098059258
 30
0.0
 10
7.0390031755
 20
25.9101344114
 30
0.0
 10
6.179669607
 20
25.9067569668
 30
0.0
 10
5.75
 20
25.9067566434
 30
0.0
  0
SPLINE
  5
2DF
100
AcDbEntity
  8
RACCORDO
100
AcDbSpline
 62
250
  6
CONTINUOUS
 70
0
 71
3
 72
17
 73
13
 74
0
 42
0.0000001
 43
0.0000001
 44
0.0000000001
 40
0.0
 40
0.0
 40
0.0
 40
0.0
 40
0.0312440067
 40
0.0624933283
 40
0.0937431526
 40
0.1249930755
 40
0.1874931559
 40
0.2499933747
 40
0.3749935023
 40
0.4999930721
 40
0.749994806
 40
1.0
 40
1.0
 40
1.0
 40
1.0
 10
17.0364295317
 20
38.9764531599
 30
0.0
 10
16.918944193
 20
38.9804359066
 30
0.0
 10
16.6839660151
 20
38.9888401466
 30
0.0
 10
16.3313529313
 20
38.9970555728
 30
0.0
 10
15.9786714094
 20
39.00245489
 30
0.0
 10
15.5084258571
 20
39.0096709835
 30
0.0
 10
14.9205933553
 20
39.0170414798
 30
0.0
 10
13.9800450569
 20
39.0273179164
 30
0.0
 10
12.8043548477
 20
39.0395747956
 30
0.0
 10
10.9232802297
 20
39.0621327372
 30
0.0
 10
8.5718710843
 20
39.0875715732
 30
0.0
 10
6.6906225491
 20
39.0918614241
 30
0.0
 10
5.75
 20
39.0918617509
 30
0.0
  0
SPLINE
  5
2E0
100
AcDbEntity
  8
RACCORDO
100
AcDbSpline
 62
250
  6
CONTINUOUS
 70
0
 71
3
 72
13
 73
9
 74
0
 42
0.0000001
 43
0.0000001
 44
0.0000000001
 40
0.0
 40
0.0
 40
0.0
 40
0.0
 40
0.2492184951
 40
0.4987890209
 40
0.6240996047
 40
0.7494183235
 40
0.8747193919
 40
1.0
 40
1.0
 40
1.0
 40
1.0
 10
19.0053501071
 20
37.0823363934
 30
0.0
 10
18.9893345646
 20
37.329209084
 30
0.0
 10
18.8546043134
 20
37.8198686692
 30
0.0
 10
18.4854190339
 20
38.3339427801
 30
0.0
 10
18.0960217871
 20
38.6459411687
 30
0.0
 10
17.7659841605
 20
38.824562606
 30
0.0
 10
17.4091493288
 20
38.9403550907
 30
0.0
 10
17.1607201337
 20
38.9722320664
 30
0.0
 10
17.0364295317
 20
38.9764531599
 30
0.0
  0
SPLINE
  5
2E1
100
AcDbEntity
  8
RACCORDO
100
AcDbSpline
 62
250
  6
CONTINUOUS
 70
0
 71
3
 72
13
 73
9
 74
0
 42
0.0000001
 43
0.0000001
 44
0.0000000001
 40
0.0
 40
0.0
 40
0.0
 40
0.0
 40
0.1249318551
 40
0.2499043946
 40
0.3748841939
 40
0.4998975062
 40
0.7499497825
 40
1.0
 40
1.0
 40
1.0
 40
1.0
 10
-19.7632493444
 20
36.9999044121
 30
0.0
 10
-19.7584956327
 20
35.9484088057
 30
0.0
 10
-19.7589971095
 20
33.8450436459
 30
0.0
 10
-19.7525586164
 20
30.6897875467
 30
0.0
 10
-19.7479014992
 20
27.5338395719
 30
0.0
 10
-19.7443996831
 20
23.3251390251
 30
0.0
 10
-19.747043418
 20
18.0637642784
 30
0.0
 10
-19.7494971357
 20
13.8545827484
 30
0.0
 10
-19.7494971171
 20
11.7500002799
 30
0.0
  0
SPLINE
  5
2E2
100
AcDbEntity
  8
RACCORDO
100
AcDbSpline
 62
250
  6
CONTINUOUS
 70
0
 71
3
 72
13
 73
9
 74
0
 42
0.0000001
 43
0.0000001
 44
0.0000000001
 40
0.0
 40
0.0
 40
0.0
 40
0.0
 40
0.2500503522
 40
0.5001027606
 40
0.6251161352
 40
0.7500960176
 40
0.8750685938
 40
1.0
 40
1.0
 40
1.0
 40
1.0
 10
-19.7494971171
 20
-11.7500002799
 30
0.0
 10
-19.7494971814
 20
-13.8545838322
 30
0.0
 10
-19.7470435542
 20
-18.0637675081
 30
0.0
 10
-19.744399151
 20
-23.3251448999
 30
0.0
 10
-19.7479022384
 20
-27.5338476811
 30
0.0
 10
-19.7525574655
 20
-30.6897971122
 30
0.0
 10
-19.7589973147
 20
-33.8450503745
 30
0.0
 10
-19.7585012291
 20
-35.9484119812
 30
0.0
 10
-19.7632489045
 20
-36.999903812
 30
0.0
  0
LINE
  5
2E3
100
AcDbEntity
  8
DRAFT
100
AcDbLine
 62
7
  6
CONTINUOUS
 10
-10.95
 20
22.6502163519
 11
-5.75
 21
22.6502147778
  0
LINE
  5
2E4
100
AcDbEntity
  8
DRAFT
100
AcDbLine
 62
7
  6
CONTINUOUS
 10
-11.3502094391
 20
11.75
 11
-11.3501881219
 21
22.25
  0
SPLINE
  5
2E5
100
AcDbEntity
  8
0
100
AcDbSpline
 62
7
  6
CONTINUOUS
 70
0
 71
3
 72
8
 73
4
 74
0
 42
0.0000001
 43
0.0000001
 44
0.0000000001
 40
0.0
 40
0.0
 40
0.0
 40
0.0
 40
1.0
 40
1.0
 40
1.0
 40
1.0
 10
-11.3783697809
 20
11.75
 30
0.0
 10
-11.3783697756
 20
15.249997362
 30
0.0
 10
-11.3789027685
 20
18.7499947786
 30
0.0
 10
-11.3782820082
 20
22.2499920856
 30
0.0
  0
LINE
  5
2E6
100
AcDbEntity
  8
0
100
AcDbLine
 62
7
  6
CONTINUOUS
 10
-10.9500001426
 20
22.6784231568
 11
-5.75
 21
22.6784170988
  0
SPLINE
  5
2E7
100
AcDbEntity
  8
RACCORDO
100
AcDbSpline
 62
250
  6
CONTINUOUS
 70
0
 71
3
 72
17
 73
13
 74
0
 42
0.0000001
 43
0.0000001
 44
0.0000000001
 40
0.0
 40
0.0
 40
0.0
 40
0.0
 40
0.2500052443
 40
0.5000070249
 40
0.6250066166
 40
0.7500067671
 40
0.8125069947
 40
0.8750070865
 40
0.9062570195
 40
0.9375068454
 40
0.9687560921
 40
1.0
 40
1.0
 40
1.0
 40
1.0
 10
-5.75
 20
39.0918617509
 30
0.0
 10
-6.6906047813
 20
39.0918613699
 30
0.0
 10
-8.571817783
 20
39.0875752421
 30
0.0
 10
-10.9231824558
 20
39.0621331931
 30
0.0
 10
-12.8042215257
 20
39.0395772832
 30
0.0
 10
-13.9798894484
 20
39.0273171503
 30
0.0
 10
-14.9204200004
 20
39.0170441022
 30
0.0
 10
-15.5082413417
 20
39.0096716938
 30
0.0
 10
-15.9784783425
 20
39.0024777942
 30
0.0
 10
-16.3311519357
 20
38.9970158972
 30
0.0
 10
-16.6837576313
 20
38.9888200326
 30
0.0
 10
-16.9187336327
 20
38.9805018517
 30
0.0
 10
-17.0362166802
 20
38.9765287441
 30
0.0
  0
SPLINE
  5
2E8
100
AcDbEntity
  8
RACCORDO
100
AcDbSpline
 62
250
  6
CONTINUOUS
 70
0
 71
3
 72
13
 73
9
 74
0
 42
0.0000001
 43
0.0000001
 44
0.0000000001
 40
0.0
 40
0.0
 40
0.0
 40
0.0
 40
0.2500010854
 40
0.5000019977
 40
0.6250028807
 40
0.7500036602
 40
0.8750045538
 40
1.0
 40
1.0
 40
1.0
 40
1.0
 10
-5.75
 20
25.9067566338
 30
0.0
 10
-6.1796467648
 20
25.9067569331
 30
0.0
 10
-7.0389346442
 20
25.9101341643
 30
0.0
 10
-8.1130601046
 20
25.9098072082
 30
0.0
 10
-8.9723388389
 20
25.9047859193
 30
0.0
 10
-9.6167880567
 20
25.8980419586
 30
0.0
 10
-10.2610926697
 20
25.8839862863
 30
0.0
 10
-10.6906964892
 20
25.8767108319
 30
0.0
 10
-10.9055106291
 20
25.8762549482
 30
0.0
  0
SPLINE
  5
2E9
100
AcDbEntity
  8
RACCORDO
100
AcDbSpline
 62
250
  6
CONTINUOUS
 70
0
 71
3
 72
21
 73
17
 74
0
 42
0.0000001
 43
0.0000001
 44
0.0000000001
 40
0.0
 40
0.0
 40
0.0
 40
0.0
 40
0.0626195151
 40
0.1252317311
 40
0.187824787
 40
0.2503937355
 40
0.3129021767
 40
0.3753514996
 40
0.4999736959
 40
0.5623469444
 40
0.6247382997
 40
0.6871785924
 40
0.7496824473
 40
0.812248195
 40
0.8748550938
 40
1.0
 40
1.0
 40
1.0
 40
1.0
 10
-10.9055106291
 20
25.8762549482
 30
0.0
 10
-11.0257713642
 20
25.8760099203
 30
0.0
 10
-11.2663666091
 20
25.8637490934
 30
0.0
 10
-11.6240475897
 20
25.8133984466
 30
0.0
 10
-11.9750351166
 20
25.727824068
 30
0.0
 10
-12.3155456795
 20
25.6083485305
 30
0.0
 10
-12.6450153582
 20
25.4616119968
 30
0.0
 10
-13.0605723869
 20
25.220956248
 30
0.0
 10
-13.4310992393
 20
24.9104454408
 30
0.0
 10
-13.749784467
 20
24.5524373624
 30
0.0
 10
-13.9651706115
 20
24.2638613169
 30
0.0
 10
-14.1496993768
 20
23.9541500491
 30
0.0
 10
-14.2975659084
 20
23.624905217
 30
0.0
 10
-14.407499649
 20
23.2809092586
 30
0.0
 10
-14.5084196185
 20
22.8103361531
 30
0.0
 10
-14.5341189237
 20
22.4481650495
 30
0.0
 10
-14.5311622424
 20
22.2078420325
 30
0.0
  0
SPLINE
  5
2EA
100
AcDbEntity
  8
RACCORDO
100
AcDbSpline
 62
250
  6
CONTINUOUS
 70
0
 71
3
 72
13
 73
9
 74
0
 42
0.0000001
 43
0.0000001
 44
0.0000000001
 40
0.0
 40
0.0
 40
0.0
 40
0.0
 40
0.1249897265
 40
0.2499898219
 40
0.3749909831
 40
0.4999931886
 40
0.7499966014
 40
1.0
 40
1.0
 40
1.0
 40
1.0
 10
-14.5311622424
 20
22.2078420325
 30
0.0
 10
-14.5257927224
 20
21.7721634237
 30
0.0
 10
-14.5220811252
 20
20.9006958717
 30
0.0
 10
-14.5191263823
 20
19.5934938697
 30
0.0
 10
-14.5142616953
 20
18.2862464904
 30
0.0
 10
-14.5067361235
 20
16.5432491206
 30
0.0
 10
-14.4944570513
 20
14.3645164454
 30
0.0
 10
-14.4878814063
 20
12.6215068657
 30
0.0
 10
-14.4878905719
 20
11.75
 30
0.0
  0
SPLINE
  5
2EB
100
AcDbEntity
  8
RACCORDO
100
AcDbSpline
 62
250
  6
CONTINUOUS
 70
0
 71
3
 72
28
 73
24
 74
0
 42
0.0000001
 43
0.0000001
 44
0.0000000001
 40
0.0
 40
0.0
 40
0.0
 40
0.0
 40
0.0155993535
 40
0.0312161767
 40
0.046841555
 40
0.0624670923
 40
0.0702800758
 40
0.078093013
 40
0.0937187543
 40
0.1249688374
 40
0.1562171636
 40
0.1874644219
 40
0.2187118265
 40
0.2499607447
 40
0.3124616433
 40
0.3749640299
 40
0.4374675038
 40
0.499971412
 40
0.5624749816
 40
0.6249782719
 40
0.749984776
 40
0.8749922277
 40
1.0
 40
1.0
 40
1.0
 40
1.0
 10
-19.0053509197
 20
37.0823357715
 30
0.0
 10
-19.0138715723
 20
36.950845133
 30
0.0
 10
-19.0316421897
 20
36.6877567658
 30
0.0
 10
-19.0643168176
 20
36.2934293758
 30
0.0
 10
-19.1018829682
 20
35.8993118001
 30
0.0
 10
-19.1241192789
 20
35.5700490125
 30
0.0
 10
-19.1374888417
 20
35.3064006621
 30
0.0
 10
-19.1458299155
 20
35.0425417541
 30
0.0
 10
-19.1555093345
 20
34.580690988
 30
0.0
 10
-19.168833572
 20
33.9209178959
 30
0.0
 10
-19.184554871
 20
33.1292117488
 30
0.0
 10
-19.2025922462
 20
32.3375767831
 30
0.0
 10
-19.2238900059
 20
31.5460149241
 30
0.0
 10
-19.2583224902
 20
30.4907338401
 30
0.0
 10
-19.3015820346
 20
29.1715911109
 30
0.0
 10
-19.3425602334
 20
27.5882517799
 30
0.0
 10
-19.3728198768
 20
26.0046539655
 30
0.0
 10
-19.3952953075
 20
24.4209159807
 30
0.0
 10
-19.4076276775
 20
22.8370659714
 30
0.0
 10
-19.4122490214
 20
20.7252195866
 30
0.0
 10
-19.3988992023
 20
18.0854201916
 30
0.0
 10
-19.3707608511
 20
14.9177787576
 30
0.0
 10
-19.3588929621
 20
12.8059300856
 30
0.0
 10
-19.3588912441
 20
11.75
 30
0.0
  0
SPLINE
  5
2EC
100
AcDbEntity
  8
RACCORDO
100
AcDbSpline
 62
250
  6
CONTINUOUS
 70
0
 71
3
 72
13
 73
9
 74
0
 42
0.0000001
 43
0.0000001
 44
0.0000000001
 40
0.0
 40
0.0
 40
0.0
 40
0.0
 40
0.1252823024
 40
0.2505867861
 40
0.3759079715
 40
0.5012210359
 40
0.7507984466
 40
1.0
 40
1.0
 40
1.0
 40
1.0
 10
-17.0362166802
 20
38.9765287441
 30
0.0
 10
-17.1605184729
 20
38.9723136423
 30
0.0
 10
-17.4089640707
 20
38.9403604484
 30
0.0
 10
-17.7658303995
 20
38.8245859765
 30
0.0
 10
-18.095947746
 20
38.6460251939
 30
0.0
 10
-18.4853645308
 20
38.3339716039
 30
0.0
 10
-18.8546446088
 20
37.8199173748
 30
0.0
 10
-18.9893379401
 20
37.3292103114
 30
0.0
 10
-19.0053509197
 20
37.0823357715
 30
0.0
  0
SPLINE
  5
2ED
100
AcDbEntity
  8
RACCORDO
100
AcDbSpline
 62
250
  6
CONTINUOUS
 70
0
 71
3
 72
12
 73
8
 74
0
 42
0.0000001
 43
0.0000001
 44
0.0000000001
 40
0.0
 40
0.0
 40
0.0
 40
0.0
 40
0.1249867057
 40
0.2499870219
 40
0.4999858602
 40
0.7499884812
 40
1.0
 40
1.0
 40
1.0
 40
1.0
 10
17.0
 20
39.7658908361
 30
0.0
 10
16.531300701
 20
39.7649665814
 30
0.0
 10
15.5938486026
 20
39.7647859667
 30
0.0
 10
13.7189019806
 20
39.7636966652
 30
0.0
 10
11.3751452104
 20
39.7624332709
 30
0.0
 10
8.5625965679
 20
39.7609200729
 30
0.0
 10
6.6875432273
 20
39.7607875637
 30
0.0
 10
5.7499999041
 20
39.760787523
 30
0.0
  0
SPLINE
  5
2EE
100
AcDbEntity
  8
RACCORDO
100
AcDbSpline
 62
250
  6
CONTINUOUS
 70
0
 71
3
 72
12
 73
8
 74
0
 42
0.0000001
 43
0.0000001
 44
0.0000000001
 40
0.0
 40
0.0
 40
0.0
 40
0.0
 40
0.1249842491
 40
0.2499844812
 40
0.4999843671
 40
0.7499876743
 40
1.0
 40
1.0
 40
1.0
 40
1.0
 10
-16.9998661072
 20
-39.7659040657
 30
0.0
 10
-16.5311817083
 20
-39.7649256918
 30
0.0
 10
-15.5937501244
 20
-39.7648399979
 30
0.0
 10
-13.7188315288
 20
-39.7636471863
 30
0.0
 10
-11.3750963968
 20
-39.762459061
 30
0.0
 10
-8.5625717258
 20
-39.7609114767
 30
0.0
 10
-6.6875350952
 20
-39.7607875647
 30
0.0
 10
-5.7499999041
 20
-39.760787523
 30
0.0
  0
SPLINE
  5
2EF
100
AcDbEntity
  8
RACCORDO
100
AcDbSpline
 62
250
  6
CONTINUOUS
 70
0
 71
3
 72
12
 73
8
 74
0
 42
0.0000001
 43
0.0000001
 44
0.0000000001
 40
0.0
 40
0.0
 40
0.0
 40
0.0
 40
0.2500123257
 40
0.5000156329
 40
0.7500155186
 40
0.8750157504
 40
1.0
 40
1.0
 40
1.0
 40
1.0
 10
5.7499999041
 20
-39.760787523
 30
0.0
 10
6.6875350851
 20
-39.7607875658
 30
0.0
 10
8.562571696
 20
-39.7609114877
 30
0.0
 10
11.3750963363
 20
-39.7624590789
 30
0.0
 10
13.718831442
 20
-39.7636471013
 30
0.0
 10
15.5937500173
 20
-39.7648401164
 30
0.0
 10
16.5311815929
 20
-39.764925387
 30
0.0
 10
16.9998659879
 20
-39.7659040657
 30
0.0
  0
SPLINE
  5
2F0
100
AcDbEntity
  8
RACCORDO
100
AcDbSpline
 62
250
  6
CONTINUOUS
 70
0
 71
3
 72
12
 73
8
 74
0
 42
0.0000001
 43
0.0000001
 44
0.0000000001
 40
0.0
 40
0.0
 40
0.0
 40
0.0
 40
0.2500115439
 40
0.5000141865
 40
0.7500130473
 40
0.8750133725
 40
1.0
 40
1.0
 40
1.0
 40
1.0
 10
-5.7499999041
 20
39.760787523
 30
0.0
 10
-6.6875433212
 20
39.7607875475
 30
0.0
 10
-8.5625968367
 20
39.7609199397
 30
0.0
 10
-11.3751457391
 20
39.7624332114
 30
0.0
 10
-13.7189027065
 20
39.7636971561
 30
0.0
 10
-15.5938491573
 20
39.7647849592
 30
0.0
 10
-16.5313009875
 20
39.7649690841
 30
0.0
 10
-17.0
 20
39.7658898658
 30
0.0
  0
SPLINE
  5
2F1
100
AcDbEntity
  8
RACCORDO
100
AcDbSpline
 62
250
  6
CONTINUOUS
 70
0
 71
3
 72
13
 73
9
 74
0
 42
0.0000001
 43
0.0000001
 44
0.0000000001
 40
0.0
 40
0.0
 40
0.0
 40
0.0
 40
0.124931425
 40
0.2499040003
 40
0.3748838802
 40
0.4998972517
 40
0.7499496554
 40
1.0
 40
1.0
 40
1.0
 40
1.0
 10
19.7632489045
 20
-36.9999037469
 30
0.0
 10
19.758501194
 20
-35.9484117613
 30
0.0
 10
19.7589973103
 20
-33.8450500096
 30
0.0
 10
19.7525575206
 20
-30.6897966256
 30
0.0
 10
19.7479022261
 20
-27.5338472567
 30
0.0
 10
19.7443992157
 20
-23.3251445727
 30
0.0
 10
19.7470435128
 20
-18.0637673242
 30
0.0
 10
19.7494972529
 20
-13.8545837629
 30
0.0
 10
19.7494971171
 20
-11.7500002799
 30
0.0
  0
LINE
  5
2F2
100
AcDbEntity
  8
DRAFT
100
AcDbLine
 62
7
  6
CONTINUOUS
 10
-11.3501882459
 20
-22.25
 11
-11.3502094391
 21
-11.75
  0
LINE
  5
2F3
100
AcDbEntity
  8
DRAFT
100
AcDbLine
 62
7
  6
CONTINUOUS
 10
-5.75
 20
-22.6502147778
 11
-10.95
 21
-22.6502163545
  0
LINE
  5
2F4
100
AcDbEntity
  8
0
100
AcDbLine
 62
7
  6
CONTINUOUS
 10
-5.75
 20
-22.6784170988
 11
-10.9499989131
 21
-22.6784231641
  0
SPLINE
  5
2F5
100
AcDbEntity
  8
0
100
AcDbSpline
 62
7
  6
CONTINUOUS
 70
0
 71
3
 72
8
 73
4
 74
0
 42
0.0000001
 43
0.0000001
 44
0.0000000001
 40
0.0
 40
0.0
 40
0.0
 40
0.0
 40
1.0
 40
1.0
 40
1.0
 40
1.0
 10
-11.3782819823
 20
-22.2499919963
 30
0.0
 10
-11.3788678961
 20
-18.7499947131
 30
0.0
 10
-11.3783697758
 20
-15.2499973322
 30
0.0
 10
-11.378369781
 20
-11.75
 30
0.0
  0
SPLINE
  5
2F6
100
AcDbEntity
  8
RACCORDO
100
AcDbSpline
 62
250
  6
CONTINUOUS
 70
0
 71
3
 72
29
 73
25
 74
0
 42
0.0000001
 43
0.0000001
 44
0.0000000001
 40
0.0
 40
0.0
 40
0.0
 40
0.0
 40
0.125007973
 40
0.2500156213
 40
0.3750223222
 40
0.4375257123
 40
0.5000293803
 40
0.5625333873
 40
0.6250369575
 40
0.6875394439
 40
0.7500404514
 40
0.7812893996
 40
0.8125368139
 40
0.8437842043
 40
0.875032642
 40
0.8906573424
 40
0.9062825192
 40
0.9140953063
 40
0.9219082201
 40
0.9297211083
 40
0.9375338362
 40
0.9531592517
 40
0.968784362
 40
1.0
 40
1.0
 40
1.0
 40
1.0
 10
-19.3588912441
 20
-11.75
 30
0.0
 10
-19.3588929613
 20
-12.8059282691
 30
0.0
 10
-19.370760918
 20
-14.9177732707
 30
0.0
 10
-19.398899363
 20
-18.0854091897
 30
0.0
 10
-19.4122468019
 20
-20.7252039699
 30
0.0
 10
-19.4076299691
 20
-22.8370466623
 30
0.0
 10
-19.395298157
 20
-24.4208939551
 30
0.0
 10
-19.3728047607
 20
-26.0046288795
 30
0.0
 10
-19.3425688245
 20
-27.588224292
 30
0.0
 10
-19.3016065198
 20
-29.1715614968
 30
0.0
 10
-19.2583029596
 20
-30.4907003934
 30
0.0
 10
-19.2238360224
 20
-31.5459782433
 30
0.0
 10
-19.2026942154
 20
-32.3375435099
 30
0.0
 10
-19.1847718901
 20
-33.1291796704
 30
0.0
 10
-19.1707778034
 20
-33.7889071222
 30
0.0
 10
-19.1606649666
 20
-34.3167265245
 30
0.0
 10
-19.1545258907
 20
-34.6466275203
 30
0.0
 10
-19.1491319902
 20
-34.9105449484
 30
0.0
 10
-19.1455113173
 20
-35.1084957093
 30
0.0
 10
-19.1390828277
 20
-35.306387005
 30
0.0
 10
-19.1247415713
 20
-35.5699889
 30
0.0
 10
-19.0991394691
 20
-35.8989864852
 30
0.0
 10
-19.0517124753
 20
-36.424491846
 30
0.0
 10
-19.0227383784
 20
-36.8191255756
 30
0.0
 10
-19.0054840338
 20
-37.0822354038
 30
0.0
  0
SPLINE
  5
2F7
100
AcDbEntity
  8
RACCORDO
100
AcDbSpline
 62
250
  6
CONTINUOUS
 70
0
 71
3
 72
13
 73
9
 74
0
 42
0.0000001
 43
0.0000001
 44
0.0000000001
 40
0.0
 40
0.0
 40
0.0
 40
0.0
 40
0.2500034047
 40
0.5000068203
 40
0.6250090355
 40
0.7500102086
 40
0.8750102574
 40
1.0
 40
1.0
 40
1.0
 40
1.0
 10
-14.4878902115
 20
-11.75
 30
0.0
 10
-14.4878787118
 20
-12.6215112388
 30
0.0
 10
-14.4944525173
 20
-14.3645295767
 30
0.0
 10
-14.5067406038
 20
-16.5432731401
 30
0.0
 10
-14.5142658762
 20
-18.2862793178
 30
0.0
 10
-14.519106997
 20
-19.5935331946
 30
0.0
 10
-14.5220983863
 20
-20.9007416287
 30
0.0
 10
-14.5258137805
 20
-21.7722132281
 30
0.0
 10
-14.5311667165
 20
-22.207894273
 30
0.0
  0
SPLINE
  5
2F8
100
AcDbEntity
  8
RACCORDO
100
AcDbSpline
 62
250
  6
CONTINUOUS
 70
0
 71
3
 72
20
 73
16
 74
0
 42
0.0000001
 43
0.0000001
 44
0.0000000001
 40
0.0
 40
0.0
 40
0.0
 40
0.0
 40
0.1251422185
 40
0.1877502565
 40
0.2503156256
 40
0.3128205487
 40
0.3752609919
 40
0.4376542852
 40
0.500029532
 40
0.5624139926
 40
0.6248293057
 40
0.7496386254
 40
0.8746973358
 40
0.9373480906
 40
1.0
 40
1.0
 40
1.0
 40
1.0
 10
-14.5311667165
 20
-22.207894273
 30
0.0
 10
-14.5341153732
 20
-22.4481639022
 30
0.0
 10
-14.5079806429
 20
-22.8101859897
 30
0.0
 10
-14.4078416516
 20
-23.2808231359
 30
0.0
 10
-14.2976394269
 20
-23.6246797768
 30
0.0
 10
-14.1498535625
 20
-23.9538591373
 30
0.0
 10
-13.9654316195
 20
-24.2635853099
 30
0.0
 10
-13.7500151328
 20
-24.5519850593
 30
0.0
 10
-13.5108760653
 20
-24.8208534102
 30
0.0
 10
-13.2465105333
 20
-25.065236972
 30
0.0
 10
-12.8614357538
 20
-25.3523023377
 30
0.0
 10
-12.321696367
 20
-25.6234073866
 30
0.0
 10
-11.7435207538
 20
-25.7965500005
 30
0.0
 10
-11.2668351199
 20
-25.8637897022
 30
0.0
 10
-11.026152731
 20
-25.8759434588
 30
0.0
 10
-10.9058540972
 20
-25.8762429544
 30
0.0
  0
SPLINE
  5
2F9
100
AcDbEntity
  8
RACCORDO
100
AcDbSpline
 62
250
  6
CONTINUOUS
 70
0
 71
3
 72
13
 73
9
 74
0
 42
0.0000001
 43
0.0000001
 44
0.0000000001
 40
0.0
 40
0.0
 40
0.0
 40
0.0
 40
0.1249955387
 40
0.2499964212
 40
0.3749971863
 40
0.499998057
 40
0.7499989441
 40
1.0
 40
1.0
 40
1.0
 40
1.0
 10
-10.9058540972
 20
-25.8762429544
 30
0.0
 10
-10.6910256025
 20
-25.8767526069
 30
0.0
 10
-10.2613929065
 20
-25.8839558857
 30
0.0
 10
-9.6170453126
 20
-25.8980425558
 30
0.0
 10
-8.9725532759
 20
-25.9047866724
 30
0.0
 10
-8.1132173231
 20
-25.9098056547
 30
0.0
 10
-7.0390204116
 20
-25.9101325035
 30
0.0
 10
-6.1796753486
 20
-25.9067570043
 30
0.0
 10
-5.75
 20
-25.9067566433
 30
0.0
  0
SPLINE
  5
2FA
100
AcDbEntity
  8
RACCORDO
100
AcDbSpline
 62
250
  6
CONTINUOUS
 70
0
 71
3
 72
16
 73
12
 74
0
 42
0.0000001
 43
0.0000001
 44
0.0000000001
 40
0.0
 40
0.0
 40
0.0
 40
0.0
 40
0.0624896109
 40
0.1249904992
 40
0.1874908119
 40
0.2499907443
 40
0.3124911832
 40
0.3749915121
 40
0.4999914748
 40
0.7499939714
 40
1.0
 40
1.0
 40
1.0
 40
1.0
 10
-17.0385032972
 20
-38.9757433355
 30
0.0
 10
-16.8034536027
 20
-38.9827793226
 30
0.0
 10
-16.3333097738
 20
-38.9969835361
 30
0.0
 10
-15.6278597235
 20
-39.0096653513
 30
0.0
 10
-14.9223069102
 20
-39.016616402
 30
0.0
 10
-14.2167663291
 20
-39.0245147615
 30
0.0
 10
-13.5112242588
 20
-39.0322819298
 30
0.0
 10
-12.5705005933
 20
-39.042509004
 30
0.0
 10
-10.9242493852
 20
-39.0620730168
 30
0.0
 10
-8.5724002834
 20
-39.0875794548
 30
0.0
 10
-6.6907989814
 20
-39.0918614288
 30
0.0
 10
-5.75
 20
-39.0918617509
 30
0.0
  0
SPLINE
  5
2FB
100
AcDbEntity
  8
RACCORDO
100
AcDbSpline
 62
250
  6
CONTINUOUS
 70
0
 71
3
 72
13
 73
9
 74
0
 42
0.0000001
 43
0.0000001
 44
0.0000000001
 40
0.0
 40
0.0
 40
0.0
 40
0.0
 40
0.249210882
 40
0.4987869085
 40
0.6240996781
 40
0.7494224653
 40
0.8747255142
 40
1.0
 40
1.0
 40
1.0
 40
1.0
 10
-19.0054840338
 20
-37.0822354038
 30
0.0
 10
-18.9892896704
 20
-37.3289272889
 30
0.0
 10
-18.8548285333
 20
-37.8192128059
 30
0.0
 10
-18.4861738416
 20
-38.3332138549
 30
0.0
 10
-18.0970910185
 20
-38.6450862686
 30
0.0
 10
-17.7675073931
 20
-38.8239968449
 30
0.0
 10
-17.4110925617
 20
-38.9403166978
 30
0.0
 10
-17.1627224605
 20
-38.9720137817
 30
0.0
 10
-17.0385032972
 20
-38.9757433355
 30
0.0
  0
SPLINE
  5
2FC
100
AcDbEntity
  8
RACCORDO
100
AcDbSpline
 62
250
  6
CONTINUOUS
 70
0
 71
3
 72
13
 73
9
 74
0
 42
0.0000001
 43
0.0000001
 44
0.0000000001
 40
0.0
 40
0.0
 40
0.0
 40
0.0
 40
0.2500502207
 40
0.500102495
 40
0.6251159076
 40
0.7500955223
 40
0.8750681692
 40
1.0
 40
1.0
 40
1.0
 40
1.0
 10
19.7494971171
 20
11.7500002799
 30
0.0
 10
19.7494971173
 20
13.8545805852
 30
0.0
 10
19.7470408986
 20
18.0637577475
 30
0.0
 10
19.7444077226
 20
23.3251278634
 30
0.0
 10
19.747890342
 20
27.5338233224
 30
0.0
 10
19.7525690418
 20
30.6897681764
 30
0.0
 10
19.7589941171
 20
33.8450201571
 30
0.0
 10
19.7584954299
 20
35.9483838235
 30
0.0
 10
19.7632492379
 20
36.9998781305
 30
0.0
  0
LINE
  5
2FD
100
AcDbEntity
  8
DRAFT
100
AcDbLine
 62
7
  6
CONTINUOUS
 10
10.95
 20
-22.6502163545
 11
5.75
 21
-22.6502147778
  0
LINE
  5
2FE
100
AcDbEntity
  8
DRAFT
100
AcDbLine
 62
7
  6
CONTINUOUS
 10
11.3502094391
 20
-11.75
 11
11.3501882459
 21
-22.25
  0
SPLINE
  5
2FF
100
AcDbEntity
  8
0
100
AcDbSpline
 62
7
  6
CONTINUOUS
 70
0
 71
3
 72
8
 73
4
 74
0
 42
0.0000001
 43
0.0000001
 44
0.0000000001
 40
0.0
 40
0.0
 40
0.0
 40
0.0
 40
1.0
 40
1.0
 40
1.0
 40
1.0
 10
11.3783697809
 20
-11.75
 30
0.0
 10
11.3783697756
 20
-15.2499973513
 30
0.0
 10
11.3788678953
 20
-18.7499947512
 30
0.0
 10
11.3782819825
 20
-22.2499920534
 30
0.0
  0
LINE
  5
300
100
AcDbEntity
  8
0
100
AcDbLine
 62
7
  6
CONTINUOUS
 10
10.9500001429
 20
-22.6784231641
 11
5.75
 21
-22.6784170988
  0
SPLINE
  5
301
100
AcDbEntity
  8
RACCORDO
100
AcDbSpline
 62
250
  6
CONTINUOUS
 70
0
 71
3
 72
13
 73
9
 74
0
 42
0.0000001
 43
0.0000001
 44
0.0000000001
 40
0.0
 40
0.0
 40
0.0
 40
0.0
 40
0.1252744856
 40
0.2505775345
 40
0.3759003211
 40
0.5012130908
 40
0.7507891183
 40
1.0
 40
1.0
 40
1.0
 40
1.0
 10
17.0385032972
 20
-38.9757433355
 30
0.0
 10
17.1627224604
 20
-38.9720137746
 30
0.0
 10
17.4110925645
 20
-38.9403167123
 30
0.0
 10
17.7675073903
 20
-38.8239968365
 30
0.0
 10
18.0970910203
 20
-38.6450862711
 30
0.0
 10
18.4861738434
 20
-38.3332138518
 30
0.0
 10
18.8548285457
 20
-37.8192128181
 30
0.0
 10
18.9892897106
 20
-37.3289272918
 30
0.0
 10
19.0054840338
 20
-37.0822354038
 30
0.0
  0
SPLINE
  5
302
100
AcDbEntity
  8
RACCORDO
100
AcDbSpline
 62
250
  6
CONTINUOUS
 70
0
 71
3
 72
16
 73
12
 74
0
 42
0.0000001
 43
0.0000001
 44
0.0000000001
 40
0.0
 40
0.0
 40
0.0
 40
0.0
 40
0.250006029
 40
0.5000085258
 40
0.6250084884
 40
0.6875088172
 40
0.7500092562
 40
0.8125091885
 40
0.8750095016
 40
0.9375103888
 40
1.0
 40
1.0
 40
1.0
 40
1.0
 10
5.75
 20
-39.0918617509
 30
0.0
 10
6.6907989831
 20
-39.0918614319
 30
0.0
 10
8.5724002883
 20
-39.0875795574
 30
0.0
 10
10.9242493892
 20
-39.0620728581
 30
0.0
 10
12.5705006015
 20
-39.0425092237
 30
0.0
 10
13.5112242639
 20
-39.0322819221
 30
0.0
 10
14.2167663332
 20
-39.0245147186
 30
0.0
 10
14.9223069184
 20
-39.0166165254
 30
0.0
 10
15.6278597215
 20
-39.0096650952
 30
0.0
 10
16.3333097924
 20
-38.9969841175
 30
0.0
 10
16.8034535733
 20
-38.9827783745
 30
0.0
 10
17.0385032972
 20
-38.9757433355
 30
0.0
  0
SPLINE
  5
303
100
AcDbEntity
  8
RACCORDO
100
AcDbSpline
 62
250
  6
CONTINUOUS
 70
0
 71
3
 72
13
 73
9
 74
0
 42
0.0000001
 43
0.0000001
 44
0.0000000001
 40
0.0
 40
0.0
 40
0.0
 40
0.0
 40
0.2500010723
 40
0.5000019714
 40
0.625002848
 40
0.7500036207
 40
0.8750045056
 40
1.0
 40
1.0
 40
1.0
 40
1.0
 10
5.75
 20
-25.9067566339
 30
0.0
 10
6.1796515284
 20
-25.9067570106
 30
0.0
 10
7.0389489356
 20
-25.9101376356
 30
0.0
 10
8.1130862858
 20
-25.9098058518
 30
0.0
 10
8.9723745845
 20
-25.9047878083
 30
0.0
 10
9.6168308971
 20
-25.8980463128
 30
0.0
 10
10.2611427218
 20
-25.883962325
 30
0.0
 10
10.6907514106
 20
-25.8767563395
 30
0.0
 10
10.9055678983
 20
-25.8762436399
 30
0.0
  0
SPLINE
  5
304
100
AcDbEntity
  8
RACCORDO
100
AcDbSpline
 62
250
  6
CONTINUOUS
 70
0
 71
3
 72
21
 73
17
 74
0
 42
0.0000001
 43
0.0000001
 44
0.0000000001
 40
0.0
 40
0.0
 40
0.0
 40
0.0
 40
0.0626199066
 40
0.1252318397
 40
0.1878249418
 40
0.2503938995
 40
0.3129023462
 40
0.3753516704
 40
0.4999736532
 40
0.5623468998
 40
0.6247382875
 40
0.6871785839
 40
0.7496824569
 40
0.8122481971
 40
0.8748551144
 40
1.0
 40
1.0
 40
1.0
 40
1.0
 10
10.9055678983
 20
-25.8762436399
 30
0.0
 10
11.0258276312
 20
-25.8759668769
 30
0.0
 10
11.2664149334
 20
-25.8636958501
 30
0.0
 10
11.6241055707
 20
-25.8134303981
 30
0.0
 10
11.9750747826
 20
-25.7277970324
 30
0.0
 10
12.3155835186
 20
-25.6083374496
 30
0.0
 10
12.6450471344
 20
-25.4615970311
 30
0.0
 10
13.0605921934
 20
-25.2209354378
 30
0.0
 10
13.4311109551
 20
-24.9104278999
 30
0.0
 10
13.7497960217
 20
-24.5524285872
 30
0.0
 10
13.9651715322
 20
-24.2638510685
 30
0.0
 10
14.1497036198
 20
-23.9541474495
 30
0.0
 10
14.2975613163
 20
-23.6249044157
 30
0.0
 10
14.4075065729
 20
-23.2809172969
 30
0.0
 10
14.5084089404
 20
-22.8103470975
 30
0.0
 10
14.5341213203
 20
-22.4481831561
 30
0.0
 10
14.5311661591
 20
-22.2078635286
 30
0.0
  0
SPLINE
  5
305
100
AcDbEntity
  8
RACCORDO
100
AcDbSpline
 62
250
  6
CONTINUOUS
 70
0
 71
3
 72
13
 73
9
 74
0
 42
0.0000001
 43
0.0000001
 44
0.0000000001
 40
0.0
 40
0.0
 40
0.0
 40
0.0
 40
0.1249897289
 40
0.2499898183
 40
0.3749909841
 40
0.4999931886
 40
0.7499966012
 40
1.0
 40
1.0
 40
1.0
 40
1.0
 10
14.5311661591
 20
-22.2078635286
 30
0.0
 10
14.5258119255
 20
-21.7721838273
 30
0.0
 10
14.5220811108
 20
-20.9007147632
 30
0.0
 10
14.5191199605
 20
-19.5935100036
 30
0.0
 10
14.5142649207
 20
-18.2862599332
 30
0.0
 10
14.5067349721
 20
-16.5432589757
 30
0.0
 10
14.4944576057
 20
-14.364521822
 30
0.0
 10
14.487881314
 20
-12.6215086584
 30
0.0
 10
14.4878905719
 20
-11.75
 30
0.0
  0
SPLINE
  5
306
100
AcDbEntity
  8
RACCORDO
100
AcDbSpline
 62
250
  6
CONTINUOUS
 70
0
 71
3
 72
29
 73
25
 74
0
 42
0.0000001
 43
0.0000001
 44
0.0000000001
 40
0.0
 40
0.0
 40
0.0
 40
0.0
 40
0.0312156607
 40
0.046840783
 40
0.0624662073
 40
0.0702789404
 40
0.0780918292
 40
0.0859047354
 40
0.0937175226
 40
0.109342699
 40
0.1249673983
 40
0.156215835
 40
0.1874632247
 40
0.2187106362
 40
0.2499595838
 40
0.3124605896
 40
0.3749630739
 40
0.4374666417
 40
0.4999706456
 40
0.5624743107
 40
0.6249776971
 40
0.7499843929
 40
0.874992036
 40
1.0
 40
1.0
 40
1.0
 40
1.0
 10
19.0054840338
 20
-37.0822354038
 30
0.0
 10
19.0227382331
 20
-36.8191253738
 30
0.0
 10
19.0516875412
 20
-36.4244894425
 30
0.0
 10
19.09914656
 20
-35.8989862585
 30
0.0
 10
19.1247346062
 20
-35.5699877054
 30
0.0
 10
19.1390959573
 20
-35.3063864661
 30
0.0
 10
19.1454781624
 20
-35.1084936681
 30
0.0
 10
19.1491299123
 20
-34.910543768
 30
0.0
 10
19.1545265621
 20
-34.6466264024
 30
0.0
 10
19.1606652815
 20
-34.3167254398
 30
0.0
 10
19.1707754637
 20
-33.7889059969
 30
0.0
 10
19.1847715838
 20
-33.1291786104
 30
0.0
 10
19.2026981375
 20
-32.3375425961
 30
0.0
 10
19.2238302455
 20
-31.5459771117
 30
0.0
 10
19.2582934214
 20
-30.4906991702
 30
0.0
 10
19.3016075408
 20
-29.1715606502
 30
0.0
 10
19.3425661169
 20
-27.5882233999
 30
0.0
 10
19.3728120768
 20
-26.0046282493
 30
0.0
 10
19.3952976985
 20
-24.4208932678
 30
0.0
 10
19.4076283815
 20
-22.8370460702
 30
0.0
 10
19.4122481987
 20
-20.7252034813
 30
0.0
 10
19.398899008
 20
-18.0854088218
 30
0.0
 10
19.3707609195
 20
-14.9177730712
 30
0.0
 10
19.3588930141
 20
-12.8059281912
 30
0.0
 10
19.3588912441
 20
-11.75
 30
0.0
  0
SPLINE
  5
307
100
AcDbEntity
  8
RACCORDO
100
AcDbSpline
 62
250
  6
CONTINUOUS
 70
0
 71
3
 72
17
 73
13
 74
0
 42
0.0000001
 43
0.0000001
 44
0.0000000001
 40
0.0
 40
0.0
 40
0.0
 40
0.0
 40
0.1974060407
 40
0.3828123717
 40
0.5508387541
 40
0.6971850043
 40
0.8180256659
 40
0.9101057091
 40
0.9446140739
 40
0.9711224389
 40
0.9895516674
 40
1.0
 40
1.0
 40
1.0
 40
1.0
 10
-17.0385032774
 20
-38.975743228
 30
0.0
 10
-17.037951881
 20
-39.0278704424
 30
0.0
 10
-17.0365469312
 20
-39.1289529301
 30
0.0
 10
-17.0334575794
 20
-39.2743852943
 30
0.0
 10
-17.0295110368
 20
-39.406305834
 30
0.0
 10
-17.0248475179
 20
-39.521148955
 30
0.0
 10
-17.0195843739
 20
-39.6158657586
 30
0.0
 10
-17.0145955565
 20
-39.6810566193
 30
0.0
 10
-17.0100801485
 20
-39.7211986341
 30
0.0
 10
-17.0070752465
 20
-39.7420400698
 30
0.0
 10
-17.0039797356
 20
-39.7561999822
 30
0.0
 10
-17.0016726821
 20
-39.763709987
 30
0.0
 10
-17.0
 20
-39.7659043081
 30
0.0
  0
SPLINE
  5
308
100
AcDbEntity
  8
RACCORDO
100
AcDbSpline
 62
250
  6
CONTINUOUS
 70
0
 71
3
 72
15
 73
11
 74
0
 42
0.0000001
 43
0.0000001
 44
0.0000000001
 40
0.0
 40
0.0
 40
0.0
 40
0.0
 40
0.3812503882
 40
0.5479629825
 40
0.6930582975
 40
0.8130259664
 40
0.9049657186
 40
0.9670809642
 40
0.9869356876
 40
1.0
 40
1.0
 40
1.0
 40
1.0
 10
-19.00548385
 20
-37.0822353411
 30
0.0
 10
-19.1029061554
 20
-37.0797231146
 30
0.0
 10
-19.2429002838
 20
-37.0742955269
 30
0.0
 10
-19.4196795177
 20
-37.0623979922
 30
0.0
 10
-19.5295846539
 20
-37.0523820084
 30
0.0
 10
-19.6202481687
 20
-37.0412881393
 30
0.0
 10
-19.6891539786
 20
-37.0293228118
 30
0.0
 10
-19.7325989996
 20
-37.0183276843
 30
0.0
 10
-19.7546102275
 20
-37.0082454458
 30
0.0
 10
-19.7615138317
 20
-37.0028552495
 30
0.0
 10
-19.7632457914
 20
-36.9999999998
 30
0.0
  0
SPLINE
  5
309
100
AcDbEntity
  8
RACCORDO
100
AcDbSpline
 62
250
  6
CONTINUOUS
 70
0
 71
3
 72
15
 73
11
 74
0
 42
0.0000001
 43
0.0000001
 44
0.0000000001
 40
0.0
 40
0.0
 40
0.0
 40
0.0
 40
0.3812344457
 40
0.5479440346
 40
0.6930387327
 40
0.8130076507
 40
0.9049502713
 40
0.9670704829
 40
0.9869292975
 40
1.0
 40
1.0
 40
1.0
 40
1.0
 10
-19.0053509516
 20
37.0823357824
 30
0.0
 10
-19.1027891272
 20
37.0798216194
 30
0.0
 10
-19.2428070381
 20
37.0743886088
 30
0.0
 10
-19.4196167884
 20
37.0624773955
 30
0.0
 10
-19.5295429708
 20
37.0524492625
 30
0.0
 10
-19.6202245961
 20
37.0413413974
 30
0.0
 10
-19.689144774
 20
37.0293608465
 30
0.0
 10
-19.7325988707
 20
37.0183509329
 30
0.0
 10
-19.7546143403
 20
37.008255569
 30
0.0
 10
-19.7615180963
 20
37.0028581462
 30
0.0
 10
-19.7632497511
 20
37.0
 30
0.0
  0
SPLINE
  5
30A
100
AcDbEntity
  8
RACCORDO
100
AcDbSpline
 62
250
  6
CONTINUOUS
 70
0
 71
3
 72
17
 73
13
 74
0
 42
0.0000001
 43
0.0000001
 44
0.0000000001
 40
0.0
 40
0.0
 40
0.0
 40
0.0
 40
0.197492941
 40
0.3829600431
 40
0.5510245841
 40
0.6973890262
 40
0.8182294758
 40
0.9102898252
 40
0.9447785196
 40
0.9712572677
 40
0.9896396294
 40
1.0
 40
1.0
 40
1.0
 40
1.0
 10
-17.0362166327
 20
38.9765284698
 30
0.0
 10
-17.0356969611
 20
39.0286104505
 30
0.0
 10
-17.034373751
 20
39.1296000863
 30
0.0
 10
-17.031466112
 20
39.2748939015
 30
0.0
 10
-17.0277529035
 20
39.4066785649
 30
0.0
 10
-17.0233667969
 20
39.5213956989
 30
0.0
 10
-17.0184157404
 20
39.6160044382
 30
0.0
 10
-17.013727339
 20
39.6811182228
 30
0.0
 10
-17.0094772053
 20
39.7212187924
 30
0.0
 10
-17.0066598712
 20
39.742028753
 30
0.0
 10
-17.0037367799
 20
39.7561678837
 30
0.0
 10
-17.0015924039
 20
39.7636621711
 30
0.0
 10
-16.9999999993
 20
39.7658825007
 30
0.0
  0
SPLINE
  5
30B
100
AcDbEntity
  8
RACCORDO
100
AcDbSpline
 62
250
  6
CONTINUOUS
 70
0
 71
3
 72
17
 73
13
 74
0
 42
0.0000001
 43
0.0000001
 44
0.0000000001
 40
0.0
 40
0.0
 40
0.0
 40
0.0
 40
0.1974843714
 40
0.382945636
 40
0.5510067049
 40
0.6973697318
 40
0.8182105884
 40
0.9102731471
 40
0.9447638002
 40
0.9712453452
 40
0.9896319458
 40
1.0
 40
1.0
 40
1.0
 40
1.0
 10
17.0364294242
 20
38.9764525414
 30
0.0
 10
17.0359054534
 20
39.0285390899
 30
0.0
 10
17.0345723763
 20
39.1295381279
 30
0.0
 10
17.0316455644
 20
39.2748460318
 30
0.0
 10
17.0279095119
 20
39.4066446269
 30
0.0
 10
17.0234974753
 20
39.5213747935
 30
0.0
 10
17.0185181186
 20
39.6159948466
 30
0.0
 10
17.0138030392
 20
39.6811167899
 30
0.0
 10
17.0095296138
 20
39.7212219645
 30
0.0
 10
17.006695936
 20
39.7420352645
 30
0.0
 10
17.0037578265
 20
39.7561766197
 30
0.0
 10
17.0015994355
 20
39.7636726223
 30
0.0
 10
17.0
 20
39.7658908361
 30
0.0
  0
SPLINE
  5
30C
100
AcDbEntity
  8
RACCORDO
100
AcDbSpline
 62
250
  6
CONTINUOUS
 70
0
 71
3
 72
15
 73
11
 74
0
 42
0.0000001
 43
0.0000001
 44
0.0000000001
 40
0.0
 40
0.0
 40
0.0
 40
0.0
 40
0.3812348655
 40
0.5479445452
 40
0.6930392566
 40
0.8130081201
 40
0.9049506306
 40
0.967070688
 40
0.9869294077
 40
1.0
 40
1.0
 40
1.0
 40
1.0
 10
19.0053498356
 20
37.0823363005
 30
0.0
 10
19.1027877116
 20
37.0798219121
 30
0.0
 10
19.2428051642
 20
37.074388614
 30
0.0
 10
19.4196143005
 20
37.0624771433
 30
0.0
 10
19.5295400298
 20
37.0524489081
 30
0.0
 10
19.6202212346
 20
37.0413410193
 30
0.0
 10
19.6891410442
 20
37.0293605178
 30
0.0
 10
19.7325948811
 20
37.0183507039
 30
0.0
 10
19.7546101902
 20
37.008255462
 30
0.0
 10
19.7615138927
 20
37.002858111
 30
0.0
 10
19.763245524
 20
36.9999999996
 30
0.0
  0
SPLINE
  5
30D
100
AcDbEntity
  8
RACCORDO
100
AcDbSpline
 62
250
  6
CONTINUOUS
 70
0
 71
3
 72
15
 73
11
 74
0
 42
0.0000001
 43
0.0000001
 44
0.0000000001
 40
0.0
 40
0.0
 40
0.0
 40
0.0
 40
0.3812499545
 40
0.5479624698
 40
0.6930577895
 40
0.8130255324
 40
0.9049654093
 40
0.9670808093
 40
0.9869356134
 40
1.0
 40
1.0
 40
1.0
 40
1.0
 10
19.0054839928
 20
-37.0822353898
 30
0.0
 10
19.1029066043
 20
-37.0797231685
 30
0.0
 10
19.2429012017
 20
-37.0742956076
 30
0.0
 10
19.4196810678
 20
-37.0623981185
 30
0.0
 10
19.52958668
 20
-37.0523821551
 30
0.0
 10
19.6202506404
 20
-37.0412882894
 30
0.0
 10
19.6891568436
 20
-37.029322942
 30
0.0
 10
19.7326021453
 20
-37.0183277784
 30
0.0
 10
19.7546135537
 20
-37.0082454905
 30
0.0
 10
19.7615172301
 20
-37.0028552679
 30
0.0
 10
19.763249224
 20
-37.0
 30
0.0
  0
SPLINE
  5
30E
100
AcDbEntity
  8
RACCORDO
100
AcDbSpline
 62
250
  6
CONTINUOUS
 70
0
 71
3
 72
17
 73
13
 74
0
 42
0.0000001
 43
0.0000001
 44
0.0000000001
 40
0.0
 40
0.0
 40
0.0
 40
0.0
 40
0.1974065583
 40
0.3828131831
 40
0.5508396511
 40
0.6971858112
 40
0.8180262571
 40
0.9101060239
 40
0.9446142529
 40
0.9711225008
 40
0.9895516514
 40
1.0
 40
1.0
 40
1.0
 40
1.0
 10
17.0385032526
 20
-38.975743094
 30
0.0
 10
17.037952196
 20
-39.0278699812
 30
0.0
 10
17.0365478145
 20
-39.128951785
 30
0.0
 10
17.0334590257
 20
-39.2743830941
 30
0.0
 10
17.0295127593
 20
-39.406302535
 30
0.0
 10
17.0248492632
 20
-39.521144569
 30
0.0
 10
17.01958593
 20
-39.6158603552
 30
0.0
 10
17.0145967972
 20
-39.6810504447
 30
0.0
 10
17.0100810435
 20
-39.7211919115
 30
0.0
 10
17.007075877
 20
-39.7420330412
 30
0.0
 10
17.0039801142
 20
-39.7561926991
 30
0.0
 10
17.0016728064
 20
-39.7637025742
 30
0.0
 10
16.9999999993
 20
-39.7658967742
 30
0.0
  0
SPLINE
  5
30F
100
AcDbEntity
  8
RACCORDO
100
AcDbSpline
 62
250
  6
CONTINUOUS
 70
0
 71
3
 72
9
 73
5
 74
0
 42
0.0000001
 43
0.0000001
 44
0.0000000001
 40
0.0
 40
0.0
 40
0.0
 40
0.0
 40
0.2781571981
 40
1.0
 40
1.0
 40
1.0
 40
1.0
 10
14.5311663062
 20
-22.2078635385
 30
0.0
 10
14.3949594384
 20
-22.2110280546
 30
0.0
 10
13.9053040802
 20
-22.223188243
 30
0.0
 10
13.4157000167
 20
-22.2379914503
 30
0.0
 10
13.0624122947
 20
-22.2519757559
 30
0.0
  0
SPLINE
  5
310
100
AcDbEntity
  8
RACCORDO
100
AcDbSpline
 62
250
  6
CONTINUOUS
 70
0
 71
3
 72
9
 73
5
 74
0
 42
0.0000001
 43
0.0000001
 44
0.0000000001
 40
0.0
 40
0.0
 40
0.0
 40
0.0
 40
0.2781572962
 40
1.0
 40
1.0
 40
1.0
 40
1.0
 10
-14.5311667144
 20
-22.2078942729
 30
0.0
 10
-14.394959763
 20
-22.2110589884
 30
0.0
 10
-13.905304278
 20
-22.2232198829
 30
0.0
 10
-13.4157000892
 20
-22.2380237805
 30
0.0
 10
-13.0624123373
 20
-22.2520087562
 30
0.0
  0
SPLINE
  5
311
100
AcDbEntity
  8
RACCORDO
100
AcDbSpline
 62
250
  6
CONTINUOUS
 70
0
 71
3
 72
9
 73
5
 74
0
 42
0.0000001
 43
0.0000001
 44
0.0000000001
 40
0.0
 40
0.0
 40
0.0
 40
0.0
 40
0.2781570362
 40
1.0
 40
1.0
 40
1.0
 40
1.0
 10
-14.5311623889
 20
22.2078420424
 30
0.0
 10
-14.3949557916
 20
22.2110075058
 30
0.0
 10
-13.905301128
 20
22.2231711601
 30
0.0
 10
-13.4156977802
 20
22.2379780217
 30
0.0
 10
-13.0624105329
 20
22.2519652294
 30
0.0
  0
SPLINE
  5
312
100
AcDbEntity
  8
RACCORDO
100
AcDbSpline
 62
250
  6
CONTINUOUS
 70
0
 71
3
 72
9
 73
5
 74
0
 42
0.0000001
 43
0.0000001
 44
0.0000000001
 40
0.0
 40
0.0
 40
0.0
 40
0.0
 40
0.2781596469
 40
1.0
 40
1.0
 40
1.0
 40
1.0
 10
14.5315915212
 20
22.2071710462
 30
0.0
 10
14.3953448385
 20
22.2103874187
 30
0.0
 10
13.9055513103
 20
22.2227462116
 30
0.0
 10
13.4158107148
 20
22.2377891764
 30
0.0
 10
13.0624297576
 20
22.2519985183
 30
0.0
  0
SPLINE
  5
313
100
AcDbEntity
  8
RACCORDO
100
AcDbSpline
 62
250
  6
CONTINUOUS
 70
0
 71
3
 72
10
 73
6
 74
0
 42
0.0000001
 43
0.0000001
 44
0.0000000001
 40
0.0
 40
0.0
 40
0.0
 40
0.0
 40
0.4999991772
 40
0.7499995661
 40
1.0
 40
1.0
 40
1.0
 40
1.0
 10
13.0624083251
 20
-22.2509500551
 30
0.0
 10
13.0543782909
 20
-20.5008113293
 30
0.0
 10
13.0521299801
 20
-17.8755570917
 30
0.0
 10
13.0572227224
 20
-14.3752435071
 30
0.0
 10
13.0601225993
 20
-12.6250815323
 30
0.0
 10
13.0601250317
 20
-11.75
 30
0.0
  0
LINE
  5
314
100
AcDbEntity
  8
RACCORDO
100
AcDbLine
 62
250
  6
CONTINUOUS
 10
13.0624062447
 20
-22.2509496877
 11
11.3782819825
 21
-22.2499920534
  0
SPLINE
  5
315
100
AcDbEntity
  8
RACCORDO
100
AcDbSpline
 62
250
  6
CONTINUOUS
 70
0
 71
3
 72
15
 73
11
 74
0
 42
0.0000001
 43
0.0000001
 44
0.0000000001
 40
0.0
 40
0.0
 40
0.0
 40
0.0
 40
0.1250649417
 40
0.2501273758
 40
0.3751575801
 40
0.5001275793
 40
0.6250399882
 40
0.749969944
 40
0.8749692979
 40
1.0
 40
1.0
 40
1.0
 40
1.0
 10
10.9500896948
 20
-24.2635727232
 30
0.0
 10
11.0850516487
 20
-24.2649587348
 30
0.0
 10
11.3559730376
 20
-24.2408483548
 30
0.0
 10
11.7470985256
 20
-24.1281150875
 30
0.0
 10
12.1116140346
 20
-23.9469195643
 30
0.0
 10
12.4358191828
 20
-23.700867021
 30
0.0
 10
12.707490226
 20
-23.3975797171
 30
0.0
 10
12.9111024188
 20
-23.0445422421
 30
0.0
 10
13.0367786107
 20
-22.656864895
 30
0.0
 10
13.0636649417
 20
-22.3858759362
 30
0.0
 10
13.0624062447
 20
-22.2509496877
 30
0.0
  0
SPLINE
  5
316
100
AcDbEntity
  8
RACCORDO
100
AcDbSpline
 62
250
  6
CONTINUOUS
 70
0
 71
3
 72
10
 73
6
 74
0
 42
0.0000001
 43
0.0000001
 44
0.0000000001
 40
0.0
 40
0.0
 40
0.0
 40
0.0
 40
0.5000002756
 40
0.7500004757
 40
1.0
 40
1.0
 40
1.0
 40
1.0
 10
5.7500902803
 20
-24.258515995
 30
0.0
 10
6.6167578291
 20
-24.2585162233
 30
0.0
 10
7.916759226
 20
-24.2608851467
 30
0.0
 10
9.6500903846
 20
-24.2614930197
 30
0.0
 10
10.5167630063
 20
-24.2612889049
 30
0.0
 10
10.9500896947
 20
-24.2635735382
 30
0.0
  0
SPLINE
  5
317
100
AcDbEntity
  8
RACCORDO
100
AcDbSpline
 62
250
  6
CONTINUOUS
 70
0
 71
3
 72
10
 73
6
 74
0
 42
0.0000001
 43
0.0000001
 44
0.0000000001
 40
0.0
 40
0.0
 40
0.0
 40
0.0
 40
0.2499995268
 40
0.4999997264
 40
1.0
 40
1.0
 40
1.0
 40
1.0
 10
-10.9502879965
 20
-24.2635747886
 30
0.0
 10
-10.5169372623
 20
-24.2612887472
 30
0.0
 10
-9.6502165324
 20
-24.2614931461
 30
0.0
 10
-7.9167891828
 20
-24.2608850713
 30
0.0
 10
-6.6167156427
 20
-24.2585160763
 30
0.0
 10
-5.75
 20
-24.2585159936
 30
0.0
  0
SPLINE
  5
318
100
AcDbEntity
  8
RACCORDO
100
AcDbSpline
 62
250
  6
CONTINUOUS
 70
0
 71
3
 72
21
 73
17
 74
0
 42
0.0000001
 43
0.0000001
 44
0.0000000001
 40
0.0
 40
0.0
 40
0.0
 40
0.0
 40
0.0635613271
 40
0.1321785112
 40
0.2047110821
 40
0.2800819898
 40
0.357192356
 40
0.3958750762
 40
0.4346091825
 40
0.5116767709
 40
0.5868026688
 40
0.6590652166
 40
0.7272503699
 40
0.7903635666
 40
0.847463931
 40
1.0
 40
1.0
 40
1.0
 40
1.0
 10
-10.9502879969
 20
-24.2635745049
 30
0.0
 10
-10.9503077081
 20
-24.22996392
 30
0.0
 10
-10.9510676855
 20
-24.1600698162
 30
0.0
 10
-10.9504812054
 20
-24.0518257427
 30
0.0
 10
-10.9471350555
 20
-23.9373234506
 30
0.0
 10
-10.9538661981
 20
-23.8184128376
 30
0.0
 10
-10.9650041058
 20
-23.7178725245
 30
0.0
 10
-10.9658539634
 20
-23.6360614625
 30
0.0
 10
-10.9603004803
 20
-23.5545220901
 30
0.0
 10
-10.9482469974
 20
-23.4542068023
 30
0.0
 10
-10.9466204473
 20
-23.3353535883
 30
0.0
 10
-10.9506569595
 20
-23.2214421536
 30
0.0
 10
-10.9504573637
 20
-23.1137812465
 30
0.0
 10
-10.9496420632
 20
-23.0141648096
 30
0.0
 10
-10.9500521101
 20
-22.8699353412
 30
0.0
 10
-10.9499944027
 20
-22.7590827036
 30
0.0
 10
-10.9499989131
 20
-22.6784231641
 30
0.0
  0
SPLINE
  5
319
100
AcDbEntity
  8
RACCORDO
100
AcDbSpline
 62
250
  6
CONTINUOUS
 70
0
 71
3
 72
15
 73
11
 74
0
 42
0.0000001
 43
0.0000001
 44
0.0000000001
 40
0.0
 40
0.0
 40
0.0
 40
0.0
 40
0.1250105902
 40
0.2499869656
 40
0.3748983144
 40
0.4997962616
 40
0.6247536895
 40
0.7497861404
 40
0.874876795
 40
1.0
 40
1.0
 40
1.0
 40
1.0
 10
-13.0624071988
 20
-22.2511628021
 30
0.0
 10
-13.0636423125
 20
-22.3860484206
 30
0.0
 10
-13.0366168446
 20
-22.6569280583
 30
0.0
 10
-12.9111146561
 20
-23.0445280487
 30
0.0
 10
-12.7074732307
 20
-23.3974079505
 30
0.0
 10
-12.4360437644
 20
-23.7007645419
 30
0.0
 10
-12.1118504958
 20
-23.9467008284
 30
0.0
 10
-11.7474356852
 20
-24.1280083963
 30
0.0
 10
-11.3562508971
 20
-24.2406764672
 30
0.0
 10
-11.0852940444
 20
-24.2649236932
 30
0.0
 10
-10.9502879969
 20
-24.2635745049
 30
0.0
  0
LINE
  5
31A
100
AcDbEntity
  8
RACCORDO
100
AcDbLine
 62
250
  6
CONTINUOUS
 10
-13.0624090762
 20
-22.2511629026
 11
-11.3782819824
 21
-22.2499919938
  0
SPLINE
  5
31B
100
AcDbEntity
  8
RACCORDO
100
AcDbSpline
 62
250
  6
CONTINUOUS
 70
0
 71
3
 72
10
 73
6
 74
0
 42
0.0000001
 43
0.0000001
 44
0.0000000001
 40
0.0
 40
0.0
 40
0.0
 40
0.0
 40
0.2500004337
 40
0.5000008243
 40
1.0
 40
1.0
 40
1.0
 40
1.0
 10
-13.0601251166
 20
-11.7505695424
 30
0.0
 10
-13.0601214586
 20
-12.6256213498
 30
0.0
 10
-13.0572233788
 20
-14.3757238812
 30
0.0
 10
-13.0521286019
 20
-17.8759185673
 30
0.0
 10
-13.0543787027
 20
-20.5010836329
 30
0.0
 10
-13.0624090762
 20
-22.2511629026
 30
0.0
  0
SPLINE
  5
31C
100
AcDbEntity
  8
RACCORDO
100
AcDbSpline
 62
250
  6
CONTINUOUS
 70
0
 71
3
 72
10
 73
6
 74
0
 42
0.0000001
 43
0.0000001
 44
0.0000000001
 40
0.0
 40
0.0
 40
0.0
 40
0.0
 40
0.4999991768
 40
0.749999566
 40
1.0
 40
1.0
 40
1.0
 40
1.0
 10
-13.0624062631
 20
22.2507369378
 30
0.0
 10
-13.0543543158
 20
20.5006338345
 30
0.0
 10
-13.0521348832
 20
17.8754327494
 30
0.0
 10
-13.0572219281
 20
14.3751902341
 30
0.0
 10
-13.0601226858
 20
12.6250637728
 30
0.0
 10
-13.0601250317
 20
11.75
 30
0.0
  0
LINE
  5
31D
100
AcDbEntity
  8
RACCORDO
100
AcDbLine
 62
250
  6
CONTINUOUS
 10
-13.0624036579
 20
22.2507364279
 11
-11.3782820082
 21
22.2499920855
  0
LINE
  5
31E
100
AcDbEntity
  8
DRAFT
100
AcDbLine
 62
7
  6
CONTINUOUS
 10
11.3501881239
 20
22.25
 11
11.3502094391
 21
11.75
  0
LINE
  5
31F
100
AcDbEntity
  8
DRAFT
100
AcDbLine
 62
7
  6
CONTINUOUS
 10
5.75
 20
22.6502147778
 11
10.95
 21
22.6502163102
  0
SPLINE
  5
320
100
AcDbEntity
  8
RACCORDO
100
AcDbSpline
 62
250
  6
CONTINUOUS
 70
0
 71
3
 72
10
 73
6
 74
0
 42
0.0000001
 43
0.0000001
 44
0.0000000001
 40
0.0
 40
0.0
 40
0.0
 40
0.0
 40
0.2500003836
 40
0.5000007946
 40
1.0
 40
1.0
 40
1.0
 40
1.0
 10
13.0601251162
 20
11.7499999384
 30
0.0
 10
13.0601209941
 20
12.6250865413
 30
0.0
 10
13.0572800723
 20
14.375259005
 30
0.0
 10
13.0520999811
 20
17.8755932783
 30
0.0
 10
13.0542607244
 20
20.5008641969
 30
0.0
 10
13.0624261655
 20
22.251012888
 30
0.0
  0
LINE
  5
321
100
AcDbEntity
  8
RACCORDO
100
AcDbLine
 62
250
  6
CONTINUOUS
 10
13.0624261655
 20
22.251012888
 11
11.378282002
 21
22.2499920254
  0
SPLINE
  5
322
100
AcDbEntity
  8
RACCORDO
100
AcDbSpline
 62
250
  6
CONTINUOUS
 70
0
 71
3
 72
15
 73
11
 74
0
 42
0.0000001
 43
0.0000001
 44
0.0000000001
 40
0.0
 40
0.0
 40
0.0
 40
0.0
 40
0.1250122699
 40
0.2499942964
 40
0.3749109344
 40
0.4998106246
 40
0.6247682162
 40
0.7497986971
 40
0.8748857801
 40
1.0
 40
1.0
 40
1.0
 40
1.0
 10
13.0624232899
 20
22.251012767
 30
0.0
 10
13.0636853277
 20
22.3859067921
 30
0.0
 10
13.0366848337
 20
22.6568165792
 30
0.0
 10
12.911139254
 20
23.0444373581
 30
0.0
 10
12.7075138442
 20
23.3973637471
 30
0.0
 10
12.4360665001
 20
23.7007453855
 30
0.0
 10
12.111859957
 20
23.9466983414
 30
0.0
 10
11.7474263887
 20
24.1280023873
 30
0.0
 10
11.3562387909
 20
24.2406739848
 30
0.0
 10
11.0852814363
 20
24.2649259764
 30
0.0
 10
10.9502782687
 20
24.2635734793
 30
0.0
  0
SPLINE
  5
323
100
AcDbEntity
  8
RACCORDO
100
AcDbSpline
 62
250
  6
CONTINUOUS
 70
0
 71
3
 72
21
 73
17
 74
0
 42
0.0000001
 43
0.0000001
 44
0.0000000001
 40
0.0
 40
0.0
 40
0.0
 40
0.0
 40
0.0635633942
 40
0.1321806681
 40
0.2047120474
 40
0.2800811414
 40
0.3571860669
 40
0.3958837838
 40
0.4346251682
 40
0.5116796814
 40
0.586808898
 40
0.6590660701
 40
0.7272506139
 40
0.79036431
 40
0.8474641979
 40
1.0
 40
1.0
 40
1.0
 40
1.0
 10
10.9502782687
 20
24.2635734793
 30
0.0
 10
10.9502972789
 20
24.2299649418
 30
0.0
 10
10.951009935
 20
24.1600761687
 30
0.0
 10
10.9504636168
 20
24.0518410803
 30
0.0
 10
10.9473338254
 20
23.9373519071
 30
0.0
 10
10.9536420617
 20
23.8184480905
 30
0.0
 10
10.9640773951
 20
23.7178461212
 30
0.0
 10
10.9648604906
 20
23.6360455113
 30
0.0
 10
10.9596435024
 20
23.5544914947
 30
0.0
 10
10.9483319101
 20
23.4541096116
 30
0.0
 10
10.9468207076
 20
23.3352946262
 30
0.0
 10
10.9506134333
 20
23.2213857649
 30
0.0
 10
10.9504265813
 20
23.1137401401
 30
0.0
 10
10.9496621798
 20
23.0141325066
 30
0.0
 10
10.9500485381
 20
22.8699169069
 30
0.0
 10
10.949994616
 20
22.759074903
 30
0.0
 10
10.949998954
 20
22.678423042
 30
0.0
  0
SPLINE
  5
324
100
AcDbEntity
  8
RACCORDO
100
AcDbSpline
 62
250
  6
CONTINUOUS
 70
0
 71
3
 72
10
 73
6
 74
0
 42
0.0000001
 43
0.0000001
 44
0.0000000001
 40
0.0
 40
0.0
 40
0.0
 40
0.0
 40
0.2499995263
 40
0.4999997259
 40
1.0
 40
1.0
 40
1.0
 40
1.0
 10
10.9502782684
 20
24.2635737413
 30
0.0
 10
10.5169283606
 20
24.2612848912
 30
0.0
 10
9.6502092286
 20
24.2614951464
 30
0.0
 10
7.9167851348
 20
24.260883969
 30
0.0
 10
6.6167140218
 20
24.2585160448
 30
0.0
 10
5.75
 20
24.2585159936
 30
0.0
  0
SPLINE
  5
325
100
AcDbEntity
  8
RACCORDO
100
AcDbSpline
 62
250
  6
CONTINUOUS
 70
0
 71
3
 72
10
 73
6
 74
0
 42
0.0000001
 43
0.0000001
 44
0.0000000001
 40
0.0
 40
0.0
 40
0.0
 40
0.0
 40
0.5000002754
 40
0.7500004756
 40
1.0
 40
1.0
 40
1.0
 40
1.0
 10
-5.7500900886
 20
24.258515995
 30
0.0
 10
-6.6167576369
 20
24.2585162049
 30
0.0
 10
-7.9167590382
 20
24.2608841194
 30
0.0
 10
-9.6500901846
 20
24.2614949575
 30
0.0
 10
-10.516762831
 20
24.2612854155
 30
0.0
 10
-10.9500895042
 20
24.2635729498
 30
0.0
  0
SPLINE
  5
326
100
AcDbEntity
  8
RACCORDO
100
AcDbSpline
 62
250
  6
CONTINUOUS
 70
0
 71
3
 72
15
 73
11
 74
0
 42
0.0000001
 43
0.0000001
 44
0.0000000001
 40
0.0
 40
0.0
 40
0.0
 40
0.0
 40
0.1250648293
 40
0.2501272541
 40
0.375157461
 40
0.5001274434
 40
0.6250398585
 40
0.7499698302
 40
0.8749692579
 40
1.0
 40
1.0
 40
1.0
 40
1.0
 10
-10.9500895043
 20
24.2635721352
 30
0.0
 10
-11.0850601745
 20
24.2649599666
 30
0.0
 10
-11.3559992502
 20
24.240843296
 30
0.0
 10
-11.7471488106
 20
24.1280978448
 30
0.0
 10
-12.1116832084
 20
23.9468790313
 30
0.0
 10
-12.4358986106
 20
23.7007956308
 30
0.0
 10
-12.7075714842
 20
23.3974730966
 30
0.0
 10
-12.9111681542
 20
23.0443957945
 30
0.0
 10
-13.0368235874
 20
22.6566818574
 30
0.0
 10
-13.0636724513
 20
22.3856714789
 30
0.0
 10
-13.0624036579
 20
22.2507364279
 30
0.0
  0
SPLINE
  5
327
100
AcDbEntity
  8
RACCORDO
100
AcDbSpline
 62
7
  6
CONTINUOUS
 70
0
 71
3
 72
15
 73
11
 74
0
 42
0.0000001
 43
0.0000001
 44
0.0000000001
 40
0.0
 40
0.0
 40
0.0
 40
0.0
 40
0.2277657831
 40
0.5264372873
 40
0.7075477148
 40
0.8025720207
 40
0.8503179468
 40
0.8986063993
 40
0.962371215
 40
1.0
 40
1.0
 40
1.0
 40
1.0
 10
-46.7878375875
 20
25.8762502582
 30
0.0
 10
-46.7909359835
 20
25.8767010458
 30
0.0
 10
-46.7932347788
 20
25.8864400838
 30
0.0
 10
-46.7919998703
 20
25.8950415087
 30
0.0
 10
-46.7922151929
 20
25.903108374
 30
0.0
 10
-46.7922392196
 20
25.9075778198
 30
0.0
 10
-46.7941030349
 20
25.9099849825
 30
0.0
 10
-46.7965358745
 20
25.9092246379
 30
0.0
 10
-46.7980175664
 20
25.9079807089
 30
0.0
 10
-46.7993308419
 20
25.9072255954
 30
0.0
 10
-46.7995491355
 20
25.9067566434
 30
0.0
  0
LINE
  5
328
100
AcDbEntity
  8
RACCORDO
100
AcDbLine
 62
7
  6
CONTINUOUS
 10
-47.4286656803
 20
24.2628423702
 11
-47.4297301455
 21
24.2615248342
  0
SPLINE
  5
329
100
AcDbEntity
  8
RACCORDO
100
AcDbSpline
 62
7
  6
CONTINUOUS
 70
0
 71
3
 72
15
 73
11
 74
0
 42
0.0000001
 43
0.0000001
 44
0.0000000001
 40
0.0
 40
0.0
 40
0.0
 40
0.0
 40
0.037629858
 40
0.1014200274
 40
0.149670038
 40
0.1973938808
 40
0.2923644135
 40
0.4734526883
 40
0.7720419933
 40
1.0
 40
1.0
 40
1.0
 40
1.0
 10
-46.7995491362
 20
-25.9067566339
 30
0.0
 10
-46.7993353793
 20
-25.9072277565
 30
0.0
 10
-46.7980136869
 20
-25.9079795275
 30
0.0
 10
-46.7965370464
 20
-25.9092275479
 30
0.0
 10
-46.7941031705
 20
-25.9099834531
 30
0.0
 10
-46.7922392188
 20
-25.9075800982
 30
0.0
 10
-46.7922145516
 20
-25.9031095284
 30
0.0
 10
-46.7919994223
 20
-25.8950502566
 30
0.0
 10
-46.7932364047
 20
-25.8864131078
 30
0.0
 10
-46.790934251
 20
-25.876742651
 30
0.0
 10
-46.787840192
 20
-25.8762436399
 30
0.0
  0
SPLINE
  5
32A
100
AcDbEntity
  8
RACCORDO
100
AcDbSpline
 62
250
  6
CONTINUOUS
 70
0
 71
3
 72
25
 73
21
 74
0
 42
0.0000001
 43
0.0000001
 44
0.0000000001
 40
0.0
 40
0.0
 40
0.0
 40
0.0
 40
0.1250408172
 40
0.2500792316
 40
0.375120121
 40
0.4376409906
 40
0.5001600612
 40
0.5626750157
 40
0.625183919
 40
0.6876842384
 40
0.7189306604
 40
0.7501746306
 40
0.7814187923
 40
0.8126677212
 40
0.875174038
 40
0.9064280712
 40
0.9220541676
 40
0.937670401
 40
0.9688325303
 40
1.0
 40
1.0
 40
1.0
 40
1.0
 10
-44.1664530851
 20
11.75
 30
0.0
 10
-44.1664521822
 20
12.8059210444
 30
0.0
 10
-44.1688259956
 20
14.9177431668
 30
0.0
 10
-44.1782947691
 20
18.0854744779
 30
0.0
 10
-44.1912177291
 20
20.725230275
 30
0.0
 10
-44.2016414024
 20
22.8370399272
 30
0.0
 10
-44.207464688
 20
24.4208578434
 30
0.0
 10
-44.2091829452
 20
26.0045881643
 30
0.0
 10
-44.2033389007
 20
27.5881515096
 30
0.0
 10
-44.1936441294
 20
28.9076361625
 30
0.0
 10
-44.1836581539
 20
29.9630870035
 30
0.0
 10
-44.1754942182
 20
30.754596804
 30
0.0
 10
-44.165040843
 20
31.5461037088
 30
0.0
 10
-44.1461457291
 20
32.6015059866
 30
0.0
 10
-44.1272013574
 20
33.6569990989
 30
0.0
 10
-44.1170506558
 20
34.5806682169
 30
0.0
 10
-44.1131331924
 20
35.1084206427
 30
0.0
 10
-44.1148780515
 20
35.6353879756
 30
0.0
 10
-44.1211370234
 20
36.2937189437
 30
0.0
 10
-44.0953395211
 20
36.8197637267
 30
0.0
 10
-44.0772194754
 20
37.0823363934
 30
0.0
  0
SPLINE
  5
32B
100
AcDbEntity
  8
RACCORDO
100
AcDbSpline
 62
250
  6
CONTINUOUS
 70
0
 71
3
 72
22
 73
18
 74
0
 42
0.0000001
 43
0.0000001
 44
0.0000000001
 40
0.0
 40
0.0
 40
0.0
 40
0.0
 40
0.0016236513
 40
0.0053088088
 40
0.0113183886
 40
0.0196902408
 40
0.0434839788
 40
0.0764969542
 40
0.118417859
 40
0.168839882
 40
0.2272729801
 40
0.2931582222
 40
0.3658541294
 40
0.4446658072
 40
0.6175303968
 40
0.8050592691
 40
1.0
 40
1.0
 40
1.0
 40
1.0
 10
-43.1118125488
 20
-39.7659041717
 30
0.0
 10
-43.1103158926
 20
-39.7659811828
 30
0.0
 10
-43.1071829733
 20
-39.7605131116
 30
0.0
 10
-43.1055895971
 20
-39.7511215788
 30
0.0
 10
-43.1032100177
 20
-39.7341080731
 30
0.0
 10
-43.1008999623
 20
-39.6992261735
 30
0.0
 10
-43.0989802717
 20
-39.6388753601
 30
0.0
 10
-43.0981188553
 20
-39.54785178
 30
0.0
 10
-43.0981522272
 20
-39.4321082984
 30
0.0
 10
-43.0989370153
 20
-39.2929569565
 30
0.0
 10
-43.1003998072
 20
-39.1316727508
 30
0.0
 10
-43.1025965384
 20
-38.9498423199
 30
0.0
 10
-43.1056475185
 20
-38.7492102751
 30
0.0
 10
-43.1112294398
 20
-38.4498652592
 30
0.0
 10
-43.1209175857
 20
-38.0445891853
 30
0.0
 10
-43.1369748908
 20
-37.532260275
 30
0.0
 10
-43.1525938677
 20
-37.1795632649
 30
0.0
 10
-43.162474852
 20
-36.9999037469
 30
0.0
  0
SPLINE
  5
32C
100
AcDbEntity
  8
RACCORDO
100
AcDbSpline
 62
250
  6
CONTINUOUS
 70
0
 71
3
 72
11
 73
7
 74
0
 42
0.0000001
 43
0.0000001
 44
0.0000000001
 40
0.0
 40
0.0
 40
0.0
 40
0.0
 40
0.2500013141
 40
0.5000010451
 40
0.7500007551
 40
1.0
 40
1.0
 40
1.0
 40
1.0
 10
-46.5159608187
 20
11.75
 30
0.0
 10
-46.5159735915
 20
12.6214495565
 30
0.0
 10
-46.522984515
 20
14.3643335892
 30
0.0
 10
-46.5313699129
 20
16.9786631492
 30
0.0
 10
-46.5286409859
 20
19.5929853914
 30
0.0
 10
-46.5142538998
 20
21.3358862912
 30
0.0
 10
-46.4976818231
 20
22.2071710463
 30
0.0
  0
SPLINE
  5
32D
100
AcDbEntity
  8
RACCORDO
100
AcDbSpline
 62
250
  6
CONTINUOUS
 70
0
 71
3
 72
25
 73
21
 74
0
 42
0.0000001
 43
0.0000001
 44
0.0000000001
 40
0.0
 40
0.0
 40
0.0
 40
0.0
 40
0.1949976899
 40
0.3838970861
 40
0.4731827244
 40
0.5574365114
 40
0.6362055707
 40
0.7094475441
 40
0.776095312
 40
0.8348060849
 40
0.8844329989
 40
0.9250109439
 40
0.942275487
 40
0.9574363805
 40
0.9702724428
 40
0.9807703094
 40
0.9889556319
 40
0.9948654037
 40
0.9985248801
 40
1.0
 40
1.0
 40
1.0
 40
1.0
 10
-46.4976818231
 20
22.2071710463
 30
0.0
 10
-46.4931251505
 20
22.4467560919
 30
0.0
 10
-46.4930010485
 20
22.9186285129
 30
0.0
 10
-46.5127307957
 20
23.4999211445
 30
0.0
 10
-46.5417790952
 20
23.944400035
 30
0.0
 10
-46.5690730535
 20
24.2532813386
 30
0.0
 10
-46.6008073296
 20
24.5418962735
 30
0.0
 10
-46.6334293638
 20
24.8086175924
 30
0.0
 10
-46.6651644019
 20
25.0506030816
 30
0.0
 10
-46.6946384765
 20
25.2636135109
 30
0.0
 10
-46.7216287319
 20
25.4446110942
 30
0.0
 10
-46.7422007407
 20
25.5750751422
 30
0.0
 10
-46.7545855698
 20
25.6639226024
 30
0.0
 10
-46.761787895
 20
25.7190947865
 30
0.0
 10
-46.768047215
 20
25.7659268991
 30
0.0
 10
-46.7732793669
 20
25.8044642226
 30
0.0
 10
-46.7776997568
 20
25.8339530813
 30
0.0
 10
-46.7811055845
 20
25.8564429414
 30
0.0
 10
-46.784246685
 20
25.8679481193
 30
0.0
 10
-46.7860449369
 20
25.8759811136
 30
0.0
 10
-46.7878375875
 20
25.8762502582
 30
0.0
  0
SPLINE
  5
32E
100
AcDbEntity
  8
RACCORDO
100
AcDbSpline
 62
250
  6
CONTINUOUS
 70
0
 71
3
 72
16
 73
12
 74
0
 42
0.0000001
 43
0.0000001
 44
0.0000000001
 40
0.0
 40
0.0
 40
0.0
 40
0.0
 40
0.1714282854
 40
0.264839089
 40
0.4107852563
 40
0.5467026119
 40
0.693484964
 40
0.8293887594
 40
0.9310013737
 40
0.9857456688
 40
1.0
 40
1.0
 40
1.0
 40
1.0
 10
-44.036926926
 20
38.9764531599
 30
0.0
 10
-44.0419327509
 20
38.9821136909
 30
0.0
 10
-44.0456849543
 20
38.993643136
 30
0.0
 10
-44.0535632842
 20
39.0098475832
 30
0.0
 10
-44.0614058642
 20
39.0244636277
 30
0.0
 10
-44.0716521471
 20
39.0403378615
 30
0.0
 10
-44.0815853393
 20
39.0558894119
 30
0.0
 10
-44.0905705848
 20
39.0702456314
 30
0.0
 10
-44.0961952255
 20
39.0819178029
 30
0.0
 10
-44.100325895
 20
39.0881284681
 30
0.0
 10
-44.1007281164
 20
39.0914406682
 30
0.0
 10
-44.1011944612
 20
39.0918617509
 30
0.0
  0
SPLINE
  5
32F
100
AcDbEntity
  8
RACCORDO
100
AcDbSpline
 62
250
  6
CONTINUOUS
 70
0
 71
3
 72
22
 73
18
 74
0
 42
0.0000001
 43
0.0000001
 44
0.0000000001
 40
0.0
 40
0.0
 40
0.0
 40
0.0
 40
0.0008661156
 40
0.004125325
 40
0.0097775359
 40
0.017802958
 40
0.0410019166
 40
0.0732014386
 40
0.1140145093
 40
0.1630541326
 40
0.2201530119
 40
0.2848207499
 40
0.3565758046
 40
0.4349604284
 40
0.6090299011
 40
0.8001447696
 40
1.0
 40
1.0
 40
1.0
 40
1.0
 10
-47.4280844579
 20
-24.2635727232
 30
0.0
 10
-47.4277202336
 20
-24.2640265603
 30
0.0
 10
-47.4263687006
 20
-24.2589924962
 30
0.0
 10
-47.4263739945
 20
-24.2549997199
 30
0.0
 10
-47.4249381293
 20
-24.2421436189
 30
0.0
 10
-47.4233583565
 20
-24.2183864651
 30
0.0
 10
-47.4202275581
 20
-24.1751628867
 30
0.0
 10
-47.4160612243
 20
-24.1110019395
 30
0.0
 10
-47.4100842403
 20
-24.0290835341
 30
0.0
 10
-47.4026968174
 20
-23.9306750429
 30
0.0
 10
-47.3942655683
 20
-23.8162096967
 30
0.0
 10
-47.3849253969
 20
-23.686529329
 30
0.0
 10
-47.3748592105
 20
-23.5425561296
 30
0.0
 10
-47.3610708097
 20
-23.3251651399
 30
0.0
 10
-47.3468143578
 20
-23.0274605329
 30
0.0
 10
-47.3367955426
 20
-22.6479330536
 30
0.0
 10
-47.3358669195
 20
-22.3852187548
 30
0.0
 10
-47.3373008453
 20
-22.2509496877
 30
0.0
  0
SPLINE
  5
330
100
AcDbEntity
  8
RACCORDO
100
AcDbSpline
 62
250
  6
CONTINUOUS
 70
0
 71
3
 72
18
 73
14
 74
0
 42
0.0000001
 43
0.0000001
 44
0.0000000001
 40
0.0
 40
0.0
 40
0.0
 40
0.0
 40
0.2243506718
 40
0.423898969
 40
0.5962007237
 40
0.7395689528
 40
0.8526000512
 40
0.8973919863
 40
0.9342100066
 40
0.9629370226
 40
0.9834972682
 40
0.9958607733
 40
1.0
 40
1.0
 40
1.0
 40
1.0
 10
-47.3373008453
 20
-22.2509496877
 30
0.0
 10
-47.3602662265
 20
-22.2509588314
 30
0.0
 10
-47.4036583194
 20
-22.2507390836
 30
0.0
 10
-47.4646841343
 20
-22.2501590574
 30
0.0
 10
-47.5174266495
 20
-22.250035931
 30
0.0
 10
-47.5613030669
 20
-22.2502081434
 30
0.0
 10
-47.5921498801
 20
-22.2502478207
 30
0.0
 10
-47.6120497352
 20
-22.2502857219
 30
0.0
 10
-47.6233957466
 20
-22.2501940338
 30
0.0
 10
-47.6320762677
 20
-22.2504047337
 30
0.0
 10
-47.6386900591
 20
-22.2499171549
 30
0.0
 10
-47.641951145
 20
-22.2507861942
 30
0.0
 10
-47.6441936149
 20
-22.249898069
 30
0.0
 10
-47.6443895042
 20
-22.2502737749
 30
0.0
  0
SPLINE
  5
331
100
AcDbEntity
  8
RACCORDO
100
AcDbSpline
 62
250
  6
CONTINUOUS
 70
0
 71
3
 72
11
 73
7
 74
0
 42
0.0000001
 43
0.0000001
 44
0.0000000001
 40
0.0
 40
0.0
 40
0.0
 40
0.0
 40
0.2499991647
 40
0.4999995248
 40
0.7499997334
 40
1.0
 40
1.0
 40
1.0
 40
1.0
 10
-47.3372981005
 20
-22.2509500551
 30
0.0
 10
-47.3425433957
 20
-21.3758881158
 30
0.0
 10
-47.3468779657
 20
-19.6257257113
 30
0.0
 10
-47.3466957729
 20
-17.0004855266
 30
0.0
 10
-47.3432146817
 20
-14.3752428403
 30
0.0
 10
-47.3402971476
 20
-12.6250815167
 30
0.0
 10
-47.3402955567
 20
-11.75
 30
0.0
  0
SPLINE
  5
332
100
AcDbEntity
  8
RACCORDO
100
AcDbSpline
 62
250
  6
CONTINUOUS
 70
0
 71
3
 72
20
 73
16
 74
0
 42
0.0000001
 43
0.0000001
 44
0.0000000001
 40
0.0
 40
0.0
 40
0.0
 40
0.0
 40
0.1941223557
 40
0.3786893747
 40
0.5481703308
 40
0.6970482853
 40
0.7621233404
 40
0.8202305511
 40
0.8709408666
 40
0.9138290208
 40
0.9484560378
 40
0.9744655044
 40
0.9916145794
 40
0.9968635654
 40
1.0
 40
1.0
 40
1.0
 40
1.0
 10
-44.0772194754
 20
37.0823363934
 30
0.0
 10
-44.0687735833
 20
37.2047398851
 30
0.0
 10
-44.0562500442
 20
37.44379437
 30
0.0
 10
-44.044193543
 20
37.7900563713
 30
0.0
 10
-44.0353822445
 20
38.1078102502
 30
0.0
 10
-44.030447131
 20
38.3501105236
 30
0.0
 10
-44.0279517874
 20
38.5220484365
 30
0.0
 10
-44.0267503291
 20
38.6319486771
 30
0.0
 10
-44.0260753171
 20
38.7278372623
 30
0.0
 10
-44.025977044
 20
38.8088666646
 30
0.0
 10
-44.0266094976
 20
38.8743412749
 30
0.0
 10
-44.0283444129
 20
38.9233811868
 30
0.0
 10
-44.0305872325
 20
38.9540981381
 30
0.0
 10
-44.0337600581
 20
38.9697897614
 30
0.0
 10
-44.0356139959
 20
38.97496789
 30
0.0
 10
-44.036926926
 20
38.9764531599
 30
0.0
  0
SPLINE
  5
333
100
AcDbEntity
  8
RACCORDO
100
AcDbSpline
 62
250
  6
CONTINUOUS
 70
0
 71
3
 72
20
 73
16
 74
0
 42
0.0000001
 43
0.0000001
 44
0.0000000001
 40
0.0
 40
0.0
 40
0.0
 40
0.0
 40
0.0030521531
 40
0.0082295521
 40
0.02534865
 40
0.051437852
 40
0.0861832179
 40
0.1291750416
 40
0.1799448465
 40
0.2380685811
 40
0.3031422733
 40
0.4520191031
 40
0.6214811948
 40
0.8059931749
 40
1.0
 40
1.0
 40
1.0
 40
1.0
 10
-44.0367449233
 20
-38.9757433355
 30
0.0
 10
-44.0353183018
 20
-38.9744454622
 30
0.0
 10
-44.0332727718
 20
-38.969367436
 30
0.0
 10
-44.0299622628
 20
-38.9538811169
 30
0.0
 10
-44.0277386715
 20
-38.9231203933
 30
0.0
 10
-44.0261465283
 20
-38.8740134113
 30
0.0
 10
-44.0257143141
 20
-38.8083482153
 30
0.0
 10
-44.0259980312
 20
-38.7271653507
 30
0.0
 10
-44.0267844578
 20
-38.6311847
 30
0.0
 10
-44.0280141728
 20
-38.5212636941
 30
0.0
 10
-44.0304765326
 20
-38.3493560795
 30
0.0
 10
-44.0353723872
 20
-38.1071246716
 30
0.0
 10
-44.0441988858
 20
-37.7894920829
 30
0.0
 10
-44.0563110523
 20
-37.4434321198
 30
0.0
 10
-44.0688013527
 20
-37.2045402791
 30
0.0
 10
-44.0772030075
 20
-37.0822354038
 30
0.0
  0
SPLINE
  5
334
100
AcDbEntity
  8
RACCORDO
100
AcDbSpline
 62
250
  6
CONTINUOUS
 70
0
 71
3
 72
18
 73
14
 74
0
 42
0.0000001
 43
0.0000001
 44
0.0000000001
 40
0.0
 40
0.0
 40
0.0
 40
0.0
 40
0.0140993035
 40
0.0351169782
 40
0.0682636162
 40
0.168855178
 40
0.3035995304
 40
0.4484753648
 40
0.5834346989
 40
0.6534988588
 40
0.7231606002
 40
0.8234135894
 40
1.0
 40
1.0
 40
1.0
 40
1.0
 10
-44.1011944612
 20
-39.0918617509
 30
0.0
 10
-44.1007104567
 20
-39.0914611983
 30
0.0
 10
-44.1005730463
 20
-39.0896908629
 30
0.0
 10
-44.0990381067
 20
-39.0871172556
 30
0.0
 10
-44.096256817
 20
-39.0807593672
 30
0.0
 10
-44.0904220873
 20
-39.0703289397
 30
0.0
 10
-44.0816006
 20
-39.0558476308
 30
0.0
 10
-44.0711554033
 20
-39.0406121279
 30
0.0
 10
-44.0638544044
 20
-39.0267461229
 30
0.0
 10
-44.056773362
 20
-39.0168453607
 30
0.0
 10
-44.0505566045
 20
-39.007809496
 30
0.0
 10
-44.0507127049
 20
-38.9917143909
 30
0.0
 10
-44.0425744605
 20
-38.9810282734
 30
0.0
 10
-44.0367449233
 20
-38.9757433355
 30
0.0
  0
SPLINE
  5
335
100
AcDbEntity
  8
RACCORDO
100
AcDbSpline
 62
250
  6
CONTINUOUS
 70
0
 71
3
 72
23
 73
19
 74
0
 42
0.0000001
 43
0.0000001
 44
0.0000000001
 40
0.0
 40
0.0
 40
0.0
 40
0.0
 40
0.1250004297
 40
0.2500010311
 40
0.3750015562
 40
0.5000014818
 40
0.5625016781
 40
0.6250018532
 40
0.6875020498
 40
0.7500022712
 40
0.8125024984
 40
0.8437526085
 40
0.8750027177
 40
0.9062528258
 40
0.9218778957
 40
0.9375029712
 40
0.9687518925
 40
1.0
 40
1.0
 40
1.0
 40
1.0
 10
-43.4248778623
 20
11.7500002799
 30
0.0
 10
-43.4248778605
 20
12.8023201168
 30
0.0
 10
-43.4365964358
 20
14.906958531
 30
0.0
 10
-43.4704914286
 20
18.0637343717
 30
0.0
 10
-43.5019013169
 20
21.2205403967
 30
0.0
 10
-43.5042810748
 20
23.851416209
 30
0.0
 10
-43.4813718222
 20
25.9559510947
 30
0.0
 10
-43.4508021348
 20
27.5341516225
 30
0.0
 10
-43.4091564961
 20
29.1120885631
 30
0.0
 10
-43.3616036394
 20
30.6898546088
 30
0.0
 10
-43.31746995
 20
32.0045159386
 30
0.0
 10
-43.2861478367
 20
33.0563715055
 30
0.0
 10
-43.265818898
 20
33.8453527956
 30
0.0
 10
-43.2521274052
 20
34.5029116998
 30
0.0
 10
-43.2433341761
 20
35.0290030722
 30
0.0
 10
-43.2364329105
 20
35.5550936767
 30
0.0
 10
-43.2219631534
 20
36.2127408672
 30
0.0
 10
-43.1850811614
 20
36.7377884092
 30
0.0
 10
-43.1624717662
 20
36.9998781305
 30
0.0
  0
SPLINE
  5
336
100
AcDbEntity
  8
RACCORDO
100
AcDbSpline
 62
250
  6
CONTINUOUS
 70
0
 71
3
 72
26
 73
22
 74
0
 42
0.0000001
 43
0.0000001
 44
0.0000000001
 40
0.0
 40
0.0
 40
0.0
 40
0.0
 40
0.0005108141
 40
0.0015212034
 40
0.0051811717
 40
0.0110394956
 40
0.0191571549
 40
0.029657017
 40
0.0425325926
 40
0.0577375758
 40
0.0749521622
 40
0.1155274915
 40
0.1651280347
 40
0.2238433365
 40
0.2904892734
 40
0.3637214154
 40
0.4425060464
 40
0.5267701301
 40
0.6160681163
 40
0.804932615
 40
1.0
 40
1.0
 40
1.0
 40
1.0
 10
-46.787840192
 20
-25.8762436399
 30
0.0
 10
-46.7872200137
 20
-25.8761472405
 30
0.0
 10
-46.7860165058
 20
-25.8743289094
 30
0.0
 10
-46.7839898927
 20
-25.868596038
 30
0.0
 10
-46.7812491617
 20
-25.8556374495
 30
0.0
 10
-46.7776607975
 20
-25.8344375072
 30
0.0
 10
-46.7732316019
 20
-25.8046166417
 30
0.0
 10
-46.768012063
 20
-25.7663042669
 30
0.0
 10
-46.7618084986
 20
-25.7192985064
 30
0.0
 10
-46.7546763882
 20
-25.6641075786
 30
0.0
 10
-46.7421796598
 20
-25.5752912425
 30
0.0
 10
-46.7217212195
 20
-25.4449366836
 30
0.0
 10
-46.6946692383
 20
-25.2640062496
 30
0.0
 10
-46.6652382513
 20
-25.0510553476
 30
0.0
 10
-46.6334987515
 20
-24.8091195183
 30
0.0
 10
-46.6008427982
 20
-24.5424416376
 30
0.0
 10
-46.5691441186
 20
-24.2538507652
 30
0.0
 10
-46.5418312955
 20
-23.9449748054
 30
0.0
 10
-46.5127964917
 20
-23.5005844957
 30
0.0
 10
-46.4927883054
 20
-22.9193341035
 30
0.0
 10
-46.4932967313
 20
-22.4474954407
 30
0.0
 10
-46.4978319369
 20
-22.2078635286
 30
0.0
  0
SPLINE
  5
337
100
AcDbEntity
  8
RACCORDO
100
AcDbSpline
 62
250
  6
CONTINUOUS
 70
0
 71
3
 72
11
 73
7
 74
0
 42
0.0000001
 43
0.0000001
 44
0.0000000001
 40
0.0
 40
0.0
 40
0.0
 40
0.0
 40
0.2499989453
 40
0.4999989693
 40
0.7499984062
 40
1.0
 40
1.0
 40
1.0
 40
1.0
 10
-46.4978319369
 20
-22.2078635286
 30
0.0
 10
-46.5143184914
 20
-21.3365206108
 30
0.0
 10
-46.528665306
 20
-19.5935047595
 30
0.0
 10
-46.5312741071
 20
-16.9790107474
 30
0.0
 10
-46.5231824233
 20
-14.3645067568
 30
0.0
 10
-46.5159658276
 20
-12.6215081064
 30
0.0
 10
-46.5159607292
 20
-11.75
 30
0.0
  0
SPLINE
  5
338
100
AcDbEntity
  8
RACCORDO
100
AcDbSpline
 62
250
  6
CONTINUOUS
 70
0
 71
3
 72
26
 73
22
 74
0
 42
0.0000001
 43
0.0000001
 44
0.0000000001
 40
0.0
 40
0.0
 40
0.0
 40
0.0
 40
0.031171164
 40
0.0467433122
 40
0.0623298952
 40
0.0779443867
 40
0.0935713618
 40
0.1248261106
 40
0.1560797569
 40
0.1873319705
 40
0.2185810893
 40
0.2498259338
 40
0.3123156964
 40
0.3748156933
 40
0.4373249065
 40
0.4998398282
 40
0.5623588936
 40
0.62487978
 40
0.749920704
 40
0.8749591596
 40
1.0
 40
1.0
 40
1.0
 40
1.0
 10
-44.0772030075
 20
-37.0822354038
 30
0.0
 10
-44.0952447084
 20
-36.8196266157
 30
0.0
 10
-44.1144646544
 20
-36.4251629452
 30
0.0
 10
-44.1186685872
 20
-35.898785779
 30
0.0
 10
-44.1147147677
 20
-35.5038219963
 30
0.0
 10
-44.1122959354
 20
-35.1083777477
 30
0.0
 10
-44.1167650071
 20
-34.5806317407
 30
0.0
 10
-44.1246044023
 20
-33.920859388
 30
0.0
 10
-44.1368225054
 20
-33.1291809176
 30
0.0
 10
-44.1507260511
 20
-32.3375807588
 30
0.0
 10
-44.1649108039
 20
-31.5460586641
 30
0.0
 10
-44.1795980053
 20
-30.490721132
 30
0.0
 10
-44.1916757078
 20
-29.1714342619
 30
0.0
 10
-44.2028188881
 20
-27.5881212453
 30
0.0
 10
-44.2094563227
 20
-26.0045640607
 30
0.0
 10
-44.2074633683
 20
-24.4208339819
 30
0.0
 10
-44.2015830279
 20
-22.8370201781
 30
0.0
 10
-44.1912590246
 20
-20.7252138901
 30
0.0
 10
-44.1783025935
 20
-18.0854629918
 30
0.0
 10
-44.1688175347
 20
-14.9177373787
 30
0.0
 10
-44.1664520811
 20
-12.8059190626
 30
0.0
 10
-44.1664530851
 20
-11.75
 30
0.0
  0
SPLINE
  5
339
100
AcDbEntity
  8
RACCORDO
100
AcDbSpline
 62
250
  6
CONTINUOUS
 70
0
 71
3
 72
10
 73
6
 74
0
 42
0.0000001
 43
0.0000001
 44
0.0000000001
 40
0.0
 40
0.0
 40
0.0
 40
0.0
 40
0.1533366209
 40
0.3743086282
 40
1.0
 40
1.0
 40
1.0
 40
1.0
 10
-46.4976818184
 20
22.2071710462
 30
0.0
 10
-46.5404488953
 20
22.2114233401
 30
0.0
 10
-46.6450989319
 20
22.2191427205
 30
0.0
 10
-46.9249101029
 20
22.2353505872
 30
0.0
 10
-47.1620306018
 20
22.245227032
 30
0.0
 10
-47.337271741
 20
22.2519985183
 30
0.0
  0
SPLINE
  5
33A
100
AcDbEntity
  8
RACCORDO
100
AcDbSpline
 62
250
  6
CONTINUOUS
 70
0
 71
3
 72
24
 73
20
 74
0
 42
0.0000001
 43
0.0000001
 44
0.0000000001
 40
0.0
 40
0.0
 40
0.0
 40
0.0
 40
0.0312481727
 40
0.0468730105
 40
0.062497976
 40
0.0781230362
 40
0.0937480869
 40
0.124998157
 40
0.1562482399
 40
0.1874983202
 40
0.2499984871
 40
0.3124986382
 40
0.3749987824
 40
0.4374988906
 40
0.4999990162
 40
0.6249988143
 40
0.749999219
 40
0.8749997033
 40
1.0
 40
1.0
 40
1.0
 40
1.0
 10
-43.1624781289
 20
-36.9999037469
 30
0.0
 10
-43.1850597309
 20
-36.7378104136
 30
0.0
 10
-43.2122964157
 20
-36.3440148154
 30
0.0
 10
-43.2315072679
 20
-35.8181913438
 30
0.0
 10
-43.2387100548
 20
-35.4236266177
 30
0.0
 10
-43.2431859573
 20
-35.0290328384
 30
0.0
 10
-43.2517705135
 20
-34.5029394565
 30
0.0
 10
-43.2658599235
 20
-33.8453861306
 30
0.0
 10
-43.2862612364
 20
-33.056406849
 30
0.0
 10
-43.3173583467
 20
-32.0045425521
 30
0.0
 10
-43.3617355344
 20
-30.689887239
 30
0.0
 10
-43.4093801791
 20
-29.1121207244
 30
0.0
 10
-43.4505710062
 20
-27.5341701187
 30
0.0
 10
-43.4814508221
 20
-25.9559738659
 30
0.0
 10
-43.5042675737
 20
-23.8514337902
 30
0.0
 10
-43.5019048168
 20
-21.2205550898
 30
0.0
 10
-43.4704984503
 20
-18.0637437692
 30
0.0
 10
-43.4365911433
 20
-14.9069633181
 30
0.0
 10
-43.4248776666
 20
-12.8023216477
 30
0.0
 10
-43.4248778623
 20
-11.7500002799
 30
0.0
  0
SPLINE
  5
33B
100
AcDbEntity
  8
RACCORDO
100
AcDbSpline
 62
250
  6
CONTINUOUS
 70
0
 71
3
 72
11
 73
7
 74
0
 42
0.0000001
 43
0.0000001
 44
0.0000000001
 40
0.0
 40
0.0
 40
0.0
 40
0.0
 40
0.2500002169
 40
0.500000446
 40
0.7500007658
 40
1.0
 40
1.0
 40
1.0
 40
1.0
 10
-47.3402951262
 20
11.7499999384
 30
0.0
 10
-47.3403004919
 20
12.6250865262
 30
0.0
 10
-47.3431553789
 20
14.3752582881
 30
0.0
 10
-47.3467124144
 20
17.0005164331
 30
0.0
 10
-47.3468476871
 20
19.6257723928
 30
0.0
 10
-47.3425724975
 20
21.3759457675
 30
0.0
 10
-47.3372761866
 20
22.251012888
 30
0.0
  0
SPLINE
  5
33C
100
AcDbEntity
  8
RACCORDO
100
AcDbSpline
 62
250
  6
CONTINUOUS
 70
0
 71
3
 72
11
 73
7
 74
0
 42
0.0000001
 43
0.0000001
 44
0.0000000001
 40
0.0
 40
0.0
 40
0.0
 40
0.0
 40
0.4239063286
 40
0.7395810297
 40
0.9342200825
 40
1.0
 40
1.0
 40
1.0
 40
1.0
 10
-47.3372761866
 20
22.251012888
 30
0.0
 10
-47.3806714642
 20
22.2510520898
 30
0.0
 10
-47.4563805162
 20
22.2506766437
 30
0.0
 10
-47.552021359
 20
22.2506048717
 30
0.0
 10
-47.6109877752
 20
22.2511847679
 30
0.0
 10
-47.6376555042
 20
22.250672906
 30
0.0
 10
-47.6443858199
 20
22.2508923044
 30
0.0
  0
SPLINE
  5
33D
100
AcDbEntity
  8
RACCORDO
100
AcDbSpline
 62
250
  6
CONTINUOUS
 70
0
 71
3
 72
22
 73
18
 74
0
 42
0.0000001
 43
0.0000001
 44
0.0000000001
 40
0.0
 40
0.0
 40
0.0
 40
0.0
 40
0.1998107733
 40
0.3908940315
 40
0.5649374547
 40
0.715094701
 40
0.7797439135
 40
0.8368442885
 40
0.8859328051
 40
0.9267223427
 40
0.9589471726
 40
0.971695769
 40
0.9821300455
 40
0.9902062026
 40
0.9958874041
 40
0.9991418754
 40
1.0
 40
1.0
 40
1.0
 40
1.0
 10
-47.3372794461
 20
22.251012767
 30
0.0
 10
-47.3358426892
 20
22.385247421
 30
0.0
 10
-47.3366525223
 20
22.6479031546
 30
0.0
 10
-47.3468623371
 20
23.0273445332
 30
0.0
 10
-47.3633554798
 20
23.3731722563
 30
0.0
 10
-47.381104975
 20
23.6338238219
 30
0.0
 10
-47.3942815141
 20
23.816029016
 30
0.0
 10
-47.4026616165
 20
23.9304956613
 30
0.0
 10
-47.4100720725
 20
24.0289772204
 30
0.0
 10
-47.4160510001
 20
24.1107570933
 30
0.0
 10
-47.4198508044
 20
24.1683376181
 30
0.0
 10
-47.4223210128
 20
24.2053483482
 30
0.0
 10
-47.4238713371
 20
24.2265716612
 30
0.0
 10
-47.4248882716
 20
24.2420784501
 30
0.0
 10
-47.4263763109
 20
24.2550097032
 30
0.0
 10
-47.4264084819
 20
24.2589938003
 30
0.0
 10
-47.4277193901
 20
24.2640212656
 30
0.0
 10
-47.4280825332
 20
24.2635734793
 30
0.0
  0
SPLINE
  5
33E
100
AcDbEntity
  8
RACCORDO
100
AcDbSpline
 62
250
  6
CONTINUOUS
 70
0
 71
3
 72
23
 73
19
 74
0
 42
0.0000001
 43
0.0000001
 44
0.0000000001
 40
0.0
 40
0.0
 40
0.0
 40
0.0
 40
0.1949672531
 40
0.3825005886
 40
0.5553622041
 40
0.6341737437
 40
0.7068706419
 40
0.7727572865
 40
0.8311905686
 40
0.8816125728
 40
0.9235328135
 40
0.9565466804
 40
0.9696122476
 40
0.9803445601
 40
0.9887190528
 40
0.9947303123
 40
0.9984111396
 40
1.0
 40
1.0
 40
1.0
 40
1.0
 10
-43.1624676102
 20
36.9998781306
 30
0.0
 10
-43.1525758277
 20
37.1795540038
 30
0.0
 10
-43.136947041
 20
37.5322646156
 30
0.0
 10
-43.1209341978
 20
38.0445993106
 30
0.0
 10
-43.1112452645
 20
38.4498593602
 30
0.0
 10
-43.105647454
 20
38.7491897476
 30
0.0
 10
-43.1025619733
 20
38.9498143158
 30
0.0
 10
-43.1003527531
 20
39.1316413034
 30
0.0
 10
-43.0989229925
 20
39.2929145407
 30
0.0
 10
-43.0982464391
 20
39.4320782505
 30
0.0
 10
-43.0983550751
 20
39.5477662585
 30
0.0
 10
-43.0993021754
 20
39.6290126207
 30
0.0
 10
-43.1007951152
 20
39.6813864487
 30
0.0
 10
-43.1022195892
 20
39.711137644
 30
0.0
 10
-43.1037562287
 20
39.7340389597
 30
0.0
 10
-43.1060823601
 20
39.7511182213
 30
0.0
 10
-43.1076575814
 20
39.7603776347
 30
0.0
 10
-43.1106024755
 20
39.7659648323
 30
0.0
 10
-43.11206707
 20
39.7658908361
 30
0.0
  0
SPLINE
  5
33F
100
AcDbEntity
  8
RACCORDO
100
AcDbSpline
 62
250
  6
CONTINUOUS
 70
0
 71
3
 72
9
 73
5
 74
0
 42
0.0000001
 43
0.0000001
 44
0.0000000001
 40
0.0
 40
0.0
 40
0.0
 40
0.0
 40
0.3638367492
 40
1.0
 40
1.0
 40
1.0
 40
1.0
 10
-44.0772028429
 20
-37.0822353898
 30
0.0
 10
-43.9664200032
 20
-37.0706637178
 30
0.0
 10
-43.6614251185
 20
-37.0439743196
 30
0.0
 10
-43.3565035123
 20
-37.016763822
 30
0.0
 10
-43.1624703219
 20
-37.0
 30
0.0
  0
SPLINE
  5
340
100
AcDbEntity
  8
RACCORDO
100
AcDbSpline
 62
250
  6
CONTINUOUS
 70
0
 71
3
 72
9
 73
5
 74
0
 42
0.0000001
 43
0.0000001
 44
0.0000000001
 40
0.0
 40
0.0
 40
0.0
 40
0.0
 40
0.3638025361
 40
1.0
 40
1.0
 40
1.0
 40
1.0
 10
-44.0772183848
 20
37.0823363005
 30
0.0
 10
-43.9664435249
 20
37.0707504166
 30
0.0
 10
-43.6614402532
 20
37.044029419
 30
0.0
 10
-43.3565106209
 20
37.0167850961
 30
0.0
 10
-43.1624617093
 20
36.9999999996
 30
0.0
  0
SPLINE
  5
341
100
AcDbEntity
  8
RACCORDO
100
AcDbSpline
 62
250
  6
CONTINUOUS
 70
0
 71
3
 72
10
 73
6
 74
0
 42
0.0000001
 43
0.0000001
 44
0.0000000001
 40
0.0
 40
0.0
 40
0.0
 40
0.0
 40
0.1533670563
 40
0.3743484913
 40
1.0
 40
1.0
 40
1.0
 40
1.0
 10
-46.4978325551
 20
-22.2078635385
 30
0.0
 10
-46.5406062849
 20
-22.2120467112
 30
0.0
 10
-46.6452546003
 20
-22.2196420788
 30
0.0
 10
-46.9250240897
 20
-22.2355903608
 30
0.0
 10
-47.1620938218
 20
-22.24531102
 30
0.0
 10
-47.3372923837
 20
-22.2519757559
 30
0.0
  0
ELLIPSE
  5
342
100
AcDbEntity
  8
RACCORDO
100
AcDbEllipse
 62
7
  6
CONTINUOUS
 10
-4.2017932267
 20
39.9737961104
 30
0.0
 11
0.5
 21
-0.0
 31
0.0
 40
0.0524077793
 41
0.1308996939
 42
1.5707963268
  0
ELLIPSE
  5
343
100
AcDbEntity
  8
RACCORDO
100
AcDbEllipse
 62
7
  6
CONTINUOUS
 10
4.2017932267
 20
39.9737961104
 30
0.0
 11
0.5
 21
-0.0
 31
0.0
 40
0.0524077793
 41
1.5707963268
 42
3.0106929597
  0
ELLIPSE
  5
344
100
AcDbEntity
  8
RACCORDO
100
AcDbEllipse
 62
7
  6
CONTINUOUS
 10
4.2017932267
 20
-39.9737961104
 30
0.0
 11
0.5
 21
0.0
 31
0.0
 40
0.0524077793
 41
-3.0106929597
 42
-1.5707963268
  0
ELLIPSE
  5
345
100
AcDbEntity
  8
RACCORDO
100
AcDbEllipse
 62
7
  6
CONTINUOUS
 10
-4.2017932267
 20
-39.9737961104
 30
0.0
 11
0.5
 21
0.0
 31
0.0
 40
0.0524077793
 41
-1.5707963268
 42
-0.1308996939
  0
ELLIPSE
  5
346
100
AcDbEntity
  8
RACCORDO
100
AcDbEllipse
 62
7
  6
CONTINUOUS
 10
3.0615117685
 20
-39.9213883311
 30
0.0
 11
0.5
 21
0.0
 31
0.0
 40
0.0524077793
 41
0.1308996939
 42
1.5707963268
  0
ELLIPSE
  5
347
100
AcDbEntity
  8
RACCORDO
100
AcDbEllipse
 62
7
  6
CONTINUOUS
 10
-3.0615117685
 20
-39.9213883311
 30
0.0
 11
0.5
 21
0.0
 31
0.0
 40
0.0524077793
 41
1.5707963268
 42
3.0106929597
  0
ELLIPSE
  5
348
100
AcDbEntity
  8
RACCORDO
100
AcDbEllipse
 62
7
  6
CONTINUOUS
 10
-3.0615117685
 20
39.9213883311
 30
0.0
 11
0.5
 21
-0.0
 31
0.0
 40
0.0524077793
 41
-3.0106929597
 42
-1.5707963268
  0
ELLIPSE
  5
349
100
AcDbEntity
  8
RACCORDO
100
AcDbEllipse
 62
7
  6
CONTINUOUS
 10
3.0615117685
 20
39.9213883311
 30
0.0
 11
0.5
 21
-0.0
 31
0.0
 40
0.0524077793
 41
-1.5707963268
 42
-0.1308996939
  0
ENDSEC
  0
SECTION
  2
OBJECTS
  0
DICTIONARY
  5
C
100
AcDbDictionary
280
0
281
1
  3
ACAD_GROUP
350
D
  3
ACAD_MLINESTYLE
350
17
  3
ACAD_LAYOUT
350
1A
  3
ACAD_PLOTSETTINGS
350
19
  3
ACAD_PLOTSTYLENAME
350
E
  0
DICTIONARY
  5
D
102
{ACAD_REACTORS
330
C
102
}
100
AcDbDictionary
280
0
281
1
  0
ACDBDICTIONARYWDFLT
  5
E
102
{ACAD_REACTORS
330
C
102
}
100
AcDbDictionary
281
1
  3
Normal
350
F
100
AcDbDictionaryWithDefault
340
F
  0
DICTIONARY
  5
17
102
{ACAD_REACTORS
330
C
102
}
100
AcDbDictionary
280
0
281
1
  3
Standard
350
18
  0
DICTIONARY
  5
19
102
{ACAD_REACTORS
330
C
102
}
100
AcDbDictionary
281
1
  0
DICTIONARY
  5
1A
102
{ACAD_REACTORS
330
C
102
}
100
AcDbDictionary
281
1
  3
Model
350
34A
  3
Layout1
350
34B
  0
ACDBPLACEHOLDER
  5
F
102
{ACAD_REACTORS
330
E
102
}
  0
MLINESTYLE
  5
18
102
{ACAD_REACTORS
330
17
102
}
100
AcDbMlineStyle
  2
STANDARD
 70
0
  3

 62
256
 51
90.0
 52
90.0
 71
2
 49
0.5
 62
256
  6
BYLAYER
 49
-0.5
 62
256
  6
BYLAYER
  0
LAYOUT
  5
34A
102
{ACAD_REACTORS
330
1A
102
}
100
AcDbPlotSettings
  1

  2
none_device
  4
ANSI_C_(22.00_x_17.00_Inches)
  6

 40
0.0
 41
0.0
 42
0.0
 43
0.0
 44
558.8
 45
431.8
 46
0.0
 47
0.0
 48
0.0
 49
0.0
140
0.0
141
0.0
142
1.0
143
1.0
 70
1024
 72
1
 73
0
 74
0
  7

 75
0
147
1.0
148
0.0
149
0.0
100
AcDbLayout
  1
Model
 70
0
 71
0
 10
0.0
 20
0.0
 11
558.8
 21
431.8
 12
0.0
 22
0.0
 32
0.0
 14
0.0
 24
0.0
 34
0.0
 15
0.0
 25
0.0
 35
0.0
146
0.0
 13
0.0
 23
0.0
 33
0.0
 16
1.0
 26
0.0
 36
0.0
 17
0.0
 27
1.0
 37
0.0
 76
0
330
215
345
0
346
0
  0
LAYOUT
  5
34B
102
{ACAD_REACTORS
330
1A
102
}
100
AcDbPlotSettings
  1

  2
none_device
  4
ANSI_C_(22.00_x_17.00_Inches)
  6

 40
0.0
 41
0.0
 42
0.0
 43
0.0
 44
558.8
 45
431.8
 46
0.0
 47
0.0
 48
0.0
 49
0.0
140
0.0
141
0.0
142
1.0
143
1.0
 70
0
 72
1
 73
0
 74
0
  7

 75
0
147
1.0
148
0.0
149
0.0
100
AcDbLayout
  1
Layout1
 70
0
 71
1
 10
0.0
 20
0.0
 11
558.8
 21
431.8
 12
0.0
 22
0.0
 32
0.0
 14
0.0
 24
0.0
 34
0.0
 15
0.0
 25
0.0
 35
0.0
146
0.0
 13
0.0
 23
0.0
 33
0.0
 16
1.0
 26
0.0
 36
0.0
 17
0.0
 27
1.0
 37
0.0
 76
0
330
216
345
0
346
0
  0
ENDSEC
  0
EOF
