  0
SECTION
  2
HEADER
  9
$ACADVER
  1
AC1024
  9
$DWGCODEPAGE
  3
ANSI_1252
  9
$EXTMAX
 10
210.0
 20
297.0
 30
0.0
  9
$EXTMIN
 10
0.0
 20
0.0
 30
0.0
  9
$LIMMIN
 10
0.0
 20
0.0
  9
$LIMMAX
 10
210.0
 20
297.0
  9
$VIEWCTR
 10
105.0
 20
148.5
  9
$VIEWSIZE
 40
297.0
  9
$CLAYER
  8
0
  9
$LTSCALE
 40
19.36
  9
$CELTYPE
  6
BYLAYER
  9
$DIMSCALE
 40
1.0
  9
$DIMASZ
 40
3.0
  9
$DIMEXO
 40
0.5
  9
$DIMDLI
 40
13.376
  9
$DIMEXE
 40
1.5
  9
$DIMCEN
 40
3.168
  9
$DIMLFAC
 40
1.0
  9
$DIMBLK
  1
_FILLED
  9
$DIMALT
 70
0
  9
$DIMALTF
 40
0.0393700787
  9
$DIMTXT
 40
3.0
  9
$DIMTOL
 70
1
  9
$DIMLIM
 70
0
  9
$DIMTFAC
 40
1.0
  9
$DIMTP
 40
0.01
  9
$DIMTM
 40
0.01
  9
$DIMGAP
 40
0.625
  9
$DIMDSEP
 70
44
  9
$AUNITS
 70
0
  9
$PDMODE
 70
3
  9
$PDSIZE
 40
3.0
  9
$HANDSEED
  5
3B2
  9
$TILEMODE
 70
1
  9
$MEASUREMENT
 70
1
  9
$INSUNITS
 70
4
  0
ENDSEC
  0
SECTION
  2
CLASSES
  0
CLASS
  1
ACDBDICTIONARYWDFLT
  2
AcDbDictionaryWithDefault
  3
AutoCAD 2000
 90
0
 91
1
280
0
281
0
  0
CLASS
  1
ACDBPLACEHOLDER
  2
AcDbPlaceHolder
  3
AutoCAD 2000
 90
0
 91
1
280
0
281
0
  0
CLASS
  1
LAYOUT
  2
AcDbLayout
  3
AutoCAD 2000
 90
0
 91
0
280
0
281
0
  0
ENDSEC
  0
SECTION
  2
TABLES
  0
TABLE
  2
VPORT
  5
8
100
AcDbSymbolTable
 70
2
  0
VPORT
  5
1F4
100
AcDbSymbolTableRecord
100
AcDbViewportTableRecord
  2
*ACTIVE
 70
0
 10
0.0
 20
0.0
 11
1.0
 21
1.0
 12
105.0
 22
148.5
 13
0.0
 23
0.0
 14
1.0
 24
1.0
 15
0.0
 25
0.0
 16
0.0
 26
0.0
 36
1.0
 17
0.0
 27
0.0
 37
0.0
 40
297.0
 41
0.7070707071
 42
50.0
 43
0.0
 44
0.0
 50
0.0
 51
0.0
 71
0
 72
100
 73
1
 74
1
 75
0
 76
0
 77
0
 78
0
  0
ENDTAB
  0
TABLE
  2
LTYPE
  5
5
100
AcDbSymbolTable
 70
6
  0
LTYPE
  5
14
100
AcDbSymbolTableRecord
100
AcDbLinetypeTableRecord
  2
BYBLOCK
 70
0
  3

 72
65
 73
0
 40
0.0
  0
LTYPE
  5
15
100
AcDbSymbolTableRecord
100
AcDbLinetypeTableRecord
  2
BYLAYER
 70
0
  3

 72
65
 73
0
 40
0.0
  0
LTYPE
  5
16
100
AcDbSymbolTableRecord
100
AcDbLinetypeTableRecord
  2
CONTINUOUS
 70
64
  3
Solid line
 72
65
 73
0
 40
0.0
  0
LTYPE
  5
1F5
100
AcDbSymbolTableRecord
100
AcDbLinetypeTableRecord
  2
CENTER
 70
64
  3
____ _ ____ _ ____ _ ____ _ ____ _ ____ _ ____
 72
65
 73
4
 40
0.6
 49
0.375
 74
0
 49
-0.075
 74
0
 49
0.075
 74
0
 49
-0.075
 74
0
  0
LTYPE
  5
1F6
100
AcDbSymbolTableRecord
100
AcDbLinetypeTableRecord
  2
HIDDEN
 70
64
  3
- - - - - - - - - - - - - - - - - - - -
 72
65
 73
2
 40
0.2
 49
0.1
 74
0
 49
-0.1
 74
0
  0
LTYPE
  5
1F7
100
AcDbSymbolTableRecord
100
AcDbLinetypeTableRecord
  2
PHANTOM
 70
64
  3
_____ _ _ _____ _ _ _____ _ _ _____
 72
65
 73
6
 40
0.8
 49
0.45
 74
0
 49
-0.05
 74
0
 49
0.1
 74
0
 49
-0.05
 74
0
 49
0.1
 74
0
 49
-0.05
 74
0
  0
LTYPE
  5
1F8
100
AcDbSymbolTableRecord
100
AcDbLinetypeTableRecord
  2
DOT
 70
64
  3
. . . . . . . . . . . . . . . . . . . .
 72
65
 73
2
 40
0.2
 49
0.1
 74
0
 49
-0.1
 74
0
  0
LTYPE
  5
1F9
100
AcDbSymbolTableRecord
100
AcDbLinetypeTableRecord
  2
DASHED
 70
64
  3
- - - - - - - - - - - - - - - - - - - -
 72
65
 73
2
 40
0.2
 49
0.1
 74
0
 49
-0.1
 74
0
  0
ENDTAB
  0
TABLE
  2
LAYER
  5
2
100
AcDbSymbolTable
 70
36
  0
LAYER
  5
10
100
AcDbSymbolTableRecord
100
AcDbLayerTableRecord
  2
0
 70
0
 62
7
  6
CONTINUOUS
370
-3
390
F
  0
LAYER
  5
1FA
100
AcDbSymbolTableRecord
100
AcDbLayerTableRecord
  2
DEFAULT_1
 70
0
 62
7
  6
CENTER
370
-3
390
F
  0
LAYER
  5
1FB
100
AcDbSymbolTableRecord
100
AcDbLayerTableRecord
  2
DEFAULT_2
 70
0
 62
7
  6
HIDDEN
370
-3
390
F
  0
LAYER
  5
1FC
100
AcDbSymbolTableRecord
100
AcDbLayerTableRecord
  2
DEFAULT_3
 70
0
 62
7
  6
PHANTOM
370
-3
390
F
  0
LAYER
  5
1FD
100
AcDbSymbolTableRecord
100
AcDbLayerTableRecord
  2
ASSI
 70
0
 62
7
  6
CONTINUOUS
370
-3
390
F
  0
LAYER
  5
1FE
100
AcDbSymbolTableRecord
100
AcDbLayerTableRecord
  2
COORDINATE
 70
0
 62
7
  6
CONTINUOUS
370
-3
390
F
  0
LAYER
  5
1FF
100
AcDbSymbolTableRecord
100
AcDbLayerTableRecord
  2
COORD_ORIGINE
 70
0
 62
7
  6
CONTINUOUS
370
-3
390
F
  0
LAYER
  5
200
100
AcDbSymbolTableRecord
100
AcDbLayerTableRecord
  2
COSMETICI
 70
0
 62
7
  6
CONTINUOUS
370
-3
390
F
  0
LAYER
  5
201
100
AcDbSymbolTableRecord
100
AcDbLayerTableRecord
  2
CURVE
 70
0
 62
7
  6
CONTINUOUS
370
-3
390
F
  0
LAYER
  5
202
100
AcDbSymbolTableRecord
100
AcDbLayerTableRecord
  2
DRAFT
 70
0
 62
7
  6
CONTINUOUS
370
-3
390
F
  0
LAYER
  5
203
100
AcDbSymbolTableRecord
100
AcDbLayerTableRecord
  2
IGES
 70
0
 62
7
  6
CONTINUOUS
370
-3
390
F
  0
LAYER
  5
204
100
AcDbSymbolTableRecord
100
AcDbLayerTableRecord
  2
NOTE
 70
0
 62
7
  6
CONTINUOUS
370
-3
390
F
  0
LAYER
  5
205
100
AcDbSymbolTableRecord
100
AcDbLayerTableRecord
  2
PIANI
 70
0
 62
7
  6
CONTINUOUS
370
-3
390
F
  0
LAYER
  5
206
100
AcDbSymbolTableRecord
100
AcDbLayerTableRecord
  2
PIANI_ORIGINE
 70
0
 62
7
  6
CONTINUOUS
370
-3
390
F
  0
LAYER
  5
207
100
AcDbSymbolTableRecord
100
AcDbLayerTableRecord
  2
PIANI_RIFERIMENTO
 70
0
 62
7
  6
CONTINUOUS
370
-3
390
F
  0
LAYER
  5
208
100
AcDbSymbolTableRecord
100
AcDbLayerTableRecord
  2
PUNTI
 70
0
 62
7
  6
CONTINUOUS
370
-3
390
F
  0
LAYER
  5
209
100
AcDbSymbolTableRecord
100
AcDbLayerTableRecord
  2
RACCORDO
 70
0
 62
7
  6
CONTINUOUS
370
-3
390
F
  0
LAYER
  5
20A
100
AcDbSymbolTableRecord
100
AcDbLayerTableRecord
  2
SIMBOLI
 70
0
 62
7
  6
CONTINUOUS
370
-3
390
F
  0
LAYER
  5
20B
100
AcDbSymbolTableRecord
100
AcDbLayerTableRecord
  2
SMUSSO
 70
0
 62
7
  6
CONTINUOUS
370
-3
390
F
  0
LAYER
  5
20C
100
AcDbSymbolTableRecord
100
AcDbLayerTableRecord
  2
SNAPLINE
 70
0
 62
7
  6
CONTINUOUS
370
-3
390
F
  0
LAYER
  5
20D
100
AcDbSymbolTableRecord
100
AcDbLayerTableRecord
  2
SUPERFICI
 70
0
 62
7
  6
CONTINUOUS
370
-3
390
F
  0
LAYER
  5
20E
100
AcDbSymbolTableRecord
100
AcDbLayerTableRecord
  2
TRASH
 70
0
 62
7
  6
CONTINUOUS
370
-3
390
F
  0
LAYER
  5
20F
100
AcDbSymbolTableRecord
100
AcDbLayerTableRecord
  2
XSEC_DATUMS
 70
0
 62
7
  6
CONTINUOUS
370
-3
390
F
  0
ENDTAB
  0
TABLE
  2
STYLE
  5
3
100
AcDbSymbolTable
 70
1
  0
STYLE
  5
11
100
AcDbSymbolTableRecord
100
AcDbTextStyleTableRecord
  2
STANDARD
 70
0
 40
0.0
 41
0.8
 50
0.0
 71
0
 42
0.2
  3
txt
  4

  0
STYLE
  5
210
100
AcDbSymbolTableRecord
100
AcDbTextStyleTableRecord
  2
TEXTSTYLE_1
 70
0
 40
0.0
 41
0.8
 50
0.0
 71
0
 42
0.2
  3
gdt
  4

  0
ENDTAB
  0
TABLE
  2
VIEW
  5
6
100
AcDbSymbolTable
 70
0
  0
ENDTAB
  0
TABLE
  2
UCS
  5
7
100
AcDbSymbolTable
 70
0
  0
ENDTAB
  0
TABLE
  2
APPID
  5
9
100
AcDbSymbolTable
 70
1
  0
APPID
  5
211
100
AcDbSymbolTableRecord
100
AcDbRegAppTableRecord
  2
ACAD
 70
0
  0
ENDTAB
  0
TABLE
  2
BLOCK_RECORD
  5
1
100
AcDbSymbolTable
 70
0
  0
BLOCK_RECORD
  5
212
100
AcDbSymbolTableRecord
100
AcDbBlockTableRecord
  2
*Model_Space
  0
BLOCK_RECORD
  5
213
100
AcDbSymbolTableRecord
100
AcDbBlockTableRecord
  2
*Paper_Space
  0
BLOCK_RECORD
  5
214
100
AcDbSymbolTableRecord
100
AcDbBlockTableRecord
  2
_FILLED
  0
BLOCK_RECORD
  5
215
100
AcDbSymbolTableRecord
100
AcDbBlockTableRecord
  2
*D0
  0
BLOCK_RECORD
  5
216
100
AcDbSymbolTableRecord
100
AcDbBlockTableRecord
  2
*D1
  0
BLOCK_RECORD
  5
217
100
AcDbSymbolTableRecord
100
AcDbBlockTableRecord
  2
*D2
  0
ENDTAB
  0
TABLE
  2
DIMSTYLE
  5
A
100
AcDbSymbolTable
 70
1
100
AcDbDimStyleTable
 71
0
  0
DIMSTYLE
105
218
100
AcDbSymbolTableRecord
100
AcDbDimStyleTableRecord
  2
STANDARD
 70
0
  3

  4

 40
1.0
 41
3.0
 42
0.5
 43
0.38
 44
1.5
 45
0.0
 46
0.0
 47
0.01
 48
0.01
140
3.0
141
0.09
142
0.0
143
25.4
144
1.0
145
0.0
146
1.0
147
0.625
 71
1
 72
0
 73
0
 74
0
 75
0
 76
0
 77
1
 78
8
 79
2
170
0
171
1
172
0
173
0
174
0
175
0
176
0
177
0
178
0
270
2
179
2
271
2
272
2
273
2
274
2
275
0
280
0
281
0
282
0
283
1
284
8
285
0
286
0
287
3
288
0
340
11
278
44
341
214
342
214
343
214
344
214
  0
DIMSTYLE
105
219
100
AcDbSymbolTableRecord
100
AcDbDimStyleTableRecord
  2
DIMSTYLE_1
 70
0
  3

  4

 40
1.0
 41
3.0
 42
0.5
 43
0.38
 44
1.5
 45
0.0
 46
0.0
 47
0.0
 48
0.0
140
3.0
141
0.09
142
0.0
143
25.4
144
1.0
145
0.0
146
1.0
147
0.75
 71
0
 72
0
 73
0
 74
0
 75
0
 76
0
 77
1
 78
8
 79
2
170
0
171
1
172
0
173
0
174
0
175
0
176
0
177
0
178
0
270
2
179
2
271
2
272
2
273
2
274
2
275
0
280
0
281
0
282
0
283
1
284
8
285
0
286
0
287
3
288
0
340
11
278
44
341
214
342
214
343
214
344
214
  0
DIMSTYLE
105
21A
100
AcDbSymbolTableRecord
100
AcDbDimStyleTableRecord
  2
DIMSTYLE_2
 70
0
  3

  4

 40
1.0
 41
3.0
 42
0.5
 43
0.38
 44
1.5
 45
0.0
 46
0.0
 47
0.0
 48
0.0
140
3.0
141
0.09
142
0.0
143
25.4
144
1.0
145
0.0
146
1.0
147
0.75
 71
0
 72
0
 73
0
 74
0
 75
0
 76
0
 77
1
 78
8
 79
2
170
0
171
1
172
0
173
0
174
0
175
0
176
0
177
0
178
0
270
2
179
2
271
1
272
1
273
2
274
2
275
0
280
0
281
0
282
0
283
1
284
8
285
0
286
0
287
3
288
0
340
11
278
44
341
214
342
214
343
214
344
214
  0
ENDTAB
  0
ENDSEC
  0
SECTION
  2
BLOCKS
  0
BLOCK
  5
20
100
AcDbEntity
  8
0
100
AcDbBlockBegin
  2
*Model_Space
 70
0
 10
0.0
 20
0.0
 30
0.0
  3
*Model_Space
  1

  0
ENDBLK
  5
21
100
AcDbEntity
  8
0
100
AcDbBlockEnd
  0
BLOCK
  5
1C
100
AcDbEntity
  8
0
100
AcDbBlockBegin
  2
*Paper_Space
 70
0
 10
0.0
 20
0.0
 30
0.0
  3
*Paper_Space
  1

  0
ENDBLK
  5
1D
100
AcDbEntity
  8
0
100
AcDbBlockEnd
  0
BLOCK
  5
21B
100
AcDbEntity
  8
0
100
AcDbBlockBegin
  2
_FILLED
 70
64
 10
0.0
 20
0.0
  3
_FILLED
  1

  0
SOLID
  5
21C
100
AcDbEntity
  8
0
  6
BYBLOCK
 62
0
100
AcDbTrace
 10
0.0
 20
0.0
 11
-1.0
 21
0.3166666667
 12
-1.0
 22
-0.3166666667
 13
-1.0
 23
-0.3166666667
  0
ENDBLK
  5
21D
100
AcDbEntity
  8
0
  6
BYBLOCK
 62
0
100
AcDbBlockEnd
  0
BLOCK
  5
21E
100
AcDbEntity
  8
0
100
AcDbBlockBegin
 62
7
  6
CONTINUOUS
  2
*D0
 70
65
 10
0.0
 20
0.0
  3
*D0
  1

  0
LINE
  5
21F
100
AcDbEntity
  8
0
100
AcDbLine
 62
7
  6
CONTINUOUS
 10
-11.3701459013
 20
13.5969577039
 11
-11.3701459013
 21
31.6908094648
  0
LINE
  5
220
100
AcDbEntity
  8
0
100
AcDbLine
 62
7
  6
CONTINUOUS
 10
10.9298540987
 20
13.5969577039
 11
10.9298540987
 21
31.6908094648
  0
LINE
  5
221
100
AcDbEntity
  8
0
100
AcDbLine
 62
7
  6
CONTINUOUS
 10
-11.3701459013
 20
30.1908094648
 11
-0.2201459013
 21
30.1908094648
  0
LINE
  5
222
100
AcDbEntity
  8
0
100
AcDbLine
 62
7
  6
CONTINUOUS
 10
10.9298540987
 20
30.1908094648
 11
-0.2201459013
 21
30.1908094648
  0
INSERT
  5
223
100
AcDbEntity
  8
0
100
AcDbBlockReference
 62
7
  6
CONTINUOUS
  2
_FILLED
 10
-11.3701459013
 20
30.1908094648
 41
3.0
 42
3.0
 43
3.0
 50
180.0
  0
INSERT
  5
224
100
AcDbEntity
  8
0
100
AcDbBlockReference
 62
7
  6
CONTINUOUS
  2
_FILLED
 10
10.9298540987
 20
30.1908094648
 41
3.0
 42
3.0
 43
3.0
  0
ENDBLK
  5
225
100
AcDbEntity
  8
0
  6
BYBLOCK
 62
0
100
AcDbBlockEnd
  0
BLOCK
  5
226
100
AcDbEntity
  8
0
100
AcDbBlockBegin
 62
7
  6
CONTINUOUS
  2
*D1
 70
65
 10
0.0
 20
0.0
  3
*D1
  1

  0
LINE
  5
227
100
AcDbEntity
  8
0
100
AcDbLine
 62
7
  6
CONTINUOUS
 10
10.9164000381
 20
22.1562704097
 11
20.4862590566
 21
22.1562704097
  0
LINE
  5
228
100
AcDbEntity
  8
0
100
AcDbLine
 62
7
  6
CONTINUOUS
 10
10.9164000381
 20
-22.1623550018
 11
20.4862590566
 21
-22.1623550018
  0
LINE
  5
229
100
AcDbEntity
  8
0
100
AcDbLine
 62
7
  6
CONTINUOUS
 10
18.9862590566
 20
22.1562704097
 11
18.9862590566
 21
-0.0030422961
  0
LINE
  5
22A
100
AcDbEntity
  8
0
100
AcDbLine
 62
7
  6
CONTINUOUS
 10
18.9862590566
 20
-22.1623550018
 11
18.9862590566
 21
-0.0030422961
  0
INSERT
  5
22B
100
AcDbEntity
  8
0
100
AcDbBlockReference
 62
7
  6
CONTINUOUS
  2
_FILLED
 10
18.9862590566
 20
22.1562704097
 41
3.0
 42
3.0
 43
3.0
 50
90.0
  0
INSERT
  5
22C
100
AcDbEntity
  8
0
100
AcDbBlockReference
 62
7
  6
CONTINUOUS
  2
_FILLED
 10
18.9862590566
 20
-22.1623550018
 41
3.0
 42
3.0
 43
3.0
 50
270.0
  0
ENDBLK
  5
22D
100
AcDbEntity
  8
0
  6
BYBLOCK
 62
0
100
AcDbBlockEnd
  0
BLOCK
  5
22E
100
AcDbEntity
  8
0
100
AcDbBlockBegin
 62
7
  6
CONTINUOUS
  2
*D2
 70
65
 10
0.0
 20
0.0
  3
*D2
  1

  0
LINE
  5
22F
100
AcDbEntity
  8
0
100
AcDbLine
 62
7
  6
CONTINUOUS
 10
-27.9750873453
 20
13.5969577039
 11
-27.9750873453
 21
41.6659297306
  0
LINE
  5
230
100
AcDbEntity
  8
0
100
AcDbLine
 62
7
  6
CONTINUOUS
 10
-33.6749661386
 20
0.8451013006
 11
-33.6749661386
 21
41.6659297306
  0
LINE
  5
231
100
AcDbEntity
  8
0
100
AcDbLine
 62
7
  6
CONTINUOUS
 10
-27.9750873453
 20
40.1659297306
 11
-16.510766431
 21
40.1659297306
  0
LINE
  5
232
100
AcDbEntity
  8
0
100
AcDbLine
 62
7
  6
CONTINUOUS
 10
-16.510766431
 20
40.1659297306
 11
-30.825026742
 21
40.1659297306
  0
LINE
  5
233
100
AcDbEntity
  8
0
100
AcDbLine
 62
7
  6
CONTINUOUS
 10
-33.6749661386
 20
40.1659297306
 11
-37.6749661386
 21
40.1659297306
  0
LINE
  5
234
100
AcDbEntity
  8
0
100
AcDbLine
 62
7
  6
CONTINUOUS
 10
-37.6749661386
 20
40.1659297306
 11
-30.825026742
 21
40.1659297306
  0
INSERT
  5
235
100
AcDbEntity
  8
0
100
AcDbBlockReference
 62
7
  6
CONTINUOUS
  2
_FILLED
 10
-27.9750873453
 20
40.1659297306
 41
3.0
 42
3.0
 43
3.0
 50
180.0
  0
INSERT
  5
236
100
AcDbEntity
  8
0
100
AcDbBlockReference
 62
7
  6
CONTINUOUS
  2
_FILLED
 10
-33.6749661386
 20
40.1659297306
 41
3.0
 42
3.0
 43
3.0
  0
ENDBLK
  5
237
100
AcDbEntity
  8
0
  6
BYBLOCK
 62
0
100
AcDbBlockEnd
  0
ENDSEC
  0
SECTION
  2
ENTITIES
  0
DIMENSION
  5
238
100
AcDbEntity
  8
0
100
AcDbDimension
 62
7
  6
CONTINUOUS
  2
*D0
 10
10.9298540987
 20
30.1908094648
 11
-4.505860187
 21
30.1908094648
 70
160
 71
2
 72
2
 41
0.9
 42
22.3
  3
DIMSTYLE_1
100
AcDbAlignedDimension
 13
-11.3701459013
 23
13.0969577039
 14
10.9298540987
 24
13.0969577039
100
AcDbRotatedDimension
  0
DIMENSION
  5
239
100
AcDbEntity
  8
0
100
AcDbDimension
 62
7
  6
CONTINUOUS
  2
*D1
 10
18.9862590566
 20
-22.1623550018
 11
18.9862590566
 21
-4.2887565818
 70
160
 71
2
 72
2
 41
0.9
 42
44.3186254114
  3
DIMSTYLE_2
100
AcDbAlignedDimension
 13
10.4164000381
 23
22.1562704097
 14
10.4164000381
 24
-22.1623550018
 50
270.0
100
AcDbRotatedDimension
  0
DIMENSION
  5
23A
100
AcDbEntity
  8
0
100
AcDbDimension
 62
7
  6
CONTINUOUS
  2
*D2
 10
-33.6749661386
 20
40.1659297306
 11
-22.7250521453
 21
40.1659297306
 70
160
 71
1
 72
2
 41
0.9
 42
5.6998787933
  3
DIMSTYLE_1
100
AcDbAlignedDimension
 13
-27.9750873453
 23
13.0969577039
 14
-33.6749661386
 24
0.3451013006
 50
180.0
100
AcDbRotatedDimension
  0
LWPOLYLINE
  5
23B
100
AcDbEntity
  8
0
100
AcDbPolyline
 62
7
  6
CONTINUOUS
 90
5
 70
0
 43
0.3500000019
 10
2.7798520508
 20
32.6550952148
 10
3.1369975586
 20
32.8693803711
 10
3.1369975586
 20
33.5122385254
 10
2.7798520508
 20
33.9408088379
 10
1.9227114258
 20
33.9408088379
  0
LWPOLYLINE
  5
23C
100
AcDbEntity
  8
RACCORDO
100
AcDbPolyline
 62
250
  6
CONTINUOUS
 90
15
 70
0
 10
-11.2866032521
 20
20.5388635604
 10
-11.2852747792
 20
20.5400460824
 10
-11.2822964598
 20
20.5412246913
 10
-11.2776781491
 20
20.5423954872
 10
-11.271435129
 20
20.5435545959
 10
-11.2635880576
 20
20.5446981821
 10
-11.2541629007
 20
20.5458224614
 10
-11.2431908462
 20
20.5469237138
 10
-11.2307082003
 20
20.5479982952
 10
-11.2167562682
 20
20.5490426498
 10
-11.2013812164
 20
20.5500533218
 10
-11.184633921
 20
20.551026967
 10
-11.1665697985
 20
20.5519603636
 10
-11.147248623
 20
20.5528504229
 10
-11.1267343279
 20
20.5536941999
  0
LINE
  5
23D
100
AcDbEntity
  8
RACCORDO
100
AcDbLine
 62
7
  6
CONTINUOUS
 10
3.1714291057
 20
-22.1623550018
 11
3.5221190718
 21
-22.1305218438
  0
LINE
  5
23E
100
AcDbEntity
  8
RACCORDO
100
AcDbLine
 62
7
  6
CONTINUOUS
 10
-8.0285708943
 20
-22.1623550018
 11
-7.6778809282
 21
-22.1305218438
  0
LINE
  5
23F
100
AcDbEntity
  8
RACCORDO
100
AcDbLine
 62
7
  6
CONTINUOUS
 10
-10.8566918407
 20
-22.1623550018
 11
-8.0285708943
 21
-22.1623550018
  0
LINE
  5
240
100
AcDbEntity
  8
DRAFT
100
AcDbLine
 62
7
  6
CONTINUOUS
 10
-3.6117209083
 20
-22.1623550018
 11
3.1714291057
 21
-22.1623550018
  0
LINE
  5
241
100
AcDbEntity
  8
RACCORDO
100
AcDbLine
 62
7
  6
CONTINUOUS
 10
7.5882790917
 20
-22.1623550018
 11
10.4164000381
 21
-22.1623550018
  0
LINE
  5
242
100
AcDbEntity
  8
RACCORDO
100
AcDbLine
 62
7
  6
CONTINUOUS
 10
-7.5046758475
 20
-22.1252810659
 11
-4.1356159552
 21
-22.1252810659
  0
LINE
  5
243
100
AcDbEntity
  8
RACCORDO
100
AcDbLine
 62
7
  6
CONTINUOUS
 10
3.6953241525
 20
-22.1252810659
 11
7.0643840448
 21
-22.1252810659
  0
LINE
  5
244
100
AcDbEntity
  8
RACCORDO
100
AcDbLine
 62
250
  6
CONTINUOUS
 10
10.3629146748
 20
-22.0017684257
 11
-10.8032064774
 21
-22.0017684257
  0
LINE
  5
245
100
AcDbEntity
  8
RACCORDO
100
AcDbLine
 62
7
  6
CONTINUOUS
 10
-3.6117209083
 20
-22.1623550018
 11
-3.9624108744
 21
-22.1305218438
  0
LINE
  5
246
100
AcDbEntity
  8
RACCORDO
100
AcDbLine
 62
7
  6
CONTINUOUS
 10
7.5882790917
 20
-22.1623550018
 11
7.2375891256
 21
-22.1305218438
  0
LWPOLYLINE
  5
247
100
AcDbEntity
  8
RACCORDO
100
AcDbPolyline
 62
250
  6
CONTINUOUS
 90
17
 70
0
 10
-11.2866032521
 20
-20.5449481525
 10
-11.2852747977
 20
-20.5461306751
 10
-11.2822964953
 20
-20.5473092846
 10
-11.2776782
 20
-20.5484800812
 10
-11.2714351938
 20
-20.5496391907
 10
-11.2635881347
 20
-20.5507827775
 10
-11.2541629885
 20
-20.5519070577
 10
-11.2431909429
 20
-20.5530083108
 10
-11.2307083045
 20
-20.554082893
 10
-11.2167563781
 20
-20.5551272484
 10
-11.2013813306
 20
-20.5561379213
 10
-11.1846340377
 20
-20.5571115673
 10
-11.1665699163
 20
-20.5580449646
 10
-11.1472487404
 20
-20.5589350247
 10
-11.1267344434
 20
-20.5597788024
 10
-11.1050949072
 20
-20.5605735056
 10
-11.0587300234
 20
-20.5620053409
  0
LINE
  5
248
100
AcDbEntity
  8
RACCORDO
100
AcDbLine
 62
250
  6
CONTINUOUS
 10
10.6864425252
 20
-20.559778792
 11
10.6421098262
 21
-20.5613164927
  0
LINE
  5
249
100
AcDbEntity
  8
RACCORDO
100
AcDbLine
 62
250
  6
CONTINUOUS
 10
10.6421098262
 20
-20.5613164927
 11
10.5938661989
 21
-20.5626377218
  0
LINE
  5
24A
100
AcDbEntity
  8
RACCORDO
100
AcDbLine
 62
250
  6
CONTINUOUS
 10
10.5938661989
 20
-20.5626377218
 11
10.5423496657
 21
-20.5637250061
  0
LINE
  5
24B
100
AcDbEntity
  8
RACCORDO
100
AcDbLine
 62
250
  6
CONTINUOUS
 10
10.5423496657
 20
-20.5637250061
 11
10.488241533
 21
-20.5645639661
  0
LINE
  5
24C
100
AcDbEntity
  8
RACCORDO
100
AcDbLine
 62
250
  6
CONTINUOUS
 10
10.488241533
 20
-20.5645639661
 11
10.4322573813
 21
-20.5651435067
  0
LINE
  5
24D
100
AcDbEntity
  8
RACCORDO
100
AcDbLine
 62
250
  6
CONTINUOUS
 10
10.4322573813
 20
-20.5651435067
 11
10.3751376013
 21
-20.5654559633
  0
LINE
  5
24E
100
AcDbEntity
  8
RACCORDO
100
AcDbLine
 62
250
  6
CONTINUOUS
 10
10.3751376013
 20
-20.5654559633
 11
-10.78667938
 21
-20.5654901269
  0
LINE
  5
24F
100
AcDbEntity
  8
RACCORDO
100
AcDbLine
 62
250
  6
CONTINUOUS
 10
-10.8440842943
 20
-20.5653334788
 11
-10.7866794045
 21
-20.5655106209
  0
LINE
  5
250
100
AcDbEntity
  8
RACCORDO
100
AcDbLine
 62
250
  6
CONTINUOUS
 10
-10.9007300035
 20
-20.5648867404
 11
-10.8440842943
 21
-20.5653334788
  0
LINE
  5
251
100
AcDbEntity
  8
RACCORDO
100
AcDbLine
 62
250
  6
CONTINUOUS
 10
-10.9558673915
 20
-20.5641763138
 11
-10.9007300035
 21
-20.5648867404
  0
LINE
  5
252
100
AcDbEntity
  8
RACCORDO
100
AcDbLine
 62
250
  6
CONTINUOUS
 10
-11.0087672654
 20
-20.5632115945
 11
-10.9558673915
 21
-20.5641763138
  0
LINE
  5
253
100
AcDbEntity
  8
RACCORDO
100
AcDbLine
 62
250
  6
CONTINUOUS
 10
-11.0587300234
 20
-20.5620053409
 11
-11.0087672654
 21
-20.5632115945
  0
LWPOLYLINE
  5
254
100
AcDbEntity
  8
RACCORDO
100
AcDbPolyline
 62
250
  6
CONTINUOUS
 90
28
 70
0
 10
-11.3031300227
 20
-21.5024527506
 10
-11.3022586793
 20
-21.5314684623
 10
-11.299700664
 20
-21.560386109
 10
-11.2954646219
 20
-21.5891079562
 10
-11.2895648697
 20
-21.6175369313
 10
-11.282021347
 20
-21.6455769515
 10
-11.2728595489
 20
-21.6731332486
 10
-11.2621104397
 20
-21.7001126892
 10
-11.2498103487
 20
-21.7264240893
 10
-11.236000847
 20
-21.7519785231
 10
-11.220728607
 20
-21.7766896229
 10
-11.2040452451
 20
-21.8004738712
 10
-11.1860071468
 20
-21.8232508831
 10
-11.1666752761
 20
-21.8449436779
 10
-11.14611497
 20
-21.8654789393
 10
-11.1243957171
 20
-21.8847872631
 10
-11.101590923
 20
-21.9028033918
 10
-11.0777776621
 20
-21.9194664354
 10
-11.0530364175
 20
-21.9347200767
 10
-11.0274508082
 20
-21.9485127621
 10
-11.0011073073
 20
-21.9607978758
 10
-10.9740949494
 20
-21.9715338968
 10
-10.9465050295
 20
-21.9806845402
 10
-10.9184307946
 20
-21.9882188789
 10
-10.8899671289
 20
-21.9941114486
 10
-10.8612102326
 20
-21.9983423339
 10
-10.8322572968
 20
-22.0008972353
 10
-10.8032061751
 20
-22.001767518
  0
LWPOLYLINE
  5
255
100
AcDbEntity
  8
RACCORDO
100
AcDbPolyline
 62
250
  6
CONTINUOUS
 90
28
 70
0
 10
-11.3031300227
 20
21.4963681585
 10
-11.3022586788
 20
21.5253838795
 10
-11.2997006619
 20
21.5543015346
 10
-11.2954646174
 20
21.5830233893
 10
-11.2895648622
 20
21.6114523709
 10
-11.2820213359
 20
21.6394923966
 10
-11.2728595337
 20
21.6670486981
 10
-11.2621104203
 20
21.6940281419
 10
-11.2498103251
 20
21.7203395442
 10
-11.2360008191
 20
21.7458939792
 10
-11.2207285753
 20
21.770605079
 10
-11.2040452098
 20
21.7943893265
 10
-11.1860071083
 20
21.8171663368
 10
-11.1666752352
 20
21.8388591292
 10
-11.1461149273
 20
21.8593943875
 10
-11.1243956733
 20
21.8787027078
 10
-11.1015908789
 20
21.8967188326
 10
-11.0777776186
 20
21.9133818719
 10
-11.0530363754
 20
21.9286355089
 10
-11.0274507683
 20
21.9424281901
 10
-11.0011072705
 20
21.9547132996
 10
-10.9740949163
 20
21.9654493168
 10
-10.9465050007
 20
21.9745999567
 10
-10.9184307709
 20
21.9821342924
 10
-10.8899671107
 20
21.9880268597
 10
-10.8612102202
 20
21.9922577432
 10
-10.8322572904
 20
21.9948126436
 10
-10.8032061751
 20
21.9956829259
  0
LWPOLYLINE
  5
256
100
AcDbEntity
  8
RACCORDO
100
AcDbPolyline
 62
250
  6
CONTINUOUS
 90
9
 70
0
 10
-11.297558411
 20
21.42615349
 10
-11.2982295428
 20
21.4406309713
 10
-11.298909296
 20
21.4535005118
 10
-11.299597722
 20
21.4647538264
 10
-11.3002947693
 20
21.4743992003
 10
-11.300996879
 20
21.4823881671
 10
-11.3017028646
 20
21.4887045714
 10
-11.3024139125
 20
21.4933645685
 10
-11.3031300227
 20
21.4963681585
  0
LWPOLYLINE
  5
257
100
AcDbEntity
  8
RACCORDO
100
AcDbPolyline
 62
250
  6
CONTINUOUS
 90
22
 70
0
 10
-11.2792293322
 20
0.3423896812
 10
-11.2786680077
 20
0.3274456543
 10
-11.2769917244
 20
0.3125851858
 10
-11.2742098553
 20
0.2978913658
 10
-11.2703379551
 20
0.283446352
 10
-11.265397673
 20
0.2693309115
 10
-11.2594166326
 20
0.2556239691
 10
-11.2524282763
 20
0.2424021646
 10
-11.2444716788
 20
0.2297394253
 10
-11.2355913288
 20
0.217706553
 10
-11.2258368797
 20
0.2063708271
 10
-11.2152628725
 20
0.1957956289
 10
-11.2039284305
 20
0.1860400876
 10
-11.1918969289
 20
0.1771587491
 10
-11.1792356399
 20
0.1692012711
 10
-11.1660153577
 20
0.1622121459
 10
-11.1523100013
 20
0.1562304512
 10
-11.138196202
 20
0.1512896318
 10
-11.1237528747
 20
0.1474173125
 10
-11.1090607768
 20
0.1446351438
 10
-11.0942020564
 20
0.142958681
 10
-11.0792597931
 20
0.1423972966
  0
LINE
  5
258
100
AcDbEntity
  8
RACCORDO
100
AcDbLine
 62
250
  6
CONTINUOUS
 10
-11.296252296
 20
21.3925870944
 11
-11.297558411
 21
21.42615349
  0
LINE
  5
259
100
AcDbEntity
  8
RACCORDO
100
AcDbLine
 62
250
  6
CONTINUOUS
 10
-10.7976344028
 20
21.8903737859
 11
-10.7989852616
 21
21.931375532
  0
LINE
  5
25A
100
AcDbEntity
  8
RACCORDO
100
AcDbLine
 62
250
  6
CONTINUOUS
 10
-11.2949975469
 20
21.3529707081
 11
-11.296252296
 21
21.3925870944
  0
LINE
  5
25B
100
AcDbEntity
  8
RACCORDO
100
AcDbLine
 62
250
  6
CONTINUOUS
 10
-11.2938038171
 20
21.3075856589
 11
-11.2949975469
 21
21.3529707081
  0
LINE
  5
25C
100
AcDbEntity
  8
RACCORDO
100
AcDbLine
 62
250
  6
CONTINUOUS
 10
-10.7963283259
 20
21.8399961135
 11
-10.7976344028
 21
21.8903737859
  0
LINE
  5
25D
100
AcDbEntity
  8
RACCORDO
100
AcDbLine
 62
250
  6
CONTINUOUS
 10
-11.2921453111
 20
21.2294114719
 11
-11.2938038171
 21
21.3075856589
  0
LINE
  5
25E
100
AcDbEntity
  8
RACCORDO
100
AcDbLine
 62
250
  6
CONTINUOUS
 10
-10.7944691854
 20
21.747610356
 11
-10.7963283259
 21
21.8399961135
  0
LINE
  5
25F
100
AcDbEntity
  8
RACCORDO
100
AcDbLine
 62
250
  6
CONTINUOUS
 10
-11.2902183219
 20
21.1081989834
 11
-11.2921453111
 21
21.2294114719
  0
LINE
  5
260
100
AcDbEntity
  8
RACCORDO
100
AcDbLine
 62
250
  6
CONTINUOUS
 10
-10.7922215061
 20
21.5952799517
 11
-10.7944691854
 21
21.747610356
  0
LINE
  5
261
100
AcDbEntity
  8
RACCORDO
100
AcDbLine
 62
250
  6
CONTINUOUS
 10
-11.2883371371
 20
20.9339907279
 11
-11.2902183219
 21
21.1081989834
  0
LINE
  5
262
100
AcDbEntity
  8
RACCORDO
100
AcDbLine
 62
250
  6
CONTINUOUS
 10
-10.7894673805
 20
21.3129603276
 11
-10.7922215061
 21
21.5952799517
  0
LINE
  5
263
100
AcDbEntity
  8
RACCORDO
100
AcDbLine
 62
250
  6
CONTINUOUS
 10
-11.2869547903
 20
20.7015069383
 11
-11.2883371371
 21
20.9339907279
  0
LINE
  5
264
100
AcDbEntity
  8
RACCORDO
100
AcDbLine
 62
250
  6
CONTINUOUS
 10
-10.7871915245
 20
20.8634482603
 11
-10.7894673805
 21
21.3129603276
  0
LINE
  5
265
100
AcDbEntity
  8
RACCORDO
100
AcDbLine
 62
7
  6
CONTINUOUS
 10
-11.3701459013
 20
-13.1030422961
 11
-11.357071664
 21
-21.664409274
  0
LINE
  5
266
100
AcDbEntity
  8
RACCORDO
100
AcDbLine
 62
250
  6
CONTINUOUS
 10
-11.2854441642
 20
18.8565201797
 11
-11.2869547903
 21
20.7015069383
  0
LINE
  5
267
100
AcDbEntity
  8
RACCORDO
100
AcDbLine
 62
250
  6
CONTINUOUS
 10
-10.7844604792
 20
17.1916505292
 11
-10.7871915245
 21
20.8634482603
  0
LINE
  5
268
100
AcDbEntity
  8
RACCORDO
100
AcDbLine
 62
250
  6
CONTINUOUS
 10
-11.281797973
 20
12.1257634395
 11
-11.2854441642
 21
18.8565201797
  0
LINE
  5
269
100
AcDbEntity
  8
RACCORDO
100
AcDbLine
 62
250
  6
CONTINUOUS
 10
-10.781874545
 20
12.1389010312
 11
-10.7844604792
 21
17.1916505292
  0
LINE
  5
26A
100
AcDbEntity
  8
RACCORDO
100
AcDbLine
 62
250
  6
CONTINUOUS
 10
-11.2801029535
 20
7.076361736
 11
-11.281797973
 21
12.1257634395
  0
LINE
  5
26B
100
AcDbEntity
  8
RACCORDO
100
AcDbLine
 62
250
  6
CONTINUOUS
 10
-10.7801807391
 20
7.0850391376
 11
-10.781874545
 21
12.1389010312
  0
LINE
  5
26C
100
AcDbEntity
  8
RACCORDO
100
AcDbLine
 62
7
  6
CONTINUOUS
 10
-11.3701459013
 20
-0.3030194508
 11
-11.3701459013
 21
-13.1030422961
  0
LINE
  5
26D
100
AcDbEntity
  8
RACCORDO
100
AcDbLine
 62
7
  6
CONTINUOUS
 10
-11.3701459013
 20
0.2969348587
 11
-11.3701459013
 21
13.0969577039
  0
LINE
  5
26E
100
AcDbEntity
  8
RACCORDO
100
AcDbLine
 62
250
  6
CONTINUOUS
 10
-11.2792296222
 20
0.3423895362
 11
-11.2801029535
 21
7.076361736
  0
LINE
  5
26F
100
AcDbEntity
  8
RACCORDO
100
AcDbLine
 62
250
  6
CONTINUOUS
 10
-10.7793055132
 20
0.1449696505
 11
-10.7801807391
 21
7.0850391376
  0
LINE
  5
270
100
AcDbEntity
  8
RACCORDO
100
AcDbLine
 62
250
  6
CONTINUOUS
 10
-11.2801029535
 20
-7.0824463281
 11
-11.2792296222
 21
-0.3484741283
  0
LINE
  5
271
100
AcDbEntity
  8
RACCORDO
100
AcDbLine
 62
250
  6
CONTINUOUS
 10
-10.779812505
 20
-5.4062793575
 11
-10.7793055132
 21
-0.1510542426
  0
LINE
  5
272
100
AcDbEntity
  8
RACCORDO
100
AcDbLine
 62
250
  6
CONTINUOUS
 10
-10.781874545
 20
-12.1449856233
 11
-10.779812505
 21
-5.4062793575
  0
LINE
  5
273
100
AcDbEntity
  8
RACCORDO
100
AcDbLine
 62
250
  6
CONTINUOUS
 10
-11.2825609967
 20
-13.8147459735
 11
-11.2801029535
 21
-7.0824463281
  0
LWPOLYLINE
  5
274
100
AcDbEntity
  8
RACCORDO
100
AcDbPolyline
 62
250
  6
CONTINUOUS
 90
3
 70
0
 10
-11.2854441642
 20
-18.8626047718
 10
-11.2843840923
 20
-17.1801243435
 10
-11.2825609967
 20
-13.8147459735
  0
LWPOLYLINE
  5
275
100
AcDbEntity
  8
RACCORDO
100
AcDbPolyline
 62
250
  6
CONTINUOUS
 90
3
 70
0
 10
-10.7855204398
 20
-18.8817014528
 10
-10.7844604792
 20
-17.1977351214
 10
-10.781874545
 20
-12.1449856233
  0
LINE
  5
276
100
AcDbEntity
  8
RACCORDO
100
AcDbLine
 62
7
  6
CONTINUOUS
 10
-11.3701459013
 20
13.0969577039
 11
-11.357071664
 21
21.6583246819
  0
LINE
  5
277
100
AcDbEntity
  8
RACCORDO
100
AcDbLine
 62
250
  6
CONTINUOUS
 10
-11.287303942
 20
-20.7871898133
 11
-11.2854441642
 21
-18.8626047718
  0
LINE
  5
278
100
AcDbEntity
  8
RACCORDO
100
AcDbLine
 62
250
  6
CONTINUOUS
 10
-10.788114319
 20
-21.1023352229
 11
-10.7855204398
 21
-18.8817014528
  0
LINE
  5
279
100
AcDbEntity
  8
RACCORDO
100
AcDbLine
 62
250
  6
CONTINUOUS
 10
-10.7907431758
 20
-21.4674961143
 11
-10.788114319
 21
-21.1023352229
  0
LINE
  5
27A
100
AcDbEntity
  8
RACCORDO
100
AcDbLine
 62
250
  6
CONTINUOUS
 10
-11.2890144273
 20
-21.0123978501
 11
-11.287303942
 21
-20.7871898133
  0
LINE
  5
27B
100
AcDbEntity
  8
RACCORDO
100
AcDbLine
 62
250
  6
CONTINUOUS
 10
-11.2906669359
 20
-21.1462448992
 11
-11.2890144273
 21
-21.0123978501
  0
LINE
  5
27C
100
AcDbEntity
  8
RACCORDO
100
AcDbLine
 62
250
  6
CONTINUOUS
 10
-10.7933088965
 20
-21.6814950121
 11
-10.7907431758
 21
-21.4674961143
  0
LINE
  5
27D
100
AcDbEntity
  8
RACCORDO
100
AcDbLine
 62
250
  6
CONTINUOUS
 10
-10.7950736351
 20
-21.786667534
 11
-10.7933088965
 21
-21.6814950121
  0
LINE
  5
27E
100
AcDbEntity
  8
RACCORDO
100
AcDbLine
 62
250
  6
CONTINUOUS
 10
-11.292679936
 20
-21.2628772563
 11
-11.2906669359
 21
-21.1462448992
  0
LINE
  5
27F
100
AcDbEntity
  8
RACCORDO
100
AcDbLine
 62
250
  6
CONTINUOUS
 10
-10.796328326
 20
-21.8460807062
 11
-10.7950736351
 21
-21.786667534
  0
LINE
  5
280
100
AcDbEntity
  8
RACCORDO
100
AcDbLine
 62
250
  6
CONTINUOUS
 10
-11.2943930735
 20
-21.3370820548
 11
-11.292679936
 21
-21.2628772563
  0
LINE
  5
281
100
AcDbEntity
  8
RACCORDO
100
AcDbLine
 62
250
  6
CONTINUOUS
 10
-10.7976344028
 20
-21.8964583785
 11
-10.796328326
 21
-21.8460807062
  0
LINE
  5
282
100
AcDbEntity
  8
RACCORDO
100
AcDbLine
 62
250
  6
CONTINUOUS
 10
-11.2956173129
 20
-21.3795827725
 11
-11.2943930735
 21
-21.3370820548
  0
LWPOLYLINE
  5
283
100
AcDbEntity
  8
RACCORDO
100
AcDbPolyline
 62
250
  6
CONTINUOUS
 90
22
 70
0
 10
-11.2792293322
 20
-0.3484742733
 10
-11.2786680095
 20
-0.3335302699
 10
-11.2769917312
 20
-0.3186698232
 10
-11.2742098701
 20
-0.3039760227
 10
-11.2703379804
 20
-0.2895310263
 10
-11.2653977111
 20
-0.2754156006
 10
-11.2594166848
 20
-0.2617086694
 10
-11.2524283433
 20
-0.2484868726
 10
-11.2444717608
 20
-0.2358241376
 10
-11.2355914249
 20
-0.2237912657
 10
-11.2258369887
 20
-0.2124555366
 10
-11.2152629921
 20
-0.201880332
 10
-11.203928558
 20
-0.1921247814
 10
-11.1918970606
 20
-0.183243431
 10
-11.179235772
 20
-0.1752859394
 10
-11.1660154856
 20
-0.1682967996
 10
-11.1523101202
 20
-0.16231509
 10
-11.1381963069
 20
-0.1573742562
 10
-11.1237529606
 20
-0.1535019242
 10
-11.1090608386
 20
-0.1507197453
 10
-11.0942020895
 20
-0.1490432755
 10
-11.0792597931
 20
-0.1484818887
  0
LWPOLYLINE
  5
284
100
AcDbEntity
  8
RACCORDO
100
AcDbPolyline
 62
250
  6
CONTINUOUS
 90
7
 70
0
 10
-10.7989852616
 20
21.931375532
 10
-10.7996736266
 20
21.9482704932
 10
-10.8003706027
 20
21.9627227122
 10
-10.8010727133
 20
21.9747082406
 10
-10.8017787995
 20
21.9842069498
 10
-10.8024900203
 20
21.991202743
 10
-10.8032063755
 20
21.9956838335
  0
LWPOLYLINE
  5
285
100
AcDbEntity
  8
0
100
AcDbPolyline
 62
7
  6
CONTINUOUS
 90
3
 70
0
 43
0.3500000019
 10
0.9227104492
 20
31.2265239258
 10
0.8512802734
 20
31.0122387695
 10
0.708425293
 20
30.7265234375
  0
LWPOLYLINE
  5
286
100
AcDbEntity
  8
RACCORDO
100
AcDbPolyline
 62
250
  6
CONTINUOUS
 90
8
 70
0
 10
-10.8032063755
 20
-22.0017684256
 10
-10.8024900203
 20
-21.9972873352
 10
-10.8017787996
 20
-21.9902915421
 10
-10.8010727133
 20
-21.9807928329
 10
-10.8003706027
 20
-21.9688073047
 10
-10.7996736266
 20
-21.9543550857
 10
-10.7989852616
 20
-21.9374601245
 10
-10.7976344028
 20
-21.8964583785
  0
LWPOLYLINE
  5
287
100
AcDbEntity
  8
RACCORDO
100
AcDbPolyline
 62
250
  6
CONTINUOUS
 90
11
 70
0
 10
-11.3031300227
 20
-21.5024527506
 10
-11.3024139125
 20
-21.4994491607
 10
-11.3017028646
 20
-21.4947891636
 10
-11.300996879
 20
-21.4884727594
 10
-11.3002947693
 20
-21.4804837926
 10
-11.299597722
 20
-21.4708384187
 10
-11.298909296
 20
-21.4595851042
 10
-11.2982295428
 20
-21.4467155637
 10
-11.297558411
 20
-21.4322380825
 10
-11.296899305
 20
-21.4162259833
 10
-11.2956173129
 20
-21.3795827725
  0
LINE
  5
288
100
AcDbEntity
  8
RACCORDO
100
AcDbLine
 62
250
  6
CONTINUOUS
 10
-11.3701459013
 20
0.2969348587
 11
-11.2792296222
 21
0.3423895362
  0
LINE
  5
289
100
AcDbEntity
  8
RACCORDO
100
AcDbLine
 62
250
  6
CONTINUOUS
 10
-11.1701459002
 20
0.0969577039
 11
-11.0792597931
 21
0.1423972966
  0
LINE
  5
28A
100
AcDbEntity
  8
RACCORDO
100
AcDbLine
 62
250
  6
CONTINUOUS
 10
-11.2792296222
 20
-0.3484741283
 11
-11.3701459013
 21
-0.3030194508
  0
LINE
  5
28B
100
AcDbEntity
  8
RACCORDO
100
AcDbLine
 62
250
  6
CONTINUOUS
 10
-11.0792597931
 20
-0.1484818887
 11
-11.1701459002
 21
-0.1030422961
  0
LINE
  5
28C
100
AcDbEntity
  8
RACCORDO
100
AcDbLine
 62
250
  6
CONTINUOUS
 10
-11.357071664
 20
-21.664409274
 11
-11.3031300227
 21
-21.5024527506
  0
LINE
  5
28D
100
AcDbEntity
  8
RACCORDO
100
AcDbLine
 62
250
  6
CONTINUOUS
 10
-10.8566918407
 20
-22.1623550018
 11
-10.8032064774
 21
-22.0017684257
  0
LINE
  5
28E
100
AcDbEntity
  8
DRAFT
100
AcDbLine
 62
7
  6
CONTINUOUS
 10
-10.0660352
 20
0.1240109941
 11
-10.1201459013
 21
0.0969577039
  0
LWPOLYLINE
  5
28F
100
AcDbEntity
  8
0
100
AcDbPolyline
 62
7
  6
CONTINUOUS
 90
2
 70
0
 43
0.3500000019
 10
18.2362592773
 20
-3.2887566223
 10
16.7362578125
 20
-3.2887566223
  0
LINE
  5
290
100
AcDbEntity
  8
DRAFT
100
AcDbLine
 62
7
  6
CONTINUOUS
 10
-10.0660352
 20
-0.1300955862
 11
-10.1201459013
 21
-0.1030422961
  0
LINE
  5
291
100
AcDbEntity
  8
RACCORDO
100
AcDbLine
 62
250
  6
CONTINUOUS
 10
-11.3031300227
 20
21.4963681585
 11
-11.357071664
 21
21.6583246819
  0
LINE
  5
292
100
AcDbEntity
  8
RACCORDO
100
AcDbLine
 62
250
  6
CONTINUOUS
 10
-10.8032064774
 20
21.9956838336
 11
-10.8566918407
 21
22.1562704097
  0
LINE
  5
293
100
AcDbEntity
  8
RACCORDO
100
AcDbLine
 62
250
  6
CONTINUOUS
 10
-1.8395588183
 20
-0.3511858847
 11
-1.8395588183
 21
-0.1510542427
  0
LINE
  5
294
100
AcDbEntity
  8
RACCORDO
100
AcDbLine
 62
250
  6
CONTINUOUS
 10
-1.8395588183
 20
0.3451012926
 11
-1.8395588184
 21
0.1449696506
  0
LWPOLYLINE
  5
295
100
AcDbEntity
  8
RACCORDO
100
AcDbPolyline
 62
250
  6
CONTINUOUS
 90
64
 70
0
 10
-1.7431821852
 20
0.4184644676
 10
-1.7248556172
 20
0.4800087466
 10
-1.7039824591
 20
0.5407899285
 10
-1.6805627109
 20
0.6008080127
 10
-1.6545534797
 20
0.6602093155
 10
-1.6259976584
 20
0.7188475195
 10
-1.5950239256
 20
0.7762836742
 10
-1.5616008583
 20
0.8325051443
 10
-1.5257598794
 20
0.8875245648
 10
-1.4877239362
 20
0.9409408921
 10
-1.4474712915
 20
0.9927294321
 10
-1.4050236825
 20
1.0429148795
 10
-1.3606692681
 20
1.0911702748
 10
-1.3144229136
 20
1.1374512622
 10
-1.2662697537
 20
1.181802199
 10
-1.2164533508
 20
1.2240291955
 10
-1.1649813679
 20
1.2641179715
 10
-1.1118461421
 20
1.3020828091
 10
-1.0572682468
 20
1.3377726624
 10
-1.0012263872
 20
1.3711916562
 10
-0.9437418581
 20
1.402335668
 10
-0.8850991171
 20
1.4310412808
 10
-0.8252805414
 20
1.4572993608
 10
-0.7643037538
 20
1.481119044
 10
-0.7025060798
 20
1.5023643181
 10
-0.6398893108
 20
1.5210169626
 10
-0.5764516554
 20
1.5370951998
 10
-0.5125250646
 20
1.550517681
 10
-0.4481114807
 20
1.5612699033
 10
-0.3832089615
 20
1.5693663708
 10
-0.318143631
 20
1.5747692455
 10
-0.2529156191
 20
1.5774658968
 10
-0.1875247959
 20
1.5774689556
 10
-0.1222968973
 20
1.5747784757
 10
-0.057231906
 20
1.5693818602
 10
0.0076701609
 20
1.5612917056
 10
0.0720835164
 20
1.5505458556
 10
0.1360100004
 20
1.5371299117
 10
0.1994477732
 20
1.5210582713
 10
0.2620655289
 20
1.5024119721
 10
0.3238653312
 20
1.4811727592
 10
0.3848451165
 20
1.4573588857
 10
0.4446673879
 20
1.4311061516
 10
0.5033149727
 20
1.4024050431
 10
0.5608050436
 20
1.3712650717
 10
0.616851622
 20
1.3378505763
 10
0.6714330126
 20
1.3021656766
 10
0.7245709105
 20
1.2642062506
 10
0.7760444233
 20
1.2241242744
 10
0.825860327
 20
1.181906412
 10
0.8740118456
 20
1.1375659974
 10
0.9202577577
 20
1.0912950111
 10
0.9646132018
 20
1.0430496137
 10
1.0070630395
 20
0.9928736429
 10
1.0473206344
 20
0.9410905956
 10
1.085365239
 20
0.8876749284
 10
1.1212176009
 20
0.8326521839
 10
1.1546533262
 20
0.7764224873
 10
1.1856412891
 20
0.718972329
 10
1.2142126154
 20
0.6603152189
 10
1.2402362895
 20
0.6008918117
 10
1.2636686394
 20
0.5408489928
 10
1.2845533371
 20
0.4800398779
 10
1.3028903826
 20
0.4184644676
  0
LWPOLYLINE
  5
296
100
AcDbEntity
  8
RACCORDO
100
AcDbPolyline
 62
250
  6
CONTINUOUS
 90
7
 70
0
 10
10.6389679905
 20
-0.1484818887
 10
10.6382864835
 20
-0.1486178024
 10
10.6368141818
 20
-0.1487525366
 10
10.6345510852
 20
-0.1488860914
 10
10.6314870223
 20
-0.149018823
 10
10.6276321646
 20
-0.1491503751
 10
10.623017027
 20
-0.1492796789
  0
LWPOLYLINE
  5
297
100
AcDbEntity
  8
RACCORDO
100
AcDbPolyline
 62
250
  6
CONTINUOUS
 90
5
 70
0
 10
10.8389378193
 20
-0.3484741821
 10
10.8378167822
 20
-0.3486173326
 10
10.8353585461
 20
-0.3487593114
 10
10.8315699595
 20
-0.3489000702
 10
10.8264616941
 20
-0.3490398759
  0
LWPOLYLINE
  5
298
100
AcDbEntity
  8
RACCORDO
100
AcDbPolyline
 62
250
  6
CONTINUOUS
 90
25
 70
0
 10
-1.7431821852
 20
-0.4245490597
 10
-1.7447765588
 20
-0.4193453009
 10
-1.7466375772
 20
-0.4142630268
 10
-1.7487652405
 20
-0.4093022374
 10
-1.7511673695
 20
-0.4044487576
 10
-1.7538361433
 20
-0.3997167625
 10
-1.7567480992
 20
-0.3951487779
 10
-1.7599054263
 20
-0.3907464095
 10
-1.7633059354
 20
-0.3865080516
 10
-1.7669195964
 20
-0.3824714124
 10
-1.770748348
 20
-0.3786383717
 10
-1.7747902514
 20
-0.3750070498
 10
-1.7790094595
 20
-0.3716095158
 10
-1.7834073632
 20
-0.3684479739
 10
-1.7879825717
 20
-0.36552022
 10
-1.792695065
 20
-0.3628517112
 10
-1.7975461726
 20
-0.3604446872
 10
-1.802534565
 20
-0.3582969083
 10
-1.8076162345
 20
-0.3564271127
 10
-1.812792002
 20
-0.354837753
 10
-1.8180610467
 20
-0.3535263765
 10
-1.8233768978
 20
-0.3525043635
 10
-1.8287240649
 20
-0.3517755071
 10
-1.8341180384
 20
-0.3513360142
 10
-1.8395588183
 20
-0.3511858847
  0
LWPOLYLINE
  5
299
100
AcDbEntity
  8
RACCORDO
100
AcDbPolyline
 62
250
  6
CONTINUOUS
 90
64
 70
0
 10
-1.5504306164
 20
0.3649686991
 10
-1.5344308154
 20
0.4185538712
 10
-1.516193798
 20
0.4716644681
 10
-1.4957230237
 20
0.5242033935
 10
-1.473011841
 20
0.5761037453
 10
-1.4480841793
 20
0.6272344876
 10
-1.4210073256
 20
0.6774068254
 10
-1.3918127314
 20
0.7265286889
 10
-1.3605372876
 20
0.7745065286
 10
-1.3272851574
 20
0.8211633833
 10
-1.2921157131
 20
0.8664119242
 10
-1.2550835412
 20
0.9101781178
 10
-1.2163100611
 20
0.9523225178
 10
-1.1758939065
 20
0.9927529768
 10
-1.1338861543
 20
1.0314328041
 10
-1.0903469318
 20
1.0683155812
 10
-1.0453637277
 20
1.103334977
 10
-0.9990073689
 20
1.1364433713
 10
-0.9513102214
 20
1.1676195844
 10
-0.9023370466
 20
1.1968175132
 10
-0.8521849825
 20
1.2239755641
 10
-0.800933835
 20
1.2490478146
 10
-0.7486605151
 20
1.271992898
 10
-0.6954624509
 20
1.292764374
 10
-0.6414538994
 20
1.3113164037
 10
-0.5867336685
 20
1.3276159142
 10
-0.5313894476
 20
1.3416376392
 10
-0.4755219415
 20
1.35335689
 10
-0.4192307361
 20
1.3627542107
 10
-0.3626085183
 20
1.3698155474
 10
-0.3057467193
 20
1.3745303318
 10
-0.2487432239
 20
1.3768909759
 10
-0.19169476
 20
1.3768939974
 10
-0.1346912541
 20
1.3745394067
 10
-0.0778295125
 20
1.3698307133
 10
-0.0212073345
 20
1.3627755227
 10
0.0350840935
 20
1.3533843777
 10
0.0909519837
 20
1.341671345
 10
0.1462968578
 20
1.3276558532
 10
0.2010185462
 20
1.3113624077
 10
0.255029535
 20
1.2928161256
 10
0.3082307862
 20
1.2720500592
 10
0.3605079463
 20
1.2491100004
 10
0.4117639928
 20
1.2240420979
 10
0.4619215124
 20
1.1968878513
 10
0.510899329
 20
1.1676939539
 10
0.5586001281
 20
1.1365222646
 10
0.6049594546
 20
1.1034188543
 10
0.6499444559
 20
1.0684054623
 10
0.6934836138
 20
1.0315306041
 10
0.7354904859
 20
0.9928600905
 10
0.7759069192
 20
0.9524385948
 10
0.814681659
 20
0.91030285
 10
0.8517161427
 20
0.8665447725
 10
0.8868907651
 20
0.8213011678
 10
0.9201511196
 20
0.7746449071
 10
0.9514367602
 20
0.7266638393
 10
0.9806431095
 20
0.6775346014
 10
1.0077330299
 20
0.627350093
 10
1.0326743161
 20
0.5762026428
 10
1.0553986362
 20
0.5242822173
 10
1.0758815533
 20
0.4717202738
 10
1.094129573
 20
0.4185832965
 10
1.1101388925
 20
0.3649684143
  0
LWPOLYLINE
  5
29A
100
AcDbEntity
  8
0
100
AcDbPolyline
 62
7
  6
CONTINUOUS
 90
25
 70
0
 10
-1.5462401944
 20
0.3604118632
 10
-1.5509591786
 20
0.3448489391
 10
-1.5564941707
 20
0.3296203188
 10
-1.5628451707
 20
0.3147260023
 10
-1.5700455408
 20
0.3001052275
 10
-1.5780619188
 20
0.2858187565
 10
-1.5867942179
 20
0.2720488758
 10
-1.5962244108
 20
0.2588358192
 10
-1.6063705248
 20
0.2461393528
 10
-1.6171865554
 20
0.2340210626
 10
-1.6287004747
 20
0.2224582141
 10
-1.6408843105
 20
0.2114735418
 10
-1.6536081416
 20
0.2011968342
 10
-1.6668818198
 20
0.1916410453
 10
-1.6806954932
 20
0.1827932213
 10
-1.6948896852
 20
0.1747442892
 10
-1.7094343237
 20
0.1675153301
 10
-1.7243594808
 20
0.161085263
 10
-1.7395958959
 20
0.1554817721
 10
-1.7551891283
 20
0.1506976015
 10
-1.7710936187
 20
0.1467400069
 10
-1.7871034291
 20
0.14365844
 10
-1.8031499133
 20
0.1414693845
 10
-1.8193017174
 20
0.1401563565
 10
-1.8355588415
 20
0.1397193561
  0
LINE
  5
29B
100
AcDbEntity
  8
RACCORDO
100
AcDbLine
 62
250
  6
CONTINUOUS
 10
-1.8355588415
 20
-0.1458039482
 11
-1.8395588183
 21
-0.1510542427
  0
LINE
  5
29C
100
AcDbEntity
  8
RACCORDO
100
AcDbLine
 62
250
  6
CONTINUOUS
 10
-1.5462401944
 20
-0.3664964553
 11
-1.5504306951
 21
-0.3710530065
  0
LINE
  5
29D
100
AcDbEntity
  8
DRAFT
100
AcDbLine
 62
7
  6
CONTINUOUS
 10
-2.5218784818
 20
0.1240109941
 11
-2.5164876313
 21
0.1266290544
  0
LINE
  5
29E
100
AcDbEntity
  8
RACCORDO
100
AcDbLine
 62
250
  6
CONTINUOUS
 10
-1.5510855893
 20
-0.3712507052
 11
-1.5504306283
 21
-0.3710569825
  0
LINE
  5
29F
100
AcDbEntity
  8
RACCORDO
100
AcDbLine
 62
250
  6
CONTINUOUS
 10
1.1107937867
 20
0.3651661131
 11
1.1101388257
 21
0.3649723904
  0
LINE
  5
2A0
100
AcDbEntity
  8
RACCORDO
100
AcDbLine
 62
250
  6
CONTINUOUS
 10
1.119090971
 20
0.3674983803
 11
1.1107937867
 21
0.3651661131
  0
LINE
  5
2A1
100
AcDbEntity
  8
RACCORDO
100
AcDbLine
 62
250
  6
CONTINUOUS
 10
-1.5593827736
 20
-0.3735829724
 11
-1.5510855893
 21
-0.3712507052
  0
LINE
  5
2A2
100
AcDbEntity
  8
RACCORDO
100
AcDbLine
 62
250
  6
CONTINUOUS
 10
-1.7431821852
 20
-0.4245490597
 11
-1.5593827736
 21
-0.3735829724
  0
LINE
  5
2A3
100
AcDbEntity
  8
RACCORDO
100
AcDbLine
 62
250
  6
CONTINUOUS
 10
1.3028903826
 20
0.4184644676
 11
1.119090971
 21
0.3674983803
  0
LINE
  5
2A4
100
AcDbEntity
  8
DRAFT
100
AcDbLine
 62
7
  6
CONTINUOUS
 10
1.7028682574
 20
-0.1327136465
 11
1.6494112951
 21
-0.1458039482
  0
LWPOLYLINE
  5
2A5
100
AcDbEntity
  8
RACCORDO
100
AcDbPolyline
 62
250
  6
CONTINUOUS
 90
25
 70
0
 10
1.3992670157
 20
-0.3511858847
 10
1.3938262358
 20
-0.3513360142
 10
1.3884322623
 20
-0.3517755071
 10
1.3830850951
 20
-0.3525043635
 10
1.3777692441
 20
-0.3535263765
 10
1.3725001994
 20
-0.354837753
 10
1.3673244318
 20
-0.3564271127
 10
1.3622427623
 20
-0.3582969083
 10
1.35725437
 20
-0.3604446872
 10
1.3524032624
 20
-0.3628517112
 10
1.3476907691
 20
-0.36552022
 10
1.3431155606
 20
-0.3684479739
 10
1.3387176569
 20
-0.3716095158
 10
1.3344984488
 20
-0.3750070497
 10
1.3304565454
 20
-0.3786383717
 10
1.3266277937
 20
-0.3824714124
 10
1.3230141328
 20
-0.3865080516
 10
1.3196136237
 20
-0.3907464095
 10
1.3164562966
 20
-0.3951487778
 10
1.3135443407
 20
-0.3997167625
 10
1.3108755669
 20
-0.4044487576
 10
1.3084734379
 20
-0.4093022374
 10
1.3063457746
 20
-0.4142630268
 10
1.3044847562
 20
-0.4193453009
 10
1.3028903826
 20
-0.4245490597
  0
LWPOLYLINE
  5
2A6
100
AcDbEntity
  8
RACCORDO
100
AcDbPolyline
 62
250
  6
CONTINUOUS
 90
25
 70
0
 10
1.3992670157
 20
-0.1510542427
 10
1.3830138779
 20
-0.1514954674
 10
1.3668088377
 20
-0.1528165567
 10
1.350699488
 20
-0.1550135743
 10
1.3347335004
 20
-0.1580799305
 10
1.3189573827
 20
-0.1620066057
 10
1.3034163899
 20
-0.1667823741
 10
1.2881554347
 20
-0.1723936362
 10
1.273220188
 20
-0.1788238052
 10
1.2586557795
 20
-0.1860534698
 10
1.2445055174
 20
-0.1940609672
 10
1.2308103193
 20
-0.2028229721
 10
1.2176098666
 20
-0.2123140448
 10
1.2049429044
 20
-0.2225063392
 10
1.1928466709
 20
-0.2333699034
 10
1.1813563511
 20
-0.2448732007
 10
1.1705053608
 20
-0.2569829731
 10
1.1603260873
 20
-0.2696632825
 10
1.1508492531
 20
-0.2828758234
 10
1.1421028157
 20
-0.2965813368
 10
1.1341120941
 20
-0.3107398433
 10
1.1269004583
 20
-0.3253096627
 10
1.1204889693
 20
-0.3402479385
 10
1.1148963233
 20
-0.355510767
 10
1.1101388138
 20
-0.3710532914
  0
LWPOLYLINE
  5
2A7
100
AcDbEntity
  8
RACCORDO
100
AcDbPolyline
 62
250
  6
CONTINUOUS
 90
25
 70
0
 10
-1.8395588183
 20
0.1449696506
 10
-1.8233056805
 20
0.1454108753
 10
-1.8071006403
 20
0.1467319646
 10
-1.7909912906
 20
0.1489289822
 10
-1.7750253031
 20
0.1519953384
 10
-1.7592491854
 20
0.1559220136
 10
-1.7437081925
 20
0.1606977819
 10
-1.7284472374
 20
0.166309044
 10
-1.7135119906
 20
0.1727392131
 10
-1.6989475821
 20
0.1799688777
 10
-1.68479732
 20
0.1879763751
 10
-1.6711021219
 20
0.1967383799
 10
-1.6579016693
 20
0.2062294526
 10
-1.645234707
 20
0.2164217471
 10
-1.6331384735
 20
0.2272853113
 10
-1.6216481537
 20
0.2387886086
 10
-1.6107971634
 20
0.250898381
 10
-1.6006178899
 20
0.2635786904
 10
-1.5911410557
 20
0.2767912313
 10
-1.5823946183
 20
0.2904967447
 10
-1.5744038967
 20
0.3046552512
 10
-1.567192261
 20
0.3192250706
 10
-1.5607807719
 20
0.3341633464
 10
-1.555188126
 20
0.3494261749
 10
-1.5504306165
 20
0.3649686993
  0
LINE
  5
2A8
100
AcDbEntity
  8
RACCORDO
100
AcDbLine
 62
250
  6
CONTINUOUS
 10
10.623017027
 20
-0.1492796789
 11
10.6114933572
 21
-0.1495315011
  0
LINE
  5
2A9
100
AcDbEntity
  8
RACCORDO
100
AcDbLine
 62
250
  6
CONTINUOUS
 10
10.8264616941
 20
-0.3490398759
 11
10.8123438491
 21
-0.3493145504
  0
LINE
  5
2AA
100
AcDbEntity
  8
RACCORDO
100
AcDbLine
 62
250
  6
CONTINUOUS
 10
10.6114933572
 20
-0.1495315011
 11
10.5887906784
 21
-0.1498862558
  0
LINE
  5
2AB
100
AcDbEntity
  8
RACCORDO
100
AcDbLine
 62
250
  6
CONTINUOUS
 10
10.8123438491
 20
-0.3493145504
 11
10.7817144637
 21
-0.3497078584
  0
LINE
  5
2AC
100
AcDbEntity
  8
RACCORDO
100
AcDbLine
 62
250
  6
CONTINUOUS
 10
10.5887906784
 20
-0.1498862558
 11
10.5379364622
 21
-0.1503959029
  0
LINE
  5
2AD
100
AcDbEntity
  8
RACCORDO
100
AcDbLine
 62
250
  6
CONTINUOUS
 10
10.7817144637
 20
-0.3497078584
 11
10.6894672149
 21
-0.3503933392
  0
LINE
  5
2AE
100
AcDbEntity
  8
RACCORDO
100
AcDbLine
 62
250
  6
CONTINUOUS
 10
10.5379364622
 20
-0.1503959029
 11
10.4306966722
 21
-0.1509289855
  0
LINE
  5
2AF
100
AcDbEntity
  8
RACCORDO
100
AcDbLine
 62
250
  6
CONTINUOUS
 10
-10.9663148106
 20
0.1443987008
 11
-10.8560933741
 21
0.1448824062
  0
LINE
  5
2B0
100
AcDbEntity
  8
RACCORDO
100
AcDbLine
 62
250
  6
CONTINUOUS
 10
10.6894672149
 20
-0.3503933392
 11
10.4918433661
 21
-0.3510531441
  0
LWPOLYLINE
  5
2B1
100
AcDbEntity
  8
0
100
AcDbPolyline
 62
7
  6
CONTINUOUS
 90
2
 70
0
 43
0.3500000019
 10
18.2362592773
 20
-0.9316136932
 10
16.7362578125
 20
-0.9316136932
  0
LINE
  5
2B2
100
AcDbEntity
  8
RACCORDO
100
AcDbLine
 62
250
  6
CONTINUOUS
 10
10.4918433661
 20
-0.3510531441
 11
1.3992670157
 21
-0.3511858847
  0
LINE
  5
2B3
100
AcDbEntity
  8
RACCORDO
100
AcDbLine
 62
250
  6
CONTINUOUS
 10
10.4306966722
 20
-0.1509289855
 11
1.3992670157
 21
-0.1510542427
  0
LINE
  5
2B4
100
AcDbEntity
  8
0
100
AcDbLine
 62
7
  6
CONTINUOUS
 10
1.6494112951
 20
-0.1458039482
 11
1.3952670389
 21
-0.1458039482
  0
LINE
  5
2B5
100
AcDbEntity
  8
0
100
AcDbLine
 62
7
  6
CONTINUOUS
 10
-1.8355588415
 20
-0.1458039482
 11
-2.0897030977
 21
-0.1458039482
  0
LINE
  5
2B6
100
AcDbEntity
  8
DRAFT
100
AcDbLine
 62
7
  6
CONTINUOUS
 10
2.0761958287
 20
-0.1327136465
 11
1.7028682574
 21
-0.1327136465
  0
LINE
  5
2B7
100
AcDbEntity
  8
DRAFT
100
AcDbLine
 62
7
  6
CONTINUOUS
 10
-2.14316006
 20
-0.1327136465
 11
-2.5164876313
 21
-0.1327136465
  0
LINE
  5
2B8
100
AcDbEntity
  8
DRAFT
100
AcDbLine
 62
7
  6
CONTINUOUS
 10
-10.0660352
 20
-0.1300955862
 11
-2.5218784818
 21
-0.1300955862
  0
LINE
  5
2B9
100
AcDbEntity
  8
DRAFT
100
AcDbLine
 62
7
  6
CONTINUOUS
 10
2.0815866792
 20
-0.1300955862
 11
9.6257433974
 21
-0.1300955862
  0
LINE
  5
2BA
100
AcDbEntity
  8
RACCORDO
100
AcDbLine
 62
7
  6
CONTINUOUS
 10
-11.1701459002
 20
-0.1030422961
 11
-10.1201459013
 21
-0.1030422961
  0
LINE
  5
2BB
100
AcDbEntity
  8
RACCORDO
100
AcDbLine
 62
7
  6
CONTINUOUS
 10
9.6798540987
 20
-0.1030422961
 11
10.7298540975
 21
-0.1030422961
  0
LINE
  5
2BC
100
AcDbEntity
  8
RACCORDO
100
AcDbLine
 62
7
  6
CONTINUOUS
 10
10.7298540975
 20
0.0969577039
 11
9.6798540987
 21
0.0969577039
  0
LINE
  5
2BD
100
AcDbEntity
  8
RACCORDO
100
AcDbLine
 62
7
  6
CONTINUOUS
 10
-10.1201459013
 20
0.0969577039
 11
-11.1701459002
 21
0.0969577039
  0
LINE
  5
2BE
100
AcDbEntity
  8
DRAFT
100
AcDbLine
 62
7
  6
CONTINUOUS
 10
9.6257433974
 20
0.1240109941
 11
2.0815866792
 21
0.1240109941
  0
LINE
  5
2BF
100
AcDbEntity
  8
DRAFT
100
AcDbLine
 62
7
  6
CONTINUOUS
 10
-2.5218784818
 20
0.1240109941
 11
-10.0660352
 21
0.1240109941
  0
LINE
  5
2C0
100
AcDbEntity
  8
DRAFT
100
AcDbLine
 62
7
  6
CONTINUOUS
 10
-2.5164876313
 20
0.1266290544
 11
-2.14316006
 21
0.1266290544
  0
LINE
  5
2C1
100
AcDbEntity
  8
DRAFT
100
AcDbLine
 62
7
  6
CONTINUOUS
 10
1.7028682574
 20
0.1266290544
 11
2.0761958287
 21
0.1266290544
  0
LINE
  5
2C2
100
AcDbEntity
  8
0
100
AcDbLine
 62
7
  6
CONTINUOUS
 10
-2.0897030977
 20
0.1397193561
 11
-1.8355588415
 21
0.1397193561
  0
LINE
  5
2C3
100
AcDbEntity
  8
0
100
AcDbLine
 62
7
  6
CONTINUOUS
 10
1.3952670389
 20
0.1397193561
 11
1.6494112951
 21
0.1397193561
  0
LINE
  5
2C4
100
AcDbEntity
  8
RACCORDO
100
AcDbLine
 62
250
  6
CONTINUOUS
 10
-10.8560933741
 20
0.1448824062
 11
-1.8395588183
 21
0.1449696506
  0
LINE
  5
2C5
100
AcDbEntity
  8
RACCORDO
100
AcDbLine
 62
250
  6
CONTINUOUS
 10
-1.8395588183
 20
-0.3511858847
 11
-11.0039551397
 21
-0.3508907282
  0
LINE
  5
2C6
100
AcDbEntity
  8
RACCORDO
100
AcDbLine
 62
250
  6
CONTINUOUS
 10
-1.8395588183
 20
-0.1510542427
 11
-10.9140849312
 21
-0.1507751555
  0
LINE
  5
2C7
100
AcDbEntity
  8
RACCORDO
100
AcDbLine
 62
250
  6
CONTINUOUS
 10
1.3992670157
 20
0.1449696506
 11
10.4737931286
 21
0.1446905633
  0
LINE
  5
2C8
100
AcDbEntity
  8
RACCORDO
100
AcDbLine
 62
250
  6
CONTINUOUS
 10
10.4737931286
 20
0.1446905633
 11
10.5260230074
 21
0.1443987008
  0
LINE
  5
2C9
100
AcDbEntity
  8
RACCORDO
100
AcDbLine
 62
250
  6
CONTINUOUS
 10
-11.0039551397
 20
-0.3508907282
 11
-11.1807167985
 21
-0.3500703511
  0
LINE
  5
2CA
100
AcDbEntity
  8
RACCORDO
100
AcDbLine
 62
250
  6
CONTINUOUS
 10
-10.9140849312
 20
-0.1507751555
 11
-11.0003618551
 21
-0.1502060885
  0
LINE
  5
2CB
100
AcDbEntity
  8
RACCORDO
100
AcDbLine
 62
250
  6
CONTINUOUS
 10
-11.1807167985
 20
-0.3500703511
 11
-11.2334428386
 21
-0.349579809
  0
LINE
  5
2CC
100
AcDbEntity
  8
RACCORDO
100
AcDbLine
 62
250
  6
CONTINUOUS
 10
-11.0003618551
 20
-0.1502060885
 11
-11.0373628326
 21
-0.1497712719
  0
LINE
  5
2CD
100
AcDbEntity
  8
RACCORDO
100
AcDbLine
 62
250
  6
CONTINUOUS
 10
-11.2334428386
 20
-0.349579809
 11
-11.2526356513
 21
-0.3493145504
  0
LINE
  5
2CE
100
AcDbEntity
  8
RACCORDO
100
AcDbLine
 62
250
  6
CONTINUOUS
 10
-11.0373628326
 20
-0.1497712719
 11
-11.0517851595
 21
-0.1495315011
  0
LWPOLYLINE
  5
2CF
100
AcDbEntity
  8
RACCORDO
100
AcDbPolyline
 62
250
  6
CONTINUOUS
 90
6
 70
0
 10
-11.2526356513
 20
-0.3493145504
 10
-11.2667534964
 20
-0.3490398759
 10
-11.2718617618
 20
-0.3489000703
 10
-11.2756503486
 20
-0.3487593114
 10
-11.2781085848
 20
-0.3486173326
 10
-11.279229622
 20
-0.3484741821
  0
LWPOLYLINE
  5
2D0
100
AcDbEntity
  8
RACCORDO
100
AcDbPolyline
 62
250
  6
CONTINUOUS
 90
8
 70
0
 10
-11.0517851595
 20
-0.1495315011
 10
-11.0633088294
 20
-0.1492796789
 10
-11.067923967
 20
-0.1491503752
 10
-11.0717788247
 20
-0.149018823
 10
-11.0748428877
 20
-0.1488860914
 10
-11.0771059843
 20
-0.1487525366
 10
-11.0785782861
 20
-0.1486178024
 10
-11.0792597931
 20
-0.1484818887
  0
LWPOLYLINE
  5
2D1
100
AcDbEntity
  8
0
100
AcDbPolyline
 62
7
  6
CONTINUOUS
 90
25
 70
0
 10
-1.8355588415
 20
-0.1458039482
 10
-1.8193017174
 20
-0.1462409486
 10
-1.8031499133
 20
-0.1475539766
 10
-1.7871034291
 20
-0.1497430321
 10
-1.7710936187
 20
-0.152824599
 10
-1.7551891283
 20
-0.1567821936
 10
-1.7395958959
 20
-0.1615663642
 10
-1.7243594808
 20
-0.1671698552
 10
-1.7094343237
 20
-0.1735999222
 10
-1.6948896852
 20
-0.1808288813
 10
-1.6806954932
 20
-0.1888778134
 10
-1.6668818198
 20
-0.1977256375
 10
-1.6536081416
 20
-0.2072814263
 10
-1.6408843105
 20
-0.2175581339
 10
-1.6287004747
 20
-0.2285428062
 10
-1.6171865554
 20
-0.2401056547
 10
-1.6063705248
 20
-0.2522239449
 10
-1.5962244108
 20
-0.2649204113
 10
-1.5867942179
 20
-0.2781334679
 10
-1.5780619188
 20
-0.2919033486
 10
-1.5700455408
 20
-0.3061898196
 10
-1.5628451707
 20
-0.3208105944
 10
-1.5564941707
 20
-0.3357049109
 10
-1.5509591786
 20
-0.3509335312
 10
-1.5462401944
 20
-0.3664964553
  0
LWPOLYLINE
  5
2D2
100
AcDbEntity
  8
0
100
AcDbPolyline
 62
7
  6
CONTINUOUS
 90
25
 70
0
 10
1.3952670389
 20
0.1397193561
 10
1.3790099148
 20
0.1401563565
 10
1.3628581107
 20
0.1414693845
 10
1.3468116264
 20
0.14365844
 10
1.3308018161
 20
0.1467400069
 10
1.3148973257
 20
0.1506976015
 10
1.2993040933
 20
0.1554817721
 10
1.2840676782
 20
0.161085263
 10
1.2691425211
 20
0.1675153301
 10
1.2545978826
 20
0.1747442892
 10
1.2404036906
 20
0.1827932213
 10
1.2265900171
 20
0.1916410453
 10
1.213316339
 20
0.2011968342
 10
1.2005925079
 20
0.2114735418
 10
1.1884086721
 20
0.2224582141
 10
1.1768947528
 20
0.2340210626
 10
1.1660787222
 20
0.2461393528
 10
1.1559326082
 20
0.2588358192
 10
1.1465024153
 20
0.2720488758
 10
1.1377701162
 20
0.2858187565
 10
1.1297537381
 20
0.3001052275
 10
1.122553368
 20
0.3147260023
 10
1.116202368
 20
0.3296203188
 10
1.110667376
 20
0.3448489391
 10
1.1059483918
 20
0.3604118632
  0
LINE
  5
2D3
100
AcDbEntity
  8
DRAFT
100
AcDbLine
 62
7
  6
CONTINUOUS
 10
-2.0897030977
 20
-0.1458039482
 11
-2.14316006
 21
-0.1327136465
  0
LWPOLYLINE
  5
2D4
100
AcDbEntity
  8
RACCORDO
100
AcDbPolyline
 62
250
  6
CONTINUOUS
 90
4
 70
0
 10
-1.7431821852
 20
0.4184644675
 10
-1.5528019083
 20
0.3656533845
 10
-1.5510842432
 20
0.3651657408
 10
-1.5504292762
 20
0.3649720163
  0
LWPOLYLINE
  5
2D5
100
AcDbEntity
  8
RACCORDO
100
AcDbPolyline
 62
250
  6
CONTINUOUS
 90
4
 70
0
 10
1.3028903826
 20
-0.4245490596
 10
1.1125101056
 20
-0.3717379766
 10
1.1107924406
 20
-0.3712503329
 10
1.1101374736
 20
-0.3710566084
  0
LINE
  5
2D6
100
AcDbEntity
  8
DRAFT
100
AcDbLine
 62
7
  6
CONTINUOUS
 10
-2.5164876313
 20
-0.1327136465
 11
-2.5218784818
 21
-0.1300955862
  0
LINE
  5
2D7
100
AcDbEntity
  8
RACCORDO
100
AcDbLine
 62
250
  6
CONTINUOUS
 10
-1.5504306164
 20
0.3649686991
 11
-1.5462401944
 21
0.3604118632
  0
LINE
  5
2D8
100
AcDbEntity
  8
RACCORDO
100
AcDbLine
 62
250
  6
CONTINUOUS
 10
-1.8395588183
 20
0.1449696506
 11
-1.8355588415
 21
0.1397193561
  0
LWPOLYLINE
  5
2D9
100
AcDbEntity
  8
RACCORDO
100
AcDbPolyline
 62
250
  6
CONTINUOUS
 90
25
 70
0
 10
-1.5504306953
 20
-0.3710530066
 10
-1.5551881782
 20
-0.3555106114
 10
-1.5607807961
 20
-0.3402478776
 10
-1.5671922609
 20
-0.3253096629
 10
-1.5744038864
 20
-0.3107398628
 10
-1.5823946126
 20
-0.2965813462
 10
-1.5911410557
 20
-0.2828758234
 10
-1.6006178899
 20
-0.2696632826
 10
-1.6107971634
 20
-0.2569829732
 10
-1.6216481537
 20
-0.2448732008
 10
-1.6331384734
 20
-0.2333699035
 10
-1.645234707
 20
-0.2225063393
 10
-1.6579016692
 20
-0.2123140448
 10
-1.6711021219
 20
-0.2028229721
 10
-1.68479732
 20
-0.1940609672
 10
-1.6989475821
 20
-0.1860534698
 10
-1.7135119906
 20
-0.1788238052
 10
-1.7284472374
 20
-0.1723936362
 10
-1.7437081925
 20
-0.1667823741
 10
-1.7592491853
 20
-0.1620066057
 10
-1.775025303
 20
-0.1580799305
 10
-1.7909912905
 20
-0.1550135743
 10
-1.8071006402
 20
-0.1528165568
 10
-1.8233056804
 20
-0.1514954674
 10
-1.8395588183
 20
-0.1510542427
  0
LINE
  5
2DA
100
AcDbEntity
  8
RACCORDO
100
AcDbLine
 62
250
  6
CONTINUOUS
 10
1.3992670157
 20
-0.3511858847
 11
1.3992670157
 21
-0.1510542427
  0
LINE
  5
2DB
100
AcDbEntity
  8
RACCORDO
100
AcDbLine
 62
250
  6
CONTINUOUS
 10
1.3992670157
 20
0.3451012926
 11
1.3992670157
 21
0.1449696506
  0
LWPOLYLINE
  5
2DC
100
AcDbEntity
  8
RACCORDO
100
AcDbPolyline
 62
250
  6
CONTINUOUS
 90
64
 70
0
 10
1.3028903826
 20
-0.4245490597
 10
1.2845638146
 20
-0.4860933387
 10
1.2636906565
 20
-0.5468745206
 10
1.2402709082
 20
-0.6068926048
 10
1.2142616771
 20
-0.6662939076
 10
1.1857058558
 20
-0.7249321116
 10
1.1547321229
 20
-0.7823682663
 10
1.1213090556
 20
-0.8385897364
 10
1.0854680768
 20
-0.8936091569
 10
1.0474321336
 20
-0.9470254843
 10
1.0071794889
 20
-0.9988140242
 10
0.9647318799
 20
-1.0489994716
 10
0.9203774654
 20
-1.0972548669
 10
0.874131111
 20
-1.1435358543
 10
0.825977951
 20
-1.1878867911
 10
0.7761615481
 20
-1.2301137876
 10
0.7246895653
 20
-1.2702025636
 10
0.6715543395
 20
-1.3081674012
 10
0.6169764442
 20
-1.3438572545
 10
0.5609345846
 20
-1.3772762483
 10
0.5034500555
 20
-1.4084202601
 10
0.4448073145
 20
-1.4371258729
 10
0.3849887388
 20
-1.4633839529
 10
0.3240119512
 20
-1.4872036361
 10
0.2622142772
 20
-1.5084489102
 10
0.1995975082
 20
-1.5271015547
 10
0.1361598528
 20
-1.5431797919
 10
0.072233262
 20
-1.5566022731
 10
0.0078196781
 20
-1.5673544954
 10
-0.0570828412
 20
-1.5754509629
 10
-0.1221481716
 20
-1.5808538376
 10
-0.1873761836
 20
-1.5835504889
 10
-0.2527670067
 20
-1.5835535477
 10
-0.3179949054
 20
-1.5808630678
 10
-0.3830598967
 20
-1.5754664523
 10
-0.4479619635
 20
-1.5673762977
 10
-0.5123753191
 20
-1.5566304477
 10
-0.5763018031
 20
-1.5432145038
 10
-0.6397395758
 20
-1.5271428634
 10
-0.7023573315
 20
-1.5084965642
 10
-0.7641571339
 20
-1.4872573513
 10
-0.8251369191
 20
-1.4634434778
 10
-0.8849591905
 20
-1.4371907437
 10
-0.9436067754
 20
-1.4084896352
 10
-1.0010968463
 20
-1.3773496638
 10
-1.0571434247
 20
-1.3439351684
 10
-1.1117248152
 20
-1.3082502687
 10
-1.1648627132
 20
-1.2702908427
 10
-1.216336226
 20
-1.2302088665
 10
-1.2661521297
 20
-1.1879910041
 10
-1.3143036482
 20
-1.1436505895
 10
-1.3605495603
 20
-1.0973796032
 10
-1.4049050044
 20
-1.0491342058
 10
-1.4473548421
 20
-0.998958235
 10
-1.4876124371
 20
-0.9471751877
 10
-1.5256570417
 20
-0.8937595205
 10
-1.5615094035
 20
-0.838736776
 10
-1.5949451289
 20
-0.7825070794
 10
-1.6259330917
 20
-0.7250569211
 10
-1.654504418
 20
-0.666399811
 10
-1.6805280921
 20
-0.6069764038
 10
-1.7039604421
 20
-0.5469335849
 10
-1.7248451398
 20
-0.48612447
 10
-1.7431821852
 20
-0.4245490597
  0
LWPOLYLINE
  5
2DD
100
AcDbEntity
  8
RACCORDO
100
AcDbPolyline
 62
250
  6
CONTINUOUS
 90
64
 70
0
 10
1.1101388137
 20
-0.3710532912
 10
1.0941390128
 20
-0.4246384633
 10
1.0759019954
 20
-0.4777490602
 10
1.0554312211
 20
-0.5302879856
 10
1.0327200383
 20
-0.5821883374
 10
1.0077923767
 20
-0.6333190797
 10
0.980715523
 20
-0.6834914175
 10
0.9515209288
 20
-0.732613281
 10
0.9202454849
 20
-0.7805911208
 10
0.8869933548
 20
-0.8272479755
 10
0.8518239105
 20
-0.8724965163
 10
0.8147917386
 20
-0.9162627099
 10
0.7760182585
 20
-0.9584071099
 10
0.7356021039
 20
-0.9988375689
 10
0.6935943517
 20
-1.0375173963
 10
0.6500551292
 20
-1.0744001733
 10
0.605071925
 20
-1.1094195691
 10
0.5587155663
 20
-1.1425279634
 10
0.5110184188
 20
-1.1737041765
 10
0.462045244
 20
-1.2029021054
 10
0.4118931799
 20
-1.2300601562
 10
0.3606420324
 20
-1.2551324067
 10
0.3083687125
 20
-1.2780774901
 10
0.2551706483
 20
-1.2988489661
 10
0.2011620968
 20
-1.3174009958
 10
0.1464418659
 20
-1.3337005063
 10
0.0910976449
 20
-1.3477222313
 10
0.0352301389
 20
-1.3594414821
 10
-0.0210610665
 20
-1.3688388028
 10
-0.0776832844
 20
-1.3759001396
 10
-0.1345450833
 20
-1.380614924
 10
-0.1915485788
 20
-1.382975568
 10
-0.2485970427
 20
-1.3829785895
 10
-0.3056005486
 20
-1.3806239988
 10
-0.3624622902
 20
-1.3759153054
 10
-0.4190844682
 20
-1.3688601148
 10
-0.4753758961
 20
-1.3594689698
 10
-0.5312437864
 20
-1.3477559371
 10
-0.5865886604
 20
-1.3337404454
 10
-0.6413103488
 20
-1.3174469998
 10
-0.6953213377
 20
-1.2989007177
 10
-0.7485225889
 20
-1.2781346513
 10
-0.800799749
 20
-1.2551945925
 10
-0.8520557954
 20
-1.23012669
 10
-0.902213315
 20
-1.2029724434
 10
-0.9511911317
 20
-1.173778546
 10
-0.9988919307
 20
-1.1426068567
 10
-1.0452512572
 20
-1.1095034464
 10
-1.0902362585
 20
-1.0744900544
 10
-1.1337754164
 20
-1.0376151962
 10
-1.1757822885
 20
-0.9989446826
 10
-1.2161987218
 20
-0.9585231869
 10
-1.2549734617
 20
-0.9163874421
 10
-1.2920079453
 20
-0.8726293646
 10
-1.3271825677
 20
-0.8273857599
 10
-1.3604429222
 20
-0.7807294992
 10
-1.3917285628
 20
-0.7327484314
 10
-1.4209349121
 20
-0.6836191935
 10
-1.4480248325
 20
-0.6334346851
 10
-1.4729661187
 20
-0.5822872349
 10
-1.4956904389
 20
-0.5303668094
 10
-1.5161733559
 20
-0.4778048659
 10
-1.5344213757
 20
-0.4246678886
 10
-1.5504306951
 20
-0.3710530065
  0
LWPOLYLINE
  5
2DE
100
AcDbEntity
  8
0
100
AcDbPolyline
 62
7
  6
CONTINUOUS
 90
25
 70
0
 10
1.1059483918
 20
-0.3664964553
 10
1.110667376
 20
-0.3509335312
 10
1.116202368
 20
-0.3357049109
 10
1.122553368
 20
-0.3208105944
 10
1.1297537381
 20
-0.3061898196
 10
1.1377701162
 20
-0.2919033486
 10
1.1465024153
 20
-0.2781334679
 10
1.1559326082
 20
-0.2649204113
 10
1.1660787222
 20
-0.2522239449
 10
1.1768947528
 20
-0.2401056547
 10
1.1884086721
 20
-0.2285428062
 10
1.2005925079
 20
-0.2175581339
 10
1.213316339
 20
-0.2072814263
 10
1.2265900171
 20
-0.1977256375
 10
1.2404036906
 20
-0.1888778134
 10
1.2545978826
 20
-0.1808288813
 10
1.2691425211
 20
-0.1735999222
 10
1.2840676782
 20
-0.1671698552
 10
1.2993040933
 20
-0.1615663642
 10
1.3148973257
 20
-0.1567821936
 10
1.3308018161
 20
-0.152824599
 10
1.3468116264
 20
-0.1497430321
 10
1.3628581107
 20
-0.1475539766
 10
1.3790099148
 20
-0.1462409486
 10
1.3952670389
 20
-0.1458039482
  0
LINE
  5
2DF
100
AcDbEntity
  8
RACCORDO
100
AcDbLine
 62
250
  6
CONTINUOUS
 10
1.3952670389
 20
0.1397193561
 11
1.3992670157
 21
0.1449696506
  0
LINE
  5
2E0
100
AcDbEntity
  8
RACCORDO
100
AcDbLine
 62
250
  6
CONTINUOUS
 10
1.1059483918
 20
0.3604118632
 11
1.1101388925
 21
0.3649684143
  0
LINE
  5
2E1
100
AcDbEntity
  8
DRAFT
100
AcDbLine
 62
7
  6
CONTINUOUS
 10
2.0815866792
 20
-0.1300955862
 11
2.0761958287
 21
-0.1327136465
  0
LINE
  5
2E2
100
AcDbEntity
  8
DRAFT
100
AcDbLine
 62
7
  6
CONTINUOUS
 10
-2.14316006
 20
0.1266290544
 11
-2.0897030977
 21
0.1397193561
  0
LWPOLYLINE
  5
2E3
100
AcDbEntity
  8
RACCORDO
100
AcDbPolyline
 62
250
  6
CONTINUOUS
 90
5
 70
0
 10
-11.279229622
 20
0.34238959
 10
-11.2781085849
 20
0.3425327405
 10
-11.2756503487
 20
0.3426747193
 10
-11.2718617621
 20
0.3428154781
 10
-11.2667534968
 20
0.3429552838
  0
LWPOLYLINE
  5
2E4
100
AcDbEntity
  8
RACCORDO
100
AcDbPolyline
 62
250
  6
CONTINUOUS
 90
25
 70
0
 10
-1.8395588183
 20
0.3451012926
 10
-1.8341180384
 20
0.3452514221
 10
-1.8287240649
 20
0.345690915
 10
-1.8233768978
 20
0.3464197713
 10
-1.8180610467
 20
0.3474417844
 10
-1.8127920021
 20
0.3487531609
 10
-1.8076162345
 20
0.3503425206
 10
-1.802534565
 20
0.3522123162
 10
-1.7975461726
 20
0.3543600951
 10
-1.7926950651
 20
0.3567671191
 10
-1.7879825717
 20
0.3594356279
 10
-1.7834073633
 20
0.3623633818
 10
-1.7790094595
 20
0.3655249237
 10
-1.7747902514
 20
0.3689224576
 10
-1.770748348
 20
0.3725537796
 10
-1.7669195964
 20
0.3763868203
 10
-1.7633059355
 20
0.3804234595
 10
-1.7599054263
 20
0.3846618174
 10
-1.7567480992
 20
0.3890641857
 10
-1.7538361433
 20
0.3936321704
 10
-1.7511673695
 20
0.3983641655
 10
-1.7487652405
 20
0.4032176453
 10
-1.7466375773
 20
0.4081784347
 10
-1.7447765588
 20
0.4132607088
 10
-1.7431821852
 20
0.4184644676
  0
LINE
  5
2E5
100
AcDbEntity
  8
RACCORDO
100
AcDbLine
 62
250
  6
CONTINUOUS
 10
-11.0633088297
 20
0.1431950868
 11
-11.0517851598
 21
0.143446909
  0
LINE
  5
2E6
100
AcDbEntity
  8
RACCORDO
100
AcDbLine
 62
250
  6
CONTINUOUS
 10
-11.2667534968
 20
0.3429552838
 11
-11.2526356517
 21
0.3432299583
  0
LINE
  5
2E7
100
AcDbEntity
  8
RACCORDO
100
AcDbLine
 62
250
  6
CONTINUOUS
 10
-11.0517851598
 20
0.143446909
 11
-11.029082481
 21
0.1438016637
  0
LINE
  5
2E8
100
AcDbEntity
  8
RACCORDO
100
AcDbLine
 62
250
  6
CONTINUOUS
 10
-11.2526356517
 20
0.3432299583
 11
-11.2220062663
 21
0.3436232663
  0
LWPOLYLINE
  5
2E9
100
AcDbEntity
  8
RACCORDO
100
AcDbPolyline
 62
250
  6
CONTINUOUS
 90
3
 70
0
 10
-11.029082481
 20
0.1438016637
 10
-10.9782282648
 20
0.1443113108
 10
-10.9663148106
 20
0.1443987008
  0
LINE
  5
2EA
100
AcDbEntity
  8
RACCORDO
100
AcDbLine
 62
250
  6
CONTINUOUS
 10
-11.2220062663
 20
0.3436232663
 11
-11.1297590175
 21
0.3443087471
  0
LINE
  5
2EB
100
AcDbEntity
  8
RACCORDO
100
AcDbLine
 62
250
  6
CONTINUOUS
 10
-11.1297590175
 20
0.3443087471
 11
-10.9321351687
 21
0.344968552
  0
LINE
  5
2EC
100
AcDbEntity
  8
RACCORDO
100
AcDbLine
 62
250
  6
CONTINUOUS
 10
-10.9321351687
 20
0.344968552
 11
-1.8395588183
 21
0.3451012926
  0
LINE
  5
2ED
100
AcDbEntity
  8
RACCORDO
100
AcDbLine
 62
250
  6
CONTINUOUS
 10
1.3992670157
 20
0.3451012926
 11
10.5636633371
 21
0.3448061361
  0
LINE
  5
2EE
100
AcDbEntity
  8
RACCORDO
100
AcDbLine
 62
250
  6
CONTINUOUS
 10
10.5636633371
 20
0.3448061361
 11
10.7404249959
 21
0.343985759
  0
LINE
  5
2EF
100
AcDbEntity
  8
RACCORDO
100
AcDbLine
 62
250
  6
CONTINUOUS
 10
10.5260230074
 20
0.1443987008
 11
10.5798654903
 21
0.1439124718
  0
LINE
  5
2F0
100
AcDbEntity
  8
RACCORDO
100
AcDbLine
 62
250
  6
CONTINUOUS
 10
10.7404249959
 20
0.343985759
 11
10.793151036
 21
0.3434952169
  0
LINE
  5
2F1
100
AcDbEntity
  8
RACCORDO
100
AcDbLine
 62
250
  6
CONTINUOUS
 10
10.793151036
 20
0.3434952169
 11
10.8123438487
 21
0.3432299583
  0
LINE
  5
2F2
100
AcDbEntity
  8
RACCORDO
100
AcDbLine
 62
250
  6
CONTINUOUS
 10
10.5798654903
 20
0.1439124718
 11
10.6046404504
 21
0.1435684383
  0
LWPOLYLINE
  5
2F3
100
AcDbEntity
  8
RACCORDO
100
AcDbPolyline
 62
250
  6
CONTINUOUS
 90
9
 70
0
 10
10.6046404504
 20
0.1435684383
 10
10.6176353317
 20
0.1433221221
 10
10.6230170268
 20
0.1431950868
 10
10.6276321643
 20
0.143065783
 10
10.6314870221
 20
0.1429342309
 10
10.6345510851
 20
0.1428014993
 10
10.6368141817
 20
0.1426679445
 10
10.6382864835
 20
0.1425332103
 10
10.6389679905
 20
0.1423972966
  0
LWPOLYLINE
  5
2F4
100
AcDbEntity
  8
RACCORDO
100
AcDbPolyline
 62
250
  6
CONTINUOUS
 90
6
 70
0
 10
10.8123438487
 20
0.3432299583
 10
10.8264616938
 20
0.3429552838
 10
10.8315699592
 20
0.3428154781
 10
10.8353585459
 20
0.3426747193
 10
10.8378167822
 20
0.3425327405
 10
10.8389378193
 20
0.34238959
  0
LINE
  5
2F5
100
AcDbEntity
  8
DRAFT
100
AcDbLine
 62
7
  6
CONTINUOUS
 10
1.6494112951
 20
0.1397193561
 11
1.7028682574
 21
0.1266290544
  0
LINE
  5
2F6
100
AcDbEntity
  8
DRAFT
100
AcDbLine
 62
7
  6
CONTINUOUS
 10
2.0761958287
 20
0.1266290544
 11
2.0815866792
 21
0.1240109941
  0
LINE
  5
2F7
100
AcDbEntity
  8
RACCORDO
100
AcDbLine
 62
250
  6
CONTINUOUS
 10
1.1101388137
 20
-0.3710532912
 11
1.1059483918
 21
-0.3664964553
  0
LINE
  5
2F8
100
AcDbEntity
  8
RACCORDO
100
AcDbLine
 62
250
  6
CONTINUOUS
 10
1.3992670157
 20
-0.1510542427
 11
1.3952670389
 21
-0.1458039482
  0
LWPOLYLINE
  5
2F9
100
AcDbEntity
  8
RACCORDO
100
AcDbPolyline
 62
250
  6
CONTINUOUS
 90
25
 70
0
 10
1.3028903826
 20
0.4184644676
 10
1.3044847562
 20
0.4132607088
 10
1.3063457746
 20
0.4081784347
 10
1.3084734379
 20
0.4032176453
 10
1.3108755669
 20
0.3983641655
 10
1.3135443407
 20
0.3936321704
 10
1.3164562966
 20
0.3890641858
 10
1.3196136237
 20
0.3846618174
 10
1.3230141328
 20
0.3804234595
 10
1.3266277937
 20
0.3763868203
 10
1.3304565454
 20
0.3725537796
 10
1.3344984487
 20
0.3689224577
 10
1.3387176569
 20
0.3655249237
 10
1.3431155606
 20
0.3623633818
 10
1.3476907691
 20
0.3594356279
 10
1.3524032624
 20
0.3567671191
 10
1.3572543699
 20
0.3543600951
 10
1.3622427623
 20
0.3522123162
 10
1.3673244318
 20
0.3503425206
 10
1.3725001994
 20
0.3487531609
 10
1.3777692441
 20
0.3474417844
 10
1.3830850951
 20
0.3464197713
 10
1.3884322623
 20
0.345690915
 10
1.3938262358
 20
0.3452514221
 10
1.3992670157
 20
0.3451012926
  0
LWPOLYLINE
  5
2FA
100
AcDbEntity
  8
RACCORDO
100
AcDbPolyline
 62
250
  6
CONTINUOUS
 90
25
 70
0
 10
1.1101388926
 20
0.3649684145
 10
1.1148963756
 20
0.3494260193
 10
1.1204889935
 20
0.3341632855
 10
1.1269004583
 20
0.3192250708
 10
1.1341120838
 20
0.3046552706
 10
1.14210281
 20
0.2904967541
 10
1.1508492531
 20
0.2767912313
 10
1.1603260872
 20
0.2635786904
 10
1.1705053608
 20
0.2508983811
 10
1.1813563511
 20
0.2387886087
 10
1.1928466708
 20
0.2272853114
 10
1.2049429043
 20
0.2164217472
 10
1.2176098666
 20
0.2062294527
 10
1.2308103192
 20
0.19673838
 10
1.2445055173
 20
0.1879763751
 10
1.2586557795
 20
0.1799688777
 10
1.2732201879
 20
0.1727392131
 10
1.2881554347
 20
0.1663090441
 10
1.3034163899
 20
0.1606977819
 10
1.3189573827
 20
0.1559220136
 10
1.3347335003
 20
0.1519953384
 10
1.3506994878
 20
0.1489289822
 10
1.3668088375
 20
0.1467319647
 10
1.3830138778
 20
0.1454108753
 10
1.3992670157
 20
0.1449696506
  0
LINE
  5
2FB
100
AcDbEntity
  8
RACCORDO
100
AcDbLine
 62
250
  6
CONTINUOUS
 10
10.4164000381
 20
22.1562704097
 11
10.3629146748
 21
21.9956838336
  0
LWPOLYLINE
  5
2FC
100
AcDbEntity
  8
RACCORDO
100
AcDbPolyline
 62
250
  6
CONTINUOUS
 90
7
 70
0
 10
-11.0792597931
 20
0.1423972966
 10
-11.0785782861
 20
0.1425332103
 10
-11.0771059844
 20
0.1426679445
 10
-11.0748428879
 20
0.1428014993
 10
-11.0717788249
 20
0.1429342309
 10
-11.0679239672
 20
0.143065783
 10
-11.0633088297
 20
0.1431950868
  0
LINE
  5
2FD
100
AcDbEntity
  8
RACCORDO
100
AcDbLine
 62
250
  6
CONTINUOUS
 10
10.3629146748
 20
-22.0017684257
 11
10.4164000381
 21
-22.1623550018
  0
LINE
  5
2FE
100
AcDbEntity
  8
RACCORDO
100
AcDbLine
 62
250
  6
CONTINUOUS
 10
10.9167798614
 20
21.6583246819
 11
10.8628382201
 21
21.4963681585
  0
LINE
  5
2FF
100
AcDbEntity
  8
DRAFT
100
AcDbLine
 62
7
  6
CONTINUOUS
 10
9.6257433974
 20
-0.1300955862
 11
9.6798540987
 21
-0.1030422961
  0
LINE
  5
300
100
AcDbEntity
  8
RACCORDO
100
AcDbLine
 62
250
  6
CONTINUOUS
 10
10.7298540975
 20
-0.1030422961
 11
10.6389679905
 21
-0.1484818887
  0
LINE
  5
301
100
AcDbEntity
  8
DRAFT
100
AcDbLine
 62
7
  6
CONTINUOUS
 10
9.6257433974
 20
0.1240109941
 11
9.6798540987
 21
0.0969577039
  0
LINE
  5
302
100
AcDbEntity
  8
RACCORDO
100
AcDbLine
 62
250
  6
CONTINUOUS
 10
10.6389679905
 20
0.1423972966
 11
10.7298540975
 21
0.0969577039
  0
LINE
  5
303
100
AcDbEntity
  8
RACCORDO
100
AcDbLine
 62
250
  6
CONTINUOUS
 10
10.8628382201
 20
-21.5024527506
 11
10.9167798614
 21
-21.664409274
  0
LWPOLYLINE
  5
304
100
AcDbEntity
  8
RACCORDO
100
AcDbPolyline
 62
250
  6
CONTINUOUS
 90
11
 70
0
 10
10.8628382201
 20
21.4963681585
 10
10.8621221099
 20
21.4933645686
 10
10.8614110619
 20
21.4887045715
 10
10.8607050763
 20
21.4823881673
 10
10.8600029667
 20
21.4743992005
 10
10.8593059194
 20
21.4647538266
 10
10.8586174934
 20
21.4535005121
 10
10.8579377402
 20
21.4406309716
 10
10.8572666083
 20
21.4261534904
 10
10.8566075024
 20
21.4101413912
 10
10.8553255103
 20
21.3734981804
  0
LINE
  5
305
100
AcDbEntity
  8
RACCORDO
100
AcDbLine
 62
250
  6
CONTINUOUS
 10
10.9298540987
 20
-0.3030194508
 11
10.8389378196
 21
-0.3484741283
  0
LWPOLYLINE
  5
306
100
AcDbEntity
  8
0
100
AcDbPolyline
 62
7
  6
CONTINUOUS
 90
3
 70
0
 43
0.3500000019
 10
17.9505439453
 20
1.139814827
 10
18.1648291016
 20
1.0683862457
 10
18.4505444336
 20
0.9255291672
  0
LINE
  5
307
100
AcDbEntity
  8
RACCORDO
100
AcDbLine
 62
250
  6
CONTINUOUS
 10
10.8389378196
 20
0.3423895362
 11
10.9298540987
 21
0.2969348587
  0
LWPOLYLINE
  5
308
100
AcDbEntity
  8
RACCORDO
100
AcDbPolyline
 62
250
  6
CONTINUOUS
 90
8
 70
0
 10
10.3629145729
 20
21.9956838335
 10
10.3621982177
 20
21.9912027431
 10
10.3614869969
 20
21.98420695
 10
10.3607809107
 20
21.9747082408
 10
10.3600788001
 20
21.9627227125
 10
10.359381824
 20
21.9482704936
 10
10.358693459
 20
21.9313755324
 10
10.3573426002
 20
21.8903737864
  0
LWPOLYLINE
  5
309
100
AcDbEntity
  8
0
100
AcDbPolyline
 62
7
  6
CONTINUOUS
 90
10
 70
0
 43
0.3500000019
 10
17.7362587891
 20
1.0683862457
 10
17.8791137695
 20
1.139814827
 10
17.9505439453
 20
1.139814827
 10
18.0934042969
 20
0.9969576645
 10
18.0934042969
 20
0.9255291672
 10
18.0219741211
 20
0.8541005859
 10
17.9505439453
 20
0.8541005859
 10
17.8076889648
 20
0.9255291672
 10
17.7362587891
 20
0.9969576645
 10
17.7362587891
 20
1.0683862457
  0
LWPOLYLINE
  5
30A
100
AcDbEntity
  8
RACCORDO
100
AcDbPolyline
 62
250
  6
CONTINUOUS
 90
9
 70
0
 10
10.8572666083
 20
-21.4322380821
 10
10.8579377402
 20
-21.4467155634
 10
10.8586174933
 20
-21.459585104
 10
10.8593059193
 20
-21.4708384185
 10
10.8600029667
 20
-21.4804837924
 10
10.8607050763
 20
-21.4884727593
 10
10.8614110619
 20
-21.4947891635
 10
10.8621221099
 20
-21.4994491606
 10
10.8628382201
 20
-21.5024527506
  0
LWPOLYLINE
  5
30B
100
AcDbEntity
  8
RACCORDO
100
AcDbPolyline
 62
250
  6
CONTINUOUS
 90
7
 70
0
 10
10.358693459
 20
-21.9374601241
 10
10.359381824
 20
-21.9543550853
 10
10.3600788001
 20
-21.9688073043
 10
10.3607809107
 20
-21.9807928327
 10
10.3614869969
 20
-21.9902915419
 10
10.3621982176
 20
-21.9972873351
 10
10.3629145729
 20
-22.0017684256
  0
LINE
  5
30C
100
AcDbEntity
  8
RACCORDO
100
AcDbLine
 62
250
  6
CONTINUOUS
 10
10.3573426002
 20
-21.896458378
 11
10.358693459
 21
-21.9374601241
  0
LINE
  5
30D
100
AcDbEntity
  8
RACCORDO
100
AcDbLine
 62
250
  6
CONTINUOUS
 10
10.3560365233
 20
-21.8460807056
 11
10.3573426002
 21
-21.896458378
  0
LINE
  5
30E
100
AcDbEntity
  8
RACCORDO
100
AcDbLine
 62
250
  6
CONTINUOUS
 10
10.3547818324
 20
-21.7866675333
 11
10.3560365233
 21
-21.8460807056
  0
LINE
  5
30F
100
AcDbEntity
  8
RACCORDO
100
AcDbLine
 62
250
  6
CONTINUOUS
 10
10.3560365233
 20
21.8399961141
 11
10.3547818324
 21
21.7805829418
  0
LINE
  5
310
100
AcDbEntity
  8
RACCORDO
100
AcDbLine
 62
250
  6
CONTINUOUS
 10
10.3573426002
 20
21.8903737864
 11
10.3560365233
 21
21.8399961141
  0
LWPOLYLINE
  5
311
100
AcDbEntity
  8
RACCORDO
100
AcDbPolyline
 62
250
  6
CONTINUOUS
 90
22
 70
0
 10
10.8389375295
 20
-0.3484742733
 10
10.8383762051
 20
-0.3335302464
 10
10.8366999218
 20
-0.3186697779
 10
10.8339180527
 20
-0.3039759579
 10
10.8300461524
 20
-0.2895309441
 10
10.8251058704
 20
-0.2754155036
 10
10.81912483
 20
-0.2617085612
 10
10.8121364737
 20
-0.2484867567
 10
10.8041798762
 20
-0.2358240174
 10
10.7952995261
 20
-0.2237911451
 10
10.7855450771
 20
-0.2124554192
 10
10.7749710698
 20
-0.201880221
 10
10.7636366279
 20
-0.1921246797
 10
10.7516051262
 20
-0.1832433412
 10
10.7389438373
 20
-0.1752858632
 10
10.7257235551
 20
-0.168296738
 10
10.7120181987
 20
-0.1623150433
 10
10.6979043993
 20
-0.1573742239
 10
10.6834610721
 20
-0.1535019046
 10
10.6687689742
 20
-0.1507197359
 10
10.6539102538
 20
-0.1490432731
 10
10.6389679905
 20
-0.1484818887
  0
LINE
  5
312
100
AcDbEntity
  8
RACCORDO
100
AcDbLine
 62
250
  6
CONTINUOUS
 10
10.8559604934
 20
-21.3986716865
 11
10.8572666083
 21
-21.4322380821
  0
LINE
  5
313
100
AcDbEntity
  8
RACCORDO
100
AcDbLine
 62
250
  6
CONTINUOUS
 10
10.8547057442
 20
-21.3590553002
 11
10.8559604934
 21
-21.3986716865
  0
LWPOLYLINE
  5
314
100
AcDbEntity
  8
RACCORDO
100
AcDbPolyline
 62
250
  6
CONTINUOUS
 90
28
 70
0
 10
10.8628382201
 20
21.4963681585
 10
10.8619668767
 20
21.5253838702
 10
10.8594088613
 20
21.5543015169
 10
10.8551728192
 20
21.5830233641
 10
10.8492730671
 20
21.6114523392
 10
10.8417295444
 20
21.6394923594
 10
10.8325677462
 20
21.6670486565
 10
10.8218186371
 20
21.6940280971
 10
10.8095185461
 20
21.7203394972
 10
10.7957090443
 20
21.745893931
 10
10.7804368044
 20
21.7706050308
 10
10.7637534425
 20
21.7943892791
 10
10.7457153441
 20
21.817166291
 10
10.7263834735
 20
21.8388590858
 10
10.7058231674
 20
21.8593943472
 10
10.6841039145
 20
21.878702671
 10
10.6612991204
 20
21.8967187997
 10
10.6374858595
 20
21.9133818433
 10
10.6127446149
 20
21.9286354846
 10
10.5871590056
 20
21.94242817
 10
10.5608155047
 20
21.9547132837
 10
10.5338031468
 20
21.9654493047
 10
10.5062132269
 20
21.9745999481
 10
10.478138992
 20
21.9821342868
 10
10.4496753263
 20
21.9880268565
 10
10.42091843
 20
21.9922577418
 10
10.3919654941
 20
21.9948126432
 10
10.3629143725
 20
21.9956829259
  0
LINE
  5
315
100
AcDbEntity
  8
RACCORDO
100
AcDbLine
 62
250
  6
CONTINUOUS
 10
10.8535120145
 20
-21.313670251
 11
10.8547057442
 21
-21.3590553002
  0
LINE
  5
316
100
AcDbEntity
  8
RACCORDO
100
AcDbLine
 62
250
  6
CONTINUOUS
 10
10.8518535085
 20
-21.235496064
 11
10.8535120145
 21
-21.313670251
  0
LINE
  5
317
100
AcDbEntity
  8
RACCORDO
100
AcDbLine
 62
250
  6
CONTINUOUS
 10
10.3524643086
 20
-21.6423885491
 11
10.3547818324
 21
-21.7866675333
  0
LINE
  5
318
100
AcDbEntity
  8
RACCORDO
100
AcDbLine
 62
250
  6
CONTINUOUS
 10
10.8499265193
 20
-21.1142835755
 11
10.8518535085
 21
-21.235496064
  0
LINE
  5
319
100
AcDbEntity
  8
RACCORDO
100
AcDbLine
 62
250
  6
CONTINUOUS
 10
10.3500027693
 20
-21.4195255491
 11
10.3524643086
 21
-21.6423885491
  0
LINE
  5
31A
100
AcDbEntity
  8
RACCORDO
100
AcDbLine
 62
250
  6
CONTINUOUS
 10
10.8480453345
 20
-20.94007532
 11
10.8499265193
 21
-21.1142835755
  0
LINE
  5
31B
100
AcDbEntity
  8
RACCORDO
100
AcDbLine
 62
250
  6
CONTINUOUS
 10
10.3473053496
 20
-20.987559976
 11
10.3500027693
 21
-21.4195255491
  0
LINE
  5
31C
100
AcDbEntity
  8
RACCORDO
100
AcDbLine
 62
250
  6
CONTINUOUS
 10
10.8466629877
 20
-20.7075915304
 11
10.8480453345
 21
-20.94007532
  0
LINE
  5
31D
100
AcDbEntity
  8
RACCORDO
100
AcDbLine
 62
7
  6
CONTINUOUS
 10
10.9298540987
 20
13.0969577039
 11
10.9167798614
 21
21.6583246819
  0
LINE
  5
31E
100
AcDbEntity
  8
RACCORDO
100
AcDbLine
 62
250
  6
CONTINUOUS
 10
10.3463875774
 20
-20.5654901264
 11
10.3473053496
 21
-20.987559976
  0
LINE
  5
31F
100
AcDbEntity
  8
RACCORDO
100
AcDbLine
 62
250
  6
CONTINUOUS
 10
10.3441686766
 20
-17.1977351213
 11
10.346387589
 21
-20.5654901264
  0
LWPOLYLINE
  5
320
100
AcDbEntity
  8
RACCORDO
100
AcDbPolyline
 62
250
  6
CONTINUOUS
 90
3
 70
0
 10
10.8440922897
 20
-17.1801243435
 10
10.8451523616
 20
-18.8626047718
 10
10.8466629877
 20
-20.7075915304
  0
LINE
  5
321
100
AcDbEntity
  8
RACCORDO
100
AcDbLine
 62
250
  6
CONTINUOUS
 10
10.3409187464
 20
-10.4604760082
 11
10.3441686766
 21
-17.1977351213
  0
LINE
  5
322
100
AcDbEntity
  8
RACCORDO
100
AcDbLine
 62
250
  6
CONTINUOUS
 10
10.8408421607
 20
-10.4488321549
 11
10.8440922897
 21
-17.1801243435
  0
LINE
  5
323
100
AcDbEntity
  8
RACCORDO
100
AcDbLine
 62
250
  6
CONTINUOUS
 10
10.3392490387
 20
-3.7213223376
 11
10.3409187464
 21
-10.4604760082
  0
LINE
  5
324
100
AcDbEntity
  8
RACCORDO
100
AcDbLine
 62
250
  6
CONTINUOUS
 10
10.8391763547
 20
-3.715653814
 11
10.8408421607
 21
-10.4488321549
  0
LINE
  5
325
100
AcDbEntity
  8
RACCORDO
100
AcDbLine
 62
250
  6
CONTINUOUS
 10
10.3392490387
 20
-3.7213223376
 11
10.3390137106
 21
-0.1510542426
  0
LINE
  5
326
100
AcDbEntity
  8
RACCORDO
100
AcDbLine
 62
250
  6
CONTINUOUS
 10
10.8389378196
 20
-0.3484741283
 11
10.8391763547
 21
-3.715653814
  0
LINE
  5
327
100
AcDbEntity
  8
RACCORDO
100
AcDbLine
 62
7
  6
CONTINUOUS
 10
10.9298540987
 20
-0.3030194508
 11
10.9298540987
 21
-13.1030422961
  0
LINE
  5
328
100
AcDbEntity
  8
RACCORDO
100
AcDbLine
 62
7
  6
CONTINUOUS
 10
10.9298540987
 20
0.2969348587
 11
10.9298540987
 21
13.0969577039
  0
LINE
  5
329
100
AcDbEntity
  8
RACCORDO
100
AcDbLine
 62
250
  6
CONTINUOUS
 10
10.3392490387
 20
3.7152377455
 11
10.3390137106
 21
0.1449696505
  0
LINE
  5
32A
100
AcDbEntity
  8
RACCORDO
100
AcDbLine
 62
250
  6
CONTINUOUS
 10
10.8391763547
 20
3.7095692219
 11
10.8389378196
 21
0.3423895362
  0
LINE
  5
32B
100
AcDbEntity
  8
RACCORDO
100
AcDbLine
 62
250
  6
CONTINUOUS
 10
10.340354346
 20
8.7697647324
 11
10.3392490387
 21
3.7152377455
  0
LINE
  5
32C
100
AcDbEntity
  8
RACCORDO
100
AcDbLine
 62
250
  6
CONTINUOUS
 10
10.8402771488
 20
8.7596136169
 11
10.8391763547
 21
3.7095692219
  0
LINE
  5
32D
100
AcDbEntity
  8
RACCORDO
100
AcDbLine
 62
250
  6
CONTINUOUS
 10
10.3441686766
 20
17.1916505293
 11
10.340354346
 21
8.7697647324
  0
LINE
  5
32E
100
AcDbEntity
  8
RACCORDO
100
AcDbLine
 62
250
  6
CONTINUOUS
 10
10.8440922897
 20
17.1740397514
 11
10.8402771488
 21
8.7596136169
  0
LINE
  5
32F
100
AcDbEntity
  8
RACCORDO
100
AcDbLine
 62
7
  6
CONTINUOUS
 10
10.9298540987
 20
-13.1030422961
 11
10.9167798614
 21
-21.664409274
  0
LINE
  5
330
100
AcDbEntity
  8
RACCORDO
100
AcDbLine
 62
250
  6
CONTINUOUS
 10
10.3478225163
 20
21.0962506308
 11
10.3441686766
 21
17.1916505293
  0
LINE
  5
331
100
AcDbEntity
  8
RACCORDO
100
AcDbLine
 62
250
  6
CONTINUOUS
 10
10.8470121394
 20
20.7811052212
 11
10.8440922897
 21
17.1740397514
  0
LINE
  5
332
100
AcDbEntity
  8
RACCORDO
100
AcDbLine
 62
250
  6
CONTINUOUS
 10
10.3504513732
 20
21.4614115222
 11
10.3478225163
 21
21.0962506308
  0
LINE
  5
333
100
AcDbEntity
  8
RACCORDO
100
AcDbLine
 62
250
  6
CONTINUOUS
 10
10.8487226247
 20
21.006313258
 11
10.8470121394
 21
20.7811052212
  0
LINE
  5
334
100
AcDbEntity
  8
RACCORDO
100
AcDbLine
 62
250
  6
CONTINUOUS
 10
10.3530170939
 20
21.67541042
 11
10.3504513732
 21
21.4614115222
  0
LINE
  5
335
100
AcDbEntity
  8
RACCORDO
100
AcDbLine
 62
250
  6
CONTINUOUS
 10
10.8503751333
 20
21.1401603071
 11
10.8487226247
 21
21.006313258
  0
LINE
  5
336
100
AcDbEntity
  8
RACCORDO
100
AcDbLine
 62
250
  6
CONTINUOUS
 10
10.3547818324
 20
21.7805829418
 11
10.3530170939
 21
21.67541042
  0
LINE
  5
337
100
AcDbEntity
  8
RACCORDO
100
AcDbLine
 62
250
  6
CONTINUOUS
 10
10.8523881333
 20
21.2567926642
 11
10.8503751333
 21
21.1401603071
  0
LINE
  5
338
100
AcDbEntity
  8
RACCORDO
100
AcDbLine
 62
250
  6
CONTINUOUS
 10
10.8541012709
 20
21.3309974627
 11
10.8523881333
 21
21.2567926642
  0
LWPOLYLINE
  5
339
100
AcDbEntity
  8
RACCORDO
100
AcDbPolyline
 62
250
  6
CONTINUOUS
 90
28
 70
0
 10
10.8628382201
 20
-21.5024527506
 10
10.8619668762
 20
-21.5314684716
 10
10.8594088592
 20
-21.5603861267
 10
10.8551728148
 20
-21.5891079814
 10
10.8492730595
 20
-21.617536963
 10
10.8417295332
 20
-21.6455769887
 10
10.8325677311
 20
-21.6731332902
 10
10.8218186177
 20
-21.700112734
 10
10.8095185224
 20
-21.7264241363
 10
10.7957090165
 20
-21.7519785713
 10
10.7804367726
 20
-21.7766896711
 10
10.7637534071
 20
-21.8004739186
 10
10.7457153057
 20
-21.8232509289
 10
10.7263834326
 20
-21.8449437213
 10
10.7058231246
 20
-21.8654789796
 10
10.6841038707
 20
-21.8847872999
 10
10.6612990763
 20
-21.9028034247
 10
10.637485816
 20
-21.919466464
 10
10.6127445727
 20
-21.934720101
 10
10.5871589657
 20
-21.9485127822
 10
10.5608154678
 20
-21.9607978917
 10
10.5338031136
 20
-21.971533909
 10
10.5062131981
 20
-21.9806845489
 10
10.4781389683
 20
-21.9882188845
 10
10.4496753081
 20
-21.9941114518
 10
10.4209184175
 20
-21.9983423353
 10
10.3919654878
 20
-22.0008972357
 10
10.3629143725
 20
-22.001767518
  0
LINE
  5
33A
100
AcDbEntity
  8
RACCORDO
100
AcDbLine
 62
250
  6
CONTINUOUS
 10
10.8553255103
 20
21.3734981804
 11
10.8541012709
 21
21.3309974627
  0
LWPOLYLINE
  5
33B
100
AcDbEntity
  8
RACCORDO
100
AcDbPolyline
 62
250
  6
CONTINUOUS
 90
22
 70
0
 10
10.8389375295
 20
0.3423896812
 10
10.8383762068
 20
0.3274456778
 10
10.8366999286
 20
0.3125852311
 10
10.8339180675
 20
0.2978914306
 10
10.8300461778
 20
0.2834464342
 10
10.8251059085
 20
0.2693310085
 10
10.8191248822
 20
0.2556240773
 10
10.8121365407
 20
0.2424022805
 10
10.8041799581
 20
0.2297395455
 10
10.7952996223
 20
0.2177066736
 10
10.785545186
 20
0.2063709445
 10
10.7749711895
 20
0.1957957399
 10
10.7636367553
 20
0.1860401892
 10
10.751605258
 20
0.1771588389
 10
10.7389439694
 20
0.1692013473
 10
10.725723683
 20
0.1622122075
 10
10.7120183176
 20
0.1562304979
 10
10.6979045043
 20
0.1512896641
 10
10.6834611579
 20
0.1474173321
 10
10.668769036
 20
0.1446351532
 10
10.6539102869
 20
0.1429586834
 10
10.6389679905
 20
0.1423972966
  0
LWPOLYLINE
  5
33C
100
AcDbEntity
  8
0
100
AcDbPolyline
 62
7
  6
CONTINUOUS
 90
10
 70
0
 43
0.3500000019
 10
0.8512802734
 20
31.440809082
 10
0.9227104492
 20
31.297951416
 10
0.9227104492
 20
31.2265239258
 10
0.7798554688
 20
31.0836662598
 10
0.708425293
 20
31.0836662598
 10
0.6369951172
 20
31.1550964355
 10
0.6369951172
 20
31.2265239258
 10
0.708425293
 20
31.3693815918
 10
0.7798554688
 20
31.440809082
 10
0.8512802734
 20
31.440809082
  0
LWPOLYLINE
  5
33D
100
AcDbEntity
  8
0
100
AcDbPolyline
 62
7
  6
CONTINUOUS
 90
5
 70
0
 43
0.3500000019
 10
16.5219726563
 20
2.9969578552
 10
16.3076875
 20
3.3541006775
 10
15.6648320313
 20
3.3541006775
 10
15.2362617188
 20
2.9969578552
 10
15.2362617188
 20
2.1398148804
  0
LWPOLYLINE
  5
33E
100
AcDbEntity
  8
0
100
AcDbPolyline
 62
7
  6
CONTINUOUS
 90
3
 70
0
 43
0.3500000019
 10
17.5934038086
 20
-0.4316137085
 10
17.5934038086
 20
-1.9316136627
 10
15.2362617188
 20
-1.2887565994
  0
LWPOLYLINE
  5
33F
100
AcDbEntity
  8
0
100
AcDbPolyline
 62
7
  6
CONTINUOUS
 90
3
 70
0
 43
0.3500000019
 10
17.5934038086
 20
-2.7887566376
 10
17.5934038086
 20
-4.2887565918
 10
15.2362617188
 20
-3.6458994446
  0
LWPOLYLINE
  5
340
100
AcDbEntity
  8
0
100
AcDbPolyline
 62
7
  6
CONTINUOUS
 90
6
 70
0
 43
0.3500000019
 10
18.2362592773
 20
2.1398148804
 10
18.2362592773
 20
3.2112433472
 10
18.0219741211
 20
3.4255291748
 10
16.9505429688
 20
3.4255291748
 10
16.5219726563
 20
2.9969578552
 10
16.5219726563
 20
2.5683862
  0
LINE
  5
341
100
AcDbEntity
  8
RACCORDO
100
AcDbLine
 62
7
  6
CONTINUOUS
 10
7.5882790917
 20
22.1562704097
 11
7.2375891256
 21
22.1244372517
  0
LINE
  5
342
100
AcDbEntity
  8
RACCORDO
100
AcDbLine
 62
250
  6
CONTINUOUS
 10
-11.1267343279
 20
20.5536941999
 11
-11.0824016288
 21
20.5552319006
  0
LINE
  5
343
100
AcDbEntity
  8
RACCORDO
100
AcDbLine
 62
250
  6
CONTINUOUS
 10
-11.0824016288
 20
20.5552319006
 11
-11.0341580015
 21
20.5565531297
  0
LINE
  5
344
100
AcDbEntity
  8
RACCORDO
100
AcDbLine
 62
250
  6
CONTINUOUS
 10
-11.0341580015
 20
20.5565531297
 11
-10.9826414683
 21
20.557640414
  0
LINE
  5
345
100
AcDbEntity
  8
RACCORDO
100
AcDbLine
 62
250
  6
CONTINUOUS
 10
-10.9826414683
 20
20.557640414
 11
-10.9285333356
 21
20.558479374
  0
LINE
  5
346
100
AcDbEntity
  8
RACCORDO
100
AcDbLine
 62
250
  6
CONTINUOUS
 10
-10.9285333356
 20
20.558479374
 11
-10.8725491839
 21
20.5590589146
  0
LINE
  5
347
100
AcDbEntity
  8
RACCORDO
100
AcDbLine
 62
250
  6
CONTINUOUS
 10
-10.8725491839
 20
20.5590589146
 11
-10.8154294039
 21
20.5593713712
  0
LINE
  5
348
100
AcDbEntity
  8
RACCORDO
100
AcDbLine
 62
250
  6
CONTINUOUS
 10
-10.8154294039
 20
20.5593713712
 11
10.3463875774
 21
20.5594055348
  0
LINE
  5
349
100
AcDbEntity
  8
RACCORDO
100
AcDbLine
 62
250
  6
CONTINUOUS
 10
10.4037924917
 20
20.5592488867
 11
10.3463876019
 21
20.5594260288
  0
LINE
  5
34A
100
AcDbEntity
  8
RACCORDO
100
AcDbLine
 62
250
  6
CONTINUOUS
 10
10.4604382009
 20
20.5588021483
 11
10.4037924917
 21
20.5592488867
  0
LINE
  5
34B
100
AcDbEntity
  8
RACCORDO
100
AcDbLine
 62
250
  6
CONTINUOUS
 10
10.5155755888
 20
20.5580917217
 11
10.4604382009
 21
20.5588021483
  0
LINE
  5
34C
100
AcDbEntity
  8
RACCORDO
100
AcDbLine
 62
250
  6
CONTINUOUS
 10
10.5684754627
 20
20.5571270024
 11
10.5155755888
 21
20.5580917217
  0
LINE
  5
34D
100
AcDbEntity
  8
RACCORDO
100
AcDbLine
 62
250
  6
CONTINUOUS
 10
10.6184382207
 20
20.5559207488
 11
10.5684754627
 21
20.5571270024
  0
LINE
  5
34E
100
AcDbEntity
  8
RACCORDO
100
AcDbLine
 62
7
  6
CONTINUOUS
 10
-8.0285708943
 20
22.1562704097
 11
-7.6778809282
 21
22.1244372517
  0
LWPOLYLINE
  5
34F
100
AcDbEntity
  8
RACCORDO
100
AcDbPolyline
 62
250
  6
CONTINUOUS
 90
15
 70
0
 10
10.8463114494
 20
-20.5449481525
 10
10.8449829766
 20
-20.5461306745
 10
10.8420046572
 20
-20.5473092834
 10
10.8373863465
 20
-20.5484800793
 10
10.8311433263
 20
-20.5496391881
 10
10.8232962549
 20
-20.5507827742
 10
10.8138710981
 20
-20.5519070535
 10
10.8028990435
 20
-20.5530083059
 10
10.7904163977
 20
-20.5540828873
 10
10.7764644655
 20
-20.5551272419
 10
10.7610894138
 20
-20.5561379139
 10
10.7443421184
 20
-20.5571115591
 10
10.7262779959
 20
-20.5580449557
 10
10.7069568203
 20
-20.558935015
 10
10.6864425252
 20
-20.559778792
  0
LINE
  5
350
100
AcDbEntity
  8
RACCORDO
100
AcDbLine
 62
7
  6
CONTINUOUS
 10
-3.6117209083
 20
22.1562704097
 11
-3.9624108744
 21
22.1244372517
  0
LINE
  5
351
100
AcDbEntity
  8
RACCORDO
100
AcDbLine
 62
250
  6
CONTINUOUS
 10
-10.8032064774
 20
21.9956838336
 11
10.3629146748
 21
21.9956838336
  0
LINE
  5
352
100
AcDbEntity
  8
RACCORDO
100
AcDbLine
 62
7
  6
CONTINUOUS
 10
7.0643840448
 20
22.1191964737
 11
3.6953241525
 21
22.1191964737
  0
LINE
  5
353
100
AcDbEntity
  8
RACCORDO
100
AcDbLine
 62
7
  6
CONTINUOUS
 10
-4.1356159552
 20
22.1191964737
 11
-7.5046758475
 21
22.1191964737
  0
LINE
  5
354
100
AcDbEntity
  8
RACCORDO
100
AcDbLine
 62
7
  6
CONTINUOUS
 10
10.4164000381
 20
22.1562704097
 11
7.5882790917
 21
22.1562704097
  0
LINE
  5
355
100
AcDbEntity
  8
DRAFT
100
AcDbLine
 62
7
  6
CONTINUOUS
 10
3.1714291057
 20
22.1562704097
 11
-3.6117209083
 21
22.1562704097
  0
LINE
  5
356
100
AcDbEntity
  8
RACCORDO
100
AcDbLine
 62
7
  6
CONTINUOUS
 10
-8.0285708943
 20
22.1562704097
 11
-10.8566918407
 21
22.1562704097
  0
LWPOLYLINE
  5
357
100
AcDbEntity
  8
0
100
AcDbPolyline
 62
7
  6
CONTINUOUS
 90
7
 70
0
 43
0.3500000019
 10
-0.6487158203
 20
30.9408085938
 10
-2.1487172852
 20
30.9408085938
 10
-0.6487158203
 20
33.0836655273
 10
-0.6487158203
 20
33.5122385254
 10
-1.0772861328
 20
33.9408088379
 10
-1.7201469727
 20
33.9408088379
 10
-2.1487172852
 20
33.2979533691
  0
LWPOLYLINE
  5
358
100
AcDbEntity
  8
0
100
AcDbPolyline
 62
7
  6
CONTINUOUS
 90
7
 70
0
 43
0.3500000019
 10
-3.0058579102
 20
30.9408085938
 10
-4.505859375
 20
30.9408085938
 10
-3.0058579102
 20
33.0836655273
 10
-3.0058579102
 20
33.5122385254
 10
-3.4344335937
 20
33.9408088379
 10
-4.0772890625
 20
33.9408088379
 10
-4.505859375
 20
33.2979533691
  0
LWPOLYLINE
  5
359
100
AcDbEntity
  8
0
100
AcDbPolyline
 62
7
  6
CONTINUOUS
 90
6
 70
0
 43
0.3500000019
 10
1.9227114258
 20
30.9408085938
 10
2.994137207
 20
30.9408085938
 10
3.2084277344
 20
31.1550964355
 10
3.2084277344
 20
32.2265249023
 10
2.7798520508
 20
32.6550952148
 10
2.3512817383
 20
32.6550952148
  0
LINE
  5
35A
100
AcDbEntity
  8
RACCORDO
100
AcDbLine
 62
7
  6
CONTINUOUS
 10
3.1714291057
 20
22.1562704097
 11
3.5221190718
 21
22.1244372517
  0
LWPOLYLINE
  5
35B
100
AcDbEntity
  8
RACCORDO
100
AcDbPolyline
 62
250
  6
CONTINUOUS
 90
17
 70
0
 10
10.8463114494
 20
20.5388635604
 10
10.8449829951
 20
20.540046083
 10
10.8420046927
 20
20.5412246925
 10
10.8373863974
 20
20.5423954891
 10
10.8311433912
 20
20.5435545986
 10
10.823296332
 20
20.5446981854
 10
10.8138711858
 20
20.5458224656
 10
10.8028991403
 20
20.5469237187
 10
10.7904165019
 20
20.5479983009
 10
10.7764645755
 20
20.5490426563
 10
10.7610895279
 20
20.5500533292
 10
10.7443422351
 20
20.5510269752
 10
10.7262781137
 20
20.5519603725
 10
10.7069569377
 20
20.5528504326
 10
10.6864426408
 20
20.5536942103
 10
10.6648031045
 20
20.5544889135
 10
10.6184382207
 20
20.5559207488
  0
LINE
  5
35C
100
AcDbEntity
  8
RACCORDO
100
AcDbLine
 62
7
  6
CONTINUOUS
 10
-31.8318489152
 20
-22.0017684257
 11
-28.7676745064
 21
-22.1623550018
  0
LINE
  5
35D
100
AcDbEntity
  8
RACCORDO
100
AcDbLine
 62
250
  6
CONTINUOUS
 10
-31.8144244593
 20
-21.5024527506
 11
-28.7241099002
 21
-21.664409274
  0
LINE
  5
35E
100
AcDbEntity
  8
RACCORDO
100
AcDbLine
 62
250
  6
CONTINUOUS
 10
-33.2512672124
 20
-20.5654559633
 11
-33.2520929104
 21
-20.5655106041
  0
LINE
  5
35F
100
AcDbEntity
  8
RACCORDO
100
AcDbLine
 62
250
  6
CONTINUOUS
 10
-33.2446729225
 20
-20.5651435067
 11
-33.2512672124
 21
-20.5654559633
  0
LINE
  5
360
100
AcDbEntity
  8
RACCORDO
100
AcDbLine
 62
250
  6
CONTINUOUS
 10
-32.761242515
 20
-20.5449481525
 11
-33.2446729225
 21
-20.5651435067
  0
LINE
  5
361
100
AcDbEntity
  8
RACCORDO
100
AcDbLine
 62
250
  6
CONTINUOUS
 10
-28.3750873453
 20
-17.9365338973
 11
-28.3979630662
 21
-17.9365339031
  0
LWPOLYLINE
  5
362
100
AcDbEntity
  8
RACCORDO
100
AcDbPolyline
 62
250
  6
CONTINUOUS
 90
5
 70
0
 10
-28.4031950092
 20
18.0572347837
 10
-28.4035608748
 20
18.0568033055
 10
-28.4048568067
 20
18.0559392029
 10
-28.4070774762
 20
18.0546460289
 10
-28.4087488221
 20
18.0537310646
  0
LWPOLYLINE
  5
363
100
AcDbEntity
  8
RACCORDO
100
AcDbPolyline
 62
250
  6
CONTINUOUS
 90
5
 70
0
 10
-28.4031950092
 20
-18.0633193758
 10
-28.4035608722
 20
-18.0628879011
 10
-28.4048567949
 20
-18.0620238049
 10
-28.4070774493
 20
-18.06073064
 10
-28.4087488224
 20
-18.0598156609
  0
LWPOLYLINE
  5
364
100
AcDbEntity
  8
RACCORDO
100
AcDbPolyline
 62
250
  6
CONTINUOUS
 90
37
 70
0
 10
-32.761242515
 20
-20.5449481525
 10
-32.7587005015
 20
-20.5859970465
 10
-32.7544991267
 20
-20.626775827
 10
-32.7486383906
 20
-20.6672844938
 10
-32.7411029014
 20
-20.7075915304
 10
-32.7319080509
 20
-20.7476284534
 10
-32.7211000145
 20
-20.7871898126
 10
-32.7086705123
 20
-20.8262723978
 10
-32.6946278243
 20
-20.8648794191
 10
-32.6790429654
 20
-20.9028150569
 10
-32.6619083092
 20
-20.94007532
 10
-32.6432314821
 20
-20.9766641995
 10
-32.6231063783
 20
-21.0123978495
 10
-32.6015257481
 20
-21.0472720233
 10
-32.5784968412
 20
-21.0812909675
 10
-32.5541353013
 20
-21.1142835755
 10
-32.528434223
 20
-21.1462448985
 10
-32.5014005118
 20
-21.1771798853
 10
-32.4731705273
 20
-21.206932275
 10
-32.4437381643
 20
-21.235496064
 10
-32.4131095281
 20
-21.2628772558
 10
-32.3814392948
 20
-21.2889376003
 10
-32.3487224184
 20
-21.313670251
 10
-32.3149639448
 20
-21.3370820543
 10
-32.2803336886
 20
-21.3590553002
 10
-32.2448273144
 20
-21.3795827721
 10
-32.2084491576
 20
-21.3986716865
 10
-32.1713820389
 20
-21.4162259829
 10
-32.133621883
 20
-21.4322380821
 10
-32.0951727653
 20
-21.4467155634
 10
-32.0562297318
 20
-21.459585104
 10
-32.0167898325
 20
-21.4708384185
 10
-31.9768560175
 20
-21.4804837924
 10
-31.9366321831
 20
-21.4884727593
 10
-31.8961862946
 20
-21.4947891635
 10
-31.8554503867
 20
-21.4994491606
 10
-31.8144244593
 20
-21.5024527506
  0
LWPOLYLINE
  5
365
100
AcDbEntity
  8
RACCORDO
100
AcDbPolyline
 62
250
  6
CONTINUOUS
 90
8
 70
0
 10
-33.183460101
 20
0.1692013473
 10
-33.1832903334
 20
0.1622122075
 10
-33.1831033069
 20
0.1562304979
 10
-33.1829000674
 20
0.1512896641
 10
-33.1826817512
 20
0.1474173321
 10
-33.1824495789
 20
0.1446351532
 10
-33.1822048488
 20
0.1429586834
 10
-33.1819489292
 20
0.1423972966
  0
LINE
  5
366
100
AcDbEntity
  8
RACCORDO
100
AcDbLine
 62
250
  6
CONTINUOUS
 10
-33.1837441649
 20
0.1860401892
 11
-33.183460101
 21
0.1692013473
  0
LINE
  5
367
100
AcDbEntity
  8
RACCORDO
100
AcDbLine
 62
250
  6
CONTINUOUS
 10
-33.1839491541
 20
0.2063709445
 11
-33.1837441649
 21
0.1860401892
  0
LINE
  5
368
100
AcDbEntity
  8
RACCORDO
100
AcDbLine
 62
250
  6
CONTINUOUS
 10
-33.1836941034
 20
-0.3484742733
 11
-33.1840532951
 21
-0.2895309441
  0
LWPOLYLINE
  5
369
100
AcDbEntity
  8
RACCORDO
100
AcDbPolyline
 62
250
  6
CONTINUOUS
 90
13
 70
0
 10
-33.1836774848
 20
-0.3484741283
 10
-33.1796822615
 20
-2.0321131808
 10
-33.1700118189
 20
-3.715653814
 10
-33.1546661569
 20
-5.3990960281
 10
-33.1336443725
 20
-7.0824463281
 10
-33.1069473688
 20
-8.765698209
 10
-33.0745778546
 20
-10.4488321549
 10
-33.0365367683
 20
-12.1318480316
 10
-32.9928231715
 20
-13.8147459735
 10
-32.9434369583
 20
-15.4975068677
 10
-32.8883780936
 20
-17.1801243435
 10
-32.8276466125
 20
-18.8626047718
 10
-32.761242515
 20
-20.5449481525
  0
LINE
  5
36A
100
AcDbEntity
  8
RACCORDO
100
AcDbLine
 62
250
  6
CONTINUOUS
 10
-33.1840988672
 20
0.2424022805
 11
-33.1839491541
 21
0.2063709445
  0
LINE
  5
36B
100
AcDbEntity
  8
RACCORDO
100
AcDbLine
 62
250
  6
CONTINUOUS
 10
-33.1840532951
 20
-0.2895309441
 11
-33.184098868
 21
-0.2484867567
  0
LINE
  5
36C
100
AcDbEntity
  8
RACCORDO
100
AcDbLine
 62
250
  6
CONTINUOUS
 10
-33.1840532942
 20
0.2834464342
 11
-33.1840988672
 21
0.2424022805
  0
LINE
  5
36D
100
AcDbEntity
  8
RACCORDO
100
AcDbLine
 62
250
  6
CONTINUOUS
 10
-33.184098868
 20
-0.2484867567
 11
-33.1839491544
 21
-0.2124554192
  0
LINE
  5
36E
100
AcDbEntity
  8
RACCORDO
100
AcDbLine
 62
250
  6
CONTINUOUS
 10
-33.1836941034
 20
0.3423896812
 11
-33.1840532942
 21
0.2834464342
  0
LINE
  5
36F
100
AcDbEntity
  8
RACCORDO
100
AcDbLine
 62
250
  6
CONTINUOUS
 10
-33.1839491544
 20
-0.2124554192
 11
-33.1837441646
 21
-0.1921246797
  0
LWPOLYLINE
  5
370
100
AcDbEntity
  8
RACCORDO
100
AcDbPolyline
 62
250
  6
CONTINUOUS
 90
9
 70
0
 10
-33.1837441646
 20
-0.1921246797
 10
-33.1834601004
 20
-0.1752858632
 10
-33.1832903326
 20
-0.168296738
 10
-33.1831033061
 20
-0.1623150433
 10
-33.1829000665
 20
-0.1573742239
 10
-33.1826817504
 20
-0.1535019046
 10
-33.1824495783
 20
-0.1507197359
 10
-33.1822048485
 20
-0.1490432731
 10
-33.1819489292
 20
-0.1484818887
  0
LWPOLYLINE
  5
371
100
AcDbEntity
  8
RACCORDO
100
AcDbPolyline
 62
250
  6
CONTINUOUS
 90
13
 70
0
 10
-32.761242515
 20
20.5388635604
 10
-32.8276466125
 20
18.8565201797
 10
-32.8883780936
 20
17.1740397514
 10
-32.9434369583
 20
15.4914222756
 10
-32.9928231715
 20
13.8086613814
 10
-33.0365367683
 20
12.1257634395
 10
-33.0745778546
 20
10.4427475628
 10
-33.1069473688
 20
8.7596136169
 10
-33.1336443725
 20
7.076361736
 10
-33.1546661569
 20
5.393011436
 10
-33.1700118189
 20
3.7095692219
 10
-33.1796822615
 20
2.0260285887
 10
-33.1836774848
 20
0.3423895362
  0
LWPOLYLINE
  5
372
100
AcDbEntity
  8
0
100
AcDbPolyline
 62
7
  6
CONTINUOUS
 90
3
 70
0
 43
0.3500000019
 10
-19.8679072266
 20
41.201644043
 10
-19.9393374023
 20
40.9873588867
 10
-20.0821923828
 20
40.7016435547
  0
LINE
  5
373
100
AcDbEntity
  8
RACCORDO
100
AcDbLine
 62
250
  6
CONTINUOUS
 10
-31.8144244593
 20
21.4963681585
 11
-31.8215568279
 21
21.6394923594
  0
LINE
  5
374
100
AcDbEntity
  8
RACCORDO
100
AcDbLine
 62
250
  6
CONTINUOUS
 10
-31.8215568279
 20
21.6394923594
 11
-31.8263298074
 21
21.745893931
  0
LINE
  5
375
100
AcDbEntity
  8
RACCORDO
100
AcDbLine
 62
250
  6
CONTINUOUS
 10
-31.8263298074
 20
21.745893931
 11
-31.8291923903
 21
21.817166291
  0
LINE
  5
376
100
AcDbEntity
  8
RACCORDO
100
AcDbLine
 62
250
  6
CONTINUOUS
 10
-31.8291923903
 20
21.817166291
 11
-31.8313419438
 21
21.878702671
  0
LINE
  5
377
100
AcDbEntity
  8
RACCORDO
100
AcDbLine
 62
250
  6
CONTINUOUS
 10
-31.8313419438
 20
21.878702671
 11
-31.832345681
 21
21.9133818433
  0
LWPOLYLINE
  5
378
100
AcDbEntity
  8
RACCORDO
100
AcDbPolyline
 62
250
  6
CONTINUOUS
 90
10
 70
0
 10
-31.832345681
 20
21.9133818433
 10
-31.8329894759
 20
21.94242817
 10
-31.8331734839
 20
21.9547132837
 10
-31.8332646324
 20
21.9654493047
 10
-31.8332626134
 20
21.9745999481
 10
-31.8331674337
 20
21.9821342868
 10
-31.832979415
 20
21.9880268565
 10
-31.8326991927
 20
21.9922577418
 10
-31.8323277139
 20
21.9948126432
 10
-31.8318662342
 20
21.9956829259
  0
LWPOLYLINE
  5
379
100
AcDbEntity
  8
RACCORDO
100
AcDbPolyline
 62
250
  6
CONTINUOUS
 90
9
 70
0
 10
-31.8329894757
 20
-21.9485127822
 10
-31.8331734836
 20
-21.9607978917
 10
-31.833264632
 20
-21.971533909
 10
-31.8332626129
 20
-21.9806845489
 10
-31.8331674332
 20
-21.9882188845
 10
-31.8329794146
 20
-21.9941114518
 10
-31.8326991924
 20
-21.9983423353
 10
-31.8323277138
 20
-22.0008972357
 10
-31.8318662342
 20
-22.001767518
  0
LINE
  5
37A
100
AcDbEntity
  8
RACCORDO
100
AcDbLine
 62
250
  6
CONTINUOUS
 10
-31.8323456811
 20
-21.919466464
 11
-31.8329894757
 21
-21.9485127822
  0
LINE
  5
37B
100
AcDbEntity
  8
RACCORDO
100
AcDbLine
 62
250
  6
CONTINUOUS
 10
-31.8313419443
 20
-21.8847872999
 11
-31.8323456811
 21
-21.919466464
  0
LINE
  5
37C
100
AcDbEntity
  8
RACCORDO
100
AcDbLine
 62
250
  6
CONTINUOUS
 10
-31.8291923914
 20
-21.8232509289
 11
-31.8313419443
 21
-21.8847872999
  0
LINE
  5
37D
100
AcDbEntity
  8
RACCORDO
100
AcDbLine
 62
250
  6
CONTINUOUS
 10
-31.8263298088
 20
-21.7519785713
 11
-31.8291923914
 21
-21.8232509289
  0
LINE
  5
37E
100
AcDbEntity
  8
RACCORDO
100
AcDbLine
 62
250
  6
CONTINUOUS
 10
-31.8215568293
 20
-21.6455769887
 11
-31.8263298088
 21
-21.7519785713
  0
LINE
  5
37F
100
AcDbEntity
  8
RACCORDO
100
AcDbLine
 62
250
  6
CONTINUOUS
 10
-31.8144244593
 20
-21.5024527506
 11
-31.8215568293
 21
-21.6455769887
  0
LINE
  5
380
100
AcDbEntity
  8
RACCORDO
100
AcDbLine
 62
250
  6
CONTINUOUS
 10
-27.9750873453
 20
-0.3030194508
 11
-33.1836774848
 21
-0.3484741283
  0
LINE
  5
381
100
AcDbEntity
  8
RACCORDO
100
AcDbLine
 62
7
  6
CONTINUOUS
 10
-27.9750873453
 20
-0.1030422961
 11
-33.4767114957
 21
-0.1510542426
  0
LINE
  5
382
100
AcDbEntity
  8
RACCORDO
100
AcDbLine
 62
250
  6
CONTINUOUS
 10
-33.1836774847
 20
-0.3484741821
 11
-33.6749661386
 21
-0.3511858927
  0
LINE
  5
383
100
AcDbEntity
  8
RACCORDO
100
AcDbLine
 62
7
  6
CONTINUOUS
 10
-33.4767114969
 20
0.1449696506
 11
-27.9750873453
 21
0.0969577039
  0
LINE
  5
384
100
AcDbEntity
  8
RACCORDO
100
AcDbLine
 62
250
  6
CONTINUOUS
 10
-33.6749661386
 20
0.3451013006
 11
-33.1836774847
 21
0.34238959
  0
LINE
  5
385
100
AcDbEntity
  8
RACCORDO
100
AcDbLine
 62
250
  6
CONTINUOUS
 10
-33.1836774848
 20
0.3423895362
 11
-27.9750873453
 21
0.2969348587
  0
LINE
  5
386
100
AcDbEntity
  8
RACCORDO
100
AcDbLine
 62
7
  6
CONTINUOUS
 10
-28.3750873453
 20
17.9304493052
 11
-28.3750873453
 21
17.6689786251
  0
LINE
  5
387
100
AcDbEntity
  8
RACCORDO
100
AcDbLine
 62
7
  6
CONTINUOUS
 10
-28.3750873453
 20
-17.6750632172
 11
-28.3750873453
 21
-17.9365338973
  0
LINE
  5
388
100
AcDbEntity
  8
RACCORDO
100
AcDbLine
 62
7
  6
CONTINUOUS
 10
-27.9750873453
 20
-0.1030422961
 11
-27.9750873453
 21
-13.1030422961
  0
LINE
  5
389
100
AcDbEntity
  8
RACCORDO
100
AcDbLine
 62
7
  6
CONTINUOUS
 10
-27.9750873453
 20
0.0969577039
 11
-27.9750873453
 21
13.0969577039
  0
LINE
  5
38A
100
AcDbEntity
  8
RACCORDO
100
AcDbLine
 62
7
  6
CONTINUOUS
 10
-27.9750873453
 20
13.0969577039
 11
-28.7676745064
 21
22.1562704097
  0
LINE
  5
38B
100
AcDbEntity
  8
RACCORDO
100
AcDbLine
 62
7
  6
CONTINUOUS
 10
-27.9750873453
 20
-13.1030422961
 11
-28.7676745064
 21
-22.1623550018
  0
LINE
  5
38C
100
AcDbEntity
  8
RACCORDO
100
AcDbLine
 62
7
  6
CONTINUOUS
 10
-28.4031950092
 20
-18.0633193758
 11
-28.4104088117
 21
-18.0787894251
  0
LINE
  5
38D
100
AcDbEntity
  8
RACCORDO
100
AcDbLine
 62
7
  6
CONTINUOUS
 10
-28.4104088117
 20
18.072704833
 11
-28.4031950092
 21
18.0572347837
  0
LWPOLYLINE
  5
38E
100
AcDbEntity
  8
0
100
AcDbPolyline
 62
7
  6
CONTINUOUS
 90
4
 70
0
 43
0.3500000019
 10
-18.8679116211
 20
43.2730734863
 10
-18.8679116211
 20
43.9159289551
 10
-17.3679101562
 20
43.9159289551
 10
-18.2250507812
 20
40.9159287109
  0
LINE
  5
38F
100
AcDbEntity
  8
RACCORDO
100
AcDbLine
 62
250
  6
CONTINUOUS
 10
-28.3750873453
 20
17.9304493052
 11
-28.3979630657
 21
17.9304493051
  0
LWPOLYLINE
  5
390
100
AcDbEntity
  8
RACCORDO
100
AcDbPolyline
 62
250
  6
CONTINUOUS
 90
37
 70
0
 10
-31.8144244593
 20
21.4963681585
 10
-31.8554503863
 20
21.4933645686
 10
-31.8961862939
 20
21.4887045715
 10
-31.9366321822
 20
21.4823881673
 10
-31.9768560166
 20
21.4743992005
 10
-32.0167898316
 20
21.4647538266
 10
-32.0562297309
 20
21.4535005121
 10
-32.0951727644
 20
21.4406309716
 10
-32.1336218822
 20
21.4261534904
 10
-32.171382038
 20
21.4101413912
 10
-32.2084491568
 20
21.3925870948
 10
-32.2448273136
 20
21.3734981804
 10
-32.2803336879
 20
21.3529707085
 10
-32.3149639441
 20
21.3309974627
 10
-32.3487224177
 20
21.3075856594
 10
-32.3814392942
 20
21.2828530088
 10
-32.4131095275
 20
21.2567926642
 10
-32.4437381637
 20
21.2294114724
 10
-32.4731705267
 20
21.2008476835
 10
-32.5014005112
 20
21.1710952938
 10
-32.5284342225
 20
21.1401603071
 10
-32.5541353008
 20
21.108198984
 10
-32.5784968408
 20
21.0752063761
 10
-32.6015257477
 20
21.0411874318
 10
-32.6231063779
 20
21.006313258
 10
-32.6432314817
 20
20.9705796081
 10
-32.6619083088
 20
20.9339907286
 10
-32.6790429651
 20
20.8967304655
 10
-32.694627824
 20
20.8587948277
 10
-32.7086705121
 20
20.8201878064
 10
-32.7211000143
 20
20.7811052212
 10
-32.7319080507
 20
20.741543862
 10
-32.7411029013
 20
20.701506939
 10
-32.7486383905
 20
20.6611999024
 10
-32.7544991267
 20
20.6206912354
 10
-32.7587005015
 20
20.5799124547
 10
-32.761242515
 20
20.5388635604
  0
LINE
  5
391
100
AcDbEntity
  8
RACCORDO
100
AcDbLine
 62
250
  6
CONTINUOUS
 10
-28.7241099002
 20
21.6583246819
 11
-31.8144244593
 21
21.4963681585
  0
LINE
  5
392
100
AcDbEntity
  8
RACCORDO
100
AcDbLine
 62
7
  6
CONTINUOUS
 10
-28.7676745064
 20
22.1562704097
 11
-31.8318489145
 21
21.9956838336
  0
LWPOLYLINE
  5
393
100
AcDbEntity
  8
0
100
AcDbPolyline
 62
7
  6
CONTINUOUS
 90
8
 70
0
 43
0.3500000019
 10
-22.7250498047
 20
40.9159287109
 10
-21.8679091797
 20
40.9159287109
 10
-21.4393388672
 20
41.344501709
 10
-21.4393388672
 20
42.2016450195
 10
-21.8679091797
 20
42.630215332
 10
-22.7250498047
 20
42.630215332
 10
-22.7250498047
 20
43.9159289551
 10
-21.4393388672
 20
43.9159289551
  0
LWPOLYLINE
  5
394
100
AcDbEntity
  8
RACCORDO
100
AcDbPolyline
 62
250
  6
CONTINUOUS
 90
4
 70
0
 10
-32.761242515
 20
20.5388635604
 10
-33.2487915549
 20
20.5592488867
 10
-33.2512676182
 20
20.5593713878
 10
-33.2520933176
 20
20.5594260288
  0
LWPOLYLINE
  5
395
100
AcDbEntity
  8
0
100
AcDbPolyline
 62
7
  6
CONTINUOUS
 90
10
 70
0
 43
0.3500000019
 10
-19.9393374023
 20
41.4159291992
 10
-19.8679072266
 20
41.2730715332
 10
-19.8679072266
 20
41.201644043
 10
-20.0107675781
 20
41.058786377
 10
-20.0821923828
 20
41.058786377
 10
-20.1536225586
 20
41.1302165527
 10
-20.1536225586
 20
41.201644043
 10
-20.0821923828
 20
41.344501709
 10
-20.0107675781
 20
41.4159291992
 10
-19.9393374023
 20
41.4159291992
  0
ARC
  5
396
100
AcDbEntity
  8
0
100
AcDbCircle
 62
7
  6
CONTINUOUS
 10
-0.2201459013
 20
-0.0030422961
 40
1.375
100
AcDbArc
 50
195.3271627815
 51
344.6728372185
  0
ARC
  5
397
100
AcDbEntity
  8
0
100
AcDbCircle
 62
7
  6
CONTINUOUS
 10
-0.2201459013
 20
-0.0030422961
 40
1.375
100
AcDbArc
 50
15.3271627815
 51
164.6728372185
  0
ARC
  5
398
100
AcDbEntity
  8
RACCORDO
100
AcDbCircle
 62
7
  6
CONTINUOUS
 10
-31.7533622999
 20
-20.5038232159
 40
1.5
100
AcDbArc
 50
182.3561664986
 51
267.000662446
  0
ARC
  5
399
100
AcDbEntity
  8
RACCORDO
100
AcDbCircle
 62
7
  6
CONTINUOUS
 10
-28.6750873453
 20
-17.9365338973
 40
0.3
100
AcDbArc
 50
335.0
 51
360.0
  0
ARC
  5
39A
100
AcDbEntity
  8
RACCORDO
100
AcDbCircle
 62
7
  6
CONTINUOUS
 10
-33.474965678
 20
-0.3510466228
 40
0.2
100
AcDbArc
 50
90.5001462858
 51
180.0398957513
  0
ARC
  5
39B
100
AcDbEntity
  8
RACCORDO
100
AcDbCircle
 62
7
  6
CONTINUOUS
 10
-31.7533622999
 20
20.4977386238
 40
1.5
100
AcDbArc
 50
92.999337554
 51
177.6438335014
  0
ARC
  5
39C
100
AcDbEntity
  8
RACCORDO
100
AcDbCircle
 62
7
  6
CONTINUOUS
 10
-28.6750873453
 20
17.9304493052
 40
0.3
100
AcDbArc
 50
0.0
 51
25.0
  0
ARC
  5
39D
100
AcDbEntity
  8
RACCORDO
100
AcDbCircle
 62
7
  6
CONTINUOUS
 10
-33.474965678
 20
0.3449620307
 40
0.2
100
AcDbArc
 50
179.9601042487
 51
269.4998537142
  0
ARC
  5
39E
100
AcDbEntity
  8
RACCORDO
100
AcDbCircle
 62
7
  6
CONTINUOUS
 10
466.3249126547
 20
-0.0030422961
 40
500.0
100
AcDbArc
 50
180.0398943199
 51
182.3569476404
  0
ARC
  5
39F
100
AcDbEntity
  8
RACCORDO
100
AcDbCircle
 62
7
  6
CONTINUOUS
 10
466.3249126547
 20
-0.0030422961
 40
500.0
100
AcDbArc
 50
177.6430523596
 51
179.9601056801
  0
ELLIPSE
  5
3A0
100
AcDbEntity
  8
RACCORDO
100
AcDbEllipse
 62
7
  6
CONTINUOUS
 10
-7.5046758475
 20
-22.1357626217
 30
0.0
 11
0.2
 21
0.0
 31
0.0
 40
0.0524077793
 41
1.5707963268
 42
2.617993878
  0
ELLIPSE
  5
3A1
100
AcDbEntity
  8
RACCORDO
100
AcDbEllipse
 62
7
  6
CONTINUOUS
 10
-4.1356159552
 20
-22.1357626217
 30
0.0
 11
0.2
 21
0.0
 31
0.0
 40
0.0524077793
 41
0.5235987756
 42
1.5707963268
  0
ELLIPSE
  5
3A2
100
AcDbEntity
  8
RACCORDO
100
AcDbEllipse
 62
7
  6
CONTINUOUS
 10
3.6953241525
 20
-22.1357626217
 30
0.0
 11
0.2
 21
0.0
 31
0.0
 40
0.0524077793
 41
1.5707963268
 42
2.617993878
  0
ELLIPSE
  5
3A3
100
AcDbEntity
  8
RACCORDO
100
AcDbEllipse
 62
7
  6
CONTINUOUS
 10
7.0643840448
 20
-22.1357626217
 30
0.0
 11
0.2
 21
0.0
 31
0.0
 40
0.0524077793
 41
0.5235987756
 42
1.5707963268
  0
ELLIPSE
  5
3A4
100
AcDbEntity
  8
RACCORDO
100
AcDbEllipse
 62
7
  6
CONTINUOUS
 10
10.7298236331
 20
-0.3030499117
 30
0.0
 11
0.1789222233
 21
0.0894542984
 31
0.0
 40
0.9998096356
 41
-0.4635410001
 42
1.1071030277
  0
ELLIPSE
  5
3A5
100
AcDbEntity
  8
RACCORDO
100
AcDbEllipse
 62
7
  6
CONTINUOUS
 10
-11.1701154357
 20
-0.3030499117
 30
0.0
 11
0.1789222233
 21
-0.0894542984
 31
0.0
 40
0.9998096356
 41
2.0344896259
 42
3.6051336537
  0
ELLIPSE
  5
3A6
100
AcDbEntity
  8
RACCORDO
100
AcDbEllipse
 62
7
  6
CONTINUOUS
 10
10.4167043925
 20
-21.6639540403
 30
0.0
 11
0.498078285
 21
0.0448076117
 31
0.0
 40
0.9965957691
 41
-1.6608206152
 42
-0.0909376769
  0
ELLIPSE
  5
3A7
100
AcDbEntity
  8
RACCORDO
100
AcDbEllipse
 62
7
  6
CONTINUOUS
 10
-10.8569961952
 20
-21.6639540403
 30
0.0
 11
0.498078285
 21
-0.0448076117
 31
0.0
 40
0.9965957691
 41
-3.0506549766
 42
-1.4807720384
  0
ELLIPSE
  5
3A8
100
AcDbEntity
  8
RACCORDO
100
AcDbEllipse
 62
7
  6
CONTINUOUS
 10
7.0643840448
 20
22.1296780296
 30
0.0
 11
0.2
 21
-0.0
 31
0.0
 40
0.0524077793
 41
-1.5707963268
 42
-0.5235987756
  0
ELLIPSE
  5
3A9
100
AcDbEntity
  8
RACCORDO
100
AcDbEllipse
 62
7
  6
CONTINUOUS
 10
3.6953241525
 20
22.1296780296
 30
0.0
 11
0.2
 21
-0.0
 31
0.0
 40
0.0524077793
 41
-2.617993878
 42
-1.5707963268
  0
ELLIPSE
  5
3AA
100
AcDbEntity
  8
RACCORDO
100
AcDbEllipse
 62
7
  6
CONTINUOUS
 10
-4.1356159552
 20
22.1296780296
 30
0.0
 11
0.2
 21
0.0
 31
0.0
 40
0.0524077793
 41
-1.5707963268
 42
-0.5235987756
  0
ELLIPSE
  5
3AB
100
AcDbEntity
  8
RACCORDO
100
AcDbEllipse
 62
7
  6
CONTINUOUS
 10
-7.5046758475
 20
22.1296780296
 30
0.0
 11
0.2
 21
0.0
 31
0.0
 40
0.0524077793
 41
-2.617993878
 42
-1.5707963268
  0
ELLIPSE
  5
3AC
100
AcDbEntity
  8
RACCORDO
100
AcDbEllipse
 62
7
  6
CONTINUOUS
 10
-11.1701154357
 20
0.2969653196
 30
0.0
 11
0.1789222233
 21
0.0894542984
 31
0.0
 40
0.9998096356
 41
2.6780516535
 42
4.2486956813
  0
ELLIPSE
  5
3AD
100
AcDbEntity
  8
RACCORDO
100
AcDbEllipse
 62
7
  6
CONTINUOUS
 10
10.7298236331
 20
0.2969653196
 30
0.0
 11
0.1789222233
 21
-0.0894542984
 31
0.0
 40
0.9998096356
 41
-1.1071030277
 42
0.4635410001
  0
ELLIPSE
  5
3AE
100
AcDbEntity
  8
RACCORDO
100
AcDbEllipse
 62
7
  6
CONTINUOUS
 10
-10.8569961952
 20
21.6578694482
 30
0.0
 11
0.498078285
 21
0.0448076117
 31
0.0
 40
0.9965957691
 41
1.4807720384
 42
3.0506549766
  0
ELLIPSE
  5
3AF
100
AcDbEntity
  8
RACCORDO
100
AcDbEllipse
 62
7
  6
CONTINUOUS
 10
10.4167043925
 20
21.6578694482
 30
0.0
 11
0.498078285
 21
-0.0448076117
 31
0.0
 40
0.9965957691
 41
0.0909376769
 42
1.6608206152
  0
ENDSEC
  0
SECTION
  2
OBJECTS
  0
DICTIONARY
  5
C
100
AcDbDictionary
280
0
281
1
  3
ACAD_GROUP
350
D
  3
ACAD_MLINESTYLE
350
17
  3
ACAD_LAYOUT
350
1A
  3
ACAD_PLOTSETTINGS
350
19
  3
ACAD_PLOTSTYLENAME
350
E
  0
DICTIONARY
  5
D
102
{ACAD_REACTORS
330
C
102
}
100
AcDbDictionary
280
0
281
1
  0
ACDBDICTIONARYWDFLT
  5
E
102
{ACAD_REACTORS
330
C
102
}
100
AcDbDictionary
281
1
  3
Normal
350
F
100
AcDbDictionaryWithDefault
340
F
  0
DICTIONARY
  5
17
102
{ACAD_REACTORS
330
C
102
}
100
AcDbDictionary
280
0
281
1
  3
Standard
350
18
  0
DICTIONARY
  5
19
102
{ACAD_REACTORS
330
C
102
}
100
AcDbDictionary
281
1
  0
DICTIONARY
  5
1A
102
{ACAD_REACTORS
330
C
102
}
100
AcDbDictionary
281
1
  3
Model
350
3B0
  3
Layout1
350
3B1
  0
ACDBPLACEHOLDER
  5
F
102
{ACAD_REACTORS
330
E
102
}
  0
MLINESTYLE
  5
18
102
{ACAD_REACTORS
330
17
102
}
100
AcDbMlineStyle
  2
STANDARD
 70
0
  3

 62
256
 51
90.0
 52
90.0
 71
2
 49
0.5
 62
256
  6
BYLAYER
 49
-0.5
 62
256
  6
BYLAYER
  0
LAYOUT
  5
3B0
102
{ACAD_REACTORS
330
1A
102
}
100
AcDbPlotSettings
  1

  2
none_device
  4

  6

 40
0.0
 41
0.0
 42
0.0
 43
0.0
 44
210.0
 45
297.0
 46
0.0
 47
0.0
 48
0.0
 49
0.0
140
0.0
141
0.0
142
1.0
143
1.0
 70
1024
 72
1
 73
0
 74
0
  7

 75
0
147
1.0
148
0.0
149
0.0
100
AcDbLayout
  1
Model
 70
0
 71
0
 10
0.0
 20
0.0
 11
210.0
 21
297.0
 12
0.0
 22
0.0
 32
0.0
 14
0.0
 24
0.0
 34
0.0
 15
0.0
 25
0.0
 35
0.0
146
0.0
 13
0.0
 23
0.0
 33
0.0
 16
1.0
 26
0.0
 36
0.0
 17
0.0
 27
1.0
 37
0.0
 76
0
330
212
345
0
346
0
  0
LAYOUT
  5
3B1
102
{ACAD_REACTORS
330
1A
102
}
100
AcDbPlotSettings
  1

  2
none_device
  4

  6

 40
0.0
 41
0.0
 42
0.0
 43
0.0
 44
210.0
 45
297.0
 46
0.0
 47
0.0
 48
0.0
 49
0.0
140
0.0
141
0.0
142
1.0
143
1.0
 70
0
 72
1
 73
0
 74
0
  7

 75
0
147
1.0
148
0.0
149
0.0
100
AcDbLayout
  1
Layout1
 70
0
 71
1
 10
0.0
 20
0.0
 11
210.0
 21
297.0
 12
0.0
 22
0.0
 32
0.0
 14
0.0
 24
0.0
 34
0.0
 15
0.0
 25
0.0
 35
0.0
146
0.0
 13
0.0
 23
0.0
 33
0.0
 16
1.0
 26
0.0
 36
0.0
 17
0.0
 27
1.0
 37
0.0
 76
0
330
213
345
0
346
0
  0
ENDSEC
  0
EOF
