  0
SECTION
  2
HEADER
  9
$ACADVER
  1
AC1024
  9
$DWGCODEPAGE
  3
ANSI_1252
  9
$EXTMAX
 10
210.0
 20
297.0
 30
0.0
  9
$EXTMIN
 10
0.0
 20
0.0
 30
0.0
  9
$LIMMIN
 10
0.0
 20
0.0
  9
$LIMMAX
 10
210.0
 20
297.0
  9
$VIEWCTR
 10
105.0
 20
148.5
  9
$VIEWSIZE
 40
297.0
  9
$CLAYER
  8
0
  9
$LTSCALE
 40
19.36
  9
$CELTYPE
  6
BYLAYER
  9
$DIMSCALE
 40
1.0
  9
$DIMASZ
 40
3.0
  9
$DIMEXO
 40
0.5
  9
$DIMDLI
 40
13.376
  9
$DIMEXE
 40
1.5
  9
$DIMCEN
 40
3.168
  9
$DIMLFAC
 40
1.0
  9
$DIMBLK
  1
_FILLED
  9
$DIMALT
 70
0
  9
$DIMALTF
 40
0.0393700787
  9
$DIMTXT
 40
3.0
  9
$DIMTOL
 70
1
  9
$DIMLIM
 70
0
  9
$DIMTFAC
 40
1.0
  9
$DIMTP
 40
0.01
  9
$DIMTM
 40
0.01
  9
$DIMGAP
 40
0.625
  9
$DIMDSEP
 70
44
  9
$AUNITS
 70
0
  9
$PDMODE
 70
3
  9
$PDSIZE
 40
3.0
  9
$HANDSEED
  5
3B3
  9
$TILEMODE
 70
1
  9
$MEASUREMENT
 70
1
  9
$INSUNITS
 70
4
  0
ENDSEC
  0
SECTION
  2
CLASSES
  0
CLASS
  1
ACDBDICTIONARYWDFLT
  2
AcDbDictionaryWithDefault
  3
AutoCAD 2000
 90
0
 91
1
280
0
281
0
  0
CLASS
  1
ACDBPLACEHOLDER
  2
AcDbPlaceHolder
  3
AutoCAD 2000
 90
0
 91
1
280
0
281
0
  0
CLASS
  1
LAYOUT
  2
AcDbLayout
  3
AutoCAD 2000
 90
0
 91
0
280
0
281
0
  0
ENDSEC
  0
SECTION
  2
TABLES
  0
TABLE
  2
VPORT
  5
8
100
AcDbSymbolTable
 70
2
  0
VPORT
  5
1F4
100
AcDbSymbolTableRecord
100
AcDbViewportTableRecord
  2
*ACTIVE
 70
0
 10
0.0
 20
0.0
 11
1.0
 21
1.0
 12
105.0
 22
148.5
 13
0.0
 23
0.0
 14
1.0
 24
1.0
 15
0.0
 25
0.0
 16
0.0
 26
0.0
 36
1.0
 17
0.0
 27
0.0
 37
0.0
 40
297.0
 41
0.7070707071
 42
50.0
 43
0.0
 44
0.0
 50
0.0
 51
0.0
 71
0
 72
100
 73
1
 74
1
 75
0
 76
0
 77
0
 78
0
  0
ENDTAB
  0
TABLE
  2
LTYPE
  5
5
100
AcDbSymbolTable
 70
6
  0
LTYPE
  5
14
100
AcDbSymbolTableRecord
100
AcDbLinetypeTableRecord
  2
BYBLOCK
 70
0
  3

 72
65
 73
0
 40
0.0
  0
LTYPE
  5
15
100
AcDbSymbolTableRecord
100
AcDbLinetypeTableRecord
  2
BYLAYER
 70
0
  3

 72
65
 73
0
 40
0.0
  0
LTYPE
  5
16
100
AcDbSymbolTableRecord
100
AcDbLinetypeTableRecord
  2
CONTINUOUS
 70
64
  3
Solid line
 72
65
 73
0
 40
0.0
  0
LTYPE
  5
1F5
100
AcDbSymbolTableRecord
100
AcDbLinetypeTableRecord
  2
CENTER
 70
64
  3
____ _ ____ _ ____ _ ____ _ ____ _ ____ _ ____
 72
65
 73
4
 40
0.6
 49
0.375
 74
0
 49
-0.075
 74
0
 49
0.075
 74
0
 49
-0.075
 74
0
  0
LTYPE
  5
1F6
100
AcDbSymbolTableRecord
100
AcDbLinetypeTableRecord
  2
HIDDEN
 70
64
  3
- - - - - - - - - - - - - - - - - - - -
 72
65
 73
2
 40
0.2
 49
0.1
 74
0
 49
-0.1
 74
0
  0
LTYPE
  5
1F7
100
AcDbSymbolTableRecord
100
AcDbLinetypeTableRecord
  2
PHANTOM
 70
64
  3
_____ _ _ _____ _ _ _____ _ _ _____
 72
65
 73
6
 40
0.8
 49
0.45
 74
0
 49
-0.05
 74
0
 49
0.1
 74
0
 49
-0.05
 74
0
 49
0.1
 74
0
 49
-0.05
 74
0
  0
LTYPE
  5
1F8
100
AcDbSymbolTableRecord
100
AcDbLinetypeTableRecord
  2
DOT
 70
64
  3
. . . . . . . . . . . . . . . . . . . .
 72
65
 73
2
 40
0.2
 49
0.1
 74
0
 49
-0.1
 74
0
  0
LTYPE
  5
1F9
100
AcDbSymbolTableRecord
100
AcDbLinetypeTableRecord
  2
DASHED
 70
64
  3
- - - - - - - - - - - - - - - - - - - -
 72
65
 73
2
 40
0.2
 49
0.1
 74
0
 49
-0.1
 74
0
  0
ENDTAB
  0
TABLE
  2
LAYER
  5
2
100
AcDbSymbolTable
 70
36
  0
LAYER
  5
10
100
AcDbSymbolTableRecord
100
AcDbLayerTableRecord
  2
0
 70
0
 62
7
  6
CONTINUOUS
370
-3
390
F
  0
LAYER
  5
1FA
100
AcDbSymbolTableRecord
100
AcDbLayerTableRecord
  2
DEFAULT_1
 70
0
 62
7
  6
CENTER
370
-3
390
F
  0
LAYER
  5
1FB
100
AcDbSymbolTableRecord
100
AcDbLayerTableRecord
  2
DEFAULT_2
 70
0
 62
7
  6
HIDDEN
370
-3
390
F
  0
LAYER
  5
1FC
100
AcDbSymbolTableRecord
100
AcDbLayerTableRecord
  2
DEFAULT_3
 70
0
 62
7
  6
PHANTOM
370
-3
390
F
  0
LAYER
  5
1FD
100
AcDbSymbolTableRecord
100
AcDbLayerTableRecord
  2
ASSI
 70
0
 62
7
  6
CONTINUOUS
370
-3
390
F
  0
LAYER
  5
1FE
100
AcDbSymbolTableRecord
100
AcDbLayerTableRecord
  2
COORDINATE
 70
0
 62
7
  6
CONTINUOUS
370
-3
390
F
  0
LAYER
  5
1FF
100
AcDbSymbolTableRecord
100
AcDbLayerTableRecord
  2
COORD_ORIGINE
 70
0
 62
7
  6
CONTINUOUS
370
-3
390
F
  0
LAYER
  5
200
100
AcDbSymbolTableRecord
100
AcDbLayerTableRecord
  2
COPY_PUBLISH
 70
0
 62
7
  6
CONTINUOUS
370
-3
390
F
  0
LAYER
  5
201
100
AcDbSymbolTableRecord
100
AcDbLayerTableRecord
  2
COSMETICI
 70
0
 62
7
  6
CONTINUOUS
370
-3
390
F
  0
LAYER
  5
202
100
AcDbSymbolTableRecord
100
AcDbLayerTableRecord
  2
CURVE
 70
0
 62
7
  6
CONTINUOUS
370
-3
390
F
  0
LAYER
  5
203
100
AcDbSymbolTableRecord
100
AcDbLayerTableRecord
  2
DRAFT
 70
0
 62
7
  6
CONTINUOUS
370
-3
390
F
  0
LAYER
  5
204
100
AcDbSymbolTableRecord
100
AcDbLayerTableRecord
  2
IGES
 70
0
 62
7
  6
CONTINUOUS
370
-3
390
F
  0
LAYER
  5
205
100
AcDbSymbolTableRecord
100
AcDbLayerTableRecord
  2
IMPORT_IGES
 70
0
 62
7
  6
CONTINUOUS
370
-3
390
F
  0
LAYER
  5
206
100
AcDbSymbolTableRecord
100
AcDbLayerTableRecord
  2
INTFCLR_2
 70
0
 62
7
  6
CONTINUOUS
370
-3
390
F
  0
LAYER
  5
207
100
AcDbSymbolTableRecord
100
AcDbLayerTableRecord
  2
INTFCLR_3
 70
0
 62
7
  6
CONTINUOUS
370
-3
390
F
  0
LAYER
  5
208
100
AcDbSymbolTableRecord
100
AcDbLayerTableRecord
  2
INTFCLR_4
 70
0
 62
7
  6
CONTINUOUS
370
-3
390
F
  0
LAYER
  5
209
100
AcDbSymbolTableRecord
100
AcDbLayerTableRecord
  2
NOTE
 70
0
 62
7
  6
CONTINUOUS
370
-3
390
F
  0
LAYER
  5
20A
100
AcDbSymbolTableRecord
100
AcDbLayerTableRecord
  2
PIANI
 70
0
 62
7
  6
CONTINUOUS
370
-3
390
F
  0
LAYER
  5
20B
100
AcDbSymbolTableRecord
100
AcDbLayerTableRecord
  2
PIANI_ORIGINE
 70
0
 62
7
  6
CONTINUOUS
370
-3
390
F
  0
LAYER
  5
20C
100
AcDbSymbolTableRecord
100
AcDbLayerTableRecord
  2
PIANI_RIFERIMENTO
 70
0
 62
7
  6
CONTINUOUS
370
-3
390
F
  0
LAYER
  5
20D
100
AcDbSymbolTableRecord
100
AcDbLayerTableRecord
  2
PUNTI
 70
0
 62
7
  6
CONTINUOUS
370
-3
390
F
  0
LAYER
  5
20E
100
AcDbSymbolTableRecord
100
AcDbLayerTableRecord
  2
RACCORDO
 70
0
 62
7
  6
CONTINUOUS
370
-3
390
F
  0
LAYER
  5
20F
100
AcDbSymbolTableRecord
100
AcDbLayerTableRecord
  2
SIMBOLI
 70
0
 62
7
  6
CONTINUOUS
370
-3
390
F
  0
LAYER
  5
210
100
AcDbSymbolTableRecord
100
AcDbLayerTableRecord
  2
SMUSSO
 70
0
 62
7
  6
CONTINUOUS
370
-3
390
F
  0
LAYER
  5
211
100
AcDbSymbolTableRecord
100
AcDbLayerTableRecord
  2
SNAPLINE
 70
0
 62
7
  6
CONTINUOUS
370
-3
390
F
  0
LAYER
  5
212
100
AcDbSymbolTableRecord
100
AcDbLayerTableRecord
  2
SUPERFICI
 70
0
 62
7
  6
CONTINUOUS
370
-3
390
F
  0
LAYER
  5
213
100
AcDbSymbolTableRecord
100
AcDbLayerTableRecord
  2
TRASH
 70
0
 62
7
  6
CONTINUOUS
370
-3
390
F
  0
LAYER
  5
214
100
AcDbSymbolTableRecord
100
AcDbLayerTableRecord
  2
XSEC_DATUMS
 70
0
 62
7
  6
CONTINUOUS
370
-3
390
F
  0
ENDTAB
  0
TABLE
  2
STYLE
  5
3
100
AcDbSymbolTable
 70
1
  0
STYLE
  5
11
100
AcDbSymbolTableRecord
100
AcDbTextStyleTableRecord
  2
STANDARD
 70
0
 40
0.0
 41
0.8
 50
0.0
 71
0
 42
0.2
  3
txt
  4

  0
STYLE
  5
215
100
AcDbSymbolTableRecord
100
AcDbTextStyleTableRecord
  2
TEXTSTYLE_1
 70
0
 40
0.0
 41
0.8
 50
0.0
 71
0
 42
0.2
  3
gdt
  4

  0
ENDTAB
  0
TABLE
  2
VIEW
  5
6
100
AcDbSymbolTable
 70
0
  0
ENDTAB
  0
TABLE
  2
UCS
  5
7
100
AcDbSymbolTable
 70
0
  0
ENDTAB
  0
TABLE
  2
APPID
  5
9
100
AcDbSymbolTable
 70
1
  0
APPID
  5
216
100
AcDbSymbolTableRecord
100
AcDbRegAppTableRecord
  2
ACAD
 70
0
  0
ENDTAB
  0
TABLE
  2
BLOCK_RECORD
  5
1
100
AcDbSymbolTable
 70
0
  0
BLOCK_RECORD
  5
217
100
AcDbSymbolTableRecord
100
AcDbBlockTableRecord
  2
*Model_Space
  0
BLOCK_RECORD
  5
218
100
AcDbSymbolTableRecord
100
AcDbBlockTableRecord
  2
*Paper_Space
  0
BLOCK_RECORD
  5
219
100
AcDbSymbolTableRecord
100
AcDbBlockTableRecord
  2
_FILLED
  0
BLOCK_RECORD
  5
21A
100
AcDbSymbolTableRecord
100
AcDbBlockTableRecord
  2
*D0
  0
BLOCK_RECORD
  5
21B
100
AcDbSymbolTableRecord
100
AcDbBlockTableRecord
  2
*D1
  0
BLOCK_RECORD
  5
21C
100
AcDbSymbolTableRecord
100
AcDbBlockTableRecord
  2
*D2
  0
ENDTAB
  0
TABLE
  2
DIMSTYLE
  5
A
100
AcDbSymbolTable
 70
1
100
AcDbDimStyleTable
 71
0
  0
DIMSTYLE
105
21D
100
AcDbSymbolTableRecord
100
AcDbDimStyleTableRecord
  2
STANDARD
 70
0
  3

  4

 40
1.0
 41
3.0
 42
0.5
 43
0.38
 44
1.5
 45
0.0
 46
0.0
 47
0.01
 48
0.01
140
3.0
141
0.09
142
0.0
143
25.4
144
1.0
145
0.0
146
1.0
147
0.625
 71
1
 72
0
 73
0
 74
0
 75
0
 76
0
 77
1
 78
8
 79
2
170
0
171
1
172
0
173
0
174
0
175
0
176
0
177
0
178
0
270
2
179
2
271
2
272
2
273
2
274
2
275
0
280
0
281
0
282
0
283
1
284
8
285
0
286
0
287
3
288
0
340
11
278
44
341
219
342
219
343
219
344
219
  0
DIMSTYLE
105
21E
100
AcDbSymbolTableRecord
100
AcDbDimStyleTableRecord
  2
DIMSTYLE_1
 70
0
  3

  4

 40
1.0
 41
3.0
 42
0.5
 43
0.38
 44
1.5
 45
0.0
 46
0.0
 47
0.0
 48
0.0
140
3.0
141
0.09
142
0.0
143
25.4
144
1.0
145
0.0
146
1.0
147
0.75
 71
0
 72
0
 73
0
 74
0
 75
0
 76
0
 77
1
 78
8
 79
2
170
0
171
1
172
0
173
0
174
0
175
0
176
0
177
0
178
0
270
2
179
2
271
2
272
2
273
2
274
2
275
0
280
0
281
0
282
0
283
1
284
8
285
0
286
0
287
3
288
0
340
11
278
44
341
219
342
219
343
219
344
219
  0
DIMSTYLE
105
21F
100
AcDbSymbolTableRecord
100
AcDbDimStyleTableRecord
  2
DIMSTYLE_2
 70
0
  3

  4

 40
1.0
 41
3.0
 42
0.5
 43
0.38
 44
1.5
 45
0.0
 46
0.0
 47
0.0
 48
0.0
140
3.0
141
0.09
142
0.0
143
25.4
144
1.0
145
0.0
146
1.0
147
0.75
 71
0
 72
0
 73
0
 74
0
 75
0
 76
0
 77
1
 78
8
 79
2
170
0
171
1
172
0
173
0
174
0
175
0
176
0
177
0
178
0
270
2
179
2
271
1
272
1
273
2
274
2
275
0
280
0
281
0
282
0
283
1
284
8
285
0
286
0
287
3
288
0
340
11
278
44
341
219
342
219
343
219
344
219
  0
ENDTAB
  0
ENDSEC
  0
SECTION
  2
BLOCKS
  0
BLOCK
  5
20
100
AcDbEntity
  8
0
100
AcDbBlockBegin
  2
*Model_Space
 70
0
 10
0.0
 20
0.0
 30
0.0
  3
*Model_Space
  1

  0
ENDBLK
  5
21
100
AcDbEntity
  8
0
100
AcDbBlockEnd
  0
BLOCK
  5
1C
100
AcDbEntity
  8
0
100
AcDbBlockBegin
  2
*Paper_Space
 70
0
 10
0.0
 20
0.0
 30
0.0
  3
*Paper_Space
  1

  0
ENDBLK
  5
1D
100
AcDbEntity
  8
0
100
AcDbBlockEnd
  0
BLOCK
  5
220
100
AcDbEntity
  8
0
100
AcDbBlockBegin
  2
_FILLED
 70
64
 10
0.0
 20
0.0
  3
_FILLED
  1

  0
SOLID
  5
221
100
AcDbEntity
  8
0
  6
BYBLOCK
 62
0
100
AcDbTrace
 10
0.0
 20
0.0
 11
-1.0
 21
0.3166666667
 12
-1.0
 22
-0.3166666667
 13
-1.0
 23
-0.3166666667
  0
ENDBLK
  5
222
100
AcDbEntity
  8
0
  6
BYBLOCK
 62
0
100
AcDbBlockEnd
  0
BLOCK
  5
223
100
AcDbEntity
  8
0
100
AcDbBlockBegin
 62
7
  6
CONTINUOUS
  2
*D0
 70
65
 10
0.0
 20
0.0
  3
*D0
  1

  0
LINE
  5
224
100
AcDbEntity
  8
0
100
AcDbLine
 62
7
  6
CONTINUOUS
 10
-11.2092032592
 20
13.6174227571
 11
-11.2092032592
 21
31.6782846614
  0
LINE
  5
225
100
AcDbEntity
  8
0
100
AcDbLine
 62
7
  6
CONTINUOUS
 10
11.0907967408
 20
13.6174227571
 11
11.0907967408
 21
31.6782846614
  0
LINE
  5
226
100
AcDbEntity
  8
0
100
AcDbLine
 62
7
  6
CONTINUOUS
 10
-11.2092032592
 20
30.1782846614
 11
-0.0592032592
 21
30.1782846614
  0
LINE
  5
227
100
AcDbEntity
  8
0
100
AcDbLine
 62
7
  6
CONTINUOUS
 10
11.0907967408
 20
30.1782846614
 11
-0.0592032592
 21
30.1782846614
  0
INSERT
  5
228
100
AcDbEntity
  8
0
100
AcDbBlockReference
 62
7
  6
CONTINUOUS
  2
_FILLED
 10
-11.2092032592
 20
30.1782846614
 41
3.0
 42
3.0
 43
3.0
 50
180.0
  0
INSERT
  5
229
100
AcDbEntity
  8
0
100
AcDbBlockReference
 62
7
  6
CONTINUOUS
  2
_FILLED
 10
11.0907967408
 20
30.1782846614
 41
3.0
 42
3.0
 43
3.0
  0
ENDBLK
  5
22A
100
AcDbEntity
  8
0
  6
BYBLOCK
 62
0
100
AcDbBlockEnd
  0
BLOCK
  5
22B
100
AcDbEntity
  8
0
100
AcDbBlockBegin
 62
7
  6
CONTINUOUS
  2
*D1
 70
65
 10
0.0
 20
0.0
  3
*D1
  1

  0
LINE
  5
22C
100
AcDbEntity
  8
0
100
AcDbLine
 62
7
  6
CONTINUOUS
 10
11.0773426802
 20
22.1767354628
 11
20.6220010185
 21
22.1767354628
  0
LINE
  5
22D
100
AcDbEntity
  8
0
100
AcDbLine
 62
7
  6
CONTINUOUS
 10
11.0773426802
 20
-22.1418899486
 11
20.6220010185
 21
-22.1418899486
  0
LINE
  5
22E
100
AcDbEntity
  8
0
100
AcDbLine
 62
7
  6
CONTINUOUS
 10
19.1220010185
 20
22.1767354628
 11
19.1220010185
 21
0.0174227571
  0
LINE
  5
22F
100
AcDbEntity
  8
0
100
AcDbLine
 62
7
  6
CONTINUOUS
 10
19.1220010185
 20
-22.1418899486
 11
19.1220010185
 21
0.0174227571
  0
INSERT
  5
230
100
AcDbEntity
  8
0
100
AcDbBlockReference
 62
7
  6
CONTINUOUS
  2
_FILLED
 10
19.1220010185
 20
22.1767354628
 41
3.0
 42
3.0
 43
3.0
 50
90.0
  0
INSERT
  5
231
100
AcDbEntity
  8
0
100
AcDbBlockReference
 62
7
  6
CONTINUOUS
  2
_FILLED
 10
19.1220010185
 20
-22.1418899486
 41
3.0
 42
3.0
 43
3.0
 50
270.0
  0
ENDBLK
  5
232
100
AcDbEntity
  8
0
  6
BYBLOCK
 62
0
100
AcDbBlockEnd
  0
BLOCK
  5
233
100
AcDbEntity
  8
0
100
AcDbBlockBegin
 62
7
  6
CONTINUOUS
  2
*D2
 70
65
 10
0.0
 20
0.0
  3
*D2
  1

  0
LINE
  5
234
100
AcDbEntity
  8
0
100
AcDbLine
 62
7
  6
CONTINUOUS
 10
-29.7019291243
 20
13.6174227571
 11
-29.7019291243
 21
31.7293218761
  0
LINE
  5
235
100
AcDbEntity
  8
0
100
AcDbLine
 62
7
  6
CONTINUOUS
 10
-35.4018079176
 20
0.8655663538
 11
-35.4018079176
 21
31.7293218761
  0
LINE
  5
236
100
AcDbEntity
  8
0
100
AcDbLine
 62
7
  6
CONTINUOUS
 10
-29.7019291243
 20
30.2293218761
 11
-18.23760821
 21
30.2293218761
  0
LINE
  5
237
100
AcDbEntity
  8
0
100
AcDbLine
 62
7
  6
CONTINUOUS
 10
-18.23760821
 20
30.2293218761
 11
-32.5518685209
 21
30.2293218761
  0
LINE
  5
238
100
AcDbEntity
  8
0
100
AcDbLine
 62
7
  6
CONTINUOUS
 10
-35.4018079176
 20
30.2293218761
 11
-39.4018079176
 21
30.2293218761
  0
LINE
  5
239
100
AcDbEntity
  8
0
100
AcDbLine
 62
7
  6
CONTINUOUS
 10
-39.4018079176
 20
30.2293218761
 11
-32.5518685209
 21
30.2293218761
  0
INSERT
  5
23A
100
AcDbEntity
  8
0
100
AcDbBlockReference
 62
7
  6
CONTINUOUS
  2
_FILLED
 10
-29.7019291243
 20
30.2293218761
 41
3.0
 42
3.0
 43
3.0
 50
180.0
  0
INSERT
  5
23B
100
AcDbEntity
  8
0
100
AcDbBlockReference
 62
7
  6
CONTINUOUS
  2
_FILLED
 10
-35.4018079176
 20
30.2293218761
 41
3.0
 42
3.0
 43
3.0
  0
ENDBLK
  5
23C
100
AcDbEntity
  8
0
  6
BYBLOCK
 62
0
100
AcDbBlockEnd
  0
ENDSEC
  0
SECTION
  2
ENTITIES
  0
DIMENSION
  5
23D
100
AcDbEntity
  8
0
100
AcDbDimension
 62
7
  6
CONTINUOUS
  2
*D0
 10
11.0907967408
 20
30.1782846614
 11
-4.3449175449
 21
30.1782846614
 70
160
 71
2
 72
2
 41
0.9
 42
22.3
  3
DIMSTYLE_1
100
AcDbAlignedDimension
 13
-11.2092032592
 23
13.1174227571
 14
11.0907967408
 24
13.1174227571
100
AcDbRotatedDimension
  0
DIMENSION
  5
23E
100
AcDbEntity
  8
0
100
AcDbDimension
 62
7
  6
CONTINUOUS
  2
*D1
 10
19.1220010185
 20
-22.1418899486
 11
19.1220010185
 21
-4.2682915286
 70
160
 71
2
 72
2
 41
0.9
 42
44.3186254114
  3
DIMSTYLE_2
100
AcDbAlignedDimension
 13
10.5773426802
 23
22.1767354628
 14
10.5773426802
 24
-22.1418899486
 50
270.0
100
AcDbRotatedDimension
  0
DIMENSION
  5
23F
100
AcDbEntity
  8
0
100
AcDbDimension
 62
7
  6
CONTINUOUS
  2
*D2
 10
-35.4018079176
 20
30.2293218761
 11
-24.4518939243
 21
30.2293218761
 70
160
 71
1
 72
2
 41
0.9
 42
5.6998787933
  3
DIMSTYLE_1
100
AcDbAlignedDimension
 13
-29.7019291243
 23
13.1174227571
 14
-35.4018079176
 24
0.3655663538
 50
180.0
100
AcDbRotatedDimension
  0
LWPOLYLINE
  5
240
100
AcDbEntity
  8
0
100
AcDbPolyline
 62
7
  6
CONTINUOUS
 90
5
 70
0
 43
0.3500000019
 10
2.940796875
 20
32.6425698242
 10
3.2979370117
 20
32.8568549805
 10
3.2979370117
 20
33.4997131348
 10
2.940796875
 20
33.9282834473
 10
2.08365625
 20
33.9282834473
  0
LWPOLYLINE
  5
241
100
AcDbEntity
  8
ASSI
100
AcDbPolyline
 62
250
  6
CONTINUOUS
 90
15
 70
0
 10
-11.12566061
 20
20.5593286136
 10
-11.1243321371
 20
20.5605111355
 10
-11.1213538177
 20
20.5616897445
 10
-11.116735507
 20
20.5628605404
 10
-11.1104924869
 20
20.5640196491
 10
-11.1026454155
 20
20.5651632352
 10
-11.0932202586
 20
20.5662875146
 10
-11.0822482041
 20
20.567388767
 10
-11.0697655583
 20
20.5684633484
 10
-11.0558136261
 20
20.569507703
 10
-11.0404385743
 20
20.570518375
 10
-11.0236912789
 20
20.5714920202
 10
-11.0056271565
 20
20.5724254168
 10
-10.9863059809
 20
20.5733154761
 10
-10.9657916858
 20
20.574159253
  0
LINE
  5
242
100
AcDbEntity
  8
ASSI
100
AcDbLine
 62
7
  6
CONTINUOUS
 10
3.3323717478
 20
-22.1418899486
 11
3.6830617139
 21
-22.1100567906
  0
LINE
  5
243
100
AcDbEntity
  8
ASSI
100
AcDbLine
 62
7
  6
CONTINUOUS
 10
-7.8676282522
 20
-22.1418899486
 11
-7.5169382861
 21
-22.1100567906
  0
LINE
  5
244
100
AcDbEntity
  8
ASSI
100
AcDbLine
 62
7
  6
CONTINUOUS
 10
-10.6957491986
 20
-22.1418899486
 11
-7.8676282522
 21
-22.1418899486
  0
LINE
  5
245
100
AcDbEntity
  8
ASSI
100
AcDbLine
 62
7
  6
CONTINUOUS
 10
-3.4507782663
 20
-22.1418899486
 11
3.3323717478
 21
-22.1418899486
  0
LINE
  5
246
100
AcDbEntity
  8
ASSI
100
AcDbLine
 62
7
  6
CONTINUOUS
 10
7.7492217337
 20
-22.1418899486
 11
10.5773426802
 21
-22.1418899486
  0
LINE
  5
247
100
AcDbEntity
  8
ASSI
100
AcDbLine
 62
7
  6
CONTINUOUS
 10
-7.3437332054
 20
-22.1048160127
 11
-3.9746733131
 21
-22.1048160127
  0
LINE
  5
248
100
AcDbEntity
  8
ASSI
100
AcDbLine
 62
7
  6
CONTINUOUS
 10
3.8562667946
 20
-22.1048160127
 11
7.2253266869
 21
-22.1048160127
  0
LINE
  5
249
100
AcDbEntity
  8
ASSI
100
AcDbLine
 62
250
  6
CONTINUOUS
 10
10.5238573169
 20
-21.9813033725
 11
-10.6422638354
 21
-21.9813033725
  0
LINE
  5
24A
100
AcDbEntity
  8
ASSI
100
AcDbLine
 62
7
  6
CONTINUOUS
 10
-3.4507782663
 20
-22.1418899486
 11
-3.8014682323
 21
-22.1100567906
  0
LINE
  5
24B
100
AcDbEntity
  8
ASSI
100
AcDbLine
 62
7
  6
CONTINUOUS
 10
7.7492217337
 20
-22.1418899486
 11
7.3985317677
 21
-22.1100567906
  0
LWPOLYLINE
  5
24C
100
AcDbEntity
  8
ASSI
100
AcDbPolyline
 62
250
  6
CONTINUOUS
 90
17
 70
0
 10
-11.12566061
 20
-20.5244830994
 10
-11.1243321556
 20
-20.5256656219
 10
-11.1213538532
 20
-20.5268442314
 10
-11.1167355579
 20
-20.528015028
 10
-11.1104925517
 20
-20.5291741375
 10
-11.1026454926
 20
-20.5303177244
 10
-11.0932203464
 20
-20.5314420045
 10
-11.0822483008
 20
-20.5325432577
 10
-11.0697656624
 20
-20.5336178398
 10
-11.055813736
 20
-20.5346621952
 10
-11.0404386885
 20
-20.5356728681
 10
-11.0236913957
 20
-20.5366465141
 10
-11.0056272742
 20
-20.5375799114
 10
-10.9863060983
 20
-20.5384699716
 10
-10.9657918013
 20
-20.5393137492
 10
-10.9441522651
 20
-20.5401084524
 10
-10.8977873813
 20
-20.5415402877
  0
LINE
  5
24D
100
AcDbEntity
  8
ASSI
100
AcDbLine
 62
250
  6
CONTINUOUS
 10
10.8473851673
 20
-20.5393137388
 11
10.8030524682
 21
-20.5408514395
  0
LINE
  5
24E
100
AcDbEntity
  8
ASSI
100
AcDbLine
 62
250
  6
CONTINUOUS
 10
10.8030524682
 20
-20.5408514395
 11
10.754808841
 21
-20.5421726687
  0
LINE
  5
24F
100
AcDbEntity
  8
ASSI
100
AcDbLine
 62
250
  6
CONTINUOUS
 10
10.754808841
 20
-20.5421726687
 11
10.7032923078
 21
-20.5432599529
  0
LINE
  5
250
100
AcDbEntity
  8
ASSI
100
AcDbLine
 62
250
  6
CONTINUOUS
 10
10.7032923078
 20
-20.5432599529
 11
10.6491841751
 21
-20.5440989129
  0
LINE
  5
251
100
AcDbEntity
  8
ASSI
100
AcDbLine
 62
250
  6
CONTINUOUS
 10
10.6491841751
 20
-20.5440989129
 11
10.5932000234
 21
-20.5446784535
  0
LINE
  5
252
100
AcDbEntity
  8
ASSI
100
AcDbLine
 62
250
  6
CONTINUOUS
 10
10.5932000234
 20
-20.5446784535
 11
10.5360802434
 21
-20.5449909102
  0
LINE
  5
253
100
AcDbEntity
  8
ASSI
100
AcDbLine
 62
250
  6
CONTINUOUS
 10
10.5360802434
 20
-20.5449909102
 11
-10.625736738
 21
-20.5450250738
  0
LINE
  5
254
100
AcDbEntity
  8
ASSI
100
AcDbLine
 62
250
  6
CONTINUOUS
 10
-10.6831416522
 20
-20.5448684256
 11
-10.6257367624
 21
-20.5450455677
  0
LINE
  5
255
100
AcDbEntity
  8
ASSI
100
AcDbLine
 62
250
  6
CONTINUOUS
 10
-10.7397873614
 20
-20.5444216872
 11
-10.6831416522
 21
-20.5448684256
  0
LINE
  5
256
100
AcDbEntity
  8
ASSI
100
AcDbLine
 62
250
  6
CONTINUOUS
 10
-10.7949247494
 20
-20.5437112607
 11
-10.7397873614
 21
-20.5444216872
  0
LINE
  5
257
100
AcDbEntity
  8
ASSI
100
AcDbLine
 62
250
  6
CONTINUOUS
 10
-10.8478246233
 20
-20.5427465414
 11
-10.7949247494
 21
-20.5437112607
  0
LINE
  5
258
100
AcDbEntity
  8
ASSI
100
AcDbLine
 62
250
  6
CONTINUOUS
 10
-10.8977873813
 20
-20.5415402877
 11
-10.8478246233
 21
-20.5427465414
  0
LWPOLYLINE
  5
259
100
AcDbEntity
  8
ASSI
100
AcDbPolyline
 62
250
  6
CONTINUOUS
 90
28
 70
0
 10
-11.1421873806
 20
-21.4819876975
 10
-11.1413160373
 20
-21.5110034091
 10
-11.1387580219
 20
-21.5399210558
 10
-11.1345219798
 20
-21.568642903
 10
-11.1286222276
 20
-21.5970718781
 10
-11.1210787049
 20
-21.6251118984
 10
-11.1119169068
 20
-21.6526681955
 10
-11.1011677976
 20
-21.679647636
 10
-11.0888677066
 20
-21.7059590362
 10
-11.0750582049
 20
-21.73151347
 10
-11.0597859649
 20
-21.7562245697
 10
-11.043102603
 20
-21.780008818
 10
-11.0250645047
 20
-21.8027858299
 10
-11.005732634
 20
-21.8244786247
 10
-10.9851723279
 20
-21.8450138861
 10
-10.963453075
 20
-21.8643222099
 10
-10.9406482809
 20
-21.8823383386
 10
-10.9168350201
 20
-21.8990013822
 10
-10.8920937754
 20
-21.9142550235
 10
-10.8665081661
 20
-21.928047709
 10
-10.8401646653
 20
-21.9403328226
 10
-10.8131523073
 20
-21.9510688437
 10
-10.7855623874
 20
-21.960219487
 10
-10.7574881525
 20
-21.9677538257
 10
-10.7290244868
 20
-21.9736463954
 10
-10.7002675905
 20
-21.9778772807
 10
-10.6713146547
 20
-21.9804321822
 10
-10.642263533
 20
-21.9813024649
  0
LWPOLYLINE
  5
25A
100
AcDbEntity
  8
ASSI
100
AcDbPolyline
 62
250
  6
CONTINUOUS
 90
28
 70
0
 10
-11.1421873806
 20
21.5168332117
 10
-11.1413160367
 20
21.5458489327
 10
-11.1387580198
 20
21.5747665877
 10
-11.1345219753
 20
21.6034884424
 10
-11.1286222201
 20
21.6319174241
 10
-11.1210786938
 20
21.6599574498
 10
-11.1119168916
 20
21.6875137512
 10
-11.1011677782
 20
21.714493195
 10
-11.088867683
 20
21.7408045974
 10
-11.075058177
 20
21.7663590323
 10
-11.0597859332
 20
21.7910701322
 10
-11.0431025677
 20
21.8148543797
 10
-11.0250644662
 20
21.8376313899
 10
-11.0057325931
 20
21.8593241824
 10
-10.9851722852
 20
21.8798594407
 10
-10.9634530312
 20
21.8991677609
 10
-10.9406482368
 20
21.9171838857
 10
-10.9168349765
 20
21.9338469251
 10
-10.8920937333
 20
21.9491005621
 10
-10.8665081262
 20
21.9628932433
 10
-10.8401646284
 20
21.9751783528
 10
-10.8131522742
 20
21.98591437
 10
-10.7855623586
 20
21.9950650099
 10
-10.7574881288
 20
22.0025993456
 10
-10.7290244686
 20
22.0084919129
 10
-10.7002675781
 20
22.0127227964
 10
-10.6713146483
 20
22.0152776968
 10
-10.642263533
 20
22.0161479791
  0
LINE
  5
25B
100
AcDbEntity
  8
CURVE
100
AcDbLine
 62
250
  6
CONTINUOUS
 10
1.4109060812
 20
-13.9423123017
 11
2.4501198199
 21
-14.5421038214
  0
LWPOLYLINE
  5
25C
100
AcDbEntity
  8
ASSI
100
AcDbPolyline
 62
250
  6
CONTINUOUS
 90
9
 70
0
 10
-11.1366157689
 20
21.4466185432
 10
-11.1372869007
 20
21.4610960244
 10
-11.1379666539
 20
21.473965565
 10
-11.1386550799
 20
21.4852188796
 10
-11.1393521272
 20
21.4948642535
 10
-11.1400542369
 20
21.5028532203
 10
-11.1407602225
 20
21.5091696246
 10
-11.1414712704
 20
21.5138296217
 10
-11.1421873806
 20
21.5168332117
  0
LWPOLYLINE
  5
25D
100
AcDbEntity
  8
ASSI
100
AcDbPolyline
 62
250
  6
CONTINUOUS
 90
22
 70
0
 10
-11.1182866901
 20
0.3628547344
 10
-11.1177253656
 20
0.3479107074
 10
-11.1160490823
 20
0.333050239
 10
-11.1132672132
 20
0.318356419
 10
-11.109395313
 20
0.3039114052
 10
-11.1044550309
 20
0.2897959647
 10
-11.0984739905
 20
0.2760890222
 10
-11.0914856343
 20
0.2628672178
 10
-11.0835290367
 20
0.2502044785
 10
-11.0746486867
 20
0.2381716062
 10
-11.0648942376
 20
0.2268358803
 10
-11.0543202304
 20
0.2162606821
 10
-11.0429857884
 20
0.2065051408
 10
-11.0309542868
 20
0.1976238023
 10
-11.0182929979
 20
0.1896663243
 10
-11.0050727156
 20
0.1826771991
 10
-10.9913673592
 20
0.1766955044
 10
-10.9772535599
 20
0.1717546849
 10
-10.9628102326
 20
0.1678823656
 10
-10.9481181347
 20
0.165100197
 10
-10.9332594143
 20
0.1634237341
 10
-10.918317151
 20
0.1628623498
  0
LINE
  5
25E
100
AcDbEntity
  8
ASSI
100
AcDbLine
 62
250
  6
CONTINUOUS
 10
-11.1353096539
 20
21.4130521476
 11
-11.1366157689
 21
21.4466185432
  0
LINE
  5
25F
100
AcDbEntity
  8
ASSI
100
AcDbLine
 62
250
  6
CONTINUOUS
 10
-10.6366917607
 20
21.9108388391
 11
-10.6380426195
 21
21.9518405852
  0
LINE
  5
260
100
AcDbEntity
  8
ASSI
100
AcDbLine
 62
250
  6
CONTINUOUS
 10
-11.1340549048
 20
21.3734357613
 11
-11.1353096539
 21
21.4130521476
  0
LINE
  5
261
100
AcDbEntity
  8
ASSI
100
AcDbLine
 62
250
  6
CONTINUOUS
 10
-11.1328611751
 20
21.328050712
 11
-11.1340549048
 21
21.3734357613
  0
LINE
  5
262
100
AcDbEntity
  8
ASSI
100
AcDbLine
 62
250
  6
CONTINUOUS
 10
-10.6353856839
 20
21.8604611667
 11
-10.6366917607
 21
21.9108388391
  0
LINE
  5
263
100
AcDbEntity
  8
ASSI
100
AcDbLine
 62
250
  6
CONTINUOUS
 10
-11.131202669
 20
21.249876525
 11
-11.1328611751
 21
21.328050712
  0
LINE
  5
264
100
AcDbEntity
  8
ASSI
100
AcDbLine
 62
250
  6
CONTINUOUS
 10
-10.6335265433
 20
21.7680754092
 11
-10.6353856839
 21
21.8604611667
  0
LINE
  5
265
100
AcDbEntity
  8
ASSI
100
AcDbLine
 62
250
  6
CONTINUOUS
 10
-11.1292756798
 20
21.1286640365
 11
-11.131202669
 21
21.249876525
  0
LINE
  5
266
100
AcDbEntity
  8
ASSI
100
AcDbLine
 62
250
  6
CONTINUOUS
 10
-10.6312788641
 20
21.6157450048
 11
-10.6335265433
 21
21.7680754092
  0
LINE
  5
267
100
AcDbEntity
  8
ASSI
100
AcDbLine
 62
250
  6
CONTINUOUS
 10
-11.127394495
 20
20.9544557811
 11
-11.1292756798
 21
21.1286640365
  0
LINE
  5
268
100
AcDbEntity
  8
ASSI
100
AcDbLine
 62
250
  6
CONTINUOUS
 10
-10.6285247384
 20
21.3334253808
 11
-10.6312788641
 21
21.6157450048
  0
LINE
  5
269
100
AcDbEntity
  8
ASSI
100
AcDbLine
 62
250
  6
CONTINUOUS
 10
-11.1260121482
 20
20.7219719915
 11
-11.127394495
 21
20.9544557811
  0
LINE
  5
26A
100
AcDbEntity
  8
ASSI
100
AcDbLine
 62
250
  6
CONTINUOUS
 10
-10.6262488824
 20
20.8839133135
 11
-10.6285247384
 21
21.3334253808
  0
LINE
  5
26B
100
AcDbEntity
  8
ASSI
100
AcDbLine
 62
7
  6
CONTINUOUS
 10
-11.2092032592
 20
-13.0825772429
 11
-11.1961290219
 21
-21.6439442208
  0
LINE
  5
26C
100
AcDbEntity
  8
ASSI
100
AcDbLine
 62
7
  6
CONTINUOUS
 10
-11.2092032592
 20
-0.2825543976
 11
-11.2092032592
 21
-13.0825772429
  0
LINE
  5
26D
100
AcDbEntity
  8
ASSI
100
AcDbLine
 62
7
  6
CONTINUOUS
 10
-11.2092032592
 20
0.3173999118
 11
-11.2092032592
 21
13.1174227571
  0
LINE
  5
26E
100
AcDbEntity
  8
ASSI
100
AcDbLine
 62
250
  6
CONTINUOUS
 10
-11.1182869802
 20
0.3628545894
 11
-11.1260121482
 21
20.7219719915
  0
LINE
  5
26F
100
AcDbEntity
  8
ASSI
100
AcDbLine
 62
250
  6
CONTINUOUS
 10
-10.6183628711
 20
0.1654347037
 11
-10.6262488824
 21
20.8839133135
  0
LINE
  5
270
100
AcDbEntity
  8
ASSI
100
AcDbLine
 62
7
  6
CONTINUOUS
 10
-11.2092032592
 20
13.1174227571
 11
-11.1961290219
 21
21.678789735
  0
LINE
  5
271
100
AcDbEntity
  8
ASSI
100
AcDbLine
 62
250
  6
CONTINUOUS
 10
-11.126172645
 20
-20.727163401
 11
-11.1182869802
 21
-0.3280090751
  0
LINE
  5
272
100
AcDbEntity
  8
ASSI
100
AcDbLine
 62
250
  6
CONTINUOUS
 10
-10.6268996357
 20
-21.0249387691
 11
-10.6183628711
 21
-0.1305891895
  0
LINE
  5
273
100
AcDbEntity
  8
ASSI
100
AcDbLine
 62
250
  6
CONTINUOUS
 10
-10.6293519298
 20
-21.3990604968
 11
-10.6268996357
 21
-21.0249387691
  0
LINE
  5
274
100
AcDbEntity
  8
ASSI
100
AcDbLine
 62
250
  6
CONTINUOUS
 10
-11.1277205002
 20
-20.956199147
 11
-11.126172645
 21
-20.727163401
  0
LINE
  5
275
100
AcDbEntity
  8
ASSI
100
AcDbLine
 62
250
  6
CONTINUOUS
 10
-10.6318134692
 20
-21.6219234968
 11
-10.6293519298
 21
-21.3990604968
  0
LINE
  5
276
100
AcDbEntity
  8
ASSI
100
AcDbLine
 62
250
  6
CONTINUOUS
 10
-11.1297242938
 20
-21.125779846
 11
-11.1277205002
 21
-20.956199147
  0
LINE
  5
277
100
AcDbEntity
  8
ASSI
100
AcDbLine
 62
250
  6
CONTINUOUS
 10
-10.634130993
 20
-21.7662024808
 11
-10.6318134692
 21
-21.6219234968
  0
LINE
  5
278
100
AcDbEntity
  8
ASSI
100
AcDbLine
 62
250
  6
CONTINUOUS
 10
-11.1317372939
 20
-21.2424122032
 11
-11.1297242938
 21
-21.125779846
  0
LINE
  5
279
100
AcDbEntity
  8
ASSI
100
AcDbLine
 62
250
  6
CONTINUOUS
 10
-10.6353856839
 20
-21.825615653
 11
-10.634130993
 21
-21.7662024808
  0
LINE
  5
27A
100
AcDbEntity
  8
ASSI
100
AcDbLine
 62
250
  6
CONTINUOUS
 10
-11.1334504314
 20
-21.3166170016
 11
-11.1317372939
 21
-21.2424122032
  0
LINE
  5
27B
100
AcDbEntity
  8
ASSI
100
AcDbLine
 62
250
  6
CONTINUOUS
 10
-10.6366917607
 20
-21.8759933254
 11
-10.6353856839
 21
-21.825615653
  0
LINE
  5
27C
100
AcDbEntity
  8
ASSI
100
AcDbLine
 62
250
  6
CONTINUOUS
 10
-11.1346746709
 20
-21.3591177193
 11
-11.1334504314
 21
-21.3166170016
  0
LWPOLYLINE
  5
27D
100
AcDbEntity
  8
ASSI
100
AcDbPolyline
 62
250
  6
CONTINUOUS
 90
22
 70
0
 10
-11.1182866901
 20
-0.3280092201
 10
-11.1177253674
 20
-0.3130652167
 10
-11.1160490892
 20
-0.29820477
 10
-11.1132672281
 20
-0.2835109696
 10
-11.1093953383
 20
-0.2690659732
 10
-11.104455069
 20
-0.2549505474
 10
-11.0984740427
 20
-0.2412436162
 10
-11.0914857012
 20
-0.2280218195
 10
-11.0835291187
 20
-0.2153590844
 10
-11.0746487829
 20
-0.2033262125
 10
-11.0648943466
 20
-0.1919904834
 10
-11.05432035
 20
-0.1814152788
 10
-11.0429859159
 20
-0.1716597282
 10
-11.0309544185
 20
-0.1627783778
 10
-11.0182931299
 20
-0.1548208863
 10
-11.0050728435
 20
-0.1478317464
 10
-10.9913674781
 20
-0.1418500368
 10
-10.9772536648
 20
-0.1369092031
 10
-10.9628103185
 20
-0.133036871
 10
-10.9481181966
 20
-0.1302546921
 10
-10.9332594474
 20
-0.1285782224
 10
-10.918317151
 20
-0.1280168355
  0
LINE
  5
27E
100
AcDbEntity
  8
CURVE
100
AcDbLine
 62
250
  6
CONTINUOUS
 10
-2.5714546721
 20
-11.6430540581
 11
-1.6187128872
 21
-12.19323617
  0
LWPOLYLINE
  5
27F
100
AcDbEntity
  8
ASSI
100
AcDbPolyline
 62
250
  6
CONTINUOUS
 90
7
 70
0
 10
-10.6380426195
 20
21.9518405852
 10
-10.6387309845
 20
21.9687355464
 10
-10.6394279606
 20
21.9831877654
 10
-10.6401300712
 20
21.9951732937
 10
-10.6408361575
 20
22.004672003
 10
-10.6415473782
 20
22.0116677962
 10
-10.6422637334
 20
22.0161488866
  0
LWPOLYLINE
  5
280
100
AcDbEntity
  8
0
100
AcDbPolyline
 62
7
  6
CONTINUOUS
 90
3
 70
0
 43
0.3500000019
 10
1.0836552734
 20
31.2139985352
 10
1.0122250977
 20
30.9997133789
 10
0.8693701172
 20
30.7139980469
  0
LINE
  5
281
100
AcDbEntity
  8
CURVE
100
AcDbLine
 62
250
  6
CONTINUOUS
 10
-2.8331098469
 20
10.1837072973
 11
-1.5601462253
 21
11.4566709189
  0
LINE
  5
282
100
AcDbEntity
  8
CURVE
100
AcDbLine
 62
250
  6
CONTINUOUS
 10
1.4174517669
 20
14.4322018524
 11
2.7269334247
 21
15.7416835102
  0
LWPOLYLINE
  5
283
100
AcDbEntity
  8
ASSI
100
AcDbPolyline
 62
250
  6
CONTINUOUS
 90
8
 70
0
 10
-10.6422637334
 20
-21.9813033724
 10
-10.6415473782
 20
-21.9768222821
 10
-10.6408361575
 20
-21.9698264889
 10
-10.6401300712
 20
-21.9603277797
 10
-10.6394279606
 20
-21.9483422515
 10
-10.6387309846
 20
-21.9338900325
 10
-10.6380426196
 20
-21.9169950714
 10
-10.6366917607
 20
-21.8759933254
  0
LWPOLYLINE
  5
284
100
AcDbEntity
  8
ASSI
100
AcDbPolyline
 62
250
  6
CONTINUOUS
 90
11
 70
0
 10
-11.1421873806
 20
-21.4819876975
 10
-11.1414712704
 20
-21.4789841075
 10
-11.1407602225
 20
-21.4743241104
 10
-11.1400542369
 20
-21.4680077062
 10
-11.1393521272
 20
-21.4600187395
 10
-11.1386550799
 20
-21.4503733656
 10
-11.1379666539
 20
-21.4391200511
 10
-11.1372869007
 20
-21.4262505105
 10
-11.1366157689
 20
-21.4117730293
 10
-11.1359566629
 20
-21.3957609301
 10
-11.1346746709
 20
-21.3591177193
  0
LINE
  5
285
100
AcDbEntity
  8
ASSI
100
AcDbLine
 62
250
  6
CONTINUOUS
 10
-11.2092032592
 20
0.3173999118
 11
-11.1182869802
 21
0.3628545894
  0
LINE
  5
286
100
AcDbEntity
  8
ASSI
100
AcDbLine
 62
250
  6
CONTINUOUS
 10
-11.0092032581
 20
0.1174227571
 11
-10.918317151
 21
0.1628623498
  0
LINE
  5
287
100
AcDbEntity
  8
ASSI
100
AcDbLine
 62
250
  6
CONTINUOUS
 10
-11.1182869802
 20
-0.3280090751
 11
-11.2092032592
 21
-0.2825543976
  0
LINE
  5
288
100
AcDbEntity
  8
ASSI
100
AcDbLine
 62
250
  6
CONTINUOUS
 10
-10.918317151
 20
-0.1280168355
 11
-11.0092032581
 21
-0.0825772429
  0
LINE
  5
289
100
AcDbEntity
  8
ASSI
100
AcDbLine
 62
250
  6
CONTINUOUS
 10
-11.1961290219
 20
-21.6439442208
 11
-11.1421873806
 21
-21.4819876975
  0
LINE
  5
28A
100
AcDbEntity
  8
ASSI
100
AcDbLine
 62
250
  6
CONTINUOUS
 10
-10.6957491986
 20
-22.1418899486
 11
-10.6422638354
 21
-21.9813033725
  0
LINE
  5
28B
100
AcDbEntity
  8
ASSI
100
AcDbLine
 62
7
  6
CONTINUOUS
 10
-9.9050925579
 20
0.1444760473
 11
-9.9592032592
 21
0.1174227571
  0
LWPOLYLINE
  5
28C
100
AcDbEntity
  8
0
100
AcDbPolyline
 62
7
  6
CONTINUOUS
 90
2
 70
0
 43
0.3500000019
 10
18.3720029297
 20
-3.2682914124
 10
16.8720014648
 20
-3.2682914124
  0
LINE
  5
28D
100
AcDbEntity
  8
ASSI
100
AcDbLine
 62
7
  6
CONTINUOUS
 10
-9.9050925579
 20
-0.109630533
 11
-9.9592032592
 21
-0.0825772429
  0
LINE
  5
28E
100
AcDbEntity
  8
ASSI
100
AcDbLine
 62
250
  6
CONTINUOUS
 10
-11.1421873806
 20
21.5168332117
 11
-11.1961290219
 21
21.678789735
  0
LINE
  5
28F
100
AcDbEntity
  8
ASSI
100
AcDbLine
 62
250
  6
CONTINUOUS
 10
-10.6422638353
 20
22.0161488867
 11
-10.6957491986
 21
22.1767354628
  0
LINE
  5
290
100
AcDbEntity
  8
ASSI
100
AcDbLine
 62
250
  6
CONTINUOUS
 10
-1.6786161762
 20
0.3655663458
 11
-1.6786161763
 21
0.1654347037
  0
LINE
  5
291
100
AcDbEntity
  8
ASSI
100
AcDbLine
 62
250
  6
CONTINUOUS
 10
-1.6786161762
 20
-0.3307208315
 11
-1.6786161762
 21
-0.1305891895
  0
LWPOLYLINE
  5
292
100
AcDbEntity
  8
ASSI
100
AcDbPolyline
 62
250
  6
CONTINUOUS
 90
64
 70
0
 10
-1.5822395431
 20
0.4389295208
 10
-1.5639129751
 20
0.5004737997
 10
-1.543039817
 20
0.5612549816
 10
-1.5196200688
 20
0.6212730659
 10
-1.4936108376
 20
0.6806743686
 10
-1.4650550163
 20
0.7393125727
 10
-1.4340812835
 20
0.7967487274
 10
-1.4006582162
 20
0.8529701974
 10
-1.3648172373
 20
0.907989618
 10
-1.3267812941
 20
0.9614059453
 10
-1.2865286494
 20
1.0131944852
 10
-1.2440810404
 20
1.0633799327
 10
-1.199726626
 20
1.1116353279
 10
-1.1534802715
 20
1.1579163154
 10
-1.1053271116
 20
1.2022672522
 10
-1.0555107087
 20
1.2444942487
 10
-1.0040387258
 20
1.2845830246
 10
-0.9509035
 20
1.3225478622
 10
-0.8963256047
 20
1.3582377156
 10
-0.8402837452
 20
1.3916567094
 10
-0.7827992161
 20
1.4228007212
 10
-0.724156475
 20
1.451506334
 10
-0.6643378993
 20
1.477764414
 10
-0.6033611117
 20
1.5015840972
 10
-0.5415634377
 20
1.5228293712
 10
-0.4789466687
 20
1.5414820158
 10
-0.4155090133
 20
1.5575602529
 10
-0.3515824225
 20
1.5709827342
 10
-0.2871688386
 20
1.5817349565
 10
-0.2222663194
 20
1.589831424
 10
-0.157200989
 20
1.5952342987
 10
-0.091972977
 20
1.5979309499
 10
-0.0265821538
 20
1.5979340088
 10
0.0386457448
 20
1.5952435289
 10
0.1037107361
 20
1.5898469134
 10
0.1686128029
 20
1.5817567588
 10
0.2330261585
 20
1.5710109088
 10
0.2969526425
 20
1.5575949649
 10
0.3603904153
 20
1.5415233245
 10
0.423008171
 20
1.5228770253
 10
0.4848079733
 20
1.5016378124
 10
0.5457877586
 20
1.4778239389
 10
0.60561003
 20
1.4515712048
 10
0.6642576148
 20
1.4228700962
 10
0.7217476857
 20
1.3917301249
 10
0.7777942641
 20
1.3583156295
 10
0.8323756546
 20
1.3226307298
 10
0.8855135526
 20
1.2846713038
 10
0.9369870654
 20
1.2445893275
 10
0.9868029691
 20
1.2023714652
 10
1.0349544876
 20
1.1580310506
 10
1.0812003998
 20
1.1117600643
 10
1.1255558439
 20
1.0635146668
 10
1.1680056816
 20
1.0133386961
 10
1.2082632765
 20
0.9615556487
 10
1.2463078811
 20
0.9081399816
 10
1.282160243
 20
0.8531172371
 10
1.3155959683
 20
0.7968875405
 10
1.3465839311
 20
0.7394373822
 10
1.3751552575
 20
0.6807802721
 10
1.4011789316
 20
0.6213568649
 10
1.4246112815
 20
0.561314046
 10
1.4454959792
 20
0.5005049311
 10
1.4638330247
 20
0.4389295208
  0
LWPOLYLINE
  5
293
100
AcDbEntity
  8
ASSI
100
AcDbPolyline
 62
250
  6
CONTINUOUS
 90
7
 70
0
 10
10.7999106326
 20
-0.1280168355
 10
10.7992291256
 20
-0.1281527492
 10
10.7977568239
 20
-0.1282874834
 10
10.7954937273
 20
-0.1284210382
 10
10.7924296644
 20
-0.1285537698
 10
10.7885748066
 20
-0.128685322
 10
10.7839596691
 20
-0.1288146257
  0
LWPOLYLINE
  5
294
100
AcDbEntity
  8
ASSI
100
AcDbPolyline
 62
250
  6
CONTINUOUS
 90
5
 70
0
 10
10.9998804614
 20
-0.328009129
 10
10.9987594243
 20
-0.3281522794
 10
10.9963011882
 20
-0.3282942582
 10
10.9925126016
 20
-0.3284350171
 10
10.9874043362
 20
-0.3285748227
  0
LWPOLYLINE
  5
295
100
AcDbEntity
  8
ASSI
100
AcDbPolyline
 62
250
  6
CONTINUOUS
 90
25
 70
0
 10
-1.5822395431
 20
-0.4040840065
 10
-1.5838339167
 20
-0.3988802477
 10
-1.5856949352
 20
-0.3937979736
 10
-1.5878225984
 20
-0.3888371843
 10
-1.5902247274
 20
-0.3839837044
 10
-1.5928935012
 20
-0.3792517093
 10
-1.5958054571
 20
-0.3746837247
 10
-1.5989627842
 20
-0.3702813563
 10
-1.6023632933
 20
-0.3660429984
 10
-1.6059769543
 20
-0.3620063592
 10
-1.6098057059
 20
-0.3581733185
 10
-1.6138476093
 20
-0.3545419966
 10
-1.6180668174
 20
-0.3511444626
 10
-1.6224647212
 20
-0.3479829207
 10
-1.6270399296
 20
-0.3450551668
 10
-1.631752423
 20
-0.3423866581
 10
-1.6366035305
 20
-0.3399796341
 10
-1.6415919229
 20
-0.3378318552
 10
-1.6466735924
 20
-0.3359620595
 10
-1.65184936
 20
-0.3343726998
 10
-1.6571184046
 20
-0.3330613233
 10
-1.6624342557
 20
-0.3320393103
 10
-1.6677814228
 20
-0.331310454
 10
-1.6731753963
 20
-0.3308709611
 10
-1.6786161762
 20
-0.3307208315
  0
LINE
  5
296
100
AcDbEntity
  8
CURVE
100
AcDbLine
 62
250
  6
CONTINUOUS
 10
-0.0599784066
 20
-10.1930124117
 11
-0.0599784066
 21
-11.2930320987
  0
LINE
  5
297
100
AcDbEntity
  8
CURVE
100
AcDbLine
 62
250
  6
CONTINUOUS
 10
-0.0599784066
 20
-14.7915288991
 11
-0.0599784066
 21
-15.9914564766
  0
LINE
  5
298
100
AcDbEntity
  8
CURVE
100
AcDbLine
 62
250
  6
CONTINUOUS
 10
-0.0563610539
 20
10.8811673384
 11
-0.0563610539
 21
9.0292549995
  0
LINE
  5
299
100
AcDbEntity
  8
CURVE
100
AcDbLine
 62
250
  6
CONTINUOUS
 10
-0.0549830148
 20
16.8907958674
 11
-0.0549830148
 21
15.0907323167
  0
LWPOLYLINE
  5
29A
100
AcDbEntity
  8
CURVE
100
AcDbPolyline
 62
250
  6
CONTINUOUS
 90
87
 70
0
 10
-1.0563610539
 20
12.9604560902
 10
-1.0557202735
 20
12.9964904652
 10
-1.0538096397
 20
13.0320806433
 10
-1.0506467141
 20
13.0673213242
 10
-1.0462490579
 20
13.1023072078
 10
-1.0406299366
 20
13.1371137585
 10
-1.0337854315
 20
13.1717395001
 10
-1.0257073276
 20
13.206163721
 10
-1.0163874102
 20
13.24036571
 10
-1.005822585
 20
13.2743160949
 10
-0.9940302397
 20
13.3079508621
 10
-0.9810328823
 20
13.3411973372
 10
-0.9668530211
 20
13.373982846
 10
-0.9515113837
 20
13.4062414147
 10
-0.9350215769
 20
13.4379338709
 10
-0.9173954269
 20
13.4690277429
 10
-0.8986447601
 20
13.4994905589
 10
-0.8758605122
 20
13.5334879419
 10
-0.851681853
 20
13.5665528809
 10
-0.8261676813
 20
13.5986195805
 10
-0.799376896
 20
13.6296222451
 10
-0.7713683958
 20
13.6594950794
 10
-0.7422010795
 20
13.6881722878
 10
-0.711933846
 20
13.7155880749
 10
-0.6845923739
 20
13.7384959664
 10
-0.656483315
 20
13.7603769977
 10
-0.6276361123
 20
13.781220459
 10
-0.5980802086
 20
13.8010156404
 10
-0.5678422925
 20
13.8197509769
 10
-0.5369380351
 20
13.8374114817
 10
-0.5053803529
 20
13.853981313
 10
-0.4731821626
 20
13.8694446289
 10
-0.4403650136
 20
13.8837828825
 10
-0.4069849861
 20
13.8969667084
 10
-0.3731067931
 20
13.9089640362
 10
-0.3387951476
 20
13.9197427954
 10
-0.3041165432
 20
13.9292748923
 10
-0.2691445958
 20
13.9375481395
 10
-0.2339547017
 20
13.9445543264
 10
-0.1986222575
 20
13.9502852421
 10
-0.1632128464
 20
13.9547352391
 10
-0.1277527979
 20
13.9579089219
 10
-0.0922586286
 20
13.9598134582
 10
-0.056746855
 20
13.9604560158
 10
-0.0212337337
 20
13.9598412804
 10
0.0142655169
 20
13.9579640101
 10
0.0497359383
 20
13.9548164808
 10
0.0851625716
 20
13.9503909686
 10
0.1205200653
 20
13.9446823502
 10
0.1557414958
 20
13.9376959043
 10
0.1907495463
 20
13.9294395103
 10
0.2254669001
 20
13.9199210475
 10
0.2598178257
 20
13.9091527465
 10
0.2937329316
 20
13.8971642419
 10
0.3271444115
 20
13.8839895195
 10
0.3599844591
 20
13.869662565
 10
0.3921949969
 20
13.8542142484
 10
0.4237568623
 20
13.8376629767
 10
0.4546606213
 20
13.8200240408
 10
0.4848968402
 20
13.801312732
 10
0.514453109
 20
13.7815428861
 10
0.5433051134
 20
13.7607225186
 10
0.5714255629
 20
13.7388581898
 10
0.5987871671
 20
13.7159564598
 10
0.6290895957
 20
13.6885314118
 10
0.6583018789
 20
13.6598311281
 10
0.6863606608
 20
13.6299267771
 10
0.7132025853
 20
13.5988895275
 10
0.7387642966
 20
13.5667905479
 10
0.7629824388
 20
13.5337010067
 10
0.7857936559
 20
13.4996920727
 10
0.8045553561
 20
13.4692328854
 10
0.8221837877
 20
13.4381531825
 10
0.8386713656
 20
13.4064818703
 10
0.8540105051
 20
13.3742478549
 10
0.868191104
 20
13.34148676
 10
0.881192991
 20
13.3082610788
 10
0.8929934773
 20
13.2746400218
 10
0.9035698742
 20
13.2406927996
 10
0.912904401
 20
13.2064808751
 10
0.9209989094
 20
13.172034721
 10
0.9278601588
 20
13.1373770619
 10
0.9334949089
 20
13.1025306228
 10
0.9379057762
 20
13.0674985117
 10
0.9410788043
 20
13.0322053697
 10
0.9429958941
 20
12.9965562211
 10
0.9436389461
 20
12.9604560902
  0
LWPOLYLINE
  5
29B
100
AcDbEntity
  8
CURVE
100
AcDbPolyline
 62
250
  6
CONTINUOUS
 90
81
 70
0
 10
-0.7099784066
 20
-13.0425772429
 10
-0.709474628
 20
-13.0167839949
 10
-0.7079742075
 20
-12.9913706141
 10
-0.7054935184
 20
-12.9662556097
 10
-0.7020489338
 20
-12.9413574909
 10
-0.6976527389
 20
-12.9166112974
 10
-0.6923008674
 20
-12.8920181904
 10
-0.6859851649
 20
-12.8675958613
 10
-0.6786974768
 20
-12.8433620018
 10
-0.6704345281
 20
-12.8193417956
 10
-0.6612125614
 20
-12.7955903953
 10
-0.6510526984
 20
-12.7721704456
 10
-0.639976061
 20
-12.7491445915
 10
-0.6280022267
 20
-12.7265698915
 10
-0.6151445953
 20
-12.7044810599
 10
-0.6014150226
 20
-12.6829072248
 10
-0.5868253642
 20
-12.6618775144
 10
-0.5713915152
 20
-12.6414218903
 10
-0.5551455284
 20
-12.621573649
 10
-0.5381234963
 20
-12.6023669201
 10
-0.5203615113
 20
-12.5838358338
 10
-0.5018956658
 20
-12.5660145198
 10
-0.4827620522
 20
-12.5489371082
 10
-0.4629967629
 20
-12.5326377287
 10
-0.4426358903
 20
-12.5171505114
 10
-0.4217139606
 20
-12.5025059324
 10
-0.400259235
 20
-12.4887198537
 10
-0.3782984086
 20
-12.4758044836
 10
-0.3558581763
 20
-12.4637720302
 10
-0.3329652331
 20
-12.4526347018
 10
-0.3096462741
 20
-12.4424047067
 10
-0.2859279943
 20
-12.433094253
 10
-0.2618370886
 20
-12.4247155492
 10
-0.2374029529
 20
-12.4172805757
 10
-0.2126657864
 20
-12.4108004021
 10
-0.1876684889
 20
-12.4052858706
 10
-0.1624539605
 20
-12.4007478232
 10
-0.1370651012
 20
-12.3971971017
 10
-0.1115448108
 20
-12.3946445483
 10
-0.0859359893
 20
-12.3931010049
 10
-0.0602815368
 20
-12.3925773136
 10
-0.0346244759
 20
-12.3930807045
 10
-0.0090083211
 20
-12.3946039606
 10
0.0165232906
 20
-12.3971362531
 10
0.041926722
 20
-12.4006667533
 10
0.0671583359
 20
-12.4051846322
 10
0.0921744952
 20
-12.4106790611
 10
0.1169315628
 20
-12.4171392111
 10
0.1413859015
 20
-12.4245542535
 10
0.1654968475
 20
-12.4329133636
 10
0.1892356304
 20
-12.4422057333
 10
0.2125764532
 20
-12.452420559
 10
0.2354935187
 20
-12.4635470368
 10
0.2579610299
 20
-12.4755743629
 10
0.2799531898
 20
-12.4884917335
 10
0.3014442013
 20
-12.5022883448
 10
0.3224082673
 20
-12.5169533929
 10
0.3428173986
 20
-12.5324716315
 10
0.3626348378
 20
-12.548810043
 10
0.381821635
 20
-12.5659311673
 10
0.4003388406
 20
-12.5837975445
 10
0.4181475048
 20
-12.6023717143
 10
0.4352086781
 20
-12.6216162167
 10
0.4514834107
 20
-12.6414935915
 10
0.4669327529
 20
-12.6619663787
 10
0.4815230849
 20
-12.6829989912
 10
0.4952421068
 20
-12.7045633349
 10
0.5080828482
 20
-12.7266331884
 10
0.5200383392
 20
-12.7491823306
 10
0.5310992816
 20
-12.77217905
 10
0.5412470651
 20
-12.795569674
 10
0.5504607517
 20
-12.8192950394
 10
0.558719403
 20
-12.8432959833
 10
0.5660067239
 20
-12.8675199261
 10
0.5723249915
 20
-12.8919406214
 10
0.5776811262
 20
-12.9165384065
 10
0.582082048
 20
-12.9412936182
 10
0.5855307644
 20
-12.9662034965
 10
0.5880146317
 20
-12.9913328915
 10
0.5895170936
 20
-13.016763556
 10
0.5900215934
 20
-13.0425772429
  0
LWPOLYLINE
  5
29C
100
AcDbEntity
  8
ASSI
100
AcDbPolyline
 62
250
  6
CONTINUOUS
 90
64
 70
0
 10
-1.3894879743
 20
0.3854337523
 10
-1.3734881733
 20
0.4390189244
 10
-1.355251156
 20
0.4921295212
 10
-1.3347803816
 20
0.5446684467
 10
-1.3120691989
 20
0.5965687985
 10
-1.2871415372
 20
0.6476995408
 10
-1.2600646835
 20
0.6978718786
 10
-1.2308700894
 20
0.746993742
 10
-1.1995946455
 20
0.7949715818
 10
-1.1663425153
 20
0.8416284365
 10
-1.131173071
 20
0.8868769774
 10
-1.0941408991
 20
0.930643171
 10
-1.0553674191
 20
0.972787571
 10
-1.0149512644
 20
1.01321803
 10
-0.9729435122
 20
1.0518978573
 10
-0.9294042897
 20
1.0887806344
 10
-0.8844210856
 20
1.1238000302
 10
-0.8380647268
 20
1.1569084245
 10
-0.7903675793
 20
1.1880846375
 10
-0.7413944045
 20
1.2172825664
 10
-0.6912423404
 20
1.2444406172
 10
-0.6399911929
 20
1.2695128678
 10
-0.5877178731
 20
1.2924579512
 10
-0.5345198088
 20
1.3132294272
 10
-0.4805112573
 20
1.3317814568
 10
-0.4257910264
 20
1.3480809674
 10
-0.3704468055
 20
1.3621026923
 10
-0.3145792994
 20
1.3738219432
 10
-0.2582880941
 20
1.3832192639
 10
-0.2016658762
 20
1.3902806006
 10
-0.1448040772
 20
1.394995385
 10
-0.0878005818
 20
1.397356029
 10
-0.0307521179
 20
1.3973590506
 10
0.026251388
 20
1.3950044598
 10
0.0831131296
 20
1.3902957665
 10
0.1397353076
 20
1.3832405759
 10
0.1960267356
 20
1.3738494309
 10
0.2518946258
 20
1.3621363981
 10
0.3072394999
 20
1.3481209064
 10
0.3619611883
 20
1.3318274608
 10
0.4159721771
 20
1.3132811788
 10
0.4691734283
 20
1.2925151124
 10
0.5214505884
 20
1.2695750536
 10
0.5727066349
 20
1.244507151
 10
0.6228641544
 20
1.2173529045
 10
0.6718419711
 20
1.1881590071
 10
0.7195427701
 20
1.1569873178
 10
0.7659020967
 20
1.1238839074
 10
0.8108870979
 20
1.0888705155
 10
0.8544262558
 20
1.0519956572
 10
0.896433128
 20
1.0133251437
 10
0.9368495613
 20
0.972903648
 10
0.9756243011
 20
0.9307679032
 10
1.0126587848
 20
0.8870098257
 10
1.0478334071
 20
0.841766221
 10
1.0810937617
 20
0.7951099602
 10
1.1123794022
 20
0.7471288925
 10
1.1415857516
 20
0.6979996545
 10
1.168675672
 20
0.6478151462
 10
1.1936169582
 20
0.5966676959
 10
1.2163412783
 20
0.5447472705
 10
1.2368241954
 20
0.492185327
 10
1.2550722151
 20
0.4390483497
 10
1.2710815346
 20
0.3854334675
  0
LWPOLYLINE
  5
29D
100
AcDbEntity
  8
ASSI
100
AcDbPolyline
 62
7
  6
CONTINUOUS
 90
25
 70
0
 10
-1.3852975523
 20
0.3808769164
 10
-1.3900165365
 20
0.3653139922
 10
-1.3955515286
 20
0.3500853719
 10
-1.4019025286
 20
0.3351910554
 10
-1.4091028987
 20
0.3205702806
 10
-1.4171192767
 20
0.3062838096
 10
-1.4258515758
 20
0.292513929
 10
-1.4352817687
 20
0.2793008723
 10
-1.4454278827
 20
0.266604406
 10
-1.4562439133
 20
0.2544861158
 10
-1.4677578326
 20
0.2429232673
 10
-1.4799416684
 20
0.2319385949
 10
-1.4926654995
 20
0.2216618874
 10
-1.5059391777
 20
0.2121060985
 10
-1.5197528511
 20
0.2032582745
 10
-1.5339470431
 20
0.1952093424
 10
-1.5484916816
 20
0.1879803833
 10
-1.5634168387
 20
0.1815503162
 10
-1.5786532538
 20
0.1759468253
 10
-1.5942464862
 20
0.1711626546
 10
-1.6101509766
 20
0.1672050601
 10
-1.626160787
 20
0.1641234932
 10
-1.6422072712
 20
0.1619344376
 10
-1.6583590754
 20
0.1606214097
 10
-1.6746161995
 20
0.1601844093
  0
LINE
  5
29E
100
AcDbEntity
  8
ASSI
100
AcDbLine
 62
250
  6
CONTINUOUS
 10
-1.3852975523
 20
-0.3460314021
 11
-1.3894880531
 21
-0.3505879533
  0
LINE
  5
29F
100
AcDbEntity
  8
ASSI
100
AcDbLine
 62
7
  6
CONTINUOUS
 10
-2.3609358397
 20
0.1444760473
 11
-2.3555449892
 21
0.1470941076
  0
LINE
  5
2A0
100
AcDbEntity
  8
ASSI
100
AcDbLine
 62
250
  6
CONTINUOUS
 10
-1.3901429472
 20
-0.350785652
 11
-1.3894879862
 21
-0.3505919294
  0
LINE
  5
2A1
100
AcDbEntity
  8
ASSI
100
AcDbLine
 62
250
  6
CONTINUOUS
 10
1.2717364288
 20
0.3856311662
 11
1.2710814677
 21
0.3854374436
  0
LINE
  5
2A2
100
AcDbEntity
  8
ASSI
100
AcDbLine
 62
250
  6
CONTINUOUS
 10
1.2800336131
 20
0.3879634334
 11
1.2717364288
 21
0.3856311662
  0
LINE
  5
2A3
100
AcDbEntity
  8
ASSI
100
AcDbLine
 62
250
  6
CONTINUOUS
 10
-1.3984401315
 20
-0.3531179192
 11
-1.3901429472
 21
-0.350785652
  0
LINE
  5
2A4
100
AcDbEntity
  8
ASSI
100
AcDbLine
 62
250
  6
CONTINUOUS
 10
-1.5822395431
 20
-0.4040840065
 11
-1.3984401315
 21
-0.3531179192
  0
LINE
  5
2A5
100
AcDbEntity
  8
ASSI
100
AcDbLine
 62
250
  6
CONTINUOUS
 10
1.4638330247
 20
0.4389295208
 11
1.2800336131
 21
0.3879634334
  0
LINE
  5
2A6
100
AcDbEntity
  8
ASSI
100
AcDbLine
 62
7
  6
CONTINUOUS
 10
1.8638108995
 20
-0.1122485934
 11
1.8103539372
 21
-0.1253388951
  0
LWPOLYLINE
  5
2A7
100
AcDbEntity
  8
ASSI
100
AcDbPolyline
 62
250
  6
CONTINUOUS
 90
25
 70
0
 10
1.5602096578
 20
-0.3307208315
 10
1.5547688779
 20
-0.3308709611
 10
1.5493749044
 20
-0.331310454
 10
1.5440277372
 20
-0.3320393103
 10
1.5387118862
 20
-0.3330613233
 10
1.5334428415
 20
-0.3343726998
 10
1.5282670739
 20
-0.3359620595
 10
1.5231854044
 20
-0.3378318552
 10
1.518197012
 20
-0.339979634
 10
1.5133459045
 20
-0.3423866581
 10
1.5086334112
 20
-0.3450551668
 10
1.5040582027
 20
-0.3479829207
 10
1.499660299
 20
-0.3511444626
 10
1.4954410909
 20
-0.3545419966
 10
1.4913991875
 20
-0.3581733185
 10
1.4875704358
 20
-0.3620063592
 10
1.4839567749
 20
-0.3660429984
 10
1.4805562658
 20
-0.3702813563
 10
1.4773989387
 20
-0.3746837247
 10
1.4744869828
 20
-0.3792517093
 10
1.471818209
 20
-0.3839837044
 10
1.46941608
 20
-0.3888371842
 10
1.4672884167
 20
-0.3937979736
 10
1.4654273983
 20
-0.3988802477
 10
1.4638330247
 20
-0.4040840065
  0
LWPOLYLINE
  5
2A8
100
AcDbEntity
  8
ASSI
100
AcDbPolyline
 62
250
  6
CONTINUOUS
 90
25
 70
0
 10
1.5602096578
 20
-0.1305891895
 10
1.54395652
 20
-0.1310304142
 10
1.5277514797
 20
-0.1323515036
 10
1.5116421301
 20
-0.1345485212
 10
1.4956761425
 20
-0.1376148773
 10
1.4799000248
 20
-0.1415415525
 10
1.464359032
 20
-0.1463173209
 10
1.4490980768
 20
-0.151928583
 10
1.4341628301
 20
-0.158358752
 10
1.4195984216
 20
-0.1655884166
 10
1.4054481595
 20
-0.173595914
 10
1.3917529614
 20
-0.1823579189
 10
1.3785525087
 20
-0.1918489916
 10
1.3658855465
 20
-0.2020412861
 10
1.353789313
 20
-0.2129048503
 10
1.3422989932
 20
-0.2244081475
 10
1.3314480029
 20
-0.2365179199
 10
1.3212687294
 20
-0.2491982293
 10
1.3117918952
 20
-0.2624107702
 10
1.3030454578
 20
-0.2761162836
 10
1.2950547362
 20
-0.2902747901
 10
1.2878431004
 20
-0.3048446096
 10
1.2814316113
 20
-0.3197828853
 10
1.2758389654
 20
-0.3350457138
 10
1.2710814559
 20
-0.3505882382
  0
LWPOLYLINE
  5
2A9
100
AcDbEntity
  8
ASSI
100
AcDbPolyline
 62
250
  6
CONTINUOUS
 90
25
 70
0
 10
-1.6786161762
 20
0.1654347037
 10
-1.6623630384
 20
0.1658759284
 10
-1.6461579982
 20
0.1671970178
 10
-1.6300486485
 20
0.1693940354
 10
-1.614082661
 20
0.1724603916
 10
-1.5983065433
 20
0.1763870668
 10
-1.5827655504
 20
0.1811628351
 10
-1.5675045953
 20
0.1867740972
 10
-1.5525693485
 20
0.1932042663
 10
-1.53800494
 20
0.2004339309
 10
-1.5238546779
 20
0.2084414283
 10
-1.5101594798
 20
0.2172034331
 10
-1.4969590272
 20
0.2266945058
 10
-1.4842920649
 20
0.2368868003
 10
-1.4721958314
 20
0.2477503645
 10
-1.4607055116
 20
0.2592536618
 10
-1.4498545214
 20
0.2713634342
 10
-1.4396752478
 20
0.2840437436
 10
-1.4301984136
 20
0.2972562844
 10
-1.4214519762
 20
0.3109617978
 10
-1.4134612546
 20
0.3251203043
 10
-1.4062496189
 20
0.3396901238
 10
-1.3998381298
 20
0.3546283996
 10
-1.3942454839
 20
0.369891228
 10
-1.3894879744
 20
0.3854337524
  0
LINE
  5
2AA
100
AcDbEntity
  8
ASSI
100
AcDbLine
 62
250
  6
CONTINUOUS
 10
10.7839596691
 20
-0.1288146257
 11
10.7724359992
 21
-0.1290664479
  0
LINE
  5
2AB
100
AcDbEntity
  8
ASSI
100
AcDbLine
 62
250
  6
CONTINUOUS
 10
10.9874043362
 20
-0.3285748227
 11
10.9732864912
 21
-0.3288494972
  0
LINE
  5
2AC
100
AcDbEntity
  8
ASSI
100
AcDbLine
 62
250
  6
CONTINUOUS
 10
10.7724359992
 20
-0.1290664479
 11
10.7497333205
 21
-0.1294212026
  0
LINE
  5
2AD
100
AcDbEntity
  8
ASSI
100
AcDbLine
 62
250
  6
CONTINUOUS
 10
10.9732864912
 20
-0.3288494972
 11
10.9426571058
 21
-0.3292428053
  0
LINE
  5
2AE
100
AcDbEntity
  8
ASSI
100
AcDbLine
 62
250
  6
CONTINUOUS
 10
10.7497333205
 20
-0.1294212026
 11
10.6988791043
 21
-0.1299308497
  0
LINE
  5
2AF
100
AcDbEntity
  8
ASSI
100
AcDbLine
 62
250
  6
CONTINUOUS
 10
10.9426571058
 20
-0.3292428053
 11
10.850409857
 21
-0.3299282861
  0
LINE
  5
2B0
100
AcDbEntity
  8
ASSI
100
AcDbLine
 62
250
  6
CONTINUOUS
 10
10.6988791043
 20
-0.1299308497
 11
10.5916393143
 21
-0.1304639323
  0
LINE
  5
2B1
100
AcDbEntity
  8
ASSI
100
AcDbLine
 62
250
  6
CONTINUOUS
 10
-10.8053721685
 20
0.1648637539
 11
-10.695150732
 21
0.1653474594
  0
LINE
  5
2B2
100
AcDbEntity
  8
ASSI
100
AcDbLine
 62
250
  6
CONTINUOUS
 10
10.850409857
 20
-0.3299282861
 11
10.5773014042
 21
-0.3306872594
  0
LINE
  5
2B3
100
AcDbEntity
  8
ASSI
100
AcDbLine
 62
250
  6
CONTINUOUS
 10
10.5916393143
 20
-0.1304639323
 11
10.4999563527
 21
-0.1305891895
  0
LINE
  5
2B4
100
AcDbEntity
  8
ASSI
100
AcDbLine
 62
250
  6
CONTINUOUS
 10
-10.695150732
 20
0.1653474594
 11
-10.6183628711
 21
0.1654347037
  0
LWPOLYLINE
  5
2B5
100
AcDbEntity
  8
0
100
AcDbPolyline
 62
7
  6
CONTINUOUS
 90
2
 70
0
 43
0.3500000019
 10
18.3720029297
 20
-0.9111486511
 10
16.8720014648
 20
-0.9111486511
  0
LINE
  5
2B6
100
AcDbEntity
  8
ASSI
100
AcDbLine
 62
250
  6
CONTINUOUS
 10
10.5773014042
 20
-0.3306872594
 11
1.5602096578
 21
-0.3307208315
  0
LINE
  5
2B7
100
AcDbEntity
  8
ASSI
100
AcDbLine
 62
7
  6
CONTINUOUS
 10
10.4999563527
 20
-0.1305891895
 11
1.5602096578
 21
-0.1305891895
  0
LINE
  5
2B8
100
AcDbEntity
  8
ASSI
100
AcDbLine
 62
7
  6
CONTINUOUS
 10
-1.6786161762
 20
-0.1305891895
 11
-10.6183628711
 21
-0.1305891895
  0
LINE
  5
2B9
100
AcDbEntity
  8
ASSI
100
AcDbLine
 62
7
  6
CONTINUOUS
 10
1.8103539372
 20
-0.1253388951
 11
1.556209681
 21
-0.1253388951
  0
LINE
  5
2BA
100
AcDbEntity
  8
ASSI
100
AcDbLine
 62
7
  6
CONTINUOUS
 10
-1.6746161995
 20
-0.1253388951
 11
-1.9287604556
 21
-0.1253388951
  0
LINE
  5
2BB
100
AcDbEntity
  8
ASSI
100
AcDbLine
 62
7
  6
CONTINUOUS
 10
2.2371384708
 20
-0.1122485934
 11
1.8638108995
 21
-0.1122485934
  0
LINE
  5
2BC
100
AcDbEntity
  8
ASSI
100
AcDbLine
 62
7
  6
CONTINUOUS
 10
-1.9822174179
 20
-0.1122485934
 11
-2.3555449892
 21
-0.1122485934
  0
LINE
  5
2BD
100
AcDbEntity
  8
ASSI
100
AcDbLine
 62
7
  6
CONTINUOUS
 10
-9.9050925579
 20
-0.109630533
 11
-2.3609358397
 21
-0.109630533
  0
LINE
  5
2BE
100
AcDbEntity
  8
ASSI
100
AcDbLine
 62
7
  6
CONTINUOUS
 10
2.2425293213
 20
-0.109630533
 11
9.7866860395
 21
-0.109630533
  0
LINE
  5
2BF
100
AcDbEntity
  8
ASSI
100
AcDbLine
 62
7
  6
CONTINUOUS
 10
-11.0092032581
 20
-0.0825772429
 11
-9.9592032592
 21
-0.0825772429
  0
LINE
  5
2C0
100
AcDbEntity
  8
ASSI
100
AcDbLine
 62
7
  6
CONTINUOUS
 10
9.8407967408
 20
-0.0825772429
 11
10.8907967396
 21
-0.0825772429
  0
LINE
  5
2C1
100
AcDbEntity
  8
ASSI
100
AcDbLine
 62
7
  6
CONTINUOUS
 10
10.8907967396
 20
0.1174227571
 11
9.8407967408
 21
0.1174227571
  0
LINE
  5
2C2
100
AcDbEntity
  8
ASSI
100
AcDbLine
 62
7
  6
CONTINUOUS
 10
-9.9592032592
 20
0.1174227571
 11
-11.0092032581
 21
0.1174227571
  0
LINE
  5
2C3
100
AcDbEntity
  8
ASSI
100
AcDbLine
 62
7
  6
CONTINUOUS
 10
9.7866860395
 20
0.1444760473
 11
2.2425293213
 21
0.1444760473
  0
LINE
  5
2C4
100
AcDbEntity
  8
ASSI
100
AcDbLine
 62
7
  6
CONTINUOUS
 10
-2.3609358397
 20
0.1444760473
 11
-9.9050925579
 21
0.1444760473
  0
LINE
  5
2C5
100
AcDbEntity
  8
ASSI
100
AcDbLine
 62
7
  6
CONTINUOUS
 10
-2.3555449892
 20
0.1470941076
 11
-1.9822174179
 21
0.1470941076
  0
LINE
  5
2C6
100
AcDbEntity
  8
ASSI
100
AcDbLine
 62
7
  6
CONTINUOUS
 10
1.8638108995
 20
0.1470941076
 11
2.2371384708
 21
0.1470941076
  0
LINE
  5
2C7
100
AcDbEntity
  8
ASSI
100
AcDbLine
 62
7
  6
CONTINUOUS
 10
-1.9287604556
 20
0.1601844093
 11
-1.6746161995
 21
0.1601844093
  0
LINE
  5
2C8
100
AcDbEntity
  8
ASSI
100
AcDbLine
 62
7
  6
CONTINUOUS
 10
1.556209681
 20
0.1601844093
 11
1.8103539372
 21
0.1601844093
  0
LINE
  5
2C9
100
AcDbEntity
  8
ASSI
100
AcDbLine
 62
7
  6
CONTINUOUS
 10
-10.6183628711
 20
0.1654347037
 11
-1.6786161762
 21
0.1654347037
  0
LINE
  5
2CA
100
AcDbEntity
  8
ASSI
100
AcDbLine
 62
7
  6
CONTINUOUS
 10
1.5602096578
 20
0.1654347037
 11
10.4999563527
 21
0.1654347037
  0
LINE
  5
2CB
100
AcDbEntity
  8
ASSI
100
AcDbLine
 62
250
  6
CONTINUOUS
 10
-1.6786161762
 20
-0.3307208315
 11
-10.9300709655
 21
-0.3301178138
  0
LINE
  5
2CC
100
AcDbEntity
  8
ASSI
100
AcDbLine
 62
250
  6
CONTINUOUS
 10
-10.6183628711
 20
-0.1305891895
 11
-10.7531422892
 21
-0.1303101023
  0
LINE
  5
2CD
100
AcDbEntity
  8
ASSI
100
AcDbLine
 62
250
  6
CONTINUOUS
 10
10.4999563527
 20
0.1654347037
 11
10.6347357707
 21
0.1651556165
  0
LINE
  5
2CE
100
AcDbEntity
  8
ASSI
100
AcDbLine
 62
250
  6
CONTINUOUS
 10
10.6347357707
 20
0.1651556165
 11
10.6869656495
 21
0.1648637539
  0
LINE
  5
2CF
100
AcDbEntity
  8
ASSI
100
AcDbLine
 62
250
  6
CONTINUOUS
 10
-10.9300709655
 20
-0.3301178138
 11
-11.0484409177
 21
-0.3293673979
  0
LINE
  5
2D0
100
AcDbEntity
  8
ASSI
100
AcDbLine
 62
250
  6
CONTINUOUS
 10
-10.7531422892
 20
-0.1303101023
 11
-10.8394192131
 21
-0.1297410353
  0
LINE
  5
2D1
100
AcDbEntity
  8
ASSI
100
AcDbLine
 62
250
  6
CONTINUOUS
 10
-11.0484409177
 20
-0.3293673979
 11
-11.0827193971
 21
-0.328983326
  0
LINE
  5
2D2
100
AcDbEntity
  8
ASSI
100
AcDbLine
 62
250
  6
CONTINUOUS
 10
-10.8394192131
 20
-0.1297410353
 11
-10.8764201905
 21
-0.1293062187
  0
LWPOLYLINE
  5
2D3
100
AcDbEntity
  8
ASSI
100
AcDbPolyline
 62
250
  6
CONTINUOUS
 90
7
 70
0
 10
-11.0827193971
 20
-0.328983326
 10
-11.0993967137
 20
-0.328713313
 10
-11.1058108543
 20
-0.3285748227
 10
-11.1109191197
 20
-0.3284350171
 10
-11.1147077065
 20
-0.3282942582
 10
-11.1171659427
 20
-0.3281522794
 10
-11.1182869799
 20
-0.328009129
  0
LINE
  5
2D4
100
AcDbEntity
  8
ASSI
100
AcDbLine
 62
250
  6
CONTINUOUS
 10
-10.8764201905
 20
-0.1293062187
 11
-10.8908425174
 21
-0.1290664479
  0
LWPOLYLINE
  5
2D5
100
AcDbEntity
  8
ASSI
100
AcDbPolyline
 62
250
  6
CONTINUOUS
 90
8
 70
0
 10
-10.8908425174
 20
-0.1290664479
 10
-10.9023661873
 20
-0.1288146257
 10
-10.9069813249
 20
-0.128685322
 10
-10.9108361827
 20
-0.1285537698
 10
-10.9139002457
 20
-0.1284210382
 10
-10.9161633422
 20
-0.1282874834
 10
-10.917635644
 20
-0.1281527492
 10
-10.918317151
 20
-0.1280168355
  0
LWPOLYLINE
  5
2D6
100
AcDbEntity
  8
ASSI
100
AcDbPolyline
 62
7
  6
CONTINUOUS
 90
3
 70
0
 10
-1.6746161995
 20
-0.1253388951
 10
-1.6583590754
 20
-0.1257758954
 10
-1.6422072712
 20
-0.1270889234
  0
LWPOLYLINE
  5
2D7
100
AcDbEntity
  8
ASSI
100
AcDbPolyline
 62
7
  6
CONTINUOUS
 90
3
 70
0
 10
1.556209681
 20
0.1601844093
 10
1.5399525569
 20
0.1606214097
 10
1.5238007527
 20
0.1619344376
  0
LWPOLYLINE
  5
2D8
100
AcDbEntity
  8
ASSI
100
AcDbPolyline
 62
7
  6
CONTINUOUS
 90
23
 70
0
 10
-1.6422072712
 20
-0.1270889234
 10
-1.626160787
 20
-0.1292779789
 10
-1.6101509766
 20
-0.1323595459
 10
-1.5942464862
 20
-0.1363171404
 10
-1.5786532538
 20
-0.141101311
 10
-1.5634168387
 20
-0.146704802
 10
-1.5484916816
 20
-0.1531348691
 10
-1.5339470431
 20
-0.1603638281
 10
-1.5197528511
 20
-0.1684127602
 10
-1.5059391777
 20
-0.1772605843
 10
-1.4926654995
 20
-0.1868163732
 10
-1.4799416684
 20
-0.1970930807
 10
-1.4677578326
 20
-0.2080777531
 10
-1.4562439133
 20
-0.2196406015
 10
-1.4454278827
 20
-0.2317588917
 10
-1.4352817687
 20
-0.2444553581
 10
-1.4258515758
 20
-0.2576684148
 10
-1.4171192767
 20
-0.2714382954
 10
-1.4091028987
 20
-0.2857247664
 10
-1.4019025286
 20
-0.3003455412
 10
-1.3955515286
 20
-0.3152398577
 10
-1.3900165365
 20
-0.330468478
 10
-1.3852975523
 20
-0.3460314021
  0
LINE
  5
2D9
100
AcDbEntity
  8
ASSI
100
AcDbLine
 62
7
  6
CONTINUOUS
 10
-1.9287604556
 20
-0.1253388951
 11
-1.9822174179
 21
-0.1122485934
  0
LWPOLYLINE
  5
2DA
100
AcDbEntity
  8
ASSI
100
AcDbPolyline
 62
250
  6
CONTINUOUS
 90
4
 70
0
 10
-1.5822395431
 20
0.4389295207
 10
-1.3918592662
 20
0.3861184377
 10
-1.3901416011
 20
0.385630794
 10
-1.3894866341
 20
0.3854370695
  0
LWPOLYLINE
  5
2DB
100
AcDbEntity
  8
ASSI
100
AcDbPolyline
 62
250
  6
CONTINUOUS
 90
4
 70
0
 10
1.4638330247
 20
-0.4040840065
 10
1.2734527477
 20
-0.3512729234
 10
1.2717350827
 20
-0.3507852797
 10
1.2710801156
 20
-0.3505915552
  0
LINE
  5
2DC
100
AcDbEntity
  8
ASSI
100
AcDbLine
 62
7
  6
CONTINUOUS
 10
-2.3555449892
 20
-0.1122485934
 11
-2.3609358397
 21
-0.109630533
  0
LINE
  5
2DD
100
AcDbEntity
  8
ASSI
100
AcDbLine
 62
250
  6
CONTINUOUS
 10
-1.3894879743
 20
0.3854337523
 11
-1.3852975523
 21
0.3808769164
  0
LWPOLYLINE
  5
2DE
100
AcDbEntity
  8
ASSI
100
AcDbPolyline
 62
250
  6
CONTINUOUS
 90
25
 70
0
 10
-1.3894880532
 20
-0.3505879534
 10
-1.3942455361
 20
-0.3350455583
 10
-1.399838154
 20
-0.3197828245
 10
-1.4062496188
 20
-0.3048446097
 10
-1.4134612443
 20
-0.2902748096
 10
-1.4214519705
 20
-0.2761162931
 10
-1.4301984136
 20
-0.2624107702
 10
-1.4396752478
 20
-0.2491982294
 10
-1.4498545213
 20
-0.23651792
 10
-1.4607055116
 20
-0.2244081476
 10
-1.4721958314
 20
-0.2129048503
 10
-1.4842920649
 20
-0.2020412861
 10
-1.4969590271
 20
-0.1918489916
 10
-1.5101594798
 20
-0.1823579189
 10
-1.5238546779
 20
-0.1735959141
 10
-1.53800494
 20
-0.1655884166
 10
-1.5525693485
 20
-0.158358752
 10
-1.5675045953
 20
-0.151928583
 10
-1.5827655504
 20
-0.1463173209
 10
-1.5983065432
 20
-0.1415415525
 10
-1.6140826609
 20
-0.1376148773
 10
-1.6300486484
 20
-0.1345485212
 10
-1.6461579981
 20
-0.1323515036
 10
-1.6623630383
 20
-0.1310304142
 10
-1.6786161762
 20
-0.1305891895
  0
LINE
  5
2DF
100
AcDbEntity
  8
ASSI
100
AcDbLine
 62
250
  6
CONTINUOUS
 10
1.5602096578
 20
0.3655663458
 11
1.5602096578
 21
0.1654347037
  0
LINE
  5
2E0
100
AcDbEntity
  8
ASSI
100
AcDbLine
 62
250
  6
CONTINUOUS
 10
1.5602096578
 20
-0.3307208315
 11
1.5602096578
 21
-0.1305891895
  0
LWPOLYLINE
  5
2E1
100
AcDbEntity
  8
CURVE
100
AcDbPolyline
 62
250
  6
CONTINUOUS
 90
87
 70
0
 10
0.9436389461
 20
12.9604560902
 10
0.9429981847
 20
12.924422227
 10
0.9410876074
 20
12.8888325595
 10
0.9379247739
 20
12.853592391
 10
0.9335272442
 20
12.8186070251
 10
0.9279082853
 20
12.7838010044
 10
0.9210639924
 20
12.7491758288
 10
0.9129861679
 20
12.7147522374
 10
0.903666614
 20
12.6805509692
 10
0.8931022491
 20
12.6466014114
 10
0.881310455
 20
12.6129675435
 10
0.8683137296
 20
12.579721993
 10
0.8541345707
 20
12.5469373874
 10
0.8387936965
 20
12.5146796608
 10
0.822304707
 20
12.482987973
 10
0.8046794227
 20
12.45189479
 10
0.785929664
 20
12.4214325783
 10
0.7631464949
 20
12.3874357746
 10
0.7389689321
 20
12.3543712883
 10
0.7134558444
 20
12.3223049062
 10
0.6866661005
 20
12.291302415
 10
0.6586585691
 20
12.2614296017
 10
0.6294921188
 20
12.2327522531
 10
0.5992256184
 20
12.205336156
 10
0.5718846596
 20
12.1824278524
 10
0.543775995
 20
12.1605462965
 10
0.5149290734
 20
12.1397022223
 10
0.4853733437
 20
12.1199063639
 10
0.4551354953
 20
12.1011703069
 10
0.4242311801
 20
12.0835090438
 10
0.3926732908
 20
12.066938419
 10
0.36047472
 20
12.0514742766
 10
0.3276570016
 20
12.0371351694
 10
0.294276234
 20
12.0239504844
 10
0.260397157
 20
12.0119523169
 10
0.2260845104
 20
12.0011727623
 10
0.1914048094
 20
11.9916399362
 10
0.156431672
 20
11.983366035
 10
0.1212404918
 20
11.9763592755
 10
0.0859066625
 20
11.9706278744
 10
0.050495769
 20
11.9661774855
 10
0.0150341615
 20
11.9630035112
 10
-0.0204616181
 20
11.9610987911
 10
-0.0559750285
 20
11.9604561647
 10
-0.0914897877
 20
11.9610709512
 10
-0.1269906537
 20
11.9629483883
 10
-0.1624626444
 20
11.9660961933
 10
-0.1978907777
 20
11.9705220837
 10
-0.2332496823
 20
11.9762311763
 10
-0.2684724313
 20
11.9832181866
 10
-0.3034817084
 20
11.9914752294
 10
-0.3382001975
 20
12.0009944197
 10
-0.3725521626
 20
12.0117635178
 10
-0.4064681882
 20
12.0237528658
 10
-0.4398804388
 20
12.0369284511
 10
-0.4727210791
 20
12.051256261
 10
-0.5049320117
 20
12.0667054031
 10
-0.5364940911
 20
12.0832574648
 10
-0.56739791
 20
12.1008971535
 10
-0.597634061
 20
12.1196091768
 10
-0.6271901549
 20
12.1393796931
 10
-0.6560418764
 20
12.1602006655
 10
-0.6841619285
 20
12.182065508
 10
-0.711523014
 20
12.2049676349
 10
-0.7418246997
 20
12.2323929689
 10
-0.7710361053
 20
12.2610933648
 10
-0.7990939072
 20
12.2909976659
 10
-0.8259347817
 20
12.3220347158
 10
-0.8514954053
 20
12.3541333579
 10
-0.8757124543
 20
12.3872224356
 10
-0.8985226052
 20
12.4212307926
 10
-0.9172834169
 20
12.4516893903
 10
-0.9349110079
 20
12.4827684288
 10
-0.9513977962
 20
12.5144390051
 10
-0.9667361994
 20
12.5466722161
 10
-0.9809161195
 20
12.5794324481
 10
-0.9939173938
 20
12.6126572449
 10
-1.0057173438
 20
12.6462774394
 10
-1.016293291
 20
12.6802238647
 10
-1.0256274604
 20
12.7144350899
 10
-1.0337216919
 20
12.748880628
 10
-1.040582729
 20
12.783537728
 10
-1.0462173155
 20
12.8183836391
 10
-1.0506280547
 20
12.8534152308
 10
-1.0538009892
 20
12.888707855
 10
-1.0557180215
 20
12.924356484
 10
-1.0563610539
 20
12.9604560902
  0
LWPOLYLINE
  5
2E2
100
AcDbEntity
  8
CURVE
100
AcDbPolyline
 62
250
  6
CONTINUOUS
 90
81
 70
0
 10
0.5900215934
 20
-13.0425772429
 10
0.5895178026
 20
-13.0683707868
 10
0.5880173472
 20
-13.0937844519
 10
0.5855366025
 20
-13.1188997305
 10
0.5820919439
 20
-13.143798115
 10
0.5776956569
 20
-13.1685445696
 10
0.572343668
 20
-13.1931379461
 10
0.5660278137
 20
-13.2175605683
 10
0.5587399307
 20
-13.2417947599
 10
0.5504767375
 20
-13.2658153457
 10
0.5412544804
 20
-13.2895671554
 10
0.5310942877
 20
-13.3129875195
 10
0.5200172876
 20
-13.3360137686
 10
0.5080430642
 20
-13.3585888229
 10
0.4951850246
 20
-13.3806779607
 10
0.4814550316
 20
-13.4022520496
 10
0.466864948
 20
-13.4232819575
 10
0.4514306763
 20
-13.4437377194
 10
0.4351842774
 20
-13.4635860397
 10
0.4181618521
 20
-13.4827927904
 10
0.4003995007
 20
-13.5013238431
 10
0.381933324
 20
-13.5191450698
 10
0.3627994225
 20
-13.5362223421
 10
0.3430338968
 20
-13.552521532
 10
0.3226728475
 20
-13.5680085112
 10
0.3017508077
 20
-13.5826528063
 10
0.2802960404
 20
-13.5964385629
 10
0.2583352414
 20
-13.6093535817
 10
0.2358951061
 20
-13.6213856629
 10
0.2130023304
 20
-13.6325226071
 10
0.1896836097
 20
-13.6427522147
 10
0.1659656398
 20
-13.6520622862
 10
0.1418751162
 20
-13.6604406221
 10
0.1174414339
 20
-13.6678752498
 10
0.092704785
 20
-13.6743551057
 10
0.0677080609
 20
-13.6798693528
 10
0.0424941532
 20
-13.6844071545
 10
0.0171059533
 20
-13.6879576741
 10
-0.0084136473
 20
-13.6905100747
 10
-0.0340217573
 20
-13.6920535197
 10
-0.0596754851
 20
-13.6925771723
 10
-0.0853318167
 20
-13.6920738058
 10
-0.1109472475
 20
-13.6905506342
 10
-0.1364781506
 20
-13.6880184812
 10
-0.1618808986
 20
-13.6844881708
 10
-0.1871118646
 20
-13.679970527
 10
-0.2121274215
 20
-13.6744763736
 10
-0.236883942
 20
-13.6680165346
 10
-0.2613377992
 20
-13.6606018338
 10
-0.2854483374
 20
-13.6522430903
 10
-0.3091867878
 20
-13.642951103
 10
-0.3325273529
 20
-13.6327366659
 10
-0.3554442353
 20
-13.6216105729
 10
-0.3779116377
 20
-13.6095836182
 10
-0.3999037626
 20
-13.5966665956
 10
-0.4213948128
 20
-13.5828702992
 10
-0.4423589908
 20
-13.568205523
 10
-0.4627683055
 20
-13.5526875053
 10
-0.4825859912
 20
-13.5363492617
 10
-0.5017730885
 20
-13.5192282521
 10
-0.5202906378
 20
-13.5013619365
 10
-0.5380996798
 20
-13.4827877748
 10
-0.555161255
 20
-13.4635432269
 10
-0.571436404
 20
-13.4436657528
 10
-0.5868861673
 20
-13.4231928124
 10
-0.6014769161
 20
-13.4021599931
 10
-0.6151963444
 20
-13.3805953919
 10
-0.6280374768
 20
-13.3585252334
 10
-0.639993338
 20
-13.3359757421
 10
-0.6510546245
 20
-13.3129786364
 10
-0.6612027198
 20
-13.2895876097
 10
-0.6704166794
 20
-13.2658618495
 10
-0.6786755589
 20
-13.2418605431
 10
-0.6859630594
 20
-13.2176362878
 10
-0.6922814645
 20
-13.1932153216
 10
-0.6976377039
 20
-13.168617292
 10
-0.7020387067
 20
-13.1438618469
 10
-0.705487488
 20
-13.1189517338
 10
-0.7079714039
 20
-13.0938220984
 10
-0.7094738962
 20
-13.0683911863
 10
-0.7099784066
 20
-13.0425772429
  0
LWPOLYLINE
  5
2E3
100
AcDbEntity
  8
ASSI
100
AcDbPolyline
 62
250
  6
CONTINUOUS
 90
64
 70
0
 10
1.4638330247
 20
-0.4040840065
 10
1.4455064567
 20
-0.4656282855
 10
1.4246332985
 20
-0.5264094674
 10
1.4012135503
 20
-0.5864275516
 10
1.3752043192
 20
-0.6458288544
 10
1.3466484979
 20
-0.7044670584
 10
1.315674765
 20
-0.7619032132
 10
1.2822516977
 20
-0.8181246832
 10
1.2464107189
 20
-0.8731441038
 10
1.2083747757
 20
-0.9265604311
 10
1.168122131
 20
-0.978348971
 10
1.125674522
 20
-1.0285344184
 10
1.0813201075
 20
-1.0767898137
 10
1.035073753
 20
-1.1230708011
 10
0.9869205931
 20
-1.167421738
 10
0.9371041902
 20
-1.2096487345
 10
0.8856322074
 20
-1.2497375104
 10
0.8324969816
 20
-1.287702348
 10
0.7779190863
 20
-1.3233922013
 10
0.7218772267
 20
-1.3568111952
 10
0.6643926976
 20
-1.3879552069
 10
0.6057499566
 20
-1.4166608197
 10
0.5459313809
 20
-1.4429188998
 10
0.4849545933
 20
-1.466738583
 10
0.4231569192
 20
-1.487983857
 10
0.3605401503
 20
-1.5066365015
 10
0.2971024949
 20
-1.5227147387
 10
0.2331759041
 20
-1.5361372199
 10
0.1687623202
 20
-1.5468894422
 10
0.1038598009
 20
-1.5549859098
 10
0.0387944705
 20
-1.5603887844
 10
-0.0264335415
 20
-1.5630854357
 10
-0.0918243646
 20
-1.5630884945
 10
-0.1570522633
 20
-1.5603980146
 10
-0.2221172546
 20
-1.5550013991
 10
-0.2870193214
 20
-1.5469112445
 10
-0.351432677
 20
-1.5361653946
 10
-0.415359161
 20
-1.5227494507
 10
-0.4787969337
 20
-1.5066778102
 10
-0.5414146894
 20
-1.4880315111
 10
-0.6032144918
 20
-1.4667922981
 10
-0.664194277
 20
-1.4429784246
 10
-0.7240165485
 20
-1.4167256906
 10
-0.7826641333
 20
-1.388024582
 10
-0.8401542042
 20
-1.3568846107
 10
-0.8962007826
 20
-1.3234701153
 10
-0.9507821731
 20
-1.2877852156
 10
-1.0039200711
 20
-1.2498257896
 10
-1.0553935839
 20
-1.2097438133
 10
-1.1052094876
 20
-1.167525951
 10
-1.1533610061
 20
-1.1231855364
 10
-1.1996069182
 20
-1.07691455
 10
-1.2439623623
 20
-1.0286691526
 10
-1.2864122
 20
-0.9784931819
 10
-1.326669795
 20
-0.9267101345
 10
-1.3647143996
 20
-0.8732944674
 10
-1.4005667614
 20
-0.8182717228
 10
-1.4340024868
 20
-0.7620420262
 10
-1.4649904496
 20
-0.704591868
 10
-1.4935617759
 20
-0.6459347578
 10
-1.51958545
 20
-0.5865113506
 10
-1.5430178
 20
-0.5264685317
 10
-1.5639024977
 20
-0.4656594168
 10
-1.5822395431
 20
-0.4040840065
  0
LWPOLYLINE
  5
2E4
100
AcDbEntity
  8
ASSI
100
AcDbPolyline
 62
250
  6
CONTINUOUS
 90
64
 70
0
 10
1.2710814558
 20
-0.3505882381
 10
1.2550816548
 20
-0.4041734102
 10
1.2368446375
 20
-0.457284007
 10
1.2163738632
 20
-0.5098229324
 10
1.1936626804
 20
-0.5617232843
 10
1.1687350188
 20
-0.6128540265
 10
1.1416581651
 20
-0.6630263644
 10
1.1124635709
 20
-0.7121482278
 10
1.081188127
 20
-0.7601260676
 10
1.0479359969
 20
-0.8067829223
 10
1.0127665526
 20
-0.8520314631
 10
0.9757343807
 20
-0.8957976567
 10
0.9369609006
 20
-0.9379420568
 10
0.896544746
 20
-0.9783725157
 10
0.8545369938
 20
-1.0170523431
 10
0.8109977712
 20
-1.0539351201
 10
0.7660145671
 20
-1.088954516
 10
0.7196582083
 20
-1.1220629102
 10
0.6719610609
 20
-1.1532391233
 10
0.6229878861
 20
-1.1824370522
 10
0.572835822
 20
-1.209595103
 10
0.5215846744
 20
-1.2346673536
 10
0.4693113546
 20
-1.2576124369
 10
0.4161132904
 20
-1.278383913
 10
0.3621047389
 20
-1.2969359426
 10
0.307384508
 20
-1.3132354531
 10
0.252040287
 20
-1.3272571781
 10
0.196172781
 20
-1.3389764289
 10
0.1398815756
 20
-1.3483737496
 10
0.0832593577
 20
-1.3554350864
 10
0.0263975587
 20
-1.3601498708
 10
-0.0306059367
 20
-1.3625105148
 10
-0.0876544006
 20
-1.3625135364
 10
-0.1446579065
 20
-1.3601589456
 10
-0.2015196481
 20
-1.3554502522
 10
-0.2581418261
 20
-1.3483950617
 10
-0.314433254
 20
-1.3390039166
 10
-0.3703011443
 20
-1.3272908839
 10
-0.4256460183
 20
-1.3132753922
 10
-0.4803677067
 20
-1.2969819466
 10
-0.5343786956
 20
-1.2784356645
 10
-0.5875799468
 20
-1.2576695982
 10
-0.6398571069
 20
-1.2347295393
 10
-0.6911131533
 20
-1.2096616368
 10
-0.7412706729
 20
-1.1825073903
 10
-0.7902484896
 20
-1.1533134928
 10
-0.8379492886
 20
-1.1221418035
 10
-0.8843086151
 20
-1.0890383932
 10
-0.9292936164
 20
-1.0540250012
 10
-0.9728327743
 20
-1.017150143
 10
-1.0148396464
 20
-0.9784796294
 10
-1.0552560797
 20
-0.9380581337
 10
-1.0940308196
 20
-0.8959223889
 10
-1.1310653032
 20
-0.8521643115
 10
-1.1662399256
 20
-0.8069207068
 10
-1.1995002801
 20
-0.760264446
 10
-1.2307859207
 20
-0.7122833782
 10
-1.2599922701
 20
-0.6631541403
 10
-1.2870821904
 20
-0.6129696319
 10
-1.3120234767
 20
-0.5618221817
 10
-1.3347477968
 20
-0.5099017563
 10
-1.3552307138
 20
-0.4573398127
 10
-1.3734787336
 20
-0.4042028354
 10
-1.3894880531
 20
-0.3505879533
  0
LWPOLYLINE
  5
2E5
100
AcDbEntity
  8
ASSI
100
AcDbPolyline
 62
7
  6
CONTINUOUS
 90
25
 70
0
 10
1.2668910338
 20
-0.3460314021
 10
1.271610018
 20
-0.330468478
 10
1.2771450101
 20
-0.3152398577
 10
1.2834960101
 20
-0.3003455412
 10
1.2906963802
 20
-0.2857247664
 10
1.2987127582
 20
-0.2714382954
 10
1.3074450574
 20
-0.2576684148
 10
1.3168752503
 20
-0.2444553581
 10
1.3270213643
 20
-0.2317588917
 10
1.3378373948
 20
-0.2196406015
 10
1.3493513141
 20
-0.2080777531
 10
1.36153515
 20
-0.1970930807
 10
1.3742589811
 20
-0.1868163732
 10
1.3875326592
 20
-0.1772605843
 10
1.4013463327
 20
-0.1684127602
 10
1.4155405247
 20
-0.1603638281
 10
1.4300851632
 20
-0.1531348691
 10
1.4450103203
 20
-0.146704802
 10
1.4602467354
 20
-0.141101311
 10
1.4758399677
 20
-0.1363171404
 10
1.4917444582
 20
-0.1323595459
 10
1.5077542685
 20
-0.1292779789
 10
1.5238007527
 20
-0.1270889234
 10
1.5399525569
 20
-0.1257758954
 10
1.556209681
 20
-0.1253388951
  0
LINE
  5
2E6
100
AcDbEntity
  8
ASSI
100
AcDbLine
 62
250
  6
CONTINUOUS
 10
1.2668910338
 20
0.3808769164
 11
1.2710815346
 21
0.3854334675
  0
LINE
  5
2E7
100
AcDbEntity
  8
ASSI
100
AcDbLine
 62
7
  6
CONTINUOUS
 10
2.2425293213
 20
-0.109630533
 11
2.2371384708
 21
-0.1122485934
  0
LINE
  5
2E8
100
AcDbEntity
  8
ASSI
100
AcDbLine
 62
7
  6
CONTINUOUS
 10
-1.9822174179
 20
0.1470941076
 11
-1.9287604556
 21
0.1601844093
  0
LWPOLYLINE
  5
2E9
100
AcDbEntity
  8
ASSI
100
AcDbPolyline
 62
250
  6
CONTINUOUS
 90
5
 70
0
 10
-11.1182869799
 20
0.3628546432
 10
-11.1171659428
 20
0.3629977937
 10
-11.1147077066
 20
0.3631397724
 10
-11.11091912
 20
0.3632805313
 10
-11.1058108547
 20
0.3634203369
  0
LWPOLYLINE
  5
2EA
100
AcDbEntity
  8
ASSI
100
AcDbPolyline
 62
250
  6
CONTINUOUS
 90
25
 70
0
 10
-1.6786161762
 20
0.3655663458
 10
-1.6731753963
 20
0.3657164753
 10
-1.6677814228
 20
0.3661559682
 10
-1.6624342557
 20
0.3668848245
 10
-1.6571184046
 20
0.3679068376
 10
-1.65184936
 20
0.369218214
 10
-1.6466735924
 20
0.3708075738
 10
-1.6415919229
 20
0.3726773694
 10
-1.6366035305
 20
0.3748251483
 10
-1.631752423
 20
0.3772321723
 10
-1.6270399296
 20
0.3799006811
 10
-1.6224647212
 20
0.382828435
 10
-1.6180668174
 20
0.3859899769
 10
-1.6138476093
 20
0.3893875108
 10
-1.6098057059
 20
0.3930188328
 10
-1.6059769543
 20
0.3968518735
 10
-1.6023632934
 20
0.4008885126
 10
-1.5989627842
 20
0.4051268705
 10
-1.5958054571
 20
0.4095292389
 10
-1.5928935012
 20
0.4140972236
 10
-1.5902247274
 20
0.4188292186
 10
-1.5878225984
 20
0.4236826985
 10
-1.5856949352
 20
0.4286434878
 10
-1.5838339167
 20
0.4337257619
 10
-1.5822395431
 20
0.4389295208
  0
LINE
  5
2EB
100
AcDbEntity
  8
ASSI
100
AcDbLine
 62
250
  6
CONTINUOUS
 10
-10.9023661876
 20
0.1636601399
 11
-10.8908425177
 21
0.1639119622
  0
LINE
  5
2EC
100
AcDbEntity
  8
ASSI
100
AcDbLine
 62
250
  6
CONTINUOUS
 10
-11.1058108547
 20
0.3634203369
 11
-11.0916930096
 21
0.3636950115
  0
LINE
  5
2ED
100
AcDbEntity
  8
ASSI
100
AcDbLine
 62
250
  6
CONTINUOUS
 10
-10.8908425177
 20
0.1639119622
 11
-10.8681398389
 21
0.1642667169
  0
LINE
  5
2EE
100
AcDbEntity
  8
ASSI
100
AcDbLine
 62
250
  6
CONTINUOUS
 10
-11.0916930096
 20
0.3636950115
 11
-11.0610636242
 21
0.3640883195
  0
LWPOLYLINE
  5
2EF
100
AcDbEntity
  8
ASSI
100
AcDbPolyline
 62
250
  6
CONTINUOUS
 90
3
 70
0
 10
-10.8681398389
 20
0.1642667169
 10
-10.8172856227
 20
0.164776364
 10
-10.8053721685
 20
0.1648637539
  0
LINE
  5
2F0
100
AcDbEntity
  8
ASSI
100
AcDbLine
 62
250
  6
CONTINUOUS
 10
-11.0610636242
 20
0.3640883195
 11
-10.9688163754
 21
0.3647738003
  0
LINE
  5
2F1
100
AcDbEntity
  8
ASSI
100
AcDbLine
 62
250
  6
CONTINUOUS
 10
-10.9688163754
 20
0.3647738003
 11
-10.6957079227
 21
0.3655327737
  0
LINE
  5
2F2
100
AcDbEntity
  8
ASSI
100
AcDbLine
 62
250
  6
CONTINUOUS
 10
-10.6957079227
 20
0.3655327737
 11
-1.6786161762
 21
0.3655663458
  0
LINE
  5
2F3
100
AcDbEntity
  8
ASSI
100
AcDbLine
 62
250
  6
CONTINUOUS
 10
1.5602096578
 20
0.3655663458
 11
10.811664447
 21
0.3649633281
  0
LINE
  5
2F4
100
AcDbEntity
  8
ASSI
100
AcDbLine
 62
250
  6
CONTINUOUS
 10
10.811664447
 20
0.3649633281
 11
10.9300343992
 21
0.3642129121
  0
LINE
  5
2F5
100
AcDbEntity
  8
ASSI
100
AcDbLine
 62
250
  6
CONTINUOUS
 10
10.6869656495
 20
0.1648637539
 11
10.7408081324
 21
0.164377525
  0
LINE
  5
2F6
100
AcDbEntity
  8
ASSI
100
AcDbLine
 62
250
  6
CONTINUOUS
 10
10.9300343992
 20
0.3642129121
 11
10.9643128787
 21
0.3638288402
  0
LINE
  5
2F7
100
AcDbEntity
  8
ASSI
100
AcDbLine
 62
250
  6
CONTINUOUS
 10
10.7408081324
 20
0.164377525
 11
10.7655830925
 21
0.1640334915
  0
LWPOLYLINE
  5
2F8
100
AcDbEntity
  8
ASSI
100
AcDbPolyline
 62
250
  6
CONTINUOUS
 90
7
 70
0
 10
10.9643128787
 20
0.3638288402
 10
10.9809901953
 20
0.3635588272
 10
10.9874043359
 20
0.3634203369
 10
10.9925126013
 20
0.3632805313
 10
10.996301188
 20
0.3631397724
 10
10.9987594243
 20
0.3629977937
 10
10.9998804614
 20
0.3628546432
  0
LWPOLYLINE
  5
2F9
100
AcDbEntity
  8
ASSI
100
AcDbPolyline
 62
250
  6
CONTINUOUS
 90
9
 70
0
 10
10.7655830925
 20
0.1640334915
 10
10.7785779738
 20
0.1637871753
 10
10.7839596689
 20
0.1636601399
 10
10.7885748064
 20
0.1635308362
 10
10.7924296642
 20
0.1633992841
 10
10.7954937272
 20
0.1632665525
 10
10.7977568238
 20
0.1631329977
 10
10.7992291256
 20
0.1629982635
 10
10.7999106326
 20
0.1628623498
  0
LWPOLYLINE
  5
2FA
100
AcDbEntity
  8
ASSI
100
AcDbPolyline
 62
7
  6
CONTINUOUS
 90
23
 70
0
 10
1.5238007527
 20
0.1619344376
 10
1.5077542685
 20
0.1641234932
 10
1.4917444582
 20
0.1672050601
 10
1.4758399677
 20
0.1711626546
 10
1.4602467354
 20
0.1759468253
 10
1.4450103203
 20
0.1815503162
 10
1.4300851632
 20
0.1879803833
 10
1.4155405247
 20
0.1952093424
 10
1.4013463327
 20
0.2032582745
 10
1.3875326592
 20
0.2121060985
 10
1.3742589811
 20
0.2216618874
 10
1.36153515
 20
0.2319385949
 10
1.3493513141
 20
0.2429232673
 10
1.3378373948
 20
0.2544861158
 10
1.3270213643
 20
0.266604406
 10
1.3168752503
 20
0.2793008723
 10
1.3074450574
 20
0.292513929
 10
1.2987127582
 20
0.3062838096
 10
1.2906963802
 20
0.3205702806
 10
1.2834960101
 20
0.3351910554
 10
1.2771450101
 20
0.3500853719
 10
1.271610018
 20
0.3653139922
 10
1.2668910338
 20
0.3808769164
  0
LINE
  5
2FB
100
AcDbEntity
  8
ASSI
100
AcDbLine
 62
7
  6
CONTINUOUS
 10
1.8103539372
 20
0.1601844093
 11
1.8638108995
 21
0.1470941076
  0
LINE
  5
2FC
100
AcDbEntity
  8
ASSI
100
AcDbLine
 62
7
  6
CONTINUOUS
 10
2.2371384708
 20
0.1470941076
 11
2.2425293213
 21
0.1444760473
  0
LINE
  5
2FD
100
AcDbEntity
  8
ASSI
100
AcDbLine
 62
250
  6
CONTINUOUS
 10
1.2710814558
 20
-0.3505882381
 11
1.2668910338
 21
-0.3460314021
  0
LWPOLYLINE
  5
2FE
100
AcDbEntity
  8
ASSI
100
AcDbPolyline
 62
250
  6
CONTINUOUS
 90
25
 70
0
 10
1.4638330247
 20
0.4389295208
 10
1.4654273983
 20
0.4337257619
 10
1.4672884167
 20
0.4286434879
 10
1.4694160799
 20
0.4236826985
 10
1.4718182089
 20
0.4188292187
 10
1.4744869828
 20
0.4140972236
 10
1.4773989386
 20
0.4095292389
 10
1.4805562657
 20
0.4051268706
 10
1.4839567749
 20
0.4008885126
 10
1.4875704358
 20
0.3968518735
 10
1.4913991874
 20
0.3930188328
 10
1.4954410908
 20
0.3893875108
 10
1.4996602989
 20
0.3859899769
 10
1.5040582027
 20
0.382828435
 10
1.5086334112
 20
0.3799006811
 10
1.5133459045
 20
0.3772321723
 10
1.518197012
 20
0.3748251483
 10
1.5231854044
 20
0.3726773694
 10
1.5282670739
 20
0.3708075738
 10
1.5334428415
 20
0.369218214
 10
1.5387118862
 20
0.3679068376
 10
1.5440277372
 20
0.3668848245
 10
1.5493749044
 20
0.3661559682
 10
1.5547688779
 20
0.3657164753
 10
1.5602096578
 20
0.3655663458
  0
LWPOLYLINE
  5
2FF
100
AcDbEntity
  8
ASSI
100
AcDbPolyline
 62
250
  6
CONTINUOUS
 90
25
 70
0
 10
1.2710815347
 20
0.3854334676
 10
1.2758390177
 20
0.3698910725
 10
1.2814316355
 20
0.3546283387
 10
1.2878431004
 20
0.339690124
 10
1.2950547259
 20
0.3251203238
 10
1.3030454521
 20
0.3109618073
 10
1.3117918952
 20
0.2972562845
 10
1.3212687293
 20
0.2840437436
 10
1.3314480029
 20
0.2713634342
 10
1.3422989931
 20
0.2592536618
 10
1.3537893129
 20
0.2477503646
 10
1.3658855464
 20
0.2368868003
 10
1.3785525087
 20
0.2266945059
 10
1.3917529613
 20
0.2172034332
 10
1.4054481594
 20
0.2084414283
 10
1.4195984215
 20
0.2004339309
 10
1.43416283
 20
0.1932042663
 10
1.4490980768
 20
0.1867740972
 10
1.464359032
 20
0.1811628351
 10
1.4799000248
 20
0.1763870668
 10
1.4956761424
 20
0.1724603916
 10
1.5116421299
 20
0.1693940354
 10
1.5277514796
 20
0.1671970178
 10
1.5439565199
 20
0.1658759284
 10
1.5602096578
 20
0.1654347037
  0
LINE
  5
300
100
AcDbEntity
  8
ASSI
100
AcDbLine
 62
250
  6
CONTINUOUS
 10
10.5773426802
 20
22.1767354628
 11
10.5238573169
 21
22.0161488868
  0
LWPOLYLINE
  5
301
100
AcDbEntity
  8
ASSI
100
AcDbPolyline
 62
250
  6
CONTINUOUS
 90
7
 70
0
 10
-10.918317151
 20
0.1628623498
 10
-10.9176356441
 20
0.1629982635
 10
-10.9161633423
 20
0.1631329977
 10
-10.9139002458
 20
0.1632665524
 10
-10.9108361828
 20
0.1633992841
 10
-10.9069813251
 20
0.1635308362
 10
-10.9023661876
 20
0.1636601399
  0
LINE
  5
302
100
AcDbEntity
  8
ASSI
100
AcDbLine
 62
250
  6
CONTINUOUS
 10
10.5238573169
 20
-21.9813033725
 11
10.5773426802
 21
-22.1418899486
  0
LINE
  5
303
100
AcDbEntity
  8
ASSI
100
AcDbLine
 62
250
  6
CONTINUOUS
 10
11.0777225034
 20
21.678789735
 11
11.0237808622
 21
21.5168332117
  0
LINE
  5
304
100
AcDbEntity
  8
ASSI
100
AcDbLine
 62
7
  6
CONTINUOUS
 10
9.7866860395
 20
-0.109630533
 11
9.8407967408
 21
-0.0825772429
  0
LINE
  5
305
100
AcDbEntity
  8
ASSI
100
AcDbLine
 62
250
  6
CONTINUOUS
 10
10.8907967396
 20
-0.0825772429
 11
10.7999106326
 21
-0.1280168355
  0
LINE
  5
306
100
AcDbEntity
  8
ASSI
100
AcDbLine
 62
7
  6
CONTINUOUS
 10
9.7866860395
 20
0.1444760473
 11
9.8407967408
 21
0.1174227571
  0
LINE
  5
307
100
AcDbEntity
  8
ASSI
100
AcDbLine
 62
250
  6
CONTINUOUS
 10
10.7999106326
 20
0.1628623498
 11
10.8907967396
 21
0.1174227571
  0
LINE
  5
308
100
AcDbEntity
  8
ASSI
100
AcDbLine
 62
250
  6
CONTINUOUS
 10
11.0237808622
 20
-21.4819876975
 11
11.0777225034
 21
-21.6439442208
  0
LWPOLYLINE
  5
309
100
AcDbEntity
  8
ASSI
100
AcDbPolyline
 62
250
  6
CONTINUOUS
 90
11
 70
0
 10
11.0237808622
 20
21.5168332117
 10
11.0230647519
 20
21.5138296217
 10
11.022353704
 20
21.5091696247
 10
11.0216477184
 20
21.5028532205
 10
11.0209456088
 20
21.4948642537
 10
11.0202485615
 20
21.4852188798
 10
11.0195601355
 20
21.4739655653
 10
11.0188803823
 20
21.4610960247
 10
11.0182092504
 20
21.4466185435
 10
11.0175501445
 20
21.4306064444
 10
11.0162681524
 20
21.3939632336
  0
LINE
  5
30A
100
AcDbEntity
  8
ASSI
100
AcDbLine
 62
250
  6
CONTINUOUS
 10
11.0907967408
 20
-0.2825543976
 11
10.9998804617
 21
-0.3280090751
  0
LWPOLYLINE
  5
30B
100
AcDbEntity
  8
0
100
AcDbPolyline
 62
7
  6
CONTINUOUS
 90
3
 70
0
 43
0.3500000019
 10
18.0862875977
 20
1.1602798691
 10
18.3005727539
 20
1.0888512878
 10
18.5862880859
 20
0.9459942093
  0
LINE
  5
30C
100
AcDbEntity
  8
ASSI
100
AcDbLine
 62
250
  6
CONTINUOUS
 10
10.9998804617
 20
0.3628545894
 11
11.0907967408
 21
0.3173999118
  0
LWPOLYLINE
  5
30D
100
AcDbEntity
  8
ASSI
100
AcDbPolyline
 62
250
  6
CONTINUOUS
 90
8
 70
0
 10
10.523857215
 20
22.0161488867
 10
10.5231408597
 20
22.0116677963
 10
10.522429639
 20
22.0046720031
 10
10.5217235528
 20
21.995173294
 10
10.5210214422
 20
21.9831877657
 10
10.5203244661
 20
21.9687355468
 10
10.5196361011
 20
21.9518405856
 10
10.5182852423
 20
21.9108388396
  0
LWPOLYLINE
  5
30E
100
AcDbEntity
  8
0
100
AcDbPolyline
 62
7
  6
CONTINUOUS
 90
10
 70
0
 43
0.3500000019
 10
17.8720024414
 20
1.0888512878
 10
18.0148574219
 20
1.1602798691
 10
18.0862875977
 20
1.1602798691
 10
18.2291425781
 20
1.0174227905
 10
18.2291425781
 20
0.9459942093
 10
18.1577177734
 20
0.8745656281
 10
18.0862875977
 20
0.8745656281
 10
17.9434272461
 20
0.9459942093
 10
17.8720024414
 20
1.0174227905
 10
17.8720024414
 20
1.0888512878
  0
LWPOLYLINE
  5
30F
100
AcDbEntity
  8
ASSI
100
AcDbPolyline
 62
250
  6
CONTINUOUS
 90
9
 70
0
 10
11.0182092504
 20
-21.411773029
 10
11.0188803823
 20
-21.4262505102
 10
11.0195601354
 20
-21.4391200508
 10
11.0202485614
 20
-21.4503733653
 10
11.0209456088
 20
-21.4600187393
 10
11.0216477184
 20
-21.4680077061
 10
11.022353704
 20
-21.4743241103
 10
11.0230647519
 20
-21.4789841074
 10
11.0237808622
 20
-21.4819876975
  0
LWPOLYLINE
  5
310
100
AcDbEntity
  8
ASSI
100
AcDbPolyline
 62
250
  6
CONTINUOUS
 90
7
 70
0
 10
10.5196361011
 20
-21.916995071
 10
10.5203244661
 20
-21.9338900322
 10
10.5210214422
 20
-21.9483422512
 10
10.5217235528
 20
-21.9603277795
 10
10.522429639
 20
-21.9698264887
 10
10.5231408597
 20
-21.976822282
 10
10.523857215
 20
-21.9813033724
  0
LINE
  5
311
100
AcDbEntity
  8
ASSI
100
AcDbLine
 62
250
  6
CONTINUOUS
 10
10.5182852423
 20
-21.8759933249
 11
10.5196361011
 21
-21.916995071
  0
LINE
  5
312
100
AcDbEntity
  8
ASSI
100
AcDbLine
 62
250
  6
CONTINUOUS
 10
10.5169791654
 20
-21.8256156524
 11
10.5182852423
 21
-21.8759933249
  0
LINE
  5
313
100
AcDbEntity
  8
ASSI
100
AcDbLine
 62
250
  6
CONTINUOUS
 10
10.5157244745
 20
-21.7662024801
 11
10.5169791654
 21
-21.8256156524
  0
LINE
  5
314
100
AcDbEntity
  8
ASSI
100
AcDbLine
 62
250
  6
CONTINUOUS
 10
10.5169791654
 20
21.8604611673
 11
10.5157244745
 21
21.801047995
  0
LINE
  5
315
100
AcDbEntity
  8
ASSI
100
AcDbLine
 62
250
  6
CONTINUOUS
 10
10.5182852423
 20
21.9108388396
 11
10.5169791654
 21
21.8604611673
  0
LINE
  5
316
100
AcDbEntity
  8
CURVE
100
AcDbLine
 62
250
  6
CONTINUOUS
 10
1.4153847083
 20
11.4895716024
 11
2.7248663661
 21
10.1800899446
  0
LINE
  5
317
100
AcDbEntity
  8
CURVE
100
AcDbLine
 62
250
  6
CONTINUOUS
 10
-2.8331098469
 20
15.7399609613
 11
-1.5601462253
 21
14.4671695946
  0
LWPOLYLINE
  5
318
100
AcDbEntity
  8
ASSI
100
AcDbPolyline
 62
250
  6
CONTINUOUS
 90
22
 70
0
 10
10.9998801716
 20
-0.3280092201
 10
10.9993188471
 20
-0.3130651932
 10
10.9976425639
 20
-0.2982047248
 10
10.9948606948
 20
-0.2835109048
 10
10.9909887945
 20
-0.269065891
 10
10.9860485125
 20
-0.2549504505
 10
10.9800674721
 20
-0.241243508
 10
10.9730791158
 20
-0.2280217035
 10
10.9651225183
 20
-0.2153589642
 10
10.9562421682
 20
-0.2033260919
 10
10.9464877192
 20
-0.191990366
 10
10.9359137119
 20
-0.1814151678
 10
10.92457927
 20
-0.1716596265
 10
10.9125477683
 20
-0.162778288
 10
10.8998864794
 20
-0.15482081
 10
10.8866661972
 20
-0.1478316848
 10
10.8729608408
 20
-0.1418499901
 10
10.8588470414
 20
-0.1369091707
 10
10.8444037142
 20
-0.1330368514
 10
10.8297116163
 20
-0.1302546828
 10
10.8148528959
 20
-0.1285782199
 10
10.7999106326
 20
-0.1280168355
  0
LINE
  5
319
100
AcDbEntity
  8
ASSI
100
AcDbLine
 62
250
  6
CONTINUOUS
 10
11.0169031355
 20
-21.3782066333
 11
11.0182092504
 21
-21.411773029
  0
LINE
  5
31A
100
AcDbEntity
  8
ASSI
100
AcDbLine
 62
250
  6
CONTINUOUS
 10
11.0156483863
 20
-21.338590247
 11
11.0169031355
 21
-21.3782066333
  0
LWPOLYLINE
  5
31B
100
AcDbEntity
  8
ASSI
100
AcDbPolyline
 62
250
  6
CONTINUOUS
 90
28
 70
0
 10
11.0237808622
 20
21.5168332117
 10
11.0229095188
 20
21.5458489234
 10
11.0203515034
 20
21.57476657
 10
11.0161154613
 20
21.6034884172
 10
11.0102157092
 20
21.6319173924
 10
11.0026721865
 20
21.6599574126
 10
10.9935103883
 20
21.6875137097
 10
10.9827612792
 20
21.7144931502
 10
10.9704611882
 20
21.7408045504
 10
10.9566516864
 20
21.7663589842
 10
10.9413794465
 20
21.791070084
 10
10.9246960846
 20
21.8148543323
 10
10.9066579862
 20
21.8376313442
 10
10.8873261156
 20
21.859324139
 10
10.8667658095
 20
21.8798594004
 10
10.8450465566
 20
21.8991677242
 10
10.8222417625
 20
21.9171838529
 10
10.7984285016
 20
21.9338468965
 10
10.7736872569
 20
21.9491005378
 10
10.7481016477
 20
21.9628932232
 10
10.7217581468
 20
21.9751783368
 10
10.6947457889
 20
21.9859143579
 10
10.6671558689
 20
21.9950650013
 10
10.6390816341
 20
22.00259934
 10
10.6106179684
 20
22.0084919097
 10
10.5818610721
 20
22.0127227949
 10
10.5529081362
 20
22.0152776964
 10
10.5238570146
 20
22.0161479791
  0
LINE
  5
31C
100
AcDbEntity
  8
ASSI
100
AcDbLine
 62
250
  6
CONTINUOUS
 10
11.0144546566
 20
-21.2932051978
 11
11.0156483863
 21
-21.338590247
  0
LINE
  5
31D
100
AcDbEntity
  8
ASSI
100
AcDbLine
 62
250
  6
CONTINUOUS
 10
11.0127961506
 20
-21.2150310108
 11
11.0144546566
 21
-21.2932051978
  0
LINE
  5
31E
100
AcDbEntity
  8
ASSI
100
AcDbLine
 62
250
  6
CONTINUOUS
 10
10.5134069507
 20
-21.621923496
 11
10.5157244745
 21
-21.7662024801
  0
LINE
  5
31F
100
AcDbEntity
  8
ASSI
100
AcDbLine
 62
250
  6
CONTINUOUS
 10
11.0108691614
 20
-21.0938185223
 11
11.0127961506
 21
-21.2150310108
  0
LINE
  5
320
100
AcDbEntity
  8
ASSI
100
AcDbLine
 62
250
  6
CONTINUOUS
 10
10.5109454114
 20
-21.3990604959
 11
10.5134069507
 21
-21.621923496
  0
LINE
  5
321
100
AcDbEntity
  8
ASSI
100
AcDbLine
 62
250
  6
CONTINUOUS
 10
11.0089879765
 20
-20.9196102668
 11
11.0108691614
 21
-21.0938185223
  0
LINE
  5
322
100
AcDbEntity
  8
ASSI
100
AcDbLine
 62
250
  6
CONTINUOUS
 10
10.5082479917
 20
-20.9670949228
 11
10.5109454114
 21
-21.3990604959
  0
LINE
  5
323
100
AcDbEntity
  8
ASSI
100
AcDbLine
 62
250
  6
CONTINUOUS
 10
11.0076056298
 20
-20.6871264772
 11
11.0089879765
 21
-20.9196102668
  0
LINE
  5
324
100
AcDbEntity
  8
ASSI
100
AcDbLine
 62
7
  6
CONTINUOUS
 10
11.0907967408
 20
13.1174227571
 11
11.0777225034
 21
21.678789735
  0
LINE
  5
325
100
AcDbEntity
  8
ASSI
100
AcDbLine
 62
250
  6
CONTINUOUS
 10
10.5032883713
 20
-13.8088930136
 11
10.5082479917
 21
-20.9670949228
  0
LINE
  5
326
100
AcDbEntity
  8
ASSI
100
AcDbLine
 62
250
  6
CONTINUOUS
 10
11.0024488125
 20
-12.1113829785
 11
11.0076056298
 21
-20.6871264772
  0
LINE
  5
327
100
AcDbEntity
  8
ASSI
100
AcDbLine
 62
250
  6
CONTINUOUS
 10
10.5032883713
 20
-13.8088930136
 11
10.4999563527
 21
-0.1305891895
  0
LINE
  5
328
100
AcDbEntity
  8
ASSI
100
AcDbLine
 62
250
  6
CONTINUOUS
 10
10.9998804617
 20
-0.3280090751
 11
11.0024488125
 21
-12.1113829785
  0
LINE
  5
329
100
AcDbEntity
  8
ASSI
100
AcDbLine
 62
7
  6
CONTINUOUS
 10
11.0907967408
 20
-0.2825543976
 11
11.0907967408
 21
-13.0825772429
  0
LINE
  5
32A
100
AcDbEntity
  8
ASSI
100
AcDbLine
 62
7
  6
CONTINUOUS
 10
11.0907967408
 20
0.3173999118
 11
11.0907967408
 21
13.1174227571
  0
LINE
  5
32B
100
AcDbEntity
  8
ASSI
100
AcDbLine
 62
7
  6
CONTINUOUS
 10
11.0907967408
 20
-13.0825772429
 11
11.0777225034
 21
-21.6439442208
  0
LINE
  5
32C
100
AcDbEntity
  8
ASSI
100
AcDbLine
 62
250
  6
CONTINUOUS
 10
10.5087651584
 20
21.116715684
 11
10.4999563527
 21
0.1654347037
  0
LINE
  5
32D
100
AcDbEntity
  8
ASSI
100
AcDbLine
 62
250
  6
CONTINUOUS
 10
11.0079547815
 20
20.8015702744
 11
10.9998804617
 21
0.3628545894
  0
LINE
  5
32E
100
AcDbEntity
  8
ASSI
100
AcDbLine
 62
250
  6
CONTINUOUS
 10
10.5113940153
 20
21.4818765754
 11
10.5087651584
 21
21.116715684
  0
LINE
  5
32F
100
AcDbEntity
  8
ASSI
100
AcDbLine
 62
250
  6
CONTINUOUS
 10
11.0096652668
 20
21.0267783112
 11
11.0079547815
 21
20.8015702744
  0
LINE
  5
330
100
AcDbEntity
  8
ASSI
100
AcDbLine
 62
250
  6
CONTINUOUS
 10
10.513959736
 20
21.6958754732
 11
10.5113940153
 21
21.4818765754
  0
LINE
  5
331
100
AcDbEntity
  8
ASSI
100
AcDbLine
 62
250
  6
CONTINUOUS
 10
11.0113177754
 20
21.1606253602
 11
11.0096652668
 21
21.0267783112
  0
LINE
  5
332
100
AcDbEntity
  8
ASSI
100
AcDbLine
 62
250
  6
CONTINUOUS
 10
10.5157244745
 20
21.801047995
 11
10.513959736
 21
21.6958754732
  0
LINE
  5
333
100
AcDbEntity
  8
ASSI
100
AcDbLine
 62
250
  6
CONTINUOUS
 10
11.0133307754
 20
21.2772577174
 11
11.0113177754
 21
21.1606253602
  0
LINE
  5
334
100
AcDbEntity
  8
ASSI
100
AcDbLine
 62
250
  6
CONTINUOUS
 10
11.015043913
 20
21.3514625159
 11
11.0133307754
 21
21.2772577174
  0
LWPOLYLINE
  5
335
100
AcDbEntity
  8
ASSI
100
AcDbPolyline
 62
250
  6
CONTINUOUS
 90
28
 70
0
 10
11.0237808622
 20
-21.4819876975
 10
11.0229095183
 20
-21.5110034184
 10
11.0203515013
 20
-21.5399210735
 10
11.0161154569
 20
-21.5686429282
 10
11.0102157016
 20
-21.5970719098
 10
11.0026721753
 20
-21.6251119355
 10
10.9935103732
 20
-21.652668237
 10
10.9827612598
 20
-21.6796476808
 10
10.9704611645
 20
-21.7059590832
 10
10.9566516586
 20
-21.7315135181
 10
10.9413794147
 20
-21.756224618
 10
10.9246960492
 20
-21.7800088654
 10
10.9066579478
 20
-21.8027858757
 10
10.8873260746
 20
-21.8244786681
 10
10.8667657667
 20
-21.8450139265
 10
10.8450465127
 20
-21.8643222467
 10
10.8222417184
 20
-21.8823383715
 10
10.7984284581
 20
-21.8990014109
 10
10.7736872148
 20
-21.9142550479
 10
10.7481016078
 20
-21.928047729
 10
10.7217581099
 20
-21.9403328385
 10
10.6947457557
 20
-21.9510688558
 10
10.6671558402
 20
-21.9602194957
 10
10.6390816104
 20
-21.9677538314
 10
10.6106179502
 20
-21.9736463987
 10
10.5818610596
 20
-21.9778772822
 10
10.5529081299
 20
-21.9804321825
 10
10.5238570146
 20
-21.9813024648
  0
LINE
  5
336
100
AcDbEntity
  8
ASSI
100
AcDbLine
 62
250
  6
CONTINUOUS
 10
11.0162681524
 20
21.3939632336
 11
11.015043913
 21
21.3514625159
  0
LWPOLYLINE
  5
337
100
AcDbEntity
  8
ASSI
100
AcDbPolyline
 62
250
  6
CONTINUOUS
 90
22
 70
0
 10
10.9998801716
 20
0.3628547344
 10
10.9993188489
 20
0.3479107309
 10
10.9976425707
 20
0.3330502842
 10
10.9948607096
 20
0.3183564838
 10
10.9909888199
 20
0.3039114874
 10
10.9860485506
 20
0.2897960617
 10
10.9800675242
 20
0.2760891305
 10
10.9730791828
 20
0.2628673337
 10
10.9651226002
 20
0.2502045986
 10
10.9562422644
 20
0.2381717267
 10
10.9464878281
 20
0.2268359977
 10
10.9359138316
 20
0.2162607931
 10
10.9245793974
 20
0.2065052424
 10
10.9125479001
 20
0.1976238921
 10
10.8998866115
 20
0.1896664005
 10
10.8866663251
 20
0.1826772607
 10
10.8729609596
 20
0.176695551
 10
10.8588471463
 20
0.1717547173
 10
10.8444038
 20
0.1678823852
 10
10.8297116781
 20
0.1651002063
 10
10.8148529289
 20
0.1634237366
 10
10.7999106326
 20
0.1628623498
  0
LINE
  5
338
100
AcDbEntity
  8
CURVE
100
AcDbLine
 62
250
  6
CONTINUOUS
 10
-2.5714546721
 20
-14.5431373507
 11
-1.6187128872
 21
-13.9929552388
  0
LINE
  5
339
100
AcDbEntity
  8
CURVE
100
AcDbLine
 62
250
  6
CONTINUOUS
 10
1.4109060812
 20
-12.243879107
 11
2.4501198199
 21
-11.6440875874
  0
LINE
  5
33A
100
AcDbEntity
  8
CURVE
100
AcDbLine
 62
250
  6
CONTINUOUS
 10
2.025856031
 20
12.9604560902
 11
3.8777683308
 21
12.9604560902
  0
LINE
  5
33B
100
AcDbEntity
  8
CURVE
100
AcDbLine
 62
250
  6
CONTINUOUS
 10
-3.983772498
 20
12.9618341293
 11
-2.1837089195
 21
12.9618341293
  0
LWPOLYLINE
  5
33C
100
AcDbEntity
  8
0
100
AcDbPolyline
 62
7
  6
CONTINUOUS
 90
10
 70
0
 43
0.3500000019
 10
1.0122250977
 20
31.4282836914
 10
1.0836552734
 20
31.2854287109
 10
1.0836552734
 20
31.2139985352
 10
0.9407949219
 20
31.0711408691
 10
0.8693701172
 20
31.0711408691
 10
0.7979399414
 20
31.1425710449
 10
0.7979399414
 20
31.2139985352
 10
0.8693701172
 20
31.3568562012
 10
0.9407949219
 20
31.4282836914
 10
1.0122250977
 20
31.4282836914
  0
LWPOLYLINE
  5
33D
100
AcDbEntity
  8
0
100
AcDbPolyline
 62
7
  6
CONTINUOUS
 90
5
 70
0
 43
0.3500000019
 10
16.6577163086
 20
3.0174227295
 10
16.4434311523
 20
3.3745655518
 10
15.8005703125
 20
3.3745655518
 10
15.372
 20
3.0174227295
 10
15.372
 20
2.1602799225
  0
LWPOLYLINE
  5
33E
100
AcDbEntity
  8
0
100
AcDbPolyline
 62
7
  6
CONTINUOUS
 90
3
 70
0
 43
0.3500000019
 10
17.7291420898
 20
-0.4111486664
 10
17.7291420898
 20
-1.9111486206
 10
15.372
 20
-1.2682915573
  0
LWPOLYLINE
  5
33F
100
AcDbEntity
  8
0
100
AcDbPolyline
 62
7
  6
CONTINUOUS
 90
3
 70
0
 43
0.3500000019
 10
17.7291420898
 20
-2.7682915955
 10
17.7291420898
 20
-4.2682913818
 10
15.372
 20
-3.6254342346
  0
LWPOLYLINE
  5
340
100
AcDbEntity
  8
0
100
AcDbPolyline
 62
7
  6
CONTINUOUS
 90
6
 70
0
 43
0.3500000019
 10
18.3720029297
 20
2.1602799225
 10
18.3720029297
 20
3.2317085571
 10
18.1577177734
 20
3.4459940491
 10
17.0862866211
 20
3.4459940491
 10
16.6577163086
 20
3.0174227295
 10
16.6577163086
 20
2.5888514099
  0
LINE
  5
341
100
AcDbEntity
  8
ASSI
100
AcDbLine
 62
7
  6
CONTINUOUS
 10
7.7492217337
 20
22.1767354628
 11
7.3985317677
 21
22.1449023049
  0
LINE
  5
342
100
AcDbEntity
  8
ASSI
100
AcDbLine
 62
250
  6
CONTINUOUS
 10
-10.9657916858
 20
20.574159253
 11
-10.9214589867
 21
20.5756969538
  0
LINE
  5
343
100
AcDbEntity
  8
ASSI
100
AcDbLine
 62
250
  6
CONTINUOUS
 10
-10.9214589867
 20
20.5756969538
 11
-10.8732153594
 21
20.5770181829
  0
LINE
  5
344
100
AcDbEntity
  8
ASSI
100
AcDbLine
 62
250
  6
CONTINUOUS
 10
-10.8732153594
 20
20.5770181829
 11
-10.8216988262
 21
20.5781054671
  0
LINE
  5
345
100
AcDbEntity
  8
ASSI
100
AcDbLine
 62
250
  6
CONTINUOUS
 10
-10.8216988262
 20
20.5781054671
 11
-10.7675906935
 21
20.5789444272
  0
LINE
  5
346
100
AcDbEntity
  8
ASSI
100
AcDbLine
 62
250
  6
CONTINUOUS
 10
-10.7675906935
 20
20.5789444272
 11
-10.7116065418
 21
20.5795239677
  0
LINE
  5
347
100
AcDbEntity
  8
ASSI
100
AcDbLine
 62
250
  6
CONTINUOUS
 10
-10.7116065418
 20
20.5795239677
 11
-10.6544867618
 21
20.5798364244
  0
LINE
  5
348
100
AcDbEntity
  8
ASSI
100
AcDbLine
 62
250
  6
CONTINUOUS
 10
-10.6544867618
 20
20.5798364244
 11
10.5073302195
 21
20.579870588
  0
LINE
  5
349
100
AcDbEntity
  8
ASSI
100
AcDbLine
 62
250
  6
CONTINUOUS
 10
10.5647351338
 20
20.5797139398
 11
10.507330244
 21
20.5798910819
  0
LINE
  5
34A
100
AcDbEntity
  8
ASSI
100
AcDbLine
 62
250
  6
CONTINUOUS
 10
10.6213808429
 20
20.5792672015
 11
10.5647351338
 21
20.5797139398
  0
LINE
  5
34B
100
AcDbEntity
  8
ASSI
100
AcDbLine
 62
250
  6
CONTINUOUS
 10
10.6765182309
 20
20.5785567749
 11
10.6213808429
 21
20.5792672015
  0
LINE
  5
34C
100
AcDbEntity
  8
ASSI
100
AcDbLine
 62
250
  6
CONTINUOUS
 10
10.7294181048
 20
20.5775920556
 11
10.6765182309
 21
20.5785567749
  0
LINE
  5
34D
100
AcDbEntity
  8
ASSI
100
AcDbLine
 62
250
  6
CONTINUOUS
 10
10.7793808628
 20
20.5763858019
 11
10.7294181048
 21
20.5775920556
  0
LINE
  5
34E
100
AcDbEntity
  8
ASSI
100
AcDbLine
 62
7
  6
CONTINUOUS
 10
-7.8676282522
 20
22.1767354628
 11
-7.5169382861
 21
22.1449023049
  0
LWPOLYLINE
  5
34F
100
AcDbEntity
  8
ASSI
100
AcDbPolyline
 62
250
  6
CONTINUOUS
 90
15
 70
0
 10
11.0072540915
 20
-20.5244830994
 10
11.0059256187
 20
-20.5256656213
 10
11.0029472993
 20
-20.5268442302
 10
10.9983289886
 20
-20.5280150261
 10
10.9920859684
 20
-20.5291741349
 10
10.984238897
 20
-20.530317721
 10
10.9748137402
 20
-20.5314420004
 10
10.9638416856
 20
-20.5325432528
 10
10.9513590398
 20
-20.5336178341
 10
10.9374071076
 20
-20.5346621887
 10
10.9220320559
 20
-20.5356728608
 10
10.9052847605
 20
-20.536646506
 10
10.887220638
 20
-20.5375799025
 10
10.8678994624
 20
-20.5384699619
 10
10.8473851673
 20
-20.5393137388
  0
LINE
  5
350
100
AcDbEntity
  8
ASSI
100
AcDbLine
 62
7
  6
CONTINUOUS
 10
-3.4507782663
 20
22.1767354628
 11
-3.8014682323
 21
22.1449023049
  0
LINE
  5
351
100
AcDbEntity
  8
ASSI
100
AcDbLine
 62
250
  6
CONTINUOUS
 10
-10.6422638353
 20
22.0161488867
 11
10.5238573169
 21
22.0161488868
  0
LINE
  5
352
100
AcDbEntity
  8
ASSI
100
AcDbLine
 62
7
  6
CONTINUOUS
 10
7.2253266869
 20
22.1396615269
 11
3.8562667946
 21
22.1396615269
  0
LINE
  5
353
100
AcDbEntity
  8
ASSI
100
AcDbLine
 62
7
  6
CONTINUOUS
 10
-3.9746733131
 20
22.1396615269
 11
-7.3437332054
 21
22.1396615269
  0
LINE
  5
354
100
AcDbEntity
  8
ASSI
100
AcDbLine
 62
7
  6
CONTINUOUS
 10
10.5773426802
 20
22.1767354628
 11
7.7492217337
 21
22.1767354628
  0
LINE
  5
355
100
AcDbEntity
  8
ASSI
100
AcDbLine
 62
7
  6
CONTINUOUS
 10
3.3323717478
 20
22.1767354628
 11
-3.4507782663
 21
22.1767354628
  0
LINE
  5
356
100
AcDbEntity
  8
ASSI
100
AcDbLine
 62
7
  6
CONTINUOUS
 10
-7.8676282522
 20
22.1767354628
 11
-10.6957491986
 21
22.1767354628
  0
LWPOLYLINE
  5
357
100
AcDbEntity
  8
0
100
AcDbPolyline
 62
7
  6
CONTINUOUS
 90
7
 70
0
 43
0.3500000019
 10
-0.4877763672
 20
30.9282858887
 10
-1.9877724609
 20
30.9282858887
 10
-0.4877763672
 20
33.0711428223
 10
-0.4877763672
 20
33.4997131348
 10
-0.9163466797
 20
33.9282834473
 10
-1.5592021484
 20
33.9282834473
 10
-1.9877724609
 20
33.2854279785
  0
LWPOLYLINE
  5
358
100
AcDbEntity
  8
0
100
AcDbPolyline
 62
7
  6
CONTINUOUS
 90
7
 70
0
 43
0.3500000019
 10
-2.844918457
 20
30.9282858887
 10
-4.3449199219
 20
30.9282858887
 10
-2.844918457
 20
33.0711428223
 10
-2.844918457
 20
33.4997131348
 10
-3.2734887695
 20
33.9282834473
 10
-3.9163442383
 20
33.9282834473
 10
-4.3449199219
 20
33.2854279785
  0
LWPOLYLINE
  5
359
100
AcDbEntity
  8
0
100
AcDbPolyline
 62
7
  6
CONTINUOUS
 90
6
 70
0
 43
0.3500000019
 10
2.08365625
 20
30.9282858887
 10
3.1550820313
 20
30.9282858887
 10
3.3693671875
 20
31.1425710449
 10
3.3693671875
 20
32.2139995117
 10
2.940796875
 20
32.6425698242
 10
2.5122265625
 20
32.6425698242
  0
LINE
  5
35A
100
AcDbEntity
  8
ASSI
100
AcDbLine
 62
7
  6
CONTINUOUS
 10
3.3323717478
 20
22.1767354628
 11
3.6830617139
 21
22.1449023049
  0
LWPOLYLINE
  5
35B
100
AcDbEntity
  8
ASSI
100
AcDbPolyline
 62
250
  6
CONTINUOUS
 90
17
 70
0
 10
11.0072540915
 20
20.5593286136
 10
11.0059256372
 20
20.5605111361
 10
11.0029473348
 20
20.5616897457
 10
10.9983290395
 20
20.5628605423
 10
10.9920860333
 20
20.5640196517
 10
10.9842389741
 20
20.5651632386
 10
10.9748138279
 20
20.5662875187
 10
10.9638417824
 20
20.5673887719
 10
10.951359144
 20
20.5684633541
 10
10.9374072176
 20
20.5695077095
 10
10.92203217
 20
20.5705183823
 10
10.9052848772
 20
20.5714920283
 10
10.8872207558
 20
20.5724254257
 10
10.8678995798
 20
20.5733154858
 10
10.8473852829
 20
20.5741592635
 10
10.8257457466
 20
20.5749539667
 10
10.7793808628
 20
20.5763858019
  0
LINE
  5
35C
100
AcDbEntity
  8
ASSI
100
AcDbLine
 62
7
  6
CONTINUOUS
 10
-33.5586906942
 20
-21.9813033725
 11
-30.4945162854
 21
-22.1418899486
  0
LINE
  5
35D
100
AcDbEntity
  8
ASSI
100
AcDbLine
 62
250
  6
CONTINUOUS
 10
-33.5412662383
 20
-21.4819876975
 11
-30.4509516791
 21
-21.6439442208
  0
LINE
  5
35E
100
AcDbEntity
  8
ASSI
100
AcDbLine
 62
250
  6
CONTINUOUS
 10
-34.9781089913
 20
-20.5449909102
 11
-34.9789346894
 21
-20.5450455509
  0
LINE
  5
35F
100
AcDbEntity
  8
ASSI
100
AcDbLine
 62
250
  6
CONTINUOUS
 10
-34.9715147015
 20
-20.5446784535
 11
-34.9781089913
 21
-20.5449909102
  0
LINE
  5
360
100
AcDbEntity
  8
ASSI
100
AcDbLine
 62
250
  6
CONTINUOUS
 10
-34.488084294
 20
-20.5244830994
 11
-34.9715147015
 21
-20.5446784535
  0
LINE
  5
361
100
AcDbEntity
  8
ASSI
100
AcDbLine
 62
250
  6
CONTINUOUS
 10
-30.1019291243
 20
-17.9160688441
 11
-30.1248048452
 21
-17.91606885
  0
LWPOLYLINE
  5
362
100
AcDbEntity
  8
ASSI
100
AcDbPolyline
 62
250
  6
CONTINUOUS
 90
37
 70
0
 10
-34.488084294
 20
-20.5244830994
 10
-34.4855422805
 20
-20.5655319934
 10
-34.4813409057
 20
-20.6063107738
 10
-34.4754801696
 20
-20.6468194406
 10
-34.4679446804
 20
-20.6871264772
 10
-34.4587498299
 20
-20.7271634003
 10
-34.4479417935
 20
-20.7667247595
 10
-34.4355122913
 20
-20.8058073446
 10
-34.4214696033
 20
-20.844414366
 10
-34.4058847443
 20
-20.8823500038
 10
-34.3887500881
 20
-20.9196102668
 10
-34.370073261
 20
-20.9561991464
 10
-34.3499481573
 20
-20.9919327963
 10
-34.3283675271
 20
-21.0268069701
 10
-34.3053386202
 20
-21.0608259143
 10
-34.2809770803
 20
-21.0938185223
 10
-34.255276002
 20
-21.1257798454
 10
-34.2282422907
 20
-21.1567148322
 10
-34.2000123063
 20
-21.1864672218
 10
-34.1705799433
 20
-21.2150310108
 10
-34.1399513071
 20
-21.2424122026
 10
-34.1082810738
 20
-21.2684725472
 10
-34.0755641973
 20
-21.2932051978
 10
-34.0418057238
 20
-21.3166170011
 10
-34.0071754676
 20
-21.338590247
 10
-33.9716690934
 20
-21.3591177189
 10
-33.9352909366
 20
-21.3782066333
 10
-33.8982238178
 20
-21.3957609298
 10
-33.860463662
 20
-21.411773029
 10
-33.8220145442
 20
-21.4262505102
 10
-33.7830715108
 20
-21.4391200508
 10
-33.7436316115
 20
-21.4503733653
 10
-33.7036977965
 20
-21.4600187393
 10
-33.6634739621
 20
-21.4680077061
 10
-33.6230280736
 20
-21.4743241103
 10
-33.5822921657
 20
-21.4789841074
 10
-33.5412662383
 20
-21.4819876975
  0
LINE
  5
363
100
AcDbEntity
  8
CURVE
100
AcDbLine
 62
250
  6
CONTINUOUS
 10
-35.2139296824
 20
-13.6925771723
 11
-35.2476944352
 21
-12.4007478232
  0
LINE
  5
364
100
AcDbEntity
  8
CURVE
100
AcDbLine
 62
250
  6
CONTINUOUS
 10
-35.2478972967
 20
-12.3925773136
 11
-35.2476944352
 21
-12.4007478232
  0
LWPOLYLINE
  5
365
100
AcDbEntity
  8
ASSI
100
AcDbPolyline
 62
250
  6
CONTINUOUS
 90
8
 70
0
 10
-34.91030188
 20
0.1896664005
 10
-34.9101321123
 20
0.1826772607
 10
-34.9099450859
 20
0.176695551
 10
-34.9097418464
 20
0.1717547173
 10
-34.9095235301
 20
0.1678823852
 10
-34.9092913579
 20
0.1651002063
 10
-34.9090466278
 20
0.1634237366
 10
-34.9087907082
 20
0.1628623498
  0
LINE
  5
366
100
AcDbEntity
  8
ASSI
100
AcDbLine
 62
250
  6
CONTINUOUS
 10
-34.9105859438
 20
0.2065052424
 11
-34.91030188
 21
0.1896664005
  0
LINE
  5
367
100
AcDbEntity
  8
ASSI
100
AcDbLine
 62
250
  6
CONTINUOUS
 10
-34.9107909331
 20
0.2268359977
 11
-34.9105859438
 21
0.2065052424
  0
LINE
  5
368
100
AcDbEntity
  8
ASSI
100
AcDbLine
 62
250
  6
CONTINUOUS
 10
-34.9105358824
 20
-0.3280092201
 11
-34.9108950741
 21
-0.269065891
  0
LWPOLYLINE
  5
369
100
AcDbEntity
  8
ASSI
100
AcDbPolyline
 62
250
  6
CONTINUOUS
 90
13
 70
0
 10
-34.9105192637
 20
-0.3280090751
 10
-34.9065240405
 20
-2.0116481276
 10
-34.8968535978
 20
-3.6951887608
 10
-34.8815079358
 20
-5.3786309749
 10
-34.8604861515
 20
-7.061981275
 10
-34.8337891477
 20
-8.7452331558
 10
-34.8014196336
 20
-10.4283671017
 10
-34.7633785472
 20
-12.1113829785
 10
-34.7196649504
 20
-13.7942809203
 10
-34.6702787373
 20
-15.4770418145
 10
-34.6152198725
 20
-17.1596592904
 10
-34.5544883914
 20
-18.8421397186
 10
-34.488084294
 20
-20.5244830994
  0
LINE
  5
36A
100
AcDbEntity
  8
ASSI
100
AcDbLine
 62
250
  6
CONTINUOUS
 10
-34.9109406462
 20
0.2628673337
 11
-34.9107909331
 21
0.2268359977
  0
LINE
  5
36B
100
AcDbEntity
  8
ASSI
100
AcDbLine
 62
250
  6
CONTINUOUS
 10
-34.9108950741
 20
-0.269065891
 11
-34.910940647
 21
-0.2280217035
  0
LINE
  5
36C
100
AcDbEntity
  8
ASSI
100
AcDbLine
 62
250
  6
CONTINUOUS
 10
-34.9108950732
 20
0.3039114874
 11
-34.9109406462
 21
0.2628673337
  0
LINE
  5
36D
100
AcDbEntity
  8
ASSI
100
AcDbLine
 62
250
  6
CONTINUOUS
 10
-34.910940647
 20
-0.2280217035
 11
-34.9107909333
 21
-0.191990366
  0
LINE
  5
36E
100
AcDbEntity
  8
ASSI
100
AcDbLine
 62
250
  6
CONTINUOUS
 10
-34.9105358824
 20
0.3628547344
 11
-34.9108950732
 21
0.3039114874
  0
LINE
  5
36F
100
AcDbEntity
  8
ASSI
100
AcDbLine
 62
250
  6
CONTINUOUS
 10
-34.9107909333
 20
-0.191990366
 11
-34.9105859436
 21
-0.1716596265
  0
LWPOLYLINE
  5
370
100
AcDbEntity
  8
ASSI
100
AcDbPolyline
 62
250
  6
CONTINUOUS
 90
9
 70
0
 10
-34.9105859436
 20
-0.1716596265
 10
-34.9103018793
 20
-0.15482081
 10
-34.9101321115
 20
-0.1478316848
 10
-34.909945085
 20
-0.1418499901
 10
-34.9097418455
 20
-0.1369091707
 10
-34.9095235293
 20
-0.1330368514
 10
-34.9092913573
 20
-0.1302546828
 10
-34.9090466274
 20
-0.1285782199
 10
-34.9087907082
 20
-0.1280168355
  0
LINE
  5
371
100
AcDbEntity
  8
CURVE
100
AcDbLine
 62
250
  6
CONTINUOUS
 10
-35.2074831386
 20
13.9604560158
 11
-35.2592573755
 21
11.9610987911
  0
LWPOLYLINE
  5
372
100
AcDbEntity
  8
ASSI
100
AcDbPolyline
 62
250
  6
CONTINUOUS
 90
13
 70
0
 10
-34.488084294
 20
20.5593286136
 10
-34.5544883914
 20
18.8769852329
 10
-34.6152198725
 20
17.1945048046
 10
-34.6702787373
 20
15.5118873288
 10
-34.7196649504
 20
13.8291264345
 10
-34.7633785472
 20
12.1462284927
 10
-34.8014196336
 20
10.463212616
 10
-34.8337891477
 20
8.78007867
 10
-34.8604861515
 20
7.0968267892
 10
-34.8815079358
 20
5.4134764891
 10
-34.8968535978
 20
3.7300342751
 10
-34.9065240405
 20
2.0464936418
 10
-34.9105192637
 20
0.3628545894
  0
LWPOLYLINE
  5
373
100
AcDbEntity
  8
ASSI
100
AcDbPolyline
 62
250
  6
CONTINUOUS
 90
10
 70
0
 10
-33.55918746
 20
21.9338468965
 10
-33.5598312549
 20
21.9628932232
 10
-33.5600152629
 20
21.9751783368
 10
-33.5601064114
 20
21.9859143579
 10
-33.5601043924
 20
21.9950650013
 10
-33.5600092127
 20
22.00259934
 10
-33.5598211939
 20
22.0084919097
 10
-33.5595409717
 20
22.0127227949
 10
-33.5591694929
 20
22.0152776964
 10
-33.5587080132
 20
22.0161479791
  0
LWPOLYLINE
  5
374
100
AcDbEntity
  8
ASSI
100
AcDbPolyline
 62
250
  6
CONTINUOUS
 90
9
 70
0
 10
-33.5598312547
 20
-21.928047729
 10
-33.5600152625
 20
-21.9403328385
 10
-33.5601064109
 20
-21.9510688558
 10
-33.5601043919
 20
-21.9602194957
 10
-33.5600092122
 20
-21.9677538314
 10
-33.5598211935
 20
-21.9736463987
 10
-33.5595409713
 20
-21.9778772822
 10
-33.5591694927
 20
-21.9804321825
 10
-33.5587080132
 20
-21.9813024648
  0
LINE
  5
375
100
AcDbEntity
  8
ASSI
100
AcDbLine
 62
250
  6
CONTINUOUS
 10
-33.5591874601
 20
-21.8990014109
 11
-33.5598312547
 21
-21.928047729
  0
LINE
  5
376
100
AcDbEntity
  8
ASSI
100
AcDbLine
 62
250
  6
CONTINUOUS
 10
-33.5412662383
 20
21.5168332117
 11
-33.5483986069
 21
21.6599574126
  0
LINE
  5
377
100
AcDbEntity
  8
ASSI
100
AcDbLine
 62
250
  6
CONTINUOUS
 10
-33.5483986069
 20
21.6599574126
 11
-33.5531715864
 21
21.7663589842
  0
LINE
  5
378
100
AcDbEntity
  8
ASSI
100
AcDbLine
 62
250
  6
CONTINUOUS
 10
-33.5531715864
 20
21.7663589842
 11
-33.5560341693
 21
21.8376313442
  0
LINE
  5
379
100
AcDbEntity
  8
ASSI
100
AcDbLine
 62
250
  6
CONTINUOUS
 10
-33.5560341693
 20
21.8376313442
 11
-33.5581837228
 21
21.8991677242
  0
LINE
  5
37A
100
AcDbEntity
  8
ASSI
100
AcDbLine
 62
250
  6
CONTINUOUS
 10
-33.5581837228
 20
21.8991677242
 11
-33.55918746
 21
21.9338468965
  0
LINE
  5
37B
100
AcDbEntity
  8
ASSI
100
AcDbLine
 62
250
  6
CONTINUOUS
 10
-33.5581837233
 20
-21.8643222467
 11
-33.5591874601
 21
-21.8990014109
  0
LINE
  5
37C
100
AcDbEntity
  8
ASSI
100
AcDbLine
 62
250
  6
CONTINUOUS
 10
-33.5560341703
 20
-21.8027858757
 11
-33.5581837233
 21
-21.8643222467
  0
LINE
  5
37D
100
AcDbEntity
  8
ASSI
100
AcDbLine
 62
250
  6
CONTINUOUS
 10
-33.5531715878
 20
-21.7315135181
 11
-33.5560341703
 21
-21.8027858757
  0
LINE
  5
37E
100
AcDbEntity
  8
ASSI
100
AcDbLine
 62
250
  6
CONTINUOUS
 10
-33.5483986083
 20
-21.6251119355
 11
-33.5531715878
 21
-21.7315135181
  0
LINE
  5
37F
100
AcDbEntity
  8
ASSI
100
AcDbLine
 62
250
  6
CONTINUOUS
 10
-33.5412662383
 20
-21.4819876975
 11
-33.5483986083
 21
-21.6251119355
  0
LWPOLYLINE
  5
380
100
AcDbEntity
  8
0
100
AcDbPolyline
 62
7
  6
CONTINUOUS
 90
3
 70
0
 43
0.3500000019
 10
-21.5947514648
 20
31.2650373535
 10
-21.6661816406
 20
31.0507495117
 10
-21.8090366211
 20
30.7650368652
  0
LINE
  5
381
100
AcDbEntity
  8
ASSI
100
AcDbLine
 62
7
  6
CONTINUOUS
 10
-30.1019291243
 20
17.9509143583
 11
-30.1019291243
 21
17.6894436782
  0
LINE
  5
382
100
AcDbEntity
  8
ASSI
100
AcDbLine
 62
7
  6
CONTINUOUS
 10
-30.1019291243
 20
-17.654598164
 11
-30.1019291243
 21
-17.9160688441
  0
LINE
  5
383
100
AcDbEntity
  8
ASSI
100
AcDbLine
 62
7
  6
CONTINUOUS
 10
-29.7019291243
 20
-0.0825772429
 11
-35.2035532747
 21
-0.1305891895
  0
LINE
  5
384
100
AcDbEntity
  8
ASSI
100
AcDbLine
 62
250
  6
CONTINUOUS
 10
-29.7019291243
 20
-0.2825543976
 11
-35.4018079176
 21
-0.3307208395
  0
LINE
  5
385
100
AcDbEntity
  8
ASSI
100
AcDbLine
 62
7
  6
CONTINUOUS
 10
-35.2035532759
 20
0.1654347037
 11
-29.7019291243
 21
0.1174227571
  0
LINE
  5
386
100
AcDbEntity
  8
ASSI
100
AcDbLine
 62
7
  6
CONTINUOUS
 10
-29.7019291243
 20
13.1174227571
 11
-30.4945162854
 21
22.1767354628
  0
LINE
  5
387
100
AcDbEntity
  8
ASSI
100
AcDbLine
 62
7
  6
CONTINUOUS
 10
-29.7019291243
 20
-0.0825772429
 11
-29.7019291243
 21
-13.0825772429
  0
LINE
  5
388
100
AcDbEntity
  8
ASSI
100
AcDbLine
 62
7
  6
CONTINUOUS
 10
-29.7019291243
 20
0.1174227571
 11
-29.7019291243
 21
13.1174227571
  0
LINE
  5
389
100
AcDbEntity
  8
ASSI
100
AcDbLine
 62
7
  6
CONTINUOUS
 10
-29.7019291243
 20
-13.0825772429
 11
-30.4945162854
 21
-22.1418899486
  0
LINE
  5
38A
100
AcDbEntity
  8
ASSI
100
AcDbLine
 62
250
  6
CONTINUOUS
 10
-35.4018079176
 20
0.3655663538
 11
-29.7019291243
 21
0.3173999118
  0
LWPOLYLINE
  5
38B
100
AcDbEntity
  8
0
100
AcDbPolyline
 62
7
  6
CONTINUOUS
 90
4
 70
0
 43
0.3500000019
 10
-20.5947504883
 20
33.3364641113
 10
-20.5947504883
 20
33.9793222656
 10
-19.0947490234
 20
33.9793222656
 10
-19.9518950195
 20
30.9793220215
  0
LINE
  5
38C
100
AcDbEntity
  8
ASSI
100
AcDbLine
 62
250
  6
CONTINUOUS
 10
-30.1019291243
 20
17.9509143583
 11
-30.1248048446
 21
17.9509143583
  0
LWPOLYLINE
  5
38D
100
AcDbEntity
  8
ASSI
100
AcDbPolyline
 62
250
  6
CONTINUOUS
 90
37
 70
0
 10
-33.5412662383
 20
21.5168332117
 10
-33.5822921652
 20
21.5138296217
 10
-33.6230280729
 20
21.5091696247
 10
-33.6634739611
 20
21.5028532205
 10
-33.7036977955
 20
21.4948642537
 10
-33.7436316106
 20
21.4852188798
 10
-33.7830715099
 20
21.4739655653
 10
-33.8220145434
 20
21.4610960247
 10
-33.8604636612
 20
21.4466185435
 10
-33.898223817
 20
21.4306064444
 10
-33.9352909358
 20
21.413052148
 10
-33.9716690926
 20
21.3939632336
 10
-34.0071754668
 20
21.3734357617
 10
-34.041805723
 20
21.3514625159
 10
-34.0755641966
 20
21.3280507125
 10
-34.1082810731
 20
21.3033180619
 10
-34.1399513064
 20
21.2772577174
 10
-34.1705799427
 20
21.2498765256
 10
-34.2000123057
 20
21.2213127367
 10
-34.2282422902
 20
21.191560347
 10
-34.2552760015
 20
21.1606253602
 10
-34.2809770798
 20
21.1286640372
 10
-34.3053386197
 20
21.0956714292
 10
-34.3283675266
 20
21.061652485
 10
-34.3499481569
 20
21.0267783112
 10
-34.3700732607
 20
20.9910446613
 10
-34.3887500878
 20
20.9544557817
 10
-34.405884744
 20
20.9171955187
 10
-34.421469603
 20
20.8792598809
 10
-34.4355122911
 20
20.8406528596
 10
-34.4479417932
 20
20.8015702744
 10
-34.4587498297
 20
20.7620089152
 10
-34.4679446802
 20
20.7219719922
 10
-34.4754801695
 20
20.6816649555
 10
-34.4813409056
 20
20.6411562886
 10
-34.4855422805
 20
20.6003775079
 10
-34.488084294
 20
20.5593286136
  0
LINE
  5
38E
100
AcDbEntity
  8
ASSI
100
AcDbLine
 62
250
  6
CONTINUOUS
 10
-30.4509516791
 20
21.678789735
 11
-33.5412662383
 21
21.5168332117
  0
LINE
  5
38F
100
AcDbEntity
  8
ASSI
100
AcDbLine
 62
7
  6
CONTINUOUS
 10
-30.4945162854
 20
22.1767354628
 11
-33.5586906934
 21
22.0161488868
  0
LWPOLYLINE
  5
390
100
AcDbEntity
  8
0
100
AcDbPolyline
 62
7
  6
CONTINUOUS
 90
8
 70
0
 43
0.3500000019
 10
-24.451894043
 20
30.9793220215
 10
-23.594753418
 20
30.9793220215
 10
-23.1661777344
 20
31.407892334
 10
-23.1661777344
 20
32.2650356445
 10
-23.594753418
 20
32.6936086426
 10
-24.451894043
 20
32.6936086426
 10
-24.451894043
 20
33.9793222656
 10
-23.1661777344
 20
33.9793222656
  0
LWPOLYLINE
  5
391
100
AcDbEntity
  8
ASSI
100
AcDbPolyline
 62
250
  6
CONTINUOUS
 90
4
 70
0
 10
-34.488084294
 20
20.5593286136
 10
-34.9756333338
 20
20.5797139398
 10
-34.9781093972
 20
20.579836441
 10
-34.9789350965
 20
20.5798910819
  0
LWPOLYLINE
  5
392
100
AcDbEntity
  8
0
100
AcDbPolyline
 62
7
  6
CONTINUOUS
 90
10
 70
0
 43
0.3500000019
 10
-21.6661816406
 20
31.4793225098
 10
-21.5947514648
 20
31.3364648438
 10
-21.5947514648
 20
31.2650373535
 10
-21.7376064453
 20
31.1221796875
 10
-21.8090366211
 20
31.1221796875
 10
-21.8804667969
 20
31.1936071777
 10
-21.8804667969
 20
31.2650373535
 10
-21.8090366211
 20
31.407892334
 10
-21.7376064453
 20
31.4793225098
 10
-21.6661816406
 20
31.4793225098
  0
ARC
  5
393
100
AcDbEntity
  8
ASSI
100
AcDbCircle
 62
7
  6
CONTINUOUS
 10
-0.0592032592
 20
0.0174227571
 40
1.375
100
AcDbArc
 50
195.3271627815
 51
344.6728372185
  0
ARC
  5
394
100
AcDbEntity
  8
ASSI
100
AcDbCircle
 62
7
  6
CONTINUOUS
 10
-0.0592032592
 20
0.0174227571
 40
1.375
100
AcDbArc
 50
15.3271627815
 51
164.6728372185
  0
ARC
  5
395
100
AcDbEntity
  8
ASSI
100
AcDbCircle
 62
7
  6
CONTINUOUS
 10
-33.4802040788
 20
-20.4833581627
 40
1.5
100
AcDbArc
 50
182.3561664986
 51
267.000662446
  0
ARC
  5
396
100
AcDbEntity
  8
ASSI
100
AcDbCircle
 62
7
  6
CONTINUOUS
 10
-30.4019291243
 20
-17.9160688441
 40
0.3
100
AcDbArc
 50
335.0
 51
360.0
  0
ARC
  5
397
100
AcDbEntity
  8
ASSI
100
AcDbCircle
 62
7
  6
CONTINUOUS
 10
-35.201807457
 20
-0.3305815696
 40
0.2
100
AcDbArc
 50
90.5001462858
 51
180.0398957513
  0
ARC
  5
398
100
AcDbEntity
  8
ASSI
100
AcDbCircle
 62
7
  6
CONTINUOUS
 10
-33.4802040788
 20
20.518203677
 40
1.5
100
AcDbArc
 50
92.999337554
 51
177.6438335014
  0
ARC
  5
399
100
AcDbEntity
  8
ASSI
100
AcDbCircle
 62
7
  6
CONTINUOUS
 10
-30.4019291243
 20
17.9509143583
 40
0.3
100
AcDbArc
 50
0.0
 51
25.0
  0
ARC
  5
39A
100
AcDbEntity
  8
ASSI
100
AcDbCircle
 62
7
  6
CONTINUOUS
 10
-35.201807457
 20
0.3654270839
 40
0.2
100
AcDbArc
 50
179.9601042487
 51
269.4998537142
  0
ARC
  5
39B
100
AcDbEntity
  8
ASSI
100
AcDbCircle
 62
7
  6
CONTINUOUS
 10
464.5980708757
 20
0.0174227571
 40
500.0
100
AcDbArc
 50
177.6430523596
 51
179.9601056801
  0
ARC
  5
39C
100
AcDbEntity
  8
CURVE
100
AcDbCircle
 62
250
  6
CONTINUOUS
 10
464.5980708757
 20
0.0174227571
 40
500.0
100
AcDbArc
 50
178.2181683708
 51
178.2724642242
  0
ARC
  5
39D
100
AcDbEntity
  8
ASSI
100
AcDbCircle
 62
7
  6
CONTINUOUS
 10
464.5980708757
 20
0.0174227571
 40
500.0
100
AcDbArc
 50
180.0398943199
 51
182.3569476404
  0
ARC
  5
39E
100
AcDbEntity
  8
CURVE
100
AcDbCircle
 62
250
  6
CONTINUOUS
 10
464.5980708757
 20
0.0174227571
 40
500.0
100
AcDbArc
 50
181.6972290601
 51
181.8347960037
  0
ELLIPSE
  5
39F
100
AcDbEntity
  8
ASSI
100
AcDbEllipse
 62
7
  6
CONTINUOUS
 10
-7.3437332054
 20
-22.1152975685
 30
0.0
 11
0.2
 21
0.0
 31
0.0
 40
0.0524077793
 41
1.5707963268
 42
2.617993878
  0
ELLIPSE
  5
3A0
100
AcDbEntity
  8
ASSI
100
AcDbEllipse
 62
7
  6
CONTINUOUS
 10
-3.9746733131
 20
-22.1152975685
 30
0.0
 11
0.2
 21
0.0
 31
0.0
 40
0.0524077793
 41
0.5235987756
 42
1.5707963268
  0
ELLIPSE
  5
3A1
100
AcDbEntity
  8
ASSI
100
AcDbEllipse
 62
7
  6
CONTINUOUS
 10
3.8562667946
 20
-22.1152975685
 30
0.0
 11
0.2
 21
0.0
 31
0.0
 40
0.0524077793
 41
1.5707963268
 42
2.617993878
  0
ELLIPSE
  5
3A2
100
AcDbEntity
  8
ASSI
100
AcDbEllipse
 62
7
  6
CONTINUOUS
 10
7.2253266869
 20
-22.1152975685
 30
0.0
 11
0.2
 21
0.0
 31
0.0
 40
0.0524077793
 41
0.5235987756
 42
1.5707963268
  0
ELLIPSE
  5
3A3
100
AcDbEntity
  8
ASSI
100
AcDbEllipse
 62
7
  6
CONTINUOUS
 10
10.8907662752
 20
-0.2825848586
 30
0.0
 11
0.1789222233
 21
0.0894542984
 31
0.0
 40
0.9998096356
 41
-0.4635410001
 42
1.1071030277
  0
ELLIPSE
  5
3A4
100
AcDbEntity
  8
ASSI
100
AcDbEllipse
 62
7
  6
CONTINUOUS
 10
-11.0091727936
 20
-0.2825848586
 30
0.0
 11
0.1789222233
 21
-0.0894542984
 31
0.0
 40
0.9998096356
 41
2.0344896259
 42
3.6051336537
  0
ELLIPSE
  5
3A5
100
AcDbEntity
  8
ASSI
100
AcDbEllipse
 62
7
  6
CONTINUOUS
 10
10.5776470346
 20
-21.6434889872
 30
0.0
 11
0.498078285
 21
0.0448076117
 31
0.0
 40
0.9965957691
 41
-1.6608206152
 42
-0.0909376769
  0
ELLIPSE
  5
3A6
100
AcDbEntity
  8
ASSI
100
AcDbEllipse
 62
7
  6
CONTINUOUS
 10
-10.6960535531
 20
-21.6434889872
 30
0.0
 11
0.498078285
 21
-0.0448076117
 31
0.0
 40
0.9965957691
 41
-3.0506549766
 42
-1.4807720384
  0
ELLIPSE
  5
3A7
100
AcDbEntity
  8
ASSI
100
AcDbEllipse
 62
7
  6
CONTINUOUS
 10
7.2253266869
 20
22.1501430828
 30
0.0
 11
0.2
 21
-0.0
 31
0.0
 40
0.0524077793
 41
-1.5707963268
 42
-0.5235987756
  0
ELLIPSE
  5
3A8
100
AcDbEntity
  8
ASSI
100
AcDbEllipse
 62
7
  6
CONTINUOUS
 10
3.8562667946
 20
22.1501430828
 30
0.0
 11
0.2
 21
-0.0
 31
0.0
 40
0.0524077793
 41
-2.617993878
 42
-1.5707963268
  0
ELLIPSE
  5
3A9
100
AcDbEntity
  8
ASSI
100
AcDbEllipse
 62
7
  6
CONTINUOUS
 10
-3.9746733131
 20
22.1501430828
 30
0.0
 11
0.2
 21
0.0
 31
0.0
 40
0.0524077793
 41
-1.5707963268
 42
-0.5235987756
  0
ELLIPSE
  5
3AA
100
AcDbEntity
  8
ASSI
100
AcDbEllipse
 62
7
  6
CONTINUOUS
 10
-7.3437332054
 20
22.1501430828
 30
0.0
 11
0.2
 21
0.0
 31
0.0
 40
0.0524077793
 41
-2.617993878
 42
-1.5707963268
  0
ELLIPSE
  5
3AB
100
AcDbEntity
  8
ASSI
100
AcDbEllipse
 62
7
  6
CONTINUOUS
 10
-11.0091727936
 20
0.3174303728
 30
0.0
 11
0.1789222233
 21
0.0894542984
 31
0.0
 40
0.9998096356
 41
2.6780516535
 42
4.2486956813
  0
ELLIPSE
  5
3AC
100
AcDbEntity
  8
ASSI
100
AcDbEllipse
 62
7
  6
CONTINUOUS
 10
10.8907662752
 20
0.3174303728
 30
0.0
 11
0.1789222233
 21
-0.0894542984
 31
0.0
 40
0.9998096356
 41
-1.1071030277
 42
0.4635410001
  0
ELLIPSE
  5
3AD
100
AcDbEntity
  8
ASSI
100
AcDbEllipse
 62
7
  6
CONTINUOUS
 10
-10.6960535531
 20
21.6783345014
 30
0.0
 11
0.498078285
 21
0.0448076117
 31
0.0
 40
0.9965957691
 41
1.4807720384
 42
3.0506549766
  0
ELLIPSE
  5
3AE
100
AcDbEntity
  8
ASSI
100
AcDbEllipse
 62
7
  6
CONTINUOUS
 10
10.5776470346
 20
21.6783345014
 30
0.0
 11
0.498078285
 21
-0.0448076117
 31
0.0
 40
0.9965957691
 41
0.0909376769
 42
1.6608206152
  0
ELLIPSE
  5
3AF
100
AcDbEntity
  8
CURVE
100
AcDbEllipse
 62
250
  6
CONTINUOUS
 10
464.5980708757
 20
0.0174227571
 30
0.0
 11
500.0
 21
0.0
 31
0.0
 40
1.0
 41
3.1186463423
 42
3.1206661445
  0
ELLIPSE
  5
3B0
100
AcDbEntity
  8
CURVE
100
AcDbEllipse
 62
250
  6
CONTINUOUS
 10
464.5980708757
 20
0.0174227571
 30
0.0
 11
0.0
 21
500.0
 31
0.0
 40
1.0
 41
1.5393426192
 42
1.5419627735
  0
ENDSEC
  0
SECTION
  2
OBJECTS
  0
DICTIONARY
  5
C
100
AcDbDictionary
280
0
281
1
  3
ACAD_GROUP
350
D
  3
ACAD_MLINESTYLE
350
17
  3
ACAD_LAYOUT
350
1A
  3
ACAD_PLOTSETTINGS
350
19
  3
ACAD_PLOTSTYLENAME
350
E
  0
DICTIONARY
  5
D
102
{ACAD_REACTORS
330
C
102
}
100
AcDbDictionary
280
0
281
1
  0
ACDBDICTIONARYWDFLT
  5
E
102
{ACAD_REACTORS
330
C
102
}
100
AcDbDictionary
281
1
  3
Normal
350
F
100
AcDbDictionaryWithDefault
340
F
  0
DICTIONARY
  5
17
102
{ACAD_REACTORS
330
C
102
}
100
AcDbDictionary
280
0
281
1
  3
Standard
350
18
  0
DICTIONARY
  5
19
102
{ACAD_REACTORS
330
C
102
}
100
AcDbDictionary
281
1
  0
DICTIONARY
  5
1A
102
{ACAD_REACTORS
330
C
102
}
100
AcDbDictionary
281
1
  3
Model
350
3B1
  3
Layout1
350
3B2
  0
ACDBPLACEHOLDER
  5
F
102
{ACAD_REACTORS
330
E
102
}
  0
MLINESTYLE
  5
18
102
{ACAD_REACTORS
330
17
102
}
100
AcDbMlineStyle
  2
STANDARD
 70
0
  3

 62
256
 51
90.0
 52
90.0
 71
2
 49
0.5
 62
256
  6
BYLAYER
 49
-0.5
 62
256
  6
BYLAYER
  0
LAYOUT
  5
3B1
102
{ACAD_REACTORS
330
1A
102
}
100
AcDbPlotSettings
  1

  2
none_device
  4

  6

 40
0.0
 41
0.0
 42
0.0
 43
0.0
 44
210.0
 45
297.0
 46
0.0
 47
0.0
 48
0.0
 49
0.0
140
0.0
141
0.0
142
1.0
143
1.0
 70
1024
 72
1
 73
0
 74
0
  7

 75
0
147
1.0
148
0.0
149
0.0
100
AcDbLayout
  1
Model
 70
0
 71
0
 10
0.0
 20
0.0
 11
210.0
 21
297.0
 12
0.0
 22
0.0
 32
0.0
 14
0.0
 24
0.0
 34
0.0
 15
0.0
 25
0.0
 35
0.0
146
0.0
 13
0.0
 23
0.0
 33
0.0
 16
1.0
 26
0.0
 36
0.0
 17
0.0
 27
1.0
 37
0.0
 76
0
330
217
345
0
346
0
  0
LAYOUT
  5
3B2
102
{ACAD_REACTORS
330
1A
102
}
100
AcDbPlotSettings
  1

  2
none_device
  4

  6

 40
0.0
 41
0.0
 42
0.0
 43
0.0
 44
210.0
 45
297.0
 46
0.0
 47
0.0
 48
0.0
 49
0.0
140
0.0
141
0.0
142
1.0
143
1.0
 70
0
 72
1
 73
0
 74
0
  7

 75
0
147
1.0
148
0.0
149
0.0
100
AcDbLayout
  1
Layout1
 70
0
 71
1
 10
0.0
 20
0.0
 11
210.0
 21
297.0
 12
0.0
 22
0.0
 32
0.0
 14
0.0
 24
0.0
 34
0.0
 15
0.0
 25
0.0
 35
0.0
146
0.0
 13
0.0
 23
0.0
 33
0.0
 16
1.0
 26
0.0
 36
0.0
 17
0.0
 27
1.0
 37
0.0
 76
0
330
218
345
0
346
0
  0
ENDSEC
  0
EOF
