  0
SECTION
  2
HEADER
  9
$ACADVER
  1
AC1015
  9
$DWGCODEPAGE
  3
ANSI_1252
  9
$EXTMAX
 10
297.0
 20
210.0
 30
0.0
  9
$EXTMIN
 10
0.0
 20
0.0
 30
0.0
  9
$LIMMIN
 10
0.0
 20
0.0
  9
$LIMMAX
 10
297.0
 20
210.0
  9
$VIEWCTR
 10
148.5
 20
105.0
  9
$VIEWSIZE
 40
210.0
  9
$CLAYER
  8
0
  9
$LTSCALE
 40
16.335
  9
$CELTYPE
  6
BYLAYER
  9
$DIMSCALE
 40
1.0
  9
$DIMASZ
 40
3.0
  9
$DIMEXO
 40
1.85625
  9
$DIMDLI
 40
11.286
  9
$DIMEXE
 40
5.346
  9
$DIMCEN
 40
2.673
  9
$DIMLFAC
 40
1.0
  9
$DIMBLK
  1
_FILLED
  9
$DIMTXT
 40
3.0
  9
$DIMTOL
 70
1
  9
$DIMLIM
 70
0
  9
$DIMTFAC
 40
1.0
  9
$DIMTP
 40
0.01
  9
$DIMTM
 40
0.01
  9
$PDMODE
 70
3
  9
$PDSIZE
 40
3.0
  9
$HANDSEED
  5
7C6
  9
$TILEMODE
 70
1
  9
$MEASUREMENT
 70
1
  9
$INSUNITS
 70
4
  0
ENDSEC
  0
SECTION
  2
CLASSES
  0
CLASS
  1
ACDBDICTIONARYWDFLT
  2
AcDbDictionaryWithDefault
  3
AutoCAD 2000
 90
0
280
0
281
0
  0
CLASS
  1
ACDBPLACEHOLDER
  2
AcDbPlaceHolder
  3
AutoCAD 2000
 90
0
280
0
281
0
  0
CLASS
  1
LAYOUT
  2
AcDbLayout
  3
AutoCAD 2000
 90
0
280
0
281
0
  0
ENDSEC
  0
SECTION
  2
TABLES
  0
TABLE
  2
VPORT
  5
8
100
AcDbSymbolTable
 70
2
  0
VPORT
  5
1F4
100
AcDbSymbolTableRecord
100
AcDbViewportTableRecord
  2
*ACTIVE
 70
0
 10
0.0
 20
0.0
 11
1.0
 21
1.0
 12
148.5
 22
105.0
 13
0.0
 23
0.0
 14
1.0
 24
1.0
 15
0.0
 25
0.0
 16
0.0
 26
0.0
 36
1.0
 17
0.0
 27
0.0
 37
0.0
 40
210.0
 41
1.4142857143
 42
50.0
 43
0.0
 44
0.0
 50
0.0
 51
0.0
 71
0
 72
100
 73
1
 74
1
 75
0
 76
0
 77
0
 78
0
  0
ENDTAB
  0
TABLE
  2
LTYPE
  5
5
100
AcDbSymbolTable
 70
6
  0
LTYPE
  5
14
100
AcDbSymbolTableRecord
100
AcDbLinetypeTableRecord
  2
BYBLOCK
 70
0
  3

 72
65
 73
0
 40
0.0
  0
LTYPE
  5
15
100
AcDbSymbolTableRecord
100
AcDbLinetypeTableRecord
  2
BYLAYER
 70
0
  3

 72
65
 73
0
 40
0.0
  0
LTYPE
  5
16
100
AcDbSymbolTableRecord
100
AcDbLinetypeTableRecord
  2
CONTINUOUS
 70
64
  3
Solid line
 72
65
 73
0
 40
0.0
  0
LTYPE
  5
1F5
100
AcDbSymbolTableRecord
100
AcDbLinetypeTableRecord
  2
CENTER
 70
64
  3
____ _ ____ _ ____ _ ____ _ ____ _ ____ _ ____
 72
65
 73
4
 40
0.6
 49
0.375
 74
0
 49
-0.075
 74
0
 49
0.075
 74
0
 49
-0.075
 74
0
  0
LTYPE
  5
1F6
100
AcDbSymbolTableRecord
100
AcDbLinetypeTableRecord
  2
HIDDEN
 70
64
  3
- - - - - - - - - - - - - - - - - - - -
 72
65
 73
2
 40
0.2
 49
0.1
 74
0
 49
-0.1
 74
0
  0
LTYPE
  5
1F7
100
AcDbSymbolTableRecord
100
AcDbLinetypeTableRecord
  2
PHANTOM
 70
64
  3
_____ _ _ _____ _ _ _____ _ _ _____
 72
65
 73
6
 40
0.8
 49
0.45
 74
0
 49
-0.05
 74
0
 49
0.1
 74
0
 49
-0.05
 74
0
 49
0.1
 74
0
 49
-0.05
 74
0
  0
LTYPE
  5
1F8
100
AcDbSymbolTableRecord
100
AcDbLinetypeTableRecord
  2
DOT
 70
64
  3
. . . . . . . . . . . . . . . . . . . .
 72
65
 73
2
 40
0.2
 49
0.1
 74
0
 49
-0.1
 74
0
  0
LTYPE
  5
1F9
100
AcDbSymbolTableRecord
100
AcDbLinetypeTableRecord
  2
DASHED
 70
64
  3
- - - - - - - - - - - - - - - - - - - -
 72
65
 73
2
 40
0.2
 49
0.1
 74
0
 49
-0.1
 74
0
  0
ENDTAB
  0
TABLE
  2
LAYER
  5
2
100
AcDbSymbolTable
 70
36
  0
LAYER
  5
10
100
AcDbSymbolTableRecord
100
AcDbLayerTableRecord
  2
0
 70
0
 62
7
  6
CONTINUOUS
370
-3
390
F
  0
LAYER
  5
1FA
100
AcDbSymbolTableRecord
100
AcDbLayerTableRecord
  2
DEFAULT_1
 70
0
 62
7
  6
CENTER
370
-3
390
F
  0
LAYER
  5
1FB
100
AcDbSymbolTableRecord
100
AcDbLayerTableRecord
  2
DEFAULT_2
 70
0
 62
7
  6
HIDDEN
370
-3
390
F
  0
LAYER
  5
1FC
100
AcDbSymbolTableRecord
100
AcDbLayerTableRecord
  2
DEFAULT_3
 70
0
 62
7
  6
PHANTOM
370
-3
390
F
  0
LAYER
  5
1FD
100
AcDbSymbolTableRecord
100
AcDbLayerTableRecord
  2
ASSI
 70
0
 62
7
  6
CONTINUOUS
370
-3
390
F
  0
LAYER
  5
1FE
100
AcDbSymbolTableRecord
100
AcDbLayerTableRecord
  2
COORDINATE
 70
0
 62
7
  6
CONTINUOUS
370
-3
390
F
  0
LAYER
  5
1FF
100
AcDbSymbolTableRecord
100
AcDbLayerTableRecord
  2
COORD_ORIGINE
 70
0
 62
7
  6
CONTINUOUS
370
-3
390
F
  0
LAYER
  5
200
100
AcDbSymbolTableRecord
100
AcDbLayerTableRecord
  2
COSMETICI
 70
0
 62
7
  6
CONTINUOUS
370
-3
390
F
  0
LAYER
  5
201
100
AcDbSymbolTableRecord
100
AcDbLayerTableRecord
  2
CURVE
 70
0
 62
7
  6
CONTINUOUS
370
-3
390
F
  0
LAYER
  5
202
100
AcDbSymbolTableRecord
100
AcDbLayerTableRecord
  2
DRAFT
 70
0
 62
7
  6
CONTINUOUS
370
-3
390
F
  0
LAYER
  5
203
100
AcDbSymbolTableRecord
100
AcDbLayerTableRecord
  2
NOTE
 70
0
 62
7
  6
CONTINUOUS
370
-3
390
F
  0
LAYER
  5
204
100
AcDbSymbolTableRecord
100
AcDbLayerTableRecord
  2
PIANI
 70
0
 62
7
  6
CONTINUOUS
370
-3
390
F
  0
LAYER
  5
205
100
AcDbSymbolTableRecord
100
AcDbLayerTableRecord
  2
PIANI_ORIGINE
 70
0
 62
7
  6
CONTINUOUS
370
-3
390
F
  0
LAYER
  5
206
100
AcDbSymbolTableRecord
100
AcDbLayerTableRecord
  2
PUNTI
 70
0
 62
7
  6
CONTINUOUS
370
-3
390
F
  0
LAYER
  5
207
100
AcDbSymbolTableRecord
100
AcDbLayerTableRecord
  2
RACCORDO
 70
0
 62
7
  6
CONTINUOUS
370
-3
390
F
  0
LAYER
  5
208
100
AcDbSymbolTableRecord
100
AcDbLayerTableRecord
  2
SNAPLINE
 70
0
 62
7
  6
CONTINUOUS
370
-3
390
F
  0
LAYER
  5
209
100
AcDbSymbolTableRecord
100
AcDbLayerTableRecord
  2
TRASH
 70
0
 62
7
  6
CONTINUOUS
370
-3
390
F
  0
LAYER
  5
20A
100
AcDbSymbolTableRecord
100
AcDbLayerTableRecord
  2
XSEC_DATUMS
 70
0
 62
7
  6
CONTINUOUS
370
-3
390
F
  0
ENDTAB
  0
TABLE
  2
STYLE
  5
3
100
AcDbSymbolTable
 70
1
  0
STYLE
  5
11
100
AcDbSymbolTableRecord
100
AcDbTextStyleTableRecord
  2
STANDARD
 70
0
 40
0.0
 41
0.8
 50
0.0
 71
0
 42
0.2
  3
txt
  4

  0
STYLE
  5
20B
100
AcDbSymbolTableRecord
100
AcDbTextStyleTableRecord
  2
TEXTSTYLE_1
 70
0
 40
0.0
 41
0.8
 50
0.0
 71
0
 42
0.2
  3
gdt
  4

  0
ENDTAB
  0
TABLE
  2
VIEW
  5
6
100
AcDbSymbolTable
 70
0
  0
ENDTAB
  0
TABLE
  2
UCS
  5
7
100
AcDbSymbolTable
 70
0
  0
ENDTAB
  0
TABLE
  2
APPID
  5
9
100
AcDbSymbolTable
 70
1
  0
APPID
  5
20C
100
AcDbSymbolTableRecord
100
AcDbRegAppTableRecord
  2
ACAD
 70
0
  0
ENDTAB
  0
TABLE
  2
BLOCK_RECORD
  5
1
100
AcDbSymbolTable
 70
0
  0
BLOCK_RECORD
  5
20D
100
AcDbSymbolTableRecord
100
AcDbBlockTableRecord
  2
*Model_Space
  0
BLOCK_RECORD
  5
20E
100
AcDbSymbolTableRecord
100
AcDbBlockTableRecord
  2
*Paper_Space
  0
BLOCK_RECORD
  5
20F
100
AcDbSymbolTableRecord
100
AcDbBlockTableRecord
  2
_FILLED
  0
BLOCK_RECORD
  5
210
100
AcDbSymbolTableRecord
100
AcDbBlockTableRecord
  2
*D0
  0
BLOCK_RECORD
  5
211
100
AcDbSymbolTableRecord
100
AcDbBlockTableRecord
  2
*D1
  0
BLOCK_RECORD
  5
212
100
AcDbSymbolTableRecord
100
AcDbBlockTableRecord
  2
*D2
  0
BLOCK_RECORD
  5
213
100
AcDbSymbolTableRecord
100
AcDbBlockTableRecord
  2
*D3
  0
ENDTAB
  0
TABLE
  2
DIMSTYLE
  5
A
100
AcDbSymbolTable
 70
1
100
AcDbDimStyleTable
 71
0
  0
DIMSTYLE
105
214
100
AcDbSymbolTableRecord
100
AcDbDimStyleTableRecord
  2
STANDARD
 70
0
  3

  4

 40
1.0
 41
3.0
 42
0.0625
 43
0.38
 44
0.18
 45
0.0
 46
0.0
 47
0.01
 48
0.01
140
3.0
141
0.09
142
0.0
143
25.4
144
1.0
145
0.0
146
1.0
147
0.09
 71
1.0
 72
0.0
 73
0
 74
0
 75
0
 76
0
 77
1
 78
8
170
0
171
2
172
0
173
0
174
0
175
0
176
0
177
0
178
0
270
2
271
2
272
2
273
2
274
2
275
0
280
0
281
0
282
0
283
1
284
8
285
0
286
0
287
3
288
0
340
11
341
20F
342
20F
343
20F
344
20F
  0
DIMSTYLE
105
215
100
AcDbSymbolTableRecord
100
AcDbDimStyleTableRecord
  2
DIMSTYLE_1
 70
0
  3

  4

 40
1.0
 41
3.0
 42
0.0625
 43
0.38
 44
0.18
 45
0.0
 46
0.0
 47
0.0
 48
0.0
140
3.0
141
0.09
142
0.0
143
25.4
144
1.0
145
0.0
146
1.0
147
0.09
 71
0.0
 72
0.0
 73
0
 74
0
 75
0
 76
0
 77
1
 78
8
170
0
171
2
172
0
173
0
174
0
175
0
176
0
177
0
178
0
270
2
271
1
272
1
273
2
274
2
275
0
280
0
281
0
282
0
283
1
284
8
285
0
286
0
287
3
288
0
340
11
341
20F
342
20F
343
20F
344
20F
  0
DIMSTYLE
105
216
100
AcDbSymbolTableRecord
100
AcDbDimStyleTableRecord
  2
DIMSTYLE_2
 70
0
  3

  4

 40
1.0
 41
3.0
 42
0.0625
 43
0.38
 44
0.18
 45
0.0
 46
0.0
 47
0.0
 48
0.0
140
3.0
141
0.09
142
0.0
143
25.4
144
1.0
145
0.0
146
1.0
147
0.09
 71
0.0
 72
0.0
 73
0
 74
0
 75
0
 76
0
 77
1
 78
8
170
0
171
2
172
0
173
0
174
0
175
0
176
0
177
0
178
0
270
2
271
2
272
2
273
2
274
2
275
0
280
0
281
0
282
0
283
1
284
8
285
0
286
0
287
3
288
0
340
11
341
20F
342
20F
343
20F
344
20F
  0
ENDTAB
  0
ENDSEC
  0
SECTION
  2
BLOCKS
  0
BLOCK
  5
20
100
AcDbEntity
  8
0
100
AcDbBlockBegin
  2
*Model_Space
 70
0
 10
0.0
 20
0.0
 30
0.0
  3
*Model_Space
  1

  0
ENDBLK
  5
21
100
AcDbEntity
  8
0
100
AcDbBlockEnd
  0
BLOCK
  5
1C
100
AcDbEntity
  8
0
100
AcDbBlockBegin
  2
*Paper_Space
 70
0
 10
0.0
 20
0.0
 30
0.0
  3
*Paper_Space
  1

  0
ENDBLK
  5
1D
100
AcDbEntity
  8
0
100
AcDbBlockEnd
  0
BLOCK
  5
217
100
AcDbEntity
  8
0
100
AcDbBlockBegin
  2
_FILLED
 70
64
 10
0.0
 20
0.0
  3
_FILLED
  1

  0
SOLID
  5
218
100
AcDbEntity
  8
0
  6
BYBLOCK
 62
0
100
AcDbTrace
 10
0.0
 20
0.0
 11
-1.0
 21
0.3166666667
 12
-1.0
 22
-0.3166666667
 13
-1.0
 23
-0.3166666667
  0
ENDBLK
  5
219
100
AcDbEntity
  8
0
  6
BYBLOCK
 62
0
100
AcDbBlockEnd
  0
BLOCK
  5
21A
100
AcDbEntity
  8
0
100
AcDbBlockBegin
 62
7
  6
CONTINUOUS
  2
*D0
 70
65
 10
0.0
 20
0.0
  3
*D0
  1

  0
LINE
  5
21B
100
AcDbEntity
  8
0
100
AcDbLine
 62
7
  6
CONTINUOUS
 10
32.6075963832
 20
164.806766993
 11
32.6075963832
 21
205.4712913971
  0
LINE
  5
21C
100
AcDbEntity
  8
0
100
AcDbLine
 62
7
  6
CONTINUOUS
 10
64.3575963832
 20
182.3998319311
 11
64.3575963832
 21
205.4712913971
  0
LINE
  5
21D
100
AcDbEntity
  8
0
100
AcDbLine
 62
7
  6
CONTINUOUS
 10
32.6075963832
 20
203.9712913971
 11
48.4825963832
 21
203.9712913971
  0
LINE
  5
21E
100
AcDbEntity
  8
0
100
AcDbLine
 62
7
  6
CONTINUOUS
 10
64.3575963832
 20
203.9712913971
 11
48.4825963832
 21
203.9712913971
  0
INSERT
  5
21F
100
AcDbEntity
  8
0
100
AcDbBlockReference
 62
7
  6
CONTINUOUS
  2
_FILLED
 10
32.6075963832
 20
203.9712913971
 41
3.0
 42
3.0
 43
3.0
 50
180.0
  0
INSERT
  5
220
100
AcDbEntity
  8
0
100
AcDbBlockReference
 62
7
  6
CONTINUOUS
  2
_FILLED
 10
64.3575963832
 20
203.9712913971
 41
3.0
 42
3.0
 43
3.0
  0
ENDBLK
  5
221
100
AcDbEntity
  8
0
  6
BYBLOCK
 62
0
100
AcDbBlockEnd
  0
BLOCK
  5
222
100
AcDbEntity
  8
0
100
AcDbBlockBegin
 62
7
  6
CONTINUOUS
  2
*D1
 70
65
 10
0.0
 20
0.0
  3
*D1
  1

  0
LINE
  5
223
100
AcDbEntity
  8
0
100
AcDbLine
 62
7
  6
CONTINUOUS
 10
76.6416666989
 20
185.1712913971
 11
76.6416666989
 21
195.4712913971
  0
LINE
  5
224
100
AcDbEntity
  8
0
100
AcDbLine
 62
7
  6
CONTINUOUS
 10
101.4416666989
 20
185.1712913971
 11
101.4416666989
 21
195.4712913971
  0
LINE
  5
225
100
AcDbEntity
  8
0
100
AcDbLine
 62
7
  6
CONTINUOUS
 10
76.6416666989
 20
193.9712913971
 11
89.0416666989
 21
193.9712913971
  0
LINE
  5
226
100
AcDbEntity
  8
0
100
AcDbLine
 62
7
  6
CONTINUOUS
 10
101.4416666989
 20
193.9712913971
 11
89.0416666989
 21
193.9712913971
  0
INSERT
  5
227
100
AcDbEntity
  8
0
100
AcDbBlockReference
 62
7
  6
CONTINUOUS
  2
_FILLED
 10
76.6416666989
 20
193.9712913971
 41
3.0
 42
3.0
 43
3.0
 50
180.0
  0
INSERT
  5
228
100
AcDbEntity
  8
0
100
AcDbBlockReference
 62
7
  6
CONTINUOUS
  2
_FILLED
 10
101.4416666989
 20
193.9712913971
 41
3.0
 42
3.0
 43
3.0
  0
ENDBLK
  5
229
100
AcDbEntity
  8
0
  6
BYBLOCK
 62
0
100
AcDbBlockEnd
  0
BLOCK
  5
22A
100
AcDbEntity
  8
0
100
AcDbBlockBegin
 62
7
  6
CONTINUOUS
  2
*D2
 70
65
 10
0.0
 20
0.0
  3
*D2
  1

  0
LINE
  5
22B
100
AcDbEntity
  8
0
100
AcDbLine
 62
7
  6
CONTINUOUS
 10
95.5416666989
 20
185.9712913971
 11
110.9416666989
 21
185.9712913971
  0
LINE
  5
22C
100
AcDbEntity
  8
0
100
AcDbLine
 62
7
  6
CONTINUOUS
 10
95.5416666989
 20
135.8712913971
 11
110.9416666989
 21
135.8712913971
  0
LINE
  5
22D
100
AcDbEntity
  8
0
100
AcDbLine
 62
7
  6
CONTINUOUS
 10
109.4416666989
 20
185.9712913971
 11
109.4416666989
 21
160.9212913971
  0
LINE
  5
22E
100
AcDbEntity
  8
0
100
AcDbLine
 62
7
  6
CONTINUOUS
 10
109.4416666989
 20
135.8712913971
 11
109.4416666989
 21
160.9212913971
  0
INSERT
  5
22F
100
AcDbEntity
  8
0
100
AcDbBlockReference
 62
7
  6
CONTINUOUS
  2
_FILLED
 10
109.4416666989
 20
185.9712913971
 41
3.0
 42
3.0
 43
3.0
 50
90.0
  0
INSERT
  5
230
100
AcDbEntity
  8
0
100
AcDbBlockReference
 62
7
  6
CONTINUOUS
  2
_FILLED
 10
109.4416666989
 20
135.8712913971
 41
3.0
 42
3.0
 43
3.0
 50
270.0
  0
ENDBLK
  5
231
100
AcDbEntity
  8
0
  6
BYBLOCK
 62
0
100
AcDbBlockEnd
  0
BLOCK
  5
232
100
AcDbEntity
  8
0
100
AcDbBlockBegin
 62
7
  6
CONTINUOUS
  2
*D3
 70
65
 10
0.0
 20
0.0
  3
*D3
  1

  0
LINE
  5
233
100
AcDbEntity
  8
0
100
AcDbLine
 62
7
  6
CONTINUOUS
 10
53.8575963832
 20
185.4712913971
 11
53.8575963832
 21
195.4712913971
  0
LINE
  5
234
100
AcDbEntity
  8
0
100
AcDbLine
 62
7
  6
CONTINUOUS
 10
64.3575963832
 20
182.3998319311
 11
64.3575963832
 21
195.4712913971
  0
LINE
  5
235
100
AcDbEntity
  8
0
100
AcDbLine
 62
7
  6
CONTINUOUS
 10
53.8575963832
 20
193.9712913971
 11
49.8575963832
 21
193.9712913971
  0
LINE
  5
236
100
AcDbEntity
  8
0
100
AcDbLine
 62
7
  6
CONTINUOUS
 10
49.8575963832
 20
193.9712913971
 11
59.1075963832
 21
193.9712913971
  0
LINE
  5
237
100
AcDbEntity
  8
0
100
AcDbLine
 62
7
  6
CONTINUOUS
 10
64.3575963832
 20
193.9712913971
 11
68.3575963832
 21
193.9712913971
  0
LINE
  5
238
100
AcDbEntity
  8
0
100
AcDbLine
 62
7
  6
CONTINUOUS
 10
68.3575963832
 20
193.9712913971
 11
59.1075963832
 21
193.9712913971
  0
INSERT
  5
239
100
AcDbEntity
  8
0
100
AcDbBlockReference
 62
7
  6
CONTINUOUS
  2
_FILLED
 10
53.8575963832
 20
193.9712913971
 41
3.0
 42
3.0
 43
3.0
  0
INSERT
  5
23A
100
AcDbEntity
  8
0
100
AcDbBlockReference
 62
7
  6
CONTINUOUS
  2
_FILLED
 10
64.3575963832
 20
193.9712913971
 41
3.0
 42
3.0
 43
3.0
 50
180.0
  0
ENDBLK
  5
23B
100
AcDbEntity
  8
0
  6
BYBLOCK
 62
0
100
AcDbBlockEnd
  0
ENDSEC
  0
SECTION
  2
ENTITIES
  0
DIMENSION
  5
23C
100
AcDbEntity
  8
0
100
AcDbDimension
 62
7
  6
CONTINUOUS
  2
*D0
 10
64.3575963832
 20
203.9712913971
 11
44.5183106689
 21
204.7212913971
 70
160
 71
2
 42
31.75
  3
DIMSTYLE_1
100
AcDbAlignedDimension
 13
32.6075963832
 23
164.806766993
 14
64.3575963832
 24
182.3998319311
100
AcDbRotatedDimension
  0
DIMENSION
  5
23D
100
AcDbEntity
  8
0
100
AcDbDimension
 62
7
  6
CONTINUOUS
  2
*D1
 10
101.4416666989
 20
193.9712913971
 11
84.6488095561
 21
194.7212913971
 70
160
 71
2
 42
24.8
  3
DIMSTYLE_2
100
AcDbAlignedDimension
 13
76.6416666989
 23
185.1712913971
 14
101.4416666989
 24
185.1712913971
100
AcDbRotatedDimension
  0
DIMENSION
  5
23E
100
AcDbEntity
  8
0
100
AcDbDimension
 62
7
  6
CONTINUOUS
  2
*D2
 10
109.4416666989
 20
135.8712913971
 11
108.6916666989
 21
156.9570056828
 70
160
 71
2
 42
50.1
  3
DIMSTYLE_2
100
AcDbAlignedDimension
 13
95.5416666989
 23
185.9712913971
 14
95.5416666989
 24
135.8712913971
 50
270.0
100
AcDbRotatedDimension
  0
DIMENSION
  5
23F
100
AcDbEntity
  8
0
100
AcDbDimension
 62
7
  6
CONTINUOUS
  2
*D3
 10
64.3575963832
 20
193.9712913971
 11
55.1433106689
 21
194.7212913971
 70
160
 71
2
 42
10.5
  3
DIMSTYLE_2
100
AcDbAlignedDimension
 13
53.8575963832
 23
185.4712913971
 14
64.3575963832
 24
182.3998319311
100
AcDbRotatedDimension
  0
LWPOLYLINE
  5
240
100
AcDbEntity
  8
RACCORDO
100
AcDbPolyline
 62
253
  6
CONTINUOUS
 90
88
 70
0
 10
95.6357988234
 20
137.8201494123
 10
95.6309181027
 20
137.8190010744
 10
95.6260800115
 20
137.8178398123
 10
95.6212849173
 20
137.8166656016
 10
95.6165332135
 20
137.8154784437
 10
95.6118252838
 20
137.8142783373
 10
95.6071614777
 20
137.8130652548
 10
95.6025421763
 20
137.8118391962
 10
95.5979677591
 20
137.8106001615
 10
95.5934385704
 20
137.8093481223
 10
95.5889549787
 20
137.8080830777
 10
95.584517359
 20
137.8068050286
 10
95.580126062
 20
137.80551395
 10
95.5757814516
 20
137.804209842
 10
95.571483889
 20
137.8028927046
 10
95.5672337163
 20
137.8015625122
 10
95.5630312889
 20
137.8002192653
 10
95.5588769577
 20
137.7988629635
 10
95.5547710546
 20
137.7974935803
 10
95.5507139256
 20
137.7961111164
 10
95.5467059115
 20
137.7947155712
 10
95.542747332
 20
137.7933069166
 10
95.5388385227
 20
137.791885153
 10
95.534979815
 20
137.79045028
 10
95.5311715188
 20
137.7890022687
 10
95.5274139618
 20
137.7875411202
 10
95.523707463
 20
137.7860668332
 10
95.5200523153
 20
137.7845793749
 10
95.5164488342
 20
137.7830787457
 10
95.512897331
 20
137.781564945
 10
95.5093980894
 20
137.7800379388
 10
95.5059514133
 20
137.7784977269
 10
95.5025576052
 20
137.7769443094
 10
95.4992169425
 20
137.7753776524
 10
95.4959297195
 20
137.7737977563
 10
95.4926962272
 20
137.7722046207
 10
95.4895167344
 20
137.7705982114
 10
95.4863915187
 20
137.7689785253
 10
95.4833208664
 20
137.7673455656
 10
95.4803050537
 20
137.7656993068
 10
95.4773443471
 20
137.764039746
 10
95.4744390201
 20
137.7623668861
 10
95.4715893522
 20
137.7606807115
 10
95.4687955882
 20
137.758981213
 10
95.4660579972
 20
137.7572683997
 10
95.4633768848
 20
137.7555422836
 10
95.4607523758
 20
137.7538027815
 10
95.4581848316
 20
137.7520499766
 10
95.4556748754
 20
137.7502841303
 10
95.4532228036
 20
137.7485053061
 10
95.4508287161
 20
137.7467134406
 10
95.4484929002
 20
137.7449086047
 10
95.446215571
 20
137.7430908241
 10
95.4439968711
 20
137.7412600731
 10
95.4418369654
 20
137.7394163455
 10
95.4397360225
 20
137.7375596409
 10
95.437694207
 20
137.7356899596
 10
95.4357116725
 20
137.7338072959
 10
95.4337885727
 20
137.7319116479
 10
95.4319250603
 20
137.7300030174
 10
95.4301212816
 20
137.7280814042
 10
95.4283773775
 20
137.7261468077
 10
95.4266934854
 20
137.7241992284
 10
95.425069739
 20
137.7222386682
 10
95.4235062657
 20
137.7202651269
 10
95.4220031878
 20
137.7182786047
 10
95.4205606245
 20
137.7162791033
 10
95.4191786891
 20
137.7142666231
 10
95.4178574893
 20
137.7122411636
 10
95.4165971289
 20
137.7102027256
 10
95.4153977067
 20
137.7081513095
 10
95.4142593164
 20
137.7060869147
 10
95.4131820467
 20
137.7040095411
 10
95.412165982
 20
137.7019191887
 10
95.4112112017
 20
137.6998158575
 10
95.4103177804
 20
137.697699547
 10
95.409485788
 20
137.6955702572
 10
95.4087152896
 20
137.6934279881
 10
95.4080063453
 20
137.6912727395
 10
95.4073590108
 20
137.6891045113
 10
95.4067733366
 20
137.6869233034
 10
95.4062493686
 20
137.6847291155
 10
95.4057871478
 20
137.6825219474
 10
95.4053867105
 20
137.6803017992
 10
95.405048088
 20
137.6780686701
 10
95.4047713068
 20
137.67582256
 10
95.4045563887
 20
137.6735634689
 10
95.4044033508
 20
137.6712913971
  0
LINE
  5
241
100
AcDbEntity
  8
RACCORDO
100
AcDbLine
 62
253
  6
CONTINUOUS
 10
95.6456865705
 20
137.8224073159
 11
95.6357988234
 21
137.8201494123
  0
LINE
  5
242
100
AcDbEntity
  8
RACCORDO
100
AcDbLine
 62
253
  6
CONTINUOUS
 10
95.6557401263
 20
137.8246135911
 11
95.6456865705
 21
137.8224073159
  0
LWPOLYLINE
  5
243
100
AcDbEntity
  8
RACCORDO
100
AcDbPolyline
 62
253
  6
CONTINUOUS
 90
40
 70
0
 10
101.1558780881
 20
136.9212913971
 10
101.165943039
 20
136.9214941475
 10
101.1759916646
 20
136.9221020699
 10
101.1860076659
 20
136.9231141782
 10
101.195974797
 20
136.9245288308
 10
101.2058768912
 20
136.9263437332
 10
101.2156978872
 20
136.9285559415
 10
101.2254218553
 20
136.9311618676
 10
101.2350330233
 20
136.9341572846
 10
101.2445158017
 20
136.937537334
 10
101.2538548096
 20
136.9412965334
 10
101.2630348988
 20
136.9454287852
 10
101.2720411794
 20
136.9499273871
 10
101.2808590431
 20
136.9547850421
 10
101.2894741873
 20
136.9599938713
 10
101.2978726382
 20
136.9655454259
 10
101.3060407735
 20
136.9714307012
 10
101.3139653444
 20
136.9776401513
 10
101.3216334972
 20
136.9841637044
 10
101.3290327942
 20
136.9909907794
 10
101.3361512336
 20
136.9981103027
 10
101.3429772693
 20
137.0055107264
 10
101.3494998296
 20
137.013180047
 10
101.3557083346
 20
137.0211058248
 10
101.3615927143
 20
137.0292752043
 10
101.3671434241
 20
137.0376749345
 10
101.3723514607
 20
137.0462913912
 10
101.3772083768
 20
137.0551105984
 10
101.3817062943
 20
137.0641182513
 10
101.3858379176
 20
137.0732997395
 10
101.3895965451
 20
137.0826401706
 10
101.3929760805
 20
137.0921243943
 10
101.395971042
 20
137.1017370272
 10
101.3985765719
 20
137.1114624776
 10
101.4007884438
 20
137.1212849707
 10
101.4026030703
 20
137.1311885745
 10
101.4040175079
 20
137.1411572252
 10
101.4050294623
 20
137.1511747537
 10
101.4056372923
 20
137.1612249114
 10
101.4058400119
 20
137.1712913971
  0
LINE
  5
244
100
AcDbEntity
  8
0
100
AcDbLine
 62
7
  6
CONTINUOUS
 10
83.0416666989
 20
135.8712913971
 11
95.0416666989
 21
135.8712913971
  0
LINE
  5
245
100
AcDbEntity
  8
0
100
AcDbLine
 62
253
  6
CONTINUOUS
 10
83.0416666989
 20
136.5712913971
 11
95.0416666989
 21
136.5712913971
  0
LINE
  5
246
100
AcDbEntity
  8
RACCORDO
100
AcDbLine
 62
7
  6
CONTINUOUS
 10
83.0416666989
 20
136.8712913971
 11
85.1084004641
 21
136.8712913971
  0
LINE
  5
247
100
AcDbEntity
  8
RACCORDO
100
AcDbLine
 62
7
  6
CONTINUOUS
 10
92.9749329338
 20
136.8712913971
 11
95.0416666989
 21
136.8712913971
  0
LINE
  5
248
100
AcDbEntity
  8
RACCORDO
100
AcDbLine
 62
7
  6
CONTINUOUS
 10
101.1916286169
 20
136.9212913971
 11
99.691704781
 21
136.9212913971
  0
LINE
  5
249
100
AcDbEntity
  8
RACCORDO
100
AcDbLine
 62
7
  6
CONTINUOUS
 10
78.3916286169
 20
136.9212913971
 11
76.891704781
 21
136.9212913971
  0
LWPOLYLINE
  5
24A
100
AcDbEntity
  8
RACCORDO
100
AcDbPolyline
 62
253
  6
CONTINUOUS
 90
40
 70
0
 10
76.9274553097
 20
136.9212913971
 10
76.9173903579
 20
136.9214941475
 10
76.9073417314
 20
136.92210207
 10
76.8973257293
 20
136.9231141785
 10
76.8873585974
 20
136.9245288314
 10
76.8774565025
 20
136.926343734
 10
76.8676355059
 20
136.9285559427
 10
76.8579115372
 20
136.9311618691
 10
76.8483003688
 20
136.9341572866
 10
76.83881759
 20
136.9375373364
 10
76.8294785819
 20
136.9412965361
 10
76.8202984924
 20
136.9454287884
 10
76.8112922116
 20
136.9499273906
 10
76.8024743479
 20
136.9547850461
 10
76.7938592036
 20
136.9599938757
 10
76.7854607528
 20
136.9655454306
 10
76.7772926177
 20
136.9714307062
 10
76.769368047
 20
136.9776401566
 10
76.7616998944
 20
136.98416371
 10
76.7543005977
 20
136.9909907852
 10
76.7471821586
 20
136.9981103087
 10
76.7403561232
 20
137.0055107325
 10
76.7338335633
 20
137.0131800532
 10
76.7276250586
 20
137.021105831
 10
76.7217406794
 20
137.0292752104
 10
76.71618997
 20
137.0376749405
 10
76.7109819338
 20
137.0462913971
 10
76.7061250181
 20
137.055110604
 10
76.7016271011
 20
137.0641182567
 10
76.6974954782
 20
137.0732997446
 10
76.693736851
 20
137.0826401753
 10
76.6903573159
 20
137.0921243986
 10
76.6873623547
 20
137.1017370311
 10
76.6847568252
 20
137.111462481
 10
76.6825449535
 20
137.1212849736
 10
76.6807303272
 20
137.1311885768
 10
76.6793158898
 20
137.141157227
 10
76.6783039355
 20
137.1511747549
 10
76.6776961055
 20
137.161224912
 10
76.677493386
 20
137.1712913971
  0
LINE
  5
24B
100
AcDbEntity
  8
RACCORDO
100
AcDbLine
 62
253
  6
CONTINUOUS
 10
82.437646902
 20
137.8224072991
 11
82.4275933151
 21
137.8246135818
  0
LINE
  5
24C
100
AcDbEntity
  8
RACCORDO
100
AcDbLine
 62
253
  6
CONTINUOUS
 10
95.6659562935
 20
137.8267682819
 11
95.6557401263
 21
137.8246135911
  0
LINE
  5
24D
100
AcDbEntity
  8
RACCORDO
100
AcDbLine
 62
253
  6
CONTINUOUS
 10
95.6763318451
 20
137.8288714511
 11
95.6659562935
 21
137.8267682819
  0
LINE
  5
24E
100
AcDbEntity
  8
RACCORDO
100
AcDbLine
 62
253
  6
CONTINUOUS
 10
95.6868635109
 20
137.8309231592
 11
95.6763318451
 21
137.8288714511
  0
LINE
  5
24F
100
AcDbEntity
  8
RACCORDO
100
AcDbLine
 62
253
  6
CONTINUOUS
 10
95.6975479655
 20
137.8329234467
 11
95.6868635109
 21
137.8309231592
  0
LINE
  5
250
100
AcDbEntity
  8
RACCORDO
100
AcDbLine
 62
253
  6
CONTINUOUS
 10
95.7083818585
 20
137.8348723729
 11
95.6975479655
 21
137.8329234467
  0
LINE
  5
251
100
AcDbEntity
  8
RACCORDO
100
AcDbLine
 62
253
  6
CONTINUOUS
 10
95.719361875
 20
137.8367700067
 11
95.7083818585
 21
137.8348723729
  0
LINE
  5
252
100
AcDbEntity
  8
RACCORDO
100
AcDbLine
 62
253
  6
CONTINUOUS
 10
95.7304846142
 20
137.838616392
 11
95.719361875
 21
137.8367700067
  0
LINE
  5
253
100
AcDbEntity
  8
RACCORDO
100
AcDbLine
 62
253
  6
CONTINUOUS
 10
95.7417466836
 20
137.8404115931
 11
95.7304846142
 21
137.838616392
  0
LINE
  5
254
100
AcDbEntity
  8
RACCORDO
100
AcDbLine
 62
253
  6
CONTINUOUS
 10
95.7531446314
 20
137.8421556668
 11
95.7417466836
 21
137.8404115931
  0
LINE
  5
255
100
AcDbEntity
  8
RACCORDO
100
AcDbLine
 62
253
  6
CONTINUOUS
 10
95.7646749348
 20
137.8438486495
 11
95.7531446314
 21
137.8421556668
  0
LINE
  5
256
100
AcDbEntity
  8
RACCORDO
100
AcDbLine
 62
253
  6
CONTINUOUS
 10
78.3860076659
 20
136.9231141782
 11
78.395974797
 21
136.9245288308
  0
LINE
  5
257
100
AcDbEntity
  8
RACCORDO
100
AcDbLine
 62
253
  6
CONTINUOUS
 10
95.776334061
 20
137.8454905936
 11
95.7646749348
 21
137.8438486495
  0
LINE
  5
258
100
AcDbEntity
  8
RACCORDO
100
AcDbLine
 62
253
  6
CONTINUOUS
 10
95.7881184193
 20
137.8470815456
 11
95.776334061
 21
137.8454905936
  0
LINE
  5
259
100
AcDbEntity
  8
RACCORDO
100
AcDbLine
 62
253
  6
CONTINUOUS
 10
95.8000243699
 20
137.8486215363
 11
95.7881184193
 21
137.8470815456
  0
LINE
  5
25A
100
AcDbEntity
  8
RACCORDO
100
AcDbLine
 62
253
  6
CONTINUOUS
 10
95.8120482589
 20
137.850110611
 11
95.8000243699
 21
137.8486215363
  0
LINE
  5
25B
100
AcDbEntity
  8
RACCORDO
100
AcDbLine
 62
253
  6
CONTINUOUS
 10
95.824186423
 20
137.8515488154
 11
95.8120482589
 21
137.850110611
  0
LINE
  5
25C
100
AcDbEntity
  8
RACCORDO
100
AcDbLine
 62
253
  6
CONTINUOUS
 10
95.8364351591
 20
137.8529361807
 11
95.824186423
 21
137.8515488154
  0
LINE
  5
25D
100
AcDbEntity
  8
RACCORDO
100
AcDbLine
 62
253
  6
CONTINUOUS
 10
95.8487907988
 20
137.8542727563
 11
95.8364351591
 21
137.8529361807
  0
LINE
  5
25E
100
AcDbEntity
  8
RACCORDO
100
AcDbLine
 62
253
  6
CONTINUOUS
 10
81.5423149027
 20
137.8542727563
 11
81.529959263
 21
137.8529361807
  0
LINE
  5
25F
100
AcDbEntity
  8
RACCORDO
100
AcDbLine
 62
253
  6
CONTINUOUS
 10
95.8612496485
 20
137.8555585874
 11
95.8487907988
 21
137.8542727563
  0
LINE
  5
260
100
AcDbEntity
  8
RACCORDO
100
AcDbLine
 62
253
  6
CONTINUOUS
 10
81.5547737525
 20
137.8555585874
 11
81.5423149027
 21
137.8542727563
  0
LINE
  5
261
100
AcDbEntity
  8
RACCORDO
100
AcDbLine
 62
253
  6
CONTINUOUS
 10
95.8738079423
 20
137.8567937029
 11
95.8612496485
 21
137.8555585874
  0
LINE
  5
262
100
AcDbEntity
  8
RACCORDO
100
AcDbLine
 62
253
  6
CONTINUOUS
 10
81.5673320462
 20
137.8567937029
 11
81.5547737525
 21
137.8555585874
  0
LINE
  5
263
100
AcDbEntity
  8
RACCORDO
100
AcDbLine
 62
253
  6
CONTINUOUS
 10
95.8864619354
 20
137.8579781451
 11
95.8738079423
 21
137.8567937029
  0
LINE
  5
264
100
AcDbEntity
  8
RACCORDO
100
AcDbLine
 62
253
  6
CONTINUOUS
 10
81.5799860393
 20
137.8579781451
 11
81.5673320462
 21
137.8567937029
  0
LINE
  5
265
100
AcDbEntity
  8
RACCORDO
100
AcDbLine
 62
253
  6
CONTINUOUS
 10
95.8992078081
 20
137.8591119481
 11
95.8864619354
 21
137.8579781451
  0
LINE
  5
266
100
AcDbEntity
  8
RACCORDO
100
AcDbLine
 62
253
  6
CONTINUOUS
 10
81.592731912
 20
137.8591119481
 11
81.5799860393
 21
137.8579781451
  0
LINE
  5
267
100
AcDbEntity
  8
RACCORDO
100
AcDbLine
 62
253
  6
CONTINUOUS
 10
95.9120416902
 20
137.8601951341
 11
95.8992078081
 21
137.8591119481
  0
LINE
  5
268
100
AcDbEntity
  8
RACCORDO
100
AcDbLine
 62
253
  6
CONTINUOUS
 10
81.6055657941
 20
137.8601951341
 11
81.592731912
 21
137.8591119481
  0
LINE
  5
269
100
AcDbEntity
  8
RACCORDO
100
AcDbLine
 62
253
  6
CONTINUOUS
 10
95.9249597042
 20
137.8612277351
 11
95.9120416902
 21
137.8601951341
  0
LINE
  5
26A
100
AcDbEntity
  8
RACCORDO
100
AcDbLine
 62
253
  6
CONTINUOUS
 10
81.6184838081
 20
137.8612277351
 11
81.6055657941
 21
137.8601951341
  0
LINE
  5
26B
100
AcDbEntity
  8
RACCORDO
100
AcDbLine
 62
253
  6
CONTINUOUS
 10
95.9444859275
 20
137.8626818491
 11
95.9249597042
 21
137.8612277351
  0
LINE
  5
26C
100
AcDbEntity
  8
RACCORDO
100
AcDbLine
 62
253
  6
CONTINUOUS
 10
81.6380100315
 20
137.8626818491
 11
81.6184838081
 21
137.8612277351
  0
LINE
  5
26D
100
AcDbEntity
  8
RACCORDO
100
AcDbLine
 62
253
  6
CONTINUOUS
 10
95.964179445
 20
137.8640222967
 11
95.9444859275
 21
137.8626818491
  0
LINE
  5
26E
100
AcDbEntity
  8
RACCORDO
100
AcDbLine
 62
253
  6
CONTINUOUS
 10
81.6577035489
 20
137.8640222967
 11
81.6380100315
 21
137.8626818491
  0
LINE
  5
26F
100
AcDbEntity
  8
RACCORDO
100
AcDbLine
 62
253
  6
CONTINUOUS
 10
95.9840270441
 20
137.8652491675
 11
95.964179445
 21
137.8640222967
  0
LINE
  5
270
100
AcDbEntity
  8
RACCORDO
100
AcDbLine
 62
253
  6
CONTINUOUS
 10
81.6775511481
 20
137.8652491675
 11
81.6577035489
 21
137.8640222967
  0
LINE
  5
271
100
AcDbEntity
  8
RACCORDO
100
AcDbLine
 62
253
  6
CONTINUOUS
 10
96.0040155005
 20
137.8663625467
 11
95.9840270441
 21
137.8652491675
  0
LINE
  5
272
100
AcDbEntity
  8
RACCORDO
100
AcDbLine
 62
253
  6
CONTINUOUS
 10
81.6975396045
 20
137.8663625467
 11
81.6775511481
 21
137.8652491675
  0
LWPOLYLINE
  5
273
100
AcDbEntity
  8
RACCORDO
100
AcDbPolyline
 62
7
  6
CONTINUOUS
 90
4
 70
0
 10
85.1220812377
 20
138.4212913971
 10
85.1178453466
 20
138.4210754126
 10
85.1048393251
 20
138.4206795676
 10
85.0916666989
 20
138.4205425485
  0
LINE
  5
274
100
AcDbEntity
  8
RACCORDO
100
AcDbLine
 62
253
  6
CONTINUOUS
 10
96.0241315339
 20
137.8673625106
 11
96.0040155005
 21
137.8663625467
  0
LINE
  5
275
100
AcDbEntity
  8
RACCORDO
100
AcDbLine
 62
253
  6
CONTINUOUS
 10
81.7176556379
 20
137.8673625106
 11
81.6975396045
 21
137.8663625467
  0
LINE
  5
276
100
AcDbEntity
  8
RACCORDO
100
AcDbLine
 62
253
  6
CONTINUOUS
 10
96.0443616582
 20
137.8682491201
 11
96.0241315339
 21
137.8673625106
  0
LINE
  5
277
100
AcDbEntity
  8
RACCORDO
100
AcDbLine
 62
253
  6
CONTINUOUS
 10
81.7378857621
 20
137.8682491201
 11
81.7176556379
 21
137.8673625106
  0
LINE
  5
278
100
AcDbEntity
  8
RACCORDO
100
AcDbLine
 62
253
  6
CONTINUOUS
 10
96.0646922405
 20
137.8690224261
 11
96.0443616582
 21
137.8682491201
  0
LINE
  5
279
100
AcDbEntity
  8
RACCORDO
100
AcDbLine
 62
253
  6
CONTINUOUS
 10
81.7582163444
 20
137.8690224261
 11
81.7378857621
 21
137.8682491201
  0
LINE
  5
27A
100
AcDbEntity
  8
RACCORDO
100
AcDbLine
 62
253
  6
CONTINUOUS
 10
96.085109588
 20
137.8696824741
 11
96.0646922405
 21
137.8690224261
  0
LINE
  5
27B
100
AcDbEntity
  8
RACCORDO
100
AcDbLine
 62
253
  6
CONTINUOUS
 10
81.7786336919
 20
137.8696824741
 11
81.7582163444
 21
137.8690224261
  0
LINE
  5
27C
100
AcDbEntity
  8
RACCORDO
100
AcDbLine
 62
253
  6
CONTINUOUS
 10
96.1056000208
 20
137.8702293066
 11
96.085109588
 21
137.8696824741
  0
LINE
  5
27D
100
AcDbEntity
  8
RACCORDO
100
AcDbLine
 62
253
  6
CONTINUOUS
 10
81.7991241247
 20
137.8702293066
 11
81.7786336919
 21
137.8696824741
  0
LWPOLYLINE
  5
27E
100
AcDbEntity
  8
RACCORDO
100
AcDbPolyline
 62
253
  6
CONTINUOUS
 90
4
 70
0
 10
78.3558780881
 20
136.9212913971
 10
78.365943039
 20
136.9214941475
 10
78.3759916646
 20
136.9221020699
 10
78.3860076659
 20
136.9231141782
  0
LINE
  5
27F
100
AcDbEntity
  8
RACCORDO
100
AcDbLine
 62
253
  6
CONTINUOUS
 10
96.1261498726
 20
137.8706629606
 11
96.1056000208
 21
137.8702293066
  0
LINE
  5
280
100
AcDbEntity
  8
RACCORDO
100
AcDbLine
 62
253
  6
CONTINUOUS
 10
81.8196739765
 20
137.8706629606
 11
81.7991241247
 21
137.8702293066
  0
LWPOLYLINE
  5
281
100
AcDbEntity
  8
RACCORDO
100
AcDbPolyline
 62
253
  6
CONTINUOUS
 90
43
 70
0
 10
101.0650793962
 20
138.4212913971
 10
101.0744257711
 20
138.4214662209
 10
101.0837590742
 20
138.4219904478
 10
101.093066252
 20
138.4228633446
 10
101.1023342878
 20
138.4240836905
 10
101.1115502192
 20
138.4256497787
 10
101.1207011569
 20
138.427559419
 10
101.1297743026
 20
138.4298099405
 10
101.1387569666
 20
138.4323981956
 10
101.1476365859
 20
138.4353205645
 10
101.1564007415
 20
138.4385729599
 10
101.1650371759
 20
138.4421508331
 10
101.1735338103
 20
138.4460491801
 10
101.1818787615
 20
138.4502625487
 10
101.1900603581
 20
138.4547850461
 10
101.1980671576
 20
138.4596103472
 10
101.2058879616
 20
138.4647317035
 10
101.2135118322
 20
138.4701419521
 10
101.2209281065
 20
138.4758335264
 10
101.2281264124
 20
138.4817984663
 10
101.2350966822
 20
138.4880284291
 10
101.2418291676
 20
138.4945147018
 10
101.2483144523
 20
138.5012482126
 10
101.2545434663
 20
138.5082195442
 10
101.2605074976
 20
138.5154189466
 10
101.2661982051
 20
138.5228363507
 10
101.2716076297
 20
138.5304613825
 10
101.276728206
 20
138.5382833779
 10
101.2815527722
 20
138.5462913971
 10
101.2860745808
 20
138.55447424
 10
101.2902873077
 20
138.5628204623
 10
101.294185061
 20
138.571318391
 10
101.2977623892
 20
138.579956141
 10
101.3010142893
 20
138.5887216316
 10
101.3039362131
 20
138.5976026034
 10
101.306524074
 20
138.6065866358
 10
101.3087742527
 20
138.6156611636
 10
101.3106836021
 20
138.6248134953
 10
101.3122494518
 20
138.6340308305
 10
101.3134696119
 20
138.643300278
 10
101.3143423758
 20
138.6526088737
 10
101.3148665228
 20
138.6619435985
 10
101.31504132
 20
138.6712913971
  0
LINE
  5
282
100
AcDbEntity
  8
RACCORDO
100
AcDbLine
 62
253
  6
CONTINUOUS
 10
96.1467455548
 20
137.8709834669
 11
96.1261498726
 21
137.8706629606
  0
LINE
  5
283
100
AcDbEntity
  8
RACCORDO
100
AcDbLine
 62
253
  6
CONTINUOUS
 10
81.8402696587
 20
137.8709834669
 11
81.8196739765
 21
137.8706629606
  0
LWPOLYLINE
  5
284
100
AcDbEntity
  8
RACCORDO
100
AcDbPolyline
 62
7
  6
CONTINUOUS
 90
25
 70
0
 10
84.7416666989
 20
137.0128819372
 10
84.7284940728
 20
137.0127449182
 10
84.7154880513
 20
137.0123490732
 10
84.7026486345
 20
137.0116944022
 10
84.6899224218
 20
137.0107758995
 10
84.6773628137
 20
137.0095985709
 10
84.6651300125
 20
137.0081774336
 10
84.6532282045
 20
137.0065093644
 10
84.6416532034
 20
137.0045974864
 10
84.6305526523
 20
137.0024661864
 10
84.619932629
 20
137.0001126536
 10
84.6097870557
 20
136.9975396987
 10
84.6002453427
 20
136.9947801408
 10
84.5913152255
 20
136.9918315893
 10
84.5829889686
 20
136.9886964347
 10
84.5753727765
 20
136.985414667
 10
84.5684757448
 20
136.9819844081
 10
84.5622887778
 20
136.9784075361
 10
84.5568907924
 20
136.9747296751
 10
84.5522918954
 20
136.9709495317
 10
84.5484819799
 20
136.9670683993
 10
84.5455096429
 20
136.9631357833
 10
84.5433910832
 20
136.9591681853
 10
84.5421101018
 20
136.9551491037
 10
84.5416666989
 20
136.9510785383
  0
LINE
  5
285
100
AcDbEntity
  8
RACCORDO
100
AcDbLine
 62
253
  6
CONTINUOUS
 10
96.1673734856
 20
137.871190847
 11
96.1467455548
 21
137.8709834669
  0
LINE
  5
286
100
AcDbEntity
  8
RACCORDO
100
AcDbLine
 62
253
  6
CONTINUOUS
 10
81.8608975895
 20
137.871190847
 11
81.8402696587
 21
137.8709834669
  0
LINE
  5
287
100
AcDbEntity
  8
RACCORDO
100
AcDbLine
 62
253
  6
CONTINUOUS
 10
96.1880198936
 20
137.8712851115
 11
96.1673734856
 21
137.871190847
  0
LINE
  5
288
100
AcDbEntity
  8
RACCORDO
100
AcDbLine
 62
253
  6
CONTINUOUS
 10
81.8815439976
 20
137.8712851115
 11
81.8608975895
 21
137.871190847
  0
LINE
  5
289
100
AcDbEntity
  8
RACCORDO
100
AcDbLine
 62
7
  6
CONTINUOUS
 10
93.3416666989
 20
137.0128819372
 11
92.7837483138
 21
137.0128819372
  0
LINE
  5
28A
100
AcDbEntity
  8
RACCORDO
100
AcDbLine
 62
7
  6
CONTINUOUS
 10
85.2995850841
 20
137.0128819372
 11
84.7416666989
 21
137.0128819372
  0
LINE
  5
28B
100
AcDbEntity
  8
RACCORDO
100
AcDbLine
 62
253
  6
CONTINUOUS
 10
101.4416666989
 20
137.1712913971
 11
99.4416666989
 21
137.1712913971
  0
LINE
  5
28C
100
AcDbEntity
  8
RACCORDO
100
AcDbLine
 62
253
  6
CONTINUOUS
 10
78.6416666989
 20
137.1712913971
 11
76.6416666989
 21
137.1712913971
  0
LINE
  5
28D
100
AcDbEntity
  8
RACCORDO
100
AcDbLine
 62
7
  6
CONTINUOUS
 10
93.3416666989
 20
137.3933045437
 11
92.7459964664
 21
137.3933045437
  0
LINE
  5
28E
100
AcDbEntity
  8
RACCORDO
100
AcDbLine
 62
7
  6
CONTINUOUS
 10
85.3373369315
 20
137.3933045437
 11
84.7416666989
 21
137.3933045437
  0
LINE
  5
28F
100
AcDbEntity
  8
DRAFT
100
AcDbLine
 62
7
  6
CONTINUOUS
 10
95.2416666989
 20
137.6712913971
 11
95.0416666989
 21
137.6712913971
  0
LINE
  5
290
100
AcDbEntity
  8
DRAFT
100
AcDbLine
 62
7
  6
CONTINUOUS
 10
83.0416666989
 20
137.6712913971
 11
82.8416666989
 21
137.6712913971
  0
LINE
  5
291
100
AcDbEntity
  8
RACCORDO
100
AcDbLine
 62
7
  6
CONTINUOUS
 10
80.8845711146
 20
137.6712913971
 11
82.8416666989
 21
137.6712913971
  0
LINE
  5
292
100
AcDbEntity
  8
RACCORDO
100
AcDbLine
 62
7
  6
CONTINUOUS
 10
95.2416666989
 20
137.6712913971
 11
97.1987622833
 21
137.6712913971
  0
LINE
  5
293
100
AcDbEntity
  8
RACCORDO
100
AcDbLine
 62
7
  6
CONTINUOUS
 10
95.0416666989
 20
138.4205425485
 11
92.9916666989
 21
138.4205425485
  0
LINE
  5
294
100
AcDbEntity
  8
RACCORDO
100
AcDbLine
 62
7
  6
CONTINUOUS
 10
83.0416666989
 20
138.4205425485
 11
85.0916666989
 21
138.4205425485
  0
LINE
  5
295
100
AcDbEntity
  8
RACCORDO
100
AcDbLine
 62
7
  6
CONTINUOUS
 10
101.1445722138
 20
138.4212913971
 11
76.9387611841
 21
138.4212913971
  0
LINE
  5
296
100
AcDbEntity
  8
RACCORDO
100
AcDbLine
 62
253
  6
CONTINUOUS
 10
76.677493386
 20
138.6712913971
 11
101.4058400119
 21
138.6712913971
  0
LINE
  5
297
100
AcDbEntity
  8
RACCORDO
100
AcDbLine
 62
253
  6
CONTINUOUS
 10
81.9021950208
 20
137.8712662648
 11
81.8815439976
 21
137.8712851115
  0
LINE
  5
298
100
AcDbEntity
  8
RACCORDO
100
AcDbLine
 62
253
  6
CONTINUOUS
 10
96.2086709169
 20
137.8712662648
 11
96.1880198936
 21
137.8712851115
  0
LINE
  5
299
100
AcDbEntity
  8
RACCORDO
100
AcDbLine
 62
253
  6
CONTINUOUS
 10
81.9228368047
 20
137.8711343059
 11
81.9021950208
 21
137.8712662648
  0
LINE
  5
29A
100
AcDbEntity
  8
RACCORDO
100
AcDbLine
 62
253
  6
CONTINUOUS
 10
96.2293127008
 20
137.8711343059
 11
96.2086709169
 21
137.8712662648
  0
LWPOLYLINE
  5
29B
100
AcDbEntity
  8
RACCORDO
100
AcDbPolyline
 62
7
  6
CONTINUOUS
 90
25
 70
0
 10
93.3416666989
 20
137.3933045437
 10
93.3548393251
 20
137.3931675247
 10
93.3678453466
 20
137.3927716797
 10
93.3806847634
 20
137.3921170087
 10
93.3934109761
 20
137.3911985061
 10
93.4059705842
 20
137.3900211774
 10
93.4182033854
 20
137.3886000401
 10
93.4301051934
 20
137.3869319709
 10
93.4416801945
 20
137.3850200929
 10
93.4527807456
 20
137.3828887929
 10
93.4634007689
 20
137.3805352601
 10
93.4735463422
 20
137.3779623053
 10
93.4830880552
 20
137.3752027473
 10
93.4920181724
 20
137.3722541958
 10
93.5003444293
 20
137.3691190412
 10
93.5079606214
 20
137.3658372735
 10
93.5148576531
 20
137.3624070146
 10
93.5210446201
 20
137.3588301426
 10
93.5264426054
 20
137.3551522816
 10
93.5310415025
 20
137.3513721382
 10
93.534851418
 20
137.3474910058
 10
93.537823755
 20
137.3435583898
 10
93.5399423147
 20
137.3395907918
 10
93.541223296
 20
137.3355717102
 10
93.5416666989
 20
137.3315011448
  0
LWPOLYLINE
  5
29C
100
AcDbEntity
  8
RACCORDO
100
AcDbPolyline
 62
7
  6
CONTINUOUS
 90
4
 70
0
 10
92.9916666989
 20
138.4205425485
 10
92.9784940728
 20
138.4206795676
 10
92.9654880513
 20
138.4210754126
 10
92.9612521602
 20
138.4212913971
  0
LINE
  5
29D
100
AcDbEntity
  8
RACCORDO
100
AcDbLine
 62
253
  6
CONTINUOUS
 10
81.9434555497
 20
137.8708892282
 11
81.9228368047
 21
137.8711343059
  0
LINE
  5
29E
100
AcDbEntity
  8
RACCORDO
100
AcDbLine
 62
253
  6
CONTINUOUS
 10
96.2499314458
 20
137.8708892282
 11
96.2293127008
 21
137.8711343059
  0
LWPOLYLINE
  5
29F
100
AcDbEntity
  8
RACCORDO
100
AcDbPolyline
 62
253
  6
CONTINUOUS
 90
43
 70
0
 10
77.0182540017
 20
138.4212913971
 10
77.0089076268
 20
138.4214662209
 10
76.9995743237
 20
138.4219904478
 10
76.9902671458
 20
138.4228633446
 10
76.9809991101
 20
138.4240836905
 10
76.9717831787
 20
138.4256497787
 10
76.962632241
 20
138.427559419
 10
76.9535590953
 20
138.4298099405
 10
76.9445764312
 20
138.4323981956
 10
76.935696812
 20
138.4353205645
 10
76.9269326564
 20
138.4385729599
 10
76.918296222
 20
138.4421508331
 10
76.9097995876
 20
138.4460491801
 10
76.9014546364
 20
138.4502625487
 10
76.8932730398
 20
138.4547850461
 10
76.8852662403
 20
138.4596103472
 10
76.8774454363
 20
138.4647317035
 10
76.8698215657
 20
138.4701419521
 10
76.8624052914
 20
138.4758335264
 10
76.8552069855
 20
138.4817984663
 10
76.8482367156
 20
138.4880284291
 10
76.8415042303
 20
138.4945147018
 10
76.8350189456
 20
138.5012482126
 10
76.8287899316
 20
138.5082195442
 10
76.8228259003
 20
138.5154189466
 10
76.8171351928
 20
138.5228363507
 10
76.8117257682
 20
138.5304613825
 10
76.8066051919
 20
138.5382833779
 10
76.8017806257
 20
138.5462913971
 10
76.7972588171
 20
138.55447424
 10
76.7930460902
 20
138.5628204623
 10
76.7891483369
 20
138.571318391
 10
76.7855710087
 20
138.579956141
 10
76.7823191086
 20
138.5887216316
 10
76.7793971848
 20
138.5976026034
 10
76.7768093239
 20
138.6065866358
 10
76.7745591452
 20
138.6156611636
 10
76.7726497958
 20
138.6248134953
 10
76.7710839461
 20
138.6340308305
 10
76.769863786
 20
138.643300278
 10
76.7689910221
 20
138.6526088737
 10
76.7684668751
 20
138.6619435985
 10
76.7682920779
 20
138.6712913971
  0
LINE
  5
2A0
100
AcDbEntity
  8
RACCORDO
100
AcDbLine
 62
253
  6
CONTINUOUS
 10
81.9640374904
 20
137.8705310184
 11
81.9434555497
 21
137.8708892282
  0
LINE
  5
2A1
100
AcDbEntity
  8
RACCORDO
100
AcDbLine
 62
253
  6
CONTINUOUS
 10
96.2705133865
 20
137.8705310184
 11
96.2499314458
 21
137.8708892282
  0
LWPOLYLINE
  5
2A2
100
AcDbEntity
  8
RACCORDO
100
AcDbPolyline
 62
253
  6
CONTINUOUS
 90
4
 70
0
 10
99.7274553097
 20
136.9212913971
 10
99.7173903579
 20
136.9214941475
 10
99.7073417314
 20
136.92210207
 10
99.6973257293
 20
136.9231141785
  0
LINE
  5
2A3
100
AcDbEntity
  8
RACCORDO
100
AcDbLine
 62
253
  6
CONTINUOUS
 10
81.9845690444
 20
137.8700596521
 11
81.9640374904
 21
137.8705310184
  0
LINE
  5
2A4
100
AcDbEntity
  8
RACCORDO
100
AcDbLine
 62
253
  6
CONTINUOUS
 10
96.2910449404
 20
137.8700596521
 11
96.2705133865
 21
137.8705310184
  0
LWPOLYLINE
  5
2A5
100
AcDbEntity
  8
RACCORDO
100
AcDbPolyline
 62
7
  6
CONTINUOUS
 90
40
 70
0
 10
76.9387611841
 20
138.4212913971
 10
76.9253842437
 20
138.4216359054
 10
76.9123249466
 20
138.4226386644
 10
76.8996136304
 20
138.4242531359
 10
76.8872944744
 20
138.4264287437
 10
76.8753703697
 20
138.4291208863
 10
76.863805183
 20
138.4323000593
 10
76.8526113623
 20
138.4359295462
 10
76.8418058812
 20
138.4399706347
 10
76.8313588942
 20
138.4444049285
 10
76.8212778711
 20
138.4492026219
 10
76.8115737348
 20
138.4543316901
 10
76.8022229081
 20
138.4597806763
 10
76.7932299528
 20
138.4655249394
 10
76.7846017877
 20
138.4715377172
 10
76.7763201681
 20
138.4778118032
 10
76.768387849
 20
138.4843264448
 10
76.7608091612
 20
138.4910589443
 10
76.75357026
 20
138.4980045499
 10
76.7466727825
 20
138.5051453908
 10
76.740119312
 20
138.512461922
 10
76.7338994561
 20
138.5199507567
 10
76.7280141071
 20
138.5275961887
 10
76.7224646701
 20
138.5353810915
 10
76.7172434393
 20
138.5433027359
 10
76.7123507757
 20
138.5513470505
 10
76.7077872652
 20
138.5594987503
 10
76.7035472851
 20
138.5677552749
 10
76.6996307875
 20
138.5761037718
 10
76.696037744
 20
138.5845303616
 10
76.6927641098
 20
138.5930323349
 10
76.6898094619
 20
138.6015978067
 10
76.6871732965
 20
138.6102139025
 10
76.6848527721
 20
138.6188773695
 10
76.6828470912
 20
138.6275770636
 10
76.6811552956
 20
138.6363008351
 10
76.6797753627
 20
138.6450445232
 10
76.6787060458
 20
138.6537993847
 10
76.6779460349
 20
138.6625519726
 10
76.677493386
 20
138.6712913971
  0
LINE
  5
2A6
100
AcDbEntity
  8
RACCORDO
100
AcDbLine
 62
253
  6
CONTINUOUS
 10
82.0050366705
 20
137.8694750943
 11
81.9845690444
 21
137.8700596521
  0
LINE
  5
2A7
100
AcDbEntity
  8
RACCORDO
100
AcDbLine
 62
253
  6
CONTINUOUS
 10
96.3115125666
 20
137.8694750943
 11
96.2910449404
 21
137.8700596521
  0
LINE
  5
2A8
100
AcDbEntity
  8
RACCORDO
100
AcDbLine
 62
253
  6
CONTINUOUS
 10
82.0254266725
 20
137.8687773064
 11
82.0050366705
 21
137.8694750943
  0
LINE
  5
2A9
100
AcDbEntity
  8
RACCORDO
100
AcDbLine
 62
253
  6
CONTINUOUS
 10
96.3319025686
 20
137.8687773064
 11
96.3115125666
 21
137.8694750943
  0
LINE
  5
2AA
100
AcDbEntity
  8
RACCORDO
100
AcDbLine
 62
253
  6
CONTINUOUS
 10
82.0457253293
 20
137.8679662458
 11
82.0254266725
 21
137.8687773064
  0
LINE
  5
2AB
100
AcDbEntity
  8
RACCORDO
100
AcDbLine
 62
253
  6
CONTINUOUS
 10
96.3522012254
 20
137.8679662458
 11
96.3319025686
 21
137.8687773064
  0
LINE
  5
2AC
100
AcDbEntity
  8
RACCORDO
100
AcDbLine
 62
253
  6
CONTINUOUS
 10
82.0659189878
 20
137.8670418644
 11
82.0457253293
 21
137.8679662458
  0
LINE
  5
2AD
100
AcDbEntity
  8
RACCORDO
100
AcDbLine
 62
253
  6
CONTINUOUS
 10
96.3723948839
 20
137.8670418644
 11
96.3522012254
 21
137.8679662458
  0
LINE
  5
2AE
100
AcDbEntity
  8
RACCORDO
100
AcDbLine
 62
253
  6
CONTINUOUS
 10
82.0859940799
 20
137.8660041071
 11
82.0659189878
 21
137.8670418644
  0
LINE
  5
2AF
100
AcDbEntity
  8
RACCORDO
100
AcDbLine
 62
253
  6
CONTINUOUS
 10
96.3924699759
 20
137.8660041071
 11
96.3723948839
 21
137.8670418644
  0
LINE
  5
2B0
100
AcDbEntity
  8
RACCORDO
100
AcDbLine
 62
253
  6
CONTINUOUS
 10
82.1059371035
 20
137.8648529127
 11
82.0859940799
 21
137.8660041071
  0
LINE
  5
2B1
100
AcDbEntity
  8
RACCORDO
100
AcDbLine
 62
253
  6
CONTINUOUS
 10
96.4124129995
 20
137.8648529127
 11
96.3924699759
 21
137.8660041071
  0
LINE
  5
2B2
100
AcDbEntity
  8
RACCORDO
100
AcDbLine
 62
253
  6
CONTINUOUS
 10
82.1257348485
 20
137.8635881992
 11
82.1059371035
 21
137.8648529127
  0
LINE
  5
2B3
100
AcDbEntity
  8
RACCORDO
100
AcDbLine
 62
253
  6
CONTINUOUS
 10
96.4322107446
 20
137.8635881992
 11
96.4124129995
 21
137.8648529127
  0
LINE
  5
2B4
100
AcDbEntity
  8
RACCORDO
100
AcDbLine
 62
253
  6
CONTINUOUS
 10
82.1453741553
 20
137.8622098754
 11
82.1257348485
 21
137.8635881992
  0
LINE
  5
2B5
100
AcDbEntity
  8
RACCORDO
100
AcDbLine
 62
253
  6
CONTINUOUS
 10
96.4518500513
 20
137.8622098754
 11
96.4322107446
 21
137.8635881992
  0
LINE
  5
2B6
100
AcDbEntity
  8
RACCORDO
100
AcDbLine
 62
253
  6
CONTINUOUS
 10
82.1648417646
 20
137.8607178542
 11
82.1453741553
 21
137.8622098754
  0
LINE
  5
2B7
100
AcDbEntity
  8
RACCORDO
100
AcDbLine
 62
253
  6
CONTINUOUS
 10
96.4713176607
 20
137.8607178542
 11
96.4518500513
 21
137.8622098754
  0
LINE
  5
2B8
100
AcDbEntity
  8
RACCORDO
100
AcDbLine
 62
253
  6
CONTINUOUS
 10
82.1777182609
 20
137.8596599615
 11
82.1648417646
 21
137.8607178542
  0
LINE
  5
2B9
100
AcDbEntity
  8
RACCORDO
100
AcDbLine
 62
253
  6
CONTINUOUS
 10
96.484194157
 20
137.8596599615
 11
96.4713176607
 21
137.8607178542
  0
LINE
  5
2BA
100
AcDbEntity
  8
RACCORDO
100
AcDbLine
 62
253
  6
CONTINUOUS
 10
82.1905086787
 20
137.858551472
 11
82.1777182609
 21
137.8596599615
  0
LINE
  5
2BB
100
AcDbEntity
  8
RACCORDO
100
AcDbLine
 62
253
  6
CONTINUOUS
 10
96.4969845748
 20
137.858551472
 11
96.484194157
 21
137.8596599615
  0
LINE
  5
2BC
100
AcDbEntity
  8
RACCORDO
100
AcDbLine
 62
253
  6
CONTINUOUS
 10
82.2032091625
 20
137.8573923533
 11
82.1905086787
 21
137.858551472
  0
LINE
  5
2BD
100
AcDbEntity
  8
RACCORDO
100
AcDbLine
 62
253
  6
CONTINUOUS
 10
96.5096850585
 20
137.8573923533
 11
96.4969845748
 21
137.858551472
  0
LINE
  5
2BE
100
AcDbEntity
  8
RACCORDO
100
AcDbLine
 62
253
  6
CONTINUOUS
 10
82.2158158797
 20
137.8561825706
 11
82.2032091625
 21
137.8573923533
  0
LINE
  5
2BF
100
AcDbEntity
  8
RACCORDO
100
AcDbLine
 62
253
  6
CONTINUOUS
 10
96.5222917758
 20
137.8561825706
 11
96.5096850585
 21
137.8573923533
  0
LINE
  5
2C0
100
AcDbEntity
  8
RACCORDO
100
AcDbLine
 62
253
  6
CONTINUOUS
 10
82.2283249985
 20
137.8549220999
 11
82.2158158797
 21
137.8561825706
  0
LINE
  5
2C1
100
AcDbEntity
  8
RACCORDO
100
AcDbLine
 62
253
  6
CONTINUOUS
 10
96.5348008946
 20
137.8549220999
 11
96.5222917758
 21
137.8561825706
  0
LINE
  5
2C2
100
AcDbEntity
  8
RACCORDO
100
AcDbLine
 62
253
  6
CONTINUOUS
 10
82.2407327214
 20
137.8536109063
 11
82.2283249985
 21
137.8549220999
  0
LWPOLYLINE
  5
2C3
100
AcDbEntity
  8
RACCORDO
100
AcDbPolyline
 62
253
  6
CONTINUOUS
 90
3
 70
0
 10
96.5533733257
 20
137.8529362703
 10
96.5472086174
 20
137.8536109063
 10
96.5348008946
 20
137.8549220999
  0
LINE
  5
2C4
100
AcDbEntity
  8
RACCORDO
100
AcDbLine
 62
253
  6
CONTINUOUS
 10
82.2530354277
 20
137.8522489352
 11
82.2407327214
 21
137.8536109063
  0
LINE
  5
2C5
100
AcDbEntity
  8
RACCORDO
100
AcDbLine
 62
253
  6
CONTINUOUS
 10
82.2652294016
 20
137.8508361539
 11
82.2530354277
 21
137.8522489352
  0
LINE
  5
2C6
100
AcDbEntity
  8
RACCORDO
100
AcDbLine
 62
253
  6
CONTINUOUS
 10
82.2773109631
 20
137.8493725161
 11
82.2652294016
 21
137.8508361539
  0
LINE
  5
2C7
100
AcDbEntity
  8
RACCORDO
100
AcDbLine
 62
253
  6
CONTINUOUS
 10
82.2892764174
 20
137.8478579781
 11
82.2773109631
 21
137.8493725161
  0
LINE
  5
2C8
100
AcDbEntity
  8
RACCORDO
100
AcDbLine
 62
253
  6
CONTINUOUS
 10
82.301122083
 20
137.8462925094
 11
82.2892764174
 21
137.8478579781
  0
LINE
  5
2C9
100
AcDbEntity
  8
RACCORDO
100
AcDbLine
 62
253
  6
CONTINUOUS
 10
82.312844332
 20
137.8446760639
 11
82.301122083
 21
137.8462925094
  0
LINE
  5
2CA
100
AcDbEntity
  8
RACCORDO
100
AcDbLine
 62
253
  6
CONTINUOUS
 10
99.6973257293
 20
136.9231141785
 11
99.6873585974
 21
136.9245288314
  0
LINE
  5
2CB
100
AcDbEntity
  8
RACCORDO
100
AcDbLine
 62
253
  6
CONTINUOUS
 10
82.3244395681
 20
137.8430085933
 11
82.312844332
 21
137.8446760639
  0
LINE
  5
2CC
100
AcDbEntity
  8
RACCORDO
100
AcDbLine
 62
253
  6
CONTINUOUS
 10
82.3359042038
 20
137.8412900647
 11
82.3244395681
 21
137.8430085933
  0
LINE
  5
2CD
100
AcDbEntity
  8
RACCORDO
100
AcDbLine
 62
253
  6
CONTINUOUS
 10
82.3472347043
 20
137.8395204288
 11
82.3359042038
 21
137.8412900647
  0
LINE
  5
2CE
100
AcDbEntity
  8
RACCORDO
100
AcDbLine
 62
253
  6
CONTINUOUS
 10
82.358427581
 20
137.8376996322
 11
82.3472347043
 21
137.8395204288
  0
LINE
  5
2CF
100
AcDbEntity
  8
RACCORDO
100
AcDbLine
 62
253
  6
CONTINUOUS
 10
82.3694793865
 20
137.8358276327
 11
82.358427581
 21
137.8376996322
  0
LINE
  5
2D0
100
AcDbEntity
  8
RACCORDO
100
AcDbLine
 62
253
  6
CONTINUOUS
 10
82.3803868166
 20
137.8339043542
 11
82.3694793865
 21
137.8358276327
  0
LINE
  5
2D1
100
AcDbEntity
  8
RACCORDO
100
AcDbLine
 62
253
  6
CONTINUOUS
 10
82.3911464778
 20
137.8319297374
 11
82.3803868166
 21
137.8339043542
  0
LINE
  5
2D2
100
AcDbEntity
  8
RACCORDO
100
AcDbLine
 62
253
  6
CONTINUOUS
 10
82.401754995
 20
137.8299037414
 11
82.3911464778
 21
137.8319297374
  0
LINE
  5
2D3
100
AcDbEntity
  8
RACCORDO
100
AcDbLine
 62
253
  6
CONTINUOUS
 10
82.4122090454
 20
137.8278263066
 11
82.401754995
 21
137.8299037414
  0
LWPOLYLINE
  5
2D4
100
AcDbEntity
  8
RACCORDO
100
AcDbPolyline
 62
253
  6
CONTINUOUS
 90
3
 70
0
 10
82.4275933151
 20
137.8246135818
 10
82.4225053467
 20
137.8256973705
 10
82.4122090454
 20
137.8278263066
  0
LWPOLYLINE
  5
2D5
100
AcDbEntity
  8
RACCORDO
100
AcDbPolyline
 62
253
  6
CONTINUOUS
 90
16
 70
0
 10
76.8323416622
 20
177.6764968458
 10
76.8327135068
 20
177.6768895939
 10
76.8334812492
 20
177.6772817191
 10
76.8346436714
 20
177.6776725993
 10
76.8361989297
 20
177.6780616145
 10
76.8381445572
 20
177.6784481477
 10
76.8404774676
 20
177.6788315857
 10
76.8431939606
 20
177.6792113204
 10
76.8462897273
 20
177.6795867494
 10
76.8497598572
 20
177.6799572773
 10
76.853598846
 20
177.6803223162
 10
76.8578006043
 20
177.6806812872
 10
76.8623584674
 20
177.6810336209
 10
76.8672652055
 20
177.6813787584
 10
76.8725130358
 20
177.6817161522
 10
76.878093634
 20
177.6820452672
  0
LWPOLYLINE
  5
2D6
100
AcDbEntity
  8
RACCORDO
100
AcDbPolyline
 62
253
  6
CONTINUOUS
 90
88
 70
0
 10
81.3293229274
 20
137.8201494123
 10
81.3244422067
 20
137.8190010744
 10
81.3196041155
 20
137.8178398123
 10
81.3148090212
 20
137.8166656016
 10
81.3100573175
 20
137.8154784437
 10
81.3053493878
 20
137.8142783373
 10
81.3006855816
 20
137.8130652548
 10
81.2960662802
 20
137.8118391962
 10
81.2914918631
 20
137.8106001615
 10
81.2869626743
 20
137.8093481223
 10
81.2824790826
 20
137.8080830777
 10
81.278041463
 20
137.8068050286
 10
81.273650166
 20
137.80551395
 10
81.2693055556
 20
137.804209842
 10
81.2650079929
 20
137.8028927046
 10
81.2607578203
 20
137.8015625122
 10
81.2565553929
 20
137.8002192653
 10
81.2524010616
 20
137.7988629635
 10
81.2482951585
 20
137.7974935803
 10
81.2442380296
 20
137.7961111164
 10
81.2402300154
 20
137.7947155712
 10
81.236271436
 20
137.7933069166
 10
81.2323626267
 20
137.791885153
 10
81.228503919
 20
137.79045028
 10
81.2246956228
 20
137.7890022687
 10
81.2209380658
 20
137.7875411202
 10
81.2172315669
 20
137.7860668332
 10
81.2135764193
 20
137.7845793749
 10
81.2099729382
 20
137.7830787457
 10
81.206421435
 20
137.781564945
 10
81.2029221933
 20
137.7800379388
 10
81.1994755172
 20
137.7784977269
 10
81.1960817091
 20
137.7769443094
 10
81.1927410464
 20
137.7753776524
 10
81.1894538234
 20
137.7737977563
 10
81.1862203311
 20
137.7722046207
 10
81.1830408383
 20
137.7705982114
 10
81.1799156226
 20
137.7689785253
 10
81.1768449703
 20
137.7673455656
 10
81.1738291576
 20
137.7656993068
 10
81.1708684511
 20
137.764039746
 10
81.167963124
 20
137.7623668861
 10
81.1651134561
 20
137.7606807115
 10
81.1623196921
 20
137.758981213
 10
81.1595821012
 20
137.7572683997
 10
81.1569009887
 20
137.7555422836
 10
81.1542764797
 20
137.7538027815
 10
81.1517089356
 20
137.7520499766
 10
81.1491989793
 20
137.7502841303
 10
81.1467469076
 20
137.7485053061
 10
81.14435282
 20
137.7467134406
 10
81.1420170041
 20
137.7449086047
 10
81.1397396749
 20
137.7430908241
 10
81.137520975
 20
137.7412600731
 10
81.1353610693
 20
137.7394163455
 10
81.1332601264
 20
137.7375596409
 10
81.1312183109
 20
137.7356899596
 10
81.1292357765
 20
137.7338072959
 10
81.1273126766
 20
137.7319116479
 10
81.1254491642
 20
137.7300030174
 10
81.1236453855
 20
137.7280814042
 10
81.1219014814
 20
137.7261468077
 10
81.1202175893
 20
137.7241992284
 10
81.118593843
 20
137.7222386682
 10
81.1170303696
 20
137.7202651269
 10
81.1155272917
 20
137.7182786047
 10
81.1140847285
 20
137.7162791033
 10
81.112702793
 20
137.7142666231
 10
81.1113815932
 20
137.7122411636
 10
81.1101212328
 20
137.7102027256
 10
81.1089218107
 20
137.7081513095
 10
81.1077834203
 20
137.7060869147
 10
81.1067061507
 20
137.7040095411
 10
81.1056900859
 20
137.7019191887
 10
81.1047353057
 20
137.6998158575
 10
81.1038418843
 20
137.697699547
 10
81.1030098919
 20
137.6955702572
 10
81.1022393935
 20
137.6934279881
 10
81.1015304493
 20
137.6912727395
 10
81.1008831147
 20
137.6891045113
 10
81.1002974406
 20
137.6869233034
 10
81.0997734725
 20
137.6847291155
 10
81.0993112518
 20
137.6825219474
 10
81.0989108145
 20
137.6803017992
 10
81.0985721919
 20
137.6780686701
 10
81.0982954107
 20
137.67582256
 10
81.0980804927
 20
137.6735634689
 10
81.0979274547
 20
137.6712913971
  0
LINE
  5
2D7
100
AcDbEntity
  8
RACCORDO
100
AcDbLine
 62
253
  6
CONTINUOUS
 10
81.3392106744
 20
137.8224073159
 11
81.3293229274
 21
137.8201494123
  0
LINE
  5
2D8
100
AcDbEntity
  8
RACCORDO
100
AcDbLine
 62
253
  6
CONTINUOUS
 10
81.3492642302
 20
137.8246135911
 11
81.3392106744
 21
137.8224073159
  0
LINE
  5
2D9
100
AcDbEntity
  8
RACCORDO
100
AcDbLine
 62
253
  6
CONTINUOUS
 10
81.3594803974
 20
137.8267682819
 11
81.3492642302
 21
137.8246135911
  0
LINE
  5
2DA
100
AcDbEntity
  8
RACCORDO
100
AcDbLine
 62
253
  6
CONTINUOUS
 10
81.369855949
 20
137.8288714511
 11
81.3594803974
 21
137.8267682819
  0
LINE
  5
2DB
100
AcDbEntity
  8
RACCORDO
100
AcDbLine
 62
253
  6
CONTINUOUS
 10
81.3803876148
 20
137.8309231592
 11
81.369855949
 21
137.8288714511
  0
LINE
  5
2DC
100
AcDbEntity
  8
RACCORDO
100
AcDbLine
 62
253
  6
CONTINUOUS
 10
81.3910720695
 20
137.8329234467
 11
81.3803876148
 21
137.8309231592
  0
LWPOLYLINE
  5
2DD
100
AcDbEntity
  8
RACCORDO
100
AcDbPolyline
 62
253
  6
CONTINUOUS
 90
36
 70
0
 10
78.395974797
 20
136.9245288308
 10
78.4058768912
 20
136.9263437332
 10
78.4156978872
 20
136.9285559415
 10
78.4254218553
 20
136.9311618676
 10
78.4350330233
 20
136.9341572846
 10
78.4445158017
 20
136.937537334
 10
78.4538548096
 20
136.9412965334
 10
78.4630348988
 20
136.9454287852
 10
78.4720411794
 20
136.9499273871
 10
78.4808590431
 20
136.9547850421
 10
78.4894741873
 20
136.9599938713
 10
78.4978726382
 20
136.9655454259
 10
78.5060407735
 20
136.9714307012
 10
78.5139653444
 20
136.9776401513
 10
78.5216334972
 20
136.9841637044
 10
78.5290327942
 20
136.9909907794
 10
78.5361512336
 20
136.9981103027
 10
78.5429772693
 20
137.0055107264
 10
78.5494998296
 20
137.013180047
 10
78.5557083346
 20
137.0211058248
 10
78.5615927143
 20
137.0292752043
 10
78.5671434241
 20
137.0376749345
 10
78.5723514607
 20
137.0462913912
 10
78.5772083768
 20
137.0551105984
 10
78.5817062943
 20
137.0641182513
 10
78.5858379176
 20
137.0732997395
 10
78.5895965451
 20
137.0826401706
 10
78.5929760805
 20
137.0921243943
 10
78.595971042
 20
137.1017370272
 10
78.5985765719
 20
137.1114624776
 10
78.6007884438
 20
137.1212849707
 10
78.6026030703
 20
137.1311885745
 10
78.6040175079
 20
137.1411572252
 10
78.6050294623
 20
137.1511747537
 10
78.6056372923
 20
137.1612249114
 10
78.6058400119
 20
137.1712913971
  0
LINE
  5
2DE
100
AcDbEntity
  8
RACCORDO
100
AcDbLine
 62
253
  6
CONTINUOUS
 10
81.4019059624
 20
137.8348723729
 11
81.3910720695
 21
137.8329234467
  0
LINE
  5
2DF
100
AcDbEntity
  8
RACCORDO
100
AcDbLine
 62
253
  6
CONTINUOUS
 10
81.4128859789
 20
137.8367700067
 11
81.4019059624
 21
137.8348723729
  0
LINE
  5
2E0
100
AcDbEntity
  8
RACCORDO
100
AcDbLine
 62
253
  6
CONTINUOUS
 10
81.4240087181
 20
137.838616392
 11
81.4128859789
 21
137.8367700067
  0
LINE
  5
2E1
100
AcDbEntity
  8
RACCORDO
100
AcDbLine
 62
253
  6
CONTINUOUS
 10
81.4352707875
 20
137.8404115931
 11
81.4240087181
 21
137.838616392
  0
LINE
  5
2E2
100
AcDbEntity
  8
RACCORDO
100
AcDbLine
 62
253
  6
CONTINUOUS
 10
81.4466687353
 20
137.8421556668
 11
81.4352707875
 21
137.8404115931
  0
LINE
  5
2E3
100
AcDbEntity
  8
RACCORDO
100
AcDbLine
 62
253
  6
CONTINUOUS
 10
81.4581990388
 20
137.8438486495
 11
81.4466687353
 21
137.8421556668
  0
LINE
  5
2E4
100
AcDbEntity
  8
RACCORDO
100
AcDbLine
 62
253
  6
CONTINUOUS
 10
81.469858165
 20
137.8454905936
 11
81.4581990388
 21
137.8438486495
  0
LINE
  5
2E5
100
AcDbEntity
  8
RACCORDO
100
AcDbLine
 62
253
  6
CONTINUOUS
 10
81.4816425233
 20
137.8470815456
 11
81.469858165
 21
137.8454905936
  0
LINE
  5
2E6
100
AcDbEntity
  8
RACCORDO
100
AcDbLine
 62
253
  6
CONTINUOUS
 10
81.4935484738
 20
137.8486215363
 11
81.4816425233
 21
137.8470815456
  0
LINE
  5
2E7
100
AcDbEntity
  8
RACCORDO
100
AcDbLine
 62
253
  6
CONTINUOUS
 10
81.5055723628
 20
137.850110611
 11
81.4935484738
 21
137.8486215363
  0
LINE
  5
2E8
100
AcDbEntity
  8
RACCORDO
100
AcDbLine
 62
253
  6
CONTINUOUS
 10
81.517710527
 20
137.8515488154
 11
81.5055723628
 21
137.850110611
  0
LINE
  5
2E9
100
AcDbEntity
  8
RACCORDO
100
AcDbLine
 62
253
  6
CONTINUOUS
 10
81.529959263
 20
137.8529361807
 11
81.517710527
 21
137.8515488154
  0
LINE
  5
2EA
100
AcDbEntity
  8
RACCORDO
100
AcDbLine
 62
253
  6
CONTINUOUS
 10
96.5656221272
 20
137.8515489015
 11
96.5533733257
 21
137.8529362703
  0
LINE
  5
2EB
100
AcDbEntity
  8
RACCORDO
100
AcDbLine
 62
253
  6
CONTINUOUS
 10
96.5777603666
 20
137.850110692
 11
96.5656221272
 21
137.8515489015
  0
LINE
  5
2EC
100
AcDbEntity
  8
RACCORDO
100
AcDbLine
 62
253
  6
CONTINUOUS
 10
96.5897843306
 20
137.8486216114
 11
96.5777603666
 21
137.850110692
  0
LINE
  5
2ED
100
AcDbEntity
  8
RACCORDO
100
AcDbLine
 62
253
  6
CONTINUOUS
 10
96.6016903429
 20
137.8470816159
 11
96.5897843306
 21
137.8486216114
  0
LINE
  5
2EE
100
AcDbEntity
  8
RACCORDO
100
AcDbLine
 62
253
  6
CONTINUOUS
 10
96.6134747605
 20
137.8454906588
 11
96.6016903429
 21
137.8470816159
  0
LINE
  5
2EF
100
AcDbEntity
  8
RACCORDO
100
AcDbLine
 62
253
  6
CONTINUOUS
 10
96.6251339478
 20
137.8438487087
 11
96.6134747605
 21
137.8454906588
  0
LINE
  5
2F0
100
AcDbEntity
  8
RACCORDO
100
AcDbLine
 62
253
  6
CONTINUOUS
 10
96.6366643243
 20
137.8421557175
 11
96.6251339478
 21
137.8438487087
  0
LINE
  5
2F1
100
AcDbEntity
  8
RACCORDO
100
AcDbLine
 62
253
  6
CONTINUOUS
 10
96.6480623402
 20
137.8404116353
 11
96.6366643243
 21
137.8421557175
  0
LINE
  5
2F2
100
AcDbEntity
  8
RACCORDO
100
AcDbLine
 62
253
  6
CONTINUOUS
 10
96.6593244633
 20
137.8386164272
 11
96.6480623402
 21
137.8404116353
  0
LINE
  5
2F3
100
AcDbEntity
  8
RACCORDO
100
AcDbLine
 62
253
  6
CONTINUOUS
 10
96.6704472111
 20
137.836770042
 11
96.6593244633
 21
137.8386164272
  0
LINE
  5
2F4
100
AcDbEntity
  8
RACCORDO
100
AcDbLine
 62
253
  6
CONTINUOUS
 10
96.681427264
 20
137.834872403
 11
96.6704472111
 21
137.836770042
  0
LINE
  5
2F5
100
AcDbEntity
  8
RACCORDO
100
AcDbLine
 62
253
  6
CONTINUOUS
 10
96.6922612251
 20
137.8329234657
 11
96.681427264
 21
137.834872403
  0
LWPOLYLINE
  5
2F6
100
AcDbEntity
  8
RACCORDO
100
AcDbPolyline
 62
253
  6
CONTINUOUS
 90
36
 70
0
 10
99.6873585974
 20
136.9245288314
 10
99.6774565025
 20
136.926343734
 10
99.6676355059
 20
136.9285559427
 10
99.6579115372
 20
136.9311618691
 10
99.6483003688
 20
136.9341572866
 10
99.63881759
 20
136.9375373364
 10
99.6294785819
 20
136.9412965361
 10
99.6202984924
 20
136.9454287884
 10
99.6112922116
 20
136.9499273906
 10
99.6024743479
 20
136.9547850461
 10
99.5938592036
 20
136.9599938757
 10
99.5854607528
 20
136.9655454306
 10
99.5772926177
 20
136.9714307062
 10
99.569368047
 20
136.9776401566
 10
99.5616998944
 20
136.98416371
 10
99.5543005977
 20
136.9909907852
 10
99.5471821586
 20
136.9981103087
 10
99.5403561232
 20
137.0055107325
 10
99.5338335633
 20
137.0131800532
 10
99.5276250586
 20
137.021105831
 10
99.5217406794
 20
137.0292752104
 10
99.51618997
 20
137.0376749405
 10
99.5109819338
 20
137.0462913971
 10
99.5061250181
 20
137.055110604
 10
99.5016271011
 20
137.0641182567
 10
99.4974954782
 20
137.0732997446
 10
99.493736851
 20
137.0826401753
 10
99.4903573159
 20
137.0921243986
 10
99.4873623547
 20
137.1017370311
 10
99.4847568252
 20
137.111462481
 10
99.4825449535
 20
137.1212849736
 10
99.4807303272
 20
137.1311885768
 10
99.4793158898
 20
137.141157227
 10
99.4783039355
 20
137.1511747549
 10
99.4776961055
 20
137.161224912
 10
99.477493386
 20
137.1712913971
  0
LINE
  5
2F7
100
AcDbEntity
  8
RACCORDO
100
AcDbLine
 62
253
  6
CONTINUOUS
 10
96.7029457301
 20
137.8309231693
 11
96.6922612251
 21
137.8329234657
  0
LINE
  5
2F8
100
AcDbEntity
  8
RACCORDO
100
AcDbLine
 62
253
  6
CONTINUOUS
 10
96.7134774346
 20
137.8288714539
 11
96.7029457301
 21
137.8309231693
  0
LINE
  5
2F9
100
AcDbEntity
  8
RACCORDO
100
AcDbLine
 62
253
  6
CONTINUOUS
 10
96.7238530156
 20
137.8267682787
 11
96.7134774346
 21
137.8288714539
  0
LINE
  5
2FA
100
AcDbEntity
  8
RACCORDO
100
AcDbLine
 62
253
  6
CONTINUOUS
 10
96.7340692111
 20
137.8246135818
 11
96.7238530156
 21
137.8267682787
  0
LINE
  5
2FB
100
AcDbEntity
  8
RACCORDO
100
AcDbLine
 62
253
  6
CONTINUOUS
 10
96.7441227981
 20
137.8224072991
 11
96.7340692111
 21
137.8246135818
  0
LWPOLYLINE
  5
2FC
100
AcDbEntity
  8
RACCORDO
100
AcDbPolyline
 62
253
  6
CONTINUOUS
 90
18
 70
0
 10
76.8323416622
 20
144.1660859483
 10
76.8327135056
 20
144.1656932001
 10
76.8334812468
 20
144.165301075
 10
76.8346436679
 20
144.1649101947
 10
76.8361989252
 20
144.1645211795
 10
76.8381445517
 20
144.1641346462
 10
76.8404774612
 20
144.1637512082
 10
76.8431939534
 20
144.1633714734
 10
76.8462897194
 20
144.1629960443
 10
76.8497598486
 20
144.1626255165
 10
76.8535988368
 20
144.1622604775
 10
76.8578005946
 20
144.1619015064
 10
76.8623584573
 20
144.1615491727
 10
76.8672651951
 20
144.1612040352
 10
76.872513025
 20
144.1608666413
 10
76.8780936231
 20
144.1605375263
 10
76.8839981373
 20
144.1602172121
 10
76.8967409525
 20
144.1596050038
  0
LINE
  5
2FD
100
AcDbEntity
  8
RACCORDO
100
AcDbLine
 62
7
  6
CONTINUOUS
 10
76.7638521534
 20
142.1212913971
 11
101.3194812444
 21
142.1212913971
  0
LINE
  5
2FE
100
AcDbEntity
  8
RACCORDO
100
AcDbLine
 62
253
  6
CONTINUOUS
 10
101.2052397574
 20
144.1605375274
 11
101.1931161781
 21
144.1599062081
  0
LINE
  5
2FF
100
AcDbEntity
  8
RACCORDO
100
AcDbLine
 62
253
  6
CONTINUOUS
 10
101.1931161781
 20
144.1599062081
 11
101.1797743391
 21
144.1593140823
  0
LINE
  5
300
100
AcDbEntity
  8
RACCORDO
100
AcDbLine
 62
253
  6
CONTINUOUS
 10
101.1797743391
 20
144.1593140823
 11
101.1652988577
 21
144.1587649053
  0
LINE
  5
301
100
AcDbEntity
  8
RACCORDO
100
AcDbLine
 62
253
  6
CONTINUOUS
 10
101.1652988577
 20
144.1587649053
 11
101.1497815409
 21
144.1582621603
  0
LINE
  5
302
100
AcDbEntity
  8
RACCORDO
100
AcDbLine
 62
253
  6
CONTINUOUS
 10
101.1497815409
 20
144.1582621603
 11
101.1333208036
 21
144.1578090357
  0
LINE
  5
303
100
AcDbEntity
  8
RACCORDO
100
AcDbLine
 62
253
  6
CONTINUOUS
 10
101.1333208036
 20
144.1578090357
 11
101.1070906286
 21
144.157228583
  0
LINE
  5
304
100
AcDbEntity
  8
RACCORDO
100
AcDbLine
 62
253
  6
CONTINUOUS
 10
101.1070906286
 20
144.157228583
 11
101.0793479595
 21
144.156774442
  0
LINE
  5
305
100
AcDbEntity
  8
RACCORDO
100
AcDbLine
 62
253
  6
CONTINUOUS
 10
101.0793479595
 20
144.156774442
 11
101.0504884242
 21
144.156453089
  0
LINE
  5
306
100
AcDbEntity
  8
RACCORDO
100
AcDbLine
 62
253
  6
CONTINUOUS
 10
101.0504884242
 20
144.156453089
 11
101.0209235778
 21
144.1562691066
  0
LINE
  5
307
100
AcDbEntity
  8
RACCORDO
100
AcDbLine
 62
7
  6
CONTINUOUS
 10
77.0131324754
 20
142.6212913971
 11
101.0702009225
 21
142.6212913971
  0
LINE
  5
308
100
AcDbEntity
  8
RACCORDO
100
AcDbLine
 62
253
  6
CONTINUOUS
 10
101.0118376409
 20
143.2108636081
 11
77.071495757
 21
143.2108636081
  0
LINE
  5
309
100
AcDbEntity
  8
RACCORDO
100
AcDbLine
 62
253
  6
CONTINUOUS
 10
101.0209235778
 20
144.1562691066
 11
77.082303586
 21
144.156224144
  0
LINE
  5
30A
100
AcDbEntity
  8
RACCORDO
100
AcDbLine
 62
253
  6
CONTINUOUS
 10
77.0525023837
 20
144.1563149656
 11
77.082303586
 21
144.156224144
  0
LINE
  5
30B
100
AcDbEntity
  8
RACCORDO
100
AcDbLine
 62
253
  6
CONTINUOUS
 10
77.0231261654
 20
144.1565451276
 11
77.0525023837
 21
144.1563149656
  0
LINE
  5
30C
100
AcDbEntity
  8
RACCORDO
100
AcDbLine
 62
253
  6
CONTINUOUS
 10
76.9945938548
 20
144.1569113477
 11
77.0231261654
 21
144.1565451276
  0
LINE
  5
30D
100
AcDbEntity
  8
RACCORDO
100
AcDbLine
 62
253
  6
CONTINUOUS
 10
76.9673123405
 20
144.1574084034
 11
76.9945938548
 21
144.1569113477
  0
LINE
  5
30E
100
AcDbEntity
  8
RACCORDO
100
AcDbLine
 62
253
  6
CONTINUOUS
 10
76.9416706745
 20
144.1580292065
 11
76.9673123405
 21
144.1574084034
  0
LINE
  5
30F
100
AcDbEntity
  8
RACCORDO
100
AcDbLine
 62
253
  6
CONTINUOUS
 10
76.9256689555
 20
144.1585075208
 11
76.9416706745
 21
144.1580292065
  0
LINE
  5
310
100
AcDbEntity
  8
RACCORDO
100
AcDbLine
 62
253
  6
CONTINUOUS
 10
76.9106606527
 20
144.1590338994
 11
76.9256689555
 21
144.1585075208
  0
LINE
  5
311
100
AcDbEntity
  8
RACCORDO
100
AcDbLine
 62
253
  6
CONTINUOUS
 10
76.8967409525
 20
144.1596050038
 11
76.9106606527
 21
144.1590338994
  0
LWPOLYLINE
  5
312
100
AcDbEntity
  8
RACCORDO
100
AcDbPolyline
 62
253
  6
CONTINUOUS
 90
36
 70
0
 10
76.677493386
 20
184.6712913971
 10
76.6776961055
 20
184.6813578821
 10
76.6783039355
 20
184.6914080392
 10
76.6793158898
 20
184.7014255671
 10
76.6807303272
 20
184.7113942173
 10
76.6825449535
 20
184.7212978205
 10
76.6847568252
 20
184.7311203131
 10
76.6873623547
 20
184.740845763
 10
76.6903573159
 20
184.7504583955
 10
76.693736851
 20
184.7599426188
 10
76.6974954782
 20
184.7692830495
 10
76.7016271011
 20
184.7784645374
 10
76.7061250181
 20
184.7874721901
 10
76.7109819338
 20
184.7962913971
 10
76.71618997
 20
184.8049078536
 10
76.7217406794
 20
184.8133075837
 10
76.7276250586
 20
184.8214769631
 10
76.7338335633
 20
184.829402741
 10
76.7403561232
 20
184.8370720616
 10
76.7471821586
 20
184.8444724854
 10
76.7543005977
 20
184.8515920089
 10
76.7616998944
 20
184.8584190841
 10
76.769368047
 20
184.8649426375
 10
76.7772926177
 20
184.8711520879
 10
76.7854607528
 20
184.8770373635
 10
76.7938592036
 20
184.8825889184
 10
76.8024743479
 20
184.887797748
 10
76.8112922116
 20
184.8926554035
 10
76.8202984924
 20
184.8971540057
 10
76.8294785819
 20
184.901286258
 10
76.83881759
 20
184.9050454577
 10
76.8483003688
 20
184.9084255075
 10
76.8579115372
 20
184.911420925
 10
76.8676355059
 20
184.9140268514
 10
76.8774565025
 20
184.9162390601
 10
76.8873585974
 20
184.9180539627
  0
LWPOLYLINE
  5
313
100
AcDbEntity
  8
RACCORDO
100
AcDbPolyline
 62
7
  6
CONTINUOUS
 90
40
 70
0
 10
76.677493386
 20
183.1712913971
 10
76.6779460349
 20
183.1800308215
 10
76.6787060458
 20
183.1887834094
 10
76.6797753627
 20
183.1975382709
 10
76.6811552956
 20
183.206281959
 10
76.6828470912
 20
183.2150057305
 10
76.6848527721
 20
183.2237054246
 10
76.6871732965
 20
183.2323688917
 10
76.6898094619
 20
183.2409849874
 10
76.6927641098
 20
183.2495504592
 10
76.696037744
 20
183.2580524325
 10
76.6996307875
 20
183.2664790223
 10
76.7035472851
 20
183.2748275192
 10
76.7077872652
 20
183.2830840438
 10
76.7123507757
 20
183.2912357437
 10
76.7172434393
 20
183.2992800582
 10
76.7224646701
 20
183.3072017026
 10
76.7280141071
 20
183.3149866054
 10
76.7338994561
 20
183.3226320374
 10
76.740119312
 20
183.3301208721
 10
76.7466727825
 20
183.3374374033
 10
76.75357026
 20
183.3445782442
 10
76.7608091612
 20
183.3515238498
 10
76.768387849
 20
183.3582563493
 10
76.7763201681
 20
183.3647709909
 10
76.7846017877
 20
183.371045077
 10
76.7932299528
 20
183.3770578547
 10
76.8022229081
 20
183.3828021178
 10
76.8115737348
 20
183.388251104
 10
76.8212778711
 20
183.3933801722
 10
76.8313588942
 20
183.3981778656
 10
76.8418058812
 20
183.4026121594
 10
76.8526113623
 20
183.4066532479
 10
76.863805183
 20
183.4102827348
 10
76.8753703697
 20
183.4134619078
 10
76.8872944744
 20
183.4161540504
 10
76.8996136304
 20
183.4183296582
 10
76.9123249466
 20
183.4199441297
 10
76.9253842437
 20
183.4209468888
 10
76.9387611841
 20
183.4212913971
  0
LWPOLYLINE
  5
314
100
AcDbEntity
  8
RACCORDO
100
AcDbPolyline
 62
253
  6
CONTINUOUS
 90
6
 70
0
 10
76.8232235243
 20
178.3617208853
 10
76.822890033
 20
178.367510442
 10
76.8225542445
 20
178.3727861142
 10
76.8222164047
 20
178.3775437099
 10
76.8218762676
 20
178.3817874211
 10
76.8215338332
 20
178.3855172478
  0
LINE
  5
315
100
AcDbEntity
  8
RACCORDO
100
AcDbLine
 62
253
  6
CONTINUOUS
 10
76.8238813847
 20
178.3486368609
 11
76.8232235243
 21
178.3617208853
  0
LWPOLYLINE
  5
316
100
AcDbEntity
  8
RACCORDO
100
AcDbPolyline
 62
253
  6
CONTINUOUS
 90
5
 70
0
 10
77.0728522677
 20
178.6077023839
 10
77.0725164681
 20
178.6147383689
 10
77.0721785664
 20
178.6210894533
 10
77.0718383293
 20
178.6267510702
 10
77.071495757
 20
178.631719186
  0
LINE
  5
317
100
AcDbEntity
  8
RACCORDO
100
AcDbLine
 62
253
  6
CONTINUOUS
 10
76.8245263962
 20
178.3335621439
 11
76.8238813847
 21
178.3486368609
  0
LINE
  5
318
100
AcDbEntity
  8
RACCORDO
100
AcDbLine
 62
253
  6
CONTINUOUS
 10
77.0735161614
 20
178.5915959424
 11
77.0728522677
 21
178.6077023839
  0
LINE
  5
319
100
AcDbEntity
  8
RACCORDO
100
AcDbLine
 62
253
  6
CONTINUOUS
 10
76.8251564826
 20
178.3165422618
 11
76.8245263962
 21
178.3335621439
  0
LINE
  5
31A
100
AcDbEntity
  8
RACCORDO
100
AcDbLine
 62
253
  6
CONTINUOUS
 10
77.0741679122
 20
178.5728150621
 11
77.0735161614
 21
178.5915959424
  0
LINE
  5
31B
100
AcDbEntity
  8
RACCORDO
100
AcDbLine
 62
253
  6
CONTINUOUS
 10
76.8260696568
 20
178.2874786649
 11
76.8251564826
 21
178.3165422618
  0
LINE
  5
31C
100
AcDbEntity
  8
RACCORDO
100
AcDbLine
 62
253
  6
CONTINUOUS
 10
77.0751186039
 20
178.5397483365
 11
77.0741679122
 21
178.5728150621
  0
LINE
  5
31D
100
AcDbEntity
  8
RACCORDO
100
AcDbLine
 62
253
  6
CONTINUOUS
 10
76.8269394755
 20
178.2543363108
 11
76.8260696568
 21
178.2874786649
  0
LWPOLYLINE
  5
31E
100
AcDbEntity
  8
RACCORDO
100
AcDbPolyline
 62
253
  6
CONTINUOUS
 90
40
 70
0
 10
76.8215338332
 20
143.4570655463
 10
76.8217662153
 20
143.4471710655
 10
76.8224020983
 20
143.4372925717
 10
76.8234404548
 20
143.427446026
 10
76.824879607
 20
143.417647338
 10
76.8267172296
 20
143.40791234
 10
76.8289503535
 20
143.3982567614
 10
76.8315753706
 20
143.388696203
 10
76.8345880394
 20
143.3792461125
 10
76.8379834923
 20
143.3699217588
 10
76.841756243
 20
143.3607382078
 10
76.8459001957
 20
143.3517102978
 10
76.8504086548
 20
143.3428526156
 10
76.8552743359
 20
143.3341794732
 10
76.8604893771
 20
143.325704884
 10
76.8660453522
 20
143.3174425411
 10
76.8719332842
 20
143.3094057942
 10
76.8781436597
 20
143.3016076288
 10
76.8846664442
 20
143.2940606447
 10
76.8914910985
 20
143.2867770361
 10
76.8986065957
 20
143.2797685714
 10
76.9060014389
 20
143.2730465745
 10
76.9136636799
 20
143.2666219067
 10
76.9215809384
 20
143.2605049484
 10
76.9297404221
 20
143.2547055833
 10
76.9381289473
 20
143.2492331817
 10
76.9467329601
 20
143.2440965856
 10
76.9555385588
 20
143.2393040944
 10
76.9645315155
 20
143.2348634518
 10
76.9736972999
 20
143.2307818325
 10
76.9830211024
 20
143.2270658316
 10
76.992487858
 20
143.2237214532
 10
77.0020822708
 20
143.220754101
 10
77.0117888386
 20
143.2181685694
 10
77.021591878
 20
143.2159690361
 10
77.0314755497
 20
143.2141590549
 10
77.0414238841
 20
143.2127415504
 10
77.0514208072
 20
143.2117188128
 10
77.0614501665
 20
143.2110924947
 10
77.071495757
 20
143.2108636081
  0
LINE
  5
31F
100
AcDbEntity
  8
RACCORDO
100
AcDbLine
 62
253
  6
CONTINUOUS
 10
77.0763267003
 20
178.4868588785
 11
77.0751186039
 21
178.5397483365
  0
LINE
  5
320
100
AcDbEntity
  8
RACCORDO
100
AcDbLine
 62
253
  6
CONTINUOUS
 10
76.828022202
 20
178.2041740673
 11
76.8269394755
 21
178.2543363108
  0
LINE
  5
321
100
AcDbEntity
  8
RACCORDO
100
AcDbLine
 62
253
  6
CONTINUOUS
 10
77.0777224097
 20
178.407463514
 11
77.0763267003
 21
178.4868588785
  0
LINE
  5
322
100
AcDbEntity
  8
RACCORDO
100
AcDbLine
 62
253
  6
CONTINUOUS
 10
76.8292349723
 20
178.1326708735
 11
76.828022202
 21
178.2041740673
  0
LINE
  5
323
100
AcDbEntity
  8
RACCORDO
100
AcDbLine
 62
253
  6
CONTINUOUS
 10
77.0794188965
 20
178.2740968098
 11
77.0777224097
 21
178.407463514
  0
LINE
  5
324
100
AcDbEntity
  8
RACCORDO
100
AcDbLine
 62
253
  6
CONTINUOUS
 10
76.8306324212
 20
178.0184699146
 11
76.8292349723
 21
178.1326708735
  0
LINE
  5
325
100
AcDbEntity
  8
RACCORDO
100
AcDbLine
 62
253
  6
CONTINUOUS
 10
77.0812188107
 20
178.0472609911
 11
77.0794188965
 21
178.2740968098
  0
LINE
  5
326
100
AcDbEntity
  8
RACCORDO
100
AcDbLine
 62
253
  6
CONTINUOUS
 10
76.8317457947
 20
177.8724664863
 11
76.8306324212
 21
178.0184699146
  0
LINE
  5
327
100
AcDbEntity
  8
RACCORDO
100
AcDbLine
 62
253
  6
CONTINUOUS
 10
77.0822575734
 20
177.7394430284
 11
77.0812188107
 21
178.0472609911
  0
LINE
  5
328
100
AcDbEntity
  8
RACCORDO
100
AcDbLine
 62
253
  6
CONTINUOUS
 10
76.8323416622
 20
177.6764968458
 11
76.8317457947
 21
177.8724664863
  0
LINE
  5
329
100
AcDbEntity
  8
RACCORDO
100
AcDbLine
 62
253
  6
CONTINUOUS
 10
76.8339246966
 20
175.1952462954
 11
76.8323416622
 21
177.6764968458
  0
LINE
  5
32A
100
AcDbEntity
  8
RACCORDO
100
AcDbLine
 62
253
  6
CONTINUOUS
 10
77.0838866204
 20
175.2036616531
 11
77.0822575734
 21
177.7394430284
  0
LINE
  5
32B
100
AcDbEntity
  8
RACCORDO
100
AcDbLine
 62
253
  6
CONTINUOUS
 10
76.8358244703
 20
171.4725140855
 11
76.8339246966
 21
175.1952462954
  0
LINE
  5
32C
100
AcDbEntity
  8
RACCORDO
100
AcDbLine
 62
253
  6
CONTINUOUS
 10
77.0857863942
 20
171.4787277102
 11
77.0838866204
 21
175.2036616531
  0
LINE
  5
32D
100
AcDbEntity
  8
RACCORDO
100
AcDbLine
 62
253
  6
CONTINUOUS
 10
76.8374710775
 20
166.5076481757
 11
76.8358244703
 21
171.4725140855
  0
LINE
  5
32E
100
AcDbEntity
  8
RACCORDO
100
AcDbLine
 62
253
  6
CONTINUOUS
 10
77.0874330013
 20
166.5109361471
 11
77.0857863942
 21
171.4787277102
  0
LINE
  5
32F
100
AcDbEntity
  8
RACCORDO
100
AcDbLine
 62
7
  6
CONTINUOUS
 10
76.6416666989
 20
137.1712913971
 11
76.6416666989
 21
184.6712913971
  0
LINE
  5
330
100
AcDbEntity
  8
RACCORDO
100
AcDbLine
 62
253
  6
CONTINUOUS
 10
76.677493386
 20
137.1712913971
 11
76.677493386
 21
138.6712913971
  0
LINE
  5
331
100
AcDbEntity
  8
RACCORDO
100
AcDbLine
 62
253
  6
CONTINUOUS
 10
76.677493386
 20
183.1712913971
 11
76.677493386
 21
184.6712913971
  0
LINE
  5
332
100
AcDbEntity
  8
RACCORDO
100
AcDbLine
 62
7
  6
CONTINUOUS
 10
76.7638521534
 20
142.1212913971
 11
76.7638521534
 21
142.8743787175
  0
LINE
  5
333
100
AcDbEntity
  8
RACCORDO
100
AcDbLine
 62
7
  6
CONTINUOUS
 10
76.7638521534
 20
178.9682040766
 11
76.7638521534
 21
179.7212913971
  0
LINE
  5
334
100
AcDbEntity
  8
RACCORDO
100
AcDbLine
 62
253
  6
CONTINUOUS
 10
76.7682920779
 20
138.6712913971
 11
76.7682920779
 21
142.1212913971
  0
LINE
  5
335
100
AcDbEntity
  8
RACCORDO
100
AcDbLine
 62
253
  6
CONTINUOUS
 10
76.7682920779
 20
179.7212913971
 11
76.7682920779
 21
183.1712913971
  0
LINE
  5
336
100
AcDbEntity
  8
RACCORDO
100
AcDbLine
 62
253
  6
CONTINUOUS
 10
76.8380410856
 20
162.7834579963
 11
76.8374710775
 21
166.5076481757
  0
LINE
  5
337
100
AcDbEntity
  8
RACCORDO
100
AcDbLine
 62
253
  6
CONTINUOUS
 10
77.0182540017
 20
138.4212913971
 11
77.0182540017
 21
142.1212913971
  0
LINE
  5
338
100
AcDbEntity
  8
RACCORDO
100
AcDbLine
 62
253
  6
CONTINUOUS
 10
77.0182540017
 20
179.7212913971
 11
77.0182540017
 21
183.4212913971
  0
LINE
  5
339
100
AcDbEntity
  8
RACCORDO
100
AcDbLine
 62
253
  6
CONTINUOUS
 10
77.0880030094
 20
162.7845540545
 11
77.0874330013
 21
166.5109361471
  0
LINE
  5
33A
100
AcDbEntity
  8
RACCORDO
100
AcDbLine
 62
253
  6
CONTINUOUS
 10
76.8379144155
 20
157.817701445
 11
76.8380410856
 21
162.7834579963
  0
LINE
  5
33B
100
AcDbEntity
  8
RACCORDO
100
AcDbLine
 62
253
  6
CONTINUOUS
 10
77.0878763393
 20
157.8158713152
 11
77.0880030094
 21
162.7845540545
  0
LINE
  5
33C
100
AcDbEntity
  8
RACCORDO
100
AcDbLine
 62
253
  6
CONTINUOUS
 10
76.8371544128
 20
154.0936225968
 11
76.8379144155
 21
157.817701445
  0
LINE
  5
33D
100
AcDbEntity
  8
RACCORDO
100
AcDbLine
 62
253
  6
CONTINUOUS
 10
77.0871163367
 20
154.0896006192
 11
77.0878763393
 21
157.8158713152
  0
LWPOLYLINE
  5
33E
100
AcDbEntity
  8
RACCORDO
100
AcDbPolyline
 62
253
  6
CONTINUOUS
 90
4
 70
0
 10
76.8346212562
 20
147.8881286879
 10
76.8352545157
 20
149.1290429526
 10
76.8358244703
 20
150.3700685855
 10
76.8371544128
 20
154.0936225968
  0
LWPOLYLINE
  5
33F
100
AcDbEntity
  8
RACCORDO
100
AcDbPolyline
 62
253
  6
CONTINUOUS
 90
4
 70
0
 10
77.0845831801
 20
147.8804579354
 10
77.0852164397
 20
149.1221061183
 10
77.0857863942
 20
150.363855084
 10
77.0871163367
 20
154.0896006192
  0
LINE
  5
340
100
AcDbEntity
  8
RACCORDO
100
AcDbLine
 62
253
  6
CONTINUOUS
 10
76.8331648318
 20
145.4066554933
 11
76.8346212562
 21
147.8881286879
  0
LWPOLYLINE
  5
341
100
AcDbEntity
  8
RACCORDO
100
AcDbPolyline
 62
253
  6
CONTINUOUS
 90
3
 70
0
 10
77.082303586
 20
144.156224144
 10
77.0831267557
 20
145.3975063423
 10
77.0845831801
 20
147.8804579354
  0
LINE
  5
342
100
AcDbEntity
  8
RACCORDO
100
AcDbLine
 62
253
  6
CONTINUOUS
 10
76.8318461173
 20
143.989223341
 11
76.8331648318
 21
145.4066554933
  0
LINE
  5
343
100
AcDbEntity
  8
RACCORDO
100
AcDbLine
 62
253
  6
CONTINUOUS
 10
77.0814806032
 20
143.844621369
 11
77.082303586
 21
144.156224144
  0
LINE
  5
344
100
AcDbEntity
  8
RACCORDO
100
AcDbLine
 62
253
  6
CONTINUOUS
 10
76.8308009208
 20
143.8415760444
 11
76.8318461173
 21
143.989223341
  0
LINE
  5
345
100
AcDbEntity
  8
RACCORDO
100
AcDbLine
 62
253
  6
CONTINUOUS
 10
77.0798411734
 20
143.6107959875
 11
77.0814806032
 21
143.844621369
  0
LINE
  5
346
100
AcDbEntity
  8
RACCORDO
100
AcDbLine
 62
253
  6
CONTINUOUS
 10
77.0782397896
 20
143.4707266513
 11
77.0798411734
 21
143.6107959875
  0
LINE
  5
347
100
AcDbEntity
  8
RACCORDO
100
AcDbLine
 62
253
  6
CONTINUOUS
 10
76.8294570181
 20
143.7252855345
 11
76.8308009208
 21
143.8415760444
  0
LINE
  5
348
100
AcDbEntity
  8
RACCORDO
100
AcDbLine
 62
253
  6
CONTINUOUS
 10
77.0769015258
 20
143.3857742527
 11
77.0782397896
 21
143.4707266513
  0
LINE
  5
349
100
AcDbEntity
  8
RACCORDO
100
AcDbLine
 62
253
  6
CONTINUOUS
 10
76.8282778698
 20
143.6519602185
 11
76.8294570181
 21
143.7252855345
  0
LINE
  5
34A
100
AcDbEntity
  8
RACCORDO
100
AcDbLine
 62
253
  6
CONTINUOUS
 10
76.8272188331
 20
143.6001646579
 11
76.8282778698
 21
143.6519602185
  0
LINE
  5
34B
100
AcDbEntity
  8
RACCORDO
100
AcDbLine
 62
253
  6
CONTINUOUS
 10
77.0757317583
 20
143.3280514029
 11
77.0769015258
 21
143.3857742527
  0
LWPOLYLINE
  5
34C
100
AcDbEntity
  8
RACCORDO
100
AcDbPolyline
 62
253
  6
CONTINUOUS
 90
40
 70
0
 10
76.8215338332
 20
178.3855172478
 10
76.8217662153
 20
178.3954117295
 10
76.8224020985
 20
178.4052902242
 10
76.8234404551
 20
178.4151367707
 10
76.8248796075
 20
178.4249354594
 10
76.8267172304
 20
178.4346704581
 10
76.8289503547
 20
178.4443260374
 10
76.8315753721
 20
178.4538865962
 10
76.8345880413
 20
178.4633366872
 10
76.8379834946
 20
178.4726610412
 10
76.8417562457
 20
178.4818445926
 10
76.8459001988
 20
178.4908725028
 10
76.8504086584
 20
178.4997301851
 10
76.8552743398
 20
178.5084033277
 10
76.8604893814
 20
178.5168779168
 10
76.8660453569
 20
178.5251402597
 10
76.8719332893
 20
178.5331770065
 10
76.8781436651
 20
178.5409751718
 10
76.8846664498
 20
178.5485221557
 10
76.8914911043
 20
178.555805764
 10
76.8986066017
 20
178.5628142284
 10
76.9060014451
 20
178.5695362249
 10
76.9136636861
 20
178.5759608924
 10
76.9215809446
 20
178.5820778503
 10
76.9297404283
 20
178.587877215
 10
76.9381289534
 20
178.5933496162
 10
76.9467329661
 20
178.5984862119
 10
76.9555385645
 20
178.6032787027
 10
76.9645315209
 20
178.6077193449
 10
76.9736973051
 20
178.6118009638
 10
76.9830211072
 20
178.6155169643
 10
76.9924878624
 20
178.6188613423
 10
77.0020822747
 20
178.6218286943
 10
77.0117888421
 20
178.6244142256
 10
77.0215918809
 20
178.6266137586
 10
77.0314755521
 20
178.6284237396
 10
77.0414238859
 20
178.629841244
 10
77.0514208085
 20
178.6308639814
 10
77.0614501671
 20
178.6314902994
 10
77.071495757
 20
178.631719186
  0
LINE
  5
34D
100
AcDbEntity
  8
RACCORDO
100
AcDbLine
 62
253
  6
CONTINUOUS
 10
76.8263647083
 20
143.5657081723
 11
76.8272188331
 21
143.6001646579
  0
LINE
  5
34E
100
AcDbEntity
  8
RACCORDO
100
AcDbLine
 62
253
  6
CONTINUOUS
 10
77.0748054396
 20
143.2911695192
 11
77.0757317583
 21
143.3280514029
  0
LINE
  5
34F
100
AcDbEntity
  8
RACCORDO
100
AcDbLine
 62
253
  6
CONTINUOUS
 10
77.0741679145
 20
143.2697677731
 11
77.0748054396
 21
143.2911695192
  0
LINE
  5
350
100
AcDbEntity
  8
RACCORDO
100
AcDbLine
 62
253
  6
CONTINUOUS
 10
76.8254653528
 20
143.5352630575
 11
76.8263647083
 21
143.5657081723
  0
LINE
  5
351
100
AcDbEntity
  8
RACCORDO
100
AcDbLine
 62
253
  6
CONTINUOUS
 10
76.8248433842
 20
143.5172898961
 11
76.8254653528
 21
143.5352630575
  0
LINE
  5
352
100
AcDbEntity
  8
RACCORDO
100
AcDbLine
 62
253
  6
CONTINUOUS
 10
77.0735161637
 20
143.2509868917
 11
77.0741679145
 21
143.2697677731
  0
LINE
  5
353
100
AcDbEntity
  8
RACCORDO
100
AcDbLine
 62
253
  6
CONTINUOUS
 10
76.8242058353
 20
143.5012422989
 11
76.8248433842
 21
143.5172898961
  0
LINE
  5
354
100
AcDbEntity
  8
RACCORDO
100
AcDbLine
 62
253
  6
CONTINUOUS
 10
76.8215338332
 20
178.3855172478
 11
76.7638521534
 21
178.9682040766
  0
LINE
  5
355
100
AcDbEntity
  8
RACCORDO
100
AcDbLine
 62
253
  6
CONTINUOUS
 10
77.071495757
 20
178.631719186
 11
77.0131324754
 21
179.2212913971
  0
LWPOLYLINE
  5
356
100
AcDbEntity
  8
RACCORDO
100
AcDbPolyline
 62
253
  6
CONTINUOUS
 90
36
 70
0
 10
78.6058400119
 20
184.6712913971
 10
78.6056372923
 20
184.6813578827
 10
78.6050294623
 20
184.6914080405
 10
78.6040175078
 20
184.701425569
 10
78.6026030703
 20
184.7113942198
 10
78.6007884438
 20
184.7212978236
 10
78.5985765718
 20
184.7311203168
 10
78.595971042
 20
184.7408457672
 10
78.5929760804
 20
184.7504584001
 10
78.589596545
 20
184.7599426239
 10
78.5858379174
 20
184.769283055
 10
78.5817062941
 20
184.7784645432
 10
78.5772083766
 20
184.7874721961
 10
78.5723514605
 20
184.7962914033
 10
78.5671434238
 20
184.80490786
 10
78.561592714
 20
184.8133075903
 10
78.5557083343
 20
184.8214769697
 10
78.5494998292
 20
184.8294027475
 10
78.542977269
 20
184.8370720681
 10
78.5361512332
 20
184.8444724918
 10
78.5290327938
 20
184.8515920151
 10
78.5216334968
 20
184.8584190901
 10
78.5139653439
 20
184.8649426432
 10
78.5060407731
 20
184.8711520933
 10
78.4978726378
 20
184.8770373686
 10
78.4894741869
 20
184.8825889231
 10
78.4808590427
 20
184.8877977522
 10
78.472041179
 20
184.8926554073
 10
78.4630348984
 20
184.8971540091
 10
78.4538548091
 20
184.9012862609
 10
78.4445158013
 20
184.9050454602
 10
78.4350330229
 20
184.9084255096
 10
78.425421855
 20
184.9114209266
 10
78.4156978869
 20
184.9140268527
 10
78.4058768909
 20
184.916239061
 10
78.3959747968
 20
184.9180539633
  0
LINE
  5
357
100
AcDbEntity
  8
RACCORDO
100
AcDbLine
 62
253
  6
CONTINUOUS
 10
78.6058400119
 20
184.6712913971
 11
78.6058400119
 21
183.4212913971
  0
LINE
  5
358
100
AcDbEntity
  8
RACCORDO
100
AcDbLine
 62
253
  6
CONTINUOUS
 10
78.6058400119
 20
138.4212913971
 11
78.6058400119
 21
137.1712913971
  0
LINE
  5
359
100
AcDbEntity
  8
RACCORDO
100
AcDbLine
 62
7
  6
CONTINUOUS
 10
78.6416666989
 20
137.1712913971
 11
78.6416666989
 21
138.4212913971
  0
LINE
  5
35A
100
AcDbEntity
  8
RACCORDO
100
AcDbLine
 62
7
  6
CONTINUOUS
 10
78.6416666989
 20
183.4212913971
 11
78.6416666989
 21
184.6712913971
  0
LWPOLYLINE
  5
35B
100
AcDbEntity
  8
RACCORDO
100
AcDbPolyline
 62
253
  6
CONTINUOUS
 90
6
 70
0
 10
77.071495757
 20
143.2108636081
 10
77.0718383307
 20
143.2158317363
 10
77.0721785688
 20
143.2214933651
 10
77.0725164711
 20
143.2278444595
 10
77.0728522707
 20
143.2348804498
 10
77.0735161637
 20
143.2509868917
  0
LWPOLYLINE
  5
35C
100
AcDbEntity
  8
RACCORDO
100
AcDbPolyline
 62
253
  6
CONTINUOUS
 90
8
 70
0
 10
76.8215338332
 20
143.4570655463
 10
76.8218763034
 20
143.4607958648
 10
76.8222164675
 20
143.4650399784
 10
76.8225543253
 20
143.4697978871
 10
76.8228901201
 20
143.4750737517
 10
76.8232236086
 20
143.4808634114
 10
76.8235540616
 20
143.487154384
 10
76.8242058353
 20
143.5012422989
  0
LINE
  5
35D
100
AcDbEntity
  8
RACCORDO
100
AcDbLine
 62
253
  6
CONTINUOUS
 10
76.7638521534
 20
142.8743787175
 11
76.8215338332
 21
143.4570655463
  0
LINE
  5
35E
100
AcDbEntity
  8
RACCORDO
100
AcDbLine
 62
253
  6
CONTINUOUS
 10
77.0131324754
 20
142.6212913971
 11
77.071495757
 21
143.2108636081
  0
LWPOLYLINE
  5
35F
100
AcDbEntity
  8
0
100
AcDbPolyline
 62
7
  6
CONTINUOUS
 90
3
 70
0
 43
0.3500000006
 10
90.0773772583
 20
195.0070065308
 10
90.0059551392
 20
194.7927220459
 10
89.8630927734
 20
194.5069973145
  0
LWPOLYLINE
  5
360
100
AcDbEntity
  8
RACCORDO
100
AcDbPolyline
 62
253
  6
CONTINUOUS
 90
89
 70
0
 10
82.6789300471
 20
137.6712913971
 10
82.6787770097
 20
137.673563463
 10
82.6785620922
 20
137.6758225497
 10
82.6782853117
 20
137.6780686572
 10
82.6779466896
 20
137.6803017857
 10
82.6775462524
 20
137.6825219351
 10
82.6770840317
 20
137.6847291049
 10
82.6765600634
 20
137.686923295
 10
82.6759743887
 20
137.6891045056
 10
82.6753270535
 20
137.6912727365
 10
82.6746181085
 20
137.6934279877
 10
82.6738476092
 20
137.6955702592
 10
82.673015616
 20
137.6976995507
 10
82.6721221943
 20
137.6998158618
 10
82.6711674139
 20
137.701919193
 10
82.6701513493
 20
137.7040095448
 10
82.6690740804
 20
137.7060869168
 10
82.6679356912
 20
137.7081513093
 10
82.66673627
 20
137.710202724
 10
82.6654759093
 20
137.7122411625
 10
82.6641547087
 20
137.7142666232
 10
82.6627727743
 20
137.716279102
 10
82.6613302138
 20
137.7182785997
 10
82.659827141
 20
137.7202651155
 10
82.6582636784
 20
137.7222386441
 10
82.6566399536
 20
137.7241991801
 10
82.6549560903
 20
137.7261467287
 10
82.6532122122
 20
137.7280813
 10
82.651408457
 20
137.7300028929
 10
82.6495449644
 20
137.7319115084
 10
82.6476218666
 20
137.7338071592
 10
82.6456393109
 20
137.7356898476
 10
82.6435974528
 20
137.7375595714
 10
82.6414964422
 20
137.739416337
 10
82.6393364203
 20
137.7412601618
 10
82.6371175741
 20
137.7430910284
 10
82.6348401335
 20
137.7449088907
 10
82.6325042639
 20
137.7467137585
 10
82.630110165
 20
137.7485056221
 10
82.6276581369
 20
137.7502844058
 10
82.6251483386
 20
137.752050136
 10
82.6225810176
 20
137.7538027864
 10
82.6199566377
 20
137.7555422022
 10
82.6172754456
 20
137.7572683694
 10
82.6145376629
 20
137.758981302
 10
82.6117437515
 20
137.760680888
 10
82.6088940494
 20
137.7623670782
 10
82.6059887414
 20
137.7640399218
 10
82.6030280783
 20
137.7656994539
 10
82.6000123347
 20
137.767345672
 10
82.5969417784
 20
137.7689785785
 10
82.5938166527
 20
137.7705982169
 10
82.5906372349
 20
137.7722045886
 10
82.5874038104
 20
137.7737976922
 10
82.5841166374
 20
137.7753775661
 10
82.5807759989
 20
137.7769442137
 10
82.577382195
 20
137.7784976317
 10
82.5739355135
 20
137.7800378483
 10
82.5704362546
 20
137.7815648639
 10
82.5668847236
 20
137.7830786782
 10
82.5632812214
 20
137.7845793178
 10
82.5596260673
 20
137.78606678
 10
82.5559195697
 20
137.7875410676
 10
82.5521620175
 20
137.7890022154
 10
82.5483537308
 20
137.7904502245
 10
82.5444950364
 20
137.7918850938
 10
82.5405862367
 20
137.7933068551
 10
82.5366276591
 20
137.7947155104
 10
82.5326196426
 20
137.7961110577
 10
82.5285625111
 20
137.7974935238
 10
82.524456606
 20
137.7988629088
 10
82.5203022725
 20
137.8002192125
 10
82.5160998435
 20
137.801562461
 10
82.5118496711
 20
137.8028926544
 10
82.5075521094
 20
137.8042097925
 10
82.5032074992
 20
137.8055139014
 10
82.4988162019
 20
137.8068049811
 10
82.4943785811
 20
137.8080830316
 10
82.4898949843
 20
137.8093480785
 10
82.4853657825
 20
137.8106001221
 10
82.4807913482
 20
137.8118391622
 10
82.4761720348
 20
137.8130652247
 10
82.4715082278
 20
137.8142783081
 10
82.4668003029
 20
137.8154784138
 10
82.4620486016
 20
137.8166655717
 10
82.4572535049
 20
137.8178397835
 10
82.4524154088
 20
137.8190010474
 10
82.4475346797
 20
137.8201493878
 10
82.437646902
 20
137.8224072991
  0
LINE
  5
361
100
AcDbEntity
  8
DRAFT
100
AcDbLine
 62
7
  6
CONTINUOUS
 10
80.8845711146
 20
138.4212913971
 11
80.8845711146
 21
137.6712913971
  0
LINE
  5
362
100
AcDbEntity
  8
RACCORDO
100
AcDbLine
 62
253
  6
CONTINUOUS
 10
81.0979274547
 20
184.1712913971
 11
81.0979274547
 21
183.4212913971
  0
LINE
  5
363
100
AcDbEntity
  8
RACCORDO
100
AcDbLine
 62
253
  6
CONTINUOUS
 10
81.0979274547
 20
138.4212913971
 11
81.0979274547
 21
137.6712913971
  0
LWPOLYLINE
  5
364
100
AcDbEntity
  8
RACCORDO
100
AcDbPolyline
 62
253
  6
CONTINUOUS
 90
90
 70
0
 10
81.0979274547
 20
184.1712913971
 10
81.0980804922
 20
184.1690193308
 10
81.0982954097
 20
184.1667602437
 10
81.0985721903
 20
184.1645141358
 10
81.0989108125
 20
184.162281007
 10
81.0993112497
 20
184.1600608573
 10
81.0997734706
 20
184.1578536871
 10
81.100297439
 20
184.1556594966
 10
81.1008831139
 20
184.1534782857
 10
81.1015304493
 20
184.1513100545
 10
81.1022393946
 20
184.1491548029
 10
81.1030098941
 20
184.1470125311
 10
81.1038418875
 20
184.1448832394
 10
81.1047353095
 20
184.1427669279
 10
81.1056900902
 20
184.1406635964
 10
81.106706155
 20
184.1385732444
 10
81.1077834242
 20
184.1364958721
 10
81.1089218137
 20
184.1344314793
 10
81.1101212352
 20
184.1323800645
 10
81.1113815963
 20
184.1303416257
 10
81.1127027972
 20
184.1283161649
 10
81.114084732
 20
184.1263036858
 10
81.115527293
 20
184.1243041877
 10
81.1170303664
 20
184.1223176713
 10
81.1185938295
 20
184.1203441425
 10
81.1202175546
 20
184.1183836066
 10
81.1219014179
 20
184.1164360582
 10
81.123645296
 20
184.1145014872
 10
81.1254490513
 20
184.1125798945
 10
81.1273125438
 20
184.1106712793
 10
81.1292356419
 20
184.1087756284
 10
81.1312181982
 20
184.1068929397
 10
81.1332600572
 20
184.1050232153
 10
81.1353610694
 20
184.1031664486
 10
81.1375210938
 20
184.101322622
 10
81.1397399432
 20
184.0994917532
 10
81.142017388
 20
184.097673888
 10
81.1443532626
 20
184.0958690169
 10
81.1467473675
 20
184.0940771494
 10
81.1491994035
 20
184.0922983608
 10
81.1517092119
 20
184.0905326244
 10
81.1542765451
 20
184.0887799668
 10
81.1569009393
 20
184.0870405428
 10
81.1595821495
 20
184.0853143656
 10
81.1623199527
 20
184.083601422
 10
81.165113881
 20
184.0819018277
 10
81.1679635935
 20
184.0802156335
 10
81.1708689077
 20
184.0785427886
 10
81.1738295745
 20
184.0768832567
 10
81.1768453188
 20
184.0752370404
 10
81.1799158728
 20
184.0736041372
 10
81.1830409958
 20
184.0719845022
 10
81.1862204107
 20
184.0703781337
 10
81.189453832
 20
184.0687850335
 10
81.1927410032
 20
184.0672051622
 10
81.1960816423
 20
184.0656385159
 10
81.1994754484
 20
184.0640850984
 10
81.2029221331
 20
184.0625448819
 10
81.2064213965
 20
184.0610178658
 10
81.2099729331
 20
184.0595040507
 10
81.2135764405
 20
184.0580034104
 10
81.2172315991
 20
184.0565159479
 10
81.2209381009
 20
184.0550416601
 10
81.2246956567
 20
184.0535805124
 10
81.2285039461
 20
184.0521325038
 10
81.2323626425
 20
184.0506976352
 10
81.2362714443
 20
184.0492758745
 10
81.2402300244
 20
184.0478672198
 10
81.2442380435
 20
184.0464716729
 10
81.2482951779
 20
184.0450892073
 10
81.252401086
 20
184.0437198226
 10
81.2565554227
 20
184.0423635192
 10
81.2607578551
 20
184.0410202708
 10
81.2650080312
 20
184.0396900776
 10
81.2693055968
 20
184.0383729396
 10
81.2736502111
 20
184.0370688307
 10
81.2780415127
 20
184.0357777511
 10
81.282479138
 20
184.0344997006
 10
81.2869627393
 20
184.0332346536
 10
81.2914919456
 20
184.0319826101
 10
81.2960663846
 20
184.03074357
 10
81.3006857022
 20
184.0295175077
 10
81.305349513
 20
184.0283044245
 10
81.3100574413
 20
184.0271043191
 10
81.3148091456
 20
184.0259171617
 10
81.319604245
 20
184.0247429505
 10
81.3244423434
 20
184.0235816872
 10
81.3293230749
 20
184.0224333475
 10
81.3342460467
 20
184.0212979305
 10
81.3442171274
 20
184.0190658455
  0
LINE
  5
365
100
AcDbEntity
  8
RACCORDO
100
AcDbLine
 62
253
  6
CONTINUOUS
 10
82.6789300471
 20
184.1712913971
 11
82.6789300471
 21
183.4212913971
  0
LINE
  5
366
100
AcDbEntity
  8
RACCORDO
100
AcDbLine
 62
253
  6
CONTINUOUS
 10
82.6789300471
 20
138.4212913971
 11
82.6789300471
 21
137.6712913971
  0
LINE
  5
367
100
AcDbEntity
  8
DRAFT
100
AcDbLine
 62
7
  6
CONTINUOUS
 10
82.8416666989
 20
137.6712913971
 11
82.8416666989
 21
138.4212913971
  0
LINE
  5
368
100
AcDbEntity
  8
DRAFT
100
AcDbLine
 62
7
  6
CONTINUOUS
 10
82.8416666989
 20
183.4212913971
 11
82.8416666989
 21
184.1712913971
  0
LINE
  5
369
100
AcDbEntity
  8
0
100
AcDbLine
 62
7
  6
CONTINUOUS
 10
83.0416666989
 20
184.9712913971
 11
83.0416666989
 21
183.4220402456
  0
LINE
  5
36A
100
AcDbEntity
  8
0
100
AcDbLine
 62
7
  6
CONTINUOUS
 10
83.0416666989
 20
136.8712913971
 11
83.0416666989
 21
135.8712913971
  0
LINE
  5
36B
100
AcDbEntity
  8
0
100
AcDbLine
 62
7
  6
CONTINUOUS
 10
83.0416666989
 20
136.8712913971
 11
83.0416666989
 21
138.4205425485
  0
LINE
  5
36C
100
AcDbEntity
  8
0
100
AcDbLine
 62
7
  6
CONTINUOUS
 10
83.0416666989
 20
184.9712913971
 11
83.0416666989
 21
185.9712913971
  0
LINE
  5
36D
100
AcDbEntity
  8
0
100
AcDbLine
 62
7
  6
CONTINUOUS
 10
83.5416666989
 20
164.0967178776
 11
83.5416666989
 21
157.7458649165
  0
LINE
  5
36E
100
AcDbEntity
  8
0
100
AcDbLine
 62
7
  6
CONTINUOUS
 10
89.0416666989
 20
167.2721443581
 11
83.5416666989
 21
164.0967178776
  0
LINE
  5
36F
100
AcDbEntity
  8
0
100
AcDbLine
 62
7
  6
CONTINUOUS
 10
83.5416666989
 20
157.7458649165
 11
89.0416666989
 21
154.570438436
  0
LINE
  5
370
100
AcDbEntity
  8
RACCORDO
100
AcDbLine
 62
7
  6
CONTINUOUS
 10
84.5416666989
 20
184.9712913971
 11
84.5416666989
 21
184.5110816493
  0
LINE
  5
371
100
AcDbEntity
  8
RACCORDO
100
AcDbLine
 62
7
  6
CONTINUOUS
 10
84.5416666989
 20
137.3315011448
 11
84.5416666989
 21
136.8712913971
  0
LINE
  5
372
100
AcDbEntity
  8
RACCORDO
100
AcDbLine
 62
253
  6
CONTINUOUS
 10
84.7416666989
 20
184.8297008569
 11
84.7416666989
 21
184.4492782504
  0
LINE
  5
373
100
AcDbEntity
  8
RACCORDO
100
AcDbLine
 62
253
  6
CONTINUOUS
 10
84.7416666989
 20
137.0128819372
 11
84.7416666989
 21
137.3933045437
  0
LWPOLYLINE
  5
374
100
AcDbEntity
  8
0
100
AcDbPolyline
 62
7
  6
CONTINUOUS
 90
25
 70
0
 10
85.0582096627
 20
162.252482608
 10
85.1307326312
 20
162.4583824927
 10
85.2142069973
 20
162.6610424156
 10
85.3085279957
 20
162.8598621816
 10
85.4136960056
 20
163.0544828414
 10
85.5294254762
 20
163.244050008
 10
85.6550186481
 20
163.4272909788
 10
85.7901042295
 20
163.6036661646
 10
85.9343280894
 20
163.7727151933
 10
86.086777719
 20
163.9334540857
 10
86.2467365498
 20
164.0853237323
 10
86.4138815423
 20
164.2282033016
 10
86.5877959054
 20
164.3618698796
 10
86.7677644996
 20
164.4859103182
 10
86.9534302749
 20
164.6002096882
 10
87.1449798327
 20
164.7049145799
 10
87.3422929434
 20
164.7998819619
 10
87.5445052162
 20
164.8846203494
 10
87.7507043809
 20
164.9587419716
 10
87.9601060089
 20
165.0220119503
 10
88.1723607608
 20
165.0743710281
 10
88.3871854318
 20
165.1157533566
 10
88.6041092351
 20
165.1460416802
 10
88.8224628468
 20
165.165116179
 10
89.0416666989
 20
165.1729075279
  0
LWPOLYLINE
  5
375
100
AcDbEntity
  8
0
100
AcDbPolyline
 62
7
  6
CONTINUOUS
 90
58
 70
0
 10
89.0416666989
 20
156.5397714557
 10
88.8003303668
 20
156.5441419784
 10
88.5593542595
 20
156.561814514
 10
88.3194724241
 20
156.592769292
 10
88.0812175094
 20
156.6369889794
 10
87.8455257128
 20
156.6943517493
 10
87.6137087691
 20
156.7645210206
 10
87.3868073195
 20
156.8470781058
 10
87.1651153989
 20
156.9418105469
 10
86.9488049507
 20
157.0486186027
 10
86.7386446071
 20
157.1671325176
 10
86.5351583456
 20
157.2970668676
 10
86.3382388604
 20
157.4386024509
 10
86.1482907619
 20
157.5916972201
 10
85.9663170124
 20
157.755803679
 10
85.7931483811
 20
157.9303795004
 10
85.6292193549
 20
158.1152155665
 10
85.4753670149
 20
158.3096120551
 10
85.3328192459
 20
158.5120814727
 10
85.2020389489
 20
158.7218493375
 10
85.0833130411
 20
158.9383281947
 10
84.9772805734
 20
159.1600978896
 10
84.8843657763
 20
159.3856922321
 10
84.8043373854
 20
159.6150201484
 10
84.7368940135
 20
159.848745085
 10
84.682157671
 20
160.0868394533
 10
84.640551499
 20
160.3279531095
 10
84.6123047708
 20
160.5708071906
 10
84.59747322
 20
160.8144379583
 10
84.5960322381
 20
161.0583285201
 10
84.6079570469
 20
161.3018553823
 10
84.6331827655
 20
161.5442139002
 10
84.6716160974
 20
161.7847537459
 10
84.7232026376
 20
162.0230833041
 10
84.7877508221
 20
162.2582452715
 10
84.8651473284
 20
162.4897689776
 10
84.9556181394
 20
162.7179392594
 10
85.059381534
 20
162.9425797767
 10
85.1760890387
 20
163.1622928284
 10
85.305082078
 20
163.3755378989
 10
85.4460656239
 20
163.5816859377
 10
85.5986134953
 20
163.7799839045
 10
85.7615224226
 20
163.9689174441
 10
85.9339100065
 20
164.1477074286
 10
86.1154011003
 20
164.3161939443
 10
86.3053683165
 20
164.4739647959
 10
86.5028502283
 20
164.6204213538
 10
86.7074591973
 20
164.7554670406
 10
86.919513173
 20
164.879346919
 10
87.1389982593
 20
164.9919170241
 10
87.3647291801
 20
165.0924372251
 10
87.5952771485
 20
165.1802747276
 10
87.8295118505
 20
165.2551118537
 10
88.0671059319
 20
165.3169546766
 10
88.3077901984
 20
165.3657667247
 10
88.5510031981
 20
165.4014158507
 10
88.7958714118
 20
165.4237559082
 10
89.0416666989
 20
165.432715149
  0
LWPOLYLINE
  5
376
100
AcDbEntity
  8
0
100
AcDbPolyline
 62
7
  6
CONTINUOUS
 90
4
 70
0
 10
88.8057938093
 20
156.2838571887
 10
88.5602871566
 20
156.3006790774
 10
88.3159730673
 20
156.3304843645
 10
88.073537223
 20
156.3731901099
  0
LWPOLYLINE
  5
377
100
AcDbEntity
  8
0
100
AcDbPolyline
 62
7
  6
CONTINUOUS
 90
58
 70
0
 10
85.0046333699
 20
158.6137251683
 10
85.1423762498
 20
158.3963226079
 10
85.2918364593
 20
158.1870326428
 10
85.4525413155
 20
157.986487806
 10
85.6239842936
 20
157.795292927
 10
85.8056254853
 20
157.6140245319
 10
85.9968930509
 20
157.4432288528
 10
86.1971862759
 20
157.2834187914
 10
86.40587853
 20
157.1350718462
 10
86.6223180699
 20
156.9986299227
 10
86.8458292125
 20
156.8744984827
 10
87.0757142746
 20
156.763045144
 10
87.3112567009
 20
156.6645979453
 10
87.5517233678
 20
156.5794444166
 10
87.7963657904
 20
156.5078310923
 10
88.0444223496
 20
156.4499625702
 10
88.2951186363
 20
156.4060009672
 10
88.5476803265
 20
156.376063704
 10
88.8013346834
 20
156.3602253482
 10
89.0553010131
 20
156.3585190035
 10
89.3087873124
 20
156.3709343436
 10
89.5610033476
 20
156.3974160492
 10
89.8111683684
 20
156.4378649102
 10
90.0585096549
 20
156.4921385918
 10
90.30225954
 20
156.560050755
 10
90.5416652958
 20
156.6413731191
 10
90.7759894933
 20
156.7358362766
 10
91.0045087443
 20
156.8431291527
 10
91.2265191341
 20
156.9629010034
 10
91.4413395998
 20
157.0947635464
 10
91.6483121845
 20
157.2382915961
 10
91.8468027145
 20
157.3930234084
 10
92.036203611
 20
157.5584624237
 10
92.2159368974
 20
157.7340798122
 10
92.3854544107
 20
157.9193147587
 10
92.5442405228
 20
158.1135770789
 10
92.6918141636
 20
158.3162498357
 10
92.827729157
 20
158.5266899978
 10
92.9515752125
 20
158.744229407
 10
93.0629801486
 20
158.9681778608
 10
93.1616110804
 20
159.1978251429
 10
93.2471766387
 20
159.4324464436
 10
93.31942681
 20
159.6713038795
 10
93.3781523517
 20
159.9136449899
 10
93.4231859348
 20
160.1587044896
 10
93.4544036846
 20
160.4057098994
 10
93.4717253451
 20
160.6538843142
 10
93.4751142438
 20
160.9024463274
 10
93.4645778227
 20
161.1506120699
 10
93.4401676059
 20
161.3976017413
 10
93.4019786886
 20
161.6426405365
 10
93.3501498364
 20
161.8849586033
 10
93.2848629937
 20
162.1237953947
 10
93.2063416539
 20
162.3584049004
 10
93.114849947
 20
162.5880563242
 10
93.0106930804
 20
162.8120328737
 10
92.8942166021
 20
163.029634838
 10
92.7658040582
 20
163.2401844874
  0
LWPOLYLINE
  5
378
100
AcDbEntity
  8
RACCORDO
100
AcDbPolyline
 62
7
  6
CONTINUOUS
 90
25
 70
0
 10
84.5416666989
 20
184.8915042558
 10
84.5421101018
 20
184.8874336904
 10
84.5433910832
 20
184.8834146088
 10
84.5455096429
 20
184.8794470108
 10
84.5484819799
 20
184.8755143948
 10
84.5522918954
 20
184.8716332624
 10
84.5568907924
 20
184.867853119
 10
84.5622887778
 20
184.864175258
 10
84.5684757448
 20
184.860598386
 10
84.5753727765
 20
184.8571681271
 10
84.5829889686
 20
184.8538863594
 10
84.5913152255
 20
184.8507512048
 10
84.6002453427
 20
184.8478026533
 10
84.6097870557
 20
184.8450430954
 10
84.619932629
 20
184.8424701405
 10
84.6305526523
 20
184.8401166077
 10
84.6416532034
 20
184.8379853077
 10
84.6532282045
 20
184.8360734297
 10
84.6651300125
 20
184.8344053605
 10
84.6773628137
 20
184.8329842232
 10
84.6899224218
 20
184.8318068946
 10
84.7026486345
 20
184.8308883919
 10
84.7154880513
 20
184.8302337209
 10
84.7284940728
 20
184.8298378759
 10
84.7416666989
 20
184.8297008569
  0
LINE
  5
379
100
AcDbEntity
  8
RACCORDO
100
AcDbLine
 62
7
  6
CONTINUOUS
 10
85.3076394038
 20
184.7887225456
 11
85.4272741274
 21
183.4212913971
  0
LINE
  5
37A
100
AcDbEntity
  8
RACCORDO
100
AcDbLine
 62
7
  6
CONTINUOUS
 10
85.4272741274
 20
138.4212913971
 11
85.3076394038
 21
137.0538602485
  0
LWPOLYLINE
  5
37B
100
AcDbEntity
  8
RACCORDO
100
AcDbPolyline
 62
7
  6
CONTINUOUS
 90
25
 70
0
 10
84.5416666989
 20
137.3315011448
 10
84.5421101018
 20
137.3355717102
 10
84.5433910832
 20
137.3395907918
 10
84.5455096429
 20
137.3435583898
 10
84.5484819799
 20
137.3474910058
 10
84.5522918954
 20
137.3513721382
 10
84.5568907924
 20
137.3551522816
 10
84.5622887778
 20
137.3588301426
 10
84.5684757448
 20
137.3624070146
 10
84.5753727765
 20
137.3658372735
 10
84.5829889686
 20
137.3691190412
 10
84.5913152255
 20
137.3722541958
 10
84.6002453427
 20
137.3752027473
 10
84.6097870557
 20
137.3779623053
 10
84.619932629
 20
137.3805352601
 10
84.6305526523
 20
137.3828887929
 10
84.6416532034
 20
137.3850200929
 10
84.6532282045
 20
137.3869319709
 10
84.6651300125
 20
137.3886000401
 10
84.6773628137
 20
137.3900211774
 10
84.6899224218
 20
137.3911985061
 10
84.7026486345
 20
137.3921170087
 10
84.7154880513
 20
137.3927716797
 10
84.7284940728
 20
137.3931675247
 10
84.7416666989
 20
137.3933045437
  0
LWPOLYLINE
  5
37C
100
AcDbEntity
  8
0
100
AcDbPolyline
 62
7
  6
CONTINUOUS
 90
13
 70
0
 43
0.3500000006
 10
107.8345203552
 20
159.0998624268
 10
106.548813446
 20
159.0998624268
 10
106.1202354126
 20
159.3141469116
 10
105.6916664429
 20
159.7427158813
 10
105.6916664429
 20
159.9570003662
 10
106.1202354126
 20
160.3855693359
 10
106.548813446
 20
160.5998538208
 10
107.8345203552
 20
160.5998538208
 10
108.2630983887
 20
160.3855693359
 10
108.6916673584
 20
159.9570003662
 10
108.6916673584
 20
159.7427158813
 10
108.2630983887
 20
159.3141469116
 10
107.8345203552
 20
159.0998624268
  0
LWPOLYLINE
  5
37D
100
AcDbEntity
  8
0
100
AcDbPolyline
 62
7
  6
CONTINUOUS
 90
2
 70
0
 43
0.3500000006
 10
88.0059545288
 20
194.7212999268
 10
88.0059545288
 20
196.2212913208
  0
LWPOLYLINE
  5
37E
100
AcDbEntity
  8
RACCORDO
100
AcDbPolyline
 62
7
  6
CONTINUOUS
 90
25
 70
0
 10
93.5416666989
 20
136.9510785383
 10
93.541223296
 20
136.9551491037
 10
93.5399423147
 20
136.9591681853
 10
93.537823755
 20
136.9631357833
 10
93.534851418
 20
136.9670683993
 10
93.5310415025
 20
136.9709495317
 10
93.5264426054
 20
136.9747296751
 10
93.5210446201
 20
136.9784075361
 10
93.5148576531
 20
136.9819844081
 10
93.5079606214
 20
136.985414667
 10
93.5003444293
 20
136.9886964347
 10
93.4920181724
 20
136.9918315893
 10
93.4830880552
 20
136.9947801408
 10
93.4735463422
 20
136.9975396987
 10
93.4634007689
 20
137.0001126536
 10
93.4527807456
 20
137.0024661864
 10
93.4416801945
 20
137.0045974864
 10
93.4301051934
 20
137.0065093644
 10
93.4182033854
 20
137.0081774336
 10
93.4059705842
 20
137.0095985709
 10
93.3934109761
 20
137.0107758995
 10
93.3806847634
 20
137.0116944022
 10
93.3678453466
 20
137.0123490732
 10
93.3548393251
 20
137.0127449182
 10
93.3416666989
 20
137.0128819372
  0
LINE
  5
37F
100
AcDbEntity
  8
RACCORDO
100
AcDbLine
 62
7
  6
CONTINUOUS
 10
92.7756939941
 20
137.0538602485
 11
92.6560592705
 21
138.4212913971
  0
LWPOLYLINE
  5
380
100
AcDbEntity
  8
0
100
AcDbPolyline
 62
7
  6
CONTINUOUS
 90
4
 70
0
 43
0.3500000006
 10
91.0773775635
 20
195.1498688965
 10
91.0773775635
 20
196.0070068359
 10
91.5059555969
 20
196.4355758057
 10
92.1488090515
 20
196.4355758057
  0
LINE
  5
381
100
AcDbEntity
  8
RACCORDO
100
AcDbLine
 62
7
  6
CONTINUOUS
 10
92.6560592705
 20
183.4212913971
 11
92.7756939941
 21
184.7887225456
  0
LWPOLYLINE
  5
382
100
AcDbEntity
  8
RACCORDO
100
AcDbPolyline
 62
7
  6
CONTINUOUS
 90
25
 70
0
 10
93.5416666989
 20
184.5110816493
 10
93.541223296
 20
184.5070110839
 10
93.5399423147
 20
184.5029920023
 10
93.537823755
 20
184.4990244043
 10
93.534851418
 20
184.4950917883
 10
93.5310415025
 20
184.4912106559
 10
93.5264426054
 20
184.4874305125
 10
93.5210446201
 20
184.4837526515
 10
93.5148576531
 20
184.4801757795
 10
93.5079606214
 20
184.4767455206
 10
93.5003444293
 20
184.4734637529
 10
93.4920181724
 20
184.4703285983
 10
93.4830880552
 20
184.4673800468
 10
93.4735463422
 20
184.4646204888
 10
93.4634007689
 20
184.462047534
 10
93.4527807456
 20
184.4596940012
 10
93.4416801945
 20
184.4575627012
 10
93.4301051934
 20
184.4556508232
 10
93.4182033854
 20
184.453982754
 10
93.4059705842
 20
184.4525616167
 10
93.3934109761
 20
184.451384288
 10
93.3806847634
 20
184.4504657854
 10
93.3678453466
 20
184.4498111144
 10
93.3548393251
 20
184.4494152694
 10
93.3416666989
 20
184.4492782504
  0
LINE
  5
383
100
AcDbEntity
  8
RACCORDO
100
AcDbLine
 62
253
  6
CONTINUOUS
 10
93.3416666989
 20
184.8297008569
 11
93.3416666989
 21
184.4492782504
  0
LINE
  5
384
100
AcDbEntity
  8
RACCORDO
100
AcDbLine
 62
253
  6
CONTINUOUS
 10
93.3416666989
 20
137.0128819372
 11
93.3416666989
 21
137.3933045437
  0
LINE
  5
385
100
AcDbEntity
  8
RACCORDO
100
AcDbLine
 62
7
  6
CONTINUOUS
 10
93.5416666989
 20
136.8712913971
 11
93.5416666989
 21
137.3315011448
  0
LINE
  5
386
100
AcDbEntity
  8
RACCORDO
100
AcDbLine
 62
7
  6
CONTINUOUS
 10
93.5416666989
 20
184.5110816493
 11
93.5416666989
 21
184.9712913971
  0
LINE
  5
387
100
AcDbEntity
  8
0
100
AcDbLine
 62
7
  6
CONTINUOUS
 10
94.5416666989
 20
157.7458649165
 11
94.5416666989
 21
164.0967178776
  0
LINE
  5
388
100
AcDbEntity
  8
0
100
AcDbLine
 62
7
  6
CONTINUOUS
 10
89.0416666989
 20
154.570438436
 11
94.5416666989
 21
157.7458649165
  0
LWPOLYLINE
  5
389
100
AcDbEntity
  8
0
100
AcDbPolyline
 62
7
  6
CONTINUOUS
 90
25
 70
0
 10
89.0416666989
 20
165.2245236587
 10
88.8202255585
 20
165.2145548726
 10
88.5998291749
 20
165.1932120407
 10
88.3810605419
 20
165.160577209
 10
88.1645911747
 20
165.1167838444
 10
87.9508941988
 20
165.0619612327
 10
87.7402561559
 20
164.996186041
 10
87.533028585
 20
164.9195290697
 10
87.329995861
 20
164.8322408802
 10
87.1320686666
 20
164.7347264177
 10
86.940109056
 20
164.6274945407
 10
86.7542336636
 20
164.5106966385
 10
86.5742526946
 20
164.3841896315
 10
86.4005223869
 20
164.2480998195
 10
86.2337543611
 20
164.1028555866
 10
86.0743601171
 20
163.9486895269
 10
85.9226585866
 20
163.7857310462
 10
85.7793627149
 20
163.6145568216
 10
85.6453775391
 20
163.4361728005
 10
85.5210477226
 20
163.251048789
 10
85.4067364097
 20
163.0597373538
 10
85.3031293815
 20
162.8635356291
 10
85.2104977059
 20
162.6633108144
 10
85.1288275618
 20
162.4594243154
 10
85.0582096627
 20
162.252482608
  0
LWPOLYLINE
  5
38A
100
AcDbEntity
  8
0
100
AcDbPolyline
 62
7
  6
CONTINUOUS
 90
61
 70
0
 10
89.0416666989
 20
165.432715149
 10
89.2825765452
 20
165.4284894619
 10
89.5230078713
 20
165.4114047369
 10
89.7622746732
 20
165.3815014763
 10
89.9996952389
 20
165.3388564948
 10
90.2345903039
 20
165.2835833532
 10
90.4662851352
 20
165.2158327088
 10
90.694117131
 20
165.1357904635
 10
90.9174356257
 20
165.0436772291
 10
91.1356001936
 20
164.9397491518
 10
91.3479851903
 20
164.8242964241
 10
91.5539846461
 20
164.6976403949
 10
91.7530118227
 20
164.5601329872
 10
91.9444973086
 20
164.4121579956
 10
92.1278908948
 20
164.2541306223
 10
92.302666168
 20
164.0864941936
 10
92.4683213162
 20
163.9097192258
 10
92.6243798523
 20
163.7243028027
 10
92.7703920273
 20
163.5307673596
 10
92.9059367613
 20
163.3296585303
 10
93.0306234915
 20
163.1215423417
 10
93.1440924757
 20
162.9070042863
 10
93.2460148006
 20
162.6866496159
 10
93.3360943895
 20
162.4610999383
 10
93.4140691549
 20
162.2309900852
 10
93.4797106054
 20
161.9969688767
 10
93.5328245272
 20
161.7596984598
 10
93.5732523566
 20
161.5198505665
 10
93.6008717723
 20
161.2781032541
 10
93.6155966534
 20
161.0351406104
 10
93.6173774548
 20
160.7916519118
 10
93.6062015445
 20
160.5483268543
 10
93.5820929672
 20
160.3058541803
 10
93.5451124877
 20
160.0649214027
 10
93.4953574829
 20
159.8262120084
 10
93.4329612531
 20
159.5904019796
 10
93.3580924712
 20
159.3581585403
 10
93.2709552387
 20
159.1301401556
 10
93.1717887587
 20
158.9069945298
 10
93.060866152
 20
158.6893552729
 10
92.9384938226
 20
158.4778406158
 10
92.8050107594
 20
158.2730519242
 10
92.660787595
 20
158.0755719045
 10
92.5062254881
 20
157.8859627955
 10
92.3417545373
 20
157.7047642942
 10
92.1678326664
 20
157.5324923548
 10
91.9849451615
 20
157.3696385451
 10
91.7936025477
 20
157.2166678143
 10
91.5943385516
 20
157.0740168737
 10
91.3877100466
 20
156.9420941365
 10
91.1742953231
 20
156.8212782168
 10
90.9546914972
 20
156.7119162547
 10
90.729513134
 20
156.6143232285
 10
90.4993917421
 20
156.528781539
 10
90.2649737704
 20
156.4555398423
 10
90.0269136244
 20
156.3948109637
 10
89.7858825016
 20
156.3467743569
 10
89.5425681656
 20
156.3115740499
 10
89.2976470739
 20
156.2893144741
 10
89.0518144791
 20
156.2800653369
 10
88.8057938093
 20
156.2838571887
  0
LWPOLYLINE
  5
38B
100
AcDbEntity
  8
0
100
AcDbPolyline
 62
7
  6
CONTINUOUS
 90
58
 70
0
 10
89.0416666989
 20
165.1729075279
 10
89.2760128836
 20
165.1687266803
 10
89.5107852398
 20
165.1515421506
 10
89.7452547558
 20
165.1212450589
 10
89.9790475775
 20
165.0776880133
 10
90.2110314902
 20
165.0208834592
 10
90.4393665145
 20
164.951210582
 10
90.6632805891
 20
164.8689377103
 10
90.8821479611
 20
164.7743281553
 10
91.0944763156
 20
164.6681395057
 10
91.2991034815
 20
164.5512182551
 10
91.4961146742
 20
164.4237877009
 10
91.6859045145
 20
164.2856953037
 10
91.8682164726
 20
164.1370770133
 10
92.0421493775
 20
163.9786145078
 10
92.2070817598
 20
163.8108803053
 10
92.3624878055
 20
163.6344389698
 10
92.5079563806
 20
163.4497889496
 10
92.6430910699
 20
163.2574522739
 10
92.7674811308
 20
163.058029767
 10
92.8807734373
 20
162.8521052183
 10
92.9826837439
 20
162.6401907891
 10
93.0727790901
 20
162.4232213466
 10
93.1509294728
 20
162.201549071
 10
93.2171705152
 20
161.9747657405
 10
93.2712315517
 20
161.7429416613
 10
93.3125839897
 20
161.5072794544
 10
93.3408533058
 20
161.2690709225
 10
93.3558625731
 20
161.0288758778
 10
93.3574449908
 20
160.7875985195
 10
93.3455840602
 20
160.5470893296
 10
93.320432374
 20
160.308303242
 10
93.2821501771
 20
160.0717571638
 10
93.2310535886
 20
159.8386160642
 10
93.1676343234
 20
159.6101272817
 10
93.0921288233
 20
159.3863485007
 10
93.0043904318
 20
159.1666753352
 10
92.9043347958
 20
158.9511894877
 10
92.7924412324
 20
158.7411819538
 10
92.6693546414
 20
158.5378644702
 10
92.5357083352
 20
158.3421211008
 10
92.3917614875
 20
158.1541827426
 10
92.2376780418
 20
157.9742369338
 10
92.0738330932
 20
157.8027660343
 10
91.9007576579
 20
157.640367526
 10
91.7188146711
 20
157.4874307382
 10
91.5287126606
 20
157.3445905485
 10
91.3308062605
 20
157.212151117
 10
91.1248658756
 20
157.0901086258
 10
90.9108396754
 20
156.9787252882
 10
90.6898229648
 20
156.8788571027
 10
90.4633491941
 20
156.791328439
 10
90.2320606922
 20
156.7164317963
 10
89.9967043941
 20
156.6544524946
 10
89.7591160815
 20
156.6058151601
 10
89.520433356
 20
156.5705666436
 10
89.2810378499
 20
156.5485796949
 10
89.0416666989
 20
156.5397714557
  0
LINE
  5
38C
100
AcDbEntity
  8
0
100
AcDbLine
 62
7
  6
CONTINUOUS
 10
94.5416666989
 20
164.0967178776
 11
89.0416666989
 21
167.2721443581
  0
LWPOLYLINE
  5
38D
100
AcDbEntity
  8
0
100
AcDbPolyline
 62
7
  6
CONTINUOUS
 90
19
 70
0
 10
92.7658040582
 20
163.2401844874
 10
92.625876661
 20
163.4430263087
 10
92.4748917394
 20
163.6375296101
 10
92.3133408336
 20
163.8230910293
 10
92.1417486802
 20
163.9991356659
 10
91.9606717268
 20
164.1651188563
 10
91.7706959998
 20
164.3205283402
 10
91.5724363713
 20
164.4648850705
 10
91.3665311833
 20
164.597747227
 10
91.1536399091
 20
164.7187108455
 10
90.934445006
 20
164.8274084075
 10
90.7096525061
 20
164.9235094866
 10
90.4799862649
 20
165.0067243014
 10
90.2461824154
 20
165.0768056117
 10
90.0089903351
 20
165.1335479531
 10
89.7691728867
 20
165.1767880789
 10
89.527498372
 20
165.2064069351
 10
89.2847379348
 20
165.2223293528
 10
89.0416666989
 20
165.2245236587
  0
LWPOLYLINE
  5
38E
100
AcDbEntity
  8
RACCORDO
100
AcDbPolyline
 62
253
  6
CONTINUOUS
 90
89
 70
0
 10
96.9854059432
 20
137.6712913971
 10
96.9852529057
 20
137.673563463
 10
96.9850379883
 20
137.6758225497
 10
96.9847612077
 20
137.6780686572
 10
96.9844225856
 20
137.6803017857
 10
96.9840221485
 20
137.6825219351
 10
96.9835599277
 20
137.6847291049
 10
96.9830359595
 20
137.686923295
 10
96.9824502848
 20
137.6891045056
 10
96.9818029496
 20
137.6912727365
 10
96.9810940045
 20
137.6934279877
 10
96.9803235052
 20
137.6955702592
 10
96.979491512
 20
137.6976995507
 10
96.9785980903
 20
137.6998158618
 10
96.9776433099
 20
137.701919193
 10
96.9766272454
 20
137.7040095448
 10
96.9755499765
 20
137.7060869168
 10
96.9744115873
 20
137.7081513093
 10
96.973212166
 20
137.710202724
 10
96.9719518053
 20
137.7122411625
 10
96.9706306048
 20
137.7142666232
 10
96.9692486703
 20
137.716279102
 10
96.9678061099
 20
137.7182785997
 10
96.9663030371
 20
137.7202651155
 10
96.9647395745
 20
137.7222386441
 10
96.9631158496
 20
137.7241991801
 10
96.9614319864
 20
137.7261467287
 10
96.9596881083
 20
137.7280813
 10
96.957884353
 20
137.7300028929
 10
96.9560208604
 20
137.7319115084
 10
96.9540977627
 20
137.7338071592
 10
96.9521152069
 20
137.7356898476
 10
96.9500733489
 20
137.7375595714
 10
96.9479723383
 20
137.739416337
 10
96.9458123163
 20
137.7412601618
 10
96.9435934702
 20
137.7430910284
 10
96.9413160296
 20
137.7449088907
 10
96.93898016
 20
137.7467137585
 10
96.9365860611
 20
137.7485056221
 10
96.9341340329
 20
137.7502844058
 10
96.9316242346
 20
137.752050136
 10
96.9290569137
 20
137.7538027864
 10
96.9264325337
 20
137.7555422022
 10
96.9237513417
 20
137.7572683694
 10
96.921013559
 20
137.758981302
 10
96.9182196476
 20
137.760680888
 10
96.9153699455
 20
137.7623670782
 10
96.9124646375
 20
137.7640399218
 10
96.9095039743
 20
137.7656994539
 10
96.9064882307
 20
137.767345672
 10
96.9034176744
 20
137.7689785785
 10
96.9002925488
 20
137.7705982169
 10
96.897113131
 20
137.7722045886
 10
96.8938797065
 20
137.7737976922
 10
96.8905925334
 20
137.7753775661
 10
96.8872518949
 20
137.7769442137
 10
96.883858091
 20
137.7784976317
 10
96.8804114096
 20
137.7800378483
 10
96.8769121506
 20
137.7815648639
 10
96.8733606196
 20
137.7830786782
 10
96.8697571175
 20
137.7845793178
 10
96.8661019634
 20
137.78606678
 10
96.8623954658
 20
137.7875410676
 10
96.8586379136
 20
137.7890022154
 10
96.8548296268
 20
137.7904502245
 10
96.8509709324
 20
137.7918850938
 10
96.8470621328
 20
137.7933068551
 10
96.8431035551
 20
137.7947155104
 10
96.8390955387
 20
137.7961110577
 10
96.8350384072
 20
137.7974935238
 10
96.8309325021
 20
137.7988629088
 10
96.8267781685
 20
137.8002192125
 10
96.8225757396
 20
137.801562461
 10
96.8183255672
 20
137.8028926544
 10
96.8140280055
 20
137.8042097925
 10
96.8096833953
 20
137.8055139014
 10
96.805292098
 20
137.8068049811
 10
96.8008544771
 20
137.8080830316
 10
96.7963708804
 20
137.8093480785
 10
96.7918416786
 20
137.8106001221
 10
96.7872672442
 20
137.8118391622
 10
96.7826479308
 20
137.8130652247
 10
96.7779841239
 20
137.8142783081
 10
96.7732761989
 20
137.8154784138
 10
96.7685244976
 20
137.8166655717
 10
96.763729401
 20
137.8178397835
 10
96.7588913048
 20
137.8190010474
 10
96.7540105757
 20
137.8201493878
 10
96.7441227981
 20
137.8224072991
  0
LINE
  5
38F
100
AcDbEntity
  8
0
100
AcDbLine
 62
7
  6
CONTINUOUS
 10
95.0416666989
 20
184.9712913971
 11
95.0416666989
 21
183.4220402456
  0
LINE
  5
390
100
AcDbEntity
  8
0
100
AcDbLine
 62
7
  6
CONTINUOUS
 10
95.0416666989
 20
136.8712913971
 11
95.0416666989
 21
135.8712913971
  0
LINE
  5
391
100
AcDbEntity
  8
0
100
AcDbLine
 62
7
  6
CONTINUOUS
 10
95.0416666989
 20
136.8712913971
 11
95.0416666989
 21
138.4205425485
  0
LINE
  5
392
100
AcDbEntity
  8
0
100
AcDbLine
 62
7
  6
CONTINUOUS
 10
95.0416666989
 20
184.9712913971
 11
95.0416666989
 21
185.9712913971
  0
LINE
  5
393
100
AcDbEntity
  8
DRAFT
100
AcDbLine
 62
7
  6
CONTINUOUS
 10
95.2416666989
 20
184.1712913971
 11
95.2416666989
 21
183.4212913971
  0
LINE
  5
394
100
AcDbEntity
  8
DRAFT
100
AcDbLine
 62
7
  6
CONTINUOUS
 10
95.2416666989
 20
138.4212913971
 11
95.2416666989
 21
137.6712913971
  0
LINE
  5
395
100
AcDbEntity
  8
RACCORDO
100
AcDbLine
 62
253
  6
CONTINUOUS
 10
95.4044033508
 20
184.1712913971
 11
95.4044033508
 21
183.4212913971
  0
LINE
  5
396
100
AcDbEntity
  8
RACCORDO
100
AcDbLine
 62
253
  6
CONTINUOUS
 10
95.4044033508
 20
138.4212913971
 11
95.4044033508
 21
137.6712913971
  0
LWPOLYLINE
  5
397
100
AcDbEntity
  8
0
100
AcDbPolyline
 62
7
  6
CONTINUOUS
 90
10
 70
0
 43
0.3500000006
 10
108.1916672058
 20
162.0998633423
 10
108.3345205078
 20
162.1712854614
 10
108.4059516907
 20
162.1712854614
 10
108.5488140564
 20
162.0284412231
 10
108.5488140564
 20
161.9570009766
 10
108.4773828735
 20
161.8855788574
 10
108.4059516907
 20
161.8855788574
 10
108.2630983887
 20
161.9570009766
 10
108.1916672058
 20
162.0284412231
 10
108.1916672058
 20
162.0998633423
  0
LWPOLYLINE
  5
398
100
AcDbEntity
  8
0
100
AcDbPolyline
 62
7
  6
CONTINUOUS
 90
3
 70
0
 43
0.3500000006
 10
108.4059516907
 20
162.1712854614
 10
108.6202361755
 20
162.0998633423
 10
108.9059518433
 20
161.9570009766
  0
LWPOLYLINE
  5
399
100
AcDbEntity
  8
RACCORDO
100
AcDbPolyline
 62
253
  6
CONTINUOUS
 90
89
 70
0
 10
95.4044033508
 20
184.1712913971
 10
95.4045563883
 20
184.1690193308
 10
95.4047713057
 20
184.1667602437
 10
95.4050480864
 20
184.1645141358
 10
95.4053867085
 20
184.162281007
 10
95.4057871458
 20
184.1600608573
 10
95.4062493667
 20
184.1578536871
 10
95.4067733351
 20
184.1556594966
 10
95.40735901
 20
184.1534782857
 10
95.4080063454
 20
184.1513100545
 10
95.4087152906
 20
184.1491548029
 10
95.4094857902
 20
184.1470125311
 10
95.4103177836
 20
184.1448832394
 10
95.4112112056
 20
184.1427669279
 10
95.4121659862
 20
184.1406635964
 10
95.413182051
 20
184.1385732444
 10
95.4142593203
 20
184.1364958721
 10
95.4153977098
 20
184.1344314793
 10
95.4165971313
 20
184.1323800645
 10
95.4178574923
 20
184.1303416257
 10
95.4191786932
 20
184.1283161649
 10
95.4205606281
 20
184.1263036858
 10
95.4220031891
 20
184.1243041877
 10
95.4235062625
 20
184.1223176713
 10
95.4250697256
 20
184.1203441425
 10
95.4266934506
 20
184.1183836066
 10
95.428377314
 20
184.1164360582
 10
95.4301211921
 20
184.1145014872
 10
95.4319249474
 20
184.1125798945
 10
95.4337884399
 20
184.1106712793
 10
95.4357115379
 20
184.1087756284
 10
95.4376940943
 20
184.1068929397
 10
95.4397359533
 20
184.1050232153
 10
95.4418369654
 20
184.1031664486
 10
95.4439969898
 20
184.101322622
 10
95.4462158392
 20
184.0994917532
 10
95.448493284
 20
184.097673888
 10
95.4508291586
 20
184.0958690169
 10
95.4532232636
 20
184.0940771494
 10
95.4556752996
 20
184.0922983608
 10
95.458185108
 20
184.0905326244
 10
95.4607524412
 20
184.0887799668
 10
95.4633768353
 20
184.0870405428
 10
95.4660580455
 20
184.0853143656
 10
95.4687958487
 20
184.083601422
 10
95.471589777
 20
184.0819018277
 10
95.4744394895
 20
184.0802156335
 10
95.4773448038
 20
184.0785427886
 10
95.4803054706
 20
184.0768832567
 10
95.4833212148
 20
184.0752370404
 10
95.4863917689
 20
184.0736041372
 10
95.4895168919
 20
184.0719845022
 10
95.4926963068
 20
184.0703781337
 10
95.4959297281
 20
184.0687850335
 10
95.4992168993
 20
184.0672051622
 10
95.5025575384
 20
184.0656385159
 10
95.5059513445
 20
184.0640850984
 10
95.5093980291
 20
184.0625448819
 10
95.5128972926
 20
184.0610178658
 10
95.5164488291
 20
184.0595040507
 10
95.5200523365
 20
184.0580034104
 10
95.5237074952
 20
184.0565159479
 10
95.527413997
 20
184.0550416601
 10
95.5311715528
 20
184.0535805124
 10
95.5349798422
 20
184.0521325038
 10
95.5388385386
 20
184.0506976352
 10
95.5427473403
 20
184.0492758745
 10
95.5467059205
 20
184.0478672198
 10
95.5507139396
 20
184.0464716729
 10
95.5547710739
 20
184.0450892073
 10
95.558876982
 20
184.0437198226
 10
95.5630313188
 20
184.0423635192
 10
95.5672337512
 20
184.0410202708
 10
95.5714839273
 20
184.0396900776
 10
95.5757814928
 20
184.0383729396
 10
95.5801261072
 20
184.0370688307
 10
95.5845174088
 20
184.0357777511
 10
95.5889550341
 20
184.0344997006
 10
95.5934386353
 20
184.0332346536
 10
95.5979678417
 20
184.0319826101
 10
95.6025422806
 20
184.03074357
 10
95.6071615983
 20
184.0295175077
 10
95.611825409
 20
184.0283044245
 10
95.6165333373
 20
184.0271043191
 10
95.6212850417
 20
184.0259171617
 10
95.626080141
 20
184.0247429505
 10
95.6309182395
 20
184.0235816872
 10
95.635798971
 20
184.0224333475
 10
95.6456867541
 20
184.0201754372
  0
LINE
  5
39A
100
AcDbEntity
  8
RACCORDO
100
AcDbLine
 62
253
  6
CONTINUOUS
 10
96.9854059432
 20
184.1712913971
 11
96.9854059432
 21
183.4212913971
  0
LINE
  5
39B
100
AcDbEntity
  8
RACCORDO
100
AcDbLine
 62
253
  6
CONTINUOUS
 10
96.9854059432
 20
138.4212913971
 11
96.9854059432
 21
137.6712913971
  0
LINE
  5
39C
100
AcDbEntity
  8
DRAFT
100
AcDbLine
 62
7
  6
CONTINUOUS
 10
97.1987622833
 20
137.6712913971
 11
97.1987622833
 21
138.4212913971
  0
LINE
  5
39D
100
AcDbEntity
  8
RACCORDO
100
AcDbLine
 62
253
  6
CONTINUOUS
 10
101.0118376409
 20
143.2108636081
 11
101.0702009225
 21
142.6212913971
  0
LINE
  5
39E
100
AcDbEntity
  8
RACCORDO
100
AcDbLine
 62
253
  6
CONTINUOUS
 10
101.2617995647
 20
143.4570655463
 11
101.3194812444
 21
142.8743787175
  0
LWPOLYLINE
  5
39F
100
AcDbEntity
  8
RACCORDO
100
AcDbPolyline
 62
253
  6
CONTINUOUS
 90
6
 70
0
 10
101.2601097893
 20
143.4808634114
 10
101.2604432778
 20
143.4750737517
 10
101.2607790726
 20
143.4697978871
 10
101.2611169304
 20
143.4650399784
 10
101.2614570945
 20
143.4607958648
 10
101.2617995647
 20
143.4570655463
  0
LINE
  5
3A0
100
AcDbEntity
  8
RACCORDO
100
AcDbLine
 62
253
  6
CONTINUOUS
 10
101.2594519316
 20
143.493947685
 11
101.2601097893
 21
143.4808634114
  0
LWPOLYLINE
  5
3A1
100
AcDbEntity
  8
RACCORDO
100
AcDbPolyline
 62
253
  6
CONTINUOUS
 90
5
 70
0
 10
101.0104811272
 20
143.2348804498
 10
101.0108169268
 20
143.2278444595
 10
101.0111548291
 20
143.2214933651
 10
101.0114950671
 20
143.2158317363
 10
101.0118376409
 20
143.2108636081
  0
LINE
  5
3A2
100
AcDbEntity
  8
RACCORDO
100
AcDbLine
 62
253
  6
CONTINUOUS
 10
101.0098172342
 20
143.2509868917
 11
101.0104811272
 21
143.2348804498
  0
LWPOLYLINE
  5
3A3
100
AcDbEntity
  8
RACCORDO
100
AcDbPolyline
 62
253
  6
CONTINUOUS
 90
3
 70
0
 10
101.0088448524
 20
143.2801446796
 10
101.0091654834
 20
143.2697677731
 10
101.0098172342
 20
143.2509868917
  0
LINE
  5
3A4
100
AcDbEntity
  8
RACCORDO
100
AcDbLine
 62
7
  6
CONTINUOUS
 10
99.4416666989
 20
184.6712913971
 11
99.4416666989
 21
183.4212913971
  0
LINE
  5
3A5
100
AcDbEntity
  8
RACCORDO
100
AcDbLine
 62
7
  6
CONTINUOUS
 10
99.4416666989
 20
138.4212913971
 11
99.4416666989
 21
137.1712913971
  0
LINE
  5
3A6
100
AcDbEntity
  8
RACCORDO
100
AcDbLine
 62
253
  6
CONTINUOUS
 10
99.477493386
 20
184.6712913971
 11
99.477493386
 21
183.4212913971
  0
LINE
  5
3A7
100
AcDbEntity
  8
RACCORDO
100
AcDbLine
 62
253
  6
CONTINUOUS
 10
99.477493386
 20
138.4212913971
 11
99.477493386
 21
137.1712913971
  0
LINE
  5
3A8
100
AcDbEntity
  8
RACCORDO
100
AcDbLine
 62
253
  6
CONTINUOUS
 10
101.0094898438
 20
178.5825366488
 11
101.0088448549
 21
178.5624381572
  0
LWPOLYLINE
  5
3A9
100
AcDbEntity
  8
RACCORDO
100
AcDbPolyline
 62
253
  6
CONTINUOUS
 90
7
 70
0
 10
101.0118376409
 20
178.631719186
 10
101.0114950685
 20
178.6267510702
 10
101.0111548315
 20
178.6210894533
 10
101.0108169298
 20
178.6147383689
 10
101.0104811302
 20
178.6077023839
 10
101.010147666
 20
178.5999864667
 10
101.0094898438
 20
178.5825366488
  0
LWPOLYLINE
  5
3AA
100
AcDbEntity
  8
RACCORDO
100
AcDbPolyline
 62
253
  6
CONTINUOUS
 90
7
 70
0
 10
101.2617995647
 20
178.3855172478
 10
101.2614571303
 20
178.3817874211
 10
101.2611169932
 20
178.3775437099
 10
101.2607791534
 20
178.3727861142
 10
101.2604433649
 20
178.367510442
 10
101.2601098736
 20
178.3617208853
 10
101.2594520132
 20
178.3486368609
  0
LINE
  5
3AB
100
AcDbEntity
  8
RACCORDO
100
AcDbLine
 62
253
  6
CONTINUOUS
 10
101.0702009225
 20
179.2212913971
 11
101.0118376409
 21
178.631719186
  0
LINE
  5
3AC
100
AcDbEntity
  8
RACCORDO
100
AcDbLine
 62
253
  6
CONTINUOUS
 10
101.3194812444
 20
178.9682040766
 11
101.2617995647
 21
178.3855172478
  0
LINE
  5
3AD
100
AcDbEntity
  8
RACCORDO
100
AcDbLine
 62
253
  6
CONTINUOUS
 10
101.2588069202
 20
143.5090226961
 11
101.2594519316
 21
143.493947685
  0
LINE
  5
3AE
100
AcDbEntity
  8
RACCORDO
100
AcDbLine
 62
253
  6
CONTINUOUS
 10
101.2581768339
 20
143.5260428794
 11
101.2588069202
 21
143.5090226961
  0
LINE
  5
3AF
100
AcDbEntity
  8
RACCORDO
100
AcDbLine
 62
253
  6
CONTINUOUS
 10
101.2572636607
 20
143.5551069305
 11
101.2581768339
 21
143.5260428794
  0
LINE
  5
3B0
100
AcDbEntity
  8
RACCORDO
100
AcDbLine
 62
253
  6
CONTINUOUS
 10
101.0079060153
 20
143.3151313862
 11
101.0088448524
 21
143.2801446796
  0
LINE
  5
3B1
100
AcDbEntity
  8
RACCORDO
100
AcDbLine
 62
253
  6
CONTINUOUS
 10
101.2563938437
 20
143.5882497437
 11
101.2572636607
 21
143.5551069305
  0
LWPOLYLINE
  5
3B2
100
AcDbEntity
  8
RACCORDO
100
AcDbPolyline
 62
253
  6
CONTINUOUS
 90
40
 70
0
 10
101.2617995647
 20
178.3855172478
 10
101.2615671826
 20
178.395411728
 10
101.2609312997
 20
178.4052902212
 10
101.2598929434
 20
178.4151367664
 10
101.2584537913
 20
178.4249354538
 10
101.2566161689
 20
178.4346704513
 10
101.2543830452
 20
178.4443260296
 10
101.2517580284
 20
178.4538865876
 10
101.2487453598
 20
178.4633366777
 10
101.2453499072
 20
178.4726610312
 10
101.2415771568
 20
178.481844582
 10
101.2374332044
 20
178.4908724918
 10
101.2329247455
 20
178.4997301738
 10
101.2280590648
 20
178.5084033162
 10
101.2228440239
 20
178.5168779053
 10
101.217288049
 20
178.5251402483
 10
101.2114001172
 20
178.5331769953
 10
101.205189742
 20
178.5409751608
 10
101.1986669577
 20
178.548522145
 10
101.1918423035
 20
178.5558057538
 10
101.1847268065
 20
178.5628142187
 10
101.1773319633
 20
178.5695362158
 10
101.1696697224
 20
178.5759608839
 10
101.1617524639
 20
178.5820778424
 10
101.1535929802
 20
178.5878772078
 10
101.145204455
 20
178.5933496097
 10
101.136600442
 20
178.5984862061
 10
101.1277948433
 20
178.6032786975
 10
101.1188018864
 20
178.6077193405
 10
101.1096361017
 20
178.61180096
 10
101.100312299
 20
178.6155169612
 10
101.0908455431
 20
178.6188613398
 10
101.0812511299
 20
178.6218286923
 10
101.0715445618
 20
178.6244142241
 10
101.061741522
 20
178.6266137576
 10
101.0518578499
 20
178.6284237389
 10
101.0419095151
 20
178.6298412436
 10
101.0319125915
 20
178.6308639812
 10
101.0218832318
 20
178.6314902994
 10
101.0118376409
 20
178.631719186
  0
LINE
  5
3B3
100
AcDbEntity
  8
RACCORDO
100
AcDbLine
 62
253
  6
CONTINUOUS
 10
101.2553111205
 20
143.6384126153
 11
101.2563938437
 21
143.5882497437
  0
LINE
  5
3B4
100
AcDbEntity
  8
RACCORDO
100
AcDbLine
 62
253
  6
CONTINUOUS
 10
101.0067167709
 20
143.3704570724
 11
101.0079060153
 21
143.3151313862
  0
LINE
  5
3B5
100
AcDbEntity
  8
RACCORDO
100
AcDbLine
 62
253
  6
CONTINUOUS
 10
101.2540983582
 20
143.7099164649
 11
101.2553111205
 21
143.6384126153
  0
LINE
  5
3B6
100
AcDbEntity
  8
RACCORDO
100
AcDbLine
 62
253
  6
CONTINUOUS
 10
101.0053491912
 20
143.4526600824
 11
101.0067167709
 21
143.3704570724
  0
LINE
  5
3B7
100
AcDbEntity
  8
RACCORDO
100
AcDbLine
 62
253
  6
CONTINUOUS
 10
101.0036997555
 20
143.5894265085
 11
101.0053491912
 21
143.4526600824
  0
LINE
  5
3B8
100
AcDbEntity
  8
RACCORDO
100
AcDbLine
 62
253
  6
CONTINUOUS
 10
101.2527009281
 20
143.8241177627
 11
101.2540983582
 21
143.7099164649
  0
LINE
  5
3B9
100
AcDbEntity
  8
RACCORDO
100
AcDbLine
 62
253
  6
CONTINUOUS
 10
101.2515875762
 20
143.9701212208
 11
101.2527009281
 21
143.8241177627
  0
LINE
  5
3BA
100
AcDbEntity
  8
RACCORDO
100
AcDbLine
 62
253
  6
CONTINUOUS
 10
101.0019793551
 20
143.8198386513
 11
101.0036997555
 21
143.5894265085
  0
LINE
  5
3BB
100
AcDbEntity
  8
RACCORDO
100
AcDbLine
 62
253
  6
CONTINUOUS
 10
101.2509917357
 20
144.1660859483
 11
101.2515875762
 21
143.9701212208
  0
LWPOLYLINE
  5
3BC
100
AcDbEntity
  8
RACCORDO
100
AcDbPolyline
 62
253
  6
CONTINUOUS
 90
3
 70
0
 10
101.0010298119
 20
144.156224144
 10
101.0010482212
 20
144.1296585116
 10
101.0019793551
 20
143.8198386513
  0
LWPOLYLINE
  5
3BD
100
AcDbEntity
  8
RACCORDO
100
AcDbPolyline
 62
253
  6
CONTINUOUS
 90
3
 70
0
 10
100.9987502178
 20
147.8804579354
 10
100.9994467775
 20
146.638921141
 10
101.0010298119
 20
144.156224144
  0
LWPOLYLINE
  5
3BE
100
AcDbEntity
  8
RACCORDO
100
AcDbPolyline
 62
253
  6
CONTINUOUS
 90
3
 70
0
 10
101.2487121417
 20
147.8881286879
 10
101.2494087014
 20
146.6473364065
 10
101.2509917357
 20
144.1660859483
  0
LINE
  5
3BF
100
AcDbEntity
  8
RACCORDO
100
AcDbLine
 62
253
  6
CONTINUOUS
 10
100.9975470037
 20
150.363855084
 11
100.9987502178
 21
147.8804579354
  0
LINE
  5
3C0
100
AcDbEntity
  8
RACCORDO
100
AcDbLine
 62
253
  6
CONTINUOUS
 10
100.9962170612
 20
154.0896006192
 11
100.9975470037
 21
150.363855084
  0
LINE
  5
3C1
100
AcDbEntity
  8
RACCORDO
100
AcDbLine
 62
253
  6
CONTINUOUS
 10
101.2475089276
 20
150.3700685855
 11
101.2487121417
 21
147.8881286879
  0
LINE
  5
3C2
100
AcDbEntity
  8
RACCORDO
100
AcDbLine
 62
253
  6
CONTINUOUS
 10
101.2461789851
 20
154.0936225968
 11
101.2475089276
 21
150.3700685855
  0
LINE
  5
3C3
100
AcDbEntity
  8
RACCORDO
100
AcDbLine
 62
253
  6
CONTINUOUS
 10
100.9954570586
 20
157.8158713152
 11
100.9962170612
 21
154.0896006192
  0
LINE
  5
3C4
100
AcDbEntity
  8
RACCORDO
100
AcDbLine
 62
253
  6
CONTINUOUS
 10
101.2454189824
 20
157.817701445
 11
101.2461789851
 21
154.0936225968
  0
LINE
  5
3C5
100
AcDbEntity
  8
RACCORDO
100
AcDbLine
 62
253
  6
CONTINUOUS
 10
101.0650793962
 20
138.4212913971
 11
101.0650793962
 21
142.1212913971
  0
LINE
  5
3C6
100
AcDbEntity
  8
RACCORDO
100
AcDbLine
 62
253
  6
CONTINUOUS
 10
101.0650793962
 20
179.7212913971
 11
101.0650793962
 21
183.4212913971
  0
LINE
  5
3C7
100
AcDbEntity
  8
RACCORDO
100
AcDbLine
 62
253
  6
CONTINUOUS
 10
101.31504132
 20
183.1712913971
 11
101.31504132
 21
179.7212913971
  0
LINE
  5
3C8
100
AcDbEntity
  8
RACCORDO
100
AcDbLine
 62
253
  6
CONTINUOUS
 10
101.31504132
 20
142.1212913971
 11
101.31504132
 21
138.6712913971
  0
LINE
  5
3C9
100
AcDbEntity
  8
RACCORDO
100
AcDbLine
 62
7
  6
CONTINUOUS
 10
101.3194812444
 20
179.7212913971
 11
101.3194812444
 21
178.9682040766
  0
LINE
  5
3CA
100
AcDbEntity
  8
RACCORDO
100
AcDbLine
 62
7
  6
CONTINUOUS
 10
101.3194812444
 20
142.8743787175
 11
101.3194812444
 21
142.1212913971
  0
LINE
  5
3CB
100
AcDbEntity
  8
RACCORDO
100
AcDbLine
 62
253
  6
CONTINUOUS
 10
101.4058400119
 20
184.6712913971
 11
101.4058400119
 21
183.1712913971
  0
LINE
  5
3CC
100
AcDbEntity
  8
RACCORDO
100
AcDbLine
 62
253
  6
CONTINUOUS
 10
101.4058400119
 20
138.6712913971
 11
101.4058400119
 21
137.1712913971
  0
LINE
  5
3CD
100
AcDbEntity
  8
RACCORDO
100
AcDbLine
 62
7
  6
CONTINUOUS
 10
101.4416666989
 20
184.6712913971
 11
101.4416666989
 21
137.1712913971
  0
LWPOLYLINE
  5
3CE
100
AcDbEntity
  8
RACCORDO
100
AcDbPolyline
 62
253
  6
CONTINUOUS
 90
3
 70
0
 10
100.9954570586
 20
164.026711479
 10
100.9952670543
 20
161.542380717
 10
100.9954570586
 20
157.8158713152
  0
LWPOLYLINE
  5
3CF
100
AcDbEntity
  8
RACCORDO
100
AcDbPolyline
 62
253
  6
CONTINUOUS
 90
3
 70
0
 10
101.2454189824
 20
164.0248812301
 10
101.2452289781
 20
161.5420188585
 10
101.2454189824
 20
157.817701445
  0
LINE
  5
3D0
100
AcDbEntity
  8
RACCORDO
100
AcDbLine
 62
253
  6
CONTINUOUS
 10
100.9962170612
 20
167.752982175
 11
100.9954570586
 21
164.026711479
  0
LINE
  5
3D1
100
AcDbEntity
  8
RACCORDO
100
AcDbLine
 62
253
  6
CONTINUOUS
 10
101.246178985
 20
167.7489600784
 11
101.2454189824
 21
164.0248812301
  0
LWPOLYLINE
  5
3D2
100
AcDbEntity
  8
RACCORDO
100
AcDbPolyline
 62
253
  6
CONTINUOUS
 90
3
 70
0
 10
100.9981169582
 20
172.7204766758
 10
100.9975470037
 20
171.4787277102
 10
100.9962170612
 20
167.752982175
  0
LWPOLYLINE
  5
3D3
100
AcDbEntity
  8
RACCORDO
100
AcDbPolyline
 62
253
  6
CONTINUOUS
 90
3
 70
0
 10
101.2480788821
 20
172.7135397141
 10
101.2475089276
 20
171.4725140855
 10
101.246178985
 20
167.7489600784
  0
LINE
  5
3D4
100
AcDbEntity
  8
RACCORDO
100
AcDbLine
 62
253
  6
CONTINUOUS
 10
101.0002066422
 20
176.4450764519
 11
100.9981169582
 21
172.7204766758
  0
LINE
  5
3D5
100
AcDbEntity
  8
RACCORDO
100
AcDbLine
 62
253
  6
CONTINUOUS
 10
101.250168566
 20
176.4359272481
 11
101.2480788821
 21
172.7135397141
  0
LINE
  5
3D6
100
AcDbEntity
  8
RACCORDO
100
AcDbLine
 62
253
  6
CONTINUOUS
 10
101.0018527955
 20
177.9979615372
 11
101.0002066422
 21
176.4450764519
  0
LINE
  5
3D7
100
AcDbEntity
  8
RACCORDO
100
AcDbLine
 62
253
  6
CONTINUOUS
 10
101.251487305
 20
177.8533643468
 11
101.250168566
 21
176.4359272481
  0
LINE
  5
3D8
100
AcDbEntity
  8
RACCORDO
100
AcDbLine
 62
253
  6
CONTINUOUS
 10
101.2525325229
 20
178.0010116527
 11
101.251487305
 21
177.8533643468
  0
LINE
  5
3D9
100
AcDbEntity
  8
RACCORDO
100
AcDbLine
 62
253
  6
CONTINUOUS
 10
101.0034922262
 20
178.2317868899
 11
101.0018527955
 21
177.9979615372
  0
LINE
  5
3DA
100
AcDbEntity
  8
RACCORDO
100
AcDbLine
 62
253
  6
CONTINUOUS
 10
101.0050936106
 20
178.3718562147
 11
101.0034922262
 21
178.2317868899
  0
LINE
  5
3DB
100
AcDbEntity
  8
RACCORDO
100
AcDbLine
 62
253
  6
CONTINUOUS
 10
101.2538764449
 20
178.117301893
 11
101.2525325229
 21
178.0010116527
  0
LINE
  5
3DC
100
AcDbEntity
  8
RACCORDO
100
AcDbLine
 62
253
  6
CONTINUOUS
 10
101.0064318744
 20
178.4568086008
 11
101.0050936106
 21
178.3718562147
  0
LINE
  5
3DD
100
AcDbEntity
  8
RACCORDO
100
AcDbLine
 62
253
  6
CONTINUOUS
 10
101.2550556024
 20
178.1906266156
 11
101.2538764449
 21
178.117301893
  0
LINE
  5
3DE
100
AcDbEntity
  8
RACCORDO
100
AcDbLine
 62
253
  6
CONTINUOUS
 10
101.0076016421
 20
178.5145314524
 11
101.0064318744
 21
178.4568086008
  0
LINE
  5
3DF
100
AcDbEntity
  8
RACCORDO
100
AcDbLine
 62
253
  6
CONTINUOUS
 10
101.2561146427
 20
178.2424215516
 11
101.2550556024
 21
178.1906266156
  0
LWPOLYLINE
  5
3E0
100
AcDbEntity
  8
RACCORDO
100
AcDbPolyline
 62
253
  6
CONTINUOUS
 90
40
 70
0
 10
101.2617995647
 20
143.4570655463
 10
101.2615671826
 20
143.4471710646
 10
101.2609312994
 20
143.4372925699
 10
101.2598929428
 20
143.4274460234
 10
101.2584537904
 20
143.4176473347
 10
101.2566161675
 20
143.407912336
 10
101.2543830432
 20
143.3982567568
 10
101.2517580258
 20
143.3886961979
 10
101.2487453566
 20
143.3792461069
 10
101.2453499033
 20
143.3699217529
 10
101.2415771522
 20
143.3607382015
 10
101.2374331991
 20
143.3517102913
 10
101.2329247395
 20
143.342852609
 10
101.2280590581
 20
143.3341794664
 10
101.2228440165
 20
143.3257048773
 10
101.217288041
 20
143.3174425344
 10
101.2114001086
 20
143.3094057876
 10
101.2051897328
 20
143.3016076223
 10
101.1986669481
 20
143.2940606385
 10
101.1918422935
 20
143.2867770301
 10
101.1847267962
 20
143.2797685657
 10
101.1773319528
 20
143.2730465692
 10
101.1696697118
 20
143.2666219017
 10
101.1617524532
 20
143.2605049438
 10
101.1535929696
 20
143.2547055791
 10
101.1452044445
 20
143.2492331779
 10
101.1366004318
 20
143.2440965822
 10
101.1277948334
 20
143.2393040914
 10
101.118801877
 20
143.2348634492
 10
101.1096360928
 20
143.2307818303
 10
101.1003122907
 20
143.2270658298
 10
101.0908455355
 20
143.2237214518
 10
101.0812511232
 20
143.2207540998
 10
101.0715445558
 20
143.2181685685
 10
101.061741517
 20
143.2159690355
 10
101.0518578458
 20
143.2141590545
 10
101.041909512
 20
143.2127415501
 10
101.0319125894
 20
143.2117188127
 10
101.0218832308
 20
143.2110924947
 10
101.0118376409
 20
143.2108636081
  0
LINE
  5
3E1
100
AcDbEntity
  8
RACCORDO
100
AcDbLine
 62
253
  6
CONTINUOUS
 10
101.2569687696
 20
178.2768775752
 11
101.2561146427
 21
178.2424215516
  0
LWPOLYLINE
  5
3E2
100
AcDbEntity
  8
RACCORDO
100
AcDbPolyline
 62
253
  6
CONTINUOUS
 90
3
 70
0
 10
101.0088448549
 20
178.5624381572
 10
101.0085279608
 20
178.5514133224
 10
101.0076016421
 20
178.5145314524
  0
LINE
  5
3E3
100
AcDbEntity
  8
RACCORDO
100
AcDbLine
 62
253
  6
CONTINUOUS
 10
101.2578681264
 20
178.3073222354
 11
101.2569687696
 21
178.2768775752
  0
LINE
  5
3E4
100
AcDbEntity
  8
RACCORDO
100
AcDbLine
 62
253
  6
CONTINUOUS
 10
101.2584900951
 20
178.3252950936
 11
101.2578681264
 21
178.3073222354
  0
LWPOLYLINE
  5
3E5
100
AcDbEntity
  8
RACCORDO
100
AcDbPolyline
 62
253
  6
CONTINUOUS
 90
3
 70
0
 10
101.2594520132
 20
178.3486368609
 10
101.2591276441
 20
178.3413423931
 10
101.2584900951
 20
178.3252950936
  0
LWPOLYLINE
  5
3E6
100
AcDbEntity
  8
RACCORDO
100
AcDbPolyline
 62
7
  6
CONTINUOUS
 90
40
 70
0
 10
101.4058400119
 20
138.6712913971
 10
101.4053873629
 20
138.6625519726
 10
101.4046273521
 20
138.6537993847
 10
101.4035580352
 20
138.6450445232
 10
101.4021781023
 20
138.6363008351
 10
101.4004863067
 20
138.6275770636
 10
101.3984806257
 20
138.6188773695
 10
101.3961601014
 20
138.6102139025
 10
101.393523936
 20
138.6015978067
 10
101.3905692881
 20
138.5930323349
 10
101.3872956539
 20
138.5845303616
 10
101.3837026104
 20
138.5761037718
 10
101.3797861128
 20
138.5677552749
 10
101.3755461327
 20
138.5594987503
 10
101.3709826222
 20
138.5513470505
 10
101.3660899586
 20
138.5433027359
 10
101.3608687278
 20
138.5353810915
 10
101.3553192908
 20
138.5275961887
 10
101.3494339418
 20
138.5199507567
 10
101.3432140859
 20
138.512461922
 10
101.3366606154
 20
138.5051453908
 10
101.3297631379
 20
138.4980045499
 10
101.3225242367
 20
138.4910589443
 10
101.3149455489
 20
138.4843264448
 10
101.3070132298
 20
138.4778118032
 10
101.2987316102
 20
138.4715377172
 10
101.2901034451
 20
138.4655249394
 10
101.2811104898
 20
138.4597806763
 10
101.2717596631
 20
138.4543316901
 10
101.2620555267
 20
138.4492026219
 10
101.2519745037
 20
138.4444049285
 10
101.2415275167
 20
138.4399706347
 10
101.2307220356
 20
138.4359295462
 10
101.2195282149
 20
138.4323000593
 10
101.2079630282
 20
138.4291208863
 10
101.1960389235
 20
138.4264287437
 10
101.1837197674
 20
138.4242531359
 10
101.1710084513
 20
138.4226386644
 10
101.1579491542
 20
138.4216359054
 10
101.1445722138
 20
138.4212913971
  0
LWPOLYLINE
  5
3E7
100
AcDbEntity
  8
0
100
AcDbPolyline
 62
7
  6
CONTINUOUS
 90
3
 70
0
 43
0.3500000006
 10
106.548813446
 20
163.1712857666
 10
105.6916664429
 20
164.0284418335
 10
108.6916673584
 20
164.0284418335
  0
LINE
  5
3E8
100
AcDbEntity
  8
RACCORDO
100
AcDbLine
 62
253
  6
CONTINUOUS
 10
76.9673123491
 20
177.6851743895
 11
76.9945938616
 21
177.6856714452
  0
LINE
  5
3E9
100
AcDbEntity
  8
RACCORDO
100
AcDbLine
 62
253
  6
CONTINUOUS
 10
76.9945938616
 20
177.6856714452
 11
77.0231261701
 21
177.6860376652
  0
LINE
  5
3EA
100
AcDbEntity
  8
RACCORDO
100
AcDbLine
 62
253
  6
CONTINUOUS
 10
77.0231261701
 20
177.6860376652
 11
77.0525023861
 21
177.6862678271
  0
LINE
  5
3EB
100
AcDbEntity
  8
RACCORDO
100
AcDbLine
 62
253
  6
CONTINUOUS
 10
77.0525023861
 20
177.6862678271
 11
77.082303586
 21
177.6863586487
  0
LINE
  5
3EC
100
AcDbEntity
  8
RACCORDO
100
AcDbLine
 62
253
  6
CONTINUOUS
 10
101.0209235804
 20
177.6863136898
 11
77.082303586
 21
177.6863586501
  0
LINE
  5
3ED
100
AcDbEntity
  8
RACCORDO
100
AcDbLine
 62
253
  6
CONTINUOUS
 10
101.0504884305
 20
177.6861297074
 11
101.0209235804
 21
177.6863136898
  0
LINE
  5
3EE
100
AcDbEntity
  8
RACCORDO
100
AcDbLine
 62
253
  6
CONTINUOUS
 10
101.0793479692
 20
177.6858083542
 11
101.0504884305
 21
177.6861297074
  0
LWPOLYLINE
  5
3EF
100
AcDbEntity
  8
RACCORDO
100
AcDbPolyline
 62
253
  6
CONTINUOUS
 90
3
 70
0
 10
101.1160210574
 20
177.6851743907
 10
101.1070906414
 20
177.6853542131
 10
101.0793479692
 20
177.6858083542
  0
LWPOLYLINE
  5
3F0
100
AcDbEntity
  8
0
100
AcDbPolyline
 62
7
  6
CONTINUOUS
 90
10
 70
0
 43
0.3500000006
 10
90.0059551392
 20
195.2212910156
 10
90.0773772583
 20
195.0784286499
 10
90.0773772583
 20
195.0070065308
 10
89.9345239563
 20
194.864144165
 10
89.8630927734
 20
194.864144165
 10
89.7916706543
 20
194.9355844116
 10
89.7916706543
 20
195.0070065308
 10
89.8630927734
 20
195.1498688965
 10
89.9345239563
 20
195.2212910156
 10
90.0059551392
 20
195.2212910156
  0
LINE
  5
3F1
100
AcDbEntity
  8
RACCORDO
100
AcDbLine
 62
253
  6
CONTINUOUS
 10
76.878093634
 20
177.6820452672
 11
76.8902172132
 21
177.6826765865
  0
LINE
  5
3F2
100
AcDbEntity
  8
RACCORDO
100
AcDbLine
 62
253
  6
CONTINUOUS
 10
76.8902172132
 20
177.6826765865
 11
76.9035590522
 21
177.6832687124
  0
LINE
  5
3F3
100
AcDbEntity
  8
RACCORDO
100
AcDbLine
 62
253
  6
CONTINUOUS
 10
76.9035590522
 20
177.6832687124
 11
76.9180345338
 21
177.6838178894
  0
LINE
  5
3F4
100
AcDbEntity
  8
RACCORDO
100
AcDbLine
 62
253
  6
CONTINUOUS
 10
76.9180345338
 20
177.6838178894
 11
76.9335518509
 21
177.6843206345
  0
LINE
  5
3F5
100
AcDbEntity
  8
RACCORDO
100
AcDbLine
 62
253
  6
CONTINUOUS
 10
76.9335518509
 20
177.6843206345
 11
76.9500125887
 21
177.6847737591
  0
LINE
  5
3F6
100
AcDbEntity
  8
RACCORDO
100
AcDbLine
 62
253
  6
CONTINUOUS
 10
76.9500125887
 20
177.6847737591
 11
76.9673123491
 21
177.6851743895
  0
LINE
  5
3F7
100
AcDbEntity
  8
RACCORDO
100
AcDbLine
 62
253
  6
CONTINUOUS
 10
101.0118376409
 20
178.631719186
 11
77.071495757
 21
178.631719186
  0
LINE
  5
3F8
100
AcDbEntity
  8
RACCORDO
100
AcDbLine
 62
7
  6
CONTINUOUS
 10
77.0131324754
 20
179.2212913971
 11
101.0702009225
 21
179.2212913971
  0
LINE
  5
3F9
100
AcDbEntity
  8
RACCORDO
100
AcDbLine
 62
7
  6
CONTINUOUS
 10
76.7638521534
 20
179.7212913971
 11
101.3194812444
 21
179.7212913971
  0
LINE
  5
3FA
100
AcDbEntity
  8
RACCORDO
100
AcDbLine
 62
253
  6
CONTINUOUS
 10
101.1416627234
 20
177.6845535876
 11
101.1160210574
 21
177.6851743907
  0
LINE
  5
3FB
100
AcDbEntity
  8
RACCORDO
100
AcDbLine
 62
253
  6
CONTINUOUS
 10
101.1576644424
 20
177.6840752733
 11
101.1416627234
 21
177.6845535876
  0
LINE
  5
3FC
100
AcDbEntity
  8
RACCORDO
100
AcDbLine
 62
253
  6
CONTINUOUS
 10
101.1726727452
 20
177.6835488947
 11
101.1576644424
 21
177.6840752733
  0
LINE
  5
3FD
100
AcDbEntity
  8
RACCORDO
100
AcDbLine
 62
253
  6
CONTINUOUS
 10
101.1865924454
 20
177.6829777903
 11
101.1726727452
 21
177.6835488947
  0
LWPOLYLINE
  5
3FE
100
AcDbEntity
  8
0
100
AcDbPolyline
 62
7
  6
CONTINUOUS
 90
8
 70
0
 43
0.3500000006
 10
108.6916673584
 20
156.9569994507
 10
108.6916673584
 20
157.8141555176
 10
108.2630983887
 20
158.2427244873
 10
107.4059513855
 20
158.2427244873
 10
106.9773824158
 20
157.8141555176
 10
106.9773824158
 20
156.9569994507
 10
105.6916664429
 20
156.9569994507
 10
105.6916664429
 20
158.2427244873
  0
LWPOLYLINE
  5
3FF
100
AcDbEntity
  8
RACCORDO
100
AcDbPolyline
 62
253
  6
CONTINUOUS
 90
16
 70
0
 10
101.2509917357
 20
144.1660859483
 10
101.2506198903
 20
144.1656932002
 10
101.2498521473
 20
144.1653010751
 10
101.2486897244
 20
144.1649101949
 10
101.2471344655
 20
144.1645211797
 10
101.2451888375
 20
144.1641346466
 10
101.2428559265
 20
144.1637512086
 10
101.240139433
 20
144.1633714739
 10
101.2370436659
 20
144.1629960449
 10
101.2335735356
 20
144.1626255171
 10
101.2297345465
 20
144.1622604782
 10
101.2255327879
 20
144.1619015072
 10
101.2209749245
 20
144.1615491736
 10
101.2160681862
 20
144.1612040361
 10
101.2108203557
 20
144.1608666423
 10
101.2052397574
 20
144.1605375274
  0
LWPOLYLINE
  5
400
100
AcDbEntity
  8
RACCORDO
100
AcDbPolyline
 62
253
  6
CONTINUOUS
 90
88
 70
0
 10
96.7540108407
 20
184.0224334681
 10
96.7588915604
 20
184.0235818074
 10
96.7637296506
 20
184.0247430711
 10
96.7685247435
 20
184.0259172832
 10
96.7732764456
 20
184.0271044425
 10
96.7779843733
 20
184.0283045503
 10
96.7826481769
 20
184.0295176341
 10
96.7872674751
 20
184.0307436937
 10
96.7918418887
 20
184.0319827294
 10
96.7963710738
 20
184.0332347696
 10
96.8008546622
 20
184.0344998153
 10
96.8052922784
 20
184.0357778655
 10
96.8096835722
 20
184.0370689452
 10
96.8140281795
 20
184.0383730544
 10
96.8183257393
 20
184.039690193
 10
96.8225759092
 20
184.0410203867
 10
96.8267783341
 20
184.0423636351
 10
96.8309326631
 20
184.0437199385
 10
96.835038564
 20
184.0450893232
 10
96.839095691
 20
184.0464717889
 10
96.8431037034
 20
184.0478673359
 10
96.8470622809
 20
184.0492759922
 10
96.8509710881
 20
184.0506977576
 10
96.8548297935
 20
184.0521326324
 10
96.8586380871
 20
184.0535806454
 10
96.8623956404
 20
184.0550417952
 10
96.8661021352
 20
184.0565160833
 10
96.8697572799
 20
184.0580035432
 10
96.8733607596
 20
184.0595041748
 10
96.8769122622
 20
184.0610179782
 10
96.8804115036
 20
184.0625449874
 10
96.8838581804
 20
184.0640852028
 10
96.8872519894
 20
184.065638624
 10
96.8905926508
 20
184.0672052838
 10
96.8938798704
 20
184.0687851818
 10
96.8971133572
 20
184.0703783184
 10
96.9002928405
 20
184.0719847265
 10
96.9034180421
 20
184.0736044089
 10
96.9064886767
 20
184.0752373628
 10
96.909504468
 20
184.0768836132
 10
96.9124651491
 20
184.078543163
 10
96.9153704475
 20
184.0802160094
 10
96.9182200851
 20
184.0819021686
 10
96.9210138161
 20
184.0836016492
 10
96.9237513728
 20
184.0853144427
 10
96.9264324549
 20
184.0870405404
 10
96.9290569375
 20
184.0887800256
 10
96.9316244588
 20
184.090532815
 10
96.9341343992
 20
184.09229865
 10
96.9365864648
 20
184.0940774692
 10
96.9389805522
 20
184.095869334
 10
96.9413163693
 20
184.0976741702
 10
96.9435936994
 20
184.0994919509
 10
96.9458124014
 20
184.1013227029
 10
96.9479723095
 20
184.1031664321
 10
96.9500732553
 20
184.1050231387
 10
96.952115074
 20
184.1068928224
 10
96.9540976115
 20
184.1087754886
 10
96.9560207141
 20
184.110671139
 10
96.9578842291
 20
184.1125797719
 10
96.9596880099
 20
184.1145013871
 10
96.9614319155
 20
184.1164359853
 10
96.9631158087
 20
184.1183835659
 10
96.9647395555
 20
184.1203441267
 10
96.9663030286
 20
184.1223176676
 10
96.9678061057
 20
184.1243041888
 10
96.9692486677
 20
184.1263036884
 10
96.9706306014
 20
184.1283161658
 10
96.9719517991
 20
184.1303416216
 10
96.9732121581
 20
184.1323800569
 10
96.9744115799
 20
184.1344314717
 10
96.9755499704
 20
184.1364958659
 10
96.9766272406
 20
184.1385732397
 10
96.9776433062
 20
184.1406635931
 10
96.9785980876
 20
184.142766926
 10
96.9794915101
 20
184.1448832386
 10
96.9803235036
 20
184.1470125307
 10
96.9810940032
 20
184.1491548024
 10
96.9818029483
 20
184.1513100536
 10
96.9824502836
 20
184.1534782843
 10
96.9830359583
 20
184.1556594945
 10
96.9835599266
 20
184.1578536843
 10
96.9840221475
 20
184.1600608537
 10
96.9844225847
 20
184.1622810026
 10
96.984761207
 20
184.1645141314
 10
96.9850379878
 20
184.1667602401
 10
96.9852529055
 20
184.1690193287
 10
96.9854059432
 20
184.171291397
  0
LWPOLYLINE
  5
401
100
AcDbEntity
  8
RACCORDO
100
AcDbPolyline
 62
253
  6
CONTINUOUS
 90
18
 70
0
 10
101.2509917357
 20
177.6764968458
 10
101.2506198923
 20
177.676889594
 10
101.2498521511
 20
177.6772817192
 10
101.24868973
 20
177.6776725994
 10
101.2471344727
 20
177.6780616146
 10
101.2451888462
 20
177.6784481479
 10
101.2428559367
 20
177.678831586
 10
101.2401394445
 20
177.6792113207
 10
101.2370436785
 20
177.6795867498
 10
101.2335735493
 20
177.6799572777
 10
101.2297345611
 20
177.6803223166
 10
101.2255328033
 20
177.6806812877
 10
101.2209749406
 20
177.6810336214
 10
101.2160682028
 20
177.6813787589
 10
101.2108203729
 20
177.6817161528
 10
101.2052397748
 20
177.6820452678
 10
101.1993352606
 20
177.682365582
 10
101.1865924454
 20
177.6829777903
  0
LINE
  5
402
100
AcDbEntity
  8
RACCORDO
100
AcDbLine
 62
253
  6
CONTINUOUS
 10
96.7441230956
 20
184.0201755616
 11
96.7540108407
 21
184.0224334681
  0
LINE
  5
403
100
AcDbEntity
  8
RACCORDO
100
AcDbLine
 62
253
  6
CONTINUOUS
 10
96.7340695423
 20
184.0179692836
 11
96.7441230956
 21
184.0201755616
  0
LINE
  5
404
100
AcDbEntity
  8
RACCORDO
100
AcDbLine
 62
253
  6
CONTINUOUS
 10
96.7238533784
 20
184.0158145904
 11
96.7340695423
 21
184.0179692836
  0
LINE
  5
405
100
AcDbEntity
  8
RACCORDO
100
AcDbLine
 62
253
  6
CONTINUOUS
 10
96.7134778308
 20
184.0137114189
 11
96.7238533784
 21
184.0158145904
  0
LINE
  5
406
100
AcDbEntity
  8
RACCORDO
100
AcDbLine
 62
253
  6
CONTINUOUS
 10
96.7029461697
 20
184.0116597087
 11
96.7134778308
 21
184.0137114189
  0
LINE
  5
407
100
AcDbEntity
  8
RACCORDO
100
AcDbLine
 62
253
  6
CONTINUOUS
 10
96.6922617203
 20
184.0096594193
 11
96.7029461697
 21
184.0116597087
  0
LWPOLYLINE
  5
408
100
AcDbEntity
  8
RACCORDO
100
AcDbPolyline
 62
253
  6
CONTINUOUS
 90
36
 70
0
 10
99.6873586031
 20
184.9180539636
 10
99.6774565094
 20
184.9162390615
 10
99.6676355138
 20
184.9140268534
 10
99.657911546
 20
184.9114209275
 10
99.6483003783
 20
184.9084255107
 10
99.6388176001
 20
184.9050454616
 10
99.6294785925
 20
184.9012862625
 10
99.6202985034
 20
184.8971540109
 10
99.6112922228
 20
184.8926554094
 10
99.6024743592
 20
184.8877977545
 10
99.593859215
 20
184.8825889256
 10
99.5854607641
 20
184.8770373713
 10
99.5772926287
 20
184.8711520962
 10
99.5693680577
 20
184.8649426463
 10
99.5616999048
 20
184.8584190933
 10
99.5543006077
 20
184.8515920185
 10
99.547182168
 20
184.8444724953
 10
99.5403561321
 20
184.8370720717
 10
99.5338335716
 20
184.8294027511
 10
99.5276250663
 20
184.8214769733
 10
99.5217406864
 20
184.8133075938
 10
99.5161899763
 20
184.8049078635
 10
99.5109819394
 20
184.7962914068
 10
99.5061250231
 20
184.7874721994
 10
99.5016271053
 20
184.7784645464
 10
99.4974954818
 20
184.769283058
 10
99.4937368539
 20
184.7599426267
 10
99.4903573183
 20
184.7504584027
 10
99.4873623566
 20
184.7408457695
 10
99.4847568266
 20
184.7311203188
 10
99.4825449544
 20
184.7212978253
 10
99.4807303279
 20
184.7113942212
 10
99.4793158902
 20
184.7014255701
 10
99.4783039356
 20
184.6914080413
 10
99.4776961056
 20
184.6813578831
 10
99.477493386
 20
184.6712913971
  0
LINE
  5
409
100
AcDbEntity
  8
RACCORDO
100
AcDbLine
 62
253
  6
CONTINUOUS
 10
96.6814278332
 20
184.0077104914
 11
96.6922617203
 21
184.0096594193
  0
LINE
  5
40A
100
AcDbEntity
  8
RACCORDO
100
AcDbLine
 62
253
  6
CONTINUOUS
 10
96.6704478208
 20
184.0058128554
 11
96.6814278332
 21
184.0077104914
  0
LINE
  5
40B
100
AcDbEntity
  8
RACCORDO
100
AcDbLine
 62
253
  6
CONTINUOUS
 10
96.6593250835
 20
184.0039664678
 11
96.6704478208
 21
184.0058128554
  0
LINE
  5
40C
100
AcDbEntity
  8
RACCORDO
100
AcDbLine
 62
253
  6
CONTINUOUS
 10
96.6480630144
 20
184.0021712641
 11
96.6593250835
 21
184.0039664678
  0
LINE
  5
40D
100
AcDbEntity
  8
RACCORDO
100
AcDbLine
 62
253
  6
CONTINUOUS
 10
96.6366650666
 20
184.0004271878
 11
96.6480630144
 21
184.0021712641
  0
LINE
  5
40E
100
AcDbEntity
  8
RACCORDO
100
AcDbLine
 62
253
  6
CONTINUOUS
 10
96.6251347634
 20
183.9987342027
 11
96.6366650666
 21
184.0004271878
  0
LINE
  5
40F
100
AcDbEntity
  8
RACCORDO
100
AcDbLine
 62
253
  6
CONTINUOUS
 10
99.6973257337
 20
184.9194686161
 11
99.6873586031
 21
184.9180539636
  0
LINE
  5
410
100
AcDbEntity
  8
RACCORDO
100
AcDbLine
 62
253
  6
CONTINUOUS
 10
96.6134756385
 20
183.9970922564
 11
96.6251347634
 21
183.9987342027
  0
LINE
  5
411
100
AcDbEntity
  8
RACCORDO
100
AcDbLine
 62
253
  6
CONTINUOUS
 10
96.6016912823
 20
183.9955013024
 11
96.6134756385
 21
183.9970922564
  0
LINE
  5
412
100
AcDbEntity
  8
RACCORDO
100
AcDbLine
 62
253
  6
CONTINUOUS
 10
96.5897853348
 20
183.9939613098
 11
96.6016912823
 21
183.9955013024
  0
LINE
  5
413
100
AcDbEntity
  8
RACCORDO
100
AcDbLine
 62
253
  6
CONTINUOUS
 10
96.5777614498
 20
183.9924722333
 11
96.5897853348
 21
183.9939613098
  0
LINE
  5
414
100
AcDbEntity
  8
RACCORDO
100
AcDbLine
 62
253
  6
CONTINUOUS
 10
96.5656232901
 20
183.9910340273
 11
96.5777614498
 21
183.9924722333
  0
LINE
  5
415
100
AcDbEntity
  8
RACCORDO
100
AcDbLine
 62
253
  6
CONTINUOUS
 10
96.5533745582
 20
183.9896466603
 11
96.5656232901
 21
183.9910340273
  0
LINE
  5
416
100
AcDbEntity
  8
RACCORDO
100
AcDbLine
 62
253
  6
CONTINUOUS
 10
96.5410189201
 20
183.9883100827
 11
96.5533745582
 21
183.9896466603
  0
LINE
  5
417
100
AcDbEntity
  8
RACCORDO
100
AcDbLine
 62
253
  6
CONTINUOUS
 10
96.5285600699
 20
183.9870242494
 11
96.5410189201
 21
183.9883100827
  0
LINE
  5
418
100
AcDbEntity
  8
RACCORDO
100
AcDbLine
 62
253
  6
CONTINUOUS
 10
96.5160017742
 20
183.9857891317
 11
96.5285600699
 21
183.9870242494
  0
LINE
  5
419
100
AcDbEntity
  8
RACCORDO
100
AcDbLine
 62
253
  6
CONTINUOUS
 10
96.5033477797
 20
183.9846046874
 11
96.5160017742
 21
183.9857891317
  0
LINE
  5
41A
100
AcDbEntity
  8
RACCORDO
100
AcDbLine
 62
253
  6
CONTINUOUS
 10
96.4906019063
 20
183.9834708825
 11
96.5033477797
 21
183.9846046874
  0
LINE
  5
41B
100
AcDbEntity
  8
RACCORDO
100
AcDbLine
 62
253
  6
CONTINUOUS
 10
96.4777680246
 20
183.9823876945
 11
96.4906019063
 21
183.9834708825
  0
LINE
  5
41C
100
AcDbEntity
  8
RACCORDO
100
AcDbLine
 62
253
  6
CONTINUOUS
 10
96.464850012
 20
183.9813550918
 11
96.4777680246
 21
183.9823876945
  0
LINE
  5
41D
100
AcDbEntity
  8
RACCORDO
100
AcDbLine
 62
253
  6
CONTINUOUS
 10
96.4453237929
 20
183.9799009754
 11
96.464850012
 21
183.9813550918
  0
LINE
  5
41E
100
AcDbEntity
  8
RACCORDO
100
AcDbLine
 62
253
  6
CONTINUOUS
 10
96.4256302808
 20
183.9785605254
 11
96.4453237929
 21
183.9799009754
  0
LINE
  5
41F
100
AcDbEntity
  8
RACCORDO
100
AcDbLine
 62
253
  6
CONTINUOUS
 10
96.4057826837
 20
183.9773336521
 11
96.4256302808
 21
183.9785605254
  0
LINE
  5
420
100
AcDbEntity
  8
RACCORDO
100
AcDbLine
 62
253
  6
CONTINUOUS
 10
96.3924718661
 20
183.9765787904
 11
96.4057826837
 21
183.9773336521
  0
LWPOLYLINE
  5
421
100
AcDbEntity
  8
RACCORDO
100
AcDbPolyline
 62
7
  6
CONTINUOUS
 90
4
 70
0
 10
92.9612521602
 20
183.4212913971
 10
92.9654880513
 20
183.4215073815
 10
92.9784940728
 20
183.4219032265
 10
92.9916666989
 20
183.4220402456
  0
LINE
  5
422
100
AcDbEntity
  8
RACCORDO
100
AcDbLine
 62
253
  6
CONTINUOUS
 10
76.677493386
 20
183.1712913971
 11
101.4058400119
 21
183.1712913971
  0
LINE
  5
423
100
AcDbEntity
  8
RACCORDO
100
AcDbLine
 62
7
  6
CONTINUOUS
 10
76.9387611841
 20
183.4212913971
 11
101.1445722138
 21
183.4212913971
  0
LINE
  5
424
100
AcDbEntity
  8
RACCORDO
100
AcDbLine
 62
7
  6
CONTINUOUS
 10
95.0416666989
 20
183.4220402456
 11
92.9916666989
 21
183.4220402456
  0
LINE
  5
425
100
AcDbEntity
  8
RACCORDO
100
AcDbLine
 62
7
  6
CONTINUOUS
 10
83.0416666989
 20
183.4220402456
 11
85.0916666989
 21
183.4220402456
  0
LWPOLYLINE
  5
426
100
AcDbEntity
  8
RACCORDO
100
AcDbPolyline
 62
7
  6
CONTINUOUS
 90
4
 70
0
 10
85.0916666989
 20
183.4220402456
 10
85.1048393251
 20
183.4219032265
 10
85.1178453466
 20
183.4215073815
 10
85.1220812377
 20
183.4212913971
  0
LINE
  5
427
100
AcDbEntity
  8
RACCORDO
100
AcDbLine
 62
253
  6
CONTINUOUS
 10
81.6709208026
 20
183.9777298568
 11
81.6908638272
 21
183.9765786649
  0
LINE
  5
428
100
AcDbEntity
  8
RACCORDO
100
AcDbLine
 62
253
  6
CONTINUOUS
 10
81.6511230503
 20
183.9789945683
 11
81.6709208026
 21
183.9777298568
  0
LINE
  5
429
100
AcDbEntity
  8
RACCORDO
100
AcDbLine
 62
253
  6
CONTINUOUS
 10
81.6314837353
 20
183.9803728901
 11
81.6511230503
 21
183.9789945683
  0
LINE
  5
42A
100
AcDbEntity
  8
RACCORDO
100
AcDbLine
 62
253
  6
CONTINUOUS
 10
81.6120161199
 20
183.9818649094
 11
81.6314837353
 21
183.9803728901
  0
LINE
  5
42B
100
AcDbEntity
  8
RACCORDO
100
AcDbLine
 62
253
  6
CONTINUOUS
 10
81.5991396213
 20
183.9829228005
 11
81.6120161199
 21
183.9818649094
  0
LINE
  5
42C
100
AcDbEntity
  8
RACCORDO
100
AcDbLine
 62
253
  6
CONTINUOUS
 10
81.5863492026
 20
183.9840312883
 11
81.5991396213
 21
183.9829228005
  0
LINE
  5
42D
100
AcDbEntity
  8
RACCORDO
100
AcDbLine
 62
253
  6
CONTINUOUS
 10
81.5736487191
 20
183.9851904052
 11
81.5863492026
 21
183.9840312883
  0
LINE
  5
42E
100
AcDbEntity
  8
RACCORDO
100
AcDbLine
 62
253
  6
CONTINUOUS
 10
81.5610420024
 20
183.9864001861
 11
81.5736487191
 21
183.9851904052
  0
LINE
  5
42F
100
AcDbEntity
  8
RACCORDO
100
AcDbLine
 62
253
  6
CONTINUOUS
 10
81.5485328837
 20
183.987660655
 11
81.5610420024
 21
183.9864001861
  0
LINE
  5
430
100
AcDbEntity
  8
RACCORDO
100
AcDbLine
 62
253
  6
CONTINUOUS
 10
81.5361251585
 20
183.9889718469
 11
81.5485328837
 21
183.987660655
  0
LINE
  5
431
100
AcDbEntity
  8
RACCORDO
100
AcDbLine
 62
253
  6
CONTINUOUS
 10
81.5238224478
 20
183.9903338166
 11
81.5361251585
 21
183.9889718469
  0
LINE
  5
432
100
AcDbEntity
  8
RACCORDO
100
AcDbLine
 62
253
  6
CONTINUOUS
 10
81.511628468
 20
183.9917465966
 11
81.5238224478
 21
183.9903338166
  0
LINE
  5
433
100
AcDbEntity
  8
RACCORDO
100
AcDbLine
 62
253
  6
CONTINUOUS
 10
81.4995469013
 20
183.9932102331
 11
81.511628468
 21
183.9917465966
  0
LINE
  5
434
100
AcDbEntity
  8
RACCORDO
100
AcDbLine
 62
253
  6
CONTINUOUS
 10
81.4875814419
 20
183.9947247698
 11
81.4995469013
 21
183.9932102331
  0
LINE
  5
435
100
AcDbEntity
  8
RACCORDO
100
AcDbLine
 62
253
  6
CONTINUOUS
 10
81.475735771
 20
183.9962902372
 11
81.4875814419
 21
183.9947247698
  0
LINE
  5
436
100
AcDbEntity
  8
RACCORDO
100
AcDbLine
 62
253
  6
CONTINUOUS
 10
81.4640135162
 20
183.9979066814
 11
81.475735771
 21
183.9962902372
  0
LINE
  5
437
100
AcDbEntity
  8
RACCORDO
100
AcDbLine
 62
253
  6
CONTINUOUS
 10
78.3959747968
 20
184.9180539633
 11
78.3860076657
 21
184.9194686159
  0
LINE
  5
438
100
AcDbEntity
  8
RACCORDO
100
AcDbLine
 62
253
  6
CONTINUOUS
 10
81.4524182742
 20
183.9995741508
 11
81.4640135162
 21
183.9979066814
  0
LINE
  5
439
100
AcDbEntity
  8
RACCORDO
100
AcDbLine
 62
253
  6
CONTINUOUS
 10
81.4409536326
 20
184.0012926782
 11
81.4524182742
 21
183.9995741508
  0
LINE
  5
43A
100
AcDbEntity
  8
RACCORDO
100
AcDbLine
 62
253
  6
CONTINUOUS
 10
81.4296231265
 20
184.0030623128
 11
81.4409536326
 21
184.0012926782
  0
LINE
  5
43B
100
AcDbEntity
  8
RACCORDO
100
AcDbLine
 62
253
  6
CONTINUOUS
 10
81.4184302436
 20
184.0048831083
 11
81.4296231265
 21
184.0030623128
  0
LINE
  5
43C
100
AcDbEntity
  8
RACCORDO
100
AcDbLine
 62
253
  6
CONTINUOUS
 10
81.4073784307
 20
184.0067551069
 11
81.4184302436
 21
184.0048831083
  0
LINE
  5
43D
100
AcDbEntity
  8
RACCORDO
100
AcDbLine
 62
253
  6
CONTINUOUS
 10
81.3964709905
 20
184.008678385
 11
81.4073784307
 21
184.0067551069
  0
LINE
  5
43E
100
AcDbEntity
  8
RACCORDO
100
AcDbLine
 62
253
  6
CONTINUOUS
 10
81.3857113189
 20
184.0106530015
 11
81.3964709905
 21
184.008678385
  0
LINE
  5
43F
100
AcDbEntity
  8
RACCORDO
100
AcDbLine
 62
253
  6
CONTINUOUS
 10
81.3751027917
 20
184.0126789972
 11
81.3857113189
 21
184.0106530015
  0
LINE
  5
440
100
AcDbEntity
  8
RACCORDO
100
AcDbLine
 62
253
  6
CONTINUOUS
 10
81.3646487321
 20
184.0147564316
 11
81.3751027917
 21
184.0126789972
  0
LINE
  5
441
100
AcDbEntity
  8
RACCORDO
100
AcDbLine
 62
253
  6
CONTINUOUS
 10
81.354352423
 20
184.0168853671
 11
81.3646487321
 21
184.0147564316
  0
LINE
  5
442
100
AcDbEntity
  8
RACCORDO
100
AcDbLine
 62
253
  6
CONTINUOUS
 10
81.3442171274
 20
184.0190658455
 11
81.354352423
 21
184.0168853671
  0
LWPOLYLINE
  5
443
100
AcDbEntity
  8
RACCORDO
100
AcDbPolyline
 62
253
  6
CONTINUOUS
 90
88
 70
0
 10
82.4475349446
 20
184.0224334681
 10
82.4524156643
 20
184.0235818074
 10
82.4572537545
 20
184.0247430711
 10
82.4620488474
 20
184.0259172832
 10
82.4668005495
 20
184.0271044425
 10
82.4715084772
 20
184.0283045503
 10
82.4761722809
 20
184.0295176341
 10
82.4807915791
 20
184.0307436937
 10
82.4853659926
 20
184.0319827294
 10
82.4898951778
 20
184.0332347696
 10
82.4943787661
 20
184.0344998153
 10
82.4988163824
 20
184.0357778655
 10
82.5032076761
 20
184.0370689452
 10
82.5075522835
 20
184.0383730544
 10
82.5118498432
 20
184.039690193
 10
82.5161000131
 20
184.0410203867
 10
82.520302438
 20
184.0423636351
 10
82.524456767
 20
184.0437199385
 10
82.5285626679
 20
184.0450893232
 10
82.5326197949
 20
184.0464717889
 10
82.5366278073
 20
184.0478673359
 10
82.5405863848
 20
184.0492759922
 10
82.544495192
 20
184.0506977576
 10
82.5483538975
 20
184.0521326324
 10
82.552162191
 20
184.0535806454
 10
82.5559197443
 20
184.0550417952
 10
82.5596262392
 20
184.0565160833
 10
82.5632813838
 20
184.0580035432
 10
82.5668848635
 20
184.0595041748
 10
82.5704363662
 20
184.0610179782
 10
82.5739356076
 20
184.0625449874
 10
82.5773822843
 20
184.0640852028
 10
82.5807760933
 20
184.065638624
 10
82.5841167547
 20
184.0672052838
 10
82.5874039743
 20
184.0687851818
 10
82.5906374612
 20
184.0703783184
 10
82.5938169445
 20
184.0719847265
 10
82.5969421461
 20
184.0736044089
 10
82.6000127807
 20
184.0752373628
 10
82.6030285719
 20
184.0768836132
 10
82.6059892531
 20
184.078543163
 10
82.6088945515
 20
184.0802160094
 10
82.6117441891
 20
184.0819021686
 10
82.61453792
 20
184.0836016492
 10
82.6172754767
 20
184.0853144427
 10
82.6199565588
 20
184.0870405404
 10
82.6225810414
 20
184.0887800256
 10
82.6251485627
 20
184.090532815
 10
82.6276585032
 20
184.09229865
 10
82.6301105687
 20
184.0940774692
 10
82.6325046562
 20
184.095869334
 10
82.6348404732
 20
184.0976741702
 10
82.6371178034
 20
184.0994919509
 10
82.6393365053
 20
184.1013227029
 10
82.6414964135
 20
184.1031664321
 10
82.6435973592
 20
184.1050231387
 10
82.6456391779
 20
184.1068928224
 10
82.6476217154
 20
184.1087754886
 10
82.6495448181
 20
184.110671139
 10
82.651408333
 20
184.1125797719
 10
82.6532121138
 20
184.1145013871
 10
82.6549560195
 20
184.1164359853
 10
82.6566399127
 20
184.1183835659
 10
82.6582636595
 20
184.1203441267
 10
82.6598271326
 20
184.1223176676
 10
82.6613302096
 20
184.1243041888
 10
82.6627727717
 20
184.1263036884
 10
82.6641547053
 20
184.1283161658
 10
82.665475903
 20
184.1303416216
 10
82.666736262
 20
184.1323800569
 10
82.6679356838
 20
184.1344314717
 10
82.6690740743
 20
184.1364958659
 10
82.6701513445
 20
184.1385732397
 10
82.6711674101
 20
184.1406635931
 10
82.6721221915
 20
184.142766926
 10
82.673015614
 20
184.1448832386
 10
82.6738476076
 20
184.1470125307
 10
82.6746181071
 20
184.1491548024
 10
82.6753270522
 20
184.1513100536
 10
82.6759743875
 20
184.1534782843
 10
82.6765600623
 20
184.1556594945
 10
82.6770840306
 20
184.1578536843
 10
82.6775462514
 20
184.1600608537
 10
82.6779466886
 20
184.1622810026
 10
82.6782853109
 20
184.1645141314
 10
82.6785620918
 20
184.1667602401
 10
82.6787770095
 20
184.1690193287
 10
82.6789300471
 20
184.171291397
  0
LINE
  5
444
100
AcDbEntity
  8
RACCORDO
100
AcDbLine
 62
253
  6
CONTINUOUS
 10
82.4376471996
 20
184.0201755616
 11
82.4475349446
 21
184.0224334681
  0
LINE
  5
445
100
AcDbEntity
  8
RACCORDO
100
AcDbLine
 62
253
  6
CONTINUOUS
 10
82.4275936462
 20
184.0179692836
 11
82.4376471996
 21
184.0201755616
  0
LINE
  5
446
100
AcDbEntity
  8
RACCORDO
100
AcDbLine
 62
253
  6
CONTINUOUS
 10
82.4173774823
 20
184.0158145904
 11
82.4275936462
 21
184.0179692836
  0
LINE
  5
447
100
AcDbEntity
  8
RACCORDO
100
AcDbLine
 62
253
  6
CONTINUOUS
 10
82.4070019347
 20
184.0137114189
 11
82.4173774823
 21
184.0158145904
  0
LINE
  5
448
100
AcDbEntity
  8
RACCORDO
100
AcDbLine
 62
253
  6
CONTINUOUS
 10
82.3964702737
 20
184.0116597087
 11
82.4070019347
 21
184.0137114189
  0
LINE
  5
449
100
AcDbEntity
  8
RACCORDO
100
AcDbLine
 62
253
  6
CONTINUOUS
 10
82.3857858243
 20
184.0096594193
 11
82.3964702737
 21
184.0116597087
  0
LINE
  5
44A
100
AcDbEntity
  8
RACCORDO
100
AcDbLine
 62
253
  6
CONTINUOUS
 10
82.3749519372
 20
184.0077104914
 11
82.3857858243
 21
184.0096594193
  0
LINE
  5
44B
100
AcDbEntity
  8
RACCORDO
100
AcDbLine
 62
253
  6
CONTINUOUS
 10
82.3639719248
 20
184.0058128554
 11
82.3749519372
 21
184.0077104914
  0
LINE
  5
44C
100
AcDbEntity
  8
RACCORDO
100
AcDbLine
 62
253
  6
CONTINUOUS
 10
82.3528491875
 20
184.0039664678
 11
82.3639719248
 21
184.0058128554
  0
LINE
  5
44D
100
AcDbEntity
  8
RACCORDO
100
AcDbLine
 62
253
  6
CONTINUOUS
 10
82.3415871183
 20
184.0021712641
 11
82.3528491875
 21
184.0039664678
  0
LINE
  5
44E
100
AcDbEntity
  8
RACCORDO
100
AcDbLine
 62
253
  6
CONTINUOUS
 10
82.3301891705
 20
184.0004271878
 11
82.3415871183
 21
184.0021712641
  0
LINE
  5
44F
100
AcDbEntity
  8
RACCORDO
100
AcDbLine
 62
253
  6
CONTINUOUS
 10
82.3186588674
 20
183.9987342027
 11
82.3301891705
 21
184.0004271878
  0
LINE
  5
450
100
AcDbEntity
  8
RACCORDO
100
AcDbLine
 62
253
  6
CONTINUOUS
 10
82.3069997424
 20
183.9970922564
 11
82.3186588674
 21
183.9987342027
  0
LINE
  5
451
100
AcDbEntity
  8
RACCORDO
100
AcDbLine
 62
253
  6
CONTINUOUS
 10
82.2952153863
 20
183.9955013024
 11
82.3069997424
 21
183.9970922564
  0
LINE
  5
452
100
AcDbEntity
  8
RACCORDO
100
AcDbLine
 62
253
  6
CONTINUOUS
 10
82.2833094387
 20
183.9939613098
 11
82.2952153863
 21
183.9955013024
  0
LINE
  5
453
100
AcDbEntity
  8
RACCORDO
100
AcDbLine
 62
253
  6
CONTINUOUS
 10
82.2712855537
 20
183.9924722333
 11
82.2833094387
 21
183.9939613098
  0
LINE
  5
454
100
AcDbEntity
  8
RACCORDO
100
AcDbLine
 62
253
  6
CONTINUOUS
 10
82.259147394
 20
183.9910340273
 11
82.2712855537
 21
183.9924722333
  0
LINE
  5
455
100
AcDbEntity
  8
RACCORDO
100
AcDbLine
 62
253
  6
CONTINUOUS
 10
82.2468986621
 20
183.9896466603
 11
82.259147394
 21
183.9910340273
  0
LINE
  5
456
100
AcDbEntity
  8
RACCORDO
100
AcDbLine
 62
253
  6
CONTINUOUS
 10
82.234543024
 20
183.9883100827
 11
82.2468986621
 21
183.9896466603
  0
LINE
  5
457
100
AcDbEntity
  8
RACCORDO
100
AcDbLine
 62
253
  6
CONTINUOUS
 10
82.2220841738
 20
183.9870242494
 11
82.234543024
 21
183.9883100827
  0
LINE
  5
458
100
AcDbEntity
  8
RACCORDO
100
AcDbLine
 62
253
  6
CONTINUOUS
 10
82.2095258781
 20
183.9857891317
 11
82.2220841738
 21
183.9870242494
  0
LINE
  5
459
100
AcDbEntity
  8
RACCORDO
100
AcDbLine
 62
253
  6
CONTINUOUS
 10
82.1968718836
 20
183.9846046874
 11
82.2095258781
 21
183.9857891317
  0
LINE
  5
45A
100
AcDbEntity
  8
RACCORDO
100
AcDbLine
 62
253
  6
CONTINUOUS
 10
82.1841260102
 20
183.9834708825
 11
82.1968718836
 21
183.9846046874
  0
LINE
  5
45B
100
AcDbEntity
  8
RACCORDO
100
AcDbLine
 62
253
  6
CONTINUOUS
 10
82.1712921286
 20
183.9823876945
 11
82.1841260102
 21
183.9834708825
  0
LINE
  5
45C
100
AcDbEntity
  8
RACCORDO
100
AcDbLine
 62
253
  6
CONTINUOUS
 10
82.158374116
 20
183.9813550918
 11
82.1712921286
 21
183.9823876945
  0
LINE
  5
45D
100
AcDbEntity
  8
RACCORDO
100
AcDbLine
 62
253
  6
CONTINUOUS
 10
82.1388478969
 20
183.9799009754
 11
82.158374116
 21
183.9813550918
  0
LINE
  5
45E
100
AcDbEntity
  8
RACCORDO
100
AcDbLine
 62
253
  6
CONTINUOUS
 10
82.1191543848
 20
183.9785605254
 11
82.1388478969
 21
183.9799009754
  0
LINE
  5
45F
100
AcDbEntity
  8
RACCORDO
100
AcDbLine
 62
253
  6
CONTINUOUS
 10
82.0993067877
 20
183.9773336521
 11
82.1191543848
 21
183.9785605254
  0
LINE
  5
460
100
AcDbEntity
  8
RACCORDO
100
AcDbLine
 62
253
  6
CONTINUOUS
 10
82.0793183278
 20
183.9762202701
 11
82.0993067877
 21
183.9773336521
  0
LINE
  5
461
100
AcDbEntity
  8
RACCORDO
100
AcDbLine
 62
253
  6
CONTINUOUS
 10
96.3723968736
 20
183.9755410266
 11
96.3924718661
 21
183.9765787904
  0
LINE
  5
462
100
AcDbEntity
  8
RACCORDO
100
AcDbLine
 62
253
  6
CONTINUOUS
 10
82.0592022901
 20
183.9752203034
 11
82.0793183278
 21
183.9762202701
  0
LINE
  5
463
100
AcDbEntity
  8
RACCORDO
100
AcDbLine
 62
253
  6
CONTINUOUS
 10
96.3522032664
 20
183.9746166358
 11
96.3723968736
 21
183.9755410266
  0
LINE
  5
464
100
AcDbEntity
  8
RACCORDO
100
AcDbLine
 62
253
  6
CONTINUOUS
 10
82.0389721636
 20
183.9743336913
 11
82.0592022901
 21
183.9752203034
  0
LINE
  5
465
100
AcDbEntity
  8
RACCORDO
100
AcDbLine
 62
253
  6
CONTINUOUS
 10
96.3319046503
 20
183.9738055649
 11
96.3522032664
 21
183.9746166358
  0
LINE
  5
466
100
AcDbEntity
  8
RACCORDO
100
AcDbLine
 62
253
  6
CONTINUOUS
 10
82.0186415816
 20
183.973560383
 11
82.0389721636
 21
183.9743336913
  0
LINE
  5
467
100
AcDbEntity
  8
RACCORDO
100
AcDbLine
 62
253
  6
CONTINUOUS
 10
96.3115147022
 20
183.9731077668
 11
96.3319046503
 21
183.9738055649
  0
LINE
  5
468
100
AcDbEntity
  8
RACCORDO
100
AcDbLine
 62
253
  6
CONTINUOUS
 10
81.9982242371
 20
183.9729003326
 11
82.0186415816
 21
183.973560383
  0
LINE
  5
469
100
AcDbEntity
  8
RACCORDO
100
AcDbLine
 62
253
  6
CONTINUOUS
 10
96.291047116
 20
183.9725231981
 11
96.3115147022
 21
183.9731077668
  0
LINE
  5
46A
100
AcDbEntity
  8
RACCORDO
100
AcDbLine
 62
253
  6
CONTINUOUS
 10
81.9777338085
 20
183.9723534978
 11
81.9982242371
 21
183.9729003326
  0
LINE
  5
46B
100
AcDbEntity
  8
RACCORDO
100
AcDbLine
 62
253
  6
CONTINUOUS
 10
96.2705155539
 20
183.9720518194
 11
96.291047116
 21
183.9725231981
  0
LWPOLYLINE
  5
46C
100
AcDbEntity
  8
RACCORDO
100
AcDbPolyline
 62
253
  6
CONTINUOUS
 90
4
 70
0
 10
99.7274553097
 20
184.9212913971
 10
99.7173903595
 20
184.9210886467
 10
99.7073417345
 20
184.9204807243
 10
99.6973257337
 20
184.9194686161
  0
LINE
  5
46D
100
AcDbEntity
  8
RACCORDO
100
AcDbLine
 62
253
  6
CONTINUOUS
 10
81.9571839577
 20
183.9719198414
 11
81.9777338085
 21
183.9723534978
  0
LWPOLYLINE
  5
46E
100
AcDbEntity
  8
RACCORDO
100
AcDbPolyline
 62
253
  6
CONTINUOUS
 90
43
 70
0
 10
77.0182540017
 20
183.4212913971
 10
77.0089076268
 20
183.4211165732
 10
76.9995743237
 20
183.4205923463
 10
76.9902671458
 20
183.4197194495
 10
76.9809991101
 20
183.4184991036
 10
76.9717831787
 20
183.4169330154
 10
76.962632241
 20
183.4150233751
 10
76.9535590953
 20
183.4127728536
 10
76.9445764312
 20
183.4101845985
 10
76.935696812
 20
183.4072622296
 10
76.9269326564
 20
183.4040098342
 10
76.918296222
 20
183.400431961
 10
76.9097995876
 20
183.396533614
 10
76.9014546364
 20
183.3923202454
 10
76.8932730398
 20
183.387797748
 10
76.8852662403
 20
183.3829724469
 10
76.8774454363
 20
183.3778510906
 10
76.8698215657
 20
183.372440842
 10
76.8624052914
 20
183.3667492677
 10
76.8552069855
 20
183.3607843278
 10
76.8482367156
 20
183.354554365
 10
76.8415042303
 20
183.3480680923
 10
76.8350189456
 20
183.3413345815
 10
76.8287899316
 20
183.3343632499
 10
76.8228259003
 20
183.3271638475
 10
76.8171351928
 20
183.3197464434
 10
76.8117257682
 20
183.3121214116
 10
76.8066051919
 20
183.3042994162
 10
76.8017806257
 20
183.2962913971
 10
76.7972588171
 20
183.2881085541
 10
76.7930460902
 20
183.2797623318
 10
76.7891483369
 20
183.2712644031
 10
76.7855710087
 20
183.2626266531
 10
76.7823191086
 20
183.2538611625
 10
76.7793971848
 20
183.2449801907
 10
76.7768093239
 20
183.2359961583
 10
76.7745591452
 20
183.2269216305
 10
76.7726497958
 20
183.2177692988
 10
76.7710839461
 20
183.2085519636
 10
76.769863786
 20
183.1992825161
 10
76.7689910221
 20
183.1899739204
 10
76.7684668751
 20
183.1806391956
 10
76.7682920779
 20
183.1712913971
  0
LINE
  5
46F
100
AcDbEntity
  8
RACCORDO
100
AcDbLine
 62
253
  6
CONTINUOUS
 10
96.2499336396
 20
183.971693598
 11
96.2705155539
 21
183.9720518194
  0
LINE
  5
470
100
AcDbEntity
  8
RACCORDO
100
AcDbLine
 62
253
  6
CONTINUOUS
 10
81.9365882706
 20
183.9715993326
 11
81.9571839577
 21
183.9719198414
  0
LWPOLYLINE
  5
471
100
AcDbEntity
  8
RACCORDO
100
AcDbPolyline
 62
7
  6
CONTINUOUS
 90
25
 70
0
 10
93.3416666989
 20
184.8297008569
 10
93.3548393251
 20
184.8298378759
 10
93.3678453466
 20
184.8302337209
 10
93.3806847634
 20
184.8308883919
 10
93.3934109761
 20
184.8318068946
 10
93.4059705842
 20
184.8329842232
 10
93.4182033854
 20
184.8344053605
 10
93.4301051934
 20
184.8360734297
 10
93.4416801945
 20
184.8379853077
 10
93.4527807456
 20
184.8401166077
 10
93.4634007689
 20
184.8424701405
 10
93.4735463422
 20
184.8450430954
 10
93.4830880552
 20
184.8478026533
 10
93.4920181724
 20
184.8507512048
 10
93.5003444293
 20
184.8538863594
 10
93.5079606214
 20
184.8571681271
 10
93.5148576531
 20
184.860598386
 10
93.5210446201
 20
184.864175258
 10
93.5264426054
 20
184.867853119
 10
93.5310415025
 20
184.8716332624
 10
93.534851418
 20
184.8755143948
 10
93.537823755
 20
184.8794470108
 10
93.5399423147
 20
184.8834146088
 10
93.541223296
 20
184.8874336904
 10
93.5416666989
 20
184.8915042558
  0
LINE
  5
472
100
AcDbEntity
  8
RACCORDO
100
AcDbLine
 62
253
  6
CONTINUOUS
 10
96.2293149406
 20
183.9714485087
 11
96.2499336396
 21
183.971693598
  0
LINE
  5
473
100
AcDbEntity
  8
RACCORDO
100
AcDbLine
 62
253
  6
CONTINUOUS
 10
81.9159603339
 20
183.9713919502
 11
81.9365882706
 21
183.9715993326
  0
LINE
  5
474
100
AcDbEntity
  8
RACCORDO
100
AcDbLine
 62
253
  6
CONTINUOUS
 10
96.2086731471
 20
183.9713165375
 11
96.2293149406
 21
183.9714485087
  0
LINE
  5
475
100
AcDbEntity
  8
RACCORDO
100
AcDbLine
 62
253
  6
CONTINUOUS
 10
81.8953139222
 20
183.9712976833
 11
81.9159603339
 21
183.9713919502
  0
LINE
  5
476
100
AcDbEntity
  8
RACCORDO
100
AcDbLine
 62
7
  6
CONTINUOUS
 10
80.8976624133
 20
184.1712913971
 11
82.8416666989
 21
184.1712913971
  0
LINE
  5
477
100
AcDbEntity
  8
DRAFT
100
AcDbLine
 62
7
  6
CONTINUOUS
 10
82.8416666989
 20
184.1712913971
 11
83.0416666989
 21
184.1712913971
  0
LINE
  5
478
100
AcDbEntity
  8
DRAFT
100
AcDbLine
 62
7
  6
CONTINUOUS
 10
95.0416666989
 20
184.1712913971
 11
95.2416666989
 21
184.1712913971
  0
LINE
  5
479
100
AcDbEntity
  8
RACCORDO
100
AcDbLine
 62
7
  6
CONTINUOUS
 10
95.2416666989
 20
184.1712913971
 11
97.1856709846
 21
184.1712913971
  0
LINE
  5
47A
100
AcDbEntity
  8
RACCORDO
100
AcDbLine
 62
7
  6
CONTINUOUS
 10
84.7416666989
 20
184.4492782504
 11
85.3373369315
 21
184.4492782504
  0
LINE
  5
47B
100
AcDbEntity
  8
RACCORDO
100
AcDbLine
 62
7
  6
CONTINUOUS
 10
92.7459964664
 20
184.4492782504
 11
93.3416666989
 21
184.4492782504
  0
LINE
  5
47C
100
AcDbEntity
  8
RACCORDO
100
AcDbLine
 62
253
  6
CONTINUOUS
 10
78.6416666989
 20
184.6712913971
 11
76.6416666989
 21
184.6712913971
  0
LINE
  5
47D
100
AcDbEntity
  8
RACCORDO
100
AcDbLine
 62
253
  6
CONTINUOUS
 10
99.4416666989
 20
184.6712913971
 11
101.4416666989
 21
184.6712913971
  0
LINE
  5
47E
100
AcDbEntity
  8
RACCORDO
100
AcDbLine
 62
7
  6
CONTINUOUS
 10
84.7416666989
 20
184.8297008569
 11
85.2995850841
 21
184.8297008569
  0
LINE
  5
47F
100
AcDbEntity
  8
RACCORDO
100
AcDbLine
 62
7
  6
CONTINUOUS
 10
92.7837483138
 20
184.8297008569
 11
93.3416666989
 21
184.8297008569
  0
LINE
  5
480
100
AcDbEntity
  8
RACCORDO
100
AcDbLine
 62
7
  6
CONTINUOUS
 10
78.3916286169
 20
184.9212913971
 11
76.891704781
 21
184.9212913971
  0
LINE
  5
481
100
AcDbEntity
  8
RACCORDO
100
AcDbLine
 62
7
  6
CONTINUOUS
 10
99.691704781
 20
184.9212913971
 11
101.1916286169
 21
184.9212913971
  0
LINE
  5
482
100
AcDbEntity
  8
RACCORDO
100
AcDbLine
 62
7
  6
CONTINUOUS
 10
95.0416666989
 20
184.9712913971
 11
92.9749329338
 21
184.9712913971
  0
LINE
  5
483
100
AcDbEntity
  8
RACCORDO
100
AcDbLine
 62
7
  6
CONTINUOUS
 10
85.1084004641
 20
184.9712913971
 11
83.0416666989
 21
184.9712913971
  0
LINE
  5
484
100
AcDbEntity
  8
0
100
AcDbLine
 62
253
  6
CONTINUOUS
 10
95.0416666989
 20
185.2712913971
 11
83.0416666989
 21
185.2712913971
  0
LINE
  5
485
100
AcDbEntity
  8
RACCORDO
100
AcDbLine
 62
253
  6
CONTINUOUS
 10
96.1880221199
 20
183.9712976785
 11
96.2086731471
 21
183.9713165375
  0
LINE
  5
486
100
AcDbEntity
  8
RACCORDO
100
AcDbLine
 62
253
  6
CONTINUOUS
 10
81.874662898
 20
183.9713165278
 11
81.8953139222
 21
183.9712976833
  0
LINE
  5
487
100
AcDbEntity
  8
RACCORDO
100
AcDbLine
 62
253
  6
CONTINUOUS
 10
96.1673757185
 20
183.9713919308
 11
96.1880221199
 21
183.9712976785
  0
LINE
  5
488
100
AcDbEntity
  8
RACCORDO
100
AcDbLine
 62
253
  6
CONTINUOUS
 10
81.8540211161
 20
183.9714484844
 11
81.874662898
 21
183.9713165278
  0
LWPOLYLINE
  5
489
100
AcDbEntity
  8
RACCORDO
100
AcDbPolyline
 62
7
  6
CONTINUOUS
 90
25
 70
0
 10
84.7416666989
 20
184.4492782504
 10
84.7284940728
 20
184.4494152694
 10
84.7154880513
 20
184.4498111144
 10
84.7026486345
 20
184.4504657854
 10
84.6899224218
 20
184.451384288
 10
84.6773628137
 20
184.4525616167
 10
84.6651300125
 20
184.453982754
 10
84.6532282045
 20
184.4556508232
 10
84.6416532034
 20
184.4575627012
 10
84.6305526523
 20
184.4596940012
 10
84.619932629
 20
184.462047534
 10
84.6097870557
 20
184.4646204888
 10
84.6002453427
 20
184.4673800468
 10
84.5913152255
 20
184.4703285983
 10
84.5829889686
 20
184.4734637529
 10
84.5753727765
 20
184.4767455206
 10
84.5684757448
 20
184.4801757795
 10
84.5622887778
 20
184.4837526515
 10
84.5568907924
 20
184.4874305125
 10
84.5522918954
 20
184.4912106559
 10
84.5484819799
 20
184.4950917883
 10
84.5455096429
 20
184.4990244043
 10
84.5433910832
 20
184.5029920023
 10
84.5421101018
 20
184.5070110839
 10
84.5416666989
 20
184.5110816493
  0
LINE
  5
48A
100
AcDbEntity
  8
RACCORDO
100
AcDbLine
 62
253
  6
CONTINUOUS
 10
96.1467477669
 20
183.9715992989
 11
96.1673757185
 21
183.9713919308
  0
LINE
  5
48B
100
AcDbEntity
  8
RACCORDO
100
AcDbLine
 62
253
  6
CONTINUOUS
 10
81.8334023743
 20
183.9716935598
 11
81.8540211161
 21
183.9714484844
  0
LINE
  5
48C
100
AcDbEntity
  8
RACCORDO
100
AcDbLine
 62
253
  6
CONTINUOUS
 10
96.1261520313
 20
183.9719197939
 11
96.1467477669
 21
183.9715992989
  0
LWPOLYLINE
  5
48D
100
AcDbEntity
  8
RACCORDO
100
AcDbPolyline
 62
253
  6
CONTINUOUS
 90
43
 70
0
 10
101.0650793962
 20
183.4212913971
 10
101.0744257711
 20
183.4211165732
 10
101.0837590742
 20
183.4205923463
 10
101.093066252
 20
183.4197194495
 10
101.1023342878
 20
183.4184991036
 10
101.1115502192
 20
183.4169330154
 10
101.1207011569
 20
183.4150233751
 10
101.1297743026
 20
183.4127728536
 10
101.1387569666
 20
183.4101845985
 10
101.1476365859
 20
183.4072622296
 10
101.1564007415
 20
183.4040098342
 10
101.1650371759
 20
183.400431961
 10
101.1735338103
 20
183.396533614
 10
101.1818787615
 20
183.3923202454
 10
101.1900603581
 20
183.387797748
 10
101.1980671576
 20
183.3829724469
 10
101.2058879616
 20
183.3778510906
 10
101.2135118322
 20
183.372440842
 10
101.2209281065
 20
183.3667492677
 10
101.2281264124
 20
183.3607843278
 10
101.2350966822
 20
183.354554365
 10
101.2418291676
 20
183.3480680923
 10
101.2483144523
 20
183.3413345815
 10
101.2545434663
 20
183.3343632499
 10
101.2605074976
 20
183.3271638475
 10
101.2661982051
 20
183.3197464434
 10
101.2716076297
 20
183.3121214116
 10
101.276728206
 20
183.3042994162
 10
101.2815527722
 20
183.2962913971
 10
101.2860745808
 20
183.2881085541
 10
101.2902873077
 20
183.2797623318
 10
101.294185061
 20
183.2712644031
 10
101.2977623892
 20
183.2626266531
 10
101.3010142893
 20
183.2538611625
 10
101.3039362131
 20
183.2449801907
 10
101.306524074
 20
183.2359961583
 10
101.3087742527
 20
183.2269216305
 10
101.3106836021
 20
183.2177692988
 10
101.3122494518
 20
183.2085519636
 10
101.3134696119
 20
183.1992825161
 10
101.3143423758
 20
183.1899739204
 10
101.3148665228
 20
183.1806391956
 10
101.31504132
 20
183.1712913971
  0
LINE
  5
48E
100
AcDbEntity
  8
RACCORDO
100
AcDbLine
 62
253
  6
CONTINUOUS
 10
81.8128204337
 20
183.9720517672
 11
81.8334023743
 21
183.9716935598
  0
LWPOLYLINE
  5
48F
100
AcDbEntity
  8
RACCORDO
100
AcDbPolyline
 62
253
  6
CONTINUOUS
 90
4
 70
0
 10
101.1558780881
 20
184.9212913971
 10
101.16594304
 20
184.9210886466
 10
101.1759916665
 20
184.9204807241
 10
101.1860076686
 20
184.9194686156
  0
LINE
  5
490
100
AcDbEntity
  8
RACCORDO
100
AcDbLine
 62
253
  6
CONTINUOUS
 10
96.1056021793
 20
183.9723534359
 11
96.1261520313
 21
183.9719197939
  0
LINE
  5
491
100
AcDbEntity
  8
RACCORDO
100
AcDbLine
 62
253
  6
CONTINUOUS
 10
81.7922888736
 20
183.9725231313
 11
81.8128204337
 21
183.9720517672
  0
LWPOLYLINE
  5
492
100
AcDbEntity
  8
RACCORDO
100
AcDbPolyline
 62
7
  6
CONTINUOUS
 90
40
 70
0
 10
101.1445722138
 20
183.4212913971
 10
101.1579491542
 20
183.4209468888
 10
101.1710084513
 20
183.4199441297
 10
101.1837197674
 20
183.4183296582
 10
101.1960389235
 20
183.4161540504
 10
101.2079630282
 20
183.4134619078
 10
101.2195282149
 20
183.4102827348
 10
101.2307220356
 20
183.4066532479
 10
101.2415275167
 20
183.4026121594
 10
101.2519745037
 20
183.3981778656
 10
101.2620555267
 20
183.3933801722
 10
101.2717596631
 20
183.388251104
 10
101.2811104898
 20
183.3828021178
 10
101.2901034451
 20
183.3770578547
 10
101.2987316102
 20
183.371045077
 10
101.3070132298
 20
183.3647709909
 10
101.3149455489
 20
183.3582563493
 10
101.3225242367
 20
183.3515238498
 10
101.3297631379
 20
183.3445782442
 10
101.3366606154
 20
183.3374374033
 10
101.3432140859
 20
183.3301208721
 10
101.3494339418
 20
183.3226320374
 10
101.3553192908
 20
183.3149866054
 10
101.3608687278
 20
183.3072017026
 10
101.3660899586
 20
183.2992800582
 10
101.3709826222
 20
183.2912357437
 10
101.3755461327
 20
183.2830840438
 10
101.3797861128
 20
183.2748275192
 10
101.3837026104
 20
183.2664790223
 10
101.3872956539
 20
183.2580524325
 10
101.3905692881
 20
183.2495504592
 10
101.393523936
 20
183.2409849874
 10
101.3961601014
 20
183.2323688917
 10
101.3984806257
 20
183.2237054246
 10
101.4004863067
 20
183.2150057305
 10
101.4021781023
 20
183.206281959
 10
101.4035580352
 20
183.1975382709
 10
101.4046273521
 20
183.1887834094
 10
101.4053873629
 20
183.1800308215
 10
101.4058400119
 20
183.1712913971
  0
LINE
  5
493
100
AcDbEntity
  8
RACCORDO
100
AcDbLine
 62
253
  6
CONTINUOUS
 10
96.0851117297
 20
183.9729002568
 11
96.1056021793
 21
183.9723534359
  0
LINE
  5
494
100
AcDbEntity
  8
RACCORDO
100
AcDbLine
 62
253
  6
CONTINUOUS
 10
81.7718212403
 20
183.973107687
 11
81.7922888736
 21
183.9725231313
  0
LINE
  5
495
100
AcDbEntity
  8
RACCORDO
100
AcDbLine
 62
253
  6
CONTINUOUS
 10
96.0646943193
 20
183.9735602949
 11
96.0851117297
 21
183.9729002568
  0
LINE
  5
496
100
AcDbEntity
  8
RACCORDO
100
AcDbLine
 62
253
  6
CONTINUOUS
 10
81.7514312334
 20
183.9738054728
 11
81.7718212403
 21
183.973107687
  0
LINE
  5
497
100
AcDbEntity
  8
RACCORDO
100
AcDbLine
 62
253
  6
CONTINUOUS
 10
96.0443636901
 20
183.9743335908
 11
96.0646943193
 21
183.9735602949
  0
LINE
  5
498
100
AcDbEntity
  8
RACCORDO
100
AcDbLine
 62
253
  6
CONTINUOUS
 10
81.7311325746
 20
183.974616531
 11
81.7514312334
 21
183.9738054728
  0
LINE
  5
499
100
AcDbEntity
  8
RACCORDO
100
AcDbLine
 62
253
  6
CONTINUOUS
 10
96.0241335194
 20
183.9752201907
 11
96.0443636901
 21
183.9743335908
  0
LINE
  5
49A
100
AcDbEntity
  8
RACCORDO
100
AcDbLine
 62
253
  6
CONTINUOUS
 10
81.7109389171
 20
183.97554091
 11
81.7311325746
 21
183.974616531
  0
LINE
  5
49B
100
AcDbEntity
  8
RACCORDO
100
AcDbLine
 62
253
  6
CONTINUOUS
 10
96.0040174047
 20
183.9762201471
 11
96.0241335194
 21
183.9752201907
  0
LINE
  5
49C
100
AcDbEntity
  8
RACCORDO
100
AcDbLine
 62
253
  6
CONTINUOUS
 10
81.6908638272
 20
183.9765786649
 11
81.7109389171
 21
183.97554091
  0
LINE
  5
49D
100
AcDbEntity
  8
RACCORDO
100
AcDbLine
 62
253
  6
CONTINUOUS
 10
95.9840288625
 20
183.9773335197
 11
96.0040174047
 21
183.9762201471
  0
LINE
  5
49E
100
AcDbEntity
  8
RACCORDO
100
AcDbLine
 62
253
  6
CONTINUOUS
 10
95.9641812356
 20
183.9785603811
 11
95.9840288625
 21
183.9773335197
  0
LINE
  5
49F
100
AcDbEntity
  8
RACCORDO
100
AcDbLine
 62
253
  6
CONTINUOUS
 10
95.9444876424
 20
183.9799008228
 11
95.9641812356
 21
183.9785603811
  0
LINE
  5
4A0
100
AcDbEntity
  8
RACCORDO
100
AcDbLine
 62
253
  6
CONTINUOUS
 10
95.9249613199
 20
183.9813549334
 11
95.9444876424
 21
183.9799008228
  0
LINE
  5
4A1
100
AcDbEntity
  8
RACCORDO
100
AcDbLine
 62
253
  6
CONTINUOUS
 10
95.91204325
 20
183.9823875318
 11
95.9249613199
 21
183.9813549334
  0
LINE
  5
4A2
100
AcDbEntity
  8
RACCORDO
100
AcDbLine
 62
253
  6
CONTINUOUS
 10
95.8992093115
 20
183.9834707157
 11
95.91204325
 21
183.9823875318
  0
LINE
  5
4A3
100
AcDbEntity
  8
RACCORDO
100
AcDbLine
 62
253
  6
CONTINUOUS
 10
95.8864633701
 20
183.9846045181
 11
95.8992093115
 21
183.9834707157
  0
LINE
  5
4A4
100
AcDbEntity
  8
RACCORDO
100
AcDbLine
 62
253
  6
CONTINUOUS
 10
95.8738092954
 20
183.9857889613
 11
95.8864633701
 21
183.9846045181
  0
LINE
  5
4A5
100
AcDbEntity
  8
RACCORDO
100
AcDbLine
 62
253
  6
CONTINUOUS
 10
95.8612509085
 20
183.9870240798
 11
95.8738092954
 21
183.9857889613
  0
LWPOLYLINE
  5
4A6
100
AcDbEntity
  8
RACCORDO
100
AcDbPolyline
 62
253
  6
CONTINUOUS
 90
4
 70
0
 10
78.3860076657
 20
184.9194686159
 10
78.3759916645
 20
184.9204807242
 10
78.365943039
 20
184.9210886466
 10
78.3558780881
 20
184.9212913971
  0
LINE
  5
4A7
100
AcDbEntity
  8
RACCORDO
100
AcDbLine
 62
253
  6
CONTINUOUS
 10
95.8487920054
 20
183.9883099102
 11
95.8612509085
 21
183.9870240798
  0
LINE
  5
4A8
100
AcDbEntity
  8
RACCORDO
100
AcDbLine
 62
253
  6
CONTINUOUS
 10
95.8364363444
 20
183.9896464822
 11
95.8487920054
 21
183.9883099102
  0
LINE
  5
4A9
100
AcDbEntity
  8
RACCORDO
100
AcDbLine
 62
253
  6
CONTINUOUS
 10
95.8241875374
 20
183.9910338496
 11
95.8364363444
 21
183.9896464822
  0
LINE
  5
4AA
100
AcDbEntity
  8
RACCORDO
100
AcDbLine
 62
253
  6
CONTINUOUS
 10
95.8120492926
 20
183.9924720579
 11
95.8241875374
 21
183.9910338496
  0
LINE
  5
4AB
100
AcDbEntity
  8
RACCORDO
100
AcDbLine
 62
253
  6
CONTINUOUS
 10
95.8000253235
 20
183.9939611371
 11
95.8120492926
 21
183.9924720579
  0
LINE
  5
4AC
100
AcDbEntity
  8
RACCORDO
100
AcDbLine
 62
253
  6
CONTINUOUS
 10
95.7881193059
 20
183.9955011313
 11
95.8000253235
 21
183.9939611371
  0
LINE
  5
4AD
100
AcDbEntity
  8
RACCORDO
100
AcDbLine
 62
253
  6
CONTINUOUS
 10
95.7763348828
 20
183.9970920871
 11
95.7881193059
 21
183.9955011313
  0
LINE
  5
4AE
100
AcDbEntity
  8
RACCORDO
100
AcDbLine
 62
253
  6
CONTINUOUS
 10
95.7646756897
 20
183.998734036
 11
95.7763348828
 21
183.9970920871
  0
LINE
  5
4AF
100
AcDbEntity
  8
RACCORDO
100
AcDbLine
 62
253
  6
CONTINUOUS
 10
95.7531453072
 20
184.000427026
 11
95.7646756897
 21
183.998734036
  0
LINE
  5
4B0
100
AcDbEntity
  8
RACCORDO
100
AcDbLine
 62
253
  6
CONTINUOUS
 10
95.7417472855
 20
184.002171107
 11
95.7531453072
 21
184.000427026
  0
LINE
  5
4B1
100
AcDbEntity
  8
RACCORDO
100
AcDbLine
 62
253
  6
CONTINUOUS
 10
95.7304851566
 20
184.0039663139
 11
95.7417472855
 21
184.002171107
  0
LINE
  5
4B2
100
AcDbEntity
  8
RACCORDO
100
AcDbLine
 62
253
  6
CONTINUOUS
 10
95.7193624022
 20
184.005812698
 11
95.7304851566
 21
184.0039663139
  0
LINE
  5
4B3
100
AcDbEntity
  8
RACCORDO
100
AcDbLine
 62
253
  6
CONTINUOUS
 10
95.7083823405
 20
184.0077103363
 11
95.7193624022
 21
184.005812698
  0
LINE
  5
4B4
100
AcDbEntity
  8
RACCORDO
100
AcDbLine
 62
253
  6
CONTINUOUS
 10
95.6975483689
 20
184.0096592733
 11
95.7083823405
 21
184.0077103363
  0
LINE
  5
4B5
100
AcDbEntity
  8
RACCORDO
100
AcDbLine
 62
253
  6
CONTINUOUS
 10
95.6868638536
 20
184.0116595695
 11
95.6975483689
 21
184.0096592733
  0
LINE
  5
4B6
100
AcDbEntity
  8
RACCORDO
100
AcDbLine
 62
253
  6
CONTINUOUS
 10
95.6763321395
 20
184.0137112845
 11
95.6868638536
 21
184.0116595695
  0
LINE
  5
4B7
100
AcDbEntity
  8
RACCORDO
100
AcDbLine
 62
253
  6
CONTINUOUS
 10
95.6659565499
 20
184.0158144592
 11
95.6763321395
 21
184.0137112845
  0
LINE
  5
4B8
100
AcDbEntity
  8
RACCORDO
100
AcDbLine
 62
253
  6
CONTINUOUS
 10
95.6557403472
 20
184.0179691555
 11
95.6659565499
 21
184.0158144592
  0
LINE
  5
4B9
100
AcDbEntity
  8
RACCORDO
100
AcDbLine
 62
253
  6
CONTINUOUS
 10
95.6456867541
 20
184.0201754372
 11
95.6557403472
 21
184.0179691555
  0
LINE
  5
4BA
100
AcDbEntity
  8
RACCORDO
100
AcDbLine
 62
253
  6
CONTINUOUS
 10
76.8873585974
 20
184.9180539627
 11
76.8973257293
 21
184.9194686156
  0
LWPOLYLINE
  5
4BB
100
AcDbEntity
  8
RACCORDO
100
AcDbPolyline
 62
253
  6
CONTINUOUS
 90
4
 70
0
 10
76.8973257293
 20
184.9194686156
 10
76.9073417314
 20
184.9204807241
 10
76.9173903579
 20
184.9210886466
 10
76.9274553097
 20
184.9212913971
  0
LINE
  5
4BC
100
AcDbEntity
  8
0
100
AcDbLine
 62
7
  6
CONTINUOUS
 10
95.0416666989
 20
185.9712913971
 11
83.0416666989
 21
185.9712913971
  0
LWPOLYLINE
  5
4BD
100
AcDbEntity
  8
0
100
AcDbPolyline
 62
7
  6
CONTINUOUS
 90
7
 70
0
 43
0.3500000006
 10
86.1488072205
 20
194.7212999268
 10
84.6488067627
 20
194.7212999268
 10
86.1488072205
 20
196.8641447754
 10
86.1488072205
 20
197.2927137451
 10
85.7202382507
 20
197.7212827148
 10
85.0773847961
 20
197.7212827148
 10
84.6488067627
 20
197.0784292603
  0
LWPOLYLINE
  5
4BE
100
AcDbEntity
  8
0
100
AcDbPolyline
 62
7
  6
CONTINUOUS
 90
3
 70
0
 43
0.3500000006
 10
88.5059546814
 20
195.3641533813
 10
87.0059542236
 20
195.3641533813
 10
87.6488076782
 20
197.7212827148
  0
LINE
  5
4BF
100
AcDbEntity
  8
RACCORDO
100
AcDbLine
 62
253
  6
CONTINUOUS
 10
101.1860076686
 20
184.9194686156
 11
101.1959748005
 21
184.9180539627
  0
LWPOLYLINE
  5
4C0
100
AcDbEntity
  8
RACCORDO
100
AcDbPolyline
 62
253
  6
CONTINUOUS
 90
36
 70
0
 10
101.1959748005
 20
184.9180539627
 10
101.2058768954
 20
184.9162390601
 10
101.215697892
 20
184.9140268514
 10
101.2254218607
 20
184.911420925
 10
101.2350330291
 20
184.9084255075
 10
101.2445158079
 20
184.9050454577
 10
101.253854816
 20
184.901286258
 10
101.2630349055
 20
184.8971540057
 10
101.2720411863
 20
184.8926554035
 10
101.28085905
 20
184.887797748
 10
101.2894741942
 20
184.8825889184
 10
101.2978726451
 20
184.8770373635
 10
101.3060407802
 20
184.8711520879
 10
101.3139653509
 20
184.8649426375
 10
101.3216335035
 20
184.8584190841
 10
101.3290328002
 20
184.8515920089
 10
101.3361512393
 20
184.8444724854
 10
101.3429772747
 20
184.8370720616
 10
101.3494998346
 20
184.829402741
 10
101.3557083392
 20
184.8214769631
 10
101.3615927185
 20
184.8133075837
 10
101.3671434279
 20
184.8049078536
 10
101.3723514641
 20
184.7962913971
 10
101.3772083798
 20
184.7874721901
 10
101.3817062968
 20
184.7784645374
 10
101.3858379197
 20
184.7692830495
 10
101.3895965469
 20
184.7599426188
 10
101.392976082
 20
184.7504583955
 10
101.3959710432
 20
184.740845763
 10
101.3985765727
 20
184.7311203131
 10
101.4007884444
 20
184.7212978205
 10
101.4026030707
 20
184.7113942173
 10
101.4040175081
 20
184.7014255671
 10
101.4050294624
 20
184.6914080392
 10
101.4056372924
 20
184.6813578821
 10
101.4058400119
 20
184.6712913971
  0
LWPOLYLINE
  5
4C1
100
AcDbEntity
  8
0
100
AcDbPolyline
 62
7
  6
CONTINUOUS
 90
13
 70
0
 43
0.3500000006
 10
91.5059555969
 20
196.4355758057
 10
91.2202399292
 20
196.6498602905
 10
91.2202399292
 20
197.2927137451
 10
91.5059555969
 20
197.7212827148
 10
92.1488090515
 20
197.7212827148
 10
92.4345247192
 20
197.2927137451
 10
92.4345247192
 20
196.6498602905
 10
92.1488090515
 20
196.4355758057
 10
92.5773780212
 20
196.0070068359
 10
92.5773780212
 20
195.1498688965
 10
92.1488090515
 20
194.7212999268
 10
91.5059555969
 20
194.7212999268
 10
91.0773775635
 20
195.1498688965
  0
LWPOLYLINE
  5
4C2
100
AcDbEntity
  8
0
100
AcDbPolyline
 62
7
  6
CONTINUOUS
 90
3
 70
0
 43
0.3500000006
 10
46.6611671448
 20
206.8641478271
 10
47.5183096161
 20
207.7212857666
 10
47.5183096161
 20
204.7212848511
  0
LWPOLYLINE
  5
4C3
100
AcDbEntity
  8
0
100
AcDbPolyline
 62
7
  6
CONTINUOUS
 90
5
 70
0
 43
0.3500000006
 10
45.3754557037
 20
206.4355788574
 10
45.7325980225
 20
206.6498633423
 10
45.7325980225
 20
207.2927167969
 10
45.3754557037
 20
207.7212857666
 10
44.5183087006
 20
207.7212857666
  0
LINE
  5
4C4
100
AcDbEntity
  8
0
100
AcDbLine
 62
7
  6
CONTINUOUS
 10
54.1575963832
 20
135.8712913971
 11
54.6717593671
 21
135.8712913971
  0
LINE
  5
4C5
100
AcDbEntity
  8
0
100
AcDbLine
 62
7
  6
CONTINUOUS
 10
54.1575963832
 20
136.2712913971
 11
54.6717593671
 21
136.2712913971
  0
LINE
  5
4C6
100
AcDbEntity
  8
0
100
AcDbLine
 62
253
  6
CONTINUOUS
 10
53.8575963832
 20
136.5712913971
 11
53.4575963832
 21
136.5712913971
  0
LINE
  5
4C7
100
AcDbEntity
  8
0
100
AcDbLine
 62
7
  6
CONTINUOUS
 10
53.8575963832
 20
136.8712913971
 11
53.4575963832
 21
136.8712913971
  0
LINE
  5
4C8
100
AcDbEntity
  8
RACCORDO
100
AcDbLine
 62
7
  6
CONTINUOUS
 10
55.3575963832
 20
136.9212913971
 11
52.6075972114
 21
136.9212913971
  0
LINE
  5
4C9
100
AcDbEntity
  8
RACCORDO
100
AcDbLine
 62
253
  6
CONTINUOUS
 10
55.3575963832
 20
137.1712913971
 11
52.3575963832
 21
137.1712913971
  0
LINE
  5
4CA
100
AcDbEntity
  8
RACCORDO
100
AcDbLine
 62
7
  6
CONTINUOUS
 10
51.5575963832
 20
137.6712913971
 11
52.3575963832
 21
137.6712913971
  0
LINE
  5
4CB
100
AcDbEntity
  8
RACCORDO
100
AcDbLine
 62
7
  6
CONTINUOUS
 10
55.3575963832
 20
137.6712913971
 11
64.3575963832
 21
137.6712913971
  0
LINE
  5
4CC
100
AcDbEntity
  8
RACCORDO
100
AcDbLine
 62
7
  6
CONTINUOUS
 10
52.6617368536
 20
138.4212913971
 11
48.1075963832
 21
138.4212913971
  0
LINE
  5
4CD
100
AcDbEntity
  8
ASSI
100
AcDbLine
 62
7
  6
CONTINUOUS
 10
55.3575963832
 20
138.4212913971
 11
64.3575963832
 21
138.4212913971
  0
LINE
  5
4CE
100
AcDbEntity
  8
RACCORDO
100
AcDbLine
 62
253
  6
CONTINUOUS
 10
53.305086859
 20
138.6712913971
 11
47.8575963832
 21
138.6712913971
  0
LINE
  5
4CF
100
AcDbEntity
  8
RACCORDO
100
AcDbLine
 62
253
  6
CONTINUOUS
 10
51.362656076
 20
137.8702293482
 11
51.3578660675
 21
137.8712348465
  0
LWPOLYLINE
  5
4D0
100
AcDbEntity
  8
RACCORDO
100
AcDbPolyline
 62
253
  6
CONTINUOUS
 90
3
 70
0
 10
51.3652569745
 20
137.8696825252
 10
51.3643305109
 20
137.8698773777
 10
51.362656076
 20
137.8702293482
  0
LINE
  5
4D1
100
AcDbEntity
  8
RACCORDO
100
AcDbLine
 62
253
  6
CONTINUOUS
 10
51.3672880712
 20
137.8692550808
 11
51.3652569745
 21
137.8696825252
  0
LINE
  5
4D2
100
AcDbEntity
  8
RACCORDO
100
AcDbLine
 62
253
  6
CONTINUOUS
 10
51.3707790623
 20
137.8685195403
 11
51.3672880712
 21
137.8692550808
  0
LINE
  5
4D3
100
AcDbEntity
  8
RACCORDO
100
AcDbLine
 62
253
  6
CONTINUOUS
 10
51.3748013098
 20
137.8676707117
 11
51.3707790623
 21
137.8685195403
  0
LINE
  5
4D4
100
AcDbEntity
  8
RACCORDO
100
AcDbLine
 62
253
  6
CONTINUOUS
 10
51.3809863194
 20
137.8663626256
 11
51.3748013098
 21
137.8676707117
  0
LINE
  5
4D5
100
AcDbEntity
  8
RACCORDO
100
AcDbLine
 62
253
  6
CONTINUOUS
 10
51.4314492201
 20
137.855558676
 11
51.3809863194
 21
137.8663626256
  0
LINE
  5
4D6
100
AcDbEntity
  8
RACCORDO
100
AcDbLine
 62
253
  6
CONTINUOUS
 10
51.4811692919
 20
137.8446760639
 11
51.4314492201
 21
137.855558676
  0
LINE
  5
4D7
100
AcDbEntity
  8
RACCORDO
100
AcDbLine
 62
253
  6
CONTINUOUS
 10
51.5292997217
 20
137.8339043542
 11
51.4811692919
 21
137.8446760639
  0
LINE
  5
4D8
100
AcDbEntity
  8
RACCORDO
100
AcDbLine
 62
253
  6
CONTINUOUS
 10
51.5747060065
 20
137.8235168912
 11
51.5292997217
 21
137.8339043542
  0
LINE
  5
4D9
100
AcDbEntity
  8
RACCORDO
100
AcDbLine
 62
253
  6
CONTINUOUS
 10
51.6194076153
 20
137.8130652247
 11
51.5747060065
 21
137.8235168912
  0
LINE
  5
4DA
100
AcDbEntity
  8
RACCORDO
100
AcDbLine
 62
253
  6
CONTINUOUS
 10
51.6619783934
 20
137.8028926544
 11
51.6194076153
 21
137.8130652247
  0
LINE
  5
4DB
100
AcDbEntity
  8
RACCORDO
100
AcDbLine
 62
253
  6
CONTINUOUS
 10
51.7012580242
 20
137.7933068551
 11
51.6619783934
 21
137.8028926544
  0
LINE
  5
4DC
100
AcDbEntity
  8
RACCORDO
100
AcDbLine
 62
253
  6
CONTINUOUS
 10
51.7363238923
 20
137.7845793178
 11
51.7012580242
 21
137.7933068551
  0
LINE
  5
4DD
100
AcDbEntity
  8
RACCORDO
100
AcDbLine
 62
253
  6
CONTINUOUS
 10
51.7725838903
 20
137.7753775661
 11
51.7363238923
 21
137.7845793178
  0
LINE
  5
4DE
100
AcDbEntity
  8
RACCORDO
100
AcDbLine
 62
253
  6
CONTINUOUS
 10
51.809942331
 20
137.7656994539
 11
51.7725838903
 21
137.7753775661
  0
LINE
  5
4DF
100
AcDbEntity
  8
RACCORDO
100
AcDbLine
 62
253
  6
CONTINUOUS
 10
51.8418438358
 20
137.7572683694
 11
51.809942331
 21
137.7656994539
  0
LINE
  5
4E0
100
AcDbEntity
  8
RACCORDO
100
AcDbLine
 62
253
  6
CONTINUOUS
 10
51.867820866
 20
137.7502844058
 11
51.8418438358
 21
137.7572683694
  0
LWPOLYLINE
  5
4E1
100
AcDbEntity
  8
0
100
AcDbPolyline
 62
7
  6
CONTINUOUS
 90
3
 70
0
 43
0.3500000006
 10
55.1433096771
 20
196.8641447754
 10
56.0004521484
 20
197.7212827148
 10
56.0004521484
 20
194.7212999268
  0
LINE
  5
4E2
100
AcDbEntity
  8
RACCORDO
100
AcDbLine
 62
253
  6
CONTINUOUS
 10
52.1134430229
 20
184.1645141314
 11
52.1344198434
 21
184.171291397
  0
LINE
  5
4E3
100
AcDbEntity
  8
RACCORDO
100
AcDbLine
 62
253
  6
CONTINUOUS
 10
52.0924907146
 20
184.1578536843
 11
52.1134430229
 21
184.1645141314
  0
LINE
  5
4E4
100
AcDbEntity
  8
RACCORDO
100
AcDbLine
 62
253
  6
CONTINUOUS
 10
52.0715776722
 20
184.1513100536
 11
52.0924907146
 21
184.1578536843
  0
LINE
  5
4E5
100
AcDbEntity
  8
RACCORDO
100
AcDbLine
 62
253
  6
CONTINUOUS
 10
52.0437801604
 20
184.142766926
 11
52.0715776722
 21
184.1513100536
  0
LINE
  5
4E6
100
AcDbEntity
  8
RACCORDO
100
AcDbLine
 62
253
  6
CONTINUOUS
 10
52.0161134673
 20
184.1344314717
 11
52.0437801604
 21
184.142766926
  0
LINE
  5
4E7
100
AcDbEntity
  8
RACCORDO
100
AcDbLine
 62
253
  6
CONTINUOUS
 10
51.9886122412
 20
184.1263036884
 11
52.0161134673
 21
184.1344314717
  0
LINE
  5
4E8
100
AcDbEntity
  8
RACCORDO
100
AcDbLine
 62
253
  6
CONTINUOUS
 10
51.9613108933
 20
184.1183835659
 11
51.9886122412
 21
184.1263036884
  0
LINE
  5
4E9
100
AcDbEntity
  8
RACCORDO
100
AcDbLine
 62
253
  6
CONTINUOUS
 10
51.947745905
 20
184.1145013871
 11
51.9613108933
 21
184.1183835659
  0
LINE
  5
4EA
100
AcDbEntity
  8
ASSI
100
AcDbLine
 62
7
  6
CONTINUOUS
 10
55.3575963832
 20
139.9898751834
 11
64.3575963832
 21
139.942750863
  0
LINE
  5
4EB
100
AcDbEntity
  8
RACCORDO
100
AcDbLine
 62
253
  6
CONTINUOUS
 10
51.9007906042
 20
137.7412601618
 11
51.867820866
 21
137.7502844058
  0
LINE
  5
4EC
100
AcDbEntity
  8
RACCORDO
100
AcDbLine
 62
253
  6
CONTINUOUS
 10
51.9275180629
 20
137.7338071592
 11
51.9007906042
 21
137.7412601618
  0
LINE
  5
4ED
100
AcDbEntity
  8
RACCORDO
100
AcDbLine
 62
253
  6
CONTINUOUS
 10
51.9545210918
 20
137.7261467287
 11
51.9275180629
 21
137.7338071592
  0
LINE
  5
4EE
100
AcDbEntity
  8
RACCORDO
100
AcDbLine
 62
253
  6
CONTINUOUS
 10
51.9817668417
 20
137.7182785997
 11
51.9545210918
 21
137.7261467287
  0
LINE
  5
4EF
100
AcDbEntity
  8
RACCORDO
100
AcDbLine
 62
253
  6
CONTINUOUS
 10
52.0092213438
 20
137.710202724
 11
51.9817668417
 21
137.7182785997
  0
LINE
  5
4F0
100
AcDbEntity
  8
RACCORDO
100
AcDbLine
 62
253
  6
CONTINUOUS
 10
52.0368498923
 20
137.701919193
 11
52.0092213438
 21
137.710202724
  0
LINE
  5
4F1
100
AcDbEntity
  8
RACCORDO
100
AcDbLine
 62
253
  6
CONTINUOUS
 10
52.0646179448
 20
137.6934279877
 11
52.0368498923
 21
137.701919193
  0
LINE
  5
4F2
100
AcDbEntity
  8
RACCORDO
100
AcDbLine
 62
253
  6
CONTINUOUS
 10
52.0855146238
 20
137.686923295
 11
52.0646179448
 21
137.6934279877
  0
LINE
  5
4F3
100
AcDbEntity
  8
RACCORDO
100
AcDbLine
 62
253
  6
CONTINUOUS
 10
52.1064554854
 20
137.6803017857
 11
52.0855146238
 21
137.686923295
  0
LWPOLYLINE
  5
4F4
100
AcDbEntity
  8
RACCORDO
100
AcDbPolyline
 62
253
  6
CONTINUOUS
 90
3
 70
0
 10
52.1344198434
 20
137.6712913971
 10
52.1274257662
 20
137.673563463
 10
52.1064554854
 20
137.6803017857
  0
LINE
  5
4F5
100
AcDbEntity
  8
RACCORDO
100
AcDbLine
 62
7
  6
CONTINUOUS
 10
47.8575963832
 20
142.1212913971
 11
48.3575963832
 21
142.1212913971
  0
LINE
  5
4F6
100
AcDbEntity
  8
RACCORDO
100
AcDbLine
 62
253
  6
CONTINUOUS
 10
64.3575963832
 20
142.1910933007
 11
64.0591671723
 21
142.1910933007
  0
LINE
  5
4F7
100
AcDbEntity
  8
RACCORDO
100
AcDbLine
 62
7
  6
CONTINUOUS
 10
45.0139662214
 20
143.2108636081
 11
48.3575963832
 21
142.6212913971
  0
LINE
  5
4F8
100
AcDbEntity
  8
RACCORDO
100
AcDbLine
 62
253
  6
CONTINUOUS
 10
45.0530151642
 20
143.4570655463
 11
48.3575963832
 21
142.8743787175
  0
LINE
  5
4F9
100
AcDbEntity
  8
0
100
AcDbLine
 62
7
  6
CONTINUOUS
 10
32.6075963832
 20
157.5358158012
 11
32.6075963832
 21
164.306766993
  0
LWPOLYLINE
  5
4FA
100
AcDbEntity
  8
RACCORDO
100
AcDbPolyline
 62
253
  6
CONTINUOUS
 90
13
 70
0
 10
48.1075963832
 20
183.4212913971
 10
48.1074332416
 20
183.4211165732
 10
48.1072703282
 20
183.4205923463
 10
48.1071078708
 20
183.4197194495
 10
48.1069460966
 20
183.4184991036
 10
48.1067852319
 20
183.4169330154
 10
48.1066255017
 20
183.4150233751
 10
48.1064671294
 20
183.4127728536
 10
48.1063103364
 20
183.4101845985
 10
48.1061553421
 20
183.4072622296
 10
48.1060023631
 20
183.4040098342
 10
48.1058516136
 20
183.400431961
 10
48.1055576427
 20
183.3923202454
  0
LWPOLYLINE
  5
4FB
100
AcDbEntity
  8
RACCORDO
100
AcDbPolyline
 62
253
  6
CONTINUOUS
 90
3
 70
0
 10
44.1891844259
 20
144.1562691066
 10
44.1885906514
 20
144.1562388168
 10
44.1883928022
 20
144.1562241464
  0
LINE
  5
4FC
100
AcDbEntity
  8
RACCORDO
100
AcDbLine
 62
253
  6
CONTINUOUS
 10
44.1980373458
 20
144.1566523041
 11
44.1891844259
 21
144.1562691066
  0
LINE
  5
4FD
100
AcDbEntity
  8
RACCORDO
100
AcDbLine
 62
253
  6
CONTINUOUS
 10
44.4338350557
 20
144.1660859483
 11
44.1980373458
 21
144.1566523041
  0
LWPOLYLINE
  5
4FE
100
AcDbEntity
  8
RACCORDO
100
AcDbPolyline
 62
253
  6
CONTINUOUS
 90
11
 70
0
 10
48.1075963832
 20
138.4212913971
 10
48.1074332416
 20
138.4214662209
 10
48.1072703282
 20
138.4219904478
 10
48.1071078708
 20
138.4228633446
 10
48.1069460966
 20
138.4240836905
 10
48.1067852319
 20
138.4256497787
 10
48.1066255017
 20
138.427559419
 10
48.1064671294
 20
138.4298099405
 10
48.1063103364
 20
138.4323981956
 10
48.1061553421
 20
138.4353205645
 10
48.1060023631
 20
138.4385729599
  0
LWPOLYLINE
  5
4FF
100
AcDbEntity
  8
0
100
AcDbPolyline
 62
7
  6
CONTINUOUS
 90
14
 70
0
 10
34.1196833504
 20
165.1212450589
 10
34.1236822163
 20
165.0776880133
 10
34.1276960865
 20
165.0208834592
 10
34.1317059431
 20
164.951210582
 10
34.1357106396
 20
164.8689377103
 10
34.1397113225
 20
164.7743281553
 10
34.1436924141
 20
164.6681395057
 10
34.1476424374
 20
164.5512182551
 10
34.1515728695
 20
164.4237877009
 10
34.155502563
 20
164.2856953037
 10
34.1594385545
 20
164.1370770133
 10
34.1633738075
 20
163.9786145078
 10
34.1673060658
 20
163.8108803053
 10
34.171234293
 20
163.6344389698
  0
LWPOLYLINE
  5
500
100
AcDbEntity
  8
0
100
AcDbPolyline
 62
7
  6
CONTINUOUS
 90
23
 70
0
 10
34.3746022311
 20
162.3584049004
 10
34.3665610602
 20
162.5880563242
 10
34.3585177526
 20
162.8120328737
 10
34.350472333
 20
163.029634838
 10
34.3424247792
 20
163.2401844874
 10
34.3343750897
 20
163.4430263087
 10
34.326323266
 20
163.6375296101
 10
34.3182692892
 20
163.8230910293
 10
34.3102131516
 20
163.9991356659
 10
34.302154861
 20
164.1651188563
 10
34.2940944223
 20
164.3205283402
 10
34.2860318835
 20
164.4648850705
 10
34.2779671966
 20
164.597747227
 10
34.2699002227
 20
164.7187108455
 10
34.2618308864
 20
164.8274084075
 10
34.253759263
 20
164.9235094866
 10
34.2456854394
 20
165.0067243014
 10
34.2376094043
 20
165.0768056117
 10
34.2295311689
 20
165.1335479531
 10
34.2214508544
 20
165.1767880789
 10
34.2133685011
 20
165.2064069351
 10
34.2052840687
 20
165.2223293528
 10
34.1971975572
 20
165.2245236587
  0
LINE
  5
501
100
AcDbEntity
  8
0
100
AcDbLine
 62
7
  6
CONTINUOUS
 10
34.4789492198
 20
159.1978251429
 11
34.4629192665
 21
159.6713038795
  0
LINE
  5
502
100
AcDbEntity
  8
0
100
AcDbLine
 62
7
  6
CONTINUOUS
 10
34.3906783339
 20
161.8849586033
 11
34.3746022311
 21
162.3584049004
  0
LINE
  5
503
100
AcDbEntity
  8
0
100
AcDbLine
 62
7
  6
CONTINUOUS
 10
34.4629192665
 20
159.6713038795
 11
34.4468805917
 21
160.1587044896
  0
LWPOLYLINE
  5
504
100
AcDbEntity
  8
0
100
AcDbPolyline
 62
7
  6
CONTINUOUS
 90
3
 70
0
 10
34.4468805917
 20
160.1587044896
 10
34.4147774715
 20
161.1506120699
 10
34.3906783339
 20
161.8849586033
  0
LWPOLYLINE
  5
505
100
AcDbEntity
  8
0
100
AcDbPolyline
 62
7
  6
CONTINUOUS
 90
19
 70
0
 10
34.2362755986
 20
163.0713973289
 10
34.2309614142
 20
163.2687456708
 10
34.2256472297
 20
163.4588260023
 10
34.2203330452
 20
163.6410498108
 10
34.2150188607
 20
163.814852909
 10
34.2097046763
 20
163.9796971807
 10
34.2043904918
 20
164.1350722475
 10
34.1990763073
 20
164.280497049
 10
34.1937621228
 20
164.4155213319
 10
34.1884479383
 20
164.5397270441
 10
34.1831337539
 20
164.6527296293
 10
34.1778195694
 20
164.7541792175
 10
34.1725053849
 20
164.8437617082
 10
34.1671912004
 20
164.9211997427
 10
34.161877016
 20
164.9862535633
 10
34.1565628315
 20
165.0387217553
 10
34.151248647
 20
165.0784418706
 10
34.1459344625
 20
165.1052909309
 10
34.1413550128
 20
165.118038431
  0
LWPOLYLINE
  5
506
100
AcDbEntity
  8
0
100
AcDbPolyline
 62
7
  6
CONTINUOUS
 90
19
 70
0
 10
34.8367784446
 20
163.0523690865
 10
34.8314642601
 20
163.2503738449
 10
34.8261500757
 20
163.4411674742
 10
34.8208358912
 20
163.6241592537
 10
34.8155217067
 20
163.798782618
 10
34.8102075222
 20
163.9644969115
 10
34.8048933377
 20
164.120789062
 10
34.7995791533
 20
164.2671751697
 10
34.7942649688
 20
164.403202005
 10
34.7889507843
 20
164.5284484118
 10
34.7836365998
 20
164.6425266117
 10
34.7783224154
 20
164.7450834044
 10
34.7730082309
 20
164.8358012612
 10
34.7676940464
 20
164.9143993085
 10
34.7623798619
 20
164.9806341969
 10
34.7570656774
 20
165.0343008549
 10
34.751751493
 20
165.0752331239
 10
34.7464373085
 20
165.1033042724
 10
34.7413550128
 20
165.118038431
  0
LINE
  5
507
100
AcDbEntity
  8
0
100
AcDbLine
 62
7
  6
CONTINUOUS
 10
34.2469039676
 20
162.6573612845
 11
34.2362755986
 21
163.0713973289
  0
LINE
  5
508
100
AcDbEntity
  8
0
100
AcDbLine
 62
7
  6
CONTINUOUS
 10
34.3372451037
 20
158.8346857346
 11
34.3266167348
 21
159.2524488028
  0
LINE
  5
509
100
AcDbEntity
  8
0
100
AcDbLine
 62
7
  6
CONTINUOUS
 10
34.9377479497
 20
158.8155209081
 11
34.9271195807
 21
159.2321765506
  0
LINE
  5
50A
100
AcDbEntity
  8
0
100
AcDbLine
 62
7
  6
CONTINUOUS
 10
34.8474068136
 20
162.6371988006
 11
34.8367784446
 21
163.0523690865
  0
LINE
  5
50B
100
AcDbEntity
  8
0
100
AcDbLine
 62
7
  6
CONTINUOUS
 10
34.2575323366
 20
162.2218415285
 11
34.2469039676
 21
162.6573612845
  0
LINE
  5
50C
100
AcDbEntity
  8
0
100
AcDbLine
 62
7
  6
CONTINUOUS
 10
34.8580351825
 20
162.2007943121
 11
34.8474068136
 21
162.6371988006
  0
LINE
  5
50D
100
AcDbEntity
  8
0
100
AcDbLine
 62
7
  6
CONTINUOUS
 10
34.3266167348
 20
159.2524488028
 11
34.3159883658
 21
159.6908636507
  0
LINE
  5
50E
100
AcDbEntity
  8
0
100
AcDbLine
 62
7
  6
CONTINUOUS
 10
34.9271195807
 20
159.2321765506
 11
34.9164912118
 21
159.6697348401
  0
LINE
  5
50F
100
AcDbEntity
  8
0
100
AcDbLine
 62
7
  6
CONTINUOUS
 10
34.3159883658
 20
159.6908636507
 11
34.3053599968
 21
160.1445049334
  0
LINE
  5
510
100
AcDbEntity
  8
0
100
AcDbLine
 62
7
  6
CONTINUOUS
 10
34.9164912118
 20
159.6697348401
 11
34.9058628428
 21
160.1227810314
  0
LINE
  5
511
100
AcDbEntity
  8
0
100
AcDbLine
 62
7
  6
CONTINUOUS
 10
34.27347489
 20
161.5401258441
 11
34.2575323366
 21
162.2218415285
  0
LINE
  5
512
100
AcDbEntity
  8
0
100
AcDbLine
 62
7
  6
CONTINUOUS
 10
34.8739777359
 20
161.5182424295
 11
34.8580351825
 21
162.2007943121
  0
LINE
  5
513
100
AcDbEntity
  8
0
100
AcDbLine
 62
7
  6
CONTINUOUS
 10
34.3053599968
 20
160.1445049334
 11
34.27347489
 21
161.5401258441
  0
LINE
  5
514
100
AcDbEntity
  8
0
100
AcDbLine
 62
7
  6
CONTINUOUS
 10
34.9058628428
 20
160.1227810314
 11
34.8739777359
 21
161.5182424295
  0
LWPOLYLINE
  5
515
100
AcDbEntity
  8
0
100
AcDbPolyline
 62
7
  6
CONTINUOUS
 90
16
 70
0
 10
34.2697407942
 20
158.1541827426
 10
34.2736448877
 20
157.9742369338
 10
34.2775513089
 20
157.8027660343
 10
34.2814585136
 20
157.640367526
 10
34.2853693928
 20
157.4874307382
 10
34.2892799458
 20
157.3445905485
 10
34.2931941733
 20
157.212151117
 10
34.2971269685
 20
157.0901086258
 10
34.3010887232
 20
156.9787252882
 10
34.3050690456
 20
156.8788571027
 10
34.3090516534
 20
156.791328439
 10
34.3130373018
 20
156.7164317963
 10
34.3170252357
 20
156.6544524946
 10
34.3209969068
 20
156.6058151601
 10
34.3249461326
 20
156.5705666436
 10
34.3288790957
 20
156.5485796949
  0
LWPOLYLINE
  5
516
100
AcDbEntity
  8
0
100
AcDbPolyline
 62
7
  6
CONTINUOUS
 90
17
 70
0
 10
34.721823133
 20
157.8859627955
 10
34.7256274867
 20
157.7047642942
 10
34.7294313879
 20
157.5324923548
 10
34.733234834
 20
157.3696385451
 10
34.7370378277
 20
157.2166678143
 10
34.7408403865
 20
157.0740168737
 10
34.7446425145
 20
156.9420941365
 10
34.7484442077
 20
156.8212782168
 10
34.7522454714
 20
156.7119162547
 10
34.7560463141
 20
156.6143232285
 10
34.7598467273
 20
156.528781539
 10
34.7636466908
 20
156.4555398423
 10
34.7674462552
 20
156.3948109637
 10
34.7712453698
 20
156.3467743569
 10
34.7750438627
 20
156.3115740499
 10
34.7788418442
 20
156.2893144741
 10
34.7827967389
 20
156.2799632906
  0
LINE
  5
517
100
AcDbEntity
  8
0
100
AcDbLine
 62
7
  6
CONTINUOUS
 10
34.171234293
 20
163.6344389698
 11
34.179082616
 21
163.2574522739
  0
LINE
  5
518
100
AcDbEntity
  8
0
100
AcDbLine
 62
7
  6
CONTINUOUS
 10
34.2619274343
 20
158.5378644702
 11
34.2697407942
 21
158.1541827426
  0
LINE
  5
519
100
AcDbEntity
  8
0
100
AcDbLine
 62
7
  6
CONTINUOUS
 10
34.7142130324
 20
158.2730519242
 11
34.721823133
 21
157.8859627955
  0
LINE
  5
51A
100
AcDbEntity
  8
0
100
AcDbLine
 62
7
  6
CONTINUOUS
 10
34.179082616
 20
163.2574522739
 11
34.1869216256
 21
162.8521052183
  0
LINE
  5
51B
100
AcDbEntity
  8
0
100
AcDbLine
 62
7
  6
CONTINUOUS
 10
34.6227475451
 20
163.7243028027
 11
34.6303797893
 21
163.3296585303
  0
LINE
  5
51C
100
AcDbEntity
  8
0
100
AcDbLine
 62
7
  6
CONTINUOUS
 10
34.2540748505
 20
158.9511894877
 11
34.2619274343
 21
158.5378644702
  0
LINE
  5
51D
100
AcDbEntity
  8
0
100
AcDbLine
 62
7
  6
CONTINUOUS
 10
34.1869216256
 20
162.8521052183
 11
34.1947525296
 21
162.4232213466
  0
LINE
  5
51E
100
AcDbEntity
  8
0
100
AcDbLine
 62
7
  6
CONTINUOUS
 10
34.7066010806
 20
158.6893552729
 11
34.7142130324
 21
158.2730519242
  0
LINE
  5
51F
100
AcDbEntity
  8
0
100
AcDbLine
 62
7
  6
CONTINUOUS
 10
34.2462388636
 20
159.3863485007
 11
34.2540748505
 21
158.9511894877
  0
LINE
  5
520
100
AcDbEntity
  8
0
100
AcDbLine
 62
7
  6
CONTINUOUS
 10
34.6303797893
 20
163.3296585303
 11
34.6380101051
 21
162.9070042863
  0
LINE
  5
521
100
AcDbEntity
  8
0
100
AcDbLine
 62
7
  6
CONTINUOUS
 10
34.1947525296
 20
162.4232213466
 11
34.2025956252
 21
161.9747657405
  0
LINE
  5
522
100
AcDbEntity
  8
0
100
AcDbLine
 62
7
  6
CONTINUOUS
 10
34.6989873009
 20
159.1301401556
 11
34.7066010806
 21
158.6893552729
  0
LINE
  5
523
100
AcDbEntity
  8
0
100
AcDbLine
 62
7
  6
CONTINUOUS
 10
34.6380101051
 20
162.9070042863
 11
34.6456385639
 21
162.4610999383
  0
LINE
  5
524
100
AcDbEntity
  8
0
100
AcDbLine
 62
7
  6
CONTINUOUS
 10
34.2304868978
 20
160.308303242
 11
34.2462388636
 21
159.3863485007
  0
LINE
  5
525
100
AcDbEntity
  8
0
100
AcDbLine
 62
7
  6
CONTINUOUS
 10
34.2025956252
 20
161.9747657405
 11
34.2304868978
 21
160.308303242
  0
LINE
  5
526
100
AcDbEntity
  8
0
100
AcDbLine
 62
7
  6
CONTINUOUS
 10
34.6456385639
 20
162.4610999383
 11
34.6532652832
 21
161.9969688767
  0
LINE
  5
527
100
AcDbEntity
  8
0
100
AcDbLine
 62
7
  6
CONTINUOUS
 10
34.6875632058
 20
159.8262120084
 11
34.6989873009
 21
159.1301401556
  0
LWPOLYLINE
  5
528
100
AcDbEntity
  8
0
100
AcDbPolyline
 62
7
  6
CONTINUOUS
 90
3
 70
0
 10
34.6532652832
 20
161.9969688767
 10
34.6723243905
 20
160.7916519118
 10
34.6875632058
 20
159.8262120084
  0
LINE
  5
529
100
AcDbEntity
  8
0
100
AcDbLine
 62
7
  6
CONTINUOUS
 10
34.1916906631
 20
165.2181668038
 11
34.137596382
 21
165.1245435471
  0
LINE
  5
52A
100
AcDbEntity
  8
0
100
AcDbLine
 62
7
  6
CONTINUOUS
 10
34.9940087904
 20
165.5683526059
 11
34.737596382
 21
165.1245435471
  0
LINE
  5
52B
100
AcDbEntity
  8
0
100
AcDbLine
 62
7
  6
CONTINUOUS
 10
34.1971975572
 20
165.2245236587
 11
34.1916906631
 21
165.2181668038
  0
LINE
  5
52C
100
AcDbEntity
  8
RACCORDO
100
AcDbLine
 62
253
  6
CONTINUOUS
 10
55.3575963832
 20
144.5226721665
 11
64.0591671723
 21
142.1910933007
  0
LINE
  5
52D
100
AcDbEntity
  8
RACCORDO
100
AcDbLine
 62
7
  6
CONTINUOUS
 10
55.3575963832
 20
144.8328341289
 11
64.1352420967
 21
142.4808710485
  0
LINE
  5
52E
100
AcDbEntity
  8
0
100
AcDbLine
 62
7
  6
CONTINUOUS
 10
34.4338377534
 20
156.7245443632
 11
34.642004354
 21
156.3642464655
  0
LINE
  5
52F
100
AcDbEntity
  8
0
100
AcDbLine
 62
7
  6
CONTINUOUS
 10
35.0338377534
 20
156.7245443632
 11
35.2940087904
 21
156.2742301882
  0
LWPOLYLINE
  5
530
100
AcDbEntity
  8
0
100
AcDbPolyline
 62
7
  6
CONTINUOUS
 90
20
 70
0
 10
34.4338377534
 20
156.7245443632
 10
34.4329004243
 20
156.7263687526
 10
34.4275862398
 20
156.744346093
 10
34.4222720554
 20
156.7752557758
 10
34.4169578709
 20
156.8190021007
 10
34.4116436864
 20
156.8754496237
 10
34.4063295019
 20
156.9444235762
 10
34.4010153174
 20
157.0257104063
 10
34.395701133
 20
157.1190584398
 10
34.3903869485
 20
157.2241786597
 10
34.385072764
 20
157.3407456005
 10
34.3797585795
 20
157.4683983566
 10
34.3744443951
 20
157.6067416992
 10
34.3691302106
 20
157.7553473
 10
34.3638160261
 20
157.9137550577
 10
34.3585018416
 20
158.0814745221
 10
34.3531876571
 20
158.2579864128
 10
34.3478734727
 20
158.4427442271
 10
34.3425592882
 20
158.6351759319
 10
34.3372451037
 20
158.8346857346
  0
LINE
  5
531
100
AcDbEntity
  8
0
100
AcDbLine
 62
7
  6
CONTINUOUS
 10
34.642004354
 20
156.3642464655
 11
34.6387985792
 21
156.3709343436
  0
LINE
  5
532
100
AcDbEntity
  8
0
100
AcDbLine
 62
7
  6
CONTINUOUS
 10
34.3288790957
 20
156.5485796949
 11
34.3327957961
 21
156.5397714557
  0
LWPOLYLINE
  5
533
100
AcDbEntity
  8
0
100
AcDbPolyline
 62
7
  6
CONTINUOUS
 90
19
 70
0
 10
35.0338377534
 20
156.7245443632
 10
35.0280890858
 20
156.7420898925
 10
35.0227749013
 20
156.771779349
 10
35.0174607168
 20
156.8143162111
 10
35.0121465324
 20
156.8695687794
 10
35.0068323479
 20
156.937365985
 10
35.0015181634
 20
157.0174979193
 10
34.9962039789
 20
157.1097164839
 10
34.9908897945
 20
157.2137361587
 10
34.98557561
 20
157.3292348859
 10
34.9802614255
 20
157.4558550669
 10
34.974947241
 20
157.5932046699
 10
34.9696330565
 20
157.7408584435
 10
34.9643188721
 20
157.8983592333
 10
34.9590046876
 20
158.0652193971
 10
34.9536905031
 20
158.2409223152
 10
34.9483763186
 20
158.4249239895
 10
34.9430621342
 20
158.6166547279
 10
34.9377479497
 20
158.8155209081
  0
LWPOLYLINE
  5
534
100
AcDbEntity
  8
0
100
AcDbPolyline
 62
7
  6
CONTINUOUS
 90
21
 70
0
 10
34.6387985792
 20
156.3709343436
 10
34.6308254734
 20
156.3974160492
 10
34.6228502359
 20
156.4378649102
 10
34.6148728489
 20
156.4921385918
 10
34.6068934331
 20
156.560050755
 10
34.5989120088
 20
156.6413731191
 10
34.5909285558
 20
156.7358362766
 10
34.5829431341
 20
156.8431291527
 10
34.5749557796
 20
156.9629010034
 10
34.5669664565
 20
157.0947635464
 10
34.5589751172
 20
157.2382915961
 10
34.5509817548
 20
157.3930234084
 10
34.5429863762
 20
157.5584624237
 10
34.5349889539
 20
157.7340798122
 10
34.5269894927
 20
157.9193147587
 10
34.5189879879
 20
158.1135770789
 10
34.5109843969
 20
158.3162498357
 10
34.5029786941
 20
158.5266899978
 10
34.4949709053
 20
158.744229407
 10
34.4869610646
 20
158.9681778608
 10
34.4789492198
 20
159.1978251429
  0
LWPOLYLINE
  5
535
100
AcDbEntity
  8
0
100
AcDbPolyline
 62
7
  6
CONTINUOUS
 90
18
 70
0
 10
35.3678254702
 20
156.2965780813
 10
35.3628136685
 20
156.3283510435
 10
35.3577746832
 20
156.3730476393
 10
35.3527155941
 20
156.4306597666
 10
35.3476576403
 20
156.5008558167
 10
35.342601184
 20
156.5834241382
 10
35.3375458631
 20
156.6781295914
 10
35.3325118302
 20
156.7842505846
 10
35.3275081079
 20
156.9011238334
 10
35.3225256737
 20
157.0284654202
 10
35.3175576124
 20
157.1659893568
 10
35.3126096551
 20
157.3130576828
 10
35.3076760707
 20
157.4693421979
 10
35.3027327509
 20
157.6351740258
 10
35.2977718654
 20
157.8104455677
 10
35.2928012445
 20
157.9944792298
 10
35.2878202705
 20
158.1868488502
 10
35.2828219694
 20
158.3873638893
  0
LWPOLYLINE
  5
536
100
AcDbEntity
  8
0
100
AcDbPolyline
 62
7
  6
CONTINUOUS
 90
15
 70
0
 10
34.5692678108
 20
165.3815014763
 10
34.5730909723
 20
165.3388564948
 10
34.5769137019
 20
165.2835833532
 10
34.5807359387
 20
165.2158327088
 10
34.5845576733
 20
165.1357904635
 10
34.588378915
 20
165.0436772291
 10
34.5921996318
 20
164.9397491518
 10
34.5960197935
 20
164.8242964241
 10
34.5998394302
 20
164.6976403949
 10
34.6036586001
 20
164.5601329872
 10
34.607477323
 20
164.4121579956
 10
34.611295579
 20
164.2541306223
 10
34.6151133665
 20
164.0864941936
 10
34.6189306901
 20
163.9097192258
 10
34.6227475451
 20
163.7243028027
  0
LWPOLYLINE
  5
537
100
AcDbEntity
  8
0
100
AcDbPolyline
 62
7
  6
CONTINUOUS
 90
19
 70
0
 10
35.4372812906
 20
163.0332817526
 10
35.4319671061
 20
163.2319374371
 10
35.4266529216
 20
163.4234390739
 10
35.4213387371
 20
163.6071937502
 10
35.4160245527
 20
163.7826325386
 10
35.4107103682
 20
163.9492122588
 10
35.4053961837
 20
164.1064171593
 10
35.4000819992
 20
164.2537605142
 10
35.3947678147
 20
164.3907861301
 10
35.3894536303
 20
164.5170697586
 10
35.3841394458
 20
164.6322204099
 10
35.3788252613
 20
164.7358815633
 10
35.3735110768
 20
164.8277322709
 10
35.3681968924
 20
164.9074881515
 10
35.3628827079
 20
164.974902271
 10
35.3575685234
 20
165.0297659069
 10
35.3522543389
 20
165.0719091946
 10
35.3469401545
 20
165.1012016531
 10
35.3413550128
 20
165.118038431
  0
LWPOLYLINE
  5
538
100
AcDbEntity
  8
0
100
AcDbPolyline
 62
7
  6
CONTINUOUS
 90
20
 70
0
 10
36.0380340936
 20
163.0045970976
 10
36.0327142283
 20
163.2044266909
 10
36.027394363
 20
163.3971722958
 10
36.0220744976
 20
163.5822358719
 10
36.0167546323
 20
163.7590432139
 10
36.011434767
 20
163.9270457335
 10
36.0061149017
 20
164.0857221617
 10
36.0007950364
 20
164.2345801658
 10
35.995475171
 20
164.3731578773
 10
35.9901553057
 20
164.5010253248
 10
35.9848354404
 20
164.6177857682
 10
35.9795155751
 20
164.7230769294
 10
35.9741957098
 20
164.8165721168
 10
35.9688758444
 20
164.8979812385
 10
35.9635559791
 20
164.9670517028
 10
35.9582361138
 20
165.0235692016
 10
35.9529162485
 20
165.0673583754
 10
35.9475963832
 20
165.0982833576
 10
35.9422765178
 20
165.1162481958
 10
35.9413550128
 20
165.118038431
  0
LWPOLYLINE
  5
539
100
AcDbEntity
  8
0
100
AcDbPolyline
 62
7
  6
CONTINUOUS
 90
20
 70
0
 10
36.6391788747
 20
162.9607290396
 10
36.6338590094
 20
163.1620026846
 10
36.6285391441
 20
163.3563239722
 10
36.6232192788
 20
163.5430899729
 10
36.6178994135
 20
163.7217211992
 10
36.6125795481
 20
163.891663404
 10
36.6072596828
 20
164.0523892996
 10
36.6019398175
 20
164.2034001946
 10
36.5966199522
 20
164.3442275405
 10
36.5913000869
 20
164.4744343859
 10
36.5859802215
 20
164.5936167321
 10
36.5806603562
 20
164.7014047865
 10
36.5753404909
 20
164.7974641102
 10
36.5700206256
 20
164.8814966555
 10
36.5647007603
 20
164.9532416909
 10
36.5593808949
 20
165.0124766097
 10
36.5540610296
 20
165.059017621
 10
36.5487411643
 20
165.09272032
 10
36.543421299
 20
165.1134801356
 10
36.5413550128
 20
165.118038431
  0
LINE
  5
53A
100
AcDbEntity
  8
0
100
AcDbLine
 62
7
  6
CONTINUOUS
 10
36.7402563158
 20
158.7208028595
 11
36.7296165852
 21
159.1322144454
  0
LINE
  5
53B
100
AcDbEntity
  8
0
100
AcDbLine
 62
7
  6
CONTINUOUS
 10
36.1391115347
 20
158.7638463525
 11
36.128471804
 21
159.1778955117
  0
LINE
  5
53C
100
AcDbEntity
  8
0
100
AcDbLine
 62
7
  6
CONTINUOUS
 10
35.5382507956
 20
158.7964144716
 11
35.5276224267
 21
159.211951135
  0
LINE
  5
53D
100
AcDbEntity
  8
0
100
AcDbLine
 62
7
  6
CONTINUOUS
 10
35.4479096595
 20
162.6169887372
 11
35.4372812906
 21
163.0332817526
  0
LWPOLYLINE
  5
53E
100
AcDbEntity
  8
0
100
AcDbPolyline
 62
7
  6
CONTINUOUS
 90
20
 70
0
 10
35.2024298837
 20
158.387663095
 10
35.2074136567
 20
158.1877097329
 10
35.2123773776
 20
157.9959593232
 10
35.2173299712
 20
157.8125140637
 10
35.2222807592
 20
157.6374912177
 10
35.2272280473
 20
157.4714070474
 10
35.2321735298
 20
157.3146359834
 10
35.2371316121
 20
157.1671740812
 10
35.2421041917
 20
157.029443801
 10
35.2470893711
 20
156.9019555961
 10
35.2520958631
 20
156.7849446734
 10
35.257133287
 20
156.6786838849
 10
35.2621920236
 20
156.5838523011
 10
35.2672519271
 20
156.5011725834
 10
35.2723133771
 20
156.4308805119
 10
35.2773759941
 20
156.3731888295
 10
35.2824184938
 20
156.3284302918
 10
35.2874337813
 20
156.2966132438
 10
35.2924289515
 20
156.2776006414
 10
35.2940087904
 20
156.2742301882
  0
LWPOLYLINE
  5
53F
100
AcDbEntity
  8
0
100
AcDbPolyline
 62
7
  6
CONTINUOUS
 90
20
 70
0
 10
35.8024372116
 20
158.3873638893
 10
35.8074355128
 20
158.1868488502
 10
35.8124164868
 20
157.9944792298
 10
35.8173871077
 20
157.8104455677
 10
35.8223479931
 20
157.6351740258
 10
35.8272913129
 20
157.4693421979
 10
35.8322248973
 20
157.3130576828
 10
35.8371728547
 20
157.1659893568
 10
35.842140916
 20
157.0284654202
 10
35.8471233502
 20
156.9011238334
 10
35.8521270725
 20
156.7842505846
 10
35.8571611054
 20
156.6781295914
 10
35.8622164263
 20
156.5834241382
 10
35.8672728826
 20
156.5008558167
 10
35.8723308364
 20
156.4306597666
 10
35.8773899255
 20
156.3730476393
 10
35.8824289108
 20
156.3283510435
 10
35.8874407125
 20
156.2965780813
 10
35.8924324103
 20
156.2775918736
 10
35.8940087904
 20
156.2742301882
  0
LINE
  5
540
100
AcDbEntity
  8
0
100
AcDbLine
 62
7
  6
CONTINUOUS
 10
36.0486738242
 20
162.5861860839
 11
36.0380340936
 21
163.0045970976
  0
LWPOLYLINE
  5
541
100
AcDbEntity
  8
0
100
AcDbPolyline
 62
7
  6
CONTINUOUS
 90
20
 70
0
 10
36.4024316588
 20
158.3875906154
 10
36.4074395973
 20
158.1866879835
 10
36.4124354123
 20
157.993763168
 10
36.4174232395
 20
157.8091380732
 10
36.4223952479
 20
157.6335463815
 10
36.4273386496
 20
157.4677982269
 10
36.4322662325
 20
157.311788391
 10
36.4372085297
 20
157.1649651293
 10
36.4421735431
 20
157.0275966745
 10
36.4471532708
 20
156.9003918391
 10
36.4521542394
 20
156.7836467593
 10
36.4571853352
 20
156.6776470932
 10
36.462237672
 20
156.5830515981
 10
36.4672911177
 20
156.500580346
 10
36.4723460284
 20
156.4304678096
 10
36.4774020479
 20
156.3729248613
 10
36.4824379754
 20
156.3282821283
 10
36.4874467438
 20
156.2965475037
 10
36.4924354201
 20
156.2775842492
 10
36.4940087904
 20
156.2742301882
  0
LINE
  5
542
100
AcDbEntity
  8
0
100
AcDbLine
 62
7
  6
CONTINUOUS
 10
36.6498186054
 20
162.5398423149
 11
36.6391788747
 21
162.9607290396
  0
LWPOLYLINE
  5
543
100
AcDbEntity
  8
0
100
AcDbPolyline
 62
7
  6
CONTINUOUS
 90
20
 70
0
 10
35.1729175931
 20
163.4485993014
 10
35.1679402912
 20
163.6485199144
 10
35.162944058
 20
163.8417504998
 10
35.1579366882
 20
164.0273919522
 10
35.1529386868
 20
164.2041716172
 10
35.1479614657
 20
164.3712819666
 10
35.142993613
 20
164.5287342389
 10
35.1380213993
 20
164.6765507147
 10
35.133045822
 20
164.8142779224
 10
35.1280658835
 20
164.9415454043
 10
35.1230648621
 20
165.0583507007
 10
35.1180305026
 20
165.1644762753
 10
35.1129750601
 20
165.2591811045
 10
35.1079185782
 20
165.3417467049
 10
35.1028606707
 20
165.4119389422
 10
35.0978017239
 20
165.4695464704
 10
35.0927629394
 20
165.5142387178
 10
35.0877513845
 20
165.546008107
 10
35.0827599921
 20
165.5649918426
 10
35.081183976
 20
165.5683526058
  0
LWPOLYLINE
  5
544
100
AcDbEntity
  8
0
100
AcDbPolyline
 62
7
  6
CONTINUOUS
 90
20
 70
0
 10
35.7729216642
 20
163.4484328916
 10
35.7679296189
 20
163.6489408151
 10
35.7629235344
 20
163.8425281277
 10
35.7579084506
 20
164.0284150794
 10
35.7529050815
 20
164.2053303385
 10
35.7479253179
 20
164.3724618904
 10
35.742957269
 20
164.5298506731
 10
35.7379859769
 20
164.6775677145
 10
35.7330123764
 20
164.8151683688
 10
35.7280355327
 20
164.9422878754
 10
35.7230376837
 20
165.0589547726
 10
35.7180062449
 20
165.1649593154
 10
35.7129538008
 20
165.2595538706
 10
35.7079003426
 20
165.3420221722
 10
35.7028454792
 20
165.4121308842
 10
35.6977896017
 20
165.469669239
 10
35.6927538748
 20
165.5143076286
 10
35.6877453533
 20
165.5460386822
 10
35.6827569824
 20
165.5649994664
 10
35.681183976
 20
165.5683526058
  0
LWPOLYLINE
  5
545
100
AcDbEntity
  8
0
100
AcDbPolyline
 62
7
  6
CONTINUOUS
 90
20
 70
0
 10
36.3729028969
 20
163.4491999694
 10
36.3678898021
 20
163.6505108338
 10
36.3628693786
 20
163.844579408
 10
36.3578435106
 20
164.030767006
 10
36.3528330786
 20
164.2078116522
 10
36.3478507059
 20
164.3748957845
 10
36.3428837692
 20
164.5321068771
 10
36.3379152787
 20
164.6795959574
 10
36.3329460062
 20
164.8169339758
 10
36.3279751799
 20
164.9437630735
 10
36.322983495
 20
165.0601581753
 10
36.3179578847
 20
165.1659214853
 10
36.3129114158
 20
165.2602964166
 10
36.3078639835
 20
165.3425709324
 10
36.3028151895
 20
165.4125132494
 10
36.2977654321
 20
165.4699138015
 10
36.2927358016
 20
165.5144449017
 10
36.2877333282
 20
165.5460995885
 10
36.2827509816
 20
165.5650146529
 10
36.281183976
 20
165.5683526058
  0
LINE
  5
546
100
AcDbEntity
  8
0
100
AcDbLine
 62
7
  6
CONTINUOUS
 10
36.7296165852
 20
159.1322144454
 11
36.7189768545
 21
159.5658130114
  0
LINE
  5
547
100
AcDbEntity
  8
0
100
AcDbLine
 62
7
  6
CONTINUOUS
 10
35.5276224267
 20
159.211951135
 11
35.5169940577
 21
159.6486407332
  0
LINE
  5
548
100
AcDbEntity
  8
0
100
AcDbLine
 62
7
  6
CONTINUOUS
 10
35.4585380285
 20
162.179711617
 11
35.4479096595
 21
162.6169887372
  0
LINE
  5
549
100
AcDbEntity
  8
0
100
AcDbLine
 62
7
  6
CONTINUOUS
 10
36.128471804
 20
159.1778955117
 11
36.1178320734
 21
159.6135651437
  0
LINE
  5
54A
100
AcDbEntity
  8
0
100
AcDbLine
 62
7
  6
CONTINUOUS
 10
36.0593135549
 20
162.1471281186
 11
36.0486738242
 21
162.5861860839
  0
LINE
  5
54B
100
AcDbEntity
  8
0
100
AcDbLine
 62
7
  6
CONTINUOUS
 10
36.660458336
 20
162.0988833642
 11
36.6498186054
 21
162.5398423149
  0
LINE
  5
54C
100
AcDbEntity
  8
0
100
AcDbLine
 62
7
  6
CONTINUOUS
 10
35.1924464083
 20
158.8083959861
 11
35.2024298837
 21
158.387663095
  0
LINE
  5
54D
100
AcDbEntity
  8
0
100
AcDbLine
 62
7
  6
CONTINUOUS
 10
35.0925113162
 20
163.4494788232
 11
35.102411318
 21
163.0320298911
  0
LINE
  5
54E
100
AcDbEntity
  8
0
100
AcDbLine
 62
7
  6
CONTINUOUS
 10
35.2828219694
 20
158.3873638893
 11
35.2728146122
 21
158.8091140828
  0
LINE
  5
54F
100
AcDbEntity
  8
0
100
AcDbLine
 62
7
  6
CONTINUOUS
 10
35.1828416654
 20
163.0300515642
 11
35.1729175931
 21
163.4485993014
  0
LINE
  5
550
100
AcDbEntity
  8
0
100
AcDbLine
 62
7
  6
CONTINUOUS
 10
35.7924298544
 20
158.8091140828
 11
35.8024372116
 21
158.3873638893
  0
LINE
  5
551
100
AcDbEntity
  8
0
100
AcDbLine
 62
7
  6
CONTINUOUS
 10
35.6925328353
 20
163.4485993014
 11
35.7024569076
 21
163.0300515642
  0
LINE
  5
552
100
AcDbEntity
  8
0
100
AcDbLine
 62
7
  6
CONTINUOUS
 10
35.8828164165
 20
158.3875906154
 11
35.8727968142
 21
158.8098862194
  0
LINE
  5
553
100
AcDbEntity
  8
0
100
AcDbLine
 62
7
  6
CONTINUOUS
 10
35.7828731626
 20
163.0286844842
 11
35.7729216642
 21
163.4484328916
  0
LINE
  5
554
100
AcDbEntity
  8
0
100
AcDbLine
 62
7
  6
CONTINUOUS
 10
36.1178320734
 20
159.6135651437
 11
36.1071923428
 21
160.0654523545
  0
LINE
  5
555
100
AcDbEntity
  8
0
100
AcDbLine
 62
7
  6
CONTINUOUS
 10
36.3924120565
 20
158.8098862194
 11
36.4024316588
 21
158.3875906154
  0
LINE
  5
556
100
AcDbEntity
  8
0
100
AcDbLine
 62
7
  6
CONTINUOUS
 10
36.2925369065
 20
163.4484328916
 11
36.3024884049
 21
163.0286844842
  0
LINE
  5
557
100
AcDbEntity
  8
0
100
AcDbLine
 62
7
  6
CONTINUOUS
 10
36.4827937223
 20
158.3885173144
 11
36.4727573871
 21
158.8115969615
  0
LINE
  5
558
100
AcDbEntity
  8
0
100
AcDbLine
 62
7
  6
CONTINUOUS
 10
36.3828975248
 20
163.0276269294
 11
36.3729028969
 21
163.4491999694
  0
LINE
  5
559
100
AcDbEntity
  8
0
100
AcDbLine
 62
7
  6
CONTINUOUS
 10
36.7189768545
 20
159.5658130114
 11
36.7083371239
 21
160.0162213472
  0
LINE
  5
55A
100
AcDbEntity
  8
0
100
AcDbLine
 62
7
  6
CONTINUOUS
 10
35.5169940577
 20
159.6486407332
 11
35.5063656888
 21
160.101079271
  0
LINE
  5
55B
100
AcDbEntity
  8
0
100
AcDbLine
 62
7
  6
CONTINUOUS
 10
35.4744805819
 20
161.4963424625
 11
35.4585380285
 21
162.179711617
  0
LINE
  5
55C
100
AcDbEntity
  8
0
100
AcDbLine
 62
7
  6
CONTINUOUS
 10
36.0752731508
 20
161.4617923343
 11
36.0593135549
 21
162.1471281186
  0
LINE
  5
55D
100
AcDbEntity
  8
0
100
AcDbLine
 62
7
  6
CONTINUOUS
 10
35.5063656888
 20
160.101079271
 11
35.4744805819
 21
161.4963424625
  0
LINE
  5
55E
100
AcDbEntity
  8
0
100
AcDbLine
 62
7
  6
CONTINUOUS
 10
36.1071923428
 20
160.0654523545
 11
36.0752731508
 21
161.4617923343
  0
LINE
  5
55F
100
AcDbEntity
  8
0
100
AcDbLine
 62
7
  6
CONTINUOUS
 10
36.7083371239
 20
160.0162213472
 11
36.660458336
 21
162.0988833642
  0
LINE
  5
560
100
AcDbEntity
  8
0
100
AcDbLine
 62
7
  6
CONTINUOUS
 10
35.1825087937
 20
159.2501176654
 11
35.1924464083
 21
158.8083959861
  0
LINE
  5
561
100
AcDbEntity
  8
0
100
AcDbLine
 62
7
  6
CONTINUOUS
 10
35.102411318
 20
163.0320298911
 11
35.1123054456
 21
162.5921819943
  0
LINE
  5
562
100
AcDbEntity
  8
0
100
AcDbLine
 62
7
  6
CONTINUOUS
 10
35.2728146122
 20
158.8091140828
 11
35.2628707618
 21
159.251153304
  0
LINE
  5
563
100
AcDbEntity
  8
0
100
AcDbLine
 62
7
  6
CONTINUOUS
 10
35.1927190209
 20
162.5908723791
 11
35.1828416654
 21
163.0300515642
  0
LINE
  5
564
100
AcDbEntity
  8
0
100
AcDbLine
 62
7
  6
CONTINUOUS
 10
35.7824860041
 20
159.251153304
 11
35.7924298544
 21
158.8091140828
  0
LINE
  5
565
100
AcDbEntity
  8
0
100
AcDbLine
 62
7
  6
CONTINUOUS
 10
35.7024569076
 20
163.0300515642
 11
35.7123342631
 21
162.5908723791
  0
LINE
  5
566
100
AcDbEntity
  8
0
100
AcDbLine
 62
7
  6
CONTINUOUS
 10
35.8727968142
 20
158.8098862194
 11
35.8628506649
 21
159.2520666529
  0
LINE
  5
567
100
AcDbEntity
  8
0
100
AcDbLine
 62
7
  6
CONTINUOUS
 10
35.7927422753
 20
162.5898154692
 11
35.7828731626
 21
163.0286844842
  0
LINE
  5
568
100
AcDbEntity
  8
0
100
AcDbLine
 62
7
  6
CONTINUOUS
 10
36.3824659072
 20
159.2520666529
 11
36.3924120565
 21
158.8098862194
  0
LINE
  5
569
100
AcDbEntity
  8
0
100
AcDbLine
 62
7
  6
CONTINUOUS
 10
36.3024884049
 20
163.0286844842
 11
36.3123575176
 21
162.5898154692
  0
LINE
  5
56A
100
AcDbEntity
  8
0
100
AcDbLine
 62
7
  6
CONTINUOUS
 10
36.4727573871
 20
158.8115969615
 11
36.462810268
 21
159.2539028023
  0
LINE
  5
56B
100
AcDbEntity
  8
0
100
AcDbLine
 62
7
  6
CONTINUOUS
 10
36.3927769777
 20
162.588238069
 11
36.3828975248
 21
163.0276269294
  0
LINE
  5
56C
100
AcDbEntity
  8
0
100
AcDbLine
 62
7
  6
CONTINUOUS
 10
35.1123054456
 20
162.5921819943
 11
35.1222406705
 21
162.1324806716
  0
LINE
  5
56D
100
AcDbEntity
  8
0
100
AcDbLine
 62
7
  6
CONTINUOUS
 10
35.2628707618
 20
159.251153304
 11
35.2529210826
 21
159.7115602371
  0
LINE
  5
56E
100
AcDbEntity
  8
0
100
AcDbLine
 62
7
  6
CONTINUOUS
 10
35.7123342631
 20
162.5908723791
 11
35.7222547051
 21
162.1318208386
  0
LINE
  5
56F
100
AcDbEntity
  8
0
100
AcDbLine
 62
7
  6
CONTINUOUS
 10
35.8628506649
 20
159.2520666529
 11
35.8529042702
 21
159.7123507393
  0
LINE
  5
570
100
AcDbEntity
  8
0
100
AcDbLine
 62
7
  6
CONTINUOUS
 10
36.3123575176
 20
162.5898154692
 11
36.3222680005
 21
162.131195733
  0
LINE
  5
571
100
AcDbEntity
  8
0
100
AcDbLine
 62
7
  6
CONTINUOUS
 10
36.462810268
 20
159.2539028023
 11
36.4528715806
 21
159.7138878807
  0
LINE
  5
572
100
AcDbEntity
  8
0
100
AcDbLine
 62
7
  6
CONTINUOUS
 10
35.1675697978
 20
159.9466066518
 11
35.1825087937
 21
159.2501176654
  0
LINE
  5
573
100
AcDbEntity
  8
0
100
AcDbLine
 62
7
  6
CONTINUOUS
 10
35.207625356
 20
161.8958624641
 11
35.1927190209
 21
162.5908723791
  0
LINE
  5
574
100
AcDbEntity
  8
0
100
AcDbLine
 62
7
  6
CONTINUOUS
 10
35.7675535951
 20
159.947378123
 11
35.7824860041
 21
159.251153304
  0
LINE
  5
575
100
AcDbEntity
  8
0
100
AcDbLine
 62
7
  6
CONTINUOUS
 10
35.8076359817
 20
161.8953565373
 11
35.7927422753
 21
162.5898154692
  0
LINE
  5
576
100
AcDbEntity
  8
0
100
AcDbLine
 62
7
  6
CONTINUOUS
 10
36.3675400672
 20
159.9480222595
 11
36.3824659072
 21
159.2520666529
  0
LINE
  5
577
100
AcDbEntity
  8
0
100
AcDbLine
 62
7
  6
CONTINUOUS
 10
36.4076591482
 20
161.8942534502
 11
36.3927769777
 21
162.588238069
  0
LINE
  5
578
100
AcDbEntity
  8
0
100
AcDbLine
 62
7
  6
CONTINUOUS
 10
35.1222406705
 20
162.1324806716
 11
35.1372786178
 21
161.4134205389
  0
LINE
  5
579
100
AcDbEntity
  8
0
100
AcDbLine
 62
7
  6
CONTINUOUS
 10
35.2529210826
 20
159.7115602371
 11
35.2378981243
 21
160.4299381746
  0
LINE
  5
57A
100
AcDbEntity
  8
0
100
AcDbLine
 62
7
  6
CONTINUOUS
 10
35.7222547051
 20
162.1318208386
 11
35.7372837839
 21
161.4131703885
  0
LINE
  5
57B
100
AcDbEntity
  8
0
100
AcDbLine
 62
7
  6
CONTINUOUS
 10
35.8529042702
 20
159.7123507393
 11
35.8378909101
 21
160.4302874995
  0
LINE
  5
57C
100
AcDbEntity
  8
0
100
AcDbLine
 62
7
  6
CONTINUOUS
 10
36.3222680005
 20
162.131195733
 11
36.3372887026
 21
161.4129322162
  0
LINE
  5
57D
100
AcDbEntity
  8
0
100
AcDbLine
 62
7
  6
CONTINUOUS
 10
36.4528715806
 20
159.7138878807
 11
36.4378770133
 21
160.4309604264
  0
LINE
  5
57E
100
AcDbEntity
  8
0
100
AcDbLine
 62
7
  6
CONTINUOUS
 10
35.1372786178
 20
161.4134205389
 11
35.1675697978
 21
159.9466066518
  0
LINE
  5
57F
100
AcDbEntity
  8
0
100
AcDbLine
 62
7
  6
CONTINUOUS
 10
35.2378981243
 20
160.4299381746
 11
35.207625356
 21
161.8958624641
  0
LINE
  5
580
100
AcDbEntity
  8
0
100
AcDbLine
 62
7
  6
CONTINUOUS
 10
35.7372837839
 20
161.4131703885
 11
35.7675535951
 21
159.947378123
  0
LINE
  5
581
100
AcDbEntity
  8
0
100
AcDbLine
 62
7
  6
CONTINUOUS
 10
35.8378909101
 20
160.4302874995
 11
35.8076359817
 21
161.8953565373
  0
LINE
  5
582
100
AcDbEntity
  8
0
100
AcDbLine
 62
7
  6
CONTINUOUS
 10
36.3372887026
 20
161.4129322162
 11
36.3675400672
 21
159.9480222595
  0
LINE
  5
583
100
AcDbEntity
  8
0
100
AcDbLine
 62
7
  6
CONTINUOUS
 10
36.4378770133
 20
160.4309604264
 11
36.4076591482
 21
161.8942534502
  0
LWPOLYLINE
  5
584
100
AcDbEntity
  8
0
100
AcDbPolyline
 62
7
  6
CONTINUOUS
 90
3
 70
0
 43
0.3500000006
 10
49.0897412567
 20
205.0070095825
 10
49.0183100739
 20
204.7927250977
 10
48.87545224
 20
204.5070003662
  0
LINE
  5
585
100
AcDbEntity
  8
0
100
AcDbLine
 62
7
  6
CONTINUOUS
 10
35.5940087904
 20
165.5683526059
 11
35.337596382
 21
165.1245435471
  0
LINE
  5
586
100
AcDbEntity
  8
0
100
AcDbLine
 62
7
  6
CONTINUOUS
 10
36.1940087904
 20
165.5683526059
 11
35.937596382
 21
165.1245435471
  0
LINE
  5
587
100
AcDbEntity
  8
0
100
AcDbLine
 62
7
  6
CONTINUOUS
 10
36.7940087904
 20
165.5683526059
 11
36.537596382
 21
165.1245435471
  0
LINE
  5
588
100
AcDbEntity
  8
0
100
AcDbLine
 62
7
  6
CONTINUOUS
 10
37.3940087904
 20
165.5683526059
 11
37.137596382
 21
165.1245435471
  0
LWPOLYLINE
  5
589
100
AcDbEntity
  8
RACCORDO
100
AcDbPolyline
 62
253
  6
CONTINUOUS
 90
13
 70
0
 10
53.3094499606
 20
184.9212913971
 10
53.3092742762
 20
184.9210886466
 10
53.3090988768
 20
184.9204807241
 10
53.3089240468
 20
184.9194686156
 10
53.3087500699
 20
184.9180539627
 10
53.3085772282
 20
184.9162390601
 10
53.3084058021
 20
184.9140268514
 10
53.3082360695
 20
184.911420925
 10
53.308068306
 20
184.9084255075
 10
53.3079027835
 20
184.9050454577
 10
53.3077397705
 20
184.901286258
 10
53.3075795314
 20
184.8971540057
 10
53.3072684098
 20
184.887797748
  0
LINE
  5
58A
100
AcDbEntity
  8
0
100
AcDbLine
 62
7
  6
CONTINUOUS
 10
34.9940087904
 20
165.5683526059
 11
34.9974040043
 21
165.5712913971
  0
LINE
  5
58B
100
AcDbEntity
  8
0
100
AcDbLine
 62
7
  6
CONTINUOUS
 10
35.5940087904
 20
165.5683526059
 11
35.5974040043
 21
165.5712913971
  0
LINE
  5
58C
100
AcDbEntity
  8
0
100
AcDbLine
 62
7
  6
CONTINUOUS
 10
35.2940087904
 20
156.2742301882
 11
35.2974040043
 21
156.2712913971
  0
LINE
  5
58D
100
AcDbEntity
  8
0
100
AcDbLine
 62
7
  6
CONTINUOUS
 10
35.8940087904
 20
156.2742301882
 11
35.8974040043
 21
156.2712913971
  0
LWPOLYLINE
  5
58E
100
AcDbEntity
  8
RACCORDO
100
AcDbPolyline
 62
253
  6
CONTINUOUS
 90
11
 70
0
 10
53.3094499606
 20
136.9212913971
 10
53.3092742762
 20
136.9214941475
 10
53.3090988768
 20
136.9221020699
 10
53.3089240469
 20
136.9231141782
 10
53.3087500699
 20
136.9245288308
 10
53.3085772282
 20
136.9263437332
 10
53.3084058021
 20
136.9285559415
 10
53.3082360696
 20
136.9311618676
 10
53.308068306
 20
136.9341572846
 10
53.3079027835
 20
136.937537334
 10
53.3077397705
 20
136.9412965334
  0
LINE
  5
58F
100
AcDbEntity
  8
0
100
AcDbLine
 62
7
  6
CONTINUOUS
 10
34.6471997622
 20
156.3582502417
 11
34.642004354
 21
156.3642464655
  0
LWPOLYLINE
  5
590
100
AcDbEntity
  8
0
100
AcDbPolyline
 62
7
  6
CONTINUOUS
 90
3
 70
0
 10
37.177788762
 20
156.2712913971
 10
37.1728337274
 20
156.2775499818
 10
37.1678586539
 20
156.2964100742
  0
LWPOLYLINE
  5
591
100
AcDbEntity
  8
0
100
AcDbPolyline
 62
7
  6
CONTINUOUS
 90
3
 70
0
 10
36.577788762
 20
156.2712913971
 10
36.5728261787
 20
156.2775690612
 10
36.5678435268
 20
156.2964865925
  0
LWPOLYLINE
  5
592
100
AcDbEntity
  8
0
100
AcDbPolyline
 62
7
  6
CONTINUOUS
 90
3
 70
0
 10
35.977788762
 20
156.2712913971
 10
35.9728201778
 20
156.2775842492
 10
35.9678315015
 20
156.2965475037
  0
LWPOLYLINE
  5
593
100
AcDbEntity
  8
0
100
AcDbPolyline
 62
7
  6
CONTINUOUS
 90
3
 70
0
 10
35.377788762
 20
156.2712913971
 10
35.372817168
 20
156.2775918736
 10
35.3678254702
 20
156.2965780813
  0
LINE
  5
594
100
AcDbEntity
  8
0
100
AcDbLine
 62
7
  6
CONTINUOUS
 10
35.6338377534
 20
156.7245443632
 11
35.8940087904
 21
156.2742301882
  0
LINE
  5
595
100
AcDbEntity
  8
0
100
AcDbLine
 62
7
  6
CONTINUOUS
 10
36.2338377534
 20
156.7245443632
 11
36.4940087904
 21
156.2742301882
  0
LINE
  5
596
100
AcDbEntity
  8
0
100
AcDbLine
 62
7
  6
CONTINUOUS
 10
36.8338377534
 20
156.7245443632
 11
37.0940087904
 21
156.2742301882
  0
LINE
  5
597
100
AcDbEntity
  8
0
100
AcDbLine
 62
7
  6
CONTINUOUS
 10
37.4338377534
 20
156.7245443632
 11
37.6940087904
 21
156.2742301882
  0
LWPOLYLINE
  5
598
100
AcDbEntity
  8
0
100
AcDbPolyline
 62
7
  6
CONTINUOUS
 90
20
 70
0
 10
37.4338377534
 20
156.7245443632
 10
37.4318388074
 20
156.7289231497
 10
37.4265189421
 20
156.7495186335
 10
37.4211990768
 20
156.7830580676
 10
37.4158792114
 20
156.8294373874
 10
37.4105593461
 20
156.8885126898
 10
37.4052394808
 20
156.9601006791
 10
37.3999196155
 20
157.043979236
 10
37.3945997502
 20
157.1398881067
 10
37.3892798848
 20
157.2475297104
 10
37.3839600195
 20
157.3665700624
 10
37.3786401542
 20
157.4966398109
 10
37.3733202889
 20
157.6373353824
 10
37.3680004236
 20
157.7882202345
 10
37.3626805582
 20
157.9488262098
 10
37.3573606929
 20
158.1186549888
 10
37.3520408276
 20
158.2971796359
 10
37.3467209623
 20
158.4838462346
 10
37.341401097
 20
158.6780756059
 10
37.3360812316
 20
158.8792651054
  0
LWPOLYLINE
  5
599
100
AcDbEntity
  8
0
100
AcDbPolyline
 62
7
  6
CONTINUOUS
 90
19
 70
0
 10
36.8338377534
 20
156.7245443632
 10
36.8306940263
 20
156.7322582561
 10
36.8253741609
 20
156.7556459206
 10
36.8200542956
 20
156.7919585238
 10
36.8147344303
 20
156.841083397
 10
36.809414565
 20
156.9028681181
 10
36.8040946997
 20
156.9771209849
 10
36.7987748343
 20
157.0636116096
 10
36.793454969
 20
157.1620716339
 10
36.7881351037
 20
157.2721955612
 10
36.7828152384
 20
157.3936417051
 10
36.7774953731
 20
157.526033249
 10
36.7721755077
 20
157.6689594156
 10
36.7668556424
 20
157.8219767414
 10
36.7615357771
 20
157.9846104525
 10
36.7562159118
 20
158.1563559379
 10
36.7508960465
 20
158.336680315
 10
36.7455761811
 20
158.5250240832
 10
36.7402563158
 20
158.7208028595
  0
LWPOLYLINE
  5
59A
100
AcDbEntity
  8
0
100
AcDbPolyline
 62
7
  6
CONTINUOUS
 90
19
 70
0
 10
36.2338377534
 20
156.7245443632
 10
36.2295492451
 20
156.7361953823
 10
36.2242293798
 20
156.7623718663
 10
36.2189095145
 20
156.8014524201
 10
36.2135896492
 20
156.8533157867
 10
36.2082697838
 20
156.9178010473
 10
36.2029499185
 20
156.9947081204
 10
36.1976300532
 20
157.0837983831
 10
36.1923101879
 20
157.1847954109
 10
36.1869903226
 20
157.2973858356
 10
36.1816704572
 20
157.4212203179
 10
36.1763505919
 20
157.5559146308
 10
36.1710307266
 20
157.7010508521
 10
36.1657108613
 20
157.856178661
 10
36.160390996
 20
158.0208167353
 10
36.1550711306
 20
158.1944542451
 10
36.1497512653
 20
158.3765524372
 10
36.1444314
 20
158.5665463072
 10
36.1391115347
 20
158.7638463525
  0
LWPOLYLINE
  5
59B
100
AcDbEntity
  8
0
100
AcDbPolyline
 62
7
  6
CONTINUOUS
 90
19
 70
0
 10
35.6338377534
 20
156.7245443632
 10
35.6285919318
 20
156.739949575
 10
35.6232777473
 20
156.768417982
 10
35.6179635628
 20
156.8097442017
 10
35.6126493783
 20
156.8638002832
 10
35.6073351939
 20
156.9304188619
 10
35.6020210094
 20
157.0093936786
 10
35.5967068249
 20
157.1004802173
 10
35.5913926404
 20
157.2033964628
 10
35.5860784559
 20
157.3178237736
 10
35.5807642715
 20
157.4434078685
 10
35.575450087
 20
157.5797599235
 10
35.5701359025
 20
157.7264577757
 10
35.564821718
 20
157.8830472303
 10
35.5595075336
 20
158.0490434668
 10
35.5541933491
 20
158.2239325403
 10
35.5488791646
 20
158.4071729725
 10
35.5435649801
 20
158.5981974281
 10
35.5382507956
 20
158.7964144716
  0
LWPOLYLINE
  5
59C
100
AcDbEntity
  8
0
100
AcDbPolyline
 62
7
  6
CONTINUOUS
 90
18
 70
0
 10
37.1678586539
 20
156.2964100742
 10
37.1628635414
 20
156.3279723874
 10
37.1578413768
 20
156.3723730622
 10
37.1527991732
 20
156.4296051182
 10
37.1477579707
 20
156.4993421584
 10
37.1427182062
 20
156.5813748411
 10
37.1376794428
 20
156.6754729699
 10
37.1326614093
 20
156.7809301197
 10
37.1276766535
 20
156.8970055884
 10
37.1227126277
 20
157.023493656
 10
37.117751418
 20
157.1604315224
 10
37.1127951789
 20
157.3073660406
 10
37.107841756
 20
157.4639417819
 10
37.1028667717
 20
157.6305599069
 10
37.0978551141
 20
157.8074337311
 10
37.0928218952
 20
157.9936979
 10
37.0877880727
 20
158.1881171311
 10
37.0827539177
 20
158.3901430535
  0
LWPOLYLINE
  5
59D
100
AcDbEntity
  8
0
100
AcDbPolyline
 62
7
  6
CONTINUOUS
 90
18
 70
0
 10
36.5678435268
 20
156.2964865925
 10
36.5628408063
 20
156.3281448466
 10
36.5578109746
 20
156.3726802924
 10
36.5527610743
 20
156.4300854454
 10
36.5477122335
 20
156.5000315788
 10
36.5426648297
 20
156.5823087646
 10
36.5376184854
 20
156.6766842545
 10
36.532593196
 20
156.7824431092
 10
36.5275988985
 20
156.8989038972
 10
36.522625656
 20
157.0258046827
 10
36.517663652
 20
157.1629465008
 10
36.5127204462
 20
157.3096571081
 10
36.5077884791
 20
157.4656771779
 10
36.5028352561
 20
157.6316443556
 10
36.4978442853
 20
157.8078253718
 10
36.4928320587
 20
157.9933134102
 10
36.4878155574
 20
158.1870344823
 10
36.4827937223
 20
158.3885173144
  0
LWPOLYLINE
  5
59E
100
AcDbEntity
  8
0
100
AcDbPolyline
 62
7
  6
CONTINUOUS
 90
18
 70
0
 10
35.9678315015
 20
156.2965475037
 10
35.9628227331
 20
156.3282821283
 10
35.9577868056
 20
156.3729248613
 10
35.9527307861
 20
156.4304678096
 10
35.9476758754
 20
156.500580346
 10
35.9426224298
 20
156.5830515981
 10
35.937570093
 20
156.6776470932
 10
35.9325389971
 20
156.7836467593
 10
35.9275380285
 20
156.9003918391
 10
35.9225583008
 20
157.0275966745
 10
35.9175932874
 20
157.1649651293
 10
35.9126509903
 20
157.311788391
 10
35.9077234073
 20
157.4677982269
 10
35.9027800056
 20
157.6335463815
 10
35.8978079972
 20
157.8091380732
 10
35.89282017
 20
157.993763168
 10
35.887824355
 20
158.1866879835
 10
35.8828164165
 20
158.3875906154
  0
LWPOLYLINE
  5
59F
100
AcDbEntity
  8
0
100
AcDbPolyline
 62
7
  6
CONTINUOUS
 90
18
 70
0
 10
35.0073735579
 20
165.5459729473
 10
35.0123885986
 20
165.5141594744
 10
35.0174308967
 20
165.4694052958
 10
35.0224933708
 20
165.4117182259
 10
35.0275547766
 20
165.3414299419
 10
35.0326147368
 20
165.2587524011
 10
35.0376736286
 20
165.1639206932
 10
35.0427113397
 20
165.0576560472
 10
35.0477161644
 20
164.940687753
 10
35.0526998083
 20
164.8132458137
 10
35.0576772761
 20
164.6753834359
 10
35.0626495941
 20
164.5274821847
 10
35.0676157359
 20
164.370007474
 10
35.0725876276
 20
164.2030092752
 10
35.0775748836
 20
164.026560094
 10
35.0825678895
 20
163.8414250215
 10
35.0875497276
 20
163.6487488942
 10
35.0925113162
 20
163.4494788232
  0
LWPOLYLINE
  5
5A0
100
AcDbEntity
  8
0
100
AcDbPolyline
 62
7
  6
CONTINUOUS
 90
18
 70
0
 10
35.6073666268
 20
165.546008107
 10
35.6123781816
 20
165.5142387178
 10
35.6174169661
 20
165.4695464704
 10
35.622475913
 20
165.4119389422
 10
35.6275338205
 20
165.3417467049
 10
35.6325903024
 20
165.2591811045
 10
35.6376457449
 20
165.1644762753
 10
35.6426801044
 20
165.0583507007
 10
35.6476811258
 20
164.9415454043
 10
35.6526610642
 20
164.8142779224
 10
35.6576366416
 20
164.6765507147
 10
35.6626088553
 20
164.5287342389
 10
35.6675767079
 20
164.3712819666
 10
35.6725539291
 20
164.2041716172
 10
35.6775519304
 20
164.0273919522
 10
35.6825593003
 20
163.8417504998
 10
35.6875555335
 20
163.6485199144
 10
35.6925328353
 20
163.4485993014
  0
LWPOLYLINE
  5
5A1
100
AcDbEntity
  8
0
100
AcDbPolyline
 62
7
  6
CONTINUOUS
 90
19
 70
0
 10
37.2350037906
 20
163.1192566582
 10
37.2296839252
 20
163.3151257019
 10
37.2243640599
 20
163.5035672865
 10
37.2190441946
 20
163.6839967255
 10
37.2137243293
 20
163.8558541924
 10
37.208404464
 20
164.0186064571
 10
37.2030845986
 20
164.1717485407
 10
37.1977647333
 20
164.3148052822
 10
37.192444868
 20
164.4473328131
 10
37.1871250027
 20
164.5689199339
 10
37.1818051374
 20
164.6791893909
 10
37.176485272
 20
164.7777990459
 10
37.1711654067
 20
164.8644429383
 10
37.1658455414
 20
164.938852234
 10
37.1605256761
 20
165.00079606
 10
37.1552058108
 20
165.0500822203
 10
37.1498859454
 20
165.0865577925
 10
37.1445660801
 20
165.1101096021
 10
37.1413550128
 20
165.118038431
  0
LWPOLYLINE
  5
5A2
100
AcDbEntity
  8
0
100
AcDbPolyline
 62
7
  6
CONTINUOUS
 90
19
 70
0
 10
37.8361485717
 20
163.0761947551
 10
37.8308287064
 20
163.2735834059
 10
37.8255088411
 20
163.4636734928
 10
37.8201889758
 20
163.6458752144
 10
37.8148691104
 20
163.8196232452
 10
37.8095492451
 20
163.9843784893
 10
37.8042293798
 20
164.1396297529
 10
37.7989095145
 20
164.2848953309
 10
37.7935896492
 20
164.4197245012
 10
37.7882697838
 20
164.5436989231
 10
37.7829499185
 20
164.6564339354
 10
37.7776300532
 20
164.7575797503
 10
37.7723101879
 20
164.8468225377
 10
37.7669903226
 20
164.9238854002
 10
37.7616704572
 20
164.9885292312
 10
37.7563505919
 20
165.0405534574
 10
37.7510307266
 20
165.0797966608
 10
37.7457108613
 20
165.1061370797
 10
37.7413550128
 20
165.118038431
  0
LWPOLYLINE
  5
5A3
100
AcDbEntity
  8
0
100
AcDbPolyline
 62
7
  6
CONTINUOUS
 90
19
 70
0
 10
38.4372933529
 20
163.0328231639
 10
38.4319734875
 20
163.2317030544
 10
38.4266536222
 20
163.4234143251
 10
38.4213337569
 20
163.6073621445
 10
38.4160138916
 20
163.7829757693
 10
38.4106940263
 20
163.9497103152
 10
38.4053741609
 20
164.1070484472
 10
38.4000542956
 20
164.2545019851
 10
38.3947344303
 20
164.391613418
 10
38.389414565
 20
164.5179573242
 10
38.3840946997
 20
164.6331416904
 10
38.3787748343
 20
164.736809129
 10
38.373454969
 20
164.8286379862
 10
38.3681351037
 20
164.9083433405
 10
38.3628152384
 20
164.9756778864
 10
38.3574953731
 20
165.0304327018
 10
38.3521755077
 20
165.0724378967
 10
38.3468556424
 20
165.1015631394
 10
38.3413550128
 20
165.118038431
  0
LINE
  5
5A4
100
AcDbEntity
  8
0
100
AcDbLine
 62
7
  6
CONTINUOUS
 10
37.2456435212
 20
162.7076882805
 11
37.2350037906
 21
163.1192566582
  0
LINE
  5
5A5
100
AcDbEntity
  8
0
100
AcDbLine
 62
7
  6
CONTINUOUS
 10
37.8467883023
 20
162.661992294
 11
37.8361485717
 21
163.0761947551
  0
LINE
  5
5A6
100
AcDbEntity
  8
0
100
AcDbLine
 62
7
  6
CONTINUOUS
 10
38.5383707939
 20
158.791863633
 11
38.5277310633
 21
159.2075877724
  0
LINE
  5
5A7
100
AcDbEntity
  8
0
100
AcDbLine
 62
7
  6
CONTINUOUS
 10
38.4479330835
 20
162.6160461457
 11
38.4372933529
 21
163.0328231639
  0
LWPOLYLINE
  5
5A8
100
AcDbEntity
  8
0
100
AcDbPolyline
 62
7
  6
CONTINUOUS
 90
20
 70
0
 10
37.0024089646
 20
158.3885173144
 10
37.0074307997
 20
158.1870344823
 10
37.0124473009
 20
157.9933134102
 10
37.0174595276
 20
157.8078253718
 10
37.0224504983
 20
157.6316443556
 10
37.0274037213
 20
157.4656771779
 10
37.0323356885
 20
157.3096571081
 10
37.0372788943
 20
157.1629465008
 10
37.0422408982
 20
157.0258046827
 10
37.0472141408
 20
156.8989038972
 10
37.0522084382
 20
156.7824431092
 10
37.0572337277
 20
156.6766842545
 10
37.062280072
 20
156.5823087646
 10
37.0673274757
 20
156.5000315788
 10
37.0723763165
 20
156.4300854454
 10
37.0774262169
 20
156.3726802924
 10
37.0824560486
 20
156.3281448466
 10
37.0874587691
 20
156.2964865925
 10
37.092441421
 20
156.2775690612
 10
37.0940087904
 20
156.2742301882
  0
LINE
  5
5A9
100
AcDbEntity
  8
0
100
AcDbLine
 62
7
  6
CONTINUOUS
 10
37.3360812316
 20
158.8792651054
 11
37.325441501
 21
159.3000078709
  0
LWPOLYLINE
  5
5AA
100
AcDbEntity
  8
0
100
AcDbPolyline
 62
7
  6
CONTINUOUS
 90
20
 70
0
 10
37.60236916
 20
158.3901430535
 10
37.6074033149
 20
158.1881171311
 10
37.6124371375
 20
157.9936979
 10
37.6174703564
 20
157.8074337311
 10
37.6224820139
 20
157.6305599069
 10
37.6274569983
 20
157.4639417819
 10
37.6324104212
 20
157.3073660406
 10
37.6373666603
 20
157.1604315224
 10
37.64232787
 20
157.023493656
 10
37.6472918958
 20
156.8970055884
 10
37.6522766516
 20
156.7809301197
 10
37.657294685
 20
156.6754729699
 10
37.6623334485
 20
156.5813748411
 10
37.667373213
 20
156.4993421584
 10
37.6724144155
 20
156.4296051182
 10
37.677456619
 20
156.3723730622
 10
37.6824787837
 20
156.3279723874
 10
37.6874738961
 20
156.2964100742
 10
37.6924489697
 20
156.2775499818
 10
37.6940087904
 20
156.2742301882
  0
LINE
  5
5AB
100
AcDbEntity
  8
0
100
AcDbLine
 62
7
  6
CONTINUOUS
 10
37.9372260128
 20
158.835414485
 11
37.9265862821
 21
159.2536779925
  0
LWPOLYLINE
  5
5AC
100
AcDbEntity
  8
0
100
AcDbPolyline
 62
7
  6
CONTINUOUS
 90
20
 70
0
 10
38.2023872404
 20
158.3894045402
 10
38.2074322944
 20
158.1869756103
 10
38.2124780908
 20
157.9921488137
 10
38.2175243448
 20
157.805481761
 10
38.2225499493
 20
157.6282234797
 10
38.2275437068
 20
157.4611197158
 10
38.2325168147
 20
157.3041081724
 10
38.2374817571
 20
157.157138178
 10
38.242432753
 20
157.0207109884
 10
38.2473755833
 20
156.8949654236
 10
38.2523400751
 20
156.7795252655
 10
38.2573422453
 20
156.6745291002
 10
38.262366077
 20
156.5808046105
 10
38.2673933466
 20
156.4990389954
 10
38.2724249687
 20
156.4294721965
 10
38.2774600287
 20
156.3723386349
 10
38.2824775589
 20
156.3279816712
 10
38.2874705704
 20
156.296426887
 10
38.2924460522
 20
156.2775573523
 10
38.2940087904
 20
156.2742301882
  0
LWPOLYLINE
  5
5AD
100
AcDbEntity
  8
0
100
AcDbPolyline
 62
7
  6
CONTINUOUS
 90
20
 70
0
 10
38.1728366725
 20
163.4519059868
 10
38.167784439
 20
163.6546631205
 10
38.1627315742
 20
163.8497948415
 10
38.1576783174
 20
164.0367433167
 10
38.1526458748
 20
164.2142541888
 10
38.1476474559
 20
164.3815152413
 10
38.1426698513
 20
164.5386612816
 10
38.1376946385
 20
164.6859125979
 10
38.1327219027
 20
164.8228817586
 10
38.1277515588
 20
164.949215018
 10
38.1227649288
 20
165.064998485
 10
38.1177491687
 20
165.1700615922
 10
38.1127171225
 20
165.263689313
 10
38.107688644
 20
165.3452082911
 10
38.1026645604
 20
165.4144080173
 10
38.0976440445
 20
165.4711376655
 10
38.0926444694
 20
165.5151360903
 10
38.0876716261
 20
165.5464109506
 10
38.0827197237
 20
165.5650934631
 10
38.081183976
 20
165.5683526058
  0
LWPOLYLINE
  5
5AE
100
AcDbEntity
  8
0
100
AcDbPolyline
 62
7
  6
CONTINUOUS
 90
20
 70
0
 10
38.802392847
 20
158.3891755502
 10
38.8074449994
 20
158.1864752321
 10
38.8124978496
 20
157.9914016177
 10
38.8175511412
 20
157.804513301
 10
38.8225837569
 20
157.6270613914
 10
38.8275860515
 20
157.4597425795
 10
38.8325676701
 20
157.3025525185
 10
38.837536431
 20
157.1555756714
 10
38.8424837987
 20
157.0193583879
 10
38.8474183086
 20
156.8939250427
 10
38.852373385
 20
156.7787881711
 10
38.8573651432
 20
156.6740750509
 10
38.8623774678
 20
156.5806056589
 10
38.8673954375
 20
156.4990075229
 10
38.8724210395
 20
156.4295216797
 10
38.8774522865
 20
156.3724168167
 10
38.8824682948
 20
156.3280519193
 10
38.8874621033
 20
156.2964697167
 10
38.8924406731
 20
156.2775709529
 10
38.8940087904
 20
156.2742301882
  0
LWPOLYLINE
  5
5AF
100
AcDbEntity
  8
0
100
AcDbPolyline
 62
7
  6
CONTINUOUS
 90
20
 70
0
 10
38.7728243019
 20
163.4524113279
 10
38.7677627723
 20
163.6555165793
 10
38.7627006531
 20
163.8509642648
 10
38.7576381704
 20
164.0381943346
 10
38.7525966206
 20
164.2159471489
 10
38.7475887621
 20
164.3834238689
 10
38.7426018365
 20
164.5407414398
 10
38.7376188645
 20
164.6880772745
 10
38.7326397091
 20
164.825057823
 10
38.7276645072
 20
164.9513313891
 10
38.7226766904
 20
165.066946439
 10
38.7176640517
 20
165.1717441536
 10
38.712638798
 20
165.2650519897
 10
38.707620982
 20
165.3462220387
 10
38.7026143845
 20
165.4150366987
 10
38.6976152246
 20
165.4714271551
 10
38.6926322115
 20
165.5152285361
 10
38.6876682483
 20
165.5464279403
 10
38.6827204318
 20
165.5650916833
 10
38.681183976
 20
165.5683526058
  0
LWPOLYLINE
  5
5B0
100
AcDbEntity
  8
0
100
AcDbPolyline
 62
7
  6
CONTINUOUS
 90
20
 70
0
 10
36.9728526377
 20
163.4512537379
 10
36.9678216298
 20
163.6531978388
 10
36.9627884212
 20
163.8476441149
 10
36.9577534026
 20
164.0340280604
 10
36.9527375787
 20
164.2110998184
 10
36.9477543361
 20
164.3780363128
 10
36.9427902882
 20
164.5349733494
 10
36.9378262789
 20
164.6821463224
 10
36.9328628296
 20
164.8191440162
 10
36.9278994191
 20
164.9456126163
 10
36.9229153273
 20
165.0616701269
 10
36.9178970538
 20
165.167130226
 10
36.9128580991
 20
165.2612292607
 10
36.9078182449
 20
165.3432603439
 10
36.9027770861
 20
165.4129936083
 10
36.8977350278
 20
165.4702210359
 10
36.8927130666
 20
165.5146173499
 10
36.8877182013
 20
165.5461761007
 10
36.8827434331
 20
165.5650337304
 10
36.881183976
 20
165.5683526058
  0
LWPOLYLINE
  5
5B1
100
AcDbEntity
  8
0
100
AcDbPolyline
 62
7
  6
CONTINUOUS
 90
20
 70
0
 10
37.5728444286
 20
163.4515891224
 10
37.5677993
 20
163.6540776605
 10
37.5627535094
 20
163.8489650758
 10
37.5577073073
 20
164.0356952035
 10
37.5526818247
 20
164.2130179679
 10
37.5476905287
 20
164.3801137539
 10
37.5427199522
 20
164.5371278258
 10
37.5377508259
 20
164.6843059324
 10
37.5327834212
 20
164.8212511754
 10
37.5278174667
 20
164.94761046
 10
37.5228328785
 20
165.0634960131
 10
37.5178163689
 20
165.1687308185
 10
37.5127812256
 20
165.2625718822
 10
37.5077472278
 20
165.344328765
 10
37.5027142313
 20
165.4137844396
 10
37.4976823804
 20
165.4707519459
 10
37.4926718868
 20
165.5149290406
 10
37.4876894879
 20
165.5463210149
 10
37.4827284463
 20
165.565071521
 10
37.481183976
 20
165.5683526058
  0
LINE
  5
5B2
100
AcDbEntity
  8
0
100
AcDbLine
 62
7
  6
CONTINUOUS
 10
37.2562832518
 20
162.2739661592
 11
37.2456435212
 21
162.7076882805
  0
LINE
  5
5B3
100
AcDbEntity
  8
0
100
AcDbLine
 62
7
  6
CONTINUOUS
 10
37.857428033
 20
162.2262027815
 11
37.8467883023
 21
162.661992294
  0
LINE
  5
5B4
100
AcDbEntity
  8
0
100
AcDbLine
 62
7
  6
CONTINUOUS
 10
38.5277310633
 20
159.2075877724
 11
38.5170913327
 21
159.6445641604
  0
LINE
  5
5B5
100
AcDbEntity
  8
0
100
AcDbLine
 62
7
  6
CONTINUOUS
 10
38.4585728141
 20
162.1782518708
 11
38.4479330835
 21
162.6160461457
  0
LINE
  5
5B6
100
AcDbEntity
  8
0
100
AcDbLine
 62
7
  6
CONTINUOUS
 10
37.325441501
 20
159.3000078709
 11
37.3148017704
 21
159.7408567505
  0
LINE
  5
5B7
100
AcDbEntity
  8
0
100
AcDbLine
 62
7
  6
CONTINUOUS
 10
37.9265862821
 20
159.2536779925
 11
37.9159465515
 21
159.6926221674
  0
LINE
  5
5B8
100
AcDbEntity
  8
0
100
AcDbLine
 62
7
  6
CONTINUOUS
 10
36.9923726293
 20
158.8115969615
 11
37.0024089646
 21
158.3885173144
  0
LINE
  5
5B9
100
AcDbEntity
  8
0
100
AcDbLine
 62
7
  6
CONTINUOUS
 10
36.8925181392
 20
163.4491999694
 11
36.9025127671
 21
163.0276269294
  0
LINE
  5
5BA
100
AcDbEntity
  8
0
100
AcDbLine
 62
7
  6
CONTINUOUS
 10
37.0827539177
 20
158.3901430535
 11
37.0727039413
 21
158.8139165458
  0
LINE
  5
5BB
100
AcDbEntity
  8
0
100
AcDbLine
 62
7
  6
CONTINUOUS
 10
36.9828893919
 20
163.0279799932
 11
36.9728526377
 21
163.4512537379
  0
LINE
  5
5BC
100
AcDbEntity
  8
0
100
AcDbLine
 62
7
  6
CONTINUOUS
 10
37.5923191836
 20
158.8139165458
 11
37.60236916
 21
158.3901430535
  0
LINE
  5
5BD
100
AcDbEntity
  8
0
100
AcDbLine
 62
7
  6
CONTINUOUS
 10
37.49246788
 20
163.4512537379
 11
37.5025046342
 21
163.0279799932
  0
LINE
  5
5BE
100
AcDbEntity
  8
0
100
AcDbLine
 62
7
  6
CONTINUOUS
 10
37.6827719981
 20
158.3894045402
 11
37.6727035164
 21
158.8139349913
  0
LINE
  5
5BF
100
AcDbEntity
  8
0
100
AcDbLine
 62
7
  6
CONTINUOUS
 10
37.5829130715
 20
163.026951981
 11
37.5728444286
 21
163.4515891224
  0
LINE
  5
5C0
100
AcDbEntity
  8
0
100
AcDbLine
 62
7
  6
CONTINUOUS
 10
38.1923187586
 20
158.8139349913
 11
38.2023872404
 21
158.3894045402
  0
LINE
  5
5C1
100
AcDbEntity
  8
0
100
AcDbLine
 62
7
  6
CONTINUOUS
 10
38.0924596709
 20
163.4515891224
 11
38.1025283138
 21
163.026951981
  0
LINE
  5
5C2
100
AcDbEntity
  8
0
100
AcDbLine
 62
7
  6
CONTINUOUS
 10
38.2827776048
 20
158.3891755502
 11
38.2726949725
 21
158.8143058642
  0
LINE
  5
5C3
100
AcDbEntity
  8
0
100
AcDbLine
 62
7
  6
CONTINUOUS
 10
38.1829194753
 20
163.0266739522
 11
38.1728366725
 21
163.4519059868
  0
LINE
  5
5C4
100
AcDbEntity
  8
0
100
AcDbLine
 62
7
  6
CONTINUOUS
 10
38.7923102148
 20
158.8143058642
 11
38.802392847
 21
158.3891755502
  0
LINE
  5
5C5
100
AcDbEntity
  8
0
100
AcDbLine
 62
7
  6
CONTINUOUS
 10
38.6924519147
 20
163.4519059868
 11
38.7025347175
 21
163.0266739522
  0
LINE
  5
5C6
100
AcDbEntity
  8
0
100
AcDbLine
 62
7
  6
CONTINUOUS
 10
38.8827835236
 20
158.3889338207
 11
38.8726823785
 21
158.8148525764
  0
LINE
  5
5C7
100
AcDbEntity
  8
0
100
AcDbLine
 62
7
  6
CONTINUOUS
 10
38.7829256529
 20
163.026405732
 11
38.7728243019
 21
163.4524113279
  0
LINE
  5
5C8
100
AcDbEntity
  8
0
100
AcDbLine
 62
7
  6
CONTINUOUS
 10
37.3148017704
 20
159.7408567505
 11
37.3041620397
 21
160.1963446203
  0
LINE
  5
5C9
100
AcDbEntity
  8
0
100
AcDbLine
 62
7
  6
CONTINUOUS
 10
37.9159465515
 20
159.6926221674
 11
37.9053068209
 21
160.1468035066
  0
LINE
  5
5CA
100
AcDbEntity
  8
0
100
AcDbLine
 62
7
  6
CONTINUOUS
 10
38.5170913327
 20
159.6445641604
 11
38.506451602
 21
160.0973736973
  0
LINE
  5
5CB
100
AcDbEntity
  8
0
100
AcDbLine
 62
7
  6
CONTINUOUS
 10
37.2722428478
 20
161.5936694717
 11
37.2562832518
 21
162.2739661592
  0
LINE
  5
5CC
100
AcDbEntity
  8
0
100
AcDbLine
 62
7
  6
CONTINUOUS
 10
37.8733876289
 20
161.5439216373
 11
37.857428033
 21
162.2262027815
  0
LINE
  5
5CD
100
AcDbEntity
  8
0
100
AcDbLine
 62
7
  6
CONTINUOUS
 10
38.4745324101
 20
161.4940843229
 11
38.4585728141
 21
162.1782518708
  0
LINE
  5
5CE
100
AcDbEntity
  8
0
100
AcDbLine
 62
7
  6
CONTINUOUS
 10
37.3041620397
 20
160.1963446203
 11
37.2722428478
 21
161.5936694717
  0
LINE
  5
5CF
100
AcDbEntity
  8
0
100
AcDbLine
 62
7
  6
CONTINUOUS
 10
37.9053068209
 20
160.1468035066
 11
37.8733876289
 21
161.5439216373
  0
LINE
  5
5D0
100
AcDbEntity
  8
0
100
AcDbLine
 62
7
  6
CONTINUOUS
 10
38.506451602
 20
160.0973736973
 11
38.4745324101
 21
161.4940843229
  0
LINE
  5
5D1
100
AcDbEntity
  8
0
100
AcDbLine
 62
7
  6
CONTINUOUS
 10
36.9824255103
 20
159.2539028023
 11
36.9923726293
 21
158.8115969615
  0
LINE
  5
5D2
100
AcDbEntity
  8
0
100
AcDbLine
 62
7
  6
CONTINUOUS
 10
36.9025127671
 20
163.0276269294
 11
36.91239222
 21
162.588238069
  0
LINE
  5
5D3
100
AcDbEntity
  8
0
100
AcDbLine
 62
7
  6
CONTINUOUS
 10
37.0727039413
 20
158.8139165458
 11
37.0627591235
 21
159.2562278892
  0
LINE
  5
5D4
100
AcDbEntity
  8
0
100
AcDbLine
 62
7
  6
CONTINUOUS
 10
36.9928088274
 20
162.5867901437
 11
36.9828893919
 21
163.0279799932
  0
LINE
  5
5D5
100
AcDbEntity
  8
0
100
AcDbLine
 62
7
  6
CONTINUOUS
 10
37.5823743658
 20
159.2562278892
 11
37.5923191836
 21
158.8139165458
  0
LINE
  5
5D6
100
AcDbEntity
  8
0
100
AcDbLine
 62
7
  6
CONTINUOUS
 10
37.5025046342
 20
163.0279799932
 11
37.5124240697
 21
162.5867901437
  0
LINE
  5
5D7
100
AcDbEntity
  8
0
100
AcDbLine
 62
7
  6
CONTINUOUS
 10
37.6727035164
 20
158.8139349913
 11
37.6627446207
 21
159.256887294
  0
LINE
  5
5D8
100
AcDbEntity
  8
0
100
AcDbLine
 62
7
  6
CONTINUOUS
 10
37.5928755168
 20
162.5837577687
 11
37.5829130715
 21
163.026951981
  0
LINE
  5
5D9
100
AcDbEntity
  8
0
100
AcDbLine
 62
7
  6
CONTINUOUS
 10
38.1823598629
 20
159.256887294
 11
38.1923187586
 21
158.8139349913
  0
LINE
  5
5DA
100
AcDbEntity
  8
0
100
AcDbLine
 62
7
  6
CONTINUOUS
 10
38.1025283138
 20
163.026951981
 11
38.112490759
 21
162.5837577687
  0
LINE
  5
5DB
100
AcDbEntity
  8
0
100
AcDbLine
 62
7
  6
CONTINUOUS
 10
38.2726949725
 20
158.8143058642
 11
38.2627216277
 21
159.2579327991
  0
LINE
  5
5DC
100
AcDbEntity
  8
0
100
AcDbLine
 62
7
  6
CONTINUOUS
 10
38.1928989627
 20
162.5826914862
 11
38.1829194753
 21
163.0266739522
  0
LINE
  5
5DD
100
AcDbEntity
  8
0
100
AcDbLine
 62
7
  6
CONTINUOUS
 10
38.7823368699
 20
159.2579327991
 11
38.7923102148
 21
158.8143058642
  0
LINE
  5
5DE
100
AcDbEntity
  8
0
100
AcDbLine
 62
7
  6
CONTINUOUS
 10
38.7025347175
 20
163.0266739522
 11
38.712514205
 21
162.5826914862
  0
LINE
  5
5DF
100
AcDbEntity
  8
0
100
AcDbLine
 62
7
  6
CONTINUOUS
 10
38.8726823785
 20
158.8148525764
 11
38.8626899257
 21
159.2593744622
  0
LINE
  5
5E0
100
AcDbEntity
  8
0
100
AcDbLine
 62
7
  6
CONTINUOUS
 10
38.7929256353
 20
162.5814783394
 11
38.7829256529
 21
163.026405732
  0
LINE
  5
5E1
100
AcDbEntity
  8
0
100
AcDbLine
 62
7
  6
CONTINUOUS
 10
36.91239222
 20
162.588238069
 11
36.9222980003
 21
162.1297851611
  0
LINE
  5
5E2
100
AcDbEntity
  8
0
100
AcDbLine
 62
7
  6
CONTINUOUS
 10
37.0627591235
 20
159.2562278892
 11
37.052831265
 21
159.7157838115
  0
LINE
  5
5E3
100
AcDbEntity
  8
0
100
AcDbLine
 62
7
  6
CONTINUOUS
 10
37.5124240697
 20
162.5867901437
 11
37.5223392377
 21
162.1278460049
  0
LINE
  5
5E4
100
AcDbEntity
  8
0
100
AcDbLine
 62
7
  6
CONTINUOUS
 10
37.6627446207
 20
159.256887294
 11
37.6528087902
 21
159.7168408309
  0
LINE
  5
5E5
100
AcDbEntity
  8
0
100
AcDbLine
 62
7
  6
CONTINUOUS
 10
38.112490759
 20
162.5837577687
 11
38.1224077406
 21
162.1246242184
  0
LINE
  5
5E6
100
AcDbEntity
  8
0
100
AcDbLine
 62
7
  6
CONTINUOUS
 10
38.2627216277
 20
159.2579327991
 11
38.2527746293
 21
159.7184475876
  0
LINE
  5
5E7
100
AcDbEntity
  8
0
100
AcDbLine
 62
7
  6
CONTINUOUS
 10
38.712514205
 20
162.5826914862
 11
38.7224298733
 21
162.1235831527
  0
LINE
  5
5E8
100
AcDbEntity
  8
0
100
AcDbLine
 62
7
  6
CONTINUOUS
 10
38.8626899257
 20
159.2593744622
 11
38.8527291055
 21
159.7205890422
  0
LINE
  5
5E9
100
AcDbEntity
  8
0
100
AcDbLine
 62
7
  6
CONTINUOUS
 10
36.9675137529
 20
159.9492752825
 11
36.9824255103
 21
159.2539028023
  0
LINE
  5
5EA
100
AcDbEntity
  8
0
100
AcDbLine
 62
7
  6
CONTINUOUS
 10
37.0076902666
 20
161.8927716385
 11
36.9928088274
 21
162.5867901437
  0
LINE
  5
5EB
100
AcDbEntity
  8
0
100
AcDbLine
 62
7
  6
CONTINUOUS
 10
37.5674812872
 20
159.9508213232
 11
37.5823743658
 21
159.2562278892
  0
LINE
  5
5EC
100
AcDbEntity
  8
0
100
AcDbLine
 62
7
  6
CONTINUOUS
 10
37.6077386528
 20
161.8904673577
 11
37.5928755168
 21
162.5837577687
  0
LINE
  5
5ED
100
AcDbEntity
  8
0
100
AcDbLine
 62
7
  6
CONTINUOUS
 10
38.1674572944
 20
159.9519639469
 11
38.1823598629
 21
159.256887294
  0
LINE
  5
5EE
100
AcDbEntity
  8
0
100
AcDbLine
 62
7
  6
CONTINUOUS
 10
38.2077509956
 20
161.8898795201
 11
38.1928989627
 21
162.5826914862
  0
LINE
  5
5EF
100
AcDbEntity
  8
0
100
AcDbLine
 62
7
  6
CONTINUOUS
 10
38.767419151
 20
159.9537806013
 11
38.7823368699
 21
159.2579327991
  0
LINE
  5
5F0
100
AcDbEntity
  8
0
100
AcDbLine
 62
7
  6
CONTINUOUS
 10
38.8077843
 20
161.8882932894
 11
38.7929256353
 21
162.5814783394
  0
LINE
  5
5F1
100
AcDbEntity
  8
0
100
AcDbLine
 62
7
  6
CONTINUOUS
 10
36.9222980003
 20
162.1297851611
 11
36.9372989873
 21
161.4124342116
  0
LINE
  5
5F2
100
AcDbEntity
  8
0
100
AcDbLine
 62
7
  6
CONTINUOUS
 10
37.052831265
 20
159.7157838115
 11
37.0378600005
 21
160.4317842472
  0
LINE
  5
5F3
100
AcDbEntity
  8
0
100
AcDbLine
 62
7
  6
CONTINUOUS
 10
37.5223392377
 20
162.1278460049
 11
37.5373123847
 21
161.4117854726
  0
LINE
  5
5F4
100
AcDbEntity
  8
0
100
AcDbLine
 62
7
  6
CONTINUOUS
 10
37.6528087902
 20
159.7168408309
 11
37.6378399745
 21
160.4327540001
  0
LINE
  5
5F5
100
AcDbEntity
  8
0
100
AcDbLine
 62
7
  6
CONTINUOUS
 10
38.1224077406
 20
162.1246242184
 11
38.1373282122
 21
161.4110190501
  0
LINE
  5
5F6
100
AcDbEntity
  8
0
100
AcDbLine
 62
7
  6
CONTINUOUS
 10
38.2527746293
 20
159.7184475876
 11
38.2378013037
 21
160.4346266798
  0
LINE
  5
5F7
100
AcDbEntity
  8
0
100
AcDbLine
 62
7
  6
CONTINUOUS
 10
38.7224298733
 20
162.1235831527
 11
38.7373193274
 21
161.4114492871
  0
LINE
  5
5F8
100
AcDbEntity
  8
0
100
AcDbLine
 62
7
  6
CONTINUOUS
 10
38.8527291055
 20
159.7205890422
 11
38.8377544636
 21
160.436895074
  0
LINE
  5
5F9
100
AcDbEntity
  8
0
100
AcDbLine
 62
7
  6
CONTINUOUS
 10
36.9372989873
 20
161.4124342116
 11
36.9675137529
 21
159.9492752825
  0
LINE
  5
5FA
100
AcDbEntity
  8
0
100
AcDbLine
 62
7
  6
CONTINUOUS
 10
37.0378600005
 20
160.4317842472
 11
37.0076902666
 21
161.8927716385
  0
LINE
  5
5FB
100
AcDbEntity
  8
0
100
AcDbLine
 62
7
  6
CONTINUOUS
 10
37.5373123847
 20
161.4117854726
 11
37.5674812872
 21
159.9508213232
  0
LINE
  5
5FC
100
AcDbEntity
  8
0
100
AcDbLine
 62
7
  6
CONTINUOUS
 10
37.6378399745
 20
160.4327540001
 11
37.6077386528
 21
161.8904673577
  0
LINE
  5
5FD
100
AcDbEntity
  8
0
100
AcDbLine
 62
7
  6
CONTINUOUS
 10
38.1373282122
 20
161.4110190501
 11
38.1674572944
 21
159.9519639469
  0
LINE
  5
5FE
100
AcDbEntity
  8
0
100
AcDbLine
 62
7
  6
CONTINUOUS
 10
38.2378013037
 20
160.4346266798
 11
38.2077509956
 21
161.8898795201
  0
LINE
  5
5FF
100
AcDbEntity
  8
0
100
AcDbLine
 62
7
  6
CONTINUOUS
 10
38.7373193274
 20
161.4114492871
 11
38.767419151
 21
159.9537806013
  0
LINE
  5
600
100
AcDbEntity
  8
0
100
AcDbLine
 62
7
  6
CONTINUOUS
 10
38.8377544636
 20
160.436895074
 11
38.8077843
 21
161.8882932894
  0
LINE
  5
601
100
AcDbEntity
  8
0
100
AcDbLine
 62
7
  6
CONTINUOUS
 10
37.9940087904
 20
165.5683526059
 11
37.737596382
 21
165.1245435471
  0
LINE
  5
602
100
AcDbEntity
  8
0
100
AcDbLine
 62
7
  6
CONTINUOUS
 10
38.5940087904
 20
165.5683526059
 11
38.337596382
 21
165.1245435471
  0
LINE
  5
603
100
AcDbEntity
  8
0
100
AcDbLine
 62
7
  6
CONTINUOUS
 10
39.1940087904
 20
165.5683526059
 11
38.937596382
 21
165.1245435471
  0
LINE
  5
604
100
AcDbEntity
  8
0
100
AcDbLine
 62
7
  6
CONTINUOUS
 10
34.3354971371
 20
156.5413292275
 11
34.437596382
 21
156.718039247
  0
LINE
  5
605
100
AcDbEntity
  8
0
100
AcDbLine
 62
7
  6
CONTINUOUS
 10
39.7940087904
 20
165.5683526059
 11
39.537596382
 21
165.1245435471
  0
LINE
  5
606
100
AcDbEntity
  8
0
100
AcDbLine
 62
7
  6
CONTINUOUS
 10
36.1940087904
 20
165.5683526059
 11
36.1974040043
 21
165.5712913971
  0
LINE
  5
607
100
AcDbEntity
  8
0
100
AcDbLine
 62
7
  6
CONTINUOUS
 10
36.7940087904
 20
165.5683526059
 11
36.7974040043
 21
165.5712913971
  0
LINE
  5
608
100
AcDbEntity
  8
0
100
AcDbLine
 62
7
  6
CONTINUOUS
 10
37.3940087904
 20
165.5683526059
 11
37.3974040043
 21
165.5712913971
  0
LINE
  5
609
100
AcDbEntity
  8
0
100
AcDbLine
 62
7
  6
CONTINUOUS
 10
37.9940087904
 20
165.5683526059
 11
37.9974040043
 21
165.5712913971
  0
LINE
  5
60A
100
AcDbEntity
  8
0
100
AcDbLine
 62
7
  6
CONTINUOUS
 10
38.5940087904
 20
165.5683526059
 11
38.5974040043
 21
165.5712913971
  0
LINE
  5
60B
100
AcDbEntity
  8
0
100
AcDbLine
 62
7
  6
CONTINUOUS
 10
34.5577957961
 20
165.432715149
 11
34.1971975572
 21
165.2245236587
  0
LINE
  5
60C
100
AcDbEntity
  8
0
100
AcDbLine
 62
7
  6
CONTINUOUS
 10
34.1077957961
 20
165.1729075279
 11
32.6075963832
 21
164.306766993
  0
LINE
  5
60D
100
AcDbEntity
  8
0
100
AcDbLine
 62
7
  6
CONTINUOUS
 10
32.6075963832
 20
157.5358158012
 11
34.3327957961
 21
156.5397714557
  0
LINE
  5
60E
100
AcDbEntity
  8
0
100
AcDbLine
 62
7
  6
CONTINUOUS
 10
34.7827957961
 20
156.2799638345
 11
34.6471975572
 21
156.3582515143
  0
LINE
  5
60F
100
AcDbEntity
  8
0
100
AcDbLine
 62
7
  6
CONTINUOUS
 10
36.4940087904
 20
156.2742301882
 11
36.4974040043
 21
156.2712913971
  0
LINE
  5
610
100
AcDbEntity
  8
0
100
AcDbLine
 62
7
  6
CONTINUOUS
 10
37.0940087904
 20
156.2742301882
 11
37.0974040043
 21
156.2712913971
  0
LINE
  5
611
100
AcDbEntity
  8
0
100
AcDbLine
 62
7
  6
CONTINUOUS
 10
37.6940087904
 20
156.2742301882
 11
37.6974040043
 21
156.2712913971
  0
LINE
  5
612
100
AcDbEntity
  8
0
100
AcDbLine
 62
7
  6
CONTINUOUS
 10
38.2940087904
 20
156.2742301882
 11
38.2974040043
 21
156.2712913971
  0
LINE
  5
613
100
AcDbEntity
  8
0
100
AcDbLine
 62
7
  6
CONTINUOUS
 10
38.8940087904
 20
156.2742301882
 11
38.8974040043
 21
156.2712913971
  0
LWPOLYLINE
  5
614
100
AcDbEntity
  8
0
100
AcDbPolyline
 62
7
  6
CONTINUOUS
 90
3
 70
0
 10
37.777788762
 20
156.2712913971
 10
37.7728308099
 20
156.2775573523
 10
37.7678553281
 20
156.296426887
  0
LWPOLYLINE
  5
615
100
AcDbEntity
  8
0
100
AcDbPolyline
 62
7
  6
CONTINUOUS
 90
3
 70
0
 10
38.377788762
 20
156.2712913971
 10
38.3728254309
 20
156.2775709529
 10
38.367846861
 20
156.2964697167
  0
LWPOLYLINE
  5
616
100
AcDbEntity
  8
0
100
AcDbPolyline
 62
7
  6
CONTINUOUS
 90
3
 70
0
 10
38.977788762
 20
156.2712913971
 10
38.9728188019
 20
156.277587734
 10
38.9678372093
 20
156.296518583
  0
LWPOLYLINE
  5
617
100
AcDbEntity
  8
0
100
AcDbPolyline
 62
7
  6
CONTINUOUS
 90
3
 70
0
 10
39.577788762
 20
156.2712913971
 10
39.5728144333
 20
156.2775988054
 10
39.5678320635
 20
156.2965446552
  0
LINE
  5
618
100
AcDbEntity
  8
0
100
AcDbLine
 62
7
  6
CONTINUOUS
 10
38.0338377534
 20
156.7245443632
 11
38.2940087904
 21
156.2742301882
  0
LINE
  5
619
100
AcDbEntity
  8
0
100
AcDbLine
 62
7
  6
CONTINUOUS
 10
38.6338377534
 20
156.7245443632
 11
38.8940087904
 21
156.2742301882
  0
LINE
  5
61A
100
AcDbEntity
  8
0
100
AcDbLine
 62
7
  6
CONTINUOUS
 10
34.1413550128
 20
165.118038431
 11
34.1105795285
 21
165.171302364
  0
LINE
  5
61B
100
AcDbEntity
  8
0
100
AcDbLine
 62
7
  6
CONTINUOUS
 10
39.2338377534
 20
156.7245443632
 11
39.4940087904
 21
156.2742301882
  0
LINE
  5
61C
100
AcDbEntity
  8
0
100
AcDbLine
 62
7
  6
CONTINUOUS
 10
34.7413550128
 20
165.118038431
 11
34.5604194762
 21
165.4312020609
  0
LWPOLYLINE
  5
61D
100
AcDbEntity
  8
0
100
AcDbPolyline
 62
7
  6
CONTINUOUS
 90
20
 70
0
 10
38.0338377534
 20
156.7245443632
 10
38.0329835885
 20
156.7261905423
 10
38.0276637232
 20
156.7439908857
 10
38.0223438579
 20
156.7747523305
 10
38.0170239926
 20
156.8183794317
 10
38.0117041273
 20
156.8747368255
 10
38.0063842619
 20
156.9436496492
 10
38.0010643966
 20
157.0249040838
 10
37.9957445313
 20
157.1182480176
 10
37.990424666
 20
157.223391828
 10
37.9851048007
 20
157.3400092805
 10
37.9797849353
 20
157.4677385409
 10
37.97446507
 20
157.6061832976
 10
37.9691452047
 20
157.7549139918
 10
37.9638253394
 20
157.91346915
 10
37.9585054741
 20
158.0813568159
 10
37.9531856087
 20
158.2580560766
 10
37.9478657434
 20
158.4430186794
 10
37.9425458781
 20
158.6356707323
 10
37.9372260128
 20
158.835414485
  0
LWPOLYLINE
  5
61E
100
AcDbEntity
  8
0
100
AcDbPolyline
 62
7
  6
CONTINUOUS
 90
4
 70
0
 10
34.1105795285
 20
165.171302364
 10
34.11174331
 20
165.1687266803
 10
34.1157058281
 20
165.1515421506
 10
34.1196833504
 20
165.1212450589
  0
LWPOLYLINE
  5
61F
100
AcDbEntity
  8
0
100
AcDbPolyline
 62
7
  6
CONTINUOUS
 90
4
 70
0
 10
34.5604194762
 20
165.4312020609
 10
34.5616202329
 20
165.4284894619
 10
34.5654442378
 20
165.4114047369
 10
34.5692678108
 20
165.3815014763
  0
LWPOLYLINE
  5
620
100
AcDbEntity
  8
0
100
AcDbPolyline
 62
7
  6
CONTINUOUS
 90
19
 70
0
 10
39.2338377534
 20
156.7245443632
 10
39.2299532855
 20
156.7347370993
 10
39.2246334202
 20
156.7599297029
 10
39.2193135549
 20
156.7980339538
 10
39.2139936896
 20
156.8489316242
 10
39.2086738242
 20
156.9124647914
 10
39.2033539589
 20
156.9884363283
 10
39.1980340936
 20
157.0766105145
 10
39.1927142283
 20
157.1767137679
 10
39.187394363
 20
157.2884354936
 10
39.1820744976
 20
157.4114290474
 10
39.1767546323
 20
157.5453128117
 10
39.171434767
 20
157.6896713791
 10
39.1661149017
 20
157.8440568417
 10
39.1607950364
 20
158.0079901808
 10
39.155475171
 20
158.1809627527
 10
39.1501553057
 20
158.3624378677
 10
39.1448354404
 20
158.5518524545
 10
39.1395155751
 20
158.7486188079
  0
LWPOLYLINE
  5
621
100
AcDbEntity
  8
0
100
AcDbPolyline
 62
7
  6
CONTINUOUS
 90
19
 70
0
 10
38.6338377534
 20
156.7245443632
 10
38.6288085044
 20
156.7390634716
 10
38.6234886391
 20
156.7670425063
 10
38.6181687737
 20
156.8079111191
 10
38.6128489084
 20
156.8615425049
 10
38.6075290431
 20
156.9277702593
 10
38.6022091778
 20
157.0063888943
 10
38.5968893125
 20
157.0971544765
 10
38.5915694471
 20
157.1997853831
 10
38.5862495818
 20
157.3139631766
 10
38.5809297165
 20
157.4393335924
 10
38.5756098512
 20
157.5755076379
 10
38.5702899859
 20
157.7220627997
 10
38.5649701205
 20
157.8785443543
 10
38.5596502552
 20
158.0444667794
 10
38.5543303899
 20
158.2193152598
 10
38.5490105246
 20
158.4025472851
 10
38.5436906593
 20
158.593594333
 10
38.5383707939
 20
158.791863633
  0
LWPOLYLINE
  5
622
100
AcDbEntity
  8
0
100
AcDbPolyline
 62
7
  6
CONTINUOUS
 90
18
 70
0
 10
38.0073047302
 20
165.5463210149
 10
38.0122871291
 20
165.5149290406
 10
38.0172976227
 20
165.4707519459
 10
38.0223294736
 20
165.4137844396
 10
38.0273624701
 20
165.344328765
 10
38.0323964679
 20
165.2625718822
 10
38.0374316112
 20
165.1687308185
 10
38.0424481208
 20
165.0634960131
 10
38.047432709
 20
164.94761046
 10
38.0523986635
 20
164.8212511754
 10
38.0573660682
 20
164.6843059324
 10
38.0623351945
 20
164.5371278258
 10
38.0673057709
 20
164.3801137539
 10
38.072297067
 20
164.2130179679
 10
38.0773225496
 20
164.0356952035
 10
38.0823687517
 20
163.8489650758
 10
38.0874145423
 20
163.6540776605
 10
38.0924596709
 20
163.4515891224
  0
LWPOLYLINE
  5
623
100
AcDbEntity
  8
0
100
AcDbPolyline
 62
7
  6
CONTINUOUS
 90
18
 70
0
 10
37.7678553281
 20
156.296426887
 10
37.7628623167
 20
156.3279816712
 10
37.7578447864
 20
156.3723386349
 10
37.7528097264
 20
156.4294721965
 10
37.7477781043
 20
156.4990389954
 10
37.7427508347
 20
156.5808046105
 10
37.737727003
 20
156.6745291002
 10
37.7327248328
 20
156.7795252655
 10
37.727760341
 20
156.8949654236
 10
37.7228175107
 20
157.0207109884
 10
37.7178665148
 20
157.157138178
 10
37.7129015725
 20
157.3041081724
 10
37.7079284646
 20
157.4611197158
 10
37.702934707
 20
157.6282234797
 10
37.6979091026
 20
157.805481761
 10
37.6928628485
 20
157.9921488137
 10
37.6878170521
 20
158.1869756103
 10
37.6827719981
 20
158.3894045402
  0
LWPOLYLINE
  5
624
100
AcDbEntity
  8
0
100
AcDbPolyline
 62
7
  6
CONTINUOUS
 90
18
 70
0
 10
37.4073334436
 20
165.5461761007
 10
37.4123283089
 20
165.5146173499
 10
37.4173502701
 20
165.4702210359
 10
37.4223923284
 20
165.4129936083
 10
37.4274334872
 20
165.3432603439
 10
37.4324733414
 20
165.2612292607
 10
37.4375122961
 20
165.167130226
 10
37.4425305696
 20
165.0616701269
 10
37.4475146613
 20
164.9456126163
 10
37.4524780719
 20
164.8191440162
 10
37.4574415211
 20
164.6821463224
 10
37.4624055304
 20
164.5349733494
 10
37.4673695784
 20
164.3780363128
 10
37.472352821
 20
164.2110998184
 10
37.4773686449
 20
164.0340280604
 10
37.4824036634
 20
163.8476441149
 10
37.487436872
 20
163.6531978388
 10
37.49246788
 20
163.4512537379
  0
LWPOLYLINE
  5
625
100
AcDbEntity
  8
0
100
AcDbPolyline
 62
7
  6
CONTINUOUS
 90
18
 70
0
 10
36.8073485705
 20
165.5460995885
 10
36.8123510439
 20
165.5144449017
 10
36.8173806744
 20
165.4699138015
 10
36.8224304317
 20
165.4125132494
 10
36.8274792257
 20
165.3425709324
 10
36.832526658
 20
165.2602964166
 10
36.837573127
 20
165.1659214853
 10
36.8425987373
 20
165.0601581753
 10
36.8475904222
 20
164.9437630735
 10
36.8525612485
 20
164.8169339758
 10
36.857530521
 20
164.6795959574
 10
36.8624990115
 20
164.5321068771
 10
36.8674659482
 20
164.3748957845
 10
36.8724483209
 20
164.2078116522
 10
36.8774587529
 20
164.030767006
 10
36.8824846209
 20
163.844579408
 10
36.8875050444
 20
163.6505108338
 10
36.8925181392
 20
163.4491999694
  0
LWPOLYLINE
  5
626
100
AcDbEntity
  8
0
100
AcDbPolyline
 62
7
  6
CONTINUOUS
 90
18
 70
0
 10
38.367846861
 20
156.2964697167
 10
38.3628530526
 20
156.3280519193
 10
38.3578370442
 20
156.3724168167
 10
38.3528057972
 20
156.4295216797
 10
38.3477801952
 20
156.4990075229
 10
38.3427622256
 20
156.5806056589
 10
38.3377499009
 20
156.6740750509
 10
38.3327581427
 20
156.7787881711
 10
38.3278030663
 20
156.8939250427
 10
38.3228685564
 20
157.0193583879
 10
38.3179211888
 20
157.1555756714
 10
38.3129524279
 20
157.3025525185
 10
38.3079708092
 20
157.4597425795
 10
38.3029685146
 20
157.6270613914
 10
38.2979358989
 20
157.804513301
 10
38.2928826073
 20
157.9914016177
 10
38.2878297571
 20
158.1864752321
 10
38.2827776048
 20
158.3891755502
  0
LWPOLYLINE
  5
627
100
AcDbEntity
  8
0
100
AcDbPolyline
 62
7
  6
CONTINUOUS
 90
18
 70
0
 10
38.9678372093
 20
156.296518583
 10
38.9628439841
 20
156.3281207254
 10
38.9578322479
 20
156.3724652656
 10
38.9528088792
 20
156.4294828659
 10
38.9477945133
 20
156.4987920624
 10
38.9427940922
 20
156.5800494058
 10
38.937802674
 20
156.6730295252
 10
38.9328260682
 20
156.7772866509
 10
38.927876499
 20
156.8921388084
 10
38.9229417421
 20
157.0174210722
 10
38.9179909351
 20
157.1535842068
 10
38.9130153587
 20
157.3006289011
 10
38.9080237321
 20
157.4580223732
 10
38.90301135
 20
157.6255895791
 10
38.8979695848
 20
157.8032961877
 10
38.8929070642
 20
157.9904769303
 10
38.8878449655
 20
158.1858763206
 10
38.8827835236
 20
158.3889338207
  0
LWPOLYLINE
  5
628
100
AcDbEntity
  8
0
100
AcDbPolyline
 62
7
  6
CONTINUOUS
 90
18
 70
0
 10
36.2073605956
 20
165.5460386822
 10
36.2123691171
 20
165.5143076286
 10
36.217404844
 20
165.469669239
 10
36.2224607215
 20
165.4121308842
 10
36.2275155849
 20
165.3420221722
 10
36.232569043
 20
165.2595538706
 10
36.2376214871
 20
165.1649593154
 10
36.2426529259
 20
165.0589547726
 10
36.2476507749
 20
164.9422878754
 10
36.2526276187
 20
164.8151683688
 10
36.2576012192
 20
164.6775677145
 10
36.2625725112
 20
164.5298506731
 10
36.2675405601
 20
164.3724618904
 10
36.2725203238
 20
164.2053303385
 10
36.2775236929
 20
164.0284150794
 10
36.2825387767
 20
163.8425281277
 10
36.2875448612
 20
163.6489408151
 10
36.2925369065
 20
163.4484328916
  0
LWPOLYLINE
  5
629
100
AcDbEntity
  8
0
100
AcDbPolyline
 62
7
  6
CONTINUOUS
 90
10
 70
0
 10
40.660131277
 20
156.6210285944
 10
40.6642742221
 20
156.548340585
 10
40.6684163896
 20
156.4838935562
 10
40.6725577795
 20
156.4278040828
 10
40.6766978655
 20
156.3801784296
 10
40.680837174
 20
156.3410936578
 10
40.6849772842
 20
156.3106083873
 10
40.6891187225
 20
156.2887827057
 10
40.6932609625
 20
156.2756671288
 10
40.6940087904
 20
156.2742301882
  0
LWPOLYLINE
  5
62A
100
AcDbEntity
  8
0
100
AcDbPolyline
 62
7
  6
CONTINUOUS
 90
13
 70
0
 10
40.4003236559
 20
157.0371830592
 10
40.3950037906
 20
157.132188213
 10
40.3896839252
 20
157.2389499905
 10
40.3843640599
 20
157.3571371371
 10
40.3790441946
 20
157.4863829482
 10
40.3737243293
 20
157.6262864067
 10
40.368404464
 20
157.776413428
 10
40.3630845986
 20
157.9362982059
 10
40.3577647333
 20
158.1054446588
 10
40.352444868
 20
158.2833279681
 10
40.3471250027
 20
158.4693962072
 10
40.3418051374
 20
158.6630720536
 10
40.336485272
 20
158.8637545804
  0
LWPOLYLINE
  5
62B
100
AcDbEntity
  8
0
100
AcDbPolyline
 62
7
  6
CONTINUOUS
 90
13
 70
0
 10
40.1405160347
 20
156.6210285944
 10
40.1354053779
 20
156.7218282654
 10
40.1302919363
 20
156.8347180718
 10
40.1251757097
 20
156.9593937893
 10
40.1200642526
 20
157.0953073926
 10
40.1149500107
 20
157.2422633118
 10
40.109810321
 20
157.4005785121
 10
40.1046321257
 20
157.5703900717
 10
40.0994284826
 20
157.7509587801
 10
40.0942159022
 20
157.9412732911
 10
40.088992294
 20
158.1408953672
 10
40.0837597485
 20
158.3491975683
 10
40.0785410477
 20
158.5646393544
  0
LWPOLYLINE
  5
62C
100
AcDbEntity
  8
0
100
AcDbPolyline
 62
7
  6
CONTINUOUS
 90
19
 70
0
 10
39.6342630498
 20
163.1469523068
 10
39.6289431845
 20
163.3418230616
 10
39.6236233192
 20
163.5291835222
 10
39.6183034539
 20
163.7084523566
 10
39.6129835885
 20
163.8790733393
 10
39.6076637232
 20
164.0405170766
 10
39.6023438579
 20
164.1922826497
 10
39.5970239926
 20
164.3338991687
 10
39.5917041273
 20
164.4649272335
 10
39.5863842619
 20
164.5849602974
 10
39.5810643966
 20
164.6936259281
 10
39.5757445313
 20
164.790586964
 10
39.570424666
 20
164.8755425596
 10
39.5651048007
 20
164.9482291193
 10
39.5597849353
 20
165.0084211151
 10
39.55446507
 20
165.0559317866
 10
39.5491452047
 20
165.0906137203
 10
39.5438253394
 20
165.112359307
 10
39.5413550128
 20
165.118038431
  0
LWPOLYLINE
  5
62D
100
AcDbEntity
  8
0
100
AcDbPolyline
 62
7
  6
CONTINUOUS
 90
19
 70
0
 10
40.235407831
 20
163.1040940907
 10
40.2300879656
 20
163.300502692
 10
40.2247681003
 20
163.4895292055
 10
40.219448235
 20
163.6705871301
 10
40.2141283697
 20
163.8431146891
 10
40.2088085044
 20
164.0065765734
 10
40.203488639
 20
164.1604656022
 10
40.1981687737
 20
164.3043042971
 10
40.1928489084
 20
164.4376463631
 10
40.1875290431
 20
164.5600780738
 10
40.1822091778
 20
164.6712195547
 10
40.1768893125
 20
164.7707259619
 10
40.1715694471
 20
164.8582885525
 10
40.1662495818
 20
164.9336356419
 10
40.1609297165
 20
164.9965334474
 10
40.1556098512
 20
165.046786813
 10
40.1502899859
 20
165.0842398152
 10
40.1449701205
 20
165.1087762471
 10
40.1413550128
 20
165.118038431
  0
LWPOLYLINE
  5
62E
100
AcDbEntity
  8
0
100
AcDbPolyline
 62
7
  6
CONTINUOUS
 90
20
 70
0
 10
39.038438134
 20
162.9891481172
 10
39.0331182687
 20
163.1894906658
 10
39.0277984034
 20
163.3827955688
 10
39.022478538
 20
163.5684630503
 10
39.0171586727
 20
163.7459170311
 10
39.0118388074
 20
163.9146069169
 10
39.0065189421
 20
164.0740093057
 10
39.0011990768
 20
164.2236296124
 10
38.9958792114
 20
164.3630036033
 10
38.9905593461
 20
164.4916988364
 10
38.9852394808
 20
164.609316003
 10
38.9799196155
 20
164.715490167
 10
38.9745997502
 20
164.809891897
 10
38.9692798848
 20
164.8922282883
 10
38.9639600195
 20
164.9622438722
 10
38.9586401542
 20
165.0197214079
 10
38.9533202889
 20
165.0644825575
 10
38.9480004236
 20
165.0963884384
 10
38.9426805582
 20
165.1153400547
 10
38.9413550128
 20
165.118038431
  0
LINE
  5
62F
100
AcDbEntity
  8
0
100
AcDbLine
 62
7
  6
CONTINUOUS
 10
39.7406603562
 20
158.7056862247
 11
39.7300206256
 21
159.1161527662
  0
LINE
  5
630
100
AcDbEntity
  8
0
100
AcDbLine
 62
7
  6
CONTINUOUS
 10
39.6449027805
 20
162.7371198783
 11
39.6342630498
 21
163.1469523068
  0
LINE
  5
631
100
AcDbEntity
  8
0
100
AcDbLine
 62
7
  6
CONTINUOUS
 10
39.1395155751
 20
158.7486188079
 11
39.1288758444
 21
159.1617438341
  0
LINE
  5
632
100
AcDbEntity
  8
0
100
AcDbLine
 62
7
  6
CONTINUOUS
 10
40.2460475616
 20
162.6915892629
 11
40.235407831
 21
163.1040940907
  0
LINE
  5
633
100
AcDbEntity
  8
0
100
AcDbLine
 62
7
  6
CONTINUOUS
 10
39.0490778646
 20
162.5698564385
 11
39.038438134
 21
162.9891481172
  0
LWPOLYLINE
  5
634
100
AcDbEntity
  8
0
100
AcDbPolyline
 62
7
  6
CONTINUOUS
 90
20
 70
0
 10
39.4023987658
 20
158.3889338207
 10
39.4074602078
 20
158.1858763206
 10
39.4125223065
 20
157.9904769303
 10
39.4175848271
 20
157.8032961877
 10
39.4226265923
 20
157.6255895791
 10
39.4276389744
 20
157.4580223732
 10
39.432630601
 20
157.3006289011
 10
39.4376061774
 20
157.1535842068
 10
39.4425569844
 20
157.0174210722
 10
39.4474917412
 20
156.8921388084
 10
39.4524413105
 20
156.7772866509
 10
39.4574179162
 20
156.6730295252
 10
39.4624093345
 20
156.5800494058
 10
39.4674097555
 20
156.4987920624
 10
39.4724241214
 20
156.4294828659
 10
39.4774474902
 20
156.3724652656
 10
39.4824592264
 20
156.3281207254
 10
39.4874524516
 20
156.296518583
 10
39.4924340442
 20
156.277587734
 10
39.4940087904
 20
156.2742301882
  0
LWPOLYLINE
  5
635
100
AcDbEntity
  8
0
100
AcDbPolyline
 62
7
  6
CONTINUOUS
 90
20
 70
0
 10
39.3728119562
 20
163.4529156114
 10
39.3677434305
 20
163.6562783411
 10
39.3626743485
 20
163.8519588508
 10
39.3576049285
 20
164.0393953664
 10
39.3525565246
 20
164.217324676
 10
39.3475413932
 20
164.3849632774
 10
39.3425472777
 20
164.5424087342
 10
39.337558763
 20
164.6897925403
 10
39.3325755655
 20
164.8267540035
 10
39.3275979688
 20
164.9529467926
 10
39.322611407
 20
165.0683853608
 10
39.3176043556
 20
165.172922189
 10
39.3125883393
 20
165.2659283161
 10
39.3075833661
 20
165.3467846578
 10
39.3025974642
 20
165.4152484226
 10
39.2976226055
 20
165.4713530549
 10
39.2926547136
 20
165.5150587728
 10
39.2876924296
 20
165.5463061873
 10
39.2827371125
 20
165.5650496825
 10
39.281183976
 20
165.5683526058
  0
LWPOLYLINE
  5
636
100
AcDbEntity
  8
0
100
AcDbPolyline
 62
7
  6
CONTINUOUS
 90
20
 70
0
 10
40.0024012505
 20
158.3888323478
 10
40.0074696865
 20
158.1855030824
 10
40.0125387702
 20
157.9898545664
 10
40.0176082636
 20
157.8024496261
 10
40.0226568846
 20
157.6245491406
 10
40.02767548
 20
157.4568364135
 10
40.0326732028
 20
157.2993275756
 10
40.0376562304
 20
157.1521562833
 10
40.0426199823
 20
157.0157552766
 10
40.0475690389
 20
156.8902611304
 10
40.0525233187
 20
156.7754766187
 10
40.0574872992
 20
156.6716569025
 10
40.0624565029
 20
156.5792269361
 10
40.0674374158
 20
156.4983761082
 10
40.0724387831
 20
156.4292982815
 10
40.0774518596
 20
156.3724211288
 10
40.0824568949
 20
156.3281384219
 10
40.0874473058
 20
156.2965446552
 10
40.0924296756
 20
156.2775988054
 10
40.0940087904
 20
156.2742301882
  0
LINE
  5
637
100
AcDbEntity
  8
0
100
AcDbLine
 62
7
  6
CONTINUOUS
 10
40.336485272
 20
158.8637545804
 11
40.3258455414
 21
159.2836292
  0
LWPOLYLINE
  5
638
100
AcDbEntity
  8
0
100
AcDbPolyline
 62
7
  6
CONTINUOUS
 90
20
 70
0
 10
40.5727974448
 20
163.4535083062
 10
40.5677225722
 20
163.6570996988
 10
40.562647182
 20
163.8529857937
 10
40.5575714813
 20
164.0406034369
 10
40.5525168563
 20
164.2186869392
 10
40.5474946465
 20
164.3864816267
 10
40.5424935124
 20
164.544050626
 10
40.5375008212
 20
164.6914447549
 10
40.5325161399
 20
164.8283238542
 10
40.5275399016
 20
164.9543549337
 10
40.5225607725
 20
165.0695000691
 10
40.5175715106
 20
165.17356964
 10
40.512579358
 20
165.2660841681
 10
40.5075947069
 20
165.3466151059
 10
40.5026238493
 20
165.4149182044
 10
40.4976604931
 20
165.4709722563
 10
40.4926961547
 20
165.51474546
 10
40.4877280061
 20
165.5461265212
 10
40.4827588752
 20
165.5649946724
 10
40.481183976
 20
165.5683526058
  0
LWPOLYLINE
  5
639
100
AcDbEntity
  8
0
100
AcDbPolyline
 62
7
  6
CONTINUOUS
 90
20
 70
0
 10
39.9756742809
 20
163.3348835922
 10
39.9704538092
 20
163.5484530299
 10
39.9652282866
 20
163.7543677681
 10
39.9599984735
 20
163.9519595756
 10
39.9547875603
 20
164.13979939
 10
39.9496051978
 20
164.3171081409
 10
39.9444417352
 20
164.4838266324
 10
39.9392914098
 20
164.6397476444
 10
39.9341590486
 20
164.7843678758
 10
39.9290398248
 20
164.9175047512
 10
39.9239134946
 20
165.0393205527
 10
39.9187673798
 20
165.1496726297
 10
39.9136141588
 20
165.2478747151
 10
39.9084716227
 20
165.3333158788
 10
39.903348947
 20
165.4057091726
 10
39.8982369563
 20
165.4650900538
 10
39.8931259159
 20
165.5114452817
 10
39.8880125809
 20
165.5446662751
 10
39.8829001963
 20
165.5646315836
 10
39.881183976
 20
165.5683526058
  0
LINE
  5
63A
100
AcDbEntity
  8
0
100
AcDbLine
 62
7
  6
CONTINUOUS
 10
39.7300206256
 20
159.1161527662
 11
39.7193808949
 21
159.5490054743
  0
LINE
  5
63B
100
AcDbEntity
  8
0
100
AcDbLine
 62
7
  6
CONTINUOUS
 10
39.6555425111
 20
162.3047687145
 11
39.6449027805
 21
162.7371198783
  0
LINE
  5
63C
100
AcDbEntity
  8
0
100
AcDbLine
 62
7
  6
CONTINUOUS
 10
40.2566872922
 20
162.2571303412
 11
40.2460475616
 21
162.6915892629
  0
LWPOLYLINE
  5
63D
100
AcDbEntity
  8
0
100
AcDbPolyline
 62
7
  6
CONTINUOUS
 90
13
 70
0
 10
40.59815629
 20
158.5646393544
 10
40.6033749907
 20
158.3491975683
 10
40.6086075363
 20
158.1408953672
 10
40.6138311445
 20
157.9412732911
 10
40.6190437249
 20
157.7509587801
 10
40.624247368
 20
157.5703900717
 10
40.6294255633
 20
157.4005785121
 10
40.634565253
 20
157.2422633118
 10
40.6396794949
 20
157.0953073926
 10
40.644790952
 20
156.9593937893
 10
40.6499071785
 20
156.8347180718
 10
40.6550206202
 20
156.7218282654
 10
40.660131277
 20
156.6210285944
  0
LINE
  5
63E
100
AcDbEntity
  8
0
100
AcDbLine
 62
7
  6
CONTINUOUS
 10
39.1288758444
 20
159.1617438341
 11
39.1182361138
 21
159.596689636
  0
LINE
  5
63F
100
AcDbEntity
  8
0
100
AcDbLine
 62
7
  6
CONTINUOUS
 10
39.0597175953
 20
162.1301203179
 11
39.0490778646
 21
162.5698564385
  0
LINE
  5
640
100
AcDbEntity
  8
0
100
AcDbLine
 62
7
  6
CONTINUOUS
 10
40.3258455414
 20
159.2836292
 11
40.3152058108
 21
159.7238130514
  0
LINE
  5
641
100
AcDbEntity
  8
0
100
AcDbLine
 62
7
  6
CONTINUOUS
 10
39.1182361138
 20
159.596689636
 11
39.1075963832
 21
160.0480622957
  0
LINE
  5
642
100
AcDbEntity
  8
0
100
AcDbLine
 62
7
  6
CONTINUOUS
 10
39.3922976207
 20
158.8148525764
 11
39.4023987658
 21
158.3889338207
  0
LINE
  5
643
100
AcDbEntity
  8
0
100
AcDbLine
 62
7
  6
CONTINUOUS
 10
39.2924395442
 20
163.4524113279
 11
39.3025408951
 21
163.026405732
  0
LINE
  5
644
100
AcDbEntity
  8
0
100
AcDbLine
 62
7
  6
CONTINUOUS
 10
39.4827860082
 20
158.3888323478
 11
39.4726709343
 21
158.8153494018
  0
LINE
  5
645
100
AcDbEntity
  8
0
100
AcDbLine
 62
7
  6
CONTINUOUS
 10
39.3829272943
 20
163.0263344603
 11
39.3728119562
 21
163.4529156114
  0
LINE
  5
646
100
AcDbEntity
  8
0
100
AcDbLine
 62
7
  6
CONTINUOUS
 10
39.7193808949
 20
159.5490054743
 11
39.7087411643
 21
159.9988763886
  0
LINE
  5
647
100
AcDbEntity
  8
0
100
AcDbLine
 62
7
  6
CONTINUOUS
 10
39.9922861766
 20
158.8153494018
 11
40.0024012505
 21
158.3888323478
  0
LINE
  5
648
100
AcDbEntity
  8
0
100
AcDbLine
 62
7
  6
CONTINUOUS
 10
39.8924271985
 20
163.4529156114
 11
39.9025425366
 21
163.0263344603
  0
LINE
  5
649
100
AcDbEntity
  8
0
100
AcDbLine
 62
7
  6
CONTINUOUS
 10
40.6827852542
 20
158.3888631426
 11
40.6726575607
 21
158.8159300309
  0
LINE
  5
64A
100
AcDbEntity
  8
0
100
AcDbLine
 62
7
  6
CONTINUOUS
 10
40.5829254945
 20
163.0264126082
 11
40.5727974448
 21
163.4535083062
  0
LINE
  5
64B
100
AcDbEntity
  8
0
100
AcDbLine
 62
7
  6
CONTINUOUS
 10
39.6715021071
 20
161.6258082032
 11
39.6555425111
 21
162.3047687145
  0
LINE
  5
64C
100
AcDbEntity
  8
0
100
AcDbLine
 62
7
  6
CONTINUOUS
 10
40.3152058108
 20
159.7238130514
 11
40.3045660801
 21
160.1788472579
  0
LINE
  5
64D
100
AcDbEntity
  8
0
100
AcDbLine
 62
7
  6
CONTINUOUS
 10
39.0756771912
 20
161.4441646903
 11
39.0597175953
 21
162.1301203179
  0
LINE
  5
64E
100
AcDbEntity
  8
0
100
AcDbLine
 62
7
  6
CONTINUOUS
 10
40.2726468882
 20
161.5761220785
 11
40.2566872922
 21
162.2571303412
  0
LINE
  5
64F
100
AcDbEntity
  8
0
100
AcDbLine
 62
7
  6
CONTINUOUS
 10
39.9860814451
 20
162.8882601271
 11
39.9756742809
 21
163.3348835922
  0
LINE
  5
650
100
AcDbEntity
  8
0
100
AcDbLine
 62
7
  6
CONTINUOUS
 10
40.4952895231
 20
163.3348835922
 11
40.5056966874
 21
162.8882601271
  0
LINE
  5
651
100
AcDbEntity
  8
0
100
AcDbLine
 62
7
  6
CONTINUOUS
 10
39.1075963832
 20
160.0480622957
 11
39.0756771912
 21
161.4441646903
  0
LINE
  5
652
100
AcDbEntity
  8
0
100
AcDbLine
 62
7
  6
CONTINUOUS
 10
39.7087411643
 20
159.9988763886
 11
39.6927815683
 21
160.6933470916
  0
LINE
  5
653
100
AcDbEntity
  8
0
100
AcDbLine
 62
7
  6
CONTINUOUS
 10
39.6927815683
 20
160.6933470916
 11
39.6715021071
 21
161.6258082032
  0
LINE
  5
654
100
AcDbEntity
  8
0
100
AcDbLine
 62
7
  6
CONTINUOUS
 10
40.0785410477
 20
158.5646393544
 11
40.0681557579
 21
159.0136542728
  0
LINE
  5
655
100
AcDbEntity
  8
0
100
AcDbLine
 62
7
  6
CONTINUOUS
 10
40.3045660801
 20
160.1788472579
 11
40.2726468882
 21
161.5761220785
  0
LINE
  5
656
100
AcDbEntity
  8
0
100
AcDbLine
 62
7
  6
CONTINUOUS
 10
40.5877710002
 20
159.0136542728
 11
40.59815629
 21
158.5646393544
  0
LINE
  5
657
100
AcDbEntity
  8
0
100
AcDbLine
 62
7
  6
CONTINUOUS
 10
39.382305168
 20
159.2593744622
 11
39.3922976207
 21
158.8148525764
  0
LINE
  5
658
100
AcDbEntity
  8
0
100
AcDbLine
 62
7
  6
CONTINUOUS
 10
39.3025408951
 20
163.026405732
 11
39.3125408775
 21
162.5814783394
  0
LINE
  5
659
100
AcDbEntity
  8
0
100
AcDbLine
 62
7
  6
CONTINUOUS
 10
39.4726709343
 20
158.8153494018
 11
39.4626638109
 21
159.2605621831
  0
LINE
  5
65A
100
AcDbEntity
  8
0
100
AcDbLine
 62
7
  6
CONTINUOUS
 10
39.3929403406
 20
162.5808094436
 11
39.3829272943
 21
163.0263344603
  0
LINE
  5
65B
100
AcDbEntity
  8
0
100
AcDbLine
 62
7
  6
CONTINUOUS
 10
39.9822790532
 20
159.2605621831
 11
39.9922861766
 21
158.8153494018
  0
LINE
  5
65C
100
AcDbEntity
  8
0
100
AcDbLine
 62
7
  6
CONTINUOUS
 10
39.9025425366
 20
163.0263344603
 11
39.9125555828
 21
162.5808094436
  0
LINE
  5
65D
100
AcDbEntity
  8
0
100
AcDbLine
 62
7
  6
CONTINUOUS
 10
40.6726575607
 20
158.8159300309
 11
40.6626363009
 21
159.2618134987
  0
LINE
  5
65E
100
AcDbEntity
  8
0
100
AcDbLine
 62
7
  6
CONTINUOUS
 10
40.5929490424
 20
162.5804136081
 11
40.5829254945
 21
163.0264126082
  0
LINE
  5
65F
100
AcDbEntity
  8
0
100
AcDbLine
 62
7
  6
CONTINUOUS
 10
40.0681557579
 20
159.0136542728
 11
40.0578586852
 21
159.4811245177
  0
LINE
  5
660
100
AcDbEntity
  8
0
100
AcDbLine
 62
7
  6
CONTINUOUS
 10
39.9963613377
 20
162.4241634451
 11
39.9860814451
 21
162.8882601271
  0
LINE
  5
661
100
AcDbEntity
  8
0
100
AcDbLine
 62
7
  6
CONTINUOUS
 10
40.5774739275
 20
159.4811245177
 11
40.5877710002
 21
159.0136542728
  0
LINE
  5
662
100
AcDbEntity
  8
0
100
AcDbLine
 62
7
  6
CONTINUOUS
 10
40.5056966874
 20
162.8882601271
 11
40.5159765799
 21
162.4241634451
  0
LINE
  5
663
100
AcDbEntity
  8
0
100
AcDbLine
 62
7
  6
CONTINUOUS
 10
39.3125408775
 20
162.5814783394
 11
39.3224649601
 21
162.1219326255
  0
LINE
  5
664
100
AcDbEntity
  8
0
100
AcDbLine
 62
7
  6
CONTINUOUS
 10
39.4626638109
 20
159.2605621831
 11
39.4526937352
 21
159.7222530605
  0
LINE
  5
665
100
AcDbEntity
  8
0
100
AcDbLine
 62
7
  6
CONTINUOUS
 10
39.9125555828
 20
162.5808094436
 11
39.9224992281
 21
162.120320462
  0
LINE
  5
666
100
AcDbEntity
  8
0
100
AcDbLine
 62
7
  6
CONTINUOUS
 10
40.6626363009
 20
159.2618134987
 11
40.6526611565
 21
159.7237858918
  0
LINE
  5
667
100
AcDbEntity
  8
0
100
AcDbLine
 62
7
  6
CONTINUOUS
 10
39.3673693065
 20
159.9561547738
 11
39.382305168
 21
159.2593744622
  0
LINE
  5
668
100
AcDbEntity
  8
0
100
AcDbLine
 62
7
  6
CONTINUOUS
 10
39.4078316268
 20
161.8860389885
 11
39.3929403406
 21
162.5808094436
  0
LINE
  5
669
100
AcDbEntity
  8
0
100
AcDbLine
 62
7
  6
CONTINUOUS
 10
39.9673319742
 20
159.9579331432
 11
39.9822790532
 21
159.2605621831
  0
LINE
  5
66A
100
AcDbEntity
  8
0
100
AcDbLine
 62
7
  6
CONTINUOUS
 10
40.0578586852
 20
159.4811245177
 11
40.0476273975
 21
159.9621892965
  0
LINE
  5
66B
100
AcDbEntity
  8
0
100
AcDbLine
 62
7
  6
CONTINUOUS
 10
40.5159765799
 20
162.4241634451
 11
40.5262155914
 21
161.9446092406
  0
LINE
  5
66C
100
AcDbEntity
  8
0
100
AcDbLine
 62
7
  6
CONTINUOUS
 10
40.60788309
 20
161.8835873909
 11
40.5929490424
 21
162.5804136081
  0
LINE
  5
66D
100
AcDbEntity
  8
0
100
AcDbLine
 62
7
  6
CONTINUOUS
 10
40.0117120134
 20
161.7004507309
 11
39.9963613377
 21
162.4241634451
  0
LINE
  5
66E
100
AcDbEntity
  8
0
100
AcDbLine
 62
7
  6
CONTINUOUS
 10
40.5620985208
 20
160.2085671114
 11
40.5774739275
 21
159.4811245177
  0
LINE
  5
66F
100
AcDbEntity
  8
0
100
AcDbLine
 62
7
  6
CONTINUOUS
 10
39.3224649601
 20
162.1219326255
 11
39.3373296119
 21
161.410951271
  0
LINE
  5
670
100
AcDbEntity
  8
0
100
AcDbLine
 62
7
  6
CONTINUOUS
 10
39.4526937352
 20
159.7222530605
 11
39.437724925
 21
160.4383256445
  0
LINE
  5
671
100
AcDbEntity
  8
0
100
AcDbLine
 62
7
  6
CONTINUOUS
 10
39.9224992281
 20
162.120320462
 11
39.9373665266
 21
161.4091636801
  0
LINE
  5
672
100
AcDbEntity
  8
0
100
AcDbLine
 62
7
  6
CONTINUOUS
 10
40.6526611565
 20
159.7237858918
 11
40.6377203132
 21
160.4385490033
  0
LINE
  5
673
100
AcDbEntity
  8
0
100
AcDbLine
 62
7
  6
CONTINUOUS
 10
39.3373296119
 20
161.410951271
 11
39.3673693065
 21
159.9561547738
  0
LINE
  5
674
100
AcDbEntity
  8
0
100
AcDbLine
 62
7
  6
CONTINUOUS
 10
39.437724925
 20
160.4383256445
 11
39.4078316268
 21
161.8860389885
  0
LINE
  5
675
100
AcDbEntity
  8
0
100
AcDbLine
 62
7
  6
CONTINUOUS
 10
39.9373665266
 20
161.4091636801
 11
39.9673319742
 21
159.9579331432
  0
LINE
  5
676
100
AcDbEntity
  8
0
100
AcDbLine
 62
7
  6
CONTINUOUS
 10
40.0476273975
 20
159.9621892965
 11
40.0117120134
 21
161.7004507309
  0
LINE
  5
677
100
AcDbEntity
  8
0
100
AcDbLine
 62
7
  6
CONTINUOUS
 10
40.5262155914
 20
161.9446092406
 11
40.5620985208
 21
160.2085671114
  0
LINE
  5
678
100
AcDbEntity
  8
0
100
AcDbLine
 62
7
  6
CONTINUOUS
 10
40.6377203132
 20
160.4385490033
 11
40.60788309
 21
161.8835873909
  0
LINE
  5
679
100
AcDbEntity
  8
0
100
AcDbLine
 62
7
  6
CONTINUOUS
 10
34.7853461521
 20
156.2814347256
 11
35.037596382
 21
156.718039247
  0
LINE
  5
67A
100
AcDbEntity
  8
0
100
AcDbLine
 62
7
  6
CONTINUOUS
 10
40.3940087904
 20
165.5683526059
 11
40.137596382
 21
165.1245435471
  0
LINE
  5
67B
100
AcDbEntity
  8
0
100
AcDbLine
 62
7
  6
CONTINUOUS
 10
35.381183976
 20
156.2742301883
 11
35.637596382
 21
156.718039247
  0
LINE
  5
67C
100
AcDbEntity
  8
0
100
AcDbLine
 62
7
  6
CONTINUOUS
 10
40.9940087904
 20
165.5683526059
 11
40.737596382
 21
165.1245435471
  0
LINE
  5
67D
100
AcDbEntity
  8
0
100
AcDbLine
 62
7
  6
CONTINUOUS
 10
35.981183976
 20
156.2742301883
 11
36.237596382
 21
156.718039247
  0
LINE
  5
67E
100
AcDbEntity
  8
0
100
AcDbLine
 62
7
  6
CONTINUOUS
 10
36.581183976
 20
156.2742301883
 11
36.837596382
 21
156.718039247
  0
LINE
  5
67F
100
AcDbEntity
  8
0
100
AcDbLine
 62
7
  6
CONTINUOUS
 10
39.1940087904
 20
165.5683526059
 11
39.1974040043
 21
165.5712913971
  0
LINE
  5
680
100
AcDbEntity
  8
0
100
AcDbLine
 62
7
  6
CONTINUOUS
 10
39.7940087904
 20
165.5683526059
 11
39.7974040043
 21
165.5712913971
  0
LINE
  5
681
100
AcDbEntity
  8
0
100
AcDbLine
 62
7
  6
CONTINUOUS
 10
40.3940087904
 20
165.5683526059
 11
40.3974040043
 21
165.5712913971
  0
LINE
  5
682
100
AcDbEntity
  8
0
100
AcDbLine
 62
7
  6
CONTINUOUS
 10
40.9940087904
 20
165.5683526059
 11
40.9974040043
 21
165.5712913971
  0
LINE
  5
683
100
AcDbEntity
  8
0
100
AcDbLine
 62
7
  6
CONTINUOUS
 10
39.4940087904
 20
156.2742301882
 11
39.4974040043
 21
156.2712913971
  0
LINE
  5
684
100
AcDbEntity
  8
0
100
AcDbLine
 62
7
  6
CONTINUOUS
 10
40.0940087904
 20
156.2742301882
 11
40.0974040043
 21
156.2712913971
  0
LINE
  5
685
100
AcDbEntity
  8
0
100
AcDbLine
 62
7
  6
CONTINUOUS
 10
40.6940087904
 20
156.2742301882
 11
40.6974040043
 21
156.2712913971
  0
LWPOLYLINE
  5
686
100
AcDbEntity
  8
0
100
AcDbPolyline
 62
7
  6
CONTINUOUS
 90
3
 70
0
 10
40.177788762
 20
156.2712913971
 10
40.1736457203
 20
156.2756671288
 10
40.1695034802
 20
156.2887827057
  0
LWPOLYLINE
  5
687
100
AcDbEntity
  8
0
100
AcDbPolyline
 62
7
  6
CONTINUOUS
 90
3
 70
0
 10
34.9974040043
 20
165.5712913971
 10
35.0023786931
 20
165.5649830757
 10
35.0073735579
 20
165.5459729473
  0
LWPOLYLINE
  5
688
100
AcDbEntity
  8
0
100
AcDbPolyline
 62
7
  6
CONTINUOUS
 90
3
 70
0
 10
40.777788762
 20
156.2712913971
 10
40.7728125826
 20
156.2776034985
 10
40.7678339432
 20
156.29653513
  0
LINE
  5
689
100
AcDbEntity
  8
0
100
AcDbLine
 62
7
  6
CONTINUOUS
 10
39.8338377534
 20
156.7245443632
 11
40.0940087904
 21
156.2742301882
  0
LINE
  5
68A
100
AcDbEntity
  8
0
100
AcDbLine
 62
7
  6
CONTINUOUS
 10
35.3413550128
 20
165.118038431
 11
35.081183976
 21
165.5683526058
  0
LINE
  5
68B
100
AcDbEntity
  8
0
100
AcDbLine
 62
7
  6
CONTINUOUS
 10
40.4338377534
 20
156.7245443632
 11
40.6940087904
 21
156.2742301882
  0
LINE
  5
68C
100
AcDbEntity
  8
0
100
AcDbLine
 62
7
  6
CONTINUOUS
 10
35.9413550128
 20
165.118038431
 11
35.681183976
 21
165.5683526058
  0
LINE
  5
68D
100
AcDbEntity
  8
0
100
AcDbLine
 62
7
  6
CONTINUOUS
 10
41.0338377534
 20
156.7245443632
 11
41.1575963832
 21
156.5103461095
  0
LINE
  5
68E
100
AcDbEntity
  8
0
100
AcDbLine
 62
7
  6
CONTINUOUS
 10
36.5413550128
 20
165.118038431
 11
36.281183976
 21
165.5683526058
  0
LINE
  5
68F
100
AcDbEntity
  8
0
100
AcDbLine
 62
7
  6
CONTINUOUS
 10
37.1413550128
 20
165.118038431
 11
36.881183976
 21
165.5683526058
  0
LWPOLYLINE
  5
690
100
AcDbEntity
  8
0
100
AcDbPolyline
 62
7
  6
CONTINUOUS
 90
8
 70
0
 10
40.4338377534
 20
156.7245443632
 10
40.4318766862
 20
156.7288230921
 10
40.4266178478
 20
156.7490173789
 10
40.4213590094
 20
156.78186194
 10
40.416100171
 20
156.8272571913
 10
40.4108413327
 20
156.885065495
 10
40.4055824943
 20
156.9551115772
 10
40.4003236559
 20
157.0371830592
  0
LWPOLYLINE
  5
691
100
AcDbEntity
  8
0
100
AcDbPolyline
 62
7
  6
CONTINUOUS
 90
20
 70
0
 10
41.0338377534
 20
156.7245443632
 10
41.0313842619
 20
156.7301752878
 10
41.0261254236
 20
156.7515573074
 10
41.0208665852
 20
156.7855819003
 10
41.0156077468
 20
156.8321459045
 10
41.0103489084
 20
156.8911081386
 10
41.00509007
 20
156.96228983
 10
40.9998312316
 20
157.0454751568
 10
40.9945723933
 20
157.1404119023
 10
40.9893135549
 20
157.2468122197
 10
40.9840547165
 20
157.3643535047
 10
40.9787958781
 20
157.4926793739
 10
40.9735370397
 20
157.6314007452
 10
40.9682782013
 20
157.7800970172
 10
40.963019363
 20
157.9383173451
 10
40.9577605246
 20
158.1055820071
 10
40.9525016862
 20
158.2813838592
 10
40.9472428478
 20
158.4651898727
 10
40.9419840094
 20
158.6564427505
 10
40.936725171
 20
158.8545626166
  0
LWPOLYLINE
  5
692
100
AcDbEntity
  8
0
100
AcDbPolyline
 62
7
  6
CONTINUOUS
 90
19
 70
0
 10
39.8338377534
 20
156.7245443632
 10
39.8310980667
 20
156.7310123904
 10
39.8257782013
 20
156.7534149426
 10
39.820458336
 20
156.7887493555
 10
39.8151384707
 20
156.8369059957
 10
39.8098186054
 20
156.8977354453
 10
39.8044987401
 20
156.9710489659
 10
39.7991788747
 20
157.0566190844
 10
39.7938590094
 20
157.1541802984
 10
39.7885391441
 20
157.2634299003
 10
39.7832192788
 20
157.3840289164
 10
39.7778994135
 20
157.5156031585
 10
39.7725795481
 20
157.6577443853
 10
39.7672596828
 20
157.8100115686
 10
39.7619398175
 20
157.9719322622
 10
39.7566199522
 20
158.1430040672
 10
39.7513000869
 20
158.3226961914
 10
39.7459802215
 20
158.5104510958
 10
39.7406603562
 20
158.7056862247
  0
LWPOLYLINE
  5
693
100
AcDbEntity
  8
0
100
AcDbPolyline
 62
7
  6
CONTINUOUS
 90
8
 70
0
 10
40.1695034802
 20
156.2887827057
 10
40.1653620419
 20
156.3106083873
 10
40.1612219317
 20
156.3410936578
 10
40.1570826233
 20
156.3801784296
 10
40.1529425373
 20
156.4278040828
 10
40.1488011473
 20
156.4838935562
 10
40.1446589798
 20
156.548340585
 10
40.1405160347
 20
156.6210285944
  0
LWPOLYLINE
  5
694
100
AcDbEntity
  8
0
100
AcDbPolyline
 62
7
  6
CONTINUOUS
 90
18
 70
0
 10
39.2072834905
 20
165.5464279403
 10
39.2122474538
 20
165.5152285361
 10
39.2172304669
 20
165.4714271551
 10
39.2222296268
 20
165.4150366987
 10
39.2272362242
 20
165.3462220387
 10
39.2322540403
 20
165.2650519897
 10
39.237279294
 20
165.1717441536
 10
39.2422919327
 20
165.066946439
 10
39.2472797495
 20
164.9513313891
 10
39.2522549513
 20
164.825057823
 10
39.2572341068
 20
164.6880772745
 10
39.2622170788
 20
164.5407414398
 10
39.2672040044
 20
164.3834238689
 10
39.2722118629
 20
164.2159471489
 10
39.2772534127
 20
164.0381943346
 10
39.2823158954
 20
163.8509642648
 10
39.2873780146
 20
163.6555165793
 10
39.2924395442
 20
163.4524113279
  0
LWPOLYLINE
  5
695
100
AcDbEntity
  8
0
100
AcDbPolyline
 62
7
  6
CONTINUOUS
 90
18
 70
0
 10
38.6072868684
 20
165.5464109506
 10
38.6122597117
 20
165.5151360903
 10
38.6172592867
 20
165.4711376655
 10
38.6222798026
 20
165.4144080173
 10
38.6273038863
 20
165.3452082911
 10
38.6323323647
 20
165.263689313
 10
38.637364411
 20
165.1700615922
 10
38.6423801711
 20
165.064998485
 10
38.6473668011
 20
164.949215018
 10
38.652337145
 20
164.8228817586
 10
38.6573098808
 20
164.6859125979
 10
38.6622850936
 20
164.5386612816
 10
38.6672626982
 20
164.3815152413
 10
38.6722611171
 20
164.2142541888
 10
38.6772935597
 20
164.0367433167
 10
38.6823468165
 20
163.8497948415
 10
38.6873996813
 20
163.6546631205
 10
38.6924519147
 20
163.4519059868
  0
LWPOLYLINE
  5
696
100
AcDbEntity
  8
0
100
AcDbPolyline
 62
7
  6
CONTINUOUS
 90
18
 70
0
 10
39.8073076719
 20
165.5463061873
 10
39.8122699559
 20
165.5150587728
 10
39.8172378478
 20
165.4713530549
 10
39.8222127065
 20
165.4152484226
 10
39.8271986084
 20
165.3467846578
 10
39.8322035816
 20
165.2659283161
 10
39.8372195979
 20
165.172922189
 10
39.8422266493
 20
165.0683853608
 10
39.847213211
 20
164.9529467926
 10
39.8521908078
 20
164.8267540035
 10
39.8571740052
 20
164.6897925403
 10
39.86216252
 20
164.5424087342
 10
39.8671566354
 20
164.3849632774
 10
39.8721717669
 20
164.217324676
 10
39.8772201708
 20
164.0393953664
 10
39.8822895908
 20
163.8519588508
 10
39.8873586727
 20
163.6562783411
 10
39.8924271985
 20
163.4529156114
  0
LWPOLYLINE
  5
697
100
AcDbEntity
  8
0
100
AcDbPolyline
 62
7
  6
CONTINUOUS
 90
18
 70
0
 10
40.7678339432
 20
156.29653513
 10
40.7628528437
 20
156.3280535033
 10
40.7578662279
 20
156.3721222704
 10
40.7528771521
 20
156.428624239
 10
40.7478947852
 20
156.4972859403
 10
40.7429250218
 20
156.5777690167
 10
40.7379619674
 20
156.6698815183
 10
40.7329971069
 20
156.7735150601
 10
40.7280308187
 20
156.8883927767
 10
40.7230627244
 20
157.0142235513
 10
40.7180831742
 20
157.1509535959
 10
40.713092135
 20
157.2982841975
 10
40.7080896398
 20
157.4558815947
 10
40.7030661376
 20
157.6237080588
 10
40.698011308
 20
157.8017892188
 10
40.6929354713
 20
157.9894031337
 10
40.6878600372
 20
158.1852828603
 10
40.6827852542
 20
158.3888631426
  0
LWPOLYLINE
  5
698
100
AcDbEntity
  8
0
100
AcDbPolyline
 62
7
  6
CONTINUOUS
 90
18
 70
0
 10
39.5678320635
 20
156.2965446552
 10
39.5628416527
 20
156.3281384219
 10
39.5578366173
 20
156.3724211288
 10
39.5528235408
 20
156.4292982815
 10
39.5478221735
 20
156.4983761082
 10
39.5428412607
 20
156.5792269361
 10
39.537872057
 20
156.6716569025
 10
39.5329080765
 20
156.7754766187
 10
39.5279537967
 20
156.8902611304
 10
39.52300474
 20
157.0157552766
 10
39.5180409881
 20
157.1521562833
 10
39.5130579606
 20
157.2993275756
 10
39.5080602377
 20
157.4568364135
 10
39.5030416424
 20
157.6245491406
 10
39.4979930214
 20
157.8024496261
 10
39.4929235279
 20
157.9898545664
 10
39.4878544442
 20
158.1855030824
 10
39.4827860082
 20
158.3888323478
  0
LWPOLYLINE
  5
699
100
AcDbEntity
  8
0
100
AcDbPolyline
 62
7
  6
CONTINUOUS
 90
17
 70
0
 10
41.1486358475
 20
164.3491785644
 10
41.1441751254
 20
164.4921562885
 10
41.1397302849
 20
164.626876433
 10
41.1352984749
 20
164.7532102647
 10
41.1308711418
 20
164.8711770883
 10
41.1264470854
 20
164.9805772458
 10
41.1220275059
 20
165.0811689378
 10
41.1176074509
 20
165.1728611484
 10
41.1131854645
 20
165.2554802382
 10
41.1087630026
 20
165.3288144292
 10
41.1043394798
 20
165.392711262
 10
41.0999141876
 20
165.4470347239
 10
41.0954878346
 20
165.4916502327
 10
41.0910619615
 20
165.5264445302
 10
41.0866370818
 20
165.5513437782
 10
41.082212682
 20
165.5663023564
 10
41.081183976
 20
165.5683526058
  0
LINE
  5
69A
100
AcDbEntity
  8
0
100
AcDbLine
 62
7
  6
CONTINUOUS
 10
41.1559844324
 20
164.0966722665
 11
41.1486358475
 21
164.3491785644
  0
LWPOLYLINE
  5
69B
100
AcDbEntity
  8
0
100
AcDbPolyline
 62
7
  6
CONTINUOUS
 90
20
 70
0
 10
40.8368072417
 20
163.0512775774
 10
40.8315484034
 20
163.2472932923
 10
40.826289565
 20
163.4362566032
 10
40.8210307266
 20
163.617594576
 10
40.8157718882
 20
163.7907573965
 10
40.8105130498
 20
163.9552200378
 10
40.8052542114
 20
164.1104838513
 10
40.7999953731
 20
164.2560780795
 10
40.7947365347
 20
164.3915612828
 10
40.7894776963
 20
164.516522678
 10
40.7842188579
 20
164.6305833841
 10
40.7789600195
 20
164.7333975705
 10
40.7737011811
 20
164.8246535063
 10
40.7684423428
 20
164.9040745047
 10
40.7631835044
 20
164.9714197624
 10
40.757924666
 20
165.0264850895
 10
40.7526658276
 20
165.0691035288
 10
40.7474069892
 20
165.0991458618
 10
40.7421481508
 20
165.1165210006
 10
40.7413550128
 20
165.118038431
  0
LINE
  5
69C
100
AcDbEntity
  8
0
100
AcDbLine
 62
7
  6
CONTINUOUS
 10
40.8473249185
 20
162.6404857835
 11
40.8368072417
 21
163.0512775774
  0
LINE
  5
69D
100
AcDbEntity
  8
0
100
AcDbLine
 62
7
  6
CONTINUOUS
 10
40.936725171
 20
158.8545626166
 11
40.9262074943
 21
159.2689815281
  0
LINE
  5
69E
100
AcDbEntity
  8
0
100
AcDbLine
 62
7
  6
CONTINUOUS
 10
40.8578425953
 20
162.208859504
 11
40.8473249185
 21
162.6404857835
  0
LINE
  5
69F
100
AcDbEntity
  8
0
100
AcDbLine
 62
7
  6
CONTINUOUS
 10
40.9262074943
 20
159.2689815281
 11
40.9156898175
 21
159.7034243683
  0
LINE
  5
6A0
100
AcDbEntity
  8
0
100
AcDbLine
 62
7
  6
CONTINUOUS
 10
41.0896462325
 20
163.5654153195
 11
41.0994966229
 21
163.1574927541
  0
LINE
  5
6A1
100
AcDbEntity
  8
0
100
AcDbLine
 62
7
  6
CONTINUOUS
 10
40.9156898175
 20
159.7034243683
 11
40.9051721407
 21
160.1526262336
  0
LINE
  5
6A2
100
AcDbEntity
  8
0
100
AcDbLine
 62
7
  6
CONTINUOUS
 10
40.8736191104
 20
161.5338512254
 11
40.8578425953
 21
162.208859504
  0
LINE
  5
6A3
100
AcDbEntity
  8
0
100
AcDbLine
 62
7
  6
CONTINUOUS
 10
40.9051721407
 20
160.1526262336
 11
40.8736191104
 21
161.5338512254
  0
LINE
  5
6A4
100
AcDbEntity
  8
0
100
AcDbLine
 62
7
  6
CONTINUOUS
 10
41.0994966229
 20
163.1574927541
 11
41.1092575708
 21
162.7298101285
  0
LINE
  5
6A5
100
AcDbEntity
  8
0
100
AcDbLine
 62
7
  6
CONTINUOUS
 10
41.1092575708
 20
162.7298101285
 11
41.1189582641
 21
162.2860533284
  0
LINE
  5
6A6
100
AcDbEntity
  8
0
100
AcDbLine
 62
7
  6
CONTINUOUS
 10
41.1189582641
 20
162.2860533284
 11
41.1334352986
 21
161.5990699263
  0
LINE
  5
6A7
100
AcDbEntity
  8
0
100
AcDbLine
 62
7
  6
CONTINUOUS
 10
41.1334352986
 20
161.5990699263
 11
41.1575963832
 21
160.4259185251
  0
LINE
  5
6A8
100
AcDbEntity
  8
0
100
AcDbLine
 62
7
  6
CONTINUOUS
 10
41.1575963832
 20
154.570438436
 11
41.1575963832
 21
167.2721443581
  0
LINE
  5
6A9
100
AcDbEntity
  8
0
100
AcDbLine
 62
7
  6
CONTINUOUS
 10
37.181183976
 20
156.2742301883
 11
37.437596382
 21
156.718039247
  0
LINE
  5
6AA
100
AcDbEntity
  8
0
100
AcDbLine
 62
7
  6
CONTINUOUS
 10
37.781183976
 20
156.2742301883
 11
38.037596382
 21
156.718039247
  0
LINE
  5
6AB
100
AcDbEntity
  8
0
100
AcDbLine
 62
7
  6
CONTINUOUS
 10
38.381183976
 20
156.2742301883
 11
38.637596382
 21
156.718039247
  0
LINE
  5
6AC
100
AcDbEntity
  8
0
100
AcDbLine
 62
7
  6
CONTINUOUS
 10
43.8810494601
 20
165.3728304284
 11
43.8575963832
 21
165.3322366846
  0
LINE
  5
6AD
100
AcDbEntity
  8
0
100
AcDbLine
 62
7
  6
CONTINUOUS
 10
38.981183976
 20
156.2742301883
 11
39.237596382
 21
156.718039247
  0
LINE
  5
6AE
100
AcDbEntity
  8
0
100
AcDbLine
 62
7
  6
CONTINUOUS
 10
43.5575963832
 20
154.570438436
 11
41.1575963832
 21
154.570438436
  0
LINE
  5
6AF
100
AcDbEntity
  8
0
100
AcDbLine
 62
7
  6
CONTINUOUS
 10
43.8575963832
 20
154.9212913971
 11
43.5575963832
 21
154.9212913971
  0
LWPOLYLINE
  5
6B0
100
AcDbEntity
  8
0
100
AcDbPolyline
 62
7
  6
CONTINUOUS
 90
3
 70
0
 10
37.3974040043
 20
165.5712913971
 10
37.4023586754
 20
165.5650337304
 10
37.4073334436
 20
165.5461761007
  0
LWPOLYLINE
  5
6B1
100
AcDbEntity
  8
0
100
AcDbPolyline
 62
7
  6
CONTINUOUS
 90
3
 70
0
 10
36.7974040043
 20
165.5712913971
 10
36.8023662239
 20
165.5650146529
 10
36.8073485705
 20
165.5460995885
  0
LWPOLYLINE
  5
6B2
100
AcDbEntity
  8
0
100
AcDbPolyline
 62
7
  6
CONTINUOUS
 90
3
 70
0
 10
36.1974040043
 20
165.5712913971
 10
36.2023722247
 20
165.5649994664
 10
36.2073605956
 20
165.5460386822
  0
LWPOLYLINE
  5
6B3
100
AcDbEntity
  8
0
100
AcDbPolyline
 62
7
  6
CONTINUOUS
 90
3
 70
0
 10
35.5974040043
 20
165.5712913971
 10
35.6023752343
 20
165.5649918426
 10
35.6073666268
 20
165.546008107
  0
LINE
  5
6B4
100
AcDbEntity
  8
0
100
AcDbLine
 62
7
  6
CONTINUOUS
 10
37.7413550128
 20
165.118038431
 11
37.481183976
 21
165.5683526058
  0
LINE
  5
6B5
100
AcDbEntity
  8
0
100
AcDbLine
 62
7
  6
CONTINUOUS
 10
38.3413550128
 20
165.118038431
 11
38.081183976
 21
165.5683526058
  0
LINE
  5
6B6
100
AcDbEntity
  8
0
100
AcDbLine
 62
7
  6
CONTINUOUS
 10
38.9413550128
 20
165.118038431
 11
38.681183976
 21
165.5683526058
  0
LWPOLYLINE
  5
6B7
100
AcDbEntity
  8
0
100
AcDbPolyline
 62
7
  6
CONTINUOUS
 90
18
 70
0
 10
41.0070580707
 20
165.5475486575
 10
41.0118833892
 20
165.517939706
 10
41.0167047506
 20
165.476635116
 10
41.0215249689
 20
165.4237346174
 10
41.0263524861
 20
165.3592584718
 10
41.0311934952
 20
165.2832151542
 10
41.0360418033
 20
165.1958242949
 10
41.0408872735
 20
165.097477979
 10
41.0457233805
 20
164.988602488
 10
41.0505566496
 20
164.8693705024
 10
41.0553965205
 20
164.7398431888
 10
41.060241614
 20
164.6003534804
 10
41.0650933092
 20
164.451185487
 10
41.0699651834
 20
164.2922308544
 10
41.0748673443
 20
164.123434838
 10
41.0797896841
 20
163.9454556747
 10
41.0847154565
 20
163.7593105164
 10
41.0896462325
 20
163.5654153195
  0
LWPOLYLINE
  5
6B8
100
AcDbEntity
  8
0
100
AcDbPolyline
 62
7
  6
CONTINUOUS
 90
18
 70
0
 10
40.4076278232
 20
165.5446662751
 10
40.4127411582
 20
165.5114452817
 10
40.4178521985
 20
165.4650900538
 10
40.4229641893
 20
165.4057091726
 10
40.428086865
 20
165.3333158788
 10
40.433229401
 20
165.2478747151
 10
40.4383826221
 20
165.1496726297
 10
40.4435287368
 20
165.0393205527
 10
40.448655067
 20
164.9175047512
 10
40.4537742909
 20
164.7843678758
 10
40.458906652
 20
164.6397476444
 10
40.4640569774
 20
164.4838266324
 10
40.4692204401
 20
164.3171081409
 10
40.4744028026
 20
164.13979939
 10
40.4796137158
 20
163.9519595756
 10
40.4848435288
 20
163.7543677681
 10
40.4900690515
 20
163.5484530299
 10
40.4952895231
 20
163.3348835922
  0
LWPOLYLINE
  5
6B9
100
AcDbEntity
  8
RACCORDO
100
AcDbPolyline
 62
253
  6
CONTINUOUS
 90
52
 70
0
 10
44.4338350557
 20
144.1660859483
 10
44.4348888983
 20
144.1461463758
 10
44.4364695714
 20
144.1262679522
 10
44.4385770751
 20
144.1064506776
 10
44.4412136588
 20
144.0866800266
 10
44.4443770731
 20
144.0669705246
 10
44.4480605693
 20
144.0473657474
 10
44.4522652419
 20
144.0278664486
 10
44.4569899965
 20
144.0084718747
 10
44.4622248011
 20
143.989223341
 10
44.4679707347
 20
143.9701212208
 10
44.4742267183
 20
143.9511651409
 10
44.480979483
 20
143.9323952967
 10
44.4882300618
 20
143.9138121166
 10
44.4959774216
 20
143.8954151723
 10
44.5042051943
 20
143.8772433738
 10
44.5129144272
 20
143.8592971362
 10
44.522104073
 20
143.8415760444
 10
44.5317546217
 20
143.8241177627
 10
44.5418670384
 20
143.8069228787
 10
44.5524403581
 20
143.7899908048
 10
44.5634521751
 20
143.7733574433
 10
44.5749034312
 20
143.7570234136
 10
44.5867931847
 20
143.7409880963
 10
44.5990962043
 20
143.7252855345
 10
44.6118133392
 20
143.7099164649
 10
44.6249437404
 20
143.6948801508
 10
44.6384596293
 20
143.6802084255
 10
44.6523618545
 20
143.6659020276
 10
44.6666495674
 20
143.6519602185
 10
44.6812924443
 20
143.6384126153
 10
44.6962912285
 20
143.6252600674
 10
44.7116451766
 20
143.6125017253
 10
44.7273217348
 20
143.6001646579
 10
44.743321616
 20
143.5882497437
 10
44.7596441074
 20
143.5767561041
 10
44.7762545165
 20
143.5657081723
 10
44.7931533971
 20
143.5551069305
 10
44.8103401955
 20
143.5449513966
 10
44.827778558
 20
143.5352630575
 10
44.8454690526
 20
143.5260428794
 10
44.8634111114
 20
143.5172898961
 10
44.8815666769
 20
143.5090226961
 10
44.8999362628
 20
143.5012422989
 10
44.9185193554
 20
143.493947685
 10
44.9372763561
 20
143.487154384
 10
44.9562079938
 20
143.4808634114
 10
44.9753135395
 20
143.4750737517
 10
44.9945512079
 20
143.4697978871
 10
45.0139070706
 20
143.4650399784
 10
45.0333950561
 20
143.4607958648
 10
45.0530151642
 20
143.4570655463
  0
LINE
  5
6BA
100
AcDbEntity
  8
0
100
AcDbLine
 62
7
  6
CONTINUOUS
 10
43.5575963832
 20
154.570438436
 11
43.5575963832
 21
167.2721443581
  0
LINE
  5
6BB
100
AcDbEntity
  8
0
100
AcDbLine
 62
7
  6
CONTINUOUS
 10
43.8575963832
 20
154.9212913971
 11
43.8575963832
 21
166.9212913971
  0
LWPOLYLINE
  5
6BC
100
AcDbEntity
  8
RACCORDO
100
AcDbPolyline
 62
253
  6
CONTINUOUS
 90
28
 70
0
 10
44.4338350557
 20
177.6764968458
 10
44.3866756956
 20
176.4359272481
 10
44.343143077
 20
175.1952462954
 10
44.3032371999
 20
173.9544539876
 10
44.266957785
 20
172.7135397141
 10
44.2343051117
 20
171.4725140855
 10
44.2052800174
 20
170.2314089342
 10
44.1798825956
 20
168.9902242677
 10
44.1581127529
 20
167.7489600784
 10
44.139971047
 20
166.5076481757
 10
44.1254575708
 20
165.2662885596
 10
44.1145722314
 20
164.0248812301
 10
44.1073153076
 20
162.7834579963
 10
44.1036868922
 20
161.5420188585
 10
44.1036868924
 20
160.3005638165
 10
44.1073153081
 20
159.0591246788
 10
44.1145722323
 20
157.817701445
 10
44.125457572
 20
156.5762941155
 10
44.1399710485
 20
155.3349344995
 10
44.1581127548
 20
154.0936225968
 10
44.1798825978
 20
152.8523584076
 10
44.20528002
 20
151.6111737412
 10
44.2343051148
 20
150.3700685855
 10
44.2669577887
 20
149.1290429526
 10
44.3032372035
 20
147.8881286879
 10
44.34314308
 20
146.6473364065
 10
44.3866756974
 20
145.4066554933
 10
44.4338350557
 20
144.1660859483
  0
LINE
  5
6BD
100
AcDbEntity
  8
0
100
AcDbLine
 62
7
  6
CONTINUOUS
 10
39.581183976
 20
156.2742301883
 11
39.837596382
 21
156.718039247
  0
LINE
  5
6BE
100
AcDbEntity
  8
0
100
AcDbLine
 62
7
  6
CONTINUOUS
 10
40.181183976
 20
156.2742301883
 11
40.437596382
 21
156.718039247
  0
LINE
  5
6BF
100
AcDbEntity
  8
0
100
AcDbLine
 62
7
  6
CONTINUOUS
 10
40.781183976
 20
156.2742301883
 11
41.037596382
 21
156.718039247
  0
LINE
  5
6C0
100
AcDbEntity
  8
0
100
AcDbLine
 62
7
  6
CONTINUOUS
 10
35.381183976
 20
156.2742301883
 11
35.377788762
 21
156.2712913971
  0
LINE
  5
6C1
100
AcDbEntity
  8
0
100
AcDbLine
 62
7
  6
CONTINUOUS
 10
35.981183976
 20
156.2742301883
 11
35.977788762
 21
156.2712913971
  0
LINE
  5
6C2
100
AcDbEntity
  8
0
100
AcDbLine
 62
7
  6
CONTINUOUS
 10
36.581183976
 20
156.2742301883
 11
36.577788762
 21
156.2712913971
  0
LINE
  5
6C3
100
AcDbEntity
  8
0
100
AcDbLine
 62
7
  6
CONTINUOUS
 10
37.181183976
 20
156.2742301883
 11
37.177788762
 21
156.2712913971
  0
LINE
  5
6C4
100
AcDbEntity
  8
0
100
AcDbLine
 62
7
  6
CONTINUOUS
 10
40.777788762
 20
156.2712913971
 11
40.6974040043
 21
156.2712913971
  0
LINE
  5
6C5
100
AcDbEntity
  8
0
100
AcDbLine
 62
7
  6
CONTINUOUS
 10
40.177788762
 20
156.2712913971
 11
40.0974040043
 21
156.2712913971
  0
LINE
  5
6C6
100
AcDbEntity
  8
0
100
AcDbLine
 62
7
  6
CONTINUOUS
 10
39.577788762
 20
156.2712913971
 11
39.4974040043
 21
156.2712913971
  0
LINE
  5
6C7
100
AcDbEntity
  8
0
100
AcDbLine
 62
7
  6
CONTINUOUS
 10
38.977788762
 20
156.2712913971
 11
38.8974040043
 21
156.2712913971
  0
LINE
  5
6C8
100
AcDbEntity
  8
0
100
AcDbLine
 62
7
  6
CONTINUOUS
 10
38.377788762
 20
156.2712913971
 11
38.2974040043
 21
156.2712913971
  0
LINE
  5
6C9
100
AcDbEntity
  8
0
100
AcDbLine
 62
7
  6
CONTINUOUS
 10
37.777788762
 20
156.2712913971
 11
37.6974040043
 21
156.2712913971
  0
LINE
  5
6CA
100
AcDbEntity
  8
0
100
AcDbLine
 62
7
  6
CONTINUOUS
 10
37.177788762
 20
156.2712913971
 11
37.0974040043
 21
156.2712913971
  0
LINE
  5
6CB
100
AcDbEntity
  8
0
100
AcDbLine
 62
7
  6
CONTINUOUS
 10
36.577788762
 20
156.2712913971
 11
36.4974040043
 21
156.2712913971
  0
LINE
  5
6CC
100
AcDbEntity
  8
0
100
AcDbLine
 62
7
  6
CONTINUOUS
 10
35.977788762
 20
156.2712913971
 11
35.8974040043
 21
156.2712913971
  0
LINE
  5
6CD
100
AcDbEntity
  8
0
100
AcDbLine
 62
7
  6
CONTINUOUS
 10
35.377788762
 20
156.2712913971
 11
35.2974040043
 21
156.2712913971
  0
LINE
  5
6CE
100
AcDbEntity
  8
0
100
AcDbLine
 62
7
  6
CONTINUOUS
 10
35.081183976
 20
165.5683526058
 11
35.077788762
 21
165.5712913971
  0
LINE
  5
6CF
100
AcDbEntity
  8
0
100
AcDbLine
 62
7
  6
CONTINUOUS
 10
35.681183976
 20
165.5683526058
 11
35.677788762
 21
165.5712913971
  0
LINE
  5
6D0
100
AcDbEntity
  8
0
100
AcDbLine
 62
7
  6
CONTINUOUS
 10
36.281183976
 20
165.5683526058
 11
36.277788762
 21
165.5712913971
  0
LINE
  5
6D1
100
AcDbEntity
  8
0
100
AcDbLine
 62
7
  6
CONTINUOUS
 10
36.881183976
 20
165.5683526058
 11
36.877788762
 21
165.5712913971
  0
LWPOLYLINE
  5
6D2
100
AcDbEntity
  8
0
100
AcDbPolyline
 62
7
  6
CONTINUOUS
 90
3
 70
0
 10
38.5974040043
 20
165.5712913971
 10
38.6023349659
 20
165.5650934631
 10
38.6072868684
 20
165.5464109506
  0
LWPOLYLINE
  5
6D3
100
AcDbEntity
  8
0
100
AcDbPolyline
 62
7
  6
CONTINUOUS
 90
3
 70
0
 10
39.1974040043
 20
165.5712913971
 10
39.202335674
 20
165.5650916833
 10
39.2072834905
 20
165.5464279403
  0
LWPOLYLINE
  5
6D4
100
AcDbEntity
  8
0
100
AcDbPolyline
 62
7
  6
CONTINUOUS
 90
3
 70
0
 10
37.9974040043
 20
165.5712913971
 10
38.0023436885
 20
165.565071521
 10
38.0073047302
 20
165.5463210149
  0
LWPOLYLINE
  5
6D5
100
AcDbEntity
  8
0
100
AcDbPolyline
 62
7
  6
CONTINUOUS
 90
3
 70
0
 10
39.7974040043
 20
165.5712913971
 10
39.8023523547
 20
165.5650496825
 10
39.8073076719
 20
165.5463061873
  0
LINE
  5
6D6
100
AcDbEntity
  8
0
100
AcDbLine
 62
7
  6
CONTINUOUS
 10
39.5413550128
 20
165.118038431
 11
39.281183976
 21
165.5683526058
  0
LINE
  5
6D7
100
AcDbEntity
  8
0
100
AcDbLine
 62
7
  6
CONTINUOUS
 10
40.1413550128
 20
165.118038431
 11
39.881183976
 21
165.5683526058
  0
LINE
  5
6D8
100
AcDbEntity
  8
0
100
AcDbLine
 62
7
  6
CONTINUOUS
 10
40.7413550128
 20
165.118038431
 11
40.481183976
 21
165.5683526058
  0
LINE
  5
6D9
100
AcDbEntity
  8
0
100
AcDbLine
 62
7
  6
CONTINUOUS
 10
41.1575963832
 20
165.4360885242
 11
41.081183976
 21
165.5683526058
  0
LINE
  5
6DA
100
AcDbEntity
  8
0
100
AcDbLine
 62
7
  6
CONTINUOUS
 10
43.8575963832
 20
156.4064942699
 11
43.8813091804
 21
156.4475381581
  0
LINE
  5
6DB
100
AcDbEntity
  8
0
100
AcDbLine
 62
7
  6
CONTINUOUS
 10
37.781183976
 20
156.2742301883
 11
37.777788762
 21
156.2712913971
  0
LINE
  5
6DC
100
AcDbEntity
  8
0
100
AcDbLine
 62
7
  6
CONTINUOUS
 10
38.381183976
 20
156.2742301883
 11
38.377788762
 21
156.2712913971
  0
LINE
  5
6DD
100
AcDbEntity
  8
0
100
AcDbLine
 62
7
  6
CONTINUOUS
 10
38.981183976
 20
156.2742301883
 11
38.977788762
 21
156.2712913971
  0
LINE
  5
6DE
100
AcDbEntity
  8
0
100
AcDbLine
 62
7
  6
CONTINUOUS
 10
39.581183976
 20
156.2742301883
 11
39.577788762
 21
156.2712913971
  0
LINE
  5
6DF
100
AcDbEntity
  8
0
100
AcDbLine
 62
7
  6
CONTINUOUS
 10
40.181183976
 20
156.2742301883
 11
40.177788762
 21
156.2712913971
  0
LINE
  5
6E0
100
AcDbEntity
  8
0
100
AcDbLine
 62
7
  6
CONTINUOUS
 10
34.7827967389
 20
156.2799632906
 11
34.7853461521
 21
156.2814347256
  0
LINE
  5
6E1
100
AcDbEntity
  8
0
100
AcDbLine
 62
7
  6
CONTINUOUS
 10
34.3327957961
 20
156.5397714557
 11
34.3354971371
 21
156.5413292275
  0
LINE
  5
6E2
100
AcDbEntity
  8
0
100
AcDbLine
 62
7
  6
CONTINUOUS
 10
43.5575963832
 20
157.7458649165
 11
41.1575963832
 21
157.7458649165
  0
LINE
  5
6E3
100
AcDbEntity
  8
0
100
AcDbLine
 62
7
  6
CONTINUOUS
 10
34.1077957961
 20
165.1729075279
 11
34.1105795285
 21
165.171302364
  0
LINE
  5
6E4
100
AcDbEntity
  8
0
100
AcDbLine
 62
7
  6
CONTINUOUS
 10
34.5577957961
 20
165.432715149
 11
34.5604194762
 21
165.4312020609
  0
LINE
  5
6E5
100
AcDbEntity
  8
0
100
AcDbLine
 62
7
  6
CONTINUOUS
 10
37.481183976
 20
165.5683526058
 11
37.477788762
 21
165.5712913971
  0
LINE
  5
6E6
100
AcDbEntity
  8
0
100
AcDbLine
 62
7
  6
CONTINUOUS
 10
38.081183976
 20
165.5683526058
 11
38.077788762
 21
165.5712913971
  0
LINE
  5
6E7
100
AcDbEntity
  8
0
100
AcDbLine
 62
7
  6
CONTINUOUS
 10
38.681183976
 20
165.5683526058
 11
38.677788762
 21
165.5712913971
  0
LINE
  5
6E8
100
AcDbEntity
  8
0
100
AcDbLine
 62
7
  6
CONTINUOUS
 10
39.281183976
 20
165.5683526058
 11
39.277788762
 21
165.5712913971
  0
LINE
  5
6E9
100
AcDbEntity
  8
0
100
AcDbLine
 62
7
  6
CONTINUOUS
 10
39.881183976
 20
165.5683526058
 11
39.877788762
 21
165.5712913971
  0
LINE
  5
6EA
100
AcDbEntity
  8
0
100
AcDbLine
 62
7
  6
CONTINUOUS
 10
40.481183976
 20
165.5683526058
 11
40.477788762
 21
165.5712913971
  0
LWPOLYLINE
  5
6EB
100
AcDbEntity
  8
0
100
AcDbPolyline
 62
7
  6
CONTINUOUS
 90
3
 70
0
 10
40.9974040043
 20
165.5712913971
 10
41.0022316091
 20
165.5653505126
 10
41.0070580707
 20
165.5475486575
  0
LWPOLYLINE
  5
6EC
100
AcDbEntity
  8
0
100
AcDbPolyline
 62
7
  6
CONTINUOUS
 90
3
 70
0
 10
40.3974040043
 20
165.5712913971
 10
40.4025154386
 20
165.5646315836
 10
40.4076278232
 20
165.5446662751
  0
LINE
  5
6ED
100
AcDbEntity
  8
RACCORDO
100
AcDbLine
 62
253
  6
CONTINUOUS
 10
48.1060023631
 20
138.4385729599
 11
48.1057033043
 21
138.4460491801
  0
LINE
  5
6EE
100
AcDbEntity
  8
RACCORDO
100
AcDbLine
 62
253
  6
CONTINUOUS
 10
48.1057033043
 20
138.4460491801
 11
48.1054148324
 21
138.4547850461
  0
LINE
  5
6EF
100
AcDbEntity
  8
RACCORDO
100
AcDbLine
 62
253
  6
CONTINUOUS
 10
48.1054148324
 20
138.4547850461
 11
48.1051385605
 21
138.4647317035
  0
LINE
  5
6F0
100
AcDbEntity
  8
RACCORDO
100
AcDbLine
 62
253
  6
CONTINUOUS
 10
48.1051385605
 20
138.4647317035
 11
48.1047503869
 21
138.4817984663
  0
LINE
  5
6F1
100
AcDbEntity
  8
RACCORDO
100
AcDbLine
 62
253
  6
CONTINUOUS
 10
48.1047503869
 20
138.4817984663
 11
48.1042892755
 21
138.5082195442
  0
LINE
  5
6F2
100
AcDbEntity
  8
RACCORDO
100
AcDbLine
 62
253
  6
CONTINUOUS
 10
48.1042892755
 20
138.5082195442
 11
48.1038178263
 21
138.5462913971
  0
LINE
  5
6F3
100
AcDbEntity
  8
RACCORDO
100
AcDbLine
 62
253
  6
CONTINUOUS
 10
48.1038178263
 20
138.5462913971
 11
48.1034271219
 21
138.5976026034
  0
LINE
  5
6F4
100
AcDbEntity
  8
RACCORDO
100
AcDbLine
 62
253
  6
CONTINUOUS
 10
48.1034271219
 20
138.5976026034
 11
48.1032363326
 21
138.6619435985
  0
LINE
  5
6F5
100
AcDbEntity
  8
RACCORDO
100
AcDbLine
 62
7
  6
CONTINUOUS
 10
47.8575963832
 20
183.1712913971
 11
47.8575963832
 21
179.7212913971
  0
LINE
  5
6F6
100
AcDbEntity
  8
RACCORDO
100
AcDbLine
 62
7
  6
CONTINUOUS
 10
47.8575963832
 20
142.1212913971
 11
47.8575963832
 21
138.6712913971
  0
LINE
  5
6F7
100
AcDbEntity
  8
RACCORDO
100
AcDbLine
 62
253
  6
CONTINUOUS
 10
48.1032332815
 20
142.1212913971
 11
48.1032363326
 21
138.6619435985
  0
LINE
  5
6F8
100
AcDbEntity
  8
RACCORDO
100
AcDbLine
 62
7
  6
CONTINUOUS
 10
48.3575963832
 20
179.7212913971
 11
48.3575963832
 21
178.9682040766
  0
LINE
  5
6F9
100
AcDbEntity
  8
RACCORDO
100
AcDbLine
 62
7
  6
CONTINUOUS
 10
48.3575963832
 20
142.8743787175
 11
48.3575963832
 21
142.1212913971
  0
LINE
  5
6FA
100
AcDbEntity
  8
RACCORDO
100
AcDbLine
 62
253
  6
CONTINUOUS
 10
48.1033819506
 20
183.2359961583
 11
48.1032332815
 21
179.7212913971
  0
LINE
  5
6FB
100
AcDbEntity
  8
RACCORDO
100
AcDbLine
 62
253
  6
CONTINUOUS
 10
48.1037388979
 20
183.2881085541
 11
48.1033819506
 21
183.2359961583
  0
LINE
  5
6FC
100
AcDbEntity
  8
RACCORDO
100
AcDbLine
 62
253
  6
CONTINUOUS
 10
48.104185173
 20
183.3271638475
 11
48.1037388979
 21
183.2881085541
  0
LINE
  5
6FD
100
AcDbEntity
  8
RACCORDO
100
AcDbLine
 62
253
  6
CONTINUOUS
 10
48.1046287204
 20
183.354554365
 11
48.104185173
 21
183.3271638475
  0
LINE
  5
6FE
100
AcDbEntity
  8
RACCORDO
100
AcDbLine
 62
253
  6
CONTINUOUS
 10
48.1050054854
 20
183.372440842
 11
48.1046287204
 21
183.354554365
  0
LINE
  5
6FF
100
AcDbEntity
  8
RACCORDO
100
AcDbLine
 62
253
  6
CONTINUOUS
 10
48.1052750731
 20
183.3829724469
 11
48.1050054854
 21
183.372440842
  0
LINE
  5
700
100
AcDbEntity
  8
RACCORDO
100
AcDbLine
 62
253
  6
CONTINUOUS
 10
48.1055576427
 20
183.3923202454
 11
48.1052750731
 21
183.3829724469
  0
LWPOLYLINE
  5
701
100
AcDbEntity
  8
RACCORDO
100
AcDbPolyline
 62
253
  6
CONTINUOUS
 90
11
 70
0
 10
45.015771263
 20
143.2307818303
 10
45.0152787795
 20
143.2270658298
 10
45.0148543182
 20
143.2237214518
 10
45.0144985651
 20
143.2207540998
 10
45.0142120949
 20
143.2181685685
 10
45.0139953706
 20
143.2159690355
 10
45.0138487422
 20
143.2141590545
 10
45.0137724468
 20
143.2127415501
 10
45.0137666075
 20
143.2117188127
 10
45.0138312338
 20
143.2110924947
 10
45.0139662214
 20
143.2108636081
  0
LINE
  5
702
100
AcDbEntity
  8
RACCORDO
100
AcDbLine
 62
253
  6
CONTINUOUS
 10
45.0169570056
 20
143.2393040914
 11
45.015771263
 21
143.2307818303
  0
LINE
  5
703
100
AcDbEntity
  8
RACCORDO
100
AcDbLine
 62
253
  6
CONTINUOUS
 10
45.0184038856
 20
143.2492331779
 11
45.0169570056
 21
143.2393040914
  0
LINE
  5
704
100
AcDbEntity
  8
RACCORDO
100
AcDbLine
 62
253
  6
CONTINUOUS
 10
45.0210429439
 20
143.2666219017
 11
45.0184038856
 21
143.2492331779
  0
LINE
  5
705
100
AcDbEntity
  8
RACCORDO
100
AcDbLine
 62
253
  6
CONTINUOUS
 10
45.0253749849
 20
143.2940606385
 11
45.0210429439
 21
143.2666219017
  0
LINE
  5
706
100
AcDbEntity
  8
RACCORDO
100
AcDbLine
 62
253
  6
CONTINUOUS
 10
45.0319359755
 20
143.3341794664
 11
45.0253749849
 21
143.2940606385
  0
LINE
  5
707
100
AcDbEntity
  8
RACCORDO
100
AcDbLine
 62
253
  6
CONTINUOUS
 10
45.0411350791
 20
143.3886961979
 11
45.0319359755
 21
143.3341794664
  0
LINE
  5
708
100
AcDbEntity
  8
RACCORDO
100
AcDbLine
 62
253
  6
CONTINUOUS
 10
45.0530151642
 20
143.4570655463
 11
45.0411350791
 21
143.3886961979
  0
LINE
  5
709
100
AcDbEntity
  8
0
100
AcDbLine
 62
253
  6
CONTINUOUS
 10
54.7644644654
 20
185.5566083519
 11
54.8880712632
 21
185.9370309585
  0
LWPOLYLINE
  5
70A
100
AcDbEntity
  8
0
100
AcDbPolyline
 62
7
  6
CONTINUOUS
 90
3
 70
0
 43
0.3500000006
 10
59.9290267181
 20
195.0070065308
 10
59.8575955353
 20
194.7927220459
 10
59.7147377014
 20
194.5069973145
  0
LINE
  5
70B
100
AcDbEntity
  8
0
100
AcDbLine
 62
7
  6
CONTINUOUS
 10
40.781183976
 20
156.2742301883
 11
40.777788762
 21
156.2712913971
  0
LINE
  5
70C
100
AcDbEntity
  8
0
100
AcDbLine
 62
7
  6
CONTINUOUS
 10
41.081183976
 20
165.5683526058
 11
41.077788762
 21
165.5712913971
  0
LINE
  5
70D
100
AcDbEntity
  8
0
100
AcDbLine
 62
253
  6
CONTINUOUS
 10
54.7644644654
 20
136.2859744422
 11
54.8880712632
 21
135.9055518356
  0
LINE
  5
70E
100
AcDbEntity
  8
RACCORDO
100
AcDbLine
 62
253
  6
CONTINUOUS
 10
45.0530151642
 20
178.3855172478
 11
45.0411350806
 21
178.4538865876
  0
LINE
  5
70F
100
AcDbEntity
  8
RACCORDO
100
AcDbLine
 62
253
  6
CONTINUOUS
 10
45.0411350806
 20
178.4538865876
 11
45.0319359773
 21
178.5084033162
  0
LINE
  5
710
100
AcDbEntity
  8
RACCORDO
100
AcDbLine
 62
253
  6
CONTINUOUS
 10
45.0319359773
 20
178.5084033162
 11
45.0253749865
 21
178.548522145
  0
LINE
  5
711
100
AcDbEntity
  8
RACCORDO
100
AcDbLine
 62
253
  6
CONTINUOUS
 10
45.0253749865
 20
178.548522145
 11
45.0210429452
 21
178.5759608839
  0
LINE
  5
712
100
AcDbEntity
  8
RACCORDO
100
AcDbLine
 62
253
  6
CONTINUOUS
 10
45.0210429452
 20
178.5759608839
 11
45.0184038865
 21
178.5933496097
  0
LINE
  5
713
100
AcDbEntity
  8
RACCORDO
100
AcDbLine
 62
253
  6
CONTINUOUS
 10
45.0184038865
 20
178.5933496097
 11
45.0169570063
 21
178.6032786975
  0
LWPOLYLINE
  5
714
100
AcDbEntity
  8
RACCORDO
100
AcDbPolyline
 62
253
  6
CONTINUOUS
 90
12
 70
0
 10
45.0169570063
 20
178.6032786975
 10
45.0157712635
 20
178.61180096
 10
45.0152787798
 20
178.6155169612
 10
45.0148543185
 20
178.6188613398
 10
45.0144985653
 20
178.6218286923
 10
45.0142120951
 20
178.6244142241
 10
45.0139953707
 20
178.6266137576
 10
45.0138487423
 20
178.6284237389
 10
45.0137724468
 20
178.6298412436
 10
45.0137666075
 20
178.6308639812
 10
45.0138312338
 20
178.6314902994
 10
45.0139662214
 20
178.631719186
  0
LWPOLYLINE
  5
715
100
AcDbEntity
  8
0
100
AcDbPolyline
 62
7
  6
CONTINUOUS
 90
4
 70
0
 43
0.3500000006
 10
50.08973703
 20
205.1498538208
 10
50.08973703
 20
206.0070098877
 10
50.5183105316
 20
206.4355788574
 10
51.1611685181
 20
206.4355788574
  0
LINE
  5
716
100
AcDbEntity
  8
RACCORDO
100
AcDbLine
 62
253
  6
CONTINUOUS
 10
53.3077397705
 20
136.9412965334
 11
53.3074223263
 21
136.9499273871
  0
LWPOLYLINE
  5
717
100
AcDbEntity
  8
RACCORDO
100
AcDbPolyline
 62
253
  6
CONTINUOUS
 90
3
 70
0
 10
53.3074223263
 20
136.9499273871
 10
53.307118032
 20
136.9599938713
 10
53.3069714365
 20
136.9655454259
  0
LINE
  5
718
100
AcDbEntity
  8
RACCORDO
100
AcDbLine
 62
7
  6
CONTINUOUS
 10
51.3575963832
 20
183.9712914007
 11
51.3575963832
 21
183.4212913971
  0
LINE
  5
719
100
AcDbEntity
  8
RACCORDO
100
AcDbLine
 62
7
  6
CONTINUOUS
 10
51.3575963832
 20
138.4212913971
 11
51.3575963832
 21
137.8712913946
  0
LINE
  5
71A
100
AcDbEntity
  8
RACCORDO
100
AcDbLine
 62
253
  6
CONTINUOUS
 10
52.1344198434
 20
184.1712913971
 11
52.1344198434
 21
183.4212913971
  0
LINE
  5
71B
100
AcDbEntity
  8
RACCORDO
100
AcDbLine
 62
253
  6
CONTINUOUS
 10
52.1344198434
 20
138.4212913971
 11
52.1344198434
 21
137.6712913971
  0
LINE
  5
71C
100
AcDbEntity
  8
RACCORDO
100
AcDbLine
 62
7
  6
CONTINUOUS
 10
52.3575963832
 20
184.6712913971
 11
52.3575963832
 21
183.4212913971
  0
LINE
  5
71D
100
AcDbEntity
  8
RACCORDO
100
AcDbLine
 62
7
  6
CONTINUOUS
 10
52.3575963832
 20
138.4212913971
 11
52.3575963832
 21
137.1712913971
  0
LINE
  5
71E
100
AcDbEntity
  8
RACCORDO
100
AcDbLine
 62
253
  6
CONTINUOUS
 10
53.3072684098
 20
184.887797748
 11
53.3069714364
 21
184.8770373635
  0
LINE
  5
71F
100
AcDbEntity
  8
0
100
AcDbLine
 62
7
  6
CONTINUOUS
 10
43.5575963832
 20
164.0967178776
 11
41.1575963832
 21
164.0967178776
  0
LINE
  5
720
100
AcDbEntity
  8
RACCORDO
100
AcDbLine
 62
253
  6
CONTINUOUS
 10
53.3069714365
 20
136.9655454259
 11
53.3065566891
 21
136.9841637044
  0
LINE
  5
721
100
AcDbEntity
  8
RACCORDO
100
AcDbLine
 62
253
  6
CONTINUOUS
 10
53.3065566891
 20
136.9841637044
 11
53.3060702805
 21
137.013180047
  0
LINE
  5
722
100
AcDbEntity
  8
RACCORDO
100
AcDbLine
 62
253
  6
CONTINUOUS
 10
53.3060702805
 20
137.013180047
 11
53.305586626
 21
137.0551105984
  0
LINE
  5
723
100
AcDbEntity
  8
RACCORDO
100
AcDbLine
 62
253
  6
CONTINUOUS
 10
53.305586626
 20
137.0551105984
 11
53.3052136428
 21
137.1114624776
  0
LINE
  5
724
100
AcDbEntity
  8
RACCORDO
100
AcDbLine
 62
253
  6
CONTINUOUS
 10
53.305086859
 20
138.6712913971
 11
53.3052136428
 21
137.1114624776
  0
LINE
  5
725
100
AcDbEntity
  8
0
100
AcDbLine
 62
7
  6
CONTINUOUS
 10
53.4575963832
 20
136.8712913971
 11
53.4575963832
 21
136.5712913971
  0
LINE
  5
726
100
AcDbEntity
  8
RACCORDO
100
AcDbLine
 62
7
  6
CONTINUOUS
 10
53.4575963832
 20
136.8712913971
 11
53.4575963832
 21
136.9212913971
  0
LINE
  5
727
100
AcDbEntity
  8
RACCORDO
100
AcDbLine
 62
7
  6
CONTINUOUS
 10
53.4575963832
 20
184.9212913971
 11
53.4575963832
 21
184.9712913971
  0
LINE
  5
728
100
AcDbEntity
  8
0
100
AcDbLine
 62
7
  6
CONTINUOUS
 10
53.4575963832
 20
184.9712913971
 11
53.4575963832
 21
185.2712913971
  0
LINE
  5
729
100
AcDbEntity
  8
RACCORDO
100
AcDbLine
 62
7
  6
CONTINUOUS
 10
53.8575963832
 20
184.9712913971
 11
53.8575963832
 21
184.9212913971
  0
LINE
  5
72A
100
AcDbEntity
  8
RACCORDO
100
AcDbLine
 62
7
  6
CONTINUOUS
 10
53.8575963832
 20
136.9212913971
 11
53.8575963832
 21
136.8712913971
  0
LINE
  5
72B
100
AcDbEntity
  8
0
100
AcDbLine
 62
7
  6
CONTINUOUS
 10
53.8575963832
 20
136.8712913971
 11
53.8575963832
 21
136.5712913971
  0
LINE
  5
72C
100
AcDbEntity
  8
0
100
AcDbLine
 62
7
  6
CONTINUOUS
 10
53.8575963832
 20
184.9712913971
 11
53.8575963832
 21
185.2712913971
  0
LINE
  5
72D
100
AcDbEntity
  8
0
100
AcDbLine
 62
253
  6
CONTINUOUS
 10
54.1575963832
 20
136.2712913971
 11
54.1575963832
 21
135.8712913971
  0
LINE
  5
72E
100
AcDbEntity
  8
0
100
AcDbLine
 62
253
  6
CONTINUOUS
 10
54.1575963832
 20
185.5712913971
 11
54.1575963832
 21
185.9712913971
  0
LINE
  5
72F
100
AcDbEntity
  8
0
100
AcDbLine
 62
253
  6
CONTINUOUS
 10
54.6717593671
 20
136.2712913971
 11
54.6717593671
 21
135.8712913971
  0
LINE
  5
730
100
AcDbEntity
  8
0
100
AcDbLine
 62
253
  6
CONTINUOUS
 10
54.6717593671
 20
185.5712913971
 11
54.6717593671
 21
185.9712913971
  0
LINE
  5
731
100
AcDbEntity
  8
RACCORDO
100
AcDbLine
 62
253
  6
CONTINUOUS
 10
53.3052136428
 20
184.7311203131
 11
53.305086859
 21
183.1712913971
  0
LINE
  5
732
100
AcDbEntity
  8
RACCORDO
100
AcDbLine
 62
253
  6
CONTINUOUS
 10
53.305586626
 20
184.7874721901
 11
53.3052136428
 21
184.7311203131
  0
LINE
  5
733
100
AcDbEntity
  8
RACCORDO
100
AcDbLine
 62
253
  6
CONTINUOUS
 10
53.3060702805
 20
184.829402741
 11
53.305586626
 21
184.7874721901
  0
LINE
  5
734
100
AcDbEntity
  8
RACCORDO
100
AcDbLine
 62
253
  6
CONTINUOUS
 10
53.3065566891
 20
184.8584190841
 11
53.3060702805
 21
184.829402741
  0
LINE
  5
735
100
AcDbEntity
  8
RACCORDO
100
AcDbLine
 62
253
  6
CONTINUOUS
 10
53.3069714364
 20
184.8770373635
 11
53.3065566891
 21
184.8584190841
  0
LINE
  5
736
100
AcDbEntity
  8
0
100
AcDbLine
 62
7
  6
CONTINUOUS
 10
41.077788762
 20
165.5712913971
 11
40.9974040043
 21
165.5712913971
  0
LINE
  5
737
100
AcDbEntity
  8
0
100
AcDbLine
 62
7
  6
CONTINUOUS
 10
40.477788762
 20
165.5712913971
 11
40.3974040043
 21
165.5712913971
  0
LINE
  5
738
100
AcDbEntity
  8
0
100
AcDbLine
 62
7
  6
CONTINUOUS
 10
39.877788762
 20
165.5712913971
 11
39.7974040043
 21
165.5712913971
  0
LINE
  5
739
100
AcDbEntity
  8
0
100
AcDbLine
 62
7
  6
CONTINUOUS
 10
39.277788762
 20
165.5712913971
 11
39.1974040043
 21
165.5712913971
  0
LINE
  5
73A
100
AcDbEntity
  8
0
100
AcDbLine
 62
7
  6
CONTINUOUS
 10
38.677788762
 20
165.5712913971
 11
38.5974040043
 21
165.5712913971
  0
LINE
  5
73B
100
AcDbEntity
  8
0
100
AcDbLine
 62
7
  6
CONTINUOUS
 10
38.077788762
 20
165.5712913971
 11
37.9974040043
 21
165.5712913971
  0
LINE
  5
73C
100
AcDbEntity
  8
0
100
AcDbLine
 62
7
  6
CONTINUOUS
 10
37.477788762
 20
165.5712913971
 11
37.3974040043
 21
165.5712913971
  0
LINE
  5
73D
100
AcDbEntity
  8
0
100
AcDbLine
 62
7
  6
CONTINUOUS
 10
36.877788762
 20
165.5712913971
 11
36.7974040043
 21
165.5712913971
  0
LINE
  5
73E
100
AcDbEntity
  8
0
100
AcDbLine
 62
7
  6
CONTINUOUS
 10
36.277788762
 20
165.5712913971
 11
36.1974040043
 21
165.5712913971
  0
LINE
  5
73F
100
AcDbEntity
  8
0
100
AcDbLine
 62
7
  6
CONTINUOUS
 10
35.677788762
 20
165.5712913971
 11
35.5974040043
 21
165.5712913971
  0
LINE
  5
740
100
AcDbEntity
  8
0
100
AcDbLine
 62
7
  6
CONTINUOUS
 10
35.077788762
 20
165.5712913971
 11
34.9974040043
 21
165.5712913971
  0
LINE
  5
741
100
AcDbEntity
  8
0
100
AcDbLine
 62
7
  6
CONTINUOUS
 10
43.8575963832
 20
166.9212913971
 11
43.5575963832
 21
166.9212913971
  0
LINE
  5
742
100
AcDbEntity
  8
RACCORDO
100
AcDbLine
 62
7
  6
CONTINUOUS
 10
55.3575963832
 20
184.9212913971
 11
55.3575963832
 21
136.9212913971
  0
LINE
  5
743
100
AcDbEntity
  8
0
100
AcDbLine
 62
7
  6
CONTINUOUS
 10
43.5575963832
 20
167.2721443581
 11
41.1575963832
 21
167.2721443581
  0
LWPOLYLINE
  5
744
100
AcDbEntity
  8
0
100
AcDbPolyline
 62
7
  6
CONTINUOUS
 90
13
 70
0
 43
0.3500000006
 10
56.8575946198
 20
195.5784378662
 10
56.8575946198
 20
196.8641447754
 10
57.0718836365
 20
197.2927137451
 10
57.5004526062
 20
197.7212827148
 10
57.7147370911
 20
197.7212827148
 10
58.1433105927
 20
197.2927137451
 10
58.3575950775
 20
196.8641447754
 10
58.3575950775
 20
195.5784378662
 10
58.1433105927
 20
195.1498688965
 10
57.7147370911
 20
194.7212999268
 10
57.5004526062
 20
194.7212999268
 10
57.0718836365
 20
195.1498688965
 10
56.8575946198
 20
195.5784378662
  0
LINE
  5
745
100
AcDbEntity
  8
RACCORDO
100
AcDbLine
 62
7
  6
CONTINUOUS
 10
64.1352420967
 20
179.3617117456
 11
55.3575963832
 21
177.0097486652
  0
LINE
  5
746
100
AcDbEntity
  8
RACCORDO
100
AcDbLine
 62
253
  6
CONTINUOUS
 10
64.0591671723
 20
179.6514894934
 11
55.3575963832
 21
177.3199106276
  0
LINE
  5
747
100
AcDbEntity
  8
ASSI
100
AcDbLine
 62
253
  6
CONTINUOUS
 10
63.3750487896
 20
138.4212913971
 11
63.3750487896
 21
139.9478955172
  0
LINE
  5
748
100
AcDbEntity
  8
ASSI
100
AcDbLine
 62
253
  6
CONTINUOUS
 10
63.3750487896
 20
181.894687277
 11
63.3750487896
 21
183.4212913971
  0
LINE
  5
749
100
AcDbEntity
  8
RACCORDO
100
AcDbLine
 62
253
  6
CONTINUOUS
 10
64.0591671723
 20
139.9443134489
 11
64.0591671723
 21
142.1910933007
  0
LINE
  5
74A
100
AcDbEntity
  8
RACCORDO
100
AcDbLine
 62
253
  6
CONTINUOUS
 10
64.0591671723
 20
179.6514894934
 11
64.0591671723
 21
181.8982693452
  0
LINE
  5
74B
100
AcDbEntity
  8
DRAFT
100
AcDbLine
 62
7
  6
CONTINUOUS
 10
64.3575963832
 20
137.6712913971
 11
64.3575963832
 21
138.4212913971
  0
LINE
  5
74C
100
AcDbEntity
  8
ASSI
100
AcDbLine
 62
7
  6
CONTINUOUS
 10
64.3575963832
 20
138.4212913971
 11
64.3575963832
 21
139.942750863
  0
LINE
  5
74D
100
AcDbEntity
  8
RACCORDO
100
AcDbLine
 62
7
  6
CONTINUOUS
 10
64.3575963832
 20
139.942750863
 11
64.3575963832
 21
142.1910933007
  0
LINE
  5
74E
100
AcDbEntity
  8
RACCORDO
100
AcDbLine
 62
7
  6
CONTINUOUS
 10
64.3575963832
 20
179.6514894934
 11
64.3575963832
 21
181.8998319311
  0
LINE
  5
74F
100
AcDbEntity
  8
ASSI
100
AcDbLine
 62
7
  6
CONTINUOUS
 10
64.3575963832
 20
181.8998319311
 11
64.3575963832
 21
183.4212913971
  0
LWPOLYLINE
  5
750
100
AcDbEntity
  8
RACCORDO
100
AcDbPolyline
 62
253
  6
CONTINUOUS
 90
7
 70
0
 10
64.1352420967
 20
179.3617117456
 10
64.1352426451
 20
179.3619287071
 10
64.1351347855
 20
179.3625499471
 10
64.1349186684
 20
179.3635745984
 10
64.1345945956
 20
179.3650012303
 10
64.1341630196
 20
179.3668278509
 10
64.1329799172
 20
179.3716703024
  0
LWPOLYLINE
  5
751
100
AcDbEntity
  8
RACCORDO
100
AcDbPolyline
 62
253
  6
CONTINUOUS
 90
52
 70
0
 10
45.0530151642
 20
178.3855172478
 10
45.0333971114
 20
178.3817874211
 10
45.0139106705
 20
178.3775437099
 10
44.9945558416
 20
178.3727861142
 10
44.9753185274
 20
178.367510442
 10
44.9562128251
 20
178.3617208853
 10
44.9372810264
 20
178.3554300196
 10
44.9185240278
 20
178.3486368609
 10
44.8999409328
 20
178.3413423931
 10
44.8815713435
 20
178.3335621439
 10
44.8634157769
 20
178.3252950936
 10
44.845473716
 20
178.3165422618
 10
44.8277832122
 20
178.3073222354
 10
44.8103448305
 20
178.2976340474
 10
44.7931580059
 20
178.2874786649
 10
44.7762590949
 20
178.2768775752
 10
44.7596486524
 20
178.2658297965
 10
44.7433261235
 20
178.2543363108
 10
44.7273262009
 20
178.2424215516
 10
44.7116495995
 20
178.2300846426
 10
44.6962956044
 20
178.2173264601
 10
44.681296764
 20
178.2041740673
 10
44.6666538212
 20
178.1906266156
 10
44.652366033
 20
178.1766849536
 10
44.6384637184
 20
178.1623786894
 10
44.6249477231
 20
178.1477070825
 10
44.6118172013
 20
178.1326708735
 10
44.5990999345
 20
178.117301893
 10
44.5867967701
 20
178.1015994015
 10
44.5749068606
 20
178.0855641385
 10
44.5634554452
 20
178.0692301534
 10
44.5524434669
 20
178.0525968265
 10
44.5418699827
 20
178.0356647774
 10
44.5317574031
 20
178.0184699146
 10
44.5221066951
 20
178.0010116527
 10
44.5129168917
 20
177.983290577
 10
44.5042075026
 20
177.9653443516
 10
44.4959795749
 20
177.9471725621
 10
44.4882320615
 20
177.9287756229
 10
44.4809813303
 20
177.910192441
 10
44.4742284141
 20
177.891422585
 10
44.4679722801
 20
177.8724664863
 10
44.4622261981
 20
177.8533643468
 10
44.4569912466
 20
177.8341157964
 10
44.4522663471
 20
177.8147212051
 10
44.4480615339
 20
177.7952218853
 10
44.4443779104
 20
177.7756172535
 10
44.4412143732
 20
177.755907893
 10
44.4385776467
 20
177.7361368658
 10
44.4364699723
 20
177.7163185258
 10
44.4348891087
 20
177.6964385192
 10
44.4338350557
 20
177.6764968458
  0
LINE
  5
752
100
AcDbEntity
  8
RACCORDO
100
AcDbLine
 62
253
  6
CONTINUOUS
 10
48.3575963832
 20
178.9682040766
 11
45.0530151642
 21
178.3855172478
  0
LINE
  5
753
100
AcDbEntity
  8
RACCORDO
100
AcDbLine
 62
7
  6
CONTINUOUS
 10
48.3575963832
 20
179.2212913971
 11
45.0139662214
 21
178.631719186
  0
LWPOLYLINE
  5
754
100
AcDbEntity
  8
RACCORDO
100
AcDbPolyline
 62
253
  6
CONTINUOUS
 90
5
 70
0
 10
44.4338350557
 20
177.6764968458
 10
44.1901731259
 20
177.6862678285
 10
44.1891843675
 20
177.6863136898
 10
44.1885905927
 20
177.6863439797
 10
44.1883927435
 20
177.6863586501
  0
LWPOLYLINE
  5
755
100
AcDbEntity
  8
RACCORDO
100
AcDbPolyline
 62
253
  6
CONTINUOUS
 90
6
 70
0
 10
64.1341628609
 20
142.4757542807
 10
64.1345944967
 20
142.4775811381
 10
64.1349186154
 20
142.479007955
 10
64.1351347643
 20
142.4800327392
 10
64.1352426416
 20
142.4806540596
 10
64.1352420967
 20
142.4808710485
  0
LINE
  5
756
100
AcDbEntity
  8
RACCORDO
100
AcDbLine
 62
253
  6
CONTINUOUS
 10
64.1329795972
 20
142.4709112002
 11
64.1341628609
 21
142.4757542807
  0
LINE
  5
757
100
AcDbEntity
  8
RACCORDO
100
AcDbLine
 62
253
  6
CONTINUOUS
 10
64.1304182167
 20
142.4607279821
 11
64.1329795972
 21
142.4709112002
  0
LINE
  5
758
100
AcDbEntity
  8
RACCORDO
100
AcDbLine
 62
253
  6
CONTINUOUS
 10
64.1241385209
 20
142.4363152428
 11
64.1304182167
 21
142.4607279821
  0
LINE
  5
759
100
AcDbEntity
  8
RACCORDO
100
AcDbLine
 62
253
  6
CONTINUOUS
 10
64.1025957726
 20
142.3541922353
 11
64.1241385209
 21
142.4363152428
  0
LINE
  5
75A
100
AcDbEntity
  8
RACCORDO
100
AcDbLine
 62
253
  6
CONTINUOUS
 10
64.0591671723
 20
142.1910933007
 11
64.1025957726
 21
142.3541922353
  0
LINE
  5
75B
100
AcDbEntity
  8
RACCORDO
100
AcDbLine
 62
253
  6
CONTINUOUS
 10
64.0591671723
 20
179.6514894934
 11
64.3575963832
 21
179.6514894934
  0
LINE
  5
75C
100
AcDbEntity
  8
RACCORDO
100
AcDbLine
 62
7
  6
CONTINUOUS
 10
47.8575963832
 20
179.7212913971
 11
48.3575963832
 21
179.7212913971
  0
LINE
  5
75D
100
AcDbEntity
  8
RACCORDO
100
AcDbLine
 62
253
  6
CONTINUOUS
 10
64.1093975156
 20
179.4626056313
 11
64.0591671723
 21
179.6514894934
  0
LINE
  5
75E
100
AcDbEntity
  8
RACCORDO
100
AcDbLine
 62
253
  6
CONTINUOUS
 10
64.1255892842
 20
179.4006653735
 11
64.1093975156
 21
179.4626056313
  0
LINE
  5
75F
100
AcDbEntity
  8
RACCORDO
100
AcDbLine
 62
253
  6
CONTINUOUS
 10
64.1304188805
 20
179.3818522005
 11
64.1255892842
 21
179.4006653735
  0
LINE
  5
760
100
AcDbEntity
  8
RACCORDO
100
AcDbLine
 62
253
  6
CONTINUOUS
 10
64.1329799172
 20
179.3716703024
 11
64.1304188805
 21
179.3818522005
  0
LINE
  5
761
100
AcDbEntity
  8
RACCORDO
100
AcDbLine
 62
253
  6
CONTINUOUS
 10
51.9208086398
 20
184.1068928224
 11
51.947745905
 21
184.1145013871
  0
LINE
  5
762
100
AcDbEntity
  8
RACCORDO
100
AcDbLine
 62
253
  6
CONTINUOUS
 10
51.887541606
 20
184.0976741702
 11
51.9208086398
 21
184.1068928224
  0
LINE
  5
763
100
AcDbEntity
  8
RACCORDO
100
AcDbLine
 62
253
  6
CONTINUOUS
 10
51.8547847883
 20
184.0887800256
 11
51.887541606
 21
184.0976741702
  0
LINE
  5
764
100
AcDbEntity
  8
RACCORDO
100
AcDbLine
 62
253
  6
CONTINUOUS
 10
51.8226236826
 20
184.0802160094
 11
51.8547847883
 21
184.0887800256
  0
LINE
  5
765
100
AcDbEntity
  8
RACCORDO
100
AcDbLine
 62
253
  6
CONTINUOUS
 10
51.7911324085
 20
184.0719847265
 11
51.8226236826
 21
184.0802160094
  0
LINE
  5
766
100
AcDbEntity
  8
RACCORDO
100
AcDbLine
 62
253
  6
CONTINUOUS
 10
51.754310694
 20
184.0625449874
 11
51.7911324085
 21
184.0719847265
  0
LINE
  5
767
100
AcDbEntity
  8
RACCORDO
100
AcDbLine
 62
253
  6
CONTINUOUS
 10
51.7186361917
 20
184.0535806454
 11
51.754310694
 21
184.0625449874
  0
LINE
  5
768
100
AcDbEntity
  8
RACCORDO
100
AcDbLine
 62
253
  6
CONTINUOUS
 10
51.678589461
 20
184.0437199385
 11
51.7186361917
 21
184.0535806454
  0
LINE
  5
769
100
AcDbEntity
  8
RACCORDO
100
AcDbLine
 62
253
  6
CONTINUOUS
 10
51.64037238
 20
184.0344998153
 11
51.678589461
 21
184.0437199385
  0
LINE
  5
76A
100
AcDbEntity
  8
RACCORDO
100
AcDbLine
 62
253
  6
CONTINUOUS
 10
51.5991089925
 20
184.0247430711
 11
51.64037238
 21
184.0344998153
  0
LINE
  5
76B
100
AcDbEntity
  8
RACCORDO
100
AcDbLine
 62
253
  6
CONTINUOUS
 10
51.5559879901
 20
184.0147565644
 11
51.5991089925
 21
184.0247430711
  0
LINE
  5
76C
100
AcDbEntity
  8
RACCORDO
100
AcDbLine
 62
253
  6
CONTINUOUS
 10
51.5124640418
 20
184.0048832635
 11
51.5559879901
 21
184.0147565644
  0
LINE
  5
76D
100
AcDbEntity
  8
RACCORDO
100
AcDbLine
 62
253
  6
CONTINUOUS
 10
51.4667468473
 20
183.9947249416
 11
51.5124640418
 21
184.0048832635
  0
LINE
  5
76E
100
AcDbEntity
  8
RACCORDO
100
AcDbLine
 62
253
  6
CONTINUOUS
 10
51.4175817323
 20
183.9840314567
 11
51.4667468473
 21
183.9947249416
  0
LINE
  5
76F
100
AcDbEntity
  8
RACCORDO
100
AcDbLine
 62
253
  6
CONTINUOUS
 10
51.3881049419
 20
183.9777299935
 11
51.4175817323
 21
183.9840314567
  0
LINE
  5
770
100
AcDbEntity
  8
RACCORDO
100
AcDbLine
 62
253
  6
CONTINUOUS
 10
51.3762601366
 20
183.9752203034
 11
51.3881049419
 21
183.9777299935
  0
LINE
  5
771
100
AcDbEntity
  8
RACCORDO
100
AcDbLine
 62
253
  6
CONTINUOUS
 10
51.3720612989
 20
183.9743336913
 11
51.3762601366
 21
183.9752203034
  0
LINE
  5
772
100
AcDbEntity
  8
RACCORDO
100
AcDbLine
 62
253
  6
CONTINUOUS
 10
51.3695566215
 20
183.9738055649
 11
51.3720612989
 21
183.9743336913
  0
LINE
  5
773
100
AcDbEntity
  8
RACCORDO
100
AcDbLine
 62
253
  6
CONTINUOUS
 10
51.3662431681
 20
183.9731077668
 11
51.3695566215
 21
183.9738055649
  0
LWPOLYLINE
  5
774
100
AcDbEntity
  8
RACCORDO
100
AcDbPolyline
 62
253
  6
CONTINUOUS
 90
3
 70
0
 10
51.3634637915
 20
183.9725231981
 10
51.3643307964
 20
183.9727054764
 10
51.3662431681
 20
183.9731077668
  0
LINE
  5
775
100
AcDbEntity
  8
RACCORDO
100
AcDbLine
 62
253
  6
CONTINUOUS
 10
51.3576263637
 20
183.9712976833
 11
51.3634637915
 21
183.9725231981
  0
LINE
  5
776
100
AcDbEntity
  8
ASSI
100
AcDbLine
 62
7
  6
CONTINUOUS
 10
55.3575963832
 20
181.8527076107
 11
64.3575963832
 21
181.8998319311
  0
LWPOLYLINE
  5
777
100
AcDbEntity
  8
0
100
AcDbPolyline
 62
7
  6
CONTINUOUS
 90
10
 70
0
 43
0.3500000006
 10
49.0183100739
 20
205.2212940674
 10
49.0897412567
 20
205.0784317017
 10
49.0897412567
 20
205.0070095825
 10
48.9468834229
 20
204.8641472168
 10
48.87545224
 20
204.8641472168
 10
48.804025589
 20
204.9355693359
 10
48.804025589
 20
205.0070095825
 10
48.87545224
 20
205.1498538208
 10
48.9468834229
 20
205.2212940674
 10
49.0183100739
 20
205.2212940674
  0
LINE
  5
778
100
AcDbEntity
  8
RACCORDO
100
AcDbLine
 62
7
  6
CONTINUOUS
 10
53.305086859
 20
138.6712913971
 11
53.2018310721
 21
138.6188773695
  0
LINE
  5
779
100
AcDbEntity
  8
RACCORDO
100
AcDbLine
 62
7
  6
CONTINUOUS
 10
53.2018310721
 20
138.6188773695
 11
53.1501688072
 21
138.5930323349
  0
LINE
  5
77A
100
AcDbEntity
  8
RACCORDO
100
AcDbLine
 62
7
  6
CONTINUOUS
 10
53.1501688072
 20
138.5930323349
 11
53.1158016227
 21
138.5761037718
  0
LINE
  5
77B
100
AcDbEntity
  8
RACCORDO
100
AcDbLine
 62
7
  6
CONTINUOUS
 10
53.1158016227
 20
138.5761037718
 11
53.0815395282
 21
138.5594987503
  0
LWPOLYLINE
  5
77C
100
AcDbEntity
  8
RACCORDO
100
AcDbPolyline
 62
7
  6
CONTINUOUS
 90
26
 70
0
 10
53.0815395282
 20
138.5594987503
 10
53.0474078172
 20
138.5433027359
 10
53.030404812
 20
138.5353810915
 10
53.0134436676
 20
138.5275961887
 10
52.9965367128
 20
138.5199507567
 10
52.9796838041
 20
138.512461922
 10
52.9628850448
 20
138.5051453908
 10
52.9461531683
 20
138.4980045499
 10
52.9294878039
 20
138.4910589443
 10
52.9128892486
 20
138.4843264448
 10
52.8963712718
 20
138.4778118032
 10
52.8799331752
 20
138.4715377172
 10
52.8635755335
 20
138.4655249394
 10
52.847314061
 20
138.4597806763
 10
52.8311474737
 20
138.4543316901
 10
52.8150768552
 20
138.4492026219
 10
52.7991215035
 20
138.4444049285
 10
52.7832793084
 20
138.4399706347
 10
52.7675520589
 20
138.4359295462
 10
52.751964921
 20
138.4323000593
 10
52.7365143526
 20
138.4291208863
 10
52.7212033822
 20
138.4264287437
 10
52.7060670234
 20
138.4242531359
 10
52.6911166867
 20
138.4226386644
 10
52.6763401399
 20
138.4216359054
 10
52.6617368536
 20
138.4212913971
  0
LINE
  5
77D
100
AcDbEntity
  8
RACCORDO
100
AcDbLine
 62
253
  6
CONTINUOUS
 10
47.8575963832
 20
183.1712913971
 11
53.305086859
 21
183.1712913971
  0
LINE
  5
77E
100
AcDbEntity
  8
RACCORDO
100
AcDbLine
 62
7
  6
CONTINUOUS
 10
48.1075963832
 20
183.4212913971
 11
52.6617368536
 21
183.4212913971
  0
LINE
  5
77F
100
AcDbEntity
  8
ASSI
100
AcDbLine
 62
7
  6
CONTINUOUS
 10
55.3575963832
 20
183.4212913971
 11
64.3575963832
 21
183.4212913971
  0
LINE
  5
780
100
AcDbEntity
  8
RACCORDO
100
AcDbLine
 62
7
  6
CONTINUOUS
 10
51.5575963832
 20
184.1712913971
 11
52.3575963832
 21
184.1712913971
  0
LINE
  5
781
100
AcDbEntity
  8
RACCORDO
100
AcDbLine
 62
7
  6
CONTINUOUS
 10
55.3575963832
 20
184.1712913971
 11
63.6075963832
 21
184.1712913971
  0
LINE
  5
782
100
AcDbEntity
  8
RACCORDO
100
AcDbLine
 62
253
  6
CONTINUOUS
 10
52.3575963832
 20
184.6712913971
 11
55.3575963832
 21
184.6712913971
  0
LWPOLYLINE
  5
783
100
AcDbEntity
  8
RACCORDO
100
AcDbPolyline
 62
7
  6
CONTINUOUS
 90
25
 70
0
 10
52.6617368536
 20
183.4212913971
 10
52.6763401399
 20
183.4209468888
 10
52.6911166867
 20
183.4199441297
 10
52.7060670234
 20
183.4183296582
 10
52.7212033822
 20
183.4161540504
 10
52.7365143526
 20
183.4134619078
 10
52.751964921
 20
183.4102827348
 10
52.7675520589
 20
183.4066532479
 10
52.7832793084
 20
183.4026121594
 10
52.7991215035
 20
183.3981778656
 10
52.8150768552
 20
183.3933801722
 10
52.8311474737
 20
183.388251104
 10
52.847314061
 20
183.3828021178
 10
52.8635755335
 20
183.3770578547
 10
52.8799331752
 20
183.371045077
 10
52.8963712718
 20
183.3647709909
 10
52.9128892486
 20
183.3582563493
 10
52.9294878039
 20
183.3515238498
 10
52.9461531683
 20
183.3445782442
 10
52.9628850448
 20
183.3374374033
 10
52.9796838041
 20
183.3301208721
 10
52.9965367128
 20
183.3226320374
 10
53.0134436676
 20
183.3149866054
 10
53.030404812
 20
183.3072017026
 10
53.0474078172
 20
183.2992800582
  0
LINE
  5
784
100
AcDbEntity
  8
RACCORDO
100
AcDbLine
 62
7
  6
CONTINUOUS
 10
53.0474078172
 20
183.2992800582
 11
53.0815395282
 21
183.2830840438
  0
LINE
  5
785
100
AcDbEntity
  8
RACCORDO
100
AcDbLine
 62
7
  6
CONTINUOUS
 10
53.0815395282
 20
183.2830840438
 11
53.1158016227
 21
183.2664790223
  0
LINE
  5
786
100
AcDbEntity
  8
RACCORDO
100
AcDbLine
 62
7
  6
CONTINUOUS
 10
53.1158016227
 20
183.2664790223
 11
53.1501688072
 21
183.2495504592
  0
LINE
  5
787
100
AcDbEntity
  8
RACCORDO
100
AcDbLine
 62
7
  6
CONTINUOUS
 10
53.1501688072
 20
183.2495504592
 11
53.2018310721
 21
183.2237054246
  0
LINE
  5
788
100
AcDbEntity
  8
RACCORDO
100
AcDbLine
 62
7
  6
CONTINUOUS
 10
53.2018310721
 20
183.2237054246
 11
53.305086859
 21
183.1712913971
  0
LINE
  5
789
100
AcDbEntity
  8
0
100
AcDbLine
 62
7
  6
CONTINUOUS
 10
54.7644644654
 20
136.2859744422
 11
59.0280316513
 21
137.6712913971
  0
LINE
  5
78A
100
AcDbEntity
  8
0
100
AcDbLine
 62
7
  6
CONTINUOUS
 10
54.8880712632
 20
135.9055518356
 11
60.3224588423
 21
137.6712913971
  0
LINE
  5
78B
100
AcDbEntity
  8
RACCORDO
100
AcDbLine
 62
7
  6
CONTINUOUS
 10
52.6075963832
 20
184.9212913971
 11
55.3575963832
 21
184.9212913971
  0
LINE
  5
78C
100
AcDbEntity
  8
0
100
AcDbLine
 62
7
  6
CONTINUOUS
 10
53.8575963832
 20
184.9712913971
 11
53.4575963832
 21
184.9712913971
  0
LINE
  5
78D
100
AcDbEntity
  8
0
100
AcDbLine
 62
253
  6
CONTINUOUS
 10
53.8575963832
 20
185.2712913971
 11
53.4575963832
 21
185.2712913971
  0
LINE
  5
78E
100
AcDbEntity
  8
0
100
AcDbLine
 62
7
  6
CONTINUOUS
 10
54.1575963832
 20
185.5712913971
 11
54.6717593671
 21
185.5712913971
  0
LINE
  5
78F
100
AcDbEntity
  8
0
100
AcDbLine
 62
7
  6
CONTINUOUS
 10
54.1575963832
 20
185.9712913971
 11
54.6717593671
 21
185.9712913971
  0
LINE
  5
790
100
AcDbEntity
  8
0
100
AcDbLine
 62
7
  6
CONTINUOUS
 10
54.7644644654
 20
185.5566083519
 11
59.0280316513
 21
184.1712913971
  0
LINE
  5
791
100
AcDbEntity
  8
0
100
AcDbLine
 62
7
  6
CONTINUOUS
 10
54.8880712632
 20
185.9370309585
 11
60.3224588423
 21
184.1712913971
  0
LWPOLYLINE
  5
792
100
AcDbEntity
  8
0
100
AcDbPolyline
 62
7
  6
CONTINUOUS
 90
10
 70
0
 43
0.3500000006
 10
59.8575955353
 20
195.2212910156
 10
59.9290267181
 20
195.0784286499
 10
59.9290267181
 20
195.0070065308
 10
59.7861688843
 20
194.864144165
 10
59.7147377014
 20
194.864144165
 10
59.6433110504
 20
194.9355844116
 10
59.6433110504
 20
195.0070065308
 10
59.7147377014
 20
195.1498688965
 10
59.7861688843
 20
195.2212910156
 10
59.8575955353
 20
195.2212910156
  0
LWPOLYLINE
  5
793
100
AcDbEntity
  8
0
100
AcDbPolyline
 62
7
  6
CONTINUOUS
 90
8
 70
0
 43
0.3500000006
 10
60.9290270233
 20
194.7212999268
 10
61.7861694946
 20
194.7212999268
 10
62.2147384644
 20
195.1498688965
 10
62.2147384644
 20
196.0070068359
 10
61.7861694946
 20
196.4355758057
 10
60.9290270233
 20
196.4355758057
 10
60.9290270233
 20
197.7212827148
 10
62.2147384644
 20
197.7212827148
  0
LWPOLYLINE
  5
794
100
AcDbEntity
  8
0
100
AcDbPolyline
 62
7
  6
CONTINUOUS
 90
6
 70
0
 43
0.3500000006
 10
44.5183087006
 20
204.7212848511
 10
45.5897401886
 20
204.7212848511
 10
45.8040246735
 20
204.9355693359
 10
45.8040246735
 20
206.0070098877
 10
45.3754557037
 20
206.4355788574
 10
44.9468822021
 20
206.4355788574
  0
LWPOLYLINE
  5
795
100
AcDbEntity
  8
0
100
AcDbPolyline
 62
7
  6
CONTINUOUS
 90
13
 70
0
 43
0.3500000006
 10
50.5183105316
 20
206.4355788574
 10
50.2325948639
 20
206.6498633423
 10
50.2325948639
 20
207.2927167969
 10
50.5183105316
 20
207.7212857666
 10
51.1611685181
 20
207.7212857666
 10
51.4468841858
 20
207.2927167969
 10
51.4468841858
 20
206.6498633423
 10
51.1611685181
 20
206.4355788574
 10
51.5897374878
 20
206.0070098877
 10
51.5897374878
 20
205.1498538208
 10
51.1611685181
 20
204.7212848511
 10
50.5183105316
 20
204.7212848511
 10
50.08973703
 20
205.1498538208
  0
ARC
  5
796
100
AcDbEntity
  8
0
100
AcDbCircle
 62
7
  6
CONTINUOUS
 10
89.0416666989
 20
160.9212913971
 40
6.0
100
AcDbArc
 50
336.4435356909
 51
23.5564643091
  0
ARC
  5
797
100
AcDbEntity
  8
0
100
AcDbCircle
 62
7
  6
CONTINUOUS
 10
89.0416666989
 20
160.9212913971
 40
6.0
100
AcDbArc
 50
36.4435356909
 51
83.5564643091
  0
ARC
  5
798
100
AcDbEntity
  8
0
100
AcDbCircle
 62
7
  6
CONTINUOUS
 10
89.0416666989
 20
160.9212913971
 40
6.0
100
AcDbArc
 50
96.4435356909
 51
143.5564643091
  0
ARC
  5
799
100
AcDbEntity
  8
0
100
AcDbCircle
 62
7
  6
CONTINUOUS
 10
89.0416666989
 20
160.9212913971
 40
6.0
100
AcDbArc
 50
156.4435356909
 51
203.5564643091
  0
ARC
  5
79A
100
AcDbEntity
  8
0
100
AcDbCircle
 62
7
  6
CONTINUOUS
 10
89.0416666989
 20
160.9212913971
 40
6.0
100
AcDbArc
 50
216.4435356909
 51
263.5564643091
  0
ARC
  5
79B
100
AcDbEntity
  8
0
100
AcDbCircle
 62
7
  6
CONTINUOUS
 10
89.0416666989
 20
160.9212913971
 40
6.0
100
AcDbArc
 50
276.4435356909
 51
323.5564643091
  0
ARC
  5
79C
100
AcDbEntity
  8
0
100
AcDbCircle
 62
7
  6
CONTINUOUS
 10
89.0416666989
 20
160.9212913971
 40
4.65
100
AcDbArc
 50
258.0303949316
 51
257.9831181317
  0
CIRCLE
  5
79D
100
AcDbEntity
  8
0
100
AcDbCircle
 62
7
  6
CONTINUOUS
 10
89.0416666989
 20
160.9212913971
 40
3.3854755959
  0
ARC
  5
79E
100
AcDbEntity
  8
RACCORDO
100
AcDbCircle
 62
7
  6
CONTINUOUS
 10
85.1084004641
 20
137.0712913971
 40
0.2
100
AcDbArc
 50
270.0
 51
355.0
  0
ARC
  5
79F
100
AcDbEntity
  8
RACCORDO
100
AcDbCircle
 62
7
  6
CONTINUOUS
 10
92.9749329338
 20
137.0712913971
 40
0.2
100
AcDbArc
 50
185.0
 51
270.0
  0
ARC
  5
7A0
100
AcDbEntity
  8
RACCORDO
100
AcDbCircle
 62
7
  6
CONTINUOUS
 10
92.9749329338
 20
184.7712913971
 40
0.2
100
AcDbArc
 50
90.0
 51
175.0
  0
ARC
  5
7A1
100
AcDbEntity
  8
RACCORDO
100
AcDbCircle
 62
7
  6
CONTINUOUS
 10
85.1084004641
 20
184.7712913971
 40
0.2
100
AcDbArc
 50
5.0
 51
90.0
  0
ARC
  5
7A2
100
AcDbEntity
  8
RACCORDO
100
AcDbCircle
 62
7
  6
CONTINUOUS
 10
468.8575963832
 20
160.9212913971
 40
425.0
100
AcDbArc
 50
177.7392543719
 51
182.2607456281
  0
ARC
  5
7A3
100
AcDbEntity
  8
RACCORDO
100
AcDbCircle
 62
7
  6
CONTINUOUS
 10
45.1876143991
 20
144.1956713611
 40
1.0
100
AcDbArc
 50
182.2607456281
 51
260.0
  0
ARC
  5
7A4
100
AcDbEntity
  8
RACCORDO
100
AcDbCircle
 62
7
  6
CONTINUOUS
 10
45.1876143991
 20
177.646911433
 40
1.0
100
AcDbArc
 50
100.0
 51
177.7392543719
  0
ARC
  5
7A5
100
AcDbEntity
  8
RACCORDO
100
AcDbCircle
 62
7
  6
CONTINUOUS
 10
63.6075963832
 20
183.4212913971
 40
0.75
100
AcDbArc
 50
0.0
 51
90.0
  0
ARC
  5
7A6
100
AcDbEntity
  8
0
100
AcDbCircle
 62
7
  6
CONTINUOUS
 10
54.6717593671
 20
136.5712913971
 40
0.7
100
AcDbArc
 50
270.0
 51
288.0
  0
ARC
  5
7A7
100
AcDbEntity
  8
0
100
AcDbCircle
 62
7
  6
CONTINUOUS
 10
54.1575963832
 20
136.5712913971
 40
0.7
100
AcDbArc
 50
180.0
 51
270.0
  0
ARC
  5
7A8
100
AcDbEntity
  8
0
100
AcDbCircle
 62
7
  6
CONTINUOUS
 10
54.6717593671
 20
185.2712913971
 40
0.7
100
AcDbArc
 50
72.0
 51
90.0
  0
ARC
  5
7A9
100
AcDbEntity
  8
0
100
AcDbCircle
 62
7
  6
CONTINUOUS
 10
54.1575963832
 20
185.2712913971
 40
0.7
100
AcDbArc
 50
90.0
 51
180.0
  0
ARC
  5
7AA
100
AcDbEntity
  8
RACCORDO
100
AcDbCircle
 62
7
  6
CONTINUOUS
 10
64.0575963832
 20
179.6514894934
 40
0.3
100
AcDbArc
 50
285.0
 51
360.0
  0
ARC
  5
7AB
100
AcDbEntity
  8
RACCORDO
100
AcDbCircle
 62
7
  6
CONTINUOUS
 10
64.0575963832
 20
142.1910933007
 40
0.3
100
AcDbArc
 50
0.0
 51
75.0
  0
ARC
  5
7AC
100
AcDbEntity
  8
0
100
AcDbCircle
 62
7
  6
CONTINUOUS
 10
54.6717593671
 20
136.5712913971
 40
0.3
100
AcDbArc
 50
270.0
 51
288.0
  0
ARC
  5
7AD
100
AcDbEntity
  8
0
100
AcDbCircle
 62
7
  6
CONTINUOUS
 10
54.1575963832
 20
136.5712913971
 40
0.3
100
AcDbArc
 50
180.0
 51
270.0
  0
ARC
  5
7AE
100
AcDbEntity
  8
0
100
AcDbCircle
 62
7
  6
CONTINUOUS
 10
54.6717593671
 20
185.2712913971
 40
0.3
100
AcDbArc
 50
72.0
 51
90.0
  0
ARC
  5
7AF
100
AcDbEntity
  8
0
100
AcDbCircle
 62
7
  6
CONTINUOUS
 10
54.1575963832
 20
185.2712913971
 40
0.3
100
AcDbArc
 50
90.0
 51
180.0
  0
ARC
  5
7B0
100
AcDbEntity
  8
RACCORDO
100
AcDbCircle
 62
7
  6
CONTINUOUS
 10
52.6075963832
 20
137.1712913971
 40
0.25
100
AcDbArc
 50
180.0
 51
270.0000001243
  0
ARC
  5
7B1
100
AcDbEntity
  8
RACCORDO
100
AcDbCircle
 62
7
  6
CONTINUOUS
 10
52.6075963832
 20
184.6712913971
 40
0.25
100
AcDbArc
 50
89.9999998757
 51
180.0
  0
ARC
  5
7B2
100
AcDbEntity
  8
RACCORDO
100
AcDbCircle
 62
7
  6
CONTINUOUS
 10
48.1075963832
 20
138.6712913971
 40
0.25
100
AcDbArc
 50
180.0
 51
270.0
  0
ARC
  5
7B3
100
AcDbEntity
  8
RACCORDO
100
AcDbCircle
 62
7
  6
CONTINUOUS
 10
48.1075963832
 20
183.1712913971
 40
0.25
100
AcDbArc
 50
90.0
 51
180.0
  0
ARC
  5
7B4
100
AcDbEntity
  8
RACCORDO
100
AcDbCircle
 62
7
  6
CONTINUOUS
 10
51.5575963832
 20
137.8712913971
 40
0.2
100
AcDbArc
 50
180.0
 51
270.0
  0
ARC
  5
7B5
100
AcDbEntity
  8
RACCORDO
100
AcDbCircle
 62
7
  6
CONTINUOUS
 10
51.5575963832
 20
183.9712913971
 40
0.2
100
AcDbArc
 50
90.0
 51
180.0
  0
ELLIPSE
  5
7B6
100
AcDbEntity
  8
RACCORDO
100
AcDbEllipse
 62
7
  6
CONTINUOUS
 10
80.8976624133
 20
183.4212913971
 30
0.0
 11
-0.0
 21
0.75
 31
0.0
 40
0.0174550649
 41
-0.0
 42
1.5707963268
  0
ELLIPSE
  5
7B7
100
AcDbEntity
  8
RACCORDO
100
AcDbEllipse
 62
7
  6
CONTINUOUS
 10
99.691704781
 20
137.1712913971
 30
0.0
 11
0.250038082
 21
-0.0
 31
0.0
 40
0.9998476952
 41
-3.1415926536
 42
-1.5707963268
  0
ELLIPSE
  5
7B8
100
AcDbEntity
  8
RACCORDO
100
AcDbEllipse
 62
7
  6
CONTINUOUS
 10
97.1856709846
 20
183.4212913971
 30
0.0
 11
-0.0
 21
0.75
 31
0.0
 40
0.0174550649
 41
-1.5707963268
 42
0.0
  0
ELLIPSE
  5
7B9
100
AcDbEntity
  8
RACCORDO
100
AcDbEllipse
 62
7
  6
CONTINUOUS
 10
101.1916286169
 20
137.1712913971
 30
0.0
 11
0.250038082
 21
-0.0
 31
0.0
 40
0.9998476952
 41
-1.5707963268
 42
0.0
  0
ELLIPSE
  5
7BA
100
AcDbEntity
  8
RACCORDO
100
AcDbEllipse
 62
7
  6
CONTINUOUS
 10
99.691704781
 20
184.6712913971
 30
0.0
 11
0.250038082
 21
0.0
 31
0.0
 40
0.9998476952
 41
1.5707963268
 42
3.1415926536
  0
ELLIPSE
  5
7BB
100
AcDbEntity
  8
RACCORDO
100
AcDbEllipse
 62
7
  6
CONTINUOUS
 10
101.1916286169
 20
184.6712913971
 30
0.0
 11
0.250038082
 21
-0.0
 31
0.0
 40
0.9998476952
 41
0.0
 42
1.5707963268
  0
ELLIPSE
  5
7BC
100
AcDbEntity
  8
RACCORDO
100
AcDbEllipse
 62
7
  6
CONTINUOUS
 10
78.3916286169
 20
137.1712913971
 30
0.0
 11
0.250038082
 21
-0.0
 31
0.0
 40
0.9998476952
 41
-1.5707963268
 42
0.0
  0
ELLIPSE
  5
7BD
100
AcDbEntity
  8
RACCORDO
100
AcDbEllipse
 62
7
  6
CONTINUOUS
 10
76.891704781
 20
137.1712913971
 30
0.0
 11
0.250038082
 21
-0.0
 31
0.0
 40
0.9998476952
 41
-3.1415926536
 42
-1.5707963268
  0
ELLIPSE
  5
7BE
100
AcDbEntity
  8
RACCORDO
100
AcDbEllipse
 62
7
  6
CONTINUOUS
 10
78.3916286169
 20
184.6712913971
 30
0.0
 11
0.250038082
 21
-0.0
 31
0.0
 40
0.9998476952
 41
0.0
 42
1.5707963268
  0
ELLIPSE
  5
7BF
100
AcDbEntity
  8
RACCORDO
100
AcDbEllipse
 62
7
  6
CONTINUOUS
 10
76.891704781
 20
184.6712913971
 30
0.0
 11
0.250038082
 21
-0.0
 31
0.0
 40
0.9998476952
 41
1.5707963268
 42
3.1415926536
  0
ELLIPSE
  5
7C0
100
AcDbEntity
  8
RACCORDO
100
AcDbEllipse
 62
7
  6
CONTINUOUS
 10
77.0138902355
 20
142.87514805
 30
0.0
 11
0.0250113895
 21
0.2526592035
 31
0.0
 40
0.9846622838
 41
-4.6121910857
 42
-3.0444253421
  0
ELLIPSE
  5
7C1
100
AcDbEntity
  8
RACCORDO
100
AcDbEllipse
 62
7
  6
CONTINUOUS
 10
77.0138902355
 20
178.9674347441
 30
0.0
 11
-0.0250113895
 21
0.2526592035
 31
0.0
 40
0.9846622838
 41
-0.0971673115
 42
1.4705984321
  0
ELLIPSE
  5
7C2
100
AcDbEntity
  8
RACCORDO
100
AcDbEllipse
 62
7
  6
CONTINUOUS
 10
101.0694431624
 20
142.87514805
 30
0.0
 11
-0.0250113895
 21
0.2526592035
 31
0.0
 40
0.9846622838
 41
-3.2387599651
 42
-1.6709942215
  0
ELLIPSE
  5
7C3
100
AcDbEntity
  8
RACCORDO
100
AcDbEllipse
 62
7
  6
CONTINUOUS
 10
101.0694431624
 20
178.9674347441
 30
0.0
 11
0.0250113895
 21
0.2526592035
 31
0.0
 40
0.9846622838
 41
-1.4705984321
 42
0.0971673115
  0
ENDSEC
  0
SECTION
  2
OBJECTS
  0
DICTIONARY
  5
C
100
AcDbDictionary
280
0
281
1
  3
ACAD_GROUP
350
D
  3
ACAD_MLINESTYLE
350
17
  3
ACAD_LAYOUT
350
1A
  3
ACAD_PLOTSETTINGS
350
19
  3
ACAD_PLOTSTYLENAME
350
E
  0
DICTIONARY
  5
D
102
{ACAD_REACTORS
330
C
102
}
100
AcDbDictionary
280
0
281
1
  0
ACDBDICTIONARYWDFLT
  5
E
102
{ACAD_REACTORS
330
C
102
}
100
AcDbDictionary
281
1
  3
Normal
350
F
100
AcDbDictionaryWithDefault
340
F
  0
DICTIONARY
  5
17
102
{ACAD_REACTORS
330
C
102
}
100
AcDbDictionary
280
0
281
1
  3
Standard
350
18
  0
DICTIONARY
  5
19
102
{ACAD_REACTORS
330
C
102
}
100
AcDbDictionary
281
1
  0
DICTIONARY
  5
1A
102
{ACAD_REACTORS
330
C
102
}
100
AcDbDictionary
281
1
  3
Model
350
7C4
  3
Layout1
350
7C5
  0
ACDBPLACEHOLDER
  5
F
102
{ACAD_REACTORS
330
E
102
}
  0
MLINESTYLE
  5
18
102
{ACAD_REACTORS
330
17
102
}
100
AcDbMlineStyle
  2
STANDARD
 70
0
  3

 62
256
 51
90.0
 52
90.0
 71
2
 49
0.5
 62
256
  6
BYLAYER
 49
-0.5
 62
256
  6
BYLAYER
  0
LAYOUT
  5
7C4
102
{ACAD_REACTORS
330
1A
102
}
100
AcDbPlotSettings
  1

  2
none_device
  4
ISO_A4_(297.00_x_210.00_MM)
  6

 40
0.0
 41
0.0
 42
0.0
 43
0.0
 44
297.0
 45
210.0
 46
0.0
 47
0.0
 48
0.0
 49
0.0
140
0.0
141
0.0
142
1.0
143
1.0
 70
1024
 72
1
 73
0
 74
0
  7

 75
0
147
1.0
148
0.0
149
0.0
100
AcDbLayout
  1
Model
 70
0
 71
0
 10
0.0
 20
0.0
 11
297.0
 21
210.0
 12
0.0
 22
0.0
 32
0.0
 14
0.0
 24
0.0
 34
0.0
 15
0.0
 25
0.0
 35
0.0
146
0.0
 13
0.0
 23
0.0
 33
0.0
 16
1.0
 26
0.0
 36
0.0
 17
0.0
 27
1.0
 37
0.0
 76
0
330
20D
345
0
346
0
  0
LAYOUT
  5
7C5
102
{ACAD_REACTORS
330
1A
102
}
100
AcDbPlotSettings
  1

  2
none_device
  4
ISO_A4_(297.00_x_210.00_MM)
  6

 40
0.0
 41
0.0
 42
0.0
 43
0.0
 44
297.0
 45
210.0
 46
0.0
 47
0.0
 48
0.0
 49
0.0
140
0.0
141
0.0
142
1.0
143
1.0
 70
0
 72
1
 73
0
 74
0
  7

 75
0
147
1.0
148
0.0
149
0.0
100
AcDbLayout
  1
Layout1
 70
0
 71
1
 10
0.0
 20
0.0
 11
297.0
 21
210.0
 12
0.0
 22
0.0
 32
0.0
 14
0.0
 24
0.0
 34
0.0
 15
0.0
 25
0.0
 35
0.0
146
0.0
 13
0.0
 23
0.0
 33
0.0
 16
1.0
 26
0.0
 36
0.0
 17
0.0
 27
1.0
 37
0.0
 76
0
330
20E
345
0
346
0
  0
ENDSEC
  0
EOF
