  0
SECTION
  2
HEADER
  9
$ACADVER
  1
AC1024
  9
$DWGCODEPAGE
  3
ANSI_1252
  9
$EXTMAX
 10
297.0
 20
210.0
 30
0.0
  9
$EXTMIN
 10
0.0
 20
0.0
 30
0.0
  9
$LIMMIN
 10
0.0
 20
0.0
  9
$LIMMAX
 10
297.0
 20
210.0
  9
$VIEWCTR
 10
148.5
 20
105.0
  9
$VIEWSIZE
 40
210.0
  9
$CLAYER
  8
0
  9
$LTSCALE
 40
16.335
  9
$CELTYPE
  6
BYLAYER
  9
$DIMSCALE
 40
1.0
  9
$DIMASZ
 40
3.0
  9
$DIMEXO
 40
0.5
  9
$DIMDLI
 40
11.286
  9
$DIMEXE
 40
1.5
  9
$DIMCEN
 40
2.673
  9
$DIMLFAC
 40
1.0
  9
$DIMBLK
  1
_FILLED
  9
$DIMALT
 70
0
  9
$DIMALTF
 40
0.0393700787
  9
$DIMTXT
 40
3.0
  9
$DIMTOL
 70
1
  9
$DIMLIM
 70
0
  9
$DIMTFAC
 40
1.0
  9
$DIMTP
 40
0.01
  9
$DIMTM
 40
0.01
  9
$DIMGAP
 40
0.625
  9
$DIMDSEP
 70
44
  9
$AUNITS
 70
0
  9
$PDMODE
 70
3
  9
$PDSIZE
 40
3.0
  9
$HANDSEED
  5
5B8
  9
$TILEMODE
 70
1
  9
$MEASUREMENT
 70
1
  9
$INSUNITS
 70
4
  0
ENDSEC
  0
SECTION
  2
CLASSES
  0
CLASS
  1
ACDBDICTIONARYWDFLT
  2
AcDbDictionaryWithDefault
  3
AutoCAD 2000
 90
0
 91
1
280
0
281
0
  0
CLASS
  1
ACDBPLACEHOLDER
  2
AcDbPlaceHolder
  3
AutoCAD 2000
 90
0
 91
1
280
0
281
0
  0
CLASS
  1
LAYOUT
  2
AcDbLayout
  3
AutoCAD 2000
 90
0
 91
0
280
0
281
0
  0
ENDSEC
  0
SECTION
  2
TABLES
  0
TABLE
  2
VPORT
  5
8
100
AcDbSymbolTable
 70
2
  0
VPORT
  5
1F4
100
AcDbSymbolTableRecord
100
AcDbViewportTableRecord
  2
*ACTIVE
 70
0
 10
0.0
 20
0.0
 11
1.0
 21
1.0
 12
148.5
 22
105.0
 13
0.0
 23
0.0
 14
1.0
 24
1.0
 15
0.0
 25
0.0
 16
0.0
 26
0.0
 36
1.0
 17
0.0
 27
0.0
 37
0.0
 40
210.0
 41
1.4142857143
 42
50.0
 43
0.0
 44
0.0
 50
0.0
 51
0.0
 71
0
 72
100
 73
1
 74
1
 75
0
 76
0
 77
0
 78
0
  0
ENDTAB
  0
TABLE
  2
LTYPE
  5
5
100
AcDbSymbolTable
 70
6
  0
LTYPE
  5
14
100
AcDbSymbolTableRecord
100
AcDbLinetypeTableRecord
  2
BYBLOCK
 70
0
  3

 72
65
 73
0
 40
0.0
  0
LTYPE
  5
15
100
AcDbSymbolTableRecord
100
AcDbLinetypeTableRecord
  2
BYLAYER
 70
0
  3

 72
65
 73
0
 40
0.0
  0
LTYPE
  5
16
100
AcDbSymbolTableRecord
100
AcDbLinetypeTableRecord
  2
CONTINUOUS
 70
64
  3
Solid line
 72
65
 73
0
 40
0.0
  0
LTYPE
  5
1F5
100
AcDbSymbolTableRecord
100
AcDbLinetypeTableRecord
  2
CENTER
 70
64
  3
____ _ ____ _ ____ _ ____ _ ____ _ ____ _ ____
 72
65
 73
4
 40
0.6
 49
0.375
 74
0
 49
-0.075
 74
0
 49
0.075
 74
0
 49
-0.075
 74
0
  0
LTYPE
  5
1F6
100
AcDbSymbolTableRecord
100
AcDbLinetypeTableRecord
  2
HIDDEN
 70
64
  3
- - - - - - - - - - - - - - - - - - - -
 72
65
 73
2
 40
0.2
 49
0.1
 74
0
 49
-0.1
 74
0
  0
LTYPE
  5
1F7
100
AcDbSymbolTableRecord
100
AcDbLinetypeTableRecord
  2
PHANTOM
 70
64
  3
_____ _ _ _____ _ _ _____ _ _ _____
 72
65
 73
6
 40
0.8
 49
0.45
 74
0
 49
-0.05
 74
0
 49
0.1
 74
0
 49
-0.05
 74
0
 49
0.1
 74
0
 49
-0.05
 74
0
  0
LTYPE
  5
1F8
100
AcDbSymbolTableRecord
100
AcDbLinetypeTableRecord
  2
DOT
 70
64
  3
. . . . . . . . . . . . . . . . . . . .
 72
65
 73
2
 40
0.2
 49
0.1
 74
0
 49
-0.1
 74
0
  0
LTYPE
  5
1F9
100
AcDbSymbolTableRecord
100
AcDbLinetypeTableRecord
  2
DASHED
 70
64
  3
- - - - - - - - - - - - - - - - - - - -
 72
65
 73
2
 40
0.2
 49
0.1
 74
0
 49
-0.1
 74
0
  0
ENDTAB
  0
TABLE
  2
LAYER
  5
2
100
AcDbSymbolTable
 70
36
  0
LAYER
  5
10
100
AcDbSymbolTableRecord
100
AcDbLayerTableRecord
  2
0
 70
0
 62
7
  6
CONTINUOUS
370
-3
390
F
  0
LAYER
  5
1FA
100
AcDbSymbolTableRecord
100
AcDbLayerTableRecord
  2
DEFAULT_1
 70
0
 62
7
  6
CENTER
370
-3
390
F
  0
LAYER
  5
1FB
100
AcDbSymbolTableRecord
100
AcDbLayerTableRecord
  2
DEFAULT_2
 70
0
 62
7
  6
HIDDEN
370
-3
390
F
  0
LAYER
  5
1FC
100
AcDbSymbolTableRecord
100
AcDbLayerTableRecord
  2
DEFAULT_3
 70
0
 62
7
  6
PHANTOM
370
-3
390
F
  0
LAYER
  5
1FD
100
AcDbSymbolTableRecord
100
AcDbLayerTableRecord
  2
ASSI
 70
0
 62
7
  6
CONTINUOUS
370
-3
390
F
  0
LAYER
  5
1FE
100
AcDbSymbolTableRecord
100
AcDbLayerTableRecord
  2
COORDINATE
 70
0
 62
7
  6
CONTINUOUS
370
-3
390
F
  0
LAYER
  5
1FF
100
AcDbSymbolTableRecord
100
AcDbLayerTableRecord
  2
COORD_ORIGINE
 70
0
 62
7
  6
CONTINUOUS
370
-3
390
F
  0
LAYER
  5
200
100
AcDbSymbolTableRecord
100
AcDbLayerTableRecord
  2
COSMETICI
 70
0
 62
7
  6
CONTINUOUS
370
-3
390
F
  0
LAYER
  5
201
100
AcDbSymbolTableRecord
100
AcDbLayerTableRecord
  2
CURVA_VIMAR
 70
0
 62
7
  6
CONTINUOUS
370
-3
390
F
  0
LAYER
  5
202
100
AcDbSymbolTableRecord
100
AcDbLayerTableRecord
  2
CURVE
 70
0
 62
7
  6
CONTINUOUS
370
-3
390
F
  0
LAYER
  5
203
100
AcDbSymbolTableRecord
100
AcDbLayerTableRecord
  2
DRAFT
 70
0
 62
7
  6
CONTINUOUS
370
-3
390
F
  0
LAYER
  5
204
100
AcDbSymbolTableRecord
100
AcDbLayerTableRecord
  2
IMPORT_IGES
 70
0
 62
7
  6
CONTINUOUS
370
-3
390
F
  0
LAYER
  5
205
100
AcDbSymbolTableRecord
100
AcDbLayerTableRecord
  2
INTF_1
 70
0
 62
7
  6
CONTINUOUS
370
-3
390
F
  0
LAYER
  5
206
100
AcDbSymbolTableRecord
100
AcDbLayerTableRecord
  2
INTF_7
 70
0
 62
7
  6
CONTINUOUS
370
-3
390
F
  0
LAYER
  5
207
100
AcDbSymbolTableRecord
100
AcDbLayerTableRecord
  2
LAY0001
 70
0
 62
7
  6
CONTINUOUS
370
-3
390
F
  0
LAYER
  5
208
100
AcDbSymbolTableRecord
100
AcDbLayerTableRecord
  2
NOTE
 70
0
 62
7
  6
CONTINUOUS
370
-3
390
F
  0
LAYER
  5
209
100
AcDbSymbolTableRecord
100
AcDbLayerTableRecord
  2
PIANI
 70
0
 62
7
  6
CONTINUOUS
370
-3
390
F
  0
LAYER
  5
20A
100
AcDbSymbolTableRecord
100
AcDbLayerTableRecord
  2
PIANI_DI_RIFERIMENTO
 70
0
 62
7
  6
CONTINUOUS
370
-3
390
F
  0
LAYER
  5
20B
100
AcDbSymbolTableRecord
100
AcDbLayerTableRecord
  2
PIANI_ORIGINE
 70
0
 62
7
  6
CONTINUOUS
370
-3
390
F
  0
LAYER
  5
20C
100
AcDbSymbolTableRecord
100
AcDbLayerTableRecord
  2
PUNTI
 70
0
 62
7
  6
CONTINUOUS
370
-3
390
F
  0
LAYER
  5
20D
100
AcDbSymbolTableRecord
100
AcDbLayerTableRecord
  2
PUNZONE_ITERC
 70
0
 62
7
  6
CONTINUOUS
370
-3
390
F
  0
LAYER
  5
20E
100
AcDbSymbolTableRecord
100
AcDbLayerTableRecord
  2
RACCORDO
 70
0
 62
7
  6
CONTINUOUS
370
-3
390
F
  0
LAYER
  5
20F
100
AcDbSymbolTableRecord
100
AcDbLayerTableRecord
  2
RGB__255__255__255__
 70
0
 62
7
  6
CONTINUOUS
370
-3
390
F
  0
LAYER
  5
210
100
AcDbSymbolTableRecord
100
AcDbLayerTableRecord
  2
RGB____0____0____0__
 70
0
 62
7
  6
CONTINUOUS
370
-3
390
F
  0
LAYER
  5
211
100
AcDbSymbolTableRecord
100
AcDbLayerTableRecord
  2
SIMBOLI
 70
0
 62
7
  6
CONTINUOUS
370
-3
390
F
  0
LAYER
  5
212
100
AcDbSymbolTableRecord
100
AcDbLayerTableRecord
  2
SNAPLINE
 70
0
 62
7
  6
CONTINUOUS
370
-3
390
F
  0
LAYER
  5
213
100
AcDbSymbolTableRecord
100
AcDbLayerTableRecord
  2
SUPERFICI
 70
0
 62
7
  6
CONTINUOUS
370
-3
390
F
  0
LAYER
  5
214
100
AcDbSymbolTableRecord
100
AcDbLayerTableRecord
  2
TRASH
 70
0
 62
7
  6
CONTINUOUS
370
-3
390
F
  0
LAYER
  5
215
100
AcDbSymbolTableRecord
100
AcDbLayerTableRecord
  2
XSEC_DATUMS
 70
0
 62
7
  6
CONTINUOUS
370
-3
390
F
  0
ENDTAB
  0
TABLE
  2
STYLE
  5
3
100
AcDbSymbolTable
 70
1
  0
STYLE
  5
11
100
AcDbSymbolTableRecord
100
AcDbTextStyleTableRecord
  2
STANDARD
 70
0
 40
0.0
 41
0.8
 50
0.0
 71
0
 42
0.2
  3
txt
  4

  0
STYLE
  5
216
100
AcDbSymbolTableRecord
100
AcDbTextStyleTableRecord
  2
TEXTSTYLE_1
 70
0
 40
0.0
 41
0.8
 50
0.0
 71
0
 42
0.2
  3
gdt
  4

  0
ENDTAB
  0
TABLE
  2
VIEW
  5
6
100
AcDbSymbolTable
 70
0
  0
ENDTAB
  0
TABLE
  2
UCS
  5
7
100
AcDbSymbolTable
 70
0
  0
ENDTAB
  0
TABLE
  2
APPID
  5
9
100
AcDbSymbolTable
 70
1
  0
APPID
  5
217
100
AcDbSymbolTableRecord
100
AcDbRegAppTableRecord
  2
ACAD
 70
0
  0
ENDTAB
  0
TABLE
  2
BLOCK_RECORD
  5
1
100
AcDbSymbolTable
 70
0
  0
BLOCK_RECORD
  5
218
100
AcDbSymbolTableRecord
100
AcDbBlockTableRecord
  2
*Model_Space
  0
BLOCK_RECORD
  5
219
100
AcDbSymbolTableRecord
100
AcDbBlockTableRecord
  2
*Paper_Space
  0
BLOCK_RECORD
  5
21A
100
AcDbSymbolTableRecord
100
AcDbBlockTableRecord
  2
_FILLED
  0
BLOCK_RECORD
  5
21B
100
AcDbSymbolTableRecord
100
AcDbBlockTableRecord
  2
*D0
  0
BLOCK_RECORD
  5
21C
100
AcDbSymbolTableRecord
100
AcDbBlockTableRecord
  2
*D1
  0
BLOCK_RECORD
  5
21D
100
AcDbSymbolTableRecord
100
AcDbBlockTableRecord
  2
*D2
  0
ENDTAB
  0
TABLE
  2
DIMSTYLE
  5
A
100
AcDbSymbolTable
 70
1
100
AcDbDimStyleTable
 71
0
  0
DIMSTYLE
105
21E
100
AcDbSymbolTableRecord
100
AcDbDimStyleTableRecord
  2
STANDARD
 70
0
  3

  4

 40
1.0
 41
3.0
 42
0.5
 43
0.38
 44
1.5
 45
0.0
 46
0.0
 47
0.01
 48
0.01
140
3.0
141
0.09
142
0.0
143
25.4
144
1.0
145
0.0
146
1.0
147
0.625
 71
1
 72
0
 73
0
 74
0
 75
0
 76
0
 77
1
 78
8
 79
2
170
0
171
1
172
0
173
0
174
0
175
0
176
0
177
0
178
0
270
2
179
2
271
2
272
2
273
2
274
2
275
0
280
0
281
0
282
0
283
1
284
8
285
0
286
0
287
3
288
0
340
11
278
44
341
21A
342
21A
343
21A
344
21A
  0
DIMSTYLE
105
21F
100
AcDbSymbolTableRecord
100
AcDbDimStyleTableRecord
  2
DIMSTYLE_1
 70
0
  3

  4

 40
1.0
 41
3.0
 42
0.5
 43
0.38
 44
1.5
 45
0.0
 46
0.0
 47
0.0
 48
0.0
140
3.0
141
0.09
142
0.0
143
25.4
144
1.0
145
0.0
146
1.0
147
0.75
 71
0
 72
0
 73
0
 74
0
 75
0
 76
0
 77
1
 78
8
 79
2
170
0
171
1
172
0
173
0
174
0
175
0
176
0
177
0
178
0
270
2
179
2
271
2
272
2
273
2
274
2
275
0
280
0
281
0
282
0
283
1
284
8
285
0
286
0
287
3
288
0
340
11
278
44
341
21A
342
21A
343
21A
344
21A
  0
DIMSTYLE
105
220
100
AcDbSymbolTableRecord
100
AcDbDimStyleTableRecord
  2
DIMSTYLE_2
 70
0
  3

  4

 40
1.0
 41
3.0
 42
0.5
 43
0.38
 44
1.5
 45
0.0
 46
0.0
 47
0.0
 48
0.0
140
3.0
141
0.09
142
0.0
143
25.4
144
1.0
145
0.0
146
1.0
147
0.75
 71
0
 72
0
 73
0
 74
0
 75
0
 76
0
 77
1
 78
8
 79
2
170
0
171
1
172
0
173
0
174
0
175
0
176
0
177
0
178
0
270
2
179
2
271
1
272
1
273
2
274
2
275
0
280
0
281
0
282
0
283
1
284
8
285
0
286
0
287
3
288
0
340
11
278
44
341
21A
342
21A
343
21A
344
21A
  0
ENDTAB
  0
ENDSEC
  0
SECTION
  2
BLOCKS
  0
BLOCK
  5
20
100
AcDbEntity
  8
0
100
AcDbBlockBegin
  2
*Model_Space
 70
0
 10
0.0
 20
0.0
 30
0.0
  3
*Model_Space
  1

  0
ENDBLK
  5
21
100
AcDbEntity
  8
0
100
AcDbBlockEnd
  0
BLOCK
  5
1C
100
AcDbEntity
  8
0
100
AcDbBlockBegin
  2
*Paper_Space
 70
0
 10
0.0
 20
0.0
 30
0.0
  3
*Paper_Space
  1

  0
ENDBLK
  5
1D
100
AcDbEntity
  8
0
100
AcDbBlockEnd
  0
BLOCK
  5
221
100
AcDbEntity
  8
0
100
AcDbBlockBegin
  2
_FILLED
 70
64
 10
0.0
 20
0.0
  3
_FILLED
  1

  0
SOLID
  5
222
100
AcDbEntity
  8
0
  6
BYBLOCK
 62
0
100
AcDbTrace
 10
0.0
 20
0.0
 11
-1.0
 21
0.3166666667
 12
-1.0
 22
-0.3166666667
 13
-1.0
 23
-0.3166666667
  0
ENDBLK
  5
223
100
AcDbEntity
  8
0
  6
BYBLOCK
 62
0
100
AcDbBlockEnd
  0
BLOCK
  5
224
100
AcDbEntity
  8
0
100
AcDbBlockBegin
 62
7
  6
CONTINUOUS
  2
*D0
 70
65
 10
0.0
 20
0.0
  3
*D0
  1

  0
LINE
  5
225
100
AcDbEntity
  8
0
100
AcDbLine
 62
7
  6
CONTINUOUS
 10
60.0
 20
40.8004264211
 11
60.0
 21
50.5
  0
LINE
  5
226
100
AcDbEntity
  8
0
100
AcDbLine
 62
7
  6
CONTINUOUS
 10
-60.0
 20
40.8004264211
 11
-60.0
 21
50.5
  0
LINE
  5
227
100
AcDbEntity
  8
0
100
AcDbLine
 62
7
  6
CONTINUOUS
 10
60.0
 20
49.0
 11
0.0
 21
49.0
  0
LINE
  5
228
100
AcDbEntity
  8
0
100
AcDbLine
 62
7
  6
CONTINUOUS
 10
-60.0
 20
49.0
 11
0.0
 21
49.0
  0
INSERT
  5
229
100
AcDbEntity
  8
0
100
AcDbBlockReference
 62
7
  6
CONTINUOUS
  2
_FILLED
 10
60.0
 20
49.0
 41
3.0
 42
3.0
 43
3.0
 50
0.0
  0
INSERT
  5
22A
100
AcDbEntity
  8
0
100
AcDbBlockReference
 62
7
  6
CONTINUOUS
  2
_FILLED
 10
-60.0
 20
49.0
 41
3.0
 42
3.0
 43
3.0
 50
180.0
  0
ENDBLK
  5
22B
100
AcDbEntity
  8
0
  6
BYBLOCK
 62
0
100
AcDbBlockEnd
  0
BLOCK
  5
22C
100
AcDbEntity
  8
0
100
AcDbBlockBegin
 62
7
  6
CONTINUOUS
  2
*D1
 70
65
 10
0.0
 20
0.0
  3
*D1
  1

  0
LINE
  5
22D
100
AcDbEntity
  8
0
100
AcDbLine
 62
7
  6
CONTINUOUS
 10
-72.6276981641
 20
40.8004264211
 11
-72.6276981641
 21
50.5
  0
LINE
  5
22E
100
AcDbEntity
  8
0
100
AcDbLine
 62
7
  6
CONTINUOUS
 10
-81.8776981641
 20
0.5
 11
-81.8776981641
 21
50.5
  0
LINE
  5
22F
100
AcDbEntity
  8
0
100
AcDbLine
 62
7
  6
CONTINUOUS
 10
-72.6276981641
 20
49.0
 11
-68.6276981641
 21
49.0
  0
LINE
  5
230
100
AcDbEntity
  8
0
100
AcDbLine
 62
7
  6
CONTINUOUS
 10
-68.6276981641
 20
49.0
 11
-77.2526981641
 21
49.0
  0
LINE
  5
231
100
AcDbEntity
  8
0
100
AcDbLine
 62
7
  6
CONTINUOUS
 10
-81.8776981641
 20
49.0
 11
-85.8776981641
 21
49.0
  0
LINE
  5
232
100
AcDbEntity
  8
0
100
AcDbLine
 62
7
  6
CONTINUOUS
 10
-85.8776981641
 20
49.0
 11
-77.2526981641
 21
49.0
  0
INSERT
  5
233
100
AcDbEntity
  8
0
100
AcDbBlockReference
 62
7
  6
CONTINUOUS
  2
_FILLED
 10
-72.6276981641
 20
49.0
 41
3.0
 42
3.0
 43
3.0
 50
180.0
  0
INSERT
  5
234
100
AcDbEntity
  8
0
100
AcDbBlockReference
 62
7
  6
CONTINUOUS
  2
_FILLED
 10
-81.8776981641
 20
49.0
 41
3.0
 42
3.0
 43
3.0
  0
ENDBLK
  5
235
100
AcDbEntity
  8
0
  6
BYBLOCK
 62
0
100
AcDbBlockEnd
  0
BLOCK
  5
236
100
AcDbEntity
  8
0
100
AcDbBlockBegin
 62
7
  6
CONTINUOUS
  2
*D2
 70
65
 10
0.0
 20
0.0
  3
*D2
  1

  0
LINE
  5
237
100
AcDbEntity
  8
0
100
AcDbLine
 62
7
  6
CONTINUOUS
 10
-73.1276981641
 20
41.0
 11
-91.3776981641
 21
41.0
  0
LINE
  5
238
100
AcDbEntity
  8
0
100
AcDbLine
 62
7
  6
CONTINUOUS
 10
-73.1276981641
 20
-41.0
 11
-91.3776981641
 21
-41.0
  0
LINE
  5
239
100
AcDbEntity
  8
0
100
AcDbLine
 62
7
  6
CONTINUOUS
 10
-89.8776981641
 20
41.0
 11
-89.8776981641
 21
0.0
  0
LINE
  5
23A
100
AcDbEntity
  8
0
100
AcDbLine
 62
7
  6
CONTINUOUS
 10
-89.8776981641
 20
-41.0
 11
-89.8776981641
 21
0.0
  0
INSERT
  5
23B
100
AcDbEntity
  8
0
100
AcDbBlockReference
 62
7
  6
CONTINUOUS
  2
_FILLED
 10
-89.8776981641
 20
41.0
 41
3.0
 42
3.0
 43
3.0
 50
90.0
  0
INSERT
  5
23C
100
AcDbEntity
  8
0
100
AcDbBlockReference
 62
7
  6
CONTINUOUS
  2
_FILLED
 10
-89.8776981641
 20
-41.0
 41
3.0
 42
3.0
 43
3.0
 50
270.0
  0
ENDBLK
  5
23D
100
AcDbEntity
  8
0
  6
BYBLOCK
 62
0
100
AcDbBlockEnd
  0
ENDSEC
  0
SECTION
  2
ENTITIES
  0
DIMENSION
  5
23E
100
AcDbEntity
  8
0
100
AcDbDimension
 62
7
  6
CONTINUOUS
  2
*D0
 10
-60.0
 20
49.0
 11
-3.2142857143
 21
49.0
 70
160
 71
2
 72
2
 41
0.9
 42
120.0
  3
DIMSTYLE_1
100
AcDbAlignedDimension
 13
60.0
 23
40.3004264211
 14
-60.0
 24
40.3004264211
 50
180.0
100
AcDbRotatedDimension
  0
DIMENSION
  5
23F
100
AcDbEntity
  8
0
100
AcDbDimension
 62
7
  6
CONTINUOUS
  2
*D1
 10
-81.8776981641
 20
49.0
 11
-80.3598410213
 21
49.0
 70
160
 71
2
 72
2
 41
0.9
 42
9.25
  3
DIMSTYLE_2
100
AcDbAlignedDimension
 13
-72.6276981641
 23
40.3004264211
 14
-81.8776981641
 24
0.0
 50
180.0
100
AcDbRotatedDimension
  0
DIMENSION
  5
240
100
AcDbEntity
  8
0
100
AcDbDimension
 62
7
  6
CONTINUOUS
  2
*D2
 10
-89.8776981641
 20
-41.0
 11
-89.8776981641
 21
-2.3571428571
 70
160
 71
2
 72
2
 41
0.9
 42
82.0
  3
DIMSTYLE_1
100
AcDbAlignedDimension
 13
-72.6276981641
 23
41.0
 14
-72.6276981641
 24
-41.0
 50
270.0
100
AcDbRotatedDimension
  0
LWPOLYLINE
  5
241
100
AcDbEntity
  8
RACCORDO
100
AcDbPolyline
 62
250
  6
CONTINUOUS
 90
23
 70
0
 10
-59.7711530207
 20
40.0715794417
 10
-59.7695052353
 20
40.0743661614
 10
-59.7666131137
 20
40.0772265568
 10
-59.7624804933
 20
40.0801162777
 10
-59.7571180406
 20
40.0829505434
 10
-59.7505369816
 20
40.0857254376
 10
-59.7427436162
 20
40.0885164005
 10
-59.7337540423
 20
40.0912752395
 10
-59.7235890378
 20
40.0939585435
 10
-59.7122584603
 20
40.096645289
 10
-59.6997856401
 20
40.0992850727
 10
-59.6861992136
 20
40.101833246
 10
-59.6715132225
 20
40.1043727643
 10
-59.6557568044
 20
40.1068517508
 10
-59.6389658982
 20
40.1092237792
 10
-59.6211604084
 20
40.1115750756
 10
-59.6023726916
 20
40.1138540233
 10
-59.582644923
 20
40.1160122104
 10
-59.5620063827
 20
40.1181368824
 10
-59.5404884542
 20
40.1201795752
 10
-59.5181375537
 20
40.1220902144
 10
-59.4949984572
 20
40.1239531008
 10
-59.4710956986
 20
40.1257267813
  0
LWPOLYLINE
  5
242
100
AcDbEntity
  8
RACCORDO
100
AcDbPolyline
 62
250
  6
CONTINUOUS
 90
24
 70
0
 10
-59.7711530207
 20
-40.0715794417
 10
-59.769505234
 20
-40.074366163
 10
-59.7666131095
 20
-40.0772265602
 10
-59.7624804849
 20
-40.0801162827
 10
-59.7571180266
 20
-40.08295055
 10
-59.7505369608
 20
-40.0857254457
 10
-59.7427435875
 20
-40.0885164099
 10
-59.7337540047
 20
-40.0912752503
 10
-59.7235889905
 20
-40.0939585554
 10
-59.7122584027
 20
-40.0966453018
 10
-59.6997855719
 20
-40.0992850864
 10
-59.6861991344
 20
-40.1018332604
 10
-59.6715131324
 20
-40.1043727791
 10
-59.6557567036
 20
-40.1068517659
 10
-59.6389657871
 20
-40.1092237945
 10
-59.6211602875
 20
-40.1115750909
 10
-59.6023725619
 20
-40.1138540383
 10
-59.5826447854
 20
-40.1160122252
 10
-59.5620062386
 20
-40.1181368965
 10
-59.5404883048
 20
-40.1201795888
 10
-59.5181374005
 20
-40.1220902273
 10
-59.4949983018
 20
-40.1239531128
 10
-59.4710955428
 20
-40.1257267923
 10
-59.4212095688
 20
-40.1289305963
  0
LWPOLYLINE
  5
243
100
AcDbEntity
  8
RACCORDO
100
AcDbPolyline
 62
250
  6
CONTINUOUS
 90
10
 70
0
 10
-59.0715794418
 20
-40.7711530207
 10
-59.0720440635
 20
-40.769617801
 10
-59.0725079598
 20
-40.7669670487
 10
-59.0729703891
 20
-40.7632049468
 10
-59.0734306334
 20
-40.7583374465
 10
-59.0738879371
 20
-40.7523722791
 10
-59.0743415035
 20
-40.7453189595
 10
-59.0747905561
 20
-40.7371886947
 10
-59.0752344189
 20
-40.7279944639
 10
-59.075672457
 20
-40.7177510797
  0
LINE
  5
244
100
AcDbEntity
  8
RACCORDO
100
AcDbLine
 62
250
  6
CONTINUOUS
 10
-59.075672457
 20
-40.7177510797
 11
-59.0765283524
 21
-40.6941841757
  0
LINE
  5
245
100
AcDbEntity
  8
RACCORDO
100
AcDbLine
 62
250
  6
CONTINUOUS
 10
-59.0765283524
 20
-40.6941841757
 11
-59.0773525771
 21
-40.6666383366
  0
LINE
  5
246
100
AcDbEntity
  8
RACCORDO
100
AcDbLine
 62
250
  6
CONTINUOUS
 10
-59.0773525771
 20
-40.6666383366
 11
-59.0785180395
 21
-40.6182515288
  0
LWPOLYLINE
  5
247
100
AcDbEntity
  8
RACCORDO
100
AcDbPolyline
 62
250
  6
CONTINUOUS
 90
40
 70
0
 10
-59.7711530207
 20
-40.0715794418
 10
-59.7705521778
 20
-40.0997286513
 10
-59.7688191923
 20
-40.1278322679
 10
-59.7659568711
 20
-40.1558447714
 10
-59.7619698501
 20
-40.1837207899
 10
-59.7568645871
 20
-40.2114151712
 10
-59.7506493516
 20
-40.2388830566
 10
-59.7433342102
 20
-40.2660799569
 10
-59.7349310118
 20
-40.2929618193
 10
-59.7254533693
 20
-40.3194850973
 10
-59.7149166352
 20
-40.3456068297
 10
-59.7033378764
 20
-40.371284708
 10
-59.6907358488
 20
-40.3964771399
 10
-59.6771309638
 20
-40.4211433232
 10
-59.6625452595
 20
-40.445243304
 10
-59.6470023667
 20
-40.4687380399
 10
-59.630527467
 20
-40.491589471
 10
-59.6131472425
 20
-40.5137605924
 10
-59.5948898362
 20
-40.5352155056
 10
-59.5757848031
 20
-40.5559194776
 10
-59.5558631037
 20
-40.5758389552
 10
-59.5351570493
 20
-40.5949416361
 10
-59.5137002278
 20
-40.6131965481
 10
-59.4915273554
 20
-40.63057417
 10
-59.4686742536
 20
-40.6470464276
 10
-59.4451778269
 20
-40.6625867029
 10
-59.4210762299
 20
-40.6771697439
 10
-59.3964087281
 20
-40.6907718029
 10
-59.3712154389
 20
-40.7033707982
 10
-59.3455370325
 20
-40.7149464302
 10
-59.3194148818
 20
-40.7254800593
 10
-59.2928909846
 20
-40.7349547241
 10
-59.266008599
 20
-40.7433549467
 10
-59.238811978
 20
-40.7506669407
 10
-59.2113435948
 20
-40.7568792723
 10
-59.1836495233
 20
-40.7619815068
 10
-59.1557802131
 20
-40.7659647799
 10
-59.1277827564
 20
-40.768823245
 10
-59.0997006789
 20
-40.7705533378
 10
-59.0715794418
 20
-40.7711530207
  0
LINE
  5
248
100
AcDbEntity
  8
RACCORDO
100
AcDbLine
 62
250
  6
CONTINUOUS
 10
-59.0785180395
 20
-40.6182515288
 11
-59.0799142073
 21
-40.5416522432
  0
LINE
  5
249
100
AcDbEntity
  8
RACCORDO
100
AcDbLine
 62
250
  6
CONTINUOUS
 10
-59.0799142073
 20
-40.5416522432
 11
-59.081356656
 21
-40.429290404
  0
LINE
  5
24A
100
AcDbEntity
  8
RACCORDO
100
AcDbLine
 62
250
  6
CONTINUOUS
 10
-59.081356656
 20
-40.429290404
 11
-59.0825698221
 21
-40.2760856689
  0
LINE
  5
24B
100
AcDbEntity
  8
RACCORDO
100
AcDbLine
 62
250
  6
CONTINUOUS
 10
-59.0825698221
 20
-40.2760856689
 11
-59.0831020382
 21
-40.1390855955
  0
LINE
  5
24C
100
AcDbEntity
  8
RACCORDO
100
AcDbLine
 62
7
  6
CONTINUOUS
 10
-60.0
 20
-40.3004264211
 11
-60.0
 21
-4.1331429141
  0
LINE
  5
24D
100
AcDbEntity
  8
RACCORDO
100
AcDbLine
 62
7
  6
CONTINUOUS
 10
-60.0
 20
4.1331429141
 11
-60.0
 21
40.3004264211
  0
LINE
  5
24E
100
AcDbEntity
  8
RACCORDO
100
AcDbLine
 62
7
  6
CONTINUOUS
 10
-59.930158461
 20
-3.2251006478
 11
-59.930158461
 21
3.2251006478
  0
LWPOLYLINE
  5
24F
100
AcDbEntity
  8
RACCORDO
100
AcDbPolyline
 62
250
  6
CONTINUOUS
 90
37
 70
0
 10
-59.7711530202
 20
-40.0715794413
 10
-59.7638467366
 20
-37.8516486769
 10
-59.7569571875
 20
-35.6307537512
 10
-59.750484373
 20
-33.4088946643
 10
-59.74442813
 20
-31.1860072076
 10
-59.7387886216
 20
-28.9621555896
 10
-59.7335663361
 20
-26.7375324357
 10
-59.7287613098
 20
-24.5121376915
 10
-59.7243735063
 20
-22.2859714115
 10
-59.7204033057
 20
-20.0592263834
 10
-59.7168507441
 20
-17.8319025761
 10
-59.7137157853
 20
-15.6040000209
 10
-59.7109987005
 20
-13.3757115988
 10
-59.7086995259
 20
-11.147037301
 10
-59.7068182253
 20
-8.9179771364
 10
-59.7053549614
 20
-6.6887240131
 10
-59.7043097704
 20
-4.4592779141
 10
-59.703682616
 20
-2.2296388564
 10
-59.7034735525
 20
0.0000002012
 10
-59.7036826161
 20
2.2296392587
 10
-59.7043097705
 20
4.459278316
 10
-59.7053549617
 20
6.6887244144
 10
-59.7068182256
 20
8.9179775371
 10
-59.7086995263
 20
11.1470377008
 10
-59.7109987009
 20
13.3757119978
 10
-59.7137157858
 20
15.6040004191
 10
-59.7168507447
 20
17.8319029736
 10
-59.7204033064
 20
20.0592267801
 10
-59.7243735071
 20
22.2859718077
 10
-59.7287613106
 20
24.5121380873
 10
-59.733566337
 20
26.7375328311
 10
-59.7387886226
 20
28.9621559994
 10
-59.7444281312
 20
31.1860076319
 10
-59.7504843741
 20
33.4088950592
 10
-59.7569571884
 20
35.6307540584
 10
-59.7638467371
 20
37.8516488524
 10
-59.7711530202
 20
40.0715794413
  0
LWPOLYLINE
  5
250
100
AcDbEntity
  8
RACCORDO
100
AcDbPolyline
 62
250
  6
CONTINUOUS
 90
37
 70
0
 10
-59.0831020386
 20
-40.1390855869
 10
-59.0757875214
 20
-37.9155216642
 10
-59.0688902075
 20
-35.6908636546
 10
-59.0624100973
 20
-33.465175743
 10
-59.0563470278
 20
-31.2385221315
 10
-59.0507011624
 20
-29.0109670741
 10
-59.04547299
 20
-26.7825748753
 10
-59.0406625472
 20
-24.5534098008
 10
-59.0362697978
 20
-22.3235361906
 10
-59.0322951218
 20
-20.0930184942
 10
-59.0287385556
 20
-17.8619210832
 10
-59.025600063
 20
-15.6303083081
 10
-59.0228799154
 20
-13.3982446123
 10
-59.0205781491
 20
-11.165794417
 10
-59.0186947279
 20
-8.9330221062
 10
-59.0172298145
 20
-6.6999920833
 10
-59.0161834452
 20
-4.4667687728
 10
-59.0155555839
 20
-2.2334166053
 10
-59.0153462847
 20
-0.000000002
 10
-59.0155555839
 20
2.2334166012
 10
-59.0161834452
 20
4.4667687687
 10
-59.0172298145
 20
6.6999920791
 10
-59.0186947279
 20
8.9330221018
 10
-59.0205781491
 20
11.1657944126
 10
-59.0228799154
 20
13.3982446077
 10
-59.025600063
 20
15.6303083034
 10
-59.0287385556
 20
17.8619210783
 10
-59.0322951218
 20
20.0930184893
 10
-59.0362697978
 20
22.3235361859
 10
-59.0406625472
 20
24.5534097964
 10
-59.04547299
 20
26.7825748713
 10
-59.0507011624
 20
29.0109670706
 10
-59.0563470278
 20
31.2385221285
 10
-59.0624100972
 20
33.4651757407
 10
-59.0688902075
 20
35.6908636529
 10
-59.0757875214
 20
37.9155216632
 10
-59.0831020386
 20
40.1390855867
  0
LINE
  5
251
100
AcDbEntity
  8
RACCORDO
100
AcDbLine
 62
250
  6
CONTINUOUS
 10
-59.0831020303
 20
40.1390855955
 11
-59.0824098462
 21
40.3026811111
  0
LINE
  5
252
100
AcDbEntity
  8
RACCORDO
100
AcDbLine
 62
250
  6
CONTINUOUS
 10
-59.0824098462
 20
40.3026811111
 11
-59.0810976542
 21
40.4530550267
  0
LINE
  5
253
100
AcDbEntity
  8
RACCORDO
100
AcDbLine
 62
250
  6
CONTINUOUS
 10
-59.0810976542
 20
40.4530550267
 11
-59.0799142074
 21
40.5416522432
  0
LINE
  5
254
100
AcDbEntity
  8
RACCORDO
100
AcDbLine
 62
250
  6
CONTINUOUS
 10
-59.0799142074
 20
40.5416522432
 11
-59.0785180395
 21
40.6182515288
  0
LWPOLYLINE
  5
255
100
AcDbEntity
  8
RACCORDO
100
AcDbPolyline
 62
250
  6
CONTINUOUS
 90
40
 70
0
 10
-59.7711530207
 20
40.0715794418
 10
-59.7705521777
 20
40.0997286544
 10
-59.7688191919
 20
40.1278322724
 10
-59.7659568706
 20
40.1558447756
 10
-59.7619698498
 20
40.1837207915
 10
-59.7568645877
 20
40.2114151687
 10
-59.7506493532
 20
40.23888305
 10
-59.743334213
 20
40.2660799472
 10
-59.734931016
 20
40.2929618067
 10
-59.7254533752
 20
40.3194850818
 10
-59.7149166431
 20
40.3456068111
 10
-59.7033378866
 20
40.3712846864
 10
-59.6907358614
 20
40.3964771158
 10
-59.677130979
 20
40.421143297
 10
-59.6625452772
 20
40.445243276
 10
-59.6470023867
 20
40.4687380109
 10
-59.6305274889
 20
40.4915894419
 10
-59.6131472659
 20
40.5137605638
 10
-59.5948898607
 20
40.5352154779
 10
-59.5757848285
 20
40.5559194512
 10
-59.5558631294
 20
40.5758389305
 10
-59.5351570745
 20
40.5949416137
 10
-59.5137002514
 20
40.6131965288
 10
-59.4915273765
 20
40.6305741541
 10
-59.4686742721
 20
40.6470464148
 10
-59.4451778428
 20
40.6625866929
 10
-59.4210762431
 20
40.6771697363
 10
-59.3964087394
 20
40.6907717969
 10
-59.3712154498
 20
40.7033707931
 10
-59.3455370437
 20
40.7149464254
 10
-59.3194148929
 20
40.725480055
 10
-59.2928909943
 20
40.7349547208
 10
-59.2660086069
 20
40.7433549444
 10
-59.2388119841
 20
40.7506669392
 10
-59.2113435998
 20
40.7568792713
 10
-59.1836495275
 20
40.7619815061
 10
-59.1557802165
 20
40.7659647795
 10
-59.1277827587
 20
40.7688232448
 10
-59.0997006801
 20
40.7705533377
 10
-59.0715794418
 20
40.7711530207
  0
LINE
  5
256
100
AcDbEntity
  8
RACCORDO
100
AcDbLine
 62
250
  6
CONTINUOUS
 10
-59.0785180395
 20
40.6182515288
 11
-59.0773525771
 21
40.6666383366
  0
LINE
  5
257
100
AcDbEntity
  8
RACCORDO
100
AcDbLine
 62
250
  6
CONTINUOUS
 10
-59.0773525771
 20
40.6666383366
 11
-59.0765283525
 21
40.6941841757
  0
LWPOLYLINE
  5
258
100
AcDbEntity
  8
RACCORDO
100
AcDbPolyline
 62
250
  6
CONTINUOUS
 90
11
 70
0
 10
-59.0765283525
 20
40.6941841757
 10
-59.075672457
 20
40.7177510797
 10
-59.0752344189
 20
40.7279944639
 10
-59.0747905561
 20
40.7371886947
 10
-59.0743415035
 20
40.7453189595
 10
-59.0738879371
 20
40.7523722791
 10
-59.0734306334
 20
40.7583374465
 10
-59.0729703891
 20
40.7632049468
 10
-59.0725079598
 20
40.7669670487
 10
-59.0720440635
 20
40.769617801
 10
-59.0715794418
 20
40.7711530207
  0
LINE
  5
259
100
AcDbEntity
  8
RACCORDO
100
AcDbLine
 62
7
  6
CONTINUOUS
 10
-59.9840613881
 20
-3.635045565
 11
-59.9397216282
 21
-3.5239590572
  0
LINE
  5
25A
100
AcDbEntity
  8
RACCORDO
100
AcDbLine
 62
7
  6
CONTINUOUS
 10
-38.4874699823
 20
40.1391612169
 11
-38.4646223616
 21
40.1618180621
  0
LWPOLYLINE
  5
25B
100
AcDbEntity
  8
RACCORDO
100
AcDbPolyline
 62
7
  6
CONTINUOUS
 90
34
 70
0
 10
-38.4646223615
 20
40.1618180621
 10
-38.4629903331
 20
40.1632692192
 10
-38.4612211098
 20
40.1646800584
 10
-38.4593095105
 20
40.1660449566
 10
-38.4572420818
 20
40.1673485626
 10
-38.4550222564
 20
40.168593419
 10
-38.4526717483
 20
40.1698020179
 10
-38.4501872136
 20
40.1709759768
 10
-38.4475661895
 20
40.1721034357
 10
-38.444834562
 20
40.1731900816
 10
-38.441998473
 20
40.1742333143
 10
-38.4390501625
 20
40.1752290322
 10
-38.4359964497
 20
40.1761830388
 10
-38.432841059
 20
40.177093507
 10
-38.4295800524
 20
40.1779568573
 10
-38.4262089418
 20
40.1787767621
 10
-38.4227257753
 20
40.1795520994
 10
-38.4191325458
 20
40.1802785388
 10
-38.4154306756
 20
40.180954995
 10
-38.4116254131
 20
40.1815791449
 10
-38.4077125059
 20
40.1821488179
 10
-38.4036789248
 20
40.1826627011
 10
-38.3995277683
 20
40.1831184839
 10
-38.3952569144
 20
40.1835132082
 10
-38.3908448788
 20
40.1838429941
 10
-38.3862910675
 20
40.184105184
 10
-38.3815969665
 20
40.1842956398
 10
-38.3767436964
 20
40.1844063192
 10
-38.3717314772
 20
40.1844341562
 10
-38.3665614923
 20
40.1843742957
 10
-38.3612161847
 20
40.1842143278
 10
-38.3556904614
 20
40.1839467769
 10
-38.3499918223
 20
40.1835701949
 10
-38.3441217831
 20
40.1830805964
  0
LINE
  5
25C
100
AcDbEntity
  8
RACCORDO
100
AcDbLine
 62
7
  6
CONTINUOUS
 10
-38.4646223553
 20
-40.1618180564
 11
-38.4874699823
 21
-40.1391612168
  0
LINE
  5
25D
100
AcDbEntity
  8
RACCORDO
100
AcDbLine
 62
7
  6
CONTINUOUS
 10
-59.9840613881
 20
3.635045565
 11
-59.9397216282
 21
3.5239590572
  0
LWPOLYLINE
  5
25E
100
AcDbEntity
  8
RACCORDO
100
AcDbPolyline
 62
250
  6
CONTINUOUS
 90
40
 70
0
 10
-37.8256197168
 20
31.4398938589
 10
-37.8241216332
 20
31.4430896602
 10
-37.8215406951
 20
31.4462805042
 10
-37.817880906
 20
31.4494614411
 10
-37.813147943
 20
31.4526275369
 10
-37.8073491479
 20
31.4557738801
 10
-37.8004935156
 20
31.4588955903
 10
-37.7925916808
 20
31.461987825
 10
-37.7836559007
 20
31.4650457875
 10
-37.7737000365
 20
31.4680647344
 10
-37.7627395317
 20
31.4710399826
 10
-37.7507913883
 20
31.473966917
 10
-37.7378741402
 20
31.4768409972
 10
-37.7240078246
 20
31.479657765
 10
-37.7092139511
 20
31.4824128511
 10
-37.6935154677
 20
31.4851019817
 10
-37.6769367261
 20
31.4877209855
 10
-37.6595034432
 20
31.4902657999
 10
-37.6412426614
 20
31.4927324773
 10
-37.6221827069
 20
31.4951171915
 10
-37.6023531454
 20
31.4974162432
 10
-37.5817847367
 20
31.4996260662
 10
-37.5605093863
 20
31.5017432327
 10
-37.5385600967
 20
31.5037644584
 10
-37.5159709155
 20
31.5056866081
 10
-37.4927768831
 20
31.5075067001
 10
-37.4690139781
 20
31.509221911
 10
-37.4447190614
 20
31.5108295803
 10
-37.4199298194
 20
31.5123272141
 10
-37.394684705
 20
31.5137124893
 10
-37.3690228786
 20
31.5149832571
 10
-37.3429841468
 20
31.5161375462
 10
-37.3166089007
 20
31.5171735661
 10
-37.2899380538
 20
31.5180897098
 10
-37.2630129777
 20
31.518884556
 10
-37.2358754387
 20
31.519556872
 10
-37.2085675326
 20
31.5201056146
 10
-37.1811316192
 20
31.5205299328
 10
-37.1536102573
 20
31.5208291684
 10
-37.1260461379
 20
31.5210028571
  0
LWPOLYLINE
  5
25F
100
AcDbEntity
  8
RACCORDO
100
AcDbPolyline
 62
250
  6
CONTINUOUS
 90
6
 70
0
 10
59.4710956988
 20
-40.1257267813
 10
59.4212097204
 20
-40.1289305873
 10
59.395306702
 20
-40.1304063642
 10
59.3688096207
 20
-40.1317385936
 10
59.3418218526
 20
-40.1329896301
 10
59.3143363364
 20
-40.1341430182
  0
LWPOLYLINE
  5
260
100
AcDbEntity
  8
RACCORDO
100
AcDbPolyline
 62
250
  6
CONTINUOUS
 90
7
 70
0
 10
-59.4212095688
 20
-40.1289305963
 10
-59.3953065554
 20
-40.1304063721
 10
-59.3688094809
 20
-40.1317386006
 10
-59.3418217213
 20
-40.1329896359
 10
-59.3143362155
 20
-40.1341430229
 10
-59.2863828879
 20
-40.1351533283
 10
-59.229481584
 20
-40.136876905
  0
LWPOLYLINE
  5
261
100
AcDbEntity
  8
RACCORDO
100
AcDbPolyline
 62
250
  6
CONTINUOUS
 90
40
 70
0
 10
-37.8256195759
 20
-31.4398938588
 10
-37.824121493
 20
-31.4430896584
 10
-37.8215405559
 20
-31.4462805007
 10
-37.8178807683
 20
-31.4494614362
 10
-37.8131478071
 20
-31.4526275305
 10
-37.8073490142
 20
-31.4557738724
 10
-37.8004933846
 20
-31.4588955813
 10
-37.7925915528
 20
-31.4619878149
 10
-37.783655776
 20
-31.4650457763
 10
-37.7736999154
 20
-31.4680647222
 10
-37.7627394146
 20
-31.4710399696
 10
-37.7507912754
 20
-31.4739669031
 10
-37.7378740318
 20
-31.4768409827
 10
-37.724007721
 20
-31.4796577499
 10
-37.7092138524
 20
-31.4824128355
 10
-37.6935153741
 20
-31.4851019658
 10
-37.6769366378
 20
-31.4877209693
 10
-37.6595033602
 20
-31.4902657835
 10
-37.6412425839
 20
-31.4927324608
 10
-37.6221826349
 20
-31.495117175
 10
-37.6023530789
 20
-31.4974162268
 10
-37.5817846757
 20
-31.4996260501
 10
-37.5605093308
 20
-31.5017432168
 10
-37.5385600466
 20
-31.5037644429
 10
-37.5159708707
 20
-31.5056865931
 10
-37.4927768434
 20
-31.5075066856
 10
-37.4690139433
 20
-31.5092218972
 10
-37.4447190313
 20
-31.5108295672
 10
-37.4199297938
 20
-31.5123272018
 10
-37.3946846836
 20
-31.5137124778
 10
-37.3690228611
 20
-31.5149832465
 10
-37.3429841328
 20
-31.5161375366
 10
-37.31660889
 20
-31.5171735576
 10
-37.2899380459
 20
-31.5180897024
 10
-37.2630129722
 20
-31.5188845498
 10
-37.2358754353
 20
-31.5195568669
 10
-37.2085675306
 20
-31.5201056108
 10
-37.1811316184
 20
-31.5205299303
 10
-37.1536102571
 20
-31.5208291671
 10
-37.1260461379
 20
-31.5210028571
  0
LWPOLYLINE
  5
262
100
AcDbEntity
  8
RACCORDO
100
AcDbPolyline
 62
250
  6
CONTINUOUS
 90
8
 70
0
 10
-37.7216171484
 20
-8.6474447501
 10
-37.7221624831
 20
-8.6442492886
 10
-37.7254261551
 20
-8.6227296376
 10
-37.7296306548
 20
-8.6013755879
 10
-37.7347679477
 20
-8.5802279459
 10
-37.7408282169
 20
-8.5593271232
 10
-37.7477998816
 20
-8.5387130599
 10
-37.7533902224
 20
-8.5240360125
  0
LINE
  5
263
100
AcDbEntity
  8
RACCORDO
100
AcDbLine
 62
250
  6
CONTINUOUS
 10
-37.7197514459
 20
-22.2596621857
 11
-37.7213950614
 21
-22.2441244975
  0
LINE
  5
264
100
AcDbEntity
  8
RACCORDO
100
AcDbLine
 62
250
  6
CONTINUOUS
 10
-37.7180697434
 20
-22.2763707199
 11
-37.7197514459
 21
-22.2596621857
  0
LINE
  5
265
100
AcDbEntity
  8
RACCORDO
100
AcDbLine
 62
7
  6
CONTINUOUS
 10
-37.7818620528
 20
-8.4803836547
 11
-37.7822403104
 21
-8.4763773289
  0
LINE
  5
266
100
AcDbEntity
  8
RACCORDO
100
AcDbLine
 62
7
  6
CONTINUOUS
 10
-37.7822403104
 20
-8.4763773289
 11
-37.7827130605
 21
-8.4709051078
  0
LINE
  5
267
100
AcDbEntity
  8
RACCORDO
100
AcDbLine
 62
7
  6
CONTINUOUS
 10
-37.7827130605
 20
-8.4709051078
 11
-37.7832572092
 21
-8.4640310506
  0
LINE
  5
268
100
AcDbEntity
  8
RACCORDO
100
AcDbLine
 62
7
  6
CONTINUOUS
 10
-37.7832572092
 20
-8.4640310506
 11
-37.7838579329
 21
-8.4557664148
  0
LINE
  5
269
100
AcDbEntity
  8
RACCORDO
100
AcDbLine
 62
7
  6
CONTINUOUS
 10
-37.7838579329
 20
-8.4557664148
 11
-37.7845047667
 21
-8.446105262
  0
LINE
  5
26A
100
AcDbEntity
  8
RACCORDO
100
AcDbLine
 62
250
  6
CONTINUOUS
 10
-37.719428157
 20
-8.6686435506
 11
-37.7198458757
 21
-8.6658934184
  0
LINE
  5
26B
100
AcDbEntity
  8
RACCORDO
100
AcDbLine
 62
7
  6
CONTINUOUS
 10
-37.7845047667
 20
-8.446105262
 11
-37.7851849826
 21
-8.4351009249
  0
LINE
  5
26C
100
AcDbEntity
  8
RACCORDO
100
AcDbLine
 62
7
  6
CONTINUOUS
 10
-37.7851849826
 20
-8.4351009249
 11
-37.7858908959
 21
-8.4227326312
  0
LINE
  5
26D
100
AcDbEntity
  8
RACCORDO
100
AcDbLine
 62
250
  6
CONTINUOUS
 10
-37.7848987334
 20
-8.4598087863
 11
-37.7858002228
 21
-8.4435277846
  0
LINE
  5
26E
100
AcDbEntity
  8
RACCORDO
100
AcDbLine
 62
250
  6
CONTINUOUS
 10
-37.0752894723
 20
-22.9147668346
 11
-37.0748143609
 21
-22.9238073836
  0
LINE
  5
26F
100
AcDbEntity
  8
RACCORDO
100
AcDbLine
 62
7
  6
CONTINUOUS
 10
-37.7858908959
 20
-8.4227326312
 11
-37.7869910498
 21
-8.4014599748
  0
LINE
  5
270
100
AcDbEntity
  8
RACCORDO
100
AcDbLine
 62
250
  6
CONTINUOUS
 10
-37.7858002228
 20
-8.4435277846
 11
-37.787534014
 21
-8.4080984492
  0
LWPOLYLINE
  5
271
100
AcDbEntity
  8
RACCORDO
100
AcDbPolyline
 62
7
  6
CONTINUOUS
 90
3
 70
0
 10
-37.7869910498
 20
-8.4014599748
 10
-37.788123666
 20
-8.3768574375
 10
-37.7885063357
 20
-8.3678652285
  0
LINE
  5
272
100
AcDbEntity
  8
RACCORDO
100
AcDbLine
 62
250
  6
CONTINUOUS
 10
-37.787534014
 20
-8.4080984492
 11
-37.7883622963
 21
-8.3890361022
  0
LINE
  5
273
100
AcDbEntity
  8
RACCORDO
100
AcDbLine
 62
250
  6
CONTINUOUS
 10
-37.7176520053
 20
-22.2923753021
 11
-37.7180697466
 21
-22.2763706876
  0
LWPOLYLINE
  5
274
100
AcDbEntity
  8
RACCORDO
100
AcDbPolyline
 62
250
  6
CONTINUOUS
 90
37
 70
0
 10
-38.4874699832
 20
-40.1391612197
 10
-38.4947846159
 20
-37.9155932977
 10
-38.5016820392
 20
-35.6909312526
 10
-38.508162253
 20
-33.4652392718
 10
-38.5142254203
 20
-31.2385815598
 10
-38.5198713776
 20
-29.0110223731
 10
-38.5250996351
 20
-26.7826260186
 10
-38.529910156
 20
-24.5534567647
 10
-38.5343029767
 20
-22.3235789537
 10
-38.5382777172
 20
-20.0930570363
 10
-38.5418343412
 20
-17.8619553865
 10
-38.5449728848
 20
-15.6303383574
 10
-38.5476930765
 20
-13.3982703934
 10
-38.5499948803
 20
-11.1658159185
 10
-38.5518783321
 20
-8.9330393187
 10
-38.5533432692
 20
-6.7000049988
 10
-38.5543896555
 20
-4.4667773854
 10
-38.5550175271
 20
-2.2334209116
 10
-38.5552268297
 20
0.0000000004
 10
-38.5550175271
 20
2.2334209124
 10
-38.5543896555
 20
4.4667773862
 10
-38.5533432692
 20
6.7000049996
 10
-38.5518783321
 20
8.9330393196
 10
-38.5499948803
 20
11.1658159194
 10
-38.5476930765
 20
13.3982703944
 10
-38.5449728847
 20
15.6303383584
 10
-38.5418343412
 20
17.8619553875
 10
-38.5382777172
 20
20.0930570372
 10
-38.5343029767
 20
22.3235789546
 10
-38.529910156
 20
24.5534567656
 10
-38.5250996351
 20
26.7826260194
 10
-38.5198713776
 20
29.0110223738
 10
-38.5142254203
 20
31.2385815604
 10
-38.508162253
 20
33.4652392723
 10
-38.5016820392
 20
35.690931253
 10
-38.4947846159
 20
37.9155932979
 10
-38.4874699832
 20
40.1391612198
  0
LINE
  5
275
100
AcDbEntity
  8
RACCORDO
100
AcDbLine
 62
250
  6
CONTINUOUS
 10
-37.7180697464
 20
22.2763657295
 11
-37.7176513675
 21
22.292394751
  0
LWPOLYLINE
  5
276
100
AcDbEntity
  8
RACCORDO
100
AcDbPolyline
 62
250
  6
CONTINUOUS
 90
4
 70
0
 10
-37.7883757183
 20
8.3887145894
 10
-37.7866952064
 20
8.4259508074
 10
-37.7858167633
 20
8.4432172653
 10
-37.7849163509
 20
8.4595038953
  0
LINE
  5
277
100
AcDbEntity
  8
RACCORDO
100
AcDbLine
 62
7
  6
CONTINUOUS
 10
-37.7883396186
 20
8.3718186667
 11
-37.7871172683
 21
8.398866491
  0
LINE
  5
278
100
AcDbEntity
  8
RACCORDO
100
AcDbLine
 62
7
  6
CONTINUOUS
 10
-37.7871172683
 20
8.398866491
 11
-37.7862021813
 21
8.4169591336
  0
LWPOLYLINE
  5
279
100
AcDbEntity
  8
RACCORDO
100
AcDbPolyline
 62
250
  6
CONTINUOUS
 90
81
 70
0
 10
-37.0747838371
 20
22.9237987681
 10
-37.0752579934
 20
22.9147592252
 10
-37.0755200009
 20
22.9103197643
 10
-37.0757989083
 20
22.9059340225
 10
-37.0760947061
 20
22.9016021595
 10
-37.0764081778
 20
22.8973241823
 10
-37.0767393333
 20
22.8931002396
 10
-37.0770881627
 20
22.8889304774
 10
-37.0774554204
 20
22.8848148972
 10
-37.077841116
 20
22.8807536266
 10
-37.0782452398
 20
22.8767467983
 10
-37.0786685167
 20
22.8727944197
 10
-37.0791109556
 20
22.8688966049
 10
-37.0795725476
 20
22.8650534653
 10
-37.0800539911
 20
22.8612650019
 10
-37.0805552947
 20
22.8575313169
 10
-37.0810764499
 20
22.8538524998
 10
-37.0816181295
 20
22.8502285301
 10
-37.0821803427
 20
22.846659491
 10
-37.0827630805
 20
22.8431454591
 10
-37.0833669889
 20
22.8396864036
 10
-37.0839920778
 20
22.8362823865
 10
-37.0846383375
 20
22.8329334751
 10
-37.0853063843
 20
22.8296396444
 10
-37.0859962269
 20
22.8264009431
 10
-37.0867078567
 20
22.823217421
 10
-37.0874418638
 20
22.8200890519
 10
-37.088198256
 20
22.8170158753
 10
-37.0889770256
 20
22.8139979192
 10
-37.0897787396
 20
22.8110351384
 10
-37.0906034058
 20
22.8081275576
 10
-37.0914510164
 20
22.8052751905
 10
-37.0923221155
 20
22.8024779741
 10
-37.0932167146
 20
22.799735908
 10
-37.0941348022
 20
22.7970490043
 10
-37.0950768875
 20
22.794417217
 10
-37.0960429796
 20
22.7918405344
 10
-37.0970330694
 20
22.7893189506
 10
-37.0980476389
 20
22.7868524243
 10
-37.0990866934
 20
22.7844409391
 10
-37.1001502276
 20
22.7820844631
 10
-37.1012387069
 20
22.7797829271
 10
-37.1023521378
 20
22.7775363
 10
-37.103490514
 20
22.7753445373
 10
-37.1046542824
 20
22.7732075478
 10
-37.105843451
 20
22.7711252845
 10
-37.1070580119
 20
22.7690976943
 10
-37.1082983882
 20
22.7671246755
 10
-37.1095645894
 20
22.7652061674
 10
-37.1108566061
 20
22.7633421073
 10
-37.112174833
 20
22.7615323903
 10
-37.1135192799
 20
22.7597769426
 10
-37.1148899369
 20
22.7580756911
 10
-37.1162871696
 20
22.7564285299
 10
-37.1177109856
 20
22.7548353761
 10
-37.1191613772
 20
22.7532961418
 10
-37.1206386869
 20
22.7518107115
 10
-37.1221429214
 20
22.7503789918
 10
-37.123674074
 20
22.7490008824
 10
-37.1252324672
 20
22.7476762557
 10
-37.1268181072
 20
22.7464050081
 10
-37.1284309878
 20
22.7451870283
 10
-37.1300714136
 20
22.744022177
 10
-37.1317393927
 20
22.7429103394
 10
-37.1334349169
 20
22.7418513965
 10
-37.1351582659
 20
22.7408452031
 10
-37.1369094412
 20
22.7398916386
 10
-37.1386884413
 20
22.738990571
 10
-37.1404955412
 20
22.7381418404
 10
-37.1423307538
 20
22.7373453136
 10
-37.1441940662
 20
22.7366008578
 10
-37.1460857147
 20
22.7359083163
 10
-37.1480056979
 20
22.7352675533
 10
-37.1499540172
 20
22.7346784224
 10
-37.1519309134
 20
22.7341407552
 10
-37.153936402
 20
22.7336544064
 10
-37.1559704675
 20
22.7332192302
 10
-37.1580333031
 20
22.7328350637
 10
-37.1601249732
 20
22.7325017537
 10
-37.1622454135
 20
22.7322191508
 10
-37.1643946239
 20
22.7319870978
  0
LINE
  5
27A
100
AcDbEntity
  8
RACCORDO
100
AcDbLine
 62
7
  6
CONTINUOUS
 10
-37.7862021813
 20
8.4169591336
 11
-37.7853015992
 21
8.4331234487
  0
LWPOLYLINE
  5
27B
100
AcDbEntity
  8
RACCORDO
100
AcDbPolyline
 62
250
  6
CONTINUOUS
 90
13
 70
0
 10
-37.7849163509
 20
8.4595038953
 10
-37.7839935086
 20
8.4748110993
 10
-37.7830486969
 20
8.4891384753
 10
-37.7820867286
 20
8.5024060044
 10
-37.7811072294
 20
8.5146069064
 10
-37.7801105736
 20
8.5257479613
 10
-37.7791026968
 20
8.5357694905
 10
-37.7780835752
 20
8.5446594844
 10
-37.7770532326
 20
8.5524299526
 10
-37.7760176765
 20
8.5590572439
 10
-37.7749789093
 20
8.5645334748
 10
-37.7739349285
 20
8.5688665289
 10
-37.7728857341
 20
8.5720564063
  0
LINE
  5
27C
100
AcDbEntity
  8
RACCORDO
100
AcDbLine
 62
7
  6
CONTINUOUS
 10
-37.7853015992
 20
8.4331234487
 11
-37.78442902
 21
8.4472823611
  0
LINE
  5
27D
100
AcDbEntity
  8
RACCORDO
100
AcDbLine
 62
7
  6
CONTINUOUS
 10
-37.78442902
 20
8.4472823611
 11
-37.7838696193
 21
8.4555970469
  0
LINE
  5
27E
100
AcDbEntity
  8
RACCORDO
100
AcDbLine
 62
7
  6
CONTINUOUS
 10
-37.7838696193
 20
8.4555970469
 11
-37.7833361177
 21
8.4629813336
  0
LINE
  5
27F
100
AcDbEntity
  8
RACCORDO
100
AcDbLine
 62
7
  6
CONTINUOUS
 10
-37.7833361177
 20
8.4629813336
 11
-37.782841502
 21
8.4693375186
  0
LINE
  5
280
100
AcDbEntity
  8
RACCORDO
100
AcDbLine
 62
7
  6
CONTINUOUS
 10
-37.782841502
 20
8.4693375186
 11
-37.7823978391
 21
8.4746116096
  0
LINE
  5
281
100
AcDbEntity
  8
RACCORDO
100
AcDbLine
 62
7
  6
CONTINUOUS
 10
-37.7823978391
 20
8.4746116096
 11
-37.7820190858
 21
8.4787642691
  0
LWPOLYLINE
  5
282
100
AcDbEntity
  8
RACCORDO
100
AcDbPolyline
 62
7
  6
CONTINUOUS
 90
4
 70
0
 10
-37.7820190858
 20
8.4787642691
 10
-37.7817237582
 20
8.4817440148
 10
-37.7816188299
 20
8.4827343104
 10
-37.7815495853
 20
8.4833599164
  0
LINE
  5
283
100
AcDbEntity
  8
RACCORDO
100
AcDbLine
 62
250
  6
CONTINUOUS
 10
-37.7197515739
 20
22.2596557774
 11
-37.7180697434
 21
22.2763657599
  0
LINE
  5
284
100
AcDbEntity
  8
RACCORDO
100
AcDbLine
 62
250
  6
CONTINUOUS
 10
-37.7213952773
 20
22.244117289
 11
-37.7197515739
 21
22.2596557774
  0
LINE
  5
285
100
AcDbEntity
  8
RACCORDO
100
AcDbLine
 62
250
  6
CONTINUOUS
 10
-37.7230017245
 20
22.2297288948
 11
-37.7213952773
 21
22.244117289
  0
LINE
  5
286
100
AcDbEntity
  8
RACCORDO
100
AcDbLine
 62
250
  6
CONTINUOUS
 10
-37.7245738956
 20
22.2164173815
 11
-37.7230017245
 21
22.2297288948
  0
LINE
  5
287
100
AcDbEntity
  8
RACCORDO
100
AcDbLine
 62
250
  6
CONTINUOUS
 10
-37.7261140127
 20
22.20412811
 11
-37.7245738956
 21
22.2164173815
  0
LWPOLYLINE
  5
288
100
AcDbEntity
  8
RACCORDO
100
AcDbPolyline
 62
250
  6
CONTINUOUS
 90
5
 70
0
 10
-37.7252269364
 20
8.624044291
 10
-37.7221632687
 20
8.6442432128
 10
-37.7198462214
 20
8.6658893456
 10
-37.718480843
 20
8.6876186227
 10
-37.7180697434
 20
8.7093895131
  0
LWPOLYLINE
  5
289
100
AcDbEntity
  8
RACCORDO
100
AcDbPolyline
 62
7
  6
CONTINUOUS
 90
3
 70
0
 10
-37.7220430321
 20
22.2721338718
 10
-37.7220979677
 20
22.2717841557
 10
-37.7222432072
 20
22.2708855945
  0
LWPOLYLINE
  5
28A
100
AcDbEntity
  8
RACCORDO
100
AcDbPolyline
 62
250
  6
CONTINUOUS
 90
8
 70
0
 10
-37.7319871002
 20
22.1643945998
 10
-37.7312761553
 20
22.1685822383
 10
-37.7305586818
 20
22.1729902649
 10
-37.7298346797
 20
22.1776186795
 10
-37.7291043603
 20
22.1824626577
 10
-37.7283675122
 20
22.1875270239
 10
-37.7276235011
 20
22.1928262519
 10
-37.7261140127
 20
22.20412811
  0
LWPOLYLINE
  5
28B
100
AcDbEntity
  8
RACCORDO
100
AcDbPolyline
 62
7
  6
CONTINUOUS
 90
3
 70
0
 10
-37.722236437
 20
22.2709223649
 10
-37.7220485369
 20
22.2719580991
 10
-37.7216742391
 20
22.2739094954
  0
LINE
  5
28C
100
AcDbEntity
  8
RACCORDO
100
AcDbLine
 62
250
  6
CONTINUOUS
 10
-37.7220485369
 20
22.2719580991
 11
-37.7216937782
 21
22.2738100238
  0
LINE
  5
28D
100
AcDbEntity
  8
RACCORDO
100
AcDbLine
 62
250
  6
CONTINUOUS
 10
-37.7296328435
 20
8.6013656304
 11
-37.7255800734
 21
8.621947057
  0
LWPOLYLINE
  5
28E
100
AcDbEntity
  8
RACCORDO
100
AcDbPolyline
 62
7
  6
CONTINUOUS
 90
4
 70
0
 10
-37.7216937782
 20
22.2738100238
 10
-37.7212039852
 20
22.276268579
 10
-37.7202415216
 20
22.2809097384
 10
-37.7191129383
 20
22.2860788498
  0
LWPOLYLINE
  5
28F
100
AcDbEntity
  8
RACCORDO
100
AcDbPolyline
 62
7
  6
CONTINUOUS
 90
54
 70
0
 10
-37.7191129383
 20
22.2860788498
 10
-37.7178084321
 20
22.2917476358
 10
-37.7163161878
 20
22.2978957711
 10
-37.714618925
 20
22.3045224254
 10
-37.7127047118
 20
22.3116024127
 10
-37.710572269
 20
22.3190741569
 10
-37.7082057105
 20
22.3269311761
 10
-37.705593719
 20
22.3351501228
 10
-37.7027470458
 20
22.3436441091
 10
-37.69965797
 20
22.3523909373
 10
-37.6963133694
 20
22.3613840213
 10
-37.6927212579
 20
22.3705625731
 10
-37.6888764604
 20
22.379906064
 10
-37.6847678974
 20
22.3894089169
 10
-37.6803978222
 20
22.3990357296
 10
-37.6757591938
 20
22.4087745169
 10
-37.6708453055
 20
22.4186128357
 10
-37.6656609897
 20
22.4285169654
 10
-37.6602029602
 20
22.4384717398
 10
-37.6544642517
 20
22.4484691709
 10
-37.6484458236
 20
22.4584880214
 10
-37.6421440493
 20
22.4685161147
 10
-37.6355546251
 20
22.4785426818
 10
-37.6286785006
 20
22.4885496139
 10
-37.6215129499
 20
22.4985251843
 10
-37.614055233
 20
22.5084579995
 10
-37.6063072291
 20
22.5183311434
 10
-37.5982674587
 20
22.5281328703
 10
-37.5899346373
 20
22.5378515215
 10
-37.5813119379
 20
22.5474708491
 10
-37.5724009617
 20
22.5569773043
 10
-37.5632003753
 20
22.5663608939
 10
-37.5537096991
 20
22.5756108211
 10
-37.5439323227
 20
22.5847128835
 10
-37.5338677373
 20
22.5936569687
 10
-37.5235097996
 20
22.6024376062
 10
-37.5128610614
 20
22.6110415232
 10
-37.5019241172
 20
22.6194558127
 10
-37.4906929393
 20
22.627674048
 10
-37.4791713904
 20
22.6356821152
 10
-37.4673638075
 20
22.643466012
 10
-37.4552652959
 20
22.6510177428
 10
-37.4428816002
 20
22.658322287
 10
-37.4302192143
 20
22.6653646951
 10
-37.4172753285
 20
22.6721352211
 10
-37.4040583934
 20
22.6786179788
 10
-37.3905775102
 20
22.684797391
 10
-37.3768325362
 20
22.6906622658
 10
-37.3628354624
 20
22.6961961427
 10
-37.3485988041
 20
22.7013831517
 10
-37.3341259184
 20
22.7062110725
 10
-37.3194326595
 20
22.7106636022
 10
-37.3045368593
 20
22.7147248668
 10
-37.2894491065
 20
22.7183817006
  0
LINE
  5
290
100
AcDbEntity
  8
RACCORDO
100
AcDbLine
 62
250
  6
CONTINUOUS
 10
-37.7347710938
 20
8.5802161325
 11
-37.7296328435
 21
8.6013656304
  0
LWPOLYLINE
  5
291
100
AcDbEntity
  8
RACCORDO
100
AcDbPolyline
 62
250
  6
CONTINUOUS
 90
40
 70
0
 10
-37.7781070588
 20
23.1412504369
 10
-37.7766227131
 20
23.1469667656
 10
-37.7740547739
 20
23.1526754068
 10
-37.7704072264
 20
23.1583674325
 10
-37.7656857324
 20
23.1640340534
 10
-37.7598976193
 20
23.1696662943
 10
-37.7530518688
 20
23.175255032
 10
-37.745159107
 20
23.1807915472
 10
-37.7362315848
 20
23.1862672142
 10
-37.7262831581
 20
23.1916732133
 10
-37.7153292693
 20
23.1970011274
 10
-37.7033869213
 20
23.202242683
 10
-37.6904746501
 20
23.2073894952
 10
-37.6766124991
 20
23.2124335753
 10
-37.6618219858
 20
23.2173671006
 10
-37.6461260674
 20
23.2221822057
 10
-37.6295491082
 20
23.2268714206
 10
-37.6121168401
 20
23.231427498
 10
-37.5938563213
 20
23.2358432239
 10
-37.574795897
 20
23.2401117409
 10
-37.5549651541
 20
23.2442264764
 10
-37.5343948748
 20
23.2481809985
 10
-37.5131169893
 20
23.2519691588
 10
-37.4911645267
 20
23.2555851326
 10
-37.4685715637
 20
23.2590233592
 10
-37.44537317
 20
23.2622784652
 10
-37.4216053559
 20
23.2653454602
 10
-37.3973050168
 20
23.2682197678
 10
-37.3725098724
 20
23.2708968703
 10
-37.3472584118
 20
23.2733726621
 10
-37.3215898338
 20
23.2756436163
 10
-37.2955439819
 20
23.2777061536
 10
-37.2691612865
 20
23.2795570897
 10
-37.2424827042
 20
23.2811939464
 10
-37.2155496462
 20
23.2826141327
 10
-37.1884039202
 20
23.2838154487
 10
-37.1610876689
 20
23.2847964876
 10
-37.1336432961
 20
23.2855558679
 10
-37.1061134006
 20
23.2860922493
 10
-37.0785407159
 20
23.2864048073
  0
LINE
  5
292
100
AcDbEntity
  8
RACCORDO
100
AcDbLine
 62
250
  6
CONTINUOUS
 10
-37.7408324863
 20
8.5593135232
 11
-37.7347710938
 21
8.5802161325
  0
LINE
  5
293
100
AcDbEntity
  8
RACCORDO
100
AcDbLine
 62
250
  6
CONTINUOUS
 10
-37.747805435
 20
8.5386977557
 11
-37.7408324863
 21
8.5593135232
  0
LINE
  5
294
100
AcDbEntity
  8
RACCORDO
100
AcDbLine
 62
250
  6
CONTINUOUS
 10
-37.7533902224
 20
8.5240360125
 11
-37.747805435
 21
8.5386977557
  0
LWPOLYLINE
  5
295
100
AcDbEntity
  8
RACCORDO
100
AcDbPolyline
 62
7
  6
CONTINUOUS
 90
11
 70
0
 10
-37.7534294611
 20
8.5239377364
 10
-37.7511957356
 20
8.5296314114
 10
-37.7437050655
 20
8.5504334514
 10
-37.7371173669
 20
8.5716299332
 10
-37.7314439192
 20
8.5932359347
 10
-37.7267104168
 20
8.6152340982
 10
-37.7229540643
 20
8.6375425756
 10
-37.7202028406
 20
8.6600768226
 10
-37.718474268
 20
8.6827698597
 10
-37.7177797187
 20
8.7055740151
 10
-37.7177651569
 20
22.2763660163
  0
LINE
  5
296
100
AcDbEntity
  8
RACCORDO
100
AcDbLine
 62
250
  6
CONTINUOUS
 10
-37.7728857341
 20
8.5720564063
 11
-37.7180697434
 21
8.7093895131
  0
LINE
  5
297
100
AcDbEntity
  8
RACCORDO
100
AcDbLine
 62
7
  6
CONTINUOUS
 10
-37.7845057239
 20
8.4460808676
 11
-37.7533902224
 21
8.5240360125
  0
LWPOLYLINE
  5
298
100
AcDbEntity
  8
0
100
AcDbPolyline
 62
7
  6
CONTINUOUS
 90
3
 70
0
 43
0.3500000006
 10
-3.2142856836
 20
51.8928551788
 10
-2.3571427875
 20
52.750002182
 10
-2.3571427875
 20
49.7500012665
  0
LWPOLYLINE
  5
299
100
AcDbEntity
  8
RACCORDO
100
AcDbPolyline
 62
250
  6
CONTINUOUS
 90
3
 70
0
 10
59.3143363364
 20
-40.1341430182
 10
59.2581062033
 20
-40.1360652255
 10
59.2294816647
 20
-40.1368769029
  0
LWPOLYLINE
  5
29A
100
AcDbEntity
  8
RACCORDO
100
AcDbPolyline
 62
250
  6
CONTINUOUS
 90
5
 70
0
 10
59.2294816647
 20
-40.1368769029
 10
59.1714034304
 20
-40.1381081193
 10
59.1421773049
 20
-40.1385666565
 10
59.1127519462
 20
-40.1388985333
 10
59.0831020304
 20
-40.1390855955
  0
LWPOLYLINE
  5
29B
100
AcDbEntity
  8
RACCORDO
100
AcDbPolyline
 62
250
  6
CONTINUOUS
 90
3
 70
0
 10
37.7062797953
 20
-40.771711568
 10
42.4539119089
 20
-40.7693508861
 10
44.8278219709
 20
-40.7686498072
  0
LINE
  5
29C
100
AcDbEntity
  8
RACCORDO
100
AcDbLine
 62
250
  6
CONTINUOUS
 10
-59.0715794418
 20
-40.7711530207
 11
-54.3238634687
 21
-40.769040576
  0
LWPOLYLINE
  5
29D
100
AcDbEntity
  8
RACCORDO
100
AcDbPolyline
 62
250
  6
CONTINUOUS
 90
3
 70
0
 10
38.4874699832
 20
-40.1391612198
 10
43.0640693478
 20
-40.137064423
 10
45.3525076813
 20
-40.1364613617
  0
LINE
  5
29E
100
AcDbEntity
  8
RACCORDO
100
AcDbLine
 62
250
  6
CONTINUOUS
 10
-59.0831020386
 20
-40.1390855869
 11
-54.5064564908
 21
-40.1370223896
  0
LINE
  5
29F
100
AcDbEntity
  8
RACCORDO
100
AcDbLine
 62
7
  6
CONTINUOUS
 10
-59.3004264211
 20
-41.0
 11
59.3004264211
 21
-41.0
  0
LINE
  5
2A0
100
AcDbEntity
  8
RACCORDO
100
AcDbLine
 62
250
  6
CONTINUOUS
 10
-37.7062797953
 20
-40.771711568
 11
37.7062797953
 21
-40.771711568
  0
LINE
  5
2A1
100
AcDbEntity
  8
RACCORDO
100
AcDbLine
 62
250
  6
CONTINUOUS
 10
44.8278219709
 20
-40.7686498072
 11
49.5759055852
 21
-40.768206172
  0
LINE
  5
2A2
100
AcDbEntity
  8
RACCORDO
100
AcDbLine
 62
250
  6
CONTINUOUS
 10
-54.3238634687
 20
-40.769040576
 11
-49.5759066972
 21
-40.7682061721
  0
LINE
  5
2A3
100
AcDbEntity
  8
RACCORDO
100
AcDbLine
 62
250
  6
CONTINUOUS
 10
-37.7000001995
 20
-40.1396568101
 11
37.9684116793
 21
-40.139474058
  0
LINE
  5
2A4
100
AcDbEntity
  8
RACCORDO
100
AcDbLine
 62
250
  6
CONTINUOUS
 10
45.3525076813
 20
-40.1364613617
 11
49.9295082936
 21
-40.1361471562
  0
LINE
  5
2A5
100
AcDbEntity
  8
RACCORDO
100
AcDbLine
 62
250
  6
CONTINUOUS
 10
-54.5064564908
 20
-40.1370223896
 11
-49.9295081129
 21
-40.1361471561
  0
LINE
  5
2A6
100
AcDbEntity
  8
DRAFT
100
AcDbLine
 62
7
  6
CONTINUOUS
 10
-37.7
 20
-40.0986945859
 11
37.7
 21
-40.0986945859
  0
LINE
  5
2A7
100
AcDbEntity
  8
RACCORDO
100
AcDbLine
 62
250
  6
CONTINUOUS
 10
-49.5759066972
 20
-40.7682061721
 11
-44.8278225482
 21
-40.7686498071
  0
LINE
  5
2A8
100
AcDbEntity
  8
RACCORDO
100
AcDbLine
 62
250
  6
CONTINUOUS
 10
-49.9295081129
 20
-40.1361471561
 11
-45.3525075477
 21
-40.1364613617
  0
LINE
  5
2A9
100
AcDbEntity
  8
RACCORDO
100
AcDbLine
 62
250
  6
CONTINUOUS
 10
49.5759055852
 20
-40.768206172
 11
54.323862482
 21
-40.7690405758
  0
LINE
  5
2AA
100
AcDbEntity
  8
RACCORDO
100
AcDbLine
 62
250
  6
CONTINUOUS
 10
49.9295082936
 20
-40.1361471562
 11
54.5064566315
 21
-40.1370223896
  0
LWPOLYLINE
  5
2AB
100
AcDbEntity
  8
RACCORDO
100
AcDbPolyline
 62
250
  6
CONTINUOUS
 90
3
 70
0
 10
-44.8278225482
 20
-40.7686498071
 10
-40.0800647064
 20
-40.770371473
 10
-37.7062797953
 20
-40.771711568
  0
LINE
  5
2AC
100
AcDbEntity
  8
RACCORDO
100
AcDbLine
 62
250
  6
CONTINUOUS
 10
54.323862482
 20
-40.7690405758
 11
59.0715794417
 21
-40.7711530206
  0
LINE
  5
2AD
100
AcDbEntity
  8
RACCORDO
100
AcDbLine
 62
250
  6
CONTINUOUS
 10
-45.3525075477
 20
-40.1364613617
 11
-38.4874699832
 21
-40.1391612197
  0
LINE
  5
2AE
100
AcDbEntity
  8
RACCORDO
100
AcDbLine
 62
250
  6
CONTINUOUS
 10
54.5064566315
 20
-40.1370223896
 11
59.0831020386
 21
-40.1390855866
  0
LINE
  5
2AF
100
AcDbEntity
  8
RACCORDO
100
AcDbLine
 62
250
  6
CONTINUOUS
 10
-37.9684116528
 20
-40.1394740582
 11
-37.7000001994
 21
-40.1396419602
  0
LWPOLYLINE
  5
2B0
100
AcDbEntity
  8
RACCORDO
100
AcDbPolyline
 62
250
  6
CONTINUOUS
 90
3
 70
0
 10
-59.1421772749
 20
-40.1385666569
 10
-59.1127519346
 20
-40.1388985334
 10
-59.0831020382
 20
-40.1390855955
  0
LWPOLYLINE
  5
2B1
100
AcDbEntity
  8
RACCORDO
100
AcDbPolyline
 62
250
  6
CONTINUOUS
 90
3
 70
0
 10
-59.229481584
 20
-40.136876905
 10
-59.2005196802
 20
-40.1375493434
 10
-59.1421772749
 20
-40.1385666569
  0
LINE
  5
2B2
100
AcDbEntity
  8
RACCORDO
100
AcDbLine
 62
250
  6
CONTINUOUS
 10
-37.7180697434
 20
-8.7093895131
 11
-37.7728857341
 21
-8.5720564063
  0
LINE
  5
2B3
100
AcDbEntity
  8
RACCORDO
100
AcDbLine
 62
7
  6
CONTINUOUS
 10
-37.7533902224
 20
-8.5240360125
 11
-37.7845064148
 21
-8.4460791367
  0
LWPOLYLINE
  5
2B4
100
AcDbEntity
  8
RACCORDO
100
AcDbPolyline
 62
7
  6
CONTINUOUS
 90
10
 70
0
 10
-37.7533902224
 20
-8.5240360125
 10
-37.7459250724
 20
-8.5439599693
 10
-37.7393118767
 20
-8.5641915165
 10
-37.7335637977
 20
-8.5846937084
 10
-37.7286922409
 20
-8.6054295071
 10
-37.7247072382
 20
-8.6263600683
 10
-37.7216171484
 20
-8.6474447501
 10
-37.719428157
 20
-8.6686435506
 10
-37.7181444742
 20
-8.6899171802
 10
-37.7177651569
 20
-8.7093895131
  0
LWPOLYLINE
  5
2B5
100
AcDbEntity
  8
RACCORDO
100
AcDbPolyline
 62
250
  6
CONTINUOUS
 90
13
 70
0
 10
-37.7728857341
 20
-8.5720564063
 10
-37.7739307097
 20
-8.5688842036
 10
-37.774970985
 20
-8.5645726694
 10
-37.7760065602
 20
-8.5591218037
 10
-37.7770394434
 20
-8.552525214
 10
-37.7780676264
 20
-8.5447892928
 10
-37.7790850844
 20
-8.5359332176
 10
-37.7800918028
 20
-8.5259449772
 10
-37.7810877963
 20
-8.5148365827
 10
-37.7820670841
 20
-8.5026632453
 10
-37.7830293772
 20
-8.4894163831
 10
-37.7839749647
 20
-8.475104578
 10
-37.7848987334
 20
-8.4598087863
  0
LWPOLYLINE
  5
2B6
100
AcDbEntity
  8
RACCORDO
100
AcDbPolyline
 62
250
  6
CONTINUOUS
 90
40
 70
0
 10
-37.7781063677
 20
-23.1412504372
 10
-37.7766230911
 20
-23.1470916705
 10
-37.77405615
 20
-23.152919424
 10
-37.770409529
 20
-23.1587246386
 10
-37.7656888896
 20
-23.1644984483
 10
-37.7599015585
 20
-23.1702317241
 10
-37.7530565181
 20
-23.1759150944
 10
-37.7451643946
 20
-23.1815396733
 10
-37.7362374406
 20
-23.1870967924
 10
-37.7262895146
 20
-23.1925775507
 10
-37.7153360605
 20
-23.1979733871
 10
-37.7033940836
 20
-23.2032759842
 10
-37.6904821245
 20
-23.208477007
 10
-37.6766202287
 20
-23.2135683329
 10
-37.6618299164
 20
-23.218542112
 10
-37.6461341506
 20
-23.2233906734
 10
-37.6295572983
 20
-23.2281064533
 10
-37.612125094
 20
-23.2326821694
 10
-37.593864601
 20
-23.2371108813
 10
-37.5748041692
 20
-23.2413857122
 10
-37.5549733863
 20
-23.2455000269
 10
-37.5344030315
 20
-23.2494476042
 10
-37.5131250394
 20
-23.2532223407
 10
-37.4911724387
 20
-23.2568183526
 10
-37.4685792929
 20
-23.2602301515
 10
-37.4453806703
 20
-23.263452481
 10
-37.4216125843
 20
-23.2664803035
 10
-37.3973119222
 20
-23.2693089008
 10
-37.3725164008
 20
-23.2719339619
 10
-37.3472645139
 20
-23.2743513411
 10
-37.3215954662
 20
-23.2765570413
 10
-37.2955491041
 20
-23.2785477551
 10
-37.2691658595
 20
-23.2803202852
 10
-37.2424866947
 20
-23.2818712932
 10
-37.2155530255
 20
-23.2831984916
 10
-37.1884066614
 20
-23.2842996955
 10
-37.161089749
 20
-23.2851722241
 10
-37.1336446962
 20
-23.2858143803
 10
-37.106114106
 20
-23.2862254636
 10
-37.0785407159
 20
-23.2864048073
  0
LINE
  5
2B7
100
AcDbEntity
  8
RACCORDO
100
AcDbLine
 62
7
  6
CONTINUOUS
 10
-37.7212630344
 20
-22.2759757726
 11
-37.7217040155
 21
-22.2737578683
  0
LINE
  5
2B8
100
AcDbEntity
  8
RACCORDO
100
AcDbLine
 62
7
  6
CONTINUOUS
 10
-37.7216797783
 20
-22.2738813054
 11
-37.7220731554
 21
-22.2718261781
  0
LINE
  5
2B9
100
AcDbEntity
  8
RACCORDO
100
AcDbLine
 62
250
  6
CONTINUOUS
 10
-37.7238643761
 20
-22.2620883323
 11
-37.7222010908
 21
-22.2711234916
  0
LINE
  5
2BA
100
AcDbEntity
  8
RACCORDO
100
AcDbLine
 62
250
  6
CONTINUOUS
 10
-37.7220731554
 20
-22.2718261781
 11
-37.7217040155
 21
-22.2737578683
  0
LINE
  5
2BB
100
AcDbEntity
  8
RACCORDO
100
AcDbLine
 62
7
  6
CONTINUOUS
 10
-37.7220731554
 20
-22.2718261781
 11
-37.7222010908
 21
-22.2711234916
  0
LWPOLYLINE
  5
2BC
100
AcDbEntity
  8
RACCORDO
100
AcDbPolyline
 62
250
  6
CONTINUOUS
 90
45
 70
0
 10
-37.7319871002
 20
-22.1643945998
 10
-37.7323623214
 20
-22.1622915374
 10
-37.7327392529
 20
-22.160310497
 10
-37.7331178947
 20
-22.1584514787
 10
-37.7334982948
 20
-22.1567137208
 10
-37.7338804051
 20
-22.155097985
 10
-37.7342640817
 20
-22.1536065562
 10
-37.7346493246
 20
-22.152239486
 10
-37.7350361338
 20
-22.1509967229
 10
-37.7354243662
 20
-22.1498803976
 10
-37.7358140248
 20
-22.1488905529
 10
-37.7362051066
 20
-22.148027146
 10
-37.7365974592
 20
-22.1472921795
 10
-37.7369910825
 20
-22.1466857058
 10
-37.7373859765
 20
-22.1462076724
 10
-37.7377819886
 20
-22.1458599245
 10
-37.7381791211
 20
-22.1456425135
 10
-37.7385773716
 20
-22.145555388
 10
-37.73897658
 20
-22.1456002386
 10
-37.7393767472
 20
-22.1457771214
 10
-37.7397778722
 20
-22.1460859804
 10
-37.7401797925
 20
-22.1465283383
 10
-37.7405825093
 20
-22.147104253
 10
-37.7409860213
 20
-22.1478136665
 10
-37.7413901619
 20
-22.1486579273
 10
-37.7417949333
 20
-22.1496370997
 10
-37.7422003334
 20
-22.1507511193
 10
-37.7426061894
 20
-22.1520011419
 10
-37.7430125017
 20
-22.1533872281
 10
-37.74341927
 20
-22.1549093172
 10
-37.7438263211
 20
-22.1565683824
 10
-37.7442336536
 20
-22.1583644779
 10
-37.7446412689
 20
-22.1602975494
 10
-37.745048997
 20
-22.1623684081
 10
-37.745456838
 20
-22.1645771104
 10
-37.7458647918
 20
-22.1669235998
 10
-37.7462726886
 20
-22.1694085188
 10
-37.7466805299
 20
-22.172031934
 10
-37.7470883142
 20
-22.1747937787
 10
-37.7474958672
 20
-22.1776944946
 10
-37.7479031899
 20
-22.1807341483
 10
-37.7483102813
 20
-22.1839126732
 10
-37.7487169645
 20
-22.1872303107
 10
-37.749123239
 20
-22.190687116
 10
-37.7499343886
 20
-22.1980181396
  0
LWPOLYLINE
  5
2BD
100
AcDbEntity
  8
RACCORDO
100
AcDbPolyline
 62
250
  6
CONTINUOUS
 90
7
 70
0
 10
-37.7276232662
 20
-22.1928314541
 10
-37.7283673041
 20
-22.187531537
 10
-37.7291041847
 20
-22.1824663988
 10
-37.7298345412
 20
-22.1776215818
 10
-37.7305585849
 20
-22.1729922667
 10
-37.7312761045
 20
-22.1685832727
 10
-37.7319871002
 20
-22.1643945998
  0
LINE
  5
2BE
100
AcDbEntity
  8
RACCORDO
100
AcDbLine
 62
250
  6
CONTINUOUS
 10
-37.7261137409
 20
-22.2041344447
 11
-37.7276232662
 21
-22.1928314541
  0
LWPOLYLINE
  5
2BF
100
AcDbEntity
  8
RACCORDO
100
AcDbPolyline
 62
7
  6
CONTINUOUS
 90
6
 70
0
 10
-37.7815355862
 20
-8.4834921466
 10
-37.7815172607
 20
-8.4836394818
 10
-37.7815412118
 20
-8.483434412
 10
-37.7816106947
 20
-8.4828121379
 10
-37.7817184322
 20
-8.4817995143
 10
-37.7818620528
 20
-8.4803836547
  0
LINE
  5
2C0
100
AcDbEntity
  8
RACCORDO
100
AcDbLine
 62
250
  6
CONTINUOUS
 10
-37.7245736127
 20
-22.2164244611
 11
-37.7261137409
 21
-22.2041344447
  0
LINE
  5
2C1
100
AcDbEntity
  8
RACCORDO
100
AcDbLine
 62
250
  6
CONTINUOUS
 10
-37.723001459
 20
-22.2297362884
 11
-37.7245736127
 21
-22.2164244611
  0
LINE
  5
2C2
100
AcDbEntity
  8
RACCORDO
100
AcDbLine
 62
250
  6
CONTINUOUS
 10
-37.7213950614
 20
-22.2441244975
 11
-37.723001459
 21
-22.2297362884
  0
LINE
  5
2C3
100
AcDbEntity
  8
RACCORDO
100
AcDbLine
 62
250
  6
CONTINUOUS
 10
-38.1563470058
 20
38.671602439
 11
-38.1410187306
 21
38.528325021
  0
LINE
  5
2C4
100
AcDbEntity
  8
RACCORDO
100
AcDbLine
 62
250
  6
CONTINUOUS
 10
-37.7503407903
 20
22.2018716802
 11
-37.7495309221
 21
22.1942630774
  0
LINE
  5
2C5
100
AcDbEntity
  8
RACCORDO
100
AcDbLine
 62
250
  6
CONTINUOUS
 10
-38.1410187306
 20
38.528325021
 11
-38.1251013641
 21
38.3716591905
  0
LINE
  5
2C6
100
AcDbEntity
  8
RACCORDO
100
AcDbLine
 62
250
  6
CONTINUOUS
 10
-37.7511481564
 20
22.210036978
 11
-37.7503407903
 21
22.2018716802
  0
LINE
  5
2C7
100
AcDbEntity
  8
RACCORDO
100
AcDbLine
 62
250
  6
CONTINUOUS
 10
-38.1251013641
 20
38.3716591905
 11
-38.1085692064
 21
38.2000679148
  0
LINE
  5
2C8
100
AcDbEntity
  8
RACCORDO
100
AcDbLine
 62
250
  6
CONTINUOUS
 10
-37.7519524907
 20
22.2187586744
 11
-37.7511481564
 21
22.210036978
  0
LINE
  5
2C9
100
AcDbEntity
  8
RACCORDO
100
AcDbLine
 62
250
  6
CONTINUOUS
 10
-38.1085692064
 20
38.2000679148
 11
-38.0914009027
 21
38.0117868478
  0
LINE
  5
2CA
100
AcDbEntity
  8
RACCORDO
100
AcDbLine
 62
250
  6
CONTINUOUS
 10
-38.0914009027
 20
38.0117868478
 11
-38.073609254
 21
37.8054558205
  0
LINE
  5
2CB
100
AcDbEntity
  8
RACCORDO
100
AcDbLine
 62
250
  6
CONTINUOUS
 10
-37.7527532797
 20
22.2280359767
 11
-37.7519524907
 21
22.2187586744
  0
LINE
  5
2CC
100
AcDbEntity
  8
RACCORDO
100
AcDbLine
 62
250
  6
CONTINUOUS
 10
-38.073609254
 20
37.8054558205
 11
-38.055148116
 21
37.5784600231
  0
LINE
  5
2CD
100
AcDbEntity
  8
RACCORDO
100
AcDbLine
 62
250
  6
CONTINUOUS
 10
-37.7535501778
 20
22.2378681863
 11
-37.7527532797
 21
22.2280359767
  0
LINE
  5
2CE
100
AcDbEntity
  8
RACCORDO
100
AcDbLine
 62
250
  6
CONTINUOUS
 10
-37.7543426655
 20
22.2482540354
 11
-37.7535501778
 21
22.2378681863
  0
LINE
  5
2CF
100
AcDbEntity
  8
RACCORDO
100
AcDbLine
 62
250
  6
CONTINUOUS
 10
-38.055148116
 20
37.5784600231
 11
-38.0361101771
 21
37.3295158389
  0
LINE
  5
2D0
100
AcDbEntity
  8
RACCORDO
100
AcDbLine
 62
250
  6
CONTINUOUS
 10
-38.0361101771
 20
37.3295158389
 11
-38.0166971261
 21
37.0589956754
  0
LINE
  5
2D1
100
AcDbEntity
  8
RACCORDO
100
AcDbLine
 62
250
  6
CONTINUOUS
 10
-37.7555220808
 20
22.264866913
 11
-37.7543426655
 21
22.2482540354
  0
LWPOLYLINE
  5
2D2
100
AcDbEntity
  8
RACCORDO
100
AcDbPolyline
 62
250
  6
CONTINUOUS
 90
33
 70
0
 10
-38.0166971261
 20
37.0589956754
 10
-37.9972674328
 20
36.7693592803
 10
-37.9876569985
 20
36.6185185132
 10
-37.9781701458
 20
36.4641640183
 10
-37.9688091401
 20
36.3061512849
 10
-37.9596141277
 20
36.1451167991
 10
-37.9505975108
 20
35.9810139597
 10
-37.9417739234
 20
35.8138901012
 10
-37.9331823987
 20
35.6445229336
 10
-37.9248349387
 20
35.4729086427
 10
-37.9167421973
 20
35.2990522873
 10
-37.9089360203
 20
35.1237451536
 10
-37.9014261125
 20
34.9470019501
 10
-37.8942202738
 20
34.7688095708
 10
-37.8873423698
 20
34.5899177602
 10
-37.8807994042
 20
34.4103532534
 10
-37.8745964543
 20
34.2300911134
 10
-37.8687497601
 20
34.0498036732
 10
-37.8632634856
 20
33.8695209949
 10
-37.8581403153
 20
33.6892148633
 10
-37.8533900891
 20
33.5094702227
 10
-37.8490143365
 20
33.3303176053
 10
-37.8450135222
 20
33.1517282546
 10
-37.8413922793
 20
32.9741981577
 10
-37.8381497691
 20
32.797755486
 10
-37.835284475
 20
32.6223736851
 10
-37.8327969344
 20
32.4484665954
 10
-37.8306842623
 20
32.2760601476
 10
-37.8289431546
 20
32.1051298214
 10
-37.8275709052
 20
31.9360137026
 10
-37.8265629955
 20
31.7688248689
 10
-37.8259142642
 20
31.6034514098
 10
-37.8256197168
 20
31.4398938589
  0
LINE
  5
2D3
100
AcDbEntity
  8
RACCORDO
100
AcDbLine
 62
250
  6
CONTINUOUS
 10
-37.756688969
 20
22.2827147812
 11
-37.7555220808
 21
22.264866913
  0
LINE
  5
2D4
100
AcDbEntity
  8
RACCORDO
100
AcDbLine
 62
250
  6
CONTINUOUS
 10
-37.7578417964
 20
22.3017895629
 11
-37.756688969
 21
22.2827147812
  0
LINE
  5
2D5
100
AcDbEntity
  8
RACCORDO
100
AcDbLine
 62
250
  6
CONTINUOUS
 10
-37.7593543819
 20
22.329114232
 11
-37.7578417964
 21
22.3017895629
  0
LINE
  5
2D6
100
AcDbEntity
  8
RACCORDO
100
AcDbLine
 62
250
  6
CONTINUOUS
 10
-37.7608356754
 20
22.358575768
 11
-37.7593543819
 21
22.329114232
  0
LINE
  5
2D7
100
AcDbEntity
  8
RACCORDO
100
AcDbLine
 62
250
  6
CONTINUOUS
 10
-37.7626379458
 20
22.3983593401
 11
-37.7608356754
 21
22.358575768
  0
LINE
  5
2D8
100
AcDbEntity
  8
RACCORDO
100
AcDbLine
 62
250
  6
CONTINUOUS
 10
-37.0748143609
 20
-22.9238073836
 11
-37.0744035366
 21
-22.9330612496
  0
LINE
  5
2D9
100
AcDbEntity
  8
RACCORDO
100
AcDbLine
 62
250
  6
CONTINUOUS
 10
-37.7643790525
 20
22.4413613464
 11
-37.7626379458
 21
22.3983593401
  0
LWPOLYLINE
  5
2DA
100
AcDbEntity
  8
RACCORDO
100
AcDbPolyline
 62
250
  6
CONTINUOUS
 90
8
 70
0
 10
-37.7039935561
 20
40.7377445594
 10
-37.7043077256
 20
40.7458750886
 10
-37.7046271382
 20
40.752928787
 10
-37.7049517823
 20
40.7588943859
 10
-37.705279578
 20
40.7637623539
 10
-37.7056098322
 20
40.767524916
 10
-37.7059432379
 20
40.7701760646
 10
-37.7062797953
 20
40.771711568
  0
LINE
  5
2DB
100
AcDbEntity
  8
RACCORDO
100
AcDbLine
 62
7
  6
CONTINUOUS
 10
-37.7885063357
 20
-8.3678652285
 11
-37.789661983
 21
-8.3384524699
  0
LINE
  5
2DC
100
AcDbEntity
  8
RACCORDO
100
AcDbLine
 62
250
  6
CONTINUOUS
 10
-37.7883622963
 20
-8.3890361022
 11
-37.7899393444
 21
-8.3482938794
  0
LINE
  5
2DD
100
AcDbEntity
  8
RACCORDO
100
AcDbLine
 62
250
  6
CONTINUOUS
 10
-37.0744035366
 20
-22.9330612496
 11
-37.0740544677
 21
-22.9425274188
  0
LINE
  5
2DE
100
AcDbEntity
  8
RACCORDO
100
AcDbLine
 62
250
  6
CONTINUOUS
 10
-37.7663783458
 20
22.4970964754
 11
-37.7643790525
 21
22.4413613464
  0
LINE
  5
2DF
100
AcDbEntity
  8
RACCORDO
100
AcDbLine
 62
250
  6
CONTINUOUS
 10
-37.7899393444
 20
-8.3482938794
 11
-37.7914025965
 21
-8.3042732992
  0
LINE
  5
2E0
100
AcDbEntity
  8
RACCORDO
100
AcDbLine
 62
7
  6
CONTINUOUS
 10
-37.789661983
 20
-8.3384524699
 11
-37.791194664
 21
-8.2934033581
  0
LINE
  5
2E1
100
AcDbEntity
  8
RACCORDO
100
AcDbLine
 62
250
  6
CONTINUOUS
 10
-37.7033829562
 20
40.7183066757
 11
-37.7039935561
 21
40.7377445594
  0
LINE
  5
2E2
100
AcDbEntity
  8
RACCORDO
100
AcDbLine
 62
250
  6
CONTINUOUS
 10
-37.7685728391
 20
22.5676173861
 11
-37.7663783458
 21
22.4970964754
  0
LINE
  5
2E3
100
AcDbEntity
  8
RACCORDO
100
AcDbLine
 62
250
  6
CONTINUOUS
 10
-37.0740544677
 20
-22.9425274188
 11
-37.0737654422
 21
-22.9522046141
  0
LINE
  5
2E4
100
AcDbEntity
  8
RACCORDO
100
AcDbLine
 62
7
  6
CONTINUOUS
 10
-37.791194664
 20
-8.2934033581
 11
-37.7926778426
 21
-8.2416094774
  0
LINE
  5
2E5
100
AcDbEntity
  8
RACCORDO
100
AcDbLine
 62
250
  6
CONTINUOUS
 10
-37.7914025965
 20
-8.3042732992
 11
-37.7933681884
 21
-8.2326095849
  0
LINE
  5
2E6
100
AcDbEntity
  8
RACCORDO
100
AcDbLine
 62
250
  6
CONTINUOUS
 10
-37.7708784095
 20
22.6551136037
 11
-37.7685728391
 21
22.5676173861
  0
LINE
  5
2E7
100
AcDbEntity
  8
RACCORDO
100
AcDbLine
 62
250
  6
CONTINUOUS
 10
-37.7028014957
 20
40.694739337
 11
-37.7033829562
 21
40.7183066757
  0
LINE
  5
2E8
100
AcDbEntity
  8
RACCORDO
100
AcDbLine
 62
7
  6
CONTINUOUS
 10
-37.7926778426
 20
-8.2416094774
 11
-37.7940664151
 21
-8.1830894401
  0
LINE
  5
2E9
100
AcDbEntity
  8
RACCORDO
100
AcDbLine
 62
250
  6
CONTINUOUS
 10
-37.0737654422
 20
-22.9522046141
 11
-37.0735338557
 21
-22.9620916536
  0
LWPOLYLINE
  5
2EA
100
AcDbEntity
  8
RACCORDO
100
AcDbPolyline
 62
250
  6
CONTINUOUS
 90
6
 70
0
 10
-37.7728857341
 20
-8.5720564063
 10
-37.7733814541
 20
-8.5483099695
 10
-37.7750124088
 20
-8.524617537
 10
-37.7777748888
 20
-8.5010329879
 10
-37.7816626116
 20
-8.4776099559
 10
-37.7824572067
 20
-8.4739247637
  0
LINE
  5
2EB
100
AcDbEntity
  8
RACCORDO
100
AcDbLine
 62
250
  6
CONTINUOUS
 10
-37.077767807
 20
23.2431012649
 11
-37.0740366836
 21
23.0842333231
  0
LINE
  5
2EC
100
AcDbEntity
  8
RACCORDO
100
AcDbLine
 62
250
  6
CONTINUOUS
 10
-37.7933681884
 20
-8.2326095849
 11
-37.7950389922
 21
-8.1548716061
  0
LINE
  5
2ED
100
AcDbEntity
  8
RACCORDO
100
AcDbLine
 62
250
  6
CONTINUOUS
 10
-37.7731858657
 20
22.7617807381
 11
-37.7708784095
 21
22.6551136037
  0
LINE
  5
2EE
100
AcDbEntity
  8
RACCORDO
100
AcDbLine
 62
250
  6
CONTINUOUS
 10
-37.7181444742
 20
-8.6899171802
 11
-37.7184807595
 21
-8.6876206663
  0
LINE
  5
2EF
100
AcDbEntity
  8
RACCORDO
100
AcDbLine
 62
250
  6
CONTINUOUS
 10
-37.7019958796
 20
40.6519820443
 11
-37.7028014957
 21
40.694739337
  0
LINE
  5
2F0
100
AcDbEntity
  8
RACCORDO
100
AcDbLine
 62
7
  6
CONTINUOUS
 10
-37.7940664151
 20
-8.1830894401
 11
-37.7956006307
 21
-8.1008253137
  0
LINE
  5
2F1
100
AcDbEntity
  8
RACCORDO
100
AcDbLine
 62
250
  6
CONTINUOUS
 10
-37.0735338557
 20
-22.9620916536
 11
-37.0733569908
 21
-22.9721872513
  0
LINE
  5
2F2
100
AcDbEntity
  8
RACCORDO
100
AcDbLine
 62
7
  6
CONTINUOUS
 10
-37.7174813897
 20
-22.2941472517
 11
-37.7177648753
 21
-22.2763709947
  0
LWPOLYLINE
  5
2F3
100
AcDbEntity
  8
RACCORDO
100
AcDbPolyline
 62
250
  6
CONTINUOUS
 90
5
 70
0
 10
-37.7319871002
 20
-22.1643945998
 10
-37.7316072468
 20
-22.1888670506
 10
-37.7301244592
 20
-22.2133399757
 10
-37.7275417521
 20
-22.237763621
 10
-37.7238643761
 20
-22.2620883323
  0
LWPOLYLINE
  5
2F4
100
AcDbEntity
  8
RACCORDO
100
AcDbPolyline
 62
250
  6
CONTINUOUS
 90
3
 70
0
 10
-37.078540717
 20
23.2864048775
 10
-37.0784275681
 20
23.2791009617
 10
-37.077767807
 20
23.2431012649
  0
LINE
  5
2F5
100
AcDbEntity
  8
RACCORDO
100
AcDbLine
 62
250
  6
CONTINUOUS
 10
-37.0740366836
 20
23.0842333231
 11
-37.0735136948
 21
23.0543735517
  0
LINE
  5
2F6
100
AcDbEntity
  8
RACCORDO
100
AcDbLine
 62
250
  6
CONTINUOUS
 10
-37.7753575767
 20
22.8896609573
 11
-37.7731858657
 21
22.7617807381
  0
LINE
  5
2F7
100
AcDbEntity
  8
RACCORDO
100
AcDbLine
 62
250
  6
CONTINUOUS
 10
-37.7950389922
 20
-8.1548716061
 11
-37.7963931232
 21
-8.0719347033
  0
LINE
  5
2F8
100
AcDbEntity
  8
RACCORDO
100
AcDbLine
 62
7
  6
CONTINUOUS
 10
-37.7956006307
 20
-8.1008253137
 11
-37.7968316949
 21
-8.0091596991
  0
LINE
  5
2F9
100
AcDbEntity
  8
RACCORDO
100
AcDbLine
 62
250
  6
CONTINUOUS
 10
-37.7010727021
 20
40.5821351386
 11
-37.7019958796
 21
40.6519820443
  0
LINE
  5
2FA
100
AcDbEntity
  8
RACCORDO
100
AcDbLine
 62
250
  6
CONTINUOUS
 10
-37.0733569908
 20
-22.9721872513
 11
-37.0732330109
 21
-22.9824898445
  0
LINE
  5
2FB
100
AcDbEntity
  8
RACCORDO
100
AcDbLine
 62
250
  6
CONTINUOUS
 10
-37.7772245894
 20
23.0404519576
 11
-37.7753575767
 21
22.8896609573
  0
LINE
  5
2FC
100
AcDbEntity
  8
RACCORDO
100
AcDbLine
 62
250
  6
CONTINUOUS
 10
-37.7963931232
 20
-8.0719347033
 11
-37.7968316949
 21
-8.0091596991
  0
LINE
  5
2FD
100
AcDbEntity
  8
RACCORDO
100
AcDbLine
 62
250
  6
CONTINUOUS
 10
-37.7970340572
 20
-7.9897995306
 11
-37.7974087598
 21
-7.9849743967
  0
LINE
  5
2FE
100
AcDbEntity
  8
RACCORDO
100
AcDbLine
 62
250
  6
CONTINUOUS
 10
-37.0735136948
 20
23.0543735517
 11
-37.0732385371
 21
23.0313546871
  0
LWPOLYLINE
  5
2FF
100
AcDbEntity
  8
RACCORDO
100
AcDbPolyline
 62
250
  6
CONTINUOUS
 90
3
 70
0
 10
-37.0796294363
 20
23.4337620055
 10
-37.0794048442
 20
23.4024256965
 10
-37.0785407164
 20
23.2864048775
  0
LINE
  5
300
100
AcDbEntity
  8
RACCORDO
100
AcDbLine
 62
7
  6
CONTINUOUS
 10
-37.7968316949
 20
-8.0091596991
 11
-37.7976784443
 21
-7.9093320799
  0
LINE
  5
301
100
AcDbEntity
  8
RACCORDO
100
AcDbLine
 62
250
  6
CONTINUOUS
 10
-37.7002062875
 20
40.4767648873
 11
-37.7010727021
 21
40.5821351386
  0
LINE
  5
302
100
AcDbEntity
  8
RACCORDO
100
AcDbLine
 62
250
  6
CONTINUOUS
 10
-37.7978889433
 20
-7.9255448305
 11
-37.7976784443
 21
-7.9093320799
  0
LINE
  5
303
100
AcDbEntity
  8
RACCORDO
100
AcDbLine
 62
250
  6
CONTINUOUS
 10
-37.8007778156
 20
26.5182992868
 11
-37.7772245894
 21
23.0404519576
  0
LINE
  5
304
100
AcDbEntity
  8
RACCORDO
100
AcDbLine
 62
250
  6
CONTINUOUS
 10
-37.0732330109
 20
-22.9824898445
 11
-37.0731591255
 21
-22.9929979647
  0
LINE
  5
305
100
AcDbEntity
  8
RACCORDO
100
AcDbLine
 62
250
  6
CONTINUOUS
 10
-37.1045672405
 20
27.2014731259
 11
-37.0796294363
 21
23.4337620055
  0
LINE
  5
306
100
AcDbEntity
  8
RACCORDO
100
AcDbLine
 62
250
  6
CONTINUOUS
 10
-37.8109427239
 20
28.3111634213
 11
-37.8007778156
 21
26.5182992868
  0
LINE
  5
307
100
AcDbEntity
  8
RACCORDO
100
AcDbLine
 62
250
  6
CONTINUOUS
 10
-37.1146794265
 20
29.0500257901
 11
-37.1045672405
 21
27.2014731259
  0
LINE
  5
308
100
AcDbEntity
  8
RACCORDO
100
AcDbLine
 62
250
  6
CONTINUOUS
 10
-37.8203516778
 20
30.2184444804
 11
-37.8109427239
 21
28.3111634213
  0
LINE
  5
309
100
AcDbEntity
  8
RACCORDO
100
AcDbLine
 62
250
  6
CONTINUOUS
 10
-37.1207780994
 20
30.3089834786
 11
-37.1146794265
 21
29.0500257901
  0
LINE
  5
30A
100
AcDbEntity
  8
RACCORDO
100
AcDbLine
 62
250
  6
CONTINUOUS
 10
-37.0732385371
 20
23.0313546871
 11
-37.0731307375
 21
23.0146085888
  0
LWPOLYLINE
  5
30B
100
AcDbEntity
  8
RACCORDO
100
AcDbPolyline
 62
250
  6
CONTINUOUS
 90
3
 70
0
 10
-37.8256197169
 20
31.4398938666
 10
-37.8242803943
 20
31.1177380002
 10
-37.8203516778
 20
30.2184444804
  0
LWPOLYLINE
  5
30C
100
AcDbEntity
  8
RACCORDO
100
AcDbPolyline
 62
250
  6
CONTINUOUS
 90
3
 70
0
 10
-37.1270544327
 20
31.6849606727
 10
-37.1247068154
 20
31.2013158568
 10
-37.1207780994
 20
30.3089834786
  0
LINE
  5
30D
100
AcDbEntity
  8
RACCORDO
100
AcDbLine
 62
250
  6
CONTINUOUS
 10
-37.8256197169
 20
-31.4398938664
 11
-37.8305103852
 21
-29.5377256706
  0
LINE
  5
30E
100
AcDbEntity
  8
RACCORDO
100
AcDbLine
 62
250
  6
CONTINUOUS
 10
-37.8305103852
 20
-29.5377256706
 11
-37.8393757388
 21
-25.7317407604
  0
LINE
  5
30F
100
AcDbEntity
  8
RACCORDO
100
AcDbLine
 62
250
  6
CONTINUOUS
 10
-37.8393757388
 20
-25.7317407604
 11
-37.8470199483
 21
-21.9234729063
  0
LINE
  5
310
100
AcDbEntity
  8
RACCORDO
100
AcDbLine
 62
7
  6
CONTINUOUS
 10
-37.7976784443
 20
-7.9093320799
 11
-37.7980654149
 21
-7.8030800745
  0
LINE
  5
311
100
AcDbEntity
  8
RACCORDO
100
AcDbLine
 62
250
  6
CONTINUOUS
 10
-37.8470199483
 20
-21.9234729063
 11
-37.8534420717
 21
-18.1133914109
  0
LINE
  5
312
100
AcDbEntity
  8
RACCORDO
100
AcDbLine
 62
250
  6
CONTINUOUS
 10
-37.8534420717
 20
-18.1133914109
 11
-37.8586416856
 21
-14.3017442863
  0
LINE
  5
313
100
AcDbEntity
  8
RACCORDO
100
AcDbLine
 62
250
  6
CONTINUOUS
 10
-37.8586416856
 20
-14.3017442863
 11
-37.8626182568
 21
-10.4888912358
  0
LINE
  5
314
100
AcDbEntity
  8
RACCORDO
100
AcDbLine
 62
250
  6
CONTINUOUS
 10
-37.6998891822
 20
40.3294676307
 11
-37.7002062875
 21
40.4767648873
  0
LINE
  5
315
100
AcDbEntity
  8
RACCORDO
100
AcDbLine
 62
250
  6
CONTINUOUS
 10
-37.8626182568
 20
-10.4888912358
 11
-37.8653714588
 21
-6.6751938596
  0
LINE
  5
316
100
AcDbEntity
  8
RACCORDO
100
AcDbLine
 62
250
  6
CONTINUOUS
 10
-37.7983681259
 20
-7.8052461107
 11
-37.7980654149
 21
-7.8030800745
  0
LINE
  5
317
100
AcDbEntity
  8
RACCORDO
100
AcDbLine
 62
250
  6
CONTINUOUS
 10
-37.7980821286
 20
-7.7812461769
 11
-37.7983875132
 21
-7.7751006478
  0
LINE
  5
318
100
AcDbEntity
  8
RACCORDO
100
AcDbLine
 62
250
  6
CONTINUOUS
 10
-37.8653714588
 20
-6.6751938596
 11
-37.8669011184
 21
-2.8608933427
  0
LINE
  5
319
100
AcDbEntity
  8
RACCORDO
100
AcDbLine
 62
250
  6
CONTINUOUS
 10
-37.8669011184
 20
-2.8608933427
 11
-37.8672070432
 21
0.9536484163
  0
LINE
  5
31A
100
AcDbEntity
  8
RACCORDO
100
AcDbLine
 62
7
  6
CONTINUOUS
 10
-37.7980654149
 20
-7.8030800745
 11
-37.7980829267
 21
7.7751006478
  0
LINE
  5
31B
100
AcDbEntity
  8
RACCORDO
100
AcDbLine
 62
7
  6
CONTINUOUS
 10
-37.7177651569
 20
-22.2763709947
 11
-37.7177651569
 21
-8.7093895131
  0
LINE
  5
31C
100
AcDbEntity
  8
ASSI
100
AcDbLine
 62
7
  6
CONTINUOUS
 10
-37.7
 20
7.9
 11
-37.7
 21
-7.9
  0
LINE
  5
31D
100
AcDbEntity
  8
RACCORDO
100
AcDbLine
 62
7
  6
CONTINUOUS
 10
-37.7000001942
 20
40.1396568101
 11
-37.7
 21
40.0986945859
  0
LINE
  5
31E
100
AcDbEntity
  8
RACCORDO
100
AcDbLine
 62
7
  6
CONTINUOUS
 10
-37.7
 20
-40.0986945859
 11
-37.7000001995
 21
-40.1396568101
  0
LINE
  5
31F
100
AcDbEntity
  8
RACCORDO
100
AcDbLine
 62
250
  6
CONTINUOUS
 10
-37.2763659847
 20
22.7180697477
 11
-37.2763659856
 21
22.7177651574
  0
LINE
  5
320
100
AcDbEntity
  8
RACCORDO
100
AcDbLine
 62
250
  6
CONTINUOUS
 10
-37.2763709612
 20
-22.7180697477
 11
-37.276370944
 21
-22.7177651575
  0
LINE
  5
321
100
AcDbEntity
  8
RACCORDO
100
AcDbLine
 62
250
  6
CONTINUOUS
 10
-37.8672070432
 20
0.9536484163
 11
-37.8662892524
 21
4.7680694956
  0
LINE
  5
322
100
AcDbEntity
  8
RACCORDO
100
AcDbLine
 62
250
  6
CONTINUOUS
 10
-37.8662892524
 20
4.7680694956
 11
-37.8641478037
 21
8.5821286318
  0
LINE
  5
323
100
AcDbEntity
  8
RACCORDO
100
AcDbLine
 62
250
  6
CONTINUOUS
 10
-37.0731591255
 20
-22.9929979647
 11
-37.0731364039
 21
-23.009142046
  0
LINE
  5
324
100
AcDbEntity
  8
RACCORDO
100
AcDbLine
 62
250
  6
CONTINUOUS
 10
-37.8641478037
 20
8.5821286318
 11
-37.8607828514
 21
12.3954639268
  0
LINE
  5
325
100
AcDbEntity
  8
RACCORDO
100
AcDbLine
 62
250
  6
CONTINUOUS
 10
-37.8607828514
 20
12.3954639268
 11
-37.856194761
 21
16.2077135936
  0
LINE
  5
326
100
AcDbEntity
  8
RACCORDO
100
AcDbLine
 62
250
  6
CONTINUOUS
 10
-37.0731307375
 20
23.0146085888
 11
-37.0731179153
 21
22.9983136879
  0
LINE
  5
327
100
AcDbEntity
  8
RACCORDO
100
AcDbLine
 62
250
  6
CONTINUOUS
 10
-37.856194761
 20
16.2077135936
 11
-37.8470199591
 21
21.9234671315
  0
LINE
  5
328
100
AcDbEntity
  8
RACCORDO
100
AcDbLine
 62
250
  6
CONTINUOUS
 10
-37.7
 20
40.1396568101
 11
-37.6998891822
 21
40.3294676307
  0
LWPOLYLINE
  5
329
100
AcDbEntity
  8
RACCORDO
100
AcDbPolyline
 62
250
  6
CONTINUOUS
 90
31
 70
0
 10
-37.8256197168
 20
-31.4398938588
 10
-37.8259142642
 20
-31.6034514042
 10
-37.8265629954
 20
-31.7688248578
 10
-37.8275709051
 20
-31.9360136858
 10
-37.8289431544
 20
-32.1051297987
 10
-37.830684262
 20
-32.2760601191
 10
-37.832796934
 20
-32.448466561
 10
-37.8352844744
 20
-32.6223736446
 10
-37.8381497683
 20
-32.7977554394
 10
-37.8413922783
 20
-32.974198105
 10
-37.8450135209
 20
-33.1517281956
 10
-37.849014335
 20
-33.33031754
 10
-37.8533900873
 20
-33.5094701518
 10
-37.8581403133
 20
-33.6892147919
 10
-37.8632634835
 20
-33.8695209236
 10
-37.8687497575
 20
-34.0498035901
 10
-37.8745964498
 20
-34.2300909812
 10
-37.8807993973
 20
-34.4103530601
 10
-37.8873423621
 20
-34.5899175572
 10
-37.8942202696
 20
-34.7688094644
 10
-37.9014261142
 20
-34.9470019917
 10
-37.9089360263
 20
-35.123745293
 10
-37.9167422036
 20
-35.2990524272
 10
-37.924834943
 20
-35.4729087333
 10
-37.9331824002
 20
-35.6445229654
 10
-37.9417739216
 20
-35.8138900677
 10
-37.9505975049
 20
-35.9810138516
 10
-37.9596141187
 20
-36.1451166387
 10
-37.9688091301
 20
-36.306151113
 10
-37.9781701361
 20
-36.4641638572
 10
-37.9876569889
 20
-36.6185183604
  0
LINE
  5
32A
100
AcDbEntity
  8
RACCORDO
100
AcDbLine
 62
250
  6
CONTINUOUS
 10
-37.8470199591
 20
21.9234671315
 11
-37.8393757506
 21
25.7317353103
  0
LWPOLYLINE
  5
32B
100
AcDbEntity
  8
RACCORDO
100
AcDbPolyline
 62
250
  6
CONTINUOUS
 90
3
 70
0
 10
-37.8393757506
 20
25.7317353103
 10
-37.8305103907
 20
29.5377232585
 10
-37.8256197169
 20
31.4398938666
  0
LINE
  5
32C
100
AcDbEntity
  8
RACCORDO
100
AcDbLine
 62
7
  6
CONTINUOUS
 10
-37.7980838209
 20
7.7751006478
 11
-37.797845302
 21
7.8780766129
  0
LINE
  5
32D
100
AcDbEntity
  8
RACCORDO
100
AcDbLine
 62
250
  6
CONTINUOUS
 10
-37.8229464464
 20
-30.804456618
 11
-37.8256197169
 21
-31.4398938664
  0
LINE
  5
32E
100
AcDbEntity
  8
RACCORDO
100
AcDbLine
 62
250
  6
CONTINUOUS
 10
-37.1233728676
 20
-30.89045542
 11
-37.1260461379
 21
-31.5210028569
  0
LINE
  5
32F
100
AcDbEntity
  8
RACCORDO
100
AcDbLine
 62
250
  6
CONTINUOUS
 10
-37.7982103439
 20
7.8650545693
 11
-37.797845302
 21
7.8780766129
  0
LINE
  5
330
100
AcDbEntity
  8
RACCORDO
100
AcDbLine
 62
250
  6
CONTINUOUS
 10
-37.7977685957
 20
7.8934365847
 11
-37.7980715761
 21
7.8950237682
  0
LINE
  5
331
100
AcDbEntity
  8
RACCORDO
100
AcDbLine
 62
250
  6
CONTINUOUS
 10
-37.8190493508
 20
-29.9365105097
 11
-37.8229464464
 21
-30.804456618
  0
LINE
  5
332
100
AcDbEntity
  8
RACCORDO
100
AcDbLine
 62
250
  6
CONTINUOUS
 10
-37.1194757725
 20
-30.0292180973
 11
-37.1233728676
 21
-30.89045542
  0
LINE
  5
333
100
AcDbEntity
  8
RACCORDO
100
AcDbLine
 62
250
  6
CONTINUOUS
 10
-37.816574651
 20
-29.4170029814
 11
-37.8190493508
 21
-29.9365105097
  0
LINE
  5
334
100
AcDbEntity
  8
RACCORDO
100
AcDbLine
 62
250
  6
CONTINUOUS
 10
-37.8142223648
 20
-28.9436407613
 11
-37.816574651
 21
-29.4170029814
  0
LINE
  5
335
100
AcDbEntity
  8
RACCORDO
100
AcDbLine
 62
250
  6
CONTINUOUS
 10
-37.1158106628
 20
-29.274043519
 11
-37.1194757725
 21
-30.0292180973
  0
LINE
  5
336
100
AcDbEntity
  8
RACCORDO
100
AcDbLine
 62
250
  6
CONTINUOUS
 10
-37.8119843341
 20
-28.5088019441
 11
-37.8142223648
 21
-28.9436407613
  0
LINE
  5
337
100
AcDbEntity
  8
RACCORDO
100
AcDbLine
 62
250
  6
CONTINUOUS
 10
-37.1135155045
 20
-28.8234533318
 11
-37.1158106628
 21
-29.274043519
  0
LINE
  5
338
100
AcDbEntity
  8
RACCORDO
100
AcDbLine
 62
250
  6
CONTINUOUS
 10
-37.8098566048
 20
-28.1080522482
 11
-37.8119843341
 21
-28.5088019441
  0
LINE
  5
339
100
AcDbEntity
  8
RACCORDO
100
AcDbLine
 62
250
  6
CONTINUOUS
 10
-37.111333232
 20
-28.4097114007
 11
-37.1135155045
 21
-28.8234533318
  0
LINE
  5
33A
100
AcDbEntity
  8
RACCORDO
100
AcDbLine
 62
250
  6
CONTINUOUS
 10
-37.8078362616
 20
-27.7385905142
 11
-37.8098566048
 21
-28.1080522482
  0
LWPOLYLINE
  5
33B
100
AcDbEntity
  8
RACCORDO
100
AcDbPolyline
 62
250
  6
CONTINUOUS
 90
3
 70
0
 10
-37.1082626844
 20
-27.8482655464
 10
-37.1092600461
 20
-28.0281345452
 10
-37.111333232
 20
-28.4097114007
  0
LWPOLYLINE
  5
33C
100
AcDbEntity
  8
RACCORDO
100
AcDbPolyline
 62
250
  6
CONTINUOUS
 90
3
 70
0
 10
-37.804996291
 20
-27.2350889407
 10
-37.8059184656
 20
-27.3966592304
 10
-37.8078362616
 20
-27.7385905142
  0
LINE
  5
33D
100
AcDbEntity
  8
RACCORDO
100
AcDbLine
 62
250
  6
CONTINUOUS
 10
-37.0731179153
 20
22.9983136879
 11
-37.0731665011
 21
22.987704047
  0
LINE
  5
33E
100
AcDbEntity
  8
RACCORDO
100
AcDbLine
 62
250
  6
CONTINUOUS
 10
-37.1063448883
 20
-27.5089722402
 11
-37.1082626844
 21
-27.8482655464
  0
LWPOLYLINE
  5
33F
100
AcDbEntity
  8
RACCORDO
100
AcDbPolyline
 62
250
  6
CONTINUOUS
 90
3
 70
0
 10
-37.802371543
 20
-26.7849899965
 10
-37.8032236836
 20
-26.9296262659
 10
-37.804996291
 20
-27.2350889407
  0
LWPOLYLINE
  5
340
100
AcDbEntity
  8
RACCORDO
100
AcDbPolyline
 62
250
  6
CONTINUOUS
 90
3
 70
0
 10
-37.1036501062
 20
-27.0455438631
 10
-37.1045244532
 20
-27.1941553329
 10
-37.1063448883
 20
-27.5089722402
  0
LWPOLYLINE
  5
341
100
AcDbEntity
  8
RACCORDO
100
AcDbPolyline
 62
250
  6
CONTINUOUS
 90
3
 70
0
 10
-37.7999466515
 20
-26.3810453492
 10
-37.8007338439
 20
-26.5110077713
 10
-37.802371543
 20
-26.7849899965
  0
LWPOLYLINE
  5
342
100
AcDbEntity
  8
RACCORDO
100
AcDbPolyline
 62
250
  6
CONTINUOUS
 90
4
 70
0
 10
-37.100373074
 20
-26.5011975131
 10
-37.1011602665
 20
-26.6301562715
 10
-37.1019680129
 20
-26.7635480451
 10
-37.1036501062
 20
-27.0455438631
  0
LWPOLYLINE
  5
343
100
AcDbEntity
  8
RACCORDO
100
AcDbPolyline
 62
250
  6
CONTINUOUS
 90
112
 70
0
 10
-37.1260461379
 20
-31.5210028569
 10
-37.1270544326
 20
-31.6849606715
 10
-37.128801943
 20
-31.8507449197
 10
-37.1312886691
 20
-32.0183561664
 10
-37.1345078146
 20
-32.1879095243
 10
-37.1384661758
 20
-32.3592909805
 10
-37.1431841415
 20
-32.5321571581
 10
-37.1486663953
 20
-32.7065335877
 10
-37.1549082536
 20
-32.8823952172
 10
-37.1619160543
 20
-33.0593222902
 10
-37.1696954348
 20
-33.2373421288
 10
-37.1782407578
 20
-33.4164272439
 10
-37.1875414493
 20
-33.5960750892
 10
-37.1976042554
 20
-33.7763148769
 10
-37.20842243
 20
-33.9571165485
 10
-37.2199651609
 20
-34.1378880203
 10
-37.2322402972
 20
-34.3186575204
 10
-37.2452399897
 20
-34.4993952952
 10
-37.2589098784
 20
-34.6794216242
 10
-37.2732588162
 20
-34.8587609888
 10
-37.2882779502
 20
-35.0373867517
 10
-37.3038863619
 20
-35.2145418457
 10
-37.3200930421
 20
-35.3902381085
 10
-37.336889
 20
-35.5644610166
 10
-37.3541663438
 20
-35.7364133362
 10
-37.3719330442
 20
-35.9060879038
 10
-37.3901811305
 20
-36.0734888315
 10
-37.4087787993
 20
-36.2378352693
 10
-37.4277291685
 20
-36.3990795344
 10
-37.4470291201
 20
-36.5572661015
 10
-37.4665374967
 20
-36.711751982
 10
-37.4862861474
 20
-36.8626806861
 10
-37.506243223
 20
-37.0099056384
 10
-37.5261720186
 20
-37.152348357
 10
-37.5460734508
 20
-37.2898943278
 10
-37.5659466029
 20
-37.4226549715
 10
-37.5855520194
 20
-37.5498904122
 10
-37.6048343095
 20
-37.6712122078
 10
-37.6238488641
 20
-37.7870060223
 10
-37.6425224003
 20
-37.8976932192
 10
-37.6608262188
 20
-38.0031539587
 10
-37.6787890191
 20
-38.1035060909
 10
-37.696423616
 20
-38.1995278295
 10
-37.7137318339
 20
-38.2912813079
 10
-37.7307118485
 20
-38.3787030594
 10
-37.7473710024
 20
-38.4623831623
 10
-37.7637067011
 20
-38.5423455834
 10
-37.7797215391
 20
-38.6185654286
 10
-37.7954306426
 20
-38.6915596585
 10
-37.8108374635
 20
-38.7613705329
 10
-37.8259385499
 20
-38.8279551469
 10
-37.8407386719
 20
-38.8917028308
 10
-37.8552379319
 20
-38.9526319347
 10
-37.8694362274
 20
-39.0107236477
 10
-37.8833380208
 20
-39.0663116369
 10
-37.8969359166
 20
-39.1193847084
 10
-37.9102373104
 20
-39.1699537247
 10
-37.9232688508
 20
-39.2183854962
 10
-37.9360321718
 20
-39.2647036256
 10
-37.9485256395
 20
-39.3088842793
 10
-37.9607710007
 20
-39.3512231582
 10
-37.9727715695
 20
-39.3917438801
 10
-37.9845240318
 20
-39.430422663
 10
-37.9960401926
 20
-39.4674841378
 10
-38.0073192084
 20
-39.5029349316
 10
-38.0183619226
 20
-39.5367682977
 10
-38.0291826703
 20
-39.5691888271
 10
-38.0397811719
 20
-39.6002041637
 10
-38.0501577071
 20
-39.6298065767
 10
-38.0603274504
 20
-39.6581776113
 10
-38.0702908196
 20
-39.6853257325
 10
-38.080047397
 20
-39.711242412
 10
-38.089611103
 20
-39.7360837156
 10
-38.0989814782
 20
-39.7598548846
 10
-38.1081589821
 20
-39.7825506312
 10
-38.117158914
 20
-39.8043112364
 10
-38.1259818818
 20
-39.8251437701
 10
-38.1346272775
 20
-39.8450411284
 10
-38.1431085776
 20
-39.8641223368
 10
-38.1514261224
 20
-39.8823928396
 10
-38.1595795715
 20
-39.8998471675
 10
-38.1675813797
 20
-39.9165879797
 10
-38.175435526
 20
-39.9326264465
 10
-38.1831380315
 20
-39.9479513791
 10
-38.1906894142
 20
-39.9626319011
 10
-38.1980929964
 20
-39.9766750965
 10
-38.2053454559
 20
-39.990073867
 10
-38.2124373442
 20
-40.0028760655
 10
-38.2193619762
 20
-40.0150713802
 10
-38.226126037
 20
-40.0266701116
 10
-38.2327401335
 20
-40.0377510326
 10
-38.239202021
 20
-40.0483140881
 10
-38.2455139442
 20
-40.0583593249
 10
-38.2516932433
 20
-40.0679656701
 10
-38.2577415908
 20
-40.0771390766
 10
-38.2636573143
 20
-40.0858735856
 10
-38.2694527369
 20
-40.0942302576
 10
-38.2751287041
 20
-40.1022127768
 10
-38.2806843705
 20
-40.1098174547
 10
-38.2861295233
 20
-40.1170942927
 10
-38.2914627411
 20
-40.1240437421
 10
-38.2966854454
 20
-40.1306653483
 10
-38.3018116885
 20
-40.1370077552
 10
-38.3068411902
 20
-40.1430730152
 10
-38.3117742307
 20
-40.1488590733
 10
-38.3166257022
 20
-40.1544084129
 10
-38.3213979612
 20
-40.1597254793
 10
-38.3260886512
 20
-40.1648058253
 10
-38.3307055958
 20
-40.1696785959
 10
-38.3352514029
 20
-40.1743535055
 10
-38.3397234646
 20
-40.1788208383
 10
-38.3441217809
 20
-40.1830805937
  0
LWPOLYLINE
  5
344
100
AcDbEntity
  8
RACCORDO
100
AcDbPolyline
 62
250
  6
CONTINUOUS
 90
4
 70
0
 10
-37.7969985726
 20
-25.9040054664
 10
-37.7977067454
 20
-26.0172817684
 10
-37.7984338718
 20
-26.1344404041
 10
-37.7999466515
 20
-26.3810453492
  0
LWPOLYLINE
  5
345
100
AcDbEntity
  8
RACCORDO
100
AcDbPolyline
 62
250
  6
CONTINUOUS
 90
3
 70
0
 10
-37.0981331678
 20
-26.1402413435
 10
-37.0988602943
 20
-26.2564952422
 10
-37.100373074
 20
-26.5011975131
  0
LWPOLYLINE
  5
346
100
AcDbEntity
  8
RACCORDO
100
AcDbPolyline
 62
250
  6
CONTINUOUS
 90
3
 70
0
 10
-37.7949835304
 20
-25.5862264282
 10
-37.7956377168
 20
-25.6887221858
 10
-37.7969985726
 20
-25.9040054664
  0
LWPOLYLINE
  5
347
100
AcDbEntity
  8
RACCORDO
100
AcDbPolyline
 62
250
  6
CONTINUOUS
 90
4
 70
0
 10
-37.0954099526
 20
-25.7125136041
 10
-37.0960641391
 20
-25.8142174774
 10
-37.0967358084
 20
-25.9193181128
 10
-37.0981331678
 20
-26.1402413435
  0
LINE
  5
348
100
AcDbEntity
  8
RACCORDO
100
AcDbLine
 62
250
  6
CONTINUOUS
 10
-37.0731364039
 20
-23.009142046
 11
-37.0732116679
 21
-23.0257392055
  0
LINE
  5
349
100
AcDbEntity
  8
RACCORDO
100
AcDbLine
 62
250
  6
CONTINUOUS
 10
-37.0935483614
 20
-25.4267220827
 11
-37.0954099526
 21
-25.7125136041
  0
LINE
  5
34A
100
AcDbEntity
  8
RACCORDO
100
AcDbLine
 62
250
  6
CONTINUOUS
 10
-37.7
 20
-40.1396568101
 11
-37.7012466473
 21
-40.3552680059
  0
LINE
  5
34B
100
AcDbEntity
  8
RACCORDO
100
AcDbLine
 62
250
  6
CONTINUOUS
 10
-37.0785407164
 20
-23.2864048771
 11
-37.0935483614
 21
-25.4267220827
  0
LINE
  5
34C
100
AcDbEntity
  8
RACCORDO
100
AcDbLine
 62
7
  6
CONTINUOUS
 10
-37.797845302
 20
7.8780766129
 11
-37.7971078421
 21
7.9822431961
  0
LINE
  5
34D
100
AcDbEntity
  8
RACCORDO
100
AcDbLine
 62
250
  6
CONTINUOUS
 10
-37.0731665011
 20
22.987704047
 11
-37.0732642276
 21
22.9772991589
  0
LINE
  5
34E
100
AcDbEntity
  8
RACCORDO
100
AcDbLine
 62
250
  6
CONTINUOUS
 10
-37.7769280305
 20
-23.012331252
 11
-37.7949835304
 21
-25.5862264282
  0
LINE
  5
34F
100
AcDbEntity
  8
RACCORDO
100
AcDbLine
 62
250
  6
CONTINUOUS
 10
-37.0732116679
 20
-23.0257392055
 11
-37.0733756938
 21
-23.0427831567
  0
LINE
  5
350
100
AcDbEntity
  8
RACCORDO
100
AcDbLine
 62
250
  6
CONTINUOUS
 10
-37.7012466473
 20
-40.3552680059
 11
-37.7043621941
 21
-40.694730168
  0
LINE
  5
351
100
AcDbEntity
  8
RACCORDO
100
AcDbLine
 62
7
  6
CONTINUOUS
 10
-37.7971078421
 20
7.9822431961
 11
-37.7961397175
 21
8.0647995568
  0
LINE
  5
352
100
AcDbEntity
  8
RACCORDO
100
AcDbLine
 62
7
  6
CONTINUOUS
 10
-37.7177648751
 20
22.2763660162
 11
-37.7175172477
 21
22.2929834929
  0
LINE
  5
353
100
AcDbEntity
  8
RACCORDO
100
AcDbLine
 62
250
  6
CONTINUOUS
 10
-37.7749583618
 20
-22.8633784289
 11
-37.7769280305
 21
-23.012331252
  0
LWPOLYLINE
  5
354
100
AcDbEntity
  8
RACCORDO
100
AcDbPolyline
 62
250
  6
CONTINUOUS
 90
6
 70
0
 10
-37.7319871002
 20
22.1643945998
 10
-37.7316072193
 20
22.1888671612
 10
-37.7301244106
 20
22.2133401813
 10
-37.7275416886
 20
22.2377639066
 10
-37.7238643038
 20
22.262088684
 10
-37.722236437
 20
22.2709223649
  0
LINE
  5
355
100
AcDbEntity
  8
RACCORDO
100
AcDbLine
 62
250
  6
CONTINUOUS
 10
-37.0732642276
 20
22.9772991589
 11
-37.0734129994
 21
22.9671007204
  0
LINE
  5
356
100
AcDbEntity
  8
RACCORDO
100
AcDbLine
 62
250
  6
CONTINUOUS
 10
-37.0733756938
 20
-23.0427831567
 11
-37.0737157887
 21
-23.066191651
  0
LINE
  5
357
100
AcDbEntity
  8
RACCORDO
100
AcDbLine
 62
250
  6
CONTINUOUS
 10
-37.7043621941
 20
-40.694730168
 11
-37.7048897769
 21
-40.7285447292
  0
LINE
  5
358
100
AcDbEntity
  8
RACCORDO
100
AcDbLine
 62
250
  6
CONTINUOUS
 10
-37.7964023315
 20
8.0712711052
 11
-37.7950494186
 21
8.1543153675
  0
LINE
  5
359
100
AcDbEntity
  8
RACCORDO
100
AcDbLine
 62
7
  6
CONTINUOUS
 10
-37.7961397175
 20
8.0647995568
 11
-37.7949142997
 21
8.1405907758
  0
LINE
  5
35A
100
AcDbEntity
  8
RACCORDO
100
AcDbLine
 62
250
  6
CONTINUOUS
 10
-37.0779118417
 20
-23.2502355467
 11
-37.078540717
 21
-23.2864048771
  0
LINE
  5
35B
100
AcDbEntity
  8
RACCORDO
100
AcDbLine
 62
250
  6
CONTINUOUS
 10
-37.7727011616
 20
-22.7373984583
 11
-37.7749583618
 21
-22.8633784289
  0
LWPOLYLINE
  5
35C
100
AcDbEntity
  8
RACCORDO
100
AcDbPolyline
 62
250
  6
CONTINUOUS
 90
6
 70
0
 10
-37.7728857341
 20
8.5720564063
 10
-37.7733814522
 20
8.5483100115
 10
-37.7750124012
 20
8.5246176183
 10
-37.7777748721
 20
8.5010331059
 10
-37.7816625827
 20
8.4776101076
 10
-37.7824565799
 20
8.4739276821
  0
LWPOLYLINE
  5
35D
100
AcDbEntity
  8
RACCORDO
100
AcDbPolyline
 62
250
  6
CONTINUOUS
 90
8
 70
0
 10
-37.7048897769
 20
-40.7285447292
 10
-37.7052405649
 20
-40.7458717753
 10
-37.7054153567
 20
-40.7529263868
 10
-37.7055897393
 20
-40.7588927728
 10
-37.7057634052
 20
-40.7637613817
 10
-37.705936252
 20
-40.7675244293
 10
-37.706108382
 20
-40.7701759041
 10
-37.7062797953
 20
-40.771711568
  0
LINE
  5
35E
100
AcDbEntity
  8
RACCORDO
100
AcDbLine
 62
250
  6
CONTINUOUS
 10
-37.0734129994
 20
22.9671007204
 11
-37.0736156351
 21
22.9571101348
  0
LINE
  5
35F
100
AcDbEntity
  8
RACCORDO
100
AcDbLine
 62
250
  6
CONTINUOUS
 10
-37.0737157887
 20
-23.066191651
 11
-37.0744382505
 21
-23.1027319769
  0
LINE
  5
360
100
AcDbEntity
  8
RACCORDO
100
AcDbLine
 62
7
  6
CONTINUOUS
 10
-37.7949142997
 20
8.1405907758
 11
-37.7934779337
 21
8.2093187854
  0
LINE
  5
361
100
AcDbEntity
  8
RACCORDO
100
AcDbLine
 62
250
  6
CONTINUOUS
 10
-37.7950494186
 20
8.1543153675
 11
-37.7933788712
 21
8.2321707434
  0
LINE
  5
362
100
AcDbEntity
  8
RACCORDO
100
AcDbLine
 62
250
  6
CONTINUOUS
 10
-37.0764973461
 20
-23.1874698182
 11
-37.0779118417
 21
-23.2502355467
  0
LINE
  5
363
100
AcDbEntity
  8
RACCORDO
100
AcDbLine
 62
250
  6
CONTINUOUS
 10
-37.7703237847
 20
-22.6326156928
 11
-37.7727011616
 21
-22.7373984583
  0
LINE
  5
364
100
AcDbEntity
  8
RACCORDO
100
AcDbLine
 62
250
  6
CONTINUOUS
 10
-37.0744382505
 20
-23.1027319769
 11
-37.0764973461
 21
-23.1874698182
  0
LINE
  5
365
100
AcDbEntity
  8
RACCORDO
100
AcDbLine
 62
7
  6
CONTINUOUS
 10
-37.7934779337
 20
8.2093187854
 11
-37.7921512064
 21
8.2610837106
  0
LINE
  5
366
100
AcDbEntity
  8
RACCORDO
100
AcDbLine
 62
250
  6
CONTINUOUS
 10
-37.0736156351
 20
22.9571101348
 11
-37.0738748355
 21
22.947328703
  0
LINE
  5
367
100
AcDbEntity
  8
RACCORDO
100
AcDbLine
 62
250
  6
CONTINUOUS
 10
-37.7933788712
 20
8.2321707434
 11
-37.7914139718
 21
8.3039040071
  0
LINE
  5
368
100
AcDbEntity
  8
RACCORDO
100
AcDbLine
 62
250
  6
CONTINUOUS
 10
-37.7679621148
 20
-22.5469219126
 11
-37.7703237847
 21
-22.6326156928
  0
LINE
  5
369
100
AcDbEntity
  8
RACCORDO
100
AcDbLine
 62
7
  6
CONTINUOUS
 10
-37.7921512064
 20
8.2610837106
 11
-37.7907329304
 21
8.307777908
  0
LINE
  5
36A
100
AcDbEntity
  8
RACCORDO
100
AcDbLine
 62
250
  6
CONTINUOUS
 10
-37.7914139718
 20
8.3039040071
 11
-37.7899515417
 21
8.3479536503
  0
LINE
  5
36B
100
AcDbEntity
  8
RACCORDO
100
AcDbLine
 62
250
  6
CONTINUOUS
 10
-37.7657235124
 20
-22.4780667855
 11
-37.7679621148
 21
-22.5469219126
  0
LINE
  5
36C
100
AcDbEntity
  8
RACCORDO
100
AcDbLine
 62
250
  6
CONTINUOUS
 10
-37.0738748355
 20
22.947328703
 11
-37.074192377
 21
22.9377578301
  0
LINE
  5
36D
100
AcDbEntity
  8
RACCORDO
100
AcDbLine
 62
7
  6
CONTINUOUS
 10
-37.7907329304
 20
8.307777908
 11
-37.7895507724
 21
8.341445596
  0
LINE
  5
36E
100
AcDbEntity
  8
RACCORDO
100
AcDbLine
 62
250
  6
CONTINUOUS
 10
-37.7636902961
 20
-22.4238184806
 11
-37.7657235124
 21
-22.4780667855
  0
LINE
  5
36F
100
AcDbEntity
  8
RACCORDO
100
AcDbLine
 62
250
  6
CONTINUOUS
 10
-37.7899515417
 20
8.3479536503
 11
-37.7883757183
 21
8.3887145894
  0
LINE
  5
370
100
AcDbEntity
  8
RACCORDO
100
AcDbLine
 62
7
  6
CONTINUOUS
 10
-37.7895507724
 20
8.341445596
 11
-37.7883396186
 21
8.3718186667
  0
LWPOLYLINE
  5
371
100
AcDbEntity
  8
RACCORDO
100
AcDbPolyline
 62
250
  6
CONTINUOUS
 90
3
 70
0
 10
-37.074192377
 20
22.9377578301
 10
-37.0745708861
 20
22.928398643
 10
-37.0747838371
 20
22.9237987681
  0
LINE
  5
372
100
AcDbEntity
  8
RACCORDO
100
AcDbLine
 62
250
  6
CONTINUOUS
 10
-37.761923761
 20
-22.3820923881
 11
-37.7636902961
 21
-22.4238184806
  0
LINE
  5
373
100
AcDbEntity
  8
RACCORDO
100
AcDbLine
 62
250
  6
CONTINUOUS
 10
-37.7604681197
 20
-22.3510468264
 11
-37.761923761
 21
-22.3820923881
  0
LINE
  5
374
100
AcDbEntity
  8
RACCORDO
100
AcDbLine
 62
250
  6
CONTINUOUS
 10
-37.7589785132
 20
-22.3221147171
 11
-37.7604681197
 21
-22.3510468264
  0
LINE
  5
375
100
AcDbEntity
  8
RACCORDO
100
AcDbLine
 62
250
  6
CONTINUOUS
 10
-37.7574584236
 20
-22.2953259377
 11
-37.7589785132
 21
-22.3221147171
  0
LINE
  5
376
100
AcDbEntity
  8
RACCORDO
100
AcDbLine
 62
250
  6
CONTINUOUS
 10
-37.7563005891
 20
-22.2766573816
 11
-37.7574584236
 21
-22.2953259377
  0
LINE
  5
377
100
AcDbEntity
  8
RACCORDO
100
AcDbLine
 62
250
  6
CONTINUOUS
 10
-37.9876569889
 20
-36.6185183604
 11
-38.0069749887
 21
-36.9165414398
  0
LINE
  5
378
100
AcDbEntity
  8
RACCORDO
100
AcDbLine
 62
250
  6
CONTINUOUS
 10
-37.7551292035
 20
-22.2592187284
 11
-37.7563005891
 21
-22.2766573816
  0
LINE
  5
379
100
AcDbEntity
  8
RACCORDO
100
AcDbLine
 62
250
  6
CONTINUOUS
 10
-38.0069749887
 20
-36.9165414398
 11
-38.0264139076
 21
-37.1966193073
  0
LINE
  5
37A
100
AcDbEntity
  8
RACCORDO
100
AcDbLine
 62
250
  6
CONTINUOUS
 10
-37.7539457998
 20
-22.243017498
 11
-37.7551292035
 21
-22.2592187284
  0
LINE
  5
37B
100
AcDbEntity
  8
RACCORDO
100
AcDbLine
 62
250
  6
CONTINUOUS
 10
-38.0264139076
 20
-37.1966193073
 11
-38.0457032258
 21
-37.4569228374
  0
LINE
  5
37C
100
AcDbEntity
  8
RACCORDO
100
AcDbLine
 62
250
  6
CONTINUOUS
 10
-37.753150992
 20
-22.2329073343
 11
-37.7539457998
 21
-22.243017498
  0
LINE
  5
37D
100
AcDbEntity
  8
RACCORDO
100
AcDbLine
 62
250
  6
CONTINUOUS
 10
-38.0457032258
 20
-37.4569228374
 11
-38.0644520681
 21
-37.6945095341
  0
LINE
  5
37E
100
AcDbEntity
  8
RACCORDO
100
AcDbLine
 62
250
  6
CONTINUOUS
 10
-37.7523519395
 20
-22.223351164
 11
-37.753150992
 21
-22.2329073343
  0
LINE
  5
37F
100
AcDbEntity
  8
RACCORDO
100
AcDbLine
 62
250
  6
CONTINUOUS
 10
-38.0644520681
 20
-37.6945095341
 11
-38.0825935627
 21
-37.9111720103
  0
LINE
  5
380
100
AcDbEntity
  8
RACCORDO
100
AcDbLine
 62
250
  6
CONTINUOUS
 10
-38.0825935627
 20
-37.9111720103
 11
-38.1000617861
 21
-38.108065538
  0
LINE
  5
381
100
AcDbEntity
  8
RACCORDO
100
AcDbLine
 62
250
  6
CONTINUOUS
 10
-37.7515491695
 20
-22.2143504754
 11
-37.7523519395
 21
-22.223351164
  0
LINE
  5
382
100
AcDbEntity
  8
RACCORDO
100
AcDbLine
 62
250
  6
CONTINUOUS
 10
-38.1000617861
 20
-38.108065538
 11
-38.1169082424
 21
-38.2877357602
  0
LINE
  5
383
100
AcDbEntity
  8
RACCORDO
100
AcDbLine
 62
250
  6
CONTINUOUS
 10
-37.7507432038
 20
-22.2059060171
 11
-37.7515491695
 21
-22.2143504754
  0
LINE
  5
384
100
AcDbEntity
  8
RACCORDO
100
AcDbLine
 62
250
  6
CONTINUOUS
 10
-38.1169082424
 20
-38.2877357602
 11
-38.13314134
 21
-38.4518636061
  0
LINE
  5
385
100
AcDbEntity
  8
RACCORDO
100
AcDbLine
 62
250
  6
CONTINUOUS
 10
-37.7499343886
 20
-22.1980181396
 11
-37.7507432038
 21
-22.2059060171
  0
LINE
  5
386
100
AcDbEntity
  8
RACCORDO
100
AcDbLine
 62
250
  6
CONTINUOUS
 10
-38.13314134
 20
-38.4518636061
 11
-38.1487549624
 21
-38.6015570875
  0
LINE
  5
387
100
AcDbEntity
  8
RACCORDO
100
AcDbLine
 62
250
  6
CONTINUOUS
 10
-38.1487549624
 20
-38.6015570875
 11
-38.163785221
 21
-38.7384196788
  0
LWPOLYLINE
  5
388
100
AcDbEntity
  8
RACCORDO
100
AcDbPolyline
 62
250
  6
CONTINUOUS
 90
3
 70
0
 10
-38.163785221
 20
-38.7384196788
 10
-38.1782367809
 20
-38.8635579635
 10
-38.1852401348
 20
-38.9218800138
  0
LWPOLYLINE
  5
389
100
AcDbEntity
  8
RACCORDO
100
AcDbPolyline
 62
7
  6
CONTINUOUS
 90
3
 70
0
 10
-37.7
 20
-40.0986945859
 10
-37.9386510635
 20
-40.1349955666
 10
-37.9684116529
 20
-40.1394740586
  0
LWPOLYLINE
  5
38A
100
AcDbEntity
  8
RACCORDO
100
AcDbPolyline
 62
7
  6
CONTINUOUS
 90
6
 70
0
 10
-38.1706748176
 20
-40.1654055958
 10
-38.1288958435
 20
-40.160648963
 10
-38.0877775346
 20
-40.1556841326
 10
-38.0473282421
 20
-40.1504889705
 10
-38.0075396149
 20
-40.1450856122
 10
-37.9684116529
 20
-40.1394740586
  0
LWPOLYLINE
  5
38B
100
AcDbEntity
  8
RACCORDO
100
AcDbPolyline
 62
7
  6
CONTINUOUS
 90
4
 70
0
 10
-38.3441217809
 20
-40.1830805937
 10
-38.2998087098
 20
-40.1788690021
 10
-38.2561312508
 20
-40.1745156158
 10
-38.1706748176
 20
-40.1654055958
  0
LWPOLYLINE
  5
38C
100
AcDbEntity
  8
RACCORDO
100
AcDbPolyline
 62
7
  6
CONTINUOUS
 90
34
 70
0
 10
-38.3441217809
 20
-40.1830805937
 10
-38.3499355437
 20
-40.1835661927
 10
-38.3555882082
 20
-40.183941137
 10
-38.3610782108
 20
-40.1842089778
 10
-38.3663984334
 20
-40.1843707991
 10
-38.3715534103
 20
-40.1844335274
 10
-38.3765592191
 20
-40.1844089087
 10
-38.3814143115
 20
-40.1843013443
 10
-38.3861185501
 20
-40.1841135622
 10
-38.3906900047
 20
-40.1838532124
 10
-38.3951301546
 20
-40.1835237693
 10
-38.3994361917
 20
-40.183127706
 10
-38.4036194619
 20
-40.1826697454
 10
-38.4076827878
 20
-40.1821528824
 10
-38.4116224056
 20
-40.1815796152
 10
-38.4154397517
 20
-40.1809534181
 10
-38.4191326232
 20
-40.1802785035
 10
-38.4227032632
 20
-40.1795568439
 10
-38.4261596708
 20
-40.1787882191
 10
-38.429500057
 20
-40.1779771574
 10
-38.4327266054
 20
-40.1771250573
 10
-38.4358526303
 20
-40.1762261109
 10
-38.4388867852
 20
-40.1752819877
 10
-38.4418202167
 20
-40.1742957751
 10
-38.4446400818
 20
-40.1732641388
 10
-38.4473480028
 20
-40.172193852
 10
-38.4499444391
 20
-40.171085199
 10
-38.4524161755
 20
-40.1699270745
 10
-38.4547652583
 20
-40.1687327623
 10
-38.4569942539
 20
-40.1674979956
 10
-38.4590921478
 20
-40.1661875981
 10
-38.4610579217
 20
-40.1647940192
 10
-38.4628999713
 20
-40.1633358426
 10
-38.4646223553
 20
-40.1618180564
  0
LWPOLYLINE
  5
38D
100
AcDbEntity
  8
RACCORDO
100
AcDbPolyline
 62
7
  6
CONTINUOUS
 90
3
 70
0
 10
38.2561312392
 20
-40.1745156116
 10
38.2998087007
 20
-40.1788689984
 10
38.3441217773
 20
-40.1830805908
  0
LWPOLYLINE
  5
38E
100
AcDbEntity
  8
RACCORDO
100
AcDbPolyline
 62
7
  6
CONTINUOUS
 90
7
 70
0
 10
37.9684116794
 20
-40.1394740584
 10
38.0075396356
 20
-40.1450856112
 10
38.0473282569
 20
-40.1504889687
 10
38.0877775432
 20
-40.1556841302
 10
38.1288958447
 20
-40.1606489598
 10
38.1706748112
 20
-40.1654055919
 10
38.2561312392
 20
-40.1745156116
  0
LWPOLYLINE
  5
38F
100
AcDbEntity
  8
RACCORDO
100
AcDbPolyline
 62
7
  6
CONTINUOUS
 90
3
 70
0
 10
37.9684116794
 20
-40.1394740584
 10
37.7298867388
 20
-40.1032782436
 10
37.7
 20
-40.0986945859
  0
LINE
  5
390
100
AcDbEntity
  8
RACCORDO
100
AcDbLine
 62
250
  6
CONTINUOUS
 10
-38.1852401458
 20
38.9218801049
 11
-38.1710830463
 21
38.802398269
  0
LWPOLYLINE
  5
391
100
AcDbEntity
  8
RACCORDO
100
AcDbPolyline
 62
250
  6
CONTINUOUS
 90
45
 70
0
 10
-37.7495309221
 20
22.1942630774
 10
-37.7491251156
 20
22.1906675854
 10
-37.7487189058
 20
22.1872112292
 10
-37.7483122939
 20
22.1838940794
 10
-37.7479052788
 20
22.1807160653
 10
-37.7474980352
 20
22.177676923
 10
-37.7470905642
 20
22.1747767188
 10
-37.7466828647
 20
22.1720153862
 10
-37.7462751084
 20
22.169392463
 10
-37.7458672957
 20
22.1669080087
 10
-37.7454594262
 20
22.1645619636
 10
-37.7450516697
 20
22.1623536859
 10
-37.7446440265
 20
22.1602832328
 10
-37.7442364963
 20
22.158350547
 10
-37.7438292486
 20
22.1565548154
 10
-37.7434222834
 20
22.1548960942
 10
-37.7430156006
 20
22.1533743271
 10
-37.7426093698
 20
22.1519885313
 10
-37.7422035915
 20
22.1507387659
 10
-37.7417982652
 20
22.1496249719
 10
-37.7413935581
 20
22.148645989
 10
-37.7409894712
 20
22.1478018757
 10
-37.7405860035
 20
22.1470925735
 10
-37.7401833189
 20
22.1465167475
 10
-37.7397814188
 20
22.1460744535
 10
-37.7393803018
 20
22.1457656356
 10
-37.7389801279
 20
22.1455887913
 10
-37.7385808979
 20
22.1455439742
 10
-37.738182611
 20
22.1456311307
 10
-37.7377854245
 20
22.1458485976
 10
-37.7373893407
 20
22.1461964239
 10
-37.7369943573
 20
22.1466745606
 10
-37.7366006241
 20
22.1472811978
 10
-37.7362081412
 20
22.1480163855
 10
-37.7358169086
 20
22.1488800737
 10
-37.735427076
 20
22.1498703027
 10
-37.7350386465
 20
22.1509871125
 10
-37.734651617
 20
22.1522304631
 10
-37.734266128
 20
22.1535982743
 10
-37.7338821791
 20
22.1550905958
 10
-37.7334997707
 20
22.156707378
 10
-37.7331190445
 20
22.1584463924
 10
-37.7327400476
 20
22.160306896
 10
-37.7323627328
 20
22.1622896319
 10
-37.7319871002
 20
22.1643945998
  0
LINE
  5
392
100
AcDbEntity
  8
RACCORDO
100
AcDbLine
 62
250
  6
CONTINUOUS
 10
-38.1710830463
 20
38.802398269
 11
-38.1563470058
 21
38.671602439
  0
LINE
  5
393
100
AcDbEntity
  8
RACCORDO
100
AcDbLine
 62
250
  6
CONTINUOUS
 10
-38.1852401348
 20
-38.9218800138
 11
-38.1988206182
 21
-39.0309910214
  0
LINE
  5
394
100
AcDbEntity
  8
RACCORDO
100
AcDbLine
 62
250
  6
CONTINUOUS
 10
-38.1988206182
 20
-39.0309910214
 11
-38.2118303783
 21
-39.1304267357
  0
LINE
  5
395
100
AcDbEntity
  8
RACCORDO
100
AcDbLine
 62
250
  6
CONTINUOUS
 10
-38.2118303783
 20
-39.1304267357
 11
-38.2243165718
 21
-39.2213310179
  0
LINE
  5
396
100
AcDbEntity
  8
RACCORDO
100
AcDbLine
 62
250
  6
CONTINUOUS
 10
-38.2243165718
 20
-39.2213310179
 11
-38.2363122048
 21
-39.3045762149
  0
LINE
  5
397
100
AcDbEntity
  8
RACCORDO
100
AcDbLine
 62
250
  6
CONTINUOUS
 10
-38.2363122048
 20
-39.3045762149
 11
-38.2478291366
 21
-39.3806860713
  0
LINE
  5
398
100
AcDbEntity
  8
RACCORDO
100
AcDbLine
 62
250
  6
CONTINUOUS
 10
-38.2478291366
 20
-39.3806860713
 11
-38.2588852564
 21
-39.4503275249
  0
LINE
  5
399
100
AcDbEntity
  8
RACCORDO
100
AcDbLine
 62
250
  6
CONTINUOUS
 10
-38.2588852564
 20
-39.4503275249
 11
-38.2695017218
 21
-39.5141042455
  0
LWPOLYLINE
  5
39A
100
AcDbEntity
  8
RACCORDO
100
AcDbPolyline
 62
250
  6
CONTINUOUS
 90
3
 70
0
 10
-38.2695017218
 20
-39.5141042455
 10
-38.2796895441
 20
-39.5724019549
 10
-38.284632547
 20
-39.5997057701
  0
LWPOLYLINE
  5
39B
100
AcDbEntity
  8
RACCORDO
100
AcDbPolyline
 62
250
  6
CONTINUOUS
 90
65
 70
0
 10
-38.284632547
 20
-39.5997057701
 10
-38.2942198782
 20
-39.6507632204
 10
-38.2988720825
 20
-39.6746781084
 10
-38.3034287043
 20
-39.6975138447
 10
-38.3078988017
 20
-39.7194102288
 10
-38.3122820363
 20
-39.7403743023
 10
-38.3165772193
 20
-39.7603993757
 10
-38.3207923024
 20
-39.7796046111
 10
-38.3249269445
 20
-39.7979955228
 10
-38.3289802602
 20
-39.8155669009
 10
-38.3329595145
 20
-39.8324217872
 10
-38.3368661458
 20
-39.8485710715
 10
-38.3406977324
 20
-39.8640041255
 10
-38.3444558326
 20
-39.8787916933
 10
-38.348141868
 20
-39.89294164
 10
-38.3517535855
 20
-39.9064463427
 10
-38.3552870602
 20
-39.9193533112
 10
-38.3587389926
 20
-39.9316533681
 10
-38.3621119386
 20
-39.9433559345
 10
-38.3654107909
 20
-39.9545364114
 10
-38.3686339106
 20
-39.9651936922
 10
-38.3717823384
 20
-39.9753290961
 10
-38.374865052
 20
-39.9850216395
 10
-38.377882601
 20
-39.9942770736
 10
-38.3808339755
 20
-40.003089821
 10
-38.3837258735
 20
-40.0115218811
 10
-38.3865586577
 20
-40.0195772971
 10
-38.389331601
 20
-40.0272521729
 10
-38.3920498072
 20
-40.0345965821
 10
-38.3947125329
 20
-40.0416112023
 10
-38.3973202275
 20
-40.0482954834
 10
-38.3998798184
 20
-40.0546976416
 10
-38.4023909738
 20
-40.0608194938
 10
-38.4048537957
 20
-40.0666593283
 10
-38.4072758947
 20
-40.072260051
 10
-38.4096582662
 20
-40.0776259657
 10
-38.4119997386
 20
-40.0827528519
 10
-38.414304696
 20
-40.0876708151
 10
-38.4165738112
 20
-40.0923824904
 10
-38.4188062688
 20
-40.0968853138
 10
-38.4210042334
 20
-40.1012015845
 10
-38.4231675451
 20
-40.1053318926
 10
-38.4252962437
 20
-40.1092757125
 10
-38.4273928025
 20
-40.1130536646
 10
-38.4294576141
 20
-40.1166671638
 10
-38.4314901865
 20
-40.120114852
 10
-38.4334916728
 20
-40.1234131867
 10
-38.4354622091
 20
-40.1265628695
 10
-38.4374015746
 20
-40.1295632511
 10
-38.4393103921
 20
-40.1324287607
 10
-38.441188335
 20
-40.1351593924
 10
-38.4430356574
 20
-40.1377552012
 10
-38.4448538569
 20
-40.1402307053
 10
-38.4466426809
 20
-40.1425861396
 10
-38.4484023214
 20
-40.1448213138
 10
-38.4501349477
 20
-40.1469501049
 10
-38.4518405077
 20
-40.1489730365
 10
-38.4535190036
 20
-40.1508896242
 10
-38.4551726911
 20
-40.1527122304
 10
-38.4568006411
 20
-40.1544406079
 10
-38.4584037416
 20
-40.1560750386
 10
-38.4599869784
 20
-40.1576286726
 10
-38.4615520037
 20
-40.1591059007
 10
-38.4630971343
 20
-40.1605023576
 10
-38.4646223552
 20
-40.1618180565
  0
LINE
  5
39C
100
AcDbEntity
  8
RACCORDO
100
AcDbLine
 62
7
  6
CONTINUOUS
 10
37.2894491012
 20
-22.7183817027
 11
37.2737805108
 21
-22.721699573
  0
LINE
  5
39D
100
AcDbEntity
  8
RACCORDO
100
AcDbLine
 62
7
  6
CONTINUOUS
 10
37.2739114453
 20
-22.7216738571
 11
37.2737805108
 21
-22.721699573
  0
LINE
  5
39E
100
AcDbEntity
  8
RACCORDO
100
AcDbLine
 62
7
  6
CONTINUOUS
 10
37.2739114453
 20
-22.7216738571
 11
37.2719562462
 21
-22.7220488884
  0
LINE
  5
39F
100
AcDbEntity
  8
RACCORDO
100
AcDbLine
 62
250
  6
CONTINUOUS
 10
37.2737805108
 20
-22.721699573
 11
37.2719562462
 21
-22.7220488884
  0
LINE
  5
3A0
100
AcDbEntity
  8
RACCORDO
100
AcDbLine
 62
250
  6
CONTINUOUS
 10
37.2711994304
 20
-22.7221872854
 11
37.2620886795
 21
-22.7238643058
  0
LINE
  5
3A1
100
AcDbEntity
  8
RACCORDO
100
AcDbLine
 62
7
  6
CONTINUOUS
 10
37.2719562462
 20
-22.7220488884
 11
37.2711994304
 21
-22.7221872854
  0
LWPOLYLINE
  5
3A2
100
AcDbEntity
  8
RACCORDO
100
AcDbPolyline
 62
250
  6
CONTINUOUS
 90
7
 70
0
 10
37.1643946211
 20
-22.7319870978
 10
37.1685822646
 20
-22.7312761538
 10
37.1729902966
 20
-22.730558681
 10
37.1776187169
 20
-22.7298346793
 10
37.1824627017
 20
-22.7291043601
 10
37.1875270748
 20
-22.7283675121
 10
37.1928263082
 20
-22.7276235012
  0
LWPOLYLINE
  5
3A3
100
AcDbEntity
  8
RACCORDO
100
AcDbPolyline
 62
7
  6
CONTINUOUS
 90
3
 70
0
 10
-37.2708766151
 20
-22.7222447062
 10
-37.2718239888
 20
-22.7220735641
 10
-37.2738827126
 20
-22.7216795018
  0
LINE
  5
3A4
100
AcDbEntity
  8
RACCORDO
100
AcDbLine
 62
250
  6
CONTINUOUS
 10
-37.2737731819
 20
-22.7217010102
 11
-37.2718239888
 21
-22.7220735641
  0
LINE
  5
3A5
100
AcDbEntity
  8
RACCORDO
100
AcDbLine
 62
250
  6
CONTINUOUS
 10
-37.2708766151
 20
-22.7222447062
 11
-37.2620883323
 21
-22.7238643761
  0
LINE
  5
3A6
100
AcDbEntity
  8
RACCORDO
100
AcDbLine
 62
7
  6
CONTINUOUS
 10
-37.2738827126
 20
-22.7216795018
 11
-37.2737731819
 21
-22.7217010102
  0
LINE
  5
3A7
100
AcDbEntity
  8
RACCORDO
100
AcDbLine
 62
7
  6
CONTINUOUS
 10
-37.2737731819
 20
-22.7217010102
 11
-37.2810431484
 21
-22.720222067
  0
LWPOLYLINE
  5
3A8
100
AcDbEntity
  8
RACCORDO
100
AcDbPolyline
 62
7
  6
CONTINUOUS
 90
59
 70
0
 10
-37.2810431484
 20
-22.720222067
 10
-37.2958417027
 20
-22.7168879509
 10
-37.3104835162
 20
-22.7131575953
 10
-37.3249520185
 20
-22.7090434076
 10
-37.3392292991
 20
-22.704559127
 10
-37.3532995491
 20
-22.699718891
 10
-37.3671535319
 20
-22.6945352812
 10
-37.3807783945
 20
-22.6890227001
 10
-37.3941620222
 20
-22.68319605
 10
-37.4072991411
 20
-22.6770677722
 10
-37.4201804503
 20
-22.6706524447
 10
-37.432797183
 20
-22.6639650106
 10
-37.445146854
 20
-22.6570174531
 10
-37.4572228052
 20
-22.6498242433
 10
-37.469019166
 20
-22.6423999007
 10
-37.4805360064
 20
-22.634755434
 10
-37.4917690314
 20
-22.6269047589
 10
-37.502714462
 20
-22.6188618596
 10
-37.5133740618
 20
-22.6106368015
 10
-37.5237454409
 20
-22.6022427894
 10
-37.5338265168
 20
-22.5936931428
 10
-37.5436201064
 20
-22.5849971402
 10
-37.5531258959
 20
-22.5761667081
 10
-37.5623426308
 20
-22.5672149407
 10
-37.5712721785
 20
-22.5581521606
 10
-37.5799160215
 20
-22.5489890871
 10
-37.5882736898
 20
-22.5397387431
 10
-37.596344738
 20
-22.5304146579
 10
-37.6041310468
 20
-22.5210281204
 10
-37.6116344178
 20
-22.5115907558
 10
-37.6188550367
 20
-22.5021166741
 10
-37.6257951876
 20
-22.4926178212
 10
-37.6324586718
 20
-22.483104319
 10
-37.6388484757
 20
-22.4735876211
 10
-37.6449671031
 20
-22.4640803054
 10
-37.6508198907
 20
-22.4545908317
 10
-37.6564139716
 20
-22.4451244151
 10
-37.6617536458
 20
-22.4356907171
 10
-37.666843034
 20
-22.4262999263
 10
-37.6716884566
 20
-22.4169582029
 10
-37.6762942857
 20
-22.4076753135
 10
-37.6806650438
 20
-22.3984609987
 10
-37.6848066215
 20
-22.389322217
 10
-37.6887271845
 20
-22.3802603265
 10
-37.6924273151
 20
-22.3712942167
 10
-37.6959021131
 20
-22.3624593022
 10
-37.6991689867
 20
-22.3537354641
 10
-37.7022211485
 20
-22.3451661553
 10
-37.7050243642
 20
-22.3368855493
 10
-37.7075889858
 20
-22.3289120323
 10
-37.7099284756
 20
-22.3212538644
 10
-37.7120242261
 20
-22.3140308284
 10
-37.7138796223
 20
-22.3073023773
 10
-37.7155245477
 20
-22.3010308799
 10
-37.7169831585
 20
-22.2951880068
 10
-37.7182614285
 20
-22.2898124917
 10
-37.7193796631
 20
-22.2848808042
 10
-37.7203763699
 20
-22.2802731127
 10
-37.7212630344
 20
-22.2759757726
  0
LINE
  5
3A9
100
AcDbEntity
  8
RACCORDO
100
AcDbLine
 62
250
  6
CONTINUOUS
 10
-38.2942198884
 20
39.6507632743
 11
-38.2846325574
 21
39.5997058275
  0
LINE
  5
3AA
100
AcDbEntity
  8
RACCORDO
100
AcDbLine
 62
250
  6
CONTINUOUS
 10
-38.2846325574
 20
39.5997058275
 11
-38.2746457001
 21
39.5438710513
  0
LINE
  5
3AB
100
AcDbEntity
  8
RACCORDO
100
AcDbLine
 62
250
  6
CONTINUOUS
 10
-38.2746457001
 20
39.5438710513
 11
-38.2642477033
 21
39.4829207953
  0
LINE
  5
3AC
100
AcDbEntity
  8
RACCORDO
100
AcDbLine
 62
250
  6
CONTINUOUS
 10
-38.2642477033
 20
39.4829207953
 11
-38.2534157728
 21
39.4163170721
  0
LINE
  5
3AD
100
AcDbEntity
  8
RACCORDO
100
AcDbLine
 62
250
  6
CONTINUOUS
 10
-38.2534157728
 20
39.4163170721
 11
-38.2421273636
 21
39.343441734
  0
LINE
  5
3AE
100
AcDbEntity
  8
RACCORDO
100
AcDbLine
 62
250
  6
CONTINUOUS
 10
-38.2421273636
 20
39.343441734
 11
-38.2303737671
 21
39.2638648934
  0
LINE
  5
3AF
100
AcDbEntity
  8
RACCORDO
100
AcDbLine
 62
250
  6
CONTINUOUS
 10
-38.2303737671
 20
39.2638648934
 11
-38.2181407927
 21
39.1769506391
  0
LINE
  5
3B0
100
AcDbEntity
  8
RACCORDO
100
AcDbLine
 62
250
  6
CONTINUOUS
 10
-38.2181407927
 20
39.1769506391
 11
-38.2053897849
 21
39.081781062
  0
LWPOLYLINE
  5
3B1
100
AcDbEntity
  8
RACCORDO
100
AcDbPolyline
 62
250
  6
CONTINUOUS
 90
3
 70
0
 10
-38.2053897849
 20
39.081781062
 10
-38.1921036214
 20
38.9776945507
 10
-38.1852401458
 20
38.9218801049
  0
LWPOLYLINE
  5
3B2
100
AcDbEntity
  8
RACCORDO
100
AcDbPolyline
 62
250
  6
CONTINUOUS
 90
5
 70
0
 10
37.2620886795
 20
-22.7238643058
 10
37.2377639043
 20
-22.7275416901
 10
37.2133401816
 20
-22.7301244116
 10
37.1888671645
 20
-22.7316072198
 10
37.1643946066
 20
-22.7319871002
  0
LINE
  5
3B3
100
AcDbEntity
  8
RACCORDO
100
AcDbLine
 62
250
  6
CONTINUOUS
 10
37.1928263082
 20
-22.7276235012
 11
37.2041281719
 21
-22.7261140135
  0
LINE
  5
3B4
100
AcDbEntity
  8
RACCORDO
100
AcDbLine
 62
250
  6
CONTINUOUS
 10
37.2041281719
 20
-22.7261140135
 11
37.2164174422
 21
-22.7245738975
  0
LINE
  5
3B5
100
AcDbEntity
  8
RACCORDO
100
AcDbLine
 62
250
  6
CONTINUOUS
 10
37.2164174422
 20
-22.7245738975
 11
37.229728947
 21
-22.723001728
  0
LINE
  5
3B6
100
AcDbEntity
  8
RACCORDO
100
AcDbLine
 62
250
  6
CONTINUOUS
 10
37.229728947
 20
-22.723001728
 11
37.2441173446
 21
-22.7213952833
  0
LINE
  5
3B7
100
AcDbEntity
  8
RACCORDO
100
AcDbLine
 62
250
  6
CONTINUOUS
 10
37.2441173446
 20
-22.7213952833
 11
37.2596557246
 21
-22.7197515804
  0
LINE
  5
3B8
100
AcDbEntity
  8
RACCORDO
100
AcDbLine
 62
250
  6
CONTINUOUS
 10
37.2596557246
 20
-22.7197515804
 11
37.276365456
 21
-22.7180697477
  0
LINE
  5
3B9
100
AcDbEntity
  8
RACCORDO
100
AcDbLine
 62
250
  6
CONTINUOUS
 10
37.2924763033
 20
-22.7176479966
 11
37.276365343
 21
-22.7180697643
  0
LINE
  5
3BA
100
AcDbEntity
  8
RACCORDO
100
AcDbLine
 62
250
  6
CONTINUOUS
 10
-37.2763702439
 20
-22.7180697644
 11
-37.2924665158
 21
-22.717648381
  0
LINE
  5
3BB
100
AcDbEntity
  8
RACCORDO
100
AcDbLine
 62
250
  6
CONTINUOUS
 10
-37.276370357
 20
-22.7180697477
 11
-37.2517442392
 21
-22.7205781321
  0
LWPOLYLINE
  5
3BC
100
AcDbEntity
  8
RACCORDO
100
AcDbPolyline
 62
250
  6
CONTINUOUS
 90
80
 70
0
 10
-37.1643946238
 20
-22.7319870978
 10
-37.1622474528
 20
-22.7322188699
 10
-37.160128987
 20
-22.732501107
 10
-37.1580392264
 20
-22.7328339781
 10
-37.1559782353
 20
-22.7332176457
 10
-37.1539459494
 20
-22.7336522742
 10
-37.1519421753
 20
-22.7341380345
 10
-37.1499669283
 20
-22.7346750833
 10
-37.1480201931
 20
-22.7352635768
 10
-37.1461017314
 20
-22.7359036882
 10
-37.1442115417
 20
-22.7365955736
 10
-37.1423496254
 20
-22.7373393782
 10
-37.1405157478
 20
-22.7381352616
 10
-37.1387099217
 20
-22.7389833651
 10
-37.1369321344
 20
-22.7398838299
 10
-37.1351821131
 20
-22.7408368164
 10
-37.1334598591
 20
-22.7418424638
 10
-37.1317653712
 20
-22.7429008997
 10
-37.1300983722
 20
-22.7440122674
 10
-37.1284588703
 20
-22.7451766917
 10
-37.1268468573
 20
-22.7463942935
 10
-37.1252620315
 20
-22.7476652084
 10
-37.1237043987
 20
-22.7489895521
 10
-37.1221739531
 20
-22.7503674332
 10
-37.1206703746
 20
-22.7517989743
 10
-37.1191936666
 20
-22.7532842827
 10
-37.1177438257
 20
-22.7548234524
 10
-37.1163205231
 20
-22.7564165806
 10
-37.1149237667
 20
-22.7580637546
 10
-37.1135535484
 20
-22.7597650609
 10
-37.1122095152
 20
-22.76152059
 10
-37.1108916807
 20
-22.7633304099
 10
-37.1096000312
 20
-22.7651945993
 10
-37.1083341725
 20
-22.7671132611
 10
-37.1070941145
 20
-22.7690864568
 10
-37.1058798473
 20
-22.7711142481
 10
-37.1046909468
 20
-22.773196737
 10
-37.1035274181
 20
-22.7753339814
 10
-37.1023892561
 20
-22.7775260235
 10
-37.1012760214
 20
-22.7797729395
 10
-37.1001877202
 20
-22.7820747717
 10
-37.0991243463
 20
-22.7844315511
 10
-37.0980854422
 20
-22.7868433333
 10
-37.0970710174
 20
-22.7893101375
 10
-37.0960810624
 20
-22.7918319885
 10
-37.0951150911
 20
-22.7944089456
 10
-37.0941731146
 20
-22.7970410127
 10
-37.0932551219
 20
-22.799728202
 10
-37.0923605938
 20
-22.8024705828
 10
-37.0914895376
 20
-22.8052681558
 10
-37.090641946
 20
-22.8081209103
 10
-37.089817278
 20
-22.8110288965
 10
-37.0890155408
 20
-22.8139921011
 10
-37.0882367272
 20
-22.8170104988
 10
-37.0874802739
 20
-22.8200841197
 10
-37.0867461896
 20
-22.8232129282
 10
-37.0860344658
 20
-22.8263968906
 10
-37.085344513
 20
-22.8296360369
 10
-37.0846763415
 20
-22.8329303139
 10
-37.084029941
 20
-22.8362796751
 10
-37.0834046921
 20
-22.8396841585
 10
-37.0828006035
 20
-22.8431437031
 10
-37.0822176664
 20
-22.8466582407
 10
-37.0816552352
 20
-22.8502277974
 10
-37.0811133181
 20
-22.8538522998
 10
-37.080591907
 20
-22.857531661
 10
-37.0800903314
 20
-22.8612658856
 10
-37.0796086001
 20
-22.8650548778
 10
-37.0791467045
 20
-22.8688985397
 10
-37.0787039481
 20
-22.8727968706
 10
-37.0782803407
 20
-22.8767497538
 10
-37.0778758727
 20
-22.8807570785
 10
-37.0774898183
 20
-22.8848188506
 10
-37.0771221871
 20
-22.8889349413
 10
-37.0767729697
 20
-22.8931052186
 10
-37.0764414115
 20
-22.897329682
 10
-37.0761275219
 20
-22.9016081893
 10
-37.0758312916
 20
-22.9059405874
 10
-37.0755519386
 20
-22.9103268573
 10
-37.0752894723
 20
-22.9147668346
  0
LINE
  5
3BD
100
AcDbEntity
  8
RACCORDO
100
AcDbLine
 62
250
  6
CONTINUOUS
 10
-37.2517442392
 20
-22.7205781321
 11
-37.2367955603
 21
-22.722202558
  0
LINE
  5
3BE
100
AcDbEntity
  8
RACCORDO
100
AcDbLine
 62
250
  6
CONTINUOUS
 10
-37.2367955603
 20
-22.722202558
 11
-37.2229455457
 21
-22.7237918321
  0
LINE
  5
3BF
100
AcDbEntity
  8
RACCORDO
100
AcDbLine
 62
250
  6
CONTINUOUS
 10
-37.2229455457
 20
-22.7237918321
 11
-37.2101543012
 21
-22.7253475796
  0
LWPOLYLINE
  5
3C0
100
AcDbEntity
  8
RACCORDO
100
AcDbPolyline
 62
250
  6
CONTINUOUS
 90
9
 70
0
 10
-37.2101543012
 20
-22.7253475796
 10
-37.1983655341
 20
-22.726872086
 10
-37.1928314328
 20
-22.7276232694
 10
-37.1875315194
 20
-22.7283673069
 10
-37.1824663846
 20
-22.7291041869
 10
-37.1776215723
 20
-22.7298345428
 10
-37.1729922638
 20
-22.7305585854
 10
-37.1685832778
 20
-22.7312761037
 10
-37.1643946142
 20
-22.7319870978
  0
LWPOLYLINE
  5
3C1
100
AcDbEntity
  8
RACCORDO
100
AcDbPolyline
 62
250
  6
CONTINUOUS
 90
5
 70
0
 10
-37.2620883323
 20
-22.7238643761
 10
-37.237763621
 20
-22.7275417521
 10
-37.2133399757
 20
-22.7301244592
 10
-37.1888670506
 20
-22.7316072468
 10
-37.1643945998
 20
-22.7319871002
  0
LWPOLYLINE
  5
3C2
100
AcDbEntity
  8
RACCORDO
100
AcDbPolyline
 62
7
  6
CONTINUOUS
 90
3
 70
0
 10
-37.2722445944
 20
-22.7220262338
 10
-37.2718792238
 20
-22.7220834101
 10
-37.2709157883
 20
-22.7222385416
  0
LINE
  5
3C3
100
AcDbEntity
  8
RACCORDO
100
AcDbLine
 62
7
  6
CONTINUOUS
 10
37.2941376254
 20
-22.7174817776
 11
37.2763660595
 21
-22.7177652905
  0
LINE
  5
3C4
100
AcDbEntity
  8
RACCORDO
100
AcDbLine
 62
250
  6
CONTINUOUS
 10
37.0785407166
 20
-23.2864048775
 11
-37.0785407164
 21
-23.2864048771
  0
LINE
  5
3C5
100
AcDbEntity
  8
RACCORDO
100
AcDbLine
 62
250
  6
CONTINUOUS
 10
37.1643946211
 20
-22.7319870978
 11
-37.1643946142
 21
-22.7319870978
  0
LINE
  5
3C6
100
AcDbEntity
  8
RACCORDO
100
AcDbLine
 62
7
  6
CONTINUOUS
 10
37.2763660595
 20
-22.7177651569
 11
-37.276370944
 21
-22.7177651569
  0
LINE
  5
3C7
100
AcDbEntity
  8
RACCORDO
100
AcDbLine
 62
7
  6
CONTINUOUS
 10
37.6799385413
 20
-22.4
 11
-37.6799350273
 21
-22.4
  0
LINE
  5
3C8
100
AcDbEntity
  8
RACCORDO
100
AcDbLine
 62
250
  6
CONTINUOUS
 10
-37.7180697434
 20
-22.2763709947
 11
-37.7177651575
 21
-22.2763709947
  0
LINE
  5
3C9
100
AcDbEntity
  8
RACCORDO
100
AcDbLine
 62
250
  6
CONTINUOUS
 10
37.7180697434
 20
-22.2763660922
 11
37.7177651575
 21
-22.2763660901
  0
LINE
  5
3CA
100
AcDbEntity
  8
RACCORDO
100
AcDbLine
 62
7
  6
CONTINUOUS
 10
-37.2763709159
 20
-22.71776529
 11
-37.2929847905
 21
-22.7175176046
  0
LINE
  5
3CB
100
AcDbEntity
  8
RACCORDO
100
AcDbLine
 62
250
  6
CONTINUOUS
 10
-60.0
 20
-40.3004264211
 11
-59.7711530202
 21
-40.0715794413
  0
LINE
  5
3CC
100
AcDbEntity
  8
RACCORDO
100
AcDbLine
 62
250
  6
CONTINUOUS
 10
-59.7711530202
 20
40.0715794413
 11
-60.0
 21
40.3004264211
  0
LINE
  5
3CD
100
AcDbEntity
  8
RACCORDO
100
AcDbLine
 62
250
  6
CONTINUOUS
 10
-59.3004264211
 20
-41.0
 11
-59.0715794418
 21
-40.7711530207
  0
LINE
  5
3CE
100
AcDbEntity
  8
RACCORDO
100
AcDbLine
 62
250
  6
CONTINUOUS
 10
-59.0715794418
 20
40.7711530207
 11
-59.3004264211
 21
41.0
  0
LINE
  5
3CF
100
AcDbEntity
  8
RACCORDO
100
AcDbLine
 62
250
  6
CONTINUOUS
 10
37.7180697434
 20
-8.7093895131
 11
37.71776516
 21
-8.7093895131
  0
LINE
  5
3D0
100
AcDbEntity
  8
RACCORDO
100
AcDbLine
 62
250
  6
CONTINUOUS
 10
-37.7177651569
 20
-8.7093895131
 11
-37.7180697434
 21
-8.7093895131
  0
LINE
  5
3D1
100
AcDbEntity
  8
ASSI
100
AcDbLine
 62
7
  6
CONTINUOUS
 10
37.7977316771
 20
-7.9
 11
37.7
 21
-7.9
  0
LINE
  5
3D2
100
AcDbEntity
  8
ASSI
100
AcDbLine
 62
7
  6
CONTINUOUS
 10
-37.7
 20
-7.9
 11
-37.7977305111
 21
-7.9
  0
LINE
  5
3D3
100
AcDbEntity
  8
RACCORDO
100
AcDbLine
 62
250
  6
CONTINUOUS
 10
37.7983875132
 20
-7.7751006478
 11
37.7980829267
 21
-7.7751006478
  0
LINE
  5
3D4
100
AcDbEntity
  8
RACCORDO
100
AcDbLine
 62
250
  6
CONTINUOUS
 10
-37.7983875132
 20
-7.7751006478
 11
-37.7980829267
 21
-7.7751006478
  0
LWPOLYLINE
  5
3D5
100
AcDbEntity
  8
RACCORDO
100
AcDbPolyline
 62
250
  6
CONTINUOUS
 90
64
 70
0
 10
38.4646223462
 20
-40.1618180492
 10
38.4630964049
 20
-40.1605017181
 10
38.4615504945
 20
-40.1591045058
 10
38.4599846298
 20
-40.1576263995
 10
38.4584004804
 20
-40.1560717569
 10
38.4567964079
 20
-40.1544361944
 10
38.4551674683
 20
-40.1527065838
 10
38.4535128334
 20
-40.1508827164
 10
38.4518333726
 20
-40.1489647662
 10
38.4501266922
 20
-40.1469401728
 10
38.4483927193
 20
-40.1448093416
 10
38.4466315768
 20
-40.1425718278
 10
38.4448411699
 20
-40.1402137926
 10
38.4430213268
 20
-40.1377354476
 10
38.4411722801
 20
-40.1351365365
 10
38.439292545
 20
-40.1324025156
 10
38.4373818654
 20
-40.129533325
 10
38.4354405702
 20
-40.1265289753
 10
38.4334680555
 20
-40.1233750266
 10
38.431464526
 20
-40.1200720939
 10
38.4294298618
 20
-40.1166195096
 10
38.4273629771
 20
-40.1130009076
 10
38.4252644472
 20
-40.1092178073
 10
38.4231337962
 20
-40.1052686326
 10
38.4209683687
 20
-40.1011323707
 10
38.4187680883
 20
-40.0968095052
 10
38.4165331519
 20
-40.0922994878
 10
38.4142613243
 20
-40.0875797522
 10
38.4119533228
 20
-40.0826526403
 10
38.4096085736
 20
-40.0775157385
 10
38.4072229171
 20
-40.072139339
 10
38.4047976511
 20
-40.0665279476
 10
38.4023316541
 20
-40.0606769753
 10
38.3998171624
 20
-40.0545430592
 10
38.3972539584
 20
-40.0481276217
 10
38.3946424906
 20
-40.0414291348
 10
38.3919760264
 20
-40.0343997927
 10
38.3892541755
 20
-40.0270402748
 10
38.3864776229
 20
-40.019349774
 10
38.3836412832
 20
-40.0112782393
 10
38.3807458795
 20
-40.0028295489
 10
38.3777910539
 20
-39.9939996773
 10
38.3747701393
 20
-39.9847267002
 10
38.3716844777
 20
-39.9750173786
 10
38.3685331876
 20
-39.9648647779
 10
38.3653063278
 20
-39.9541864054
 10
38.3620023479
 20
-39.9429792917
 10
38.3586234041
 20
-39.9312461903
 10
38.3551651821
 20
-39.9189131678
 10
38.3516239565
 20
-39.9059657363
 10
38.3480042037
 20
-39.8924181374
 10
38.3443139297
 20
-39.8782395334
 10
38.3405571216
 20
-39.8634437778
 10
38.3367305917
 20
-39.8480167886
 10
38.3328316004
 20
-39.8318858274
 10
38.3288630757
 20
-39.8150643905
 10
38.3248230459
 20
-39.7975387299
 10
38.3207015206
 20
-39.7791952141
 10
38.3164986762
 20
-39.760036509
 10
38.3122155613
 20
-39.7400596437
 10
38.30784364
 20
-39.7191424917
 10
38.3033838655
 20
-39.6972907018
 10
38.2988368157
 20
-39.674498271
 10
38.2941935626
 20
-39.6506255528
  0
LWPOLYLINE
  5
3D6
100
AcDbEntity
  8
RACCORDO
100
AcDbPolyline
 62
250
  6
CONTINUOUS
 90
111
 70
0
 10
38.3441217773
 20
-40.1830805908
 10
38.339719658
 20
-40.1788171771
 10
38.3352432407
 20
-40.1743453076
 10
38.3306925254
 20
-40.1696649829
 10
38.3260699109
 20
-40.1647857218
 10
38.3213729983
 20
-40.1596980068
 10
38.3165945911
 20
-40.1543732842
 10
38.3117373833
 20
-40.1488163727
 10
38.3067986809
 20
-40.1430224553
 10
38.3017632049
 20
-40.1369485257
 10
38.2966304128
 20
-40.1305963202
 10
38.2914008471
 20
-40.1239641049
 10
38.2860608561
 20
-40.1170036683
 10
38.2806091646
 20
-40.1097156355
 10
38.2750470477
 20
-40.1020993847
 10
38.2693646793
 20
-40.0941048338
 10
38.2635627919
 20
-40.0857354922
 10
38.257640653
 20
-40.0769878549
 10
38.2515862394
 20
-40.0678013191
 10
38.2454019384
 20
-40.0581830701
 10
38.2390853626
 20
-40.0481259286
 10
38.232617327
 20
-40.0375477464
 10
38.2259949536
 20
-40.026447593
 10
38.2192211203
 20
-40.0148264074
 10
38.2122852759
 20
-40.0026048467
 10
38.2051777929
 20
-39.9897665381
 10
38.1979082989
 20
-39.9763278659
 10
38.1904951253
 20
-39.9622586253
 10
38.1829451527
 20
-39.9475720097
 10
38.1752515006
 20
-39.9322548398
 10
38.1674118595
 20
-39.9162373532
 10
38.1594315355
 20
-39.8995341632
 10
38.1513052225
 20
-39.8821306748
 10
38.1430146922
 20
-39.8639133164
 10
38.1345588042
 20
-39.8448849915
 10
38.1259386988
 20
-39.8250428216
 10
38.1171395688
 20
-39.8042645664
 10
38.1081615597
 20
-39.7825563838
 10
38.0990045259
 20
-39.7599121499
 10
38.0896532235
 20
-39.736191208
 10
38.0801065212
 20
-39.7113968688
 10
38.0703655502
 20
-39.6855258679
 10
38.0604184606
 20
-39.6584276933
 10
38.0502665823
 20
-39.6301131963
 10
38.0399085854
 20
-39.6005715885
 10
38.0293286296
 20
-39.5696199089
 10
38.0185262568
 20
-39.5372654516
 10
38.0075019251
 20
-39.503501009
 10
37.9962411692
 20
-39.4681218835
 10
37.9847426927
 20
-39.4311331877
 10
37.973007792
 20
-39.3925299281
 10
37.9610258905
 20
-39.3520922675
 10
37.9488013009
 20
-39.309847449
 10
37.9363297105
 20
-39.2657683923
 10
37.9235876048
 20
-39.2195538053
 10
37.9105770627
 20
-39.1712300256
 10
37.8972960053
 20
-39.1207709454
 10
37.8837146814
 20
-39.0677966493
 10
37.8698217524
 20
-39.0122795914
 10
37.8556285568
 20
-38.95424765
 10
37.8411393593
 20
-38.8934041035
 10
37.826359737
 20
-38.8297907779
 10
37.8112841127
 20
-38.7633663019
 10
37.7959000195
 20
-38.6937092352
 10
37.7802072106
 20
-38.6208463661
 10
37.7642059328
 20
-38.5447515514
 10
37.7478844593
 20
-38.4649240713
 10
37.7312416769
 20
-38.3813954667
 10
37.7142786988
 20
-38.2941351188
 10
37.6969871381
 20
-38.2025492403
 10
37.6793670764
 20
-38.1066906035
 10
37.6614184321
 20
-38.0065077648
 10
37.6431325733
 20
-37.9012508727
 10
37.6244910446
 20
-37.7908702002
 10
37.6055123013
 20
-37.6754174379
 10
37.5862430775
 20
-37.5542952018
 10
37.5666071141
 20
-37.4269815763
 10
37.5466806703
 20
-37.2940013272
 10
37.5267392575
 20
-37.1563271579
 10
37.506803329
 20
-37.0139797394
 10
37.4868524316
 20
-36.8669414249
 10
37.467100717
 20
-36.7161271333
 10
37.4475693244
 20
-36.5616068672
 10
37.4282371146
 20
-36.4033137444
 10
37.4092548219
 20
-36.2419570198
 10
37.3906287895
 20
-36.0775151696
 10
37.3723526742
 20
-35.9100129263
 10
37.3545581805
 20
-35.7402285347
 10
37.3372530897
 20
-35.5681560242
 10
37.3204296206
 20
-35.3938044264
 10
37.3041961342
 20
-35.2179739595
 10
37.2885617287
 20
-35.0406801081
 10
37.2735173059
 20
-34.8619100816
 10
37.2591439322
 20
-34.6824210588
 10
37.2454504194
 20
-34.5022390073
 10
37.2324279557
 20
-34.321340125
 10
37.2201311721
 20
-34.1404062664
 10
37.2085679476
 20
-33.9594672517
 10
37.1977304032
 20
-33.7784947937
 10
37.1876495334
 20
-33.5980829195
 10
37.1783321083
 20
-33.4182616708
 10
37.1697713579
 20
-33.2390018574
 10
37.1619779661
 20
-33.0608080248
 10
37.1549576017
 20
-32.8837079216
 10
37.1487045959
 20
-32.7076739685
 10
37.1432126264
 20
-32.5331271431
 10
37.1384863925
 20
-32.3600925534
 10
37.1345211947
 20
-32.1885446129
 10
37.1312966125
 20
-32.0188277515
 10
37.1288058388
 20
-31.851056332
 10
37.1270556806
 20
-31.6851148891
  0
LWPOLYLINE
  5
3D7
100
AcDbEntity
  8
0
100
AcDbPolyline
 62
7
  6
CONTINUOUS
 90
13
 70
0
 43
0.3500000006
 10
0.8571428254
 20
50.6071437378
 10
0.8571428254
 20
51.8928551788
 10
1.0714285848
 20
52.3214286804
 10
1.5000000329
 20
52.750002182
 10
1.7142856507
 20
52.750002182
 10
2.1428571696
 20
52.3214286804
 10
2.3571427875
 20
51.8928551788
 10
2.3571427875
 20
50.6071437378
 10
2.1428571696
 20
50.1785702362
 10
1.7142856507
 20
49.7500012665
 10
1.5000000329
 20
49.7500012665
 10
1.0714285848
 20
50.1785702362
 10
0.8571428254
 20
50.6071437378
  0
LWPOLYLINE
  5
3D8
100
AcDbEntity
  8
RACCORDO
100
AcDbPolyline
 62
250
  6
CONTINUOUS
 90
64
 70
0
 10
-38.4646223615
 20
40.1618180621
 10
-38.4630971406
 20
40.1605023635
 10
-38.4615520101
 20
40.1591059069
 10
-38.4599869848
 20
40.1576286791
 10
-38.4584037481
 20
40.1560750454
 10
-38.4568006476
 20
40.154440615
 10
-38.4551726977
 20
40.1527122378
 10
-38.4535190102
 20
40.150889632
 10
-38.4518405143
 20
40.1489730446
 10
-38.4501349544
 20
40.1469501134
 10
-38.4484023282
 20
40.1448213226
 10
-38.4466426877
 20
40.1425861488
 10
-38.4448538638
 20
40.1402307149
 10
-38.4430356643
 20
40.1377552112
 10
-38.441188342
 20
40.1351594028
 10
-38.4393103991
 20
40.1324287715
 10
-38.4374015817
 20
40.1295632623
 10
-38.4354622162
 20
40.1265628811
 10
-38.43349168
 20
40.1234131988
 10
-38.4314901938
 20
40.1201148645
 10
-38.4294576215
 20
40.1166671768
 10
-38.4273928099
 20
40.1130536781
 10
-38.4252962511
 20
40.1092757264
 10
-38.4231675525
 20
40.105331907
 10
-38.4210042409
 20
40.1012015994
 10
-38.4188062764
 20
40.0968853292
 10
-38.4165738188
 20
40.0923825064
 10
-38.4143047036
 20
40.0876708316
 10
-38.4119997463
 20
40.082752869
 10
-38.4096582739
 20
40.0776259834
 10
-38.4072759025
 20
40.0722600692
 10
-38.4048538036
 20
40.0666593472
 10
-38.4023909816
 20
40.0608195133
 10
-38.3998798263
 20
40.0546976617
 10
-38.3973202355
 20
40.0482955041
 10
-38.394712541
 20
40.0416112238
 10
-38.3920498153
 20
40.0345966044
 10
-38.3893316092
 20
40.027252196
 10
-38.3865586661
 20
40.019577321
 10
-38.3837258819
 20
40.0115219059
 10
-38.380833984
 20
40.0030898467
 10
-38.3778826096
 20
39.9942771002
 10
-38.3748650607
 20
39.985021667
 10
-38.3717823471
 20
39.9753291246
 10
-38.3686339194
 20
39.9651937216
 10
-38.3654107998
 20
39.9545364418
 10
-38.3621119476
 20
39.943355966
 10
-38.3587390017
 20
39.9316534008
 10
-38.3552870695
 20
39.9193533452
 10
-38.3517535949
 20
39.9064463781
 10
-38.3481418776
 20
39.8929416769
 10
-38.3444558423
 20
39.8787917315
 10
-38.3406977421
 20
39.8640041648
 10
-38.3368661555
 20
39.8485711117
 10
-38.3329595242
 20
39.8324218285
 10
-38.3289802699
 20
39.8155669434
 10
-38.3249269544
 20
39.7979955666
 10
-38.3207923123
 20
39.7796046563
 10
-38.3165772293
 20
39.7603994223
 10
-38.3122820463
 20
39.7403743504
 10
-38.3078988117
 20
39.7194102784
 10
-38.3034287144
 20
39.6975138957
 10
-38.2988720927
 20
39.6746781608
 10
-38.2942198884
 20
39.6507632743
  0
LWPOLYLINE
  5
3D9
100
AcDbEntity
  8
RACCORDO
100
AcDbPolyline
 62
250
  6
CONTINUOUS
 90
111
 70
0
 10
-38.3441217831
 20
40.1830805964
 10
-38.3397234668
 20
40.178820841
 10
-38.3352514052
 20
40.1743535083
 10
-38.3307055981
 20
40.1696785988
 10
-38.3260886535
 20
40.1648058283
 10
-38.3213979635
 20
40.1597254824
 10
-38.3166257046
 20
40.1544084161
 10
-38.311774233
 20
40.1488590766
 10
-38.3068411925
 20
40.1430730185
 10
-38.3018116907
 20
40.1370077585
 10
-38.2966854477
 20
40.1306653518
 10
-38.2914627434
 20
40.1240437456
 10
-38.2861295256
 20
40.1170942963
 10
-38.2806843728
 20
40.1098174584
 10
-38.2751287064
 20
40.1022127807
 10
-38.2694527393
 20
40.0942302616
 10
-38.2636573167
 20
40.0858735898
 10
-38.2577415933
 20
40.077139081
 10
-38.2516932458
 20
40.0679656746
 10
-38.2455139467
 20
40.0583593295
 10
-38.2392020234
 20
40.0483140927
 10
-38.2327401358
 20
40.0377510372
 10
-38.2261260394
 20
40.0266701164
 10
-38.2193619785
 20
40.0150713851
 10
-38.2124373466
 20
40.0028760706
 10
-38.2053454585
 20
39.9900738725
 10
-38.1980929992
 20
39.9766751025
 10
-38.1906894172
 20
39.9626319075
 10
-38.1831380344
 20
39.9479513855
 10
-38.1754355288
 20
39.9326264528
 10
-38.1675813823
 20
39.9165879859
 10
-38.1595795741
 20
39.8998471738
 10
-38.151426125
 20
39.8823928461
 10
-38.1431085802
 20
39.8641223434
 10
-38.1346272802
 20
39.8450411353
 10
-38.1259818844
 20
39.8251437773
 10
-38.1171589167
 20
39.8043112438
 10
-38.1081589848
 20
39.7825506387
 10
-38.0989814808
 20
39.759854892
 10
-38.0896111056
 20
39.7360837232
 10
-38.0800473996
 20
39.7112424199
 10
-38.0702908223
 20
39.6853257407
 10
-38.0603274531
 20
39.6581776198
 10
-38.0501577098
 20
39.6298065853
 10
-38.0397811745
 20
39.6002041722
 10
-38.0291826729
 20
39.5691888357
 10
-38.0183619251
 20
39.5367683065
 10
-38.007319211
 20
39.5029349408
 10
-37.9960401953
 20
39.4674841474
 10
-37.9845240345
 20
39.4304226728
 10
-37.9727715722
 20
39.3917438901
 10
-37.9607710033
 20
39.3512231684
 10
-37.948525642
 20
39.3088842893
 10
-37.9360321742
 20
39.2647036352
 10
-37.923268853
 20
39.2183855055
 10
-37.9102373124
 20
39.1699537336
 10
-37.8969359185
 20
39.119384717
 10
-37.8833380228
 20
39.0663116459
 10
-37.8694362298
 20
39.0107236589
 10
-37.855237935
 20
38.9526319488
 10
-37.8407386753
 20
38.8917028465
 10
-37.825938553
 20
38.8279551613
 10
-37.8108374659
 20
38.7613705446
 10
-37.7954306445
 20
38.6915596682
 10
-37.7797215409
 20
38.6185654383
 10
-37.763706703
 20
38.5423455939
 10
-37.7473710044
 20
38.4623831733
 10
-37.7307118504
 20
38.3787030703
 10
-37.7137318357
 20
38.2912813186
 10
-37.6964236178
 20
38.1995278398
 10
-37.6787890206
 20
38.1035061
 10
-37.6608262201
 20
38.0031539665
 10
-37.6425224017
 20
37.8976932281
 10
-37.6238488663
 20
37.7870060366
 10
-37.604834313
 20
37.67121223
 10
-37.5855520239
 20
37.5498904416
 10
-37.5659466083
 20
37.4226550076
 10
-37.5460734569
 20
37.2898943702
 10
-37.526172025
 20
37.1523484023
 10
-37.5062432289
 20
37.0099056804
 10
-37.4862861522
 20
36.8626807215
 10
-37.4665375008
 20
36.711752014
 10
-37.4470291252
 20
36.5572661439
 10
-37.427729175
 20
36.3990795905
 10
-37.4087788048
 20
36.2378353169
 10
-37.3901811307
 20
36.0734888298
 10
-37.3719330367
 20
35.9060878307
 10
-37.3541663299
 20
35.7364132006
 10
-37.3368889813
 20
35.5644608233
 10
-37.3200930199
 20
35.3902378662
 10
-37.3038863403
 20
35.2145416057
 10
-37.2882779375
 20
35.0373866134
 10
-37.2732588166
 20
34.8587610036
 10
-37.2589098876
 20
34.6794217407
 10
-37.2452399987
 20
34.4993954073
 10
-37.2322403017
 20
34.3186575769
 10
-37.2199651618
 20
34.137888033
 10
-37.2084224303
 20
33.9571165541
 10
-37.1976042559
 20
33.7763148872
 10
-37.1875414501
 20
33.5960751035
 10
-37.1782407585
 20
33.4164272575
 10
-37.1696954354
 20
33.237342141
 10
-37.1619160548
 20
33.0593223011
 10
-37.154908254
 20
32.8823952268
 10
-37.1486663956
 20
32.7065335961
 10
-37.1431841417
 20
32.5321571652
 10
-37.138466176
 20
32.3592909865
 10
-37.1345078147
 20
32.1879095291
 10
-37.1312886692
 20
32.01835617
 10
-37.1288019431
 20
31.8507449221
 10
-37.1270544327
 20
31.6849606727
  0
LINE
  5
3DA
100
AcDbEntity
  8
RACCORDO
100
AcDbLine
 62
250
  6
CONTINUOUS
 10
37.7983875132
 20
7.7751006478
 11
37.7980829267
 21
7.7751006478
  0
LINE
  5
3DB
100
AcDbEntity
  8
RACCORDO
100
AcDbLine
 62
250
  6
CONTINUOUS
 10
-37.7983875132
 20
7.7751006478
 11
-37.7980829267
 21
7.7751006478
  0
LINE
  5
3DC
100
AcDbEntity
  8
ASSI
100
AcDbLine
 62
7
  6
CONTINUOUS
 10
37.7977301537
 20
7.9
 11
37.7
 21
7.9
  0
LINE
  5
3DD
100
AcDbEntity
  8
ASSI
100
AcDbLine
 62
7
  6
CONTINUOUS
 10
-37.7
 20
7.9
 11
-37.7977312806
 21
7.9
  0
LINE
  5
3DE
100
AcDbEntity
  8
RACCORDO
100
AcDbLine
 62
250
  6
CONTINUOUS
 10
-37.7180697434
 20
8.7093895131
 11
-37.71776516
 21
8.7093895131
  0
LINE
  5
3DF
100
AcDbEntity
  8
RACCORDO
100
AcDbLine
 62
250
  6
CONTINUOUS
 10
37.7177651569
 20
8.7093895131
 11
37.7180697434
 21
8.7093895131
  0
LINE
  5
3E0
100
AcDbEntity
  8
RACCORDO
100
AcDbLine
 62
250
  6
CONTINUOUS
 10
59.3004264211
 20
41.0
 11
59.0715794417
 21
40.7711530206
  0
LINE
  5
3E1
100
AcDbEntity
  8
RACCORDO
100
AcDbLine
 62
250
  6
CONTINUOUS
 10
60.0
 20
40.3004264211
 11
59.7711530201
 21
40.0715794412
  0
LINE
  5
3E2
100
AcDbEntity
  8
RACCORDO
100
AcDbLine
 62
250
  6
CONTINUOUS
 10
59.0715794417
 20
-40.7711530206
 11
59.3004264211
 21
-41.0
  0
LINE
  5
3E3
100
AcDbEntity
  8
RACCORDO
100
AcDbLine
 62
250
  6
CONTINUOUS
 10
59.7711530201
 20
-40.0715794412
 11
60.0
 21
-40.3004264211
  0
LINE
  5
3E4
100
AcDbEntity
  8
RACCORDO
100
AcDbLine
 62
250
  6
CONTINUOUS
 10
-37.2924763089
 20
22.7176479945
 11
-37.2763652691
 21
22.7180697643
  0
LINE
  5
3E5
100
AcDbEntity
  8
RACCORDO
100
AcDbLine
 62
7
  6
CONTINUOUS
 10
-37.294137546
 20
22.7174817779
 11
-37.2763659856
 21
22.7177652905
  0
LINE
  5
3E6
100
AcDbEntity
  8
RACCORDO
100
AcDbLine
 62
250
  6
CONTINUOUS
 10
-37.7180697434
 20
22.2763660183
 11
-37.7177651575
 21
22.2763660163
  0
LINE
  5
3E7
100
AcDbEntity
  8
RACCORDO
100
AcDbLine
 62
250
  6
CONTINUOUS
 10
37.7180697434
 20
22.2763709947
 11
37.7177651575
 21
22.2763709947
  0
LINE
  5
3E8
100
AcDbEntity
  8
RACCORDO
100
AcDbLine
 62
7
  6
CONTINUOUS
 10
37.6799350272
 20
22.4
 11
-37.6799385358
 21
22.4
  0
LINE
  5
3E9
100
AcDbEntity
  8
RACCORDO
100
AcDbLine
 62
7
  6
CONTINUOUS
 10
-37.2763659856
 20
22.7177651569
 11
37.276370944
 21
22.7177651569
  0
LINE
  5
3EA
100
AcDbEntity
  8
RACCORDO
100
AcDbLine
 62
250
  6
CONTINUOUS
 10
-37.1643946143
 20
22.7319870978
 11
37.1643946142
 21
22.7319870978
  0
LINE
  5
3EB
100
AcDbEntity
  8
RACCORDO
100
AcDbLine
 62
250
  6
CONTINUOUS
 10
-37.0785407164
 20
23.2864048775
 11
37.0785407164
 21
23.2864048771
  0
LINE
  5
3EC
100
AcDbEntity
  8
RACCORDO
100
AcDbLine
 62
7
  6
CONTINUOUS
 10
37.2763709159
 20
22.71776529
 11
37.2929847904
 21
22.7175176046
  0
LINE
  5
3ED
100
AcDbEntity
  8
RACCORDO
100
AcDbLine
 62
250
  6
CONTINUOUS
 10
37.2763702439
 20
22.7180697644
 11
37.2924665175
 21
22.7176483809
  0
LINE
  5
3EE
100
AcDbEntity
  8
RACCORDO
100
AcDbLine
 62
7
  6
CONTINUOUS
 10
-37.2739117532
 20
22.7216737954
 11
-37.2737808161
 21
22.7216995118
  0
LINE
  5
3EF
100
AcDbEntity
  8
RACCORDO
100
AcDbLine
 62
7
  6
CONTINUOUS
 10
-37.2739117532
 20
22.7216737954
 11
-37.2719564796
 21
22.7220488419
  0
LINE
  5
3F0
100
AcDbEntity
  8
RACCORDO
100
AcDbLine
 62
250
  6
CONTINUOUS
 10
-37.2737808161
 20
22.7216995118
 11
-37.2719564796
 21
22.7220488419
  0
LINE
  5
3F1
100
AcDbEntity
  8
RACCORDO
100
AcDbLine
 62
250
  6
CONTINUOUS
 10
-37.2711996217
 20
22.722187247
 11
-37.2620886788
 21
22.7238643047
  0
LINE
  5
3F2
100
AcDbEntity
  8
RACCORDO
100
AcDbLine
 62
7
  6
CONTINUOUS
 10
-37.2719564796
 20
22.7220488419
 11
-37.2711996217
 21
22.722187247
  0
LWPOLYLINE
  5
3F3
100
AcDbEntity
  8
RACCORDO
100
AcDbPolyline
 62
250
  6
CONTINUOUS
 90
7
 70
0
 10
-37.1643946143
 20
22.7319870978
 10
-37.1685822434
 20
22.7312761545
 10
-37.1729902619
 20
22.7305586823
 10
-37.1776186699
 20
22.7298346812
 10
-37.1824626432
 20
22.7291043626
 10
-37.187527006
 20
22.728367515
 10
-37.1928262302
 20
22.7276235044
  0
LWPOLYLINE
  5
3F4
100
AcDbEntity
  8
RACCORDO
100
AcDbPolyline
 62
250
  6
CONTINUOUS
 90
5
 70
0
 10
-37.2620886788
 20
22.7238643047
 10
-37.2377639024
 20
22.7275416891
 10
-37.2133401782
 20
22.7301244109
 10
-37.1888671595
 20
22.7316072194
 10
-37.1643945998
 20
22.7319871002
  0
LINE
  5
3F5
100
AcDbEntity
  8
RACCORDO
100
AcDbLine
 62
250
  6
CONTINUOUS
 10
-37.1928262302
 20
22.7276235044
 11
-37.2041280789
 21
22.7261140172
  0
LINE
  5
3F6
100
AcDbEntity
  8
RACCORDO
100
AcDbLine
 62
250
  6
CONTINUOUS
 10
-37.2041280789
 20
22.7261140172
 11
-37.2164173395
 21
22.7245739013
  0
LINE
  5
3F7
100
AcDbEntity
  8
RACCORDO
100
AcDbLine
 62
250
  6
CONTINUOUS
 10
-37.2164173395
 20
22.7245739013
 11
-37.2297288404
 21
22.7230017315
  0
LINE
  5
3F8
100
AcDbEntity
  8
RACCORDO
100
AcDbLine
 62
250
  6
CONTINUOUS
 10
-37.2297288404
 20
22.7230017315
 11
-37.2441172403
 21
22.7213952861
  0
LINE
  5
3F9
100
AcDbEntity
  8
RACCORDO
100
AcDbLine
 62
250
  6
CONTINUOUS
 10
-37.2441172403
 20
22.7213952861
 11
-37.259655631
 21
22.7197515821
  0
LINE
  5
3FA
100
AcDbEntity
  8
RACCORDO
100
AcDbLine
 62
250
  6
CONTINUOUS
 10
-37.259655631
 20
22.7197515821
 11
-37.2763653821
 21
22.7180697477
  0
LINE
  5
3FB
100
AcDbEntity
  8
RACCORDO
100
AcDbLine
 62
250
  6
CONTINUOUS
 10
37.276370357
 20
22.7180697477
 11
37.2517442395
 21
22.7205781321
  0
LWPOLYLINE
  5
3FC
100
AcDbEntity
  8
RACCORDO
100
AcDbPolyline
 62
250
  6
CONTINUOUS
 90
80
 70
0
 10
37.1643946238
 20
22.7319870978
 10
37.1622474528
 20
22.7322188699
 10
37.160128987
 20
22.732501107
 10
37.1580392264
 20
22.7328339781
 10
37.1559782353
 20
22.7332176456
 10
37.1539459493
 20
22.7336522742
 10
37.1519421753
 20
22.7341380345
 10
37.1499669282
 20
22.7346750833
 10
37.1480201931
 20
22.7352635768
 10
37.1461017313
 20
22.7359036882
 10
37.1442115416
 20
22.7365955736
 10
37.1423496253
 20
22.7373393782
 10
37.1405157478
 20
22.7381352616
 10
37.1387099217
 20
22.738983365
 10
37.1369321343
 20
22.7398838298
 10
37.135182113
 20
22.7408368164
 10
37.133459859
 20
22.7418424638
 10
37.1317653711
 20
22.7429008997
 10
37.1300983721
 20
22.7440122674
 10
37.1284588702
 20
22.7451766917
 10
37.1268468572
 20
22.7463942935
 10
37.1252620314
 20
22.7476652083
 10
37.1237043986
 20
22.748989552
 10
37.1221739529
 20
22.7503674332
 10
37.1206703745
 20
22.7517989742
 10
37.1191936664
 20
22.7532842827
 10
37.1177438256
 20
22.7548234523
 10
37.116320523
 20
22.7564165806
 10
37.1149237665
 20
22.7580637546
 10
37.1135535483
 20
22.7597650608
 10
37.1122095151
 20
22.7615205899
 10
37.1108916806
 20
22.7633304099
 10
37.1096000311
 20
22.7651945993
 10
37.1083341724
 20
22.767113261
 10
37.1070941144
 20
22.7690864568
 10
37.1058798471
 20
22.7711142481
 10
37.1046909466
 20
22.7731967369
 10
37.1035274179
 20
22.7753339813
 10
37.1023892559
 20
22.7775260234
 10
37.1012760213
 20
22.7797729395
 10
37.10018772
 20
22.7820747717
 10
37.0991243462
 20
22.7844315511
 10
37.0980854421
 20
22.7868433332
 10
37.0970710173
 20
22.7893101375
 10
37.0960810622
 20
22.7918319884
 10
37.0951150909
 20
22.7944089455
 10
37.0941731145
 20
22.7970410127
 10
37.0932551217
 20
22.7997282019
 10
37.0923605936
 20
22.8024705827
 10
37.0914895374
 20
22.8052681557
 10
37.0906419458
 20
22.8081209102
 10
37.0898172778
 20
22.8110288964
 10
37.0890155406
 20
22.813992101
 10
37.088236727
 20
22.8170104986
 10
37.0874802737
 20
22.8200841196
 10
37.0867461895
 20
22.8232129281
 10
37.0860344656
 20
22.8263968905
 10
37.0853445128
 20
22.8296360368
 10
37.0846763413
 20
22.8329303138
 10
37.0840299408
 20
22.836279675
 10
37.0834046919
 20
22.8396841584
 10
37.0828006033
 20
22.843143703
 10
37.0822176662
 20
22.8466582405
 10
37.081655235
 20
22.8502277973
 10
37.0811133179
 20
22.8538522996
 10
37.0805919068
 20
22.8575316609
 10
37.0800903312
 20
22.8612658855
 10
37.0796086
 20
22.8650548776
 10
37.0791467043
 20
22.8688985396
 10
37.0787039479
 20
22.8727968704
 10
37.0782803406
 20
22.8767497536
 10
37.0778758725
 20
22.8807570784
 10
37.0774898181
 20
22.8848188505
 10
37.077122187
 20
22.8889349412
 10
37.0767729695
 20
22.8931052185
 10
37.0764414114
 20
22.8973296818
 10
37.0761275218
 20
22.9016081891
 10
37.0758312915
 20
22.9059405873
 10
37.0755519385
 20
22.9103268572
 10
37.0752894722
 20
22.9147668344
  0
LINE
  5
3FD
100
AcDbEntity
  8
RACCORDO
100
AcDbLine
 62
250
  6
CONTINUOUS
 10
37.2517442395
 20
22.7205781321
 11
37.2367955609
 21
22.7222025579
  0
LINE
  5
3FE
100
AcDbEntity
  8
RACCORDO
100
AcDbLine
 62
250
  6
CONTINUOUS
 10
37.2367955609
 20
22.7222025579
 11
37.2229455462
 21
22.7237918321
  0
LINE
  5
3FF
100
AcDbEntity
  8
RACCORDO
100
AcDbLine
 62
250
  6
CONTINUOUS
 10
37.2229455462
 20
22.7237918321
 11
37.2101543011
 21
22.7253475797
  0
LWPOLYLINE
  5
400
100
AcDbEntity
  8
RACCORDO
100
AcDbPolyline
 62
250
  6
CONTINUOUS
 90
9
 70
0
 10
37.2101543011
 20
22.7253475797
 10
37.1983655332
 20
22.7268720862
 10
37.1928314315
 20
22.7276232696
 10
37.1875315176
 20
22.7283673071
 10
37.1824663823
 20
22.7291041873
 10
37.1776215699
 20
22.7298345432
 10
37.1729922618
 20
22.7305585857
 10
37.1685832766
 20
22.7312761039
 10
37.1643946142
 20
22.7319870978
  0
LWPOLYLINE
  5
401
100
AcDbEntity
  8
RACCORDO
100
AcDbPolyline
 62
250
  6
CONTINUOUS
 90
5
 70
0
 10
37.2620883323
 20
22.7238643761
 10
37.237763621
 20
22.7275417521
 10
37.2133399757
 20
22.7301244592
 10
37.1888670506
 20
22.7316072468
 10
37.1643945998
 20
22.7319871002
  0
LWPOLYLINE
  5
402
100
AcDbEntity
  8
RACCORDO
100
AcDbPolyline
 62
7
  6
CONTINUOUS
 90
3
 70
0
 10
37.2722445939
 20
22.7220262339
 10
37.2718792233
 20
22.7220834102
 10
37.2709157877
 20
22.7222385417
  0
LWPOLYLINE
  5
403
100
AcDbEntity
  8
RACCORDO
100
AcDbPolyline
 62
7
  6
CONTINUOUS
 90
3
 70
0
 10
37.2708766146
 20
22.7222447063
 10
37.2718239885
 20
22.7220735641
 10
37.2738827126
 20
22.7216795018
  0
LINE
  5
404
100
AcDbEntity
  8
RACCORDO
100
AcDbLine
 62
250
  6
CONTINUOUS
 10
37.2737731814
 20
22.7217010103
 11
37.2718239885
 21
22.7220735641
  0
LINE
  5
405
100
AcDbEntity
  8
RACCORDO
100
AcDbLine
 62
250
  6
CONTINUOUS
 10
37.2708766146
 20
22.7222447063
 11
37.2620883323
 21
22.7238643761
  0
LINE
  5
406
100
AcDbEntity
  8
RACCORDO
100
AcDbLine
 62
7
  6
CONTINUOUS
 10
37.2738827125
 20
22.7216795018
 11
37.2737731814
 21
22.7217010103
  0
LINE
  5
407
100
AcDbEntity
  8
RACCORDO
100
AcDbLine
 62
7
  6
CONTINUOUS
 10
37.2737731814
 20
22.7217010103
 11
37.2810431033
 21
22.7202220765
  0
LINE
  5
408
100
AcDbEntity
  8
RACCORDO
100
AcDbLine
 62
250
  6
CONTINUOUS
 10
38.1565148416
 20
-38.6731305898
 11
38.1412055471
 21
-38.5301141456
  0
LINE
  5
409
100
AcDbEntity
  8
RACCORDO
100
AcDbLine
 62
250
  6
CONTINUOUS
 10
38.1412055471
 20
-38.5301141456
 11
38.125301875
 21
-38.3736839314
  0
LINE
  5
40A
100
AcDbEntity
  8
RACCORDO
100
AcDbLine
 62
250
  6
CONTINUOUS
 10
38.125301875
 20
-38.3736839314
 11
38.1087861626
 21
-38.2023799808
  0
LINE
  5
40B
100
AcDbEntity
  8
RACCORDO
100
AcDbLine
 62
250
  6
CONTINUOUS
 10
38.1087861626
 20
-38.2023799808
 11
38.091633785
 21
-38.0144093933
  0
LINE
  5
40C
100
AcDbEntity
  8
RACCORDO
100
AcDbLine
 62
250
  6
CONTINUOUS
 10
38.0914008914
 20
38.0117867199
 11
38.1085691948
 21
38.2000677906
  0
LINE
  5
40D
100
AcDbEntity
  8
RACCORDO
100
AcDbLine
 62
250
  6
CONTINUOUS
 10
38.1085691948
 20
38.2000677906
 11
38.1251013523
 21
38.3716590708
  0
LINE
  5
40E
100
AcDbEntity
  8
RACCORDO
100
AcDbLine
 62
250
  6
CONTINUOUS
 10
38.1251013523
 20
38.3716590708
 11
38.1410187189
 21
38.5283249078
  0
LINE
  5
40F
100
AcDbEntity
  8
RACCORDO
100
AcDbLine
 62
250
  6
CONTINUOUS
 10
38.1410187189
 20
38.5283249078
 11
38.1563469937
 21
38.6716023287
  0
LINE
  5
410
100
AcDbEntity
  8
RACCORDO
100
AcDbLine
 62
250
  6
CONTINUOUS
 10
38.1563469937
 20
38.6716023287
 11
38.1710830337
 21
38.8023981591
  0
LINE
  5
411
100
AcDbEntity
  8
RACCORDO
100
AcDbLine
 62
250
  6
CONTINUOUS
 10
38.1710830337
 20
38.8023981591
 11
38.1852401337
 21
38.9218800044
  0
LINE
  5
412
100
AcDbEntity
  8
RACCORDO
100
AcDbLine
 62
250
  6
CONTINUOUS
 10
38.1852401337
 20
38.9218800044
 11
38.1988206171
 21
39.0309910127
  0
LINE
  5
413
100
AcDbEntity
  8
RACCORDO
100
AcDbLine
 62
250
  6
CONTINUOUS
 10
38.1988206171
 20
39.0309910127
 11
38.2118303772
 21
39.1304267274
  0
LINE
  5
414
100
AcDbEntity
  8
RACCORDO
100
AcDbLine
 62
250
  6
CONTINUOUS
 10
38.2118303772
 20
39.1304267274
 11
38.2243165706
 21
39.2213310099
  0
LINE
  5
415
100
AcDbEntity
  8
RACCORDO
100
AcDbLine
 62
250
  6
CONTINUOUS
 10
38.2243165706
 20
39.2213310099
 11
38.2363122037
 21
39.3045762073
  0
LINE
  5
416
100
AcDbEntity
  8
RACCORDO
100
AcDbLine
 62
250
  6
CONTINUOUS
 10
38.2363122037
 20
39.3045762073
 11
38.2478291355
 21
39.3806860641
  0
LINE
  5
417
100
AcDbEntity
  8
RACCORDO
100
AcDbLine
 62
250
  6
CONTINUOUS
 10
38.2478291355
 20
39.3806860641
 11
38.2588852553
 21
39.4503275181
  0
LINE
  5
418
100
AcDbEntity
  8
RACCORDO
100
AcDbLine
 62
250
  6
CONTINUOUS
 10
38.2588852553
 20
39.4503275181
 11
38.2695017207
 21
39.5141042392
  0
LWPOLYLINE
  5
419
100
AcDbEntity
  8
RACCORDO
100
AcDbPolyline
 62
250
  6
CONTINUOUS
 90
3
 70
0
 10
38.2695017207
 20
39.5141042392
 10
38.279689543
 20
39.5724019489
 10
38.2846325459
 20
39.5997057643
  0
LWPOLYLINE
  5
41A
100
AcDbEntity
  8
RACCORDO
100
AcDbPolyline
 62
250
  6
CONTINUOUS
 90
65
 70
0
 10
38.2846325459
 20
39.5997057643
 10
38.2942198772
 20
39.6507632149
 10
38.2988720815
 20
39.6746781031
 10
38.3034287032
 20
39.6975138395
 10
38.3078988006
 20
39.7194102238
 10
38.3122820352
 20
39.7403742974
 10
38.3165772183
 20
39.760399371
 10
38.3207923014
 20
39.7796046065
 10
38.3249269435
 20
39.7979955184
 10
38.3289802592
 20
39.8155668966
 10
38.3329595135
 20
39.8324217831
 10
38.3368661448
 20
39.8485710674
 10
38.3406977314
 20
39.8640041215
 10
38.3444558316
 20
39.8787916894
 10
38.348141867
 20
39.8929416363
 10
38.3517535846
 20
39.9064463392
 10
38.3552870593
 20
39.9193533078
 10
38.3587389916
 20
39.9316533648
 10
38.3621119377
 20
39.9433559313
 10
38.36541079
 20
39.9545364083
 10
38.3686339097
 20
39.9651936892
 10
38.3717823375
 20
39.9753290932
 10
38.3748650511
 20
39.9850216367
 10
38.3778826001
 20
39.9942770709
 10
38.3808339746
 20
40.0030898184
 10
38.3837258727
 20
40.0115218786
 10
38.3865586569
 20
40.0195772947
 10
38.3893316001
 20
40.0272521706
 10
38.3920498063
 20
40.0345965799
 10
38.3947125321
 20
40.0416112002
 10
38.3973202267
 20
40.0482954813
 10
38.3998798176
 20
40.0546976396
 10
38.402390973
 20
40.0608194919
 10
38.4048537949
 20
40.0666593264
 10
38.4072758939
 20
40.0722600491
 10
38.4096582654
 20
40.0776259639
 10
38.4119997378
 20
40.0827528502
 10
38.4143046952
 20
40.0876708135
 10
38.4165738105
 20
40.0923824888
 10
38.4188062681
 20
40.0968853122
 10
38.4210042326
 20
40.101201583
 10
38.4231675443
 20
40.1053318912
 10
38.425296243
 20
40.1092757111
 10
38.4273928018
 20
40.1130536633
 10
38.4294576134
 20
40.1166671625
 10
38.4314901858
 20
40.1201148507
 10
38.4334916721
 20
40.1234131855
 10
38.4354622083
 20
40.1265628683
 10
38.4374015739
 20
40.12956325
 10
38.4393103914
 20
40.1324287597
 10
38.4411883343
 20
40.1351593914
 10
38.4430356567
 20
40.1377552002
 10
38.4448538562
 20
40.1402307044
 10
38.4466426802
 20
40.1425861387
 10
38.4484023207
 20
40.1448213129
 10
38.450134947
 20
40.1469501041
 10
38.451840507
 20
40.1489730357
 10
38.4535190029
 20
40.1508896235
 10
38.4551726905
 20
40.1527122297
 10
38.4568006405
 20
40.1544406073
 10
38.458403741
 20
40.156075038
 10
38.4599869778
 20
40.157628672
 10
38.4615520031
 20
40.1591059001
 10
38.4630971336
 20
40.1605023571
 10
38.4646223546
 20
40.1618180559
  0
LINE
  5
41B
100
AcDbEntity
  8
RACCORDO
100
AcDbLine
 62
7
  6
CONTINUOUS
 10
-37.2894491065
 20
22.7183817006
 11
-37.2737808161
 21
22.7216995118
  0
LWPOLYLINE
  5
41C
100
AcDbEntity
  8
RACCORDO
100
AcDbPolyline
 62
7
  6
CONTINUOUS
 90
3
 70
0
 10
37.7
 20
40.0986945859
 10
37.9386510684
 20
40.134995567
 10
37.9684116584
 20
40.1394740588
  0
LWPOLYLINE
  5
41D
100
AcDbEntity
  8
RACCORDO
100
AcDbPolyline
 62
7
  6
CONTINUOUS
 90
7
 70
0
 10
-37.9684116321
 20
40.139474059
 10
-38.0075395964
 20
40.145085613
 10
-38.0473282259
 20
40.1504889715
 10
-38.0877775209
 20
40.155684134
 10
-38.1288958322
 20
40.1606489646
 10
-38.1706748089
 20
40.1654055977
 10
-38.2561312474
 20
40.174515618
  0
LWPOLYLINE
  5
41E
100
AcDbEntity
  8
RACCORDO
100
AcDbPolyline
 62
7
  6
CONTINUOUS
 90
3
 70
0
 10
-37.9684116321
 20
40.139474059
 10
-37.7298867337
 20
40.1032782428
 10
-37.7
 20
40.0986945859
  0
LWPOLYLINE
  5
41F
100
AcDbEntity
  8
RACCORDO
100
AcDbPolyline
 62
7
  6
CONTINUOUS
 90
59
 70
0
 10
37.2810431033
 20
22.7202220765
 10
37.2958416591
 20
22.7168879614
 10
37.3104834741
 20
22.7131576066
 10
37.324951978
 20
22.7090434197
 10
37.3392292602
 20
22.7045591398
 10
37.3532995119
 20
22.6997189043
 10
37.3671534963
 20
22.6945352951
 10
37.3807783606
 20
22.6890227143
 10
37.3941619899
 20
22.6831960646
 10
37.4072991104
 20
22.6770677869
 10
37.4201804213
 20
22.6706524596
 10
37.4327971556
 20
22.6639650256
 10
37.4451468282
 20
22.6570174681
 10
37.457222781
 20
22.6498242581
 10
37.4690191434
 20
22.6423999154
 10
37.4805359853
 20
22.6347554484
 10
37.4917690117
 20
22.6269047729
 10
37.5027144437
 20
22.6188618733
 10
37.513374045
 20
22.6106368148
 10
37.5237454255
 20
22.6022428021
 10
37.5338265027
 20
22.5936931549
 10
37.5436200937
 20
22.5849971518
 10
37.5531258844
 20
22.576166719
 10
37.5623426205
 20
22.5672149509
 10
37.5712721694
 20
22.5581521701
 10
37.5799160134
 20
22.5489890958
 10
37.5882736829
 20
22.539738751
 10
37.5963447321
 20
22.5304146648
 10
37.6041310418
 20
22.5210281265
 10
37.6116344137
 20
22.511590761
 10
37.6188550336
 20
22.5021166783
 10
37.6257951852
 20
22.4926178245
 10
37.6324586701
 20
22.4831043213
 10
37.6388484748
 20
22.4735876224
 10
37.6449671028
 20
22.4640803058
 10
37.6508198911
 20
22.4545908311
 10
37.6564139725
 20
22.4451244136
 10
37.6617536472
 20
22.4356907146
 10
37.6668430358
 20
22.4262999229
 10
37.6716884588
 20
22.4169581985
 10
37.6762942883
 20
22.4076753082
 10
37.6806650467
 20
22.3984609924
 10
37.6848066247
 20
22.3893222099
 10
37.6887271879
 20
22.3802603184
 10
37.6924273187
 20
22.3712942077
 10
37.6959021168
 20
22.3624592924
 10
37.6991689906
 20
22.3537354534
 10
37.7022211525
 20
22.3451661439
 10
37.7050243682
 20
22.3368855372
 10
37.7075889897
 20
22.3289120196
 10
37.7099284795
 20
22.3212538514
 10
37.7120242298
 20
22.3140308152
 10
37.7138796258
 20
22.3073023641
 10
37.715524551
 20
22.3010308669
 10
37.7169831616
 20
22.295187994
 10
37.7182614314
 20
22.2898124794
 10
37.7193796658
 20
22.2848807924
 10
37.7203763723
 20
22.2802731014
 10
37.7212630365
 20
22.2759757619
  0
LINE
  5
420
100
AcDbEntity
  8
RACCORDO
100
AcDbLine
 62
250
  6
CONTINUOUS
 10
38.2941935626
 20
-39.6506255528
 11
38.2846217228
 21
-39.59964566
  0
LINE
  5
421
100
AcDbEntity
  8
RACCORDO
100
AcDbLine
 62
250
  6
CONTINUOUS
 10
38.2846217228
 20
-39.59964566
 11
38.2746511895
 21
-39.5439017786
  0
LINE
  5
422
100
AcDbEntity
  8
RACCORDO
100
AcDbLine
 62
250
  6
CONTINUOUS
 10
38.2746511895
 20
-39.5439017786
 11
38.2642709322
 21
-39.4830594449
  0
LINE
  5
423
100
AcDbEntity
  8
RACCORDO
100
AcDbLine
 62
250
  6
CONTINUOUS
 10
38.2642709322
 20
-39.4830594449
 11
38.2534564724
 21
-39.4165725837
  0
LINE
  5
424
100
AcDbEntity
  8
RACCORDO
100
AcDbLine
 62
250
  6
CONTINUOUS
 10
38.2534564724
 20
-39.4165725837
 11
38.242185326
 21
-39.3438238727
  0
LINE
  5
425
100
AcDbEntity
  8
RACCORDO
100
AcDbLine
 62
250
  6
CONTINUOUS
 10
38.242185326
 20
-39.3438238727
 11
38.2304493279
 21
-39.2643881109
  0
LINE
  5
426
100
AcDbEntity
  8
RACCORDO
100
AcDbLine
 62
250
  6
CONTINUOUS
 10
38.2304493279
 20
-39.2643881109
 11
38.2182371075
 21
-39.177651176
  0
LINE
  5
427
100
AcDbEntity
  8
RACCORDO
100
AcDbLine
 62
250
  6
CONTINUOUS
 10
38.2182371075
 20
-39.177651176
 11
38.2055060779
 21
-39.0826692997
  0
LINE
  5
428
100
AcDbEntity
  8
RACCORDO
100
AcDbLine
 62
250
  6
CONTINUOUS
 10
38.2055060779
 20
-39.0826692997
 11
38.1922369253
 21
-38.9787638516
  0
LINE
  5
429
100
AcDbEntity
  8
RACCORDO
100
AcDbLine
 62
250
  6
CONTINUOUS
 10
38.1922369253
 20
-38.9787638516
 11
38.1783770412
 21
-38.8647391394
  0
LWPOLYLINE
  5
42A
100
AcDbEntity
  8
RACCORDO
100
AcDbPolyline
 62
250
  6
CONTINUOUS
 90
3
 70
0
 10
38.1783770412
 20
-38.8647391394
 10
38.1639406884
 20
-38.7397998789
 10
38.1565148416
 20
-38.6731305898
  0
LWPOLYLINE
  5
42B
100
AcDbEntity
  8
RACCORDO
100
AcDbPolyline
 62
250
  6
CONTINUOUS
 90
8
 70
0
 10
37.7216171484
 20
8.6474447501
 10
37.7221624831
 20
8.6442492886
 10
37.7254261551
 20
8.6227296376
 10
37.7296306548
 20
8.6013755879
 10
37.7347679477
 20
8.5802279459
 10
37.7408282169
 20
8.5593271232
 10
37.7477998816
 20
8.5387130599
 10
37.7533902224
 20
8.5240360125
  0
LINE
  5
42C
100
AcDbEntity
  8
RACCORDO
100
AcDbLine
 62
250
  6
CONTINUOUS
 10
37.7503407663
 20
-22.2018719967
 11
37.7495308971
 21
-22.1942633883
  0
LINE
  5
42D
100
AcDbEntity
  8
RACCORDO
100
AcDbLine
 62
250
  6
CONTINUOUS
 10
37.7511481333
 20
-22.2100372996
 11
37.7503407663
 21
-22.2018719967
  0
LINE
  5
42E
100
AcDbEntity
  8
RACCORDO
100
AcDbLine
 62
7
  6
CONTINUOUS
 10
37.7818710741
 20
8.4802891677
 11
37.782253472
 21
8.4762346112
  0
LINE
  5
42F
100
AcDbEntity
  8
RACCORDO
100
AcDbLine
 62
250
  6
CONTINUOUS
 10
37.7519524687
 20
-22.2187590033
 11
37.7511481333
 21
-22.2100372996
  0
LINE
  5
430
100
AcDbEntity
  8
RACCORDO
100
AcDbLine
 62
250
  6
CONTINUOUS
 10
38.091633785
 20
-38.0144093933
 11
38.0738587754
 21
-37.808431922
  0
LINE
  5
431
100
AcDbEntity
  8
RACCORDO
100
AcDbLine
 62
250
  6
CONTINUOUS
 10
37.7527532588
 20
-22.2280363145
 11
37.7519524687
 21
-22.2187590033
  0
LINE
  5
432
100
AcDbEntity
  8
RACCORDO
100
AcDbLine
 62
7
  6
CONTINUOUS
 10
37.782253472
 20
8.4762346112
 11
37.7827247317
 21
8.4707661122
  0
LINE
  5
433
100
AcDbEntity
  8
RACCORDO
100
AcDbLine
 62
250
  6
CONTINUOUS
 10
38.0738587754
 20
-37.808431922
 11
38.0554298972
 21
-37.5820335385
  0
LINE
  5
434
100
AcDbEntity
  8
RACCORDO
100
AcDbLine
 62
250
  6
CONTINUOUS
 10
37.7535501582
 20
-22.2378685347
 11
37.7527532588
 21
-22.2280363145
  0
LINE
  5
435
100
AcDbEntity
  8
RACCORDO
100
AcDbLine
 62
7
  6
CONTINUOUS
 10
37.7827247317
 20
8.4707661122
 11
37.7832696629
 21
8.4638633397
  0
LINE
  5
436
100
AcDbEntity
  8
RACCORDO
100
AcDbLine
 62
250
  6
CONTINUOUS
 10
38.0554298972
 20
-37.5820335385
 11
38.0363825007
 21
-37.3331796951
  0
LINE
  5
437
100
AcDbEntity
  8
RACCORDO
100
AcDbLine
 62
250
  6
CONTINUOUS
 10
37.754342647
 20
-22.2482543947
 11
37.7535501582
 21
-22.2378685347
  0
LINE
  5
438
100
AcDbEntity
  8
RACCORDO
100
AcDbLine
 62
7
  6
CONTINUOUS
 10
37.7832696629
 20
8.4638633397
 11
37.7838736341
 21
8.4555394618
  0
LINE
  5
439
100
AcDbEntity
  8
RACCORDO
100
AcDbLine
 62
250
  6
CONTINUOUS
 10
38.0363825007
 20
-37.3331796951
 11
38.0169270598
 21
-37.0623062541
  0
LINE
  5
43A
100
AcDbEntity
  8
RACCORDO
100
AcDbLine
 62
250
  6
CONTINUOUS
 10
37.7555220642
 20
-22.2648672902
 11
37.754342647
 21
-22.2482543947
  0
LWPOLYLINE
  5
43B
100
AcDbEntity
  8
RACCORDO
100
AcDbPolyline
 62
250
  6
CONTINUOUS
 90
33
 70
0
 10
38.0169270598
 20
-37.0623062541
 10
37.9975001921
 20
-36.7729524514
 10
37.9878892786
 20
-36.6222293023
 10
37.978392507
 20
-36.4678448659
 10
37.9690175486
 20
-36.3097316823
 10
37.9598089077
 20
-36.1485934472
 10
37.9507803622
 20
-35.9844071646
 10
37.9419451133
 20
-35.8171965699
 10
37.9333420167
 20
-35.6477357926
 10
37.9249830109
 20
-35.4760189658
 10
37.9168788872
 20
-35.3020532018
 10
37.9090616252
 20
-35.1266323658
 10
37.9015409936
 20
-34.9497720862
 10
37.8943247705
 20
-34.7714583401
 10
37.8874368185
 20
-34.5924406971
 10
37.8808841472
 20
-34.4127452648
 10
37.8746718841
 20
-34.2323477373
 10
37.8688163308
 20
-34.0519221613
 10
37.8633216721
 20
-33.8714986304
 10
37.8581906105
 20
-33.6910489022
 10
37.8534330292
 20
-33.511159547
 10
37.8490504685
 20
-33.3318610691
 10
37.8450434054
 20
-33.1531247446
 10
37.8414165046
 20
-32.9754482772
 10
37.8381689334
 20
-32.7988600815
 10
37.8352991722
 20
-32.623333364
 10
37.8328077652
 20
-32.4492829586
 10
37.8306918233
 20
-32.2767348379
 10
37.8289480391
 20
-32.1056644431
 10
37.8275737052
 20
-31.9364107325
 10
37.826564294
 20
-31.7690870754
 10
37.825914633
 20
-31.6035812726
 10
37.8256197168
 20
-31.4398938589
  0
LINE
  5
43C
100
AcDbEntity
  8
RACCORDO
100
AcDbLine
 62
7
  6
CONTINUOUS
 10
37.7838736341
 20
8.4555394618
 11
37.7845190308
 21
8.445889318
  0
LINE
  5
43D
100
AcDbEntity
  8
RACCORDO
100
AcDbLine
 62
250
  6
CONTINUOUS
 10
37.7566889544
 20
-22.2827151805
 11
37.7555220642
 21
-22.2648672902
  0
LINE
  5
43E
100
AcDbEntity
  8
RACCORDO
100
AcDbLine
 62
250
  6
CONTINUOUS
 10
37.719428157
 20
8.6686435506
 11
37.7198458757
 21
8.6658934184
  0
LINE
  5
43F
100
AcDbEntity
  8
RACCORDO
100
AcDbLine
 62
7
  6
CONTINUOUS
 10
37.7845190308
 20
8.445889318
 11
37.7851979559
 21
8.434882114
  0
LINE
  5
440
100
AcDbEntity
  8
RACCORDO
100
AcDbLine
 62
250
  6
CONTINUOUS
 10
37.7578417842
 20
-22.3017899902
 11
37.7566889544
 21
-22.2827151805
  0
LINE
  5
441
100
AcDbEntity
  8
RACCORDO
100
AcDbLine
 62
250
  6
CONTINUOUS
 10
37.7849163512
 20
8.4595038907
 11
37.7858167636
 21
8.4432172605
  0
LINE
  5
442
100
AcDbEntity
  8
RACCORDO
100
AcDbLine
 62
7
  6
CONTINUOUS
 10
37.7851979559
 20
8.434882114
 11
37.7862657288
 21
8.4157584347
  0
LINE
  5
443
100
AcDbEntity
  8
RACCORDO
100
AcDbLine
 62
250
  6
CONTINUOUS
 10
37.759354373
 20
-22.3291147039
 11
37.7578417842
 21
-22.3017899902
  0
LINE
  5
444
100
AcDbEntity
  8
RACCORDO
100
AcDbLine
 62
250
  6
CONTINUOUS
 10
37.0752894722
 20
22.9147668344
 11
37.0748143608
 21
22.9238073834
  0
LINE
  5
445
100
AcDbEntity
  8
RACCORDO
100
AcDbLine
 62
250
  6
CONTINUOUS
 10
37.7608356695
 20
-22.3585762842
 11
37.759354373
 21
-22.3291147039
  0
LINE
  5
446
100
AcDbEntity
  8
RACCORDO
100
AcDbLine
 62
7
  6
CONTINUOUS
 10
37.7862657288
 20
8.4157584347
 11
37.787377666
 21
8.3933902846
  0
LINE
  5
447
100
AcDbEntity
  8
RACCORDO
100
AcDbLine
 62
250
  6
CONTINUOUS
 10
37.7858167636
 20
8.4432172605
 11
37.7875482491
 21
8.4077833306
  0
LINE
  5
448
100
AcDbEntity
  8
RACCORDO
100
AcDbLine
 62
250
  6
CONTINUOUS
 10
37.762637943
 20
-22.3983598977
 11
37.7608356695
 21
-22.3585762842
  0
LINE
  5
449
100
AcDbEntity
  8
RACCORDO
100
AcDbLine
 62
250
  6
CONTINUOUS
 10
37.0748143608
 20
22.9238073834
 11
37.0744035365
 21
22.9330612494
  0
LINE
  5
44A
100
AcDbEntity
  8
RACCORDO
100
AcDbLine
 62
7
  6
CONTINUOUS
 10
37.787377666
 20
8.3933902846
 11
37.7885165783
 21
8.3676132856
  0
LINE
  5
44B
100
AcDbEntity
  8
RACCORDO
100
AcDbLine
 62
250
  6
CONTINUOUS
 10
37.7875482491
 20
8.4077833306
 11
37.7891777874
 21
8.3687448241
  0
LINE
  5
44C
100
AcDbEntity
  8
RACCORDO
100
AcDbLine
 62
250
  6
CONTINUOUS
 10
37.7643790518
 20
-22.4413619302
 11
37.762637943
 21
-22.3983598977
  0
LWPOLYLINE
  5
44D
100
AcDbEntity
  8
RACCORDO
100
AcDbPolyline
 62
250
  6
CONTINUOUS
 90
8
 70
0
 10
37.7039935561
 20
-40.7377445594
 10
37.7043077256
 20
-40.7458750886
 10
37.7046271382
 20
-40.752928787
 10
37.7049517823
 20
-40.7588943859
 10
37.7052795781
 20
-40.7637623539
 10
37.7056098322
 20
-40.767524916
 10
37.7059432379
 20
-40.7701760646
 10
37.7062797953
 20
-40.771711568
  0
LINE
  5
44E
100
AcDbEntity
  8
RACCORDO
100
AcDbLine
 62
7
  6
CONTINUOUS
 10
37.7885165783
 20
8.3676132856
 11
37.7896715214
 21
8.3382002076
  0
LINE
  5
44F
100
AcDbEntity
  8
RACCORDO
100
AcDbLine
 62
250
  6
CONTINUOUS
 10
37.0744035365
 20
22.9330612494
 11
37.0740544676
 21
22.9425274186
  0
LINE
  5
450
100
AcDbEntity
  8
RACCORDO
100
AcDbLine
 62
250
  6
CONTINUOUS
 10
37.7891777874
 20
8.3687448241
 11
37.7906969141
 21
8.3263395328
  0
LINE
  5
451
100
AcDbEntity
  8
RACCORDO
100
AcDbLine
 62
250
  6
CONTINUOUS
 10
37.7663783471
 20
-22.4970970795
 11
37.7643790518
 21
-22.4413619302
  0
LINE
  5
452
100
AcDbEntity
  8
RACCORDO
100
AcDbLine
 62
7
  6
CONTINUOUS
 10
37.7896715214
 20
8.3382002076
 11
37.7912025673
 21
8.2931582754
  0
LINE
  5
453
100
AcDbEntity
  8
RACCORDO
100
AcDbLine
 62
250
  6
CONTINUOUS
 10
37.7906969141
 20
8.3263395328
 11
37.7921000052
 21
8.2807311896
  0
LINE
  5
454
100
AcDbEntity
  8
RACCORDO
100
AcDbLine
 62
250
  6
CONTINUOUS
 10
37.7033829562
 20
-40.7183066757
 11
37.7039935561
 21
-40.7377445594
  0
LINE
  5
455
100
AcDbEntity
  8
RACCORDO
100
AcDbLine
 62
250
  6
CONTINUOUS
 10
37.7685728421
 20
-22.5676180011
 11
37.7663783471
 21
-22.4970970795
  0
LINE
  5
456
100
AcDbEntity
  8
RACCORDO
100
AcDbLine
 62
250
  6
CONTINUOUS
 10
37.0740544676
 20
22.9425274186
 11
37.0737654421
 21
22.9522046139
  0
LINE
  5
457
100
AcDbEntity
  8
RACCORDO
100
AcDbLine
 62
7
  6
CONTINUOUS
 10
37.7912025673
 20
8.2931582754
 11
37.7926838188
 21
8.2413674204
  0
LINE
  5
458
100
AcDbEntity
  8
RACCORDO
100
AcDbLine
 62
250
  6
CONTINUOUS
 10
37.7176520053
 20
22.2923753021
 11
37.7180697466
 21
22.2763706876
  0
LINE
  5
459
100
AcDbEntity
  8
RACCORDO
100
AcDbLine
 62
250
  6
CONTINUOUS
 10
37.7708784137
 20
-22.6551142103
 11
37.7685728421
 21
-22.5676180011
  0
LINE
  5
45A
100
AcDbEntity
  8
RACCORDO
100
AcDbLine
 62
250
  6
CONTINUOUS
 10
37.7028014957
 20
-40.694739337
 11
37.7033829562
 21
-40.7183066757
  0
LINE
  5
45B
100
AcDbEntity
  8
RACCORDO
100
AcDbLine
 62
250
  6
CONTINUOUS
 10
37.7921000052
 20
8.2807311896
 11
37.7939692476
 21
8.2068732049
  0
LINE
  5
45C
100
AcDbEntity
  8
RACCORDO
100
AcDbLine
 62
7
  6
CONTINUOUS
 10
37.7926838188
 20
8.2413674204
 11
37.7940710247
 21
8.1828650442
  0
LINE
  5
45D
100
AcDbEntity
  8
RACCORDO
100
AcDbLine
 62
250
  6
CONTINUOUS
 10
37.0737654421
 20
22.9522046139
 11
37.0735338556
 21
22.9620916535
  0
LWPOLYLINE
  5
45E
100
AcDbEntity
  8
RACCORDO
100
AcDbPolyline
 62
250
  6
CONTINUOUS
 90
6
 70
0
 10
37.7728857341
 20
8.5720564063
 10
37.7733814527
 20
8.5483100017
 10
37.775012403
 20
8.5246175995
 10
37.7777748759
 20
8.5010330786
 10
37.7816625894
 20
8.4776100725
 10
37.7824573322
 20
8.4739241903
  0
LINE
  5
45F
100
AcDbEntity
  8
RACCORDO
100
AcDbLine
 62
250
  6
CONTINUOUS
 10
37.077767818
 20
-23.2431013394
 11
37.0740368658
 21
-23.0842335645
  0
LINE
  5
460
100
AcDbEntity
  8
RACCORDO
100
AcDbLine
 62
250
  6
CONTINUOUS
 10
37.7731858701
 20
-22.7617812922
 11
37.7708784137
 21
-22.6551142103
  0
LINE
  5
461
100
AcDbEntity
  8
RACCORDO
100
AcDbLine
 62
250
  6
CONTINUOUS
 10
37.7181444742
 20
8.6899171802
 11
37.7184807595
 21
8.6876206663
  0
LINE
  5
462
100
AcDbEntity
  8
RACCORDO
100
AcDbLine
 62
250
  6
CONTINUOUS
 10
37.7939692476
 20
8.2068732049
 11
37.7955365892
 21
8.1271772201
  0
LINE
  5
463
100
AcDbEntity
  8
RACCORDO
100
AcDbLine
 62
250
  6
CONTINUOUS
 10
37.7019958797
 20
-40.6519820444
 11
37.7028014957
 21
-40.694739337
  0
LINE
  5
464
100
AcDbEntity
  8
RACCORDO
100
AcDbLine
 62
7
  6
CONTINUOUS
 10
37.7940710247
 20
8.1828650442
 11
37.7956035823
 21
8.1006273898
  0
LINE
  5
465
100
AcDbEntity
  8
RACCORDO
100
AcDbLine
 62
250
  6
CONTINUOUS
 10
37.0735338556
 20
22.9620916535
 11
37.0733569907
 21
22.9721872511
  0
LINE
  5
466
100
AcDbEntity
  8
RACCORDO
100
AcDbLine
 62
7
  6
CONTINUOUS
 10
37.7174813897
 20
22.2941472516
 11
37.7177648753
 21
22.2763709947
  0
LWPOLYLINE
  5
467
100
AcDbEntity
  8
RACCORDO
100
AcDbPolyline
 62
250
  6
CONTINUOUS
 90
3
 70
0
 10
37.0785407172
 20
-23.2864048775
 10
37.0784275687
 20
-23.2791009677
 10
37.077767818
 20
-23.2431013394
  0
LWPOLYLINE
  5
468
100
AcDbEntity
  8
RACCORDO
100
AcDbPolyline
 62
250
  6
CONTINUOUS
 90
5
 70
0
 10
37.7319871002
 20
22.1643945998
 10
37.7316072468
 20
22.1888670506
 10
37.7301244592
 20
22.2133399757
 10
37.7275417521
 20
22.237763621
 10
37.7238643761
 20
22.2620883323
  0
LINE
  5
469
100
AcDbEntity
  8
RACCORDO
100
AcDbLine
 62
250
  6
CONTINUOUS
 10
37.0740368658
 20
-23.0842335645
 11
37.0735139248
 21
-23.054373791
  0
LINE
  5
46A
100
AcDbEntity
  8
RACCORDO
100
AcDbLine
 62
250
  6
CONTINUOUS
 10
37.7753575802
 20
-22.8896613852
 11
37.7731858701
 21
-22.7617812922
  0
LINE
  5
46B
100
AcDbEntity
  8
RACCORDO
100
AcDbLine
 62
250
  6
CONTINUOUS
 10
37.7955365892
 20
8.1271772201
 11
37.7967786459
 21
8.0426672484
  0
LINE
  5
46C
100
AcDbEntity
  8
RACCORDO
100
AcDbLine
 62
250
  6
CONTINUOUS
 10
37.7010727021
 20
-40.5821351386
 11
37.7019958797
 21
-40.6519820444
  0
LINE
  5
46D
100
AcDbEntity
  8
RACCORDO
100
AcDbLine
 62
7
  6
CONTINUOUS
 10
37.7956035823
 20
8.1006273898
 11
37.7968332086
 21
8.0089946222
  0
LINE
  5
46E
100
AcDbEntity
  8
RACCORDO
100
AcDbLine
 62
250
  6
CONTINUOUS
 10
37.0733569907
 20
22.9721872511
 11
37.0732330108
 21
22.9824898444
  0
LINE
  5
46F
100
AcDbEntity
  8
RACCORDO
100
AcDbLine
 62
250
  6
CONTINUOUS
 10
37.7772245908
 20
-23.0404521383
 11
37.7753575802
 21
-22.8896613852
  0
LINE
  5
470
100
AcDbEntity
  8
RACCORDO
100
AcDbLine
 62
250
  6
CONTINUOUS
 10
37.797116187
 20
8.0136654632
 11
37.7968332086
 21
8.0089946222
  0
LINE
  5
471
100
AcDbEntity
  8
RACCORDO
100
AcDbLine
 62
250
  6
CONTINUOUS
 10
37.7970353769
 20
7.9896435368
 11
37.7974152427
 21
7.9842803299
  0
LINE
  5
472
100
AcDbEntity
  8
RACCORDO
100
AcDbLine
 62
250
  6
CONTINUOUS
 10
37.0735139248
 20
-23.054373791
 11
37.0732388057
 21
-23.0313549174
  0
LWPOLYLINE
  5
473
100
AcDbEntity
  8
RACCORDO
100
AcDbPolyline
 62
250
  6
CONTINUOUS
 90
3
 70
0
 10
37.0808551169
 20
-23.6001615423
 10
37.080566795
 20
-23.5612180474
 10
37.0802849954
 20
-23.5233775845
  0
LWPOLYLINE
  5
474
100
AcDbEntity
  8
RACCORDO
100
AcDbPolyline
 62
250
  6
CONTINUOUS
 90
4
 70
0
 10
37.0802849954
 20
-23.5233775845
 10
37.0797556652
 20
-23.4507692938
 10
37.0795081348
 20
-23.4160009492
 10
37.0785407166
 20
-23.2864048775
  0
LINE
  5
475
100
AcDbEntity
  8
RACCORDO
100
AcDbLine
 62
250
  6
CONTINUOUS
 10
37.095170971
 20
-25.6755334999
 11
37.0808551169
 21
-23.6001615423
  0
LINE
  5
476
100
AcDbEntity
  8
RACCORDO
100
AcDbLine
 62
250
  6
CONTINUOUS
 10
37.7002062875
 20
-40.4767648873
 11
37.7010727021
 21
-40.5821351386
  0
LINE
  5
477
100
AcDbEntity
  8
RACCORDO
100
AcDbLine
 62
250
  6
CONTINUOUS
 10
37.7928490031
 20
-25.2564159307
 11
37.7772245908
 21
-23.0404521383
  0
LINE
  5
478
100
AcDbEntity
  8
RACCORDO
100
AcDbLine
 62
7
  6
CONTINUOUS
 10
37.7968332086
 20
8.0089946222
 11
37.797678629
 21
7.9092243123
  0
LWPOLYLINE
  5
479
100
AcDbEntity
  8
RACCORDO
100
AcDbPolyline
 62
250
  6
CONTINUOUS
 90
4
 70
0
 10
37.0979397343
 20
-26.1094677686
 10
37.0972201687
 20
-25.9954925157
 10
37.0965195814
 20
-25.8854109058
 10
37.095170971
 20
-25.6755334999
  0
LWPOLYLINE
  5
47A
100
AcDbEntity
  8
RACCORDO
100
AcDbPolyline
 62
250
  6
CONTINUOUS
 90
4
 70
0
 10
37.7967937465
 20
-25.8714060728
 10
37.7960931593
 20
-25.760469828
 10
37.7954101045
 20
-25.6529951832
 10
37.7928490031
 20
-25.2564159307
  0
LWPOLYLINE
  5
47B
100
AcDbEntity
  8
RACCORDO
100
AcDbPolyline
 62
250
  6
CONTINUOUS
 90
4
 70
0
 10
37.101012247
 20
-26.6058269075
 10
37.1002137471
 20
-26.475235508
 10
37.0994357384
 20
-26.3490525945
 10
37.0979397343
 20
-26.1094677686
  0
LWPOLYLINE
  5
47C
100
AcDbEntity
  8
RACCORDO
100
AcDbPolyline
 62
250
  6
CONTINUOUS
 90
4
 70
0
 10
37.7997873245
 20
-26.3548814171
 10
37.7990093159
 20
-26.2277157755
 10
37.7982518248
 20
-26.1050290466
 10
37.7967937465
 20
-25.8714060728
  0
LWPOLYLINE
  5
47D
100
AcDbEntity
  8
RACCORDO
100
AcDbPolyline
 62
250
  6
CONTINUOUS
 90
3
 70
0
 10
37.1035356884
 20
-27.0261951463
 10
37.1026724169
 20
-26.881002358
 10
37.101012247
 20
-26.6058269075
  0
LWPOLYLINE
  5
47E
100
AcDbEntity
  8
RACCORDO
100
AcDbPolyline
 62
250
  6
CONTINUOUS
 90
3
 70
0
 10
37.8022459942
 20
-26.7638041885
 10
37.8014048418
 20
-26.6225758686
 10
37.7997873245
 20
-26.3548814171
  0
LINE
  5
47F
100
AcDbEntity
  8
RACCORDO
100
AcDbLine
 62
250
  6
CONTINUOUS
 10
37.7978929373
 20
7.9249594802
 11
37.797678629
 21
7.9092243123
  0
LINE
  5
480
100
AcDbEntity
  8
RACCORDO
100
AcDbLine
 62
250
  6
CONTINUOUS
 10
37.1053303015
 20
-27.3326868079
 11
37.1035356884
 21
-27.0261951463
  0
LINE
  5
481
100
AcDbEntity
  8
RACCORDO
100
AcDbLine
 62
250
  6
CONTINUOUS
 10
37.0732330108
 20
22.9824898444
 11
37.0731591254
 21
22.9929979645
  0
LWPOLYLINE
  5
482
100
AcDbEntity
  8
RACCORDO
100
AcDbPolyline
 62
250
  6
CONTINUOUS
 90
3
 70
0
 10
37.8049038785
 20
-27.2190016997
 10
37.8039946721
 20
-27.0615915498
 10
37.8022459942
 20
-26.7638041885
  0
LWPOLYLINE
  5
483
100
AcDbEntity
  8
RACCORDO
100
AcDbPolyline
 62
250
  6
CONTINUOUS
 90
3
 70
0
 10
37.1082023861
 20
-27.8374691188
 10
37.1072201223
 20
-27.6626577044
 10
37.1053303015
 20
-27.3326868079
  0
LINE
  5
484
100
AcDbEntity
  8
RACCORDO
100
AcDbLine
 62
250
  6
CONTINUOUS
 10
37.8067936993
 20
-27.5515364725
 11
37.8049038785
 21
-27.2190016997
  0
LINE
  5
485
100
AcDbEntity
  8
RACCORDO
100
AcDbLine
 62
250
  6
CONTINUOUS
 10
37.1102433371
 20
-28.2075756715
 11
37.1082023861
 21
-27.8374691188
  0
LINE
  5
486
100
AcDbEntity
  8
RACCORDO
100
AcDbLine
 62
250
  6
CONTINUOUS
 10
37.8087837119
 20
-27.9107343447
 11
37.8067936993
 21
-27.5515364725
  0
LINE
  5
487
100
AcDbEntity
  8
RACCORDO
100
AcDbLine
 62
250
  6
CONTINUOUS
 10
37.1123908893
 20
-28.6087652203
 11
37.1102433371
 21
-28.2075756715
  0
LWPOLYLINE
  5
488
100
AcDbEntity
  8
RACCORDO
100
AcDbPolyline
 62
250
  6
CONTINUOUS
 90
3
 70
0
 10
37.8119644664
 20
-28.5050065687
 10
37.8108771283
 20
-28.2988188628
 10
37.8087837119
 20
-27.9107343447
  0
LINE
  5
489
100
AcDbEntity
  8
RACCORDO
100
AcDbLine
 62
250
  6
CONTINUOUS
 10
37.1146478245
 20
-29.043826669
 11
37.1123908893
 21
-28.6087652203
  0
LINE
  5
48A
100
AcDbEntity
  8
RACCORDO
100
AcDbLine
 62
250
  6
CONTINUOUS
 10
37.1170173122
 20
-29.5170256496
 11
37.1146478245
 21
-29.043826669
  0
LINE
  5
48B
100
AcDbEntity
  8
RACCORDO
100
AcDbLine
 62
250
  6
CONTINUOUS
 10
37.8153920283
 20
-29.1770223955
 11
37.8119644664
 21
-28.5050065687
  0
LINE
  5
48C
100
AcDbEntity
  8
RACCORDO
100
AcDbLine
 62
250
  6
CONTINUOUS
 10
37.8178197923
 20
-29.6756525165
 11
37.8153920283
 21
-29.1770223955
  0
LINE
  5
48D
100
AcDbEntity
  8
RACCORDO
100
AcDbLine
 62
250
  6
CONTINUOUS
 10
37.0732388057
 20
-23.0313549174
 11
37.0731310348
 21
-23.0146088091
  0
LINE
  5
48E
100
AcDbEntity
  8
RACCORDO
100
AcDbLine
 62
250
  6
CONTINUOUS
 10
37.1208107473
 20
-30.3162397478
 11
37.1170173122
 21
-29.5170256496
  0
LINE
  5
48F
100
AcDbEntity
  8
RACCORDO
100
AcDbLine
 62
250
  6
CONTINUOUS
 10
37.820384326
 20
-30.2257596278
 11
37.8178197923
 21
-29.6756525165
  0
LWPOLYLINE
  5
490
100
AcDbEntity
  8
RACCORDO
100
AcDbPolyline
 62
250
  6
CONTINUOUS
 90
3
 70
0
 10
37.1270556806
 20
-31.6851148891
 10
37.1247288133
 20
-31.2062395557
 10
37.1208107473
 20
-30.3162397478
  0
LWPOLYLINE
  5
491
100
AcDbEntity
  8
RACCORDO
100
AcDbPolyline
 62
250
  6
CONTINUOUS
 90
3
 70
0
 10
37.8256197168
 20
-31.439893851
 10
37.8243023923
 20
-31.122695919
 10
37.820384326
 20
-30.2257596278
  0
LWPOLYLINE
  5
492
100
AcDbEntity
  8
RACCORDO
100
AcDbPolyline
 62
250
  6
CONTINUOUS
 90
37
 70
0
 10
38.4874699832
 20
40.1391612197
 10
38.4947846158
 20
37.9155932977
 10
38.5016820392
 20
35.6909312526
 10
38.508162253
 20
33.4652392718
 10
38.5142254203
 20
31.2385815598
 10
38.5198713776
 20
29.0110223731
 10
38.5250996351
 20
26.7826260186
 10
38.529910156
 20
24.5534567647
 10
38.5343029767
 20
22.3235789537
 10
38.5382777172
 20
20.0930570362
 10
38.5418343412
 20
17.8619553865
 10
38.5449728848
 20
15.6303383574
 10
38.5476930765
 20
13.3982703934
 10
38.5499948803
 20
11.1658159185
 10
38.5518783321
 20
8.9330393187
 10
38.5533432692
 20
6.7000049987
 10
38.5543896555
 20
4.4667773854
 10
38.5550175271
 20
2.2334209116
 10
38.5552268297
 20
-0.0000000004
 10
38.5550175271
 20
-2.2334209124
 10
38.5543896555
 20
-4.4667773862
 10
38.5533432692
 20
-6.7000049996
 10
38.5518783321
 20
-8.9330393196
 10
38.5499948803
 20
-11.1658159194
 10
38.5476930765
 20
-13.3982703944
 10
38.5449728847
 20
-15.6303383584
 10
38.5418343412
 20
-17.8619553875
 10
38.5382777172
 20
-20.0930570373
 10
38.5343029767
 20
-22.3235789547
 10
38.529910156
 20
-24.5534567657
 10
38.5250996351
 20
-26.7826260194
 10
38.5198713776
 20
-29.0110223738
 10
38.5142254203
 20
-31.2385815604
 10
38.508162253
 20
-33.4652392723
 10
38.5016820392
 20
-35.690931253
 10
38.4947846158
 20
-37.9155932979
 10
38.4874699832
 20
-40.1391612198
  0
LINE
  5
493
100
AcDbEntity
  8
RACCORDO
100
AcDbLine
 62
250
  6
CONTINUOUS
 10
37.8256197169
 20
31.4398938664
 11
37.8393757389
 21
25.7317407214
  0
LINE
  5
494
100
AcDbEntity
  8
RACCORDO
100
AcDbLine
 62
250
  6
CONTINUOUS
 10
37.8393757389
 20
25.7317407214
 11
37.8470199485
 21
21.9234728414
  0
LINE
  5
495
100
AcDbEntity
  8
RACCORDO
100
AcDbLine
 62
7
  6
CONTINUOUS
 10
37.797678629
 20
7.9092243123
 11
37.7980656221
 21
7.8030397863
  0
LINE
  5
496
100
AcDbEntity
  8
RACCORDO
100
AcDbLine
 62
250
  6
CONTINUOUS
 10
37.8470199485
 20
21.9234728414
 11
37.8534420719
 21
18.1133913201
  0
LINE
  5
497
100
AcDbEntity
  8
RACCORDO
100
AcDbLine
 62
250
  6
CONTINUOUS
 10
37.6999430539
 20
-40.380642367
 11
37.7002062875
 21
-40.4767648873
  0
LINE
  5
498
100
AcDbEntity
  8
RACCORDO
100
AcDbLine
 62
250
  6
CONTINUOUS
 10
37.8534420719
 20
18.1133913201
 11
37.8586416857
 21
14.3017441695
  0
LINE
  5
499
100
AcDbEntity
  8
RACCORDO
100
AcDbLine
 62
250
  6
CONTINUOUS
 10
37.8586416857
 20
14.3017441695
 11
37.8626182569
 21
10.4888910931
  0
LINE
  5
49A
100
AcDbEntity
  8
RACCORDO
100
AcDbLine
 62
250
  6
CONTINUOUS
 10
37.7983683279
 20
7.8051187691
 11
37.7980656221
 21
7.8030397863
  0
LINE
  5
49B
100
AcDbEntity
  8
RACCORDO
100
AcDbLine
 62
250
  6
CONTINUOUS
 10
37.7980828581
 20
7.7812185326
 11
37.7983875132
 21
7.7751006478
  0
LINE
  5
49C
100
AcDbEntity
  8
RACCORDO
100
AcDbLine
 62
250
  6
CONTINUOUS
 10
37.8626182569
 20
10.4888910931
 11
37.8653714588
 21
6.6751936908
  0
LINE
  5
49D
100
AcDbEntity
  8
RACCORDO
100
AcDbLine
 62
250
  6
CONTINUOUS
 10
37.8653714588
 20
6.6751936908
 11
37.8669011185
 21
2.8608931479
  0
LINE
  5
49E
100
AcDbEntity
  8
RACCORDO
100
AcDbLine
 62
250
  6
CONTINUOUS
 10
37.2763660585
 20
-22.7180697477
 11
37.2763660595
 21
-22.7177651574
  0
LINE
  5
49F
100
AcDbEntity
  8
RACCORDO
100
AcDbLine
 62
7
  6
CONTINUOUS
 10
37.7
 20
-40.0986945859
 11
37.700000206
 21
-40.1396568101
  0
LINE
  5
4A0
100
AcDbEntity
  8
RACCORDO
100
AcDbLine
 62
7
  6
CONTINUOUS
 10
37.7000002006
 20
40.1396568101
 11
37.7
 21
40.0986945859
  0
LINE
  5
4A1
100
AcDbEntity
  8
ASSI
100
AcDbLine
 62
7
  6
CONTINUOUS
 10
37.7
 20
7.9
 11
37.7
 21
-7.9
  0
LINE
  5
4A2
100
AcDbEntity
  8
RACCORDO
100
AcDbLine
 62
7
  6
CONTINUOUS
 10
37.7177651569
 20
22.2763709947
 11
37.7177651569
 21
8.7093895131
  0
LINE
  5
4A3
100
AcDbEntity
  8
RACCORDO
100
AcDbLine
 62
7
  6
CONTINUOUS
 10
37.7980656221
 20
7.8030397863
 11
37.7980829267
 21
-7.7751006478
  0
LINE
  5
4A4
100
AcDbEntity
  8
RACCORDO
100
AcDbLine
 62
250
  6
CONTINUOUS
 10
37.8669011185
 20
2.8608931479
 11
37.8672070432
 21
-0.953648637
  0
LINE
  5
4A5
100
AcDbEntity
  8
RACCORDO
100
AcDbLine
 62
250
  6
CONTINUOUS
 10
37.2763709611
 20
22.7180697477
 11
37.276370944
 21
22.7177651575
  0
LINE
  5
4A6
100
AcDbEntity
  8
RACCORDO
100
AcDbLine
 62
250
  6
CONTINUOUS
 10
37.8672070432
 20
-0.953648637
 11
37.8662892523
 21
-4.7680697422
  0
LINE
  5
4A7
100
AcDbEntity
  8
RACCORDO
100
AcDbLine
 62
250
  6
CONTINUOUS
 10
37.0731591254
 20
22.9929979645
 11
37.0731364038
 21
23.0091420458
  0
LINE
  5
4A8
100
AcDbEntity
  8
RACCORDO
100
AcDbLine
 62
250
  6
CONTINUOUS
 10
37.8662892523
 20
-4.7680697422
 11
37.8641478035
 21
-8.5821289044
  0
LINE
  5
4A9
100
AcDbEntity
  8
RACCORDO
100
AcDbLine
 62
250
  6
CONTINUOUS
 10
37.8641478035
 20
-8.5821289044
 11
37.8607828511
 21
-12.3954642253
  0
LINE
  5
4AA
100
AcDbEntity
  8
RACCORDO
100
AcDbLine
 62
250
  6
CONTINUOUS
 10
37.0731310348
 20
-23.0146088091
 11
37.073118241
 21
-22.9983138961
  0
LWPOLYLINE
  5
4AB
100
AcDbEntity
  8
RACCORDO
100
AcDbPolyline
 62
250
  6
CONTINUOUS
 90
3
 70
0
 10
37.8607828511
 20
-12.3954642253
 10
37.8561947606
 20
-16.2077139179
 10
37.8534420794
 20
-18.1133864274
  0
LINE
  5
4AC
100
AcDbEntity
  8
RACCORDO
100
AcDbLine
 62
250
  6
CONTINUOUS
 10
37.7
 20
-40.1396568101
 11
37.6999430539
 21
-40.380642367
  0
LINE
  5
4AD
100
AcDbEntity
  8
RACCORDO
100
AcDbLine
 62
250
  6
CONTINUOUS
 10
37.8534420794
 20
-18.1133864274
 11
37.8470199584
 21
-21.9234675109
  0
LWPOLYLINE
  5
4AE
100
AcDbEntity
  8
RACCORDO
100
AcDbPolyline
 62
250
  6
CONTINUOUS
 90
31
 70
0
 10
37.8256197168
 20
31.4398938588
 10
37.8259142642
 20
31.6034514037
 10
37.8265629954
 20
31.7688248567
 10
37.8275709051
 20
31.9360136841
 10
37.8289431544
 20
32.1051297965
 10
37.830684262
 20
32.2760601163
 10
37.8327969339
 20
32.4484665575
 10
37.8352844743
 20
32.6223736405
 10
37.8381497682
 20
32.7977554348
 10
37.8413922782
 20
32.9741980997
 10
37.8450135208
 20
33.15172819
 10
37.8490143348
 20
33.330317534
 10
37.8533900871
 20
33.5094701447
 10
37.858140313
 20
33.6892147782
 10
37.8632634828
 20
33.8695209026
 10
37.868749757
 20
34.0498035737
 10
37.8745964507
 20
34.2300910069
 10
37.8807994002
 20
34.4103531399
 10
37.8873423652
 20
34.5899176399
 10
37.8942202688
 20
34.7688094439
 10
37.9014261069
 20
34.9470018167
 10
37.9089360142
 20
35.1237450141
 10
37.9167421907
 20
35.2990521422
 10
37.9248349315
 20
35.4729084925
 10
37.9331823909
 20
35.6445227786
 10
37.9417739151
 20
35.8138899416
 10
37.9505975019
 20
35.981013796
 10
37.9596141183
 20
36.1451166325
 10
37.9688091303
 20
36.3061511174
 10
37.9781701357
 20
36.4641638512
 10
37.9876569879
 20
36.6185183446
  0
LINE
  5
4AF
100
AcDbEntity
  8
RACCORDO
100
AcDbLine
 62
250
  6
CONTINUOUS
 10
37.8470199584
 20
-21.9234675109
 11
37.8393757498
 21
-25.7317356991
  0
LWPOLYLINE
  5
4B0
100
AcDbEntity
  8
RACCORDO
100
AcDbPolyline
 62
250
  6
CONTINUOUS
 90
3
 70
0
 10
37.8393757498
 20
-25.7317356991
 10
37.8305103903
 20
-29.5377234269
 10
37.8256197168
 20
-31.439893851
  0
LINE
  5
4B1
100
AcDbEntity
  8
RACCORDO
100
AcDbLine
 62
7
  6
CONTINUOUS
 10
37.7980831286
 20
-7.7751006478
 11
37.7978471087
 21
-7.8776831541
  0
LINE
  5
4B2
100
AcDbEntity
  8
RACCORDO
100
AcDbLine
 62
250
  6
CONTINUOUS
 10
37.7982089144
 20
-7.86541631
 11
37.7978471087
 21
-7.8776831541
  0
LINE
  5
4B3
100
AcDbEntity
  8
RACCORDO
100
AcDbLine
 62
250
  6
CONTINUOUS
 10
37.7977712305
 20
-7.893007512
 11
37.7980690016
 21
-7.895500698
  0
LINE
  5
4B4
100
AcDbEntity
  8
RACCORDO
100
AcDbLine
 62
250
  6
CONTINUOUS
 10
37.8166008192
 20
29.4223785993
 11
37.8256197169
 21
31.4398938664
  0
LINE
  5
4B5
100
AcDbEntity
  8
RACCORDO
100
AcDbLine
 62
250
  6
CONTINUOUS
 10
37.1158391282
 20
29.2797309918
 11
37.1260461379
 21
31.5210028569
  0
LINE
  5
4B6
100
AcDbEntity
  8
RACCORDO
100
AcDbLine
 62
250
  6
CONTINUOUS
 10
37.073118241
 20
-22.9983138961
 11
37.0731668453
 21
-22.987704246
  0
LINE
  5
4B7
100
AcDbEntity
  8
RACCORDO
100
AcDbLine
 62
250
  6
CONTINUOUS
 10
37.8059598703
 20
27.4039551096
 11
37.8166008192
 21
29.4223785993
  0
LINE
  5
4B8
100
AcDbEntity
  8
RACCORDO
100
AcDbLine
 62
250
  6
CONTINUOUS
 10
37.1045671309
 20
27.2014543662
 11
37.1158391282
 21
29.2797309918
  0
LWPOLYLINE
  5
4B9
100
AcDbEntity
  8
RACCORDO
100
AcDbPolyline
 62
250
  6
CONTINUOUS
 90
112
 70
0
 10
37.1260461379
 20
31.5210028569
 10
37.1270544326
 20
31.6849606713
 10
37.128801943
 20
31.8507449195
 10
37.1312886691
 20
32.018356166
 10
37.1345078146
 20
32.1879095238
 10
37.1384661758
 20
32.3592909798
 10
37.1431841415
 20
32.5321571572
 10
37.1486663952
 20
32.7065335868
 10
37.1549082535
 20
32.882395216
 10
37.1619160543
 20
33.0593222889
 10
37.1696954348
 20
33.2373421276
 10
37.1782407577
 20
33.4164272428
 10
37.1875414492
 20
33.5960750874
 10
37.1976042549
 20
33.7763148693
 10
37.208422429
 20
33.9571165343
 10
37.2199651603
 20
34.1378880113
 10
37.2322402999
 20
34.3186575532
 10
37.2452399967
 20
34.4993953817
 10
37.2589098853
 20
34.6794217132
 10
37.2732588141
 20
34.8587609741
 10
37.2882779347
 20
35.0373865821
 10
37.3038863372
 20
35.2145415726
 10
37.3200930165
 20
35.3902378316
 10
37.3368889776
 20
35.5644607872
 10
37.354166326
 20
35.7364131633
 10
37.3719330325
 20
35.9060877921
 10
37.3901811262
 20
36.0734887901
 10
37.4087788001
 20
36.2378352767
 10
37.4277291703
 20
36.3990795516
 10
37.4470291206
 20
36.5572661071
 10
37.4665374961
 20
36.7117519772
 10
37.4862861465
 20
36.8626806797
 10
37.5062432221
 20
37.0099056315
 10
37.5261720176
 20
37.1523483501
 10
37.5460734498
 20
37.2898943212
 10
37.565946602
 20
37.4226549657
 10
37.5855520186
 20
37.5498904073
 10
37.6048343089
 20
37.6712122039
 10
37.6238488636
 20
37.7870060194
 10
37.6425223999
 20
37.8976932169
 10
37.6608262185
 20
38.0031539567
 10
37.6787890187
 20
38.1035060887
 10
37.6964236156
 20
38.1995278273
 10
37.7137318334
 20
38.2912813057
 10
37.730711848
 20
38.3787030572
 10
37.7473710019
 20
38.4623831601
 10
37.7637067006
 20
38.5423455814
 10
37.7797215387
 20
38.6185654267
 10
37.7954306422
 20
38.6915596566
 10
37.8108374631
 20
38.7613705309
 10
37.8259385494
 20
38.8279551446
 10
37.8407386713
 20
38.8917028283
 10
37.8552379313
 20
38.9526319324
 10
37.8694362269
 20
39.0107236459
 10
37.8833380204
 20
39.0663116354
 10
37.8969359162
 20
39.119384707
 10
37.91023731
 20
39.1699537232
 10
37.9232688504
 20
39.2183854947
 10
37.9360321714
 20
39.264703624
 10
37.948525639
 20
39.3088842778
 10
37.9607710002
 20
39.3512231567
 10
37.972771569
 20
39.3917438785
 10
37.9845240314
 20
39.4304226615
 10
37.9960401922
 20
39.4674841364
 10
38.0073192079
 20
39.5029349302
 10
38.0183619221
 20
39.5367682964
 10
38.0291826699
 20
39.5691888259
 10
38.0397811715
 20
39.6002041624
 10
38.0501577067
 20
39.6298065755
 10
38.0603274499
 20
39.6581776101
 10
38.0702908192
 20
39.6853257314
 10
38.0800473966
 20
39.7112424109
 10
38.0896111026
 20
39.7360837146
 10
38.0989814778
 20
39.7598548835
 10
38.1081589817
 20
39.7825506302
 10
38.1171589136
 20
39.8043112354
 10
38.1259818813
 20
39.8251437692
 10
38.1346272771
 20
39.8450411274
 10
38.1431085772
 20
39.8641223359
 10
38.151426122
 20
39.8823928387
 10
38.1595795711
 20
39.8998471666
 10
38.1675813793
 20
39.9165879789
 10
38.1754355256
 20
39.9326264457
 10
38.1831380311
 20
39.9479513782
 10
38.1906894138
 20
39.9626319003
 10
38.198092996
 20
39.9766750957
 10
38.2053454555
 20
39.9900738663
 10
38.2124373438
 20
40.0028760649
 10
38.2193619758
 20
40.0150713796
 10
38.2261260367
 20
40.026670111
 10
38.2327401331
 20
40.037751032
 10
38.2392020207
 20
40.0483140875
 10
38.2455139438
 20
40.0583593243
 10
38.251693243
 20
40.0679656695
 10
38.2577415905
 20
40.0771390761
 10
38.2636573139
 20
40.0858735851
 10
38.2694527366
 20
40.0942302571
 10
38.2751287037
 20
40.1022127764
 10
38.2806843701
 20
40.1098174542
 10
38.286129523
 20
40.1170942923
 10
38.2914627408
 20
40.1240437416
 10
38.2966854451
 20
40.1306653479
 10
38.3018116882
 20
40.1370077548
 10
38.3068411899
 20
40.1430730148
 10
38.3117742304
 20
40.1488590729
 10
38.3166257019
 20
40.1544084125
 10
38.3213979608
 20
40.1597254789
 10
38.3260886509
 20
40.164805825
 10
38.3307055955
 20
40.1696785955
 10
38.3352514026
 20
40.1743535052
 10
38.3397234643
 20
40.178820838
 10
38.3441217805
 20
40.1830805934
  0
LINE
  5
4BA
100
AcDbEntity
  8
RACCORDO
100
AcDbLine
 62
250
  6
CONTINUOUS
 10
37.0731364038
 20
23.0091420458
 11
37.0732116678
 21
23.0257392053
  0
LINE
  5
4BB
100
AcDbEntity
  8
RACCORDO
100
AcDbLine
 62
250
  6
CONTINUOUS
 10
37.7956801754
 20
25.695395658
 11
37.8059598703
 21
27.4039551096
  0
LINE
  5
4BC
100
AcDbEntity
  8
RACCORDO
100
AcDbLine
 62
250
  6
CONTINUOUS
 10
37.7
 20
40.1396568101
 11
37.7012466473
 21
40.3552680059
  0
LINE
  5
4BD
100
AcDbEntity
  8
RACCORDO
100
AcDbLine
 62
250
  6
CONTINUOUS
 10
37.0785407164
 20
23.2864048771
 11
37.1045671309
 21
27.2014543662
  0
LINE
  5
4BE
100
AcDbEntity
  8
RACCORDO
100
AcDbLine
 62
7
  6
CONTINUOUS
 10
37.7978471087
 20
-7.8776831541
 11
37.7971137573
 21
-7.9816264943
  0
LINE
  5
4BF
100
AcDbEntity
  8
RACCORDO
100
AcDbLine
 62
250
  6
CONTINUOUS
 10
37.0731668453
 20
-22.987704246
 11
37.0732645901
 21
-22.977299348
  0
LINE
  5
4C0
100
AcDbEntity
  8
RACCORDO
100
AcDbLine
 62
250
  6
CONTINUOUS
 10
37.0732116678
 20
23.0257392053
 11
37.0733756937
 21
23.0427831565
  0
LINE
  5
4C1
100
AcDbEntity
  8
RACCORDO
100
AcDbLine
 62
250
  6
CONTINUOUS
 10
37.7766120107
 20
22.9845043737
 11
37.7956801754
 21
25.695395658
  0
LINE
  5
4C2
100
AcDbEntity
  8
RACCORDO
100
AcDbLine
 62
250
  6
CONTINUOUS
 10
37.7012466473
 20
40.3552680059
 11
37.7041862859
 21
40.68144274
  0
LINE
  5
4C3
100
AcDbEntity
  8
RACCORDO
100
AcDbLine
 62
7
  6
CONTINUOUS
 10
37.7971137573
 20
-7.9816264943
 11
37.7959638009
 21
-8.077119986
  0
LINE
  5
4C4
100
AcDbEntity
  8
RACCORDO
100
AcDbLine
 62
7
  6
CONTINUOUS
 10
37.7177648751
 20
-22.2763660901
 11
37.7175172474
 21
-22.2929835724
  0
LWPOLYLINE
  5
4C5
100
AcDbEntity
  8
RACCORDO
100
AcDbPolyline
 62
250
  6
CONTINUOUS
 90
6
 70
0
 10
37.7319871002
 20
-22.1643946066
 10
37.7316072197
 20
-22.1888671661
 10
37.7301244113
 20
-22.2133401846
 10
37.7275416895
 20
-22.2377639086
 10
37.7238643049
 20
-22.2620886848
 10
37.7222364712
 20
-22.2709221968
  0
LINE
  5
4C6
100
AcDbEntity
  8
RACCORDO
100
AcDbLine
 62
250
  6
CONTINUOUS
 10
37.0732645901
 20
-22.977299348
 11
37.0734133798
 21
-22.9671008988
  0
LINE
  5
4C7
100
AcDbEntity
  8
RACCORDO
100
AcDbLine
 62
250
  6
CONTINUOUS
 10
37.0733756937
 20
23.0427831565
 11
37.0737157886
 21
23.0661916509
  0
LINE
  5
4C8
100
AcDbEntity
  8
RACCORDO
100
AcDbLine
 62
250
  6
CONTINUOUS
 10
37.7745411736
 20
22.8374261775
 11
37.7766120107
 21
22.9845043737
  0
LINE
  5
4C9
100
AcDbEntity
  8
RACCORDO
100
AcDbLine
 62
250
  6
CONTINUOUS
 10
37.7041862859
 20
40.68144274
 11
37.7048897769
 21
40.7285447292
  0
LINE
  5
4CA
100
AcDbEntity
  8
RACCORDO
100
AcDbLine
 62
250
  6
CONTINUOUS
 10
37.7963931232
 20
-8.071934707
 11
37.7950389922
 21
-8.1548716073
  0
LINE
  5
4CB
100
AcDbEntity
  8
RACCORDO
100
AcDbLine
 62
7
  6
CONTINUOUS
 10
37.7959638009
 20
-8.077119986
 11
37.7947054676
 21
-8.15164027
  0
LINE
  5
4CC
100
AcDbEntity
  8
RACCORDO
100
AcDbLine
 62
250
  6
CONTINUOUS
 10
37.0779118417
 20
23.2502355467
 11
37.078540717
 21
23.2864048771
  0
LWPOLYLINE
  5
4CD
100
AcDbEntity
  8
RACCORDO
100
AcDbPolyline
 62
250
  6
CONTINUOUS
 90
6
 70
0
 10
37.7728857341
 20
-8.5720564063
 10
37.7733814522
 20
-8.5483100115
 10
37.7750124012
 20
-8.5246176183
 10
37.7777748721
 20
-8.5010331059
 10
37.7816625827
 20
-8.4776101076
 10
37.7824568747
 20
-8.4739263145
  0
LINE
  5
4CE
100
AcDbEntity
  8
RACCORDO
100
AcDbLine
 62
250
  6
CONTINUOUS
 10
37.7721999791
 20
22.7133801605
 11
37.7745411736
 21
22.8374261775
  0
LWPOLYLINE
  5
4CF
100
AcDbEntity
  8
RACCORDO
100
AcDbPolyline
 62
250
  6
CONTINUOUS
 90
8
 70
0
 10
37.7048897769
 20
40.7285447292
 10
37.7052405649
 20
40.7458717753
 10
37.7054153568
 20
40.7529263868
 10
37.7055897393
 20
40.7588927728
 10
37.7057634052
 20
40.7637613817
 10
37.705936252
 20
40.7675244293
 10
37.706108382
 20
40.7701759041
 10
37.7062797953
 20
40.771711568
  0
LINE
  5
4D0
100
AcDbEntity
  8
RACCORDO
100
AcDbLine
 62
250
  6
CONTINUOUS
 10
37.0737157886
 20
23.0661916509
 11
37.0744382505
 21
23.1027319767
  0
LINE
  5
4D1
100
AcDbEntity
  8
RACCORDO
100
AcDbLine
 62
250
  6
CONTINUOUS
 10
37.0734133798
 20
-22.9671008988
 11
37.0736160329
 21
-22.9571103017
  0
LINE
  5
4D2
100
AcDbEntity
  8
RACCORDO
100
AcDbLine
 62
250
  6
CONTINUOUS
 10
37.7950389922
 20
-8.1548716073
 11
37.7933681884
 21
-8.2326095838
  0
LINE
  5
4D3
100
AcDbEntity
  8
RACCORDO
100
AcDbLine
 62
7
  6
CONTINUOUS
 10
37.7947054676
 20
-8.15164027
 11
37.7932444023
 21
-8.2190960728
  0
LINE
  5
4D4
100
AcDbEntity
  8
RACCORDO
100
AcDbLine
 62
250
  6
CONTINUOUS
 10
37.0764973461
 20
23.187469818
 11
37.0779118417
 21
23.2502355467
  0
LINE
  5
4D5
100
AcDbEntity
  8
RACCORDO
100
AcDbLine
 62
250
  6
CONTINUOUS
 10
37.0744382505
 20
23.1027319767
 11
37.0764973461
 21
23.187469818
  0
LINE
  5
4D6
100
AcDbEntity
  8
RACCORDO
100
AcDbLine
 62
250
  6
CONTINUOUS
 10
37.7700408491
 20
22.6215100738
 11
37.7721999791
 21
22.7133801605
  0
LINE
  5
4D7
100
AcDbEntity
  8
RACCORDO
100
AcDbLine
 62
250
  6
CONTINUOUS
 10
37.7180697464
 20
-22.2763658034
 11
37.7176513699
 21
-22.2923947325
  0
LINE
  5
4D8
100
AcDbEntity
  8
RACCORDO
100
AcDbLine
 62
250
  6
CONTINUOUS
 10
37.0736160329
 20
-22.9571103017
 11
37.0738752503
 21
-22.9473288579
  0
LINE
  5
4D9
100
AcDbEntity
  8
RACCORDO
100
AcDbLine
 62
7
  6
CONTINUOUS
 10
37.7932444023
 20
-8.2190960728
 11
37.7919037563
 21
-8.2698028014
  0
LINE
  5
4DA
100
AcDbEntity
  8
RACCORDO
100
AcDbLine
 62
250
  6
CONTINUOUS
 10
37.7933681884
 20
-8.2326095838
 11
37.7914025966
 21
-8.3042732962
  0
LINE
  5
4DB
100
AcDbEntity
  8
RACCORDO
100
AcDbLine
 62
250
  6
CONTINUOUS
 10
37.7679621148
 20
22.5469219122
 11
37.7700408491
 21
22.6215100738
  0
LINE
  5
4DC
100
AcDbEntity
  8
RACCORDO
100
AcDbLine
 62
7
  6
CONTINUOUS
 10
37.7919037563
 20
-8.2698028014
 11
37.7904763583
 21
-8.3154654124
  0
LINE
  5
4DD
100
AcDbEntity
  8
RACCORDO
100
AcDbLine
 62
250
  6
CONTINUOUS
 10
37.7914025966
 20
-8.3042732962
 11
37.7899393446
 21
-8.3482938754
  0
LINE
  5
4DE
100
AcDbEntity
  8
RACCORDO
100
AcDbLine
 62
250
  6
CONTINUOUS
 10
37.7657235124
 20
22.4780667851
 11
37.7679621148
 21
22.5469219122
  0
LINE
  5
4DF
100
AcDbEntity
  8
RACCORDO
100
AcDbLine
 62
250
  6
CONTINUOUS
 10
37.0738752503
 20
-22.9473288579
 11
37.0741928083
 21
-22.9377579726
  0
LINE
  5
4E0
100
AcDbEntity
  8
RACCORDO
100
AcDbLine
 62
7
  6
CONTINUOUS
 10
37.7904763583
 20
-8.3154654124
 11
37.7892898356
 21
-8.3483081315
  0
LINE
  5
4E1
100
AcDbEntity
  8
RACCORDO
100
AcDbLine
 62
250
  6
CONTINUOUS
 10
37.7636902961
 20
22.4238184801
 11
37.7657235124
 21
22.4780667851
  0
LINE
  5
4E2
100
AcDbEntity
  8
RACCORDO
100
AcDbLine
 62
250
  6
CONTINUOUS
 10
37.7899393446
 20
-8.3482938754
 11
37.7883622965
 21
-8.3890360974
  0
LINE
  5
4E3
100
AcDbEntity
  8
RACCORDO
100
AcDbLine
 62
250
  6
CONTINUOUS
 10
37.0741928083
 20
-22.9377579726
 11
37.0745713333
 21
-22.9283987726
  0
LINE
  5
4E4
100
AcDbEntity
  8
RACCORDO
100
AcDbLine
 62
7
  6
CONTINUOUS
 10
37.7892898356
 20
-8.3483081315
 11
37.7880792139
 21
-8.377878917
  0
LINE
  5
4E5
100
AcDbEntity
  8
RACCORDO
100
AcDbLine
 62
250
  6
CONTINUOUS
 10
37.761923761
 20
22.3820923876
 11
37.7636902961
 21
22.4238184801
  0
LWPOLYLINE
  5
4E6
100
AcDbEntity
  8
RACCORDO
100
AcDbPolyline
 62
250
  6
CONTINUOUS
 90
4
 70
0
 10
37.7883622965
 20
-8.3890360974
 10
37.7866798936
 20
-8.4262627911
 10
37.7858002231
 20
-8.4435277791
 10
37.7848987337
 20
-8.4598087806
  0
LINE
  5
4E7
100
AcDbEntity
  8
RACCORDO
100
AcDbLine
 62
7
  6
CONTINUOUS
 10
37.7880792139
 20
-8.377878917
 11
37.7871643681
 21
-8.3978807993
  0
LINE
  5
4E8
100
AcDbEntity
  8
RACCORDO
100
AcDbLine
 62
250
  6
CONTINUOUS
 10
37.7604681197
 20
22.351046826
 11
37.761923761
 21
22.3820923876
  0
LWPOLYLINE
  5
4E9
100
AcDbEntity
  8
RACCORDO
100
AcDbPolyline
 62
250
  6
CONTINUOUS
 90
82
 70
0
 10
37.0745713333
 20
-22.9283987726
 10
37.0750133387
 20
-22.9192523505
 10
37.0752584634
 20
-22.9147593336
 10
37.0755204782
 20
-22.9103198651
 10
37.0757993927
 20
-22.9059341154
 10
37.0760951974
 20
-22.9016022443
 10
37.0764086758
 20
-22.8973242586
 10
37.0767398377
 20
-22.8931003071
 10
37.0770886734
 20
-22.8889305358
 10
37.077455937
 20
-22.8848149463
 10
37.0778416384
 20
-22.8807536661
 10
37.0782457676
 20
-22.8767468279
 10
37.0786690497
 20
-22.8727944395
 10
37.0791114933
 20
-22.868896615
 10
37.0795730897
 20
-22.8650534659
 10
37.0800545374
 20
-22.8612649934
 10
37.0805558447
 20
-22.8575312997
 10
37.0810770031
 20
-22.8538524742
 10
37.0816186858
 20
-22.8502284967
 10
37.0821809016
 20
-22.8466594502
 10
37.0827636416
 20
-22.8431454115
 10
37.0833675519
 20
-22.8396863496
 10
37.0839926425
 20
-22.8362823266
 10
37.0846389034
 20
-22.8329334098
 10
37.0853069512
 20
-22.8296395739
 10
37.0859967946
 20
-22.8264008676
 10
37.0867084248
 20
-22.8232173407
 10
37.0874424322
 20
-22.820088967
 10
37.0881988244
 20
-22.817015786
 10
37.0889775938
 20
-22.8139978257
 10
37.0897793073
 20
-22.8110350411
 10
37.0906039727
 20
-22.8081274568
 10
37.0914515823
 20
-22.8052750866
 10
37.0923226801
 20
-22.8024778675
 10
37.0932172777
 20
-22.7997357992
 10
37.0941353635
 20
-22.7970488937
 10
37.095077447
 20
-22.7944171044
 10
37.0960435374
 20
-22.7918404196
 10
37.0970336255
 20
-22.7893188335
 10
37.0980481932
 20
-22.7868523044
 10
37.0990872461
 20
-22.7844408158
 10
37.1001507787
 20
-22.7820843361
 10
37.1012392564
 20
-22.7797827961
 10
37.1023526856
 20
-22.7775361649
 10
37.10349106
 20
-22.7753443979
 10
37.1046548265
 20
-22.7732074039
 10
37.1058439932
 20
-22.7711251358
 10
37.1070585522
 20
-22.7690975405
 10
37.1082989263
 20
-22.7671245169
 10
37.1095651251
 20
-22.7652060039
 10
37.1108571391
 20
-22.763341939
 10
37.1121753627
 20
-22.7615322178
 10
37.1135198055
 20
-22.7597767668
 10
37.1148904578
 20
-22.7580755127
 10
37.1162876847
 20
-22.7564283499
 10
37.1177114939
 20
-22.7548351957
 10
37.1191618778
 20
-22.7532959619
 10
37.1206391789
 20
-22.7518105331
 10
37.1221434038
 20
-22.7503788159
 10
37.1236745459
 20
-22.7490007098
 10
37.1252329277
 20
-22.7476760873
 10
37.1268185553
 20
-22.7464048447
 10
37.1284314225
 20
-22.7451868708
 10
37.130071834
 20
-22.7440220261
 10
37.1317397979
 20
-22.7429101958
 10
37.1334353061
 20
-22.7418512607
 10
37.1351586382
 20
-22.7408450756
 10
37.1369097959
 20
-22.7398915199
 10
37.1386887775
 20
-22.7389904615
 10
37.1404958577
 20
-22.7381417404
 10
37.1423310491
 20
-22.7373452238
 10
37.1441943391
 20
-22.7366007783
 10
37.1460859651
 20
-22.7359082467
 10
37.1480059267
 20
-22.735267493
 10
37.1499542243
 20
-22.7346783711
 10
37.1519310965
 20
-22.734140713
 10
37.1539365575
 20
-22.7336543735
 10
37.1559705932
 20
-22.7332192062
 10
37.1580333987
 20
-22.7328350477
 10
37.1601250394
 20
-22.7325017442
 10
37.1622454501
 20
-22.7322191467
 10
37.1643946307
 20
-22.7319870978
  0
LINE
  5
4EA
100
AcDbEntity
  8
RACCORDO
100
AcDbLine
 62
7
  6
CONTINUOUS
 10
37.7871643681
 20
-8.3978807993
 11
37.786251708
 21
-8.4160271038
  0
LINE
  5
4EB
100
AcDbEntity
  8
RACCORDO
100
AcDbLine
 62
250
  6
CONTINUOUS
 10
37.7589785131
 20
22.3221147167
 11
37.7604681197
 21
22.351046826
  0
LINE
  5
4EC
100
AcDbEntity
  8
RACCORDO
100
AcDbLine
 62
7
  6
CONTINUOUS
 10
37.786251708
 20
-8.4160271038
 11
37.7853534579
 21
-8.4322381562
  0
LINE
  5
4ED
100
AcDbEntity
  8
RACCORDO
100
AcDbLine
 62
250
  6
CONTINUOUS
 10
37.7574584235
 20
22.2953259373
 11
37.7589785131
 21
22.3221147167
  0
LWPOLYLINE
  5
4EE
100
AcDbEntity
  8
RACCORDO
100
AcDbPolyline
 62
250
  6
CONTINUOUS
 90
13
 70
0
 10
37.7848987337
 20
-8.4598087806
 10
37.783974965
 20
-8.4751045721
 10
37.7830293776
 20
-8.4894163772
 10
37.7820670845
 20
-8.5026632395
 10
37.7810877967
 20
-8.5148365772
 10
37.7800918033
 20
-8.5259449721
 10
37.779085085
 20
-8.5359332129
 10
37.778067627
 20
-8.5447892881
 10
37.777039444
 20
-8.5525252092
 10
37.7760065608
 20
-8.5591217992
 10
37.7749709855
 20
-8.564572666
 10
37.7739307099
 20
-8.5688842016
 10
37.7728857341
 20
-8.5720564063
  0
LINE
  5
4EF
100
AcDbEntity
  8
RACCORDO
100
AcDbLine
 62
7
  6
CONTINUOUS
 10
37.7853534579
 20
-8.4322381562
 11
37.7844787563
 21
-8.4465087218
  0
LINE
  5
4F0
100
AcDbEntity
  8
RACCORDO
100
AcDbLine
 62
250
  6
CONTINUOUS
 10
37.756300589
 20
22.2766573812
 11
37.7574584235
 21
22.2953259373
  0
LINE
  5
4F1
100
AcDbEntity
  8
RACCORDO
100
AcDbLine
 62
250
  6
CONTINUOUS
 10
37.9876569879
 20
36.6185183446
 11
38.0069749875
 21
36.9165414215
  0
LINE
  5
4F2
100
AcDbEntity
  8
RACCORDO
100
AcDbLine
 62
7
  6
CONTINUOUS
 10
37.7844787563
 20
-8.4465087218
 11
37.7839184285
 21
-8.4548959255
  0
LINE
  5
4F3
100
AcDbEntity
  8
RACCORDO
100
AcDbLine
 62
250
  6
CONTINUOUS
 10
37.7551292035
 20
22.259218728
 11
37.756300589
 21
22.2766573812
  0
LINE
  5
4F4
100
AcDbEntity
  8
RACCORDO
100
AcDbLine
 62
250
  6
CONTINUOUS
 10
38.0069749875
 20
36.9165414215
 11
38.0264139063
 21
37.1966192891
  0
LINE
  5
4F5
100
AcDbEntity
  8
RACCORDO
100
AcDbLine
 62
7
  6
CONTINUOUS
 10
37.7839184285
 20
-8.4548959255
 11
37.7833848256
 21
-8.4623336505
  0
LINE
  5
4F6
100
AcDbEntity
  8
RACCORDO
100
AcDbLine
 62
250
  6
CONTINUOUS
 10
37.7539457998
 20
22.2430174977
 11
37.7551292035
 21
22.259218728
  0
LINE
  5
4F7
100
AcDbEntity
  8
RACCORDO
100
AcDbLine
 62
250
  6
CONTINUOUS
 10
38.0264139063
 20
37.1966192891
 11
38.0457032246
 21
37.4569228212
  0
LINE
  5
4F8
100
AcDbEntity
  8
RACCORDO
100
AcDbLine
 62
7
  6
CONTINUOUS
 10
37.7833848256
 20
-8.4623336505
 11
37.7828873545
 21
-8.4687684289
  0
LINE
  5
4F9
100
AcDbEntity
  8
RACCORDO
100
AcDbLine
 62
250
  6
CONTINUOUS
 10
37.7531509919
 20
22.2329073339
 11
37.7539457998
 21
22.2430174977
  0
LINE
  5
4FA
100
AcDbEntity
  8
RACCORDO
100
AcDbLine
 62
250
  6
CONTINUOUS
 10
38.0457032246
 20
37.4569228212
 11
38.064452067
 21
37.6945095202
  0
LWPOLYLINE
  5
4FB
100
AcDbEntity
  8
RACCORDO
100
AcDbPolyline
 62
250
  6
CONTINUOUS
 90
3
 70
0
 10
38.064452067
 20
37.6945095202
 10
38.0825935616
 20
37.9111719979
 10
38.0914008914
 20
38.0117867199
  0
LINE
  5
4FC
100
AcDbEntity
  8
RACCORDO
100
AcDbLine
 62
250
  6
CONTINUOUS
 10
37.7523519395
 20
22.2233511637
 11
37.7531509919
 21
22.2329073339
  0
LINE
  5
4FD
100
AcDbEntity
  8
RACCORDO
100
AcDbLine
 62
7
  6
CONTINUOUS
 10
37.7828873545
 20
-8.4687684289
 11
37.7824367065
 21
-8.4741628431
  0
LINE
  5
4FE
100
AcDbEntity
  8
RACCORDO
100
AcDbLine
 62
250
  6
CONTINUOUS
 10
37.7515491695
 20
22.2143504751
 11
37.7523519395
 21
22.2233511637
  0
LINE
  5
4FF
100
AcDbEntity
  8
RACCORDO
100
AcDbLine
 62
7
  6
CONTINUOUS
 10
37.7824367065
 20
-8.4741628431
 11
37.7820479483
 21
-8.4784603359
  0
LINE
  5
500
100
AcDbEntity
  8
RACCORDO
100
AcDbLine
 62
250
  6
CONTINUOUS
 10
37.7507432038
 20
22.2059060168
 11
37.7515491695
 21
22.2143504751
  0
LWPOLYLINE
  5
501
100
AcDbEntity
  8
RACCORDO
100
AcDbPolyline
 62
7
  6
CONTINUOUS
 90
4
 70
0
 10
37.7820479483
 20
-8.4784603359
 10
37.7817479791
 20
-8.4815138471
 10
37.7816395961
 20
-8.4825453946
 10
37.7815649279
 20
-8.4832255552
  0
LINE
  5
502
100
AcDbEntity
  8
RACCORDO
100
AcDbLine
 62
250
  6
CONTINUOUS
 10
37.7499343886
 20
22.1980181393
 11
37.7507432038
 21
22.2059060168
  0
LWPOLYLINE
  5
503
100
AcDbEntity
  8
RACCORDO
100
AcDbPolyline
 62
250
  6
CONTINUOUS
 90
5
 70
0
 10
37.7252269364
 20
-8.624044291
 10
37.7221632687
 20
-8.6442432128
 10
37.7198462214
 20
-8.6658893456
 10
37.718480843
 20
-8.6876186227
 10
37.7180697434
 20
-8.7093895131
  0
LINE
  5
504
100
AcDbEntity
  8
RACCORDO
100
AcDbLine
 62
250
  6
CONTINUOUS
 10
37.7296328435
 20
-8.6013656304
 11
37.7255800734
 21
-8.621947057
  0
LINE
  5
505
100
AcDbEntity
  8
RACCORDO
100
AcDbLine
 62
250
  6
CONTINUOUS
 10
37.7347710938
 20
-8.5802161325
 11
37.7296328435
 21
-8.6013656304
  0
LINE
  5
506
100
AcDbEntity
  8
RACCORDO
100
AcDbLine
 62
250
  6
CONTINUOUS
 10
37.7408324863
 20
-8.5593135232
 11
37.7347710938
 21
-8.5802161325
  0
LINE
  5
507
100
AcDbEntity
  8
RACCORDO
100
AcDbLine
 62
250
  6
CONTINUOUS
 10
37.747805435
 20
-8.5386977557
 11
37.7408324863
 21
-8.5593135232
  0
LINE
  5
508
100
AcDbEntity
  8
RACCORDO
100
AcDbLine
 62
250
  6
CONTINUOUS
 10
37.7533902224
 20
-8.5240360125
 11
37.747805435
 21
-8.5386977557
  0
LWPOLYLINE
  5
509
100
AcDbEntity
  8
RACCORDO
100
AcDbPolyline
 62
7
  6
CONTINUOUS
 90
11
 70
0
 10
37.7534294611
 20
-8.5239377364
 10
37.7511957356
 20
-8.5296314114
 10
37.7437050655
 20
-8.5504334514
 10
37.7371173669
 20
-8.5716299332
 10
37.7314439192
 20
-8.5932359347
 10
37.7267104168
 20
-8.6152340982
 10
37.7229540643
 20
-8.6375425756
 10
37.7202028406
 20
-8.6600768226
 10
37.718474268
 20
-8.6827698597
 10
37.7177797187
 20
-8.7055740151
 10
37.7177651569
 20
-22.2763660901
  0
LINE
  5
50A
100
AcDbEntity
  8
RACCORDO
100
AcDbLine
 62
7
  6
CONTINUOUS
 10
37.784505945
 20
-8.4460803138
 11
37.7533902224
 21
-8.5240360125
  0
LINE
  5
50B
100
AcDbEntity
  8
RACCORDO
100
AcDbLine
 62
250
  6
CONTINUOUS
 10
37.7728857341
 20
-8.5720564063
 11
37.7180697434
 21
-8.7093895131
  0
LWPOLYLINE
  5
50C
100
AcDbEntity
  8
RACCORDO
100
AcDbPolyline
 62
7
  6
CONTINUOUS
 90
6
 70
0
 10
38.1706748201
 20
40.1654055957
 10
38.1288958466
 20
40.160648963
 10
38.0877775384
 20
40.1556841326
 10
38.0473282464
 20
40.1504889705
 10
38.0075396198
 20
40.1450856123
 10
37.9684116584
 20
40.1394740588
  0
LWPOLYLINE
  5
50D
100
AcDbEntity
  8
RACCORDO
100
AcDbPolyline
 62
7
  6
CONTINUOUS
 90
4
 70
0
 10
38.3441217805
 20
40.1830805934
 10
38.2998087102
 20
40.1788690018
 10
38.2561312519
 20
40.1745156155
 10
38.1706748201
 20
40.1654055957
  0
LWPOLYLINE
  5
50E
100
AcDbEntity
  8
RACCORDO
100
AcDbPolyline
 62
7
  6
CONTINUOUS
 90
34
 70
0
 10
38.3441217806
 20
40.1830805934
 10
38.3499355558
 20
40.1835661933
 10
38.3555882317
 20
40.1839411381
 10
38.3610782447
 20
40.1842089788
 10
38.366398477
 20
40.1843707997
 10
38.3715534626
 20
40.1844335274
 10
38.3765592783
 20
40.1844089076
 10
38.3814143765
 20
40.184301342
 10
38.3861186193
 20
40.1841135585
 10
38.3906900739
 20
40.1838532076
 10
38.3951302175
 20
40.1835237638
 10
38.3994362444
 20
40.1831277004
 10
38.4036195051
 20
40.18266974
 10
38.4076828216
 20
40.1821528775
 10
38.4116224306
 20
40.181579611
 10
38.4154397742
 20
40.1809534139
 10
38.4191326529
 20
40.1802784974
 10
38.4227033057
 20
40.1795568345
 10
38.4261597266
 20
40.1787882057
 10
38.4295001186
 20
40.1779771414
 10
38.4327266734
 20
40.1771250383
 10
38.435852723
 20
40.1762260828
 10
38.4388869359
 20
40.1752819383
 10
38.4418204416
 20
40.1742956958
 10
38.4446403678
 20
40.1732640297
 10
38.4473483299
 20
40.1721937165
 10
38.4499447954
 20
40.1710850388
 10
38.452416544
 20
40.1699268944
 10
38.4547656261
 20
40.1687325635
 10
38.4569946054
 20
40.1674977843
 10
38.4590924541
 20
40.1661873975
 10
38.4610581506
 20
40.1647938594
 10
38.4629000973
 20
40.1633357491
 10
38.4646223546
 20
40.1618180559
  0
LWPOLYLINE
  5
50F
100
AcDbEntity
  8
RACCORDO
100
AcDbPolyline
 62
7
  6
CONTINUOUS
 90
3
 70
0
 10
-38.2561312474
 20
40.174515618
 10
-38.2998087092
 20
40.1788690045
 10
-38.3441217831
 20
40.1830805964
  0
LINE
  5
510
100
AcDbEntity
  8
RACCORDO
100
AcDbLine
 62
7
  6
CONTINUOUS
 10
37.7533902224
 20
8.5240360125
 11
37.7845066183
 21
8.446078627
  0
LINE
  5
511
100
AcDbEntity
  8
RACCORDO
100
AcDbLine
 62
250
  6
CONTINUOUS
 10
37.7180697434
 20
8.7093895131
 11
37.7728857341
 21
8.5720564063
  0
LWPOLYLINE
  5
512
100
AcDbEntity
  8
RACCORDO
100
AcDbPolyline
 62
7
  6
CONTINUOUS
 90
10
 70
0
 10
37.7533902224
 20
8.5240360125
 10
37.7459250724
 20
8.5439599693
 10
37.7393118767
 20
8.5641915165
 10
37.7335637977
 20
8.5846937084
 10
37.7286922409
 20
8.6054295071
 10
37.7247072382
 20
8.6263600683
 10
37.7216171484
 20
8.6474447501
 10
37.719428157
 20
8.6686435506
 10
37.7181444742
 20
8.6899171802
 10
37.7177651569
 20
8.7093895131
  0
LWPOLYLINE
  5
513
100
AcDbEntity
  8
RACCORDO
100
AcDbPolyline
 62
250
  6
CONTINUOUS
 90
13
 70
0
 10
37.7728857341
 20
8.5720564063
 10
37.7739349286
 20
8.5688665283
 10
37.7749789096
 20
8.5645334736
 10
37.7760176769
 20
8.5590572421
 10
37.777053233
 20
8.5524299502
 10
37.7780835756
 20
8.5446594816
 10
37.7791026971
 20
8.5357694872
 10
37.7801105739
 20
8.5257479578
 10
37.7811072297
 20
8.5146069027
 10
37.7820867289
 20
8.5024060006
 10
37.7830486972
 20
8.4891384713
 10
37.7839935089
 20
8.4748110949
 10
37.7849163512
 20
8.4595038907
  0
LWPOLYLINE
  5
514
100
AcDbEntity
  8
RACCORDO
100
AcDbPolyline
 62
7
  6
CONTINUOUS
 90
6
 70
0
 10
37.7815304774
 20
8.4835352924
 10
37.7815128832
 20
8.4836770417
 10
37.7815399351
 20
8.4834446731
 10
37.7816133901
 20
8.4827843929
 10
37.7817245886
 20
8.4817360112
 10
37.7818710741
 20
8.4802891677
  0
LWPOLYLINE
  5
515
100
AcDbEntity
  8
RACCORDO
100
AcDbPolyline
 62
250
  6
CONTINUOUS
 90
45
 70
0
 10
37.7495308971
 20
-22.1942633883
 10
37.74912509
 20
-22.190667893
 10
37.7487188795
 20
-22.1872115328
 10
37.7483122668
 20
-22.1838943781
 10
37.7479052507
 20
-22.1807163584
 10
37.747498006
 20
-22.1776772101
 10
37.7470905339
 20
-22.1747769995
 10
37.7466828333
 20
-22.1720156603
 10
37.7462750756
 20
-22.16939273
 10
37.7458672615
 20
-22.1669082682
 10
37.7454593903
 20
-22.1645622152
 10
37.7450516322
 20
-22.1623539296
 10
37.7446439872
 20
-22.1602834685
 10
37.7442364551
 20
-22.1583507748
 10
37.7438292056
 20
-22.1565550357
 10
37.7434222386
 20
-22.1548963079
 10
37.7430155542
 20
-22.1533745347
 10
37.7426093218
 20
-22.1519887336
 10
37.7422035422
 20
-22.1507389639
 10
37.7417982146
 20
-22.1496251664
 10
37.7413935064
 20
-22.1486461806
 10
37.7409894186
 20
-22.147802065
 10
37.7405859502
 20
-22.1470927612
 10
37.7401832651
 20
-22.1465169338
 10
37.7397813647
 20
-22.1460746388
 10
37.7393802476
 20
-22.1457658203
 10
37.7389800738
 20
-22.1455889754
 10
37.7385808442
 20
-22.1455441577
 10
37.7381825579
 20
-22.1456313136
 10
37.7377853722
 20
-22.1458487796
 10
37.7373892896
 20
-22.1461966046
 10
37.7369943075
 20
-22.1466747396
 10
37.736600576
 20
-22.1472813741
 10
37.7362080953
 20
-22.1480165579
 10
37.7358168652
 20
-22.1488802411
 10
37.7354270352
 20
-22.149870464
 10
37.7350386084
 20
-22.1509872675
 10
37.7346515818
 20
-22.1522306106
 10
37.7342660963
 20
-22.1535984112
 10
37.7338821518
 20
-22.1550907178
 10
37.7334997484
 20
-22.1567074819
 10
37.7331190274
 20
-22.1584464756
 10
37.7327400359
 20
-22.1603069563
 10
37.7323627269
 20
-22.1622896667
 10
37.7319871002
 20
-22.1643946066
  0
LINE
  5
516
100
AcDbEntity
  8
RACCORDO
100
AcDbLine
 62
250
  6
CONTINUOUS
 10
37.7197514459
 20
22.2596621858
 11
37.7213950613
 21
22.244124498
  0
LINE
  5
517
100
AcDbEntity
  8
RACCORDO
100
AcDbLine
 62
250
  6
CONTINUOUS
 10
37.7180697434
 20
22.2763707199
 11
37.7197514459
 21
22.2596621858
  0
LINE
  5
518
100
AcDbEntity
  8
RACCORDO
100
AcDbLine
 62
250
  6
CONTINUOUS
 10
37.7197515722
 20
-22.259655871
 11
37.7180697434
 21
-22.2763658338
  0
LINE
  5
519
100
AcDbEntity
  8
RACCORDO
100
AcDbLine
 62
250
  6
CONTINUOUS
 10
37.7213952744
 20
-22.2441173933
 11
37.7197515722
 21
-22.259655871
  0
LINE
  5
51A
100
AcDbEntity
  8
RACCORDO
100
AcDbLine
 62
250
  6
CONTINUOUS
 10
37.723001721
 20
-22.2297290013
 11
37.7213952744
 21
-22.2441173933
  0
LINE
  5
51B
100
AcDbEntity
  8
RACCORDO
100
AcDbLine
 62
250
  6
CONTINUOUS
 10
37.7245738918
 20
-22.2164174842
 11
37.723001721
 21
-22.2297290013
  0
LINE
  5
51C
100
AcDbEntity
  8
RACCORDO
100
AcDbLine
 62
250
  6
CONTINUOUS
 10
37.7261140091
 20
-22.204128203
 11
37.7245738918
 21
-22.2164174842
  0
LWPOLYLINE
  5
51D
100
AcDbEntity
  8
RACCORDO
100
AcDbPolyline
 62
7
  6
CONTINUOUS
 90
3
 70
0
 10
37.7220430494
 20
-22.2721338069
 10
37.7220979864
 20
-22.2717840816
 10
37.7222432324
 20
-22.270885479
  0
LWPOLYLINE
  5
51E
100
AcDbEntity
  8
RACCORDO
100
AcDbPolyline
 62
250
  6
CONTINUOUS
 90
8
 70
0
 10
37.7319871002
 20
-22.1643946066
 10
37.7312761546
 20
-22.1685822596
 10
37.7305586804
 20
-22.1729902995
 10
37.7298346777
 20
-22.1776187265
 10
37.7291043578
 20
-22.1824627161
 10
37.7283675093
 20
-22.1875270927
 10
37.7276234979
 20
-22.1928263299
 10
37.7261140091
 20
-22.204128203
  0
LWPOLYLINE
  5
51F
100
AcDbEntity
  8
RACCORDO
100
AcDbPolyline
 62
7
  6
CONTINUOUS
 90
3
 70
0
 10
37.7222364712
 20
-22.2709221968
 10
37.7220485833
 20
-22.2719578654
 10
37.7216743009
 20
-22.2739091874
  0
LINE
  5
520
100
AcDbEntity
  8
RACCORDO
100
AcDbLine
 62
250
  6
CONTINUOUS
 10
37.7220485833
 20
-22.2719578654
 11
37.7216938388
 21
-22.2738097214
  0
LWPOLYLINE
  5
521
100
AcDbEntity
  8
RACCORDO
100
AcDbPolyline
 62
7
  6
CONTINUOUS
 90
4
 70
0
 10
37.7216938388
 20
-22.2738097214
 10
37.7212040858
 20
-22.2762680858
 10
37.7202416252
 20
-22.2809092535
 10
37.7191130451
 20
-22.2860783743
  0
LWPOLYLINE
  5
522
100
AcDbEntity
  8
RACCORDO
100
AcDbPolyline
 62
7
  6
CONTINUOUS
 90
54
 70
0
 10
37.7191130451
 20
-22.2860783743
 10
37.7178085424
 20
-22.2917471698
 10
37.7163163018
 20
-22.2978953152
 10
37.7146190428
 20
-22.3045219801
 10
37.7127048336
 20
-22.3116019781
 10
37.7105723951
 20
-22.3190737325
 10
37.7082058414
 20
-22.3269307606
 10
37.7055938551
 20
-22.3351497151
 10
37.7027471872
 20
-22.3436437091
 10
37.699658117
 20
-22.3523905446
 10
37.6963135221
 20
-22.3613836355
 10
37.6927214168
 20
-22.370562193
 10
37.6888766262
 20
-22.3799056879
 10
37.6847680707
 20
-22.3894085435
 10
37.6803980033
 20
-22.399035359
 10
37.6757593828
 20
-22.4087741489
 10
37.6708455026
 20
-22.4186124703
 10
37.6656611946
 20
-22.4285166035
 10
37.6602031721
 20
-22.438471383
 10
37.65446447
 20
-22.44846882
 10
37.6484460478
 20
-22.4584876773
 10
37.6421442785
 20
-22.4685157785
 10
37.6355548586
 20
-22.4785423545
 10
37.6286787378
 20
-22.488549296
 10
37.6215131901
 20
-22.4985248766
 10
37.6140554753
 20
-22.5084577025
 10
37.6063074728
 20
-22.5183308576
 10
37.5982677031
 20
-22.5281325961
 10
37.5899348816
 20
-22.5378512593
 10
37.5813121812
 20
-22.5474705992
 10
37.5724012034
 20
-22.5569770669
 10
37.5632006144
 20
-22.5663606691
 10
37.5537099351
 20
-22.575610609
 10
37.5439325549
 20
-22.5847126841
 10
37.5338679649
 20
-22.5936567819
 10
37.5235100218
 20
-22.602437432
 10
37.5128612776
 20
-22.6110413614
 10
37.5019243266
 20
-22.6194556633
 10
37.490693141
 20
-22.627673911
 10
37.4791715836
 20
-22.6356819903
 10
37.4673639913
 20
-22.6434658991
 10
37.4552654696
 20
-22.6510176416
 10
37.4428817628
 20
-22.6583221973
 10
37.4302193649
 20
-22.6653646165
 10
37.4172754663
 20
-22.6721351534
 10
37.4040585176
 20
-22.6786179215
 10
37.3905776199
 20
-22.6847973436
 10
37.3768326307
 20
-22.6906622277
 10
37.3628355412
 20
-22.6961961133
 10
37.3485988667
 20
-22.7013831303
 10
37.3341259642
 20
-22.7062110583
 10
37.3194326883
 20
-22.7106635944
 10
37.304536871
 20
-22.7147248644
 10
37.2894491012
 20
-22.7183817027
  0
LWPOLYLINE
  5
523
100
AcDbEntity
  8
RACCORDO
100
AcDbPolyline
 62
250
  6
CONTINUOUS
 90
40
 70
0
 10
37.7781070588
 20
-23.1412504369
 10
37.7766227105
 20
-23.1469663995
 10
37.7740547696
 20
-23.1526747658
 10
37.7704072212
 20
-23.1583666033
 10
37.765685727
 20
-23.1640331264
 10
37.7598976141
 20
-23.1696653465
 10
37.7530518642
 20
-23.1752541108
 10
37.7451591032
 20
-23.1807906966
 10
37.7362315821
 20
-23.1862664759
 10
37.7262831565
 20
-23.1916726042
 10
37.7153292688
 20
-23.1970006621
 10
37.703386922
 20
-23.202242376
 10
37.6904746519
 20
-23.2073893418
 10
37.6766125018
 20
-23.2124335704
 10
37.6618219894
 20
-23.2173672396
 10
37.6461260718
 20
-23.2221824681
 10
37.6295491131
 20
-23.2268717859
 10
37.6121168453
 20
-23.2314279481
 10
37.5938563267
 20
-23.2358437298
 10
37.5747959023
 20
-23.2401122732
 10
37.5549651591
 20
-23.2442270099
 10
37.5343948792
 20
-23.2481815045
 10
37.5131169929
 20
-23.2519696078
 10
37.4911645293
 20
-23.2555854995
 10
37.468571565
 20
-23.259023623
 10
37.4453731699
 20
-23.2622786021
 10
37.4216053543
 20
-23.2653454514
 10
37.3973050136
 20
-23.2682196087
 10
37.3725098677
 20
-23.2708965523
 10
37.3472584054
 20
-23.2733721807
 10
37.3215898259
 20
-23.2756429912
 10
37.2955439726
 20
-23.2777054005
 10
37.2691612759
 20
-23.2795562259
 10
37.2424826928
 20
-23.2811930195
 10
37.2155496344
 20
-23.2826131866
 10
37.1884039084
 20
-23.2838145277
 10
37.1610876582
 20
-23.2847956712
 10
37.1336432879
 20
-23.2855552462
 10
37.106113396
 20
-23.2860918996
 10
37.0785407161
 20
-23.2864048073
  0
LWPOLYLINE
  5
524
100
AcDbEntity
  8
RACCORDO
100
AcDbPolyline
 62
250
  6
CONTINUOUS
 90
3
 70
0
 10
-59.4710956986
 20
40.1257267813
 10
-59.4212097202
 20
40.1289305874
 10
-59.3953067018
 20
40.1304063643
  0
LWPOLYLINE
  5
525
100
AcDbEntity
  8
RACCORDO
100
AcDbPolyline
 62
250
  6
CONTINUOUS
 90
3
 70
0
 10
-59.3953067018
 20
40.1304063643
 10
-59.3418218524
 20
40.1329896302
 10
-59.3143363362
 20
40.1341430183
  0
LWPOLYLINE
  5
526
100
AcDbEntity
  8
RACCORDO
100
AcDbPolyline
 62
250
  6
CONTINUOUS
 90
3
 70
0
 10
-59.3143363362
 20
40.1341430183
 10
-59.2581062032
 20
40.1360652256
 10
-59.2294816646
 20
40.1368769029
  0
LWPOLYLINE
  5
527
100
AcDbEntity
  8
RACCORDO
100
AcDbPolyline
 62
250
  6
CONTINUOUS
 90
5
 70
0
 10
-59.2294816646
 20
40.1368769029
 10
-59.1714034303
 20
40.1381081194
 10
-59.1421773048
 20
40.1385666565
 10
-59.1127519461
 20
40.1388985334
 10
-59.0831020303
 20
40.1390855955
  0
LINE
  5
528
100
AcDbEntity
  8
RACCORDO
100
AcDbLine
 62
250
  6
CONTINUOUS
 10
59.0831020386
 20
40.1390855868
 11
54.5064566177
 21
40.1370223897
  0
LINE
  5
529
100
AcDbEntity
  8
RACCORDO
100
AcDbLine
 62
250
  6
CONTINUOUS
 10
-38.4874699832
 20
40.1391612198
 11
-43.0640692468
 21
40.137064423
  0
LINE
  5
52A
100
AcDbEntity
  8
RACCORDO
100
AcDbLine
 62
250
  6
CONTINUOUS
 10
59.0715794417
 20
40.7711530206
 11
54.3238625535
 21
40.7690405758
  0
LINE
  5
52B
100
AcDbEntity
  8
RACCORDO
100
AcDbLine
 62
250
  6
CONTINUOUS
 10
-37.7062797953
 20
40.771711568
 11
-42.4539123281
 21
40.769350886
  0
LINE
  5
52C
100
AcDbEntity
  8
DRAFT
100
AcDbLine
 62
7
  6
CONTINUOUS
 10
-37.7
 20
40.0986945859
 11
37.7
 21
40.0986945859
  0
LINE
  5
52D
100
AcDbEntity
  8
RACCORDO
100
AcDbLine
 62
250
  6
CONTINUOUS
 10
54.5064566177
 20
40.1370223897
 11
49.9295082798
 21
40.1361471562
  0
LINE
  5
52E
100
AcDbEntity
  8
RACCORDO
100
AcDbLine
 62
250
  6
CONTINUOUS
 10
-43.0640692468
 20
40.137064423
 11
-49.929508099
 21
40.1361471561
  0
LINE
  5
52F
100
AcDbEntity
  8
RACCORDO
100
AcDbLine
 62
250
  6
CONTINUOUS
 10
37.7000002006
 20
40.1396568101
 11
-37.9684116321
 21
40.1394740586
  0
LINE
  5
530
100
AcDbEntity
  8
RACCORDO
100
AcDbLine
 62
250
  6
CONTINUOUS
 10
54.3238625535
 20
40.7690405758
 11
49.575905671
 21
40.768206172
  0
LINE
  5
531
100
AcDbEntity
  8
RACCORDO
100
AcDbLine
 62
250
  6
CONTINUOUS
 10
-42.4539123281
 20
40.769350886
 11
-49.5759067806
 21
40.7682061721
  0
LINE
  5
532
100
AcDbEntity
  8
RACCORDO
100
AcDbLine
 62
250
  6
CONTINUOUS
 10
37.7062797953
 20
40.771711568
 11
-37.7062797953
 21
40.771711568
  0
LINE
  5
533
100
AcDbEntity
  8
RACCORDO
100
AcDbLine
 62
7
  6
CONTINUOUS
 10
-59.3004264211
 20
41.0
 11
59.3004264211
 21
41.0
  0
LWPOLYLINE
  5
534
100
AcDbEntity
  8
RACCORDO
100
AcDbPolyline
 62
250
  6
CONTINUOUS
 90
3
 70
0
 10
49.9295082798
 20
40.1361471562
 10
45.3525076773
 20
40.1364613617
 10
43.0640693461
 20
40.137064423
  0
LINE
  5
535
100
AcDbEntity
  8
RACCORDO
100
AcDbLine
 62
250
  6
CONTINUOUS
 10
49.575905671
 20
40.768206172
 11
44.8278220248
 21
40.7686498072
  0
LINE
  5
536
100
AcDbEntity
  8
RACCORDO
100
AcDbLine
 62
250
  6
CONTINUOUS
 10
-49.929508099
 20
40.1361471561
 11
-54.5064564768
 21
40.1370223896
  0
LINE
  5
537
100
AcDbEntity
  8
RACCORDO
100
AcDbLine
 62
250
  6
CONTINUOUS
 10
-49.5759067806
 20
40.7682061721
 11
-54.3238635382
 21
40.769040576
  0
LINE
  5
538
100
AcDbEntity
  8
RACCORDO
100
AcDbLine
 62
250
  6
CONTINUOUS
 10
-54.5064564768
 20
40.1370223896
 11
-59.0831020386
 21
40.1390855867
  0
LINE
  5
539
100
AcDbEntity
  8
RACCORDO
100
AcDbLine
 62
250
  6
CONTINUOUS
 10
43.0640693461
 20
40.137064423
 11
38.4874699832
 21
40.1391612197
  0
LINE
  5
53A
100
AcDbEntity
  8
RACCORDO
100
AcDbLine
 62
250
  6
CONTINUOUS
 10
-54.3238635382
 20
40.769040576
 11
-59.0715794418
 21
40.7711530207
  0
LWPOLYLINE
  5
53B
100
AcDbEntity
  8
RACCORDO
100
AcDbPolyline
 62
250
  6
CONTINUOUS
 90
3
 70
0
 10
44.8278220248
 20
40.7686498072
 10
40.0800645373
 20
40.7703714731
 10
37.7062797953
 20
40.771711568
  0
LINE
  5
53C
100
AcDbEntity
  8
RACCORDO
100
AcDbLine
 62
250
  6
CONTINUOUS
 10
37.9684116583
 20
40.1394740584
 11
37.7000002005
 21
40.1396419602
  0
LWPOLYLINE
  5
53D
100
AcDbEntity
  8
RACCORDO
100
AcDbPolyline
 62
250
  6
CONTINUOUS
 90
3
 70
0
 10
59.142177275
 20
40.1385666568
 10
59.1127519347
 20
40.1388985333
 10
59.0831020382
 20
40.1390855955
  0
LWPOLYLINE
  5
53E
100
AcDbEntity
  8
RACCORDO
100
AcDbPolyline
 62
250
  6
CONTINUOUS
 90
3
 70
0
 10
59.2294815843
 20
40.1368769049
 10
59.2005196804
 20
40.1375493434
 10
59.142177275
 20
40.1385666568
  0
LWPOLYLINE
  5
53F
100
AcDbEntity
  8
RACCORDO
100
AcDbPolyline
 62
250
  6
CONTINUOUS
 90
4
 70
0
 10
59.3418217217
 20
40.1329896359
 10
59.3143362157
 20
40.1341430229
 10
59.2863828881
 20
40.1351533282
 10
59.2294815843
 20
40.1368769049
  0
LWPOLYLINE
  5
540
100
AcDbEntity
  8
RACCORDO
100
AcDbPolyline
 62
250
  6
CONTINUOUS
 90
3
 70
0
 10
59.4212095691
 20
40.1289305963
 10
59.3953065557
 20
40.1304063721
 10
59.3418217217
 20
40.1329896359
  0
LWPOLYLINE
  5
541
100
AcDbEntity
  8
RACCORDO
100
AcDbPolyline
 62
250
  6
CONTINUOUS
 90
40
 70
0
 10
37.7781137167
 20
23.1412504328
 10
37.7766292657
 20
23.1470904739
 10
37.7740611605
 20
23.1529170606
 10
37.7704133955
 20
23.1587211363
 10
37.7656916418
 20
23.1644938361
 10
37.7599032356
 20
23.1702260356
 10
37.7530571677
 20
23.1759083704
 10
37.7451640733
 20
23.1815319582
 10
37.736236213
 20
23.1870881325
 10
37.7262874525
 20
23.1925679985
 10
37.7153332431
 20
23.1979629981
 10
37.7033905967
 20
23.2032648161
 10
37.6904780586
 20
23.2084651221
 10
37.6766156813
 20
23.2135557958
 10
37.6618249887
 20
23.2185289901
 10
37.6461289407
 20
23.2233770389
 10
37.6295519082
 20
23.2280923804
 10
37.6121196267
 20
23.2326677348
 10
37.5938591486
 20
23.2370961655
 10
37.5747988232
 20
23.2413707979
 10
37.5549682369
 20
23.2454849981
 10
37.5343981538
 20
23.2494325476
 10
37.5131205052
 20
23.2532073439
 10
37.4911683159
 20
23.2568035044
 10
37.4685756308
 20
23.2602155422
 10
37.4453775144
 20
23.2634382004
 10
37.4216099727
 20
23.2664664426
 10
37.3973098665
 20
23.2692955525
 10
37.3725149079
 20
23.2719212172
 10
37.3472635811
 20
23.2743392912
 10
37.3215950539
 20
23.2765457814
 10
37.2955491647
 20
23.2785373771
 10
37.2691663372
 20
23.2803108798
 10
37.2424874947
 20
23.2818629566
 10
37.2155540451
 20
23.2831913153
 10
37.1884077909
 20
23.2842937687
 10
37.16109084
 20
23.2851676432
 10
37.1336455838
 20
23.2858112408
 10
37.1061146311
 20
23.2862238526
 10
37.0785407159
 20
23.2864048071
  0
LINE
  5
542
100
AcDbEntity
  8
RACCORDO
100
AcDbLine
 62
7
  6
CONTINUOUS
 10
37.7212630365
 20
22.2759757619
 11
37.7217040156
 21
22.2737578679
  0
LINE
  5
543
100
AcDbEntity
  8
RACCORDO
100
AcDbLine
 62
7
  6
CONTINUOUS
 10
37.7216797784
 20
22.2738813049
 11
37.7220731555
 21
22.2718261775
  0
LINE
  5
544
100
AcDbEntity
  8
RACCORDO
100
AcDbLine
 62
250
  6
CONTINUOUS
 10
37.7238643761
 20
22.2620883323
 11
37.7222010909
 21
22.2711234911
  0
LINE
  5
545
100
AcDbEntity
  8
RACCORDO
100
AcDbLine
 62
250
  6
CONTINUOUS
 10
37.7220731555
 20
22.2718261775
 11
37.7217040156
 21
22.2737578679
  0
LINE
  5
546
100
AcDbEntity
  8
RACCORDO
100
AcDbLine
 62
7
  6
CONTINUOUS
 10
37.7220731555
 20
22.2718261775
 11
37.7222010909
 21
22.2711234911
  0
LWPOLYLINE
  5
547
100
AcDbEntity
  8
RACCORDO
100
AcDbPolyline
 62
250
  6
CONTINUOUS
 90
45
 70
0
 10
37.7319871002
 20
22.1643945998
 10
37.7323623214
 20
22.1622915374
 10
37.7327392529
 20
22.160310497
 10
37.7331178947
 20
22.1584514787
 10
37.7334982948
 20
22.1567137208
 10
37.7338804051
 20
22.1550979849
 10
37.7342640817
 20
22.1536065562
 10
37.7346493246
 20
22.152239486
 10
37.7350361338
 20
22.1509967228
 10
37.7354243662
 20
22.1498803975
 10
37.7358140248
 20
22.1488905528
 10
37.7362051066
 20
22.148027146
 10
37.7365974592
 20
22.1472921794
 10
37.7369910825
 20
22.1466857057
 10
37.7373859765
 20
22.1462076723
 10
37.7377819886
 20
22.1458599244
 10
37.7381791211
 20
22.1456425134
 10
37.7385773716
 20
22.1455553878
 10
37.73897658
 20
22.1456002385
 10
37.7393767472
 20
22.1457771213
 10
37.7397778722
 20
22.1460859803
 10
37.7401797925
 20
22.1465283381
 10
37.7405825093
 20
22.1471042528
 10
37.7409860212
 20
22.1478136663
 10
37.7413901619
 20
22.1486579272
 10
37.7417949333
 20
22.1496370995
 10
37.7422003334
 20
22.1507511192
 10
37.7426061894
 20
22.1520011417
 10
37.7430125017
 20
22.1533872279
 10
37.74341927
 20
22.154909317
 10
37.743826321
 20
22.1565683822
 10
37.7442336536
 20
22.1583644776
 10
37.7446412689
 20
22.1602975492
 10
37.745048997
 20
22.1623684079
 10
37.745456838
 20
22.1645771102
 10
37.7458647918
 20
22.1669235996
 10
37.7462726886
 20
22.1694085185
 10
37.7466805299
 20
22.1720319338
 10
37.7470883142
 20
22.1747937785
 10
37.7474958672
 20
22.1776944943
 10
37.7479031899
 20
22.1807341481
 10
37.7483102813
 20
22.183912673
 10
37.7487169645
 20
22.1872303104
 10
37.749123239
 20
22.1906871157
 10
37.7499343886
 20
22.1980181393
  0
LWPOLYLINE
  5
548
100
AcDbEntity
  8
RACCORDO
100
AcDbPolyline
 62
250
  6
CONTINUOUS
 90
7
 70
0
 10
37.7276232664
 20
22.1928314528
 10
37.7283673044
 20
22.1875315352
 10
37.729104185
 20
22.1824663965
 10
37.7298345416
 20
22.1776215794
 10
37.7305585852
 20
22.1729922647
 10
37.7312761047
 20
22.1685832715
 10
37.7319871002
 20
22.1643945998
  0
LINE
  5
549
100
AcDbEntity
  8
RACCORDO
100
AcDbLine
 62
250
  6
CONTINUOUS
 10
37.726113741
 20
22.2041344442
 11
37.7276232664
 21
22.1928314528
  0
LINE
  5
54A
100
AcDbEntity
  8
RACCORDO
100
AcDbLine
 62
250
  6
CONTINUOUS
 10
37.7245736127
 20
22.2164244613
 11
37.726113741
 21
22.2041344442
  0
LINE
  5
54B
100
AcDbEntity
  8
RACCORDO
100
AcDbLine
 62
250
  6
CONTINUOUS
 10
37.723001459
 20
22.2297362891
 11
37.7245736127
 21
22.2164244613
  0
LINE
  5
54C
100
AcDbEntity
  8
RACCORDO
100
AcDbLine
 62
250
  6
CONTINUOUS
 10
37.7213950613
 20
22.244124498
 11
37.723001459
 21
22.2297362891
  0
LWPOLYLINE
  5
54D
100
AcDbEntity
  8
RACCORDO
100
AcDbPolyline
 62
250
  6
CONTINUOUS
 90
40
 70
0
 10
37.8256197168
 20
-31.4398938589
 10
37.8241216333
 20
-31.4430896602
 10
37.8215406952
 20
-31.4462805042
 10
37.8178809061
 20
-31.4494614412
 10
37.8131479431
 20
-31.4526275369
 10
37.8073491479
 20
-31.4557738802
 10
37.8004935157
 20
-31.4588955904
 10
37.7925916809
 20
-31.461987825
 10
37.7836559008
 20
-31.4650457876
 10
37.7737000366
 20
-31.4680647344
 10
37.7627395318
 20
-31.4710399826
 10
37.7507913884
 20
-31.473966917
 10
37.7378741403
 20
-31.4768409972
 10
37.7240078247
 20
-31.479657765
 10
37.7092139512
 20
-31.4824128511
 10
37.6935154679
 20
-31.4851019817
 10
37.6769367263
 20
-31.4877209855
 10
37.6595034433
 20
-31.4902657998
 10
37.6412426615
 20
-31.4927324773
 10
37.622182707
 20
-31.4951171914
 10
37.6023531456
 20
-31.4974162432
 10
37.5817847368
 20
-31.4996260662
 10
37.5605093865
 20
-31.5017432327
 10
37.5385600968
 20
-31.5037644584
 10
37.5159709156
 20
-31.5056866081
 10
37.4927768832
 20
-31.5075067001
 10
37.4690139782
 20
-31.509221911
 10
37.4447190615
 20
-31.5108295803
 10
37.4199298195
 20
-31.5123272141
 10
37.3946847051
 20
-31.5137124894
 10
37.3690228787
 20
-31.5149832571
 10
37.3429841468
 20
-31.5161375463
 10
37.3166089008
 20
-31.5171735662
 10
37.2899380538
 20
-31.5180897098
 10
37.2630129778
 20
-31.5188845561
 10
37.2358754388
 20
-31.519556872
 10
37.2085675326
 20
-31.5201056147
 10
37.1811316192
 20
-31.5205299329
 10
37.1536102573
 20
-31.5208291684
 10
37.1260461379
 20
-31.5210028571
  0
LWPOLYLINE
  5
54E
100
AcDbEntity
  8
RACCORDO
100
AcDbPolyline
 62
250
  6
CONTINUOUS
 90
40
 70
0
 10
37.8256195759
 20
31.4398938588
 10
37.824121493
 20
31.4430896584
 10
37.8215405559
 20
31.4462805007
 10
37.8178807683
 20
31.4494614362
 10
37.8131478071
 20
31.4526275305
 10
37.8073490142
 20
31.4557738724
 10
37.8004933846
 20
31.4588955813
 10
37.7925915528
 20
31.4619878149
 10
37.783655776
 20
31.4650457763
 10
37.7736999154
 20
31.4680647222
 10
37.7627394146
 20
31.4710399696
 10
37.7507912754
 20
31.4739669031
 10
37.7378740318
 20
31.4768409827
 10
37.724007721
 20
31.4796577499
 10
37.7092138524
 20
31.4824128355
 10
37.6935153741
 20
31.4851019658
 10
37.6769366378
 20
31.4877209693
 10
37.6595033602
 20
31.4902657835
 10
37.6412425839
 20
31.4927324608
 10
37.6221826349
 20
31.495117175
 10
37.6023530789
 20
31.4974162268
 10
37.5817846757
 20
31.4996260501
 10
37.5605093308
 20
31.5017432168
 10
37.5385600466
 20
31.5037644429
 10
37.5159708707
 20
31.5056865931
 10
37.4927768434
 20
31.5075066856
 10
37.4690139433
 20
31.5092218972
 10
37.4447190313
 20
31.5108295672
 10
37.4199297938
 20
31.5123272018
 10
37.3946846836
 20
31.5137124778
 10
37.3690228611
 20
31.5149832465
 10
37.3429841328
 20
31.5161375366
 10
37.31660889
 20
31.5171735576
 10
37.2899380459
 20
31.5180897024
 10
37.2630129722
 20
31.5188845498
 10
37.2358754353
 20
31.5195568669
 10
37.2085675306
 20
31.5201056108
 10
37.1811316184
 20
31.5205299303
 10
37.1536102571
 20
31.5208291671
 10
37.1260461379
 20
31.5210028571
  0
LWPOLYLINE
  5
54F
100
AcDbEntity
  8
0
100
AcDbPolyline
 62
7
  6
CONTINUOUS
 90
7
 70
0
 43
0.3500000006
 10
-0.0
 20
49.7500012665
 10
-1.5000000329
 20
49.7500012665
 10
-0.0
 20
51.8928551788
 10
-0.0
 20
52.3214286804
 10
-0.4285714127
 20
52.750002182
 10
-1.0714285848
 20
52.750002182
 10
-1.5000000329
 20
52.1071441956
  0
LINE
  5
550
100
AcDbEntity
  8
RACCORDO
100
AcDbLine
 62
7
  6
CONTINUOUS
 10
59.9840613881
 20
3.635045565
 11
59.9397216282
 21
3.5239590572
  0
LINE
  5
551
100
AcDbEntity
  8
RACCORDO
100
AcDbLine
 62
7
  6
CONTINUOUS
 10
38.4874699822
 20
-40.1391612169
 11
38.4646223463
 21
-40.1618180492
  0
LWPOLYLINE
  5
552
100
AcDbEntity
  8
RACCORDO
100
AcDbPolyline
 62
7
  6
CONTINUOUS
 90
34
 70
0
 10
38.4646223463
 20
-40.1618180491
 10
38.4629904011
 20
-40.1632691377
 10
38.4612212491
 20
-40.1646799303
 10
38.4593097068
 20
-40.1660448007
 10
38.4572423152
 20
-40.1673483984
 10
38.4550225081
 20
-40.1685932614
 10
38.4526720101
 20
-40.169801877
 10
38.4501874746
 20
-40.1709758537
 10
38.4475664386
 20
-40.1721033288
 10
38.4448347978
 20
-40.1731899827
 10
38.4419986924
 20
-40.1742332252
 10
38.4390503627
 20
-40.1752289542
 10
38.4359966391
 20
-40.1761829692
 10
38.4328412544
 20
-40.1770934421
 10
38.4295802551
 20
-40.1779567969
 10
38.4262091488
 20
-40.1787767051
 10
38.4227259909
 20
-40.179552044
 10
38.4191327823
 20
-40.1802784873
 10
38.4154309256
 20
-40.1809549443
 10
38.4116256677
 20
-40.1815790903
 10
38.4077127662
 20
-40.1821487623
 10
38.4036791989
 20
-40.1826626609
 10
38.399528048
 20
-40.1831184592
 10
38.3952571857
 20
-40.1835131862
 10
38.3908451375
 20
-40.1838429724
 10
38.3862913179
 20
-40.1841051792
 10
38.3815972046
 20
-40.1842956485
 10
38.376743911
 20
-40.1844063105
 10
38.371731664
 20
-40.1844341242
 10
38.3665616496
 20
-40.1843742716
 10
38.361216309
 20
-40.1842143259
 10
38.35569055
 20
-40.1839467588
 10
38.3499918711
 20
-40.1835701582
 10
38.3441217771
 20
-40.1830805907
  0
LINE
  5
553
100
AcDbEntity
  8
RACCORDO
100
AcDbLine
 62
7
  6
CONTINUOUS
 10
38.4646223547
 20
40.1618180559
 11
38.4874699822
 21
40.1391612168
  0
LINE
  5
554
100
AcDbEntity
  8
RACCORDO
100
AcDbLine
 62
7
  6
CONTINUOUS
 10
59.9840613881
 20
-3.635045565
 11
59.9397216282
 21
-3.5239590572
  0
LINE
  5
555
100
AcDbEntity
  8
RACCORDO
100
AcDbLine
 62
250
  6
CONTINUOUS
 10
59.075672457
 20
40.7177510796
 11
59.0765283525
 21
40.6941841757
  0
LINE
  5
556
100
AcDbEntity
  8
RACCORDO
100
AcDbLine
 62
250
  6
CONTINUOUS
 10
59.0765283525
 20
40.6941841757
 11
59.0773525772
 21
40.6666383366
  0
LINE
  5
557
100
AcDbEntity
  8
RACCORDO
100
AcDbLine
 62
250
  6
CONTINUOUS
 10
59.0773525772
 20
40.6666383366
 11
59.0785180396
 21
40.6182515287
  0
LWPOLYLINE
  5
558
100
AcDbEntity
  8
RACCORDO
100
AcDbPolyline
 62
250
  6
CONTINUOUS
 90
40
 70
0
 10
59.7711530206
 20
40.0715794417
 10
59.7705521777
 20
40.0997286513
 10
59.7688191923
 20
40.1278322679
 10
59.7659568711
 20
40.1558447714
 10
59.7619698501
 20
40.1837207898
 10
59.7568645871
 20
40.2114151712
 10
59.7506493516
 20
40.2388830566
 10
59.7433342101
 20
40.2660799568
 10
59.7349310117
 20
40.2929618192
 10
59.7254533693
 20
40.3194850973
 10
59.7149166352
 20
40.3456068296
 10
59.7033378764
 20
40.3712847079
 10
59.6907358487
 20
40.3964771398
 10
59.6771309638
 20
40.4211433232
 10
59.6625452594
 20
40.4452433039
 10
59.6470023666
 20
40.4687380398
 10
59.6305274669
 20
40.4915894709
 10
59.6131472425
 20
40.5137605924
 10
59.5948898362
 20
40.5352155056
 10
59.5757848031
 20
40.5559194775
 10
59.5558631037
 20
40.5758389551
 10
59.5351570492
 20
40.5949416361
 10
59.5137002277
 20
40.6131965481
 10
59.4915273554
 20
40.6305741699
 10
59.4686742536
 20
40.6470464275
 10
59.4451778269
 20
40.6625867029
 10
59.4210762299
 20
40.6771697439
 10
59.3964087281
 20
40.6907718028
 10
59.3712154389
 20
40.7033707982
 10
59.3455370325
 20
40.7149464301
 10
59.3194148818
 20
40.7254800592
 10
59.2928909845
 20
40.734954724
 10
59.266008599
 20
40.7433549467
 10
59.2388119779
 20
40.7506669407
 10
59.2113435947
 20
40.7568792723
 10
59.1836495232
 20
40.7619815067
 10
59.155780213
 20
40.7659647799
 10
59.1277827564
 20
40.768823245
 10
59.0997006789
 20
40.7705533377
 10
59.0715794417
 20
40.7711530206
  0
LINE
  5
559
100
AcDbEntity
  8
RACCORDO
100
AcDbLine
 62
250
  6
CONTINUOUS
 10
59.0785180396
 20
40.6182515287
 11
59.0799142075
 21
40.5416522431
  0
LINE
  5
55A
100
AcDbEntity
  8
RACCORDO
100
AcDbLine
 62
250
  6
CONTINUOUS
 10
59.0799142075
 20
40.5416522431
 11
59.0813566562
 21
40.4292904039
  0
LINE
  5
55B
100
AcDbEntity
  8
RACCORDO
100
AcDbLine
 62
250
  6
CONTINUOUS
 10
59.0813566562
 20
40.4292904039
 11
59.0825698223
 21
40.2760856688
  0
LINE
  5
55C
100
AcDbEntity
  8
RACCORDO
100
AcDbLine
 62
250
  6
CONTINUOUS
 10
59.0825698223
 20
40.2760856688
 11
59.0831020382
 21
40.1390855955
  0
LINE
  5
55D
100
AcDbEntity
  8
RACCORDO
100
AcDbLine
 62
7
  6
CONTINUOUS
 10
59.930158461
 20
-3.2251006478
 11
59.930158461
 21
3.2251006478
  0
LINE
  5
55E
100
AcDbEntity
  8
RACCORDO
100
AcDbLine
 62
7
  6
CONTINUOUS
 10
60.0
 20
-40.3004264211
 11
60.0
 21
-4.1331429141
  0
LINE
  5
55F
100
AcDbEntity
  8
RACCORDO
100
AcDbLine
 62
7
  6
CONTINUOUS
 10
60.0
 20
4.1331429141
 11
60.0
 21
40.3004264211
  0
LWPOLYLINE
  5
560
100
AcDbEntity
  8
RACCORDO
100
AcDbPolyline
 62
250
  6
CONTINUOUS
 90
37
 70
0
 10
59.0831020386
 20
40.1390855868
 10
59.0757875214
 20
37.9155216642
 10
59.0688902075
 20
35.6908636546
 10
59.0624100973
 20
33.465175743
 10
59.0563470278
 20
31.2385221314
 10
59.0507011624
 20
29.0109670741
 10
59.04547299
 20
26.7825748753
 10
59.0406625472
 20
24.5534098008
 10
59.0362697978
 20
22.3235361905
 10
59.0322951218
 20
20.0930184941
 10
59.0287385556
 20
17.8619210831
 10
59.025600063
 20
15.6303083081
 10
59.0228799154
 20
13.3982446123
 10
59.0205781491
 20
11.165794417
 10
59.0186947279
 20
8.9330221062
 10
59.0172298145
 20
6.6999920833
 10
59.0161834452
 20
4.4667687728
 10
59.0155555839
 20
2.2334166053
 10
59.0153462847
 20
0.000000002
 10
59.0155555839
 20
-2.2334166012
 10
59.0161834452
 20
-4.4667687687
 10
59.0172298145
 20
-6.6999920791
 10
59.0186947279
 20
-8.9330221018
 10
59.0205781491
 20
-11.1657944126
 10
59.0228799154
 20
-13.3982446077
 10
59.025600063
 20
-15.6303083034
 10
59.0287385556
 20
-17.8619210783
 10
59.0322951218
 20
-20.0930184893
 10
59.0362697978
 20
-22.3235361859
 10
59.0406625472
 20
-24.5534097964
 10
59.04547299
 20
-26.7825748713
 10
59.0507011624
 20
-29.0109670705
 10
59.0563470278
 20
-31.2385221285
 10
59.0624100972
 20
-33.4651757406
 10
59.0688902075
 20
-35.6908636529
 10
59.0757875214
 20
-37.9155216632
 10
59.0831020386
 20
-40.1390855866
  0
LWPOLYLINE
  5
561
100
AcDbEntity
  8
RACCORDO
100
AcDbPolyline
 62
250
  6
CONTINUOUS
 90
37
 70
0
 10
59.7711530201
 20
40.0715794412
 10
59.7638467366
 20
37.8516486769
 10
59.7569571875
 20
35.6307537512
 10
59.750484373
 20
33.4088946642
 10
59.74442813
 20
31.1860072076
 10
59.7387886216
 20
28.9621555896
 10
59.7335663361
 20
26.7375324356
 10
59.7287613098
 20
24.5121376915
 10
59.7243735063
 20
22.2859714114
 10
59.7204033057
 20
20.0592263833
 10
59.7168507441
 20
17.8319025761
 10
59.7137157853
 20
15.6040000208
 10
59.7109987005
 20
13.3757115988
 10
59.7086995259
 20
11.147037301
 10
59.7068182253
 20
8.9179771364
 10
59.7053549614
 20
6.6887240131
 10
59.7043097704
 20
4.4592779141
 10
59.703682616
 20
2.2296388564
 10
59.7034735525
 20
-0.0000002012
 10
59.7036826161
 20
-2.2296392587
 10
59.7043097705
 20
-4.459278316
 10
59.7053549617
 20
-6.6887244144
 10
59.7068182256
 20
-8.9179775371
 10
59.7086995263
 20
-11.1470377008
 10
59.7109987009
 20
-13.3757119978
 10
59.7137157858
 20
-15.6040004191
 10
59.7168507447
 20
-17.8319029736
 10
59.7204033064
 20
-20.0592267801
 10
59.7243735071
 20
-22.2859718077
 10
59.7287613106
 20
-24.5121380873
 10
59.733566337
 20
-26.7375328311
 10
59.7387886226
 20
-28.9621559994
 10
59.7444281312
 20
-31.1860076319
 10
59.7504843741
 20
-33.4088950592
 10
59.7569571884
 20
-35.6307540583
 10
59.7638467371
 20
-37.8516488523
 10
59.7711530201
 20
-40.0715794412
  0
LINE
  5
562
100
AcDbEntity
  8
RACCORDO
100
AcDbLine
 62
250
  6
CONTINUOUS
 10
59.0831020304
 20
-40.1390855955
 11
59.0824098463
 21
-40.3026811111
  0
LINE
  5
563
100
AcDbEntity
  8
RACCORDO
100
AcDbLine
 62
250
  6
CONTINUOUS
 10
59.0824098463
 20
-40.3026811111
 11
59.0810976543
 21
-40.4530550266
  0
LINE
  5
564
100
AcDbEntity
  8
RACCORDO
100
AcDbLine
 62
250
  6
CONTINUOUS
 10
59.0810976543
 20
-40.4530550266
 11
59.0799142074
 21
-40.5416522431
  0
LINE
  5
565
100
AcDbEntity
  8
RACCORDO
100
AcDbLine
 62
250
  6
CONTINUOUS
 10
59.0799142074
 20
-40.5416522431
 11
59.0785180395
 21
-40.6182515287
  0
LWPOLYLINE
  5
566
100
AcDbEntity
  8
RACCORDO
100
AcDbPolyline
 62
250
  6
CONTINUOUS
 90
40
 70
0
 10
59.7711530206
 20
-40.0715794417
 10
59.7705521776
 20
-40.0997286544
 10
59.7688191919
 20
-40.1278322723
 10
59.7659568706
 20
-40.1558447755
 10
59.7619698498
 20
-40.1837207914
 10
59.7568645876
 20
-40.2114151686
 10
59.7506493532
 20
-40.23888305
 10
59.743334213
 20
-40.2660799471
 10
59.7349310159
 20
-40.2929618066
 10
59.7254533752
 20
-40.3194850818
 10
59.7149166431
 20
-40.3456068111
 10
59.7033378866
 20
-40.3712846864
 10
59.6907358614
 20
-40.3964771157
 10
59.6771309789
 20
-40.4211432969
 10
59.6625452771
 20
-40.445243276
 10
59.6470023866
 20
-40.4687380109
 10
59.6305274888
 20
-40.4915894418
 10
59.6131472659
 20
-40.5137605637
 10
59.5948898607
 20
-40.5352154779
 10
59.5757848284
 20
-40.5559194511
 10
59.5558631293
 20
-40.5758389305
 10
59.5351570745
 20
-40.5949416137
 10
59.5137002514
 20
-40.6131965288
 10
59.4915273765
 20
-40.6305741541
 10
59.468674272
 20
-40.6470464148
 10
59.4451778427
 20
-40.6625866929
 10
59.4210762431
 20
-40.6771697362
 10
59.3964087394
 20
-40.6907717969
 10
59.3712154497
 20
-40.703370793
 10
59.3455370437
 20
-40.7149464254
 10
59.3194148929
 20
-40.725480055
 10
59.2928909943
 20
-40.7349547208
 10
59.2660086068
 20
-40.7433549444
 10
59.2388119841
 20
-40.7506669392
 10
59.2113435998
 20
-40.7568792712
 10
59.1836495275
 20
-40.761981506
 10
59.1557802164
 20
-40.7659647795
 10
59.1277827587
 20
-40.7688232448
 10
59.0997006801
 20
-40.7705533377
 10
59.0715794417
 20
-40.7711530206
  0
LINE
  5
567
100
AcDbEntity
  8
RACCORDO
100
AcDbLine
 62
250
  6
CONTINUOUS
 10
59.0785180395
 20
-40.6182515287
 11
59.0773525771
 21
-40.6666383366
  0
LINE
  5
568
100
AcDbEntity
  8
RACCORDO
100
AcDbLine
 62
250
  6
CONTINUOUS
 10
59.0773525771
 20
-40.6666383366
 11
59.0765283525
 21
-40.6941841757
  0
LWPOLYLINE
  5
569
100
AcDbEntity
  8
RACCORDO
100
AcDbPolyline
 62
250
  6
CONTINUOUS
 90
11
 70
0
 10
59.0765283525
 20
-40.6941841757
 10
59.075672457
 20
-40.7177510796
 10
59.0752344189
 20
-40.7279944638
 10
59.0747905561
 20
-40.7371886947
 10
59.0743415035
 20
-40.7453189595
 10
59.0738879371
 20
-40.7523722791
 10
59.0734306334
 20
-40.7583374465
 10
59.0729703891
 20
-40.7632049467
 10
59.0725079597
 20
-40.7669670487
 10
59.0720440635
 20
-40.7696178009
 10
59.0715794417
 20
-40.7711530206
  0
LWPOLYLINE
  5
56A
100
AcDbEntity
  8
RACCORDO
100
AcDbPolyline
 62
250
  6
CONTINUOUS
 90
23
 70
0
 10
59.7711530206
 20
-40.0715794417
 10
59.7695052353
 20
-40.0743661613
 10
59.7666131137
 20
-40.0772265568
 10
59.7624804933
 20
-40.0801162776
 10
59.7571180406
 20
-40.0829505433
 10
59.7505369817
 20
-40.0857254375
 10
59.7427436163
 20
-40.0885164004
 10
59.7337540424
 20
-40.0912752394
 10
59.7235890379
 20
-40.0939585435
 10
59.7122584604
 20
-40.0966452889
 10
59.6997856403
 20
-40.0992850727
 10
59.6861992137
 20
-40.1018332459
 10
59.6715132227
 20
-40.1043727642
 10
59.6557568046
 20
-40.1068517507
 10
59.6389658984
 20
-40.1092237792
 10
59.6211604086
 20
-40.1115750756
 10
59.6023726918
 20
-40.1138540232
 10
59.5826449232
 20
-40.1160122104
 10
59.5620063829
 20
-40.1181368823
 10
59.5404884544
 20
-40.1201795752
 10
59.5181375539
 20
-40.1220902144
 10
59.4949984574
 20
-40.1239531007
 10
59.4710956988
 20
-40.1257267813
  0
LWPOLYLINE
  5
56B
100
AcDbEntity
  8
RACCORDO
100
AcDbPolyline
 62
250
  6
CONTINUOUS
 90
24
 70
0
 10
59.7711530206
 20
40.0715794417
 10
59.7695052339
 20
40.0743661629
 10
59.7666131095
 20
40.0772265601
 10
59.7624804849
 20
40.0801162826
 10
59.7571180267
 20
40.0829505499
 10
59.7505369609
 20
40.0857254456
 10
59.7427435876
 20
40.0885164098
 10
59.7337540049
 20
40.0912752502
 10
59.7235889907
 20
40.0939585553
 10
59.7122584029
 20
40.0966453017
 10
59.6997855721
 20
40.0992850863
 10
59.6861991346
 20
40.1018332603
 10
59.6715131327
 20
40.104372779
 10
59.6557567039
 20
40.1068517658
 10
59.6389657874
 20
40.1092237945
 10
59.6211602879
 20
40.1115750908
 10
59.6023725623
 20
40.1138540382
 10
59.5826447858
 20
40.1160122251
 10
59.5620062389
 20
40.1181368965
 10
59.5404883052
 20
40.1201795887
 10
59.5181374008
 20
40.1220902272
 10
59.4949983022
 20
40.1239531127
 10
59.4710955431
 20
40.1257267922
 10
59.4212095691
 20
40.1289305963
  0
LWPOLYLINE
  5
56C
100
AcDbEntity
  8
RACCORDO
100
AcDbPolyline
 62
250
  6
CONTINUOUS
 90
10
 70
0
 10
59.0715794417
 20
40.7711530206
 10
59.0720440635
 20
40.7696178009
 10
59.0725079597
 20
40.7669670487
 10
59.0729703891
 20
40.7632049467
 10
59.0734306334
 20
40.7583374465
 10
59.0738879371
 20
40.7523722791
 10
59.0743415035
 20
40.7453189595
 10
59.0747905561
 20
40.7371886947
 10
59.0752344189
 20
40.7279944639
 10
59.075672457
 20
40.7177510796
  0
LWPOLYLINE
  5
56D
100
AcDbEntity
  8
0
100
AcDbPolyline
 62
7
  6
CONTINUOUS
 90
5
 70
0
 43
0.3500000006
 10
-75.4312701874
 20
51.4642862091
 10
-75.0741278687
 20
51.678570694
 10
-75.0741278687
 20
52.3214286804
 10
-75.4312701874
 20
52.750002182
 10
-76.2884126587
 20
52.750002182
  0
LWPOLYLINE
  5
56E
100
AcDbEntity
  8
RACCORDO
100
AcDbPolyline
 62
250
  6
CONTINUOUS
 90
5
 70
0
 10
-79.8414406599
 20
-40.1375493419
 10
-79.8462327688
 20
-40.1381081193
 10
-79.8497903224
 20
-40.1385666565
 10
-79.8521264766
 20
-40.1388985333
 10
-79.853230633
 20
-40.1390855955
  0
LINE
  5
56F
100
AcDbEntity
  8
RACCORDO
100
AcDbLine
 62
250
  6
CONTINUOUS
 10
-79.8197761817
 20
-40.1351533244
 11
-79.8414406599
 21
-40.1375493419
  0
LINE
  5
570
100
AcDbEntity
  8
RACCORDO
100
AcDbLine
 62
250
  6
CONTINUOUS
 10
-79.7874888082
 20
-40.1317385936
 11
-79.8197761817
 21
-40.1351533244
  0
LINE
  5
571
100
AcDbEntity
  8
RACCORDO
100
AcDbLine
 62
250
  6
CONTINUOUS
 10
-79.410325969
 20
-40.0939585435
 11
-79.7874888082
 21
-40.1317385936
  0
LINE
  5
572
100
AcDbEntity
  8
RACCORDO
100
AcDbLine
 62
250
  6
CONTINUOUS
 10
-79.1810182283
 20
-40.0715794417
 11
-79.410325969
 21
-40.0939585435
  0
LINE
  5
573
100
AcDbEntity
  8
RACCORDO
100
AcDbLine
 62
7
  6
CONTINUOUS
 10
-79.2658326053
 20
-40.7681912373
 11
-72.6276981641
 21
-41.0
  0
LINE
  5
574
100
AcDbEntity
  8
RACCORDO
100
AcDbLine
 62
250
  6
CONTINUOUS
 10
-79.1810182422
 20
-40.0715794412
 11
-72.6276981641
 21
-40.3004264211
  0
LINE
  5
575
100
AcDbEntity
  8
RACCORDO
100
AcDbLine
 62
250
  6
CONTINUOUS
 10
-79.9381415471
 20
-40.1361140651
 11
-79.8532306615
 21
-40.1390855866
  0
LWPOLYLINE
  5
576
100
AcDbEntity
  8
0
100
AcDbPolyline
 62
7
  6
CONTINUOUS
 90
10
 70
0
 43
0.3500000006
 10
-79.9312670288
 20
49.7500012665
 10
-79.0741290894
 20
50.6071437378
 10
-78.8598446045
 20
51.4642862091
 10
-78.8598446045
 20
52.3214286804
 10
-79.2884135742
 20
52.750002182
 10
-79.9312670288
 20
52.750002182
 10
-80.3598450623
 20
52.3214286804
 10
-80.3598450623
 20
51.4642862091
 10
-79.9312670288
 20
51.0357127075
 10
-79.0026979065
 20
51.0357127075
  0
LWPOLYLINE
  5
577
100
AcDbEntity
  8
0
100
AcDbPolyline
 62
7
  6
CONTINUOUS
 90
3
 70
0
 43
0.3500000006
 10
-77.2884129639
 20
50.0357124023
 10
-77.3598441467
 20
49.8214279175
 10
-77.5026974487
 20
49.5357122498
  0
LWPOLYLINE
  5
578
100
AcDbEntity
  8
0
100
AcDbPolyline
 62
7
  6
CONTINUOUS
 90
7
 70
0
 43
0.3500000006
 10
-90.6276991882
 20
1.5000001373
 10
-90.6276991882
 20
-0.0000003204
 10
-92.7705531006
 20
1.5000001373
 10
-93.199131134
 20
1.5000001373
 10
-93.6277001038
 20
1.0714289017
 10
-93.6277001038
 20
0.4285709152
 10
-92.9848375854
 20
-0.0000003204
  0
LWPOLYLINE
  5
579
100
AcDbEntity
  8
0
100
AcDbPolyline
 62
7
  6
CONTINUOUS
 90
13
 70
0
 43
0.3500000006
 10
-92.3419841309
 20
-1.9285708809
 10
-92.5562686157
 20
-2.2142854156
 10
-93.199131134
 20
-2.2142854156
 10
-93.6277001038
 20
-1.9285708809
 10
-93.6277001038
 20
-1.2857140274
 10
-93.199131134
 20
-1.0000006256
 10
-92.5562686157
 20
-1.0000006256
 10
-92.3419841309
 20
-1.2857140274
 10
-91.9134151611
 20
-0.8571427917
 10
-91.056268158
 20
-0.8571427917
 10
-90.6276991882
 20
-1.2857140274
 10
-90.6276991882
 20
-1.9285708809
 10
-91.056268158
 20
-2.3571432495
  0
LWPOLYLINE
  5
57A
100
AcDbEntity
  8
RACCORDO
100
AcDbPolyline
 62
250
  6
CONTINUOUS
 90
37
 70
0
 10
-79.8532306614
 20
40.1390855868
 10
-80.0627987534
 20
37.9155216642
 10
-80.2604238429
 20
35.6908636546
 10
-80.4461002327
 20
33.465175743
 10
-80.6198225733
 20
31.2385221314
 10
-80.7815858522
 20
29.0109670741
 10
-80.9313853951
 20
26.7825748753
 10
-81.0692168841
 20
24.5534098008
 10
-81.1950763444
 20
22.3235361905
 10
-81.3089601351
 20
20.0930184941
 10
-81.410864973
 20
17.8619210831
 10
-81.500787923
 20
15.6303083081
 10
-81.578726387
 20
13.3982446123
 10
-81.6446781188
 20
11.165794417
 10
-81.6986412199
 20
8.9330221062
 10
-81.7406141333
 20
6.6999920833
 10
-81.7705956495
 20
4.4667687728
 10
-81.7885849053
 20
2.2334166053
 10
-81.7945813817
 20
0.000000002
 10
-81.7885849053
 20
-2.2334166012
 10
-81.7705956496
 20
-4.4667687687
 10
-81.7406141334
 20
-6.6999920791
 10
-81.6986412199
 20
-8.9330221018
 10
-81.6446781189
 20
-11.1657944126
 10
-81.5787263872
 20
-13.3982446077
 10
-81.5007879231
 20
-15.6303083034
 10
-81.4108649733
 20
-17.8619210783
 10
-81.3089601354
 20
-20.0930184893
 10
-81.1950763446
 20
-22.3235361859
 10
-81.0692168844
 20
-24.5534097964
 10
-80.9313853953
 20
-26.7825748713
 10
-80.7815858524
 20
-29.0109670705
 10
-80.6198225735
 20
-31.2385221285
 10
-80.4461002329
 20
-33.4651757406
 10
-80.2604238431
 20
-35.6908636529
 10
-80.0627987534
 20
-37.9155216632
 10
-79.8532306615
 20
-40.1390855866
  0
LWPOLYLINE
  5
57B
100
AcDbEntity
  8
RACCORDO
100
AcDbPolyline
 62
250
  6
CONTINUOUS
 90
37
 70
0
 10
-79.1810182423
 20
40.0715794412
 10
-79.3902428286
 20
37.8516486769
 10
-79.5875337007
 20
35.6307537512
 10
-79.7728908584
 20
33.4088946642
 10
-79.9463189641
 20
31.1860072076
 10
-80.1078133555
 20
28.9621555896
 10
-80.2573600454
 20
26.7375324356
 10
-80.3949579974
 20
24.5121376915
 10
-80.520608248
 20
22.2859714114
 10
-80.6342999189
 20
20.0592263833
 10
-80.736031973
 20
17.8319025761
 10
-80.8258054475
 20
15.6040000208
 10
-80.9036125757
 20
13.3757115988
 10
-80.9694523216
 20
11.147037301
 10
-81.0233257213
 20
8.9179771364
 10
-81.0652281167
 20
6.6887240131
 10
-81.095158473
 20
4.4592779141
 10
-81.113117825
 20
2.2296388564
 10
-81.11910462
 20
-0.0000002012
 10
-81.1131178228
 20
-2.2296392587
 10
-81.0951584686
 20
-4.459278316
 10
-81.0652281103
 20
-6.6887244144
 10
-81.0233257127
 20
-8.9179775371
 10
-80.9694523109
 20
-11.1470377008
 10
-80.9036125629
 20
-13.3757119978
 10
-80.8258054325
 20
-15.6040004191
 10
-80.736031956
 20
-17.8319029736
 10
-80.6342998998
 20
-20.0592267801
 10
-80.5206082267
 20
-22.2859718077
 10
-80.3949579739
 20
-24.5121380873
 10
-80.2573600197
 20
-26.7375328311
 10
-80.1078133264
 20
-28.9621559994
 10
-79.9463189317
 20
-31.1860076319
 10
-79.7728908269
 20
-33.4088950592
 10
-79.5875336755
 20
-35.6307540583
 10
-79.390242814
 20
-37.8516488523
 10
-79.1810182422
 20
-40.0715794412
  0
LWPOLYLINE
  5
57C
100
AcDbEntity
  8
RACCORDO
100
AcDbPolyline
 62
250
  6
CONTINUOUS
 90
37
 70
0
 10
-79.853230633
 20
-40.1390855955
 10
-79.8499769466
 20
-40.1668758993
 10
-79.8456152127
 20
-40.1945150301
 10
-79.8401522701
 20
-40.2219588036
 10
-79.8335966478
 20
-40.2491636118
 10
-79.8259587433
 20
-40.2760856688
 10
-79.8172509155
 20
-40.3026811111
 10
-79.8074871184
 20
-40.3289072549
 10
-79.7966828768
 20
-40.3547223432
 10
-79.784855568
 20
-40.380084825
 10
-79.7720241612
 20
-40.4049540561
 10
-79.7582091202
 20
-40.4292904039
 10
-79.7434324966
 20
-40.4530550266
 10
-79.7277179483
 20
-40.476209882
 10
-79.7110905546
 20
-40.4987180223
 10
-79.6935767129
 20
-40.5205436844
 10
-79.6752041348
 20
-40.5416522431
 10
-79.6560023929
 20
-40.562009635
 10
-79.6360027829
 20
-40.5815827059
 10
-79.6152377548
 20
-40.6003398427
 10
-79.5937401392
 20
-40.6182515287
 10
-79.5715436408
 20
-40.6352897036
 10
-79.5486833893
 20
-40.651427328
 10
-79.5251962075
 20
-40.6666383366
 10
-79.5011198852
 20
-40.6808982363
 10
-79.476493025
 20
-40.6941841757
 10
-79.4513548748
 20
-40.7064749922
 10
-79.4257455267
 20
-40.7177510796
 10
-79.3997057537
 20
-40.7279944638
 10
-79.3732773231
 20
-40.7371886947
 10
-79.3465028593
 20
-40.7453189595
 10
-79.3194252577
 20
-40.7523722791
 10
-79.2920877171
 20
-40.7583374465
 10
-79.264534058
 20
-40.7632049467
 10
-79.2368083658
 20
-40.7669670487
 10
-79.2089549169
 20
-40.7696178009
 10
-79.1810182283
 20
-40.7711530206
  0
LWPOLYLINE
  5
57D
100
AcDbEntity
  8
RACCORDO
100
AcDbPolyline
 62
250
  6
CONTINUOUS
 90
15
 70
0
 10
-79.1902733523
 20
-40.6625866929
 10
-79.189940957
 20
-40.6771697362
 10
-79.1895545432
 20
-40.6907717969
 10
-79.1891147407
 20
-40.703370793
 10
-79.188622261
 20
-40.7149464254
 10
-79.1880778979
 20
-40.725480055
 10
-79.1874825256
 20
-40.7349547208
 10
-79.1868371142
 20
-40.7433549444
 10
-79.1861427277
 20
-40.7506669392
 10
-79.18540045
 20
-40.7568792712
 10
-79.1846115256
 20
-40.761981506
 10
-79.1837774068
 20
-40.7659647795
 10
-79.1828995338
 20
-40.7688232448
 10
-79.1819793022
 20
-40.7705533377
 10
-79.1810182283
 20
-40.7711530206
  0
LINE
  5
57E
100
AcDbEntity
  8
RACCORDO
100
AcDbLine
 62
250
  6
CONTINUOUS
 10
-79.1907740112
 20
-40.6305741541
 11
-79.1902733523
 21
-40.6625866929
  0
LWPOLYLINE
  5
57F
100
AcDbEntity
  8
RACCORDO
100
AcDbPolyline
 62
250
  6
CONTINUOUS
 90
16
 70
0
 10
-79.190774011
 20
40.6305741699
 10
-79.1902733521
 20
40.6625867029
 10
-79.1899409568
 20
40.6771697439
 10
-79.1895545431
 20
40.6907718028
 10
-79.1891147406
 20
40.7033707982
 10
-79.1886222609
 20
40.7149464301
 10
-79.1880778977
 20
40.7254800592
 10
-79.1874825254
 20
40.734954724
 10
-79.186837114
 20
40.7433549467
 10
-79.1861427276
 20
40.7506669407
 10
-79.1854004499
 20
40.7568792723
 10
-79.1846115256
 20
40.7619815067
 10
-79.1837774068
 20
40.7659647799
 10
-79.1828995338
 20
40.768823245
 10
-79.1819793022
 20
40.7705533377
 10
-79.1810182284
 20
40.7711530206
  0
LINE
  5
580
100
AcDbEntity
  8
DRAFT
100
AcDbLine
 62
7
  6
CONTINUOUS
 10
-72.6276981641
 20
-4.0
 11
-72.6457532339
 21
-4.0
  0
LINE
  5
581
100
AcDbEntity
  8
RACCORDO
100
AcDbLine
 62
7
  6
CONTINUOUS
 10
-73.0841202928
 20
-3.635045565
 11
-74.353844887
 21
-3.5239590572
  0
LINE
  5
582
100
AcDbEntity
  8
RACCORDO
100
AcDbLine
 62
250
  6
CONTINUOUS
 10
-79.1810182284
 20
40.0715794417
 11
-79.1846136072
 21
40.1837207898
  0
LINE
  5
583
100
AcDbEntity
  8
RACCORDO
100
AcDbLine
 62
250
  6
CONTINUOUS
 10
-79.1846136072
 20
40.1837207898
 11
-79.1868388818
 21
40.2660799568
  0
LINE
  5
584
100
AcDbEntity
  8
RACCORDO
100
AcDbLine
 62
250
  6
CONTINUOUS
 10
-79.1868388818
 20
40.2660799568
 11
-79.1886236578
 21
40.3456068296
  0
LINE
  5
585
100
AcDbEntity
  8
RACCORDO
100
AcDbLine
 62
250
  6
CONTINUOUS
 10
-79.1886236578
 20
40.3456068296
 11
-79.1899419455
 21
40.4211433232
  0
LINE
  5
586
100
AcDbEntity
  8
RACCORDO
100
AcDbLine
 62
250
  6
CONTINUOUS
 10
-79.1899419455
 20
40.4211433232
 11
-79.1907745493
 21
40.4915894709
  0
LINE
  5
587
100
AcDbEntity
  8
RACCORDO
100
AcDbLine
 62
250
  6
CONTINUOUS
 10
-79.1910532781
 20
-40.5949416137
 11
-79.1907740112
 21
-40.6305741541
  0
LINE
  5
588
100
AcDbEntity
  8
RACCORDO
100
AcDbLine
 62
250
  6
CONTINUOUS
 10
-79.1907745493
 20
40.4915894709
 11
-79.1910535105
 21
40.5352155056
  0
LINE
  5
589
100
AcDbEntity
  8
RACCORDO
100
AcDbLine
 62
250
  6
CONTINUOUS
 10
-79.1910535105
 20
40.5352155056
 11
-79.1911092691
 21
40.5758389551
  0
LINE
  5
58A
100
AcDbEntity
  8
RACCORDO
100
AcDbLine
 62
250
  6
CONTINUOUS
 10
-79.1911093465
 20
-40.5559194511
 11
-79.1910532781
 21
-40.5949416137
  0
LINE
  5
58B
100
AcDbEntity
  8
RACCORDO
100
AcDbLine
 62
250
  6
CONTINUOUS
 10
-79.1909418508
 20
-40.5137605637
 11
-79.1911093465
 21
-40.5559194511
  0
LWPOLYLINE
  5
58C
100
AcDbEntity
  8
RACCORDO
100
AcDbPolyline
 62
250
  6
CONTINUOUS
 90
3
 70
0
 10
-79.1911092691
 20
40.5758389551
 10
-79.1909414649
 20
40.6131965481
 10
-79.190774011
 20
40.6305741699
  0
LINE
  5
58D
100
AcDbEntity
  8
RACCORDO
100
AcDbLine
 62
250
  6
CONTINUOUS
 10
-79.190274191
 20
-40.445243276
 11
-79.1909418508
 21
-40.5137605637
  0
LINE
  5
58E
100
AcDbEntity
  8
RACCORDO
100
AcDbLine
 62
250
  6
CONTINUOUS
 10
-79.1891160094
 20
-40.3712846864
 11
-79.190274191
 21
-40.445243276
  0
LINE
  5
58F
100
AcDbEntity
  8
RACCORDO
100
AcDbLine
 62
250
  6
CONTINUOUS
 10
-79.1874841706
 20
-40.2929618066
 11
-79.1891160094
 21
-40.3712846864
  0
LINE
  5
590
100
AcDbEntity
  8
RACCORDO
100
AcDbLine
 62
250
  6
CONTINUOUS
 10
-79.1854024364
 20
-40.2114151686
 11
-79.1874841706
 21
-40.2929618066
  0
LWPOLYLINE
  5
591
100
AcDbEntity
  8
RACCORDO
100
AcDbPolyline
 62
250
  6
CONTINUOUS
 90
3
 70
0
 10
-79.1810182283
 20
-40.0715794417
 10
-79.1819802386
 20
-40.0997286544
 10
-79.1854024364
 20
-40.2114151686
  0
LWPOLYLINE
  5
592
100
AcDbEntity
  8
0
100
AcDbPolyline
 62
7
  6
CONTINUOUS
 90
4
 70
0
 43
0.3500000006
 10
-91.056268158
 20
-2.3571432495
 10
-91.9134151611
 20
-2.3571432495
 10
-92.3419841309
 20
-1.9285708809
 10
-92.3419841309
 20
-1.2857140274
  0
LINE
  5
593
100
AcDbEntity
  8
RACCORDO
100
AcDbLine
 62
7
  6
CONTINUOUS
 10
-74.6276981641
 20
-3.2251006478
 11
-74.6276981641
 21
3.2251006478
  0
LINE
  5
594
100
AcDbEntity
  8
RACCORDO
100
AcDbLine
 62
7
  6
CONTINUOUS
 10
-72.6276981641
 20
-4.0
 11
-72.6276981641
 21
-41.0
  0
LINE
  5
595
100
AcDbEntity
  8
RACCORDO
100
AcDbLine
 62
7
  6
CONTINUOUS
 10
-72.6276981641
 20
4.0
 11
-72.6276981641
 21
41.0
  0
LINE
  5
596
100
AcDbEntity
  8
RACCORDO
100
AcDbLine
 62
7
  6
CONTINUOUS
 10
-73.0841202928
 20
3.635045565
 11
-74.353844887
 21
3.5239590572
  0
LINE
  5
597
100
AcDbEntity
  8
DRAFT
100
AcDbLine
 62
7
  6
CONTINUOUS
 10
-72.6276981641
 20
4.0
 11
-72.6457521485
 21
4.0
  0
LWPOLYLINE
  5
598
100
AcDbEntity
  8
0
100
AcDbPolyline
 62
7
  6
CONTINUOUS
 90
10
 70
0
 43
0.3500000006
 10
-77.3598441467
 20
50.2500014191
 10
-77.2884129639
 20
50.1071435852
 10
-77.2884129639
 20
50.0357124023
 10
-77.4312662659
 20
49.8928591003
 10
-77.5026974487
 20
49.8928591003
 10
-77.5741286316
 20
49.9642857513
 10
-77.5741286316
 20
50.0357124023
 10
-77.5026974487
 20
50.1785702362
 10
-77.4312662659
 20
50.2500014191
 10
-77.3598441467
 20
50.2500014191
  0
LWPOLYLINE
  5
599
100
AcDbEntity
  8
RACCORDO
100
AcDbPolyline
 62
250
  6
CONTINUOUS
 90
37
 70
0
 10
-79.1810182284
 20
40.7711530206
 10
-79.208954917
 20
40.7696178009
 10
-79.2368083658
 20
40.7669670487
 10
-79.264534058
 20
40.7632049467
 10
-79.2920877172
 20
40.7583374465
 10
-79.3194252578
 20
40.7523722791
 10
-79.3465028594
 20
40.7453189595
 10
-79.3732773232
 20
40.7371886947
 10
-79.3997057538
 20
40.7279944639
 10
-79.4257455267
 20
40.7177510796
 10
-79.4513548749
 20
40.7064749922
 10
-79.476493025
 20
40.6941841757
 10
-79.5011198853
 20
40.6808982363
 10
-79.5251962075
 20
40.6666383366
 10
-79.5486833893
 20
40.651427328
 10
-79.5715436408
 20
40.6352897036
 10
-79.5937401392
 20
40.6182515287
 10
-79.6152377548
 20
40.6003398427
 10
-79.636002783
 20
40.5815827059
 10
-79.656002393
 20
40.562009635
 10
-79.6752041349
 20
40.5416522431
 10
-79.693576713
 20
40.5205436844
 10
-79.7110905546
 20
40.4987180223
 10
-79.7277179484
 20
40.476209882
 10
-79.7434324967
 20
40.4530550266
 10
-79.7582091202
 20
40.4292904039
 10
-79.7720241613
 20
40.4049540561
 10
-79.7848555681
 20
40.380084825
 10
-79.7966828769
 20
40.3547223432
 10
-79.8074871185
 20
40.328907255
 10
-79.8172509156
 20
40.3026811111
 10
-79.8259587433
 20
40.2760856688
 10
-79.8335966478
 20
40.2491636118
 10
-79.8401522702
 20
40.2219588036
 10
-79.8456152127
 20
40.1945150301
 10
-79.8499769466
 20
40.1668758993
 10
-79.853230633
 20
40.1390855955
  0
LINE
  5
59A
100
AcDbEntity
  8
RACCORDO
100
AcDbLine
 62
250
  6
CONTINUOUS
 10
-72.6276981641
 20
40.3004264211
 11
-79.1810182423
 21
40.0715794412
  0
LINE
  5
59B
100
AcDbEntity
  8
RACCORDO
100
AcDbLine
 62
250
  6
CONTINUOUS
 10
-79.8532306614
 20
40.1390855868
 11
-79.9381415471
 21
40.1361140651
  0
LINE
  5
59C
100
AcDbEntity
  8
RACCORDO
100
AcDbLine
 62
7
  6
CONTINUOUS
 10
-72.6276981641
 20
41.0
 11
-79.2658326034
 21
40.7681912374
  0
LWPOLYLINE
  5
59D
100
AcDbEntity
  8
0
100
AcDbPolyline
 62
7
  6
CONTINUOUS
 90
6
 70
0
 43
0.3500000006
 10
-76.2884126587
 20
49.7500012665
 10
-75.2169857025
 20
49.7500012665
 10
-75.0026966858
 20
49.9642857513
 10
-75.0026966858
 20
51.0357127075
 10
-75.4312701874
 20
51.4642862091
 10
-75.8598391571
 20
51.4642862091
  0
LINE
  5
59E
100
AcDbEntity
  8
RACCORDO
100
AcDbLine
 62
250
  6
CONTINUOUS
 10
-79.1810182284
 20
40.0715794417
 11
-79.490246099
 21
40.1018332603
  0
LINE
  5
59F
100
AcDbEntity
  8
RACCORDO
100
AcDbLine
 62
250
  6
CONTINUOUS
 10
-79.490246099
 20
40.1018332603
 11
-79.6932771773
 21
40.1220902272
  0
LINE
  5
5A0
100
AcDbEntity
  8
RACCORDO
100
AcDbLine
 62
250
  6
CONTINUOUS
 10
-79.6932771773
 20
40.1220902272
 11
-79.799393293
 21
40.1329896359
  0
LWPOLYLINE
  5
5A1
100
AcDbEntity
  8
RACCORDO
100
AcDbPolyline
 62
250
  6
CONTINUOUS
 90
3
 70
0
 10
-79.799393293
 20
40.1329896359
 10
-79.8281906847
 20
40.1360652284
 10
-79.841440672
 20
40.1375493434
  0
LWPOLYLINE
  5
5A2
100
AcDbEntity
  8
RACCORDO
100
AcDbPolyline
 62
250
  6
CONTINUOUS
 90
5
 70
0
 10
-79.841440672
 20
40.1375493434
 10
-79.8462327757
 20
40.1381081202
 10
-79.8497903255
 20
40.1385666568
 10
-79.8521264774
 20
40.1388985333
 10
-79.853230633
 20
40.1390855955
  0
ARC
  5
5A3
100
AcDbEntity
  8
0
100
AcDbCircle
 62
7
  6
CONTINUOUS
 10
334.3693755104
 20
0.0
 40
416.2470736745
100
AcDbArc
 50
174.4667276285
 51
185.5332723715
  0
ARC
  5
5A4
100
AcDbEntity
  8
RACCORDO
100
AcDbCircle
 62
7
  6
CONTINUOUS
 10
-79.2414032615
 20
-40.0686176478
 40
0.7
100
AcDbArc
 50
185.5332723717
 51
268.0
  0
ARC
  5
5A5
100
AcDbEntity
  8
RACCORDO
100
AcDbCircle
 62
7
  6
CONTINUOUS
 10
-79.2414032617
 20
40.0686176478
 40
0.7
100
AcDbArc
 50
92.0
 51
174.4667276283
  0
ARC
  5
5A6
100
AcDbEntity
  8
RACCORDO
100
AcDbCircle
 62
7
  6
CONTINUOUS
 10
-73.1276981641
 20
-4.1331429141
 40
0.5
100
AcDbArc
 50
0.0
 51
85.0
  0
ARC
  5
5A7
100
AcDbEntity
  8
RACCORDO
100
AcDbCircle
 62
7
  6
CONTINUOUS
 10
-73.1276981641
 20
4.1331429141
 40
0.5
100
AcDbArc
 50
275.0
 51
360.0
  0
ARC
  5
5A8
100
AcDbEntity
  8
RACCORDO
100
AcDbCircle
 62
7
  6
CONTINUOUS
 10
-74.3276981641
 20
3.2251006478
 40
0.3
100
AcDbArc
 50
95.0
 51
180.0
  0
ARC
  5
5A9
100
AcDbEntity
  8
RACCORDO
100
AcDbCircle
 62
7
  6
CONTINUOUS
 10
-74.3276981641
 20
-3.2251006478
 40
0.3
100
AcDbArc
 50
180.0
 51
265.0
  0
ELLIPSE
  5
5AA
100
AcDbEntity
  8
RACCORDO
100
AcDbEllipse
 62
7
  6
CONTINUOUS
 10
-59.299573319
 20
-40.299573319
 30
0.0
 11
0.4955779812
 21
0.4955779812
 31
0.0
 40
0.998782766
 41
-3.9263818294
 42
-2.3568034778
  0
ELLIPSE
  5
5AB
100
AcDbEntity
  8
RACCORDO
100
AcDbEllipse
 62
7
  6
CONTINUOUS
 10
59.299573319
 20
-40.299573319
 30
0.0
 11
0.4955779812
 21
-0.4955779812
 31
0.0
 40
0.998782766
 41
-0.7847891758
 42
0.7847891758
  0
ELLIPSE
  5
5AC
100
AcDbEntity
  8
RACCORDO
100
AcDbEllipse
 62
7
  6
CONTINUOUS
 10
59.299573319
 20
40.299573319
 30
0.0
 11
0.4955779812
 21
0.4955779812
 31
0.0
 40
0.998782766
 41
-0.7847891758
 42
0.7847891758
  0
ELLIPSE
  5
5AD
100
AcDbEntity
  8
RACCORDO
100
AcDbEllipse
 62
7
  6
CONTINUOUS
 10
-59.299573319
 20
40.299573319
 30
0.0
 11
0.4955779812
 21
-0.4955779812
 31
0.0
 40
0.998782766
 41
2.3568034778
 42
3.9263818294
  0
ELLIPSE
  5
5AE
100
AcDbEntity
  8
RACCORDO
100
AcDbEllipse
 62
7
  6
CONTINUOUS
 10
59.9406346919
 20
-3.2251006478
 30
0.0
 11
0.0
 21
0.3
 31
0.0
 40
0.0349207695
 41
1.5707963268
 42
3.054326191
  0
ELLIPSE
  5
5AF
100
AcDbEntity
  8
RACCORDO
100
AcDbEllipse
 62
7
  6
CONTINUOUS
 10
59.9406346919
 20
3.2251006478
 30
0.0
 11
-0.0
 21
0.3
 31
0.0
 40
0.0349207695
 41
0.0872664626
 42
1.5707963268
  0
ELLIPSE
  5
5B0
100
AcDbEntity
  8
RACCORDO
100
AcDbEllipse
 62
7
  6
CONTINUOUS
 10
-59.9406346919
 20
3.2251006478
 30
0.0
 11
-0.0
 21
0.3
 31
0.0
 40
0.0349207695
 41
-1.5707963268
 42
-0.0872664626
  0
ELLIPSE
  5
5B1
100
AcDbEntity
  8
RACCORDO
100
AcDbEllipse
 62
7
  6
CONTINUOUS
 10
-59.9406346919
 20
-3.2251006478
 30
0.0
 11
0.0
 21
0.3
 31
0.0
 40
0.0349207695
 41
-3.054326191
 42
-1.5707963268
  0
ELLIPSE
  5
5B2
100
AcDbEntity
  8
RACCORDO
100
AcDbEllipse
 62
7
  6
CONTINUOUS
 10
-59.9825396153
 20
4.1331429141
 30
0.0
 11
0.0
 21
0.5
 31
0.0
 40
0.0349207695
 41
-4.7123889804
 42
-3.2288591162
  0
ELLIPSE
  5
5B3
100
AcDbEntity
  8
RACCORDO
100
AcDbEllipse
 62
7
  6
CONTINUOUS
 10
59.9825396153
 20
4.1331429141
 30
0.0
 11
-0.0
 21
0.5
 31
0.0
 40
0.0349207695
 41
-3.054326191
 42
-1.5707963268
  0
ELLIPSE
  5
5B4
100
AcDbEntity
  8
RACCORDO
100
AcDbEllipse
 62
7
  6
CONTINUOUS
 10
-59.9825396153
 20
-4.1331429141
 30
0.0
 11
-0.0
 21
0.5
 31
0.0
 40
0.0349207695
 41
0.0872664626
 42
1.5707963268
  0
ELLIPSE
  5
5B5
100
AcDbEntity
  8
RACCORDO
100
AcDbEllipse
 62
7
  6
CONTINUOUS
 10
59.9825396153
 20
-4.1331429141
 30
0.0
 11
0.0
 21
0.5
 31
0.0
 40
0.0349207695
 41
-1.5707963268
 42
-0.0872664626
  0
ENDSEC
  0
SECTION
  2
OBJECTS
  0
DICTIONARY
  5
C
100
AcDbDictionary
280
0
281
1
  3
ACAD_GROUP
350
D
  3
ACAD_MLINESTYLE
350
17
  3
ACAD_LAYOUT
350
1A
  3
ACAD_PLOTSETTINGS
350
19
  3
ACAD_PLOTSTYLENAME
350
E
  0
DICTIONARY
  5
D
102
{ACAD_REACTORS
330
C
102
}
100
AcDbDictionary
280
0
281
1
  0
ACDBDICTIONARYWDFLT
  5
E
102
{ACAD_REACTORS
330
C
102
}
100
AcDbDictionary
281
1
  3
Normal
350
F
100
AcDbDictionaryWithDefault
340
F
  0
DICTIONARY
  5
17
102
{ACAD_REACTORS
330
C
102
}
100
AcDbDictionary
280
0
281
1
  3
Standard
350
18
  0
DICTIONARY
  5
19
102
{ACAD_REACTORS
330
C
102
}
100
AcDbDictionary
281
1
  0
DICTIONARY
  5
1A
102
{ACAD_REACTORS
330
C
102
}
100
AcDbDictionary
281
1
  3
Model
350
5B6
  3
Layout1
350
5B7
  0
ACDBPLACEHOLDER
  5
F
102
{ACAD_REACTORS
330
E
102
}
  0
MLINESTYLE
  5
18
102
{ACAD_REACTORS
330
17
102
}
100
AcDbMlineStyle
  2
STANDARD
 70
0
  3

 62
256
 51
90.0
 52
90.0
 71
2
 49
0.5
 62
256
  6
BYLAYER
 49
-0.5
 62
256
  6
BYLAYER
  0
LAYOUT
  5
5B6
102
{ACAD_REACTORS
330
1A
102
}
100
AcDbPlotSettings
  1

  2
none_device
  4
ISO_A4_(297.00_x_210.00_MM)
  6

 40
0.0
 41
0.0
 42
0.0
 43
0.0
 44
297.0
 45
210.0
 46
0.0
 47
0.0
 48
0.0
 49
0.0
140
0.0
141
0.0
142
1.0
143
1.0
 70
1024
 72
1
 73
0
 74
0
  7

 75
0
147
1.0
148
0.0
149
0.0
100
AcDbLayout
  1
Model
 70
0
 71
0
 10
0.0
 20
0.0
 11
297.0
 21
210.0
 12
0.0
 22
0.0
 32
0.0
 14
0.0
 24
0.0
 34
0.0
 15
0.0
 25
0.0
 35
0.0
146
0.0
 13
0.0
 23
0.0
 33
0.0
 16
1.0
 26
0.0
 36
0.0
 17
0.0
 27
1.0
 37
0.0
 76
0
330
218
345
0
346
0
  0
LAYOUT
  5
5B7
102
{ACAD_REACTORS
330
1A
102
}
100
AcDbPlotSettings
  1

  2
none_device
  4
ISO_A4_(297.00_x_210.00_MM)
  6

 40
0.0
 41
0.0
 42
0.0
 43
0.0
 44
297.0
 45
210.0
 46
0.0
 47
0.0
 48
0.0
 49
0.0
140
0.0
141
0.0
142
1.0
143
1.0
 70
0
 72
1
 73
0
 74
0
  7

 75
0
147
1.0
148
0.0
149
0.0
100
AcDbLayout
  1
Layout1
 70
0
 71
1
 10
0.0
 20
0.0
 11
297.0
 21
210.0
 12
0.0
 22
0.0
 32
0.0
 14
0.0
 24
0.0
 34
0.0
 15
0.0
 25
0.0
 35
0.0
146
0.0
 13
0.0
 23
0.0
 33
0.0
 16
1.0
 26
0.0
 36
0.0
 17
0.0
 27
1.0
 37
0.0
 76
0
330
219
345
0
346
0
  0
ENDSEC
  0
EOF
