  0
SECTION
  2
HEADER
  9
$ACADVER
  1
AC1024
  9
$DWGCODEPAGE
  3
ANSI_1252
  9
$EXTMAX
 10
297.0
 20
210.0
 30
0.0
  9
$EXTMIN
 10
0.0
 20
0.0
 30
0.0
  9
$LIMMIN
 10
0.0
 20
0.0
  9
$LIMMAX
 10
297.0
 20
210.0
  9
$VIEWCTR
 10
148.5
 20
105.0
  9
$VIEWSIZE
 40
210.0
  9
$CLAYER
  8
0
  9
$LTSCALE
 40
16.335
  9
$CELTYPE
  6
BYLAYER
  9
$DIMSCALE
 40
1.0
  9
$DIMASZ
 40
3.0
  9
$DIMEXO
 40
0.5
  9
$DIMDLI
 40
11.286
  9
$DIMEXE
 40
1.5
  9
$DIMCEN
 40
2.673
  9
$DIMLFAC
 40
1.0
  9
$DIMBLK
  1
_FILLED
  9
$DIMALT
 70
0
  9
$DIMALTF
 40
0.0393700787
  9
$DIMTXT
 40
3.0
  9
$DIMTOL
 70
1
  9
$DIMLIM
 70
0
  9
$DIMTFAC
 40
1.0
  9
$DIMTP
 40
0.01
  9
$DIMTM
 40
0.01
  9
$DIMGAP
 40
0.625
  9
$DIMDSEP
 70
44
  9
$AUNITS
 70
0
  9
$PDMODE
 70
3
  9
$PDSIZE
 40
3.0
  9
$HANDSEED
  5
4F8
  9
$TILEMODE
 70
1
  9
$MEASUREMENT
 70
1
  9
$INSUNITS
 70
4
  0
ENDSEC
  0
SECTION
  2
CLASSES
  0
CLASS
  1
ACDBDICTIONARYWDFLT
  2
AcDbDictionaryWithDefault
  3
AutoCAD 2000
 90
0
 91
1
280
0
281
0
  0
CLASS
  1
ACDBPLACEHOLDER
  2
AcDbPlaceHolder
  3
AutoCAD 2000
 90
0
 91
1
280
0
281
0
  0
CLASS
  1
LAYOUT
  2
AcDbLayout
  3
AutoCAD 2000
 90
0
 91
0
280
0
281
0
  0
ENDSEC
  0
SECTION
  2
TABLES
  0
TABLE
  2
VPORT
  5
8
100
AcDbSymbolTable
 70
2
  0
VPORT
  5
1F4
100
AcDbSymbolTableRecord
100
AcDbViewportTableRecord
  2
*ACTIVE
 70
0
 10
0.0
 20
0.0
 11
1.0
 21
1.0
 12
148.5
 22
105.0
 13
0.0
 23
0.0
 14
1.0
 24
1.0
 15
0.0
 25
0.0
 16
0.0
 26
0.0
 36
1.0
 17
0.0
 27
0.0
 37
0.0
 40
210.0
 41
1.4142857143
 42
50.0
 43
0.0
 44
0.0
 50
0.0
 51
0.0
 71
0
 72
100
 73
1
 74
1
 75
0
 76
0
 77
0
 78
0
  0
ENDTAB
  0
TABLE
  2
LTYPE
  5
5
100
AcDbSymbolTable
 70
6
  0
LTYPE
  5
14
100
AcDbSymbolTableRecord
100
AcDbLinetypeTableRecord
  2
BYBLOCK
 70
0
  3

 72
65
 73
0
 40
0.0
  0
LTYPE
  5
15
100
AcDbSymbolTableRecord
100
AcDbLinetypeTableRecord
  2
BYLAYER
 70
0
  3

 72
65
 73
0
 40
0.0
  0
LTYPE
  5
16
100
AcDbSymbolTableRecord
100
AcDbLinetypeTableRecord
  2
CONTINUOUS
 70
64
  3
Solid line
 72
65
 73
0
 40
0.0
  0
LTYPE
  5
1F5
100
AcDbSymbolTableRecord
100
AcDbLinetypeTableRecord
  2
CENTER
 70
64
  3
____ _ ____ _ ____ _ ____ _ ____ _ ____ _ ____
 72
65
 73
4
 40
0.6
 49
0.375
 74
0
 49
-0.075
 74
0
 49
0.075
 74
0
 49
-0.075
 74
0
  0
LTYPE
  5
1F6
100
AcDbSymbolTableRecord
100
AcDbLinetypeTableRecord
  2
HIDDEN
 70
64
  3
- - - - - - - - - - - - - - - - - - - -
 72
65
 73
2
 40
0.2
 49
0.1
 74
0
 49
-0.1
 74
0
  0
LTYPE
  5
1F7
100
AcDbSymbolTableRecord
100
AcDbLinetypeTableRecord
  2
PHANTOM
 70
64
  3
_____ _ _ _____ _ _ _____ _ _ _____
 72
65
 73
6
 40
0.8
 49
0.45
 74
0
 49
-0.05
 74
0
 49
0.1
 74
0
 49
-0.05
 74
0
 49
0.1
 74
0
 49
-0.05
 74
0
  0
LTYPE
  5
1F8
100
AcDbSymbolTableRecord
100
AcDbLinetypeTableRecord
  2
DOT
 70
64
  3
. . . . . . . . . . . . . . . . . . . .
 72
65
 73
2
 40
0.2
 49
0.1
 74
0
 49
-0.1
 74
0
  0
LTYPE
  5
1F9
100
AcDbSymbolTableRecord
100
AcDbLinetypeTableRecord
  2
DASHED
 70
64
  3
- - - - - - - - - - - - - - - - - - - -
 72
65
 73
2
 40
0.2
 49
0.1
 74
0
 49
-0.1
 74
0
  0
ENDTAB
  0
TABLE
  2
LAYER
  5
2
100
AcDbSymbolTable
 70
36
  0
LAYER
  5
10
100
AcDbSymbolTableRecord
100
AcDbLayerTableRecord
  2
0
 70
0
 62
7
  6
CONTINUOUS
370
-3
390
F
  0
LAYER
  5
1FA
100
AcDbSymbolTableRecord
100
AcDbLayerTableRecord
  2
DEFAULT_1
 70
0
 62
7
  6
CENTER
370
-3
390
F
  0
LAYER
  5
1FB
100
AcDbSymbolTableRecord
100
AcDbLayerTableRecord
  2
DEFAULT_2
 70
0
 62
7
  6
HIDDEN
370
-3
390
F
  0
LAYER
  5
1FC
100
AcDbSymbolTableRecord
100
AcDbLayerTableRecord
  2
DEFAULT_3
 70
0
 62
7
  6
PHANTOM
370
-3
390
F
  0
LAYER
  5
1FD
100
AcDbSymbolTableRecord
100
AcDbLayerTableRecord
  2
ASSI
 70
0
 62
7
  6
CONTINUOUS
370
-3
390
F
  0
LAYER
  5
1FE
100
AcDbSymbolTableRecord
100
AcDbLayerTableRecord
  2
COORDINATE
 70
0
 62
7
  6
CONTINUOUS
370
-3
390
F
  0
LAYER
  5
1FF
100
AcDbSymbolTableRecord
100
AcDbLayerTableRecord
  2
COORD_ORIGINE
 70
0
 62
7
  6
CONTINUOUS
370
-3
390
F
  0
LAYER
  5
200
100
AcDbSymbolTableRecord
100
AcDbLayerTableRecord
  2
COSMETICI
 70
0
 62
7
  6
CONTINUOUS
370
-3
390
F
  0
LAYER
  5
201
100
AcDbSymbolTableRecord
100
AcDbLayerTableRecord
  2
CURVE
 70
0
 62
7
  6
CONTINUOUS
370
-3
390
F
  0
LAYER
  5
202
100
AcDbSymbolTableRecord
100
AcDbLayerTableRecord
  2
DRAFT
 70
0
 62
7
  6
CONTINUOUS
370
-3
390
F
  0
LAYER
  5
203
100
AcDbSymbolTableRecord
100
AcDbLayerTableRecord
  2
IMPORT
 70
0
 62
7
  6
CONTINUOUS
370
-3
390
F
  0
LAYER
  5
204
100
AcDbSymbolTableRecord
100
AcDbLayerTableRecord
  2
INTF_1
 70
0
 62
7
  6
CONTINUOUS
370
-3
390
F
  0
LAYER
  5
205
100
AcDbSymbolTableRecord
100
AcDbLayerTableRecord
  2
NOTE
 70
0
 62
7
  6
CONTINUOUS
370
-3
390
F
  0
LAYER
  5
206
100
AcDbSymbolTableRecord
100
AcDbLayerTableRecord
  2
PIANI
 70
0
 62
7
  6
CONTINUOUS
370
-3
390
F
  0
LAYER
  5
207
100
AcDbSymbolTableRecord
100
AcDbLayerTableRecord
  2
PIANI_ORIGINE
 70
0
 62
7
  6
CONTINUOUS
370
-3
390
F
  0
LAYER
  5
208
100
AcDbSymbolTableRecord
100
AcDbLayerTableRecord
  2
PUNTI
 70
0
 62
7
  6
CONTINUOUS
370
-3
390
F
  0
LAYER
  5
209
100
AcDbSymbolTableRecord
100
AcDbLayerTableRecord
  2
RACCORDO
 70
0
 62
7
  6
CONTINUOUS
370
-3
390
F
  0
LAYER
  5
20A
100
AcDbSymbolTableRecord
100
AcDbLayerTableRecord
  2
RGB____0____0____0__
 70
0
 62
7
  6
CONTINUOUS
370
-3
390
F
  0
LAYER
  5
20B
100
AcDbSymbolTableRecord
100
AcDbLayerTableRecord
  2
SIMBOLI
 70
0
 62
7
  6
CONTINUOUS
370
-3
390
F
  0
LAYER
  5
20C
100
AcDbSymbolTableRecord
100
AcDbLayerTableRecord
  2
SNAPLINE
 70
0
 62
7
  6
CONTINUOUS
370
-3
390
F
  0
LAYER
  5
20D
100
AcDbSymbolTableRecord
100
AcDbLayerTableRecord
  2
SUPERFICI
 70
0
 62
7
  6
CONTINUOUS
370
-3
390
F
  0
LAYER
  5
20E
100
AcDbSymbolTableRecord
100
AcDbLayerTableRecord
  2
TRASH
 70
0
 62
7
  6
CONTINUOUS
370
-3
390
F
  0
LAYER
  5
20F
100
AcDbSymbolTableRecord
100
AcDbLayerTableRecord
  2
XSEC_DATUMS
 70
0
 62
7
  6
CONTINUOUS
370
-3
390
F
  0
ENDTAB
  0
TABLE
  2
STYLE
  5
3
100
AcDbSymbolTable
 70
1
  0
STYLE
  5
11
100
AcDbSymbolTableRecord
100
AcDbTextStyleTableRecord
  2
STANDARD
 70
0
 40
0.0
 41
0.8
 50
0.0
 71
0
 42
0.2
  3
txt
  4

  0
STYLE
  5
210
100
AcDbSymbolTableRecord
100
AcDbTextStyleTableRecord
  2
TEXTSTYLE_1
 70
0
 40
0.0
 41
0.8
 50
0.0
 71
0
 42
0.2
  3
gdt
  4

  0
ENDTAB
  0
TABLE
  2
VIEW
  5
6
100
AcDbSymbolTable
 70
0
  0
ENDTAB
  0
TABLE
  2
UCS
  5
7
100
AcDbSymbolTable
 70
0
  0
ENDTAB
  0
TABLE
  2
APPID
  5
9
100
AcDbSymbolTable
 70
1
  0
APPID
  5
211
100
AcDbSymbolTableRecord
100
AcDbRegAppTableRecord
  2
ACAD
 70
0
  0
ENDTAB
  0
TABLE
  2
BLOCK_RECORD
  5
1
100
AcDbSymbolTable
 70
0
  0
BLOCK_RECORD
  5
212
100
AcDbSymbolTableRecord
100
AcDbBlockTableRecord
  2
*Model_Space
  0
BLOCK_RECORD
  5
213
100
AcDbSymbolTableRecord
100
AcDbBlockTableRecord
  2
*Paper_Space
  0
BLOCK_RECORD
  5
214
100
AcDbSymbolTableRecord
100
AcDbBlockTableRecord
  2
_FILLED
  0
BLOCK_RECORD
  5
215
100
AcDbSymbolTableRecord
100
AcDbBlockTableRecord
  2
*D0
  0
BLOCK_RECORD
  5
216
100
AcDbSymbolTableRecord
100
AcDbBlockTableRecord
  2
*D1
  0
BLOCK_RECORD
  5
217
100
AcDbSymbolTableRecord
100
AcDbBlockTableRecord
  2
*D2
  0
ENDTAB
  0
TABLE
  2
DIMSTYLE
  5
A
100
AcDbSymbolTable
 70
1
100
AcDbDimStyleTable
 71
0
  0
DIMSTYLE
105
218
100
AcDbSymbolTableRecord
100
AcDbDimStyleTableRecord
  2
STANDARD
 70
0
  3

  4

 40
1.0
 41
3.0
 42
0.5
 43
0.38
 44
1.5
 45
0.0
 46
0.0
 47
0.01
 48
0.01
140
3.0
141
0.09
142
0.0
143
25.4
144
1.0
145
0.0
146
1.0
147
0.625
 71
1
 72
0
 73
0
 74
0
 75
0
 76
0
 77
1
 78
8
 79
2
170
0
171
1
172
0
173
0
174
0
175
0
176
0
177
0
178
0
270
2
179
2
271
2
272
2
273
2
274
2
275
0
280
0
281
0
282
0
283
1
284
8
285
0
286
0
287
3
288
0
340
11
278
44
341
214
342
214
343
214
344
214
  0
DIMSTYLE
105
219
100
AcDbSymbolTableRecord
100
AcDbDimStyleTableRecord
  2
DIMSTYLE_1
 70
0
  3

  4

 40
1.0
 41
3.0
 42
0.5
 43
0.38
 44
1.5
 45
0.0
 46
0.0
 47
0.0
 48
0.0
140
3.0
141
0.09
142
0.0
143
25.4
144
1.0
145
0.0
146
1.0
147
0.75
 71
0
 72
0
 73
0
 74
0
 75
0
 76
0
 77
1
 78
8
 79
2
170
0
171
1
172
0
173
0
174
0
175
0
176
0
177
0
178
0
270
2
179
2
271
2
272
2
273
2
274
2
275
0
280
0
281
0
282
0
283
1
284
8
285
0
286
0
287
3
288
0
340
11
278
44
341
214
342
214
343
214
344
214
  0
ENDTAB
  0
ENDSEC
  0
SECTION
  2
BLOCKS
  0
BLOCK
  5
20
100
AcDbEntity
  8
0
100
AcDbBlockBegin
  2
*Model_Space
 70
0
 10
0.0
 20
0.0
 30
0.0
  3
*Model_Space
  1

  0
ENDBLK
  5
21
100
AcDbEntity
  8
0
100
AcDbBlockEnd
  0
BLOCK
  5
1C
100
AcDbEntity
  8
0
100
AcDbBlockBegin
  2
*Paper_Space
 70
0
 10
0.0
 20
0.0
 30
0.0
  3
*Paper_Space
  1

  0
ENDBLK
  5
1D
100
AcDbEntity
  8
0
100
AcDbBlockEnd
  0
BLOCK
  5
21A
100
AcDbEntity
  8
0
100
AcDbBlockBegin
  2
_FILLED
 70
64
 10
0.0
 20
0.0
  3
_FILLED
  1

  0
SOLID
  5
21B
100
AcDbEntity
  8
0
  6
BYBLOCK
 62
0
100
AcDbTrace
 10
0.0
 20
0.0
 11
-1.0
 21
0.3166666667
 12
-1.0
 22
-0.3166666667
 13
-1.0
 23
-0.3166666667
  0
ENDBLK
  5
21C
100
AcDbEntity
  8
0
  6
BYBLOCK
 62
0
100
AcDbBlockEnd
  0
BLOCK
  5
21D
100
AcDbEntity
  8
0
100
AcDbBlockBegin
 62
7
  6
CONTINUOUS
  2
*D0
 70
65
 10
0.0
 20
0.0
  3
*D0
  1

  0
LINE
  5
21E
100
AcDbEntity
  8
0
100
AcDbLine
 62
7
  6
CONTINUOUS
 10
-60.0
 20
40.3016445583
 11
-60.0
 21
50.5
  0
LINE
  5
21F
100
AcDbEntity
  8
0
100
AcDbLine
 62
7
  6
CONTINUOUS
 10
60.0
 20
40.3016445583
 11
60.0
 21
50.5
  0
LINE
  5
220
100
AcDbEntity
  8
0
100
AcDbLine
 62
7
  6
CONTINUOUS
 10
-60.0
 20
49.0
 11
0.0
 21
49.0
  0
LINE
  5
221
100
AcDbEntity
  8
0
100
AcDbLine
 62
7
  6
CONTINUOUS
 10
60.0
 20
49.0
 11
0.0
 21
49.0
  0
INSERT
  5
222
100
AcDbEntity
  8
0
100
AcDbBlockReference
 62
7
  6
CONTINUOUS
  2
_FILLED
 10
-60.0
 20
49.0
 41
3.0
 42
3.0
 43
3.0
 50
180.0
  0
INSERT
  5
223
100
AcDbEntity
  8
0
100
AcDbBlockReference
 62
7
  6
CONTINUOUS
  2
_FILLED
 10
60.0
 20
49.0
 41
3.0
 42
3.0
 43
3.0
  0
ENDBLK
  5
224
100
AcDbEntity
  8
0
  6
BYBLOCK
 62
0
100
AcDbBlockEnd
  0
BLOCK
  5
225
100
AcDbEntity
  8
0
100
AcDbBlockBegin
 62
7
  6
CONTINUOUS
  2
*D1
 70
65
 10
0.0
 20
0.0
  3
*D1
  1

  0
LINE
  5
226
100
AcDbEntity
  8
0
100
AcDbLine
 62
7
  6
CONTINUOUS
 10
-81.7068369095
 20
0.5
 11
-81.7068369095
 21
50.5
  0
LINE
  5
227
100
AcDbEntity
  8
0
100
AcDbLine
 62
7
  6
CONTINUOUS
 10
-72.8068369095
 20
41.5
 11
-72.8068369095
 21
50.5
  0
LINE
  5
228
100
AcDbEntity
  8
0
100
AcDbLine
 62
7
  6
CONTINUOUS
 10
-81.7068369095
 20
49.0
 11
-85.7068369095
 21
49.0
  0
LINE
  5
229
100
AcDbEntity
  8
0
100
AcDbLine
 62
7
  6
CONTINUOUS
 10
-85.7068369095
 20
49.0
 11
-77.2568369095
 21
49.0
  0
LINE
  5
22A
100
AcDbEntity
  8
0
100
AcDbLine
 62
7
  6
CONTINUOUS
 10
-72.8068369095
 20
49.0
 11
-68.8068369095
 21
49.0
  0
LINE
  5
22B
100
AcDbEntity
  8
0
100
AcDbLine
 62
7
  6
CONTINUOUS
 10
-68.8068369095
 20
49.0
 11
-77.2568369095
 21
49.0
  0
INSERT
  5
22C
100
AcDbEntity
  8
0
100
AcDbBlockReference
 62
7
  6
CONTINUOUS
  2
_FILLED
 10
-81.7068369095
 20
49.0
 41
3.0
 42
3.0
 43
3.0
  0
INSERT
  5
22D
100
AcDbEntity
  8
0
100
AcDbBlockReference
 62
7
  6
CONTINUOUS
  2
_FILLED
 10
-72.8068369095
 20
49.0
 41
3.0
 42
3.0
 43
3.0
 50
180.0
  0
ENDBLK
  5
22E
100
AcDbEntity
  8
0
  6
BYBLOCK
 62
0
100
AcDbBlockEnd
  0
BLOCK
  5
22F
100
AcDbEntity
  8
0
100
AcDbBlockBegin
 62
7
  6
CONTINUOUS
  2
*D2
 70
65
 10
0.0
 20
0.0
  3
*D2
  1

  0
LINE
  5
230
100
AcDbEntity
  8
0
100
AcDbLine
 62
7
  6
CONTINUOUS
 10
-73.3068369095
 20
41.0
 11
-91.2068369095
 21
41.0
  0
LINE
  5
231
100
AcDbEntity
  8
0
100
AcDbLine
 62
7
  6
CONTINUOUS
 10
-73.3068369095
 20
-41.0
 11
-91.2068369095
 21
-41.0
  0
LINE
  5
232
100
AcDbEntity
  8
0
100
AcDbLine
 62
7
  6
CONTINUOUS
 10
-89.7068369095
 20
41.0
 11
-89.7068369095
 21
0.0
  0
LINE
  5
233
100
AcDbEntity
  8
0
100
AcDbLine
 62
7
  6
CONTINUOUS
 10
-89.7068369095
 20
-41.0
 11
-89.7068369095
 21
0.0
  0
INSERT
  5
234
100
AcDbEntity
  8
0
100
AcDbBlockReference
 62
7
  6
CONTINUOUS
  2
_FILLED
 10
-89.7068369095
 20
41.0
 41
3.0
 42
3.0
 43
3.0
 50
90.0
  0
INSERT
  5
235
100
AcDbEntity
  8
0
100
AcDbBlockReference
 62
7
  6
CONTINUOUS
  2
_FILLED
 10
-89.7068369095
 20
-41.0
 41
3.0
 42
3.0
 43
3.0
 50
270.0
  0
ENDBLK
  5
236
100
AcDbEntity
  8
0
  6
BYBLOCK
 62
0
100
AcDbBlockEnd
  0
ENDSEC
  0
SECTION
  2
ENTITIES
  0
DIMENSION
  5
237
100
AcDbEntity
  8
0
100
AcDbDimension
 62
7
  6
CONTINUOUS
  2
*D0
 10
60.0
 20
49.0
 11
-3.2142857143
 21
49.0
 70
160
 71
2
 72
2
 41
0.9
 42
120.0
  3
DIMSTYLE_1
100
AcDbAlignedDimension
 13
-60.0
 23
39.8016445583
 14
60.0
 24
39.8016445583
100
AcDbRotatedDimension
  0
DIMENSION
  5
238
100
AcDbEntity
  8
0
100
AcDbDimension
 62
7
  6
CONTINUOUS
  2
*D1
 10
-72.8068369095
 20
49.0
 11
-80.4711226238
 21
49.0
 70
160
 71
2
 72
2
 41
0.9
 42
8.9
  3
DIMSTYLE_1
100
AcDbAlignedDimension
 13
-81.7068369095
 23
0.0
 14
-72.8068369095
 24
41.0
100
AcDbRotatedDimension
  0
DIMENSION
  5
239
100
AcDbEntity
  8
0
100
AcDbDimension
 62
7
  6
CONTINUOUS
  2
*D2
 10
-89.7068369095
 20
-41.0
 11
-89.7068369095
 21
-2.3571428571
 70
160
 71
2
 72
2
 41
0.9
 42
82.0
  3
DIMSTYLE_1
100
AcDbAlignedDimension
 13
-72.8068369095
 23
41.0
 14
-72.8068369095
 24
-41.0
 50
270.0
100
AcDbRotatedDimension
  0
LWPOLYLINE
  5
23A
100
AcDbEntity
  8
RACCORDO
100
AcDbPolyline
 62
250
  6
CONTINUOUS
 90
37
 70
0
 10
-59.6909734094
 20
39.4926179677
 10
-59.69000535
 20
39.4941710578
 10
-59.6888137377
 20
39.4957203249
 10
-59.6873987315
 20
39.4972673619
 10
-59.6857597344
 20
39.4988154664
 10
-59.6838968127
 20
39.5003640064
 10
-59.6818114118
 20
39.5019090695
 10
-59.6795035298
 20
39.5034527412
 10
-59.6769727782
 20
39.5049962085
 10
-59.6742209395
 20
39.5065351317
 10
-59.6712480497
 20
39.5080717697
 10
-59.6680537497
 20
39.5096075676
 10
-59.6646400809
 20
39.5111377643
 10
-59.6610071749
 20
39.5126647784
 10
-59.6571547437
 20
39.5141903112
 10
-59.6530849871
 20
39.5157092059
 10
-59.6487981684
 20
39.5172240262
 10
-59.6442941212
 20
39.5187367173
 10
-59.6395751209
 20
39.5202417564
 10
-59.634641596
 20
39.5217418348
 10
-59.6294935431
 20
39.5232391268
 10
-59.6241332411
 20
39.5247277802
 10
-59.6185613078
 20
39.5262105951
 10
-59.6127779382
 20
39.5276899551
 10
-59.6067853586
 20
39.529159721
 10
-59.6005843929
 20
39.5306227813
 10
-59.5941754608
 20
39.532081705
 10
-59.5875606954
 20
39.5335301134
 10
-59.5807411359
 20
39.5349709619
 10
-59.5737174443
 20
39.5364069789
 10
-59.5664916345
 20
39.5378315955
 10
-59.5590649645
 20
39.5392478133
 10
-59.5514383478
 20
39.5406584916
 10
-59.543613666
 20
39.5420569218
 10
-59.5355923939
 20
39.5434461313
 10
-59.5273756987
 20
39.5448290821
 10
-59.518965327
 20
39.5461989748
  0
LWPOLYLINE
  5
23B
100
AcDbEntity
  8
RACCORDO
100
AcDbPolyline
 62
250
  6
CONTINUOUS
 90
39
 70
0
 10
-59.6909734094
 20
-39.4926179677
 10
-59.6900058629
 20
-39.4941681985
 10
-59.6888141817
 20
-39.4957181396
 10
-59.687398589
 20
-39.4972675009
 10
-59.6857593497
 20
-39.4988159926
 10
-59.6838967707
 20
-39.5003633247
 10
-59.6818112006
 20
-39.5019092075
 10
-59.6795030298
 20
-39.5034533517
 10
-59.6769726903
 20
-39.5049954683
 10
-59.6742206559
 20
-39.5065352685
 10
-59.6712474417
 20
-39.5080724642
 10
-59.6680536041
 20
-39.5096067677
 10
-59.6646397411
 20
-39.5111378916
 10
-59.6610064916
 20
-39.5126655495
 10
-59.6571545359
 20
-39.5141894553
 10
-59.6530845948
 20
-39.5157093238
 10
-59.6487974302
 20
-39.5172248706
 10
-59.6442938447
 20
-39.5187358118
 10
-59.6395746812
 20
-39.5202418647
 10
-59.6346408232
 20
-39.5217427474
 10
-59.629493194
 20
-39.5232381789
 10
-59.6241327575
 20
-39.5247278793
 10
-59.6185605168
 20
-39.5262115698
 10
-59.6127775151
 20
-39.5276889726
 10
-59.6067848349
 20
-39.5291598112
 10
-59.6005835979
 20
-39.5306238102
 10
-59.5941749649
 20
-39.5320806956
 10
-59.5875601355
 20
-39.5335301948
 10
-59.5807403479
 20
-39.5349720363
 10
-59.5737168787
 20
-39.5364059503
 10
-59.5664910426
 20
-39.5378316684
 10
-59.5590641922
 20
-39.5392489236
 10
-59.5514377176
 20
-39.5406574508
 10
-59.5436130465
 20
-39.5420569863
 10
-59.5355916435
 20
-39.543447268
 10
-59.5273750101
 20
-39.5448280358
 10
-59.5189646843
 20
-39.5461990311
 10
-59.5103622405
 20
-39.5475599974
 10
-59.4925874754
 20
-39.5502508257
  0
LWPOLYLINE
  5
23C
100
AcDbEntity
  8
RACCORDO
100
AcDbPolyline
 62
250
  6
CONTINUOUS
 90
115
 70
0
 10
-59.6909734094
 20
-39.4926179677
 10
-59.6908149112
 20
-39.5091001567
 10
-59.6904297335
 20
-39.5255793735
 10
-59.689817943
 20
-39.5420525004
 10
-59.6889796467
 20
-39.5585164693
 10
-59.6879149986
 20
-39.5749681164
 10
-59.6866242065
 20
-39.5914041833
 10
-59.6851075199
 20
-39.6078215089
 10
-59.6833652219
 20
-39.6242170387
 10
-59.6813976411
 20
-39.6405876798
 10
-59.6792051484
 20
-39.6569303407
 10
-59.676788159
 20
-39.6732419236
 10
-59.6741471314
 20
-39.6895193334
 10
-59.6712825658
 20
-39.7057594873
 10
-59.6681950036
 20
-39.721959316
 10
-59.664885029
 20
-39.7381157551
 10
-59.6613532679
 20
-39.7542257481
 10
-59.6576003888
 20
-39.7702862469
 10
-59.6536271017
 20
-39.7862942121
 10
-59.6494341584
 20
-39.8022466148
 10
-59.6450223523
 20
-39.8181404373
 10
-59.640392518
 20
-39.8339726727
 10
-59.6355455312
 20
-39.8497403258
 10
-59.6304823092
 20
-39.8654404134
 10
-59.6252038097
 20
-39.881069965
 10
-59.6197110316
 20
-39.8966260237
 10
-59.614005014
 20
-39.9121056464
 10
-59.6080868364
 20
-39.9275059044
 10
-59.6019576184
 20
-39.9428238841
 10
-59.5956185198
 20
-39.9580566874
 10
-59.5890707399
 20
-39.9732014325
 10
-59.5823155173
 20
-39.9882552539
 10
-59.5753541303
 20
-40.0032153036
 10
-59.5681878957
 20
-40.0180787514
 10
-59.5608181695
 20
-40.032842785
 10
-59.5532463459
 20
-40.0475046112
 10
-59.5454738575
 20
-40.0620614561
 10
-59.5375021748
 20
-40.0765105656
 10
-59.5293328059
 20
-40.0908492061
 10
-59.5209672965
 20
-40.1050746647
 10
-59.5124072293
 20
-40.1191842501
 10
-59.5036542238
 20
-40.1331752928
 10
-59.494709936
 20
-40.1470451458
 10
-59.485576058
 20
-40.160791185
 10
-59.4762543181
 20
-40.1744108097
 10
-59.4667464797
 20
-40.1879014432
 10
-59.4570543418
 20
-40.201260533
 10
-59.447179738
 20
-40.2144855519
 10
-59.4371245365
 20
-40.2275739975
 10
-59.4268906398
 20
-40.2405233938
 10
-59.4164799839
 20
-40.2533312907
 10
-59.4058945386
 20
-40.265995265
 10
-59.3951363066
 20
-40.2785129208
 10
-59.3842073232
 20
-40.2908818898
 10
-59.3731096562
 20
-40.3030998319
 10
-59.3618454051
 20
-40.3151644355
 10
-59.3504167011
 20
-40.3270734181
 10
-59.3388257065
 20
-40.3388245264
 10
-59.3270746141
 20
-40.3504155374
 10
-59.3151656473
 20
-40.361844258
 10
-59.3031010591
 20
-40.373108526
 10
-59.2908831321
 20
-40.3842062103
 10
-59.2785141779
 20
-40.3951352111
 10
-59.2659965365
 20
-40.4058934609
 10
-59.2533325763
 20
-40.4164789242
 10
-59.2405246932
 20
-40.4268895983
 10
-59.2275753104
 20
-40.4371235135
 10
-59.2144868778
 20
-40.4471787338
 10
-59.2012618717
 20
-40.4570533565
 10
-59.1879027942
 20
-40.4667455137
 10
-59.1744121727
 20
-40.4762533714
 10
-59.1607925596
 20
-40.485575131
 10
-59.1470465317
 20
-40.4947090287
 10
-59.1331766896
 20
-40.5036533366
 10
-59.1191856574
 20
-40.5124063623
 10
-59.1050760821
 20
-40.5209664499
 10
-59.0908506333
 20
-40.5293319798
 10
-59.0765120022
 20
-40.5375013693
 10
-59.0620629017
 20
-40.5454730729
 10
-59.0475060654
 20
-40.5532455822
 10
-59.0328442474
 20
-40.5608174269
 10
-59.0180802217
 20
-40.5681871744
 10
-59.0032167814
 20
-40.5753534302
 10
-58.9882567388
 20
-40.5823148387
 10
-58.9732029241
 20
-40.5890700828
 10
-58.9580581855
 20
-40.5956178843
 10
-58.9428253883
 20
-40.6019570046
 10
-58.9275074143
 20
-40.6080862442
 10
-58.9121071617
 20
-40.6140044436
 10
-58.8966275441
 20
-40.619710483
 10
-58.8810714903
 20
-40.6252032829
 10
-58.8654419432
 20
-40.6304818042
 10
-58.8497418599
 20
-40.6355450481
 10
-58.8339742108
 20
-40.6403920567
 10
-58.818141979
 20
-40.645021913
 10
-58.80224816
 20
-40.649433741
 10
-58.7862957607
 20
-40.653626706
 10
-58.7702877992
 20
-40.6576000148
 10
-58.7542273041
 20
-40.6613529156
 10
-58.7381173141
 20
-40.6648846984
 10
-58.7219608769
 20
-40.668194695
 10
-58.7057610494
 20
-40.6712822792
 10
-58.6895208965
 20
-40.6741468668
 10
-58.6732434906
 20
-40.6767879158
 10
-58.6569319114
 20
-40.6792049267
 10
-58.6405892449
 20
-40.681397442
 10
-58.6242185831
 20
-40.683365047
 10
-58.6078230233
 20
-40.6851073695
 10
-58.5914056673
 20
-40.6866240797
 10
-58.5749696213
 20
-40.6879148908
 10
-58.5585179949
 20
-40.6889795585
 10
-58.5420539007
 20
-40.6898178813
 10
-58.5255804534
 20
-40.6904297008
 10
-58.5091007698
 20
-40.6908149011
 10
-58.4926179677
 20
-40.6909734094
  0
LINE
  5
23D
100
AcDbEntity
  8
RACCORDO
100
AcDbLine
 62
7
  6
CONTINUOUS
 10
-60.0
 20
39.8016445583
 11
-60.0
 21
3.6749773271
  0
LINE
  5
23E
100
AcDbEntity
  8
RACCORDO
100
AcDbLine
 62
7
  6
CONTINUOUS
 10
-60.0
 20
-3.6749773271
 11
-60.0
 21
-39.8016445583
  0
LINE
  5
23F
100
AcDbEntity
  8
DRAFT
100
AcDbLine
 62
7
  6
CONTINUOUS
 10
-59.8951844414
 20
-3.5
 11
-59.8951844414
 21
3.5
  0
LINE
  5
240
100
AcDbEntity
  8
RACCORDO
100
AcDbLine
 62
250
  6
CONTINUOUS
 10
-58.4926179677
 20
40.6909734094
 11
-58.4926179677
 21
39.6057773315
  0
LINE
  5
241
100
AcDbEntity
  8
RACCORDO
100
AcDbLine
 62
250
  6
CONTINUOUS
 10
-58.4926179677
 20
-39.6057773315
 11
-58.4926179677
 21
-40.6909734094
  0
LWPOLYLINE
  5
242
100
AcDbEntity
  8
RACCORDO
100
AcDbPolyline
 62
250
  6
CONTINUOUS
 90
97
 70
0
 10
-59.6909734094
 20
-39.4926179677
 10
-59.6869435064
 20
-38.6722200743
 10
-59.6829982283
 20
-37.85167753
 10
-59.6791375751
 20
-37.0309903346
 10
-59.6753615297
 20
-36.2101546948
 10
-59.6716701091
 20
-35.3891744041
 10
-59.6680633649
 20
-34.5680608424
 10
-59.6645413005
 20
-33.7468144664
 10
-59.6611039125
 20
-32.9254348194
 10
-59.6577512421
 20
-32.103931911
 10
-59.6544832912
 20
-31.282305948
 10
-59.6513000578
 20
-30.4605567236
 10
-59.6482015775
 20
-29.6386936276
 10
-59.6451878516
 20
-28.8167167969
 10
-59.6422588787
 20
-27.9946260946
 10
-59.6394146904
 20
-27.1724304997
 10
-59.6366552872
 20
-26.3501299712
 10
-59.6339806686
 20
-25.5277245501
 10
-59.631390864
 20
-24.7052233396
 10
-59.6288858739
 20
-23.8826262221
 10
-59.6264656979
 20
-23.0599333152
 10
-59.624130364
 20
-22.237154074
 10
-59.6218798729
 20
-21.4142883939
 10
-59.6197142238
 20
-20.5913363795
 10
-59.6176334426
 20
-19.7683077992
 10
-59.6156375304
 20
-18.9452026572
 10
-59.6137264862
 20
-18.1220209493
 10
-59.6119003324
 20
-17.2987724317
 10
-59.6101590702
 20
-16.4754571453
 10
-59.6085026986
 20
-15.6520750492
 10
-59.6069312367
 20
-14.8286357771
 10
-59.6054446855
 20
-14.0051393788
 10
-59.6040430441
 20
-13.1815858045
 10
-59.6027263283
 20
-12.3579845385
 10
-59.6014945392
 20
-11.534335585
 10
-59.6003476757
 20
-10.7106389399
 10
-59.599285751
 20
-9.8869040752
 10
-59.598308766
 20
-9.0631309796
 10
-59.5974167198
 20
-8.2393196645
 10
-59.5966096227
 20
-7.4154796359
 10
-59.5958874755
 20
-6.5916108752
 10
-59.5952502774
 20
-5.767713401
 10
-59.5946980357
 20
-4.9437967758
 10
-59.5942307515
 20
-4.1198609952
 10
-59.5938484237
 20
-3.2959060637
 10
-59.5935510568
 20
-2.4719415568
 10
-59.5933386518
 20
-1.6479674747
 10
-59.5932112077
 20
-0.8239838173
 10
-59.593168726
 20
-0.0000001598
 10
-59.5932112077
 20
0.8239834976
 10
-59.5933386518
 20
1.647967155
 10
-59.5935510567
 20
2.471941237
 10
-59.5938484236
 20
3.2959057437
 10
-59.5942307513
 20
4.1198606751
 10
-59.5946980355
 20
4.9437964555
 10
-59.5952502772
 20
5.7677130807
 10
-59.5958874752
 20
6.5916105549
 10
-59.5966096224
 20
7.4154793156
 10
-59.5974167195
 20
8.2393193442
 10
-59.5983087657
 20
9.0631306592
 10
-59.5992857506
 20
9.8869037546
 10
-59.6003476753
 20
10.7106386189
 10
-59.6014945387
 20
11.5343352635
 10
-59.6027263278
 20
12.3579842162
 10
-59.6040430435
 20
13.1815854811
 10
-59.6054446849
 20
14.0051390542
 10
-59.6069312361
 20
14.828635451
 10
-59.608502698
 20
15.6520747213
 10
-59.6101590696
 20
16.4754568155
 10
-59.6119003317
 20
17.2987721003
 10
-59.6137264854
 20
18.1220206166
 10
-59.6156375296
 20
18.9452023236
 10
-59.6176334418
 20
19.7683074652
 10
-59.6197142229
 20
20.5913360456
 10
-59.621879872
 20
21.4142880606
 10
-59.6241303631
 20
22.2371537417
 10
-59.626465697
 20
23.0599329849
 10
-59.6288858729
 20
23.8826258942
 10
-59.6313908629
 20
24.7052230132
 10
-59.6339806675
 20
25.5277242242
 10
-59.6366552861
 20
26.3501296448
 10
-59.6394146893
 20
27.1724301719
 10
-59.6422588776
 20
27.9946257641
 10
-59.6451878504
 20
28.8167164627
 10
-59.6482015762
 20
29.6386932886
 10
-59.6513000565
 20
30.460556378
 10
-59.6544832898
 20
31.2823055948
 10
-59.6577512407
 20
32.1039315507
 10
-59.661103911
 20
32.9254344507
 10
-59.6645412989
 20
33.7468140898
 10
-59.6680633633
 20
34.5680604654
 10
-59.6716701074
 20
35.3891740288
 10
-59.675361528
 20
36.2101543286
 10
-59.6791375736
 20
37.0309900081
 10
-59.6829982272
 20
37.8516772816
 10
-59.6869435058
 20
38.6722199348
 10
-59.6909734094
 20
39.4926179677
  0
LWPOLYLINE
  5
243
100
AcDbEntity
  8
RACCORDO
100
AcDbPolyline
 62
250
  6
CONTINUOUS
 90
94
 70
0
 10
-58.4926179677
 20
-39.6057773315
 10
-58.488459456
 20
-38.7564874568
 10
-58.4843911239
 20
-37.9070374372
 10
-58.4804129714
 20
-37.0574307766
 10
-58.4765249815
 20
-36.2076706819
 10
-58.4727271711
 20
-35.3577609553
 10
-58.4690195911
 20
-34.5077059947
 10
-58.4654022434
 20
-33.6575094421
 10
-58.4618751261
 20
-32.8071746695
 10
-58.458438284
 20
-31.9567056716
 10
-58.4550917193
 20
-31.1061062098
 10
-58.4518354298
 20
-30.2553795404
 10
-58.4486694539
 20
-29.4045289007
 10
-58.4455937929
 20
-28.5535579146
 10
-58.4426084454
 20
-27.7024699786
 10
-58.4397134457
 20
-26.8512679899
 10
-58.4369087946
 20
-25.9999554012
 10
-58.4341944913
 20
-25.1485357824
 10
-58.4315705681
 20
-24.2970122068
 10
-58.4290370254
 20
-23.44538804
 10
-58.4265938628
 20
-22.5936669413
 10
-58.4242411107
 20
-21.7418524248
 10
-58.42197877
 20
-20.8899479244
 10
-58.4198068399
 20
-20.0379570336
 10
-58.4177253477
 20
-19.1858835071
 10
-58.4157342949
 20
-18.3337308764
 10
-58.4138336802
 20
-17.4815026396
 10
-58.4120235274
 20
-16.6292025019
 10
-58.4103038377
 20
-15.7768340375
 10
-58.40867461
 20
-14.9244007037
 10
-58.4071358642
 20
-14.0719060304
 10
-58.4056876014
 20
-13.2193535724
 10
-58.4043298205
 20
-12.3667468079
 10
-58.4030625379
 20
-11.5140891521
 10
-58.4018857548
 20
-10.6613841196
 10
-58.4007994701
 20
-9.80863523
 10
-58.399803697
 20
-8.9558459066
 10
-58.3988984366
 20
-8.1030196487
 10
-58.3980836878
 20
-7.2501599922
 10
-58.3973594607
 20
-6.3972704158
 10
-58.3967257563
 20
-5.5443544227
 10
-58.3961825736
 20
-4.6914155456
 10
-58.3957299192
 20
-3.8384573073
 10
-58.3953677944
 20
-2.9854832252
 10
-58.395096198
 20
-2.1324968184
 10
-58.3949151334
 20
-1.2795016124
 10
-58.3948246016
 20
-0.4265011262
 10
-58.3948246016
 20
0.4265011222
 10
-58.3949151334
 20
1.2795016085
 10
-58.395096198
 20
2.1324968144
 10
-58.3953677944
 20
2.9854832213
 10
-58.3957299192
 20
3.8384573035
 10
-58.3961825736
 20
4.6914155419
 10
-58.3967257563
 20
5.544354419
 10
-58.3973594607
 20
6.3972704122
 10
-58.3980836878
 20
7.2501599887
 10
-58.3988984366
 20
8.1030196452
 10
-58.399803697
 20
8.9558459031
 10
-58.4007994701
 20
9.8086352265
 10
-58.4018857548
 20
10.661384116
 10
-58.4030625379
 20
11.5140891484
 10
-58.4043298205
 20
12.3667468041
 10
-58.4056876014
 20
13.2193535683
 10
-58.4071358642
 20
14.0719060261
 10
-58.40867461
 20
14.9244006993
 10
-58.4103038377
 20
15.7768340329
 10
-58.4120235274
 20
16.6292024972
 10
-58.4138336802
 20
17.4815026349
 10
-58.4157342949
 20
18.3337308718
 10
-58.4177253477
 20
19.1858835028
 10
-58.4198068398
 20
20.0379570297
 10
-58.42197877
 20
20.8899479209
 10
-58.4242411107
 20
21.7418524218
 10
-58.4265938628
 20
22.5936669388
 10
-58.4290370254
 20
23.445388038
 10
-58.4315705681
 20
24.2970122052
 10
-58.4341944913
 20
25.1485357809
 10
-58.4369087946
 20
25.9999553996
 10
-58.4397134457
 20
26.8512679879
 10
-58.4426084453
 20
27.7024699759
 10
-58.4455937928
 20
28.5535579108
 10
-58.4486694539
 20
29.4045288958
 10
-58.4518354298
 20
30.2553795343
 10
-58.4550917193
 20
31.1061062024
 10
-58.458438284
 20
31.9567056633
 10
-58.4618751261
 20
32.8071746607
 10
-58.4654022434
 20
33.657509433
 10
-58.4690195911
 20
34.5077059858
 10
-58.4727271711
 20
35.3577609473
 10
-58.4765249815
 20
36.2076706752
 10
-58.4804129714
 20
37.0574307715
 10
-58.4843911239
 20
37.9070374337
 10
-58.488459456
 20
38.7564874549
 10
-58.4926179677
 20
39.6057773315
  0
LWPOLYLINE
  5
244
100
AcDbEntity
  8
RACCORDO
100
AcDbPolyline
 62
250
  6
CONTINUOUS
 90
115
 70
0
 10
-59.6909734094
 20
39.4926179677
 10
-59.6908149014
 20
39.5091007551
 10
-59.6904297017
 20
39.525580424
 10
-59.6898178833
 20
39.5420538566
 10
-59.6889795618
 20
39.5585179363
 10
-59.687914896
 20
39.574969548
 10
-59.6866240872
 20
39.5914055794
 10
-59.6851073797
 20
39.6078229207
 10
-59.6833650603
 20
39.624218466
 10
-59.6813974588
 20
39.6405891132
 10
-59.6792049473
 20
39.6569317652
 10
-59.6767879408
 20
39.67324333
 10
-59.6741468964
 20
39.6895207216
 10
-59.6712823139
 20
39.7057608603
 10
-59.6681947352
 20
39.7219606737
 10
-59.6648847445
 20
39.7381170969
 10
-59.6613529679
 20
39.7542270731
 10
-59.6576000737
 20
39.7702875544
 10
-59.653626772
 20
39.7862955023
 10
-59.6494338144
 20
39.8022478882
 10
-59.6450219942
 20
39.818141694
 10
-59.6403921461
 20
39.8339739127
 10
-59.635545146
 20
39.8497415488
 10
-59.6304819111
 20
39.8654416194
 10
-59.6252033991
 20
39.881071154
 10
-59.6197106088
 20
39.8966271955
 10
-59.6140045793
 20
39.912106801
 10
-59.6080863903
 20
39.9275070417
 10
-59.6019571614
 20
39.942825004
 10
-59.5956180522
 20
39.9580577898
 10
-59.589070262
 20
39.9732025172
 10
-59.5823150297
 20
39.988256321
 10
-59.5753536332
 20
40.0032163529
 10
-59.5681873897
 20
40.0180797827
 10
-59.5608176549
 20
40.0328437983
 10
-59.5532458232
 20
40.0475056065
 10
-59.5454733271
 20
40.0620624332
 10
-59.5375016372
 20
40.0765115245
 10
-59.5293322615
 20
40.0908501466
 10
-59.5209667457
 20
40.1050755869
 10
-59.5124066726
 20
40.1191851538
 10
-59.5036536615
 20
40.133176178
 10
-59.4947093687
 20
40.1470460124
 10
-59.4855754861
 20
40.160792033
 10
-59.476253742
 20
40.1744116391
 10
-59.4667458999
 20
40.187902254
 10
-59.4570537587
 20
40.2012613252
 10
-59.4471791521
 20
40.2144863254
 10
-59.4371239482
 20
40.2275747525
 10
-59.4268900495
 20
40.2405241302
 10
-59.4164793922
 20
40.2533320085
 10
-59.4058939459
 20
40.2659959643
 10
-59.3951357132
 20
40.2785136017
 10
-59.3842067296
 20
40.2908825524
 10
-59.3731090628
 20
40.3031004762
 10
-59.3618448124
 20
40.3151650616
 10
-59.3504161096
 20
40.327074026
 10
-59.3388251165
 20
40.3388251165
 10
-59.327074026
 20
40.3504161096
 10
-59.3151650616
 20
40.3618448124
 10
-59.3031004762
 20
40.3731090628
 10
-59.2908825524
 20
40.3842067296
 10
-59.2785136017
 20
40.3951357132
 10
-59.2659959643
 20
40.4058939459
 10
-59.2533320085
 20
40.4164793922
 10
-59.2405241302
 20
40.4268900495
 10
-59.2275747525
 20
40.4371239482
 10
-59.2144863254
 20
40.4471791521
 10
-59.2012613252
 20
40.4570537587
 10
-59.187902254
 20
40.4667458999
 10
-59.1744116391
 20
40.476253742
 10
-59.160792033
 20
40.4855754861
 10
-59.1470460124
 20
40.4947093687
 10
-59.133176178
 20
40.5036536615
 10
-59.1191851538
 20
40.5124066726
 10
-59.1050755869
 20
40.5209667457
 10
-59.0908501466
 20
40.5293322615
 10
-59.0765115245
 20
40.5375016372
 10
-59.0620624332
 20
40.5454733271
 10
-59.0475056065
 20
40.5532458232
 10
-59.0328437983
 20
40.5608176549
 10
-59.0180797827
 20
40.5681873897
 10
-59.0032163529
 20
40.5753536332
 10
-58.988256321
 20
40.5823150297
 10
-58.9732025172
 20
40.589070262
 10
-58.9580577898
 20
40.5956180522
 10
-58.942825004
 20
40.6019571614
 10
-58.9275070417
 20
40.6080863903
 10
-58.912106801
 20
40.6140045793
 10
-58.8966271955
 20
40.6197106088
 10
-58.881071154
 20
40.6252033991
 10
-58.8654416194
 20
40.6304819111
 10
-58.8497415488
 20
40.635545146
 10
-58.8339739127
 20
40.6403921461
 10
-58.818141694
 20
40.6450219942
 10
-58.8022478882
 20
40.6494338144
 10
-58.7862955023
 20
40.653626772
 10
-58.7702875544
 20
40.6576000737
 10
-58.7542270731
 20
40.6613529679
 10
-58.7381170969
 20
40.6648847445
 10
-58.7219606737
 20
40.6681947352
 10
-58.7057608603
 20
40.6712823139
 10
-58.6895207216
 20
40.6741468964
 10
-58.67324333
 20
40.6767879408
 10
-58.6569317652
 20
40.6792049473
 10
-58.6405891132
 20
40.6813974588
 10
-58.624218466
 20
40.6833650603
 10
-58.6078229207
 20
40.6851073797
 10
-58.5914055794
 20
40.6866240872
 10
-58.574969548
 20
40.687914896
 10
-58.5585179363
 20
40.6889795618
 10
-58.5420538566
 20
40.6898178833
 10
-58.525580424
 20
40.6904297017
 10
-58.5091007551
 20
40.6908149014
 10
-58.4926179677
 20
40.6909734094
  0
LINE
  5
245
100
AcDbEntity
  8
RACCORDO
100
AcDbLine
 62
250
  6
CONTINUOUS
 10
-38.5583191772
 20
39.322876765
 11
-38.4877262332
 21
39.3930598663
  0
LINE
  5
246
100
AcDbEntity
  8
RACCORDO
100
AcDbLine
 62
250
  6
CONTINUOUS
 10
-38.4877262332
 20
39.3930598663
 11
-38.4166383553
 21
39.4635311048
  0
LINE
  5
247
100
AcDbEntity
  8
RACCORDO
100
AcDbLine
 62
250
  6
CONTINUOUS
 10
-38.5583191776
 20
-39.3228767647
 11
-38.4166383553
 21
-39.4635311044
  0
LINE
  5
248
100
AcDbEntity
  8
DRAFT
100
AcDbLine
 62
7
  6
CONTINUOUS
 10
-60.0
 20
-3.6749773271
 11
-59.8951844414
 21
-3.5
  0
LWPOLYLINE
  5
249
100
AcDbEntity
  8
RACCORDO
100
AcDbPolyline
 62
250
  6
CONTINUOUS
 90
3
 70
0
 10
59.518965327
 20
-39.5461989747
 10
59.5015700288
 20
-39.548911726
 10
59.4925881368
 20
-39.5502507772
  0
LINE
  5
24A
100
AcDbEntity
  8
DRAFT
100
AcDbLine
 62
7
  6
CONTINUOUS
 10
-59.8951844414
 20
3.5
 11
-60.0
 21
3.6749773271
  0
LINE
  5
24B
100
AcDbEntity
  8
RACCORDO
100
AcDbLine
 62
250
  6
CONTINUOUS
 10
59.4925881368
 20
-39.5502507772
 11
59.4740648066
 21
-39.5528995469
  0
LINE
  5
24C
100
AcDbEntity
  8
RACCORDO
100
AcDbLine
 62
250
  6
CONTINUOUS
 10
59.4740648066
 20
-39.5528995469
 11
59.4548064166
 21
-39.5554998953
  0
LINE
  5
24D
100
AcDbEntity
  8
RACCORDO
100
AcDbLine
 62
250
  6
CONTINUOUS
 10
59.4548064166
 20
-39.5554998953
 11
59.4348277659
 21
-39.5580564938
  0
LINE
  5
24E
100
AcDbEntity
  8
RACCORDO
100
AcDbLine
 62
250
  6
CONTINUOUS
 10
59.4348277659
 20
-39.5580564938
 11
59.4141438161
 21
-39.5605640248
  0
LINE
  5
24F
100
AcDbEntity
  8
RACCORDO
100
AcDbLine
 62
250
  6
CONTINUOUS
 10
59.4141438161
 20
-39.5605640248
 11
59.392769502
 21
-39.5630174775
  0
LINE
  5
250
100
AcDbEntity
  8
RACCORDO
100
AcDbLine
 62
250
  6
CONTINUOUS
 10
59.392769502
 20
-39.5630174775
 11
59.3707215712
 21
-39.5654214995
  0
LINE
  5
251
100
AcDbEntity
  8
RACCORDO
100
AcDbLine
 62
250
  6
CONTINUOUS
 10
59.3707215712
 20
-39.5654214995
 11
59.3480162975
 21
-39.5677709013
  0
LINE
  5
252
100
AcDbEntity
  8
RACCORDO
100
AcDbLine
 62
250
  6
CONTINUOUS
 10
59.3480162975
 20
-39.5677709013
 11
59.3246700438
 21
-39.5700609513
  0
LINE
  5
253
100
AcDbEntity
  8
RACCORDO
100
AcDbLine
 62
250
  6
CONTINUOUS
 10
59.3246700438
 20
-39.5700609513
 11
59.3007013102
 21
-39.5722961908
  0
LINE
  5
254
100
AcDbEntity
  8
RACCORDO
100
AcDbLine
 62
250
  6
CONTINUOUS
 10
59.3007013102
 20
-39.5722961908
 11
59.2761276243
 21
-39.574471643
  0
LINE
  5
255
100
AcDbEntity
  8
RACCORDO
100
AcDbLine
 62
250
  6
CONTINUOUS
 10
59.2761276243
 20
-39.574471643
 11
59.2509666932
 21
-39.5765828706
  0
LINE
  5
256
100
AcDbEntity
  8
RACCORDO
100
AcDbLine
 62
250
  6
CONTINUOUS
 10
59.2509666932
 20
-39.5765828706
 11
59.2252385725
 21
-39.5786342663
  0
LINE
  5
257
100
AcDbEntity
  8
RACCORDO
100
AcDbLine
 62
250
  6
CONTINUOUS
 10
59.2252385725
 20
-39.5786342663
 11
59.1989619724
 21
-39.5806211244
  0
LINE
  5
258
100
AcDbEntity
  8
RACCORDO
100
AcDbLine
 62
250
  6
CONTINUOUS
 10
59.1989619724
 20
-39.5806211244
 11
59.1721558427
 21
-39.5825393029
  0
LINE
  5
259
100
AcDbEntity
  8
RACCORDO
100
AcDbLine
 62
250
  6
CONTINUOUS
 10
59.1721558427
 20
-39.5825393029
 11
59.1448416026
 21
-39.5843930385
  0
LINE
  5
25A
100
AcDbEntity
  8
RACCORDO
100
AcDbLine
 62
250
  6
CONTINUOUS
 10
59.1448416026
 20
-39.5843930385
 11
59.1170390582
 21
-39.5861779315
  0
LWPOLYLINE
  5
25B
100
AcDbEntity
  8
RACCORDO
100
AcDbPolyline
 62
250
  6
CONTINUOUS
 90
3
 70
0
 10
59.1170390582
 20
-39.5861779315
 10
59.0887682836
 20
-39.5878901261
 10
59.0744649003
 20
-39.5887222243
  0
LINE
  5
25C
100
AcDbEntity
  8
RACCORDO
100
AcDbLine
 62
250
  6
CONTINUOUS
 10
-59.1309993638
 20
-39.5852937181
 11
-59.0887679547
 21
-39.5878910481
  0
LINE
  5
25D
100
AcDbEntity
  8
RACCORDO
100
AcDbLine
 62
250
  6
CONTINUOUS
 10
-59.1721554409
 20
-39.5825402841
 11
-59.1309993638
 21
-39.5852937181
  0
LINE
  5
25E
100
AcDbEntity
  8
RACCORDO
100
AcDbLine
 62
250
  6
CONTINUOUS
 10
-59.2121668598
 20
-39.5796353843
 11
-59.1721554409
 21
-39.5825402841
  0
LINE
  5
25F
100
AcDbEntity
  8
RACCORDO
100
AcDbLine
 62
250
  6
CONTINUOUS
 10
-59.2509662227
 20
-39.5765839119
 11
-59.2121668598
 21
-39.5796353843
  0
LINE
  5
260
100
AcDbEntity
  8
RACCORDO
100
AcDbLine
 62
250
  6
CONTINUOUS
 10
-59.2761267381
 20
-39.5744706961
 11
-59.2509662227
 21
-39.5765839119
  0
LINE
  5
261
100
AcDbEntity
  8
RACCORDO
100
AcDbLine
 62
250
  6
CONTINUOUS
 10
-59.3007006326
 20
-39.5722961987
 11
-59.2761267381
 21
-39.5744706961
  0
LINE
  5
262
100
AcDbEntity
  8
RACCORDO
100
AcDbLine
 62
250
  6
CONTINUOUS
 10
-59.3246695073
 20
-39.5700620477
 11
-59.3007006326
 21
-39.5722961987
  0
LINE
  5
263
100
AcDbEntity
  8
RACCORDO
100
AcDbLine
 62
250
  6
CONTINUOUS
 10
-59.3480154165
 20
-39.5677699159
 11
-59.3246695073
 21
-39.5700620477
  0
LINE
  5
264
100
AcDbEntity
  8
RACCORDO
100
AcDbLine
 62
250
  6
CONTINUOUS
 10
-59.3707208809
 20
-39.5654215194
 11
-59.3480154165
 21
-39.5677699159
  0
LINE
  5
265
100
AcDbEntity
  8
RACCORDO
100
AcDbLine
 62
250
  6
CONTINUOUS
 10
-59.3927689007
 20
-39.5630186166
 11
-59.3707208809
 21
-39.5654215194
  0
LINE
  5
266
100
AcDbEntity
  8
RACCORDO
100
AcDbLine
 62
250
  6
CONTINUOUS
 10
-59.4141429684
 20
-39.5605630063
 11
-59.3927689007
 21
-39.5630186166
  0
LINE
  5
267
100
AcDbEntity
  8
RACCORDO
100
AcDbLine
 62
250
  6
CONTINUOUS
 10
-59.4348270809
 20
-39.5580565273
 11
-59.4141429684
 21
-39.5605630063
  0
LINE
  5
268
100
AcDbEntity
  8
RACCORDO
100
AcDbLine
 62
250
  6
CONTINUOUS
 10
-59.4548057518
 20
-39.5555010561
 11
-59.4348270809
 21
-39.5580565273
  0
LINE
  5
269
100
AcDbEntity
  8
RACCORDO
100
AcDbLine
 62
250
  6
CONTINUOUS
 10
-59.4740640229
 20
-39.5528985061
 11
-59.4548057518
 21
-39.5555010561
  0
LINE
  5
26A
100
AcDbEntity
  8
RACCORDO
100
AcDbLine
 62
250
  6
CONTINUOUS
 10
-59.4925874754
 20
-39.5502508257
 11
-59.4740640229
 21
-39.5528985061
  0
LINE
  5
26B
100
AcDbEntity
  8
RACCORDO
100
AcDbLine
 62
7
  6
CONTINUOUS
 10
-37.4985172888
 20
-22.3046505456
 11
-37.499034515
 21
-22.2984562662
  0
LWPOLYLINE
  5
26C
100
AcDbEntity
  8
RACCORDO
100
AcDbPolyline
 62
250
  6
CONTINUOUS
 90
62
 70
0
 10
-37.5
 20
-25.933376786
 10
-37.4998860867
 20
-25.9362252453
 10
-37.4995443684
 20
-25.9390731638
 10
-37.4989749101
 20
-25.9419200007
 10
-37.4981778197
 20
-25.9447652158
 10
-37.4971532487
 20
-25.9476082686
 10
-37.4959013916
 20
-25.9504486196
 10
-37.494422486
 20
-25.9532857293
 10
-37.4927168127
 20
-25.9561190593
 10
-37.4907846956
 20
-25.9589480714
 10
-37.4886265015
 20
-25.9617722288
 10
-37.4862426401
 20
-25.9645909951
 10
-37.483633564
 20
-25.9674038352
 10
-37.4807997685
 20
-25.9702102151
 10
-37.4777417918
 20
-25.973009602
 10
-37.4744602142
 20
-25.9758014643
 10
-37.470955659
 20
-25.9785852721
 10
-37.4672287914
 20
-25.9813604968
 10
-37.4632803189
 20
-25.9841266116
 10
-37.4591109913
 20
-25.9868830912
 10
-37.4547216001
 20
-25.9896294123
 10
-37.4501129787
 20
-25.9923650536
 10
-37.445286002
 20
-25.9950894957
 10
-37.4402415864
 20
-25.9978022212
 10
-37.4349806897
 20
-26.0005027152
 10
-37.4295043107
 20
-26.003190465
 10
-37.423813489
 20
-26.0058649603
 10
-37.4179093052
 20
-26.0085256932
 10
-37.4117928802
 20
-26.0111721588
 10
-37.4054653752
 20
-26.0138038545
 10
-37.3989279915
 20
-26.0164202806
 10
-37.3921819702
 20
-26.0190209405
 10
-37.3852285922
 20
-26.0216053404
 10
-37.3780691776
 20
-26.0241729896
 10
-37.3707050857
 20
-26.0267234007
 10
-37.3631377145
 20
-26.0292560893
 10
-37.3553685007
 20
-26.0317705748
 10
-37.3473989195
 20
-26.0342663797
 10
-37.3392304838
 20
-26.0367430301
 10
-37.3308647444
 20
-26.0392000558
 10
-37.3223032898
 20
-26.0416369905
 10
-37.3135477452
 20
-26.0440533713
 10
-37.304599773
 20
-26.0464487396
 10
-37.295461072
 20
-26.0488226406
 10
-37.2861333773
 20
-26.0511746235
 10
-37.2766184597
 20
-26.0535042418
 10
-37.2669181258
 20
-26.0558110533
 10
-37.2570342171
 20
-26.05809462
 10
-37.2469686102
 20
-26.0603545083
 10
-37.2367232161
 20
-26.0625902892
 10
-37.2262999799
 20
-26.0648015382
 10
-37.2157008807
 20
-26.0669878355
 10
-37.2049279305
 20
-26.069148766
 10
-37.1939831748
 20
-26.0712839194
 10
-37.1828686915
 20
-26.0733928904
 10
-37.1715865908
 20
-26.0754752786
 10
-37.1601390145
 20
-26.0775306886
 10
-37.1485281361
 20
-26.0795587302
 10
-37.1367561599
 20
-26.0815590183
 10
-37.1248253211
 20
-26.0835311732
 10
-37.1127378845
 20
-26.0854748205
 10
-37.0881024274
 20
-26.0892751216
  0
LWPOLYLINE
  5
26D
100
AcDbEntity
  8
RACCORDO
100
AcDbPolyline
 62
250
  6
CONTINUOUS
 90
69
 70
0
 10
-37.5
 20
-23.2149987606
 10
-37.4998860867
 20
-23.2183401229
 10
-37.4995443684
 20
-23.2216808342
 10
-37.4989749101
 20
-23.2250202601
 10
-37.4981778197
 20
-23.2283577615
 10
-37.4971532488
 20
-23.2316927101
 10
-37.4959013916
 20
-23.2350244885
 10
-37.4944224861
 20
-23.2383524696
 10
-37.4927168128
 20
-23.2416760162
 10
-37.4907846957
 20
-23.2449944976
 10
-37.4886265016
 20
-23.248307284
 10
-37.4862426402
 20
-23.2516137461
 10
-37.4836335641
 20
-23.2549132564
 10
-37.4807997687
 20
-23.2582051884
 10
-37.477741792
 20
-23.2614889171
 10
-37.4744602145
 20
-23.2647638191
 10
-37.4709556592
 20
-23.2680292726
 10
-37.4672287916
 20
-23.2712846577
 10
-37.4632803192
 20
-23.2745293565
 10
-37.4591109916
 20
-23.2777627528
 10
-37.4547216004
 20
-23.2809842329
 10
-37.450112979
 20
-23.2841931851
 10
-37.4452860023
 20
-23.2873890002
 10
-37.4402415868
 20
-23.2905710715
 10
-37.4349806901
 20
-23.2937387948
 10
-37.4295043111
 20
-23.2968915688
 10
-37.4238134895
 20
-23.3000287947
 10
-37.4179093057
 20
-23.3031498771
 10
-37.4117928807
 20
-23.3062542234
 10
-37.4054653757
 20
-23.3093412441
 10
-37.3989279921
 20
-23.3124103532
 10
-37.3921819709
 20
-23.3154609681
 10
-37.3852285929
 20
-23.3184925096
 10
-37.3780691783
 20
-23.3215044022
 10
-37.3707050864
 20
-23.3244960739
 10
-37.3631377152
 20
-23.327466957
 10
-37.3553685015
 20
-23.3304164873
 10
-37.3473989203
 20
-23.3333441049
 10
-37.3392304846
 20
-23.336249254
 10
-37.3308647453
 20
-23.339131383
 10
-37.3223032907
 20
-23.3419899448
 10
-37.3135477461
 20
-23.3448243967
 10
-37.304599774
 20
-23.3476342004
 10
-37.295461073
 20
-23.3504188226
 10
-37.2861333783
 20
-23.3531777346
 10
-37.2766184608
 20
-23.3559104126
 10
-37.2669181268
 20
-23.3586163378
 10
-37.2570342182
 20
-23.3612949964
 10
-37.2469686113
 20
-23.36394588
 10
-37.2367232173
 20
-23.3665684851
 10
-37.2262999812
 20
-23.369162314
 10
-37.2157008819
 20
-23.3717268741
 10
-37.2049279318
 20
-23.3742616785
 10
-37.1939831761
 20
-23.3767662461
 10
-37.1828686929
 20
-23.3792401013
 10
-37.1715865921
 20
-23.3816827744
 10
-37.1601390159
 20
-23.3840938017
 10
-37.1485281375
 20
-23.3864727255
 10
-37.1367561614
 20
-23.388819094
 10
-37.1248253225
 20
-23.3911324618
 10
-37.112737886
 20
-23.3934123898
 10
-37.1004961467
 20
-23.395658445
 10
-37.0881024289
 20
-23.397870201
 10
-37.0755590855
 20
-23.400047238
 10
-37.0628684979
 20
-23.4021891425
 10
-37.0500330755
 20
-23.404295508
 10
-37.0370552553
 20
-23.4063659345
 10
-37.023937501
 20
-23.4084000289
 10
-36.9972921785
 20
-23.4123576839
  0
LINE
  5
26E
100
AcDbEntity
  8
RACCORDO
100
AcDbLine
 62
250
  6
CONTINUOUS
 10
-38.7
 20
39.6057773315
 11
-38.7
 21
-39.6057773315
  0
LWPOLYLINE
  5
26F
100
AcDbEntity
  8
RACCORDO
100
AcDbPolyline
 62
250
  6
CONTINUOUS
 90
67
 70
0
 10
-37.5
 20
23.2149987608
 10
-37.4998860867
 20
23.2183401088
 10
-37.4995443684
 20
23.2216808066
 10
-37.4989749101
 20
23.2250202199
 10
-37.4981778197
 20
23.2283577093
 10
-37.4971532488
 20
23.2316926467
 10
-37.4959013916
 20
23.2350244147
 10
-37.4944224861
 20
23.2383523861
 10
-37.4927168128
 20
23.2416759237
 10
-37.4907846957
 20
23.2449943967
 10
-37.4886265016
 20
23.2483071753
 10
-37.4862426402
 20
23.2516136303
 10
-37.4836335641
 20
23.2549131341
 10
-37.4807997687
 20
23.2582050601
 10
-37.477741792
 20
23.2614887834
 10
-37.4744602145
 20
23.2647636805
 10
-37.4709556592
 20
23.2680291297
 10
-37.4672287916
 20
23.2712845109
 10
-37.4632803192
 20
23.2745292062
 10
-37.4591109916
 20
23.2777625995
 10
-37.4547216004
 20
23.280984077
 10
-37.450112979
 20
23.2841930271
 10
-37.4452860023
 20
23.2873888404
 10
-37.4402415868
 20
23.2905709103
 10
-37.4349806901
 20
23.2937386325
 10
-37.4295043111
 20
23.2968914057
 10
-37.4238134895
 20
23.3000286311
 10
-37.4179093057
 20
23.3031497133
 10
-37.4117928807
 20
23.3062540596
 10
-37.4054653757
 20
23.3093410806
 10
-37.3989279921
 20
23.3124101903
 10
-37.3921819709
 20
23.315460806
 10
-37.3852285929
 20
23.3184923485
 10
-37.3780691784
 20
23.3215042422
 10
-37.3707050864
 20
23.3244959153
 10
-37.3631377152
 20
23.3274667999
 10
-37.3553685015
 20
23.3304163319
 10
-37.3473989203
 20
23.3333439513
 10
-37.3392304846
 20
23.3362491024
 10
-37.3308647453
 20
23.3391312335
 10
-37.3223032907
 20
23.3419897974
 10
-37.3135477461
 20
23.3448242515
 10
-37.304599774
 20
23.3476340576
 10
-37.295461073
 20
23.3504186823
 10
-37.2861333783
 20
23.3531775968
 10
-37.2766184608
 20
23.3559102773
 10
-37.2669181269
 20
23.3586162052
 10
-37.2570342182
 20
23.3612948665
 10
-37.2469686114
 20
23.3639457528
 10
-37.2367232173
 20
23.3665683607
 10
-37.2262999812
 20
23.3691621923
 10
-37.2157008819
 20
23.3717267552
 10
-37.2049279318
 20
23.3742615625
 10
-37.1939831762
 20
23.3767661329
 10
-37.1828686929
 20
23.3792399909
 10
-37.1715865921
 20
23.3816826668
 10
-37.1601390159
 20
23.3840936969
 10
-37.1485281375
 20
23.3864726235
 10
-37.1367561614
 20
23.3888189948
 10
-37.1248253225
 20
23.3911323654
 10
-37.112737886
 20
23.3934122961
 10
-37.1004961468
 20
23.395658354
 10
-37.0881024289
 20
23.3978701127
 10
-37.0755590855
 20
23.4000471523
 10
-37.0628684979
 20
23.4021890594
 10
-37.0500330755
 20
23.4042954275
 10
-37.0370552553
 20
23.4063658566
  0
LWPOLYLINE
  5
270
100
AcDbEntity
  8
RACCORDO
100
AcDbPolyline
 62
250
  6
CONTINUOUS
 90
60
 70
0
 10
-37.5
 20
25.9333767861
 10
-37.4998860867
 20
25.9362252454
 10
-37.4995443684
 20
25.9390731639
 10
-37.4989749101
 20
25.9419200009
 10
-37.4981778197
 20
25.9447652159
 10
-37.4971532487
 20
25.9476082687
 10
-37.4959013916
 20
25.9504486197
 10
-37.494422486
 20
25.9532857294
 10
-37.4927168128
 20
25.9561190593
 10
-37.4907846957
 20
25.9589480715
 10
-37.4886265015
 20
25.9617722288
 10
-37.4862426401
 20
25.9645909951
 10
-37.4836335641
 20
25.9674038353
 10
-37.4807997686
 20
25.9702102151
 10
-37.4777417919
 20
25.973009602
 10
-37.4744602144
 20
25.9758014644
 10
-37.4709556591
 20
25.9785852721
 10
-37.4672287915
 20
25.9813604969
 10
-37.4632803191
 20
25.9841266116
 10
-37.4591109915
 20
25.9868830912
 10
-37.4547216003
 20
25.9896294124
 10
-37.4501129789
 20
25.9923650536
 10
-37.4452860022
 20
25.9950894956
 10
-37.4402415866
 20
25.9978022212
 10
-37.43498069
 20
26.0005027152
 10
-37.4295043109
 20
26.003190465
 10
-37.4238134893
 20
26.0058649602
 10
-37.4179093056
 20
26.0085256932
 10
-37.4117928805
 20
26.0111721588
 10
-37.4054653755
 20
26.0138038544
 10
-37.3989279919
 20
26.0164202806
 10
-37.3921819707
 20
26.0190209405
 10
-37.3852285927
 20
26.0216053404
 10
-37.3780691781
 20
26.0241729896
 10
-37.3707050862
 20
26.0267234006
 10
-37.363137715
 20
26.0292560893
 10
-37.3553685013
 20
26.0317705747
 10
-37.34739892
 20
26.0342663796
 10
-37.3392304844
 20
26.03674303
 10
-37.3308647451
 20
26.0392000558
 10
-37.3223032904
 20
26.0416369904
 10
-37.3135477459
 20
26.0440533713
 10
-37.3045997737
 20
26.0464487395
 10
-37.2954610728
 20
26.0488226405
 10
-37.2861333781
 20
26.0511746234
 10
-37.2766184605
 20
26.0535042418
 10
-37.2669181266
 20
26.0558110532
 10
-37.2570342179
 20
26.0580946199
 10
-37.246968611
 20
26.0603545082
 10
-37.236723217
 20
26.0625902891
 10
-37.2262999809
 20
26.0648015381
 10
-37.2157008816
 20
26.0669878354
 10
-37.2049279315
 20
26.0691487659
 10
-37.1939831758
 20
26.0712839193
 10
-37.1828686926
 20
26.0733928903
 10
-37.1715865918
 20
26.0754752785
 10
-37.1601390155
 20
26.0775306885
 10
-37.1485281372
 20
26.0795587301
 10
-37.1367561611
 20
26.0815590182
 10
-37.1248253222
 20
26.0835311732
  0
LWPOLYLINE
  5
271
100
AcDbEntity
  8
RACCORDO
100
AcDbPolyline
 62
7
  6
CONTINUOUS
 90
33
 70
0
 10
-37.4990343119
 20
22.2984590015
 10
-37.4985169466
 20
22.3046542314
 10
-37.4978972297
 20
22.310717692
 10
-37.4971790773
 20
22.3166491939
 10
-37.4963666955
 20
22.3224462738
 10
-37.4954596597
 20
22.3281346178
 10
-37.4944605937
 20
22.3337127893
 10
-37.4933727341
 20
22.3391765346
 10
-37.4921945522
 20
22.3445434596
 10
-37.4909275081
 20
22.3498130208
 10
-37.489574776
 20
22.3549780681
 10
-37.4881364004
 20
22.3600437367
 10
-37.4866126105
 20
22.3650127082
 10
-37.485007491
 20
22.369875206
 10
-37.4833271426
 20
22.3746181139
 10
-37.4815731548
 20
22.3792428957
 10
-37.4797484805
 20
22.383747263
 10
-37.4778620899
 20
22.3881158832
 10
-37.4759155462
 20
22.3923527008
 10
-37.4739098093
 20
22.39646221
 10
-37.4718531149
 20
22.4004345571
 10
-37.4697451761
 20
22.4042775723
 10
-37.4675829483
 20
22.4080026532
 10
-37.4653693936
 20
22.4116099639
 10
-37.4631018351
 20
22.4151088928
 10
-37.4607692711
 20
22.4185197292
 10
-37.4583592654
 20
22.4218616602
 10
-37.4558660212
 20
22.4251426097
 10
-37.4532673598
 20
22.4283900493
 10
-37.450521019
 20
22.4316506228
 10
-37.447597196
 20
22.4349494347
 10
-37.4444808786
 20
22.4382923314
 10
-37.4411481762
 20
22.4416940096
  0
LWPOLYLINE
  5
272
100
AcDbEntity
  8
0
100
AcDbPolyline
 62
7
  6
CONTINUOUS
 90
3
 70
0
 43
0.3500000006
 10
-3.2142856836
 20
51.8928551788
 10
-2.3571427875
 20
52.750002182
 10
-2.3571427875
 20
49.7500012665
  0
LWPOLYLINE
  5
273
100
AcDbEntity
  8
RACCORDO
100
AcDbPolyline
 62
250
  6
CONTINUOUS
 90
10
 70
0
 10
-37.3
 20
22.5
 10
-37.2999807455
 20
22.500016313
 10
-37.2998758573
 20
22.5000681351
 10
-37.2996853353
 20
22.5001599304
 10
-37.2994205951
 20
22.5002956447
 10
-37.2990702211
 20
22.5004804286
 10
-37.2985999668
 20
22.5007225728
 10
-37.2980126799
 20
22.5010298697
 10
-37.2973055126
 20
22.5014092464
 10
-37.2953916563
 20
22.5024286476
  0
LWPOLYLINE
  5
274
100
AcDbEntity
  8
RACCORDO
100
AcDbPolyline
 62
250
  6
CONTINUOUS
 90
65
 70
0
 10
-36.7868899697
 20
22.8594529822
 10
-36.7697699208
 20
22.872692528
 10
-36.7522415287
 20
22.8863357427
 10
-36.7343839517
 20
22.9003323515
 10
-36.7164583008
 20
22.9145160248
 10
-36.698377673
 20
22.9289457772
 10
-36.6802289713
 20
22.943556239
 10
-36.6625340157
 20
22.957973215
 10
-36.6454664684
 20
22.9720367805
 10
-36.6288526671
 20
22.9858697637
 10
-36.6126934452
 20
22.9995109751
 10
-36.5970132588
 20
23.0129296457
 10
-36.5817876518
 20
23.0261305809
 10
-36.5669440892
 20
23.0392116212
 10
-36.5524914765
 20
23.0521554001
 10
-36.5384209083
 20
23.0649623912
 10
-36.5246331338
 20
23.0777639994
 10
-36.5110112999
 20
23.0906712881
 10
-36.4976722598
 20
23.1035660397
 10
-36.4848673223
 20
23.1162347271
 10
-36.4726383319
 20
23.1286448262
 10
-36.4609434441
 20
23.1408122315
 10
-36.4499084349
 20
23.152589655
 10
-36.4396058335
 20
23.1639001246
 10
-36.4299631106
 20
23.1748017276
 10
-36.4208884545
 20
23.1853490952
 10
-36.4123856133
 20
23.1955308126
 10
-36.4044508388
 20
23.2053452312
 10
-36.3969810748
 20
23.2148641819
 10
-36.3899715208
 20
23.2240856504
 10
-36.3834269772
 20
23.2330027023
 10
-36.3772587894
 20
23.2416818937
 10
-36.3714600597
 20
23.2501253444
 10
-36.3660376858
 20
23.2583248075
 10
-36.3609237058
 20
23.2663327688
 10
-36.3561127417
 20
23.2741510848
 10
-36.3516101716
 20
23.2817735845
 10
-36.3473641679
 20
23.2892416985
 10
-36.3433706652
 20
23.2965568516
 10
-36.339633729
 20
23.3037145084
 10
-36.3361137277
 20
23.3107478321
 10
-36.3328075706
 20
23.3176579108
 10
-36.3297183484
 20
23.3244413675
 10
-36.3268157026
 20
23.3311251389
 10
-36.3240972614
 20
23.3377100524
 10
-36.3215653967
 20
23.344193566
 10
-36.3191968654
 20
23.3505979002
 10
-36.3169898782
 20
23.3569234583
 10
-36.3149462245
 20
23.3631685318
 10
-36.3130480303
 20
23.3693524267
 10
-36.3112938078
 20
23.3754755037
 10
-36.3096850449
 20
23.381536402
 10
-36.3082083305
 20
23.3875520405
 10
-36.3068624293
 20
23.3935226726
 10
-36.3056485766
 20
23.3994472738
 10
-36.3045570686
 20
23.4053409998
 10
-36.3035868484
 20
23.4112040065
 10
-36.3027389729
 20
23.4170355416
 10
-36.3020069083
 20
23.4228495222
 10
-36.3013897171
 20
23.4286460808
 10
-36.3008883369
 20
23.4344246243
 10
-36.3004990472
 20
23.4401980841
 10
-36.3002206077
 20
23.4459706717
 10
-36.3000542586
 20
23.4517378291
 10
-36.3
 20
23.4574993804
  0
LINE
  5
275
100
AcDbEntity
  8
RACCORDO
100
AcDbLine
 62
250
  6
CONTINUOUS
 10
-36.8201188761
 20
22.8340037942
 11
-36.7868899697
 21
22.8594529822
  0
LINE
  5
276
100
AcDbEntity
  8
RACCORDO
100
AcDbLine
 62
250
  6
CONTINUOUS
 10
-36.8519185847
 20
22.8099062797
 11
-36.8201188761
 21
22.8340037942
  0
LINE
  5
277
100
AcDbEntity
  8
RACCORDO
100
AcDbLine
 62
250
  6
CONTINUOUS
 10
-36.8823135505
 20
22.7870901348
 11
-36.8519185847
 21
22.8099062797
  0
LINE
  5
278
100
AcDbEntity
  8
RACCORDO
100
AcDbLine
 62
250
  6
CONTINUOUS
 10
-36.9253165021
 20
22.7551460318
 11
-36.8823135505
 21
22.7870901348
  0
LINE
  5
279
100
AcDbEntity
  8
RACCORDO
100
AcDbLine
 62
250
  6
CONTINUOUS
 10
-36.9653313862
 20
22.7257574195
 11
-36.9253165021
 21
22.7551460318
  0
LINE
  5
27A
100
AcDbEntity
  8
RACCORDO
100
AcDbLine
 62
250
  6
CONTINUOUS
 10
-37.0024978589
 20
22.6987501739
 11
-36.9653313862
 21
22.7257574195
  0
LINE
  5
27B
100
AcDbEntity
  8
RACCORDO
100
AcDbLine
 62
250
  6
CONTINUOUS
 10
-37.0369511745
 20
22.6739750131
 11
-37.0024978589
 21
22.6987501739
  0
LINE
  5
27C
100
AcDbEntity
  8
RACCORDO
100
AcDbLine
 62
250
  6
CONTINUOUS
 10
-37.0688168736
 20
22.651303146
 11
-37.0369511745
 21
22.6739750131
  0
LINE
  5
27D
100
AcDbEntity
  8
RACCORDO
100
AcDbLine
 62
250
  6
CONTINUOUS
 10
-37.098209729
 20
22.6306215984
 11
-37.0688168736
 21
22.651303146
  0
LINE
  5
27E
100
AcDbEntity
  8
RACCORDO
100
AcDbLine
 62
250
  6
CONTINUOUS
 10
-37.125234288
 20
22.6118291913
 11
-37.098209729
 21
22.6306215984
  0
LINE
  5
27F
100
AcDbEntity
  8
RACCORDO
100
AcDbLine
 62
250
  6
CONTINUOUS
 10
-37.1499860018
 20
22.5948332946
 11
-37.125234288
 21
22.6118291913
  0
LINE
  5
280
100
AcDbEntity
  8
RACCORDO
100
AcDbLine
 62
250
  6
CONTINUOUS
 10
-37.1652669298
 20
22.5844578997
 11
-37.1499860018
 21
22.5948332946
  0
LINE
  5
281
100
AcDbEntity
  8
RACCORDO
100
AcDbLine
 62
250
  6
CONTINUOUS
 10
-37.1796014105
 20
22.5748175846
 11
-37.1652669298
 21
22.5844578997
  0
LINE
  5
282
100
AcDbEntity
  8
RACCORDO
100
AcDbLine
 62
250
  6
CONTINUOUS
 10
-37.1930150595
 20
22.5658884626
 11
-37.1796014105
 21
22.5748175846
  0
LINE
  5
283
100
AcDbEntity
  8
RACCORDO
100
AcDbLine
 62
250
  6
CONTINUOUS
 10
-37.2055246404
 20
22.5576469462
 11
-37.1930150595
 21
22.5658884626
  0
LINE
  5
284
100
AcDbEntity
  8
RACCORDO
100
AcDbLine
 62
250
  6
CONTINUOUS
 10
-37.2171546479
 20
22.5500694551
 11
-37.2055246404
 21
22.5576469462
  0
LINE
  5
285
100
AcDbEntity
  8
RACCORDO
100
AcDbLine
 62
250
  6
CONTINUOUS
 10
-37.2279282929
 20
22.5431328529
 11
-37.2171546479
 21
22.5500694551
  0
LINE
  5
286
100
AcDbEntity
  8
RACCORDO
100
AcDbLine
 62
250
  6
CONTINUOUS
 10
-37.2378609223
 20
22.5368137069
 11
-37.2279282929
 21
22.5431328529
  0
LINE
  5
287
100
AcDbEntity
  8
RACCORDO
100
AcDbLine
 62
250
  6
CONTINUOUS
 10
-37.2469752157
 20
22.531088713
 11
-37.2378609223
 21
22.5368137069
  0
LINE
  5
288
100
AcDbEntity
  8
RACCORDO
100
AcDbLine
 62
250
  6
CONTINUOUS
 10
-37.255293392
 20
22.5259345496
 11
-37.2469752157
 21
22.531088713
  0
LINE
  5
289
100
AcDbEntity
  8
RACCORDO
100
AcDbLine
 62
250
  6
CONTINUOUS
 10
-37.2628302679
 20
22.521327479
 11
-37.255293392
 21
22.5259345496
  0
LINE
  5
28A
100
AcDbEntity
  8
RACCORDO
100
AcDbLine
 62
250
  6
CONTINUOUS
 10
-37.2696079786
 20
22.5172439186
 11
-37.2628302679
 21
22.521327479
  0
LINE
  5
28B
100
AcDbEntity
  8
RACCORDO
100
AcDbLine
 62
250
  6
CONTINUOUS
 10
-37.2756487257
 20
22.5136601097
 11
-37.2696079786
 21
22.5172439186
  0
LWPOLYLINE
  5
28C
100
AcDbEntity
  8
RACCORDO
100
AcDbPolyline
 62
250
  6
CONTINUOUS
 90
3
 70
0
 10
-37.2833642299
 20
22.5091691308
 10
-37.2809673564
 20
22.5105521021
 10
-37.2756487257
 20
22.5136601097
  0
LINE
  5
28D
100
AcDbEntity
  8
RACCORDO
100
AcDbLine
 62
250
  6
CONTINUOUS
 10
59.0744649003
 20
-39.5887222243
 11
59.0309106381
 21
-39.5911046408
  0
LINE
  5
28E
100
AcDbEntity
  8
RACCORDO
100
AcDbLine
 62
250
  6
CONTINUOUS
 10
59.0309106381
 20
-39.5911046408
 11
58.9864496378
 21
-39.593321168
  0
LINE
  5
28F
100
AcDbEntity
  8
RACCORDO
100
AcDbLine
 62
250
  6
CONTINUOUS
 10
58.9864496378
 20
-39.593321168
 11
58.9411567927
 21
-39.5953680724
  0
LINE
  5
290
100
AcDbEntity
  8
RACCORDO
100
AcDbLine
 62
250
  6
CONTINUOUS
 10
58.9411567927
 20
-39.5953680724
 11
58.8951083975
 21
-39.5972419061
  0
LINE
  5
291
100
AcDbEntity
  8
RACCORDO
100
AcDbLine
 62
250
  6
CONTINUOUS
 10
58.8951083975
 20
-39.5972419061
 11
58.8483820193
 21
-39.5989395127
  0
LINE
  5
292
100
AcDbEntity
  8
RACCORDO
100
AcDbLine
 62
250
  6
CONTINUOUS
 10
58.8483820193
 20
-39.5989395127
 11
58.8010563676
 21
-39.6004580327
  0
LINE
  5
293
100
AcDbEntity
  8
RACCORDO
100
AcDbLine
 62
250
  6
CONTINUOUS
 10
58.8010563676
 20
-39.6004580327
 11
58.753211161
 21
-39.6017949084
  0
LINE
  5
294
100
AcDbEntity
  8
RACCORDO
100
AcDbLine
 62
250
  6
CONTINUOUS
 10
58.753211161
 20
-39.6017949084
 11
58.7049269934
 21
-39.6029478878
  0
LINE
  5
295
100
AcDbEntity
  8
RACCORDO
100
AcDbLine
 62
250
  6
CONTINUOUS
 10
58.7049269934
 20
-39.6029478878
 11
58.6562851982
 21
-39.6039150287
  0
LINE
  5
296
100
AcDbEntity
  8
RACCORDO
100
AcDbLine
 62
250
  6
CONTINUOUS
 10
58.6562851982
 20
-39.6039150287
 11
58.6073677109
 21
-39.6046947021
  0
LINE
  5
297
100
AcDbEntity
  8
RACCORDO
100
AcDbLine
 62
250
  6
CONTINUOUS
 10
58.6073677109
 20
-39.6046947021
 11
58.5582569322
 21
-39.6052855947
  0
LWPOLYLINE
  5
298
100
AcDbEntity
  8
RACCORDO
100
AcDbPolyline
 62
250
  6
CONTINUOUS
 90
3
 70
0
 10
58.5582569322
 20
-39.6052855947
 10
58.5090340231
 20
-39.6056820765
 10
58.4926179677
 20
-39.6057773315
  0
LINE
  5
299
100
AcDbEntity
  8
RACCORDO
100
AcDbLine
 62
7
  6
CONTINUOUS
 10
58.8016445583
 20
-41.0
 11
-58.8016445583
 21
-41.0
  0
LINE
  5
29A
100
AcDbEntity
  8
RACCORDO
100
AcDbLine
 62
250
  6
CONTINUOUS
 10
58.4926179677
 20
-40.6909734094
 11
-58.4926179677
 21
-40.6909734094
  0
LINE
  5
29B
100
AcDbEntity
  8
RACCORDO
100
AcDbLine
 62
250
  6
CONTINUOUS
 10
58.4926179677
 20
-39.6057773315
 11
38.7
 21
-39.6057773315
  0
LINE
  5
29C
100
AcDbEntity
  8
RACCORDO
100
AcDbLine
 62
250
  6
CONTINUOUS
 10
-38.7
 20
-39.6057773315
 11
-58.4926179677
 21
-39.6057773315
  0
LINE
  5
29D
100
AcDbEntity
  8
RACCORDO
100
AcDbLine
 62
250
  6
CONTINUOUS
 10
38.4166383553
 20
-39.4635311044
 11
-38.416641104
 21
-39.4635311044
  0
LINE
  5
29E
100
AcDbEntity
  8
RACCORDO
100
AcDbLine
 62
250
  6
CONTINUOUS
 10
-58.5582566041
 20
-39.6052848155
 11
-58.4926179677
 21
-39.6057773315
  0
LINE
  5
29F
100
AcDbEntity
  8
RACCORDO
100
AcDbLine
 62
250
  6
CONTINUOUS
 10
-58.6236987
 20
-39.6044549529
 11
-58.5582566041
 21
-39.6052848155
  0
LINE
  5
2A0
100
AcDbEntity
  8
RACCORDO
100
AcDbLine
 62
250
  6
CONTINUOUS
 10
-58.6887483036
 20
-39.6032902284
 11
-58.6236987
 21
-39.6044549529
  0
LINE
  5
2A1
100
AcDbEntity
  8
RACCORDO
100
AcDbLine
 62
250
  6
CONTINUOUS
 10
-58.7532106379
 20
-39.6017941295
 11
-58.6887483036
 21
-39.6032902284
  0
LINE
  5
2A2
100
AcDbEntity
  8
RACCORDO
100
AcDbLine
 62
250
  6
CONTINUOUS
 10
-58.8168926849
 20
-39.599971136
 11
-58.7532106379
 21
-39.6017941295
  0
LINE
  5
2A3
100
AcDbEntity
  8
RACCORDO
100
AcDbLine
 62
250
  6
CONTINUOUS
 10
-58.8796037625
 20
-39.5978267064
 11
-58.8168926849
 21
-39.599971136
  0
LINE
  5
2A4
100
AcDbEntity
  8
RACCORDO
100
AcDbLine
 62
250
  6
CONTINUOUS
 10
-58.9258867888
 20
-39.5960112687
 11
-58.8796037625
 21
-39.5978267064
  0
LINE
  5
2A5
100
AcDbEntity
  8
RACCORDO
100
AcDbLine
 62
250
  6
CONTINUOUS
 10
-58.9714399882
 20
-39.5940216738
 11
-58.9258867888
 21
-39.5960112687
  0
LINE
  5
2A6
100
AcDbEntity
  8
RACCORDO
100
AcDbLine
 62
250
  6
CONTINUOUS
 10
-59.0161866279
 20
-39.591861273
 11
-58.9714399882
 21
-39.5940216738
  0
LINE
  5
2A7
100
AcDbEntity
  8
RACCORDO
100
AcDbLine
 62
250
  6
CONTINUOUS
 10
-59.0600513338
 20
-39.5895337054
 11
-59.0161866279
 21
-39.591861273
  0
LINE
  5
2A8
100
AcDbEntity
  8
RACCORDO
100
AcDbLine
 62
250
  6
CONTINUOUS
 10
-59.0887679547
 20
-39.5878910481
 11
-59.0600513338
 21
-39.5895337054
  0
LINE
  5
2A9
100
AcDbEntity
  8
RACCORDO
100
AcDbLine
 62
250
  6
CONTINUOUS
 10
-37.2783951468
 20
-22.5120483166
 11
-37.283363956
 21
-22.5091692881
  0
LINE
  5
2AA
100
AcDbEntity
  8
RACCORDO
100
AcDbLine
 62
250
  6
CONTINUOUS
 10
-37.2727190823
 20
-22.5153913144
 11
-37.2783951468
 21
-22.5120483166
  0
LINE
  5
2AB
100
AcDbEntity
  8
RACCORDO
100
AcDbLine
 62
250
  6
CONTINUOUS
 10
-37.2663134265
 20
-22.5192221349
 11
-37.2727190823
 21
-22.5153913144
  0
LINE
  5
2AC
100
AcDbEntity
  8
RACCORDO
100
AcDbLine
 62
250
  6
CONTINUOUS
 10
-37.2591559968
 20
-22.5235645026
 11
-37.2663134265
 21
-22.5192221349
  0
LINE
  5
2AD
100
AcDbEntity
  8
RACCORDO
100
AcDbLine
 62
250
  6
CONTINUOUS
 10
-37.2512320043
 20
-22.5284423064
 11
-37.2591559968
 21
-22.5235645026
  0
LINE
  5
2AE
100
AcDbEntity
  8
RACCORDO
100
AcDbLine
 62
250
  6
CONTINUOUS
 10
-37.2425193222
 20
-22.5338790968
 11
-37.2512320043
 21
-22.5284423064
  0
LINE
  5
2AF
100
AcDbEntity
  8
RACCORDO
100
AcDbLine
 62
250
  6
CONTINUOUS
 10
-37.232995674
 20
-22.5398982906
 11
-37.2425193222
 21
-22.5338790968
  0
LINE
  5
2B0
100
AcDbEntity
  8
RACCORDO
100
AcDbLine
 62
250
  6
CONTINUOUS
 10
-37.2226460722
 20
-22.5465234516
 11
-37.232995674
 21
-22.5398982906
  0
LINE
  5
2B1
100
AcDbEntity
  8
RACCORDO
100
AcDbLine
 62
250
  6
CONTINUOUS
 10
-37.2114479561
 20
-22.5537777362
 11
-37.2226460722
 21
-22.5465234516
  0
LINE
  5
2B2
100
AcDbEntity
  8
RACCORDO
100
AcDbLine
 62
250
  6
CONTINUOUS
 10
-37.1993779194
 20
-22.5616844752
 11
-37.2114479561
 21
-22.5537777362
  0
LINE
  5
2B3
100
AcDbEntity
  8
RACCORDO
100
AcDbLine
 62
250
  6
CONTINUOUS
 10
-37.186420032
 20
-22.5702670855
 11
-37.1993779194
 21
-22.5616844752
  0
LINE
  5
2B4
100
AcDbEntity
  8
RACCORDO
100
AcDbLine
 62
250
  6
CONTINUOUS
 10
-37.1725500763
 20
-22.5795489174
 11
-37.186420032
 21
-22.5702670855
  0
LINE
  5
2B5
100
AcDbEntity
  8
RACCORDO
100
AcDbLine
 62
250
  6
CONTINUOUS
 10
-37.1577420676
 20
-22.5895541193
 11
-37.1725500763
 21
-22.5795489174
  0
LINE
  5
2B6
100
AcDbEntity
  8
RACCORDO
100
AcDbLine
 62
250
  6
CONTINUOUS
 10
-37.1337274797
 20
-22.6059711448
 11
-37.1577420676
 21
-22.5895541193
  0
LINE
  5
2B7
100
AcDbEntity
  8
RACCORDO
100
AcDbLine
 62
250
  6
CONTINUOUS
 10
-37.1074699794
 20
-22.6241553268
 11
-37.1337274797
 21
-22.6059711448
  0
LINE
  5
2B8
100
AcDbEntity
  8
RACCORDO
100
AcDbLine
 62
250
  6
CONTINUOUS
 10
-37.0788768584
 20
-22.6441970574
 11
-37.1074699794
 21
-22.6241553268
  0
LINE
  5
2B9
100
AcDbEntity
  8
RACCORDO
100
AcDbLine
 62
250
  6
CONTINUOUS
 10
-37.0478467401
 20
-22.6661943587
 11
-37.0788768584
 21
-22.6441970574
  0
LINE
  5
2BA
100
AcDbEntity
  8
RACCORDO
100
AcDbLine
 62
250
  6
CONTINUOUS
 10
-37.0142683725
 20
-22.6902558849
 11
-37.0478467401
 21
-22.6661943587
  0
LINE
  5
2BB
100
AcDbEntity
  8
RACCORDO
100
AcDbLine
 62
250
  6
CONTINUOUS
 10
-36.9780198316
 20
-22.7165046788
 11
-37.0142683725
 21
-22.6902558849
  0
LINE
  5
2BC
100
AcDbEntity
  8
RACCORDO
100
AcDbLine
 62
250
  6
CONTINUOUS
 10
-36.9389689003
 20
-22.7450826579
 11
-36.9780198316
 21
-22.7165046788
  0
LINE
  5
2BD
100
AcDbEntity
  8
RACCORDO
100
AcDbLine
 62
250
  6
CONTINUOUS
 10
-36.8969766559
 20
-22.776155182
 11
-36.9389689003
 21
-22.7450826579
  0
LINE
  5
2BE
100
AcDbEntity
  8
RACCORDO
100
AcDbLine
 62
250
  6
CONTINUOUS
 10
-36.8672834423
 20
-22.798347885
 11
-36.8969766559
 21
-22.776155182
  0
LINE
  5
2BF
100
AcDbEntity
  8
RACCORDO
100
AcDbLine
 62
250
  6
CONTINUOUS
 10
-36.836185468
 20
-22.8217962704
 11
-36.8672834423
 21
-22.798347885
  0
LWPOLYLINE
  5
2C0
100
AcDbEntity
  8
RACCORDO
100
AcDbPolyline
 62
7
  6
CONTINUOUS
 90
32
 70
0
 10
-37.4411486743
 20
-22.4416935133
 10
-37.4444849311
 20
-22.4382880905
 10
-37.4476034056
 20
-22.4349426024
 10
-37.4505282139
 20
-22.431642294
 10
-37.4532741682
 20
-22.4283817548
 10
-37.4558716424
 20
-22.425135401
 10
-37.4583640662
 20
-22.4218551752
 10
-37.460773975
 20
-22.4185130309
 10
-37.463106697
 20
-22.4151015901
 10
-37.4653744687
 20
-22.4116019168
 10
-37.4675882729
 20
-22.4079937324
 10
-37.4697507933
 20
-22.4042676181
 10
-37.4718589373
 20
-22.4004236328
 10
-37.4739157106
 20
-22.3964504724
 10
-37.4759214454
 20
-22.3923402447
 10
-37.4778679112
 20
-22.3881028158
 10
-37.4797541551
 20
-22.3837336979
 10
-37.4815786122
 20
-22.379228975
 10
-37.4833323067
 20
-22.3746040291
 10
-37.485012279
 20
-22.3698612095
 10
-37.4866169612
 20
-22.3649990381
 10
-37.4881402895
 20
-22.3600305617
 10
-37.4895781808
 20
-22.3549655884
 10
-37.4909304181
 20
-22.3498014312
 10
-37.4921970016
 20
-22.3445328057
 10
-37.4933747695
 20
-22.3391668073
 10
-37.4944622504
 20
-22.3337040264
 10
-37.4954609749
 20
-22.3281268465
 10
-37.4963677055
 20
-22.3224395292
 10
-37.4971798213
 20
-22.3166434968
 10
-37.4978977516
 20
-22.3107130165
 10
-37.4985172888
 20
-22.3046505456
  0
LWPOLYLINE
  5
2C1
100
AcDbEntity
  8
RACCORDO
100
AcDbPolyline
 62
250
  6
CONTINUOUS
 90
67
 70
0
 10
-36.3
 20
-23.4574993802
 10
-36.3000542544
 20
-23.4517378606
 10
-36.3002206015
 20
-23.4459707128
 10
-36.3004990412
 20
-23.4401981127
 10
-36.3008883335
 20
-23.4344246111
 10
-36.3013897185
 20
-23.4286460041
 10
-36.3020069165
 20
-23.4228493827
 10
-36.3027389895
 20
-23.4170353476
 10
-36.3035868754
 20
-23.4112037588
 10
-36.3045571084
 20
-23.405340698
 10
-36.3056486317
 20
-23.3994469174
 10
-36.306862502
 20
-23.3935222613
 10
-36.3082084233
 20
-23.3875515744
 10
-36.3096851596
 20
-23.3815358818
 10
-36.3112939468
 20
-23.3754749295
 10
-36.3130481963
 20
-23.3693517981
 10
-36.3149464189
 20
-23.3631678517
 10
-36.3169901038
 20
-23.3569227262
 10
-36.3191971295
 20
-23.3505971054
 10
-36.3215657087
 20
-23.3441926914
 10
-36.3240976288
 20
-23.3377090876
 10
-36.3268161305
 20
-23.3311240815
 10
-36.3297188463
 20
-23.3244402091
 10
-36.3328081437
 20
-23.3176566492
 10
-36.3361143666
 20
-23.3107464931
 10
-36.3396344247
 20
-23.3037131203
 10
-36.3433714082
 20
-23.2965554399
 10
-36.347364931
 20
-23.2892403088
 10
-36.3516109302
 20
-23.281772261
 10
-36.3561134687
 20
-23.2741498723
 10
-36.3609243493
 20
-23.2663317345
 10
-36.366038196
 20
-23.2583240178
 10
-36.3714603849
 20
-23.2501248651
 10
-36.3772588468
 20
-23.2416818131
 10
-36.3834266844
 20
-23.2330031092
 10
-36.389970795
 20
-23.2240866309
 10
-36.3969798016
 20
-23.2148658383
 10
-36.4044488851
 20
-23.2053476856
 10
-36.4123828647
 20
-23.1955341638
 10
-36.4208848201
 20
-23.1853533945
 10
-36.4299584991
 20
-23.1748070191
 10
-36.439600154
 20
-23.1639064563
 10
-36.4499016212
 20
-23.1525970433
 10
-36.4609353026
 20
-23.1408208093
 10
-36.4726287964
 20
-23.1286546052
 10
-36.4848567337
 20
-23.1162453383
 10
-36.4976612038
 20
-23.1035768775
 10
-36.5110001174
 20
-23.0906819994
 10
-36.5246218384
 20
-23.0777745849
 10
-36.5384094157
 20
-23.0649729563
 10
-36.5524798003
 20
-23.0521659437
 10
-36.5669322088
 20
-23.0392221703
 10
-36.5817755314
 20
-23.0261411744
 10
-36.5970008778
 20
-23.0129403083
 10
-36.6126807943
 20
-22.9995217205
 10
-36.6288397071
 20
-22.9858806288
 10
-36.6454531899
 20
-22.9720477764
 10
-36.6625205094
 20
-22.9579842715
 10
-36.6802153164
 20
-22.9435672979
 10
-36.6983639601
 20
-22.9289567711
 10
-36.7164447545
 20
-22.9145267804
 10
-36.7343709344
 20
-22.900342596
 10
-36.7522292651
 20
-22.8863453198
 10
-36.7697583565
 20
-22.872701496
 10
-36.7868789551
 20
-22.8594614677
 10
-36.8036703144
 20
-22.8465663451
 10
-36.836185468
 20
-22.8217962704
  0
LINE
  5
2C2
100
AcDbEntity
  8
RACCORDO
100
AcDbLine
 62
7
  6
CONTINUOUS
 10
-37.5
 20
25.9333767851
 11
-37.5
 21
-25.933376785
  0
LINE
  5
2C3
100
AcDbEntity
  8
RACCORDO
100
AcDbLine
 62
250
  6
CONTINUOUS
 10
-36.3
 20
26.1401092738
 11
-36.3
 21
23.4574993804
  0
LINE
  5
2C4
100
AcDbEntity
  8
RACCORDO
100
AcDbLine
 62
250
  6
CONTINUOUS
 10
-36.3
 20
-23.4574993802
 11
-36.3
 21
-26.1401092737
  0
LWPOLYLINE
  5
2C5
100
AcDbEntity
  8
RACCORDO
100
AcDbPolyline
 62
250
  6
CONTINUOUS
 90
112
 70
0
 10
-37.5
 20
-25.933376786
 10
-37.5002805399
 20
-26.1521886637
 10
-37.5011287301
 20
-26.3740266856
 10
-37.5025542624
 20
-26.5988904716
 10
-37.5045670212
 20
-26.8268653704
 10
-37.5071760108
 20
-27.0578651053
 10
-37.5103882679
 20
-27.2916317289
 10
-37.5142114525
 20
-27.5281790611
 10
-37.5186529934
 20
-27.7674918943
 10
-37.5237172476
 20
-28.0092685681
 10
-37.529410808
 20
-28.2535577924
 10
-37.535738552
 20
-28.500309014
 10
-37.542699218
 20
-28.7490714963
 10
-37.5502962385
 20
-28.9998733916
 10
-37.5585321355
 20
-29.2526842258
 10
-37.5674003095
 20
-29.5069651418
 10
-37.57690053
 20
-29.7627236361
 10
-37.58703297
 20
-30.019949458
 10
-37.5977877235
 20
-30.2780769795
 10
-37.6091658701
 20
-30.5372035229
 10
-37.6211612863
 20
-30.7972286597
 10
-37.6337480202
 20
-31.0572900272
 10
-37.6469191949
 20
-31.31739939
 10
-37.6606678521
 20
-31.5775416475
 10
-37.6749613297
 20
-31.8368141068
 10
-37.689789406
 20
-32.0952310498
 10
-37.7051409174
 20
-32.3527748264
 10
-37.7209755291
 20
-32.6084949112
 10
-37.7373329691
 20
-32.8631897515
 10
-37.7541485747
 20
-33.1160576144
 10
-37.7712046734
 20
-33.363748344
 10
-37.7884697492
 20
-33.6061638955
 10
-37.8059139099
 20
-33.8434007076
 10
-37.8232897242
 20
-34.0724017983
 10
-37.8404973496
 20
-34.2923458291
 10
-37.8575504102
 20
-34.504055051
 10
-37.8743558134
 20
-34.7069390204
 10
-37.8908251067
 20
-34.900383474
 10
-37.9069686699
 20
-35.0850049343
 10
-37.9228464094
 20
-35.2620592139
 10
-37.9384382186
 20
-35.4316369747
 10
-37.9537090382
 20
-35.5936497199
 10
-37.9687061183
 20
-35.7490840971
 10
-37.9834014297
 20
-35.8978833098
 10
-37.9977815155
 20
-36.0401062839
 10
-38.0119231804
 20
-36.1769127877
 10
-38.0258219499
 20
-36.3084212227
 10
-38.0394532275
 20
-36.4345149219
 10
-38.0528696857
 20
-36.556000593
 10
-38.0660659455
 20
-36.6729428305
 10
-38.0790257462
 20
-36.7852785357
 10
-38.0917892156
 20
-36.8936225548
 10
-38.1043720784
 20
-36.9981730407
 10
-38.1167423517
 20
-37.0987331054
 10
-38.1288699194
 20
-37.195324966
 10
-38.1407290571
 20
-37.287802345
 10
-38.1523301927
 20
-37.3763130411
 10
-38.1636981355
 20
-37.4613203662
 10
-38.1748206207
 20
-37.5427921678
 10
-38.1856980102
 20
-37.6207619389
 10
-38.196375794
 20
-37.6957912429
 10
-38.2068578387
 20
-37.7679513892
 10
-38.2171315713
 20
-37.8371721264
 10
-38.2272192128
 20
-37.9038024828
 10
-38.2371182223
 20
-37.9678573314
 10
-38.2468241798
 20
-38.0293227366
 10
-38.2563573234
 20
-38.0885043924
 10
-38.2657140087
 20
-38.14540609
 10
-38.2748923201
 20
-38.2000248596
 10
-38.283915787
 20
-38.2526561385
 10
-38.2927849803
 20
-38.3033239037
 10
-38.3014949807
 20
-38.3520048689
 10
-38.3100616262
 20
-38.3989234776
 10
-38.3184840643
 20
-38.4440907044
 10
-38.3267596221
 20
-38.4874961816
 10
-38.3349017832
 20
-38.5293322698
 10
-38.3429078471
 20
-38.5695988807
 10
-38.3507776298
 20
-38.6082966399
 10
-38.358528714
 20
-38.6456189095
 10
-38.3661587704
 20
-38.6815676944
 10
-38.3736678266
 20
-38.7161414444
 10
-38.381077321
 20
-38.7495281111
 10
-38.3883935142
 20
-38.7817637197
 10
-38.3956083801
 20
-38.8128126011
 10
-38.4027221113
 20
-38.8427551221
 10
-38.4097419916
 20
-38.8716209822
 10
-38.4166591866
 20
-38.8993808255
 10
-38.4234496649
 20
-38.9260264677
 10
-38.4301095479
 20
-38.9515401868
 10
-38.4366411402
 20
-38.9759401226
 10
-38.4430295867
 20
-38.9992719376
 10
-38.4492638001
 20
-39.0214999031
 10
-38.4553534045
 20
-39.0426601938
 10
-38.4613146722
 20
-39.0629063172
 10
-38.467143131
 20
-39.082233384
 10
-38.4728421247
 20
-39.1006466512
 10
-38.4784398309
 20
-39.1183147783
 10
-38.4839329995
 20
-39.1352393488
 10
-38.489324065
 20
-39.151419052
 10
-38.4946499345
 20
-39.1670181172
 10
-38.4999072038
 20
-39.1820396434
 10
-38.5050987355
 20
-39.1964807013
 10
-38.5102710485
 20
-39.2104963721
 10
-38.5154202479
 20
-39.2240912823
 10
-38.5205499315
 20
-39.2372608592
 10
-38.52571808
 20
-39.2501462567
 10
-38.5309193204
 20
-39.2627534323
 10
-38.5361589562
 20
-39.2750763427
 10
-38.5415112317
 20
-39.2872379788
 10
-38.5470010138
 20
-39.299279202
 10
-38.5526036388
 20
-39.3111588462
 10
-38.5583191776
 20
-39.3228767647
  0
LINE
  5
2C6
100
AcDbEntity
  8
RACCORDO
100
AcDbLine
 62
250
  6
CONTINUOUS
 10
-37.2876406867
 20
22.5067302068
 11
-37.2833642299
 21
22.5091691308
  0
LINE
  5
2C7
100
AcDbEntity
  8
RACCORDO
100
AcDbLine
 62
250
  6
CONTINUOUS
 10
-37.2912548835
 20
22.504701335
 11
-37.2876406867
 21
22.5067302068
  0
LINE
  5
2C8
100
AcDbEntity
  8
RACCORDO
100
AcDbLine
 62
250
  6
CONTINUOUS
 10
-37.2953916563
 20
22.5024286476
 11
-37.2912548835
 21
22.504701335
  0
LINE
  5
2C9
100
AcDbEntity
  8
0
100
AcDbLine
 62
7
  6
CONTINUOUS
 10
50.305771
 20
-34.900063
 11
49.74575
 21
-34.90007
  0
LINE
  5
2CA
100
AcDbEntity
  8
0
100
AcDbLine
 62
7
  6
CONTINUOUS
 10
48.282911
 20
-34.900063
 11
47.722904
 21
-34.90007
  0
LINE
  5
2CB
100
AcDbEntity
  8
0
100
AcDbLine
 62
7
  6
CONTINUOUS
 10
54.718046
 20
-34.900056
 11
54.087269
 21
-34.900063
  0
LINE
  5
2CC
100
AcDbEntity
  8
0
100
AcDbLine
 62
7
  6
CONTINUOUS
 10
46.07341
 20
-34.90007
 11
45.513389
 21
-34.900077
  0
LINE
  5
2CD
100
AcDbEntity
  8
0
100
AcDbLine
 62
7
  6
CONTINUOUS
 10
44.24102
 20
-34.90007
 11
43.680978
 21
-34.900077
  0
LINE
  5
2CE
100
AcDbEntity
  8
0
100
AcDbLine
 62
7
  6
CONTINUOUS
 10
49.372405
 20
-34.90007
 11
48.812384
 21
-34.90007
  0
LINE
  5
2CF
100
AcDbEntity
  8
0
100
AcDbLine
 62
7
  6
CONTINUOUS
 10
47.193438
 20
-34.90007
 11
46.633417
 21
-34.90007
  0
LINE
  5
2D0
100
AcDbEntity
  8
0
100
AcDbLine
 62
7
  6
CONTINUOUS
 10
53.03722
 20
-34.900063
 11
52.477192
 21
-34.900063
  0
LINE
  5
2D1
100
AcDbEntity
  8
0
100
AcDbLine
 62
7
  6
CONTINUOUS
 10
52.103847
 20
-34.90007
 11
51.543819
 21
-34.900063
  0
LINE
  5
2D2
100
AcDbEntity
  8
0
100
AcDbLine
 62
7
  6
CONTINUOUS
 10
51.367027
 20
-34.349401
 11
50.48257
 21
-34.349401
  0
LINE
  5
2D3
100
AcDbEntity
  8
0
100
AcDbLine
 62
7
  6
CONTINUOUS
 10
51.196199
 20
-33.81738
 11
50.653391
 21
-33.81738
  0
LINE
  5
2D4
100
AcDbEntity
  8
0
100
AcDbLine
 62
7
  6
CONTINUOUS
 10
53.526058
 20
-33.81738
 11
53.037283
 21
-33.817373
  0
LINE
  5
2D5
100
AcDbEntity
  8
0
100
AcDbLine
 62
7
  6
CONTINUOUS
 10
53.710842
 20
-33.299352
 11
53.029499
 21
-33.299352
  0
LINE
  5
2D6
100
AcDbEntity
  8
RACCORDO
100
AcDbLine
 62
250
  6
CONTINUOUS
 10
-37.295391592
 20
-22.5024286821
 11
-37.2973054776
 21
-22.5014092649
  0
LWPOLYLINE
  5
2D7
100
AcDbEntity
  8
RACCORDO
100
AcDbPolyline
 62
250
  6
CONTINUOUS
 90
9
 70
0
 10
-37.2973054776
 20
-22.5014092649
 10
-37.2980126548
 20
-22.5010298828
 10
-37.2985999497
 20
-22.5007225815
 10
-37.2990702102
 20
-22.5004804342
 10
-37.2994205884
 20
-22.500295648
 10
-37.2996853318
 20
-22.500159932
 10
-37.2998758561
 20
-22.5000681356
 10
-37.2999807455
 20
-22.500016313
 10
-37.3
 20
-22.4999999998
  0
LINE
  5
2D8
100
AcDbEntity
  8
RACCORDO
100
AcDbLine
 62
250
  6
CONTINUOUS
 10
-37.2912547504
 20
-22.5047014087
 11
-37.295391592
 21
-22.5024286821
  0
LINE
  5
2D9
100
AcDbEntity
  8
RACCORDO
100
AcDbLine
 62
250
  6
CONTINUOUS
 10
-37.2876404897
 20
-22.506730318
 11
-37.2912547504
 21
-22.5047014087
  0
LINE
  5
2DA
100
AcDbEntity
  8
RACCORDO
100
AcDbLine
 62
250
  6
CONTINUOUS
 10
-37.283363956
 20
-22.5091692881
 11
-37.2876404897
 21
-22.506730318
  0
LINE
  5
2DB
100
AcDbEntity
  8
RACCORDO
100
AcDbLine
 62
250
  6
CONTINUOUS
 10
37.1248253222
 20
-26.083531173
 11
37.1004961464
 21
-26.087389591
  0
LWPOLYLINE
  5
2DC
100
AcDbEntity
  8
RACCORDO
100
AcDbPolyline
 62
250
  6
CONTINUOUS
 90
3
 70
0
 10
37.0370552553
 20
-23.4063658507
 10
37.0106823032
 20
-23.4103973264
 10
36.9972921785
 20
-23.4123576076
  0
LINE
  5
2DD
100
AcDbEntity
  8
RACCORDO
100
AcDbLine
 62
250
  6
CONTINUOUS
 10
37.1004961464
 20
-26.087389591
 11
37.0755590852
 21
-26.0911310538
  0
LINE
  5
2DE
100
AcDbEntity
  8
RACCORDO
100
AcDbLine
 62
250
  6
CONTINUOUS
 10
37.0755590852
 20
-26.0911310538
 11
37.0500330752
 21
-26.0947527202
  0
LINE
  5
2DF
100
AcDbEntity
  8
RACCORDO
100
AcDbLine
 62
250
  6
CONTINUOUS
 10
37.0500330752
 20
-26.0947527202
 11
37.0239375007
 21
-26.09825184
  0
LINE
  5
2E0
100
AcDbEntity
  8
RACCORDO
100
AcDbLine
 62
250
  6
CONTINUOUS
 10
37.0239375007
 20
-26.09825184
 11
36.9972921782
 21
-26.1016257559
  0
LINE
  5
2E1
100
AcDbEntity
  8
RACCORDO
100
AcDbLine
 62
250
  6
CONTINUOUS
 10
36.9972921782
 20
-26.1016257559
 11
36.9701173418
 21
-26.104871906
  0
LINE
  5
2E2
100
AcDbEntity
  8
RACCORDO
100
AcDbLine
 62
250
  6
CONTINUOUS
 10
36.9701173418
 20
-26.104871906
 11
36.9424336278
 21
-26.1079878251
  0
LINE
  5
2E3
100
AcDbEntity
  8
RACCORDO
100
AcDbLine
 62
250
  6
CONTINUOUS
 10
36.9424336278
 20
-26.1079878251
 11
36.9142620586
 21
-26.1109711471
  0
LINE
  5
2E4
100
AcDbEntity
  8
RACCORDO
100
AcDbLine
 62
250
  6
CONTINUOUS
 10
36.9142620586
 20
-26.1109711471
 11
36.8856240275
 21
-26.1138196063
  0
LINE
  5
2E5
100
AcDbEntity
  8
RACCORDO
100
AcDbLine
 62
250
  6
CONTINUOUS
 10
36.8856240275
 20
-26.1138196063
 11
36.8565412818
 21
-26.1165310398
  0
LINE
  5
2E6
100
AcDbEntity
  8
RACCORDO
100
AcDbLine
 62
250
  6
CONTINUOUS
 10
36.8565412818
 20
-26.1165310398
 11
36.8270359064
 21
-26.1191033886
  0
LINE
  5
2E7
100
AcDbEntity
  8
RACCORDO
100
AcDbLine
 62
250
  6
CONTINUOUS
 10
36.8270359064
 20
-26.1191033886
 11
36.7971303073
 21
-26.1215346992
  0
LINE
  5
2E8
100
AcDbEntity
  8
RACCORDO
100
AcDbLine
 62
250
  6
CONTINUOUS
 10
36.7971303073
 20
-26.1215346992
 11
36.7668471945
 21
-26.1238231253
  0
LWPOLYLINE
  5
2E9
100
AcDbEntity
  8
RACCORDO
100
AcDbPolyline
 62
250
  6
CONTINUOUS
 90
3
 70
0
 10
36.7668471945
 20
-26.1238231253
 10
36.7362095645
 20
-26.1259669291
 10
36.720765066
 20
-26.1269840846
  0
LINE
  5
2EA
100
AcDbEntity
  8
0
100
AcDbLine
 62
7
  6
CONTINUOUS
 10
53.710842
 20
-32.617958
 11
53.029492
 21
-32.617958
  0
LINE
  5
2EB
100
AcDbEntity
  8
0
100
AcDbLine
 62
7
  6
CONTINUOUS
 10
49.372405
 20
-32.099944
 11
48.525804
 21
-32.099944
  0
LINE
  5
2EC
100
AcDbEntity
  8
0
100
AcDbLine
 62
7
  6
CONTINUOUS
 10
47.480018
 20
-32.099944
 11
46.633417
 21
-32.099944
  0
LINE
  5
2ED
100
AcDbEntity
  8
0
100
AcDbLine
 62
7
  6
CONTINUOUS
 10
46.073417
 20
-32.099944
 11
45.513396
 21
-32.099944
  0
LINE
  5
2EE
100
AcDbEntity
  8
0
100
AcDbLine
 62
7
  6
CONTINUOUS
 10
45.140051
 20
-32.099944
 11
44.580023
 21
-32.099944
  0
LINE
  5
2EF
100
AcDbEntity
  8
0
100
AcDbLine
 62
7
  6
CONTINUOUS
 10
43.341982
 20
-32.099944
 11
42.781954
 21
-32.099944
  0
LINE
  5
2F0
100
AcDbEntity
  8
0
100
AcDbLine
 62
7
  6
CONTINUOUS
 10
53.788572
 20
-32.099937
 11
52.477192
 21
-32.099937
  0
LINE
  5
2F1
100
AcDbEntity
  8
0
100
AcDbLine
 62
7
  6
CONTINUOUS
 10
51.204816
 20
-32.099937
 11
50.644767
 21
-32.099937
  0
LINE
  5
2F2
100
AcDbEntity
  8
RACCORDO
100
AcDbLine
 62
250
  6
CONTINUOUS
 10
-36.7515712449
 20
-26.1249132094
 11
-36.7207650649
 21
-26.1269840847
  0
LINE
  5
2F3
100
AcDbEntity
  8
RACCORDO
100
AcDbLine
 62
250
  6
CONTINUOUS
 10
-36.7820345081
 20
-26.1226968841
 11
-36.7515712449
 21
-26.1249132094
  0
LINE
  5
2F4
100
AcDbEntity
  8
RACCORDO
100
AcDbLine
 62
250
  6
CONTINUOUS
 10
-36.8121317211
 20
-26.1203367917
 11
-36.7820345081
 21
-26.1226968841
  0
LINE
  5
2F5
100
AcDbEntity
  8
RACCORDO
100
AcDbLine
 62
250
  6
CONTINUOUS
 10
-36.8418400285
 20
-26.1178347245
 11
-36.8121317211
 21
-26.1203367917
  0
LINE
  5
2F6
100
AcDbEntity
  8
RACCORDO
100
AcDbLine
 62
250
  6
CONTINUOUS
 10
-36.8711368701
 20
-26.1151925826
 11
-36.8418400285
 21
-26.1178347245
  0
LINE
  5
2F7
100
AcDbEntity
  8
RACCORDO
100
AcDbLine
 62
250
  6
CONTINUOUS
 10
-36.8999999985
 20
-26.1124123723
 11
-36.8711368701
 21
-26.1151925826
  0
LINE
  5
2F8
100
AcDbEntity
  8
RACCORDO
100
AcDbLine
 62
250
  6
CONTINUOUS
 10
-36.9284074952
 20
-26.1094962049
 11
-36.8999999985
 21
-26.1124123723
  0
LINE
  5
2F9
100
AcDbEntity
  8
RACCORDO
100
AcDbLine
 62
250
  6
CONTINUOUS
 10
-36.9563377882
 20
-26.1064462948
 11
-36.9284074952
 21
-26.1094962049
  0
LINE
  5
2FA
100
AcDbEntity
  8
RACCORDO
100
AcDbLine
 62
250
  6
CONTINUOUS
 10
-36.9837696675
 20
-26.1032649583
 11
-36.9563377882
 21
-26.1064462948
  0
LINE
  5
2FB
100
AcDbEntity
  8
RACCORDO
100
AcDbLine
 62
250
  6
CONTINUOUS
 10
-37.0106823017
 20
-26.099954611
 11
-36.9837696675
 21
-26.1032649583
  0
LINE
  5
2FC
100
AcDbEntity
  8
RACCORDO
100
AcDbLine
 62
250
  6
CONTINUOUS
 10
-37.0370552537
 20
-26.0965177668
 11
-37.0106823017
 21
-26.099954611
  0
LINE
  5
2FD
100
AcDbEntity
  8
RACCORDO
100
AcDbLine
 62
250
  6
CONTINUOUS
 10
-37.0628684964
 20
-26.0929570357
 11
-37.0370552537
 21
-26.0965177668
  0
LINE
  5
2FE
100
AcDbEntity
  8
RACCORDO
100
AcDbLine
 62
250
  6
CONTINUOUS
 10
-37.0881024274
 20
-26.0892751216
 11
-37.0628684964
 21
-26.0929570357
  0
LINE
  5
2FF
100
AcDbEntity
  8
RACCORDO
100
AcDbLine
 62
250
  6
CONTINUOUS
 10
36.9972921785
 20
-23.4123576076
 11
36.9701173421
 21
-23.416165396
  0
LINE
  5
300
100
AcDbEntity
  8
RACCORDO
100
AcDbLine
 62
250
  6
CONTINUOUS
 10
36.9701173421
 20
-23.416165396
 11
36.9424336281
 21
-23.4198204213
  0
LINE
  5
301
100
AcDbEntity
  8
RACCORDO
100
AcDbLine
 62
250
  6
CONTINUOUS
 10
36.9424336281
 20
-23.4198204213
 11
36.9142620589
 21
-23.4233199078
  0
LINE
  5
302
100
AcDbEntity
  8
RACCORDO
100
AcDbLine
 62
250
  6
CONTINUOUS
 10
36.9142620589
 20
-23.4233199078
 11
36.8856240278
 21
-23.4266611981
  0
LINE
  5
303
100
AcDbEntity
  8
RACCORDO
100
AcDbLine
 62
250
  6
CONTINUOUS
 10
36.8856240278
 20
-23.4266611981
 11
36.856541282
 21
-23.4298417548
  0
LINE
  5
304
100
AcDbEntity
  8
RACCORDO
100
AcDbLine
 62
250
  6
CONTINUOUS
 10
36.856541282
 20
-23.4298417548
 11
36.8270359066
 21
-23.4328591627
  0
LINE
  5
305
100
AcDbEntity
  8
RACCORDO
100
AcDbLine
 62
250
  6
CONTINUOUS
 10
36.8270359066
 20
-23.4328591627
 11
36.7971303076
 21
-23.4357111303
  0
LINE
  5
306
100
AcDbEntity
  8
RACCORDO
100
AcDbLine
 62
250
  6
CONTINUOUS
 10
36.7971303076
 20
-23.4357111303
 11
36.7668471947
 21
-23.4383954919
  0
LINE
  5
307
100
AcDbEntity
  8
RACCORDO
100
AcDbLine
 62
250
  6
CONTINUOUS
 10
36.7668471947
 20
-23.4383954919
 11
36.7362095647
 21
-23.440910209
  0
LINE
  5
308
100
AcDbEntity
  8
RACCORDO
100
AcDbLine
 62
250
  6
CONTINUOUS
 10
36.7362095647
 20
-23.440910209
 11
36.7052406832
 21
-23.443253372
  0
LINE
  5
309
100
AcDbEntity
  8
RACCORDO
100
AcDbLine
 62
250
  6
CONTINUOUS
 10
36.7052406832
 20
-23.443253372
 11
36.6739640677
 21
-23.4454232013
  0
LINE
  5
30A
100
AcDbEntity
  8
RACCORDO
100
AcDbLine
 62
250
  6
CONTINUOUS
 10
36.6739640677
 20
-23.4454232013
 11
36.6424034691
 21
-23.4474180494
  0
LINE
  5
30B
100
AcDbEntity
  8
RACCORDO
100
AcDbLine
 62
250
  6
CONTINUOUS
 10
36.720765066
 20
-26.1269840846
 11
36.6896393629
 21
-26.1289079373
  0
LINE
  5
30C
100
AcDbEntity
  8
RACCORDO
100
AcDbLine
 62
250
  6
CONTINUOUS
 10
36.6424034691
 20
-23.4474180494
 11
36.6105828541
 21
-23.4492364012
  0
LINE
  5
30D
100
AcDbEntity
  8
RACCORDO
100
AcDbLine
 62
250
  6
CONTINUOUS
 10
36.6896393629
 20
-26.1289079373
 11
36.658217773
 21
-26.1306833063
  0
LINE
  5
30E
100
AcDbEntity
  8
RACCORDO
100
AcDbLine
 62
250
  6
CONTINUOUS
 10
36.658217773
 20
-26.1306833063
 11
36.6265241576
 21
-26.1323088435
  0
LINE
  5
30F
100
AcDbEntity
  8
RACCORDO
100
AcDbLine
 62
250
  6
CONTINUOUS
 10
36.6105828541
 20
-23.4492364012
 11
36.5785263869
 21
-23.450876876
  0
LINE
  5
310
100
AcDbEntity
  8
RACCORDO
100
AcDbLine
 62
250
  6
CONTINUOUS
 10
36.6265241576
 20
-26.1323088435
 11
36.5945825844
 21
-26.1337833145
  0
LINE
  5
311
100
AcDbEntity
  8
RACCORDO
100
AcDbLine
 62
250
  6
CONTINUOUS
 10
36.5785263869
 20
-23.450876876
 11
36.5462584106
 21
-23.452338228
  0
LINE
  5
312
100
AcDbEntity
  8
RACCORDO
100
AcDbLine
 62
250
  6
CONTINUOUS
 10
36.5945825844
 20
-26.1337833145
 11
36.5624173093
 21
-26.1351055996
  0
LINE
  5
313
100
AcDbEntity
  8
RACCORDO
100
AcDbLine
 62
250
  6
CONTINUOUS
 10
36.5462584106
 20
-23.452338228
 11
36.5138034292
 21
-23.4536193474
  0
LINE
  5
314
100
AcDbEntity
  8
RACCORDO
100
AcDbLine
 62
250
  6
CONTINUOUS
 10
36.5624173093
 20
-26.1351055996
 11
36.5300527582
 21
-26.1362746947
  0
LINE
  5
315
100
AcDbEntity
  8
RACCORDO
100
AcDbLine
 62
250
  6
CONTINUOUS
 10
36.5138034292
 20
-23.4536193474
 11
36.4811860884
 21
-23.4547192613
  0
LINE
  5
316
100
AcDbEntity
  8
RACCORDO
100
AcDbLine
 62
250
  6
CONTINUOUS
 10
36.5300527582
 20
-26.1362746947
 11
36.4975135082
 21
-26.137289712
  0
LINE
  5
317
100
AcDbEntity
  8
RACCORDO
100
AcDbLine
 62
250
  6
CONTINUOUS
 10
36.4811860884
 20
-23.4547192613
 11
36.4484311575
 21
-23.4556371344
  0
LINE
  5
318
100
AcDbEntity
  8
RACCORDO
100
AcDbLine
 62
250
  6
CONTINUOUS
 10
36.4975135082
 20
-26.137289712
 11
36.4648242693
 21
-26.1381498807
  0
LINE
  5
319
100
AcDbEntity
  8
RACCORDO
100
AcDbLine
 62
250
  6
CONTINUOUS
 10
36.4484311575
 20
-23.4556371344
 11
36.4155635101
 21
-23.4563722698
  0
LINE
  5
31A
100
AcDbEntity
  8
RACCORDO
100
AcDbLine
 62
250
  6
CONTINUOUS
 10
36.4648242693
 20
-26.1381498807
 11
36.4320098651
 21
-26.1388545475
  0
LINE
  5
31B
100
AcDbEntity
  8
RACCORDO
100
AcDbLine
 62
250
  6
CONTINUOUS
 10
36.4320098651
 20
-26.1388545475
 11
36.3990952145
 21
-26.1394031774
  0
LINE
  5
31C
100
AcDbEntity
  8
RACCORDO
100
AcDbLine
 62
250
  6
CONTINUOUS
 10
36.4155635101
 20
-23.4563722698
 11
36.3826081053
 21
-23.4569241091
  0
LINE
  5
31D
100
AcDbEntity
  8
RACCORDO
100
AcDbLine
 62
250
  6
CONTINUOUS
 10
36.3990952145
 20
-26.1394031774
 11
36.3661053124
 21
-26.1397953538
  0
LINE
  5
31E
100
AcDbEntity
  8
RACCORDO
100
AcDbLine
 62
250
  6
CONTINUOUS
 10
36.3826081053
 20
-23.4569241091
 11
36.3495899691
 21
-23.4572922333
  0
LINE
  5
31F
100
AcDbEntity
  8
RACCORDO
100
AcDbLine
 62
250
  6
CONTINUOUS
 10
36.3661053124
 20
-26.1397953538
 11
36.3330652108
 21
-26.1400307788
  0
LINE
  5
320
100
AcDbEntity
  8
RACCORDO
100
AcDbLine
 62
250
  6
CONTINUOUS
 10
36.3495899691
 20
-23.4572922333
 11
36.316534175
 21
-23.4574763627
  0
LINE
  5
321
100
AcDbEntity
  8
RACCORDO
100
AcDbLine
 62
250
  6
CONTINUOUS
 10
36.3330652108
 20
-26.1400307788
 11
36.3
 21
-26.1401092737
  0
LINE
  5
322
100
AcDbEntity
  8
RACCORDO
100
AcDbLine
 62
250
  6
CONTINUOUS
 10
-36.3330652107
 20
-26.1400307788
 11
-36.3
 21
-26.1401092737
  0
LINE
  5
323
100
AcDbEntity
  8
RACCORDO
100
AcDbLine
 62
250
  6
CONTINUOUS
 10
-36.3495899691
 20
-23.4572922363
 11
-36.316534175
 21
-23.4574763637
  0
LINE
  5
324
100
AcDbEntity
  8
RACCORDO
100
AcDbLine
 62
250
  6
CONTINUOUS
 10
-36.3661053121
 20
-26.1397953538
 11
-36.3330652107
 21
-26.1400307788
  0
LINE
  5
325
100
AcDbEntity
  8
RACCORDO
100
AcDbLine
 62
250
  6
CONTINUOUS
 10
-36.3826081053
 20
-23.4569241143
 11
-36.3495899691
 21
-23.4572922363
  0
LINE
  5
326
100
AcDbEntity
  8
RACCORDO
100
AcDbLine
 62
250
  6
CONTINUOUS
 10
-36.3990952142
 20
-26.1394031774
 11
-36.3661053121
 21
-26.1397953538
  0
LINE
  5
327
100
AcDbEntity
  8
RACCORDO
100
AcDbLine
 62
250
  6
CONTINUOUS
 10
-36.4320098647
 20
-26.1388545475
 11
-36.3990952142
 21
-26.1394031774
  0
LINE
  5
328
100
AcDbEntity
  8
RACCORDO
100
AcDbLine
 62
250
  6
CONTINUOUS
 10
-36.4155635101
 20
-23.4563722774
 11
-36.3826081053
 21
-23.4569241143
  0
LINE
  5
329
100
AcDbEntity
  8
RACCORDO
100
AcDbLine
 62
250
  6
CONTINUOUS
 10
-36.4648242687
 20
-26.1381498807
 11
-36.4320098647
 21
-26.1388545475
  0
LINE
  5
32A
100
AcDbEntity
  8
RACCORDO
100
AcDbLine
 62
250
  6
CONTINUOUS
 10
-36.4484311575
 20
-23.4556371446
 11
-36.4155635101
 21
-23.4563722774
  0
LINE
  5
32B
100
AcDbEntity
  8
RACCORDO
100
AcDbLine
 62
250
  6
CONTINUOUS
 10
-36.4975135076
 20
-26.137289712
 11
-36.4648242687
 21
-26.1381498807
  0
LINE
  5
32C
100
AcDbEntity
  8
RACCORDO
100
AcDbLine
 62
250
  6
CONTINUOUS
 10
-36.4811860884
 20
-23.454719274
 11
-36.4484311575
 21
-23.4556371446
  0
LINE
  5
32D
100
AcDbEntity
  8
RACCORDO
100
AcDbLine
 62
250
  6
CONTINUOUS
 10
-36.5300527574
 20
-26.1362746948
 11
-36.4975135076
 21
-26.137289712
  0
LINE
  5
32E
100
AcDbEntity
  8
RACCORDO
100
AcDbLine
 62
250
  6
CONTINUOUS
 10
-36.5138034292
 20
-23.4536193629
 11
-36.4811860884
 21
-23.454719274
  0
LINE
  5
32F
100
AcDbEntity
  8
RACCORDO
100
AcDbLine
 62
250
  6
CONTINUOUS
 10
-36.5624173085
 20
-26.1351055997
 11
-36.5300527574
 21
-26.1362746948
  0
LINE
  5
330
100
AcDbEntity
  8
RACCORDO
100
AcDbLine
 62
250
  6
CONTINUOUS
 10
-36.5462584106
 20
-23.4523382464
 11
-36.5138034292
 21
-23.4536193629
  0
LINE
  5
331
100
AcDbEntity
  8
RACCORDO
100
AcDbLine
 62
250
  6
CONTINUOUS
 10
-36.5945825835
 20
-26.1337833146
 11
-36.5624173085
 21
-26.1351055997
  0
LINE
  5
332
100
AcDbEntity
  8
RACCORDO
100
AcDbLine
 62
250
  6
CONTINUOUS
 10
-36.5785263869
 20
-23.4508768975
 11
-36.5462584106
 21
-23.4523382464
  0
LINE
  5
333
100
AcDbEntity
  8
RACCORDO
100
AcDbLine
 62
250
  6
CONTINUOUS
 10
-36.6265241567
 20
-26.1323088436
 11
-36.5945825835
 21
-26.1337833146
  0
LINE
  5
334
100
AcDbEntity
  8
RACCORDO
100
AcDbLine
 62
250
  6
CONTINUOUS
 10
-36.658217772
 20
-26.1306833064
 11
-36.6265241567
 21
-26.1323088436
  0
LINE
  5
335
100
AcDbEntity
  8
RACCORDO
100
AcDbLine
 62
250
  6
CONTINUOUS
 10
-36.6105828541
 20
-23.4492364258
 11
-36.5785263869
 21
-23.4508768975
  0
LINE
  5
336
100
AcDbEntity
  8
RACCORDO
100
AcDbLine
 62
250
  6
CONTINUOUS
 10
-36.6896393618
 20
-26.1289079373
 11
-36.658217772
 21
-26.1306833064
  0
LINE
  5
337
100
AcDbEntity
  8
RACCORDO
100
AcDbLine
 62
250
  6
CONTINUOUS
 10
-36.6424034691
 20
-23.4474180772
 11
-36.6105828541
 21
-23.4492364258
  0
LINE
  5
338
100
AcDbEntity
  8
RACCORDO
100
AcDbLine
 62
250
  6
CONTINUOUS
 10
-36.7207650649
 20
-26.1269840847
 11
-36.6896393618
 21
-26.1289079373
  0
LINE
  5
339
100
AcDbEntity
  8
RACCORDO
100
AcDbLine
 62
250
  6
CONTINUOUS
 10
-36.6739640677
 20
-23.4454232325
 11
-36.6424034691
 21
-23.4474180772
  0
LINE
  5
33A
100
AcDbEntity
  8
RACCORDO
100
AcDbLine
 62
250
  6
CONTINUOUS
 10
-36.7052406833
 20
-23.4432534066
 11
-36.6739640677
 21
-23.4454232325
  0
LINE
  5
33B
100
AcDbEntity
  8
RACCORDO
100
AcDbLine
 62
250
  6
CONTINUOUS
 10
-36.7362095647
 20
-23.4409102472
 11
-36.7052406833
 21
-23.4432534066
  0
LINE
  5
33C
100
AcDbEntity
  8
RACCORDO
100
AcDbLine
 62
250
  6
CONTINUOUS
 10
-36.7668471947
 20
-23.4383955338
 11
-36.7362095647
 21
-23.4409102472
  0
LINE
  5
33D
100
AcDbEntity
  8
RACCORDO
100
AcDbLine
 62
250
  6
CONTINUOUS
 10
-36.7971303076
 20
-23.4357111761
 11
-36.7668471947
 21
-23.4383955338
  0
LINE
  5
33E
100
AcDbEntity
  8
RACCORDO
100
AcDbLine
 62
250
  6
CONTINUOUS
 10
-36.8270359066
 20
-23.4328592124
 11
-36.7971303076
 21
-23.4357111761
  0
LINE
  5
33F
100
AcDbEntity
  8
RACCORDO
100
AcDbLine
 62
250
  6
CONTINUOUS
 10
-36.856541282
 20
-23.4298418086
 11
-36.8270359066
 21
-23.4328592124
  0
LINE
  5
340
100
AcDbEntity
  8
RACCORDO
100
AcDbLine
 62
250
  6
CONTINUOUS
 10
-36.8856240278
 20
-23.426661256
 11
-36.856541282
 21
-23.4298418086
  0
LINE
  5
341
100
AcDbEntity
  8
RACCORDO
100
AcDbLine
 62
250
  6
CONTINUOUS
 10
-36.9142620589
 20
-23.4233199701
 11
-36.8856240278
 21
-23.426661256
  0
LINE
  5
342
100
AcDbEntity
  8
RACCORDO
100
AcDbLine
 62
250
  6
CONTINUOUS
 10
-36.9424336281
 20
-23.4198204881
 11
-36.9142620589
 21
-23.4233199701
  0
LINE
  5
343
100
AcDbEntity
  8
RACCORDO
100
AcDbLine
 62
250
  6
CONTINUOUS
 10
-36.9701173421
 20
-23.4161654675
 11
-36.9424336281
 21
-23.4198204881
  0
LINE
  5
344
100
AcDbEntity
  8
RACCORDO
100
AcDbLine
 62
250
  6
CONTINUOUS
 10
-36.9972921785
 20
-23.4123576839
 11
-36.9701173421
 21
-23.4161654675
  0
LINE
  5
345
100
AcDbEntity
  8
RACCORDO
100
AcDbLine
 62
250
  6
CONTINUOUS
 10
36.316534175
 20
-23.4574763627
 11
-36.3
 21
-23.4574993802
  0
LINE
  5
346
100
AcDbEntity
  8
RACCORDO
100
AcDbLine
 62
7
  6
CONTINUOUS
 10
37.3
 20
-22.4999999998
 11
-37.3
 21
-22.4999999998
  0
LINE
  5
347
100
AcDbEntity
  8
RACCORDO
100
AcDbLine
 62
250
  6
CONTINUOUS
 10
-36.316534175
 20
-23.4574763637
 11
-36.3
 21
-23.4574993802
  0
LINE
  5
348
100
AcDbEntity
  8
RACCORDO
100
AcDbLine
 62
250
  6
CONTINUOUS
 10
-38.5583191776
 20
-39.3228767647
 11
-38.6210346327
 21
-39.4483000689
  0
LWPOLYLINE
  5
349
100
AcDbEntity
  8
RACCORDO
100
AcDbPolyline
 62
250
  6
CONTINUOUS
 90
3
 70
0
 10
-38.6210346327
 20
-39.4483000689
 10
-38.6841793413
 20
-39.5742580276
 10
-38.7
 20
-39.6057773313
  0
LINE
  5
34A
100
AcDbEntity
  8
RACCORDO
100
AcDbLine
 62
250
  6
CONTINUOUS
 10
-60.0
 20
-39.8016445583
 11
-59.6909734094
 21
-39.4926179677
  0
LINE
  5
34B
100
AcDbEntity
  8
RACCORDO
100
AcDbLine
 62
250
  6
CONTINUOUS
 10
38.4166383553
 20
39.4635311044
 11
38.5106098307
 21
39.5108803893
  0
LINE
  5
34C
100
AcDbEntity
  8
RACCORDO
100
AcDbLine
 62
250
  6
CONTINUOUS
 10
38.5106098307
 20
39.5108803893
 11
38.6051512769
 21
39.5583403468
  0
LINE
  5
34D
100
AcDbEntity
  8
RACCORDO
100
AcDbLine
 62
250
  6
CONTINUOUS
 10
38.6051512769
 20
39.5583403468
 11
38.6999999999
 21
39.6057773315
  0
LINE
  5
34E
100
AcDbEntity
  8
RACCORDO
100
AcDbLine
 62
250
  6
CONTINUOUS
 10
38.6999999998
 20
-39.6057773315
 11
38.6051507401
 21
-39.5583400676
  0
LINE
  5
34F
100
AcDbEntity
  8
RACCORDO
100
AcDbLine
 62
250
  6
CONTINUOUS
 10
38.6051507401
 20
-39.5583400676
 11
38.5106070254
 21
-39.5108789662
  0
LINE
  5
350
100
AcDbEntity
  8
RACCORDO
100
AcDbLine
 62
250
  6
CONTINUOUS
 10
38.5106070254
 20
-39.5108789662
 11
38.4166383553
 21
-39.4635311044
  0
LINE
  5
351
100
AcDbEntity
  8
RACCORDO
100
AcDbLine
 62
250
  6
CONTINUOUS
 10
-59.6909734094
 20
39.4926179677
 11
-60.0
 21
39.8016445583
  0
LINE
  5
352
100
AcDbEntity
  8
RACCORDO
100
AcDbLine
 62
250
  6
CONTINUOUS
 10
-38.7
 20
39.6057773313
 11
-38.6367958107
 21
39.4797748266
  0
LWPOLYLINE
  5
353
100
AcDbEntity
  8
RACCORDO
100
AcDbPolyline
 62
250
  6
CONTINUOUS
 90
3
 70
0
 10
-38.6367958107
 20
39.4797748266
 10
-38.5739449741
 20
39.3541652649
 10
-38.5583191776
 20
39.3228767647
  0
LWPOLYLINE
  5
354
100
AcDbEntity
  8
RACCORDO
100
AcDbPolyline
 62
250
  6
CONTINUOUS
 90
112
 70
0
 10
-38.5583191776
 20
39.3228767647
 10
-38.5537721367
 20
39.3136391142
 10
-38.5491823093
 20
39.3040048495
 10
-38.5445498286
 20
39.2939739234
 10
-38.5398825841
 20
39.2835741528
 10
-38.5351729579
 20
39.2727776313
 10
-38.5303978662
 20
39.2615007004
 10
-38.5255552955
 20
39.2497434129
 10
-38.5206476555
 20
39.2375055641
 10
-38.5156585782
 20
39.2247030632
 10
-38.5105872367
 20
39.2113374893
 10
-38.505434975
 20
39.1974070672
 10
-38.5001887579
 20
39.1828226363
 10
-38.4948507495
 20
39.1675944299
 10
-38.4894194373
 20
39.151711979
 10
-38.4838763694
 20
39.1350550274
 10
-38.4782231814
 20
39.1176340993
 10
-38.4724590932
 20
39.0994383731
 10
-38.4665621708
 20
39.0803155149
 10
-38.4605303121
 20
39.0602634179
 10
-38.4543667652
 20
39.0392838086
 10
-38.4480577776
 20
39.017230046
 10
-38.4415967067
 20
38.9940779548
 10
-38.4349916585
 20
38.9698512593
 10
-38.4282510796
 20
38.9444751525
 10
-38.4213702089
 20
38.9179230899
 10
-38.414355456
 20
38.8902211669
 10
-38.4072319513
 20
38.8613735819
 10
-38.4000065034
 20
38.8313991527
 10
-38.392673939
 20
38.8002786896
 10
-38.3852413325
 20
38.7679594266
 10
-38.3777189184
 20
38.7344848935
 10
-38.3700982361
 20
38.6998112054
 10
-38.3623584628
 20
38.6637544431
 10
-38.3545002484
 20
38.626319609
 10
-38.3465252515
 20
38.5875012471
 10
-38.3384144878
 20
38.5470996698
 10
-38.3301680532
 20
38.5051143145
 10
-38.3217887659
 20
38.4615452012
 10
-38.3132620685
 20
38.4161934411
 10
-38.3045901117
 20
38.3690665314
 10
-38.2957743249
 20
38.3201563572
 10
-38.2867994522
 20
38.2692405388
 10
-38.277670662
 20
38.2163434803
 10
-38.268387185
 20
38.1614400789
 10
-38.2589254016
 20
38.1042335969
 10
-38.24928749
 20
38.0447286676
 10
-38.2394768953
 20
37.9829198269
 10
-38.2294726107
 20
37.9184950732
 10
-38.2192787771
 20
37.8514663027
 10
-38.2088983151
 20
37.7818206675
 10
-38.1983092372
 20
37.7092089263
 10
-38.1875239863
 20
37.6336996358
 10
-38.1765389422
 20
37.5552231678
 10
-38.1653094087
 20
37.4732228092
 10
-38.1538365988
 20
37.3876771514
 10
-38.142131305
 20
37.2986062542
 10
-38.130165007
 20
37.2055153805
 10
-38.1179260051
 20
37.1082463717
 10
-38.1054416074
 20
37.0069558306
 10
-38.0927425733
 20
36.9016211343
 10
-38.0798608246
 20
36.7924362999
 10
-38.0667810305
 20
36.6792060199
 10
-38.053464373
 20
36.5613236203
 10
-38.0399279975
 20
36.43885838
 10
-38.0261767401
 20
36.3117395082
 10
-38.0121571335
 20
36.1791499033
 10
-37.9978939642
 20
36.0412058202
 10
-37.9833920293
 20
35.8977892476
 10
-37.9685740438
 20
35.7477312186
 10
-37.9534541475
 20
35.5909762866
 10
-37.9380604128
 20
35.4275777459
 10
-37.9223443313
 20
35.2565292668
 10
-37.9063394169
 20
35.0778947897
 10
-37.8900684896
 20
34.8916081795
 10
-37.8734767424
 20
34.6964675764
 10
-37.8565452079
 20
34.4917378472
 10
-37.8393722433
 20
34.2781518671
 10
-37.8220816782
 20
34.0567099953
 10
-37.8046699534
 20
33.8267410039
 10
-37.7872228816
 20
33.5889154777
 10
-37.7699805874
 20
33.3462477311
 10
-37.7529764103
 20
33.0987264636
 10
-37.7362343299
 20
32.8463647422
 10
-37.7199502344
 20
32.5922147832
 10
-37.7041824465
 20
32.3369838834
 10
-37.6888975252
 20
32.0799680057
 10
-37.6741348855
 20
31.8221029387
 10
-37.6599054452
 20
31.563404842
 10
-37.6462193612
 20
31.303860902
 10
-37.6331087682
 20
31.0443635089
 10
-37.6205804726
 20
30.7849268126
 10
-37.6086412883
 20
30.5255399732
 10
-37.5973168535
 20
30.2670578639
 10
-37.5866132042
 20
30.0095805261
 10
-37.5765292104
 20
29.7530109981
 10
-37.5670745828
 20
29.4979085399
 10
-37.5582490982
 20
29.2442827525
 10
-37.550052971
 20
28.9921267649
 10
-37.5424927044
 20
28.7419749786
 10
-37.5355657688
 20
28.4938577054
 10
-37.529268727
 20
28.2477469347
 10
-37.5236027878
 20
28.0040894046
 10
-37.518563091
 20
27.7629353646
 10
-37.5141430723
 20
27.5242363923
 10
-37.5103383753
 20
27.288291038
 10
-37.507141612
 20
27.0551140294
 10
-37.5045451751
 20
26.8246920148
 10
-37.5025420715
 20
26.5972812557
 10
-37.5011233553
 20
26.3729674643
 10
-37.5002792073
 20
26.1516658488
 10
-37.5
 20
25.9333767861
  0
LINE
  5
355
100
AcDbEntity
  8
RACCORDO
100
AcDbLine
 62
250
  6
CONTINUOUS
 10
-58.8016445583
 20
-41.0
 11
-58.4926179677
 21
-40.6909734094
  0
LINE
  5
356
100
AcDbEntity
  8
RACCORDO
100
AcDbLine
 62
250
  6
CONTINUOUS
 10
-58.4926179677
 20
40.6909734094
 11
-58.8016445583
 21
41.0
  0
LWPOLYLINE
  5
357
100
AcDbEntity
  8
RACCORDO
100
AcDbPolyline
 62
250
  6
CONTINUOUS
 90
103
 70
0
 10
-38.416641104
 20
-39.4635311044
 10
-38.4079792417
 20
-39.4547887578
 10
-38.3992054428
 20
-39.4456454344
 10
-38.3903197073
 20
-39.4361011372
 10
-38.3813805655
 20
-39.426241407
 10
-38.3723294873
 20
-39.4159807093
 10
-38.3629908816
 20
-39.405062436
 10
-38.3532963435
 20
-39.3934168512
 10
-38.343314278
 20
-39.381113704
 10
-38.3330743094
 20
-39.3681056174
 10
-38.3225881129
 20
-39.3544080052
 10
-38.3118440134
 20
-39.3400054701
 10
-38.3008366097
 20
-39.3248044204
 10
-38.2895733225
 20
-39.3088198998
 10
-38.2780467312
 20
-39.2920368869
 10
-38.266229173
 20
-39.2743166965
 10
-38.2541236761
 20
-39.2556717181
 10
-38.2417272124
 20
-39.2360895936
 10
-38.2290030344
 20
-39.2153945226
 10
-38.2159498448
 20
-39.1935935746
 10
-38.2025689409
 20
-39.1706797251
 10
-38.1888274673
 20
-39.1464560426
 10
-38.1747221989
 20
-39.1209257502
 10
-38.1602563609
 20
-39.0940856889
 10
-38.1454067729
 20
-39.0657293672
 10
-38.1301716293
 20
-39.0358616344
 10
-38.1145527357
 20
-39.0044777316
 10
-38.0985323296
 20
-38.9713567717
 10
-38.0821108245
 20
-38.9365082854
 10
-38.0652878069
 20
-38.8999228686
 10
-38.0480442731
 20
-38.8613512541
 10
-38.0303806451
 20
-38.8208041823
 10
-38.012296501
 20
-38.7782710902
 10
-37.993771571
 20
-38.7334707877
 10
-37.9748063002
 20
-38.6864154943
 10
-37.9554002434
 20
-38.6370932391
 10
-37.9355317955
 20
-38.5851865909
 10
-37.9152011519
 20
-38.530708798
 10
-37.8944081171
 20
-38.4736469611
 10
-37.8731304993
 20
-38.4136444877
 10
-37.8513684245
 20
-38.3507165636
 10
-37.8291217667
 20
-38.2848484935
 10
-37.8063679567
 20
-38.2156389474
 10
-37.7831071136
 20
-38.1431057202
 10
-37.7593391182
 20
-38.0672317075
 10
-37.7350410434
 20
-37.9875633483
 10
-37.7102131826
 20
-37.9041227077
 10
-37.6848552425
 20
-37.8168886947
 10
-37.658943415
 20
-37.72534318
 10
-37.6324781884
 20
-37.6295146672
 10
-37.6054590745
 20
-37.5293760312
 10
-37.577860801
 20
-37.4243259377
 10
-37.5496828524
 20
-37.3143971104
 10
-37.5209257442
 20
-37.1995587875
 10
-37.4915657503
 20
-37.079114749
 10
-37.4616034175
 20
-36.9531145222
 10
-37.4310381991
 20
-36.821511385
 10
-37.399844729
 20
-36.683465245
 10
-37.3680168902
 20
-36.5390117689
 10
-37.3355607997
 20
-36.3881193479
 10
-37.3024694424
 20
-36.2298477069
 10
-37.2687551045
 20
-36.0643574237
 10
-37.2344054999
 20
-35.8914937642
 10
-37.1993767554
 20
-35.7098446598
 10
-37.1635650902
 20
-35.5189302796
 10
-37.1270742851
 20
-35.3192394485
 10
-37.0901718096
 20
-35.1108141804
 10
-37.0527216661
 20
-34.8927124357
 10
-37.0148598521
 20
-34.6658881025
 10
-36.9772618292
 20
-34.4332261275
 10
-36.9400096662
 20
-34.1949610565
 10
-36.9030212943
 20
-33.9508689453
 10
-36.866725969
 20
-33.7031443336
 10
-36.8311913635
 20
-33.4520891687
 10
-36.7963498047
 20
-33.1974106749
 10
-36.7624275288
 20
-32.940409091
 10
-36.7294417459
 20
-32.6811153925
 10
-36.697375246
 20
-32.4195068958
 10
-36.6664026342
 20
-32.1568014519
 10
-36.6365426647
 20
-31.8930661291
 10
-36.6077765833
 20
-31.6282405728
 10
-36.5802227332
 20
-31.363349514
 10
-36.5538959508
 20
-31.0984515229
 10
-36.5287813996
 20
-30.8334929547
 10
-36.5049529134
 20
-30.5693283218
 10
-36.4824225602
 20
-30.3060096823
 10
-36.4611782721
 20
-30.0434880053
 10
-36.4412576795
 20
-29.7824644169
 10
-36.4226705156
 20
-29.5229824887
 10
-36.4054070473
 20
-29.2649997928
 10
-36.3894757046
 20
-29.0090868883
 10
-36.3748843911
 20
-28.7552784761
 10
-36.3616252033
 20
-28.503539213
 10
-36.3496828614
 20
-28.2543332176
 10
-36.3390638328
 20
-28.0076800018
 10
-36.3297616501
 20
-27.7635577791
 10
-36.3217416312
 20
-27.5223675059
 10
-36.3150099039
 20
-27.2841441262
 10
-36.3095603405
 20
-27.0488488839
 10
-36.3053398749
 20
-26.8167711731
 10
-36.3023308187
 20
-26.5880056236
 10
-36.3005508604
 20
-26.3624525244
 10
-36.3
 20
-26.1401092737
  0
LWPOLYLINE
  5
358
100
AcDbEntity
  8
RACCORDO
100
AcDbPolyline
 62
250
  6
CONTINUOUS
 90
112
 70
0
 10
-38.4166383553
 20
39.4635311044
 10
-38.4075449656
 20
39.4543402979
 10
-38.398366299
 20
39.4447543572
 10
-38.3891023555
 20
39.4347732856
 10
-38.3797682233
 20
39.4244247722
 10
-38.3703488141
 20
39.4136811346
 10
-38.3607988639
 20
39.4024593194
 10
-38.351113889
 20
39.3907596075
 10
-38.3412983729
 20
39.3785817275
 10
-38.3313205025
 20
39.3658418003
 10
-38.3211779659
 20
39.3525415179
 10
-38.3108730748
 20
39.3386792011
 10
-38.3003809512
 20
39.3241659168
 10
-38.2897050966
 20
39.3090120186
 10
-38.2788420094
 20
39.2932071702
 10
-38.2677563062
 20
39.2766314067
 10
-38.2564501517
 20
39.259295419
 10
-38.2449213813
 20
39.2411885403
 10
-38.2331281181
 20
39.2221587739
 10
-38.2210647142
 20
39.2022042882
 10
-38.2087368176
 20
39.1813269489
 10
-38.1961194953
 20
39.1593803122
 10
-38.1831977791
 20
39.1363405824
 10
-38.1699866372
 20
39.1122316026
 10
-38.1565060418
 20
39.0869783942
 10
-38.1427447905
 20
39.0605547464
 10
-38.1287140857
 20
39.0329869307
 10
-38.1144675065
 20
39.0042786966
 10
-38.1000170391
 20
38.9744489834
 10
-38.0853506974
 20
38.943478923
 10
-38.0704861024
 20
38.9113155581
 10
-38.055441644
 20
38.8780024971
 10
-38.0401989323
 20
38.8434962186
 10
-38.0247204188
 20
38.8076130824
 10
-38.0090045025
 20
38.7703584138
 10
-37.9930527843
 20
38.7317270053
 10
-37.9768325194
 20
38.691519438
 10
-37.9603403291
 20
38.6497355776
 10
-37.943579592
 20
38.606375717
 10
-37.9265276986
 20
38.5612411032
 10
-37.90918461
 20
38.5143396941
 10
-37.8915503651
 20
38.4656637425
 10
-37.873602471
 20
38.4149909697
 10
-37.8553458243
 20
38.3623462778
 10
-37.8367755284
 20
38.307705045
 10
-37.8178543997
 20
38.2507707529
 10
-37.79857981
 20
38.1915487626
 10
-37.7789543876
 20
38.1300340968
 10
-37.7589488339
 20
38.0659147932
 10
-37.7385627041
 20
37.9992035888
 10
-37.7177964429
 20
37.9298882682
 10
-37.6966220854
 20
37.8576195237
 10
-37.6750531362
 20
37.7824667571
 10
-37.6530760907
 20
37.7043612737
 10
-37.6306224711
 20
37.6227467549
 10
-37.6076793411
 20
37.5376034175
 10
-37.5842596369
 20
37.4489520649
 10
-37.5603336901
 20
37.3562974434
 10
-37.535860326
 20
37.2594837611
 10
-37.5108807191
 20
37.1586682464
 10
-37.4854887245
 20
37.0538253272
 10
-37.4597284637
 20
36.9451499261
 10
-37.4335558152
 20
36.8324488678
 10
-37.4069322695
 20
36.7151146523
 10
-37.3798632726
 20
36.5932188118
 10
-37.3523433785
 20
36.4666922632
 10
-37.3243177406
 20
36.3347170355
 10
-37.2957955427
 20
36.1974124087
 10
-37.2667676009
 20
36.0546625917
 10
-37.237151517
 20
35.9052977479
 10
-37.2069191768
 20
35.749267526
 10
-37.1760986944
 20
35.586627499
 10
-37.1446920139
 20
35.4163677426
 10
-37.1126916086
 20
35.2385581662
 10
-37.0801050051
 20
35.0531363234
 10
-37.0469567274
 20
34.8588951297
 10
-37.0131200287
 20
34.6551100555
 10
-36.9787216558
 20
34.4425167497
 10
-36.9441663732
 20
34.2220990802
 10
-36.909383414
 20
33.993193831
 10
-36.874443545
 20
33.7564771104
 10
-36.839963831
 20
33.5149398786
 10
-36.805991123
 20
33.2685721093
 10
-36.77247857
 20
33.0173946778
 10
-36.7399026839
 20
32.7644408698
 10
-36.7083797652
 20
32.5104141927
 10
-36.6777935134
 20
32.2546179135
 10
-36.648271539
 20
31.9979818714
 10
-36.6198234176
 20
31.7405224731
 10
-36.5924395734
 20
31.4822292491
 10
-36.5662188902
 20
31.2239901151
 10
-36.5411709625
 20
30.9658186896
 10
-36.5172861957
 20
30.7077057167
 10
-36.4946346891
 20
30.4505030509
 10
-36.4732316052
 20
30.1943090751
 10
-36.4530617813
 20
29.939027808
 10
-36.4341498291
 20
29.6852179888
 10
-36.4165016138
 20
29.4328876219
 10
-36.40011127
 20
29.1820296318
 10
-36.3849858136
 20
28.9331788046
 10
-36.3711325059
 20
28.6863631894
 10
-36.3585440856
 20
28.441554006
 10
-36.3472057844
 20
28.1991995205
 10
-36.3371243385
 20
27.9593472173
 10
-36.3282930117
 20
27.7219473289
 10
-36.3206768271
 20
27.4873012095
 10
-36.314279968
 20
27.2554207247
 10
-36.3090982511
 20
27.0262905538
 10
-36.3050841486
 20
26.8001704562
 10
-36.302221818
 20
26.5771453641
 10
-36.3005271018
 20
26.357125754
 10
-36.3
 20
26.1401092738
  0
LWPOLYLINE
  5
359
100
AcDbEntity
  8
RACCORDO
100
AcDbPolyline
 62
250
  6
CONTINUOUS
 90
112
 70
0
 10
38.4166383553
 20
-39.4635311044
 10
38.4051978413
 20
-39.4518600752
 10
38.3939844964
 20
-39.4400297407
 10
38.3829983204
 20
-39.4280401025
 10
38.3722892862
 20
-39.4159322738
 10
38.3618074211
 20
-39.4036651447
 10
38.3514028064
 20
-39.3911153839
 10
38.3410640095
 20
-39.3782886878
 10
38.3308024632
 20
-39.3651793663
 10
38.3205025468
 20
-39.3516470114
 10
38.3101564698
 20
-39.3376963046
 10
38.2997720229
 20
-39.3233225748
 10
38.2892569576
 20
-39.3083713893
 10
38.2786046917
 20
-39.2928458391
 10
38.2678218075
 20
-39.2767428493
 10
38.2568358042
 20
-39.2598987432
 10
38.2456406721
 20
-39.2423150512
 10
38.2342424209
 20
-39.2239902668
 10
38.2225865786
 20
-39.2047561641
 10
38.210665043
 20
-39.1846078609
 10
38.1984859163
 20
-39.1635502739
 10
38.1860190327
 20
-39.1414298821
 10
38.1732435274
 20
-39.1182110458
 10
38.1601802653
 20
-39.093929453
 10
38.1468616749
 20
-39.068538581
 10
38.1332814752
 20
-39.0420203813
 10
38.1194459472
 20
-39.014392962
 10
38.1054063622
 20
-38.9856640382
 10
38.0911787221
 20
-38.9558628442
 10
38.076747025
 20
-38.924960215
 10
38.0621145366
 20
-38.8928762717
 10
38.0472952607
 20
-38.8596469336
 10
38.0322751935
 20
-38.8252363679
 10
38.0170155902
 20
-38.78945708
 10
38.001513535
 20
-38.7523110124
 10
37.9857719436
 20
-38.7137963403
 10
37.969760819
 20
-38.6737199373
 10
37.9534770142
 20
-38.6320815986
 10
37.9369236761
 20
-38.5888816868
 10
37.9200802474
 20
-38.5439279509
 10
37.9029477914
 20
-38.4972311721
 10
37.8855252448
 20
-38.4487807777
 10
37.8677888604
 20
-38.3983525175
 10
37.8497431309
 20
-38.3459702999
 10
37.8313835636
 20
-38.2916104944
 10
37.8126729333
 20
-38.2349775881
 10
37.7936081793
 20
-38.1760753192
 10
37.7741923623
 20
-38.1149003296
 10
37.7543974396
 20
-38.0511465257
 10
37.7342236054
 20
-37.9848285287
 10
37.7136706656
 20
-37.9159322324
 10
37.6927099951
 20
-37.8441085344
 10
37.6713554339
 20
-37.7694283345
 10
37.6495931421
 20
-37.691821431
 10
37.6273529757
 20
-37.6107272016
 10
37.6046191096
 20
-37.5261139901
 10
37.581407369
 20
-37.4380144628
 10
37.5576950853
 20
-37.3459646616
 10
37.5334441117
 20
-37.2498193075
 10
37.508692595
 20
-37.1497250893
 10
37.483532307
 20
-37.0456561439
 10
37.4580077174
 20
-36.937809745
 10
37.4320743564
 20
-36.8259903319
 10
37.405690587
 20
-36.7095830064
 10
37.3788605345
 20
-36.5886531558
 10
37.3515800735
 20
-36.4631377994
 10
37.3237951908
 20
-36.3322299332
 10
37.2955154885
 20
-36.1960495836
 10
37.2667313644
 20
-36.0544801463
 10
37.2373599989
 20
-35.9063603976
 10
37.2073728761
 20
-35.7516360273
 10
37.176798512
 20
-35.5903664671
 10
37.145639634
 20
-35.4215621077
 10
37.1138930351
 20
-35.2453172829
 10
37.0815619224
 20
-35.0615449548
 10
37.0486586454
 20
-34.8689848265
 10
37.0150718275
 20
-34.6670292374
 10
36.9809128453
 20
-34.4562967507
 10
36.9465281775
 20
-34.2373673267
 10
36.911820626
 20
-34.0094309385
 10
36.8768873888
 20
-33.7733109045
 10
36.8423665382
 20
-33.5320355637
 10
36.8082960622
 20
-33.2855091058
 10
36.7746379729
 20
-33.033838708
 10
36.741916379
 20
-32.7803529512
 10
36.7102625449
 20
-32.5258485849
 10
36.6795452062
 20
-32.2695356722
 10
36.6498946789
 20
-32.0123594346
 10
36.6213209096
 20
-31.7543379801
 10
36.5938139517
 20
-31.4954592092
 10
36.5674742811
 20
-31.2366214011
 10
36.5423117141
 20
-30.9778393505
 10
36.5183164343
 20
-30.7191026818
 10
36.4955594692
 20
-30.4612701503
 10
36.4740560861
 20
-30.2044402758
 10
36.4537910177
 20
-29.9485169828
 10
36.4347894888
 20
-29.6940655478
 10
36.4170574845
 20
-29.4410947721
 10
36.4005890197
 20
-29.1895968081
 10
36.3853913649
 20
-28.9401106114
 10
36.3714718396
 20
-28.6926642609
 10
36.3588231243
 20
-28.447228957
 10
36.3474305301
 20
-28.2042570496
 10
36.337300867
 20
-27.9637964092
 10
36.3284273249
 20
-27.7257968762
 10
36.3207747858
 20
-27.4905627088
 10
36.3143474832
 20
-27.2581060634
 10
36.3091411835
 20
-27.0284113096
 10
36.3051080673
 20
-26.8017402012
 10
36.3022321948
 20
-26.578178324
 10
36.3005295057
 20
-26.3576354707
 10
36.3
 20
-26.1401092737
  0
LWPOLYLINE
  5
35A
100
AcDbEntity
  8
0
100
AcDbPolyline
 62
7
  6
CONTINUOUS
 90
13
 70
0
 43
0.3500000006
 10
0.8571428254
 20
50.6071437378
 10
0.8571428254
 20
51.8928551788
 10
1.0714285848
 20
52.3214286804
 10
1.5000000329
 20
52.750002182
 10
1.7142856507
 20
52.750002182
 10
2.1428571696
 20
52.3214286804
 10
2.3571427875
 20
51.8928551788
 10
2.3571427875
 20
50.6071437378
 10
2.1428571696
 20
50.1785702362
 10
1.7142856507
 20
49.7500012665
 10
1.5000000329
 20
49.7500012665
 10
1.0714285848
 20
50.1785702362
 10
0.8571428254
 20
50.6071437378
  0
LINE
  5
35B
100
AcDbEntity
  8
RACCORDO
100
AcDbLine
 62
250
  6
CONTINUOUS
 10
58.8016445583
 20
41.0
 11
58.4926179677
 21
40.6909734094
  0
LINE
  5
35C
100
AcDbEntity
  8
RACCORDO
100
AcDbLine
 62
250
  6
CONTINUOUS
 10
60.0
 20
39.8016445583
 11
59.6909734094
 21
39.4926179677
  0
LINE
  5
35D
100
AcDbEntity
  8
RACCORDO
100
AcDbLine
 62
250
  6
CONTINUOUS
 10
58.4926179677
 20
-40.6909734094
 11
58.8016445583
 21
-41.0
  0
LINE
  5
35E
100
AcDbEntity
  8
RACCORDO
100
AcDbLine
 62
250
  6
CONTINUOUS
 10
59.6909734094
 20
-39.4926179677
 11
60.0
 21
-39.8016445583
  0
LINE
  5
35F
100
AcDbEntity
  8
RACCORDO
100
AcDbLine
 62
250
  6
CONTINUOUS
 10
38.5583191776
 20
39.3228767647
 11
38.6210358474
 21
39.4483024669
  0
LWPOLYLINE
  5
360
100
AcDbEntity
  8
RACCORDO
100
AcDbPolyline
 62
250
  6
CONTINUOUS
 90
3
 70
0
 10
38.6210358474
 20
39.4483024669
 10
38.6841793268
 20
39.5742579911
 10
38.7
 20
39.6057773313
  0
LINE
  5
361
100
AcDbEntity
  8
RACCORDO
100
AcDbLine
 62
250
  6
CONTINUOUS
 10
-38.4166383553
 20
-39.4635311044
 11
-38.5106069541
 21
-39.5108789303
  0
LINE
  5
362
100
AcDbEntity
  8
RACCORDO
100
AcDbLine
 62
250
  6
CONTINUOUS
 10
-38.5106069541
 20
-39.5108789303
 11
-38.605150765
 21
-39.5583400802
  0
LINE
  5
363
100
AcDbEntity
  8
RACCORDO
100
AcDbLine
 62
250
  6
CONTINUOUS
 10
-38.605150765
 20
-39.5583400802
 11
-38.6999999998
 21
-39.6057773315
  0
LINE
  5
364
100
AcDbEntity
  8
RACCORDO
100
AcDbLine
 62
250
  6
CONTINUOUS
 10
-38.6999999999
 20
39.6057773315
 11
-38.6051513045
 21
39.5583403605
  0
LINE
  5
365
100
AcDbEntity
  8
RACCORDO
100
AcDbLine
 62
250
  6
CONTINUOUS
 10
-38.6051513045
 20
39.5583403605
 11
-38.5106097617
 21
39.5108803546
  0
LINE
  5
366
100
AcDbEntity
  8
RACCORDO
100
AcDbLine
 62
250
  6
CONTINUOUS
 10
-38.5106097617
 20
39.5108803546
 11
-38.4166383553
 21
39.4635311044
  0
LINE
  5
367
100
AcDbEntity
  8
RACCORDO
100
AcDbLine
 62
250
  6
CONTINUOUS
 10
38.7
 20
-39.6057773313
 11
38.6367951252
 21
-39.4797734836
  0
LWPOLYLINE
  5
368
100
AcDbEntity
  8
RACCORDO
100
AcDbPolyline
 62
250
  6
CONTINUOUS
 90
3
 70
0
 10
38.6367951252
 20
-39.4797734836
 10
38.573944243
 20
-39.3541638101
 10
38.5583191776
 20
-39.3228767647
  0
LWPOLYLINE
  5
369
100
AcDbEntity
  8
RACCORDO
100
AcDbPolyline
 62
250
  6
CONTINUOUS
 90
112
 70
0
 10
38.5583191776
 20
-39.3228767647
 10
38.5526006727
 20
-39.3111525455
 10
38.5469953573
 20
-39.2992668793
 10
38.5415031601
 20
-39.2872199134
 10
38.5361487611
 20
-39.2750527959
 10
38.530907276
 20
-39.2627246841
 10
38.5257044107
 20
-39.2501126429
 10
38.5205348578
 20
-39.2372227272
 10
38.5154039935
 20
-39.2240489684
 10
38.5102537983
 20
-39.2104502339
 10
38.5050806715
 20
-39.196431102
 10
38.4998885103
 20
-39.181986941
 10
38.4946307644
 20
-39.1669626764
 10
38.4893045696
 20
-39.1513612414
 10
38.483913331
 20
-39.1351795332
 10
38.4784201132
 20
-39.1182533179
 10
38.4728224823
 20
-39.1005839144
 10
38.4671236871
 20
-39.0821697312
 10
38.4612955193
 20
-39.0628420787
 10
38.4553346551
 20
-39.0425957844
 10
38.4492455458
 20
-39.0214356534
 10
38.4430118276
 20
-38.9992078951
 10
38.436623897
 20
-38.9758764474
 10
38.4300928203
 20
-38.9514769262
 10
38.4234333
 20
-38.925963048
 10
38.4166429719
 20
-38.899316462
 10
38.4097257755
 20
-38.8715551004
 10
38.4027057709
 20
-38.8426871575
 10
38.3955917534
 20
-38.8127417964
 10
38.3883764796
 20
-38.7816895097
 10
38.3810599032
 20
-38.7494505193
 10
38.3736500913
 20
-38.7160606467
 10
38.3661407423
 20
-38.6814837144
 10
38.3585104408
 20
-38.6455319016
 10
38.35075917
 20
-38.6082068076
 10
38.3428892483
 20
-38.5695063788
 10
38.3348830826
 20
-38.5292372365
 10
38.3267408561
 20
-38.4873987517
 10
38.3184652698
 20
-38.4439910165
 10
38.3100428337
 20
-38.3988216643
 10
38.3014762151
 20
-38.3519010327
 10
38.292766272
 20
-38.3032181774
 10
38.2838971755
 20
-38.2525487384
 10
38.2748738656
 20
-38.199916134
 10
38.2656957501
 20
-38.1452962555
 10
38.2563392456
 20
-38.0883933547
 10
38.2468062707
 20
-38.0292104428
 10
38.2371004672
 20
-37.967743687
 10
38.227201536
 20
-37.9036869583
 10
38.2171138744
 20
-37.8370540479
 10
38.2068400482
 20
-37.7678302267
 10
38.1963578478
 20
-37.6956664649
 10
38.1856798263
 20
-37.6206328502
 10
38.1748021396
 20
-37.5426582366
 10
38.1636793713
 20
-37.4611815489
 10
38.1523111886
 20
-37.3761694919
 10
38.1407098276
 20
-37.2876540203
 10
38.1288504655
 20
-37.1951717179
 10
38.1167226978
 20
-37.0985749831
 10
38.1043522265
 20
-36.9980098962
 10
38.0917690874
 20
-36.8934535445
 10
38.0790052108
 20
-36.7851023537
 10
38.0660449305
 20
-36.6727586325
 10
38.0528482052
 20
-36.5558082241
 10
38.0394313049
 20
-36.4343142688
 10
38.0257996014
 20
-36.3082121306
 10
38.0119004803
 20
-36.1766956675
 10
37.9977585803
 20
-36.0398819621
 10
37.9833783319
 20
-35.8976521979
 10
37.9686828608
 20
-35.7488459262
 10
37.9536855854
 20
-35.593403802
 10
37.9384145784
 20
-35.4313830408
 10
37.9228226434
 20
-35.2617975703
 10
37.9069448521
 20
-35.0847360087
 10
37.8908012989
 20
-34.9001075731
 10
37.8743320917
 20
-34.7066566635
 10
37.8575267473
 20
-34.5037654189
 10
37.8404738247
 20
-34.2920494414
 10
37.8232667271
 20
-34.0721034037
 10
37.8058920272
 20
-33.8431079796
 10
37.7884493121
 20
-33.6058815859
 10
37.7711856474
 20
-33.3634766647
 10
37.7541308326
 20
-33.1157955295
 10
37.7373164783
 20
-32.8629374725
 10
37.7209602032
 20
-32.6082518499
 10
37.7051266385
 20
-32.3525398445
 10
37.6897760976
 20
-32.0950035586
 10
37.6749489708
 20
-31.8365943675
 10
37.6606564328
 20
-31.5773301523
 10
37.6469086898
 20
-31.3171963998
 10
37.633738412
 20
-31.0570959598
 10
37.6211525654
 20
-30.7970441589
 10
37.609158012
 20
-30.5370290061
 10
37.5977806801
 20
-30.2779123427
 10
37.5870266835
 20
-30.0197943506
 10
37.576894954
 20
-29.7625779538
 10
37.5673954074
 20
-29.506828999
 10
37.5585278748
 20
-29.2525578979
 10
37.5502925791
 20
-28.9997569927
 10
37.5426961116
 20
-28.7489648749
 10
37.5357359479
 20
-28.5002118977
 10
37.5294086596
 20
-28.2534700296
 10
37.5237155115
 20
-28.0091901043
 10
37.5186516281
 20
-27.7674227773
 10
37.5142104137
 20
-27.5281192364
 10
37.5103875083
 20
-27.2915809324
 10
37.5071754824
 20
-27.0578229075
 10
37.5045666803
 20
-26.8268315073
 10
37.5025540689
 20
-26.598864967
 10
37.5011286436
 20
-26.374009659
 10
37.5002805182
 20
-26.1521801387
 10
37.5
 20
-25.933376786
  0
LINE
  5
36A
100
AcDbEntity
  8
RACCORDO
100
AcDbLine
 62
250
  6
CONTINUOUS
 10
-36.5300527583
 20
23.4530013838
 11
-36.4975135083
 21
23.4541920131
  0
LINE
  5
36B
100
AcDbEntity
  8
RACCORDO
100
AcDbLine
 62
250
  6
CONTINUOUS
 10
-36.4975135083
 20
23.4541920131
 11
-36.4648242694
 21
23.4552010021
  0
LINE
  5
36C
100
AcDbEntity
  8
RACCORDO
100
AcDbLine
 62
250
  6
CONTINUOUS
 10
-36.4648242694
 20
23.4552010021
 11
-36.4320098652
 21
23.4560275844
  0
LINE
  5
36D
100
AcDbEntity
  8
RACCORDO
100
AcDbLine
 62
250
  6
CONTINUOUS
 10
-36.4320098652
 20
23.4560275844
 11
-36.3990952146
 21
23.4566711324
  0
LINE
  5
36E
100
AcDbEntity
  8
RACCORDO
100
AcDbLine
 62
250
  6
CONTINUOUS
 10
-36.3990952146
 20
23.4566711324
 11
-36.3661053124
 21
23.4571311574
  0
LINE
  5
36F
100
AcDbEntity
  8
RACCORDO
100
AcDbLine
 62
250
  6
CONTINUOUS
 10
-36.3661053124
 20
23.4571311574
 11
-36.3330652108
 21
23.45740731
  0
LINE
  5
370
100
AcDbEntity
  8
RACCORDO
100
AcDbLine
 62
250
  6
CONTINUOUS
 10
-36.3330652108
 20
23.45740731
 11
-36.3
 21
23.4574993804
  0
LINE
  5
371
100
AcDbEntity
  8
RACCORDO
100
AcDbLine
 62
7
  6
CONTINUOUS
 10
37.3
 20
22.5
 11
-37.3
 21
22.5
  0
LINE
  5
372
100
AcDbEntity
  8
RACCORDO
100
AcDbLine
 62
250
  6
CONTINUOUS
 10
36.316534175
 20
23.4574763636
 11
-36.3
 21
23.4574993804
  0
LINE
  5
373
100
AcDbEntity
  8
RACCORDO
100
AcDbLine
 62
250
  6
CONTINUOUS
 10
36.3495899691
 20
23.4572922358
 11
36.316534175
 21
23.4574763636
  0
LINE
  5
374
100
AcDbEntity
  8
RACCORDO
100
AcDbLine
 62
250
  6
CONTINUOUS
 10
36.3826081053
 20
23.4569241136
 11
36.3495899691
 21
23.4572922358
  0
LINE
  5
375
100
AcDbEntity
  8
RACCORDO
100
AcDbLine
 62
250
  6
CONTINUOUS
 10
36.4155635101
 20
23.4563722764
 11
36.3826081053
 21
23.4569241136
  0
LINE
  5
376
100
AcDbEntity
  8
RACCORDO
100
AcDbLine
 62
250
  6
CONTINUOUS
 10
36.4484311575
 20
23.4556371434
 11
36.4155635101
 21
23.4563722764
  0
LINE
  5
377
100
AcDbEntity
  8
RACCORDO
100
AcDbLine
 62
250
  6
CONTINUOUS
 10
36.4811860885
 20
23.4547192729
 11
36.4484311575
 21
23.4556371434
  0
LWPOLYLINE
  5
378
100
AcDbEntity
  8
RACCORDO
100
AcDbPolyline
 62
250
  6
CONTINUOUS
 90
3
 70
0
 10
36.5300527583
 20
23.4530013965
 10
36.5138034292
 20
23.4536193617
 10
36.4811860885
 20
23.4547192729
  0
LINE
  5
379
100
AcDbEntity
  8
RACCORDO
100
AcDbLine
 62
250
  6
CONTINUOUS
 10
-37.0370552553
 20
23.4063658566
 11
-37.0106823033
 21
23.4103973322
  0
LINE
  5
37A
100
AcDbEntity
  8
RACCORDO
100
AcDbLine
 62
250
  6
CONTINUOUS
 10
-37.0106823033
 20
23.4103973322
 11
-36.9837696691
 21
23.414280425
  0
LINE
  5
37B
100
AcDbEntity
  8
RACCORDO
100
AcDbLine
 62
250
  6
CONTINUOUS
 10
-36.9837696691
 20
23.414280425
 11
-36.9563377898
 21
23.418012186
  0
LINE
  5
37C
100
AcDbEntity
  8
RACCORDO
100
AcDbLine
 62
250
  6
CONTINUOUS
 10
-36.9563377898
 20
23.418012186
 11
-36.9284074968
 21
23.4215897814
  0
LINE
  5
37D
100
AcDbEntity
  8
RACCORDO
100
AcDbLine
 62
250
  6
CONTINUOUS
 10
-36.9284074968
 20
23.4215897814
 11
-36.9000000001
 21
23.4250104945
  0
LINE
  5
37E
100
AcDbEntity
  8
RACCORDO
100
AcDbLine
 62
250
  6
CONTINUOUS
 10
-36.9000000001
 20
23.4250104945
 11
-36.8711368717
 21
23.4282717275
  0
LINE
  5
37F
100
AcDbEntity
  8
RACCORDO
100
AcDbLine
 62
250
  6
CONTINUOUS
 10
-36.8711368717
 20
23.4282717275
 11
-36.84184003
 21
23.4313710039
  0
LINE
  5
380
100
AcDbEntity
  8
RACCORDO
100
AcDbLine
 62
250
  6
CONTINUOUS
 10
-36.9142620586
 20
26.1109711472
 11
-36.8856240275
 21
26.1138196064
  0
LINE
  5
381
100
AcDbEntity
  8
RACCORDO
100
AcDbLine
 62
250
  6
CONTINUOUS
 10
-36.84184003
 20
23.4313710039
 11
-36.8121317226
 21
23.4343059701
  0
LINE
  5
382
100
AcDbEntity
  8
RACCORDO
100
AcDbLine
 62
250
  6
CONTINUOUS
 10
-36.8856240275
 20
26.1138196064
 11
-36.8565412818
 21
26.11653104
  0
LINE
  5
383
100
AcDbEntity
  8
RACCORDO
100
AcDbLine
 62
250
  6
CONTINUOUS
 10
-36.8121317226
 20
23.4343059701
 11
-36.7820345096
 21
23.4370743973
  0
LINE
  5
384
100
AcDbEntity
  8
RACCORDO
100
AcDbLine
 62
250
  6
CONTINUOUS
 10
-36.8565412818
 20
26.11653104
 11
-36.8270359064
 21
26.1191033887
  0
LINE
  5
385
100
AcDbEntity
  8
RACCORDO
100
AcDbLine
 62
250
  6
CONTINUOUS
 10
-36.7820345096
 20
23.4370743973
 11
-36.7515712464
 21
23.4396741833
  0
LINE
  5
386
100
AcDbEntity
  8
RACCORDO
100
AcDbLine
 62
250
  6
CONTINUOUS
 10
-36.8270359064
 20
26.1191033887
 11
-36.7971303073
 21
26.1215346993
  0
LINE
  5
387
100
AcDbEntity
  8
RACCORDO
100
AcDbLine
 62
250
  6
CONTINUOUS
 10
-36.7515712464
 20
23.4396741833
 11
-36.7207650663
 21
23.4421033537
  0
LINE
  5
388
100
AcDbEntity
  8
RACCORDO
100
AcDbLine
 62
250
  6
CONTINUOUS
 10
-36.7971303073
 20
26.1215346993
 11
-36.7668471945
 21
26.1238231254
  0
LINE
  5
389
100
AcDbEntity
  8
RACCORDO
100
AcDbLine
 62
250
  6
CONTINUOUS
 10
-36.7207650663
 20
23.4421033537
 11
-36.6896393631
 21
23.4443600638
  0
LINE
  5
38A
100
AcDbEntity
  8
RACCORDO
100
AcDbLine
 62
250
  6
CONTINUOUS
 10
-36.7668471945
 20
26.1238231254
 11
-36.7362095645
 21
26.1259669293
  0
LINE
  5
38B
100
AcDbEntity
  8
RACCORDO
100
AcDbLine
 62
250
  6
CONTINUOUS
 10
-36.6896393631
 20
23.4443600638
 11
-36.6582177732
 21
23.4464426
  0
LINE
  5
38C
100
AcDbEntity
  8
RACCORDO
100
AcDbLine
 62
250
  6
CONTINUOUS
 10
-36.7362095645
 20
26.1259669293
 11
-36.705240683
 21
26.1279644829
  0
LINE
  5
38D
100
AcDbEntity
  8
RACCORDO
100
AcDbLine
 62
250
  6
CONTINUOUS
 10
-36.6582177732
 20
23.4464426
 11
-36.6265241578
 21
23.4483493807
  0
LINE
  5
38E
100
AcDbEntity
  8
RACCORDO
100
AcDbLine
 62
250
  6
CONTINUOUS
 10
-36.705240683
 20
26.1279644829
 11
-36.6739640675
 21
26.1298142693
  0
LINE
  5
38F
100
AcDbEntity
  8
RACCORDO
100
AcDbLine
 62
250
  6
CONTINUOUS
 10
-36.6265241578
 20
23.4483493807
 11
-36.5945825846
 21
23.4500789579
  0
LINE
  5
390
100
AcDbEntity
  8
RACCORDO
100
AcDbLine
 62
250
  6
CONTINUOUS
 10
-36.6739640675
 20
26.1298142693
 11
-36.6424034689
 21
26.1315148838
  0
LINE
  5
391
100
AcDbEntity
  8
RACCORDO
100
AcDbLine
 62
250
  6
CONTINUOUS
 10
-36.6424034689
 20
26.1315148838
 11
-36.610582854
 21
26.1330650351
  0
LINE
  5
392
100
AcDbEntity
  8
RACCORDO
100
AcDbLine
 62
250
  6
CONTINUOUS
 10
-36.5945825846
 20
23.4500789579
 11
-36.5624173095
 21
23.4516300182
  0
LINE
  5
393
100
AcDbEntity
  8
RACCORDO
100
AcDbLine
 62
250
  6
CONTINUOUS
 10
-36.610582854
 20
26.1330650351
 11
-36.5785263867
 21
26.1344635459
  0
LINE
  5
394
100
AcDbEntity
  8
RACCORDO
100
AcDbLine
 62
250
  6
CONTINUOUS
 10
-36.5624173095
 20
23.4516300182
 11
-36.5300527583
 21
23.4530013838
  0
LINE
  5
395
100
AcDbEntity
  8
RACCORDO
100
AcDbLine
 62
250
  6
CONTINUOUS
 10
-36.5785263867
 20
26.1344635459
 11
-36.5462584105
 21
26.1357093543
  0
LINE
  5
396
100
AcDbEntity
  8
RACCORDO
100
AcDbLine
 62
250
  6
CONTINUOUS
 10
-36.5462584105
 20
26.1357093543
 11
-36.5138034291
 21
26.1368015141
  0
LINE
  5
397
100
AcDbEntity
  8
RACCORDO
100
AcDbLine
 62
250
  6
CONTINUOUS
 10
-36.5138034291
 20
26.1368015141
 11
-36.4811860884
 21
26.1377391961
  0
LINE
  5
398
100
AcDbEntity
  8
RACCORDO
100
AcDbLine
 62
250
  6
CONTINUOUS
 10
-36.4811860884
 20
26.1377391961
 11
-36.4484311574
 21
26.1385216881
  0
LINE
  5
399
100
AcDbEntity
  8
RACCORDO
100
AcDbLine
 62
250
  6
CONTINUOUS
 10
-36.4484311574
 20
26.1385216881
 11
-36.41556351
 21
26.139148396
  0
LINE
  5
39A
100
AcDbEntity
  8
RACCORDO
100
AcDbLine
 62
250
  6
CONTINUOUS
 10
-36.41556351
 20
26.139148396
 11
-36.3826081053
 21
26.1396188438
  0
LINE
  5
39B
100
AcDbEntity
  8
RACCORDO
100
AcDbLine
 62
250
  6
CONTINUOUS
 10
-36.3826081053
 20
26.1396188438
 11
-36.3495899691
 21
26.1399326743
  0
LWPOLYLINE
  5
39C
100
AcDbEntity
  8
RACCORDO
100
AcDbPolyline
 62
250
  6
CONTINUOUS
 90
3
 70
0
 10
-36.3495899691
 20
26.1399326743
 10
-36.316534175
 20
26.1400896491
 10
-36.3
 20
26.1401092738
  0
LINE
  5
39D
100
AcDbEntity
  8
RACCORDO
100
AcDbLine
 62
250
  6
CONTINUOUS
 10
36.3330652107
 20
26.1400307789
 11
36.3
 21
26.1401092738
  0
LINE
  5
39E
100
AcDbEntity
  8
RACCORDO
100
AcDbLine
 62
250
  6
CONTINUOUS
 10
36.3661053121
 20
26.1397953539
 11
36.3330652107
 21
26.1400307789
  0
LINE
  5
39F
100
AcDbEntity
  8
RACCORDO
100
AcDbLine
 62
250
  6
CONTINUOUS
 10
36.3990952141
 20
26.1394031776
 11
36.3661053121
 21
26.1397953539
  0
LINE
  5
3A0
100
AcDbEntity
  8
RACCORDO
100
AcDbLine
 62
250
  6
CONTINUOUS
 10
36.4320098646
 20
26.1388545476
 11
36.3990952141
 21
26.1394031776
  0
LINE
  5
3A1
100
AcDbEntity
  8
RACCORDO
100
AcDbLine
 62
250
  6
CONTINUOUS
 10
36.4648242687
 20
26.1381498808
 11
36.4320098646
 21
26.1388545476
  0
LINE
  5
3A2
100
AcDbEntity
  8
RACCORDO
100
AcDbLine
 62
250
  6
CONTINUOUS
 10
36.4975135075
 20
26.1372897122
 11
36.4648242687
 21
26.1381498808
  0
LINE
  5
3A3
100
AcDbEntity
  8
RACCORDO
100
AcDbLine
 62
250
  6
CONTINUOUS
 10
36.5300527574
 20
26.1362746949
 11
36.4975135075
 21
26.1372897122
  0
LINE
  5
3A4
100
AcDbEntity
  8
RACCORDO
100
AcDbLine
 62
250
  6
CONTINUOUS
 10
36.5624173084
 20
26.1351055998
 11
36.5300527574
 21
26.1362746949
  0
LINE
  5
3A5
100
AcDbEntity
  8
RACCORDO
100
AcDbLine
 62
250
  6
CONTINUOUS
 10
36.5945825834
 20
26.1337833147
 11
36.5624173084
 21
26.1351055998
  0
LINE
  5
3A6
100
AcDbEntity
  8
RACCORDO
100
AcDbLine
 62
250
  6
CONTINUOUS
 10
36.5624173095
 20
23.4516300337
 11
36.5300527583
 21
23.4530013965
  0
LINE
  5
3A7
100
AcDbEntity
  8
RACCORDO
100
AcDbLine
 62
250
  6
CONTINUOUS
 10
36.6265241566
 20
26.1323088437
 11
36.5945825834
 21
26.1337833147
  0
LINE
  5
3A8
100
AcDbEntity
  8
RACCORDO
100
AcDbLine
 62
250
  6
CONTINUOUS
 10
36.5945825846
 20
23.4500789762
 11
36.5624173095
 21
23.4516300337
  0
LINE
  5
3A9
100
AcDbEntity
  8
RACCORDO
100
AcDbLine
 62
250
  6
CONTINUOUS
 10
36.6582177719
 20
26.1306833065
 11
36.6265241566
 21
26.1323088437
  0
LINE
  5
3AA
100
AcDbEntity
  8
RACCORDO
100
AcDbLine
 62
250
  6
CONTINUOUS
 10
36.6265241579
 20
23.448349402
 11
36.5945825846
 21
23.4500789762
  0
LINE
  5
3AB
100
AcDbEntity
  8
RACCORDO
100
AcDbLine
 62
250
  6
CONTINUOUS
 10
36.6896393617
 20
26.1289079375
 11
36.6582177719
 21
26.1306833065
  0
LINE
  5
3AC
100
AcDbEntity
  8
RACCORDO
100
AcDbLine
 62
250
  6
CONTINUOUS
 10
36.6582177732
 20
23.4464426244
 11
36.6265241579
 21
23.448349402
  0
LINE
  5
3AD
100
AcDbEntity
  8
RACCORDO
100
AcDbLine
 62
250
  6
CONTINUOUS
 10
36.7207650648
 20
26.1269840849
 11
36.6896393617
 21
26.1289079375
  0
LINE
  5
3AE
100
AcDbEntity
  8
RACCORDO
100
AcDbLine
 62
250
  6
CONTINUOUS
 10
36.6896393631
 20
23.4443600916
 11
36.6582177732
 21
23.4464426244
  0
LINE
  5
3AF
100
AcDbEntity
  8
RACCORDO
100
AcDbLine
 62
250
  6
CONTINUOUS
 10
36.7515712448
 20
26.1249132096
 11
36.7207650648
 21
26.1269840849
  0
LINE
  5
3B0
100
AcDbEntity
  8
RACCORDO
100
AcDbLine
 62
250
  6
CONTINUOUS
 10
36.7207650663
 20
23.4421033849
 11
36.6896393631
 21
23.4443600916
  0
LINE
  5
3B1
100
AcDbEntity
  8
RACCORDO
100
AcDbLine
 62
250
  6
CONTINUOUS
 10
36.782034508
 20
26.1226968842
 11
36.7515712448
 21
26.1249132096
  0
LINE
  5
3B2
100
AcDbEntity
  8
RACCORDO
100
AcDbLine
 62
250
  6
CONTINUOUS
 10
36.812131721
 20
26.1203367918
 11
36.782034508
 21
26.1226968842
  0
LINE
  5
3B3
100
AcDbEntity
  8
RACCORDO
100
AcDbLine
 62
250
  6
CONTINUOUS
 10
36.7515712464
 20
23.439674218
 11
36.7207650663
 21
23.4421033849
  0
LINE
  5
3B4
100
AcDbEntity
  8
RACCORDO
100
AcDbLine
 62
250
  6
CONTINUOUS
 10
36.8418400284
 20
26.1178347247
 11
36.812131721
 21
26.1203367918
  0
LINE
  5
3B5
100
AcDbEntity
  8
RACCORDO
100
AcDbLine
 62
250
  6
CONTINUOUS
 10
36.7820345096
 20
23.4370744358
 11
36.7515712464
 21
23.439674218
  0
LINE
  5
3B6
100
AcDbEntity
  8
RACCORDO
100
AcDbLine
 62
250
  6
CONTINUOUS
 10
36.87113687
 20
26.1151925827
 11
36.8418400284
 21
26.1178347247
  0
LINE
  5
3B7
100
AcDbEntity
  8
RACCORDO
100
AcDbLine
 62
250
  6
CONTINUOUS
 10
36.8121317226
 20
23.4343060124
 11
36.7820345096
 21
23.4370744358
  0
LINE
  5
3B8
100
AcDbEntity
  8
RACCORDO
100
AcDbLine
 62
250
  6
CONTINUOUS
 10
36.84184003
 20
23.4313710502
 11
36.8121317226
 21
23.4343060124
  0
LWPOLYLINE
  5
3B9
100
AcDbEntity
  8
RACCORDO
100
AcDbPolyline
 62
250
  6
CONTINUOUS
 90
3
 70
0
 10
36.9142620572
 20
26.1109711473
 10
36.8999999983
 20
26.1124123724
 10
36.87113687
 20
26.1151925827
  0
LINE
  5
3BA
100
AcDbEntity
  8
RACCORDO
100
AcDbLine
 62
250
  6
CONTINUOUS
 10
36.8711368717
 20
23.4282717779
 11
36.84184003
 21
23.4313710502
  0
LINE
  5
3BB
100
AcDbEntity
  8
RACCORDO
100
AcDbLine
 62
250
  6
CONTINUOUS
 10
36.9000000001
 20
23.4250105492
 11
36.8711368717
 21
23.4282717779
  0
LINE
  5
3BC
100
AcDbEntity
  8
RACCORDO
100
AcDbLine
 62
250
  6
CONTINUOUS
 10
36.9284074968
 20
23.4215898405
 11
36.9000000001
 21
23.4250105492
  0
LINE
  5
3BD
100
AcDbEntity
  8
RACCORDO
100
AcDbLine
 62
250
  6
CONTINUOUS
 10
36.9563377898
 20
23.4180122497
 11
36.9284074968
 21
23.4215898405
  0
LINE
  5
3BE
100
AcDbEntity
  8
RACCORDO
100
AcDbLine
 62
250
  6
CONTINUOUS
 10
36.9837696691
 20
23.4142804934
 11
36.9563377898
 21
23.4180122497
  0
LINE
  5
3BF
100
AcDbEntity
  8
RACCORDO
100
AcDbLine
 62
250
  6
CONTINUOUS
 10
37.0106823033
 20
23.4103974056
 11
36.9837696691
 21
23.4142804934
  0
LINE
  5
3C0
100
AcDbEntity
  8
RACCORDO
100
AcDbLine
 62
250
  6
CONTINUOUS
 10
-37.1248253222
 20
26.0835311732
 11
-37.1004961464
 21
26.0873895911
  0
LINE
  5
3C1
100
AcDbEntity
  8
RACCORDO
100
AcDbLine
 62
250
  6
CONTINUOUS
 10
-37.1004961464
 20
26.0873895911
 11
-37.0755590852
 21
26.0911310539
  0
LINE
  5
3C2
100
AcDbEntity
  8
RACCORDO
100
AcDbLine
 62
250
  6
CONTINUOUS
 10
-37.0755590852
 20
26.0911310539
 11
-37.0500330752
 21
26.0947527203
  0
LINE
  5
3C3
100
AcDbEntity
  8
RACCORDO
100
AcDbLine
 62
250
  6
CONTINUOUS
 10
-37.0500330752
 20
26.0947527203
 11
-37.0239375007
 21
26.0982518401
  0
LINE
  5
3C4
100
AcDbEntity
  8
RACCORDO
100
AcDbLine
 62
250
  6
CONTINUOUS
 10
-37.0239375007
 20
26.0982518401
 11
-36.9972921782
 21
26.1016257561
  0
LINE
  5
3C5
100
AcDbEntity
  8
RACCORDO
100
AcDbLine
 62
250
  6
CONTINUOUS
 10
-36.9972921782
 20
26.1016257561
 11
-36.9701173418
 21
26.1048719062
  0
LINE
  5
3C6
100
AcDbEntity
  8
RACCORDO
100
AcDbLine
 62
250
  6
CONTINUOUS
 10
-36.9701173418
 20
26.1048719062
 11
-36.9424336278
 21
26.1079878253
  0
LINE
  5
3C7
100
AcDbEntity
  8
RACCORDO
100
AcDbLine
 62
250
  6
CONTINUOUS
 10
-36.9424336278
 20
26.1079878253
 11
-36.9142620586
 21
26.1109711472
  0
LINE
  5
3C8
100
AcDbEntity
  8
RACCORDO
100
AcDbLine
 62
250
  6
CONTINUOUS
 10
36.9424336264
 20
26.1079878254
 11
36.9142620572
 21
26.1109711473
  0
LINE
  5
3C9
100
AcDbEntity
  8
RACCORDO
100
AcDbLine
 62
250
  6
CONTINUOUS
 10
36.9701173405
 20
26.1048719063
 11
36.9424336264
 21
26.1079878254
  0
LINE
  5
3CA
100
AcDbEntity
  8
RACCORDO
100
AcDbLine
 62
250
  6
CONTINUOUS
 10
36.9972921768
 20
26.1016257563
 11
36.9701173405
 21
26.1048719063
  0
LINE
  5
3CB
100
AcDbEntity
  8
RACCORDO
100
AcDbLine
 62
250
  6
CONTINUOUS
 10
37.0239374993
 20
26.0982518403
 11
36.9972921768
 21
26.1016257563
  0
LINE
  5
3CC
100
AcDbEntity
  8
RACCORDO
100
AcDbLine
 62
250
  6
CONTINUOUS
 10
37.0500330739
 20
26.0947527205
 11
37.0239374993
 21
26.0982518403
  0
LINE
  5
3CD
100
AcDbEntity
  8
RACCORDO
100
AcDbLine
 62
250
  6
CONTINUOUS
 10
37.0755590839
 20
26.0911310541
 11
37.0500330739
 21
26.0947527205
  0
LINE
  5
3CE
100
AcDbEntity
  8
RACCORDO
100
AcDbLine
 62
250
  6
CONTINUOUS
 10
37.1004961452
 20
26.0873895913
 11
37.0755590839
 21
26.0911310541
  0
LINE
  5
3CF
100
AcDbEntity
  8
0
100
AcDbLine
 62
7
  6
CONTINUOUS
 10
54.087269
 20
-34.900063
 11
53.526058
 21
-33.81738
  0
LINE
  5
3D0
100
AcDbEntity
  8
0
100
AcDbLine
 62
7
  6
CONTINUOUS
 10
54.718046
 20
-34.900056
 11
54.1219317907
 21
-33.7500306669
  0
LINE
  5
3D1
100
AcDbEntity
  8
0
100
AcDbLine
 62
7
  6
CONTINUOUS
 10
43.680978
 20
-34.900077
 11
42.781954
 21
-32.099944
  0
LINE
  5
3D2
100
AcDbEntity
  8
0
100
AcDbLine
 62
7
  6
CONTINUOUS
 10
43.961006
 20
-34.027982
 11
43.341982
 21
-32.099944
  0
LINE
  5
3D3
100
AcDbEntity
  8
RACCORDO
100
AcDbLine
 62
7
  6
CONTINUOUS
 10
37.498516837
 20
22.3046554118
 11
37.4990341932
 21
22.2984605997
  0
LWPOLYLINE
  5
3D4
100
AcDbEntity
  8
RACCORDO
100
AcDbPolyline
 62
250
  6
CONTINUOUS
 90
61
 70
0
 10
37.5
 20
25.9333767861
 10
37.4998860867
 20
25.9362252454
 10
37.4995443684
 20
25.9390731639
 10
37.4989749101
 20
25.9419200009
 10
37.4981778197
 20
25.9447652159
 10
37.4971532487
 20
25.9476082688
 10
37.4959013916
 20
25.9504486197
 10
37.494422486
 20
25.9532857295
 10
37.4927168127
 20
25.9561190594
 10
37.4907846956
 20
25.9589480716
 10
37.4886265015
 20
25.9617722289
 10
37.4862426401
 20
25.9645909952
 10
37.483633564
 20
25.9674038353
 10
37.4807997685
 20
25.9702102152
 10
37.4777417918
 20
25.9730096021
 10
37.4744602142
 20
25.9758014645
 10
37.470955659
 20
25.9785852723
 10
37.4672287913
 20
25.981360497
 10
37.4632803189
 20
25.9841266117
 10
37.4591109913
 20
25.9868830913
 10
37.4547216001
 20
25.9896294125
 10
37.4501129787
 20
25.9923650538
 10
37.4452860019
 20
25.9950894958
 10
37.4402415864
 20
25.9978022213
 10
37.4349806897
 20
26.0005027153
 10
37.4295043106
 20
26.0031904651
 10
37.423813489
 20
26.0058649604
 10
37.4179093052
 20
26.0085256934
 10
37.4117928802
 20
26.0111721589
 10
37.4054653751
 20
26.0138038546
 10
37.3989279914
 20
26.0164202808
 10
37.3921819702
 20
26.0190209407
 10
37.3852285922
 20
26.0216053406
 10
37.3780691776
 20
26.0241729898
 10
37.3707050856
 20
26.0267234008
 10
37.3631377144
 20
26.0292560895
 10
37.3553685007
 20
26.0317705749
 10
37.3473989194
 20
26.0342663798
 10
37.3392304837
 20
26.0367430302
 10
37.3308647444
 20
26.039200056
 10
37.3223032897
 20
26.0416369906
 10
37.3135477451
 20
26.0440533715
 10
37.3045997729
 20
26.0464487398
 10
37.295461072
 20
26.0488226407
 10
37.2861333772
 20
26.0511746236
 10
37.2766184596
 20
26.053504242
 10
37.2669181257
 20
26.0558110535
 10
37.257034217
 20
26.0580946202
 10
37.2469686101
 20
26.0603545085
 10
37.236723216
 20
26.0625902893
 10
37.2262999798
 20
26.0648015383
 10
37.2157008806
 20
26.0669878356
 10
37.2049279304
 20
26.0691487661
 10
37.1939831747
 20
26.0712839196
 10
37.1828686914
 20
26.0733928906
 10
37.1715865907
 20
26.0754752787
 10
37.1601390144
 20
26.0775306887
 10
37.148528136
 20
26.0795587303
 10
37.1367561598
 20
26.0815590185
 10
37.1248253209
 20
26.0835311734
 10
37.1004961452
 20
26.0873895913
  0
LWPOLYLINE
  5
3D5
100
AcDbEntity
  8
RACCORDO
100
AcDbPolyline
 62
250
  6
CONTINUOUS
 90
68
 70
0
 10
37.5
 20
23.2149987608
 10
37.4998860867
 20
23.2183401232
 10
37.4995443684
 20
23.2216808345
 10
37.4989749101
 20
23.2250202605
 10
37.4981778197
 20
23.228357762
 10
37.4971532488
 20
23.2316927106
 10
37.4959013916
 20
23.2350244891
 10
37.4944224861
 20
23.2383524702
 10
37.4927168128
 20
23.2416760168
 10
37.4907846957
 20
23.2449944983
 10
37.4886265016
 20
23.2483072846
 10
37.4862426402
 20
23.2516137467
 10
37.4836335641
 20
23.254913257
 10
37.4807997687
 20
23.258205189
 10
37.477741792
 20
23.2614889177
 10
37.4744602145
 20
23.2647638197
 10
37.4709556592
 20
23.2680292732
 10
37.4672287916
 20
23.2712846583
 10
37.4632803192
 20
23.274529357
 10
37.4591109916
 20
23.2777627533
 10
37.4547216004
 20
23.2809842333
 10
37.450112979
 20
23.2841931855
 10
37.4452860023
 20
23.2873890006
 10
37.4402415868
 20
23.2905710719
 10
37.4349806901
 20
23.2937387952
 10
37.4295043111
 20
23.2968915691
 10
37.4238134895
 20
23.300028795
 10
37.4179093057
 20
23.3031498774
 10
37.4117928807
 20
23.3062542236
 10
37.4054653757
 20
23.3093412443
 10
37.3989279921
 20
23.3124103534
 10
37.3921819709
 20
23.3154609683
 10
37.3852285929
 20
23.3184925098
 10
37.3780691784
 20
23.3215044023
 10
37.3707050864
 20
23.3244960741
 10
37.3631377153
 20
23.3274669572
 10
37.3553685015
 20
23.3304164875
 10
37.3473989203
 20
23.3333441051
 10
37.3392304846
 20
23.3362492542
 10
37.3308647453
 20
23.3391313832
 10
37.3223032907
 20
23.341989945
 10
37.3135477461
 20
23.3448243968
 10
37.304599774
 20
23.3476342006
 10
37.295461073
 20
23.3504188228
 10
37.2861333783
 20
23.3531777348
 10
37.2766184608
 20
23.3559104128
 10
37.2669181269
 20
23.358616338
 10
37.2570342182
 20
23.3612949967
 10
37.2469686114
 20
23.3639458802
 10
37.2367232173
 20
23.3665684854
 10
37.2262999812
 20
23.3691623143
 10
37.2157008819
 20
23.3717268744
 10
37.2049279318
 20
23.3742616789
 10
37.1939831762
 20
23.3767662465
 10
37.1828686929
 20
23.3792401017
 10
37.1715865921
 20
23.3816827748
 10
37.1601390159
 20
23.3840938021
 10
37.1485281375
 20
23.3864727259
 10
37.1367561614
 20
23.3888190944
 10
37.1248253225
 20
23.3911324623
 10
37.112737886
 20
23.3934123902
 10
37.1004961468
 20
23.3956584455
 10
37.0881024289
 20
23.3978702015
 10
37.0755590855
 20
23.4000472384
 10
37.0628684979
 20
23.402189143
 10
37.0500330755
 20
23.4042955084
 10
37.0370552553
 20
23.4063659349
 10
37.0106823033
 20
23.4103974056
  0
LINE
  5
3D6
100
AcDbEntity
  8
RACCORDO
100
AcDbLine
 62
250
  6
CONTINUOUS
 10
36.3
 20
-26.1401092737
 11
36.3
 21
-23.4574993802
  0
LINE
  5
3D7
100
AcDbEntity
  8
RACCORDO
100
AcDbLine
 62
250
  6
CONTINUOUS
 10
36.3
 20
23.4574993804
 11
36.3
 21
26.1401092738
  0
LINE
  5
3D8
100
AcDbEntity
  8
RACCORDO
100
AcDbLine
 62
7
  6
CONTINUOUS
 10
37.5
 20
-25.9333767849
 11
37.5
 21
25.9333767851
  0
LINE
  5
3D9
100
AcDbEntity
  8
RACCORDO
100
AcDbLine
 62
250
  6
CONTINUOUS
 10
38.7
 20
-39.6057773315
 11
38.7
 21
39.6057773315
  0
LWPOLYLINE
  5
3DA
100
AcDbEntity
  8
RACCORDO
100
AcDbPolyline
 62
250
  6
CONTINUOUS
 90
112
 70
0
 10
37.5
 20
25.9333767861
 10
37.5002791963
 20
26.1516615592
 10
37.5011233125
 20
26.3729590207
 10
37.5025419771
 20
26.5972687937
 10
37.5045450119
 20
26.8246757721
 10
37.5071413635
 20
27.0550941419
 10
37.5103380217
 20
27.2882673357
 10
37.5141425898
 20
27.5242085407
 10
37.5185624569
 20
27.7629031938
 10
37.5236019826
 20
28.0040529328
 10
37.529267734
 20
28.2477062864
 10
37.5355645699
 20
28.4938128989
 10
37.5424912777
 20
28.7419259026
 10
37.5500512904
 20
28.9920731915
 10
37.5582471402
 20
29.2442245705
 10
37.5670723307
 20
29.4978458576
 10
37.5765266547
 20
29.752944082
 10
37.5866103311
 20
30.0095094848
 10
37.5973136386
 20
30.2669825517
 10
37.6086376956
 20
30.5254600094
 10
37.620576475
 20
30.7848420517
 10
37.6331043591
 20
31.0442742572
 10
37.6462145486
 20
31.303767702
 10
37.659900228
 20
31.563308
 10
37.6741292493
 20
31.8220025042
 10
37.6888914651
 20
32.0798641801
 10
37.7041759493
 20
32.3368767162
 10
37.7199432406
 20
32.5921036116
 10
37.7362267618
 20
32.846248692
 10
37.7529681992
 20
33.0986048723
 10
37.7699716533
 20
33.3461198583
 10
37.787213017
 20
33.588778938
 10
37.8046590642
 20
33.8265950577
 10
37.8220700467
 20
34.056558759
 10
37.8393603978
 20
34.2780023133
 10
37.8565334836
 20
34.4915940895
 10
37.8734652015
 20
34.6963300116
 10
37.8900571014
 20
34.8914760428
 10
37.9063282409
 20
35.0777684777
 10
37.9223334104
 20
35.2564089442
 10
37.9380497953
 20
35.427463627
 10
37.9534438756
 20
35.5908685358
 10
37.9685641245
 20
35.7476296198
 10
37.9833824329
 20
35.8976932366
 10
37.9978846938
 20
36.041115181
 10
38.012148262
 20
36.1790650841
 10
38.0261683861
 20
36.3116613818
 10
38.0399202365
 20
36.4387873942
 10
38.0534572183
 20
36.5612596117
 10
38.0667745059
 20
36.6791488856
 10
38.0798549417
 20
36.7923858768
 10
38.0927372449
 20
36.9015764677
 10
38.1054366868
 20
37.0069154877
 10
38.117921399
 20
37.1082093987
 10
38.1301606919
 20
37.2054814681
 10
38.1421272657
 20
37.2985751895
 10
38.1538328103
 20
37.3876486252
 10
38.1653058914
 20
37.4731968678
 10
38.1765357598
 20
37.5552001665
 10
38.1875211596
 20
37.6336796206
 10
38.1983067026
 20
37.7091913721
 10
38.208895982
 20
37.7818048499
 10
38.2192765795
 20
37.851451697
 10
38.2294704749
 20
37.9184811814
 10
38.2394747215
 20
37.982906003
 10
38.2492852027
 20
38.0447144142
 10
38.258922993
 20
38.1042188884
 10
38.2683846549
 20
38.1614249593
 10
38.2776680026
 20
38.2163279242
 10
38.2867967031
 20
38.2692247832
 10
38.2957715457
 20
38.3201407589
 10
38.3045873427
 20
38.3690513274
 10
38.3132593389
 20
38.416178772
 10
38.3217860971
 20
38.4615311655
 10
38.3301654747
 20
38.5051010527
 10
38.3384120409
 20
38.5470873527
 10
38.3465229759
 20
38.5874900412
 10
38.354498186
 20
38.6263096852
 10
38.362356673
 20
38.6637460154
 10
38.3700968044
 20
38.6998046
 10
38.3777179051
 20
38.7344803242
 10
38.3852407381
 20
38.7679568136
 10
38.3926737977
 20
38.8002780594
 10
38.4000068158
 20
38.8314004254
 10
38.4072325571
 20
38.8613760653
 10
38.4143561409
 20
38.8902239235
 10
38.4213708109
 20
38.9179254281
 10
38.4282514347
 20
38.9444765062
 10
38.4349915454
 20
38.9698508789
 10
38.4415959601
 20
38.9940752748
 10
38.4480564009
 20
39.0172251777
 10
38.4543647984
 20
39.0392770306
 10
38.4605277589
 20
39.0602548413
 10
38.4665590957
 20
39.0803054249
 10
38.4724555776
 20
39.0994271193
 10
38.4782192904
 20
39.1176219667
 10
38.4838721784
 20
39.1350422805
 10
38.4894150457
 20
39.1516989461
 10
38.4948462332
 20
39.1675813752
 10
38.5001841312
 20
39.1828096124
 10
38.5054302183
 20
39.1973940279
 10
38.5105823643
 20
39.2113244872
 10
38.5156536429
 20
39.2246902343
 10
38.5206426972
 20
39.2374930252
 10
38.5255503674
 20
39.2497313001
 10
38.5303931
 20
39.2614892917
 10
38.5351684797
 20
39.2727672126
 10
38.539878526
 20
39.2835650019
 10
38.5445464185
 20
39.2939664367
 10
38.5491798073
 20
39.3039994626
 10
38.5537707713
 20
39.3136362229
 10
38.5583191776
 20
39.3228767647
  0
LWPOLYLINE
  5
3DB
100
AcDbEntity
  8
RACCORDO
100
AcDbPolyline
 62
250
  6
CONTINUOUS
 90
112
 70
0
 10
36.3
 20
26.1401092738
 10
36.3005270751
 20
26.3571214651
 10
36.302221728
 20
26.5771369256
 10
36.3050839587
 20
26.8001580077
 10
36.3090979267
 20
27.026274338
 10
36.3142794724
 20
27.2554008816
 10
36.3206761175
 20
27.48727757
 10
36.3282920418
 20
27.721919558
 10
36.3371230654
 20
27.9593151452
 10
36.3472041703
 20
28.199163165
 10
36.3585420969
 20
28.4415134904
 10
36.3711301049
 20
28.6863185316
 10
36.3849829549
 20
28.9331298936
 10
36.4001079008
 20
29.1819762408
 10
36.4164976887
 20
29.4328296395
 10
36.4341453177
 20
29.6851555225
 10
36.4530566648
 20
29.9389611227
 10
36.4732258529
 20
30.1942382787
 10
36.4946282497
 20
30.4504279986
 10
36.5172789961
 20
30.7076260295
 10
36.5411629512
 20
30.9657342224
 10
36.5662100599
 20
31.2239011722
 10
36.5924299387
 20
31.4821363704
 10
36.6198129711
 20
31.7404259639
 10
36.6482602518
 20
31.997881781
 10
36.6777813827
 20
32.2545144424
 10
36.708366762
 20
32.5103073906
 10
36.7398886786
 20
32.764330077
 10
36.7724634123
 20
33.0172790225
 10
36.8059746834
 20
33.2684509308
 10
36.8399459412
 20
33.5148124409
 10
36.8744237613
 20
33.7563410422
 10
36.9093615681
 20
33.9930483949
 10
36.944143085
 20
34.2219483711
 10
36.978697975
 20
34.4423677108
 10
37.0130965749
 20
34.6549667877
 10
37.0469336186
 20
34.8587580302
 10
37.0800822029
 20
35.0530046312
 10
37.1126692309
 20
35.2384322777
 10
37.1446701455
 20
35.4162478216
 10
37.1760774339
 20
35.5865137574
 10
37.2068986088
 20
35.7491601271
 10
37.2371316519
 20
35.9051964771
 10
37.2667483782
 20
36.0545668879
 10
37.2957769727
 20
36.1973220568
 10
37.324299972
 20
36.3346324809
 10
37.3523266475
 20
36.466614374
 10
37.3798477277
 20
36.5931480337
 10
37.4069179351
 20
36.7150508227
 10
37.4335427424
 20
36.8323918839
 10
37.4597166768
 20
36.9450996251
 10
37.4854780428
 20
37.053780759
 10
37.510870849
 20
37.1586279835
 10
37.5358510868
 20
37.259446853
 10
37.5603250341
 20
37.356263583
 10
37.5842515312
 20
37.4489210421
 10
37.6076717379
 20
37.5375749252
 10
37.6306154116
 20
37.6227208391
 10
37.6530697026
 20
37.7043382875
 10
37.6750474605
 20
37.7824467463
 10
37.6966169924
 20
37.8576019656
 10
37.7177917521
 20
37.9298724409
 10
37.7385582856
 20
37.9991889695
 10
37.7589445386
 20
38.0659008865
 10
37.7789500152
 20
38.13002026
 10
37.7985752112
 20
38.1915345002
 10
37.8178495594
 20
38.2507560396
 10
37.8367704445
 20
38.3076899248
 10
37.8553404819
 20
38.3623307252
 10
37.87359695
 20
38.4149752207
 10
37.8915447844
 20
38.465648152
 10
37.9091790496
 20
38.5143244979
 10
37.926522217
 20
38.5612264412
 10
37.9435742323
 20
38.6063616871
 10
37.9603351498
 20
38.6497223197
 10
37.9768276036
 20
38.691507122
 10
37.9930482115
 20
38.7317157969
 10
38.0090003557
 20
38.770348483
 10
38.0247168178
 20
38.8076046422
 10
38.0401960484
 20
38.8434895938
 10
38.0554395969
 20
38.8779979005
 10
38.0704848932
 20
38.9113129103
 10
38.0853503954
 20
38.9434782501
 10
38.1000176454
 20
38.9744502058
 10
38.1144686985
 20
39.0042811256
 10
38.128715435
 20
39.0329896324
 10
38.1427459747
 20
39.0605570319
 10
38.1565067316
 20
39.0869797004
 10
38.169986389
 20
39.1122311837
 10
38.1831962637
 20
39.1363378751
 10
38.1961167205
 20
39.1593754277
 10
38.2087328626
 20
39.1813201655
 10
38.2210595868
 20
39.2021957169
 10
38.2331219476
 20
39.2221486983
 10
38.2449143305
 20
39.2411773081
 10
38.2564423501
 20
39.2592833137
 10
38.267747905
 20
39.2766186915
 10
38.278833208
 20
39.2931941721
 10
38.2896960464
 20
39.3089990008
 10
38.3003716801
 20
39.324152931
 10
38.3108635437
 20
39.3386662007
 10
38.3211682028
 20
39.3525285545
 10
38.3313106134
 20
39.3658290094
 10
38.3412884375
 20
39.3785692255
 10
38.3511040132
 20
39.3907475298
 10
38.3607893116
 20
39.4024479425
 10
38.3703398365
 20
39.413670742
 10
38.379760084
 20
39.4244156404
 10
38.3890955137
 20
39.4347658114
 10
38.3983612788
 20
39.4447489776
 10
38.4075422259
 20
39.4543374096
 10
38.4166383553
 20
39.4635311044
  0
LWPOLYLINE
  5
3DC
100
AcDbEntity
  8
RACCORDO
100
AcDbPolyline
 62
250
  6
CONTINUOUS
 90
65
 70
0
 10
36.3
 20
-23.4574993802
 10
36.3000542543
 20
-23.4517378663
 10
36.300220601
 20
-23.4459707242
 10
36.3004990402
 20
-23.4401981299
 10
36.3008883318
 20
-23.4344246342
 10
36.3013897158
 20
-23.428646033
 10
36.3020069125
 20
-23.4228494173
 10
36.302738984
 20
-23.4170353881
 10
36.3035868683
 20
-23.4112038051
 10
36.3045570992
 20
-23.4053407503
 10
36.3056486203
 20
-23.399446976
 10
36.3068624881
 20
-23.3935223262
 10
36.3082084065
 20
-23.3875516457
 10
36.3096851398
 20
-23.3815359592
 10
36.3112939238
 20
-23.375475013
 10
36.3130481697
 20
-23.3693518882
 10
36.3149463882
 20
-23.3631679488
 10
36.3169900685
 20
-23.3569228308
 10
36.3191970892
 20
-23.3505972179
 10
36.3215656628
 20
-23.3441928122
 10
36.3240975768
 20
-23.3377092169
 10
36.326816072
 20
-23.3311242197
 10
36.3297187809
 20
-23.3244403561
 10
36.3328080709
 20
-23.3176568053
 10
36.3361142856
 20
-23.3107466588
 10
36.3396343349
 20
-23.3037132959
 10
36.343371309
 20
-23.2965556258
 10
36.3473648214
 20
-23.2892405057
 10
36.3516108091
 20
-23.2817724699
 10
36.3561133351
 20
-23.2741500939
 10
36.3609242022
 20
-23.2663319692
 10
36.3660380347
 20
-23.2583242659
 10
36.3714602084
 20
-23.250125127
 10
36.3772586535
 20
-23.2416820899
 10
36.3834264725
 20
-23.2330034024
 10
36.389970563
 20
-23.2240869415
 10
36.3969795473
 20
-23.2148661677
 10
36.4044486069
 20
-23.2053480348
 10
36.4123825603
 20
-23.1955345342
 10
36.4208844863
 20
-23.1853537886
 10
36.4299581318
 20
-23.17480744
 10
36.4395997499
 20
-23.1639069062
 10
36.4499011773
 20
-23.1525975242
 10
36.4609348068
 20
-23.1408213312
 10
36.4726282456
 20
-23.1286551696
 10
36.4848561527
 20
-23.1162459203
 10
36.4976606317
 20
-23.1035774382
 10
36.510999579
 20
-23.0906825151
 10
36.5246213423
 20
-23.0777750498
 10
36.5384089671
 20
-23.0649733688
 10
36.5524794078
 20
-23.0521662983
 10
36.5669318758
 20
-23.039222466
 10
36.5817752592
 20
-23.0261414123
 10
36.5970006698
 20
-23.0129404877
 10
36.6126806548
 20
-22.999521839
 10
36.6288396438
 20
-22.9858806818
 10
36.6454532073
 20
-22.9720477621
 10
36.6625206036
 20
-22.9579841943
 10
36.6802154894
 20
-22.9435671575
 10
36.698364208
 20
-22.928956572
 10
36.7164450478
 20
-22.9145265475
 10
36.7343712247
 20
-22.9003423676
 10
36.7522295229
 20
-22.8863451186
 10
36.7697585825
 20
-22.8727013207
 10
36.7868791597
 20
-22.8594613101
  0
LWPOLYLINE
  5
3DD
100
AcDbEntity
  8
RACCORDO
100
AcDbPolyline
 62
250
  6
CONTINUOUS
 90
67
 70
0
 10
37.5
 20
-23.2149987606
 10
37.4998860867
 20
-23.2183401085
 10
37.4995443684
 20
-23.2216808061
 10
37.4989749101
 20
-23.2250202192
 10
37.4981778197
 20
-23.2283577086
 10
37.4971532488
 20
-23.2316926458
 10
37.4959013916
 20
-23.2350244137
 10
37.4944224861
 20
-23.2383523849
 10
37.4927168128
 20
-23.2416759223
 10
37.4907846957
 20
-23.2449943952
 10
37.4886265016
 20
-23.2483071737
 10
37.4862426402
 20
-23.2516136286
 10
37.4836335641
 20
-23.2549131322
 10
37.4807997687
 20
-23.2582050581
 10
37.477741792
 20
-23.2614887812
 10
37.4744602144
 20
-23.2647636782
 10
37.4709556592
 20
-23.2680291272
 10
37.4672287916
 20
-23.2712845083
 10
37.4632803192
 20
-23.2745292035
 10
37.4591109916
 20
-23.2777625967
 10
37.4547216004
 20
-23.2809840741
 10
37.450112979
 20
-23.284193024
 10
37.4452860023
 20
-23.2873888372
 10
37.4402415868
 20
-23.290570907
 10
37.4349806901
 20
-23.2937386291
 10
37.4295043111
 20
-23.2968914021
 10
37.4238134895
 20
-23.3000286275
 10
37.4179093057
 20
-23.3031497095
 10
37.4117928807
 20
-23.3062540557
 10
37.4054653757
 20
-23.3093410766
 10
37.3989279921
 20
-23.3124101862
 10
37.3921819709
 20
-23.3154608018
 10
37.3852285929
 20
-23.3184923442
 10
37.3780691783
 20
-23.3215042378
 10
37.3707050864
 20
-23.3244959108
 10
37.3631377152
 20
-23.3274667953
 10
37.3553685015
 20
-23.3304163272
 10
37.3473989203
 20
-23.3333439466
 10
37.3392304846
 20
-23.3362490975
 10
37.3308647453
 20
-23.3391312285
 10
37.3223032907
 20
-23.3419897924
 10
37.3135477461
 20
-23.3448242464
 10
37.304599774
 20
-23.3476340525
 10
37.295461073
 20
-23.350418677
 10
37.2861333783
 20
-23.3531775915
 10
37.2766184608
 20
-23.355910272
 10
37.2669181268
 20
-23.3586161998
 10
37.2570342182
 20
-23.361294861
 10
37.2469686113
 20
-23.3639457472
 10
37.2367232173
 20
-23.3665683551
 10
37.2262999812
 20
-23.3691621867
 10
37.2157008819
 20
-23.3717267495
 10
37.2049279318
 20
-23.3742615568
 10
37.1939831761
 20
-23.3767661271
 10
37.1828686929
 20
-23.3792399851
 10
37.1715865921
 20
-23.381682661
 10
37.1601390158
 20
-23.3840936911
 10
37.1485281375
 20
-23.3864726176
 10
37.1367561613
 20
-23.3888189889
 10
37.1248253225
 20
-23.3911323595
 10
37.112737886
 20
-23.3934122901
 10
37.1004961467
 20
-23.395658348
 10
37.0881024289
 20
-23.3978701068
 10
37.0755590855
 20
-23.4000471464
 10
37.0628684979
 20
-23.4021890535
 10
37.0500330755
 20
-23.4042954216
 10
37.0370552553
 20
-23.4063658507
  0
LWPOLYLINE
  5
3DE
100
AcDbEntity
  8
RACCORDO
100
AcDbPolyline
 62
250
  6
CONTINUOUS
 90
60
 70
0
 10
37.5
 20
-25.933376786
 10
37.4998860867
 20
-25.9362252453
 10
37.4995443684
 20
-25.9390731637
 10
37.4989749101
 20
-25.9419200007
 10
37.4981778197
 20
-25.9447652157
 10
37.4971532487
 20
-25.9476082686
 10
37.4959013916
 20
-25.9504486195
 10
37.494422486
 20
-25.9532857293
 10
37.4927168128
 20
-25.9561190592
 10
37.4907846957
 20
-25.9589480714
 10
37.4886265015
 20
-25.9617722287
 10
37.4862426401
 20
-25.964590995
 10
37.4836335641
 20
-25.9674038351
 10
37.4807997686
 20
-25.970210215
 10
37.4777417919
 20
-25.9730096019
 10
37.4744602144
 20
-25.9758014642
 10
37.4709556591
 20
-25.978585272
 10
37.4672287915
 20
-25.9813604967
 10
37.4632803191
 20
-25.9841266115
 10
37.4591109915
 20
-25.9868830911
 10
37.4547216003
 20
-25.9896294122
 10
37.4501129789
 20
-25.9923650535
 10
37.4452860022
 20
-25.9950894955
 10
37.4402415866
 20
-25.9978022211
 10
37.4349806899
 20
-26.0005027151
 10
37.4295043109
 20
-26.0031904648
 10
37.4238134893
 20
-26.0058649601
 10
37.4179093056
 20
-26.0085256931
 10
37.4117928805
 20
-26.0111721586
 10
37.4054653755
 20
-26.0138038543
 10
37.3989279919
 20
-26.0164202805
 10
37.3921819707
 20
-26.0190209404
 10
37.3852285927
 20
-26.0216053402
 10
37.3780691781
 20
-26.0241729894
 10
37.3707050862
 20
-26.0267234005
 10
37.363137715
 20
-26.0292560892
 10
37.3553685013
 20
-26.0317705746
 10
37.34739892
 20
-26.0342663795
 10
37.3392304844
 20
-26.0367430299
 10
37.3308647451
 20
-26.0392000556
 10
37.3223032904
 20
-26.0416369903
 10
37.3135477459
 20
-26.0440533711
 10
37.3045997737
 20
-26.0464487394
 10
37.2954610728
 20
-26.0488226404
 10
37.2861333781
 20
-26.0511746233
 10
37.2766184605
 20
-26.0535042416
 10
37.2669181266
 20
-26.0558110531
 10
37.2570342179
 20
-26.0580946198
 10
37.246968611
 20
-26.0603545081
 10
37.236723217
 20
-26.062590289
 10
37.2262999809
 20
-26.064801538
 10
37.2157008816
 20
-26.0669878353
 10
37.2049279315
 20
-26.0691487658
 10
37.1939831758
 20
-26.0712839192
 10
37.1828686926
 20
-26.0733928902
 10
37.1715865918
 20
-26.0754752784
 10
37.1601390155
 20
-26.0775306884
 10
37.1485281372
 20
-26.07955873
 10
37.136756161
 20
-26.0815590181
 10
37.1248253222
 20
-26.083531173
  0
LWPOLYLINE
  5
3DF
100
AcDbEntity
  8
RACCORDO
100
AcDbPolyline
 62
7
  6
CONTINUOUS
 90
33
 70
0
 10
37.4990343226
 20
-22.2984588575
 10
37.498516966
 20
-22.3046540217
 10
37.4978972605
 20
-22.3107174159
 10
37.4971791225
 20
-22.3166488475
 10
37.4963667579
 20
-22.3224458571
 10
37.4954597391
 20
-22.3281341484
 10
37.4944606873
 20
-22.3337122943
 10
37.4933728399
 20
-22.3391760289
 10
37.4921946708
 20
-22.3445429435
 10
37.490927643
 20
-22.3498124833
 10
37.4895749282
 20
-22.3549775101
 10
37.4881365651
 20
-22.3600431787
 10
37.4866127793
 20
-22.3650121777
 10
37.4850076575
 20
-22.3698747193
 10
37.4833273024
 20
-22.3746176778
 10
37.4815733007
 20
-22.3792425235
 10
37.4797486076
 20
-22.3837469592
 10
37.4778622053
 20
-22.3881156242
 10
37.4759156667
 20
-22.3923524461
 10
37.4739099442
 20
-22.3964619415
 10
37.4718532583
 20
-22.4004342878
 10
37.4697452545
 20
-22.4042774332
 10
37.4675829514
 20
-22.4080026479
 10
37.4653695072
 20
-22.4116097836
 10
37.4631022475
 20
-22.4151082733
 10
37.4607702054
 20
-22.4185183987
 10
37.4583612394
 20
-22.4218589937
 10
37.4558704431
 20
-22.425136939
 10
37.4532749843
 20
-22.4283807606
 10
37.4505303321
 20
-22.4316398418
 10
37.4476056014
 20
-22.4349401863
 10
37.4444862137
 20
-22.4382867482
 10
37.4411478812
 20
-22.4416943033
  0
LINE
  5
3E0
100
AcDbEntity
  8
RACCORDO
100
AcDbLine
 62
250
  6
CONTINUOUS
 10
37.1864198811
 20
-22.570267186
 11
37.1993777663
 21
-22.561684576
  0
LINE
  5
3E1
100
AcDbEntity
  8
RACCORDO
100
AcDbLine
 62
250
  6
CONTINUOUS
 10
37.1993777663
 20
-22.561684576
 11
37.2114478022
 21
-22.5537778364
  0
LINE
  5
3E2
100
AcDbEntity
  8
RACCORDO
100
AcDbLine
 62
250
  6
CONTINUOUS
 10
37.2114478022
 20
-22.5537778364
 11
37.2226459191
 21
-22.5465235502
  0
LINE
  5
3E3
100
AcDbEntity
  8
RACCORDO
100
AcDbLine
 62
250
  6
CONTINUOUS
 10
37.2226459191
 20
-22.5465235502
 11
37.232995523
 21
-22.5398983866
  0
LINE
  5
3E4
100
AcDbEntity
  8
RACCORDO
100
AcDbLine
 62
250
  6
CONTINUOUS
 10
37.232995523
 20
-22.5398983866
 11
37.2425191746
 21
-22.5338791895
  0
LINE
  5
3E5
100
AcDbEntity
  8
RACCORDO
100
AcDbLine
 62
250
  6
CONTINUOUS
 10
37.2425191746
 20
-22.5338791895
 11
37.2512318614
 21
-22.5284423949
  0
LINE
  5
3E6
100
AcDbEntity
  8
RACCORDO
100
AcDbLine
 62
250
  6
CONTINUOUS
 10
37.2512318614
 20
-22.5284423949
 11
37.2591558598
 21
-22.5235645863
  0
LINE
  5
3E7
100
AcDbEntity
  8
RACCORDO
100
AcDbLine
 62
250
  6
CONTINUOUS
 10
37.2591558598
 20
-22.5235645863
 11
37.2663132966
 21
-22.5192222132
  0
LINE
  5
3E8
100
AcDbEntity
  8
RACCORDO
100
AcDbLine
 62
250
  6
CONTINUOUS
 10
37.2663132966
 20
-22.5192222132
 11
37.2727189607
 21
-22.5153913866
  0
LINE
  5
3E9
100
AcDbEntity
  8
RACCORDO
100
AcDbLine
 62
250
  6
CONTINUOUS
 10
37.2727189607
 20
-22.5153913866
 11
37.2783950344
 21
-22.5120483823
  0
LINE
  5
3EA
100
AcDbEntity
  8
RACCORDO
100
AcDbLine
 62
250
  6
CONTINUOUS
 10
37.2783950344
 20
-22.5120483823
 11
37.2833638538
 21
-22.5091693469
  0
LINE
  5
3EB
100
AcDbEntity
  8
RACCORDO
100
AcDbLine
 62
250
  6
CONTINUOUS
 10
37.2833638538
 20
-22.5091693469
 11
37.2876403987
 21
-22.5067303695
  0
LINE
  5
3EC
100
AcDbEntity
  8
RACCORDO
100
AcDbLine
 62
250
  6
CONTINUOUS
 10
37.2876403987
 20
-22.5067303695
 11
37.2912546702
 21
-22.5047014536
  0
LINE
  5
3ED
100
AcDbEntity
  8
RACCORDO
100
AcDbLine
 62
250
  6
CONTINUOUS
 10
37.2912546702
 20
-22.5047014536
 11
37.2953915418
 21
-22.5024287092
  0
LWPOLYLINE
  5
3EE
100
AcDbEntity
  8
RACCORDO
100
AcDbPolyline
 62
250
  6
CONTINUOUS
 90
10
 70
0
 10
37.2953915418
 20
-22.5024287092
 10
37.2973054477
 20
-22.5014092808
 10
37.2980126331
 20
-22.5010298941
 10
37.2985999348
 20
-22.5007225894
 10
37.2990702004
 20
-22.5004804393
 10
37.2994205824
 20
-22.5002956511
 10
37.2996853286
 20
-22.5001599336
 10
37.2998758549
 20
-22.5000681363
 10
37.2999807454
 20
-22.5000163131
 10
37.3
 20
-22.4999999998
  0
LINE
  5
3EF
100
AcDbEntity
  8
RACCORDO
100
AcDbLine
 62
250
  6
CONTINUOUS
 10
37.2973055427
 20
22.5014092304
 11
37.2953917069
 21
22.5024286204
  0
LINE
  5
3F0
100
AcDbEntity
  8
RACCORDO
100
AcDbLine
 62
250
  6
CONTINUOUS
 10
37.2953917069
 20
22.5024286204
 11
37.2912549642
 21
22.5047012898
  0
LINE
  5
3F1
100
AcDbEntity
  8
RACCORDO
100
AcDbLine
 62
250
  6
CONTINUOUS
 10
37.2912549642
 20
22.5047012898
 11
37.2876407783
 21
22.506730155
  0
LINE
  5
3F2
100
AcDbEntity
  8
RACCORDO
100
AcDbLine
 62
250
  6
CONTINUOUS
 10
37.2876407783
 20
22.506730155
 11
37.2833643326
 21
22.5091690717
  0
LINE
  5
3F3
100
AcDbEntity
  8
RACCORDO
100
AcDbLine
 62
250
  6
CONTINUOUS
 10
37.2833643326
 20
22.5091690717
 11
37.2783956247
 21
22.5120480376
  0
LINE
  5
3F4
100
AcDbEntity
  8
RACCORDO
100
AcDbLine
 62
250
  6
CONTINUOUS
 10
37.2783956247
 20
22.5120480376
 11
37.2727196749
 21
22.515390963
  0
LINE
  5
3F5
100
AcDbEntity
  8
RACCORDO
100
AcDbLine
 62
250
  6
CONTINUOUS
 10
37.2727196749
 20
22.515390963
 11
37.2663141477
 21
22.5192217006
  0
LINE
  5
3F6
100
AcDbEntity
  8
RACCORDO
100
AcDbLine
 62
250
  6
CONTINUOUS
 10
37.2663141477
 20
22.5192217006
 11
37.2591568614
 21
22.5235639744
  0
LINE
  5
3F7
100
AcDbEntity
  8
RACCORDO
100
AcDbLine
 62
250
  6
CONTINUOUS
 10
37.2591568614
 20
22.5235639744
 11
37.2512330272
 21
22.5284416726
  0
LINE
  5
3F8
100
AcDbEntity
  8
RACCORDO
100
AcDbLine
 62
250
  6
CONTINUOUS
 10
37.2512330272
 20
22.5284416726
 11
37.2425205189
 21
22.5338783454
  0
LINE
  5
3F9
100
AcDbEntity
  8
RACCORDO
100
AcDbLine
 62
250
  6
CONTINUOUS
 10
37.2425205189
 20
22.5338783454
 11
37.2329970607
 21
22.5398974087
  0
LINE
  5
3FA
100
AcDbEntity
  8
RACCORDO
100
AcDbLine
 62
250
  6
CONTINUOUS
 10
37.2329970607
 20
22.5398974087
 11
37.2226476653
 21
22.546522426
  0
LINE
  5
3FB
100
AcDbEntity
  8
RACCORDO
100
AcDbLine
 62
250
  6
CONTINUOUS
 10
37.2226476653
 20
22.546522426
 11
37.2114497727
 21
22.553776553
  0
LINE
  5
3FC
100
AcDbEntity
  8
RACCORDO
100
AcDbLine
 62
250
  6
CONTINUOUS
 10
37.2114497727
 20
22.553776553
 11
37.1993799774
 21
22.5616831198
  0
LINE
  5
3FD
100
AcDbEntity
  8
RACCORDO
100
AcDbLine
 62
250
  6
CONTINUOUS
 10
37.1993799774
 20
22.5616831198
 11
37.1864223496
 21
22.5702655429
  0
LINE
  5
3FE
100
AcDbEntity
  8
0
100
AcDbLine
 62
7
  6
CONTINUOUS
 10
51.196199
 20
-33.81738
 11
50.924788
 21
-32.972032
  0
LINE
  5
3FF
100
AcDbEntity
  8
0
100
AcDbLine
 62
7
  6
CONTINUOUS
 10
51.543819
 20
-34.900063
 11
51.367027
 21
-34.349401
  0
LINE
  5
400
100
AcDbEntity
  8
0
100
AcDbLine
 62
7
  6
CONTINUOUS
 10
52.103847
 20
-34.90007
 11
51.204816
 21
-32.099937
  0
LINE
  5
401
100
AcDbEntity
  8
0
100
AcDbLine
 62
7
  6
CONTINUOUS
 10
47.722904
 20
-34.90007
 11
47.193438
 21
-33.053575
  0
LINE
  5
402
100
AcDbEntity
  8
0
100
AcDbLine
 62
7
  6
CONTINUOUS
 10
48.002911
 20
-33.923486
 11
47.480018
 21
-32.099944
  0
LINE
  5
403
100
AcDbEntity
  8
RACCORDO
100
AcDbLine
 62
250
  6
CONTINUOUS
 10
36.7868791597
 20
-22.8594613101
 11
36.8201089696
 21
-22.8340113389
  0
LINE
  5
404
100
AcDbEntity
  8
RACCORDO
100
AcDbLine
 62
250
  6
CONTINUOUS
 10
36.8201089696
 20
-22.8340113389
 11
36.8519093885
 21
-22.809913214
  0
LINE
  5
405
100
AcDbEntity
  8
RACCORDO
100
AcDbLine
 62
250
  6
CONTINUOUS
 10
36.8519093885
 20
-22.809913214
 11
36.8823049477
 21
-22.787096565
  0
LINE
  5
406
100
AcDbEntity
  8
RACCORDO
100
AcDbLine
 62
250
  6
CONTINUOUS
 10
36.8823049477
 20
-22.787096565
 11
36.9113116086
 21
-22.7655081894
  0
LINE
  5
407
100
AcDbEntity
  8
RACCORDO
100
AcDbLine
 62
250
  6
CONTINUOUS
 10
36.9113116086
 20
-22.7655081894
 11
36.9389689303
 21
-22.7450826358
  0
LINE
  5
408
100
AcDbEntity
  8
RACCORDO
100
AcDbLine
 62
250
  6
CONTINUOUS
 10
36.9389689303
 20
-22.7450826358
 11
36.9653244803
 21
-22.7257624652
  0
LINE
  5
409
100
AcDbEntity
  8
RACCORDO
100
AcDbLine
 62
250
  6
CONTINUOUS
 10
36.9653244803
 20
-22.7257624652
 11
36.9904088066
 21
-22.7075032831
  0
LINE
  5
40A
100
AcDbEntity
  8
RACCORDO
100
AcDbLine
 62
250
  6
CONTINUOUS
 10
36.9904088066
 20
-22.7075032831
 11
37.0142683293
 21
-22.690255916
  0
LINE
  5
40B
100
AcDbEntity
  8
RACCORDO
100
AcDbLine
 62
250
  6
CONTINUOUS
 10
37.0142683293
 20
-22.690255916
 11
37.0478466682
 21
-22.66619441
  0
LINE
  5
40C
100
AcDbEntity
  8
RACCORDO
100
AcDbLine
 62
250
  6
CONTINUOUS
 10
37.0478466682
 20
-22.66619441
 11
37.0788767626
 21
-22.6441971249
  0
LINE
  5
40D
100
AcDbEntity
  8
RACCORDO
100
AcDbLine
 62
250
  6
CONTINUOUS
 10
37.0788767626
 20
-22.6441971249
 11
37.1074698642
 21
-22.6241554071
  0
LINE
  5
40E
100
AcDbEntity
  8
RACCORDO
100
AcDbLine
 62
250
  6
CONTINUOUS
 10
37.1074698642
 20
-22.6241554071
 11
37.1337273493
 21
-22.6059712345
  0
LINE
  5
40F
100
AcDbEntity
  8
RACCORDO
100
AcDbLine
 62
250
  6
CONTINUOUS
 10
37.1337273493
 20
-22.6059712345
 11
37.1577419259
 21
-22.5895542155
  0
LWPOLYLINE
  5
410
100
AcDbEntity
  8
RACCORDO
100
AcDbPolyline
 62
250
  6
CONTINUOUS
 90
3
 70
0
 10
37.1577419259
 20
-22.5895542155
 10
37.1795989537
 20
-22.5748192281
 10
37.1864198811
 20
-22.570267186
  0
LINE
  5
411
100
AcDbEntity
  8
RACCORDO
100
AcDbLine
 62
250
  6
CONTINUOUS
 10
-59.2509666932
 20
39.5765828706
 11
-59.2252385725
 21
39.5786342663
  0
LINE
  5
412
100
AcDbEntity
  8
RACCORDO
100
AcDbLine
 62
250
  6
CONTINUOUS
 10
-59.2252385725
 20
39.5786342663
 11
-59.1989619724
 21
39.5806211245
  0
LINE
  5
413
100
AcDbEntity
  8
RACCORDO
100
AcDbLine
 62
250
  6
CONTINUOUS
 10
-59.1989619724
 20
39.5806211245
 11
-59.1721558427
 21
39.5825393029
  0
LINE
  5
414
100
AcDbEntity
  8
RACCORDO
100
AcDbLine
 62
250
  6
CONTINUOUS
 10
-59.1721558427
 20
39.5825393029
 11
-59.1448416026
 21
39.5843930386
  0
LINE
  5
415
100
AcDbEntity
  8
RACCORDO
100
AcDbLine
 62
250
  6
CONTINUOUS
 10
-59.1448416026
 20
39.5843930386
 11
-59.1170390582
 21
39.5861779315
  0
LINE
  5
416
100
AcDbEntity
  8
RACCORDO
100
AcDbLine
 62
250
  6
CONTINUOUS
 10
-59.1170390582
 20
39.5861779315
 11
-59.0887682836
 21
39.5878901261
  0
LINE
  5
417
100
AcDbEntity
  8
RACCORDO
100
AcDbLine
 62
250
  6
CONTINUOUS
 10
-59.0887682836
 20
39.5878901261
 11
-59.0600518778
 21
39.5895337221
  0
LINE
  5
418
100
AcDbEntity
  8
RACCORDO
100
AcDbLine
 62
250
  6
CONTINUOUS
 10
-59.0600518778
 20
39.5895337221
 11
-59.0309106381
 21
39.5911046409
  0
LINE
  5
419
100
AcDbEntity
  8
RACCORDO
100
AcDbLine
 62
250
  6
CONTINUOUS
 10
-59.0309106381
 20
39.5911046409
 11
-58.9864496378
 21
39.5933211681
  0
LINE
  5
41A
100
AcDbEntity
  8
RACCORDO
100
AcDbLine
 62
250
  6
CONTINUOUS
 10
-58.9864496378
 20
39.5933211681
 11
-58.9411567927
 21
39.5953680724
  0
LINE
  5
41B
100
AcDbEntity
  8
RACCORDO
100
AcDbLine
 62
250
  6
CONTINUOUS
 10
-58.9411567927
 20
39.5953680724
 11
-58.8951083975
 21
39.5972419061
  0
LINE
  5
41C
100
AcDbEntity
  8
RACCORDO
100
AcDbLine
 62
250
  6
CONTINUOUS
 10
-58.8951083975
 20
39.5972419061
 11
-58.8483820193
 21
39.5989395127
  0
LINE
  5
41D
100
AcDbEntity
  8
RACCORDO
100
AcDbLine
 62
250
  6
CONTINUOUS
 10
-58.8483820193
 20
39.5989395127
 11
-58.8010563676
 21
39.6004580327
  0
LINE
  5
41E
100
AcDbEntity
  8
RACCORDO
100
AcDbLine
 62
250
  6
CONTINUOUS
 10
-58.8010563676
 20
39.6004580327
 11
-58.753211161
 21
39.6017949084
  0
LINE
  5
41F
100
AcDbEntity
  8
RACCORDO
100
AcDbLine
 62
250
  6
CONTINUOUS
 10
-58.753211161
 20
39.6017949084
 11
-58.7049269934
 21
39.6029478878
  0
LINE
  5
420
100
AcDbEntity
  8
RACCORDO
100
AcDbLine
 62
250
  6
CONTINUOUS
 10
-58.7049269934
 20
39.6029478878
 11
-58.6562851982
 21
39.6039150287
  0
LINE
  5
421
100
AcDbEntity
  8
RACCORDO
100
AcDbLine
 62
250
  6
CONTINUOUS
 10
-58.6562851982
 20
39.6039150287
 11
-58.6073677109
 21
39.6046947021
  0
LINE
  5
422
100
AcDbEntity
  8
RACCORDO
100
AcDbLine
 62
250
  6
CONTINUOUS
 10
-58.6073677109
 20
39.6046947021
 11
-58.5582569322
 21
39.6052855947
  0
LWPOLYLINE
  5
423
100
AcDbEntity
  8
RACCORDO
100
AcDbPolyline
 62
250
  6
CONTINUOUS
 90
3
 70
0
 10
-58.5582569322
 20
39.6052855947
 10
-58.5090340231
 20
39.6056820765
 10
-58.4926179677
 20
39.6057773315
  0
LINE
  5
424
100
AcDbEntity
  8
RACCORDO
100
AcDbLine
 62
250
  6
CONTINUOUS
 10
38.4166383553
 20
39.4635311044
 11
-38.4166383553
 21
39.4635311044
  0
LINE
  5
425
100
AcDbEntity
  8
RACCORDO
100
AcDbLine
 62
250
  6
CONTINUOUS
 10
58.4926179677
 20
39.6057773315
 11
38.6999999999
 21
39.6057773315
  0
LINE
  5
426
100
AcDbEntity
  8
RACCORDO
100
AcDbLine
 62
250
  6
CONTINUOUS
 10
-38.6999999999
 20
39.6057773315
 11
-58.4926179677
 21
39.6057773315
  0
LINE
  5
427
100
AcDbEntity
  8
RACCORDO
100
AcDbLine
 62
250
  6
CONTINUOUS
 10
58.4926179677
 20
40.6909734094
 11
-58.4926179677
 21
40.6909734094
  0
LINE
  5
428
100
AcDbEntity
  8
RACCORDO
100
AcDbLine
 62
7
  6
CONTINUOUS
 10
58.8016445583
 20
41.0
 11
-58.8016445583
 21
41.0
  0
LINE
  5
429
100
AcDbEntity
  8
RACCORDO
100
AcDbLine
 62
250
  6
CONTINUOUS
 10
58.5582566041
 20
39.6052848155
 11
58.4926179677
 21
39.6057773315
  0
LINE
  5
42A
100
AcDbEntity
  8
RACCORDO
100
AcDbLine
 62
250
  6
CONTINUOUS
 10
58.6236987
 20
39.6044549529
 11
58.5582566041
 21
39.6052848155
  0
LINE
  5
42B
100
AcDbEntity
  8
RACCORDO
100
AcDbLine
 62
250
  6
CONTINUOUS
 10
58.6887483036
 20
39.6032902284
 11
58.6236987
 21
39.6044549529
  0
LINE
  5
42C
100
AcDbEntity
  8
RACCORDO
100
AcDbLine
 62
250
  6
CONTINUOUS
 10
58.7532106379
 20
39.6017941295
 11
58.6887483036
 21
39.6032902284
  0
LINE
  5
42D
100
AcDbEntity
  8
RACCORDO
100
AcDbLine
 62
250
  6
CONTINUOUS
 10
58.8168926849
 20
39.599971136
 11
58.7532106379
 21
39.6017941295
  0
LINE
  5
42E
100
AcDbEntity
  8
RACCORDO
100
AcDbLine
 62
250
  6
CONTINUOUS
 10
58.8796037625
 20
39.5978267064
 11
58.8168926849
 21
39.599971136
  0
LINE
  5
42F
100
AcDbEntity
  8
RACCORDO
100
AcDbLine
 62
250
  6
CONTINUOUS
 10
58.9258867888
 20
39.5960112687
 11
58.8796037625
 21
39.5978267064
  0
LINE
  5
430
100
AcDbEntity
  8
RACCORDO
100
AcDbLine
 62
250
  6
CONTINUOUS
 10
58.9714399882
 20
39.5940216738
 11
58.9258867888
 21
39.5960112687
  0
LINE
  5
431
100
AcDbEntity
  8
RACCORDO
100
AcDbLine
 62
250
  6
CONTINUOUS
 10
59.0161866279
 20
39.591861273
 11
58.9714399882
 21
39.5940216738
  0
LINE
  5
432
100
AcDbEntity
  8
RACCORDO
100
AcDbLine
 62
250
  6
CONTINUOUS
 10
59.0600513338
 20
39.5895337054
 11
59.0161866279
 21
39.591861273
  0
LINE
  5
433
100
AcDbEntity
  8
RACCORDO
100
AcDbLine
 62
250
  6
CONTINUOUS
 10
59.1029602172
 20
39.5870428919
 11
59.0600513338
 21
39.5895337054
  0
LINE
  5
434
100
AcDbEntity
  8
RACCORDO
100
AcDbLine
 62
250
  6
CONTINUOUS
 10
59.1448409995
 20
39.5843930279
 11
59.1029602172
 21
39.5870428919
  0
LINE
  5
435
100
AcDbEntity
  8
RACCORDO
100
AcDbLine
 62
250
  6
CONTINUOUS
 10
59.1856231339
 20
39.5815885773
 11
59.1448409995
 21
39.5843930279
  0
LINE
  5
436
100
AcDbEntity
  8
RACCORDO
100
AcDbLine
 62
250
  6
CONTINUOUS
 10
59.2252379242
 20
39.5786342639
 11
59.1856231339
 21
39.5815885773
  0
LINE
  5
437
100
AcDbEntity
  8
RACCORDO
100
AcDbLine
 62
250
  6
CONTINUOUS
 10
59.2509662227
 20
39.5765839119
 11
59.2252379242
 21
39.5786342639
  0
LINE
  5
438
100
AcDbEntity
  8
RACCORDO
100
AcDbLine
 62
250
  6
CONTINUOUS
 10
37.1864223496
 20
22.5702655429
 11
37.1725526724
 21
22.5795471719
  0
LINE
  5
439
100
AcDbEntity
  8
RACCORDO
100
AcDbLine
 62
250
  6
CONTINUOUS
 10
37.1725526724
 20
22.5795471719
 11
37.1577449621
 21
22.5895521544
  0
LINE
  5
43A
100
AcDbEntity
  8
RACCORDO
100
AcDbLine
 62
250
  6
CONTINUOUS
 10
37.1577449621
 20
22.5895521544
 11
37.1337308605
 21
22.6059688186
  0
LINE
  5
43B
100
AcDbEntity
  8
RACCORDO
100
AcDbLine
 62
250
  6
CONTINUOUS
 10
37.1337308605
 20
22.6059688186
 11
37.1074738957
 21
22.6241525982
  0
LINE
  5
43C
100
AcDbEntity
  8
RACCORDO
100
AcDbLine
 62
250
  6
CONTINUOUS
 10
37.1074738957
 20
22.6241525982
 11
37.0788813627
 21
22.6441938821
  0
LINE
  5
43D
100
AcDbEntity
  8
RACCORDO
100
AcDbLine
 62
250
  6
CONTINUOUS
 10
37.0788813627
 20
22.6441938821
 11
37.0478518887
 21
22.6661906887
  0
LINE
  5
43E
100
AcDbEntity
  8
RACCORDO
100
AcDbLine
 62
250
  6
CONTINUOUS
 10
37.0478518887
 20
22.6661906887
 11
37.0142742261
 21
22.6902516677
  0
LINE
  5
43F
100
AcDbEntity
  8
RACCORDO
100
AcDbLine
 62
250
  6
CONTINUOUS
 10
37.0142742261
 20
22.6902516677
 11
36.9904151871
 21
22.7074986539
  0
LINE
  5
440
100
AcDbEntity
  8
RACCORDO
100
AcDbLine
 62
250
  6
CONTINUOUS
 10
36.9904151871
 20
22.7074986539
 11
36.9653313721
 21
22.7257574299
  0
LINE
  5
441
100
AcDbEntity
  8
RACCORDO
100
AcDbLine
 62
250
  6
CONTINUOUS
 10
36.9653313721
 20
22.7257574299
 11
36.9389763669
 21
22.7450771635
  0
LINE
  5
442
100
AcDbEntity
  8
RACCORDO
100
AcDbLine
 62
250
  6
CONTINUOUS
 10
36.9389763669
 20
22.7450771635
 11
36.911319608
 21
22.7655022584
  0
LINE
  5
443
100
AcDbEntity
  8
RACCORDO
100
AcDbLine
 62
250
  6
CONTINUOUS
 10
36.911319608
 20
22.7655022584
 11
36.882313444
 21
22.7870902144
  0
LINE
  5
444
100
AcDbEntity
  8
RACCORDO
100
AcDbLine
 62
250
  6
CONTINUOUS
 10
36.882313444
 20
22.7870902144
 11
36.8519184419
 21
22.8099063874
  0
LINE
  5
445
100
AcDbEntity
  8
RACCORDO
100
AcDbLine
 62
250
  6
CONTINUOUS
 10
36.8519184419
 20
22.8099063874
 11
36.8201186939
 21
22.834003933
  0
LWPOLYLINE
  5
446
100
AcDbEntity
  8
RACCORDO
100
AcDbPolyline
 62
250
  6
CONTINUOUS
 90
66
 70
0
 10
36.8201186939
 20
22.834003933
 10
36.7868897452
 20
22.8594531552
 10
36.7697696741
 20
22.8726927193
 10
36.7522412492
 20
22.8863359609
 10
36.7343836387
 20
22.9003325977
 10
36.7164579845
 20
22.914516276
 10
36.6983774025
 20
22.9289459944
 10
36.6802287768
 20
22.9435563969
 10
36.6625339011
 20
22.9579733089
 10
36.6454664317
 20
22.9720368108
 10
36.6288527123
 20
22.9858697258
 10
36.6126935678
 20
22.9995108709
 10
36.5970134509
 20
23.0129294801
 10
36.5817879089
 20
23.0261303562
 10
36.566944408
 20
23.0392113381
 10
36.5524918556
 20
23.0521550576
 10
36.5384213442
 20
23.0649619904
 10
36.524633618
 20
23.0777635458
 10
36.5110118268
 20
23.0906707834
 10
36.4976728208
 20
23.1035654899
 10
36.4848678935
 20
23.116234155
 10
36.4726388755
 20
23.1286442691
 10
36.4609439362
 20
23.1408117135
 10
36.4499088783
 20
23.1525891748
 10
36.4396062399
 20
23.163899672
 10
36.4299634828
 20
23.1748013011
 10
36.4208887949
 20
23.1853486935
 10
36.4123859243
 20
23.1955304341
 10
36.4044511229
 20
23.2053448746
 10
36.3969813342
 20
23.2148638458
 10
36.3899717576
 20
23.2240853334
 10
36.3834271936
 20
23.2330024028
 10
36.377258987
 20
23.2416816108
 10
36.3714602399
 20
23.250125077
 10
36.3660378502
 20
23.2583245547
 10
36.3609238556
 20
23.2663325298
 10
36.3561128779
 20
23.2741508589
 10
36.3516102954
 20
23.281773371
 10
36.3473642802
 20
23.2892414968
 10
36.3433707669
 20
23.296556661
 10
36.339633821
 20
23.3037143285
 10
36.3361138108
 20
23.3107476623
 10
36.3328076452
 20
23.3176577508
 10
36.3297184154
 20
23.3244412168
 10
36.3268157626
 20
23.3311249972
 10
36.3240973147
 20
23.3377099198
 10
36.3215654438
 20
23.3441934421
 10
36.3191969069
 20
23.3505977848
 10
36.3169899144
 20
23.3569233511
 10
36.3149462559
 20
23.3631684327
 10
36.3130480574
 20
23.369352335
 10
36.3112938312
 20
23.3754754185
 10
36.309685065
 20
23.3815363228
 10
36.3082083477
 20
23.3875519675
 10
36.3068624435
 20
23.3935226061
 10
36.3056485883
 20
23.399447214
 10
36.3045570779
 20
23.4053409463
 10
36.3035868557
 20
23.4112039592
 10
36.3027389785
 20
23.4170355003
 10
36.3020069124
 20
23.4228494869
 10
36.3013897199
 20
23.4286460514
 10
36.3008883387
 20
23.4344246008
 10
36.3004990482
 20
23.4401980665
 10
36.3002206081
 20
23.44597066
 10
36.3000542587
 20
23.4517378233
 10
36.3
 20
23.4574993804
  0
LWPOLYLINE
  5
447
100
AcDbEntity
  8
RACCORDO
100
AcDbPolyline
 62
250
  6
CONTINUOUS
 90
9
 70
0
 10
37.3
 20
22.5
 10
37.2999807456
 20
22.5000163128
 10
37.2998758584
 20
22.5000681344
 10
37.2996853385
 20
22.5001599288
 10
37.2994206011
 20
22.5002956416
 10
37.299070231
 20
22.5004804235
 10
37.2985999819
 20
22.5007225649
 10
37.2980127018
 20
22.5010298582
 10
37.2973055427
 20
22.5014092304
  0
LWPOLYLINE
  5
448
100
AcDbEntity
  8
RACCORDO
100
AcDbPolyline
 62
7
  6
CONTINUOUS
 90
32
 70
0
 10
37.4411489811
 20
22.4416932078
 10
37.4444821189
 20
22.4382910334
 10
37.4475988473
 20
22.4349476179
 10
37.4505230717
 20
22.4316482468
 10
37.4532698383
 20
22.42838703
 10
37.4558689403
 20
22.4251388664
 10
37.4583625884
 20
22.4218571716
 10
37.4607729604
 20
22.4185144759
 10
37.4631058673
 20
22.4151028365
 10
37.4653737181
 20
22.4116031071
 10
37.4675875191
 20
22.4079949956
 10
37.4697499481
 20
22.4042691162
 10
37.4718580137
 20
22.4004253659
 10
37.4739147567
 20
22.3964523701
 10
37.4759204719
 20
22.3923423005
 10
37.4778669147
 20
22.3881050531
 10
37.4797531262
 20
22.3837361579
 10
37.48157755
 20
22.3792316849
 10
37.4833312183
 20
22.3746069978
 10
37.4850111744
 20
22.3698644388
 10
37.4866158483
 20
22.3650025352
 10
37.4881391766
 20
22.3600343324
 10
37.489577075
 20
22.3549696419
 10
37.4909293283
 20
22.3498057717
 10
37.4921959401
 20
22.3445374229
 10
37.4933737444
 20
22.3391717068
 10
37.4944612734
 20
22.3337091946
 10
37.4954600695
 20
22.3281321965
 10
37.4963668927
 20
22.3224449566
 10
37.4971791157
 20
22.3166488992
 10
37.4978971687
 20
22.3107182385
 10
37.498516837
 20
22.3046554118
  0
LINE
  5
449
100
AcDbEntity
  8
0
100
AcDbLine
 62
7
  6
CONTINUOUS
 10
45.513389
 20
-34.900077
 11
45.513396
 21
-32.099944
  0
LINE
  5
44A
100
AcDbEntity
  8
0
100
AcDbLine
 62
7
  6
CONTINUOUS
 10
46.07341
 20
-34.90007
 11
46.073417
 21
-32.099944
  0
LINE
  5
44B
100
AcDbEntity
  8
0
100
AcDbLine
 62
7
  6
CONTINUOUS
 10
46.633417
 20
-34.90007
 11
46.633417
 21
-32.099944
  0
LINE
  5
44C
100
AcDbEntity
  8
0
100
AcDbLine
 62
7
  6
CONTINUOUS
 10
47.193438
 20
-34.90007
 11
47.193438
 21
-33.053575
  0
LINE
  5
44D
100
AcDbEntity
  8
0
100
AcDbLine
 62
7
  6
CONTINUOUS
 10
48.812384
 20
-34.90007
 11
48.812377
 21
-33.053575
  0
LINE
  5
44E
100
AcDbEntity
  8
RACCORDO
100
AcDbLine
 62
250
  6
CONTINUOUS
 10
-59.518965327
 20
39.5461989748
 11
-59.5015700288
 21
39.548911726
  0
LINE
  5
44F
100
AcDbEntity
  8
RACCORDO
100
AcDbLine
 62
250
  6
CONTINUOUS
 10
-59.5015700288
 20
39.548911726
 11
-59.4834191767
 21
39.5515790228
  0
LINE
  5
450
100
AcDbEntity
  8
RACCORDO
100
AcDbLine
 62
250
  6
CONTINUOUS
 10
-59.4834191767
 20
39.5515790228
 11
-59.4645265268
 21
39.5542055041
  0
LINE
  5
451
100
AcDbEntity
  8
RACCORDO
100
AcDbLine
 62
250
  6
CONTINUOUS
 10
-59.4645265268
 20
39.5542055041
 11
-59.4449063636
 21
39.5567858284
  0
LINE
  5
452
100
AcDbEntity
  8
RACCORDO
100
AcDbLine
 62
250
  6
CONTINUOUS
 10
-59.4449063636
 20
39.5567858284
 11
-59.4245728824
 21
39.5593148559
  0
LINE
  5
453
100
AcDbEntity
  8
RACCORDO
100
AcDbLine
 62
250
  6
CONTINUOUS
 10
-59.4245728824
 20
39.5593148559
 11
-59.4035418806
 21
39.5617972593
  0
LINE
  5
454
100
AcDbEntity
  8
RACCORDO
100
AcDbLine
 62
250
  6
CONTINUOUS
 10
-59.4035418806
 20
39.5617972593
 11
-59.3818289828
 21
39.5642277727
  0
LINE
  5
455
100
AcDbEntity
  8
RACCORDO
100
AcDbLine
 62
250
  6
CONTINUOUS
 10
-59.3818289828
 20
39.5642277727
 11
-59.3594498472
 21
39.5666015221
  0
LINE
  5
456
100
AcDbEntity
  8
RACCORDO
100
AcDbLine
 62
250
  6
CONTINUOUS
 10
-59.3594498472
 20
39.5666015221
 11
-59.3364221222
 21
39.5689231095
  0
LINE
  5
457
100
AcDbEntity
  8
RACCORDO
100
AcDbLine
 62
250
  6
CONTINUOUS
 10
-59.3364221222
 20
39.5689231095
 11
-59.3127627167
 21
39.5711874429
  0
LINE
  5
458
100
AcDbEntity
  8
RACCORDO
100
AcDbLine
 62
250
  6
CONTINUOUS
 10
-59.3127627167
 20
39.5711874429
 11
-59.2884886771
 21
39.573389937
  0
LWPOLYLINE
  5
459
100
AcDbEntity
  8
RACCORDO
100
AcDbPolyline
 62
250
  6
CONTINUOUS
 90
3
 70
0
 10
-59.2884886771
 20
39.573389937
 10
-59.2636193058
 20
39.5755350617
 10
-59.2509666932
 20
39.5765828706
  0
LINE
  5
45A
100
AcDbEntity
  8
RACCORDO
100
AcDbLine
 62
250
  6
CONTINUOUS
 10
59.2761267381
 20
39.5744706961
 11
59.2509662227
 21
39.5765839119
  0
LINE
  5
45B
100
AcDbEntity
  8
RACCORDO
100
AcDbLine
 62
250
  6
CONTINUOUS
 10
59.3007006326
 20
39.5722961987
 11
59.2761267381
 21
39.5744706961
  0
LINE
  5
45C
100
AcDbEntity
  8
RACCORDO
100
AcDbLine
 62
250
  6
CONTINUOUS
 10
59.3246695073
 20
39.5700620477
 11
59.3007006326
 21
39.5722961987
  0
LINE
  5
45D
100
AcDbEntity
  8
RACCORDO
100
AcDbLine
 62
250
  6
CONTINUOUS
 10
59.3480154165
 20
39.5677699159
 11
59.3246695073
 21
39.5700620477
  0
LINE
  5
45E
100
AcDbEntity
  8
RACCORDO
100
AcDbLine
 62
250
  6
CONTINUOUS
 10
59.3707208809
 20
39.5654215195
 11
59.3480154165
 21
39.5677699159
  0
LINE
  5
45F
100
AcDbEntity
  8
RACCORDO
100
AcDbLine
 62
250
  6
CONTINUOUS
 10
59.3927689007
 20
39.5630186166
 11
59.3707208809
 21
39.5654215195
  0
LINE
  5
460
100
AcDbEntity
  8
RACCORDO
100
AcDbLine
 62
250
  6
CONTINUOUS
 10
59.4141429684
 20
39.5605630064
 11
59.3927689007
 21
39.5630186166
  0
LINE
  5
461
100
AcDbEntity
  8
RACCORDO
100
AcDbLine
 62
250
  6
CONTINUOUS
 10
59.4348270809
 20
39.5580565273
 11
59.4141429684
 21
39.5605630064
  0
LINE
  5
462
100
AcDbEntity
  8
RACCORDO
100
AcDbLine
 62
250
  6
CONTINUOUS
 10
59.4548057518
 20
39.5555010561
 11
59.4348270809
 21
39.5580565273
  0
LINE
  5
463
100
AcDbEntity
  8
RACCORDO
100
AcDbLine
 62
250
  6
CONTINUOUS
 10
59.4740640229
 20
39.5528985061
 11
59.4548057518
 21
39.5555010561
  0
LINE
  5
464
100
AcDbEntity
  8
RACCORDO
100
AcDbLine
 62
250
  6
CONTINUOUS
 10
59.4925874754
 20
39.5502508257
 11
59.4740640229
 21
39.5528985061
  0
LINE
  5
465
100
AcDbEntity
  8
0
100
AcDbLine
 62
7
  6
CONTINUOUS
 10
49.372405
 20
-34.90007
 11
49.372405
 21
-32.099944
  0
LINE
  5
466
100
AcDbEntity
  8
0
100
AcDbLine
 62
7
  6
CONTINUOUS
 10
52.477192
 20
-34.900063
 11
52.477192
 21
-32.099937
  0
LINE
  5
467
100
AcDbEntity
  8
0
100
AcDbLine
 62
7
  6
CONTINUOUS
 10
53.029499
 20
-33.299352
 11
53.029492
 21
-32.617958
  0
LINE
  5
468
100
AcDbEntity
  8
0
100
AcDbLine
 62
7
  6
CONTINUOUS
 10
53.03722
 20
-34.900063
 11
53.037283
 21
-33.817373
  0
LINE
  5
469
100
AcDbEntity
  8
0
100
AcDbLine
 62
7
  6
CONTINUOUS
 10
43.961006
 20
-34.027982
 11
44.580023
 21
-32.099944
  0
LINE
  5
46A
100
AcDbEntity
  8
0
100
AcDbLine
 62
7
  6
CONTINUOUS
 10
44.24102
 20
-34.90007
 11
45.140051
 21
-32.099944
  0
LINE
  5
46B
100
AcDbEntity
  8
DRAFT
100
AcDbLine
 62
7
  6
CONTINUOUS
 10
59.8951844414
 20
3.5
 11
60.0
 21
3.6749773271
  0
LWPOLYLINE
  5
46C
100
AcDbEntity
  8
0
100
AcDbPolyline
 62
7
  6
CONTINUOUS
 90
7
 70
0
 43
0.3500000006
 10
0.0
 20
49.7500012665
 10
-1.5000000329
 20
49.7500012665
 10
0.0
 20
51.8928551788
 10
0.0
 20
52.3214286804
 10
-0.4285714127
 20
52.750002182
 10
-1.0714285848
 20
52.750002182
 10
-1.5000000329
 20
52.1071441956
  0
LINE
  5
46D
100
AcDbEntity
  8
DRAFT
100
AcDbLine
 62
7
  6
CONTINUOUS
 10
60.0
 20
-3.6749773271
 11
59.8951844414
 21
-3.5
  0
LINE
  5
46E
100
AcDbEntity
  8
RACCORDO
100
AcDbLine
 62
250
  6
CONTINUOUS
 10
58.4926179677
 20
-40.6909734094
 11
58.4926179677
 21
-39.6057773315
  0
LINE
  5
46F
100
AcDbEntity
  8
RACCORDO
100
AcDbLine
 62
250
  6
CONTINUOUS
 10
58.4926179677
 20
39.6057773315
 11
58.4926179677
 21
40.6909734094
  0
LWPOLYLINE
  5
470
100
AcDbEntity
  8
RACCORDO
100
AcDbPolyline
 62
250
  6
CONTINUOUS
 90
94
 70
0
 10
58.4926179677
 20
39.6057773315
 10
58.488459456
 20
38.7564874549
 10
58.4843911239
 20
37.9070374337
 10
58.4804129714
 20
37.0574307715
 10
58.4765249815
 20
36.2076706752
 10
58.4727271711
 20
35.3577609473
 10
58.4690195911
 20
34.5077059858
 10
58.4654022434
 20
33.657509433
 10
58.4618751261
 20
32.8071746607
 10
58.458438284
 20
31.9567056633
 10
58.4550917193
 20
31.1061062024
 10
58.4518354298
 20
30.2553795343
 10
58.4486694539
 20
29.4045288958
 10
58.4455937928
 20
28.5535579108
 10
58.4426084453
 20
27.7024699759
 10
58.4397134457
 20
26.8512679879
 10
58.4369087946
 20
25.9999553996
 10
58.4341944913
 20
25.1485357809
 10
58.4315705681
 20
24.2970122052
 10
58.4290370254
 20
23.445388038
 10
58.4265938628
 20
22.5936669388
 10
58.4242411107
 20
21.7418524218
 10
58.42197877
 20
20.8899479209
 10
58.4198068398
 20
20.0379570297
 10
58.4177253477
 20
19.1858835028
 10
58.4157342949
 20
18.3337308718
 10
58.4138336802
 20
17.4815026349
 10
58.4120235274
 20
16.6292024972
 10
58.4103038377
 20
15.7768340329
 10
58.40867461
 20
14.9244006993
 10
58.4071358642
 20
14.0719060261
 10
58.4056876014
 20
13.2193535683
 10
58.4043298205
 20
12.3667468041
 10
58.4030625379
 20
11.5140891484
 10
58.4018857548
 20
10.661384116
 10
58.4007994701
 20
9.8086352265
 10
58.399803697
 20
8.9558459031
 10
58.3988984366
 20
8.1030196452
 10
58.3980836878
 20
7.2501599887
 10
58.3973594607
 20
6.3972704122
 10
58.3967257563
 20
5.544354419
 10
58.3961825736
 20
4.6914155419
 10
58.3957299192
 20
3.8384573035
 10
58.3953677944
 20
2.9854832213
 10
58.395096198
 20
2.1324968144
 10
58.3949151334
 20
1.2795016085
 10
58.3948246016
 20
0.4265011222
 10
58.3948246016
 20
-0.4265011262
 10
58.3949151334
 20
-1.2795016124
 10
58.395096198
 20
-2.1324968184
 10
58.3953677944
 20
-2.9854832252
 10
58.3957299192
 20
-3.8384573073
 10
58.3961825736
 20
-4.6914155456
 10
58.3967257563
 20
-5.5443544227
 10
58.3973594607
 20
-6.3972704158
 10
58.3980836878
 20
-7.2501599922
 10
58.3988984366
 20
-8.1030196487
 10
58.399803697
 20
-8.9558459066
 10
58.4007994701
 20
-9.80863523
 10
58.4018857548
 20
-10.6613841196
 10
58.4030625379
 20
-11.5140891521
 10
58.4043298205
 20
-12.3667468079
 10
58.4056876014
 20
-13.2193535724
 10
58.4071358642
 20
-14.0719060304
 10
58.40867461
 20
-14.9244007037
 10
58.4103038377
 20
-15.7768340375
 10
58.4120235274
 20
-16.6292025019
 10
58.4138336802
 20
-17.4815026396
 10
58.4157342949
 20
-18.3337308764
 10
58.4177253477
 20
-19.1858835071
 10
58.4198068399
 20
-20.0379570336
 10
58.42197877
 20
-20.8899479244
 10
58.4242411107
 20
-21.7418524248
 10
58.4265938628
 20
-22.5936669413
 10
58.4290370254
 20
-23.44538804
 10
58.4315705681
 20
-24.2970122068
 10
58.4341944913
 20
-25.1485357824
 10
58.4369087946
 20
-25.9999554012
 10
58.4397134457
 20
-26.8512679899
 10
58.4426084454
 20
-27.7024699786
 10
58.4455937929
 20
-28.5535579146
 10
58.4486694539
 20
-29.4045289007
 10
58.4518354298
 20
-30.2553795404
 10
58.4550917193
 20
-31.1061062098
 10
58.458438284
 20
-31.9567056716
 10
58.4618751261
 20
-32.8071746695
 10
58.4654022434
 20
-33.6575094421
 10
58.4690195911
 20
-34.5077059947
 10
58.4727271711
 20
-35.3577609553
 10
58.4765249815
 20
-36.2076706819
 10
58.4804129714
 20
-37.0574307766
 10
58.4843911239
 20
-37.9070374372
 10
58.488459456
 20
-38.7564874568
 10
58.4926179677
 20
-39.6057773315
  0
LINE
  5
471
100
AcDbEntity
  8
0
100
AcDbLine
 62
7
  6
CONTINUOUS
 10
48.002911
 20
-33.923486
 11
48.525804
 21
-32.099944
  0
LINE
  5
472
100
AcDbEntity
  8
0
100
AcDbLine
 62
7
  6
CONTINUOUS
 10
48.282911
 20
-34.900063
 11
48.812377
 21
-33.053575
  0
LINE
  5
473
100
AcDbEntity
  8
0
100
AcDbLine
 62
7
  6
CONTINUOUS
 10
49.74575
 20
-34.90007
 11
50.644767
 21
-32.099937
  0
LINE
  5
474
100
AcDbEntity
  8
0
100
AcDbLine
 62
7
  6
CONTINUOUS
 10
50.653391
 20
-33.81738
 11
50.924788
 21
-32.972032
  0
LINE
  5
475
100
AcDbEntity
  8
0
100
AcDbLine
 62
7
  6
CONTINUOUS
 10
50.305771
 20
-34.900063
 11
50.48257
 21
-34.349401
  0
LINE
  5
476
100
AcDbEntity
  8
RACCORDO
100
AcDbLine
 62
250
  6
CONTINUOUS
 10
38.5583191773
 20
-39.3228767649
 11
38.4877262337
 21
-39.3930598667
  0
LINE
  5
477
100
AcDbEntity
  8
RACCORDO
100
AcDbLine
 62
250
  6
CONTINUOUS
 10
38.4877262337
 20
-39.3930598667
 11
38.4166383553
 21
-39.4635311047
  0
LINE
  5
478
100
AcDbEntity
  8
RACCORDO
100
AcDbLine
 62
250
  6
CONTINUOUS
 10
38.5583191777
 20
39.3228767647
 11
38.4166383553
 21
39.4635311044
  0
LWPOLYLINE
  5
479
100
AcDbEntity
  8
RACCORDO
100
AcDbPolyline
 62
250
  6
CONTINUOUS
 90
115
 70
0
 10
59.6909734094
 20
39.4926179677
 10
59.6908149112
 20
39.5091001567
 10
59.6904297335
 20
39.5255793735
 10
59.689817943
 20
39.5420525004
 10
59.6889796467
 20
39.5585164693
 10
59.6879149986
 20
39.5749681164
 10
59.6866242065
 20
39.5914041833
 10
59.6851075199
 20
39.6078215089
 10
59.6833652219
 20
39.6242170387
 10
59.6813976411
 20
39.6405876798
 10
59.6792051484
 20
39.6569303407
 10
59.676788159
 20
39.6732419236
 10
59.6741471314
 20
39.6895193334
 10
59.6712825658
 20
39.7057594873
 10
59.6681950036
 20
39.721959316
 10
59.664885029
 20
39.7381157551
 10
59.6613532679
 20
39.7542257481
 10
59.6576003888
 20
39.7702862469
 10
59.6536271017
 20
39.7862942121
 10
59.6494341584
 20
39.8022466148
 10
59.6450223523
 20
39.8181404373
 10
59.640392518
 20
39.8339726727
 10
59.6355455312
 20
39.8497403258
 10
59.6304823092
 20
39.8654404134
 10
59.6252038097
 20
39.881069965
 10
59.6197110316
 20
39.8966260237
 10
59.614005014
 20
39.9121056464
 10
59.6080868364
 20
39.9275059044
 10
59.6019576184
 20
39.9428238841
 10
59.5956185198
 20
39.9580566874
 10
59.5890707399
 20
39.9732014325
 10
59.5823155173
 20
39.9882552539
 10
59.5753541303
 20
40.0032153036
 10
59.5681878957
 20
40.0180787514
 10
59.5608181695
 20
40.032842785
 10
59.5532463459
 20
40.0475046112
 10
59.5454738575
 20
40.0620614561
 10
59.5375021748
 20
40.0765105656
 10
59.5293328059
 20
40.0908492061
 10
59.5209672965
 20
40.1050746647
 10
59.5124072293
 20
40.1191842501
 10
59.5036542238
 20
40.1331752928
 10
59.494709936
 20
40.1470451458
 10
59.485576058
 20
40.160791185
 10
59.4762543181
 20
40.1744108097
 10
59.4667464797
 20
40.1879014432
 10
59.4570543418
 20
40.201260533
 10
59.447179738
 20
40.2144855519
 10
59.4371245365
 20
40.2275739975
 10
59.4268906398
 20
40.2405233938
 10
59.4164799839
 20
40.2533312907
 10
59.4058945386
 20
40.265995265
 10
59.3951363066
 20
40.2785129208
 10
59.3842073232
 20
40.2908818898
 10
59.3731096562
 20
40.3030998319
 10
59.3618454051
 20
40.3151644355
 10
59.3504167011
 20
40.3270734181
 10
59.3388257065
 20
40.3388245264
 10
59.3270746141
 20
40.3504155374
 10
59.3151656473
 20
40.361844258
 10
59.3031010591
 20
40.373108526
 10
59.2908831321
 20
40.3842062103
 10
59.2785141779
 20
40.3951352111
 10
59.2659965365
 20
40.4058934609
 10
59.2533325763
 20
40.4164789242
 10
59.2405246932
 20
40.4268895983
 10
59.2275753104
 20
40.4371235135
 10
59.2144868778
 20
40.4471787338
 10
59.2012618717
 20
40.4570533565
 10
59.1879027942
 20
40.4667455137
 10
59.1744121727
 20
40.4762533714
 10
59.1607925596
 20
40.485575131
 10
59.1470465317
 20
40.4947090287
 10
59.1331766896
 20
40.5036533366
 10
59.1191856574
 20
40.5124063623
 10
59.1050760821
 20
40.5209664499
 10
59.0908506333
 20
40.5293319798
 10
59.0765120022
 20
40.5375013693
 10
59.0620629017
 20
40.5454730729
 10
59.0475060654
 20
40.5532455822
 10
59.0328442474
 20
40.5608174269
 10
59.0180802217
 20
40.5681871744
 10
59.0032167814
 20
40.5753534302
 10
58.9882567388
 20
40.5823148387
 10
58.9732029241
 20
40.5890700828
 10
58.9580581855
 20
40.5956178843
 10
58.9428253883
 20
40.6019570046
 10
58.9275074143
 20
40.6080862442
 10
58.9121071617
 20
40.6140044436
 10
58.8966275441
 20
40.619710483
 10
58.8810714903
 20
40.6252032829
 10
58.8654419432
 20
40.6304818042
 10
58.8497418599
 20
40.6355450481
 10
58.8339742108
 20
40.6403920567
 10
58.818141979
 20
40.645021913
 10
58.80224816
 20
40.649433741
 10
58.7862957607
 20
40.653626706
 10
58.7702877992
 20
40.6576000148
 10
58.7542273041
 20
40.6613529156
 10
58.7381173141
 20
40.6648846984
 10
58.7219608769
 20
40.668194695
 10
58.7057610494
 20
40.6712822792
 10
58.6895208965
 20
40.6741468668
 10
58.6732434906
 20
40.6767879158
 10
58.6569319114
 20
40.6792049267
 10
58.6405892449
 20
40.681397442
 10
58.6242185831
 20
40.683365047
 10
58.6078230233
 20
40.6851073695
 10
58.5914056673
 20
40.6866240797
 10
58.5749696213
 20
40.6879148908
 10
58.5585179949
 20
40.6889795585
 10
58.5420539007
 20
40.6898178813
 10
58.5255804534
 20
40.6904297008
 10
58.5091007698
 20
40.6908149011
 10
58.4926179677
 20
40.6909734094
  0
LINE
  5
47A
100
AcDbEntity
  8
DRAFT
100
AcDbLine
 62
7
  6
CONTINUOUS
 10
59.8951844414
 20
-3.5
 11
59.8951844414
 21
3.5
  0
LINE
  5
47B
100
AcDbEntity
  8
RACCORDO
100
AcDbLine
 62
7
  6
CONTINUOUS
 10
60.0
 20
39.8016445583
 11
60.0
 21
3.6749773271
  0
LINE
  5
47C
100
AcDbEntity
  8
RACCORDO
100
AcDbLine
 62
7
  6
CONTINUOUS
 10
60.0
 20
-3.6749773271
 11
60.0
 21
-39.8016445583
  0
LWPOLYLINE
  5
47D
100
AcDbEntity
  8
RACCORDO
100
AcDbPolyline
 62
250
  6
CONTINUOUS
 90
97
 70
0
 10
59.6909734094
 20
39.4926179677
 10
59.6869435064
 20
38.6722200732
 10
59.6829982283
 20
37.8516775277
 10
59.6791375751
 20
37.0309903311
 10
59.6753615296
 20
36.21015469
 10
59.6716701091
 20
35.3891743978
 10
59.6680633649
 20
34.5680608351
 10
59.6645413005
 20
33.7468144587
 10
59.6611039125
 20
32.9254348118
 10
59.6577512421
 20
32.1039319038
 10
59.6544832912
 20
31.2823059416
 10
59.6513000578
 20
30.4605567184
 10
59.6482015775
 20
29.6386936236
 10
59.6451878516
 20
28.816716794
 10
59.6422588787
 20
27.9946260927
 10
59.6394146904
 20
27.1724304987
 10
59.6366552872
 20
26.3501299707
 10
59.6339806686
 20
25.52772455
 10
59.631390864
 20
24.7052233396
 10
59.6288858739
 20
23.882626222
 10
59.6264656979
 20
23.0599333147
 10
59.624130364
 20
22.237154073
 10
59.6218798729
 20
21.4142883925
 10
59.6197142238
 20
20.5913363775
 10
59.6176334426
 20
19.7683077969
 10
59.6156375304
 20
18.9452026546
 10
59.6137264862
 20
18.1220209465
 10
59.6119003324
 20
17.2987724288
 10
59.6101590702
 20
16.4754571425
 10
59.6085026986
 20
15.6520750465
 10
59.6069312367
 20
14.8286357746
 10
59.6054446855
 20
14.0051393764
 10
59.6040430441
 20
13.1815858023
 10
59.6027263283
 20
12.3579845365
 10
59.6014945392
 20
11.5343355832
 10
59.6003476757
 20
10.7106389382
 10
59.599285751
 20
9.8869040737
 10
59.598308766
 20
9.0631309782
 10
59.5974167198
 20
8.2393196631
 10
59.5966096227
 20
7.4154796345
 10
59.5958874755
 20
6.5916108737
 10
59.5952502774
 20
5.7677133995
 10
59.5946980357
 20
4.9437967742
 10
59.5942307515
 20
4.1198609937
 10
59.5938484237
 20
3.2959060621
 10
59.5935510568
 20
2.4719415552
 10
59.5933386518
 20
1.6479674731
 10
59.5932112077
 20
0.8239838156
 10
59.593168726
 20
0.0000001582
 10
59.5932112077
 20
-0.8239834992
 10
59.5933386518
 20
-1.6479671566
 10
59.5935510567
 20
-2.4719412386
 10
59.5938484236
 20
-3.2959057453
 10
59.5942307513
 20
-4.1198606767
 10
59.5946980355
 20
-4.9437964571
 10
59.5952502772
 20
-5.7677130822
 10
59.5958874752
 20
-6.5916105564
 10
59.5966096224
 20
-7.4154793171
 10
59.5974167195
 20
-8.2393193456
 10
59.5983087657
 20
-9.0631306607
 10
59.5992857506
 20
-9.8869037561
 10
59.6003476753
 20
-10.7106386205
 10
59.6014945387
 20
-11.5343352653
 10
59.6027263278
 20
-12.3579842182
 10
59.6040430435
 20
-13.1815854833
 10
59.605444685
 20
-14.0051390566
 10
59.6069312361
 20
-14.8286354536
 10
59.608502698
 20
-15.6520747241
 10
59.6101590696
 20
-16.4754568184
 10
59.6119003317
 20
-17.2987721032
 10
59.6137264854
 20
-18.1220206194
 10
59.6156375297
 20
-18.9452023262
 10
59.6176334418
 20
-19.7683074675
 10
59.6197142229
 20
-20.5913360475
 10
59.621879872
 20
-21.4142880621
 10
59.6241303631
 20
-22.2371537428
 10
59.626465697
 20
-23.0599329855
 10
59.6288858729
 20
-23.8826258944
 10
59.6313908629
 20
-24.7052230132
 10
59.6339806675
 20
-25.5277242243
 10
59.6366552862
 20
-26.3501296453
 10
59.6394146893
 20
-27.1724301729
 10
59.6422588776
 20
-27.994625766
 10
59.6451878504
 20
-28.8167164656
 10
59.6482015763
 20
-29.6386932926
 10
59.6513000565
 20
-30.4605563832
 10
59.6544832898
 20
-31.2823056012
 10
59.6577512407
 20
-32.1039315579
 10
59.661103911
 20
-32.9254344583
 10
59.664541299
 20
-33.7468140975
 10
59.6680633633
 20
-34.5680604726
 10
59.6716701074
 20
-35.389174035
 10
59.675361528
 20
-36.2101543335
 10
59.6791375736
 20
-37.0309900116
 10
59.6829982272
 20
-37.8516772839
 10
59.6869435058
 20
-38.672219936
 10
59.6909734094
 20
-39.4926179677
  0
LWPOLYLINE
  5
47E
100
AcDbEntity
  8
RACCORDO
100
AcDbPolyline
 62
250
  6
CONTINUOUS
 90
115
 70
0
 10
59.6909734094
 20
-39.4926179677
 10
59.6908149014
 20
-39.5091007551
 10
59.6904297017
 20
-39.525580424
 10
59.6898178833
 20
-39.5420538566
 10
59.6889795618
 20
-39.5585179363
 10
59.687914896
 20
-39.574969548
 10
59.6866240872
 20
-39.5914055794
 10
59.6851073797
 20
-39.6078229207
 10
59.6833650603
 20
-39.624218466
 10
59.6813974588
 20
-39.6405891132
 10
59.6792049473
 20
-39.6569317652
 10
59.6767879408
 20
-39.67324333
 10
59.6741468964
 20
-39.6895207216
 10
59.6712823139
 20
-39.7057608603
 10
59.6681947352
 20
-39.7219606737
 10
59.6648847445
 20
-39.7381170969
 10
59.6613529679
 20
-39.7542270731
 10
59.6576000737
 20
-39.7702875544
 10
59.653626772
 20
-39.7862955023
 10
59.6494338144
 20
-39.8022478882
 10
59.6450219942
 20
-39.818141694
 10
59.6403921461
 20
-39.8339739127
 10
59.635545146
 20
-39.8497415488
 10
59.6304819111
 20
-39.8654416194
 10
59.6252033991
 20
-39.881071154
 10
59.6197106088
 20
-39.8966271955
 10
59.6140045793
 20
-39.912106801
 10
59.6080863903
 20
-39.9275070417
 10
59.6019571614
 20
-39.942825004
 10
59.5956180522
 20
-39.9580577898
 10
59.589070262
 20
-39.9732025172
 10
59.5823150297
 20
-39.988256321
 10
59.5753536332
 20
-40.0032163529
 10
59.5681873897
 20
-40.0180797827
 10
59.5608176549
 20
-40.0328437983
 10
59.5532458232
 20
-40.0475056065
 10
59.5454733271
 20
-40.0620624332
 10
59.5375016372
 20
-40.0765115245
 10
59.5293322615
 20
-40.0908501466
 10
59.5209667457
 20
-40.1050755869
 10
59.5124066726
 20
-40.1191851538
 10
59.5036536615
 20
-40.133176178
 10
59.4947093687
 20
-40.1470460124
 10
59.4855754861
 20
-40.160792033
 10
59.476253742
 20
-40.1744116391
 10
59.4667458999
 20
-40.187902254
 10
59.4570537587
 20
-40.2012613252
 10
59.4471791521
 20
-40.2144863254
 10
59.4371239482
 20
-40.2275747525
 10
59.4268900495
 20
-40.2405241302
 10
59.4164793922
 20
-40.2533320085
 10
59.4058939459
 20
-40.2659959643
 10
59.3951357132
 20
-40.2785136017
 10
59.3842067296
 20
-40.2908825524
 10
59.3731090628
 20
-40.3031004762
 10
59.3618448124
 20
-40.3151650616
 10
59.3504161096
 20
-40.327074026
 10
59.3388251165
 20
-40.3388251165
 10
59.327074026
 20
-40.3504161096
 10
59.3151650616
 20
-40.3618448124
 10
59.3031004762
 20
-40.3731090628
 10
59.2908825524
 20
-40.3842067296
 10
59.2785136017
 20
-40.3951357132
 10
59.2659959643
 20
-40.4058939459
 10
59.2533320085
 20
-40.4164793922
 10
59.2405241302
 20
-40.4268900495
 10
59.2275747525
 20
-40.4371239482
 10
59.2144863254
 20
-40.4471791521
 10
59.2012613252
 20
-40.4570537587
 10
59.187902254
 20
-40.4667458999
 10
59.1744116391
 20
-40.476253742
 10
59.160792033
 20
-40.4855754861
 10
59.1470460124
 20
-40.4947093687
 10
59.133176178
 20
-40.5036536615
 10
59.1191851538
 20
-40.5124066726
 10
59.1050755869
 20
-40.5209667457
 10
59.0908501466
 20
-40.5293322615
 10
59.0765115245
 20
-40.5375016372
 10
59.0620624332
 20
-40.5454733271
 10
59.0475056065
 20
-40.5532458232
 10
59.0328437983
 20
-40.5608176549
 10
59.0180797827
 20
-40.5681873897
 10
59.0032163529
 20
-40.5753536332
 10
58.988256321
 20
-40.5823150297
 10
58.9732025172
 20
-40.589070262
 10
58.9580577898
 20
-40.5956180522
 10
58.942825004
 20
-40.6019571614
 10
58.9275070417
 20
-40.6080863903
 10
58.912106801
 20
-40.6140045793
 10
58.8966271955
 20
-40.6197106088
 10
58.881071154
 20
-40.6252033991
 10
58.8654416194
 20
-40.6304819111
 10
58.8497415488
 20
-40.635545146
 10
58.8339739127
 20
-40.6403921461
 10
58.818141694
 20
-40.6450219942
 10
58.8022478882
 20
-40.6494338144
 10
58.7862955023
 20
-40.653626772
 10
58.7702875544
 20
-40.6576000737
 10
58.7542270731
 20
-40.6613529679
 10
58.7381170969
 20
-40.6648847445
 10
58.7219606737
 20
-40.6681947352
 10
58.7057608603
 20
-40.6712823139
 10
58.6895207216
 20
-40.6741468964
 10
58.67324333
 20
-40.6767879408
 10
58.6569317652
 20
-40.6792049473
 10
58.6405891132
 20
-40.6813974588
 10
58.624218466
 20
-40.6833650603
 10
58.6078229207
 20
-40.6851073797
 10
58.5914055794
 20
-40.6866240872
 10
58.574969548
 20
-40.687914896
 10
58.5585179363
 20
-40.6889795618
 10
58.5420538566
 20
-40.6898178833
 10
58.525580424
 20
-40.6904297017
 10
58.5091007551
 20
-40.6908149014
 10
58.4926179677
 20
-40.6909734094
  0
LWPOLYLINE
  5
47F
100
AcDbEntity
  8
RACCORDO
100
AcDbPolyline
 62
250
  6
CONTINUOUS
 90
37
 70
0
 10
59.6909734094
 20
-39.4926179677
 10
59.69000535
 20
-39.4941710578
 10
59.6888137377
 20
-39.4957203249
 10
59.6873987315
 20
-39.4972673619
 10
59.6857597344
 20
-39.4988154664
 10
59.6838968127
 20
-39.5003640064
 10
59.6818114118
 20
-39.5019090695
 10
59.6795035298
 20
-39.5034527412
 10
59.6769727782
 20
-39.5049962085
 10
59.6742209395
 20
-39.5065351317
 10
59.6712480497
 20
-39.5080717697
 10
59.6680537497
 20
-39.5096075676
 10
59.6646400809
 20
-39.5111377643
 10
59.6610071749
 20
-39.5126647784
 10
59.6571547437
 20
-39.5141903112
 10
59.6530849871
 20
-39.5157092059
 10
59.6487981684
 20
-39.5172240262
 10
59.6442941212
 20
-39.5187367173
 10
59.6395751209
 20
-39.5202417564
 10
59.634641596
 20
-39.5217418347
 10
59.6294935431
 20
-39.5232391268
 10
59.6241332411
 20
-39.5247277802
 10
59.6185613078
 20
-39.5262105951
 10
59.6127779382
 20
-39.5276899551
 10
59.6067853586
 20
-39.529159721
 10
59.6005843929
 20
-39.5306227813
 10
59.5941754608
 20
-39.5320817049
 10
59.5875606954
 20
-39.5335301133
 10
59.5807411359
 20
-39.5349709619
 10
59.5737174443
 20
-39.5364069789
 10
59.5664916345
 20
-39.5378315955
 10
59.5590649645
 20
-39.5392478133
 10
59.5514383478
 20
-39.5406584916
 10
59.543613666
 20
-39.5420569218
 10
59.5355923939
 20
-39.5434461313
 10
59.5273756987
 20
-39.5448290821
 10
59.518965327
 20
-39.5461989747
  0
LWPOLYLINE
  5
480
100
AcDbEntity
  8
RACCORDO
100
AcDbPolyline
 62
250
  6
CONTINUOUS
 90
39
 70
0
 10
59.6909734094
 20
39.4926179677
 10
59.6900058629
 20
39.4941681985
 10
59.6888141817
 20
39.4957181396
 10
59.687398589
 20
39.4972675009
 10
59.6857593497
 20
39.4988159926
 10
59.6838967707
 20
39.5003633247
 10
59.6818112006
 20
39.5019092075
 10
59.6795030298
 20
39.5034533517
 10
59.6769726903
 20
39.5049954683
 10
59.6742206559
 20
39.5065352685
 10
59.6712474417
 20
39.5080724642
 10
59.6680536041
 20
39.5096067677
 10
59.6646397411
 20
39.5111378917
 10
59.6610064916
 20
39.5126655495
 10
59.6571545359
 20
39.5141894553
 10
59.6530845948
 20
39.5157093239
 10
59.6487974302
 20
39.5172248706
 10
59.6442938447
 20
39.5187358118
 10
59.6395746812
 20
39.5202418647
 10
59.6346408232
 20
39.5217427474
 10
59.629493194
 20
39.5232381789
 10
59.6241327575
 20
39.5247278793
 10
59.6185605168
 20
39.5262115698
 10
59.6127775151
 20
39.5276889726
 10
59.6067848349
 20
39.5291598112
 10
59.6005835979
 20
39.5306238102
 10
59.5941749649
 20
39.5320806956
 10
59.5875601355
 20
39.5335301948
 10
59.5807403479
 20
39.5349720363
 10
59.5737168787
 20
39.5364059503
 10
59.5664910426
 20
39.5378316684
 10
59.5590641922
 20
39.5392489237
 10
59.5514377176
 20
39.5406574509
 10
59.5436130465
 20
39.5420569863
 10
59.5355916435
 20
39.543447268
 10
59.5273750101
 20
39.5448280358
 10
59.5189646843
 20
39.5461990311
 10
59.5103622405
 20
39.5475599974
 10
59.4925874754
 20
39.5502508257
  0
LWPOLYLINE
  5
481
100
AcDbEntity
  8
RACCORDO
100
AcDbPolyline
 62
250
  6
CONTINUOUS
 90
10
 70
0
 10
-79.8262883089
 20
-39.6041950589
 10
-79.8281773364
 20
-39.6044541972
 10
-79.8298437688
 20
-39.6046947021
 10
-79.8312878879
 20
-39.6049119302
 10
-79.832509121
 20
-39.6051081405
 10
-79.8335069798
 20
-39.6052855947
 10
-79.834281809
 20
-39.6054396507
 10
-79.8348334318
 20
-39.605570281
 10
-79.8351612549
 20
-39.6056820765
 10
-79.8352650293
 20
-39.6057773315
  0
LINE
  5
482
100
AcDbEntity
  8
RACCORDO
100
AcDbLine
 62
250
  6
CONTINUOUS
 10
-79.8218451341
 20
-39.6036118702
 11
-79.8262883089
 21
-39.6041950589
  0
LINE
  5
483
100
AcDbEntity
  8
RACCORDO
100
AcDbLine
 62
250
  6
CONTINUOUS
 10
-79.8135231805
 20
-39.6025825784
 11
-79.8218451341
 21
-39.6036118702
  0
LINE
  5
484
100
AcDbEntity
  8
RACCORDO
100
AcDbLine
 62
250
  6
CONTINUOUS
 10
-79.7993566431
 20
-39.6009231961
 11
-79.8135231805
 21
-39.6025825784
  0
LINE
  5
485
100
AcDbEntity
  8
RACCORDO
100
AcDbLine
 62
250
  6
CONTINUOUS
 10
-79.7716175982
 20
-39.5978267277
 11
-79.7993566431
 21
-39.6009231961
  0
LINE
  5
486
100
AcDbEntity
  8
RACCORDO
100
AcDbLine
 62
250
  6
CONTINUOUS
 10
-79.6857047748
 20
-39.5887222243
 11
-79.7716175982
 21
-39.5978267277
  0
LINE
  5
487
100
AcDbEntity
  8
RACCORDO
100
AcDbLine
 62
250
  6
CONTINUOUS
 10
-79.6067042942
 20
-39.5806211244
 11
-79.6857047748
 21
-39.5887222243
  0
LINE
  5
488
100
AcDbEntity
  8
RACCORDO
100
AcDbLine
 62
250
  6
CONTINUOUS
 10
-79.5770540969
 20
-39.5776179701
 11
-79.6067042942
 21
-39.5806211244
  0
LINE
  5
489
100
AcDbEntity
  8
RACCORDO
100
AcDbLine
 62
250
  6
CONTINUOUS
 10
-79.5458264924
 20
-39.574471643
 11
-79.5770540969
 21
-39.5776179701
  0
LWPOLYLINE
  5
48A
100
AcDbEntity
  8
RACCORDO
100
AcDbPolyline
 62
250
  6
CONTINUOUS
 90
3
 70
0
 10
-79.4788520413
 20
-39.5677709013
 10
-79.4904194581
 20
-39.5689231095
 10
-79.5458264924
 20
-39.574471643
  0
LWPOLYLINE
  5
48B
100
AcDbEntity
  8
RACCORDO
100
AcDbPolyline
 62
250
  6
CONTINUOUS
 90
3
 70
0
 10
-79.3284555526
 20
-39.5528995469
 10
-79.3417548225
 20
-39.5542055041
 10
-79.4788520413
 20
-39.5677709013
  0
LWPOLYLINE
  5
48C
100
AcDbEntity
  8
RACCORDO
100
AcDbPolyline
 62
250
  6
CONTINUOUS
 90
3
 70
0
 10
-79.069578106
 20
-39.5276899551
 10
-79.0847922118
 20
-39.529159721
 10
-79.3284555526
 20
-39.5528995469
  0
LWPOLYLINE
  5
48D
100
AcDbEntity
  8
RACCORDO
100
AcDbPolyline
 62
250
  6
CONTINUOUS
 90
3
 70
0
 10
-78.9293834485
 20
-39.5141903112
 10
-78.9452155483
 20
-39.5157092059
 10
-79.069578106
 20
-39.5276899551
  0
LWPOLYLINE
  5
48E
100
AcDbEntity
  8
RACCORDO
100
AcDbPolyline
 62
250
  6
CONTINUOUS
 90
3
 70
0
 10
-78.8815731125
 20
-39.5096075676
 10
-78.8975582539
 20
-39.5111377643
 10
-78.9293834485
 20
-39.5141903112
  0
LWPOLYLINE
  5
48F
100
AcDbEntity
  8
RACCORDO
100
AcDbPolyline
 62
250
  6
CONTINUOUS
 90
3
 70
0
 10
-78.703415525
 20
-39.4926179677
 10
-78.7197391398
 20
-39.4941710578
 10
-78.8815731125
 20
-39.5096075676
  0
LINE
  5
490
100
AcDbEntity
  8
RACCORDO
100
AcDbLine
 62
7
  6
CONTINUOUS
 10
-78.703415525
 20
-40.6909734094
 11
-72.8068369095
 21
-41.0
  0
LINE
  5
491
100
AcDbEntity
  8
RACCORDO
100
AcDbLine
 62
250
  6
CONTINUOUS
 10
-78.7034155248
 20
-39.4926179677
 11
-72.8068369095
 21
-39.8016445583
  0
LWPOLYLINE
  5
492
100
AcDbEntity
  8
0
100
AcDbPolyline
 62
7
  6
CONTINUOUS
 90
10
 70
0
 43
0.3500000006
 10
-75.9711235199
 20
49.7500012665
 10
-75.1139810486
 20
50.6071437378
 10
-74.8996920319
 20
51.4642862091
 10
-74.8996920319
 20
52.3214286804
 10
-75.3282655334
 20
52.750002182
 10
-75.9711235199
 20
52.750002182
 10
-76.3996970215
 20
52.3214286804
 10
-76.3996970215
 20
51.4642862091
 10
-75.9711235199
 20
51.0357127075
 10
-75.0425498657
 20
51.0357127075
  0
LINE
  5
493
100
AcDbEntity
  8
0
100
AcDbLine
 62
7
  6
CONTINUOUS
 10
-80.254308639
 20
-34.900056
 11
-80.4048290126
 21
-34.900056
  0
LINE
  5
494
100
AcDbEntity
  8
0
100
AcDbLine
 62
7
  6
CONTINUOUS
 10
-80.3486114972
 20
-33.7500306669
 11
-80.4990979769
 21
-33.7500306669
  0
LINE
  5
495
100
AcDbEntity
  8
0
100
AcDbLine
 62
7
  6
CONTINUOUS
 10
-80.4783667501
 20
-32.099937
 11
-80.6288066187
 21
-32.099937
  0
LWPOLYLINE
  5
496
100
AcDbEntity
  8
0
100
AcDbPolyline
 62
7
  6
CONTINUOUS
 90
3
 70
0
 43
0.3500000006
 10
-77.3996973267
 20
50.0357124023
 10
-77.4711194458
 20
49.8214279175
 10
-77.6139818115
 20
49.5357122498
  0
LWPOLYLINE
  5
497
100
AcDbEntity
  8
0
100
AcDbPolyline
 62
7
  6
CONTINUOUS
 90
7
 70
0
 43
0.3500000006
 10
-90.4568389893
 20
1.5000001373
 10
-90.4568389893
 20
-0.0000003204
 10
-92.5996929016
 20
1.5000001373
 10
-93.0282618713
 20
1.5000001373
 10
-93.4568399048
 20
1.0714289017
 10
-93.4568399048
 20
0.4285709152
 10
-92.8139773865
 20
-0.0000003204
  0
LWPOLYLINE
  5
498
100
AcDbEntity
  8
0
100
AcDbPolyline
 62
7
  6
CONTINUOUS
 90
13
 70
0
 43
0.3500000006
 10
-92.1711239319
 20
-1.9285708809
 10
-92.3854084167
 20
-2.2142854156
 10
-93.0282618713
 20
-2.2142854156
 10
-93.4568399048
 20
-1.9285708809
 10
-93.4568399048
 20
-1.2857140274
 10
-93.0282618713
 20
-1.0000006256
 10
-92.3854084167
 20
-1.0000006256
 10
-92.1711239319
 20
-1.2857140274
 10
-91.7425549622
 20
-0.8571427917
 10
-90.885407959
 20
-0.8571427917
 10
-90.4568389893
 20
-1.2857140274
 10
-90.4568389893
 20
-1.9285708809
 10
-90.885407959
 20
-2.3571432495
  0
LWPOLYLINE
  5
499
100
AcDbEntity
  8
RACCORDO
100
AcDbPolyline
 62
250
  6
CONTINUOUS
 90
31
 70
0
 10
-78.7232613764
 20
-40.589070262
 10
-78.72281083
 20
-40.5956180522
 10
-78.7223447321
 20
-40.6019571614
 10
-78.721863171
 20
-40.6080863903
 10
-78.7213662378
 20
-40.6140045793
 10
-78.7208540264
 20
-40.6197106088
 10
-78.7203266337
 20
-40.6252033991
 10
-78.7197841596
 20
-40.6304819111
 10
-78.7192267067
 20
-40.635545146
 10
-78.7186543804
 20
-40.6403921461
 10
-78.718067289
 20
-40.6450219942
 10
-78.7174655436
 20
-40.6494338144
 10
-78.7168492581
 20
-40.653626772
 10
-78.716218549
 20
-40.6576000737
 10
-78.7155735357
 20
-40.6613529679
 10
-78.7149143402
 20
-40.6648847445
 10
-78.7142410872
 20
-40.6681947352
 10
-78.7135539041
 20
-40.6712823139
 10
-78.7128529209
 20
-40.6741468964
 10
-78.7121382702
 20
-40.6767879408
 10
-78.7114100873
 20
-40.6792049473
 10
-78.7106685099
 20
-40.6813974588
 10
-78.7099136782
 20
-40.6833650603
 10
-78.7091457352
 20
-40.6851073797
 10
-78.7083648261
 20
-40.6866240872
 10
-78.7075710986
 20
-40.687914896
 10
-78.7067647029
 20
-40.6889795618
 10
-78.7059457916
 20
-40.6898178833
 10
-78.7051145197
 20
-40.6904297017
 10
-78.7042710443
 20
-40.6908149014
 10
-78.703415525
 20
-40.6909734094
  0
LINE
  5
49A
100
AcDbEntity
  8
RACCORDO
100
AcDbLine
 62
250
  6
CONTINUOUS
 10
-78.7241154768
 20
-40.5753536332
 11
-78.7232613764
 21
-40.589070262
  0
LINE
  5
49B
100
AcDbEntity
  8
RACCORDO
100
AcDbLine
 62
250
  6
CONTINUOUS
 10
-78.7249063871
 20
-40.5608176549
 11
-78.7241154768
 21
-40.5753536332
  0
LINE
  5
49C
100
AcDbEntity
  8
RACCORDO
100
AcDbLine
 62
250
  6
CONTINUOUS
 10
-78.7256335087
 20
-40.5454733271
 11
-78.7249063871
 21
-40.5608176549
  0
LINE
  5
49D
100
AcDbEntity
  8
RACCORDO
100
AcDbLine
 62
250
  6
CONTINUOUS
 10
-78.7262962914
 20
-40.5293322615
 11
-78.7256335087
 21
-40.5454733271
  0
LINE
  5
49E
100
AcDbEntity
  8
RACCORDO
100
AcDbLine
 62
250
  6
CONTINUOUS
 10
-78.7268942337
 20
-40.5124066726
 11
-78.7262962914
 21
-40.5293322615
  0
LINE
  5
49F
100
AcDbEntity
  8
RACCORDO
100
AcDbLine
 62
250
  6
CONTINUOUS
 10
-78.727426883
 20
-40.4947093687
 11
-78.7268942337
 21
-40.5124066726
  0
LINE
  5
4A0
100
AcDbEntity
  8
RACCORDO
100
AcDbLine
 62
250
  6
CONTINUOUS
 10
-78.7278938364
 20
-40.476253742
 11
-78.727426883
 21
-40.4947093687
  0
LWPOLYLINE
  5
4A1
100
AcDbEntity
  8
0
100
AcDbPolyline
 62
7
  6
CONTINUOUS
 90
4
 70
0
 43
0.3500000006
 10
-80.4711203613
 20
50.1785702362
 10
-80.4711203613
 20
51.0357127075
 10
-80.0425513916
 20
51.4642862091
 10
-79.399697937
 20
51.4642862091
  0
LINE
  5
4A2
100
AcDbEntity
  8
RACCORDO
100
AcDbLine
 62
250
  6
CONTINUOUS
 10
-78.7278938449
 20
40.4762533714
 11
-78.7274268924
 21
40.4947090287
  0
LINE
  5
4A3
100
AcDbEntity
  8
RACCORDO
100
AcDbLine
 62
250
  6
CONTINUOUS
 10
-78.7274268924
 20
40.4947090287
 11
-78.7268942438
 21
40.5124063623
  0
LINE
  5
4A4
100
AcDbEntity
  8
RACCORDO
100
AcDbLine
 62
250
  6
CONTINUOUS
 10
-78.7268942438
 20
40.5124063623
 11
-78.7262963022
 21
40.5293319798
  0
LINE
  5
4A5
100
AcDbEntity
  8
RACCORDO
100
AcDbLine
 62
250
  6
CONTINUOUS
 10
-78.7262963022
 20
40.5293319798
 11
-78.7256335199
 21
40.5454730729
  0
LINE
  5
4A6
100
AcDbEntity
  8
RACCORDO
100
AcDbLine
 62
250
  6
CONTINUOUS
 10
-78.7256335199
 20
40.5454730729
 11
-78.7249063987
 21
40.5608174269
  0
LINE
  5
4A7
100
AcDbEntity
  8
RACCORDO
100
AcDbLine
 62
250
  6
CONTINUOUS
 10
-78.7249063987
 20
40.5608174269
 11
-78.7241154886
 21
40.5753534302
  0
LWPOLYLINE
  5
4A8
100
AcDbEntity
  8
RACCORDO
100
AcDbPolyline
 62
250
  6
CONTINUOUS
 90
32
 70
0
 10
-78.7241154886
 20
40.5753534302
 10
-78.7232613883
 20
40.5890700828
 10
-78.7228108419
 20
40.5956178843
 10
-78.7223447441
 20
40.6019570046
 10
-78.7218631829
 20
40.6080862442
 10
-78.7213662496
 20
40.6140044436
 10
-78.720854038
 20
40.619710483
 10
-78.7203266452
 20
40.6252032829
 10
-78.719784171
 20
40.6304818042
 10
-78.7192267178
 20
40.6355450481
 10
-78.7186543913
 20
40.6403920567
 10
-78.7180672997
 20
40.645021913
 10
-78.717465554
 20
40.649433741
 10
-78.7168492682
 20
40.653626706
 10
-78.7162185588
 20
40.6576000148
 10
-78.7155735451
 20
40.6613529156
 10
-78.7149143492
 20
40.6648846984
 10
-78.7142410958
 20
40.668194695
 10
-78.7135539122
 20
40.6712822792
 10
-78.7128529285
 20
40.6741468668
 10
-78.7121382774
 20
40.6767879158
 10
-78.7114100939
 20
40.6792049267
 10
-78.7106685159
 20
40.681397442
 10
-78.7099136837
 20
40.683365047
 10
-78.70914574
 20
40.6851073695
 10
-78.7083648303
 20
40.6866240797
 10
-78.7075711022
 20
40.6879148908
 10
-78.7067647058
 20
40.6889795585
 10
-78.7059457938
 20
40.6898178813
 10
-78.7051145212
 20
40.6904297008
 10
-78.704271045
 20
40.6908149011
 10
-78.703415525
 20
40.6909734094
  0
LWPOLYLINE
  5
4A9
100
AcDbEntity
  8
RACCORDO
100
AcDbPolyline
 62
250
  6
CONTINUOUS
 90
97
 70
0
 10
-78.7034155242
 20
39.4926179677
 10
-78.7803106542
 20
38.6722200732
 10
-78.8555910449
 20
37.8516775277
 10
-78.9292566965
 20
37.0309903311
 10
-79.0013079365
 20
36.21015469
 10
-79.0717444373
 20
35.3891743978
 10
-79.1405652163
 20
34.5680608351
 10
-79.2077702079
 20
33.7468144587
 10
-79.2733594778
 20
32.9254348118
 10
-79.3373322401
 20
32.1039319038
 10
-79.3996884587
 20
31.2823059416
 10
-79.4604281697
 20
30.4605567184
 10
-79.519550696
 20
29.6386936236
 10
-79.5770560119
 20
28.816716794
 10
-79.6329441432
 20
27.9946260927
 10
-79.6872144895
 20
27.1724304987
 10
-79.7398670387
 20
26.3501299707
 10
-79.7909018029
 20
25.52772455
 10
-79.8403182186
 20
24.7052233396
 10
-79.888116276
 20
23.882626222
 10
-79.9342959848
 20
23.0599333147
 10
-79.9788568106
 20
22.237154073
 10
-80.0217987396
 20
21.4142883925
 10
-80.0631217857
 20
20.5913363775
 10
-80.1028254557
 20
19.7683077969
 10
-80.140909729
 20
18.9452026546
 10
-80.1773746261
 20
18.1220209465
 10
-80.2122197159
 20
17.2987724288
 10
-80.2454449769
 20
16.4754571425
 10
-80.2770504305
 20
15.6520750465
 10
-80.3070357104
 20
14.8286357746
 10
-80.3354007961
 20
14.0051393764
 10
-80.3621457081
 20
13.1815858023
 10
-80.3872701416
 20
12.3579845365
 10
-80.4107740785
 20
11.5343355832
 10
-80.4326575369
 20
10.7106389382
 10
-80.4529202671
 20
9.8869040737
 10
-80.4715622509
 20
9.0631309782
 10
-80.4885835065
 20
8.2393196631
 10
-80.5039838378
 20
7.4154796345
 10
-80.5177632265
 20
6.5916108737
 10
-80.5299216909
 20
5.7677133995
 10
-80.5404590897
 20
4.9437967742
 10
-80.5493754041
 20
4.1198609937
 10
-80.5566706528
 20
3.2959060621
 10
-80.562344751
 20
2.4719415552
 10
-80.5663976797
 20
1.6479674731
 10
-80.5688294578
 20
0.8239838156
 10
-80.569640057
 20
0.0000001582
 10
-80.5688294584
 20
-0.8239834992
 10
-80.5663976809
 20
-1.6479671566
 10
-80.5623447528
 20
-2.4719412386
 10
-80.5566706553
 20
-3.2959057453
 10
-80.5493754072
 20
-4.1198606767
 10
-80.5404590934
 20
-4.9437964571
 10
-80.5299216953
 20
-5.7677130822
 10
-80.5177632315
 20
-6.5916105564
 10
-80.5039838434
 20
-7.4154793171
 10
-80.4885835128
 20
-8.2393193456
 10
-80.4715622578
 20
-9.0631306607
 10
-80.4529202745
 20
-9.8869037561
 10
-80.432657545
 20
-10.7106386205
 10
-80.4107740872
 20
-11.5343352653
 10
-80.387270151
 20
-12.3579842182
 10
-80.3621457181
 20
-13.1815854833
 10
-80.3354008068
 20
-14.0051390566
 10
-80.3070357218
 20
-14.8286354536
 10
-80.2770504426
 20
-15.6520747241
 10
-80.2454449896
 20
-16.4754568184
 10
-80.2122197294
 20
-17.2987721032
 10
-80.1773746403
 20
-18.1220206194
 10
-80.1409097438
 20
-18.9452023262
 10
-80.1028254713
 20
-19.7683074675
 10
-80.063121802
 20
-20.5913360475
 10
-80.0217987566
 20
-21.4142880621
 10
-79.9788568281
 20
-22.2371537428
 10
-79.9342960029
 20
-23.0599329855
 10
-79.8881162947
 20
-23.8826258944
 10
-79.8403182379
 20
-24.7052230132
 10
-79.7909018228
 20
-25.5277242243
 10
-79.7398670592
 20
-26.3501296453
 10
-79.6872145107
 20
-27.1724301729
 10
-79.6329441651
 20
-27.994625766
 10
-79.5770560346
 20
-28.8167164656
 10
-79.5195507195
 20
-29.6386932926
 10
-79.4604281942
 20
-30.4605563832
 10
-79.3996884842
 20
-31.2823056012
 10
-79.3373322667
 20
-32.1039315579
 10
-79.2733595057
 20
-32.9254344583
 10
-79.2077702372
 20
-33.7468140975
 10
-79.1405652463
 20
-34.5680604726
 10
-79.0717444681
 20
-35.389174035
 10
-79.0013079675
 20
-36.2101543335
 10
-78.9292567249
 20
-37.0309900116
 10
-78.855591067
 20
-37.8516772839
 10
-78.7803106669
 20
-38.672219936
 10
-78.7034155248
 20
-39.4926179677
  0
LINE
  5
4AA
100
AcDbEntity
  8
DRAFT
100
AcDbLine
 62
7
  6
CONTINUOUS
 10
-72.8068369095
 20
-3.6749773271
 11
-74.8068369095
 21
-3.5
  0
LINE
  5
4AB
100
AcDbEntity
  8
RACCORDO
100
AcDbLine
 62
250
  6
CONTINUOUS
 10
-78.7106684443
 20
39.6405876798
 11
-78.7128528605
 21
39.6895193334
  0
LINE
  5
4AC
100
AcDbEntity
  8
RACCORDO
100
AcDbLine
 62
250
  6
CONTINUOUS
 10
-78.7128528605
 20
39.6895193334
 11
-78.7149142848
 21
39.7381157551
  0
LINE
  5
4AD
100
AcDbEntity
  8
RACCORDO
100
AcDbLine
 62
250
  6
CONTINUOUS
 10
-78.7149142848
 20
39.7381157551
 11
-78.7168492078
 21
39.7862942121
  0
LINE
  5
4AE
100
AcDbEntity
  8
RACCORDO
100
AcDbLine
 62
250
  6
CONTINUOUS
 10
-78.7168492078
 20
39.7862942121
 11
-78.7186543349
 21
39.8339726727
  0
LINE
  5
4AF
100
AcDbEntity
  8
RACCORDO
100
AcDbLine
 62
250
  6
CONTINUOUS
 10
-78.7186543349
 20
39.8339726727
 11
-78.7203265929
 21
39.881069965
  0
LINE
  5
4B0
100
AcDbEntity
  8
RACCORDO
100
AcDbLine
 62
250
  6
CONTINUOUS
 10
-78.7203265929
 20
39.881069965
 11
-78.7218631348
 21
39.9275059044
  0
LINE
  5
4B1
100
AcDbEntity
  8
RACCORDO
100
AcDbLine
 62
250
  6
CONTINUOUS
 10
-78.7218631348
 20
39.9275059044
 11
-78.7232613446
 21
39.9732014325
  0
LINE
  5
4B2
100
AcDbEntity
  8
RACCORDO
100
AcDbLine
 62
250
  6
CONTINUOUS
 10
-78.7232613446
 20
39.9732014325
 11
-78.7245188417
 21
40.0180787514
  0
LINE
  5
4B3
100
AcDbEntity
  8
RACCORDO
100
AcDbLine
 62
250
  6
CONTINUOUS
 10
-78.7245188417
 20
40.0180787514
 11
-78.7256334853
 21
40.0620614561
  0
LINE
  5
4B4
100
AcDbEntity
  8
RACCORDO
100
AcDbLine
 62
250
  6
CONTINUOUS
 10
-78.7256334853
 20
40.0620614561
 11
-78.7266033776
 21
40.1050746647
  0
LINE
  5
4B5
100
AcDbEntity
  8
RACCORDO
100
AcDbLine
 62
250
  6
CONTINUOUS
 10
-78.7266033776
 20
40.1050746647
 11
-78.7274268673
 21
40.1470451458
  0
LINE
  5
4B6
100
AcDbEntity
  8
RACCORDO
100
AcDbLine
 62
250
  6
CONTINUOUS
 10
-78.728470327
 20
-40.4471791521
 11
-78.7278938364
 21
-40.476253742
  0
LINE
  5
4B7
100
AcDbEntity
  8
RACCORDO
100
AcDbLine
 62
250
  6
CONTINUOUS
 10
-78.7274268673
 20
40.1470451458
 11
-78.7281025525
 21
40.1879014432
  0
LINE
  5
4B8
100
AcDbEntity
  8
RACCORDO
100
AcDbLine
 62
250
  6
CONTINUOUS
 10
-78.7288972367
 20
-40.4164793922
 11
-78.728470327
 21
-40.4471791521
  0
LINE
  5
4B9
100
AcDbEntity
  8
RACCORDO
100
AcDbLine
 62
250
  6
CONTINUOUS
 10
-78.7281025525
 20
40.1879014432
 11
-78.7286292827
 21
40.2275739975
  0
LINE
  5
4BA
100
AcDbEntity
  8
RACCORDO
100
AcDbLine
 62
250
  6
CONTINUOUS
 10
-78.7286292827
 20
40.2275739975
 11
-78.7290061612
 21
40.265995265
  0
LINE
  5
4BB
100
AcDbEntity
  8
RACCORDO
100
AcDbLine
 62
250
  6
CONTINUOUS
 10
-78.7291738388
 20
-40.3842067296
 11
-78.7288972367
 21
-40.4164793922
  0
LINE
  5
4BC
100
AcDbEntity
  8
RACCORDO
100
AcDbLine
 62
250
  6
CONTINUOUS
 10
-78.7290061612
 20
40.265995265
 11
-78.7292325463
 21
40.3030998319
  0
LINE
  5
4BD
100
AcDbEntity
  8
RACCORDO
100
AcDbLine
 62
250
  6
CONTINUOUS
 10
-78.7292996622
 20
-40.3504161096
 11
-78.7291738388
 21
-40.3842067296
  0
LINE
  5
4BE
100
AcDbEntity
  8
RACCORDO
100
AcDbLine
 62
250
  6
CONTINUOUS
 10
-78.7292325463
 20
40.3030998319
 11
-78.7293080525
 21
40.3388245264
  0
LINE
  5
4BF
100
AcDbEntity
  8
RACCORDO
100
AcDbLine
 62
250
  6
CONTINUOUS
 10
-78.7292325489
 20
-40.3031004762
 11
-78.7292996622
 21
-40.3504161096
  0
LINE
  5
4C0
100
AcDbEntity
  8
RACCORDO
100
AcDbLine
 62
250
  6
CONTINUOUS
 10
-78.7293080525
 20
40.3388245264
 11
-78.7292325514
 21
40.373108526
  0
LINE
  5
4C1
100
AcDbEntity
  8
RACCORDO
100
AcDbLine
 62
250
  6
CONTINUOUS
 10
-78.7292325514
 20
40.373108526
 11
-78.7290061714
 21
40.4058934609
  0
LINE
  5
4C2
100
AcDbEntity
  8
RACCORDO
100
AcDbLine
 62
250
  6
CONTINUOUS
 10
-78.7288972367
 20
-40.2533320085
 11
-78.7292325489
 21
-40.3031004762
  0
LINE
  5
4C3
100
AcDbEntity
  8
RACCORDO
100
AcDbLine
 62
250
  6
CONTINUOUS
 10
-78.7282947403
 20
-40.2012613252
 11
-78.7288972367
 21
-40.2533320085
  0
LINE
  5
4C4
100
AcDbEntity
  8
RACCORDO
100
AcDbLine
 62
250
  6
CONTINUOUS
 10
-78.7290061714
 20
40.4058934609
 11
-78.7286292979
 21
40.4371235135
  0
LINE
  5
4C5
100
AcDbEntity
  8
RACCORDO
100
AcDbLine
 62
250
  6
CONTINUOUS
 10
-78.7271687463
 20
-40.133176178
 11
-78.7282947403
 21
-40.2012613252
  0
LWPOLYLINE
  5
4C6
100
AcDbEntity
  8
RACCORDO
100
AcDbPolyline
 62
250
  6
CONTINUOUS
 90
3
 70
0
 10
-78.7286292979
 20
40.4371235135
 10
-78.7281025727
 20
40.4667455137
 10
-78.7278938449
 20
40.4762533714
  0
LINE
  5
4C7
100
AcDbEntity
  8
RACCORDO
100
AcDbLine
 62
250
  6
CONTINUOUS
 10
-78.7256335087
 20
-40.0620624332
 11
-78.7271687463
 21
-40.133176178
  0
LINE
  5
4C8
100
AcDbEntity
  8
RACCORDO
100
AcDbLine
 62
250
  6
CONTINUOUS
 10
-78.7236962861
 20
-39.988256321
 11
-78.7256335087
 21
-40.0620624332
  0
LINE
  5
4C9
100
AcDbEntity
  8
RACCORDO
100
AcDbLine
 62
250
  6
CONTINUOUS
 10
-78.7208540264
 20
-39.8966271955
 11
-78.7236962861
 21
-39.988256321
  0
LINE
  5
4CA
100
AcDbEntity
  8
RACCORDO
100
AcDbLine
 62
250
  6
CONTINUOUS
 10
-78.7174655436
 20
-39.8022478882
 11
-78.7208540264
 21
-39.8966271955
  0
LINE
  5
4CB
100
AcDbEntity
  8
RACCORDO
100
AcDbLine
 62
250
  6
CONTINUOUS
 10
-78.7135539041
 20
-39.7057608603
 11
-78.7174655436
 21
-39.8022478882
  0
LINE
  5
4CC
100
AcDbEntity
  8
RACCORDO
100
AcDbLine
 62
250
  6
CONTINUOUS
 10
-78.7106685099
 20
-39.6405891132
 11
-78.7135539041
 21
-39.7057608603
  0
LWPOLYLINE
  5
4CD
100
AcDbEntity
  8
0
100
AcDbPolyline
 62
7
  6
CONTINUOUS
 90
4
 70
0
 43
0.3500000006
 10
-90.885407959
 20
-2.3571432495
 10
-91.7425549622
 20
-2.3571432495
 10
-92.1711239319
 20
-1.9285708809
 10
-92.1711239319
 20
-1.2857140274
  0
LINE
  5
4CE
100
AcDbEntity
  8
RACCORDO
100
AcDbLine
 62
250
  6
CONTINUOUS
 10
-78.703415525
 20
39.4926179677
 11
-78.7059457237
 21
39.5420525004
  0
LINE
  5
4CF
100
AcDbEntity
  8
RACCORDO
100
AcDbLine
 62
250
  6
CONTINUOUS
 10
-78.7059457237
 20
39.5420525004
 11
-78.7083647592
 21
39.5914041833
  0
LINE
  5
4D0
100
AcDbEntity
  8
RACCORDO
100
AcDbLine
 62
250
  6
CONTINUOUS
 10
-78.7083647592
 20
39.5914041833
 11
-78.7106684443
 21
39.6405876798
  0
LINE
  5
4D1
100
AcDbEntity
  8
DRAFT
100
AcDbLine
 62
7
  6
CONTINUOUS
 10
-74.8068369095
 20
-3.5
 11
-74.8068369095
 21
3.5
  0
LINE
  5
4D2
100
AcDbEntity
  8
RACCORDO
100
AcDbLine
 62
250
  6
CONTINUOUS
 10
-78.7059457916
 20
-39.5420538566
 11
-78.7106685099
 21
-39.6405891132
  0
LINE
  5
4D3
100
AcDbEntity
  8
RACCORDO
100
AcDbLine
 62
250
  6
CONTINUOUS
 10
-78.703415525
 20
-39.4926179677
 11
-78.7059457916
 21
-39.5420538566
  0
LINE
  5
4D4
100
AcDbEntity
  8
RACCORDO
100
AcDbLine
 62
7
  6
CONTINUOUS
 10
-72.8068369095
 20
41.0
 11
-72.8068369095
 21
3.6749773271
  0
LINE
  5
4D5
100
AcDbEntity
  8
RACCORDO
100
AcDbLine
 62
7
  6
CONTINUOUS
 10
-72.8068369095
 20
-3.6749773271
 11
-72.8068369095
 21
-41.0
  0
LINE
  5
4D6
100
AcDbEntity
  8
DRAFT
100
AcDbLine
 62
7
  6
CONTINUOUS
 10
-74.8068369095
 20
3.5
 11
-72.8068369095
 21
3.6749773271
  0
LWPOLYLINE
  5
4D7
100
AcDbEntity
  8
0
100
AcDbPolyline
 62
7
  6
CONTINUOUS
 90
10
 70
0
 43
0.3500000006
 10
-77.4711194458
 20
50.2500014191
 10
-77.3996973267
 20
50.1071435852
 10
-77.3996973267
 20
50.0357124023
 10
-77.5425506287
 20
49.8928591003
 10
-77.6139818115
 20
49.8928591003
 10
-77.6854039307
 20
49.9642857513
 10
-77.6854039307
 20
50.0357124023
 10
-77.6139818115
 20
50.1785702362
 10
-77.5425506287
 20
50.2500014191
 10
-77.4711194458
 20
50.2500014191
  0
LINE
  5
4D8
100
AcDbEntity
  8
RACCORDO
100
AcDbLine
 62
250
  6
CONTINUOUS
 10
-72.8068369095
 20
39.8016445583
 11
-78.7034155242
 21
39.4926179677
  0
LINE
  5
4D9
100
AcDbEntity
  8
RACCORDO
100
AcDbLine
 62
7
  6
CONTINUOUS
 10
-72.8068369095
 20
41.0
 11
-78.703415525
 21
40.6909734094
  0
LINE
  5
4DA
100
AcDbEntity
  8
RACCORDO
100
AcDbLine
 62
250
  6
CONTINUOUS
 10
-78.703415525
 20
39.4926179677
 11
-78.9134976127
 21
39.5126655495
  0
LINE
  5
4DB
100
AcDbEntity
  8
RACCORDO
100
AcDbLine
 62
250
  6
CONTINUOUS
 10
-78.9134976127
 20
39.5126655495
 11
-79.0999246006
 21
39.5306238102
  0
LINE
  5
4DC
100
AcDbEntity
  8
RACCORDO
100
AcDbLine
 62
250
  6
CONTINUOUS
 10
-79.0999246006
 20
39.5306238102
 11
-79.246047735
 21
39.5448280358
  0
LINE
  5
4DD
100
AcDbEntity
  8
RACCORDO
100
AcDbLine
 62
250
  6
CONTINUOUS
 10
-79.246047735
 20
39.5448280358
 11
-79.3936147603
 21
39.559316009
  0
LINE
  5
4DE
100
AcDbEntity
  8
RACCORDO
100
AcDbLine
 62
250
  6
CONTINUOUS
 10
-79.3936147603
 20
39.559316009
 11
-79.5130750042
 21
39.5711864764
  0
LINE
  5
4DF
100
AcDbEntity
  8
RACCORDO
100
AcDbLine
 62
250
  6
CONTINUOUS
 10
-79.5130750042
 20
39.5711864764
 11
-79.6067050105
 21
39.5806202169
  0
LINE
  5
4E0
100
AcDbEntity
  8
RACCORDO
100
AcDbLine
 62
250
  6
CONTINUOUS
 10
-79.6067050105
 20
39.5806202169
 11
-79.6776891506
 21
39.5878910481
  0
LINE
  5
4E1
100
AcDbEntity
  8
RACCORDO
100
AcDbLine
 62
250
  6
CONTINUOUS
 10
-79.6776891506
 20
39.5878910481
 11
-79.7362613912
 21
39.5940216738
  0
LINE
  5
4E2
100
AcDbEntity
  8
RACCORDO
100
AcDbLine
 62
250
  6
CONTINUOUS
 10
-79.7362613912
 20
39.5940216738
 11
-79.7767755694
 21
39.5983926135
  0
LINE
  5
4E3
100
AcDbEntity
  8
RACCORDO
100
AcDbLine
 62
250
  6
CONTINUOUS
 10
-79.7767755694
 20
39.5983926135
 11
-79.7993567207
 21
39.6009231762
  0
LINE
  5
4E4
100
AcDbEntity
  8
RACCORDO
100
AcDbLine
 62
250
  6
CONTINUOUS
 10
-79.7993567207
 20
39.6009231762
 11
-79.8135231046
 21
39.6025833439
  0
LINE
  5
4E5
100
AcDbEntity
  8
RACCORDO
100
AcDbLine
 62
250
  6
CONTINUOUS
 10
-79.8135231046
 20
39.6025833439
 11
-79.819291529
 21
39.6032902284
  0
LWPOLYLINE
  5
4E6
100
AcDbEntity
  8
RACCORDO
100
AcDbPolyline
 62
250
  6
CONTINUOUS
 90
12
 70
0
 10
-79.819291529
 20
39.6032902284
 10
-79.8241774641
 20
39.6039142538
 10
-79.8262883291
 20
39.6041950459
 10
-79.8281772517
 20
39.6044549529
 10
-79.8298438784
 20
39.6046939261
 10
-79.8312878972
 20
39.6049119209
 10
-79.8325090377
 20
39.6051088963
 10
-79.8335070715
 20
39.6052848155
 10
-79.8342818116
 20
39.6054396457
 10
-79.8348331131
 20
39.6055733579
 10
-79.8351608728
 20
39.6056859268
 10
-79.8352650293
 20
39.6057773315
  0
LWPOLYLINE
  5
4E7
100
AcDbEntity
  8
0
100
AcDbPolyline
 62
7
  6
CONTINUOUS
 90
13
 70
0
 43
0.3500000006
 10
-80.0425513916
 20
51.4642862091
 10
-80.3282670593
 20
51.678570694
 10
-80.3282670593
 20
52.3214286804
 10
-80.0425513916
 20
52.750002182
 10
-79.399697937
 20
52.750002182
 10
-79.1139822693
 20
52.3214286804
 10
-79.1139822693
 20
51.678570694
 10
-79.399697937
 20
51.4642862091
 10
-78.9711199036
 20
51.0357127075
 10
-78.9711199036
 20
50.1785702362
 10
-79.399697937
 20
49.7500012665
 10
-80.0425513916
 20
49.7500012665
 10
-80.4711203613
 20
50.1785702362
  0
ARC
  5
4E8
100
AcDbEntity
  8
0
100
AcDbCircle
 62
7
  6
CONTINUOUS
 10
53.788572
 20
-32.958656
 40
0.8587214994
100
AcDbArc
 50
292.8428415932
 51
90.0
  0
ARC
  5
4E9
100
AcDbEntity
  8
0
100
AcDbCircle
 62
7
  6
CONTINUOUS
 10
53.710842
 20
-32.958656
 40
0.340698
100
AcDbArc
 50
270.0
 51
90.0
  0
ARC
  5
4EA
100
AcDbEntity
  8
RACCORDO
100
AcDbCircle
 62
7
  6
CONTINUOUS
 10
37.3
 20
-22.2999999998
 40
0.2
100
AcDbArc
 50
270.0
 51
314.8893049214
  0
ARC
  5
4EB
100
AcDbEntity
  8
RACCORDO
100
AcDbCircle
 62
7
  6
CONTINUOUS
 10
-37.3
 20
-22.2999999998
 40
0.2
100
AcDbArc
 50
225.1103744147
 51
270.0
  0
ARC
  5
4EC
100
AcDbEntity
  8
RACCORDO
100
AcDbCircle
 62
7
  6
CONTINUOUS
 10
-37.3
 20
22.3
 40
0.2
100
AcDbArc
 50
90.0
 51
134.8894253919
  0
ARC
  5
4ED
100
AcDbEntity
  8
RACCORDO
100
AcDbCircle
 62
7
  6
CONTINUOUS
 10
37.3
 20
22.3
 40
0.2
100
AcDbArc
 50
45.1102491832
 51
90.0
  0
ARC
  5
4EE
100
AcDbEntity
  8
0
100
AcDbCircle
 62
7
  6
CONTINUOUS
 10
338.2931630905
 20
0.0
 40
420.15
100
AcDbArc
 50
184.3817322964
 51
184.76480453
  0
ARC
  5
4EF
100
AcDbEntity
  8
RACCORDO
100
AcDbCircle
 62
7
  6
CONTINUOUS
 10
338.2931630905
 20
0.0
 40
420.0
100
AcDbArc
 50
174.5889986143
 51
185.4110013857
  0
ARC
  5
4F0
100
AcDbEntity
  8
RACCORDO
100
AcDbCircle
 62
7
  6
CONTINUOUS
 10
-78.6406123775
 20
39.4926179677
 40
1.2
100
AcDbArc
 50
93.0
 51
174.5889986143
  0
ARC
  5
4F1
100
AcDbEntity
  8
RACCORDO
100
AcDbCircle
 62
7
  6
CONTINUOUS
 10
-78.6406123775
 20
-39.4926179677
 40
1.2
100
AcDbArc
 50
185.4110013857
 51
267.0
  0
ELLIPSE
  5
4F2
100
AcDbEntity
  8
RACCORDO
100
AcDbEllipse
 62
7
  6
CONTINUOUS
 10
58.7983531848
 20
39.7983531848
 30
0.0
 11
0.8508554921
 21
0.8508554921
 31
0.0
 40
0.9972646886
 41
-0.7840286355
 42
0.7840286355
  0
ELLIPSE
  5
4F3
100
AcDbEntity
  8
RACCORDO
100
AcDbEllipse
 62
7
  6
CONTINUOUS
 10
58.7983531848
 20
-39.7983531848
 30
0.0
 11
0.8508554921
 21
-0.8508554921
 31
0.0
 40
0.9972646886
 41
-0.7840286355
 42
0.7840286355
  0
ELLIPSE
  5
4F4
100
AcDbEntity
  8
RACCORDO
100
AcDbEllipse
 62
7
  6
CONTINUOUS
 10
-58.7983531848
 20
39.7983531848
 30
0.0
 11
0.8508554921
 21
-0.8508554921
 31
0.0
 40
0.9972646886
 41
2.3575640181
 42
3.9256212891
  0
ELLIPSE
  5
4F5
100
AcDbEntity
  8
RACCORDO
100
AcDbEllipse
 62
7
  6
CONTINUOUS
 10
-58.7983531848
 20
-39.7983531848
 30
0.0
 11
0.8508554921
 21
0.8508554921
 31
0.0
 40
0.9972646886
 41
-3.9256212891
 42
-2.3575640181
  0
ENDSEC
  0
SECTION
  2
OBJECTS
  0
DICTIONARY
  5
C
100
AcDbDictionary
280
0
281
1
  3
ACAD_GROUP
350
D
  3
ACAD_MLINESTYLE
350
17
  3
ACAD_LAYOUT
350
1A
  3
ACAD_PLOTSETTINGS
350
19
  3
ACAD_PLOTSTYLENAME
350
E
  0
DICTIONARY
  5
D
102
{ACAD_REACTORS
330
C
102
}
100
AcDbDictionary
280
0
281
1
  0
ACDBDICTIONARYWDFLT
  5
E
102
{ACAD_REACTORS
330
C
102
}
100
AcDbDictionary
281
1
  3
Normal
350
F
100
AcDbDictionaryWithDefault
340
F
  0
DICTIONARY
  5
17
102
{ACAD_REACTORS
330
C
102
}
100
AcDbDictionary
280
0
281
1
  3
Standard
350
18
  0
DICTIONARY
  5
19
102
{ACAD_REACTORS
330
C
102
}
100
AcDbDictionary
281
1
  0
DICTIONARY
  5
1A
102
{ACAD_REACTORS
330
C
102
}
100
AcDbDictionary
281
1
  3
Model
350
4F6
  3
Layout1
350
4F7
  0
ACDBPLACEHOLDER
  5
F
102
{ACAD_REACTORS
330
E
102
}
  0
MLINESTYLE
  5
18
102
{ACAD_REACTORS
330
17
102
}
100
AcDbMlineStyle
  2
STANDARD
 70
0
  3

 62
256
 51
90.0
 52
90.0
 71
2
 49
0.5
 62
256
  6
BYLAYER
 49
-0.5
 62
256
  6
BYLAYER
  0
LAYOUT
  5
4F6
102
{ACAD_REACTORS
330
1A
102
}
100
AcDbPlotSettings
  1

  2
none_device
  4
ISO_A4_(297.00_x_210.00_MM)
  6

 40
0.0
 41
0.0
 42
0.0
 43
0.0
 44
297.0
 45
210.0
 46
0.0
 47
0.0
 48
0.0
 49
0.0
140
0.0
141
0.0
142
1.0
143
1.0
 70
1024
 72
1
 73
0
 74
0
  7

 75
0
147
1.0
148
0.0
149
0.0
100
AcDbLayout
  1
Model
 70
0
 71
0
 10
0.0
 20
0.0
 11
297.0
 21
210.0
 12
0.0
 22
0.0
 32
0.0
 14
0.0
 24
0.0
 34
0.0
 15
0.0
 25
0.0
 35
0.0
146
0.0
 13
0.0
 23
0.0
 33
0.0
 16
1.0
 26
0.0
 36
0.0
 17
0.0
 27
1.0
 37
0.0
 76
0
330
212
345
0
346
0
  0
LAYOUT
  5
4F7
102
{ACAD_REACTORS
330
1A
102
}
100
AcDbPlotSettings
  1

  2
none_device
  4
ISO_A4_(297.00_x_210.00_MM)
  6

 40
0.0
 41
0.0
 42
0.0
 43
0.0
 44
297.0
 45
210.0
 46
0.0
 47
0.0
 48
0.0
 49
0.0
140
0.0
141
0.0
142
1.0
143
1.0
 70
0
 72
1
 73
0
 74
0
  7

 75
0
147
1.0
148
0.0
149
0.0
100
AcDbLayout
  1
Layout1
 70
0
 71
1
 10
0.0
 20
0.0
 11
297.0
 21
210.0
 12
0.0
 22
0.0
 32
0.0
 14
0.0
 24
0.0
 34
0.0
 15
0.0
 25
0.0
 35
0.0
146
0.0
 13
0.0
 23
0.0
 33
0.0
 16
1.0
 26
0.0
 36
0.0
 17
0.0
 27
1.0
 37
0.0
 76
0
330
213
345
0
346
0
  0
ENDSEC
  0
EOF
