  0
SECTION
  2
HEADER
  9
$ACADVER
  1
AC1024
  9
$DWGCODEPAGE
  3
ANSI_1252
  9
$EXTMAX
 10
297.0
 20
210.0
 30
0.0
  9
$EXTMIN
 10
0.0
 20
0.0
 30
0.0
  9
$LIMMIN
 10
0.0
 20
0.0
  9
$LIMMAX
 10
297.0
 20
210.0
  9
$VIEWCTR
 10
148.5
 20
105.0
  9
$VIEWSIZE
 40
210.0
  9
$CLAYER
  8
0
  9
$LTSCALE
 40
16.335
  9
$CELTYPE
  6
BYLAYER
  9
$DIMSCALE
 40
1.0
  9
$DIMASZ
 40
3.0
  9
$DIMEXO
 40
0.5
  9
$DIMDLI
 40
11.286
  9
$DIMEXE
 40
1.5
  9
$DIMCEN
 40
2.673
  9
$DIMLFAC
 40
1.0
  9
$DIMBLK
  1
_FILLED
  9
$DIMALT
 70
0
  9
$DIMALTF
 40
0.0393700787
  9
$DIMTXT
 40
3.0
  9
$DIMTOL
 70
1
  9
$DIMLIM
 70
0
  9
$DIMTFAC
 40
1.0
  9
$DIMTP
 40
0.01
  9
$DIMTM
 40
0.01
  9
$DIMGAP
 40
0.625
  9
$DIMDSEP
 70
44
  9
$AUNITS
 70
0
  9
$PDMODE
 70
3
  9
$PDSIZE
 40
3.0
  9
$HANDSEED
  5
512
  9
$TILEMODE
 70
1
  9
$MEASUREMENT
 70
1
  9
$INSUNITS
 70
4
  0
ENDSEC
  0
SECTION
  2
CLASSES
  0
CLASS
  1
ACDBDICTIONARYWDFLT
  2
AcDbDictionaryWithDefault
  3
AutoCAD 2000
 90
0
 91
1
280
0
281
0
  0
CLASS
  1
ACDBPLACEHOLDER
  2
AcDbPlaceHolder
  3
AutoCAD 2000
 90
0
 91
1
280
0
281
0
  0
CLASS
  1
LAYOUT
  2
AcDbLayout
  3
AutoCAD 2000
 90
0
 91
0
280
0
281
0
  0
ENDSEC
  0
SECTION
  2
TABLES
  0
TABLE
  2
VPORT
  5
8
100
AcDbSymbolTable
 70
2
  0
VPORT
  5
1F4
100
AcDbSymbolTableRecord
100
AcDbViewportTableRecord
  2
*ACTIVE
 70
0
 10
0.0
 20
0.0
 11
1.0
 21
1.0
 12
148.5
 22
105.0
 13
0.0
 23
0.0
 14
1.0
 24
1.0
 15
0.0
 25
0.0
 16
0.0
 26
0.0
 36
1.0
 17
0.0
 27
0.0
 37
0.0
 40
210.0
 41
1.4142857143
 42
50.0
 43
0.0
 44
0.0
 50
0.0
 51
0.0
 71
0
 72
100
 73
1
 74
1
 75
0
 76
0
 77
0
 78
0
  0
ENDTAB
  0
TABLE
  2
LTYPE
  5
5
100
AcDbSymbolTable
 70
6
  0
LTYPE
  5
14
100
AcDbSymbolTableRecord
100
AcDbLinetypeTableRecord
  2
BYBLOCK
 70
0
  3

 72
65
 73
0
 40
0.0
  0
LTYPE
  5
15
100
AcDbSymbolTableRecord
100
AcDbLinetypeTableRecord
  2
BYLAYER
 70
0
  3

 72
65
 73
0
 40
0.0
  0
LTYPE
  5
16
100
AcDbSymbolTableRecord
100
AcDbLinetypeTableRecord
  2
CONTINUOUS
 70
64
  3
Solid line
 72
65
 73
0
 40
0.0
  0
LTYPE
  5
1F5
100
AcDbSymbolTableRecord
100
AcDbLinetypeTableRecord
  2
CENTER
 70
64
  3
____ _ ____ _ ____ _ ____ _ ____ _ ____ _ ____
 72
65
 73
4
 40
0.6
 49
0.375
 74
0
 49
-0.075
 74
0
 49
0.075
 74
0
 49
-0.075
 74
0
  0
LTYPE
  5
1F6
100
AcDbSymbolTableRecord
100
AcDbLinetypeTableRecord
  2
HIDDEN
 70
64
  3
- - - - - - - - - - - - - - - - - - - -
 72
65
 73
2
 40
0.2
 49
0.1
 74
0
 49
-0.1
 74
0
  0
LTYPE
  5
1F7
100
AcDbSymbolTableRecord
100
AcDbLinetypeTableRecord
  2
PHANTOM
 70
64
  3
_____ _ _ _____ _ _ _____ _ _ _____
 72
65
 73
6
 40
0.8
 49
0.45
 74
0
 49
-0.05
 74
0
 49
0.1
 74
0
 49
-0.05
 74
0
 49
0.1
 74
0
 49
-0.05
 74
0
  0
LTYPE
  5
1F8
100
AcDbSymbolTableRecord
100
AcDbLinetypeTableRecord
  2
DOT
 70
64
  3
. . . . . . . . . . . . . . . . . . . .
 72
65
 73
2
 40
0.2
 49
0.1
 74
0
 49
-0.1
 74
0
  0
LTYPE
  5
1F9
100
AcDbSymbolTableRecord
100
AcDbLinetypeTableRecord
  2
DASHED
 70
64
  3
- - - - - - - - - - - - - - - - - - - -
 72
65
 73
2
 40
0.2
 49
0.1
 74
0
 49
-0.1
 74
0
  0
ENDTAB
  0
TABLE
  2
LAYER
  5
2
100
AcDbSymbolTable
 70
36
  0
LAYER
  5
10
100
AcDbSymbolTableRecord
100
AcDbLayerTableRecord
  2
0
 70
0
 62
7
  6
CONTINUOUS
370
-3
390
F
  0
LAYER
  5
1FA
100
AcDbSymbolTableRecord
100
AcDbLayerTableRecord
  2
DEFAULT_1
 70
0
 62
7
  6
CENTER
370
-3
390
F
  0
LAYER
  5
1FB
100
AcDbSymbolTableRecord
100
AcDbLayerTableRecord
  2
DEFAULT_2
 70
0
 62
7
  6
HIDDEN
370
-3
390
F
  0
LAYER
  5
1FC
100
AcDbSymbolTableRecord
100
AcDbLayerTableRecord
  2
DEFAULT_3
 70
0
 62
7
  6
PHANTOM
370
-3
390
F
  0
LAYER
  5
1FD
100
AcDbSymbolTableRecord
100
AcDbLayerTableRecord
  2
ASSI
 70
0
 62
7
  6
CONTINUOUS
370
-3
390
F
  0
LAYER
  5
1FE
100
AcDbSymbolTableRecord
100
AcDbLayerTableRecord
  2
COORDINATE
 70
0
 62
7
  6
CONTINUOUS
370
-3
390
F
  0
LAYER
  5
1FF
100
AcDbSymbolTableRecord
100
AcDbLayerTableRecord
  2
COORD_ORIGINE
 70
0
 62
7
  6
CONTINUOUS
370
-3
390
F
  0
LAYER
  5
200
100
AcDbSymbolTableRecord
100
AcDbLayerTableRecord
  2
COSMETICI
 70
0
 62
7
  6
CONTINUOUS
370
-3
390
F
  0
LAYER
  5
201
100
AcDbSymbolTableRecord
100
AcDbLayerTableRecord
  2
CURVE
 70
0
 62
7
  6
CONTINUOUS
370
-3
390
F
  0
LAYER
  5
202
100
AcDbSymbolTableRecord
100
AcDbLayerTableRecord
  2
DRAFT
 70
0
 62
7
  6
CONTINUOUS
370
-3
390
F
  0
LAYER
  5
203
100
AcDbSymbolTableRecord
100
AcDbLayerTableRecord
  2
IMPORT
 70
0
 62
7
  6
CONTINUOUS
370
-3
390
F
  0
LAYER
  5
204
100
AcDbSymbolTableRecord
100
AcDbLayerTableRecord
  2
INTF_1
 70
0
 62
7
  6
CONTINUOUS
370
-3
390
F
  0
LAYER
  5
205
100
AcDbSymbolTableRecord
100
AcDbLayerTableRecord
  2
NOTE
 70
0
 62
7
  6
CONTINUOUS
370
-3
390
F
  0
LAYER
  5
206
100
AcDbSymbolTableRecord
100
AcDbLayerTableRecord
  2
PIANI
 70
0
 62
7
  6
CONTINUOUS
370
-3
390
F
  0
LAYER
  5
207
100
AcDbSymbolTableRecord
100
AcDbLayerTableRecord
  2
PIANI_ORIGINE
 70
0
 62
7
  6
CONTINUOUS
370
-3
390
F
  0
LAYER
  5
208
100
AcDbSymbolTableRecord
100
AcDbLayerTableRecord
  2
PUNTI
 70
0
 62
7
  6
CONTINUOUS
370
-3
390
F
  0
LAYER
  5
209
100
AcDbSymbolTableRecord
100
AcDbLayerTableRecord
  2
RACCORDO
 70
0
 62
7
  6
CONTINUOUS
370
-3
390
F
  0
LAYER
  5
20A
100
AcDbSymbolTableRecord
100
AcDbLayerTableRecord
  2
RGB____0____0____0__
 70
0
 62
7
  6
CONTINUOUS
370
-3
390
F
  0
LAYER
  5
20B
100
AcDbSymbolTableRecord
100
AcDbLayerTableRecord
  2
SIMBOLI
 70
0
 62
7
  6
CONTINUOUS
370
-3
390
F
  0
LAYER
  5
20C
100
AcDbSymbolTableRecord
100
AcDbLayerTableRecord
  2
SNAPLINE
 70
0
 62
7
  6
CONTINUOUS
370
-3
390
F
  0
LAYER
  5
20D
100
AcDbSymbolTableRecord
100
AcDbLayerTableRecord
  2
SUPERFICI
 70
0
 62
7
  6
CONTINUOUS
370
-3
390
F
  0
LAYER
  5
20E
100
AcDbSymbolTableRecord
100
AcDbLayerTableRecord
  2
TRASH
 70
0
 62
7
  6
CONTINUOUS
370
-3
390
F
  0
LAYER
  5
20F
100
AcDbSymbolTableRecord
100
AcDbLayerTableRecord
  2
XSEC_DATUMS
 70
0
 62
7
  6
CONTINUOUS
370
-3
390
F
  0
ENDTAB
  0
TABLE
  2
STYLE
  5
3
100
AcDbSymbolTable
 70
1
  0
STYLE
  5
11
100
AcDbSymbolTableRecord
100
AcDbTextStyleTableRecord
  2
STANDARD
 70
0
 40
0.0
 41
0.8
 50
0.0
 71
0
 42
0.2
  3
txt
  4

  0
STYLE
  5
210
100
AcDbSymbolTableRecord
100
AcDbTextStyleTableRecord
  2
TEXTSTYLE_1
 70
0
 40
0.0
 41
0.8
 50
0.0
 71
0
 42
0.2
  3
gdt
  4

  0
ENDTAB
  0
TABLE
  2
VIEW
  5
6
100
AcDbSymbolTable
 70
0
  0
ENDTAB
  0
TABLE
  2
UCS
  5
7
100
AcDbSymbolTable
 70
0
  0
ENDTAB
  0
TABLE
  2
APPID
  5
9
100
AcDbSymbolTable
 70
1
  0
APPID
  5
211
100
AcDbSymbolTableRecord
100
AcDbRegAppTableRecord
  2
ACAD
 70
0
  0
ENDTAB
  0
TABLE
  2
BLOCK_RECORD
  5
1
100
AcDbSymbolTable
 70
0
  0
BLOCK_RECORD
  5
212
100
AcDbSymbolTableRecord
100
AcDbBlockTableRecord
  2
*Model_Space
  0
BLOCK_RECORD
  5
213
100
AcDbSymbolTableRecord
100
AcDbBlockTableRecord
  2
*Paper_Space
  0
BLOCK_RECORD
  5
214
100
AcDbSymbolTableRecord
100
AcDbBlockTableRecord
  2
_FILLED
  0
BLOCK_RECORD
  5
215
100
AcDbSymbolTableRecord
100
AcDbBlockTableRecord
  2
*D0
  0
BLOCK_RECORD
  5
216
100
AcDbSymbolTableRecord
100
AcDbBlockTableRecord
  2
*D1
  0
BLOCK_RECORD
  5
217
100
AcDbSymbolTableRecord
100
AcDbBlockTableRecord
  2
*D2
  0
ENDTAB
  0
TABLE
  2
DIMSTYLE
  5
A
100
AcDbSymbolTable
 70
1
100
AcDbDimStyleTable
 71
0
  0
DIMSTYLE
105
218
100
AcDbSymbolTableRecord
100
AcDbDimStyleTableRecord
  2
STANDARD
 70
0
  3

  4

 40
1.0
 41
3.0
 42
0.5
 43
0.38
 44
1.5
 45
0.0
 46
0.0
 47
0.01
 48
0.01
140
3.0
141
0.09
142
0.0
143
25.4
144
1.0
145
0.0
146
1.0
147
0.625
 71
1
 72
0
 73
0
 74
0
 75
0
 76
0
 77
1
 78
8
 79
2
170
0
171
1
172
0
173
0
174
0
175
0
176
0
177
0
178
0
270
2
179
2
271
2
272
2
273
2
274
2
275
0
280
0
281
0
282
0
283
1
284
8
285
0
286
0
287
3
288
0
340
11
278
44
341
214
342
214
343
214
344
214
  0
DIMSTYLE
105
219
100
AcDbSymbolTableRecord
100
AcDbDimStyleTableRecord
  2
DIMSTYLE_1
 70
0
  3

  4

 40
1.0
 41
3.0
 42
0.5
 43
0.38
 44
1.5
 45
0.0
 46
0.0
 47
0.0
 48
0.0
140
3.0
141
0.09
142
0.0
143
25.4
144
1.0
145
0.0
146
1.0
147
0.75
 71
0
 72
0
 73
0
 74
0
 75
0
 76
0
 77
1
 78
8
 79
2
170
0
171
1
172
0
173
0
174
0
175
0
176
0
177
0
178
0
270
2
179
2
271
2
272
2
273
2
274
2
275
0
280
0
281
0
282
0
283
1
284
8
285
0
286
0
287
3
288
0
340
11
278
44
341
214
342
214
343
214
344
214
  0
ENDTAB
  0
ENDSEC
  0
SECTION
  2
BLOCKS
  0
BLOCK
  5
20
100
AcDbEntity
  8
0
100
AcDbBlockBegin
  2
*Model_Space
 70
0
 10
0.0
 20
0.0
 30
0.0
  3
*Model_Space
  1

  0
ENDBLK
  5
21
100
AcDbEntity
  8
0
100
AcDbBlockEnd
  0
BLOCK
  5
1C
100
AcDbEntity
  8
0
100
AcDbBlockBegin
  2
*Paper_Space
 70
0
 10
0.0
 20
0.0
 30
0.0
  3
*Paper_Space
  1

  0
ENDBLK
  5
1D
100
AcDbEntity
  8
0
100
AcDbBlockEnd
  0
BLOCK
  5
21A
100
AcDbEntity
  8
0
100
AcDbBlockBegin
  2
_FILLED
 70
64
 10
0.0
 20
0.0
  3
_FILLED
  1

  0
SOLID
  5
21B
100
AcDbEntity
  8
0
  6
BYBLOCK
 62
0
100
AcDbTrace
 10
0.0
 20
0.0
 11
-1.0
 21
0.3166666667
 12
-1.0
 22
-0.3166666667
 13
-1.0
 23
-0.3166666667
  0
ENDBLK
  5
21C
100
AcDbEntity
  8
0
  6
BYBLOCK
 62
0
100
AcDbBlockEnd
  0
BLOCK
  5
21D
100
AcDbEntity
  8
0
100
AcDbBlockBegin
 62
7
  6
CONTINUOUS
  2
*D0
 70
65
 10
0.0
 20
0.0
  3
*D0
  1

  0
LINE
  5
21E
100
AcDbEntity
  8
0
100
AcDbLine
 62
7
  6
CONTINUOUS
 10
-72.5
 20
40.3016445583
 11
-72.5
 21
50.5
  0
LINE
  5
21F
100
AcDbEntity
  8
0
100
AcDbLine
 62
7
  6
CONTINUOUS
 10
72.5
 20
40.3016445583
 11
72.5
 21
50.5
  0
LINE
  5
220
100
AcDbEntity
  8
0
100
AcDbLine
 62
7
  6
CONTINUOUS
 10
-72.5
 20
49.0
 11
0.0
 21
49.0
  0
LINE
  5
221
100
AcDbEntity
  8
0
100
AcDbLine
 62
7
  6
CONTINUOUS
 10
72.5
 20
49.0
 11
0.0
 21
49.0
  0
INSERT
  5
222
100
AcDbEntity
  8
0
100
AcDbBlockReference
 62
7
  6
CONTINUOUS
  2
_FILLED
 10
-72.5
 20
49.0
 41
3.0
 42
3.0
 43
3.0
 50
180.0
  0
INSERT
  5
223
100
AcDbEntity
  8
0
100
AcDbBlockReference
 62
7
  6
CONTINUOUS
  2
_FILLED
 10
72.5
 20
49.0
 41
3.0
 42
3.0
 43
3.0
 50
0.0
  0
ENDBLK
  5
224
100
AcDbEntity
  8
0
  6
BYBLOCK
 62
0
100
AcDbBlockEnd
  0
BLOCK
  5
225
100
AcDbEntity
  8
0
100
AcDbBlockBegin
 62
7
  6
CONTINUOUS
  2
*D1
 70
65
 10
0.0
 20
0.0
  3
*D1
  1

  0
LINE
  5
226
100
AcDbEntity
  8
0
100
AcDbLine
 62
7
  6
CONTINUOUS
 10
-94.2553999741
 20
0.5
 11
-94.2553999741
 21
50.5
  0
LINE
  5
227
100
AcDbEntity
  8
0
100
AcDbLine
 62
7
  6
CONTINUOUS
 10
-85.3553999741
 20
41.5
 11
-85.3553999741
 21
50.5
  0
LINE
  5
228
100
AcDbEntity
  8
0
100
AcDbLine
 62
7
  6
CONTINUOUS
 10
-94.2553999741
 20
49.0
 11
-98.2553999741
 21
49.0
  0
LINE
  5
229
100
AcDbEntity
  8
0
100
AcDbLine
 62
7
  6
CONTINUOUS
 10
-98.2553999741
 20
49.0
 11
-89.8053999741
 21
49.0
  0
LINE
  5
22A
100
AcDbEntity
  8
0
100
AcDbLine
 62
7
  6
CONTINUOUS
 10
-85.3553999741
 20
49.0
 11
-81.3553999741
 21
49.0
  0
LINE
  5
22B
100
AcDbEntity
  8
0
100
AcDbLine
 62
7
  6
CONTINUOUS
 10
-81.3553999741
 20
49.0
 11
-89.8053999741
 21
49.0
  0
INSERT
  5
22C
100
AcDbEntity
  8
0
100
AcDbBlockReference
 62
7
  6
CONTINUOUS
  2
_FILLED
 10
-94.2553999741
 20
49.0
 41
3.0
 42
3.0
 43
3.0
  0
INSERT
  5
22D
100
AcDbEntity
  8
0
100
AcDbBlockReference
 62
7
  6
CONTINUOUS
  2
_FILLED
 10
-85.3553999741
 20
49.0
 41
3.0
 42
3.0
 43
3.0
 50
180.0
  0
ENDBLK
  5
22E
100
AcDbEntity
  8
0
  6
BYBLOCK
 62
0
100
AcDbBlockEnd
  0
BLOCK
  5
22F
100
AcDbEntity
  8
0
100
AcDbBlockBegin
 62
7
  6
CONTINUOUS
  2
*D2
 70
65
 10
0.0
 20
0.0
  3
*D2
  1

  0
LINE
  5
230
100
AcDbEntity
  8
0
100
AcDbLine
 62
7
  6
CONTINUOUS
 10
-85.8553999741
 20
41.0
 11
-103.7553999741
 21
41.0
  0
LINE
  5
231
100
AcDbEntity
  8
0
100
AcDbLine
 62
7
  6
CONTINUOUS
 10
-85.8553999741
 20
-41.0
 11
-103.7553999741
 21
-41.0
  0
LINE
  5
232
100
AcDbEntity
  8
0
100
AcDbLine
 62
7
  6
CONTINUOUS
 10
-102.2553999741
 20
41.0
 11
-102.2553999741
 21
0.0
  0
LINE
  5
233
100
AcDbEntity
  8
0
100
AcDbLine
 62
7
  6
CONTINUOUS
 10
-102.2553999741
 20
-41.0
 11
-102.2553999741
 21
0.0
  0
INSERT
  5
234
100
AcDbEntity
  8
0
100
AcDbBlockReference
 62
7
  6
CONTINUOUS
  2
_FILLED
 10
-102.2553999741
 20
41.0
 41
3.0
 42
3.0
 43
3.0
 50
90.0
  0
INSERT
  5
235
100
AcDbEntity
  8
0
100
AcDbBlockReference
 62
7
  6
CONTINUOUS
  2
_FILLED
 10
-102.2553999741
 20
-41.0
 41
3.0
 42
3.0
 43
3.0
 50
270.0
  0
ENDBLK
  5
236
100
AcDbEntity
  8
0
  6
BYBLOCK
 62
0
100
AcDbBlockEnd
  0
ENDSEC
  0
SECTION
  2
ENTITIES
  0
DIMENSION
  5
237
100
AcDbEntity
  8
0
100
AcDbDimension
 62
7
  6
CONTINUOUS
  2
*D0
 10
72.5
 20
49.0
 11
-3.1071428571
 21
49.0
 70
160
 71
2
 72
2
 41
0.9
 42
145.0
  3
DIMSTYLE_1
100
AcDbAlignedDimension
 13
-72.5
 23
39.8016445583
 14
72.5
 24
39.8016445583
100
AcDbRotatedDimension
  0
DIMENSION
  5
238
100
AcDbEntity
  8
0
100
AcDbDimension
 62
7
  6
CONTINUOUS
  2
*D1
 10
-85.3553999741
 20
49.0
 11
-93.0196856884
 21
49.0
 70
160
 71
2
 72
2
 41
0.9
 42
8.9
  3
DIMSTYLE_1
100
AcDbAlignedDimension
 13
-94.2553999741
 23
0.0
 14
-85.3553999741
 24
41.0
100
AcDbRotatedDimension
  0
DIMENSION
  5
239
100
AcDbEntity
  8
0
100
AcDbDimension
 62
7
  6
CONTINUOUS
  2
*D2
 10
-102.2553999741
 20
-41.0
 11
-102.2553999741
 21
-2.3571428571
 70
160
 71
2
 72
2
 41
0.9
 42
82.0
  3
DIMSTYLE_1
100
AcDbAlignedDimension
 13
-85.3553999741
 23
41.0
 14
-85.3553999741
 24
-41.0
 50
270.0
100
AcDbRotatedDimension
  0
LWPOLYLINE
  5
23A
100
AcDbEntity
  8
RACCORDO
100
AcDbPolyline
 62
250
  6
CONTINUOUS
 90
37
 70
0
 10
-72.1909734094
 20
39.4926179677
 10
-72.1900337238
 20
39.4941300362
 10
-72.1888820761
 20
39.4956385888
 10
-72.1875186072
 20
39.4971450868
 10
-72.1859427693
 20
39.4986525596
 10
-72.184154626
 20
39.5001604313
 10
-72.1821554967
 20
39.5016651062
 10
-72.1799453736
 20
39.5031684895
 10
-72.1775239027
 20
39.5046716748
 10
-72.1748927118
 20
39.5061706822
 10
-72.172051824
 20
39.5076675743
 10
-72.169000909
 20
39.5091636761
 10
-72.165741834
 20
39.510654627
 10
-72.1622747043
 20
39.5121426358
 10
-72.1585992496
 20
39.513629257
 10
-72.154717488
 20
39.5151097722
 10
-72.1506296394
 20
39.5165865231
 10
-72.1463355377
 20
39.5180612841
 10
-72.1418372785
 20
39.5195290032
 10
-72.1371352262
 20
39.5209921409
 10
-72.1322293564
 20
39.5224526784
 10
-72.1271217768
 20
39.5239052621
 10
-72.1218130186
 20
39.5253524545
 10
-72.116303231
 20
39.5267964267
 10
-72.1105944827
 20
39.5282315603
 10
-72.1046874877
 20
39.5296605015
 10
-72.0985825933
 20
39.531085592
 10
-72.0922817902
 20
39.5325009885
 10
-72.0857859856
 20
39.5339094031
 10
-72.079095741
 20
39.5353133248
 10
-72.0722129445
 20
39.5367067288
 10
-72.0651386999
 20
39.5380923743
 10
-72.0578737931
 20
39.5394728736
 10
-72.0504199952
 20
39.5408420645
 10
-72.0427786062
 20
39.5422027352
 10
-72.0349506396
 20
39.5435575963
 10
-72.0269377452
 20
39.5449003915
  0
LWPOLYLINE
  5
23B
100
AcDbEntity
  8
RACCORDO
100
AcDbPolyline
 62
250
  6
CONTINUOUS
 90
40
 70
0
 10
-72.1909734094
 20
-39.4926179677
 10
-72.190034197
 20
-39.4941274054
 10
-72.1888824862
 20
-39.4956365757
 10
-72.1875184812
 20
-39.4971452108
 10
-72.1859424242
 20
-39.498653043
 10
-72.1841545949
 20
-39.5001598049
 10
-72.1821553106
 20
-39.5016652289
 10
-72.1799449259
 20
-39.5031690479
 10
-72.1775238333
 20
-39.504670995
 10
-72.1748924623
 20
-39.5061708037
 10
-72.17205128
 20
-39.5076682077
 10
-72.1690007905
 20
-39.5091629415
 10
-72.1657415352
 20
-39.5106547397
 10
-72.1622740925
 20
-39.5121433376
 10
-72.1585990778
 20
-39.513628471
 10
-72.1547171432
 20
-39.5151098763
 10
-72.1506289776
 20
-39.5165872906
 10
-72.1463353065
 20
-39.5180604519
 10
-72.141836892
 20
-39.5195290985
 10
-72.1371345322
 20
-39.5209929699
 10
-72.1322290618
 20
-39.5224518064
 10
-72.1271213513
 20
-39.523905349
 10
-72.121812307
 20
-39.5253533397
 10
-72.1163028712
 20
-39.5267955216
 10
-72.1105940216
 20
-39.5282316389
 10
-72.1046867713
 20
-39.5296614365
 10
-72.0985821686
 20
-39.5310846607
 10
-72.0922812969
 20
-39.5325010591
 10
-72.0857852744
 20
-39.5339103802
 10
-72.0790952538
 20
-39.535312374
 10
-72.0722124225
 20
-39.5367067916
 10
-72.0651380018
 20
-39.5380933855
 10
-72.0578732472
 20
-39.5394719098
 10
-72.050419448
 20
-39.5408421197
 10
-72.0427779269
 20
-39.542203772
 10
-72.0349500401
 20
-39.5435566253
 10
-72.0269371766
 20
-39.5449004393
 10
-72.0187407586
 20
-39.5462349756
 10
-72.0103622405
 20
-39.5475599974
 10
-71.9930648838
 20
-39.5501805585
  0
LWPOLYLINE
  5
23C
100
AcDbEntity
  8
RACCORDO
100
AcDbPolyline
 62
250
  6
CONTINUOUS
 90
121
 70
0
 10
-72.1909734094
 20
-39.4926179677
 10
-72.1908282188
 20
-39.5082761794
 10
-72.1904784456
 20
-39.5239318357
 10
-72.189924145
 20
-39.5395822634
 10
-72.1891654048
 20
-39.5552248295
 10
-72.1882023511
 20
-39.5708568235
 10
-72.1870351533
 20
-39.5864754583
 10
-72.1856640145
 20
-39.6020780255
 10
-72.1840891661
 20
-39.6176619027
 10
-72.1823108762
 20
-39.6332244362
 10
-72.1803294473
 20
-39.6487629735
 10
-72.1781452181
 20
-39.6642748565
 10
-72.1757585624
 20
-39.6797574294
 10
-72.1731698881
 20
-39.6952080461
 10
-72.170379637
 20
-39.7106240708
 10
-72.1673882853
 20
-39.7260028718
 10
-72.1641963438
 20
-39.7413418234
 10
-72.1608043575
 20
-39.7566383063
 10
-72.1572129056
 20
-39.7718897079
 10
-72.1534226016
 20
-39.7870934239
 10
-72.1494340926
 20
-39.8022468585
 10
-72.1452480595
 20
-39.8173474246
 10
-72.1408652171
 20
-39.8323925438
 10
-72.1362863137
 20
-39.8473796471
 10
-72.1315121313
 20
-39.8623061755
 10
-72.1265434849
 20
-39.8771695802
 10
-72.121381223
 20
-39.8919673235
 10
-72.116026227
 20
-39.9066968787
 10
-72.1104794113
 20
-39.9213557308
 10
-72.104741723
 20
-39.9359413767
 10
-72.0988141417
 20
-39.950451326
 10
-72.0926976796
 20
-39.9648831011
 10
-72.0863933811
 20
-39.979234238
 10
-72.0799023225
 20
-39.9935022861
 10
-72.0732256123
 20
-40.0076848093
 10
-72.0663643905
 20
-40.0217793858
 10
-72.0593198285
 20
-40.0357836091
 10
-72.0520931293
 20
-40.0496950879
 10
-72.0446855268
 20
-40.063511447
 10
-72.0370982858
 20
-40.0772303272
 10
-72.0293327018
 20
-40.090849386
 10
-72.0213901007
 20
-40.1043662981
 10
-72.0132718389
 20
-40.1177787553
 10
-72.0049793023
 20
-40.1310844677
 10
-71.9965139071
 20
-40.1442811632
 10
-71.9878770985
 20
-40.1573665885
 10
-71.9790703514
 20
-40.1703385093
 10
-71.9700951694
 20
-40.1831947107
 10
-71.9609530851
 20
-40.1959329976
 10
-71.9516456594
 20
-40.2085511948
 10
-71.9421744816
 20
-40.2210471479
 10
-71.9325411688
 20
-40.2334187231
 10
-71.922747366
 20
-40.2456638082
 10
-71.9127947453
 20
-40.2577803121
 10
-71.9026850063
 20
-40.2697661661
 10
-71.892419875
 20
-40.2816193236
 10
-71.8820011043
 20
-40.2933377607
 10
-71.8714304731
 20
-40.3049194765
 10
-71.8607097863
 20
-40.3163624935
 10
-71.8498408746
 20
-40.3276648577
 10
-71.8388255937
 20
-40.3388246392
 10
-71.8276658244
 20
-40.3498399327
 10
-71.8163634723
 20
-40.3607088572
 10
-71.8049204673
 20
-40.3714295569
 10
-71.7933387631
 20
-40.3820002013
 10
-71.7816203374
 20
-40.3924189854
 10
-71.7697671911
 20
-40.4026841303
 10
-71.757781348
 20
-40.4127938831
 10
-71.7456648547
 20
-40.4227465177
 10
-71.7334197801
 20
-40.4325403347
 10
-71.721048215
 20
-40.4421736618
 10
-71.7085522719
 20
-40.4516448541
 10
-71.6959340843
 20
-40.4609522944
 10
-71.6831958068
 20
-40.4700943935
 10
-71.6703396145
 20
-40.4790695905
 10
-71.6573677025
 20
-40.4878763527
 10
-71.6442822858
 20
-40.4965131766
 10
-71.6310855986
 20
-40.5049785872
 10
-71.6177798943
 20
-40.5132711393
 10
-71.6043674448
 20
-40.5213894168
 10
-71.5908505403
 20
-40.5293320336
 10
-71.5772314886
 20
-40.5370976335
 10
-71.5635126154
 20
-40.5446848905
 10
-71.5496962629
 20
-40.5520925091
 10
-71.5357847904
 20
-40.5593192245
 10
-71.5217805733
 20
-40.5663638028
 10
-71.5076860026
 20
-40.573225041
 10
-71.493503485
 20
-40.5799017676
 10
-71.4792354422
 20
-40.5863928427
 10
-71.4648843103
 20
-40.5926971578
 10
-71.4504525399
 20
-40.5988136365
 10
-71.4359425952
 20
-40.6047412344
 10
-71.4213569535
 20
-40.6104789395
 10
-71.4066981056
 20
-40.6160257719
 10
-71.3919685542
 20
-40.6213807847
 10
-71.3771708145
 20
-40.6265430633
 10
-71.3623074131
 20
-40.6315117265
 10
-71.347380888
 20
-40.6362859257
 10
-71.3323937878
 20
-40.6408648459
 10
-71.3173486715
 20
-40.6452477051
 10
-71.302248108
 20
-40.649433755
 10
-71.2870946758
 20
-40.6534222808
 10
-71.2718909623
 20
-40.6572126016
 10
-71.2566395635
 20
-40.66080407
 10
-71.2413430835
 20
-40.664196073
 10
-71.2260041341
 20
-40.6673880312
 10
-71.2106253345
 20
-40.6703793998
 10
-71.1952093106
 20
-40.6731696678
 10
-71.1797586946
 20
-40.6757583589
 10
-71.1642761246
 20
-40.6781450311
 10
-71.1487642444
 20
-40.6803292768
 10
-71.1332257025
 20
-40.6823107231
 10
-71.1176631521
 20
-40.6840890316
 10
-71.1020792504
 20
-40.6856638988
 10
-71.0864766585
 20
-40.6870350557
 10
-71.0708580405
 20
-40.6882022681
 10
-71.0552260632
 20
-40.6891653369
 10
-71.0395833957
 20
-40.6899240975
 10
-71.0239327088
 20
-40.6904784204
 10
-71.0082766751
 20
-40.6908282109
 10
-70.9926179677
 20
-40.6909734094
  0
LINE
  5
23D
100
AcDbEntity
  8
RACCORDO
100
AcDbLine
 62
7
  6
CONTINUOUS
 10
-72.5
 20
-39.8016445583
 11
-72.5
 21
-3.6749773271
  0
LINE
  5
23E
100
AcDbEntity
  8
RACCORDO
100
AcDbLine
 62
7
  6
CONTINUOUS
 10
-72.5
 20
3.6749773271
 11
-72.5
 21
39.8016445583
  0
LINE
  5
23F
100
AcDbEntity
  8
DRAFT
100
AcDbLine
 62
7
  6
CONTINUOUS
 10
-72.3951844414
 20
3.5
 11
-72.3951844414
 21
-3.5
  0
LWPOLYLINE
  5
240
100
AcDbEntity
  8
RACCORDO
100
AcDbPolyline
 62
250
  6
CONTINUOUS
 90
97
 70
0
 10
-72.1909734097
 20
-39.492617968
 10
-72.1869435144
 20
-38.6722216511
 10
-72.1829982446
 20
-37.851680924
 10
-72.1791376005
 20
-37.0309957867
 10
-72.1753615657
 20
-36.2101626457
 10
-72.1716701564
 20
-35.3891850945
 10
-72.1680634216
 20
-34.5680739137
 10
-72.164541364
 20
-33.7468294541
 10
-72.1611039808
 20
-32.9254513648
 10
-72.1577513125
 20
-32.1039493741
 10
-72.1544833602
 20
-31.2823235091
 10
-72.1513001229
 20
-30.4605737426
 10
-72.1482016373
 20
-29.6387097204
 10
-72.1451879049
 20
-28.8167315175
 10
-72.1422589243
 20
-27.9946390588
 10
-72.1394147288
 20
-27.1724417657
 10
-72.1366553193
 20
-26.3501396717
 10
-72.1339806949
 20
-25.5277327432
 10
-72.1313908855
 20
-24.7052303006
 10
-72.1288858921
 20
-23.8826323145
 10
-72.1264657138
 20
-23.0599388144
 10
-72.1241303783
 20
-22.2371592091
 10
-72.1218798864
 20
-21.4142934432
 10
-72.1197142372
 20
-20.5913415721
 10
-72.1176334559
 20
-19.7683131709
 10
-72.1156375436
 20
-18.9452082159
 10
-72.1137264993
 20
-18.1220267308
 10
-72.1119003452
 20
-17.2987783617
 10
-72.1101590826
 20
-16.4754631197
 10
-72.1085027102
 20
-15.6520809937
 10
-72.1069312475
 20
-14.8286415971
 10
-72.1054446953
 20
-14.0051449535
 10
-72.1040430527
 20
-13.1815910393
 10
-72.1027263358
 20
-12.3579893969
 10
-72.1014945456
 20
-11.5343400348
 10
-72.1003476811
 20
-10.7106429444
 10
-72.0992857554
 20
-9.8869076426
 10
-72.0983087696
 20
-9.0631341254
 10
-72.0974167227
 20
-8.2393223967
 10
-72.0966096249
 20
-7.4154819846
 10
-72.0958874772
 20
-6.5916128805
 10
-72.0952502786
 20
-5.7677150931
 10
-72.0946980366
 20
-4.9437981766
 10
-72.0942307521
 20
-4.1198621277
 10
-72.0938484241
 20
-3.2959069498
 10
-72.093551057
 20
-2.471942207
 10
-72.0933386519
 20
-1.6479678991
 10
-72.0932112078
 20
-0.8239840264
 10
-72.093168726
 20
-0.0000001537
 10
-72.0932112077
 20
0.823983719
 10
-72.0933386518
 20
1.6479675917
 10
-72.0935510569
 20
2.4719418995
 10
-72.0938484239
 20
3.2959066421
 10
-72.0942307519
 20
4.1198618199
 10
-72.0946980364
 20
4.9437978687
 10
-72.0952502784
 20
5.767714785
 10
-72.0958874769
 20
6.5916125723
 10
-72.0966096246
 20
7.4154816762
 10
-72.0974167223
 20
8.2393220881
 10
-72.0983087693
 20
9.0631338167
 10
-72.0992857551
 20
9.8869073336
 10
-72.1003476807
 20
10.7106426351
 10
-72.1014945452
 20
11.5343397251
 10
-72.1027263353
 20
12.3579890866
 10
-72.1040430522
 20
13.1815907284
 10
-72.1054446948
 20
14.0051446417
 10
-72.1069312469
 20
14.8286412844
 10
-72.1085027096
 20
15.6520806799
 10
-72.1101590819
 20
16.4754628048
 10
-72.1119003445
 20
17.2987780458
 10
-72.1137264985
 20
18.122026414
 10
-72.1156375429
 20
18.9452078984
 10
-72.1176334551
 20
19.7683128528
 10
-72.1197142363
 20
20.5913412537
 10
-72.1218798855
 20
21.4142931246
 10
-72.1241303774
 20
22.2371588904
 10
-72.1264657129
 20
23.0599384958
 10
-72.1288858912
 20
23.882631996
 10
-72.1313908845
 20
24.7052299818
 10
-72.1339806938
 20
25.5277324236
 10
-72.1366553182
 20
26.350139351
 10
-72.1394147277
 20
27.1724414435
 10
-72.1422589232
 20
27.9946387347
 10
-72.1451879037
 20
28.8167311911
 10
-72.1482016361
 20
29.6387093918
 10
-72.1513001216
 20
30.4605734118
 10
-72.1544833589
 20
31.2823231761
 10
-72.1577513111
 20
32.1039490385
 10
-72.1611039794
 20
32.9254510244
 10
-72.1645413625
 20
33.7468291084
 10
-72.1680634201
 20
34.5680735683
 10
-72.1716701549
 20
35.3891847489
 10
-72.1753615641
 20
36.2101623053
 10
-72.1791375991
 20
37.030995481
 10
-72.1829982435
 20
37.8516806906
 10
-72.1869435137
 20
38.6722215196
 10
-72.1909734097
 20
39.492617968
  0
LWPOLYLINE
  5
241
100
AcDbEntity
  8
RACCORDO
100
AcDbPolyline
 62
250
  6
CONTINUOUS
 90
121
 70
0
 10
-72.1909734094
 20
39.4926179677
 10
-72.1908282111
 20
39.5082766638
 10
-72.190478421
 20
39.5239326863
 10
-72.1899240989
 20
39.5395833618
 10
-72.1891653394
 20
39.5552260181
 10
-72.188202272
 20
39.5708579842
 10
-72.1870350612
 20
39.586476591
 10
-72.1856639062
 20
39.6020791716
 10
-72.1840890413
 20
39.617663062
 10
-72.1823107353
 20
39.6332256012
 10
-72.1803292919
 20
39.648764132
 10
-72.1781450493
 20
39.6642760011
 10
-72.1757583805
 20
39.67975856
 10
-72.1731696931
 20
39.6952091651
 10
-72.1703794291
 20
39.7106251781
 10
-72.1673880649
 20
39.7260039669
 10
-72.1641961112
 20
39.7413429055
 10
-72.1608041132
 20
39.7566393749
 10
-72.1572126498
 20
39.7718907633
 10
-72.1534223345
 20
39.7870944663
 10
-72.1494338144
 20
39.8022478882
 10
-72.1452477705
 20
39.8173484415
 10
-72.1408649175
 20
39.8323935477
 10
-72.1362860039
 20
39.847380638
 10
-72.1315118115
 20
39.8623071533
 10
-72.1265431554
 20
39.877170545
 10
-72.1213808841
 20
39.8919682752
 10
-72.1160258789
 20
39.9066978172
 10
-72.1104790543
 20
39.921356656
 10
-72.1047413574
 20
39.9359422885
 10
-72.0988137678
 20
39.9504522244
 10
-72.0926972977
 20
39.9648839861
 10
-72.0863929914
 20
39.9792351095
 10
-72.0799019255
 20
39.9935031439
 10
-72.0732252082
 20
40.0076856534
 10
-72.0663639795
 20
40.0217802161
 10
-72.0593194111
 20
40.0357844256
 10
-72.0520927057
 20
40.0496958906
 10
-72.0446850973
 20
40.0635122357
 10
-72.0370978507
 20
40.0772311019
 10
-72.0293322615
 20
40.0908501466
 10
-72.0213896556
 20
40.1043670445
 10
-72.0132713891
 20
40.1177794876
 10
-72.0049788483
 20
40.1310851858
 10
-71.9965134491
 20
40.144281867
 10
-71.9878766369
 20
40.1573672781
 10
-71.9790698865
 20
40.1703391846
 10
-71.9700947015
 20
40.1831953717
 10
-71.9609526145
 20
40.1959336443
 10
-71.9516451865
 20
40.2085518272
 10
-71.9421740067
 20
40.221047766
 10
-71.9325406923
 20
40.233419327
 10
-71.9227468881
 20
40.2456643977
 10
-71.9127942664
 20
40.2577808875
 10
-71.9026845266
 20
40.2697667273
 10
-71.892419395
 20
40.2816198707
 10
-71.8820006242
 20
40.2933382937
 10
-71.8714299933
 20
40.3049199954
 10
-71.8607093071
 20
40.3163629984
 10
-71.8498403962
 20
40.3276653487
 10
-71.8388251165
 20
40.3388251165
 10
-71.8276653487
 20
40.3498403962
 10
-71.8163629984
 20
40.3607093071
 10
-71.8049199954
 20
40.3714299933
 10
-71.7933382937
 20
40.3820006242
 10
-71.7816198707
 20
40.392419395
 10
-71.7697667273
 20
40.4026845266
 10
-71.7577808875
 20
40.4127942664
 10
-71.7456643977
 20
40.4227468881
 10
-71.733419327
 20
40.4325406923
 10
-71.721047766
 20
40.4421740067
 10
-71.7085518272
 20
40.4516451865
 10
-71.6959336443
 20
40.4609526145
 10
-71.6831953717
 20
40.4700947015
 10
-71.6703391846
 20
40.4790698865
 10
-71.6573672781
 20
40.4878766369
 10
-71.644281867
 20
40.4965134491
 10
-71.6310851858
 20
40.5049788483
 10
-71.6177794876
 20
40.5132713891
 10
-71.6043670445
 20
40.5213896556
 10
-71.5908501466
 20
40.5293322615
 10
-71.5772311019
 20
40.5370978507
 10
-71.5635122357
 20
40.5446850973
 10
-71.5496958906
 20
40.5520927057
 10
-71.5357844256
 20
40.5593194111
 10
-71.5217802161
 20
40.5663639795
 10
-71.5076856534
 20
40.5732252082
 10
-71.4935031439
 20
40.5799019255
 10
-71.4792351095
 20
40.5863929914
 10
-71.4648839861
 20
40.5926972977
 10
-71.4504522244
 20
40.5988137678
 10
-71.4359422885
 20
40.6047413574
 10
-71.421356656
 20
40.6104790543
 10
-71.4066978172
 20
40.6160258789
 10
-71.3919682752
 20
40.6213808841
 10
-71.377170545
 20
40.6265431554
 10
-71.3623071533
 20
40.6315118115
 10
-71.347380638
 20
40.6362860039
 10
-71.3323935477
 20
40.6408649175
 10
-71.3173484415
 20
40.6452477705
 10
-71.3022478882
 20
40.6494338144
 10
-71.2870944663
 20
40.6534223345
 10
-71.2718907633
 20
40.6572126498
 10
-71.2566393749
 20
40.6608041132
 10
-71.2413429055
 20
40.6641961112
 10
-71.2260039669
 20
40.6673880649
 10
-71.2106251781
 20
40.6703794291
 10
-71.1952091651
 20
40.6731696931
 10
-71.17975856
 20
40.6757583805
 10
-71.1642760011
 20
40.6781450493
 10
-71.148764132
 20
40.6803292919
 10
-71.1332256012
 20
40.6823107353
 10
-71.117663062
 20
40.6840890413
 10
-71.1020791716
 20
40.6856639062
 10
-71.086476591
 20
40.6870350612
 10
-71.0708579842
 20
40.688202272
 10
-71.0552260181
 20
40.6891653394
 10
-71.0395833618
 20
40.6899240989
 10
-71.0239326863
 20
40.690478421
 10
-71.0082766638
 20
40.6908282111
 10
-70.9926179677
 20
40.6909734094
  0
LINE
  5
242
100
AcDbEntity
  8
RACCORDO
100
AcDbLine
 62
250
  6
CONTINUOUS
 10
-70.9926179677
 20
40.6909734094
 11
-70.9926179677
 21
39.6057773315
  0
LINE
  5
243
100
AcDbEntity
  8
RACCORDO
100
AcDbLine
 62
250
  6
CONTINUOUS
 10
-70.9926179677
 20
-39.6057773315
 11
-70.9926179677
 21
-40.6909734094
  0
LWPOLYLINE
  5
244
100
AcDbEntity
  8
RACCORDO
100
AcDbPolyline
 62
250
  6
CONTINUOUS
 90
94
 70
0
 10
-70.9926179677
 20
-39.6057773315
 10
-70.9884594647
 20
-38.7564892235
 10
-70.9843911418
 20
-37.9070411815
 10
-70.9804129989
 20
-37.0574367092
 10
-70.97652502
 20
-36.2076792282
 10
-70.9727272212
 20
-35.3577723265
 10
-70.9690196504
 20
-34.5077197586
 10
-70.9654023089
 20
-33.6575250323
 10
-70.9618751955
 20
-32.8071916533
 10
-70.9584383546
 20
-31.9567233742
 10
-70.9550917876
 20
-31.1061237599
 10
-70.951835493
 20
-30.2553962625
 10
-70.948669511
 20
-29.4045444672
 10
-70.945593843
 20
-28.5535719656
 10
-70.9426084876
 20
-27.7024821862
 10
-70.9397134808
 20
-26.8512784706
 10
-70.9369088236
 20
-25.9999643566
 10
-70.934194515
 20
-25.1485433293
 10
-70.9315705876
 20
-24.2970186515
 10
-70.9290370422
 20
-23.4453937909
 10
-70.9265938779
 20
-22.593672305
 10
-70.9242411247
 20
-21.7418575925
 10
-70.9219787835
 20
-20.8899531123
 10
-70.9198068533
 20
-20.0379624329
 10
-70.9177253611
 20
-19.1858891177
 10
-70.9157343081
 20
-18.3337366668
 10
-70.9138336932
 20
-17.4815086097
 10
-70.9120235399
 20
-16.6292085544
 10
-70.9103038495
 20
-15.7768400381
 10
-70.9086746209
 20
-14.9244065551
 10
-70.907135874
 20
-14.0719116503
 10
-70.9056876101
 20
-13.2193588627
 10
-70.904329828
 20
-12.3667516863
 10
-70.9030625443
 20
-11.5140935989
 10
-70.9018857602
 20
-10.6613881221
 10
-70.9007994745
 20
-9.8086387686
 10
-70.8998037005
 20
-8.9558490028
 10
-70.8988984393
 20
-8.103022335
 10
-70.8980836899
 20
-7.2501622902
 10
-70.8973594622
 20
-6.3972723558
 10
-70.8967257574
 20
-5.5443560423
 10
-70.8961825743
 20
-4.6914168754
 10
-70.8957299197
 20
-3.8384583647
 10
-70.8953677947
 20
-2.9854840274
 10
-70.8950961982
 20
-2.132497383
 10
-70.8949151334
 20
-1.2795019452
 10
-70.8948246016
 20
-0.4265012329
 10
-70.8948246016
 20
0.4265012359
 10
-70.8949151334
 20
1.2795019483
 10
-70.8950961982
 20
2.132497386
 10
-70.8953677947
 20
2.9854840304
 10
-70.8957299197
 20
3.8384583677
 10
-70.8961825743
 20
4.6914168783
 10
-70.8967257574
 20
5.5443560452
 10
-70.8973594622
 20
6.3972723586
 10
-70.8980836899
 20
7.250162293
 10
-70.8988984393
 20
8.1030223378
 10
-70.8998037005
 20
8.9558490057
 10
-70.9007994745
 20
9.8086387715
 10
-70.9018857602
 20
10.661388125
 10
-70.9030625443
 20
11.5140936019
 10
-70.904329828
 20
12.3667516894
 10
-70.9056876101
 20
13.2193588658
 10
-70.907135874
 20
14.0719116535
 10
-70.9086746209
 20
14.9244065583
 10
-70.9103038495
 20
15.7768400414
 10
-70.9120235399
 20
16.6292085577
 10
-70.9138336932
 20
17.4815086128
 10
-70.9157343081
 20
18.3337366698
 10
-70.9177253611
 20
19.1858891205
 10
-70.9198068533
 20
20.0379624355
 10
-70.9219787835
 20
20.8899531147
 10
-70.9242411247
 20
21.7418575947
 10
-70.9265938779
 20
22.5936723071
 10
-70.9290370422
 20
23.4453937929
 10
-70.9315705876
 20
24.2970186536
 10
-70.934194515
 20
25.1485433316
 10
-70.9369088236
 20
25.9999643593
 10
-70.9397134808
 20
26.8512784737
 10
-70.9426084876
 20
27.7024821898
 10
-70.945593843
 20
28.5535719697
 10
-70.948669511
 20
29.4045444718
 10
-70.951835493
 20
30.2553962673
 10
-70.9550917876
 20
31.1061237648
 10
-70.9584383546
 20
31.9567233792
 10
-70.9618751956
 20
32.8071916579
 10
-70.965402309
 20
33.6575250364
 10
-70.9690196504
 20
34.5077197622
 10
-70.9727272212
 20
35.3577723294
 10
-70.97652502
 20
36.2076792304
 10
-70.9804129989
 20
37.0574367107
 10
-70.9843911418
 20
37.9070411824
 10
-70.9884594647
 20
38.756489224
 10
-70.9926179677
 20
39.6057773315
  0
LINE
  5
245
100
AcDbEntity
  8
RACCORDO
100
AcDbLine
 62
250
  6
CONTINUOUS
 10
-51.0583191773
 20
39.3228767649
 11
-50.987726234
 21
39.3930598669
  0
LINE
  5
246
100
AcDbEntity
  8
RACCORDO
100
AcDbLine
 62
250
  6
CONTINUOUS
 10
-50.987726234
 20
39.3930598669
 11
-50.9166383553
 21
39.4635311047
  0
LINE
  5
247
100
AcDbEntity
  8
RACCORDO
100
AcDbLine
 62
250
  6
CONTINUOUS
 10
-51.0583191777
 20
-39.3228767647
 11
-50.9166383553
 21
-39.4635311044
  0
LINE
  5
248
100
AcDbEntity
  8
DRAFT
100
AcDbLine
 62
7
  6
CONTINUOUS
 10
-72.3951844414
 20
-3.5
 11
-72.5
 21
-3.6749773271
  0
LINE
  5
249
100
AcDbEntity
  8
DRAFT
100
AcDbLine
 62
7
  6
CONTINUOUS
 10
-72.5
 20
3.6749773271
 11
-72.3951844414
 21
3.5
  0
LINE
  5
24A
100
AcDbEntity
  8
RACCORDO
100
AcDbLine
 62
7
  6
CONTINUOUS
 10
-49.9985171909
 20
-22.3046516003
 11
-49.9990343515
 21
-22.2984584678
  0
LWPOLYLINE
  5
24B
100
AcDbEntity
  8
RACCORDO
100
AcDbPolyline
 62
250
  6
CONTINUOUS
 90
61
 70
0
 10
-50.0
 20
-25.9333767861
 10
-49.9998918534
 20
-25.9361522124
 10
-49.9995674332
 20
-25.9389271385
 10
-49.9990267978
 20
-25.9417010641
 10
-49.9982700447
 20
-25.9444734893
 10
-49.9972973102
 20
-25.9472439145
 10
-49.9961087697
 20
-25.9500118401
 10
-49.9947046375
 20
-25.9527767674
 10
-49.9930851666
 20
-25.9555381979
 10
-49.9912506489
 20
-25.958295634
 10
-49.989201415
 20
-25.9610485786
 10
-49.9869378344
 20
-25.9637965355
 10
-49.9844603151
 20
-25.9665390094
 10
-49.9817693035
 20
-25.969275506
 10
-49.9788652848
 20
-25.9720055321
 10
-49.9757487823
 20
-25.9747285955
 10
-49.9724203578
 20
-25.9774442056
 10
-49.9688806113
 20
-25.9801518727
 10
-49.9651301807
 20
-25.9828511089
 10
-49.9611697421
 20
-25.9855414276
 10
-49.9570000092
 20
-25.988222344
 10
-49.9526217337
 20
-25.9908933747
 10
-49.9480357047
 20
-25.9935540384
 10
-49.9432427488
 20
-25.9962038556
 10
-49.93824373
 20
-25.9988423484
 10
-49.9330395492
 20
-26.0014690415
 10
-49.9276311445
 20
-26.0040834614
 10
-49.9220194908
 20
-26.0066851368
 10
-49.9162055994
 20
-26.0092735987
 10
-49.9101905184
 20
-26.0118483807
 10
-49.9039753319
 20
-26.0144090187
 10
-49.8975611601
 20
-26.016955051
 10
-49.8909491592
 20
-26.0194860189
 10
-49.8841405209
 20
-26.022001466
 10
-49.8771364725
 20
-26.0245009391
 10
-49.8699382764
 20
-26.0269839875
 10
-49.8625472301
 20
-26.0294501638
 10
-49.8549646656
 20
-26.0318990234
 10
-49.8471919499
 20
-26.034330125
 10
-49.8392304837
 20
-26.0367430302
 10
-49.8310817022
 20
-26.0391373043
 10
-49.8227470741
 20
-26.0415125157
 10
-49.8142281017
 20
-26.0438682362
 10
-49.8055263205
 20
-26.0462040413
 10
-49.7966432989
 20
-26.0485195099
 10
-49.787580638
 20
-26.0508142246
 10
-49.7783399714
 20
-26.053087772
 10
-49.7689229646
 20
-26.0553397421
 10
-49.759331315
 20
-26.0575697291
 10
-49.7495667513
 20
-26.0597773311
 10
-49.7396310337
 20
-26.06196215
 10
-49.729525953
 20
-26.0641237922
 10
-49.7192533305
 20
-26.066261868
 10
-49.7088150179
 20
-26.068375992
 10
-49.6982128965
 20
-26.0704657832
 10
-49.6874488774
 20
-26.0725308648
 10
-49.6765249007
 20
-26.0745708648
 10
-49.6654429354
 20
-26.0765854153
 10
-49.654204979
 20
-26.0785741532
 10
-49.642813057
 20
-26.0805367202
 10
-49.619575557
 20
-26.084381931
  0
LWPOLYLINE
  5
24C
100
AcDbEntity
  8
RACCORDO
100
AcDbPolyline
 62
250
  6
CONTINUOUS
 90
69
 70
0
 10
-50.0
 20
-23.2149987608
 10
-49.9998971931
 20
-23.2181730679
 10
-49.99958879
 20
-23.2213468146
 10
-49.9990748435
 20
-23.2245194569
 10
-49.9983554417
 20
-23.2276904461
 10
-49.9974307079
 20
-23.2308592442
 10
-49.9963008005
 20
-23.234025324
 10
-49.9949659131
 20
-23.2371881483
 10
-49.9934262745
 20
-23.2403471701
 10
-49.9916821484
 20
-23.2435018481
 10
-49.9897338337
 20
-23.2466516421
 10
-49.9875816642
 20
-23.2497960121
 10
-49.9852260088
 20
-23.2529344196
 10
-49.9826672709
 20
-23.2560663267
 10
-49.9799058891
 20
-23.2591911968
 10
-49.9769423366
 20
-23.2623084944
 10
-49.973777121
 20
-23.2654176855
 10
-49.9704107847
 20
-23.2685182373
 10
-49.9668439046
 20
-23.2716096187
 10
-49.9630770917
 20
-23.2746912998
 10
-49.9591109916
 20
-23.2777627527
 10
-49.9549462838
 20
-23.2808234513
 10
-49.9505836819
 20
-23.283872871
 10
-49.9460239334
 20
-23.2869104893
 10
-49.9412678196
 20
-23.2899357858
 10
-49.9363161555
 20
-23.2929482421
 10
-49.9311697894
 20
-23.295947342
 10
-49.9258296032
 20
-23.2989325716
 10
-49.9202965119
 20
-23.3019034195
 10
-49.9145714635
 20
-23.3048593765
 10
-49.9086554391
 20
-23.3077999362
 10
-49.9025494523
 20
-23.3107245948
 10
-49.8962545493
 20
-23.3136328512
 10
-49.8897718087
 20
-23.316524207
 10
-49.8831023413
 20
-23.3193981668
 10
-49.8762472899
 20
-23.3222542382
 10
-49.8692078291
 20
-23.3250919319
 10
-49.8619851651
 20
-23.3279107617
 10
-49.8545805353
 20
-23.3307102445
 10
-49.8469952086
 20
-23.3334899008
 10
-49.8392304846
 20
-23.3362492542
 10
-49.8312876939
 20
-23.3389878319
 10
-49.8231681973
 20
-23.3417051648
 10
-49.8148733861
 20
-23.3444007873
 10
-49.8064046816
 20
-23.3470742373
 10
-49.7977635349
 20
-23.349725057
 10
-49.7889514264
 20
-23.352352792
 10
-49.7799698663
 20
-23.3549569921
 10
-49.7708203933
 20
-23.3575372112
 10
-49.7615045753
 20
-23.3600930071
 10
-49.7520240085
 20
-23.3626239418
 10
-49.7423803172
 20
-23.3651295818
 10
-49.7325751539
 20
-23.3676094977
 10
-49.7226101986
 20
-23.3700632645
 10
-49.7124871588
 20
-23.3724904619
 10
-49.7022077691
 20
-23.374890674
 10
-49.6917737907
 20
-23.3772634894
 10
-49.6811870114
 20
-23.3796085017
 10
-49.6704492453
 20
-23.381925309
 10
-49.6595623322
 20
-23.3842135143
 10
-49.6485281375
 20
-23.3864727256
 10
-49.6373485519
 20
-23.3887025558
 10
-49.6260254909
 20
-23.3909026228
 10
-49.6145608947
 20
-23.3930725496
 10
-49.6029567277
 20
-23.3952119645
 10
-49.5912149782
 20
-23.3973205008
 10
-49.5793376581
 20
-23.3993977973
 10
-49.5673268025
 20
-23.401443498
 10
-49.5429127392
 20
-23.4054387154
  0
LINE
  5
24D
100
AcDbEntity
  8
RACCORDO
100
AcDbLine
 62
250
  6
CONTINUOUS
 10
-51.2
 20
39.6057773315
 11
-51.2
 21
-39.6057773315
  0
LINE
  5
24E
100
AcDbEntity
  8
RACCORDO
100
AcDbLine
 62
7
  6
CONTINUOUS
 10
-50.0
 20
25.933376785
 11
-50.0
 21
-25.9333767851
  0
LWPOLYLINE
  5
24F
100
AcDbEntity
  8
RACCORDO
100
AcDbPolyline
 62
250
  6
CONTINUOUS
 90
112
 70
0
 10
-50.0
 20
-25.9333767861
 10
-50.0002729109
 20
-26.1491787743
 10
-50.0010979859
 20
-26.3679338148
 10
-50.0024845838
 20
-26.589641546
 10
-50.004442271
 20
-26.8143859696
 10
-50.0069797455
 20
-27.0420822018
 10
-50.010103747
 20
-27.272476428
 10
-50.013821583
 20
-27.5055772158
 10
-50.0181404754
 20
-27.7413746762
 10
-50.0230648198
 20
-27.9795871482
 10
-50.0286011094
 20
-28.2202639283
 10
-50.0347540904
 20
-28.4633539701
 10
-50.0415226835
 20
-28.708424927
 10
-50.048910201
 20
-28.9555001331
 10
-50.05691929
 20
-29.2045540486
 10
-50.0655441513
 20
-29.4550808434
 10
-50.0747851334
 20
-29.7070965575
 10
-50.0846423261
 20
-29.9605825342
 10
-50.0951057556
 20
-30.2149807521
 10
-50.1061753421
 20
-30.4703576986
 10
-50.1178464455
 20
-30.7266439291
 10
-50.130097559
 20
-30.9830774169
 10
-50.1429244955
 20
-31.2397056745
 10
-50.1563194599
 20
-31.4964779978
 10
-50.1702493652
 20
-31.7524849969
 10
-50.1847036753
 20
-32.0077236775
 10
-50.1996728598
 20
-32.2621937977
 10
-50.2151190954
 20
-32.5149901524
 10
-50.2310398558
 20
-32.7662746392
 10
-50.2474118
 20
-33.015882259
 10
-50.2641573544
 20
-33.2624176988
 10
-50.2813078177
 20
-33.506531543
 10
-50.2987970582
 20
-33.7475705988
 10
-50.3163789793
 20
-33.9821848607
 10
-50.3340199175
 20
-34.2102557966
 10
-50.3516862891
 20
-34.4319015257
 10
-50.3691017783
 20
-34.644128809
 10
-50.3861127137
 20
-34.8455617127
 10
-50.4027832761
 20
-35.037578703
 10
-50.4191567311
 20
-35.2213189491
 10
-50.4351908021
 20
-35.3966775743
 10
-50.4508644025
 20
-35.563761977
 10
-50.4662642469
 20
-35.7240292179
 10
-50.4813841635
 20
-35.8776597954
 10
-50.4961866053
 20
-36.024475364
 10
-50.5107200859
 20
-36.1653941957
 10
-50.5249700362
 20
-36.3004488492
 10
-50.5389181007
 20
-36.4296087813
 10
-50.5526125605
 20
-36.553697241
 10
-50.5660353977
 20
-36.6726857621
 10
-50.5791798811
 20
-36.7866046111
 10
-50.5921158934
 20
-36.8963647247
 10
-50.6048594789
 20
-37.0021845309
 10
-50.6173773885
 20
-37.1038469592
 10
-50.6296682587
 20
-37.2016094537
 10
-50.6417267952
 20
-37.2954836575
 10
-50.6535434691
 20
-37.3854593482
 10
-50.6651112774
 20
-37.4717611576
 10
-50.6764038829
 20
-37.5542515349
 10
-50.6874347684
 20
-37.633069506
 10
-50.6982580506
 20
-37.708854411
 10
-50.7088738975
 20
-37.7816597103
 10
-50.7192730235
 20
-37.8514330639
 10
-50.7294971615
 20
-37.9186548422
 10
-50.7395534549
 20
-37.9834044537
 10
-50.7494280045
 20
-38.0456033747
 10
-50.7591319555
 20
-38.1054949303
 10
-50.7686631698
 20
-38.1630874446
 10
-50.7780181475
 20
-38.2183734196
 10
-50.7872064645
 20
-38.2715723826
 10
-50.7962253473
 20
-38.3226863429
 10
-50.8050728953
 20
-38.3717140508
 10
-50.8137603895
 20
-38.4188700848
 10
-50.8222853977
 20
-38.4641571116
 10
-50.8306465143
 20
-38.5075731499
 10
-50.8388569173
 20
-38.5493257423
 10
-50.8469136344
 20
-38.589414483
 10
-50.8548165133
 20
-38.627840386
 10
-50.8625833015
 20
-38.6648130528
 10
-50.8702109021
 20
-38.7003321961
 10
-50.8776999249
 20
-38.7343986221
 10
-50.8850740209
 20
-38.7672234882
 10
-50.8923334298
 20
-38.7988205573
 10
-50.8994760064
 20
-38.82917648
 10
-50.9065221258
 20
-38.8584616627
 10
-50.9134830714
 20
-38.8867267249
 10
-50.9203461062
 20
-38.9139213674
 10
-50.9270956593
 20
-38.9400646039
 10
-50.9337350843
 20
-38.9651653303
 10
-50.9402596099
 20
-38.989215017
 10
-50.946641362
 20
-39.0122066006
 10
-50.952869786
 20
-39.034102203
 10
-50.9589539976
 20
-39.0549401462
 10
-50.9648955912
 20
-39.0748276982
 10
-50.9706860961
 20
-39.0937446367
 10
-50.9763327841
 20
-39.1117115928
 10
-50.9818609925
 20
-39.1288970705
 10
-50.9872669917
 20
-39.1453010586
 10
-50.9925536353
 20
-39.1609238816
 10
-50.9977563277
 20
-39.1759344635
 10
-51.0028716423
 20
-39.190335654
 10
-51.0079024104
 20
-39.2041248142
 10
-51.0128936238
 20
-39.2174625342
 10
-51.0178414914
 20
-39.2303530281
 10
-51.0227494541
 20
-39.2427921808
 10
-51.0276735596
 20
-39.2549279699
 10
-51.03260839
 20
-39.2667648162
 10
-51.0375592343
 20
-39.2782982688
 10
-51.042598431
 20
-39.2896628491
 10
-51.0477501831
 20
-39.3009032904
 10
-51.0529904185
 20
-39.3119746314
 10
-51.0583191776
 20
-39.3228767647
  0
LWPOLYLINE
  5
250
100
AcDbEntity
  8
RACCORDO
100
AcDbPolyline
 62
250
  6
CONTINUOUS
 90
67
 70
0
 10
-50.0
 20
23.2149987606
 10
-49.9998971931
 20
23.2181730539
 10
-49.99958879
 20
23.2213467874
 10
-49.9990748435
 20
23.2245194173
 10
-49.9983554417
 20
23.2276903948
 10
-49.9974307079
 20
23.2308591818
 10
-49.9963008005
 20
23.2340252512
 10
-49.9949659131
 20
23.2371880658
 10
-49.9934262745
 20
23.2403470785
 10
-49.9916821484
 20
23.243501748
 10
-49.9897338337
 20
23.2466515341
 10
-49.9875816642
 20
23.2497958968
 10
-49.9852260088
 20
23.2529342975
 10
-49.9826672709
 20
23.2560661983
 10
-49.9799058891
 20
23.2591910626
 10
-49.9769423366
 20
23.2623083551
 10
-49.9737771209
 20
23.2654175414
 10
-49.9704107847
 20
23.2685180889
 10
-49.9668439046
 20
23.2716094663
 10
-49.9630770917
 20
23.274691144
 10
-49.9591109916
 20
23.2777625938
 10
-49.9549462838
 20
23.2808232897
 10
-49.9505836819
 20
23.283872707
 10
-49.9460239334
 20
23.2869103234
 10
-49.9412678196
 20
23.2899356183
 10
-49.9363161555
 20
23.2929480732
 10
-49.9311697894
 20
23.2959471721
 10
-49.9258296032
 20
23.298932401
 10
-49.9202965119
 20
23.3019032483
 10
-49.9145714635
 20
23.3048592051
 10
-49.9086554391
 20
23.3077997648
 10
-49.9025494523
 20
23.3107244236
 10
-49.8962545493
 20
23.3136326804
 10
-49.8897718087
 20
23.3165240368
 10
-49.8831023413
 20
23.3193979974
 10
-49.8762472899
 20
23.3222540698
 10
-49.8692078291
 20
23.3250917647
 10
-49.861985165
 20
23.3279105957
 10
-49.8545805353
 20
23.33071008
 10
-49.8469952086
 20
23.3334897379
 10
-49.8392304846
 20
23.336249093
 10
-49.8312876939
 20
23.3389876725
 10
-49.8231681973
 20
23.3417050073
 10
-49.8148733861
 20
23.3444006317
 10
-49.8064046816
 20
23.3470740839
 10
-49.7977635348
 20
23.3497249057
 10
-49.7889514264
 20
23.352352643
 10
-49.7799698663
 20
23.3549568454
 10
-49.7708203933
 20
23.3575370669
 10
-49.7615045753
 20
23.3600928652
 10
-49.7520240084
 20
23.3626238024
 10
-49.7423803171
 20
23.3651294449
 10
-49.7325751538
 20
23.3676093633
 10
-49.7226101986
 20
23.3700631327
 10
-49.7124871588
 20
23.3724903327
 10
-49.7022077691
 20
23.3748905473
 10
-49.6917737906
 20
23.3772633654
 10
-49.6811870114
 20
23.3796083803
 10
-49.6704492453
 20
23.3819251902
 10
-49.6595623322
 20
23.3842133981
 10
-49.6485281375
 20
23.3864726121
 10
-49.6373485519
 20
23.3887024448
 10
-49.6260254909
 20
23.3909025144
 10
-49.6145608947
 20
23.3930724438
 10
-49.6029567277
 20
23.3952118612
 10
-49.5912149782
 20
23.3973204001
 10
-49.579337658
 20
23.3993976991
  0
LWPOLYLINE
  5
251
100
AcDbEntity
  8
RACCORDO
100
AcDbPolyline
 62
250
  6
CONTINUOUS
 90
60
 70
0
 10
-50.0
 20
25.933376786
 10
-49.9998918534
 20
25.9361522123
 10
-49.9995674332
 20
25.9389271383
 10
-49.9990267978
 20
25.941701064
 10
-49.9982700447
 20
25.9444734892
 10
-49.9972973102
 20
25.9472439143
 10
-49.9961087698
 20
25.9500118399
 10
-49.9947046375
 20
25.9527767672
 10
-49.9930851666
 20
25.9555381977
 10
-49.9912506489
 20
25.9582956338
 10
-49.9892014151
 20
25.9610485784
 10
-49.9869378345
 20
25.9637965353
 10
-49.9844603151
 20
25.9665390092
 10
-49.9817693036
 20
25.9692755058
 10
-49.9788652849
 20
25.9720055318
 10
-49.9757487824
 20
25.9747285953
 10
-49.972420358
 20
25.9774442053
 10
-49.9688806114
 20
25.9801518725
 10
-49.9651301809
 20
25.9828511086
 10
-49.9611697422
 20
25.9855414274
 10
-49.9570000094
 20
25.9882223437
 10
-49.9526217339
 20
25.9908933745
 10
-49.9480357049
 20
25.9935540382
 10
-49.9432427491
 20
25.9962038553
 10
-49.9382437302
 20
25.9988423482
 10
-49.9330395495
 20
26.0014690413
 10
-49.9276311448
 20
26.0040834611
 10
-49.9220194911
 20
26.0066851365
 10
-49.9162055998
 20
26.0092735984
 10
-49.9101905188
 20
26.0118483804
 10
-49.9039753323
 20
26.0144090184
 10
-49.8975611605
 20
26.0169550507
 10
-49.8909491596
 20
26.0194860186
 10
-49.8841405214
 20
26.0220014657
 10
-49.877136473
 20
26.0245009388
 10
-49.869938277
 20
26.0269839872
 10
-49.8625472306
 20
26.0294501635
 10
-49.8549646662
 20
26.0318990231
 10
-49.8471919505
 20
26.0343301246
 10
-49.8392304844
 20
26.0367430299
 10
-49.8310817029
 20
26.039137304
 10
-49.8227470748
 20
26.0415125153
 10
-49.8142281025
 20
26.0438682359
 10
-49.8055263213
 20
26.0462040409
 10
-49.7966432997
 20
26.0485195095
 10
-49.7875806389
 20
26.0508142243
 10
-49.7783399723
 20
26.0530877716
 10
-49.7689229655
 20
26.0553397418
 10
-49.7593313159
 20
26.0575697288
 10
-49.7495667523
 20
26.0597773307
 10
-49.7396310347
 20
26.0619621497
 10
-49.729525954
 20
26.0641237919
 10
-49.7192533315
 20
26.0662618676
 10
-49.7088150189
 20
26.0683759916
 10
-49.6982128976
 20
26.0704657828
 10
-49.6874488785
 20
26.0725308645
 10
-49.6765249018
 20
26.0745708644
 10
-49.6654429366
 20
26.0765854149
 10
-49.6542049801
 20
26.0785741529
 10
-49.6428130582
 20
26.0805367199
  0
LWPOLYLINE
  5
252
100
AcDbEntity
  8
RACCORDO
100
AcDbPolyline
 62
7
  6
CONTINUOUS
 90
33
 70
0
 10
-49.9990340739
 20
22.2984622066
 10
-49.9985167381
 20
22.3046564761
 10
-49.9978971244
 20
22.310718635
 10
-49.9971791713
 20
22.3166484732
 10
-49.9963670949
 20
22.3224436063
 10
-49.9954604216
 20
22.3281301157
 10
-49.9944617586
 20
22.3337066278
 10
-49.9933743479
 20
22.3391688225
 10
-49.99219662
 20
22.3445344658
 10
-49.9909300305
 20
22.3498029752
 10
-49.9895777382
 20
22.3549672108
 10
-49.9881397152
 20
22.3600325074
 10
-49.9866161372
 20
22.3650016271
 10
-49.9850111073
 20
22.3698646348
 10
-49.9833307605
 20
22.3746082465
 10
-49.9815766642
 20
22.3792339444
 10
-49.9797517808
 20
22.3837393739
 10
-49.9778651797
 20
22.3881089476
 10
-49.9759184656
 20
22.3923465366
 10
-49.9739125668
 20
22.3964567255
 10
-49.9718557166
 20
22.4004296758
 10
-49.9697475781
 20
22.4042733156
 10
-49.9675851594
 20
22.4079989487
 10
-49.9653715872
 20
22.4116064858
 10
-49.9631041486
 20
22.4151054181
 10
-49.9607719115
 20
22.4185159695
 10
-49.9583628188
 20
22.4218568604
 10
-49.9558720874
 20
22.4251348302
 10
-49.9532767939
 20
22.4283785557
 10
-49.9505321426
 20
22.4316377459
 10
-49.9476071174
 20
22.4349385182
 10
-49.9444871831
 20
22.4382857338
 10
-49.9411479965
 20
22.4416941884
  0
LINE
  5
253
100
AcDbEntity
  8
RACCORDO
100
AcDbLine
 62
250
  6
CONTINUOUS
 10
72.0269377452
 20
-39.5449003915
 11
72.0103628879
 21
-39.5475609702
  0
LWPOLYLINE
  5
254
100
AcDbEntity
  8
RACCORDO
100
AcDbPolyline
 62
250
  6
CONTINUOUS
 90
3
 70
0
 10
72.0103628879
 20
-39.5475609702
 10
71.9930655146
 20
-39.5501794949
 10
71.9841498038
 20
-39.5514766026
  0
LINE
  5
255
100
AcDbEntity
  8
RACCORDO
100
AcDbLine
 62
250
  6
CONTINUOUS
 10
-71.9930648838
 20
-39.5501805585
 11
-71.9750573847
 21
-39.5527602624
  0
LWPOLYLINE
  5
256
100
AcDbEntity
  8
RACCORDO
100
AcDbPolyline
 62
7
  6
CONTINUOUS
 90
32
 70
0
 10
-49.9411490895
 20
-22.4416930999
 10
-49.9444886634
 20
-22.4382841848
 10
-49.9476090046
 20
-22.4349364417
 10
-49.9505344704
 20
-22.431635051
 10
-49.9532796369
 20
-22.4283750919
 10
-49.9558754988
 20
-22.4251304553
 10
-49.9583667724
 20
-22.4218515198
 10
-49.9607763862
 20
-22.4185095977
 10
-49.9631091308
 20
-22.4150979346
 10
-49.9653769944
 20
-22.411597912
 10
-49.9675908927
 20
-22.407989343
 10
-49.9697535669
 20
-22.4042627028
 10
-49.9718618911
 20
-22.4004180903
 10
-49.9739188664
 20
-22.3964441952
 10
-49.9759248215
 20
-22.3923331154
 10
-49.9778715001
 20
-22.3880947588
 10
-49.9797579702
 20
-22.3837245768
 10
-49.9815826379
 20
-22.379218705
 10
-49.9833364369
 20
-22.3745927624
 10
-49.9850164
 20
-22.3698491604
 10
-49.9866209798
 20
-22.3649864092
 10
-49.9881440798
 20
-22.3600177193
 10
-49.9895816015
 20
-22.354953048
 10
-49.9909333789
 20
-22.3497896378
 10
-49.9921994782
 20
-22.3445220319
 10
-49.9933767509
 20
-22.3391573368
 10
-49.9944637361
 20
-22.3336961674
 10
-49.9954620114
 20
-22.3281207213
 10
-49.9963683369
 20
-22.3224353127
 10
-49.9971801062
 20
-22.3166413151
 10
-49.9978977964
 20
-22.3107126151
 10
-49.9985171909
 20
-22.3046516003
  0
LINE
  5
257
100
AcDbEntity
  8
RACCORDO
100
AcDbLine
 62
250
  6
CONTINUOUS
 10
-48.8
 20
26.1401092737
 11
-48.8
 21
23.4574993802
  0
LINE
  5
258
100
AcDbEntity
  8
RACCORDO
100
AcDbLine
 62
250
  6
CONTINUOUS
 10
-48.8
 20
-23.4574993804
 11
-48.8
 21
-26.1401092738
  0
LWPOLYLINE
  5
259
100
AcDbEntity
  8
RACCORDO
100
AcDbPolyline
 62
250
  6
CONTINUOUS
 90
112
 70
0
 10
-48.8
 20
-26.1401092738
 10
-48.8005153578
 20
-26.3546512852
 10
-48.8021717219
 20
-26.572137091
 10
-48.8049690922
 20
-26.7925689754
 10
-48.8088921114
 20
-27.0160355157
 10
-48.8139561368
 20
-27.2424525979
 10
-48.8202072404
 20
-27.4715630528
 10
-48.8276493069
 20
-27.7033773801
 10
-48.8362784516
 20
-27.9378884371
 10
-48.8461290923
 20
-28.1748118121
 10
-48.8572077526
 20
-28.4141981139
 10
-48.8695079089
 20
-28.655998993
 10
-48.8830444087
 20
-28.8997806185
 10
-48.8978239393
 20
-29.1455671214
 10
-48.9138398134
 20
-29.3933351381
 10
-48.9310868165
 20
-29.6425783864
 10
-48.9495713538
 20
-29.893313098
 10
-48.96928702
 20
-30.1455222498
 10
-48.990209386
 20
-30.3986483909
 10
-49.0123503225
 20
-30.652757244
 10
-49.0356979586
 20
-30.9077808131
 10
-49.0601922531
 20
-31.1629596095
 10
-49.0858459378
 20
-31.4183395595
 10
-49.1126462809
 20
-31.6738707408
 10
-49.1404950454
 20
-31.9286482238
 10
-49.1694001798
 20
-32.1826668286
 10
-49.1993537356
 20
-32.4359260732
 10
-49.2302336301
 20
-32.6875264727
 10
-49.2620721385
 20
-32.9376261023
 10
-49.2948369856
 20
-33.1860601275
 10
-49.3283092631
 20
-33.4314429415
 10
-49.3626146745
 20
-33.6744168444
 10
-49.3976275162
 20
-33.9143315637
 10
-49.4327517695
 20
-34.1478594541
 10
-49.4680235065
 20
-34.3748738529
 10
-49.5034066549
 20
-34.5954900301
 10
-49.5381969792
 20
-34.8067397225
 10
-49.5721804533
 20
-35.0072452334
 10
-49.6055711032
 20
-35.1983717243
 10
-49.6383067713
 20
-35.3812647992
 10
-49.6703448307
 20
-35.5558162618
 10
-49.7017279085
 20
-35.7221259666
 10
-49.7325217279
 20
-35.8816532106
 10
-49.7627416553
 20
-36.0345751674
 10
-49.7923723244
 20
-36.180709196
 10
-49.82143336
 20
-36.3209760294
 10
-49.8499184
 20
-36.4554060221
 10
-49.8778338066
 20
-36.5839649821
 10
-49.9052182911
 20
-36.707477531
 10
-49.9320522973
 20
-36.8259138142
 10
-49.9583553813
 20
-36.9393009965
 10
-49.9842249232
 20
-37.0485497676
 10
-50.0097051134
 20
-37.1538764364
 10
-50.0347517614
 20
-37.2550628948
 10
-50.0593296756
 20
-37.3523685308
 10
-50.0834409745
 20
-37.4458037206
 10
-50.1070835396
 20
-37.5353566921
 10
-50.130215824
 20
-37.6212537612
 10
-50.1527951945
 20
-37.7033569968
 10
-50.1748642842
 20
-37.7818032528
 10
-50.1965094457
 20
-37.8572311855
 10
-50.2177369907
 20
-37.9296934124
 10
-50.2385406074
 20
-37.9991365912
 10
-50.2589877135
 20
-38.0660405942
 10
-50.2790975202
 20
-38.1304839645
 10
-50.2988508163
 20
-38.19238765
 10
-50.3182573852
 20
-38.2519952213
 10
-50.3373175477
 20
-38.3093144607
 10
-50.3560309831
 20
-38.3643371984
 10
-50.3744065128
 20
-38.4172831295
 10
-50.3924423971
 20
-38.4681538196
 10
-50.4101403757
 20
-38.5169474103
 10
-50.4275144887
 20
-38.5638785012
 10
-50.444562954
 20
-38.6089493802
 10
-50.4612875538
 20
-38.6521575396
 10
-50.4777076745
 20
-38.6937104187
 10
-50.4938198182
 20
-38.7336073095
 10
-50.5096274829
 20
-38.7718487557
 10
-50.5251605488
 20
-38.8086441
 10
-50.5404146742
 20
-38.8439928146
 10
-50.5553942007
 20
-38.8778953059
 10
-50.5701420333
 20
-38.9105623394
 10
-50.5846600154
 20
-38.9420074202
 10
-50.5989463037
 20
-38.972216955
 10
-50.6130382728
 20
-39.0013610772
 10
-50.6269597368
 20
-39.0294900274
 10
-50.6406868817
 20
-39.0565535003
 10
-50.6541856403
 20
-39.0825708195
 10
-50.6674642
 20
-39.1075506127
 10
-50.6805143735
 20
-39.1314841975
 10
-50.6932775306
 20
-39.1543649347
 10
-50.705733933
 20
-39.1761548438
 10
-50.7179033191
 20
-39.1968918586
 10
-50.7297862735
 20
-39.2166832147
 10
-50.7413667859
 20
-39.235508608
 10
-50.7526608665
 20
-39.2533883077
 10
-50.7637171318
 20
-39.2704904158
 10
-50.7745286802
 20
-39.2868148299
 10
-50.7851024132
 20
-39.3023616284
 10
-50.7955076507
 20
-39.3172991913
 10
-50.8057378269
 20
-39.331630317
 10
-50.8157995075
 20
-39.3453521908
 10
-50.8257817105
 20
-39.3586247775
 10
-50.8356769216
 20
-39.3714523055
 10
-50.845492655
 20
-39.3838305359
 10
-50.8553404709
 20
-39.3959067363
 10
-50.8652088845
 20
-39.4076849794
 10
-50.8751093806
 20
-39.4191611862
 10
-50.8851879742
 20
-39.4304703992
 10
-50.895493337
 20
-39.4416576318
 10
-50.9059767974
 20
-39.4526778675
 10
-50.9166383553
 20
-39.4635311044
  0
LWPOLYLINE
  5
25A
100
AcDbEntity
  8
RACCORDO
100
AcDbPolyline
 62
250
  6
CONTINUOUS
 90
65
 70
0
 10
-48.8
 20
23.4574993802
 10
-48.8000497785
 20
23.4519846928
 10
-48.8002021188
 20
23.4464653367
 10
-48.8004570209
 20
23.4409414648
 10
-48.8008134487
 20
23.4354170416
 10
-48.8012724383
 20
23.4298884034
 10
-48.8018370985
 20
23.4243442995
 10
-48.80250665
 20
23.4187852384
 10
-48.803281872
 20
23.4132111066
 10
-48.8041682113
 20
23.4076098049
 10
-48.8051647975
 20
23.4019819494
 10
-48.8062725011
 20
23.3963274298
 10
-48.8074993793
 20
23.3906331593
 10
-48.8088444263
 20
23.3848999688
 10
-48.810308648
 20
23.379127674
 10
-48.81190312
 20
23.3733017899
 10
-48.8136266434
 20
23.3674234169
 10
-48.8154804171
 20
23.3614922831
 10
-48.8174791133
 20
23.3554919996
 10
-48.8196213023
 20
23.349423938
 10
-48.8219084138
 20
23.3432877943
 10
-48.8243594095
 20
23.3370648633
 10
-48.826972476
 20
23.3307570542
 10
-48.8297494267
 20
23.3243638413
 10
-48.8327146628
 20
23.3178631259
 10
-48.8358658166
 20
23.3112575271
 10
-48.8392052559
 20
23.3045462398
 10
-48.842764485
 20
23.2977023804
 10
-48.8465404546
 20
23.2907293696
 10
-48.8505362139
 20
23.2836262039
 10
-48.854792416
 20
23.2763598526
 10
-48.8593050667
 20
23.2689349153
 10
-48.8640781602
 20
23.2613500701
 10
-48.8691643309
 20
23.2535641024
 10
-48.8745584056
 20
23.2455831627
 10
-48.8802655575
 20
23.2374056366
 10
-48.8863539413
 20
23.2289796814
 10
-48.8928172217
 20
23.2203132718
 10
-48.8996617339
 20
23.211404854
 10
-48.9069746378
 20
23.2021898044
 10
-48.9147517346
 20
23.1926751343
 10
-48.9229972231
 20
23.1828631461
 10
-48.9318108594
 20
23.1726842908
 10
-48.9412011654
 20
23.1621363784
 10
-48.9511596192
 20
23.1512351538
 10
-48.9617604114
 20
23.1399403571
 10
-48.973123799
 20
23.1281506626
 10
-48.9851295251
 20
23.1159869321
 10
-48.9974910091
 20
23.1037384978
 10
-49.0101356216
 20
23.0914944466
 10
-49.0231359922
 20
23.0791745168
 10
-49.0364234288
 20
23.066808382
 10
-49.0499460309
 20
23.0544486099
 10
-49.0637556991
 20
23.0420516444
 10
-49.0779394439
 20
23.029505487
 10
-49.0925072328
 20
23.0168099988
 10
-49.1074490982
 20
23.0039822823
 10
-49.1228221477
 20
22.9909420536
 10
-49.1386653868
 20
22.9776720301
 10
-49.15493981
 20
22.9642147353
 10
-49.1715855085
 20
22.9505829904
 10
-49.1887570148
 20
22.9366662156
 10
-49.2062997963
 20
22.9226065642
 10
-49.2236903469
 20
22.9087827709
 10
-49.2408053109
 20
22.8952855813
  0
LINE
  5
25B
100
AcDbEntity
  8
RACCORDO
100
AcDbLine
 62
250
  6
CONTINUOUS
 10
-49.2408053109
 20
22.8952855813
 11
-49.2744251058
 21
22.8690851378
  0
LINE
  5
25C
100
AcDbEntity
  8
RACCORDO
100
AcDbLine
 62
250
  6
CONTINUOUS
 10
-49.2744251058
 20
22.8690851378
 11
-49.3067319701
 21
22.8442227079
  0
LINE
  5
25D
100
AcDbEntity
  8
RACCORDO
100
AcDbLine
 62
250
  6
CONTINUOUS
 10
-49.3067319701
 20
22.8442227079
 11
-49.3377547901
 21
22.8206078731
  0
LINE
  5
25E
100
AcDbEntity
  8
RACCORDO
100
AcDbLine
 62
250
  6
CONTINUOUS
 10
-49.3377547901
 20
22.8206078731
 11
-49.367478875
 21
22.7982011987
  0
LINE
  5
25F
100
AcDbEntity
  8
RACCORDO
100
AcDbLine
 62
250
  6
CONTINUOUS
 10
-49.367478875
 20
22.7982011987
 11
-49.3959162969
 21
22.7769445563
  0
LINE
  5
260
100
AcDbEntity
  8
RACCORDO
100
AcDbLine
 62
250
  6
CONTINUOUS
 10
-49.3959162969
 20
22.7769445563
 11
-49.423105141
 21
22.7567795508
  0
LINE
  5
261
100
AcDbEntity
  8
RACCORDO
100
AcDbLine
 62
250
  6
CONTINUOUS
 10
-49.423105141
 20
22.7567795508
 11
-49.4490700373
 21
22.7376617951
  0
LINE
  5
262
100
AcDbEntity
  8
RACCORDO
100
AcDbLine
 62
250
  6
CONTINUOUS
 10
-49.4490700373
 20
22.7376617951
 11
-49.4738519906
 21
22.7195402145
  0
LINE
  5
263
100
AcDbEntity
  8
RACCORDO
100
AcDbLine
 62
250
  6
CONTINUOUS
 10
-49.4738519906
 20
22.7195402145
 11
-49.5088881366
 21
22.6941345197
  0
LINE
  5
264
100
AcDbEntity
  8
RACCORDO
100
AcDbLine
 62
250
  6
CONTINUOUS
 10
-49.5088881366
 20
22.6941345197
 11
-49.5414608782
 21
22.6707506178
  0
LINE
  5
265
100
AcDbEntity
  8
RACCORDO
100
AcDbLine
 62
250
  6
CONTINUOUS
 10
-49.5414608782
 20
22.6707506178
 11
-49.5716787411
 21
22.6492781066
  0
LINE
  5
266
100
AcDbEntity
  8
RACCORDO
100
AcDbLine
 62
250
  6
CONTINUOUS
 10
-49.5716787411
 20
22.6492781066
 11
-49.5996412311
 21
22.6296193459
  0
LINE
  5
267
100
AcDbEntity
  8
RACCORDO
100
AcDbLine
 62
250
  6
CONTINUOUS
 10
-49.5996412311
 20
22.6296193459
 11
-49.625439353
 21
22.6116863022
  0
LINE
  5
268
100
AcDbEntity
  8
RACCORDO
100
AcDbLine
 62
250
  6
CONTINUOUS
 10
-49.625439353
 20
22.6116863022
 11
-49.6491565348
 21
22.5953979871
  0
LINE
  5
269
100
AcDbEntity
  8
RACCORDO
100
AcDbLine
 62
250
  6
CONTINUOUS
 10
-49.6491565348
 20
22.5953979871
 11
-49.6708696684
 21
22.5806784239
  0
LINE
  5
26A
100
AcDbEntity
  8
RACCORDO
100
AcDbLine
 62
250
  6
CONTINUOUS
 10
-49.6708696684
 20
22.5806784239
 11
-49.6906500927
 21
22.5674550921
  0
LINE
  5
26B
100
AcDbEntity
  8
RACCORDO
100
AcDbLine
 62
250
  6
CONTINUOUS
 10
-49.6906500927
 20
22.5674550921
 11
-49.7027980885
 21
22.5594359481
  0
LINE
  5
26C
100
AcDbEntity
  8
RACCORDO
100
AcDbLine
 62
250
  6
CONTINUOUS
 10
-49.7027980885
 20
22.5594359481
 11
-49.7141335204
 21
22.5520299206
  0
LINE
  5
26D
100
AcDbEntity
  8
RACCORDO
100
AcDbLine
 62
250
  6
CONTINUOUS
 10
-49.7141335204
 20
22.5520299206
 11
-49.7246773299
 21
22.5452164828
  0
LINE
  5
26E
100
AcDbEntity
  8
RACCORDO
100
AcDbLine
 62
250
  6
CONTINUOUS
 10
-49.7246773299
 20
22.5452164828
 11
-49.7344495649
 21
22.5389753619
  0
LINE
  5
26F
100
AcDbEntity
  8
RACCORDO
100
AcDbLine
 62
250
  6
CONTINUOUS
 10
-49.7344495649
 20
22.5389753619
 11
-49.7434635118
 21
22.5332859754
  0
LINE
  5
270
100
AcDbEntity
  8
RACCORDO
100
AcDbLine
 62
250
  6
CONTINUOUS
 10
-49.7434635118
 20
22.5332859754
 11
-49.7517388696
 21
22.5281278649
  0
LINE
  5
271
100
AcDbEntity
  8
RACCORDO
100
AcDbLine
 62
250
  6
CONTINUOUS
 10
-49.7517388696
 20
22.5281278649
 11
-49.7592950645
 21
22.5234805101
  0
LINE
  5
272
100
AcDbEntity
  8
RACCORDO
100
AcDbLine
 62
250
  6
CONTINUOUS
 10
-49.7592950645
 20
22.5234805101
 11
-49.7661450617
 21
22.5193230496
  0
LINE
  5
273
100
AcDbEntity
  8
RACCORDO
100
AcDbLine
 62
250
  6
CONTINUOUS
 10
-49.7661450617
 20
22.5193230496
 11
-49.7723082643
 21
22.5156347618
  0
LINE
  5
274
100
AcDbEntity
  8
RACCORDO
100
AcDbLine
 62
250
  6
CONTINUOUS
 10
-49.7723082643
 20
22.5156347618
 11
-49.7778041723
 21
22.5123947786
  0
LINE
  5
275
100
AcDbEntity
  8
RACCORDO
100
AcDbLine
 62
250
  6
CONTINUOUS
 10
-49.7778041723
 20
22.5123947786
 11
-49.782645821
 21
22.5095821099
  0
LINE
  5
276
100
AcDbEntity
  8
RACCORDO
100
AcDbLine
 62
250
  6
CONTINUOUS
 10
-49.782645821
 20
22.5095821099
 11
-49.7868527984
 21
22.5071759479
  0
LWPOLYLINE
  5
277
100
AcDbEntity
  8
RACCORDO
100
AcDbPolyline
 62
250
  6
CONTINUOUS
 90
4
 70
0
 10
-49.7868527984
 20
22.5071759479
 10
-49.7904484376
 20
22.5051520999
 10
-49.7920199177
 20
22.5042772768
 10
-49.7934353216
 20
22.5034998234
  0
LINE
  5
278
100
AcDbEntity
  8
RACCORDO
100
AcDbLine
 62
250
  6
CONTINUOUS
 10
71.9841498038
 20
-39.5514766026
 11
71.9657919103
 21
-39.554033154
  0
LINE
  5
279
100
AcDbEntity
  8
RACCORDO
100
AcDbLine
 62
250
  6
CONTINUOUS
 10
71.9657919103
 20
-39.554033154
 11
71.9467433254
 21
-39.5565491867
  0
LINE
  5
27A
100
AcDbEntity
  8
RACCORDO
100
AcDbLine
 62
250
  6
CONTINUOUS
 10
71.9467433254
 20
-39.5565491867
 11
71.9270176145
 21
-39.5590197828
  0
LINE
  5
27B
100
AcDbEntity
  8
RACCORDO
100
AcDbLine
 62
250
  6
CONTINUOUS
 10
71.9270176145
 20
-39.5590197828
 11
71.906628297
 21
-39.5614402655
  0
LINE
  5
27C
100
AcDbEntity
  8
RACCORDO
100
AcDbLine
 62
250
  6
CONTINUOUS
 10
71.906628297
 20
-39.5614402655
 11
71.8855904678
 21
-39.5638149365
  0
LINE
  5
27D
100
AcDbEntity
  8
RACCORDO
100
AcDbLine
 62
250
  6
CONTINUOUS
 10
71.8855904678
 20
-39.5638149365
 11
71.8639188841
 21
-39.566138976
  0
LINE
  5
27E
100
AcDbEntity
  8
RACCORDO
100
AcDbLine
 62
250
  6
CONTINUOUS
 10
71.8639188841
 20
-39.566138976
 11
71.841628361
 21
-39.5684079518
  0
LINE
  5
27F
100
AcDbEntity
  8
RACCORDO
100
AcDbLine
 62
250
  6
CONTINUOUS
 10
71.841628361
 20
-39.5684079518
 11
71.8187356088
 21
-39.5706260834
  0
LINE
  5
280
100
AcDbEntity
  8
RACCORDO
100
AcDbLine
 62
250
  6
CONTINUOUS
 10
71.8187356088
 20
-39.5706260834
 11
71.7952565257
 21
-39.5727887279
  0
LINE
  5
281
100
AcDbEntity
  8
RACCORDO
100
AcDbLine
 62
250
  6
CONTINUOUS
 10
71.7952565257
 20
-39.5727887279
 11
71.7712071533
 21
-39.5748917143
  0
LINE
  5
282
100
AcDbEntity
  8
RACCORDO
100
AcDbLine
 62
250
  6
CONTINUOUS
 10
71.7712071533
 20
-39.5748917143
 11
71.7466056443
 21
-39.5769391353
  0
LINE
  5
283
100
AcDbEntity
  8
RACCORDO
100
AcDbLine
 62
250
  6
CONTINUOUS
 10
71.7466056443
 20
-39.5769391353
 11
71.7214689788
 21
-39.5789265808
  0
LINE
  5
284
100
AcDbEntity
  8
RACCORDO
100
AcDbLine
 62
250
  6
CONTINUOUS
 10
71.7214689788
 20
-39.5789265808
 11
71.6958143403
 21
-39.5808501453
  0
LINE
  5
285
100
AcDbEntity
  8
RACCORDO
100
AcDbLine
 62
250
  6
CONTINUOUS
 10
71.6958143403
 20
-39.5808501453
 11
71.669661154
 21
-39.5827137808
  0
LINE
  5
286
100
AcDbEntity
  8
RACCORDO
100
AcDbLine
 62
250
  6
CONTINUOUS
 10
71.669661154
 20
-39.5827137808
 11
71.6430274099
 21
-39.5845133449
  0
LWPOLYLINE
  5
287
100
AcDbEntity
  8
RACCORDO
100
AcDbPolyline
 62
250
  6
CONTINUOUS
 90
3
 70
0
 10
71.6430274099
 20
-39.5845133449
 10
71.6022168189
 20
-39.5870887774
 10
71.5883934607
 20
-39.5879131463
  0
LINE
  5
288
100
AcDbEntity
  8
RACCORDO
100
AcDbLine
 62
250
  6
CONTINUOUS
 10
-71.6295353531
 20
-39.5853875214
 11
-71.5883929555
 21
-39.5879131279
  0
LINE
  5
289
100
AcDbEntity
  8
RACCORDO
100
AcDbLine
 62
250
  6
CONTINUOUS
 10
-71.669660601
 20
-39.5827137679
 11
-71.6295353531
 21
-39.5853875214
  0
LINE
  5
28A
100
AcDbEntity
  8
RACCORDO
100
AcDbLine
 62
250
  6
CONTINUOUS
 10
-71.7087046195
 20
-39.5798961376
 11
-71.669660601
 21
-39.5827137679
  0
LINE
  5
28B
100
AcDbEntity
  8
RACCORDO
100
AcDbLine
 62
250
  6
CONTINUOUS
 10
-71.7466050558
 20
-39.5769391299
 11
-71.7087046195
 21
-39.5798961376
  0
LINE
  5
28C
100
AcDbEntity
  8
RACCORDO
100
AcDbLine
 62
250
  6
CONTINUOUS
 10
-71.7833013833
 20
-39.5738474674
 11
-71.7466050558
 21
-39.5769391299
  0
LINE
  5
28D
100
AcDbEntity
  8
RACCORDO
100
AcDbLine
 62
250
  6
CONTINUOUS
 10
-71.8070676303
 20
-39.5717139803
 11
-71.7833013833
 21
-39.5738474674
  0
LINE
  5
28E
100
AcDbEntity
  8
RACCORDO
100
AcDbLine
 62
250
  6
CONTINUOUS
 10
-71.8302557604
 20
-39.5695243511
 11
-71.8070676303
 21
-39.5717139803
  0
LINE
  5
28F
100
AcDbEntity
  8
RACCORDO
100
AcDbLine
 62
250
  6
CONTINUOUS
 10
-71.8528493141
 20
-39.5672801341
 11
-71.8302557604
 21
-39.5695243511
  0
LINE
  5
290
100
AcDbEntity
  8
RACCORDO
100
AcDbLine
 62
250
  6
CONTINUOUS
 10
-71.874832254
 20
-39.5649829222
 11
-71.8528493141
 21
-39.5672801341
  0
LINE
  5
291
100
AcDbEntity
  8
RACCORDO
100
AcDbLine
 62
250
  6
CONTINUOUS
 10
-71.8961889759
 20
-39.562634346
 11
-71.874832254
 21
-39.5649829222
  0
LINE
  5
292
100
AcDbEntity
  8
RACCORDO
100
AcDbLine
 62
250
  6
CONTINUOUS
 10
-71.9169043203
 20
-39.5602360727
 11
-71.8961889759
 21
-39.562634346
  0
LINE
  5
293
100
AcDbEntity
  8
RACCORDO
100
AcDbLine
 62
250
  6
CONTINUOUS
 10
-71.936963583
 20
-39.5577898046
 11
-71.9169043203
 21
-39.5602360727
  0
LINE
  5
294
100
AcDbEntity
  8
RACCORDO
100
AcDbLine
 62
250
  6
CONTINUOUS
 10
-71.9563525254
 20
-39.5552972781
 11
-71.936963583
 21
-39.5577898046
  0
LINE
  5
295
100
AcDbEntity
  8
RACCORDO
100
AcDbLine
 62
250
  6
CONTINUOUS
 10
-71.9750573847
 20
-39.5527602624
 11
-71.9563525254
 21
-39.5552972781
  0
LINE
  5
296
100
AcDbEntity
  8
RACCORDO
100
AcDbLine
 62
250
  6
CONTINUOUS
 10
-49.7921630915
 20
-22.5041974944
 11
-49.7888878416
 21
-22.5060271111
  0
LINE
  5
297
100
AcDbEntity
  8
RACCORDO
100
AcDbLine
 62
250
  6
CONTINUOUS
 10
-49.7888878416
 20
-22.5060271111
 11
-49.7850117214
 21
-22.508224894
  0
LINE
  5
298
100
AcDbEntity
  8
RACCORDO
100
AcDbLine
 62
250
  6
CONTINUOUS
 10
-49.7850117214
 20
-22.508224894
 11
-49.7805058892
 21
-22.5108193017
  0
LINE
  5
299
100
AcDbEntity
  8
RACCORDO
100
AcDbLine
 62
250
  6
CONTINUOUS
 10
-49.7805058892
 20
-22.5108193017
 11
-49.7753571457
 21
-22.5138313519
  0
LINE
  5
29A
100
AcDbEntity
  8
RACCORDO
100
AcDbLine
 62
250
  6
CONTINUOUS
 10
-49.7753571457
 20
-22.5138313519
 11
-49.7695457605
 21
-22.5172820794
  0
LINE
  5
29B
100
AcDbEntity
  8
RACCORDO
100
AcDbLine
 62
250
  6
CONTINUOUS
 10
-49.7695457605
 20
-22.5172820794
 11
-49.7630521387
 21
-22.5211924274
  0
LINE
  5
29C
100
AcDbEntity
  8
RACCORDO
100
AcDbLine
 62
250
  6
CONTINUOUS
 10
-49.7630521387
 20
-22.5211924274
 11
-49.7558632308
 21
-22.5255834871
  0
LINE
  5
29D
100
AcDbEntity
  8
RACCORDO
100
AcDbLine
 62
250
  6
CONTINUOUS
 10
-49.7558632308
 20
-22.5255834871
 11
-49.7479595184
 21
-22.5304760951
  0
LINE
  5
29E
100
AcDbEntity
  8
RACCORDO
100
AcDbLine
 62
250
  6
CONTINUOUS
 10
-49.7479595184
 20
-22.5304760951
 11
-49.7393214359
 21
-22.5358909531
  0
LINE
  5
29F
100
AcDbEntity
  8
RACCORDO
100
AcDbLine
 62
250
  6
CONTINUOUS
 10
-49.7393214359
 20
-22.5358909531
 11
-49.7299358545
 21
-22.5418488987
  0
LINE
  5
2A0
100
AcDbEntity
  8
RACCORDO
100
AcDbLine
 62
250
  6
CONTINUOUS
 10
-49.7299358545
 20
-22.5418488987
 11
-49.7197830448
 21
-22.5483704038
  0
LINE
  5
2A1
100
AcDbEntity
  8
RACCORDO
100
AcDbLine
 62
250
  6
CONTINUOUS
 10
-49.7197830448
 20
-22.5483704038
 11
-49.7088427214
 21
-22.555476004
  0
LINE
  5
2A2
100
AcDbEntity
  8
RACCORDO
100
AcDbLine
 62
250
  6
CONTINUOUS
 10
-49.7088427214
 20
-22.555476004
 11
-49.6971011298
 21
-22.5631863332
  0
LINE
  5
2A3
100
AcDbEntity
  8
RACCORDO
100
AcDbLine
 62
250
  6
CONTINUOUS
 10
-49.6971011298
 20
-22.5631863332
 11
-49.6845374178
 21
-22.5715218544
  0
LINE
  5
2A4
100
AcDbEntity
  8
RACCORDO
100
AcDbLine
 62
250
  6
CONTINUOUS
 10
-49.6845374178
 20
-22.5715218544
 11
-49.6711294789
 21
-22.5805035247
  0
LINE
  5
2A5
100
AcDbEntity
  8
RACCORDO
100
AcDbLine
 62
250
  6
CONTINUOUS
 10
-49.6711294789
 20
-22.5805035247
 11
-49.6493976623
 21
-22.5952334587
  0
LINE
  5
2A6
100
AcDbEntity
  8
RACCORDO
100
AcDbLine
 62
250
  6
CONTINUOUS
 10
-49.6493976623
 20
-22.5952334587
 11
-49.6256549313
 21
-22.6115373484
  0
LINE
  5
2A7
100
AcDbEntity
  8
RACCORDO
100
AcDbLine
 62
250
  6
CONTINUOUS
 10
-49.6256549313
 20
-22.6115373484
 11
-49.5998240074
 21
-22.629491569
  0
LINE
  5
2A8
100
AcDbEntity
  8
RACCORDO
100
AcDbLine
 62
250
  6
CONTINUOUS
 10
-49.5998240074
 20
-22.629491569
 11
-49.5718210386
 21
-22.649177528
  0
LINE
  5
2A9
100
AcDbEntity
  8
RACCORDO
100
AcDbLine
 62
250
  6
CONTINUOUS
 10
-49.5718210386
 20
-22.649177528
 11
-49.5415545445
 21
-22.6706837172
  0
LINE
  5
2AA
100
AcDbEntity
  8
RACCORDO
100
AcDbLine
 62
250
  6
CONTINUOUS
 10
-49.5415545445
 20
-22.6706837172
 11
-49.508924482
 21
-22.6941082953
  0
LINE
  5
2AB
100
AcDbEntity
  8
RACCORDO
100
AcDbLine
 62
250
  6
CONTINUOUS
 10
-49.508924482
 20
-22.6941082953
 11
-49.4738217186
 21
-22.719562272
  0
LINE
  5
2AC
100
AcDbEntity
  8
RACCORDO
100
AcDbLine
 62
250
  6
CONTINUOUS
 10
-49.4738217186
 20
-22.719562272
 11
-49.448989868
 21
-22.737720617
  0
LINE
  5
2AD
100
AcDbEntity
  8
RACCORDO
100
AcDbLine
 62
250
  6
CONTINUOUS
 10
-49.448989868
 20
-22.737720617
 11
-49.4229704344
 21
-22.7568790856
  0
LINE
  5
2AE
100
AcDbEntity
  8
RACCORDO
100
AcDbLine
 62
250
  6
CONTINUOUS
 10
-49.4229704344
 20
-22.7568790856
 11
-49.3957221714
 21
-22.7770890772
  0
LINE
  5
2AF
100
AcDbEntity
  8
RACCORDO
100
AcDbLine
 62
250
  6
CONTINUOUS
 10
-49.3957221714
 20
-22.7770890772
 11
-49.3672203288
 21
-22.798395255
  0
LINE
  5
2B0
100
AcDbEntity
  8
RACCORDO
100
AcDbLine
 62
250
  6
CONTINUOUS
 10
-49.3672203288
 20
-22.798395255
 11
-49.3374266225
 21
-22.8208563935
  0
LINE
  5
2B1
100
AcDbEntity
  8
RACCORDO
100
AcDbLine
 62
250
  6
CONTINUOUS
 10
-49.3374266225
 20
-22.8208563935
 11
-49.3063291677
 21
-22.8445309138
  0
LWPOLYLINE
  5
2B2
100
AcDbEntity
  8
RACCORDO
100
AcDbPolyline
 62
250
  6
CONTINUOUS
 90
68
 70
0
 10
-49.3063291677
 20
-22.8445309138
 10
-49.2739431694
 20
-22.8694582945
 10
-49.2572322125
 20
-22.8824412442
 10
-49.240214819
 20
-22.8957488747
 10
-49.2230844046
 20
-22.909262361
 10
-49.2057356091
 20
-22.9230574647
 10
-49.1882737929
 20
-22.9370561052
 10
-49.1712084528
 20
-22.9508900042
 10
-49.1547006411
 20
-22.9644115105
 10
-49.1385893055
 20
-22.9777355108
 10
-49.1229007865
 20
-22.9908757949
 10
-49.1076623458
 20
-23.0038001477
 10
-49.0928467217
 20
-23.0165164397
 10
-49.0783984694
 20
-23.0291027191
 10
-49.0643271503
 20
-23.0415424764
 10
-49.0506232031
 20
-23.0538356713
 10
-49.0372024991
 20
-23.0660906934
 10
-49.0240282721
 20
-23.0783359296
 10
-49.0111372884
 20
-23.0905339105
 10
-48.9985557177
 20
-23.1026975405
 10
-48.9861841572
 20
-23.1149333781
 10
-48.9741220097
 20
-23.1271281553
 10
-48.9626936528
 20
-23.1389595476
 10
-48.9520275356
 20
-23.1502998807
 10
-48.9419952091
 20
-23.1612574184
 10
-48.9325357031
 20
-23.171859161
 10
-48.9236621161
 20
-23.1820847131
 10
-48.9153613496
 20
-23.1919406679
 10
-48.907533139
 20
-23.201496716
 10
-48.900173441
 20
-23.2107503119
 10
-48.8932862989
 20
-23.2196945456
 10
-48.8867835775
 20
-23.2283947285
 10
-48.8806588731
 20
-23.2368524205
 10
-48.8749185894
 20
-23.2450595518
 10
-48.8694938025
 20
-23.2530685265
 10
-48.8643792725
 20
-23.2608809811
 10
-48.8595802392
 20
-23.2684906856
 10
-48.8550434981
 20
-23.2759392792
 10
-48.850765004
 20
-23.283228104
 10
-48.846748802
 20
-23.2903525024
 10
-48.8429538233
 20
-23.2973458217
 10
-48.839376981
 20
-23.3042090815
 10
-48.836021362
 20
-23.3109388193
 10
-48.8328551584
 20
-23.3175621563
 10
-48.8298759732
 20
-23.3240799155
 10
-48.8270862034
 20
-23.3304894421
 10
-48.8244612322
 20
-23.3368129953
 10
-48.8219992298
 20
-23.3430511039
 10
-48.8197020262
 20
-23.3492018427
 10
-48.8175504937
 20
-23.3552840522
 10
-48.8155431891
 20
-23.3612980397
 10
-48.8136815557
 20
-23.3672424211
 10
-48.8119507956
 20
-23.3731336998
 10
-48.810349699
 20
-23.3789721505
 10
-48.8088794756
 20
-23.3847566632
 10
-48.8075289575
 20
-23.3905018211
 10
-48.8062971295
 20
-23.3962078112
 10
-48.8051850068
 20
-23.4018737949
 10
-48.8041844662
 20
-23.4075129431
 10
-48.8032946301
 20
-23.4131253674
 10
-48.8025163761
 20
-23.4187104468
 10
-48.8018442143
 20
-23.4242803549
 10
-48.8012773591
 20
-23.4298351967
 10
-48.8008165961
 20
-23.4353744697
 10
-48.800458792
 20
-23.440909522
 10
-48.8002029024
 20
-23.4464440493
 10
-48.8000499717
 20
-23.4519740533
 10
-48.8
 20
-23.4574993804
  0
LWPOLYLINE
  5
2B3
100
AcDbEntity
  8
RACCORDO
100
AcDbPolyline
 62
250
  6
CONTINUOUS
 90
9
 70
0
 10
-49.8
 20
-22.5
 10
-49.7999816805
 20
-22.5000148356
 10
-49.7998867279
 20
-22.500061798
 10
-49.7997151422
 20
-22.5001446823
 10
-49.7994768119
 20
-22.5002667866
 10
-49.7991618485
 20
-22.5004324934
 10
-49.7987405862
 20
-22.5006490336
 10
-49.7982163276
 20
-22.5009229356
 10
-49.7975857701
 20
-22.5012602643
  0
LWPOLYLINE
  5
2B4
100
AcDbEntity
  8
0
100
AcDbPolyline
 62
7
  6
CONTINUOUS
 90
3
 70
0
 43
0.3500000006
 10
-3.1071428747
 20
51.8928551788
 10
-2.2499999785
 20
52.750002182
 10
-2.2499999785
 20
49.7500012665
  0
LINE
  5
2B5
100
AcDbEntity
  8
RACCORDO
100
AcDbLine
 62
250
  6
CONTINUOUS
 10
-49.7934353216
 20
22.5034998234
 11
-49.7957898678
 21
22.5022139334
  0
LWPOLYLINE
  5
2B6
100
AcDbEntity
  8
RACCORDO
100
AcDbPolyline
 62
250
  6
CONTINUOUS
 90
10
 70
0
 10
-49.7957898678
 20
22.5022139334
 10
-49.7975338136
 20
22.5012877434
 10
-49.7981785244
 20
22.5009427094
 10
-49.7987145225
 20
22.5006626517
 10
-49.7991447736
 20
22.500441408
 10
-49.799466312
 20
22.5002721703
 10
-49.7997095615
 20
22.5001475358
 10
-49.7998846633
 20
22.5000629887
 10
-49.7999814761
 20
22.5000151143
 10
-49.8
 20
22.4999999998
  0
LINE
  5
2B7
100
AcDbEntity
  8
RACCORDO
100
AcDbLine
 62
250
  6
CONTINUOUS
 10
71.5883934607
 20
-39.5879131463
 11
71.5462995891
 21
-39.5902865745
  0
LINE
  5
2B8
100
AcDbEntity
  8
RACCORDO
100
AcDbLine
 62
250
  6
CONTINUOUS
 10
71.5462995891
 20
-39.5902865745
 11
71.5033214925
 21
-39.5925040316
  0
LINE
  5
2B9
100
AcDbEntity
  8
RACCORDO
100
AcDbLine
 62
250
  6
CONTINUOUS
 10
71.5033214925
 20
-39.5925040316
 11
71.4595278065
 21
-39.5945619762
  0
LINE
  5
2BA
100
AcDbEntity
  8
RACCORDO
100
AcDbLine
 62
250
  6
CONTINUOUS
 10
71.4595278065
 20
-39.5945619762
 11
71.4149884694
 21
-39.5964571219
  0
LINE
  5
2BB
100
AcDbEntity
  8
RACCORDO
100
AcDbLine
 62
250
  6
CONTINUOUS
 10
71.4149884694
 20
-39.5964571219
 11
71.36977461
 21
-39.5981864422
  0
LINE
  5
2BC
100
AcDbEntity
  8
RACCORDO
100
AcDbLine
 62
250
  6
CONTINUOUS
 10
71.36977461
 20
-39.5981864422
 11
71.3239584346
 21
-39.5997471752
  0
LINE
  5
2BD
100
AcDbEntity
  8
RACCORDO
100
AcDbLine
 62
250
  6
CONTINUOUS
 10
71.3239584346
 20
-39.5997471752
 11
71.2776131112
 21
-39.6011368286
  0
LINE
  5
2BE
100
AcDbEntity
  8
RACCORDO
100
AcDbLine
 62
250
  6
CONTINUOUS
 10
71.2776131112
 20
-39.6011368286
 11
71.2308126529
 21
-39.6023531831
  0
LINE
  5
2BF
100
AcDbEntity
  8
RACCORDO
100
AcDbLine
 62
250
  6
CONTINUOUS
 10
71.2308126529
 20
-39.6023531831
 11
71.1836317996
 21
-39.6033942962
  0
LINE
  5
2C0
100
AcDbEntity
  8
RACCORDO
100
AcDbLine
 62
250
  6
CONTINUOUS
 10
71.1836317996
 20
-39.6033942962
 11
71.136145899
 21
-39.6042585051
  0
LINE
  5
2C1
100
AcDbEntity
  8
RACCORDO
100
AcDbLine
 62
250
  6
CONTINUOUS
 10
71.136145899
 20
-39.6042585051
 11
71.0884307854
 21
-39.6049444299
  0
LINE
  5
2C2
100
AcDbEntity
  8
RACCORDO
100
AcDbLine
 62
250
  6
CONTINUOUS
 10
71.0884307854
 20
-39.6049444299
 11
71.0405626602
 21
-39.605450975
  0
LINE
  5
2C3
100
AcDbEntity
  8
RACCORDO
100
AcDbLine
 62
250
  6
CONTINUOUS
 10
71.0405626602
 20
-39.605450975
 11
70.9926179677
 21
-39.6057773315
  0
LINE
  5
2C4
100
AcDbEntity
  8
RACCORDO
100
AcDbLine
 62
7
  6
CONTINUOUS
 10
-71.3016445583
 20
-41.0
 11
71.3016445583
 21
-41.0
  0
LINE
  5
2C5
100
AcDbEntity
  8
RACCORDO
100
AcDbLine
 62
250
  6
CONTINUOUS
 10
-70.9926179677
 20
-40.6909734094
 11
70.9926179677
 21
-40.6909734094
  0
LINE
  5
2C6
100
AcDbEntity
  8
RACCORDO
100
AcDbLine
 62
250
  6
CONTINUOUS
 10
-70.9926179677
 20
-39.6057773315
 11
-51.1999999999
 21
-39.6057773315
  0
LINE
  5
2C7
100
AcDbEntity
  8
RACCORDO
100
AcDbLine
 62
250
  6
CONTINUOUS
 10
51.1999999999
 20
-39.6057773315
 11
70.9926179677
 21
-39.6057773315
  0
LINE
  5
2C8
100
AcDbEntity
  8
RACCORDO
100
AcDbLine
 62
250
  6
CONTINUOUS
 10
-50.9166383553
 20
-39.4635311044
 11
50.9166383553
 21
-39.4635311044
  0
LINE
  5
2C9
100
AcDbEntity
  8
RACCORDO
100
AcDbLine
 62
250
  6
CONTINUOUS
 10
-71.0565309289
 20
-39.6053021071
 11
-70.9926179677
 21
-39.6057773315
  0
LINE
  5
2CA
100
AcDbEntity
  8
RACCORDO
100
AcDbLine
 62
250
  6
CONTINUOUS
 10
-71.1202624542
 20
-39.6045070043
 11
-71.0565309289
 21
-39.6053021071
  0
LINE
  5
2CB
100
AcDbEntity
  8
RACCORDO
100
AcDbLine
 62
250
  6
CONTINUOUS
 10
-71.1836316227
 20
-39.6033942801
 11
-71.1202624542
 21
-39.6045070043
  0
LINE
  5
2CC
100
AcDbEntity
  8
RACCORDO
100
AcDbLine
 62
250
  6
CONTINUOUS
 10
-71.2464585424
 20
-39.6019670933
 11
-71.1836316227
 21
-39.6033942801
  0
LINE
  5
2CD
100
AcDbEntity
  8
RACCORDO
100
AcDbLine
 62
250
  6
CONTINUOUS
 10
-71.3085648602
 20
-39.6002294956
 11
-71.2464585424
 21
-39.6019670933
  0
LINE
  5
2CE
100
AcDbEntity
  8
RACCORDO
100
AcDbLine
 62
250
  6
CONTINUOUS
 10
-71.3697742689
 20
-39.5981864194
 11
-71.3085648602
 21
-39.6002294956
  0
LINE
  5
2CF
100
AcDbEntity
  8
RACCORDO
100
AcDbLine
 62
250
  6
CONTINUOUS
 10
-71.4299130076
 20
-39.5958436647
 11
-71.3697742689
 21
-39.5981864194
  0
LINE
  5
2D0
100
AcDbEntity
  8
RACCORDO
100
AcDbLine
 62
250
  6
CONTINUOUS
 10
-71.4742116066
 20
-39.5938939039
 11
-71.4299130076
 21
-39.5958436647
  0
LINE
  5
2D1
100
AcDbEntity
  8
RACCORDO
100
AcDbLine
 62
250
  6
CONTINUOUS
 10
-71.517741106
 20
-39.5917824117
 11
-71.4742116066
 21
-39.5938939039
  0
LINE
  5
2D2
100
AcDbEntity
  8
RACCORDO
100
AcDbLine
 62
250
  6
CONTINUOUS
 10
-71.5604319898
 20
-39.58951256
 11
-71.517741106
 21
-39.5917824117
  0
LINE
  5
2D3
100
AcDbEntity
  8
RACCORDO
100
AcDbLine
 62
250
  6
CONTINUOUS
 10
-71.5883929555
 20
-39.5879131279
 11
-71.5604319898
 21
-39.58951256
  0
LINE
  5
2D4
100
AcDbEntity
  8
RACCORDO
100
AcDbLine
 62
250
  6
CONTINUOUS
 10
-49.7975857701
 20
-22.5012602643
 11
-49.7958783047
 21
-22.5021665895
  0
LINE
  5
2D5
100
AcDbEntity
  8
RACCORDO
100
AcDbLine
 62
250
  6
CONTINUOUS
 10
-49.7958783047
 20
-22.5021665895
 11
-49.7921630915
 21
-22.5041974944
  0
LINE
  5
2D6
100
AcDbEntity
  8
RACCORDO
100
AcDbLine
 62
250
  6
CONTINUOUS
 10
49.6428130582
 20
-26.08053672
 11
49.6195755582
 21
-26.0843819308
  0
LINE
  5
2D7
100
AcDbEntity
  8
RACCORDO
100
AcDbLine
 62
250
  6
CONTINUOUS
 10
49.6195755582
 20
-26.0843819308
 11
49.5957471896
 21
-26.0881182752
  0
LINE
  5
2D8
100
AcDbEntity
  8
RACCORDO
100
AcDbLine
 62
250
  6
CONTINUOUS
 10
49.5957471896
 20
-26.0881182752
 11
49.5713451314
 21
-26.0917430596
  0
LINE
  5
2D9
100
AcDbEntity
  8
RACCORDO
100
AcDbLine
 62
250
  6
CONTINUOUS
 10
49.5713451314
 20
-26.0917430596
 11
49.5463869759
 21
-26.0952536706
  0
LINE
  5
2DA
100
AcDbEntity
  8
0
100
AcDbLine
 62
7
  6
CONTINUOUS
 10
62.24575
 20
-34.90007
 11
62.805771
 21
-34.900063
  0
LINE
  5
2DB
100
AcDbEntity
  8
0
100
AcDbLine
 62
7
  6
CONTINUOUS
 10
60.222904
 20
-34.90007
 11
60.782911
 21
-34.900063
  0
LINE
  5
2DC
100
AcDbEntity
  8
0
100
AcDbLine
 62
7
  6
CONTINUOUS
 10
58.013389
 20
-34.900077
 11
58.57341
 21
-34.90007
  0
LINE
  5
2DD
100
AcDbEntity
  8
0
100
AcDbLine
 62
7
  6
CONTINUOUS
 10
66.587269
 20
-34.900063
 11
67.218046
 21
-34.900056
  0
LINE
  5
2DE
100
AcDbEntity
  8
0
100
AcDbLine
 62
7
  6
CONTINUOUS
 10
56.180978
 20
-34.900077
 11
56.74102
 21
-34.90007
  0
LINE
  5
2DF
100
AcDbEntity
  8
0
100
AcDbLine
 62
7
  6
CONTINUOUS
 10
59.133417
 20
-34.90007
 11
59.693438
 21
-34.90007
  0
LINE
  5
2E0
100
AcDbEntity
  8
0
100
AcDbLine
 62
7
  6
CONTINUOUS
 10
61.312384
 20
-34.90007
 11
61.872405
 21
-34.90007
  0
LINE
  5
2E1
100
AcDbEntity
  8
0
100
AcDbLine
 62
7
  6
CONTINUOUS
 10
64.977192
 20
-34.900063
 11
65.53722
 21
-34.900063
  0
LINE
  5
2E2
100
AcDbEntity
  8
0
100
AcDbLine
 62
7
  6
CONTINUOUS
 10
64.043819
 20
-34.900063
 11
64.603847
 21
-34.90007
  0
LINE
  5
2E3
100
AcDbEntity
  8
0
100
AcDbLine
 62
7
  6
CONTINUOUS
 10
62.98257
 20
-34.349401
 11
63.867027
 21
-34.349401
  0
LINE
  5
2E4
100
AcDbEntity
  8
0
100
AcDbLine
 62
7
  6
CONTINUOUS
 10
63.153391
 20
-33.81738
 11
63.696199
 21
-33.81738
  0
LINE
  5
2E5
100
AcDbEntity
  8
0
100
AcDbLine
 62
7
  6
CONTINUOUS
 10
65.537283
 20
-33.817373
 11
66.026058
 21
-33.81738
  0
LINE
  5
2E6
100
AcDbEntity
  8
0
100
AcDbLine
 62
7
  6
CONTINUOUS
 10
65.529499
 20
-33.299352
 11
66.210842
 21
-33.299352
  0
LINE
  5
2E7
100
AcDbEntity
  8
0
100
AcDbLine
 62
7
  6
CONTINUOUS
 10
65.529492
 20
-32.617958
 11
66.210842
 21
-32.617958
  0
LINE
  5
2E8
100
AcDbEntity
  8
RACCORDO
100
AcDbLine
 62
250
  6
CONTINUOUS
 10
-49.5713451301
 20
-26.0917430598
 11
-49.5463869746
 21
-26.0952536708
  0
LINE
  5
2E9
100
AcDbEntity
  8
RACCORDO
100
AcDbLine
 62
250
  6
CONTINUOUS
 10
-49.5957471884
 20
-26.0881182754
 11
-49.5713451301
 21
-26.0917430598
  0
LINE
  5
2EA
100
AcDbEntity
  8
RACCORDO
100
AcDbLine
 62
250
  6
CONTINUOUS
 10
-49.619575557
 20
-26.084381931
 11
-49.5957471884
 21
-26.0881182754
  0
LINE
  5
2EB
100
AcDbEntity
  8
RACCORDO
100
AcDbLine
 62
250
  6
CONTINUOUS
 10
-51.0583191776
 20
-39.3228767647
 11
-51.1210349402
 21
-39.4483006605
  0
LWPOLYLINE
  5
2EC
100
AcDbEntity
  8
RACCORDO
100
AcDbPolyline
 62
250
  6
CONTINUOUS
 90
3
 70
0
 10
-51.1210349402
 20
-39.4483006605
 10
-51.1841809355
 20
-39.5742611928
 10
-51.2
 20
-39.6057773313
  0
LINE
  5
2ED
100
AcDbEntity
  8
RACCORDO
100
AcDbLine
 62
250
  6
CONTINUOUS
 10
49.5793376581
 20
-23.3993977048
 11
49.5551844693
 21
-23.4034571649
  0
LINE
  5
2EE
100
AcDbEntity
  8
RACCORDO
100
AcDbLine
 62
250
  6
CONTINUOUS
 10
49.5551844693
 20
-23.4034571649
 11
49.5305137149
 21
-23.4073874651
  0
LINE
  5
2EF
100
AcDbEntity
  8
RACCORDO
100
AcDbLine
 62
250
  6
CONTINUOUS
 10
49.5305137149
 20
-23.4073874651
 11
49.5053423028
 21
-23.4111859117
  0
LINE
  5
2F0
100
AcDbEntity
  8
RACCORDO
100
AcDbLine
 62
250
  6
CONTINUOUS
 10
49.5053423028
 20
-23.4111859117
 11
49.4796874844
 21
-23.4148499014
  0
LINE
  5
2F1
100
AcDbEntity
  8
RACCORDO
100
AcDbLine
 62
250
  6
CONTINUOUS
 10
49.4796874844
 20
-23.4148499014
 11
49.4535668421
 21
-23.4183769231
  0
LINE
  5
2F2
100
AcDbEntity
  8
RACCORDO
100
AcDbLine
 62
250
  6
CONTINUOUS
 10
49.5463869759
 20
-26.0952536706
 11
49.5208907168
 21
-26.0986475774
  0
LINE
  5
2F3
100
AcDbEntity
  8
RACCORDO
100
AcDbLine
 62
250
  6
CONTINUOUS
 10
49.4535668421
 20
-23.4183769231
 11
49.4269982777
 21
-23.4217645596
  0
LINE
  5
2F4
100
AcDbEntity
  8
RACCORDO
100
AcDbLine
 62
250
  6
CONTINUOUS
 10
49.5208907168
 20
-26.0986475774
 11
49.4948747354
 21
-26.1019223331
  0
LINE
  5
2F5
100
AcDbEntity
  8
RACCORDO
100
AcDbLine
 62
250
  6
CONTINUOUS
 10
49.4269982777
 20
-23.4217645596
 11
49.4000000001
 21
-23.425010489
  0
LINE
  5
2F6
100
AcDbEntity
  8
RACCORDO
100
AcDbLine
 62
250
  6
CONTINUOUS
 10
49.4948747354
 20
-26.1019223331
 11
49.4683577877
 21
-26.1050755767
  0
LINE
  5
2F7
100
AcDbEntity
  8
RACCORDO
100
AcDbLine
 62
250
  6
CONTINUOUS
 10
49.4000000001
 20
-23.425010489
 11
49.3725905124
 21
-23.4281124869
  0
LINE
  5
2F8
100
AcDbEntity
  8
RACCORDO
100
AcDbLine
 62
250
  6
CONTINUOUS
 10
49.4683577877
 20
-26.1050755767
 11
49.4413589911
 21
-26.1081050351
  0
LINE
  5
2F9
100
AcDbEntity
  8
RACCORDO
100
AcDbLine
 62
250
  6
CONTINUOUS
 10
49.3725905124
 20
-23.4281124869
 11
49.3447885997
 21
-23.4310684271
  0
LINE
  5
2FA
100
AcDbEntity
  8
RACCORDO
100
AcDbLine
 62
250
  6
CONTINUOUS
 10
49.4413589911
 20
-26.1081050351
 11
49.4138978101
 21
-26.111008524
  0
LINE
  5
2FB
100
AcDbEntity
  8
RACCORDO
100
AcDbLine
 62
250
  6
CONTINUOUS
 10
49.3447885997
 20
-23.4310684271
 11
49.3166133162
 21
-23.4338762839
  0
LINE
  5
2FC
100
AcDbEntity
  8
RACCORDO
100
AcDbLine
 62
250
  6
CONTINUOUS
 10
49.4138978101
 20
-26.111008524
 11
49.3859940428
 21
-26.1137839503
  0
LINE
  5
2FD
100
AcDbEntity
  8
RACCORDO
100
AcDbLine
 62
250
  6
CONTINUOUS
 10
49.3859940428
 20
-26.1137839503
 11
49.3576678062
 21
-26.1164293131
  0
LINE
  5
2FE
100
AcDbEntity
  8
RACCORDO
100
AcDbLine
 62
250
  6
CONTINUOUS
 10
49.3166133162
 20
-23.4338762839
 11
49.2880839717
 21
-23.4365341328
  0
LINE
  5
2FF
100
AcDbEntity
  8
RACCORDO
100
AcDbLine
 62
250
  6
CONTINUOUS
 10
49.3576678062
 20
-26.1164293131
 11
49.328939522
 21
-26.118942705
  0
LINE
  5
300
100
AcDbEntity
  8
RACCORDO
100
AcDbLine
 62
250
  6
CONTINUOUS
 10
49.2880839717
 20
-23.4365341328
 11
49.2592201189
 21
-23.4390401524
  0
LINE
  5
301
100
AcDbEntity
  8
RACCORDO
100
AcDbLine
 62
250
  6
CONTINUOUS
 10
49.328939522
 20
-26.118942705
 11
49.2998299016
 21
-26.1213223142
  0
LWPOLYLINE
  5
302
100
AcDbEntity
  8
RACCORDO
100
AcDbPolyline
 62
250
  6
CONTINUOUS
 90
3
 70
0
 10
49.2592201189
 20
-23.4390401524
 10
49.2300415395
 20
-23.4413926249
 10
49.2153404686
 20
-23.4425107732
  0
LINE
  5
303
100
AcDbEntity
  8
RACCORDO
100
AcDbLine
 62
250
  6
CONTINUOUS
 10
49.2998299016
 20
-26.1213223142
 11
49.2703599316
 21
-26.1235664251
  0
LINE
  5
304
100
AcDbEntity
  8
RACCORDO
100
AcDbLine
 62
250
  6
CONTINUOUS
 10
49.2703599316
 20
-26.1235664251
 11
49.2405508581
 21
-26.1256734198
  0
LINE
  5
305
100
AcDbEntity
  8
RACCORDO
100
AcDbLine
 62
250
  6
CONTINUOUS
 10
49.2405508581
 20
-26.1256734198
 11
49.2104241718
 21
-26.1276417793
  0
LINE
  5
306
100
AcDbEntity
  8
RACCORDO
100
AcDbLine
 62
250
  6
CONTINUOUS
 10
49.2104241718
 20
-26.1276417793
 11
49.1800015924
 21
-26.1294700844
  0
LINE
  5
307
100
AcDbEntity
  8
RACCORDO
100
AcDbLine
 62
250
  6
CONTINUOUS
 10
49.1800015924
 20
-26.1294700844
 11
49.1493050528
 21
-26.1311570172
  0
LINE
  5
308
100
AcDbEntity
  8
RACCORDO
100
AcDbLine
 62
250
  6
CONTINUOUS
 10
49.1493050528
 20
-26.1311570172
 11
49.1183566837
 21
-26.1327013613
  0
LINE
  5
309
100
AcDbEntity
  8
RACCORDO
100
AcDbLine
 62
250
  6
CONTINUOUS
 10
49.1183566837
 20
-26.1327013613
 11
49.087178797
 21
-26.1341020034
  0
LINE
  5
30A
100
AcDbEntity
  8
RACCORDO
100
AcDbLine
 62
250
  6
CONTINUOUS
 10
49.087178797
 20
-26.1341020034
 11
49.0557938703
 21
-26.1353579338
  0
LINE
  5
30B
100
AcDbEntity
  8
RACCORDO
100
AcDbLine
 62
250
  6
CONTINUOUS
 10
49.0557938703
 20
-26.1353579338
 11
49.0242245303
 21
-26.1364682469
  0
LINE
  5
30C
100
AcDbEntity
  8
RACCORDO
100
AcDbLine
 62
250
  6
CONTINUOUS
 10
49.0242245303
 20
-26.1364682469
 11
48.9924935369
 21
-26.1374321424
  0
LINE
  5
30D
100
AcDbEntity
  8
RACCORDO
100
AcDbLine
 62
250
  6
CONTINUOUS
 10
48.9924935369
 20
-26.1374321424
 11
48.9606237663
 21
-26.1382489252
  0
LINE
  5
30E
100
AcDbEntity
  8
RACCORDO
100
AcDbLine
 62
250
  6
CONTINUOUS
 10
48.9606237663
 20
-26.1382489252
 11
48.9286381949
 21
-26.1389180065
  0
LINE
  5
30F
100
AcDbEntity
  8
0
100
AcDbLine
 62
7
  6
CONTINUOUS
 10
55.281954
 20
-32.099944
 11
55.841982
 21
-32.099944
  0
LINE
  5
310
100
AcDbEntity
  8
0
100
AcDbLine
 62
7
  6
CONTINUOUS
 10
57.080023
 20
-32.099944
 11
57.640051
 21
-32.099944
  0
LINE
  5
311
100
AcDbEntity
  8
0
100
AcDbLine
 62
7
  6
CONTINUOUS
 10
58.013396
 20
-32.099944
 11
58.573417
 21
-32.099944
  0
LINE
  5
312
100
AcDbEntity
  8
0
100
AcDbLine
 62
7
  6
CONTINUOUS
 10
59.133417
 20
-32.099944
 11
59.980018
 21
-32.099944
  0
LINE
  5
313
100
AcDbEntity
  8
0
100
AcDbLine
 62
7
  6
CONTINUOUS
 10
61.025804
 20
-32.099944
 11
61.872405
 21
-32.099944
  0
LINE
  5
314
100
AcDbEntity
  8
0
100
AcDbLine
 62
7
  6
CONTINUOUS
 10
63.144767
 20
-32.099937
 11
63.704816
 21
-32.099937
  0
LINE
  5
315
100
AcDbEntity
  8
0
100
AcDbLine
 62
7
  6
CONTINUOUS
 10
64.977192
 20
-32.099937
 11
66.288572
 21
-32.099937
  0
LINE
  5
316
100
AcDbEntity
  8
RACCORDO
100
AcDbLine
 62
250
  6
CONTINUOUS
 10
-48.9606237657
 20
-26.1382489252
 11
-48.9286381944
 21
-26.1389180066
  0
LINE
  5
317
100
AcDbEntity
  8
RACCORDO
100
AcDbLine
 62
250
  6
CONTINUOUS
 10
-48.9924935362
 20
-26.1374321424
 11
-48.9606237657
 21
-26.1382489252
  0
LINE
  5
318
100
AcDbEntity
  8
RACCORDO
100
AcDbLine
 62
250
  6
CONTINUOUS
 10
-49.0242245296
 20
-26.136468247
 11
-48.9924935362
 21
-26.1374321424
  0
LINE
  5
319
100
AcDbEntity
  8
RACCORDO
100
AcDbLine
 62
250
  6
CONTINUOUS
 10
-49.0557938694
 20
-26.1353579338
 11
-49.0242245296
 21
-26.136468247
  0
LINE
  5
31A
100
AcDbEntity
  8
RACCORDO
100
AcDbLine
 62
250
  6
CONTINUOUS
 10
-49.0871787961
 20
-26.1341020035
 11
-49.0557938694
 21
-26.1353579338
  0
LINE
  5
31B
100
AcDbEntity
  8
RACCORDO
100
AcDbLine
 62
250
  6
CONTINUOUS
 10
-49.1183566827
 20
-26.1327013613
 11
-49.0871787961
 21
-26.1341020035
  0
LINE
  5
31C
100
AcDbEntity
  8
RACCORDO
100
AcDbLine
 62
250
  6
CONTINUOUS
 10
-49.1493050518
 20
-26.1311570172
 11
-49.1183566827
 21
-26.1327013613
  0
LINE
  5
31D
100
AcDbEntity
  8
RACCORDO
100
AcDbLine
 62
250
  6
CONTINUOUS
 10
-49.1800015912
 20
-26.1294700845
 11
-49.1493050518
 21
-26.1311570172
  0
LINE
  5
31E
100
AcDbEntity
  8
RACCORDO
100
AcDbLine
 62
250
  6
CONTINUOUS
 10
-49.2104241706
 20
-26.1276417794
 11
-49.1800015912
 21
-26.1294700845
  0
LINE
  5
31F
100
AcDbEntity
  8
RACCORDO
100
AcDbLine
 62
250
  6
CONTINUOUS
 10
-49.2405508569
 20
-26.1256734199
 11
-49.2104241706
 21
-26.1276417794
  0
LINE
  5
320
100
AcDbEntity
  8
RACCORDO
100
AcDbLine
 62
250
  6
CONTINUOUS
 10
-49.2703599303
 20
-26.1235664252
 11
-49.2405508569
 21
-26.1256734199
  0
LINE
  5
321
100
AcDbEntity
  8
RACCORDO
100
AcDbLine
 62
250
  6
CONTINUOUS
 10
-49.2998299003
 20
-26.1213223144
 11
-49.2703599303
 21
-26.1235664252
  0
LINE
  5
322
100
AcDbEntity
  8
RACCORDO
100
AcDbLine
 62
250
  6
CONTINUOUS
 10
-49.2446689251
 20
-23.4402357245
 11
-49.2153404686
 21
-23.4425108089
  0
LINE
  5
323
100
AcDbEntity
  8
RACCORDO
100
AcDbLine
 62
250
  6
CONTINUOUS
 10
-49.3289395207
 20
-26.1189427052
 11
-49.2998299003
 21
-26.1213223144
  0
LINE
  5
324
100
AcDbEntity
  8
RACCORDO
100
AcDbLine
 62
250
  6
CONTINUOUS
 10
-49.2736926277
 20
-23.4378062738
 11
-49.2446689251
 21
-23.4402357245
  0
LINE
  5
325
100
AcDbEntity
  8
RACCORDO
100
AcDbLine
 62
250
  6
CONTINUOUS
 10
-49.3576678049
 20
-26.1164293132
 11
-49.3289395207
 21
-26.1189427052
  0
LINE
  5
326
100
AcDbEntity
  8
RACCORDO
100
AcDbLine
 62
250
  6
CONTINUOUS
 10
-49.3023916851
 20
-23.435224122
 11
-49.2736926277
 21
-23.4378062738
  0
LINE
  5
327
100
AcDbEntity
  8
RACCORDO
100
AcDbLine
 62
250
  6
CONTINUOUS
 10
-49.3859940414
 20
-26.1137839505
 11
-49.3576678049
 21
-26.1164293132
  0
LINE
  5
328
100
AcDbEntity
  8
RACCORDO
100
AcDbLine
 62
250
  6
CONTINUOUS
 10
-49.3307464283
 20
-23.4324910388
 11
-49.3023916851
 21
-23.435224122
  0
LINE
  5
329
100
AcDbEntity
  8
RACCORDO
100
AcDbLine
 62
250
  6
CONTINUOUS
 10
-49.4138978088
 20
-26.1110085242
 11
-49.3859940414
 21
-26.1137839505
  0
LINE
  5
32A
100
AcDbEntity
  8
RACCORDO
100
AcDbLine
 62
250
  6
CONTINUOUS
 10
-49.3587374244
 20
-23.4296088972
 11
-49.3307464283
 21
-23.4324910388
  0
LINE
  5
32B
100
AcDbEntity
  8
RACCORDO
100
AcDbLine
 62
250
  6
CONTINUOUS
 10
-49.4413589897
 20
-26.1081050353
 11
-49.4138978088
 21
-26.1110085242
  0
LINE
  5
32C
100
AcDbEntity
  8
RACCORDO
100
AcDbLine
 62
250
  6
CONTINUOUS
 10
-49.3863454899
 20
-23.4265796727
 11
-49.3587374244
 21
-23.4296088972
  0
LINE
  5
32D
100
AcDbEntity
  8
RACCORDO
100
AcDbLine
 62
250
  6
CONTINUOUS
 10
-49.4683577864
 20
-26.1050755769
 11
-49.4413589897
 21
-26.1081050353
  0
LINE
  5
32E
100
AcDbEntity
  8
RACCORDO
100
AcDbLine
 62
250
  6
CONTINUOUS
 10
-49.4135517034
 20
-23.4234054412
 11
-49.3863454899
 21
-23.4265796727
  0
LINE
  5
32F
100
AcDbEntity
  8
RACCORDO
100
AcDbLine
 62
250
  6
CONTINUOUS
 10
-49.494874734
 20
-26.1019223333
 11
-49.4683577864
 21
-26.1050755769
  0
LINE
  5
330
100
AcDbEntity
  8
RACCORDO
100
AcDbLine
 62
250
  6
CONTINUOUS
 10
-49.4403374192
 20
-23.4200883784
 11
-49.4135517034
 21
-23.4234054412
  0
LINE
  5
331
100
AcDbEntity
  8
RACCORDO
100
AcDbLine
 62
250
  6
CONTINUOUS
 10
-49.5208907155
 20
-26.0986475776
 11
-49.494874734
 21
-26.1019223333
  0
LINE
  5
332
100
AcDbEntity
  8
RACCORDO
100
AcDbLine
 62
250
  6
CONTINUOUS
 10
-49.4666842797
 20
-23.4166307575
 11
-49.4403374192
 21
-23.4200883784
  0
LINE
  5
333
100
AcDbEntity
  8
RACCORDO
100
AcDbLine
 62
250
  6
CONTINUOUS
 10
-49.5463869746
 20
-26.0952536708
 11
-49.5208907155
 21
-26.0986475776
  0
LINE
  5
334
100
AcDbEntity
  8
RACCORDO
100
AcDbLine
 62
250
  6
CONTINUOUS
 10
-49.4925742281
 20
-23.4130349483
 11
-49.4666842797
 21
-23.4166307575
  0
LINE
  5
335
100
AcDbEntity
  8
RACCORDO
100
AcDbLine
 62
250
  6
CONTINUOUS
 10
-49.5179895208
 20
-23.4093034151
 11
-49.4925742281
 21
-23.4130349483
  0
LINE
  5
336
100
AcDbEntity
  8
RACCORDO
100
AcDbLine
 62
250
  6
CONTINUOUS
 10
-49.5429127392
 20
-23.4054387154
 11
-49.5179895208
 21
-23.4093034151
  0
LINE
  5
337
100
AcDbEntity
  8
RACCORDO
100
AcDbLine
 62
250
  6
CONTINUOUS
 10
-51.2
 20
39.6057773313
 11
-51.1367964094
 21
39.4797760519
  0
LWPOLYLINE
  5
338
100
AcDbEntity
  8
RACCORDO
100
AcDbPolyline
 62
250
  6
CONTINUOUS
 90
3
 70
0
 10
-51.1367964094
 20
39.4797760519
 10
-51.0739427843
 20
39.3541608828
 10
-51.0583191776
 20
39.3228767647
  0
LWPOLYLINE
  5
339
100
AcDbEntity
  8
RACCORDO
100
AcDbPolyline
 62
250
  6
CONTINUOUS
 90
112
 70
0
 10
-51.0583191776
 20
39.3228767647
 10
-51.0529832948
 20
39.3119597922
 10
-51.0477361361
 20
39.3008731134
 10
-51.0425776612
 20
39.2896168362
 10
-51.037531829
 20
39.2782355719
 10
-51.0325745493
 20
39.2666849379
 10
-51.0276338219
 20
39.2548314643
 10
-51.022704543
 20
39.2426800644
 10
-51.0177919438
 20
39.2302258566
 10
-51.0128397563
 20
39.2173205295
 10
-51.0078445251
 20
39.2039682222
 10
-51.0028100554
 20
39.1901646973
 10
-50.9976911794
 20
39.1757489601
 10
-50.9924850427
 20
39.1607236239
 10
-50.9871950952
 20
39.1450858646
 10
-50.9817858266
 20
39.1286664312
 10
-50.976254448
 20
39.111465257
 10
-50.9706046252
 20
39.0934820951
 10
-50.9648107232
 20
39.0745473391
 10
-50.958865252
 20
39.0546396128
 10
-50.9527769039
 20
39.0337798824
 10
-50.9465444474
 20
39.0118620113
 10
-50.9401588294
 20
38.9888477929
 10
-50.9336305427
 20
38.96477499
 10
-50.9269876357
 20
38.9396514524
 10
-50.9202349824
 20
38.9134860959
 10
-50.9133691257
 20
38.8862696392
 10
-50.9064055003
 20
38.8579826981
 10
-50.8993569178
 20
38.8286759819
 10
-50.8922120202
 20
38.7982984612
 10
-50.8849500758
 20
38.766678129
 10
-50.8775730555
 20
38.7338275922
 10
-50.8700808988
 20
38.6997338292
 10
-50.86245013
 20
38.6641863068
 10
-50.8546801896
 20
38.6271844081
 10
-50.8467741273
 20
38.5887282308
 10
-50.8387142235
 20
38.5486082292
 10
-50.8305006309
 20
38.5068233648
 10
-50.822136325
 20
38.4633740677
 10
-50.813608161
 20
38.4180529243
 10
-50.8049175545
 20
38.3708619479
 10
-50.7960669312
 20
38.3217984396
 10
-50.7870450187
 20
38.2706478534
 10
-50.7778537104
 20
38.2174113722
 10
-50.7684957909
 20
38.1620870533
 10
-50.7589617205
 20
38.104455602
 10
-50.7492549642
 20
38.044524247
 10
-50.7393776989
 20
37.9822849336
 10
-50.7293189255
 20
37.9174953772
 10
-50.719092777
 20
37.8502357397
 10
-50.7086918748
 20
37.7804249758
 10
-50.698073934
 20
37.7075788415
 10
-50.6872482112
 20
37.6317496501
 10
-50.6762145842
 20
37.5528839661
 10
-50.6649185124
 20
37.4703386517
 10
-50.6533457452
 20
37.3839684358
 10
-50.6415234334
 20
37.2939171088
 10
-50.6294605051
 20
37.1999749711
 10
-50.617167816
 20
37.1021629148
 10
-50.6046492867
 20
37.0004586362
 10
-50.5919041618
 20
36.8945876272
 10
-50.5789647353
 20
36.7847590048
 10
-50.5658159889
 20
36.6707622872
 10
-50.5523889207
 20
36.5516933198
 10
-50.5386904512
 20
36.427523096
 10
-50.5247384354
 20
36.2982788222
 10
-50.5104849196
 20
36.163140256
 10
-50.4959484781
 20
36.0221399618
 10
-50.4811434735
 20
35.8752433622
 10
-50.4660210872
 20
35.7215291305
 10
-50.4506188005
 20
35.5611748074
 10
-50.4349428981
 20
35.3940006998
 10
-50.4189066495
 20
35.2185491062
 10
-50.4025313084
 20
35.034714146
 10
-50.3858590471
 20
34.8425991797
 10
-50.3688462106
 20
34.6410598457
 10
-50.351426637
 20
34.4286909724
 10
-50.3337562107
 20
34.2068951941
 10
-50.3161168017
 20
33.9787406851
 10
-50.2985450479
 20
33.7441550381
 10
-50.2810707077
 20
33.5032111179
 10
-50.2639349357
 20
33.2591967972
 10
-50.2472023931
 20
33.0127450831
 10
-50.2308432882
 20
32.7632255711
 10
-50.2149350901
 20
32.5120319729
 10
-50.1995010513
 20
32.2593281486
 10
-50.1845437609
 20
32.0049533356
 10
-50.1701011572
 20
31.7498145483
 10
-50.1561828132
 20
31.4939133883
 10
-50.1427991559
 20
31.2372514865
 10
-50.1299831539
 20
30.9807359564
 10
-50.1177425754
 20
30.7244173246
 10
-50.1060815979
 20
30.4682482514
 10
-50.0950216571
 20
30.2129890134
 10
-50.0845673651
 20
29.9587085808
 10
-50.0747188141
 20
29.705340936
 10
-50.0654859748
 20
29.4534437665
 10
-50.0568687614
 20
29.203036061
 10
-50.0488668037
 20
28.9541014434
 10
-50.0414858665
 20
28.7071444087
 10
-50.0347232974
 20
28.4621902351
 10
-50.0285757922
 20
28.2192158466
 10
-50.0230444259
 20
27.978653035
 10
-50.018124456
 20
27.7405527714
 10
-50.0138093955
 20
27.5048658317
 10
-50.0100948534
 20
27.2718735449
 10
-50.006973616
 20
27.0415858734
 10
-50.0044383816
 20
26.8139941741
 10
-50.0024824154
 20
26.5893517058
 10
-50.0010970306
 20
26.3677431669
 10
-50.0002726742
 20
26.1490847399
 10
-50.0
 20
25.933376786
  0
LINE
  5
33A
100
AcDbEntity
  8
RACCORDO
100
AcDbLine
 62
250
  6
CONTINUOUS
 10
-72.5
 20
-39.8016445583
 11
-72.1909734097
 21
-39.492617968
  0
LINE
  5
33B
100
AcDbEntity
  8
RACCORDO
100
AcDbLine
 62
250
  6
CONTINUOUS
 10
49.2153404686
 20
-23.4425107732
 11
49.1857273584
 21
-23.4446299355
  0
LINE
  5
33C
100
AcDbEntity
  8
RACCORDO
100
AcDbLine
 62
250
  6
CONTINUOUS
 10
49.1857273584
 20
-23.4446299355
 11
49.15584989
 21
-23.4465917199
  0
LINE
  5
33D
100
AcDbEntity
  8
RACCORDO
100
AcDbLine
 62
250
  6
CONTINUOUS
 10
49.15584989
 20
-23.4465917199
 11
49.1257285399
 21
-23.4483947818
  0
LINE
  5
33E
100
AcDbEntity
  8
RACCORDO
100
AcDbLine
 62
250
  6
CONTINUOUS
 10
49.1257285399
 20
-23.4483947818
 11
49.0953839517
 21
-23.4500378855
  0
LINE
  5
33F
100
AcDbEntity
  8
RACCORDO
100
AcDbLine
 62
250
  6
CONTINUOUS
 10
49.0953839517
 20
-23.4500378855
 11
49.064836922
 21
-23.4515199048
  0
LINE
  5
340
100
AcDbEntity
  8
RACCORDO
100
AcDbLine
 62
250
  6
CONTINUOUS
 10
49.064836922
 20
-23.4515199048
 11
49.0341083864
 21
-23.4528398242
  0
LINE
  5
341
100
AcDbEntity
  8
RACCORDO
100
AcDbLine
 62
250
  6
CONTINUOUS
 10
49.0341083864
 20
-23.4528398242
 11
49.0032194046
 21
-23.4539967388
  0
LINE
  5
342
100
AcDbEntity
  8
RACCORDO
100
AcDbLine
 62
250
  6
CONTINUOUS
 10
49.0032194046
 20
-23.4539967388
 11
48.9721911464
 21
-23.4549898558
  0
LINE
  5
343
100
AcDbEntity
  8
RACCORDO
100
AcDbLine
 62
250
  6
CONTINUOUS
 10
48.9721911464
 20
-23.4549898558
 11
48.941044877
 21
-23.4558184946
  0
LINE
  5
344
100
AcDbEntity
  8
RACCORDO
100
AcDbLine
 62
250
  6
CONTINUOUS
 10
48.941044877
 20
-23.4558184946
 11
48.9098019424
 21
-23.4564820872
  0
LINE
  5
345
100
AcDbEntity
  8
RACCORDO
100
AcDbLine
 62
250
  6
CONTINUOUS
 10
48.9286381949
 20
-26.1389180065
 11
48.8965598824
 21
-26.139438904
  0
LINE
  5
346
100
AcDbEntity
  8
RACCORDO
100
AcDbLine
 62
250
  6
CONTINUOUS
 10
48.9098019424
 20
-23.4564820872
 11
48.8784837551
 21
-23.4569801788
  0
LINE
  5
347
100
AcDbEntity
  8
RACCORDO
100
AcDbLine
 62
250
  6
CONTINUOUS
 10
48.8965598824
 20
-26.139438904
 11
48.8644119556
 21
-26.1398112422
  0
LINE
  5
348
100
AcDbEntity
  8
RACCORDO
100
AcDbLine
 62
250
  6
CONTINUOUS
 10
48.8784837551
 20
-23.4569801788
 11
48.8471117789
 21
-23.457312428
  0
LINE
  5
349
100
AcDbEntity
  8
RACCORDO
100
AcDbLine
 62
250
  6
CONTINUOUS
 10
48.8644119556
 20
-26.1398112422
 11
48.8322175914
 21
-26.1400347525
  0
LINE
  5
34A
100
AcDbEntity
  8
RACCORDO
100
AcDbLine
 62
250
  6
CONTINUOUS
 10
48.8471117789
 20
-23.457312428
 11
48.8157075147
 21
-23.4574786072
  0
LINE
  5
34B
100
AcDbEntity
  8
RACCORDO
100
AcDbLine
 62
250
  6
CONTINUOUS
 10
48.8322175914
 20
-26.1400347525
 11
48.8
 21
-26.1401092738
  0
LINE
  5
34C
100
AcDbEntity
  8
RACCORDO
100
AcDbLine
 62
7
  6
CONTINUOUS
 10
-49.8
 20
-22.5
 11
49.8
 21
-22.5
  0
LINE
  5
34D
100
AcDbEntity
  8
RACCORDO
100
AcDbLine
 62
250
  6
CONTINUOUS
 10
-48.8157075147
 20
-23.4574786081
 11
48.8157075147
 21
-23.4574786072
  0
LINE
  5
34E
100
AcDbEntity
  8
RACCORDO
100
AcDbLine
 62
250
  6
CONTINUOUS
 10
-48.8322175912
 20
-26.1400347525
 11
-48.8
 21
-26.1401092738
  0
LINE
  5
34F
100
AcDbEntity
  8
RACCORDO
100
AcDbLine
 62
250
  6
CONTINUOUS
 10
-48.8471117789
 20
-23.4573124309
 11
-48.8157075147
 21
-23.4574786081
  0
LINE
  5
350
100
AcDbEntity
  8
RACCORDO
100
AcDbLine
 62
250
  6
CONTINUOUS
 10
-48.8644119554
 20
-26.1398112422
 11
-48.8322175912
 21
-26.1400347525
  0
LINE
  5
351
100
AcDbEntity
  8
RACCORDO
100
AcDbLine
 62
250
  6
CONTINUOUS
 10
-48.8784837551
 20
-23.4569801837
 11
-48.8471117789
 21
-23.4573124309
  0
LINE
  5
352
100
AcDbEntity
  8
RACCORDO
100
AcDbLine
 62
250
  6
CONTINUOUS
 10
-48.896559882
 20
-26.1394389041
 11
-48.8644119554
 21
-26.1398112422
  0
LINE
  5
353
100
AcDbEntity
  8
RACCORDO
100
AcDbLine
 62
250
  6
CONTINUOUS
 10
-48.9098019424
 20
-23.4564820943
 11
-48.8784837551
 21
-23.4569801837
  0
LINE
  5
354
100
AcDbEntity
  8
RACCORDO
100
AcDbLine
 62
250
  6
CONTINUOUS
 10
-48.9286381944
 20
-26.1389180066
 11
-48.896559882
 21
-26.1394389041
  0
LINE
  5
355
100
AcDbEntity
  8
RACCORDO
100
AcDbLine
 62
250
  6
CONTINUOUS
 10
-48.941044877
 20
-23.4558185041
 11
-48.9098019424
 21
-23.4564820943
  0
LINE
  5
356
100
AcDbEntity
  8
RACCORDO
100
AcDbLine
 62
250
  6
CONTINUOUS
 10
-48.9721911464
 20
-23.4549898678
 11
-48.941044877
 21
-23.4558185041
  0
LINE
  5
357
100
AcDbEntity
  8
RACCORDO
100
AcDbLine
 62
250
  6
CONTINUOUS
 10
-49.0032194046
 20
-23.4539967534
 11
-48.9721911464
 21
-23.4549898678
  0
LINE
  5
358
100
AcDbEntity
  8
RACCORDO
100
AcDbLine
 62
250
  6
CONTINUOUS
 10
-49.0341083864
 20
-23.4528398415
 11
-49.0032194046
 21
-23.4539967534
  0
LINE
  5
359
100
AcDbEntity
  8
RACCORDO
100
AcDbLine
 62
250
  6
CONTINUOUS
 10
-49.0648369221
 20
-23.4515199251
 11
-49.0341083864
 21
-23.4528398415
  0
LINE
  5
35A
100
AcDbEntity
  8
RACCORDO
100
AcDbLine
 62
250
  6
CONTINUOUS
 10
-49.0953839517
 20
-23.4500379086
 11
-49.0648369221
 21
-23.4515199251
  0
LINE
  5
35B
100
AcDbEntity
  8
RACCORDO
100
AcDbLine
 62
250
  6
CONTINUOUS
 10
-49.1257285399
 20
-23.4483948079
 11
-49.0953839517
 21
-23.4500379086
  0
LINE
  5
35C
100
AcDbEntity
  8
RACCORDO
100
AcDbLine
 62
250
  6
CONTINUOUS
 10
-49.15584989
 20
-23.4465917491
 11
-49.1257285399
 21
-23.4483948079
  0
LINE
  5
35D
100
AcDbEntity
  8
RACCORDO
100
AcDbLine
 62
250
  6
CONTINUOUS
 10
-49.1857273584
 20
-23.4446299679
 11
-49.15584989
 21
-23.4465917491
  0
LINE
  5
35E
100
AcDbEntity
  8
RACCORDO
100
AcDbLine
 62
250
  6
CONTINUOUS
 10
-49.2153404686
 20
-23.4425108089
 11
-49.1857273584
 21
-23.4446299679
  0
LINE
  5
35F
100
AcDbEntity
  8
RACCORDO
100
AcDbLine
 62
250
  6
CONTINUOUS
 10
-72.1909734097
 20
39.492617968
 11
-72.5
 21
39.8016445583
  0
LINE
  5
360
100
AcDbEntity
  8
RACCORDO
100
AcDbLine
 62
250
  6
CONTINUOUS
 10
-71.3016445583
 20
-41.0
 11
-70.9926179677
 21
-40.6909734094
  0
LINE
  5
361
100
AcDbEntity
  8
RACCORDO
100
AcDbLine
 62
250
  6
CONTINUOUS
 10
-70.9926179677
 20
40.6909734094
 11
-71.3016445583
 21
41.0
  0
LINE
  5
362
100
AcDbEntity
  8
RACCORDO
100
AcDbLine
 62
250
  6
CONTINUOUS
 10
50.9166383553
 20
39.4635311044
 11
51.0106026898
 21
39.5108767856
  0
LINE
  5
363
100
AcDbEntity
  8
RACCORDO
100
AcDbLine
 62
250
  6
CONTINUOUS
 10
51.0106026898
 20
39.5108767856
 11
51.10515587
 21
39.5583426381
  0
LINE
  5
364
100
AcDbEntity
  8
RACCORDO
100
AcDbLine
 62
250
  6
CONTINUOUS
 10
51.10515587
 20
39.5583426381
 11
51.1999999998
 21
39.6057773315
  0
LINE
  5
365
100
AcDbEntity
  8
RACCORDO
100
AcDbLine
 62
250
  6
CONTINUOUS
 10
51.1999999999
 20
-39.6057773315
 11
51.1051561834
 21
-39.5583428052
  0
LINE
  5
366
100
AcDbEntity
  8
RACCORDO
100
AcDbLine
 62
250
  6
CONTINUOUS
 10
51.1051561834
 20
-39.5583428052
 11
51.0106053128
 21
-39.5108781171
  0
LINE
  5
367
100
AcDbEntity
  8
RACCORDO
100
AcDbLine
 62
250
  6
CONTINUOUS
 10
51.0106053128
 20
-39.5108781171
 11
50.9166383553
 21
-39.4635311044
  0
LWPOLYLINE
  5
368
100
AcDbEntity
  8
RACCORDO
100
AcDbPolyline
 62
250
  6
CONTINUOUS
 90
112
 70
0
 10
-50.9166383553
 20
39.4635311044
 10
-50.9059636609
 20
39.4526642041
 10
-50.8954671432
 20
39.4416295036
 10
-50.8851488024
 20
39.4304270044
 10
-50.8750569692
 20
39.4191012649
 10
-50.8651433127
 20
39.4076077299
 10
-50.8552628406
 20
39.395812733
 10
-50.8454045593
 20
39.3837209252
 10
-50.8355794623
 20
39.3713276619
 10
-50.8256755373
 20
39.3584853366
 10
-50.8156852393
 20
39.3451982106
 10
-50.8056161133
 20
39.3314620331
 10
-50.7953787821
 20
39.317116434
 10
-50.7849666315
 20
39.302164203
 10
-50.7743862756
 20
39.2866025667
 10
-50.7635681793
 20
39.270262815
 10
-50.7525055665
 20
39.2531451243
 10
-50.7412052133
 20
39.2352493423
 10
-50.7296179125
 20
39.2164062723
 10
-50.7177272123
 20
39.1965949011
 10
-50.7055495646
 20
39.1758362769
 10
-50.6930851178
 20
39.1540243004
 10
-50.6803142662
 20
39.1311211632
 10
-50.6672566155
 20
39.1071647205
 10
-50.6539711321
 20
39.0821623724
 10
-50.6404662084
 20
39.0561231832
 10
-50.626733452
 20
39.0290381433
 10
-50.6128066518
 20
39.0008875443
 10
-50.5987097623
 20
38.9717220885
 10
-50.5844188291
 20
38.9414911384
 10
-50.5698957781
 20
38.9100229845
 10
-50.5551420993
 20
38.8773304863
 10
-50.5401563027
 20
38.8434008726
 10
-50.5248958434
 20
38.8080240044
 10
-50.5093564795
 20
38.7711996661
 10
-50.493542453
 20
38.7329281947
 10
-50.4774239455
 20
38.6930003013
 10
-50.4609974558
 20
38.6514154181
 10
-50.4442664852
 20
38.6081742775
 10
-50.4272117195
 20
38.5630695658
 10
-50.4098313928
 20
38.5161038226
 10
-50.3921272711
 20
38.4672747288
 10
-50.3740853384
 20
38.4163677151
 10
-50.3557038366
 20
38.3633845738
 10
-50.3369845239
 20
38.3083238061
 10
-50.3179186586
 20
38.2509659475
 10
-50.2985064899
 20
38.1913189011
 10
-50.2787477686
 20
38.1293751518
 10
-50.2586330062
 20
38.0648921598
 10
-50.2381818735
 20
37.9979506045
 10
-50.2173746997
 20
37.9284703159
 10
-50.1961429829
 20
37.8559675717
 10
-50.1744929372
 20
37.7804956903
 10
-50.1524183486
 20
37.7020020797
 10
-50.1298320729
 20
37.6198443083
 10
-50.1066899293
 20
37.5338793173
 10
-50.0830360986
 20
37.4442512465
 10
-50.0589159783
 20
37.3507486241
 10
-50.0343343736
 20
37.2533938337
 10
-50.0092864793
 20
37.1521658859
 10
-49.9838032775
 20
37.0467884009
 10
-49.9579269386
 20
36.9374715728
 10
-49.9316152922
 20
36.8240070131
 10
-49.9047728095
 20
36.7054907944
 10
-49.8773803185
 20
36.5818970132
 10
-49.8494569912
 20
36.453254267
 10
-49.8209648148
 20
36.3187409167
 10
-49.7918978425
 20
36.178393166
 10
-49.7622620211
 20
36.0321786527
 10
-49.7320371782
 20
35.8791735977
 10
-49.7012384703
 20
35.719559844
 10
-49.6698507408
 20
35.5531610239
 10
-49.6378083484
 20
35.3785172031
 10
-49.6050688844
 20
35.1955300561
 10
-49.5716747576
 20
35.0043062614
 10
-49.5376875519
 20
34.803695011
 10
-49.5028895349
 20
34.5923045549
 10
-49.4674984392
 20
34.3715392114
 10
-49.4322290468
 20
34.1444418149
 10
-49.3971244778
 20
33.9109424884
 10
-49.3621416122
 20
33.6711224026
 10
-49.3278658721
 20
33.4282474357
 10
-49.2944195209
 20
33.1829478034
 10
-49.2616802952
 20
32.9346012621
 10
-49.229866827
 20
32.684591866
 10
-49.1990112528
 20
32.4330833227
 10
-49.1690814361
 20
32.1799186756
 10
-49.1401995994
 20
31.9259992251
 10
-49.112373849
 20
31.6713268032
 10
-49.0855960786
 20
31.4159052255
 10
-49.0599641921
 20
31.1606371655
 10
-49.0354908758
 20
30.9055723682
 10
-49.0121634435
 20
30.6506650744
 10
-48.9900417396
 20
30.3966730374
 10
-48.9691375825
 20
30.1436637822
 10
-48.9494391539
 20
29.8915720508
 10
-48.9309708439
 20
29.640954965
 10
-48.9137390719
 20
29.3918298791
 10
-48.8977374186
 20
29.1441802247
 10
-48.8829710153
 20
28.8985109561
 10
-48.8694465208
 20
28.6548451791
 10
-48.8571572763
 20
28.4131590195
 10
-48.8460884375
 20
28.1738857544
 10
-48.836246518
 20
27.9370736612
 10
-48.8276250042
 20
27.7026722047
 10
-48.820189511
 20
27.4709654626
 10
-48.8139439178
 20
27.2419606544
 10
-48.8088843451
 20
27.0156472067
 10
-48.8049647693
 20
26.792281731
 10
-48.8021698493
 20
26.5719481578
 10
-48.8005149262
 20
26.3545580992
 10
-48.8
 20
26.1401092737
  0
LWPOLYLINE
  5
369
100
AcDbEntity
  8
0
100
AcDbPolyline
 62
7
  6
CONTINUOUS
 90
2
 70
0
 43
0.3500000006
 10
-0.3928571312
 20
49.7500012665
 10
-0.3928571312
 20
51.2500017242
  0
LWPOLYLINE
  5
36A
100
AcDbEntity
  8
RACCORDO
100
AcDbPolyline
 62
250
  6
CONTINUOUS
 90
106
 70
0
 10
50.9166407422
 20
39.4635311044
 10
50.9083144483
 20
39.4551337866
 10
50.8998652073
 20
39.4463428389
 10
50.8912930193
 20
39.4371582643
 10
50.8826409391
 20
39.4276460166
 10
50.8738659118
 20
39.4177401478
 10
50.8648387731
 20
39.4072428097
 10
50.855505988
 20
39.396098482
 10
50.8459210916
 20
39.3843626963
 10
50.8361155241
 20
39.372004185
 10
50.8261061712
 20
39.3590453104
 10
50.8158761471
 20
39.3454637238
 10
50.8054062351
 20
39.3311610937
 10
50.7946978853
 20
39.3161442455
 10
50.7837496474
 20
39.3004063726
 10
50.772537954
 20
39.2838286989
 10
50.7610655017
 20
39.2664216193
 10
50.7493295939
 20
39.248174765
 10
50.7372985723
 20
39.228938219
 10
50.7249732701
 20
39.2087213536
 10
50.7123528542
 20
39.1875148333
 10
50.6994031678
 20
39.1651406869
 10
50.6861248921
 20
39.1416095389
 10
50.6725173458
 20
39.1169108171
 10
50.6585443284
 20
39.0908347659
 10
50.6442026948
 20
39.0633852625
 10
50.62949559
 20
39.0345585044
 10
50.6143962485
 20
39.0041332306
 10
50.5989024556
 20
38.9721141511
 10
50.5830164261
 20
38.9384966612
 10
50.566718039
 20
38.9030455479
 10
50.5500074984
 20
38.8657707526
 10
50.5328846002
 20
38.8266624812
 10
50.5153286108
 20
38.7854559445
 10
50.4973396946
 20
38.742162131
 10
50.4789176872
 20
38.6967702587
 10
50.4600413621
 20
38.6489829187
 10
50.4407112278
 20
38.5988134833
 10
50.4209267757
 20
38.5462488698
 10
50.4006652534
 20
38.4909520376
 10
50.37992711
 20
38.4329382804
 10
50.3587118964
 20
38.3721927115
 10
50.3369955125
 20
38.3083330904
 10
50.3147782233
 20
38.2413767409
 10
50.2920597639
 20
38.1713069126
 10
50.2688152389
 20
38.0976903527
 10
50.2450448151
 20
38.0205474252
 10
50.2207483257
 20
37.9398585758
 10
50.1959003758
 20
37.8551308146
 10
50.1705011082
 20
37.766389131
 10
50.1445503801
 20
37.6736096823
 10
50.1180223674
 20
37.5762264298
 10
50.0909167757
 20
37.4742691265
 10
50.0632338994
 20
37.3677096506
 10
50.0349487972
 20
37.2558954358
 10
50.0060619236
 20
37.1388692265
 10
49.9765728241
 20
37.0165906086
 10
49.9464551937
 20
36.8882826945
 10
49.9157055844
 20
36.7539852305
 10
49.8843274441
 20
36.6136618307
 10
49.8523048119
 20
36.4664220155
 10
49.8196419157
 20
36.3123662864
 10
49.7863345275
 20
36.1513989938
 10
49.7523540027
 20
35.9823363631
 10
49.7176028178
 20
35.804723222
 10
49.6821784962
 20
35.6190220789
 10
49.6463449637
 20
35.4254264689
 10
49.6100027717
 20
35.2232537664
 10
49.5732513688
 20
35.0131959973
 10
49.5366530266
 20
34.7975080135
 10
49.5002803363
 20
34.5764225988
 10
49.4640607066
 20
34.3497157909
 10
49.4283386358
 20
34.118955652
 10
49.3931547181
 20
33.8842904919
 10
49.3584683594
 20
33.6455804315
 10
49.3245022749
 20
33.4039598264
 10
49.2912671993
 20
33.1594172649
 10
49.2587523979
 20
32.9119721851
 10
49.2271483828
 20
32.6628037248
 10
49.1964732409
 20
32.4119696988
 10
49.1667088851
 20
32.1594191669
 10
49.1379915663
 20
31.9061664453
 10
49.1103356795
 20
31.652262896
 10
49.0837268296
 20
31.3976626404
 10
49.0582580824
 20
31.1432324631
 10
49.0339415769
 20
30.8890226511
 10
49.0107651741
 20
30.6349868282
 10
48.9887855225
 20
30.3818451952
 10
48.9680123678
 20
30.1296403314
 10
48.9484359644
 20
29.8783319502
 10
48.9300837237
 20
29.6285144981
 10
48.9129635929
 20
29.3802237094
 10
48.8970676249
 20
29.1334245528
 10
48.8823993902
 20
28.8886040249
 10
48.8689654076
 20
28.6457907298
 10
48.8567591583
 20
28.4049552671
 10
48.8457646558
 20
28.1664964851
 10
48.8359872584
 20
27.9304289309
 10
48.8274216079
 20
27.6967358951
 10
48.8200356428
 20
27.4657683239
 10
48.8138345695
 20
27.2375561996
 10
48.8088131817
 20
27.0120660782
 10
48.8049237988
 20
26.7895529122
 10
48.8021505275
 20
26.5701000539
 10
48.8005092613
 20
26.3536196144
 10
48.8
 20
26.1401092737
  0
LWPOLYLINE
  5
36B
100
AcDbEntity
  8
RACCORDO
100
AcDbPolyline
 62
250
  6
CONTINUOUS
 90
112
 70
0
 10
50.9166383553
 20
-39.4635311044
 10
50.9059827414
 20
-39.4526841348
 10
50.8955046207
 20
-39.441669805
 10
50.8852039931
 20
-39.4304881167
 10
50.875129491
 20
-39.4191840991
 10
50.865232482
 20
-39.4077127262
 10
50.8553670693
 20
-39.3959389178
 10
50.8455217769
 20
-39.3838667436
 10
50.8357080808
 20
-39.3714921403
 10
50.8258145124
 20
-39.3586678315
 10
50.8158335625
 20
-39.3453980507
 10
50.8057727403
 20
-39.3316785748
 10
50.7955431057
 20
-39.3173494458
 10
50.7851380947
 20
-39.302413474
 10
50.7745642712
 20
-39.2868678652
 10
50.7637523864
 20
-39.2705442591
 10
50.7526955249
 20
-39.2534425462
 10
50.7414006019
 20
-39.2355628601
 10
50.7298191147
 20
-39.2167372115
 10
50.717934962
 20
-39.1969451448
 10
50.705764245
 20
-39.1762071506
 10
50.6933067636
 20
-39.154416665
 10
50.6805428783
 20
-39.1315358877
 10
50.6674922287
 20
-39.1076026659
 10
50.6542135331
 20
-39.0826239108
 10
50.6407150997
 20
-39.0566085474
 10
50.6269886204
 20
-39.0295477054
 10
50.6130678892
 20
-39.0014216058
 10
50.5989766971
 20
-38.9722805493
 10
50.5846912531
 20
-38.9420743
 10
50.5701739771
 20
-38.9106322818
 10
50.5554266225
 20
-38.8779679048
 10
50.540447436
 20
-38.8440678471
 10
50.5251935781
 20
-38.8087214513
 10
50.5096607117
 20
-38.7719283105
 10
50.4938531739
 20
-38.733688953
 10
50.477741137
 20
-38.6937941454
 10
50.4613211072
 20
-38.6522433455
 10
50.4445965782
 20
-38.6090372599
 10
50.4275482029
 20
-38.5639685547
 10
50.4101742027
 20
-38.5170397388
 10
50.3924763563
 20
-38.4682485232
 10
50.3744406522
 20
-38.4173804096
 10
50.3560653504
 20
-38.3644372469
 10
50.3373521909
 20
-38.309417479
 10
50.3182923829
 20
-38.2521015418
 10
50.2988862778
 20
-38.1924977017
 10
50.2791335242
 20
-38.1305980796
 10
50.259024276
 20
-38.0661589457
 10
50.2385777939
 20
-37.9992595469
 10
50.2177748173
 20
-37.9298211454
 10
50.196547718
 20
-37.857363125
 10
50.1749027199
 20
-37.7819385493
 10
50.1528335991
 20
-37.7034950797
 10
50.1302540567
 20
-37.6213941536
 10
50.1071215087
 20
-37.5354991162
 10
50.083478539
 20
-37.4459476997
 10
50.0593665999
 20
-37.3525130846
 10
50.0347878011
 20
-37.2552070446
 10
50.009740033
 20
-37.1540192024
 10
49.9842584186
 20
-37.048689663
 10
49.9583870211
 20
-36.9394359632
 10
49.9320817774
 20
-36.8260423663
 10
49.9052456207
 20
-36.7075993911
 10
49.8778590428
 20
-36.5840799994
 10
49.8499415519
 20
-36.4555139196
 10
49.8214546055
 20
-36.3210773591
 10
49.792391927
 20
-36.1808048975
 10
49.7627597929
 20
-36.0346657927
 10
49.7325384909
 20
-35.8817389772
 10
49.7017433853
 20
-35.7222071217
 10
49.6703591118
 20
-35.555893023
 10
49.638319864
 20
-35.3813369609
 10
49.6055829301
 20
-35.1984385829
 10
49.5721910219
 20
-35.007306584
 10
49.5382064691
 20
-34.8067964309
 10
49.5034153852
 20
-34.5955438291
 10
49.4680316567
 20
-34.3749256073
 10
49.4327592728
 20
-34.1479084992
 10
49.3976341327
 20
-33.9143760738
 10
49.3626203371
 20
-33.6744561563
 10
49.3283141771
 20
-33.4314783459
 10
49.2948415197
 20
-33.1860940545
 10
49.262076498
 20
-32.9376598402
 10
49.2302378023
 20
-32.6875598423
 10
49.199357625
 20
-32.4359583243
 10
49.1694037737
 20
-32.1826977826
 10
49.1404983618
 20
-31.9286779496
 10
49.1126493548
 20
-31.6738994556
 10
49.0858487872
 20
-31.418367332
 10
49.060194876
 20
-31.1629863108
 10
49.0357003401
 20
-30.9078061836
 10
49.0123524607
 20
-30.652781155
 10
48.9902112978
 20
-30.3986709089
 10
48.9692887315
 20
-30.1455435396
 10
48.9495728818
 20
-29.8933332257
 10
48.9310881695
 20
-29.642597317
 10
48.9138409952
 20
-29.3933527806
 10
48.8978249583
 20
-29.1455834409
 10
48.8830452779
 20
-28.8997956473
 10
48.8695086433
 20
-28.6560127964
 10
48.8572083652
 20
-28.4142107241
 10
48.846129594
 20
-28.1748232287
 10
48.836278852
 20
-27.9378986298
 10
48.827649617
 20
-27.7033863485
 10
48.8202074722
 20
-27.4715708544
 10
48.8139563037
 20
-27.2424593879
 10
48.8088922254
 20
-27.0160413512
 10
48.8049691634
 20
-26.7925736779
 10
48.8021717594
 20
-26.5721404039
 10
48.8005153716
 20
-26.3546530305
 10
48.8
 20
-26.1401092738
  0
LINE
  5
36C
100
AcDbEntity
  8
RACCORDO
100
AcDbLine
 62
250
  6
CONTINUOUS
 10
-50.9166383553
 20
-39.4635311044
 11
-51.0106054051
 21
-39.5108781635
  0
LINE
  5
36D
100
AcDbEntity
  8
RACCORDO
100
AcDbLine
 62
250
  6
CONTINUOUS
 10
-51.0106054051
 20
-39.5108781635
 11
-51.1051561769
 21
-39.558342802
  0
LINE
  5
36E
100
AcDbEntity
  8
RACCORDO
100
AcDbLine
 62
250
  6
CONTINUOUS
 10
-51.1051561769
 20
-39.558342802
 11
-51.1999999999
 21
-39.6057773315
  0
LINE
  5
36F
100
AcDbEntity
  8
RACCORDO
100
AcDbLine
 62
250
  6
CONTINUOUS
 10
-51.1999999999
 20
39.6057773315
 11
-51.1051558663
 21
39.5583426362
  0
LINE
  5
370
100
AcDbEntity
  8
RACCORDO
100
AcDbLine
 62
250
  6
CONTINUOUS
 10
-51.1051558663
 20
39.5583426362
 11
-51.0106027844
 21
39.5108768332
  0
LINE
  5
371
100
AcDbEntity
  8
RACCORDO
100
AcDbLine
 62
250
  6
CONTINUOUS
 10
-51.0106027844
 20
39.5108768332
 11
-50.9166383553
 21
39.4635311044
  0
LINE
  5
372
100
AcDbEntity
  8
RACCORDO
100
AcDbLine
 62
250
  6
CONTINUOUS
 10
71.3016445583
 20
41.0
 11
70.9926179677
 21
40.6909734094
  0
LINE
  5
373
100
AcDbEntity
  8
RACCORDO
100
AcDbLine
 62
7
  6
CONTINUOUS
 10
-49.8
 20
22.4999999998
 11
49.8
 21
22.4999999998
  0
LINE
  5
374
100
AcDbEntity
  8
RACCORDO
100
AcDbLine
 62
250
  6
CONTINUOUS
 10
70.9926179677
 20
-40.6909734094
 11
71.3016445583
 21
-41.0
  0
LINE
  5
375
100
AcDbEntity
  8
RACCORDO
100
AcDbLine
 62
250
  6
CONTINUOUS
 10
51.0583191776
 20
39.3228767647
 11
51.1210338225
 21
39.448298456
  0
LWPOLYLINE
  5
376
100
AcDbEntity
  8
RACCORDO
100
AcDbPolyline
 62
250
  6
CONTINUOUS
 90
3
 70
0
 10
51.1210338225
 20
39.448298456
 10
51.184180998
 20
39.574261325
 10
51.2
 20
39.6057773313
  0
LINE
  5
377
100
AcDbEntity
  8
RACCORDO
100
AcDbLine
 62
250
  6
CONTINUOUS
 10
72.5
 20
39.8016445583
 11
72.1909734097
 21
39.492617968
  0
LINE
  5
378
100
AcDbEntity
  8
RACCORDO
100
AcDbLine
 62
250
  6
CONTINUOUS
 10
-49.3587374244
 20
23.4296088379
 11
-49.3307464283
 21
23.4324909834
  0
LINE
  5
379
100
AcDbEntity
  8
RACCORDO
100
AcDbLine
 62
250
  6
CONTINUOUS
 10
-49.3307464283
 20
23.4324909834
 11
-49.3023916851
 21
23.4352240706
  0
LINE
  5
37A
100
AcDbEntity
  8
RACCORDO
100
AcDbLine
 62
250
  6
CONTINUOUS
 10
-49.3023916851
 20
23.4352240706
 11
-49.2736926277
 21
23.4378062262
  0
LINE
  5
37B
100
AcDbEntity
  8
RACCORDO
100
AcDbLine
 62
250
  6
CONTINUOUS
 10
-49.2736926277
 20
23.4378062262
 11
-49.244668925
 21
23.4402356806
  0
LINE
  5
37C
100
AcDbEntity
  8
RACCORDO
100
AcDbLine
 62
250
  6
CONTINUOUS
 10
-49.244668925
 20
23.4402356806
 11
-49.2153404685
 21
23.4425107687
  0
LINE
  5
37D
100
AcDbEntity
  8
RACCORDO
100
AcDbLine
 62
250
  6
CONTINUOUS
 10
-49.2153404685
 20
23.4425107687
 11
-49.1857273584
 21
23.4446299312
  0
LINE
  5
37E
100
AcDbEntity
  8
RACCORDO
100
AcDbLine
 62
250
  6
CONTINUOUS
 10
-49.1857273584
 20
23.4446299312
 11
-49.15584989
 21
23.4465917158
  0
LINE
  5
37F
100
AcDbEntity
  8
RACCORDO
100
AcDbLine
 62
250
  6
CONTINUOUS
 10
-49.15584989
 20
23.4465917158
 11
-49.1257285399
 21
23.448394778
  0
LINE
  5
380
100
AcDbEntity
  8
RACCORDO
100
AcDbLine
 62
250
  6
CONTINUOUS
 10
-49.1257285399
 20
23.448394778
 11
-49.0953839516
 21
23.4500378819
  0
LINE
  5
381
100
AcDbEntity
  8
RACCORDO
100
AcDbLine
 62
250
  6
CONTINUOUS
 10
-49.0953839516
 20
23.4500378819
 11
-49.064836922
 21
23.4515199016
  0
LINE
  5
382
100
AcDbEntity
  8
RACCORDO
100
AcDbLine
 62
250
  6
CONTINUOUS
 10
-49.1338609565
 20
26.1319470847
 11
-49.1027950289
 21
26.1334197105
  0
LINE
  5
383
100
AcDbEntity
  8
RACCORDO
100
AcDbLine
 62
250
  6
CONTINUOUS
 10
-49.064836922
 20
23.4515199016
 11
-49.0341083864
 21
23.4528398212
  0
LINE
  5
384
100
AcDbEntity
  8
RACCORDO
100
AcDbLine
 62
250
  6
CONTINUOUS
 10
-49.1027950289
 20
26.1334197105
 11
-49.0715108028
 21
26.1347481165
  0
LINE
  5
385
100
AcDbEntity
  8
RACCORDO
100
AcDbLine
 62
250
  6
CONTINUOUS
 10
-49.0715108028
 20
26.1347481165
 11
-49.0400308324
 21
26.1359313449
  0
LINE
  5
386
100
AcDbEntity
  8
RACCORDO
100
AcDbLine
 62
250
  6
CONTINUOUS
 10
-49.0341083864
 20
23.4528398212
 11
-49.0032194046
 21
23.4539967361
  0
LINE
  5
387
100
AcDbEntity
  8
RACCORDO
100
AcDbLine
 62
250
  6
CONTINUOUS
 10
-49.0400308324
 20
26.1359313449
 11
-49.0083778131
 21
26.1369685427
  0
LINE
  5
388
100
AcDbEntity
  8
RACCORDO
100
AcDbLine
 62
250
  6
CONTINUOUS
 10
-49.0032194046
 20
23.4539967361
 11
-48.9721911464
 21
23.4549898535
  0
LINE
  5
389
100
AcDbEntity
  8
RACCORDO
100
AcDbLine
 62
250
  6
CONTINUOUS
 10
-49.0083778131
 20
26.1369685427
 11
-48.9765745649
 21
26.137858962
  0
LINE
  5
38A
100
AcDbEntity
  8
RACCORDO
100
AcDbLine
 62
250
  6
CONTINUOUS
 10
-48.9721911464
 20
23.4549898535
 11
-48.9410448769
 21
23.4558184926
  0
LINE
  5
38B
100
AcDbEntity
  8
RACCORDO
100
AcDbLine
 62
250
  6
CONTINUOUS
 10
-48.9765745649
 20
26.137858962
 11
-48.9446440162
 21
26.1386019611
  0
LINE
  5
38C
100
AcDbEntity
  8
RACCORDO
100
AcDbLine
 62
250
  6
CONTINUOUS
 10
-48.9410448769
 20
23.4558184926
 11
-48.9098019424
 21
23.4564820856
  0
LINE
  5
38D
100
AcDbEntity
  8
RACCORDO
100
AcDbLine
 62
250
  6
CONTINUOUS
 10
-48.9446440162
 20
26.1386019611
 11
-48.9126091872
 21
26.1391970041
  0
LINE
  5
38E
100
AcDbEntity
  8
RACCORDO
100
AcDbLine
 62
250
  6
CONTINUOUS
 10
-48.9098019424
 20
23.4564820856
 11
-48.8784837551
 21
23.4569801776
  0
LINE
  5
38F
100
AcDbEntity
  8
RACCORDO
100
AcDbLine
 62
250
  6
CONTINUOUS
 10
-48.9126091872
 20
26.1391970041
 11
-48.8804931732
 21
26.1396436622
  0
LINE
  5
390
100
AcDbEntity
  8
RACCORDO
100
AcDbLine
 62
250
  6
CONTINUOUS
 10
-48.8784837551
 20
23.4569801776
 11
-48.8471117789
 21
23.4573124272
  0
LINE
  5
391
100
AcDbEntity
  8
RACCORDO
100
AcDbLine
 62
250
  6
CONTINUOUS
 10
-48.8804931732
 20
26.1396436622
 11
-48.8483191281
 21
26.1399416132
  0
LINE
  5
392
100
AcDbEntity
  8
RACCORDO
100
AcDbLine
 62
250
  6
CONTINUOUS
 10
-48.8471117789
 20
23.4573124272
 11
-48.8157075147
 21
23.4574786068
  0
LWPOLYLINE
  5
393
100
AcDbEntity
  8
RACCORDO
100
AcDbPolyline
 62
250
  6
CONTINUOUS
 90
3
 70
0
 10
-48.8483191281
 20
26.1399416132
 10
-48.8161102476
 20
26.1400906425
 10
-48.8
 20
26.1401092737
  0
LINE
  5
394
100
AcDbEntity
  8
RACCORDO
100
AcDbLine
 62
250
  6
CONTINUOUS
 10
-48.8157075147
 20
23.4574786068
 11
48.8
 21
23.4574993802
  0
LINE
  5
395
100
AcDbEntity
  8
RACCORDO
100
AcDbLine
 62
250
  6
CONTINUOUS
 10
48.8322175912
 20
26.1400347523
 11
48.8
 21
26.1401092737
  0
LINE
  5
396
100
AcDbEntity
  8
RACCORDO
100
AcDbLine
 62
250
  6
CONTINUOUS
 10
48.831412338
 20
23.4574162882
 11
48.8
 21
23.4574993802
  0
LINE
  5
397
100
AcDbEntity
  8
RACCORDO
100
AcDbLine
 62
250
  6
CONTINUOUS
 10
48.8644119554
 20
26.139811242
 11
48.8322175912
 21
26.1400347523
  0
LINE
  5
398
100
AcDbEntity
  8
RACCORDO
100
AcDbLine
 62
250
  6
CONTINUOUS
 10
48.8628031475
 20
23.457167055
 11
48.831412338
 21
23.4574162882
  0
LINE
  5
399
100
AcDbEntity
  8
RACCORDO
100
AcDbLine
 62
250
  6
CONTINUOUS
 10
48.8965598821
 20
26.1394389039
 11
48.8644119554
 21
26.139811242
  0
LINE
  5
39A
100
AcDbEntity
  8
RACCORDO
100
AcDbLine
 62
250
  6
CONTINUOUS
 10
48.8941509149
 20
23.4567518514
 11
48.8628031475
 21
23.457167055
  0
LINE
  5
39B
100
AcDbEntity
  8
RACCORDO
100
AcDbLine
 62
250
  6
CONTINUOUS
 10
48.9286381944
 20
26.1389180064
 11
48.8965598821
 21
26.1394389039
  0
LINE
  5
39C
100
AcDbEntity
  8
RACCORDO
100
AcDbLine
 62
250
  6
CONTINUOUS
 10
48.9254341559
 20
23.4561709621
 11
48.8941509149
 21
23.4567518514
  0
LINE
  5
39D
100
AcDbEntity
  8
RACCORDO
100
AcDbLine
 62
250
  6
CONTINUOUS
 10
48.9606237658
 20
26.1382489251
 11
48.9286381944
 21
26.1389180064
  0
LINE
  5
39E
100
AcDbEntity
  8
RACCORDO
100
AcDbLine
 62
250
  6
CONTINUOUS
 10
48.9566314307
 20
23.455424785
 11
48.9254341559
 21
23.4561709621
  0
LINE
  5
39F
100
AcDbEntity
  8
RACCORDO
100
AcDbLine
 62
250
  6
CONTINUOUS
 10
48.9924935363
 20
26.1374321423
 11
48.9606237658
 21
26.1382489251
  0
LINE
  5
3A0
100
AcDbEntity
  8
RACCORDO
100
AcDbLine
 62
250
  6
CONTINUOUS
 10
48.987721358
 20
23.4545138317
 11
48.9566314307
 21
23.455424785
  0
LINE
  5
3A1
100
AcDbEntity
  8
RACCORDO
100
AcDbLine
 62
250
  6
CONTINUOUS
 10
49.0242245296
 20
26.1364682468
 11
48.9924935363
 21
26.1374321423
  0
LINE
  5
3A2
100
AcDbEntity
  8
RACCORDO
100
AcDbLine
 62
250
  6
CONTINUOUS
 10
49.0186826306
 20
23.4534387264
 11
48.987721358
 21
23.4545138317
  0
LINE
  5
3A3
100
AcDbEntity
  8
RACCORDO
100
AcDbLine
 62
250
  6
CONTINUOUS
 10
49.0557938695
 20
26.1353579337
 11
49.0242245296
 21
26.1364682468
  0
LINE
  5
3A4
100
AcDbEntity
  8
RACCORDO
100
AcDbLine
 62
250
  6
CONTINUOUS
 10
49.0871787961
 20
26.1341020034
 11
49.0557938695
 21
26.1353579337
  0
LINE
  5
3A5
100
AcDbEntity
  8
RACCORDO
100
AcDbLine
 62
250
  6
CONTINUOUS
 10
49.049494029
 20
23.4522002061
 11
49.0186826306
 21
23.4534387264
  0
LINE
  5
3A6
100
AcDbEntity
  8
RACCORDO
100
AcDbLine
 62
250
  6
CONTINUOUS
 10
49.0801344366
 20
23.4507991195
 11
49.049494029
 21
23.4522002061
  0
LWPOLYLINE
  5
3A7
100
AcDbEntity
  8
RACCORDO
100
AcDbPolyline
 62
250
  6
CONTINUOUS
 90
3
 70
0
 10
49.1338609556
 20
26.1319470847
 10
49.1183566828
 20
26.1327013612
 10
49.0871787961
 20
26.1341020034
  0
LINE
  5
3A8
100
AcDbEntity
  8
RACCORDO
100
AcDbLine
 62
250
  6
CONTINUOUS
 10
49.1105828541
 20
23.449236427
 11
49.0801344366
 21
23.4507991195
  0
LINE
  5
3A9
100
AcDbEntity
  8
RACCORDO
100
AcDbLine
 62
250
  6
CONTINUOUS
 10
49.1408184137
 20
23.4475131995
 11
49.1105828541
 21
23.449236427
  0
LINE
  5
3AA
100
AcDbEntity
  8
RACCORDO
100
AcDbLine
 62
250
  6
CONTINUOUS
 10
49.1708203933
 20
23.4456306181
 11
49.1408184137
 21
23.4475131995
  0
LINE
  5
3AB
100
AcDbEntity
  8
RACCORDO
100
AcDbLine
 62
250
  6
CONTINUOUS
 10
49.2005682311
 20
23.4435899731
 11
49.1708203933
 21
23.4456306181
  0
LINE
  5
3AC
100
AcDbEntity
  8
RACCORDO
100
AcDbLine
 62
250
  6
CONTINUOUS
 10
49.2300415395
 20
23.4413926629
 11
49.2005682311
 21
23.4435899731
  0
LINE
  5
3AD
100
AcDbEntity
  8
RACCORDO
100
AcDbLine
 62
250
  6
CONTINUOUS
 10
49.2592201189
 20
23.4390401937
 11
49.2300415395
 21
23.4413926629
  0
LINE
  5
3AE
100
AcDbEntity
  8
RACCORDO
100
AcDbLine
 62
250
  6
CONTINUOUS
 10
49.2880839717
 20
23.4365341777
 11
49.2592201189
 21
23.4390401937
  0
LINE
  5
3AF
100
AcDbEntity
  8
RACCORDO
100
AcDbLine
 62
250
  6
CONTINUOUS
 10
49.3166133162
 20
23.4338763323
 11
49.2880839717
 21
23.4365341777
  0
LWPOLYLINE
  5
3B0
100
AcDbEntity
  8
RACCORDO
100
AcDbPolyline
 62
250
  6
CONTINUOUS
 90
3
 70
0
 10
49.3587374244
 20
23.4296088972
 10
49.3447885997
 20
23.4310684792
 10
49.3166133162
 20
23.4338763323
  0
LINE
  5
3B1
100
AcDbEntity
  8
RACCORDO
100
AcDbLine
 62
250
  6
CONTINUOUS
 10
72.1909734097
 20
-39.492617968
 11
72.5
 21
-39.8016445583
  0
LINE
  5
3B2
100
AcDbEntity
  8
RACCORDO
100
AcDbLine
 62
250
  6
CONTINUOUS
 10
51.2
 20
-39.6057773313
 11
51.1367969641
 21
-39.4797771338
  0
LWPOLYLINE
  5
3B3
100
AcDbEntity
  8
RACCORDO
100
AcDbPolyline
 62
250
  6
CONTINUOUS
 90
3
 70
0
 10
51.1367969641
 20
-39.4797771338
 10
51.0739434715
 20
-39.3541622495
 10
51.0583191776
 20
-39.3228767647
  0
LINE
  5
3B4
100
AcDbEntity
  8
RACCORDO
100
AcDbLine
 62
250
  6
CONTINUOUS
 10
-49.579337658
 20
23.3993976991
 11
-49.5551844693
 21
23.4034571592
  0
LINE
  5
3B5
100
AcDbEntity
  8
RACCORDO
100
AcDbLine
 62
250
  6
CONTINUOUS
 10
-49.6428130582
 20
26.0805367199
 11
-49.6195755582
 21
26.0843819306
  0
LINE
  5
3B6
100
AcDbEntity
  8
RACCORDO
100
AcDbLine
 62
250
  6
CONTINUOUS
 10
-49.5551844693
 20
23.4034571592
 11
-49.5305137149
 21
23.4073874594
  0
LINE
  5
3B7
100
AcDbEntity
  8
RACCORDO
100
AcDbLine
 62
250
  6
CONTINUOUS
 10
-49.6195755582
 20
26.0843819306
 11
-49.5957471896
 21
26.0881182751
  0
LINE
  5
3B8
100
AcDbEntity
  8
RACCORDO
100
AcDbLine
 62
250
  6
CONTINUOUS
 10
-49.5305137149
 20
23.4073874594
 11
-49.5053423028
 21
23.411185906
  0
LINE
  5
3B9
100
AcDbEntity
  8
RACCORDO
100
AcDbLine
 62
250
  6
CONTINUOUS
 10
-49.5957471896
 20
26.0881182751
 11
-49.5713451314
 21
26.0917430594
  0
LINE
  5
3BA
100
AcDbEntity
  8
RACCORDO
100
AcDbLine
 62
250
  6
CONTINUOUS
 10
-49.5053423028
 20
23.411185906
 11
-49.4796874844
 21
23.4148498957
  0
LINE
  5
3BB
100
AcDbEntity
  8
RACCORDO
100
AcDbLine
 62
250
  6
CONTINUOUS
 10
-49.5713451314
 20
26.0917430594
 11
-49.5463869759
 21
26.0952536705
  0
LINE
  5
3BC
100
AcDbEntity
  8
RACCORDO
100
AcDbLine
 62
250
  6
CONTINUOUS
 10
-49.4796874844
 20
23.4148498957
 11
-49.4535668421
 21
23.4183769175
  0
LINE
  5
3BD
100
AcDbEntity
  8
RACCORDO
100
AcDbLine
 62
250
  6
CONTINUOUS
 10
-49.5463869759
 20
26.0952536705
 11
-49.5208907168
 21
26.0986475773
  0
LINE
  5
3BE
100
AcDbEntity
  8
RACCORDO
100
AcDbLine
 62
250
  6
CONTINUOUS
 10
-49.4535668421
 20
23.4183769175
 11
-49.4269982777
 21
23.4217645541
  0
LINE
  5
3BF
100
AcDbEntity
  8
RACCORDO
100
AcDbLine
 62
250
  6
CONTINUOUS
 10
-49.5208907168
 20
26.0986475773
 11
-49.4948747354
 21
26.1019223329
  0
LINE
  5
3C0
100
AcDbEntity
  8
RACCORDO
100
AcDbLine
 62
250
  6
CONTINUOUS
 10
-49.4269982777
 20
23.4217645541
 11
-49.4
 21
23.4250104836
  0
LINE
  5
3C1
100
AcDbEntity
  8
RACCORDO
100
AcDbLine
 62
250
  6
CONTINUOUS
 10
-49.4948747354
 20
26.1019223329
 11
-49.4683577877
 21
26.1050755766
  0
LWPOLYLINE
  5
3C2
100
AcDbEntity
  8
RACCORDO
100
AcDbPolyline
 62
250
  6
CONTINUOUS
 90
3
 70
0
 10
-49.4
 20
23.4250104836
 10
-49.3725905123
 20
23.4281124815
 10
-49.3587374244
 20
23.4296088379
  0
LINE
  5
3C3
100
AcDbEntity
  8
RACCORDO
100
AcDbLine
 62
250
  6
CONTINUOUS
 10
-49.4683577877
 20
26.1050755766
 11
-49.4413589911
 21
26.108105035
  0
LINE
  5
3C4
100
AcDbEntity
  8
RACCORDO
100
AcDbLine
 62
250
  6
CONTINUOUS
 10
-49.4413589911
 20
26.108105035
 11
-49.4138978101
 21
26.1110085239
  0
LINE
  5
3C5
100
AcDbEntity
  8
RACCORDO
100
AcDbLine
 62
250
  6
CONTINUOUS
 10
-49.4138978101
 20
26.1110085239
 11
-49.3859940428
 21
26.1137839502
  0
LINE
  5
3C6
100
AcDbEntity
  8
RACCORDO
100
AcDbLine
 62
250
  6
CONTINUOUS
 10
-49.3859940428
 20
26.1137839502
 11
-49.3576678062
 21
26.1164293129
  0
LINE
  5
3C7
100
AcDbEntity
  8
RACCORDO
100
AcDbLine
 62
250
  6
CONTINUOUS
 10
-49.3576678062
 20
26.1164293129
 11
-49.328939522
 21
26.1189427049
  0
LINE
  5
3C8
100
AcDbEntity
  8
RACCORDO
100
AcDbLine
 62
250
  6
CONTINUOUS
 10
-49.328939522
 20
26.1189427049
 11
-49.2998299016
 21
26.1213223141
  0
LINE
  5
3C9
100
AcDbEntity
  8
RACCORDO
100
AcDbLine
 62
250
  6
CONTINUOUS
 10
-49.2998299016
 20
26.1213223141
 11
-49.2703599316
 21
26.123566425
  0
LINE
  5
3CA
100
AcDbEntity
  8
RACCORDO
100
AcDbLine
 62
250
  6
CONTINUOUS
 10
-49.2703599316
 20
26.123566425
 11
-49.2405508581
 21
26.1256734197
  0
LINE
  5
3CB
100
AcDbEntity
  8
RACCORDO
100
AcDbLine
 62
250
  6
CONTINUOUS
 10
-49.2405508581
 20
26.1256734197
 11
-49.2104241718
 21
26.1276417792
  0
LINE
  5
3CC
100
AcDbEntity
  8
RACCORDO
100
AcDbLine
 62
250
  6
CONTINUOUS
 10
-49.2104241718
 20
26.1276417792
 11
-49.1800015924
 21
26.1294700843
  0
LWPOLYLINE
  5
3CD
100
AcDbEntity
  8
RACCORDO
100
AcDbPolyline
 62
250
  6
CONTINUOUS
 90
3
 70
0
 10
-49.1800015924
 20
26.1294700843
 10
-49.1493050528
 20
26.131157017
 10
-49.1338609565
 20
26.1319470847
  0
LINE
  5
3CE
100
AcDbEntity
  8
RACCORDO
100
AcDbLine
 62
250
  6
CONTINUOUS
 10
49.1646861879
 20
26.1303313007
 11
49.1338609556
 21
26.1319470847
  0
LINE
  5
3CF
100
AcDbEntity
  8
RACCORDO
100
AcDbLine
 62
250
  6
CONTINUOUS
 10
49.1952485017
 20
26.1285735234
 11
49.1646861879
 21
26.1303313007
  0
LINE
  5
3D0
100
AcDbEntity
  8
RACCORDO
100
AcDbLine
 62
250
  6
CONTINUOUS
 10
49.2255258631
 20
26.12667502
 11
49.1952485017
 21
26.1285735234
  0
LINE
  5
3D1
100
AcDbEntity
  8
RACCORDO
100
AcDbLine
 62
250
  6
CONTINUOUS
 10
49.255496444
 20
26.1246371592
 11
49.2255258631
 21
26.12667502
  0
LINE
  5
3D2
100
AcDbEntity
  8
RACCORDO
100
AcDbLine
 62
250
  6
CONTINUOUS
 10
49.2851386372
 20
26.1224614104
 11
49.255496444
 21
26.1246371592
  0
LINE
  5
3D3
100
AcDbEntity
  8
RACCORDO
100
AcDbLine
 62
250
  6
CONTINUOUS
 10
49.3144310722
 20
26.120149342
 11
49.2851386372
 21
26.1224614104
  0
LINE
  5
3D4
100
AcDbEntity
  8
RACCORDO
100
AcDbLine
 62
250
  6
CONTINUOUS
 10
49.343352631
 20
26.1177026209
 11
49.3144310722
 21
26.120149342
  0
LINE
  5
3D5
100
AcDbEntity
  8
RACCORDO
100
AcDbLine
 62
250
  6
CONTINUOUS
 10
49.3718824625
 20
26.1151230111
 11
49.343352631
 21
26.1177026209
  0
LINE
  5
3D6
100
AcDbEntity
  8
RACCORDO
100
AcDbLine
 62
250
  6
CONTINUOUS
 10
49.3999999985
 20
26.1124123723
 11
49.3718824625
 21
26.1151230111
  0
LINE
  5
3D7
100
AcDbEntity
  8
RACCORDO
100
AcDbLine
 62
250
  6
CONTINUOUS
 10
49.4276849677
 20
26.1095726587
 11
49.3999999985
 21
26.1124123723
  0
LINE
  5
3D8
100
AcDbEntity
  8
RACCORDO
100
AcDbLine
 62
250
  6
CONTINUOUS
 10
49.4549174107
 20
26.1066059177
 11
49.4276849677
 21
26.1095726587
  0
LINE
  5
3D9
100
AcDbEntity
  8
RACCORDO
100
AcDbLine
 62
250
  6
CONTINUOUS
 10
49.3863454898
 20
23.4265796726
 11
49.3587374244
 21
23.4296088972
  0
LINE
  5
3DA
100
AcDbEntity
  8
RACCORDO
100
AcDbLine
 62
250
  6
CONTINUOUS
 10
49.4816776946
 20
26.1035142881
 11
49.4549174107
 21
26.1066059177
  0
LINE
  5
3DB
100
AcDbEntity
  8
RACCORDO
100
AcDbLine
 62
250
  6
CONTINUOUS
 10
49.4135517033
 20
23.423405441
 11
49.3863454898
 21
23.4265796726
  0
LINE
  5
3DC
100
AcDbEntity
  8
RACCORDO
100
AcDbLine
 62
250
  6
CONTINUOUS
 10
49.5079465265
 20
26.1002999988
 11
49.4816776946
 21
26.1035142881
  0
LINE
  5
3DD
100
AcDbEntity
  8
RACCORDO
100
AcDbLine
 62
250
  6
CONTINUOUS
 10
49.4403374192
 20
23.4200883781
 11
49.4135517033
 21
23.423405441
  0
LINE
  5
3DE
100
AcDbEntity
  8
RACCORDO
100
AcDbLine
 62
250
  6
CONTINUOUS
 10
49.5337049682
 20
26.096965367
 11
49.5079465265
 21
26.1002999988
  0
LINE
  5
3DF
100
AcDbEntity
  8
RACCORDO
100
AcDbLine
 62
250
  6
CONTINUOUS
 10
49.4666842797
 20
23.4166307571
 11
49.4403374192
 21
23.4200883781
  0
LINE
  5
3E0
100
AcDbEntity
  8
RACCORDO
100
AcDbLine
 62
250
  6
CONTINUOUS
 10
49.5589344493
 20
26.0935127969
 11
49.5337049682
 21
26.096965367
  0
LINE
  5
3E1
100
AcDbEntity
  8
RACCORDO
100
AcDbLine
 62
250
  6
CONTINUOUS
 10
49.4925742281
 20
23.4130349479
 11
49.4666842797
 21
23.4166307571
  0
LINE
  5
3E2
100
AcDbEntity
  8
RACCORDO
100
AcDbLine
 62
250
  6
CONTINUOUS
 10
49.5836167806
 20
26.0899447777
 11
49.5589344493
 21
26.0935127969
  0
LINE
  5
3E3
100
AcDbEntity
  8
RACCORDO
100
AcDbLine
 62
250
  6
CONTINUOUS
 10
49.5179895207
 20
23.4093034147
 11
49.4925742281
 21
23.4130349479
  0
LINE
  5
3E4
100
AcDbEntity
  8
RACCORDO
100
AcDbLine
 62
250
  6
CONTINUOUS
 10
49.6077341675
 20
26.0862638815
 11
49.5836167806
 21
26.0899447777
  0
LINE
  5
3E5
100
AcDbEntity
  8
RACCORDO
100
AcDbLine
 62
250
  6
CONTINUOUS
 10
49.5429127392
 20
23.405438715
 11
49.5179895207
 21
23.4093034147
  0
LWPOLYLINE
  5
3E6
100
AcDbEntity
  8
RACCORDO
100
AcDbPolyline
 62
250
  6
CONTINUOUS
 90
112
 70
0
 10
51.0583191776
 20
-39.3228767647
 10
51.0529933856
 20
-39.3119809163
 10
51.0477558158
 20
-39.3009155011
 10
51.0426064284
 20
-39.2896806261
 10
51.037569277
 20
-39.2783212656
 10
51.0326201779
 20
-39.2667926725
 10
51.0276868492
 20
-39.2549602847
 10
51.0227640057
 20
-39.2428285419
 10
51.0178570622
 20
-39.2303930339
 10
51.0129100161
 20
-39.2175057749
 10
51.0079194292
 20
-39.2041708743
 10
51.0028890908
 20
-39.1903841232
 10
50.9977740469
 20
-39.1759849386
 10
50.9925714676
 20
-39.1609759548
 10
50.987284779
 20
-39.1453543263
 10
50.9818786115
 20
-39.1289511492
 10
50.9763501046
 20
-39.1117660675
 10
50.9707029955
 20
-39.0937991233
 10
50.9649120031
 20
-39.074881927
 10
50.9589698099
 20
-39.0549936604
 10
50.9528849329
 20
-39.0341547325
 10
50.94665597
 20
-39.01225855
 10
50.9402738539
 20
-38.9892669255
 10
50.9337490899
 20
-38.965217603
 10
50.9271095974
 20
-38.9401179186
 10
50.9203602073
 20
-38.913976646
 10
50.913497505
 20
-38.8867846458
 10
50.9065369254
 20
-38.8585224464
 10
50.8994911947
 20
-38.8292403424
 10
50.89234904
 20
-38.798887719
 10
50.8850899836
 20
-38.7672937256
 10
50.8777161264
 20
-38.7344715271
 10
50.8702272737
 20
-38.7004075449
 10
50.8625998068
 20
-38.66489073
 10
50.8548331181
 20
-38.6279202756
 10
50.8469303027
 20
-38.5894964694
 10
50.8388736389
 20
-38.5494098201
 10
50.8306632812
 20
-38.5076593149
 10
50.8223021999
 20
-38.4642453584
 10
50.8137772368
 20
-38.4189605138
 10
50.8050897989
 20
-38.3718067637
 10
50.7962423166
 20
-38.3227814401
 10
50.7872235241
 20
-38.2716700665
 10
50.778035321
 20
-38.2184738828
 10
50.7686804809
 20
-38.1631908897
 10
50.759149444
 20
-38.105601691
 10
50.7494457254
 20
-38.045713882
 10
50.7395714466
 20
-37.9835190416
 10
50.7295154324
 20
-37.9187736843
 10
50.7192916072
 20
-37.8515565289
 10
50.7088928014
 20
-37.781787972
 10
50.698277176
 20
-37.708986896
 10
50.6874539749
 20
-37.6332053601
 10
50.6764230743
 20
-37.5543901843
 10
50.6651303825
 20
-37.4719021239
 10
50.6535624427
 20
-37.3856023526
 10
50.6417455676
 20
-37.2956282212
 10
50.6296867096
 20
-37.2017545927
 10
50.6173953973
 20
-37.1039916901
 10
50.6048769298
 20
-37.002327869
 10
50.5921326301
 20
-36.8965051766
 10
50.579195687
 20
-36.7867401083
 10
50.5660501253
 20
-36.6728148102
 10
50.5526262139
 20
-36.5538195614
 10
50.5389307057
 20
-36.4297242233
 10
50.5249815988
 20
-36.3005571341
 10
50.5107306971
 20
-36.1654958778
 10
50.4961963961
 20
-36.0245713874
 10
50.4813932211
 20
-35.877750715
 10
50.4662726164
 20
-35.7241152519
 10
50.4508721301
 20
-35.5638433728
 10
50.4351979319
 20
-35.3967545505
 10
50.4191632652
 20
-35.2213912996
 10
50.402789174
 20
-35.0376457211
 10
50.3861179816
 20
-34.8456231923
 10
50.369106511
 20
-34.6441856221
 10
50.3516906478
 20
-34.4319554169
 10
50.3340239871
 20
-34.2103076387
 10
50.3163827205
 20
-33.982233987
 10
50.2988003489
 20
-33.7476151755
 10
50.281310631
 20
-33.5065709031
 10
50.2641598028
 20
-33.2624531367
 10
50.2474140661
 20
-33.015916215
 10
50.231042033
 20
-32.7663084085
 10
50.2151211741
 20
-32.5150235553
 10
50.1996747963
 20
-32.2622260798
 10
50.1847054645
 20
-32.007754659
 10
50.1702510171
 20
-31.7525147472
 10
50.1563209917
 20
-31.4965067355
 10
50.1429259157
 20
-31.2397334692
 10
50.1300988652
 20
-30.983104139
 10
50.1178476304
 20
-30.7266693178
 10
50.1061764058
 20
-30.4703816245
 10
50.0951067073
 20
-30.2150032818
 10
50.0846431785
 20
-29.9606038334
 10
50.0747858944
 20
-29.7071166927
 10
50.0655448245
 20
-29.4550997794
 10
50.0569198776
 20
-29.2045716938
 10
50.0489107076
 20
-28.9555164524
 10
50.0415231157
 20
-28.7084399526
 10
50.0347544557
 20
-28.4633677677
 10
50.028601414
 20
-28.2202765301
 10
50.023065069
 20
-27.9795985538
 10
50.0181406739
 20
-27.7413848549
 10
50.0138217364
 20
-27.5055861672
 10
50.0101038619
 20
-27.2724842095
 10
50.0069798292
 20
-27.0420889675
 10
50.0044423288
 20
-26.814391777
 10
50.0024846188
 20
-26.5896462207
 10
50.0010980024
 20
-26.3679371054
 10
50.0002729153
 20
-26.1491805066
 10
50.0
 20
-25.9333767861
  0
LINE
  5
3E7
100
AcDbEntity
  8
RACCORDO
100
AcDbLine
 62
250
  6
CONTINUOUS
 10
-50.9166383553
 20
39.4635311044
 11
50.9166407422
 21
39.4635311044
  0
LINE
  5
3E8
100
AcDbEntity
  8
RACCORDO
100
AcDbLine
 62
250
  6
CONTINUOUS
 10
-70.9926179677
 20
39.6057773315
 11
-51.2
 21
39.6057773315
  0
LINE
  5
3E9
100
AcDbEntity
  8
RACCORDO
100
AcDbLine
 62
250
  6
CONTINUOUS
 10
51.2
 20
39.6057773315
 11
70.9926179677
 21
39.6057773315
  0
LINE
  5
3EA
100
AcDbEntity
  8
RACCORDO
100
AcDbLine
 62
250
  6
CONTINUOUS
 10
49.7663849424
 20
-22.5191785423
 11
49.759546925
 21
-22.523326668
  0
LINE
  5
3EB
100
AcDbEntity
  8
RACCORDO
100
AcDbLine
 62
250
  6
CONTINUOUS
 10
49.7725341788
 20
-22.5155006108
 11
49.7663849424
 21
-22.5191785423
  0
LINE
  5
3EC
100
AcDbEntity
  8
RACCORDO
100
AcDbLine
 62
250
  6
CONTINUOUS
 10
49.7780142497
 20
-22.5122718822
 11
49.7725341788
 21
-22.5155006108
  0
LINE
  5
3ED
100
AcDbEntity
  8
RACCORDO
100
AcDbLine
 62
250
  6
CONTINUOUS
 10
49.7828382664
 20
-22.5094712476
 11
49.7780142497
 21
-22.5122718822
  0
LINE
  5
3EE
100
AcDbEntity
  8
RACCORDO
100
AcDbLine
 62
250
  6
CONTINUOUS
 10
49.7870259301
 20
-22.5070777828
 11
49.7828382664
 21
-22.5094712476
  0
LWPOLYLINE
  5
3EF
100
AcDbEntity
  8
RACCORDO
100
AcDbPolyline
 62
250
  6
CONTINUOUS
 90
3
 70
0
 10
49.7921630255
 20
-22.5041975312
 10
49.7906016237
 20
-22.5050662872
 10
49.7870259301
 20
-22.5070777828
  0
LINE
  5
3F0
100
AcDbEntity
  8
RACCORDO
100
AcDbLine
 62
250
  6
CONTINUOUS
 10
49.7958782633
 20
-22.5021666116
 11
49.7921630255
 21
-22.5041975312
  0
LINE
  5
3F1
100
AcDbEntity
  8
RACCORDO
100
AcDbLine
 62
250
  6
CONTINUOUS
 10
-71.7341028182
 20
39.577939056
 11
-71.7087051919
 21
39.5798961469
  0
LINE
  5
3F2
100
AcDbEntity
  8
RACCORDO
100
AcDbLine
 62
250
  6
CONTINUOUS
 10
-71.7087051919
 20
39.5798961469
 11
-71.6827993018
 21
39.5817911637
  0
LINE
  5
3F3
100
AcDbEntity
  8
RACCORDO
100
AcDbLine
 62
250
  6
CONTINUOUS
 10
-71.6827993018
 20
39.5817911637
 11
-71.6430274099
 21
39.5845133449
  0
LINE
  5
3F4
100
AcDbEntity
  8
RACCORDO
100
AcDbLine
 62
250
  6
CONTINUOUS
 10
-71.6430274099
 20
39.5845133449
 11
-71.6022168189
 21
39.5870887773
  0
LINE
  5
3F5
100
AcDbEntity
  8
RACCORDO
100
AcDbLine
 62
250
  6
CONTINUOUS
 10
-71.6022168189
 20
39.5870887773
 11
-71.560432703
 21
39.5895133483
  0
LINE
  5
3F6
100
AcDbEntity
  8
RACCORDO
100
AcDbLine
 62
250
  6
CONTINUOUS
 10
-71.560432703
 20
39.5895133483
 11
-71.5177417914
 21
39.5917831859
  0
LINE
  5
3F7
100
AcDbEntity
  8
RACCORDO
100
AcDbLine
 62
250
  6
CONTINUOUS
 10
-71.5177417914
 20
39.5917831859
 11
-71.4742122613
 21
39.5938946654
  0
LINE
  5
3F8
100
AcDbEntity
  8
RACCORDO
100
AcDbLine
 62
250
  6
CONTINUOUS
 10
-71.4742122613
 20
39.5938946654
 11
-71.4299136291
 21
39.5958444148
  0
LINE
  5
3F9
100
AcDbEntity
  8
RACCORDO
100
AcDbLine
 62
250
  6
CONTINUOUS
 10
-71.4299136291
 20
39.5958444148
 11
-71.3849166395
 21
39.5976293205
  0
LINE
  5
3FA
100
AcDbEntity
  8
RACCORDO
100
AcDbLine
 62
250
  6
CONTINUOUS
 10
-71.3849166395
 20
39.5976293205
 11
-71.3392931524
 21
39.5992465321
  0
LINE
  5
3FB
100
AcDbEntity
  8
RACCORDO
100
AcDbLine
 62
250
  6
CONTINUOUS
 10
-71.3392931524
 20
39.5992465321
 11
-71.2931160283
 21
39.600693467
  0
LINE
  5
3FC
100
AcDbEntity
  8
RACCORDO
100
AcDbLine
 62
250
  6
CONTINUOUS
 10
-71.2931160283
 20
39.600693467
 11
-71.2464590116
 21
39.6019678144
  0
LINE
  5
3FD
100
AcDbEntity
  8
RACCORDO
100
AcDbLine
 62
250
  6
CONTINUOUS
 10
-71.2464590116
 20
39.6019678144
 11
-71.1993966134
 21
39.6030675392
  0
LINE
  5
3FE
100
AcDbEntity
  8
RACCORDO
100
AcDbLine
 62
250
  6
CONTINUOUS
 10
-71.1993966134
 20
39.6030675392
 11
-71.1520039918
 21
39.6039908853
  0
LINE
  5
3FF
100
AcDbEntity
  8
RACCORDO
100
AcDbLine
 62
250
  6
CONTINUOUS
 10
-71.1520039918
 20
39.6039908853
 11
-71.1043568326
 21
39.6047363781
  0
LINE
  5
400
100
AcDbEntity
  8
RACCORDO
100
AcDbLine
 62
250
  6
CONTINUOUS
 10
-71.1043568326
 20
39.6047363781
 11
-71.0565312282
 21
39.6053028269
  0
LWPOLYLINE
  5
401
100
AcDbEntity
  8
RACCORDO
100
AcDbPolyline
 62
250
  6
CONTINUOUS
 90
3
 70
0
 10
-71.0565312282
 20
39.6053028269
 10
-71.0086021116
 20
39.6056850488
 10
-70.9926179677
 20
39.6057773315
  0
LINE
  5
402
100
AcDbEntity
  8
RACCORDO
100
AcDbLine
 62
250
  6
CONTINUOUS
 10
-70.9926179677
 20
40.6909734094
 11
70.9926179677
 21
40.6909734094
  0
LINE
  5
403
100
AcDbEntity
  8
RACCORDO
100
AcDbLine
 62
7
  6
CONTINUOUS
 10
-71.3016445583
 20
41.0
 11
71.3016445583
 21
41.0
  0
LINE
  5
404
100
AcDbEntity
  8
RACCORDO
100
AcDbLine
 62
250
  6
CONTINUOUS
 10
71.0565309289
 20
39.6053021071
 11
70.9926179677
 21
39.6057773315
  0
LINE
  5
405
100
AcDbEntity
  8
RACCORDO
100
AcDbLine
 62
250
  6
CONTINUOUS
 10
71.1202624542
 20
39.6045070043
 11
71.0565309289
 21
39.6053021071
  0
LINE
  5
406
100
AcDbEntity
  8
RACCORDO
100
AcDbLine
 62
250
  6
CONTINUOUS
 10
71.1836316227
 20
39.6033942801
 11
71.1202624542
 21
39.6045070043
  0
LINE
  5
407
100
AcDbEntity
  8
RACCORDO
100
AcDbLine
 62
250
  6
CONTINUOUS
 10
71.2464585424
 20
39.6019670933
 11
71.1836316227
 21
39.6033942801
  0
LINE
  5
408
100
AcDbEntity
  8
RACCORDO
100
AcDbLine
 62
250
  6
CONTINUOUS
 10
71.3085648602
 20
39.6002294955
 11
71.2464585424
 21
39.6019670933
  0
LINE
  5
409
100
AcDbEntity
  8
RACCORDO
100
AcDbLine
 62
250
  6
CONTINUOUS
 10
71.3697742689
 20
39.5981864194
 11
71.3085648602
 21
39.6002294955
  0
LINE
  5
40A
100
AcDbEntity
  8
RACCORDO
100
AcDbLine
 62
250
  6
CONTINUOUS
 10
71.4299130076
 20
39.5958436647
 11
71.3697742689
 21
39.5981864194
  0
LINE
  5
40B
100
AcDbEntity
  8
RACCORDO
100
AcDbLine
 62
250
  6
CONTINUOUS
 10
71.4742116066
 20
39.5938939039
 11
71.4299130076
 21
39.5958436647
  0
LINE
  5
40C
100
AcDbEntity
  8
RACCORDO
100
AcDbLine
 62
250
  6
CONTINUOUS
 10
71.517741106
 20
39.5917824117
 11
71.4742116066
 21
39.5938939039
  0
LINE
  5
40D
100
AcDbEntity
  8
RACCORDO
100
AcDbLine
 62
250
  6
CONTINUOUS
 10
71.5604319898
 20
39.58951256
 11
71.517741106
 21
39.5917824117
  0
LINE
  5
40E
100
AcDbEntity
  8
RACCORDO
100
AcDbLine
 62
250
  6
CONTINUOUS
 10
71.6022160811
 20
39.5870879737
 11
71.5604319898
 21
39.58951256
  0
LINE
  5
40F
100
AcDbEntity
  8
RACCORDO
100
AcDbLine
 62
250
  6
CONTINUOUS
 10
71.6430266512
 20
39.5845125249
 11
71.6022160811
 21
39.5870879737
  0
LINE
  5
410
100
AcDbEntity
  8
RACCORDO
100
AcDbLine
 62
250
  6
CONTINUOUS
 10
71.682798526
 20
39.5817903266
 11
71.6430266512
 21
39.5845125249
  0
LWPOLYLINE
  5
411
100
AcDbEntity
  8
RACCORDO
100
AcDbPolyline
 62
250
  6
CONTINUOUS
 90
3
 70
0
 10
71.7341024166
 20
39.5779399985
 10
71.7214681904
 20
39.578925726
 10
71.682798526
 20
39.5817903266
  0
LINE
  5
412
100
AcDbEntity
  8
RACCORDO
100
AcDbLine
 62
250
  6
CONTINUOUS
 10
49.7957898966
 20
22.5022139179
 11
49.7975338306
 21
22.5012877344
  0
LWPOLYLINE
  5
413
100
AcDbEntity
  8
RACCORDO
100
AcDbPolyline
 62
250
  6
CONTINUOUS
 90
9
 70
0
 10
49.7975338306
 20
22.5012877344
 10
49.7981785368
 20
22.5009427029
 10
49.7987145311
 20
22.5006626472
 10
49.7991447792
 20
22.5004414051
 10
49.7994663155
 20
22.5002721685
 10
49.7997095634
 20
22.5001475349
 10
49.799884664
 20
22.5000629883
 10
49.7999814762
 20
22.5000151142
 10
49.8
 20
22.4999999998
  0
LINE
  5
414
100
AcDbEntity
  8
RACCORDO
100
AcDbLine
 62
250
  6
CONTINUOUS
 10
49.792019964
 20
22.504277251
 11
49.7957898966
 21
22.5022139179
  0
LINE
  5
415
100
AcDbEntity
  8
RACCORDO
100
AcDbLine
 62
250
  6
CONTINUOUS
 10
49.7887249397
 20
22.5061187255
 11
49.792019964
 21
22.504277251
  0
LINE
  5
416
100
AcDbEntity
  8
RACCORDO
100
AcDbLine
 62
250
  6
CONTINUOUS
 10
49.7848286982
 20
22.5083294974
 11
49.7887249397
 21
22.5061187255
  0
LINE
  5
417
100
AcDbEntity
  8
RACCORDO
100
AcDbLine
 62
250
  6
CONTINUOUS
 10
49.7803043913
 20
22.5109362862
 11
49.7848286982
 21
22.5083294974
  0
LINE
  5
418
100
AcDbEntity
  8
RACCORDO
100
AcDbLine
 62
250
  6
CONTINUOUS
 10
49.7751388931
 20
22.5139599967
 11
49.7803043913
 21
22.5109362862
  0
LINE
  5
419
100
AcDbEntity
  8
RACCORDO
100
AcDbLine
 62
250
  6
CONTINUOUS
 10
49.7693125859
 20
22.5174215458
 11
49.7751388931
 21
22.5139599967
  0
LWPOLYLINE
  5
41A
100
AcDbEntity
  8
RACCORDO
100
AcDbPolyline
 62
250
  6
CONTINUOUS
 90
3
 70
0
 10
49.7592951465
 20
22.52348046
 10
49.7628059904
 20
22.5213417551
 10
49.7693125859
 20
22.5174215458
  0
LINE
  5
41B
100
AcDbEntity
  8
0
100
AcDbLine
 62
7
  6
CONTINUOUS
 10
66.026058
 20
-33.81738
 11
66.587269
 21
-34.900063
  0
LINE
  5
41C
100
AcDbEntity
  8
0
100
AcDbLine
 62
7
  6
CONTINUOUS
 10
66.6219317907
 20
-33.7500306669
 11
67.218046
 21
-34.900056
  0
LINE
  5
41D
100
AcDbEntity
  8
0
100
AcDbLine
 62
7
  6
CONTINUOUS
 10
55.281954
 20
-32.099944
 11
56.180978
 21
-34.900077
  0
LINE
  5
41E
100
AcDbEntity
  8
0
100
AcDbLine
 62
7
  6
CONTINUOUS
 10
55.841982
 20
-32.099944
 11
56.461006
 21
-34.027982
  0
LWPOLYLINE
  5
41F
100
AcDbEntity
  8
RACCORDO
100
AcDbPolyline
 62
250
  6
CONTINUOUS
 90
66
 70
0
 10
48.8
 20
23.4574993802
 10
48.8000497785
 20
23.4519846895
 10
48.800202119
 20
23.4464653301
 10
48.8004570215
 20
23.4409414547
 10
48.8008134497
 20
23.435417028
 10
48.8012724399
 20
23.4298883863
 10
48.8018371008
 20
23.4243442791
 10
48.802506653
 20
23.4187852149
 10
48.8032818759
 20
23.41321108
 10
48.8041682162
 20
23.4076097752
 10
48.8051648037
 20
23.4019819165
 10
48.8062725085
 20
23.3963273935
 10
48.8074993884
 20
23.390633119
 10
48.8088444376
 20
23.3848999231
 10
48.8103086618
 20
23.3791276223
 10
48.8119031364
 20
23.3733017326
 10
48.8136266622
 20
23.3674233552
 10
48.8154804382
 20
23.3614922175
 10
48.8174791368
 20
23.3554919305
 10
48.8196213281
 20
23.3494238665
 10
48.821908442
 20
23.3432877207
 10
48.8243594405
 20
23.3370647866
 10
48.8269725106
 20
23.3307569729
 10
48.8297494654
 20
23.3243637545
 10
48.8327147059
 20
23.3178630334
 10
48.8358658645
 20
23.3112574291
 10
48.8392053088
 20
23.3045461361
 10
48.8427645432
 20
23.2977022708
 10
48.8465405183
 20
23.2907292543
 10
48.8505362835
 20
23.2836260828
 10
48.854792492
 20
23.2763597252
 10
48.8593051499
 20
23.268934781
 10
48.8640782511
 20
23.2613499284
 10
48.8691644302
 20
23.253563953
 10
48.8745585137
 20
23.2455830053
 10
48.8802656752
 20
23.2374054709
 10
48.8863540694
 20
23.2289795068
 10
48.8928173611
 20
23.2203130877
 10
48.8996618854
 20
23.21140466
 10
48.9069748027
 20
23.2021895995
 10
48.9147519134
 20
23.1926749185
 10
48.922997417
 20
23.1828629187
 10
48.9318110726
 20
23.1726840478
 10
48.9412014045
 20
23.1621361136
 10
48.9511598883
 20
23.1512348635
 10
48.9617607093
 20
23.1399400437
 10
48.9731241284
 20
23.128150325
 10
48.9851298847
 20
23.1159865727
 10
48.9974913804
 20
23.1037381344
 10
49.0101359745
 20
23.0914941078
 10
49.023136308
 20
23.0791742197
 10
49.0364237067
 20
23.0668081259
 10
49.0499462761
 20
23.0544483878
 10
49.0637559108
 20
23.0420514558
 10
49.0779396197
 20
23.0295053327
 10
49.0925073705
 20
23.0168098796
 10
49.1074491956
 20
23.0039821991
 10
49.1228222021
 20
22.9909420078
 10
49.1386653912
 20
22.9776720265
 10
49.1549397617
 20
22.9642147751
 10
49.1715854162
 20
22.9505830655
 10
49.1887568903
 20
22.936666316
 10
49.2062996484
 20
22.9226066824
 10
49.2236901871
 20
22.9087828973
 10
49.2408051558
 20
22.895285703
 10
49.274424983
 20
22.8690852329
  0
LINE
  5
420
100
AcDbEntity
  8
RACCORDO
100
AcDbLine
 62
250
  6
CONTINUOUS
 10
48.8
 20
-26.1401092738
 11
48.8
 21
-23.4574993804
  0
LINE
  5
421
100
AcDbEntity
  8
RACCORDO
100
AcDbLine
 62
250
  6
CONTINUOUS
 10
48.8
 20
23.4574993802
 11
48.8
 21
26.1401092737
  0
LINE
  5
422
100
AcDbEntity
  8
RACCORDO
100
AcDbLine
 62
7
  6
CONTINUOUS
 10
50.0
 20
-25.9333767851
 11
50.0
 21
25.933376785
  0
LWPOLYLINE
  5
423
100
AcDbEntity
  8
RACCORDO
100
AcDbPolyline
 62
250
  6
CONTINUOUS
 90
112
 70
0
 10
50.0
 20
25.933376786
 10
50.0002726788
 20
26.1490865492
 10
50.0010970478
 20
26.3677466142
 10
50.0024824522
 20
26.5893566198
 10
50.0044384425
 20
26.8140003067
 10
50.0069737048
 20
27.041593053
 10
50.0100949757
 20
27.27188183
 10
50.0138095591
 20
27.5048753763
 10
50.0181246677
 20
27.7405636338
 10
50.0230446919
 20
27.9786652175
 10
50.0285761178
 20
28.2192293223
 10
50.0347236883
 20
28.4622050062
 10
50.0414863294
 20
28.7071605067
 10
50.0488673464
 20
28.9541189328
 10
50.056869391
 20
29.2030549734
 10
50.0654866962
 20
29.4534640648
 10
50.0747196297
 20
29.705362525
 10
50.0845682789
 20
29.9587314235
 10
50.0950226774
 20
30.2130131779
 10
50.1060827381
 20
30.4682739077
 10
50.117743845
 20
30.7244445407
 10
50.1299845535
 20
30.9807646006
 10
50.1428006782
 20
31.2372812942
 10
50.1561844564
 20
31.4939442277
 10
50.1701029297
 20
31.7498464853
 10
50.1845456801
 20
32.004986582
 10
50.1995031271
 20
32.2593627703
 10
50.2149373184
 20
32.5120677965
 10
50.230845627
 20
32.763261862
 10
50.2472048338
 20
33.012781668
 10
50.2639375703
 20
33.2592349476
 10
50.2810737156
 20
33.5032532216
 10
50.2985485401
 20
33.7442023659
 10
50.3161207537
 20
33.9787926019
 10
50.3337605102
 20
34.2069499845
 10
50.3514312482
 20
34.4287480018
 10
50.3688512043
 20
34.6411198157
 10
50.3858645561
 20
34.8426635054
 10
50.4025374116
 20
35.0347835283
 10
50.4189133602
 20
35.2186234405
 10
50.4349501948
 20
35.3940795035
 10
50.4506266936
 20
35.5612579759
 10
50.4660296212
 20
35.7216168868
 10
50.4811526919
 20
35.8753359288
 10
50.495958426
 20
36.0222375616
 10
50.5104956837
 20
36.1632434404
 10
50.5247501452
 20
36.298388526
 10
50.538703197
 20
36.42763987
 10
50.5524027092
 20
36.5518168933
 10
50.5658308458
 20
36.6708925143
 10
50.5789806653
 20
36.7848956149
 10
50.5919210207
 20
36.8947291539
 10
50.6046668642
 20
37.0006030632
 10
50.6171859593
 20
37.1023087768
 10
50.6294790955
 20
37.2001212593
 10
50.6415423438
 20
37.2940627874
 10
50.6533648521
 20
37.3841124968
 10
50.6649377474
 20
37.4704806255
 10
50.6762339046
 20
37.553023596
 10
50.687267547
 20
37.6318864668
 10
50.6980931898
 20
37.7077122768
 10
50.7087109115
 20
37.7805541835
 10
50.7191114967
 20
37.8503601522
 10
50.7293373348
 20
37.9176151624
 10
50.7393958298
 20
37.9824004497
 10
50.7492728241
 20
38.0446356619
 10
50.7589793475
 20
38.104563247
 10
50.7685132391
 20
38.1621913567
 10
50.7778710193
 20
38.2175126651
 10
50.787062212
 20
38.2707463389
 10
50.7960840325
 20
38.321894312
 10
50.8049345884
 20
38.3709554102
 10
50.8136251369
 20
38.4181440778
 10
50.8221532542
 20
38.4634630152
 10
50.8305175234
 20
38.5069102076
 10
50.8387310694
 20
38.5486929632
 10
50.8467909186
 20
38.5888108535
 10
50.8546969165
 20
38.6272649155
 10
50.8624667567
 20
38.6642645847
 10
50.8700973908
 20
38.699809761
 10
50.8775893767
 20
38.7339010636
 10
50.8849661591
 20
38.7667489232
 10
50.8922277556
 20
38.7983661861
 10
50.8993722377
 20
38.8287404207
 10
50.9064204342
 20
38.8580440565
 10
50.9133836893
 20
38.8863281049
 10
50.9202492057
 20
38.9135418744
 10
50.9270016881
 20
38.9397052245
 10
50.9336446555
 20
38.964827683
 10
50.9401731737
 20
38.9889000872
 10
50.9465591516
 20
39.0119143222
 10
50.9527921478
 20
39.0338327668
 10
50.9588811648
 20
39.0546934857
 10
50.9648272373
 20
39.0746019247
 10
50.9706216247
 20
39.0935369237
 10
50.9762718648
 20
39.1115200533
 10
50.9818035381
 20
39.1287208117
 10
50.9872129718
 20
39.1451394172
 10
50.9925029612
 20
39.1607759654
 10
50.9977089812
 20
39.1757996862
 10
51.0028275823
 20
39.1902133989
 10
51.0078616177
 20
39.2040144952
 10
51.0128562172
 20
39.2173639631
 10
51.0178075776
 20
39.2302660349
 10
51.0227191516
 20
39.2427165769
 10
51.0276471621
 20
39.2548639093
 10
51.0325863812
 20
39.2667129033
 10
51.0375419086
 20
39.2782586567
 10
51.0425856876
 20
39.2896346797
 10
51.0477417891
 20
39.3008853688
 10
51.0529862723
 20
39.3119660996
 10
51.0583191776
 20
39.3228767647
  0
LWPOLYLINE
  5
424
100
AcDbEntity
  8
RACCORDO
100
AcDbPolyline
 62
250
  6
CONTINUOUS
 90
10
 70
0
 10
49.8
 20
-22.5
 10
49.7999816804
 20
-22.5000148357
 10
49.7998867269
 20
-22.5000617986
 10
49.7997151395
 20
-22.5001446837
 10
49.7994768069
 20
-22.5002667891
 10
49.7991618404
 20
-22.5004324977
 10
49.7987405738
 20
-22.5006490401
 10
49.7982163097
 20
-22.500922945
 10
49.7975857455
 20
-22.5012602773
 10
49.7958782633
 20
-22.5021666116
  0
LWPOLYLINE
  5
425
100
AcDbEntity
  8
RACCORDO
100
AcDbPolyline
 62
250
  6
CONTINUOUS
 90
66
 70
0
 10
49.2572325637
 20
-22.8824409707
 10
49.2402152036
 20
-22.8957485729
 10
49.2230847922
 20
-22.9092620541
 10
49.2057359491
 20
-22.9230571929
 10
49.1882740547
 20
-22.9370558939
 10
49.1712086351
 20
-22.9508898558
 10
49.1547007507
 20
-22.9644114204
 10
49.1385893412
 20
-22.977735481
 10
49.1229007521
 20
-22.9908758239
 10
49.1076622471
 20
-23.003800232
 10
49.0928465624
 20
-23.0165165774
 10
49.0783982529
 20
-23.029102909
 10
49.0643268803
 20
-23.0415427169
 10
49.0506228827
 20
-23.0538359612
 10
49.0372021303
 20
-23.0660910329
 10
49.0240278509
 20
-23.0783363251
 10
49.0111368166
 20
-23.0905343625
 10
48.9985552137
 20
-23.1026980328
 10
48.9861836485
 20
-23.1149338861
 10
48.9741215148
 20
-23.127128662
 10
48.96269318
 20
-23.138960044
 10
48.9520270933
 20
-23.1503003566
 10
48.9419948055
 20
-23.1612578646
 10
48.9325353359
 20
-23.1718595786
 10
48.9236617791
 20
-23.1820851072
 10
48.9153610406
 20
-23.1919410398
 10
48.9075328558
 20
-23.2014970671
 10
48.9001731814
 20
-23.2107506437
 10
48.8932860607
 20
-23.2196948595
 10
48.8867833592
 20
-23.2283950254
 10
48.8806586733
 20
-23.2368527012
 10
48.8749184066
 20
-23.2450598174
 10
48.8694936353
 20
-23.2530687777
 10
48.8643791195
 20
-23.2608812192
 10
48.8595800992
 20
-23.2684909115
 10
48.8550433702
 20
-23.2759394933
 10
48.8507648874
 20
-23.2832283067
 10
48.8467486959
 20
-23.290352694
 10
48.8429537269
 20
-23.2973460029
 10
48.8393768936
 20
-23.3042092528
 10
48.8360212829
 20
-23.3109389812
 10
48.8328550869
 20
-23.3175623092
 10
48.8298759089
 20
-23.3240800596
 10
48.8270861456
 20
-23.3304895776
 10
48.8244611804
 20
-23.3368131231
 10
48.8219991832
 20
-23.3430512253
 10
48.8197019841
 20
-23.3492019586
 10
48.8175504559
 20
-23.3552841625
 10
48.8155431554
 20
-23.361298144
 10
48.8136815259
 20
-23.3672425192
 10
48.8119507696
 20
-23.3731337911
 10
48.8103496769
 20
-23.3789722336
 10
48.8088794573
 20
-23.3847567373
 10
48.8075289426
 20
-23.3905018873
 10
48.8062971173
 20
-23.396207871
 10
48.8051849967
 20
-23.4018738492
 10
48.804184458
 20
-23.407512992
 10
48.8032946236
 20
-23.4131254108
 10
48.8025163711
 20
-23.4187104848
 10
48.8018442106
 20
-23.4242803874
 10
48.8012773566
 20
-23.4298352237
 10
48.8008165945
 20
-23.4353744911
 10
48.8004587911
 20
-23.4409095379
 10
48.800202902
 20
-23.4464440598
 10
48.8000499716
 20
-23.4519740585
 10
48.8
 20
-23.4574993804
  0
LINE
  5
426
100
AcDbEntity
  8
RACCORDO
100
AcDbLine
 62
250
  6
CONTINUOUS
 10
49.2902896831
 20
-22.8568357343
 11
49.2572325637
 21
-22.8824409707
  0
LINE
  5
427
100
AcDbEntity
  8
RACCORDO
100
AcDbLine
 62
250
  6
CONTINUOUS
 10
49.3220442572
 20
-22.8325377907
 11
49.2902896831
 21
-22.8568357343
  0
LINE
  5
428
100
AcDbEntity
  8
RACCORDO
100
AcDbLine
 62
250
  6
CONTINUOUS
 10
49.3524845115
 20
-22.80947969
 11
49.3220442572
 21
-22.8325377907
  0
LINE
  5
429
100
AcDbEntity
  8
RACCORDO
100
AcDbLine
 62
250
  6
CONTINUOUS
 10
49.3816322492
 20
-22.7875994758
 11
49.3524845115
 21
-22.80947969
  0
LINE
  5
42A
100
AcDbEntity
  8
RACCORDO
100
AcDbLine
 62
250
  6
CONTINUOUS
 10
49.422970563
 20
-22.7568789905
 11
49.3816322492
 21
-22.7875994758
  0
LINE
  5
42B
100
AcDbEntity
  8
RACCORDO
100
AcDbLine
 62
250
  6
CONTINUOUS
 10
49.4615543245
 20
-22.728517749
 11
49.422970563
 21
-22.7568789905
  0
LINE
  5
42C
100
AcDbEntity
  8
RACCORDO
100
AcDbLine
 62
250
  6
CONTINUOUS
 10
49.4975068854
 20
-22.7023603046
 11
49.4615543245
 21
-22.728517749
  0
LINE
  5
42D
100
AcDbEntity
  8
RACCORDO
100
AcDbLine
 62
250
  6
CONTINUOUS
 10
49.5309483451
 20
-22.678272675
 11
49.4975068854
 21
-22.7023603046
  0
LINE
  5
42E
100
AcDbEntity
  8
RACCORDO
100
AcDbLine
 62
250
  6
CONTINUOUS
 10
49.5619908778
 20
-22.6561387637
 11
49.5309483451
 21
-22.678272675
  0
LINE
  5
42F
100
AcDbEntity
  8
RACCORDO
100
AcDbLine
 62
250
  6
CONTINUOUS
 10
49.5907375496
 20
-22.6358565242
 11
49.5619908778
 21
-22.6561387637
  0
LINE
  5
430
100
AcDbEntity
  8
RACCORDO
100
AcDbLine
 62
250
  6
CONTINUOUS
 10
49.6172826105
 20
-22.6173345695
 11
49.5907375496
 21
-22.6358565242
  0
LINE
  5
431
100
AcDbEntity
  8
RACCORDO
100
AcDbLine
 62
250
  6
CONTINUOUS
 10
49.6417123415
 20
-22.6004893923
 11
49.6172826105
 21
-22.6173345695
  0
LINE
  5
432
100
AcDbEntity
  8
RACCORDO
100
AcDbLine
 62
250
  6
CONTINUOUS
 10
49.6641060929
 20
-22.5852431465
 11
49.6417123415
 21
-22.6004893923
  0
LINE
  5
433
100
AcDbEntity
  8
RACCORDO
100
AcDbLine
 62
250
  6
CONTINUOUS
 10
49.6779397353
 20
-22.5759307251
 11
49.6641060929
 21
-22.5852431465
  0
LINE
  5
434
100
AcDbEntity
  8
RACCORDO
100
AcDbLine
 62
250
  6
CONTINUOUS
 10
49.6909219579
 20
-22.5672747167
 11
49.6779397353
 21
-22.5759307251
  0
LINE
  5
435
100
AcDbEntity
  8
RACCORDO
100
AcDbLine
 62
250
  6
CONTINUOUS
 10
49.7030746054
 20
-22.5592543687
 11
49.6909219579
 21
-22.5672747167
  0
LINE
  5
436
100
AcDbEntity
  8
RACCORDO
100
AcDbLine
 62
250
  6
CONTINUOUS
 10
49.7144120195
 20
-22.5518489969
 11
49.7030746054
 21
-22.5592543687
  0
LINE
  5
437
100
AcDbEntity
  8
RACCORDO
100
AcDbLine
 62
250
  6
CONTINUOUS
 10
49.7249552478
 20
-22.5450379596
 11
49.7144120195
 21
-22.5518489969
  0
LINE
  5
438
100
AcDbEntity
  8
RACCORDO
100
AcDbLine
 62
250
  6
CONTINUOUS
 10
49.7347244432
 20
-22.5388008672
 11
49.7249552478
 21
-22.5450379596
  0
LINE
  5
439
100
AcDbEntity
  8
RACCORDO
100
AcDbLine
 62
250
  6
CONTINUOUS
 10
49.7437329626
 20
-22.5331170172
 11
49.7347244432
 21
-22.5388008672
  0
LINE
  5
43A
100
AcDbEntity
  8
RACCORDO
100
AcDbLine
 62
250
  6
CONTINUOUS
 10
49.7520006114
 20
-22.5279658316
 11
49.7437329626
 21
-22.5331170172
  0
LINE
  5
43B
100
AcDbEntity
  8
RACCORDO
100
AcDbLine
 62
250
  6
CONTINUOUS
 10
49.759546925
 20
-22.523326668
 11
49.7520006114
 21
-22.5279658316
  0
LINE
  5
43C
100
AcDbEntity
  8
RACCORDO
100
AcDbLine
 62
250
  6
CONTINUOUS
 10
-72.0269377452
 20
39.5449003915
 11
-72.0103628879
 21
39.5475609702
  0
LINE
  5
43D
100
AcDbEntity
  8
RACCORDO
100
AcDbLine
 62
250
  6
CONTINUOUS
 10
-72.0103628879
 20
39.5475609702
 11
-71.9930655146
 21
39.5501794949
  0
LINE
  5
43E
100
AcDbEntity
  8
RACCORDO
100
AcDbLine
 62
250
  6
CONTINUOUS
 10
-71.9930655146
 20
39.5501794949
 11
-71.9750579847
 21
39.5527602287
  0
LINE
  5
43F
100
AcDbEntity
  8
RACCORDO
100
AcDbLine
 62
250
  6
CONTINUOUS
 10
-71.9750579847
 20
39.5527602287
 11
-71.9563532491
 21
39.5552982409
  0
LINE
  5
440
100
AcDbEntity
  8
RACCORDO
100
AcDbLine
 62
250
  6
CONTINUOUS
 10
-71.9563532491
 20
39.5552982409
 11
-71.9369641584
 21
39.5577887437
  0
LINE
  5
441
100
AcDbEntity
  8
RACCORDO
100
AcDbLine
 62
250
  6
CONTINUOUS
 10
-71.9369641584
 20
39.5577887437
 11
-71.916904936
 21
39.5602360519
  0
LINE
  5
442
100
AcDbEntity
  8
RACCORDO
100
AcDbLine
 62
250
  6
CONTINUOUS
 10
-71.916904936
 20
39.5602360519
 11
-71.8961897489
 21
39.5626352856
  0
LINE
  5
443
100
AcDbEntity
  8
RACCORDO
100
AcDbLine
 62
250
  6
CONTINUOUS
 10
-71.8961897489
 20
39.5626352856
 11
-71.8748327721
 21
39.5649818872
  0
LINE
  5
444
100
AcDbEntity
  8
RACCORDO
100
AcDbLine
 62
250
  6
CONTINUOUS
 10
-71.8748327721
 20
39.5649818872
 11
-71.85284993
 21
39.5672801249
  0
LINE
  5
445
100
AcDbEntity
  8
RACCORDO
100
AcDbLine
 62
250
  6
CONTINUOUS
 10
-71.85284993
 20
39.5672801249
 11
-71.8302565568
 21
39.5695252592
  0
LINE
  5
446
100
AcDbEntity
  8
RACCORDO
100
AcDbLine
 62
250
  6
CONTINUOUS
 10
-71.8302565568
 20
39.5695252592
 11
-71.8070680907
 21
39.5717129871
  0
LINE
  5
447
100
AcDbEntity
  8
RACCORDO
100
AcDbLine
 62
250
  6
CONTINUOUS
 10
-71.8070680907
 20
39.5717129871
 11
-71.7833019845
 21
39.5738474683
  0
LINE
  5
448
100
AcDbEntity
  8
RACCORDO
100
AcDbLine
 62
250
  6
CONTINUOUS
 10
-71.7833019845
 20
39.5738474683
 11
-71.7589746856
 21
39.5759241707
  0
LINE
  5
449
100
AcDbEntity
  8
RACCORDO
100
AcDbLine
 62
250
  6
CONTINUOUS
 10
-71.7589746856
 20
39.5759241707
 11
-71.7341028182
 21
39.577939056
  0
LWPOLYLINE
  5
44A
100
AcDbEntity
  8
0
100
AcDbPolyline
 62
7
  6
CONTINUOUS
 90
8
 70
0
 43
0.3500000006
 10
0.9642857051
 20
49.7500012665
 10
1.8214286013
 20
49.7500012665
 10
2.2499999785
 20
50.1785702362
 10
2.2499999785
 20
51.0357127075
 10
1.8214286013
 20
51.4642862091
 10
0.9642857051
 20
51.4642862091
 10
0.9642857051
 20
52.750002182
 10
2.2499999785
 20
52.750002182
  0
LWPOLYLINE
  5
44B
100
AcDbEntity
  8
0
100
AcDbPolyline
 62
7
  6
CONTINUOUS
 90
3
 70
0
 43
0.3500000006
 10
0.1071428532
 20
50.3928592529
 10
-1.3928570824
 20
50.3928592529
 10
-0.7500000165
 20
52.750002182
  0
LINE
  5
44C
100
AcDbEntity
  8
RACCORDO
100
AcDbLine
 62
250
  6
CONTINUOUS
 10
71.7712067221
 20
39.5748926828
 11
71.7341024166
 21
39.5779399985
  0
LINE
  5
44D
100
AcDbEntity
  8
RACCORDO
100
AcDbLine
 62
250
  6
CONTINUOUS
 10
71.7952557265
 20
39.5727878372
 11
71.7712067221
 21
39.5748926828
  0
LINE
  5
44E
100
AcDbEntity
  8
RACCORDO
100
AcDbLine
 62
250
  6
CONTINUOUS
 10
71.8187349985
 20
39.5706260873
 11
71.7952557265
 21
39.5727878372
  0
LINE
  5
44F
100
AcDbEntity
  8
RACCORDO
100
AcDbLine
 62
250
  6
CONTINUOUS
 10
71.8416278717
 20
39.5684089674
 11
71.8187349985
 21
39.5706260873
  0
LINE
  5
450
100
AcDbEntity
  8
RACCORDO
100
AcDbLine
 62
250
  6
CONTINUOUS
 10
71.8639180963
 20
39.5661380514
 11
71.8416278717
 21
39.5684089674
  0
LINE
  5
451
100
AcDbEntity
  8
RACCORDO
100
AcDbLine
 62
250
  6
CONTINUOUS
 10
71.8855898502
 20
39.5638149513
 11
71.8639180963
 21
39.5661380514
  0
LINE
  5
452
100
AcDbEntity
  8
RACCORDO
100
AcDbLine
 62
250
  6
CONTINUOUS
 10
71.9066277501
 20
39.5614413159
 11
71.8855898502
 21
39.5638149513
  0
LINE
  5
453
100
AcDbEntity
  8
RACCORDO
100
AcDbLine
 62
250
  6
CONTINUOUS
 10
71.9270168628
 20
39.5590188302
 11
71.9066277501
 21
39.5614413159
  0
LINE
  5
454
100
AcDbEntity
  8
RACCORDO
100
AcDbLine
 62
250
  6
CONTINUOUS
 10
71.9467427157
 20
39.5565492138
 11
71.9270168628
 21
39.5590188302
  0
LINE
  5
455
100
AcDbEntity
  8
RACCORDO
100
AcDbLine
 62
250
  6
CONTINUOUS
 10
71.9657913068
 20
39.5540342195
 11
71.9467427157
 21
39.5565492138
  0
LINE
  5
456
100
AcDbEntity
  8
RACCORDO
100
AcDbLine
 62
250
  6
CONTINUOUS
 10
71.9841491149
 20
39.5514756327
 11
71.9657913068
 21
39.5540342195
  0
LINE
  5
457
100
AcDbEntity
  8
RACCORDO
100
AcDbLine
 62
250
  6
CONTINUOUS
 10
49.7517389551
 20
22.528127812
 11
49.7592951465
 21
22.52348046
  0
LINE
  5
458
100
AcDbEntity
  8
RACCORDO
100
AcDbLine
 62
250
  6
CONTINUOUS
 10
49.7434636001
 20
22.53328592
 11
49.7517389551
 21
22.528127812
  0
LINE
  5
459
100
AcDbEntity
  8
RACCORDO
100
AcDbLine
 62
250
  6
CONTINUOUS
 10
49.7344496554
 20
22.5389753044
 11
49.7434636001
 21
22.53328592
  0
LINE
  5
45A
100
AcDbEntity
  8
RACCORDO
100
AcDbLine
 62
250
  6
CONTINUOUS
 10
49.7246774218
 20
22.5452164238
 11
49.7344496554
 21
22.5389753044
  0
LINE
  5
45B
100
AcDbEntity
  8
RACCORDO
100
AcDbLine
 62
250
  6
CONTINUOUS
 10
49.7141336129
 20
22.5520298604
 11
49.7246774218
 21
22.5452164238
  0
LINE
  5
45C
100
AcDbEntity
  8
RACCORDO
100
AcDbLine
 62
250
  6
CONTINUOUS
 10
49.702798181
 20
22.5594358873
 11
49.7141336129
 21
22.5520298604
  0
LINE
  5
45D
100
AcDbEntity
  8
RACCORDO
100
AcDbLine
 62
250
  6
CONTINUOUS
 10
49.6906501842
 20
22.5674550313
 11
49.702798181
 21
22.5594358873
  0
LINE
  5
45E
100
AcDbEntity
  8
RACCORDO
100
AcDbLine
 62
250
  6
CONTINUOUS
 10
49.670869757
 20
22.5806783642
 11
49.6906501842
 21
22.5674550313
  0
LINE
  5
45F
100
AcDbEntity
  8
RACCORDO
100
AcDbLine
 62
250
  6
CONTINUOUS
 10
49.6491566185
 20
22.5953979299
 11
49.670869757
 21
22.5806783642
  0
LINE
  5
460
100
AcDbEntity
  8
RACCORDO
100
AcDbLine
 62
250
  6
CONTINUOUS
 10
49.6254394298
 20
22.6116862491
 11
49.6491566185
 21
22.5953979299
  0
LINE
  5
461
100
AcDbEntity
  8
RACCORDO
100
AcDbLine
 62
250
  6
CONTINUOUS
 10
49.5996412988
 20
22.6296192985
 11
49.6254394298
 21
22.6116862491
  0
LINE
  5
462
100
AcDbEntity
  8
RACCORDO
100
AcDbLine
 62
250
  6
CONTINUOUS
 10
49.5716787974
 20
22.6492780668
 11
49.5996412988
 21
22.6296192985
  0
LINE
  5
463
100
AcDbEntity
  8
RACCORDO
100
AcDbLine
 62
250
  6
CONTINUOUS
 10
49.5414609206
 20
22.6707505875
 11
49.5716787974
 21
22.6492780668
  0
LINE
  5
464
100
AcDbEntity
  8
RACCORDO
100
AcDbLine
 62
250
  6
CONTINUOUS
 10
49.5088881625
 20
22.694134501
 11
49.5414609206
 21
22.6707505875
  0
LINE
  5
465
100
AcDbEntity
  8
RACCORDO
100
AcDbLine
 62
250
  6
CONTINUOUS
 10
49.473851997
 20
22.7195402098
 11
49.5088881625
 21
22.694134501
  0
LINE
  5
466
100
AcDbEntity
  8
RACCORDO
100
AcDbLine
 62
250
  6
CONTINUOUS
 10
49.4362354397
 20
22.7470945625
 11
49.473851997
 21
22.7195402098
  0
LINE
  5
467
100
AcDbEntity
  8
RACCORDO
100
AcDbLine
 62
250
  6
CONTINUOUS
 10
49.395916258
 20
22.7769445853
 11
49.4362354397
 21
22.7470945625
  0
LINE
  5
468
100
AcDbEntity
  8
RACCORDO
100
AcDbLine
 62
250
  6
CONTINUOUS
 10
49.3674788174
 20
22.7982012419
 11
49.395916258
 21
22.7769445853
  0
LINE
  5
469
100
AcDbEntity
  8
RACCORDO
100
AcDbLine
 62
250
  6
CONTINUOUS
 10
49.3377547124
 20
22.8206079319
 11
49.3674788174
 21
22.7982012419
  0
LINE
  5
46A
100
AcDbEntity
  8
RACCORDO
100
AcDbLine
 62
250
  6
CONTINUOUS
 10
49.3067318707
 20
22.844222784
 11
49.3377547124
 21
22.8206079319
  0
LINE
  5
46B
100
AcDbEntity
  8
RACCORDO
100
AcDbLine
 62
250
  6
CONTINUOUS
 10
49.274424983
 20
22.8690852329
 11
49.3067318707
 21
22.844222784
  0
LINE
  5
46C
100
AcDbEntity
  8
0
100
AcDbLine
 62
7
  6
CONTINUOUS
 10
63.424788
 20
-32.972032
 11
63.696199
 21
-33.81738
  0
LINE
  5
46D
100
AcDbEntity
  8
0
100
AcDbLine
 62
7
  6
CONTINUOUS
 10
63.867027
 20
-34.349401
 11
64.043819
 21
-34.900063
  0
LINE
  5
46E
100
AcDbEntity
  8
0
100
AcDbLine
 62
7
  6
CONTINUOUS
 10
59.693438
 20
-33.053575
 11
60.222904
 21
-34.90007
  0
LINE
  5
46F
100
AcDbEntity
  8
0
100
AcDbLine
 62
7
  6
CONTINUOUS
 10
59.980018
 20
-32.099944
 11
60.502911
 21
-33.923486
  0
LINE
  5
470
100
AcDbEntity
  8
RACCORDO
100
AcDbLine
 62
7
  6
CONTINUOUS
 10
49.9985175949
 20
22.304647249
 11
49.9990346712
 21
22.2984541612
  0
LWPOLYLINE
  5
471
100
AcDbEntity
  8
RACCORDO
100
AcDbPolyline
 62
250
  6
CONTINUOUS
 90
62
 70
0
 10
50.0
 20
25.933376786
 10
49.9998918534
 20
25.9361522123
 10
49.9995674332
 20
25.9389271384
 10
49.9990267978
 20
25.941701064
 10
49.9982700447
 20
25.9444734892
 10
49.9972973102
 20
25.9472439143
 10
49.9961087697
 20
25.95001184
 10
49.9947046375
 20
25.9527767672
 10
49.9930851666
 20
25.9555381978
 10
49.9912506489
 20
25.9582956338
 10
49.989201415
 20
25.9610485784
 10
49.9869378344
 20
25.9637965353
 10
49.9844603151
 20
25.9665390092
 10
49.9817693035
 20
25.9692755058
 10
49.9788652848
 20
25.9720055319
 10
49.9757487823
 20
25.9747285954
 10
49.9724203578
 20
25.9774442054
 10
49.9688806113
 20
25.9801518726
 10
49.9651301807
 20
25.9828511088
 10
49.9611697421
 20
25.9855414275
 10
49.9570000092
 20
25.9882223438
 10
49.9526217337
 20
25.9908933746
 10
49.9480357047
 20
25.9935540383
 10
49.9432427488
 20
25.9962038554
 10
49.93824373
 20
25.9988423483
 10
49.9330395492
 20
26.0014690414
 10
49.9276311446
 20
26.0040834613
 10
49.9220194908
 20
26.0066851366
 10
49.9162055995
 20
26.0092735986
 10
49.9101905184
 20
26.0118483806
 10
49.9039753319
 20
26.0144090185
 10
49.8975611601
 20
26.0169550509
 10
49.8909491592
 20
26.0194860187
 10
49.884140521
 20
26.0220014659
 10
49.8771364726
 20
26.0245009389
 10
49.8699382765
 20
26.0269839874
 10
49.8625472301
 20
26.0294501637
 10
49.8549646657
 20
26.0318990233
 10
49.8471919499
 20
26.0343301248
 10
49.8392304838
 20
26.0367430301
 10
49.8310817023
 20
26.0391373042
 10
49.8227470742
 20
26.0415125155
 10
49.8142281018
 20
26.0438682361
 10
49.8055263206
 20
26.0462040411
 10
49.796643299
 20
26.0485195097
 10
49.7875806381
 20
26.0508142245
 10
49.7783399715
 20
26.0530877719
 10
49.7689229647
 20
26.055339742
 10
49.759331315
 20
26.057569729
 10
49.7495667514
 20
26.0597773309
 10
49.7396310338
 20
26.0619621499
 10
49.7295259531
 20
26.0641237921
 10
49.7192533306
 20
26.0662618678
 10
49.708815018
 20
26.0683759918
 10
49.6982128966
 20
26.070465783
 10
49.6874488775
 20
26.0725308647
 10
49.6765249008
 20
26.0745708646
 10
49.6654429355
 20
26.0765854151
 10
49.6542049791
 20
26.0785741531
 10
49.6428130571
 20
26.0805367201
 10
49.6312692229
 20
26.0824727623
 10
49.6077341675
 20
26.0862638815
  0
LWPOLYLINE
  5
472
100
AcDbEntity
  8
RACCORDO
100
AcDbPolyline
 62
250
  6
CONTINUOUS
 90
69
 70
0
 10
50.0
 20
23.2149987606
 10
49.9998971931
 20
23.2181730677
 10
49.99958879
 20
23.2213468142
 10
49.9990748435
 20
23.2245194565
 10
49.9983554417
 20
23.2276904457
 10
49.9974307079
 20
23.2308592437
 10
49.9963008005
 20
23.2340253235
 10
49.9949659131
 20
23.2371881478
 10
49.9934262745
 20
23.2403471695
 10
49.9916821484
 20
23.2435018475
 10
49.9897338337
 20
23.2466516415
 10
49.9875816642
 20
23.2497960115
 10
49.9852260088
 20
23.252934419
 10
49.9826672709
 20
23.2560663261
 10
49.9799058891
 20
23.2591911962
 10
49.9769423366
 20
23.2623084939
 10
49.973777121
 20
23.265417685
 10
49.9704107847
 20
23.2685182368
 10
49.9668439046
 20
23.2716096181
 10
49.9630770917
 20
23.2746912993
 10
49.9591109916
 20
23.2777627523
 10
49.9549462838
 20
23.2808234508
 10
49.9505836819
 20
23.2838728706
 10
49.9460239334
 20
23.2869104889
 10
49.9412678196
 20
23.2899357854
 10
49.9363161555
 20
23.2929482418
 10
49.9311697894
 20
23.2959473417
 10
49.9258296032
 20
23.2989325713
 10
49.9202965119
 20
23.3019034192
 10
49.9145714635
 20
23.3048593763
 10
49.9086554391
 20
23.307799936
 10
49.9025494523
 20
23.3107245946
 10
49.8962545493
 20
23.313632851
 10
49.8897718087
 20
23.3165242068
 10
49.8831023413
 20
23.3193981666
 10
49.8762472899
 20
23.322254238
 10
49.8692078291
 20
23.3250919318
 10
49.8619851651
 20
23.3279107615
 10
49.8545805353
 20
23.3307102444
 10
49.8469952086
 20
23.3334899006
 10
49.8392304846
 20
23.336249254
 10
49.8312876939
 20
23.3389878318
 10
49.8231681973
 20
23.3417051647
 10
49.8148733861
 20
23.3444007871
 10
49.8064046816
 20
23.3470742371
 10
49.7977635348
 20
23.3497250568
 10
49.7889514264
 20
23.3523527918
 10
49.7799698663
 20
23.3549569919
 10
49.7708203933
 20
23.3575372109
 10
49.7615045753
 20
23.3600930068
 10
49.7520240084
 20
23.3626239415
 10
49.7423803171
 20
23.3651295815
 10
49.7325751538
 20
23.3676094974
 10
49.7226101986
 20
23.3700632642
 10
49.7124871588
 20
23.3724904616
 10
49.7022077691
 20
23.3748906736
 10
49.6917737907
 20
23.377263489
 10
49.6811870114
 20
23.3796085013
 10
49.6704492453
 20
23.3819253086
 10
49.6595623322
 20
23.3842135139
 10
49.6485281375
 20
23.3864727252
 10
49.6373485519
 20
23.3887025554
 10
49.6260254909
 20
23.3909026224
 10
49.6145608947
 20
23.3930725492
 10
49.6029567277
 20
23.395211964
 10
49.5912149782
 20
23.3973205003
 10
49.579337658
 20
23.3993977968
 10
49.5673268024
 20
23.4014434975
 10
49.5429127392
 20
23.405438715
  0
LINE
  5
473
100
AcDbEntity
  8
RACCORDO
100
AcDbLine
 62
250
  6
CONTINUOUS
 10
51.2
 20
-39.6057773315
 11
51.2
 21
39.6057773315
  0
LWPOLYLINE
  5
474
100
AcDbEntity
  8
RACCORDO
100
AcDbPolyline
 62
250
  6
CONTINUOUS
 90
67
 70
0
 10
50.0
 20
-23.2149987608
 10
49.9998971931
 20
-23.2181730542
 10
49.99958879
 20
-23.2213467878
 10
49.9990748435
 20
-23.2245194179
 10
49.9983554417
 20
-23.2276903955
 10
49.9974307079
 20
-23.2308591826
 10
49.9963008005
 20
-23.2340252522
 10
49.9949659131
 20
-23.237188067
 10
49.9934262745
 20
-23.2403470797
 10
49.9916821484
 20
-23.2435017494
 10
49.9897338337
 20
-23.2466515356
 10
49.9875816642
 20
-23.2497958985
 10
49.9852260088
 20
-23.2529342993
 10
49.9826672709
 20
-23.2560662002
 10
49.9799058891
 20
-23.2591910647
 10
49.9769423366
 20
-23.2623083572
 10
49.973777121
 20
-23.2654175436
 10
49.9704107847
 20
-23.2685180913
 10
49.9668439046
 20
-23.2716094688
 10
49.9630770917
 20
-23.2746911466
 10
49.9591109916
 20
-23.2777625966
 10
49.9549462838
 20
-23.2808232926
 10
49.9505836819
 20
-23.28387271
 10
49.9460239334
 20
-23.2869103265
 10
49.9412678196
 20
-23.2899356215
 10
49.9363161555
 20
-23.2929480765
 10
49.9311697894
 20
-23.2959471755
 10
49.9258296032
 20
-23.2989324045
 10
49.9202965119
 20
-23.3019032519
 10
49.9145714635
 20
-23.3048592088
 10
49.9086554391
 20
-23.3077997687
 10
49.9025494523
 20
-23.3107244275
 10
49.8962545493
 20
-23.3136326844
 10
49.8897718087
 20
-23.3165240409
 10
49.8831023413
 20
-23.3193980016
 10
49.8762472899
 20
-23.3222540741
 10
49.8692078291
 20
-23.3250917691
 10
49.8619851651
 20
-23.3279106002
 10
49.8545805353
 20
-23.3307100846
 10
49.8469952086
 20
-23.3334897425
 10
49.8392304846
 20
-23.3362490977
 10
49.8312876939
 20
-23.3389876773
 10
49.8231681973
 20
-23.3417050122
 10
49.8148733861
 20
-23.3444006367
 10
49.8064046816
 20
-23.3470740889
 10
49.7977635349
 20
-23.3497249108
 10
49.7889514264
 20
-23.3523526481
 10
49.7799698663
 20
-23.3549568506
 10
49.7708203933
 20
-23.3575370721
 10
49.7615045753
 20
-23.3600928704
 10
49.7520240084
 20
-23.3626238077
 10
49.7423803172
 20
-23.3651294503
 10
49.7325751539
 20
-23.3676093687
 10
49.7226101986
 20
-23.3700631382
 10
49.7124871588
 20
-23.3724903382
 10
49.7022077691
 20
-23.3748905529
 10
49.6917737907
 20
-23.377263371
 10
49.6811870114
 20
-23.3796083859
 10
49.6704492453
 20
-23.3819251958
 10
49.6595623322
 20
-23.3842134038
 10
49.6485281375
 20
-23.3864726178
 10
49.6373485519
 20
-23.3887024506
 10
49.6260254909
 20
-23.3909025202
 10
49.6145608947
 20
-23.3930724496
 10
49.6029567277
 20
-23.395211867
 10
49.5912149782
 20
-23.3973204059
 10
49.5793376581
 20
-23.3993977048
  0
LWPOLYLINE
  5
475
100
AcDbEntity
  8
RACCORDO
100
AcDbPolyline
 62
250
  6
CONTINUOUS
 90
60
 70
0
 10
50.0
 20
-25.9333767861
 10
49.9998918534
 20
-25.9361522124
 10
49.9995674332
 20
-25.9389271385
 10
49.9990267978
 20
-25.9417010641
 10
49.9982700447
 20
-25.9444734893
 10
49.9972973102
 20
-25.9472439144
 10
49.9961087698
 20
-25.9500118401
 10
49.9947046375
 20
-25.9527767673
 10
49.9930851666
 20
-25.9555381978
 10
49.9912506489
 20
-25.9582956339
 10
49.9892014151
 20
-25.9610485785
 10
49.9869378345
 20
-25.9637965354
 10
49.9844603151
 20
-25.9665390093
 10
49.9817693036
 20
-25.9692755059
 10
49.9788652849
 20
-25.972005532
 10
49.9757487824
 20
-25.9747285954
 10
49.972420358
 20
-25.9774442055
 10
49.9688806114
 20
-25.9801518726
 10
49.9651301809
 20
-25.9828511088
 10
49.9611697422
 20
-25.9855414275
 10
49.9570000094
 20
-25.9882223438
 10
49.9526217339
 20
-25.9908933746
 10
49.9480357049
 20
-25.9935540383
 10
49.9432427491
 20
-25.9962038554
 10
49.9382437303
 20
-25.9988423483
 10
49.9330395495
 20
-26.0014690414
 10
49.9276311448
 20
-26.0040834612
 10
49.9220194911
 20
-26.0066851366
 10
49.9162055998
 20
-26.0092735986
 10
49.9101905188
 20
-26.0118483806
 10
49.9039753323
 20
-26.0144090185
 10
49.8975611605
 20
-26.0169550509
 10
49.8909491596
 20
-26.0194860187
 10
49.8841405214
 20
-26.0220014658
 10
49.877136473
 20
-26.0245009389
 10
49.869938277
 20
-26.0269839873
 10
49.8625472306
 20
-26.0294501636
 10
49.8549646662
 20
-26.0318990232
 10
49.8471919505
 20
-26.0343301247
 10
49.8392304844
 20
-26.03674303
 10
49.8310817029
 20
-26.0391373041
 10
49.8227470748
 20
-26.0415125155
 10
49.8142281025
 20
-26.043868236
 10
49.8055263213
 20
-26.0462040411
 10
49.7966432997
 20
-26.0485195096
 10
49.7875806389
 20
-26.0508142244
 10
49.7783399723
 20
-26.0530877718
 10
49.7689229655
 20
-26.0553397419
 10
49.7593313159
 20
-26.0575697289
 10
49.7495667523
 20
-26.0597773308
 10
49.7396310347
 20
-26.0619621498
 10
49.729525954
 20
-26.064123792
 10
49.7192533315
 20
-26.0662618678
 10
49.7088150189
 20
-26.0683759918
 10
49.6982128976
 20
-26.0704657829
 10
49.6874488785
 20
-26.0725308646
 10
49.6765249018
 20
-26.0745708645
 10
49.6654429366
 20
-26.076585415
 10
49.6542049801
 20
-26.078574153
 10
49.6428130582
 20
-26.08053672
  0
LWPOLYLINE
  5
476
100
AcDbEntity
  8
RACCORDO
100
AcDbPolyline
 62
7
  6
CONTINUOUS
 90
33
 70
0
 10
49.9990343613
 20
-22.2984583356
 10
49.9985171792
 20
-22.3046517267
 10
49.9978977408
 20
-22.3107131137
 10
49.9971799784
 20
-22.3166422933
 10
49.9963681045
 20
-22.3224368653
 10
49.9954616369
 20
-22.3281229346
 10
49.9944631772
 20
-22.3336991241
 10
49.9933759628
 20
-22.3391611039
 10
49.9921984167
 20
-22.3445266502
 10
49.9909319891
 20
-22.3497951739
 10
49.9895798349
 20
-22.3549595249
 10
49.9881419191
 20
-22.3600250405
 10
49.9866184098
 20
-22.3649944861
 10
49.98501341
 20
-22.3698579029
 10
49.9833330612
 20
-22.3746019711
 10
49.9815789263
 20
-22.3792281741
 10
49.9797539697
 20
-22.3837341415
 10
49.9778672804
 20
-22.3881042321
 10
49.9759204665
 20
-22.3923423118
 10
49.9739144554
 20
-22.3964529692
 10
49.9718574974
 20
-22.4004263348
 10
49.9697493878
 20
-22.404270109
 10
49.9675870133
 20
-22.4079958429
 10
49.9653731076
 20
-22.4116040753
 10
49.9631049033
 20
-22.4151042847
 10
49.9607714449
 20
-22.4185166341
 10
49.958360244
 20
-22.4218603385
 10
49.9558649926
 20
-22.4251439287
 10
49.9532638782
 20
-22.4283942901
 10
49.950516071
 20
-22.4316563498
 10
49.9475924517
 20
-22.434954654
 10
49.9444777328
 20
-22.438295623
 10
49.9411482759
 20
-22.4416939103
  0
LWPOLYLINE
  5
477
100
AcDbEntity
  8
RACCORDO
100
AcDbPolyline
 62
7
  6
CONTINUOUS
 90
32
 70
0
 10
49.9411487974
 20
22.4416933906
 10
49.9444828776
 20
22.4382902394
 10
49.9476002709
 20
22.4349460514
 10
49.9505249274
 20
22.4316460985
 10
49.9532718487
 20
22.4283845805
 10
49.9558709501
 20
22.4251362888
 10
49.9583646955
 20
22.4218543253
 10
49.9607753649
 20
22.4185110518
 10
49.9631086389
 20
22.4150986733
 10
49.9653768094
 20
22.4115982051
 10
49.9675908387
 20
22.4079894333
 10
49.9697534579
 20
22.4042628956
 10
49.9718617127
 20
22.4004184249
 10
49.9739186511
 20
22.3964446232
 10
49.975924555
 20
22.392333678
 10
49.9778711844
 20
22.3880954674
 10
49.979757603
 20
22.3837254546
 10
49.9815822224
 20
22.379219765
 10
49.983336003
 20
22.3745939459
 10
49.9850159794
 20
22.36985039
 10
49.9866205973
 20
22.364987611
 10
49.9881437698
 20
22.3600187696
 10
49.9895814037
 20
22.3549537732
 10
49.9909333156
 20
22.3497898894
 10
49.9921995479
 20
22.3445217283
 10
49.9933769515
 20
22.3391563779
 10
49.9944640584
 20
22.3336944621
 10
49.9954624205
 20
22.328118303
 10
49.9963688005
 20
22.3224322165
 10
49.9971805931
 20
22.3166375863
 10
49.9978982604
 20
22.3107084578
 10
49.9985175949
 20
22.304647249
  0
LINE
  5
478
100
AcDbEntity
  8
0
100
AcDbLine
 62
7
  6
CONTINUOUS
 10
63.704816
 20
-32.099937
 11
64.603847
 21
-34.90007
  0
LINE
  5
479
100
AcDbEntity
  8
0
100
AcDbLine
 62
7
  6
CONTINUOUS
 10
58.013396
 20
-32.099944
 11
58.013389
 21
-34.900077
  0
LINE
  5
47A
100
AcDbEntity
  8
0
100
AcDbLine
 62
7
  6
CONTINUOUS
 10
58.573417
 20
-32.099944
 11
58.57341
 21
-34.90007
  0
LINE
  5
47B
100
AcDbEntity
  8
0
100
AcDbLine
 62
7
  6
CONTINUOUS
 10
59.133417
 20
-32.099944
 11
59.133417
 21
-34.90007
  0
LINE
  5
47C
100
AcDbEntity
  8
0
100
AcDbLine
 62
7
  6
CONTINUOUS
 10
59.693438
 20
-33.053575
 11
59.693438
 21
-34.90007
  0
LINE
  5
47D
100
AcDbEntity
  8
0
100
AcDbLine
 62
7
  6
CONTINUOUS
 10
61.312377
 20
-33.053575
 11
61.312384
 21
-34.90007
  0
LINE
  5
47E
100
AcDbEntity
  8
DRAFT
100
AcDbLine
 62
7
  6
CONTINUOUS
 10
72.5
 20
3.6749773271
 11
72.3951844414
 21
3.5
  0
LINE
  5
47F
100
AcDbEntity
  8
DRAFT
100
AcDbLine
 62
7
  6
CONTINUOUS
 10
72.3951844414
 20
-3.5
 11
72.5
 21
-3.6749773271
  0
LINE
  5
480
100
AcDbEntity
  8
0
100
AcDbLine
 62
7
  6
CONTINUOUS
 10
61.872405
 20
-32.099944
 11
61.872405
 21
-34.90007
  0
LINE
  5
481
100
AcDbEntity
  8
0
100
AcDbLine
 62
7
  6
CONTINUOUS
 10
64.977192
 20
-32.099937
 11
64.977192
 21
-34.900063
  0
LINE
  5
482
100
AcDbEntity
  8
0
100
AcDbLine
 62
7
  6
CONTINUOUS
 10
65.529492
 20
-32.617958
 11
65.529499
 21
-33.299352
  0
LINE
  5
483
100
AcDbEntity
  8
0
100
AcDbLine
 62
7
  6
CONTINUOUS
 10
65.537283
 20
-33.817373
 11
65.53722
 21
-34.900063
  0
LINE
  5
484
100
AcDbEntity
  8
0
100
AcDbLine
 62
7
  6
CONTINUOUS
 10
57.080023
 20
-32.099944
 11
56.461006
 21
-34.027982
  0
LINE
  5
485
100
AcDbEntity
  8
0
100
AcDbLine
 62
7
  6
CONTINUOUS
 10
57.640051
 20
-32.099944
 11
56.74102
 21
-34.90007
  0
LINE
  5
486
100
AcDbEntity
  8
RACCORDO
100
AcDbLine
 62
250
  6
CONTINUOUS
 10
51.058319177
 20
-39.3228767651
 11
50.9877262323
 21
-39.3930598656
  0
LINE
  5
487
100
AcDbEntity
  8
RACCORDO
100
AcDbLine
 62
250
  6
CONTINUOUS
 10
50.9877262323
 20
-39.3930598656
 11
50.9166383553
 21
-39.4635311049
  0
LINE
  5
488
100
AcDbEntity
  8
RACCORDO
100
AcDbLine
 62
250
  6
CONTINUOUS
 10
51.0583191776
 20
39.3228767647
 11
50.9166383553
 21
39.4635311044
  0
LWPOLYLINE
  5
489
100
AcDbEntity
  8
RACCORDO
100
AcDbPolyline
 62
250
  6
CONTINUOUS
 90
121
 70
0
 10
72.1909734094
 20
39.4926179677
 10
72.1908282188
 20
39.5082761794
 10
72.1904784456
 20
39.5239318357
 10
72.189924145
 20
39.5395822634
 10
72.1891654048
 20
39.5552248295
 10
72.1882023511
 20
39.5708568235
 10
72.1870351533
 20
39.5864754583
 10
72.1856640145
 20
39.6020780255
 10
72.1840891661
 20
39.6176619027
 10
72.1823108762
 20
39.6332244362
 10
72.1803294473
 20
39.6487629735
 10
72.1781452181
 20
39.6642748565
 10
72.1757585624
 20
39.6797574294
 10
72.1731698881
 20
39.6952080461
 10
72.170379637
 20
39.7106240708
 10
72.1673882853
 20
39.7260028718
 10
72.1641963438
 20
39.7413418234
 10
72.1608043575
 20
39.7566383063
 10
72.1572129056
 20
39.7718897079
 10
72.1534226016
 20
39.7870934239
 10
72.1494340926
 20
39.8022468585
 10
72.1452480595
 20
39.8173474246
 10
72.1408652171
 20
39.8323925438
 10
72.1362863137
 20
39.8473796471
 10
72.1315121313
 20
39.8623061755
 10
72.1265434849
 20
39.8771695802
 10
72.121381223
 20
39.8919673235
 10
72.116026227
 20
39.9066968787
 10
72.1104794113
 20
39.9213557308
 10
72.104741723
 20
39.9359413767
 10
72.0988141417
 20
39.950451326
 10
72.0926976796
 20
39.9648831011
 10
72.0863933811
 20
39.979234238
 10
72.0799023225
 20
39.9935022861
 10
72.0732256123
 20
40.0076848093
 10
72.0663643905
 20
40.0217793858
 10
72.0593198285
 20
40.0357836091
 10
72.0520931293
 20
40.0496950879
 10
72.0446855268
 20
40.063511447
 10
72.0370982858
 20
40.0772303272
 10
72.0293327018
 20
40.090849386
 10
72.0213901007
 20
40.1043662981
 10
72.0132718389
 20
40.1177787553
 10
72.0049793023
 20
40.1310844677
 10
71.9965139071
 20
40.1442811632
 10
71.9878770985
 20
40.1573665885
 10
71.9790703514
 20
40.1703385093
 10
71.9700951694
 20
40.1831947107
 10
71.9609530851
 20
40.1959329976
 10
71.9516456594
 20
40.2085511948
 10
71.9421744816
 20
40.2210471479
 10
71.9325411688
 20
40.2334187231
 10
71.922747366
 20
40.2456638082
 10
71.9127947453
 20
40.2577803121
 10
71.9026850063
 20
40.2697661661
 10
71.892419875
 20
40.2816193236
 10
71.8820011043
 20
40.2933377607
 10
71.8714304731
 20
40.3049194765
 10
71.8607097863
 20
40.3163624935
 10
71.8498408746
 20
40.3276648577
 10
71.8388255937
 20
40.3388246392
 10
71.8276658244
 20
40.3498399327
 10
71.8163634723
 20
40.3607088572
 10
71.8049204673
 20
40.3714295569
 10
71.7933387631
 20
40.3820002013
 10
71.7816203374
 20
40.3924189854
 10
71.7697671911
 20
40.4026841303
 10
71.757781348
 20
40.4127938831
 10
71.7456648547
 20
40.4227465177
 10
71.7334197801
 20
40.4325403347
 10
71.721048215
 20
40.4421736618
 10
71.7085522719
 20
40.4516448541
 10
71.6959340843
 20
40.4609522944
 10
71.6831958068
 20
40.4700943935
 10
71.6703396145
 20
40.4790695905
 10
71.6573677025
 20
40.4878763527
 10
71.6442822858
 20
40.4965131766
 10
71.6310855986
 20
40.5049785872
 10
71.6177798943
 20
40.5132711393
 10
71.6043674448
 20
40.5213894168
 10
71.5908505403
 20
40.5293320336
 10
71.5772314886
 20
40.5370976335
 10
71.5635126154
 20
40.5446848905
 10
71.5496962629
 20
40.5520925091
 10
71.5357847904
 20
40.5593192245
 10
71.5217805733
 20
40.5663638028
 10
71.5076860026
 20
40.573225041
 10
71.493503485
 20
40.5799017676
 10
71.4792354422
 20
40.5863928427
 10
71.4648843103
 20
40.5926971578
 10
71.4504525399
 20
40.5988136365
 10
71.4359425952
 20
40.6047412344
 10
71.4213569535
 20
40.6104789395
 10
71.4066981056
 20
40.6160257719
 10
71.3919685542
 20
40.6213807847
 10
71.3771708145
 20
40.6265430633
 10
71.3623074131
 20
40.6315117265
 10
71.347380888
 20
40.6362859257
 10
71.3323937878
 20
40.6408648459
 10
71.3173486715
 20
40.6452477051
 10
71.302248108
 20
40.649433755
 10
71.2870946758
 20
40.6534222808
 10
71.2718909623
 20
40.6572126016
 10
71.2566395635
 20
40.66080407
 10
71.2413430835
 20
40.664196073
 10
71.2260041341
 20
40.6673880312
 10
71.2106253345
 20
40.6703793998
 10
71.1952093106
 20
40.6731696678
 10
71.1797586946
 20
40.6757583589
 10
71.1642761246
 20
40.6781450311
 10
71.1487642444
 20
40.6803292768
 10
71.1332257025
 20
40.6823107231
 10
71.1176631521
 20
40.6840890316
 10
71.1020792504
 20
40.6856638988
 10
71.0864766585
 20
40.6870350557
 10
71.0708580405
 20
40.6882022681
 10
71.0552260632
 20
40.6891653369
 10
71.0395833957
 20
40.6899240975
 10
71.0239327088
 20
40.6904784204
 10
71.0082766751
 20
40.6908282109
 10
70.9926179677
 20
40.6909734094
  0
LINE
  5
48A
100
AcDbEntity
  8
RACCORDO
100
AcDbLine
 62
250
  6
CONTINUOUS
 10
70.9926179677
 20
-40.6909734094
 11
70.9926179677
 21
-39.6057773315
  0
LINE
  5
48B
100
AcDbEntity
  8
RACCORDO
100
AcDbLine
 62
250
  6
CONTINUOUS
 10
70.9926179677
 20
39.6057773315
 11
70.9926179677
 21
40.6909734094
  0
LINE
  5
48C
100
AcDbEntity
  8
DRAFT
100
AcDbLine
 62
7
  6
CONTINUOUS
 10
72.3951844414
 20
3.5
 11
72.3951844414
 21
-3.5
  0
LINE
  5
48D
100
AcDbEntity
  8
RACCORDO
100
AcDbLine
 62
7
  6
CONTINUOUS
 10
72.5
 20
-39.8016445583
 11
72.5
 21
-3.6749773271
  0
LINE
  5
48E
100
AcDbEntity
  8
RACCORDO
100
AcDbLine
 62
7
  6
CONTINUOUS
 10
72.5
 20
3.6749773271
 11
72.5
 21
39.8016445583
  0
LWPOLYLINE
  5
48F
100
AcDbEntity
  8
RACCORDO
100
AcDbPolyline
 62
250
  6
CONTINUOUS
 90
94
 70
0
 10
70.9926179677
 20
39.6057773315
 10
70.9884594647
 20
38.756489224
 10
70.9843911418
 20
37.9070411824
 10
70.9804129989
 20
37.0574367107
 10
70.97652502
 20
36.2076792304
 10
70.9727272212
 20
35.3577723294
 10
70.9690196504
 20
34.5077197622
 10
70.965402309
 20
33.6575250364
 10
70.9618751956
 20
32.8071916579
 10
70.9584383546
 20
31.9567233792
 10
70.9550917876
 20
31.1061237648
 10
70.951835493
 20
30.2553962673
 10
70.948669511
 20
29.4045444718
 10
70.945593843
 20
28.5535719697
 10
70.9426084876
 20
27.7024821898
 10
70.9397134808
 20
26.8512784737
 10
70.9369088236
 20
25.9999643593
 10
70.934194515
 20
25.1485433316
 10
70.9315705876
 20
24.2970186536
 10
70.9290370422
 20
23.4453937929
 10
70.9265938779
 20
22.5936723071
 10
70.9242411247
 20
21.7418575947
 10
70.9219787835
 20
20.8899531147
 10
70.9198068533
 20
20.0379624355
 10
70.9177253611
 20
19.1858891205
 10
70.9157343081
 20
18.3337366698
 10
70.9138336932
 20
17.4815086128
 10
70.9120235399
 20
16.6292085577
 10
70.9103038495
 20
15.7768400414
 10
70.9086746209
 20
14.9244065583
 10
70.907135874
 20
14.0719116535
 10
70.9056876101
 20
13.2193588658
 10
70.904329828
 20
12.3667516894
 10
70.9030625443
 20
11.5140936019
 10
70.9018857602
 20
10.661388125
 10
70.9007994745
 20
9.8086387715
 10
70.8998037005
 20
8.9558490057
 10
70.8988984393
 20
8.1030223378
 10
70.8980836899
 20
7.250162293
 10
70.8973594622
 20
6.3972723586
 10
70.8967257574
 20
5.5443560452
 10
70.8961825743
 20
4.6914168783
 10
70.8957299197
 20
3.8384583677
 10
70.8953677947
 20
2.9854840304
 10
70.8950961982
 20
2.132497386
 10
70.8949151334
 20
1.2795019483
 10
70.8948246016
 20
0.4265012359
 10
70.8948246016
 20
-0.4265012329
 10
70.8949151334
 20
-1.2795019452
 10
70.8950961982
 20
-2.132497383
 10
70.8953677947
 20
-2.9854840274
 10
70.8957299197
 20
-3.8384583647
 10
70.8961825743
 20
-4.6914168754
 10
70.8967257574
 20
-5.5443560423
 10
70.8973594622
 20
-6.3972723558
 10
70.8980836899
 20
-7.2501622902
 10
70.8988984393
 20
-8.103022335
 10
70.8998037005
 20
-8.9558490028
 10
70.9007994745
 20
-9.8086387686
 10
70.9018857602
 20
-10.6613881221
 10
70.9030625443
 20
-11.5140935989
 10
70.904329828
 20
-12.3667516863
 10
70.9056876101
 20
-13.2193588627
 10
70.907135874
 20
-14.0719116503
 10
70.9086746209
 20
-14.9244065551
 10
70.9103038495
 20
-15.7768400381
 10
70.9120235399
 20
-16.6292085544
 10
70.9138336932
 20
-17.4815086097
 10
70.9157343081
 20
-18.3337366668
 10
70.9177253611
 20
-19.1858891177
 10
70.9198068533
 20
-20.0379624329
 10
70.9219787835
 20
-20.8899531123
 10
70.9242411247
 20
-21.7418575925
 10
70.9265938779
 20
-22.593672305
 10
70.9290370422
 20
-23.4453937909
 10
70.9315705876
 20
-24.2970186515
 10
70.934194515
 20
-25.1485433293
 10
70.9369088236
 20
-25.9999643566
 10
70.9397134808
 20
-26.8512784706
 10
70.9426084876
 20
-27.7024821862
 10
70.945593843
 20
-28.5535719656
 10
70.948669511
 20
-29.4045444672
 10
70.951835493
 20
-30.2553962625
 10
70.9550917876
 20
-31.1061237599
 10
70.9584383546
 20
-31.9567233742
 10
70.9618751955
 20
-32.8071916533
 10
70.9654023089
 20
-33.6575250323
 10
70.9690196504
 20
-34.5077197586
 10
70.9727272212
 20
-35.3577723265
 10
70.97652502
 20
-36.2076792282
 10
70.9804129989
 20
-37.0574367092
 10
70.9843911418
 20
-37.9070411815
 10
70.9884594647
 20
-38.7564892235
 10
70.9926179677
 20
-39.6057773315
  0
LWPOLYLINE
  5
490
100
AcDbEntity
  8
RACCORDO
100
AcDbPolyline
 62
250
  6
CONTINUOUS
 90
97
 70
0
 10
72.1909734097
 20
39.492617968
 10
72.1869435144
 20
38.6722216509
 10
72.1829982446
 20
37.8516809239
 10
72.1791376005
 20
37.0309957869
 10
72.1753615657
 20
36.2101626464
 10
72.1716701564
 20
35.389185096
 10
72.1680634216
 20
34.5680739159
 10
72.164541364
 20
33.7468294569
 10
72.1611039808
 20
32.9254513681
 10
72.1577513125
 20
32.1039493776
 10
72.1544833603
 20
31.2823235128
 10
72.1513001229
 20
30.4605737462
 10
72.1482016373
 20
29.6387097238
 10
72.1451879049
 20
28.8167315205
 10
72.1422589244
 20
27.9946390614
 10
72.1394147288
 20
27.1724417678
 10
72.1366553193
 20
26.3501396733
 10
72.1339806949
 20
25.5277327444
 10
72.1313908855
 20
24.7052303015
 10
72.1288858921
 20
23.8826323153
 10
72.1264657138
 20
23.059938815
 10
72.1241303783
 20
22.2371592097
 10
72.1218798864
 20
21.4142934439
 10
72.1197142372
 20
20.591341573
 10
72.1176334559
 20
19.768313172
 10
72.1156375436
 20
18.9452082171
 10
72.1137264993
 20
18.1220267322
 10
72.1119003452
 20
17.2987783632
 10
72.1101590826
 20
16.4754631212
 10
72.1085027102
 20
15.6520809952
 10
72.1069312475
 20
14.8286415986
 10
72.1054446953
 20
14.005144955
 10
72.1040430527
 20
13.1815910407
 10
72.1027263358
 20
12.3579893981
 10
72.1014945456
 20
11.5343400359
 10
72.1003476811
 20
10.7106429455
 10
72.0992857554
 20
9.8869076436
 10
72.0983087696
 20
9.0631341263
 10
72.0974167227
 20
8.2393223976
 10
72.0966096249
 20
7.4154819855
 10
72.0958874772
 20
6.5916128814
 10
72.0952502786
 20
5.7677150939
 10
72.0946980366
 20
4.9437981774
 10
72.0942307521
 20
4.1198621286
 10
72.0938484241
 20
3.2959069506
 10
72.093551057
 20
2.4719422078
 10
72.0933386519
 20
1.6479678999
 10
72.0932112078
 20
0.8239840272
 10
72.093168726
 20
0.0000001545
 10
72.0932112077
 20
-0.8239837182
 10
72.0933386518
 20
-1.6479675909
 10
72.0935510569
 20
-2.4719418987
 10
72.0938484239
 20
-3.2959066413
 10
72.0942307519
 20
-4.1198618191
 10
72.0946980364
 20
-4.9437978679
 10
72.0952502784
 20
-5.7677147842
 10
72.0958874769
 20
-6.5916125715
 10
72.0966096246
 20
-7.4154816754
 10
72.0974167223
 20
-8.2393220872
 10
72.0983087693
 20
-9.0631338157
 10
72.099285755
 20
-9.8869073326
 10
72.1003476807
 20
-10.7106426341
 10
72.1014945452
 20
-11.5343397239
 10
72.1027263353
 20
-12.3579890854
 10
72.1040430522
 20
-13.181590727
 10
72.1054446948
 20
-14.0051446403
 10
72.1069312469
 20
-14.8286412829
 10
72.1085027096
 20
-15.6520806784
 10
72.1101590819
 20
-16.4754628032
 10
72.1119003445
 20
-17.2987780443
 10
72.1137264985
 20
-18.1220264126
 10
72.1156375428
 20
-18.9452078972
 10
72.1176334551
 20
-19.7683128517
 10
72.1197142363
 20
-20.5913412528
 10
72.1218798855
 20
-21.4142931239
 10
72.1241303774
 20
-22.2371588898
 10
72.1264657129
 20
-23.0599384952
 10
72.1288858912
 20
-23.8826319953
 10
72.1313908845
 20
-24.7052299809
 10
72.1339806938
 20
-25.5277324224
 10
72.1366553182
 20
-26.3501393494
 10
72.1394147277
 20
-27.1724414415
 10
72.1422589232
 20
-27.9946387322
 10
72.1451879037
 20
-28.8167311881
 10
72.1482016361
 20
-29.6387093883
 10
72.1513001216
 20
-30.4605734082
 10
72.1544833589
 20
-31.2823231724
 10
72.1577513111
 20
-32.1039490349
 10
72.1611039794
 20
-32.9254510211
 10
72.1645413625
 20
-33.7468291056
 10
72.1680634201
 20
-34.5680735661
 10
72.1716701549
 20
-35.3891847473
 10
72.1753615641
 20
-36.2101623045
 10
72.1791375991
 20
-37.0309954808
 10
72.1829982435
 20
-37.8516806907
 10
72.1869435137
 20
-38.6722215198
 10
72.1909734097
 20
-39.492617968
  0
LWPOLYLINE
  5
491
100
AcDbEntity
  8
RACCORDO
100
AcDbPolyline
 62
250
  6
CONTINUOUS
 90
121
 70
0
 10
72.1909734094
 20
-39.4926179677
 10
72.1908282111
 20
-39.5082766638
 10
72.190478421
 20
-39.5239326863
 10
72.1899240989
 20
-39.5395833618
 10
72.1891653394
 20
-39.5552260181
 10
72.188202272
 20
-39.5708579842
 10
72.1870350612
 20
-39.586476591
 10
72.1856639062
 20
-39.6020791716
 10
72.1840890413
 20
-39.617663062
 10
72.1823107353
 20
-39.6332256012
 10
72.1803292919
 20
-39.648764132
 10
72.1781450493
 20
-39.6642760011
 10
72.1757583805
 20
-39.67975856
 10
72.1731696931
 20
-39.6952091651
 10
72.1703794291
 20
-39.7106251781
 10
72.1673880649
 20
-39.7260039669
 10
72.1641961112
 20
-39.7413429055
 10
72.1608041132
 20
-39.7566393749
 10
72.1572126498
 20
-39.7718907633
 10
72.1534223345
 20
-39.7870944663
 10
72.1494338144
 20
-39.8022478882
 10
72.1452477705
 20
-39.8173484415
 10
72.1408649175
 20
-39.8323935477
 10
72.1362860039
 20
-39.847380638
 10
72.1315118115
 20
-39.8623071533
 10
72.1265431554
 20
-39.877170545
 10
72.1213808841
 20
-39.8919682752
 10
72.1160258789
 20
-39.9066978172
 10
72.1104790543
 20
-39.921356656
 10
72.1047413574
 20
-39.9359422885
 10
72.0988137678
 20
-39.9504522244
 10
72.0926972977
 20
-39.9648839861
 10
72.0863929914
 20
-39.9792351095
 10
72.0799019255
 20
-39.9935031439
 10
72.0732252082
 20
-40.0076856534
 10
72.0663639795
 20
-40.0217802161
 10
72.0593194111
 20
-40.0357844256
 10
72.0520927057
 20
-40.0496958906
 10
72.0446850973
 20
-40.0635122357
 10
72.0370978507
 20
-40.0772311019
 10
72.0293322615
 20
-40.0908501466
 10
72.0213896556
 20
-40.1043670445
 10
72.0132713891
 20
-40.1177794876
 10
72.0049788483
 20
-40.1310851858
 10
71.9965134491
 20
-40.144281867
 10
71.9878766369
 20
-40.1573672781
 10
71.9790698865
 20
-40.1703391846
 10
71.9700947015
 20
-40.1831953717
 10
71.9609526145
 20
-40.1959336443
 10
71.9516451865
 20
-40.2085518272
 10
71.9421740067
 20
-40.221047766
 10
71.9325406923
 20
-40.233419327
 10
71.9227468881
 20
-40.2456643977
 10
71.9127942664
 20
-40.2577808875
 10
71.9026845266
 20
-40.2697667273
 10
71.892419395
 20
-40.2816198707
 10
71.8820006242
 20
-40.2933382937
 10
71.8714299933
 20
-40.3049199954
 10
71.8607093071
 20
-40.3163629984
 10
71.8498403962
 20
-40.3276653487
 10
71.8388251165
 20
-40.3388251165
 10
71.8276653487
 20
-40.3498403962
 10
71.8163629984
 20
-40.3607093071
 10
71.8049199954
 20
-40.3714299933
 10
71.7933382937
 20
-40.3820006242
 10
71.7816198707
 20
-40.392419395
 10
71.7697667273
 20
-40.4026845266
 10
71.7577808875
 20
-40.4127942664
 10
71.7456643977
 20
-40.4227468881
 10
71.733419327
 20
-40.4325406923
 10
71.721047766
 20
-40.4421740067
 10
71.7085518272
 20
-40.4516451865
 10
71.6959336443
 20
-40.4609526145
 10
71.6831953717
 20
-40.4700947015
 10
71.6703391846
 20
-40.4790698865
 10
71.6573672781
 20
-40.4878766369
 10
71.644281867
 20
-40.4965134491
 10
71.6310851858
 20
-40.5049788483
 10
71.6177794876
 20
-40.5132713891
 10
71.6043670445
 20
-40.5213896556
 10
71.5908501466
 20
-40.5293322615
 10
71.5772311019
 20
-40.5370978507
 10
71.5635122357
 20
-40.5446850973
 10
71.5496958906
 20
-40.5520927057
 10
71.5357844256
 20
-40.5593194111
 10
71.5217802161
 20
-40.5663639795
 10
71.5076856534
 20
-40.5732252082
 10
71.4935031439
 20
-40.5799019255
 10
71.4792351095
 20
-40.5863929914
 10
71.4648839861
 20
-40.5926972977
 10
71.4504522244
 20
-40.5988137678
 10
71.4359422885
 20
-40.6047413574
 10
71.421356656
 20
-40.6104790543
 10
71.4066978172
 20
-40.6160258789
 10
71.3919682752
 20
-40.6213808841
 10
71.377170545
 20
-40.6265431554
 10
71.3623071533
 20
-40.6315118115
 10
71.347380638
 20
-40.6362860039
 10
71.3323935477
 20
-40.6408649175
 10
71.3173484415
 20
-40.6452477705
 10
71.3022478882
 20
-40.6494338144
 10
71.2870944663
 20
-40.6534223345
 10
71.2718907633
 20
-40.6572126498
 10
71.2566393749
 20
-40.6608041132
 10
71.2413429055
 20
-40.6641961112
 10
71.2260039669
 20
-40.6673880649
 10
71.2106251781
 20
-40.6703794291
 10
71.1952091651
 20
-40.6731696931
 10
71.17975856
 20
-40.6757583805
 10
71.1642760011
 20
-40.6781450493
 10
71.148764132
 20
-40.6803292919
 10
71.1332256012
 20
-40.6823107353
 10
71.117663062
 20
-40.6840890413
 10
71.1020791716
 20
-40.6856639062
 10
71.086476591
 20
-40.6870350612
 10
71.0708579842
 20
-40.688202272
 10
71.0552260181
 20
-40.6891653394
 10
71.0395833618
 20
-40.6899240989
 10
71.0239326863
 20
-40.690478421
 10
71.0082766638
 20
-40.6908282111
 10
70.9926179677
 20
-40.6909734094
  0
LINE
  5
492
100
AcDbEntity
  8
0
100
AcDbLine
 62
7
  6
CONTINUOUS
 10
61.025804
 20
-32.099944
 11
60.502911
 21
-33.923486
  0
LINE
  5
493
100
AcDbEntity
  8
0
100
AcDbLine
 62
7
  6
CONTINUOUS
 10
61.312377
 20
-33.053575
 11
60.782911
 21
-34.900063
  0
LINE
  5
494
100
AcDbEntity
  8
0
100
AcDbLine
 62
7
  6
CONTINUOUS
 10
63.144767
 20
-32.099937
 11
62.24575
 21
-34.90007
  0
LINE
  5
495
100
AcDbEntity
  8
0
100
AcDbLine
 62
7
  6
CONTINUOUS
 10
63.424788
 20
-32.972032
 11
63.153391
 21
-33.81738
  0
LINE
  5
496
100
AcDbEntity
  8
0
100
AcDbLine
 62
7
  6
CONTINUOUS
 10
62.98257
 20
-34.349401
 11
62.805771
 21
-34.900063
  0
LWPOLYLINE
  5
497
100
AcDbEntity
  8
RACCORDO
100
AcDbPolyline
 62
250
  6
CONTINUOUS
 90
37
 70
0
 10
72.1909734094
 20
-39.4926179677
 10
72.1900337238
 20
-39.4941300362
 10
72.1888820761
 20
-39.4956385888
 10
72.1875186072
 20
-39.4971450868
 10
72.1859427693
 20
-39.4986525596
 10
72.184154626
 20
-39.5001604313
 10
72.1821554967
 20
-39.5016651062
 10
72.1799453736
 20
-39.5031684895
 10
72.1775239027
 20
-39.5046716749
 10
72.1748927118
 20
-39.5061706822
 10
72.172051824
 20
-39.5076675743
 10
72.169000909
 20
-39.5091636761
 10
72.165741834
 20
-39.510654627
 10
72.1622747043
 20
-39.5121426358
 10
72.1585992496
 20
-39.513629257
 10
72.154717488
 20
-39.5151097722
 10
72.1506296394
 20
-39.5165865231
 10
72.1463355377
 20
-39.5180612841
 10
72.1418372785
 20
-39.5195290032
 10
72.1371352262
 20
-39.520992141
 10
72.1322293564
 20
-39.5224526784
 10
72.1271217768
 20
-39.5239052621
 10
72.1218130186
 20
-39.5253524545
 10
72.116303231
 20
-39.5267964267
 10
72.1105944827
 20
-39.5282315603
 10
72.1046874877
 20
-39.5296605016
 10
72.0985825933
 20
-39.5310855921
 10
72.0922817902
 20
-39.5325009885
 10
72.0857859856
 20
-39.5339094031
 10
72.079095741
 20
-39.5353133248
 10
72.0722129445
 20
-39.5367067288
 10
72.0651386999
 20
-39.5380923743
 10
72.0578737931
 20
-39.5394728736
 10
72.0504199952
 20
-39.5408420645
 10
72.0427786062
 20
-39.5422027352
 10
72.0349506396
 20
-39.5435575963
 10
72.0269377452
 20
-39.5449003915
  0
LWPOLYLINE
  5
498
100
AcDbEntity
  8
RACCORDO
100
AcDbPolyline
 62
250
  6
CONTINUOUS
 90
41
 70
0
 10
72.1909734094
 20
39.4926179677
 10
72.190034197
 20
39.4941274054
 10
72.1888824862
 20
39.4956365757
 10
72.1875184812
 20
39.4971452108
 10
72.1859424242
 20
39.498653043
 10
72.1841545949
 20
39.5001598049
 10
72.1821553106
 20
39.5016652289
 10
72.1799449259
 20
39.5031690479
 10
72.1775238333
 20
39.504670995
 10
72.1748924623
 20
39.5061708037
 10
72.17205128
 20
39.5076682077
 10
72.1690007905
 20
39.5091629415
 10
72.1657415352
 20
39.5106547397
 10
72.1622740925
 20
39.5121433376
 10
72.1585990778
 20
39.5136284709
 10
72.1547171432
 20
39.5151098763
 10
72.1506289776
 20
39.5165872906
 10
72.1463353065
 20
39.5180604518
 10
72.141836892
 20
39.5195290985
 10
72.1371345322
 20
39.5209929699
 10
72.1322290618
 20
39.5224518064
 10
72.1271213513
 20
39.5239053489
 10
72.121812307
 20
39.5253533397
 10
72.1163028712
 20
39.5267955216
 10
72.1105940216
 20
39.5282316388
 10
72.1046867713
 20
39.5296614364
 10
72.0985821686
 20
39.5310846607
 10
72.0922812969
 20
39.5325010591
 10
72.0857852744
 20
39.5339103802
 10
72.0790952538
 20
39.535312374
 10
72.0722124225
 20
39.5367067915
 10
72.0651380018
 20
39.5380933855
 10
72.0578732472
 20
39.5394719097
 10
72.050419448
 20
39.5408421196
 10
72.0427779269
 20
39.542203772
 10
72.0349500401
 20
39.5435566253
 10
72.0269371766
 20
39.5449004393
 10
72.0187407586
 20
39.5462349756
 10
72.0103622405
 20
39.5475599974
 10
72.0018031093
 20
39.5488752695
 10
71.9841491149
 20
39.5514756327
  0
LWPOLYLINE
  5
499
100
AcDbEntity
  8
RACCORDO
100
AcDbPolyline
 62
250
  6
CONTINUOUS
 90
10
 70
0
 10
-92.3753188245
 20
-39.6042585051
 10
-92.3771097481
 20
-39.6045063079
 10
-92.3786895817
 20
-39.6047363781
 10
-92.3800585892
 20
-39.6049444299
 10
-92.3812162506
 20
-39.6051325501
 10
-92.3821621217
 20
-39.6053028269
 10
-92.382896523
 20
-39.605450975
 10
-92.3834192956
 20
-39.6055769694
 10
-92.3837298956
 20
-39.6056850488
 10
-92.3838280939
 20
-39.6057773315
  0
LINE
  5
49A
100
AcDbEntity
  8
RACCORDO
100
AcDbLine
 62
250
  6
CONTINUOUS
 10
-92.3711061243
 20
-39.6037013822
 11
-92.3753188245
 21
-39.6042585051
  0
LINE
  5
49B
100
AcDbEntity
  8
RACCORDO
100
AcDbLine
 62
250
  6
CONTINUOUS
 10
-92.3632149671
 20
-39.6027190586
 11
-92.3711061243
 21
-39.6037013822
  0
LINE
  5
49C
100
AcDbEntity
  8
RACCORDO
100
AcDbLine
 62
250
  6
CONTINUOUS
 10
-92.3534488787
 20
-39.6015609058
 11
-92.3632149671
 21
-39.6027190586
  0
LINE
  5
49D
100
AcDbEntity
  8
RACCORDO
100
AcDbLine
 62
250
  6
CONTINUOUS
 10
-92.328357263
 20
-39.5987247891
 11
-92.3534488787
 21
-39.6015609058
  0
LINE
  5
49E
100
AcDbEntity
  8
RACCORDO
100
AcDbLine
 62
250
  6
CONTINUOUS
 10
-92.2704731274
 20
-39.5925040316
 11
-92.328357263
 21
-39.5987247891
  0
LINE
  5
49F
100
AcDbEntity
  8
RACCORDO
100
AcDbLine
 62
250
  6
CONTINUOUS
 10
-92.2184783649
 20
-39.5870887774
 11
-92.2704731274
 21
-39.5925040316
  0
LINE
  5
4A0
100
AcDbEntity
  8
RACCORDO
100
AcDbLine
 62
250
  6
CONTINUOUS
 10
-92.1934277994
 20
-39.5845133449
 11
-92.2184783649
 21
-39.5870887774
  0
LINE
  5
4A1
100
AcDbEntity
  8
RACCORDO
100
AcDbLine
 62
250
  6
CONTINUOUS
 10
-92.1385578872
 20
-39.5789265808
 11
-92.1934277994
 21
-39.5845133449
  0
LWPOLYLINE
  5
4A2
100
AcDbEntity
  8
RACCORDO
100
AcDbPolyline
 62
250
  6
CONTINUOUS
 90
3
 70
0
 10
-92.0110205458
 20
-39.566138976
 10
-92.0224980287
 20
-39.5672801249
 10
-92.1385578872
 20
-39.5789265808
  0
LWPOLYLINE
  5
4A3
100
AcDbEntity
  8
RACCORDO
100
AcDbPolyline
 62
250
  6
CONTINUOUS
 90
3
 70
0
 10
-91.9391675081
 20
-39.5590197828
 10
-91.9514886291
 20
-39.5602360519
 10
-92.0110205458
 20
-39.566138976
  0
LWPOLYLINE
  5
4A4
100
AcDbEntity
  8
RACCORDO
100
AcDbPolyline
 62
250
  6
CONTINUOUS
 90
3
 70
0
 10
-91.9014152127
 20
-39.5552982409
 10
-91.9141289586
 20
-39.5565491867
 10
-91.9391675081
 20
-39.5590197828
  0
LWPOLYLINE
  5
4A5
100
AcDbEntity
  8
RACCORDO
100
AcDbPolyline
 62
250
  6
CONTINUOUS
 90
3
 70
0
 10
-91.6532470841
 20
-39.5310855921
 10
-91.6678703575
 20
-39.5325009885
 10
-91.9014152127
 20
-39.5552982409
  0
LWPOLYLINE
  5
4A6
100
AcDbEntity
  8
RACCORDO
100
AcDbPolyline
 62
250
  6
CONTINUOUS
 90
3
 70
0
 10
-91.5182474802
 20
-39.5180612841
 10
-91.5335165111
 20
-39.5195290032
 10
-91.6532470841
 20
-39.5310855921
  0
LWPOLYLINE
  5
4A7
100
AcDbEntity
  8
RACCORDO
100
AcDbPolyline
 62
250
  6
CONTINUOUS
 90
3
 70
0
 10
-91.4720997712
 20
-39.513629257
 10
-91.4875356666
 20
-39.5151097722
 10
-91.5182474802
 20
-39.5180612841
  0
LWPOLYLINE
  5
4A8
100
AcDbEntity
  8
RACCORDO
100
AcDbPolyline
 62
250
  6
CONTINUOUS
 90
3
 70
0
 10
-91.2519785897
 20
-39.4926179677
 10
-91.267872461
 20
-39.4941300362
 10
-91.4720997712
 20
-39.513629257
  0
LINE
  5
4A9
100
AcDbEntity
  8
RACCORDO
100
AcDbLine
 62
7
  6
CONTINUOUS
 10
-91.2519785897
 20
-40.6909734094
 11
-85.3553999741
 21
-41.0
  0
LINE
  5
4AA
100
AcDbEntity
  8
RACCORDO
100
AcDbLine
 62
250
  6
CONTINUOUS
 10
-91.2519785844
 20
-39.492617968
 11
-85.3553999741
 21
-39.8016445583
  0
LWPOLYLINE
  5
4AB
100
AcDbEntity
  8
0
100
AcDbPolyline
 62
7
  6
CONTINUOUS
 90
10
 70
0
 43
0.3500000006
 10
-88.5196862183
 20
49.7500012665
 10
-87.6625392151
 20
50.6071437378
 10
-87.4482547302
 20
51.4642862091
 10
-87.4482547302
 20
52.3214286804
 10
-87.8768327637
 20
52.750002182
 10
-88.5196862183
 20
52.750002182
 10
-88.948255188
 20
52.3214286804
 10
-88.948255188
 20
51.4642862091
 10
-88.5196862183
 20
51.0357127075
 10
-87.5911170959
 20
51.0357127075
  0
LINE
  5
4AC
100
AcDbEntity
  8
0
100
AcDbLine
 62
7
  6
CONTINUOUS
 10
-92.8028717036
 20
-34.900056
 11
-92.9533920772
 21
-34.900056
  0
LINE
  5
4AD
100
AcDbEntity
  8
0
100
AcDbLine
 62
7
  6
CONTINUOUS
 10
-92.8971745618
 20
-33.7500306669
 11
-93.0476610415
 21
-33.7500306669
  0
LINE
  5
4AE
100
AcDbEntity
  8
0
100
AcDbLine
 62
7
  6
CONTINUOUS
 10
-93.0269296231
 20
-32.099937
 11
-93.1773696833
 21
-32.099937
  0
LWPOLYLINE
  5
4AF
100
AcDbEntity
  8
0
100
AcDbPolyline
 62
7
  6
CONTINUOUS
 90
3
 70
0
 43
0.3500000006
 10
-89.9482554932
 20
50.0357124023
 10
-90.019686676
 20
49.8214279175
 10
-90.162539978
 20
49.5357122498
  0
LWPOLYLINE
  5
4B0
100
AcDbEntity
  8
0
100
AcDbPolyline
 62
7
  6
CONTINUOUS
 90
7
 70
0
 43
0.3500000006
 10
-103.0053971558
 20
1.5000001373
 10
-103.0053971558
 20
-0.0000003204
 10
-105.1482601318
 20
1.5000001373
 10
-105.5768291016
 20
1.5000001373
 10
-106.0053980713
 20
1.0714289017
 10
-106.0053980713
 20
0.4285709152
 10
-105.3625446167
 20
-0.0000003204
  0
LWPOLYLINE
  5
4B1
100
AcDbEntity
  8
0
100
AcDbPolyline
 62
7
  6
CONTINUOUS
 90
13
 70
0
 43
0.3500000006
 10
-104.7196820984
 20
-1.9285708809
 10
-104.933975647
 20
-2.2142854156
 10
-105.5768291016
 20
-2.2142854156
 10
-106.0053980713
 20
-1.9285708809
 10
-106.0053980713
 20
-1.2857140274
 10
-105.5768291016
 20
-1.0000006256
 10
-104.933975647
 20
-1.0000006256
 10
-104.7196820984
 20
-1.2857140274
 10
-104.2911131287
 20
-0.8571427917
 10
-103.4339751892
 20
-0.8571427917
 10
-103.0053971558
 20
-1.2857140274
 10
-103.0053971558
 20
-1.9285708809
 10
-103.4339751892
 20
-2.3571432495
  0
LWPOLYLINE
  5
4B2
100
AcDbEntity
  8
RACCORDO
100
AcDbPolyline
 62
250
  6
CONTINUOUS
 90
31
 70
0
 10
-91.2711427842
 20
-40.5988137678
 10
-91.2706930025
 20
-40.6047413574
 10
-91.2702293018
 20
-40.6104790543
 10
-91.2697517614
 20
-40.6160258789
 10
-91.2692604627
 20
-40.6213808841
 10
-91.2687554897
 20
-40.6265431554
 10
-91.2682369286
 20
-40.6315118115
 10
-91.2677048679
 20
-40.6362860039
 10
-91.2671593985
 20
-40.6408649175
 10
-91.2666006135
 20
-40.6452477705
 10
-91.2660286083
 20
-40.6494338144
 10
-91.2654434806
 20
-40.6534223345
 10
-91.2648453303
 20
-40.6572126498
 10
-91.2642342595
 20
-40.6608041132
 10
-91.2636103726
 20
-40.6641961112
 10
-91.2629737761
 20
-40.6673880649
 10
-91.2623245787
 20
-40.6703794291
 10
-91.2616628912
 20
-40.6731696931
 10
-91.2609888266
 20
-40.6757583805
 10
-91.2603025001
 20
-40.6781450493
 10
-91.2596040288
 20
-40.6803292919
 10
-91.258893532
 20
-40.6823107353
 10
-91.2581711309
 20
-40.6840890413
 10
-91.257436949
 20
-40.6856639062
 10
-91.2566911116
 20
-40.6870350612
 10
-91.255933746
 20
-40.688202272
 10
-91.2551649816
 20
-40.6891653394
 10
-91.2543849496
 20
-40.6899240989
 10
-91.2535937833
 20
-40.690478421
 10
-91.2527916176
 20
-40.6908282111
 10
-91.2519785897
 20
-40.6909734094
  0
LINE
  5
4B3
100
AcDbEntity
  8
RACCORDO
100
AcDbLine
 62
250
  6
CONTINUOUS
 10
-91.272000286
 20
-40.5863929914
 11
-91.2711427842
 21
-40.5988137678
  0
LINE
  5
4B4
100
AcDbEntity
  8
RACCORDO
100
AcDbLine
 62
250
  6
CONTINUOUS
 10
-91.2728012215
 20
-40.5732252082
 11
-91.272000286
 21
-40.5863929914
  0
LINE
  5
4B5
100
AcDbEntity
  8
RACCORDO
100
AcDbLine
 62
250
  6
CONTINUOUS
 10
-91.2735450438
 20
-40.5593194111
 11
-91.2728012215
 21
-40.5732252082
  0
LINE
  5
4B6
100
AcDbEntity
  8
RACCORDO
100
AcDbLine
 62
250
  6
CONTINUOUS
 10
-91.2742312449
 20
-40.5446850973
 11
-91.2735450438
 21
-40.5593194111
  0
LINE
  5
4B7
100
AcDbEntity
  8
RACCORDO
100
AcDbLine
 62
250
  6
CONTINUOUS
 10
-91.2748593561
 20
-40.5293322615
 11
-91.2742312449
 21
-40.5446850973
  0
LINE
  5
4B8
100
AcDbEntity
  8
RACCORDO
100
AcDbLine
 62
250
  6
CONTINUOUS
 10
-91.2754289484
 20
-40.5132713891
 11
-91.2748593561
 21
-40.5293322615
  0
LINE
  5
4B9
100
AcDbEntity
  8
RACCORDO
100
AcDbLine
 62
250
  6
CONTINUOUS
 10
-91.2759396328
 20
-40.4965134491
 11
-91.2754289484
 21
-40.5132713891
  0
LINE
  5
4BA
100
AcDbEntity
  8
RACCORDO
100
AcDbLine
 62
250
  6
CONTINUOUS
 10
-91.2765944553
 20
-40.4700947015
 11
-91.2759396328
 21
-40.4965134491
  0
LWPOLYLINE
  5
4BB
100
AcDbEntity
  8
0
100
AcDbPolyline
 62
7
  6
CONTINUOUS
 90
4
 70
0
 43
0.3500000006
 10
-93.0196875916
 20
50.1785702362
 10
-93.0196875916
 20
51.0357127075
 10
-92.5911186218
 20
51.4642862091
 10
-91.9482561035
 20
51.4642862091
  0
LINE
  5
4BC
100
AcDbEntity
  8
RACCORDO
100
AcDbLine
 62
250
  6
CONTINUOUS
 10
-91.2765944619
 20
40.4700943935
 11
-91.2759396404
 21
40.4965131766
  0
LINE
  5
4BD
100
AcDbEntity
  8
RACCORDO
100
AcDbLine
 62
250
  6
CONTINUOUS
 10
-91.2759396404
 20
40.4965131766
 11
-91.2754289566
 21
40.5132711393
  0
LINE
  5
4BE
100
AcDbEntity
  8
RACCORDO
100
AcDbLine
 62
250
  6
CONTINUOUS
 10
-91.2754289566
 20
40.5132711393
 11
-91.2748593647
 21
40.5293320336
  0
LINE
  5
4BF
100
AcDbEntity
  8
RACCORDO
100
AcDbLine
 62
250
  6
CONTINUOUS
 10
-91.2748593647
 20
40.5293320336
 11
-91.2742312539
 21
40.5446848905
  0
LINE
  5
4C0
100
AcDbEntity
  8
RACCORDO
100
AcDbLine
 62
250
  6
CONTINUOUS
 10
-91.2742312539
 20
40.5446848905
 11
-91.2735450532
 21
40.5593192245
  0
LINE
  5
4C1
100
AcDbEntity
  8
RACCORDO
100
AcDbLine
 62
250
  6
CONTINUOUS
 10
-91.2735450532
 20
40.5593192245
 11
-91.272801231
 21
40.573225041
  0
LINE
  5
4C2
100
AcDbEntity
  8
RACCORDO
100
AcDbLine
 62
250
  6
CONTINUOUS
 10
-91.272801231
 20
40.573225041
 11
-91.2720002956
 21
40.5863928427
  0
LWPOLYLINE
  5
4C3
100
AcDbEntity
  8
RACCORDO
100
AcDbPolyline
 62
250
  6
CONTINUOUS
 90
32
 70
0
 10
-91.2720002956
 20
40.5863928427
 10
-91.2711427938
 20
40.5988136365
 10
-91.2706930121
 20
40.6047412344
 10
-91.2702293114
 20
40.6104789395
 10
-91.2697517709
 20
40.6160257719
 10
-91.2692604721
 20
40.6213807847
 10
-91.268755499
 20
40.6265430633
 10
-91.2682369378
 20
40.6315117265
 10
-91.2677048769
 20
40.6362859257
 10
-91.2671594073
 20
40.6408648459
 10
-91.2666006221
 20
40.6452477051
 10
-91.2660286167
 20
40.649433755
 10
-91.2654434887
 20
40.6534222808
 10
-91.2648453382
 20
40.6572126016
 10
-91.2642342671
 20
40.66080407
 10
-91.2636103799
 20
40.664196073
 10
-91.2629737831
 20
40.6673880312
 10
-91.2623245853
 20
40.6703793998
 10
-91.2616628975
 20
40.6731696678
 10
-91.2609888326
 20
40.6757583589
 10
-91.2603025056
 20
40.6781450311
 10
-91.2596040339
 20
40.6803292768
 10
-91.2588935366
 20
40.6823107231
 10
-91.2581711351
 20
40.6840890316
 10
-91.2574369527
 20
40.6856638988
 10
-91.2566911148
 20
40.6870350557
 10
-91.2559337488
 20
40.6882022681
 10
-91.2551649838
 20
40.6891653369
 10
-91.2543849513
 20
40.6899240975
 10
-91.2535937844
 20
40.6904784204
 10
-91.2527916182
 20
40.6908282109
 10
-91.2519785897
 20
40.6909734094
  0
LWPOLYLINE
  5
4C4
100
AcDbEntity
  8
RACCORDO
100
AcDbPolyline
 62
250
  6
CONTINUOUS
 90
97
 70
0
 10
-91.2519785837
 20
39.492617968
 10
-91.3288735672
 20
38.6722216509
 10
-91.4041537983
 20
37.8516809239
 10
-91.4778192769
 20
37.0309957869
 10
-91.5498703135
 20
36.2101626464
 10
-91.6203065975
 20
35.389185096
 10
-91.6891271975
 20
34.5680739159
 10
-91.7563320603
 20
33.7468294569
 10
-91.821921239
 20
32.9254513681
 10
-91.8858939613
 20
32.1039493776
 10
-91.948250205
 20
31.2823235128
 10
-92.0089899925
 20
30.4605737462
 10
-92.0681126183
 20
29.6387097238
 10
-92.1256180586
 20
28.8167315205
 10
-92.1815063374
 20
27.9946390614
 10
-92.2357768214
 20
27.1724417678
 10
-92.288429491
 20
26.3501396733
 10
-92.3394643659
 20
25.5277327444
 10
-92.3888808718
 20
24.7052303015
 10
-92.4366789933
 20
23.8826323153
 10
-92.4828587458
 20
23.059938815
 10
-92.527419602
 20
22.2371592097
 10
-92.5703615467
 20
21.4142934439
 10
-92.6116845952
 20
20.591341573
 10
-92.6513882664
 20
19.768313172
 10
-92.6894725421
 20
18.9452082171
 10
-92.7259374406
 20
18.1220267322
 10
-92.7607825352
 20
17.2987783632
 10
-92.794007806
 20
16.4754631212
 10
-92.8256132729
 20
15.6520809952
 10
-92.8555985687
 20
14.8286415986
 10
-92.8839636737
 20
14.005144955
 10
-92.9107086076
 20
13.1815910407
 10
-92.9358330627
 20
12.3579893981
 10
-92.9593370202
 20
11.5343400359
 10
-92.9812204988
 20
10.7106429455
 10
-93.0014832474
 20
9.8869076436
 10
-93.0201252474
 20
9.0631341263
 10
-93.0371465172
 20
8.2393223976
 10
-93.0525468608
 20
7.4154819855
 10
-93.0663262596
 20
6.5916128814
 10
-93.0784847322
 20
5.7677150939
 10
-93.0890221378
 20
4.9437981774
 10
-93.0979384576
 20
4.1198621286
 10
-93.1052337105
 20
3.2959069506
 10
-93.1109078117
 20
2.4719422078
 10
-93.1149607427
 20
1.6479678999
 10
-93.117392522
 20
0.8239840272
 10
-93.1182031216
 20
0.0000001545
 10
-93.1173925226
 20
-0.8239837182
 10
-93.1149607439
 20
-1.6479675909
 10
-93.1109078136
 20
-2.4719418987
 10
-93.1052337129
 20
-3.2959066413
 10
-93.0979384607
 20
-4.1198618191
 10
-93.0890221414
 20
-4.9437978679
 10
-93.0784847365
 20
-5.7677147842
 10
-93.0663262645
 20
-6.5916125715
 10
-93.0525468663
 20
-7.4154816754
 10
-93.0371465233
 20
-8.2393220872
 10
-93.0201252541
 20
-9.0631338157
 10
-93.0014832547
 20
-9.8869073326
 10
-92.9812205068
 20
-10.7106426341
 10
-92.9593370288
 20
-11.5343397239
 10
-92.9358330719
 20
-12.3579890854
 10
-92.9107086175
 20
-13.181590727
 10
-92.8839636842
 20
-14.0051446403
 10
-92.8555985799
 20
-14.8286412829
 10
-92.8256132847
 20
-15.6520806784
 10
-92.7940078185
 20
-16.4754628032
 10
-92.7607825484
 20
-17.2987780443
 10
-92.7259374545
 20
-18.1220264126
 10
-92.6894725566
 20
-18.9452078972
 10
-92.6513882815
 20
-19.7683128517
 10
-92.6116846109
 20
-20.5913412528
 10
-92.5703615631
 20
-21.4142931239
 10
-92.5274196191
 20
-22.2371588898
 10
-92.4828587634
 20
-23.0599384952
 10
-92.4366790115
 20
-23.8826319953
 10
-92.3888808908
 20
-24.7052299809
 10
-92.3394643856
 20
-25.5277324224
 10
-92.2884295114
 20
-26.3501393494
 10
-92.2357768426
 20
-27.1724414415
 10
-92.1815063594
 20
-27.9946387322
 10
-92.1256180816
 20
-28.8167311881
 10
-92.0681126421
 20
-29.6387093883
 10
-92.0089900171
 20
-30.4605734082
 10
-91.9482502305
 20
-31.2823231724
 10
-91.8858939877
 20
-32.1039490349
 10
-91.8219212663
 20
-32.9254510211
 10
-91.7563320887
 20
-33.7468291056
 10
-91.6891272265
 20
-34.5680735661
 10
-91.6203066272
 20
-35.3891847473
 10
-91.5498703432
 20
-36.2101623045
 10
-91.477819304
 20
-37.0309954808
 10
-91.4041538194
 20
-37.8516806907
 10
-91.3288735795
 20
-38.6722215198
 10
-91.2519785844
 20
-39.492617968
  0
LINE
  5
4C5
100
AcDbEntity
  8
DRAFT
100
AcDbLine
 62
7
  6
CONTINUOUS
 10
-87.3553999741
 20
-3.5
 11
-85.3553999741
 21
-3.6749773271
  0
LINE
  5
4C6
100
AcDbEntity
  8
RACCORDO
100
AcDbLine
 62
250
  6
CONTINUOUS
 10
-91.2588934783
 20
39.6332244362
 11
-91.2616628428
 21
39.6952080461
  0
LINE
  5
4C7
100
AcDbEntity
  8
RACCORDO
100
AcDbLine
 62
250
  6
CONTINUOUS
 10
-91.2616628428
 20
39.6952080461
 11
-91.2642342163
 21
39.7566383063
  0
LINE
  5
4C8
100
AcDbEntity
  8
RACCORDO
100
AcDbLine
 62
250
  6
CONTINUOUS
 10
-91.2642342163
 20
39.7566383063
 11
-91.2666005753
 21
39.8173474246
  0
LINE
  5
4C9
100
AcDbEntity
  8
RACCORDO
100
AcDbLine
 62
250
  6
CONTINUOUS
 10
-91.2666005753
 20
39.8173474246
 11
-91.2682368941
 21
39.8623061755
  0
LINE
  5
4CA
100
AcDbEntity
  8
RACCORDO
100
AcDbLine
 62
250
  6
CONTINUOUS
 10
-91.2682368941
 20
39.8623061755
 11
-91.2697517304
 21
39.9066968787
  0
LINE
  5
4CB
100
AcDbEntity
  8
RACCORDO
100
AcDbLine
 62
250
  6
CONTINUOUS
 10
-91.2697517304
 20
39.9066968787
 11
-91.2711427567
 21
39.950451326
  0
LINE
  5
4CC
100
AcDbEntity
  8
RACCORDO
100
AcDbLine
 62
250
  6
CONTINUOUS
 10
-91.2711427567
 20
39.950451326
 11
-91.2724078355
 21
39.9935022861
  0
LINE
  5
4CD
100
AcDbEntity
  8
RACCORDO
100
AcDbLine
 62
250
  6
CONTINUOUS
 10
-91.2724078355
 20
39.9935022861
 11
-91.2735450229
 21
40.0357836091
  0
LINE
  5
4CE
100
AcDbEntity
  8
RACCORDO
100
AcDbLine
 62
250
  6
CONTINUOUS
 10
-91.2735450229
 20
40.0357836091
 11
-91.2745525716
 21
40.0772303272
  0
LINE
  5
4CF
100
AcDbEntity
  8
RACCORDO
100
AcDbLine
 62
250
  6
CONTINUOUS
 10
-91.2745525716
 20
40.0772303272
 11
-91.2754289336
 21
40.1177787553
  0
LINE
  5
4D0
100
AcDbEntity
  8
RACCORDO
100
AcDbLine
 62
250
  6
CONTINUOUS
 10
-91.2754289336
 20
40.1177787553
 11
-91.276172762
 21
40.1573665885
  0
LINE
  5
4D1
100
AcDbEntity
  8
RACCORDO
100
AcDbLine
 62
250
  6
CONTINUOUS
 10
-91.2771149536
 20
-40.4421740067
 11
-91.2765944553
 21
-40.4700947015
  0
LINE
  5
4D2
100
AcDbEntity
  8
RACCORDO
100
AcDbLine
 62
250
  6
CONTINUOUS
 10
-91.276172762
 20
40.1573665885
 11
-91.2767829141
 21
40.1959329976
  0
LINE
  5
4D3
100
AcDbEntity
  8
RACCORDO
100
AcDbLine
 62
250
  6
CONTINUOUS
 10
-91.2767829141
 20
40.1959329976
 11
-91.2772584523
 21
40.2334187231
  0
LINE
  5
4D4
100
AcDbEntity
  8
RACCORDO
100
AcDbLine
 62
250
  6
CONTINUOUS
 10
-91.2775003279
 20
-40.4127942664
 11
-91.2771149536
 21
-40.4421740067
  0
LINE
  5
4D5
100
AcDbEntity
  8
RACCORDO
100
AcDbLine
 62
250
  6
CONTINUOUS
 10
-91.2772584523
 20
40.2334187231
 11
-91.2775986459
 21
40.2697661661
  0
LINE
  5
4D6
100
AcDbEntity
  8
RACCORDO
100
AcDbLine
 62
250
  6
CONTINUOUS
 10
-91.2777499862
 20
-40.3820006242
 11
-91.2775003279
 21
-40.4127942664
  0
LINE
  5
4D7
100
AcDbEntity
  8
RACCORDO
100
AcDbLine
 62
250
  6
CONTINUOUS
 10
-91.2775986459
 20
40.2697661661
 11
-91.2778029722
 21
40.3049194765
  0
LINE
  5
4D8
100
AcDbEntity
  8
RACCORDO
100
AcDbLine
 62
250
  6
CONTINUOUS
 10
-91.2778711171
 20
-40.3388251165
 11
-91.2777499862
 21
-40.3820006242
  0
LINE
  5
4D9
100
AcDbEntity
  8
RACCORDO
100
AcDbLine
 62
250
  6
CONTINUOUS
 10
-91.2778029722
 20
40.3049194765
 11
-91.2778711171
 21
40.3388246392
  0
LINE
  5
4DA
100
AcDbEntity
  8
RACCORDO
100
AcDbLine
 62
250
  6
CONTINUOUS
 10
-91.2778711171
 20
40.3388246392
 11
-91.2778029761
 21
40.3714295569
  0
LINE
  5
4DB
100
AcDbEntity
  8
RACCORDO
100
AcDbLine
 62
250
  6
CONTINUOUS
 10
-91.2777499862
 20
-40.2933382937
 11
-91.2778711171
 21
-40.3388251165
  0
LINE
  5
4DC
100
AcDbEntity
  8
RACCORDO
100
AcDbLine
 62
250
  6
CONTINUOUS
 10
-91.2778029761
 20
40.3714295569
 11
-91.2775986537
 21
40.4026841303
  0
LINE
  5
4DD
100
AcDbEntity
  8
RACCORDO
100
AcDbLine
 62
250
  6
CONTINUOUS
 10
-91.2773869244
 20
-40.2456643977
 11
-91.2777499862
 21
-40.2933382937
  0
LINE
  5
4DE
100
AcDbEntity
  8
RACCORDO
100
AcDbLine
 62
250
  6
CONTINUOUS
 10
-91.2775986537
 20
40.4026841303
 11
-91.277258464
 21
40.4325403347
  0
LINE
  5
4DF
100
AcDbEntity
  8
RACCORDO
100
AcDbLine
 62
250
  6
CONTINUOUS
 10
-91.2765944553
 20
-40.1831953717
 11
-91.2773869244
 21
-40.2456643977
  0
LWPOLYLINE
  5
4E0
100
AcDbEntity
  8
RACCORDO
100
AcDbPolyline
 62
250
  6
CONTINUOUS
 90
3
 70
0
 10
-91.277258464
 20
40.4325403347
 10
-91.2767829296
 20
40.4609522944
 10
-91.2765944619
 20
40.4700943935
  0
LINE
  5
4E1
100
AcDbEntity
  8
RACCORDO
100
AcDbLine
 62
250
  6
CONTINUOUS
 10
-91.2754289484
 20
-40.1177794876
 11
-91.2765944553
 21
-40.1831953717
  0
LINE
  5
4E2
100
AcDbEntity
  8
RACCORDO
100
AcDbLine
 62
250
  6
CONTINUOUS
 10
-91.2738953772
 20
-40.0496958906
 11
-91.2754289484
 21
-40.1177794876
  0
LINE
  5
4E3
100
AcDbEntity
  8
RACCORDO
100
AcDbLine
 62
250
  6
CONTINUOUS
 10
-91.2715785701
 20
-39.9648839861
 11
-91.2738953772
 21
-40.0496958906
  0
LINE
  5
4E4
100
AcDbEntity
  8
RACCORDO
100
AcDbLine
 62
250
  6
CONTINUOUS
 10
-91.2687554897
 20
-39.877170545
 11
-91.2715785701
 21
-39.9648839861
  0
LINE
  5
4E5
100
AcDbEntity
  8
RACCORDO
100
AcDbLine
 62
250
  6
CONTINUOUS
 10
-91.2654434806
 20
-39.7870944663
 11
-91.2687554897
 21
-39.877170545
  0
LINE
  5
4E6
100
AcDbEntity
  8
RACCORDO
100
AcDbLine
 62
250
  6
CONTINUOUS
 10
-91.2609888266
 20
-39.67975856
 11
-91.2654434806
 21
-39.7870944663
  0
LINE
  5
4E7
100
AcDbEntity
  8
RACCORDO
100
AcDbLine
 62
250
  6
CONTINUOUS
 10
-91.258893532
 20
-39.6332256012
 11
-91.2609888266
 21
-39.67975856
  0
LWPOLYLINE
  5
4E8
100
AcDbEntity
  8
0
100
AcDbPolyline
 62
7
  6
CONTINUOUS
 90
4
 70
0
 43
0.3500000006
 10
-103.4339751892
 20
-2.3571432495
 10
-104.2911131287
 20
-2.3571432495
 10
-104.7196820984
 20
-1.9285708809
 10
-104.7196820984
 20
-1.2857140274
  0
LINE
  5
4E9
100
AcDbEntity
  8
RACCORDO
100
AcDbLine
 62
250
  6
CONTINUOUS
 10
-91.2519785897
 20
39.4926179677
 11
-91.2551649227
 21
39.5552248295
  0
LWPOLYLINE
  5
4EA
100
AcDbEntity
  8
RACCORDO
100
AcDbPolyline
 62
250
  6
CONTINUOUS
 90
3
 70
0
 10
-91.2551649227
 20
39.5552248295
 10
-91.2581710767
 20
39.6176619027
 10
-91.2588934783
 20
39.6332244362
  0
LINE
  5
4EB
100
AcDbEntity
  8
DRAFT
100
AcDbLine
 62
7
  6
CONTINUOUS
 10
-87.3553999741
 20
3.5
 11
-87.3553999741
 21
-3.5
  0
LINE
  5
4EC
100
AcDbEntity
  8
RACCORDO
100
AcDbLine
 62
250
  6
CONTINUOUS
 10
-91.2535937833
 20
-39.5239326863
 11
-91.258893532
 21
-39.6332256012
  0
LINE
  5
4ED
100
AcDbEntity
  8
RACCORDO
100
AcDbLine
 62
250
  6
CONTINUOUS
 10
-91.2519785897
 20
-39.4926179677
 11
-91.2535937833
 21
-39.5239326863
  0
LINE
  5
4EE
100
AcDbEntity
  8
RACCORDO
100
AcDbLine
 62
7
  6
CONTINUOUS
 10
-85.3553999741
 20
-3.6749773271
 11
-85.3553999741
 21
-41.0
  0
LINE
  5
4EF
100
AcDbEntity
  8
RACCORDO
100
AcDbLine
 62
7
  6
CONTINUOUS
 10
-85.3553999741
 20
3.6749773271
 11
-85.3553999741
 21
41.0
  0
LINE
  5
4F0
100
AcDbEntity
  8
DRAFT
100
AcDbLine
 62
7
  6
CONTINUOUS
 10
-85.3553999741
 20
3.6749773271
 11
-87.3553999741
 21
3.5
  0
LWPOLYLINE
  5
4F1
100
AcDbEntity
  8
0
100
AcDbPolyline
 62
7
  6
CONTINUOUS
 90
10
 70
0
 43
0.3500000006
 10
-90.019686676
 20
50.2500014191
 10
-89.9482554932
 20
50.1071435852
 10
-89.9482554932
 20
50.0357124023
 10
-90.0911178589
 20
49.8928591003
 10
-90.162539978
 20
49.8928591003
 10
-90.2339711609
 20
49.9642857513
 10
-90.2339711609
 20
50.0357124023
 10
-90.162539978
 20
50.1785702362
 10
-90.0911178589
 20
50.2500014191
 10
-90.019686676
 20
50.2500014191
  0
LINE
  5
4F2
100
AcDbEntity
  8
RACCORDO
100
AcDbLine
 62
250
  6
CONTINUOUS
 10
-85.3553999741
 20
39.8016445583
 11
-91.2519785837
 21
39.492617968
  0
LINE
  5
4F3
100
AcDbEntity
  8
RACCORDO
100
AcDbLine
 62
7
  6
CONTINUOUS
 10
-85.3553999741
 20
41.0
 11
-91.2519785897
 21
40.6909734094
  0
LINE
  5
4F4
100
AcDbEntity
  8
RACCORDO
100
AcDbLine
 62
250
  6
CONTINUOUS
 10
-91.2519785897
 20
39.4926179677
 11
-91.4255008915
 21
39.5091629415
  0
LINE
  5
4F5
100
AcDbEntity
  8
RACCORDO
100
AcDbLine
 62
250
  6
CONTINUOUS
 10
-91.4255008915
 20
39.5091629415
 11
-91.6088945535
 21
39.5267955216
  0
LINE
  5
4F6
100
AcDbEntity
  8
RACCORDO
100
AcDbLine
 62
250
  6
CONTINUOUS
 10
-91.6088945535
 20
39.5267955216
 11
-91.7677126562
 21
39.542203772
  0
LINE
  5
4F7
100
AcDbEntity
  8
RACCORDO
100
AcDbLine
 62
250
  6
CONTINUOUS
 10
-91.7677126562
 20
39.542203772
 11
-91.9141297587
 21
39.5565492138
  0
LINE
  5
4F8
100
AcDbEntity
  8
RACCORDO
100
AcDbLine
 62
250
  6
CONTINUOUS
 10
-91.9141297587
 20
39.5565492138
 11
-92.0450073978
 21
39.5695243511
  0
LINE
  5
4F9
100
AcDbEntity
  8
RACCORDO
100
AcDbLine
 62
250
  6
CONTINUOUS
 10
-92.0450073978
 20
39.5695243511
 11
-92.1385585701
 21
39.578925726
  0
LINE
  5
4FA
100
AcDbEntity
  8
RACCORDO
100
AcDbLine
 62
250
  6
CONTINUOUS
 10
-92.1385585701
 20
39.578925726
 11
-92.2184788756
 21
39.5870879737
  0
LINE
  5
4FB
100
AcDbEntity
  8
RACCORDO
100
AcDbLine
 62
250
  6
CONTINUOUS
 10
-92.2184788756
 20
39.5870879737
 11
-92.2771436331
 21
39.5932078821
  0
LINE
  5
4FC
100
AcDbEntity
  8
RACCORDO
100
AcDbLine
 62
250
  6
CONTINUOUS
 10
-92.2771436331
 20
39.5932078821
 11
-92.3183676239
 21
39.5976285801
  0
LINE
  5
4FD
100
AcDbEntity
  8
RACCORDO
100
AcDbLine
 62
250
  6
CONTINUOUS
 10
-92.3183676239
 20
39.5976285801
 11
-92.345904047
 21
39.6006927412
  0
LINE
  5
4FE
100
AcDbEntity
  8
RACCORDO
100
AcDbLine
 62
250
  6
CONTINUOUS
 10
-92.345904047
 20
39.6006927412
 11
-92.3601671515
 21
39.6023531645
  0
LINE
  5
4FF
100
AcDbEntity
  8
RACCORDO
100
AcDbLine
 62
250
  6
CONTINUOUS
 10
-92.3601671515
 20
39.6023531645
 11
-92.3686848284
 21
39.6033942801
  0
LWPOLYLINE
  5
500
100
AcDbEntity
  8
RACCORDO
100
AcDbPolyline
 62
250
  6
CONTINUOUS
 90
12
 70
0
 10
-92.3686848284
 20
39.6033942801
 10
-92.373317516
 20
39.6039901685
 10
-92.3753188418
 20
39.6042584922
 10
-92.3771096695
 20
39.6045070043
 10
-92.3786896815
 20
39.6047356606
 10
-92.3800585972
 20
39.6049444207
 10
-92.3812161738
 20
39.6051332474
 10
-92.3821622058
 20
39.6053021071
 10
-92.3828965253
 20
39.6054509701
 10
-92.383419002
 20
39.6055798099
 10
-92.3837295433
 20
39.6056886035
 10
-92.3838280939
 20
39.6057773315
  0
LWPOLYLINE
  5
501
100
AcDbEntity
  8
0
100
AcDbPolyline
 62
7
  6
CONTINUOUS
 90
13
 70
0
 43
0.3500000006
 10
-92.5911186218
 20
51.4642862091
 10
-92.8768252258
 20
51.678570694
 10
-92.8768252258
 20
52.3214286804
 10
-92.5911186218
 20
52.750002182
 10
-91.9482561035
 20
52.750002182
 10
-91.6625404358
 20
52.3214286804
 10
-91.6625404358
 20
51.678570694
 10
-91.9482561035
 20
51.4642862091
 10
-91.5196871338
 20
51.0357127075
 10
-91.5196871338
 20
50.1785702362
 10
-91.9482561035
 20
49.7500012665
 10
-92.5911186218
 20
49.7500012665
 10
-93.0196875916
 20
50.1785702362
  0
ARC
  5
502
100
AcDbEntity
  8
0
100
AcDbCircle
 62
7
  6
CONTINUOUS
 10
66.288572
 20
-32.958656
 40
0.8587214994
100
AcDbArc
 50
292.8428415932
 51
90.0
  0
ARC
  5
503
100
AcDbEntity
  8
0
100
AcDbCircle
 62
7
  6
CONTINUOUS
 10
66.210842
 20
-32.958656
 40
0.340698
100
AcDbArc
 50
270.0
 51
90.0
  0
ARC
  5
504
100
AcDbEntity
  8
RACCORDO
100
AcDbCircle
 62
7
  6
CONTINUOUS
 10
-49.8
 20
22.2999999998
 40
0.2
100
AcDbArc
 50
90.0
 51
134.8893524929
  0
ARC
  5
505
100
AcDbEntity
  8
RACCORDO
100
AcDbCircle
 62
7
  6
CONTINUOUS
 10
49.8
 20
22.2999999998
 40
0.2
100
AcDbArc
 50
45.1103236847
 51
90.0
  0
ARC
  5
506
100
AcDbEntity
  8
RACCORDO
100
AcDbCircle
 62
7
  6
CONTINUOUS
 10
49.8
 20
-22.3
 40
0.2
100
AcDbArc
 50
270.0
 51
314.8894666273
  0
ARC
  5
507
100
AcDbEntity
  8
RACCORDO
100
AcDbCircle
 62
7
  6
CONTINUOUS
 10
-49.8
 20
-22.3
 40
0.2
100
AcDbArc
 50
225.1102044295
 51
270.0
  0
ARC
  5
508
100
AcDbEntity
  8
0
100
AcDbCircle
 62
7
  6
CONTINUOUS
 10
325.7446000259
 20
0.0
 40
420.15
100
AcDbArc
 50
184.3817322964
 51
184.76480453
  0
ARC
  5
509
100
AcDbEntity
  8
RACCORDO
100
AcDbCircle
 62
7
  6
CONTINUOUS
 10
325.7446000259
 20
0.0
 40
420.0
100
AcDbArc
 50
174.5889986143
 51
185.4110013857
  0
ARC
  5
50A
100
AcDbEntity
  8
RACCORDO
100
AcDbCircle
 62
7
  6
CONTINUOUS
 10
-91.1891754422
 20
-39.4926179677
 40
1.2
100
AcDbArc
 50
185.4110013857
 51
267.0
  0
ARC
  5
50B
100
AcDbEntity
  8
RACCORDO
100
AcDbCircle
 62
7
  6
CONTINUOUS
 10
-91.1891754422
 20
39.4926179677
 40
1.2
100
AcDbArc
 50
93.0
 51
174.5889986143
  0
ELLIPSE
  5
50C
100
AcDbEntity
  8
RACCORDO
100
AcDbEllipse
 62
7
  6
CONTINUOUS
 10
-71.2983531848
 20
-39.7983531848
 30
0.0
 11
0.8508554921
 21
0.8508554921
 31
0.0
 40
0.9972646886
 41
2.3575640181
 42
3.9256212891
  0
ELLIPSE
  5
50D
100
AcDbEntity
  8
RACCORDO
100
AcDbEllipse
 62
7
  6
CONTINUOUS
 10
-71.2983531848
 20
39.7983531848
 30
0.0
 11
0.8508554921
 21
-0.8508554921
 31
0.0
 40
0.9972646886
 41
2.3575640181
 42
3.9256212891
  0
ELLIPSE
  5
50E
100
AcDbEntity
  8
RACCORDO
100
AcDbEllipse
 62
7
  6
CONTINUOUS
 10
71.2983531848
 20
-39.7983531848
 30
0.0
 11
0.8508554921
 21
-0.8508554921
 31
0.0
 40
0.9972646886
 41
-0.7840286355
 42
0.7840286355
  0
ELLIPSE
  5
50F
100
AcDbEntity
  8
RACCORDO
100
AcDbEllipse
 62
7
  6
CONTINUOUS
 10
71.2983531848
 20
39.7983531848
 30
0.0
 11
0.8508554921
 21
0.8508554921
 31
0.0
 40
0.9972646886
 41
-0.7840286355
 42
0.7840286355
  0
ENDSEC
  0
SECTION
  2
OBJECTS
  0
DICTIONARY
  5
C
100
AcDbDictionary
280
0
281
1
  3
ACAD_GROUP
350
D
  3
ACAD_MLINESTYLE
350
17
  3
ACAD_LAYOUT
350
1A
  3
ACAD_PLOTSETTINGS
350
19
  3
ACAD_PLOTSTYLENAME
350
E
  0
DICTIONARY
  5
D
102
{ACAD_REACTORS
330
C
102
}
100
AcDbDictionary
280
0
281
1
  0
ACDBDICTIONARYWDFLT
  5
E
102
{ACAD_REACTORS
330
C
102
}
100
AcDbDictionary
281
1
  3
Normal
350
F
100
AcDbDictionaryWithDefault
340
F
  0
DICTIONARY
  5
17
102
{ACAD_REACTORS
330
C
102
}
100
AcDbDictionary
280
0
281
1
  3
Standard
350
18
  0
DICTIONARY
  5
19
102
{ACAD_REACTORS
330
C
102
}
100
AcDbDictionary
281
1
  0
DICTIONARY
  5
1A
102
{ACAD_REACTORS
330
C
102
}
100
AcDbDictionary
281
1
  3
Model
350
510
  3
Layout1
350
511
  0
ACDBPLACEHOLDER
  5
F
102
{ACAD_REACTORS
330
E
102
}
  0
MLINESTYLE
  5
18
102
{ACAD_REACTORS
330
17
102
}
100
AcDbMlineStyle
  2
STANDARD
 70
0
  3

 62
256
 51
90.0
 52
90.0
 71
2
 49
0.5
 62
256
  6
BYLAYER
 49
-0.5
 62
256
  6
BYLAYER
  0
LAYOUT
  5
510
102
{ACAD_REACTORS
330
1A
102
}
100
AcDbPlotSettings
  1

  2
none_device
  4
ISO_A4_(297.00_x_210.00_MM)
  6

 40
0.0
 41
0.0
 42
0.0
 43
0.0
 44
297.0
 45
210.0
 46
0.0
 47
0.0
 48
0.0
 49
0.0
140
0.0
141
0.0
142
1.0
143
1.0
 70
1024
 72
1
 73
0
 74
0
  7

 75
0
147
1.0
148
0.0
149
0.0
100
AcDbLayout
  1
Model
 70
0
 71
0
 10
0.0
 20
0.0
 11
297.0
 21
210.0
 12
0.0
 22
0.0
 32
0.0
 14
0.0
 24
0.0
 34
0.0
 15
0.0
 25
0.0
 35
0.0
146
0.0
 13
0.0
 23
0.0
 33
0.0
 16
1.0
 26
0.0
 36
0.0
 17
0.0
 27
1.0
 37
0.0
 76
0
330
212
345
0
346
0
  0
LAYOUT
  5
511
102
{ACAD_REACTORS
330
1A
102
}
100
AcDbPlotSettings
  1

  2
none_device
  4
ISO_A4_(297.00_x_210.00_MM)
  6

 40
0.0
 41
0.0
 42
0.0
 43
0.0
 44
297.0
 45
210.0
 46
0.0
 47
0.0
 48
0.0
 49
0.0
140
0.0
141
0.0
142
1.0
143
1.0
 70
0
 72
1
 73
0
 74
0
  7

 75
0
147
1.0
148
0.0
149
0.0
100
AcDbLayout
  1
Layout1
 70
0
 71
1
 10
0.0
 20
0.0
 11
297.0
 21
210.0
 12
0.0
 22
0.0
 32
0.0
 14
0.0
 24
0.0
 34
0.0
 15
0.0
 25
0.0
 35
0.0
146
0.0
 13
0.0
 23
0.0
 33
0.0
 16
1.0
 26
0.0
 36
0.0
 17
0.0
 27
1.0
 37
0.0
 76
0
330
213
345
0
346
0
  0
ENDSEC
  0
EOF
