  0
SECTION
  2
HEADER
  9
$ACADVER
  1
AC1015
  9
$DWGCODEPAGE
  3
ANSI_1252
  9
$EXTMAX
 10
297.0
 20
210.0
 30
0.0
  9
$EXTMIN
 10
0.0
 20
0.0
 30
0.0
  9
$LIMMIN
 10
0.0
 20
0.0
  9
$LIMMAX
 10
297.0
 20
210.0
  9
$VIEWCTR
 10
148.5
 20
105.0
  9
$VIEWSIZE
 40
210.0
  9
$CLAYER
  8
0
  9
$LTSCALE
 40
16.335
  9
$CELTYPE
  6
BYLAYER
  9
$DIMSCALE
 40
1.0
  9
$DIMASZ
 40
3.0
  9
$DIMEXO
 40
1.85625
  9
$DIMDLI
 40
11.286
  9
$DIMEXE
 40
5.346
  9
$DIMCEN
 40
2.673
  9
$DIMLFAC
 40
1.0
  9
$DIMBLK
  1
_FILLED
  9
$DIMTXT
 40
3.0
  9
$DIMTOL
 70
1
  9
$DIMLIM
 70
0
  9
$DIMTFAC
 40
1.0
  9
$DIMTP
 40
0.01
  9
$DIMTM
 40
0.01
  9
$PDMODE
 70
3
  9
$PDSIZE
 40
3.0
  9
$HANDSEED
  5
327
  9
$TILEMODE
 70
1
  9
$MEASUREMENT
 70
1
  9
$INSUNITS
 70
4
  0
ENDSEC
  0
SECTION
  2
CLASSES
  0
CLASS
  1
ACDBDICTIONARYWDFLT
  2
AcDbDictionaryWithDefault
  3
AutoCAD 2000
 90
0
280
0
281
0
  0
CLASS
  1
ACDBPLACEHOLDER
  2
AcDbPlaceHolder
  3
AutoCAD 2000
 90
0
280
0
281
0
  0
CLASS
  1
LAYOUT
  2
AcDbLayout
  3
AutoCAD 2000
 90
0
280
0
281
0
  0
ENDSEC
  0
SECTION
  2
TABLES
  0
TABLE
  2
VPORT
  5
8
100
AcDbSymbolTable
 70
2
  0
VPORT
  5
1F4
100
AcDbSymbolTableRecord
100
AcDbViewportTableRecord
  2
*ACTIVE
 70
0
 10
0.0
 20
0.0
 11
1.0
 21
1.0
 12
148.5
 22
105.0
 13
0.0
 23
0.0
 14
1.0
 24
1.0
 15
0.0
 25
0.0
 16
0.0
 26
0.0
 36
1.0
 17
0.0
 27
0.0
 37
0.0
 40
210.0
 41
1.4142857143
 42
50.0
 43
0.0
 44
0.0
 50
0.0
 51
0.0
 71
0
 72
100
 73
1
 74
1
 75
0
 76
0
 77
0
 78
0
  0
ENDTAB
  0
TABLE
  2
LTYPE
  5
5
100
AcDbSymbolTable
 70
6
  0
LTYPE
  5
14
100
AcDbSymbolTableRecord
100
AcDbLinetypeTableRecord
  2
BYBLOCK
 70
0
  3

 72
65
 73
0
 40
0.0
  0
LTYPE
  5
15
100
AcDbSymbolTableRecord
100
AcDbLinetypeTableRecord
  2
BYLAYER
 70
0
  3

 72
65
 73
0
 40
0.0
  0
LTYPE
  5
16
100
AcDbSymbolTableRecord
100
AcDbLinetypeTableRecord
  2
CONTINUOUS
 70
64
  3
Solid line
 72
65
 73
0
 40
0.0
  0
LTYPE
  5
1F5
100
AcDbSymbolTableRecord
100
AcDbLinetypeTableRecord
  2
CENTER
 70
64
  3
____ _ ____ _ ____ _ ____ _ ____ _ ____ _ ____
 72
65
 73
4
 40
0.6
 49
0.375
 74
0
 49
-0.075
 74
0
 49
0.075
 74
0
 49
-0.075
 74
0
  0
LTYPE
  5
1F6
100
AcDbSymbolTableRecord
100
AcDbLinetypeTableRecord
  2
HIDDEN
 70
64
  3
- - - - - - - - - - - - - - - - - - - -
 72
65
 73
2
 40
0.2
 49
0.1
 74
0
 49
-0.1
 74
0
  0
LTYPE
  5
1F7
100
AcDbSymbolTableRecord
100
AcDbLinetypeTableRecord
  2
PHANTOM
 70
64
  3
_____ _ _ _____ _ _ _____ _ _ _____
 72
65
 73
6
 40
0.8
 49
0.45
 74
0
 49
-0.05
 74
0
 49
0.1
 74
0
 49
-0.05
 74
0
 49
0.1
 74
0
 49
-0.05
 74
0
  0
LTYPE
  5
1F8
100
AcDbSymbolTableRecord
100
AcDbLinetypeTableRecord
  2
DOT
 70
64
  3
. . . . . . . . . . . . . . . . . . . .
 72
65
 73
2
 40
0.2
 49
0.1
 74
0
 49
-0.1
 74
0
  0
LTYPE
  5
1F9
100
AcDbSymbolTableRecord
100
AcDbLinetypeTableRecord
  2
DASHED
 70
64
  3
- - - - - - - - - - - - - - - - - - - -
 72
65
 73
2
 40
0.2
 49
0.1
 74
0
 49
-0.1
 74
0
  0
ENDTAB
  0
TABLE
  2
LAYER
  5
2
100
AcDbSymbolTable
 70
36
  0
LAYER
  5
10
100
AcDbSymbolTableRecord
100
AcDbLayerTableRecord
  2
0
 70
0
 62
7
  6
CONTINUOUS
370
-3
390
F
  0
LAYER
  5
1FA
100
AcDbSymbolTableRecord
100
AcDbLayerTableRecord
  2
DEFAULT_1
 70
0
 62
7
  6
CENTER
370
-3
390
F
  0
LAYER
  5
1FB
100
AcDbSymbolTableRecord
100
AcDbLayerTableRecord
  2
DEFAULT_2
 70
0
 62
7
  6
HIDDEN
370
-3
390
F
  0
LAYER
  5
1FC
100
AcDbSymbolTableRecord
100
AcDbLayerTableRecord
  2
DEFAULT_3
 70
0
 62
7
  6
PHANTOM
370
-3
390
F
  0
LAYER
  5
1FD
100
AcDbSymbolTableRecord
100
AcDbLayerTableRecord
  2
ASSI
 70
0
 62
7
  6
CONTINUOUS
370
-3
390
F
  0
LAYER
  5
1FE
100
AcDbSymbolTableRecord
100
AcDbLayerTableRecord
  2
COORDINATE
 70
0
 62
7
  6
CONTINUOUS
370
-3
390
F
  0
LAYER
  5
1FF
100
AcDbSymbolTableRecord
100
AcDbLayerTableRecord
  2
COPY_PUBLISH
 70
0
 62
7
  6
CONTINUOUS
370
-3
390
F
  0
LAYER
  5
200
100
AcDbSymbolTableRecord
100
AcDbLayerTableRecord
  2
COSMETIC
 70
0
 62
7
  6
CONTINUOUS
370
-3
390
F
  0
LAYER
  5
201
100
AcDbSymbolTableRecord
100
AcDbLayerTableRecord
  2
COSMETICI
 70
0
 62
7
  6
CONTINUOUS
370
-3
390
F
  0
LAYER
  5
202
100
AcDbSymbolTableRecord
100
AcDbLayerTableRecord
  2
CURVE
 70
0
 62
7
  6
CONTINUOUS
370
-3
390
F
  0
LAYER
  5
203
100
AcDbSymbolTableRecord
100
AcDbLayerTableRecord
  2
DRAFT
 70
0
 62
7
  6
CONTINUOUS
370
-3
390
F
  0
LAYER
  5
204
100
AcDbSymbolTableRecord
100
AcDbLayerTableRecord
  2
IMPORT_IGES
 70
0
 62
7
  6
CONTINUOUS
370
-3
390
F
  0
LAYER
  5
205
100
AcDbSymbolTableRecord
100
AcDbLayerTableRecord
  2
INTFCLR_11
 70
0
 62
7
  6
CONTINUOUS
370
-3
390
F
  0
LAYER
  5
206
100
AcDbSymbolTableRecord
100
AcDbLayerTableRecord
  2
INTF_1
 70
0
 62
7
  6
CONTINUOUS
370
-3
390
F
  0
LAYER
  5
207
100
AcDbSymbolTableRecord
100
AcDbLayerTableRecord
  2
INTF_3
 70
0
 62
7
  6
CONTINUOUS
370
-3
390
F
  0
LAYER
  5
208
100
AcDbSymbolTableRecord
100
AcDbLayerTableRecord
  2
INTF_6
 70
0
 62
7
  6
CONTINUOUS
370
-3
390
F
  0
LAYER
  5
209
100
AcDbSymbolTableRecord
100
AcDbLayerTableRecord
  2
NOTE
 70
0
 62
7
  6
CONTINUOUS
370
-3
390
F
  0
LAYER
  5
20A
100
AcDbSymbolTableRecord
100
AcDbLayerTableRecord
  2
PIANI
 70
0
 62
7
  6
CONTINUOUS
370
-3
390
F
  0
LAYER
  5
20B
100
AcDbSymbolTableRecord
100
AcDbLayerTableRecord
  2
PUNTI
 70
0
 62
7
  6
CONTINUOUS
370
-3
390
F
  0
LAYER
  5
20C
100
AcDbSymbolTableRecord
100
AcDbLayerTableRecord
  2
RACCORDO
 70
0
 62
7
  6
CONTINUOUS
370
-3
390
F
  0
LAYER
  5
20D
100
AcDbSymbolTableRecord
100
AcDbLayerTableRecord
  2
SIMBOLI
 70
0
 62
7
  6
CONTINUOUS
370
-3
390
F
  0
LAYER
  5
20E
100
AcDbSymbolTableRecord
100
AcDbLayerTableRecord
  2
SMUSSO
 70
0
 62
7
  6
CONTINUOUS
370
-3
390
F
  0
LAYER
  5
20F
100
AcDbSymbolTableRecord
100
AcDbLayerTableRecord
  2
SNAPLINE
 70
0
 62
7
  6
CONTINUOUS
370
-3
390
F
  0
LAYER
  5
210
100
AcDbSymbolTableRecord
100
AcDbLayerTableRecord
  2
SUPERFICI
 70
0
 62
7
  6
CONTINUOUS
370
-3
390
F
  0
LAYER
  5
211
100
AcDbSymbolTableRecord
100
AcDbLayerTableRecord
  2
TRASH
 70
0
 62
7
  6
CONTINUOUS
370
-3
390
F
  0
LAYER
  5
212
100
AcDbSymbolTableRecord
100
AcDbLayerTableRecord
  2
XSEC_DATUMS
 70
0
 62
7
  6
CONTINUOUS
370
-3
390
F
  0
LAYER
  5
213
100
AcDbSymbolTableRecord
100
AcDbLayerTableRecord
  2
___SHELL
 70
0
 62
7
  6
CONTINUOUS
370
-3
390
F
  0
ENDTAB
  0
TABLE
  2
STYLE
  5
3
100
AcDbSymbolTable
 70
1
  0
STYLE
  5
11
100
AcDbSymbolTableRecord
100
AcDbTextStyleTableRecord
  2
STANDARD
 70
0
 40
0.0
 41
0.8
 50
0.0
 71
0
 42
0.2
  3
txt
  4

  0
STYLE
  5
214
100
AcDbSymbolTableRecord
100
AcDbTextStyleTableRecord
  2
TEXTSTYLE_1
 70
0
 40
0.0
 41
0.8
 50
0.0
 71
0
 42
0.2
  3
gdt
  4

  0
ENDTAB
  0
TABLE
  2
VIEW
  5
6
100
AcDbSymbolTable
 70
0
  0
ENDTAB
  0
TABLE
  2
UCS
  5
7
100
AcDbSymbolTable
 70
0
  0
ENDTAB
  0
TABLE
  2
APPID
  5
9
100
AcDbSymbolTable
 70
1
  0
APPID
  5
215
100
AcDbSymbolTableRecord
100
AcDbRegAppTableRecord
  2
ACAD
 70
0
  0
ENDTAB
  0
TABLE
  2
BLOCK_RECORD
  5
1
100
AcDbSymbolTable
 70
0
  0
BLOCK_RECORD
  5
216
100
AcDbSymbolTableRecord
100
AcDbBlockTableRecord
  2
*Model_Space
  0
BLOCK_RECORD
  5
217
100
AcDbSymbolTableRecord
100
AcDbBlockTableRecord
  2
*Paper_Space
  0
BLOCK_RECORD
  5
218
100
AcDbSymbolTableRecord
100
AcDbBlockTableRecord
  2
_FILLED
  0
BLOCK_RECORD
  5
219
100
AcDbSymbolTableRecord
100
AcDbBlockTableRecord
  2
*D0
  0
BLOCK_RECORD
  5
21A
100
AcDbSymbolTableRecord
100
AcDbBlockTableRecord
  2
*D1
  0
BLOCK_RECORD
  5
21B
100
AcDbSymbolTableRecord
100
AcDbBlockTableRecord
  2
*D2
  0
ENDTAB
  0
TABLE
  2
DIMSTYLE
  5
A
100
AcDbSymbolTable
 70
1
100
AcDbDimStyleTable
 71
0
  0
DIMSTYLE
105
21C
100
AcDbSymbolTableRecord
100
AcDbDimStyleTableRecord
  2
STANDARD
 70
0
  3

  4

 40
1.0
 41
3.0
 42
0.0625
 43
0.38
 44
0.18
 45
0.0
 46
0.0
 47
0.01
 48
0.01
140
3.0
141
0.09
142
0.0
143
25.4
144
1.0
145
0.0
146
1.0
147
0.09
 71
1.0
 72
0.0
 73
0
 74
0
 75
0
 76
0
 77
1
 78
8
170
0
171
2
172
0
173
0
174
0
175
0
176
0
177
0
178
0
270
2
271
2
272
2
273
2
274
2
275
0
280
0
281
0
282
0
283
1
284
8
285
0
286
0
287
3
288
0
340
11
341
218
342
218
343
218
344
218
  0
DIMSTYLE
105
21D
100
AcDbSymbolTableRecord
100
AcDbDimStyleTableRecord
  2
DIMSTYLE_1
 70
0
  3

  4

 40
1.0
 41
3.0
 42
0.0625
 43
0.38
 44
0.18
 45
0.0
 46
0.0
 47
0.0
 48
0.0
140
3.0
141
0.09
142
0.0
143
25.4
144
1.0
145
0.0
146
1.0
147
0.09
 71
0.0
 72
0.0
 73
0
 74
0
 75
0
 76
0
 77
1
 78
8
170
0
171
2
172
0
173
0
174
0
175
0
176
0
177
0
178
0
270
2
271
2
272
2
273
2
274
2
275
0
280
0
281
0
282
0
283
1
284
8
285
0
286
0
287
3
288
0
340
11
341
218
342
218
343
218
344
218
  0
ENDTAB
  0
ENDSEC
  0
SECTION
  2
BLOCKS
  0
BLOCK
  5
20
100
AcDbEntity
  8
0
100
AcDbBlockBegin
  2
*Model_Space
 70
0
 10
0.0
 20
0.0
 30
0.0
  3
*Model_Space
  1

  0
ENDBLK
  5
21
100
AcDbEntity
  8
0
100
AcDbBlockEnd
  0
BLOCK
  5
1C
100
AcDbEntity
  8
0
100
AcDbBlockBegin
  2
*Paper_Space
 70
0
 10
0.0
 20
0.0
 30
0.0
  3
*Paper_Space
  1

  0
ENDBLK
  5
1D
100
AcDbEntity
  8
0
100
AcDbBlockEnd
  0
BLOCK
  5
21E
100
AcDbEntity
  8
0
100
AcDbBlockBegin
  2
_FILLED
 70
64
 10
0.0
 20
0.0
  3
_FILLED
  1

  0
SOLID
  5
21F
100
AcDbEntity
  8
0
  6
BYBLOCK
 62
0
100
AcDbTrace
 10
0.0
 20
0.0
 11
-1.0
 21
0.3166666667
 12
-1.0
 22
-0.3166666667
 13
-1.0
 23
-0.3166666667
  0
ENDBLK
  5
220
100
AcDbEntity
  8
0
  6
BYBLOCK
 62
0
100
AcDbBlockEnd
  0
BLOCK
  5
221
100
AcDbEntity
  8
0
100
AcDbBlockBegin
 62
7
  6
CONTINUOUS
  2
*D0
 70
65
 10
0.0
 20
0.0
  3
*D0
  1

  0
LINE
  5
222
100
AcDbEntity
  8
0
100
AcDbLine
 62
7
  6
CONTINUOUS
 10
-21.4282271775
 20
22.1001713375
 11
-21.4282271775
 21
31.6
  0
LINE
  5
223
100
AcDbEntity
  8
0
100
AcDbLine
 62
7
  6
CONTINUOUS
 10
-28.1282444474
 20
0.5
 11
-28.1282444474
 21
31.6
  0
LINE
  5
224
100
AcDbEntity
  8
0
100
AcDbLine
 62
7
  6
CONTINUOUS
 10
-21.4282271775
 20
30.1
 11
-17.4282271775
 21
30.1
  0
LINE
  5
225
100
AcDbEntity
  8
0
100
AcDbLine
 62
7
  6
CONTINUOUS
 10
-17.4282271775
 20
30.1
 11
-24.7782358125
 21
30.1
  0
LINE
  5
226
100
AcDbEntity
  8
0
100
AcDbLine
 62
7
  6
CONTINUOUS
 10
-28.1282444474
 20
30.1
 11
-32.1282444474
 21
30.1
  0
LINE
  5
227
100
AcDbEntity
  8
0
100
AcDbLine
 62
7
  6
CONTINUOUS
 10
-32.1282444474
 20
30.1
 11
-24.7782358125
 21
30.1
  0
INSERT
  5
228
100
AcDbEntity
  8
0
100
AcDbBlockReference
 62
7
  6
CONTINUOUS
  2
_FILLED
 10
-21.4282271775
 20
30.1
 41
3.0
 42
3.0
 43
3.0
 50
180.0
  0
INSERT
  5
229
100
AcDbEntity
  8
0
100
AcDbBlockReference
 62
7
  6
CONTINUOUS
  2
_FILLED
 10
-28.1282444474
 20
30.1
 41
3.0
 42
3.0
 43
3.0
  0
ENDBLK
  5
22A
100
AcDbEntity
  8
0
  6
BYBLOCK
 62
0
100
AcDbBlockEnd
  0
BLOCK
  5
22B
100
AcDbEntity
  8
0
100
AcDbBlockBegin
 62
7
  6
CONTINUOUS
  2
*D1
 70
65
 10
0.0
 20
0.0
  3
*D1
  1

  0
LINE
  5
22C
100
AcDbEntity
  8
0
100
AcDbLine
 62
7
  6
CONTINUOUS
 10
-11.0
 20
22.1001713375
 11
-11.0
 21
31.6
  0
LINE
  5
22D
100
AcDbEntity
  8
0
100
AcDbLine
 62
7
  6
CONTINUOUS
 10
11.0
 20
22.1001713375
 11
11.0
 21
31.6
  0
LINE
  5
22E
100
AcDbEntity
  8
0
100
AcDbLine
 62
7
  6
CONTINUOUS
 10
-11.0
 20
30.1
 11
0.0
 21
30.1
  0
LINE
  5
22F
100
AcDbEntity
  8
0
100
AcDbLine
 62
7
  6
CONTINUOUS
 10
11.0
 20
30.1
 11
0.0
 21
30.1
  0
INSERT
  5
230
100
AcDbEntity
  8
0
100
AcDbBlockReference
 62
7
  6
CONTINUOUS
  2
_FILLED
 10
-11.0
 20
30.1
 41
3.0
 42
3.0
 43
3.0
 50
180.0
  0
INSERT
  5
231
100
AcDbEntity
  8
0
100
AcDbBlockReference
 62
7
  6
CONTINUOUS
  2
_FILLED
 10
11.0
 20
30.1
 41
3.0
 42
3.0
 43
3.0
  0
ENDBLK
  5
232
100
AcDbEntity
  8
0
  6
BYBLOCK
 62
0
100
AcDbBlockEnd
  0
BLOCK
  5
233
100
AcDbEntity
  8
0
100
AcDbBlockBegin
 62
7
  6
CONTINUOUS
  2
*D2
 70
65
 10
0.0
 20
0.0
  3
*D2
  1

  0
LINE
  5
234
100
AcDbEntity
  8
0
100
AcDbLine
 62
7
  6
CONTINUOUS
 10
11.0001713375
 20
22.1
 11
20.5
 21
22.1
  0
LINE
  5
235
100
AcDbEntity
  8
0
100
AcDbLine
 62
7
  6
CONTINUOUS
 10
11.0001713375
 20
-22.1
 11
20.5
 21
-22.1
  0
LINE
  5
236
100
AcDbEntity
  8
0
100
AcDbLine
 62
7
  6
CONTINUOUS
 10
19.0
 20
22.1
 11
19.0
 21
0.0
  0
LINE
  5
237
100
AcDbEntity
  8
0
100
AcDbLine
 62
7
  6
CONTINUOUS
 10
19.0
 20
-22.1
 11
19.0
 21
0.0
  0
INSERT
  5
238
100
AcDbEntity
  8
0
100
AcDbBlockReference
 62
7
  6
CONTINUOUS
  2
_FILLED
 10
19.0
 20
22.1
 41
3.0
 42
3.0
 43
3.0
 50
90.0
  0
INSERT
  5
239
100
AcDbEntity
  8
0
100
AcDbBlockReference
 62
7
  6
CONTINUOUS
  2
_FILLED
 10
19.0
 20
-22.1
 41
3.0
 42
3.0
 43
3.0
 50
270.0
  0
ENDBLK
  5
23A
100
AcDbEntity
  8
0
  6
BYBLOCK
 62
0
100
AcDbBlockEnd
  0
ENDSEC
  0
SECTION
  2
ENTITIES
  0
DIMENSION
  5
23B
100
AcDbEntity
  8
0
100
AcDbDimension
 62
7
  6
CONTINUOUS
  2
*D0
 10
-28.1282444474
 20
30.1
 11
-27.9925215267
 21
30.85
 70
160
 71
2
 42
6.7000172699
  3
DIMSTYLE_1
100
AcDbAlignedDimension
 13
-21.4282271775
 23
22.1001713375
 14
-28.1282444474
 24
0.5
 50
180.0
100
AcDbRotatedDimension
  0
DIMENSION
  5
23C
100
AcDbEntity
  8
0
100
AcDbDimension
 62
7
  6
CONTINUOUS
  2
*D1
 10
11.0
 20
30.1
 11
-2.3571428571
 21
30.85
 70
160
 71
2
 42
22.0
  3
DIMSTYLE_1
100
AcDbAlignedDimension
 13
-11.0
 23
22.1001713375
 14
11.0
 24
22.1001713375
100
AcDbRotatedDimension
  0
DIMENSION
  5
23D
100
AcDbEntity
  8
0
100
AcDbDimension
 62
7
  6
CONTINUOUS
  2
*D2
 10
19.0
 20
-22.1
 11
18.25
 21
-4.3928571429
 70
160
 71
2
 42
44.2
  3
DIMSTYLE_1
100
AcDbAlignedDimension
 13
11.0001713375
 23
22.1
 14
11.0001713375
 24
-22.1
 50
270.0
100
AcDbRotatedDimension
  0
LINE
  5
23E
100
AcDbEntity
  8
RACCORDO
100
AcDbLine
 62
7
  6
CONTINUOUS
 10
-10.5001713375
 20
-22.1
 11
10.5001713375
 21
-22.1
  0
LINE
  5
23F
100
AcDbEntity
  8
RACCORDO
100
AcDbLine
 62
7
  6
CONTINUOUS
 10
-11.0
 20
-21.6001713375
 11
-11.0
 21
21.6001713375
  0
LINE
  5
240
100
AcDbEntity
  8
RACCORDO
100
AcDbLine
 62
253
  6
CONTINUOUS
 10
-10.3945930837
 20
20.8300973546
 11
-10.3945930842
 21
-20.8300973581
  0
LINE
  5
241
100
AcDbEntity
  8
RACCORDO
100
AcDbLine
 62
253
  6
CONTINUOUS
 10
10.3787579845
 20
21.978586647
 11
10.5001713375
 21
22.1
  0
LINE
  5
242
100
AcDbEntity
  8
RACCORDO
100
AcDbLine
 62
253
  6
CONTINUOUS
 10
10.5001713375
 20
-22.1
 11
10.3787579832
 21
-21.9785866456
  0
LINE
  5
243
100
AcDbEntity
  8
RACCORDO
100
AcDbLine
 62
253
  6
CONTINUOUS
 10
10.878586647
 20
21.4787579845
 11
11.0
 21
21.6001713375
  0
LINE
  5
244
100
AcDbEntity
  8
RACCORDO
100
AcDbLine
 62
253
  6
CONTINUOUS
 10
11.0
 20
-21.6001713375
 11
10.8785866456
 21
-21.4787579832
  0
LWPOLYLINE
  5
245
100
AcDbEntity
  8
0
100
AcDbPolyline
 62
7
  6
CONTINUOUS
 90
2
 70
0
 43
0.3500000006
 10
18.2499999046
 20
-3.3928568802
 10
16.7499994469
 20
-3.3928568802
  0
LINE
  5
246
100
AcDbEntity
  8
0
100
AcDbLine
 62
7
  6
CONTINUOUS
 10
-0.4
 20
14.0164579976
 11
-0.4
 21
13.6992947095
  0
LINE
  5
247
100
AcDbEntity
  8
0
100
AcDbLine
 62
7
  6
CONTINUOUS
 10
-0.375
 20
-9.0835419297
 11
-0.375
 21
-13.9164578131
  0
LWPOLYLINE
  5
248
100
AcDbEntity
  8
0
100
AcDbPolyline
 62
7
  6
CONTINUOUS
 90
2
 70
0
 43
0.3500000006
 10
18.2499999046
 20
-1.0357139511
 10
16.7499994469
 20
-1.0357139511
  0
LINE
  5
249
100
AcDbEntity
  8
0
100
AcDbLine
 62
7
  6
CONTINUOUS
 10
0.375
 20
-9.083542
 11
0.375
 21
-13.916458
  0
LINE
  5
24A
100
AcDbEntity
  8
0
100
AcDbLine
 62
7
  6
CONTINUOUS
 10
0.4
 20
14.0164539423
 11
0.4
 21
13.699292884
  0
LWPOLYLINE
  5
24B
100
AcDbEntity
  8
0
100
AcDbPolyline
 62
7
  6
CONTINUOUS
 90
3
 70
0
 43
0.3500000006
 10
17.9642853699
 20
1.0357133102
 10
18.1785709877
 20
0.9642866592
 10
18.4642855225
 20
0.8214288254
  0
LINE
  5
24C
100
AcDbEntity
  8
RACCORDO
100
AcDbLine
 62
253
  6
CONTINUOUS
 10
-10.878586647
 20
-21.4787579845
 11
-11.0
 21
-21.6001713375
  0
LINE
  5
24D
100
AcDbEntity
  8
RACCORDO
100
AcDbLine
 62
253
  6
CONTINUOUS
 10
-10.3787579845
 20
-21.978586647
 11
-10.5001713375
 21
-22.1
  0
LWPOLYLINE
  5
24E
100
AcDbEntity
  8
0
100
AcDbPolyline
 62
7
  6
CONTINUOUS
 90
10
 70
0
 43
0.3500000006
 10
17.749999752
 20
0.9642866592
 10
17.8928575859
 20
1.0357133102
 10
17.9642853699
 20
1.0357133102
 10
18.1071432037
 20
0.8928577423
 10
18.1071432037
 20
0.8214288254
 10
18.0357142868
 20
0.7499999084
 10
17.9642853699
 20
0.7499999084
 10
17.821428669
 20
0.8214288254
 10
17.749999752
 20
0.8928577423
 10
17.749999752
 20
0.9642866592
  0
LINE
  5
24F
100
AcDbEntity
  8
RACCORDO
100
AcDbLine
 62
253
  6
CONTINUOUS
 10
-11.0
 20
21.6001713375
 11
-10.8785866456
 21
21.4787579832
  0
LINE
  5
250
100
AcDbEntity
  8
RACCORDO
100
AcDbLine
 62
253
  6
CONTINUOUS
 10
-10.5001713375
 20
22.1
 11
-10.3787579832
 21
21.9785866456
  0
LINE
  5
251
100
AcDbEntity
  8
RACCORDO
100
AcDbLine
 62
253
  6
CONTINUOUS
 10
10.3945930837
 20
-20.8300973553
 11
10.3945930842
 21
20.8300973573
  0
LINE
  5
252
100
AcDbEntity
  8
RACCORDO
100
AcDbLine
 62
7
  6
CONTINUOUS
 10
11.0
 20
-21.6001713375
 11
11.0
 21
21.6001713375
  0
LWPOLYLINE
  5
253
100
AcDbEntity
  8
0
100
AcDbPolyline
 62
7
  6
CONTINUOUS
 90
3
 70
0
 43
0.3500000006
 10
17.6071430511
 20
-0.5357137985
 10
17.6071430511
 20
-2.0357142563
 10
15.2500001221
 20
-1.3928574028
  0
LWPOLYLINE
  5
254
100
AcDbEntity
  8
0
100
AcDbPolyline
 62
7
  6
CONTINUOUS
 90
3
 70
0
 43
0.3500000006
 10
17.6071430511
 20
-2.8928567276
 10
17.6071430511
 20
-4.3928571854
 10
15.2500001221
 20
-3.7500003319
  0
LWPOLYLINE
  5
255
100
AcDbEntity
  8
0
100
AcDbPolyline
 62
7
  6
CONTINUOUS
 90
7
 70
0
 43
0.3500000006
 10
18.2499999046
 20
3.5357140732
 10
18.2499999046
 20
2.0357136154
 10
16.1071425934
 20
3.5357140732
 10
15.6785713577
 20
3.5357140732
 10
15.2500001221
 20
3.1071428375
 10
15.2500001221
 20
2.4642848511
 10
15.8928569756
 20
2.0357136154
  0
LINE
  5
256
100
AcDbEntity
  8
RACCORDO
100
AcDbLine
 62
7
  6
CONTINUOUS
 10
-10.5001713375
 20
22.1
 11
10.5001713375
 21
22.1
  0
LWPOLYLINE
  5
257
100
AcDbEntity
  8
0
100
AcDbPolyline
 62
7
  6
CONTINUOUS
 90
7
 70
0
 43
0.3500000006
 10
1.5000000329
 20
30.8500000305
 10
0.0
 20
30.8500000305
 10
1.5000000329
 20
32.9928584747
 10
1.5000000329
 20
33.4214274445
 10
1.0714285848
 20
33.850000946
 10
0.4285714127
 20
33.850000946
 10
0.0
 20
33.2071429596
  0
LWPOLYLINE
  5
258
100
AcDbEntity
  8
0
100
AcDbPolyline
 62
7
  6
CONTINUOUS
 90
7
 70
0
 43
0.3500000006
 10
-0.8571428254
 20
30.8500000305
 10
-2.3571427875
 20
30.8500000305
 10
-0.8571428254
 20
32.9928584747
 10
-0.8571428254
 20
33.4214274445
 10
-1.2857142735
 20
33.850000946
 10
-1.9285714102
 20
33.850000946
 10
-2.3571427875
 20
33.2071429596
  0
LWPOLYLINE
  5
259
100
AcDbEntity
  8
0
100
AcDbPolyline
 62
7
  6
CONTINUOUS
 90
10
 70
0
 43
0.3500000006
 10
-26.9210926895
 20
33.850000946
 10
-27.563950676
 20
33.2071429596
 10
-27.9925219116
 20
32.3500004883
 10
-27.9925219116
 20
31.2785735321
 10
-27.563950676
 20
30.8500000305
 10
-26.9210926895
 20
30.8500000305
 10
-26.4925214539
 20
31.2785735321
 10
-26.4925214539
 20
32.1357160034
 10
-26.9210926895
 20
32.5642849731
 10
-27.8496640778
 20
32.5642849731
  0
LINE
  5
25A
100
AcDbEntity
  8
RACCORDO
100
AcDbLine
 62
7
  6
CONTINUOUS
 10
-21.4282271775
 20
-22.1
 11
-26.418425501
 21
-21.9693270581
  0
LINE
  5
25B
100
AcDbEntity
  8
RACCORDO
100
AcDbLine
 62
253
  6
CONTINUOUS
 10
-21.4282271775
 20
-21.6001713375
 11
-26.0648161186
 21
-21.4787579832
  0
LINE
  5
25C
100
AcDbEntity
  8
RACCORDO
100
AcDbLine
 62
253
  6
CONTINUOUS
 10
-27.2340016719
 20
-20.8300973788
 11
-26.7486866925
 21
-20.8087575806
  0
LWPOLYLINE
  5
25D
100
AcDbEntity
  8
0
100
AcDbPolyline
 62
7
  6
CONTINUOUS
 90
3
 70
0
 43
0.3500000006
 10
-24.9210920792
 20
31.1357156982
 10
-24.9925209961
 20
30.9214266815
 10
-25.13537883
 20
30.6357155457
  0
LINE
  5
25E
100
AcDbEntity
  8
0
100
AcDbLine
 62
7
  6
CONTINUOUS
 10
-28.0306271348
 20
-8.8335418244
 11
-28.0306578781
 21
-8.8335419111
  0
LWPOLYLINE
  5
25F
100
AcDbEntity
  8
0
100
AcDbPolyline
 62
7
  6
CONTINUOUS
 90
3
 70
0
 10
-27.8772924208
 20
-14.166458
 10
-27.7482809344
 20
-17.4302485115
 10
-27.5853813261
 20
-20.8322351581
  0
LWPOLYLINE
  5
260
100
AcDbEntity
  8
0
100
AcDbPolyline
 62
7
  6
CONTINUOUS
 90
7
 70
0
 10
-28.0325261699
 20
8.7500005865
 10
-28.0675245833
 20
6.9692886907
 10
-28.1130789987
 20
3.4831099617
 10
-28.1282444335
 20
-0.0033334725
 10
-28.1130208884
 20
-3.4897766272
 10
-28.0674083641
 20
-6.9759545175
 10
-28.0306894078
 20
-8.833542
  0
LINE
  5
261
100
AcDbEntity
  8
0
100
AcDbLine
 62
7
  6
CONTINUOUS
 10
-28.0189467618
 20
9.3500001875
 11
-28.0325261699
 21
8.7500005865
  0
LINE
  5
262
100
AcDbEntity
  8
0
100
AcDbLine
 62
7
  6
CONTINUOUS
 10
-27.9915824539
 20
10.4549378163
 11
-28.0074399158
 21
9.8146326991
  0
LINE
  5
263
100
AcDbEntity
  8
0
100
AcDbLine
 62
7
  6
CONTINUOUS
 10
-27.8960225427
 20
13.5870676898
 11
-27.9915824539
 21
10.4549378163
  0
LWPOLYLINE
  5
264
100
AcDbEntity
  8
0
100
AcDbPolyline
 62
7
  6
CONTINUOUS
 90
3
 70
0
 10
-27.5853813261
 20
20.8322351581
 10
-27.7485713711
 20
17.4235885523
 10
-27.8763673145
 20
14.1664665836
  0
LWPOLYLINE
  5
265
100
AcDbEntity
  8
0
100
AcDbPolyline
 62
7
  6
CONTINUOUS
 90
4
 70
0
 43
0.3500000006
 10
-23.9210940399
 20
33.2071429596
 10
-23.9210940399
 20
33.850000946
 10
-22.4210935822
 20
33.850000946
 10
-23.2782360535
 20
30.8500000305
  0
LINE
  5
266
100
AcDbEntity
  8
RACCORDO
100
AcDbLine
 62
7
  6
CONTINUOUS
 10
-21.4282271775
 20
-22.1
 11
-21.4282271775
 21
22.1
  0
LWPOLYLINE
  5
267
100
AcDbEntity
  8
0
100
AcDbPolyline
 62
7
  6
CONTINUOUS
 90
10
 70
0
 43
0.3500000006
 10
-24.9925209961
 20
31.3500001831
 10
-24.9210920792
 20
31.2071423492
 10
-24.9210920792
 20
31.1357156982
 10
-25.063949913
 20
30.9928578644
 10
-25.13537883
 20
30.9928578644
 10
-25.2068077469
 20
31.0642845154
 10
-25.2068077469
 20
31.1357156982
 10
-25.13537883
 20
31.2785735321
 10
-25.063949913
 20
31.3500001831
 10
-24.9925209961
 20
31.3500001831
  0
LINE
  5
268
100
AcDbEntity
  8
RACCORDO
100
AcDbLine
 62
253
  6
CONTINUOUS
 10
-26.0648160659
 20
21.4787579845
 11
-21.4282271775
 21
21.6001713375
  0
LINE
  5
269
100
AcDbEntity
  8
RACCORDO
100
AcDbLine
 62
7
  6
CONTINUOUS
 10
-26.4184254858
 20
21.9693270585
 11
-21.4282271775
 21
22.1
  0
LINE
  5
26A
100
AcDbEntity
  8
RACCORDO
100
AcDbLine
 62
253
  6
CONTINUOUS
 10
-27.2339882977
 20
20.8300968077
 11
-26.7486866648
 21
20.8087575834
  0
ARC
  5
26B
100
AcDbEntity
  8
RACCORDO
100
AcDbCircle
 62
253
  6
CONTINUOUS
 10
-10.3783243438
 20
-21.4783243438
 40
0.5002656608
100
AcDbArc
 50
180.0496655042
 51
269.9503344958
  0
ARC
  5
26C
100
AcDbEntity
  8
0
100
AcDbCircle
 62
7
  6
CONTINUOUS
 10
-0.1255864698
 20
-13.9164294155
 40
0.2494135319
100
AcDbArc
 50
180.0065235512
 51
269.9942812411
  0
ARC
  5
26D
100
AcDbEntity
  8
0
100
AcDbCircle
 62
7
  6
CONTINUOUS
 10
-0.1249713032
 20
-9.082945802
 40
0.2494038035
100
AcDbArc
 50
90.0061393201
 51
179.9947666718
  0
ARC
  5
26E
100
AcDbEntity
  8
RACCORDO
100
AcDbCircle
 62
253
  6
CONTINUOUS
 10
-18539.6611579479
 20
0.0000003223
 40
18528.8121637104
100
AcDbArc
 50
359.9356540373
 51
0.0643459607
  0
ARC
  5
26F
100
AcDbEntity
  8
0
100
AcDbCircle
 62
7
  6
CONTINUOUS
 10
-0.2528086256
 20
10.5248069792
 40
1.6621830021
100
AcDbArc
 50
185.4678791608
 51
221.9743321439
  0
ARC
  5
270
100
AcDbEntity
  8
0
100
AcDbCircle
 62
7
  6
CONTINUOUS
 10
-0.2537648357
 20
10.5239387327
 40
1.0608908442
100
AcDbArc
 50
185.4698266555
 51
221.9658563527
  0
ARC
  5
271
100
AcDbEntity
  8
0
100
AcDbCircle
 62
7
  6
CONTINUOUS
 10
-9.9318403394
 20
11.4999999999
 40
11.8935183619
100
AcDbArc
 50
354.5323592783
 51
5.4677109119
  0
ARC
  5
272
100
AcDbEntity
  8
0
100
AcDbCircle
 62
7
  6
CONTINUOUS
 10
-9.9287139566
 20
11.4997125063
 40
11.8903788102
100
AcDbArc
 50
354.5322808894
 51
355.1560361712
  0
ARC
  5
273
100
AcDbEntity
  8
0
100
AcDbCircle
 62
7
  6
CONTINUOUS
 10
-9.9273058434
 20
11.5004188473
 40
11.8889645878
100
AcDbArc
 50
5.1909345414
 51
5.4677824094
  0
ARC
  5
274
100
AcDbEntity
  8
0
100
AcDbCircle
 62
7
  6
CONTINUOUS
 10
-9.935913376
 20
11.4998270581
 40
11.2975895506
100
AcDbArc
 50
2.1770112811
 51
4.3914537958
  0
ARC
  5
275
100
AcDbEntity
  8
0
100
AcDbCircle
 62
7
  6
CONTINUOUS
 10
-9.9331957799
 20
11.5000000001
 40
11.2948669205
100
AcDbArc
 50
354.5327911494
 51
5.467154979
  0
ARC
  5
276
100
AcDbEntity
  8
0
100
AcDbCircle
 62
7
  6
CONTINUOUS
 10
-9.9315174751
 20
11.5001570385
 40
11.2931812885
100
AcDbArc
 50
4.3914922725
 51
5.4671735123
  0
ARC
  5
277
100
AcDbEntity
  8
0
100
AcDbCircle
 62
7
  6
CONTINUOUS
 10
-9.931037529
 20
11.4998000822
 40
11.2926994404
100
AcDbArc
 50
354.5327607627
 51
355.4562847871
  0
ARC
  5
278
100
AcDbEntity
  8
0
100
AcDbCircle
 62
7
  6
CONTINUOUS
 10
-9.9306293943
 20
11.5000490163
 40
11.2923009444
100
AcDbArc
 50
1.6096859361
 51
2.1768862966
  0
ARC
  5
279
100
AcDbEntity
  8
RACCORDO
100
AcDbCircle
 62
253
  6
CONTINUOUS
 10
-10.3783243405
 20
21.4783243405
 40
0.5002656627
100
AcDbArc
 50
90.0496657208
 51
179.9503342792
  0
ARC
  5
27A
100
AcDbEntity
  8
0
100
AcDbCircle
 62
7
  6
CONTINUOUS
 10
-0.0017854902
 20
12.2434321945
 40
2.0069020744
100
AcDbArc
 50
62.484477243
 51
72.7143031884
  0
ARC
  5
27B
100
AcDbEntity
  8
0
100
AcDbCircle
 62
7
  6
CONTINUOUS
 10
-0.0031875104
 20
12.2443346001
 40
2.00689878
100
AcDbArc
 50
41.9863745617
 51
52.1932858476
  0
ARC
  5
27C
100
AcDbEntity
  8
0
100
AcDbCircle
 62
7
  6
CONTINUOUS
 10
-0.0014409545
 20
12.245516707
 40
2.0048942862
100
AcDbArc
 50
52.2120127938
 51
62.4656884404
  0
ARC
  5
27D
100
AcDbEntity
  8
0
100
AcDbCircle
 62
7
  6
CONTINUOUS
 10
-0.0018236596
 20
10.7536768529
 40
2.0045548576
100
AcDbArc
 50
309.9442988408
 51
318.0296379811
  0
ARC
  5
27E
100
AcDbEntity
  8
0
100
AcDbCircle
 62
7
  6
CONTINUOUS
 10
-0.000044733
 20
12.2478338141
 40
2.0021557219
100
AcDbArc
 50
107.2731026311
 51
138.0259471993
  0
ARC
  5
27F
100
AcDbEntity
  8
0
100
AcDbCircle
 62
7
  6
CONTINUOUS
 10
-0.0046393205
 20
12.2519339229
 40
1.995997758
100
AcDbArc
 50
137.3369968808
 51
138.0252669244
  0
ARC
  5
280
100
AcDbEntity
  8
0
100
AcDbCircle
 62
7
  6
CONTINUOUS
 10
-0.2530038124
 20
12.4753676853
 40
1.661920325
100
AcDbArc
 50
138.0253595329
 51
174.5324843693
  0
ARC
  5
281
100
AcDbEntity
  8
0
100
AcDbCircle
 62
7
  6
CONTINUOUS
 10
-0.0067685371
 20
10.7582707923
 40
1.4113039045
100
AcDbArc
 50
314.9037940346
 51
318.0333677263
  0
ARC
  5
282
100
AcDbEntity
  8
0
100
AcDbCircle
 62
7
  6
CONTINUOUS
 10
-0.0016270099
 20
12.2460635568
 40
1.4045833225
100
AcDbArc
 50
41.9768072164
 51
50.1452160198
  0
ARC
  5
283
100
AcDbEntity
  8
0
100
AcDbCircle
 62
7
  6
CONTINUOUS
 10
-0.0006552299
 20
12.2467875056
 40
1.4034094816
100
AcDbArc
 50
51.6907614059
 51
67.8055126891
  0
ARC
  5
284
100
AcDbEntity
  8
0
100
AcDbCircle
 62
7
  6
CONTINUOUS
 10
-0.0000342582
 20
12.2478140488
 40
1.4021772475
100
AcDbArc
 50
110.7516678913
 51
138.0313221588
  0
ARC
  5
285
100
AcDbEntity
  8
0
100
AcDbCircle
 62
7
  6
CONTINUOUS
 10
-0.0009619952
 20
12.2493100556
 40
1.4004164334
100
AcDbArc
 50
119.8438004401
 51
120.1258028375
  0
ARC
  5
286
100
AcDbEntity
  8
0
100
AcDbCircle
 62
7
  6
CONTINUOUS
 10
-0.0012144995
 20
12.2509746585
 40
1.3988035017
100
AcDbArc
 50
110.7523136367
 51
111.4795018587
  0
ARC
  5
287
100
AcDbEntity
  8
0
100
AcDbCircle
 62
7
  6
CONTINUOUS
 10
-0.0028419738
 20
12.2503193196
 40
1.3984143462
100
AcDbArc
 50
137.6156791732
 51
138.0306946261
  0
ARC
  5
288
100
AcDbEntity
  8
0
100
AcDbCircle
 62
7
  6
CONTINUOUS
 10
-0.2536855032
 20
12.476000757
 40
1.0609911927
100
AcDbArc
 50
138.0332691753
 51
174.5342990829
  0
ARC
  5
289
100
AcDbEntity
  8
0
100
AcDbCircle
 62
7
  6
CONTINUOUS
 10
-0.549999832
 20
14.0164594808
 40
0.149999049
100
AcDbArc
 50
359.9998034921
 51
107.2732738844
  0
ARC
  5
28A
100
AcDbEntity
  8
0
100
AcDbCircle
 62
7
  6
CONTINUOUS
 10
-0.5498382744
 20
13.6993271161
 40
0.1498380379
100
AcDbArc
 50
290.7730781016
 51
359.9876126257
  0
ARC
  5
28B
100
AcDbEntity
  8
0
100
AcDbCircle
 62
7
  6
CONTINUOUS
 10
-0.5461447965
 20
14.0164500358
 40
0.1461447967
100
AcDbArc
 50
0.003122123
 51
1.0121651698
  0
ARC
  5
28C
100
AcDbEntity
  8
RACCORDO
100
AcDbCircle
 62
253
  6
CONTINUOUS
 10
0.0000003849
 20
-5837.23169339
 40
5815.262368467
100
AcDbArc
 50
89.8977416177
 51
90.1022583899
  0
ARC
  5
28D
100
AcDbEntity
  8
RACCORDO
100
AcDbCircle
 62
253
  6
CONTINUOUS
 10
10.3783243405
 20
-21.4783243405
 40
0.5002656627
100
AcDbArc
 50
270.0496657161
 51
359.9503342839
  0
ARC
  5
28E
100
AcDbEntity
  8
0
100
AcDbCircle
 62
7
  6
CONTINUOUS
 10
0.1255901435
 20
-9.0835706796
 40
0.2494098581
100
AcDbArc
 50
0.0065509709
 51
89.9978989648
  0
ARC
  5
28F
100
AcDbEntity
  8
0
100
AcDbCircle
 62
7
  6
CONTINUOUS
 10
0.1249713417
 20
-13.9170567555
 40
0.2494012464
100
AcDbArc
 50
270.0070071731
 51
359.9947849094
  0
ARC
  5
290
100
AcDbEntity
  8
0
100
AcDbCircle
 62
7
  6
CONTINUOUS
 10
0.0017795603
 20
12.2434447384
 40
2.0068885809
100
AcDbArc
 50
107.2856489915
 51
117.4907887841
  0
ARC
  5
291
100
AcDbEntity
  8
0
100
AcDbCircle
 62
7
  6
CONTINUOUS
 10
0.003151932
 20
12.2443351263
 40
2.0068766878
100
AcDbArc
 50
127.7811615465
 51
137.3282099014
  0
ARC
  5
292
100
AcDbEntity
  8
0
100
AcDbCircle
 62
7
  6
CONTINUOUS
 10
0.0014482593
 20
12.2455020095
 40
2.0049107832
100
AcDbArc
 50
117.5095288109
 51
127.7631112568
  0
ARC
  5
293
100
AcDbEntity
  8
0
100
AcDbCircle
 62
7
  6
CONTINUOUS
 10
0.0000000011
 20
10.7522639705
 40
2.0022354235
100
AcDbArc
 50
221.9749448917
 51
318.0248025374
  0
ARC
  5
294
100
AcDbEntity
  8
0
100
AcDbCircle
 62
7
  6
CONTINUOUS
 10
0.0000460612
 20
12.2478358864
 40
2.0021531028
100
AcDbArc
 50
41.9737196987
 51
72.7269137584
  0
ARC
  5
295
100
AcDbEntity
  8
0
100
AcDbCircle
 62
7
  6
CONTINUOUS
 10
0.2527748413
 20
12.4751629334
 40
1.6622282412
100
AcDbArc
 50
5.4679878068
 51
41.9743584288
  0
ARC
  5
296
100
AcDbEntity
  8
0
100
AcDbCircle
 62
7
  6
CONTINUOUS
 10
0.2530642517
 20
10.5245784727
 40
1.6618393824
100
AcDbArc
 50
318.0254059952
 51
354.5324770443
  0
ARC
  5
297
100
AcDbEntity
  8
0
100
AcDbCircle
 62
7
  6
CONTINUOUS
 10
0.0070232628
 20
10.7585011445
 40
1.4116473377
100
AcDbArc
 50
221.966731684
 51
224.9848708014
  0
ARC
  5
298
100
AcDbEntity
  8
0
100
AcDbCircle
 62
7
  6
CONTINUOUS
 10
0.0010868466
 20
12.2454807262
 40
1.4047585589
100
AcDbArc
 50
111.4847964249
 51
119.2939767907
  0
ARC
  5
299
100
AcDbEntity
  8
0
100
AcDbCircle
 62
7
  6
CONTINUOUS
 10
0.0007350982
 20
12.2466999603
 40
1.4035257519
100
AcDbArc
 50
120.1322467792
 51
137.6087849133
  0
ARC
  5
29A
100
AcDbEntity
  8
0
100
AcDbCircle
 62
7
  6
CONTINUOUS
 10
0.000000018
 20
10.7523741403
 40
1.4023370435
100
AcDbArc
 50
221.9724147744
 51
318.0276047683
  0
ARC
  5
29B
100
AcDbEntity
  8
0
100
AcDbCircle
 62
7
  6
CONTINUOUS
 10
0.0000335782
 20
12.2478130559
 40
1.4021787112
100
AcDbArc
 50
41.969114927
 51
69.2486022348
  0
ARC
  5
29C
100
AcDbEntity
  8
0
100
AcDbCircle
 62
7
  6
CONTINUOUS
 10
0.0009210924
 20
12.250215733
 40
1.3996174456
100
AcDbArc
 50
67.8091589319
 51
69.2477529591
  0
ARC
  5
29D
100
AcDbEntity
  8
0
100
AcDbCircle
 62
7
  6
CONTINUOUS
 10
0.2541443001
 20
12.4749866197
 40
1.0609773342
100
AcDbArc
 50
5.4697882889
 51
41.9718323563
  0
ARC
  5
29E
100
AcDbEntity
  8
0
100
AcDbCircle
 62
7
  6
CONTINUOUS
 10
0.2537133005
 20
10.5239830716
 40
1.0609590438
100
AcDbArc
 50
318.0343057739
 51
354.5347015489
  0
ARC
  5
29F
100
AcDbEntity
  8
0
100
AcDbCircle
 62
7
  6
CONTINUOUS
 10
0.5498524142
 20
14.0164127711
 40
0.149852018
100
AcDbArc
 50
72.7269865963
 51
179.9842582504
  0
ARC
  5
2A0
100
AcDbEntity
  8
0
100
AcDbCircle
 62
7
  6
CONTINUOUS
 10
0.5498471123
 20
13.6993262692
 40
0.149847116
100
AcDbArc
 50
180.0127652262
 51
249.2240216978
  0
ARC
  5
2A1
100
AcDbEntity
  8
0
100
AcDbCircle
 62
7
  6
CONTINUOUS
 10
0.5511514979
 20
14.0201340875
 40
0.146147391
100
AcDbArc
 50
72.730209745
 51
73.7390271729
  0
ARC
  5
2A2
100
AcDbEntity
  8
0
100
AcDbCircle
 62
7
  6
CONTINUOUS
 10
9.93183991
 20
11.5000000001
 40
11.8935179345
100
AcDbArc
 50
174.5323590826
 51
185.4677111091
  0
ARC
  5
2A3
100
AcDbEntity
  8
0
100
AcDbCircle
 62
7
  6
CONTINUOUS
 10
9.9288250643
 20
11.5002773431
 40
11.8904903795
100
AcDbArc
 50
174.5322832134
 51
175.1903181235
  0
ARC
  5
2A4
100
AcDbEntity
  8
0
100
AcDbCircle
 62
7
  6
CONTINUOUS
 10
9.9279148239
 20
11.4996381515
 40
11.8895762286
100
AcDbArc
 50
185.0337851724
 51
185.467776203
  0
ARC
  5
2A5
100
AcDbEntity
  8
0
100
AcDbCircle
 62
7
  6
CONTINUOUS
 10
9.9311790953
 20
11.5001879295
 40
11.2928415049
100
AcDbArc
 50
174.5327720613
 51
185.4671966133
  0
ARC
  5
2A6
100
AcDbEntity
  8
RACCORDO
100
AcDbCircle
 62
253
  6
CONTINUOUS
 10
10.3783243437
 20
21.4783243437
 40
0.5002656609
100
AcDbArc
 50
0.0496655093
 51
89.9503344907
  0
ARC
  5
2A7
100
AcDbEntity
  8
RACCORDO
100
AcDbCircle
 62
253
  6
CONTINUOUS
 10
-0.0000003861
 20
5837.2316941562
 40
5815.2623692333
100
AcDbArc
 50
269.8977416177
 51
270.1022583899
  0
ARC
  5
2A8
100
AcDbEntity
  8
RACCORDO
100
AcDbCircle
 62
253
  6
CONTINUOUS
 10
18539.6611454802
 20
-0.0000003223
 40
18528.8121512427
100
AcDbArc
 50
179.9356540373
 51
180.0643459607
  0
ARC
  5
2A9
100
AcDbEntity
  8
0
100
AcDbCircle
 62
7
  6
CONTINUOUS
 10
793.4536746837
 20
-11.9838627177
 40
821.7372873624
100
AcDbArc
 50
178.287299031
 51
178.4320186049
  0
ARC
  5
2AA
100
AcDbEntity
  8
0
100
AcDbCircle
 62
7
  6
CONTINUOUS
 10
780.6680327206
 20
-11.6190480395
 40
808.9464528013
100
AcDbArc
 50
178.2820076931
 51
178.442606212
  0
ARC
  5
2AB
100
AcDbEntity
  8
0
100
AcDbCircle
 62
7
  6
CONTINUOUS
 10
609.6707880566
 20
-6.7869963923
 40
637.8886738333
100
AcDbArc
 50
178.2795007056
 51
178.4379182641
  0
ARC
  5
2AC
100
AcDbEntity
  8
0
100
AcDbCircle
 62
7
  6
CONTINUOUS
 10
602.4193404263
 20
-6.5805099094
 40
630.6342937825
100
AcDbArc
 50
178.2592717851
 51
178.4548932361
  0
ARC
  5
2AD
100
AcDbEntity
  8
RACCORDO
100
AcDbCircle
 62
253
  6
CONTINUOUS
 10
459.0271801032
 20
-0.0000000004
 40
486.7071294526
100
AcDbArc
 50
177.547105361
 51
182.4528946387
  0
ARC
  5
2AE
100
AcDbEntity
  8
RACCORDO
100
AcDbCircle
 62
253
  6
CONTINUOUS
 10
458.2361652651
 20
-0.0000003222
 40
485.4310569041
100
AcDbArc
 50
177.5431744091
 51
182.4568255145
  0
ARC
  5
2AF
100
AcDbEntity
  8
0
100
AcDbCircle
 62
7
  6
CONTINUOUS
 10
371.9722401285
 20
0.0008724701
 40
400.0999152204
100
AcDbArc
 50
181.3010333706
 51
181.9934150479
  0
ARC
  5
2B0
100
AcDbEntity
  8
0
100
AcDbCircle
 62
7
  6
CONTINUOUS
 10
-183.8186033514
 20
17.3170578233
 40
155.9741485773
100
AcDbArc
 50
358.3030455954
 51
358.6217373593
  0
ARC
  5
2B1
100
AcDbEntity
  8
0
100
AcDbCircle
 62
7
  6
CONTINUOUS
 10
-180.2323862644
 20
17.2196152664
 40
152.3866244339
100
AcDbArc
 50
358.2753221191
 51
358.6339909344
  0
ARC
  5
2B2
100
AcDbEntity
  8
0
100
AcDbCircle
 62
7
  6
CONTINUOUS
 10
-170.7720592069
 20
14.2447775438
 40
142.8451137107
100
AcDbArc
 50
358.0616394862
 51
358.4443129069
  0
ARC
  5
2B3
100
AcDbEntity
  8
0
100
AcDbCircle
 62
7
  6
CONTINUOUS
 10
-165.2697669934
 20
14.0761849522
 40
137.3402694007
100
AcDbArc
 50
358.0581470135
 51
358.4417627066
  0
ARC
  5
2B4
100
AcDbEntity
  8
0
100
AcDbCircle
 62
7
  6
CONTINUOUS
 10
-163.0872647382
 20
16.6974465864
 40
135.2261473217
100
AcDbArc
 50
358.3165486039
 51
358.4901049546
  0
ARC
  5
2B5
100
AcDbEntity
  8
0
100
AcDbCircle
 62
7
  6
CONTINUOUS
 10
-157.028343616
 20
16.5270718589
 40
129.1648397463
100
AcDbArc
 50
358.2966712694
 51
358.5175539777
  0
ARC
  5
2B6
100
AcDbEntity
  8
0
100
AcDbCircle
 62
7
  6
CONTINUOUS
 10
-153.2026478597
 20
13.788234911
 40
125.2621695282
100
AcDbArc
 50
358.1820973338
 51
358.4100492794
  0
ARC
  5
2B7
100
AcDbEntity
  8
0
100
AcDbCircle
 62
7
  6
CONTINUOUS
 10
-149.3259531802
 20
13.6710661603
 40
121.3837131088
100
AcDbArc
 50
358.2042239463
 51
358.3972729596
  0
ARC
  5
2B8
100
AcDbEntity
  8
0
100
AcDbCircle
 62
7
  6
CONTINUOUS
 10
-17.58986065
 20
13.2810325958
 40
10.3113272292
100
AcDbArc
 50
178.1004901684
 51
178.410777165
  0
ARC
  5
2B9
100
AcDbEntity
  8
0
100
AcDbCircle
 62
7
  6
CONTINUOUS
 10
-25.5047647542
 20
13.5012117079
 40
2.3933613071
100
AcDbArc
 50
178.4247942086
 51
178.6157955515
  0
ARC
  5
2BA
100
AcDbEntity
  8
0
100
AcDbCircle
 62
7
  6
CONTINUOUS
 10
-25.5715329657
 20
13.5027772997
 40
2.3265747606
100
AcDbArc
 50
178.4641659047
 51
178.6146140783
  0
ARC
  5
2BB
100
AcDbEntity
  8
RACCORDO
100
AcDbCircle
 62
253
  6
CONTINUOUS
 10
-26.0342078667
 20
-20.7779450196
 40
1.2009812539
100
AcDbArc
 50
182.4889517466
 51
268.5396609267
  0
ARC
  5
2BC
100
AcDbEntity
  8
RACCORDO
100
AcDbCircle
 62
253
  6
CONTINUOUS
 10
-26.0342081643
 20
20.7779453801
 40
1.2009812526
100
AcDbArc
 50
91.4603228061
 51
177.5110647193
  0
ARC
  5
2BD
100
AcDbEntity
  8
RACCORDO
100
AcDbCircle
 62
7
  6
CONTINUOUS
 10
-26.3870096076
 20
-20.7697383612
 40
1.2
100
AcDbArc
 50
182.985352211
 51
268.5
  0
ARC
  5
2BE
100
AcDbEntity
  8
RACCORDO
100
AcDbCircle
 62
7
  6
CONTINUOUS
 10
-26.3870096077
 20
20.7697383612
 40
1.2
100
AcDbArc
 50
91.5
 51
177.0146477891
  0
LINE
  5
2BF
100
AcDbEntity
  8
0
100
AcDbLine
 62
7
  6
CONTINUOUS
 10
-0.1250021182
 20
-14.1664578025
 11
-0.0416673087
 21
-14.1664579781
  0
LINE
  5
2C0
100
AcDbEntity
  8
0
100
AcDbLine
 62
7
  6
CONTINUOUS
 10
-0.0416673087
 20
-14.1664579781
 11
0.0416673527
 21
-14.1664579781
  0
LINE
  5
2C1
100
AcDbEntity
  8
0
100
AcDbLine
 62
7
  6
CONTINUOUS
 10
0.0416673527
 20
-14.1664579781
 11
0.125001843
 21
-14.1664578025
  0
LINE
  5
2C2
100
AcDbEntity
  8
0
100
AcDbLine
 62
7
  6
CONTINUOUS
 10
0.1249982361
 20
-8.8335418244
 11
0.0416660205
 21
-8.8335419805
  0
LINE
  5
2C3
100
AcDbEntity
  8
0
100
AcDbLine
 62
7
  6
CONTINUOUS
 10
0.0416660205
 20
-8.8335419805
 11
-0.0416660749
 21
-8.8335419805
  0
LINE
  5
2C4
100
AcDbEntity
  8
0
100
AcDbLine
 62
7
  6
CONTINUOUS
 10
-0.0416660749
 20
-8.8335419805
 11
-0.0833320703
 21
-8.8335419219
  0
LINE
  5
2C5
100
AcDbEntity
  8
0
100
AcDbLine
 62
7
  6
CONTINUOUS
 10
-0.0833320703
 20
-8.8335419219
 11
-0.1249980272
 21
-8.8335418244
  0
LINE
  5
2C6
100
AcDbEntity
  8
0
100
AcDbLine
 62
7
  6
CONTINUOUS
 10
-0.1249993041
 20
-8.8335418244
 11
0.1249993025
 21
-8.8335418244
  0
LINE
  5
2C7
100
AcDbEntity
  8
0
100
AcDbLine
 62
7
  6
CONTINUOUS
 10
0.1250007827
 20
-14.1664578025
 11
-0.1250007845
 21
-14.1664578025
  0
SPLINE
  5
2C8
100
AcDbEntity
  8
RACCORDO
100
AcDbSpline
 62
253
  6
CONTINUOUS
 70
0
 71
3
 72
18
 73
14
 74
12
 42
0.0000001
 43
0.0000001
 44
0.0000000001
 12
-0.4674639429
 22
0.0018790028
 32
0.0
 13
-0.2435841541
 23
0.3989897598
 33
0.0
 40
0.0
 40
0.0
 40
0.0
 40
0.0
 40
0.1943347861
 40
0.3803391683
 40
0.5506966732
 40
0.6998112628
 40
0.8227571129
 40
0.8731596077
 40
0.9155628311
 40
0.9495619138
 40
0.9749676911
 40
0.9916998175
 40
1.0
 40
1.0
 40
1.0
 40
1.0
 10
-10.3945921873
 20
-20.8300968077
 30
0.0
 10
-10.4248736891
 20
-20.8299750891
 30
0.0
 10
-10.4841380575
 20
-20.8295022617
 30
0.0
 10
-10.5699385408
 20
-20.8281176766
 30
0.0
 10
-10.6486798719
 20
-20.8260983091
 30
0.0
 10
-10.7175693031
 20
-20.8235336495
 30
0.0
 10
-10.7677582905
 20
-20.8208946896
 30
0.0
 10
-10.8012789759
 20
-20.8184666579
 30
0.0
 10
-10.8209865771
 20
-20.8167076083
 30
0.0
 10
-10.836678003
 20
-20.8148745417
 30
0.0
 10
-10.848576641
 20
-20.8130909597
 30
0.0
 10
-10.8559021543
 20
-20.8112429391
 30
0.0
 10
-10.8600049341
 20
-20.8098614793
 30
0.0
 10
-10.8606788651
 20
-20.8087575834
 30
0.0
 11
-10.3945921873
 21
-20.8300968077
 31
0.0
 11
-10.4854344845
 21
-20.8293656939
 31
0.0
 11
-10.5723737508
 21
-20.8279345784
 31
0.0
 11
-10.6519830908
 21
-20.8258497514
 31
0.0
 11
-10.7216384666
 21
-20.8231868775
 31
0.0
 11
-10.7790250989
 21
-20.8200333072
 31
0.0
 11
-10.8025231619
 21
-20.8183049643
 31
0.0
 11
-10.8222623792
 21
-20.8164937599
 31
0.0
 11
-10.8380443395
 21
-20.814614336
 31
0.0
 11
-10.849763022
 21
-20.8126853725
 31
0.0
 11
-10.8573355046
 21
-20.8107265586
 31
0.0
 11
-10.8606788651
 21
-20.8087575834
 31
0.0
  0
SPLINE
  5
2C9
100
AcDbEntity
  8
RACCORDO
100
AcDbSpline
 62
253
  6
CONTINUOUS
 70
0
 71
3
 72
21
 73
17
 74
15
 42
0.0000001
 43
0.0000001
 44
0.0000000001
 12
0.5092882247
 22
1.029766455
 32
0.0
 13
0.0014442248
 23
1.1488217276
 33
0.0
 40
0.0
 40
0.0
 40
0.0
 40
0.0
 40
0.0025180147
 40
0.0072873239
 40
0.0143192945
 40
0.02360685
 40
0.0488920223
 40
0.0829235478
 40
0.1254109579
 40
0.1759900663
 40
0.2342086352
 40
0.2995741338
 40
0.4493742288
 40
0.6201195451
 40
0.8058696729
 40
1.0
 40
1.0
 40
1.0
 40
1.0
 10
10.3787579832
 20
-21.9785866456
 30
0.0
 10
10.3791854482
 20
-21.9777223233
 30
0.0
 10
10.3796389567
 20
-21.9749120125
 30
0.0
 10
10.3803760997
 20
-21.9695166417
 30
0.0
 10
10.3810384257
 20
-21.9614466459
 30
0.0
 10
10.3821066235
 20
-21.9455613284
 30
0.0
 10
10.3833017479
 20
-21.9193068777
 30
0.0
 10
10.3846541033
 20
-21.8803492463
 30
0.0
 10
10.385957616
 20
-21.8316936913
 30
0.0
 10
10.3872146894
 20
-21.7737744943
 30
0.0
 10
10.3884054297
 20
-21.707090605
 30
0.0
 10
10.3899621431
 20
-21.6024121692
 30
0.0
 10
10.3916088731
 20
-21.4546397536
 30
0.0
 10
10.3931057968
 20
-21.2607640297
 30
0.0
 10
10.3941425742
 20
-21.0499092168
 30
0.0
 10
10.3944996418
 20
-20.9044377367
 30
0.0
 10
10.3945930977
 20
-20.8300973574
 30
0.0
 11
10.3787579832
 21
-21.9785866456
 31
0.0
 11
10.3794894968
 21
-21.9757879132
 31
0.0
 11
10.3802209315
 21
-21.9703578639
 31
0.0
 11
10.380950219
 21
-21.9623123625
 31
0.0
 11
10.3816752912
 21
-21.9516672736
 31
0.0
 11
10.3831047949
 21
-21.9226542906
 31
0.0
 11
10.3844959472
 21
-21.8835828622
 31
0.0
 11
10.3858368691
 21
-21.8347907861
 31
0.0
 11
10.3871165896
 21
-21.7766984553
 31
0.0
 11
10.3883252274
 21
-21.7098265671
 31
0.0
 11
10.389453014
 21
-21.634741672
 31
0.0
 11
10.3914277542
 21
-21.4626592623
 31
0.0
 11
10.3929736258
 21
-21.2665092696
 31
0.0
 11
10.3940411495
 21
-21.0531179884
 31
0.0
 11
10.3945930977
 21
-20.8300973574
 31
0.0
  0
SPLINE
  5
2CA
100
AcDbEntity
  8
RACCORDO
100
AcDbSpline
 62
253
  6
CONTINUOUS
 70
0
 71
3
 72
21
 73
17
 74
15
 42
0.0000001
 43
0.0000001
 44
0.0000000001
 12
0.0014442233
 22
-1.1488217283
 32
0.0
 13
0.5092880171
 23
-1.0297665584
 33
0.0
 40
0.0
 40
0.0
 40
0.0
 40
0.0
 40
0.1941303269
 40
0.3798804547
 40
0.5506257709
 40
0.700425866
 40
0.7657913647
 40
0.8240099336
 40
0.8745890421
 40
0.9170764523
 40
0.9511079779
 40
0.9763931501
 40
0.9856807055
 40
0.9927126761
 40
0.9974819853
 40
1.0
 40
1.0
 40
1.0
 40
1.0
 10
-10.3945930925
 20
-20.8300973579
 30
0.0
 10
-10.3944996367
 20
-20.9044377371
 30
0.0
 10
-10.3941425697
 20
-21.0499092173
 30
0.0
 10
-10.3931057927
 20
-21.2607640302
 30
0.0
 10
-10.3916088696
 20
-21.4546397541
 30
0.0
 10
-10.3899621402
 20
-21.6024121699
 30
0.0
 10
-10.3884054273
 20
-21.7070906058
 30
0.0
 10
-10.3872146875
 20
-21.7737744952
 30
0.0
 10
-10.3859576147
 20
-21.8316936924
 30
0.0
 10
-10.3846541025
 20
-21.8803492475
 30
0.0
 10
-10.3833017475
 20
-21.9193068789
 30
0.0
 10
-10.3821066235
 20
-21.9455613297
 30
0.0
 10
-10.3810384261
 20
-21.9614466471
 30
0.0
 10
-10.3803761004
 20
-21.9695166429
 30
0.0
 10
-10.3796389577
 20
-21.9749120138
 30
0.0
 10
-10.3791854494
 20
-21.9777223246
 30
0.0
 10
-10.3787579845
 20
-21.978586647
 30
0.0
 11
-10.3945930925
 21
-20.8300973579
 31
0.0
 11
-10.394041145
 21
-21.0531179888
 31
0.0
 11
-10.3929736217
 21
-21.26650927
 31
0.0
 11
-10.3914277508
 21
-21.4626592628
 31
0.0
 11
-10.3894530112
 21
-21.6347416727
 31
0.0
 11
-10.3883252251
 21
-21.7098265679
 31
0.0
 11
-10.3871165878
 21
-21.7766984562
 31
0.0
 11
-10.3858368679
 21
-21.8347907871
 31
0.0
 11
-10.3844959464
 21
-21.8835828634
 31
0.0
 11
-10.3831047945
 21
-21.9226542919
 31
0.0
 11
-10.3816752913
 21
-21.9516672748
 31
0.0
 11
-10.3809502195
 21
-21.9623123638
 31
0.0
 11
-10.3802209323
 21
-21.9703578651
 31
0.0
 11
-10.3794894979
 21
-21.9757879144
 31
0.0
 11
-10.3787579845
 21
-21.978586647
 31
0.0
  0
SPLINE
  5
2CB
100
AcDbEntity
  8
RACCORDO
100
AcDbSpline
 62
253
  6
CONTINUOUS
 70
0
 71
3
 72
21
 73
17
 74
15
 42
0.0000001
 43
0.0000001
 44
0.0000000001
 12
-0.0014442232
 22
1.148821729
 32
0.0
 13
-0.5092880165
 23
1.0297665595
 33
0.0
 40
0.0
 40
0.0
 40
0.0
 40
0.0
 40
0.1941303269
 40
0.3798804546
 40
0.5506257709
 40
0.7004258659
 40
0.7657913647
 40
0.8240099336
 40
0.874589042
 40
0.9170764522
 40
0.9511079779
 40
0.9763931501
 40
0.9856807055
 40
0.9927126761
 40
0.9974819853
 40
1.0
 40
1.0
 40
1.0
 40
1.0
 10
10.3945930925
 20
20.8300973571
 30
0.0
 10
10.3944996367
 20
20.9044377364
 30
0.0
 10
10.3941425697
 20
21.0499092166
 30
0.0
 10
10.3931057927
 20
21.2607640297
 30
0.0
 10
10.3916088696
 20
21.4546397538
 30
0.0
 10
10.3899621402
 20
21.6024121696
 30
0.0
 10
10.3884054273
 20
21.7070906056
 30
0.0
 10
10.3872146875
 20
21.773774495
 30
0.0
 10
10.3859576147
 20
21.8316936923
 30
0.0
 10
10.3846541025
 20
21.8803492474
 30
0.0
 10
10.3833017475
 20
21.9193068789
 30
0.0
 10
10.3821066235
 20
21.9455613297
 30
0.0
 10
10.3810384261
 20
21.9614466471
 30
0.0
 10
10.3803761004
 20
21.9695166429
 30
0.0
 10
10.3796389577
 20
21.9749120138
 30
0.0
 10
10.3791854494
 20
21.9777223246
 30
0.0
 10
10.3787579845
 20
21.978586647
 30
0.0
 11
10.3945930925
 21
20.8300973571
 31
0.0
 11
10.394041145
 21
21.0531179882
 31
0.0
 11
10.3929736217
 21
21.2665092695
 31
0.0
 11
10.3914277507
 21
21.4626592625
 31
0.0
 11
10.3894530112
 21
21.6347416724
 31
0.0
 11
10.3883252251
 21
21.7098265677
 31
0.0
 11
10.3871165878
 21
21.7766984561
 31
0.0
 11
10.3858368679
 21
21.834790787
 31
0.0
 11
10.3844959464
 21
21.8835828633
 31
0.0
 11
10.3831047945
 21
21.9226542919
 31
0.0
 11
10.3816752913
 21
21.9516672748
 31
0.0
 11
10.3809502195
 21
21.9623123637
 31
0.0
 11
10.3802209323
 21
21.9703578651
 31
0.0
 11
10.3794894979
 21
21.9757879144
 31
0.0
 11
10.3787579845
 21
21.978586647
 31
0.0
  0
SPLINE
  5
2CC
100
AcDbEntity
  8
RACCORDO
100
AcDbSpline
 62
253
  6
CONTINUOUS
 70
0
 71
3
 72
21
 73
17
 74
15
 42
0.0000001
 43
0.0000001
 44
0.0000000001
 12
-0.5092882244
 22
-1.0297664559
 32
0.0
 13
-0.0014442248
 23
-1.1488217284
 33
0.0
 40
0.0
 40
0.0
 40
0.0
 40
0.0
 40
0.0025180147
 40
0.0072873239
 40
0.0143192945
 40
0.02360685
 40
0.0488920223
 40
0.0829235478
 40
0.1254109579
 40
0.1759900663
 40
0.2342086352
 40
0.2995741339
 40
0.4493742288
 40
0.6201195451
 40
0.805869673
 40
1.0
 40
1.0
 40
1.0
 40
1.0
 10
-10.3787579832
 20
21.9785866456
 30
0.0
 10
-10.3791854482
 20
21.9777223233
 30
0.0
 10
-10.3796389567
 20
21.9749120125
 30
0.0
 10
-10.3803760997
 20
21.9695166417
 30
0.0
 10
-10.3810384257
 20
21.9614466459
 30
0.0
 10
-10.3821066235
 20
21.9455613284
 30
0.0
 10
-10.3833017479
 20
21.9193068777
 30
0.0
 10
-10.3846541033
 20
21.8803492463
 30
0.0
 10
-10.385957616
 20
21.8316936912
 30
0.0
 10
-10.3872146894
 20
21.7737744941
 30
0.0
 10
-10.3884054297
 20
21.7070906048
 30
0.0
 10
-10.3899621431
 20
21.6024121689
 30
0.0
 10
-10.3916088731
 20
21.4546397532
 30
0.0
 10
-10.3931057968
 20
21.2607640292
 30
0.0
 10
-10.3941425742
 20
21.0499092162
 30
0.0
 10
-10.3944996418
 20
20.904437736
 30
0.0
 10
-10.3945930977
 20
20.8300973567
 30
0.0
 11
-10.3787579832
 21
21.9785866456
 31
0.0
 11
-10.3794894968
 21
21.9757879132
 31
0.0
 11
-10.3802209315
 21
21.9703578639
 31
0.0
 11
-10.380950219
 21
21.9623123625
 31
0.0
 11
-10.3816752912
 21
21.9516672735
 31
0.0
 11
-10.3831047949
 21
21.9226542906
 31
0.0
 11
-10.3844959472
 21
21.8835828621
 31
0.0
 11
-10.3858368691
 21
21.834790786
 31
0.0
 11
-10.3871165896
 21
21.7766984551
 31
0.0
 11
-10.3883252274
 21
21.7098265669
 31
0.0
 11
-10.3894530139
 21
21.6347416717
 31
0.0
 11
-10.3914277542
 21
21.462659262
 31
0.0
 11
-10.3929736258
 21
21.2665092691
 31
0.0
 11
-10.3940411495
 21
21.0531179878
 31
0.0
 11
-10.3945930977
 21
20.8300973567
 31
0.0
  0
SPLINE
  5
2CD
100
AcDbEntity
  8
RACCORDO
100
AcDbSpline
 62
253
  6
CONTINUOUS
 70
0
 71
3
 72
19
 73
15
 74
13
 42
0.0000001
 43
0.0000001
 44
0.0000000001
 12
0.0007567078
 22
0.6707313451
 32
0.0
 13
0.4724844619
 23
0.4760667424
 33
0.0
 40
0.0
 40
0.0
 40
0.0
 40
0.0
 40
0.1942382553
 40
0.380029375
 40
0.5507240058
 40
0.7003850708
 40
0.7656594899
 40
0.8237826739
 40
0.8742740964
 40
0.9166951157
 40
0.9506932746
 40
0.9759919201
 40
0.9924056629
 40
1.0
 40
1.0
 40
1.0
 40
1.0
 10
10.8606788652
 20
20.8087575834
 30
0.0
 10
10.860727859
 20
20.8521848121
 30
0.0
 10
10.8610298312
 20
20.9371505824
 30
0.0
 10
10.8620987372
 20
21.0602760206
 30
0.0
 10
10.8637385
 20
21.1734273653
 30
0.0
 10
10.8655914484
 20
21.2596276443
 30
0.0
 10
10.8673694676
 20
21.3206502025
 30
0.0
 10
10.8687352662
 20
21.3595079131
 30
0.0
 10
10.870196232
 20
21.3932334723
 30
0.0
 10
10.8716827344
 20
21.4216019944
 30
0.0
 10
10.8733207253
 20
21.444200461
 30
0.0
 10
10.8746997421
 20
21.4612760291
 30
0.0
 10
10.8765836634
 20
21.4717717474
 30
0.0
 10
10.8773905783
 20
21.4775528474
 30
0.0
 10
10.878586647
 20
21.4787579845
 30
0.0
 11
10.8606788652
 21
20.8087575834
 31
0.0
 11
10.8611503463
 21
20.9390384994
 31
0.0
 11
10.8622537991
 21
21.0636496208
 31
0.0
 11
10.8639490071
 21
21.1781273822
 31
0.0
 11
10.86617476
 21
21.278485135
 31
0.0
 11
10.8674624025
 21
21.3222478225
 31
0.0
 11
10.8688517731
 21
21.3612081233
 31
0.0
 11
10.8703302716
 21
21.3950420357
 31
0.0
 11
10.8718847753
 21
21.4234526652
 31
0.0
 11
10.8735019667
 21
21.4461988941
 31
0.0
 11
10.8751683542
 21
21.4630854782
 31
0.0
 11
10.876869039
 21
21.4739625444
 31
0.0
 11
10.878586647
 21
21.4787579845
 31
0.0
  0
SPLINE
  5
2CE
100
AcDbEntity
  8
RACCORDO
100
AcDbSpline
 62
253
  6
CONTINUOUS
 70
0
 71
3
 72
19
 73
15
 74
13
 42
0.0000001
 43
0.0000001
 44
0.0000000001
 12
-0.4724845154
 22
0.4760666913
 32
0.0
 13
-0.0007567077
 23
0.6707313465
 33
0.0
 40
0.0
 40
0.0
 40
0.0
 40
0.0
 40
0.0075943369
 40
0.0240080799
 40
0.0493067253
 40
0.0833048835
 40
0.1257259022
 40
0.1762173243
 40
0.234340508
 40
0.2996149266
 40
0.4492759906
 40
0.6199706198
 40
0.8057617399
 40
1.0
 40
1.0
 40
1.0
 40
1.0
 10
10.8785866456
 20
-21.4787579832
 30
0.0
 10
10.8773905768
 20
-21.4775528462
 30
0.0
 10
10.8765836621
 20
-21.4717717459
 30
0.0
 10
10.8746997406
 20
-21.4612760279
 30
0.0
 10
10.8733207239
 20
-21.4442004597
 30
0.0
 10
10.871682733
 20
-21.4216019934
 30
0.0
 10
10.8701962306
 20
-21.3932334716
 30
0.0
 10
10.8687352648
 20
-21.3595079126
 30
0.0
 10
10.8673694662
 20
-21.3206502023
 30
0.0
 10
10.865591447
 20
-21.2596276443
 30
0.0
 10
10.8637384987
 20
-21.1734273659
 30
0.0
 10
10.8620987357
 20
-21.0602760214
 30
0.0
 10
10.8610298296
 20
-20.9371505821
 30
0.0
 10
10.8607278583
 20
-20.8521848105
 30
0.0
 10
10.8606788644
 20
-20.8087575806
 30
0.0
 11
10.8785866456
 21
-21.4787579832
 31
0.0
 11
10.8768690377
 21
-21.4739625431
 31
0.0
 11
10.8751683528
 21
-21.4630854768
 31
0.0
 11
10.8735019653
 21
-21.4461988928
 31
0.0
 11
10.8718847739
 21
-21.4234526642
 31
0.0
 11
10.8703302702
 21
-21.3950420351
 31
0.0
 11
10.8688517717
 21
-21.3612081228
 31
0.0
 11
10.8674624012
 21
-21.3222478222
 31
0.0
 11
10.8661747586
 21
-21.2784851349
 31
0.0
 11
10.8639490057
 21
-21.1781273826
 31
0.0
 11
10.8622537976
 21
-21.063649622
 31
0.0
 11
10.861150345
 21
-20.9390385001
 31
0.0
 11
10.8606788644
 21
-20.8087575806
 31
0.0
  0
SPLINE
  5
2CF
100
AcDbEntity
  8
RACCORDO
100
AcDbSpline
 62
253
  6
CONTINUOUS
 70
0
 71
3
 72
19
 73
15
 74
13
 42
0.0000001
 43
0.0000001
 44
0.0000000001
 12
-0.0007567078
 22
-0.6707313451
 32
0.0
 13
-0.4724844619
 23
-0.4760667424
 33
0.0
 40
0.0
 40
0.0
 40
0.0
 40
0.0
 40
0.1942382553
 40
0.380029375
 40
0.5507240058
 40
0.7003850708
 40
0.7656594899
 40
0.823782674
 40
0.8742740964
 40
0.9166951157
 40
0.9506932746
 40
0.9759919201
 40
0.9924056629
 40
1.0
 40
1.0
 40
1.0
 40
1.0
 10
-10.8606788652
 20
-20.8087575834
 30
0.0
 10
-10.860727859
 20
-20.8521848121
 30
0.0
 10
-10.8610298312
 20
-20.9371505824
 30
0.0
 10
-10.8620987372
 20
-21.0602760206
 30
0.0
 10
-10.8637385
 20
-21.1734273653
 30
0.0
 10
-10.8655914484
 20
-21.2596276443
 30
0.0
 10
-10.8673694676
 20
-21.3206502025
 30
0.0
 10
-10.8687352662
 20
-21.3595079131
 30
0.0
 10
-10.870196232
 20
-21.3932334723
 30
0.0
 10
-10.8716827344
 20
-21.4216019944
 30
0.0
 10
-10.8733207253
 20
-21.444200461
 30
0.0
 10
-10.874699742
 20
-21.4612760291
 30
0.0
 10
-10.8765836634
 20
-21.4717717474
 30
0.0
 10
-10.8773905783
 20
-21.4775528474
 30
0.0
 10
-10.878586647
 20
-21.4787579845
 30
0.0
 11
-10.8606788652
 21
-20.8087575834
 31
0.0
 11
-10.8611503463
 21
-20.9390384994
 31
0.0
 11
-10.8622537991
 21
-21.0636496208
 31
0.0
 11
-10.8639490071
 21
-21.1781273822
 31
0.0
 11
-10.86617476
 21
-21.278485135
 31
0.0
 11
-10.8674624025
 21
-21.3222478225
 31
0.0
 11
-10.8688517731
 21
-21.3612081233
 31
0.0
 11
-10.8703302716
 21
-21.3950420357
 31
0.0
 11
-10.8718847753
 21
-21.4234526652
 31
0.0
 11
-10.8735019667
 21
-21.4461988941
 31
0.0
 11
-10.8751683542
 21
-21.4630854782
 31
0.0
 11
-10.876869039
 21
-21.4739625444
 31
0.0
 11
-10.878586647
 21
-21.4787579845
 31
0.0
  0
SPLINE
  5
2D0
100
AcDbEntity
  8
RACCORDO
100
AcDbSpline
 62
253
  6
CONTINUOUS
 70
0
 71
3
 72
19
 73
15
 74
13
 42
0.0000001
 43
0.0000001
 44
0.0000000001
 12
0.4724845154
 22
-0.4760666913
 32
0.0
 13
0.0007567077
 23
-0.6707313465
 33
0.0
 40
0.0
 40
0.0
 40
0.0
 40
0.0
 40
0.0075943369
 40
0.0240080799
 40
0.0493067253
 40
0.0833048835
 40
0.1257259022
 40
0.1762173243
 40
0.234340508
 40
0.2996149266
 40
0.4492759906
 40
0.6199706198
 40
0.8057617399
 40
1.0
 40
1.0
 40
1.0
 40
1.0
 10
-10.8785866456
 20
21.4787579832
 30
0.0
 10
-10.8773905768
 20
21.4775528462
 30
0.0
 10
-10.8765836621
 20
21.4717717459
 30
0.0
 10
-10.8746997406
 20
21.4612760279
 30
0.0
 10
-10.8733207239
 20
21.4442004597
 30
0.0
 10
-10.871682733
 20
21.4216019934
 30
0.0
 10
-10.8701962306
 20
21.3932334716
 30
0.0
 10
-10.8687352648
 20
21.3595079126
 30
0.0
 10
-10.8673694662
 20
21.3206502023
 30
0.0
 10
-10.865591447
 20
21.2596276443
 30
0.0
 10
-10.8637384987
 20
21.1734273659
 30
0.0
 10
-10.8620987357
 20
21.0602760214
 30
0.0
 10
-10.8610298296
 20
20.9371505821
 30
0.0
 10
-10.8607278583
 20
20.8521848105
 30
0.0
 10
-10.8606788644
 20
20.8087575806
 30
0.0
 11
-10.8785866456
 21
21.4787579832
 31
0.0
 11
-10.8768690377
 21
21.4739625431
 31
0.0
 11
-10.8751683528
 21
21.4630854768
 31
0.0
 11
-10.8735019653
 21
21.4461988928
 31
0.0
 11
-10.8718847739
 21
21.4234526642
 31
0.0
 11
-10.8703302702
 21
21.3950420351
 31
0.0
 11
-10.8688517717
 21
21.3612081228
 31
0.0
 11
-10.8674624012
 21
21.3222478222
 31
0.0
 11
-10.8661747586
 21
21.2784851349
 31
0.0
 11
-10.8639490057
 21
21.1781273826
 31
0.0
 11
-10.8622537976
 21
21.063649622
 31
0.0
 11
-10.861150345
 21
20.9390385001
 31
0.0
 11
-10.8606788644
 21
20.8087575806
 31
0.0
  0
SPLINE
  5
2D1
100
AcDbEntity
  8
RACCORDO
100
AcDbSpline
 62
253
  6
CONTINUOUS
 70
0
 71
3
 72
18
 73
14
 74
12
 42
0.0000001
 43
0.0000001
 44
0.0000000001
 12
0.4674632459
 22
0.0018790562
 32
0.0
 13
0.2434628339
 23
0.3990629846
 33
0.0
 40
0.0
 40
0.0
 40
0.0
 40
0.0
 40
0.1943378524
 40
0.3803447224
 40
0.5507037639
 40
0.6998188143
 40
0.8227640197
 40
0.8731658117
 40
0.9155681027
 40
0.9495660468
 40
0.9749705113
 40
0.9917011984
 40
1.0
 40
1.0
 40
1.0
 40
1.0
 10
10.3945930836
 20
-20.8300973788
 30
0.0
 10
10.424875018
 20
-20.8299756549
 30
0.0
 10
10.4841401635
 20
-20.829502808
 30
0.0
 10
10.5699416229
 20
-20.82811817
 30
0.0
 10
10.6486835347
 20
-20.8260987304
 30
0.0
 10
10.7175730689
 20
-20.8235339895
 30
0.0
 10
10.7677618446
 20
-20.8208949522
 30
0.0
 10
10.8012821104
 20
-20.8184668546
 30
0.0
 10
10.8209892629
 20
-20.8167077619
 30
0.0
 10
10.8366800825
 20
-20.8148746724
 30
0.0
 10
10.848578198
 20
-20.8130910365
 30
0.0
 10
10.855902829
 20
-20.8112430685
 30
0.0
 10
10.8600053812
 20
-20.8098614954
 30
0.0
 10
10.8606788644
 20
-20.8087575806
 30
0.0
 11
10.3945930836
 21
-20.8300973788
 31
0.0
 11
10.4854366786
 21
-20.829366234
 31
0.0
 11
10.5723769774
 21
-20.827935062
 31
0.0
 11
10.6519869152
 21
-20.8258501589
 31
0.0
 11
10.7216423993
 21
-20.8231871976
 31
0.0
 11
10.7790286391
 21
-20.820033537
 31
0.0
 11
10.8025263341
 21
-20.8183051498
 31
0.0
 11
10.8222650801
 21
-20.8164939026
 31
0.0
 11
10.8380464757
 21
-20.8146144382
 31
0.0
 11
10.8497645121
 21
-20.8126854367
 31
0.0
 11
10.8573362786
 21
-20.8107265877
 31
0.0
 11
10.8606788644
 21
-20.8087575806
 31
0.0
  0
SPLINE
  5
2D2
100
AcDbEntity
  8
RACCORDO
100
AcDbSpline
 62
253
  6
CONTINUOUS
 70
0
 71
3
 72
18
 73
14
 74
12
 42
0.0000001
 43
0.0000001
 44
0.0000000001
 12
0.4674639429
 22
-0.0018790028
 32
0.0
 13
0.2435841548
 23
-0.3989897594
 33
0.0
 40
0.0
 40
0.0
 40
0.0
 40
0.0
 40
0.1943347861
 40
0.3803391683
 40
0.5506966731
 40
0.6998112628
 40
0.8227571128
 40
0.8731596077
 40
0.9155628311
 40
0.9495619138
 40
0.9749676911
 40
0.9916998175
 40
1.0
 40
1.0
 40
1.0
 40
1.0
 10
10.3945921873
 20
20.8300968077
 30
0.0
 10
10.4248736891
 20
20.8299750891
 30
0.0
 10
10.4841380574
 20
20.8295022617
 30
0.0
 10
10.5699385408
 20
20.8281176766
 30
0.0
 10
10.6486798718
 20
20.8260983091
 30
0.0
 10
10.7175693031
 20
20.8235336495
 30
0.0
 10
10.7677582905
 20
20.8208946896
 30
0.0
 10
10.8012789759
 20
20.818466658
 30
0.0
 10
10.8209865771
 20
20.8167076084
 30
0.0
 10
10.836678003
 20
20.8148745417
 30
0.0
 10
10.848576641
 20
20.8130909598
 30
0.0
 10
10.8559021543
 20
20.8112429391
 30
0.0
 10
10.8600049341
 20
20.8098614793
 30
0.0
 10
10.8606788651
 20
20.8087575834
 30
0.0
 11
10.3945921873
 21
20.8300968077
 31
0.0
 11
10.4854344845
 21
20.8293656939
 31
0.0
 11
10.5723737507
 21
20.8279345784
 31
0.0
 11
10.6519830907
 21
20.8258497514
 31
0.0
 11
10.7216384666
 21
20.8231868776
 31
0.0
 11
10.7790250989
 21
20.8200333072
 31
0.0
 11
10.8025231619
 21
20.8183049643
 31
0.0
 11
10.8222623792
 21
20.8164937599
 31
0.0
 11
10.8380443395
 21
20.814614336
 31
0.0
 11
10.849763022
 21
20.8126853725
 31
0.0
 11
10.8573355046
 21
20.8107265586
 31
0.0
 11
10.8606788651
 21
20.8087575834
 31
0.0
  0
SPLINE
  5
2D3
100
AcDbEntity
  8
RACCORDO
100
AcDbSpline
 62
253
  6
CONTINUOUS
 70
0
 71
3
 72
18
 73
14
 74
12
 42
0.0000001
 43
0.0000001
 44
0.0000000001
 12
-0.4674632459
 22
-0.0018790562
 32
0.0
 13
-0.243462836
 23
-0.3990629833
 33
0.0
 40
0.0
 40
0.0
 40
0.0
 40
0.0
 40
0.1943378524
 40
0.3803447223
 40
0.5507037638
 40
0.6998188142
 40
0.8227640196
 40
0.8731658116
 40
0.9155681026
 40
0.9495660467
 40
0.9749705112
 40
0.9917011984
 40
1.0
 40
1.0
 40
1.0
 40
1.0
 10
-10.3945930836
 20
20.8300973788
 30
0.0
 10
-10.424875018
 20
20.8299756549
 30
0.0
 10
-10.4841401635
 20
20.829502808
 30
0.0
 10
-10.5699416229
 20
20.82811817
 30
0.0
 10
-10.6486835346
 20
20.8260987304
 30
0.0
 10
-10.7175730688
 20
20.8235339895
 30
0.0
 10
-10.7677618446
 20
20.8208949522
 30
0.0
 10
-10.8012821104
 20
20.8184668546
 30
0.0
 10
-10.8209892629
 20
20.8167077619
 30
0.0
 10
-10.8366800825
 20
20.8148746724
 30
0.0
 10
-10.848578198
 20
20.8130910365
 30
0.0
 10
-10.8559028289
 20
20.8112430685
 30
0.0
 10
-10.8600053812
 20
20.8098614954
 30
0.0
 10
-10.8606788644
 20
20.8087575806
 30
0.0
 11
-10.3945930836
 21
20.8300973788
 31
0.0
 11
-10.4854366786
 21
20.829366234
 31
0.0
 11
-10.5723769774
 21
20.827935062
 31
0.0
 11
-10.6519869152
 21
20.8258501589
 31
0.0
 11
-10.7216423993
 21
20.8231871976
 31
0.0
 11
-10.779028639
 21
20.820033537
 31
0.0
 11
-10.8025263341
 21
20.8183051498
 31
0.0
 11
-10.8222650801
 21
20.8164939026
 31
0.0
 11
-10.8380464757
 21
20.8146144382
 31
0.0
 11
-10.8497645121
 21
20.8126854367
 31
0.0
 11
-10.8573362786
 21
20.8107265877
 31
0.0
 11
-10.8606788644
 21
20.8087575806
 31
0.0
  0
LINE
  5
2D4
100
AcDbEntity
  8
RACCORDO
100
AcDbLine
 62
253
  6
CONTINUOUS
 10
10.3945894185
 20
20.8314008262
 11
-10.3945894179
 21
20.8314008262
  0
LINE
  5
2D5
100
AcDbEntity
  8
RACCORDO
100
AcDbLine
 62
253
  6
CONTINUOUS
 10
-10.3945894184
 20
-20.8314008366
 11
10.3945894179
 21
-20.8314008366
  0
LINE
  5
2D6
100
AcDbEntity
  8
0
100
AcDbLine
 62
7
  6
CONTINUOUS
 10
-27.9205773041
 20
12.6877353755
 11
-27.9222314892
 21
12.6322706861
  0
LINE
  5
2D7
100
AcDbEntity
  8
0
100
AcDbLine
 62
7
  6
CONTINUOUS
 10
-27.9222314892
 20
12.6322706861
 11
-27.9239279825
 21
12.5761199054
  0
LINE
  5
2D8
100
AcDbEntity
  8
0
100
AcDbLine
 62
7
  6
CONTINUOUS
 10
-27.8974276253
 20
13.5590278383
 11
-27.8988699508
 21
13.4993443654
  0
LINE
  5
2D9
100
AcDbEntity
  8
0
100
AcDbLine
 62
7
  6
CONTINUOUS
 10
-27.8988699508
 20
13.4993443654
 11
-27.9067355697
 21
13.1854906463
  0
LINE
  5
2DA
100
AcDbEntity
  8
0
100
AcDbLine
 62
7
  6
CONTINUOUS
 10
-27.8929738663
 20
13.699292884
 11
-27.8934889179
 21
13.6841842153
  0
LINE
  5
2DB
100
AcDbEntity
  8
0
100
AcDbLine
 62
7
  6
CONTINUOUS
 10
-27.8934889179
 20
13.6841842153
 11
-27.8972719225
 21
13.5651345095
  0
LINE
  5
2DC
100
AcDbEntity
  8
0
100
AcDbLine
 62
7
  6
CONTINUOUS
 10
-27.8819817578
 20
14.0164539423
 11
-27.8929738663
 21
13.699292884
  0
LINE
  5
2DD
100
AcDbEntity
  8
0
100
AcDbLine
 62
7
  6
CONTINUOUS
 10
-28.003523163
 20
9.8145351136
 11
-28.013475369
 21
9.5106665311
  0
LINE
  5
2DE
100
AcDbEntity
  8
0
100
AcDbLine
 62
7
  6
CONTINUOUS
 10
-28.013475369
 20
9.5106665311
 11
-28.0189320166
 21
9.3504272767
  0
LINE
  5
2DF
100
AcDbEntity
  8
0
100
AcDbLine
 62
7
  6
CONTINUOUS
 10
-27.9872067955
 20
10.366950137
 11
-27.9887046519
 21
10.3126714649
  0
LINE
  5
2E0
100
AcDbEntity
  8
0
100
AcDbLine
 62
7
  6
CONTINUOUS
 10
-27.877248633
 20
-14.165382392
 11
-27.8847694467
 21
-13.9388668267
  0
LINE
  5
2E1
100
AcDbEntity
  8
0
100
AcDbLine
 62
7
  6
CONTINUOUS
 10
-27.8847694467
 20
-13.9388668267
 11
-27.8855471787
 21
-13.9164580636
  0
LINE
  5
2E2
100
AcDbEntity
  8
0
100
AcDbLine
 62
7
  6
CONTINUOUS
 10
-28.0245293211
 20
-9.083542163
 11
-28.0250580824
 21
-9.0603729105
  0
LINE
  5
2E3
100
AcDbEntity
  8
0
100
AcDbLine
 62
7
  6
CONTINUOUS
 10
-28.0250580824
 20
-9.0603729105
 11
-28.0305804759
 21
-8.8345515333
  0
LINE
  5
2E4
100
AcDbEntity
  8
0
100
AcDbLine
 62
7
  6
CONTINUOUS
 10
-27.8855471787
 20
-13.9164580636
 11
-27.9038741493
 21
-13.3795371577
  0
LINE
  5
2E5
100
AcDbEntity
  8
0
100
AcDbLine
 62
7
  6
CONTINUOUS
 10
-28.0119716109
 20
-9.6205922222
 11
-28.0245293211
 21
-9.083542163
  0
LINE
  5
2E6
100
AcDbEntity
  8
0
100
AcDbLine
 62
7
  6
CONTINUOUS
 10
-27.8762126357
 20
14.1596927829
 11
-27.8761396777
 21
14.1637541355
  0
LINE
  5
2E7
100
AcDbEntity
  8
0
100
AcDbLine
 62
7
  6
CONTINUOUS
 10
-27.8780156431
 20
14.0751190862
 11
-27.8762126443
 21
14.1596925482
  0
LINE
  5
2E8
100
AcDbEntity
  8
0
100
AcDbLine
 62
7
  6
CONTINUOUS
 10
-27.9147945269
 20
12.6332710059
 11
-27.9128594773
 21
12.698177928
  0
LINE
  5
2E9
100
AcDbEntity
  8
0
100
AcDbLine
 62
7
  6
CONTINUOUS
 10
-27.8895801039
 20
13.5654270434
 11
-27.8890687889
 21
13.58685779
  0
LINE
  5
2EA
100
AcDbEntity
  8
0
100
AcDbLine
 62
7
  6
CONTINUOUS
 10
-27.9795967711
 20
10.3667386728
 11
-27.9759233463
 21
10.5013529151
  0
LINE
  5
2EB
100
AcDbEntity
  8
0
100
AcDbLine
 62
7
  6
CONTINUOUS
 10
-27.9165092154
 20
12.5760730152
 11
-27.9147945277
 21
12.6332710016
  0
LINE
  5
2EC
100
AcDbEntity
  8
0
100
AcDbLine
 62
7
  6
CONTINUOUS
 10
-28.008682334
 20
9.4131386044
 11
-28.0083679408
 21
9.4223769217
  0
LINE
  5
2ED
100
AcDbEntity
  8
0
100
AcDbLine
 62
7
  6
CONTINUOUS
 10
-27.9802858199
 20
10.3414884214
 11
-27.9795967799
 21
10.3667387403
  0
LINE
  5
2EE
100
AcDbEntity
  8
0
100
AcDbLine
 62
7
  6
CONTINUOUS
 10
-28.0325261697
 20
8.7500005865
 11
-28.0321706628
 21
8.7593911354
  0
LINE
  5
2EF
100
AcDbEntity
  8
0
100
AcDbLine
 62
7
  6
CONTINUOUS
 10
-28.0321706628
 20
8.7593911354
 11
-28.0309156163
 21
8.7926847647
  0
LINE
  5
2F0
100
AcDbEntity
  8
0
100
AcDbLine
 62
7
  6
CONTINUOUS
 10
-28.0309156163
 20
8.7926847647
 11
-28.0297063257
 21
8.8249086691
  0
LINE
  5
2F1
100
AcDbEntity
  8
0
100
AcDbLine
 62
7
  6
CONTINUOUS
 10
-28.0297063257
 20
8.8249086691
 11
-28.0260920835
 21
8.9222232588
  0
LINE
  5
2F2
100
AcDbEntity
  8
0
100
AcDbLine
 62
7
  6
CONTINUOUS
 10
-28.0260920835
 20
8.9222232588
 11
-28.0240807727
 21
8.977019378
  0
LINE
  5
2F3
100
AcDbEntity
  8
0
100
AcDbLine
 62
7
  6
CONTINUOUS
 10
-28.0240807727
 20
8.977019378
 11
-28.0239102393
 21
8.9816867358
  0
LINE
  5
2F4
100
AcDbEntity
  8
0
100
AcDbLine
 62
7
  6
CONTINUOUS
 10
-28.0239102393
 20
8.9816867358
 11
-28.0232838963
 21
8.9988584642
  0
LINE
  5
2F5
100
AcDbEntity
  8
0
100
AcDbLine
 62
7
  6
CONTINUOUS
 10
-28.0232838963
 20
8.9988584642
 11
-28.0184467191
 21
9.1330657803
  0
LINE
  5
2F6
100
AcDbEntity
  8
0
100
AcDbLine
 62
7
  6
CONTINUOUS
 10
-28.0184467191
 20
9.1330657803
 11
-28.012118191
 21
9.313124515
  0
LINE
  5
2F7
100
AcDbEntity
  8
0
100
AcDbLine
 62
7
  6
CONTINUOUS
 10
-28.012118191
 20
9.313124515
 11
-28.008682334
 21
9.4131386044
  0
LINE
  5
2F8
100
AcDbEntity
  8
0
100
AcDbLine
 62
7
  6
CONTINUOUS
 10
-27.8855471809
 20
-13.916458
 11
-27.8772340923
 21
-14.1664579999
  0
LINE
  5
2F9
100
AcDbEntity
  8
0
100
AcDbLine
 62
7
  6
CONTINUOUS
 10
-28.0306271299
 20
-8.833542
 11
-28.0245293248
 21
-9.083542
  0
LINE
  5
2FA
100
AcDbEntity
  8
0
100
AcDbLine
 62
7
  6
CONTINUOUS
 10
-28.0086823309
 20
9.4131386949
 11
-28.0121986047
 21
9.3108033085
  0
LINE
  5
2FB
100
AcDbEntity
  8
0
100
AcDbLine
 62
7
  6
CONTINUOUS
 10
-28.0121986047
 20
9.3108033085
 11
-28.03252617
 21
8.7500005781
  0
LINE
  5
2FC
100
AcDbEntity
  8
0
100
AcDbLine
 62
7
  6
CONTINUOUS
 10
-27.8762126422
 20
14.1596926475
 11
-27.8780156489
 21
14.075118817
  0
LINE
  5
2FD
100
AcDbEntity
  8
0
100
AcDbLine
 62
7
  6
CONTINUOUS
 10
-27.8780156489
 20
14.075118817
 11
-27.8870281122
 21
13.6734226121
  0
LINE
  5
2FE
100
AcDbEntity
  8
0
100
AcDbLine
 62
7
  6
CONTINUOUS
 10
-27.8870281122
 20
13.6734226121
 11
-27.8890688617
 21
13.5868552033
  0
LINE
  5
2FF
100
AcDbEntity
  8
0
100
AcDbLine
 62
7
  6
CONTINUOUS
 10
-27.8761635478
 20
14.1664582025
 11
-27.8762126336
 21
14.1596928821
  0
LINE
  5
300
100
AcDbEntity
  8
0
100
AcDbLine
 62
7
  6
CONTINUOUS
 10
-27.9067355369
 20
13.185491913
 11
-27.9031639825
 21
13.3256642474
  0
LINE
  5
301
100
AcDbEntity
  8
0
100
AcDbLine
 62
7
  6
CONTINUOUS
 10
-27.9031639825
 20
13.3256642474
 11
-27.9026259697
 21
13.3471080945
  0
LINE
  5
302
100
AcDbEntity
  8
0
100
AcDbLine
 62
7
  6
CONTINUOUS
 10
-27.9026259697
 20
13.3471080945
 11
-27.8988699012
 21
13.4993464059
  0
LINE
  5
303
100
AcDbEntity
  8
0
100
AcDbLine
 62
7
  6
CONTINUOUS
 10
-27.8988699012
 20
13.4993464059
 11
-27.8977535274
 21
13.5454804639
  0
LINE
  5
304
100
AcDbEntity
  8
0
100
AcDbLine
 62
7
  6
CONTINUOUS
 10
-27.8977535274
 20
13.5454804639
 11
-27.8974276306
 21
13.5590276195
  0
LINE
  5
305
100
AcDbEntity
  8
RACCORDO
100
AcDbLine
 62
253
  6
CONTINUOUS
 10
-27.5854049758
 20
-20.8317816726
 11
-27.233946111
 21
-20.8314008366
  0
LINE
  5
306
100
AcDbEntity
  8
RACCORDO
100
AcDbLine
 62
253
  6
CONTINUOUS
 10
-27.2339461114
 20
20.8314008262
 11
-27.5854049763
 21
20.8317816622
  0
LINE
  5
307
100
AcDbEntity
  8
0
100
AcDbLine
 62
7
  6
CONTINUOUS
 10
-27.9239279848
 20
12.5761198294
 11
-27.9218623854
 21
12.6445847522
  0
LINE
  5
308
100
AcDbEntity
  8
0
100
AcDbLine
 62
7
  6
CONTINUOUS
 10
-27.9218623854
 20
12.6445847522
 11
-27.9216631736
 21
12.6512455417
  0
LINE
  5
309
100
AcDbEntity
  8
0
100
AcDbLine
 62
7
  6
CONTINUOUS
 10
-27.9216631736
 20
12.6512455417
 11
-27.9194827989
 21
12.7248347165
  0
LINE
  5
30A
100
AcDbEntity
  8
0
100
AcDbLine
 62
7
  6
CONTINUOUS
 10
-27.9080693846
 20
13.1342930663
 11
-27.9067355654
 21
13.1854912298
  0
LINE
  5
30B
100
AcDbEntity
  8
0
100
AcDbLine
 62
7
  6
CONTINUOUS
 10
-27.9856592144
 20
10.4238696026
 11
-27.980830166
 21
10.6019076232
  0
LINE
  5
30C
100
AcDbEntity
  8
0
100
AcDbLine
 62
7
  6
CONTINUOUS
 10
-27.9303141764
 20
12.3648869639
 11
-27.9239279852
 21
12.5761198261
  0
SPLINE
  5
30D
100
AcDbEntity
  8
RACCORDO
100
AcDbSpline
 62
253
  6
CONTINUOUS
 70
0
 71
3
 72
11
 73
7
 74
5
 42
0.0000001
 43
0.0000001
 44
0.0000000001
 12
-1.047085009
 22
0.0276267642
 32
0.0
 13
-0.0450860355
 23
1.0464786207
 33
0.0
 40
0.0
 40
0.0
 40
0.0
 40
0.0
 40
0.2499800914
 40
0.4999662597
 40
0.7499719373
 40
1.0
 40
1.0
 40
1.0
 40
1.0
 10
-26.0648161186
 20
-21.4787579832
 30
0.0
 10
-26.152066254
 20
-21.4764559361
 30
0.0
 10
-26.3274349534
 20
-21.4387651332
 30
0.0
 10
-26.5503984408
 20
-21.2903446704
 30
0.0
 10
-26.7038537052
 20
-21.0707257303
 30
0.0
 10
-26.7449291012
 20
-20.8959739213
 30
0.0
 10
-26.7486866925
 20
-20.8087575806
 30
0.0
 11
-26.0648161186
 21
-21.4787579832
 31
0.0
 11
-26.3207502735
 21
-21.4234526642
 31
0.0
 11
-26.5388069607
 21
-21.2784851349
 31
0.0
 11
-26.6885424204
 21
-21.063649622
 31
0.0
 11
-26.7486866925
 21
-20.8087575806
 31
0.0
  0
SPLINE
  5
30E
100
AcDbEntity
  8
RACCORDO
100
AcDbSpline
 62
253
  6
CONTINUOUS
 70
0
 71
3
 72
11
 73
7
 74
5
 42
0.0000001
 43
0.0000001
 44
0.0000000001
 12
0.0450860439
 22
1.0464786225
 32
0.0
 13
1.047085011
 23
0.0276267704
 33
0.0
 40
0.0
 40
0.0
 40
0.0
 40
0.0
 40
0.2500280646
 40
0.5000337412
 40
0.750019909
 40
1.0
 40
1.0
 40
1.0
 40
1.0
 10
-26.7486866648
 20
20.8087575834
 30
0.0
 10
-26.7449290727
 20
20.8959739249
 30
0.0
 10
-26.7038536365
 20
21.0707257247
 30
0.0
 10
-26.5503983914
 20
21.2903446715
 30
0.0
 10
-26.3274348998
 20
21.4387651342
 30
0.0
 10
-26.1520662014
 20
21.476455937
 30
0.0
 10
-26.0648160659
 20
21.4787579845
 30
0.0
 11
-26.7486866648
 21
20.8087575834
 31
0.0
 11
-26.6885423645
 21
21.0636496208
 31
0.0
 11
-26.5388069074
 21
21.278485135
 31
0.0
 11
-26.3207502208
 21
21.4234526652
 31
0.0
 11
-26.0648160659
 21
21.4787579845
 31
0.0
  0
LINE
  5
30F
100
AcDbEntity
  8
0
100
AcDbLine
 62
7
  6
CONTINUOUS
 10
-28.0035231463
 20
9.8145356351
 11
-28.001854853
 21
9.8672558087
  0
LINE
  5
310
100
AcDbEntity
  8
0
100
AcDbLine
 62
7
  6
CONTINUOUS
 10
-27.9897272062
 20
10.2760588733
 11
-27.9874806528
 21
10.3569676352
  0
LINE
  5
311
100
AcDbEntity
  8
0
100
AcDbLine
 62
7
  6
CONTINUOUS
 10
-27.9874806528
 20
10.3569676352
 11
-27.9872086867
 21
10.366881106
  0
LINE
  5
312
100
AcDbEntity
  8
0
100
AcDbLine
 62
7
  6
CONTINUOUS
 10
-27.9872086867
 20
10.366881106
 11
-27.9856592123
 21
10.4238695769
  0
LINE
  5
313
100
AcDbEntity
  8
0
100
AcDbLine
 62
7
  6
CONTINUOUS
 10
-28.018943779
 20
9.3500865616
 11
-28.0179922137
 21
9.377725398
  0
LINE
  5
314
100
AcDbEntity
  8
0
100
AcDbLine
 62
7
  6
CONTINUOUS
 10
-28.0179922137
 20
9.377725398
 11
-28.0161945647
 21
9.4302853915
  0
LINE
  5
315
100
AcDbEntity
  8
0
100
AcDbLine
 62
7
  6
CONTINUOUS
 10
-28.0161945647
 20
9.4302853915
 11
-28.0149911222
 21
9.4657275033
  0
LINE
  5
316
100
AcDbEntity
  8
0
100
AcDbLine
 62
7
  6
CONTINUOUS
 10
-28.0149911222
 20
9.4657275033
 11
-28.0148849517
 21
9.4688642437
  0
LINE
  5
317
100
AcDbEntity
  8
0
100
AcDbLine
 62
7
  6
CONTINUOUS
 10
-28.0148849517
 20
9.4688642437
 11
-28.0134330762
 21
9.5119253096
  0
LINE
  5
318
100
AcDbEntity
  8
0
100
AcDbLine
 62
7
  6
CONTINUOUS
 10
-28.0134330762
 20
9.5119253096
 11
-28.0100786217
 21
9.6126255292
  0
LINE
  5
319
100
AcDbEntity
  8
0
100
AcDbLine
 62
7
  6
CONTINUOUS
 10
-28.0100786217
 20
9.6126255292
 11
-28.0035231463
 21
9.814535637
  0
LINE
  5
31A
100
AcDbEntity
  8
0
100
AcDbLine
 62
7
  6
CONTINUOUS
 10
-27.8929738523
 20
13.6992932908
 11
-27.8911592776
 21
13.7521547977
  0
LINE
  5
31B
100
AcDbEntity
  8
0
100
AcDbLine
 62
7
  6
CONTINUOUS
 10
-27.8911592776
 20
13.7521547977
 11
-27.8893377284
 21
13.8050156856
  0
LINE
  5
31C
100
AcDbEntity
  8
0
100
AcDbLine
 62
7
  6
CONTINUOUS
 10
-27.8893377284
 20
13.8050156856
 11
-27.8875092048
 21
13.8578759534
  0
SPLINE
  5
31D
100
AcDbEntity
  8
RACCORDO
100
AcDbSpline
 62
253
  6
CONTINUOUS
 70
0
 71
3
 72
20
 73
16
 74
14
 42
0.0000001
 43
0.0000001
 44
0.0000000001
 12
-0.5002087974
 22
0.0130984283
 32
0.0
 13
0.0130895049
 23
0.500209031
 33
0.0
 40
0.0
 40
0.0
 40
0.0
 40
0.0
 40
0.0017601623
 40
0.0055960866
 40
0.020198778
 40
0.0441136351
 40
0.077217934
 40
0.1191811623
 40
0.169584885
 40
0.2279973577
 40
0.2938476078
 40
0.4451452725
 40
0.6177669269
 40
0.8053187392
 40
1.0
 40
1.0
 40
1.0
 40
1.0
 10
-26.0648161186
 20
-21.9785866456
 30
0.0
 10
-26.0651096015
 20
-21.9785789605
 30
0.0
 10
-26.0656937283
 20
-21.9775779369
 30
0.0
 10
-26.0664428186
 20
-21.9745307448
 30
0.0
 10
-26.0673780355
 20
-21.967282082
 30
0.0
 10
-26.0681906562
 20
-21.9554973918
 30
0.0
 10
-26.0689336422
 20
-21.9389446435
 30
0.0
 10
-26.0695078285
 20
-21.9180465238
 30
0.0
 10
-26.0699305483
 20
-21.8928928333
 30
0.0
 10
-26.070180959
 20
-21.8637630628
 30
0.0
 10
-26.0702899149
 20
-21.817800241
 30
0.0
 10
-26.0699411134
 20
-21.7527898794
 30
0.0
 10
-26.0688748404
 20
-21.6674857811
 30
0.0
 10
-26.0671709107
 20
-21.5749549519
 30
0.0
 10
-26.0656655457
 20
-21.5112184248
 30
0.0
 10
-26.0648161186
 20
-21.4787579832
 30
0.0
 11
-26.0648161186
 21
-21.9785866456
 31
0.0
 11
-26.0654398007
 21
-21.9779647598
 31
0.0
 11
-26.0660315492
 21
-21.9761388326
 31
0.0
 11
-26.0671129796
 21
-21.9689124037
 31
0.0
 11
-26.068047879
 21
-21.9569824571
 31
0.0
 11
-26.0688243704
 21
-21.9404359287
 31
0.0
 11
-26.069435408
 21
-21.91944725
 31
0.0
 11
-26.0698761119
 21
-21.8942300725
 31
0.0
 11
-26.0701417874
 21
-21.8650028314
 31
0.0
 11
-26.0702303632
 21
-21.8320527848
 31
0.0
 11
-26.0698761124
 21
-21.7563472481
 31
0.0
 11
-26.0688243718
 21
-21.6699771823
 31
0.0
 11
-26.0671129812
 21
-21.5761455623
 31
0.0
 11
-26.0648161186
 21
-21.4787579832
 31
0.0
  0
SPLINE
  5
31E
100
AcDbEntity
  8
RACCORDO
100
AcDbSpline
 62
253
  6
CONTINUOUS
 70
0
 71
3
 72
20
 73
16
 74
14
 42
0.0000001
 43
0.0000001
 44
0.0000000001
 12
-0.5002087938
 22
-0.0130984282
 32
0.0
 13
0.0130894589
 23
-0.5002090286
 33
0.0
 40
0.0
 40
0.0
 40
0.0
 40
0.0
 40
0.0017601587
 40
0.0055960804
 40
0.0201987669
 40
0.0441136198
 40
0.0772179139
 40
0.1191811341
 40
0.1695848503
 40
0.2279973203
 40
0.2938475646
 40
0.4451452224
 40
0.6177668843
 40
0.8053187251
 40
1.0
 40
1.0
 40
1.0
 40
1.0
 10
-26.0648160659
 20
21.978586647
 30
0.0
 10
-26.0651095482
 20
21.9785789619
 30
0.0
 10
-26.0656936726
 20
21.9775779375
 30
0.0
 10
-26.0664427602
 20
21.9745307481
 30
0.0
 10
-26.0673779735
 20
21.9672820855
 30
0.0
 10
-26.0681905912
 20
21.9554973983
 30
0.0
 10
-26.0689335745
 20
21.9389446525
 30
0.0
 10
-26.0695077589
 20
21.9180465363
 30
0.0
 10
-26.0699304772
 20
21.8928928488
 30
0.0
 10
-26.0701808871
 20
21.8637630811
 30
0.0
 10
-26.0702898429
 20
21.8178002621
 30
0.0
 10
-26.0699410428
 20
21.7527899018
 30
0.0
 10
-26.068874774
 20
21.6674857993
 30
0.0
 10
-26.06717085
 20
21.5749549622
 30
0.0
 10
-26.0656654901
 20
21.5112184283
 30
0.0
 10
-26.0648160659
 20
21.4787579845
 30
0.0
 11
-26.0648160659
 21
21.978586647
 31
0.0
 11
-26.0654397458
 21
21.9779647614
 31
0.0
 11
-26.0660314921
 21
21.976138835
 31
0.0
 11
-26.0671129185
 21
21.968912408
 31
0.0
 11
-26.0680478146
 21
21.9569824633
 31
0.0
 11
-26.0688243031
 21
21.9404359373
 31
0.0
 11
-26.0694353386
 21
21.9194472627
 31
0.0
 11
-26.0698760409
 21
21.8942300887
 31
0.0
 11
-26.0701417156
 21
21.8650028491
 31
0.0
 11
-26.0702302914
 21
21.8320528057
 31
0.0
 11
-26.0698760422
 21
21.7563472729
 31
0.0
 11
-26.0688243055
 21
21.6699772039
 31
0.0
 11
-26.0671129207
 21
21.5761455703
 31
0.0
 11
-26.0648160659
 21
21.4787579845
 31
0.0
  0
LINE
  5
31F
100
AcDbEntity
  8
0
100
AcDbLine
 62
7
  6
CONTINUOUS
 10
-27.8955218002
 20
13.622818324
 11
-27.8936707388
 21
13.6788137808
  0
LINE
  5
320
100
AcDbEntity
  8
0
100
AcDbLine
 62
7
  6
CONTINUOUS
 10
-27.8936707388
 20
13.6788137808
 11
-27.8929738523
 21
13.6992932908
  0
ELLIPSE
  5
321
100
AcDbEntity
  8
RACCORDO
100
AcDbEllipse
 62
7
  6
CONTINUOUS
 10
-10.4998286038
 20
-21.5998286038
 30
0.0
 11
0.35379574
 21
0.35379574
 31
0.0
 40
0.999315002
 41
-3.9266482007
 42
-2.3565371065
  0
ELLIPSE
  5
322
100
AcDbEntity
  8
RACCORDO
100
AcDbEllipse
 62
7
  6
CONTINUOUS
 10
10.4998286038
 20
-21.5998286038
 30
0.0
 11
0.35379574
 21
-0.35379574
 31
0.0
 40
0.999315002
 41
-0.7850555471
 42
0.7850555471
  0
ELLIPSE
  5
323
100
AcDbEntity
  8
RACCORDO
100
AcDbEllipse
 62
7
  6
CONTINUOUS
 10
10.4998286038
 20
21.5998286038
 30
0.0
 11
0.35379574
 21
0.35379574
 31
0.0
 40
0.999315002
 41
-0.7850555471
 42
0.7850555471
  0
ELLIPSE
  5
324
100
AcDbEntity
  8
RACCORDO
100
AcDbEllipse
 62
7
  6
CONTINUOUS
 10
-10.4998286038
 20
21.5998286038
 30
0.0
 11
-0.35379574
 21
0.35379574
 31
0.0
 40
0.999315002
 41
-0.7850555471
 42
0.7850555471
  0
ENDSEC
  0
SECTION
  2
OBJECTS
  0
DICTIONARY
  5
C
100
AcDbDictionary
280
0
281
1
  3
ACAD_GROUP
350
D
  3
ACAD_MLINESTYLE
350
17
  3
ACAD_LAYOUT
350
1A
  3
ACAD_PLOTSETTINGS
350
19
  3
ACAD_PLOTSTYLENAME
350
E
  0
DICTIONARY
  5
D
102
{ACAD_REACTORS
330
C
102
}
100
AcDbDictionary
280
0
281
1
  0
ACDBDICTIONARYWDFLT
  5
E
102
{ACAD_REACTORS
330
C
102
}
100
AcDbDictionary
281
1
  3
Normal
350
F
100
AcDbDictionaryWithDefault
340
F
  0
DICTIONARY
  5
17
102
{ACAD_REACTORS
330
C
102
}
100
AcDbDictionary
280
0
281
1
  3
Standard
350
18
  0
DICTIONARY
  5
19
102
{ACAD_REACTORS
330
C
102
}
100
AcDbDictionary
281
1
  0
DICTIONARY
  5
1A
102
{ACAD_REACTORS
330
C
102
}
100
AcDbDictionary
281
1
  3
Model
350
325
  3
Layout1
350
326
  0
ACDBPLACEHOLDER
  5
F
102
{ACAD_REACTORS
330
E
102
}
  0
MLINESTYLE
  5
18
102
{ACAD_REACTORS
330
17
102
}
100
AcDbMlineStyle
  2
STANDARD
 70
0
  3

 62
256
 51
90.0
 52
90.0
 71
2
 49
0.5
 62
256
  6
BYLAYER
 49
-0.5
 62
256
  6
BYLAYER
  0
LAYOUT
  5
325
102
{ACAD_REACTORS
330
1A
102
}
100
AcDbPlotSettings
  1

  2
none_device
  4
ISO_A4_(297.00_x_210.00_MM)
  6

 40
0.0
 41
0.0
 42
0.0
 43
0.0
 44
297.0
 45
210.0
 46
0.0
 47
0.0
 48
0.0
 49
0.0
140
0.0
141
0.0
142
1.0
143
1.0
 70
1024
 72
1
 73
0
 74
0
  7

 75
0
147
1.0
148
0.0
149
0.0
100
AcDbLayout
  1
Model
 70
0
 71
0
 10
0.0
 20
0.0
 11
297.0
 21
210.0
 12
0.0
 22
0.0
 32
0.0
 14
0.0
 24
0.0
 34
0.0
 15
0.0
 25
0.0
 35
0.0
146
0.0
 13
0.0
 23
0.0
 33
0.0
 16
1.0
 26
0.0
 36
0.0
 17
0.0
 27
1.0
 37
0.0
 76
0
330
216
345
0
346
0
  0
LAYOUT
  5
326
102
{ACAD_REACTORS
330
1A
102
}
100
AcDbPlotSettings
  1

  2
none_device
  4
ISO_A4_(297.00_x_210.00_MM)
  6

 40
0.0
 41
0.0
 42
0.0
 43
0.0
 44
297.0
 45
210.0
 46
0.0
 47
0.0
 48
0.0
 49
0.0
140
0.0
141
0.0
142
1.0
143
1.0
 70
0
 72
1
 73
0
 74
0
  7

 75
0
147
1.0
148
0.0
149
0.0
100
AcDbLayout
  1
Layout1
 70
0
 71
1
 10
0.0
 20
0.0
 11
297.0
 21
210.0
 12
0.0
 22
0.0
 32
0.0
 14
0.0
 24
0.0
 34
0.0
 15
0.0
 25
0.0
 35
0.0
146
0.0
 13
0.0
 23
0.0
 33
0.0
 16
1.0
 26
0.0
 36
0.0
 17
0.0
 27
1.0
 37
0.0
 76
0
330
217
345
0
346
0
  0
ENDSEC
  0
EOF
