  0
SECTION
  2
HEADER
  9
$ACADVER
  1
AC1015
  9
$DWGCODEPAGE
  3
ANSI_1252
  9
$EXTMAX
 10
297.0
 20
210.0
 30
0.0
  9
$EXTMIN
 10
0.0
 20
0.0
 30
0.0
  9
$LIMMIN
 10
0.0
 20
0.0
  9
$LIMMAX
 10
297.0
 20
210.0
  9
$VIEWCTR
 10
148.5
 20
105.0
  9
$VIEWSIZE
 40
210.0
  9
$CLAYER
  8
0
  9
$LTSCALE
 40
16.335
  9
$CELTYPE
  6
BYLAYER
  9
$DIMSCALE
 40
1.0
  9
$DIMASZ
 40
3.0
  9
$DIMEXO
 40
1.85625
  9
$DIMDLI
 40
11.286
  9
$DIMEXE
 40
5.346
  9
$DIMCEN
 40
2.673
  9
$DIMLFAC
 40
1.0
  9
$DIMBLK
  1
_FILLED
  9
$DIMTXT
 40
3.0
  9
$DIMTOL
 70
1
  9
$DIMLIM
 70
0
  9
$DIMTFAC
 40
1.0
  9
$DIMTP
 40
0.01
  9
$DIMTM
 40
0.01
  9
$PDMODE
 70
3
  9
$PDSIZE
 40
3.0
  9
$HANDSEED
  5
32C
  9
$TILEMODE
 70
1
  9
$MEASUREMENT
 70
1
  9
$INSUNITS
 70
4
  0
ENDSEC
  0
SECTION
  2
CLASSES
  0
CLASS
  1
ACDBDICTIONARYWDFLT
  2
AcDbDictionaryWithDefault
  3
AutoCAD 2000
 90
0
280
0
281
0
  0
CLASS
  1
ACDBPLACEHOLDER
  2
AcDbPlaceHolder
  3
AutoCAD 2000
 90
0
280
0
281
0
  0
CLASS
  1
LAYOUT
  2
AcDbLayout
  3
AutoCAD 2000
 90
0
280
0
281
0
  0
ENDSEC
  0
SECTION
  2
TABLES
  0
TABLE
  2
VPORT
  5
8
100
AcDbSymbolTable
 70
2
  0
VPORT
  5
1F4
100
AcDbSymbolTableRecord
100
AcDbViewportTableRecord
  2
*ACTIVE
 70
0
 10
0.0
 20
0.0
 11
1.0
 21
1.0
 12
148.5
 22
105.0
 13
0.0
 23
0.0
 14
1.0
 24
1.0
 15
0.0
 25
0.0
 16
0.0
 26
0.0
 36
1.0
 17
0.0
 27
0.0
 37
0.0
 40
210.0
 41
1.4142857143
 42
50.0
 43
0.0
 44
0.0
 50
0.0
 51
0.0
 71
0
 72
100
 73
1
 74
1
 75
0
 76
0
 77
0
 78
0
  0
ENDTAB
  0
TABLE
  2
LTYPE
  5
5
100
AcDbSymbolTable
 70
6
  0
LTYPE
  5
14
100
AcDbSymbolTableRecord
100
AcDbLinetypeTableRecord
  2
BYBLOCK
 70
0
  3

 72
65
 73
0
 40
0.0
  0
LTYPE
  5
15
100
AcDbSymbolTableRecord
100
AcDbLinetypeTableRecord
  2
BYLAYER
 70
0
  3

 72
65
 73
0
 40
0.0
  0
LTYPE
  5
16
100
AcDbSymbolTableRecord
100
AcDbLinetypeTableRecord
  2
CONTINUOUS
 70
64
  3
Solid line
 72
65
 73
0
 40
0.0
  0
LTYPE
  5
1F5
100
AcDbSymbolTableRecord
100
AcDbLinetypeTableRecord
  2
CENTER
 70
64
  3
____ _ ____ _ ____ _ ____ _ ____ _ ____ _ ____
 72
65
 73
4
 40
0.6
 49
0.375
 74
0
 49
-0.075
 74
0
 49
0.075
 74
0
 49
-0.075
 74
0
  0
LTYPE
  5
1F6
100
AcDbSymbolTableRecord
100
AcDbLinetypeTableRecord
  2
HIDDEN
 70
64
  3
- - - - - - - - - - - - - - - - - - - -
 72
65
 73
2
 40
0.2
 49
0.1
 74
0
 49
-0.1
 74
0
  0
LTYPE
  5
1F7
100
AcDbSymbolTableRecord
100
AcDbLinetypeTableRecord
  2
PHANTOM
 70
64
  3
_____ _ _ _____ _ _ _____ _ _ _____
 72
65
 73
6
 40
0.8
 49
0.45
 74
0
 49
-0.05
 74
0
 49
0.1
 74
0
 49
-0.05
 74
0
 49
0.1
 74
0
 49
-0.05
 74
0
  0
LTYPE
  5
1F8
100
AcDbSymbolTableRecord
100
AcDbLinetypeTableRecord
  2
DOT
 70
64
  3
. . . . . . . . . . . . . . . . . . . .
 72
65
 73
2
 40
0.2
 49
0.1
 74
0
 49
-0.1
 74
0
  0
LTYPE
  5
1F9
100
AcDbSymbolTableRecord
100
AcDbLinetypeTableRecord
  2
DASHED
 70
64
  3
- - - - - - - - - - - - - - - - - - - -
 72
65
 73
2
 40
0.2
 49
0.1
 74
0
 49
-0.1
 74
0
  0
ENDTAB
  0
TABLE
  2
LAYER
  5
2
100
AcDbSymbolTable
 70
36
  0
LAYER
  5
10
100
AcDbSymbolTableRecord
100
AcDbLayerTableRecord
  2
0
 70
0
 62
7
  6
CONTINUOUS
370
-3
390
F
  0
LAYER
  5
1FA
100
AcDbSymbolTableRecord
100
AcDbLayerTableRecord
  2
DEFAULT_1
 70
0
 62
7
  6
CENTER
370
-3
390
F
  0
LAYER
  5
1FB
100
AcDbSymbolTableRecord
100
AcDbLayerTableRecord
  2
DEFAULT_2
 70
0
 62
7
  6
HIDDEN
370
-3
390
F
  0
LAYER
  5
1FC
100
AcDbSymbolTableRecord
100
AcDbLayerTableRecord
  2
DEFAULT_3
 70
0
 62
7
  6
PHANTOM
370
-3
390
F
  0
LAYER
  5
1FD
100
AcDbSymbolTableRecord
100
AcDbLayerTableRecord
  2
ASSI
 70
0
 62
7
  6
CONTINUOUS
370
-3
390
F
  0
LAYER
  5
1FE
100
AcDbSymbolTableRecord
100
AcDbLayerTableRecord
  2
COORDINATE
 70
0
 62
7
  6
CONTINUOUS
370
-3
390
F
  0
LAYER
  5
1FF
100
AcDbSymbolTableRecord
100
AcDbLayerTableRecord
  2
COPY_PUBLISH
 70
0
 62
7
  6
CONTINUOUS
370
-3
390
F
  0
LAYER
  5
200
100
AcDbSymbolTableRecord
100
AcDbLayerTableRecord
  2
COSMETIC
 70
0
 62
7
  6
CONTINUOUS
370
-3
390
F
  0
LAYER
  5
201
100
AcDbSymbolTableRecord
100
AcDbLayerTableRecord
  2
COSMETICI
 70
0
 62
7
  6
CONTINUOUS
370
-3
390
F
  0
LAYER
  5
202
100
AcDbSymbolTableRecord
100
AcDbLayerTableRecord
  2
CURVE
 70
0
 62
7
  6
CONTINUOUS
370
-3
390
F
  0
LAYER
  5
203
100
AcDbSymbolTableRecord
100
AcDbLayerTableRecord
  2
DRAFT
 70
0
 62
7
  6
CONTINUOUS
370
-3
390
F
  0
LAYER
  5
204
100
AcDbSymbolTableRecord
100
AcDbLayerTableRecord
  2
IMPORT_IGES
 70
0
 62
7
  6
CONTINUOUS
370
-3
390
F
  0
LAYER
  5
205
100
AcDbSymbolTableRecord
100
AcDbLayerTableRecord
  2
INTFCLR_11
 70
0
 62
7
  6
CONTINUOUS
370
-3
390
F
  0
LAYER
  5
206
100
AcDbSymbolTableRecord
100
AcDbLayerTableRecord
  2
INTF_1
 70
0
 62
7
  6
CONTINUOUS
370
-3
390
F
  0
LAYER
  5
207
100
AcDbSymbolTableRecord
100
AcDbLayerTableRecord
  2
INTF_3
 70
0
 62
7
  6
CONTINUOUS
370
-3
390
F
  0
LAYER
  5
208
100
AcDbSymbolTableRecord
100
AcDbLayerTableRecord
  2
INTF_6
 70
0
 62
7
  6
CONTINUOUS
370
-3
390
F
  0
LAYER
  5
209
100
AcDbSymbolTableRecord
100
AcDbLayerTableRecord
  2
NOTE
 70
0
 62
7
  6
CONTINUOUS
370
-3
390
F
  0
LAYER
  5
20A
100
AcDbSymbolTableRecord
100
AcDbLayerTableRecord
  2
PIANI
 70
0
 62
7
  6
CONTINUOUS
370
-3
390
F
  0
LAYER
  5
20B
100
AcDbSymbolTableRecord
100
AcDbLayerTableRecord
  2
PUNTI
 70
0
 62
7
  6
CONTINUOUS
370
-3
390
F
  0
LAYER
  5
20C
100
AcDbSymbolTableRecord
100
AcDbLayerTableRecord
  2
RACCORDO
 70
0
 62
7
  6
CONTINUOUS
370
-3
390
F
  0
LAYER
  5
20D
100
AcDbSymbolTableRecord
100
AcDbLayerTableRecord
  2
SIMBOLI
 70
0
 62
7
  6
CONTINUOUS
370
-3
390
F
  0
LAYER
  5
20E
100
AcDbSymbolTableRecord
100
AcDbLayerTableRecord
  2
SMUSSO
 70
0
 62
7
  6
CONTINUOUS
370
-3
390
F
  0
LAYER
  5
20F
100
AcDbSymbolTableRecord
100
AcDbLayerTableRecord
  2
SNAPLINE
 70
0
 62
7
  6
CONTINUOUS
370
-3
390
F
  0
LAYER
  5
210
100
AcDbSymbolTableRecord
100
AcDbLayerTableRecord
  2
SUPERFICI
 70
0
 62
7
  6
CONTINUOUS
370
-3
390
F
  0
LAYER
  5
211
100
AcDbSymbolTableRecord
100
AcDbLayerTableRecord
  2
TRASH
 70
0
 62
7
  6
CONTINUOUS
370
-3
390
F
  0
LAYER
  5
212
100
AcDbSymbolTableRecord
100
AcDbLayerTableRecord
  2
XSEC_DATUMS
 70
0
 62
7
  6
CONTINUOUS
370
-3
390
F
  0
LAYER
  5
213
100
AcDbSymbolTableRecord
100
AcDbLayerTableRecord
  2
___SHELL
 70
0
 62
7
  6
CONTINUOUS
370
-3
390
F
  0
ENDTAB
  0
TABLE
  2
STYLE
  5
3
100
AcDbSymbolTable
 70
1
  0
STYLE
  5
11
100
AcDbSymbolTableRecord
100
AcDbTextStyleTableRecord
  2
STANDARD
 70
0
 40
0.0
 41
0.8
 50
0.0
 71
0
 42
0.2
  3
txt
  4

  0
STYLE
  5
214
100
AcDbSymbolTableRecord
100
AcDbTextStyleTableRecord
  2
TEXTSTYLE_1
 70
0
 40
0.0
 41
0.8
 50
0.0
 71
0
 42
0.2
  3
gdt
  4

  0
ENDTAB
  0
TABLE
  2
VIEW
  5
6
100
AcDbSymbolTable
 70
0
  0
ENDTAB
  0
TABLE
  2
UCS
  5
7
100
AcDbSymbolTable
 70
0
  0
ENDTAB
  0
TABLE
  2
APPID
  5
9
100
AcDbSymbolTable
 70
1
  0
APPID
  5
215
100
AcDbSymbolTableRecord
100
AcDbRegAppTableRecord
  2
ACAD
 70
0
  0
ENDTAB
  0
TABLE
  2
BLOCK_RECORD
  5
1
100
AcDbSymbolTable
 70
0
  0
BLOCK_RECORD
  5
216
100
AcDbSymbolTableRecord
100
AcDbBlockTableRecord
  2
*Model_Space
  0
BLOCK_RECORD
  5
217
100
AcDbSymbolTableRecord
100
AcDbBlockTableRecord
  2
*Paper_Space
  0
BLOCK_RECORD
  5
218
100
AcDbSymbolTableRecord
100
AcDbBlockTableRecord
  2
_FILLED
  0
BLOCK_RECORD
  5
219
100
AcDbSymbolTableRecord
100
AcDbBlockTableRecord
  2
*D0
  0
BLOCK_RECORD
  5
21A
100
AcDbSymbolTableRecord
100
AcDbBlockTableRecord
  2
*D1
  0
BLOCK_RECORD
  5
21B
100
AcDbSymbolTableRecord
100
AcDbBlockTableRecord
  2
*D2
  0
ENDTAB
  0
TABLE
  2
DIMSTYLE
  5
A
100
AcDbSymbolTable
 70
1
100
AcDbDimStyleTable
 71
0
  0
DIMSTYLE
105
21C
100
AcDbSymbolTableRecord
100
AcDbDimStyleTableRecord
  2
STANDARD
 70
0
  3

  4

 40
1.0
 41
3.0
 42
0.0625
 43
0.38
 44
0.18
 45
0.0
 46
0.0
 47
0.01
 48
0.01
140
3.0
141
0.09
142
0.0
143
25.4
144
1.0
145
0.0
146
1.0
147
0.09
 71
1.0
 72
0.0
 73
0
 74
0
 75
0
 76
0
 77
1
 78
8
170
0
171
2
172
0
173
0
174
0
175
0
176
0
177
0
178
0
270
2
271
2
272
2
273
2
274
2
275
0
280
0
281
0
282
0
283
1
284
8
285
0
286
0
287
3
288
0
340
11
341
218
342
218
343
218
344
218
  0
DIMSTYLE
105
21D
100
AcDbSymbolTableRecord
100
AcDbDimStyleTableRecord
  2
DIMSTYLE_1
 70
0
  3

  4

 40
1.0
 41
3.0
 42
0.0625
 43
0.38
 44
0.18
 45
0.0
 46
0.0
 47
0.0
 48
0.0
140
3.0
141
0.09
142
0.0
143
25.4
144
1.0
145
0.0
146
1.0
147
0.09
 71
0.0
 72
0.0
 73
0
 74
0
 75
0
 76
0
 77
1
 78
8
170
0
171
2
172
0
173
0
174
0
175
0
176
0
177
0
178
0
270
2
271
2
272
2
273
2
274
2
275
0
280
0
281
0
282
0
283
1
284
8
285
0
286
0
287
3
288
0
340
11
341
218
342
218
343
218
344
218
  0
ENDTAB
  0
ENDSEC
  0
SECTION
  2
BLOCKS
  0
BLOCK
  5
20
100
AcDbEntity
  8
0
100
AcDbBlockBegin
  2
*Model_Space
 70
0
 10
0.0
 20
0.0
 30
0.0
  3
*Model_Space
  1

  0
ENDBLK
  5
21
100
AcDbEntity
  8
0
100
AcDbBlockEnd
  0
BLOCK
  5
1C
100
AcDbEntity
  8
0
100
AcDbBlockBegin
  2
*Paper_Space
 70
0
 10
0.0
 20
0.0
 30
0.0
  3
*Paper_Space
  1

  0
ENDBLK
  5
1D
100
AcDbEntity
  8
0
100
AcDbBlockEnd
  0
BLOCK
  5
21E
100
AcDbEntity
  8
0
100
AcDbBlockBegin
  2
_FILLED
 70
64
 10
0.0
 20
0.0
  3
_FILLED
  1

  0
SOLID
  5
21F
100
AcDbEntity
  8
0
  6
BYBLOCK
 62
0
100
AcDbTrace
 10
0.0
 20
0.0
 11
-1.0
 21
0.3166666667
 12
-1.0
 22
-0.3166666667
 13
-1.0
 23
-0.3166666667
  0
ENDBLK
  5
220
100
AcDbEntity
  8
0
  6
BYBLOCK
 62
0
100
AcDbBlockEnd
  0
BLOCK
  5
221
100
AcDbEntity
  8
0
100
AcDbBlockBegin
 62
7
  6
CONTINUOUS
  2
*D0
 70
65
 10
0.0
 20
0.0
  3
*D0
  1

  0
LINE
  5
222
100
AcDbEntity
  8
0
100
AcDbLine
 62
7
  6
CONTINUOUS
 10
-25.9921668648
 20
22.1001713375
 11
-25.9921668648
 21
31.6
  0
LINE
  5
223
100
AcDbEntity
  8
0
100
AcDbLine
 62
7
  6
CONTINUOUS
 10
-32.6921841347
 20
0.5
 11
-32.6921841347
 21
31.6
  0
LINE
  5
224
100
AcDbEntity
  8
0
100
AcDbLine
 62
7
  6
CONTINUOUS
 10
-25.9921668648
 20
30.1
 11
-21.9921668648
 21
30.1
  0
LINE
  5
225
100
AcDbEntity
  8
0
100
AcDbLine
 62
7
  6
CONTINUOUS
 10
-21.9921668648
 20
30.1
 11
-29.3421754998
 21
30.1
  0
LINE
  5
226
100
AcDbEntity
  8
0
100
AcDbLine
 62
7
  6
CONTINUOUS
 10
-32.6921841347
 20
30.1
 11
-36.6921841347
 21
30.1
  0
LINE
  5
227
100
AcDbEntity
  8
0
100
AcDbLine
 62
7
  6
CONTINUOUS
 10
-36.6921841347
 20
30.1
 11
-29.3421754998
 21
30.1
  0
INSERT
  5
228
100
AcDbEntity
  8
0
100
AcDbBlockReference
 62
7
  6
CONTINUOUS
  2
_FILLED
 10
-25.9921668648
 20
30.1
 41
3.0
 42
3.0
 43
3.0
 50
180.0
  0
INSERT
  5
229
100
AcDbEntity
  8
0
100
AcDbBlockReference
 62
7
  6
CONTINUOUS
  2
_FILLED
 10
-32.6921841347
 20
30.1
 41
3.0
 42
3.0
 43
3.0
  0
ENDBLK
  5
22A
100
AcDbEntity
  8
0
  6
BYBLOCK
 62
0
100
AcDbBlockEnd
  0
BLOCK
  5
22B
100
AcDbEntity
  8
0
100
AcDbBlockBegin
 62
7
  6
CONTINUOUS
  2
*D1
 70
65
 10
0.0
 20
0.0
  3
*D1
  1

  0
LINE
  5
22C
100
AcDbEntity
  8
0
100
AcDbLine
 62
7
  6
CONTINUOUS
 10
-11.0
 20
22.1001713375
 11
-11.0
 21
31.6
  0
LINE
  5
22D
100
AcDbEntity
  8
0
100
AcDbLine
 62
7
  6
CONTINUOUS
 10
11.0
 20
22.1001713375
 11
11.0
 21
31.6
  0
LINE
  5
22E
100
AcDbEntity
  8
0
100
AcDbLine
 62
7
  6
CONTINUOUS
 10
-11.0
 20
30.1
 11
0.0
 21
30.1
  0
LINE
  5
22F
100
AcDbEntity
  8
0
100
AcDbLine
 62
7
  6
CONTINUOUS
 10
11.0
 20
30.1
 11
0.0
 21
30.1
  0
INSERT
  5
230
100
AcDbEntity
  8
0
100
AcDbBlockReference
 62
7
  6
CONTINUOUS
  2
_FILLED
 10
-11.0
 20
30.1
 41
3.0
 42
3.0
 43
3.0
 50
180.0
  0
INSERT
  5
231
100
AcDbEntity
  8
0
100
AcDbBlockReference
 62
7
  6
CONTINUOUS
  2
_FILLED
 10
11.0
 20
30.1
 41
3.0
 42
3.0
 43
3.0
  0
ENDBLK
  5
232
100
AcDbEntity
  8
0
  6
BYBLOCK
 62
0
100
AcDbBlockEnd
  0
BLOCK
  5
233
100
AcDbEntity
  8
0
100
AcDbBlockBegin
 62
7
  6
CONTINUOUS
  2
*D2
 70
65
 10
0.0
 20
0.0
  3
*D2
  1

  0
LINE
  5
234
100
AcDbEntity
  8
0
100
AcDbLine
 62
7
  6
CONTINUOUS
 10
11.0001713375
 20
22.1
 11
20.5
 21
22.1
  0
LINE
  5
235
100
AcDbEntity
  8
0
100
AcDbLine
 62
7
  6
CONTINUOUS
 10
11.0001713375
 20
-22.1
 11
20.5
 21
-22.1
  0
LINE
  5
236
100
AcDbEntity
  8
0
100
AcDbLine
 62
7
  6
CONTINUOUS
 10
19.0
 20
22.1
 11
19.0
 21
0.0
  0
LINE
  5
237
100
AcDbEntity
  8
0
100
AcDbLine
 62
7
  6
CONTINUOUS
 10
19.0
 20
-22.1
 11
19.0
 21
0.0
  0
INSERT
  5
238
100
AcDbEntity
  8
0
100
AcDbBlockReference
 62
7
  6
CONTINUOUS
  2
_FILLED
 10
19.0
 20
22.1
 41
3.0
 42
3.0
 43
3.0
 50
90.0
  0
INSERT
  5
239
100
AcDbEntity
  8
0
100
AcDbBlockReference
 62
7
  6
CONTINUOUS
  2
_FILLED
 10
19.0
 20
-22.1
 41
3.0
 42
3.0
 43
3.0
 50
270.0
  0
ENDBLK
  5
23A
100
AcDbEntity
  8
0
  6
BYBLOCK
 62
0
100
AcDbBlockEnd
  0
ENDSEC
  0
SECTION
  2
ENTITIES
  0
DIMENSION
  5
23B
100
AcDbEntity
  8
0
100
AcDbDimension
 62
7
  6
CONTINUOUS
  2
*D0
 10
-32.6921841347
 20
30.1
 11
-32.556461214
 21
30.85
 70
160
 71
2
 42
6.7000172699
  3
DIMSTYLE_1
100
AcDbAlignedDimension
 13
-25.9921668648
 23
22.1001713375
 14
-32.6921841347
 24
0.5
 50
180.0
100
AcDbRotatedDimension
  0
DIMENSION
  5
23C
100
AcDbEntity
  8
0
100
AcDbDimension
 62
7
  6
CONTINUOUS
  2
*D1
 10
11.0
 20
30.1
 11
-2.3571428571
 21
30.85
 70
160
 71
2
 42
22.0
  3
DIMSTYLE_1
100
AcDbAlignedDimension
 13
-11.0
 23
22.1001713375
 14
11.0
 24
22.1001713375
100
AcDbRotatedDimension
  0
DIMENSION
  5
23D
100
AcDbEntity
  8
0
100
AcDbDimension
 62
7
  6
CONTINUOUS
  2
*D2
 10
19.0
 20
-22.1
 11
18.25
 21
-4.3928571429
 70
160
 71
2
 42
44.2
  3
DIMSTYLE_1
100
AcDbAlignedDimension
 13
11.0001713375
 23
22.1
 14
11.0001713375
 24
-22.1
 50
270.0
100
AcDbRotatedDimension
  0
LINE
  5
23E
100
AcDbEntity
  8
RACCORDO
100
AcDbLine
 62
7
  6
CONTINUOUS
 10
-10.5001713375
 20
-22.1
 11
10.5001713375
 21
-22.1
  0
LINE
  5
23F
100
AcDbEntity
  8
RACCORDO
100
AcDbLine
 62
7
  6
CONTINUOUS
 10
-11.0
 20
-21.6001713375
 11
-11.0
 21
21.6001713375
  0
LINE
  5
240
100
AcDbEntity
  8
RACCORDO
100
AcDbLine
 62
253
  6
CONTINUOUS
 10
-10.3945930837
 20
20.8300973546
 11
-10.3945930842
 21
-20.8300973581
  0
LINE
  5
241
100
AcDbEntity
  8
RACCORDO
100
AcDbLine
 62
253
  6
CONTINUOUS
 10
10.3787579845
 20
21.978586647
 11
10.5001713375
 21
22.1
  0
LINE
  5
242
100
AcDbEntity
  8
RACCORDO
100
AcDbLine
 62
253
  6
CONTINUOUS
 10
10.5001713375
 20
-22.1
 11
10.3787579832
 21
-21.9785866456
  0
LINE
  5
243
100
AcDbEntity
  8
RACCORDO
100
AcDbLine
 62
253
  6
CONTINUOUS
 10
10.878586647
 20
21.4787579845
 11
11.0
 21
21.6001713375
  0
LINE
  5
244
100
AcDbEntity
  8
RACCORDO
100
AcDbLine
 62
253
  6
CONTINUOUS
 10
11.0
 20
-21.6001713375
 11
10.8785866456
 21
-21.4787579832
  0
LWPOLYLINE
  5
245
100
AcDbEntity
  8
0
100
AcDbPolyline
 62
7
  6
CONTINUOUS
 90
2
 70
0
 43
0.3500000006
 10
18.2499999046
 20
-3.3928568802
 10
16.7499994469
 20
-3.3928568802
  0
LINE
  5
246
100
AcDbEntity
  8
0
100
AcDbLine
 62
7
  6
CONTINUOUS
 10
-1.815732
 20
-13.6399999896
 11
-1.815732
 21
-13.6600001708
  0
LWPOLYLINE
  5
247
100
AcDbEntity
  8
0
100
AcDbPolyline
 62
7
  6
CONTINUOUS
 90
2
 70
0
 43
0.3500000006
 10
18.2499999046
 20
-1.0357139511
 10
16.7499994469
 20
-1.0357139511
  0
LINE
  5
248
100
AcDbEntity
  8
0
100
AcDbLine
 62
7
  6
CONTINUOUS
 10
0.813006
 20
-13.6399998427
 11
0.813006
 21
-13.6599999972
  0
LWPOLYLINE
  5
249
100
AcDbEntity
  8
0
100
AcDbPolyline
 62
7
  6
CONTINUOUS
 90
3
 70
0
 43
0.3500000006
 10
17.9642853699
 20
1.0357133102
 10
18.1785709877
 20
0.9642866592
 10
18.4642855225
 20
0.8214288254
  0
LINE
  5
24A
100
AcDbEntity
  8
RACCORDO
100
AcDbLine
 62
253
  6
CONTINUOUS
 10
-10.878586647
 20
-21.4787579845
 11
-11.0
 21
-21.6001713375
  0
LINE
  5
24B
100
AcDbEntity
  8
RACCORDO
100
AcDbLine
 62
253
  6
CONTINUOUS
 10
-10.3787579845
 20
-21.978586647
 11
-10.5001713375
 21
-22.1
  0
LWPOLYLINE
  5
24C
100
AcDbEntity
  8
0
100
AcDbPolyline
 62
7
  6
CONTINUOUS
 90
10
 70
0
 43
0.3500000006
 10
17.749999752
 20
0.9642866592
 10
17.8928575859
 20
1.0357133102
 10
17.9642853699
 20
1.0357133102
 10
18.1071432037
 20
0.8928577423
 10
18.1071432037
 20
0.8214288254
 10
18.0357142868
 20
0.7499999084
 10
17.9642853699
 20
0.7499999084
 10
17.821428669
 20
0.8214288254
 10
17.749999752
 20
0.8928577423
 10
17.749999752
 20
0.9642866592
  0
LINE
  5
24D
100
AcDbEntity
  8
RACCORDO
100
AcDbLine
 62
253
  6
CONTINUOUS
 10
-11.0
 20
21.6001713375
 11
-10.8785866456
 21
21.4787579832
  0
LINE
  5
24E
100
AcDbEntity
  8
RACCORDO
100
AcDbLine
 62
253
  6
CONTINUOUS
 10
-10.5001713375
 20
22.1
 11
-10.3787579832
 21
21.9785866456
  0
LINE
  5
24F
100
AcDbEntity
  8
RACCORDO
100
AcDbLine
 62
253
  6
CONTINUOUS
 10
10.3945930837
 20
-20.8300973553
 11
10.3945930842
 21
20.8300973573
  0
LINE
  5
250
100
AcDbEntity
  8
RACCORDO
100
AcDbLine
 62
7
  6
CONTINUOUS
 10
11.0
 20
-21.6001713375
 11
11.0
 21
21.6001713375
  0
LWPOLYLINE
  5
251
100
AcDbEntity
  8
0
100
AcDbPolyline
 62
7
  6
CONTINUOUS
 90
3
 70
0
 43
0.3500000006
 10
17.6071430511
 20
-0.5357137985
 10
17.6071430511
 20
-2.0357142563
 10
15.2500001221
 20
-1.3928574028
  0
LWPOLYLINE
  5
252
100
AcDbEntity
  8
0
100
AcDbPolyline
 62
7
  6
CONTINUOUS
 90
3
 70
0
 43
0.3500000006
 10
17.6071430511
 20
-2.8928567276
 10
17.6071430511
 20
-4.3928571854
 10
15.2500001221
 20
-3.7500003319
  0
LWPOLYLINE
  5
253
100
AcDbEntity
  8
0
100
AcDbPolyline
 62
7
  6
CONTINUOUS
 90
7
 70
0
 43
0.3500000006
 10
18.2499999046
 20
3.5357140732
 10
18.2499999046
 20
2.0357136154
 10
16.1071425934
 20
3.5357140732
 10
15.6785713577
 20
3.5357140732
 10
15.2500001221
 20
3.1071428375
 10
15.2500001221
 20
2.4642848511
 10
15.8928569756
 20
2.0357136154
  0
LINE
  5
254
100
AcDbEntity
  8
RACCORDO
100
AcDbLine
 62
7
  6
CONTINUOUS
 10
-10.5001713375
 20
22.1
 11
10.5001713375
 21
22.1
  0
LWPOLYLINE
  5
255
100
AcDbEntity
  8
0
100
AcDbPolyline
 62
7
  6
CONTINUOUS
 90
7
 70
0
 43
0.3500000006
 10
1.5000000329
 20
30.8500000305
 10
0.0
 20
30.8500000305
 10
1.5000000329
 20
32.9928584747
 10
1.5000000329
 20
33.4214274445
 10
1.0714285848
 20
33.850000946
 10
0.4285714127
 20
33.850000946
 10
0.0
 20
33.2071429596
  0
LWPOLYLINE
  5
256
100
AcDbEntity
  8
0
100
AcDbPolyline
 62
7
  6
CONTINUOUS
 90
7
 70
0
 43
0.3500000006
 10
-0.8571428254
 20
30.8500000305
 10
-2.3571427875
 20
30.8500000305
 10
-0.8571428254
 20
32.9928584747
 10
-0.8571428254
 20
33.4214274445
 10
-1.2857142735
 20
33.850000946
 10
-1.9285714102
 20
33.850000946
 10
-2.3571427875
 20
33.2071429596
  0
LWPOLYLINE
  5
257
100
AcDbEntity
  8
0
100
AcDbPolyline
 62
7
  6
CONTINUOUS
 90
10
 70
0
 43
0.3500000006
 10
-31.4850318146
 20
33.850000946
 10
-32.127889801
 20
33.2071429596
 10
-32.5564610367
 20
32.3500004883
 10
-32.5564610367
 20
31.2785735321
 10
-32.127889801
 20
30.8500000305
 10
-31.4850318146
 20
30.8500000305
 10
-31.0564605789
 20
31.2785735321
 10
-31.0564605789
 20
32.1357160034
 10
-31.4850318146
 20
32.5642849731
 10
-32.4136032028
 20
32.5642849731
  0
LINE
  5
258
100
AcDbEntity
  8
RACCORDO
100
AcDbLine
 62
7
  6
CONTINUOUS
 10
-25.9921668648
 20
-22.1
 11
-30.9823651883
 21
-21.9693270581
  0
LINE
  5
259
100
AcDbEntity
  8
RACCORDO
100
AcDbLine
 62
253
  6
CONTINUOUS
 10
-25.9921668648
 20
-21.6001713375
 11
-30.6287558059
 21
-21.4787579832
  0
LINE
  5
25A
100
AcDbEntity
  8
RACCORDO
100
AcDbLine
 62
253
  6
CONTINUOUS
 10
-31.7979413592
 20
-20.8300973788
 11
-31.3126263798
 21
-20.8087575806
  0
LWPOLYLINE
  5
25B
100
AcDbEntity
  8
0
100
AcDbPolyline
 62
7
  6
CONTINUOUS
 90
3
 70
0
 43
0.3500000006
 10
-29.4850334702
 20
31.1357156982
 10
-29.5564601212
 20
30.9214266815
 10
-29.699317955
 20
30.6357155457
  0
LWPOLYLINE
  5
25C
100
AcDbEntity
  8
0
100
AcDbPolyline
 62
7
  6
CONTINUOUS
 90
3
 70
0
 10
-32.4323342347
 20
-14.4153393465
 10
-32.3122206217
 20
-17.4302485115
 10
-32.1493210134
 20
-20.8322351581
  0
LINE
  5
25D
100
AcDbEntity
  8
0
100
AcDbLine
 62
7
  6
CONTINUOUS
 10
-32.555347824
 20
-10.4616022455
 11
-32.4684799354
 21
-13.3501371201
  0
LINE
  5
25E
100
AcDbEntity
  8
0
100
AcDbLine
 62
7
  6
CONTINUOUS
 10
-32.5754909127
 20
-9.6317586839
 11
-32.555347824
 21
-10.4616022455
  0
LWPOLYLINE
  5
25F
100
AcDbEntity
  8
0
100
AcDbPolyline
 62
7
  6
CONTINUOUS
 90
10
 70
0
 10
-32.1493210134
 20
20.8322351581
 10
-32.3125110584
 20
17.4235885523
 10
-32.4492007459
 20
13.9397926488
 10
-32.5555221412
 20
10.4549378163
 10
-32.6314642706
 20
6.9692886907
 10
-32.677018686
 20
3.4831099617
 10
-32.6921841208
 20
-0.0033334725
 10
-32.6769605757
 20
-3.4897766272
 10
-32.6313480514
 20
-6.9759545175
 10
-32.5920394603
 20
-8.9500009936
  0
LWPOLYLINE
  5
260
100
AcDbEntity
  8
0
100
AcDbPolyline
 62
7
  6
CONTINUOUS
 90
4
 70
0
 43
0.3500000006
 10
-28.485033165
 20
33.2071429596
 10
-28.485033165
 20
33.850000946
 10
-26.9850327072
 20
33.850000946
 10
-27.8421751785
 20
30.8500000305
  0
LINE
  5
261
100
AcDbEntity
  8
RACCORDO
100
AcDbLine
 62
7
  6
CONTINUOUS
 10
-25.9921668648
 20
-22.1
 11
-25.9921668648
 21
22.1
  0
LWPOLYLINE
  5
262
100
AcDbEntity
  8
0
100
AcDbPolyline
 62
7
  6
CONTINUOUS
 90
10
 70
0
 43
0.3500000006
 10
-29.5564601212
 20
31.3500001831
 10
-29.4850334702
 20
31.2071423492
 10
-29.4850334702
 20
31.1357156982
 10
-29.6278890381
 20
30.9928578644
 10
-29.699317955
 20
30.9928578644
 10
-29.7707468719
 20
31.0642845154
 10
-29.7707468719
 20
31.1357156982
 10
-29.699317955
 20
31.2785735321
 10
-29.6278890381
 20
31.3500001831
 10
-29.5564601212
 20
31.3500001831
  0
LINE
  5
263
100
AcDbEntity
  8
RACCORDO
100
AcDbLine
 62
253
  6
CONTINUOUS
 10
-30.6287557532
 20
21.4787579845
 11
-25.9921668648
 21
21.6001713375
  0
LINE
  5
264
100
AcDbEntity
  8
RACCORDO
100
AcDbLine
 62
7
  6
CONTINUOUS
 10
-30.9823651731
 20
21.9693270585
 11
-25.9921668648
 21
22.1
  0
LINE
  5
265
100
AcDbEntity
  8
RACCORDO
100
AcDbLine
 62
253
  6
CONTINUOUS
 10
-31.797927985
 20
20.8300968077
 11
-31.3126263521
 21
20.8087575834
  0
ARC
  5
266
100
AcDbEntity
  8
0
100
AcDbCircle
 62
7
  6
CONTINUOUS
 10
-9.155774781
 20
-15.2009097473
 40
12.3086364492
100
AcDbArc
 50
7.4231607579
 51
28.4019711546
  0
ARC
  5
267
100
AcDbEntity
  8
0
100
AcDbCircle
 62
7
  6
CONTINUOUS
 10
-9.1622951427
 20
-15.2040927017
 40
11.7158860925
100
AcDbArc
 50
23.6183514461
 51
28.4004629921
  0
ARC
  5
268
100
AcDbEntity
  8
0
100
AcDbCircle
 62
7
  6
CONTINUOUS
 10
-9.1606056015
 20
-15.2024260467
 40
11.7137377549
100
AcDbArc
 50
9.1565782066
 51
15.5725057115
  0
ARC
  5
269
100
AcDbEntity
  8
0
100
AcDbCircle
 62
7
  6
CONTINUOUS
 10
-9.1570896964
 20
-15.201643149
 40
11.7101420695
100
AcDbArc
 50
9.1555329517
 51
28.4020328925
  0
ARC
  5
26A
100
AcDbEntity
  8
0
100
AcDbCircle
 62
7
  6
CONTINUOUS
 10
-9.1552487606
 20
-15.2009681569
 40
11.7081814005
100
AcDbArc
 50
19.8514998359
 51
21.2175812882
  0
ARC
  5
26B
100
AcDbEntity
  8
0
100
AcDbCircle
 62
7
  6
CONTINUOUS
 10
-9.1532350413
 20
-15.2004562961
 40
11.7061089626
100
AcDbArc
 50
15.5729033366
 51
17.2196305176
  0
ARC
  5
26C
100
AcDbEntity
  8
0
100
AcDbCircle
 62
7
  6
CONTINUOUS
 10
-9.1508378899
 20
-15.1992667299
 40
11.7034537659
100
AcDbArc
 50
21.2176314634
 51
21.989514354
  0
ARC
  5
26D
100
AcDbEntity
  8
0
100
AcDbCircle
 62
7
  6
CONTINUOUS
 10
-0.0090966444
 20
-10.2549185932
 40
1.9103417221
100
AcDbArc
 50
28.4021279622
 51
28.6939449105
  0
ARC
  5
26E
100
AcDbEntity
  8
0
100
AcDbCircle
 62
7
  6
CONTINUOUS
 10
-0.003072569
 20
-10.2477596709
 40
1.8962321852
100
AcDbArc
 50
142.0307402898
 51
151.6134417787
  0
CIRCLE
  5
26F
100
AcDbEntity
  8
0
100
AcDbCircle
 62
7
  6
CONTINUOUS
 10
-0.5000001816
 20
-13.9999958147
 40
0.6500014067
  0
ARC
  5
270
100
AcDbEntity
  8
RACCORDO
100
AcDbCircle
 62
253
  6
CONTINUOUS
 10
-10.3783243438
 20
-21.4783243438
 40
0.5002656608
100
AcDbArc
 50
180.0496655042
 51
269.9503344958
  0
ARC
  5
271
100
AcDbEntity
  8
0
100
AcDbCircle
 62
7
  6
CONTINUOUS
 10
-2.7531618194
 20
-13.6498499871
 40
0.2992244965
100
AcDbArc
 50
172.5855428174
 51
269.9582867558
  0
ARC
  5
272
100
AcDbEntity
  8
0
100
AcDbCircle
 62
7
  6
CONTINUOUS
 10
-2.1060537799
 20
-13.6579565704
 40
0.292043458
100
AcDbArc
 50
270.0367307509
 51
287.8476086794
  0
ARC
  5
273
100
AcDbEntity
  8
0
100
AcDbCircle
 62
7
  6
CONTINUOUS
 10
-2.1060046839
 20
-13.6417583566
 40
0.2917585494
100
AcDbArc
 50
72.4544472469
 51
89.9327023733
  0
ARC
  5
274
100
AcDbEntity
  8
0
100
AcDbCircle
 62
7
  6
CONTINUOUS
 10
-2.1053821423
 20
-13.659962859
 40
0.2896501447
100
AcDbArc
 50
269.9802926253
 51
359.9926193491
  0
ARC
  5
275
100
AcDbEntity
  8
0
100
AcDbCircle
 62
7
  6
CONTINUOUS
 10
-2.1050606583
 20
-13.6400473433
 40
0.2893286622
100
AcDbArc
 50
0.009373239
 51
89.9832900382
  0
ARC
  5
276
100
AcDbEntity
  8
0
100
AcDbCircle
 62
7
  6
CONTINUOUS
 10
-2.3940021055
 20
-13.3399971153
 40
0.0099946323
100
AcDbArc
 50
170.8560818007
 51
270.0567224153
  0
ARC
  5
277
100
AcDbEntity
  8
RACCORDO
100
AcDbCircle
 62
253
  6
CONTINUOUS
 10
-18539.6611579524
 20
0.0000003223
 40
18528.8121637149
100
AcDbArc
 50
359.9356540373
 51
0.0643459607
  0
ARC
  5
278
100
AcDbEntity
  8
RACCORDO
100
AcDbCircle
 62
253
  6
CONTINUOUS
 10
-10.3783243405
 20
21.4783243405
 40
0.5002656627
100
AcDbArc
 50
90.0496657208
 51
179.9503342792
  0
ARC
  5
279
100
AcDbEntity
  8
RACCORDO
100
AcDbCircle
 62
253
  6
CONTINUOUS
 10
0.0000003849
 20
-5837.23169339
 40
5815.262368467
100
AcDbArc
 50
89.8977416177
 51
90.1022583899
  0
ARC
  5
27A
100
AcDbEntity
  8
0
100
AcDbCircle
 62
7
  6
CONTINUOUS
 10
9.157198
 20
-15.20168
 40
12.3102555115
100
AcDbArc
 50
151.598056198
 51
172.5768222331
  0
ARC
  5
27B
100
AcDbEntity
  8
0
100
AcDbCircle
 62
7
  6
CONTINUOUS
 10
9.1622999032
 20
-15.2040949646
 40
11.7158912586
100
AcDbArc
 50
151.5995352589
 51
156.3143436044
  0
ARC
  5
27C
100
AcDbEntity
  8
0
100
AcDbCircle
 62
7
  6
CONTINUOUS
 10
9.1606056621
 20
-15.2024260369
 40
11.713737715
100
AcDbArc
 50
164.4293608495
 51
170.8435519933
  0
ARC
  5
27D
100
AcDbEntity
  8
0
100
AcDbCircle
 62
7
  6
CONTINUOUS
 10
9.1570892993
 20
-15.2016430142
 40
11.7101415584
100
AcDbArc
 50
151.597962319
 51
170.8445923951
  0
ARC
  5
27E
100
AcDbEntity
  8
0
100
AcDbCircle
 62
7
  6
CONTINUOUS
 10
9.1552827999
 20
-15.2009807306
 40
11.7082175948
100
AcDbArc
 50
158.8122206145
 51
160.1505291136
  0
ARC
  5
27F
100
AcDbEntity
  8
0
100
AcDbCircle
 62
7
  6
CONTINUOUS
 10
9.1530985831
 20
-15.2004163064
 40
11.7059666799
100
AcDbArc
 50
162.8332071926
 51
164.4289735756
  0
ARC
  5
280
100
AcDbEntity
  8
0
100
AcDbCircle
 62
7
  6
CONTINUOUS
 10
9.1509174873
 20
-15.1992985898
 40
11.7035394044
100
AcDbArc
 50
158.0123290437
 51
158.8121750532
  0
ARC
  5
281
100
AcDbEntity
  8
0
100
AcDbCircle
 62
7
  6
CONTINUOUS
 10
-0.000000864
 20
-10.2499231907
 40
1.899931212
100
AcDbArc
 50
28.4001780522
 51
151.6000816894
  0
ARC
  5
282
100
AcDbEntity
  8
0
100
AcDbCircle
 62
7
  6
CONTINUOUS
 10
0.0031613236
 20
-10.2515855893
 40
1.303534725
100
AcDbArc
 50
144.3139393256
 51
151.6028451869
  0
ARC
  5
283
100
AcDbEntity
  8
0
100
AcDbCircle
 62
7
  6
CONTINUOUS
 10
-0.0000015792
 20
-10.2499828914
 40
1.2999624969
100
AcDbArc
 50
28.401207529
 51
151.5986862244
  0
ARC
  5
284
100
AcDbEntity
  8
RACCORDO
100
AcDbCircle
 62
253
  6
CONTINUOUS
 10
10.3783243405
 20
-21.4783243405
 40
0.5002656627
100
AcDbArc
 50
270.0496657161
 51
359.9503342839
  0
ARC
  5
285
100
AcDbEntity
  8
0
100
AcDbCircle
 62
7
  6
CONTINUOUS
 10
2.7523395309
 20
-13.651076574
 40
0.2989235015
100
AcDbArc
 50
270.0805807011
 51
7.4151568032
  0
ARC
  5
286
100
AcDbEntity
  8
0
100
AcDbCircle
 62
7
  6
CONTINUOUS
 10
1.1026546462
 20
-13.6400371826
 40
0.2896486486
100
AcDbArc
 50
90.0357450714
 51
179.9926113445
  0
ARC
  5
287
100
AcDbEntity
  8
0
100
AcDbCircle
 62
7
  6
CONTINUOUS
 10
1.1023384304
 20
-13.6599527637
 40
0.2893324342
100
AcDbArc
 50
180.009353523
 51
270.0369864821
  0
ARC
  5
288
100
AcDbEntity
  8
0
100
AcDbCircle
 62
7
  6
CONTINUOUS
 10
1.1030077457
 20
-13.661887013
 40
0.2881129855
100
AcDbArc
 50
268.6611647732
 51
270.043284276
  0
ARC
  5
289
100
AcDbEntity
  8
0
100
AcDbCircle
 62
7
  6
CONTINUOUS
 10
1.1030081241
 20
-13.6373268407
 40
0.2873268419
100
AcDbArc
 50
90.0330513418
 51
91.1855806362
  0
ARC
  5
28A
100
AcDbEntity
  8
0
100
AcDbCircle
 62
7
  6
CONTINUOUS
 10
2.393998151
 20
-13.3399719074
 40
0.0099946231
100
AcDbArc
 50
269.9432156883
 51
9.1441049852
  0
ARC
  5
28B
100
AcDbEntity
  8
RACCORDO
100
AcDbCircle
 62
253
  6
CONTINUOUS
 10
18539.6611454846
 20
-0.0000003223
 40
18528.8121512472
100
AcDbArc
 50
179.9356540373
 51
180.0643459607
  0
ARC
  5
28C
100
AcDbEntity
  8
RACCORDO
100
AcDbCircle
 62
253
  6
CONTINUOUS
 10
-0.0000003861
 20
5837.2316941562
 40
5815.2623692333
100
AcDbArc
 50
269.8977416177
 51
270.1022583899
  0
ARC
  5
28D
100
AcDbEntity
  8
RACCORDO
100
AcDbCircle
 62
253
  6
CONTINUOUS
 10
10.3783243438
 20
21.4783243438
 40
0.5002656608
100
AcDbArc
 50
0.0496655001
 51
89.9503344999
  0
ARC
  5
28E
100
AcDbEntity
  8
0
100
AcDbCircle
 62
7
  6
CONTINUOUS
 10
793.6466513497
 20
16.9903434628
 40
826.6385766406
100
AcDbArc
 50
181.8488478683
 51
182.0829205743
  0
ARC
  5
28F
100
AcDbEntity
  8
0
100
AcDbCircle
 62
7
  6
CONTINUOUS
 10
638.7718732741
 20
11.6481095445
 40
671.6721552166
100
AcDbArc
 50
181.8196104984
 51
182.1234870032
  0
ARC
  5
290
100
AcDbEntity
  8
0
100
AcDbCircle
 62
7
  6
CONTINUOUS
 10
516.853130507
 20
6.7665100217
 40
549.6688157074
100
AcDbArc
 50
181.7095472334
 51
182.0961395448
  0
ARC
  5
291
100
AcDbEntity
  8
RACCORDO
100
AcDbCircle
 62
253
  6
CONTINUOUS
 10
454.4632404159
 20
-0.0000000004
 40
486.7071294526
100
AcDbArc
 50
177.547105361
 51
182.4528946387
  0
ARC
  5
292
100
AcDbEntity
  8
RACCORDO
100
AcDbCircle
 62
253
  6
CONTINUOUS
 10
453.6722255778
 20
-0.0000003222
 40
485.4310569041
100
AcDbArc
 50
177.5431744091
 51
182.4568255145
  0
ARC
  5
293
100
AcDbEntity
  8
0
100
AcDbCircle
 62
7
  6
CONTINUOUS
 10
3.8806853271
 20
-12.3946940395
 40
36.3590694433
100
AcDbArc
 50
181.7801536324
 51
181.9191428594
  0
ARC
  5
294
100
AcDbEntity
  8
0
100
AcDbCircle
 62
7
  6
CONTINUOUS
 10
-0.3940384815
 20
-12.5776203782
 40
32.0805915118
100
AcDbArc
 50
181.9881015215
 51
182.2820021078
  0
ARC
  5
295
100
AcDbEntity
  8
0
100
AcDbCircle
 62
7
  6
CONTINUOUS
 10
-5.36661645
 20
-12.7630032124
 40
27.1045784884
100
AcDbArc
 50
181.9611067518
 51
182.3089351469
  0
ARC
  5
296
100
AcDbEntity
  8
0
100
AcDbCircle
 62
7
  6
CONTINUOUS
 10
-45.7469067729
 20
-14.0976110869
 40
13.3302753612
100
AcDbArc
 50
1.9576271743
 51
2.0909724473
  0
ARC
  5
297
100
AcDbEntity
  8
0
100
AcDbCircle
 62
7
  6
CONTINUOUS
 10
-24.5679031377
 20
-13.5420755732
 40
7.8874953891
100
AcDbArc
 50
182.2735891891
 51
182.6898066451
  0
ARC
  5
298
100
AcDbEntity
  8
0
100
AcDbCircle
 62
7
  6
CONTINUOUS
 10
-29.3348315262
 20
-13.3224543463
 40
3.13043981
100
AcDbArc
 50
180.9612535487
 51
181.2198474142
  0
ARC
  5
299
100
AcDbEntity
  8
RACCORDO
100
AcDbCircle
 62
253
  6
CONTINUOUS
 10
-30.598147554
 20
-20.7779450196
 40
1.2009812539
100
AcDbArc
 50
182.4889517466
 51
268.5396609267
  0
ARC
  5
29A
100
AcDbEntity
  8
RACCORDO
100
AcDbCircle
 62
253
  6
CONTINUOUS
 10
-30.5981478516
 20
20.7779453801
 40
1.2009812526
100
AcDbArc
 50
91.4603228061
 51
177.5110647193
  0
ARC
  5
29B
100
AcDbEntity
  8
RACCORDO
100
AcDbCircle
 62
7
  6
CONTINUOUS
 10
-30.9509492949
 20
-20.7697383612
 40
1.2
100
AcDbArc
 50
182.985352211
 51
268.5
  0
ARC
  5
29C
100
AcDbEntity
  8
RACCORDO
100
AcDbCircle
 62
7
  6
CONTINUOUS
 10
-30.950949295
 20
20.7697383612
 40
1.2
100
AcDbArc
 50
91.5
 51
177.0146477891
  0
ARC
  5
29D
100
AcDbEntity
  8
0
100
AcDbCircle
 62
7
  6
CONTINUOUS
 10
-32.9627598448
 20
-13.3570109197
 40
0.5152166218
100
AcDbArc
 50
1.4352401591
 51
2.0719450964
  0
LINE
  5
29E
100
AcDbEntity
  8
0
100
AcDbLine
 62
7
  6
CONTINUOUS
 10
1.1032254172
 20
-13.9500327288
 11
1.1876629317
 21
-13.9500302698
  0
LINE
  5
29F
100
AcDbEntity
  8
0
100
AcDbLine
 62
7
  6
CONTINUOUS
 10
1.1876629317
 20
-13.9500302698
 11
1.3716836058
 21
-13.9500242827
  0
LINE
  5
2A0
100
AcDbEntity
  8
0
100
AcDbLine
 62
7
  6
CONTINUOUS
 10
1.3716836058
 20
-13.9500242827
 11
1.5555428717
 21
-13.950017441
  0
LINE
  5
2A1
100
AcDbEntity
  8
0
100
AcDbLine
 62
7
  6
CONTINUOUS
 10
1.5555428717
 20
-13.950017441
 11
1.7496429107
 21
-13.9500092855
  0
LINE
  5
2A2
100
AcDbEntity
  8
0
100
AcDbLine
 62
7
  6
CONTINUOUS
 10
1.7496429107
 20
-13.9500092855
 11
1.933415478
 21
-13.9500006809
  0
LINE
  5
2A3
100
AcDbEntity
  8
0
100
AcDbLine
 62
7
  6
CONTINUOUS
 10
1.933415478
 20
-13.9500006809
 11
2.0864022697
 21
-13.9499928628
  0
LINE
  5
2A4
100
AcDbEntity
  8
0
100
AcDbLine
 62
7
  6
CONTINUOUS
 10
2.0864022697
 20
-13.9499928628
 11
2.2619829525
 21
-13.9499831564
  0
LINE
  5
2A5
100
AcDbEntity
  8
0
100
AcDbLine
 62
7
  6
CONTINUOUS
 10
2.2619829525
 20
-13.9499831564
 11
2.4523836966
 21
-13.9499717445
  0
LINE
  5
2A6
100
AcDbEntity
  8
0
100
AcDbLine
 62
7
  6
CONTINUOUS
 10
2.4523836966
 20
-13.9499717445
 11
2.640745072
 21
-13.9499595476
  0
LINE
  5
2A7
100
AcDbEntity
  8
0
100
AcDbLine
 62
7
  6
CONTINUOUS
 10
2.640745072
 20
-13.9499595476
 11
2.7527599119
 21
-13.9499518664
  0
LINE
  5
2A8
100
AcDbEntity
  8
0
100
AcDbLine
 62
7
  6
CONTINUOUS
 10
2.3939893065
 20
-13.3499665255
 11
2.2505481309
 21
-13.3499750827
  0
LINE
  5
2A9
100
AcDbEntity
  8
0
100
AcDbLine
 62
7
  6
CONTINUOUS
 10
2.2505481309
 20
-13.3499750827
 11
1.1761133183
 21
-13.3500223697
  0
LINE
  5
2AA
100
AcDbEntity
  8
0
100
AcDbLine
 62
7
  6
CONTINUOUS
 10
1.1761133183
 20
-13.3500223697
 11
1.1028423855
 21
-13.3500245143
  0
SPLINE
  5
2AB
100
AcDbEntity
  8
0
100
AcDbSpline
 62
7
  6
CONTINUOUS
 70
0
 71
3
 72
8
 73
4
 74
2
 42
0.0000001
 43
0.0000001
 44
0.0000000001
 12
0.0009187546
 22
-0.0057004807
 32
0.0
 13
-0.0023728902
 23
-0.0052639322
 33
0.0
 40
0.0
 40
0.0
 40
0.0
 40
0.0
 40
1.0
 40
1.0
 40
1.0
 40
1.0
 10
2.4038657155
 20
-13.3383833803
 30
0.0
 10
2.404171967
 20
-13.3402835405
 30
0.0
 10
2.4038878824
 20
-13.3423513704
 30
0.0
 10
2.403096919
 20
-13.3441060145
 30
0.0
 11
2.4038657155
 21
-13.3383833803
 31
0.0
 11
2.403096919
 21
-13.3441060145
 31
0.0
  0
SPLINE
  5
2AC
100
AcDbEntity
  8
0
100
AcDbSpline
 62
7
  6
CONTINUOUS
 70
0
 71
3
 72
8
 73
4
 74
2
 42
0.0000001
 43
0.0000001
 44
0.0000000001
 12
-0.0023433891
 22
-0.005198488
 32
0.0
 13
-0.0048210728
 23
-0.0030451613
 33
0.0
 40
0.0
 40
0.0
 40
0.0
 40
0.0
 40
1.0
 40
1.0
 40
1.0
 40
1.0
 10
2.403096919
 20
-13.3441060145
 30
0.0
 10
2.4023157893
 20
-13.3458388438
 30
0.0
 10
2.4009609796
 20
-13.3473928176
 30
0.0
 10
2.3993539553
 20
-13.3484078714
 30
0.0
 11
2.403096919
 21
-13.3441060145
 31
0.0
 11
2.3993539553
 21
-13.3484078714
 31
0.0
  0
SPLINE
  5
2AD
100
AcDbEntity
  8
0
100
AcDbSpline
 62
7
  6
CONTINUOUS
 70
0
 71
3
 72
8
 73
4
 74
2
 42
0.0000001
 43
0.0000001
 44
0.0000000001
 12
-0.0047231937
 22
-0.0029833374
 32
0.0
 13
-0.0055864891
 23
-0.0000003436
 33
0.0
 40
0.0
 40
0.0
 40
0.0
 40
0.0
 40
1.0
 40
1.0
 40
1.0
 40
1.0
 10
2.3993539553
 20
-13.3484078714
 30
0.0
 10
2.3977795574
 20
-13.3494023171
 30
0.0
 10
2.3958514695
 20
-13.349966411
 30
0.0
 10
2.3939893065
 20
-13.3499665255
 30
0.0
 11
2.3993539553
 21
-13.3484078714
 31
0.0
 11
2.3939893065
 21
-13.3499665255
 31
0.0
  0
SPLINE
  5
2AE
100
AcDbEntity
  8
0
100
AcDbSpline
 62
7
  6
CONTINUOUS
 70
0
 71
3
 72
8
 73
4
 74
2
 42
0.0000001
 43
0.0000001
 44
0.0000000001
 12
-0.0057812827
 22
0.0000003555
 32
0.0
 13
-0.0048280112
 23
0.0031801789
 33
0.0
 40
0.0
 40
0.0
 40
0.0
 40
0.0
 40
1.0
 40
1.0
 40
1.0
 40
1.0
 10
-2.3939919987
 20
-13.3499917427
 30
0.0
 10
-2.395919093
 20
-13.3499916242
 30
0.0
 10
-2.3979177857
 20
-13.3493827809
 30
0.0
 10
-2.3995271227
 20
-13.3483227213
 30
0.0
 11
-2.3939919987
 21
-13.3499917427
 31
0.0
 11
-2.3995271227
 21
-13.3483227213
 31
0.0
  0
SPLINE
  5
2AF
100
AcDbEntity
  8
0
100
AcDbSpline
 62
7
  6
CONTINUOUS
 70
0
 71
3
 72
8
 73
4
 74
2
 42
0.0000001
 43
0.0000001
 44
0.0000000001
 12
-0.004760216
 22
0.0031355227
 32
0.0
 13
-0.0022436916
 23
0.0052399434
 33
0.0
 40
0.0
 40
0.0
 40
0.0
 40
0.0
 40
1.0
 40
1.0
 40
1.0
 40
1.0
 10
-2.3995271227
 20
-13.3483227213
 30
0.0
 10
-2.4011138614
 20
-13.347277547
 30
0.0
 10
-2.4024342978
 20
-13.3456954
 30
0.0
 10
-2.403182195
 20
-13.3439487522
 30
0.0
 11
-2.3995271227
 21
-13.3483227213
 31
0.0
 11
-2.403182195
 21
-13.3439487522
 31
0.0
  0
SPLINE
  5
2B0
100
AcDbEntity
  8
0
100
AcDbSpline
 62
7
  6
CONTINUOUS
 70
0
 71
3
 72
8
 73
4
 74
2
 42
0.0000001
 43
0.0000001
 44
0.0000000001
 12
-0.0021970601
 22
0.0051310396
 32
0.0
 13
0.0008881266
 23
0.0055105237
 33
0.0
 40
0.0
 40
0.0
 40
0.0
 40
0.0
 40
1.0
 40
1.0
 40
1.0
 40
1.0
 10
-2.403182195
 20
-13.3439487522
 30
0.0
 10
-2.4039145484
 20
-13.3422384056
 30
0.0
 10
-2.4041659516
 20
-13.3402464879
 30
0.0
 10
-2.4038699094
 20
-13.3384096467
 30
0.0
 11
-2.403182195
 21
-13.3439487522
 31
0.0
 11
-2.4038699094
 21
-13.3384096467
 31
0.0
  0
LINE
  5
2B1
100
AcDbEntity
  8
0
100
AcDbLine
 62
7
  6
CONTINUOUS
 10
-2.1056619922
 20
-13.3500084068
 11
-2.1537324527
 21
-13.3500057769
  0
LINE
  5
2B2
100
AcDbEntity
  8
0
100
AcDbLine
 62
7
  6
CONTINUOUS
 10
-2.1537324527
 20
-13.3500057769
 11
-2.2017967351
 21
-13.350003088
  0
LINE
  5
2B3
100
AcDbEntity
  8
0
100
AcDbLine
 62
7
  6
CONTINUOUS
 10
-2.2017967351
 20
-13.350003088
 11
-2.2498548352
 21
-13.3500003401
  0
LINE
  5
2B4
100
AcDbEntity
  8
0
100
AcDbLine
 62
7
  6
CONTINUOUS
 10
-2.2498548352
 20
-13.3500003401
 11
-2.2979067487
 21
-13.3499975333
  0
LINE
  5
2B5
100
AcDbEntity
  8
0
100
AcDbLine
 62
7
  6
CONTINUOUS
 10
-2.2979067487
 20
-13.3499975333
 11
-2.3459524713
 21
-13.3499946675
  0
LINE
  5
2B6
100
AcDbEntity
  8
0
100
AcDbLine
 62
7
  6
CONTINUOUS
 10
-2.3459524713
 20
-13.3499946675
 11
-2.3939919987
 21
-13.3499917427
  0
LINE
  5
2B7
100
AcDbEntity
  8
0
100
AcDbLine
 62
7
  6
CONTINUOUS
 10
-2.7525740683
 20
-13.9499788357
 11
-2.7104960538
 21
-13.9499817583
  0
LINE
  5
2B8
100
AcDbEntity
  8
0
100
AcDbLine
 62
7
  6
CONTINUOUS
 10
-2.7104960538
 20
-13.9499817583
 11
-2.6380963591
 21
-13.9499866816
  0
LINE
  5
2B9
100
AcDbEntity
  8
0
100
AcDbLine
 62
7
  6
CONTINUOUS
 10
-2.6380963591
 20
-13.9499866816
 11
-2.5663007845
 21
-13.9499914322
  0
LINE
  5
2BA
100
AcDbEntity
  8
0
100
AcDbLine
 62
7
  6
CONTINUOUS
 10
-2.5663007845
 20
-13.9499914322
 11
-2.4976495021
 21
-13.949995852
  0
LINE
  5
2BB
100
AcDbEntity
  8
0
100
AcDbLine
 62
7
  6
CONTINUOUS
 10
-2.4976495021
 20
-13.949995852
 11
-2.429889294
 21
-13.950000097
  0
LINE
  5
2BC
100
AcDbEntity
  8
0
100
AcDbLine
 62
7
  6
CONTINUOUS
 10
-2.429889294
 20
-13.950000097
 11
-2.3580359599
 21
-13.9500044708
  0
LINE
  5
2BD
100
AcDbEntity
  8
0
100
AcDbLine
 62
7
  6
CONTINUOUS
 10
-2.3580359599
 20
-13.9500044708
 11
-2.2848626542
 21
-13.95000879
  0
LINE
  5
2BE
100
AcDbEntity
  8
0
100
AcDbLine
 62
7
  6
CONTINUOUS
 10
-2.2848626542
 20
-13.95000879
 11
-2.2130566014
 21
-13.9500128961
  0
LINE
  5
2BF
100
AcDbEntity
  8
0
100
AcDbLine
 62
7
  6
CONTINUOUS
 10
-2.2130566014
 20
-13.9500128961
 11
-2.1412651886
 21
-13.9500168703
  0
LINE
  5
2C0
100
AcDbEntity
  8
0
100
AcDbLine
 62
7
  6
CONTINUOUS
 10
-2.1412651886
 20
-13.9500168703
 11
-2.1058665574
 21
-13.9500187816
  0
LINE
  5
2C1
100
AcDbEntity
  8
0
100
AcDbLine
 62
7
  6
CONTINUOUS
 10
1.1028484079
 20
-13.3500245141
 11
2.3939882456
 21
-13.3499665256
  0
LINE
  5
2C2
100
AcDbEntity
  8
0
100
AcDbLine
 62
7
  6
CONTINUOUS
 10
2.752686777
 20
-13.9499518715
 11
1.1032192986
 21
-13.9500327289
  0
LINE
  5
2C3
100
AcDbEntity
  8
0
100
AcDbLine
 62
7
  6
CONTINUOUS
 10
-2.1058550295
 20
-13.9500187822
 11
-2.7525335785
 21
-13.9499788385
  0
LINE
  5
2C4
100
AcDbEntity
  8
0
100
AcDbLine
 62
7
  6
CONTINUOUS
 10
-2.3459538752
 20
-13.3499946674
 11
-2.105673647
 21
-13.3500084061
  0
SPLINE
  5
2C5
100
AcDbEntity
  8
RACCORDO
100
AcDbSpline
 62
253
  6
CONTINUOUS
 70
0
 71
3
 72
19
 73
15
 74
13
 42
0.0000001
 43
0.0000001
 44
0.0000000001
 12
-0.0007567078
 22
-0.6707313451
 32
0.0
 13
-0.4724844619
 23
-0.4760667424
 33
0.0
 40
0.0
 40
0.0
 40
0.0
 40
0.0
 40
0.1942382553
 40
0.380029375
 40
0.5507240058
 40
0.7003850708
 40
0.7656594899
 40
0.823782674
 40
0.8742740964
 40
0.9166951157
 40
0.9506932746
 40
0.9759919201
 40
0.9924056629
 40
1.0
 40
1.0
 40
1.0
 40
1.0
 10
-10.8606788652
 20
-20.8087575834
 30
0.0
 10
-10.860727859
 20
-20.8521848121
 30
0.0
 10
-10.8610298312
 20
-20.9371505824
 30
0.0
 10
-10.8620987372
 20
-21.0602760206
 30
0.0
 10
-10.8637385
 20
-21.1734273653
 30
0.0
 10
-10.8655914484
 20
-21.2596276443
 30
0.0
 10
-10.8673694676
 20
-21.3206502025
 30
0.0
 10
-10.8687352662
 20
-21.3595079131
 30
0.0
 10
-10.870196232
 20
-21.3932334723
 30
0.0
 10
-10.8716827344
 20
-21.4216019944
 30
0.0
 10
-10.8733207253
 20
-21.444200461
 30
0.0
 10
-10.874699742
 20
-21.4612760291
 30
0.0
 10
-10.8765836634
 20
-21.4717717474
 30
0.0
 10
-10.8773905783
 20
-21.4775528474
 30
0.0
 10
-10.878586647
 20
-21.4787579845
 30
0.0
 11
-10.8606788652
 21
-20.8087575834
 31
0.0
 11
-10.8611503463
 21
-20.9390384994
 31
0.0
 11
-10.8622537991
 21
-21.0636496208
 31
0.0
 11
-10.8639490071
 21
-21.1781273822
 31
0.0
 11
-10.86617476
 21
-21.278485135
 31
0.0
 11
-10.8674624025
 21
-21.3222478225
 31
0.0
 11
-10.8688517731
 21
-21.3612081233
 31
0.0
 11
-10.8703302716
 21
-21.3950420357
 31
0.0
 11
-10.8718847753
 21
-21.4234526652
 31
0.0
 11
-10.8735019667
 21
-21.4461988941
 31
0.0
 11
-10.8751683542
 21
-21.4630854782
 31
0.0
 11
-10.876869039
 21
-21.4739625444
 31
0.0
 11
-10.878586647
 21
-21.4787579845
 31
0.0
  0
LINE
  5
2C6
100
AcDbEntity
  8
RACCORDO
100
AcDbLine
 62
253
  6
CONTINUOUS
 10
10.3945894185
 20
20.8314008262
 11
-10.3945894179
 21
20.8314008262
  0
LINE
  5
2C7
100
AcDbEntity
  8
RACCORDO
100
AcDbLine
 62
253
  6
CONTINUOUS
 10
-10.3945894184
 20
-20.8314008366
 11
10.3945894179
 21
-20.8314008366
  0
SPLINE
  5
2C8
100
AcDbEntity
  8
RACCORDO
100
AcDbSpline
 62
253
  6
CONTINUOUS
 70
0
 71
3
 72
18
 73
14
 74
12
 42
0.0000001
 43
0.0000001
 44
0.0000000001
 12
0.4674632459
 22
0.0018790562
 32
0.0
 13
0.2434628339
 23
0.3990629846
 33
0.0
 40
0.0
 40
0.0
 40
0.0
 40
0.0
 40
0.1943378524
 40
0.3803447224
 40
0.5507037639
 40
0.6998188143
 40
0.8227640197
 40
0.8731658117
 40
0.9155681027
 40
0.9495660468
 40
0.9749705113
 40
0.9917011984
 40
1.0
 40
1.0
 40
1.0
 40
1.0
 10
10.3945930836
 20
-20.8300973788
 30
0.0
 10
10.424875018
 20
-20.8299756549
 30
0.0
 10
10.4841401635
 20
-20.829502808
 30
0.0
 10
10.5699416229
 20
-20.82811817
 30
0.0
 10
10.6486835347
 20
-20.8260987304
 30
0.0
 10
10.7175730689
 20
-20.8235339895
 30
0.0
 10
10.7677618446
 20
-20.8208949522
 30
0.0
 10
10.8012821104
 20
-20.8184668546
 30
0.0
 10
10.8209892629
 20
-20.8167077619
 30
0.0
 10
10.8366800825
 20
-20.8148746724
 30
0.0
 10
10.848578198
 20
-20.8130910365
 30
0.0
 10
10.855902829
 20
-20.8112430685
 30
0.0
 10
10.8600053812
 20
-20.8098614954
 30
0.0
 10
10.8606788644
 20
-20.8087575806
 30
0.0
 11
10.3945930836
 21
-20.8300973788
 31
0.0
 11
10.4854366786
 21
-20.829366234
 31
0.0
 11
10.5723769774
 21
-20.827935062
 31
0.0
 11
10.6519869152
 21
-20.8258501589
 31
0.0
 11
10.7216423993
 21
-20.8231871976
 31
0.0
 11
10.7790286391
 21
-20.820033537
 31
0.0
 11
10.8025263341
 21
-20.8183051498
 31
0.0
 11
10.8222650801
 21
-20.8164939026
 31
0.0
 11
10.8380464757
 21
-20.8146144382
 31
0.0
 11
10.8497645121
 21
-20.8126854367
 31
0.0
 11
10.8573362786
 21
-20.8107265877
 31
0.0
 11
10.8606788644
 21
-20.8087575806
 31
0.0
  0
SPLINE
  5
2C9
100
AcDbEntity
  8
RACCORDO
100
AcDbSpline
 62
253
  6
CONTINUOUS
 70
0
 71
3
 72
18
 73
14
 74
12
 42
0.0000001
 43
0.0000001
 44
0.0000000001
 12
0.4674639429
 22
-0.0018790028
 32
0.0
 13
0.2435841548
 23
-0.3989897594
 33
0.0
 40
0.0
 40
0.0
 40
0.0
 40
0.0
 40
0.1943347861
 40
0.3803391683
 40
0.5506966731
 40
0.6998112628
 40
0.8227571128
 40
0.8731596077
 40
0.9155628311
 40
0.9495619138
 40
0.9749676911
 40
0.9916998175
 40
1.0
 40
1.0
 40
1.0
 40
1.0
 10
10.3945921873
 20
20.8300968077
 30
0.0
 10
10.4248736891
 20
20.8299750891
 30
0.0
 10
10.4841380574
 20
20.8295022617
 30
0.0
 10
10.5699385408
 20
20.8281176766
 30
0.0
 10
10.6486798718
 20
20.8260983091
 30
0.0
 10
10.7175693031
 20
20.8235336495
 30
0.0
 10
10.7677582905
 20
20.8208946896
 30
0.0
 10
10.8012789759
 20
20.818466658
 30
0.0
 10
10.8209865771
 20
20.8167076084
 30
0.0
 10
10.836678003
 20
20.8148745417
 30
0.0
 10
10.848576641
 20
20.8130909598
 30
0.0
 10
10.8559021543
 20
20.8112429391
 30
0.0
 10
10.8600049341
 20
20.8098614793
 30
0.0
 10
10.8606788651
 20
20.8087575834
 30
0.0
 11
10.3945921873
 21
20.8300968077
 31
0.0
 11
10.4854344845
 21
20.8293656939
 31
0.0
 11
10.5723737507
 21
20.8279345784
 31
0.0
 11
10.6519830907
 21
20.8258497514
 31
0.0
 11
10.7216384666
 21
20.8231868776
 31
0.0
 11
10.7790250989
 21
20.8200333072
 31
0.0
 11
10.8025231619
 21
20.8183049643
 31
0.0
 11
10.8222623792
 21
20.8164937599
 31
0.0
 11
10.8380443395
 21
20.814614336
 31
0.0
 11
10.849763022
 21
20.8126853725
 31
0.0
 11
10.8573355046
 21
20.8107265586
 31
0.0
 11
10.8606788651
 21
20.8087575834
 31
0.0
  0
SPLINE
  5
2CA
100
AcDbEntity
  8
RACCORDO
100
AcDbSpline
 62
253
  6
CONTINUOUS
 70
0
 71
3
 72
18
 73
14
 74
12
 42
0.0000001
 43
0.0000001
 44
0.0000000001
 12
-0.4674632459
 22
-0.0018790562
 32
0.0
 13
-0.243462836
 23
-0.3990629833
 33
0.0
 40
0.0
 40
0.0
 40
0.0
 40
0.0
 40
0.1943378524
 40
0.3803447223
 40
0.5507037638
 40
0.6998188142
 40
0.8227640196
 40
0.8731658116
 40
0.9155681026
 40
0.9495660467
 40
0.9749705112
 40
0.9917011984
 40
1.0
 40
1.0
 40
1.0
 40
1.0
 10
-10.3945930836
 20
20.8300973788
 30
0.0
 10
-10.424875018
 20
20.8299756549
 30
0.0
 10
-10.4841401635
 20
20.829502808
 30
0.0
 10
-10.5699416229
 20
20.82811817
 30
0.0
 10
-10.6486835346
 20
20.8260987304
 30
0.0
 10
-10.7175730688
 20
20.8235339895
 30
0.0
 10
-10.7677618446
 20
20.8208949522
 30
0.0
 10
-10.8012821104
 20
20.8184668546
 30
0.0
 10
-10.8209892629
 20
20.8167077619
 30
0.0
 10
-10.8366800825
 20
20.8148746724
 30
0.0
 10
-10.848578198
 20
20.8130910365
 30
0.0
 10
-10.8559028289
 20
20.8112430685
 30
0.0
 10
-10.8600053812
 20
20.8098614954
 30
0.0
 10
-10.8606788644
 20
20.8087575806
 30
0.0
 11
-10.3945930836
 21
20.8300973788
 31
0.0
 11
-10.4854366786
 21
20.829366234
 31
0.0
 11
-10.5723769774
 21
20.827935062
 31
0.0
 11
-10.6519869152
 21
20.8258501589
 31
0.0
 11
-10.7216423993
 21
20.8231871976
 31
0.0
 11
-10.779028639
 21
20.820033537
 31
0.0
 11
-10.8025263341
 21
20.8183051498
 31
0.0
 11
-10.8222650801
 21
20.8164939026
 31
0.0
 11
-10.8380464757
 21
20.8146144382
 31
0.0
 11
-10.8497645121
 21
20.8126854367
 31
0.0
 11
-10.8573362786
 21
20.8107265877
 31
0.0
 11
-10.8606788644
 21
20.8087575806
 31
0.0
  0
SPLINE
  5
2CB
100
AcDbEntity
  8
RACCORDO
100
AcDbSpline
 62
253
  6
CONTINUOUS
 70
0
 71
3
 72
18
 73
14
 74
12
 42
0.0000001
 43
0.0000001
 44
0.0000000001
 12
-0.4674639429
 22
0.0018790028
 32
0.0
 13
-0.2435841541
 23
0.3989897598
 33
0.0
 40
0.0
 40
0.0
 40
0.0
 40
0.0
 40
0.1943347861
 40
0.3803391683
 40
0.5506966732
 40
0.6998112628
 40
0.8227571129
 40
0.8731596077
 40
0.9155628311
 40
0.9495619138
 40
0.9749676911
 40
0.9916998175
 40
1.0
 40
1.0
 40
1.0
 40
1.0
 10
-10.3945921873
 20
-20.8300968077
 30
0.0
 10
-10.4248736891
 20
-20.8299750891
 30
0.0
 10
-10.4841380575
 20
-20.8295022617
 30
0.0
 10
-10.5699385408
 20
-20.8281176766
 30
0.0
 10
-10.6486798719
 20
-20.8260983091
 30
0.0
 10
-10.7175693031
 20
-20.8235336495
 30
0.0
 10
-10.7677582905
 20
-20.8208946896
 30
0.0
 10
-10.8012789759
 20
-20.8184666579
 30
0.0
 10
-10.8209865771
 20
-20.8167076083
 30
0.0
 10
-10.836678003
 20
-20.8148745417
 30
0.0
 10
-10.848576641
 20
-20.8130909597
 30
0.0
 10
-10.8559021543
 20
-20.8112429391
 30
0.0
 10
-10.8600049341
 20
-20.8098614793
 30
0.0
 10
-10.8606788651
 20
-20.8087575834
 30
0.0
 11
-10.3945921873
 21
-20.8300968077
 31
0.0
 11
-10.4854344845
 21
-20.8293656939
 31
0.0
 11
-10.5723737508
 21
-20.8279345784
 31
0.0
 11
-10.6519830908
 21
-20.8258497514
 31
0.0
 11
-10.7216384666
 21
-20.8231868775
 31
0.0
 11
-10.7790250989
 21
-20.8200333072
 31
0.0
 11
-10.8025231619
 21
-20.8183049643
 31
0.0
 11
-10.8222623792
 21
-20.8164937599
 31
0.0
 11
-10.8380443395
 21
-20.814614336
 31
0.0
 11
-10.849763022
 21
-20.8126853725
 31
0.0
 11
-10.8573355046
 21
-20.8107265586
 31
0.0
 11
-10.8606788651
 21
-20.8087575834
 31
0.0
  0
SPLINE
  5
2CC
100
AcDbEntity
  8
RACCORDO
100
AcDbSpline
 62
253
  6
CONTINUOUS
 70
0
 71
3
 72
21
 73
17
 74
15
 42
0.0000001
 43
0.0000001
 44
0.0000000001
 12
0.5092882247
 22
1.029766455
 32
0.0
 13
0.0014442248
 23
1.1488217276
 33
0.0
 40
0.0
 40
0.0
 40
0.0
 40
0.0
 40
0.0025180147
 40
0.0072873239
 40
0.0143192945
 40
0.02360685
 40
0.0488920223
 40
0.0829235478
 40
0.1254109579
 40
0.1759900663
 40
0.2342086352
 40
0.2995741338
 40
0.4493742288
 40
0.6201195451
 40
0.8058696729
 40
1.0
 40
1.0
 40
1.0
 40
1.0
 10
10.3787579832
 20
-21.9785866456
 30
0.0
 10
10.3791854482
 20
-21.9777223233
 30
0.0
 10
10.3796389567
 20
-21.9749120125
 30
0.0
 10
10.3803760997
 20
-21.9695166417
 30
0.0
 10
10.3810384257
 20
-21.9614466459
 30
0.0
 10
10.3821066235
 20
-21.9455613284
 30
0.0
 10
10.3833017479
 20
-21.9193068777
 30
0.0
 10
10.3846541033
 20
-21.8803492463
 30
0.0
 10
10.385957616
 20
-21.8316936913
 30
0.0
 10
10.3872146894
 20
-21.7737744943
 30
0.0
 10
10.3884054297
 20
-21.707090605
 30
0.0
 10
10.3899621431
 20
-21.6024121692
 30
0.0
 10
10.3916088731
 20
-21.4546397536
 30
0.0
 10
10.3931057968
 20
-21.2607640297
 30
0.0
 10
10.3941425742
 20
-21.0499092168
 30
0.0
 10
10.3944996418
 20
-20.9044377367
 30
0.0
 10
10.3945930977
 20
-20.8300973574
 30
0.0
 11
10.3787579832
 21
-21.9785866456
 31
0.0
 11
10.3794894968
 21
-21.9757879132
 31
0.0
 11
10.3802209315
 21
-21.9703578639
 31
0.0
 11
10.380950219
 21
-21.9623123625
 31
0.0
 11
10.3816752912
 21
-21.9516672736
 31
0.0
 11
10.3831047949
 21
-21.9226542906
 31
0.0
 11
10.3844959472
 21
-21.8835828622
 31
0.0
 11
10.3858368691
 21
-21.8347907861
 31
0.0
 11
10.3871165896
 21
-21.7766984553
 31
0.0
 11
10.3883252274
 21
-21.7098265671
 31
0.0
 11
10.389453014
 21
-21.634741672
 31
0.0
 11
10.3914277542
 21
-21.4626592623
 31
0.0
 11
10.3929736258
 21
-21.2665092696
 31
0.0
 11
10.3940411495
 21
-21.0531179884
 31
0.0
 11
10.3945930977
 21
-20.8300973574
 31
0.0
  0
SPLINE
  5
2CD
100
AcDbEntity
  8
RACCORDO
100
AcDbSpline
 62
253
  6
CONTINUOUS
 70
0
 71
3
 72
21
 73
17
 74
15
 42
0.0000001
 43
0.0000001
 44
0.0000000001
 12
0.0014442233
 22
-1.1488217283
 32
0.0
 13
0.5092880171
 23
-1.0297665584
 33
0.0
 40
0.0
 40
0.0
 40
0.0
 40
0.0
 40
0.1941303269
 40
0.3798804547
 40
0.5506257709
 40
0.700425866
 40
0.7657913647
 40
0.8240099336
 40
0.8745890421
 40
0.9170764523
 40
0.9511079779
 40
0.9763931501
 40
0.9856807055
 40
0.9927126761
 40
0.9974819853
 40
1.0
 40
1.0
 40
1.0
 40
1.0
 10
-10.3945930925
 20
-20.8300973579
 30
0.0
 10
-10.3944996367
 20
-20.9044377371
 30
0.0
 10
-10.3941425697
 20
-21.0499092173
 30
0.0
 10
-10.3931057927
 20
-21.2607640302
 30
0.0
 10
-10.3916088696
 20
-21.4546397541
 30
0.0
 10
-10.3899621402
 20
-21.6024121699
 30
0.0
 10
-10.3884054273
 20
-21.7070906058
 30
0.0
 10
-10.3872146875
 20
-21.7737744952
 30
0.0
 10
-10.3859576147
 20
-21.8316936924
 30
0.0
 10
-10.3846541025
 20
-21.8803492475
 30
0.0
 10
-10.3833017475
 20
-21.9193068789
 30
0.0
 10
-10.3821066235
 20
-21.9455613297
 30
0.0
 10
-10.3810384261
 20
-21.9614466471
 30
0.0
 10
-10.3803761004
 20
-21.9695166429
 30
0.0
 10
-10.3796389577
 20
-21.9749120138
 30
0.0
 10
-10.3791854494
 20
-21.9777223246
 30
0.0
 10
-10.3787579845
 20
-21.978586647
 30
0.0
 11
-10.3945930925
 21
-20.8300973579
 31
0.0
 11
-10.394041145
 21
-21.0531179888
 31
0.0
 11
-10.3929736217
 21
-21.26650927
 31
0.0
 11
-10.3914277508
 21
-21.4626592628
 31
0.0
 11
-10.3894530112
 21
-21.6347416727
 31
0.0
 11
-10.3883252251
 21
-21.7098265679
 31
0.0
 11
-10.3871165878
 21
-21.7766984562
 31
0.0
 11
-10.3858368679
 21
-21.8347907871
 31
0.0
 11
-10.3844959464
 21
-21.8835828634
 31
0.0
 11
-10.3831047945
 21
-21.9226542919
 31
0.0
 11
-10.3816752913
 21
-21.9516672748
 31
0.0
 11
-10.3809502195
 21
-21.9623123638
 31
0.0
 11
-10.3802209323
 21
-21.9703578651
 31
0.0
 11
-10.3794894979
 21
-21.9757879144
 31
0.0
 11
-10.3787579845
 21
-21.978586647
 31
0.0
  0
SPLINE
  5
2CE
100
AcDbEntity
  8
RACCORDO
100
AcDbSpline
 62
253
  6
CONTINUOUS
 70
0
 71
3
 72
21
 73
17
 74
15
 42
0.0000001
 43
0.0000001
 44
0.0000000001
 12
-0.0014442232
 22
1.148821729
 32
0.0
 13
-0.5092880165
 23
1.0297665595
 33
0.0
 40
0.0
 40
0.0
 40
0.0
 40
0.0
 40
0.1941303269
 40
0.3798804546
 40
0.5506257709
 40
0.7004258659
 40
0.7657913647
 40
0.8240099336
 40
0.874589042
 40
0.9170764522
 40
0.9511079779
 40
0.9763931501
 40
0.9856807055
 40
0.9927126761
 40
0.9974819853
 40
1.0
 40
1.0
 40
1.0
 40
1.0
 10
10.3945930925
 20
20.8300973571
 30
0.0
 10
10.3944996367
 20
20.9044377364
 30
0.0
 10
10.3941425697
 20
21.0499092166
 30
0.0
 10
10.3931057927
 20
21.2607640297
 30
0.0
 10
10.3916088696
 20
21.4546397538
 30
0.0
 10
10.3899621402
 20
21.6024121696
 30
0.0
 10
10.3884054273
 20
21.7070906056
 30
0.0
 10
10.3872146875
 20
21.773774495
 30
0.0
 10
10.3859576147
 20
21.8316936923
 30
0.0
 10
10.3846541025
 20
21.8803492474
 30
0.0
 10
10.3833017475
 20
21.9193068789
 30
0.0
 10
10.3821066235
 20
21.9455613297
 30
0.0
 10
10.3810384261
 20
21.9614466471
 30
0.0
 10
10.3803761004
 20
21.9695166429
 30
0.0
 10
10.3796389577
 20
21.9749120138
 30
0.0
 10
10.3791854494
 20
21.9777223246
 30
0.0
 10
10.3787579845
 20
21.978586647
 30
0.0
 11
10.3945930925
 21
20.8300973571
 31
0.0
 11
10.394041145
 21
21.0531179882
 31
0.0
 11
10.3929736217
 21
21.2665092695
 31
0.0
 11
10.3914277507
 21
21.4626592625
 31
0.0
 11
10.3894530112
 21
21.6347416724
 31
0.0
 11
10.3883252251
 21
21.7098265677
 31
0.0
 11
10.3871165878
 21
21.7766984561
 31
0.0
 11
10.3858368679
 21
21.834790787
 31
0.0
 11
10.3844959464
 21
21.8835828633
 31
0.0
 11
10.3831047945
 21
21.9226542919
 31
0.0
 11
10.3816752913
 21
21.9516672748
 31
0.0
 11
10.3809502195
 21
21.9623123637
 31
0.0
 11
10.3802209323
 21
21.9703578651
 31
0.0
 11
10.3794894979
 21
21.9757879144
 31
0.0
 11
10.3787579845
 21
21.978586647
 31
0.0
  0
SPLINE
  5
2CF
100
AcDbEntity
  8
RACCORDO
100
AcDbSpline
 62
253
  6
CONTINUOUS
 70
0
 71
3
 72
21
 73
17
 74
15
 42
0.0000001
 43
0.0000001
 44
0.0000000001
 12
-0.5092882244
 22
-1.0297664559
 32
0.0
 13
-0.0014442248
 23
-1.1488217284
 33
0.0
 40
0.0
 40
0.0
 40
0.0
 40
0.0
 40
0.0025180147
 40
0.0072873239
 40
0.0143192945
 40
0.02360685
 40
0.0488920223
 40
0.0829235478
 40
0.1254109579
 40
0.1759900663
 40
0.2342086352
 40
0.2995741339
 40
0.4493742288
 40
0.6201195451
 40
0.805869673
 40
1.0
 40
1.0
 40
1.0
 40
1.0
 10
-10.3787579832
 20
21.9785866456
 30
0.0
 10
-10.3791854482
 20
21.9777223233
 30
0.0
 10
-10.3796389567
 20
21.9749120125
 30
0.0
 10
-10.3803760997
 20
21.9695166417
 30
0.0
 10
-10.3810384257
 20
21.9614466459
 30
0.0
 10
-10.3821066235
 20
21.9455613284
 30
0.0
 10
-10.3833017479
 20
21.9193068777
 30
0.0
 10
-10.3846541033
 20
21.8803492463
 30
0.0
 10
-10.385957616
 20
21.8316936912
 30
0.0
 10
-10.3872146894
 20
21.7737744941
 30
0.0
 10
-10.3884054297
 20
21.7070906048
 30
0.0
 10
-10.3899621431
 20
21.6024121689
 30
0.0
 10
-10.3916088731
 20
21.4546397532
 30
0.0
 10
-10.3931057968
 20
21.2607640292
 30
0.0
 10
-10.3941425742
 20
21.0499092162
 30
0.0
 10
-10.3944996418
 20
20.904437736
 30
0.0
 10
-10.3945930977
 20
20.8300973567
 30
0.0
 11
-10.3787579832
 21
21.9785866456
 31
0.0
 11
-10.3794894968
 21
21.9757879132
 31
0.0
 11
-10.3802209315
 21
21.9703578639
 31
0.0
 11
-10.380950219
 21
21.9623123625
 31
0.0
 11
-10.3816752912
 21
21.9516672735
 31
0.0
 11
-10.3831047949
 21
21.9226542906
 31
0.0
 11
-10.3844959472
 21
21.8835828621
 31
0.0
 11
-10.3858368691
 21
21.834790786
 31
0.0
 11
-10.3871165896
 21
21.7766984551
 31
0.0
 11
-10.3883252274
 21
21.7098265669
 31
0.0
 11
-10.3894530139
 21
21.6347416717
 31
0.0
 11
-10.3914277542
 21
21.462659262
 31
0.0
 11
-10.3929736258
 21
21.2665092691
 31
0.0
 11
-10.3940411495
 21
21.0531179878
 31
0.0
 11
-10.3945930977
 21
20.8300973567
 31
0.0
  0
SPLINE
  5
2D0
100
AcDbEntity
  8
RACCORDO
100
AcDbSpline
 62
253
  6
CONTINUOUS
 70
0
 71
3
 72
19
 73
15
 74
13
 42
0.0000001
 43
0.0000001
 44
0.0000000001
 12
0.0007567078
 22
0.6707313451
 32
0.0
 13
0.4724844619
 23
0.4760667424
 33
0.0
 40
0.0
 40
0.0
 40
0.0
 40
0.0
 40
0.1942382553
 40
0.380029375
 40
0.5507240058
 40
0.7003850708
 40
0.7656594899
 40
0.8237826739
 40
0.8742740964
 40
0.9166951157
 40
0.9506932746
 40
0.9759919201
 40
0.9924056629
 40
1.0
 40
1.0
 40
1.0
 40
1.0
 10
10.8606788652
 20
20.8087575834
 30
0.0
 10
10.860727859
 20
20.8521848121
 30
0.0
 10
10.8610298312
 20
20.9371505824
 30
0.0
 10
10.8620987372
 20
21.0602760206
 30
0.0
 10
10.8637385
 20
21.1734273653
 30
0.0
 10
10.8655914484
 20
21.2596276443
 30
0.0
 10
10.8673694676
 20
21.3206502025
 30
0.0
 10
10.8687352662
 20
21.3595079131
 30
0.0
 10
10.870196232
 20
21.3932334723
 30
0.0
 10
10.8716827344
 20
21.4216019944
 30
0.0
 10
10.8733207253
 20
21.444200461
 30
0.0
 10
10.8746997421
 20
21.4612760291
 30
0.0
 10
10.8765836634
 20
21.4717717474
 30
0.0
 10
10.8773905783
 20
21.4775528474
 30
0.0
 10
10.878586647
 20
21.4787579845
 30
0.0
 11
10.8606788652
 21
20.8087575834
 31
0.0
 11
10.8611503463
 21
20.9390384994
 31
0.0
 11
10.8622537991
 21
21.0636496208
 31
0.0
 11
10.8639490071
 21
21.1781273822
 31
0.0
 11
10.86617476
 21
21.278485135
 31
0.0
 11
10.8674624025
 21
21.3222478225
 31
0.0
 11
10.8688517731
 21
21.3612081233
 31
0.0
 11
10.8703302716
 21
21.3950420357
 31
0.0
 11
10.8718847753
 21
21.4234526652
 31
0.0
 11
10.8735019667
 21
21.4461988941
 31
0.0
 11
10.8751683542
 21
21.4630854782
 31
0.0
 11
10.876869039
 21
21.4739625444
 31
0.0
 11
10.878586647
 21
21.4787579845
 31
0.0
  0
SPLINE
  5
2D1
100
AcDbEntity
  8
RACCORDO
100
AcDbSpline
 62
253
  6
CONTINUOUS
 70
0
 71
3
 72
19
 73
15
 74
13
 42
0.0000001
 43
0.0000001
 44
0.0000000001
 12
-0.4724845154
 22
0.4760666913
 32
0.0
 13
-0.0007567077
 23
0.6707313465
 33
0.0
 40
0.0
 40
0.0
 40
0.0
 40
0.0
 40
0.0075943369
 40
0.0240080799
 40
0.0493067253
 40
0.0833048835
 40
0.1257259022
 40
0.1762173243
 40
0.234340508
 40
0.2996149266
 40
0.4492759906
 40
0.6199706198
 40
0.8057617399
 40
1.0
 40
1.0
 40
1.0
 40
1.0
 10
10.8785866456
 20
-21.4787579832
 30
0.0
 10
10.8773905768
 20
-21.4775528462
 30
0.0
 10
10.8765836621
 20
-21.4717717459
 30
0.0
 10
10.8746997406
 20
-21.4612760279
 30
0.0
 10
10.8733207239
 20
-21.4442004597
 30
0.0
 10
10.871682733
 20
-21.4216019934
 30
0.0
 10
10.8701962306
 20
-21.3932334716
 30
0.0
 10
10.8687352648
 20
-21.3595079126
 30
0.0
 10
10.8673694662
 20
-21.3206502023
 30
0.0
 10
10.865591447
 20
-21.2596276443
 30
0.0
 10
10.8637384987
 20
-21.1734273659
 30
0.0
 10
10.8620987357
 20
-21.0602760214
 30
0.0
 10
10.8610298296
 20
-20.9371505821
 30
0.0
 10
10.8607278583
 20
-20.8521848105
 30
0.0
 10
10.8606788644
 20
-20.8087575806
 30
0.0
 11
10.8785866456
 21
-21.4787579832
 31
0.0
 11
10.8768690377
 21
-21.4739625431
 31
0.0
 11
10.8751683528
 21
-21.4630854768
 31
0.0
 11
10.8735019653
 21
-21.4461988928
 31
0.0
 11
10.8718847739
 21
-21.4234526642
 31
0.0
 11
10.8703302702
 21
-21.3950420351
 31
0.0
 11
10.8688517717
 21
-21.3612081228
 31
0.0
 11
10.8674624012
 21
-21.3222478222
 31
0.0
 11
10.8661747586
 21
-21.2784851349
 31
0.0
 11
10.8639490057
 21
-21.1781273826
 31
0.0
 11
10.8622537976
 21
-21.063649622
 31
0.0
 11
10.861150345
 21
-20.9390385001
 31
0.0
 11
10.8606788644
 21
-20.8087575806
 31
0.0
  0
SPLINE
  5
2D2
100
AcDbEntity
  8
RACCORDO
100
AcDbSpline
 62
253
  6
CONTINUOUS
 70
0
 71
3
 72
19
 73
15
 74
13
 42
0.0000001
 43
0.0000001
 44
0.0000000001
 12
0.4724845154
 22
-0.4760666913
 32
0.0
 13
0.0007567077
 23
-0.6707313465
 33
0.0
 40
0.0
 40
0.0
 40
0.0
 40
0.0
 40
0.0075943369
 40
0.0240080799
 40
0.0493067253
 40
0.0833048835
 40
0.1257259022
 40
0.1762173243
 40
0.234340508
 40
0.2996149266
 40
0.4492759906
 40
0.6199706198
 40
0.8057617399
 40
1.0
 40
1.0
 40
1.0
 40
1.0
 10
-10.8785866456
 20
21.4787579832
 30
0.0
 10
-10.8773905768
 20
21.4775528462
 30
0.0
 10
-10.8765836621
 20
21.4717717459
 30
0.0
 10
-10.8746997406
 20
21.4612760279
 30
0.0
 10
-10.8733207239
 20
21.4442004597
 30
0.0
 10
-10.871682733
 20
21.4216019934
 30
0.0
 10
-10.8701962306
 20
21.3932334716
 30
0.0
 10
-10.8687352648
 20
21.3595079126
 30
0.0
 10
-10.8673694662
 20
21.3206502023
 30
0.0
 10
-10.865591447
 20
21.2596276443
 30
0.0
 10
-10.8637384987
 20
21.1734273659
 30
0.0
 10
-10.8620987357
 20
21.0602760214
 30
0.0
 10
-10.8610298296
 20
20.9371505821
 30
0.0
 10
-10.8607278583
 20
20.8521848105
 30
0.0
 10
-10.8606788644
 20
20.8087575806
 30
0.0
 11
-10.8785866456
 21
21.4787579832
 31
0.0
 11
-10.8768690377
 21
21.4739625431
 31
0.0
 11
-10.8751683528
 21
21.4630854768
 31
0.0
 11
-10.8735019653
 21
21.4461988928
 31
0.0
 11
-10.8718847739
 21
21.4234526642
 31
0.0
 11
-10.8703302702
 21
21.3950420351
 31
0.0
 11
-10.8688517717
 21
21.3612081228
 31
0.0
 11
-10.8674624012
 21
21.3222478222
 31
0.0
 11
-10.8661747586
 21
21.2784851349
 31
0.0
 11
-10.8639490057
 21
21.1781273826
 31
0.0
 11
-10.8622537976
 21
21.063649622
 31
0.0
 11
-10.861150345
 21
20.9390385001
 31
0.0
 11
-10.8606788644
 21
20.8087575806
 31
0.0
  0
LINE
  5
2D3
100
AcDbEntity
  8
0
100
AcDbLine
 62
7
  6
CONTINUOUS
 10
-32.422729779
 20
-13.9499595476
 11
-32.4204673715
 21
-13.9499518664
  0
LINE
  5
2D4
100
AcDbEntity
  8
0
100
AcDbLine
 62
7
  6
CONTINUOUS
 10
-32.4563733583
 20
-13.6599999972
 11
-32.4553191764
 21
-13.6905588099
  0
SPLINE
  5
2D5
100
AcDbEntity
  8
0
100
AcDbSpline
 62
7
  6
CONTINUOUS
 70
0
 71
3
 72
17
 73
13
 74
11
 42
0.0000001
 43
0.0000001
 44
0.0000000001
 12
0.0038669164
 22
-0.0950720707
 32
0.0
 13
0.0947451924
 23
0.0087749757
 33
0.0
 40
0.0
 40
0.0
 40
0.0
 40
0.0
 40
0.2244622366
 40
0.4242025638
 40
0.596620025
 40
0.7400535052
 40
0.8530511974
 40
0.9343526119
 40
0.9629351585
 40
0.9834113689
 40
0.9957469109
 40
1.0
 40
1.0
 40
1.0
 40
1.0
 10
-32.4491885481
 20
-13.8550028411
 30
0.0
 10
-32.4488992225
 20
-13.8621162043
 30
0.0
 10
-32.448343149
 20
-13.8755586959
 30
0.0
 10
-32.4475282265
 20
-13.8944656723
 30
0.0
 10
-32.4467824899
 20
-13.9107969833
 30
0.0
 10
-32.4461251662
 20
-13.9243959924
 30
0.0
 10
-32.445536829
 20
-13.9350575661
 30
0.0
 10
-32.4451316153
 20
-13.9421865065
 30
0.0
 10
-32.4447804028
 20
-13.9462108422
 30
0.0
 10
-32.4446642946
 20
-13.9483127767
 30
0.0
 10
-32.4444093447
 20
-13.9491901908
 30
0.0
 10
-32.4444208934
 20
-13.9500123566
 30
0.0
 10
-32.4442865735
 20
-13.9499999163
 30
0.0
 11
-32.4491885481
 21
-13.8550028411
 31
0.0
 11
-32.4483042058
 21
-13.8763422588
 31
0.0
 11
-32.4474822794
 21
-13.8953299053
 31
0.0
 11
-32.4467324371
 21
-13.9117183985
 31
0.0
 11
-32.4460617269
 21
-13.9253497008
 31
0.0
 11
-32.445476616
 21
-13.9360855753
 31
0.0
 11
-32.4449830681
 21
-13.9438056999
 31
0.0
 11
-32.4447719348
 21
-13.9465171408
 31
0.0
 11
-32.4445851704
 21
-13.948456494
 31
0.0
 11
-32.4444232312
 21
-13.9496190042
 31
0.0
 11
-32.4442865735
 21
-13.9499999163
 31
0.0
  0
LINE
  5
2D6
100
AcDbEntity
  8
0
100
AcDbLine
 62
7
  6
CONTINUOUS
 10
-32.457055546
 20
-13.6399998427
 11
-32.4563733583
 21
-13.6599999972
  0
SPLINE
  5
2D7
100
AcDbEntity
  8
0
100
AcDbSpline
 62
7
  6
CONTINUOUS
 70
0
 71
3
 72
13
 73
9
 74
7
 42
0.0000001
 43
0.0000001
 44
0.0000000001
 12
-0.0249326324
 22
-0.001710634
 32
0.0
 13
0.0004159877
 23
-0.0249877846
 33
0.0
 40
0.0
 40
0.0
 40
0.0
 40
0.0
 40
0.0168765584
 40
0.0649224068
 40
0.1442360909
 40
0.2545748794
 40
0.5671854273
 40
1.0
 40
1.0
 40
1.0
 40
1.0
 10
-32.4647364231
 20
-13.3500000467
 30
0.0
 10
-32.4648766821
 20
-13.3500096699
 30
0.0
 10
-32.4647997584
 20
-13.3508243416
 30
0.0
 10
-32.4650033944
 20
-13.3517645637
 30
0.0
 10
-32.464972478
 20
-13.353889256
 30
0.0
 10
-32.4650512655
 20
-13.3579859947
 30
0.0
 10
-32.4649676375
 20
-13.3651807743
 30
0.0
 10
-32.4648908007
 20
-13.3713663687
 30
0.0
 10
-32.4648307856
 20
-13.3749713945
 30
0.0
 11
-32.4647364231
 21
-13.3500000467
 31
0.0
 11
-32.4648480813
 21
-13.3504067643
 31
0.0
 11
-32.4649313028
 21
-13.3516046025
 31
0.0
 11
-32.4649860306
 21
-13.3535859946
 31
0.0
 11
-32.4650122078
 21
-13.3563433743
 31
0.0
 11
-32.4649786823
 21
-13.3641558298
 31
0.0
 11
-32.4648307856
 21
-13.3749713945
 31
0.0
  0
SPLINE
  5
2D8
100
AcDbEntity
  8
0
100
AcDbSpline
 62
7
  6
CONTINUOUS
 70
0
 71
3
 72
11
 73
7
 74
5
 42
0.0000001
 43
0.0000001
 44
0.0000000001
 12
0.0004166096
 22
-0.011580105
 32
0.0
 13
-0.0115875297
 23
-0.0000393895
 33
0.0
 40
0.0
 40
0.0
 40
0.0
 40
0.0
 40
0.3695494087
 40
0.6972739817
 40
0.9204672775
 40
1.0
 40
1.0
 40
1.0
 40
1.0
 10
-32.4478800706
 20
-13.3383833803
 30
0.0
 10
-32.4478287513
 20
-13.3398098539
 30
0.0
 10
-32.4478173349
 20
-13.3424161184
 30
0.0
 10
-32.4474567182
 20
-13.3462839662
 30
0.0
 10
-32.4479808155
 20
-13.34808157
 30
0.0
 10
-32.4473689814
 20
-13.3499654813
 30
0.0
 10
-32.4476761773
 20
-13.3499665255
 30
0.0
 11
-32.4478800706
 21
-13.3383833803
 31
0.0
 11
-32.4477431244
 21
-13.3426633794
 31
0.0
 11
-32.4476542095
 21
-13.3464598785
 31
0.0
 11
-32.4476308651
 21
-13.349046047
 31
0.0
 11
-32.4476761773
 21
-13.3499665255
 31
0.0
  0
LINE
  5
2D9
100
AcDbEntity
  8
0
100
AcDbLine
 62
7
  6
CONTINUOUS
 10
-32.4470124635
 20
-13.9999995637
 11
-32.4487076193
 21
-13.951570065
  0
LINE
  5
2DA
100
AcDbEntity
  8
0
100
AcDbLine
 62
7
  6
CONTINUOUS
 10
-32.5920162549
 20
-8.9507018094
 11
-32.5809662398
 21
-9.2987497496
  0
LINE
  5
2DB
100
AcDbEntity
  8
0
100
AcDbLine
 62
7
  6
CONTINUOUS
 10
-32.5809662398
 20
-9.2987497496
 11
-32.5772169939
 21
-9.4219438655
  0
LINE
  5
2DC
100
AcDbEntity
  8
0
100
AcDbLine
 62
7
  6
CONTINUOUS
 10
-32.5772169939
 20
-9.4219438655
 11
-32.5710292245
 21
-9.6316504131
  0
LINE
  5
2DD
100
AcDbEntity
  8
0
100
AcDbLine
 62
7
  6
CONTINUOUS
 10
-32.4323342466
 20
-14.4153393414
 11
-32.4449180072
 21
-14.0597667075
  0
LINE
  5
2DE
100
AcDbEntity
  8
0
100
AcDbLine
 62
7
  6
CONTINUOUS
 10
-32.5814953896
 20
-9.0394678173
 11
-32.5873904623
 21
-8.8590305905
  0
LINE
  5
2DF
100
AcDbEntity
  8
0
100
AcDbLine
 62
7
  6
CONTINUOUS
 10
-32.5873904623
 20
-8.8590305905
 11
-32.5895771046
 21
-8.7934890811
  0
LINE
  5
2E0
100
AcDbEntity
  8
0
100
AcDbLine
 62
7
  6
CONTINUOUS
 10
-32.5895771046
 20
-8.7934890811
 11
-32.5901130323
 21
-8.7775345586
  0
LINE
  5
2E1
100
AcDbEntity
  8
0
100
AcDbLine
 62
7
  6
CONTINUOUS
 10
-32.5901130323
 20
-8.7775345586
 11
-32.596762362
 21
-8.5830697643
  0
LINE
  5
2E2
100
AcDbEntity
  8
0
100
AcDbLine
 62
7
  6
CONTINUOUS
 10
-32.596762362
 20
-8.5830697643
 11
-32.5971558497
 21
-8.5717596746
  0
LINE
  5
2E3
100
AcDbEntity
  8
0
100
AcDbLine
 62
7
  6
CONTINUOUS
 10
-32.5971558497
 20
-8.5717596746
 11
-32.5977100991
 21
-8.5558646921
  0
LINE
  5
2E4
100
AcDbEntity
  8
0
100
AcDbLine
 62
7
  6
CONTINUOUS
 10
-32.5977100991
 20
-8.5558646921
 11
-32.6018000701
 21
-8.4398052962
  0
LINE
  5
2E5
100
AcDbEntity
  8
0
100
AcDbLine
 62
7
  6
CONTINUOUS
 10
-32.6018000701
 20
-8.4398052962
 11
-32.6044027248
 21
-8.3670742027
  0
LINE
  5
2E6
100
AcDbEntity
  8
0
100
AcDbLine
 62
7
  6
CONTINUOUS
 10
-32.6044027248
 20
-8.3670742027
 11
-32.6050171228
 21
-8.3500351718
  0
LINE
  5
2E7
100
AcDbEntity
  8
0
100
AcDbLine
 62
7
  6
CONTINUOUS
 10
-32.4255073036
 20
-13.6112392411
 11
-32.4350669583
 21
-13.3488938852
  0
LINE
  5
2E8
100
AcDbEntity
  8
0
100
AcDbLine
 62
7
  6
CONTINUOUS
 10
-32.4350669583
 20
-13.3488938852
 11
-32.435467438
 21
-13.3378781345
  0
LINE
  5
2E9
100
AcDbEntity
  8
0
100
AcDbLine
 62
7
  6
CONTINUOUS
 10
-32.435467438
 20
-13.3378781345
 11
-32.4390370909
 21
-13.2395962279
  0
LINE
  5
2EA
100
AcDbEntity
  8
0
100
AcDbLine
 62
7
  6
CONTINUOUS
 10
-32.4390370909
 20
-13.2395962279
 11
-32.4457425194
 21
-13.0545093745
  0
LINE
  5
2EB
100
AcDbEntity
  8
0
100
AcDbLine
 62
7
  6
CONTINUOUS
 10
-32.5615918686
 20
-9.6794002263
 11
-32.5630997064
 21
-9.6312702967
  0
LINE
  5
2EC
100
AcDbEntity
  8
0
100
AcDbLine
 62
7
  6
CONTINUOUS
 10
-32.5630997064
 20
-9.6312702967
 11
-32.5668025694
 21
-9.5121990653
  0
LINE
  5
2ED
100
AcDbEntity
  8
0
100
AcDbLine
 62
7
  6
CONTINUOUS
 10
-32.5668025694
 20
-9.5121990653
 11
-32.5718947238
 21
-9.3462517827
  0
SPLINE
  5
2EE
100
AcDbEntity
  8
0
100
AcDbSpline
 62
7
  6
CONTINUOUS
 70
0
 71
3
 72
9
 73
5
 74
3
 42
0.0000001
 43
0.0000001
 44
0.0000000001
 12
0.0018685605
 22
0.0001107679
 32
0.0
 13
0.0002933463
 23
0.001848712
 33
0.0
 40
0.0
 40
0.0
 40
0.0
 40
0.0
 40
0.1056226655
 40
1.0
 40
1.0
 40
1.0
 40
1.0
 10
-32.4204657199
 20
-13.9499997799
 30
0.0
 10
-32.4203999324
 20
-13.94999588
 30
0.0
 10
-32.419927438
 20
-13.9494714375
 30
0.0
 10
-32.4199550908
 20
-13.9488190121
 30
0.0
 10
-32.4198676368
 20
-13.9482678634
 30
0.0
 11
-32.4204657199
 21
-13.9499997799
 31
0.0
 11
-32.4203056999
 21
-13.9498836662
 31
0.0
 11
-32.4198676368
 21
-13.9482678634
 31
0.0
  0
SPLINE
  5
2EF
100
AcDbEntity
  8
0
100
AcDbSpline
 62
7
  6
CONTINUOUS
 70
0
 71
3
 72
9
 73
5
 74
3
 42
0.0000001
 43
0.0000001
 44
0.0000000001
 12
0.0071232501
 22
0.044891786
 32
0.0
 13
-0.0000044883
 23
0.0454534171
 33
0.0
 40
0.0
 40
0.0
 40
0.0
 40
0.0
 40
0.3357287924
 40
1.0
 40
1.0
 40
1.0
 40
1.0
 10
-32.4198676368
 20
-13.9482678634
 30
0.0
 10
-32.4190704767
 20
-13.9432440417
 30
0.0
 10
-32.4189463402
 20
-13.92802012
 30
0.0
 10
-32.4186650337
 20
-13.9129068942
 30
0.0
 10
-32.4186660276
 20
-13.9028424288
 30
0.0
 11
-32.4198676368
 21
-13.9482678634
 31
0.0
 11
-32.4189694091
 21
-13.9330343009
 31
0.0
 11
-32.4186660276
 21
-13.9028424288
 31
0.0
  0
SPLINE
  5
2F0
100
AcDbEntity
  8
0
100
AcDbSpline
 62
7
  6
CONTINUOUS
 70
0
 71
3
 72
9
 73
5
 74
3
 42
0.0000001
 43
0.0000001
 44
0.0000000001
 12
-0.0000257398
 22
0.260669111
 32
0.0
 13
-0.0089065337
 23
0.2605169087
 33
0.0
 40
0.0
 40
0.0
 40
0.0
 40
0.0
 40
0.4306904835
 40
1.0
 40
1.0
 40
1.0
 40
1.0
 10
-32.4186660276
 20
-13.9028424288
 30
0.0
 10
-32.4186697229
 20
-13.8654198603
 30
0.0
 10
-32.4202462653
 20
-13.7785356923
 30
0.0
 10
-32.4227212557
 20
-13.6916819013
 30
0.0
 10
-32.4244114472
 20
-13.6422436495
 30
0.0
 11
-32.4186660276
 21
-13.9028424288
 31
0.0
 11
-32.4201943835
 21
-13.7905851264
 31
0.0
 11
-32.4244114472
 21
-13.6422436495
 31
0.0
  0
LINE
  5
2F1
100
AcDbEntity
  8
0
100
AcDbLine
 62
7
  6
CONTINUOUS
 10
-32.4470124608
 20
-13.9999996418
 11
-32.4449179109
 21
-14.0597694527
  0
LINE
  5
2F2
100
AcDbEntity
  8
0
100
AcDbLine
 62
7
  6
CONTINUOUS
 10
-32.4449179109
 20
-14.0597694527
 11
-32.4396793283
 21
-14.2088035468
  0
LINE
  5
2F3
100
AcDbEntity
  8
0
100
AcDbLine
 62
7
  6
CONTINUOUS
 10
-32.4396793283
 20
-14.2088035468
 11
-32.4330437242
 21
-14.3956273475
  0
LINE
  5
2F4
100
AcDbEntity
  8
0
100
AcDbLine
 62
7
  6
CONTINUOUS
 10
-32.4330437242
 20
-14.3956273475
 11
-32.4323342458
 21
-14.415339366
  0
LINE
  5
2F5
100
AcDbEntity
  8
0
100
AcDbLine
 62
7
  6
CONTINUOUS
 10
-32.4641046855
 20
-13.3500223697
 11
-32.4501934774
 21
-13.3499750827
  0
LINE
  5
2F6
100
AcDbEntity
  8
0
100
AcDbLine
 62
7
  6
CONTINUOUS
 10
-32.422729779
 20
-13.9499595476
 11
-32.4435610967
 21
-13.9500302698
  0
SPLINE
  5
2F7
100
AcDbEntity
  8
0
100
AcDbSpline
 62
7
  6
CONTINUOUS
 70
0
 71
3
 72
20
 73
16
 74
14
 42
0.0000001
 43
0.0000001
 44
0.0000000001
 12
0.012372086
 22
-0.3387924741
 32
0.0
 13
-0.3386405068
 23
-0.0160005043
 33
0.0
 40
0.0
 40
0.0
 40
0.0
 40
0.0
 40
0.1872621962
 40
0.3716641906
 40
0.5448906277
 40
0.6988662931
 40
0.7663033492
 40
0.8261941718
 40
0.8778583815
 40
0.9208822374
 40
0.9548723537
 40
0.9794879937
 40
0.9945148501
 40
0.9984028737
 40
1.0
 40
1.0
 40
1.0
 40
1.0
 10
-32.4255073235
 20
-13.6112388869
 30
0.0
 10
-32.4247350489
 20
-13.6323865612
 30
0.0
 10
-32.4233027651
 20
-13.6743626506
 30
0.0
 10
-32.4214879911
 20
-13.7359120194
 30
0.0
 10
-32.4200722563
 20
-13.7937095696
 30
0.0
 10
-32.4192403752
 20
-13.8382981477
 30
0.0
 10
-32.4188384185
 20
-13.8700859151
 30
0.0
 10
-32.4186793756
 20
-13.8903096407
 30
0.0
 10
-32.4186489982
 20
-13.9077869727
 30
0.0
 10
-32.4187443521
 20
-13.9223031914
 30
0.0
 10
-32.4189563486
 20
-13.9338522078
 30
0.0
 10
-32.4192793585
 20
-13.9420161305
 30
0.0
 10
-32.4196500031
 20
-13.9471870551
 30
0.0
 10
-32.4200366579
 20
-13.9492136691
 30
0.0
 10
-32.4202869414
 20
-13.9499913418
 30
0.0
 10
-32.4204672253
 20
-13.94999986
 30
0.0
 11
-32.4255073235
 21
-13.6112388869
 31
0.0
 11
-32.4233411052
 21
-13.6746872305
 31
0.0
 11
-32.4215043287
 21
-13.7371758925
 31
0.0
 11
-32.4200794478
 21
-13.7958855367
 31
0.0
 11
-32.419130667
 21
-13.8480774822
 31
0.0
 11
-32.4188469356
 21
-13.8709381178
 31
0.0
 11
-32.4186943172
 21
-13.8912416291
 31
0.0
 11
-32.4186737289
 21
-13.9087567297
 31
0.0
 11
-32.4187833725
 21
-13.9233421922
 31
0.0
 11
-32.4190212605
 21
-13.9348630079
 31
0.0
 11
-32.4193845154
 21
-13.9432002506
 31
0.0
 11
-32.4198682322
 21
-13.9482716132
 31
0.0
 11
-32.4201536433
 21
-13.9495584533
 31
0.0
 11
-32.4204672253
 21
-13.94999986
 31
0.0
  0
LINE
  5
2F8
100
AcDbEntity
  8
0
100
AcDbLine
 62
7
  6
CONTINUOUS
 10
-32.5718948036
 20
-9.3462491617
 11
-32.5630996983
 21
-9.6312705562
  0
LINE
  5
2F9
100
AcDbEntity
  8
0
100
AcDbLine
 62
7
  6
CONTINUOUS
 10
-32.5630996983
 20
-9.6312705562
 11
-32.5615918835
 21
-9.6793997521
  0
LINE
  5
2FA
100
AcDbEntity
  8
0
100
AcDbLine
 62
7
  6
CONTINUOUS
 10
-32.4354674308
 20
-13.3378783314
 11
-32.4350669584
 21
-13.3488938814
  0
LINE
  5
2FB
100
AcDbEntity
  8
0
100
AcDbLine
 62
7
  6
CONTINUOUS
 10
-32.6050184125
 20
-8.3499995358
 11
-32.5873908903
 21
-8.8590176914
  0
LINE
  5
2FC
100
AcDbEntity
  8
0
100
AcDbLine
 62
7
  6
CONTINUOUS
 10
-32.5814959124
 20
-9.039451561
 11
-32.5718948032
 21
-9.3462487912
  0
LINE
  5
2FD
100
AcDbEntity
  8
0
100
AcDbLine
 62
7
  6
CONTINUOUS
 10
-32.4563733576
 20
-13.6600000161
 11
-32.4566008626
 21
-13.6533333591
  0
LINE
  5
2FE
100
AcDbEntity
  8
0
100
AcDbLine
 62
7
  6
CONTINUOUS
 10
-32.4566008626
 20
-13.6533333591
 11
-32.4568282589
 21
-13.6466666306
  0
LINE
  5
2FF
100
AcDbEntity
  8
0
100
AcDbLine
 62
7
  6
CONTINUOUS
 10
-32.4568282589
 20
-13.6466666306
 11
-32.4570555464
 21
-13.6399998306
  0
SPLINE
  5
300
100
AcDbEntity
  8
0
100
AcDbSpline
 62
7
  6
CONTINUOUS
 70
0
 71
3
 72
9
 73
5
 74
3
 42
0.0000001
 43
0.0000001
 44
0.0000000001
 12
-0.0040521142
 22
0.0360655165
 32
0.0
 13
-0.0017196363
 23
0.0362516753
 33
0.0
 40
0.0
 40
0.0
 40
0.0
 40
0.0
 40
0.3374733126
 40
1.0
 40
1.0
 40
1.0
 40
1.0
 10
-32.4445854079
 20
-13.9484543805
 30
0.0
 10
-32.4450412347
 20
-13.9443973308
 30
0.0
 10
-32.4456669798
 20
-13.9323064523
 30
0.0
 10
-32.4463286296
 20
-13.9202316933
 30
0.0
 10
-32.4467083979
 20
-13.9122257925
 30
0.0
 11
-32.4445854079
 21
-13.9484543805
 31
0.0
 11
-32.4454676684
 21
-13.936238469
 31
0.0
 11
-32.4467083979
 21
-13.9122257925
 31
0.0
  0
LINE
  5
301
100
AcDbEntity
  8
0
100
AcDbLine
 62
7
  6
CONTINUOUS
 10
-32.4553194364
 20
-13.6905513507
 11
-32.4563733576
 21
-13.6600000161
  0
LINE
  5
302
100
AcDbEntity
  8
RACCORDO
100
AcDbLine
 62
253
  6
CONTINUOUS
 10
-31.7978857987
 20
20.8314008262
 11
-32.1493446636
 21
20.8317816622
  0
LINE
  5
303
100
AcDbEntity
  8
RACCORDO
100
AcDbLine
 62
253
  6
CONTINUOUS
 10
-32.1493446631
 20
-20.8317816726
 11
-31.7978857983
 21
-20.8314008366
  0
LINE
  5
304
100
AcDbEntity
  8
0
100
AcDbLine
 62
7
  6
CONTINUOUS
 10
-32.5767562411
 20
-9.4372796581
 11
-32.5772208518
 21
-9.4218156417
  0
LINE
  5
305
100
AcDbEntity
  8
0
100
AcDbLine
 62
7
  6
CONTINUOUS
 10
-32.5772208518
 20
-9.4218156417
 11
-32.5776380761
 21
-9.4079665924
  0
LINE
  5
306
100
AcDbEntity
  8
0
100
AcDbLine
 62
7
  6
CONTINUOUS
 10
-32.5809751213
 20
-9.2984611909
 11
-32.5826937333
 21
-9.2429010779
  0
LINE
  5
307
100
AcDbEntity
  8
0
100
AcDbLine
 62
7
  6
CONTINUOUS
 10
-32.5826937333
 20
-9.2429010779
 11
-32.5833437626
 21
-9.2220281192
  0
LINE
  5
308
100
AcDbEntity
  8
0
100
AcDbLine
 62
7
  6
CONTINUOUS
 10
-32.5833437626
 20
-9.2220281192
 11
-32.5843080497
 21
-9.1912044691
  0
LINE
  5
309
100
AcDbEntity
  8
0
100
AcDbLine
 62
7
  6
CONTINUOUS
 10
-32.5843080497
 20
-9.1912044691
 11
-32.5844742486
 21
-9.1859087048
  0
LINE
  5
30A
100
AcDbEntity
  8
0
100
AcDbLine
 62
7
  6
CONTINUOUS
 10
-32.5844742486
 20
-9.1859087048
 11
-32.58713448
 21
-9.1018164993
  0
LINE
  5
30B
100
AcDbEntity
  8
0
100
AcDbLine
 62
7
  6
CONTINUOUS
 10
-32.58713448
 20
-9.1018164993
 11
-32.588013199
 21
-9.0743207777
  0
LINE
  5
30C
100
AcDbEntity
  8
0
100
AcDbLine
 62
7
  6
CONTINUOUS
 10
-32.588013199
 20
-9.0743207777
 11
-32.5883187544
 21
-9.0647922372
  0
LINE
  5
30D
100
AcDbEntity
  8
0
100
AcDbLine
 62
7
  6
CONTINUOUS
 10
-32.5883187544
 20
-9.0647922372
 11
-32.5888406227
 21
-9.048555874
  0
LINE
  5
30E
100
AcDbEntity
  8
0
100
AcDbLine
 62
7
  6
CONTINUOUS
 10
-32.5888406227
 20
-9.048555874
 11
-32.590230544
 21
-9.0055266609
  0
LINE
  5
30F
100
AcDbEntity
  8
0
100
AcDbLine
 62
7
  6
CONTINUOUS
 10
-32.590230544
 20
-9.0055266609
 11
-32.5920391539
 21
-8.9500010096
  0
SPLINE
  5
310
100
AcDbEntity
  8
0
100
AcDbSpline
 62
7
  6
CONTINUOUS
 70
0
 71
3
 72
9
 73
5
 74
3
 42
0.0000001
 43
0.0000001
 44
0.0000000001
 12
-0.0413889171
 22
1.1504429437
 32
0.0
 13
-0.039881878
 23
1.1504961734
 33
0.0
 40
0.0
 40
0.0
 40
0.0
 40
0.0
 40
0.2519944147
 40
1.0
 40
1.0
 40
1.0
 40
1.0
 10
-32.4478800642
 20
-13.3383835808
 30
0.0
 10
-32.4513566562
 20
-13.2417485154
 30
0.0
 10
-32.4650995435
 20
-12.8582656171
 30
0.0
 10
-32.4786126091
 20
-12.4747744595
 30
0.0
 10
-32.4885565649
 20
-12.1879152716
 30
0.0
 11
-32.4478800642
 21
-13.3383835808
 31
0.0
 11
-32.4582683239
 21
-13.0484768939
 31
0.0
 11
-32.4885565649
 21
-12.1879152716
 31
0.0
  0
LINE
  5
311
100
AcDbEntity
  8
0
100
AcDbLine
 62
7
  6
CONTINUOUS
 10
-32.4885565649
 20
-12.1879152716
 11
-32.4930560592
 21
-12.0577856913
  0
LINE
  5
312
100
AcDbEntity
  8
0
100
AcDbLine
 62
7
  6
CONTINUOUS
 10
-32.4930560592
 20
-12.0577856913
 11
-32.4983076757
 21
-11.9050337764
  0
LINE
  5
313
100
AcDbEntity
  8
0
100
AcDbLine
 62
7
  6
CONTINUOUS
 10
-32.4983076757
 20
-11.9050337764
 11
-32.5073648346
 21
-11.639170873
  0
LINE
  5
314
100
AcDbEntity
  8
0
100
AcDbLine
 62
7
  6
CONTINUOUS
 10
-32.5073648346
 20
-11.639170873
 11
-32.5108529936
 21
-11.5358845688
  0
LINE
  5
315
100
AcDbEntity
  8
0
100
AcDbLine
 62
7
  6
CONTINUOUS
 10
-32.5108529936
 20
-11.5358845688
 11
-32.5212385912
 21
-11.2250399911
  0
LINE
  5
316
100
AcDbEntity
  8
0
100
AcDbLine
 62
7
  6
CONTINUOUS
 10
-32.5212385912
 20
-11.2250399911
 11
-32.5276010797
 21
-11.0318729725
  0
LINE
  5
317
100
AcDbEntity
  8
0
100
AcDbLine
 62
7
  6
CONTINUOUS
 10
-32.5276010797
 20
-11.0318729725
 11
-32.5345867848
 21
-10.8170628575
  0
LINE
  5
318
100
AcDbEntity
  8
0
100
AcDbLine
 62
7
  6
CONTINUOUS
 10
-32.5345867848
 20
-10.8170628575
 11
-32.5411020996
 21
-10.6138371164
  0
LINE
  5
319
100
AcDbEntity
  8
0
100
AcDbLine
 62
7
  6
CONTINUOUS
 10
-32.5411020996
 20
-10.6138371164
 11
-32.547356724
 21
-10.4157699151
  0
LINE
  5
31A
100
AcDbEntity
  8
0
100
AcDbLine
 62
7
  6
CONTINUOUS
 10
-32.547356724
 20
-10.4157699151
 11
-32.5529028839
 21
-10.2373759634
  0
LINE
  5
31B
100
AcDbEntity
  8
0
100
AcDbLine
 62
7
  6
CONTINUOUS
 10
-32.5529028839
 20
-10.2373759634
 11
-32.5595212313
 21
-10.0206174514
  0
LINE
  5
31C
100
AcDbEntity
  8
0
100
AcDbLine
 62
7
  6
CONTINUOUS
 10
-32.5595212313
 20
-10.0206174514
 11
-32.5710292177
 21
-9.631650613
  0
SPLINE
  5
31D
100
AcDbEntity
  8
RACCORDO
100
AcDbSpline
 62
253
  6
CONTINUOUS
 70
0
 71
3
 72
11
 73
7
 74
5
 42
0.0000001
 43
0.0000001
 44
0.0000000001
 12
-1.047085009
 22
0.0276267642
 32
0.0
 13
-0.0450860355
 23
1.0464786207
 33
0.0
 40
0.0
 40
0.0
 40
0.0
 40
0.0
 40
0.2499800914
 40
0.4999662597
 40
0.7499719373
 40
1.0
 40
1.0
 40
1.0
 40
1.0
 10
-30.6287558059
 20
-21.4787579832
 30
0.0
 10
-30.7160059413
 20
-21.4764559361
 30
0.0
 10
-30.8913746407
 20
-21.4387651332
 30
0.0
 10
-31.1143381281
 20
-21.2903446704
 30
0.0
 10
-31.2677933925
 20
-21.0707257303
 30
0.0
 10
-31.3088687885
 20
-20.8959739213
 30
0.0
 10
-31.3126263798
 20
-20.8087575806
 30
0.0
 11
-30.6287558059
 21
-21.4787579832
 31
0.0
 11
-30.8846899608
 21
-21.4234526642
 31
0.0
 11
-31.102746648
 21
-21.2784851349
 31
0.0
 11
-31.2524821077
 21
-21.063649622
 31
0.0
 11
-31.3126263798
 21
-20.8087575806
 31
0.0
  0
SPLINE
  5
31E
100
AcDbEntity
  8
RACCORDO
100
AcDbSpline
 62
253
  6
CONTINUOUS
 70
0
 71
3
 72
11
 73
7
 74
5
 42
0.0000001
 43
0.0000001
 44
0.0000000001
 12
0.0450860439
 22
1.0464786225
 32
0.0
 13
1.047085011
 23
0.0276267704
 33
0.0
 40
0.0
 40
0.0
 40
0.0
 40
0.0
 40
0.2500280646
 40
0.5000337412
 40
0.750019909
 40
1.0
 40
1.0
 40
1.0
 40
1.0
 10
-31.3126263521
 20
20.8087575834
 30
0.0
 10
-31.30886876
 20
20.8959739249
 30
0.0
 10
-31.2677933238
 20
21.0707257247
 30
0.0
 10
-31.1143380787
 20
21.2903446715
 30
0.0
 10
-30.8913745871
 20
21.4387651342
 30
0.0
 10
-30.7160058887
 20
21.476455937
 30
0.0
 10
-30.6287557532
 20
21.4787579845
 30
0.0
 11
-31.3126263521
 21
20.8087575834
 31
0.0
 11
-31.2524820518
 21
21.0636496208
 31
0.0
 11
-31.1027465947
 21
21.278485135
 31
0.0
 11
-30.8846899081
 21
21.4234526652
 31
0.0
 11
-30.6287557532
 21
21.4787579845
 31
0.0
  0
LINE
  5
31F
100
AcDbEntity
  8
0
100
AcDbLine
 62
7
  6
CONTINUOUS
 10
-32.4476305719
 20
-13.3484075276
 11
-32.4477048602
 21
-13.3441062649
  0
LINE
  5
320
100
AcDbEntity
  8
0
100
AcDbLine
 62
7
  6
CONTINUOUS
 10
-32.4570555464
 20
-13.6399998306
 11
-32.4580669894
 21
-13.6100120503
  0
LINE
  5
321
100
AcDbEntity
  8
0
100
AcDbLine
 62
7
  6
CONTINUOUS
 10
-32.4580669894
 20
-13.6100120503
 11
-32.459032161
 21
-13.5807762695
  0
LINE
  5
322
100
AcDbEntity
  8
0
100
AcDbLine
 62
7
  6
CONTINUOUS
 10
-32.459032161
 20
-13.5807762695
 11
-32.4608371024
 21
-13.5241533091
  0
SPLINE
  5
323
100
AcDbEntity
  8
0
100
AcDbSpline
 62
7
  6
CONTINUOUS
 70
0
 71
3
 72
11
 73
7
 74
5
 42
0.0000001
 43
0.0000001
 44
0.0000000001
 12
-0.0053545228
 22
0.1724939962
 32
0.0
 13
0.0073652011
 23
0.1724198465
 33
0.0
 40
0.0
 40
0.0
 40
0.0
 40
0.0
 40
0.3791041398
 40
0.6853844004
 40
0.8966328077
 40
1.0
 40
1.0
 40
1.0
 40
1.0
 10
-32.4608371024
 20
-13.5241533091
 30
0.0
 10
-32.461513743
 20
-13.5023555798
 30
0.0
 10
-32.4626728271
 20
-13.4629473222
 30
0.0
 10
-32.4641480231
 20
-13.4113823262
 30
0.0
 10
-32.4647528345
 20
-13.3756819714
 30
0.0
 10
-32.4651862159
 20
-13.3575719361
 30
0.0
 10
-32.4649324425
 20
-13.3516310843
 30
0.0
 11
-32.4608371024
 21
-13.5241533091
 31
0.0
 11
-32.4627863616
 21
-13.458757667
 31
0.0
 11
-32.4641827191
 21
-13.4059191604
 31
0.0
 11
-32.4649151403
 21
-13.3694698844
 31
0.0
 11
-32.4649324425
 21
-13.3516310843
 31
0.0
  0
SPLINE
  5
324
100
AcDbEntity
  8
RACCORDO
100
AcDbSpline
 62
253
  6
CONTINUOUS
 70
0
 71
3
 72
20
 73
16
 74
14
 42
0.0000001
 43
0.0000001
 44
0.0000000001
 12
-0.5002087974
 22
0.0130984283
 32
0.0
 13
0.0130895049
 23
0.500209031
 33
0.0
 40
0.0
 40
0.0
 40
0.0
 40
0.0
 40
0.0017601623
 40
0.0055960866
 40
0.020198778
 40
0.0441136351
 40
0.077217934
 40
0.1191811623
 40
0.169584885
 40
0.2279973577
 40
0.2938476078
 40
0.4451452725
 40
0.6177669269
 40
0.8053187392
 40
1.0
 40
1.0
 40
1.0
 40
1.0
 10
-30.6287558059
 20
-21.9785866456
 30
0.0
 10
-30.6290492888
 20
-21.9785789605
 30
0.0
 10
-30.6296334156
 20
-21.9775779369
 30
0.0
 10
-30.6303825059
 20
-21.9745307448
 30
0.0
 10
-30.6313177228
 20
-21.967282082
 30
0.0
 10
-30.6321303435
 20
-21.9554973918
 30
0.0
 10
-30.6328733295
 20
-21.9389446435
 30
0.0
 10
-30.6334475158
 20
-21.9180465238
 30
0.0
 10
-30.6338702356
 20
-21.8928928333
 30
0.0
 10
-30.6341206463
 20
-21.8637630628
 30
0.0
 10
-30.6342296022
 20
-21.817800241
 30
0.0
 10
-30.6338808007
 20
-21.7527898794
 30
0.0
 10
-30.6328145277
 20
-21.6674857811
 30
0.0
 10
-30.631110598
 20
-21.5749549519
 30
0.0
 10
-30.629605233
 20
-21.5112184248
 30
0.0
 10
-30.6287558059
 20
-21.4787579832
 30
0.0
 11
-30.6287558059
 21
-21.9785866456
 31
0.0
 11
-30.629379488
 21
-21.9779647598
 31
0.0
 11
-30.6299712365
 21
-21.9761388326
 31
0.0
 11
-30.6310526669
 21
-21.9689124037
 31
0.0
 11
-30.6319875663
 21
-21.9569824571
 31
0.0
 11
-30.6327640577
 21
-21.9404359287
 31
0.0
 11
-30.6333750953
 21
-21.91944725
 31
0.0
 11
-30.6338157992
 21
-21.8942300725
 31
0.0
 11
-30.6340814747
 21
-21.8650028314
 31
0.0
 11
-30.6341700505
 21
-21.8320527848
 31
0.0
 11
-30.6338157997
 21
-21.7563472481
 31
0.0
 11
-30.6327640591
 21
-21.6699771823
 31
0.0
 11
-30.6310526685
 21
-21.5761455623
 31
0.0
 11
-30.6287558059
 21
-21.4787579832
 31
0.0
  0
SPLINE
  5
325
100
AcDbEntity
  8
RACCORDO
100
AcDbSpline
 62
253
  6
CONTINUOUS
 70
0
 71
3
 72
20
 73
16
 74
14
 42
0.0000001
 43
0.0000001
 44
0.0000000001
 12
-0.5002087938
 22
-0.0130984282
 32
0.0
 13
0.0130894589
 23
-0.5002090286
 33
0.0
 40
0.0
 40
0.0
 40
0.0
 40
0.0
 40
0.0017601587
 40
0.0055960804
 40
0.0201987669
 40
0.0441136198
 40
0.0772179139
 40
0.1191811341
 40
0.1695848503
 40
0.2279973203
 40
0.2938475646
 40
0.4451452224
 40
0.6177668843
 40
0.8053187251
 40
1.0
 40
1.0
 40
1.0
 40
1.0
 10
-30.6287557532
 20
21.978586647
 30
0.0
 10
-30.6290492355
 20
21.9785789619
 30
0.0
 10
-30.6296333599
 20
21.9775779375
 30
0.0
 10
-30.6303824475
 20
21.9745307481
 30
0.0
 10
-30.6313176608
 20
21.9672820855
 30
0.0
 10
-30.6321302786
 20
21.9554973983
 30
0.0
 10
-30.6328732618
 20
21.9389446525
 30
0.0
 10
-30.6334474462
 20
21.9180465363
 30
0.0
 10
-30.6338701645
 20
21.8928928488
 30
0.0
 10
-30.6341205744
 20
21.8637630811
 30
0.0
 10
-30.6342295302
 20
21.8178002621
 30
0.0
 10
-30.6338807301
 20
21.7527899018
 30
0.0
 10
-30.6328144613
 20
21.6674857993
 30
0.0
 10
-30.6311105373
 20
21.5749549622
 30
0.0
 10
-30.6296051774
 20
21.5112184283
 30
0.0
 10
-30.6287557532
 20
21.4787579845
 30
0.0
 11
-30.6287557532
 21
21.978586647
 31
0.0
 11
-30.6293794331
 21
21.9779647614
 31
0.0
 11
-30.6299711794
 21
21.976138835
 31
0.0
 11
-30.6310526058
 21
21.968912408
 31
0.0
 11
-30.6319875019
 21
21.9569824633
 31
0.0
 11
-30.6327639904
 21
21.9404359373
 31
0.0
 11
-30.6333750259
 21
21.9194472627
 31
0.0
 11
-30.6338157282
 21
21.8942300887
 31
0.0
 11
-30.6340814029
 21
21.8650028491
 31
0.0
 11
-30.6341699787
 21
21.8320528057
 31
0.0
 11
-30.6338157295
 21
21.7563472729
 31
0.0
 11
-30.6327639928
 21
21.6699772039
 31
0.0
 11
-30.631052608
 21
21.5761455703
 31
0.0
 11
-30.6287557532
 21
21.4787579845
 31
0.0
  0
ELLIPSE
  5
326
100
AcDbEntity
  8
RACCORDO
100
AcDbEllipse
 62
7
  6
CONTINUOUS
 10
-10.4998286038
 20
-21.5998286038
 30
0.0
 11
0.35379574
 21
0.35379574
 31
0.0
 40
0.999315002
 41
-3.9266482006
 42
-2.3565371065
  0
ELLIPSE
  5
327
100
AcDbEntity
  8
RACCORDO
100
AcDbEllipse
 62
7
  6
CONTINUOUS
 10
10.4998286038
 20
-21.5998286038
 30
0.0
 11
0.35379574
 21
-0.35379574
 31
0.0
 40
0.999315002
 41
-0.7850555471
 42
0.7850555471
  0
ELLIPSE
  5
328
100
AcDbEntity
  8
RACCORDO
100
AcDbEllipse
 62
7
  6
CONTINUOUS
 10
10.4998286038
 20
21.5998286038
 30
0.0
 11
0.35379574
 21
0.35379574
 31
0.0
 40
0.999315002
 41
-0.7850555471
 42
0.7850555471
  0
ELLIPSE
  5
329
100
AcDbEntity
  8
RACCORDO
100
AcDbEllipse
 62
7
  6
CONTINUOUS
 10
-10.4998286038
 20
21.5998286038
 30
0.0
 11
-0.35379574
 21
0.35379574
 31
0.0
 40
0.999315002
 41
-0.7850555471
 42
0.7850555471
  0
ENDSEC
  0
SECTION
  2
OBJECTS
  0
DICTIONARY
  5
C
100
AcDbDictionary
280
0
281
1
  3
ACAD_GROUP
350
D
  3
ACAD_MLINESTYLE
350
17
  3
ACAD_LAYOUT
350
1A
  3
ACAD_PLOTSETTINGS
350
19
  3
ACAD_PLOTSTYLENAME
350
E
  0
DICTIONARY
  5
D
102
{ACAD_REACTORS
330
C
102
}
100
AcDbDictionary
280
0
281
1
  0
ACDBDICTIONARYWDFLT
  5
E
102
{ACAD_REACTORS
330
C
102
}
100
AcDbDictionary
281
1
  3
Normal
350
F
100
AcDbDictionaryWithDefault
340
F
  0
DICTIONARY
  5
17
102
{ACAD_REACTORS
330
C
102
}
100
AcDbDictionary
280
0
281
1
  3
Standard
350
18
  0
DICTIONARY
  5
19
102
{ACAD_REACTORS
330
C
102
}
100
AcDbDictionary
281
1
  0
DICTIONARY
  5
1A
102
{ACAD_REACTORS
330
C
102
}
100
AcDbDictionary
281
1
  3
Model
350
32A
  3
Layout1
350
32B
  0
ACDBPLACEHOLDER
  5
F
102
{ACAD_REACTORS
330
E
102
}
  0
MLINESTYLE
  5
18
102
{ACAD_REACTORS
330
17
102
}
100
AcDbMlineStyle
  2
STANDARD
 70
0
  3

 62
256
 51
90.0
 52
90.0
 71
2
 49
0.5
 62
256
  6
BYLAYER
 49
-0.5
 62
256
  6
BYLAYER
  0
LAYOUT
  5
32A
102
{ACAD_REACTORS
330
1A
102
}
100
AcDbPlotSettings
  1

  2
none_device
  4
ISO_A4_(297.00_x_210.00_MM)
  6

 40
0.0
 41
0.0
 42
0.0
 43
0.0
 44
297.0
 45
210.0
 46
0.0
 47
0.0
 48
0.0
 49
0.0
140
0.0
141
0.0
142
1.0
143
1.0
 70
1024
 72
1
 73
0
 74
0
  7

 75
0
147
1.0
148
0.0
149
0.0
100
AcDbLayout
  1
Model
 70
0
 71
0
 10
0.0
 20
0.0
 11
297.0
 21
210.0
 12
0.0
 22
0.0
 32
0.0
 14
0.0
 24
0.0
 34
0.0
 15
0.0
 25
0.0
 35
0.0
146
0.0
 13
0.0
 23
0.0
 33
0.0
 16
1.0
 26
0.0
 36
0.0
 17
0.0
 27
1.0
 37
0.0
 76
0
330
216
345
0
346
0
  0
LAYOUT
  5
32B
102
{ACAD_REACTORS
330
1A
102
}
100
AcDbPlotSettings
  1

  2
none_device
  4
ISO_A4_(297.00_x_210.00_MM)
  6

 40
0.0
 41
0.0
 42
0.0
 43
0.0
 44
297.0
 45
210.0
 46
0.0
 47
0.0
 48
0.0
 49
0.0
140
0.0
141
0.0
142
1.0
143
1.0
 70
0
 72
1
 73
0
 74
0
  7

 75
0
147
1.0
148
0.0
149
0.0
100
AcDbLayout
  1
Layout1
 70
0
 71
1
 10
0.0
 20
0.0
 11
297.0
 21
210.0
 12
0.0
 22
0.0
 32
0.0
 14
0.0
 24
0.0
 34
0.0
 15
0.0
 25
0.0
 35
0.0
146
0.0
 13
0.0
 23
0.0
 33
0.0
 16
1.0
 26
0.0
 36
0.0
 17
0.0
 27
1.0
 37
0.0
 76
0
330
217
345
0
346
0
  0
ENDSEC
  0
EOF
