  0
SECTION
  2
HEADER
  9
$ACADVER
  1
AC1015
  9
$DWGCODEPAGE
  3
ANSI_1252
  9
$EXTMAX
 10
297.0
 20
210.0
 30
0.0
  9
$EXTMIN
 10
0.0
 20
0.0
 30
0.0
  9
$LIMMIN
 10
0.0
 20
0.0
  9
$LIMMAX
 10
297.0
 20
210.0
  9
$VIEWCTR
 10
148.5
 20
105.0
  9
$VIEWSIZE
 40
210.0
  9
$CLAYER
  8
0
  9
$LTSCALE
 40
16.335
  9
$CELTYPE
  6
BYLAYER
  9
$DIMSCALE
 40
1.0
  9
$DIMASZ
 40
3.0
  9
$DIMEXO
 40
1.85625
  9
$DIMDLI
 40
11.286
  9
$DIMEXE
 40
5.346
  9
$DIMCEN
 40
2.673
  9
$DIMLFAC
 40
1.0
  9
$DIMBLK
  1
_FILLED
  9
$DIMTXT
 40
3.0
  9
$DIMTOL
 70
1
  9
$DIMLIM
 70
0
  9
$DIMTFAC
 40
1.0
  9
$DIMTP
 40
0.01
  9
$DIMTM
 40
0.01
  9
$PDMODE
 70
3
  9
$PDSIZE
 40
3.0
  9
$HANDSEED
  5
48A
  9
$TILEMODE
 70
1
  9
$MEASUREMENT
 70
1
  9
$INSUNITS
 70
4
  0
ENDSEC
  0
SECTION
  2
CLASSES
  0
CLASS
  1
ACDBDICTIONARYWDFLT
  2
AcDbDictionaryWithDefault
  3
AutoCAD 2000
 90
0
280
0
281
0
  0
CLASS
  1
ACDBPLACEHOLDER
  2
AcDbPlaceHolder
  3
AutoCAD 2000
 90
0
280
0
281
0
  0
CLASS
  1
LAYOUT
  2
AcDbLayout
  3
AutoCAD 2000
 90
0
280
0
281
0
  0
ENDSEC
  0
SECTION
  2
TABLES
  0
TABLE
  2
VPORT
  5
8
100
AcDbSymbolTable
 70
2
  0
VPORT
  5
1F4
100
AcDbSymbolTableRecord
100
AcDbViewportTableRecord
  2
*ACTIVE
 70
0
 10
0.0
 20
0.0
 11
1.0
 21
1.0
 12
148.5
 22
105.0
 13
0.0
 23
0.0
 14
1.0
 24
1.0
 15
0.0
 25
0.0
 16
0.0
 26
0.0
 36
1.0
 17
0.0
 27
0.0
 37
0.0
 40
210.0
 41
1.4142857143
 42
50.0
 43
0.0
 44
0.0
 50
0.0
 51
0.0
 71
0
 72
100
 73
1
 74
1
 75
0
 76
0
 77
0
 78
0
  0
ENDTAB
  0
TABLE
  2
LTYPE
  5
5
100
AcDbSymbolTable
 70
6
  0
LTYPE
  5
14
100
AcDbSymbolTableRecord
100
AcDbLinetypeTableRecord
  2
BYBLOCK
 70
0
  3

 72
65
 73
0
 40
0.0
  0
LTYPE
  5
15
100
AcDbSymbolTableRecord
100
AcDbLinetypeTableRecord
  2
BYLAYER
 70
0
  3

 72
65
 73
0
 40
0.0
  0
LTYPE
  5
16
100
AcDbSymbolTableRecord
100
AcDbLinetypeTableRecord
  2
CONTINUOUS
 70
64
  3
Solid line
 72
65
 73
0
 40
0.0
  0
LTYPE
  5
1F5
100
AcDbSymbolTableRecord
100
AcDbLinetypeTableRecord
  2
CENTER
 70
64
  3
____ _ ____ _ ____ _ ____ _ ____ _ ____ _ ____
 72
65
 73
4
 40
0.6
 49
0.375
 74
0
 49
-0.075
 74
0
 49
0.075
 74
0
 49
-0.075
 74
0
  0
LTYPE
  5
1F6
100
AcDbSymbolTableRecord
100
AcDbLinetypeTableRecord
  2
HIDDEN
 70
64
  3
- - - - - - - - - - - - - - - - - - - -
 72
65
 73
2
 40
0.2
 49
0.1
 74
0
 49
-0.1
 74
0
  0
LTYPE
  5
1F7
100
AcDbSymbolTableRecord
100
AcDbLinetypeTableRecord
  2
PHANTOM
 70
64
  3
_____ _ _ _____ _ _ _____ _ _ _____
 72
65
 73
6
 40
0.8
 49
0.45
 74
0
 49
-0.05
 74
0
 49
0.1
 74
0
 49
-0.05
 74
0
 49
0.1
 74
0
 49
-0.05
 74
0
  0
LTYPE
  5
1F8
100
AcDbSymbolTableRecord
100
AcDbLinetypeTableRecord
  2
DOT
 70
64
  3
. . . . . . . . . . . . . . . . . . . .
 72
65
 73
2
 40
0.2
 49
0.1
 74
0
 49
-0.1
 74
0
  0
LTYPE
  5
1F9
100
AcDbSymbolTableRecord
100
AcDbLinetypeTableRecord
  2
DASHED
 70
64
  3
- - - - - - - - - - - - - - - - - - - -
 72
65
 73
2
 40
0.2
 49
0.1
 74
0
 49
-0.1
 74
0
  0
ENDTAB
  0
TABLE
  2
LAYER
  5
2
100
AcDbSymbolTable
 70
36
  0
LAYER
  5
10
100
AcDbSymbolTableRecord
100
AcDbLayerTableRecord
  2
0
 70
0
 62
7
  6
CONTINUOUS
370
-3
390
F
  0
LAYER
  5
1FA
100
AcDbSymbolTableRecord
100
AcDbLayerTableRecord
  2
DEFAULT_1
 70
0
 62
7
  6
CENTER
370
-3
390
F
  0
LAYER
  5
1FB
100
AcDbSymbolTableRecord
100
AcDbLayerTableRecord
  2
DEFAULT_2
 70
0
 62
7
  6
HIDDEN
370
-3
390
F
  0
LAYER
  5
1FC
100
AcDbSymbolTableRecord
100
AcDbLayerTableRecord
  2
DEFAULT_3
 70
0
 62
7
  6
PHANTOM
370
-3
390
F
  0
LAYER
  5
1FD
100
AcDbSymbolTableRecord
100
AcDbLayerTableRecord
  2
ASSI
 70
0
 62
7
  6
CONTINUOUS
370
-3
390
F
  0
LAYER
  5
1FE
100
AcDbSymbolTableRecord
100
AcDbLayerTableRecord
  2
COORDINATE
 70
0
 62
7
  6
CONTINUOUS
370
-3
390
F
  0
LAYER
  5
1FF
100
AcDbSymbolTableRecord
100
AcDbLayerTableRecord
  2
COORD_ORIGINE
 70
0
 62
7
  6
CONTINUOUS
370
-3
390
F
  0
LAYER
  5
200
100
AcDbSymbolTableRecord
100
AcDbLayerTableRecord
  2
COPY_PUBLISH
 70
0
 62
7
  6
CONTINUOUS
370
-3
390
F
  0
LAYER
  5
201
100
AcDbSymbolTableRecord
100
AcDbLayerTableRecord
  2
COSMETIC
 70
0
 62
7
  6
CONTINUOUS
370
-3
390
F
  0
LAYER
  5
202
100
AcDbSymbolTableRecord
100
AcDbLayerTableRecord
  2
COSMETICI
 70
0
 62
7
  6
CONTINUOUS
370
-3
390
F
  0
LAYER
  5
203
100
AcDbSymbolTableRecord
100
AcDbLayerTableRecord
  2
CURVE
 70
0
 62
7
  6
CONTINUOUS
370
-3
390
F
  0
LAYER
  5
204
100
AcDbSymbolTableRecord
100
AcDbLayerTableRecord
  2
DRAFT
 70
0
 62
7
  6
CONTINUOUS
370
-3
390
F
  0
LAYER
  5
205
100
AcDbSymbolTableRecord
100
AcDbLayerTableRecord
  2
IMPORT
 70
0
 62
7
  6
CONTINUOUS
370
-3
390
F
  0
LAYER
  5
206
100
AcDbSymbolTableRecord
100
AcDbLayerTableRecord
  2
IMPORT_IGES
 70
0
 62
7
  6
CONTINUOUS
370
-3
390
F
  0
LAYER
  5
207
100
AcDbSymbolTableRecord
100
AcDbLayerTableRecord
  2
INTFCLR_11
 70
0
 62
7
  6
CONTINUOUS
370
-3
390
F
  0
LAYER
  5
208
100
AcDbSymbolTableRecord
100
AcDbLayerTableRecord
  2
INTFCLR_2
 70
0
 62
7
  6
CONTINUOUS
370
-3
390
F
  0
LAYER
  5
209
100
AcDbSymbolTableRecord
100
AcDbLayerTableRecord
  2
INTF_1
 70
0
 62
7
  6
CONTINUOUS
370
-3
390
F
  0
LAYER
  5
20A
100
AcDbSymbolTableRecord
100
AcDbLayerTableRecord
  2
INTF_3
 70
0
 62
7
  6
CONTINUOUS
370
-3
390
F
  0
LAYER
  5
20B
100
AcDbSymbolTableRecord
100
AcDbLayerTableRecord
  2
NOTE
 70
0
 62
7
  6
CONTINUOUS
370
-3
390
F
  0
LAYER
  5
20C
100
AcDbSymbolTableRecord
100
AcDbLayerTableRecord
  2
PIANI
 70
0
 62
7
  6
CONTINUOUS
370
-3
390
F
  0
LAYER
  5
20D
100
AcDbSymbolTableRecord
100
AcDbLayerTableRecord
  2
PIANI_ORIGINE
 70
0
 62
7
  6
CONTINUOUS
370
-3
390
F
  0
LAYER
  5
20E
100
AcDbSymbolTableRecord
100
AcDbLayerTableRecord
  2
PIANI_RIFERIMENTO
 70
0
 62
7
  6
CONTINUOUS
370
-3
390
F
  0
LAYER
  5
20F
100
AcDbSymbolTableRecord
100
AcDbLayerTableRecord
  2
PUNTI
 70
0
 62
7
  6
CONTINUOUS
370
-3
390
F
  0
LAYER
  5
210
100
AcDbSymbolTableRecord
100
AcDbLayerTableRecord
  2
RACCORDO
 70
0
 62
7
  6
CONTINUOUS
370
-3
390
F
  0
LAYER
  5
211
100
AcDbSymbolTableRecord
100
AcDbLayerTableRecord
  2
SIMBOLI
 70
0
 62
7
  6
CONTINUOUS
370
-3
390
F
  0
LAYER
  5
212
100
AcDbSymbolTableRecord
100
AcDbLayerTableRecord
  2
SMUSSO
 70
0
 62
7
  6
CONTINUOUS
370
-3
390
F
  0
LAYER
  5
213
100
AcDbSymbolTableRecord
100
AcDbLayerTableRecord
  2
SNAPLINE
 70
0
 62
7
  6
CONTINUOUS
370
-3
390
F
  0
LAYER
  5
214
100
AcDbSymbolTableRecord
100
AcDbLayerTableRecord
  2
SUPERFICI
 70
0
 62
7
  6
CONTINUOUS
370
-3
390
F
  0
LAYER
  5
215
100
AcDbSymbolTableRecord
100
AcDbLayerTableRecord
  2
TRASH
 70
0
 62
7
  6
CONTINUOUS
370
-3
390
F
  0
LAYER
  5
216
100
AcDbSymbolTableRecord
100
AcDbLayerTableRecord
  2
XSEC_DATUMS
 70
0
 62
7
  6
CONTINUOUS
370
-3
390
F
  0
LAYER
  5
217
100
AcDbSymbolTableRecord
100
AcDbLayerTableRecord
  2
___SHELL
 70
0
 62
7
  6
CONTINUOUS
370
-3
390
F
  0
ENDTAB
  0
TABLE
  2
STYLE
  5
3
100
AcDbSymbolTable
 70
1
  0
STYLE
  5
11
100
AcDbSymbolTableRecord
100
AcDbTextStyleTableRecord
  2
STANDARD
 70
0
 40
0.0
 41
0.8
 50
0.0
 71
0
 42
0.2
  3
txt
  4

  0
STYLE
  5
218
100
AcDbSymbolTableRecord
100
AcDbTextStyleTableRecord
  2
TEXTSTYLE_1
 70
0
 40
0.0
 41
0.8
 50
0.0
 71
0
 42
0.2
  3
gdt
  4

  0
ENDTAB
  0
TABLE
  2
VIEW
  5
6
100
AcDbSymbolTable
 70
0
  0
ENDTAB
  0
TABLE
  2
UCS
  5
7
100
AcDbSymbolTable
 70
0
  0
ENDTAB
  0
TABLE
  2
APPID
  5
9
100
AcDbSymbolTable
 70
1
  0
APPID
  5
219
100
AcDbSymbolTableRecord
100
AcDbRegAppTableRecord
  2
ACAD
 70
0
  0
ENDTAB
  0
TABLE
  2
BLOCK_RECORD
  5
1
100
AcDbSymbolTable
 70
0
  0
BLOCK_RECORD
  5
21A
100
AcDbSymbolTableRecord
100
AcDbBlockTableRecord
  2
*Model_Space
  0
BLOCK_RECORD
  5
21B
100
AcDbSymbolTableRecord
100
AcDbBlockTableRecord
  2
*Paper_Space
  0
BLOCK_RECORD
  5
21C
100
AcDbSymbolTableRecord
100
AcDbBlockTableRecord
  2
_FILLED
  0
BLOCK_RECORD
  5
21D
100
AcDbSymbolTableRecord
100
AcDbBlockTableRecord
  2
*D0
  0
BLOCK_RECORD
  5
21E
100
AcDbSymbolTableRecord
100
AcDbBlockTableRecord
  2
*D1
  0
BLOCK_RECORD
  5
21F
100
AcDbSymbolTableRecord
100
AcDbBlockTableRecord
  2
*D2
  0
BLOCK_RECORD
  5
220
100
AcDbSymbolTableRecord
100
AcDbBlockTableRecord
  2
*D3
  0
ENDTAB
  0
TABLE
  2
DIMSTYLE
  5
A
100
AcDbSymbolTable
 70
1
100
AcDbDimStyleTable
 71
0
  0
DIMSTYLE
105
221
100
AcDbSymbolTableRecord
100
AcDbDimStyleTableRecord
  2
STANDARD
 70
0
  3

  4

 40
1.0
 41
3.0
 42
0.0625
 43
0.38
 44
0.18
 45
0.0
 46
0.0
 47
0.01
 48
0.01
140
3.0
141
0.09
142
0.0
143
25.4
144
1.0
145
0.0
146
1.0
147
0.09
 71
1.0
 72
0.0
 73
0
 74
0
 75
0
 76
0
 77
1
 78
8
170
0
171
2
172
0
173
0
174
0
175
0
176
0
177
0
178
0
270
2
271
2
272
2
273
2
274
2
275
0
280
0
281
0
282
0
283
1
284
8
285
0
286
0
287
3
288
0
340
11
341
21C
342
21C
343
21C
344
21C
  0
DIMSTYLE
105
222
100
AcDbSymbolTableRecord
100
AcDbDimStyleTableRecord
  2
DIMSTYLE_1
 70
0
  3

  4

 40
1.0
 41
3.0
 42
0.0625
 43
0.38
 44
0.18
 45
0.0
 46
0.0
 47
0.0
 48
0.0
140
3.0
141
0.09
142
0.0
143
25.4
144
1.0
145
0.0
146
1.0
147
0.09
 71
0.0
 72
0.0
 73
0
 74
0
 75
0
 76
0
 77
1
 78
8
170
0
171
2
172
0
173
0
174
0
175
0
176
0
177
0
178
0
270
2
271
2
272
2
273
2
274
2
275
0
280
0
281
0
282
0
283
1
284
8
285
0
286
0
287
3
288
0
340
11
341
21C
342
21C
343
21C
344
21C
  0
DIMSTYLE
105
223
100
AcDbSymbolTableRecord
100
AcDbDimStyleTableRecord
  2
DIMSTYLE_2
 70
0
  3

  4

 40
1.0
 41
3.0
 42
0.0625
 43
0.38
 44
0.18
 45
0.0
 46
0.0
 47
0.0
 48
0.0
140
3.0
141
0.09
142
0.0
143
25.4
144
1.0
145
0.0
146
1.0
147
0.09
 71
0.0
 72
0.0
 73
0
 74
0
 75
0
 76
0
 77
1
 78
8
170
0
171
2
172
0
173
0
174
0
175
0
176
0
177
0
178
0
270
2
271
1
272
1
273
2
274
2
275
0
280
0
281
0
282
0
283
1
284
8
285
0
286
0
287
3
288
0
340
11
341
21C
342
21C
343
21C
344
21C
  0
ENDTAB
  0
ENDSEC
  0
SECTION
  2
BLOCKS
  0
BLOCK
  5
20
100
AcDbEntity
  8
0
100
AcDbBlockBegin
  2
*Model_Space
 70
0
 10
0.0
 20
0.0
 30
0.0
  3
*Model_Space
  1

  0
ENDBLK
  5
21
100
AcDbEntity
  8
0
100
AcDbBlockEnd
  0
BLOCK
  5
1C
100
AcDbEntity
  8
0
100
AcDbBlockBegin
  2
*Paper_Space
 70
0
 10
0.0
 20
0.0
 30
0.0
  3
*Paper_Space
  1

  0
ENDBLK
  5
1D
100
AcDbEntity
  8
0
100
AcDbBlockEnd
  0
BLOCK
  5
224
100
AcDbEntity
  8
0
100
AcDbBlockBegin
  2
_FILLED
 70
64
 10
0.0
 20
0.0
  3
_FILLED
  1

  0
SOLID
  5
225
100
AcDbEntity
  8
0
  6
BYBLOCK
 62
0
100
AcDbTrace
 10
0.0
 20
0.0
 11
-1.0
 21
0.3166666667
 12
-1.0
 22
-0.3166666667
 13
-1.0
 23
-0.3166666667
  0
ENDBLK
  5
226
100
AcDbEntity
  8
0
  6
BYBLOCK
 62
0
100
AcDbBlockEnd
  0
BLOCK
  5
227
100
AcDbEntity
  8
0
100
AcDbBlockBegin
 62
7
  6
CONTINUOUS
  2
*D0
 70
65
 10
0.0
 20
0.0
  3
*D0
  1

  0
LINE
  5
228
100
AcDbEntity
  8
0
100
AcDbLine
 62
7
  6
CONTINUOUS
 10
-29.3313950104
 20
20.4942577878
 11
-29.3313950104
 21
36.5945181231
  0
LINE
  5
229
100
AcDbEntity
  8
0
100
AcDbLine
 62
7
  6
CONTINUOUS
 10
-40.3313950104
 20
24.7456323968
 11
-40.3313950104
 21
36.5945181231
  0
LINE
  5
22A
100
AcDbEntity
  8
0
100
AcDbLine
 62
7
  6
CONTINUOUS
 10
-29.3313950104
 20
35.0945181231
 11
-25.3313950104
 21
35.0945181231
  0
LINE
  5
22B
100
AcDbEntity
  8
0
100
AcDbLine
 62
7
  6
CONTINUOUS
 10
-25.3313950104
 20
35.0945181231
 11
-34.8313950104
 21
35.0945181231
  0
LINE
  5
22C
100
AcDbEntity
  8
0
100
AcDbLine
 62
7
  6
CONTINUOUS
 10
-40.3313950104
 20
35.0945181231
 11
-44.3313950104
 21
35.0945181231
  0
LINE
  5
22D
100
AcDbEntity
  8
0
100
AcDbLine
 62
7
  6
CONTINUOUS
 10
-44.3313950104
 20
35.0945181231
 11
-34.8313950104
 21
35.0945181231
  0
INSERT
  5
22E
100
AcDbEntity
  8
0
100
AcDbBlockReference
 62
7
  6
CONTINUOUS
  2
_FILLED
 10
-29.3313950104
 20
35.0945181231
 41
3.0
 42
3.0
 43
3.0
 50
180.0
  0
INSERT
  5
22F
100
AcDbEntity
  8
0
100
AcDbBlockReference
 62
7
  6
CONTINUOUS
  2
_FILLED
 10
-40.3313950104
 20
35.0945181231
 41
3.0
 42
3.0
 43
3.0
  0
ENDBLK
  5
230
100
AcDbEntity
  8
0
  6
BYBLOCK
 62
0
100
AcDbBlockEnd
  0
BLOCK
  5
231
100
AcDbEntity
  8
0
100
AcDbBlockBegin
 62
7
  6
CONTINUOUS
  2
*D1
 70
65
 10
0.0
 20
0.0
  3
*D1
  1

  0
LINE
  5
232
100
AcDbEntity
  8
0
100
AcDbLine
 62
7
  6
CONTINUOUS
 10
-29.3313950104
 20
19.5166572575
 11
-29.3313950104
 21
46.5945181231
  0
LINE
  5
233
100
AcDbEntity
  8
0
100
AcDbLine
 62
7
  6
CONTINUOUS
 10
-51.6314122803
 20
0.5
 11
-51.6314122803
 21
46.5945181231
  0
LINE
  5
234
100
AcDbEntity
  8
0
100
AcDbLine
 62
7
  6
CONTINUOUS
 10
-29.3313950104
 20
45.0945181231
 11
-40.4814036453
 21
45.0945181231
  0
LINE
  5
235
100
AcDbEntity
  8
0
100
AcDbLine
 62
7
  6
CONTINUOUS
 10
-51.6314122803
 20
45.0945181231
 11
-40.4814036453
 21
45.0945181231
  0
INSERT
  5
236
100
AcDbEntity
  8
0
100
AcDbBlockReference
 62
7
  6
CONTINUOUS
  2
_FILLED
 10
-29.3313950104
 20
45.0945181231
 41
3.0
 42
3.0
 43
3.0
 50
0.0
  0
INSERT
  5
237
100
AcDbEntity
  8
0
100
AcDbBlockReference
 62
7
  6
CONTINUOUS
  2
_FILLED
 10
-51.6314122803
 20
45.0945181231
 41
3.0
 42
3.0
 43
3.0
 50
180.0
  0
ENDBLK
  5
238
100
AcDbEntity
  8
0
  6
BYBLOCK
 62
0
100
AcDbBlockEnd
  0
BLOCK
  5
239
100
AcDbEntity
  8
0
100
AcDbBlockBegin
 62
7
  6
CONTINUOUS
  2
*D2
 70
65
 10
0.0
 20
0.0
  3
*D2
  1

  0
LINE
  5
23A
100
AcDbEntity
  8
0
100
AcDbLine
 62
7
  6
CONTINUOUS
 10
-22.15
 20
22.1001713375
 11
-22.15
 21
36.5945181231
  0
LINE
  5
23B
100
AcDbEntity
  8
0
100
AcDbLine
 62
7
  6
CONTINUOUS
 10
22.4004363434
 20
22.400016923
 11
22.4004363434
 21
36.5945181231
  0
LINE
  5
23C
100
AcDbEntity
  8
0
100
AcDbLine
 62
7
  6
CONTINUOUS
 10
-22.15
 20
35.0945181231
 11
0.1252181717
 21
35.0945181231
  0
LINE
  5
23D
100
AcDbEntity
  8
0
100
AcDbLine
 62
7
  6
CONTINUOUS
 10
22.4004363434
 20
35.0945181231
 11
0.1252181717
 21
35.0945181231
  0
INSERT
  5
23E
100
AcDbEntity
  8
0
100
AcDbBlockReference
 62
7
  6
CONTINUOUS
  2
_FILLED
 10
-22.15
 20
35.0945181231
 41
3.0
 42
3.0
 43
3.0
 50
180.0
  0
INSERT
  5
23F
100
AcDbEntity
  8
0
100
AcDbBlockReference
 62
7
  6
CONTINUOUS
  2
_FILLED
 10
22.4004363434
 20
35.0945181231
 41
3.0
 42
3.0
 43
3.0
  0
ENDBLK
  5
240
100
AcDbEntity
  8
0
  6
BYBLOCK
 62
0
100
AcDbBlockEnd
  0
BLOCK
  5
241
100
AcDbEntity
  8
0
100
AcDbBlockBegin
 62
7
  6
CONTINUOUS
  2
*D3
 70
65
 10
0.0
 20
0.0
  3
*D3
  1

  0
LINE
  5
242
100
AcDbEntity
  8
0
100
AcDbLine
 62
7
  6
CONTINUOUS
 10
21.6500042308
 20
24.5
 11
36.6465950704
 21
24.5
  0
LINE
  5
243
100
AcDbEntity
  8
0
100
AcDbLine
 62
7
  6
CONTINUOUS
 10
21.6500042308
 20
-24.5
 11
36.6465950704
 21
-24.5
  0
LINE
  5
244
100
AcDbEntity
  8
0
100
AcDbLine
 62
7
  6
CONTINUOUS
 10
35.1465950704
 20
24.5
 11
35.1465950704
 21
-0.0
  0
LINE
  5
245
100
AcDbEntity
  8
0
100
AcDbLine
 62
7
  6
CONTINUOUS
 10
35.1465950704
 20
-24.5
 11
35.1465950704
 21
-0.0
  0
INSERT
  5
246
100
AcDbEntity
  8
0
100
AcDbBlockReference
 62
7
  6
CONTINUOUS
  2
_FILLED
 10
35.1465950704
 20
24.5
 41
3.0
 42
3.0
 43
3.0
 50
90.0
  0
INSERT
  5
247
100
AcDbEntity
  8
0
100
AcDbBlockReference
 62
7
  6
CONTINUOUS
  2
_FILLED
 10
35.1465950704
 20
-24.5
 41
3.0
 42
3.0
 43
3.0
 50
270.0
  0
ENDBLK
  5
248
100
AcDbEntity
  8
0
  6
BYBLOCK
 62
0
100
AcDbBlockEnd
  0
ENDSEC
  0
SECTION
  2
ENTITIES
  0
DIMENSION
  5
249
100
AcDbEntity
  8
0
100
AcDbDimension
 62
7
  6
CONTINUOUS
  2
*D0
 10
-40.3313950104
 20
35.0945181231
 11
-36.5456807247
 21
35.8445181231
 70
160
 71
2
 42
11.0
  3
DIMSTYLE_1
100
AcDbAlignedDimension
 13
-29.3313950104
 23
20.4942577878
 14
-40.3313950104
 24
24.7456323968
 50
180.0
100
AcDbRotatedDimension
  0
DIMENSION
  5
24A
100
AcDbEntity
  8
0
100
AcDbDimension
 62
7
  6
CONTINUOUS
  2
*D1
 10
-51.6314122803
 20
45.0945181231
 11
-44.767117931
 21
45.8445181231
 70
160
 71
2
 42
22.3000172699
  3
DIMSTYLE_1
100
AcDbAlignedDimension
 13
-29.3313950104
 23
19.5166572575
 14
-51.6314122803
 24
0.5
 50
180.0
100
AcDbRotatedDimension
  0
DIMENSION
  5
24B
100
AcDbEntity
  8
0
100
AcDbDimension
 62
7
  6
CONTINUOUS
  2
*D2
 10
22.4004363434
 20
35.0945181231
 11
-4.2676389712
 21
35.8445181231
 70
160
 71
2
 42
44.5504363434
  3
DIMSTYLE_2
100
AcDbAlignedDimension
 13
-22.15
 23
22.1001713375
 14
22.4004363434
 24
22.400016923
100
AcDbRotatedDimension
  0
DIMENSION
  5
24C
100
AcDbEntity
  8
0
100
AcDbDimension
 62
7
  6
CONTINUOUS
  2
*D3
 10
35.1465950704
 20
-24.5
 11
34.3965950704
 21
-2.3571428571
 70
160
 71
2
 42
49.0
  3
DIMSTYLE_1
100
AcDbAlignedDimension
 13
21.6500042308
 23
24.5
 14
21.6500042308
 24
-24.5
 50
270.0
100
AcDbRotatedDimension
  0
LWPOLYLINE
  5
24D
100
AcDbEntity
  8
0
100
AcDbPolyline
 62
7
  6
CONTINUOUS
 90
10
 70
0
 43
0.3500000006
 10
3.2323610086
 20
38.8445189209
 10
2.5895038719
 20
38.2016609344
 10
2.1609324946
 20
37.3445184631
 10
2.1609324946
 20
36.273091507
 10
2.5895038719
 20
35.8445180054
 10
3.2323610086
 20
35.8445180054
 10
3.6609325275
 20
36.273091507
 10
3.6609325275
 20
37.1302339783
 10
3.2323610086
 20
37.558802948
 10
2.3037896204
 20
37.558802948
  0
LINE
  5
24E
100
AcDbEntity
  8
0
100
AcDbLine
 62
7
  6
CONTINUOUS
 10
1.3499957692
 20
-24.5
 11
3.7500042308
 21
-24.5
  0
LINE
  5
24F
100
AcDbEntity
  8
0
100
AcDbLine
 62
7
  6
CONTINUOUS
 10
18.7499957692
 20
-24.5
 11
21.1500042308
 21
-24.5
  0
LINE
  5
250
100
AcDbEntity
  8
0
100
AcDbLine
 62
253
  6
CONTINUOUS
 10
1.3630943479
 20
-24.4869014213
 11
3.7369056521
 21
-24.4869014213
  0
LINE
  5
251
100
AcDbEntity
  8
0
100
AcDbLine
 62
253
  6
CONTINUOUS
 10
18.7630943479
 20
-24.4869014213
 11
21.1369056521
 21
-24.4869014213
  0
LINE
  5
252
100
AcDbEntity
  8
0
100
AcDbLine
 62
253
  6
CONTINUOUS
 10
1.1130985787
 20
-24.2369056521
 11
3.9869014213
 21
-24.2369056521
  0
LINE
  5
253
100
AcDbEntity
  8
0
100
AcDbLine
 62
253
  6
CONTINUOUS
 10
18.5130985787
 20
-24.2369056521
 11
21.3869014213
 21
-24.2369056521
  0
LINE
  5
254
100
AcDbEntity
  8
0
100
AcDbLine
 62
7
  6
CONTINUOUS
 10
15.7
 20
-24.0
 11
12.45
 21
-24.0
  0
LINE
  5
255
100
AcDbEntity
  8
0
100
AcDbLine
 62
7
  6
CONTINUOUS
 10
10.05
 20
-24.0
 11
6.8
 21
-24.0
  0
LINE
  5
256
100
AcDbEntity
  8
0
100
AcDbLine
 62
253
  6
CONTINUOUS
 10
7.75
 20
-23.9982478817
 11
10.05
 21
-23.9982478817
  0
LINE
  5
257
100
AcDbEntity
  8
0
100
AcDbLine
 62
253
  6
CONTINUOUS
 10
12.45
 20
-23.9982478817
 11
14.75
 21
-23.9982478817
  0
LINE
  5
258
100
AcDbEntity
  8
0
100
AcDbLine
 62
7
  6
CONTINUOUS
 10
15.6912732553
 20
-23.9912732553
 11
14.75
 21
-23.9912732553
  0
LINE
  5
259
100
AcDbEntity
  8
0
100
AcDbLine
 62
7
  6
CONTINUOUS
 10
7.75
 20
-23.9912732553
 11
6.8087267447
 21
-23.9912732553
  0
LINE
  5
25A
100
AcDbEntity
  8
0
100
AcDbLine
 62
253
  6
CONTINUOUS
 10
1.1130985787
 20
-23.8443375673
 11
3.9869014213
 21
-23.8443375673
  0
LINE
  5
25B
100
AcDbEntity
  8
0
100
AcDbLine
 62
253
  6
CONTINUOUS
 10
18.5130985787
 20
-23.8443375673
 11
21.3869014213
 21
-23.8443375673
  0
LINE
  5
25C
100
AcDbEntity
  8
0
100
AcDbLine
 62
253
  6
CONTINUOUS
 10
7.75
 20
-23.7982512664
 11
10.25
 21
-23.7982512664
  0
LINE
  5
25D
100
AcDbEntity
  8
0
100
AcDbLine
 62
253
  6
CONTINUOUS
 10
12.25
 20
-23.7982512664
 11
14.75
 21
-23.7982512664
  0
LINE
  5
25E
100
AcDbEntity
  8
0
100
AcDbLine
 62
253
  6
CONTINUOUS
 10
21.1369056521
 20
-23.6278312164
 11
18.7630943479
 21
-23.6278312164
  0
LINE
  5
25F
100
AcDbEntity
  8
0
100
AcDbLine
 62
253
  6
CONTINUOUS
 10
3.7369056521
 20
-23.6278312164
 11
1.3630943479
 21
-23.6278312164
  0
LINE
  5
260
100
AcDbEntity
  8
0
100
AcDbLine
 62
7
  6
CONTINUOUS
 10
21.1427234819
 20
-23.1226497308
 11
18.7572765181
 21
-23.1226497308
  0
LINE
  5
261
100
AcDbEntity
  8
0
100
AcDbLine
 62
7
  6
CONTINUOUS
 10
1.3572765181
 20
-23.1226497308
 11
3.7427234819
 21
-23.1226497308
  0
LINE
  5
262
100
AcDbEntity
  8
RACCORDO
100
AcDbLine
 62
7
  6
CONTINUOUS
 10
-22.15
 20
-21.6001713375
 11
-22.15
 21
21.6001713375
  0
LINE
  5
263
100
AcDbEntity
  8
0
100
AcDbLine
 62
7
  6
CONTINUOUS
 10
21.8995078465
 20
-22.4
 11
21.4
 21
-22.4
  0
LINE
  5
264
100
AcDbEntity
  8
0
100
AcDbLine
 62
7
  6
CONTINUOUS
 10
18.5
 20
-22.4
 11
15.7
 21
-22.4
  0
LINE
  5
265
100
AcDbEntity
  8
0
100
AcDbLine
 62
7
  6
CONTINUOUS
 10
6.8
 20
-22.4
 11
4.0
 21
-22.4
  0
LINE
  5
266
100
AcDbEntity
  8
0
100
AcDbLine
 62
7
  6
CONTINUOUS
 10
1.1
 20
-22.4
 11
0.6004921535
 21
-22.4
  0
LINE
  5
267
100
AcDbEntity
  8
0
100
AcDbLine
 62
7
  6
CONTINUOUS
 10
10.25
 20
-22.4
 11
12.25
 21
-22.4
  0
LINE
  5
268
100
AcDbEntity
  8
0
100
AcDbLine
 62
7
  6
CONTINUOUS
 10
14.75
 20
-22.3737961104
 11
12.45
 21
-22.3737961104
  0
LINE
  5
269
100
AcDbEntity
  8
0
100
AcDbLine
 62
7
  6
CONTINUOUS
 10
10.05
 20
-22.3737961104
 11
7.75
 21
-22.3737961104
  0
LINE
  5
26A
100
AcDbEntity
  8
0
100
AcDbLine
 62
7
  6
CONTINUOUS
 10
21.8733252491
 20
-22.3213883311
 11
21.1427234819
 21
-22.3213883311
  0
LINE
  5
26B
100
AcDbEntity
  8
0
100
AcDbLine
 62
7
  6
CONTINUOUS
 10
18.7572765181
 20
-22.3213883311
 11
15.6912732553
 21
-22.3213883311
  0
LINE
  5
26C
100
AcDbEntity
  8
0
100
AcDbLine
 62
7
  6
CONTINUOUS
 10
14.75
 20
-22.3213883311
 11
7.75
 21
-22.3213883311
  0
LINE
  5
26D
100
AcDbEntity
  8
0
100
AcDbLine
 62
7
  6
CONTINUOUS
 10
6.8087267447
 20
-22.3213883311
 11
3.7427234819
 21
-22.3213883311
  0
LINE
  5
26E
100
AcDbEntity
  8
0
100
AcDbLine
 62
7
  6
CONTINUOUS
 10
1.3572765181
 20
-22.3213883311
 11
0.6266747509
 21
-22.3213883311
  0
LINE
  5
26F
100
AcDbEntity
  8
RACCORDO
100
AcDbLine
 62
7
  6
CONTINUOUS
 10
-21.6501713375
 20
-22.1
 11
21.6501713375
 21
-22.1
  0
LINE
  5
270
100
AcDbEntity
  8
RACCORDO
100
AcDbLine
 62
7
  6
CONTINUOUS
 10
22.3729446494
 20
-16.6
 11
22.15
 21
-16.6
  0
LINE
  5
271
100
AcDbEntity
  8
0
100
AcDbLine
 62
253
  6
CONTINUOUS
 10
3.7369056521
 20
24.4869014213
 11
3.7500042308
 21
24.5
  0
LINE
  5
272
100
AcDbEntity
  8
0
100
AcDbLine
 62
253
  6
CONTINUOUS
 10
3.9869014213
 20
24.2369056521
 11
4.0
 21
24.2500042308
  0
LINE
  5
273
100
AcDbEntity
  8
0
100
AcDbLine
 62
253
  6
CONTINUOUS
 10
3.7369056521
 20
-24.4869014213
 11
3.7500042308
 21
-24.5
  0
LINE
  5
274
100
AcDbEntity
  8
0
100
AcDbLine
 62
253
  6
CONTINUOUS
 10
3.9869014213
 20
-24.2369056521
 11
4.0
 21
-24.2500042308
  0
LINE
  5
275
100
AcDbEntity
  8
0
100
AcDbLine
 62
7
  6
CONTINUOUS
 10
-11.65
 20
14.016458
 11
-11.65
 21
13.6992952638
  0
LINE
  5
276
100
AcDbEntity
  8
0
100
AcDbLine
 62
7
  6
CONTINUOUS
 10
-11.625
 20
-13.916458
 11
-11.625
 21
-9.083542
  0
LINE
  5
277
100
AcDbEntity
  8
0
100
AcDbLine
 62
7
  6
CONTINUOUS
 10
-10.875
 20
-9.083542
 11
-10.875
 21
-13.916458
  0
LINE
  5
278
100
AcDbEntity
  8
0
100
AcDbLine
 62
7
  6
CONTINUOUS
 10
-10.85
 20
13.699293
 11
-10.85
 21
14.0164579927
  0
LWPOLYLINE
  5
279
100
AcDbEntity
  8
0
100
AcDbPolyline
 62
7
  6
CONTINUOUS
 90
3
 70
0
 43
0.3500000006
 10
1.1609324727
 20
36.1302336731
 10
1.0895039098
 20
35.9159446564
 10
0.9466467133
 20
35.6302335205
  0
LINE
  5
27A
100
AcDbEntity
  8
0
100
AcDbLine
 62
7
  6
CONTINUOUS
 10
15.7
 20
24.0
 11
15.6912732553
 21
23.9912732553
  0
LINE
  5
27B
100
AcDbEntity
  8
0
100
AcDbLine
 62
7
  6
CONTINUOUS
 10
15.7
 20
-24.0
 11
15.6912732553
 21
-23.9912732553
  0
LWPOLYLINE
  5
27C
100
AcDbEntity
  8
0
100
AcDbPolyline
 62
7
  6
CONTINUOUS
 90
2
 70
0
 43
0.3500000006
 10
-3.2676389923
 20
35.8445180054
 10
-3.2676389923
 20
37.3445184631
  0
LINE
  5
27D
100
AcDbEntity
  8
0
100
AcDbLine
 62
253
  6
CONTINUOUS
 10
21.1369056521
 20
24.4869014213
 11
21.1500042308
 21
24.5
  0
LINE
  5
27E
100
AcDbEntity
  8
0
100
AcDbLine
 62
253
  6
CONTINUOUS
 10
21.1369056521
 20
-24.4869014213
 11
21.1500042308
 21
-24.5
  0
LWPOLYLINE
  5
27F
100
AcDbEntity
  8
0
100
AcDbPolyline
 62
7
  6
CONTINUOUS
 90
2
 70
0
 43
0.3500000006
 10
-0.910496134
 20
35.8445180054
 10
-0.910496134
 20
37.3445184631
  0
LINE
  5
280
100
AcDbEntity
  8
0
100
AcDbLine
 62
253
  6
CONTINUOUS
 10
21.3869014213
 20
24.2369056521
 11
21.4
 21
24.2500042308
  0
LINE
  5
281
100
AcDbEntity
  8
RACCORDO
100
AcDbLine
 62
253
  6
CONTINUOUS
 10
-22.0290966686
 20
-21.4792680061
 11
-22.15
 21
-21.6001713375
  0
LINE
  5
282
100
AcDbEntity
  8
RACCORDO
100
AcDbLine
 62
253
  6
CONTINUOUS
 10
21.5292680065
 20
21.9790966689
 11
21.6501713375
 21
22.1
  0
LINE
  5
283
100
AcDbEntity
  8
RACCORDO
100
AcDbLine
 62
253
  6
CONTINUOUS
 10
-21.5292680065
 20
-21.979096669
 11
-21.6501713375
 21
-22.1
  0
LWPOLYLINE
  5
284
100
AcDbEntity
  8
0
100
AcDbPolyline
 62
7
  6
CONTINUOUS
 90
2
 70
0
 43
0.3500000006
 10
34.3965957413
 20
-1.3571429443
 10
32.8965952835
 20
-1.3571429443
  0
LINE
  5
285
100
AcDbEntity
  8
DRAFT
100
AcDbLine
 62
7
  6
CONTINUOUS
 10
22.345044505
 20
-0.0
 11
22.15
 21
-0.0
  0
LINE
  5
286
100
AcDbEntity
  8
0
100
AcDbLine
 62
253
  6
CONTINUOUS
 10
21.3869014213
 20
-24.2369056521
 11
21.4
 21
-24.2500042308
  0
LINE
  5
287
100
AcDbEntity
  8
RACCORDO
100
AcDbLine
 62
253
  6
CONTINUOUS
 10
-22.15
 20
21.6001713375
 11
-22.0290966732
 21
21.4792680107
  0
LINE
  5
288
100
AcDbEntity
  8
RACCORDO
100
AcDbLine
 62
253
  6
CONTINUOUS
 10
21.6501713375
 20
-22.1
 11
21.5292680107
 21
-21.9790966731
  0
LINE
  5
289
100
AcDbEntity
  8
RACCORDO
100
AcDbLine
 62
253
  6
CONTINUOUS
 10
-21.6501713375
 20
22.1
 11
-21.5292680107
 21
21.9790966732
  0
LINE
  5
28A
100
AcDbEntity
  8
0
100
AcDbLine
 62
253
  6
CONTINUOUS
 10
1.1130985787
 20
-23.8443375673
 11
1.1072807489
 21
-23.2669872981
  0
LINE
  5
28B
100
AcDbEntity
  8
0
100
AcDbLine
 62
253
  6
CONTINUOUS
 10
1.3630943479
 20
-23.6278312164
 11
1.3580037468
 21
-23.1226497308
  0
LINE
  5
28C
100
AcDbEntity
  8
0
100
AcDbLine
 62
7
  6
CONTINUOUS
 10
1.1
 20
-22.4
 11
1.1
 21
-24.2500042308
  0
LINE
  5
28D
100
AcDbEntity
  8
0
100
AcDbLine
 62
7
  6
CONTINUOUS
 10
1.1
 20
22.4
 11
1.1
 21
24.2500042308
  0
LINE
  5
28E
100
AcDbEntity
  8
0
100
AcDbLine
 62
253
  6
CONTINUOUS
 10
1.1072807489
 20
23.2669872981
 11
1.1072807489
 21
22.3344140523
  0
LINE
  5
28F
100
AcDbEntity
  8
0
100
AcDbLine
 62
253
  6
CONTINUOUS
 10
1.1072807489
 20
-22.3344140523
 11
1.1072807489
 21
-23.2669872981
  0
LINE
  5
290
100
AcDbEntity
  8
0
100
AcDbLine
 62
253
  6
CONTINUOUS
 10
1.1130985787
 20
24.2369056521
 11
1.1130985787
 21
23.8443375673
  0
LINE
  5
291
100
AcDbEntity
  8
0
100
AcDbLine
 62
253
  6
CONTINUOUS
 10
1.1130985787
 20
-23.8443375673
 11
1.1130985787
 21
-24.2369056521
  0
LINE
  5
292
100
AcDbEntity
  8
0
100
AcDbLine
 62
253
  6
CONTINUOUS
 10
1.3572765181
 20
23.1226497308
 11
1.3572765181
 21
22.3213883311
  0
LINE
  5
293
100
AcDbEntity
  8
0
100
AcDbLine
 62
253
  6
CONTINUOUS
 10
1.3572765181
 20
-22.3213883311
 11
1.3572765181
 21
-23.1226497308
  0
LINE
  5
294
100
AcDbEntity
  8
0
100
AcDbLine
 62
253
  6
CONTINUOUS
 10
1.3630943479
 20
-23.6278312164
 11
1.3630943479
 21
-24.4869014213
  0
LINE
  5
295
100
AcDbEntity
  8
0
100
AcDbLine
 62
253
  6
CONTINUOUS
 10
1.3630943479
 20
23.6278312164
 11
1.3630943479
 21
24.4869014213
  0
LINE
  5
296
100
AcDbEntity
  8
0
100
AcDbLine
 62
253
  6
CONTINUOUS
 10
1.1072807489
 20
23.2669872981
 11
1.1130985787
 21
23.8443375673
  0
LINE
  5
297
100
AcDbEntity
  8
0
100
AcDbLine
 62
253
  6
CONTINUOUS
 10
1.3580037468
 20
23.1226497308
 11
1.3630943479
 21
23.6278312164
  0
LINE
  5
298
100
AcDbEntity
  8
0
100
AcDbLine
 62
7
  6
CONTINUOUS
 10
4.0
 20
22.4
 11
3.9927192511
 21
22.3344140523
  0
LINE
  5
299
100
AcDbEntity
  8
RACCORDO
100
AcDbLine
 62
253
  6
CONTINUOUS
 10
22.0290966685
 20
21.4792680061
 11
22.15
 21
21.6001713375
  0
LINE
  5
29A
100
AcDbEntity
  8
RACCORDO
100
AcDbLine
 62
253
  6
CONTINUOUS
 10
22.15
 20
-21.6001713375
 11
22.0290966731
 21
-21.4792680107
  0
LINE
  5
29B
100
AcDbEntity
  8
0
100
AcDbLine
 62
7
  6
CONTINUOUS
 10
4.0
 20
-22.4
 11
3.9927192511
 21
-22.3344140523
  0
LINE
  5
29C
100
AcDbEntity
  8
0
100
AcDbLine
 62
253
  6
CONTINUOUS
 10
3.7369056521
 20
23.6278312164
 11
3.7419962532
 21
23.1226497308
  0
LINE
  5
29D
100
AcDbEntity
  8
0
100
AcDbLine
 62
253
  6
CONTINUOUS
 10
3.9869014213
 20
23.8443375673
 11
3.9927192511
 21
23.2669872981
  0
LINE
  5
29E
100
AcDbEntity
  8
0
100
AcDbLine
 62
253
  6
CONTINUOUS
 10
3.7369056521
 20
-23.6278312164
 11
3.7369056521
 21
-24.4869014213
  0
LINE
  5
29F
100
AcDbEntity
  8
0
100
AcDbLine
 62
253
  6
CONTINUOUS
 10
3.7369056521
 20
23.6278312164
 11
3.7369056521
 21
24.4869014213
  0
LINE
  5
2A0
100
AcDbEntity
  8
0
100
AcDbLine
 62
253
  6
CONTINUOUS
 10
3.7427234819
 20
-23.1226497308
 11
3.7427234819
 21
-22.3213883311
  0
LINE
  5
2A1
100
AcDbEntity
  8
0
100
AcDbLine
 62
253
  6
CONTINUOUS
 10
3.7427234819
 20
22.3213883311
 11
3.7427234819
 21
23.1226497308
  0
LINE
  5
2A2
100
AcDbEntity
  8
0
100
AcDbLine
 62
253
  6
CONTINUOUS
 10
3.9869014213
 20
-24.2369056521
 11
3.9869014213
 21
-23.8443375673
  0
LINE
  5
2A3
100
AcDbEntity
  8
0
100
AcDbLine
 62
253
  6
CONTINUOUS
 10
3.9869014213
 20
23.8443375673
 11
3.9869014213
 21
24.2369056521
  0
LINE
  5
2A4
100
AcDbEntity
  8
0
100
AcDbLine
 62
253
  6
CONTINUOUS
 10
3.9927192511
 20
-23.2669872981
 11
3.9927192511
 21
-22.3344140523
  0
LINE
  5
2A5
100
AcDbEntity
  8
0
100
AcDbLine
 62
253
  6
CONTINUOUS
 10
3.9927192511
 20
22.3344140523
 11
3.9927192511
 21
23.2669872981
  0
LINE
  5
2A6
100
AcDbEntity
  8
0
100
AcDbLine
 62
7
  6
CONTINUOUS
 10
4.0
 20
-22.4
 11
4.0
 21
-24.2500042308
  0
LINE
  5
2A7
100
AcDbEntity
  8
0
100
AcDbLine
 62
7
  6
CONTINUOUS
 10
4.0
 20
22.4
 11
4.0
 21
24.2500042308
  0
LINE
  5
2A8
100
AcDbEntity
  8
0
100
AcDbLine
 62
253
  6
CONTINUOUS
 10
3.7419962532
 20
-23.1226497308
 11
3.7369056521
 21
-23.6278312164
  0
LINE
  5
2A9
100
AcDbEntity
  8
0
100
AcDbLine
 62
253
  6
CONTINUOUS
 10
3.9927192511
 20
-23.2669872981
 11
3.9869014213
 21
-23.8443375673
  0
LINE
  5
2AA
100
AcDbEntity
  8
0
100
AcDbLine
 62
7
  6
CONTINUOUS
 10
1.1
 20
-22.4
 11
1.1072807489
 21
-22.3344140523
  0
LINE
  5
2AB
100
AcDbEntity
  8
0
100
AcDbLine
 62
7
  6
CONTINUOUS
 10
1.1
 20
22.4
 11
1.1072807489
 21
22.3344140523
  0
LINE
  5
2AC
100
AcDbEntity
  8
0
100
AcDbLine
 62
7
  6
CONTINUOUS
 10
6.8
 20
-22.4
 11
6.8
 21
-24.0
  0
LINE
  5
2AD
100
AcDbEntity
  8
0
100
AcDbLine
 62
7
  6
CONTINUOUS
 10
6.8
 20
22.4
 11
6.8
 21
24.0
  0
LINE
  5
2AE
100
AcDbEntity
  8
0
100
AcDbLine
 62
7
  6
CONTINUOUS
 10
6.8087267447
 20
23.9912732553
 11
6.8087267447
 21
22.3213883311
  0
LINE
  5
2AF
100
AcDbEntity
  8
0
100
AcDbLine
 62
7
  6
CONTINUOUS
 10
6.8087267447
 20
-22.3213883311
 11
6.8087267447
 21
-23.9912732553
  0
LINE
  5
2B0
100
AcDbEntity
  8
0
100
AcDbLine
 62
7
  6
CONTINUOUS
 10
7.75
 20
-23.9982478817
 11
7.75
 21
-22.3213883311
  0
LINE
  5
2B1
100
AcDbEntity
  8
0
100
AcDbLine
 62
7
  6
CONTINUOUS
 10
7.75
 20
22.3213883311
 11
7.75
 21
23.9982478817
  0
LINE
  5
2B2
100
AcDbEntity
  8
0
100
AcDbLine
 62
253
  6
CONTINUOUS
 10
0.6004921535
 20
-22.4
 11
0.6266747509
 21
-22.3213883311
  0
LINE
  5
2B3
100
AcDbEntity
  8
0
100
AcDbLine
 62
253
  6
CONTINUOUS
 10
0.6266747509
 20
22.3213883311
 11
0.6004921535
 21
22.4
  0
LINE
  5
2B4
100
AcDbEntity
  8
0
100
AcDbLine
 62
253
  6
CONTINUOUS
 10
10.05
 20
-22.3737961104
 11
10.05
 21
-24.0
  0
LINE
  5
2B5
100
AcDbEntity
  8
0
100
AcDbLine
 62
253
  6
CONTINUOUS
 10
10.05
 20
22.3737961104
 11
10.05
 21
24.0
  0
LINE
  5
2B6
100
AcDbEntity
  8
0
100
AcDbLine
 62
7
  6
CONTINUOUS
 10
10.25
 20
-23.7999966153
 11
10.25
 21
-22.3842776662
  0
LINE
  5
2B7
100
AcDbEntity
  8
0
100
AcDbLine
 62
7
  6
CONTINUOUS
 10
10.25
 20
22.3842776662
 11
10.25
 21
23.7999966153
  0
LINE
  5
2B8
100
AcDbEntity
  8
0
100
AcDbLine
 62
7
  6
CONTINUOUS
 10
6.8
 20
-22.4
 11
6.8087267447
 21
-22.3213883311
  0
LINE
  5
2B9
100
AcDbEntity
  8
0
100
AcDbLine
 62
7
  6
CONTINUOUS
 10
6.8087267447
 20
22.3213883311
 11
6.8
 21
22.4
  0
LINE
  5
2BA
100
AcDbEntity
  8
0
100
AcDbLine
 62
7
  6
CONTINUOUS
 10
12.25
 20
23.7999966153
 11
12.25
 21
22.3842776662
  0
LINE
  5
2BB
100
AcDbEntity
  8
0
100
AcDbLine
 62
7
  6
CONTINUOUS
 10
12.25
 20
-22.3842776662
 11
12.25
 21
-23.7999966153
  0
LINE
  5
2BC
100
AcDbEntity
  8
0
100
AcDbLine
 62
253
  6
CONTINUOUS
 10
12.45
 20
-22.3737961104
 11
12.45
 21
-24.0
  0
LINE
  5
2BD
100
AcDbEntity
  8
0
100
AcDbLine
 62
253
  6
CONTINUOUS
 10
12.45
 20
22.3737961104
 11
12.45
 21
24.0
  0
LINE
  5
2BE
100
AcDbEntity
  8
0
100
AcDbLine
 62
7
  6
CONTINUOUS
 10
14.75
 20
23.9982478817
 11
14.75
 21
22.3213883311
  0
LINE
  5
2BF
100
AcDbEntity
  8
0
100
AcDbLine
 62
7
  6
CONTINUOUS
 10
14.75
 20
-22.3213883311
 11
14.75
 21
-23.9982478817
  0
LINE
  5
2C0
100
AcDbEntity
  8
0
100
AcDbLine
 62
7
  6
CONTINUOUS
 10
15.7
 20
22.4
 11
15.6912732553
 21
22.3213883311
  0
LINE
  5
2C1
100
AcDbEntity
  8
0
100
AcDbLine
 62
253
  6
CONTINUOUS
 10
21.8995078465
 20
22.4
 11
21.8733252491
 21
22.3213883311
  0
LINE
  5
2C2
100
AcDbEntity
  8
0
100
AcDbLine
 62
253
  6
CONTINUOUS
 10
22.3991272468
 20
21.8997711479
 11
22.3729446494
 21
21.821159479
  0
LINE
  5
2C3
100
AcDbEntity
  8
0
100
AcDbLine
 62
253
  6
CONTINUOUS
 10
21.8733252491
 20
-22.3213883311
 11
21.8995078465
 21
-22.4
  0
LINE
  5
2C4
100
AcDbEntity
  8
0
100
AcDbLine
 62
253
  6
CONTINUOUS
 10
22.3729446494
 20
-21.821159479
 11
22.3991272468
 21
-21.8997711479
  0
LINE
  5
2C5
100
AcDbEntity
  8
0
100
AcDbLine
 62
7
  6
CONTINUOUS
 10
15.6912732553
 20
-22.3213883311
 11
15.7
 21
-22.4
  0
LINE
  5
2C6
100
AcDbEntity
  8
0
100
AcDbLine
 62
7
  6
CONTINUOUS
 10
15.6912732553
 20
-23.9912732553
 11
15.6912732553
 21
-22.3213883311
  0
LINE
  5
2C7
100
AcDbEntity
  8
0
100
AcDbLine
 62
7
  6
CONTINUOUS
 10
15.6912732553
 20
22.3213883311
 11
15.6912732553
 21
23.9912732553
  0
LINE
  5
2C8
100
AcDbEntity
  8
0
100
AcDbLine
 62
7
  6
CONTINUOUS
 10
15.7
 20
-22.4
 11
15.7
 21
-24.0
  0
LINE
  5
2C9
100
AcDbEntity
  8
0
100
AcDbLine
 62
7
  6
CONTINUOUS
 10
15.7
 20
22.4
 11
15.7
 21
24.0
  0
LINE
  5
2CA
100
AcDbEntity
  8
0
100
AcDbLine
 62
253
  6
CONTINUOUS
 10
1.1130985787
 20
-24.2369056521
 11
1.1
 21
-24.2500042308
  0
LINE
  5
2CB
100
AcDbEntity
  8
RACCORDO
100
AcDbLine
 62
7
  6
CONTINUOUS
 10
22.15
 20
16.6
 11
22.3729446494
 21
16.6
  0
LINE
  5
2CC
100
AcDbEntity
  8
0
100
AcDbLine
 62
253
  6
CONTINUOUS
 10
1.1130985787
 20
24.2369056521
 11
1.1
 21
24.2500042308
  0
LWPOLYLINE
  5
2CD
100
AcDbEntity
  8
0
100
AcDbPolyline
 62
7
  6
CONTINUOUS
 90
10
 70
0
 43
0.3500000006
 10
1.0895039098
 20
36.344518158
 10
1.1609324727
 20
36.2016603241
 10
1.1609324727
 20
36.1302336731
 10
1.0180753469
 20
35.9873758392
 10
0.9466467133
 20
35.9873758392
 10
0.8752181504
 20
36.0588024902
 10
0.8752181504
 20
36.1302336731
 10
0.9466467133
 20
36.273091507
 10
1.0180753469
 20
36.344518158
 10
1.0895039098
 20
36.344518158
  0
LINE
  5
2CE
100
AcDbEntity
  8
0
100
AcDbLine
 62
253
  6
CONTINUOUS
 10
18.5130985787
 20
-23.8443375673
 11
18.5072807489
 21
-23.2669872981
  0
LINE
  5
2CF
100
AcDbEntity
  8
0
100
AcDbLine
 62
253
  6
CONTINUOUS
 10
18.7630943479
 20
-23.6278312164
 11
18.7580037468
 21
-23.1226497308
  0
LINE
  5
2D0
100
AcDbEntity
  8
0
100
AcDbLine
 62
7
  6
CONTINUOUS
 10
18.5
 20
-22.4
 11
18.5
 21
-24.2500042308
  0
LINE
  5
2D1
100
AcDbEntity
  8
0
100
AcDbLine
 62
7
  6
CONTINUOUS
 10
18.5
 20
22.4
 11
18.5
 21
24.2500042308
  0
LINE
  5
2D2
100
AcDbEntity
  8
0
100
AcDbLine
 62
253
  6
CONTINUOUS
 10
18.5072807489
 20
23.2669872981
 11
18.5072807489
 21
22.3344140523
  0
LINE
  5
2D3
100
AcDbEntity
  8
0
100
AcDbLine
 62
253
  6
CONTINUOUS
 10
18.5072807489
 20
-22.3344140523
 11
18.5072807489
 21
-23.2669872981
  0
LINE
  5
2D4
100
AcDbEntity
  8
0
100
AcDbLine
 62
253
  6
CONTINUOUS
 10
18.5130985787
 20
24.2369056521
 11
18.5130985787
 21
23.8443375673
  0
LINE
  5
2D5
100
AcDbEntity
  8
0
100
AcDbLine
 62
253
  6
CONTINUOUS
 10
18.5130985787
 20
-23.8443375673
 11
18.5130985787
 21
-24.2369056521
  0
LINE
  5
2D6
100
AcDbEntity
  8
0
100
AcDbLine
 62
253
  6
CONTINUOUS
 10
18.7572765181
 20
23.1226497308
 11
18.7572765181
 21
22.3213883311
  0
LINE
  5
2D7
100
AcDbEntity
  8
0
100
AcDbLine
 62
253
  6
CONTINUOUS
 10
18.7572765181
 20
-22.3213883311
 11
18.7572765181
 21
-23.1226497308
  0
LINE
  5
2D8
100
AcDbEntity
  8
0
100
AcDbLine
 62
253
  6
CONTINUOUS
 10
18.7630943479
 20
-23.6278312164
 11
18.7630943479
 21
-24.4869014213
  0
LINE
  5
2D9
100
AcDbEntity
  8
0
100
AcDbLine
 62
253
  6
CONTINUOUS
 10
18.7630943479
 20
23.6278312164
 11
18.7630943479
 21
24.4869014213
  0
LINE
  5
2DA
100
AcDbEntity
  8
0
100
AcDbLine
 62
253
  6
CONTINUOUS
 10
18.5072807489
 20
23.2669872981
 11
18.5130985787
 21
23.8443375673
  0
LINE
  5
2DB
100
AcDbEntity
  8
0
100
AcDbLine
 62
253
  6
CONTINUOUS
 10
18.7580037468
 20
23.1226497308
 11
18.7630943479
 21
23.6278312164
  0
LINE
  5
2DC
100
AcDbEntity
  8
0
100
AcDbLine
 62
7
  6
CONTINUOUS
 10
21.4
 20
22.4
 11
21.3927192511
 21
22.3344140523
  0
LINE
  5
2DD
100
AcDbEntity
  8
0
100
AcDbLine
 62
253
  6
CONTINUOUS
 10
1.3630943479
 20
-24.4869014213
 11
1.3499957692
 21
-24.5
  0
LINE
  5
2DE
100
AcDbEntity
  8
0
100
AcDbLine
 62
253
  6
CONTINUOUS
 10
1.3630943479
 20
24.4869014213
 11
1.3499957692
 21
24.5
  0
LINE
  5
2DF
100
AcDbEntity
  8
0
100
AcDbLine
 62
7
  6
CONTINUOUS
 10
21.4
 20
-22.4
 11
21.3927192511
 21
-22.3344140523
  0
LINE
  5
2E0
100
AcDbEntity
  8
0
100
AcDbLine
 62
253
  6
CONTINUOUS
 10
21.1369056521
 20
23.6278312164
 11
21.1419962532
 21
23.1226497308
  0
LINE
  5
2E1
100
AcDbEntity
  8
0
100
AcDbLine
 62
253
  6
CONTINUOUS
 10
21.3869014213
 20
23.8443375673
 11
21.3927192511
 21
23.2669872981
  0
LINE
  5
2E2
100
AcDbEntity
  8
DRAFT
100
AcDbLine
 62
7
  6
CONTINUOUS
 10
22.3729446494
 20
-16.6
 11
22.345044505
 21
-0.0
  0
LINE
  5
2E3
100
AcDbEntity
  8
0
100
AcDbLine
 62
253
  6
CONTINUOUS
 10
21.1369056521
 20
-23.6278312164
 11
21.1369056521
 21
-24.4869014213
  0
LINE
  5
2E4
100
AcDbEntity
  8
0
100
AcDbLine
 62
253
  6
CONTINUOUS
 10
21.1369056521
 20
23.6278312164
 11
21.1369056521
 21
24.4869014213
  0
LINE
  5
2E5
100
AcDbEntity
  8
0
100
AcDbLine
 62
253
  6
CONTINUOUS
 10
21.1427234819
 20
-23.1226497308
 11
21.1427234819
 21
-22.3213883311
  0
LINE
  5
2E6
100
AcDbEntity
  8
0
100
AcDbLine
 62
253
  6
CONTINUOUS
 10
21.1427234819
 20
22.3213883311
 11
21.1427234819
 21
23.1226497308
  0
LINE
  5
2E7
100
AcDbEntity
  8
0
100
AcDbLine
 62
253
  6
CONTINUOUS
 10
21.3869014213
 20
-24.2369056521
 11
21.3869014213
 21
-23.8443375673
  0
LINE
  5
2E8
100
AcDbEntity
  8
0
100
AcDbLine
 62
253
  6
CONTINUOUS
 10
21.3869014213
 20
23.8443375673
 11
21.3869014213
 21
24.2369056521
  0
LINE
  5
2E9
100
AcDbEntity
  8
0
100
AcDbLine
 62
253
  6
CONTINUOUS
 10
21.3927192511
 20
-23.2669872981
 11
21.3927192511
 21
-22.3344140523
  0
LINE
  5
2EA
100
AcDbEntity
  8
0
100
AcDbLine
 62
253
  6
CONTINUOUS
 10
21.3927192511
 20
22.3344140523
 11
21.3927192511
 21
23.2669872981
  0
LINE
  5
2EB
100
AcDbEntity
  8
0
100
AcDbLine
 62
7
  6
CONTINUOUS
 10
21.4
 20
-22.4
 11
21.4
 21
-24.2500042308
  0
LINE
  5
2EC
100
AcDbEntity
  8
0
100
AcDbLine
 62
7
  6
CONTINUOUS
 10
21.4
 20
22.4
 11
21.4
 21
24.2500042308
  0
LINE
  5
2ED
100
AcDbEntity
  8
RACCORDO
100
AcDbLine
 62
7
  6
CONTINUOUS
 10
22.15
 20
-21.6001713375
 11
22.15
 21
21.6001713375
  0
LINE
  5
2EE
100
AcDbEntity
  8
DRAFT
100
AcDbLine
 62
7
  6
CONTINUOUS
 10
22.3729446494
 20
21.821159479
 11
22.3729446494
 21
16.6
  0
LINE
  5
2EF
100
AcDbEntity
  8
DRAFT
100
AcDbLine
 62
7
  6
CONTINUOUS
 10
22.3729446494
 20
-16.6
 11
22.3729446494
 21
-21.821159479
  0
LINE
  5
2F0
100
AcDbEntity
  8
0
100
AcDbLine
 62
7
  6
CONTINUOUS
 10
22.3991272468
 20
21.8997711479
 11
22.3991272468
 21
-21.8997711479
  0
LINE
  5
2F1
100
AcDbEntity
  8
0
100
AcDbLine
 62
7
  6
CONTINUOUS
 10
22.4004363434
 20
21.900016923
 11
22.4004363434
 21
-21.900016923
  0
LINE
  5
2F2
100
AcDbEntity
  8
DRAFT
100
AcDbLine
 62
7
  6
CONTINUOUS
 10
22.345044505
 20
-0.0
 11
22.3729446494
 21
16.6
  0
LINE
  5
2F3
100
AcDbEntity
  8
0
100
AcDbLine
 62
253
  6
CONTINUOUS
 10
21.1419962532
 20
-23.1226497308
 11
21.1369056521
 21
-23.6278312164
  0
LINE
  5
2F4
100
AcDbEntity
  8
0
100
AcDbLine
 62
253
  6
CONTINUOUS
 10
21.3927192511
 20
-23.2669872981
 11
21.3869014213
 21
-23.8443375673
  0
LINE
  5
2F5
100
AcDbEntity
  8
0
100
AcDbLine
 62
7
  6
CONTINUOUS
 10
18.5
 20
-22.4
 11
18.5072807489
 21
-22.3344140523
  0
LINE
  5
2F6
100
AcDbEntity
  8
0
100
AcDbLine
 62
7
  6
CONTINUOUS
 10
6.8087267447
 20
-23.9912732553
 11
6.8
 21
-24.0
  0
LINE
  5
2F7
100
AcDbEntity
  8
RACCORDO
100
AcDbLine
 62
7
  6
CONTINUOUS
 10
-21.6501713375
 20
22.1
 11
21.6501713375
 21
22.1
  0
LINE
  5
2F8
100
AcDbEntity
  8
0
100
AcDbLine
 62
7
  6
CONTINUOUS
 10
21.8733252491
 20
22.3213883311
 11
21.1427234819
 21
22.3213883311
  0
LINE
  5
2F9
100
AcDbEntity
  8
0
100
AcDbLine
 62
7
  6
CONTINUOUS
 10
18.7572765181
 20
22.3213883311
 11
15.6912732553
 21
22.3213883311
  0
LINE
  5
2FA
100
AcDbEntity
  8
0
100
AcDbLine
 62
7
  6
CONTINUOUS
 10
14.75
 20
22.3213883311
 11
7.75
 21
22.3213883311
  0
LINE
  5
2FB
100
AcDbEntity
  8
0
100
AcDbLine
 62
7
  6
CONTINUOUS
 10
6.8087267447
 20
22.3213883311
 11
3.7427234819
 21
22.3213883311
  0
LINE
  5
2FC
100
AcDbEntity
  8
0
100
AcDbLine
 62
7
  6
CONTINUOUS
 10
1.3572765181
 20
22.3213883311
 11
0.6266747509
 21
22.3213883311
  0
LINE
  5
2FD
100
AcDbEntity
  8
0
100
AcDbLine
 62
7
  6
CONTINUOUS
 10
14.75
 20
22.3737961104
 11
12.45
 21
22.3737961104
  0
LINE
  5
2FE
100
AcDbEntity
  8
0
100
AcDbLine
 62
7
  6
CONTINUOUS
 10
10.05
 20
22.3737961104
 11
7.75
 21
22.3737961104
  0
LINE
  5
2FF
100
AcDbEntity
  8
0
100
AcDbLine
 62
7
  6
CONTINUOUS
 10
21.9004426895
 20
22.4
 11
21.4
 21
22.4
  0
LINE
  5
300
100
AcDbEntity
  8
0
100
AcDbLine
 62
7
  6
CONTINUOUS
 10
18.5
 20
22.4
 11
15.7
 21
22.4
  0
LINE
  5
301
100
AcDbEntity
  8
0
100
AcDbLine
 62
7
  6
CONTINUOUS
 10
6.8
 20
22.4
 11
4.0
 21
22.4
  0
LINE
  5
302
100
AcDbEntity
  8
0
100
AcDbLine
 62
7
  6
CONTINUOUS
 10
1.1
 20
22.4
 11
0.5995573105
 21
22.4
  0
LINE
  5
303
100
AcDbEntity
  8
0
100
AcDbLine
 62
7
  6
CONTINUOUS
 10
10.25
 20
22.4
 11
12.25
 21
22.4
  0
LINE
  5
304
100
AcDbEntity
  8
0
100
AcDbLine
 62
7
  6
CONTINUOUS
 10
21.1427234819
 20
23.1226497308
 11
18.7572765181
 21
23.1226497308
  0
LINE
  5
305
100
AcDbEntity
  8
0
100
AcDbLine
 62
7
  6
CONTINUOUS
 10
1.3572765181
 20
23.1226497308
 11
3.7427234819
 21
23.1226497308
  0
LINE
  5
306
100
AcDbEntity
  8
0
100
AcDbLine
 62
7
  6
CONTINUOUS
 10
6.8
 20
24.0
 11
6.8087267447
 21
23.9912732553
  0
LINE
  5
307
100
AcDbEntity
  8
0
100
AcDbLine
 62
7
  6
CONTINUOUS
 10
18.5
 20
22.4
 11
18.5072807489
 21
22.3344140523
  0
LINE
  5
308
100
AcDbEntity
  8
0
100
AcDbLine
 62
253
  6
CONTINUOUS
 10
1.3630943479
 20
23.6278312164
 11
3.7369056521
 21
23.6278312164
  0
LINE
  5
309
100
AcDbEntity
  8
0
100
AcDbLine
 62
253
  6
CONTINUOUS
 10
18.7630943479
 20
23.6278312164
 11
21.1369056521
 21
23.6278312164
  0
LINE
  5
30A
100
AcDbEntity
  8
0
100
AcDbLine
 62
253
  6
CONTINUOUS
 10
14.75
 20
23.7982512664
 11
12.25
 21
23.7982512664
  0
LINE
  5
30B
100
AcDbEntity
  8
0
100
AcDbLine
 62
253
  6
CONTINUOUS
 10
7.75
 20
23.7982512664
 11
10.25
 21
23.7982512664
  0
LINE
  5
30C
100
AcDbEntity
  8
0
100
AcDbLine
 62
253
  6
CONTINUOUS
 10
1.1130985787
 20
23.8443375673
 11
3.9869014213
 21
23.8443375673
  0
LINE
  5
30D
100
AcDbEntity
  8
0
100
AcDbLine
 62
253
  6
CONTINUOUS
 10
18.5130985787
 20
23.8443375673
 11
21.3869014213
 21
23.8443375673
  0
LINE
  5
30E
100
AcDbEntity
  8
0
100
AcDbLine
 62
7
  6
CONTINUOUS
 10
6.8087267447
 20
23.9912732553
 11
7.75
 21
23.9912732553
  0
LINE
  5
30F
100
AcDbEntity
  8
0
100
AcDbLine
 62
7
  6
CONTINUOUS
 10
14.75
 20
23.9912732553
 11
15.6912732553
 21
23.9912732553
  0
LINE
  5
310
100
AcDbEntity
  8
0
100
AcDbLine
 62
253
  6
CONTINUOUS
 10
14.75
 20
23.9982478817
 11
12.45
 21
23.9982478817
  0
LINE
  5
311
100
AcDbEntity
  8
0
100
AcDbLine
 62
253
  6
CONTINUOUS
 10
10.05
 20
23.9982478817
 11
7.75
 21
23.9982478817
  0
LINE
  5
312
100
AcDbEntity
  8
0
100
AcDbLine
 62
7
  6
CONTINUOUS
 10
6.8
 20
24.0
 11
10.05
 21
24.0
  0
LINE
  5
313
100
AcDbEntity
  8
0
100
AcDbLine
 62
7
  6
CONTINUOUS
 10
12.45
 20
24.0
 11
15.7
 21
24.0
  0
LINE
  5
314
100
AcDbEntity
  8
0
100
AcDbLine
 62
253
  6
CONTINUOUS
 10
1.1130985787
 20
24.2369056521
 11
3.9869014213
 21
24.2369056521
  0
LINE
  5
315
100
AcDbEntity
  8
0
100
AcDbLine
 62
253
  6
CONTINUOUS
 10
18.5130985787
 20
24.2369056521
 11
21.3869014213
 21
24.2369056521
  0
LINE
  5
316
100
AcDbEntity
  8
0
100
AcDbLine
 62
253
  6
CONTINUOUS
 10
21.1369056521
 20
24.4869014213
 11
18.7630943479
 21
24.4869014213
  0
LINE
  5
317
100
AcDbEntity
  8
0
100
AcDbLine
 62
253
  6
CONTINUOUS
 10
3.7369056521
 20
24.4869014213
 11
1.3630943479
 21
24.4869014213
  0
LINE
  5
318
100
AcDbEntity
  8
0
100
AcDbLine
 62
7
  6
CONTINUOUS
 10
21.1500042308
 20
24.5
 11
18.7499957692
 21
24.5
  0
LINE
  5
319
100
AcDbEntity
  8
0
100
AcDbLine
 62
7
  6
CONTINUOUS
 10
3.7500042308
 20
24.5
 11
1.3499957692
 21
24.5
  0
LWPOLYLINE
  5
31A
100
AcDbEntity
  8
0
100
AcDbPolyline
 62
7
  6
CONTINUOUS
 90
10
 70
0
 43
0.3500000006
 10
34.3965957413
 20
0.4285709152
 10
33.53945327
 20
1.2857133865
 10
32.6823085327
 20
1.5000001373
 10
31.8251660614
 20
1.5000001373
 10
31.3965948257
 20
1.0714289017
 10
31.3965948257
 20
0.4285709152
 10
31.8251660614
 20
-0.0000003204
 10
32.6823085327
 20
-0.0000003204
 10
33.1108797684
 20
0.4285709152
 10
33.1108797684
 20
1.3571423035
  0
LINE
  5
31B
100
AcDbEntity
  8
0
100
AcDbLine
 62
253
  6
CONTINUOUS
 10
18.5130985787
 20
-24.2369056521
 11
18.5
 21
-24.2500042308
  0
LINE
  5
31C
100
AcDbEntity
  8
0
100
AcDbLine
 62
253
  6
CONTINUOUS
 10
18.7630943479
 20
-24.4869014213
 11
18.7499957692
 21
-24.5
  0
LINE
  5
31D
100
AcDbEntity
  8
0
100
AcDbLine
 62
253
  6
CONTINUOUS
 10
18.5130985787
 20
24.2369056521
 11
18.5
 21
24.2500042308
  0
LINE
  5
31E
100
AcDbEntity
  8
0
100
AcDbLine
 62
253
  6
CONTINUOUS
 10
18.7630943479
 20
24.4869014213
 11
18.7499957692
 21
24.5
  0
LWPOLYLINE
  5
31F
100
AcDbEntity
  8
0
100
AcDbPolyline
 62
7
  6
CONTINUOUS
 90
3
 70
0
 43
0.3500000006
 10
33.7537377548
 20
-0.8571427917
 10
33.7537377548
 20
-2.3571432495
 10
31.3965948257
 20
-1.7142852631
  0
LWPOLYLINE
  5
320
100
AcDbEntity
  8
0
100
AcDbPolyline
 62
7
  6
CONTINUOUS
 90
3
 70
0
 43
0.3500000006
 10
-0.4104961231
 20
36.4873759918
 10
-1.9104960852
 20
36.4873759918
 10
-1.2676389484
 20
38.8445189209
  0
LWPOLYLINE
  5
321
100
AcDbEntity
  8
0
100
AcDbPolyline
 62
7
  6
CONTINUOUS
 90
3
 70
0
 43
0.3500000006
 10
-2.7676388397
 20
36.4873759918
 10
-4.2676390142
 20
36.4873759918
 10
-3.6247818775
 20
38.8445189209
  0
LWPOLYLINE
  5
322
100
AcDbEntity
  8
0
100
AcDbPolyline
 62
7
  6
CONTINUOUS
 90
5
 70
0
 43
0.3500000006
 10
-37.4814036255
 20
47.5588059998
 10
-37.1242613068
 20
47.7730904846
 10
-37.1242613068
 20
48.4159484711
 10
-37.4814036255
 20
48.8445174408
 10
-38.3385460968
 20
48.8445174408
  0
LINE
  5
323
100
AcDbEntity
  8
0
100
AcDbLine
 62
7
  6
CONTINUOUS
 10
-41.3313950104
 20
-24.5
 11
-40.5799405776
 21
-24.495628166
  0
LINE
  5
324
100
AcDbEntity
  8
0
100
AcDbLine
 62
253
  6
CONTINUOUS
 10
-41.3313950104
 20
-24.2500042308
 11
-40.5799405776
 21
-24.2456323968
  0
LINE
  5
325
100
AcDbEntity
  8
0
100
AcDbLine
 62
7
  6
CONTINUOUS
 10
-35.8284861447
 20
-23.9679850128
 11
-40.3313950104
 21
-23.9941821702
  0
LINE
  5
326
100
AcDbEntity
  8
0
100
AcDbLine
 62
253
  6
CONTINUOUS
 10
-40.3313950104
 20
-24.2456323968
 11
-40.5799405776
 21
-24.2456323968
  0
LINE
  5
327
100
AcDbEntity
  8
0
100
AcDbLine
 62
253
  6
CONTINUOUS
 10
-43.8313950104
 20
-24.2369056521
 11
-43.5828494432
 21
-24.2369056521
  0
LINE
  5
328
100
AcDbEntity
  8
0
100
AcDbLine
 62
253
  6
CONTINUOUS
 10
-43.8313950104
 20
-23.8443375673
 11
-43.5828494432
 21
-23.8443375673
  0
LINE
  5
329
100
AcDbEntity
  8
0
100
AcDbLine
 62
253
  6
CONTINUOUS
 10
-40.3313950104
 20
-23.8443375673
 11
-40.5799405776
 21
-23.8443375673
  0
LINE
  5
32A
100
AcDbEntity
  8
0
100
AcDbLine
 62
7
  6
CONTINUOUS
 10
-43.5828494432
 20
-24.4869014213
 11
-41.3313950104
 21
-24.5
  0
LINE
  5
32B
100
AcDbEntity
  8
0
100
AcDbLine
 62
253
  6
CONTINUOUS
 10
-43.5828494432
 20
-24.2369056521
 11
-41.3313950104
 21
-24.2500042308
  0
LWPOLYLINE
  5
32C
100
AcDbEntity
  8
0
100
AcDbPolyline
 62
7
  6
CONTINUOUS
 90
3
 70
0
 43
0.3500000006
 10
-36.5456809616
 20
37.9873764496
 10
-35.6885384903
 20
38.8445189209
 10
-35.6885384903
 20
35.8445180054
  0
LINE
  5
32D
100
AcDbEntity
  8
0
100
AcDbLine
 62
7
  6
CONTINUOUS
 10
-30.325577279
 20
-22.3359700255
 11
-41.3313950104
 21
-22.4
  0
LINE
  5
32E
100
AcDbEntity
  8
0
100
AcDbLine
 62
253
  6
CONTINUOUS
 10
-41.3313950104
 20
-21.900016923
 11
-40.3313950104
 21
-21.8941990932
  0
LINE
  5
32F
100
AcDbEntity
  8
RACCORDO
100
AcDbLine
 62
7
  6
CONTINUOUS
 10
-44.9313950104
 20
-22.1
 11
-49.9215470897
 21
-21.969328269
  0
LINE
  5
330
100
AcDbEntity
  8
0
100
AcDbLine
 62
7
  6
CONTINUOUS
 10
-42.8313950104
 20
-22.3213883311
 11
-41.3313950104
 21
-22.4
  0
LINE
  5
331
100
AcDbEntity
  8
0
100
AcDbLine
 62
253
  6
CONTINUOUS
 10
-42.8313950104
 20
-21.821159479
 11
-41.3313950104
 21
-21.8997711479
  0
LWPOLYLINE
  5
332
100
AcDbEntity
  8
0
100
AcDbPolyline
 62
7
  6
CONTINUOUS
 90
3
 70
0
 43
0.3500000006
 10
-34.831396019
 20
37.9873764496
 10
-33.9742512817
 20
38.8445189209
 10
-33.9742512817
 20
35.8445180054
  0
LINE
  5
333
100
AcDbEntity
  8
0
100
AcDbLine
 62
253
  6
CONTINUOUS
 10
-41.3313950104
 20
23.4104851482
 11
-40.5799405776
 21
23.8443375673
  0
LINE
  5
334
100
AcDbEntity
  8
RACCORDO
100
AcDbLine
 62
253
  6
CONTINUOUS
 10
-50.7167647415
 20
-20.8301238198
 11
-50.2305968416
 21
-20.8090179705
  0
LINE
  5
335
100
AcDbEntity
  8
0
100
AcDbLine
 62
7
  6
CONTINUOUS
 10
-29.3313950104
 20
-20.9
 11
-39.3313950104
 21
-20.9
  0
LINE
  5
336
100
AcDbEntity
  8
0
100
AcDbLine
 62
7
  6
CONTINUOUS
 10
-29.8226688072
 20
-21.5834304982
 11
-39.3313950104
 21
-21.4174550649
  0
LINE
  5
337
100
AcDbEntity
  8
RACCORDO
100
AcDbLine
 62
253
  6
CONTINUOUS
 10
-44.9313950104
 20
-21.6001713375
 11
-49.5485067871
 21
-21.4792680107
  0
LINE
  5
338
100
AcDbEntity
  8
0
100
AcDbLine
 62
253
  6
CONTINUOUS
 10
-40.5799405776
 20
-23.8443375673
 11
-41.3313950104
 21
-23.4104851482
  0
LINE
  5
339
100
AcDbEntity
  8
0
100
AcDbLine
 62
7
  6
CONTINUOUS
 10
-41.3313950104
 20
23.1226497308
 11
-40.4563950104
 21
23.6278312164
  0
LINE
  5
33A
100
AcDbEntity
  8
RACCORDO
100
AcDbLine
 62
253
  6
CONTINUOUS
 10
-29.5279045291
 20
-19.0166572575
 11
-29.3313950104
 21
-19.0166572575
  0
LINE
  5
33B
100
AcDbEntity
  8
RACCORDO
100
AcDbLine
 62
7
  6
CONTINUOUS
 10
-29.5296497033
 20
-19.7942654032
 11
-39.3313950104
 21
-19.7087268678
  0
LINE
  5
33C
100
AcDbEntity
  8
0
100
AcDbLine
 62
7
  6
CONTINUOUS
 10
-40.3313950104
 20
-18.5082905244
 11
-39.3313950104
 21
-18.5170173922
  0
LINE
  5
33D
100
AcDbEntity
  8
0
100
AcDbLine
 62
7
  6
CONTINUOUS
 10
-40.4563950104
 20
-23.6278312164
 11
-41.3313950104
 21
-23.1226497308
  0
LINE
  5
33E
100
AcDbEntity
  8
RACCORDO
100
AcDbLine
 62
7
  6
CONTINUOUS
 10
-42.8313950104
 20
-17.4
 11
-44.9313950104
 21
-17.3633443637
  0
LINE
  5
33F
100
AcDbEntity
  8
RACCORDO
100
AcDbLine
 62
253
  6
CONTINUOUS
 10
-42.8506705518
 20
-16.399815849
 11
-44.9313950104
 21
-16.3634966685
  0
LWPOLYLINE
  5
340
100
AcDbEntity
  8
0
100
AcDbPolyline
 62
7
  6
CONTINUOUS
 90
3
 70
0
 43
0.3500000006
 10
-39.338546402
 20
46.130232193
 10
-39.409973053
 20
45.9159477081
 10
-39.5528308868
 20
45.6302320404
  0
LINE
  5
341
100
AcDbEntity
  8
RACCORDO
100
AcDbLine
 62
7
  6
CONTINUOUS
 10
-39.3313950104
 20
14.9602976573
 11
-29.4629909812
 21
18.5521029837
  0
LINE
  5
342
100
AcDbEntity
  8
RACCORDO
100
AcDbLine
 62
7
  6
CONTINUOUS
 10
-29.4629909812
 20
-18.5521029837
 11
-39.3313950104
 21
-14.9602976573
  0
LWPOLYLINE
  5
343
100
AcDbEntity
  8
0
100
AcDbPolyline
 62
7
  6
CONTINUOUS
 90
13
 70
0
 10
-51.0885491589
 20
20.8322351597
 10
-51.2517391537
 20
17.4235897044
 10
-51.3884288593
 20
13.939793571
 10
-51.4947502687
 20
10.4549385084
 10
-51.5706924081
 20
6.9692891526
 10
-51.6162468296
 20
3.4831101933
 10
-51.6314122664
 20
-0.0033334713
 10
-51.6161887193
 20
-3.4897768564
 10
-51.5705761889
 20
-6.975954977
 10
-51.4945759515
 20
-10.4616029352
 10
-51.3881964692
 20
-13.9464560419
 10
-51.2514487171
 20
-17.4302496611
 10
-51.088549159
 20
-20.8322351591
  0
LINE
  5
344
100
AcDbEntity
  8
DRAFT
100
AcDbLine
 62
7
  6
CONTINUOUS
 10
-42.8313950104
 20
-16.6
 11
-44.4297932105
 21
-0.0
  0
LINE
  5
345
100
AcDbEntity
  8
RACCORDO
100
AcDbLine
 62
7
  6
CONTINUOUS
 10
-44.9313950104
 20
-22.1
 11
-44.9313950104
 21
22.1
  0
LINE
  5
346
100
AcDbEntity
  8
DRAFT
100
AcDbLine
 62
7
  6
CONTINUOUS
 10
-44.4297932105
 20
-0.0
 11
-42.8313950104
 21
16.6
  0
LINE
  5
347
100
AcDbEntity
  8
0
100
AcDbLine
 62
7
  6
CONTINUOUS
 10
-43.8313950104
 20
-24.2369056521
 11
-43.8313950104
 21
-23.8443375673
  0
LINE
  5
348
100
AcDbEntity
  8
0
100
AcDbLine
 62
7
  6
CONTINUOUS
 10
-43.8313950104
 20
23.8443375673
 11
-43.8313950104
 21
24.2369056521
  0
LINE
  5
349
100
AcDbEntity
  8
0
100
AcDbLine
 62
253
  6
CONTINUOUS
 10
-43.5828494432
 20
-24.2369056521
 11
-43.5828494432
 21
-23.8443375673
  0
LINE
  5
34A
100
AcDbEntity
  8
0
100
AcDbLine
 62
253
  6
CONTINUOUS
 10
-43.5828494432
 20
23.8443375673
 11
-43.5828494432
 21
24.2369056521
  0
LINE
  5
34B
100
AcDbEntity
  8
DRAFT
100
AcDbLine
 62
7
  6
CONTINUOUS
 10
-42.8313950104
 20
21.821159479
 11
-42.8313950104
 21
16.6
  0
LINE
  5
34C
100
AcDbEntity
  8
DRAFT
100
AcDbLine
 62
7
  6
CONTINUOUS
 10
-42.8313950104
 20
-16.6
 11
-42.8313950104
 21
-21.821159479
  0
LINE
  5
34D
100
AcDbEntity
  8
0
100
AcDbLine
 62
7
  6
CONTINUOUS
 10
-42.8313950104
 20
-21.821159479
 11
-42.8313950104
 21
-23.1226497308
  0
LINE
  5
34E
100
AcDbEntity
  8
0
100
AcDbLine
 62
7
  6
CONTINUOUS
 10
-42.8313950104
 20
21.821159479
 11
-42.8313950104
 21
23.1226497308
  0
LINE
  5
34F
100
AcDbEntity
  8
0
100
AcDbLine
 62
253
  6
CONTINUOUS
 10
-42.5828494432
 20
-23.2669872981
 11
-42.5828494432
 21
-22.3344140523
  0
LINE
  5
350
100
AcDbEntity
  8
0
100
AcDbLine
 62
253
  6
CONTINUOUS
 10
-42.5828494432
 20
22.3344140523
 11
-42.5828494432
 21
23.2669872981
  0
LINE
  5
351
100
AcDbEntity
  8
0
100
AcDbLine
 62
7
  6
CONTINUOUS
 10
-41.3313950104
 20
-24.2500042308
 11
-41.3313950104
 21
24.2500042308
  0
LINE
  5
352
100
AcDbEntity
  8
0
100
AcDbLine
 62
253
  6
CONTINUOUS
 10
-40.5799405776
 20
24.2456323968
 11
-40.5799405776
 21
23.8443375673
  0
LINE
  5
353
100
AcDbEntity
  8
0
100
AcDbLine
 62
253
  6
CONTINUOUS
 10
-40.5799405776
 20
-23.8443375673
 11
-40.5799405776
 21
-24.2456323968
  0
LINE
  5
354
100
AcDbEntity
  8
0
100
AcDbLine
 62
7
  6
CONTINUOUS
 10
-40.3313950104
 20
24.2456323968
 11
-40.3313950104
 21
23.8443375673
  0
LINE
  5
355
100
AcDbEntity
  8
0
100
AcDbLine
 62
7
  6
CONTINUOUS
 10
-40.3313950104
 20
22.3941821702
 11
-40.3313950104
 21
18.5082905244
  0
LINE
  5
356
100
AcDbEntity
  8
0
100
AcDbLine
 62
7
  6
CONTINUOUS
 10
-40.3313950104
 20
-18.5082905244
 11
-40.3313950104
 21
-22.3941821702
  0
LINE
  5
357
100
AcDbEntity
  8
0
100
AcDbLine
 62
7
  6
CONTINUOUS
 10
-40.3313950104
 20
-23.8443375673
 11
-40.3313950104
 21
-24.2456323968
  0
LINE
  5
358
100
AcDbEntity
  8
0
100
AcDbLine
 62
7
  6
CONTINUOUS
 10
-39.3313950104
 20
21.4174550649
 11
-39.3313950104
 21
-21.4174550649
  0
LINE
  5
359
100
AcDbEntity
  8
0
100
AcDbLine
 62
7
  6
CONTINUOUS
 10
-35.8313950104
 20
-23.4243617711
 11
-35.8313950104
 21
-22.8756382289
  0
LINE
  5
35A
100
AcDbEntity
  8
0
100
AcDbLine
 62
7
  6
CONTINUOUS
 10
-35.8313950104
 20
22.8756382289
 11
-35.8313950104
 21
23.4243617711
  0
LINE
  5
35B
100
AcDbEntity
  8
0
100
AcDbLine
 62
253
  6
CONTINUOUS
 10
-35.7876028478
 20
23.9660720289
 11
-35.7876028478
 21
22.3677471607
  0
LINE
  5
35C
100
AcDbEntity
  8
0
100
AcDbLine
 62
253
  6
CONTINUOUS
 10
-35.7876028478
 20
-22.3677471607
 11
-35.7876028478
 21
-23.9660720289
  0
LINE
  5
35D
100
AcDbEntity
  8
0
100
AcDbLine
 62
7
  6
CONTINUOUS
 10
-35.3313950104
 20
23.4679934743
 11
-35.3313950104
 21
22.3650935624
  0
LINE
  5
35E
100
AcDbEntity
  8
0
100
AcDbLine
 62
7
  6
CONTINUOUS
 10
-35.3313950104
 20
-22.3650935624
 11
-35.3313950104
 21
-23.4679934743
  0
LINE
  5
35F
100
AcDbEntity
  8
0
100
AcDbLine
 62
253
  6
CONTINUOUS
 10
-29.8226688072
 20
21.5834304982
 11
-29.8226688072
 21
20.9
  0
LINE
  5
360
100
AcDbEntity
  8
0
100
AcDbLine
 62
253
  6
CONTINUOUS
 10
-29.8226688072
 20
-20.9
 11
-29.8226688072
 21
-21.5834304982
  0
LINE
  5
361
100
AcDbEntity
  8
RACCORDO
100
AcDbLine
 62
253
  6
CONTINUOUS
 10
-29.5296497033
 20
20.9
 11
-29.5296497033
 21
19.7942654032
  0
LINE
  5
362
100
AcDbEntity
  8
RACCORDO
100
AcDbLine
 62
253
  6
CONTINUOUS
 10
-29.5296497033
 20
-19.7942654032
 11
-29.5296497033
 21
-20.9
  0
LINE
  5
363
100
AcDbEntity
  8
RACCORDO
100
AcDbLine
 62
253
  6
CONTINUOUS
 10
-29.5279045291
 20
-19.7942654032
 11
-29.5279045291
 21
-19.0166572575
  0
LINE
  5
364
100
AcDbEntity
  8
RACCORDO
100
AcDbLine
 62
253
  6
CONTINUOUS
 10
-29.5279045291
 20
19.0166572575
 11
-29.5279045291
 21
19.7942654032
  0
LINE
  5
365
100
AcDbEntity
  8
0
100
AcDbLine
 62
7
  6
CONTINUOUS
 10
-29.3313950104
 20
21.3359869487
 11
-29.3313950104
 21
20.9
  0
LINE
  5
366
100
AcDbEntity
  8
0
100
AcDbLine
 62
7
  6
CONTINUOUS
 10
-29.3313950104
 20
-20.9
 11
-29.3313950104
 21
-21.3359869487
  0
LINE
  5
367
100
AcDbEntity
  8
RACCORDO
100
AcDbLine
 62
7
  6
CONTINUOUS
 10
-29.3313950104
 20
-20.9
 11
-29.3313950104
 21
-18.7400415081
  0
LINE
  5
368
100
AcDbEntity
  8
RACCORDO
100
AcDbLine
 62
7
  6
CONTINUOUS
 10
-29.3313950104
 20
18.7400415081
 11
-29.3313950104
 21
20.9
  0
LINE
  5
369
100
AcDbEntity
  8
RACCORDO
100
AcDbLine
 62
253
  6
CONTINUOUS
 10
-42.8506705518
 20
16.399815849
 11
-44.9313950104
 21
16.3634966685
  0
LINE
  5
36A
100
AcDbEntity
  8
RACCORDO
100
AcDbLine
 62
7
  6
CONTINUOUS
 10
-42.8313950104
 20
17.4
 11
-44.9313950104
 21
17.3633443637
  0
LINE
  5
36B
100
AcDbEntity
  8
0
100
AcDbLine
 62
7
  6
CONTINUOUS
 10
-42.8313950104
 20
-23.1226497308
 11
-43.7063950104
 21
-23.6278312164
  0
LINE
  5
36C
100
AcDbEntity
  8
0
100
AcDbLine
 62
253
  6
CONTINUOUS
 10
-42.5828494432
 20
-23.2669872981
 11
-43.5828494432
 21
-23.8443375673
  0
LINE
  5
36D
100
AcDbEntity
  8
0
100
AcDbLine
 62
7
  6
CONTINUOUS
 10
-40.3313950104
 20
18.5082905244
 11
-39.3313950104
 21
18.5170173922
  0
LINE
  5
36E
100
AcDbEntity
  8
RACCORDO
100
AcDbLine
 62
7
  6
CONTINUOUS
 10
-29.5296497033
 20
19.7942654032
 11
-39.3313950104
 21
19.7087268678
  0
LINE
  5
36F
100
AcDbEntity
  8
RACCORDO
100
AcDbLine
 62
253
  6
CONTINUOUS
 10
-29.5279045291
 20
19.0166572575
 11
-29.3313950104
 21
19.0166572575
  0
LINE
  5
370
100
AcDbEntity
  8
0
100
AcDbLine
 62
7
  6
CONTINUOUS
 10
-43.7063950104
 20
23.6278312164
 11
-42.8313950104
 21
23.1226497308
  0
LINE
  5
371
100
AcDbEntity
  8
0
100
AcDbLine
 62
253
  6
CONTINUOUS
 10
-43.5828494432
 20
23.8443375673
 11
-42.5828494432
 21
23.2669872981
  0
LINE
  5
372
100
AcDbEntity
  8
0
100
AcDbLine
 62
253
  6
CONTINUOUS
 10
-41.3313950104
 20
21.8997711479
 11
-42.8313950104
 21
21.821159479
  0
LINE
  5
373
100
AcDbEntity
  8
RACCORDO
100
AcDbLine
 62
253
  6
CONTINUOUS
 10
-49.5485069627
 20
21.4792680061
 11
-44.9313950104
 21
21.6001713375
  0
LINE
  5
374
100
AcDbEntity
  8
RACCORDO
100
AcDbLine
 62
7
  6
CONTINUOUS
 10
-49.9215470744
 20
21.9693282694
 11
-44.9313950104
 21
22.1
  0
LINE
  5
375
100
AcDbEntity
  8
0
100
AcDbLine
 62
7
  6
CONTINUOUS
 10
-29.8226688072
 20
21.5834304982
 11
-39.3313950104
 21
21.4174550649
  0
LINE
  5
376
100
AcDbEntity
  8
0
100
AcDbLine
 62
7
  6
CONTINUOUS
 10
-29.3313950104
 20
20.9
 11
-39.3313950104
 21
20.9
  0
LINE
  5
377
100
AcDbEntity
  8
0
100
AcDbLine
 62
253
  6
CONTINUOUS
 10
-40.3313950104
 20
21.8941990932
 11
-41.3313950104
 21
21.900016923
  0
LINE
  5
378
100
AcDbEntity
  8
RACCORDO
100
AcDbLine
 62
253
  6
CONTINUOUS
 10
-50.7167516894
 20
20.8301232531
 11
-50.2305969318
 21
20.8090179618
  0
LINE
  5
379
100
AcDbEntity
  8
0
100
AcDbLine
 62
7
  6
CONTINUOUS
 10
-41.3313950104
 20
22.4
 11
-42.8313950104
 21
22.3213883311
  0
LINE
  5
37A
100
AcDbEntity
  8
0
100
AcDbLine
 62
253
  6
CONTINUOUS
 10
-43.8313950104
 20
23.8443375673
 11
-43.5828494432
 21
23.8443375673
  0
LINE
  5
37B
100
AcDbEntity
  8
0
100
AcDbLine
 62
253
  6
CONTINUOUS
 10
-40.3313950104
 20
23.8443375673
 11
-40.5799405776
 21
23.8443375673
  0
LINE
  5
37C
100
AcDbEntity
  8
0
100
AcDbLine
 62
253
  6
CONTINUOUS
 10
-43.8313950104
 20
24.2369056521
 11
-43.5828494432
 21
24.2369056521
  0
LINE
  5
37D
100
AcDbEntity
  8
0
100
AcDbLine
 62
7
  6
CONTINUOUS
 10
-30.325577279
 20
22.3359700255
 11
-41.3313950104
 21
22.4
  0
LINE
  5
37E
100
AcDbEntity
  8
0
100
AcDbLine
 62
7
  6
CONTINUOUS
 10
-35.8284861447
 20
23.9679850128
 11
-40.3313950104
 21
23.9941821702
  0
LWPOLYLINE
  5
37F
100
AcDbEntity
  8
0
100
AcDbPolyline
 62
7
  6
CONTINUOUS
 90
10
 70
0
 43
0.3500000006
 10
-39.409973053
 20
46.3445166779
 10
-39.338546402
 20
46.201658844
 10
-39.338546402
 20
46.130232193
 10
-39.4814042358
 20
45.9873743591
 10
-39.5528308868
 20
45.9873743591
 10
-39.6242620697
 20
46.058805542
 10
-39.6242620697
 20
46.130232193
 10
-39.5528308868
 20
46.2730900269
 10
-39.4814042358
 20
46.3445166779
 10
-39.409973053
 20
46.3445166779
  0
LINE
  5
380
100
AcDbEntity
  8
0
100
AcDbLine
 62
253
  6
CONTINUOUS
 10
-43.5828494432
 20
24.2369056521
 11
-41.3313950104
 21
24.2500042308
  0
LINE
  5
381
100
AcDbEntity
  8
0
100
AcDbLine
 62
7
  6
CONTINUOUS
 10
-43.5828494432
 20
24.4869014213
 11
-41.3313950104
 21
24.5
  0
LINE
  5
382
100
AcDbEntity
  8
0
100
AcDbLine
 62
253
  6
CONTINUOUS
 10
-40.3313950104
 20
24.2456323968
 11
-40.5799405776
 21
24.2456323968
  0
LINE
  5
383
100
AcDbEntity
  8
0
100
AcDbLine
 62
253
  6
CONTINUOUS
 10
-41.3313950104
 20
24.2500042308
 11
-40.5799405776
 21
24.2456323968
  0
LINE
  5
384
100
AcDbEntity
  8
0
100
AcDbLine
 62
7
  6
CONTINUOUS
 10
-41.3313950104
 20
24.5
 11
-40.5799405776
 21
24.495628166
  0
LWPOLYLINE
  5
385
100
AcDbEntity
  8
0
100
AcDbPolyline
 62
7
  6
CONTINUOUS
 90
6
 70
0
 43
0.3500000006
 10
-38.3385460968
 20
45.8445165253
 10
-37.2671168747
 20
45.8445165253
 10
-37.0528323898
 20
46.058805542
 10
-37.0528323898
 20
47.1302324982
 10
-37.4814036255
 20
47.5588059998
 10
-37.9099748611
 20
47.5588059998
  0
LWPOLYLINE
  5
386
100
AcDbEntity
  8
0
100
AcDbPolyline
 62
7
  6
CONTINUOUS
 90
7
 70
0
 43
0.3500000006
 10
-40.9099735107
 20
45.8445165253
 10
-42.4099739685
 20
45.8445165253
 10
-40.9099735107
 20
47.9873749695
 10
-40.9099735107
 20
48.4159484711
 10
-41.3385470123
 20
48.8445174408
 10
-41.9814049988
 20
48.8445174408
 10
-42.4099739685
 20
48.2016594543
  0
LWPOLYLINE
  5
387
100
AcDbEntity
  8
0
100
AcDbPolyline
 62
7
  6
CONTINUOUS
 90
7
 70
0
 43
0.3500000006
 10
-43.2671164398
 20
45.8445165253
 10
-44.7671168976
 20
45.8445165253
 10
-43.2671164398
 20
47.9873749695
 10
-43.2671164398
 20
48.4159484711
 10
-43.6956899414
 20
48.8445174408
 10
-44.3385479279
 20
48.8445174408
 10
-44.7671168976
 20
48.2016594543
  0
ARC
  5
388
100
AcDbEntity
  8
RACCORDO
100
AcDbCircle
 62
253
  6
CONTINUOUS
 10
-18805.9886624712
 20
-0.0000010723
 40
18783.9889531382
100
AcDbArc
 50
359.936527375
 51
0.0634726316
  0
ARC
  5
389
100
AcDbEntity
  8
RACCORDO
100
AcDbCircle
 62
253
  6
CONTINUOUS
 10
-21.5288343653
 20
-21.4788343653
 40
0.5002656608
100
AcDbArc
 50
180.0496655041
 51
269.9503344959
  0
ARC
  5
38A
100
AcDbEntity
  8
0
100
AcDbCircle
 62
7
  6
CONTINUOUS
 10
-11.1250145319
 20
-13.9164503696
 40
0.2500101042
100
AcDbArc
 50
269.9993709983
 51
359.9982513316
  0
ARC
  5
38B
100
AcDbEntity
  8
0
100
AcDbCircle
 62
7
  6
CONTINUOUS
 10
-11.125007588
 20
-9.0835564745
 40
0.250010059
100
AcDbArc
 50
0.0033172058
 51
89.9947292603
  0
ARC
  5
38C
100
AcDbEntity
  8
0
100
AcDbCircle
 62
7
  6
CONTINUOUS
 10
-11.3749855511
 20
-9.0835495811
 40
0.2500100432
100
AcDbArc
 50
89.9997159067
 51
179.998262638
  0
ARC
  5
38D
100
AcDbEntity
  8
0
100
AcDbCircle
 62
7
  6
CONTINUOUS
 10
-11.3749924337
 20
-13.9164435668
 40
0.2500100294
100
AcDbArc
 50
180.0033077411
 51
269.9942050228
  0
ARC
  5
38E
100
AcDbEntity
  8
0
100
AcDbCircle
 62
7
  6
CONTINUOUS
 10
-11.3749799641
 20
-9.0832004717
 40
0.2496584712
100
AcDbArc
 50
90.000996434
 51
95.2465625187
  0
ARC
  5
38F
100
AcDbEntity
  8
0
100
AcDbCircle
 62
7
  6
CONTINUOUS
 10
-11.125020041
 20
-13.9168003503
 40
0.2496576491
100
AcDbArc
 50
270.0006379606
 51
275.2449922818
  0
ARC
  5
390
100
AcDbEntity
  8
0
100
AcDbCircle
 62
7
  6
CONTINUOUS
 10
-11.3753430018
 20
-13.9164380309
 40
0.249656999
100
AcDbArc
 50
180.0045828686
 51
185.2359739863
  0
ARC
  5
391
100
AcDbEntity
  8
0
100
AcDbCircle
 62
7
  6
CONTINUOUS
 10
-11.1246538054
 20
-9.0835620472
 40
0.2496538062
100
AcDbArc
 50
0.0046008564
 51
5.2348773285
  0
ARC
  5
392
100
AcDbEntity
  8
0
100
AcDbCircle
 62
7
  6
CONTINUOUS
 10
-21.1850877061
 20
11.4997824143
 40
11.8967716862
100
AcDbArc
 50
1.8225512047
 51
5.4672596322
  0
ARC
  5
393
100
AcDbEntity
  8
0
100
AcDbCircle
 62
7
  6
CONTINUOUS
 10
-21.1838707851
 20
11.5000000219
 40
11.8955484613
100
AcDbArc
 50
358.177248125
 51
1.8216900285
  0
ARC
  5
394
100
AcDbEntity
  8
0
100
AcDbCircle
 62
7
  6
CONTINUOUS
 10
-21.1835033018
 20
11.5001199501
 40
11.8951851873
100
AcDbArc
 50
354.5324814172
 51
356.9621751022
  0
ARC
  5
395
100
AcDbEntity
  8
0
100
AcDbCircle
 62
7
  6
CONTINUOUS
 10
-21.18220192
 20
11.5000548871
 40
11.8938821863
100
AcDbArc
 50
356.9621558549
 51
358.176728247
  0
ARC
  5
396
100
AcDbEntity
  8
0
100
AcDbCircle
 62
7
  6
CONTINUOUS
 10
-21.1818373013
 20
11.4999999999
 40
11.8935153376
100
AcDbArc
 50
354.5323578835
 51
5.4677123064
  0
ARC
  5
397
100
AcDbEntity
  8
0
100
AcDbCircle
 62
7
  6
CONTINUOUS
 10
-21.1855357654
 20
11.4998331237
 40
11.2972121607
100
AcDbArc
 50
2.564216073
 51
5.4668654841
  0
ARC
  5
398
100
AcDbEntity
  8
0
100
AcDbCircle
 62
7
  6
CONTINUOUS
 10
-21.1850387568
 20
11.5000000095
 40
11.2967096358
100
AcDbArc
 50
358.1776174522
 51
1.8217471935
  0
ARC
  5
399
100
AcDbEntity
  8
0
100
AcDbCircle
 62
7
  6
CONTINUOUS
 10
-21.1847931313
 20
11.5001145025
 40
11.2964679148
100
AcDbArc
 50
354.5330005989
 51
356.9628344501
  0
ARC
  5
39A
100
AcDbEntity
  8
0
100
AcDbCircle
 62
7
  6
CONTINUOUS
 10
-21.1837375788
 20
11.5000637208
 40
11.2954111544
100
AcDbArc
 50
356.9628079885
 51
358.1220780496
  0
ARC
  5
39B
100
AcDbEntity
  8
0
100
AcDbCircle
 62
7
  6
CONTINUOUS
 10
-21.1831942044
 20
11.5000000001
 40
11.2948653523
100
AcDbArc
 50
354.5327875645
 51
5.4671569127
  0
ARC
  5
39C
100
AcDbEntity
  8
0
100
AcDbCircle
 62
7
  6
CONTINUOUS
 10
-21.182489373
 20
11.4999854515
 40
11.2941620037
100
AcDbArc
 50
1.8222321552
 51
2.5641355001
  0
ARC
  5
39D
100
AcDbEntity
  8
0
100
AcDbCircle
 62
7
  6
CONTINUOUS
 10
-11.5024094813
 20
10.525165425
 40
1.6627194714
100
AcDbArc
 50
185.4678791422
 51
221.9742229867
  0
ARC
  5
39E
100
AcDbEntity
  8
0
100
AcDbCircle
 62
7
  6
CONTINUOUS
 10
-11.5024098958
 20
12.4748347572
 40
1.6627182901
100
AcDbArc
 50
138.0253627435
 51
174.5326277309
  0
ARC
  5
39F
100
AcDbEntity
  8
0
100
AcDbCircle
 62
7
  6
CONTINUOUS
 10
-11.5009236154
 20
10.5256706381
 40
1.0642887894
100
AcDbArc
 50
194.5933347138
 51
203.7192002511
  0
ARC
  5
3A0
100
AcDbEntity
  8
0
100
AcDbCircle
 62
7
  6
CONTINUOUS
 10
-11.5012022062
 20
12.4738848478
 40
1.0642531556
100
AcDbArc
 50
138.3316660395
 51
156.2802369917
  0
ARC
  5
3A1
100
AcDbEntity
  8
0
100
AcDbCircle
 62
7
  6
CONTINUOUS
 10
-11.5010114693
 20
12.4743689491
 40
1.0641939488
100
AcDbArc
 50
157.1451979438
 51
174.5256201653
  0
ARC
  5
3A2
100
AcDbEntity
  8
0
100
AcDbCircle
 62
7
  6
CONTINUOUS
 10
-11.5011706917
 20
10.525855223
 40
1.064138505
100
AcDbArc
 50
204.6021113548
 51
221.9610136755
  0
ARC
  5
3A3
100
AcDbEntity
  8
0
100
AcDbCircle
 62
7
  6
CONTINUOUS
 10
-11.5015511904
 20
10.5252997008
 40
1.0635880198
100
AcDbArc
 50
188.510859874
 51
194.5825149448
  0
ARC
  5
3A4
100
AcDbEntity
  8
0
100
AcDbCircle
 62
7
  6
CONTINUOUS
 10
-11.502506
 20
12.474877
 40
1.0626196486
100
AcDbArc
 50
138.0307942474
 51
174.5319962774
  0
ARC
  5
3A5
100
AcDbEntity
  8
0
100
AcDbCircle
 62
7
  6
CONTINUOUS
 10
-11.5028347592
 20
10.5251026727
 40
1.0622894264
100
AcDbArc
 50
185.4682518247
 51
221.9683464559
  0
ARC
  5
3A6
100
AcDbEntity
  8
0
100
AcDbCircle
 62
7
  6
CONTINUOUS
 10
-11.5040114941
 20
10.5244624218
 40
1.0609757487
100
AcDbArc
 50
203.7265423622
 51
204.5975914659
  0
ARC
  5
3A7
100
AcDbEntity
  8
0
100
AcDbCircle
 62
7
  6
CONTINUOUS
 10
-11.504038347
 20
12.4755524238
 40
1.0609450501
100
AcDbArc
 50
156.2876143492
 51
157.1406038834
  0
ARC
  5
3A8
100
AcDbEntity
  8
0
100
AcDbCircle
 62
7
  6
CONTINUOUS
 10
-11.5039937855
 20
12.4762154097
 40
1.0606184374
100
AcDbArc
 50
138.0306539607
 51
138.325456422
  0
ARC
  5
3A9
100
AcDbEntity
  8
0
100
AcDbCircle
 62
7
  6
CONTINUOUS
 10
-11.8005165988
 20
13.700198717
 40
0.1510298477
100
AcDbArc
 50
290.8137576796
 51
307.8157894967
  0
ARC
  5
3AA
100
AcDbEntity
  8
0
100
AcDbCircle
 62
7
  6
CONTINUOUS
 10
-11.8009354247
 20
13.6994688964
 40
0.1509437349
100
AcDbArc
 50
343.8589781542
 51
354.2336185023
  0
ARC
  5
3AB
100
AcDbEntity
  8
0
100
AcDbCircle
 62
7
  6
CONTINUOUS
 10
-11.8000921082
 20
13.6993565968
 40
0.1500918808
100
AcDbArc
 50
290.7765450657
 51
359.9765867757
  0
ARC
  5
3AC
100
AcDbEntity
  8
0
100
AcDbCircle
 62
7
  6
CONTINUOUS
 10
-11.7999992214
 20
14.0164575722
 40
0.1499992214
100
AcDbArc
 50
0.0001634239
 51
107.2728986308
  0
ARC
  5
3AD
100
AcDbEntity
  8
0
100
AcDbCircle
 62
7
  6
CONTINUOUS
 10
-11.7995446975
 20
13.6993137623
 40
0.149544459
100
AcDbArc
 50
354.2392196163
 51
359.9920476267
  0
ARC
  5
3AE
100
AcDbEntity
  8
RACCORDO
100
AcDbCircle
 62
253
  6
CONTINUOUS
 10
-21.5288343684
 20
21.4788343684
 40
0.5002656624
100
AcDbArc
 50
90.0496656811
 51
179.9503343189
  0
ARC
  5
3AF
100
AcDbEntity
  8
0
100
AcDbCircle
 62
7
  6
CONTINUOUS
 10
-11.2486839217
 20
12.2446923978
 40
2.0055678283
100
AcDbArc
 50
111.49069715
 51
117.5094711706
  0
ARC
  5
3B0
100
AcDbEntity
  8
0
100
AcDbCircle
 62
7
  6
CONTINUOUS
 10
-11.2522143394
 20
12.2453158241
 40
2.0055269552
100
AcDbArc
 50
46.313360894
 51
52.2113447655
  0
ARC
  5
3B1
100
AcDbEntity
  8
0
100
AcDbCircle
 62
7
  6
CONTINUOUS
 10
-11.2485474387
 20
12.2454962638
 40
2.0049179532
100
AcDbArc
 50
117.5235414562
 51
127.7644847009
  0
ARC
  5
3B2
100
AcDbEntity
  8
0
100
AcDbCircle
 62
7
  6
CONTINUOUS
 10
-11.2514341287
 20
12.2455264656
 40
2.0048824749
100
AcDbArc
 50
52.2252769251
 51
62.4661362651
  0
ARC
  5
3B3
100
AcDbEntity
  8
0
100
AcDbCircle
 62
7
  6
CONTINUOUS
 10
-11.2509458628
 20
12.2454549784
 40
2.0047211758
100
AcDbArc
 50
65.8824669731
 51
72.71997371
  0
ARC
  5
3B4
100
AcDbEntity
  8
0
100
AcDbCircle
 62
7
  6
CONTINUOUS
 10
-11.2482981694
 20
12.2459416239
 40
2.0047197001
100
AcDbArc
 50
131.1809568996
 51
138.0192022047
  0
ARC
  5
3B5
100
AcDbEntity
  8
0
100
AcDbCircle
 62
7
  6
CONTINUOUS
 10
-11.2504453679
 20
12.2465179798
 40
2.0035464577
100
AcDbArc
 50
62.7462918596
 51
65.8831090803
  0
ARC
  5
3B6
100
AcDbEntity
  8
0
100
AcDbCircle
 62
7
  6
CONTINUOUS
 10
-11.2490891576
 20
12.2468785347
 40
2.0034937317
100
AcDbArc
 50
128.0403878963
 51
131.1815738844
  0
ARC
  5
3B7
100
AcDbEntity
  8
0
100
AcDbCircle
 62
7
  6
CONTINUOUS
 10
-11.2499999999
 20
10.752245276
 40
2.0022419767
100
AcDbArc
 50
221.974539365
 51
318.0251964766
  0
ARC
  5
3B8
100
AcDbEntity
  8
0
100
AcDbCircle
 62
7
  6
CONTINUOUS
 10
-11.2500433822
 20
12.2478317059
 40
2.0021581361
100
AcDbArc
 50
107.2731299922
 51
138.0259281555
  0
ARC
  5
3B9
100
AcDbEntity
  8
0
100
AcDbCircle
 62
7
  6
CONTINUOUS
 10
-11.2496732491
 20
12.2479285199
 40
2.0018824752
100
AcDbArc
 50
41.9773612748
 51
72.7268999738
  0
ARC
  5
3BA
100
AcDbEntity
  8
0
100
AcDbCircle
 62
7
  6
CONTINUOUS
 10
-11.2500622411
 20
12.2482703388
 40
2.001733689
100
AcDbArc
 50
107.2764104911
 51
111.4915067422
  0
ARC
  5
3BB
100
AcDbEntity
  8
0
100
AcDbCircle
 62
7
  6
CONTINUOUS
 10
-11.2484137196
 20
12.2505457963
 40
1.9990354239
100
AcDbArc
 50
62.4763974698
 51
62.7451925718
  0
ARC
  5
3BC
100
AcDbEntity
  8
0
100
AcDbCircle
 62
7
  6
CONTINUOUS
 10
-11.2519030604
 20
12.250412373
 40
1.9989765897
100
AcDbArc
 50
127.7747451487
 51
128.0392828566
  0
ARC
  5
3BD
100
AcDbEntity
  8
0
100
AcDbCircle
 62
7
  6
CONTINUOUS
 10
-10.9975901665
 20
10.5251652702
 40
1.6627183548
100
AcDbArc
 50
318.0254547731
 51
354.5326270601
  0
ARC
  5
3BE
100
AcDbEntity
  8
0
100
AcDbCircle
 62
7
  6
CONTINUOUS
 10
-11.2511184221
 20
12.2453974449
 40
1.4048458014
100
AcDbArc
 50
60.1743699884
 51
69.2393065408
  0
ARC
  5
3BF
100
AcDbEntity
  8
0
100
AcDbCircle
 62
7
  6
CONTINUOUS
 10
-11.2482008532
 20
12.2458672537
 40
1.4048422903
100
AcDbArc
 50
128.9563230597
 51
138.0221983305
  0
ARC
  5
3C0
100
AcDbEntity
  8
0
100
AcDbCircle
 62
7
  6
CONTINUOUS
 10
-11.2508117735
 20
12.2465809162
 40
1.4036666107
100
AcDbArc
 50
50.9747880836
 51
60.1612025905
  0
ARC
  5
3C1
100
AcDbEntity
  8
0
100
AcDbCircle
 62
7
  6
CONTINUOUS
 10
-11.2492024519
 20
12.2465980121
 40
1.4036443373
100
AcDbArc
 50
119.8162755801
 51
128.943284534
  0
ARC
  5
3C2
100
AcDbEntity
  8
0
100
AcDbCircle
 62
7
  6
CONTINUOUS
 10
-11.2494128592
 20
12.2465191722
 40
1.4036082972
100
AcDbArc
 50
110.7566460868
 51
116.8155365128
  0
ARC
  5
3C3
100
AcDbEntity
  8
0
100
AcDbCircle
 62
7
  6
CONTINUOUS
 10
-11.2509445183
 20
12.2467701375
 40
1.4036033666
100
AcDbArc
 50
41.9737356656
 51
48.0341866024
  0
ARC
  5
3C4
100
AcDbEntity
  8
0
100
AcDbCircle
 62
7
  6
CONTINUOUS
 10
-11.2505322214
 20
12.2472482393
 40
1.4029721794
100
AcDbArc
 50
48.0336499958
 51
50.9664972703
  0
ARC
  5
3C5
100
AcDbEntity
  8
0
100
AcDbCircle
 62
7
  6
CONTINUOUS
 10
-11.2497306662
 20
12.2471154892
 40
1.4029327371
100
AcDbArc
 50
116.8149393993
 51
119.8080670962
  0
ARC
  5
3C6
100
AcDbEntity
  8
0
100
AcDbCircle
 62
7
  6
CONTINUOUS
 10
-11.2499999794
 20
10.752236822
 40
1.4022356001
100
AcDbArc
 50
221.9684612457
 51
318.0317462137
  0
ARC
  5
3C7
100
AcDbEntity
  8
0
100
AcDbCircle
 62
7
  6
CONTINUOUS
 10
-11.2500334251
 20
12.2478128316
 40
1.4021786809
100
AcDbArc
 50
110.7516654248
 51
138.0313281257
  0
ARC
  5
3C8
100
AcDbEntity
  8
0
100
AcDbCircle
 62
7
  6
CONTINUOUS
 10
-11.2499660986
 20
12.2478135283
 40
1.402178155
100
AcDbArc
 50
41.9691696821
 51
69.248723839
  0
ARC
  5
3C9
100
AcDbEntity
  8
0
100
AcDbCircle
 62
7
  6
CONTINUOUS
 10
-10.9988081381
 20
10.5261343814
 40
1.0642724009
100
AcDbArc
 50
318.0389584307
 51
336.2818857261
  0
ARC
  5
3CA
100
AcDbEntity
  8
0
100
AcDbCircle
 62
7
  6
CONTINUOUS
 10
-10.9989494257
 20
10.5256153282
 40
1.0641522073
100
AcDbArc
 50
337.1572127678
 51
354.5255383517
  0
ARC
  5
3CB
100
AcDbEntity
  8
0
100
AcDbCircle
 62
7
  6
CONTINUOUS
 10
-10.997474
 20
10.525114
 40
1.062598092
100
AcDbArc
 50
318.0317732132
 51
354.5325300959
  0
ARC
  5
3CC
100
AcDbEntity
  8
0
100
AcDbCircle
 62
7
  6
CONTINUOUS
 10
-10.995963582
 20
10.5244489929
 40
1.0609477603
100
AcDbArc
 50
336.2892419939
 51
337.1526627749
  0
ARC
  5
3CD
100
AcDbEntity
  8
0
100
AcDbCircle
 62
7
  6
CONTINUOUS
 10
-10.9975905057
 20
12.4748345808
 40
1.6627194579
100
AcDbArc
 50
5.467878993
 51
41.9742536128
  0
ARC
  5
3CE
100
AcDbEntity
  8
0
100
AcDbCircle
 62
7
  6
CONTINUOUS
 10
-10.999101601
 20
12.4743184994
 40
1.0643150746
100
AcDbArc
 50
14.5946930936
 51
23.721088781
  0
ARC
  5
3CF
100
AcDbEntity
  8
0
100
AcDbCircle
 62
7
  6
CONTINUOUS
 10
-10.9988346902
 20
12.4741435056
 40
1.064142793
100
AcDbArc
 50
24.6152537794
 51
41.9621086563
  0
ARC
  5
3D0
100
AcDbEntity
  8
0
100
AcDbCircle
 62
7
  6
CONTINUOUS
 10
-10.9984662046
 20
12.474691778
 40
1.0636061412
100
AcDbArc
 50
8.511859873
 51
14.5838585206
  0
ARC
  5
3D1
100
AcDbEntity
  8
0
100
AcDbCircle
 62
7
  6
CONTINUOUS
 10
-10.9971873869
 20
12.4748881393
 40
1.0623123451
100
AcDbArc
 50
5.4682113616
 51
41.9698734093
  0
ARC
  5
3D2
100
AcDbEntity
  8
0
100
AcDbCircle
 62
7
  6
CONTINUOUS
 10
-10.9960266805
 20
12.4755213337
 40
1.0610160668
100
AcDbArc
 50
23.7284210914
 51
24.6107707275
  0
ARC
  5
3D3
100
AcDbEntity
  8
0
100
AcDbCircle
 62
7
  6
CONTINUOUS
 10
-10.6995122926
 20
13.7000933173
 40
0.1509296003
100
AcDbArc
 50
233.0568020185
 51
243.4821562932
  0
ARC
  5
3D4
100
AcDbEntity
  8
0
100
AcDbCircle
 62
7
  6
CONTINUOUS
 10
-10.699080811
 20
13.6994674009
 40
0.150927822
100
AcDbArc
 50
185.7347662556
 51
197.2118767952
  0
ARC
  5
3D5
100
AcDbEntity
  8
0
100
AcDbCircle
 62
7
  6
CONTINUOUS
 10
-10.7000955523
 20
14.0159233069
 40
0.150538563
100
AcDbArc
 50
72.7518943593
 51
86.9215575447
  0
ARC
  5
3D6
100
AcDbEntity
  8
0
100
AcDbCircle
 62
7
  6
CONTINUOUS
 10
-10.6999062468
 20
13.6993577294
 40
0.1500937672
100
AcDbArc
 50
180.0247579507
 51
249.2194603556
  0
ARC
  5
3D7
100
AcDbEntity
  8
0
100
AcDbCircle
 62
7
  6
CONTINUOUS
 10
-10.7
 20
14.016458
 40
0.1499995981
100
AcDbArc
 50
72.7268493826
 51
180.0014740786
  0
ARC
  5
3D8
100
AcDbEntity
  8
0
100
AcDbCircle
 62
7
  6
CONTINUOUS
 10
-10.7004305498
 20
13.6993134024
 40
0.1495694516
100
AcDbArc
 50
180.0078155918
 51
185.7277341982
  0
ARC
  5
3D9
100
AcDbEntity
  8
0
100
AcDbCircle
 62
7
  6
CONTINUOUS
 10
-10.7001360317
 20
13.6988762546
 40
0.149562094
100
AcDbArc
 50
243.4877988231
 51
249.2399159345
  0
ARC
  5
3DA
100
AcDbEntity
  8
0
100
AcDbCircle
 62
7
  6
CONTINUOUS
 10
-1.3159367857
 20
11.4998403594
 40
11.8957463343
100
AcDbArc
 50
174.5325480638
 51
177.2898499693
  0
ARC
  5
3DB
100
AcDbEntity
  8
0
100
AcDbCircle
 62
7
  6
CONTINUOUS
 10
-1.3161581959
 20
11.5000000018
 40
11.895519495
100
AcDbArc
 50
178.1778683985
 51
181.8223101267
  0
ARC
  5
3DC
100
AcDbEntity
  8
0
100
AcDbCircle
 62
7
  6
CONTINUOUS
 10
-1.3164756818
 20
11.5001206705
 40
11.8952061768
100
AcDbArc
 50
183.0371496832
 51
185.4675124164
  0
ARC
  5
3DD
100
AcDbEntity
  8
0
100
AcDbCircle
 62
7
  6
CONTINUOUS
 10
-1.3175987701
 20
11.5000658288
 40
11.8940817603
100
AcDbArc
 50
181.8974417779
 51
183.0371725186
  0
ARC
  5
3DE
100
AcDbEntity
  8
0
100
AcDbCircle
 62
7
  6
CONTINUOUS
 10
-1.3181595785
 20
11.5000000001
 40
11.8935184436
100
AcDbArc
 50
174.5323593077
 51
185.4677108736
  0
ARC
  5
3DF
100
AcDbEntity
  8
0
100
AcDbCircle
 62
7
  6
CONTINUOUS
 10
-1.3185524229
 20
11.499973857
 40
11.8931273104
100
AcDbArc
 50
177.2898965652
 51
178.1773757538
  0
ARC
  5
3E0
100
AcDbEntity
  8
0
100
AcDbCircle
 62
7
  6
CONTINUOUS
 10
-1.3136479122
 20
11.4997891376
 40
11.2980290079
100
AcDbArc
 50
174.5591887087
 51
178.1773945944
  0
ARC
  5
3E1
100
AcDbEntity
  8
0
100
AcDbCircle
 62
7
  6
CONTINUOUS
 10
-1.3150366284
 20
11.5000000121
 40
11.2966342887
100
AcDbArc
 50
178.1782395762
 51
181.822385215
  0
ARC
  5
3E2
100
AcDbEntity
  8
0
100
AcDbCircle
 62
7
  6
CONTINUOUS
 10
-1.315205792
 20
11.5001141443
 40
11.2964689526
100
AcDbArc
 50
183.0372968667
 51
185.4669970622
  0
ARC
  5
3E3
100
AcDbEntity
  8
0
100
AcDbCircle
 62
7
  6
CONTINUOUS
 10
-1.3162866515
 20
11.500062996
 40
11.2953869013
100
AcDbArc
 50
181.8229061824
 51
183.0373282855
  0
ARC
  5
3E4
100
AcDbEntity
  8
0
100
AcDbCircle
 62
7
  6
CONTINUOUS
 10
-1.3167952617
 20
11.5
 40
11.2948758382
100
AcDbArc
 50
174.5327782112
 51
185.4671914517
  0
ARC
  5
3E5
100
AcDbEntity
  8
RACCORDO
100
AcDbCircle
 62
253
  6
CONTINUOUS
 10
21.5288343683
 20
-21.4788343683
 40
0.5002656624
100
AcDbArc
 50
270.0496656855
 51
359.9503343145
  0
ARC
  5
3E6
100
AcDbEntity
  8
0
100
AcDbCircle
 62
7
  6
CONTINUOUS
 10
0.5995569311
 20
-21.9000011659
 40
0.5000001395
100
AcDbArc
 50
203.5781171788
 51
270.0536060974
  0
ARC
  5
3E7
100
AcDbEntity
  8
0
100
AcDbCircle
 62
7
  6
CONTINUOUS
 10
7.25
 20
-23.15
 40
0.5
100
AcDbArc
 50
154.1580672368
 51
205.8419327632
  0
ARC
  5
3E8
100
AcDbEntity
  8
0
100
AcDbCircle
 62
7
  6
CONTINUOUS
 10
15.25
 20
-23.15
 40
0.5
100
AcDbArc
 50
334.1580672368
 51
25.8419327632
  0
ARC
  5
3E9
100
AcDbEntity
  8
0
100
AcDbCircle
 62
7
  6
CONTINUOUS
 10
21.9004528417
 20
-21.9000167264
 40
0.4999835017
100
AcDbArc
 50
269.9452723311
 51
359.9999774666
  0
ARC
  5
3EA
100
AcDbEntity
  8
0
100
AcDbCircle
 62
7
  6
CONTINUOUS
 10
0.6005556525
 20
-21.900507654
 40
0.4994968435
100
AcDbArc
 50
203.5395254781
 51
269.939099136
  0
ARC
  5
3EB
100
AcDbEntity
  8
0
100
AcDbCircle
 62
253
  6
CONTINUOUS
 10
21.1368948033
 20
-24.2368948033
 40
0.2500066182
100
AcDbArc
 50
270.0024862874
 51
359.9975137126
  0
ARC
  5
3EC
100
AcDbEntity
  8
0
100
AcDbCircle
 62
253
  6
CONTINUOUS
 10
18.7631051967
 20
-24.2368948033
 40
0.2500066182
100
AcDbArc
 50
180.0024862874
 51
269.9975137126
  0
ARC
  5
3ED
100
AcDbEntity
  8
0
100
AcDbCircle
 62
253
  6
CONTINUOUS
 10
1.3631051962
 20
-24.2368948038
 40
0.2500066177
100
AcDbArc
 50
180.0024861811
 51
269.9975138189
  0
ARC
  5
3EE
100
AcDbEntity
  8
0
100
AcDbCircle
 62
253
  6
CONTINUOUS
 10
3.7368948038
 20
-24.2368948038
 40
0.2500066177
100
AcDbArc
 50
270.0024861811
 51
359.9975138189
  0
ARC
  5
3EF
100
AcDbEntity
  8
0
100
AcDbCircle
 62
7
  6
CONTINUOUS
 10
21.1500053487
 20
-24.2500053487
 40
0.2499946513
100
AcDbArc
 50
269.9997437926
 51
0.0002562074
  0
ARC
  5
3F0
100
AcDbEntity
  8
0
100
AcDbCircle
 62
7
  6
CONTINUOUS
 10
18.7499946513
 20
-24.2500053487
 40
0.2499946513
100
AcDbArc
 50
179.9997437926
 51
270.0002562074
  0
ARC
  5
3F1
100
AcDbEntity
  8
0
100
AcDbCircle
 62
7
  6
CONTINUOUS
 10
1.3499946513
 20
-24.2500053487
 40
0.2499946513
100
AcDbArc
 50
179.9997437926
 51
270.0002562074
  0
ARC
  5
3F2
100
AcDbEntity
  8
0
100
AcDbCircle
 62
7
  6
CONTINUOUS
 10
3.7500053487
 20
-24.2500053487
 40
0.2499946513
100
AcDbArc
 50
269.9997437926
 51
0.0002562074
  0
ARC
  5
3F3
100
AcDbEntity
  8
0
100
AcDbCircle
 62
7
  6
CONTINUOUS
 10
10.0500011808
 20
-23.7982490665
 40
0.1999988152
100
AcDbArc
 50
269.9996617127
 51
359.4995522505
  0
ARC
  5
3F4
100
AcDbEntity
  8
0
100
AcDbCircle
 62
253
  6
CONTINUOUS
 10
12.4499988189
 20
-23.7982490669
 40
0.1999988149
100
AcDbArc
 50
180.5004468359
 51
270.0003383609
  0
ARC
  5
3F5
100
AcDbEntity
  8
0
100
AcDbCircle
 62
7
  6
CONTINUOUS
 10
12.449882446
 20
-23.7999934169
 40
0.1998824461
100
AcDbArc
 50
180.0009168221
 51
269.999564761
  0
ARC
  5
3F6
100
AcDbEntity
  8
0
100
AcDbCircle
 62
7
  6
CONTINUOUS
 10
10.050117554
 20
-23.7999934169
 40
0.1998824461
100
AcDbArc
 50
270.002881872
 51
359.9990831779
  0
ARC
  5
3F7
100
AcDbEntity
  8
0
100
AcDbCircle
 62
7
  6
CONTINUOUS
 10
10.0505705535
 20
-23.7982511033
 40
0.1994294465
100
AcDbArc
 50
359.4987086161
 51
359.9999531425
  0
ARC
  5
3F8
100
AcDbEntity
  8
0
100
AcDbCircle
 62
253
  6
CONTINUOUS
 10
12.4494270287
 20
-23.7982511029
 40
0.1994270287
100
AcDbArc
 50
180.0000469726
 51
180.5012967614
  0
ARC
  5
3F9
100
AcDbEntity
  8
RACCORDO
100
AcDbCircle
 62
253
  6
CONTINUOUS
 10
18805.988700768
 20
0.000001061
 40
18783.988991435
100
AcDbArc
 50
179.9365273751
 51
180.0634726314
  0
ARC
  5
3FA
100
AcDbEntity
  8
RACCORDO
100
AcDbCircle
 62
253
  6
CONTINUOUS
 10
21.5288343653
 20
21.4788343653
 40
0.5002656608
100
AcDbArc
 50
0.0496654993
 51
89.9503345007
  0
ARC
  5
3FB
100
AcDbEntity
  8
0
100
AcDbCircle
 62
7
  6
CONTINUOUS
 10
15.25
 20
23.15
 40
0.5
100
AcDbArc
 50
334.1580672368
 51
25.8419327632
  0
ARC
  5
3FC
100
AcDbEntity
  8
0
100
AcDbCircle
 62
7
  6
CONTINUOUS
 10
7.25
 20
23.15
 40
0.5
100
AcDbArc
 50
154.1580672368
 51
205.8419327632
  0
ARC
  5
3FD
100
AcDbEntity
  8
0
100
AcDbCircle
 62
7
  6
CONTINUOUS
 10
0.5995502697
 20
21.9000113415
 40
0.4999888836
100
AcDbArc
 50
89.9456294642
 51
156.4226461915
  0
ARC
  5
3FE
100
AcDbEntity
  8
0
100
AcDbCircle
 62
7
  6
CONTINUOUS
 10
21.9004528417
 20
21.9000167264
 40
0.4999835017
100
AcDbArc
 50
0.0000225334
 51
90.0547276814
  0
ARC
  5
3FF
100
AcDbEntity
  8
0
100
AcDbCircle
 62
7
  6
CONTINUOUS
 10
0.600555721
 20
21.9005075496
 40
0.4994968435
100
AcDbArc
 50
90.0609087188
 51
156.4604666798
  0
ARC
  5
400
100
AcDbEntity
  8
0
100
AcDbCircle
 62
253
  6
CONTINUOUS
 10
21.1368948033
 20
24.2368948033
 40
0.2500066182
100
AcDbArc
 50
0.0024862874
 51
89.9975137126
  0
ARC
  5
401
100
AcDbEntity
  8
0
100
AcDbCircle
 62
253
  6
CONTINUOUS
 10
18.7631051962
 20
24.2368948038
 40
0.2500066177
100
AcDbArc
 50
90.0024861811
 51
179.9975138189
  0
ARC
  5
402
100
AcDbEntity
  8
0
100
AcDbCircle
 62
253
  6
CONTINUOUS
 10
3.7368948038
 20
24.2368948038
 40
0.2500066177
100
AcDbArc
 50
0.0024861811
 51
89.9975138189
  0
ARC
  5
403
100
AcDbEntity
  8
0
100
AcDbCircle
 62
253
  6
CONTINUOUS
 10
1.3631051962
 20
24.2368948038
 40
0.2500066177
100
AcDbArc
 50
90.0024861811
 51
179.9975138189
  0
ARC
  5
404
100
AcDbEntity
  8
0
100
AcDbCircle
 62
7
  6
CONTINUOUS
 10
21.1500053487
 20
24.2500053487
 40
0.2499946513
100
AcDbArc
 50
359.9997437926
 51
90.0002562074
  0
ARC
  5
405
100
AcDbEntity
  8
0
100
AcDbCircle
 62
7
  6
CONTINUOUS
 10
18.7499946513
 20
24.2500053487
 40
0.2499946513
100
AcDbArc
 50
89.9997437926
 51
180.0002562074
  0
ARC
  5
406
100
AcDbEntity
  8
0
100
AcDbCircle
 62
7
  6
CONTINUOUS
 10
3.7500053487
 20
24.2500053487
 40
0.2499946513
100
AcDbArc
 50
359.9997437926
 51
90.0002562074
  0
ARC
  5
407
100
AcDbEntity
  8
0
100
AcDbCircle
 62
7
  6
CONTINUOUS
 10
1.3499946513
 20
24.2500053487
 40
0.2499946513
100
AcDbArc
 50
89.9997437926
 51
180.0002562074
  0
ARC
  5
408
100
AcDbEntity
  8
0
100
AcDbCircle
 62
7
  6
CONTINUOUS
 10
12.4499988192
 20
23.7982490665
 40
0.1999988152
100
AcDbArc
 50
89.9996617127
 51
179.4995522505
  0
ARC
  5
409
100
AcDbEntity
  8
0
100
AcDbCircle
 62
253
  6
CONTINUOUS
 10
10.0500011811
 20
23.7982490669
 40
0.1999988149
100
AcDbArc
 50
0.5004468359
 51
90.0003383609
  0
ARC
  5
40A
100
AcDbEntity
  8
0
100
AcDbCircle
 62
7
  6
CONTINUOUS
 10
12.449882446
 20
23.7999934169
 40
0.1998824461
100
AcDbArc
 50
90.0028818721
 51
179.9990831779
  0
ARC
  5
40B
100
AcDbEntity
  8
0
100
AcDbCircle
 62
7
  6
CONTINUOUS
 10
10.050117554
 20
23.7999934169
 40
0.1998824461
100
AcDbArc
 50
0.0009168221
 51
89.999564761
  0
ARC
  5
40C
100
AcDbEntity
  8
0
100
AcDbCircle
 62
7
  6
CONTINUOUS
 10
12.4494294465
 20
23.7982511033
 40
0.1994294465
100
AcDbArc
 50
179.4987086161
 51
179.9999531425
  0
ARC
  5
40D
100
AcDbEntity
  8
0
100
AcDbCircle
 62
253
  6
CONTINUOUS
 10
10.0505729713
 20
23.7982511029
 40
0.1994270287
100
AcDbArc
 50
0.0000469726
 51
0.5012967614
  0
ARC
  5
40E
100
AcDbEntity
  8
0
100
AcDbCircle
 62
7
  6
CONTINUOUS
 10
-40.5813950104
 20
-24.2456323968
 40
0.25
100
AcDbArc
 50
270.3333333333
 51
360.0
  0
ARC
  5
40F
100
AcDbEntity
  8
0
100
AcDbCircle
 62
7
  6
CONTINUOUS
 10
-43.5813950104
 20
-24.2369056521
 40
0.25
100
AcDbArc
 50
180.0
 51
269.6666666667
  0
ARC
  5
410
100
AcDbEntity
  8
0
100
AcDbCircle
 62
7
  6
CONTINUOUS
 10
-40.5813950104
 20
-23.8443375673
 40
0.25
100
AcDbArc
 50
0.0
 51
60.0
  0
ARC
  5
411
100
AcDbEntity
  8
0
100
AcDbCircle
 62
7
  6
CONTINUOUS
 10
-43.5813950104
 20
-23.8443375673
 40
0.25
100
AcDbArc
 50
120.0
 51
180.0
  0
ARC
  5
412
100
AcDbEntity
  8
RACCORDO
100
AcDbCircle
 62
7
  6
CONTINUOUS
 10
-49.5174426248
 20
-20.7790432879
 40
1.2004339324
100
AcDbArc
 50
182.4388192562
 51
268.5171926235
  0
ARC
  5
413
100
AcDbEntity
  8
RACCORDO
100
AcDbCircle
 62
7
  6
CONTINUOUS
 10
-49.8901774197
 20
-20.7697383618
 40
1.2
100
AcDbArc
 50
182.985352181
 51
268.5
  0
ARC
  5
414
100
AcDbEntity
  8
RACCORDO
100
AcDbCircle
 62
253
  6
CONTINUOUS
 10
-49.5306765917
 20
-20.7788612702
 40
0.7006022527
100
AcDbArc
 50
182.4671148564
 51
268.5417411289
  0
ARC
  5
415
100
AcDbEntity
  8
0
100
AcDbCircle
 62
7
  6
CONTINUOUS
 10
-35.8313950104
 20
-23.4679934743
 40
0.5
100
AcDbArc
 50
270.3333333333
 51
360.0
  0
ARC
  5
416
100
AcDbEntity
  8
0
100
AcDbCircle
 62
7
  6
CONTINUOUS
 10
-30.3313950104
 20
-21.3359869487
 40
1.0
100
AcDbArc
 50
270.3333333333
 51
360.0
  0
ARC
  5
417
100
AcDbEntity
  8
RACCORDO
100
AcDbCircle
 62
7
  6
CONTINUOUS
 10
-29.5313950104
 20
-19.9942577878
 40
0.2
100
AcDbArc
 50
0.0
 51
89.5
  0
ARC
  5
418
100
AcDbEntity
  8
RACCORDO
100
AcDbCircle
 62
7
  6
CONTINUOUS
 10
-29.5313950104
 20
-18.7400415081
 40
0.2
100
AcDbArc
 50
0.0
 51
69.9999998795
  0
ARC
  5
419
100
AcDbEntity
  8
RACCORDO
100
AcDbCircle
 62
7
  6
CONTINUOUS
 10
-49.5174429296
 20
20.7790434108
 40
1.2004339345
100
AcDbArc
 50
91.4828013703
 51
177.5611864363
  0
ARC
  5
41A
100
AcDbEntity
  8
RACCORDO
100
AcDbCircle
 62
7
  6
CONTINUOUS
 10
-49.8901774118
 20
20.769738362
 40
1.2
100
AcDbArc
 50
91.5
 51
177.0146478186
  0
ARC
  5
41B
100
AcDbEntity
  8
0
100
AcDbCircle
 62
7
  6
CONTINUOUS
 10
-30.3313950104
 20
21.3359869487
 40
1.0
100
AcDbArc
 50
0.0
 51
89.6666666667
  0
ARC
  5
41C
100
AcDbEntity
  8
RACCORDO
100
AcDbCircle
 62
253
  6
CONTINUOUS
 10
-49.5306768576
 20
20.7788614231
 40
0.7006020866
100
AcDbArc
 50
91.4582518176
 51
177.5328977291
  0
ARC
  5
41D
100
AcDbEntity
  8
0
100
AcDbCircle
 62
7
  6
CONTINUOUS
 10
-35.8313950104
 20
23.4679934743
 40
0.5
100
AcDbArc
 50
0.0
 51
89.6666666667
  0
ARC
  5
41E
100
AcDbEntity
  8
0
100
AcDbCircle
 62
7
  6
CONTINUOUS
 10
-40.5813950104
 20
24.2456323968
 40
0.25
100
AcDbArc
 50
0.0
 51
89.6666666667
  0
ARC
  5
41F
100
AcDbEntity
  8
0
100
AcDbCircle
 62
7
  6
CONTINUOUS
 10
-43.5813950104
 20
24.2369056521
 40
0.25
100
AcDbArc
 50
90.3333333333
 51
180.0
  0
ARC
  5
420
100
AcDbEntity
  8
0
100
AcDbCircle
 62
7
  6
CONTINUOUS
 10
-43.5813950104
 20
23.8443375673
 40
0.25
100
AcDbArc
 50
180.0
 51
240.0
  0
ARC
  5
421
100
AcDbEntity
  8
0
100
AcDbCircle
 62
7
  6
CONTINUOUS
 10
-40.5813950104
 20
23.8443375673
 40
0.25
100
AcDbArc
 50
300.0
 51
360.0
  0
ARC
  5
422
100
AcDbEntity
  8
RACCORDO
100
AcDbCircle
 62
7
  6
CONTINUOUS
 10
-29.5313950104
 20
18.7400415081
 40
0.2
100
AcDbArc
 50
290.0000001205
 51
360.0
  0
ARC
  5
423
100
AcDbEntity
  8
RACCORDO
100
AcDbCircle
 62
7
  6
CONTINUOUS
 10
-29.5313950104
 20
19.9942577878
 40
0.2
100
AcDbArc
 50
270.5
 51
360.0
  0
ARC
  5
424
100
AcDbEntity
  8
RACCORDO
100
AcDbCircle
 62
253
  6
CONTINUOUS
 10
441.6724220655
 20
-0.0000000008
 40
492.829590573
100
AcDbArc
 50
177.5775930742
 51
182.4224069267
  0
ARC
  5
425
100
AcDbEntity
  8
RACCORDO
100
AcDbCircle
 62
253
  6
CONTINUOUS
 10
441.4499848014
 20
0.0000010606
 40
492.12072669
100
AcDbArc
 50
177.5765612876
 51
182.4234389606
  0
LINE
  5
426
100
AcDbEntity
  8
0
100
AcDbLine
 62
7
  6
CONTINUOUS
 10
-11.3749843147
 20
-8.8335341496
 11
-11.2916512446
 21
-8.8335393935
  0
LINE
  5
427
100
AcDbEntity
  8
0
100
AcDbLine
 62
7
  6
CONTINUOUS
 10
-11.2916512446
 20
-8.8335393935
 11
-11.2083179994
 21
-8.8335445988
  0
LINE
  5
428
100
AcDbEntity
  8
0
100
AcDbLine
 62
7
  6
CONTINUOUS
 10
-11.2083179994
 20
-8.8335445988
 11
-11.1249845803
 21
-8.8335497656
  0
LINE
  5
429
100
AcDbEntity
  8
0
100
AcDbLine
 62
7
  6
CONTINUOUS
 10
-11.1250172711
 20
-14.1664667308
 11
-11.2083509449
 21
-14.1664609203
  0
LINE
  5
42A
100
AcDbEntity
  8
0
100
AcDbLine
 62
7
  6
CONTINUOUS
 10
-11.2083509449
 20
-14.1664609203
 11
-11.2916844251
 21
-14.1664550664
  0
LINE
  5
42B
100
AcDbEntity
  8
0
100
AcDbLine
 62
7
  6
CONTINUOUS
 10
-11.2916844251
 20
-14.1664550664
 11
-11.3750177102
 21
-14.1664491691
  0
LINE
  5
42C
100
AcDbEntity
  8
0
100
AcDbLine
 62
7
  6
CONTINUOUS
 10
-9.8943929911
 20
11.1299124971
 11
-9.8940428441
 21
11.1407509394
  0
LINE
  5
42D
100
AcDbEntity
  8
0
100
AcDbLine
 62
7
  6
CONTINUOUS
 10
-12.5602905743
 20
12.5761195831
 11
-12.5607756786
 21
12.5710390949
  0
SPLINE
  5
42E
100
AcDbEntity
  8
0
100
AcDbSpline
 62
7
  6
CONTINUOUS
 70
0
 71
3
 72
8
 73
4
 74
2
 42
0.0000001
 43
0.0000001
 44
0.0000000001
 12
-0.0134162918
 22
-0.0463226519
 32
0.0
 13
-0.0274397698
 23
-0.0396590973
 33
0.0
 40
0.0
 40
0.0
 40
0.0
 40
0.0
 40
1.0
 40
1.0
 40
1.0
 40
1.0
 10
-11.6559418375
 20
13.6575061656
 30
0.0
 10
-11.6604139348
 20
13.6420652816
 30
0.0
 10
-11.6675165463
 20
13.6271780433
 30
0.0
 10
-11.6766631362
 20
13.6139583442
 30
0.0
 11
-11.6559418375
 21
13.6575061656
 31
0.0
 11
-11.6766631362
 21
13.6139583442
 31
0.0
  0
SPLINE
  5
42F
100
AcDbEntity
  8
0
100
AcDbSpline
 62
7
  6
CONTINUOUS
 70
0
 71
3
 72
8
 73
4
 74
2
 42
0.0000001
 43
0.0000001
 44
0.0000000001
 12
-0.0258898744
 22
-0.037419011
 32
0.0
 13
-0.0359301371
 23
-0.027919406
 33
0.0
 40
0.0
 40
0.0
 40
0.0
 40
0.0
 40
1.0
 40
1.0
 40
1.0
 40
1.0
 10
-11.6766631362
 20
13.6139583442
 30
0.0
 10
-11.6852930943
 20
13.6014853405
 30
0.0
 10
-11.6959397443
 20
13.5901937086
 30
0.0
 10
-11.7079164567
 20
13.5808872399
 30
0.0
 11
-11.6766631362
 21
13.6139583442
 31
0.0
 11
-11.7079164567
 21
13.5808872399
 31
0.0
  0
SPLINE
  5
430
100
AcDbEntity
  8
0
100
AcDbSpline
 62
7
  6
CONTINUOUS
 70
0
 71
3
 72
8
 73
4
 74
2
 42
0.0000001
 43
0.0000001
 44
0.0000000001
 12
0.0530300188
 22
0.0164904219
 32
0.0
 13
0.0553955074
 23
-0.0039312432
 33
0.0
 40
0.0
 40
0.0
 40
0.0
 40
0.0
 40
1.0
 40
1.0
 40
1.0
 40
1.0
 10
-11.8445407545
 20
14.1596924972
 30
0.0
 10
-11.8268640816
 20
14.1651893045
 30
0.0
 10
-11.8078396635
 20
14.1673904501
 30
0.0
 10
-11.7893744944
 20
14.1660800357
 30
0.0
 11
-11.8445407545
 21
14.1596924972
 31
0.0
 11
-11.7893744944
 21
14.1660800357
 31
0.0
  0
LINE
  5
431
100
AcDbEntity
  8
0
100
AcDbLine
 62
7
  6
CONTINUOUS
 10
-13.2051589495
 20
11.1062461983
 11
-13.205661576
 21
11.12172308
  0
SPLINE
  5
432
100
AcDbEntity
  8
0
100
AcDbSpline
 62
7
  6
CONTINUOUS
 70
0
 71
3
 72
8
 73
4
 74
2
 42
0.0000001
 43
0.0000001
 44
0.0000000001
 12
-0.0384048433
 22
0.0288928623
 32
0.0
 13
-0.0272788331
 23
0.0395675972
 33
0.0
 40
0.0
 40
0.0
 40
0.0
 40
0.0
 40
1.0
 40
1.0
 40
1.0
 40
1.0
 10
-10.7902244499
 20
13.5794655893
 30
0.0
 10
-10.8030260643
 20
13.5890965434
 30
0.0
 10
-10.8143852248
 20
13.6009739354
 30
0.0
 10
-10.8234781691
 20
13.6141631345
 30
0.0
 11
-10.7902244499
 21
13.5794655893
 31
0.0
 11
-10.8234781691
 21
13.6141631345
 31
0.0
  0
SPLINE
  5
433
100
AcDbEntity
  8
0
100
AcDbSpline
 62
7
  6
CONTINUOUS
 70
0
 71
3
 72
8
 73
4
 74
2
 42
0.0000001
 43
0.0000001
 44
0.0000000001
 12
-0.0256543708
 22
0.0372113354
 32
0.0
 13
-0.0133875648
 23
0.0431694722
 33
0.0
 40
0.0
 40
0.0
 40
0.0
 40
0.0
 40
1.0
 40
1.0
 40
1.0
 40
1.0
 10
-10.8234781691
 20
13.6141631345
 30
0.0
 10
-10.8320296261
 20
13.6265669129
 30
0.0
 10
-10.8387871175
 20
13.6404171192
 30
0.0
 10
-10.8432496391
 20
13.6548069433
 30
0.0
 11
-10.8234781691
 21
13.6141631345
 31
0.0
 11
-10.8432496391
 21
13.6548069433
 31
0.0
  0
SPLINE
  5
434
100
AcDbEntity
  8
0
100
AcDbSpline
 62
7
  6
CONTINUOUS
 70
0
 71
3
 72
15
 73
11
 74
9
 42
0.0000001
 43
0.0000001
 44
0.0000000001
 12
0.3142908459
 22
0.0
 32
0.0
 13
0.0031667975
 23
0.3142748912
 33
0.0
 40
0.0
 40
0.0
 40
0.0
 40
0.0
 40
0.1666133779
 40
0.3262255844
 40
0.4735308137
 40
0.6056575217
 40
0.7220676483
 40
0.8241942131
 40
0.9152281509
 40
1.0
 40
1.0
 40
1.0
 40
1.0
 10
3.7427234819
 20
23.1226497308
 30
0.0
 10
3.7601785017
 20
23.1226497308
 30
0.0
 10
3.7943856929
 20
23.124909705
 30
0.0
 10
3.8432620946
 20
23.1340775763
 30
0.0
 10
3.8871035061
 20
23.1484769636
 30
0.0
 10
3.9243461767
 20
23.1671011817
 30
0.0
 10
3.9540985049
 20
23.1890111222
 30
0.0
 10
3.9758950298
 20
23.2134107396
 30
0.0
 10
3.9893986841
 20
23.239611024
 30
0.0
 10
3.992629766
 20
23.2581067436
 30
0.0
 10
3.9927192511
 20
23.2669872981
 30
0.0
 11
3.7427234819
 21
23.1226497308
 31
0.0
 11
3.7949802175
 21
23.126016189
 31
0.0
 11
3.8442534457
 21
23.1354311576
 31
0.0
 11
3.8881709782
 21
23.1500815293
 31
0.0
 11
3.9251759211
 21
23.1689245842
 31
0.0
 11
3.9544151803
 21
23.1909165769
 31
0.0
 11
3.9754977136
 21
23.215119319
 31
0.0
 11
3.9882790097
 21
23.2407168857
 31
0.0
 11
3.9927192511
 21
23.2669872981
 31
0.0
  0
SPLINE
  5
435
100
AcDbEntity
  8
0
100
AcDbSpline
 62
253
  6
CONTINUOUS
 70
0
 71
3
 72
13
 73
9
 74
7
 42
0.0000001
 43
0.0000001
 44
0.0000000001
 12
0.0012265944
 22
-0.3651869709
 32
0.0
 13
0.3651878721
 23
-0.0009199792
 33
0.0
 40
0.0
 40
0.0
 40
0.0
 40
0.0
 40
0.1162394899
 40
0.2339784923
 40
0.3543712679
 40
0.4780982409
 40
0.7345378657
 40
1.0
 40
1.0
 40
1.0
 40
1.0
 10
1.1130985787
 20
23.8443375673
 30
0.0
 10
1.113146105
 20
23.8301878516
 30
0.0
 10
1.1165046396
 20
23.8016148337
 30
0.0
 10
1.1310612265
 20
23.7606544968
 30
0.0
 10
1.1545320998
 20
23.7229827139
 30
0.0
 10
1.1968348266
 20
23.6786209789
 30
0.0
 10
1.2667610945
 20
23.6387867994
 30
0.0
 10
1.3307798306
 20
23.6279126229
 30
0.0
 10
1.3630943479
 20
23.6278312164
 30
0.0
 11
1.1130985787
 21
23.8443375673
 31
0.0
 11
1.1180263068
 21
23.8021751679
 31
0.0
 11
1.1323368095
 21
23.7616295041
 31
0.0
 11
1.1554824773
 21
23.7242490565
 31
0.0
 11
1.1865773793
 21
23.6914667926
 31
0.0
 11
1.2675929316
 21
23.6444922901
 31
0.0
 11
1.3630943479
 21
23.6278312164
 31
0.0
  0
SPLINE
  5
436
100
AcDbEntity
  8
0
100
AcDbSpline
 62
7
  6
CONTINUOUS
 70
0
 71
3
 72
15
 73
11
 74
9
 42
0.0000001
 43
0.0000001
 44
0.0000000001
 12
0.0031741039
 22
-0.3149999784
 32
0.0
 13
0.3150159699
 23
0.0
 33
0.0
 40
0.0
 40
0.0
 40
0.0
 40
0.0
 40
0.0847246382
 40
0.1757279367
 40
0.2778501555
 40
0.3942839058
 40
0.5264550939
 40
0.6738071548
 40
0.8334364544
 40
1.0
 40
1.0
 40
1.0
 40
1.0
 10
1.1072807489
 20
23.2669872981
 30
0.0
 10
1.1073703905
 20
23.2580912117
 30
0.0
 10
1.1106131795
 20
23.2395608029
 30
0.0
 10
1.1241645701
 20
23.2133174142
 30
0.0
 10
1.146036015
 20
23.1888844894
 30
0.0
 10
1.175888076
 20
23.1669547435
 30
0.0
 10
1.213250807
 20
23.1483274499
 30
0.0
 10
1.2572234122
 20
23.133953471
 30
0.0
 10
1.3062269929
 20
23.1248150691
 30
0.0
 10
1.3405136879
 20
23.1226497308
 30
0.0
 10
1.3580037468
 20
23.1226497308
 30
0.0
 11
1.1072807489
 21
23.2669872981
 31
0.0
 11
1.1117358026
 21
23.2406721314
 31
0.0
 11
1.1245605835
 21
23.2150332915
 31
0.0
 11
1.1457149112
 21
23.1907967144
 31
0.0
 11
1.1750527761
 21
23.1687830511
 31
0.0
 11
1.2121789369
 21
23.1499360992
 31
0.0
 11
1.2562311591
 21
23.1353054509
 31
0.0
 11
1.3056366974
 21
23.1259378303
 31
0.0
 11
1.3580037468
 21
23.1226497308
 31
0.0
  0
SPLINE
  5
437
100
AcDbEntity
  8
0
100
AcDbSpline
 62
253
  6
CONTINUOUS
 70
0
 71
3
 72
13
 73
9
 74
7
 42
0.0000001
 43
0.0000001
 44
0.0000000001
 12
-0.0012265944
 22
-0.3651869708
 32
0.0
 13
-0.3651878719
 23
-0.0009199792
 33
0.0
 40
0.0
 40
0.0
 40
0.0
 40
0.0
 40
0.1162394861
 40
0.2339784844
 40
0.3543712552
 40
0.4780982232
 40
0.7345378384
 40
1.0
 40
1.0
 40
1.0
 40
1.0
 10
3.9869014213
 20
23.8443375673
 30
0.0
 10
3.9868538951
 20
23.830187852
 30
0.0
 10
3.9834953606
 20
23.8016148352
 30
0.0
 10
3.9689387749
 20
23.7606544996
 30
0.0
 10
3.9454679029
 20
23.7229827179
 30
0.0
 10
3.9031651791
 20
23.6786209833
 30
0.0
 10
3.833238911
 20
23.6387868014
 30
0.0
 10
3.7692201727
 20
23.6279126229
 30
0.0
 10
3.7369056521
 20
23.6278312164
 30
0.0
 11
3.9869014213
 21
23.8443375673
 31
0.0
 11
3.9819736935
 21
23.8021751692
 31
0.0
 11
3.9676631919
 21
23.7616295068
 31
0.0
 11
3.9445175256
 21
23.7242490603
 31
0.0
 11
3.9134226257
 21
23.6914667969
 31
0.0
 11
3.8324070779
 21
23.6444922937
 31
0.0
 11
3.7369056521
 21
23.6278312164
 31
0.0
  0
SPLINE
  5
438
100
AcDbEntity
  8
0
100
AcDbSpline
 62
253
  6
CONTINUOUS
 70
0
 71
3
 72
13
 73
9
 74
7
 42
0.0000001
 43
0.0000001
 44
0.0000000001
 12
0.0012265944
 22
-0.3651869708
 32
0.0
 13
0.3651878719
 23
-0.0009199792
 33
0.0
 40
0.0
 40
0.0
 40
0.0
 40
0.0
 40
0.1162394861
 40
0.2339784844
 40
0.3543712552
 40
0.4780982232
 40
0.7345378384
 40
1.0
 40
1.0
 40
1.0
 40
1.0
 10
18.5130985787
 20
23.8443375673
 30
0.0
 10
18.5131461049
 20
23.830187852
 30
0.0
 10
18.5165046394
 20
23.8016148352
 30
0.0
 10
18.5310612251
 20
23.7606544996
 30
0.0
 10
18.5545320971
 20
23.7229827179
 30
0.0
 10
18.5968348209
 20
23.6786209833
 30
0.0
 10
18.666761089
 20
23.6387868014
 30
0.0
 10
18.7307798273
 20
23.6279126229
 30
0.0
 10
18.7630943479
 20
23.6278312164
 30
0.0
 11
18.5130985787
 21
23.8443375673
 31
0.0
 11
18.5180263065
 21
23.8021751692
 31
0.0
 11
18.5323368081
 21
23.7616295068
 31
0.0
 11
18.5554824744
 21
23.7242490603
 31
0.0
 11
18.5865773743
 21
23.6914667969
 31
0.0
 11
18.6675929221
 21
23.6444922937
 31
0.0
 11
18.7630943479
 21
23.6278312164
 31
0.0
  0
SPLINE
  5
439
100
AcDbEntity
  8
0
100
AcDbSpline
 62
7
  6
CONTINUOUS
 70
0
 71
3
 72
15
 73
11
 74
9
 42
0.0000001
 43
0.0000001
 44
0.0000000001
 12
0.0031741039
 22
-0.3149999784
 32
0.0
 13
0.3150159699
 23
-0.0
 33
0.0
 40
0.0
 40
0.0
 40
0.0
 40
0.0
 40
0.0847246382
 40
0.1757279367
 40
0.2778501555
 40
0.3942839058
 40
0.5264550939
 40
0.6738071548
 40
0.8334364544
 40
1.0
 40
1.0
 40
1.0
 40
1.0
 10
18.5072807489
 20
23.2669872981
 30
0.0
 10
18.5073703905
 20
23.2580912117
 30
0.0
 10
18.5106131795
 20
23.2395608029
 30
0.0
 10
18.5241645701
 20
23.2133174142
 30
0.0
 10
18.546036015
 20
23.1888844894
 30
0.0
 10
18.575888076
 20
23.1669547435
 30
0.0
 10
18.613250807
 20
23.1483274499
 30
0.0
 10
18.6572234122
 20
23.133953471
 30
0.0
 10
18.7062269929
 20
23.1248150691
 30
0.0
 10
18.7405136879
 20
23.1226497308
 30
0.0
 10
18.7580037468
 20
23.1226497308
 30
0.0
 11
18.5072807489
 21
23.2669872981
 31
0.0
 11
18.5117358026
 21
23.2406721314
 31
0.0
 11
18.5245605835
 21
23.2150332915
 31
0.0
 11
18.5457149112
 21
23.1907967144
 31
0.0
 11
18.5750527761
 21
23.1687830511
 31
0.0
 11
18.6121789369
 21
23.1499360992
 31
0.0
 11
18.6562311591
 21
23.1353054509
 31
0.0
 11
18.7056366974
 21
23.1259378303
 31
0.0
 11
18.7580037468
 21
23.1226497308
 31
0.0
  0
SPLINE
  5
43A
100
AcDbEntity
  8
0
100
AcDbSpline
 62
7
  6
CONTINUOUS
 70
0
 71
3
 72
15
 73
11
 74
9
 42
0.0000001
 43
0.0000001
 44
0.0000000001
 12
-0.0031741039
 22
-0.3149999784
 32
0.0
 13
-0.3150159699
 23
-0.0
 33
0.0
 40
0.0
 40
0.0
 40
0.0
 40
0.0
 40
0.0847246382
 40
0.1757279367
 40
0.2778501555
 40
0.3942839058
 40
0.5264550939
 40
0.6738071548
 40
0.8334364544
 40
1.0
 40
1.0
 40
1.0
 40
1.0
 10
21.3927192511
 20
23.2669872981
 30
0.0
 10
21.3926296095
 20
23.2580912117
 30
0.0
 10
21.3893868205
 20
23.2395608029
 30
0.0
 10
21.3758354299
 20
23.2133174142
 30
0.0
 10
21.353963985
 20
23.1888844894
 30
0.0
 10
21.324111924
 20
23.1669547435
 30
0.0
 10
21.286749193
 20
23.1483274499
 30
0.0
 10
21.2427765878
 20
23.133953471
 30
0.0
 10
21.1937730071
 20
23.1248150691
 30
0.0
 10
21.1594863121
 20
23.1226497308
 30
0.0
 10
21.1419962532
 20
23.1226497308
 30
0.0
 11
21.3927192511
 21
23.2669872981
 31
0.0
 11
21.3882641974
 21
23.2406721314
 31
0.0
 11
21.3754394165
 21
23.2150332915
 31
0.0
 11
21.3542850888
 21
23.1907967144
 31
0.0
 11
21.3249472239
 21
23.1687830511
 31
0.0
 11
21.2878210631
 21
23.1499360992
 31
0.0
 11
21.2437688409
 21
23.1353054509
 31
0.0
 11
21.1943633026
 21
23.1259378303
 31
0.0
 11
21.1419962532
 21
23.1226497308
 31
0.0
  0
SPLINE
  5
43B
100
AcDbEntity
  8
0
100
AcDbSpline
 62
253
  6
CONTINUOUS
 70
0
 71
3
 72
13
 73
9
 74
7
 42
0.0000001
 43
0.0000001
 44
0.0000000001
 12
-0.0012265943
 22
-0.3651869702
 32
0.0
 13
-0.3651878714
 23
-0.0009199792
 33
0.0
 40
0.0
 40
0.0
 40
0.0
 40
0.0
 40
0.1162393822
 40
0.2339783947
 40
0.3543711753
 40
0.4780981573
 40
0.7345378061
 40
1.0
 40
1.0
 40
1.0
 40
1.0
 10
21.3869014213
 20
23.8443375673
 30
0.0
 10
21.3868538951
 20
23.8301878647
 30
0.0
 10
21.3834953621
 20
23.8016148597
 30
0.0
 10
21.3689387922
 20
23.7606545287
 30
0.0
 10
21.34546792
 20
23.7229827412
 30
0.0
 10
21.3031651981
 20
23.6786209956
 30
0.0
 10
21.2332389227
 20
23.6387868046
 30
0.0
 10
21.1692201766
 20
23.6279126229
 30
0.0
 10
21.1369056521
 20
23.6278312164
 30
0.0
 11
21.3869014213
 21
23.8443375673
 31
0.0
 11
21.3819737009
 21
23.8021752067
 31
0.0
 11
21.367663207
 21
23.761629536
 31
0.0
 11
21.3445175433
 21
23.7242490838
 31
0.0
 11
21.313422644
 21
23.6914668129
 31
0.0
 11
21.232407089
 21
23.644492298
 31
0.0
 11
21.1369056521
 21
23.6278312164
 31
0.0
  0
SPLINE
  5
43C
100
AcDbEntity
  8
0
100
AcDbSpline
 62
253
  6
CONTINUOUS
 70
0
 71
3
 72
13
 73
9
 74
7
 42
0.0000001
 43
0.0000001
 44
0.0000000001
 12
-0.0012265944
 22
0.3651869708
 32
0.0
 13
-0.3651878719
 23
0.0009199792
 33
0.0
 40
0.0
 40
0.0
 40
0.0
 40
0.0
 40
0.1162394861
 40
0.2339784844
 40
0.3543712552
 40
0.4780982232
 40
0.7345378384
 40
1.0
 40
1.0
 40
1.0
 40
1.0
 10
21.3869014213
 20
-23.8443375673
 30
0.0
 10
21.3868538951
 20
-23.830187852
 30
0.0
 10
21.3834953606
 20
-23.8016148352
 30
0.0
 10
21.3689387749
 20
-23.7606544996
 30
0.0
 10
21.3454679029
 20
-23.7229827179
 30
0.0
 10
21.3031651791
 20
-23.6786209833
 30
0.0
 10
21.233238911
 20
-23.6387868014
 30
0.0
 10
21.1692201727
 20
-23.6279126229
 30
0.0
 10
21.1369056521
 20
-23.6278312164
 30
0.0
 11
21.3869014213
 21
-23.8443375673
 31
0.0
 11
21.3819736935
 21
-23.8021751692
 31
0.0
 11
21.3676631919
 21
-23.7616295068
 31
0.0
 11
21.3445175256
 21
-23.7242490603
 31
0.0
 11
21.3134226257
 21
-23.6914667969
 31
0.0
 11
21.2324070779
 21
-23.6444922937
 31
0.0
 11
21.1369056521
 21
-23.6278312164
 31
0.0
  0
SPLINE
  5
43D
100
AcDbEntity
  8
0
100
AcDbSpline
 62
7
  6
CONTINUOUS
 70
0
 71
3
 72
15
 73
11
 74
9
 42
0.0000001
 43
0.0000001
 44
0.0000000001
 12
-0.0031741039
 22
0.3149999784
 32
0.0
 13
-0.3150159699
 23
-0.0
 33
0.0
 40
0.0
 40
0.0
 40
0.0
 40
0.0
 40
0.0847246382
 40
0.1757279367
 40
0.2778501555
 40
0.3942839058
 40
0.5264550939
 40
0.6738071548
 40
0.8334364544
 40
1.0
 40
1.0
 40
1.0
 40
1.0
 10
21.3927192511
 20
-23.2669872981
 30
0.0
 10
21.3926296095
 20
-23.2580912117
 30
0.0
 10
21.3893868205
 20
-23.2395608029
 30
0.0
 10
21.3758354299
 20
-23.2133174142
 30
0.0
 10
21.353963985
 20
-23.1888844894
 30
0.0
 10
21.324111924
 20
-23.1669547435
 30
0.0
 10
21.286749193
 20
-23.1483274499
 30
0.0
 10
21.2427765878
 20
-23.133953471
 30
0.0
 10
21.1937730071
 20
-23.1248150691
 30
0.0
 10
21.1594863121
 20
-23.1226497308
 30
0.0
 10
21.1419962532
 20
-23.1226497308
 30
0.0
 11
21.3927192511
 21
-23.2669872981
 31
0.0
 11
21.3882641974
 21
-23.2406721314
 31
0.0
 11
21.3754394165
 21
-23.2150332915
 31
0.0
 11
21.3542850888
 21
-23.1907967144
 31
0.0
 11
21.3249472239
 21
-23.1687830511
 31
0.0
 11
21.2878210631
 21
-23.1499360992
 31
0.0
 11
21.2437688409
 21
-23.1353054509
 31
0.0
 11
21.1943633026
 21
-23.1259378303
 31
0.0
 11
21.1419962532
 21
-23.1226497308
 31
0.0
  0
SPLINE
  5
43E
100
AcDbEntity
  8
0
100
AcDbSpline
 62
7
  6
CONTINUOUS
 70
0
 71
3
 72
15
 73
11
 74
9
 42
0.0000001
 43
0.0000001
 44
0.0000000001
 12
0.0031741039
 22
0.3149999784
 32
0.0
 13
0.3150159699
 23
0.0
 33
0.0
 40
0.0
 40
0.0
 40
0.0
 40
0.0
 40
0.0847246382
 40
0.1757279367
 40
0.2778501555
 40
0.3942839058
 40
0.5264550939
 40
0.6738071548
 40
0.8334364544
 40
1.0
 40
1.0
 40
1.0
 40
1.0
 10
18.5072807489
 20
-23.2669872981
 30
0.0
 10
18.5073703905
 20
-23.2580912117
 30
0.0
 10
18.5106131795
 20
-23.2395608029
 30
0.0
 10
18.5241645701
 20
-23.2133174142
 30
0.0
 10
18.546036015
 20
-23.1888844894
 30
0.0
 10
18.575888076
 20
-23.1669547435
 30
0.0
 10
18.613250807
 20
-23.1483274499
 30
0.0
 10
18.6572234122
 20
-23.133953471
 30
0.0
 10
18.7062269929
 20
-23.1248150691
 30
0.0
 10
18.7405136879
 20
-23.1226497308
 30
0.0
 10
18.7580037468
 20
-23.1226497308
 30
0.0
 11
18.5072807489
 21
-23.2669872981
 31
0.0
 11
18.5117358026
 21
-23.2406721314
 31
0.0
 11
18.5245605835
 21
-23.2150332915
 31
0.0
 11
18.5457149112
 21
-23.1907967144
 31
0.0
 11
18.5750527761
 21
-23.1687830511
 31
0.0
 11
18.6121789369
 21
-23.1499360992
 31
0.0
 11
18.6562311591
 21
-23.1353054509
 31
0.0
 11
18.7056366974
 21
-23.1259378303
 31
0.0
 11
18.7580037468
 21
-23.1226497308
 31
0.0
  0
SPLINE
  5
43F
100
AcDbEntity
  8
0
100
AcDbSpline
 62
253
  6
CONTINUOUS
 70
0
 71
3
 72
13
 73
9
 74
7
 42
0.0000001
 43
0.0000001
 44
0.0000000001
 12
0.0012265943
 22
0.3651869702
 32
0.0
 13
0.3651878714
 23
0.0009199792
 33
0.0
 40
0.0
 40
0.0
 40
0.0
 40
0.0
 40
0.1162393822
 40
0.2339783947
 40
0.3543711753
 40
0.4780981573
 40
0.7345378061
 40
1.0
 40
1.0
 40
1.0
 40
1.0
 10
18.5130985787
 20
-23.8443375673
 30
0.0
 10
18.5131461049
 20
-23.8301878647
 30
0.0
 10
18.5165046379
 20
-23.8016148597
 30
0.0
 10
18.5310612078
 20
-23.7606545287
 30
0.0
 10
18.55453208
 20
-23.7229827412
 30
0.0
 10
18.5968348019
 20
-23.6786209956
 30
0.0
 10
18.6667610773
 20
-23.6387868046
 30
0.0
 10
18.7307798234
 20
-23.6279126229
 30
0.0
 10
18.7630943479
 20
-23.6278312164
 30
0.0
 11
18.5130985787
 21
-23.8443375673
 31
0.0
 11
18.5180262991
 21
-23.8021752067
 31
0.0
 11
18.532336793
 21
-23.761629536
 31
0.0
 11
18.5554824567
 21
-23.7242490838
 31
0.0
 11
18.586577356
 21
-23.6914668129
 31
0.0
 11
18.667592911
 21
-23.644492298
 31
0.0
 11
18.7630943479
 21
-23.6278312164
 31
0.0
  0
SPLINE
  5
440
100
AcDbEntity
  8
0
100
AcDbSpline
 62
253
  6
CONTINUOUS
 70
0
 71
3
 72
13
 73
9
 74
7
 42
0.0000001
 43
0.0000001
 44
0.0000000001
 12
-0.0012265944
 22
0.3651869708
 32
0.0
 13
-0.3651878719
 23
0.0009199792
 33
0.0
 40
0.0
 40
0.0
 40
0.0
 40
0.0
 40
0.1162394861
 40
0.2339784844
 40
0.3543712552
 40
0.4780982232
 40
0.7345378384
 40
1.0
 40
1.0
 40
1.0
 40
1.0
 10
3.9869014213
 20
-23.8443375673
 30
0.0
 10
3.9868538951
 20
-23.830187852
 30
0.0
 10
3.9834953606
 20
-23.8016148352
 30
0.0
 10
3.9689387749
 20
-23.7606544996
 30
0.0
 10
3.9454679029
 20
-23.7229827179
 30
0.0
 10
3.9031651791
 20
-23.6786209833
 30
0.0
 10
3.833238911
 20
-23.6387868014
 30
0.0
 10
3.7692201727
 20
-23.6279126229
 30
0.0
 10
3.7369056521
 20
-23.6278312164
 30
0.0
 11
3.9869014213
 21
-23.8443375673
 31
0.0
 11
3.9819736935
 21
-23.8021751692
 31
0.0
 11
3.9676631919
 21
-23.7616295068
 31
0.0
 11
3.9445175256
 21
-23.7242490603
 31
0.0
 11
3.9134226257
 21
-23.6914667969
 31
0.0
 11
3.8324070779
 21
-23.6444922937
 31
0.0
 11
3.7369056521
 21
-23.6278312164
 31
0.0
  0
SPLINE
  5
441
100
AcDbEntity
  8
0
100
AcDbSpline
 62
7
  6
CONTINUOUS
 70
0
 71
3
 72
15
 73
11
 74
9
 42
0.0000001
 43
0.0000001
 44
0.0000000001
 12
-0.0031741039
 22
0.3149999784
 32
0.0
 13
-0.3150159699
 23
-0.0
 33
0.0
 40
0.0
 40
0.0
 40
0.0
 40
0.0
 40
0.0847246382
 40
0.1757279367
 40
0.2778501555
 40
0.3942839058
 40
0.5264550939
 40
0.6738071548
 40
0.8334364544
 40
1.0
 40
1.0
 40
1.0
 40
1.0
 10
3.9927192511
 20
-23.2669872981
 30
0.0
 10
3.9926296095
 20
-23.2580912117
 30
0.0
 10
3.9893868205
 20
-23.2395608029
 30
0.0
 10
3.9758354299
 20
-23.2133174142
 30
0.0
 10
3.953963985
 20
-23.1888844894
 30
0.0
 10
3.924111924
 20
-23.1669547435
 30
0.0
 10
3.886749193
 20
-23.1483274499
 30
0.0
 10
3.8427765878
 20
-23.133953471
 30
0.0
 10
3.7937730071
 20
-23.1248150691
 30
0.0
 10
3.7594863121
 20
-23.1226497308
 30
0.0
 10
3.7419962532
 20
-23.1226497308
 30
0.0
 11
3.9927192511
 21
-23.2669872981
 31
0.0
 11
3.9882641974
 21
-23.2406721314
 31
0.0
 11
3.9754394165
 21
-23.2150332915
 31
0.0
 11
3.9542850888
 21
-23.1907967144
 31
0.0
 11
3.9249472239
 21
-23.1687830511
 31
0.0
 11
3.8878210631
 21
-23.1499360992
 31
0.0
 11
3.8437688409
 21
-23.1353054509
 31
0.0
 11
3.7943633026
 21
-23.1259378303
 31
0.0
 11
3.7419962532
 21
-23.1226497308
 31
0.0
  0
SPLINE
  5
442
100
AcDbEntity
  8
0
100
AcDbSpline
 62
7
  6
CONTINUOUS
 70
0
 71
3
 72
15
 73
11
 74
9
 42
0.0000001
 43
0.0000001
 44
0.0000000001
 12
-0.3142908459
 22
0.0
 32
0.0
 13
-0.0031667975
 23
-0.3142748912
 33
0.0
 40
0.0
 40
0.0
 40
0.0
 40
0.0
 40
0.1666133779
 40
0.3262255844
 40
0.4735308137
 40
0.6056575217
 40
0.7220676483
 40
0.8241942131
 40
0.9152281509
 40
1.0
 40
1.0
 40
1.0
 40
1.0
 10
1.3572765181
 20
-23.1226497308
 30
0.0
 10
1.3398214983
 20
-23.1226497308
 30
0.0
 10
1.3056143071
 20
-23.124909705
 30
0.0
 10
1.2567379054
 20
-23.1340775763
 30
0.0
 10
1.2128964939
 20
-23.1484769636
 30
0.0
 10
1.1756538233
 20
-23.1671011817
 30
0.0
 10
1.1459014951
 20
-23.1890111222
 30
0.0
 10
1.1241049702
 20
-23.2134107396
 30
0.0
 10
1.1106013159
 20
-23.239611024
 30
0.0
 10
1.107370234
 20
-23.2581067436
 30
0.0
 10
1.1072807489
 20
-23.2669872981
 30
0.0
 11
1.3572765181
 21
-23.1226497308
 31
0.0
 11
1.3050197825
 21
-23.126016189
 31
0.0
 11
1.2557465543
 21
-23.1354311576
 31
0.0
 11
1.2118290218
 21
-23.1500815293
 31
0.0
 11
1.1748240789
 21
-23.1689245842
 31
0.0
 11
1.1455848197
 21
-23.1909165769
 31
0.0
 11
1.1245022864
 21
-23.215119319
 31
0.0
 11
1.1117209903
 21
-23.2407168857
 31
0.0
 11
1.1072807489
 21
-23.2669872981
 31
0.0
  0
SPLINE
  5
443
100
AcDbEntity
  8
0
100
AcDbSpline
 62
253
  6
CONTINUOUS
 70
0
 71
3
 72
13
 73
9
 74
7
 42
0.0000001
 43
0.0000001
 44
0.0000000001
 12
0.0012265944
 22
0.3651869708
 32
0.0
 13
0.3651878719
 23
0.0009199792
 33
0.0
 40
0.0
 40
0.0
 40
0.0
 40
0.0
 40
0.1162394861
 40
0.2339784844
 40
0.3543712552
 40
0.4780982232
 40
0.7345378384
 40
1.0
 40
1.0
 40
1.0
 40
1.0
 10
1.1130985787
 20
-23.8443375673
 30
0.0
 10
1.1131461049
 20
-23.830187852
 30
0.0
 10
1.1165046394
 20
-23.8016148352
 30
0.0
 10
1.1310612251
 20
-23.7606544996
 30
0.0
 10
1.1545320971
 20
-23.7229827179
 30
0.0
 10
1.1968348209
 20
-23.6786209833
 30
0.0
 10
1.266761089
 20
-23.6387868014
 30
0.0
 10
1.3307798273
 20
-23.6279126229
 30
0.0
 10
1.3630943479
 20
-23.6278312164
 30
0.0
 11
1.1130985787
 21
-23.8443375673
 31
0.0
 11
1.1180263065
 21
-23.8021751692
 31
0.0
 11
1.1323368081
 21
-23.7616295068
 31
0.0
 11
1.1554824744
 21
-23.7242490603
 31
0.0
 11
1.1865773743
 21
-23.6914667969
 31
0.0
 11
1.2675929221
 21
-23.6444922937
 31
0.0
 11
1.3630943479
 21
-23.6278312164
 31
0.0
  0
SPLINE
  5
444
100
AcDbEntity
  8
0
100
AcDbSpline
 62
7
  6
CONTINUOUS
 70
0
 71
3
 72
15
 73
11
 74
9
 42
0.0000001
 43
0.0000001
 44
0.0000000001
 12
0.0
 22
-0.7835849489
 32
0.0
 13
-0.7835849489
 23
-0.0
 33
0.0
 40
0.0
 40
0.0
 40
0.0
 40
0.0
 40
0.1250016995
 40
0.2500015929
 40
0.3750019934
 40
0.5000021438
 40
0.6250020315
 40
0.7500016142
 40
0.8750001245
 40
1.0
 40
1.0
 40
1.0
 40
1.0
 10
22.3991272468
 20
-21.8997711479
 30
0.0
 10
22.3991272468
 20
-21.9324209647
 30
0.0
 10
22.3927071378
 20
-21.9979001651
 30
0.0
 10
22.3641710301
 20
-22.0922261856
 30
0.0
 10
22.3178061813
 20
-22.1792278759
 30
0.0
 10
22.255372633
 20
-22.2555146988
 30
0.0
 10
22.1792585201
 20
-22.3181579234
 30
0.0
 10
22.0923705113
 20
-22.3647451103
 30
0.0
 10
21.9980978538
 20
-22.3934475677
 30
0.0
 10
21.9326246089
 20
-22.4
 30
0.0
 10
21.8999752685
 20
-22.4
 30
0.0
 11
22.3991272468
 21
-21.8997711479
 31
0.0
 11
22.3895560502
 21
-21.9972518487
 31
0.0
 11
22.3611996043
 21
-22.0910054062
 31
0.0
 11
22.3151280255
 21
-22.1774421175
 31
0.0
 11
22.253092465
 21
-22.2532408395
 31
0.0
 11
22.1774627432
 21
-22.3154819984
 31
0.0
 11
22.0911394798
 21
-22.3617644365
 31
0.0
 11
21.9974419862
 21
-22.3903018677
 31
0.0
 11
21.8999752685
 21
-22.4
 31
0.0
  0
SPLINE
  5
445
100
AcDbEntity
  8
0
100
AcDbSpline
 62
7
  6
CONTINUOUS
 70
0
 71
3
 72
15
 73
11
 74
9
 42
0.0000001
 43
0.0000001
 44
0.0000000001
 12
0.783584949
 22
0.0
 32
0.0
 13
0.0
 23
-0.783584949
 33
0.0
 40
0.0
 40
0.0
 40
0.0
 40
0.0
 40
0.1249998755
 40
0.2499983858
 40
0.3749979685
 40
0.4999978562
 40
0.6249980066
 40
0.7499984071
 40
0.8749983005
 40
1.0
 40
1.0
 40
1.0
 40
1.0
 10
21.8999752684
 20
22.4
 30
0.0
 10
21.9326246088
 20
22.4
 30
0.0
 10
21.9980978538
 20
22.3934475677
 30
0.0
 10
22.0923705112
 20
22.3647451103
 30
0.0
 10
22.1792585201
 20
22.3181579234
 30
0.0
 10
22.255372633
 20
22.2555146988
 30
0.0
 10
22.3178061812
 20
22.1792278759
 30
0.0
 10
22.3641710301
 20
22.0922261856
 30
0.0
 10
22.3927071378
 20
21.9979001651
 30
0.0
 10
22.3991272468
 20
21.9324209647
 30
0.0
 10
22.3991272468
 20
21.8997711479
 30
0.0
 11
21.8999752684
 21
22.4
 31
0.0
 11
21.9974419861
 21
22.3903018677
 31
0.0
 11
22.0911394797
 21
22.3617644365
 31
0.0
 11
22.1774627432
 21
22.3154819985
 31
0.0
 11
22.253092465
 21
22.2532408395
 31
0.0
 11
22.3151280255
 21
22.1774421175
 31
0.0
 11
22.3611996043
 21
22.0910054062
 31
0.0
 11
22.3895560502
 21
21.9972518487
 31
0.0
 11
22.3991272468
 21
21.8997711479
 31
0.0
  0
LINE
  5
446
100
AcDbEntity
  8
0
100
AcDbLine
 62
7
  6
CONTINUOUS
 10
-11.3749843147
 20
-8.8335341496
 11
-11.1249845857
 21
-8.8335497656
  0
LINE
  5
447
100
AcDbEntity
  8
0
100
AcDbLine
 62
7
  6
CONTINUOUS
 10
-11.1250172711
 20
-14.1664667308
 11
-11.3750177261
 21
-14.1664491691
  0
SPLINE
  5
448
100
AcDbEntity
  8
RACCORDO
100
AcDbSpline
 62
253
  6
CONTINUOUS
 70
0
 71
3
 72
18
 73
14
 74
12
 42
0.0000001
 43
0.0000001
 44
0.0000000001
 12
0.4839185033
 22
0.0012415723
 32
0.0
 13
0.2545319531
 23
0.411572769
 33
0.0
 40
0.0
 40
0.0
 40
0.0
 40
0.0
 40
0.1929855483
 40
0.3782038868
 40
0.5485297732
 40
0.698141618
 40
0.8218281703
 40
0.872498673
 40
0.9151501778
 40
0.9494032317
 40
0.9749646405
 40
0.9917482692
 40
1.0
 40
1.0
 40
1.0
 40
1.0
 10
21.5286602181
 20
-20.8301238198
 30
0.0
 10
21.5597899774
 20
-20.8300439513
 30
0.0
 10
21.6207963684
 20
-20.8296465126
 30
0.0
 10
21.7092689777
 20
-20.8283445187
 30
0.0
 10
21.790733221
 20
-20.8263888271
 30
0.0
 10
21.862246022
 20
-20.8238519621
 30
0.0
 10
21.914450239
 20
-20.8212276811
 30
0.0
 10
21.9493590963
 20
-20.8187930678
 30
0.0
 10
21.9698906954
 20
-20.8170272058
 30
0.0
 10
21.9862448406
 20
-20.8151860463
 30
0.0
 10
21.9986521699
 20
-20.8134000468
 30
0.0
 10
22.0062604623
 20
-20.8115226542
 30
0.0
 10
22.0105354068
 20
-20.810150033
 30
0.0
 10
22.0112355165
 20
-20.8090179705
 30
0.0
 11
21.5286602181
 21
-20.8301238198
 31
0.0
 11
21.6220477734
 21
-20.8295080934
 31
0.0
 11
21.7116685807
 21
-20.8281646447
 31
0.0
 11
21.7940678581
 21
-20.8261411501
 31
0.0
 11
21.8664201603
 21
-20.8235086249
 31
0.0
 11
21.9261918315
 21
-20.8203625934
 31
0.0
 11
21.9506510846
 21
-20.8186309443
 31
0.0
 11
21.9712108176
 21
-20.8168133397
 31
0.0
 11
21.9876786422
 21
-20.8149249684
 31
0.0
 11
21.9998948717
 21
-20.8129826227
 31
0.0
 11
22.0077727807
 21
-20.8110066722
 31
0.0
 11
22.0112355165
 21
-20.8090179705
 31
0.0
  0
SPLINE
  5
449
100
AcDbEntity
  8
RACCORDO
100
AcDbSpline
 62
253
  6
CONTINUOUS
 70
0
 71
3
 72
18
 73
14
 74
12
 42
0.0000001
 43
0.0000001
 44
0.0000000001
 12
0.4839187565
 22
-0.0012415268
 32
0.0
 13
0.2546566065
 23
-0.4114959502
 33
0.0
 40
0.0
 40
0.0
 40
0.0
 40
0.0
 40
0.1929826284
 40
0.3781985689
 40
0.5485229246
 40
0.6981342821
 40
0.8218214193
 40
0.8724925962
 40
0.915145003
 40
0.9493991642
 40
0.9749618564
 40
0.9917468992
 40
1.0
 40
1.0
 40
1.0
 40
1.0
 10
21.5286597714
 20
20.8301232531
 30
0.0
 10
21.5597890759
 20
20.8300433888
 30
0.0
 10
21.620794641
 20
20.829645967
 30
0.0
 10
21.7092661926
 20
20.8283440241
 30
0.0
 10
21.7907297668
 20
20.8263884025
 30
0.0
 10
21.8622423791
 20
20.8238516176
 30
0.0
 10
21.9144467458
 20
20.8212274123
 30
0.0
 10
21.9493559846
 20
20.8187928643
 30
0.0
 10
21.9698880122
 20
20.8170270444
 30
0.0
 10
21.9862427565
 20
20.8151859085
 30
0.0
 10
21.9986505934
 20
20.8133999588
 30
0.0
 10
22.0062597904
 20
20.811522518
 30
0.0
 10
22.0105349452
 20
20.8101500009
 30
0.0
 10
22.011235514
 20
20.8090179618
 30
0.0
 11
21.5286597714
 21
20.8301232531
 31
0.0
 11
21.6220459627
 21
20.829507554
 31
0.0
 11
21.7116656571
 21
20.8281641592
 31
0.0
 11
21.7940642384
 21
20.8261407388
 31
0.0
 11
21.8664163457
 21
20.8235082995
 31
0.0
 11
21.9261883363
 21
20.8203623573
 31
0.0
 11
21.9506479324
 21
20.8186307518
 31
0.0
 11
21.9712081182
 21
20.8168131892
 31
0.0
 11
21.9876764955
 21
20.8149248578
 31
0.0
 11
21.9998933662
 21
20.8129825493
 31
0.0
 11
22.0077719938
 21
20.8110066328
 31
0.0
 11
22.011235514
 21
20.8090179618
 31
0.0
  0
SPLINE
  5
44A
100
AcDbEntity
  8
RACCORDO
100
AcDbSpline
 62
253
  6
CONTINUOUS
 70
0
 71
3
 72
18
 73
14
 74
12
 42
0.0000001
 43
0.0000001
 44
0.0000000001
 12
-0.4839185036
 22
-0.0012415722
 32
0.0
 13
-0.2545319379
 23
-0.4115727787
 33
0.0
 40
0.0
 40
0.0
 40
0.0
 40
0.0
 40
0.1929855485
 40
0.3782038873
 40
0.5485297738
 40
0.6981416186
 40
0.821828171
 40
0.8724986736
 40
0.9151501783
 40
0.9494032321
 40
0.9749646408
 40
0.9917482694
 40
1.0
 40
1.0
 40
1.0
 40
1.0
 10
-21.5286602179
 20
20.83012382
 30
0.0
 10
-21.5597899772
 20
20.8300439515
 30
0.0
 10
-21.6207963683
 20
20.8296465127
 30
0.0
 10
-21.7092689777
 20
20.8283445189
 30
0.0
 10
-21.7907332212
 20
20.8263888273
 30
0.0
 10
-21.8622460222
 20
20.8238519623
 30
0.0
 10
-21.9144502393
 20
20.8212276812
 30
0.0
 10
-21.9493590966
 20
20.8187930679
 30
0.0
 10
-21.9698906957
 20
20.8170272059
 30
0.0
 10
-21.9862448408
 20
20.8151860465
 30
0.0
 10
-21.9986521701
 20
20.8134000469
 30
0.0
 10
-22.0062604624
 20
20.8115226543
 30
0.0
 10
-22.0105354068
 20
20.8101500331
 30
0.0
 10
-22.0112355165
 20
20.8090179706
 30
0.0
 11
-21.5286602179
 21
20.83012382
 31
0.0
 11
-21.6220477733
 21
20.8295080936
 31
0.0
 11
-21.7116685808
 21
20.8281646448
 31
0.0
 11
-21.7940678583
 21
20.8261411502
 31
0.0
 11
-21.8664201606
 21
20.823508625
 31
0.0
 11
-21.9261918318
 21
20.8203625936
 31
0.0
 11
-21.9506510849
 21
20.8186309445
 31
0.0
 11
-21.9712108179
 21
20.8168133398
 31
0.0
 11
-21.9876786425
 21
20.8149249686
 31
0.0
 11
-21.9998948719
 21
20.8129826229
 31
0.0
 11
-22.0077727809
 21
20.8110066723
 31
0.0
 11
-22.0112355165
 21
20.8090179706
 31
0.0
  0
SPLINE
  5
44B
100
AcDbEntity
  8
RACCORDO
100
AcDbSpline
 62
253
  6
CONTINUOUS
 70
0
 71
3
 72
18
 73
14
 74
12
 42
0.0000001
 43
0.0000001
 44
0.0000000001
 12
-0.4839187564
 22
0.0012415268
 32
0.0
 13
-0.2546566097
 23
0.4114959482
 33
0.0
 40
0.0
 40
0.0
 40
0.0
 40
0.0
 40
0.1929826284
 40
0.3781985688
 40
0.5485229245
 40
0.698134282
 40
0.8218214192
 40
0.872492596
 40
0.9151450029
 40
0.9493991641
 40
0.9749618563
 40
0.9917468992
 40
1.0
 40
1.0
 40
1.0
 40
1.0
 10
-21.5286597714
 20
-20.8301232531
 30
0.0
 10
-21.5597890759
 20
-20.8300433888
 30
0.0
 10
-21.620794641
 20
-20.829645967
 30
0.0
 10
-21.7092661926
 20
-20.8283440241
 30
0.0
 10
-21.7907297668
 20
-20.8263884025
 30
0.0
 10
-21.862242379
 20
-20.8238516176
 30
0.0
 10
-21.9144467457
 20
-20.8212274123
 30
0.0
 10
-21.9493559845
 20
-20.8187928643
 30
0.0
 10
-21.9698880121
 20
-20.8170270444
 30
0.0
 10
-21.9862427565
 20
-20.8151859085
 30
0.0
 10
-21.9986505934
 20
-20.8133999588
 30
0.0
 10
-22.0062597904
 20
-20.811522518
 30
0.0
 10
-22.0105349451
 20
-20.810150001
 30
0.0
 10
-22.011235514
 20
-20.8090179618
 30
0.0
 11
-21.5286597714
 21
-20.8301232531
 31
0.0
 11
-21.6220459627
 21
-20.829507554
 31
0.0
 11
-21.7116656571
 21
-20.8281641592
 31
0.0
 11
-21.7940642384
 21
-20.8261407389
 31
0.0
 11
-21.8664163456
 21
-20.8235082995
 31
0.0
 11
-21.9261883363
 21
-20.8203623573
 31
0.0
 11
-21.9506479323
 21
-20.8186307518
 31
0.0
 11
-21.9712081182
 21
-20.8168131892
 31
0.0
 11
-21.9876764955
 21
-20.8149248578
 31
0.0
 11
-21.9998933662
 21
-20.8129825493
 31
0.0
 11
-22.0077719938
 21
-20.8110066328
 31
0.0
 11
-22.011235514
 21
-20.8090179618
 31
0.0
  0
LINE
  5
44C
100
AcDbEntity
  8
RACCORDO
100
AcDbLine
 62
253
  6
CONTINUOUS
 10
21.5292680107
 20
-21.9790966731
 11
21.5286602087
 21
-20.8301237924
  0
LINE
  5
44D
100
AcDbEntity
  8
RACCORDO
100
AcDbLine
 62
253
  6
CONTINUOUS
 10
-21.5286602242
 20
-20.8301237912
 11
-21.5292680061
 21
-21.9790966686
  0
LINE
  5
44E
100
AcDbEntity
  8
RACCORDO
100
AcDbLine
 62
253
  6
CONTINUOUS
 10
21.5286602242
 20
20.8301237906
 11
21.5292680061
 21
21.9790966685
  0
LINE
  5
44F
100
AcDbEntity
  8
RACCORDO
100
AcDbLine
 62
253
  6
CONTINUOUS
 10
-21.5292680107
 20
21.9790966732
 11
-21.528660208
 21
20.8301237918
  0
SPLINE
  5
450
100
AcDbEntity
  8
RACCORDO
100
AcDbSpline
 62
253
  6
CONTINUOUS
 70
0
 71
3
 72
20
 73
16
 74
14
 42
0.0000001
 43
0.0000001
 44
0.0000000001
 12
0.0007468239
 22
0.6710059459
 32
0.0
 13
0.4726617595
 23
0.4762776482
 33
0.0
 40
0.0
 40
0.0
 40
0.0
 40
0.0
 40
0.1939765982
 40
0.3795882719
 40
0.5502152287
 40
0.6999197971
 40
0.765248467
 40
0.8234397475
 40
0.8740056134
 40
0.9165001291
 40
0.9505634192
 40
0.9759125254
 40
0.9923565239
 40
0.9972475728
 40
1.0
 40
1.0
 40
1.0
 40
1.0
 10
22.0112355141
 20
20.8090179618
 30
0.0
 10
22.0112838029
 20
20.8524044453
 30
0.0
 10
22.0115835081
 20
20.9373063737
 30
0.0
 10
22.0126467419
 20
21.0603683347
 30
0.0
 10
22.0142789054
 20
21.1735209828
 30
0.0
 10
22.0161259385
 20
21.2597623272
 30
0.0
 10
22.0178967544
 20
21.3208490773
 30
0.0
 10
22.0192632038
 20
21.3597621581
 30
0.0
 10
22.0207085306
 20
21.3935643896
 30
0.0
 10
22.0222281465
 20
21.4219512045
 30
0.0
 10
22.0237674277
 20
21.4447119339
 30
0.0
 10
22.0253751446
 20
21.4615625361
 30
0.0
 10
22.0267237839
 20
21.4719987626
 30
0.0
 10
22.0280342184
 20
21.4771620293
 30
0.0
 10
22.0286630129
 20
21.4788310329
 30
0.0
 10
22.0290966685
 20
21.4792680061
 30
0.0
 11
22.0112355141
 21
20.8090179618
 31
0.0
 11
22.0117033976
 21
20.9391766521
 31
0.0
 11
22.0128008004
 21
21.0637184312
 31
0.0
 11
22.0144884817
 21
21.1781977652
 31
0.0
 11
22.0167063731
 21
21.2786259956
 31
0.0
 11
22.0179902838
 21
21.3224431424
 31
0.0
 11
22.0193761905
 21
21.3614652587
 31
0.0
 11
22.0208515473
 21
21.3953631852
 31
0.0
 11
22.0224032538
 21
21.4238350232
 31
0.0
 11
22.0240179786
 21
21.4466345996
 31
0.0
 11
22.0256821839
 21
21.4635624022
 31
0.0
 11
22.0273809094
 21
21.4744648834
 31
0.0
 11
22.0282377691
 21
21.4776329779
 31
0.0
 11
22.0290966685
 21
21.4792680061
 31
0.0
  0
SPLINE
  5
451
100
AcDbEntity
  8
RACCORDO
100
AcDbSpline
 62
253
  6
CONTINUOUS
 70
0
 71
3
 72
20
 73
16
 74
14
 42
0.0000001
 43
0.0000001
 44
0.0000000001
 12
-0.4726617783
 22
0.4762776239
 32
0.0
 13
-0.0007468238
 23
0.6710059418
 33
0.0
 40
0.0
 40
0.0
 40
0.0
 40
0.0
 40
0.0027524272
 40
0.0076434763
 40
0.0240874753
 40
0.0494365822
 40
0.0834998731
 40
0.1259943899
 40
0.1765602571
 40
0.2347515391
 40
0.3000802107
 40
0.4497847817
 40
0.6204117436
 40
0.8060234169
 40
1.0
 40
1.0
 40
1.0
 40
1.0
 10
22.0290966731
 20
-21.4792680107
 30
0.0
 10
22.0286630174
 20
-21.4788310375
 30
0.0
 10
22.028034223
 20
-21.4771620339
 30
0.0
 10
22.0267237884
 20
-21.4719987671
 30
0.0
 10
22.0253751492
 20
-21.4615625403
 30
0.0
 10
22.0237674323
 20
-21.4447119377
 30
0.0
 10
22.022228151
 20
-21.4219512079
 30
0.0
 10
22.0207085352
 20
-21.3935643924
 30
0.0
 10
22.0192632084
 20
-21.3597621604
 30
0.0
 10
22.017896759
 20
-21.3208490787
 30
0.0
 10
22.0161259431
 20
-21.2597623277
 30
0.0
 10
22.0142789098
 20
-21.1735209817
 30
0.0
 10
22.0126467467
 20
-21.0603683327
 30
0.0
 10
22.0115835132
 20
-20.9373063748
 30
0.0
 10
22.0112838052
 20
-20.8524044504
 30
0.0
 10
22.0112355165
 20
-20.8090179705
 30
0.0
 11
22.0290966731
 21
-21.4792680107
 31
0.0
 11
22.0282377737
 21
-21.4776329825
 31
0.0
 11
22.027380914
 21
-21.4744648879
 31
0.0
 11
22.0256821884
 21
-21.4635624064
 31
0.0
 11
22.0240179832
 21
-21.4466346034
 31
0.0
 11
22.0224032584
 21
-21.4238350266
 31
0.0
 11
22.0208515519
 21
-21.3953631882
 31
0.0
 11
22.0193761951
 21
-21.361465261
 31
0.0
 11
22.0179902883
 21
-21.3224431439
 31
0.0
 11
22.0167063777
 21
-21.2786259962
 31
0.0
 11
22.0144884863
 21
-21.1781977647
 31
0.0
 11
22.0128008052
 21
-21.0637184279
 31
0.0
 11
22.011703402
 21
-20.93917665
 31
0.0
 11
22.0112355165
 21
-20.8090179705
 31
0.0
  0
SPLINE
  5
452
100
AcDbEntity
  8
RACCORDO
100
AcDbSpline
 62
253
  6
CONTINUOUS
 70
0
 71
3
 72
20
 73
16
 74
14
 42
0.0000001
 43
0.0000001
 44
0.0000000001
 12
-0.0007468239
 22
-0.6710059459
 32
0.0
 13
-0.4726617595
 23
-0.4762776482
 33
0.0
 40
0.0
 40
0.0
 40
0.0
 40
0.0
 40
0.1939765981
 40
0.3795882718
 40
0.5502152287
 40
0.6999197971
 40
0.765248467
 40
0.8234397475
 40
0.8740056134
 40
0.9165001291
 40
0.9505634192
 40
0.9759125254
 40
0.9923565239
 40
0.9972475728
 40
1.0
 40
1.0
 40
1.0
 40
1.0
 10
-22.0112355141
 20
-20.8090179618
 30
0.0
 10
-22.0112838029
 20
-20.8524044453
 30
0.0
 10
-22.0115835081
 20
-20.9373063737
 30
0.0
 10
-22.0126467419
 20
-21.0603683347
 30
0.0
 10
-22.0142789054
 20
-21.1735209828
 30
0.0
 10
-22.0161259385
 20
-21.2597623273
 30
0.0
 10
-22.0178967544
 20
-21.3208490773
 30
0.0
 10
-22.0192632039
 20
-21.3597621582
 30
0.0
 10
-22.0207085306
 20
-21.3935643896
 30
0.0
 10
-22.0222281465
 20
-21.4219512045
 30
0.0
 10
-22.0237674278
 20
-21.4447119339
 30
0.0
 10
-22.0253751446
 20
-21.4615625361
 30
0.0
 10
-22.0267237839
 20
-21.4719987626
 30
0.0
 10
-22.0280342184
 20
-21.4771620293
 30
0.0
 10
-22.0286630129
 20
-21.4788310329
 30
0.0
 10
-22.0290966686
 20
-21.4792680061
 30
0.0
 11
-22.0112355141
 21
-20.8090179618
 31
0.0
 11
-22.0117033976
 21
-20.9391766521
 31
0.0
 11
-22.0128008005
 21
-21.0637184312
 31
0.0
 11
-22.0144884818
 21
-21.1781977652
 31
0.0
 11
-22.0167063731
 21
-21.2786259956
 31
0.0
 11
-22.0179902838
 21
-21.3224431424
 31
0.0
 11
-22.0193761905
 21
-21.3614652587
 31
0.0
 11
-22.0208515473
 21
-21.3953631852
 31
0.0
 11
-22.0224032538
 21
-21.4238350232
 31
0.0
 11
-22.0240179786
 21
-21.4466345996
 31
0.0
 11
-22.0256821839
 21
-21.4635624022
 31
0.0
 11
-22.0273809095
 21
-21.4744648834
 31
0.0
 11
-22.0282377691
 21
-21.4776329779
 31
0.0
 11
-22.0290966686
 21
-21.4792680061
 31
0.0
  0
SPLINE
  5
453
100
AcDbEntity
  8
RACCORDO
100
AcDbSpline
 62
253
  6
CONTINUOUS
 70
0
 71
3
 72
20
 73
16
 74
14
 42
0.0000001
 43
0.0000001
 44
0.0000000001
 12
0.4726617782
 22
-0.4762776238
 32
0.0
 13
0.0007468238
 23
-0.6710059417
 33
0.0
 40
0.0
 40
0.0
 40
0.0
 40
0.0
 40
0.0027524272
 40
0.0076434763
 40
0.0240874753
 40
0.0494365822
 40
0.0834998731
 40
0.1259943899
 40
0.1765602571
 40
0.2347515392
 40
0.3000802108
 40
0.4497847818
 40
0.6204117438
 40
0.8060234171
 40
1.0
 40
1.0
 40
1.0
 40
1.0
 10
-22.0290966732
 20
21.4792680107
 30
0.0
 10
-22.0286630175
 20
21.4788310376
 30
0.0
 10
-22.028034223
 20
21.477162034
 30
0.0
 10
-22.0267237885
 20
21.4719987672
 30
0.0
 10
-22.0253751493
 20
21.4615625403
 30
0.0
 10
-22.0237674324
 20
21.4447119378
 30
0.0
 10
-22.0222281511
 20
21.4219512079
 30
0.0
 10
-22.0207085352
 20
21.3935643925
 30
0.0
 10
-22.0192632085
 20
21.3597621604
 30
0.0
 10
-22.017896759
 20
21.3208490787
 30
0.0
 10
-22.0161259432
 20
21.2597623277
 30
0.0
 10
-22.0142789099
 20
21.1735209817
 30
0.0
 10
-22.0126467468
 20
21.0603683327
 30
0.0
 10
-22.0115835133
 20
20.9373063748
 30
0.0
 10
-22.0112838053
 20
20.8524044505
 30
0.0
 10
-22.0112355165
 20
20.8090179706
 30
0.0
 11
-22.0290966732
 21
21.4792680107
 31
0.0
 11
-22.0282377737
 21
21.4776329826
 31
0.0
 11
-22.0273809141
 21
21.474464888
 31
0.0
 11
-22.0256821885
 21
21.4635624065
 31
0.0
 11
-22.0240179833
 21
21.4466346035
 31
0.0
 11
-22.0224032584
 21
21.4238350267
 31
0.0
 11
-22.0208515519
 21
21.3953631882
 31
0.0
 11
-22.0193761951
 21
21.361465261
 31
0.0
 11
-22.0179902884
 21
21.3224431439
 31
0.0
 11
-22.0167063778
 21
21.2786259962
 31
0.0
 11
-22.0144884863
 21
21.1781977647
 31
0.0
 11
-22.0128008053
 21
21.0637184279
 31
0.0
 11
-22.0117034021
 21
20.9391766499
 31
0.0
 11
-22.0112355165
 21
20.8090179706
 31
0.0
  0
SPLINE
  5
454
100
AcDbEntity
  8
RACCORDO
100
AcDbSpline
 62
253
  6
CONTINUOUS
 70
0
 71
3
 72
9
 73
5
 74
3
 42
0.0000001
 43
0.0000001
 44
0.0000000001
 12
43.0585216031
 22
0.0390847594
 32
0.0
 13
43.0585216032
 23
-0.0390847084
 33
0.0
 40
0.0
 40
0.0
 40
0.0
 40
0.0
 40
0.2499623056
 40
1.0
 40
1.0
 40
1.0
 40
1.0
 10
-21.5292680065
 20
-21.979096669
 30
0.0
 10
-17.9415988943
 20
-21.9758400968
 30
0.0
 10
-3.5887555871
 20
-21.9660709515
 30
0.0
 10
10.7640965885
 20
-21.9693250049
 30
0.0
 10
21.5292680107
 20
-21.9790966731
 30
0.0
 11
-21.5292680065
 21
-21.979096669
 31
0.0
 11
-10.7662587296
 21
-21.9717699651
 31
0.0
 11
21.5292680107
 21
-21.9790966731
 31
0.0
  0
SPLINE
  5
455
100
AcDbEntity
  8
RACCORDO
100
AcDbSpline
 62
253
  6
CONTINUOUS
 70
0
 71
3
 72
9
 73
5
 74
3
 42
0.0000001
 43
0.0000001
 44
0.0000000001
 12
-43.0585216032
 22
-0.0390847593
 32
0.0
 13
-43.0585216032
 23
0.0390847063
 33
0.0
 40
0.0
 40
0.0
 40
0.0
 40
0.0
 40
0.2499623056
 40
1.0
 40
1.0
 40
1.0
 40
1.0
 10
21.5292680065
 20
21.9790966689
 30
0.0
 10
17.9415988946
 20
21.9758400968
 30
0.0
 10
3.5887555875
 20
21.9660709513
 30
0.0
 10
-10.7640965881
 20
21.9693250055
 30
0.0
 10
-21.5292680107
 20
21.9790966732
 30
0.0
 11
21.5292680065
 21
21.9790966689
 31
0.0
 11
10.7662587307
 21
21.9717699651
 31
0.0
 11
-21.5292680107
 21
21.9790966732
 31
0.0
  0
SPLINE
  5
456
100
AcDbEntity
  8
RACCORDO
100
AcDbSpline
 62
253
  6
CONTINUOUS
 70
0
 71
3
 72
9
 73
5
 74
3
 42
0.0000001
 43
0.0000001
 44
0.0000000001
 12
0.027019512
 22
-41.6602404684
 32
0.0
 13
-0.0270195137
 23
-41.6602404684
 33
0.0
 40
0.0
 40
0.0
 40
0.0
 40
0.0
 40
0.2499433183
 40
1.0
 40
1.0
 40
1.0
 40
1.0
 10
-21.528660218
 20
20.8301237974
 30
0.0
 10
-21.5264091025
 20
17.3592242165
 30
0.0
 10
-21.5196489052
 20
3.4724760272
 30
0.0
 10
-21.5219048312
 20
-10.4142765472
 30
0.0
 10
-21.5286602202
 20
-20.8301237891
 30
0.0
 11
-21.528660218
 21
20.8301237974
 31
0.0
 11
-21.5235930224
 21
10.4174240977
 31
0.0
 11
-21.5286602202
 21
-20.8301237891
 31
0.0
  0
LINE
  5
457
100
AcDbEntity
  8
RACCORDO
100
AcDbLine
 62
253
  6
CONTINUOUS
 10
21.5286583084
 20
20.8314684802
 11
-21.5286583062
 21
20.8314684802
  0
SPLINE
  5
458
100
AcDbEntity
  8
RACCORDO
100
AcDbSpline
 62
253
  6
CONTINUOUS
 70
0
 71
3
 72
9
 73
5
 74
3
 42
0.0000001
 43
0.0000001
 44
0.0000000001
 12
-0.0270195137
 22
41.6602404682
 32
0.0
 13
0.0270195119
 23
41.6602404682
 33
0.0
 40
0.0
 40
0.0
 40
0.0
 40
0.0
 40
0.2499433183
 40
1.0
 40
1.0
 40
1.0
 40
1.0
 10
21.5286602182
 20
-20.8301237979
 30
0.0
 10
21.5264091026
 20
-17.359224217
 30
0.0
 10
21.5196489052
 20
-3.4724760278
 30
0.0
 10
21.5219048316
 20
10.4142765466
 30
0.0
 10
21.5286602201
 20
20.8301237885
 30
0.0
 11
21.5286602182
 21
-20.8301237979
 31
0.0
 11
21.5235930225
 21
-10.4174240983
 31
0.0
 11
21.5286602201
 21
20.8301237885
 31
0.0
  0
LINE
  5
459
100
AcDbEntity
  8
RACCORDO
100
AcDbLine
 62
253
  6
CONTINUOUS
 10
-21.5286583084
 20
-20.8314684661
 11
21.5286583065
 21
-20.8314684661
  0
LINE
  5
45A
100
AcDbEntity
  8
RACCORDO
100
AcDbLine
 62
253
  6
CONTINUOUS
 10
-51.0885681295
 20
-20.8318713981
 11
-50.716707963
 21
-20.8314684661
  0
LINE
  5
45B
100
AcDbEntity
  8
RACCORDO
100
AcDbLine
 62
253
  6
CONTINUOUS
 10
-50.7167079623
 20
20.8314684802
 11
-51.0885681287
 21
20.8318714123
  0
SPLINE
  5
45C
100
AcDbEntity
  8
RACCORDO
100
AcDbSpline
 62
253
  6
CONTINUOUS
 70
0
 71
3
 72
20
 73
16
 74
14
 42
0.0000001
 43
0.0000001
 44
0.0000000001
 12
-0.5002087938
 22
-0.0130984282
 32
0.0
 13
0.0130894589
 23
-0.5002090286
 33
0.0
 40
0.0
 40
0.0
 40
0.0
 40
0.0
 40
0.0017601587
 40
0.0055960803
 40
0.0201987668
 40
0.0441136197
 40
0.0772179138
 40
0.1191811341
 40
0.1695848502
 40
0.2279973203
 40
0.2938475646
 40
0.4451452223
 40
0.6177668842
 40
0.8053187251
 40
1.0
 40
1.0
 40
1.0
 40
1.0
 10
-49.5485069627
 20
21.9790966685
 30
0.0
 10
-49.5488004449
 20
21.9790889834
 30
0.0
 10
-49.5493845693
 20
21.978087959
 30
0.0
 10
-49.5501336568
 20
21.9750407697
 30
0.0
 10
-49.5510688701
 20
21.9677921071
 30
0.0
 10
-49.5518814879
 20
21.9560074199
 30
0.0
 10
-49.5526244711
 20
21.9394546741
 30
0.0
 10
-49.5531986555
 20
21.9185565578
 30
0.0
 10
-49.5536213738
 20
21.8934028704
 30
0.0
 10
-49.5538717838
 20
21.8642731026
 30
0.0
 10
-49.5539807396
 20
21.8183102836
 30
0.0
 10
-49.5536319395
 20
21.7532999234
 30
0.0
 10
-49.5525656707
 20
21.6679958208
 30
0.0
 10
-49.5508617467
 20
21.5754649837
 30
0.0
 10
-49.5493563868
 20
21.5117284499
 30
0.0
 10
-49.5485069627
 20
21.4792680061
 30
0.0
 11
-49.5485069627
 21
21.9790966685
 31
0.0
 11
-49.5491306425
 21
21.978474783
 31
0.0
 11
-49.5497223887
 21
21.9766488565
 31
0.0
 11
-49.5508038152
 21
21.9694224295
 31
0.0
 11
-49.5517387112
 21
21.9574924849
 31
0.0
 11
-49.5525151997
 21
21.9409459588
 31
0.0
 11
-49.5531262352
 21
21.9199572843
 31
0.0
 11
-49.5535669376
 21
21.8947401102
 31
0.0
 11
-49.5538326123
 21
21.8655128706
 31
0.0
 11
-49.553921188
 21
21.8325628272
 31
0.0
 11
-49.5535669389
 21
21.7568572945
 31
0.0
 11
-49.5525152022
 21
21.6704872254
 31
0.0
 11
-49.5508038174
 21
21.5766555918
 31
0.0
 11
-49.5485069627
 21
21.4792680061
 31
0.0
  0
SPLINE
  5
45D
100
AcDbEntity
  8
RACCORDO
100
AcDbSpline
 62
253
  6
CONTINUOUS
 70
0
 71
3
 72
20
 73
16
 74
14
 42
0.0000001
 43
0.0000001
 44
0.0000000001
 12
-0.5002087967
 22
0.0130984283
 32
0.0
 13
0.0130894964
 23
0.5002090305
 33
0.0
 40
0.0
 40
0.0
 40
0.0
 40
0.0
 40
0.0017601617
 40
0.0055960857
 40
0.0201987771
 40
0.0441136341
 40
0.0772179332
 40
0.1191811617
 40
0.1695848846
 40
0.2279973575
 40
0.2938476078
 40
0.4451452729
 40
0.6177669273
 40
0.8053187393
 40
1.0
 40
1.0
 40
1.0
 40
1.0
 10
-49.5485067871
 20
-21.9790966731
 30
0.0
 10
-49.5488002699
 20
-21.979088988
 30
0.0
 10
-49.5493843962
 20
-21.9780879641
 30
0.0
 10
-49.550133486
 20
-21.9750407725
 30
0.0
 10
-49.5510687022
 20
-21.9677921093
 30
0.0
 10
-49.5518813224
 20
-21.9560074192
 30
0.0
 10
-49.552624308
 20
-21.9394546708
 30
0.0
 10
-49.5531984939
 20
-21.9185565511
 30
0.0
 10
-49.5536212134
 20
-21.8934028605
 30
0.0
 10
-49.553871624
 20
-21.86427309
 30
0.0
 10
-49.5539805798
 20
-21.8183102681
 30
0.0
 10
-49.5536317785
 20
-21.7532999064
 30
0.0
 10
-49.5525655063
 20
-21.6679958083
 30
0.0
 10
-49.5508615776
 20
-21.5754649792
 30
0.0
 10
-49.5493562136
 20
-21.5117284522
 30
0.0
 10
-49.5485067871
 20
-21.4792680107
 30
0.0
 11
-49.5485067871
 21
-21.9790966731
 31
0.0
 11
-49.5491304688
 21
-21.9784747873
 31
0.0
 11
-49.5497222168
 21
-21.9766488601
 31
0.0
 11
-49.5508036465
 21
-21.9694224311
 31
0.0
 11
-49.5517385453
 21
-21.9574924845
 31
0.0
 11
-49.5525150362
 21
-21.9409459561
 31
0.0
 11
-49.5531260735
 21
-21.9199572773
 31
0.0
 11
-49.553566777
 21
-21.8947400997
 31
0.0
 11
-49.5538324524
 21
-21.8655128586
 31
0.0
 11
-49.5539210282
 21
-21.8325628119
 31
0.0
 11
-49.5535667776
 21
-21.7568572751
 31
0.0
 11
-49.5525150377
 21
-21.6704872093
 31
0.0
 11
-49.5508036482
 21
-21.5766555897
 31
0.0
 11
-49.5485067871
 21
-21.4792680107
 31
0.0
  0
SPLINE
  5
45E
100
AcDbEntity
  8
0
100
AcDbSpline
 62
7
  6
CONTINUOUS
 70
0
 71
3
 72
13
 73
9
 74
7
 42
0.0000001
 43
0.0000001
 44
0.0000000001
 12
-0.2489101548
 22
-0.143711993
 32
0.0
 13
-0.244355276
 23
-0.1513687366
 33
0.0
 40
0.0
 40
0.0
 40
0.0
 40
0.0
 40
0.3612210663
 40
0.682170423
 40
0.812667465
 40
0.9137049675
 40
0.9780318448
 40
1.0
 40
1.0
 40
1.0
 40
1.0
 10
-42.5828494432
 20
23.2669872981
 30
0.0
 10
-42.6128199737
 20
23.249683365
 30
0.0
 10
-42.6694073493
 20
23.2169831279
 30
0.0
 10
-42.7367716402
 20
23.1779450624
 30
0.0
 10
-42.7825506086
 20
23.1513733071
 30
0.0
 10
-42.8070170879
 20
23.1370619739
 30
0.0
 10
-42.822544675
 20
23.1280587384
 30
0.0
 10
-42.8296056655
 20
23.1237581614
 30
0.0
 10
-42.8313950104
 20
23.1226497308
 30
0.0
 11
-42.5828494432
 21
23.2669872981
 31
0.0
 11
-42.6727366526
 21
23.2150332915
 31
0.0
 11
-42.7525513442
 21
23.1687830511
 31
0.0
 11
-42.7849795325
 21
23.1499360992
 31
0.0
 11
-42.8100647586
 21
23.1353054509
 31
0.0
 11
-42.8260046778
 21
23.1259378303
 31
0.0
 11
-42.8313950104
 21
23.1226497308
 31
0.0
  0
SPLINE
  5
45F
100
AcDbEntity
  8
0
100
AcDbSpline
 62
253
  6
CONTINUOUS
 70
0
 71
3
 72
26
 73
22
 74
20
 42
0.0000001
 43
0.0000001
 44
0.0000000001
 12
-0.124641584
 22
-0.2158928633
 32
0.0
 13
0.2158910366
 23
-0.124644748
 33
0.0
 40
0.0
 40
0.0
 40
0.0
 40
0.0
 40
0.1952371571
 40
0.3828765725
 40
0.5557521165
 40
0.6345528919
 40
0.7072369656
 40
0.7731083045
 40
0.8315338818
 40
0.8819524705
 40
0.9238825345
 40
0.9415345162
 40
0.9569212041
 40
0.9700029814
 40
0.9807505693
 40
0.9891391953
 40
0.9951465425
 40
0.9972538056
 40
0.9987627805
 40
0.9996743239
 40
1.0
 40
1.0
 40
1.0
 40
1.0
 10
-43.5828494432
 20
23.8443375673
 30
0.0
 10
-43.5909609994
 20
23.8302874643
 30
0.0
 10
-43.6068550717
 20
23.8027262996
 30
0.0
 10
-43.6298851477
 20
23.7626974834
 30
0.0
 10
-43.64805448
 20
23.7310346506
 30
0.0
 10
-43.6614441415
 20
23.7076424988
 30
0.0
 10
-43.6704037819
 20
23.6919598928
 30
0.0
 10
-43.6785096792
 20
23.6777394869
 30
0.0
 10
-43.6856841754
 20
23.6651178186
 30
0.0
 10
-43.6918584756
 20
23.6542160512
 30
0.0
 10
-43.696346372
 20
23.6462528792
 30
0.0
 10
-43.6993909135
 20
23.6408180126
 30
0.0
 10
-43.7012570386
 20
23.6374702745
 30
0.0
 10
-43.7028348329
 20
23.6346199041
 30
0.0
 10
-43.7041241095
 20
23.6322710394
 30
0.0
 10
-43.7051129227
 20
23.6304369747
 30
0.0
 10
-43.7057628297
 20
23.6292158937
 30
0.0
 10
-43.7061104743
 20
23.6285132656
 30
0.0
 10
-43.7062940446
 20
23.6281552613
 30
0.0
 10
-43.7063470761
 20
23.627979116
 30
0.0
 10
-43.7064184472
 20
23.6278447476
 30
0.0
 10
-43.7063950104
 20
23.6278312164
 30
0.0
 11
-43.5828494432
 21
23.8443375673
 31
0.0
 11
-43.6071632249
 21
23.8021752067
 31
0.0
 11
-43.6304890227
 21
23.761629536
 31
0.0
 11
-43.6519359793
 21
23.7242490838
 31
0.0
 11
-43.6616942137
 21
23.7071999878
 31
0.0
 11
-43.6706819274
 21
23.6914668129
 31
0.0
 11
-43.6788130478
 21
23.6772002365
 31
0.0
 11
-43.6860094218
 21
23.664537377
 31
0.0
 11
-43.6922019073
 21
23.6535998967
 31
0.0
 11
-43.6973313415
 21
23.644492298
 31
0.0
 11
-43.6994815053
 21
23.6406529246
 31
0.0
 11
-43.7013483987
 21
23.6373021623
 31
0.0
 11
-43.7029271934
 21
23.6344486549
 31
0.0
 11
-43.7042143402
 21
23.632098827
 31
0.0
 11
-43.7052068339
 21
23.6302581591
 31
0.0
 11
-43.7059019353
 21
23.6289316804
 31
0.0
 11
-43.7061375131
 21
23.6284621459
 31
0.0
 11
-43.706298293
 21
23.6281220652
 31
0.0
 11
-43.7063841628
 21
23.627911676
 31
0.0
 11
-43.7063950104
 21
23.6278312164
 31
0.0
  0
SPLINE
  5
460
100
AcDbEntity
  8
0
100
AcDbSpline
 62
253
  6
CONTINUOUS
 70
0
 71
3
 72
26
 73
22
 74
20
 42
0.0000001
 43
0.0000001
 44
0.0000000001
 12
0.124641584
 22
-0.2158928633
 32
0.0
 13
-0.2158910365
 23
-0.1246447481
 33
0.0
 40
0.0
 40
0.0
 40
0.0
 40
0.0
 40
0.1952373303
 40
0.3828767077
 40
0.5557522251
 40
0.6345529812
 40
0.7072370395
 40
0.7731083627
 40
0.8315339236
 40
0.8819525002
 40
0.9238825542
 40
0.9415345305
 40
0.9569212142
 40
0.9700029891
 40
0.9807505739
 40
0.9891391978
 40
0.995146544
 40
0.9972538066
 40
0.998762781
 40
0.999674324
 40
1.0
 40
1.0
 40
1.0
 40
1.0
 10
-40.5799405776
 20
23.8443375673
 30
0.0
 10
-40.5718290142
 20
23.8302874519
 30
0.0
 10
-40.5559349363
 20
23.8027262774
 30
0.0
 10
-40.5329048558
 20
23.7626974533
 30
0.0
 10
-40.514735527
 20
23.7310346265
 30
0.0
 10
-40.501345868
 20
23.7076424792
 30
0.0
 10
-40.4923862298
 20
23.6919598769
 30
0.0
 10
-40.4842803344
 20
23.6777394743
 30
0.0
 10
-40.4771058401
 20
23.6651178092
 30
0.0
 10
-40.4709315414
 20
23.6542160446
 30
0.0
 10
-40.4664436462
 20
23.6462528745
 30
0.0
 10
-40.4633991055
 20
23.6408180094
 30
0.0
 10
-40.4615329809
 20
23.6374702721
 30
0.0
 10
-40.4599551869
 20
23.6346199025
 30
0.0
 10
-40.4586659107
 20
23.6322710383
 30
0.0
 10
-40.4576770977
 20
23.630436974
 30
0.0
 10
-40.4570271908
 20
23.6292158934
 30
0.0
 10
-40.4566795464
 20
23.6285132654
 30
0.0
 10
-40.4564959761
 20
23.6281552612
 30
0.0
 10
-40.4564429447
 20
23.627979116
 30
0.0
 10
-40.4563715736
 20
23.6278447476
 30
0.0
 10
-40.4563950104
 20
23.6278312164
 30
0.0
 11
-40.5799405776
 21
23.8443375673
 31
0.0
 11
-40.5556267744
 21
23.8021751692
 31
0.0
 11
-40.5323009813
 21
23.7616295068
 31
0.0
 11
-40.510854028
 21
23.7242490603
 31
0.0
 11
-40.501095796
 21
23.7071999685
 31
0.0
 11
-40.4921080842
 21
23.6914667969
 31
0.0
 11
-40.4839769658
 21
23.6772002239
 31
0.0
 11
-40.4767805938
 21
23.6645373679
 31
0.0
 11
-40.4705881099
 21
23.6535998903
 31
0.0
 11
-40.4654586769
 21
23.6444922937
 31
0.0
 11
-40.4633085137
 21
23.6406529215
 31
0.0
 11
-40.4614416209
 21
23.6373021601
 31
0.0
 11
-40.4598628265
 21
23.6344486533
 31
0.0
 11
-40.45857568
 21
23.632098826
 31
0.0
 11
-40.4575831866
 21
23.6302581585
 31
0.0
 11
-40.4568880853
 21
23.6289316801
 31
0.0
 11
-40.4566525075
 21
23.6284621457
 31
0.0
 11
-40.4564917277
 21
23.628122065
 31
0.0
 11
-40.456405858
 21
23.627911676
 31
0.0
 11
-40.4563950104
 21
23.6278312164
 31
0.0
  0
SPLINE
  5
461
100
AcDbEntity
  8
0
100
AcDbSpline
 62
253
  6
CONTINUOUS
 70
0
 71
3
 72
26
 73
22
 74
20
 42
0.0000001
 43
0.0000001
 44
0.0000000001
 12
0.124641584
 22
0.2158928634
 32
0.0
 13
-0.2158910366
 23
0.1246447481
 33
0.0
 40
0.0
 40
0.0
 40
0.0
 40
0.0
 40
0.1952373367
 40
0.3828767197
 40
0.5557522426
 40
0.6345529999
 40
0.7072370592
 40
0.7731083831
 40
0.8315339428
 40
0.8819525183
 40
0.923882571
 40
0.941534545
 40
0.956921227
 40
0.9700030008
 40
0.9807505828
 40
0.9891392048
 40
0.9951465495
 40
0.9972538103
 40
0.9987627829
 40
0.9996743245
 40
1.0
 40
1.0
 40
1.0
 40
1.0
 10
-40.5799405776
 20
-23.8443375673
 30
0.0
 10
-40.5718290139
 20
-23.8302874514
 30
0.0
 10
-40.5559349355
 20
-23.8027262761
 30
0.0
 10
-40.5329048543
 20
-23.7626974507
 30
0.0
 10
-40.514735525
 20
-23.7310346231
 30
0.0
 10
-40.5013458657
 20
-23.7076424751
 30
0.0
 10
-40.4923862273
 20
-23.6919598726
 30
0.0
 10
-40.484280332
 20
-23.67773947
 30
0.0
 10
-40.4771058377
 20
-23.665117805
 30
0.0
 10
-40.4709315392
 20
-23.6542160407
 30
0.0
 10
-40.4664436442
 20
-23.646252871
 30
0.0
 10
-40.4633991037
 20
-23.6408180062
 30
0.0
 10
-40.4615329794
 20
-23.6374702693
 30
0.0
 10
-40.4599551856
 20
-23.6346199
 30
0.0
 10
-40.4586659096
 20
-23.6322710363
 30
0.0
 10
-40.4576770969
 20
-23.6304369725
 30
0.0
 10
-40.4570271902
 20
-23.6292158922
 30
0.0
 10
-40.4566795459
 20
-23.6285132646
 30
0.0
 10
-40.4564959759
 20
-23.6281552608
 30
0.0
 10
-40.4564429445
 20
-23.6279791158
 30
0.0
 10
-40.4563715736
 20
-23.6278447476
 30
0.0
 10
-40.4563950104
 20
-23.6278312164
 30
0.0
 11
-40.5799405776
 21
-23.8443375673
 31
0.0
 11
-40.5556267736
 21
-23.8021751679
 31
0.0
 11
-40.5323009798
 21
-23.7616295042
 31
0.0
 11
-40.5108540258
 21
-23.7242490565
 31
0.0
 11
-40.5010957937
 21
-23.7071999644
 31
0.0
 11
-40.4921080818
 21
-23.6914667926
 31
0.0
 11
-40.4839769633
 21
-23.6772002194
 31
0.0
 11
-40.4767805915
 21
-23.6645373638
 31
0.0
 11
-40.4705881076
 21
-23.6535998863
 31
0.0
 11
-40.4654586748
 21
-23.6444922901
 31
0.0
 11
-40.463308512
 21
-23.6406529184
 31
0.0
 11
-40.4614416194
 21
-23.6373021573
 31
0.0
 11
-40.4598628251
 21
-23.6344486507
 31
0.0
 11
-40.458575679
 21
-23.632098824
 31
0.0
 11
-40.4575831857
 21
-23.630258157
 31
0.0
 11
-40.4568880847
 21
-23.6289316788
 31
0.0
 11
-40.4566525071
 21
-23.6284621448
 31
0.0
 11
-40.4564917275
 21
-23.6281220646
 31
0.0
 11
-40.4564058579
 21
-23.6279116759
 31
0.0
 11
-40.4563950104
 21
-23.6278312164
 31
0.0
  0
LINE
  5
462
100
AcDbEntity
  8
RACCORDO
100
AcDbLine
 62
253
  6
CONTINUOUS
 10
-29.4629909815
 20
18.5521029846
 11
-29.527904534
 21
19.0166572575
  0
SPLINE
  5
463
100
AcDbEntity
  8
0
100
AcDbSpline
 62
253
  6
CONTINUOUS
 70
0
 71
3
 72
26
 73
22
 74
20
 42
0.0000001
 43
0.0000001
 44
0.0000000001
 12
-0.124641584
 22
0.2158928633
 32
0.0
 13
0.2158910365
 23
0.1246447481
 33
0.0
 40
0.0
 40
0.0
 40
0.0
 40
0.0
 40
0.1952373303
 40
0.3828767077
 40
0.5557522251
 40
0.6345529812
 40
0.7072370395
 40
0.7731083627
 40
0.8315339236
 40
0.8819525002
 40
0.9238825542
 40
0.9415345305
 40
0.9569212142
 40
0.9700029891
 40
0.9807505739
 40
0.9891391978
 40
0.995146544
 40
0.9972538066
 40
0.998762781
 40
0.999674324
 40
1.0
 40
1.0
 40
1.0
 40
1.0
 10
-43.5828494432
 20
-23.8443375673
 30
0.0
 10
-43.5909610066
 20
-23.8302874519
 30
0.0
 10
-43.6068550845
 20
-23.8027262774
 30
0.0
 10
-43.629885165
 20
-23.7626974533
 30
0.0
 10
-43.6480544938
 20
-23.7310346265
 30
0.0
 10
-43.6614441527
 20
-23.7076424792
 30
0.0
 10
-43.670403791
 20
-23.6919598769
 30
0.0
 10
-43.6785096864
 20
-23.6777394743
 30
0.0
 10
-43.6856841807
 20
-23.6651178092
 30
0.0
 10
-43.6918584794
 20
-23.6542160446
 30
0.0
 10
-43.6963463746
 20
-23.6462528745
 30
0.0
 10
-43.6993909153
 20
-23.6408180094
 30
0.0
 10
-43.7012570399
 20
-23.6374702721
 30
0.0
 10
-43.7028348338
 20
-23.6346199025
 30
0.0
 10
-43.7041241101
 20
-23.6322710383
 30
0.0
 10
-43.705112923
 20
-23.630436974
 30
0.0
 10
-43.7057628299
 20
-23.6292158934
 30
0.0
 10
-43.7061104744
 20
-23.6285132654
 30
0.0
 10
-43.7062940447
 20
-23.6281552612
 30
0.0
 10
-43.7063470761
 20
-23.627979116
 30
0.0
 10
-43.7064184472
 20
-23.6278447476
 30
0.0
 10
-43.7063950104
 20
-23.6278312164
 30
0.0
 11
-43.5828494432
 21
-23.8443375673
 31
0.0
 11
-43.6071632464
 21
-23.8021751692
 31
0.0
 11
-43.6304890395
 21
-23.7616295068
 31
0.0
 11
-43.6519359928
 21
-23.7242490603
 31
0.0
 11
-43.6616942248
 21
-23.7071999685
 31
0.0
 11
-43.6706819366
 21
-23.6914667969
 31
0.0
 11
-43.678813055
 21
-23.6772002239
 31
0.0
 11
-43.686009427
 21
-23.6645373679
 31
0.0
 11
-43.6922019109
 21
-23.6535998903
 31
0.0
 11
-43.6973313439
 21
-23.6444922937
 31
0.0
 11
-43.6994815071
 21
-23.6406529215
 31
0.0
 11
-43.7013483999
 21
-23.6373021601
 31
0.0
 11
-43.7029271943
 21
-23.6344486533
 31
0.0
 11
-43.7042143408
 21
-23.632098826
 31
0.0
 11
-43.7052068342
 21
-23.6302581585
 31
0.0
 11
-43.7059019355
 21
-23.6289316801
 31
0.0
 11
-43.7061375133
 21
-23.6284621457
 31
0.0
 11
-43.7062982931
 21
-23.628122065
 31
0.0
 11
-43.7063841628
 21
-23.627911676
 31
0.0
 11
-43.7063950104
 21
-23.6278312164
 31
0.0
  0
SPLINE
  5
464
100
AcDbEntity
  8
0
100
AcDbSpline
 62
7
  6
CONTINUOUS
 70
0
 71
3
 72
13
 73
9
 74
7
 42
0.0000001
 43
0.0000001
 44
0.0000000001
 12
-0.2489101548
 22
0.143711993
 32
0.0
 13
-0.244355276
 23
0.1513687366
 33
0.0
 40
0.0
 40
0.0
 40
0.0
 40
0.0
 40
0.3612210663
 40
0.682170423
 40
0.812667465
 40
0.9137049675
 40
0.9780318448
 40
1.0
 40
1.0
 40
1.0
 40
1.0
 10
-42.5828494432
 20
-23.2669872981
 30
0.0
 10
-42.6128199737
 20
-23.249683365
 30
0.0
 10
-42.6694073493
 20
-23.2169831279
 30
0.0
 10
-42.7367716402
 20
-23.1779450624
 30
0.0
 10
-42.7825506086
 20
-23.1513733071
 30
0.0
 10
-42.8070170879
 20
-23.1370619739
 30
0.0
 10
-42.822544675
 20
-23.1280587384
 30
0.0
 10
-42.8296056655
 20
-23.1237581614
 30
0.0
 10
-42.8313950104
 20
-23.1226497308
 30
0.0
 11
-42.5828494432
 21
-23.2669872981
 31
0.0
 11
-42.6727366526
 21
-23.2150332915
 31
0.0
 11
-42.7525513442
 21
-23.1687830511
 31
0.0
 11
-42.7849795325
 21
-23.1499360992
 31
0.0
 11
-42.8100647586
 21
-23.1353054509
 31
0.0
 11
-42.8260046778
 21
-23.1259378303
 31
0.0
 11
-42.8313950104
 21
-23.1226497308
 31
0.0
  0
LINE
  5
465
100
AcDbEntity
  8
RACCORDO
100
AcDbLine
 62
253
  6
CONTINUOUS
 10
-29.527904534
 20
-19.0166572575
 11
-29.4629909815
 21
-18.5521029846
  0
SPLINE
  5
466
100
AcDbEntity
  8
0
100
AcDbSpline
 62
253
  6
CONTINUOUS
 70
0
 71
3
 72
26
 73
22
 74
20
 42
0.0000001
 43
0.0000001
 44
0.0000000001
 12
0.0014544634
 22
-0.2500094792
 32
0.0
 13
-0.2500094789
 23
-0.0014545126
 33
0.0
 40
0.0
 40
0.0
 40
0.0
 40
0.0
 40
0.195080196
 40
0.3826515393
 40
0.5555245815
 40
0.6343411269
 40
0.7070484192
 40
0.7729476609
 40
0.831403253
 40
0.881851676
 40
0.9238093952
 40
0.9414738478
 40
0.9568718917
 40
0.9699637695
 40
0.9807201068
 40
0.9891161374
 40
0.9951296516
 40
0.997239688
 40
0.9987514623
 40
0.9996664469
 40
1.0
 40
1.0
 40
1.0
 40
1.0
 10
-40.5799405776
 20
-24.2456323968
 30
0.0
 10
-40.5798459986
 20
-24.2618896962
 30
0.0
 10
-40.5796783938
 20
-24.2937786412
 30
0.0
 10
-40.5794891474
 20
-24.3400745182
 30
0.0
 10
-40.579387163
 20
-24.3766814763
 30
0.0
 10
-40.5793456187
 20
-24.403716003
 30
0.0
 10
-40.5793349304
 20
-24.4218355876
 30
0.0
 10
-40.5793437044
 20
-24.4382583307
 30
0.0
 10
-40.5793716871
 20
-24.4528260562
 30
0.0
 10
-40.5794185229
 20
-24.46539845
 30
0.0
 10
-40.5794749656
 20
-24.4745714119
 30
0.0
 10
-40.5795320012
 20
-24.4808230755
 30
0.0
 10
-40.5795764671
 20
-24.4846694877
 30
0.0
 10
-40.5796253033
 20
-24.4879390802
 30
0.0
 10
-40.5796769648
 20
-24.4906278529
 30
0.0
 10
-40.5797341168
 20
-24.492719004
 30
0.0
 10
-40.5797830887
 20
-24.4941060199
 30
0.0
 10
-40.5798341393
 20
-24.4948925842
 30
0.0
 10
-40.5798590974
 20
-24.4952943483
 30
0.0
 10
-40.5798995427
 20
-24.495477879
 30
0.0
 10
-40.5799127804
 20
-24.4956280043
 30
0.0
 10
-40.5799405776
 20
-24.495628166
 30
0.0
 11
-40.5799405776
 21
-24.2456323968
 31
0.0
 11
-40.5796847863
 21
-24.2944044496
 31
0.0
 11
-40.5794947299
 21
-24.3412994718
 31
0.0
 11
-40.579377687
 21
-24.384519944
 31
0.0
 11
-40.5793480712
 21
-24.4042251386
 31
0.0
 11
-40.5793381687
 21
-24.4224029558
 31
0.0
 11
-40.5793480713
 21
-24.4388786668
 31
0.0
 11
-40.5793776872
 21
-24.4534933362
 31
0.0
 11
-40.5794267314
 21
-24.4661060382
 31
0.0
 11
-40.5794947302
 21
-24.4765958229
 31
0.0
 11
-40.5795356415
 21
-24.4810119887
 31
0.0
 11
-40.5795810269
 21
-24.4848614432
 31
0.0
 11
-40.5796307813
 21
-24.488134214
 31
0.0
 11
-40.5796847868
 21
-24.4908229035
 31
0.0
 11
-40.5797429201
 21
-24.4929212211
 31
0.0
 11
-40.5798050494
 21
-24.4944233978
 31
0.0
 11
-40.5798375586
 21
-24.4949499332
 31
0.0
 11
-40.5798709989
 21
-24.4953264153
 31
0.0
 11
-40.5799053465
 21
-24.4955525807
 31
0.0
 11
-40.5799405776
 21
-24.495628166
 31
0.0
  0
LINE
  5
467
100
AcDbEntity
  8
0
100
AcDbLine
 62
7
  6
CONTINUOUS
 10
-41.3313950104
 20
-24.2500042308
 11
-41.3313950104
 21
-24.5
  0
LINE
  5
468
100
AcDbEntity
  8
RACCORDO
100
AcDbLine
 62
253
  6
CONTINUOUS
 10
-29.5279045291
 20
19.0166572575
 11
-39.3313950104
 21
15.629521819
  0
LINE
  5
469
100
AcDbEntity
  8
RACCORDO
100
AcDbLine
 62
253
  6
CONTINUOUS
 10
-39.3313950104
 20
-15.629521819
 11
-29.5279045291
 21
-19.0166572575
  0
SPLINE
  5
46A
100
AcDbEntity
  8
0
100
AcDbSpline
 62
253
  6
CONTINUOUS
 70
0
 71
3
 72
26
 73
22
 74
20
 42
0.0000001
 43
0.0000001
 44
0.0000000001
 12
-0.0014544634
 22
-0.2500094792
 32
0.0
 13
0.2500094789
 23
-0.0014545126
 33
0.0
 40
0.0
 40
0.0
 40
0.0
 40
0.0
 40
0.195080196
 40
0.3826515393
 40
0.5555245815
 40
0.6343411269
 40
0.7070484192
 40
0.7729476609
 40
0.831403253
 40
0.881851676
 40
0.9238093952
 40
0.9414738478
 40
0.9568718917
 40
0.9699637695
 40
0.9807201068
 40
0.9891161374
 40
0.9951296516
 40
0.997239688
 40
0.9987514623
 40
0.9996664469
 40
1.0
 40
1.0
 40
1.0
 40
1.0
 10
-43.5828494432
 20
-24.2369056521
 30
0.0
 10
-43.5829440222
 20
-24.2531629515
 30
0.0
 10
-43.583111627
 20
-24.2850518965
 30
0.0
 10
-43.5833008734
 20
-24.3313477735
 30
0.0
 10
-43.5834028578
 20
-24.3679547315
 30
0.0
 10
-43.5834444021
 20
-24.3949892583
 30
0.0
 10
-43.5834550904
 20
-24.4131088428
 30
0.0
 10
-43.5834463164
 20
-24.429531586
 30
0.0
 10
-43.5834183337
 20
-24.4440993115
 30
0.0
 10
-43.5833714979
 20
-24.4566717053
 30
0.0
 10
-43.5833150552
 20
-24.4658446672
 30
0.0
 10
-43.5832580196
 20
-24.4720963307
 30
0.0
 10
-43.5832135536
 20
-24.4759427429
 30
0.0
 10
-43.5831647175
 20
-24.4792123355
 30
0.0
 10
-43.583113056
 20
-24.4819011082
 30
0.0
 10
-43.5830559039
 20
-24.4839922593
 30
0.0
 10
-43.5830069321
 20
-24.4853792751
 30
0.0
 10
-43.5829558815
 20
-24.4861658394
 30
0.0
 10
-43.5829309233
 20
-24.4865676036
 30
0.0
 10
-43.5828904781
 20
-24.4867511343
 30
0.0
 10
-43.5828772404
 20
-24.4869012596
 30
0.0
 10
-43.5828494432
 20
-24.4869014213
 30
0.0
 11
-43.5828494432
 21
-24.2369056521
 31
0.0
 11
-43.5831052344
 21
-24.2856777048
 31
0.0
 11
-43.5832952909
 21
-24.3325727271
 31
0.0
 11
-43.5834123338
 21
-24.3757931993
 31
0.0
 11
-43.5834419495
 21
-24.3954983939
 31
0.0
 11
-43.5834518521
 21
-24.4136762111
 31
0.0
 11
-43.5834419495
 21
-24.430151922
 31
0.0
 11
-43.5834123336
 21
-24.4447665915
 31
0.0
 11
-43.5833632893
 21
-24.4573792935
 31
0.0
 11
-43.5832952906
 21
-24.4678690781
 31
0.0
 11
-43.5832543793
 21
-24.472285244
 31
0.0
 11
-43.5832089939
 21
-24.4761346985
 31
0.0
 11
-43.5831592395
 21
-24.4794074693
 31
0.0
 11
-43.583105234
 21
-24.4820961588
 31
0.0
 11
-43.5830471007
 21
-24.4841944764
 31
0.0
 11
-43.5829849713
 21
-24.4856966531
 31
0.0
 11
-43.5829524622
 21
-24.4862231885
 31
0.0
 11
-43.5829190219
 21
-24.4865996706
 31
0.0
 11
-43.5828846743
 21
-24.486825836
 31
0.0
 11
-43.5828494432
 21
-24.4869014213
 31
0.0
  0
SPLINE
  5
46B
100
AcDbEntity
  8
0
100
AcDbSpline
 62
253
  6
CONTINUOUS
 70
0
 71
3
 72
26
 73
22
 74
20
 42
0.0000001
 43
0.0000001
 44
0.0000000001
 12
0.2500094789
 22
-0.0014545126
 32
0.0
 13
-0.0014544634
 23
-0.2500094792
 33
0.0
 40
0.0
 40
0.0
 40
0.0
 40
0.0
 40
0.0003335531
 40
0.0012485377
 40
0.002760312
 40
0.0048703484
 40
0.0108838626
 40
0.0192798932
 40
0.0300362305
 40
0.0431281083
 40
0.0585261522
 40
0.0761906048
 40
0.118148324
 40
0.168596747
 40
0.2270523391
 40
0.2929515808
 40
0.3656588731
 40
0.4444754185
 40
0.6173484607
 40
0.804919804
 40
1.0
 40
1.0
 40
1.0
 40
1.0
 10
-40.5799405776
 20
24.495628166
 30
0.0
 10
-40.5799127804
 20
24.4956280043
 30
0.0
 10
-40.5798995427
 20
24.495477879
 30
0.0
 10
-40.5798590974
 20
24.4952943483
 30
0.0
 10
-40.5798341393
 20
24.4948925842
 30
0.0
 10
-40.5797830887
 20
24.4941060198
 30
0.0
 10
-40.5797341168
 20
24.492719004
 30
0.0
 10
-40.5796769648
 20
24.4906278529
 30
0.0
 10
-40.5796253033
 20
24.4879390802
 30
0.0
 10
-40.5795764671
 20
24.4846694877
 30
0.0
 10
-40.5795320012
 20
24.4808230755
 30
0.0
 10
-40.5794749656
 20
24.4745714119
 30
0.0
 10
-40.5794185229
 20
24.46539845
 30
0.0
 10
-40.5793716871
 20
24.4528260562
 30
0.0
 10
-40.5793437044
 20
24.4382583307
 30
0.0
 10
-40.5793349304
 20
24.4218355876
 30
0.0
 10
-40.5793456187
 20
24.403716003
 30
0.0
 10
-40.579387163
 20
24.3766814763
 30
0.0
 10
-40.5794891474
 20
24.3400745182
 30
0.0
 10
-40.5796783938
 20
24.2937786412
 30
0.0
 10
-40.5798459986
 20
24.2618896962
 30
0.0
 10
-40.5799405776
 20
24.2456323968
 30
0.0
 11
-40.5799405776
 21
24.495628166
 31
0.0
 11
-40.5799053465
 21
24.4955525807
 31
0.0
 11
-40.5798709989
 21
24.4953264153
 31
0.0
 11
-40.5798375586
 21
24.4949499332
 31
0.0
 11
-40.5798050494
 21
24.4944233978
 31
0.0
 11
-40.5797429201
 21
24.4929212211
 31
0.0
 11
-40.5796847868
 21
24.4908229035
 31
0.0
 11
-40.5796307813
 21
24.488134214
 31
0.0
 11
-40.5795810269
 21
24.4848614432
 31
0.0
 11
-40.5795356415
 21
24.4810119887
 31
0.0
 11
-40.5794947302
 21
24.4765958229
 31
0.0
 11
-40.5794267314
 21
24.4661060382
 31
0.0
 11
-40.5793776872
 21
24.4534933362
 31
0.0
 11
-40.5793480713
 21
24.4388786668
 31
0.0
 11
-40.5793381687
 21
24.4224029558
 31
0.0
 11
-40.5793480712
 21
24.4042251386
 31
0.0
 11
-40.579377687
 21
24.384519944
 31
0.0
 11
-40.5794947299
 21
24.3412994718
 31
0.0
 11
-40.5796847863
 21
24.2944044496
 31
0.0
 11
-40.5799405776
 21
24.2456323968
 31
0.0
  0
LINE
  5
46C
100
AcDbEntity
  8
0
100
AcDbLine
 62
7
  6
CONTINUOUS
 10
-41.3313950104
 20
24.5
 11
-41.3313950104
 21
24.2500042308
  0
SPLINE
  5
46D
100
AcDbEntity
  8
0
100
AcDbSpline
 62
253
  6
CONTINUOUS
 70
0
 71
3
 72
26
 73
22
 74
20
 42
0.0000001
 43
0.0000001
 44
0.0000000001
 12
-0.2500094789
 22
-0.0014545125
 32
0.0
 13
0.0014544634
 23
-0.2500094792
 33
0.0
 40
0.0
 40
0.0
 40
0.0
 40
0.0
 40
0.0003335531
 40
0.0012485377
 40
0.002760312
 40
0.0048703484
 40
0.0108838626
 40
0.0192798932
 40
0.0300362305
 40
0.0431281083
 40
0.0585261522
 40
0.0761906048
 40
0.118148324
 40
0.168596747
 40
0.2270523391
 40
0.2929515808
 40
0.3656588731
 40
0.4444754185
 40
0.6173484607
 40
0.804919804
 40
1.0
 40
1.0
 40
1.0
 40
1.0
 10
-43.5828494432
 20
24.4869014213
 30
0.0
 10
-43.5828772404
 20
24.4869012596
 30
0.0
 10
-43.5828904781
 20
24.4867511343
 30
0.0
 10
-43.5829309233
 20
24.4865676036
 30
0.0
 10
-43.5829558815
 20
24.4861658394
 30
0.0
 10
-43.5830069321
 20
24.4853792751
 30
0.0
 10
-43.5830559039
 20
24.4839922593
 30
0.0
 10
-43.583113056
 20
24.4819011082
 30
0.0
 10
-43.5831647175
 20
24.4792123355
 30
0.0
 10
-43.5832135536
 20
24.4759427429
 30
0.0
 10
-43.5832580196
 20
24.4720963307
 30
0.0
 10
-43.5833150552
 20
24.4658446672
 30
0.0
 10
-43.5833714979
 20
24.4566717053
 30
0.0
 10
-43.5834183337
 20
24.4440993115
 30
0.0
 10
-43.5834463164
 20
24.429531586
 30
0.0
 10
-43.5834550904
 20
24.4131088428
 30
0.0
 10
-43.5834444021
 20
24.3949892583
 30
0.0
 10
-43.5834028578
 20
24.3679547315
 30
0.0
 10
-43.5833008734
 20
24.3313477735
 30
0.0
 10
-43.583111627
 20
24.2850518965
 30
0.0
 10
-43.5829440222
 20
24.2531629515
 30
0.0
 10
-43.5828494432
 20
24.2369056521
 30
0.0
 11
-43.5828494432
 21
24.4869014213
 31
0.0
 11
-43.5828846743
 21
24.486825836
 31
0.0
 11
-43.5829190219
 21
24.4865996706
 31
0.0
 11
-43.5829524622
 21
24.4862231885
 31
0.0
 11
-43.5829849713
 21
24.4856966531
 31
0.0
 11
-43.5830471007
 21
24.4841944764
 31
0.0
 11
-43.583105234
 21
24.4820961588
 31
0.0
 11
-43.5831592395
 21
24.4794074693
 31
0.0
 11
-43.5832089939
 21
24.4761346985
 31
0.0
 11
-43.5832543793
 21
24.472285244
 31
0.0
 11
-43.5832952906
 21
24.4678690781
 31
0.0
 11
-43.5833632893
 21
24.4573792935
 31
0.0
 11
-43.5834123336
 21
24.4447665915
 31
0.0
 11
-43.5834419495
 21
24.430151922
 31
0.0
 11
-43.5834518521
 21
24.4136762111
 31
0.0
 11
-43.5834419495
 21
24.3954983939
 31
0.0
 11
-43.5834123338
 21
24.3757931993
 31
0.0
 11
-43.5832952909
 21
24.3325727271
 31
0.0
 11
-43.5831052344
 21
24.2856777048
 31
0.0
 11
-43.5828494432
 21
24.2369056521
 31
0.0
  0
ELLIPSE
  5
46E
100
AcDbEntity
  8
0
100
AcDbEllipse
 62
7
  6
CONTINUOUS
 10
12.45
 20
22.3842776662
 30
0.0
 11
0.2
 21
0.0
 31
0.0
 40
0.0524077793
 41
-3.1415926536
 42
-1.5707963268
  0
ELLIPSE
  5
46F
100
AcDbEntity
  8
0
100
AcDbEllipse
 62
7
  6
CONTINUOUS
 10
10.05
 20
22.3842776662
 30
0.0
 11
0.2
 21
-0.0
 31
0.0
 40
0.0524077793
 41
-1.5707963268
 42
0.0
  0
ELLIPSE
  5
470
100
AcDbEntity
  8
0
100
AcDbEllipse
 62
7
  6
CONTINUOUS
 10
12.45
 20
-22.3842776662
 30
0.0
 11
0.2
 21
0.0
 31
0.0
 40
0.0524077793
 41
1.5707963268
 42
3.1415926536
  0
ELLIPSE
  5
471
100
AcDbEntity
  8
0
100
AcDbEllipse
 62
7
  6
CONTINUOUS
 10
10.05
 20
-22.3842776662
 30
0.0
 11
0.2
 21
0.0
 31
0.0
 40
0.0524077793
 41
0.0
 42
1.5707963268
  0
ELLIPSE
  5
472
100
AcDbEntity
  8
0
100
AcDbEllipse
 62
7
  6
CONTINUOUS
 10
21.1427234819
 20
22.3344902759
 30
0.0
 11
0.25
 21
0.0
 31
0.0
 40
0.0524077793
 41
-1.5707963268
 42
-0.0058177642
  0
ELLIPSE
  5
473
100
AcDbEntity
  8
0
100
AcDbEllipse
 62
7
  6
CONTINUOUS
 10
18.7572765181
 20
22.3344902759
 30
0.0
 11
0.25
 21
0.0
 31
0.0
 40
0.0524077793
 41
-3.1357748894
 42
-1.5707963268
  0
ELLIPSE
  5
474
100
AcDbEntity
  8
0
100
AcDbEllipse
 62
7
  6
CONTINUOUS
 10
1.3572765181
 20
22.3344902759
 30
0.0
 11
0.25
 21
-0.0
 31
0.0
 40
0.0524077793
 41
-3.1357748894
 42
-1.5707963268
  0
ELLIPSE
  5
475
100
AcDbEntity
  8
0
100
AcDbEllipse
 62
7
  6
CONTINUOUS
 10
3.7427234819
 20
22.3344902759
 30
0.0
 11
0.25
 21
0.0
 31
0.0
 40
0.0524077793
 41
-1.5707963268
 42
-0.0058177642
  0
ELLIPSE
  5
476
100
AcDbEntity
  8
0
100
AcDbEllipse
 62
7
  6
CONTINUOUS
 10
21.1427234819
 20
-22.3344902759
 30
0.0
 11
0.25
 21
0.0
 31
0.0
 40
0.0524077793
 41
0.0058177642
 42
1.5707963268
  0
ELLIPSE
  5
477
100
AcDbEntity
  8
0
100
AcDbEllipse
 62
7
  6
CONTINUOUS
 10
18.7572765181
 20
-22.3344902759
 30
0.0
 11
0.25
 21
0.0
 31
0.0
 40
0.0524077793
 41
1.5707963268
 42
3.1357748894
  0
ELLIPSE
  5
478
100
AcDbEntity
  8
0
100
AcDbEllipse
 62
7
  6
CONTINUOUS
 10
3.7427234819
 20
-22.3344902759
 30
0.0
 11
0.25
 21
0.0
 31
0.0
 40
0.0524077793
 41
0.0058177642
 42
1.5707963268
  0
ELLIPSE
  5
479
100
AcDbEntity
  8
0
100
AcDbEllipse
 62
7
  6
CONTINUOUS
 10
1.3572765181
 20
-22.3344902759
 30
0.0
 11
0.25
 21
-0.0
 31
0.0
 40
0.0524077793
 41
1.5707963268
 42
3.1357748894
  0
ELLIPSE
  5
47A
100
AcDbEntity
  8
0
100
AcDbEllipse
 62
7
  6
CONTINUOUS
 10
21.8728684853
 20
-21.8207021581
 30
0.0
 11
-0.1582391023
 21
0.4751033573
 31
0.0
 40
0.9984778551
 41
-3.4626430032
 42
-1.8927600658
  0
ELLIPSE
  5
47B
100
AcDbEntity
  8
0
100
AcDbEllipse
 62
7
  6
CONTINUOUS
 10
0.6271315147
 20
-21.8207021581
 30
0.0
 11
-0.1582391023
 21
-0.4751033573
 31
0.0
 40
0.9984778551
 41
-0.6578562559
 42
0.3210503496
  0
ELLIPSE
  5
47C
100
AcDbEntity
  8
0
100
AcDbEllipse
 62
7
  6
CONTINUOUS
 10
0.6271315147
 20
21.8207021581
 30
0.0
 11
-0.1582391023
 21
0.4751033573
 31
0.0
 40
0.9984778551
 41
-0.3210503496
 42
0.6578562559
  0
ELLIPSE
  5
47D
100
AcDbEntity
  8
0
100
AcDbEllipse
 62
7
  6
CONTINUOUS
 10
21.8728684853
 20
21.8207021581
 30
0.0
 11
0.1582391023
 21
0.4751033573
 31
0.0
 40
0.9984778551
 41
-1.2488325878
 42
0.3210503496
  0
ELLIPSE
  5
47E
100
AcDbEntity
  8
RACCORDO
100
AcDbEllipse
 62
7
  6
CONTINUOUS
 10
-21.6498286038
 20
-21.5998286038
 30
0.0
 11
0.35379574
 21
0.35379574
 31
0.0
 40
0.999315002
 41
-3.9266482007
 42
-2.3565371065
  0
ELLIPSE
  5
47F
100
AcDbEntity
  8
RACCORDO
100
AcDbEllipse
 62
7
  6
CONTINUOUS
 10
21.6498286038
 20
-21.5998286038
 30
0.0
 11
-0.35379574
 21
0.35379574
 31
0.0
 40
0.999315002
 41
-3.9266482006
 42
-2.3565371065
  0
ELLIPSE
  5
480
100
AcDbEntity
  8
RACCORDO
100
AcDbEllipse
 62
7
  6
CONTINUOUS
 10
21.6498286038
 20
21.5998286038
 30
0.0
 11
0.35379574
 21
0.35379574
 31
0.0
 40
0.999315002
 41
-0.7850555471
 42
0.7850555471
  0
ELLIPSE
  5
481
100
AcDbEntity
  8
RACCORDO
100
AcDbEllipse
 62
7
  6
CONTINUOUS
 10
-21.6498286038
 20
21.5998286038
 30
0.0
 11
0.35379574
 21
-0.35379574
 31
0.0
 40
0.999315002
 41
2.3565371065
 42
3.9266482006
  0
ELLIPSE
  5
482
100
AcDbEntity
  8
0
100
AcDbEllipse
 62
7
  6
CONTINUOUS
 10
36.0170346657
 20
-23.15
 30
0.0
 11
85.9426996401
 21
0.0
 31
0.0
 40
0.0058178298
 41
-2.6791240519
 42
-2.5607560384
  0
ELLIPSE
  5
483
100
AcDbEntity
  8
0
100
AcDbEllipse
 62
7
  6
CONTINUOUS
 10
36.0170346657
 20
-23.15
 30
0.0
 11
85.9426996401
 21
-0.0
 31
0.0
 40
0.0058178298
 41
2.5607560384
 42
2.6905658418
  0
ELLIPSE
  5
484
100
AcDbEntity
  8
0
100
AcDbEllipse
 62
7
  6
CONTINUOUS
 10
-29.8313950104
 20
22.0833543458
 30
0.0
 11
0.4998584972
 21
-0.0118946536
 31
0.0
 40
1.0
 41
-1.5295514826
 42
-0.6310036438
  0
ELLIPSE
  5
485
100
AcDbEntity
  8
0
100
AcDbEllipse
 62
7
  6
CONTINUOUS
 10
36.0170346657
 20
23.15
 30
0.0
 11
85.9426996401
 21
-0.0
 31
0.0
 40
0.0058178298
 41
-2.6905658418
 42
-2.5607560384
  0
ELLIPSE
  5
486
100
AcDbEntity
  8
0
100
AcDbEllipse
 62
7
  6
CONTINUOUS
 10
36.0170346657
 20
23.15
 30
0.0
 11
85.9426996401
 21
-0.0
 31
0.0
 40
0.0058178298
 41
2.5607560384
 42
2.6791240518
  0
ELLIPSE
  5
487
100
AcDbEntity
  8
0
100
AcDbEllipse
 62
7
  6
CONTINUOUS
 10
-29.8313950104
 20
-22.0833543458
 30
0.0
 11
0.48835942
 21
-0.1072617217
 31
0.0
 40
1.0
 41
0.8709990832
 42
1.7695469221
  0
ENDSEC
  0
SECTION
  2
OBJECTS
  0
DICTIONARY
  5
C
100
AcDbDictionary
280
0
281
1
  3
ACAD_GROUP
350
D
  3
ACAD_MLINESTYLE
350
17
  3
ACAD_LAYOUT
350
1A
  3
ACAD_PLOTSETTINGS
350
19
  3
ACAD_PLOTSTYLENAME
350
E
  0
DICTIONARY
  5
D
102
{ACAD_REACTORS
330
C
102
}
100
AcDbDictionary
280
0
281
1
  0
ACDBDICTIONARYWDFLT
  5
E
102
{ACAD_REACTORS
330
C
102
}
100
AcDbDictionary
281
1
  3
Normal
350
F
100
AcDbDictionaryWithDefault
340
F
  0
DICTIONARY
  5
17
102
{ACAD_REACTORS
330
C
102
}
100
AcDbDictionary
280
0
281
1
  3
Standard
350
18
  0
DICTIONARY
  5
19
102
{ACAD_REACTORS
330
C
102
}
100
AcDbDictionary
281
1
  0
DICTIONARY
  5
1A
102
{ACAD_REACTORS
330
C
102
}
100
AcDbDictionary
281
1
  3
Model
350
488
  3
Layout1
350
489
  0
ACDBPLACEHOLDER
  5
F
102
{ACAD_REACTORS
330
E
102
}
  0
MLINESTYLE
  5
18
102
{ACAD_REACTORS
330
17
102
}
100
AcDbMlineStyle
  2
STANDARD
 70
0
  3

 62
256
 51
90.0
 52
90.0
 71
2
 49
0.5
 62
256
  6
BYLAYER
 49
-0.5
 62
256
  6
BYLAYER
  0
LAYOUT
  5
488
102
{ACAD_REACTORS
330
1A
102
}
100
AcDbPlotSettings
  1

  2
none_device
  4
ISO_A4_(297.00_x_210.00_MM)
  6

 40
0.0
 41
0.0
 42
0.0
 43
0.0
 44
297.0
 45
210.0
 46
0.0
 47
0.0
 48
0.0
 49
0.0
140
0.0
141
0.0
142
1.0
143
1.0
 70
1024
 72
1
 73
0
 74
0
  7

 75
0
147
1.0
148
0.0
149
0.0
100
AcDbLayout
  1
Model
 70
0
 71
0
 10
0.0
 20
0.0
 11
297.0
 21
210.0
 12
0.0
 22
0.0
 32
0.0
 14
0.0
 24
0.0
 34
0.0
 15
0.0
 25
0.0
 35
0.0
146
0.0
 13
0.0
 23
0.0
 33
0.0
 16
1.0
 26
0.0
 36
0.0
 17
0.0
 27
1.0
 37
0.0
 76
0
330
21A
345
0
346
0
  0
LAYOUT
  5
489
102
{ACAD_REACTORS
330
1A
102
}
100
AcDbPlotSettings
  1

  2
none_device
  4
ISO_A4_(297.00_x_210.00_MM)
  6

 40
0.0
 41
0.0
 42
0.0
 43
0.0
 44
297.0
 45
210.0
 46
0.0
 47
0.0
 48
0.0
 49
0.0
140
0.0
141
0.0
142
1.0
143
1.0
 70
0
 72
1
 73
0
 74
0
  7

 75
0
147
1.0
148
0.0
149
0.0
100
AcDbLayout
  1
Layout1
 70
0
 71
1
 10
0.0
 20
0.0
 11
297.0
 21
210.0
 12
0.0
 22
0.0
 32
0.0
 14
0.0
 24
0.0
 34
0.0
 15
0.0
 25
0.0
 35
0.0
146
0.0
 13
0.0
 23
0.0
 33
0.0
 16
1.0
 26
0.0
 36
0.0
 17
0.0
 27
1.0
 37
0.0
 76
0
330
21B
345
0
346
0
  0
ENDSEC
  0
EOF
