  0
SECTION
  2
HEADER
  9
$ACADVER
  1
AC1015
  9
$DWGCODEPAGE
  3
ANSI_1252
  9
$EXTMAX
 10
297.0
 20
210.0
 30
0.0
  9
$EXTMIN
 10
0.0
 20
0.0
 30
0.0
  9
$LIMMIN
 10
0.0
 20
0.0
  9
$LIMMAX
 10
297.0
 20
210.0
  9
$VIEWCTR
 10
148.5
 20
105.0
  9
$VIEWSIZE
 40
210.0
  9
$CLAYER
  8
0
  9
$LTSCALE
 40
16.335
  9
$CELTYPE
  6
BYLAYER
  9
$DIMSCALE
 40
1.0
  9
$DIMASZ
 40
3.0
  9
$DIMEXO
 40
1.85625
  9
$DIMDLI
 40
11.286
  9
$DIMEXE
 40
5.346
  9
$DIMCEN
 40
2.673
  9
$DIMLFAC
 40
1.0
  9
$DIMBLK
  1
_FILLED
  9
$DIMTXT
 40
3.0
  9
$DIMTOL
 70
1
  9
$DIMLIM
 70
0
  9
$DIMTFAC
 40
1.0
  9
$DIMTP
 40
0.01
  9
$DIMTM
 40
0.01
  9
$PDMODE
 70
3
  9
$PDSIZE
 40
3.0
  9
$HANDSEED
  5
567
  9
$TILEMODE
 70
1
  9
$MEASUREMENT
 70
1
  9
$INSUNITS
 70
4
  0
ENDSEC
  0
SECTION
  2
CLASSES
  0
CLASS
  1
ACDBDICTIONARYWDFLT
  2
AcDbDictionaryWithDefault
  3
AutoCAD 2000
 90
0
280
0
281
0
  0
CLASS
  1
ACDBPLACEHOLDER
  2
AcDbPlaceHolder
  3
AutoCAD 2000
 90
0
280
0
281
0
  0
CLASS
  1
LAYOUT
  2
AcDbLayout
  3
AutoCAD 2000
 90
0
280
0
281
0
  0
ENDSEC
  0
SECTION
  2
TABLES
  0
TABLE
  2
VPORT
  5
8
100
AcDbSymbolTable
 70
2
  0
VPORT
  5
1F4
100
AcDbSymbolTableRecord
100
AcDbViewportTableRecord
  2
*ACTIVE
 70
0
 10
0.0
 20
0.0
 11
1.0
 21
1.0
 12
148.5
 22
105.0
 13
0.0
 23
0.0
 14
1.0
 24
1.0
 15
0.0
 25
0.0
 16
0.0
 26
0.0
 36
1.0
 17
0.0
 27
0.0
 37
0.0
 40
210.0
 41
1.4142857143
 42
50.0
 43
0.0
 44
0.0
 50
0.0
 51
0.0
 71
0
 72
100
 73
1
 74
1
 75
0
 76
0
 77
0
 78
0
  0
ENDTAB
  0
TABLE
  2
LTYPE
  5
5
100
AcDbSymbolTable
 70
6
  0
LTYPE
  5
14
100
AcDbSymbolTableRecord
100
AcDbLinetypeTableRecord
  2
BYBLOCK
 70
0
  3

 72
65
 73
0
 40
0.0
  0
LTYPE
  5
15
100
AcDbSymbolTableRecord
100
AcDbLinetypeTableRecord
  2
BYLAYER
 70
0
  3

 72
65
 73
0
 40
0.0
  0
LTYPE
  5
16
100
AcDbSymbolTableRecord
100
AcDbLinetypeTableRecord
  2
CONTINUOUS
 70
64
  3
Solid line
 72
65
 73
0
 40
0.0
  0
LTYPE
  5
1F5
100
AcDbSymbolTableRecord
100
AcDbLinetypeTableRecord
  2
CENTER
 70
64
  3
____ _ ____ _ ____ _ ____ _ ____ _ ____ _ ____
 72
65
 73
4
 40
0.6
 49
0.375
 74
0
 49
-0.075
 74
0
 49
0.075
 74
0
 49
-0.075
 74
0
  0
LTYPE
  5
1F6
100
AcDbSymbolTableRecord
100
AcDbLinetypeTableRecord
  2
HIDDEN
 70
64
  3
- - - - - - - - - - - - - - - - - - - -
 72
65
 73
2
 40
0.2
 49
0.1
 74
0
 49
-0.1
 74
0
  0
LTYPE
  5
1F7
100
AcDbSymbolTableRecord
100
AcDbLinetypeTableRecord
  2
PHANTOM
 70
64
  3
_____ _ _ _____ _ _ _____ _ _ _____
 72
65
 73
6
 40
0.8
 49
0.45
 74
0
 49
-0.05
 74
0
 49
0.1
 74
0
 49
-0.05
 74
0
 49
0.1
 74
0
 49
-0.05
 74
0
  0
LTYPE
  5
1F8
100
AcDbSymbolTableRecord
100
AcDbLinetypeTableRecord
  2
DOT
 70
64
  3
. . . . . . . . . . . . . . . . . . . .
 72
65
 73
2
 40
0.2
 49
0.1
 74
0
 49
-0.1
 74
0
  0
LTYPE
  5
1F9
100
AcDbSymbolTableRecord
100
AcDbLinetypeTableRecord
  2
DASHED
 70
64
  3
- - - - - - - - - - - - - - - - - - - -
 72
65
 73
2
 40
0.2
 49
0.1
 74
0
 49
-0.1
 74
0
  0
ENDTAB
  0
TABLE
  2
LAYER
  5
2
100
AcDbSymbolTable
 70
36
  0
LAYER
  5
10
100
AcDbSymbolTableRecord
100
AcDbLayerTableRecord
  2
0
 70
0
 62
7
  6
CONTINUOUS
370
-3
390
F
  0
LAYER
  5
1FA
100
AcDbSymbolTableRecord
100
AcDbLayerTableRecord
  2
DEFAULT_1
 70
0
 62
7
  6
CENTER
370
-3
390
F
  0
LAYER
  5
1FB
100
AcDbSymbolTableRecord
100
AcDbLayerTableRecord
  2
DEFAULT_2
 70
0
 62
7
  6
HIDDEN
370
-3
390
F
  0
LAYER
  5
1FC
100
AcDbSymbolTableRecord
100
AcDbLayerTableRecord
  2
DEFAULT_3
 70
0
 62
7
  6
PHANTOM
370
-3
390
F
  0
LAYER
  5
1FD
100
AcDbSymbolTableRecord
100
AcDbLayerTableRecord
  2
ASSI
 70
0
 62
7
  6
CONTINUOUS
370
-3
390
F
  0
LAYER
  5
1FE
100
AcDbSymbolTableRecord
100
AcDbLayerTableRecord
  2
COORDINATE
 70
0
 62
7
  6
CONTINUOUS
370
-3
390
F
  0
LAYER
  5
1FF
100
AcDbSymbolTableRecord
100
AcDbLayerTableRecord
  2
COORD_ORIGINE
 70
0
 62
7
  6
CONTINUOUS
370
-3
390
F
  0
LAYER
  5
200
100
AcDbSymbolTableRecord
100
AcDbLayerTableRecord
  2
COPY_PUBLISH
 70
0
 62
7
  6
CONTINUOUS
370
-3
390
F
  0
LAYER
  5
201
100
AcDbSymbolTableRecord
100
AcDbLayerTableRecord
  2
COSMETIC
 70
0
 62
7
  6
CONTINUOUS
370
-3
390
F
  0
LAYER
  5
202
100
AcDbSymbolTableRecord
100
AcDbLayerTableRecord
  2
COSMETICI
 70
0
 62
7
  6
CONTINUOUS
370
-3
390
F
  0
LAYER
  5
203
100
AcDbSymbolTableRecord
100
AcDbLayerTableRecord
  2
CURVE
 70
0
 62
7
  6
CONTINUOUS
370
-3
390
F
  0
LAYER
  5
204
100
AcDbSymbolTableRecord
100
AcDbLayerTableRecord
  2
DRAFT
 70
0
 62
7
  6
CONTINUOUS
370
-3
390
F
  0
LAYER
  5
205
100
AcDbSymbolTableRecord
100
AcDbLayerTableRecord
  2
IMPORT
 70
0
 62
7
  6
CONTINUOUS
370
-3
390
F
  0
LAYER
  5
206
100
AcDbSymbolTableRecord
100
AcDbLayerTableRecord
  2
IMPORT_IGES
 70
0
 62
7
  6
CONTINUOUS
370
-3
390
F
  0
LAYER
  5
207
100
AcDbSymbolTableRecord
100
AcDbLayerTableRecord
  2
INTFCLR_11
 70
0
 62
7
  6
CONTINUOUS
370
-3
390
F
  0
LAYER
  5
208
100
AcDbSymbolTableRecord
100
AcDbLayerTableRecord
  2
INTF_1
 70
0
 62
7
  6
CONTINUOUS
370
-3
390
F
  0
LAYER
  5
209
100
AcDbSymbolTableRecord
100
AcDbLayerTableRecord
  2
INTF_3
 70
0
 62
7
  6
CONTINUOUS
370
-3
390
F
  0
LAYER
  5
20A
100
AcDbSymbolTableRecord
100
AcDbLayerTableRecord
  2
NOTE
 70
0
 62
7
  6
CONTINUOUS
370
-3
390
F
  0
LAYER
  5
20B
100
AcDbSymbolTableRecord
100
AcDbLayerTableRecord
  2
PIANI
 70
0
 62
7
  6
CONTINUOUS
370
-3
390
F
  0
LAYER
  5
20C
100
AcDbSymbolTableRecord
100
AcDbLayerTableRecord
  2
PIANI_ORIGINE
 70
0
 62
7
  6
CONTINUOUS
370
-3
390
F
  0
LAYER
  5
20D
100
AcDbSymbolTableRecord
100
AcDbLayerTableRecord
  2
PIANI_RIFERIMENTO
 70
0
 62
7
  6
CONTINUOUS
370
-3
390
F
  0
LAYER
  5
20E
100
AcDbSymbolTableRecord
100
AcDbLayerTableRecord
  2
PUNTI
 70
0
 62
7
  6
CONTINUOUS
370
-3
390
F
  0
LAYER
  5
20F
100
AcDbSymbolTableRecord
100
AcDbLayerTableRecord
  2
RACCORDO
 70
0
 62
7
  6
CONTINUOUS
370
-3
390
F
  0
LAYER
  5
210
100
AcDbSymbolTableRecord
100
AcDbLayerTableRecord
  2
SIMBOLI
 70
0
 62
7
  6
CONTINUOUS
370
-3
390
F
  0
LAYER
  5
211
100
AcDbSymbolTableRecord
100
AcDbLayerTableRecord
  2
SMUSSO
 70
0
 62
7
  6
CONTINUOUS
370
-3
390
F
  0
LAYER
  5
212
100
AcDbSymbolTableRecord
100
AcDbLayerTableRecord
  2
SNAPLINE
 70
0
 62
7
  6
CONTINUOUS
370
-3
390
F
  0
LAYER
  5
213
100
AcDbSymbolTableRecord
100
AcDbLayerTableRecord
  2
SUPERFICI
 70
0
 62
7
  6
CONTINUOUS
370
-3
390
F
  0
LAYER
  5
214
100
AcDbSymbolTableRecord
100
AcDbLayerTableRecord
  2
TRASH
 70
0
 62
7
  6
CONTINUOUS
370
-3
390
F
  0
LAYER
  5
215
100
AcDbSymbolTableRecord
100
AcDbLayerTableRecord
  2
XSEC_DATUMS
 70
0
 62
7
  6
CONTINUOUS
370
-3
390
F
  0
LAYER
  5
216
100
AcDbSymbolTableRecord
100
AcDbLayerTableRecord
  2
___SHELL
 70
0
 62
7
  6
CONTINUOUS
370
-3
390
F
  0
ENDTAB
  0
TABLE
  2
STYLE
  5
3
100
AcDbSymbolTable
 70
1
  0
STYLE
  5
11
100
AcDbSymbolTableRecord
100
AcDbTextStyleTableRecord
  2
STANDARD
 70
0
 40
0.0
 41
0.8
 50
0.0
 71
0
 42
0.2
  3
txt
  4

  0
STYLE
  5
217
100
AcDbSymbolTableRecord
100
AcDbTextStyleTableRecord
  2
TEXTSTYLE_1
 70
0
 40
0.0
 41
0.8
 50
0.0
 71
0
 42
0.2
  3
gdt
  4

  0
ENDTAB
  0
TABLE
  2
VIEW
  5
6
100
AcDbSymbolTable
 70
0
  0
ENDTAB
  0
TABLE
  2
UCS
  5
7
100
AcDbSymbolTable
 70
0
  0
ENDTAB
  0
TABLE
  2
APPID
  5
9
100
AcDbSymbolTable
 70
1
  0
APPID
  5
218
100
AcDbSymbolTableRecord
100
AcDbRegAppTableRecord
  2
ACAD
 70
0
  0
ENDTAB
  0
TABLE
  2
BLOCK_RECORD
  5
1
100
AcDbSymbolTable
 70
0
  0
BLOCK_RECORD
  5
219
100
AcDbSymbolTableRecord
100
AcDbBlockTableRecord
  2
*Model_Space
  0
BLOCK_RECORD
  5
21A
100
AcDbSymbolTableRecord
100
AcDbBlockTableRecord
  2
*Paper_Space
  0
BLOCK_RECORD
  5
21B
100
AcDbSymbolTableRecord
100
AcDbBlockTableRecord
  2
_FILLED
  0
BLOCK_RECORD
  5
21C
100
AcDbSymbolTableRecord
100
AcDbBlockTableRecord
  2
*D0
  0
BLOCK_RECORD
  5
21D
100
AcDbSymbolTableRecord
100
AcDbBlockTableRecord
  2
*D1
  0
BLOCK_RECORD
  5
21E
100
AcDbSymbolTableRecord
100
AcDbBlockTableRecord
  2
*D2
  0
BLOCK_RECORD
  5
21F
100
AcDbSymbolTableRecord
100
AcDbBlockTableRecord
  2
*D3
  0
ENDTAB
  0
TABLE
  2
DIMSTYLE
  5
A
100
AcDbSymbolTable
 70
1
100
AcDbDimStyleTable
 71
0
  0
DIMSTYLE
105
220
100
AcDbSymbolTableRecord
100
AcDbDimStyleTableRecord
  2
STANDARD
 70
0
  3

  4

 40
1.0
 41
3.0
 42
0.0625
 43
0.38
 44
0.18
 45
0.0
 46
0.0
 47
0.01
 48
0.01
140
3.0
141
0.09
142
0.0
143
25.4
144
1.0
145
0.0
146
1.0
147
0.09
 71
1.0
 72
0.0
 73
0
 74
0
 75
0
 76
0
 77
1
 78
8
170
0
171
2
172
0
173
0
174
0
175
0
176
0
177
0
178
0
270
2
271
2
272
2
273
2
274
2
275
0
280
0
281
0
282
0
283
1
284
8
285
0
286
0
287
3
288
0
340
11
341
21B
342
21B
343
21B
344
21B
  0
DIMSTYLE
105
221
100
AcDbSymbolTableRecord
100
AcDbDimStyleTableRecord
  2
DIMSTYLE_1
 70
0
  3

  4

 40
1.0
 41
3.0
 42
0.0625
 43
0.38
 44
0.18
 45
0.0
 46
0.0
 47
0.0
 48
0.0
140
3.0
141
0.09
142
0.0
143
25.4
144
1.0
145
0.0
146
1.0
147
0.09
 71
0.0
 72
0.0
 73
0
 74
0
 75
0
 76
0
 77
1
 78
8
170
0
171
2
172
0
173
0
174
0
175
0
176
0
177
0
178
0
270
2
271
2
272
2
273
2
274
2
275
0
280
0
281
0
282
0
283
1
284
8
285
0
286
0
287
3
288
0
340
11
341
21B
342
21B
343
21B
344
21B
  0
ENDTAB
  0
ENDSEC
  0
SECTION
  2
BLOCKS
  0
BLOCK
  5
20
100
AcDbEntity
  8
0
100
AcDbBlockBegin
  2
*Model_Space
 70
0
 10
0.0
 20
0.0
 30
0.0
  3
*Model_Space
  1

  0
ENDBLK
  5
21
100
AcDbEntity
  8
0
100
AcDbBlockEnd
  0
BLOCK
  5
1C
100
AcDbEntity
  8
0
100
AcDbBlockBegin
  2
*Paper_Space
 70
0
 10
0.0
 20
0.0
 30
0.0
  3
*Paper_Space
  1

  0
ENDBLK
  5
1D
100
AcDbEntity
  8
0
100
AcDbBlockEnd
  0
BLOCK
  5
222
100
AcDbEntity
  8
0
100
AcDbBlockBegin
  2
_FILLED
 70
64
 10
0.0
 20
0.0
  3
_FILLED
  1

  0
SOLID
  5
223
100
AcDbEntity
  8
0
  6
BYBLOCK
 62
0
100
AcDbTrace
 10
0.0
 20
0.0
 11
-1.0
 21
0.3166666667
 12
-1.0
 22
-0.3166666667
 13
-1.0
 23
-0.3166666667
  0
ENDBLK
  5
224
100
AcDbEntity
  8
0
  6
BYBLOCK
 62
0
100
AcDbBlockEnd
  0
BLOCK
  5
225
100
AcDbEntity
  8
0
100
AcDbBlockBegin
 62
7
  6
CONTINUOUS
  2
*D0
 70
65
 10
0.0
 20
0.0
  3
*D0
  1

  0
LINE
  5
226
100
AcDbEntity
  8
0
100
AcDbLine
 62
7
  6
CONTINUOUS
 10
-51.8871036188
 20
21.4
 11
-51.8871036188
 21
36.5945012747
  0
LINE
  5
227
100
AcDbEntity
  8
0
100
AcDbLine
 62
7
  6
CONTINUOUS
 10
-62.8871036188
 20
24.7456323968
 11
-62.8871036188
 21
36.5945012747
  0
LINE
  5
228
100
AcDbEntity
  8
0
100
AcDbLine
 62
7
  6
CONTINUOUS
 10
-51.8871036188
 20
35.0945012747
 11
-47.8871036188
 21
35.0945012747
  0
LINE
  5
229
100
AcDbEntity
  8
0
100
AcDbLine
 62
7
  6
CONTINUOUS
 10
-47.8871036188
 20
35.0945012747
 11
-57.3871036188
 21
35.0945012747
  0
LINE
  5
22A
100
AcDbEntity
  8
0
100
AcDbLine
 62
7
  6
CONTINUOUS
 10
-62.8871036188
 20
35.0945012747
 11
-66.8871036188
 21
35.0945012747
  0
LINE
  5
22B
100
AcDbEntity
  8
0
100
AcDbLine
 62
7
  6
CONTINUOUS
 10
-66.8871036188
 20
35.0945012747
 11
-57.3871036188
 21
35.0945012747
  0
INSERT
  5
22C
100
AcDbEntity
  8
0
100
AcDbBlockReference
 62
7
  6
CONTINUOUS
  2
_FILLED
 10
-51.8871036188
 20
35.0945012747
 41
3.0
 42
3.0
 43
3.0
 50
180.0
  0
INSERT
  5
22D
100
AcDbEntity
  8
0
100
AcDbBlockReference
 62
7
  6
CONTINUOUS
  2
_FILLED
 10
-62.8871036188
 20
35.0945012747
 41
3.0
 42
3.0
 43
3.0
  0
ENDBLK
  5
22E
100
AcDbEntity
  8
0
  6
BYBLOCK
 62
0
100
AcDbBlockEnd
  0
BLOCK
  5
22F
100
AcDbEntity
  8
0
100
AcDbBlockBegin
 62
7
  6
CONTINUOUS
  2
*D1
 70
65
 10
0.0
 20
0.0
  3
*D1
  1

  0
LINE
  5
230
100
AcDbEntity
  8
0
100
AcDbLine
 62
7
  6
CONTINUOUS
 10
-51.8871036188
 20
20.4942577878
 11
-51.8871036188
 21
46.5945012747
  0
LINE
  5
231
100
AcDbEntity
  8
0
100
AcDbLine
 62
7
  6
CONTINUOUS
 10
-74.1871208886
 20
0.5
 11
-74.1871208886
 21
46.5945012747
  0
LINE
  5
232
100
AcDbEntity
  8
0
100
AcDbLine
 62
7
  6
CONTINUOUS
 10
-51.8871036188
 20
45.0945012747
 11
-63.0371122537
 21
45.0945012747
  0
LINE
  5
233
100
AcDbEntity
  8
0
100
AcDbLine
 62
7
  6
CONTINUOUS
 10
-74.1871208886
 20
45.0945012747
 11
-63.0371122537
 21
45.0945012747
  0
INSERT
  5
234
100
AcDbEntity
  8
0
100
AcDbBlockReference
 62
7
  6
CONTINUOUS
  2
_FILLED
 10
-51.8871036188
 20
45.0945012747
 41
3.0
 42
3.0
 43
3.0
 50
360.0
  0
INSERT
  5
235
100
AcDbEntity
  8
0
100
AcDbBlockReference
 62
7
  6
CONTINUOUS
  2
_FILLED
 10
-74.1871208886
 20
45.0945012747
 41
3.0
 42
3.0
 43
3.0
 50
180.0
  0
ENDBLK
  5
236
100
AcDbEntity
  8
0
  6
BYBLOCK
 62
0
100
AcDbBlockEnd
  0
BLOCK
  5
237
100
AcDbEntity
  8
0
100
AcDbBlockBegin
 62
7
  6
CONTINUOUS
  2
*D2
 70
65
 10
0.0
 20
0.0
  3
*D2
  1

  0
LINE
  5
238
100
AcDbEntity
  8
0
100
AcDbLine
 62
7
  6
CONTINUOUS
 10
33.6504363434
 20
22.400016923
 11
33.6504363434
 21
36.5945012747
  0
LINE
  5
239
100
AcDbEntity
  8
0
100
AcDbLine
 62
7
  6
CONTINUOUS
 10
-33.6504363434
 20
22.400016923
 11
-33.6504363434
 21
36.5945012747
  0
LINE
  5
23A
100
AcDbEntity
  8
0
100
AcDbLine
 62
7
  6
CONTINUOUS
 10
33.6504363434
 20
35.0945012747
 11
-0.0
 21
35.0945012747
  0
LINE
  5
23B
100
AcDbEntity
  8
0
100
AcDbLine
 62
7
  6
CONTINUOUS
 10
-33.6504363434
 20
35.0945012747
 11
-0.0
 21
35.0945012747
  0
INSERT
  5
23C
100
AcDbEntity
  8
0
100
AcDbBlockReference
 62
7
  6
CONTINUOUS
  2
_FILLED
 10
33.6504363434
 20
35.0945012747
 41
3.0
 42
3.0
 43
3.0
 50
0.0
  0
INSERT
  5
23D
100
AcDbEntity
  8
0
100
AcDbBlockReference
 62
7
  6
CONTINUOUS
  2
_FILLED
 10
-33.6504363434
 20
35.0945012747
 41
3.0
 42
3.0
 43
3.0
 50
180.0
  0
ENDBLK
  5
23E
100
AcDbEntity
  8
0
  6
BYBLOCK
 62
0
100
AcDbBlockEnd
  0
BLOCK
  5
23F
100
AcDbEntity
  8
0
100
AcDbBlockBegin
 62
7
  6
CONTINUOUS
  2
*D3
 70
65
 10
0.0
 20
0.0
  3
*D3
  1

  0
LINE
  5
240
100
AcDbEntity
  8
0
100
AcDbLine
 62
7
  6
CONTINUOUS
 10
32.9000042308
 20
-24.5
 11
47.9983961432
 21
-24.5
  0
LINE
  5
241
100
AcDbEntity
  8
0
100
AcDbLine
 62
7
  6
CONTINUOUS
 10
32.9000042308
 20
24.5
 11
47.9983961432
 21
24.5
  0
LINE
  5
242
100
AcDbEntity
  8
0
100
AcDbLine
 62
7
  6
CONTINUOUS
 10
46.4983961432
 20
-24.5
 11
46.4983961432
 21
0.0
  0
LINE
  5
243
100
AcDbEntity
  8
0
100
AcDbLine
 62
7
  6
CONTINUOUS
 10
46.4983961432
 20
24.5
 11
46.4983961432
 21
0.0
  0
INSERT
  5
244
100
AcDbEntity
  8
0
100
AcDbBlockReference
 62
7
  6
CONTINUOUS
  2
_FILLED
 10
46.4983961432
 20
-24.5
 41
3.0
 42
3.0
 43
3.0
 50
270.0
  0
INSERT
  5
245
100
AcDbEntity
  8
0
100
AcDbBlockReference
 62
7
  6
CONTINUOUS
  2
_FILLED
 10
46.4983961432
 20
24.5
 41
3.0
 42
3.0
 43
3.0
 50
90.0
  0
ENDBLK
  5
246
100
AcDbEntity
  8
0
  6
BYBLOCK
 62
0
100
AcDbBlockEnd
  0
ENDSEC
  0
SECTION
  2
ENTITIES
  0
DIMENSION
  5
247
100
AcDbEntity
  8
0
100
AcDbDimension
 62
7
  6
CONTINUOUS
  2
*D0
 10
-62.8871036188
 20
35.0945012747
 11
-59.101389333
 21
35.8445012747
 70
160
 71
2
 42
11.0
  3
DIMSTYLE_1
100
AcDbAlignedDimension
 13
-51.8871036188
 23
21.4
 14
-62.8871036188
 24
24.7456323968
 50
180.0
100
AcDbRotatedDimension
  0
DIMENSION
  5
248
100
AcDbEntity
  8
0
100
AcDbDimension
 62
7
  6
CONTINUOUS
  2
*D1
 10
-74.1871208886
 20
45.0945012747
 11
-67.3228265394
 21
45.8445012747
 70
160
 71
2
 42
22.3000172699
  3
DIMSTYLE_1
100
AcDbAlignedDimension
 13
-51.8871036188
 23
20.4942577878
 14
-74.1871208886
 24
0.5
 50
180.0
100
AcDbRotatedDimension
  0
DIMENSION
  5
249
100
AcDbEntity
  8
0
100
AcDbDimension
 62
7
  6
CONTINUOUS
  2
*D2
 10
-33.6504363434
 20
35.0945012747
 11
-4.2857142857
 21
35.8445012747
 70
160
 71
2
 42
67.3008726868
  3
DIMSTYLE_1
100
AcDbAlignedDimension
 13
33.6504363434
 23
22.400016923
 14
-33.6504363434
 24
22.400016923
 50
180.0
100
AcDbRotatedDimension
  0
DIMENSION
  5
24A
100
AcDbEntity
  8
0
100
AcDbDimension
 62
7
  6
CONTINUOUS
  2
*D3
 10
46.4983961432
 20
24.5
 11
45.7483961432
 21
-2.3571428571
 70
160
 71
2
 42
49.0
  3
DIMSTYLE_1
100
AcDbAlignedDimension
 13
32.9000042308
 23
-24.5
 14
32.9000042308
 24
24.5
 50
90.0
100
AcDbRotatedDimension
  0
LINE
  5
24B
100
AcDbEntity
  8
0
100
AcDbLine
 62
253
  6
CONTINUOUS
 10
-30.0130943479
 20
24.4869014213
 11
-29.9999957692
 21
24.5
  0
LINE
  5
24C
100
AcDbEntity
  8
0
100
AcDbLine
 62
253
  6
CONTINUOUS
 10
-29.7630985787
 20
24.2369056521
 11
-29.75
 21
24.2500042308
  0
LINE
  5
24D
100
AcDbEntity
  8
0
100
AcDbLine
 62
253
  6
CONTINUOUS
 10
-30.0130943479
 20
-24.4869014213
 11
-29.9999957692
 21
-24.5
  0
LINE
  5
24E
100
AcDbEntity
  8
0
100
AcDbLine
 62
253
  6
CONTINUOUS
 10
-29.7630985787
 20
-24.2369056521
 11
-29.75
 21
-24.2500042308
  0
LINE
  5
24F
100
AcDbEntity
  8
0
100
AcDbLine
 62
253
  6
CONTINUOUS
 10
-32.6369014213
 20
-23.8443375673
 11
-32.6427192511
 21
-23.2669872981
  0
LINE
  5
250
100
AcDbEntity
  8
0
100
AcDbLine
 62
253
  6
CONTINUOUS
 10
-32.3869056521
 20
-23.6278312164
 11
-32.3919962532
 21
-23.1226497308
  0
LINE
  5
251
100
AcDbEntity
  8
DRAFT
100
AcDbLine
 62
7
  6
CONTINUOUS
 10
-33.595044505
 20
0.0
 11
-33.6229446494
 21
16.6
  0
LINE
  5
252
100
AcDbEntity
  8
0
100
AcDbLine
 62
7
  6
CONTINUOUS
 10
-33.6504363434
 20
21.900016923
 11
-33.6504363434
 21
-21.900016923
  0
LINE
  5
253
100
AcDbEntity
  8
0
100
AcDbLine
 62
7
  6
CONTINUOUS
 10
-33.6491272468
 20
21.8997711479
 11
-33.6491272468
 21
-21.8997711479
  0
LINE
  5
254
100
AcDbEntity
  8
DRAFT
100
AcDbLine
 62
7
  6
CONTINUOUS
 10
-33.6229446494
 20
21.821159479
 11
-33.6229446494
 21
16.6
  0
LINE
  5
255
100
AcDbEntity
  8
DRAFT
100
AcDbLine
 62
7
  6
CONTINUOUS
 10
-33.6229446494
 20
-16.6
 11
-33.6229446494
 21
-21.821159479
  0
LINE
  5
256
100
AcDbEntity
  8
RACCORDO
100
AcDbLine
 62
7
  6
CONTINUOUS
 10
-33.5
 20
-21.5999997649
 11
-33.5
 21
21.5999997649
  0
LINE
  5
257
100
AcDbEntity
  8
0
100
AcDbLine
 62
7
  6
CONTINUOUS
 10
-32.65
 20
-22.4
 11
-32.65
 21
-24.2500042308
  0
LINE
  5
258
100
AcDbEntity
  8
0
100
AcDbLine
 62
7
  6
CONTINUOUS
 10
-32.65
 20
22.4
 11
-32.65
 21
24.2500042308
  0
LINE
  5
259
100
AcDbEntity
  8
0
100
AcDbLine
 62
253
  6
CONTINUOUS
 10
-32.6427192511
 20
23.2669872981
 11
-32.6427192511
 21
22.3344140523
  0
LINE
  5
25A
100
AcDbEntity
  8
0
100
AcDbLine
 62
253
  6
CONTINUOUS
 10
-32.6427192511
 20
-22.3344140523
 11
-32.6427192511
 21
-23.2669872981
  0
LINE
  5
25B
100
AcDbEntity
  8
0
100
AcDbLine
 62
253
  6
CONTINUOUS
 10
-32.6369014213
 20
24.2369056521
 11
-32.6369014213
 21
23.8443375673
  0
LINE
  5
25C
100
AcDbEntity
  8
0
100
AcDbLine
 62
253
  6
CONTINUOUS
 10
-32.6369014213
 20
-23.8443375673
 11
-32.6369014213
 21
-24.2369056521
  0
LINE
  5
25D
100
AcDbEntity
  8
0
100
AcDbLine
 62
253
  6
CONTINUOUS
 10
-32.3927234819
 20
23.1226497308
 11
-32.3927234819
 21
22.3213883311
  0
LINE
  5
25E
100
AcDbEntity
  8
0
100
AcDbLine
 62
253
  6
CONTINUOUS
 10
-32.3927234819
 20
-22.3213883311
 11
-32.3927234819
 21
-23.1226497308
  0
LINE
  5
25F
100
AcDbEntity
  8
0
100
AcDbLine
 62
253
  6
CONTINUOUS
 10
-32.3869056521
 20
-23.6278312164
 11
-32.3869056521
 21
-24.4869014213
  0
LINE
  5
260
100
AcDbEntity
  8
0
100
AcDbLine
 62
253
  6
CONTINUOUS
 10
-32.3869056521
 20
23.6278312164
 11
-32.3869056521
 21
24.4869014213
  0
LINE
  5
261
100
AcDbEntity
  8
DRAFT
100
AcDbLine
 62
7
  6
CONTINUOUS
 10
-33.6229446494
 20
-16.6
 11
-33.595044505
 21
0.0
  0
LINE
  5
262
100
AcDbEntity
  8
0
100
AcDbLine
 62
253
  6
CONTINUOUS
 10
-32.6427192511
 20
23.2669872981
 11
-32.6369014213
 21
23.8443375673
  0
LINE
  5
263
100
AcDbEntity
  8
0
100
AcDbLine
 62
253
  6
CONTINUOUS
 10
-32.3919962532
 20
23.1226497308
 11
-32.3869056521
 21
23.6278312164
  0
LINE
  5
264
100
AcDbEntity
  8
0
100
AcDbLine
 62
7
  6
CONTINUOUS
 10
-29.75
 20
22.4
 11
-29.7572807489
 21
22.3344140523
  0
LINE
  5
265
100
AcDbEntity
  8
0
100
AcDbLine
 62
7
  6
CONTINUOUS
 10
-29.75
 20
-22.4
 11
-29.7572807489
 21
-22.3344140523
  0
LINE
  5
266
100
AcDbEntity
  8
0
100
AcDbLine
 62
253
  6
CONTINUOUS
 10
-30.0130943479
 20
23.6278312164
 11
-30.0080037468
 21
23.1226497308
  0
LINE
  5
267
100
AcDbEntity
  8
0
100
AcDbLine
 62
253
  6
CONTINUOUS
 10
-29.7630985787
 20
23.8443375673
 11
-29.7572807489
 21
23.2669872981
  0
LINE
  5
268
100
AcDbEntity
  8
0
100
AcDbLine
 62
253
  6
CONTINUOUS
 10
-30.0130943479
 20
-23.6278312164
 11
-30.0130943479
 21
-24.4869014213
  0
LINE
  5
269
100
AcDbEntity
  8
0
100
AcDbLine
 62
253
  6
CONTINUOUS
 10
-30.0130943479
 20
23.6278312164
 11
-30.0130943479
 21
24.4869014213
  0
LINE
  5
26A
100
AcDbEntity
  8
0
100
AcDbLine
 62
253
  6
CONTINUOUS
 10
-30.0072765181
 20
-23.1226497308
 11
-30.0072765181
 21
-22.3213883311
  0
LINE
  5
26B
100
AcDbEntity
  8
0
100
AcDbLine
 62
253
  6
CONTINUOUS
 10
-30.0072765181
 20
22.3213883311
 11
-30.0072765181
 21
23.1226497308
  0
LINE
  5
26C
100
AcDbEntity
  8
0
100
AcDbLine
 62
253
  6
CONTINUOUS
 10
-29.7630985787
 20
-24.2369056521
 11
-29.7630985787
 21
-23.8443375673
  0
LINE
  5
26D
100
AcDbEntity
  8
0
100
AcDbLine
 62
253
  6
CONTINUOUS
 10
-29.7630985787
 20
23.8443375673
 11
-29.7630985787
 21
24.2369056521
  0
LINE
  5
26E
100
AcDbEntity
  8
0
100
AcDbLine
 62
253
  6
CONTINUOUS
 10
-29.7572807489
 20
-23.2669872981
 11
-29.7572807489
 21
-22.3344140523
  0
LINE
  5
26F
100
AcDbEntity
  8
0
100
AcDbLine
 62
253
  6
CONTINUOUS
 10
-29.7572807489
 20
22.3344140523
 11
-29.7572807489
 21
23.2669872981
  0
LINE
  5
270
100
AcDbEntity
  8
0
100
AcDbLine
 62
7
  6
CONTINUOUS
 10
-29.75
 20
-22.4
 11
-29.75
 21
-24.2500042308
  0
LINE
  5
271
100
AcDbEntity
  8
0
100
AcDbLine
 62
7
  6
CONTINUOUS
 10
-29.75
 20
22.4
 11
-29.75
 21
24.2500042308
  0
LINE
  5
272
100
AcDbEntity
  8
0
100
AcDbLine
 62
253
  6
CONTINUOUS
 10
-30.0080037468
 20
-23.1226497308
 11
-30.0130943479
 21
-23.6278312164
  0
LINE
  5
273
100
AcDbEntity
  8
0
100
AcDbLine
 62
253
  6
CONTINUOUS
 10
-29.7572807489
 20
-23.2669872981
 11
-29.7630985787
 21
-23.8443375673
  0
LINE
  5
274
100
AcDbEntity
  8
0
100
AcDbLine
 62
7
  6
CONTINUOUS
 10
-32.65
 20
-22.4
 11
-32.6427192511
 21
-22.3344140523
  0
LWPOLYLINE
  5
275
100
AcDbEntity
  8
0
100
AcDbPolyline
 62
7
  6
CONTINUOUS
 90
10
 70
0
 43
0.3500000006
 10
-3.2142856836
 20
38.8445007935
 10
-3.8571428204
 20
38.201642807
 10
-4.2857143393
 20
37.3445003357
 10
-4.2857143393
 20
36.2730733795
 10
-3.8571428204
 20
35.8444998779
 10
-3.2142856836
 20
35.8444998779
 10
-2.7857141647
 20
36.2730733795
 10
-2.7857141647
 20
37.1302158508
 10
-3.2142856836
 20
37.5587848206
 10
-4.1428570719
 20
37.5587848206
  0
LINE
  5
276
100
AcDbEntity
  8
0
100
AcDbLine
 62
7
  6
CONTINUOUS
 10
-18.05
 20
24.0
 11
-18.0587267447
 21
23.9912732553
  0
LWPOLYLINE
  5
277
100
AcDbEntity
  8
0
100
AcDbPolyline
 62
7
  6
CONTINUOUS
 90
5
 70
0
 43
0.3500000006
 10
3.0000000658
 20
37.5587848206
 10
3.357142951
 20
37.7730738373
 10
3.357142951
 20
38.4159318237
 10
3.0000000658
 20
38.8445007935
 10
2.1428571696
 20
38.8445007935
  0
LINE
  5
278
100
AcDbEntity
  8
0
100
AcDbLine
 62
7
  6
CONTINUOUS
 10
-18.05
 20
-24.0
 11
-18.0587267447
 21
-23.9912732553
  0
LINE
  5
279
100
AcDbEntity
  8
0
100
AcDbLine
 62
7
  6
CONTINUOUS
 10
-32.65
 20
22.4
 11
-32.6427192511
 21
22.3344140523
  0
LINE
  5
27A
100
AcDbEntity
  8
0
100
AcDbLine
 62
7
  6
CONTINUOUS
 10
-26.95
 20
-22.4
 11
-26.95
 21
-24.0
  0
LINE
  5
27B
100
AcDbEntity
  8
0
100
AcDbLine
 62
7
  6
CONTINUOUS
 10
-26.95
 20
22.4
 11
-26.95
 21
24.0
  0
LINE
  5
27C
100
AcDbEntity
  8
0
100
AcDbLine
 62
7
  6
CONTINUOUS
 10
-26.9412732553
 20
23.9912732553
 11
-26.9412732553
 21
22.3213883311
  0
LINE
  5
27D
100
AcDbEntity
  8
0
100
AcDbLine
 62
7
  6
CONTINUOUS
 10
-26.9412732553
 20
-22.3213883311
 11
-26.9412732553
 21
-23.9912732553
  0
LINE
  5
27E
100
AcDbEntity
  8
0
100
AcDbLine
 62
7
  6
CONTINUOUS
 10
-26.0
 20
-23.9982478817
 11
-26.0
 21
-22.3213883311
  0
LINE
  5
27F
100
AcDbEntity
  8
0
100
AcDbLine
 62
7
  6
CONTINUOUS
 10
-26.0
 20
22.3213883311
 11
-26.0
 21
23.9982478817
  0
LINE
  5
280
100
AcDbEntity
  8
0
100
AcDbLine
 62
253
  6
CONTINUOUS
 10
-33.6491272468
 20
-21.8997711479
 11
-33.6229446494
 21
-21.821159479
  0
LINE
  5
281
100
AcDbEntity
  8
0
100
AcDbLine
 62
253
  6
CONTINUOUS
 10
-12.6130943479
 20
24.4869014213
 11
-12.5999957692
 21
24.5
  0
LINE
  5
282
100
AcDbEntity
  8
0
100
AcDbLine
 62
253
  6
CONTINUOUS
 10
-12.3630985787
 20
24.2369056521
 11
-12.35
 21
24.2500042308
  0
LINE
  5
283
100
AcDbEntity
  8
0
100
AcDbLine
 62
253
  6
CONTINUOUS
 10
-12.6130943479
 20
-24.4869014213
 11
-12.5999957692
 21
-24.5
  0
LINE
  5
284
100
AcDbEntity
  8
0
100
AcDbLine
 62
253
  6
CONTINUOUS
 10
-12.3630985787
 20
-24.2369056521
 11
-12.35
 21
-24.2500042308
  0
LINE
  5
285
100
AcDbEntity
  8
0
100
AcDbLine
 62
253
  6
CONTINUOUS
 10
-33.6229446494
 20
21.821159479
 11
-33.6491272468
 21
21.8997711479
  0
LINE
  5
286
100
AcDbEntity
  8
0
100
AcDbLine
 62
253
  6
CONTINUOUS
 10
-23.7
 20
-22.3737961104
 11
-23.7
 21
-24.0
  0
LINE
  5
287
100
AcDbEntity
  8
0
100
AcDbLine
 62
253
  6
CONTINUOUS
 10
-23.7
 20
22.3737961104
 11
-23.7
 21
24.0
  0
LINE
  5
288
100
AcDbEntity
  8
0
100
AcDbLine
 62
7
  6
CONTINUOUS
 10
-23.5
 20
-23.7999966153
 11
-23.5
 21
-22.3842776662
  0
LINE
  5
289
100
AcDbEntity
  8
0
100
AcDbLine
 62
7
  6
CONTINUOUS
 10
-23.5
 20
22.3842776662
 11
-23.5
 21
23.7999966153
  0
LINE
  5
28A
100
AcDbEntity
  8
0
100
AcDbLine
 62
7
  6
CONTINUOUS
 10
-26.95
 20
-22.4
 11
-26.9412732553
 21
-22.3213883311
  0
LINE
  5
28B
100
AcDbEntity
  8
0
100
AcDbLine
 62
253
  6
CONTINUOUS
 10
-33.1495078465
 20
-22.4
 11
-33.1233252491
 21
-22.3213883311
  0
LINE
  5
28C
100
AcDbEntity
  8
0
100
AcDbLine
 62
7
  6
CONTINUOUS
 10
-32.4000042308
 20
-24.5
 11
-29.9999957692
 21
-24.5
  0
LINE
  5
28D
100
AcDbEntity
  8
0
100
AcDbLine
 62
7
  6
CONTINUOUS
 10
-15.0000042308
 20
-24.5
 11
-12.5999957692
 21
-24.5
  0
LINE
  5
28E
100
AcDbEntity
  8
0
100
AcDbLine
 62
7
  6
CONTINUOUS
 10
12.5999957692
 20
-24.5
 11
15.0000042308
 21
-24.5
  0
LINE
  5
28F
100
AcDbEntity
  8
0
100
AcDbLine
 62
7
  6
CONTINUOUS
 10
29.9999957692
 20
-24.5
 11
32.4000042308
 21
-24.5
  0
LINE
  5
290
100
AcDbEntity
  8
0
100
AcDbLine
 62
253
  6
CONTINUOUS
 10
-32.3869056521
 20
-24.4869014213
 11
-30.0130943479
 21
-24.4869014213
  0
LINE
  5
291
100
AcDbEntity
  8
0
100
AcDbLine
 62
253
  6
CONTINUOUS
 10
-14.9869056521
 20
-24.4869014213
 11
-12.6130943479
 21
-24.4869014213
  0
LINE
  5
292
100
AcDbEntity
  8
0
100
AcDbLine
 62
253
  6
CONTINUOUS
 10
12.6130943479
 20
-24.4869014213
 11
14.9869056521
 21
-24.4869014213
  0
LINE
  5
293
100
AcDbEntity
  8
0
100
AcDbLine
 62
253
  6
CONTINUOUS
 10
30.0130943479
 20
-24.4869014213
 11
32.3869056521
 21
-24.4869014213
  0
LINE
  5
294
100
AcDbEntity
  8
0
100
AcDbLine
 62
253
  6
CONTINUOUS
 10
12.3630985787
 20
-24.2369056521
 11
15.2369014213
 21
-24.2369056521
  0
LINE
  5
295
100
AcDbEntity
  8
0
100
AcDbLine
 62
253
  6
CONTINUOUS
 10
-12.3630985787
 20
-24.2369056521
 11
-15.2369014213
 21
-24.2369056521
  0
LINE
  5
296
100
AcDbEntity
  8
0
100
AcDbLine
 62
253
  6
CONTINUOUS
 10
29.7630985787
 20
-24.2369056521
 11
32.6369014213
 21
-24.2369056521
  0
LINE
  5
297
100
AcDbEntity
  8
0
100
AcDbLine
 62
253
  6
CONTINUOUS
 10
-29.7630985787
 20
-24.2369056521
 11
-32.6369014213
 21
-24.2369056521
  0
LINE
  5
298
100
AcDbEntity
  8
0
100
AcDbLine
 62
7
  6
CONTINUOUS
 10
26.95
 20
-24.0
 11
23.7
 21
-24.0
  0
LINE
  5
299
100
AcDbEntity
  8
0
100
AcDbLine
 62
7
  6
CONTINUOUS
 10
21.3
 20
-24.0
 11
18.05
 21
-24.0
  0
LINE
  5
29A
100
AcDbEntity
  8
0
100
AcDbLine
 62
7
  6
CONTINUOUS
 10
-18.05
 20
-24.0
 11
-21.3
 21
-24.0
  0
LINE
  5
29B
100
AcDbEntity
  8
0
100
AcDbLine
 62
7
  6
CONTINUOUS
 10
-23.7
 20
-24.0
 11
-26.95
 21
-24.0
  0
LINE
  5
29C
100
AcDbEntity
  8
0
100
AcDbLine
 62
253
  6
CONTINUOUS
 10
-26.0
 20
-23.9982478817
 11
-23.7
 21
-23.9982478817
  0
LINE
  5
29D
100
AcDbEntity
  8
0
100
AcDbLine
 62
253
  6
CONTINUOUS
 10
-21.3
 20
-23.9982478817
 11
-19.0
 21
-23.9982478817
  0
LINE
  5
29E
100
AcDbEntity
  8
0
100
AcDbLine
 62
253
  6
CONTINUOUS
 10
19.0
 20
-23.9982478817
 11
21.3
 21
-23.9982478817
  0
LINE
  5
29F
100
AcDbEntity
  8
0
100
AcDbLine
 62
253
  6
CONTINUOUS
 10
23.7
 20
-23.9982478817
 11
26.0
 21
-23.9982478817
  0
LINE
  5
2A0
100
AcDbEntity
  8
0
100
AcDbLine
 62
7
  6
CONTINUOUS
 10
26.9412732553
 20
-23.9912732553
 11
26.0
 21
-23.9912732553
  0
LINE
  5
2A1
100
AcDbEntity
  8
0
100
AcDbLine
 62
7
  6
CONTINUOUS
 10
19.0
 20
-23.9912732553
 11
18.0587267447
 21
-23.9912732553
  0
LINE
  5
2A2
100
AcDbEntity
  8
0
100
AcDbLine
 62
7
  6
CONTINUOUS
 10
-18.0587267447
 20
-23.9912732553
 11
-19.0
 21
-23.9912732553
  0
LINE
  5
2A3
100
AcDbEntity
  8
0
100
AcDbLine
 62
7
  6
CONTINUOUS
 10
-26.0
 20
-23.9912732553
 11
-26.9412732553
 21
-23.9912732553
  0
LINE
  5
2A4
100
AcDbEntity
  8
0
100
AcDbLine
 62
253
  6
CONTINUOUS
 10
12.3630985787
 20
-23.8443375673
 11
15.2369014213
 21
-23.8443375673
  0
LINE
  5
2A5
100
AcDbEntity
  8
0
100
AcDbLine
 62
253
  6
CONTINUOUS
 10
-12.3630985787
 20
-23.8443375673
 11
-15.2369014213
 21
-23.8443375673
  0
LINE
  5
2A6
100
AcDbEntity
  8
0
100
AcDbLine
 62
253
  6
CONTINUOUS
 10
29.7630985787
 20
-23.8443375673
 11
32.6369014213
 21
-23.8443375673
  0
LINE
  5
2A7
100
AcDbEntity
  8
0
100
AcDbLine
 62
253
  6
CONTINUOUS
 10
-29.7630985787
 20
-23.8443375673
 11
-32.6369014213
 21
-23.8443375673
  0
LINE
  5
2A8
100
AcDbEntity
  8
0
100
AcDbLine
 62
253
  6
CONTINUOUS
 10
-26.0
 20
-23.7982512664
 11
-23.5
 21
-23.7982512664
  0
LINE
  5
2A9
100
AcDbEntity
  8
0
100
AcDbLine
 62
253
  6
CONTINUOUS
 10
19.0
 20
-23.7982512664
 11
21.5
 21
-23.7982512664
  0
LINE
  5
2AA
100
AcDbEntity
  8
0
100
AcDbLine
 62
253
  6
CONTINUOUS
 10
-19.0
 20
-23.7982512664
 11
-21.5
 21
-23.7982512664
  0
LINE
  5
2AB
100
AcDbEntity
  8
0
100
AcDbLine
 62
253
  6
CONTINUOUS
 10
23.5
 20
-23.7982512664
 11
26.0
 21
-23.7982512664
  0
LINE
  5
2AC
100
AcDbEntity
  8
0
100
AcDbLine
 62
253
  6
CONTINUOUS
 10
32.3869056521
 20
-23.6278312164
 11
30.0130943479
 21
-23.6278312164
  0
LINE
  5
2AD
100
AcDbEntity
  8
0
100
AcDbLine
 62
253
  6
CONTINUOUS
 10
14.9869056521
 20
-23.6278312164
 11
12.6130943479
 21
-23.6278312164
  0
LINE
  5
2AE
100
AcDbEntity
  8
0
100
AcDbLine
 62
253
  6
CONTINUOUS
 10
-12.6130943479
 20
-23.6278312164
 11
-14.9869056521
 21
-23.6278312164
  0
LINE
  5
2AF
100
AcDbEntity
  8
0
100
AcDbLine
 62
253
  6
CONTINUOUS
 10
-30.0130943479
 20
-23.6278312164
 11
-32.3869056521
 21
-23.6278312164
  0
LINE
  5
2B0
100
AcDbEntity
  8
0
100
AcDbLine
 62
7
  6
CONTINUOUS
 10
-32.3927234819
 20
-23.1226497308
 11
-30.0072765181
 21
-23.1226497308
  0
LINE
  5
2B1
100
AcDbEntity
  8
0
100
AcDbLine
 62
7
  6
CONTINUOUS
 10
32.3927234819
 20
-23.1226497308
 11
30.0072765181
 21
-23.1226497308
  0
LINE
  5
2B2
100
AcDbEntity
  8
0
100
AcDbLine
 62
7
  6
CONTINUOUS
 10
12.6072765181
 20
-23.1226497308
 11
14.9927234819
 21
-23.1226497308
  0
LINE
  5
2B3
100
AcDbEntity
  8
0
100
AcDbLine
 62
7
  6
CONTINUOUS
 10
-12.6072765181
 20
-23.1226497308
 11
-14.9927234819
 21
-23.1226497308
  0
LINE
  5
2B4
100
AcDbEntity
  8
0
100
AcDbLine
 62
7
  6
CONTINUOUS
 10
33.1495078465
 20
-22.4
 11
32.65
 21
-22.4
  0
LINE
  5
2B5
100
AcDbEntity
  8
0
100
AcDbLine
 62
7
  6
CONTINUOUS
 10
29.75
 20
-22.4
 11
26.95
 21
-22.4
  0
LINE
  5
2B6
100
AcDbEntity
  8
0
100
AcDbLine
 62
7
  6
CONTINUOUS
 10
-23.5
 20
-22.4
 11
-21.5
 21
-22.4
  0
LINE
  5
2B7
100
AcDbEntity
  8
0
100
AcDbLine
 62
7
  6
CONTINUOUS
 10
18.05
 20
-22.4
 11
15.25
 21
-22.4
  0
LINE
  5
2B8
100
AcDbEntity
  8
0
100
AcDbLine
 62
7
  6
CONTINUOUS
 10
12.35
 20
-22.4
 11
11.8504921535
 21
-22.4
  0
LINE
  5
2B9
100
AcDbEntity
  8
0
100
AcDbLine
 62
7
  6
CONTINUOUS
 10
-11.8504921535
 20
-22.4
 11
-12.35
 21
-22.4
  0
LINE
  5
2BA
100
AcDbEntity
  8
0
100
AcDbLine
 62
7
  6
CONTINUOUS
 10
-15.25
 20
-22.4
 11
-18.05
 21
-22.4
  0
LINE
  5
2BB
100
AcDbEntity
  8
0
100
AcDbLine
 62
7
  6
CONTINUOUS
 10
21.5
 20
-22.4
 11
23.5
 21
-22.4
  0
LINE
  5
2BC
100
AcDbEntity
  8
0
100
AcDbLine
 62
7
  6
CONTINUOUS
 10
-26.95
 20
-22.4
 11
-29.75
 21
-22.4
  0
LINE
  5
2BD
100
AcDbEntity
  8
0
100
AcDbLine
 62
7
  6
CONTINUOUS
 10
-32.65
 20
-22.4
 11
-33.1495078465
 21
-22.4
  0
LINE
  5
2BE
100
AcDbEntity
  8
0
100
AcDbLine
 62
7
  6
CONTINUOUS
 10
26.0
 20
-22.3737961104
 11
23.7
 21
-22.3737961104
  0
LINE
  5
2BF
100
AcDbEntity
  8
0
100
AcDbLine
 62
7
  6
CONTINUOUS
 10
21.3
 20
-22.3737961104
 11
19.0
 21
-22.3737961104
  0
LINE
  5
2C0
100
AcDbEntity
  8
0
100
AcDbLine
 62
7
  6
CONTINUOUS
 10
-19.0
 20
-22.3737961104
 11
-21.3
 21
-22.3737961104
  0
LINE
  5
2C1
100
AcDbEntity
  8
0
100
AcDbLine
 62
7
  6
CONTINUOUS
 10
-23.7
 20
-22.3737961104
 11
-26.0
 21
-22.3737961104
  0
LINE
  5
2C2
100
AcDbEntity
  8
0
100
AcDbLine
 62
7
  6
CONTINUOUS
 10
33.1233252491
 20
-22.3213883311
 11
32.3927234819
 21
-22.3213883311
  0
LINE
  5
2C3
100
AcDbEntity
  8
0
100
AcDbLine
 62
7
  6
CONTINUOUS
 10
30.0072765181
 20
-22.3213883311
 11
26.9412732553
 21
-22.3213883311
  0
LINE
  5
2C4
100
AcDbEntity
  8
0
100
AcDbLine
 62
7
  6
CONTINUOUS
 10
26.0
 20
-22.3213883311
 11
19.0
 21
-22.3213883311
  0
LINE
  5
2C5
100
AcDbEntity
  8
0
100
AcDbLine
 62
7
  6
CONTINUOUS
 10
18.0587267447
 20
-22.3213883311
 11
14.9927234819
 21
-22.3213883311
  0
LINE
  5
2C6
100
AcDbEntity
  8
0
100
AcDbLine
 62
7
  6
CONTINUOUS
 10
12.6072765181
 20
-22.3213883311
 11
11.8766747509
 21
-22.3213883311
  0
LINE
  5
2C7
100
AcDbEntity
  8
0
100
AcDbLine
 62
7
  6
CONTINUOUS
 10
-11.8766747509
 20
-22.3213883311
 11
-12.6072765181
 21
-22.3213883311
  0
LINE
  5
2C8
100
AcDbEntity
  8
0
100
AcDbLine
 62
7
  6
CONTINUOUS
 10
-14.9927234819
 20
-22.3213883311
 11
-18.0587267447
 21
-22.3213883311
  0
LINE
  5
2C9
100
AcDbEntity
  8
0
100
AcDbLine
 62
7
  6
CONTINUOUS
 10
-19.0
 20
-22.3213883311
 11
-26.0
 21
-22.3213883311
  0
LINE
  5
2CA
100
AcDbEntity
  8
0
100
AcDbLine
 62
7
  6
CONTINUOUS
 10
-26.9412732553
 20
-22.3213883311
 11
-30.0072765181
 21
-22.3213883311
  0
LINE
  5
2CB
100
AcDbEntity
  8
0
100
AcDbLine
 62
7
  6
CONTINUOUS
 10
-32.3927234819
 20
-22.3213883311
 11
-33.1233252491
 21
-22.3213883311
  0
LINE
  5
2CC
100
AcDbEntity
  8
RACCORDO
100
AcDbLine
 62
7
  6
CONTINUOUS
 10
-33.0005138364
 20
-22.1
 11
33.0005138364
 21
-22.1
  0
LINE
  5
2CD
100
AcDbEntity
  8
0
100
AcDbLine
 62
253
  6
CONTINUOUS
 10
-33.1233252491
 20
22.3213883311
 11
-33.1495078465
 21
22.4
  0
LINE
  5
2CE
100
AcDbEntity
  8
0
100
AcDbLine
 62
7
  6
CONTINUOUS
 10
-26.9412732553
 20
22.3213883311
 11
-26.95
 21
22.4
  0
LINE
  5
2CF
100
AcDbEntity
  8
0
100
AcDbLine
 62
7
  6
CONTINUOUS
 10
-21.5
 20
23.7999966153
 11
-21.5
 21
22.3842776662
  0
LINE
  5
2D0
100
AcDbEntity
  8
0
100
AcDbLine
 62
7
  6
CONTINUOUS
 10
-21.5
 20
-22.3842776662
 11
-21.5
 21
-23.7999966153
  0
LINE
  5
2D1
100
AcDbEntity
  8
0
100
AcDbLine
 62
253
  6
CONTINUOUS
 10
-21.3
 20
-22.3737961104
 11
-21.3
 21
-24.0
  0
LINE
  5
2D2
100
AcDbEntity
  8
0
100
AcDbLine
 62
253
  6
CONTINUOUS
 10
-21.3
 20
22.3737961104
 11
-21.3
 21
24.0
  0
LINE
  5
2D3
100
AcDbEntity
  8
0
100
AcDbLine
 62
7
  6
CONTINUOUS
 10
-19.0
 20
23.9982478817
 11
-19.0
 21
22.3213883311
  0
LINE
  5
2D4
100
AcDbEntity
  8
0
100
AcDbLine
 62
7
  6
CONTINUOUS
 10
-19.0
 20
-22.3213883311
 11
-19.0
 21
-23.9982478817
  0
LINE
  5
2D5
100
AcDbEntity
  8
0
100
AcDbLine
 62
7
  6
CONTINUOUS
 10
-18.05
 20
22.4
 11
-18.0587267447
 21
22.3213883311
  0
LINE
  5
2D6
100
AcDbEntity
  8
RACCORDO
100
AcDbLine
 62
253
  6
CONTINUOUS
 10
-33.3786644941
 20
-21.3571622388
 11
-33.5
 21
-21.5999997649
  0
LINE
  5
2D7
100
AcDbEntity
  8
RACCORDO
100
AcDbLine
 62
253
  6
CONTINUOUS
 10
-32.8788358319
 20
-21.8564770067
 11
-33.0005138364
 21
-22.1
  0
LINE
  5
2D8
100
AcDbEntity
  8
RACCORDO
100
AcDbLine
 62
253
  6
CONTINUOUS
 10
-33.5
 20
21.5999997649
 11
-33.3786644944
 21
21.3571622394
  0
LINE
  5
2D9
100
AcDbEntity
  8
RACCORDO
100
AcDbLine
 62
253
  6
CONTINUOUS
 10
-33.0005138364
 20
22.1
 11
-32.8788358319
 21
21.8564770068
  0
LINE
  5
2DA
100
AcDbEntity
  8
0
100
AcDbLine
 62
7
  6
CONTINUOUS
 10
-18.0587267447
 20
-22.3213883311
 11
-18.05
 21
-22.4
  0
LINE
  5
2DB
100
AcDbEntity
  8
0
100
AcDbLine
 62
253
  6
CONTINUOUS
 10
-15.2369014213
 20
-23.8443375673
 11
-15.2427192511
 21
-23.2669872981
  0
LINE
  5
2DC
100
AcDbEntity
  8
0
100
AcDbLine
 62
7
  6
CONTINUOUS
 10
-18.0587267447
 20
-23.9912732553
 11
-18.0587267447
 21
-22.3213883311
  0
LINE
  5
2DD
100
AcDbEntity
  8
0
100
AcDbLine
 62
7
  6
CONTINUOUS
 10
-18.0587267447
 20
22.3213883311
 11
-18.0587267447
 21
23.9912732553
  0
LINE
  5
2DE
100
AcDbEntity
  8
0
100
AcDbLine
 62
7
  6
CONTINUOUS
 10
-18.05
 20
-22.4
 11
-18.05
 21
-24.0
  0
LINE
  5
2DF
100
AcDbEntity
  8
0
100
AcDbLine
 62
7
  6
CONTINUOUS
 10
-18.05
 20
22.4
 11
-18.05
 21
24.0
  0
LINE
  5
2E0
100
AcDbEntity
  8
0
100
AcDbLine
 62
253
  6
CONTINUOUS
 10
-15.2427192511
 20
23.2669872981
 11
-15.2369014213
 21
23.8443375673
  0
LINE
  5
2E1
100
AcDbEntity
  8
0
100
AcDbLine
 62
253
  6
CONTINUOUS
 10
-11.8504921535
 20
22.4
 11
-11.8766747509
 21
22.3213883311
  0
LINE
  5
2E2
100
AcDbEntity
  8
RACCORDO
100
AcDbLine
 62
7
  6
CONTINUOUS
 10
33.6229446494
 20
-16.6
 11
33.5
 21
-16.6
  0
LINE
  5
2E3
100
AcDbEntity
  8
RACCORDO
100
AcDbLine
 62
7
  6
CONTINUOUS
 10
-33.5
 20
-16.6
 11
-33.6229446494
 21
-16.6
  0
LINE
  5
2E4
100
AcDbEntity
  8
0
100
AcDbLine
 62
253
  6
CONTINUOUS
 10
-11.8766747509
 20
-22.3213883311
 11
-11.8504921535
 21
-22.4
  0
LINE
  5
2E5
100
AcDbEntity
  8
0
100
AcDbLine
 62
253
  6
CONTINUOUS
 10
-14.9869056521
 20
-23.6278312164
 11
-14.9919962532
 21
-23.1226497308
  0
LINE
  5
2E6
100
AcDbEntity
  8
0
100
AcDbLine
 62
253
  6
CONTINUOUS
 10
-12.6130943479
 20
23.6278312164
 11
-12.6080037468
 21
23.1226497308
  0
LINE
  5
2E7
100
AcDbEntity
  8
0
100
AcDbLine
 62
7
  6
CONTINUOUS
 10
-15.25
 20
-22.4
 11
-15.25
 21
-24.2500042308
  0
LINE
  5
2E8
100
AcDbEntity
  8
0
100
AcDbLine
 62
7
  6
CONTINUOUS
 10
-15.25
 20
22.4
 11
-15.25
 21
24.2500042308
  0
LINE
  5
2E9
100
AcDbEntity
  8
0
100
AcDbLine
 62
253
  6
CONTINUOUS
 10
-15.2427192511
 20
23.2669872981
 11
-15.2427192511
 21
22.3344140523
  0
LINE
  5
2EA
100
AcDbEntity
  8
0
100
AcDbLine
 62
253
  6
CONTINUOUS
 10
-15.2427192511
 20
-22.3344140523
 11
-15.2427192511
 21
-23.2669872981
  0
LINE
  5
2EB
100
AcDbEntity
  8
0
100
AcDbLine
 62
253
  6
CONTINUOUS
 10
-15.2369014213
 20
24.2369056521
 11
-15.2369014213
 21
23.8443375673
  0
LINE
  5
2EC
100
AcDbEntity
  8
0
100
AcDbLine
 62
253
  6
CONTINUOUS
 10
-15.2369014213
 20
-23.8443375673
 11
-15.2369014213
 21
-24.2369056521
  0
LINE
  5
2ED
100
AcDbEntity
  8
0
100
AcDbLine
 62
253
  6
CONTINUOUS
 10
-14.9927234819
 20
23.1226497308
 11
-14.9927234819
 21
22.3213883311
  0
LINE
  5
2EE
100
AcDbEntity
  8
0
100
AcDbLine
 62
253
  6
CONTINUOUS
 10
-14.9927234819
 20
-22.3213883311
 11
-14.9927234819
 21
-23.1226497308
  0
LINE
  5
2EF
100
AcDbEntity
  8
0
100
AcDbLine
 62
253
  6
CONTINUOUS
 10
-14.9869056521
 20
-23.6278312164
 11
-14.9869056521
 21
-24.4869014213
  0
LINE
  5
2F0
100
AcDbEntity
  8
0
100
AcDbLine
 62
253
  6
CONTINUOUS
 10
-14.9869056521
 20
23.6278312164
 11
-14.9869056521
 21
24.4869014213
  0
LINE
  5
2F1
100
AcDbEntity
  8
0
100
AcDbLine
 62
253
  6
CONTINUOUS
 10
-12.6130943479
 20
-23.6278312164
 11
-12.6130943479
 21
-24.4869014213
  0
LINE
  5
2F2
100
AcDbEntity
  8
0
100
AcDbLine
 62
253
  6
CONTINUOUS
 10
-12.6130943479
 20
23.6278312164
 11
-12.6130943479
 21
24.4869014213
  0
LINE
  5
2F3
100
AcDbEntity
  8
0
100
AcDbLine
 62
253
  6
CONTINUOUS
 10
-12.6072765181
 20
-23.1226497308
 11
-12.6072765181
 21
-22.3213883311
  0
LINE
  5
2F4
100
AcDbEntity
  8
0
100
AcDbLine
 62
253
  6
CONTINUOUS
 10
-12.6072765181
 20
22.3213883311
 11
-12.6072765181
 21
23.1226497308
  0
LINE
  5
2F5
100
AcDbEntity
  8
0
100
AcDbLine
 62
253
  6
CONTINUOUS
 10
-12.3630985787
 20
-24.2369056521
 11
-12.3630985787
 21
-23.8443375673
  0
LINE
  5
2F6
100
AcDbEntity
  8
0
100
AcDbLine
 62
253
  6
CONTINUOUS
 10
-12.3630985787
 20
23.8443375673
 11
-12.3630985787
 21
24.2369056521
  0
LINE
  5
2F7
100
AcDbEntity
  8
0
100
AcDbLine
 62
253
  6
CONTINUOUS
 10
-12.3572807489
 20
-23.2669872981
 11
-12.3572807489
 21
-22.3344140523
  0
LINE
  5
2F8
100
AcDbEntity
  8
0
100
AcDbLine
 62
253
  6
CONTINUOUS
 10
-12.3572807489
 20
22.3344140523
 11
-12.3572807489
 21
23.2669872981
  0
LINE
  5
2F9
100
AcDbEntity
  8
0
100
AcDbLine
 62
7
  6
CONTINUOUS
 10
-12.35
 20
-22.4
 11
-12.35
 21
-24.2500042308
  0
LINE
  5
2FA
100
AcDbEntity
  8
0
100
AcDbLine
 62
7
  6
CONTINUOUS
 10
-12.35
 20
22.4
 11
-12.35
 21
24.2500042308
  0
LINE
  5
2FB
100
AcDbEntity
  8
0
100
AcDbLine
 62
253
  6
CONTINUOUS
 10
-14.9919962532
 20
23.1226497308
 11
-14.9869056521
 21
23.6278312164
  0
LINE
  5
2FC
100
AcDbEntity
  8
0
100
AcDbLine
 62
253
  6
CONTINUOUS
 10
-12.6080037468
 20
-23.1226497308
 11
-12.6130943479
 21
-23.6278312164
  0
LINE
  5
2FD
100
AcDbEntity
  8
0
100
AcDbLine
 62
7
  6
CONTINUOUS
 10
-12.35
 20
22.4
 11
-12.3572807489
 21
22.3344140523
  0
LINE
  5
2FE
100
AcDbEntity
  8
0
100
AcDbLine
 62
7
  6
CONTINUOUS
 10
-15.25
 20
-22.4
 11
-15.2427192511
 21
-22.3344140523
  0
LINE
  5
2FF
100
AcDbEntity
  8
0
100
AcDbLine
 62
7
  6
CONTINUOUS
 10
-12.35
 20
-22.4
 11
-12.3572807489
 21
-22.3344140523
  0
LINE
  5
300
100
AcDbEntity
  8
0
100
AcDbLine
 62
7
  6
CONTINUOUS
 10
-15.25
 20
22.4
 11
-15.2427192511
 21
22.3344140523
  0
LINE
  5
301
100
AcDbEntity
  8
0
100
AcDbLine
 62
253
  6
CONTINUOUS
 10
-12.3630985787
 20
23.8443375673
 11
-12.3572807489
 21
23.2669872981
  0
LINE
  5
302
100
AcDbEntity
  8
0
100
AcDbLine
 62
253
  6
CONTINUOUS
 10
-12.3572807489
 20
-23.2669872981
 11
-12.3630985787
 21
-23.8443375673
  0
LWPOLYLINE
  5
303
100
AcDbEntity
  8
0
100
AcDbPolyline
 62
7
  6
CONTINUOUS
 90
3
 70
0
 43
0.3500000006
 10
1.1428571477
 20
36.1302155457
 10
1.0714285848
 20
35.9159310608
 10
0.9285714591
 20
35.6302153931
  0
LINE
  5
304
100
AcDbEntity
  8
0
100
AcDbLine
 62
253
  6
CONTINUOUS
 10
14.9869056521
 20
24.4869014213
 11
15.0000042308
 21
24.5
  0
LINE
  5
305
100
AcDbEntity
  8
0
100
AcDbLine
 62
253
  6
CONTINUOUS
 10
15.2369014213
 20
24.2369056521
 11
15.25
 21
24.2500042308
  0
LINE
  5
306
100
AcDbEntity
  8
0
100
AcDbLine
 62
253
  6
CONTINUOUS
 10
-32.6369014213
 20
-24.2369056521
 11
-32.65
 21
-24.2500042308
  0
LINE
  5
307
100
AcDbEntity
  8
0
100
AcDbLine
 62
253
  6
CONTINUOUS
 10
14.9869056521
 20
-24.4869014213
 11
15.0000042308
 21
-24.5
  0
LINE
  5
308
100
AcDbEntity
  8
0
100
AcDbLine
 62
253
  6
CONTINUOUS
 10
15.2369014213
 20
-24.2369056521
 11
15.25
 21
-24.2500042308
  0
LINE
  5
309
100
AcDbEntity
  8
0
100
AcDbLine
 62
253
  6
CONTINUOUS
 10
-32.6369014213
 20
24.2369056521
 11
-32.65
 21
24.2500042308
  0
LINE
  5
30A
100
AcDbEntity
  8
0
100
AcDbLine
 62
253
  6
CONTINUOUS
 10
-32.3869056521
 20
-24.4869014213
 11
-32.4000042308
 21
-24.5
  0
LINE
  5
30B
100
AcDbEntity
  8
0
100
AcDbLine
 62
253
  6
CONTINUOUS
 10
-32.3869056521
 20
24.4869014213
 11
-32.4000042308
 21
24.5
  0
LWPOLYLINE
  5
30C
100
AcDbEntity
  8
0
100
AcDbPolyline
 62
7
  6
CONTINUOUS
 90
4
 70
0
 43
0.3500000006
 10
-1.9285714102
 20
38.201642807
 10
-1.9285714102
 20
38.8445007935
 10
-0.4285714127
 20
38.8445007935
 10
-1.2857142735
 20
35.8444998779
  0
LINE
  5
30D
100
AcDbEntity
  8
0
100
AcDbLine
 62
7
  6
CONTINUOUS
 10
-1.815732
 20
-13.64
 11
-1.815732
 21
-13.66
  0
LINE
  5
30E
100
AcDbEntity
  8
0
100
AcDbLine
 62
7
  6
CONTINUOUS
 10
-26.9412732553
 20
-23.9912732553
 11
-26.95
 21
-24.0
  0
LWPOLYLINE
  5
30F
100
AcDbEntity
  8
0
100
AcDbPolyline
 62
7
  6
CONTINUOUS
 90
2
 70
0
 43
0.3500000006
 10
45.7483960876
 20
-1.3571429443
 10
44.2483956299
 20
-1.3571429443
  0
LINE
  5
310
100
AcDbEntity
  8
DRAFT
100
AcDbLine
 62
7
  6
CONTINUOUS
 10
33.595044505
 20
0.0
 11
33.5
 21
0.0
  0
LINE
  5
311
100
AcDbEntity
  8
DRAFT
100
AcDbLine
 62
7
  6
CONTINUOUS
 10
-33.5
 20
0.0
 11
-33.595044505
 21
0.0
  0
LINE
  5
312
100
AcDbEntity
  8
0
100
AcDbLine
 62
7
  6
CONTINUOUS
 10
-26.95
 20
24.0
 11
-26.9412732553
 21
23.9912732553
  0
LINE
  5
313
100
AcDbEntity
  8
0
100
AcDbLine
 62
7
  6
CONTINUOUS
 10
0.813006
 20
-13.66
 11
0.813006
 21
-13.64
  0
LINE
  5
314
100
AcDbEntity
  8
0
100
AcDbLine
 62
7
  6
CONTINUOUS
 10
26.95
 20
24.0
 11
26.9412732553
 21
23.9912732553
  0
LINE
  5
315
100
AcDbEntity
  8
0
100
AcDbLine
 62
7
  6
CONTINUOUS
 10
26.95
 20
-24.0
 11
26.9412732553
 21
-23.9912732553
  0
LINE
  5
316
100
AcDbEntity
  8
0
100
AcDbLine
 62
253
  6
CONTINUOUS
 10
32.3869056521
 20
24.4869014213
 11
32.4000042308
 21
24.5
  0
LINE
  5
317
100
AcDbEntity
  8
0
100
AcDbLine
 62
253
  6
CONTINUOUS
 10
32.6369014213
 20
24.2369056521
 11
32.65
 21
24.2500042308
  0
LINE
  5
318
100
AcDbEntity
  8
0
100
AcDbLine
 62
253
  6
CONTINUOUS
 10
-15.2369014213
 20
-24.2369056521
 11
-15.25
 21
-24.2500042308
  0
LINE
  5
319
100
AcDbEntity
  8
0
100
AcDbLine
 62
253
  6
CONTINUOUS
 10
32.3869056521
 20
-24.4869014213
 11
32.4000042308
 21
-24.5
  0
LINE
  5
31A
100
AcDbEntity
  8
0
100
AcDbLine
 62
253
  6
CONTINUOUS
 10
32.6369014213
 20
-24.2369056521
 11
32.65
 21
-24.2500042308
  0
LINE
  5
31B
100
AcDbEntity
  8
0
100
AcDbLine
 62
253
  6
CONTINUOUS
 10
-15.2369014213
 20
24.2369056521
 11
-15.25
 21
24.2500042308
  0
LINE
  5
31C
100
AcDbEntity
  8
0
100
AcDbLine
 62
253
  6
CONTINUOUS
 10
-14.9869056521
 20
-24.4869014213
 11
-15.0000042308
 21
-24.5
  0
LINE
  5
31D
100
AcDbEntity
  8
0
100
AcDbLine
 62
253
  6
CONTINUOUS
 10
-14.9869056521
 20
24.4869014213
 11
-15.0000042308
 21
24.5
  0
LINE
  5
31E
100
AcDbEntity
  8
0
100
AcDbLine
 62
253
  6
CONTINUOUS
 10
12.3630985787
 20
-23.8443375673
 11
12.3572807489
 21
-23.2669872981
  0
LINE
  5
31F
100
AcDbEntity
  8
0
100
AcDbLine
 62
253
  6
CONTINUOUS
 10
12.6130943479
 20
-23.6278312164
 11
12.6080037468
 21
-23.1226497308
  0
LINE
  5
320
100
AcDbEntity
  8
0
100
AcDbLine
 62
7
  6
CONTINUOUS
 10
12.35
 20
-22.4
 11
12.35
 21
-24.2500042308
  0
LINE
  5
321
100
AcDbEntity
  8
0
100
AcDbLine
 62
7
  6
CONTINUOUS
 10
12.35
 20
22.4
 11
12.35
 21
24.2500042308
  0
LINE
  5
322
100
AcDbEntity
  8
0
100
AcDbLine
 62
253
  6
CONTINUOUS
 10
12.3572807489
 20
23.2669872981
 11
12.3572807489
 21
22.3344140523
  0
LINE
  5
323
100
AcDbEntity
  8
0
100
AcDbLine
 62
253
  6
CONTINUOUS
 10
12.3572807489
 20
-22.3344140523
 11
12.3572807489
 21
-23.2669872981
  0
LINE
  5
324
100
AcDbEntity
  8
0
100
AcDbLine
 62
253
  6
CONTINUOUS
 10
12.3630985787
 20
24.2369056521
 11
12.3630985787
 21
23.8443375673
  0
LINE
  5
325
100
AcDbEntity
  8
0
100
AcDbLine
 62
253
  6
CONTINUOUS
 10
12.3630985787
 20
-23.8443375673
 11
12.3630985787
 21
-24.2369056521
  0
LINE
  5
326
100
AcDbEntity
  8
0
100
AcDbLine
 62
253
  6
CONTINUOUS
 10
12.6072765181
 20
23.1226497308
 11
12.6072765181
 21
22.3213883311
  0
LINE
  5
327
100
AcDbEntity
  8
0
100
AcDbLine
 62
253
  6
CONTINUOUS
 10
12.6072765181
 20
-22.3213883311
 11
12.6072765181
 21
-23.1226497308
  0
LINE
  5
328
100
AcDbEntity
  8
0
100
AcDbLine
 62
253
  6
CONTINUOUS
 10
12.6130943479
 20
-23.6278312164
 11
12.6130943479
 21
-24.4869014213
  0
LINE
  5
329
100
AcDbEntity
  8
0
100
AcDbLine
 62
253
  6
CONTINUOUS
 10
12.6130943479
 20
23.6278312164
 11
12.6130943479
 21
24.4869014213
  0
LINE
  5
32A
100
AcDbEntity
  8
0
100
AcDbLine
 62
253
  6
CONTINUOUS
 10
12.3572807489
 20
23.2669872981
 11
12.3630985787
 21
23.8443375673
  0
LINE
  5
32B
100
AcDbEntity
  8
0
100
AcDbLine
 62
253
  6
CONTINUOUS
 10
12.6080037468
 20
23.1226497308
 11
12.6130943479
 21
23.6278312164
  0
LINE
  5
32C
100
AcDbEntity
  8
0
100
AcDbLine
 62
7
  6
CONTINUOUS
 10
15.25
 20
22.4
 11
15.2427192511
 21
22.3344140523
  0
LINE
  5
32D
100
AcDbEntity
  8
0
100
AcDbLine
 62
7
  6
CONTINUOUS
 10
15.25
 20
-22.4
 11
15.2427192511
 21
-22.3344140523
  0
LINE
  5
32E
100
AcDbEntity
  8
0
100
AcDbLine
 62
253
  6
CONTINUOUS
 10
14.9869056521
 20
23.6278312164
 11
14.9919962532
 21
23.1226497308
  0
LINE
  5
32F
100
AcDbEntity
  8
0
100
AcDbLine
 62
253
  6
CONTINUOUS
 10
15.2369014213
 20
23.8443375673
 11
15.2427192511
 21
23.2669872981
  0
LINE
  5
330
100
AcDbEntity
  8
0
100
AcDbLine
 62
253
  6
CONTINUOUS
 10
14.9869056521
 20
-23.6278312164
 11
14.9869056521
 21
-24.4869014213
  0
LINE
  5
331
100
AcDbEntity
  8
0
100
AcDbLine
 62
253
  6
CONTINUOUS
 10
14.9869056521
 20
23.6278312164
 11
14.9869056521
 21
24.4869014213
  0
LINE
  5
332
100
AcDbEntity
  8
0
100
AcDbLine
 62
253
  6
CONTINUOUS
 10
14.9927234819
 20
-23.1226497308
 11
14.9927234819
 21
-22.3213883311
  0
LINE
  5
333
100
AcDbEntity
  8
0
100
AcDbLine
 62
253
  6
CONTINUOUS
 10
14.9927234819
 20
22.3213883311
 11
14.9927234819
 21
23.1226497308
  0
LINE
  5
334
100
AcDbEntity
  8
0
100
AcDbLine
 62
253
  6
CONTINUOUS
 10
15.2369014213
 20
-24.2369056521
 11
15.2369014213
 21
-23.8443375673
  0
LINE
  5
335
100
AcDbEntity
  8
0
100
AcDbLine
 62
253
  6
CONTINUOUS
 10
15.2369014213
 20
23.8443375673
 11
15.2369014213
 21
24.2369056521
  0
LINE
  5
336
100
AcDbEntity
  8
0
100
AcDbLine
 62
253
  6
CONTINUOUS
 10
15.2427192511
 20
-23.2669872981
 11
15.2427192511
 21
-22.3344140523
  0
LINE
  5
337
100
AcDbEntity
  8
0
100
AcDbLine
 62
253
  6
CONTINUOUS
 10
15.2427192511
 20
22.3344140523
 11
15.2427192511
 21
23.2669872981
  0
LINE
  5
338
100
AcDbEntity
  8
0
100
AcDbLine
 62
7
  6
CONTINUOUS
 10
15.25
 20
-22.4
 11
15.25
 21
-24.2500042308
  0
LINE
  5
339
100
AcDbEntity
  8
0
100
AcDbLine
 62
7
  6
CONTINUOUS
 10
15.25
 20
22.4
 11
15.25
 21
24.2500042308
  0
LINE
  5
33A
100
AcDbEntity
  8
0
100
AcDbLine
 62
253
  6
CONTINUOUS
 10
14.9919962532
 20
-23.1226497308
 11
14.9869056521
 21
-23.6278312164
  0
LINE
  5
33B
100
AcDbEntity
  8
0
100
AcDbLine
 62
253
  6
CONTINUOUS
 10
15.2427192511
 20
-23.2669872981
 11
15.2369014213
 21
-23.8443375673
  0
LINE
  5
33C
100
AcDbEntity
  8
0
100
AcDbLine
 62
7
  6
CONTINUOUS
 10
12.35
 20
-22.4
 11
12.3572807489
 21
-22.3344140523
  0
LINE
  5
33D
100
AcDbEntity
  8
0
100
AcDbLine
 62
7
  6
CONTINUOUS
 10
12.35
 20
22.4
 11
12.3572807489
 21
22.3344140523
  0
LINE
  5
33E
100
AcDbEntity
  8
0
100
AcDbLine
 62
7
  6
CONTINUOUS
 10
18.05
 20
-22.4
 11
18.05
 21
-24.0
  0
LINE
  5
33F
100
AcDbEntity
  8
0
100
AcDbLine
 62
7
  6
CONTINUOUS
 10
18.05
 20
22.4
 11
18.05
 21
24.0
  0
LINE
  5
340
100
AcDbEntity
  8
0
100
AcDbLine
 62
7
  6
CONTINUOUS
 10
18.0587267447
 20
23.9912732553
 11
18.0587267447
 21
22.3213883311
  0
LINE
  5
341
100
AcDbEntity
  8
0
100
AcDbLine
 62
7
  6
CONTINUOUS
 10
18.0587267447
 20
-22.3213883311
 11
18.0587267447
 21
-23.9912732553
  0
LINE
  5
342
100
AcDbEntity
  8
0
100
AcDbLine
 62
7
  6
CONTINUOUS
 10
19.0
 20
-23.9982478817
 11
19.0
 21
-22.3213883311
  0
LINE
  5
343
100
AcDbEntity
  8
0
100
AcDbLine
 62
7
  6
CONTINUOUS
 10
19.0
 20
22.3213883311
 11
19.0
 21
23.9982478817
  0
LINE
  5
344
100
AcDbEntity
  8
0
100
AcDbLine
 62
253
  6
CONTINUOUS
 10
11.8504921535
 20
-22.4
 11
11.8766747509
 21
-22.3213883311
  0
LINE
  5
345
100
AcDbEntity
  8
RACCORDO
100
AcDbLine
 62
7
  6
CONTINUOUS
 10
-33.6229446494
 20
16.6
 11
-33.5
 21
16.6
  0
LINE
  5
346
100
AcDbEntity
  8
RACCORDO
100
AcDbLine
 62
7
  6
CONTINUOUS
 10
33.5
 20
16.6
 11
33.6229446494
 21
16.6
  0
LWPOLYLINE
  5
347
100
AcDbEntity
  8
0
100
AcDbPolyline
 62
7
  6
CONTINUOUS
 90
10
 70
0
 43
0.3500000006
 10
1.0714285848
 20
36.3445000305
 10
1.1428571477
 20
36.2016421967
 10
1.1428571477
 20
36.1302155457
 10
1.0000000219
 20
35.9873577118
 10
0.9285714591
 20
35.9873577118
 10
0.8571428254
 20
36.0587888947
 10
0.8571428254
 20
36.1302155457
 10
0.9285714591
 20
36.2730733795
 10
1.0000000219
 20
36.3445000305
 10
1.0714285848
 20
36.3445000305
  0
LINE
  5
348
100
AcDbEntity
  8
0
100
AcDbLine
 62
253
  6
CONTINUOUS
 10
11.8766747509
 20
22.3213883311
 11
11.8504921535
 21
22.4
  0
LINE
  5
349
100
AcDbEntity
  8
0
100
AcDbLine
 62
253
  6
CONTINUOUS
 10
21.3
 20
-22.3737961104
 11
21.3
 21
-24.0
  0
LINE
  5
34A
100
AcDbEntity
  8
0
100
AcDbLine
 62
253
  6
CONTINUOUS
 10
21.3
 20
22.3737961104
 11
21.3
 21
24.0
  0
LINE
  5
34B
100
AcDbEntity
  8
0
100
AcDbLine
 62
7
  6
CONTINUOUS
 10
21.5
 20
-23.7999966153
 11
21.5
 21
-22.3842776662
  0
LINE
  5
34C
100
AcDbEntity
  8
0
100
AcDbLine
 62
7
  6
CONTINUOUS
 10
21.5
 20
22.3842776662
 11
21.5
 21
23.7999966153
  0
LINE
  5
34D
100
AcDbEntity
  8
0
100
AcDbLine
 62
7
  6
CONTINUOUS
 10
18.05
 20
-22.4
 11
18.0587267447
 21
-22.3213883311
  0
LINE
  5
34E
100
AcDbEntity
  8
RACCORDO
100
AcDbLine
 62
253
  6
CONTINUOUS
 10
32.8788358319
 20
21.8564770067
 11
33.0005138364
 21
22.1
  0
LINE
  5
34F
100
AcDbEntity
  8
RACCORDO
100
AcDbLine
 62
253
  6
CONTINUOUS
 10
33.3786644941
 20
21.3571622388
 11
33.5
 21
21.5999997649
  0
LINE
  5
350
100
AcDbEntity
  8
RACCORDO
100
AcDbLine
 62
7
  6
CONTINUOUS
 10
-33.0005138364
 20
22.1
 11
33.0005138364
 21
22.1
  0
LINE
  5
351
100
AcDbEntity
  8
0
100
AcDbLine
 62
7
  6
CONTINUOUS
 10
33.1233252491
 20
22.3213883311
 11
32.3927234819
 21
22.3213883311
  0
LINE
  5
352
100
AcDbEntity
  8
0
100
AcDbLine
 62
7
  6
CONTINUOUS
 10
30.0072765181
 20
22.3213883311
 11
26.9412732553
 21
22.3213883311
  0
LINE
  5
353
100
AcDbEntity
  8
0
100
AcDbLine
 62
7
  6
CONTINUOUS
 10
26.0
 20
22.3213883311
 11
19.0
 21
22.3213883311
  0
LINE
  5
354
100
AcDbEntity
  8
0
100
AcDbLine
 62
7
  6
CONTINUOUS
 10
18.0587267447
 20
22.3213883311
 11
14.9927234819
 21
22.3213883311
  0
LINE
  5
355
100
AcDbEntity
  8
0
100
AcDbLine
 62
7
  6
CONTINUOUS
 10
12.6072765181
 20
22.3213883311
 11
11.8766747509
 21
22.3213883311
  0
LINE
  5
356
100
AcDbEntity
  8
0
100
AcDbLine
 62
7
  6
CONTINUOUS
 10
-11.8766747509
 20
22.3213883311
 11
-12.6072765181
 21
22.3213883311
  0
LINE
  5
357
100
AcDbEntity
  8
0
100
AcDbLine
 62
7
  6
CONTINUOUS
 10
-14.9927234819
 20
22.3213883311
 11
-18.0587267447
 21
22.3213883311
  0
LINE
  5
358
100
AcDbEntity
  8
0
100
AcDbLine
 62
7
  6
CONTINUOUS
 10
-19.0
 20
22.3213883311
 11
-26.0
 21
22.3213883311
  0
LINE
  5
359
100
AcDbEntity
  8
0
100
AcDbLine
 62
7
  6
CONTINUOUS
 10
-26.9412732553
 20
22.3213883311
 11
-30.0072765181
 21
22.3213883311
  0
LINE
  5
35A
100
AcDbEntity
  8
0
100
AcDbLine
 62
7
  6
CONTINUOUS
 10
-32.3927234819
 20
22.3213883311
 11
-33.1233252491
 21
22.3213883311
  0
LINE
  5
35B
100
AcDbEntity
  8
0
100
AcDbLine
 62
7
  6
CONTINUOUS
 10
26.0
 20
22.3737961104
 11
23.7
 21
22.3737961104
  0
LINE
  5
35C
100
AcDbEntity
  8
0
100
AcDbLine
 62
7
  6
CONTINUOUS
 10
21.3
 20
22.3737961104
 11
19.0
 21
22.3737961104
  0
LINE
  5
35D
100
AcDbEntity
  8
0
100
AcDbLine
 62
7
  6
CONTINUOUS
 10
-19.0
 20
22.3737961104
 11
-21.3
 21
22.3737961104
  0
LINE
  5
35E
100
AcDbEntity
  8
0
100
AcDbLine
 62
7
  6
CONTINUOUS
 10
-23.7
 20
22.3737961104
 11
-26.0
 21
22.3737961104
  0
LINE
  5
35F
100
AcDbEntity
  8
RACCORDO
100
AcDbLine
 62
253
  6
CONTINUOUS
 10
33.0005138364
 20
-22.1
 11
32.8788358319
 21
-21.8564770068
  0
LINE
  5
360
100
AcDbEntity
  8
RACCORDO
100
AcDbLine
 62
253
  6
CONTINUOUS
 10
33.5
 20
-21.5999997649
 11
33.3786644944
 21
-21.3571622394
  0
LINE
  5
361
100
AcDbEntity
  8
0
100
AcDbLine
 62
7
  6
CONTINUOUS
 10
18.0587267447
 20
22.3213883311
 11
18.05
 21
22.4
  0
LINE
  5
362
100
AcDbEntity
  8
0
100
AcDbLine
 62
7
  6
CONTINUOUS
 10
23.5
 20
23.7999966153
 11
23.5
 21
22.3842776662
  0
LINE
  5
363
100
AcDbEntity
  8
0
100
AcDbLine
 62
7
  6
CONTINUOUS
 10
23.5
 20
-22.3842776662
 11
23.5
 21
-23.7999966153
  0
LINE
  5
364
100
AcDbEntity
  8
0
100
AcDbLine
 62
253
  6
CONTINUOUS
 10
23.7
 20
-22.3737961104
 11
23.7
 21
-24.0
  0
LINE
  5
365
100
AcDbEntity
  8
0
100
AcDbLine
 62
253
  6
CONTINUOUS
 10
23.7
 20
22.3737961104
 11
23.7
 21
24.0
  0
LINE
  5
366
100
AcDbEntity
  8
0
100
AcDbLine
 62
7
  6
CONTINUOUS
 10
26.95
 20
22.4
 11
26.9412732553
 21
22.3213883311
  0
LINE
  5
367
100
AcDbEntity
  8
0
100
AcDbLine
 62
253
  6
CONTINUOUS
 10
33.1495078465
 20
22.4
 11
33.1233252491
 21
22.3213883311
  0
LINE
  5
368
100
AcDbEntity
  8
0
100
AcDbLine
 62
253
  6
CONTINUOUS
 10
33.6491272468
 20
21.8997711479
 11
33.6229446494
 21
21.821159479
  0
LINE
  5
369
100
AcDbEntity
  8
0
100
AcDbLine
 62
7
  6
CONTINUOUS
 10
33.1504426895
 20
22.4
 11
32.65
 21
22.4
  0
LINE
  5
36A
100
AcDbEntity
  8
0
100
AcDbLine
 62
7
  6
CONTINUOUS
 10
29.75
 20
22.4
 11
26.95
 21
22.4
  0
LINE
  5
36B
100
AcDbEntity
  8
0
100
AcDbLine
 62
7
  6
CONTINUOUS
 10
-23.5
 20
22.4
 11
-21.5
 21
22.4
  0
LINE
  5
36C
100
AcDbEntity
  8
0
100
AcDbLine
 62
7
  6
CONTINUOUS
 10
18.05
 20
22.4
 11
15.25
 21
22.4
  0
LINE
  5
36D
100
AcDbEntity
  8
0
100
AcDbLine
 62
7
  6
CONTINUOUS
 10
12.35
 20
22.4
 11
11.8495573105
 21
22.4
  0
LINE
  5
36E
100
AcDbEntity
  8
0
100
AcDbLine
 62
7
  6
CONTINUOUS
 10
-11.8495573105
 20
22.4
 11
-12.35
 21
22.4
  0
LINE
  5
36F
100
AcDbEntity
  8
0
100
AcDbLine
 62
7
  6
CONTINUOUS
 10
-15.25
 20
22.4
 11
-18.05
 21
22.4
  0
LINE
  5
370
100
AcDbEntity
  8
0
100
AcDbLine
 62
7
  6
CONTINUOUS
 10
21.5
 20
22.4
 11
23.5
 21
22.4
  0
LINE
  5
371
100
AcDbEntity
  8
0
100
AcDbLine
 62
7
  6
CONTINUOUS
 10
-26.95
 20
22.4
 11
-29.75
 21
22.4
  0
LINE
  5
372
100
AcDbEntity
  8
0
100
AcDbLine
 62
7
  6
CONTINUOUS
 10
-32.65
 20
22.4
 11
-33.1504426895
 21
22.4
  0
LINE
  5
373
100
AcDbEntity
  8
0
100
AcDbLine
 62
7
  6
CONTINUOUS
 10
-32.3927234819
 20
23.1226497308
 11
-30.0072765181
 21
23.1226497308
  0
LINE
  5
374
100
AcDbEntity
  8
0
100
AcDbLine
 62
7
  6
CONTINUOUS
 10
32.3927234819
 20
23.1226497308
 11
30.0072765181
 21
23.1226497308
  0
LINE
  5
375
100
AcDbEntity
  8
0
100
AcDbLine
 62
7
  6
CONTINUOUS
 10
12.6072765181
 20
23.1226497308
 11
14.9927234819
 21
23.1226497308
  0
LINE
  5
376
100
AcDbEntity
  8
0
100
AcDbLine
 62
7
  6
CONTINUOUS
 10
-12.6072765181
 20
23.1226497308
 11
-14.9927234819
 21
23.1226497308
  0
LINE
  5
377
100
AcDbEntity
  8
0
100
AcDbLine
 62
253
  6
CONTINUOUS
 10
-32.3869056521
 20
23.6278312164
 11
-30.0130943479
 21
23.6278312164
  0
LINE
  5
378
100
AcDbEntity
  8
0
100
AcDbLine
 62
253
  6
CONTINUOUS
 10
-14.9869056521
 20
23.6278312164
 11
-12.6130943479
 21
23.6278312164
  0
LINE
  5
379
100
AcDbEntity
  8
0
100
AcDbLine
 62
253
  6
CONTINUOUS
 10
12.6130943479
 20
23.6278312164
 11
14.9869056521
 21
23.6278312164
  0
LINE
  5
37A
100
AcDbEntity
  8
0
100
AcDbLine
 62
253
  6
CONTINUOUS
 10
30.0130943479
 20
23.6278312164
 11
32.3869056521
 21
23.6278312164
  0
LINE
  5
37B
100
AcDbEntity
  8
0
100
AcDbLine
 62
253
  6
CONTINUOUS
 10
26.0
 20
23.7982512664
 11
23.5
 21
23.7982512664
  0
LINE
  5
37C
100
AcDbEntity
  8
0
100
AcDbLine
 62
253
  6
CONTINUOUS
 10
19.0
 20
23.7982512664
 11
21.5
 21
23.7982512664
  0
LINE
  5
37D
100
AcDbEntity
  8
0
100
AcDbLine
 62
253
  6
CONTINUOUS
 10
-19.0
 20
23.7982512664
 11
-21.5
 21
23.7982512664
  0
LINE
  5
37E
100
AcDbEntity
  8
0
100
AcDbLine
 62
253
  6
CONTINUOUS
 10
-23.5
 20
23.7982512664
 11
-26.0
 21
23.7982512664
  0
LINE
  5
37F
100
AcDbEntity
  8
0
100
AcDbLine
 62
253
  6
CONTINUOUS
 10
12.3630985787
 20
23.8443375673
 11
15.2369014213
 21
23.8443375673
  0
LINE
  5
380
100
AcDbEntity
  8
0
100
AcDbLine
 62
253
  6
CONTINUOUS
 10
-12.3630985787
 20
23.8443375673
 11
-15.2369014213
 21
23.8443375673
  0
LINE
  5
381
100
AcDbEntity
  8
0
100
AcDbLine
 62
253
  6
CONTINUOUS
 10
29.7630985787
 20
23.8443375673
 11
32.6369014213
 21
23.8443375673
  0
LINE
  5
382
100
AcDbEntity
  8
0
100
AcDbLine
 62
253
  6
CONTINUOUS
 10
-29.7630985787
 20
23.8443375673
 11
-32.6369014213
 21
23.8443375673
  0
LINE
  5
383
100
AcDbEntity
  8
0
100
AcDbLine
 62
7
  6
CONTINUOUS
 10
-26.9412732553
 20
23.9912732553
 11
-26.0
 21
23.9912732553
  0
LINE
  5
384
100
AcDbEntity
  8
0
100
AcDbLine
 62
7
  6
CONTINUOUS
 10
-19.0
 20
23.9912732553
 11
-18.0587267447
 21
23.9912732553
  0
LINE
  5
385
100
AcDbEntity
  8
0
100
AcDbLine
 62
7
  6
CONTINUOUS
 10
18.0587267447
 20
23.9912732553
 11
19.0
 21
23.9912732553
  0
LINE
  5
386
100
AcDbEntity
  8
0
100
AcDbLine
 62
7
  6
CONTINUOUS
 10
26.0
 20
23.9912732553
 11
26.9412732553
 21
23.9912732553
  0
LINE
  5
387
100
AcDbEntity
  8
0
100
AcDbLine
 62
253
  6
CONTINUOUS
 10
26.0
 20
23.9982478817
 11
23.7
 21
23.9982478817
  0
LINE
  5
388
100
AcDbEntity
  8
0
100
AcDbLine
 62
253
  6
CONTINUOUS
 10
21.3
 20
23.9982478817
 11
19.0
 21
23.9982478817
  0
LINE
  5
389
100
AcDbEntity
  8
0
100
AcDbLine
 62
253
  6
CONTINUOUS
 10
-19.0
 20
23.9982478817
 11
-21.3
 21
23.9982478817
  0
LINE
  5
38A
100
AcDbEntity
  8
0
100
AcDbLine
 62
253
  6
CONTINUOUS
 10
-23.7
 20
23.9982478817
 11
-26.0
 21
23.9982478817
  0
LINE
  5
38B
100
AcDbEntity
  8
0
100
AcDbLine
 62
7
  6
CONTINUOUS
 10
-26.95
 20
24.0
 11
-23.7
 21
24.0
  0
LINE
  5
38C
100
AcDbEntity
  8
0
100
AcDbLine
 62
7
  6
CONTINUOUS
 10
-21.3
 20
24.0
 11
-18.05
 21
24.0
  0
LINE
  5
38D
100
AcDbEntity
  8
0
100
AcDbLine
 62
7
  6
CONTINUOUS
 10
18.05
 20
24.0
 11
21.3
 21
24.0
  0
LINE
  5
38E
100
AcDbEntity
  8
0
100
AcDbLine
 62
7
  6
CONTINUOUS
 10
23.7
 20
24.0
 11
26.95
 21
24.0
  0
LINE
  5
38F
100
AcDbEntity
  8
0
100
AcDbLine
 62
253
  6
CONTINUOUS
 10
12.3630985787
 20
24.2369056521
 11
15.2369014213
 21
24.2369056521
  0
LINE
  5
390
100
AcDbEntity
  8
0
100
AcDbLine
 62
253
  6
CONTINUOUS
 10
-12.3630985787
 20
24.2369056521
 11
-15.2369014213
 21
24.2369056521
  0
LINE
  5
391
100
AcDbEntity
  8
0
100
AcDbLine
 62
253
  6
CONTINUOUS
 10
29.7630985787
 20
24.2369056521
 11
32.6369014213
 21
24.2369056521
  0
LINE
  5
392
100
AcDbEntity
  8
0
100
AcDbLine
 62
253
  6
CONTINUOUS
 10
-29.7630985787
 20
24.2369056521
 11
-32.6369014213
 21
24.2369056521
  0
LINE
  5
393
100
AcDbEntity
  8
0
100
AcDbLine
 62
253
  6
CONTINUOUS
 10
32.3869056521
 20
24.4869014213
 11
30.0130943479
 21
24.4869014213
  0
LINE
  5
394
100
AcDbEntity
  8
0
100
AcDbLine
 62
253
  6
CONTINUOUS
 10
14.9869056521
 20
24.4869014213
 11
12.6130943479
 21
24.4869014213
  0
LINE
  5
395
100
AcDbEntity
  8
0
100
AcDbLine
 62
253
  6
CONTINUOUS
 10
-12.6130943479
 20
24.4869014213
 11
-14.9869056521
 21
24.4869014213
  0
LINE
  5
396
100
AcDbEntity
  8
0
100
AcDbLine
 62
253
  6
CONTINUOUS
 10
-30.0130943479
 20
24.4869014213
 11
-32.3869056521
 21
24.4869014213
  0
LINE
  5
397
100
AcDbEntity
  8
0
100
AcDbLine
 62
7
  6
CONTINUOUS
 10
32.4000042308
 20
24.5
 11
29.9999957692
 21
24.5
  0
LINE
  5
398
100
AcDbEntity
  8
0
100
AcDbLine
 62
7
  6
CONTINUOUS
 10
15.0000042308
 20
24.5
 11
12.5999957692
 21
24.5
  0
LINE
  5
399
100
AcDbEntity
  8
0
100
AcDbLine
 62
7
  6
CONTINUOUS
 10
-12.5999957692
 20
24.5
 11
-15.0000042308
 21
24.5
  0
LINE
  5
39A
100
AcDbEntity
  8
0
100
AcDbLine
 62
7
  6
CONTINUOUS
 10
-29.9999957692
 20
24.5
 11
-32.4000042308
 21
24.5
  0
LINE
  5
39B
100
AcDbEntity
  8
0
100
AcDbLine
 62
253
  6
CONTINUOUS
 10
33.1233252491
 20
-22.3213883311
 11
33.1495078465
 21
-22.4
  0
LINE
  5
39C
100
AcDbEntity
  8
0
100
AcDbLine
 62
253
  6
CONTINUOUS
 10
33.6229446494
 20
-21.821159479
 11
33.6491272468
 21
-21.8997711479
  0
LINE
  5
39D
100
AcDbEntity
  8
0
100
AcDbLine
 62
7
  6
CONTINUOUS
 10
26.9412732553
 20
-22.3213883311
 11
26.95
 21
-22.4
  0
LINE
  5
39E
100
AcDbEntity
  8
0
100
AcDbLine
 62
7
  6
CONTINUOUS
 10
26.0
 20
23.9982478817
 11
26.0
 21
22.3213883311
  0
LINE
  5
39F
100
AcDbEntity
  8
0
100
AcDbLine
 62
7
  6
CONTINUOUS
 10
26.0
 20
-22.3213883311
 11
26.0
 21
-23.9982478817
  0
LINE
  5
3A0
100
AcDbEntity
  8
0
100
AcDbLine
 62
7
  6
CONTINUOUS
 10
26.9412732553
 20
-23.9912732553
 11
26.9412732553
 21
-22.3213883311
  0
LINE
  5
3A1
100
AcDbEntity
  8
0
100
AcDbLine
 62
7
  6
CONTINUOUS
 10
26.9412732553
 20
22.3213883311
 11
26.9412732553
 21
23.9912732553
  0
LINE
  5
3A2
100
AcDbEntity
  8
0
100
AcDbLine
 62
7
  6
CONTINUOUS
 10
26.95
 20
-22.4
 11
26.95
 21
-24.0
  0
LINE
  5
3A3
100
AcDbEntity
  8
0
100
AcDbLine
 62
7
  6
CONTINUOUS
 10
26.95
 20
22.4
 11
26.95
 21
24.0
  0
LINE
  5
3A4
100
AcDbEntity
  8
0
100
AcDbLine
 62
253
  6
CONTINUOUS
 10
12.3630985787
 20
-24.2369056521
 11
12.35
 21
-24.2500042308
  0
LINE
  5
3A5
100
AcDbEntity
  8
0
100
AcDbLine
 62
253
  6
CONTINUOUS
 10
12.6130943479
 20
-24.4869014213
 11
12.5999957692
 21
-24.5
  0
LINE
  5
3A6
100
AcDbEntity
  8
0
100
AcDbLine
 62
253
  6
CONTINUOUS
 10
12.3630985787
 20
24.2369056521
 11
12.35
 21
24.2500042308
  0
LINE
  5
3A7
100
AcDbEntity
  8
0
100
AcDbLine
 62
253
  6
CONTINUOUS
 10
12.6130943479
 20
24.4869014213
 11
12.5999957692
 21
24.5
  0
LINE
  5
3A8
100
AcDbEntity
  8
0
100
AcDbLine
 62
253
  6
CONTINUOUS
 10
29.7630985787
 20
-23.8443375673
 11
29.7572807489
 21
-23.2669872981
  0
LINE
  5
3A9
100
AcDbEntity
  8
0
100
AcDbLine
 62
253
  6
CONTINUOUS
 10
30.0130943479
 20
-23.6278312164
 11
30.0080037468
 21
-23.1226497308
  0
LINE
  5
3AA
100
AcDbEntity
  8
0
100
AcDbLine
 62
7
  6
CONTINUOUS
 10
29.75
 20
-22.4
 11
29.75
 21
-24.2500042308
  0
LINE
  5
3AB
100
AcDbEntity
  8
0
100
AcDbLine
 62
7
  6
CONTINUOUS
 10
29.75
 20
22.4
 11
29.75
 21
24.2500042308
  0
LINE
  5
3AC
100
AcDbEntity
  8
0
100
AcDbLine
 62
253
  6
CONTINUOUS
 10
29.7572807489
 20
23.2669872981
 11
29.7572807489
 21
22.3344140523
  0
LINE
  5
3AD
100
AcDbEntity
  8
0
100
AcDbLine
 62
253
  6
CONTINUOUS
 10
29.7572807489
 20
-22.3344140523
 11
29.7572807489
 21
-23.2669872981
  0
LINE
  5
3AE
100
AcDbEntity
  8
0
100
AcDbLine
 62
253
  6
CONTINUOUS
 10
29.7630985787
 20
24.2369056521
 11
29.7630985787
 21
23.8443375673
  0
LINE
  5
3AF
100
AcDbEntity
  8
0
100
AcDbLine
 62
253
  6
CONTINUOUS
 10
29.7630985787
 20
-23.8443375673
 11
29.7630985787
 21
-24.2369056521
  0
LINE
  5
3B0
100
AcDbEntity
  8
0
100
AcDbLine
 62
253
  6
CONTINUOUS
 10
30.0072765181
 20
23.1226497308
 11
30.0072765181
 21
22.3213883311
  0
LINE
  5
3B1
100
AcDbEntity
  8
0
100
AcDbLine
 62
253
  6
CONTINUOUS
 10
30.0072765181
 20
-22.3213883311
 11
30.0072765181
 21
-23.1226497308
  0
LINE
  5
3B2
100
AcDbEntity
  8
0
100
AcDbLine
 62
253
  6
CONTINUOUS
 10
30.0130943479
 20
-23.6278312164
 11
30.0130943479
 21
-24.4869014213
  0
LINE
  5
3B3
100
AcDbEntity
  8
0
100
AcDbLine
 62
253
  6
CONTINUOUS
 10
30.0130943479
 20
23.6278312164
 11
30.0130943479
 21
24.4869014213
  0
LINE
  5
3B4
100
AcDbEntity
  8
0
100
AcDbLine
 62
253
  6
CONTINUOUS
 10
29.7572807489
 20
23.2669872981
 11
29.7630985787
 21
23.8443375673
  0
LINE
  5
3B5
100
AcDbEntity
  8
0
100
AcDbLine
 62
253
  6
CONTINUOUS
 10
30.0080037468
 20
23.1226497308
 11
30.0130943479
 21
23.6278312164
  0
LINE
  5
3B6
100
AcDbEntity
  8
0
100
AcDbLine
 62
7
  6
CONTINUOUS
 10
32.65
 20
22.4
 11
32.6427192511
 21
22.3344140523
  0
LINE
  5
3B7
100
AcDbEntity
  8
0
100
AcDbLine
 62
7
  6
CONTINUOUS
 10
18.0587267447
 20
-23.9912732553
 11
18.05
 21
-24.0
  0
LINE
  5
3B8
100
AcDbEntity
  8
0
100
AcDbLine
 62
7
  6
CONTINUOUS
 10
18.05
 20
24.0
 11
18.0587267447
 21
23.9912732553
  0
LINE
  5
3B9
100
AcDbEntity
  8
0
100
AcDbLine
 62
7
  6
CONTINUOUS
 10
32.65
 20
-22.4
 11
32.6427192511
 21
-22.3344140523
  0
LINE
  5
3BA
100
AcDbEntity
  8
0
100
AcDbLine
 62
253
  6
CONTINUOUS
 10
32.3869056521
 20
23.6278312164
 11
32.3919962532
 21
23.1226497308
  0
LINE
  5
3BB
100
AcDbEntity
  8
0
100
AcDbLine
 62
253
  6
CONTINUOUS
 10
32.6369014213
 20
23.8443375673
 11
32.6427192511
 21
23.2669872981
  0
LINE
  5
3BC
100
AcDbEntity
  8
DRAFT
100
AcDbLine
 62
7
  6
CONTINUOUS
 10
33.6229446494
 20
-16.6
 11
33.595044505
 21
0.0
  0
LINE
  5
3BD
100
AcDbEntity
  8
0
100
AcDbLine
 62
253
  6
CONTINUOUS
 10
32.3869056521
 20
-23.6278312164
 11
32.3869056521
 21
-24.4869014213
  0
LINE
  5
3BE
100
AcDbEntity
  8
0
100
AcDbLine
 62
253
  6
CONTINUOUS
 10
32.3869056521
 20
23.6278312164
 11
32.3869056521
 21
24.4869014213
  0
LINE
  5
3BF
100
AcDbEntity
  8
0
100
AcDbLine
 62
253
  6
CONTINUOUS
 10
32.3927234819
 20
-23.1226497308
 11
32.3927234819
 21
-22.3213883311
  0
LINE
  5
3C0
100
AcDbEntity
  8
0
100
AcDbLine
 62
253
  6
CONTINUOUS
 10
32.3927234819
 20
22.3213883311
 11
32.3927234819
 21
23.1226497308
  0
LINE
  5
3C1
100
AcDbEntity
  8
0
100
AcDbLine
 62
253
  6
CONTINUOUS
 10
32.6369014213
 20
-24.2369056521
 11
32.6369014213
 21
-23.8443375673
  0
LINE
  5
3C2
100
AcDbEntity
  8
0
100
AcDbLine
 62
253
  6
CONTINUOUS
 10
32.6369014213
 20
23.8443375673
 11
32.6369014213
 21
24.2369056521
  0
LINE
  5
3C3
100
AcDbEntity
  8
0
100
AcDbLine
 62
253
  6
CONTINUOUS
 10
32.6427192511
 20
-23.2669872981
 11
32.6427192511
 21
-22.3344140523
  0
LINE
  5
3C4
100
AcDbEntity
  8
0
100
AcDbLine
 62
253
  6
CONTINUOUS
 10
32.6427192511
 20
22.3344140523
 11
32.6427192511
 21
23.2669872981
  0
LINE
  5
3C5
100
AcDbEntity
  8
0
100
AcDbLine
 62
7
  6
CONTINUOUS
 10
32.65
 20
-22.4
 11
32.65
 21
-24.2500042308
  0
LINE
  5
3C6
100
AcDbEntity
  8
0
100
AcDbLine
 62
7
  6
CONTINUOUS
 10
32.65
 20
22.4
 11
32.65
 21
24.2500042308
  0
LINE
  5
3C7
100
AcDbEntity
  8
RACCORDO
100
AcDbLine
 62
7
  6
CONTINUOUS
 10
33.5
 20
-21.5999997649
 11
33.5
 21
21.5999997649
  0
LINE
  5
3C8
100
AcDbEntity
  8
DRAFT
100
AcDbLine
 62
7
  6
CONTINUOUS
 10
33.6229446494
 20
21.821159479
 11
33.6229446494
 21
16.6
  0
LINE
  5
3C9
100
AcDbEntity
  8
DRAFT
100
AcDbLine
 62
7
  6
CONTINUOUS
 10
33.6229446494
 20
-16.6
 11
33.6229446494
 21
-21.821159479
  0
LINE
  5
3CA
100
AcDbEntity
  8
0
100
AcDbLine
 62
7
  6
CONTINUOUS
 10
33.6491272468
 20
21.8997711479
 11
33.6491272468
 21
-21.8997711479
  0
LINE
  5
3CB
100
AcDbEntity
  8
0
100
AcDbLine
 62
7
  6
CONTINUOUS
 10
33.6504363434
 20
21.900016923
 11
33.6504363434
 21
-21.900016923
  0
LINE
  5
3CC
100
AcDbEntity
  8
DRAFT
100
AcDbLine
 62
7
  6
CONTINUOUS
 10
33.595044505
 20
0.0
 11
33.6229446494
 21
16.6
  0
LINE
  5
3CD
100
AcDbEntity
  8
0
100
AcDbLine
 62
253
  6
CONTINUOUS
 10
32.3919962532
 20
-23.1226497308
 11
32.3869056521
 21
-23.6278312164
  0
LINE
  5
3CE
100
AcDbEntity
  8
0
100
AcDbLine
 62
253
  6
CONTINUOUS
 10
32.6427192511
 20
-23.2669872981
 11
32.6369014213
 21
-23.8443375673
  0
LINE
  5
3CF
100
AcDbEntity
  8
0
100
AcDbLine
 62
7
  6
CONTINUOUS
 10
29.75
 20
-22.4
 11
29.7572807489
 21
-22.3344140523
  0
LWPOLYLINE
  5
3D0
100
AcDbEntity
  8
0
100
AcDbPolyline
 62
7
  6
CONTINUOUS
 90
10
 70
0
 43
0.3500000006
 10
45.7483960876
 20
0.4285709152
 10
44.8912536163
 20
1.2857133865
 10
44.034111145
 20
1.5000001373
 10
43.1769686737
 20
1.5000001373
 10
42.7483951721
 20
1.0714289017
 10
42.7483951721
 20
0.4285709152
 10
43.1769686737
 20
-0.0000003204
 10
44.034111145
 20
-0.0000003204
 10
44.4626801147
 20
0.4285709152
 10
44.4626801147
 20
1.3571423035
  0
LINE
  5
3D1
100
AcDbEntity
  8
0
100
AcDbLine
 62
7
  6
CONTINUOUS
 10
29.75
 20
22.4
 11
29.7572807489
 21
22.3344140523
  0
LWPOLYLINE
  5
3D2
100
AcDbEntity
  8
0
100
AcDbPolyline
 62
7
  6
CONTINUOUS
 90
6
 70
0
 43
0.3500000006
 10
2.1428571696
 20
35.8444998779
 10
3.2142856836
 20
35.8444998779
 10
3.4285713015
 20
36.0587888947
 10
3.4285713015
 20
37.1302158508
 10
3.0000000658
 20
37.5587848206
 10
2.5714285469
 20
37.5587848206
  0
LINE
  5
3D3
100
AcDbEntity
  8
0
100
AcDbLine
 62
253
  6
CONTINUOUS
 10
29.7630985787
 20
-24.2369056521
 11
29.75
 21
-24.2500042308
  0
LINE
  5
3D4
100
AcDbEntity
  8
0
100
AcDbLine
 62
253
  6
CONTINUOUS
 10
30.0130943479
 20
-24.4869014213
 11
29.9999957692
 21
-24.5
  0
LINE
  5
3D5
100
AcDbEntity
  8
0
100
AcDbLine
 62
253
  6
CONTINUOUS
 10
29.7630985787
 20
24.2369056521
 11
29.75
 21
24.2500042308
  0
LINE
  5
3D6
100
AcDbEntity
  8
0
100
AcDbLine
 62
253
  6
CONTINUOUS
 10
30.0130943479
 20
24.4869014213
 11
29.9999957692
 21
24.5
  0
LWPOLYLINE
  5
3D7
100
AcDbEntity
  8
0
100
AcDbPolyline
 62
7
  6
CONTINUOUS
 90
3
 70
0
 43
0.3500000006
 10
45.1055381012
 20
-0.8571427917
 10
45.1055381012
 20
-2.3571432495
 10
42.7483951721
 20
-1.7142852631
  0
LWPOLYLINE
  5
3D8
100
AcDbEntity
  8
0
100
AcDbPolyline
 62
7
  6
CONTINUOUS
 90
5
 70
0
 43
0.3500000006
 10
-60.0371115875
 20
47.5587878723
 10
-59.6799692688
 20
47.7730723572
 10
-59.6799692688
 20
48.4159303436
 10
-60.0371115875
 20
48.8444993134
 10
-60.8942540588
 20
48.8444993134
  0
LINE
  5
3D9
100
AcDbEntity
  8
0
100
AcDbLine
 62
7
  6
CONTINUOUS
 10
-63.8871036188
 20
-24.5
 11
-63.1356491859
 21
-24.495628166
  0
LINE
  5
3DA
100
AcDbEntity
  8
0
100
AcDbLine
 62
253
  6
CONTINUOUS
 10
-63.8871036188
 20
-24.2500042308
 11
-63.1356491859
 21
-24.2456323968
  0
LINE
  5
3DB
100
AcDbEntity
  8
0
100
AcDbLine
 62
7
  6
CONTINUOUS
 10
-58.3841947531
 20
-23.9679850128
 11
-62.8871036188
 21
-23.9941821702
  0
LINE
  5
3DC
100
AcDbEntity
  8
0
100
AcDbLine
 62
253
  6
CONTINUOUS
 10
-62.8871036188
 20
-24.2456323968
 11
-63.1356491859
 21
-24.2456323968
  0
LINE
  5
3DD
100
AcDbEntity
  8
0
100
AcDbLine
 62
253
  6
CONTINUOUS
 10
-66.3871036188
 20
-24.2369056521
 11
-66.1385580516
 21
-24.2369056521
  0
LINE
  5
3DE
100
AcDbEntity
  8
0
100
AcDbLine
 62
253
  6
CONTINUOUS
 10
-66.3871036188
 20
-23.8443375673
 11
-66.1385580516
 21
-23.8443375673
  0
LINE
  5
3DF
100
AcDbEntity
  8
0
100
AcDbLine
 62
253
  6
CONTINUOUS
 10
-62.8871036188
 20
-23.8443375673
 11
-63.1356491859
 21
-23.8443375673
  0
LINE
  5
3E0
100
AcDbEntity
  8
0
100
AcDbLine
 62
7
  6
CONTINUOUS
 10
-66.1385580516
 20
-24.4869014213
 11
-63.8871036188
 21
-24.5
  0
LINE
  5
3E1
100
AcDbEntity
  8
0
100
AcDbLine
 62
253
  6
CONTINUOUS
 10
-66.1385580516
 20
-24.2369056521
 11
-63.8871036188
 21
-24.2500042308
  0
LWPOLYLINE
  5
3E2
100
AcDbEntity
  8
0
100
AcDbPolyline
 62
7
  6
CONTINUOUS
 90
3
 70
0
 43
0.3500000006
 10
-59.1013911896
 20
37.9873583221
 10
-58.2442487183
 20
38.8445007935
 10
-58.2442487183
 20
35.8444998779
  0
LINE
  5
3E3
100
AcDbEntity
  8
0
100
AcDbLine
 62
7
  6
CONTINUOUS
 10
-52.8812858874
 20
-22.3359700255
 11
-63.8871036188
 21
-22.4
  0
LINE
  5
3E4
100
AcDbEntity
  8
0
100
AcDbLine
 62
253
  6
CONTINUOUS
 10
-63.8871036188
 20
-21.900016923
 11
-62.8871036188
 21
-21.8941990932
  0
LINE
  5
3E5
100
AcDbEntity
  8
0
100
AcDbLine
 62
7
  6
CONTINUOUS
 10
-65.3871036188
 20
-22.3213883311
 11
-63.8871036188
 21
-22.4
  0
LINE
  5
3E6
100
AcDbEntity
  8
RACCORDO
100
AcDbLine
 62
7
  6
CONTINUOUS
 10
-67.4871036188
 20
-22.1
 11
-72.5162615733
 21
-21.8364329999
  0
LINE
  5
3E7
100
AcDbEntity
  8
0
100
AcDbLine
 62
253
  6
CONTINUOUS
 10
-65.3871036188
 20
-21.821159479
 11
-63.8871036188
 21
-21.8997711479
  0
LINE
  5
3E8
100
AcDbEntity
  8
RACCORDO
100
AcDbLine
 62
253
  6
CONTINUOUS
 10
-67.4871036188
 20
-21.5999997649
 11
-72.1207196351
 21
-21.3571622394
  0
LWPOLYLINE
  5
3E9
100
AcDbEntity
  8
0
100
AcDbPolyline
 62
7
  6
CONTINUOUS
 90
3
 70
0
 43
0.3500000006
 10
-57.3871017151
 20
37.9873583221
 10
-56.5299592438
 20
38.8445007935
 10
-56.5299592438
 20
35.8444998779
  0
LINE
  5
3EA
100
AcDbEntity
  8
0
100
AcDbLine
 62
253
  6
CONTINUOUS
 10
-63.8871036188
 20
23.4104851482
 11
-63.1356491859
 21
23.8443375673
  0
LINE
  5
3EB
100
AcDbEntity
  8
RACCORDO
100
AcDbLine
 62
253
  6
CONTINUOUS
 10
-73.2704053117
 20
-20.7082281594
 11
-72.7840642585
 21
-20.6873334129
  0
LINE
  5
3EC
100
AcDbEntity
  8
0
100
AcDbLine
 62
7
  6
CONTINUOUS
 10
-51.8871036188
 20
-20.9
 11
-61.8871036188
 21
-20.9
  0
LINE
  5
3ED
100
AcDbEntity
  8
0
100
AcDbLine
 62
7
  6
CONTINUOUS
 10
-52.3783774155
 20
-21.5834304982
 11
-61.8871036188
 21
-21.4174550649
  0
LINE
  5
3EE
100
AcDbEntity
  8
0
100
AcDbLine
 62
253
  6
CONTINUOUS
 10
-63.1356491859
 20
-23.8443375673
 11
-63.8871036188
 21
-23.4104851482
  0
LINE
  5
3EF
100
AcDbEntity
  8
0
100
AcDbLine
 62
7
  6
CONTINUOUS
 10
-63.8871036188
 20
23.1226497308
 11
-63.0121036188
 21
23.6278312164
  0
LINE
  5
3F0
100
AcDbEntity
  8
RACCORDO
100
AcDbLine
 62
253
  6
CONTINUOUS
 10
-52.0836131375
 20
-19.0166572575
 11
-51.8871036188
 21
-19.0166572575
  0
LINE
  5
3F1
100
AcDbEntity
  8
RACCORDO
100
AcDbLine
 62
7
  6
CONTINUOUS
 10
-52.0853583117
 20
-19.7942654032
 11
-61.8871036188
 21
-19.7087268678
  0
LINE
  5
3F2
100
AcDbEntity
  8
0
100
AcDbLine
 62
7
  6
CONTINUOUS
 10
-62.8871036188
 20
-18.5082905244
 11
-61.8871036188
 21
-18.5170173922
  0
LINE
  5
3F3
100
AcDbEntity
  8
0
100
AcDbLine
 62
7
  6
CONTINUOUS
 10
-63.0121036188
 20
-23.6278312164
 11
-63.8871036188
 21
-23.1226497308
  0
LINE
  5
3F4
100
AcDbEntity
  8
RACCORDO
100
AcDbLine
 62
7
  6
CONTINUOUS
 10
-65.3871036188
 20
-17.4
 11
-67.4871036188
 21
-17.3633443637
  0
LINE
  5
3F5
100
AcDbEntity
  8
RACCORDO
100
AcDbLine
 62
253
  6
CONTINUOUS
 10
-65.4063791601
 20
-16.399815849
 11
-67.4871036188
 21
-16.3634966685
  0
LWPOLYLINE
  5
3F6
100
AcDbEntity
  8
0
100
AcDbPolyline
 62
7
  6
CONTINUOUS
 90
3
 70
0
 43
0.3500000006
 10
-61.894254364
 20
46.1302140656
 10
-61.9656855469
 20
45.9159295807
 10
-62.1085388489
 20
45.630213913
  0
LINE
  5
3F7
100
AcDbEntity
  8
RACCORDO
100
AcDbLine
 62
7
  6
CONTINUOUS
 10
-61.8871036188
 20
14.9602976573
 11
-52.0186995896
 21
18.5521029837
  0
LINE
  5
3F8
100
AcDbEntity
  8
RACCORDO
100
AcDbLine
 62
7
  6
CONTINUOUS
 10
-52.0186995896
 20
-18.5521029837
 11
-61.8871036188
 21
-14.9602976573
  0
LWPOLYLINE
  5
3F9
100
AcDbEntity
  8
0
100
AcDbPolyline
 62
7
  6
CONTINUOUS
 90
3
 70
0
 10
-73.9271411621
 20
-14.4189388742
 10
-73.8116370972
 20
-17.3272394458
 10
-73.651120852
 20
-20.7002165598
  0
LWPOLYLINE
  5
3FA
100
AcDbEntity
  8
0
100
AcDbPolyline
 62
7
  6
CONTINUOUS
 90
10
 70
0
 10
-73.6511208519
 20
20.7002165599
 10
-73.8119258169
 20
17.3205794225
 10
-73.9470036853
 20
13.8573573324
 10
-74.052071177
 20
10.3930949889
 10
-74.1271175128
 20
6.9280523602
 10
-74.172134476
 20
3.4624894696
 10
-74.1871208747
 20
-0.0033334561
 10
-74.1720767097
 20
-3.4691561061
 10
-74.1270019814
 20
-6.9347181696
 10
-74.0999569883
 20
-8.3499122893
  0
LINE
  5
3FB
100
AcDbEntity
  8
DRAFT
100
AcDbLine
 62
7
  6
CONTINUOUS
 10
-65.3871036188
 20
-16.6
 11
-66.9855018188
 21
0.0
  0
LINE
  5
3FC
100
AcDbEntity
  8
RACCORDO
100
AcDbLine
 62
7
  6
CONTINUOUS
 10
-67.4871036188
 20
-22.1
 11
-67.4871036188
 21
22.1
  0
LINE
  5
3FD
100
AcDbEntity
  8
DRAFT
100
AcDbLine
 62
7
  6
CONTINUOUS
 10
-66.9855018188
 20
0.0
 11
-65.3871036188
 21
16.6
  0
LINE
  5
3FE
100
AcDbEntity
  8
0
100
AcDbLine
 62
7
  6
CONTINUOUS
 10
-66.3871036188
 20
-24.2369056521
 11
-66.3871036188
 21
-23.8443375673
  0
LINE
  5
3FF
100
AcDbEntity
  8
0
100
AcDbLine
 62
7
  6
CONTINUOUS
 10
-66.3871036188
 20
23.8443375673
 11
-66.3871036188
 21
24.2369056521
  0
LINE
  5
400
100
AcDbEntity
  8
0
100
AcDbLine
 62
253
  6
CONTINUOUS
 10
-66.1385580516
 20
-24.2369056521
 11
-66.1385580516
 21
-23.8443375673
  0
LINE
  5
401
100
AcDbEntity
  8
0
100
AcDbLine
 62
253
  6
CONTINUOUS
 10
-66.1385580516
 20
23.8443375673
 11
-66.1385580516
 21
24.2369056521
  0
LINE
  5
402
100
AcDbEntity
  8
DRAFT
100
AcDbLine
 62
7
  6
CONTINUOUS
 10
-65.3871036188
 20
21.821159479
 11
-65.3871036188
 21
16.6
  0
LINE
  5
403
100
AcDbEntity
  8
DRAFT
100
AcDbLine
 62
7
  6
CONTINUOUS
 10
-65.3871036188
 20
-16.6
 11
-65.3871036188
 21
-21.821159479
  0
LINE
  5
404
100
AcDbEntity
  8
0
100
AcDbLine
 62
7
  6
CONTINUOUS
 10
-65.3871036188
 20
-21.821159479
 11
-65.3871036188
 21
-23.1226497308
  0
LINE
  5
405
100
AcDbEntity
  8
0
100
AcDbLine
 62
7
  6
CONTINUOUS
 10
-65.3871036188
 20
21.821159479
 11
-65.3871036188
 21
23.1226497308
  0
LINE
  5
406
100
AcDbEntity
  8
0
100
AcDbLine
 62
253
  6
CONTINUOUS
 10
-65.1385580516
 20
-23.2669872981
 11
-65.1385580516
 21
-22.3344140523
  0
LINE
  5
407
100
AcDbEntity
  8
0
100
AcDbLine
 62
253
  6
CONTINUOUS
 10
-65.1385580516
 20
22.3344140523
 11
-65.1385580516
 21
23.2669872981
  0
LINE
  5
408
100
AcDbEntity
  8
0
100
AcDbLine
 62
7
  6
CONTINUOUS
 10
-63.8871036188
 20
-24.2500042308
 11
-63.8871036188
 21
24.2500042308
  0
LINE
  5
409
100
AcDbEntity
  8
0
100
AcDbLine
 62
253
  6
CONTINUOUS
 10
-63.1356491859
 20
24.2456323968
 11
-63.1356491859
 21
23.8443375673
  0
LINE
  5
40A
100
AcDbEntity
  8
0
100
AcDbLine
 62
253
  6
CONTINUOUS
 10
-63.1356491859
 20
-23.8443375673
 11
-63.1356491859
 21
-24.2456323968
  0
LINE
  5
40B
100
AcDbEntity
  8
0
100
AcDbLine
 62
7
  6
CONTINUOUS
 10
-62.8871036188
 20
24.2456323968
 11
-62.8871036188
 21
23.8443375673
  0
LINE
  5
40C
100
AcDbEntity
  8
0
100
AcDbLine
 62
7
  6
CONTINUOUS
 10
-62.8871036188
 20
22.3941821702
 11
-62.8871036188
 21
18.5082905244
  0
LINE
  5
40D
100
AcDbEntity
  8
0
100
AcDbLine
 62
7
  6
CONTINUOUS
 10
-62.8871036188
 20
-18.5082905244
 11
-62.8871036188
 21
-22.3941821702
  0
LINE
  5
40E
100
AcDbEntity
  8
0
100
AcDbLine
 62
7
  6
CONTINUOUS
 10
-62.8871036188
 20
-23.8443375673
 11
-62.8871036188
 21
-24.2456323968
  0
LINE
  5
40F
100
AcDbEntity
  8
0
100
AcDbLine
 62
7
  6
CONTINUOUS
 10
-61.8871036188
 20
21.4174550649
 11
-61.8871036188
 21
-21.4174550649
  0
LINE
  5
410
100
AcDbEntity
  8
0
100
AcDbLine
 62
7
  6
CONTINUOUS
 10
-58.3871036188
 20
-23.4243617711
 11
-58.3871036188
 21
-22.8756382289
  0
LINE
  5
411
100
AcDbEntity
  8
0
100
AcDbLine
 62
7
  6
CONTINUOUS
 10
-58.3871036188
 20
22.8756382289
 11
-58.3871036188
 21
23.4243617711
  0
LINE
  5
412
100
AcDbEntity
  8
0
100
AcDbLine
 62
253
  6
CONTINUOUS
 10
-58.3433114561
 20
23.9660720289
 11
-58.3433114561
 21
22.3677471607
  0
LINE
  5
413
100
AcDbEntity
  8
0
100
AcDbLine
 62
253
  6
CONTINUOUS
 10
-58.3433114561
 20
-22.3677471607
 11
-58.3433114561
 21
-23.9660720289
  0
LINE
  5
414
100
AcDbEntity
  8
0
100
AcDbLine
 62
7
  6
CONTINUOUS
 10
-57.8871036188
 20
23.4679934743
 11
-57.8871036188
 21
22.3650935624
  0
LINE
  5
415
100
AcDbEntity
  8
0
100
AcDbLine
 62
7
  6
CONTINUOUS
 10
-57.8871036188
 20
-22.3650935624
 11
-57.8871036188
 21
-23.4679934743
  0
LINE
  5
416
100
AcDbEntity
  8
0
100
AcDbLine
 62
253
  6
CONTINUOUS
 10
-52.3783774155
 20
21.5834304982
 11
-52.3783774155
 21
20.9
  0
LINE
  5
417
100
AcDbEntity
  8
0
100
AcDbLine
 62
253
  6
CONTINUOUS
 10
-52.3783774155
 20
-20.9
 11
-52.3783774155
 21
-21.5834304982
  0
LINE
  5
418
100
AcDbEntity
  8
RACCORDO
100
AcDbLine
 62
253
  6
CONTINUOUS
 10
-52.0853583117
 20
20.9
 11
-52.0853583117
 21
19.7942654032
  0
LINE
  5
419
100
AcDbEntity
  8
RACCORDO
100
AcDbLine
 62
253
  6
CONTINUOUS
 10
-52.0853583117
 20
-19.7942654032
 11
-52.0853583117
 21
-20.9
  0
LINE
  5
41A
100
AcDbEntity
  8
RACCORDO
100
AcDbLine
 62
253
  6
CONTINUOUS
 10
-52.0836131375
 20
-19.7942654032
 11
-52.0836131375
 21
-19.0166572575
  0
LINE
  5
41B
100
AcDbEntity
  8
RACCORDO
100
AcDbLine
 62
253
  6
CONTINUOUS
 10
-52.0836131375
 20
19.0166572575
 11
-52.0836131375
 21
19.7942654032
  0
LINE
  5
41C
100
AcDbEntity
  8
0
100
AcDbLine
 62
7
  6
CONTINUOUS
 10
-51.8871036188
 20
21.3359869487
 11
-51.8871036188
 21
20.9
  0
LINE
  5
41D
100
AcDbEntity
  8
0
100
AcDbLine
 62
7
  6
CONTINUOUS
 10
-51.8871036188
 20
-20.9
 11
-51.8871036188
 21
-21.3359869487
  0
LINE
  5
41E
100
AcDbEntity
  8
RACCORDO
100
AcDbLine
 62
7
  6
CONTINUOUS
 10
-51.8871036188
 20
-20.9
 11
-51.8871036188
 21
-18.7400415081
  0
LINE
  5
41F
100
AcDbEntity
  8
RACCORDO
100
AcDbLine
 62
7
  6
CONTINUOUS
 10
-51.8871036188
 20
18.7400415081
 11
-51.8871036188
 21
20.9
  0
LINE
  5
420
100
AcDbEntity
  8
RACCORDO
100
AcDbLine
 62
253
  6
CONTINUOUS
 10
-65.4063791601
 20
16.399815849
 11
-67.4871036188
 21
16.3634966685
  0
LINE
  5
421
100
AcDbEntity
  8
RACCORDO
100
AcDbLine
 62
7
  6
CONTINUOUS
 10
-65.3871036188
 20
17.4
 11
-67.4871036188
 21
17.3633443637
  0
LINE
  5
422
100
AcDbEntity
  8
0
100
AcDbLine
 62
7
  6
CONTINUOUS
 10
-65.3871036188
 20
-23.1226497308
 11
-66.2621036188
 21
-23.6278312164
  0
LINE
  5
423
100
AcDbEntity
  8
0
100
AcDbLine
 62
253
  6
CONTINUOUS
 10
-65.1385580516
 20
-23.2669872981
 11
-66.1385580516
 21
-23.8443375673
  0
LINE
  5
424
100
AcDbEntity
  8
0
100
AcDbLine
 62
7
  6
CONTINUOUS
 10
-62.8871036188
 20
18.5082905244
 11
-61.8871036188
 21
18.5170173922
  0
LINE
  5
425
100
AcDbEntity
  8
RACCORDO
100
AcDbLine
 62
7
  6
CONTINUOUS
 10
-52.0853583117
 20
19.7942654032
 11
-61.8871036188
 21
19.7087268678
  0
LINE
  5
426
100
AcDbEntity
  8
RACCORDO
100
AcDbLine
 62
253
  6
CONTINUOUS
 10
-52.0836131375
 20
19.0166572575
 11
-51.8871036188
 21
19.0166572575
  0
LINE
  5
427
100
AcDbEntity
  8
0
100
AcDbLine
 62
7
  6
CONTINUOUS
 10
-66.2621036188
 20
23.6278312164
 11
-65.3871036188
 21
23.1226497308
  0
LINE
  5
428
100
AcDbEntity
  8
0
100
AcDbLine
 62
253
  6
CONTINUOUS
 10
-66.1385580516
 20
23.8443375673
 11
-65.1385580516
 21
23.2669872981
  0
LINE
  5
429
100
AcDbEntity
  8
RACCORDO
100
AcDbLine
 62
253
  6
CONTINUOUS
 10
-72.1207196465
 20
21.3571622388
 11
-67.4871036188
 21
21.5999997649
  0
LINE
  5
42A
100
AcDbEntity
  8
0
100
AcDbLine
 62
253
  6
CONTINUOUS
 10
-63.8871036188
 20
21.8997711479
 11
-65.3871036188
 21
21.821159479
  0
LINE
  5
42B
100
AcDbEntity
  8
RACCORDO
100
AcDbLine
 62
7
  6
CONTINUOUS
 10
-72.5162620805
 20
21.8364329734
 11
-67.4871036188
 21
22.1
  0
LINE
  5
42C
100
AcDbEntity
  8
0
100
AcDbLine
 62
7
  6
CONTINUOUS
 10
-52.3783774155
 20
21.5834304982
 11
-61.8871036188
 21
21.4174550649
  0
LINE
  5
42D
100
AcDbEntity
  8
0
100
AcDbLine
 62
7
  6
CONTINUOUS
 10
-51.8871036188
 20
20.9
 11
-61.8871036188
 21
20.9
  0
LINE
  5
42E
100
AcDbEntity
  8
0
100
AcDbLine
 62
253
  6
CONTINUOUS
 10
-62.8871036188
 20
21.8941990932
 11
-63.8871036188
 21
21.900016923
  0
LINE
  5
42F
100
AcDbEntity
  8
RACCORDO
100
AcDbLine
 62
253
  6
CONTINUOUS
 10
-73.2703928717
 20
20.7082276358
 11
-72.7840642638
 21
20.6873334122
  0
LINE
  5
430
100
AcDbEntity
  8
0
100
AcDbLine
 62
7
  6
CONTINUOUS
 10
-63.8871036188
 20
22.4
 11
-65.3871036188
 21
22.3213883311
  0
LINE
  5
431
100
AcDbEntity
  8
0
100
AcDbLine
 62
253
  6
CONTINUOUS
 10
-66.3871036188
 20
23.8443375673
 11
-66.1385580516
 21
23.8443375673
  0
LINE
  5
432
100
AcDbEntity
  8
0
100
AcDbLine
 62
253
  6
CONTINUOUS
 10
-62.8871036188
 20
23.8443375673
 11
-63.1356491859
 21
23.8443375673
  0
LINE
  5
433
100
AcDbEntity
  8
0
100
AcDbLine
 62
253
  6
CONTINUOUS
 10
-66.3871036188
 20
24.2369056521
 11
-66.1385580516
 21
24.2369056521
  0
LINE
  5
434
100
AcDbEntity
  8
0
100
AcDbLine
 62
7
  6
CONTINUOUS
 10
-52.8812858874
 20
22.3359700255
 11
-63.8871036188
 21
22.4
  0
LINE
  5
435
100
AcDbEntity
  8
0
100
AcDbLine
 62
7
  6
CONTINUOUS
 10
-58.3841947531
 20
23.9679850128
 11
-62.8871036188
 21
23.9941821702
  0
LWPOLYLINE
  5
436
100
AcDbEntity
  8
0
100
AcDbPolyline
 62
7
  6
CONTINUOUS
 90
10
 70
0
 43
0.3500000006
 10
-61.9656855469
 20
46.3445030823
 10
-61.894254364
 20
46.2016452484
 10
-61.894254364
 20
46.1302140656
 10
-62.0371121979
 20
45.9873562317
 10
-62.1085388489
 20
45.9873562317
 10
-62.1799700317
 20
46.0587874146
 10
-62.1799700317
 20
46.1302140656
 10
-62.1085388489
 20
46.2730718994
 10
-62.0371121979
 20
46.3445030823
 10
-61.9656855469
 20
46.3445030823
  0
LINE
  5
437
100
AcDbEntity
  8
0
100
AcDbLine
 62
253
  6
CONTINUOUS
 10
-66.1385580516
 20
24.2369056521
 11
-63.8871036188
 21
24.2500042308
  0
LINE
  5
438
100
AcDbEntity
  8
0
100
AcDbLine
 62
7
  6
CONTINUOUS
 10
-66.1385580516
 20
24.4869014213
 11
-63.8871036188
 21
24.5
  0
LINE
  5
439
100
AcDbEntity
  8
0
100
AcDbLine
 62
253
  6
CONTINUOUS
 10
-62.8871036188
 20
24.2456323968
 11
-63.1356491859
 21
24.2456323968
  0
LINE
  5
43A
100
AcDbEntity
  8
0
100
AcDbLine
 62
253
  6
CONTINUOUS
 10
-63.8871036188
 20
24.2500042308
 11
-63.1356491859
 21
24.2456323968
  0
LINE
  5
43B
100
AcDbEntity
  8
0
100
AcDbLine
 62
7
  6
CONTINUOUS
 10
-63.8871036188
 20
24.5
 11
-63.1356491859
 21
24.495628166
  0
LWPOLYLINE
  5
43C
100
AcDbEntity
  8
0
100
AcDbPolyline
 62
7
  6
CONTINUOUS
 90
6
 70
0
 43
0.3500000006
 10
-60.8942540588
 20
45.8445029297
 10
-59.8228271027
 20
45.8445029297
 10
-59.6085426178
 20
46.0587874146
 10
-59.6085426178
 20
47.1302143707
 10
-60.0371115875
 20
47.5587878723
 10
-60.4656850891
 20
47.5587878723
  0
LWPOLYLINE
  5
43D
100
AcDbEntity
  8
0
100
AcDbPolyline
 62
7
  6
CONTINUOUS
 90
7
 70
0
 43
0.3500000006
 10
-63.4656814728
 20
45.8445029297
 10
-64.9656819305
 20
45.8445029297
 10
-63.4656814728
 20
47.987356842
 10
-63.4656814728
 20
48.4159303436
 10
-63.8942549744
 20
48.8444993134
 10
-64.5371129608
 20
48.8444993134
 10
-64.9656819305
 20
48.2016458588
  0
LWPOLYLINE
  5
43E
100
AcDbEntity
  8
0
100
AcDbPolyline
 62
7
  6
CONTINUOUS
 90
7
 70
0
 43
0.3500000006
 10
-65.8228244019
 20
45.8445029297
 10
-67.3228248596
 20
45.8445029297
 10
-65.8228244019
 20
47.987356842
 10
-65.8228244019
 20
48.4159303436
 10
-66.2513979034
 20
48.8444993134
 10
-66.8942558899
 20
48.8444993134
 10
-67.3228248596
 20
48.2016458588
  0
ARC
  5
43F
100
AcDbEntity
  8
RACCORDO
100
AcDbCircle
 62
253
  6
CONTINUOUS
 10
-32.878271592
 20
-21.3560476477
 40
0.5004157456
100
AcDbArc
 50
180.1276222378
 51
269.9353983973
  0
ARC
  5
440
100
AcDbEntity
  8
0
100
AcDbCircle
 62
7
  6
CONTINUOUS
 10
-26.5
 20
-23.15
 40
0.5
100
AcDbArc
 50
154.1580672368
 51
205.8419327632
  0
ARC
  5
441
100
AcDbEntity
  8
0
100
AcDbCircle
 62
7
  6
CONTINUOUS
 10
-18.5
 20
-23.15
 40
0.5
100
AcDbArc
 50
334.1580672368
 51
25.8419327632
  0
ARC
  5
442
100
AcDbEntity
  8
0
100
AcDbCircle
 62
7
  6
CONTINUOUS
 10
-33.1504528417
 20
-21.9000167264
 40
0.4999835017
100
AcDbArc
 50
180.0000225334
 51
270.0547276814
  0
ARC
  5
443
100
AcDbEntity
  8
0
100
AcDbCircle
 62
253
  6
CONTINUOUS
 10
-32.3868948038
 20
-24.2368948038
 40
0.2500066177
100
AcDbArc
 50
180.0024861811
 51
269.9975138189
  0
ARC
  5
444
100
AcDbEntity
  8
0
100
AcDbCircle
 62
253
  6
CONTINUOUS
 10
-30.0131051962
 20
-24.2368948038
 40
0.2500066177
100
AcDbArc
 50
270.0024861811
 51
359.9975138189
  0
ARC
  5
445
100
AcDbEntity
  8
0
100
AcDbCircle
 62
7
  6
CONTINUOUS
 10
-32.4000053487
 20
-24.2500053487
 40
0.2499946513
100
AcDbArc
 50
179.9997437926
 51
270.0002562074
  0
ARC
  5
446
100
AcDbEntity
  8
0
100
AcDbCircle
 62
7
  6
CONTINUOUS
 10
-29.9999946513
 20
-24.2500053487
 40
0.2499946513
100
AcDbArc
 50
269.9997437926
 51
0.0002562074
  0
ARC
  5
447
100
AcDbEntity
  8
0
100
AcDbCircle
 62
7
  6
CONTINUOUS
 10
-23.6999988192
 20
-23.7982490665
 40
0.1999988152
100
AcDbArc
 50
269.9996617127
 51
359.4995522505
  0
ARC
  5
448
100
AcDbEntity
  8
0
100
AcDbCircle
 62
253
  6
CONTINUOUS
 10
-21.3000011811
 20
-23.7982490669
 40
0.1999988149
100
AcDbArc
 50
180.5004468359
 51
270.0003383609
  0
ARC
  5
449
100
AcDbEntity
  8
0
100
AcDbCircle
 62
7
  6
CONTINUOUS
 10
-21.300117554
 20
-23.7999934169
 40
0.1998824461
100
AcDbArc
 50
180.0009168221
 51
269.999564761
  0
ARC
  5
44A
100
AcDbEntity
  8
0
100
AcDbCircle
 62
7
  6
CONTINUOUS
 10
-23.699882446
 20
-23.7999934169
 40
0.1998824461
100
AcDbArc
 50
270.002881872
 51
359.9990831779
  0
ARC
  5
44B
100
AcDbEntity
  8
0
100
AcDbCircle
 62
7
  6
CONTINUOUS
 10
-23.6994294463
 20
-23.7982511033
 40
0.1994294463
100
AcDbArc
 50
359.4987086158
 51
359.9999531427
  0
ARC
  5
44C
100
AcDbEntity
  8
0
100
AcDbCircle
 62
253
  6
CONTINUOUS
 10
-21.3005729711
 20
-23.7982511029
 40
0.1994270289
100
AcDbArc
 50
180.0000469729
 51
180.5012967611
  0
ARC
  5
44D
100
AcDbEntity
  8
0
100
AcDbCircle
 62
7
  6
CONTINUOUS
 10
-11.8495502697
 20
-21.9000113415
 40
0.4999888836
100
AcDbArc
 50
269.9456294642
 51
336.4226461915
  0
ARC
  5
44E
100
AcDbEntity
  8
0
100
AcDbCircle
 62
7
  6
CONTINUOUS
 10
-11.8505556502
 20
-21.9005076525
 40
0.4994968435
100
AcDbArc
 50
270.0609006181
 51
336.4604742603
  0
ARC
  5
44F
100
AcDbEntity
  8
0
100
AcDbCircle
 62
253
  6
CONTINUOUS
 10
-12.6131051967
 20
-24.2368948033
 40
0.2500066182
100
AcDbArc
 50
270.0024862874
 51
359.9975137126
  0
ARC
  5
450
100
AcDbEntity
  8
0
100
AcDbCircle
 62
253
  6
CONTINUOUS
 10
-14.9868948033
 20
-24.2368948033
 40
0.2500066182
100
AcDbArc
 50
180.0024862874
 51
269.9975137126
  0
ARC
  5
451
100
AcDbEntity
  8
0
100
AcDbCircle
 62
7
  6
CONTINUOUS
 10
-12.5999946513
 20
-24.2500053487
 40
0.2499946513
100
AcDbArc
 50
269.9997437926
 51
0.0002562074
  0
ARC
  5
452
100
AcDbEntity
  8
0
100
AcDbCircle
 62
7
  6
CONTINUOUS
 10
-15.0000053487
 20
-24.2500053487
 40
0.2499946513
100
AcDbArc
 50
179.9997437926
 51
270.0002562074
  0
ARC
  5
453
100
AcDbEntity
  8
0
100
AcDbCircle
 62
7
  6
CONTINUOUS
 10
-9.1580476686
 20
-15.2018076799
 40
12.311113776
100
AcDbArc
 50
7.4232282947
 51
9.0880063192
  0
ARC
  5
454
100
AcDbEntity
  8
0
100
AcDbCircle
 62
7
  6
CONTINUOUS
 10
-9.157198
 20
-15.20168
 40
12.3102547326
100
AcDbArc
 50
7.4231618291
 51
28.401990498
  0
ARC
  5
455
100
AcDbEntity
  8
0
100
AcDbCircle
 62
7
  6
CONTINUOUS
 10
-9.1674873752
 20
-15.2039264773
 40
11.7207700299
100
AcDbArc
 50
9.1009695217
 51
15.5312507272
  0
ARC
  5
456
100
AcDbEntity
  8
0
100
AcDbCircle
 62
7
  6
CONTINUOUS
 10
-9.1638891118
 20
-15.2048691071
 40
11.7176575019
100
AcDbArc
 50
23.5353515742
 51
28.4000984552
  0
ARC
  5
457
100
AcDbEntity
  8
0
100
AcDbCircle
 62
7
  6
CONTINUOUS
 10
-9.1634925564
 20
-15.2038168492
 40
11.7168917689
100
AcDbArc
 50
15.5359649143
 51
21.9659357666
  0
ARC
  5
458
100
AcDbEntity
  8
0
100
AcDbCircle
 62
7
  6
CONTINUOUS
 10
-9.1570966231
 20
-15.2016455872
 40
11.7101493222
100
AcDbArc
 50
9.0979918062
 51
28.4020253335
  0
ARC
  5
459
100
AcDbEntity
  8
0
100
AcDbCircle
 62
7
  6
CONTINUOUS
 10
-9.1564330066
 20
-15.2015702233
 40
11.7095043482
100
AcDbArc
 50
21.968661843
 51
23.5351209666
  0
ARC
  5
45A
100
AcDbEntity
  8
0
100
AcDbCircle
 62
7
  6
CONTINUOUS
 10
-0.0031697135
 20
-10.2516996166
 40
1.9035970822
100
AcDbArc
 50
28.4015628126
 51
31.8220584034
  0
ARC
  5
45B
100
AcDbEntity
  8
0
100
AcDbCircle
 62
7
  6
CONTINUOUS
 10
-0.0039043193
 20
-10.2520836753
 40
1.3044252005
100
AcDbArc
 50
28.4008793759
 51
31.9884664154
  0
CIRCLE
  5
45C
100
AcDbEntity
  8
0
100
AcDbCircle
 62
7
  6
CONTINUOUS
 10
-0.5000032156
 20
-14.0042428967
 40
0.6495659546
  0
ARC
  5
45D
100
AcDbEntity
  8
0
100
AcDbCircle
 62
7
  6
CONTINUOUS
 10
-0.4973017208
 20
-14.0041620417
 40
0.6468723137
100
AcDbArc
 50
355.3902371886
 51
359.993589326
  0
ARC
  5
45E
100
AcDbEntity
  8
0
100
AcDbCircle
 62
7
  6
CONTINUOUS
 10
-2.7508735309
 20
-13.6499838775
 40
0.301510977
100
AcDbArc
 50
172.6173369141
 51
188.5853035142
  0
ARC
  5
45F
100
AcDbEntity
  8
0
100
AcDbCircle
 62
7
  6
CONTINUOUS
 10
-2.7523947886
 20
-13.6491178982
 40
0.3008824024
100
AcDbArc
 50
264.6121777461
 51
269.9987658056
  0
ARC
  5
460
100
AcDbEntity
  8
0
100
AcDbCircle
 62
7
  6
CONTINUOUS
 10
-2.7523816748
 20
-13.6499717297
 40
0.3000188742
100
AcDbArc
 50
172.5816266401
 51
269.9928569025
  0
ARC
  5
461
100
AcDbEntity
  8
0
100
AcDbCircle
 62
7
  6
CONTINUOUS
 10
-2.1057601818
 20
-13.659982856
 40
0.2900215658
100
AcDbArc
 50
270.0025682023
 51
359.9980059974
  0
ARC
  5
462
100
AcDbEntity
  8
0
100
AcDbCircle
 62
7
  6
CONTINUOUS
 10
-2.1057410169
 20
-13.6400171297
 40
0.2900119202
100
AcDbArc
 50
0.0034946135
 51
89.9967310437
  0
ARC
  5
463
100
AcDbEntity
  8
RACCORDO
100
AcDbCircle
 62
253
  6
CONTINUOUS
 10
-18909.0073076697
 20
-0.0000000641
 40
18875.6573499156
100
AcDbArc
 50
359.9372049881
 51
0.0627950123
  0
ARC
  5
464
100
AcDbEntity
  8
RACCORDO
100
AcDbCircle
 62
253
  6
CONTINUOUS
 10
-32.87827159
 20
21.3560476463
 40
0.5004157478
100
AcDbArc
 50
90.0646018621
 51
179.8723775317
  0
ARC
  5
465
100
AcDbEntity
  8
0
100
AcDbCircle
 62
7
  6
CONTINUOUS
 10
-11.8495569378
 20
21.9000011555
 40
0.5000001395
100
AcDbArc
 50
23.5781179647
 51
90.0536053219
  0
ARC
  5
466
100
AcDbEntity
  8
0
100
AcDbCircle
 62
7
  6
CONTINUOUS
 10
-18.5
 20
23.15
 40
0.5
100
AcDbArc
 50
334.1580672368
 51
25.8419327632
  0
ARC
  5
467
100
AcDbEntity
  8
0
100
AcDbCircle
 62
7
  6
CONTINUOUS
 10
-26.5
 20
23.15
 40
0.5
100
AcDbArc
 50
154.1580672368
 51
205.8419327632
  0
ARC
  5
468
100
AcDbEntity
  8
0
100
AcDbCircle
 62
7
  6
CONTINUOUS
 10
-33.1504528417
 20
21.9000167264
 40
0.4999835017
100
AcDbArc
 50
89.9452723311
 51
179.9999774666
  0
ARC
  5
469
100
AcDbEntity
  8
0
100
AcDbCircle
 62
7
  6
CONTINUOUS
 10
-11.8505557187
 20
21.9005075481
 40
0.4994968435
100
AcDbArc
 50
23.5395335816
 51
89.9390915521
  0
ARC
  5
46A
100
AcDbEntity
  8
0
100
AcDbCircle
 62
253
  6
CONTINUOUS
 10
-12.6131051967
 20
24.2368948033
 40
0.2500066182
100
AcDbArc
 50
0.0024862874
 51
89.9975137126
  0
ARC
  5
46B
100
AcDbEntity
  8
0
100
AcDbCircle
 62
253
  6
CONTINUOUS
 10
-14.9868948038
 20
24.2368948038
 40
0.2500066177
100
AcDbArc
 50
90.0024861811
 51
179.9975138189
  0
ARC
  5
46C
100
AcDbEntity
  8
0
100
AcDbCircle
 62
253
  6
CONTINUOUS
 10
-30.0131051962
 20
24.2368948038
 40
0.2500066177
100
AcDbArc
 50
0.0024861811
 51
89.9975138189
  0
ARC
  5
46D
100
AcDbEntity
  8
0
100
AcDbCircle
 62
253
  6
CONTINUOUS
 10
-32.3868948038
 20
24.2368948038
 40
0.2500066177
100
AcDbArc
 50
90.0024861811
 51
179.9975138189
  0
ARC
  5
46E
100
AcDbEntity
  8
0
100
AcDbCircle
 62
7
  6
CONTINUOUS
 10
-12.5999946513
 20
24.2500053487
 40
0.2499946513
100
AcDbArc
 50
359.9997437926
 51
90.0002562074
  0
ARC
  5
46F
100
AcDbEntity
  8
0
100
AcDbCircle
 62
7
  6
CONTINUOUS
 10
-15.0000053487
 20
24.2500053487
 40
0.2499946513
100
AcDbArc
 50
89.9997437926
 51
180.0002562074
  0
ARC
  5
470
100
AcDbEntity
  8
0
100
AcDbCircle
 62
7
  6
CONTINUOUS
 10
-29.9999946513
 20
24.2500053487
 40
0.2499946513
100
AcDbArc
 50
359.9997437926
 51
90.0002562074
  0
ARC
  5
471
100
AcDbEntity
  8
0
100
AcDbCircle
 62
7
  6
CONTINUOUS
 10
-32.4000053487
 20
24.2500053487
 40
0.2499946513
100
AcDbArc
 50
89.9997437926
 51
180.0002562074
  0
ARC
  5
472
100
AcDbEntity
  8
0
100
AcDbCircle
 62
7
  6
CONTINUOUS
 10
-21.3000011808
 20
23.7982490665
 40
0.1999988152
100
AcDbArc
 50
89.9996617127
 51
179.4995522505
  0
ARC
  5
473
100
AcDbEntity
  8
0
100
AcDbCircle
 62
253
  6
CONTINUOUS
 10
-23.6999988189
 20
23.7982490669
 40
0.1999988149
100
AcDbArc
 50
0.5004468359
 51
90.0003383609
  0
ARC
  5
474
100
AcDbEntity
  8
0
100
AcDbCircle
 62
7
  6
CONTINUOUS
 10
-21.300117554
 20
23.7999934169
 40
0.1998824461
100
AcDbArc
 50
90.0028818721
 51
179.999083178
  0
ARC
  5
475
100
AcDbEntity
  8
0
100
AcDbCircle
 62
7
  6
CONTINUOUS
 10
-23.699882446
 20
23.7999934169
 40
0.1998824461
100
AcDbArc
 50
0.000916822
 51
89.999564761
  0
ARC
  5
476
100
AcDbEntity
  8
0
100
AcDbCircle
 62
7
  6
CONTINUOUS
 10
-21.3005705535
 20
23.7982511033
 40
0.1994294465
100
AcDbArc
 50
179.4987086163
 51
179.9999531426
  0
ARC
  5
477
100
AcDbEntity
  8
0
100
AcDbCircle
 62
253
  6
CONTINUOUS
 10
-23.6994270289
 20
23.7982511029
 40
0.1994270289
100
AcDbArc
 50
0.0000469729
 51
0.5012967611
  0
ARC
  5
478
100
AcDbEntity
  8
RACCORDO
100
AcDbCircle
 62
253
  6
CONTINUOUS
 10
-0.0000000387
 20
-27041.2762700507
 40
27019.4397974973
100
AcDbArc
 50
89.9302791246
 51
90.0697208752
  0
ARC
  5
479
100
AcDbEntity
  8
0
100
AcDbCircle
 62
7
  6
CONTINUOUS
 10
9.1582048945
 20
-15.2021996853
 40
12.311388399
100
AcDbArc
 50
151.5981575846
 51
153.5099821457
  0
ARC
  5
47A
100
AcDbEntity
  8
0
100
AcDbCircle
 62
7
  6
CONTINUOUS
 10
9.1581282215
 20
-15.2018188197
 40
12.3111958719
100
AcDbArc
 50
170.82871569
 51
172.5767686478
  0
ARC
  5
47B
100
AcDbEntity
  8
0
100
AcDbCircle
 62
7
  6
CONTINUOUS
 10
9.157198
 20
-15.20168
 40
12.3102555115
100
AcDbArc
 50
151.5980570545
 51
172.5768255605
  0
ARC
  5
47C
100
AcDbEntity
  8
0
100
AcDbCircle
 62
7
  6
CONTINUOUS
 10
9.1667282166
 20
-15.2061614178
 40
11.7207694746
100
AcDbArc
 50
151.6009455848
 51
158.03017594
  0
ARC
  5
47D
100
AcDbEntity
  8
0
100
AcDbCircle
 62
7
  6
CONTINUOUS
 10
9.1656265815
 20
-15.2034769315
 40
11.7188614579
100
AcDbArc
 50
165.5514096125
 51
170.8997750897
  0
ARC
  5
47E
100
AcDbEntity
  8
0
100
AcDbCircle
 62
7
  6
CONTINUOUS
 10
9.1634903706
 20
-15.2038159698
 40
11.7168893225
100
AcDbArc
 50
158.0348888732
 51
164.4648642762
  0
ARC
  5
47F
100
AcDbEntity
  8
0
100
AcDbCircle
 62
7
  6
CONTINUOUS
 10
9.1570962863
 20
-15.2016454728
 40
11.7101488738
100
AcDbArc
 50
151.5979695236
 51
170.902022022
  0
ARC
  5
480
100
AcDbEntity
  8
0
100
AcDbCircle
 62
7
  6
CONTINUOUS
 10
9.1542888071
 20
-15.2007006117
 40
11.7071895535
100
AcDbArc
 50
164.467492855
 51
165.5507225258
  0
ARC
  5
481
100
AcDbEntity
  8
0
100
AcDbCircle
 62
7
  6
CONTINUOUS
 10
0.0036057044
 20
-10.2519294981
 40
1.904089938
100
AcDbArc
 50
148.1790948232
 51
151.5985923071
  0
ARC
  5
482
100
AcDbEntity
  8
0
100
AcDbCircle
 62
7
  6
CONTINUOUS
 10
0.0000007489
 20
-10.2499155668
 40
1.8999337305
100
AcDbArc
 50
28.4000169681
 51
151.6003126137
  0
ARC
  5
483
100
AcDbEntity
  8
0
100
AcDbCircle
 62
7
  6
CONTINUOUS
 10
-0.0000014251
 20
-10.249946453
 40
1.2999520294
100
AcDbArc
 50
28.3997806535
 51
151.6001159012
  0
ARC
  5
484
100
AcDbEntity
  8
0
100
AcDbCircle
 62
7
  6
CONTINUOUS
 10
11.8495569311
 20
-21.9000011659
 40
0.5000001395
100
AcDbArc
 50
203.5781171788
 51
270.0536060974
  0
ARC
  5
485
100
AcDbEntity
  8
0
100
AcDbCircle
 62
7
  6
CONTINUOUS
 10
11.8505556525
 20
-21.900507654
 40
0.4994968435
100
AcDbArc
 50
203.5395254781
 51
269.939099136
  0
ARC
  5
486
100
AcDbEntity
  8
0
100
AcDbCircle
 62
7
  6
CONTINUOUS
 10
2.7521641542
 20
-13.6483415273
 40
0.3016585659
100
AcDbArc
 50
270.0450326937
 51
286.0598805518
  0
ARC
  5
487
100
AcDbEntity
  8
0
100
AcDbCircle
 62
7
  6
CONTINUOUS
 10
2.7524172224
 20
-13.6500144947
 40
0.2999772643
100
AcDbArc
 50
270.0130896202
 51
7.4263443181
  0
ARC
  5
488
100
AcDbEntity
  8
0
100
AcDbCircle
 62
7
  6
CONTINUOUS
 10
1.1030341716
 20
-13.6400171269
 40
0.2900215523
100
AcDbArc
 50
90.0098872679
 51
179.9980041986
  0
ARC
  5
489
100
AcDbEntity
  8
0
100
AcDbCircle
 62
7
  6
CONTINUOUS
 10
1.1030150021
 20
-13.6599829027
 40
0.2900118972
100
AcDbArc
 50
180.0034576911
 51
270.0035905491
  0
ARC
  5
48A
100
AcDbEntity
  8
0
100
AcDbCircle
 62
7
  6
CONTINUOUS
 10
1.1030245376
 20
-13.6394393026
 40
0.2894393033
100
AcDbArc
 50
90.0038441129
 51
94.6337193688
  0
ARC
  5
48B
100
AcDbEntity
  8
0
100
AcDbCircle
 62
253
  6
CONTINUOUS
 10
12.6131051962
 20
-24.2368948038
 40
0.2500066177
100
AcDbArc
 50
180.0024861811
 51
269.9975138189
  0
ARC
  5
48C
100
AcDbEntity
  8
0
100
AcDbCircle
 62
253
  6
CONTINUOUS
 10
14.9868948038
 20
-24.2368948038
 40
0.2500066177
100
AcDbArc
 50
270.0024861811
 51
359.9975138189
  0
ARC
  5
48D
100
AcDbEntity
  8
0
100
AcDbCircle
 62
7
  6
CONTINUOUS
 10
12.5999946513
 20
-24.2500053487
 40
0.2499946513
100
AcDbArc
 50
179.9997437926
 51
270.0002562074
  0
ARC
  5
48E
100
AcDbEntity
  8
0
100
AcDbCircle
 62
7
  6
CONTINUOUS
 10
15.0000053487
 20
-24.2500053487
 40
0.2499946513
100
AcDbArc
 50
269.9997437926
 51
0.0002562074
  0
ARC
  5
48F
100
AcDbEntity
  8
RACCORDO
100
AcDbCircle
 62
253
  6
CONTINUOUS
 10
32.8782715928
 20
-21.3560476436
 40
0.5004157477
100
AcDbArc
 50
270.0646015426
 51
359.8723772264
  0
ARC
  5
490
100
AcDbEntity
  8
0
100
AcDbCircle
 62
7
  6
CONTINUOUS
 10
18.5
 20
-23.15
 40
0.5
100
AcDbArc
 50
154.1580672368
 51
205.8419327632
  0
ARC
  5
491
100
AcDbEntity
  8
0
100
AcDbCircle
 62
7
  6
CONTINUOUS
 10
26.5
 20
-23.15
 40
0.5
100
AcDbArc
 50
334.1580672368
 51
25.8419327632
  0
ARC
  5
492
100
AcDbEntity
  8
0
100
AcDbCircle
 62
7
  6
CONTINUOUS
 10
33.1504528417
 20
-21.9000167264
 40
0.4999835017
100
AcDbArc
 50
269.9452723311
 51
359.9999774666
  0
ARC
  5
493
100
AcDbEntity
  8
0
100
AcDbCircle
 62
253
  6
CONTINUOUS
 10
32.3868948033
 20
-24.2368948033
 40
0.2500066182
100
AcDbArc
 50
270.0024862874
 51
359.9975137126
  0
ARC
  5
494
100
AcDbEntity
  8
0
100
AcDbCircle
 62
253
  6
CONTINUOUS
 10
30.0131051967
 20
-24.2368948033
 40
0.2500066182
100
AcDbArc
 50
180.0024862874
 51
269.9975137126
  0
ARC
  5
495
100
AcDbEntity
  8
0
100
AcDbCircle
 62
7
  6
CONTINUOUS
 10
32.4000053487
 20
-24.2500053487
 40
0.2499946513
100
AcDbArc
 50
269.9997437926
 51
0.0002562074
  0
ARC
  5
496
100
AcDbEntity
  8
0
100
AcDbCircle
 62
7
  6
CONTINUOUS
 10
29.9999946513
 20
-24.2500053487
 40
0.2499946513
100
AcDbArc
 50
179.9997437926
 51
270.0002562074
  0
ARC
  5
497
100
AcDbEntity
  8
0
100
AcDbCircle
 62
7
  6
CONTINUOUS
 10
21.3000011808
 20
-23.7982490665
 40
0.1999988152
100
AcDbArc
 50
269.9996617127
 51
359.4995522505
  0
ARC
  5
498
100
AcDbEntity
  8
0
100
AcDbCircle
 62
253
  6
CONTINUOUS
 10
23.6999988189
 20
-23.7982490669
 40
0.1999988149
100
AcDbArc
 50
180.5004468359
 51
270.0003383609
  0
ARC
  5
499
100
AcDbEntity
  8
0
100
AcDbCircle
 62
7
  6
CONTINUOUS
 10
23.699882446
 20
-23.7999934169
 40
0.1998824461
100
AcDbArc
 50
180.0009168221
 51
269.999564761
  0
ARC
  5
49A
100
AcDbEntity
  8
0
100
AcDbCircle
 62
7
  6
CONTINUOUS
 10
21.300117554
 20
-23.7999934169
 40
0.1998824461
100
AcDbArc
 50
270.002881872
 51
359.9990831779
  0
ARC
  5
49B
100
AcDbEntity
  8
0
100
AcDbCircle
 62
7
  6
CONTINUOUS
 10
21.3005705537
 20
-23.7982511033
 40
0.1994294463
100
AcDbArc
 50
359.4987086158
 51
359.9999531427
  0
ARC
  5
49C
100
AcDbEntity
  8
0
100
AcDbCircle
 62
253
  6
CONTINUOUS
 10
23.6994270287
 20
-23.7982511029
 40
0.1994270287
100
AcDbArc
 50
180.0000469728
 51
180.5012967615
  0
ARC
  5
49D
100
AcDbEntity
  8
RACCORDO
100
AcDbCircle
 62
253
  6
CONTINUOUS
 10
0.0000000534
 20
27041.2761591389
 40
27019.4396865856
100
AcDbArc
 50
269.9302791243
 51
270.0697208755
  0
ARC
  5
49E
100
AcDbEntity
  8
RACCORDO
100
AcDbCircle
 62
253
  6
CONTINUOUS
 10
18909.0073275139
 20
0.0000000625
 40
18875.6573697599
100
AcDbArc
 50
179.9372049882
 51
180.0627950122
  0
ARC
  5
49F
100
AcDbEntity
  8
RACCORDO
100
AcDbCircle
 62
253
  6
CONTINUOUS
 10
32.8782715947
 20
21.3560476449
 40
0.5004157456
100
AcDbArc
 50
0.1276225524
 51
89.9353987076
  0
ARC
  5
4A0
100
AcDbEntity
  8
0
100
AcDbCircle
 62
7
  6
CONTINUOUS
 10
26.5
 20
23.15
 40
0.5
100
AcDbArc
 50
334.1580672368
 51
25.8419327632
  0
ARC
  5
4A1
100
AcDbEntity
  8
0
100
AcDbCircle
 62
7
  6
CONTINUOUS
 10
18.5
 20
23.15
 40
0.5
100
AcDbArc
 50
154.1580672368
 51
205.8419327632
  0
ARC
  5
4A2
100
AcDbEntity
  8
0
100
AcDbCircle
 62
7
  6
CONTINUOUS
 10
11.8495502697
 20
21.9000113415
 40
0.4999888836
100
AcDbArc
 50
89.9456294642
 51
156.4226461914
  0
ARC
  5
4A3
100
AcDbEntity
  8
0
100
AcDbCircle
 62
7
  6
CONTINUOUS
 10
33.1504528417
 20
21.9000167264
 40
0.4999835017
100
AcDbArc
 50
0.0000225334
 51
90.0547276814
  0
ARC
  5
4A4
100
AcDbEntity
  8
0
100
AcDbCircle
 62
7
  6
CONTINUOUS
 10
11.850555721
 20
21.9005075496
 40
0.4994968435
100
AcDbArc
 50
90.0609087188
 51
156.4604666798
  0
ARC
  5
4A5
100
AcDbEntity
  8
0
100
AcDbCircle
 62
253
  6
CONTINUOUS
 10
32.3868948033
 20
24.2368948033
 40
0.2500066182
100
AcDbArc
 50
0.0024862874
 51
89.9975137126
  0
ARC
  5
4A6
100
AcDbEntity
  8
0
100
AcDbCircle
 62
253
  6
CONTINUOUS
 10
30.0131051962
 20
24.2368948038
 40
0.2500066177
100
AcDbArc
 50
90.0024861811
 51
179.9975138189
  0
ARC
  5
4A7
100
AcDbEntity
  8
0
100
AcDbCircle
 62
253
  6
CONTINUOUS
 10
14.9868948038
 20
24.2368948038
 40
0.2500066177
100
AcDbArc
 50
0.0024861811
 51
89.9975138189
  0
ARC
  5
4A8
100
AcDbEntity
  8
0
100
AcDbCircle
 62
253
  6
CONTINUOUS
 10
12.6131051962
 20
24.2368948038
 40
0.2500066177
100
AcDbArc
 50
90.0024861811
 51
179.9975138189
  0
ARC
  5
4A9
100
AcDbEntity
  8
0
100
AcDbCircle
 62
7
  6
CONTINUOUS
 10
32.4000053487
 20
24.2500053487
 40
0.2499946513
100
AcDbArc
 50
359.9997437926
 51
90.0002562074
  0
ARC
  5
4AA
100
AcDbEntity
  8
0
100
AcDbCircle
 62
7
  6
CONTINUOUS
 10
29.9999946513
 20
24.2500053487
 40
0.2499946513
100
AcDbArc
 50
89.9997437926
 51
180.0002562074
  0
ARC
  5
4AB
100
AcDbEntity
  8
0
100
AcDbCircle
 62
7
  6
CONTINUOUS
 10
15.0000053487
 20
24.2500053487
 40
0.2499946513
100
AcDbArc
 50
359.9997437926
 51
90.0002562074
  0
ARC
  5
4AC
100
AcDbEntity
  8
0
100
AcDbCircle
 62
7
  6
CONTINUOUS
 10
12.5999946513
 20
24.2500053487
 40
0.2499946513
100
AcDbArc
 50
89.9997437926
 51
180.0002562074
  0
ARC
  5
4AD
100
AcDbEntity
  8
0
100
AcDbCircle
 62
7
  6
CONTINUOUS
 10
23.6999988192
 20
23.7982490665
 40
0.1999988152
100
AcDbArc
 50
89.9996617127
 51
179.4995522505
  0
ARC
  5
4AE
100
AcDbEntity
  8
0
100
AcDbCircle
 62
253
  6
CONTINUOUS
 10
21.3000011811
 20
23.7982490669
 40
0.1999988149
100
AcDbArc
 50
0.5004468359
 51
90.0003383609
  0
ARC
  5
4AF
100
AcDbEntity
  8
0
100
AcDbCircle
 62
7
  6
CONTINUOUS
 10
23.699882446
 20
23.7999934169
 40
0.1998824461
100
AcDbArc
 50
90.002881872
 51
179.9990831779
  0
ARC
  5
4B0
100
AcDbEntity
  8
0
100
AcDbCircle
 62
7
  6
CONTINUOUS
 10
21.300117554
 20
23.7999934169
 40
0.1998824461
100
AcDbArc
 50
0.0009168221
 51
89.999564761
  0
ARC
  5
4B1
100
AcDbEntity
  8
0
100
AcDbCircle
 62
7
  6
CONTINUOUS
 10
23.6994294463
 20
23.7982511033
 40
0.1994294463
100
AcDbArc
 50
179.4987086158
 51
179.9999531427
  0
ARC
  5
4B2
100
AcDbEntity
  8
0
100
AcDbCircle
 62
253
  6
CONTINUOUS
 10
21.3005729711
 20
23.7982511029
 40
0.1994270289
100
AcDbArc
 50
0.0000469729
 51
0.5012967611
  0
ARC
  5
4B3
100
AcDbEntity
  8
RACCORDO
100
AcDbCircle
 62
7
  6
CONTINUOUS
 10
-72.0711994356
 20
-20.6578177636
 40
1.2002803877
100
AcDbArc
 50
182.4070951251
 51
267.0104570268
  0
ARC
  5
4B4
100
AcDbEntity
  8
RACCORDO
100
AcDbCircle
 62
7
  6
CONTINUOUS
 10
-72.4527286049
 20
-20.6381158065
 40
1.2
100
AcDbArc
 50
182.9664171381
 51
267.0
  0
ARC
  5
4B5
100
AcDbEntity
  8
0
100
AcDbCircle
 62
7
  6
CONTINUOUS
 10
-52.8871036188
 20
-21.3359869487
 40
1.0
100
AcDbArc
 50
270.3333333333
 51
360.0
  0
ARC
  5
4B6
100
AcDbEntity
  8
RACCORDO
100
AcDbCircle
 62
253
  6
CONTINUOUS
 10
-72.0843512711
 20
-20.6577329297
 40
0.7003569705
100
AcDbArc
 50
182.4223819801
 51
267.0234606625
  0
ARC
  5
4B7
100
AcDbEntity
  8
0
100
AcDbCircle
 62
7
  6
CONTINUOUS
 10
-58.3871036188
 20
-23.4679934743
 40
0.5
100
AcDbArc
 50
270.3333333333
 51
360.0
  0
ARC
  5
4B8
100
AcDbEntity
  8
0
100
AcDbCircle
 62
7
  6
CONTINUOUS
 10
-66.1371036188
 20
-24.2369056521
 40
0.25
100
AcDbArc
 50
180.0
 51
269.6666666667
  0
ARC
  5
4B9
100
AcDbEntity
  8
0
100
AcDbCircle
 62
7
  6
CONTINUOUS
 10
-63.1371036188
 20
-24.2456323968
 40
0.25
100
AcDbArc
 50
270.3333333333
 51
360.0
  0
ARC
  5
4BA
100
AcDbEntity
  8
0
100
AcDbCircle
 62
7
  6
CONTINUOUS
 10
-63.1371036188
 20
-23.8443375673
 40
0.25
100
AcDbArc
 50
0.0
 51
60.0
  0
ARC
  5
4BB
100
AcDbEntity
  8
0
100
AcDbCircle
 62
7
  6
CONTINUOUS
 10
-66.1371036188
 20
-23.8443375673
 40
0.25
100
AcDbArc
 50
120.0
 51
180.0
  0
ARC
  5
4BC
100
AcDbEntity
  8
RACCORDO
100
AcDbCircle
 62
7
  6
CONTINUOUS
 10
-52.0871036188
 20
-19.9942577878
 40
0.2
100
AcDbArc
 50
0.0
 51
89.5
  0
ARC
  5
4BD
100
AcDbEntity
  8
RACCORDO
100
AcDbCircle
 62
7
  6
CONTINUOUS
 10
-52.0871036188
 20
-18.7400415081
 40
0.2
100
AcDbArc
 50
0.0
 51
69.9999998795
  0
ARC
  5
4BE
100
AcDbEntity
  8
RACCORDO
100
AcDbCircle
 62
7
  6
CONTINUOUS
 10
-72.0711994414
 20
20.6578177692
 40
1.2002803872
100
AcDbArc
 50
92.9895432494
 51
177.592905189
  0
ARC
  5
4BF
100
AcDbEntity
  8
RACCORDO
100
AcDbCircle
 62
7
  6
CONTINUOUS
 10
-72.4527286036
 20
20.6381158066
 40
1.2
100
AcDbArc
 50
93.0
 51
177.0335828619
  0
ARC
  5
4C0
100
AcDbEntity
  8
0
100
AcDbCircle
 62
7
  6
CONTINUOUS
 10
-52.8871036188
 20
21.3359869487
 40
1.0
100
AcDbArc
 50
0.0
 51
89.6666666667
  0
ARC
  5
4C1
100
AcDbEntity
  8
RACCORDO
100
AcDbCircle
 62
253
  6
CONTINUOUS
 10
-72.0843512875
 20
20.6577329392
 40
0.7003569598
100
AcDbArc
 50
92.9765389623
 51
177.5776188208
  0
ARC
  5
4C2
100
AcDbEntity
  8
0
100
AcDbCircle
 62
7
  6
CONTINUOUS
 10
-58.3871036188
 20
23.4679934743
 40
0.5
100
AcDbArc
 50
0.0
 51
89.6666666667
  0
ARC
  5
4C3
100
AcDbEntity
  8
0
100
AcDbCircle
 62
7
  6
CONTINUOUS
 10
-66.1371036188
 20
24.2369056521
 40
0.25
100
AcDbArc
 50
90.3333333333
 51
180.0
  0
ARC
  5
4C4
100
AcDbEntity
  8
0
100
AcDbCircle
 62
7
  6
CONTINUOUS
 10
-63.1371036188
 20
24.2456323968
 40
0.25
100
AcDbArc
 50
0.0
 51
89.6666666667
  0
ARC
  5
4C5
100
AcDbEntity
  8
0
100
AcDbCircle
 62
7
  6
CONTINUOUS
 10
-66.1371036188
 20
23.8443375673
 40
0.25
100
AcDbArc
 50
180.0
 51
240.0
  0
ARC
  5
4C6
100
AcDbEntity
  8
0
100
AcDbCircle
 62
7
  6
CONTINUOUS
 10
-63.1371036188
 20
23.8443375673
 40
0.25
100
AcDbArc
 50
300.0
 51
360.0
  0
ARC
  5
4C7
100
AcDbEntity
  8
RACCORDO
100
AcDbCircle
 62
7
  6
CONTINUOUS
 10
-52.0871036188
 20
18.7400415081
 40
0.2
100
AcDbArc
 50
290.0000001205
 51
360.0
  0
ARC
  5
4C8
100
AcDbEntity
  8
RACCORDO
100
AcDbCircle
 62
7
  6
CONTINUOUS
 10
-52.0871036188
 20
19.9942577878
 40
0.2
100
AcDbArc
 50
270.5
 51
360.0
  0
ARC
  5
4C9
100
AcDbEntity
  8
RACCORDO
100
AcDbCircle
 62
253
  6
CONTINUOUS
 10
421.4140087868
 20
0.0000000013
 40
495.1176630525
100
AcDbArc
 50
177.602912679
 51
182.3970873214
  0
ARC
  5
4CA
100
AcDbEntity
  8
RACCORDO
100
AcDbCircle
 62
253
  6
CONTINUOUS
 10
421.306481118
 20
0.0000000625
 40
494.5234400883
100
AcDbArc
 50
177.602453643
 51
182.3975463716
  0
ARC
  5
4CB
100
AcDbEntity
  8
0
100
AcDbCircle
 62
7
  6
CONTINUOUS
 10
344.5146317784
 20
0.7957952111
 40
418.7142167714
100
AcDbArc
 50
181.4335482575
 51
181.9360212246
  0
ARC
  5
4CC
100
AcDbEntity
  8
0
100
AcDbCircle
 62
7
  6
CONTINUOUS
 10
343.299746554
 20
0.763225437
 40
417.4988969805
100
AcDbArc
 50
181.4332491122
 51
181.8966329791
  0
LINE
  5
4CD
100
AcDbEntity
  8
0
100
AcDbLine
 62
7
  6
CONTINUOUS
 10
1.1030051183
 20
-13.3500026462
 11
1.1978121997
 21
-13.3500023437
  0
LINE
  5
4CE
100
AcDbEntity
  8
0
100
AcDbLine
 62
7
  6
CONTINUOUS
 10
1.1978121997
 20
-13.3500023437
 11
1.3570107467
 21
-13.3500017797
  0
LINE
  5
4CF
100
AcDbEntity
  8
0
100
AcDbLine
 62
7
  6
CONTINUOUS
 10
1.3570107467
 20
-13.3500017797
 11
2.4057314088
 21
-13.3499963079
  0
LINE
  5
4D0
100
AcDbEntity
  8
0
100
AcDbLine
 62
7
  6
CONTINUOUS
 10
2.7524012477
 20
-13.9499948063
 11
2.6336040489
 21
-13.9499956845
  0
LINE
  5
4D1
100
AcDbEntity
  8
0
100
AcDbLine
 62
7
  6
CONTINUOUS
 10
2.6336040489
 20
-13.9499956845
 11
2.4351090225
 21
-13.9499970654
  0
LINE
  5
4D2
100
AcDbEntity
  8
0
100
AcDbLine
 62
7
  6
CONTINUOUS
 10
2.4351090225
 20
-13.9499970654
 11
1.2214710837
 21
-13.9500031562
  0
LINE
  5
4D3
100
AcDbEntity
  8
0
100
AcDbLine
 62
7
  6
CONTINUOUS
 10
1.2214710837
 20
-13.9500031562
 11
1.1030068766
 21
-13.9500035342
  0
LINE
  5
4D4
100
AcDbEntity
  8
0
100
AcDbLine
 62
7
  6
CONTINUOUS
 10
1.6713013611
 20
-9.3462574561
 11
1.6760358693
 21
-9.3550215103
  0
SPLINE
  5
4D5
100
AcDbEntity
  8
0
100
AcDbSpline
 62
7
  6
CONTINUOUS
 70
0
 71
3
 72
15
 73
11
 74
9
 42
0.0000001
 43
0.0000001
 44
0.0000000001
 12
0.3142908459
 22
0.0
 32
0.0
 13
0.0031667975
 23
0.3142748912
 33
0.0
 40
0.0
 40
0.0
 40
0.0
 40
0.0
 40
0.1666133779
 40
0.3262255844
 40
0.4735308137
 40
0.6056575217
 40
0.7220676483
 40
0.8241942131
 40
0.9152281509
 40
1.0
 40
1.0
 40
1.0
 40
1.0
 10
14.9927234819
 20
23.1226497308
 30
0.0
 10
15.0101785017
 20
23.1226497308
 30
0.0
 10
15.0443856929
 20
23.124909705
 30
0.0
 10
15.0932620946
 20
23.1340775763
 30
0.0
 10
15.1371035061
 20
23.1484769636
 30
0.0
 10
15.1743461767
 20
23.1671011817
 30
0.0
 10
15.2040985049
 20
23.1890111222
 30
0.0
 10
15.2258950298
 20
23.2134107396
 30
0.0
 10
15.2393986841
 20
23.239611024
 30
0.0
 10
15.242629766
 20
23.2581067436
 30
0.0
 10
15.2427192511
 20
23.2669872981
 30
0.0
 11
14.9927234819
 21
23.1226497308
 31
0.0
 11
15.0449802175
 21
23.126016189
 31
0.0
 11
15.0942534457
 21
23.1354311576
 31
0.0
 11
15.1381709782
 21
23.1500815293
 31
0.0
 11
15.1751759211
 21
23.1689245842
 31
0.0
 11
15.2044151803
 21
23.1909165769
 31
0.0
 11
15.2254977136
 21
23.215119319
 31
0.0
 11
15.2382790097
 21
23.2407168857
 31
0.0
 11
15.2427192511
 21
23.2669872981
 31
0.0
  0
SPLINE
  5
4D6
100
AcDbEntity
  8
0
100
AcDbSpline
 62
253
  6
CONTINUOUS
 70
0
 71
3
 72
13
 73
9
 74
7
 42
0.0000001
 43
0.0000001
 44
0.0000000001
 12
0.0012265944
 22
-0.3651869709
 32
0.0
 13
0.3651878721
 23
-0.0009199792
 33
0.0
 40
0.0
 40
0.0
 40
0.0
 40
0.0
 40
0.1162394899
 40
0.2339784923
 40
0.3543712679
 40
0.4780982409
 40
0.7345378657
 40
1.0
 40
1.0
 40
1.0
 40
1.0
 10
12.3630985787
 20
23.8443375673
 30
0.0
 10
12.363146105
 20
23.8301878516
 30
0.0
 10
12.3665046396
 20
23.8016148337
 30
0.0
 10
12.3810612265
 20
23.7606544968
 30
0.0
 10
12.4045320998
 20
23.7229827139
 30
0.0
 10
12.4468348266
 20
23.6786209789
 30
0.0
 10
12.5167610945
 20
23.6387867994
 30
0.0
 10
12.5807798306
 20
23.6279126229
 30
0.0
 10
12.6130943479
 20
23.6278312164
 30
0.0
 11
12.3630985787
 21
23.8443375673
 31
0.0
 11
12.3680263068
 21
23.8021751679
 31
0.0
 11
12.3823368095
 21
23.7616295042
 31
0.0
 11
12.4054824773
 21
23.7242490565
 31
0.0
 11
12.4365773793
 21
23.6914667926
 31
0.0
 11
12.5175929316
 21
23.6444922901
 31
0.0
 11
12.6130943479
 21
23.6278312164
 31
0.0
  0
SPLINE
  5
4D7
100
AcDbEntity
  8
0
100
AcDbSpline
 62
7
  6
CONTINUOUS
 70
0
 71
3
 72
15
 73
11
 74
9
 42
0.0000001
 43
0.0000001
 44
0.0000000001
 12
0.0031741039
 22
-0.3149999784
 32
0.0
 13
0.3150159699
 23
0.0
 33
0.0
 40
0.0
 40
0.0
 40
0.0
 40
0.0
 40
0.0847246382
 40
0.1757279367
 40
0.2778501555
 40
0.3942839058
 40
0.5264550939
 40
0.6738071548
 40
0.8334364544
 40
1.0
 40
1.0
 40
1.0
 40
1.0
 10
12.3572807489
 20
23.2669872981
 30
0.0
 10
12.3573703905
 20
23.2580912117
 30
0.0
 10
12.3606131795
 20
23.2395608029
 30
0.0
 10
12.3741645701
 20
23.2133174142
 30
0.0
 10
12.396036015
 20
23.1888844894
 30
0.0
 10
12.425888076
 20
23.1669547435
 30
0.0
 10
12.463250807
 20
23.1483274499
 30
0.0
 10
12.5072234122
 20
23.133953471
 30
0.0
 10
12.5562269929
 20
23.1248150691
 30
0.0
 10
12.5905136879
 20
23.1226497308
 30
0.0
 10
12.6080037468
 20
23.1226497308
 30
0.0
 11
12.3572807489
 21
23.2669872981
 31
0.0
 11
12.3617358026
 21
23.2406721314
 31
0.0
 11
12.3745605835
 21
23.2150332915
 31
0.0
 11
12.3957149112
 21
23.1907967144
 31
0.0
 11
12.4250527761
 21
23.1687830511
 31
0.0
 11
12.4621789369
 21
23.1499360992
 31
0.0
 11
12.5062311591
 21
23.1353054509
 31
0.0
 11
12.5556366974
 21
23.1259378303
 31
0.0
 11
12.6080037468
 21
23.1226497308
 31
0.0
  0
SPLINE
  5
4D8
100
AcDbEntity
  8
0
100
AcDbSpline
 62
253
  6
CONTINUOUS
 70
0
 71
3
 72
13
 73
9
 74
7
 42
0.0000001
 43
0.0000001
 44
0.0000000001
 12
-0.0012265944
 22
-0.3651869708
 32
0.0
 13
-0.3651878719
 23
-0.0009199792
 33
0.0
 40
0.0
 40
0.0
 40
0.0
 40
0.0
 40
0.1162394861
 40
0.2339784844
 40
0.3543712552
 40
0.4780982232
 40
0.7345378384
 40
1.0
 40
1.0
 40
1.0
 40
1.0
 10
15.2369014213
 20
23.8443375673
 30
0.0
 10
15.2368538951
 20
23.830187852
 30
0.0
 10
15.2334953606
 20
23.8016148352
 30
0.0
 10
15.2189387749
 20
23.7606544996
 30
0.0
 10
15.1954679029
 20
23.7229827179
 30
0.0
 10
15.1531651791
 20
23.6786209833
 30
0.0
 10
15.083238911
 20
23.6387868014
 30
0.0
 10
15.0192201727
 20
23.6279126229
 30
0.0
 10
14.9869056521
 20
23.6278312164
 30
0.0
 11
15.2369014213
 21
23.8443375673
 31
0.0
 11
15.2319736935
 21
23.8021751692
 31
0.0
 11
15.2176631919
 21
23.7616295068
 31
0.0
 11
15.1945175256
 21
23.7242490603
 31
0.0
 11
15.1634226257
 21
23.6914667969
 31
0.0
 11
15.0824070779
 21
23.6444922937
 31
0.0
 11
14.9869056521
 21
23.6278312164
 31
0.0
  0
SPLINE
  5
4D9
100
AcDbEntity
  8
0
100
AcDbSpline
 62
253
  6
CONTINUOUS
 70
0
 71
3
 72
13
 73
9
 74
7
 42
0.0000001
 43
0.0000001
 44
0.0000000001
 12
0.0012265944
 22
-0.3651869708
 32
0.0
 13
0.3651878719
 23
-0.0009199792
 33
0.0
 40
0.0
 40
0.0
 40
0.0
 40
0.0
 40
0.1162394861
 40
0.2339784844
 40
0.3543712552
 40
0.4780982232
 40
0.7345378384
 40
1.0
 40
1.0
 40
1.0
 40
1.0
 10
29.7630985787
 20
23.8443375673
 30
0.0
 10
29.7631461049
 20
23.830187852
 30
0.0
 10
29.7665046394
 20
23.8016148352
 30
0.0
 10
29.7810612251
 20
23.7606544996
 30
0.0
 10
29.8045320971
 20
23.7229827179
 30
0.0
 10
29.8468348209
 20
23.6786209833
 30
0.0
 10
29.916761089
 20
23.6387868014
 30
0.0
 10
29.9807798273
 20
23.6279126229
 30
0.0
 10
30.0130943479
 20
23.6278312164
 30
0.0
 11
29.7630985787
 21
23.8443375673
 31
0.0
 11
29.7680263065
 21
23.8021751692
 31
0.0
 11
29.7823368081
 21
23.7616295068
 31
0.0
 11
29.8054824744
 21
23.7242490603
 31
0.0
 11
29.8365773743
 21
23.6914667969
 31
0.0
 11
29.9175929221
 21
23.6444922937
 31
0.0
 11
30.0130943479
 21
23.6278312164
 31
0.0
  0
SPLINE
  5
4DA
100
AcDbEntity
  8
0
100
AcDbSpline
 62
7
  6
CONTINUOUS
 70
0
 71
3
 72
15
 73
11
 74
9
 42
0.0000001
 43
0.0000001
 44
0.0000000001
 12
0.0031741039
 22
-0.3149999784
 32
0.0
 13
0.3150159699
 23
0.0
 33
0.0
 40
0.0
 40
0.0
 40
0.0
 40
0.0
 40
0.0847246382
 40
0.1757279367
 40
0.2778501555
 40
0.3942839058
 40
0.5264550939
 40
0.6738071548
 40
0.8334364544
 40
1.0
 40
1.0
 40
1.0
 40
1.0
 10
29.7572807489
 20
23.2669872981
 30
0.0
 10
29.7573703905
 20
23.2580912117
 30
0.0
 10
29.7606131795
 20
23.2395608029
 30
0.0
 10
29.7741645701
 20
23.2133174142
 30
0.0
 10
29.796036015
 20
23.1888844894
 30
0.0
 10
29.825888076
 20
23.1669547435
 30
0.0
 10
29.863250807
 20
23.1483274499
 30
0.0
 10
29.9072234122
 20
23.133953471
 30
0.0
 10
29.9562269929
 20
23.1248150691
 30
0.0
 10
29.9905136879
 20
23.1226497308
 30
0.0
 10
30.0080037468
 20
23.1226497308
 30
0.0
 11
29.7572807489
 21
23.2669872981
 31
0.0
 11
29.7617358026
 21
23.2406721314
 31
0.0
 11
29.7745605835
 21
23.2150332915
 31
0.0
 11
29.7957149112
 21
23.1907967144
 31
0.0
 11
29.8250527761
 21
23.1687830511
 31
0.0
 11
29.8621789369
 21
23.1499360992
 31
0.0
 11
29.9062311591
 21
23.1353054509
 31
0.0
 11
29.9556366974
 21
23.1259378303
 31
0.0
 11
30.0080037468
 21
23.1226497308
 31
0.0
  0
SPLINE
  5
4DB
100
AcDbEntity
  8
0
100
AcDbSpline
 62
7
  6
CONTINUOUS
 70
0
 71
3
 72
15
 73
11
 74
9
 42
0.0000001
 43
0.0000001
 44
0.0000000001
 12
-0.0031741039
 22
-0.3149999784
 32
0.0
 13
-0.3150159699
 23
0.0
 33
0.0
 40
0.0
 40
0.0
 40
0.0
 40
0.0
 40
0.0847246382
 40
0.1757279367
 40
0.2778501555
 40
0.3942839058
 40
0.5264550939
 40
0.6738071548
 40
0.8334364544
 40
1.0
 40
1.0
 40
1.0
 40
1.0
 10
32.6427192511
 20
23.2669872981
 30
0.0
 10
32.6426296095
 20
23.2580912117
 30
0.0
 10
32.6393868205
 20
23.2395608029
 30
0.0
 10
32.6258354299
 20
23.2133174142
 30
0.0
 10
32.603963985
 20
23.1888844894
 30
0.0
 10
32.574111924
 20
23.1669547435
 30
0.0
 10
32.536749193
 20
23.1483274499
 30
0.0
 10
32.4927765878
 20
23.133953471
 30
0.0
 10
32.4437730071
 20
23.1248150691
 30
0.0
 10
32.4094863121
 20
23.1226497308
 30
0.0
 10
32.3919962532
 20
23.1226497308
 30
0.0
 11
32.6427192511
 21
23.2669872981
 31
0.0
 11
32.6382641974
 21
23.2406721314
 31
0.0
 11
32.6254394165
 21
23.2150332915
 31
0.0
 11
32.6042850888
 21
23.1907967144
 31
0.0
 11
32.5749472239
 21
23.1687830511
 31
0.0
 11
32.5378210631
 21
23.1499360992
 31
0.0
 11
32.4937688409
 21
23.1353054509
 31
0.0
 11
32.4443633026
 21
23.1259378303
 31
0.0
 11
32.3919962532
 21
23.1226497308
 31
0.0
  0
SPLINE
  5
4DC
100
AcDbEntity
  8
0
100
AcDbSpline
 62
253
  6
CONTINUOUS
 70
0
 71
3
 72
13
 73
9
 74
7
 42
0.0000001
 43
0.0000001
 44
0.0000000001
 12
-0.0012265943
 22
-0.3651869702
 32
0.0
 13
-0.3651878714
 23
-0.0009199792
 33
0.0
 40
0.0
 40
0.0
 40
0.0
 40
0.0
 40
0.1162393822
 40
0.2339783947
 40
0.3543711753
 40
0.4780981573
 40
0.7345378061
 40
1.0
 40
1.0
 40
1.0
 40
1.0
 10
32.6369014213
 20
23.8443375673
 30
0.0
 10
32.6368538951
 20
23.8301878647
 30
0.0
 10
32.6334953621
 20
23.8016148597
 30
0.0
 10
32.6189387922
 20
23.7606545287
 30
0.0
 10
32.59546792
 20
23.7229827412
 30
0.0
 10
32.5531651981
 20
23.6786209956
 30
0.0
 10
32.4832389227
 20
23.6387868046
 30
0.0
 10
32.4192201766
 20
23.6279126229
 30
0.0
 10
32.3869056521
 20
23.6278312164
 30
0.0
 11
32.6369014213
 21
23.8443375673
 31
0.0
 11
32.6319737009
 21
23.8021752067
 31
0.0
 11
32.617663207
 21
23.761629536
 31
0.0
 11
32.5945175433
 21
23.7242490838
 31
0.0
 11
32.563422644
 21
23.6914668129
 31
0.0
 11
32.482407089
 21
23.644492298
 31
0.0
 11
32.3869056521
 21
23.6278312164
 31
0.0
  0
SPLINE
  5
4DD
100
AcDbEntity
  8
0
100
AcDbSpline
 62
253
  6
CONTINUOUS
 70
0
 71
3
 72
13
 73
9
 74
7
 42
0.0000001
 43
0.0000001
 44
0.0000000001
 12
-0.0012265944
 22
0.3651869708
 32
0.0
 13
-0.3651878719
 23
0.0009199792
 33
0.0
 40
0.0
 40
0.0
 40
0.0
 40
0.0
 40
0.1162394861
 40
0.2339784844
 40
0.3543712552
 40
0.4780982232
 40
0.7345378384
 40
1.0
 40
1.0
 40
1.0
 40
1.0
 10
32.6369014213
 20
-23.8443375673
 30
0.0
 10
32.6368538951
 20
-23.830187852
 30
0.0
 10
32.6334953606
 20
-23.8016148352
 30
0.0
 10
32.6189387749
 20
-23.7606544996
 30
0.0
 10
32.5954679029
 20
-23.7229827179
 30
0.0
 10
32.5531651791
 20
-23.6786209833
 30
0.0
 10
32.483238911
 20
-23.6387868014
 30
0.0
 10
32.4192201727
 20
-23.6279126229
 30
0.0
 10
32.3869056521
 20
-23.6278312164
 30
0.0
 11
32.6369014213
 21
-23.8443375673
 31
0.0
 11
32.6319736935
 21
-23.8021751692
 31
0.0
 11
32.6176631919
 21
-23.7616295068
 31
0.0
 11
32.5945175256
 21
-23.7242490603
 31
0.0
 11
32.5634226257
 21
-23.6914667969
 31
0.0
 11
32.4824070779
 21
-23.6444922937
 31
0.0
 11
32.3869056521
 21
-23.6278312164
 31
0.0
  0
SPLINE
  5
4DE
100
AcDbEntity
  8
0
100
AcDbSpline
 62
7
  6
CONTINUOUS
 70
0
 71
3
 72
15
 73
11
 74
9
 42
0.0000001
 43
0.0000001
 44
0.0000000001
 12
-0.0031741039
 22
0.3149999784
 32
0.0
 13
-0.3150159699
 23
0.0
 33
0.0
 40
0.0
 40
0.0
 40
0.0
 40
0.0
 40
0.0847246382
 40
0.1757279367
 40
0.2778501555
 40
0.3942839058
 40
0.5264550939
 40
0.6738071548
 40
0.8334364544
 40
1.0
 40
1.0
 40
1.0
 40
1.0
 10
32.6427192511
 20
-23.2669872981
 30
0.0
 10
32.6426296095
 20
-23.2580912117
 30
0.0
 10
32.6393868205
 20
-23.2395608029
 30
0.0
 10
32.6258354299
 20
-23.2133174142
 30
0.0
 10
32.603963985
 20
-23.1888844894
 30
0.0
 10
32.574111924
 20
-23.1669547435
 30
0.0
 10
32.536749193
 20
-23.1483274499
 30
0.0
 10
32.4927765878
 20
-23.133953471
 30
0.0
 10
32.4437730071
 20
-23.1248150691
 30
0.0
 10
32.4094863121
 20
-23.1226497308
 30
0.0
 10
32.3919962532
 20
-23.1226497308
 30
0.0
 11
32.6427192511
 21
-23.2669872981
 31
0.0
 11
32.6382641974
 21
-23.2406721314
 31
0.0
 11
32.6254394165
 21
-23.2150332915
 31
0.0
 11
32.6042850888
 21
-23.1907967144
 31
0.0
 11
32.5749472239
 21
-23.1687830511
 31
0.0
 11
32.5378210631
 21
-23.1499360992
 31
0.0
 11
32.4937688409
 21
-23.1353054509
 31
0.0
 11
32.4443633026
 21
-23.1259378303
 31
0.0
 11
32.3919962532
 21
-23.1226497308
 31
0.0
  0
SPLINE
  5
4DF
100
AcDbEntity
  8
0
100
AcDbSpline
 62
7
  6
CONTINUOUS
 70
0
 71
3
 72
15
 73
11
 74
9
 42
0.0000001
 43
0.0000001
 44
0.0000000001
 12
0.0031741039
 22
0.3149999784
 32
0.0
 13
0.3150159699
 23
-0.0
 33
0.0
 40
0.0
 40
0.0
 40
0.0
 40
0.0
 40
0.0847246382
 40
0.1757279367
 40
0.2778501555
 40
0.3942839058
 40
0.5264550939
 40
0.6738071548
 40
0.8334364544
 40
1.0
 40
1.0
 40
1.0
 40
1.0
 10
29.7572807489
 20
-23.2669872981
 30
0.0
 10
29.7573703905
 20
-23.2580912117
 30
0.0
 10
29.7606131795
 20
-23.2395608029
 30
0.0
 10
29.7741645701
 20
-23.2133174142
 30
0.0
 10
29.796036015
 20
-23.1888844894
 30
0.0
 10
29.825888076
 20
-23.1669547435
 30
0.0
 10
29.863250807
 20
-23.1483274499
 30
0.0
 10
29.9072234122
 20
-23.133953471
 30
0.0
 10
29.9562269929
 20
-23.1248150691
 30
0.0
 10
29.9905136879
 20
-23.1226497308
 30
0.0
 10
30.0080037468
 20
-23.1226497308
 30
0.0
 11
29.7572807489
 21
-23.2669872981
 31
0.0
 11
29.7617358026
 21
-23.2406721314
 31
0.0
 11
29.7745605835
 21
-23.2150332915
 31
0.0
 11
29.7957149112
 21
-23.1907967144
 31
0.0
 11
29.8250527761
 21
-23.1687830511
 31
0.0
 11
29.8621789369
 21
-23.1499360992
 31
0.0
 11
29.9062311591
 21
-23.1353054509
 31
0.0
 11
29.9556366974
 21
-23.1259378303
 31
0.0
 11
30.0080037468
 21
-23.1226497308
 31
0.0
  0
SPLINE
  5
4E0
100
AcDbEntity
  8
0
100
AcDbSpline
 62
253
  6
CONTINUOUS
 70
0
 71
3
 72
13
 73
9
 74
7
 42
0.0000001
 43
0.0000001
 44
0.0000000001
 12
0.0012265943
 22
0.3651869702
 32
0.0
 13
0.3651878714
 23
0.0009199792
 33
0.0
 40
0.0
 40
0.0
 40
0.0
 40
0.0
 40
0.1162393822
 40
0.2339783947
 40
0.3543711753
 40
0.4780981573
 40
0.7345378061
 40
1.0
 40
1.0
 40
1.0
 40
1.0
 10
29.7630985787
 20
-23.8443375673
 30
0.0
 10
29.7631461049
 20
-23.8301878647
 30
0.0
 10
29.7665046379
 20
-23.8016148597
 30
0.0
 10
29.7810612078
 20
-23.7606545287
 30
0.0
 10
29.80453208
 20
-23.7229827412
 30
0.0
 10
29.8468348019
 20
-23.6786209956
 30
0.0
 10
29.9167610773
 20
-23.6387868046
 30
0.0
 10
29.9807798234
 20
-23.6279126229
 30
0.0
 10
30.0130943479
 20
-23.6278312164
 30
0.0
 11
29.7630985787
 21
-23.8443375673
 31
0.0
 11
29.7680262991
 21
-23.8021752067
 31
0.0
 11
29.782336793
 21
-23.761629536
 31
0.0
 11
29.8054824567
 21
-23.7242490838
 31
0.0
 11
29.836577356
 21
-23.6914668129
 31
0.0
 11
29.917592911
 21
-23.644492298
 31
0.0
 11
30.0130943479
 21
-23.6278312164
 31
0.0
  0
SPLINE
  5
4E1
100
AcDbEntity
  8
0
100
AcDbSpline
 62
253
  6
CONTINUOUS
 70
0
 71
3
 72
13
 73
9
 74
7
 42
0.0000001
 43
0.0000001
 44
0.0000000001
 12
-0.0012265944
 22
0.3651869708
 32
0.0
 13
-0.3651878719
 23
0.0009199792
 33
0.0
 40
0.0
 40
0.0
 40
0.0
 40
0.0
 40
0.1162394861
 40
0.2339784844
 40
0.3543712552
 40
0.4780982232
 40
0.7345378384
 40
1.0
 40
1.0
 40
1.0
 40
1.0
 10
15.2369014213
 20
-23.8443375673
 30
0.0
 10
15.2368538951
 20
-23.830187852
 30
0.0
 10
15.2334953606
 20
-23.8016148352
 30
0.0
 10
15.2189387749
 20
-23.7606544996
 30
0.0
 10
15.1954679029
 20
-23.7229827179
 30
0.0
 10
15.1531651791
 20
-23.6786209833
 30
0.0
 10
15.083238911
 20
-23.6387868014
 30
0.0
 10
15.0192201727
 20
-23.6279126229
 30
0.0
 10
14.9869056521
 20
-23.6278312164
 30
0.0
 11
15.2369014213
 21
-23.8443375673
 31
0.0
 11
15.2319736935
 21
-23.8021751692
 31
0.0
 11
15.2176631919
 21
-23.7616295068
 31
0.0
 11
15.1945175256
 21
-23.7242490603
 31
0.0
 11
15.1634226257
 21
-23.6914667969
 31
0.0
 11
15.0824070779
 21
-23.6444922937
 31
0.0
 11
14.9869056521
 21
-23.6278312164
 31
0.0
  0
SPLINE
  5
4E2
100
AcDbEntity
  8
0
100
AcDbSpline
 62
7
  6
CONTINUOUS
 70
0
 71
3
 72
15
 73
11
 74
9
 42
0.0000001
 43
0.0000001
 44
0.0000000001
 12
-0.0031741039
 22
0.3149999784
 32
0.0
 13
-0.3150159699
 23
0.0
 33
0.0
 40
0.0
 40
0.0
 40
0.0
 40
0.0
 40
0.0847246382
 40
0.1757279367
 40
0.2778501555
 40
0.3942839058
 40
0.5264550939
 40
0.6738071548
 40
0.8334364544
 40
1.0
 40
1.0
 40
1.0
 40
1.0
 10
15.2427192511
 20
-23.2669872981
 30
0.0
 10
15.2426296095
 20
-23.2580912117
 30
0.0
 10
15.2393868205
 20
-23.2395608029
 30
0.0
 10
15.2258354299
 20
-23.2133174142
 30
0.0
 10
15.203963985
 20
-23.1888844894
 30
0.0
 10
15.174111924
 20
-23.1669547435
 30
0.0
 10
15.136749193
 20
-23.1483274499
 30
0.0
 10
15.0927765878
 20
-23.133953471
 30
0.0
 10
15.0437730071
 20
-23.1248150691
 30
0.0
 10
15.0094863121
 20
-23.1226497308
 30
0.0
 10
14.9919962532
 20
-23.1226497308
 30
0.0
 11
15.2427192511
 21
-23.2669872981
 31
0.0
 11
15.2382641974
 21
-23.2406721314
 31
0.0
 11
15.2254394165
 21
-23.2150332915
 31
0.0
 11
15.2042850888
 21
-23.1907967144
 31
0.0
 11
15.1749472239
 21
-23.1687830511
 31
0.0
 11
15.1378210631
 21
-23.1499360992
 31
0.0
 11
15.0937688409
 21
-23.1353054509
 31
0.0
 11
15.0443633026
 21
-23.1259378303
 31
0.0
 11
14.9919962532
 21
-23.1226497308
 31
0.0
  0
SPLINE
  5
4E3
100
AcDbEntity
  8
0
100
AcDbSpline
 62
7
  6
CONTINUOUS
 70
0
 71
3
 72
15
 73
11
 74
9
 42
0.0000001
 43
0.0000001
 44
0.0000000001
 12
-0.3142908459
 22
0.0
 32
0.0
 13
-0.0031667975
 23
-0.3142748912
 33
0.0
 40
0.0
 40
0.0
 40
0.0
 40
0.0
 40
0.1666133779
 40
0.3262255844
 40
0.4735308137
 40
0.6056575217
 40
0.7220676483
 40
0.8241942131
 40
0.9152281509
 40
1.0
 40
1.0
 40
1.0
 40
1.0
 10
12.6072765181
 20
-23.1226497308
 30
0.0
 10
12.5898214983
 20
-23.1226497308
 30
0.0
 10
12.5556143071
 20
-23.124909705
 30
0.0
 10
12.5067379054
 20
-23.1340775763
 30
0.0
 10
12.4628964939
 20
-23.1484769636
 30
0.0
 10
12.4256538233
 20
-23.1671011817
 30
0.0
 10
12.3959014951
 20
-23.1890111222
 30
0.0
 10
12.3741049702
 20
-23.2134107396
 30
0.0
 10
12.3606013159
 20
-23.239611024
 30
0.0
 10
12.357370234
 20
-23.2581067436
 30
0.0
 10
12.3572807489
 20
-23.2669872981
 30
0.0
 11
12.6072765181
 21
-23.1226497308
 31
0.0
 11
12.5550197825
 21
-23.126016189
 31
0.0
 11
12.5057465543
 21
-23.1354311576
 31
0.0
 11
12.4618290218
 21
-23.1500815293
 31
0.0
 11
12.4248240789
 21
-23.1689245842
 31
0.0
 11
12.3955848197
 21
-23.1909165769
 31
0.0
 11
12.3745022864
 21
-23.215119319
 31
0.0
 11
12.3617209903
 21
-23.2407168857
 31
0.0
 11
12.3572807489
 21
-23.2669872981
 31
0.0
  0
SPLINE
  5
4E4
100
AcDbEntity
  8
0
100
AcDbSpline
 62
253
  6
CONTINUOUS
 70
0
 71
3
 72
13
 73
9
 74
7
 42
0.0000001
 43
0.0000001
 44
0.0000000001
 12
0.0012265944
 22
0.3651869708
 32
0.0
 13
0.3651878719
 23
0.0009199792
 33
0.0
 40
0.0
 40
0.0
 40
0.0
 40
0.0
 40
0.1162394861
 40
0.2339784844
 40
0.3543712552
 40
0.4780982232
 40
0.7345378384
 40
1.0
 40
1.0
 40
1.0
 40
1.0
 10
12.3630985787
 20
-23.8443375673
 30
0.0
 10
12.3631461049
 20
-23.830187852
 30
0.0
 10
12.3665046394
 20
-23.8016148352
 30
0.0
 10
12.3810612251
 20
-23.7606544996
 30
0.0
 10
12.4045320971
 20
-23.7229827179
 30
0.0
 10
12.4468348209
 20
-23.6786209833
 30
0.0
 10
12.516761089
 20
-23.6387868014
 30
0.0
 10
12.5807798273
 20
-23.6279126229
 30
0.0
 10
12.6130943479
 20
-23.6278312164
 30
0.0
 11
12.3630985787
 21
-23.8443375673
 31
0.0
 11
12.3680263065
 21
-23.8021751692
 31
0.0
 11
12.3823368081
 21
-23.7616295068
 31
0.0
 11
12.4054824744
 21
-23.7242490603
 31
0.0
 11
12.4365773743
 21
-23.6914667969
 31
0.0
 11
12.5175929221
 21
-23.6444922937
 31
0.0
 11
12.6130943479
 21
-23.6278312164
 31
0.0
  0
SPLINE
  5
4E5
100
AcDbEntity
  8
0
100
AcDbSpline
 62
7
  6
CONTINUOUS
 70
0
 71
3
 72
15
 73
11
 74
9
 42
0.0000001
 43
0.0000001
 44
0.0000000001
 12
0.0
 22
-0.7835849489
 32
0.0
 13
-0.7835849489
 23
-0.0
 33
0.0
 40
0.0
 40
0.0
 40
0.0
 40
0.0
 40
0.1250016995
 40
0.2500015929
 40
0.3750019934
 40
0.5000021438
 40
0.6250020315
 40
0.7500016142
 40
0.8750001245
 40
1.0
 40
1.0
 40
1.0
 40
1.0
 10
33.6491272468
 20
-21.8997711479
 30
0.0
 10
33.6491272468
 20
-21.9324209647
 30
0.0
 10
33.6427071378
 20
-21.9979001651
 30
0.0
 10
33.6141710301
 20
-22.0922261856
 30
0.0
 10
33.5678061813
 20
-22.1792278759
 30
0.0
 10
33.505372633
 20
-22.2555146988
 30
0.0
 10
33.4292585201
 20
-22.3181579234
 30
0.0
 10
33.3423705113
 20
-22.3647451103
 30
0.0
 10
33.2480978538
 20
-22.3934475677
 30
0.0
 10
33.1826246089
 20
-22.4
 30
0.0
 10
33.1499752685
 20
-22.4
 30
0.0
 11
33.6491272468
 21
-21.8997711479
 31
0.0
 11
33.6395560502
 21
-21.9972518487
 31
0.0
 11
33.6111996043
 21
-22.0910054062
 31
0.0
 11
33.5651280255
 21
-22.1774421175
 31
0.0
 11
33.503092465
 21
-22.2532408395
 31
0.0
 11
33.4274627432
 21
-22.3154819984
 31
0.0
 11
33.3411394798
 21
-22.3617644365
 31
0.0
 11
33.2474419862
 21
-22.3903018677
 31
0.0
 11
33.1499752685
 21
-22.4
 31
0.0
  0
SPLINE
  5
4E6
100
AcDbEntity
  8
0
100
AcDbSpline
 62
7
  6
CONTINUOUS
 70
0
 71
3
 72
15
 73
11
 74
9
 42
0.0000001
 43
0.0000001
 44
0.0000000001
 12
0.783584949
 22
0.0
 32
0.0
 13
-0.0
 23
-0.783584949
 33
0.0
 40
0.0
 40
0.0
 40
0.0
 40
0.0
 40
0.1249998755
 40
0.2499983858
 40
0.3749979685
 40
0.4999978562
 40
0.6249980066
 40
0.7499984071
 40
0.8749983005
 40
1.0
 40
1.0
 40
1.0
 40
1.0
 10
33.1499752684
 20
22.4
 30
0.0
 10
33.1826246088
 20
22.4
 30
0.0
 10
33.2480978538
 20
22.3934475677
 30
0.0
 10
33.3423705112
 20
22.3647451103
 30
0.0
 10
33.4292585201
 20
22.3181579234
 30
0.0
 10
33.505372633
 20
22.2555146988
 30
0.0
 10
33.5678061812
 20
22.1792278759
 30
0.0
 10
33.6141710301
 20
22.0922261856
 30
0.0
 10
33.6427071378
 20
21.9979001651
 30
0.0
 10
33.6491272468
 20
21.9324209647
 30
0.0
 10
33.6491272468
 20
21.8997711479
 30
0.0
 11
33.1499752684
 21
22.4
 31
0.0
 11
33.2474419861
 21
22.3903018677
 31
0.0
 11
33.3411394797
 21
22.3617644365
 31
0.0
 11
33.4274627432
 21
22.3154819985
 31
0.0
 11
33.503092465
 21
22.2532408395
 31
0.0
 11
33.5651280255
 21
22.1774421175
 31
0.0
 11
33.6111996043
 21
22.0910054062
 31
0.0
 11
33.6395560502
 21
21.9972518487
 31
0.0
 11
33.6491272468
 21
21.8997711479
 31
0.0
  0
SPLINE
  5
4E7
100
AcDbEntity
  8
0
100
AcDbSpline
 62
7
  6
CONTINUOUS
 70
0
 71
3
 72
15
 73
11
 74
9
 42
0.0000001
 43
0.0000001
 44
0.0000000001
 12
0.3142908459
 22
0.0
 32
0.0
 13
0.0031667975
 23
0.3142748912
 33
0.0
 40
0.0
 40
0.0
 40
0.0
 40
0.0
 40
0.1666133779
 40
0.3262255844
 40
0.4735308137
 40
0.6056575217
 40
0.7220676483
 40
0.8241942131
 40
0.9152281509
 40
1.0
 40
1.0
 40
1.0
 40
1.0
 10
-30.0072765181
 20
23.1226497308
 30
0.0
 10
-29.9898214983
 20
23.1226497308
 30
0.0
 10
-29.9556143071
 20
23.124909705
 30
0.0
 10
-29.9067379054
 20
23.1340775763
 30
0.0
 10
-29.8628964939
 20
23.1484769636
 30
0.0
 10
-29.8256538233
 20
23.1671011817
 30
0.0
 10
-29.7959014951
 20
23.1890111222
 30
0.0
 10
-29.7741049702
 20
23.2134107396
 30
0.0
 10
-29.7606013159
 20
23.239611024
 30
0.0
 10
-29.757370234
 20
23.2581067436
 30
0.0
 10
-29.7572807489
 20
23.2669872981
 30
0.0
 11
-30.0072765181
 21
23.1226497308
 31
0.0
 11
-29.9550197825
 21
23.126016189
 31
0.0
 11
-29.9057465543
 21
23.1354311576
 31
0.0
 11
-29.8618290218
 21
23.1500815293
 31
0.0
 11
-29.8248240789
 21
23.1689245842
 31
0.0
 11
-29.7955848197
 21
23.1909165769
 31
0.0
 11
-29.7745022864
 21
23.215119319
 31
0.0
 11
-29.7617209903
 21
23.2407168857
 31
0.0
 11
-29.7572807489
 21
23.2669872981
 31
0.0
  0
SPLINE
  5
4E8
100
AcDbEntity
  8
0
100
AcDbSpline
 62
253
  6
CONTINUOUS
 70
0
 71
3
 72
13
 73
9
 74
7
 42
0.0000001
 43
0.0000001
 44
0.0000000001
 12
0.0012265944
 22
-0.3651869709
 32
0.0
 13
0.3651878721
 23
-0.0009199792
 33
0.0
 40
0.0
 40
0.0
 40
0.0
 40
0.0
 40
0.1162394899
 40
0.2339784923
 40
0.3543712679
 40
0.4780982409
 40
0.7345378657
 40
1.0
 40
1.0
 40
1.0
 40
1.0
 10
-32.6369014213
 20
23.8443375673
 30
0.0
 10
-32.636853895
 20
23.8301878516
 30
0.0
 10
-32.6334953604
 20
23.8016148337
 30
0.0
 10
-32.6189387735
 20
23.7606544968
 30
0.0
 10
-32.5954679002
 20
23.7229827139
 30
0.0
 10
-32.5531651734
 20
23.6786209789
 30
0.0
 10
-32.4832389055
 20
23.6387867994
 30
0.0
 10
-32.4192201694
 20
23.6279126229
 30
0.0
 10
-32.3869056521
 20
23.6278312164
 30
0.0
 11
-32.6369014213
 21
23.8443375673
 31
0.0
 11
-32.6319736932
 21
23.8021751679
 31
0.0
 11
-32.6176631905
 21
23.7616295042
 31
0.0
 11
-32.5945175227
 21
23.7242490565
 31
0.0
 11
-32.5634226207
 21
23.6914667926
 31
0.0
 11
-32.4824070684
 21
23.6444922901
 31
0.0
 11
-32.3869056521
 21
23.6278312164
 31
0.0
  0
SPLINE
  5
4E9
100
AcDbEntity
  8
0
100
AcDbSpline
 62
7
  6
CONTINUOUS
 70
0
 71
3
 72
15
 73
11
 74
9
 42
0.0000001
 43
0.0000001
 44
0.0000000001
 12
0.0031741039
 22
-0.3149999784
 32
0.0
 13
0.3150159699
 23
0.0
 33
0.0
 40
0.0
 40
0.0
 40
0.0
 40
0.0
 40
0.0847246382
 40
0.1757279367
 40
0.2778501555
 40
0.3942839058
 40
0.5264550939
 40
0.6738071548
 40
0.8334364544
 40
1.0
 40
1.0
 40
1.0
 40
1.0
 10
-32.6427192511
 20
23.2669872981
 30
0.0
 10
-32.6426296095
 20
23.2580912117
 30
0.0
 10
-32.6393868205
 20
23.2395608029
 30
0.0
 10
-32.6258354299
 20
23.2133174142
 30
0.0
 10
-32.603963985
 20
23.1888844894
 30
0.0
 10
-32.574111924
 20
23.1669547435
 30
0.0
 10
-32.536749193
 20
23.1483274499
 30
0.0
 10
-32.4927765878
 20
23.133953471
 30
0.0
 10
-32.4437730071
 20
23.1248150691
 30
0.0
 10
-32.4094863121
 20
23.1226497308
 30
0.0
 10
-32.3919962532
 20
23.1226497308
 30
0.0
 11
-32.6427192511
 21
23.2669872981
 31
0.0
 11
-32.6382641974
 21
23.2406721314
 31
0.0
 11
-32.6254394165
 21
23.2150332915
 31
0.0
 11
-32.6042850888
 21
23.1907967144
 31
0.0
 11
-32.5749472239
 21
23.1687830511
 31
0.0
 11
-32.5378210631
 21
23.1499360992
 31
0.0
 11
-32.4937688409
 21
23.1353054509
 31
0.0
 11
-32.4443633026
 21
23.1259378303
 31
0.0
 11
-32.3919962532
 21
23.1226497308
 31
0.0
  0
SPLINE
  5
4EA
100
AcDbEntity
  8
0
100
AcDbSpline
 62
253
  6
CONTINUOUS
 70
0
 71
3
 72
13
 73
9
 74
7
 42
0.0000001
 43
0.0000001
 44
0.0000000001
 12
-0.0012265944
 22
-0.3651869708
 32
0.0
 13
-0.3651878719
 23
-0.0009199792
 33
0.0
 40
0.0
 40
0.0
 40
0.0
 40
0.0
 40
0.1162394861
 40
0.2339784844
 40
0.3543712552
 40
0.4780982232
 40
0.7345378384
 40
1.0
 40
1.0
 40
1.0
 40
1.0
 10
-29.7630985787
 20
23.8443375673
 30
0.0
 10
-29.7631461049
 20
23.830187852
 30
0.0
 10
-29.7665046394
 20
23.8016148352
 30
0.0
 10
-29.7810612251
 20
23.7606544996
 30
0.0
 10
-29.8045320971
 20
23.7229827179
 30
0.0
 10
-29.8468348209
 20
23.6786209833
 30
0.0
 10
-29.916761089
 20
23.6387868014
 30
0.0
 10
-29.9807798273
 20
23.6279126229
 30
0.0
 10
-30.0130943479
 20
23.6278312164
 30
0.0
 11
-29.7630985787
 21
23.8443375673
 31
0.0
 11
-29.7680263065
 21
23.8021751692
 31
0.0
 11
-29.7823368081
 21
23.7616295068
 31
0.0
 11
-29.8054824744
 21
23.7242490603
 31
0.0
 11
-29.8365773743
 21
23.6914667969
 31
0.0
 11
-29.9175929221
 21
23.6444922937
 31
0.0
 11
-30.0130943479
 21
23.6278312164
 31
0.0
  0
SPLINE
  5
4EB
100
AcDbEntity
  8
0
100
AcDbSpline
 62
253
  6
CONTINUOUS
 70
0
 71
3
 72
13
 73
9
 74
7
 42
0.0000001
 43
0.0000001
 44
0.0000000001
 12
0.0012265944
 22
-0.3651869708
 32
0.0
 13
0.3651878719
 23
-0.0009199792
 33
0.0
 40
0.0
 40
0.0
 40
0.0
 40
0.0
 40
0.1162394861
 40
0.2339784844
 40
0.3543712552
 40
0.4780982232
 40
0.7345378384
 40
1.0
 40
1.0
 40
1.0
 40
1.0
 10
-15.2369014213
 20
23.8443375673
 30
0.0
 10
-15.2368538951
 20
23.830187852
 30
0.0
 10
-15.2334953606
 20
23.8016148352
 30
0.0
 10
-15.2189387749
 20
23.7606544996
 30
0.0
 10
-15.1954679029
 20
23.7229827179
 30
0.0
 10
-15.1531651791
 20
23.6786209833
 30
0.0
 10
-15.083238911
 20
23.6387868014
 30
0.0
 10
-15.0192201727
 20
23.6279126229
 30
0.0
 10
-14.9869056521
 20
23.6278312164
 30
0.0
 11
-15.2369014213
 21
23.8443375673
 31
0.0
 11
-15.2319736935
 21
23.8021751692
 31
0.0
 11
-15.2176631919
 21
23.7616295068
 31
0.0
 11
-15.1945175256
 21
23.7242490603
 31
0.0
 11
-15.1634226257
 21
23.6914667969
 31
0.0
 11
-15.0824070779
 21
23.6444922937
 31
0.0
 11
-14.9869056521
 21
23.6278312164
 31
0.0
  0
SPLINE
  5
4EC
100
AcDbEntity
  8
0
100
AcDbSpline
 62
7
  6
CONTINUOUS
 70
0
 71
3
 72
15
 73
11
 74
9
 42
0.0000001
 43
0.0000001
 44
0.0000000001
 12
0.0031741039
 22
-0.3149999784
 32
0.0
 13
0.3150159699
 23
0.0
 33
0.0
 40
0.0
 40
0.0
 40
0.0
 40
0.0
 40
0.0847246382
 40
0.1757279367
 40
0.2778501555
 40
0.3942839058
 40
0.5264550939
 40
0.6738071548
 40
0.8334364544
 40
1.0
 40
1.0
 40
1.0
 40
1.0
 10
-15.2427192511
 20
23.2669872981
 30
0.0
 10
-15.2426296095
 20
23.2580912117
 30
0.0
 10
-15.2393868205
 20
23.2395608029
 30
0.0
 10
-15.2258354299
 20
23.2133174142
 30
0.0
 10
-15.203963985
 20
23.1888844894
 30
0.0
 10
-15.174111924
 20
23.1669547435
 30
0.0
 10
-15.136749193
 20
23.1483274499
 30
0.0
 10
-15.0927765878
 20
23.133953471
 30
0.0
 10
-15.0437730071
 20
23.1248150691
 30
0.0
 10
-15.0094863121
 20
23.1226497308
 30
0.0
 10
-14.9919962532
 20
23.1226497308
 30
0.0
 11
-15.2427192511
 21
23.2669872981
 31
0.0
 11
-15.2382641974
 21
23.2406721314
 31
0.0
 11
-15.2254394165
 21
23.2150332915
 31
0.0
 11
-15.2042850888
 21
23.1907967144
 31
0.0
 11
-15.1749472239
 21
23.1687830511
 31
0.0
 11
-15.1378210631
 21
23.1499360992
 31
0.0
 11
-15.0937688409
 21
23.1353054509
 31
0.0
 11
-15.0443633026
 21
23.1259378303
 31
0.0
 11
-14.9919962532
 21
23.1226497308
 31
0.0
  0
SPLINE
  5
4ED
100
AcDbEntity
  8
0
100
AcDbSpline
 62
7
  6
CONTINUOUS
 70
0
 71
3
 72
15
 73
11
 74
9
 42
0.0000001
 43
0.0000001
 44
0.0000000001
 12
-0.0031741039
 22
-0.3149999784
 32
0.0
 13
-0.3150159699
 23
0.0
 33
0.0
 40
0.0
 40
0.0
 40
0.0
 40
0.0
 40
0.0847246382
 40
0.1757279367
 40
0.2778501555
 40
0.3942839058
 40
0.5264550939
 40
0.6738071548
 40
0.8334364544
 40
1.0
 40
1.0
 40
1.0
 40
1.0
 10
-12.3572807489
 20
23.2669872981
 30
0.0
 10
-12.3573703905
 20
23.2580912117
 30
0.0
 10
-12.3606131795
 20
23.2395608029
 30
0.0
 10
-12.3741645701
 20
23.2133174142
 30
0.0
 10
-12.396036015
 20
23.1888844894
 30
0.0
 10
-12.425888076
 20
23.1669547435
 30
0.0
 10
-12.463250807
 20
23.1483274499
 30
0.0
 10
-12.5072234122
 20
23.133953471
 30
0.0
 10
-12.5562269929
 20
23.1248150691
 30
0.0
 10
-12.5905136879
 20
23.1226497308
 30
0.0
 10
-12.6080037468
 20
23.1226497308
 30
0.0
 11
-12.3572807489
 21
23.2669872981
 31
0.0
 11
-12.3617358026
 21
23.2406721314
 31
0.0
 11
-12.3745605835
 21
23.2150332915
 31
0.0
 11
-12.3957149112
 21
23.1907967144
 31
0.0
 11
-12.4250527761
 21
23.1687830511
 31
0.0
 11
-12.4621789369
 21
23.1499360992
 31
0.0
 11
-12.5062311591
 21
23.1353054509
 31
0.0
 11
-12.5556366974
 21
23.1259378303
 31
0.0
 11
-12.6080037468
 21
23.1226497308
 31
0.0
  0
SPLINE
  5
4EE
100
AcDbEntity
  8
0
100
AcDbSpline
 62
253
  6
CONTINUOUS
 70
0
 71
3
 72
13
 73
9
 74
7
 42
0.0000001
 43
0.0000001
 44
0.0000000001
 12
-0.0012265943
 22
-0.3651869702
 32
0.0
 13
-0.3651878714
 23
-0.0009199792
 33
0.0
 40
0.0
 40
0.0
 40
0.0
 40
0.0
 40
0.1162393822
 40
0.2339783947
 40
0.3543711753
 40
0.4780981573
 40
0.7345378061
 40
1.0
 40
1.0
 40
1.0
 40
1.0
 10
-12.3630985787
 20
23.8443375673
 30
0.0
 10
-12.3631461049
 20
23.8301878647
 30
0.0
 10
-12.3665046379
 20
23.8016148597
 30
0.0
 10
-12.3810612078
 20
23.7606545287
 30
0.0
 10
-12.40453208
 20
23.7229827412
 30
0.0
 10
-12.4468348019
 20
23.6786209956
 30
0.0
 10
-12.5167610773
 20
23.6387868046
 30
0.0
 10
-12.5807798234
 20
23.6279126229
 30
0.0
 10
-12.6130943479
 20
23.6278312164
 30
0.0
 11
-12.3630985787
 21
23.8443375673
 31
0.0
 11
-12.3680262991
 21
23.8021752067
 31
0.0
 11
-12.382336793
 21
23.761629536
 31
0.0
 11
-12.4054824567
 21
23.7242490838
 31
0.0
 11
-12.436577356
 21
23.6914668129
 31
0.0
 11
-12.517592911
 21
23.644492298
 31
0.0
 11
-12.6130943479
 21
23.6278312164
 31
0.0
  0
SPLINE
  5
4EF
100
AcDbEntity
  8
0
100
AcDbSpline
 62
253
  6
CONTINUOUS
 70
0
 71
3
 72
13
 73
9
 74
7
 42
0.0000001
 43
0.0000001
 44
0.0000000001
 12
-0.0012265944
 22
0.3651869708
 32
0.0
 13
-0.3651878719
 23
0.0009199792
 33
0.0
 40
0.0
 40
0.0
 40
0.0
 40
0.0
 40
0.1162394861
 40
0.2339784844
 40
0.3543712552
 40
0.4780982232
 40
0.7345378384
 40
1.0
 40
1.0
 40
1.0
 40
1.0
 10
-12.3630985787
 20
-23.8443375673
 30
0.0
 10
-12.3631461049
 20
-23.830187852
 30
0.0
 10
-12.3665046394
 20
-23.8016148352
 30
0.0
 10
-12.3810612251
 20
-23.7606544996
 30
0.0
 10
-12.4045320971
 20
-23.7229827179
 30
0.0
 10
-12.4468348209
 20
-23.6786209833
 30
0.0
 10
-12.516761089
 20
-23.6387868014
 30
0.0
 10
-12.5807798273
 20
-23.6279126229
 30
0.0
 10
-12.6130943479
 20
-23.6278312164
 30
0.0
 11
-12.3630985787
 21
-23.8443375673
 31
0.0
 11
-12.3680263065
 21
-23.8021751692
 31
0.0
 11
-12.3823368081
 21
-23.7616295068
 31
0.0
 11
-12.4054824744
 21
-23.7242490603
 31
0.0
 11
-12.4365773743
 21
-23.6914667969
 31
0.0
 11
-12.5175929221
 21
-23.6444922937
 31
0.0
 11
-12.6130943479
 21
-23.6278312164
 31
0.0
  0
SPLINE
  5
4F0
100
AcDbEntity
  8
0
100
AcDbSpline
 62
7
  6
CONTINUOUS
 70
0
 71
3
 72
15
 73
11
 74
9
 42
0.0000001
 43
0.0000001
 44
0.0000000001
 12
-0.0031741039
 22
0.3149999784
 32
0.0
 13
-0.3150159699
 23
0.0
 33
0.0
 40
0.0
 40
0.0
 40
0.0
 40
0.0
 40
0.0847246382
 40
0.1757279367
 40
0.2778501555
 40
0.3942839058
 40
0.5264550939
 40
0.6738071548
 40
0.8334364544
 40
1.0
 40
1.0
 40
1.0
 40
1.0
 10
-12.3572807489
 20
-23.2669872981
 30
0.0
 10
-12.3573703905
 20
-23.2580912117
 30
0.0
 10
-12.3606131795
 20
-23.2395608029
 30
0.0
 10
-12.3741645701
 20
-23.2133174142
 30
0.0
 10
-12.396036015
 20
-23.1888844894
 30
0.0
 10
-12.425888076
 20
-23.1669547435
 30
0.0
 10
-12.463250807
 20
-23.1483274499
 30
0.0
 10
-12.5072234122
 20
-23.133953471
 30
0.0
 10
-12.5562269929
 20
-23.1248150691
 30
0.0
 10
-12.5905136879
 20
-23.1226497308
 30
0.0
 10
-12.6080037468
 20
-23.1226497308
 30
0.0
 11
-12.3572807489
 21
-23.2669872981
 31
0.0
 11
-12.3617358026
 21
-23.2406721314
 31
0.0
 11
-12.3745605835
 21
-23.2150332915
 31
0.0
 11
-12.3957149112
 21
-23.1907967144
 31
0.0
 11
-12.4250527761
 21
-23.1687830511
 31
0.0
 11
-12.4621789369
 21
-23.1499360992
 31
0.0
 11
-12.5062311591
 21
-23.1353054509
 31
0.0
 11
-12.5556366974
 21
-23.1259378303
 31
0.0
 11
-12.6080037468
 21
-23.1226497308
 31
0.0
  0
SPLINE
  5
4F1
100
AcDbEntity
  8
0
100
AcDbSpline
 62
7
  6
CONTINUOUS
 70
0
 71
3
 72
15
 73
11
 74
9
 42
0.0000001
 43
0.0000001
 44
0.0000000001
 12
0.0031741039
 22
0.3149999784
 32
0.0
 13
0.3150159699
 23
0.0
 33
0.0
 40
0.0
 40
0.0
 40
0.0
 40
0.0
 40
0.0847246382
 40
0.1757279367
 40
0.2778501555
 40
0.3942839058
 40
0.5264550939
 40
0.6738071548
 40
0.8334364544
 40
1.0
 40
1.0
 40
1.0
 40
1.0
 10
-15.2427192511
 20
-23.2669872981
 30
0.0
 10
-15.2426296095
 20
-23.2580912117
 30
0.0
 10
-15.2393868205
 20
-23.2395608029
 30
0.0
 10
-15.2258354299
 20
-23.2133174142
 30
0.0
 10
-15.203963985
 20
-23.1888844894
 30
0.0
 10
-15.174111924
 20
-23.1669547435
 30
0.0
 10
-15.136749193
 20
-23.1483274499
 30
0.0
 10
-15.0927765878
 20
-23.133953471
 30
0.0
 10
-15.0437730071
 20
-23.1248150691
 30
0.0
 10
-15.0094863121
 20
-23.1226497308
 30
0.0
 10
-14.9919962532
 20
-23.1226497308
 30
0.0
 11
-15.2427192511
 21
-23.2669872981
 31
0.0
 11
-15.2382641974
 21
-23.2406721314
 31
0.0
 11
-15.2254394165
 21
-23.2150332915
 31
0.0
 11
-15.2042850888
 21
-23.1907967144
 31
0.0
 11
-15.1749472239
 21
-23.1687830511
 31
0.0
 11
-15.1378210631
 21
-23.1499360992
 31
0.0
 11
-15.0937688409
 21
-23.1353054509
 31
0.0
 11
-15.0443633026
 21
-23.1259378303
 31
0.0
 11
-14.9919962532
 21
-23.1226497308
 31
0.0
  0
SPLINE
  5
4F2
100
AcDbEntity
  8
0
100
AcDbSpline
 62
253
  6
CONTINUOUS
 70
0
 71
3
 72
13
 73
9
 74
7
 42
0.0000001
 43
0.0000001
 44
0.0000000001
 12
0.0012265943
 22
0.3651869702
 32
0.0
 13
0.3651878714
 23
0.0009199792
 33
0.0
 40
0.0
 40
0.0
 40
0.0
 40
0.0
 40
0.1162393822
 40
0.2339783947
 40
0.3543711753
 40
0.4780981573
 40
0.7345378061
 40
1.0
 40
1.0
 40
1.0
 40
1.0
 10
-15.2369014213
 20
-23.8443375673
 30
0.0
 10
-15.2368538951
 20
-23.8301878647
 30
0.0
 10
-15.2334953621
 20
-23.8016148597
 30
0.0
 10
-15.2189387922
 20
-23.7606545287
 30
0.0
 10
-15.19546792
 20
-23.7229827412
 30
0.0
 10
-15.1531651981
 20
-23.6786209956
 30
0.0
 10
-15.0832389227
 20
-23.6387868046
 30
0.0
 10
-15.0192201766
 20
-23.6279126229
 30
0.0
 10
-14.9869056521
 20
-23.6278312164
 30
0.0
 11
-15.2369014213
 21
-23.8443375673
 31
0.0
 11
-15.2319737009
 21
-23.8021752067
 31
0.0
 11
-15.217663207
 21
-23.761629536
 31
0.0
 11
-15.1945175433
 21
-23.7242490838
 31
0.0
 11
-15.163422644
 21
-23.6914668129
 31
0.0
 11
-15.082407089
 21
-23.644492298
 31
0.0
 11
-14.9869056521
 21
-23.6278312164
 31
0.0
  0
SPLINE
  5
4F3
100
AcDbEntity
  8
0
100
AcDbSpline
 62
253
  6
CONTINUOUS
 70
0
 71
3
 72
13
 73
9
 74
7
 42
0.0000001
 43
0.0000001
 44
0.0000000001
 12
-0.0012265944
 22
0.3651869708
 32
0.0
 13
-0.3651878719
 23
0.0009199792
 33
0.0
 40
0.0
 40
0.0
 40
0.0
 40
0.0
 40
0.1162394861
 40
0.2339784844
 40
0.3543712552
 40
0.4780982232
 40
0.7345378384
 40
1.0
 40
1.0
 40
1.0
 40
1.0
 10
-29.7630985787
 20
-23.8443375673
 30
0.0
 10
-29.7631461049
 20
-23.830187852
 30
0.0
 10
-29.7665046394
 20
-23.8016148352
 30
0.0
 10
-29.7810612251
 20
-23.7606544996
 30
0.0
 10
-29.8045320971
 20
-23.7229827179
 30
0.0
 10
-29.8468348209
 20
-23.6786209833
 30
0.0
 10
-29.916761089
 20
-23.6387868014
 30
0.0
 10
-29.9807798273
 20
-23.6279126229
 30
0.0
 10
-30.0130943479
 20
-23.6278312164
 30
0.0
 11
-29.7630985787
 21
-23.8443375673
 31
0.0
 11
-29.7680263065
 21
-23.8021751692
 31
0.0
 11
-29.7823368081
 21
-23.7616295068
 31
0.0
 11
-29.8054824744
 21
-23.7242490603
 31
0.0
 11
-29.8365773743
 21
-23.6914667969
 31
0.0
 11
-29.9175929221
 21
-23.6444922937
 31
0.0
 11
-30.0130943479
 21
-23.6278312164
 31
0.0
  0
SPLINE
  5
4F4
100
AcDbEntity
  8
0
100
AcDbSpline
 62
7
  6
CONTINUOUS
 70
0
 71
3
 72
15
 73
11
 74
9
 42
0.0000001
 43
0.0000001
 44
0.0000000001
 12
-0.0031741039
 22
0.3149999784
 32
0.0
 13
-0.3150159699
 23
0.0
 33
0.0
 40
0.0
 40
0.0
 40
0.0
 40
0.0
 40
0.0847246382
 40
0.1757279367
 40
0.2778501555
 40
0.3942839058
 40
0.5264550939
 40
0.6738071548
 40
0.8334364544
 40
1.0
 40
1.0
 40
1.0
 40
1.0
 10
-29.7572807489
 20
-23.2669872981
 30
0.0
 10
-29.7573703905
 20
-23.2580912117
 30
0.0
 10
-29.7606131795
 20
-23.2395608029
 30
0.0
 10
-29.7741645701
 20
-23.2133174142
 30
0.0
 10
-29.796036015
 20
-23.1888844894
 30
0.0
 10
-29.825888076
 20
-23.1669547435
 30
0.0
 10
-29.863250807
 20
-23.1483274499
 30
0.0
 10
-29.9072234122
 20
-23.133953471
 30
0.0
 10
-29.9562269929
 20
-23.1248150691
 30
0.0
 10
-29.9905136879
 20
-23.1226497308
 30
0.0
 10
-30.0080037468
 20
-23.1226497308
 30
0.0
 11
-29.7572807489
 21
-23.2669872981
 31
0.0
 11
-29.7617358026
 21
-23.2406721314
 31
0.0
 11
-29.7745605835
 21
-23.2150332915
 31
0.0
 11
-29.7957149112
 21
-23.1907967144
 31
0.0
 11
-29.8250527761
 21
-23.1687830511
 31
0.0
 11
-29.8621789369
 21
-23.1499360992
 31
0.0
 11
-29.9062311591
 21
-23.1353054509
 31
0.0
 11
-29.9556366974
 21
-23.1259378303
 31
0.0
 11
-30.0080037468
 21
-23.1226497308
 31
0.0
  0
SPLINE
  5
4F5
100
AcDbEntity
  8
0
100
AcDbSpline
 62
7
  6
CONTINUOUS
 70
0
 71
3
 72
15
 73
11
 74
9
 42
0.0000001
 43
0.0000001
 44
0.0000000001
 12
-0.3142908459
 22
0.0
 32
0.0
 13
-0.0031667975
 23
-0.3142748912
 33
0.0
 40
0.0
 40
0.0
 40
0.0
 40
0.0
 40
0.1666133779
 40
0.3262255844
 40
0.4735308137
 40
0.6056575217
 40
0.7220676483
 40
0.8241942131
 40
0.9152281509
 40
1.0
 40
1.0
 40
1.0
 40
1.0
 10
-32.3927234819
 20
-23.1226497308
 30
0.0
 10
-32.4101785017
 20
-23.1226497308
 30
0.0
 10
-32.4443856929
 20
-23.124909705
 30
0.0
 10
-32.4932620946
 20
-23.1340775763
 30
0.0
 10
-32.5371035061
 20
-23.1484769636
 30
0.0
 10
-32.5743461767
 20
-23.1671011817
 30
0.0
 10
-32.6040985049
 20
-23.1890111222
 30
0.0
 10
-32.6258950298
 20
-23.2134107396
 30
0.0
 10
-32.6393986841
 20
-23.239611024
 30
0.0
 10
-32.642629766
 20
-23.2581067436
 30
0.0
 10
-32.6427192511
 20
-23.2669872981
 30
0.0
 11
-32.3927234819
 21
-23.1226497308
 31
0.0
 11
-32.4449802175
 21
-23.126016189
 31
0.0
 11
-32.4942534457
 21
-23.1354311576
 31
0.0
 11
-32.5381709782
 21
-23.1500815293
 31
0.0
 11
-32.5751759211
 21
-23.1689245842
 31
0.0
 11
-32.6044151803
 21
-23.1909165769
 31
0.0
 11
-32.6254977136
 21
-23.215119319
 31
0.0
 11
-32.6382790097
 21
-23.2407168857
 31
0.0
 11
-32.6427192511
 21
-23.2669872981
 31
0.0
  0
SPLINE
  5
4F6
100
AcDbEntity
  8
0
100
AcDbSpline
 62
253
  6
CONTINUOUS
 70
0
 71
3
 72
13
 73
9
 74
7
 42
0.0000001
 43
0.0000001
 44
0.0000000001
 12
0.0012265944
 22
0.3651869708
 32
0.0
 13
0.3651878719
 23
0.0009199792
 33
0.0
 40
0.0
 40
0.0
 40
0.0
 40
0.0
 40
0.1162394861
 40
0.2339784844
 40
0.3543712552
 40
0.4780982232
 40
0.7345378384
 40
1.0
 40
1.0
 40
1.0
 40
1.0
 10
-32.6369014213
 20
-23.8443375673
 30
0.0
 10
-32.6368538951
 20
-23.830187852
 30
0.0
 10
-32.6334953606
 20
-23.8016148352
 30
0.0
 10
-32.6189387749
 20
-23.7606544996
 30
0.0
 10
-32.5954679029
 20
-23.7229827179
 30
0.0
 10
-32.5531651791
 20
-23.6786209833
 30
0.0
 10
-32.483238911
 20
-23.6387868014
 30
0.0
 10
-32.4192201727
 20
-23.6279126229
 30
0.0
 10
-32.3869056521
 20
-23.6278312164
 30
0.0
 11
-32.6369014213
 21
-23.8443375673
 31
0.0
 11
-32.6319736935
 21
-23.8021751692
 31
0.0
 11
-32.6176631919
 21
-23.7616295068
 31
0.0
 11
-32.5945175256
 21
-23.7242490603
 31
0.0
 11
-32.5634226257
 21
-23.6914667969
 31
0.0
 11
-32.4824070779
 21
-23.6444922937
 31
0.0
 11
-32.3869056521
 21
-23.6278312164
 31
0.0
  0
SPLINE
  5
4F7
100
AcDbEntity
  8
0
100
AcDbSpline
 62
7
  6
CONTINUOUS
 70
0
 71
3
 72
15
 73
11
 74
9
 42
0.0000001
 43
0.0000001
 44
0.0000000001
 12
-0.783584949
 22
0.0
 32
0.0
 13
-0.0
 23
0.783584949
 33
0.0
 40
0.0
 40
0.0
 40
0.0
 40
0.0
 40
0.1249998755
 40
0.2499983858
 40
0.3749979685
 40
0.4999978562
 40
0.6249980066
 40
0.7499984071
 40
0.8749983005
 40
1.0
 40
1.0
 40
1.0
 40
1.0
 10
-33.1499752684
 20
-22.4
 30
0.0
 10
-33.1826246088
 20
-22.4
 30
0.0
 10
-33.2480978538
 20
-22.3934475677
 30
0.0
 10
-33.3423705112
 20
-22.3647451103
 30
0.0
 10
-33.4292585201
 20
-22.3181579234
 30
0.0
 10
-33.505372633
 20
-22.2555146988
 30
0.0
 10
-33.5678061812
 20
-22.1792278759
 30
0.0
 10
-33.6141710301
 20
-22.0922261856
 30
0.0
 10
-33.6427071378
 20
-21.9979001651
 30
0.0
 10
-33.6491272468
 20
-21.9324209647
 30
0.0
 10
-33.6491272468
 20
-21.8997711479
 30
0.0
 11
-33.1499752684
 21
-22.4
 31
0.0
 11
-33.2474419861
 21
-22.3903018677
 31
0.0
 11
-33.3411394797
 21
-22.3617644365
 31
0.0
 11
-33.4274627432
 21
-22.3154819985
 31
0.0
 11
-33.503092465
 21
-22.2532408395
 31
0.0
 11
-33.5651280255
 21
-22.1774421175
 31
0.0
 11
-33.6111996043
 21
-22.0910054062
 31
0.0
 11
-33.6395560502
 21
-21.9972518487
 31
0.0
 11
-33.6491272468
 21
-21.8997711479
 31
0.0
  0
SPLINE
  5
4F8
100
AcDbEntity
  8
0
100
AcDbSpline
 62
7
  6
CONTINUOUS
 70
0
 71
3
 72
15
 73
11
 74
9
 42
0.0000001
 43
0.0000001
 44
0.0000000001
 12
0.0
 22
0.7835849489
 32
0.0
 13
0.7835849489
 23
0.0
 33
0.0
 40
0.0
 40
0.0
 40
0.0
 40
0.0
 40
0.1250016995
 40
0.2500015929
 40
0.3750019934
 40
0.5000021438
 40
0.6250020315
 40
0.7500016142
 40
0.8750001245
 40
1.0
 40
1.0
 40
1.0
 40
1.0
 10
-33.6491272468
 20
21.8997711479
 30
0.0
 10
-33.6491272468
 20
21.9324209647
 30
0.0
 10
-33.6427071378
 20
21.9979001651
 30
0.0
 10
-33.6141710301
 20
22.0922261856
 30
0.0
 10
-33.5678061813
 20
22.1792278759
 30
0.0
 10
-33.505372633
 20
22.2555146988
 30
0.0
 10
-33.4292585201
 20
22.3181579234
 30
0.0
 10
-33.3423705113
 20
22.3647451103
 30
0.0
 10
-33.2480978538
 20
22.3934475677
 30
0.0
 10
-33.1826246089
 20
22.4
 30
0.0
 10
-33.1499752685
 20
22.4
 30
0.0
 11
-33.6491272468
 21
21.8997711479
 31
0.0
 11
-33.6395560502
 21
21.9972518487
 31
0.0
 11
-33.6111996043
 21
22.0910054062
 31
0.0
 11
-33.5651280255
 21
22.1774421175
 31
0.0
 11
-33.503092465
 21
22.2532408395
 31
0.0
 11
-33.4274627432
 21
22.3154819984
 31
0.0
 11
-33.3411394798
 21
22.3617644365
 31
0.0
 11
-33.2474419862
 21
22.3903018677
 31
0.0
 11
-33.1499752685
 21
22.4
 31
0.0
  0
LINE
  5
4F9
100
AcDbEntity
  8
0
100
AcDbLine
 62
7
  6
CONTINUOUS
 10
-2.1057471822
 20
-13.9500020283
 11
-2.7524190796
 21
-13.9499977164
  0
LINE
  5
4FA
100
AcDbEntity
  8
0
100
AcDbLine
 62
7
  6
CONTINUOUS
 10
-2.4057316894
 20
-13.3499990304
 11
-2.1057244702
 21
-13.3500009072
  0
LINE
  5
4FB
100
AcDbEntity
  8
0
100
AcDbLine
 62
7
  6
CONTINUOUS
 10
1.1029841248
 20
-13.3500026462
 11
2.4057311939
 21
-13.3499963079
  0
LINE
  5
4FC
100
AcDbEntity
  8
0
100
AcDbLine
 62
7
  6
CONTINUOUS
 10
2.7524383693
 20
-13.949994806
 11
1.1030331768
 21
-13.9500035341
  0
SPLINE
  5
4FD
100
AcDbEntity
  8
RACCORDO
100
AcDbSpline
 62
253
  6
CONTINUOUS
 70
0
 71
3
 72
18
 73
14
 74
12
 42
0.0000001
 43
0.0000001
 44
0.0000000001
 12
0.4895870824
 22
0.0010091892
 32
0.0
 13
0.2595086199
 23
0.4151527501
 33
0.0
 40
0.0
 40
0.0
 40
0.0
 40
0.0
 40
0.1924392758
 40
0.3774451731
 40
0.5477948483
 40
0.6975760804
 40
0.8214914473
 40
0.8722735819
 40
0.9150243252
 40
0.9493566263
 40
0.9749703677
 40
0.9917736336
 40
1.0
 40
1.0
 40
1.0
 40
1.0
 10
32.8730224302
 20
-20.7082281594
 30
0.0
 10
32.9044276914
 20
-20.7081634235
 30
0.0
 10
32.9660250062
 20
-20.707793889
 30
0.0
 10
33.0554146713
 20
-20.7065301381
 30
0.0
 10
33.1378312328
 20
-20.7046072698
 30
0.0
 10
33.2102524669
 20
-20.7020975197
 30
0.0
 10
33.263153965
 20
-20.6994931164
 30
0.0
 10
33.2985462881
 20
-20.6970718082
 30
0.0
 10
33.3193688147
 20
-20.6953150928
 30
0.0
 10
33.3359542459
 20
-20.6934794083
 30
0.0
 10
33.3485389195
 20
-20.69170549
 30
0.0
 10
33.3562445666
 20
-20.6898254177
 30
0.0
 10
33.3605825998
 20
-20.6884718125
 30
0.0
 10
33.3612942041
 20
-20.6873334129
 30
0.0
 11
32.8730224302
 21
-20.7082281594
 31
0.0
 11
32.9672366786
 21
-20.7076563214
 31
0.0
 11
33.0578039751
 21
-20.706351883
 31
0.0
 11
33.1411814036
 21
-20.7043616953
 31
0.0
 11
33.2144662316
 21
-20.7017566988
 31
0.0
 11
33.2750532461
 21
-20.6986328812
 31
0.0
 11
33.2998558501
 21
-20.6969105902
 31
0.0
 11
33.3207077647
 21
-20.6951013698
 31
0.0
 11
33.337410894
 21
-20.6932205651
 31
0.0
 11
33.3498008243
 21
-20.6912851501
 31
0.0
 11
33.3577882926
 21
-20.6893157328
 31
0.0
 11
33.3612942041
 21
-20.6873334129
 31
0.0
  0
SPLINE
  5
4FE
100
AcDbEntity
  8
RACCORDO
100
AcDbSpline
 62
253
  6
CONTINUOUS
 70
0
 71
3
 72
18
 73
14
 74
12
 42
0.0000001
 43
0.0000001
 44
0.0000000001
 12
0.4895871942
 22
-0.0010091513
 32
0.0
 13
0.2596280414
 23
-0.4150782086
 33
0.0
 40
0.0
 40
0.0
 40
0.0
 40
0.0
 40
0.1924365446
 40
0.3774401827
 40
0.5477884061
 40
0.697569168
 40
0.8214850783
 40
0.8722678461
 40
0.9150194387
 40
0.9493527834
 40
0.9749677353
 40
0.9917723362
 40
1.0
 40
1.0
 40
1.0
 40
1.0
 10
32.8730221413
 20
20.7082276358
 30
0.0
 10
32.9044269639
 20
20.7081629033
 30
0.0
 10
32.9660234783
 20
20.7077933839
 30
0.0
 10
33.0554121132
 20
20.7065296799
 30
0.0
 10
33.1378280116
 20
20.704606877
 30
0.0
 10
33.210249042
 20
20.7020972022
 30
0.0
 10
33.2631506651
 20
20.6994928701
 30
0.0
 10
33.2985433409
 20
20.6970716238
 30
0.0
 10
33.3193662694
 20
20.6953149478
 30
0.0
 10
33.3359522689
 20
20.6934792864
 30
0.0
 10
33.3485374196
 20
20.6917054131
 30
0.0
 10
33.3562439353
 20
20.6898252989
 30
0.0
 10
33.3605821598
 20
20.6884717868
 30
0.0
 10
33.3612942039
 20
20.6873334122
 30
0.0
 11
32.8730221413
 21
20.7082276358
 31
0.0
 11
32.9672350741
 21
20.7076558221
 31
0.0
 11
33.0578012858
 21
20.7063514334
 31
0.0
 11
33.141178024
 21
20.704361315
 31
0.0
 11
33.2144626413
 21
20.7017563992
 31
0.0
 11
33.2750499404
 21
20.6986326657
 31
0.0
 11
33.2998528637
 21
20.6969104159
 31
0.0
 11
33.3207052039
 21
20.6951012352
 31
0.0
 11
33.3374088555
 21
20.6932204682
 31
0.0
 11
33.3497993939
 21
20.6912850883
 31
0.0
 11
33.3577875452
 21
20.6893157031
 31
0.0
 11
33.3612942039
 21
20.6873334122
 31
0.0
  0
SPLINE
  5
4FF
100
AcDbEntity
  8
RACCORDO
100
AcDbSpline
 62
253
  6
CONTINUOUS
 70
0
 71
3
 72
18
 73
14
 74
12
 42
0.0000001
 43
0.0000001
 44
0.0000000001
 12
-0.4895870823
 22
-0.0010091892
 32
0.0
 13
-0.2595086175
 23
-0.4151527514
 33
0.0
 40
0.0
 40
0.0
 40
0.0
 40
0.0
 40
0.1924392759
 40
0.3774451732
 40
0.5477948484
 40
0.6975760805
 40
0.8214914474
 40
0.872273582
 40
0.9150243253
 40
0.9493566263
 40
0.9749703677
 40
0.9917736337
 40
1.0
 40
1.0
 40
1.0
 40
1.0
 10
-32.8730224304
 20
20.7082281594
 30
0.0
 10
-32.9044276916
 20
20.7081634236
 30
0.0
 10
-32.9660250064
 20
20.707793889
 30
0.0
 10
-33.0554146714
 20
20.7065301382
 30
0.0
 10
-33.1378312329
 20
20.7046072699
 30
0.0
 10
-33.210252467
 20
20.7020975198
 30
0.0
 10
-33.2631539651
 20
20.6994931164
 30
0.0
 10
-33.2985462882
 20
20.6970718083
 30
0.0
 10
-33.3193688147
 20
20.6953150929
 30
0.0
 10
-33.335954246
 20
20.6934794083
 30
0.0
 10
-33.3485389196
 20
20.6917054901
 30
0.0
 10
-33.3562445666
 20
20.6898254177
 30
0.0
 10
-33.3605825998
 20
20.6884718125
 30
0.0
 10
-33.3612942041
 20
20.687333413
 30
0.0
 11
-32.8730224304
 21
20.7082281594
 31
0.0
 11
-32.9672366787
 21
20.7076563215
 31
0.0
 11
-33.0578039752
 21
20.7063518831
 31
0.0
 11
-33.1411814037
 21
20.7043616953
 31
0.0
 11
-33.2144662317
 21
20.7017566988
 31
0.0
 11
-33.2750532462
 21
20.6986328813
 31
0.0
 11
-33.2998558501
 21
20.6969105902
 31
0.0
 11
-33.3207077648
 21
20.6951013698
 31
0.0
 11
-33.337410894
 21
20.6932205652
 31
0.0
 11
-33.3498008243
 21
20.6912851502
 31
0.0
 11
-33.3577882926
 21
20.6893157328
 31
0.0
 11
-33.3612942041
 21
20.687333413
 31
0.0
  0
SPLINE
  5
500
100
AcDbEntity
  8
RACCORDO
100
AcDbSpline
 62
253
  6
CONTINUOUS
 70
0
 71
3
 72
18
 73
14
 74
12
 42
0.0000001
 43
0.0000001
 44
0.0000000001
 12
-0.4895871941
 22
0.0010091513
 32
0.0
 13
-0.2596280427
 23
0.4150782076
 33
0.0
 40
0.0
 40
0.0
 40
0.0
 40
0.0
 40
0.1924365446
 40
0.3774401826
 40
0.547788406
 40
0.6975691679
 40
0.8214850782
 40
0.8722678461
 40
0.9150194387
 40
0.9493527834
 40
0.9749677353
 40
0.9917723362
 40
1.0
 40
1.0
 40
1.0
 40
1.0
 10
-32.8730221414
 20
-20.7082276358
 30
0.0
 10
-32.904426964
 20
-20.7081629033
 30
0.0
 10
-32.9660234784
 20
-20.7077933839
 30
0.0
 10
-33.0554121133
 20
-20.70652968
 30
0.0
 10
-33.1378280117
 20
-20.7046068771
 30
0.0
 10
-33.210249042
 20
-20.7020972022
 30
0.0
 10
-33.2631506651
 20
-20.6994928701
 30
0.0
 10
-33.2985433409
 20
-20.6970716238
 30
0.0
 10
-33.3193662694
 20
-20.6953149478
 30
0.0
 10
-33.3359522689
 20
-20.6934792864
 30
0.0
 10
-33.3485374195
 20
-20.6917054131
 30
0.0
 10
-33.3562439353
 20
-20.6898252989
 30
0.0
 10
-33.3605821598
 20
-20.6884717868
 30
0.0
 10
-33.3612942039
 20
-20.6873334122
 30
0.0
 11
-32.8730221414
 21
-20.7082276358
 31
0.0
 11
-32.9672350742
 21
-20.7076558221
 31
0.0
 11
-33.0578012858
 21
-20.7063514334
 31
0.0
 11
-33.141178024
 21
-20.704361315
 31
0.0
 11
-33.2144626413
 21
-20.7017563992
 31
0.0
 11
-33.2750499404
 21
-20.6986326657
 31
0.0
 11
-33.2998528637
 21
-20.6969104159
 31
0.0
 11
-33.3207052039
 21
-20.6951012352
 31
0.0
 11
-33.3374088554
 21
-20.6932204683
 31
0.0
 11
-33.3497993939
 21
-20.6912850883
 31
0.0
 11
-33.3577875452
 21
-20.6893157031
 31
0.0
 11
-33.3612942039
 21
-20.6873334122
 31
0.0
  0
SPLINE
  5
501
100
AcDbEntity
  8
RACCORDO
100
AcDbSpline
 62
253
  6
CONTINUOUS
 70
0
 71
3
 72
16
 73
12
 74
10
 42
0.0000001
 43
0.0000001
 44
0.0000000001
 12
-0.1218174263
 22
1.141814046
 32
0.0
 13
0.0002996155
 23
1.1482938262
 33
0.0
 40
0.0
 40
0.0
 40
0.0
 40
0.0
 40
0.0095009486
 40
0.0277840411
 40
0.0547144552
 40
0.0900550042
 40
0.1847133801
 40
0.3085503052
 40
0.4573751061
 40
0.6261127283
 40
1.0
 40
1.0
 40
1.0
 40
1.0
 10
32.8788358319
 20
-21.8564770068
 30
0.0
 10
32.8784500382
 20
-21.8528609012
 30
0.0
 10
32.8781144818
 20
-21.8422184647
 30
0.0
 10
32.8774842565
 20
-21.8212942208
 30
0.0
 10
32.8769749408
 20
-21.7904601118
 30
0.0
 10
32.8761533085
 20
-21.7304013491
 30
0.0
 10
32.8753161797
 20
-21.6332432465
 30
0.0
 10
32.8744686329
 20
-21.4926495075
 30
0.0
 10
32.8737971773
 20
-21.3236983583
 30
0.0
 10
32.873125861
 20
-21.0590368152
 30
0.0
 10
32.872985097
 20
-20.8513389597
 30
0.0
 10
32.8730224378
 20
-20.7082281444
 30
0.0
 11
32.8788358319
 21
-21.8564770068
 31
0.0
 11
32.8782223622
 21
-21.8455843873
 31
0.0
 11
32.8776222736
 21
-21.8245986024
 31
0.0
 11
32.8770407748
 21
-21.7936800409
 31
0.0
 11
32.8764824949
 21
-21.7531025456
 31
0.0
 11
32.8754530286
 21
-21.6444117885
 31
0.0
 11
32.8745705074
 21
-21.5022133456
 31
0.0
 11
32.8738658511
 21
-21.3313201926
 31
0.0
 11
32.8733623691
 21
-21.1375604702
 31
0.0
 11
32.8730224378
 21
-20.7082281444
 31
0.0
  0
SPLINE
  5
502
100
AcDbEntity
  8
RACCORDO
100
AcDbSpline
 62
253
  6
CONTINUOUS
 70
0
 71
3
 72
16
 73
12
 74
10
 42
0.0000001
 43
0.0000001
 44
0.0000000001
 12
0.0002996142
 22
-1.148293826
 32
0.0
 13
-0.1218176672
 23
-1.1418140201
 33
0.0
 40
0.0
 40
0.0
 40
0.0
 40
0.0
 40
0.3738872716
 40
0.5426248938
 40
0.6914496946
 40
0.8152866198
 40
0.9099449957
 40
0.9452855447
 40
0.9722159588
 40
0.9904990513
 40
1.0
 40
1.0
 40
1.0
 40
1.0
 10
-32.8730224292
 20
-20.7082281442
 30
0.0
 10
-32.8729850886
 20
-20.8513389594
 30
0.0
 10
-32.8731258468
 20
-21.0590368148
 30
0.0
 10
-32.873797167
 20
-21.3236983578
 30
0.0
 10
-32.8744686234
 20
-21.492649507
 30
0.0
 10
-32.8753161722
 20
-21.633243246
 30
0.0
 10
-32.8761533028
 20
-21.7304013485
 30
0.0
 10
-32.8769749367
 20
-21.7904601112
 30
0.0
 10
-32.8774842535
 20
-21.8212942202
 30
0.0
 10
-32.8781144801
 20
-21.8422184641
 30
0.0
 10
-32.8784500372
 20
-21.8528609007
 30
0.0
 10
-32.8788358316
 20
-21.8564770062
 30
0.0
 11
-32.8730224292
 21
-20.7082281442
 31
0.0
 11
-32.8733623569
 21
-21.1375604698
 31
0.0
 11
-32.8738658405
 21
-21.3313201921
 31
0.0
 11
-32.8745704982
 21
-21.5022133451
 31
0.0
 11
-32.8754530213
 21
-21.6444117879
 31
0.0
 11
-32.8764824897
 21
-21.7531025451
 31
0.0
 11
-32.8770407708
 21
-21.7936800403
 31
0.0
 11
-32.8776222708
 21
-21.8245986018
 31
0.0
 11
-32.8782223606
 21
-21.8455843867
 31
0.0
 11
-32.8788358316
 21
-21.8564770062
 31
0.0
  0
SPLINE
  5
503
100
AcDbEntity
  8
RACCORDO
100
AcDbSpline
 62
253
  6
CONTINUOUS
 70
0
 71
3
 72
16
 73
12
 74
10
 42
0.0000001
 43
0.0000001
 44
0.0000000001
 12
-0.0002996142
 22
1.1482938265
 32
0.0
 13
0.121817671
 23
1.1418140202
 33
0.0
 40
0.0
 40
0.0
 40
0.0
 40
0.0
 40
0.3738872716
 40
0.5426248938
 40
0.6914496946
 40
0.8152866198
 40
0.9099449957
 40
0.9452855447
 40
0.9722159588
 40
0.9904990513
 40
1.0
 40
1.0
 40
1.0
 40
1.0
 10
32.8730224291
 20
20.7082281437
 30
0.0
 10
32.8729850884
 20
20.8513389589
 30
0.0
 10
32.8731258465
 20
21.0590368144
 30
0.0
 10
32.8737971668
 20
21.3236983576
 30
0.0
 10
32.8744686232
 20
21.4926495068
 30
0.0
 10
32.875316172
 20
21.6332432458
 30
0.0
 10
32.8761533027
 20
21.7304013484
 30
0.0
 10
32.8769749366
 20
21.7904601112
 30
0.0
 10
32.8774842534
 20
21.8212942202
 30
0.0
 10
32.87811448
 20
21.8422184641
 30
0.0
 10
32.8784500371
 20
21.8528609007
 30
0.0
 10
32.8788358316
 20
21.8564770062
 30
0.0
 11
32.8730224291
 21
20.7082281437
 31
0.0
 11
32.8733623567
 21
21.1375604695
 31
0.0
 11
32.8738658404
 21
21.3313201918
 31
0.0
 11
32.8745704981
 21
21.5022133449
 31
0.0
 11
32.8754530212
 21
21.6444117878
 31
0.0
 11
32.8764824896
 21
21.753102545
 31
0.0
 11
32.8770407708
 21
21.7936800402
 31
0.0
 11
32.8776222707
 21
21.8245986018
 31
0.0
 11
32.8782223606
 21
21.8455843867
 31
0.0
 11
32.8788358316
 21
21.8564770062
 31
0.0
  0
SPLINE
  5
504
100
AcDbEntity
  8
RACCORDO
100
AcDbSpline
 62
253
  6
CONTINUOUS
 70
0
 71
3
 72
16
 73
12
 74
10
 42
0.0000001
 43
0.0000001
 44
0.0000000001
 12
0.1218174189
 22
-1.1418140473
 32
0.0
 13
-0.0002996155
 23
-1.1482938267
 33
0.0
 40
0.0
 40
0.0
 40
0.0
 40
0.0
 40
0.0095009486
 40
0.0277840411
 40
0.0547144552
 40
0.0900550042
 40
0.1847133801
 40
0.3085503052
 40
0.4573751061
 40
0.6261127283
 40
1.0
 40
1.0
 40
1.0
 40
1.0
 10
-32.8788358319
 20
21.8564770068
 30
0.0
 10
-32.8784500383
 20
21.8528609013
 30
0.0
 10
-32.8781144819
 20
21.8422184647
 30
0.0
 10
-32.8774842566
 20
21.8212942208
 30
0.0
 10
-32.876974941
 20
21.7904601118
 30
0.0
 10
-32.8761533087
 20
21.730401349
 30
0.0
 10
-32.8753161799
 20
21.6332432464
 30
0.0
 10
-32.8744686332
 20
21.4926495074
 30
0.0
 10
-32.8737971777
 20
21.3236983581
 30
0.0
 10
-32.8731258615
 20
21.0590368148
 30
0.0
 10
-32.8729850973
 20
20.8513389593
 30
0.0
 10
-32.8730224381
 20
20.708228144
 30
0.0
 11
-32.8788358319
 21
21.8564770068
 31
0.0
 11
-32.8782223622
 21
21.8455843873
 31
0.0
 11
-32.8776222737
 21
21.8245986024
 31
0.0
 11
-32.877040775
 21
21.7936800408
 31
0.0
 11
-32.876482495
 21
21.7531025456
 31
0.0
 11
-32.8754530288
 21
21.6444117884
 31
0.0
 11
-32.8745705077
 21
21.5022133454
 31
0.0
 11
-32.8738658515
 21
21.3313201923
 31
0.0
 11
-32.8733623695
 21
21.1375604699
 31
0.0
 11
-32.8730224381
 21
20.708228144
 31
0.0
  0
SPLINE
  5
505
100
AcDbEntity
  8
RACCORDO
100
AcDbSpline
 62
253
  6
CONTINUOUS
 70
0
 71
3
 72
18
 73
14
 74
12
 42
0.0000001
 43
0.0000001
 44
0.0000000001
 12
0.0007380827
 22
0.6704349897
 32
0.0
 13
0.2987961745
 23
0.6001703644
 33
0.0
 40
0.0
 40
0.0
 40
0.0
 40
0.0
 40
0.1908169078
 40
0.3736874364
 40
0.5423171366
 40
0.6910365047
 40
0.8147878898
 40
0.8659678853
 40
0.9094205555
 40
0.9447879656
 40
0.9717829012
 40
0.9901964222
 40
1.0
 40
1.0
 40
1.0
 40
1.0
 10
33.361294204
 20
20.6873334122
 30
0.0
 10
33.3613411502
 20
20.7299768561
 30
0.0
 10
33.3616312534
 20
20.8134878646
 30
0.0
 10
33.3626607008
 20
20.9346801201
 30
0.0
 10
33.3642387979
 20
21.0464583431
 30
0.0
 10
33.3663085147
 20
21.1450129837
 30
0.0
 10
33.3684706633
 20
21.2173135404
 30
0.0
 10
33.3704829919
 20
21.2660735436
 30
0.0
 10
33.3719488353
 20
21.2950963945
 30
0.0
 10
33.3735018326
 20
21.3186748148
 30
0.0
 10
33.374972237
 20
21.3367144699
 30
0.0
 10
33.3766378432
 20
21.3488551239
 30
0.0
 10
33.3776880703
 20
21.3552009665
 30
0.0
 10
33.3786644941
 20
21.3571622388
 30
0.0
 11
33.361294204
 21
20.6873334122
 31
0.0
 11
33.3617467385
 21
20.815263021
 31
0.0
 11
33.362807283
 21
20.9378613091
 31
0.0
 11
33.3644393657
 21
21.0509048478
 31
0.0
 11
33.3665870689
 21
21.1505884426
 31
0.0
 11
33.3691773276
 21
21.2335153074
 31
0.0
 11
33.3706112462
 21
21.2677982134
 31
0.0
 11
33.372121469
 21
21.2968912501
 31
0.0
 11
33.3736954551
 21
21.320550515
 31
0.0
 11
33.3753204492
 21
21.3385757761
 31
0.0
 11
33.3769823213
 21
21.3508084819
 31
0.0
 11
33.3786644941
 21
21.3571622388
 31
0.0
  0
SPLINE
  5
506
100
AcDbEntity
  8
RACCORDO
100
AcDbSpline
 62
253
  6
CONTINUOUS
 70
0
 71
3
 72
18
 73
14
 74
12
 42
0.0000001
 43
0.0000001
 44
0.0000000001
 12
-0.2987961815
 22
0.6001703607
 32
0.0
 13
-0.0007380826
 23
0.6704349895
 33
0.0
 40
0.0
 40
0.0
 40
0.0
 40
0.0
 40
0.0098035778
 40
0.0282170989
 40
0.0552120345
 40
0.0905794446
 40
0.1340321148
 40
0.1852121103
 40
0.3089634955
 40
0.4576828637
 40
0.6263125643
 40
0.8091830929
 40
1.0
 40
1.0
 40
1.0
 40
1.0
 10
33.3786644944
 20
-21.3571622394
 30
0.0
 10
33.3776880705
 20
-21.3552009671
 30
0.0
 10
33.3766378435
 20
-21.3488551245
 30
0.0
 10
33.3749722373
 20
-21.3367144704
 30
0.0
 10
33.3735018329
 20
-21.3186748154
 30
0.0
 10
33.3719488356
 20
-21.2950963951
 30
0.0
 10
33.3704829922
 20
-21.2660735441
 30
0.0
 10
33.3684706636
 20
-21.217313541
 30
0.0
 10
33.366308515
 20
-21.1450129842
 30
0.0
 10
33.3642387981
 20
-21.0464583435
 30
0.0
 10
33.3626607011
 20
-20.9346801204
 30
0.0
 10
33.3616312537
 20
-20.813487865
 30
0.0
 10
33.3613411503
 20
-20.7299768566
 30
0.0
 10
33.3612942041
 20
-20.6873334129
 30
0.0
 11
33.3786644944
 21
-21.3571622394
 31
0.0
 11
33.3769823216
 21
-21.3508084825
 31
0.0
 11
33.3753204495
 21
-21.3385757767
 31
0.0
 11
33.3736954554
 21
-21.3205505155
 31
0.0
 11
33.3721214692
 21
-21.2968912506
 31
0.0
 11
33.3706112465
 21
-21.267798214
 31
0.0
 11
33.3691773279
 21
-21.233515308
 31
0.0
 11
33.3665870692
 21
-21.1505884431
 31
0.0
 11
33.364439366
 21
-21.0509048483
 31
0.0
 11
33.3628072833
 21
-20.9378613094
 31
0.0
 11
33.3617467388
 21
-20.8152630212
 31
0.0
 11
33.3612942041
 21
-20.6873334129
 31
0.0
  0
SPLINE
  5
507
100
AcDbEntity
  8
RACCORDO
100
AcDbSpline
 62
253
  6
CONTINUOUS
 70
0
 71
3
 72
18
 73
14
 74
12
 42
0.0000001
 43
0.0000001
 44
0.0000000001
 12
-0.0007380827
 22
-0.6704349897
 32
0.0
 13
-0.2987961745
 23
-0.6001703644
 33
0.0
 40
0.0
 40
0.0
 40
0.0
 40
0.0
 40
0.1908169078
 40
0.3736874364
 40
0.5423171366
 40
0.6910365047
 40
0.8147878898
 40
0.8659678853
 40
0.9094205555
 40
0.9447879656
 40
0.9717829012
 40
0.9901964222
 40
1.0
 40
1.0
 40
1.0
 40
1.0
 10
-33.361294204
 20
-20.6873334122
 30
0.0
 10
-33.3613411502
 20
-20.7299768561
 30
0.0
 10
-33.3616312534
 20
-20.8134878646
 30
0.0
 10
-33.3626607008
 20
-20.9346801201
 30
0.0
 10
-33.3642387979
 20
-21.0464583431
 30
0.0
 10
-33.3663085147
 20
-21.1450129837
 30
0.0
 10
-33.3684706633
 20
-21.2173135404
 30
0.0
 10
-33.3704829919
 20
-21.2660735436
 30
0.0
 10
-33.3719488353
 20
-21.2950963945
 30
0.0
 10
-33.3735018326
 20
-21.3186748148
 30
0.0
 10
-33.374972237
 20
-21.3367144699
 30
0.0
 10
-33.3766378432
 20
-21.3488551239
 30
0.0
 10
-33.3776880703
 20
-21.3552009665
 30
0.0
 10
-33.3786644941
 20
-21.3571622388
 30
0.0
 11
-33.361294204
 21
-20.6873334122
 31
0.0
 11
-33.3617467386
 21
-20.815263021
 31
0.0
 11
-33.362807283
 21
-20.9378613091
 31
0.0
 11
-33.3644393657
 21
-21.0509048479
 31
0.0
 11
-33.3665870689
 21
-21.1505884427
 31
0.0
 11
-33.3691773276
 21
-21.2335153074
 31
0.0
 11
-33.3706112462
 21
-21.2677982135
 31
0.0
 11
-33.372121469
 21
-21.2968912501
 31
0.0
 11
-33.3736954551
 21
-21.320550515
 31
0.0
 11
-33.3753204492
 21
-21.3385757761
 31
0.0
 11
-33.3769823213
 21
-21.3508084819
 31
0.0
 11
-33.3786644941
 21
-21.3571622388
 31
0.0
  0
SPLINE
  5
508
100
AcDbEntity
  8
RACCORDO
100
AcDbSpline
 62
253
  6
CONTINUOUS
 70
0
 71
3
 72
18
 73
14
 74
12
 42
0.0000001
 43
0.0000001
 44
0.0000000001
 12
0.2987961815
 22
-0.6001703607
 32
0.0
 13
0.0007380826
 23
-0.6704349895
 33
0.0
 40
0.0
 40
0.0
 40
0.0
 40
0.0
 40
0.0098035778
 40
0.0282170989
 40
0.0552120345
 40
0.0905794446
 40
0.1340321148
 40
0.1852121103
 40
0.3089634955
 40
0.4576828637
 40
0.6263125643
 40
0.809183093
 40
1.0
 40
1.0
 40
1.0
 40
1.0
 10
-33.3786644944
 20
21.3571622394
 30
0.0
 10
-33.3776880706
 20
21.3552009672
 30
0.0
 10
-33.3766378435
 20
21.3488551245
 30
0.0
 10
-33.3749722373
 20
21.3367144704
 30
0.0
 10
-33.3735018329
 20
21.3186748154
 30
0.0
 10
-33.3719488356
 20
21.2950963951
 30
0.0
 10
-33.3704829922
 20
21.2660735442
 30
0.0
 10
-33.3684706636
 20
21.217313541
 30
0.0
 10
-33.366308515
 20
21.1450129842
 30
0.0
 10
-33.3642387982
 20
21.0464583435
 30
0.0
 10
-33.3626607011
 20
20.9346801205
 30
0.0
 10
-33.3616312537
 20
20.813487865
 30
0.0
 10
-33.3613411504
 20
20.7299768567
 30
0.0
 10
-33.3612942041
 20
20.687333413
 30
0.0
 11
-33.3786644944
 21
21.3571622394
 31
0.0
 11
-33.3769823216
 21
21.3508084825
 31
0.0
 11
-33.3753204495
 21
21.3385757767
 31
0.0
 11
-33.3736954554
 21
21.3205505155
 31
0.0
 11
-33.3721214693
 21
21.2968912507
 31
0.0
 11
-33.3706112465
 21
21.2677982141
 31
0.0
 11
-33.3691773279
 21
21.233515308
 31
0.0
 11
-33.3665870692
 21
21.1505884432
 31
0.0
 11
-33.364439366
 21
21.0509048483
 31
0.0
 11
-33.3628072833
 21
20.9378613094
 31
0.0
 11
-33.3617467388
 21
20.8152630212
 31
0.0
 11
-33.3612942041
 21
20.687333413
 31
0.0
  0
SPLINE
  5
509
100
AcDbEntity
  8
RACCORDO
100
AcDbSpline
 62
253
  6
CONTINUOUS
 70
0
 71
3
 72
9
 73
5
 74
3
 42
0.0000001
 43
0.0000001
 44
0.0000000001
 12
0.0327461522
 22
-41.4164457701
 32
0.0
 13
-0.0327461535
 23
-41.4164457701
 33
0.0
 40
0.0
 40
0.0
 40
0.0
 40
0.0
 40
0.2499444994
 40
1.0
 40
1.0
 40
1.0
 40
1.0
 10
-32.8730224304
 20
20.7082281446
 30
0.0
 10
-32.8702941902
 20
17.257623876
 30
0.0
 10
-32.8621076986
 20
3.4521399301
 30
0.0
 10
-32.8648352815
 20
-10.3533504895
 30
0.0
 10
-32.8730224257
 20
-20.7082281443
 30
0.0
 11
-32.8730224304
 21
20.7082281446
 31
0.0
 11
-32.8668836799
 21
10.3564139235
 31
0.0
 11
-32.8730224257
 21
-20.7082281443
 31
0.0
  0
SPLINE
  5
50A
100
AcDbEntity
  8
RACCORDO
100
AcDbSpline
 62
253
  6
CONTINUOUS
 70
0
 71
3
 72
9
 73
5
 74
3
 42
0.0000001
 43
0.0000001
 44
0.0000000001
 12
-65.7460385349
 22
-0.0319929088
 32
0.0
 13
-65.7460385349
 23
0.0319930381
 33
0.0
 40
0.0
 40
0.0
 40
0.0
 40
0.0
 40
0.2499830911
 40
1.0
 40
1.0
 40
1.0
 40
1.0
 10
32.8730224256
 20
20.7082281438
 30
0.0
 10
27.3945564455
 20
20.7055622484
 30
0.0
 10
5.4792090576
 20
20.6975441922
 30
0.0
 10
-16.4361422322
 20
20.7002297047
 30
0.0
 10
-32.8730224304
 20
20.7082281446
 30
0.0
 11
32.8730224256
 21
20.7082281438
 31
0.0
 11
16.4376236368
 21
20.702222374
 31
0.0
 11
-32.8730224304
 21
20.7082281446
 31
0.0
  0
SPLINE
  5
50B
100
AcDbEntity
  8
RACCORDO
100
AcDbSpline
 62
253
  6
CONTINUOUS
 70
0
 71
3
 72
9
 73
5
 74
3
 42
0.0000001
 43
0.0000001
 44
0.0000000001
 12
-0.0327461535
 22
41.4164457701
 32
0.0
 13
0.0327461522
 23
41.4164457701
 33
0.0
 40
0.0
 40
0.0
 40
0.0
 40
0.0
 40
0.2499444994
 40
1.0
 40
1.0
 40
1.0
 40
1.0
 10
32.8730224302
 20
-20.708228145
 30
0.0
 10
32.8702941899
 20
-17.2576238765
 30
0.0
 10
32.8621076989
 20
-3.4521399306
 30
0.0
 10
32.8648352818
 20
10.353350489
 30
0.0
 10
32.8730224256
 20
20.7082281438
 30
0.0
 11
32.8730224302
 21
-20.708228145
 31
0.0
 11
32.8668836799
 21
-10.356413924
 31
0.0
 11
32.8730224256
 21
20.7082281438
 31
0.0
  0
SPLINE
  5
50C
100
AcDbEntity
  8
RACCORDO
100
AcDbSpline
 62
253
  6
CONTINUOUS
 70
0
 71
3
 72
9
 73
5
 74
3
 42
0.0000001
 43
0.0000001
 44
0.0000000001
 12
65.7460385349
 22
0.0319929108
 32
0.0
 13
65.7460385348
 23
-0.0319930339
 33
0.0
 40
0.0
 40
0.0
 40
0.0
 40
0.0
 40
0.2499830911
 40
1.0
 40
1.0
 40
1.0
 40
1.0
 10
-32.8730224257
 20
-20.7082281443
 30
0.0
 10
-27.394556446
 20
-20.7055622487
 30
0.0
 10
-5.4792090582
 20
-20.6975441916
 30
0.0
 10
16.4361422316
 20
-20.7002297062
 30
0.0
 10
32.8730224302
 20
-20.708228145
 30
0.0
 11
-32.8730224257
 21
-20.7082281443
 31
0.0
 11
-16.4376236382
 21
-20.702222374
 31
0.0
 11
32.8730224302
 21
-20.708228145
 31
0.0
  0
LINE
  5
50D
100
AcDbEntity
  8
0
100
AcDbLine
 62
7
  6
CONTINUOUS
 10
-73.9418760436
 20
-14.0042344185
 11
-73.9278824506
 21
-14.3983711687
  0
LINE
  5
50E
100
AcDbEntity
  8
0
100
AcDbLine
 62
7
  6
CONTINUOUS
 10
-73.9437691933
 20
-13.9500982073
 11
-73.9418760436
 21
-14.0042344185
  0
LINE
  5
50F
100
AcDbEntity
  8
0
100
AcDbLine
 62
7
  6
CONTINUOUS
 10
-74.0999572126
 20
-8.349912301
 11
-74.0855332168
 21
-8.9762790307
  0
LINE
  5
510
100
AcDbEntity
  8
0
100
AcDbLine
 62
7
  6
CONTINUOUS
 10
-74.0855332168
 20
-8.9762790307
 11
-74.0778484084
 21
-9.2992187425
  0
LINE
  5
511
100
AcDbEntity
  8
0
100
AcDbLine
 62
7
  6
CONTINUOUS
 10
-74.0778484084
 20
-9.2992187425
 11
-74.0767149111
 21
-9.3462570864
  0
SPLINE
  5
512
100
AcDbEntity
  8
0
100
AcDbSpline
 62
7
  6
CONTINUOUS
 70
0
 71
3
 72
9
 73
5
 74
3
 42
0.0000001
 43
0.0000001
 44
0.0000000001
 12
0.0112202133
 22
-0.3269699032
 32
0.0
 13
0.0087884311
 23
-0.3270443002
 33
0.0
 40
0.0
 40
0.0
 40
0.0
 40
0.0
 40
0.6216488688
 40
1.0
 40
1.0
 40
1.0
 40
1.0
 10
-73.9516805627
 20
-13.6112411236
 30
0.0
 10
-73.9493555517
 20
-13.6789946138
 30
0.0
 10
-73.9457443248
 20
-13.787988427
 30
0.0
 10
-73.9420498996
 20
-13.8969811336
 30
0.0
 10
-73.9409415287
 20
-13.9382269939
 30
0.0
 11
-73.9516805627
 21
-13.6112411236
 31
0.0
 11
-73.9448335697
 21
-13.8145059475
 31
0.0
 11
-73.9409415287
 21
-13.9382269939
 31
0.0
  0
LINE
  5
513
100
AcDbEntity
  8
0
100
AcDbLine
 62
7
  6
CONTINUOUS
 10
-74.0767149035
 20
-9.3462574561
 11
-74.0726755175
 21
-9.512159672
  0
LINE
  5
514
100
AcDbEntity
  8
0
100
AcDbLine
 62
7
  6
CONTINUOUS
 10
-74.0726755175
 20
-9.512159672
 11
-74.069726605
 21
-9.6314963416
  0
LINE
  5
515
100
AcDbEntity
  8
0
100
AcDbLine
 62
7
  6
CONTINUOUS
 10
-73.9704289163
 20
-13.054503861
 11
-73.9605720855
 21
-13.349842899
  0
LINE
  5
516
100
AcDbEntity
  8
0
100
AcDbLine
 62
7
  6
CONTINUOUS
 10
-73.9605720855
 20
-13.349842899
 11
-73.9516805633
 21
-13.6112410853
  0
LINE
  5
517
100
AcDbEntity
  8
0
100
AcDbLine
 62
7
  6
CONTINUOUS
 10
-73.941480703
 20
-13.9499973912
 11
-73.9418205595
 21
-13.9499985454
  0
SPLINE
  5
518
100
AcDbEntity
  8
0
100
AcDbSpline
 62
7
  6
CONTINUOUS
 70
0
 71
3
 72
22
 73
18
 74
16
 42
0.0000001
 43
0.0000001
 44
0.0000000001
 12
0.0116241844
 22
-0.3387419355
 32
0.0
 13
-0.3383413039
 23
-0.0201589345
 33
0.0
 40
0.0
 40
0.0
 40
0.0
 40
0.0
 40
0.1871875758
 40
0.3725560031
 40
0.5460850345
 40
0.699021209
 40
0.7663066327
 40
0.8264233857
 40
0.8784463426
 40
0.9216653712
 40
0.9557043374
 40
0.969172953
 40
0.9802273203
 40
0.9888514338
 40
0.9950307832
 40
0.9987510784
 40
1.0
 40
1.0
 40
1.0
 40
1.0
 10
-73.9516806496
 20
-13.6112385913
 30
0.0
 10
-73.9509553487
 20
-13.6323746852
 30
0.0
 10
-73.949519555
 20
-13.6744417353
 30
0.0
 10
-73.9474376429
 20
-13.7361035161
 30
0.0
 10
-73.9455092437
 20
-13.7938985857
 30
0.0
 10
-73.9440483054
 20
-13.8383606037
 30
0.0
 10
-73.9430259995
 20
-13.8700170438
 30
0.0
 10
-73.942381638
 20
-13.8902778582
 30
0.0
 10
-73.9418327342
 20
-13.9078232034
 30
0.0
 10
-73.9413934478
 20
-13.9224187771
 30
0.0
 10
-73.9410869373
 20
-13.9326739177
 30
0.0
 10
-73.9409194834
 20
-13.939273739
 30
0.0
 10
-73.9407960528
 20
-13.9430471969
 30
0.0
 10
-73.9407996752
 20
-13.9458908319
 30
0.0
 10
-73.9405980627
 20
-13.9481582303
 30
0.0
 10
-73.9408694463
 20
-13.9491096164
 30
0.0
 10
-73.9405784555
 20
-13.9499916051
 30
0.0
 10
-73.9407193094
 20
-13.9499999974
 30
0.0
 11
-73.9516806496
 21
-13.6112385913
 31
0.0
 11
-73.9495164443
 21
-13.6746472734
 31
0.0
 11
-73.9473967955
 21
-13.7374405282
 31
0.0
 11
-73.9454369441
 21
-13.7962240259
 31
0.0
 11
-73.9437372721
 21
-13.8480325423
 31
0.0
 11
-73.9430018273
 21
-13.8708264914
 31
0.0
 11
-73.9423544441
 21
-13.8911922564
 31
0.0
 11
-73.941805471
 21
-13.9088164383
 31
0.0
 11
-73.9413627267
 21
-13.9234584608
 31
0.0
 11
-73.9410300994
 21
-13.9349908771
 31
0.0
 11
-73.9409061866
 21
-13.9395542654
 31
0.0
 11
-73.9408109966
 21
-13.9432998379
 31
0.0
 11
-73.9407446306
 21
-13.9462221528
 31
0.0
 11
-73.9407071719
 21
-13.9483162547
 31
0.0
 11
-73.9406987038
 21
-13.9495771881
 31
0.0
 11
-73.9407193094
 21
-13.9499999974
 31
0.0
  0
LINE
  5
519
100
AcDbEntity
  8
0
100
AcDbLine
 62
7
  6
CONTINUOUS
 10
-74.0767151164
 20
-9.3462486359
 11
-74.0697265807
 21
-9.6314973163
  0
LINE
  5
51A
100
AcDbEntity
  8
0
100
AcDbLine
 62
7
  6
CONTINUOUS
 10
-74.0697265807
 20
-9.6314973163
 11
-74.0685327601
 21
-9.679398885
  0
LINE
  5
51B
100
AcDbEntity
  8
0
100
AcDbLine
 62
7
  6
CONTINUOUS
 10
-73.9418759673
 20
-14.0042365971
 11
-73.9407308574
 21
-14.0368869655
  0
LINE
  5
51C
100
AcDbEntity
  8
0
100
AcDbLine
 62
7
  6
CONTINUOUS
 10
-73.9407308574
 20
-14.0368869655
 11
-73.9400961073
 21
-14.054954994
  0
LINE
  5
51D
100
AcDbEntity
  8
0
100
AcDbLine
 62
7
  6
CONTINUOUS
 10
-73.9400961073
 20
-14.054954994
 11
-73.9278838822
 21
-14.3983314135
  0
LINE
  5
51E
100
AcDbEntity
  8
0
100
AcDbLine
 62
7
  6
CONTINUOUS
 10
-73.9278838822
 20
-14.3983314135
 11
-73.9271411861
 21
-14.418938445
  0
LINE
  5
51F
100
AcDbEntity
  8
0
100
AcDbLine
 62
7
  6
CONTINUOUS
 10
-73.9271411861
 20
-14.418938445
 11
-73.918499638
 21
-14.653808999
  0
LINE
  5
520
100
AcDbEntity
  8
0
100
AcDbLine
 62
7
  6
CONTINUOUS
 10
-73.9436706087
 20
-13.9529221315
 11
-73.9420570555
 21
-13.9990666783
  0
LINE
  5
521
100
AcDbEntity
  8
0
100
AcDbLine
 62
7
  6
CONTINUOUS
 10
-73.9420570555
 20
-13.9990666783
 11
-73.9418759673
 21
-14.0042365971
  0
LINE
  5
522
100
AcDbEntity
  8
0
100
AcDbLine
 62
7
  6
CONTINUOUS
 10
-74.0999572126
 20
-8.349912301
 11
-74.0992743195
 21
-8.3801978099
  0
LINE
  5
523
100
AcDbEntity
  8
0
100
AcDbLine
 62
7
  6
CONTINUOUS
 10
-74.0992743195
 20
-8.3801978099
 11
-74.0874631412
 21
-8.89403929
  0
LINE
  5
524
100
AcDbEntity
  8
0
100
AcDbLine
 62
7
  6
CONTINUOUS
 10
-74.0874631412
 20
-8.89403929
 11
-74.0855275908
 21
-8.9765180928
  0
LINE
  5
525
100
AcDbEntity
  8
0
100
AcDbLine
 62
7
  6
CONTINUOUS
 10
-74.0855275908
 20
-8.9765180928
 11
-74.077848511
 21
-9.2992144798
  0
LINE
  5
526
100
AcDbEntity
  8
RACCORDO
100
AcDbLine
 62
253
  6
CONTINUOUS
 10
-73.2704053135
 20
20.7082281438
 11
-73.6511206162
 21
20.7002166039
  0
LINE
  5
527
100
AcDbEntity
  8
RACCORDO
100
AcDbLine
 62
253
  6
CONTINUOUS
 10
-73.6511206161
 20
-20.7002166039
 11
-73.2704053133
 21
-20.708228145
  0
SPLINE
  5
528
100
AcDbEntity
  8
RACCORDO
100
AcDbSpline
 62
253
  6
CONTINUOUS
 70
0
 71
3
 72
20
 73
16
 74
14
 42
0.0000001
 43
0.0000001
 44
0.0000000001
 12
-0.4993512461
 22
-0.0261698899
 32
0.0
 13
0.0261520065
 23
-0.4993521831
 33
0.0
 40
0.0
 40
0.0
 40
0.0
 40
0.0
 40
0.0017592822
 40
0.0055942363
 40
0.0201940068
 40
0.0441045176
 40
0.0772031582
 40
0.1191597488
 40
0.1695562879
 40
0.2279614752
 40
0.2938048909
 40
0.4450928598
 40
0.6177145956
 40
0.8052818974
 40
1.0
 40
1.0
 40
1.0
 40
1.0
 10
-72.1337991504
 20
21.8564770062
 30
0.0
 10
-72.1340919837
 20
21.8564616594
 30
0.0
 10
-72.1346487986
 20
21.8554463828
 30
0.0
 10
-72.1353167944
 20
21.8523836315
 30
0.0
 10
-72.1360606149
 20
21.8451190584
 30
0.0
 10
-72.1365633986
 20
21.8333274981
 30
0.0
 10
-72.1368719091
 20
21.8167750591
 30
0.0
 10
-72.1368982368
 20
21.7958867009
 30
0.0
 10
-72.1366620261
 20
21.7707513608
 30
0.0
 10
-72.1361497875
 20
21.7416485871
 30
0.0
 10
-72.1350558874
 20
21.6957342082
 30
0.0
 10
-72.1330066098
 20
21.6308026445
 30
0.0
 10
-72.1297100638
 20
21.545613267
 30
0.0
 10
-72.1255877042
 20
21.4532135028
 30
0.0
 10
-72.1224170695
 20
21.3895732087
 30
0.0
 10
-72.1207196465
 20
21.3571622388
 30
0.0
 11
-72.1337991504
 21
21.8564770062
 31
0.0
 11
-72.1344054325
 21
21.8558395867
 31
0.0
 11
-72.1349483298
 21
21.8540004244
 31
0.0
 11
-72.1358387031
 21
21.8467545051
 31
0.0
 11
-72.1364597365
 21
21.8348145162
 31
0.0
 11
-72.1368018577
 21
21.8182675233
 31
0.0
 11
-72.1368626001
 21
21.7972877833
 31
0.0
 11
-72.1366426822
 21
21.7720886325
 31
0.0
 11
-72.1361431325
 21
21.7428881781
 31
0.0
 11
-72.1353693953
 21
21.709973158
 31
0.0
 11
-72.1330348861
 21
21.6343596767
 31
0.0
 11
-72.1297250036
 21
21.5481059861
 31
0.0
 11
-72.1255612236
 21
21.4544079536
 31
0.0
 11
-72.1207196465
 21
21.3571622388
 31
0.0
  0
SPLINE
  5
529
100
AcDbEntity
  8
RACCORDO
100
AcDbSpline
 62
253
  6
CONTINUOUS
 70
0
 71
3
 72
20
 73
16
 74
14
 42
0.0000001
 43
0.0000001
 44
0.0000000001
 12
-0.4993512487
 22
0.02616989
 32
0.0
 13
0.0261520397
 23
0.4993521839
 33
0.0
 40
0.0
 40
0.0
 40
0.0
 40
0.0
 40
0.0017592849
 40
0.0055942412
 40
0.0201940163
 40
0.0441045311
 40
0.0772031763
 40
0.119159775
 40
0.1695563206
 40
0.2279615106
 40
0.2938049322
 40
0.4450929081
 40
0.6177146368
 40
0.8052819109
 40
1.0
 40
1.0
 40
1.0
 40
1.0
 10
-72.1337991391
 20
-21.8564770068
 30
0.0
 10
-72.1340919728
 20
-21.85646166
 30
0.0
 10
-72.1346487896
 20
-21.8554463837
 30
0.0
 10
-72.1353167873
 20
-21.8523836303
 30
0.0
 10
-72.1360606103
 20
-21.8451190565
 30
0.0
 10
-72.1365633961
 20
-21.8333274935
 30
0.0
 10
-72.1368719086
 20
-21.8167750519
 30
0.0
 10
-72.1368982376
 20
-21.7958866903
 30
0.0
 10
-72.1366620279
 20
-21.7707513472
 30
0.0
 10
-72.1361497897
 20
-21.7416485708
 30
0.0
 10
-72.1350558895
 20
-21.6957341891
 30
0.0
 10
-72.1330066108
 20
-21.6308026241
 30
0.0
 10
-72.1297100618
 20
-21.5456132509
 30
0.0
 10
-72.1255876984
 20
-21.4532134945
 30
0.0
 10
-72.1224170602
 20
-21.3895732071
 30
0.0
 10
-72.1207196351
 20
-21.3571622394
 30
0.0
 11
-72.1337991391
 21
-21.8564770068
 31
0.0
 11
-72.1344054228
 21
-21.855839587
 31
0.0
 11
-72.1349483217
 21
-21.854000424
 31
0.0
 11
-72.1358386978
 21
-21.8467545027
 31
0.0
 11
-72.1364597337
 21
-21.8348145119
 31
0.0
 11
-72.1368018568
 21
-21.8182675166
 31
0.0
 11
-72.1368626007
 21
-21.7972877725
 31
0.0
 11
-72.1366426837
 21
-21.7720886182
 31
0.0
 11
-72.1361431347
 21
-21.7428881623
 31
0.0
 11
-72.1353693974
 21
-21.7099731391
 31
0.0
 11
-72.1330348869
 21
-21.6343596539
 31
0.0
 11
-72.1297250014
 21
-21.5481059666
 31
0.0
 11
-72.1255612178
 21
-21.4544079477
 31
0.0
 11
-72.1207196351
 21
-21.3571622394
 31
0.0
  0
SPLINE
  5
52A
100
AcDbEntity
  8
0
100
AcDbSpline
 62
7
  6
CONTINUOUS
 70
0
 71
3
 72
13
 73
9
 74
7
 42
0.0000001
 43
0.0000001
 44
0.0000000001
 12
-0.2489101548
 22
-0.143711993
 32
0.0
 13
-0.244355276
 23
-0.1513687366
 33
0.0
 40
0.0
 40
0.0
 40
0.0
 40
0.0
 40
0.3612210663
 40
0.682170423
 40
0.812667465
 40
0.9137049675
 40
0.9780318448
 40
1.0
 40
1.0
 40
1.0
 40
1.0
 10
-65.1385580516
 20
23.2669872981
 30
0.0
 10
-65.1685285821
 20
23.249683365
 30
0.0
 10
-65.2251159576
 20
23.2169831279
 30
0.0
 10
-65.2924802486
 20
23.1779450624
 30
0.0
 10
-65.338259217
 20
23.1513733071
 30
0.0
 10
-65.3627256962
 20
23.1370619739
 30
0.0
 10
-65.3782532833
 20
23.1280587384
 30
0.0
 10
-65.3853142739
 20
23.1237581614
 30
0.0
 10
-65.3871036188
 20
23.1226497308
 30
0.0
 11
-65.1385580516
 21
23.2669872981
 31
0.0
 11
-65.228445261
 21
23.2150332915
 31
0.0
 11
-65.3082599526
 21
23.1687830511
 31
0.0
 11
-65.3406881409
 21
23.1499360992
 31
0.0
 11
-65.3657733669
 21
23.1353054509
 31
0.0
 11
-65.3817132861
 21
23.1259378303
 31
0.0
 11
-65.3871036188
 21
23.1226497308
 31
0.0
  0
SPLINE
  5
52B
100
AcDbEntity
  8
0
100
AcDbSpline
 62
253
  6
CONTINUOUS
 70
0
 71
3
 72
26
 73
22
 74
20
 42
0.0000001
 43
0.0000001
 44
0.0000000001
 12
-0.124641584
 22
-0.2158928633
 32
0.0
 13
0.2158910366
 23
-0.124644748
 33
0.0
 40
0.0
 40
0.0
 40
0.0
 40
0.0
 40
0.1952371571
 40
0.3828765725
 40
0.5557521165
 40
0.6345528919
 40
0.7072369656
 40
0.7731083045
 40
0.8315338818
 40
0.8819524705
 40
0.9238825345
 40
0.9415345162
 40
0.9569212041
 40
0.9700029814
 40
0.9807505693
 40
0.9891391953
 40
0.9951465425
 40
0.9972538056
 40
0.9987627805
 40
0.9996743239
 40
1.0
 40
1.0
 40
1.0
 40
1.0
 10
-66.1385580516
 20
23.8443375673
 30
0.0
 10
-66.1466696078
 20
23.8302874643
 30
0.0
 10
-66.16256368
 20
23.8027262996
 30
0.0
 10
-66.1855937561
 20
23.7626974834
 30
0.0
 10
-66.2037630884
 20
23.7310346506
 30
0.0
 10
-66.2171527499
 20
23.7076424988
 30
0.0
 10
-66.2261123903
 20
23.6919598928
 30
0.0
 10
-66.2342182876
 20
23.6777394869
 30
0.0
 10
-66.2413927837
 20
23.6651178186
 30
0.0
 10
-66.247567084
 20
23.6542160512
 30
0.0
 10
-66.2520549803
 20
23.6462528792
 30
0.0
 10
-66.2550995219
 20
23.6408180126
 30
0.0
 10
-66.2569656469
 20
23.6374702745
 30
0.0
 10
-66.2585434413
 20
23.6346199041
 30
0.0
 10
-66.2598327179
 20
23.6322710394
 30
0.0
 10
-66.2608215311
 20
23.6304369747
 30
0.0
 10
-66.2614714381
 20
23.6292158937
 30
0.0
 10
-66.2618190826
 20
23.6285132656
 30
0.0
 10
-66.262002653
 20
23.6281552613
 30
0.0
 10
-66.2620556845
 20
23.627979116
 30
0.0
 10
-66.2621270556
 20
23.6278447476
 30
0.0
 10
-66.2621036188
 20
23.6278312164
 30
0.0
 11
-66.1385580516
 21
23.8443375673
 31
0.0
 11
-66.1628718332
 21
23.8021752067
 31
0.0
 11
-66.1861976311
 21
23.761629536
 31
0.0
 11
-66.2076445877
 21
23.7242490838
 31
0.0
 11
-66.2174028221
 21
23.7071999878
 31
0.0
 11
-66.2263905358
 21
23.6914668129
 31
0.0
 11
-66.2345216562
 21
23.6772002365
 31
0.0
 11
-66.2417180302
 21
23.664537377
 31
0.0
 11
-66.2479105156
 21
23.6535998967
 31
0.0
 11
-66.2530399499
 21
23.644492298
 31
0.0
 11
-66.2551901137
 21
23.6406529246
 31
0.0
 11
-66.257057007
 21
23.6373021623
 31
0.0
 11
-66.2586358017
 21
23.6344486549
 31
0.0
 11
-66.2599229486
 21
23.632098827
 31
0.0
 11
-66.2609154423
 21
23.6302581591
 31
0.0
 11
-66.2616105436
 21
23.6289316804
 31
0.0
 11
-66.2618461215
 21
23.6284621459
 31
0.0
 11
-66.2620069014
 21
23.6281220652
 31
0.0
 11
-66.2620927711
 21
23.627911676
 31
0.0
 11
-66.2621036188
 21
23.6278312164
 31
0.0
  0
SPLINE
  5
52C
100
AcDbEntity
  8
0
100
AcDbSpline
 62
253
  6
CONTINUOUS
 70
0
 71
3
 72
26
 73
22
 74
20
 42
0.0000001
 43
0.0000001
 44
0.0000000001
 12
0.124641584
 22
-0.2158928633
 32
0.0
 13
-0.2158910366
 23
-0.1246447481
 33
0.0
 40
0.0
 40
0.0
 40
0.0
 40
0.0
 40
0.1952373303
 40
0.3828767077
 40
0.5557522251
 40
0.6345529812
 40
0.7072370395
 40
0.7731083627
 40
0.8315339236
 40
0.8819525002
 40
0.9238825542
 40
0.9415345305
 40
0.9569212142
 40
0.9700029891
 40
0.9807505739
 40
0.9891391978
 40
0.995146544
 40
0.9972538066
 40
0.998762781
 40
0.999674324
 40
1.0
 40
1.0
 40
1.0
 40
1.0
 10
-63.1356491859
 20
23.8443375673
 30
0.0
 10
-63.1275376226
 20
23.8302874519
 30
0.0
 10
-63.1116435447
 20
23.8027262774
 30
0.0
 10
-63.0886134642
 20
23.7626974533
 30
0.0
 10
-63.0704441353
 20
23.7310346265
 30
0.0
 10
-63.0570544764
 20
23.7076424792
 30
0.0
 10
-63.0480948381
 20
23.6919598769
 30
0.0
 10
-63.0399889428
 20
23.6777394743
 30
0.0
 10
-63.0328144485
 20
23.6651178092
 30
0.0
 10
-63.0266401498
 20
23.6542160446
 30
0.0
 10
-63.0221522546
 20
23.6462528745
 30
0.0
 10
-63.0191077139
 20
23.6408180094
 30
0.0
 10
-63.0172415893
 20
23.6374702721
 30
0.0
 10
-63.0156637953
 20
23.6346199025
 30
0.0
 10
-63.0143745191
 20
23.6322710383
 30
0.0
 10
-63.0133857061
 20
23.630436974
 30
0.0
 10
-63.0127357992
 20
23.6292158934
 30
0.0
 10
-63.0123881548
 20
23.6285132654
 30
0.0
 10
-63.0122045845
 20
23.6281552612
 30
0.0
 10
-63.012151553
 20
23.627979116
 30
0.0
 10
-63.0120801819
 20
23.6278447476
 30
0.0
 10
-63.0121036188
 20
23.6278312164
 30
0.0
 11
-63.1356491859
 21
23.8443375673
 31
0.0
 11
-63.1113353827
 21
23.8021751692
 31
0.0
 11
-63.0880095897
 21
23.7616295068
 31
0.0
 11
-63.0665626364
 21
23.7242490603
 31
0.0
 11
-63.0568044044
 21
23.7071999685
 31
0.0
 11
-63.0478166926
 21
23.6914667969
 31
0.0
 11
-63.0396855741
 21
23.6772002239
 31
0.0
 11
-63.0324892022
 21
23.6645373679
 31
0.0
 11
-63.0262967182
 21
23.6535998903
 31
0.0
 11
-63.0211672852
 21
23.6444922937
 31
0.0
 11
-63.0190171221
 21
23.6406529215
 31
0.0
 11
-63.0171502293
 21
23.6373021601
 31
0.0
 11
-63.0155714349
 21
23.6344486533
 31
0.0
 11
-63.0142842884
 21
23.632098826
 31
0.0
 11
-63.0132917949
 21
23.6302581585
 31
0.0
 11
-63.0125966937
 21
23.6289316801
 31
0.0
 11
-63.0123611159
 21
23.6284621457
 31
0.0
 11
-63.0122003361
 21
23.628122065
 31
0.0
 11
-63.0121144664
 21
23.627911676
 31
0.0
 11
-63.0121036188
 21
23.6278312164
 31
0.0
  0
SPLINE
  5
52D
100
AcDbEntity
  8
0
100
AcDbSpline
 62
253
  6
CONTINUOUS
 70
0
 71
3
 72
26
 73
22
 74
20
 42
0.0000001
 43
0.0000001
 44
0.0000000001
 12
0.124641584
 22
0.2158928634
 32
0.0
 13
-0.2158910366
 23
0.1246447481
 33
0.0
 40
0.0
 40
0.0
 40
0.0
 40
0.0
 40
0.1952373367
 40
0.3828767197
 40
0.5557522426
 40
0.6345529999
 40
0.7072370592
 40
0.7731083831
 40
0.8315339428
 40
0.8819525183
 40
0.923882571
 40
0.941534545
 40
0.956921227
 40
0.9700030008
 40
0.9807505828
 40
0.9891392048
 40
0.9951465495
 40
0.9972538103
 40
0.9987627829
 40
0.9996743245
 40
1.0
 40
1.0
 40
1.0
 40
1.0
 10
-63.1356491859
 20
-23.8443375673
 30
0.0
 10
-63.1275376223
 20
-23.8302874514
 30
0.0
 10
-63.1116435439
 20
-23.8027262761
 30
0.0
 10
-63.0886134627
 20
-23.7626974507
 30
0.0
 10
-63.0704441333
 20
-23.7310346231
 30
0.0
 10
-63.0570544741
 20
-23.7076424751
 30
0.0
 10
-63.0480948357
 20
-23.6919598726
 30
0.0
 10
-63.0399889403
 20
-23.67773947
 30
0.0
 10
-63.0328144461
 20
-23.665117805
 30
0.0
 10
-63.0266401476
 20
-23.6542160407
 30
0.0
 10
-63.0221522526
 20
-23.646252871
 30
0.0
 10
-63.0191077121
 20
-23.6408180062
 30
0.0
 10
-63.0172415877
 20
-23.6374702693
 30
0.0
 10
-63.015663794
 20
-23.6346199
 30
0.0
 10
-63.014374518
 20
-23.6322710363
 30
0.0
 10
-63.0133857053
 20
-23.6304369725
 30
0.0
 10
-63.0127357986
 20
-23.6292158922
 30
0.0
 10
-63.0123881543
 20
-23.6285132646
 30
0.0
 10
-63.0122045843
 20
-23.6281552608
 30
0.0
 10
-63.0121515528
 20
-23.6279791158
 30
0.0
 10
-63.012080182
 20
-23.6278447476
 30
0.0
 10
-63.0121036188
 20
-23.6278312164
 30
0.0
 11
-63.1356491859
 21
-23.8443375673
 31
0.0
 11
-63.111335382
 21
-23.8021751679
 31
0.0
 11
-63.0880095882
 21
-23.7616295042
 31
0.0
 11
-63.0665626342
 21
-23.7242490565
 31
0.0
 11
-63.056804402
 21
-23.7071999644
 31
0.0
 11
-63.0478166902
 21
-23.6914667926
 31
0.0
 11
-63.0396855716
 21
-23.6772002194
 31
0.0
 11
-63.0324891998
 21
-23.6645373638
 31
0.0
 11
-63.026296716
 21
-23.6535998863
 31
0.0
 11
-63.0211672832
 21
-23.6444922901
 31
0.0
 11
-63.0190171203
 21
-23.6406529184
 31
0.0
 11
-63.0171502277
 21
-23.6373021573
 31
0.0
 11
-63.0155714334
 21
-23.6344486507
 31
0.0
 11
-63.0142842874
 21
-23.632098824
 31
0.0
 11
-63.0132917941
 21
-23.630258157
 31
0.0
 11
-63.012596693
 21
-23.6289316788
 31
0.0
 11
-63.0123611154
 21
-23.6284621448
 31
0.0
 11
-63.0122003359
 21
-23.6281220646
 31
0.0
 11
-63.0121144663
 21
-23.6279116759
 31
0.0
 11
-63.0121036188
 21
-23.6278312164
 31
0.0
  0
LINE
  5
52E
100
AcDbEntity
  8
RACCORDO
100
AcDbLine
 62
253
  6
CONTINUOUS
 10
-52.0186995899
 20
18.5521029846
 11
-52.0836131423
 21
19.0166572575
  0
SPLINE
  5
52F
100
AcDbEntity
  8
0
100
AcDbSpline
 62
253
  6
CONTINUOUS
 70
0
 71
3
 72
26
 73
22
 74
20
 42
0.0000001
 43
0.0000001
 44
0.0000000001
 12
-0.124641584
 22
0.2158928633
 32
0.0
 13
0.2158910365
 23
0.1246447481
 33
0.0
 40
0.0
 40
0.0
 40
0.0
 40
0.0
 40
0.1952373303
 40
0.3828767077
 40
0.5557522251
 40
0.6345529812
 40
0.7072370395
 40
0.7731083627
 40
0.8315339236
 40
0.8819525002
 40
0.9238825542
 40
0.9415345305
 40
0.9569212142
 40
0.9700029891
 40
0.9807505739
 40
0.9891391978
 40
0.995146544
 40
0.9972538066
 40
0.998762781
 40
0.999674324
 40
1.0
 40
1.0
 40
1.0
 40
1.0
 10
-66.1385580516
 20
-23.8443375673
 30
0.0
 10
-66.146669615
 20
-23.8302874519
 30
0.0
 10
-66.1625636929
 20
-23.8027262774
 30
0.0
 10
-66.1855937733
 20
-23.7626974533
 30
0.0
 10
-66.2037631022
 20
-23.7310346265
 30
0.0
 10
-66.2171527611
 20
-23.7076424792
 30
0.0
 10
-66.2261123994
 20
-23.6919598769
 30
0.0
 10
-66.2342182947
 20
-23.6777394743
 30
0.0
 10
-66.241392789
 20
-23.6651178092
 30
0.0
 10
-66.2475670877
 20
-23.6542160446
 30
0.0
 10
-66.2520549829
 20
-23.6462528745
 30
0.0
 10
-66.2550995237
 20
-23.6408180094
 30
0.0
 10
-66.2569656482
 20
-23.6374702721
 30
0.0
 10
-66.2585434422
 20
-23.6346199025
 30
0.0
 10
-66.2598327185
 20
-23.6322710383
 30
0.0
 10
-66.2608215314
 20
-23.630436974
 30
0.0
 10
-66.2614714383
 20
-23.6292158934
 30
0.0
 10
-66.2618190828
 20
-23.6285132654
 30
0.0
 10
-66.262002653
 20
-23.6281552612
 30
0.0
 10
-66.2620556845
 20
-23.627979116
 30
0.0
 10
-66.2621270556
 20
-23.6278447476
 30
0.0
 10
-66.2621036188
 20
-23.6278312164
 30
0.0
 11
-66.1385580516
 21
-23.8443375673
 31
0.0
 11
-66.1628718548
 21
-23.8021751692
 31
0.0
 11
-66.1861976479
 21
-23.7616295068
 31
0.0
 11
-66.2076446011
 21
-23.7242490603
 31
0.0
 11
-66.2174028332
 21
-23.7071999685
 31
0.0
 11
-66.2263905449
 21
-23.6914667969
 31
0.0
 11
-66.2345216634
 21
-23.6772002239
 31
0.0
 11
-66.2417180353
 21
-23.6645373679
 31
0.0
 11
-66.2479105193
 21
-23.6535998903
 31
0.0
 11
-66.2530399523
 21
-23.6444922937
 31
0.0
 11
-66.2551901154
 21
-23.6406529215
 31
0.0
 11
-66.2570570083
 21
-23.6373021601
 31
0.0
 11
-66.2586358027
 21
-23.6344486533
 31
0.0
 11
-66.2599229491
 21
-23.632098826
 31
0.0
 11
-66.2609154426
 21
-23.6302581585
 31
0.0
 11
-66.2616105438
 21
-23.6289316801
 31
0.0
 11
-66.2618461216
 21
-23.6284621457
 31
0.0
 11
-66.2620069014
 21
-23.628122065
 31
0.0
 11
-66.2620927711
 21
-23.627911676
 31
0.0
 11
-66.2621036188
 21
-23.6278312164
 31
0.0
  0
SPLINE
  5
530
100
AcDbEntity
  8
0
100
AcDbSpline
 62
7
  6
CONTINUOUS
 70
0
 71
3
 72
13
 73
9
 74
7
 42
0.0000001
 43
0.0000001
 44
0.0000000001
 12
-0.2489101548
 22
0.143711993
 32
0.0
 13
-0.244355276
 23
0.1513687366
 33
0.0
 40
0.0
 40
0.0
 40
0.0
 40
0.0
 40
0.3612210663
 40
0.682170423
 40
0.812667465
 40
0.9137049675
 40
0.9780318448
 40
1.0
 40
1.0
 40
1.0
 40
1.0
 10
-65.1385580516
 20
-23.2669872981
 30
0.0
 10
-65.1685285821
 20
-23.249683365
 30
0.0
 10
-65.2251159576
 20
-23.2169831279
 30
0.0
 10
-65.2924802486
 20
-23.1779450624
 30
0.0
 10
-65.338259217
 20
-23.1513733071
 30
0.0
 10
-65.3627256962
 20
-23.1370619739
 30
0.0
 10
-65.3782532833
 20
-23.1280587384
 30
0.0
 10
-65.3853142739
 20
-23.1237581614
 30
0.0
 10
-65.3871036188
 20
-23.1226497308
 30
0.0
 11
-65.1385580516
 21
-23.2669872981
 31
0.0
 11
-65.228445261
 21
-23.2150332915
 31
0.0
 11
-65.3082599526
 21
-23.1687830511
 31
0.0
 11
-65.3406881409
 21
-23.1499360992
 31
0.0
 11
-65.3657733669
 21
-23.1353054509
 31
0.0
 11
-65.3817132861
 21
-23.1259378303
 31
0.0
 11
-65.3871036188
 21
-23.1226497308
 31
0.0
  0
LINE
  5
531
100
AcDbEntity
  8
RACCORDO
100
AcDbLine
 62
253
  6
CONTINUOUS
 10
-52.0836131423
 20
-19.0166572575
 11
-52.0186995899
 21
-18.5521029846
  0
SPLINE
  5
532
100
AcDbEntity
  8
0
100
AcDbSpline
 62
253
  6
CONTINUOUS
 70
0
 71
3
 72
26
 73
22
 74
20
 42
0.0000001
 43
0.0000001
 44
0.0000000001
 12
0.0014544634
 22
-0.2500094792
 32
0.0
 13
-0.2500094789
 23
-0.0014545126
 33
0.0
 40
0.0
 40
0.0
 40
0.0
 40
0.0
 40
0.195080196
 40
0.3826515393
 40
0.5555245815
 40
0.6343411269
 40
0.7070484192
 40
0.7729476609
 40
0.831403253
 40
0.881851676
 40
0.9238093952
 40
0.9414738478
 40
0.9568718917
 40
0.9699637695
 40
0.9807201068
 40
0.9891161374
 40
0.9951296516
 40
0.997239688
 40
0.9987514623
 40
0.9996664469
 40
1.0
 40
1.0
 40
1.0
 40
1.0
 10
-63.1356491859
 20
-24.2456323968
 30
0.0
 10
-63.1355546069
 20
-24.2618896962
 30
0.0
 10
-63.1353870022
 20
-24.2937786412
 30
0.0
 10
-63.1351977558
 20
-24.3400745182
 30
0.0
 10
-63.1350957714
 20
-24.3766814763
 30
0.0
 10
-63.135054227
 20
-24.403716003
 30
0.0
 10
-63.1350435388
 20
-24.4218355876
 30
0.0
 10
-63.1350523128
 20
-24.4382583307
 30
0.0
 10
-63.1350802955
 20
-24.4528260562
 30
0.0
 10
-63.1351271312
 20
-24.46539845
 30
0.0
 10
-63.1351835739
 20
-24.4745714119
 30
0.0
 10
-63.1352406095
 20
-24.4808230755
 30
0.0
 10
-63.1352850755
 20
-24.4846694877
 30
0.0
 10
-63.1353339116
 20
-24.4879390802
 30
0.0
 10
-63.1353855732
 20
-24.4906278529
 30
0.0
 10
-63.1354427252
 20
-24.492719004
 30
0.0
 10
-63.135491697
 20
-24.4941060198
 30
0.0
 10
-63.1355427476
 20
-24.4948925842
 30
0.0
 10
-63.1355677058
 20
-24.4952943483
 30
0.0
 10
-63.1356081511
 20
-24.495477879
 30
0.0
 10
-63.1356213888
 20
-24.4956280043
 30
0.0
 10
-63.1356491859
 20
-24.495628166
 30
0.0
 11
-63.1356491859
 21
-24.2456323968
 31
0.0
 11
-63.1353933947
 21
-24.2944044496
 31
0.0
 11
-63.1352033383
 21
-24.3412994718
 31
0.0
 11
-63.1350862954
 21
-24.384519944
 31
0.0
 11
-63.1350566796
 21
-24.4042251386
 31
0.0
 11
-63.1350467771
 21
-24.4224029558
 31
0.0
 11
-63.1350566797
 21
-24.4388786668
 31
0.0
 11
-63.1350862955
 21
-24.4534933362
 31
0.0
 11
-63.1351353398
 21
-24.4661060382
 31
0.0
 11
-63.1352033386
 21
-24.4765958229
 31
0.0
 11
-63.1352442499
 21
-24.4810119887
 31
0.0
 11
-63.1352896353
 21
-24.4848614432
 31
0.0
 11
-63.1353393897
 21
-24.488134214
 31
0.0
 11
-63.1353933952
 21
-24.4908229035
 31
0.0
 11
-63.1354515284
 21
-24.4929212211
 31
0.0
 11
-63.1355136578
 21
-24.4944233978
 31
0.0
 11
-63.1355461669
 21
-24.4949499332
 31
0.0
 11
-63.1355796072
 21
-24.4953264153
 31
0.0
 11
-63.1356139549
 21
-24.4955525807
 31
0.0
 11
-63.1356491859
 21
-24.495628166
 31
0.0
  0
LINE
  5
533
100
AcDbEntity
  8
0
100
AcDbLine
 62
7
  6
CONTINUOUS
 10
-63.8871036188
 20
-24.2500042308
 11
-63.8871036188
 21
-24.5
  0
LINE
  5
534
100
AcDbEntity
  8
RACCORDO
100
AcDbLine
 62
253
  6
CONTINUOUS
 10
-52.0836131375
 20
19.0166572575
 11
-61.8871036188
 21
15.629521819
  0
LINE
  5
535
100
AcDbEntity
  8
RACCORDO
100
AcDbLine
 62
253
  6
CONTINUOUS
 10
-61.8871036188
 20
-15.629521819
 11
-52.0836131375
 21
-19.0166572575
  0
SPLINE
  5
536
100
AcDbEntity
  8
0
100
AcDbSpline
 62
253
  6
CONTINUOUS
 70
0
 71
3
 72
26
 73
22
 74
20
 42
0.0000001
 43
0.0000001
 44
0.0000000001
 12
-0.0014544634
 22
-0.2500094792
 32
0.0
 13
0.2500094789
 23
-0.0014545126
 33
0.0
 40
0.0
 40
0.0
 40
0.0
 40
0.0
 40
0.195080196
 40
0.3826515393
 40
0.5555245815
 40
0.6343411269
 40
0.7070484192
 40
0.7729476609
 40
0.831403253
 40
0.881851676
 40
0.9238093952
 40
0.9414738478
 40
0.9568718917
 40
0.9699637695
 40
0.9807201068
 40
0.9891161374
 40
0.9951296516
 40
0.997239688
 40
0.9987514623
 40
0.9996664469
 40
1.0
 40
1.0
 40
1.0
 40
1.0
 10
-66.1385580516
 20
-24.2369056521
 30
0.0
 10
-66.1386526306
 20
-24.2531629515
 30
0.0
 10
-66.1388202354
 20
-24.2850518965
 30
0.0
 10
-66.1390094818
 20
-24.3313477735
 30
0.0
 10
-66.1391114662
 20
-24.3679547315
 30
0.0
 10
-66.1391530105
 20
-24.3949892583
 30
0.0
 10
-66.1391636988
 20
-24.4131088428
 30
0.0
 10
-66.1391549247
 20
-24.429531586
 30
0.0
 10
-66.139126942
 20
-24.4440993115
 30
0.0
 10
-66.1390801063
 20
-24.4566717053
 30
0.0
 10
-66.1390236636
 20
-24.4658446672
 30
0.0
 10
-66.138966628
 20
-24.4720963307
 30
0.0
 10
-66.138922162
 20
-24.4759427429
 30
0.0
 10
-66.1388733259
 20
-24.4792123355
 30
0.0
 10
-66.1388216643
 20
-24.4819011082
 30
0.0
 10
-66.1387645123
 20
-24.4839922593
 30
0.0
 10
-66.1387155405
 20
-24.4853792751
 30
0.0
 10
-66.1386644899
 20
-24.4861658394
 30
0.0
 10
-66.1386395317
 20
-24.4865676036
 30
0.0
 10
-66.1385990865
 20
-24.4867511343
 30
0.0
 10
-66.1385858488
 20
-24.4869012596
 30
0.0
 10
-66.1385580516
 20
-24.4869014213
 30
0.0
 11
-66.1385580516
 21
-24.2369056521
 31
0.0
 11
-66.1388138428
 21
-24.2856777048
 31
0.0
 11
-66.1390038992
 21
-24.3325727271
 31
0.0
 11
-66.1391209422
 21
-24.3757931993
 31
0.0
 11
-66.1391505579
 21
-24.3954983939
 31
0.0
 11
-66.1391604604
 21
-24.4136762111
 31
0.0
 11
-66.1391505578
 21
-24.430151922
 31
0.0
 11
-66.139120942
 21
-24.4447665915
 31
0.0
 11
-66.1390718977
 21
-24.4573792935
 31
0.0
 11
-66.139003899
 21
-24.4678690781
 31
0.0
 11
-66.1389629877
 21
-24.472285244
 31
0.0
 11
-66.1389176022
 21
-24.4761346985
 31
0.0
 11
-66.1388678478
 21
-24.4794074693
 31
0.0
 11
-66.1388138424
 21
-24.4820961588
 31
0.0
 11
-66.1387557091
 21
-24.4841944764
 31
0.0
 11
-66.1386935797
 21
-24.4856966531
 31
0.0
 11
-66.1386610706
 21
-24.4862231885
 31
0.0
 11
-66.1386276303
 21
-24.4865996706
 31
0.0
 11
-66.1385932827
 21
-24.486825836
 31
0.0
 11
-66.1385580516
 21
-24.4869014213
 31
0.0
  0
SPLINE
  5
537
100
AcDbEntity
  8
0
100
AcDbSpline
 62
253
  6
CONTINUOUS
 70
0
 71
3
 72
26
 73
22
 74
20
 42
0.0000001
 43
0.0000001
 44
0.0000000001
 12
0.2500094789
 22
-0.0014545126
 32
0.0
 13
-0.0014544634
 23
-0.2500094792
 33
0.0
 40
0.0
 40
0.0
 40
0.0
 40
0.0
 40
0.0003335531
 40
0.0012485377
 40
0.002760312
 40
0.0048703484
 40
0.0108838626
 40
0.0192798932
 40
0.0300362305
 40
0.0431281083
 40
0.0585261522
 40
0.0761906048
 40
0.118148324
 40
0.168596747
 40
0.2270523391
 40
0.2929515808
 40
0.3656588731
 40
0.4444754185
 40
0.6173484607
 40
0.804919804
 40
1.0
 40
1.0
 40
1.0
 40
1.0
 10
-63.1356491859
 20
24.495628166
 30
0.0
 10
-63.1356213888
 20
24.4956280043
 30
0.0
 10
-63.1356081511
 20
24.495477879
 30
0.0
 10
-63.1355677058
 20
24.4952943483
 30
0.0
 10
-63.1355427476
 20
24.4948925842
 30
0.0
 10
-63.135491697
 20
24.4941060198
 30
0.0
 10
-63.1354427252
 20
24.492719004
 30
0.0
 10
-63.1353855732
 20
24.4906278529
 30
0.0
 10
-63.1353339116
 20
24.4879390802
 30
0.0
 10
-63.1352850755
 20
24.4846694877
 30
0.0
 10
-63.1352406095
 20
24.4808230755
 30
0.0
 10
-63.1351835739
 20
24.4745714119
 30
0.0
 10
-63.1351271312
 20
24.46539845
 30
0.0
 10
-63.1350802955
 20
24.4528260562
 30
0.0
 10
-63.1350523128
 20
24.4382583307
 30
0.0
 10
-63.1350435388
 20
24.4218355876
 30
0.0
 10
-63.135054227
 20
24.403716003
 30
0.0
 10
-63.1350957714
 20
24.3766814763
 30
0.0
 10
-63.1351977558
 20
24.3400745182
 30
0.0
 10
-63.1353870022
 20
24.2937786412
 30
0.0
 10
-63.1355546069
 20
24.2618896962
 30
0.0
 10
-63.1356491859
 20
24.2456323968
 30
0.0
 11
-63.1356491859
 21
24.495628166
 31
0.0
 11
-63.1356139549
 21
24.4955525807
 31
0.0
 11
-63.1355796072
 21
24.4953264153
 31
0.0
 11
-63.1355461669
 21
24.4949499332
 31
0.0
 11
-63.1355136578
 21
24.4944233978
 31
0.0
 11
-63.1354515284
 21
24.4929212211
 31
0.0
 11
-63.1353933952
 21
24.4908229035
 31
0.0
 11
-63.1353393897
 21
24.488134214
 31
0.0
 11
-63.1352896353
 21
24.4848614432
 31
0.0
 11
-63.1352442499
 21
24.4810119887
 31
0.0
 11
-63.1352033386
 21
24.4765958229
 31
0.0
 11
-63.1351353398
 21
24.4661060382
 31
0.0
 11
-63.1350862955
 21
24.4534933362
 31
0.0
 11
-63.1350566797
 21
24.4388786668
 31
0.0
 11
-63.1350467771
 21
24.4224029558
 31
0.0
 11
-63.1350566796
 21
24.4042251386
 31
0.0
 11
-63.1350862954
 21
24.384519944
 31
0.0
 11
-63.1352033383
 21
24.3412994718
 31
0.0
 11
-63.1353933947
 21
24.2944044496
 31
0.0
 11
-63.1356491859
 21
24.2456323968
 31
0.0
  0
LINE
  5
538
100
AcDbEntity
  8
0
100
AcDbLine
 62
7
  6
CONTINUOUS
 10
-63.8871036188
 20
24.5
 11
-63.8871036188
 21
24.2500042308
  0
SPLINE
  5
539
100
AcDbEntity
  8
0
100
AcDbSpline
 62
253
  6
CONTINUOUS
 70
0
 71
3
 72
26
 73
22
 74
20
 42
0.0000001
 43
0.0000001
 44
0.0000000001
 12
-0.2500094789
 22
-0.0014545126
 32
0.0
 13
0.0014544634
 23
-0.2500094792
 33
0.0
 40
0.0
 40
0.0
 40
0.0
 40
0.0
 40
0.0003335531
 40
0.0012485377
 40
0.002760312
 40
0.0048703484
 40
0.0108838626
 40
0.0192798932
 40
0.0300362305
 40
0.0431281083
 40
0.0585261522
 40
0.0761906048
 40
0.118148324
 40
0.168596747
 40
0.2270523391
 40
0.2929515808
 40
0.3656588731
 40
0.4444754185
 40
0.6173484607
 40
0.804919804
 40
1.0
 40
1.0
 40
1.0
 40
1.0
 10
-66.1385580516
 20
24.4869014213
 30
0.0
 10
-66.1385858488
 20
24.4869012596
 30
0.0
 10
-66.1385990865
 20
24.4867511343
 30
0.0
 10
-66.1386395317
 20
24.4865676036
 30
0.0
 10
-66.1386644899
 20
24.4861658394
 30
0.0
 10
-66.1387155405
 20
24.4853792751
 30
0.0
 10
-66.1387645123
 20
24.4839922593
 30
0.0
 10
-66.1388216643
 20
24.4819011082
 30
0.0
 10
-66.1388733259
 20
24.4792123355
 30
0.0
 10
-66.138922162
 20
24.4759427429
 30
0.0
 10
-66.138966628
 20
24.4720963307
 30
0.0
 10
-66.1390236636
 20
24.4658446672
 30
0.0
 10
-66.1390801063
 20
24.4566717053
 30
0.0
 10
-66.139126942
 20
24.4440993115
 30
0.0
 10
-66.1391549247
 20
24.429531586
 30
0.0
 10
-66.1391636988
 20
24.4131088428
 30
0.0
 10
-66.1391530105
 20
24.3949892583
 30
0.0
 10
-66.1391114662
 20
24.3679547315
 30
0.0
 10
-66.1390094818
 20
24.3313477735
 30
0.0
 10
-66.1388202354
 20
24.2850518965
 30
0.0
 10
-66.1386526306
 20
24.2531629515
 30
0.0
 10
-66.1385580516
 20
24.2369056521
 30
0.0
 11
-66.1385580516
 21
24.4869014213
 31
0.0
 11
-66.1385932827
 21
24.486825836
 31
0.0
 11
-66.1386276303
 21
24.4865996706
 31
0.0
 11
-66.1386610706
 21
24.4862231885
 31
0.0
 11
-66.1386935797
 21
24.4856966531
 31
0.0
 11
-66.1387557091
 21
24.4841944764
 31
0.0
 11
-66.1388138424
 21
24.4820961588
 31
0.0
 11
-66.1388678478
 21
24.4794074693
 31
0.0
 11
-66.1389176022
 21
24.4761346985
 31
0.0
 11
-66.1389629877
 21
24.472285244
 31
0.0
 11
-66.139003899
 21
24.4678690781
 31
0.0
 11
-66.1390718977
 21
24.4573792935
 31
0.0
 11
-66.139120942
 21
24.4447665915
 31
0.0
 11
-66.1391505578
 21
24.430151922
 31
0.0
 11
-66.1391604604
 21
24.4136762111
 31
0.0
 11
-66.1391505579
 21
24.3954983939
 31
0.0
 11
-66.1391209422
 21
24.3757931993
 31
0.0
 11
-66.1390038992
 21
24.3325727271
 31
0.0
 11
-66.1388138428
 21
24.2856777048
 31
0.0
 11
-66.1385580516
 21
24.2369056521
 31
0.0
  0
SPLINE
  5
53A
100
AcDbEntity
  8
0
100
AcDbSpline
 62
7
  6
CONTINUOUS
 70
0
 71
3
 72
11
 73
7
 74
5
 42
0.0000001
 43
0.0000001
 44
0.0000000001
 12
0.0003163345
 22
-0.0117717702
 32
0.0
 13
-0.0117718801
 23
-0.0000441909
 33
0.0
 40
0.0
 40
0.0
 40
0.0
 40
0.0
 40
0.436043423
 40
0.7487003128
 40
0.9369944977
 40
1.0
 40
1.0
 40
1.0
 40
1.0
 10
-73.9409415287
 20
-13.9382269939
 30
0.0
 10
-73.9408955501
 20
-13.9399379949
 30
0.0
 10
-73.9409193143
 20
-13.9427660118
 30
0.0
 10
-73.9405295641
 20
-13.9467778362
 30
0.0
 10
-73.9410190899
 20
-13.9484144835
 30
0.0
 10
-73.9404720784
 20
-13.9499990716
 30
0.0
 10
-73.9407193094
 20
-13.9499999997
 30
0.0
 11
-73.9409415287
 21
-13.9382269939
 31
0.0
 11
-73.9408095368
 21
-13.9433601532
 31
0.0
 11
-73.9407283867
 21
-13.9470411125
 31
0.0
 11
-73.9406982734
 21
-13.949258264
 31
0.0
 11
-73.9407193094
 21
-13.9499999997
 31
0.0
  0
ELLIPSE
  5
53B
100
AcDbEntity
  8
0
100
AcDbEllipse
 62
7
  6
CONTINUOUS
 10
23.7
 20
22.3842776662
 30
0.0
 11
0.2
 21
0.0
 31
0.0
 40
0.0524077793
 41
-3.1415926536
 42
-1.5707963268
  0
ELLIPSE
  5
53C
100
AcDbEntity
  8
0
100
AcDbEllipse
 62
7
  6
CONTINUOUS
 10
21.3
 20
22.3842776662
 30
0.0
 11
0.2
 21
0.0
 31
0.0
 40
0.0524077793
 41
-1.5707963268
 42
0.0
  0
ELLIPSE
  5
53D
100
AcDbEntity
  8
0
100
AcDbEllipse
 62
7
  6
CONTINUOUS
 10
23.7
 20
-22.3842776662
 30
0.0
 11
0.2
 21
0.0
 31
0.0
 40
0.0524077793
 41
1.5707963268
 42
3.1415926536
  0
ELLIPSE
  5
53E
100
AcDbEntity
  8
0
100
AcDbEllipse
 62
7
  6
CONTINUOUS
 10
21.3
 20
-22.3842776662
 30
0.0
 11
0.2
 21
-0.0
 31
0.0
 40
0.0524077793
 41
0.0
 42
1.5707963268
  0
ELLIPSE
  5
53F
100
AcDbEntity
  8
0
100
AcDbEllipse
 62
7
  6
CONTINUOUS
 10
32.3927234819
 20
22.3344902759
 30
0.0
 11
0.25
 21
0.0
 31
0.0
 40
0.0524077793
 41
-1.5707963268
 42
-0.0058177642
  0
ELLIPSE
  5
540
100
AcDbEntity
  8
0
100
AcDbEllipse
 62
7
  6
CONTINUOUS
 10
30.0072765181
 20
22.3344902759
 30
0.0
 11
0.25
 21
0.0
 31
0.0
 40
0.0524077793
 41
-3.1357748894
 42
-1.5707963268
  0
ELLIPSE
  5
541
100
AcDbEntity
  8
0
100
AcDbEllipse
 62
7
  6
CONTINUOUS
 10
12.6072765181
 20
22.3344902759
 30
0.0
 11
0.25
 21
-0.0
 31
0.0
 40
0.0524077793
 41
-3.1357748894
 42
-1.5707963268
  0
ELLIPSE
  5
542
100
AcDbEntity
  8
0
100
AcDbEllipse
 62
7
  6
CONTINUOUS
 10
14.9927234819
 20
22.3344902759
 30
0.0
 11
0.25
 21
0.0
 31
0.0
 40
0.0524077793
 41
-1.5707963268
 42
-0.0058177642
  0
ELLIPSE
  5
543
100
AcDbEntity
  8
0
100
AcDbEllipse
 62
7
  6
CONTINUOUS
 10
32.3927234819
 20
-22.3344902759
 30
0.0
 11
0.25
 21
0.0
 31
0.0
 40
0.0524077793
 41
0.0058177642
 42
1.5707963268
  0
ELLIPSE
  5
544
100
AcDbEntity
  8
0
100
AcDbEllipse
 62
7
  6
CONTINUOUS
 10
30.0072765181
 20
-22.3344902759
 30
0.0
 11
0.25
 21
0.0
 31
0.0
 40
0.0524077793
 41
1.5707963268
 42
3.1357748894
  0
ELLIPSE
  5
545
100
AcDbEntity
  8
0
100
AcDbEllipse
 62
7
  6
CONTINUOUS
 10
14.9927234819
 20
-22.3344902759
 30
0.0
 11
0.25
 21
0.0
 31
0.0
 40
0.0524077793
 41
0.0058177642
 42
1.5707963268
  0
ELLIPSE
  5
546
100
AcDbEntity
  8
0
100
AcDbEllipse
 62
7
  6
CONTINUOUS
 10
12.6072765181
 20
-22.3344902759
 30
0.0
 11
0.25
 21
0.0
 31
0.0
 40
0.0524077793
 41
1.5707963268
 42
3.1357748894
  0
ELLIPSE
  5
547
100
AcDbEntity
  8
0
100
AcDbEllipse
 62
7
  6
CONTINUOUS
 10
33.1228684853
 20
-21.8207021581
 30
0.0
 11
-0.1582391023
 21
0.4751033573
 31
0.0
 40
0.9984778551
 41
-3.4626430032
 42
-1.8927600658
  0
ELLIPSE
  5
548
100
AcDbEntity
  8
0
100
AcDbEllipse
 62
7
  6
CONTINUOUS
 10
11.8771315147
 20
-21.8207021581
 30
0.0
 11
-0.1582391023
 21
-0.4751033573
 31
0.0
 40
0.9984778551
 41
-0.6578562559
 42
0.3210503496
  0
ELLIPSE
  5
549
100
AcDbEntity
  8
0
100
AcDbEllipse
 62
7
  6
CONTINUOUS
 10
11.8771315147
 20
21.8207021581
 30
0.0
 11
-0.1582391023
 21
0.4751033573
 31
0.0
 40
0.9984778551
 41
-0.3210503496
 42
0.6578562559
  0
ELLIPSE
  5
54A
100
AcDbEntity
  8
0
100
AcDbEllipse
 62
7
  6
CONTINUOUS
 10
33.1228684853
 20
21.8207021581
 30
0.0
 11
0.1582391023
 21
0.4751033573
 31
0.0
 40
0.9984778551
 41
-1.2488325878
 42
0.3210503496
  0
ELLIPSE
  5
54B
100
AcDbEntity
  8
0
100
AcDbEllipse
 62
7
  6
CONTINUOUS
 10
-21.3
 20
22.3842776662
 30
0.0
 11
0.2
 21
0.0
 31
0.0
 40
0.0524077793
 41
-3.1415926536
 42
-1.5707963268
  0
ELLIPSE
  5
54C
100
AcDbEntity
  8
0
100
AcDbEllipse
 62
7
  6
CONTINUOUS
 10
-23.7
 20
22.3842776662
 30
0.0
 11
0.2
 21
-0.0
 31
0.0
 40
0.0524077793
 41
-1.5707963268
 42
0.0
  0
ELLIPSE
  5
54D
100
AcDbEntity
  8
0
100
AcDbEllipse
 62
7
  6
CONTINUOUS
 10
-21.3
 20
-22.3842776662
 30
0.0
 11
0.2
 21
0.0
 31
0.0
 40
0.0524077793
 41
1.5707963268
 42
3.1415926536
  0
ELLIPSE
  5
54E
100
AcDbEntity
  8
0
100
AcDbEllipse
 62
7
  6
CONTINUOUS
 10
-23.7
 20
-22.3842776662
 30
0.0
 11
0.2
 21
-0.0
 31
0.0
 40
0.0524077793
 41
0.0
 42
1.5707963268
  0
ELLIPSE
  5
54F
100
AcDbEntity
  8
0
100
AcDbEllipse
 62
7
  6
CONTINUOUS
 10
-12.6072765181
 20
22.3344902759
 30
0.0
 11
0.25
 21
0.0
 31
0.0
 40
0.0524077793
 41
-1.5707963268
 42
-0.0058177642
  0
ELLIPSE
  5
550
100
AcDbEntity
  8
0
100
AcDbEllipse
 62
7
  6
CONTINUOUS
 10
-14.9927234819
 20
22.3344902759
 30
0.0
 11
0.25
 21
-0.0
 31
0.0
 40
0.0524077793
 41
-3.1357748894
 42
-1.5707963268
  0
ELLIPSE
  5
551
100
AcDbEntity
  8
0
100
AcDbEllipse
 62
7
  6
CONTINUOUS
 10
-32.3927234819
 20
22.3344902759
 30
0.0
 11
0.25
 21
0.0
 31
0.0
 40
0.0524077793
 41
-3.1357748894
 42
-1.5707963268
  0
ELLIPSE
  5
552
100
AcDbEntity
  8
0
100
AcDbEllipse
 62
7
  6
CONTINUOUS
 10
-30.0072765181
 20
22.3344902759
 30
0.0
 11
0.25
 21
0.0
 31
0.0
 40
0.0524077793
 41
-1.5707963268
 42
-0.0058177642
  0
ELLIPSE
  5
553
100
AcDbEntity
  8
0
100
AcDbEllipse
 62
7
  6
CONTINUOUS
 10
-12.6072765181
 20
-22.3344902759
 30
0.0
 11
0.25
 21
-0.0
 31
0.0
 40
0.0524077793
 41
0.0058177642
 42
1.5707963268
  0
ELLIPSE
  5
554
100
AcDbEntity
  8
0
100
AcDbEllipse
 62
7
  6
CONTINUOUS
 10
-14.9927234819
 20
-22.3344902759
 30
0.0
 11
0.25
 21
0.0
 31
0.0
 40
0.0524077793
 41
1.5707963268
 42
3.1357748894
  0
ELLIPSE
  5
555
100
AcDbEntity
  8
0
100
AcDbEllipse
 62
7
  6
CONTINUOUS
 10
-30.0072765181
 20
-22.3344902759
 30
0.0
 11
0.25
 21
0.0
 31
0.0
 40
0.0524077793
 41
0.0058177642
 42
1.5707963268
  0
ELLIPSE
  5
556
100
AcDbEntity
  8
0
100
AcDbEllipse
 62
7
  6
CONTINUOUS
 10
-32.3927234819
 20
-22.3344902759
 30
0.0
 11
0.25
 21
0.0
 31
0.0
 40
0.0524077793
 41
1.5707963268
 42
3.1357748894
  0
ELLIPSE
  5
557
100
AcDbEntity
  8
0
100
AcDbEllipse
 62
7
  6
CONTINUOUS
 10
-11.8771315147
 20
-21.8207021581
 30
0.0
 11
-0.1582391023
 21
0.4751033573
 31
0.0
 40
0.9984778551
 41
-3.4626430032
 42
-2.4837363977
  0
ELLIPSE
  5
558
100
AcDbEntity
  8
0
100
AcDbEllipse
 62
7
  6
CONTINUOUS
 10
-33.1228684853
 20
-21.8207021581
 30
0.0
 11
-0.1582391023
 21
-0.4751033573
 31
0.0
 40
0.9984778551
 41
-1.2488325878
 42
0.3210503496
  0
ELLIPSE
  5
559
100
AcDbEntity
  8
0
100
AcDbEllipse
 62
7
  6
CONTINUOUS
 10
-33.1228684853
 20
21.8207021581
 30
0.0
 11
-0.1582391023
 21
0.4751033573
 31
0.0
 40
0.9984778551
 41
-0.3210503496
 42
1.2488325878
  0
ELLIPSE
  5
55A
100
AcDbEntity
  8
0
100
AcDbEllipse
 62
7
  6
CONTINUOUS
 10
-11.8771315147
 20
21.8207021581
 30
0.0
 11
0.1582391023
 21
0.4751033573
 31
0.0
 40
0.9984778551
 41
-0.6578562559
 42
0.3210503496
  0
ELLIPSE
  5
55B
100
AcDbEntity
  8
RACCORDO
100
AcDbEllipse
 62
7
  6
CONTINUOUS
 10
-32.9998286038
 20
-21.599313827
 30
0.0
 11
0.2238673116
 21
0.4480418466
 31
0.0
 40
0.9982882662
 41
-4.2483303396
 42
-2.6789040089
  0
ELLIPSE
  5
55C
100
AcDbEntity
  8
RACCORDO
100
AcDbEllipse
 62
7
  6
CONTINUOUS
 10
32.9998286038
 20
-21.599313827
 30
0.0
 11
-0.2238673116
 21
0.4480418466
 31
0.0
 40
0.9982882662
 41
-3.6042812983
 42
-2.0348549675
  0
ELLIPSE
  5
55D
100
AcDbEntity
  8
RACCORDO
100
AcDbEllipse
 62
7
  6
CONTINUOUS
 10
32.9998286038
 20
21.599313827
 30
0.0
 11
0.2238673116
 21
0.4480418466
 31
0.0
 40
0.9982882662
 41
-1.1067376861
 42
0.4626886447
  0
ELLIPSE
  5
55E
100
AcDbEntity
  8
RACCORDO
100
AcDbEllipse
 62
7
  6
CONTINUOUS
 10
-32.9998286038
 20
21.599313827
 30
0.0
 11
-0.2238673116
 21
0.4480418466
 31
0.0
 40
0.9982882662
 41
-0.4626886447
 42
1.1067376861
  0
ELLIPSE
  5
55F
100
AcDbEntity
  8
0
100
AcDbEllipse
 62
7
  6
CONTINUOUS
 10
13.4613260573
 20
-23.15
 30
0.0
 11
85.9426996401
 21
0.0
 31
0.0
 40
0.0058178298
 41
-2.6791240519
 42
-2.5607560384
  0
ELLIPSE
  5
560
100
AcDbEntity
  8
0
100
AcDbEllipse
 62
7
  6
CONTINUOUS
 10
13.4613260573
 20
-23.15
 30
0.0
 11
85.9426996401
 21
-0.0
 31
0.0
 40
0.0058178298
 41
2.5607560384
 42
2.6905658418
  0
ELLIPSE
  5
561
100
AcDbEntity
  8
0
100
AcDbEllipse
 62
7
  6
CONTINUOUS
 10
-52.3871036188
 20
22.0833543458
 30
0.0
 11
0.25645425
 21
0.4292216416
 31
0.0
 40
1.0
 41
-2.585569877
 42
-1.6870220382
  0
ELLIPSE
  5
562
100
AcDbEntity
  8
0
100
AcDbEllipse
 62
7
  6
CONTINUOUS
 10
13.4613260573
 20
23.15
 30
0.0
 11
85.9426996401
 21
0.0
 31
0.0
 40
0.0058178298
 41
-2.6905658418
 42
-2.5607560384
  0
ELLIPSE
  5
563
100
AcDbEntity
  8
0
100
AcDbEllipse
 62
7
  6
CONTINUOUS
 10
13.4613260573
 20
23.15
 30
0.0
 11
85.9426996401
 21
0.0
 31
0.0
 40
0.0058178298
 41
2.5607560384
 42
2.6791240518
  0
ELLIPSE
  5
564
100
AcDbEntity
  8
0
100
AcDbEllipse
 62
7
  6
CONTINUOUS
 10
-52.3871036188
 20
-22.0833543458
 30
0.0
 11
0.4848287197
 21
-0.1222338436
 31
0.0
 40
1.0
 41
0.9017658799
 42
1.8003137187
  0
ENDSEC
  0
SECTION
  2
OBJECTS
  0
DICTIONARY
  5
C
100
AcDbDictionary
280
0
281
1
  3
ACAD_GROUP
350
D
  3
ACAD_MLINESTYLE
350
17
  3
ACAD_LAYOUT
350
1A
  3
ACAD_PLOTSETTINGS
350
19
  3
ACAD_PLOTSTYLENAME
350
E
  0
DICTIONARY
  5
D
102
{ACAD_REACTORS
330
C
102
}
100
AcDbDictionary
280
0
281
1
  0
ACDBDICTIONARYWDFLT
  5
E
102
{ACAD_REACTORS
330
C
102
}
100
AcDbDictionary
281
1
  3
Normal
350
F
100
AcDbDictionaryWithDefault
340
F
  0
DICTIONARY
  5
17
102
{ACAD_REACTORS
330
C
102
}
100
AcDbDictionary
280
0
281
1
  3
Standard
350
18
  0
DICTIONARY
  5
19
102
{ACAD_REACTORS
330
C
102
}
100
AcDbDictionary
281
1
  0
DICTIONARY
  5
1A
102
{ACAD_REACTORS
330
C
102
}
100
AcDbDictionary
281
1
  3
Model
350
565
  3
Layout1
350
566
  0
ACDBPLACEHOLDER
  5
F
102
{ACAD_REACTORS
330
E
102
}
  0
MLINESTYLE
  5
18
102
{ACAD_REACTORS
330
17
102
}
100
AcDbMlineStyle
  2
STANDARD
 70
0
  3

 62
256
 51
90.0
 52
90.0
 71
2
 49
0.5
 62
256
  6
BYLAYER
 49
-0.5
 62
256
  6
BYLAYER
  0
LAYOUT
  5
565
102
{ACAD_REACTORS
330
1A
102
}
100
AcDbPlotSettings
  1

  2
none_device
  4
ISO_A4_(297.00_x_210.00_MM)
  6

 40
0.0
 41
0.0
 42
0.0
 43
0.0
 44
297.0
 45
210.0
 46
0.0
 47
0.0
 48
0.0
 49
0.0
140
0.0
141
0.0
142
1.0
143
1.0
 70
1024
 72
1
 73
0
 74
0
  7

 75
0
147
1.0
148
0.0
149
0.0
100
AcDbLayout
  1
Model
 70
0
 71
0
 10
0.0
 20
0.0
 11
297.0
 21
210.0
 12
0.0
 22
0.0
 32
0.0
 14
0.0
 24
0.0
 34
0.0
 15
0.0
 25
0.0
 35
0.0
146
0.0
 13
0.0
 23
0.0
 33
0.0
 16
1.0
 26
0.0
 36
0.0
 17
0.0
 27
1.0
 37
0.0
 76
0
330
219
345
0
346
0
  0
LAYOUT
  5
566
102
{ACAD_REACTORS
330
1A
102
}
100
AcDbPlotSettings
  1

  2
none_device
  4
ISO_A4_(297.00_x_210.00_MM)
  6

 40
0.0
 41
0.0
 42
0.0
 43
0.0
 44
297.0
 45
210.0
 46
0.0
 47
0.0
 48
0.0
 49
0.0
140
0.0
141
0.0
142
1.0
143
1.0
 70
0
 72
1
 73
0
 74
0
  7

 75
0
147
1.0
148
0.0
149
0.0
100
AcDbLayout
  1
Layout1
 70
0
 71
1
 10
0.0
 20
0.0
 11
297.0
 21
210.0
 12
0.0
 22
0.0
 32
0.0
 14
0.0
 24
0.0
 34
0.0
 15
0.0
 25
0.0
 35
0.0
146
0.0
 13
0.0
 23
0.0
 33
0.0
 16
1.0
 26
0.0
 36
0.0
 17
0.0
 27
1.0
 37
0.0
 76
0
330
21A
345
0
346
0
  0
ENDSEC
  0
EOF
