  0
SECTION
  2
HEADER
  9
$ACADVER
  1
AC1015
  9
$DWGCODEPAGE
  3
ANSI_1252
  9
$EXTMAX
 10
297.0
 20
210.0
 30
0.0
  9
$EXTMIN
 10
0.0
 20
0.0
 30
0.0
  9
$LIMMIN
 10
0.0
 20
0.0
  9
$LIMMAX
 10
297.0
 20
210.0
  9
$VIEWCTR
 10
148.5
 20
105.0
  9
$VIEWSIZE
 40
210.0
  9
$CLAYER
  8
0
  9
$LTSCALE
 40
16.335
  9
$CELTYPE
  6
BYLAYER
  9
$DIMSCALE
 40
1.0
  9
$DIMASZ
 40
3.0
  9
$DIMEXO
 40
1.85625
  9
$DIMDLI
 40
11.286
  9
$DIMEXE
 40
5.346
  9
$DIMCEN
 40
2.673
  9
$DIMLFAC
 40
1.0
  9
$DIMBLK
  1
_FILLED
  9
$DIMTXT
 40
3.0
  9
$DIMTOL
 70
1
  9
$DIMLIM
 70
0
  9
$DIMTFAC
 40
1.0
  9
$DIMTP
 40
0.01
  9
$DIMTM
 40
0.01
  9
$PDMODE
 70
3
  9
$PDSIZE
 40
3.0
  9
$HANDSEED
  5
2CB
  9
$TILEMODE
 70
1
  9
$MEASUREMENT
 70
1
  9
$INSUNITS
 70
4
  0
ENDSEC
  0
SECTION
  2
CLASSES
  0
CLASS
  1
ACDBDICTIONARYWDFLT
  2
AcDbDictionaryWithDefault
  3
AutoCAD 2000
 90
0
280
0
281
0
  0
CLASS
  1
ACDBPLACEHOLDER
  2
AcDbPlaceHolder
  3
AutoCAD 2000
 90
0
280
0
281
0
  0
CLASS
  1
LAYOUT
  2
AcDbLayout
  3
AutoCAD 2000
 90
0
280
0
281
0
  0
ENDSEC
  0
SECTION
  2
TABLES
  0
TABLE
  2
VPORT
  5
8
100
AcDbSymbolTable
 70
2
  0
VPORT
  5
1F4
100
AcDbSymbolTableRecord
100
AcDbViewportTableRecord
  2
*ACTIVE
 70
0
 10
0.0
 20
0.0
 11
1.0
 21
1.0
 12
148.5
 22
105.0
 13
0.0
 23
0.0
 14
1.0
 24
1.0
 15
0.0
 25
0.0
 16
0.0
 26
0.0
 36
1.0
 17
0.0
 27
0.0
 37
0.0
 40
210.0
 41
1.4142857143
 42
50.0
 43
0.0
 44
0.0
 50
0.0
 51
0.0
 71
0
 72
100
 73
1
 74
1
 75
0
 76
0
 77
0
 78
0
  0
ENDTAB
  0
TABLE
  2
LTYPE
  5
5
100
AcDbSymbolTable
 70
6
  0
LTYPE
  5
14
100
AcDbSymbolTableRecord
100
AcDbLinetypeTableRecord
  2
BYBLOCK
 70
0
  3

 72
65
 73
0
 40
0.0
  0
LTYPE
  5
15
100
AcDbSymbolTableRecord
100
AcDbLinetypeTableRecord
  2
BYLAYER
 70
0
  3

 72
65
 73
0
 40
0.0
  0
LTYPE
  5
16
100
AcDbSymbolTableRecord
100
AcDbLinetypeTableRecord
  2
CONTINUOUS
 70
64
  3
Solid line
 72
65
 73
0
 40
0.0
  0
LTYPE
  5
1F5
100
AcDbSymbolTableRecord
100
AcDbLinetypeTableRecord
  2
CENTER
 70
64
  3
____ _ ____ _ ____ _ ____ _ ____ _ ____ _ ____
 72
65
 73
4
 40
0.6
 49
0.375
 74
0
 49
-0.075
 74
0
 49
0.075
 74
0
 49
-0.075
 74
0
  0
LTYPE
  5
1F6
100
AcDbSymbolTableRecord
100
AcDbLinetypeTableRecord
  2
HIDDEN
 70
64
  3
- - - - - - - - - - - - - - - - - - - -
 72
65
 73
2
 40
0.2
 49
0.1
 74
0
 49
-0.1
 74
0
  0
LTYPE
  5
1F7
100
AcDbSymbolTableRecord
100
AcDbLinetypeTableRecord
  2
PHANTOM
 70
64
  3
_____ _ _ _____ _ _ _____ _ _ _____
 72
65
 73
6
 40
0.8
 49
0.45
 74
0
 49
-0.05
 74
0
 49
0.1
 74
0
 49
-0.05
 74
0
 49
0.1
 74
0
 49
-0.05
 74
0
  0
LTYPE
  5
1F8
100
AcDbSymbolTableRecord
100
AcDbLinetypeTableRecord
  2
DOT
 70
64
  3
. . . . . . . . . . . . . . . . . . . .
 72
65
 73
2
 40
0.2
 49
0.1
 74
0
 49
-0.1
 74
0
  0
LTYPE
  5
1F9
100
AcDbSymbolTableRecord
100
AcDbLinetypeTableRecord
  2
DASHED
 70
64
  3
- - - - - - - - - - - - - - - - - - - -
 72
65
 73
2
 40
0.2
 49
0.1
 74
0
 49
-0.1
 74
0
  0
ENDTAB
  0
TABLE
  2
LAYER
  5
2
100
AcDbSymbolTable
 70
36
  0
LAYER
  5
10
100
AcDbSymbolTableRecord
100
AcDbLayerTableRecord
  2
0
 70
0
 62
7
  6
CONTINUOUS
370
-3
390
F
  0
LAYER
  5
1FA
100
AcDbSymbolTableRecord
100
AcDbLayerTableRecord
  2
DEFAULT_1
 70
0
 62
7
  6
CENTER
370
-3
390
F
  0
LAYER
  5
1FB
100
AcDbSymbolTableRecord
100
AcDbLayerTableRecord
  2
DEFAULT_2
 70
0
 62
7
  6
HIDDEN
370
-3
390
F
  0
LAYER
  5
1FC
100
AcDbSymbolTableRecord
100
AcDbLayerTableRecord
  2
DEFAULT_3
 70
0
 62
7
  6
PHANTOM
370
-3
390
F
  0
LAYER
  5
1FD
100
AcDbSymbolTableRecord
100
AcDbLayerTableRecord
  2
ASSI
 70
0
 62
7
  6
CONTINUOUS
370
-3
390
F
  0
LAYER
  5
1FE
100
AcDbSymbolTableRecord
100
AcDbLayerTableRecord
  2
COORDINATE
 70
0
 62
7
  6
CONTINUOUS
370
-3
390
F
  0
LAYER
  5
1FF
100
AcDbSymbolTableRecord
100
AcDbLayerTableRecord
  2
COPY_PUBLISH
 70
0
 62
7
  6
CONTINUOUS
370
-3
390
F
  0
LAYER
  5
200
100
AcDbSymbolTableRecord
100
AcDbLayerTableRecord
  2
COSMETIC
 70
0
 62
7
  6
CONTINUOUS
370
-3
390
F
  0
LAYER
  5
201
100
AcDbSymbolTableRecord
100
AcDbLayerTableRecord
  2
COSMETICI
 70
0
 62
7
  6
CONTINUOUS
370
-3
390
F
  0
LAYER
  5
202
100
AcDbSymbolTableRecord
100
AcDbLayerTableRecord
  2
CURVE
 70
0
 62
7
  6
CONTINUOUS
370
-3
390
F
  0
LAYER
  5
203
100
AcDbSymbolTableRecord
100
AcDbLayerTableRecord
  2
DRAFT
 70
0
 62
7
  6
CONTINUOUS
370
-3
390
F
  0
LAYER
  5
204
100
AcDbSymbolTableRecord
100
AcDbLayerTableRecord
  2
IMPORT_IGES
 70
0
 62
7
  6
CONTINUOUS
370
-3
390
F
  0
LAYER
  5
205
100
AcDbSymbolTableRecord
100
AcDbLayerTableRecord
  2
INTFCLR_11
 70
0
 62
7
  6
CONTINUOUS
370
-3
390
F
  0
LAYER
  5
206
100
AcDbSymbolTableRecord
100
AcDbLayerTableRecord
  2
INTF_1
 70
0
 62
7
  6
CONTINUOUS
370
-3
390
F
  0
LAYER
  5
207
100
AcDbSymbolTableRecord
100
AcDbLayerTableRecord
  2
INTF_3
 70
0
 62
7
  6
CONTINUOUS
370
-3
390
F
  0
LAYER
  5
208
100
AcDbSymbolTableRecord
100
AcDbLayerTableRecord
  2
INTF_6
 70
0
 62
7
  6
CONTINUOUS
370
-3
390
F
  0
LAYER
  5
209
100
AcDbSymbolTableRecord
100
AcDbLayerTableRecord
  2
NOTE
 70
0
 62
7
  6
CONTINUOUS
370
-3
390
F
  0
LAYER
  5
20A
100
AcDbSymbolTableRecord
100
AcDbLayerTableRecord
  2
PIANI
 70
0
 62
7
  6
CONTINUOUS
370
-3
390
F
  0
LAYER
  5
20B
100
AcDbSymbolTableRecord
100
AcDbLayerTableRecord
  2
PUNTI
 70
0
 62
7
  6
CONTINUOUS
370
-3
390
F
  0
LAYER
  5
20C
100
AcDbSymbolTableRecord
100
AcDbLayerTableRecord
  2
RACCORDO
 70
0
 62
7
  6
CONTINUOUS
370
-3
390
F
  0
LAYER
  5
20D
100
AcDbSymbolTableRecord
100
AcDbLayerTableRecord
  2
SIMBOLI
 70
0
 62
7
  6
CONTINUOUS
370
-3
390
F
  0
LAYER
  5
20E
100
AcDbSymbolTableRecord
100
AcDbLayerTableRecord
  2
SMUSSO
 70
0
 62
7
  6
CONTINUOUS
370
-3
390
F
  0
LAYER
  5
20F
100
AcDbSymbolTableRecord
100
AcDbLayerTableRecord
  2
SNAPLINE
 70
0
 62
7
  6
CONTINUOUS
370
-3
390
F
  0
LAYER
  5
210
100
AcDbSymbolTableRecord
100
AcDbLayerTableRecord
  2
SUPERFICI
 70
0
 62
7
  6
CONTINUOUS
370
-3
390
F
  0
LAYER
  5
211
100
AcDbSymbolTableRecord
100
AcDbLayerTableRecord
  2
TRASH
 70
0
 62
7
  6
CONTINUOUS
370
-3
390
F
  0
LAYER
  5
212
100
AcDbSymbolTableRecord
100
AcDbLayerTableRecord
  2
XSEC_DATUMS
 70
0
 62
7
  6
CONTINUOUS
370
-3
390
F
  0
LAYER
  5
213
100
AcDbSymbolTableRecord
100
AcDbLayerTableRecord
  2
___SHELL
 70
0
 62
7
  6
CONTINUOUS
370
-3
390
F
  0
ENDTAB
  0
TABLE
  2
STYLE
  5
3
100
AcDbSymbolTable
 70
1
  0
STYLE
  5
11
100
AcDbSymbolTableRecord
100
AcDbTextStyleTableRecord
  2
STANDARD
 70
0
 40
0.0
 41
0.8
 50
0.0
 71
0
 42
0.2
  3
txt
  4

  0
STYLE
  5
214
100
AcDbSymbolTableRecord
100
AcDbTextStyleTableRecord
  2
TEXTSTYLE_1
 70
0
 40
0.0
 41
0.8
 50
0.0
 71
0
 42
0.2
  3
gdt
  4

  0
ENDTAB
  0
TABLE
  2
VIEW
  5
6
100
AcDbSymbolTable
 70
0
  0
ENDTAB
  0
TABLE
  2
UCS
  5
7
100
AcDbSymbolTable
 70
0
  0
ENDTAB
  0
TABLE
  2
APPID
  5
9
100
AcDbSymbolTable
 70
1
  0
APPID
  5
215
100
AcDbSymbolTableRecord
100
AcDbRegAppTableRecord
  2
ACAD
 70
0
  0
ENDTAB
  0
TABLE
  2
BLOCK_RECORD
  5
1
100
AcDbSymbolTable
 70
0
  0
BLOCK_RECORD
  5
216
100
AcDbSymbolTableRecord
100
AcDbBlockTableRecord
  2
*Model_Space
  0
BLOCK_RECORD
  5
217
100
AcDbSymbolTableRecord
100
AcDbBlockTableRecord
  2
*Paper_Space
  0
BLOCK_RECORD
  5
218
100
AcDbSymbolTableRecord
100
AcDbBlockTableRecord
  2
_FILLED
  0
BLOCK_RECORD
  5
219
100
AcDbSymbolTableRecord
100
AcDbBlockTableRecord
  2
*D0
  0
BLOCK_RECORD
  5
21A
100
AcDbSymbolTableRecord
100
AcDbBlockTableRecord
  2
*D1
  0
BLOCK_RECORD
  5
21B
100
AcDbSymbolTableRecord
100
AcDbBlockTableRecord
  2
*D2
  0
ENDTAB
  0
TABLE
  2
DIMSTYLE
  5
A
100
AcDbSymbolTable
 70
1
100
AcDbDimStyleTable
 71
0
  0
DIMSTYLE
105
21C
100
AcDbSymbolTableRecord
100
AcDbDimStyleTableRecord
  2
STANDARD
 70
0
  3

  4

 40
1.0
 41
3.0
 42
0.0625
 43
0.38
 44
0.18
 45
0.0
 46
0.0
 47
0.01
 48
0.01
140
3.0
141
0.09
142
0.0
143
25.4
144
1.0
145
0.0
146
1.0
147
0.09
 71
1.0
 72
0.0
 73
0
 74
0
 75
0
 76
0
 77
1
 78
8
170
0
171
2
172
0
173
0
174
0
175
0
176
0
177
0
178
0
270
2
271
2
272
2
273
2
274
2
275
0
280
0
281
0
282
0
283
1
284
8
285
0
286
0
287
3
288
0
340
11
341
218
342
218
343
218
344
218
  0
DIMSTYLE
105
21D
100
AcDbSymbolTableRecord
100
AcDbDimStyleTableRecord
  2
DIMSTYLE_1
 70
0
  3

  4

 40
1.0
 41
3.0
 42
0.0625
 43
0.38
 44
0.18
 45
0.0
 46
0.0
 47
0.0
 48
0.0
140
3.0
141
0.09
142
0.0
143
25.4
144
1.0
145
0.0
146
1.0
147
0.09
 71
0.0
 72
0.0
 73
0
 74
0
 75
0
 76
0
 77
1
 78
8
170
0
171
2
172
0
173
0
174
0
175
0
176
0
177
0
178
0
270
2
271
2
272
2
273
2
274
2
275
0
280
0
281
0
282
0
283
1
284
8
285
0
286
0
287
3
288
0
340
11
341
218
342
218
343
218
344
218
  0
ENDTAB
  0
ENDSEC
  0
SECTION
  2
BLOCKS
  0
BLOCK
  5
20
100
AcDbEntity
  8
0
100
AcDbBlockBegin
  2
*Model_Space
 70
0
 10
0.0
 20
0.0
 30
0.0
  3
*Model_Space
  1

  0
ENDBLK
  5
21
100
AcDbEntity
  8
0
100
AcDbBlockEnd
  0
BLOCK
  5
1C
100
AcDbEntity
  8
0
100
AcDbBlockBegin
  2
*Paper_Space
 70
0
 10
0.0
 20
0.0
 30
0.0
  3
*Paper_Space
  1

  0
ENDBLK
  5
1D
100
AcDbEntity
  8
0
100
AcDbBlockEnd
  0
BLOCK
  5
21E
100
AcDbEntity
  8
0
100
AcDbBlockBegin
  2
_FILLED
 70
64
 10
0.0
 20
0.0
  3
_FILLED
  1

  0
SOLID
  5
21F
100
AcDbEntity
  8
0
  6
BYBLOCK
 62
0
100
AcDbTrace
 10
0.0
 20
0.0
 11
-1.0
 21
0.3166666667
 12
-1.0
 22
-0.3166666667
 13
-1.0
 23
-0.3166666667
  0
ENDBLK
  5
220
100
AcDbEntity
  8
0
  6
BYBLOCK
 62
0
100
AcDbBlockEnd
  0
BLOCK
  5
221
100
AcDbEntity
  8
0
100
AcDbBlockBegin
 62
7
  6
CONTINUOUS
  2
*D0
 70
65
 10
0.0
 20
0.0
  3
*D0
  1

  0
LINE
  5
222
100
AcDbEntity
  8
0
100
AcDbLine
 62
7
  6
CONTINUOUS
 10
-22.8341321511
 20
22.1001713375
 11
-22.8341321511
 21
36.5935382224
  0
LINE
  5
223
100
AcDbEntity
  8
0
100
AcDbLine
 62
7
  6
CONTINUOUS
 10
-29.534149417
 20
0.5000002191
 11
-29.534149417
 21
36.5935382224
  0
LINE
  5
224
100
AcDbEntity
  8
0
100
AcDbLine
 62
7
  6
CONTINUOUS
 10
-22.8341321511
 20
35.0935382224
 11
-18.8341321511
 21
35.0935382224
  0
LINE
  5
225
100
AcDbEntity
  8
0
100
AcDbLine
 62
7
  6
CONTINUOUS
 10
-18.8341321511
 20
35.0935382224
 11
-26.1841407841
 21
35.0935382224
  0
LINE
  5
226
100
AcDbEntity
  8
0
100
AcDbLine
 62
7
  6
CONTINUOUS
 10
-29.534149417
 20
35.0935382224
 11
-33.534149417
 21
35.0935382224
  0
LINE
  5
227
100
AcDbEntity
  8
0
100
AcDbLine
 62
7
  6
CONTINUOUS
 10
-33.534149417
 20
35.0935382224
 11
-26.1841407841
 21
35.0935382224
  0
INSERT
  5
228
100
AcDbEntity
  8
0
100
AcDbBlockReference
 62
7
  6
CONTINUOUS
  2
_FILLED
 10
-22.8341321511
 20
35.0935382224
 41
3.0
 42
3.0
 43
3.0
 50
180.0
  0
INSERT
  5
229
100
AcDbEntity
  8
0
100
AcDbBlockReference
 62
7
  6
CONTINUOUS
  2
_FILLED
 10
-29.534149417
 20
35.0935382224
 41
3.0
 42
3.0
 43
3.0
  0
ENDBLK
  5
22A
100
AcDbEntity
  8
0
  6
BYBLOCK
 62
0
100
AcDbBlockEnd
  0
BLOCK
  5
22B
100
AcDbEntity
  8
0
100
AcDbBlockBegin
 62
7
  6
CONTINUOUS
  2
*D1
 70
65
 10
0.0
 20
0.0
  3
*D1
  1

  0
LINE
  5
22C
100
AcDbEntity
  8
0
100
AcDbLine
 62
7
  6
CONTINUOUS
 10
-11.0
 20
22.1001713375
 11
-11.0
 21
36.5935382224
  0
LINE
  5
22D
100
AcDbEntity
  8
0
100
AcDbLine
 62
7
  6
CONTINUOUS
 10
11.0
 20
22.1001713375
 11
11.0
 21
36.5935382224
  0
LINE
  5
22E
100
AcDbEntity
  8
0
100
AcDbLine
 62
7
  6
CONTINUOUS
 10
-11.0
 20
35.0935382224
 11
-0.0
 21
35.0935382224
  0
LINE
  5
22F
100
AcDbEntity
  8
0
100
AcDbLine
 62
7
  6
CONTINUOUS
 10
11.0
 20
35.0935382224
 11
-0.0
 21
35.0935382224
  0
INSERT
  5
230
100
AcDbEntity
  8
0
100
AcDbBlockReference
 62
7
  6
CONTINUOUS
  2
_FILLED
 10
-11.0
 20
35.0935382224
 41
3.0
 42
3.0
 43
3.0
 50
180.0
  0
INSERT
  5
231
100
AcDbEntity
  8
0
100
AcDbBlockReference
 62
7
  6
CONTINUOUS
  2
_FILLED
 10
11.0
 20
35.0935382224
 41
3.0
 42
3.0
 43
3.0
  0
ENDBLK
  5
232
100
AcDbEntity
  8
0
  6
BYBLOCK
 62
0
100
AcDbBlockEnd
  0
BLOCK
  5
233
100
AcDbEntity
  8
0
100
AcDbBlockBegin
 62
7
  6
CONTINUOUS
  2
*D2
 70
65
 10
0.0
 20
0.0
  3
*D2
  1

  0
LINE
  5
234
100
AcDbEntity
  8
0
100
AcDbLine
 62
7
  6
CONTINUOUS
 10
11.0001713375
 20
-22.1
 11
25.4856384999
 21
-22.1
  0
LINE
  5
235
100
AcDbEntity
  8
0
100
AcDbLine
 62
7
  6
CONTINUOUS
 10
11.0001713375
 20
22.1
 11
25.4856384999
 21
22.1
  0
LINE
  5
236
100
AcDbEntity
  8
0
100
AcDbLine
 62
7
  6
CONTINUOUS
 10
23.9856384999
 20
-22.1
 11
23.9856384999
 21
0.0
  0
LINE
  5
237
100
AcDbEntity
  8
0
100
AcDbLine
 62
7
  6
CONTINUOUS
 10
23.9856384999
 20
22.1
 11
23.9856384999
 21
0.0
  0
INSERT
  5
238
100
AcDbEntity
  8
0
100
AcDbBlockReference
 62
7
  6
CONTINUOUS
  2
_FILLED
 10
23.9856384999
 20
-22.1
 41
3.0
 42
3.0
 43
3.0
 50
270.0
  0
INSERT
  5
239
100
AcDbEntity
  8
0
100
AcDbBlockReference
 62
7
  6
CONTINUOUS
  2
_FILLED
 10
23.9856384999
 20
22.1
 41
3.0
 42
3.0
 43
3.0
 50
90.0
  0
ENDBLK
  5
23A
100
AcDbEntity
  8
0
  6
BYBLOCK
 62
0
100
AcDbBlockEnd
  0
ENDSEC
  0
SECTION
  2
ENTITIES
  0
DIMENSION
  5
23B
100
AcDbEntity
  8
0
100
AcDbDimension
 62
7
  6
CONTINUOUS
  2
*D0
 10
-29.534149417
 20
35.0935382224
 11
-29.3984264983
 21
35.8435382224
 70
160
 71
2
 42
6.7000172659
  3
DIMSTYLE_1
100
AcDbAlignedDimension
 13
-22.8341321511
 23
22.1001713375
 14
-29.534149417
 24
0.5000002191
 50
180.0
100
AcDbRotatedDimension
  0
DIMENSION
  5
23C
100
AcDbEntity
  8
0
100
AcDbDimension
 62
7
  6
CONTINUOUS
  2
*D1
 10
11.0
 20
35.0935382224
 11
-2.3571428571
 21
35.8435382224
 70
160
 71
2
 42
22.0
  3
DIMSTYLE_1
100
AcDbAlignedDimension
 13
-11.0
 23
22.1001713375
 14
11.0
 24
22.1001713375
100
AcDbRotatedDimension
  0
DIMENSION
  5
23D
100
AcDbEntity
  8
0
100
AcDbDimension
 62
7
  6
CONTINUOUS
  2
*D2
 10
23.9856384999
 20
22.1
 11
23.2356384999
 21
-2.6773021561
 70
160
 71
2
 42
44.2
  3
DIMSTYLE_1
100
AcDbAlignedDimension
 13
11.0001713375
 23
-22.1
 14
11.0001713375
 24
22.1
 50
90.0
100
AcDbRotatedDimension
  0
LINE
  5
23E
100
AcDbEntity
  8
RACCORDO
100
AcDbLine
 62
7
  6
CONTINUOUS
 10
-10.5001713375
 20
-22.1
 11
10.5001713375
 21
-22.1
  0
LINE
  5
23F
100
AcDbEntity
  8
RACCORDO
100
AcDbLine
 62
7
  6
CONTINUOUS
 10
-11.0
 20
-21.6001713375
 11
-11.0
 21
21.6001713375
  0
LINE
  5
240
100
AcDbEntity
  8
RACCORDO
100
AcDbLine
 62
253
  6
CONTINUOUS
 10
-10.3945930754
 20
20.8300973557
 11
-10.3945930794
 21
-20.8300973586
  0
LINE
  5
241
100
AcDbEntity
  8
RACCORDO
100
AcDbLine
 62
253
  6
CONTINUOUS
 10
10.3787579847
 20
21.9785866472
 11
10.5001713375
 21
22.1
  0
LINE
  5
242
100
AcDbEntity
  8
RACCORDO
100
AcDbLine
 62
253
  6
CONTINUOUS
 10
10.5001713375
 20
-22.1
 11
10.3787579846
 21
-21.9785866471
  0
LINE
  5
243
100
AcDbEntity
  8
RACCORDO
100
AcDbLine
 62
253
  6
CONTINUOUS
 10
10.8785866472
 20
21.4787579847
 11
11.0
 21
21.6001713375
  0
LINE
  5
244
100
AcDbEntity
  8
RACCORDO
100
AcDbLine
 62
253
  6
CONTINUOUS
 10
11.0
 20
-21.6001713375
 11
10.8785866462
 21
-21.4787579837
  0
LINE
  5
245
100
AcDbEntity
  8
0
100
AcDbLine
 62
253
  6
CONTINUOUS
 10
-2.0
 20
-7.4999646394
 11
-2.0
 21
-15.4999585106
  0
LWPOLYLINE
  5
246
100
AcDbEntity
  8
0
100
AcDbPolyline
 62
7
  6
CONTINUOUS
 90
2
 70
0
 43
0.3500000006
 10
23.2356388321
 20
-1.6773018837
 10
21.7356383743
 20
-1.6773018837
  0
LINE
  5
247
100
AcDbEntity
  8
0
100
AcDbLine
 62
253
  6
CONTINUOUS
 10
2.0
 20
-7.4999995394
 11
2.0
 21
-15.4999989923
  0
LWPOLYLINE
  5
248
100
AcDbEntity
  8
0
100
AcDbPolyline
 62
7
  6
CONTINUOUS
 90
2
 70
0
 43
0.3500000006
 10
23.2356388321
 20
0.6798399124
 10
21.7356383743
 20
0.6798399124
  0
LINE
  5
249
100
AcDbEntity
  8
RACCORDO
100
AcDbLine
 62
253
  6
CONTINUOUS
 10
-10.8785866472
 20
-21.4787579847
 11
-11.0
 21
-21.6001713375
  0
LINE
  5
24A
100
AcDbEntity
  8
RACCORDO
100
AcDbLine
 62
253
  6
CONTINUOUS
 10
-10.3787579848
 20
-21.9785866472
 11
-10.5001713375
 21
-22.1
  0
LWPOLYLINE
  5
24B
100
AcDbEntity
  8
0
100
AcDbPolyline
 62
7
  6
CONTINUOUS
 90
10
 70
0
 43
0.3500000006
 10
22.7356386795
 20
2.6798405228
 10
22.8784965134
 20
2.7512694397
 10
22.9499231644
 20
2.7512694397
 10
23.0927809982
 20
2.6084116058
 10
23.0927809982
 20
2.5369826889
 10
23.0213520813
 20
2.4655560379
 10
22.9499231644
 20
2.4655560379
 10
22.8070675964
 20
2.5369826889
 10
22.7356386795
 20
2.6084116058
 10
22.7356386795
 20
2.6798405228
  0
LINE
  5
24C
100
AcDbEntity
  8
RACCORDO
100
AcDbLine
 62
253
  6
CONTINUOUS
 10
-11.0
 20
21.6001713375
 11
-10.8785866462
 21
21.4787579837
  0
LINE
  5
24D
100
AcDbEntity
  8
RACCORDO
100
AcDbLine
 62
253
  6
CONTINUOUS
 10
-10.5001713375
 20
22.1
 11
-10.3787579846
 21
21.9785866471
  0
LINE
  5
24E
100
AcDbEntity
  8
RACCORDO
100
AcDbLine
 62
253
  6
CONTINUOUS
 10
10.3945930754
 20
-20.8300973565
 11
10.3945930793
 21
20.8300973579
  0
LWPOLYLINE
  5
24F
100
AcDbEntity
  8
0
100
AcDbPolyline
 62
7
  6
CONTINUOUS
 90
3
 70
0
 43
0.3500000006
 10
22.9499231644
 20
2.7512694397
 10
23.1642099152
 20
2.6798405228
 10
23.449923317
 20
2.5369826889
  0
LINE
  5
250
100
AcDbEntity
  8
RACCORDO
100
AcDbLine
 62
7
  6
CONTINUOUS
 10
11.0
 20
-21.6001713375
 11
11.0
 21
21.6001713375
  0
LWPOLYLINE
  5
251
100
AcDbEntity
  8
0
100
AcDbPolyline
 62
7
  6
CONTINUOUS
 90
3
 70
0
 43
0.3500000006
 10
22.5927808456
 20
1.179840065
 10
22.5927808456
 20
-0.3201603928
 10
20.2356379166
 20
0.3226975937
  0
LWPOLYLINE
  5
252
100
AcDbEntity
  8
0
100
AcDbPolyline
 62
7
  6
CONTINUOUS
 90
3
 70
0
 43
0.3500000006
 10
22.5927808456
 20
-1.1773028641
 10
22.5927808456
 20
-2.6773021889
 10
20.2356379166
 20
-2.0344453354
  0
LWPOLYLINE
  5
253
100
AcDbEntity
  8
0
100
AcDbPolyline
 62
7
  6
CONTINUOUS
 90
7
 70
0
 43
0.3500000006
 10
23.2356388321
 20
5.2512702026
 10
23.2356388321
 20
3.7512697449
 10
21.0927803879
 20
5.2512702026
 10
20.6642091522
 20
5.2512702026
 10
20.2356379166
 20
4.822698967
 10
20.2356379166
 20
4.1798409805
 10
20.878495903
 20
3.7512697449
  0
LINE
  5
254
100
AcDbEntity
  8
RACCORDO
100
AcDbLine
 62
7
  6
CONTINUOUS
 10
-10.5001713375
 20
22.1
 11
10.5001713375
 21
22.1
  0
LWPOLYLINE
  5
255
100
AcDbEntity
  8
0
100
AcDbPolyline
 62
7
  6
CONTINUOUS
 90
7
 70
0
 43
0.3500000006
 10
1.5000000329
 20
35.8435391235
 10
-0.0
 20
35.8435391235
 10
1.5000000329
 20
37.9863975677
 10
1.5000000329
 20
38.4149665375
 10
1.0714285848
 20
38.8435400391
 10
0.4285714127
 20
38.8435400391
 10
-0.0
 20
38.2006820526
  0
LWPOLYLINE
  5
256
100
AcDbEntity
  8
0
100
AcDbPolyline
 62
7
  6
CONTINUOUS
 90
7
 70
0
 43
0.3500000006
 10
-0.8571428254
 20
35.8435391235
 10
-2.3571427875
 20
35.8435391235
 10
-0.8571428254
 20
37.9863975677
 10
-0.8571428254
 20
38.4149665375
 10
-1.2857142735
 20
38.8435400391
 10
-1.9285714102
 20
38.8435400391
 10
-2.3571427875
 20
38.2006820526
  0
LWPOLYLINE
  5
257
100
AcDbEntity
  8
0
100
AcDbPolyline
 62
7
  6
CONTINUOUS
 90
10
 70
0
 43
0.3500000006
 10
-28.3269981308
 20
38.8435400391
 10
-28.9698561172
 20
38.2006820526
 10
-29.3984273529
 20
37.3435395813
 10
-29.3984273529
 20
36.2721080933
 10
-28.9698561172
 20
35.8435391235
 10
-28.3269981308
 20
35.8435391235
 10
-27.8984268951
 20
36.2721080933
 10
-27.8984268951
 20
37.1292505646
 10
-28.3269981308
 20
37.5578240662
 10
-29.255569519
 20
37.5578240662
  0
LINE
  5
258
100
AcDbEntity
  8
RACCORDO
100
AcDbLine
 62
7
  6
CONTINUOUS
 10
-22.8341321511
 20
-22.1
 11
-27.8243308813
 21
-21.9693270474
  0
LINE
  5
259
100
AcDbEntity
  8
RACCORDO
100
AcDbLine
 62
253
  6
CONTINUOUS
 10
-28.639906646
 20
-20.8300973803
 11
-28.1545916549
 21
-20.8087575816
  0
LINE
  5
25A
100
AcDbEntity
  8
RACCORDO
100
AcDbLine
 62
253
  6
CONTINUOUS
 10
-22.8341321511
 20
-21.6001713375
 11
-27.4707210712
 21
-21.4787579837
  0
LINE
  5
25B
100
AcDbEntity
  8
0
100
AcDbLine
 62
7
  6
CONTINUOUS
 10
-29.2335497431
 20
-15.5000048185
 11
-29.2208457903
 21
-15.4999632557
  0
LWPOLYLINE
  5
25C
100
AcDbEntity
  8
0
100
AcDbPolyline
 62
7
  6
CONTINUOUS
 90
3
 70
0
 43
0.3500000006
 10
-26.3269975204
 20
36.1292502594
 10
-26.3984264374
 20
35.9149657745
 10
-26.5412842712
 20
35.6292546387
  0
LINE
  5
25D
100
AcDbEntity
  8
0
100
AcDbLine
 62
7
  6
CONTINUOUS
 10
-29.4477041964
 20
-7.4999646394
 11
-29.4636520774
 21
-7.5000039898
  0
LWPOLYLINE
  5
25E
100
AcDbEntity
  8
0
100
AcDbPolyline
 62
7
  6
CONTINUOUS
 90
3
 70
0
 10
-29.2337095389
 20
-15.5000053029
 10
-29.1541859084
 20
-17.430248501
 10
-28.9912863005
 20
-20.832235143
  0
LWPOLYLINE
  5
25F
100
AcDbEntity
  8
0
100
AcDbPolyline
 62
7
  6
CONTINUOUS
 90
10
 70
0
 10
-28.9912863005
 20
20.8322351429
 10
-29.1544763451
 20
17.4235885418
 10
-29.2911660325
 20
13.9397926404
 10
-29.3974874277
 20
10.45493781
 10
-29.473429557
 20
6.9692886865
 10
-29.5189839723
 20
3.4831099596
 10
-29.5341494071
 20
-0.0033334725
 10
-29.518925862
 20
-3.4897766251
 10
-29.4733133377
 20
-6.9759545133
 10
-29.4638286089
 20
-7.500004467
  0
LWPOLYLINE
  5
260
100
AcDbEntity
  8
SUPERFICI
100
AcDbPolyline
 62
7
  6
CONTINUOUS
 90
10
 70
0
 10
-29.463828609
 20
-7.500004467
 10
-29.5475420302
 20
-8.3262107484
 10
-29.610868422
 20
-9.2342481114
 10
-29.6443678338
 20
-10.1433946262
 10
-29.6480310212
 20
-11.052903247
 10
-29.6218523516
 20
-11.962020188
 10
-29.565901058
 20
-12.8697696056
 10
-29.4803193128
 20
-13.7749582863
 10
-29.3652520243
 20
-14.676387784
 10
-29.2337095389
 20
-15.5000053029
  0
LWPOLYLINE
  5
261
100
AcDbEntity
  8
0
100
AcDbPolyline
 62
7
  6
CONTINUOUS
 90
4
 70
0
 43
0.3500000006
 10
-25.3269972153
 20
38.2006820526
 10
-25.3269972153
 20
38.8435400391
 10
-23.8269990234
 20
38.8435400391
 10
-24.6841414948
 20
35.8435391235
  0
LINE
  5
262
100
AcDbEntity
  8
RACCORDO
100
AcDbLine
 62
7
  6
CONTINUOUS
 10
-22.8341321511
 20
-22.1
 11
-22.8341321511
 21
22.1
  0
LWPOLYLINE
  5
263
100
AcDbEntity
  8
0
100
AcDbPolyline
 62
7
  6
CONTINUOUS
 90
10
 70
0
 43
0.3500000006
 10
-26.3984264374
 20
36.3435392761
 10
-26.3269975204
 20
36.2006814423
 10
-26.3269975204
 20
36.1292502594
 10
-26.4698553543
 20
35.9863969574
 10
-26.5412842712
 20
35.9863969574
 10
-26.6127131882
 20
36.0578236084
 10
-26.6127131882
 20
36.1292502594
 10
-26.5412842712
 20
36.2721080933
 10
-26.4698553543
 20
36.3435392761
 10
-26.3984264374
 20
36.3435392761
  0
LINE
  5
264
100
AcDbEntity
  8
RACCORDO
100
AcDbLine
 62
253
  6
CONTINUOUS
 10
-27.4707210312
 20
21.4787579847
 11
-22.8341321511
 21
21.6001713375
  0
LINE
  5
265
100
AcDbEntity
  8
RACCORDO
100
AcDbLine
 62
7
  6
CONTINUOUS
 10
-27.8243308657
 20
21.9693270478
 11
-22.8341321511
 21
22.1
  0
LINE
  5
266
100
AcDbEntity
  8
RACCORDO
100
AcDbLine
 62
253
  6
CONTINUOUS
 10
-28.6398932627
 20
20.8300968079
 11
-28.1545916336
 21
20.8087575838
  0
ARC
  5
267
100
AcDbEntity
  8
RACCORDO
100
AcDbCircle
 62
253
  6
CONTINUOUS
 10
-18539.6607983261
 20
0.0000002463
 40
18528.8118040887
100
AcDbArc
 50
359.9356540363
 51
0.0643459621
  0
ARC
  5
268
100
AcDbEntity
  8
RACCORDO
100
AcDbCircle
 62
253
  6
CONTINUOUS
 10
18539.6607908762
 20
-0.0000002473
 40
18528.8117966388
100
AcDbArc
 50
179.9356540363
 51
180.0643459622
  0
ARC
  5
269
100
AcDbEntity
  8
RACCORDO
100
AcDbCircle
 62
253
  6
CONTINUOUS
 10
0.0000000426
 20
-5837.2304147594
 40
5815.2610898377
100
AcDbArc
 50
89.8977415918
 51
90.102258409
  0
ARC
  5
26A
100
AcDbEntity
  8
RACCORDO
100
AcDbCircle
 62
253
  6
CONTINUOUS
 10
-0.0000000406
 20
5837.2304075897
 40
5815.261082668
100
AcDbArc
 50
269.8977415916
 51
270.1022584092
  0
ARC
  5
26B
100
AcDbEntity
  8
0
100
AcDbCircle
 62
253
  6
CONTINUOUS
 10
-189.9964536416
 20
-11.4986996627
 40
191.7887735219
100
AcDbArc
 50
358.8045574262
 51
1.1946826783
  0
ARC
  5
26C
100
AcDbEntity
  8
0
100
AcDbCircle
 62
253
  6
CONTINUOUS
 10
189.9876751158
 20
-11.4985582516
 40
191.7799949999
100
AcDbArc
 50
178.8053048853
 51
181.1955395588
  0
ARC
  5
26D
100
AcDbEntity
  8
0
100
AcDbCircle
 62
7
  6
CONTINUOUS
 10
1.9999618638
 20
-11.497076815
 40
4.0029231852
100
AcDbArc
 50
270.0005464339
 51
273.3073428455
  0
ARC
  5
26E
100
AcDbEntity
  8
0
100
AcDbCircle
 62
7
  6
CONTINUOUS
 10
-1.9999569104
 20
-11.4974428418
 40
4.0025571584
100
AcDbArc
 50
266.671967119
 51
269.9993826094
  0
ARC
  5
26F
100
AcDbEntity
  8
0
100
AcDbCircle
 62
7
  6
CONTINUOUS
 10
-1.9998306552
 20
-11.4997810391
 40
4.00024278
100
AcDbArc
 50
180.1357056169
 51
266.6682176061
  0
ARC
  5
270
100
AcDbEntity
  8
0
100
AcDbCircle
 62
7
  6
CONTINUOUS
 10
1.9998332209
 20
-11.4997787773
 40
4.00024081
100
AcDbArc
 50
273.3114150511
 51
359.8595599138
  0
ARC
  5
271
100
AcDbEntity
  8
0
100
AcDbCircle
 62
7
  6
CONTINUOUS
 10
1.9998898477
 20
-11.5001645102
 40
4.0001726037
100
AcDbArc
 50
0.1286835126
 51
89.9984227981
  0
ARC
  5
272
100
AcDbEntity
  8
0
100
AcDbCircle
 62
7
  6
CONTINUOUS
 10
-1.9999254647
 20
-11.5001276229
 40
4.0001260571
100
AcDbArc
 50
90.0010670568
 51
179.8680056913
  0
ARC
  5
273
100
AcDbEntity
  8
DRAFT
100
AcDbCircle
 62
7
  6
CONTINUOUS
 10
1.9999905195
 20
-11.500000013
 40
3.9999914808
100
AcDbArc
 50
270.0073632138
 51
90.0059497119
  0
ARC
  5
274
100
AcDbEntity
  8
DRAFT
100
AcDbCircle
 62
7
  6
CONTINUOUS
 10
-1.9999905231
 20
-11.5000000142
 40
3.9999914768
100
AcDbArc
 50
89.9940487857
 51
269.9926389872
  0
ARC
  5
275
100
AcDbEntity
  8
RACCORDO
100
AcDbCircle
 62
253
  6
CONTINUOUS
 10
-10.3783243411
 20
21.4783243411
 40
0.5002656626
100
AcDbArc
 50
90.0496657111
 51
179.9503342889
  0
ARC
  5
276
100
AcDbEntity
  8
RACCORDO
100
AcDbCircle
 62
253
  6
CONTINUOUS
 10
10.3783243411
 20
-21.4783243411
 40
0.5002656627
100
AcDbArc
 50
270.0496657119
 51
359.9503342881
  0
ARC
  5
277
100
AcDbEntity
  8
RACCORDO
100
AcDbCircle
 62
253
  6
CONTINUOUS
 10
10.378324344
 20
21.478324344
 40
0.5002656609
100
AcDbArc
 50
0.0496655047
 51
89.9503344953
  0
ARC
  5
278
100
AcDbEntity
  8
RACCORDO
100
AcDbCircle
 62
253
  6
CONTINUOUS
 10
-10.3783243439
 20
-21.4783243439
 40
0.5002656609
100
AcDbArc
 50
180.0496655118
 51
269.9503344882
  0
ARC
  5
279
100
AcDbEntity
  8
RACCORDO
100
AcDbCircle
 62
253
  6
CONTINUOUS
 10
457.6212757538
 20
-0.0000000031
 40
486.7071300767
100
AcDbArc
 50
177.5471053637
 51
182.4528946354
  0
ARC
  5
27A
100
AcDbEntity
  8
RACCORDO
100
AcDbCircle
 62
253
  6
CONTINUOUS
 10
456.8302495365
 20
-0.0000002472
 40
485.431046151
100
AcDbArc
 50
177.5431743634
 51
182.4568255779
  0
ARC
  5
27B
100
AcDbEntity
  8
0
100
AcDbCircle
 62
253
  6
CONTINUOUS
 10
-2.1300619766
 20
-10.7211629373
 40
27.5105751776
100
AcDbArc
 50
173.2758803357
 51
190.0034331911
  0
ARC
  5
27C
100
AcDbEntity
  8
0
100
AcDbCircle
 62
253
  6
CONTINUOUS
 10
-2.1830760953
 20
-10.723992917
 40
27.4544941937
100
AcDbArc
 50
173.2561935528
 51
190.0181370284
  0
ARC
  5
27D
100
AcDbEntity
  8
RACCORDO
100
AcDbCircle
 62
253
  6
CONTINUOUS
 10
-27.4401128202
 20
-20.7779450208
 40
1.2009812531
100
AcDbArc
 50
182.4889517014
 51
268.5396609651
  0
ARC
  5
27E
100
AcDbEntity
  8
RACCORDO
100
AcDbCircle
 62
253
  6
CONTINUOUS
 10
-27.4401131299
 20
20.7779453809
 40
1.2009812519
100
AcDbArc
 50
91.4603227922
 51
177.5110647515
  0
ARC
  5
27F
100
AcDbEntity
  8
RACCORDO
100
AcDbCircle
 62
7
  6
CONTINUOUS
 10
-27.7929147664
 20
-20.7697383564
 40
1.2
100
AcDbArc
 50
182.9853521812
 51
268.5
  0
ARC
  5
280
100
AcDbEntity
  8
RACCORDO
100
AcDbCircle
 62
7
  6
CONTINUOUS
 10
-27.7929147672
 20
20.7697383563
 40
1.2
100
AcDbArc
 50
91.5
 51
177.014647819
  0
LINE
  5
281
100
AcDbEntity
  8
0
100
AcDbLine
 62
7
  6
CONTINUOUS
 10
2.0000000171
 20
-7.49997356
 11
1.8622855569
 21
-7.4999682638
  0
LINE
  5
282
100
AcDbEntity
  8
0
100
AcDbLine
 62
7
  6
CONTINUOUS
 10
1.8622855569
 20
-7.4999682638
 11
1.7637594665
 21
-7.4999647797
  0
LINE
  5
283
100
AcDbEntity
  8
0
100
AcDbLine
 62
7
  6
CONTINUOUS
 10
1.7637594665
 20
-7.4999647797
 11
1.750629345
 21
-7.499965104
  0
LINE
  5
284
100
AcDbEntity
  8
0
100
AcDbLine
 62
7
  6
CONTINUOUS
 10
-1.7505714505
 20
-15.4999686567
 11
-1.5996544108
 21
-15.4999746954
  0
LINE
  5
285
100
AcDbEntity
  8
0
100
AcDbLine
 62
7
  6
CONTINUOUS
 10
-1.5996544108
 20
-15.4999746954
 11
1.5996547851
 21
-15.4999746954
  0
LINE
  5
286
100
AcDbEntity
  8
0
100
AcDbLine
 62
7
  6
CONTINUOUS
 10
1.5996547851
 20
-15.4999746954
 11
1.750576309
 21
-15.4999686565
  0
LINE
  5
287
100
AcDbEntity
  8
0
100
AcDbLine
 62
7
  6
CONTINUOUS
 10
1.7506293596
 20
-7.499973747
 11
0.6909448589
 21
-7.4999997451
  0
LINE
  5
288
100
AcDbEntity
  8
0
100
AcDbLine
 62
7
  6
CONTINUOUS
 10
0.6909448589
 20
-7.4999997451
 11
0.6376203156
 21
-7.5000004567
  0
LINE
  5
289
100
AcDbEntity
  8
0
100
AcDbLine
 62
7
  6
CONTINUOUS
 10
0.6376203156
 20
-7.5000004567
 11
0.2456767279
 21
-7.5000039399
  0
LINE
  5
28A
100
AcDbEntity
  8
0
100
AcDbLine
 62
7
  6
CONTINUOUS
 10
0.2456767279
 20
-7.5000039399
 11
0.2011350935
 21
-7.5000041404
  0
LINE
  5
28B
100
AcDbEntity
  8
0
100
AcDbLine
 62
7
  6
CONTINUOUS
 10
0.2011350935
 20
-7.5000041404
 11
-0.2010801101
 21
-7.5000041406
  0
LINE
  5
28C
100
AcDbEntity
  8
0
100
AcDbLine
 62
7
  6
CONTINUOUS
 10
-0.2010801101
 20
-7.5000041406
 11
-0.245648777
 21
-7.50000394
  0
LINE
  5
28D
100
AcDbEntity
  8
0
100
AcDbLine
 62
7
  6
CONTINUOUS
 10
-0.245648777
 20
-7.50000394
 11
-0.6375705057
 21
-7.5000004574
  0
LINE
  5
28E
100
AcDbEntity
  8
0
100
AcDbLine
 62
7
  6
CONTINUOUS
 10
-0.6375705057
 20
-7.5000004574
 11
-0.6909300874
 21
-7.4999997453
  0
LINE
  5
28F
100
AcDbEntity
  8
0
100
AcDbLine
 62
7
  6
CONTINUOUS
 10
-0.6909300874
 20
-7.4999997453
 11
-1.7506304038
 21
-7.499973747
  0
LINE
  5
290
100
AcDbEntity
  8
0
100
AcDbLine
 62
7
  6
CONTINUOUS
 10
-1.9999999744
 20
-15.499968581
 11
-1.8631685912
 21
-15.4999623654
  0
LINE
  5
291
100
AcDbEntity
  8
0
100
AcDbLine
 62
7
  6
CONTINUOUS
 10
-1.8631685912
 20
-15.4999623654
 11
-1.7632935965
 21
-15.4999581675
  0
LINE
  5
292
100
AcDbEntity
  8
0
100
AcDbLine
 62
7
  6
CONTINUOUS
 10
-1.7632935965
 20
-15.4999581675
 11
-1.7505714728
 21
-15.4999585453
  0
LINE
  5
293
100
AcDbEntity
  8
0
100
AcDbLine
 62
7
  6
CONTINUOUS
 10
-1.7506303891
 20
-7.4999651033
 11
-1.7637600249
 21
-7.499964779
  0
LINE
  5
294
100
AcDbEntity
  8
0
100
AcDbLine
 62
7
  6
CONTINUOUS
 10
-1.7637600249
 20
-7.499964779
 11
-1.8622949716
 21
-7.4999682636
  0
LINE
  5
295
100
AcDbEntity
  8
0
100
AcDbLine
 62
7
  6
CONTINUOUS
 10
-1.8622949716
 20
-7.4999682636
 11
-2.0000000171
 21
-7.4999735593
  0
LINE
  5
296
100
AcDbEntity
  8
0
100
AcDbLine
 62
7
  6
CONTINUOUS
 10
-6.0001937102
 20
-11.4909120475
 11
-6.0002041669
 21
-11.4999819534
  0
LINE
  5
297
100
AcDbEntity
  8
0
100
AcDbLine
 62
7
  6
CONTINUOUS
 10
-6.0001932983
 20
-11.5092559551
 11
-6.0002041669
 21
-11.4999819534
  0
LINE
  5
298
100
AcDbEntity
  8
0
100
AcDbLine
 62
7
  6
CONTINUOUS
 10
6.0002041521
 20
-11.4999819464
 11
6.0001942848
 21
-11.4911800073
  0
LINE
  5
299
100
AcDbEntity
  8
0
100
AcDbLine
 62
7
  6
CONTINUOUS
 10
6.0001925195
 20
-11.5095842452
 11
6.0002041521
 21
-11.4999819464
  0
LINE
  5
29A
100
AcDbEntity
  8
0
100
AcDbLine
 62
7
  6
CONTINUOUS
 10
1.7505763313
 20
-15.499958543
 11
1.7632975312
 21
-15.4999581653
  0
LINE
  5
29B
100
AcDbEntity
  8
0
100
AcDbLine
 62
7
  6
CONTINUOUS
 10
1.7632975312
 20
-15.4999581653
 11
1.8631910372
 21
-15.4999623647
  0
LINE
  5
29C
100
AcDbEntity
  8
0
100
AcDbLine
 62
7
  6
CONTINUOUS
 10
1.8631910372
 20
-15.4999623647
 11
1.9999999744
 21
-15.4999685789
  0
LINE
  5
29D
100
AcDbEntity
  8
DRAFT
100
AcDbLine
 62
7
  6
CONTINUOUS
 10
2.0005045873
 20
-15.4999575533
 11
-2.0005044373
 21
-15.4999575533
  0
LINE
  5
29E
100
AcDbEntity
  8
DRAFT
100
AcDbLine
 62
7
  6
CONTINUOUS
 10
-1.9995750569
 20
-7.4999642819
 11
1.9995751582
 21
-7.4999642819
  0
SPLINE
  5
29F
100
AcDbEntity
  8
RACCORDO
100
AcDbSpline
 62
253
  6
CONTINUOUS
 70
0
 71
3
 72
18
 73
14
 74
12
 42
0.0000001
 43
0.0000001
 44
0.0000000001
 12
0.4674659251
 22
-0.0018790128
 32
0.0
 13
0.243585251
 23
-0.3989914126
 33
0.0
 40
0.0
 40
0.0
 40
0.0
 40
0.0
 40
0.1945478309
 40
0.3803770597
 40
0.5506424843
 40
0.6997802634
 40
0.82282299
 40
0.8731784767
 40
0.9155489906
 40
0.949575992
 40
0.9749847586
 40
0.9917028225
 40
1.0
 40
1.0
 40
1.0
 40
1.0
 10
10.3945921764
 20
20.8300968079
 30
0.0
 10
10.4249070037
 20
20.8299749553
 30
0.0
 10
10.484177559
 20
20.8295045256
 30
0.0
 10
10.5699698828
 20
20.8281157996
 30
0.0
 10
10.6486736286
 20
20.8261006413
 30
0.0
 10
10.7175675138
 20
20.8235308063
 30
0.0
 10
10.7677683009
 20
20.8208961192
 30
0.0
 10
10.8012917643
 20
20.8184658701
 30
0.0
 10
10.8209910291
 20
20.8167057756
 30
0.0
 10
10.8366832939
 20
20.814878987
 30
0.0
 10
10.8485838683
 20
20.8130956499
 30
0.0
 10
10.8559093998
 20
20.8112485531
 30
0.0
 10
10.8600051752
 20
20.8098610847
 30
0.0
 10
10.8606788652
 20
20.8087575838
 30
0.0
 11
10.3945921764
 21
20.8300968079
 31
0.0
 11
10.4855344553
 21
20.8293658546
 31
0.0
 11
10.5723921935
 21
20.8279343264
 31
0.0
 11
10.6519588567
 21
20.8258512116
 31
0.0
 11
10.7216253006
 21
20.8231863512
 31
0.0
 11
10.7790574989
 21
20.8200321744
 31
0.0
 11
10.8025336557
 21
20.8183042107
 31
0.0
 11
10.8222577454
 21
20.8164945646
 31
0.0
 11
10.8380532225
 21
20.8146177114
 31
0.0
 11
10.8497735175
 21
20.8126896307
 31
0.0
 11
10.8573389439
 21
20.8107296582
 31
0.0
 11
10.8606788652
 21
20.8087575838
 31
0.0
  0
SPLINE
  5
2A0
100
AcDbEntity
  8
RACCORDO
100
AcDbSpline
 62
253
  6
CONTINUOUS
 70
0
 71
3
 72
18
 73
14
 74
12
 42
0.0000001
 43
0.0000001
 44
0.0000000001
 12
-0.4674652267
 22
-0.0018790638
 32
0.0
 13
-0.2434637147
 23
-0.3990647675
 33
0.0
 40
0.0
 40
0.0
 40
0.0
 40
0.0
 40
0.1945509067
 40
0.3803826071
 40
0.5506495734
 40
0.69978781
 40
0.8228299002
 40
0.8731846833
 40
0.9155542647
 40
0.9495801285
 40
0.9749875825
 40
0.991704206
 40
1.0
 40
1.0
 40
1.0
 40
1.0
 10
-10.3945930753
 20
20.8300973803
 30
0.0
 10
-10.4249083365
 20
20.8299755225
 30
0.0
 10
-10.4841796677
 20
20.8295050739
 30
0.0
 10
-10.5699729671
 20
20.8281162944
 30
0.0
 10
-10.6486772912
 20
20.8261010639
 30
0.0
 10
-10.7175712806
 20
20.8235311473
 30
0.0
 10
-10.7677718566
 20
20.8208963831
 30
0.0
 10
-10.8012949015
 20
20.818466068
 30
0.0
 10
-10.8209937175
 20
20.8167059301
 30
0.0
 10
-10.8366853763
 20
20.8148791189
 30
0.0
 10
-10.8485854278
 20
20.8130957274
 30
0.0
 10
-10.8559100772
 20
20.8112486839
 30
0.0
 10
-10.8600056231
 20
20.8098611014
 30
0.0
 10
-10.8606788647
 20
20.8087575816
 30
0.0
 11
-10.3945930753
 21
20.8300973803
 31
0.0
 11
-10.485536656
 21
20.8293663963
 31
0.0
 11
-10.5723954191
 21
20.8279348114
 31
0.0
 11
-10.6519626822
 21
20.8258516202
 31
0.0
 11
-10.7216292327
 21
20.8231866725
 31
0.0
 11
-10.7790610419
 21
20.8200324052
 31
0.0
 11
-10.8025368304
 21
20.8183043973
 31
0.0
 11
-10.8222604488
 21
20.8164947084
 31
0.0
 11
-10.8380553616
 21
20.8146178145
 31
0.0
 11
-10.8497750105
 21
20.8126896957
 31
0.0
 11
-10.8573397202
 21
20.8107296881
 31
0.0
 11
-10.8606788647
 21
20.8087575816
 31
0.0
  0
SPLINE
  5
2A1
100
AcDbEntity
  8
RACCORDO
100
AcDbSpline
 62
253
  6
CONTINUOUS
 70
0
 71
3
 72
18
 73
14
 74
12
 42
0.0000001
 43
0.0000001
 44
0.0000000001
 12
-0.4674659251
 22
0.0018790128
 32
0.0
 13
-0.2435852513
 23
0.3989914123
 33
0.0
 40
0.0
 40
0.0
 40
0.0
 40
0.0
 40
0.1945478309
 40
0.3803770597
 40
0.5506424843
 40
0.6997802633
 40
0.82282299
 40
0.8731784767
 40
0.9155489906
 40
0.949575992
 40
0.9749847586
 40
0.9917028225
 40
1.0
 40
1.0
 40
1.0
 40
1.0
 10
-10.3945921765
 20
-20.8300968079
 30
0.0
 10
-10.4249070037
 20
-20.8299749553
 30
0.0
 10
-10.484177559
 20
-20.8295045256
 30
0.0
 10
-10.5699698828
 20
-20.8281157996
 30
0.0
 10
-10.6486736287
 20
-20.8261006413
 30
0.0
 10
-10.7175675138
 20
-20.8235308063
 30
0.0
 10
-10.7677683009
 20
-20.8208961192
 30
0.0
 10
-10.8012917643
 20
-20.8184658701
 30
0.0
 10
-10.8209910291
 20
-20.8167057756
 30
0.0
 10
-10.8366832939
 20
-20.814878987
 30
0.0
 10
-10.8485838683
 20
-20.8130956499
 30
0.0
 10
-10.8559093998
 20
-20.8112485531
 30
0.0
 10
-10.8600051752
 20
-20.8098610847
 30
0.0
 10
-10.8606788652
 20
-20.8087575838
 30
0.0
 11
-10.3945921765
 21
-20.8300968079
 31
0.0
 11
-10.4855344554
 21
-20.8293658546
 31
0.0
 11
-10.5723921936
 21
-20.8279343264
 31
0.0
 11
-10.6519588567
 21
-20.8258512116
 31
0.0
 11
-10.7216253006
 21
-20.8231863512
 31
0.0
 11
-10.7790574989
 21
-20.8200321744
 31
0.0
 11
-10.8025336557
 21
-20.8183042107
 31
0.0
 11
-10.8222577454
 21
-20.8164945646
 31
0.0
 11
-10.8380532225
 21
-20.8146177114
 31
0.0
 11
-10.8497735175
 21
-20.8126896307
 31
0.0
 11
-10.8573389439
 21
-20.8107296582
 31
0.0
 11
-10.8606788652
 21
-20.8087575838
 31
0.0
  0
SPLINE
  5
2A2
100
AcDbEntity
  8
RACCORDO
100
AcDbSpline
 62
253
  6
CONTINUOUS
 70
0
 71
3
 72
21
 73
17
 74
15
 42
0.0000001
 43
0.0000001
 44
0.0000000001
 12
0.5092875708
 22
1.0297667776
 32
0.0
 13
0.0014442227
 23
1.1488217269
 33
0.0
 40
0.0
 40
0.0
 40
0.0
 40
0.0
 40
0.0025180144
 40
0.0072873235
 40
0.0143192941
 40
0.0236068494
 40
0.0488920216
 40
0.0829235471
 40
0.1254109572
 40
0.1759900656
 40
0.2342086345
 40
0.2995741332
 40
0.4493742282
 40
0.6201195446
 40
0.8058696727
 40
1.0
 40
1.0
 40
1.0
 40
1.0
 10
10.3787579837
 20
-21.9785866462
 30
0.0
 10
10.3791854482
 20
-21.9777223237
 30
0.0
 10
10.3796389558
 20
-21.974912013
 30
0.0
 10
10.3803760977
 20
-21.9695166422
 30
0.0
 10
10.3810384226
 20
-21.9614466464
 30
0.0
 10
10.3821066186
 20
-21.9455613289
 30
0.0
 10
10.383301741
 20
-21.9193068782
 30
0.0
 10
10.384654094
 20
-21.8803492469
 30
0.0
 10
10.3859576044
 20
-21.8316936919
 30
0.0
 10
10.3872146757
 20
-21.7737744948
 30
0.0
 10
10.3884054138
 20
-21.7070906055
 30
0.0
 10
10.3899621242
 20
-21.6024121697
 30
0.0
 10
10.3916088519
 20
-21.454639754
 30
0.0
 10
10.3931057715
 20
-21.2607640301
 30
0.0
 10
10.3941425461
 20
-21.0499092171
 30
0.0
 10
10.3944996229
 20
-20.9044377369
 30
0.0
 10
10.3945930787
 20
-20.8300973576
 30
0.0
 11
10.3787579837
 21
-21.9785866462
 31
0.0
 11
10.3794894962
 21
-21.9757879137
 31
0.0
 11
10.3802209297
 21
-21.9703578645
 31
0.0
 11
10.380950216
 21
-21.9623123631
 31
0.0
 11
10.381675287
 21
-21.9516672741
 31
0.0
 11
10.3831047883
 21
-21.9226542912
 31
0.0
 11
10.3844959382
 21
-21.8835828627
 31
0.0
 11
10.3858368578
 21
-21.8347907866
 31
0.0
 11
10.387116576
 21
-21.7766984558
 31
0.0
 11
10.3883252116
 21
-21.7098265677
 31
0.0
 11
10.389452996
 21
-21.6347416725
 31
0.0
 11
10.3914277329
 21
-21.4626592628
 31
0.0
 11
10.3929736008
 21
-21.26650927
 31
0.0
 11
10.3940411241
 21
-21.0531179887
 31
0.0
 11
10.3945930787
 21
-20.8300973576
 31
0.0
  0
SPLINE
  5
2A3
100
AcDbEntity
  8
RACCORDO
100
AcDbSpline
 62
253
  6
CONTINUOUS
 70
0
 71
3
 72
21
 73
17
 74
15
 42
0.0000001
 43
0.0000001
 44
0.0000000001
 12
0.0014442222
 22
-1.1488217277
 32
0.0
 13
0.5092876121
 23
-1.0297667581
 33
0.0
 40
0.0
 40
0.0
 40
0.0
 40
0.0
 40
0.194130327
 40
0.3798804549
 40
0.5506257712
 40
0.7004258663
 40
0.7657913651
 40
0.824009934
 40
0.8745890424
 40
0.9170764527
 40
0.9511079782
 40
0.9763931504
 40
0.9856807057
 40
0.9927126763
 40
0.9974819854
 40
1.0
 40
1.0
 40
1.0
 40
1.0
 10
-10.3945930817
 20
-20.830097358
 30
0.0
 10
-10.3944996259
 20
-20.9044377372
 30
0.0
 10
-10.3941425535
 20
-21.0499092174
 30
0.0
 10
-10.393105778
 20
-21.2607640303
 30
0.0
 10
-10.3916088572
 20
-21.4546397543
 30
0.0
 10
-10.389962129
 20
-21.60241217
 30
0.0
 10
-10.3884054178
 20
-21.707090606
 30
0.0
 10
-10.3872146793
 20
-21.7737744954
 30
0.0
 10
-10.3859576077
 20
-21.8316936926
 30
0.0
 10
-10.3846540968
 20
-21.8803492477
 30
0.0
 10
-10.3833017432
 20
-21.9193068791
 30
0.0
 10
-10.3821066204
 20
-21.9455613299
 30
0.0
 10
-10.3810384241
 20
-21.9614466473
 30
0.0
 10
-10.3803760991
 20
-21.969516643
 30
0.0
 10
-10.379638957
 20
-21.974912014
 30
0.0
 10
-10.3791854493
 20
-21.9777223247
 30
0.0
 10
-10.3787579848
 20
-21.9785866472
 30
0.0
 11
-10.3945930817
 21
-20.830097358
 31
0.0
 11
-10.3940411303
 21
-21.0531179889
 31
0.0
 11
-10.3929736072
 21
-21.2665092701
 31
0.0
 11
-10.3914277383
 21
-21.462659263
 31
0.0
 11
-10.3894530006
 21
-21.6347416728
 31
0.0
 11
-10.3883252157
 21
-21.7098265681
 31
0.0
 11
-10.3871165796
 21
-21.7766984564
 31
0.0
 11
-10.385836861
 21
-21.8347907873
 31
0.0
 11
-10.3844959409
 21
-21.8835828636
 31
0.0
 11
-10.3831047904
 21
-21.9226542921
 31
0.0
 11
-10.3816752886
 21
-21.9516672751
 31
0.0
 11
-10.3809502175
 21
-21.962312364
 31
0.0
 11
-10.380220931
 21
-21.9703578653
 31
0.0
 11
-10.3794894974
 21
-21.9757879146
 31
0.0
 11
-10.3787579848
 21
-21.9785866472
 31
0.0
  0
SPLINE
  5
2A4
100
AcDbEntity
  8
RACCORDO
100
AcDbSpline
 62
253
  6
CONTINUOUS
 70
0
 71
3
 72
21
 73
17
 74
15
 42
0.0000001
 43
0.0000001
 44
0.0000000001
 12
-0.0014442221
 22
1.1488217285
 32
0.0
 13
-0.5092876109
 23
1.0297667595
 33
0.0
 40
0.0
 40
0.0
 40
0.0
 40
0.0
 40
0.194130327
 40
0.3798804549
 40
0.5506257712
 40
0.7004258663
 40
0.765791365
 40
0.824009934
 40
0.8745890424
 40
0.9170764526
 40
0.9511079782
 40
0.9763931504
 40
0.9856807057
 40
0.9927126763
 40
0.9974819854
 40
1.0
 40
1.0
 40
1.0
 40
1.0
 10
10.3945930817
 20
20.8300973572
 30
0.0
 10
10.3944996259
 20
20.9044377365
 30
0.0
 10
10.3941425534
 20
21.0499092168
 30
0.0
 10
10.3931057779
 20
21.2607640298
 30
0.0
 10
10.3916088571
 20
21.4546397539
 30
0.0
 10
10.389962129
 20
21.6024121697
 30
0.0
 10
10.3884054178
 20
21.7070906058
 30
0.0
 10
10.3872146792
 20
21.7737744952
 30
0.0
 10
10.3859576077
 20
21.8316936925
 30
0.0
 10
10.3846540968
 20
21.8803492476
 30
0.0
 10
10.3833017431
 20
21.9193068791
 30
0.0
 10
10.3821066203
 20
21.9455613298
 30
0.0
 10
10.3810384241
 20
21.9614466473
 30
0.0
 10
10.3803760991
 20
21.969516643
 30
0.0
 10
10.379638957
 20
21.974912014
 30
0.0
 10
10.3791854493
 20
21.9777223247
 30
0.0
 10
10.3787579847
 20
21.9785866472
 30
0.0
 11
10.3945930817
 21
20.8300973572
 31
0.0
 11
10.3940411303
 21
21.0531179883
 31
0.0
 11
10.3929736071
 21
21.2665092696
 31
0.0
 11
10.3914277383
 21
21.4626592626
 31
0.0
 11
10.3894530006
 21
21.6347416726
 31
0.0
 11
10.3883252156
 21
21.7098265679
 31
0.0
 11
10.3871165796
 21
21.7766984562
 31
0.0
 11
10.385836861
 21
21.8347907872
 31
0.0
 11
10.3844959408
 21
21.8835828635
 31
0.0
 11
10.3831047904
 21
21.9226542921
 31
0.0
 11
10.3816752886
 21
21.951667275
 31
0.0
 11
10.3809502175
 21
21.962312364
 31
0.0
 11
10.380220931
 21
21.9703578653
 31
0.0
 11
10.3794894974
 21
21.9757879146
 31
0.0
 11
10.3787579847
 21
21.9785866472
 31
0.0
  0
SPLINE
  5
2A5
100
AcDbEntity
  8
RACCORDO
100
AcDbSpline
 62
253
  6
CONTINUOUS
 70
0
 71
3
 72
21
 73
17
 74
15
 42
0.0000001
 43
0.0000001
 44
0.0000000001
 12
-0.509287571
 22
-1.0297667783
 32
0.0
 13
-0.0014442227
 23
-1.1488217276
 33
0.0
 40
0.0
 40
0.0
 40
0.0
 40
0.0
 40
0.0025180144
 40
0.0072873235
 40
0.0143192941
 40
0.0236068495
 40
0.0488920216
 40
0.0829235471
 40
0.1254109572
 40
0.1759900656
 40
0.2342086345
 40
0.2995741332
 40
0.4493742283
 40
0.6201195447
 40
0.8058696727
 40
1.0
 40
1.0
 40
1.0
 40
1.0
 10
-10.3787579837
 20
21.9785866462
 30
0.0
 10
-10.3791854482
 20
21.9777223237
 30
0.0
 10
-10.3796389558
 20
21.974912013
 30
0.0
 10
-10.3803760977
 20
21.9695166422
 30
0.0
 10
-10.3810384226
 20
21.9614466464
 30
0.0
 10
-10.3821066186
 20
21.9455613289
 30
0.0
 10
-10.383301741
 20
21.9193068782
 30
0.0
 10
-10.384654094
 20
21.8803492468
 30
0.0
 10
-10.3859576045
 20
21.8316936918
 30
0.0
 10
-10.3872146757
 20
21.7737744946
 30
0.0
 10
-10.3884054138
 20
21.7070906053
 30
0.0
 10
-10.3899621242
 20
21.6024121694
 30
0.0
 10
-10.3916088519
 20
21.4546397537
 30
0.0
 10
-10.3931057715
 20
21.2607640296
 30
0.0
 10
-10.3941425461
 20
21.0499092165
 30
0.0
 10
-10.3944996229
 20
20.9044377362
 30
0.0
 10
-10.3945930787
 20
20.8300973569
 30
0.0
 11
-10.3787579837
 21
21.9785866462
 31
0.0
 11
-10.3794894962
 21
21.9757879137
 31
0.0
 11
-10.3802209297
 21
21.9703578645
 31
0.0
 11
-10.380950216
 21
21.9623123631
 31
0.0
 11
-10.381675287
 21
21.9516672741
 31
0.0
 11
-10.3831047883
 21
21.9226542912
 31
0.0
 11
-10.3844959382
 21
21.8835828627
 31
0.0
 11
-10.3858368578
 21
21.8347907865
 31
0.0
 11
-10.387116576
 21
21.7766984557
 31
0.0
 11
-10.3883252116
 21
21.7098265675
 31
0.0
 11
-10.389452996
 21
21.6347416722
 31
0.0
 11
-10.3914277329
 21
21.4626592624
 31
0.0
 11
-10.3929736008
 21
21.2665092695
 31
0.0
 11
-10.3940411241
 21
21.0531179881
 31
0.0
 11
-10.3945930787
 21
20.8300973569
 31
0.0
  0
SPLINE
  5
2A6
100
AcDbEntity
  8
RACCORDO
100
AcDbSpline
 62
253
  6
CONTINUOUS
 70
0
 71
3
 72
19
 73
15
 74
13
 42
0.0000001
 43
0.0000001
 44
0.0000000001
 12
0.0007567078
 22
0.6707313449
 32
0.0
 13
0.4724844617
 23
0.4760667422
 33
0.0
 40
0.0
 40
0.0
 40
0.0
 40
0.0
 40
0.1942382544
 40
0.380029374
 40
0.550724005
 40
0.7003850702
 40
0.7656594894
 40
0.8237826736
 40
0.8742740962
 40
0.9166951155
 40
0.9506932745
 40
0.9759919201
 40
0.9924056629
 40
1.0
 40
1.0
 40
1.0
 40
1.0
 10
10.8606788653
 20
20.8087575838
 30
0.0
 10
10.8607278591
 20
20.8521848124
 30
0.0
 10
10.8610298315
 20
20.9371505824
 30
0.0
 10
10.8620987374
 20
21.0602760204
 30
0.0
 10
10.8637385002
 20
21.1734273651
 30
0.0
 10
10.8655914487
 20
21.2596276442
 30
0.0
 10
10.8673694679
 20
21.3206502025
 30
0.0
 10
10.8687352664
 20
21.3595079131
 30
0.0
 10
10.8701962322
 20
21.3932334724
 30
0.0
 10
10.8716827346
 20
21.4216019945
 30
0.0
 10
10.8733207255
 20
21.4442004611
 30
0.0
 10
10.8746997423
 20
21.4612760293
 30
0.0
 10
10.8765836636
 20
21.4717717476
 30
0.0
 10
10.8773905785
 20
21.4775528476
 30
0.0
 10
10.8785866472
 20
21.4787579847
 30
0.0
 11
10.8606788653
 21
20.8087575838
 31
0.0
 11
10.8611503466
 21
20.9390384992
 31
0.0
 11
10.8622537993
 21
21.0636496205
 31
0.0
 11
10.8639490073
 21
21.178127382
 31
0.0
 11
10.8661747602
 21
21.2784851348
 31
0.0
 11
10.8674624028
 21
21.3222478225
 31
0.0
 11
10.8688517733
 21
21.3612081233
 31
0.0
 11
10.8703302718
 21
21.3950420358
 31
0.0
 11
10.8718847755
 21
21.4234526653
 31
0.0
 11
10.8735019669
 21
21.4461988943
 31
0.0
 11
10.8751683544
 21
21.4630854784
 31
0.0
 11
10.8768690393
 21
21.4739625446
 31
0.0
 11
10.8785866472
 21
21.4787579847
 31
0.0
  0
SPLINE
  5
2A7
100
AcDbEntity
  8
RACCORDO
100
AcDbSpline
 62
253
  6
CONTINUOUS
 70
0
 71
3
 72
19
 73
15
 74
13
 42
0.0000001
 43
0.0000001
 44
0.0000000001
 12
-0.472484515
 22
0.4760666909
 32
0.0
 13
-0.0007567077
 23
0.670731346
 33
0.0
 40
0.0
 40
0.0
 40
0.0
 40
0.0
 40
0.0075943369
 40
0.02400808
 40
0.0493067254
 40
0.0833048838
 40
0.1257259027
 40
0.176217325
 40
0.2343405088
 40
0.2996149277
 40
0.4492759921
 40
0.6199706219
 40
0.8057617419
 40
1.0
 40
1.0
 40
1.0
 40
1.0
 10
10.8785866462
 20
-21.4787579837
 30
0.0
 10
10.8773905773
 20
-21.4775528467
 30
0.0
 10
10.8765836627
 20
-21.4717717464
 30
0.0
 10
10.8746997412
 20
-21.4612760284
 30
0.0
 10
10.8733207245
 20
-21.4442004601
 30
0.0
 10
10.8716827336
 20
-21.4216019938
 30
0.0
 10
10.8701962312
 20
-21.3932334719
 30
0.0
 10
10.8687352654
 20
-21.3595079128
 30
0.0
 10
10.8673694668
 20
-21.3206502023
 30
0.0
 10
10.8655914476
 20
-21.2596276443
 30
0.0
 10
10.8637384992
 20
-21.1734273656
 30
0.0
 10
10.8620987363
 20
-21.060276021
 30
0.0
 10
10.8610298303
 20
-20.9371505822
 30
0.0
 10
10.8607278586
 20
-20.8521848111
 30
0.0
 10
10.8606788647
 20
-20.8087575816
 30
0.0
 11
10.8785866462
 21
-21.4787579837
 31
0.0
 11
10.8768690382
 21
-21.4739625437
 31
0.0
 11
10.8751683533
 21
-21.4630854773
 31
0.0
 11
10.8735019659
 21
-21.4461988933
 31
0.0
 11
10.8718847745
 21
-21.4234526646
 31
0.0
 11
10.8703302708
 21
-21.3950420354
 31
0.0
 11
10.8688517723
 21
-21.361208123
 31
0.0
 11
10.8674624017
 21
-21.3222478223
 31
0.0
 11
10.8661747592
 21
-21.2784851349
 31
0.0
 11
10.8639490063
 21
-21.1781273824
 31
0.0
 11
10.8622537982
 21
-21.0636496215
 31
0.0
 11
10.8611503455
 21
-20.9390384997
 31
0.0
 11
10.8606788647
 21
-20.8087575816
 31
0.0
  0
SPLINE
  5
2A8
100
AcDbEntity
  8
RACCORDO
100
AcDbSpline
 62
253
  6
CONTINUOUS
 70
0
 71
3
 72
19
 73
15
 74
13
 42
0.0000001
 43
0.0000001
 44
0.0000000001
 12
-0.0007567078
 22
-0.6707313449
 32
0.0
 13
-0.4724844617
 23
-0.4760667422
 33
0.0
 40
0.0
 40
0.0
 40
0.0
 40
0.0
 40
0.1942382544
 40
0.380029374
 40
0.550724005
 40
0.7003850702
 40
0.7656594894
 40
0.8237826736
 40
0.8742740962
 40
0.9166951155
 40
0.9506932745
 40
0.9759919201
 40
0.9924056629
 40
1.0
 40
1.0
 40
1.0
 40
1.0
 10
-10.8606788653
 20
-20.8087575838
 30
0.0
 10
-10.8607278591
 20
-20.8521848124
 30
0.0
 10
-10.8610298315
 20
-20.9371505824
 30
0.0
 10
-10.8620987374
 20
-21.0602760204
 30
0.0
 10
-10.8637385002
 20
-21.1734273651
 30
0.0
 10
-10.8655914487
 20
-21.2596276442
 30
0.0
 10
-10.8673694679
 20
-21.3206502025
 30
0.0
 10
-10.8687352664
 20
-21.3595079131
 30
0.0
 10
-10.8701962322
 20
-21.3932334724
 30
0.0
 10
-10.8716827346
 20
-21.4216019945
 30
0.0
 10
-10.8733207255
 20
-21.4442004611
 30
0.0
 10
-10.8746997423
 20
-21.4612760293
 30
0.0
 10
-10.8765836636
 20
-21.4717717476
 30
0.0
 10
-10.8773905785
 20
-21.4775528476
 30
0.0
 10
-10.8785866472
 20
-21.4787579847
 30
0.0
 11
-10.8606788653
 21
-20.8087575838
 31
0.0
 11
-10.8611503466
 21
-20.9390384992
 31
0.0
 11
-10.8622537993
 21
-21.0636496205
 31
0.0
 11
-10.8639490074
 21
-21.178127382
 31
0.0
 11
-10.8661747602
 21
-21.2784851348
 31
0.0
 11
-10.8674624028
 21
-21.3222478225
 31
0.0
 11
-10.8688517733
 21
-21.3612081233
 31
0.0
 11
-10.8703302718
 21
-21.3950420358
 31
0.0
 11
-10.8718847755
 21
-21.4234526653
 31
0.0
 11
-10.8735019669
 21
-21.4461988943
 31
0.0
 11
-10.8751683544
 21
-21.4630854784
 31
0.0
 11
-10.8768690393
 21
-21.4739625446
 31
0.0
 11
-10.8785866472
 21
-21.4787579847
 31
0.0
  0
SPLINE
  5
2A9
100
AcDbEntity
  8
RACCORDO
100
AcDbSpline
 62
253
  6
CONTINUOUS
 70
0
 71
3
 72
19
 73
15
 74
13
 42
0.0000001
 43
0.0000001
 44
0.0000000001
 12
0.472484515
 22
-0.4760666909
 32
0.0
 13
0.0007567077
 23
-0.670731346
 33
0.0
 40
0.0
 40
0.0
 40
0.0
 40
0.0
 40
0.0075943369
 40
0.02400808
 40
0.0493067254
 40
0.0833048839
 40
0.1257259027
 40
0.176217325
 40
0.2343405088
 40
0.2996149277
 40
0.4492759921
 40
0.6199706219
 40
0.8057617419
 40
1.0
 40
1.0
 40
1.0
 40
1.0
 10
-10.8785866462
 20
21.4787579837
 30
0.0
 10
-10.8773905773
 20
21.4775528468
 30
0.0
 10
-10.8765836627
 20
21.4717717464
 30
0.0
 10
-10.8746997412
 20
21.4612760284
 30
0.0
 10
-10.8733207245
 20
21.4442004601
 30
0.0
 10
-10.8716827336
 20
21.4216019938
 30
0.0
 10
-10.8701962312
 20
21.3932334719
 30
0.0
 10
-10.8687352654
 20
21.3595079128
 30
0.0
 10
-10.8673694668
 20
21.3206502023
 30
0.0
 10
-10.8655914476
 20
21.2596276443
 30
0.0
 10
-10.8637384992
 20
21.1734273656
 30
0.0
 10
-10.8620987363
 20
21.060276021
 30
0.0
 10
-10.8610298303
 20
20.9371505822
 30
0.0
 10
-10.8607278586
 20
20.8521848111
 30
0.0
 10
-10.8606788647
 20
20.8087575816
 30
0.0
 11
-10.8785866462
 21
21.4787579837
 31
0.0
 11
-10.8768690382
 21
21.4739625437
 31
0.0
 11
-10.8751683533
 21
21.4630854773
 31
0.0
 11
-10.8735019659
 21
21.4461988933
 31
0.0
 11
-10.8718847745
 21
21.4234526646
 31
0.0
 11
-10.8703302708
 21
21.3950420354
 31
0.0
 11
-10.8688517723
 21
21.361208123
 31
0.0
 11
-10.8674624017
 21
21.3222478223
 31
0.0
 11
-10.8661747592
 21
21.2784851349
 31
0.0
 11
-10.8639490063
 21
21.1781273824
 31
0.0
 11
-10.8622537982
 21
21.0636496215
 31
0.0
 11
-10.8611503455
 21
20.9390384997
 31
0.0
 11
-10.8606788647
 21
20.8087575816
 31
0.0
  0
SPLINE
  5
2AA
100
AcDbEntity
  8
RACCORDO
100
AcDbSpline
 62
253
  6
CONTINUOUS
 70
0
 71
3
 72
18
 73
14
 74
12
 42
0.0000001
 43
0.0000001
 44
0.0000000001
 12
0.4674652267
 22
0.0018790638
 32
0.0
 13
0.2434637147
 23
0.3990647675
 33
0.0
 40
0.0
 40
0.0
 40
0.0
 40
0.0
 40
0.1945509067
 40
0.3803826071
 40
0.5506495734
 40
0.69978781
 40
0.8228299002
 40
0.8731846833
 40
0.9155542647
 40
0.9495801285
 40
0.9749875825
 40
0.991704206
 40
1.0
 40
1.0
 40
1.0
 40
1.0
 10
10.3945930753
 20
-20.8300973803
 30
0.0
 10
10.4249083365
 20
-20.8299755225
 30
0.0
 10
10.4841796677
 20
-20.8295050738
 30
0.0
 10
10.5699729671
 20
-20.8281162943
 30
0.0
 10
10.6486772912
 20
-20.8261010639
 30
0.0
 10
10.7175712806
 20
-20.8235311473
 30
0.0
 10
10.7677718566
 20
-20.8208963831
 30
0.0
 10
10.8012949015
 20
-20.8184660679
 30
0.0
 10
10.8209937175
 20
-20.8167059301
 30
0.0
 10
10.8366853763
 20
-20.8148791188
 30
0.0
 10
10.8485854278
 20
-20.8130957274
 30
0.0
 10
10.8559100772
 20
-20.8112486839
 30
0.0
 10
10.8600056231
 20
-20.8098611013
 30
0.0
 10
10.8606788647
 20
-20.8087575816
 30
0.0
 11
10.3945930753
 21
-20.8300973803
 31
0.0
 11
10.485536656
 21
-20.8293663963
 31
0.0
 11
10.5723954191
 21
-20.8279348114
 31
0.0
 11
10.6519626822
 21
-20.8258516202
 31
0.0
 11
10.7216292327
 21
-20.8231866724
 31
0.0
 11
10.7790610419
 21
-20.8200324052
 31
0.0
 11
10.8025368304
 21
-20.8183043973
 31
0.0
 11
10.8222604488
 21
-20.8164947083
 31
0.0
 11
10.8380553616
 21
-20.8146178145
 31
0.0
 11
10.8497750105
 21
-20.8126896957
 31
0.0
 11
10.8573397202
 21
-20.8107296881
 31
0.0
 11
10.8606788647
 21
-20.8087575816
 31
0.0
  0
LINE
  5
2AB
100
AcDbEntity
  8
RACCORDO
100
AcDbLine
 62
253
  6
CONTINUOUS
 10
10.3945894139
 20
20.8314006905
 11
-10.39458941
 21
20.8314006905
  0
LINE
  5
2AC
100
AcDbEntity
  8
RACCORDO
100
AcDbLine
 62
253
  6
CONTINUOUS
 10
-10.3945894139
 20
-20.8314007014
 11
10.39458941
 21
-20.8314007014
  0
LINE
  5
2AD
100
AcDbEntity
  8
0
100
AcDbLine
 62
7
  6
CONTINUOUS
 10
-29.2292966381
 20
-11.4999819464
 11
-29.229603586
 21
-11.4886579141
  0
SPLINE
  5
2AE
100
AcDbEntity
  8
0
100
AcDbSpline
 62
7
  6
CONTINUOUS
 70
0
 71
3
 72
26
 73
22
 74
20
 42
0.0000001
 43
0.0000001
 44
0.0000000001
 12
-0.108516368
 22
3.9955982278
 32
0.0
 13
-3.9970715531
 23
-0.0000023758
 33
0.0
 40
0.0
 40
0.0
 40
0.0
 40
0.0
 40
0.1949084743
 40
0.3821922845
 40
0.4706736013
 40
0.5550112212
 40
0.6338621986
 40
0.7063389754
 40
0.7721673475
 40
0.8307605308
 40
0.88125181
 40
0.923160441
 40
0.940827585
 40
0.9562578409
 40
0.9694066195
 40
0.9802296492
 40
0.9886872394
 40
0.9947693992
 40
0.9984911519
 40
0.9994920307
 40
1.0
 40
1.0
 40
1.0
 40
1.0
 10
-29.229603586
 20
-11.4886579141
 30
0.0
 10
-29.2366538392
 20
-11.2290659292
 30
0.0
 10
-29.2523415138
 20
-10.7200858383
 30
0.0
 10
-29.2762556034
 20
-10.0934300928
 30
0.0
 10
-29.2974657106
 20
-9.6141124902
 30
0.0
 10
-29.3136365775
 20
-9.2791874831
 30
0.0
 10
-29.3300811225
 20
-8.9656269771
 30
0.0
 10
-29.3465325272
 20
-8.6767644967
 30
0.0
 10
-29.3627166457
 20
-8.41492416
 30
0.0
 10
-29.3783321243
 20
-8.1824002946
 30
0.0
 10
-29.3930775812
 20
-7.9817629567
 30
0.0
 10
-29.4049894801
 20
-7.8355971201
 30
0.0
 10
-29.4139978251
 20
-7.7360670063
 30
0.0
 10
-29.419992004
 20
-7.6747456604
 30
0.0
 10
-29.4255927964
 20
-7.6225362557
 30
0.0
 10
-29.4307418238
 20
-7.579664047
 30
0.0
 10
-29.4354572229
 20
-7.5461233325
 30
0.0
 10
-29.4395343392
 20
-7.5223051598
 30
0.0
 10
-29.4429958215
 20
-7.5079990392
 30
0.0
 10
-29.4454536257
 20
-7.5017757431
 30
0.0
 10
-29.4470291226
 20
-7.4999999996
 30
0.0
 10
-29.4477059191
 20
-7.5
 30
0.0
 11
-29.229603586
 21
-11.4886579141
 31
0.0
 11
-29.2536247751
 21
-10.7099652118
 31
0.0
 11
-29.2823048145
 21
-9.9619280219
 31
0.0
 11
-29.2979523241
 21
-9.6086081892
 31
0.0
 11
-29.3142299312
 21
-9.2718979128
 31
0.0
 11
-29.3307715717
 21
-8.9571593019
 31
0.0
 11
-29.3472806752
 21
-8.6679352313
 31
0.0
 11
-29.363557944
 21
-8.4053184754
 31
0.0
 11
-29.3793191905
 21
-8.1716482806
 31
0.0
 11
-29.3942072968
 21
-7.9703809238
 31
0.0
 11
-29.4079631505
 21
-7.8034348887
 31
0.0
 11
-29.4143561918
 21
-7.7331080308
 31
0.0
 11
-29.4203921051
 21
-7.6717282573
 31
0.0
 11
-29.4260433423
 21
-7.6194763613
 31
0.0
 11
-29.4312822965
 21
-7.5765343347
 31
0.0
 11
-29.4360825828
 21
-7.5430712894
 31
0.0
 11
-29.4404277234
 21
-7.5191519226
 31
0.0
 11
-29.4443060483
 21
-7.5047902618
 31
0.0
 11
-29.4460665178
 21
-7.5011978503
 31
0.0
 11
-29.4477059191
 21
-7.5
 31
0.0
  0
SPLINE
  5
2AF
100
AcDbEntity
  8
0
100
AcDbSpline
 62
7
  6
CONTINUOUS
 70
0
 71
3
 72
9
 73
5
 74
3
 42
0.0000001
 43
0.0000001
 44
0.0000000001
 12
0.0104329624
 22
0.0000000071
 32
0.0
 13
0.0020748564
 23
0.0102245624
 33
0.0
 40
0.0
 40
0.0
 40
0.0
 40
0.0
 40
0.2958591318
 40
1.0
 40
1.0
 40
1.0
 40
1.0
 10
-29.2191069986
 20
-15.5
 30
0.0
 10
-29.2180781028
 20
-15.4999999993
 30
0.0
 10
-29.2162873745
 20
-15.4958095586
 30
0.0
 10
-29.2156677113
 20
-15.4929514995
 30
0.0
 10
-29.2151807142
 20
-15.4905516554
 30
0.0
 11
-29.2191069986
 21
-15.5
 31
0.0
 11
-29.2171210026
 21
-15.4976370658
 31
0.0
 11
-29.2151807142
 21
-15.4905516554
 31
0.0
  0
SPLINE
  5
2B0
100
AcDbEntity
  8
0
100
AcDbSpline
 62
7
  6
CONTINUOUS
 70
0
 71
3
 72
9
 73
5
 74
3
 42
0.0000001
 43
0.0000001
 44
0.0000000001
 12
0.0036621336
 22
0.018046412
 32
0.0
 13
0.0020906781
 23
0.0182951708
 33
0.0
 40
0.0
 40
0.0
 40
0.0
 40
0.0
 40
0.2020814209
 40
1.0
 40
1.0
 40
1.0
 40
1.0
 10
-29.2151807142
 20
-15.4905516554
 30
0.0
 10
-29.2149340312
 20
-15.4893360406
 30
0.0
 10
-29.2138314359
 20
-15.4832966936
 30
0.0
 10
-29.2130590211
 20
-15.4772024837
 30
0.0
 10
-29.2125029575
 20
-15.4723364649
 30
0.0
 11
-29.2151807142
 21
-15.4905516554
 31
0.0
 11
-29.2145018867
 21
-15.4868929205
 31
0.0
 11
-29.2125029575
 21
-15.4723364649
 31
0.0
  0
LINE
  5
2B1
100
AcDbEntity
  8
0
100
AcDbLine
 62
7
  6
CONTINUOUS
 10
-29.2125029575
 20
-15.4723364649
 11
-29.2111587854
 21
-15.4591759303
  0
SPLINE
  5
2B2
100
AcDbEntity
  8
0
100
AcDbSpline
 62
7
  6
CONTINUOUS
 70
0
 71
3
 72
9
 73
5
 74
3
 42
0.0000001
 43
0.0000001
 44
0.0000000001
 12
0.0074416025
 22
0.0807697585
 32
0.0
 13
0.003920367
 23
0.081017048
 33
0.0
 40
0.0
 40
0.0
 40
0.0
 40
0.0
 40
0.2004972654
 40
1.0
 40
1.0
 40
1.0
 40
1.0
 10
-29.2111587854
 20
-15.4591759303
 30
0.0
 10
-29.2106614451
 20
-15.4537778918
 30
0.0
 10
-29.2084522383
 20
-15.4268297675
 30
0.0
 10
-29.2069843725
 20
-15.3998269435
 30
0.0
 10
-29.2059395912
 20
-15.3782358263
 30
0.0
 11
-29.2111587854
 21
-15.4591759303
 31
0.0
 11
-29.2098053665
 21
-15.4429696424
 31
0.0
 11
-29.2059395912
 21
-15.3782358263
 31
0.0
  0
SPLINE
  5
2B3
100
AcDbEntity
  8
0
100
AcDbSpline
 62
7
  6
CONTINUOUS
 70
0
 71
3
 72
9
 73
5
 74
3
 42
0.0000001
 43
0.0000001
 44
0.0000000001
 12
0.0073977508
 22
0.1528795485
 32
0.0
 13
0.0042166743
 23
0.1530003357
 33
0.0
 40
0.0
 40
0.0
 40
0.0
 40
0.0
 40
0.2135496307
 40
1.0
 40
1.0
 40
1.0
 40
1.0
 10
-29.2059395912
 20
-15.3782358263
 30
0.0
 10
-29.2054129955
 20
-15.3673533693
 30
0.0
 10
-29.2031546543
 20
-15.316383481
 30
0.0
 10
-29.2015399594
 20
-15.2653870809
 30
0.0
 10
-29.2004345578
 20
-15.2252780241
 30
0.0
 11
-29.2059395912
 21
-15.3782358263
 31
0.0
 11
-29.2044778121
 21
-15.3455829586
 31
0.0
 11
-29.2004345578
 21
-15.2252780241
 31
0.0
  0
SPLINE
  5
2B4
100
AcDbEntity
  8
0
100
AcDbSpline
 62
7
  6
CONTINUOUS
 70
0
 71
3
 72
12
 73
8
 74
6
 42
0.0000001
 43
0.0000001
 44
0.0000000001
 12
0.102306587
 22
3.7121534985
 32
0.0
 13
-0.1000034315
 23
3.7122162582
 33
0.0
 40
0.0
 40
0.0
 40
0.0
 40
0.0
 40
0.069456993
 40
0.1600117733
 40
0.3944597233
 40
0.6828457134
 40
1.0
 40
1.0
 40
1.0
 40
1.0
 10
-29.2004345578
 20
-15.2252780241
 30
0.0
 10
-29.1980659218
 20
-15.1393330176
 30
0.0
 10
-29.1944054878
 20
-14.9412889971
 30
0.0
 10
-29.1897718754
 20
-14.4530247849
 30
0.0
 10
-29.1906289412
 20
-13.6937178147
 30
0.0
 10
-29.2022522487
 20
-12.6539859146
 30
0.0
 10
-29.2183967187
 20
-11.9045710064
 30
0.0
 10
-29.228968891
 20
-11.5121225733
 30
0.0
 11
-29.2004345578
 21
-15.2252780241
 31
0.0
 11
-29.1952236641
 21
-14.9673977461
 31
0.0
 11
-29.1917937869
 21
-14.6311343554
 31
0.0
 11
-29.1918614212
 21
-13.760497123
 31
0.0
 11
-29.2036154226
 21
-12.6896220819
 31
0.0
 11
-29.228968891
 21
-11.5121225733
 31
0.0
  0
LINE
  5
2B5
100
AcDbEntity
  8
0
100
AcDbLine
 62
7
  6
CONTINUOUS
 10
-29.228968891
 20
-11.5121225733
 11
-29.2292966381
 21
-11.4999819464
  0
LINE
  5
2B6
100
AcDbEntity
  8
DRAFT
100
AcDbLine
 62
7
  6
CONTINUOUS
 10
-29.219101265
 20
-15.4999575533
 11
-29.2209979607
 21
-15.4999637532
  0
LINE
  5
2B7
100
AcDbEntity
  8
DRAFT
100
AcDbLine
 62
7
  6
CONTINUOUS
 10
-29.2209979607
 20
-15.4999637532
 11
-29.2226975241
 21
-15.4999693087
  0
LINE
  5
2B8
100
AcDbEntity
  8
DRAFT
100
AcDbLine
 62
7
  6
CONTINUOUS
 10
-29.2226975241
 20
-15.4999693087
 11
-29.2311568105
 21
-15.4999969593
  0
LINE
  5
2B9
100
AcDbEntity
  8
DRAFT
100
AcDbLine
 62
7
  6
CONTINUOUS
 10
-29.2311568105
 20
-15.4999969593
 11
-29.2335678824
 21
-15.5000048399
  0
SPLINE
  5
2BA
100
AcDbEntity
  8
DRAFT
100
AcDbSpline
 62
7
  6
CONTINUOUS
 70
0
 71
3
 72
47
 73
43
 74
41
 42
0.0000001
 43
0.0000001
 44
0.0000000001
 12
8.0102592449
 22
0.052794057
 32
0.0
 13
-8.0101343063
 23
-0.06920099
 33
0.0
 40
0.0
 40
0.0
 40
0.0
 40
0.0
 40
0.0002532732
 40
0.0007531364
 40
0.0026141683
 40
0.0056572503
 40
0.0098898945
 40
0.0153070119
 40
0.0218886564
 40
0.0296126148
 40
0.0384565276
 40
0.0594360791
 40
0.0847125668
 40
0.1140425146
 40
0.1469909036
 40
0.1832665914
 40
0.222731031
 40
0.2649318277
 40
0.3091974032
 40
0.4028854653
 40
0.5003298583
 40
0.597760118
 40
0.6913944742
 40
0.735620209
 40
0.7777784425
 40
0.8171929109
 40
0.853411307
 40
0.8863044337
 40
0.9155836335
 40
0.9408086094
 40
0.9518163536
 40
0.9617365078
 40
0.9705562201
 40
0.9782574386
 40
0.9848173292
 40
0.9902131297
 40
0.9944242352
 40
0.997444807
 40
0.9985102813
 40
0.9992818122
 40
0.9997664664
 40
1.0
 40
1.0
 40
1.0
 40
1.0
 10
-29.4477127671
 20
-7.5000000226
 30
0.0
 10
-29.4470365058
 20
-7.4999955655
 30
0.0
 10
-29.4454536251
 20
-7.5017705951
 30
0.0
 10
-29.4429966193
 20
-7.5080036287
 30
0.0
 10
-29.4395240333
 20
-7.5223438699
 30
0.0
 10
-29.4354416847
 20
-7.5462265501
 30
0.0
 10
-29.430714906
 20
-7.5798665979
 30
0.0
 10
-29.4255547044
 20
-7.6228708849
 30
0.0
 10
-29.419940678
 20
-7.6752447729
 30
0.0
 10
-29.4139323219
 20
-7.7367617678
 30
0.0
 10
-29.4049021995
 20
-7.8366134545
 30
0.0
 10
-29.3929615039
 20
-7.9832547207
 30
0.0
 10
-29.3781812382
 20
-8.1845400228
 30
0.0
 10
-29.3625305997
 20
-8.4178008447
 30
0.0
 10
-29.3463128059
 20
-8.6804552289
 30
0.0
 10
-29.329830312
 20
-8.9702018856
 30
0.0
 10
-29.3133589675
 20
-9.2846911088
 30
0.0
 10
-29.2971668842
 20
-9.62055543
 30
0.0
 10
-29.2759393398
 20
-10.1011263355
 30
0.0
 10
-29.2520236859
 20
-10.7292247239
 30
0.0
 10
-29.2283593451
 20
-11.4993721351
 30
0.0
 10
-29.2103435848
 20
-12.2695285654
 30
0.0
 10
-29.199946252
 20
-12.8977071797
 30
0.0
 10
-29.1945548795
 20
-13.3783527011
 30
0.0
 10
-29.1919410543
 20
-13.7142432045
 30
0.0
 10
-29.1905869931
 20
-14.0287602035
 30
0.0
 10
-29.1904169579
 20
-14.318540926
 30
0.0
 10
-29.191310086
 20
-14.5812576391
 30
0.0
 10
-29.1931342981
 20
-14.8146146902
 30
0.0
 10
-29.1954182995
 20
-14.9895273503
 30
0.0
 10
-29.1976983906
 20
-15.1127413294
 30
0.0
 10
-29.1994995068
 20
-15.1921517258
 30
0.0
 10
-29.2014555032
 20
-15.2627261024
 30
0.0
 10
-29.2035529349
 20
-15.3243212802
 30
0.0
 10
-29.2057747797
 20
-15.3767582131
 30
0.0
 10
-29.2081061676
 20
-15.4198743519
 30
0.0
 10
-29.2105065646
 20
-15.4534824365
 30
0.0
 10
-29.2127525994
 20
-15.4755830875
 30
0.0
 10
-29.214659266
 20
-15.4883456927
 30
0.0
 10
-29.2160571888
 20
-15.4945175802
 30
0.0
 10
-29.2171089496
 20
-15.4981080076
 30
0.0
 10
-29.2184760862
 20
-15.4999945813
 30
0.0
 10
-29.2190996313
 20
-15.4999999682
 30
0.0
 11
-29.4477127671
 21
-7.5000000226
 31
0.0
 11
-29.4460708458
 21
-7.5011917597
 31
0.0
 11
-29.4443074177
 21
-7.5047866599
 31
0.0
 11
-29.4404218921
 21
-7.5191790659
 31
0.0
 11
-29.4360678912
 21
-7.5431634739
 31
0.0
 11
-29.43125715
 21
-7.5767257602
 31
0.0
 11
-29.426006285
 21
-7.619800353
 31
0.0
 11
-29.4203418452
 21
-7.6722169991
 31
0.0
 11
-29.4142915861
 21
-7.7337927258
 31
0.0
 11
-29.4078831999
 21
-7.8043458572
 31
0.0
 11
-29.3940941059
 21
-7.9718344942
 31
0.0
 11
-29.3791703059
 21
-8.1737593699
 31
0.0
 11
-29.3633734799
 21
-8.4081732983
 31
0.0
 11
-29.3470627731
 21
-8.6715996921
 31
0.0
 11
-29.3305222224
 21
-8.961712526
 31
0.0
 11
-29.3139523969
 21
-9.2774052313
 31
0.0
 11
-29.2976537741
 21
-9.6150587546
 31
0.0
 11
-29.281993345
 21
-9.9692991986
 31
0.0
 11
-29.2533049121
 21
-10.7192326309
 31
0.0
 11
-29.2293114201
 21
-11.4994355868
 31
0.0
 11
-29.2110135139
 21
-12.2796796479
 31
0.0
 11
-29.1986685498
 21
-13.0296298075
 31
0.0
 11
-29.1947006138
 21
-13.3838748802
 31
0.0
 11
-29.1920862916
 21
-13.7215704755
 31
0.0
 11
-29.190754188
 21
-14.0372946321
 31
0.0
 11
-29.190613779
 21
-14.3274196411
 31
0.0
 11
-29.1915481589
 21
-14.5909061795
 31
0.0
 11
-29.1934389828
 21
-14.8254376327
 31
0.0
 11
-29.1961692957
 21
-15.0274821704
 31
0.0
 11
-29.197816641
 21
-15.1156435803
 31
0.0
 11
-29.1996366554
 21
-15.1950874682
 31
0.0
 11
-29.2016178058
 21
-15.2657094018
 31
0.0
 11
-29.2037488009
 21
-15.3273626811
 31
0.0
 11
-29.2060185744
 21
-15.3798612028
 31
0.0
 11
-29.2084160688
 21
-15.4230173584
 31
0.0
 11
-29.2109305386
 21
-15.4566562922
 31
0.0
 11
-29.2135538464
 21
-15.4807097529
 31
0.0
 11
-29.2149041769
 21
-15.4891371664
 31
0.0
 11
-29.2162791537
 21
-15.4951625718
 31
0.0
 11
-29.217677923
 21
-15.4987841216
 31
0.0
 11
-29.2190996313
 21
-15.4999999682
 31
0.0
  0
LINE
  5
2BB
100
AcDbEntity
  8
DRAFT
100
AcDbLine
 62
7
  6
CONTINUOUS
 10
-29.4636720667
 20
-7.5000040767
 11
-29.4610103015
 21
-7.4999974396
  0
LINE
  5
2BC
100
AcDbEntity
  8
DRAFT
100
AcDbLine
 62
7
  6
CONTINUOUS
 10
-29.4610103015
 20
-7.4999974396
 11
-29.4516680364
 21
-7.4999741435
  0
LINE
  5
2BD
100
AcDbEntity
  8
DRAFT
100
AcDbLine
 62
7
  6
CONTINUOUS
 10
-29.4516680364
 20
-7.4999741435
 11
-29.4497975344
 21
-7.4999694791
  0
LINE
  5
2BE
100
AcDbEntity
  8
DRAFT
100
AcDbLine
 62
7
  6
CONTINUOUS
 10
-29.4497975344
 20
-7.4999694791
 11
-29.4477134329
 21
-7.4999642819
  0
SPLINE
  5
2BF
100
AcDbEntity
  8
RACCORDO
100
AcDbSpline
 62
253
  6
CONTINUOUS
 70
0
 71
3
 72
20
 73
16
 74
14
 42
0.0000001
 43
0.0000001
 44
0.0000000001
 12
-0.5002087974
 22
0.0130984283
 32
0.0
 13
0.0130895049
 23
0.500209031
 33
0.0
 40
0.0
 40
0.0
 40
0.0
 40
0.0
 40
0.0017601623
 40
0.0055960866
 40
0.020198778
 40
0.0441136351
 40
0.077217934
 40
0.1191811623
 40
0.169584885
 40
0.2279973577
 40
0.2938476078
 40
0.4451452725
 40
0.6177669269
 40
0.8053187392
 40
1.0
 40
1.0
 40
1.0
 40
1.0
 10
-27.4707210712
 20
-21.9785866462
 30
0.0
 10
-27.4710145541
 20
-21.9785789611
 30
0.0
 10
-27.471598681
 20
-21.9775779374
 30
0.0
 10
-27.4723477712
 20
-21.9745307454
 30
0.0
 10
-27.4732829881
 20
-21.9672820826
 30
0.0
 10
-27.4740956088
 20
-21.9554973923
 30
0.0
 10
-27.4748385949
 20
-21.938944644
 30
0.0
 10
-27.4754127812
 20
-21.9180465243
 30
0.0
 10
-27.4758355009
 20
-21.8928928339
 30
0.0
 10
-27.4760859117
 20
-21.8637630634
 30
0.0
 10
-27.4761948675
 20
-21.8178002415
 30
0.0
 10
-27.475846066
 20
-21.7527898799
 30
0.0
 10
-27.474779793
 20
-21.6674857817
 30
0.0
 10
-27.4730758633
 20
-21.5749549524
 30
0.0
 10
-27.4715704983
 20
-21.5112184253
 30
0.0
 10
-27.4707210712
 20
-21.4787579837
 30
0.0
 11
-27.4707210712
 21
-21.9785866462
 31
0.0
 11
-27.4713447533
 21
-21.9779647603
 31
0.0
 11
-27.4719365018
 21
-21.9761388332
 31
0.0
 11
-27.4730179322
 21
-21.9689124042
 31
0.0
 11
-27.4739528316
 21
-21.9569824577
 31
0.0
 11
-27.474729323
 21
-21.9404359293
 31
0.0
 11
-27.4753403606
 21
-21.9194472505
 31
0.0
 11
-27.4757810645
 21
-21.8942300731
 31
0.0
 11
-27.47604674
 21
-21.865002832
 31
0.0
 11
-27.4761353159
 21
-21.8320527854
 31
0.0
 11
-27.4757810651
 21
-21.7563472487
 31
0.0
 11
-27.4747293244
 21
-21.6699771828
 31
0.0
 11
-27.4730179338
 21
-21.5761455629
 31
0.0
 11
-27.4707210712
 21
-21.4787579837
 31
0.0
  0
SPLINE
  5
2C0
100
AcDbEntity
  8
RACCORDO
100
AcDbSpline
 62
253
  6
CONTINUOUS
 70
0
 71
3
 72
20
 73
16
 74
14
 42
0.0000001
 43
0.0000001
 44
0.0000000001
 12
-0.5002087938
 22
-0.0130984283
 32
0.0
 13
0.0130894589
 23
-0.5002090286
 33
0.0
 40
0.0
 40
0.0
 40
0.0
 40
0.0
 40
0.0017601587
 40
0.0055960804
 40
0.0201987669
 40
0.0441136198
 40
0.0772179139
 40
0.1191811341
 40
0.1695848503
 40
0.2279973203
 40
0.2938475646
 40
0.4451452224
 40
0.6177668843
 40
0.8053187251
 40
1.0
 40
1.0
 40
1.0
 40
1.0
 10
-27.4707210312
 20
21.9785866472
 30
0.0
 10
-27.4710145135
 20
21.9785789621
 30
0.0
 10
-27.4715986379
 20
21.9775779377
 30
0.0
 10
-27.4723477255
 20
21.9745307483
 30
0.0
 10
-27.4732829388
 20
21.9672820858
 30
0.0
 10
-27.4740955566
 20
21.9554973986
 30
0.0
 10
-27.4748385398
 20
21.9389446528
 30
0.0
 10
-27.4754127242
 20
21.9180465365
 30
0.0
 10
-27.4758354425
 20
21.892892849
 30
0.0
 10
-27.4760858524
 20
21.8637630813
 30
0.0
 10
-27.4761948082
 20
21.8178002623
 30
0.0
 10
-27.4758460081
 20
21.7527899021
 30
0.0
 10
-27.4747797393
 20
21.6674857995
 30
0.0
 10
-27.4730758153
 20
21.5749549624
 30
0.0
 10
-27.4715704554
 20
21.5112184286
 30
0.0
 10
-27.4707210312
 20
21.4787579847
 30
0.0
 11
-27.4707210312
 21
21.9785866472
 31
0.0
 11
-27.4713447111
 21
21.9779647617
 31
0.0
 11
-27.4719364574
 21
21.9761388352
 31
0.0
 11
-27.4730178838
 21
21.9689124082
 31
0.0
 11
-27.4739527799
 21
21.9569824636
 31
0.0
 11
-27.4747292684
 21
21.9404359375
 31
0.0
 11
-27.4753403039
 21
21.919447263
 31
0.0
 11
-27.4757810062
 21
21.8942300889
 31
0.0
 11
-27.4760466809
 21
21.8650028493
 31
0.0
 11
-27.4761352567
 21
21.8320528059
 31
0.0
 11
-27.4757810075
 21
21.7563472731
 31
0.0
 11
-27.4747292708
 21
21.6699772041
 31
0.0
 11
-27.473017886
 21
21.5761455705
 31
0.0
 11
-27.4707210312
 21
21.4787579847
 31
0.0
  0
SPLINE
  5
2C1
100
AcDbEntity
  8
RACCORDO
100
AcDbSpline
 62
253
  6
CONTINUOUS
 70
0
 71
3
 72
11
 73
7
 74
5
 42
0.0000001
 43
0.0000001
 44
0.0000000001
 12
-1.0470850098
 22
0.0276267642
 32
0.0
 13
-0.0450860354
 23
1.0464786215
 33
0.0
 40
0.0
 40
0.0
 40
0.0
 40
0.0
 40
0.2499800912
 40
0.4999662593
 40
0.7499719365
 40
1.0
 40
1.0
 40
1.0
 40
1.0
 10
-27.4707210712
 20
-21.4787579837
 30
0.0
 10
-27.5579712066
 20
-21.4764559367
 30
0.0
 10
-27.7333399056
 20
-21.4387651335
 30
0.0
 10
-27.9563033947
 20
-21.2903446708
 30
0.0
 10
-28.1097586511
 20
-21.070725728
 30
0.0
 10
-28.1508340636
 20
-20.8959739227
 30
0.0
 10
-28.1545916549
 20
-20.8087575816
 30
0.0
 11
-27.4707210712
 21
-21.4787579837
 31
0.0
 11
-27.7266552261
 21
-21.4234526646
 31
0.0
 11
-27.944711913
 21
-21.2784851349
 31
0.0
 11
-28.0944473715
 21
-21.0636496215
 31
0.0
 11
-28.1545916549
 21
-20.8087575816
 31
0.0
  0
SPLINE
  5
2C2
100
AcDbEntity
  8
RACCORDO
100
AcDbSpline
 62
253
  6
CONTINUOUS
 70
0
 71
3
 72
11
 73
7
 74
5
 42
0.0000001
 43
0.0000001
 44
0.0000000001
 12
0.0450860438
 22
1.0464786224
 32
0.0
 13
1.0470850109
 23
0.0276267703
 33
0.0
 40
0.0
 40
0.0
 40
0.0
 40
0.0
 40
0.250028065
 40
0.5000337414
 40
0.7500199091
 40
1.0
 40
1.0
 40
1.0
 40
1.0
 10
-28.1545916336
 20
20.8087575838
 30
0.0
 10
-28.1508340415
 20
20.8959739255
 30
0.0
 10
-28.1097585985
 20
21.0707257236
 30
0.0
 10
-27.9563033569
 20
21.2903446716
 30
0.0
 10
-27.7333398648
 20
21.4387651343
 30
0.0
 10
-27.5579711666
 20
21.4764559372
 30
0.0
 10
-27.4707210312
 20
21.4787579847
 30
0.0
 11
-28.1545916336
 21
20.8087575838
 31
0.0
 11
-28.0944473287
 21
21.0636496205
 31
0.0
 11
-27.9447118723
 21
21.2784851348
 31
0.0
 11
-27.726655186
 21
21.4234526653
 31
0.0
 11
-27.4707210312
 21
21.4787579847
 31
0.0
  0
LINE
  5
2C3
100
AcDbEntity
  8
RACCORDO
100
AcDbLine
 62
253
  6
CONTINUOUS
 10
-28.6398510912
 20
20.8314006905
 11
-28.991309957
 21
20.8317815265
  0
LINE
  5
2C4
100
AcDbEntity
  8
RACCORDO
100
AcDbLine
 62
253
  6
CONTINUOUS
 10
-28.9913099564
 20
-20.8317815375
 11
-28.6398510909
 21
-20.8314007014
  0
ELLIPSE
  5
2C5
100
AcDbEntity
  8
RACCORDO
100
AcDbEllipse
 62
7
  6
CONTINUOUS
 10
-10.4998286038
 20
-21.5998286038
 30
0.0
 11
0.35379574
 21
0.35379574
 31
0.0
 40
0.999315002
 41
-3.9266482006
 42
-2.3565371065
  0
ELLIPSE
  5
2C6
100
AcDbEntity
  8
RACCORDO
100
AcDbEllipse
 62
7
  6
CONTINUOUS
 10
10.4998286038
 20
-21.5998286038
 30
0.0
 11
0.35379574
 21
-0.35379574
 31
0.0
 40
0.999315002
 41
-0.7850555471
 42
0.7850555471
  0
ELLIPSE
  5
2C7
100
AcDbEntity
  8
RACCORDO
100
AcDbEllipse
 62
7
  6
CONTINUOUS
 10
10.4998286038
 20
21.5998286038
 30
0.0
 11
0.35379574
 21
0.35379574
 31
0.0
 40
0.999315002
 41
-0.7850555471
 42
0.7850555471
  0
ELLIPSE
  5
2C8
100
AcDbEntity
  8
RACCORDO
100
AcDbEllipse
 62
7
  6
CONTINUOUS
 10
-10.4998286038
 20
21.5998286038
 30
0.0
 11
-0.35379574
 21
0.35379574
 31
0.0
 40
0.999315002
 41
-0.7850555471
 42
0.7850555471
  0
ENDSEC
  0
SECTION
  2
OBJECTS
  0
DICTIONARY
  5
C
100
AcDbDictionary
280
0
281
1
  3
ACAD_GROUP
350
D
  3
ACAD_MLINESTYLE
350
17
  3
ACAD_LAYOUT
350
1A
  3
ACAD_PLOTSETTINGS
350
19
  3
ACAD_PLOTSTYLENAME
350
E
  0
DICTIONARY
  5
D
102
{ACAD_REACTORS
330
C
102
}
100
AcDbDictionary
280
0
281
1
  0
ACDBDICTIONARYWDFLT
  5
E
102
{ACAD_REACTORS
330
C
102
}
100
AcDbDictionary
281
1
  3
Normal
350
F
100
AcDbDictionaryWithDefault
340
F
  0
DICTIONARY
  5
17
102
{ACAD_REACTORS
330
C
102
}
100
AcDbDictionary
280
0
281
1
  3
Standard
350
18
  0
DICTIONARY
  5
19
102
{ACAD_REACTORS
330
C
102
}
100
AcDbDictionary
281
1
  0
DICTIONARY
  5
1A
102
{ACAD_REACTORS
330
C
102
}
100
AcDbDictionary
281
1
  3
Model
350
2C9
  3
Layout1
350
2CA
  0
ACDBPLACEHOLDER
  5
F
102
{ACAD_REACTORS
330
E
102
}
  0
MLINESTYLE
  5
18
102
{ACAD_REACTORS
330
17
102
}
100
AcDbMlineStyle
  2
STANDARD
 70
0
  3

 62
256
 51
90.0
 52
90.0
 71
2
 49
0.5
 62
256
  6
BYLAYER
 49
-0.5
 62
256
  6
BYLAYER
  0
LAYOUT
  5
2C9
102
{ACAD_REACTORS
330
1A
102
}
100
AcDbPlotSettings
  1

  2
none_device
  4
ISO_A4_(297.00_x_210.00_MM)
  6

 40
0.0
 41
0.0
 42
0.0
 43
0.0
 44
297.0
 45
210.0
 46
0.0
 47
0.0
 48
0.0
 49
0.0
140
0.0
141
0.0
142
1.0
143
1.0
 70
1024
 72
1
 73
0
 74
0
  7

 75
0
147
1.0
148
0.0
149
0.0
100
AcDbLayout
  1
Model
 70
0
 71
0
 10
0.0
 20
0.0
 11
297.0
 21
210.0
 12
0.0
 22
0.0
 32
0.0
 14
0.0
 24
0.0
 34
0.0
 15
0.0
 25
0.0
 35
0.0
146
0.0
 13
0.0
 23
0.0
 33
0.0
 16
1.0
 26
0.0
 36
0.0
 17
0.0
 27
1.0
 37
0.0
 76
0
330
216
345
0
346
0
  0
LAYOUT
  5
2CA
102
{ACAD_REACTORS
330
1A
102
}
100
AcDbPlotSettings
  1

  2
none_device
  4
ISO_A4_(297.00_x_210.00_MM)
  6

 40
0.0
 41
0.0
 42
0.0
 43
0.0
 44
297.0
 45
210.0
 46
0.0
 47
0.0
 48
0.0
 49
0.0
140
0.0
141
0.0
142
1.0
143
1.0
 70
0
 72
1
 73
0
 74
0
  7

 75
0
147
1.0
148
0.0
149
0.0
100
AcDbLayout
  1
Layout1
 70
0
 71
1
 10
0.0
 20
0.0
 11
297.0
 21
210.0
 12
0.0
 22
0.0
 32
0.0
 14
0.0
 24
0.0
 34
0.0
 15
0.0
 25
0.0
 35
0.0
146
0.0
 13
0.0
 23
0.0
 33
0.0
 16
1.0
 26
0.0
 36
0.0
 17
0.0
 27
1.0
 37
0.0
 76
0
330
217
345
0
346
0
  0
ENDSEC
  0
EOF
