  0
SECTION
  2
HEADER
  9
$ACADVER
  1
AC1015
  9
$DWGCODEPAGE
  3
ANSI_1252
  9
$EXTMAX
 10
297.0
 20
210.0
 30
0.0
  9
$EXTMIN
 10
0.0
 20
0.0
 30
0.0
  9
$LIMMIN
 10
0.0
 20
0.0
  9
$LIMMAX
 10
297.0
 20
210.0
  9
$VIEWCTR
 10
148.5
 20
105.0
  9
$VIEWSIZE
 40
210.0
  9
$CLAYER
  8
0
  9
$LTSCALE
 40
16.335
  9
$CELTYPE
  6
BYLAYER
  9
$DIMSCALE
 40
1.0
  9
$DIMASZ
 40
3.0
  9
$DIMEXO
 40
1.85625
  9
$DIMDLI
 40
11.286
  9
$DIMEXE
 40
5.346
  9
$DIMCEN
 40
2.673
  9
$DIMLFAC
 40
1.0
  9
$DIMBLK
  1
_FILLED
  9
$DIMTXT
 40
3.0
  9
$DIMTOL
 70
1
  9
$DIMLIM
 70
0
  9
$DIMTFAC
 40
1.0
  9
$DIMTP
 40
0.01
  9
$DIMTM
 40
0.01
  9
$PDMODE
 70
3
  9
$PDSIZE
 40
3.0
  9
$HANDSEED
  5
796
  9
$TILEMODE
 70
1
  9
$MEASUREMENT
 70
1
  9
$INSUNITS
 70
4
  0
ENDSEC
  0
SECTION
  2
CLASSES
  0
CLASS
  1
ACDBDICTIONARYWDFLT
  2
AcDbDictionaryWithDefault
  3
AutoCAD 2000
 90
0
280
0
281
0
  0
CLASS
  1
ACDBPLACEHOLDER
  2
AcDbPlaceHolder
  3
AutoCAD 2000
 90
0
280
0
281
0
  0
CLASS
  1
LAYOUT
  2
AcDbLayout
  3
AutoCAD 2000
 90
0
280
0
281
0
  0
ENDSEC
  0
SECTION
  2
TABLES
  0
TABLE
  2
VPORT
  5
8
100
AcDbSymbolTable
 70
2
  0
VPORT
  5
1F4
100
AcDbSymbolTableRecord
100
AcDbViewportTableRecord
  2
*ACTIVE
 70
0
 10
0.0
 20
0.0
 11
1.0
 21
1.0
 12
148.5
 22
105.0
 13
0.0
 23
0.0
 14
1.0
 24
1.0
 15
0.0
 25
0.0
 16
0.0
 26
0.0
 36
1.0
 17
0.0
 27
0.0
 37
0.0
 40
210.0
 41
1.4142857143
 42
50.0
 43
0.0
 44
0.0
 50
0.0
 51
0.0
 71
0
 72
100
 73
1
 74
1
 75
0
 76
0
 77
0
 78
0
  0
ENDTAB
  0
TABLE
  2
LTYPE
  5
5
100
AcDbSymbolTable
 70
6
  0
LTYPE
  5
14
100
AcDbSymbolTableRecord
100
AcDbLinetypeTableRecord
  2
BYBLOCK
 70
0
  3

 72
65
 73
0
 40
0.0
  0
LTYPE
  5
15
100
AcDbSymbolTableRecord
100
AcDbLinetypeTableRecord
  2
BYLAYER
 70
0
  3

 72
65
 73
0
 40
0.0
  0
LTYPE
  5
16
100
AcDbSymbolTableRecord
100
AcDbLinetypeTableRecord
  2
CONTINUOUS
 70
64
  3
Solid line
 72
65
 73
0
 40
0.0
  0
LTYPE
  5
1F5
100
AcDbSymbolTableRecord
100
AcDbLinetypeTableRecord
  2
CENTER
 70
64
  3
____ _ ____ _ ____ _ ____ _ ____ _ ____ _ ____
 72
65
 73
4
 40
0.6
 49
0.375
 74
0
 49
-0.075
 74
0
 49
0.075
 74
0
 49
-0.075
 74
0
  0
LTYPE
  5
1F6
100
AcDbSymbolTableRecord
100
AcDbLinetypeTableRecord
  2
HIDDEN
 70
64
  3
- - - - - - - - - - - - - - - - - - - -
 72
65
 73
2
 40
0.2
 49
0.1
 74
0
 49
-0.1
 74
0
  0
LTYPE
  5
1F7
100
AcDbSymbolTableRecord
100
AcDbLinetypeTableRecord
  2
PHANTOM
 70
64
  3
_____ _ _ _____ _ _ _____ _ _ _____
 72
65
 73
6
 40
0.8
 49
0.45
 74
0
 49
-0.05
 74
0
 49
0.1
 74
0
 49
-0.05
 74
0
 49
0.1
 74
0
 49
-0.05
 74
0
  0
LTYPE
  5
1F8
100
AcDbSymbolTableRecord
100
AcDbLinetypeTableRecord
  2
DOT
 70
64
  3
. . . . . . . . . . . . . . . . . . . .
 72
65
 73
2
 40
0.2
 49
0.1
 74
0
 49
-0.1
 74
0
  0
LTYPE
  5
1F9
100
AcDbSymbolTableRecord
100
AcDbLinetypeTableRecord
  2
DASHED
 70
64
  3
- - - - - - - - - - - - - - - - - - - -
 72
65
 73
2
 40
0.2
 49
0.1
 74
0
 49
-0.1
 74
0
  0
ENDTAB
  0
TABLE
  2
LAYER
  5
2
100
AcDbSymbolTable
 70
36
  0
LAYER
  5
10
100
AcDbSymbolTableRecord
100
AcDbLayerTableRecord
  2
0
 70
0
 62
7
  6
CONTINUOUS
370
-3
390
F
  0
LAYER
  5
1FA
100
AcDbSymbolTableRecord
100
AcDbLayerTableRecord
  2
DEFAULT_1
 70
0
 62
7
  6
CENTER
370
-3
390
F
  0
LAYER
  5
1FB
100
AcDbSymbolTableRecord
100
AcDbLayerTableRecord
  2
DEFAULT_2
 70
0
 62
7
  6
HIDDEN
370
-3
390
F
  0
LAYER
  5
1FC
100
AcDbSymbolTableRecord
100
AcDbLayerTableRecord
  2
DEFAULT_3
 70
0
 62
7
  6
PHANTOM
370
-3
390
F
  0
LAYER
  5
1FD
100
AcDbSymbolTableRecord
100
AcDbLayerTableRecord
  2
ASSI
 70
0
 62
7
  6
CONTINUOUS
370
-3
390
F
  0
LAYER
  5
1FE
100
AcDbSymbolTableRecord
100
AcDbLayerTableRecord
  2
COLOR10
 70
0
 62
7
  6
CONTINUOUS
370
-3
390
F
  0
LAYER
  5
1FF
100
AcDbSymbolTableRecord
100
AcDbLayerTableRecord
  2
COLOR5
 70
0
 62
7
  6
CONTINUOUS
370
-3
390
F
  0
LAYER
  5
200
100
AcDbSymbolTableRecord
100
AcDbLayerTableRecord
  2
COLOR9
 70
0
 62
7
  6
CONTINUOUS
370
-3
390
F
  0
LAYER
  5
201
100
AcDbSymbolTableRecord
100
AcDbLayerTableRecord
  2
COLORE_MATERIALE
 70
0
 62
7
  6
CONTINUOUS
370
-3
390
F
  0
LAYER
  5
202
100
AcDbSymbolTableRecord
100
AcDbLayerTableRecord
  2
COORDINATE
 70
0
 62
7
  6
CONTINUOUS
370
-3
390
F
  0
LAYER
  5
203
100
AcDbSymbolTableRecord
100
AcDbLayerTableRecord
  2
COORD_ORIGINE
 70
0
 62
7
  6
CONTINUOUS
370
-3
390
F
  0
LAYER
  5
204
100
AcDbSymbolTableRecord
100
AcDbLayerTableRecord
  2
COPY_GEOMETRY
 70
0
 62
7
  6
CONTINUOUS
370
-3
390
F
  0
LAYER
  5
205
100
AcDbSymbolTableRecord
100
AcDbLayerTableRecord
  2
COPY_PUBLISH
 70
0
 62
7
  6
CONTINUOUS
370
-3
390
F
  0
LAYER
  5
206
100
AcDbSymbolTableRecord
100
AcDbLayerTableRecord
  2
COSMETIC
 70
0
 62
7
  6
CONTINUOUS
370
-3
390
F
  0
LAYER
  5
207
100
AcDbSymbolTableRecord
100
AcDbLayerTableRecord
  2
CURVE
 70
0
 62
7
  6
CONTINUOUS
370
-3
390
F
  0
LAYER
  5
208
100
AcDbSymbolTableRecord
100
AcDbLayerTableRecord
  2
DRAFT
 70
0
 62
7
  6
CONTINUOUS
370
-3
390
F
  0
LAYER
  5
209
100
AcDbSymbolTableRecord
100
AcDbLayerTableRecord
  2
IGES
 70
0
 62
7
  6
CONTINUOUS
370
-3
390
F
  0
LAYER
  5
20A
100
AcDbSymbolTableRecord
100
AcDbLayerTableRecord
  2
IGES_SCRITTE
 70
0
 62
7
  6
CONTINUOUS
370
-3
390
F
  0
LAYER
  5
20B
100
AcDbSymbolTableRecord
100
AcDbLayerTableRecord
  2
IMPORT_IGES
 70
0
 62
7
  6
CONTINUOUS
370
-3
390
F
  0
LAYER
  5
20C
100
AcDbSymbolTableRecord
100
AcDbLayerTableRecord
  2
INTFCLR_1
 70
0
 62
7
  6
CONTINUOUS
370
-3
390
F
  0
LAYER
  5
20D
100
AcDbSymbolTableRecord
100
AcDbLayerTableRecord
  2
INTFCLR_11371
 70
0
 62
7
  6
CONTINUOUS
370
-3
390
F
  0
LAYER
  5
20E
100
AcDbSymbolTableRecord
100
AcDbLayerTableRecord
  2
INTFCLR_118879
 70
0
 62
7
  6
CONTINUOUS
370
-3
390
F
  0
LAYER
  5
20F
100
AcDbSymbolTableRecord
100
AcDbLayerTableRecord
  2
INTFCLR_509
 70
0
 62
7
  6
CONTINUOUS
370
-3
390
F
  0
LAYER
  5
210
100
AcDbSymbolTableRecord
100
AcDbLayerTableRecord
  2
INTF_1
 70
0
 62
7
  6
CONTINUOUS
370
-3
390
F
  0
LAYER
  5
211
100
AcDbSymbolTableRecord
100
AcDbLayerTableRecord
  2
INTF_15
 70
0
 62
7
  6
CONTINUOUS
370
-3
390
F
  0
LAYER
  5
212
100
AcDbSymbolTableRecord
100
AcDbLayerTableRecord
  2
INTF_16
 70
0
 62
7
  6
CONTINUOUS
370
-3
390
F
  0
LAYER
  5
213
100
AcDbSymbolTableRecord
100
AcDbLayerTableRecord
  2
INTF_2
 70
0
 62
7
  6
CONTINUOUS
370
-3
390
F
  0
LAYER
  5
214
100
AcDbSymbolTableRecord
100
AcDbLayerTableRecord
  2
INTF_6
 70
0
 62
7
  6
CONTINUOUS
370
-3
390
F
  0
LAYER
  5
215
100
AcDbSymbolTableRecord
100
AcDbLayerTableRecord
  2
INTF_YELLOW
 70
0
 62
7
  6
CONTINUOUS
370
-3
390
F
  0
LAYER
  5
216
100
AcDbSymbolTableRecord
100
AcDbLayerTableRecord
  2
NOTE
 70
0
 62
7
  6
CONTINUOUS
370
-3
390
F
  0
LAYER
  5
217
100
AcDbSymbolTableRecord
100
AcDbLayerTableRecord
  2
PIANI
 70
0
 62
7
  6
CONTINUOUS
370
-3
390
F
  0
LAYER
  5
218
100
AcDbSymbolTableRecord
100
AcDbLayerTableRecord
  2
PIANI_COSTRUZIONE
 70
0
 62
7
  6
CONTINUOUS
370
-3
390
F
  0
LAYER
  5
219
100
AcDbSymbolTableRecord
100
AcDbLayerTableRecord
  2
PIANI_DI_RIFERIMENTO
 70
0
 62
7
  6
CONTINUOUS
370
-3
390
F
  0
LAYER
  5
21A
100
AcDbSymbolTableRecord
100
AcDbLayerTableRecord
  2
PIANI_ORIGINE
 70
0
 62
7
  6
CONTINUOUS
370
-3
390
F
  0
LAYER
  5
21B
100
AcDbSymbolTableRecord
100
AcDbLayerTableRecord
  2
PIANI_RIFERIMENTO
 70
0
 62
7
  6
CONTINUOUS
370
-3
390
F
  0
LAYER
  5
21C
100
AcDbSymbolTableRecord
100
AcDbLayerTableRecord
  2
PUNTI
 70
0
 62
7
  6
CONTINUOUS
370
-3
390
F
  0
LAYER
  5
21D
100
AcDbSymbolTableRecord
100
AcDbLayerTableRecord
  2
RACCORDO
 70
0
 62
7
  6
CONTINUOUS
370
-3
390
F
  0
LAYER
  5
21E
100
AcDbSymbolTableRecord
100
AcDbLayerTableRecord
  2
RGB__255__126____0__
 70
0
 62
7
  6
CONTINUOUS
370
-3
390
F
  0
LAYER
  5
21F
100
AcDbSymbolTableRecord
100
AcDbLayerTableRecord
  2
SMUSSO
 70
0
 62
7
  6
CONTINUOUS
370
-3
390
F
  0
LAYER
  5
220
100
AcDbSymbolTableRecord
100
AcDbLayerTableRecord
  2
SNAPLINE
 70
0
 62
7
  6
CONTINUOUS
370
-3
390
F
  0
LAYER
  5
221
100
AcDbSymbolTableRecord
100
AcDbLayerTableRecord
  2
SUPERFICI
 70
0
 62
7
  6
CONTINUOUS
370
-3
390
F
  0
LAYER
  5
222
100
AcDbSymbolTableRecord
100
AcDbLayerTableRecord
  2
SUPERFICI_SKEL
 70
0
 62
7
  6
CONTINUOUS
370
-3
390
F
  0
LAYER
  5
223
100
AcDbSymbolTableRecord
100
AcDbLayerTableRecord
  2
TRASH
 70
0
 62
7
  6
CONTINUOUS
370
-3
390
F
  0
LAYER
  5
224
100
AcDbSymbolTableRecord
100
AcDbLayerTableRecord
  2
XSEC_DATUMS
 70
0
 62
7
  6
CONTINUOUS
370
-3
390
F
  0
ENDTAB
  0
TABLE
  2
STYLE
  5
3
100
AcDbSymbolTable
 70
1
  0
STYLE
  5
11
100
AcDbSymbolTableRecord
100
AcDbTextStyleTableRecord
  2
STANDARD
 70
0
 40
0.0
 41
0.8
 50
0.0
 71
0
 42
0.2
  3
txt
  4

  0
STYLE
  5
225
100
AcDbSymbolTableRecord
100
AcDbTextStyleTableRecord
  2
TEXTSTYLE_1
 70
0
 40
0.0
 41
0.8
 50
0.0
 71
0
 42
0.2
  3
gdt
  4

  0
ENDTAB
  0
TABLE
  2
VIEW
  5
6
100
AcDbSymbolTable
 70
0
  0
ENDTAB
  0
TABLE
  2
UCS
  5
7
100
AcDbSymbolTable
 70
0
  0
ENDTAB
  0
TABLE
  2
APPID
  5
9
100
AcDbSymbolTable
 70
1
  0
APPID
  5
226
100
AcDbSymbolTableRecord
100
AcDbRegAppTableRecord
  2
ACAD
 70
0
  0
ENDTAB
  0
TABLE
  2
BLOCK_RECORD
  5
1
100
AcDbSymbolTable
 70
0
  0
BLOCK_RECORD
  5
227
100
AcDbSymbolTableRecord
100
AcDbBlockTableRecord
  2
*Model_Space
  0
BLOCK_RECORD
  5
228
100
AcDbSymbolTableRecord
100
AcDbBlockTableRecord
  2
*Paper_Space
  0
BLOCK_RECORD
  5
229
100
AcDbSymbolTableRecord
100
AcDbBlockTableRecord
  2
_FILLED
  0
BLOCK_RECORD
  5
22A
100
AcDbSymbolTableRecord
100
AcDbBlockTableRecord
  2
*D0
  0
BLOCK_RECORD
  5
22B
100
AcDbSymbolTableRecord
100
AcDbBlockTableRecord
  2
*D1
  0
BLOCK_RECORD
  5
22C
100
AcDbSymbolTableRecord
100
AcDbBlockTableRecord
  2
*D2
  0
BLOCK_RECORD
  5
22D
100
AcDbSymbolTableRecord
100
AcDbBlockTableRecord
  2
*D3
  0
ENDTAB
  0
TABLE
  2
DIMSTYLE
  5
A
100
AcDbSymbolTable
 70
1
100
AcDbDimStyleTable
 71
0
  0
DIMSTYLE
105
22E
100
AcDbSymbolTableRecord
100
AcDbDimStyleTableRecord
  2
STANDARD
 70
0
  3

  4

 40
1.0
 41
3.0
 42
0.0625
 43
0.38
 44
0.18
 45
0.0
 46
0.0
 47
0.01
 48
0.01
140
3.0
141
0.09
142
0.0
143
25.4
144
1.0
145
0.0
146
1.0
147
0.09
 71
1.0
 72
0.0
 73
0
 74
0
 75
0
 76
0
 77
1
 78
8
170
0
171
2
172
0
173
0
174
0
175
0
176
0
177
0
178
0
270
2
271
2
272
2
273
2
274
2
275
0
280
0
281
0
282
0
283
1
284
8
285
0
286
0
287
3
288
0
340
11
341
229
342
229
343
229
344
229
  0
DIMSTYLE
105
22F
100
AcDbSymbolTableRecord
100
AcDbDimStyleTableRecord
  2
DIMSTYLE_1
 70
0
  3

  4

 40
1.0
 41
3.0
 42
0.0625
 43
0.38
 44
0.18
 45
0.0
 46
0.0
 47
0.0
 48
0.0
140
3.0
141
0.09
142
0.0
143
25.4
144
1.0
145
0.0
146
1.0
147
0.09
 71
0.0
 72
0.0
 73
0
 74
0
 75
0
 76
0
 77
1
 78
8
170
0
171
2
172
0
173
0
174
0
175
0
176
0
177
0
178
0
270
2
271
2
272
2
273
2
274
2
275
0
280
0
281
0
282
0
283
1
284
8
285
0
286
0
287
3
288
0
340
11
341
229
342
229
343
229
344
229
  0
ENDTAB
  0
ENDSEC
  0
SECTION
  2
BLOCKS
  0
BLOCK
  5
20
100
AcDbEntity
  8
0
100
AcDbBlockBegin
  2
*Model_Space
 70
0
 10
0.0
 20
0.0
 30
0.0
  3
*Model_Space
  1

  0
ENDBLK
  5
21
100
AcDbEntity
  8
0
100
AcDbBlockEnd
  0
BLOCK
  5
1C
100
AcDbEntity
  8
0
100
AcDbBlockBegin
  2
*Paper_Space
 70
0
 10
0.0
 20
0.0
 30
0.0
  3
*Paper_Space
  1

  0
ENDBLK
  5
1D
100
AcDbEntity
  8
0
100
AcDbBlockEnd
  0
BLOCK
  5
230
100
AcDbEntity
  8
0
100
AcDbBlockBegin
  2
_FILLED
 70
64
 10
0.0
 20
0.0
  3
_FILLED
  1

  0
SOLID
  5
231
100
AcDbEntity
  8
0
  6
BYBLOCK
 62
0
100
AcDbTrace
 10
0.0
 20
0.0
 11
-1.0
 21
0.3166666667
 12
-1.0
 22
-0.3166666667
 13
-1.0
 23
-0.3166666667
  0
ENDBLK
  5
232
100
AcDbEntity
  8
0
  6
BYBLOCK
 62
0
100
AcDbBlockEnd
  0
BLOCK
  5
233
100
AcDbEntity
  8
0
100
AcDbBlockBegin
 62
7
  6
CONTINUOUS
  2
*D0
 70
65
 10
0.0
 20
0.0
  3
*D0
  1

  0
LINE
  5
234
100
AcDbEntity
  8
0
100
AcDbLine
 62
7
  6
CONTINUOUS
 10
187.1220243539
 20
131.0917054314
 11
201.807976157
 21
131.0917054314
  0
LINE
  5
235
100
AcDbEntity
  8
0
100
AcDbLine
 62
7
  6
CONTINUOUS
 10
187.1220243539
 20
82.0917054314
 11
201.807976157
 21
82.0917054314
  0
LINE
  5
236
100
AcDbEntity
  8
0
100
AcDbLine
 62
7
  6
CONTINUOUS
 10
200.307976157
 20
131.0917054314
 11
200.307976157
 21
106.5917054314
  0
LINE
  5
237
100
AcDbEntity
  8
0
100
AcDbLine
 62
7
  6
CONTINUOUS
 10
200.307976157
 20
82.0917054314
 11
200.307976157
 21
106.5917054314
  0
INSERT
  5
238
100
AcDbEntity
  8
0
100
AcDbBlockReference
 62
7
  6
CONTINUOUS
  2
_FILLED
 10
200.307976157
 20
131.0917054314
 41
3.0
 42
3.0
 43
3.0
 50
90.0
  0
INSERT
  5
239
100
AcDbEntity
  8
0
100
AcDbBlockReference
 62
7
  6
CONTINUOUS
  2
_FILLED
 10
200.307976157
 20
82.0917054314
 41
3.0
 42
3.0
 43
3.0
 50
270.0
  0
ENDBLK
  5
23A
100
AcDbEntity
  8
0
  6
BYBLOCK
 62
0
100
AcDbBlockEnd
  0
BLOCK
  5
23B
100
AcDbEntity
  8
0
100
AcDbBlockBegin
 62
7
  6
CONTINUOUS
  2
*D1
 70
65
 10
0.0
 20
0.0
  3
*D1
  1

  0
LINE
  5
23C
100
AcDbEntity
  8
0
100
AcDbLine
 62
7
  6
CONTINUOUS
 10
165.0696220498
 20
124.437004893
 11
165.0696220498
 21
143.4851619378
  0
LINE
  5
23D
100
AcDbEntity
  8
0
100
AcDbLine
 62
7
  6
CONTINUOUS
 10
187.3743657361
 20
124.437004893
 11
187.3743657361
 21
143.4851619378
  0
LINE
  5
23E
100
AcDbEntity
  8
0
100
AcDbLine
 62
7
  6
CONTINUOUS
 10
165.0696220498
 20
141.9851619378
 11
176.2219938929
 21
141.9851619378
  0
LINE
  5
23F
100
AcDbEntity
  8
0
100
AcDbLine
 62
7
  6
CONTINUOUS
 10
187.3743657361
 20
141.9851619378
 11
176.2219938929
 21
141.9851619378
  0
INSERT
  5
240
100
AcDbEntity
  8
0
100
AcDbBlockReference
 62
7
  6
CONTINUOUS
  2
_FILLED
 10
165.0696220498
 20
141.9851619378
 41
3.0
 42
3.0
 43
3.0
 50
180.0
  0
INSERT
  5
241
100
AcDbEntity
  8
0
100
AcDbBlockReference
 62
7
  6
CONTINUOUS
  2
_FILLED
 10
187.3743657361
 20
141.9851619378
 41
3.0
 42
3.0
 43
3.0
  0
ENDBLK
  5
242
100
AcDbEntity
  8
0
  6
BYBLOCK
 62
0
100
AcDbBlockEnd
  0
BLOCK
  5
243
100
AcDbEntity
  8
0
100
AcDbBlockBegin
 62
7
  6
CONTINUOUS
  2
*D2
 70
65
 10
0.0
 20
0.0
  3
*D2
  1

  0
LINE
  5
244
100
AcDbEntity
  8
0
100
AcDbLine
 62
7
  6
CONTINUOUS
 10
141.5879660386
 20
122.6917054314
 11
141.5879660386
 21
143.4851619378
  0
LINE
  5
245
100
AcDbEntity
  8
0
100
AcDbLine
 62
7
  6
CONTINUOUS
 10
104.5879660386
 20
128.9743265189
 11
104.5879660386
 21
143.4851619378
  0
LINE
  5
246
100
AcDbEntity
  8
0
100
AcDbLine
 62
7
  6
CONTINUOUS
 10
141.5879660386
 20
141.9851619378
 11
123.0879660386
 21
141.9851619378
  0
LINE
  5
247
100
AcDbEntity
  8
0
100
AcDbLine
 62
7
  6
CONTINUOUS
 10
104.5879660386
 20
141.9851619378
 11
123.0879660386
 21
141.9851619378
  0
INSERT
  5
248
100
AcDbEntity
  8
0
100
AcDbBlockReference
 62
7
  6
CONTINUOUS
  2
_FILLED
 10
141.5879660386
 20
141.9851619378
 41
3.0
 42
3.0
 43
3.0
  0
INSERT
  5
249
100
AcDbEntity
  8
0
100
AcDbBlockReference
 62
7
  6
CONTINUOUS
  2
_FILLED
 10
104.5879660386
 20
141.9851619378
 41
3.0
 42
3.0
 43
3.0
 50
180.0
  0
ENDBLK
  5
24A
100
AcDbEntity
  8
0
  6
BYBLOCK
 62
0
100
AcDbBlockEnd
  0
BLOCK
  5
24B
100
AcDbEntity
  8
0
100
AcDbBlockBegin
 62
7
  6
CONTINUOUS
  2
*D3
 70
65
 10
0.0
 20
0.0
  3
*D3
  1

  0
LINE
  5
24C
100
AcDbEntity
  8
0
100
AcDbLine
 62
7
  6
CONTINUOUS
 10
141.5879660386
 20
122.6917054314
 11
141.5879660386
 21
153.4851619378
  0
LINE
  5
24D
100
AcDbEntity
  8
0
100
AcDbLine
 62
7
  6
CONTINUOUS
 10
94.3879478114
 20
107.0917054314
 11
94.3879478114
 21
153.4851619378
  0
LINE
  5
24E
100
AcDbEntity
  8
0
100
AcDbLine
 62
7
  6
CONTINUOUS
 10
141.5879660386
 20
151.9851619378
 11
117.987956925
 21
151.9851619378
  0
LINE
  5
24F
100
AcDbEntity
  8
0
100
AcDbLine
 62
7
  6
CONTINUOUS
 10
94.3879478114
 20
151.9851619378
 11
117.987956925
 21
151.9851619378
  0
INSERT
  5
250
100
AcDbEntity
  8
0
100
AcDbBlockReference
 62
7
  6
CONTINUOUS
  2
_FILLED
 10
141.5879660386
 20
151.9851619378
 41
3.0
 42
3.0
 43
3.0
  0
INSERT
  5
251
100
AcDbEntity
  8
0
100
AcDbBlockReference
 62
7
  6
CONTINUOUS
  2
_FILLED
 10
94.3879478114
 20
151.9851619378
 41
3.0
 42
3.0
 43
3.0
 50
180.0
  0
ENDBLK
  5
252
100
AcDbEntity
  8
0
  6
BYBLOCK
 62
0
100
AcDbBlockEnd
  0
ENDSEC
  0
SECTION
  2
ENTITIES
  0
DIMENSION
  5
253
100
AcDbEntity
  8
0
100
AcDbDimension
 62
7
  6
CONTINUOUS
  2
*D0
 10
200.307976157
 20
82.0917054314
 11
199.557976157
 21
104.2345625743
 70
160
 71
2
 42
49.0
  3
DIMSTYLE_1
100
AcDbAlignedDimension
 13
187.1220243539
 23
131.0917054314
 14
187.1220243539
 24
82.0917054314
 50
270.0
100
AcDbRotatedDimension
  0
DIMENSION
  5
254
100
AcDbEntity
  8
0
100
AcDbDimension
 62
7
  6
CONTINUOUS
  2
*D1
 10
187.3743657361
 20
141.9851619378
 11
171.9362796072
 21
142.7351619378
 70
160
 71
2
 42
22.3047436863
  3
DIMSTYLE_1
100
AcDbAlignedDimension
 13
165.0696220498
 23
124.437004893
 14
187.3743657361
 24
124.437004893
100
AcDbRotatedDimension
  0
DIMENSION
  5
255
100
AcDbEntity
  8
0
100
AcDbDimension
 62
7
  6
CONTINUOUS
  2
*D2
 10
104.5879660386
 20
141.9851619378
 11
120.8379660386
 21
142.7351619378
 70
160
 71
2
 42
37.0
  3
DIMSTYLE_1
100
AcDbAlignedDimension
 13
141.5879660386
 23
122.6917054314
 14
104.5879660386
 24
128.9743265189
 50
180.0
100
AcDbRotatedDimension
  0
DIMENSION
  5
256
100
AcDbEntity
  8
0
100
AcDbDimension
 62
7
  6
CONTINUOUS
  2
*D3
 10
94.3879478114
 20
151.9851619378
 11
113.5950997821
 21
152.7351619378
 70
160
 71
2
 42
47.2000182273
  3
DIMSTYLE_1
100
AcDbAlignedDimension
 13
141.5879660386
 23
122.6917054314
 14
94.3879478114
 24
107.0917054314
 50
180.0
100
AcDbRotatedDimension
  0
LWPOLYLINE
  5
257
100
AcDbEntity
  8
0
100
AcDbPolyline
 62
7
  6
CONTINUOUS
 90
5
 70
0
 43
0.3500000006
 10
179.2219888916
 20
144.4494455566
 10
179.5791357422
 20
144.6637300415
 10
179.5791357422
 20
145.3065834961
 10
179.2219888916
 20
145.7351705933
 10
178.3648509521
 20
145.7351705933
  0
LWPOLYLINE
  5
258
100
AcDbEntity
  8
0
100
AcDbPolyline
 62
7
  6
CONTINUOUS
 90
10
 70
0
 10
167.1851232736
 20
130.4360429987
 10
167.1587195691
 20
130.4090359164
 10
167.1321143388
 20
130.3825424677
 10
167.1056429276
 20
130.3565626526
 10
167.0798511675
 20
130.3307977089
 10
167.054923458
 20
130.3055463988
 10
167.0307852839
 20
130.281705009
 10
167.0078512651
 20
130.2595723016
 10
166.9869096052
 20
130.2388495145
 10
166.9686169227
 20
130.2195366477
  0
LWPOLYLINE
  5
259
100
AcDbEntity
  8
0
100
AcDbPolyline
 62
253
  6
CONTINUOUS
 90
16
 70
0
 10
165.3267544093
 20
127.4475307882
 10
165.3304643582
 20
127.4496487376
 10
165.3389845346
 20
127.4517461484
 10
165.3522323291
 20
127.4538026847
 10
165.3700792948
 20
127.4557984069
 10
165.3923523924
 20
127.4577139649
 10
165.4188356683
 20
127.4595307862
 10
165.4492723479
 20
127.4612312553
 10
165.4833673255
 20
127.4627988849
 10
165.5207900258
 20
127.4642184758
 10
165.5611776085
 20
127.4654762639
 10
165.604138487
 20
127.4665600541
 10
165.6492561243
 20
127.4674593386
 10
165.6960930725
 20
127.4681653982
 10
165.7441952134
 20
127.4686713872
 10
165.793096162
 20
127.4689723996
  0
LWPOLYLINE
  5
25A
100
AcDbEntity
  8
0
100
AcDbPolyline
 62
7
  6
CONTINUOUS
 90
16
 70
0
 10
186.5976057208
 20
83.4716814492
 10
186.6178529608
 20
83.4732522686
 10
186.638063822
 20
83.4735284404
 10
186.658022666
 20
83.4724981482
 10
186.6775359791
 20
83.470172522
 10
186.6963497308
 20
83.4665727988
 10
186.7141656756
 20
83.4617547769
 10
186.7307777042
 20
83.455840504
 10
186.7459925963
 20
83.448911516
 10
186.7595767205
 20
83.4410281489
 10
186.7713763847
 20
83.4323747488
 10
186.7812771916
 20
83.4230979111
 10
186.7891606278
 20
83.4132384331
 10
186.7949507176
 20
83.402940518
 10
186.7986049856
 20
83.3924453831
 10
186.8000989035
 20
83.3819493526
  0
LWPOLYLINE
  5
25B
100
AcDbEntity
  8
0
100
AcDbPolyline
 62
253
  6
CONTINUOUS
 90
13
 70
0
 10
168.7826742996
 20
82.1310554857
 10
168.8087705653
 20
82.1327735435
 10
168.834420483
 20
82.137882433
 10
168.8591853449
 20
82.1462947714
 10
168.8826415821
 20
82.157866675
 10
168.9043880069
 20
82.1724002196
 10
168.9240526751
 20
82.1896468247
 10
168.94129925
 20
82.2093115068
 10
168.955832756
 20
82.2310579269
 10
168.9674046204
 20
82.2545141422
 10
168.9758169247
 20
82.279278966
 10
168.9809257901
 20
82.3049288288
 10
168.9826438386
 20
82.3310250247
  0
LWPOLYLINE
  5
25C
100
AcDbEntity
  8
0
100
AcDbPolyline
 62
7
  6
CONTINUOUS
 90
13
 70
0
 10
186.6220243539
 20
82.0917054314
 10
186.6481264808
 20
82.0934156956
 10
186.673781659
 20
82.0985178719
 10
186.6985511804
 20
82.1069248532
 10
186.7220116373
 20
82.1184930943
 10
186.7437614432
 20
82.1330248814
 10
186.7634278652
 20
82.1502714592
 10
186.7806744429
 20
82.1699378812
 10
186.7952062301
 20
82.191687687
 10
186.8067744712
 20
82.2151481439
 10
186.8151814524
 20
82.2399176653
 10
186.8202836287
 20
82.2655728436
 10
186.8219938929
 20
82.2916749704
  0
LWPOLYLINE
  5
25D
100
AcDbEntity
  8
0
100
AcDbPolyline
 62
253
  6
CONTINUOUS
 90
13
 70
0
 10
183.6617346313
 20
82.963874215
 10
183.6357765572
 20
82.9622126181
 10
183.6102577194
 20
82.9576483393
 10
183.5856099211
 20
82.9502586106
 10
183.5622502269
 20
82.9401684736
 10
183.5405739055
 20
82.9275486633
 10
183.5209477411
 20
82.9126127194
 10
183.5037038274
 20
82.8956133725
 10
183.4891339479
 20
82.8768382683
 10
183.4774846386
 20
82.8566050994
 10
183.468953017
 20
82.8352562308
 10
183.4636834462
 20
82.8131529059
 10
183.4617650922
 20
82.7906691343
  0
LWPOLYLINE
  5
25E
100
AcDbEntity
  8
0
100
AcDbPolyline
 62
253
  6
CONTINUOUS
 90
28
 70
0
 10
175.1667345231
 20
82.5970028774
 10
175.1786525006
 20
82.5972900361
 10
175.1909092937
 20
82.5981804576
 10
175.2034713304
 20
82.5997260195
 10
175.2163279952
 20
82.601983882
 10
175.2294053884
 20
82.6050017464
 10
175.2425695877
 20
82.6088021356
 10
175.2557685591
 20
82.6134180371
 10
175.268945142
 20
82.6188793211
 10
175.2819599599
 20
82.6251719465
 10
175.2947553796
 20
82.6323051767
 10
175.3072705368
 20
82.6402838537
 10
175.3193720304
 20
82.6490540883
 10
175.3310008269
 20
82.6585951987
 10
175.342108444
 20
82.6688907028
 10
175.3525946874
 20
82.6798646089
 10
175.3624068865
 20
82.6914685448
 10
175.3715151724
 20
82.7036744135
 10
175.379868627
 20
82.7164205826
 10
175.3874318052
 20
82.729655261
 10
175.3941785338
 20
82.7433351775
 10
175.4000802788
 20
82.7574055413
 10
175.4051143163
 20
82.7718145971
 10
175.4092608936
 20
82.7865086399
 10
175.4125025912
 20
82.8014272398
 10
175.4148272583
 20
82.8165127455
 10
175.4162268884
 20
82.8317108214
 10
175.4166964469
 20
82.8469648012
  0
LWPOLYLINE
  5
25F
100
AcDbEntity
  8
0
100
AcDbPolyline
 62
253
  6
CONTINUOUS
 90
28
 70
0
 10
175.1667345231
 20
82.7969724165
 10
175.1691318846
 20
82.7970122398
 10
175.1715816805
 20
82.7971932664
 10
175.1740839109
 20
82.7975154962
 10
175.1766539115
 20
82.7979719584
 10
175.1792763465
 20
82.7985696239
 10
175.1819052084
 20
82.799329405
 10
175.1845419822
 20
82.8002566527
 10
175.1871851829
 20
82.8013460161
 10
175.1897843474
 20
82.8026023548
 10
175.1923390292
 20
82.8040316109
 10
175.1948496747
 20
82.8056278422
 10
175.1972671607
 20
82.8073780821
 10
175.1995881383
 20
82.8092867622
 10
175.2018159563
 20
82.8113494509
 10
175.2039115373
 20
82.8135398867
 10
175.2058701077
 20
82.8158590658
 10
175.2076964411
 20
82.8183059921
 10
175.2093657819
 20
82.8208514153
 10
175.2108752645
 20
82.8234959043
 10
175.2122277545
 20
82.8262388902
 10
175.2134070929
 20
82.8290494167
 10
175.2144111418
 20
82.831928432
 10
175.2152420392
 20
82.8348749877
 10
175.215890039
 20
82.8378552826
 10
175.2163518927
 20
82.8408580496
 10
175.216630849
 20
82.8438945558
 10
175.2167269078
 20
82.8469648012
  0
LINE
  5
260
100
AcDbEntity
  8
0
100
AcDbLine
 62
7
  6
CONTINUOUS
 10
186.6220243539
 20
82.0917054314
 11
183.621963432
 21
82.0917054314
  0
LINE
  5
261
100
AcDbEntity
  8
0
100
AcDbLine
 62
7
  6
CONTINUOUS
 10
168.8220243539
 20
82.0917054314
 11
165.821963432
 21
82.0917054314
  0
LINE
  5
262
100
AcDbEntity
  8
0
100
AcDbLine
 62
253
  6
CONTINUOUS
 10
165.8613134863
 20
82.1310554857
 11
168.7826742996
 21
82.1310554857
  0
LINE
  5
263
100
AcDbEntity
  8
0
100
AcDbLine
 62
253
  6
CONTINUOUS
 10
183.6613134863
 20
82.1310554857
 11
186.5826742996
 21
82.1310554857
  0
LINE
  5
264
100
AcDbEntity
  8
0
100
AcDbLine
 62
253
  6
CONTINUOUS
 10
165.6622014688
 20
82.3810174095
 11
168.981786317
 21
82.3810174095
  0
LINE
  5
265
100
AcDbEntity
  8
0
100
AcDbLine
 62
253
  6
CONTINUOUS
 10
183.4622014688
 20
82.3810174095
 11
186.781786317
 21
82.3810174095
  0
LINE
  5
266
100
AcDbEntity
  8
0
100
AcDbLine
 62
7
  6
CONTINUOUS
 10
180.4220319691
 20
82.5917054314
 11
177.2719558167
 21
82.5917054314
  0
LINE
  5
267
100
AcDbEntity
  8
0
100
AcDbLine
 62
7
  6
CONTINUOUS
 10
175.1720319691
 20
82.5917054314
 11
172.0219558167
 21
82.5917054314
  0
LINE
  5
268
100
AcDbEntity
  8
0
100
AcDbLine
 62
253
  6
CONTINUOUS
 10
180.4167345231
 20
82.5970028774
 11
177.2772532628
 21
82.5970028774
  0
LINE
  5
269
100
AcDbEntity
  8
0
100
AcDbLine
 62
253
  6
CONTINUOUS
 10
172.0272532628
 20
82.5970028774
 11
175.1667345231
 21
82.5970028774
  0
LINE
  5
26A
100
AcDbEntity
  8
0
100
AcDbLine
 62
253
  6
CONTINUOUS
 10
167.4588645122
 20
82.7473678641
 11
168.981786317
 21
82.7473678641
  0
LINE
  5
26B
100
AcDbEntity
  8
0
100
AcDbLine
 62
253
  6
CONTINUOUS
 10
183.4622014688
 20
82.7473678641
 11
184.9851232736
 21
82.7473678641
  0
LINE
  5
26C
100
AcDbEntity
  8
0
100
AcDbLine
 62
253
  6
CONTINUOUS
 10
165.6622014688
 20
82.7473678641
 11
167.1851232736
 21
82.7473678641
  0
LINE
  5
26D
100
AcDbEntity
  8
0
100
AcDbLine
 62
253
  6
CONTINUOUS
 10
185.2588645122
 20
82.7473678641
 11
186.781786317
 21
82.7473678641
  0
LINE
  5
26E
100
AcDbEntity
  8
0
100
AcDbLine
 62
253
  6
CONTINUOUS
 10
180.4167345231
 20
82.7969724165
 11
177.2772532628
 21
82.7969724165
  0
LINE
  5
26F
100
AcDbEntity
  8
0
100
AcDbLine
 62
253
  6
CONTINUOUS
 10
172.0272532628
 20
82.7969724165
 11
175.1667345231
 21
82.7969724165
  0
LINE
  5
270
100
AcDbEntity
  8
0
100
AcDbLine
 62
253
  6
CONTINUOUS
 10
180.6666964469
 20
82.8469648012
 11
180.4667269078
 21
82.8469648012
  0
LINE
  5
271
100
AcDbEntity
  8
0
100
AcDbLine
 62
253
  6
CONTINUOUS
 10
171.977260878
 20
82.8469648012
 11
171.777291339
 21
82.8469648012
  0
LINE
  5
272
100
AcDbEntity
  8
0
100
AcDbLine
 62
253
  6
CONTINUOUS
 10
175.2167269078
 20
82.8469648012
 11
175.4166964469
 21
82.8469648012
  0
LINE
  5
273
100
AcDbEntity
  8
0
100
AcDbLine
 62
253
  6
CONTINUOUS
 10
177.027291339
 20
82.8469648012
 11
177.227260878
 21
82.8469648012
  0
LINE
  5
274
100
AcDbEntity
  8
0
100
AcDbLine
 62
253
  6
CONTINUOUS
 10
168.7822531234
 20
82.9638731822
 11
167.6753708632
 21
82.963874215
  0
LINE
  5
275
100
AcDbEntity
  8
0
100
AcDbLine
 62
253
  6
CONTINUOUS
 10
184.7686169227
 20
82.963874215
 11
183.6617346556
 21
82.9638734102
  0
LINE
  5
276
100
AcDbEntity
  8
0
100
AcDbLine
 62
253
  6
CONTINUOUS
 10
186.5822518768
 20
82.9638319488
 11
185.4753708632
 21
82.963874215
  0
LINE
  5
277
100
AcDbEntity
  8
0
100
AcDbLine
 62
253
  6
CONTINUOUS
 10
166.9686169227
 20
82.963874215
 11
165.8617359089
 21
82.9638319547
  0
LINE
  5
278
100
AcDbEntity
  8
0
100
AcDbLine
 62
7
  6
CONTINUOUS
 10
186.5501369798
 20
83.4690557006
 11
185.5219938929
 21
83.4690557006
  0
LINE
  5
279
100
AcDbEntity
  8
0
100
AcDbLine
 62
7
  6
CONTINUOUS
 10
184.7219938929
 20
83.4690557006
 11
183.6938508061
 21
83.4690557006
  0
LINE
  5
27A
100
AcDbEntity
  8
0
100
AcDbLine
 62
7
  6
CONTINUOUS
 10
168.7501369798
 20
83.4690557006
 11
167.7219938929
 21
83.4690557006
  0
LINE
  5
27B
100
AcDbEntity
  8
0
100
AcDbLine
 62
7
  6
CONTINUOUS
 10
166.9219938929
 20
83.4690557006
 11
165.8938508061
 21
83.4690557006
  0
LWPOLYLINE
  5
27C
100
AcDbEntity
  8
0
100
AcDbPolyline
 62
253
  6
CONTINUOUS
 90
28
 70
0
 10
177.2772532628
 20
82.7969724165
 10
177.2748325321
 20
82.7970141068
 10
177.2723629979
 20
82.7971980808
 10
177.2698446601
 20
82.7975243383
 10
177.267262283
 20
82.7979863829
 10
177.2646311023
 20
82.798590711
 10
177.2619968251
 20
82.7993568124
 10
177.2593581245
 20
82.8002900112
 10
177.2567163274
 20
82.8013849832
 10
177.2541211216
 20
82.8026452453
 10
177.251573255
 20
82.8040764513
 10
177.2490719797
 20
82.8056729474
 10
177.2466647398
 20
82.8074212892
 10
177.2443552623
 20
82.8093249213
 10
177.2421398203
 20
82.8113803991
 10
177.2400546761
 20
82.8135639436
 10
177.2381035568
 20
82.815876941
 10
177.2362827354
 20
82.8183180051
 10
177.2346172933
 20
82.8208591992
 10
177.2331097223
 20
82.8235019196
 10
177.2317575306
 20
82.8262447701
 10
177.2305783242
 20
82.8290556251
 10
177.2295746428
 20
82.8319356205
 10
177.2287439467
 20
82.8348836205
 10
177.2280962234
 20
82.8378640919
 10
177.2276348021
 20
82.8408651902
 10
177.2273563536
 20
82.84389876
 10
177.227260878
 20
82.8469648012
  0
LWPOLYLINE
  5
27D
100
AcDbEntity
  8
0
100
AcDbPolyline
 62
253
  6
CONTINUOUS
 90
28
 70
0
 10
177.2772532628
 20
82.5970028774
 10
177.2652200796
 20
82.5972955898
 10
177.2528652302
 20
82.5982013234
 10
177.2402228925
 20
82.5997698855
 10
177.2273045472
 20
82.6020561448
 10
177.2141838438
 20
82.6051054129
 10
177.2009933226
 20
82.6089379292
 10
177.1877846942
 20
82.6135842408
 10
177.1746145392
 20
82.6190717266
 10
177.1616201152
 20
82.6253843041
 10
177.1488589344
 20
82.6325284073
 10
177.1363893759
 20
82.6405072174
 10
177.124339268
 20
82.6492676617
 10
177.1127693885
 20
82.6587851624
 10
177.1017231549
 20
82.6690446574
 10
177.0912873684
 20
82.6799822783
 10
177.0815123431
 20
82.691554844
 10
177.0724321154
 20
82.7037322976
 10
177.064096872
 20
82.7164569671
 10
177.0565417405
 20
82.7296820459
 10
177.0497969777
 20
82.7433621085
 10
177.0438962194
 20
82.7574349382
 10
177.0388626406
 20
82.7718489279
 10
177.0347164513
 20
82.7865504961
 10
177.031477171
 20
82.801470502
 10
177.0291561817
 20
82.8165480912
 10
177.0277596141
 20
82.8317317271
 10
177.027291339
 20
82.8469648012
  0
LWPOLYLINE
  5
27E
100
AcDbEntity
  8
0
100
AcDbPolyline
 62
253
  6
CONTINUOUS
 90
13
 70
0
 10
168.7822531546
 20
82.963874215
 10
168.8082112262
 20
82.9622126184
 10
168.8337300621
 20
82.9576483403
 10
168.858377859
 20
82.9502586127
 10
168.8817375524
 20
82.9401684769
 10
168.9034138736
 20
82.9275486678
 10
168.9230400385
 20
82.9126127248
 10
168.9402839532
 20
82.8956133784
 10
168.9548538341
 20
82.876838274
 10
168.9665031448
 20
82.8566051045
 10
168.9750347676
 20
82.8352562347
 10
168.9803043393
 20
82.8131529081
 10
168.9822226936
 20
82.7906691343
  0
LWPOLYLINE
  5
27F
100
AcDbEntity
  8
0
100
AcDbPolyline
 62
7
  6
CONTINUOUS
 90
13
 70
0
 10
165.821963432
 20
82.0917054314
 10
165.7958613051
 20
82.0934156956
 10
165.7702061268
 20
82.0985178719
 10
165.7454366054
 20
82.1069248532
 10
165.7219761486
 20
82.1184930943
 10
165.7002263427
 20
82.1330248814
 10
165.6805599207
 20
82.1502714592
 10
165.663313343
 20
82.1699378812
 10
165.6487815558
 20
82.191687687
 10
165.6372133147
 20
82.2151481439
 10
165.6288063335
 20
82.2399176653
 10
165.6237041571
 20
82.2655728436
 10
165.6219938929
 20
82.2916749704
  0
LWPOLYLINE
  5
280
100
AcDbEntity
  8
0
100
AcDbPolyline
 62
253
  6
CONTINUOUS
 90
13
 70
0
 10
183.6613134863
 20
82.1310554857
 10
183.6352172548
 20
82.1327735389
 10
183.6095673642
 20
82.1378824166
 10
183.5848025213
 20
82.1462947381
 10
183.5613462953
 20
82.1578666222
 10
183.5395998733
 20
82.1724001472
 10
183.5199351985
 20
82.189646737
 10
183.5026886088
 20
82.2093114117
 10
183.4881550837
 20
82.2310578337
 10
183.4765831997
 20
82.2545140598
 10
183.4681708781
 20
82.2792789027
 10
183.4630620005
 20
82.3049287933
 10
183.4613439472
 20
82.3310250247
  0
LWPOLYLINE
  5
281
100
AcDbEntity
  8
0
100
AcDbPolyline
 62
253
  6
CONTINUOUS
 90
16
 70
0
 10
165.3267544089
 20
85.7358800724
 10
165.3304635936
 20
85.7337620815
 10
165.3389831106
 20
85.7316646265
 10
165.3522303556
 20
85.729608044
 10
165.3700768843
 20
85.7276122746
 10
165.3923496583
 20
85.7256966691
 10
165.4188327227
 20
85.723879801
 10
165.4492692999
 20
85.7221792866
 10
165.4833642795
 20
85.7206116138
 10
165.5207870794
 20
85.7191919826
 10
165.5611748513
 20
85.7179341578
 10
165.6041359988
 20
85.7168503351
 10
165.6492539743
 20
85.7159510231
 10
165.6960913177
 20
85.7152449414
 10
165.7441938981
 20
85.7147389363
 10
165.7930953169
 20
85.7144379138
  0
LWPOLYLINE
  5
282
100
AcDbEntity
  8
0
100
AcDbPolyline
 62
7
  6
CONTINUOUS
 90
10
 70
0
 10
166.9686169227
 20
82.963874215
 10
166.9879297895
 20
82.9455815325
 10
167.0086525766
 20
82.9246398727
 10
167.0307852839
 20
82.9017058538
 10
167.0546266738
 20
82.8775676797
 10
167.0798779839
 20
82.8526399702
 10
167.1056429276
 20
82.8268482101
 10
167.1316227427
 20
82.800376799
 10
167.1581161914
 20
82.7737715687
 10
167.1851232736
 20
82.7473678641
  0
LINE
  5
283
100
AcDbEntity
  8
0
100
AcDbLine
 62
253
  6
CONTINUOUS
 10
168.7826742996
 20
131.0523553771
 11
168.8220243539
 21
131.0917054314
  0
LINE
  5
284
100
AcDbEntity
  8
0
100
AcDbLine
 62
253
  6
CONTINUOUS
 10
168.9826438386
 20
130.8523858381
 11
169.0219938929
 21
130.8917358924
  0
LWPOLYLINE
  5
285
100
AcDbEntity
  8
0
100
AcDbPolyline
 62
7
  6
CONTINUOUS
 90
13
 70
0
 10
168.7976057208
 20
83.4716814492
 10
168.8230111276
 20
83.4734452557
 10
168.8482581479
 20
83.4731638358
 10
168.8729185733
 20
83.4708337242
 10
168.8966219963
 20
83.4665228615
 10
168.9188536446
 20
83.4602949928
 10
168.9390166545
 20
83.4522815468
 10
168.9567499701
 20
83.442812543
 10
168.9717627994
 20
83.4321180344
 10
168.9837248999
 20
83.4203278302
 10
168.9924698504
 20
83.4077501483
 10
168.9979381676
 20
83.3948314944
 10
169.0000989035
 20
83.3819493526
  0
LWPOLYLINE
  5
286
100
AcDbEntity
  8
0
100
AcDbPolyline
 62
7
  6
CONTINUOUS
 90
16
 70
0
 10
186.8219938929
 20
84.1917056956
 10
186.8738953551
 20
84.1943854421
 10
186.9254467984
 20
84.2024849129
 10
186.9760764623
 20
84.2159817239
 10
187.0253920615
 20
84.2348723702
 10
187.0726255186
 20
84.258968817
 10
187.116734662
 20
84.2877121861
 10
187.1569642555
 20
84.3203858798
 10
187.1933414893
 20
84.3567716933
 10
187.2260018262
 20
84.3970038289
 10
187.2547288093
 20
84.4411044755
 10
187.2788110211
 20
84.4883203773
 10
187.2976939306
 20
84.5376210788
 10
187.3111904536
 20
84.5882442247
 10
187.3192976101
 20
84.6397956405
 10
187.3219938929
 20
84.6917056665
  0
LINE
  5
287
100
AcDbEntity
  8
0
100
AcDbLine
 62
7
  6
CONTINUOUS
 10
183.4219938929
 20
84.1917054314
 11
180.6719938929
 21
84.1917054314
  0
LINE
  5
288
100
AcDbEntity
  8
0
100
AcDbLine
 62
7
  6
CONTINUOUS
 10
177.0219938929
 20
84.1917054314
 11
175.4219938929
 21
84.1917054314
  0
LINE
  5
289
100
AcDbEntity
  8
0
100
AcDbLine
 62
7
  6
CONTINUOUS
 10
171.7719938929
 20
84.1917054314
 11
169.0219938929
 21
84.1917054314
  0
LINE
  5
28A
100
AcDbEntity
  8
0
100
AcDbLine
 62
7
  6
CONTINUOUS
 10
171.977260878
 20
84.217909321
 11
175.2167269078
 21
84.217909321
  0
LINE
  5
28B
100
AcDbEntity
  8
0
100
AcDbLine
 62
7
  6
CONTINUOUS
 10
177.227260878
 20
84.217909321
 11
180.4667269078
 21
84.217909321
  0
LINE
  5
28C
100
AcDbEntity
  8
0
100
AcDbLine
 62
7
  6
CONTINUOUS
 10
186.5501369798
 20
84.2703171003
 11
185.5219938929
 21
84.2703171003
  0
LINE
  5
28D
100
AcDbEntity
  8
0
100
AcDbLine
 62
7
  6
CONTINUOUS
 10
184.7219938929
 20
84.2703171003
 11
183.6938508061
 21
84.2703171003
  0
LINE
  5
28E
100
AcDbEntity
  8
0
100
AcDbLine
 62
7
  6
CONTINUOUS
 10
168.7501369798
 20
84.2703171003
 11
167.7219938929
 21
84.2703171003
  0
LINE
  5
28F
100
AcDbEntity
  8
0
100
AcDbLine
 62
7
  6
CONTINUOUS
 10
166.9219938929
 20
84.2703171003
 11
165.8938508061
 21
84.2703171003
  0
LINE
  5
290
100
AcDbEntity
  8
0
100
AcDbLine
 62
7
  6
CONTINUOUS
 10
167.1851232736
 20
84.3227248796
 11
167.4588645122
 21
84.3227248796
  0
LINE
  5
291
100
AcDbEntity
  8
0
100
AcDbLine
 62
7
  6
CONTINUOUS
 10
184.9851232736
 20
84.3227248796
 11
185.2588645122
 21
84.3227248796
  0
LINE
  5
292
100
AcDbEntity
  8
0
100
AcDbLine
 62
7
  6
CONTINUOUS
 10
165.7655026252
 20
84.4799482174
 11
186.6784851607
 21
84.4799482174
  0
LWPOLYLINE
  5
293
100
AcDbEntity
  8
0
100
AcDbPolyline
 62
253
  6
CONTINUOUS
 90
10
 70
0
 10
186.6348312287
 20
84.5673159898
 10
184.3224436364
 20
84.5746137378
 10
182.0094024002
 20
84.5800872873
 10
179.6957075201
 20
84.5837366384
 10
177.3810128912
 20
84.5855621091
 10
175.0656646183
 20
84.5855633814
 10
172.7507010169
 20
84.5837395009
 10
170.4364681919
 20
84.5800901493
 10
168.1226200383
 20
84.5746156449
 10
165.8091565561
 20
84.5673159876
  0
LWPOLYLINE
  5
294
100
AcDbEntity
  8
0
100
AcDbPolyline
 62
7
  6
CONTINUOUS
 90
16
 70
0
 10
165.6219938284
 20
84.1917055017
 10
165.5700976951
 20
84.1943865673
 10
165.5185519886
 20
84.2024839599
 10
165.4679281094
 20
84.2159762928
 10
165.4186190215
 20
84.234861317
 10
165.3713917583
 20
84.2589515434
 10
165.3272858961
 20
84.2876882811
 10
165.287057597
 20
84.3203553467
 10
165.2506796067
 20
84.3567356036
 10
165.2180138739
 20
84.3969655503
 10
165.189277372
 20
84.4410732595
 10
165.1651864744
 20
84.4883018196
 10
165.1462982577
 20
84.5376074754
 10
165.1327989612
 20
84.5882216125
 10
165.1246906047
 20
84.6397526318
 10
165.1219938929
 20
84.691629279
  0
LWPOLYLINE
  5
295
100
AcDbEntity
  8
0
100
AcDbPolyline
 62
253
  6
CONTINUOUS
 90
7
 70
0
 10
165.7729577167
 20
84.5686767062
 10
165.7789825531
 20
84.568267959
 10
165.7850118845
 20
84.567931937
 10
165.7910448311
 20
84.5676686926
 10
165.7970805125
 20
84.5674782673
 10
165.8031180481
 20
84.5673606925
 10
165.8091565565
 20
84.5673159884
  0
LINE
  5
296
100
AcDbEntity
  8
0
100
AcDbLine
 62
253
  6
CONTINUOUS
 10
168.8220243539
 20
82.0917054314
 11
168.7826742996
 21
82.1310554857
  0
LINE
  5
297
100
AcDbEntity
  8
0
100
AcDbLine
 62
253
  6
CONTINUOUS
 10
169.0219938929
 20
82.2916749704
 11
168.9826438386
 21
82.3310250247
  0
LINE
  5
298
100
AcDbEntity
  8
0
100
AcDbLine
 62
7
  6
CONTINUOUS
 10
165.1429426302
 20
123.5917054314
 11
165.0696220498
 21
123.4939272768
  0
LINE
  5
299
100
AcDbEntity
  8
0
100
AcDbLine
 62
253
  6
CONTINUOUS
 10
165.7930953162
 20
85.7144380121
 11
167.8194075862
 21
85.7169315669
  0
LINE
  5
29A
100
AcDbEntity
  8
0
100
AcDbLine
 62
253
  6
CONTINUOUS
 10
167.8194075862
 20
85.7169315669
 11
169.1692325548
 21
85.7182934618
  0
LINE
  5
29B
100
AcDbEntity
  8
0
100
AcDbLine
 62
253
  6
CONTINUOUS
 10
169.1692325548
 20
85.7182934618
 11
170.520001311
 21
85.7194171861
  0
LINE
  5
29C
100
AcDbEntity
  8
0
100
AcDbLine
 62
253
  6
CONTINUOUS
 10
170.520001311
 20
85.7194171861
 11
171.8719132652
 21
85.7203032044
  0
LINE
  5
29D
100
AcDbEntity
  8
0
100
AcDbLine
 62
253
  6
CONTINUOUS
 10
171.8719132652
 20
85.7203032044
 11
173.2240193688
 21
85.7209507224
  0
LINE
  5
29E
100
AcDbEntity
  8
0
100
AcDbLine
 62
253
  6
CONTINUOUS
 10
173.2240193688
 20
85.7209507224
 11
174.5762755308
 21
85.7213598698
  0
LINE
  5
29F
100
AcDbEntity
  8
0
100
AcDbLine
 62
253
  6
CONTINUOUS
 10
174.5762755308
 20
85.7213598698
 11
175.928219548
 21
85.7215307768
  0
LINE
  5
2A0
100
AcDbEntity
  8
0
100
AcDbLine
 62
253
  6
CONTINUOUS
 10
175.928219548
 20
85.7215307768
 11
177.2778231313
 21
85.7214639613
  0
LINE
  5
2A1
100
AcDbEntity
  8
0
100
AcDbLine
 62
253
  6
CONTINUOUS
 10
177.2778231313
 20
85.7214639613
 11
178.6275351766
 21
85.721160039
  0
LINE
  5
2A2
100
AcDbEntity
  8
0
100
AcDbLine
 62
253
  6
CONTINUOUS
 10
178.6275351766
 20
85.721160039
 11
179.9830611744
 21
85.7206145969
  0
LINE
  5
2A3
100
AcDbEntity
  8
0
100
AcDbLine
 62
253
  6
CONTINUOUS
 10
179.9830611744
 20
85.7206145969
 11
181.3577385217
 21
85.7198201187
  0
LINE
  5
2A4
100
AcDbEntity
  8
0
100
AcDbLine
 62
253
  6
CONTINUOUS
 10
181.3577385217
 20
85.7198201187
 11
182.7787099025
 21
85.718733903
  0
LWPOLYLINE
  5
2A5
100
AcDbEntity
  8
0
100
AcDbPolyline
 62
253
  6
CONTINUOUS
 90
3
 70
0
 10
182.7787099025
 20
85.718733903
 10
184.2615870163
 20
85.7173212573
 10
185.0370609169
 20
85.7164586129
  0
LINE
  5
2A6
100
AcDbEntity
  8
0
100
AcDbLine
 62
253
  6
CONTINUOUS
 10
185.0370609169
 20
85.7164586129
 11
186.6508924682
 21
85.7144380143
  0
LWPOLYLINE
  5
2A7
100
AcDbEntity
  8
0
100
AcDbPolyline
 62
7
  6
CONTINUOUS
 90
7
 70
0
 10
186.7877393645
 20
84.2612898753
 10
186.7913164515
 20
84.2606853372
 10
186.7942946076
 20
84.2600734797
 10
186.7966667468
 20
84.2594543026
 10
186.7984272921
 20
84.258827806
 10
186.7995721869
 20
84.2581939898
 10
186.8000989035
 20
84.2575528542
  0
LINE
  5
2A8
100
AcDbEntity
  8
0
100
AcDbLine
 62
7
  6
CONTINUOUS
 10
165.1429426302
 20
89.5917054314
 11
165.0696220498
 21
89.689483586
  0
LINE
  5
2A9
100
AcDbEntity
  8
0
100
AcDbLine
 62
253
  6
CONTINUOUS
 10
175.1667345231
 20
130.5864079853
 11
175.1720319691
 21
130.5917054314
  0
LINE
  5
2AA
100
AcDbEntity
  8
0
100
AcDbLine
 62
253
  6
CONTINUOUS
 10
175.1720319691
 20
82.5917054314
 11
175.1667345231
 21
82.5970028774
  0
LINE
  5
2AB
100
AcDbEntity
  8
0
100
AcDbLine
 62
253
  6
CONTINUOUS
 10
175.4219938929
 20
82.8416673552
 11
175.4166964469
 21
82.8469648012
  0
LWPOLYLINE
  5
2AC
100
AcDbEntity
  8
0
100
AcDbPolyline
 62
253
  6
CONTINUOUS
 90
10
 70
0
 10
168.9826438386
 20
82.3310250247
 10
168.9826027111
 20
82.3311045653
 10
168.9825607082
 20
82.3313217505
 10
168.9825178299
 20
82.3316765805
 10
168.9824738176
 20
82.332162407
 10
168.98242893
 20
82.3327858783
 10
168.9823839428
 20
82.3335669386
 10
168.9823388315
 20
82.334510662
 10
168.9822936206
 20
82.3356119744
 10
168.9822491595
 20
82.3368755981
  0
LINE
  5
2AD
100
AcDbEntity
  8
0
100
AcDbLine
 62
7
  6
CONTINUOUS
 10
167.7219938929
 20
128.9130937625
 11
167.708826436
 21
128.8735592675
  0
LINE
  5
2AE
100
AcDbEntity
  8
0
100
AcDbLine
 62
7
  6
CONTINUOUS
 10
167.7219938929
 20
84.2703171003
 11
167.708826436
 21
84.3098515952
  0
LWPOLYLINE
  5
2AF
100
AcDbEntity
  8
0
100
AcDbPolyline
 62
253
  6
CONTINUOUS
 90
8
 70
0
 10
165.8091565571
 20
128.6160781662
 10
165.8078432693
 20
128.6068755183
 10
165.8065856758
 20
128.5896602376
 10
165.8053656074
 20
128.5645365325
 10
165.8041439402
 20
128.5316964052
 10
165.8029280891
 20
128.4913503046
 10
165.8017721119
 20
128.44378249
 10
165.7995859685
 20
128.3283689552
  0
LINE
  5
2B0
100
AcDbEntity
  8
0
100
AcDbLine
 62
7
  6
CONTINUOUS
 10
169.0219938929
 20
128.9917054314
 11
169.0000989035
 21
128.9259670468
  0
LINE
  5
2B1
100
AcDbEntity
  8
0
100
AcDbLine
 62
253
  6
CONTINUOUS
 10
180.4167345231
 20
130.5864079853
 11
180.4220319691
 21
130.5917054314
  0
LINE
  5
2B2
100
AcDbEntity
  8
0
100
AcDbLine
 62
253
  6
CONTINUOUS
 10
180.6666964469
 20
130.3364460615
 11
180.6719938929
 21
130.3417435076
  0
LINE
  5
2B3
100
AcDbEntity
  8
0
100
AcDbLine
 62
253
  6
CONTINUOUS
 10
180.6719938929
 20
82.8416673552
 11
180.6666964469
 21
82.8469648012
  0
LINE
  5
2B4
100
AcDbEntity
  8
0
100
AcDbLine
 62
7
  6
CONTINUOUS
 10
169.0000989035
 20
84.257443816
 11
169.0219938929
 21
84.1917054314
  0
LWPOLYLINE
  5
2B5
100
AcDbEntity
  8
0
100
AcDbPolyline
 62
253
  6
CONTINUOUS
 90
13
 70
0
 10
165.6613439472
 20
82.3310250247
 10
165.6630619951
 20
82.3049288339
 10
165.6681708587
 20
82.2792789752
 10
165.6765831605
 20
82.2545141542
 10
165.6881550221
 20
82.2310579403
 10
165.7026885253
 20
82.2093115205
 10
165.7199350981
 20
82.1896468374
 10
165.7395997653
 20
82.1724002301
 10
165.7613461905
 20
82.1578666827
 10
165.7848024293
 20
82.1462947762
 10
165.809567294
 20
82.1378824354
 10
165.8352172156
 20
82.1327735441
 10
165.8613134863
 20
82.1310554857
  0
LWPOLYLINE
  5
2B6
100
AcDbEntity
  8
0
100
AcDbPolyline
 62
253
  6
CONTINUOUS
 90
16
 70
0
 10
165.3093278941
 20
85.0666307559
 10
165.3118828863
 20
85.0168849762
 10
165.3193860294
 20
84.9676340282
 10
165.3317627122
 20
84.9193679938
 10
165.3488898239
 20
84.8725671699
 10
165.3705969864
 20
84.8276972659
 10
165.3966682556
 20
84.7852047726
 10
165.4268442586
 20
84.7455125444
 10
165.4608247551
 20
84.7090156022
 10
165.498271633
 20
84.6760771769
 10
165.5388122789
 20
84.6470250866
 10
165.5820433077
 20
84.6221484646
 10
165.6275345655
 20
84.6016948996
 10
165.6748333876
 20
84.5858679814
 10
165.7234690986
 20
84.5748252678
 10
165.7729577167
 20
84.5686767062
  0
LINE
  5
2B7
100
AcDbEntity
  8
0
100
AcDbLine
 62
253
  6
CONTINUOUS
 10
165.8617359089
 20
82.9638319547
 11
165.846382065
 21
83.4716814492
  0
LINE
  5
2B8
100
AcDbEntity
  8
0
100
AcDbLine
 62
253
  6
CONTINUOUS
 10
165.6618513788
 20
82.7873840805
 11
165.6438888823
 21
83.3819493526
  0
LWPOLYLINE
  5
2B9
100
AcDbEntity
  8
0
100
AcDbPolyline
 62
253
  6
CONTINUOUS
 90
7
 70
0
 10
165.8017721112
 20
84.7396283682
 10
165.8029280884
 20
84.6920605551
 10
165.8041439396
 20
84.6517144559
 10
165.8053656068
 20
84.6188743291
 10
165.8065856751
 20
84.5937506238
 10
165.8078432687
 20
84.5765353427
 10
165.8091565565
 20
84.5673326949
  0
LINE
  5
2BA
100
AcDbEntity
  8
0
100
AcDbLine
 62
253
  6
CONTINUOUS
 10
165.3227369022
 20
127.8549224329
 11
165.3209792597
 21
127.9273430218
  0
LINE
  5
2BB
100
AcDbEntity
  8
0
100
AcDbLine
 62
253
  6
CONTINUOUS
 10
165.7995859676
 20
84.855041901
 11
165.8017721112
 21
84.7396283682
  0
LINE
  5
2BC
100
AcDbEntity
  8
0
100
AcDbLine
 62
253
  6
CONTINUOUS
 10
165.3242083842
 20
127.7738204697
 11
165.3227369022
 21
127.8549224329
  0
LINE
  5
2BD
100
AcDbEntity
  8
0
100
AcDbLine
 62
253
  6
CONTINUOUS
 10
165.6619971445
 20
82.7795169363
 11
165.6618513788
 21
82.7873840805
  0
LINE
  5
2BE
100
AcDbEntity
  8
0
100
AcDbLine
 62
253
  6
CONTINUOUS
 10
165.7976542625
 20
84.9947387333
 11
165.7995859676
 21
84.855041901
  0
LINE
  5
2BF
100
AcDbEntity
  8
0
100
AcDbLine
 62
253
  6
CONTINUOUS
 10
165.3253638138
 20
127.6859274837
 11
165.3242083842
 21
127.7738204697
  0
LINE
  5
2C0
100
AcDbEntity
  8
0
100
AcDbLine
 62
253
  6
CONTINUOUS
 10
165.6621085384
 20
82.7697849537
 11
165.6619971445
 21
82.7795169363
  0
LINE
  5
2C1
100
AcDbEntity
  8
0
100
AcDbLine
 62
253
  6
CONTINUOUS
 10
165.7959888887
 20
85.1549276546
 11
165.7976542625
 21
84.9947387333
  0
LINE
  5
2C2
100
AcDbEntity
  8
0
100
AcDbLine
 62
253
  6
CONTINUOUS
 10
165.3261863124
 20
127.5926151759
 11
165.3253638138
 21
127.6859274837
  0
LINE
  5
2C3
100
AcDbEntity
  8
0
100
AcDbLine
 62
253
  6
CONTINUOUS
 10
165.794656771
 20
85.3314115692
 11
165.7959888887
 21
85.1549276546
  0
LINE
  5
2C4
100
AcDbEntity
  8
0
100
AcDbLine
 62
253
  6
CONTINUOUS
 10
165.6620756048
 20
130.8282597103
 11
165.662161891
 21
130.8172743634
  0
LINE
  5
2C5
100
AcDbEntity
  8
0
100
AcDbLine
 62
253
  6
CONTINUOUS
 10
165.6621773322
 20
82.7590008684
 11
165.6621085384
 21
82.7697849537
  0
LINE
  5
2C6
100
AcDbEntity
  8
0
100
AcDbLine
 62
253
  6
CONTINUOUS
 10
165.7936955797
 20
85.5195818539
 11
165.794656771
 21
85.3314115692
  0
LINE
  5
2C7
100
AcDbEntity
  8
0
100
AcDbLine
 62
253
  6
CONTINUOUS
 10
165.3266529175
 20
127.4966743127
 11
165.3261863124
 21
127.5926151759
  0
LINE
  5
2C8
100
AcDbEntity
  8
0
100
AcDbLine
 62
253
  6
CONTINUOUS
 10
165.793096162
 20
85.7144384616
 11
165.7936955797
 21
85.5195818539
  0
LINE
  5
2C9
100
AcDbEntity
  8
0
100
AcDbLine
 62
253
  6
CONTINUOUS
 10
165.8621186663
 20
82.8328724765
 11
165.8617348564
 21
82.9638319422
  0
LINE
  5
2CA
100
AcDbEntity
  8
0
100
AcDbLine
 62
253
  6
CONTINUOUS
 10
165.662161891
 20
130.8172743634
 11
165.6622014688
 21
130.8023934533
  0
LINE
  5
2CB
100
AcDbEntity
  8
0
100
AcDbLine
 62
7
  6
CONTINUOUS
 10
165.0696220498
 20
123.4939272768
 11
165.0696220498
 21
89.689483586
  0
LINE
  5
2CC
100
AcDbEntity
  8
RACCORDO
100
AcDbLine
 62
7
  6
CONTINUOUS
 10
165.0719938929
 20
88.9200063827
 11
165.0719938929
 21
89.6863205662
  0
LINE
  5
2CD
100
AcDbEntity
  8
ASSI
100
AcDbLine
 62
7
  6
CONTINUOUS
 10
165.0719938929
 20
88.9200063827
 11
165.0719938929
 21
89.689483586
  0
LINE
  5
2CE
100
AcDbEntity
  8
RACCORDO
100
AcDbLine
 62
7
  6
CONTINUOUS
 10
165.0719938929
 20
123.4970902966
 11
165.0719938929
 21
124.2634044801
  0
LINE
  5
2CF
100
AcDbEntity
  8
ASSI
100
AcDbLine
 62
7
  6
CONTINUOUS
 10
165.0719938929
 20
123.4939272768
 11
165.0719938929
 21
124.2634044801
  0
LINE
  5
2D0
100
AcDbEntity
  8
0
100
AcDbLine
 62
7
  6
CONTINUOUS
 10
165.1219938929
 20
128.4917815838
 11
165.1219938929
 21
126.519642047
  0
LINE
  5
2D1
100
AcDbEntity
  8
0
100
AcDbLine
 62
7
  6
CONTINUOUS
 10
165.1219938929
 20
84.691629279
 11
165.1219938929
 21
86.6637688158
  0
LINE
  5
2D2
100
AcDbEntity
  8
0
100
AcDbLine
 62
7
  6
CONTINUOUS
 10
165.1429426302
 20
126.4917054314
 11
165.1429426302
 21
123.5917054314
  0
LINE
  5
2D3
100
AcDbEntity
  8
0
100
AcDbLine
 62
7
  6
CONTINUOUS
 10
165.1429426302
 20
89.5917054314
 11
165.1429426302
 21
86.6917054314
  0
LINE
  5
2D4
100
AcDbEntity
  8
0
100
AcDbLine
 62
7
  6
CONTINUOUS
 10
165.1599634792
 20
108.1107060115
 11
165.1599634792
 21
105.0727048512
  0
LINE
  5
2D5
100
AcDbEntity
  8
0
100
AcDbLine
 62
7
  6
CONTINUOUS
 10
165.2660164616
 20
128.2034624102
 11
165.2660164616
 21
84.9799484526
  0
LINE
  5
2D6
100
AcDbEntity
  8
0
100
AcDbLine
 62
7
  6
CONTINUOUS
 10
165.6219938929
 20
130.8917358924
 11
165.6219938929
 21
128.9917051672
  0
LINE
  5
2D7
100
AcDbEntity
  8
0
100
AcDbLine
 62
7
  6
CONTINUOUS
 10
165.6219938284
 20
84.1917055017
 11
165.6219938929
 21
82.2916749704
  0
LINE
  5
2D8
100
AcDbEntity
  8
0
100
AcDbLine
 62
253
  6
CONTINUOUS
 10
165.6438888823
 20
83.3819493526
 11
165.6438888823
 21
84.2575528542
  0
LINE
  5
2D9
100
AcDbEntity
  8
0
100
AcDbLine
 62
253
  6
CONTINUOUS
 10
165.6438888823
 20
128.9258580086
 11
165.6438888823
 21
129.8014615102
  0
LINE
  5
2DA
100
AcDbEntity
  8
0
100
AcDbLine
 62
253
  6
CONTINUOUS
 10
165.7930953162
 20
85.7144380121
 11
165.7930953176
 21
127.4689728453
  0
LINE
  5
2DB
100
AcDbEntity
  8
0
100
AcDbLine
 62
253
  6
CONTINUOUS
 10
165.8938508061
 20
83.4690557006
 11
165.8938508061
 21
84.2703171003
  0
LINE
  5
2DC
100
AcDbEntity
  8
0
100
AcDbLine
 62
253
  6
CONTINUOUS
 10
165.8938508061
 20
128.9130937625
 11
165.8938508061
 21
129.7143551622
  0
LINE
  5
2DD
100
AcDbEntity
  8
0
100
AcDbLine
 62
253
  6
CONTINUOUS
 10
165.8620166258
 20
130.9443693934
 11
165.8621704393
 21
130.4255865418
  0
LINE
  5
2DE
100
AcDbEntity
  8
0
100
AcDbLine
 62
253
  6
CONTINUOUS
 10
165.6621998991
 20
82.3780419977
 11
165.6621773322
 21
82.7590008684
  0
LWPOLYLINE
  5
2DF
100
AcDbEntity
  8
0
100
AcDbPolyline
 62
253
  6
CONTINUOUS
 90
12
 70
0
 10
165.3303487305
 20
89.2098179752
 10
165.3332897485
 20
92.6845673546
 10
165.3355774628
 20
96.1601282104
 10
165.3372121285
 20
99.6367704064
 10
165.3381934906
 20
103.1142240789
 10
165.3385207835
 20
106.591679637
 10
165.3381934984
 20
110.0691376842
 10
165.3372121442
 20
113.5465976172
 10
165.335577482
 20
117.0232480342
 10
165.3332897657
 20
120.4988184681
 10
165.3303487414
 20
123.9735793861
 10
165.3266529175
 20
127.4966743127
  0
LINE
  5
2E0
100
AcDbEntity
  8
0
100
AcDbLine
 62
253
  6
CONTINUOUS
 10
165.8620222211
 20
82.2414123243
 11
165.8621186663
 21
82.8328724765
  0
LINE
  5
2E1
100
AcDbEntity
  8
0
100
AcDbLine
 62
253
  6
CONTINUOUS
 10
165.8621704393
 20
130.4255865418
 11
165.8619807843
 21
130.2802576792
  0
LINE
  5
2E2
100
AcDbEntity
  8
0
100
AcDbLine
 62
253
  6
CONTINUOUS
 10
165.7936955807
 20
127.6638289935
 11
165.793096162
 21
127.4689723996
  0
LINE
  5
2E3
100
AcDbEntity
  8
0
100
AcDbLine
 62
253
  6
CONTINUOUS
 10
165.3264635512
 20
85.6383750856
 11
165.3303487305
 21
89.2098179752
  0
LINE
  5
2E4
100
AcDbEntity
  8
0
100
AcDbLine
 62
253
  6
CONTINUOUS
 10
165.6622014688
 20
130.8023934533
 11
165.6621703779
 21
130.4228164183
  0
LINE
  5
2E5
100
AcDbEntity
  8
0
100
AcDbLine
 62
253
  6
CONTINUOUS
 10
165.7946567723
 20
127.8519992729
 11
165.7936955807
 21
127.6638289935
  0
LINE
  5
2E6
100
AcDbEntity
  8
0
100
AcDbLine
 62
253
  6
CONTINUOUS
 10
165.8619807843
 20
130.2802576792
 11
165.8617346313
 21
130.2195366477
  0
LINE
  5
2E7
100
AcDbEntity
  8
0
100
AcDbLine
 62
253
  6
CONTINUOUS
 10
165.6621468974
 20
82.3636147173
 11
165.6621998991
 21
82.3780419977
  0
LINE
  5
2E8
100
AcDbEntity
  8
0
100
AcDbLine
 62
253
  6
CONTINUOUS
 10
165.3258189993
 20
85.5437485001
 11
165.3264635512
 21
85.6383750856
  0
LINE
  5
2E9
100
AcDbEntity
  8
0
100
AcDbLine
 62
253
  6
CONTINUOUS
 10
165.7959888897
 20
128.02848319
 11
165.7946567723
 21
127.8519992729
  0
LINE
  5
2EA
100
AcDbEntity
  8
0
100
AcDbLine
 62
253
  6
CONTINUOUS
 10
165.6621703779
 20
130.4228164183
 11
165.6620876592
 21
130.411355186
  0
LINE
  5
2EB
100
AcDbEntity
  8
0
100
AcDbLine
 62
253
  6
CONTINUOUS
 10
165.6620802764
 20
82.3555991117
 11
165.6621468974
 21
82.3636147173
  0
LINE
  5
2EC
100
AcDbEntity
  8
0
100
AcDbLine
 62
253
  6
CONTINUOUS
 10
165.7976542635
 20
128.1886721188
 11
165.7959888897
 21
128.02848319
  0
LINE
  5
2ED
100
AcDbEntity
  8
0
100
AcDbLine
 62
253
  6
CONTINUOUS
 10
165.3248273505
 20
85.4527498544
 11
165.3258189993
 21
85.5437485001
  0
LINE
  5
2EE
100
AcDbEntity
  8
0
100
AcDbLine
 62
253
  6
CONTINUOUS
 10
165.6620876592
 20
130.411355186
 11
165.661981539
 21
130.4028584837
  0
LINE
  5
2EF
100
AcDbEntity
  8
0
100
AcDbLine
 62
253
  6
CONTINUOUS
 10
165.7995859685
 20
128.3283689552
 11
165.7976542635
 21
128.1886721188
  0
LINE
  5
2F0
100
AcDbEntity
  8
0
100
AcDbLine
 62
253
  6
CONTINUOUS
 10
165.3235081402
 20
85.367962528
 11
165.3248273505
 21
85.4527498544
  0
LINE
  5
2F1
100
AcDbEntity
  8
0
100
AcDbLine
 62
253
  6
CONTINUOUS
 10
165.661981539
 20
130.4028584837
 11
165.6618806931
 21
130.3973133539
  0
LINE
  5
2F2
100
AcDbEntity
  8
0
100
AcDbLine
 62
253
  6
CONTINUOUS
 10
165.6618806931
 20
130.3973133539
 11
165.6618052653
 21
130.3941574365
  0
LINE
  5
2F3
100
AcDbEntity
  8
0
100
AcDbLine
 62
253
  6
CONTINUOUS
 10
165.6618052653
 20
130.3941574365
 11
165.6438888823
 21
129.8014615102
  0
LINE
  5
2F4
100
AcDbEntity
  8
0
100
AcDbLine
 62
253
  6
CONTINUOUS
 10
165.8617346313
 20
130.2195366477
 11
165.846382065
 21
129.7117294135
  0
LWPOLYLINE
  5
2F5
100
AcDbEntity
  8
0
100
AcDbPolyline
 62
253
  6
CONTINUOUS
 90
16
 70
0
 10
165.3093278947
 20
128.1167801057
 10
165.3118830012
 20
128.1665270101
 10
165.3193864485
 20
128.215778886
 10
165.3317635703
 20
128.2640456306
 10
165.3488912026
 20
128.3108469444
 10
165.3705989092
 20
128.3557171101
 10
165.396670678
 20
128.3982096272
 10
165.4268470703
 20
128.4379016553
 10
165.4608278026
 20
128.474398221
 10
165.4982747346
 20
128.5073361493
 10
165.5388152086
 20
128.5363876604
 10
165.5820458308
 20
128.5612636856
 10
165.6275365003
 20
128.5817167181
 10
165.6748345807
 20
128.597543214
 10
165.7234693901
 20
128.6085856446
 10
165.7729569668
 20
128.6147340998
  0
LWPOLYLINE
  5
2F6
100
AcDbEntity
  8
0
100
AcDbPolyline
 62
7
  6
CONTINUOUS
 90
13
 70
0
 10
169.0000989035
 20
129.8014615102
 10
168.9979381676
 20
129.7885793684
 10
168.9924698504
 20
129.7756607145
 10
168.9837248999
 20
129.7630830326
 10
168.9717627994
 20
129.7512928284
 10
168.9567499701
 20
129.7405983198
 10
168.9390166545
 20
129.731129316
 10
168.9188536446
 20
129.72311587
 10
168.8966219963
 20
129.7168880013
 10
168.8729185733
 20
129.7125771386
 10
168.8482581479
 20
129.710247027
 10
168.8230111276
 20
129.7099656071
 10
168.7976057208
 20
129.7117294135
  0
LWPOLYLINE
  5
2F7
100
AcDbEntity
  8
0
100
AcDbPolyline
 62
7
  6
CONTINUOUS
 90
3
 70
0
 43
0.3500000006
 10
177.364850647
 20
143.0208762817
 10
177.2934285278
 20
142.8065917969
 10
177.1505661621
 20
142.5208851929
  0
LWPOLYLINE
  5
2F8
100
AcDbEntity
  8
0
100
AcDbPolyline
 62
7
  6
CONTINUOUS
 90
10
 70
0
 10
184.9851232736
 20
130.4360429987
 10
184.9587195691
 20
130.4090359164
 10
184.9321143388
 20
130.3825424677
 10
184.9056429276
 20
130.3565626526
 10
184.8798511675
 20
130.3307977089
 10
184.854923458
 20
130.3055463988
 10
184.8307852839
 20
130.281705009
 10
184.8078512651
 20
130.2595723016
 10
184.7869096052
 20
130.2388495145
 10
184.7686169227
 20
130.2195366477
  0
LWPOLYLINE
  5
2F9
100
AcDbEntity
  8
0
100
AcDbPolyline
 62
7
  6
CONTINUOUS
 90
10
 70
0
 10
184.7686169227
 20
82.963874215
 10
184.7879297895
 20
82.9455815325
 10
184.8086525766
 20
82.9246398727
 10
184.8307852839
 20
82.9017058538
 10
184.8546266738
 20
82.8775676797
 10
184.8798779839
 20
82.8526399702
 10
184.9056429276
 20
82.8268482101
 10
184.9316227427
 20
82.800376799
 10
184.9581161914
 20
82.7737715687
 10
184.9851232736
 20
82.7473678641
  0
LWPOLYLINE
  5
2FA
100
AcDbEntity
  8
0
100
AcDbPolyline
 62
253
  6
CONTINUOUS
 90
4
 70
0
 10
168.7826742996
 20
82.1310554857
 10
168.782633171
 20
82.1315350735
 10
168.7825911686
 20
82.1326041707
 10
168.7825482924
 20
82.1343127165
  0
LWPOLYLINE
  5
2FB
100
AcDbEntity
  8
0
100
AcDbPolyline
 62
253
  6
CONTINUOUS
 90
4
 70
0
 10
165.8613134963
 20
131.0523553269
 10
165.8613552914
 20
131.0518638399
 10
165.8613978784
 20
131.0507673221
 10
165.8614412575
 20
131.0490180054
  0
LINE
  5
2FC
100
AcDbEntity
  8
0
100
AcDbLine
 62
7
  6
CONTINUOUS
 10
166.9351613498
 20
83.0335239608
 11
166.9219938929
 21
83.4690557006
  0
LWPOLYLINE
  5
2FD
100
AcDbEntity
  8
0
100
AcDbPolyline
 62
253
  6
CONTINUOUS
 90
11
 70
0
 10
165.3209792597
 20
127.9273430218
 10
165.3200074953
 20
127.9597999941
 10
165.3189774557
 20
127.9895387029
 10
165.3178899706
 20
128.016600971
 10
165.3167610789
 20
128.0405895883
 10
165.315589548
 20
128.0614610441
 10
165.3143766105
 20
128.0792588492
 10
165.3131420028
 20
128.0937163256
 10
165.3118923037
 20
128.1047445809
 10
165.3106209343
 20
128.1124325076
 10
165.3093278947
 20
128.1167801057
  0
LINE
  5
2FE
100
AcDbEntity
  8
0
100
AcDbLine
 62
253
  6
CONTINUOUS
 10
165.6617416514
 20
130.8464426428
 11
165.6618281557
 21
130.8433954305
  0
LINE
  5
2FF
100
AcDbEntity
  8
0
100
AcDbLine
 62
253
  6
CONTINUOUS
 10
165.6618281557
 20
130.8433954305
 11
165.6619089241
 21
130.8397401294
  0
LINE
  5
300
100
AcDbEntity
  8
0
100
AcDbLine
 62
253
  6
CONTINUOUS
 10
165.6619089241
 20
130.8397401294
 11
165.6620159383
 21
130.8332109778
  0
LINE
  5
301
100
AcDbEntity
  8
0
100
AcDbLine
 62
253
  6
CONTINUOUS
 10
165.8614412575
 20
131.0490180054
 11
165.8615309057
 21
131.0433590742
  0
LINE
  5
302
100
AcDbEntity
  8
0
100
AcDbLine
 62
253
  6
CONTINUOUS
 10
165.6620159383
 20
130.8332109778
 11
165.6620756048
 21
130.8282597103
  0
LINE
  5
303
100
AcDbEntity
  8
0
100
AcDbLine
 62
253
  6
CONTINUOUS
 10
165.8615309057
 20
131.0433590742
 11
165.8616667362
 21
131.0290358553
  0
LWPOLYLINE
  5
304
100
AcDbEntity
  8
0
100
AcDbPolyline
 62
253
  6
CONTINUOUS
 90
3
 70
0
 10
165.8616667362
 20
131.0290358553
 10
165.8619854687
 20
130.9564775771
 10
165.8620166258
 20
130.9443693934
  0
LINE
  5
305
100
AcDbEntity
  8
0
100
AcDbLine
 62
7
  6
CONTINUOUS
 10
166.9219938929
 20
83.4690557006
 11
166.9219938929
 21
84.2703171003
  0
LINE
  5
306
100
AcDbEntity
  8
0
100
AcDbLine
 62
7
  6
CONTINUOUS
 10
166.9219938929
 20
128.9130937625
 11
166.9219938929
 21
129.7143551622
  0
LINE
  5
307
100
AcDbEntity
  8
0
100
AcDbLine
 62
253
  6
CONTINUOUS
 10
166.9351613498
 20
130.149886902
 11
166.9351613498
 21
128.8735592675
  0
LINE
  5
308
100
AcDbEntity
  8
0
100
AcDbLine
 62
253
  6
CONTINUOUS
 10
166.9351613498
 20
84.3098515952
 11
166.9351613498
 21
83.0335239608
  0
LINE
  5
309
100
AcDbEntity
  8
0
100
AcDbLine
 62
253
  6
CONTINUOUS
 10
167.1851232736
 20
130.4360429987
 11
167.1851232736
 21
128.8606859832
  0
LINE
  5
30A
100
AcDbEntity
  8
0
100
AcDbLine
 62
253
  6
CONTINUOUS
 10
167.1851232736
 20
84.3227248796
 11
167.1851232736
 21
82.7473678641
  0
LINE
  5
30B
100
AcDbEntity
  8
0
100
AcDbLine
 62
253
  6
CONTINUOUS
 10
167.4588645122
 20
130.4360429987
 11
167.4588645122
 21
128.8606859832
  0
LINE
  5
30C
100
AcDbEntity
  8
0
100
AcDbLine
 62
253
  6
CONTINUOUS
 10
167.4588645122
 20
84.3227248796
 11
167.4588645122
 21
82.7473678641
  0
LINE
  5
30D
100
AcDbEntity
  8
0
100
AcDbLine
 62
253
  6
CONTINUOUS
 10
167.708826436
 20
130.149886902
 11
167.708826436
 21
128.8735592675
  0
LINE
  5
30E
100
AcDbEntity
  8
0
100
AcDbLine
 62
253
  6
CONTINUOUS
 10
167.708826436
 20
84.3098515952
 11
167.708826436
 21
83.0335239608
  0
LINE
  5
30F
100
AcDbEntity
  8
0
100
AcDbLine
 62
7
  6
CONTINUOUS
 10
167.7219938929
 20
83.4690557006
 11
167.7219938929
 21
84.2703171003
  0
LINE
  5
310
100
AcDbEntity
  8
0
100
AcDbLine
 62
7
  6
CONTINUOUS
 10
167.7219938929
 20
128.9130937625
 11
167.7219938929
 21
129.7143551622
  0
LINE
  5
311
100
AcDbEntity
  8
0
100
AcDbLine
 62
253
  6
CONTINUOUS
 10
165.8616777697
 20
82.1558848776
 11
165.8620222211
 21
82.2414123243
  0
LINE
  5
312
100
AcDbEntity
  8
0
100
AcDbLine
 62
253
  6
CONTINUOUS
 10
165.8615399357
 20
82.1407872068
 11
165.8616777697
 21
82.1558848776
  0
LINE
  5
313
100
AcDbEntity
  8
0
100
AcDbLine
 62
253
  6
CONTINUOUS
 10
165.6619901158
 20
82.3483951248
 11
165.6620802764
 21
82.3555991117
  0
LINE
  5
314
100
AcDbEntity
  8
0
100
AcDbLine
 62
253
  6
CONTINUOUS
 10
165.6618794759
 20
82.3422309224
 11
165.6619901158
 21
82.3483951248
  0
LINE
  5
315
100
AcDbEntity
  8
0
100
AcDbLine
 62
7
  6
CONTINUOUS
 10
166.9219938929
 20
129.7143551622
 11
166.9351613498
 21
130.149886902
  0
LWPOLYLINE
  5
316
100
AcDbEntity
  8
0
100
AcDbPolyline
 62
253
  6
CONTINUOUS
 90
5
 70
0
 10
165.8613134863
 20
82.1310554857
 10
165.8613576512
 20
82.1315920031
 10
165.8614023269
 20
82.1327935826
 10
165.8614475134
 20
82.1346993633
 10
165.8615399357
 20
82.1407872068
  0
LWPOLYLINE
  5
317
100
AcDbEntity
  8
0
100
AcDbPolyline
 62
253
  6
CONTINUOUS
 90
13
 70
0
 10
165.6617650922
 20
82.7906691343
 10
165.6636834465
 20
82.8131529081
 10
165.6689530182
 20
82.8352562346
 10
165.677484641
 20
82.8566051042
 10
165.6891339517
 20
82.8768382733
 10
165.7037038326
 20
82.8956133773
 10
165.7209477473
 20
82.9126127232
 10
165.7405739121
 20
82.9275486656
 10
165.7622502334
 20
82.940168474
 10
165.7856099267
 20
82.9502586096
 10
165.8102577237
 20
82.9576483377
 10
165.8357765596
 20
82.9622126169
 10
165.8617346313
 20
82.963874215
  0
LINE
  5
318
100
AcDbEntity
  8
0
100
AcDbLine
 62
253
  6
CONTINUOUS
 10
186.5826742996
 20
131.0523553771
 11
186.6220243539
 21
131.0917054314
  0
LINE
  5
319
100
AcDbEntity
  8
0
100
AcDbLine
 62
253
  6
CONTINUOUS
 10
186.7826438386
 20
130.8523858381
 11
186.8219938929
 21
130.8917358924
  0
LINE
  5
31A
100
AcDbEntity
  8
0
100
AcDbLine
 62
253
  6
CONTINUOUS
 10
186.5826742996
 20
82.1310554857
 11
186.6220243539
 21
82.0917054314
  0
LINE
  5
31B
100
AcDbEntity
  8
0
100
AcDbLine
 62
253
  6
CONTINUOUS
 10
186.7826438386
 20
82.3310250247
 11
186.8219938929
 21
82.2916749704
  0
LINE
  5
31C
100
AcDbEntity
  8
0
100
AcDbLine
 62
7
  6
CONTINUOUS
 10
167.7219938929
 20
129.7143551622
 11
167.708826436
 21
130.149886902
  0
LINE
  5
31D
100
AcDbEntity
  8
0
100
AcDbLine
 62
253
  6
CONTINUOUS
 10
168.7976057208
 20
129.7117294135
 11
168.7822531546
 21
130.2195366477
  0
LINE
  5
31E
100
AcDbEntity
  8
0
100
AcDbLine
 62
253
  6
CONTINUOUS
 10
168.9822491595
 20
82.3368755981
 11
168.9821625049
 21
82.3399008039
  0
LINE
  5
31F
100
AcDbEntity
  8
0
100
AcDbLine
 62
253
  6
CONTINUOUS
 10
169.0000989035
 20
129.8014615102
 11
168.9821607978
 21
130.3949805288
  0
LINE
  5
320
100
AcDbEntity
  8
0
100
AcDbLine
 62
253
  6
CONTINUOUS
 10
168.9821625049
 20
82.3399008039
 11
168.9820813718
 21
82.343543746
  0
LINE
  5
321
100
AcDbEntity
  8
0
100
AcDbLine
 62
253
  6
CONTINUOUS
 10
168.9821607978
 20
130.3949805288
 11
168.9820692979
 21
130.3991851977
  0
LINE
  5
322
100
AcDbEntity
  8
0
100
AcDbLine
 62
253
  6
CONTINUOUS
 10
168.9820692979
 20
130.3991851977
 11
168.9819831385
 21
130.4044121776
  0
LINE
  5
323
100
AcDbEntity
  8
0
100
AcDbLine
 62
253
  6
CONTINUOUS
 10
168.9820813718
 20
82.343543746
 11
168.9819735864
 21
82.3500732525
  0
LINE
  5
324
100
AcDbEntity
  8
0
100
AcDbLine
 62
253
  6
CONTINUOUS
 10
168.7825482924
 20
82.1343127165
 11
168.7824594023
 21
82.1398598061
  0
LINE
  5
325
100
AcDbEntity
  8
0
100
AcDbLine
 62
253
  6
CONTINUOUS
 10
168.9819735864
 20
82.3500732525
 11
168.9818873841
 21
82.3576654883
  0
LINE
  5
326
100
AcDbEntity
  8
0
100
AcDbLine
 62
253
  6
CONTINUOUS
 10
168.9819831385
 20
130.4044121776
 11
168.9818857189
 21
130.4128690328
  0
LINE
  5
327
100
AcDbEntity
  8
0
100
AcDbLine
 62
253
  6
CONTINUOUS
 10
168.7824594023
 20
82.1398598061
 11
168.7823241091
 21
82.1539813487
  0
LINE
  5
328
100
AcDbEntity
  8
0
100
AcDbLine
 62
253
  6
CONTINUOUS
 10
168.9818873841
 20
82.3576654883
 11
168.9818119574
 21
82.3689932498
  0
LINE
  5
329
100
AcDbEntity
  8
0
100
AcDbLine
 62
253
  6
CONTINUOUS
 10
168.9818857189
 20
130.4128690328
 11
168.9818066729
 21
130.4253130889
  0
LINE
  5
32A
100
AcDbEntity
  8
0
100
AcDbLine
 62
253
  6
CONTINUOUS
 10
168.7823241091
 20
82.1539813487
 11
168.7820041037
 21
82.2263079384
  0
LINE
  5
32B
100
AcDbEntity
  8
0
100
AcDbLine
 62
253
  6
CONTINUOUS
 10
168.7822531546
 20
130.2195366477
 11
168.7818961958
 21
130.3319111232
  0
LINE
  5
32C
100
AcDbEntity
  8
0
100
AcDbLine
 62
253
  6
CONTINUOUS
 10
168.7501369798
 20
83.4690557006
 11
168.7501369798
 21
84.2703171003
  0
LINE
  5
32D
100
AcDbEntity
  8
0
100
AcDbLine
 62
253
  6
CONTINUOUS
 10
168.7501369798
 20
128.9130937625
 11
168.7501369798
 21
129.7143551622
  0
LINE
  5
32E
100
AcDbEntity
  8
0
100
AcDbLine
 62
253
  6
CONTINUOUS
 10
168.7820041037
 20
82.2263079384
 11
168.781816778
 21
82.3810174095
  0
LINE
  5
32F
100
AcDbEntity
  8
0
100
AcDbLine
 62
253
  6
CONTINUOUS
 10
169.0000989035
 20
129.8014615102
 11
169.0000989035
 21
128.9259670468
  0
LINE
  5
330
100
AcDbEntity
  8
0
100
AcDbLine
 62
253
  6
CONTINUOUS
 10
169.0000989035
 20
84.257443816
 11
169.0000989035
 21
83.3819493526
  0
LINE
  5
331
100
AcDbEntity
  8
0
100
AcDbLine
 62
7
  6
CONTINUOUS
 10
169.0219938929
 20
82.2916749704
 11
169.0219938929
 21
84.1917054314
  0
LINE
  5
332
100
AcDbEntity
  8
0
100
AcDbLine
 62
7
  6
CONTINUOUS
 10
169.0219938929
 20
128.9917054314
 11
169.0219938929
 21
130.8917358924
  0
LINE
  5
333
100
AcDbEntity
  8
0
100
AcDbLine
 62
253
  6
CONTINUOUS
 10
168.7818961958
 20
130.3319111232
 11
168.7818174531
 21
130.814116867
  0
LINE
  5
334
100
AcDbEntity
  8
0
100
AcDbLine
 62
253
  6
CONTINUOUS
 10
168.781816778
 20
82.3810174095
 11
168.7818196802
 21
82.7682821896
  0
LINE
  5
335
100
AcDbEntity
  8
0
100
AcDbLine
 62
253
  6
CONTINUOUS
 10
168.9818066729
 20
130.4253130889
 11
168.9817869874
 21
130.8047506792
  0
LINE
  5
336
100
AcDbEntity
  8
0
100
AcDbLine
 62
253
  6
CONTINUOUS
 10
168.9818119574
 20
82.3689932498
 11
168.9817868538
 21
82.7494405247
  0
LINE
  5
337
100
AcDbEntity
  8
0
100
AcDbLine
 62
253
  6
CONTINUOUS
 10
168.7818174531
 20
130.814116867
 11
168.7820254291
 21
130.9646071999
  0
LINE
  5
338
100
AcDbEntity
  8
0
100
AcDbLine
 62
253
  6
CONTINUOUS
 10
168.7818196802
 20
82.7682821896
 11
168.7820353937
 21
82.9128830737
  0
LINE
  5
339
100
AcDbEntity
  8
0
100
AcDbLine
 62
253
  6
CONTINUOUS
 10
168.9817869874
 20
130.8047506792
 11
168.9818261439
 21
130.8173250012
  0
LINE
  5
33A
100
AcDbEntity
  8
0
100
AcDbLine
 62
253
  6
CONTINUOUS
 10
168.9817868538
 20
82.7494405247
 11
168.9818288519
 21
82.7627754529
  0
LINE
  5
33B
100
AcDbEntity
  8
0
100
AcDbLine
 62
253
  6
CONTINUOUS
 10
168.7820353937
 20
82.9128830737
 11
168.7822531487
 21
82.9638731821
  0
LINE
  5
33C
100
AcDbEntity
  8
0
100
AcDbLine
 62
253
  6
CONTINUOUS
 10
168.7820254291
 20
130.9646071999
 11
168.7823156864
 21
131.0282984549
  0
LINE
  5
33D
100
AcDbEntity
  8
0
100
AcDbLine
 62
253
  6
CONTINUOUS
 10
168.9818261439
 20
130.8173250012
 11
168.9819057557
 21
130.8276316393
  0
LINE
  5
33E
100
AcDbEntity
  8
0
100
AcDbLine
 62
253
  6
CONTINUOUS
 10
168.9818288519
 20
82.7627754529
 11
168.981922084
 21
82.774150312
  0
LWPOLYLINE
  5
33F
100
AcDbEntity
  8
0
100
AcDbPolyline
 62
253
  6
CONTINUOUS
 90
6
 70
0
 10
168.7823156864
 20
131.0282984549
 10
168.7824647613
 20
131.0439662204
 10
168.782516326
 20
131.0474297084
 10
168.7825683402
 20
131.0499868132
 10
168.782620998
 20
131.0516304138
 10
168.7826742996
 20
131.0523553771
  0
LINE
  5
340
100
AcDbEntity
  8
0
100
AcDbLine
 62
253
  6
CONTINUOUS
 10
168.9819057557
 20
130.8276316393
 11
168.9819949838
 21
130.8348308192
  0
LINE
  5
341
100
AcDbEntity
  8
0
100
AcDbLine
 62
253
  6
CONTINUOUS
 10
168.981922084
 20
82.774150312
 11
168.9820049719
 21
82.780469916
  0
LINE
  5
342
100
AcDbEntity
  8
0
100
AcDbLine
 62
253
  6
CONTINUOUS
 10
168.9819949838
 20
130.8348308192
 11
168.9821070587
 21
130.8411188514
  0
LINE
  5
343
100
AcDbEntity
  8
0
100
AcDbLine
 62
253
  6
CONTINUOUS
 10
168.9820049719
 20
82.780469916
 11
168.9821062315
 21
82.7860572513
  0
LINE
  5
344
100
AcDbEntity
  8
0
100
AcDbLine
 62
253
  6
CONTINUOUS
 10
168.9821062315
 20
82.7860572513
 11
168.9821821837
 21
82.7892402235
  0
LWPOLYLINE
  5
345
100
AcDbEntity
  8
0
100
AcDbPolyline
 62
253
  6
CONTINUOUS
 90
11
 70
0
 10
168.9821070587
 20
130.8411188514
 10
168.9821925979
 20
130.8446522251
 10
168.9822380571
 20
130.8461891043
 10
168.9822852938
 20
130.8475745033
 10
168.982333762
 20
130.8487901627
 10
168.9823834837
 20
130.8498335974
 10
168.9824344369
 20
130.8507072926
 10
168.9824860101
 20
130.8514004446
 10
168.9825379996
 20
130.8519094523
 10
168.9825906091
 20
130.8522379167
 10
168.9826438386
 20
130.8523858381
  0
LINE
  5
346
100
AcDbEntity
  8
0
100
AcDbLine
 62
7
  6
CONTINUOUS
 10
167.708826436
 20
83.0335239608
 11
167.7219938929
 21
83.4690557006
  0
LINE
  5
347
100
AcDbEntity
  8
0
100
AcDbLine
 62
253
  6
CONTINUOUS
 10
168.7822531234
 20
82.9638731822
 11
168.7976057208
 21
83.4716814492
  0
LINE
  5
348
100
AcDbEntity
  8
0
100
AcDbLine
 62
253
  6
CONTINUOUS
 10
168.9821821837
 20
82.7892402235
 11
169.0000989035
 21
83.3819493526
  0
LWPOLYLINE
  5
349
100
AcDbEntity
  8
0
100
AcDbPolyline
 62
7
  6
CONTINUOUS
 90
16
 70
0
 10
165.6438888823
 20
83.3819493526
 10
165.6453828002
 20
83.3924453831
 10
165.6490370683
 20
83.402940518
 10
165.6548271581
 20
83.413238433
 10
165.6627105942
 20
83.4230979111
 10
165.6726114012
 20
83.4323747488
 10
165.6844110654
 20
83.4410281489
 10
165.6979951895
 20
83.448911516
 10
165.7132100816
 20
83.4558405039
 10
165.7298221102
 20
83.4617547769
 10
165.7476380551
 20
83.4665727988
 10
165.7664518068
 20
83.470172522
 10
165.7859651198
 20
83.4724981482
 10
165.8059239639
 20
83.4735284404
 10
165.8261348251
 20
83.4732522686
 10
165.846382065
 20
83.4716814492
  0
LINE
  5
34A
100
AcDbEntity
  8
0
100
AcDbLine
 62
7
  6
CONTINUOUS
 10
175.4219938929
 20
128.9917054314
 11
175.4166964469
 21
128.9758001692
  0
LINE
  5
34B
100
AcDbEntity
  8
0
100
AcDbLine
 62
7
  6
CONTINUOUS
 10
175.4166964469
 20
84.2076106936
 11
175.4219938929
 21
84.1917054314
  0
LWPOLYLINE
  5
34C
100
AcDbEntity
  8
0
100
AcDbPolyline
 62
7
  6
CONTINUOUS
 90
13
 70
0
 10
169.0219938929
 20
130.8917358924
 10
169.0202836287
 20
130.9178380192
 10
169.0151814524
 20
130.9434931975
 10
169.0067744712
 20
130.9682627189
 10
168.9952062301
 20
130.9917231758
 10
168.9806744429
 20
131.0134729816
 10
168.9634278652
 20
131.0331394036
 10
168.9437614432
 20
131.0503859814
 10
168.9220116373
 20
131.0649177685
 10
168.8985511804
 20
131.0764860096
 10
168.873781659
 20
131.0848929908
 10
168.8481264808
 20
131.0899951672
 10
168.8220243539
 20
131.0917054314
  0
LWPOLYLINE
  5
34D
100
AcDbEntity
  8
0
100
AcDbPolyline
 62
7
  6
CONTINUOUS
 90
16
 70
0
 10
171.7719938929
 20
82.8416673552
 10
171.7733433052
 20
82.8157244483
 10
171.777399576
 20
82.7899574141
 10
171.7841515786
 20
82.7646518468
 10
171.7935974828
 20
82.7400044433
 10
171.8056433606
 20
82.7163979853
 10
171.8200107493
 20
82.6943508404
 10
171.8363421579
 20
82.67424042
 10
171.8545288815
 20
82.6560536964
 10
171.874639302
 20
82.6397222877
 10
171.8966864469
 20
82.625354899
 10
171.9202929048
 20
82.6133090212
 10
171.9449403084
 20
82.603863117
 10
171.9702458757
 20
82.5971111145
 10
171.9960129098
 20
82.5930548436
 10
172.0219558167
 20
82.5917054314
  0
LWPOLYLINE
  5
34E
100
AcDbEntity
  8
0
100
AcDbPolyline
 62
253
  6
CONTINUOUS
 90
28
 70
0
 10
171.777291339
 20
82.8469648012
 10
171.77761833
 20
82.8342435614
 10
171.7786211123
 20
82.8212754177
 10
171.7803407181
 20
82.8080988737
 10
171.7828225056
 20
82.7947299662
 10
171.7861013854
 20
82.7812441045
 10
171.7901864716
 20
82.7677725112
 10
171.7950970356
 20
82.7543672152
 10
171.8008488401
 20
82.7410840578
 10
171.8074141389
 20
82.728055322
 10
171.8147861988
 20
82.7153379799
 10
171.8229587517
 20
82.7029822667
 10
171.8318754423
 20
82.6910986555
 10
171.8415022541
 20
82.6797432862
 10
171.8518183167
 20
82.6689508235
 10
171.8627676971
 20
82.6587866382
 10
171.8743049588
 20
82.6492942074
 10
171.8863968566
 20
82.6405021134
 10
171.8989976936
 20
82.6324453622
 10
171.9120633523
 20
82.6251534881
 10
171.9255471783
 20
82.6186538069
 10
171.9393961889
 20
82.6129725043
 10
171.9535606921
 20
82.608130066
 10
171.967990007
 20
82.604143915
 10
171.9826272868
 20
82.6010293655
 10
171.9974181792
 20
82.5987969677
 10
172.0123112925
 20
82.5974534795
 10
172.0272532628
 20
82.5970028774
  0
LWPOLYLINE
  5
34F
100
AcDbEntity
  8
0
100
AcDbPolyline
 62
253
  6
CONTINUOUS
 90
28
 70
0
 10
171.977260878
 20
82.8469648012
 10
171.9773125822
 20
82.8444055287
 10
171.9775153291
 20
82.8418138645
 10
171.9778691187
 20
82.8391898085
 10
171.9783696102
 20
82.8365180304
 10
171.9790211445
 20
82.8338138606
 10
171.9798367436
 20
82.8311232902
 10
171.9808218408
 20
82.828445721
 10
171.9819710028
 20
82.8257817511
 10
171.9832809525
 20
82.823179167
 10
171.9847565313
 20
82.8206399471
 10
171.9863928977
 20
82.818162113
 10
171.9881722499
 20
82.8157875146
 10
171.9900967481
 20
82.8135202722
 10
171.992164232
 20
82.8113562657
 10
171.9943504188
 20
82.8093249846
 10
171.9966558805
 20
82.8074296043
 10
171.9990800451
 20
82.8056669496
 10
172.0015969138
 20
82.8040569844
 10
172.0042077155
 20
82.8026014609
 10
172.0069112212
 20
82.801298627
 10
172.0096777449
 20
82.80016319
 10
172.0125080443
 20
82.7991971971
 10
172.0154013618
 20
82.7983986013
 10
172.0183257383
 20
82.7977759686
 10
172.0212705208
 20
82.7973321547
 10
172.0242463623
 20
82.797064304
 10
172.0272532628
 20
82.7969724165
  0
LINE
  5
350
100
AcDbEntity
  8
0
100
AcDbLine
 62
7
  6
CONTINUOUS
 10
171.7719938929
 20
82.8416673552
 11
171.7719938929
 21
84.1917054314
  0
LINE
  5
351
100
AcDbEntity
  8
0
100
AcDbLine
 62
7
  6
CONTINUOUS
 10
171.7719938929
 20
128.9917054314
 11
171.7719938929
 21
130.3417435076
  0
LINE
  5
352
100
AcDbEntity
  8
0
100
AcDbLine
 62
253
  6
CONTINUOUS
 10
171.777291339
 20
130.3364460615
 11
171.777291339
 21
128.9758001692
  0
LINE
  5
353
100
AcDbEntity
  8
0
100
AcDbLine
 62
253
  6
CONTINUOUS
 10
171.777291339
 20
84.2076106936
 11
171.777291339
 21
82.8469648012
  0
LINE
  5
354
100
AcDbEntity
  8
0
100
AcDbLine
 62
253
  6
CONTINUOUS
 10
171.977260878
 20
130.3364460615
 11
171.977260878
 21
128.9655015418
  0
LINE
  5
355
100
AcDbEntity
  8
0
100
AcDbLine
 62
253
  6
CONTINUOUS
 10
171.977260878
 20
84.217909321
 11
171.977260878
 21
82.8469648012
  0
LINE
  5
356
100
AcDbEntity
  8
0
100
AcDbLine
 62
253
  6
CONTINUOUS
 10
172.0272532628
 20
82.7969724165
 11
172.0272532628
 21
82.5970028774
  0
LINE
  5
357
100
AcDbEntity
  8
0
100
AcDbLine
 62
253
  6
CONTINUOUS
 10
172.0272532628
 20
130.3864384463
 11
172.0272532628
 21
130.5864079853
  0
LWPOLYLINE
  5
358
100
AcDbEntity
  8
0
100
AcDbPolyline
 62
7
  6
CONTINUOUS
 90
16
 70
0
 10
171.7719938929
 20
130.3417435076
 10
171.7733433052
 20
130.3676864145
 10
171.777399576
 20
130.3934534486
 10
171.7841515786
 20
130.418759016
 10
171.7935974828
 20
130.4434064195
 10
171.8056433606
 20
130.4670128775
 10
171.8200107493
 20
130.4890600223
 10
171.8363421579
 20
130.5091704428
 10
171.8545288815
 20
130.5273571664
 10
171.874639302
 20
130.543688575
 10
171.8966864469
 20
130.5580559638
 10
171.9202929048
 20
130.5701018416
 10
171.9449403084
 20
130.5795477458
 10
171.9702458757
 20
130.5862997483
 10
171.9960129098
 20
130.5903560192
 10
172.0219558167
 20
130.5917054314
  0
LWPOLYLINE
  5
359
100
AcDbEntity
  8
0
100
AcDbPolyline
 62
7
  6
CONTINUOUS
 90
13
 70
0
 10
169.0219938929
 20
82.2916749704
 10
169.0202836287
 20
82.2655728436
 10
169.0151814524
 20
82.2399176653
 10
169.0067744712
 20
82.2151481439
 10
168.9952062301
 20
82.191687687
 10
168.9806744429
 20
82.1699378812
 10
168.9634278652
 20
82.1502714592
 10
168.9437614432
 20
82.1330248814
 10
168.9220116373
 20
82.1184930943
 10
168.8985511804
 20
82.1069248532
 10
168.873781659
 20
82.0985178719
 10
168.8481264808
 20
82.0934156956
 10
168.8220243539
 20
82.0917054314
  0
LWPOLYLINE
  5
35A
100
AcDbEntity
  8
0
100
AcDbPolyline
 62
253
  6
CONTINUOUS
 90
13
 70
0
 10
165.3093278941
 20
85.0666307559
 10
165.3106209337
 20
85.0709783541
 10
165.3118923031
 20
85.0786662808
 10
165.3131420022
 20
85.0896945361
 10
165.3143766099
 20
85.1041520124
 10
165.3155895474
 20
85.1219498172
 10
165.3167610782
 20
85.1428212728
 10
165.3178899699
 20
85.16680989
 10
165.3189774551
 20
85.1938721581
 10
165.3200074947
 20
85.2236108669
 10
165.3209792591
 20
85.2560678391
 10
165.321893578
 20
85.291201252
 10
165.3235081402
 20
85.367962528
  0
LWPOLYLINE
  5
35B
100
AcDbEntity
  8
0
100
AcDbPolyline
 62
7
  6
CONTINUOUS
 90
7
 70
0
 10
186.8000989035
 20
128.9258580086
 10
186.7995721869
 20
128.925216873
 10
186.7984272921
 20
128.9245830568
 10
186.7966667468
 20
128.9239565602
 10
186.7942946076
 20
128.9233373831
 10
186.7913164515
 20
128.9227255256
 10
186.7877393645
 20
128.9221209875
  0
LINE
  5
35C
100
AcDbEntity
  8
0
100
AcDbLine
 62
7
  6
CONTINUOUS
 10
165.253037757
 20
108.6373800752
 11
165.1729421838
 21
108.6106869731
  0
LINE
  5
35D
100
AcDbEntity
  8
0
100
AcDbLine
 62
7
  6
CONTINUOUS
 10
165.253037757
 20
104.5460307876
 11
165.1729421838
 21
104.5727238897
  0
LINE
  5
35E
100
AcDbEntity
  8
0
100
AcDbLine
 62
7
  6
CONTINUOUS
 10
180.6719938929
 20
128.9917054314
 11
180.6666964469
 21
128.9758001692
  0
LINE
  5
35F
100
AcDbEntity
  8
0
100
AcDbLine
 62
7
  6
CONTINUOUS
 10
187.3010451557
 20
126.4917054314
 11
187.3219938929
 21
126.519642047
  0
LINE
  5
360
100
AcDbEntity
  8
0
100
AcDbLine
 62
7
  6
CONTINUOUS
 10
165.2660164616
 20
104.5460307876
 11
165.253037757
 21
104.5460307876
  0
LINE
  5
361
100
AcDbEntity
  8
0
100
AcDbLine
 62
7
  6
CONTINUOUS
 10
165.2660164616
 20
104.5727238897
 11
165.1729421838
 21
104.5727238897
  0
LINE
  5
362
100
AcDbEntity
  8
0
100
AcDbLine
 62
7
  6
CONTINUOUS
 10
187.3010451557
 20
86.6917054314
 11
187.3219938929
 21
86.6637688158
  0
LWPOLYLINE
  5
363
100
AcDbEntity
  8
0
100
AcDbPolyline
 62
7
  6
CONTINUOUS
 90
16
 70
0
 10
177.0219938929
 20
82.8416673552
 10
177.0233433052
 20
82.8157244483
 10
177.027399576
 20
82.7899574141
 10
177.0341515786
 20
82.7646518468
 10
177.0435974828
 20
82.7400044433
 10
177.0556433606
 20
82.7163979853
 10
177.0700107493
 20
82.6943508404
 10
177.0863421579
 20
82.67424042
 10
177.1045288815
 20
82.6560536964
 10
177.124639302
 20
82.6397222877
 10
177.1466864469
 20
82.625354899
 10
177.1702929048
 20
82.6133090212
 10
177.1949403084
 20
82.603863117
 10
177.2202458757
 20
82.5971111145
 10
177.2460129098
 20
82.5930548436
 10
177.2719558167
 20
82.5917054314
  0
LWPOLYLINE
  5
364
100
AcDbEntity
  8
0
100
AcDbPolyline
 62
253
  6
CONTINUOUS
 90
28
 70
0
 10
175.4166964469
 20
130.3364460615
 10
175.4163694558
 20
130.3491673014
 10
175.4153666736
 20
130.3621354451
 10
175.4136470678
 20
130.3753119891
 10
175.4111652802
 20
130.3886808966
 10
175.4078864005
 20
130.4021667583
 10
175.4038013143
 20
130.4156383516
 10
175.3988907503
 20
130.4290436476
 10
175.3931389457
 20
130.4423268049
 10
175.3865736469
 20
130.4553555408
 10
175.3792015871
 20
130.4680728829
 10
175.3710290341
 20
130.4804285961
 10
175.3621123436
 20
130.4923122073
 10
175.3524855318
 20
130.5036675766
 10
175.3421694692
 20
130.5144600393
 10
175.3312200888
 20
130.5246242246
 10
175.319682827
 20
130.5341166554
 10
175.3075909293
 20
130.5429087494
 10
175.2949900923
 20
130.5509655006
 10
175.2819244336
 20
130.5582573747
 10
175.2684406075
 20
130.5647570559
 10
175.254591597
 20
130.5704383585
 10
175.2404270937
 20
130.5752807968
 10
175.2259977789
 20
130.5792669478
 10
175.2113604991
 20
130.5823814972
 10
175.1965696067
 20
130.5846138951
 10
175.1816764933
 20
130.5859573833
 10
175.1667345231
 20
130.5864079853
  0
LWPOLYLINE
  5
365
100
AcDbEntity
  8
0
100
AcDbPolyline
 62
253
  6
CONTINUOUS
 90
28
 70
0
 10
175.2167269078
 20
130.3364460615
 10
175.2166752036
 20
130.3390053341
 10
175.2164724568
 20
130.3415969983
 10
175.2161186672
 20
130.3442210543
 10
175.2156181756
 20
130.3468928324
 10
175.2149666414
 20
130.3495970022
 10
175.2141510423
 20
130.3522875726
 10
175.2131659451
 20
130.3549651418
 10
175.212016783
 20
130.3576291117
 10
175.2107068334
 20
130.3602316958
 10
175.2092312545
 20
130.3627709157
 10
175.2075948881
 20
130.3652487498
 10
175.205815536
 20
130.3676233482
 10
175.2038910378
 20
130.3698905906
 10
175.2018235539
 20
130.3720545971
 10
175.1996373671
 20
130.3740858782
 10
175.1973319054
 20
130.3759812584
 10
175.1949077407
 20
130.3777439132
 10
175.1923908721
 20
130.3793538784
 10
175.1897800704
 20
130.3808094019
 10
175.1870765647
 20
130.3821122358
 10
175.184310041
 20
130.3832476728
 10
175.1814797415
 20
130.3842136657
 10
175.178586424
 20
130.3850122615
 10
175.1756620476
 20
130.3856348941
 10
175.1727172651
 20
130.3860787081
 10
175.1697414236
 20
130.3863465588
 10
175.1667345231
 20
130.3864384463
  0
LINE
  5
366
100
AcDbEntity
  8
0
100
AcDbLine
 62
253
  6
CONTINUOUS
 10
175.1667345231
 20
82.7969724165
 11
175.1667345231
 21
82.5970028774
  0
LINE
  5
367
100
AcDbEntity
  8
0
100
AcDbLine
 62
253
  6
CONTINUOUS
 10
175.1667345231
 20
130.3864384463
 11
175.1667345231
 21
130.5864079853
  0
LINE
  5
368
100
AcDbEntity
  8
0
100
AcDbLine
 62
253
  6
CONTINUOUS
 10
175.2167269078
 20
82.8469648012
 11
175.2167269078
 21
84.217909321
  0
LINE
  5
369
100
AcDbEntity
  8
0
100
AcDbLine
 62
253
  6
CONTINUOUS
 10
175.2167269078
 20
128.9655015418
 11
175.2167269078
 21
130.3364460615
  0
LINE
  5
36A
100
AcDbEntity
  8
0
100
AcDbLine
 62
253
  6
CONTINUOUS
 10
175.4166964469
 20
82.8469648012
 11
175.4166964469
 21
84.2076106936
  0
LINE
  5
36B
100
AcDbEntity
  8
0
100
AcDbLine
 62
253
  6
CONTINUOUS
 10
175.4166964469
 20
128.9758001692
 11
175.4166964469
 21
130.3364460615
  0
LINE
  5
36C
100
AcDbEntity
  8
0
100
AcDbLine
 62
7
  6
CONTINUOUS
 10
175.4219938929
 20
130.3417435076
 11
175.4219938929
 21
128.9917054314
  0
LINE
  5
36D
100
AcDbEntity
  8
0
100
AcDbLine
 62
7
  6
CONTINUOUS
 10
175.4219938929
 20
84.1917054314
 11
175.4219938929
 21
82.8416673552
  0
LWPOLYLINE
  5
36E
100
AcDbEntity
  8
0
100
AcDbPolyline
 62
7
  6
CONTINUOUS
 90
16
 70
0
 10
177.0219938929
 20
130.3417435076
 10
177.0233433052
 20
130.3676864145
 10
177.027399576
 20
130.3934534486
 10
177.0341515786
 20
130.418759016
 10
177.0435974828
 20
130.4434064195
 10
177.0556433606
 20
130.4670128775
 10
177.0700107493
 20
130.4890600223
 10
177.0863421579
 20
130.5091704428
 10
177.1045288815
 20
130.5273571664
 10
177.124639302
 20
130.543688575
 10
177.1466864469
 20
130.5580559638
 10
177.1702929048
 20
130.5701018416
 10
177.1949403084
 20
130.5795477458
 10
177.2202458757
 20
130.5862997483
 10
177.2460129098
 20
130.5903560192
 10
177.2719558167
 20
130.5917054314
  0
LINE
  5
36F
100
AcDbEntity
  8
0
100
AcDbLine
 62
7
  6
CONTINUOUS
 10
166.9219938929
 20
84.2703171003
 11
166.9351613498
 21
84.3098515952
  0
LINE
  5
370
100
AcDbEntity
  8
0
100
AcDbLine
 62
253
  6
CONTINUOUS
 10
186.6348312298
 20
128.6160948752
 11
186.7877393645
 21
128.9221209875
  0
LINE
  5
371
100
AcDbEntity
  8
0
100
AcDbLine
 62
253
  6
CONTINUOUS
 10
165.1219938929
 20
84.6917056665
 11
165.3093278941
 21
85.0666307559
  0
LINE
  5
372
100
AcDbEntity
  8
0
100
AcDbLine
 62
253
  6
CONTINUOUS
 10
187.3219938929
 20
128.4917051963
 11
187.1346598918
 21
128.1167801069
  0
LINE
  5
373
100
AcDbEntity
  8
0
100
AcDbLine
 62
253
  6
CONTINUOUS
 10
165.2660164616
 20
105.0727048512
 11
165.1599634792
 21
105.0727048512
  0
LWPOLYLINE
  5
374
100
AcDbEntity
  8
0
100
AcDbPolyline
 62
7
  6
CONTINUOUS
 90
2
 70
0
 43
0.3500000006
 10
199.5579689941
 20
105.2345600281
 10
198.0579776001
 20
105.2345600281
  0
LINE
  5
375
100
AcDbEntity
  8
0
100
AcDbLine
 62
253
  6
CONTINUOUS
 10
186.7877393645
 20
84.2612898753
 11
186.6348312287
 21
84.5673159898
  0
LINE
  5
376
100
AcDbEntity
  8
0
100
AcDbLine
 62
253
  6
CONTINUOUS
 10
165.3093278947
 20
128.1167801057
 11
165.1219938929
 21
128.4917051963
  0
LINE
  5
377
100
AcDbEntity
  8
0
100
AcDbLine
 62
253
  6
CONTINUOUS
 10
187.1346598912
 20
85.0666307571
 11
187.3219938929
 21
84.6917056665
  0
LINE
  5
378
100
AcDbEntity
  8
0
100
AcDbLine
 62
7
  6
CONTINUOUS
 10
166.9219938929
 20
128.9130937625
 11
166.9351613498
 21
128.8735592675
  0
LWPOLYLINE
  5
379
100
AcDbEntity
  8
0
100
AcDbPolyline
 62
7
  6
CONTINUOUS
 90
16
 70
0
 10
175.4219938929
 20
130.3417435076
 10
175.4206444807
 20
130.3676864145
 10
175.4165882098
 20
130.3934534486
 10
175.4098362073
 20
130.418759016
 10
175.4003903031
 20
130.4434064195
 10
175.3883444253
 20
130.4670128775
 10
175.3739770366
 20
130.4890600223
 10
175.3576456279
 20
130.5091704428
 10
175.3394589043
 20
130.5273571664
 10
175.3193484839
 20
130.543688575
 10
175.297301339
 20
130.5580559638
 10
175.2736948811
 20
130.5701018416
 10
175.2490474775
 20
130.5795477458
 10
175.2237419102
 20
130.5862997483
 10
175.1979748761
 20
130.5903560192
 10
175.1720319691
 20
130.5917054314
  0
LINE
  5
37A
100
AcDbEntity
  8
0
100
AcDbLine
 62
7
  6
CONTINUOUS
 10
177.0219938929
 20
130.3417435076
 11
177.0219938929
 21
128.9917054314
  0
LINE
  5
37B
100
AcDbEntity
  8
0
100
AcDbLine
 62
7
  6
CONTINUOUS
 10
177.0219938929
 20
84.1917054314
 11
177.0219938929
 21
82.8416673552
  0
LINE
  5
37C
100
AcDbEntity
  8
0
100
AcDbLine
 62
253
  6
CONTINUOUS
 10
177.027291339
 20
130.3364460615
 11
177.027291339
 21
128.9758001692
  0
LINE
  5
37D
100
AcDbEntity
  8
0
100
AcDbLine
 62
253
  6
CONTINUOUS
 10
177.027291339
 20
82.8469648012
 11
177.027291339
 21
84.2076106936
  0
LINE
  5
37E
100
AcDbEntity
  8
0
100
AcDbLine
 62
253
  6
CONTINUOUS
 10
177.227260878
 20
130.3364460615
 11
177.227260878
 21
128.9655015418
  0
LINE
  5
37F
100
AcDbEntity
  8
0
100
AcDbLine
 62
253
  6
CONTINUOUS
 10
177.227260878
 20
82.8469648012
 11
177.227260878
 21
84.217909321
  0
LINE
  5
380
100
AcDbEntity
  8
0
100
AcDbLine
 62
253
  6
CONTINUOUS
 10
177.2772532628
 20
82.5970028774
 11
177.2772532628
 21
82.7969724165
  0
LINE
  5
381
100
AcDbEntity
  8
0
100
AcDbLine
 62
253
  6
CONTINUOUS
 10
177.2772532628
 20
130.3864384463
 11
177.2772532628
 21
130.5864079853
  0
LWPOLYLINE
  5
382
100
AcDbEntity
  8
0
100
AcDbPolyline
 62
7
  6
CONTINUOUS
 90
16
 70
0
 10
175.4219938929
 20
82.8416673552
 10
175.4206444807
 20
82.8157244483
 10
175.4165882098
 20
82.7899574141
 10
175.4098362073
 20
82.7646518468
 10
175.4003903031
 20
82.7400044433
 10
175.3883444253
 20
82.7163979853
 10
175.3739770366
 20
82.6943508404
 10
175.3576456279
 20
82.67424042
 10
175.3394589043
 20
82.6560536964
 10
175.3193484839
 20
82.6397222877
 10
175.297301339
 20
82.625354899
 10
175.2736948811
 20
82.6133090212
 10
175.2490474775
 20
82.603863117
 10
175.2237419102
 20
82.5971111145
 10
175.1979748761
 20
82.5930548436
 10
175.1720319691
 20
82.5917054314
  0
LINE
  5
383
100
AcDbEntity
  8
0
100
AcDbLine
 62
7
  6
CONTINUOUS
 10
185.5219938929
 20
128.9130937625
 11
185.508826436
 21
128.8735592675
  0
LWPOLYLINE
  5
384
100
AcDbEntity
  8
0
100
AcDbPolyline
 62
253
  6
CONTINUOUS
 90
12
 70
0
 10
165.6613439472
 20
82.3310250247
 10
165.661388101
 20
82.331119876
 10
165.6614327697
 20
82.3313628416
 10
165.6614779531
 20
82.3317539215
 10
165.661523911
 20
82.3322891108
 10
165.6615703838
 20
82.3329724143
 10
165.6616165922
 20
82.3338158468
 10
165.6616625452
 20
82.3348246076
 10
165.6617082339
 20
82.3359934972
 10
165.6617528519
 20
82.3373189319
 10
165.6617963656
 20
82.3388055205
 10
165.6618794759
 20
82.3422309224
  0
LINE
  5
385
100
AcDbEntity
  8
0
100
AcDbLine
 62
253
  6
CONTINUOUS
 10
165.8091565561
 20
84.5673159876
 11
165.6562484214
 21
84.2612898753
  0
LINE
  5
386
100
AcDbEntity
  8
0
100
AcDbLine
 62
253
  6
CONTINUOUS
 10
165.1599634792
 20
108.1107060115
 11
165.2660164616
 21
108.1107060115
  0
LINE
  5
387
100
AcDbEntity
  8
0
100
AcDbLine
 62
7
  6
CONTINUOUS
 10
165.1729421838
 20
108.6106869731
 11
165.2660164616
 21
108.6106869731
  0
LINE
  5
388
100
AcDbEntity
  8
0
100
AcDbLine
 62
7
  6
CONTINUOUS
 10
165.253037757
 20
108.6373800752
 11
165.2660164616
 21
108.6373800752
  0
LWPOLYLINE
  5
389
100
AcDbEntity
  8
0
100
AcDbPolyline
 62
253
  6
CONTINUOUS
 90
10
 70
0
 10
165.6613439472
 20
130.8523858381
 10
165.661385722
 20
130.8523031114
 10
165.6614282945
 20
130.8520805492
 10
165.6614716646
 20
130.8517181514
 10
165.661516091
 20
130.8512220133
 10
165.661561315
 20
130.8505860397
 10
165.6616065606
 20
130.8497919444
 10
165.6616518491
 20
130.8488346273
 10
165.6616971592
 20
130.8477191886
 10
165.6617416514
 20
130.8464426428
  0
LINE
  5
38A
100
AcDbEntity
  8
0
100
AcDbLine
 62
253
  6
CONTINUOUS
 10
165.8091565572
 20
128.616094873
 11
165.6562484214
 21
128.9221209875
  0
LINE
  5
38B
100
AcDbEntity
  8
0
100
AcDbLine
 62
7
  6
CONTINUOUS
 10
185.5219938929
 20
84.2703171003
 11
185.508826436
 21
84.3098515952
  0
LINE
  5
38C
100
AcDbEntity
  8
0
100
AcDbLine
 62
253
  6
CONTINUOUS
 10
180.4167345231
 20
82.5970028774
 11
180.4167345231
 21
82.7969724165
  0
LINE
  5
38D
100
AcDbEntity
  8
0
100
AcDbLine
 62
253
  6
CONTINUOUS
 10
180.4167345231
 20
130.3864384463
 11
180.4167345231
 21
130.5864079853
  0
LINE
  5
38E
100
AcDbEntity
  8
0
100
AcDbLine
 62
253
  6
CONTINUOUS
 10
180.4667269078
 20
84.217909321
 11
180.4667269078
 21
82.8469648012
  0
LINE
  5
38F
100
AcDbEntity
  8
0
100
AcDbLine
 62
253
  6
CONTINUOUS
 10
180.4667269078
 20
128.9655015418
 11
180.4667269078
 21
130.3364460615
  0
LINE
  5
390
100
AcDbEntity
  8
0
100
AcDbLine
 62
253
  6
CONTINUOUS
 10
180.6666964469
 20
84.2076106936
 11
180.6666964469
 21
82.8469648012
  0
LINE
  5
391
100
AcDbEntity
  8
0
100
AcDbLine
 62
253
  6
CONTINUOUS
 10
180.6666964469
 20
128.9758001692
 11
180.6666964469
 21
130.3364460615
  0
LINE
  5
392
100
AcDbEntity
  8
0
100
AcDbLine
 62
7
  6
CONTINUOUS
 10
180.6719938929
 20
82.8416673552
 11
180.6719938929
 21
84.1917054314
  0
LINE
  5
393
100
AcDbEntity
  8
0
100
AcDbLine
 62
7
  6
CONTINUOUS
 10
180.6719938929
 20
128.9917054314
 11
180.6719938929
 21
130.3417435076
  0
LWPOLYLINE
  5
394
100
AcDbEntity
  8
0
100
AcDbPolyline
 62
253
  6
CONTINUOUS
 90
11
 70
0
 10
187.1346598918
 20
128.1167801069
 10
187.1333668522
 20
128.1124325087
 10
187.1320954828
 20
128.104744582
 10
187.1308457837
 20
128.0937163267
 10
187.129611176
 20
128.0792588504
 10
187.1283982385
 20
128.0614610456
 10
187.1272267076
 20
128.04058959
 10
187.1260978159
 20
128.0166009728
 10
187.1250103308
 20
127.9895387047
 10
187.1239802912
 20
127.9597999959
 10
187.1220942079
 20
127.8922096108
  0
LINE
  5
395
100
AcDbEntity
  8
0
100
AcDbLine
 62
7
  6
CONTINUOUS
 10
171.7719938929
 20
84.1917054314
 11
171.777291339
 21
84.2076106936
  0
LINE
  5
396
100
AcDbEntity
  8
0
100
AcDbLine
 62
7
  6
CONTINUOUS
 10
165.1429426302
 20
86.6917054314
 11
165.1219938929
 21
86.6637688158
  0
LINE
  5
397
100
AcDbEntity
  8
0
100
AcDbLine
 62
7
  6
CONTINUOUS
 10
165.1429426302
 20
126.4917054314
 11
165.1219938929
 21
126.519642047
  0
LWPOLYLINE
  5
398
100
AcDbEntity
  8
0
100
AcDbPolyline
 62
7
  6
CONTINUOUS
 90
13
 70
0
 10
183.4219938929
 20
82.2916749704
 10
183.4237041571
 20
82.2655728436
 10
183.4288063335
 20
82.2399176653
 10
183.4372133147
 20
82.2151481439
 10
183.4487815558
 20
82.191687687
 10
183.463313343
 20
82.1699378812
 10
183.4805599207
 20
82.1502714592
 10
183.5002263427
 20
82.1330248814
 10
183.5219761486
 20
82.1184930943
 10
183.5454366054
 20
82.1069248532
 10
183.5702061268
 20
82.0985178719
 10
183.5958613051
 20
82.0934156956
 10
183.621963432
 20
82.0917054314
  0
LWPOLYLINE
  5
399
100
AcDbEntity
  8
0
100
AcDbPolyline
 62
7
  6
CONTINUOUS
 90
16
 70
0
 10
180.6719938929
 20
130.3417435076
 10
180.6706444807
 20
130.3676864145
 10
180.6665882098
 20
130.3934534486
 10
180.6598362073
 20
130.418759016
 10
180.6503903031
 20
130.4434064195
 10
180.6383444253
 20
130.4670128775
 10
180.6239770366
 20
130.4890600223
 10
180.6076456279
 20
130.5091704428
 10
180.5894589043
 20
130.5273571664
 10
180.5693484839
 20
130.543688575
 10
180.547301339
 20
130.5580559638
 10
180.5236948811
 20
130.5701018416
 10
180.4990474775
 20
130.5795477458
 10
180.4737419102
 20
130.5862997483
 10
180.4479748761
 20
130.5903560192
 10
180.4220319691
 20
130.5917054314
  0
LINE
  5
39A
100
AcDbEntity
  8
0
100
AcDbLine
 62
253
  6
CONTINUOUS
 10
183.4438888823
 20
83.3819493526
 11
183.4618277304
 21
82.7884002222
  0
LWPOLYLINE
  5
39B
100
AcDbEntity
  8
0
100
AcDbPolyline
 62
253
  6
CONTINUOUS
 90
28
 70
0
 10
180.6666964469
 20
130.3364460615
 10
180.6663694558
 20
130.3491673014
 10
180.6653666736
 20
130.3621354451
 10
180.6636470678
 20
130.3753119891
 10
180.6611652802
 20
130.3886808966
 10
180.6578864005
 20
130.4021667583
 10
180.6538013143
 20
130.4156383516
 10
180.6488907503
 20
130.4290436476
 10
180.6431389457
 20
130.4423268049
 10
180.6365736469
 20
130.4553555408
 10
180.6292015871
 20
130.4680728829
 10
180.6210290341
 20
130.4804285961
 10
180.6121123436
 20
130.4923122073
 10
180.6024855318
 20
130.5036675766
 10
180.5921694692
 20
130.5144600393
 10
180.5812200888
 20
130.5246242246
 10
180.569682827
 20
130.5341166554
 10
180.5575909293
 20
130.5429087494
 10
180.5449900923
 20
130.5509655006
 10
180.5319244336
 20
130.5582573747
 10
180.5184406075
 20
130.5647570559
 10
180.504591597
 20
130.5704383585
 10
180.4904270937
 20
130.5752807968
 10
180.4759977789
 20
130.5792669478
 10
180.4613604991
 20
130.5823814972
 10
180.4465696067
 20
130.5846138951
 10
180.4316764933
 20
130.5859573833
 10
180.4167345231
 20
130.5864079853
  0
LWPOLYLINE
  5
39C
100
AcDbEntity
  8
0
100
AcDbPolyline
 62
253
  6
CONTINUOUS
 90
28
 70
0
 10
180.4667269078
 20
130.3364460615
 10
180.4666752036
 20
130.3390053341
 10
180.4664724568
 20
130.3415969983
 10
180.4661186672
 20
130.3442210543
 10
180.4656181756
 20
130.3468928324
 10
180.4649666414
 20
130.3495970022
 10
180.4641510423
 20
130.3522875726
 10
180.4631659451
 20
130.3549651418
 10
180.462016783
 20
130.3576291117
 10
180.4607068334
 20
130.3602316958
 10
180.4592312545
 20
130.3627709157
 10
180.4575948881
 20
130.3652487498
 10
180.455815536
 20
130.3676233482
 10
180.4538910378
 20
130.3698905906
 10
180.4518235539
 20
130.3720545971
 10
180.4496373671
 20
130.3740858782
 10
180.4473319054
 20
130.3759812584
 10
180.4449077407
 20
130.3777439132
 10
180.4423908721
 20
130.3793538784
 10
180.4397800704
 20
130.3808094019
 10
180.4370765647
 20
130.3821122358
 10
180.434310041
 20
130.3832476728
 10
180.4314797415
 20
130.3842136657
 10
180.428586424
 20
130.3850122615
 10
180.4256620476
 20
130.3856348941
 10
180.4227172651
 20
130.3860787081
 10
180.4197414236
 20
130.3863465588
 10
180.4167345231
 20
130.3864384463
  0
LWPOLYLINE
  5
39D
100
AcDbEntity
  8
0
100
AcDbPolyline
 62
253
  6
CONTINUOUS
 90
28
 70
0
 10
180.4667269078
 20
82.8469648012
 10
180.4666878297
 20
82.8445817927
 10
180.4665087897
 20
82.8421454635
 10
180.4661897878
 20
82.8396558136
 10
180.4657378922
 20
82.8370976212
 10
180.4651460347
 20
82.8344861081
 10
180.4643930109
 20
82.8318669396
 10
180.4634735265
 20
82.8292385891
 10
180.4623928758
 20
82.8266025832
 10
180.4611457371
 20
82.8240091669
 10
180.4597263394
 20
82.8214588484
 10
180.4581404538
 20
82.8189511196
 10
180.4564000719
 20
82.8165347015
 10
180.4545010837
 20
82.8142129106
 10
180.4524475993
 20
82.8119824303
 10
180.4502639399
 20
82.8098820325
 10
180.4479487445
 20
82.8079159333
 10
180.4455033741
 20
82.8060799166
 10
180.4429562327
 20
82.8044001055
 10
180.4403060116
 20
82.8028791727
 10
180.4375540195
 20
82.8015144456
 10
180.434732587
 20
82.8003240294
 10
180.4318404864
 20
82.7993104725
 10
180.4288789455
 20
82.7984712265
 10
180.4258839773
 20
82.7978167519
 10
180.4228675864
 20
82.7973505354
 10
180.4198177683
 20
82.7970690903
 10
180.4167345231
 20
82.7969724165
  0
LWPOLYLINE
  5
39E
100
AcDbEntity
  8
0
100
AcDbPolyline
 62
253
  6
CONTINUOUS
 90
28
 70
0
 10
180.6666964469
 20
82.8469648012
 10
180.6664126657
 20
82.8351174436
 10
180.6655322435
 20
82.8229277625
 10
180.6640031089
 20
82.8104288323
 10
180.6617678927
 20
82.7976308478
 10
180.6587785438
 20
82.7846071115
 10
180.6550119374
 20
82.7714908247
 10
180.6504345254
 20
82.7583335664
 10
180.6450158379
 20
82.7451921427
 10
180.6387690071
 20
82.732205517
 10
180.6316844789
 20
82.7194319006
 10
180.6237562446
 20
82.7069311733
 10
180.6150354094
 20
82.6948344771
 10
180.6055423681
 20
82.6832023709
 10
180.5952915918
 20
82.6720826373
 10
180.5843523476
 20
82.6615713498
 10
180.5727691783
 20
82.6517215457
 10
180.5605702361
 20
82.6425668752
 10
180.5478156222
 20
82.6341605411
 10
180.534553389
 20
82.6265390822
 10
180.5208283882
 20
82.6197329658
 10
180.5067030097
 20
82.613776598
 10
180.4922291479
 20
82.60869393
 10
180.477461163
 20
82.6045060701
 10
180.462469247
 20
82.6012333874
 10
180.4473151421
 20
82.5988879071
 10
180.4320510735
 20
82.5974762824
 10
180.4167345231
 20
82.5970028774
  0
LINE
  5
39F
100
AcDbEntity
  8
0
100
AcDbLine
 62
253
  6
CONTINUOUS
 10
183.4618437989
 20
130.3956813116
 11
183.4617650922
 21
130.3927417285
  0
LINE
  5
3A0
100
AcDbEntity
  8
0
100
AcDbLine
 62
253
  6
CONTINUOUS
 10
183.4617650922
 20
130.3927417285
 11
183.4438888823
 21
129.8014615102
  0
LWPOLYLINE
  5
3A1
100
AcDbEntity
  8
0
100
AcDbPolyline
 62
7
  6
CONTINUOUS
 90
16
 70
0
 10
180.6719938929
 20
82.8416673552
 10
180.6706444807
 20
82.8157244483
 10
180.6665882098
 20
82.7899574141
 10
180.6598362073
 20
82.7646518468
 10
180.6503903031
 20
82.7400044433
 10
180.6383444253
 20
82.7163979853
 10
180.6239770366
 20
82.6943508404
 10
180.6076456279
 20
82.67424042
 10
180.5894589043
 20
82.6560536964
 10
180.5693484839
 20
82.6397222877
 10
180.547301339
 20
82.625354899
 10
180.5236948811
 20
82.6133090212
 10
180.4990474775
 20
82.603863117
 10
180.4737419102
 20
82.5971111145
 10
180.4479748761
 20
82.5930548436
 10
180.4220319691
 20
82.5917054314
  0
LWPOLYLINE
  5
3A2
100
AcDbEntity
  8
0
100
AcDbPolyline
 62
7
  6
CONTINUOUS
 90
13
 70
0
 10
183.4219938929
 20
130.8917358924
 10
183.4237041571
 20
130.9178380192
 10
183.4288063335
 20
130.9434931975
 10
183.4372133147
 20
130.9682627189
 10
183.4487815558
 20
130.9917231758
 10
183.463313343
 20
131.0134729816
 10
183.4805599207
 20
131.0331394036
 10
183.5002263427
 20
131.0503859814
 10
183.5219761486
 20
131.0649177685
 10
183.5454366054
 20
131.0764860096
 10
183.5702061268
 20
131.0848929908
 10
183.5958613051
 20
131.0899951672
 10
183.621963432
 20
131.0917054314
  0
LWPOLYLINE
  5
3A3
100
AcDbEntity
  8
0
100
AcDbPolyline
 62
7
  6
CONTINUOUS
 90
13
 70
0
 10
186.8000989035
 20
129.8014615102
 10
186.7979370621
 20
129.7885755616
 10
186.7924662726
 20
129.7756542898
 10
186.7837182789
 20
129.7630752918
 10
186.7717535184
 20
129.751285083
 10
186.7567390676
 20
129.7405915456
 10
186.7390051319
 20
129.7311240142
 10
186.7188428548
 20
129.7231123388
 10
186.6966133939
 20
129.7168860835
 10
186.6729124673
 20
129.7125762948
 10
186.6482542194
 20
129.7102467922
 10
186.6230092778
 20
129.7099656244
 10
186.5976057208
 20
129.7117294135
  0
LWPOLYLINE
  5
3A4
100
AcDbEntity
  8
0
100
AcDbPolyline
 62
7
  6
CONTINUOUS
 90
7
 70
0
 10
165.6438888823
 20
84.2575528542
 10
165.6444155989
 20
84.2581939898
 10
165.6455604937
 20
84.258827806
 10
165.647321039
 20
84.2594543026
 10
165.6496931783
 20
84.2600734797
 10
165.6526713343
 20
84.2606853372
 10
165.6562484214
 20
84.2612898753
  0
LWPOLYLINE
  5
3A5
100
AcDbEntity
  8
0
100
AcDbPolyline
 62
253
  6
CONTINUOUS
 90
13
 70
0
 10
186.7822226936
 20
82.7906691343
 10
186.7803044654
 20
82.8131521369
 10
186.7750352104
 20
82.8352548592
 10
186.7665040256
 20
82.8566033133
 10
186.7548552119
 20
82.8768362511
 10
186.7402858138
 20
82.8956113144
 10
186.7230422705
 20
82.9126108194
 10
186.7034162698
 20
82.9275470948
 10
186.6817398767
 20
82.9401673266
 10
186.6583798988
 20
82.9502578868
 10
186.6337316193
 20
82.9576479805
 10
186.608212095
 20
82.9622125182
 10
186.5822531545
 20
82.9638742125
  0
LINE
  5
3A6
100
AcDbEntity
  8
0
100
AcDbLine
 62
253
  6
CONTINUOUS
 10
183.646382065
 20
83.4716814492
 11
183.6617346556
 21
82.9638734102
  0
LINE
  5
3A7
100
AcDbEntity
  8
0
100
AcDbLine
 62
7
  6
CONTINUOUS
 10
184.7351613498
 20
83.0335239608
 11
184.7219938929
 21
83.4690557006
  0
LINE
  5
3A8
100
AcDbEntity
  8
0
100
AcDbLine
 62
253
  6
CONTINUOUS
 10
183.4617416514
 20
130.8464426428
 11
183.4618281557
 21
130.8433954305
  0
LINE
  5
3A9
100
AcDbEntity
  8
0
100
AcDbLine
 62
253
  6
CONTINUOUS
 10
183.4618281557
 20
130.8433954305
 11
183.4619089241
 21
130.8397401294
  0
LINE
  5
3AA
100
AcDbEntity
  8
0
100
AcDbLine
 62
253
  6
CONTINUOUS
 10
183.4618277304
 20
82.7884002222
 11
183.4619198644
 21
82.7841530645
  0
LINE
  5
3AB
100
AcDbEntity
  8
0
100
AcDbLine
 62
253
  6
CONTINUOUS
 10
183.4619198644
 20
82.7841530645
 11
183.4620061466
 21
82.7788930462
  0
LINE
  5
3AC
100
AcDbEntity
  8
0
100
AcDbLine
 62
253
  6
CONTINUOUS
 10
183.4619089241
 20
130.8397401294
 11
183.4620159383
 21
130.8332109778
  0
LINE
  5
3AD
100
AcDbEntity
  8
0
100
AcDbLine
 62
253
  6
CONTINUOUS
 10
183.6614412575
 20
131.0490180054
 11
183.6615309057
 21
131.0433590742
  0
LINE
  5
3AE
100
AcDbEntity
  8
0
100
AcDbLine
 62
253
  6
CONTINUOUS
 10
183.4620061466
 20
82.7788930462
 11
183.4621031683
 21
82.770420783
  0
LINE
  5
3AF
100
AcDbEntity
  8
0
100
AcDbLine
 62
253
  6
CONTINUOUS
 10
183.4620159383
 20
130.8332109778
 11
183.4621245421
 21
130.8229155618
  0
LINE
  5
3B0
100
AcDbEntity
  8
0
100
AcDbLine
 62
253
  6
CONTINUOUS
 10
183.6615309057
 20
131.0433590742
 11
183.6616667362
 21
131.0290358553
  0
LINE
  5
3B1
100
AcDbEntity
  8
0
100
AcDbLine
 62
253
  6
CONTINUOUS
 10
183.4621031683
 20
82.770420783
 11
183.4621814135
 21
82.7580185322
  0
LINE
  5
3B2
100
AcDbEntity
  8
0
100
AcDbLine
 62
253
  6
CONTINUOUS
 10
183.4621245421
 20
130.8229155618
 11
183.4621871819
 21
130.8114022589
  0
LINE
  5
3B3
100
AcDbEntity
  8
0
100
AcDbLine
 62
253
  6
CONTINUOUS
 10
183.6616667362
 20
131.0290358553
 11
183.6619854687
 21
130.9564775771
  0
LINE
  5
3B4
100
AcDbEntity
  8
0
100
AcDbLine
 62
253
  6
CONTINUOUS
 10
183.6617346359
 20
82.9638734101
 11
183.6620925449
 21
82.8509260134
  0
LINE
  5
3B5
100
AcDbEntity
  8
0
100
AcDbLine
 62
7
  6
CONTINUOUS
 10
183.4219938929
 20
130.8917358924
 11
183.4219938929
 21
128.9917054314
  0
LINE
  5
3B6
100
AcDbEntity
  8
0
100
AcDbLine
 62
7
  6
CONTINUOUS
 10
183.4219938929
 20
84.1917054314
 11
183.4219938929
 21
82.2916749704
  0
LINE
  5
3B7
100
AcDbEntity
  8
0
100
AcDbLine
 62
253
  6
CONTINUOUS
 10
183.4438888823
 20
83.3819493526
 11
183.4438888823
 21
84.257443816
  0
LINE
  5
3B8
100
AcDbEntity
  8
0
100
AcDbLine
 62
253
  6
CONTINUOUS
 10
183.4438888823
 20
128.9259670468
 11
183.4438888823
 21
129.8014615102
  0
LINE
  5
3B9
100
AcDbEntity
  8
0
100
AcDbLine
 62
253
  6
CONTINUOUS
 10
183.6620925449
 20
82.8509260134
 11
183.6621710079
 21
82.7473678641
  0
LINE
  5
3BA
100
AcDbEntity
  8
0
100
AcDbLine
 62
253
  6
CONTINUOUS
 10
183.6619854687
 20
130.9564775771
 11
183.6621710079
 21
130.8023934533
  0
LINE
  5
3BB
100
AcDbEntity
  8
0
100
AcDbLine
 62
253
  6
CONTINUOUS
 10
183.6938508061
 20
129.7143551622
 11
183.6938508061
 21
128.9130937625
  0
LINE
  5
3BC
100
AcDbEntity
  8
0
100
AcDbLine
 62
253
  6
CONTINUOUS
 10
183.6938508061
 20
84.2703171003
 11
183.6938508061
 21
83.4690557006
  0
LINE
  5
3BD
100
AcDbEntity
  8
0
100
AcDbLine
 62
7
  6
CONTINUOUS
 10
184.7219938929
 20
83.4690557006
 11
184.7219938929
 21
84.2703171003
  0
LINE
  5
3BE
100
AcDbEntity
  8
0
100
AcDbLine
 62
7
  6
CONTINUOUS
 10
184.7219938929
 20
128.9130937625
 11
184.7219938929
 21
129.7143551622
  0
LINE
  5
3BF
100
AcDbEntity
  8
0
100
AcDbLine
 62
253
  6
CONTINUOUS
 10
184.7351613498
 20
130.149886902
 11
184.7351613498
 21
128.8735592675
  0
LINE
  5
3C0
100
AcDbEntity
  8
0
100
AcDbLine
 62
253
  6
CONTINUOUS
 10
184.7351613498
 20
84.3098515952
 11
184.7351613498
 21
83.0335239608
  0
LINE
  5
3C1
100
AcDbEntity
  8
0
100
AcDbLine
 62
253
  6
CONTINUOUS
 10
183.4621871819
 20
130.8114022589
 11
183.4622009024
 21
130.4339427226
  0
LINE
  5
3C2
100
AcDbEntity
  8
0
100
AcDbLine
 62
253
  6
CONTINUOUS
 10
183.4621814135
 20
82.7580185322
 11
183.4622007541
 21
82.3786230487
  0
LINE
  5
3C3
100
AcDbEntity
  8
0
100
AcDbLine
 62
253
  6
CONTINUOUS
 10
183.6621710079
 20
82.7473678641
 11
183.6620225146
 21
82.2415717755
  0
LINE
  5
3C4
100
AcDbEntity
  8
0
100
AcDbLine
 62
253
  6
CONTINUOUS
 10
183.6621710079
 20
130.8023934533
 11
183.6620084747
 21
130.2907645855
  0
LINE
  5
3C5
100
AcDbEntity
  8
0
100
AcDbLine
 62
253
  6
CONTINUOUS
 10
183.4622007541
 20
82.3786230487
 11
183.4621607821
 21
82.3659292648
  0
LINE
  5
3C6
100
AcDbEntity
  8
0
100
AcDbLine
 62
253
  6
CONTINUOUS
 10
183.4622009024
 20
130.4339427226
 11
183.4621582381
 21
130.4205124145
  0
LINE
  5
3C7
100
AcDbEntity
  8
0
100
AcDbLine
 62
253
  6
CONTINUOUS
 10
183.6620084747
 20
130.2907645855
 11
183.6617346313
 21
130.2195366477
  0
LINE
  5
3C8
100
AcDbEntity
  8
0
100
AcDbLine
 62
253
  6
CONTINUOUS
 10
183.6620225146
 20
82.2415717755
 11
183.6617173764
 21
82.1617278563
  0
LINE
  5
3C9
100
AcDbEntity
  8
0
100
AcDbLine
 62
253
  6
CONTINUOUS
 10
183.6617173764
 20
82.1617278563
 11
183.6615725258
 21
82.143676383
  0
LINE
  5
3CA
100
AcDbEntity
  8
0
100
AcDbLine
 62
253
  6
CONTINUOUS
 10
183.4621607821
 20
82.3659292648
 11
183.4620802628
 21
82.3556064474
  0
LINE
  5
3CB
100
AcDbEntity
  8
0
100
AcDbLine
 62
253
  6
CONTINUOUS
 10
183.4621582381
 20
130.4205124145
 11
183.4620644228
 21
130.4091453922
  0
LINE
  5
3CC
100
AcDbEntity
  8
0
100
AcDbLine
 62
253
  6
CONTINUOUS
 10
183.4620802628
 20
82.3556064474
 11
183.4619906292
 21
82.348434019
  0
LINE
  5
3CD
100
AcDbEntity
  8
0
100
AcDbLine
 62
253
  6
CONTINUOUS
 10
183.4620644228
 20
130.4091453922
 11
183.461981539
 21
130.4028584837
  0
LWPOLYLINE
  5
3CE
100
AcDbEntity
  8
0
100
AcDbPolyline
 62
253
  6
CONTINUOUS
 90
5
 70
0
 10
183.6615725258
 20
82.143676383
 10
183.6614705154
 20
82.1359325322
 10
183.661418786
 20
82.1334011026
 10
183.661366443
 20
82.131773887
 10
183.6613134863
 20
82.1310554857
  0
LWPOLYLINE
  5
3CF
100
AcDbEntity
  8
0
100
AcDbPolyline
 62
253
  6
CONTINUOUS
 90
3
 70
0
 10
183.461981539
 20
130.4028584837
 10
183.4618806931
 20
130.3973133539
 10
183.4618437989
 20
130.3956813116
  0
LINE
  5
3D0
100
AcDbEntity
  8
0
100
AcDbLine
 62
253
  6
CONTINUOUS
 10
183.4619906292
 20
82.348434019
 11
183.4618785469
 21
82.3421901746
  0
LWPOLYLINE
  5
3D1
100
AcDbEntity
  8
0
100
AcDbPolyline
 62
253
  6
CONTINUOUS
 90
11
 70
0
 10
183.4618785469
 20
82.3421901746
 10
183.4617931766
 20
82.3386860161
 10
183.4617478438
 20
82.3371624377
 10
183.4617007626
 20
82.3357895841
 10
183.4616524755
 20
82.3345851999
 10
183.4616029623
 20
82.3335517633
 10
183.4615522433
 20
82.332686796
 10
183.461500922
 20
82.3320006075
 10
183.4614491994
 20
82.3314966344
 10
183.4613968745
 20
82.3311714401
 10
183.4613439472
 20
82.3310250247
  0
LINE
  5
3D2
100
AcDbEntity
  8
0
100
AcDbLine
 62
253
  6
CONTINUOUS
 10
183.6617346313
 20
130.2195366477
 11
183.646382065
 21
129.7117294135
  0
LINE
  5
3D3
100
AcDbEntity
  8
0
100
AcDbLine
 62
7
  6
CONTINUOUS
 10
184.7219938929
 20
129.7143551622
 11
184.7351613498
 21
130.149886902
  0
LINE
  5
3D4
100
AcDbEntity
  8
0
100
AcDbLine
 62
7
  6
CONTINUOUS
 10
177.027291339
 20
84.2076106936
 11
177.0219938929
 21
84.1917054314
  0
LINE
  5
3D5
100
AcDbEntity
  8
0
100
AcDbLine
 62
7
  6
CONTINUOUS
 10
177.0219938929
 20
128.9917054314
 11
177.027291339
 21
128.9758001692
  0
LWPOLYLINE
  5
3D6
100
AcDbEntity
  8
0
100
AcDbPolyline
 62
253
  6
CONTINUOUS
 90
4
 70
0
 10
183.6613134963
 20
131.0523553269
 10
183.6613552914
 20
131.0518638399
 10
183.6613978784
 20
131.0507673221
 10
183.6614412575
 20
131.0490180054
  0
LWPOLYLINE
  5
3D7
100
AcDbEntity
  8
0
100
AcDbPolyline
 62
253
  6
CONTINUOUS
 90
10
 70
0
 10
187.1239802905
 20
85.2236108687
 10
187.1250103301
 20
85.1938721599
 10
187.1260978153
 20
85.1668098918
 10
187.127226707
 20
85.1428212745
 10
187.1283982378
 20
85.1219498187
 10
187.1296111753
 20
85.1041520136
 10
187.130845783
 20
85.0896945372
 10
187.1320954822
 20
85.0786662819
 10
187.1333668515
 20
85.0709783552
 10
187.1346598912
 20
85.0666307571
  0
LWPOLYLINE
  5
3D8
100
AcDbEntity
  8
0
100
AcDbPolyline
 62
253
  6
CONTINUOUS
 90
9
 70
0
 10
186.7822398087
 20
82.3371662351
 10
186.7822868891
 20
82.3357930265
 10
186.7823351692
 20
82.3345884221
 10
186.7823846658
 20
82.3335545041
 10
186.7824353619
 20
82.3326891904
 10
186.7824866846
 20
82.332002576
 10
186.7825384428
 20
82.3314980262
 10
186.7825908274
 20
82.3311721757
 10
186.7826438386
 20
82.3310250247
  0
LINE
  5
3D9
100
AcDbEntity
  8
0
100
AcDbLine
 62
7
  6
CONTINUOUS
 10
185.5219938929
 20
129.7143551622
 11
185.508826436
 21
130.149886902
  0
LINE
  5
3DA
100
AcDbEntity
  8
0
100
AcDbLine
 62
253
  6
CONTINUOUS
 10
187.1220942072
 20
85.291201254
 11
187.1239802905
 21
85.2236108687
  0
LINE
  5
3DB
100
AcDbEntity
  8
0
100
AcDbLine
 62
253
  6
CONTINUOUS
 10
186.7821508234
 20
82.3403722167
 11
186.7822398087
 21
82.3371662351
  0
LWPOLYLINE
  5
3DC
100
AcDbEntity
  8
0
100
AcDbPolyline
 62
253
  6
CONTINUOUS
 90
4
 70
0
 10
186.5825172253
 20
82.1359427276
 10
186.582568965
 20
82.1334067903
 10
186.5826213231
 20
82.1317757575
 10
186.5826742996
 20
82.1310554857
  0
LINE
  5
3DD
100
AcDbEntity
  8
0
100
AcDbLine
 62
253
  6
CONTINUOUS
 10
186.7820692249
 20
82.3441653573
 11
186.7821508234
 21
82.3403722167
  0
LINE
  5
3DE
100
AcDbEntity
  8
0
100
AcDbLine
 62
253
  6
CONTINUOUS
 10
187.120479645
 20
85.3679625301
 11
187.1220942072
 21
85.291201254
  0
LINE
  5
3DF
100
AcDbEntity
  8
0
100
AcDbLine
 62
253
  6
CONTINUOUS
 10
186.6422188289
 20
128.4440939506
 11
186.6440929764
 21
128.3468482445
  0
LINE
  5
3E0
100
AcDbEntity
  8
0
100
AcDbLine
 62
253
  6
CONTINUOUS
 10
187.1191604347
 20
85.4527498566
 11
187.120479645
 21
85.3679625301
  0
LINE
  5
3E1
100
AcDbEntity
  8
0
100
AcDbLine
 62
253
  6
CONTINUOUS
 10
186.7819638999
 20
82.3507873608
 11
186.7820692249
 21
82.3441653573
  0
LINE
  5
3E2
100
AcDbEntity
  8
0
100
AcDbLine
 62
253
  6
CONTINUOUS
 10
186.6440929764
 20
128.3468482445
 11
186.6458044428
 21
128.2313067197
  0
LINE
  5
3E3
100
AcDbEntity
  8
0
100
AcDbLine
 62
253
  6
CONTINUOUS
 10
186.5824152139
 20
82.1436908246
 11
186.5825172253
 21
82.1359427276
  0
LINE
  5
3E4
100
AcDbEntity
  8
0
100
AcDbLine
 62
253
  6
CONTINUOUS
 10
186.6458044428
 20
128.2313067197
 11
186.6473289941
 21
128.0997568995
  0
LINE
  5
3E5
100
AcDbEntity
  8
0
100
AcDbLine
 62
253
  6
CONTINUOUS
 10
187.1181687859
 20
85.543748502
 11
187.1191604347
 21
85.4527498566
  0
LINE
  5
3E6
100
AcDbEntity
  8
0
100
AcDbLine
 62
253
  6
CONTINUOUS
 10
186.7819565926
 20
130.4063725215
 11
186.7818656964
 21
130.4152154581
  0
LINE
  5
3E7
100
AcDbEntity
  8
0
100
AcDbLine
 62
253
  6
CONTINUOUS
 10
186.7818609433
 20
82.3607875503
 11
186.7819638999
 21
82.3507873608
  0
LINE
  5
3E8
100
AcDbEntity
  8
0
100
AcDbLine
 62
253
  6
CONTINUOUS
 10
186.6473289941
 20
128.0997568995
 11
186.6486090842
 21
127.9548023459
  0
LINE
  5
3E9
100
AcDbEntity
  8
0
100
AcDbLine
 62
253
  6
CONTINUOUS
 10
186.6486090842
 20
127.9548023459
 11
186.649644524
 21
127.7993216729
  0
LINE
  5
3EA
100
AcDbEntity
  8
0
100
AcDbLine
 62
253
  6
CONTINUOUS
 10
186.5822249946
 20
82.169388642
 11
186.5824152139
 21
82.1436908246
  0
LINE
  5
3EB
100
AcDbEntity
  8
0
100
AcDbLine
 62
253
  6
CONTINUOUS
 10
187.117524234
 20
85.6383750875
 11
187.1181687859
 21
85.543748502
  0
LINE
  5
3EC
100
AcDbEntity
  8
0
100
AcDbLine
 62
253
  6
CONTINUOUS
 10
186.649644524
 20
127.7993216729
 11
186.6504190547
 21
127.6363150623
  0
LINE
  5
3ED
100
AcDbEntity
  8
0
100
AcDbLine
 62
253
  6
CONTINUOUS
 10
186.7818656964
 20
130.4152154581
 11
186.7817978014
 21
130.4279588957
  0
LINE
  5
3EE
100
AcDbEntity
  8
0
100
AcDbLine
 62
253
  6
CONTINUOUS
 10
186.7817955922
 20
82.3737475806
 11
186.7818609433
 21
82.3607875503
  0
LINE
  5
3EF
100
AcDbEntity
  8
0
100
AcDbLine
 62
253
  6
CONTINUOUS
 10
186.6504190547
 20
127.6363150623
 11
186.6508924746
 21
127.4689728465
  0
LINE
  5
3F0
100
AcDbEntity
  8
0
100
AcDbLine
 62
253
  6
CONTINUOUS
 10
187.1172333766
 20
85.7358800746
 11
187.117524234
 21
85.6383750875
  0
LINE
  5
3F1
100
AcDbEntity
  8
0
100
AcDbLine
 62
253
  6
CONTINUOUS
 10
186.5822531546
 20
130.2195366477
 11
186.5818961958
 21
130.3319111232
  0
LINE
  5
3F2
100
AcDbEntity
  8
0
100
AcDbLine
 62
253
  6
CONTINUOUS
 10
186.581844067
 20
82.3190202626
 11
186.5822249946
 21
82.169388642
  0
LINE
  5
3F3
100
AcDbEntity
  8
0
100
AcDbLine
 62
253
  6
CONTINUOUS
 10
184.9851232736
 20
130.4360429987
 11
184.9851232736
 21
128.8606859832
  0
LINE
  5
3F4
100
AcDbEntity
  8
0
100
AcDbLine
 62
253
  6
CONTINUOUS
 10
184.9851232736
 20
84.3227248796
 11
184.9851232736
 21
82.7473678641
  0
LINE
  5
3F5
100
AcDbEntity
  8
0
100
AcDbLine
 62
253
  6
CONTINUOUS
 10
185.2588645122
 20
130.4360429987
 11
185.2588645122
 21
128.8606859832
  0
LINE
  5
3F6
100
AcDbEntity
  8
0
100
AcDbLine
 62
253
  6
CONTINUOUS
 10
185.2588645122
 20
84.3227248796
 11
185.2588645122
 21
82.7473678641
  0
LINE
  5
3F7
100
AcDbEntity
  8
0
100
AcDbLine
 62
253
  6
CONTINUOUS
 10
185.508826436
 20
130.149886902
 11
185.508826436
 21
128.8735592675
  0
LINE
  5
3F8
100
AcDbEntity
  8
0
100
AcDbLine
 62
253
  6
CONTINUOUS
 10
185.508826436
 20
84.3098515952
 11
185.508826436
 21
83.0335239608
  0
LINE
  5
3F9
100
AcDbEntity
  8
0
100
AcDbLine
 62
7
  6
CONTINUOUS
 10
185.5219938929
 20
83.4690557006
 11
185.5219938929
 21
84.2703171003
  0
LINE
  5
3FA
100
AcDbEntity
  8
0
100
AcDbLine
 62
7
  6
CONTINUOUS
 10
185.5219938929
 20
128.9130937625
 11
185.5219938929
 21
129.7143551622
  0
LINE
  5
3FB
100
AcDbEntity
  8
0
100
AcDbLine
 62
253
  6
CONTINUOUS
 10
186.5501369798
 20
129.7143551622
 11
186.5501369798
 21
128.9130937625
  0
LINE
  5
3FC
100
AcDbEntity
  8
0
100
AcDbLine
 62
253
  6
CONTINUOUS
 10
186.5501369798
 20
84.2703171003
 11
186.5501369798
 21
83.4690557006
  0
LINE
  5
3FD
100
AcDbEntity
  8
0
100
AcDbLine
 62
253
  6
CONTINUOUS
 10
186.581816778
 20
82.3810174095
 11
186.581844067
 21
82.3190202626
  0
LINE
  5
3FE
100
AcDbEntity
  8
0
100
AcDbLine
 62
253
  6
CONTINUOUS
 10
186.6508924697
 20
127.4689728475
 11
186.6508924682
 21
85.7144380143
  0
LINE
  5
3FF
100
AcDbEntity
  8
0
100
AcDbLine
 62
253
  6
CONTINUOUS
 10
186.8000989035
 20
129.8014615102
 11
186.8000989035
 21
128.9258580086
  0
LINE
  5
400
100
AcDbEntity
  8
0
100
AcDbLine
 62
253
  6
CONTINUOUS
 10
186.8000989035
 20
84.2575528542
 11
186.8000989035
 21
83.3819493526
  0
LINE
  5
401
100
AcDbEntity
  8
0
100
AcDbLine
 62
7
  6
CONTINUOUS
 10
186.8219938929
 20
82.2916749704
 11
186.8219938929
 21
84.1917056956
  0
LINE
  5
402
100
AcDbEntity
  8
0
100
AcDbLine
 62
7
  6
CONTINUOUS
 10
186.8219939575
 20
128.991705361
 11
186.8219938929
 21
130.8917358924
  0
LINE
  5
403
100
AcDbEntity
  8
0
100
AcDbLine
 62
253
  6
CONTINUOUS
 10
186.5818961958
 20
130.3319111232
 11
186.5818174531
 21
130.814116867
  0
LINE
  5
404
100
AcDbEntity
  8
0
100
AcDbLine
 62
253
  6
CONTINUOUS
 10
186.7817978014
 20
130.4279588957
 11
186.7817869874
 21
130.8047506792
  0
LINE
  5
405
100
AcDbEntity
  8
0
100
AcDbLine
 62
253
  6
CONTINUOUS
 10
186.781792889
 20
82.7532989589
 11
186.7817955922
 21
82.3737475806
  0
LINE
  5
406
100
AcDbEntity
  8
0
100
AcDbLine
 62
253
  6
CONTINUOUS
 10
186.5818174531
 20
130.814116867
 11
186.5820254291
 21
130.9646071999
  0
LINE
  5
407
100
AcDbEntity
  8
0
100
AcDbLine
 62
253
  6
CONTINUOUS
 10
186.6508924747
 20
85.7144380142
 11
186.6504190536
 21
85.5470957921
  0
LINE
  5
408
100
AcDbEntity
  8
0
100
AcDbLine
 62
253
  6
CONTINUOUS
 10
187.1175242346
 20
127.5450357771
 11
187.1172333769
 21
127.4475307904
  0
LINE
  5
409
100
AcDbEntity
  8
0
100
AcDbLine
 62
253
  6
CONTINUOUS
 10
186.7817869874
 20
130.8047506792
 11
186.7818261439
 21
130.8173250012
  0
LINE
  5
40A
100
AcDbEntity
  8
0
100
AcDbLine
 62
253
  6
CONTINUOUS
 10
186.6504190536
 20
85.5470957921
 11
186.6496445225
 21
85.3840891819
  0
LINE
  5
40B
100
AcDbEntity
  8
0
100
AcDbLine
 62
253
  6
CONTINUOUS
 10
186.7818390114
 20
82.7644736485
 11
186.781792889
 21
82.7532989589
  0
LWPOLYLINE
  5
40C
100
AcDbEntity
  8
0
100
AcDbPolyline
 62
253
  6
CONTINUOUS
 90
3
 70
0
 10
186.5822529295
 20
82.9638319364
 10
186.582166577
 20
82.947870791
 10
186.581816778
 20
82.3810174095
  0
LINE
  5
40D
100
AcDbEntity
  8
0
100
AcDbLine
 62
253
  6
CONTINUOUS
 10
186.5820254291
 20
130.9646071999
 11
186.5823156864
 21
131.0282984549
  0
LINE
  5
40E
100
AcDbEntity
  8
0
100
AcDbLine
 62
253
  6
CONTINUOUS
 10
186.6496445225
 20
85.3840891819
 11
186.6486090829
 21
85.2286085135
  0
LINE
  5
40F
100
AcDbEntity
  8
0
100
AcDbLine
 62
253
  6
CONTINUOUS
 10
187.1181687866
 20
127.6396623627
 11
187.1175242346
 21
127.5450357771
  0
LINE
  5
410
100
AcDbEntity
  8
0
100
AcDbLine
 62
253
  6
CONTINUOUS
 10
186.6486090829
 20
85.2286085135
 11
186.647328993
 21
85.0836539617
  0
LINE
  5
411
100
AcDbEntity
  8
0
100
AcDbLine
 62
253
  6
CONTINUOUS
 10
186.7818261439
 20
130.8173250012
 11
186.7819057557
 21
130.8276316393
  0
LWPOLYLINE
  5
412
100
AcDbEntity
  8
0
100
AcDbPolyline
 62
253
  6
CONTINUOUS
 90
6
 70
0
 10
186.5823156864
 20
131.0282984549
 10
186.5824647613
 20
131.0439662204
 10
186.582516326
 20
131.0474297084
 10
186.5825683402
 20
131.0499868132
 10
186.582620998
 20
131.0516304138
 10
186.5826742996
 20
131.0523553771
  0
LINE
  5
413
100
AcDbEntity
  8
0
100
AcDbLine
 62
253
  6
CONTINUOUS
 10
187.1191604354
 20
127.7306610084
 11
187.1181687866
 21
127.6396623627
  0
LINE
  5
414
100
AcDbEntity
  8
0
100
AcDbLine
 62
253
  6
CONTINUOUS
 10
186.647328993
 20
85.0836539617
 11
186.6458044418
 21
84.952104143
  0
LWPOLYLINE
  5
415
100
AcDbEntity
  8
0
100
AcDbPolyline
 62
253
  6
CONTINUOUS
 90
3
 70
0
 10
186.7819906413
 20
82.7795169329
 10
186.7819304765
 20
82.7748671221
 10
186.7818390114
 20
82.7644736485
  0
LINE
  5
416
100
AcDbEntity
  8
0
100
AcDbLine
 62
253
  6
CONTINUOUS
 10
186.7819057557
 20
130.8276316393
 11
186.7819949838
 21
130.8348308192
  0
LINE
  5
417
100
AcDbEntity
  8
0
100
AcDbLine
 62
253
  6
CONTINUOUS
 10
186.6458044418
 20
84.952104143
 11
186.6440929754
 21
84.8365626195
  0
LINE
  5
418
100
AcDbEntity
  8
0
100
AcDbLine
 62
253
  6
CONTINUOUS
 10
187.1204796457
 20
127.8154483348
 11
187.1191604354
 21
127.7306610084
  0
LINE
  5
419
100
AcDbEntity
  8
0
100
AcDbLine
 62
253
  6
CONTINUOUS
 10
186.7819949838
 20
130.8348308192
 11
186.7821070587
 21
130.8411188514
  0
LINE
  5
41A
100
AcDbEntity
  8
0
100
AcDbLine
 62
253
  6
CONTINUOUS
 10
186.6440929754
 20
84.8365626195
 11
186.6422188281
 21
84.7393169141
  0
LINE
  5
41B
100
AcDbEntity
  8
0
100
AcDbLine
 62
253
  6
CONTINUOUS
 10
187.1220942079
 20
127.8922096108
 11
187.1204796457
 21
127.8154483348
  0
LWPOLYLINE
  5
41C
100
AcDbEntity
  8
0
100
AcDbPolyline
 62
253
  6
CONTINUOUS
 90
11
 70
0
 10
186.7821070587
 20
130.8411188514
 10
186.7821925979
 20
130.8446522251
 10
186.7822380571
 20
130.8461891043
 10
186.7822852938
 20
130.8475745033
 10
186.782333762
 20
130.8487901627
 10
186.7823834837
 20
130.8498335974
 10
186.7824344369
 20
130.8507072926
 10
186.7824860101
 20
130.8514004446
 10
186.7825379996
 20
130.8519094523
 10
186.7825906091
 20
130.8522379167
 10
186.7826438386
 20
130.8523858381
  0
LINE
  5
41D
100
AcDbEntity
  8
0
100
AcDbLine
 62
7
  6
CONTINUOUS
 10
185.508826436
 20
83.0335239608
 11
185.5219938929
 21
83.4690557006
  0
LWPOLYLINE
  5
41E
100
AcDbEntity
  8
0
100
AcDbPolyline
 62
7
  6
CONTINUOUS
 90
10
 70
0
 10
167.6753708632
 20
82.963874215
 10
167.6570781807
 20
82.9445613482
 10
167.6361365208
 20
82.9238385612
 10
167.6132025019
 20
82.9017058538
 10
167.5890643279
 20
82.877864464
 10
167.5641366184
 20
82.8526131539
 10
167.5383448583
 20
82.8268482101
 10
167.5118734471
 20
82.8008683951
 10
167.4852682168
 20
82.7743749464
 10
167.4588645122
 20
82.7473678641
  0
LINE
  5
41F
100
AcDbEntity
  8
0
100
AcDbLine
 62
253
  6
CONTINUOUS
 10
165.6219938929
 20
82.2916749704
 11
165.6613439472
 21
82.3310250247
  0
LINE
  5
420
100
AcDbEntity
  8
0
100
AcDbLine
 62
253
  6
CONTINUOUS
 10
165.821963432
 20
82.0917054314
 11
165.8613134863
 21
82.1310554857
  0
LINE
  5
421
100
AcDbEntity
  8
0
100
AcDbLine
 62
253
  6
CONTINUOUS
 10
165.6219938929
 20
130.8917358924
 11
165.6613439472
 21
130.8523858381
  0
LINE
  5
422
100
AcDbEntity
  8
0
100
AcDbLine
 62
253
  6
CONTINUOUS
 10
165.821963432
 20
131.0917054314
 11
165.8613135365
 21
131.0523553269
  0
LWPOLYLINE
  5
423
100
AcDbEntity
  8
0
100
AcDbPolyline
 62
253
  6
CONTINUOUS
 90
16
 70
0
 10
187.1346598918
 20
128.1167801069
 10
187.131855169
 20
128.1689261275
 10
187.1236146627
 20
128.220502029
 10
187.1100284397
 20
128.2709437339
 10
187.0912450368
 20
128.3196995519
 10
187.067469829
 20
128.3662362375
 10
187.0389627768
 20
128.4100448181
 10
187.0060355949
 20
128.4506461377
 10
186.9690483679
 20
128.4875960805
 10
186.9284056065
 20
128.5204904569
 10
186.8845517799
 20
128.5489694574
 10
186.8379665127
 20
128.5727215391
 10
186.7891593728
 20
128.5914868416
 10
186.7386641985
 20
128.6050600841
 10
186.6870332475
 20
128.6132927877
 10
186.6348312293
 20
128.6160948744
  0
LINE
  5
424
100
AcDbEntity
  8
0
100
AcDbLine
 62
253
  6
CONTINUOUS
 10
186.5976057208
 20
129.7117294135
 11
186.5822531546
 21
130.2195366477
  0
LINE
  5
425
100
AcDbEntity
  8
0
100
AcDbLine
 62
253
  6
CONTINUOUS
 10
186.8000989035
 20
129.8014615102
 11
186.7821607978
 21
130.3949805288
  0
LINE
  5
426
100
AcDbEntity
  8
0
100
AcDbLine
 62
253
  6
CONTINUOUS
 10
186.6401892506
 20
128.5210976637
 11
186.6422188289
 21
128.4440939506
  0
LINE
  5
427
100
AcDbEntity
  8
0
100
AcDbLine
 62
253
  6
CONTINUOUS
 10
186.7821607978
 20
130.3949805288
 11
186.7820692979
 21
130.3991851977
  0
LWPOLYLINE
  5
428
100
AcDbEntity
  8
0
100
AcDbPolyline
 62
253
  6
CONTINUOUS
 90
3
 70
0
 10
186.7820692979
 20
130.3991851977
 10
186.7819831385
 20
130.4044121776
 10
186.7819565926
 20
130.4063725215
  0
LINE
  5
429
100
AcDbEntity
  8
0
100
AcDbLine
 62
7
  6
CONTINUOUS
 10
187.1779713243
 20
84.9799484526
 11
187.1779713243
 21
128.2034624102
  0
LINE
  5
42A
100
AcDbEntity
  8
0
100
AcDbLine
 62
7
  6
CONTINUOUS
 10
187.3010451557
 20
126.4917054314
 11
187.3010451557
 21
123.5917054314
  0
LINE
  5
42B
100
AcDbEntity
  8
0
100
AcDbLine
 62
7
  6
CONTINUOUS
 10
187.3010451557
 20
89.5917054314
 11
187.3010451557
 21
86.6917054314
  0
LINE
  5
42C
100
AcDbEntity
  8
0
100
AcDbLine
 62
7
  6
CONTINUOUS
 10
187.3219938929
 20
128.4917815838
 11
187.3219938929
 21
126.519642047
  0
LINE
  5
42D
100
AcDbEntity
  8
0
100
AcDbLine
 62
7
  6
CONTINUOUS
 10
187.3219938929
 20
84.691629279
 11
187.3219938929
 21
86.6637688158
  0
LINE
  5
42E
100
AcDbEntity
  8
RACCORDO
100
AcDbLine
 62
7
  6
CONTINUOUS
 10
187.3719938929
 20
124.2634044801
 11
187.3719938929
 21
123.4970902966
  0
LINE
  5
42F
100
AcDbEntity
  8
ASSI
100
AcDbLine
 62
7
  6
CONTINUOUS
 10
187.3719938929
 20
124.2634044801
 11
187.3719938929
 21
123.4939272768
  0
LINE
  5
430
100
AcDbEntity
  8
RACCORDO
100
AcDbLine
 62
7
  6
CONTINUOUS
 10
187.3719938929
 20
89.6863205662
 11
187.3719938929
 21
88.9200063827
  0
LINE
  5
431
100
AcDbEntity
  8
ASSI
100
AcDbLine
 62
7
  6
CONTINUOUS
 10
187.3719938929
 20
89.689483586
 11
187.3719938929
 21
88.9200063827
  0
LINE
  5
432
100
AcDbEntity
  8
0
100
AcDbLine
 62
7
  6
CONTINUOUS
 10
187.3743657361
 20
123.4939272768
 11
187.3743657361
 21
89.689483586
  0
LWPOLYLINE
  5
433
100
AcDbEntity
  8
0
100
AcDbPolyline
 62
253
  6
CONTINUOUS
 90
13
 70
0
 10
187.1172333769
 20
127.4475307904
 10
187.1136390446
 20
123.9735793885
 10
187.1106980203
 20
120.4988184707
 10
187.1084103038
 20
117.0232480369
 10
187.1067756417
 20
113.5465976199
 10
187.1057942875
 20
110.069137687
 10
187.1054670024
 20
106.5916796397
 10
187.1057942953
 20
103.1142240816
 10
187.1067756574
 20
99.6367704091
 10
187.1084103231
 20
96.1601282131
 10
187.1106980373
 20
92.6845673572
 10
187.1136390551
 20
89.2098179776
 10
187.1172333766
 20
85.7358800746
  0
LINE
  5
434
100
AcDbEntity
  8
0
100
AcDbLine
 62
253
  6
CONTINUOUS
 10
186.782136407
 20
82.7873840764
 11
186.7819906413
 21
82.7795169329
  0
LWPOLYLINE
  5
435
100
AcDbEntity
  8
0
100
AcDbPolyline
 62
253
  6
CONTINUOUS
 90
7
 70
0
 10
186.6422188281
 20
84.7393169141
 10
186.6401892499
 20
84.6623132018
 10
186.6391571824
 20
84.6318965981
 10
186.6380844242
 20
84.6070768406
 10
186.636976861
 20
84.5879791764
 10
186.6358831695
 20
84.5747025475
 10
186.6348312287
 20
84.5673159898
  0
LINE
  5
436
100
AcDbEntity
  8
0
100
AcDbLine
 62
253
  6
CONTINUOUS
 10
186.5976057208
 20
83.4716814492
 11
186.5822518768
 21
82.9638319488
  0
LINE
  5
437
100
AcDbEntity
  8
0
100
AcDbLine
 62
253
  6
CONTINUOUS
 10
186.8000989035
 20
83.3819493526
 11
186.782136407
 21
82.7873840764
  0
LWPOLYLINE
  5
438
100
AcDbEntity
  8
0
100
AcDbPolyline
 62
253
  6
CONTINUOUS
 90
16
 70
0
 10
187.1346598912
 20
85.0666307571
 10
187.1318550321
 20
85.0144834573
 10
187.1236141622
 20
84.9629064989
 10
187.1100274129
 20
84.9124639855
 10
187.0912433841
 20
84.8637076133
 10
187.0674675192
 20
84.8171706365
 10
187.0389598575
 20
84.7733620359
 10
187.0060321911
 20
84.7327609517
 10
186.9690446538
 20
84.6958114427
 10
186.9284017829
 20
84.6629176305
 10
186.8845480945
 20
84.6344392787
 10
186.8379632218
 20
84.6106878586
 10
186.7891566693
 20
84.5919231423
 10
186.7386622404
 20
84.5783503621
 10
186.6870321988
 20
84.570117965
 10
186.6348312287
 20
84.5673159898
  0
LWPOLYLINE
  5
439
100
AcDbEntity
  8
0
100
AcDbPolyline
 62
253
  6
CONTINUOUS
 90
13
 70
0
 10
186.7826438386
 20
82.3310250247
 10
186.7809257854
 20
82.3049287933
 10
186.7758169078
 20
82.2792789027
 10
186.7674045862
 20
82.2545140598
 10
186.7558327022
 20
82.2310578337
 10
186.7412991771
 20
82.2093114117
 10
186.7240525874
 20
82.189646737
 10
186.7043879126
 20
82.1724001472
 10
186.6826414906
 20
82.1578666222
 10
186.6591852646
 20
82.1462947381
 10
186.6344204216
 20
82.1378824166
 10
186.608770531
 20
82.1327735389
 10
186.5826742996
 20
82.1310554857
  0
LWPOLYLINE
  5
43A
100
AcDbEntity
  8
0
100
AcDbPolyline
 62
7
  6
CONTINUOUS
 90
13
 70
0
 10
183.4438888823
 20
83.3819493526
 10
183.4460496182
 20
83.3948314944
 10
183.4515179354
 20
83.4077501483
 10
183.4602628859
 20
83.4203278302
 10
183.4722249864
 20
83.4321180344
 10
183.4872378158
 20
83.442812543
 10
183.5049711313
 20
83.4522815468
 10
183.5251341412
 20
83.4602949928
 10
183.5473657896
 20
83.4665228615
 10
183.5710692126
 20
83.4708337242
 10
183.595729638
 20
83.4731638358
 10
183.6209766583
 20
83.4734452557
 10
183.646382065
 20
83.4716814492
  0
LWPOLYLINE
  5
43B
100
AcDbEntity
  8
0
100
AcDbPolyline
 62
7
  6
CONTINUOUS
 90
10
 70
0
 10
167.4588645122
 20
130.4360429987
 10
167.4858715945
 20
130.4096392941
 10
167.5123650432
 20
130.3830340638
 10
167.5383448583
 20
130.3565626526
 10
167.564109802
 20
130.3307708925
 10
167.5893611121
 20
130.3058431831
 10
167.6132025019
 20
130.281705009
 10
167.6353352093
 20
130.2587709901
 10
167.6560579964
 20
130.2378293302
 10
167.6753708632
 20
130.2195366477
  0
LINE
  5
43C
100
AcDbEntity
  8
0
100
AcDbLine
 62
7
  6
CONTINUOUS
 10
183.4438888823
 20
84.257443816
 11
183.4219938929
 21
84.1917054314
  0
LINE
  5
43D
100
AcDbEntity
  8
0
100
AcDbLine
 62
253
  6
CONTINUOUS
 10
171.777291339
 20
82.8469648012
 11
171.7719938929
 21
82.8416673552
  0
LINE
  5
43E
100
AcDbEntity
  8
0
100
AcDbLine
 62
253
  6
CONTINUOUS
 10
172.0272532628
 20
82.5970028774
 11
172.0219558167
 21
82.5917054314
  0
LINE
  5
43F
100
AcDbEntity
  8
0
100
AcDbLine
 62
253
  6
CONTINUOUS
 10
171.7719938929
 20
130.3417435076
 11
171.777291339
 21
130.3364460615
  0
LINE
  5
440
100
AcDbEntity
  8
0
100
AcDbLine
 62
253
  6
CONTINUOUS
 10
172.0219558167
 20
130.5917054314
 11
172.0272532628
 21
130.5864079853
  0
LINE
  5
441
100
AcDbEntity
  8
0
100
AcDbLine
 62
7
  6
CONTINUOUS
 10
183.4219938929
 20
128.9917054314
 11
183.4438888823
 21
128.9259670468
  0
LWPOLYLINE
  5
442
100
AcDbEntity
  8
0
100
AcDbPolyline
 62
253
  6
CONTINUOUS
 90
6
 70
0
 10
186.6348312293
 20
128.6160948743
 10
186.6358831702
 20
128.608708317
 10
186.6369768617
 20
128.5954316887
 10
186.6380844249
 20
128.5763340251
 10
186.6391571831
 20
128.5515142679
 10
186.6401892506
 20
128.5210976637
  0
LINE
  5
443
100
AcDbEntity
  8
0
100
AcDbLine
 62
7
  6
CONTINUOUS
 10
184.7219938929
 20
84.2703171003
 11
184.7351613498
 21
84.3098515952
  0
LWPOLYLINE
  5
444
100
AcDbEntity
  8
0
100
AcDbPolyline
 62
7
  6
CONTINUOUS
 90
10
 70
0
 43
0.3500000006
 10
199.5579689941
 20
107.0202761536
 10
198.7008310547
 20
107.8774231567
 10
197.8436931152
 20
108.0917076416
 10
196.9865551758
 20
108.0917076416
 10
196.5579680786
 20
107.6631296082
 10
196.5579680786
 20
107.0202761536
 10
196.9865551758
 20
106.5917071838
 10
197.8436931152
 20
106.5917071838
 10
198.272262085
 20
107.0202761536
 10
198.272262085
 20
107.9488452759
  0
LINE
  5
445
100
AcDbEntity
  8
0
100
AcDbLine
 62
7
  6
CONTINUOUS
 10
184.7219938929
 20
128.9130937625
 11
184.7351613498
 21
128.8735592675
  0
LINE
  5
446
100
AcDbEntity
  8
0
100
AcDbLine
 62
7
  6
CONTINUOUS
 10
187.3010451557
 20
89.5917054314
 11
187.3743657361
 21
89.689483586
  0
LINE
  5
447
100
AcDbEntity
  8
0
100
AcDbLine
 62
253
  6
CONTINUOUS
 10
177.027291339
 20
82.8469648012
 11
177.0219938929
 21
82.8416673552
  0
LINE
  5
448
100
AcDbEntity
  8
0
100
AcDbLine
 62
253
  6
CONTINUOUS
 10
177.2772532628
 20
82.5970028774
 11
177.2719558167
 21
82.5917054314
  0
LINE
  5
449
100
AcDbEntity
  8
0
100
AcDbLine
 62
253
  6
CONTINUOUS
 10
177.0219938929
 20
130.3417435076
 11
177.027291339
 21
130.3364460615
  0
LINE
  5
44A
100
AcDbEntity
  8
0
100
AcDbLine
 62
253
  6
CONTINUOUS
 10
177.2719558167
 20
130.5917054314
 11
177.2772532628
 21
130.5864079853
  0
LINE
  5
44B
100
AcDbEntity
  8
0
100
AcDbLine
 62
7
  6
CONTINUOUS
 10
187.3010451557
 20
123.5917054314
 11
187.3743657361
 21
123.4939272768
  0
LWPOLYLINE
  5
44C
100
AcDbEntity
  8
0
100
AcDbPolyline
 62
253
  6
CONTINUOUS
 90
10
 70
0
 10
183.4613439472
 20
130.8523858381
 10
183.461385722
 20
130.8523031114
 10
183.4614282945
 20
130.8520805492
 10
183.4614716646
 20
130.8517181514
 10
183.461516091
 20
130.8512220133
 10
183.461561315
 20
130.8505860397
 10
183.4616065606
 20
130.8497919444
 10
183.4616518491
 20
130.8488346273
 10
183.4616971592
 20
130.8477191886
 10
183.4617416514
 20
130.8464426428
  0
LWPOLYLINE
  5
44D
100
AcDbEntity
  8
0
100
AcDbPolyline
 62
7
  6
CONTINUOUS
 90
10
 70
0
 43
0.3500000006
 10
177.2934285278
 20
143.2351607666
 10
177.364850647
 20
143.0922984009
 10
177.364850647
 20
143.0208762817
 10
177.2219882813
 20
142.878013916
 10
177.1505661621
 20
142.878013916
 10
177.079144043
 20
142.9494541626
 10
177.079144043
 20
143.0208762817
 10
177.1505661621
 20
143.1637386475
 10
177.2219882813
 20
143.2351607666
 10
177.2934285278
 20
143.2351607666
  0
LINE
  5
44E
100
AcDbEntity
  8
0
100
AcDbLine
 62
253
  6
CONTINUOUS
 10
186.6508924697
 20
127.4689728475
 11
185.9752948443
 21
127.4680815967
  0
LINE
  5
44F
100
AcDbEntity
  8
0
100
AcDbLine
 62
253
  6
CONTINUOUS
 10
185.9752948443
 20
127.4680815967
 11
184.6244997909
 21
127.4664792077
  0
LINE
  5
450
100
AcDbEntity
  8
0
100
AcDbLine
 62
253
  6
CONTINUOUS
 10
184.6244997909
 20
127.4664792077
 11
183.2746362598
 21
127.465117291
  0
LINE
  5
451
100
AcDbEntity
  8
0
100
AcDbLine
 62
253
  6
CONTINUOUS
 10
183.2746362598
 20
127.465117291
 11
181.923827668
 21
127.4639935588
  0
LINE
  5
452
100
AcDbEntity
  8
0
100
AcDbLine
 62
253
  6
CONTINUOUS
 10
181.923827668
 20
127.4639935588
 11
180.5718723143
 21
127.4631075437
  0
LINE
  5
453
100
AcDbEntity
  8
0
100
AcDbLine
 62
253
  6
CONTINUOUS
 10
180.5718723143
 20
127.4631075437
 11
179.2197248962
 21
127.4624600451
  0
LINE
  5
454
100
AcDbEntity
  8
0
100
AcDbLine
 62
253
  6
CONTINUOUS
 10
179.2197248962
 20
127.4624600451
 11
177.8674272617
 21
127.4620509318
  0
LINE
  5
455
100
AcDbEntity
  8
0
100
AcDbLine
 62
253
  6
CONTINUOUS
 10
177.8674272617
 20
127.4620509318
 11
176.515440791
 21
127.4618800734
  0
LINE
  5
456
100
AcDbEntity
  8
0
100
AcDbLine
 62
253
  6
CONTINUOUS
 10
176.515440791
 20
127.4618800734
 11
175.1657895998
 21
127.461946954
  0
LINE
  5
457
100
AcDbEntity
  8
0
100
AcDbLine
 62
253
  6
CONTINUOUS
 10
175.1657895998
 20
127.461946954
 11
173.816038785
 21
127.4622509543
  0
LINE
  5
458
100
AcDbEntity
  8
0
100
AcDbLine
 62
253
  6
CONTINUOUS
 10
173.816038785
 20
127.4622509543
 11
172.4604939807
 21
127.462796478
  0
LINE
  5
459
100
AcDbEntity
  8
0
100
AcDbLine
 62
253
  6
CONTINUOUS
 10
172.4604939807
 20
127.462796478
 11
171.085843814
 21
127.4635910173
  0
LINE
  5
45A
100
AcDbEntity
  8
0
100
AcDbLine
 62
253
  6
CONTINUOUS
 10
171.085843814
 20
127.4635910173
 11
169.6649495213
 21
127.4646772385
  0
LINE
  5
45B
100
AcDbEntity
  8
0
100
AcDbLine
 62
253
  6
CONTINUOUS
 10
169.6649495213
 20
127.4646772385
 11
168.1821933053
 21
127.4660898233
  0
LINE
  5
45C
100
AcDbEntity
  8
0
100
AcDbLine
 62
253
  6
CONTINUOUS
 10
168.1821933053
 20
127.4660898233
 11
165.7930953176
 21
127.4689728453
  0
LWPOLYLINE
  5
45D
100
AcDbEntity
  8
0
100
AcDbPolyline
 62
7
  6
CONTINUOUS
 90
7
 70
0
 10
165.6562484214
 20
128.9221209875
 10
165.6526713343
 20
128.9227255256
 10
165.6496931783
 20
128.9233373831
 10
165.647321039
 20
128.9239565602
 10
165.6455604937
 20
128.9245830568
 10
165.6444155989
 20
128.925216873
 10
165.6438888823
 20
128.9258580086
  0
LWPOLYLINE
  5
45E
100
AcDbEntity
  8
0
100
AcDbPolyline
 62
7
  6
CONTINUOUS
 90
3
 70
0
 43
0.3500000006
 10
198.9151155396
 20
105.7345601807
 10
198.9151155396
 20
104.2345597229
 10
196.5579680786
 20
104.8774222412
  0
LWPOLYLINE
  5
45F
100
AcDbEntity
  8
0
100
AcDbPolyline
 62
7
  6
CONTINUOUS
 90
10
 70
0
 10
185.4753708632
 20
82.963874215
 10
185.4570781807
 20
82.9445613482
 10
185.4361365208
 20
82.9238385612
 10
185.4132025019
 20
82.9017058538
 10
185.3890643279
 20
82.877864464
 10
185.3641366184
 20
82.8526131539
 10
185.3383448583
 20
82.8268482101
 10
185.3118734471
 20
82.8008683951
 10
185.2852682168
 20
82.7743749464
 10
185.2588645122
 20
82.7473678641
  0
LINE
  5
460
100
AcDbEntity
  8
0
100
AcDbLine
 62
253
  6
CONTINUOUS
 10
183.4613439472
 20
82.3310250247
 11
183.4219938929
 21
82.2916749704
  0
LINE
  5
461
100
AcDbEntity
  8
0
100
AcDbLine
 62
253
  6
CONTINUOUS
 10
183.6613134863
 20
82.1310554857
 11
183.621963432
 21
82.0917054314
  0
LWPOLYLINE
  5
462
100
AcDbEntity
  8
0
100
AcDbPolyline
 62
253
  6
CONTINUOUS
 90
16
 70
0
 10
187.1172333765
 20
85.7358800746
 10
187.1135234276
 20
85.7337621252
 10
187.1050032513
 20
85.7316647144
 10
187.0917554568
 20
85.7296081781
 10
187.0739084911
 20
85.7276124559
 10
187.0516353935
 20
85.7256968979
 10
187.0251521176
 20
85.7238800766
 10
186.994715438
 20
85.7221796075
 10
186.9606204604
 20
85.7206119779
 10
186.9231977601
 20
85.719192387
 10
186.8828101773
 20
85.7179345989
 10
186.8398492989
 20
85.7168508087
 10
186.7947316615
 20
85.7159515242
 10
186.7478947133
 20
85.7152454646
 10
186.6997925724
 20
85.7147394756
 10
186.6508916238
 20
85.7144384632
  0
LWPOLYLINE
  5
463
100
AcDbEntity
  8
0
100
AcDbPolyline
 62
7
  6
CONTINUOUS
 90
13
 70
0
 10
183.646382065
 20
129.7117294135
 10
183.6209766583
 20
129.7099656071
 10
183.595729638
 20
129.710247027
 10
183.5710692126
 20
129.7125771386
 10
183.5473657896
 20
129.7168880013
 10
183.5251341412
 20
129.72311587
 10
183.5049711313
 20
129.731129316
 10
183.4872378158
 20
129.7405983198
 10
183.4722249864
 20
129.7512928284
 10
183.4602628859
 20
129.7630830326
 10
183.4515179354
 20
129.7756607145
 10
183.4460496182
 20
129.7885793684
 10
183.4438888823
 20
129.8014615102
  0
LWPOLYLINE
  5
464
100
AcDbEntity
  8
0
100
AcDbPolyline
 62
253
  6
CONTINUOUS
 90
7
 70
0
 10
165.7729569668
 20
128.6147340998
 10
165.7789819313
 20
128.615142864
 10
165.7850113897
 20
128.6154788998
 10
165.7910444621
 20
128.615742155
 10
165.7970802681
 20
128.6159325879
 10
165.8031179269
 20
128.6160501674
 10
165.8091565572
 20
128.616094873
  0
LWPOLYLINE
  5
465
100
AcDbEntity
  8
0
100
AcDbPolyline
 62
253
  6
CONTINUOUS
 90
13
 70
0
 10
186.5822531546
 20
130.2195366477
 10
186.6082112427
 20
130.2211982464
 10
186.6337300917
 20
130.2257625295
 10
186.6583778978
 20
130.2331522642
 10
186.6817375965
 20
130.2432424081
 10
186.7034139191
 20
130.2558622253
 10
186.7230400808
 20
130.2707981746
 10
186.7402839884
 20
130.287797524
 10
186.7548538602
 20
130.3065726276
 10
186.7665031615
 20
130.3268057926
 10
186.775034776
 20
130.3481546544
 10
186.7803043417
 20
130.3702579694
 10
186.7822226936
 20
130.3927417285
  0
LWPOLYLINE
  5
466
100
AcDbEntity
  8
0
100
AcDbPolyline
 62
7
  6
CONTINUOUS
 90
16
 70
0
 10
165.6219938929
 20
128.9917051672
 10
165.5700924308
 20
128.9890254207
 10
165.5185409874
 20
128.9809259499
 10
165.4679113235
 20
128.9674291389
 10
165.4185957243
 20
128.9485384926
 10
165.3713622673
 20
128.9244420458
 10
165.3272531238
 20
128.8956986767
 10
165.2870235304
 20
128.863024983
 10
165.2506462966
 20
128.8266391695
 10
165.2179859597
 20
128.7864070338
 10
165.1892589765
 20
128.7423063873
 10
165.1651767648
 20
128.6950904855
 10
165.1462938553
 20
128.645789784
 10
165.1327973323
 20
128.5951666381
 10
165.1246901757
 20
128.5436152222
 10
165.1219938929
 20
128.4917051963
  0
LINE
  5
467
100
AcDbEntity
  8
0
100
AcDbLine
 62
7
  6
CONTINUOUS
 10
186.6784851607
 20
128.7034626453
 11
165.7655026252
 21
128.7034626453
  0
LINE
  5
468
100
AcDbEntity
  8
0
100
AcDbLine
 62
7
  6
CONTINUOUS
 10
167.1851232736
 20
128.8606859832
 11
167.4588645122
 21
128.8606859832
  0
LINE
  5
469
100
AcDbEntity
  8
0
100
AcDbLine
 62
7
  6
CONTINUOUS
 10
184.9851232736
 20
128.8606859832
 11
185.2588645122
 21
128.8606859832
  0
LINE
  5
46A
100
AcDbEntity
  8
0
100
AcDbLine
 62
7
  6
CONTINUOUS
 10
186.5501369798
 20
128.9130937625
 11
185.5219938929
 21
128.9130937625
  0
LINE
  5
46B
100
AcDbEntity
  8
0
100
AcDbLine
 62
7
  6
CONTINUOUS
 10
184.7219938929
 20
128.9130937625
 11
183.6938508061
 21
128.9130937625
  0
LINE
  5
46C
100
AcDbEntity
  8
0
100
AcDbLine
 62
7
  6
CONTINUOUS
 10
168.7501369798
 20
128.9130937625
 11
167.7219938929
 21
128.9130937625
  0
LINE
  5
46D
100
AcDbEntity
  8
0
100
AcDbLine
 62
7
  6
CONTINUOUS
 10
166.9219938929
 20
128.9130937625
 11
165.8938508061
 21
128.9130937625
  0
LINE
  5
46E
100
AcDbEntity
  8
0
100
AcDbLine
 62
7
  6
CONTINUOUS
 10
171.977260878
 20
128.9655015418
 11
175.2167269078
 21
128.9655015418
  0
LINE
  5
46F
100
AcDbEntity
  8
0
100
AcDbLine
 62
7
  6
CONTINUOUS
 10
177.227260878
 20
128.9655015418
 11
180.4667269078
 21
128.9655015418
  0
LINE
  5
470
100
AcDbEntity
  8
0
100
AcDbLine
 62
7
  6
CONTINUOUS
 10
183.4219938929
 20
128.9917054314
 11
180.6719938929
 21
128.9917054314
  0
LINE
  5
471
100
AcDbEntity
  8
0
100
AcDbLine
 62
7
  6
CONTINUOUS
 10
177.0219938929
 20
128.9917054314
 11
175.4219938929
 21
128.9917054314
  0
LINE
  5
472
100
AcDbEntity
  8
0
100
AcDbLine
 62
7
  6
CONTINUOUS
 10
171.7719938929
 20
128.9917054314
 11
169.0219938929
 21
128.9917054314
  0
LINE
  5
473
100
AcDbEntity
  8
0
100
AcDbLine
 62
7
  6
CONTINUOUS
 10
186.5501369798
 20
129.7143551622
 11
185.5219938929
 21
129.7143551622
  0
LINE
  5
474
100
AcDbEntity
  8
0
100
AcDbLine
 62
7
  6
CONTINUOUS
 10
184.7219938929
 20
129.7143551622
 11
183.6938508061
 21
129.7143551622
  0
LINE
  5
475
100
AcDbEntity
  8
0
100
AcDbLine
 62
7
  6
CONTINUOUS
 10
168.7501369798
 20
129.7143551622
 11
167.7219938929
 21
129.7143551622
  0
LINE
  5
476
100
AcDbEntity
  8
0
100
AcDbLine
 62
7
  6
CONTINUOUS
 10
166.9219938929
 20
129.7143551622
 11
165.8938508061
 21
129.7143551622
  0
LWPOLYLINE
  5
477
100
AcDbEntity
  8
0
100
AcDbPolyline
 62
253
  6
CONTINUOUS
 90
10
 70
0
 10
165.8091565572
 20
128.616094873
 10
168.121777344
 20
128.6087968248
 10
170.4349646835
 20
128.6033231024
 10
172.7487185758
 20
128.5996737059
 10
175.063346736
 20
128.5978483869
 10
177.3785414489
 20
128.5978473939
 10
179.6933795692
 20
128.5996714717
 10
182.0075533819
 20
128.6033208686
 10
184.3213706021
 20
128.6087953365
 10
186.6348312298
 20
128.6160948752
  0
LWPOLYLINE
  5
478
100
AcDbEntity
  8
0
100
AcDbPolyline
 62
7
  6
CONTINUOUS
 90
16
 70
0
 10
186.8219939575
 20
128.991705361
 10
186.8738900907
 20
128.9890242955
 10
186.9254357973
 20
128.9809269029
 10
186.9760596765
 20
128.96743457
 10
187.0253687643
 20
128.9485495458
 10
187.0725960275
 20
128.9244593194
 10
187.1167018897
 20
128.8957225817
 10
187.1569301889
 20
128.8630555161
 10
187.1933081792
 20
128.8266752592
 10
187.225973912
 20
128.7864453125
 10
187.2547104138
 20
128.7423376032
 10
187.2788013115
 20
128.6951090432
 10
187.2976895281
 20
128.6458033874
 10
187.3111888246
 20
128.5951892503
 10
187.3192971811
 20
128.543658231
 10
187.3219938929
 20
128.4917815838
  0
LWPOLYLINE
  5
479
100
AcDbEntity
  8
0
100
AcDbPolyline
 62
253
  6
CONTINUOUS
 90
13
 70
0
 10
165.8617346313
 20
130.2195366477
 10
165.8357765597
 20
130.2211982444
 10
165.8102577238
 20
130.2257625225
 10
165.7856099268
 20
130.2331522501
 10
165.7622502335
 20
130.2432423859
 10
165.7405739122
 20
130.2558621949
 10
165.7209477474
 20
130.270798138
 10
165.7037038327
 20
130.2877974844
 10
165.6891339517
 20
130.3065725888
 10
165.6774846411
 20
130.3268057583
 10
165.6689530182
 20
130.3481546281
 10
165.6636834465
 20
130.3702579547
 10
165.6617650922
 20
130.3927417285
  0
LWPOLYLINE
  5
47A
100
AcDbEntity
  8
0
100
AcDbPolyline
 62
253
  6
CONTINUOUS
 90
16
 70
0
 10
187.1172333769
 20
127.4475307904
 10
187.1135241915
 20
127.4496487813
 10
187.1050046738
 20
127.4517462363
 10
187.0917574283
 20
127.4538028187
 10
187.0739108992
 20
127.4557985881
 10
187.0516381249
 20
127.4577141936
 10
187.0251550603
 20
127.4595310617
 10
186.9947184831
 20
127.4612315761
 10
186.9606235035
 20
127.4627992489
 10
186.9232007037
 20
127.46421888
 10
186.882812932
 20
127.4654767048
 10
186.8398517848
 20
127.4665605275
 10
186.7947338097
 20
127.4674598395
 10
186.7478964667
 20
127.4681659211
 10
186.6997938867
 20
127.4686719262
 10
186.6508924684
 20
127.4689729486
  0
LWPOLYLINE
  5
47B
100
AcDbEntity
  8
0
100
AcDbPolyline
 62
7
  6
CONTINUOUS
 90
10
 70
0
 10
185.4753708632
 20
130.2195366477
 10
185.4560579964
 20
130.2378293302
 10
185.4353352093
 20
130.2587709901
 10
185.4132025019
 20
130.281705009
 10
185.3893611121
 20
130.3058431831
 10
185.364109802
 20
130.3307708925
 10
185.3383448583
 20
130.3565626526
 10
185.3123650432
 20
130.3830340638
 10
185.2858715945
 20
130.4096392941
 10
185.2588645122
 20
130.4360429987
  0
LINE
  5
47C
100
AcDbEntity
  8
0
100
AcDbLine
 62
253
  6
CONTINUOUS
 10
183.4219938929
 20
130.8917358924
 11
183.4613439472
 21
130.8523858381
  0
LINE
  5
47D
100
AcDbEntity
  8
0
100
AcDbLine
 62
253
  6
CONTINUOUS
 10
183.621963432
 20
131.0917054314
 11
183.6613135365
 21
131.0523553269
  0
LWPOLYLINE
  5
47E
100
AcDbEntity
  8
0
100
AcDbPolyline
 62
7
  6
CONTINUOUS
 90
13
 70
0
 10
165.846382065
 20
129.7117294135
 10
165.8209785081
 20
129.7099656244
 10
165.7957335664
 20
129.7102467922
 10
165.7710753186
 20
129.7125762948
 10
165.7473743919
 20
129.7168860835
 10
165.725144931
 20
129.7231123388
 10
165.7049826539
 20
129.7311240142
 10
165.6872487182
 20
129.7405915456
 10
165.6722342674
 20
129.751285083
 10
165.6602695069
 20
129.7630752918
 10
165.6515215133
 20
129.7756542898
 10
165.6460507238
 20
129.7885755616
 10
165.6438888823
 20
129.8014615102
  0
LWPOLYLINE
  5
47F
100
AcDbEntity
  8
0
100
AcDbPolyline
 62
253
  6
CONTINUOUS
 90
13
 70
0
 10
183.6613134863
 20
131.0523553771
 10
183.6352172331
 20
131.050637321
 10
183.6095673253
 20
131.0455284358
 10
183.5848024703
 20
131.0371161035
 10
183.5613462371
 20
131.025544207
 10
183.5395998133
 20
131.0110106696
 10
183.5199351428
 20
130.9937640701
 10
183.5026885624
 20
130.9740993907
 10
183.4881550495
 20
130.9523529699
 10
183.4765831779
 20
130.9288967506
 10
183.4681708673
 20
130.9041319198
 10
183.4630619975
 20
130.8784820469
 10
183.4613439472
 20
130.8523858381
  0
LWPOLYLINE
  5
480
100
AcDbEntity
  8
0
100
AcDbPolyline
 62
253
  6
CONTINUOUS
 90
13
 70
0
 10
165.8613134863
 20
131.0523553771
 10
165.8352172331
 20
131.050637321
 10
165.8095673253
 20
131.0455284358
 10
165.7848024703
 20
131.0371161035
 10
165.7613462371
 20
131.025544207
 10
165.7395998133
 20
131.0110106696
 10
165.7199351428
 20
130.9937640701
 10
165.7026885624
 20
130.9740993907
 10
165.6881550495
 20
130.9523529699
 10
165.6765831779
 20
130.9288967506
 10
165.6681708673
 20
130.9041319198
 10
165.6630619975
 20
130.8784820469
 10
165.6613439472
 20
130.8523858381
  0
LWPOLYLINE
  5
481
100
AcDbEntity
  8
0
100
AcDbPolyline
 62
7
  6
CONTINUOUS
 90
13
 70
0
 10
165.821963432
 20
131.0917054314
 10
165.7958613051
 20
131.0899951672
 10
165.7702061268
 20
131.0848929908
 10
165.7454366054
 20
131.0764860096
 10
165.7219761486
 20
131.0649177685
 10
165.7002263427
 20
131.0503859814
 10
165.6805599207
 20
131.0331394036
 10
165.663313343
 20
131.0134729816
 10
165.6487815558
 20
130.9917231758
 10
165.6372133147
 20
130.9682627189
 10
165.6288063335
 20
130.9434931975
 10
165.6237041571
 20
130.9178380192
 10
165.6219938929
 20
130.8917358924
  0
LWPOLYLINE
  5
482
100
AcDbEntity
  8
0
100
AcDbPolyline
 62
253
  6
CONTINUOUS
 90
13
 70
0
 10
168.7822531546
 20
130.2195366477
 10
168.8082112427
 20
130.2211982464
 10
168.8337300917
 20
130.2257625295
 10
168.8583778978
 20
130.2331522642
 10
168.8817375965
 20
130.2432424081
 10
168.9034139191
 20
130.2558622253
 10
168.9230400808
 20
130.2707981746
 10
168.9402839884
 20
130.287797524
 10
168.9548538602
 20
130.3065726276
 10
168.9665031615
 20
130.3268057926
 10
168.975034776
 20
130.3481546544
 10
168.9803043417
 20
130.3702579694
 10
168.9822226936
 20
130.3927417285
  0
LWPOLYLINE
  5
483
100
AcDbEntity
  8
0
100
AcDbPolyline
 62
253
  6
CONTINUOUS
 90
28
 70
0
 10
177.2772532628
 20
130.5864079853
 10
177.2653352852
 20
130.5861208267
 10
177.2530784922
 20
130.5852304052
 10
177.2405164555
 20
130.5836848432
 10
177.2276597907
 20
130.5814269808
 10
177.2145823975
 20
130.5784091164
 10
177.2014181982
 20
130.5746087272
 10
177.1882192267
 20
130.5699928257
 10
177.1750426439
 20
130.5645315417
 10
177.162027826
 20
130.5582389163
 10
177.1492324062
 20
130.5511056861
 10
177.1367172491
 20
130.5431270091
 10
177.1246157555
 20
130.5343567745
 10
177.1129869589
 20
130.5248156641
 10
177.1018793419
 20
130.51452016
 10
177.0913930985
 20
130.5035462539
 10
177.0815808993
 20
130.491942318
 10
177.0724726134
 20
130.4797364493
 10
177.0641191588
 20
130.4669902802
 10
177.0565559806
 20
130.4537556018
 10
177.049809252
 20
130.4400756852
 10
177.043907507
 20
130.4260053215
 10
177.0388734695
 20
130.4115962657
 10
177.0347268922
 20
130.3969022229
 10
177.0314851947
 20
130.381983623
 10
177.0291605276
 20
130.3668981173
 10
177.0277608974
 20
130.3517000413
 10
177.027291339
 20
130.3364460615
  0
LWPOLYLINE
  5
484
100
AcDbEntity
  8
0
100
AcDbPolyline
 62
253
  6
CONTINUOUS
 90
28
 70
0
 10
172.0272532628
 20
130.5864079853
 10
172.0153352852
 20
130.5861208267
 10
172.0030784922
 20
130.5852304052
 10
171.9905164555
 20
130.5836848432
 10
171.9776597907
 20
130.5814269808
 10
171.9645823975
 20
130.5784091164
 10
171.9514181982
 20
130.5746087272
 10
171.9382192267
 20
130.5699928257
 10
171.9250426439
 20
130.5645315417
 10
171.912027826
 20
130.5582389163
 10
171.8992324062
 20
130.5511056861
 10
171.8867172491
 20
130.5431270091
 10
171.8746157555
 20
130.5343567745
 10
171.8629869589
 20
130.5248156641
 10
171.8518793419
 20
130.51452016
 10
171.8413930985
 20
130.5035462539
 10
171.8315808993
 20
130.491942318
 10
171.8224726134
 20
130.4797364493
 10
171.8141191588
 20
130.4669902802
 10
171.8065559806
 20
130.4537556018
 10
171.799809252
 20
130.4400756852
 10
171.793907507
 20
130.4260053215
 10
171.7888734695
 20
130.4115962657
 10
171.7847268922
 20
130.3969022229
 10
171.7814851947
 20
130.381983623
 10
171.7791605276
 20
130.3668981173
 10
171.7777608974
 20
130.3517000413
 10
171.777291339
 20
130.3364460615
  0
LWPOLYLINE
  5
485
100
AcDbEntity
  8
0
100
AcDbPolyline
 62
253
  6
CONTINUOUS
 90
28
 70
0
 10
177.2772532628
 20
130.3864384463
 10
177.2748559013
 20
130.386398623
 10
177.2724061053
 20
130.3862175964
 10
177.269903875
 20
130.3858953666
 10
177.2673338744
 20
130.3854389044
 10
177.2647114393
 20
130.3848412389
 10
177.2620825775
 20
130.3840814578
 10
177.2594458036
 20
130.3831542101
 10
177.2568026029
 20
130.3820648467
 10
177.2542034385
 20
130.380808508
 10
177.2516487567
 20
130.3793792519
 10
177.2491381111
 20
130.3777830206
 10
177.2467206252
 20
130.3760327807
 10
177.2443996476
 20
130.3741241005
 10
177.2421718296
 20
130.3720614119
 10
177.2400762485
 20
130.3698709761
 10
177.2381176782
 20
130.3675517969
 10
177.2362913448
 20
130.3651048707
 10
177.2346220039
 20
130.3625594475
 10
177.2331125213
 20
130.3599149585
 10
177.2317600313
 20
130.3571719726
 10
177.230580693
 20
130.3543614461
 10
177.229576644
 20
130.3514824308
 10
177.2287457467
 20
130.3485358751
 10
177.2280977469
 20
130.3455555802
 10
177.2276358931
 20
130.3425528131
 10
177.2273569368
 20
130.3395163069
 10
177.227260878
 20
130.3364460615
  0
LWPOLYLINE
  5
486
100
AcDbEntity
  8
0
100
AcDbPolyline
 62
253
  6
CONTINUOUS
 90
28
 70
0
 10
172.0272532628
 20
130.3864384463
 10
172.0248559013
 20
130.386398623
 10
172.0224061053
 20
130.3862175964
 10
172.019903875
 20
130.3858953666
 10
172.0173338744
 20
130.3854389044
 10
172.0147114393
 20
130.3848412389
 10
172.0120825775
 20
130.3840814578
 10
172.0094458036
 20
130.3831542101
 10
172.0068026029
 20
130.3820648467
 10
172.0042034385
 20
130.380808508
 10
172.0016487567
 20
130.3793792519
 10
171.9991381111
 20
130.3777830206
 10
171.9967206252
 20
130.3760327807
 10
171.9943996476
 20
130.3741241005
 10
171.9921718296
 20
130.3720614119
 10
171.9900762485
 20
130.3698709761
 10
171.9881176782
 20
130.3675517969
 10
171.9862913448
 20
130.3651048707
 10
171.9846220039
 20
130.3625594475
 10
171.9831125213
 20
130.3599149585
 10
171.9817600313
 20
130.3571719726
 10
171.980580693
 20
130.3543614461
 10
171.979576644
 20
130.3514824308
 10
171.9787457467
 20
130.3485358751
 10
171.9780977469
 20
130.3455555802
 10
171.9776358931
 20
130.3425528131
 10
171.9773569368
 20
130.3395163069
 10
171.977260878
 20
130.3364460615
  0
LINE
  5
487
100
AcDbEntity
  8
0
100
AcDbLine
 62
253
  6
CONTINUOUS
 10
165.8617346313
 20
130.2195366477
 11
166.9686169227
 21
130.2195366477
  0
LINE
  5
488
100
AcDbEntity
  8
0
100
AcDbLine
 62
253
  6
CONTINUOUS
 10
167.6753708632
 20
130.2195366477
 11
168.7822531546
 21
130.2195366477
  0
LINE
  5
489
100
AcDbEntity
  8
0
100
AcDbLine
 62
253
  6
CONTINUOUS
 10
183.6617346313
 20
130.2195366477
 11
184.7686169227
 21
130.2195366477
  0
LINE
  5
48A
100
AcDbEntity
  8
0
100
AcDbLine
 62
253
  6
CONTINUOUS
 10
185.4753708632
 20
130.2195366477
 11
186.5822531546
 21
130.2195366477
  0
LINE
  5
48B
100
AcDbEntity
  8
0
100
AcDbLine
 62
253
  6
CONTINUOUS
 10
177.227260878
 20
130.3364460615
 11
177.027291339
 21
130.3364460615
  0
LINE
  5
48C
100
AcDbEntity
  8
0
100
AcDbLine
 62
253
  6
CONTINUOUS
 10
171.977260878
 20
130.3364460615
 11
171.777291339
 21
130.3364460615
  0
LINE
  5
48D
100
AcDbEntity
  8
0
100
AcDbLine
 62
253
  6
CONTINUOUS
 10
175.2167269078
 20
130.3364460615
 11
175.4166964469
 21
130.3364460616
  0
LINE
  5
48E
100
AcDbEntity
  8
0
100
AcDbLine
 62
253
  6
CONTINUOUS
 10
180.4667269078
 20
130.3364460615
 11
180.6666964469
 21
130.3364460616
  0
LINE
  5
48F
100
AcDbEntity
  8
0
100
AcDbLine
 62
253
  6
CONTINUOUS
 10
180.4167345231
 20
130.3864384463
 11
177.2772532628
 21
130.3864384463
  0
LINE
  5
490
100
AcDbEntity
  8
0
100
AcDbLine
 62
253
  6
CONTINUOUS
 10
175.1667345231
 20
130.3864384463
 11
172.0272532628
 21
130.3864384463
  0
LINE
  5
491
100
AcDbEntity
  8
0
100
AcDbLine
 62
253
  6
CONTINUOUS
 10
184.9851232736
 20
130.4360429987
 11
183.4622014688
 21
130.4360429987
  0
LINE
  5
492
100
AcDbEntity
  8
0
100
AcDbLine
 62
253
  6
CONTINUOUS
 10
167.4588645122
 20
130.4360429987
 11
168.981786317
 21
130.4360429987
  0
LINE
  5
493
100
AcDbEntity
  8
0
100
AcDbLine
 62
253
  6
CONTINUOUS
 10
165.6622014688
 20
130.4360429987
 11
167.1851232736
 21
130.4360429987
  0
LINE
  5
494
100
AcDbEntity
  8
0
100
AcDbLine
 62
253
  6
CONTINUOUS
 10
185.2588645122
 20
130.4360429987
 11
186.781786317
 21
130.4360429987
  0
LINE
  5
495
100
AcDbEntity
  8
0
100
AcDbLine
 62
253
  6
CONTINUOUS
 10
180.4167345231
 20
130.5864079853
 11
177.2772532628
 21
130.5864079853
  0
LINE
  5
496
100
AcDbEntity
  8
0
100
AcDbLine
 62
253
  6
CONTINUOUS
 10
175.1667345231
 20
130.5864079853
 11
172.0272532628
 21
130.5864079853
  0
LINE
  5
497
100
AcDbEntity
  8
0
100
AcDbLine
 62
7
  6
CONTINUOUS
 10
180.4220319691
 20
130.5917054314
 11
177.2719558167
 21
130.5917054314
  0
LINE
  5
498
100
AcDbEntity
  8
0
100
AcDbLine
 62
7
  6
CONTINUOUS
 10
175.1720319691
 20
130.5917054314
 11
172.0219558167
 21
130.5917054314
  0
LINE
  5
499
100
AcDbEntity
  8
0
100
AcDbLine
 62
253
  6
CONTINUOUS
 10
165.6622014688
 20
130.8023934533
 11
168.981786317
 21
130.8023934533
  0
LINE
  5
49A
100
AcDbEntity
  8
0
100
AcDbLine
 62
253
  6
CONTINUOUS
 10
183.4622014688
 20
130.8023934533
 11
186.781786317
 21
130.8023934533
  0
LINE
  5
49B
100
AcDbEntity
  8
0
100
AcDbLine
 62
253
  6
CONTINUOUS
 10
165.8613135365
 20
131.0523553269
 11
168.7826742996
 21
131.0523553771
  0
LINE
  5
49C
100
AcDbEntity
  8
0
100
AcDbLine
 62
253
  6
CONTINUOUS
 10
183.6613135365
 20
131.0523553269
 11
186.5826742996
 21
131.0523553771
  0
LINE
  5
49D
100
AcDbEntity
  8
0
100
AcDbLine
 62
7
  6
CONTINUOUS
 10
186.6220243539
 20
131.0917054314
 11
183.621963432
 21
131.0917054314
  0
LINE
  5
49E
100
AcDbEntity
  8
0
100
AcDbLine
 62
7
  6
CONTINUOUS
 10
168.8220243539
 20
131.0917054314
 11
165.821963432
 21
131.0917054314
  0
LWPOLYLINE
  5
49F
100
AcDbEntity
  8
0
100
AcDbPolyline
 62
253
  6
CONTINUOUS
 90
13
 70
0
 10
183.6617346313
 20
130.2195366477
 10
183.6357765597
 20
130.2211982444
 10
183.6102577238
 20
130.2257625225
 10
183.5856099268
 20
130.2331522501
 10
183.5622502335
 20
130.2432423859
 10
183.5405739122
 20
130.2558621949
 10
183.5209477474
 20
130.270798138
 10
183.5037038327
 20
130.2877974844
 10
183.4891339517
 20
130.3065725888
 10
183.4774846411
 20
130.3268057583
 10
183.4689530182
 20
130.3481546281
 10
183.4636834465
 20
130.3702579547
 10
183.4617650922
 20
130.3927417285
  0
LWPOLYLINE
  5
4A0
100
AcDbEntity
  8
0
100
AcDbPolyline
 62
7
  6
CONTINUOUS
 90
13
 70
0
 10
186.6220243539
 20
131.0917054314
 10
186.6481264808
 20
131.0899951672
 10
186.673781659
 20
131.0848929908
 10
186.6985511804
 20
131.0764860096
 10
186.7220116373
 20
131.0649177685
 10
186.7437614432
 20
131.0503859814
 10
186.7634278652
 20
131.0331394036
 10
186.7806744429
 20
131.0134729816
 10
186.7952062301
 20
130.9917231758
 10
186.8067744712
 20
130.9682627189
 10
186.8151814524
 20
130.9434931975
 10
186.8202836287
 20
130.9178380192
 10
186.8219938929
 20
130.8917358924
  0
LWPOLYLINE
  5
4A1
100
AcDbEntity
  8
0
100
AcDbPolyline
 62
253
  6
CONTINUOUS
 90
13
 70
0
 10
168.7826742996
 20
131.0523553771
 10
168.808770531
 20
131.0506373238
 10
168.8344204216
 20
131.0455284462
 10
168.8591852646
 20
131.0371161247
 10
168.8826414906
 20
131.0255442406
 10
168.9043879126
 20
131.0110107156
 10
168.9240525874
 20
130.9937641258
 10
168.9412991771
 20
130.9740994511
 10
168.9558327022
 20
130.9523530291
 10
168.9674045862
 20
130.928896803
 10
168.9758169078
 20
130.9041319601
 10
168.9809257854
 20
130.8784820695
 10
168.9826438386
 20
130.8523858381
  0
LWPOLYLINE
  5
4A2
100
AcDbEntity
  8
0
100
AcDbPolyline
 62
253
  6
CONTINUOUS
 90
13
 70
0
 10
186.5826742996
 20
131.0523553771
 10
186.608770531
 20
131.0506373238
 10
186.6344204216
 20
131.0455284462
 10
186.6591852646
 20
131.0371161247
 10
186.6826414906
 20
131.0255442406
 10
186.7043879126
 20
131.0110107156
 10
186.7240525874
 20
130.9937641258
 10
186.7412991771
 20
130.9740994511
 10
186.7558327022
 20
130.9523530291
 10
186.7674045862
 20
130.928896803
 10
186.7758169078
 20
130.9041319601
 10
186.7809257854
 20
130.8784820695
 10
186.7826438386
 20
130.8523858381
  0
LWPOLYLINE
  5
4A3
100
AcDbEntity
  8
0
100
AcDbPolyline
 62
7
  6
CONTINUOUS
 90
7
 70
0
 43
0.3500000006
 10
175.7934190063
 20
142.7351696777
 10
174.2934276123
 20
142.7351696777
 10
175.7934190063
 20
144.8780145264
 10
175.7934190063
 20
145.3065834961
 10
175.3648500366
 20
145.7351705933
 10
174.721996582
 20
145.7351705933
 10
174.2934276123
 20
145.0922990112
  0
LWPOLYLINE
  5
4A4
100
AcDbEntity
  8
0
100
AcDbPolyline
 62
7
  6
CONTINUOUS
 90
7
 70
0
 43
0.3500000006
 10
173.4362715454
 20
142.7351696777
 10
171.9362801514
 20
142.7351696777
 10
173.4362715454
 20
144.8780145264
 10
173.4362715454
 20
145.3065834961
 10
173.0077025757
 20
145.7351705933
 10
172.3648491211
 20
145.7351705933
 10
171.9362801514
 20
145.0922990112
  0
LWPOLYLINE
  5
4A5
100
AcDbEntity
  8
0
100
AcDbPolyline
 62
7
  6
CONTINUOUS
 90
6
 70
0
 43
0.3500000006
 10
178.3648509521
 20
142.7351696777
 10
179.4362733765
 20
142.7351696777
 10
179.6505578613
 20
142.9494541626
 10
179.6505578613
 20
144.0208765869
 10
179.2219888916
 20
144.4494455566
 10
178.7934199219
 20
144.4494455566
  0
LWPOLYLINE
  5
4A6
100
AcDbEntity
  8
0
100
AcDbPolyline
 62
7
  6
CONTINUOUS
 90
5
 70
0
 43
0.3500000006
 10
121.6951064758
 20
144.4494455566
 10
122.0522533264
 20
144.6637300415
 10
122.0522533264
 20
145.3065834961
 10
121.6951064758
 20
145.7351705933
 10
120.8379685364
 20
145.7351705933
  0
LINE
  5
4A7
100
AcDbEntity
  8
0
100
AcDbLine
 62
253
  6
CONTINUOUS
 10
101.2318237516
 20
130.2558622253
 11
101.2496180355
 21
130.287797524
  0
LINE
  5
4A8
100
AcDbEntity
  8
0
100
AcDbLine
 62
253
  6
CONTINUOUS
 10
101.2496180355
 20
130.287797524
 11
101.2716818125
 21
130.3268057926
  0
LINE
  5
4A9
100
AcDbEntity
  8
0
100
AcDbLine
 62
253
  6
CONTINUOUS
 10
101.2716818125
 20
130.3268057926
 11
101.3094755574
 21
130.3927417285
  0
LWPOLYLINE
  5
4AA
100
AcDbEntity
  8
0
100
AcDbPolyline
 62
253
  6
CONTINUOUS
 90
10
 70
0
 10
104.3664565199
 20
130.3927417285
 10
104.3713998758
 20
130.3960267864
 10
104.3758312987
 20
130.3997441868
 10
104.3797507885
 20
130.4038939298
 10
104.3831976274
 20
130.4085437407
 10
104.3861325333
 20
130.4136258942
 10
104.3884376601
 20
130.4189372143
 10
104.3900737258
 20
130.4244099758
 10
104.3910800124
 20
130.4301119039
 10
104.3914565199
 20
130.4360429987
  0
LINE
  5
4AB
100
AcDbEntity
  8
0
100
AcDbLine
 62
253
  6
CONTINUOUS
 10
103.5879660386
 20
129.9432800396
 11
104.3664565199
 21
130.3927417285
  0
LINE
  5
4AC
100
AcDbEntity
  8
0
100
AcDbLine
 62
7
  6
CONTINUOUS
 10
103.5879660386
 20
129.7143551622
 11
104.4630392459
 21
130.219578914
  0
LWPOLYLINE
  5
4AD
100
AcDbEntity
  8
0
100
AcDbPolyline
 62
7
  6
CONTINUOUS
 90
10
 70
0
 10
102.248860614
 20
129.7630752918
 10
102.222355323
 20
129.751285083
 10
102.1971856422
 20
129.7405915456
 10
102.1741709804
 20
129.7311240142
 10
102.1535659388
 20
129.7231123388
 10
102.1354275079
 20
129.7168860835
 10
102.1201905128
 20
129.7125762948
 10
102.1080060128
 20
129.7102467922
 10
102.098783639
 20
129.7099656244
 10
102.0925139687
 20
129.7117294135
  0
LWPOLYLINE
  5
4AE
100
AcDbEntity
  8
0
100
AcDbPolyline
 62
7
  6
CONTINUOUS
 90
3
 70
0
 10
102.333602937
 20
129.8014615102
 10
102.3045964338
 20
129.7885755616
 10
102.248860614
 20
129.7630752918
  0
LWPOLYLINE
  5
4AF
100
AcDbEntity
  8
0
100
AcDbPolyline
 62
7
  6
CONTINUOUS
 90
9
 70
0
 10
102.1352156555
 20
83.4665727988
 10
102.1493007612
 20
83.4617547769
 10
102.1651440561
 20
83.455840504
 10
102.1826360523
 20
83.448911516
 10
102.201455984
 20
83.4410281489
 10
102.2215303204
 20
83.4323747488
 10
102.2427462024
 20
83.4230979111
 10
102.2647014791
 20
83.4132384331
 10
102.3101921247
 20
83.3924453831
  0
LINE
  5
4B0
100
AcDbEntity
  8
0
100
AcDbLine
 62
7
  6
CONTINUOUS
 10
102.3101921247
 20
83.3924453831
 11
102.333602937
 21
83.3819493526
  0
LINE
  5
4B1
100
AcDbEntity
  8
0
100
AcDbLine
 62
253
  6
CONTINUOUS
 10
104.3664565199
 20
82.7906691343
 11
103.5879660386
 21
83.2401308232
  0
LINE
  5
4B2
100
AcDbEntity
  8
0
100
AcDbLine
 62
7
  6
CONTINUOUS
 10
104.4629490481
 20
82.9638840246
 11
103.5879660386
 21
83.4690557006
  0
LINE
  5
4B3
100
AcDbEntity
  8
0
100
AcDbLine
 62
253
  6
CONTINUOUS
 10
101.3094755574
 20
82.7906691343
 11
101.2716828631
 21
82.8566033133
  0
LINE
  5
4B4
100
AcDbEntity
  8
0
100
AcDbLine
 62
253
  6
CONTINUOUS
 10
101.2716828631
 20
82.8566033133
 11
101.2496192356
 21
82.8956113144
  0
LWPOLYLINE
  5
4B5
100
AcDbEntity
  8
0
100
AcDbPolyline
 62
253
  6
CONTINUOUS
 90
7
 70
0
 10
101.2496192356
 20
82.8956113144
 10
101.2318246594
 20
82.9275470948
 10
101.2249167193
 20
82.9401673266
 10
101.2194986706
 20
82.9502578868
 10
101.2156622228
 20
82.9576479805
 10
101.2134723159
 20
82.9622125182
 10
101.2129660342
 20
82.9638742125
  0
LWPOLYLINE
  5
4B6
100
AcDbEntity
  8
0
100
AcDbPolyline
 62
253
  6
CONTINUOUS
 90
22
 70
0
 10
95.768477395
 20
85.7358800746
 10
95.7723532104
 20
85.6867365501
 10
95.7795847917
 20
85.6383750875
 10
95.7901721387
 20
85.5907956869
 10
95.8041992332
 20
85.543748502
 10
95.8215820935
 20
85.4974833791
 10
95.8420687748
 20
85.4527498566
 10
95.8657061685
 20
85.4095903931
 10
95.8924473832
 20
85.3679625301
 10
95.9218997999
 20
85.3284884299
 10
95.9541050277
 20
85.291201254
 10
95.9890214574
 20
85.256067841
 10
96.0261316427
 20
85.2236108687
 10
96.0654672684
 20
85.1938721599
 10
96.1069966497
 20
85.1668098918
 10
96.1501072859
 20
85.1428212745
 10
96.1948462442
 20
85.1219498187
 10
96.2411664573
 20
85.1041520136
 10
96.2883142234
 20
85.0896945372
 10
96.3360383084
 20
85.0786662819
 10
96.3845899463
 20
85.0709783552
 10
96.433969137
 20
85.0666307571
  0
LWPOLYLINE
  5
4B7
100
AcDbEntity
  8
0
100
AcDbPolyline
 62
7
  6
CONTINUOUS
 90
22
 70
0
 10
95.2831495652
 20
85.7144380142
 10
95.2897183308
 20
85.6304302624
 10
95.3021726165
 20
85.5470957921
 10
95.3204499412
 20
85.4648452187
 10
95.344457947
 20
85.3840891819
 10
95.3740779983
 20
85.3052194705
 10
95.4091696312
 20
85.2286085135
 10
95.4495660874
 20
85.1546295193
 10
95.4950683682
 20
85.0836539617
 10
95.5454518579
 20
85.0160337979
 10
95.6004706286
 20
84.952104143
 10
95.6598559071
 20
84.89218142
 10
95.7233144619
 20
84.8365626195
 10
95.7905377217
 20
84.7855226848
 10
95.8611945537
 20
84.7393169141
 10
95.9349293034
 20
84.6981783039
 10
96.0113743189
 20
84.6623132018
 10
96.0901587334
 20
84.6318965981
 10
96.1709021254
 20
84.6070768406
 10
96.2532103358
 20
84.5879791764
 10
96.336676434
 20
84.5747025475
 10
96.4208896331
 20
84.5673159898
  0
LWPOLYLINE
  5
4B8
100
AcDbEntity
  8
0
100
AcDbPolyline
 62
7
  6
CONTINUOUS
 90
13
 70
0
 10
94.9327919785
 20
127.4618744686
 10
94.7692768727
 20
124.0532164964
 10
94.6319910615
 20
120.5618465034
 10
94.5252058799
 20
117.0694106473
 10
94.4489325214
 20
113.5761752902
 10
94.40317944
 20
110.0824068548
 10
94.3879478253
 20
106.5883719764
 10
94.4032376765
 20
103.0943373776
 10
94.4490489931
 20
99.6005697811
 10
94.5253805763
 20
96.1073358219
 10
94.6322239574
 20
92.6149019223
 10
94.7695679415
 20
89.1235344441
 10
94.9327919785
 20
85.7215363941
  0
LINE
  5
4B9
100
AcDbEntity
  8
0
100
AcDbLine
 62
7
  6
CONTINUOUS
 10
103.5879660386
 20
82.0917054314
 11
104.3423291403
 21
82.1048728883
  0
LINE
  5
4BA
100
AcDbEntity
  8
0
100
AcDbLine
 62
253
  6
CONTINUOUS
 10
103.5879660386
 20
82.2916749704
 11
104.3423291403
 21
82.3048424273
  0
LINE
  5
4BB
100
AcDbEntity
  8
0
100
AcDbLine
 62
253
  6
CONTINUOUS
 10
104.3914565199
 20
82.3548348121
 11
104.5879660386
 21
82.3548348121
  0
LINE
  5
4BC
100
AcDbEntity
  8
0
100
AcDbLine
 62
253
  6
CONTINUOUS
 10
101.2844755574
 20
82.3810174095
 11
101.0879660386
 21
82.3810174095
  0
LINE
  5
4BD
100
AcDbEntity
  8
0
100
AcDbLine
 62
7
  6
CONTINUOUS
 10
101.333602937
 20
82.1310554857
 11
103.5879660386
 21
82.0917054314
  0
LINE
  5
4BE
100
AcDbEntity
  8
0
100
AcDbLine
 62
253
  6
CONTINUOUS
 10
101.333602937
 20
82.3310250247
 11
103.5879660386
 21
82.2916749704
  0
LWPOLYLINE
  5
4BF
100
AcDbEntity
  8
0
100
AcDbPolyline
 62
253
  6
CONTINUOUS
 90
6
 70
0
 10
109.5879660386
 20
82.9421104504
 10
109.5862473583
 20
82.9423946895
 10
109.5804658156
 20
82.9426428203
 10
109.5706696075
 20
82.9428271535
 10
109.556964926
 20
82.9429437138
 10
109.5184648065
 20
82.9429672468
  0
LWPOLYLINE
  5
4C0
100
AcDbEntity
  8
0
100
AcDbPolyline
 62
253
  6
CONTINUOUS
 90
13
 70
0
 10
95.2831495731
 20
127.4689728475
 10
95.1459762243
 20
123.9917346489
 10
95.0337125958
 20
120.5133325447
 10
94.9463746393
 20
117.0339458307
 10
94.8839760947
 20
113.5536648511
 10
94.8465322198
 20
110.0727583827
 10
94.8340508971
 20
106.5916737531
 10
94.8465326597
 20
103.1105911278
 10
94.8839768924
 20
99.6296903942
 10
94.9463756412
 20
96.149418462
 10
95.0337135811
 20
92.6700439665
 10
95.1459768993
 20
89.1916573868
 10
95.283149573
 20
85.7144380143
  0
LWPOLYLINE
  5
4C1
100
AcDbEntity
  8
0
100
AcDbPolyline
 62
253
  6
CONTINUOUS
 90
13
 70
0
 10
95.7684774081
 20
127.4475307904
 10
95.6312153945
 20
123.9735793885
 10
95.5189022052
 20
120.4988184707
 10
95.4315378404
 20
117.0232480369
 10
95.3691126106
 20
113.5465976199
 10
95.3316362051
 20
110.069137687
 10
95.3191376921
 20
106.5916796397
 10
95.3316365053
 20
103.1142240816
 10
95.3691132108
 20
99.6367704091
 10
95.4315385759
 20
96.1601282131
 10
95.5189028561
 20
92.6845673572
 10
95.6312157958
 20
89.2098179776
 10
95.768477395
 20
85.7358800746
  0
LWPOLYLINE
  5
4C2
100
AcDbEntity
  8
0
100
AcDbPolyline
 62
253
  6
CONTINUOUS
 90
9
 70
0
 10
101.333602937
 20
131.0523553771
 10
101.3331774143
 20
131.0506373238
 10
101.3328188696
 20
131.0455284462
 10
101.3325334353
 20
131.0371161247
 10
101.3323259933
 20
131.0255442406
 10
101.3322000918
 20
131.0110107156
 10
101.3321578839
 20
130.9937641258
 10
101.3322000918
 20
130.9740994511
 10
101.3325334353
 20
130.928896803
  0
LWPOLYLINE
  5
4C3
100
AcDbEntity
  8
0
100
AcDbPolyline
 62
253
  6
CONTINUOUS
 90
6
 70
0
 10
101.2129660386
 20
130.2195366477
 10
101.213472263
 20
130.2211982464
 10
101.2156620199
 20
130.2257625295
 10
101.2194982562
 20
130.2331522642
 10
101.2249160584
 20
130.2432424081
 10
101.2318237516
 20
130.2558622253
  0
LWPOLYLINE
  5
4C4
100
AcDbEntity
  8
0
100
AcDbPolyline
 62
253
  6
CONTINUOUS
 90
28
 70
0
 10
104.3423291403
 20
82.3048424273
 10
104.3446997027
 20
82.3049229567
 10
104.347119515
 20
82.3051423469
 10
104.3495885771
 20
82.3055005979
 10
104.352121821
 20
82.3059911624
 10
104.3547043147
 20
82.3066205878
 10
104.3572912626
 20
82.3074085161
 10
104.3598840272
 20
82.3083600805
 10
104.362481246
 20
82.3094701479
 10
104.3650340353
 20
82.3107429604
 10
104.3675419285
 20
82.3121841977
 10
104.3700053921
 20
82.3137881802
 10
104.3723769425
 20
82.3155421116
 10
104.3746533754
 20
82.3174502328
 10
104.376837895
 20
82.3195083029
 10
104.3788926307
 20
82.3216908026
 10
104.3808130177
 20
82.3239987151
 10
104.3826036208
 20
82.3264310572
 10
104.3842402637
 20
82.3289593603
 10
104.3857201603
 20
82.3315841977
 10
104.3870460967
 20
82.334304996
 10
104.3882022546
 20
82.3370915667
 10
104.389186535
 20
82.3399448479
 10
104.3900010368
 20
82.3428639015
 10
104.3906362384
 20
82.345815725
 10
104.3910889658
 20
82.3487893175
 10
104.391362393
 20
82.3517956799
 10
104.3914565199
 20
82.3548348121
  0
LINE
  5
4C5
100
AcDbEntity
  8
0
100
AcDbLine
 62
7
  6
CONTINUOUS
 10
109.342325351
 20
82.6921481468
 11
104.5879660386
 21
82.6091604963
  0
LINE
  5
4C6
100
AcDbEntity
  8
0
100
AcDbLine
 62
7
  6
CONTINUOUS
 10
103.5879660433
 20
84.1917054315
 11
114.6054184451
 21
84.3840157785
  0
LINE
  5
4C7
100
AcDbEntity
  8
0
100
AcDbLine
 62
253
  6
CONTINUOUS
 10
103.5879660386
 20
84.691629279
 11
104.5879660386
 21
84.7090843439
  0
LINE
  5
4C8
100
AcDbEntity
  8
0
100
AcDbLine
 62
253
  6
CONTINUOUS
 10
109.2945827452
 20
82.9409770613
 11
104.5879660386
 21
82.8591224201
  0
LINE
  5
4C9
100
AcDbEntity
  8
0
100
AcDbLine
 62
253
  6
CONTINUOUS
 10
109.436390797
 20
82.9424885481
 11
109.2945827452
 21
82.9409770613
  0
LINE
  5
4CA
100
AcDbEntity
  8
0
100
AcDbLine
 62
253
  6
CONTINUOUS
 10
109.5184648065
 20
82.9429672468
 11
109.436390797
 21
82.9424885481
  0
LINE
  5
4CB
100
AcDbEntity
  8
0
100
AcDbLine
 62
253
  6
CONTINUOUS
 10
101.2844755574
 20
82.7473678641
 11
101.0879660386
 21
82.7473678641
  0
LINE
  5
4CC
100
AcDbEntity
  8
0
100
AcDbLine
 62
253
  6
CONTINUOUS
 10
104.3914565199
 20
82.7473678641
 11
104.5879660386
 21
82.7473678692
  0
LINE
  5
4CD
100
AcDbEntity
  8
0
100
AcDbLine
 62
7
  6
CONTINUOUS
 10
115.5553401627
 20
85.1305113392
 11
104.5879660386
 21
85.1865920213
  0
LINE
  5
4CE
100
AcDbEntity
  8
0
100
AcDbLine
 62
7
  6
CONTINUOUS
 10
102.333602937
 20
84.2575528542
 11
96.0683686775
 21
84.5857908302
  0
LINE
  5
4CF
100
AcDbEntity
  8
0
100
AcDbLine
 62
7
  6
CONTINUOUS
 10
103.3789154182
 20
84.2026613102
 11
103.5879572435
 21
84.1917058923
  0
LINE
  5
4D0
100
AcDbEntity
  8
0
100
AcDbLine
 62
253
  6
CONTINUOUS
 10
96.433969137
 20
85.0666307571
 11
103.5879660386
 21
84.6917056665
  0
LINE
  5
4D1
100
AcDbEntity
  8
0
100
AcDbLine
 62
253
  6
CONTINUOUS
 10
96.4339691605
 20
128.1167801069
 11
96.428822556
 21
128.220502029
  0
LINE
  5
4D2
100
AcDbEntity
  8
0
100
AcDbLine
 62
253
  6
CONTINUOUS
 10
96.428822556
 20
128.220502029
 11
96.4244714639
 21
128.3196995519
  0
LWPOLYLINE
  5
4D3
100
AcDbEntity
  8
0
100
AcDbPolyline
 62
253
  6
CONTINUOUS
 90
11
 70
0
 10
96.4244714639
 20
128.3196995519
 10
96.4211057293
 20
128.4100448181
 10
96.4198401333
 20
128.4506461377
 10
96.4188722137
 20
128.4875960805
 10
96.4182125608
 20
128.5204904569
 10
96.4178683925
 20
128.5489694574
 10
96.4178434767
 20
128.5727215391
 10
96.4181380885
 20
128.5914868416
 10
96.4187490072
 20
128.6050600841
 10
96.4196695527
 20
128.6132927877
 10
96.4208896585
 20
128.6160948744
  0
LINE
  5
4D4
100
AcDbEntity
  8
0
100
AcDbLine
 62
7
  6
CONTINUOUS
 10
98.0879660386
 20
84.4799482174
 11
98.0879660386
 21
128.7034626453
  0
LWPOLYLINE
  5
4D5
100
AcDbEntity
  8
0
100
AcDbPolyline
 62
253
  6
CONTINUOUS
 90
9
 70
0
 10
96.419839998
 20
84.7327609517
 10
96.4188721093
 20
84.6958114427
 10
96.418212489
 20
84.6629176305
 10
96.4178683515
 20
84.6344392787
 10
96.4178434605
 20
84.6106878586
 10
96.418138088
 20
84.5919231423
 10
96.4187490114
 20
84.5783503621
 10
96.4196695491
 20
84.570117965
 10
96.4208896331
 20
84.5673159898
  0
LINE
  5
4D6
100
AcDbEntity
  8
0
100
AcDbLine
 62
253
  6
CONTINUOUS
 10
96.4226549809
 20
84.8171706365
 11
96.419839998
 21
84.7327609517
  0
LINE
  5
4D7
100
AcDbEntity
  8
0
100
AcDbLine
 62
253
  6
CONTINUOUS
 10
96.4265346233
 20
84.9124639855
 11
96.4226549809
 21
84.8171706365
  0
LWPOLYLINE
  5
4D8
100
AcDbEntity
  8
0
100
AcDbPolyline
 62
253
  6
CONTINUOUS
 90
3
 70
0
 10
96.433969137
 20
85.0666307571
 10
96.4313096607
 20
85.0144834573
 10
96.4265346233
 20
84.9124639855
  0
LINE
  5
4D9
100
AcDbEntity
  8
0
100
AcDbLine
 62
253
  6
CONTINUOUS
 10
95.2888663186
 20
85.7147394756
 11
95.283162239
 21
85.7144384632
  0
LINE
  5
4DA
100
AcDbEntity
  8
0
100
AcDbLine
 62
253
  6
CONTINUOUS
 10
95.4924430827
 20
85.7238800766
 11
95.2888663186
 21
85.7147394756
  0
LINE
  5
4DB
100
AcDbEntity
  8
0
100
AcDbLine
 62
253
  6
CONTINUOUS
 10
95.768477395
 20
85.7358800746
 11
95.4924430827
 21
85.7238800766
  0
LWPOLYLINE
  5
4DC
100
AcDbEntity
  8
RACCORDO
100
AcDbPolyline
 62
253
  6
CONTINUOUS
 90
49
 70
0
 10
140.6054184451
 20
87.7591887568
 10
140.6341684894
 20
87.7598361828
 10
140.6628803057
 20
87.7610680465
 10
140.6915301377
 20
87.7628833288
 10
140.7200942803
 20
87.7652805275
 10
140.7485490997
 20
87.7682576593
 10
140.776871052
 20
87.7718122609
 10
140.8050367037
 20
87.7759413912
 10
140.8330227504
 20
87.7806416337
 10
140.8608060364
 20
87.7859090995
 10
140.8883635736
 20
87.7917394302
 10
140.9156725609
 20
87.7981278018
 10
140.9427104027
 20
87.8050689285
 10
140.9694547278
 20
87.8125570673
 10
140.9958834079
 20
87.8205860223
 10
141.0219745757
 20
87.8291491505
 10
141.0477066435
 20
87.8382393666
 10
141.0730583203
 20
87.8478491494
 10
141.0980086301
 20
87.8579705477
 10
141.122536929
 20
87.868595187
 10
141.1466229221
 20
87.8797142765
 10
141.1702466806
 20
87.8913186163
 10
141.1933886581
 20
87.9033986047
 10
141.2160297069
 20
87.9159442469
 10
141.2381510937
 20
87.9289451624
 10
141.2597345153
 20
87.9423905944
 10
141.2807621133
 20
87.9562694179
 10
141.3012164895
 20
87.9705701497
 10
141.3210807199
 20
87.9852809572
 10
141.3403383687
 20
88.0003896687
 10
141.3589735021
 20
88.0158837832
 10
141.3769707013
 20
88.0317504807
 10
141.3943150755
 20
88.0479766332
 10
141.4109922737
 20
88.064548815
 10
141.4269884972
 20
88.0814533143
 10
141.4422905108
 20
88.0986761443
 10
141.4568856534
 20
88.1162030546
 10
141.4707618489
 20
88.1340195436
 10
141.4839076163
 20
88.1521108697
 10
141.4963120786
 20
88.1704620641
 10
141.5079649723
 20
88.189057943
 10
141.5188566558
 20
88.2078831202
 10
141.5289781173
 20
88.2269220195
 10
141.5383209822
 20
88.2461588882
 10
141.5468775202
 20
88.2655778095
 10
141.5546406517
 20
88.2851627163
 10
141.5616039533
 20
88.3048974038
 10
141.5677616637
 20
88.3247655436
 10
141.5731086879
 20
88.3447506967
  0
LWPOLYLINE
  5
4DD
100
AcDbEntity
  8
ASSI
100
AcDbPolyline
 62
253
  6
CONTINUOUS
 90
46
 70
0
 10
140.6054184451
 20
87.7591887568
 10
140.6341684894
 20
87.7598361828
 10
140.6628803057
 20
87.7610680465
 10
140.6915301377
 20
87.7628833288
 10
140.7200942803
 20
87.7652805275
 10
140.7485490997
 20
87.7682576593
 10
140.776871052
 20
87.7718122609
 10
140.8050367037
 20
87.7759413912
 10
140.8330227504
 20
87.7806416337
 10
140.8608060364
 20
87.7859090995
 10
140.8883635736
 20
87.7917394302
 10
140.9156725609
 20
87.7981278018
 10
140.9427104027
 20
87.8050689285
 10
140.9694547278
 20
87.8125570673
 10
140.9958834079
 20
87.8205860223
 10
141.0219745757
 20
87.8291491505
 10
141.0477066435
 20
87.8382393666
 10
141.0730583203
 20
87.8478491494
 10
141.0980086301
 20
87.8579705477
 10
141.122536929
 20
87.868595187
 10
141.1466229221
 20
87.8797142765
 10
141.1702466806
 20
87.8913186163
 10
141.1933886581
 20
87.9033986047
 10
141.2160297069
 20
87.9159442469
 10
141.2381510937
 20
87.9289451624
 10
141.2597345153
 20
87.9423905944
 10
141.2807621133
 20
87.9562694179
 10
141.3012164895
 20
87.9705701497
 10
141.3210807199
 20
87.9852809572
 10
141.3403383687
 20
88.0003896687
 10
141.3589735021
 20
88.0158837832
 10
141.3769707013
 20
88.0317504807
 10
141.3943150755
 20
88.0479766332
 10
141.4109922737
 20
88.064548815
 10
141.4269884972
 20
88.0814533143
 10
141.4422905108
 20
88.0986761443
 10
141.4568856534
 20
88.1162030546
 10
141.4707618489
 20
88.1340195436
 10
141.4839076163
 20
88.1521108697
 10
141.4963120786
 20
88.1704620641
 10
141.5079649723
 20
88.189057943
 10
141.5188566558
 20
88.2078831202
 10
141.5289781173
 20
88.2269220195
 10
141.5383209822
 20
88.2461588882
 10
141.5468775202
 20
88.2655778095
 10
141.5546406517
 20
88.2851627163
  0
LWPOLYLINE
  5
4DE
100
AcDbEntity
  8
RACCORDO
100
AcDbPolyline
 62
253
  6
CONTINUOUS
 90
58
 70
0
 10
140.6054184451
 20
87.7102561284
 10
140.6326560741
 20
87.7108549021
 10
140.6598605161
 20
87.7119782525
 10
140.6870115689
 20
87.7136253455
 10
140.7140890699
 20
87.715794958
 10
140.7410729112
 20
87.7184854786
 10
140.7679430546
 20
87.7216949095
 10
140.794679546
 20
87.7254208673
 10
140.8212625308
 20
87.7296605851
 10
140.8476722684
 20
87.7344109145
 10
140.8738891467
 20
87.7396683277
 10
140.899893697
 20
87.7454289208
 10
140.925666608
 20
87.7516884157
 10
140.9511887407
 20
87.7584421642
 10
140.9764411423
 20
87.7656851508
 10
141.0014050601
 20
87.773411997
 10
141.0260619558
 20
87.7816169647
 10
141.0503935191
 20
87.7902939609
 10
141.0743816812
 20
87.7994365419
 10
141.0980086284
 20
87.8090379185
 10
141.1212568152
 20
87.8190909605
 10
141.1441089772
 20
87.8295882027
 10
141.1665481445
 20
87.8405218496
 10
141.1885576535
 20
87.8518837818
 10
141.2101211599
 20
87.863665562
 10
141.2312226505
 20
87.8758584409
 10
141.2518464552
 20
87.8884533641
 10
141.2719772586
 20
87.9014409783
 10
141.2916001116
 20
87.9148116391
 10
141.310700442
 20
87.9285554172
 10
141.3292640658
 20
87.9426621065
 10
141.3472771977
 20
87.9571212313
 10
141.364726461
 20
87.971922054
 10
141.3815988976
 20
87.9870535837
 10
141.3978819782
 20
88.0025045834
 10
141.4135636107
 20
88.0182635792
 10
141.42863215
 20
88.0343188684
 10
141.4430764059
 20
88.0506585282
 10
141.4568856522
 20
88.0672704247
 10
141.4700496341
 20
88.0841422219
 10
141.4825585757
 20
88.1012613906
 10
141.4944031881
 20
88.1186152181
 10
141.5055746753
 20
88.1361908172
 10
141.5160647412
 20
88.1539751364
 10
141.5258655959
 20
88.1719549687
 10
141.5349699613
 20
88.1901169624
 10
141.5433710763
 20
88.2084476302
 10
141.5510627024
 20
88.2269333596
 10
141.5580391275
 20
88.2455604231
 10
141.564295171
 20
88.2643149881
 10
141.5698261872
 20
88.2831831273
 10
141.5746280686
 20
88.3021508292
 10
141.5786972493
 20
88.3212040083
 10
141.5820307077
 20
88.3403285155
 10
141.5846259681
 20
88.3595101489
 10
141.5864811034
 20
88.3787346641
 10
141.5875947359
 20
88.3979877849
 10
141.5879660386
 20
88.4172552138
  0
LWPOLYLINE
  5
4DF
100
AcDbEntity
  8
ASSI
100
AcDbPolyline
 62
253
  6
CONTINUOUS
 90
58
 70
0
 10
140.6054184451
 20
87.7102561284
 10
140.6326560741
 20
87.7108549021
 10
140.6598605161
 20
87.7119782525
 10
140.6870115689
 20
87.7136253455
 10
140.7140890699
 20
87.715794958
 10
140.7410729112
 20
87.7184854786
 10
140.7679430546
 20
87.7216949095
 10
140.794679546
 20
87.7254208673
 10
140.8212625308
 20
87.7296605851
 10
140.8476722684
 20
87.7344109145
 10
140.8738891467
 20
87.7396683277
 10
140.899893697
 20
87.7454289208
 10
140.925666608
 20
87.7516884157
 10
140.9511887407
 20
87.7584421642
 10
140.9764411423
 20
87.7656851508
 10
141.0014050601
 20
87.773411997
 10
141.0260619558
 20
87.7816169647
 10
141.0503935191
 20
87.7902939609
 10
141.0743816812
 20
87.7994365419
 10
141.0980086284
 20
87.8090379185
 10
141.1212568152
 20
87.8190909605
 10
141.1441089772
 20
87.8295882027
 10
141.1665481445
 20
87.8405218496
 10
141.1885576535
 20
87.8518837818
 10
141.2101211599
 20
87.863665562
 10
141.2312226505
 20
87.8758584409
 10
141.2518464552
 20
87.8884533641
 10
141.2719772586
 20
87.9014409783
 10
141.2916001116
 20
87.9148116391
 10
141.310700442
 20
87.9285554172
 10
141.3292640658
 20
87.9426621065
 10
141.3472771977
 20
87.9571212313
 10
141.364726461
 20
87.971922054
 10
141.3815988976
 20
87.9870535837
 10
141.3978819782
 20
88.0025045834
 10
141.4135636107
 20
88.0182635792
 10
141.42863215
 20
88.0343188684
 10
141.4430764059
 20
88.0506585282
 10
141.4568856522
 20
88.0672704247
 10
141.4700496341
 20
88.0841422219
 10
141.4825585757
 20
88.1012613906
 10
141.4944031881
 20
88.1186152181
 10
141.5055746753
 20
88.1361908172
 10
141.5160647412
 20
88.1539751364
 10
141.5258655959
 20
88.1719549687
 10
141.5349699613
 20
88.1901169624
 10
141.5433710763
 20
88.2084476302
 10
141.5510627024
 20
88.2269333596
 10
141.5580391275
 20
88.2455604231
 10
141.564295171
 20
88.2643149881
 10
141.5698261872
 20
88.2831831273
 10
141.5746280686
 20
88.3021508292
 10
141.5786972493
 20
88.3212040083
 10
141.5820307077
 20
88.3403285155
 10
141.5846259681
 20
88.3595101489
 10
141.5864811034
 20
88.3787346641
 10
141.5875947359
 20
88.3979877849
 10
141.5879660386
 20
88.4172552138
  0
LINE
  5
4E0
100
AcDbEntity
  8
RACCORDO
100
AcDbLine
 62
7
  6
CONTINUOUS
 10
140.6054184451
 20
87.4174075186
 11
115.5879660386
 21
86.9807262625
  0
LINE
  5
4E1
100
AcDbEntity
  8
ASSI
100
AcDbLine
 62
7
  6
CONTINUOUS
 10
140.6054184451
 20
87.4174075186
 11
115.5879660386
 21
86.9807262625
  0
LINE
  5
4E2
100
AcDbEntity
  8
0
100
AcDbLine
 62
7
  6
CONTINUOUS
 10
104.7379660386
 20
86.9231245483
 11
102.9379660386
 21
86.8917054314
  0
LINE
  5
4E3
100
AcDbEntity
  8
RACCORDO
100
AcDbLine
 62
253
  6
CONTINUOUS
 10
140.6054184451
 20
87.7102561284
 11
115.5879660386
 21
87.2735748723
  0
LINE
  5
4E4
100
AcDbEntity
  8
ASSI
100
AcDbLine
 62
253
  6
CONTINUOUS
 10
140.6054184451
 20
87.7102561284
 11
115.5879660386
 21
87.2735748723
  0
LINE
  5
4E5
100
AcDbEntity
  8
DRAFT
100
AcDbLine
 62
7
  6
CONTINUOUS
 10
105.5879660386
 20
85.7417054314
 11
115.5879660386
 21
85.7417054314
  0
LINE
  5
4E6
100
AcDbEntity
  8
ASSI
100
AcDbLine
 62
7
  6
CONTINUOUS
 10
105.5879660386
 20
85.7417054314
 11
115.5879660386
 21
85.7417054314
  0
LINE
  5
4E7
100
AcDbEntity
  8
0
100
AcDbLine
 62
7
  6
CONTINUOUS
 10
115.5879660386
 20
85.6044367535
 11
104.5879660386
 21
85.7004322992
  0
LINE
  5
4E8
100
AcDbEntity
  8
0
100
AcDbLine
 62
7
  6
CONTINUOUS
 10
105.5879660386
 20
86.8917054314
 11
104.5879660386
 21
86.9004322992
  0
LINE
  5
4E9
100
AcDbEntity
  8
0
100
AcDbLine
 62
253
  6
CONTINUOUS
 10
94.9327919739
 20
85.7215364811
 11
95.283149573
 21
85.7144380143
  0
LINE
  5
4EA
100
AcDbEntity
  8
0
100
AcDbLine
 62
7
  6
CONTINUOUS
 10
102.7879660386
 20
86.6917054314
 11
104.5879660386
 21
86.6288480463
  0
LWPOLYLINE
  5
4EB
100
AcDbEntity
  8
0
100
AcDbPolyline
 62
253
  6
CONTINUOUS
 90
28
 70
0
 10
101.2844755574
 20
82.3810174095
 10
101.284514702
 20
82.3786458006
 10
101.2846918278
 20
82.3762225243
 10
101.2850069347
 20
82.3737475806
 10
101.2854532155
 20
82.3712061537
 10
101.2860374774
 20
82.3686130594
 10
101.2867801418
 20
82.3660127448
 10
101.2876863177
 20
82.3634037577
 10
101.2887508961
 20
82.3607875503
 10
101.2899789713
 20
82.3582129265
 10
101.2913762305
 20
82.355680254
 10
101.2929369865
 20
82.353189165
 10
101.2946492721
 20
82.3507873608
 10
101.2965173835
 20
82.3484779716
 10
101.2985370245
 20
82.3462578671
 10
101.3006833392
 20
82.3441653573
 10
101.3029573899
 20
82.3422049896
 10
101.3053581143
 20
82.3403722167
 10
101.3078574693
 20
82.3386917067
 10
101.3104560765
 20
82.3371662351
 10
101.3131533144
 20
82.3357930265
 10
101.3159192753
 20
82.3345884221
 10
101.3187549337
 20
82.3335545041
 10
101.3216593152
 20
82.3326891904
 10
101.3245995894
 20
82.332002576
 10
101.3275648126
 20
82.3314980262
 10
101.3305659285
 20
82.3311721757
 10
101.333602937
 20
82.3310250247
  0
LWPOLYLINE
  5
4EC
100
AcDbEntity
  8
0
100
AcDbPolyline
 62
253
  6
CONTINUOUS
 90
7
 70
0
 10
101.3321578839
 20
82.189646737
 10
101.3322000918
 20
82.1724001472
 10
101.3323259934
 20
82.1578666222
 10
101.3325334353
 20
82.1462947381
 10
101.3328188697
 20
82.1378824166
 10
101.3331774144
 20
82.1327735389
 10
101.333602937
 20
82.1310554857
  0
LINE
  5
4ED
100
AcDbEntity
  8
0
100
AcDbLine
 62
7
  6
CONTINUOUS
 10
101.0879660386
 20
84.3227248796
 11
101.0879660386
 21
82.3810174095
  0
LINE
  5
4EE
100
AcDbEntity
  8
0
100
AcDbLine
 62
7
  6
CONTINUOUS
 10
101.0879660386
 20
128.8606859832
 11
101.0879660386
 21
130.8023934533
  0
LINE
  5
4EF
100
AcDbEntity
  8
0
100
AcDbLine
 62
253
  6
CONTINUOUS
 10
101.2844755574
 20
82.7473678641
 11
101.2844755574
 21
82.3810174095
  0
LINE
  5
4F0
100
AcDbEntity
  8
0
100
AcDbLine
 62
253
  6
CONTINUOUS
 10
101.2844755574
 20
130.4360429987
 11
101.2844755574
 21
130.8023934533
  0
LINE
  5
4F1
100
AcDbEntity
  8
0
100
AcDbLine
 62
253
  6
CONTINUOUS
 10
101.333602937
 20
130.149886902
 11
101.333602937
 21
128.8735592675
  0
LINE
  5
4F2
100
AcDbEntity
  8
0
100
AcDbLine
 62
253
  6
CONTINUOUS
 10
101.333602937
 20
84.3098515952
 11
101.333602937
 21
83.0335239608
  0
LWPOLYLINE
  5
4F3
100
AcDbEntity
  8
0
100
AcDbPolyline
 62
253
  6
CONTINUOUS
 90
3
 70
0
 10
101.3325334353
 20
82.2545140598
 10
101.3323259934
 20
82.2310578337
 10
101.3321578839
 20
82.189646737
  0
LWPOLYLINE
  5
4F4
100
AcDbEntity
  8
0
100
AcDbPolyline
 62
253
  6
CONTINUOUS
 90
28
 70
0
 10
101.2844755574
 20
130.8023934533
 10
101.284513964
 20
130.8047506792
 10
101.2846891201
 20
130.8071604513
 10
101.2850010255
 20
130.8096227696
 10
101.2854427745
 20
130.8121523309
 10
101.2860212728
 20
130.8147344384
 10
101.2867572381
 20
130.8173250012
 10
101.2876557194
 20
130.8199255141
 10
101.2887116677
 20
130.8225344824
 10
101.2899306533
 20
130.8251033312
 10
101.2913181972
 20
130.8276316393
 10
101.2928687784
 20
130.8301198279
 10
101.2945714041
 20
130.832520586
 10
101.2964300667
 20
130.8348308192
 10
101.2984407738
 20
130.8370536219
 10
101.300580555
 20
130.8391509665
 10
101.3028508351
 20
130.8411188514
 10
101.3052501893
 20
130.8429612784
 10
101.3077513733
 20
130.8446522251
 10
101.3103557305
 20
130.8461891043
 10
101.3130619175
 20
130.8475745033
 10
101.3158386601
 20
130.8487901627
 10
101.3186872114
 20
130.8498335974
 10
101.3216063183
 20
130.8507072926
 10
101.3245609477
 20
130.8514004446
 10
101.3275394217
 20
130.8519094523
 10
101.3305534182
 20
130.8522379167
 10
101.333602937
 20
130.8523858381
  0
LWPOLYLINE
  5
4F5
100
AcDbEntity
  8
0
100
AcDbPolyline
 62
7
  6
CONTINUOUS
 90
6
 70
0
 10
103.587963351
 20
128.9917052896
 10
103.5873898839
 20
128.9890242955
 10
103.5869430149
 20
128.9809269029
 10
103.5866195304
 20
128.96743457
 10
103.5864174291
 20
128.9485495458
 10
103.5863097235
 20
128.8957225817
  0
LINE
  5
4F6
100
AcDbEntity
  8
0
100
AcDbLine
 62
7
  6
CONTINUOUS
 10
102.7879660386
 20
86.8812164096
 11
102.9379660386
 21
86.8917054314
  0
LINE
  5
4F7
100
AcDbEntity
  8
RACCORDO
100
AcDbLine
 62
253
  6
CONTINUOUS
 10
105.5879660386
 20
87.5060082119
 11
140.6054184451
 21
87.7591887568
  0
LINE
  5
4F8
100
AcDbEntity
  8
ASSI
100
AcDbLine
 62
253
  6
CONTINUOUS
 10
105.5879660386
 20
87.5060082119
 11
140.6054184451
 21
87.7591887568
  0
LINE
  5
4F9
100
AcDbEntity
  8
RACCORDO
100
AcDbLine
 62
253
  6
CONTINUOUS
 10
105.5879660386
 20
88.9200063827
 11
140.0879660386
 21
89.1694456823
  0
LINE
  5
4FA
100
AcDbEntity
  8
ASSI
100
AcDbLine
 62
253
  6
CONTINUOUS
 10
105.5879660386
 20
88.9200063827
 11
140.0879660386
 21
89.1694456823
  0
LINE
  5
4FB
100
AcDbEntity
  8
0
100
AcDbLine
 62
7
  6
CONTINUOUS
 10
140.0879660386
 20
89.1417054314
 11
141.5879660386
 21
89.1417054314
  0
LINE
  5
4FC
100
AcDbEntity
  8
ASSI
100
AcDbLine
 62
7
  6
CONTINUOUS
 10
140.0879660386
 20
89.1417054314
 11
141.5879660386
 21
89.1417054314
  0
LINE
  5
4FD
100
AcDbEntity
  8
DRAFT
100
AcDbLine
 62
7
  6
CONTINUOUS
 10
140.0879660386
 20
89.8417054314
 11
113.0879660386
 21
89.8417054314
  0
LINE
  5
4FE
100
AcDbEntity
  8
ASSI
100
AcDbLine
 62
7
  6
CONTINUOUS
 10
140.0879660386
 20
89.8417054314
 11
113.0879660386
 21
89.8417054314
  0
LINE
  5
4FF
100
AcDbEntity
  8
0
100
AcDbLine
 62
7
  6
CONTINUOUS
 10
113.1879660386
 20
89.8917054314
 11
140.0879660386
 21
89.8917054314
  0
LINE
  5
500
100
AcDbEntity
  8
ASSI
100
AcDbLine
 62
7
  6
CONTINUOUS
 10
113.1879660386
 20
89.8917054314
 11
140.0879660386
 21
89.8917054314
  0
LINE
  5
501
100
AcDbEntity
  8
RACCORDO
100
AcDbLine
 62
7
  6
CONTINUOUS
 10
140.0879660386
 20
88.856080001
 11
141.5879660386
 21
88.8429896994
  0
LINE
  5
502
100
AcDbEntity
  8
ASSI
100
AcDbLine
 62
7
  6
CONTINUOUS
 10
140.0879660386
 20
88.856080001
 11
141.5879660386
 21
88.8429896994
  0
LINE
  5
503
100
AcDbEntity
  8
0
100
AcDbLine
 62
7
  6
CONTINUOUS
 10
104.7379660386
 20
89.4102863145
 11
102.7879660386
 21
89.4443236911
  0
LWPOLYLINE
  5
504
100
AcDbEntity
  8
0
100
AcDbPolyline
 62
7
  6
CONTINUOUS
 90
5
 70
0
 10
103.5879602605
 20
84.1917057342
 10
103.5874195496
 20
84.1943854421
 10
103.5869660843
 20
84.2024849129
 10
103.5866194417
 20
84.2159817239
 10
103.5863978368
 20
84.2348723702
  0
LWPOLYLINE
  5
505
100
AcDbEntity
  8
0
100
AcDbPolyline
 62
253
  6
CONTINUOUS
 90
10
 70
0
 10
104.3914565199
 20
82.7473678641
 10
104.3910832605
 20
82.7532914414
 10
104.3900796147
 20
82.7589878496
 10
104.3884455827
 20
82.7644570886
 10
104.3861421553
 20
82.7697670415
 10
104.3832083417
 20
82.7748498252
 10
104.3797611687
 20
82.7795017912
 10
104.3758396452
 20
82.7836550566
 10
104.3714047622
 20
82.7873775043
 10
104.3664565199
 20
82.7906691343
  0
LINE
  5
506
100
AcDbEntity
  8
0
100
AcDbLine
 62
253
  6
CONTINUOUS
 10
104.3423291403
 20
82.3048424273
 11
104.343113207
 21
82.2530963447
  0
LWPOLYLINE
  5
507
100
AcDbEntity
  8
0
100
AcDbPolyline
 62
253
  6
CONTINUOUS
 90
3
 70
0
 10
101.3325334353
 20
130.928896803
 10
101.3328188696
 20
130.9041319601
 10
101.333602937
 20
130.8523858381
  0
LINE
  5
508
100
AcDbEntity
  8
0
100
AcDbLine
 62
7
  6
CONTINUOUS
 10
103.5863097235
 20
128.8957225817
 11
103.5876188075
 21
128.6458033874
  0
LINE
  5
509
100
AcDbEntity
  8
0
100
AcDbLine
 62
7
  6
CONTINUOUS
 10
103.5876188075
 20
128.6458033874
 11
103.5879660386
 21
128.4917815838
  0
LINE
  5
50A
100
AcDbEntity
  8
0
100
AcDbLine
 62
7
  6
CONTINUOUS
 10
102.0879660386
 20
129.7143551622
 11
102.0879660386
 21
128.9130937625
  0
LINE
  5
50B
100
AcDbEntity
  8
0
100
AcDbLine
 62
7
  6
CONTINUOUS
 10
102.0879660386
 20
84.2703171003
 11
102.0879660386
 21
83.4690557006
  0
LINE
  5
50C
100
AcDbEntity
  8
0
100
AcDbLine
 62
253
  6
CONTINUOUS
 10
102.333602937
 20
129.8014615102
 11
102.333602937
 21
128.9258580086
  0
LINE
  5
50D
100
AcDbEntity
  8
0
100
AcDbLine
 62
253
  6
CONTINUOUS
 10
102.333602937
 20
84.2575528542
 11
102.333602937
 21
83.3819493526
  0
LINE
  5
50E
100
AcDbEntity
  8
0
100
AcDbLine
 62
7
  6
CONTINUOUS
 10
102.7879660386
 20
126.4917054314
 11
102.7879660386
 21
123.5917054314
  0
LINE
  5
50F
100
AcDbEntity
  8
0
100
AcDbLine
 62
7
  6
CONTINUOUS
 10
102.7879660386
 20
89.5917054314
 11
102.7879660386
 21
86.6917054314
  0
LINE
  5
510
100
AcDbEntity
  8
0
100
AcDbLine
 62
7
  6
CONTINUOUS
 10
102.9379660386
 20
86.8917054314
 11
102.9379660386
 21
89.4417054314
  0
LINE
  5
511
100
AcDbEntity
  8
0
100
AcDbLine
 62
7
  6
CONTINUOUS
 10
102.9379660386
 20
123.7417054314
 11
102.9379660386
 21
126.2917054314
  0
LINE
  5
512
100
AcDbEntity
  8
0
100
AcDbLine
 62
7
  6
CONTINUOUS
 10
103.0879660386
 20
126.5021816622
 11
103.0879660386
 21
126.2890871717
  0
LINE
  5
513
100
AcDbEntity
  8
0
100
AcDbLine
 62
7
  6
CONTINUOUS
 10
103.0879660386
 20
86.8943236911
 11
103.0879660386
 21
86.6812292005
  0
LINE
  5
514
100
AcDbEntity
  8
0
100
AcDbLine
 62
7
  6
CONTINUOUS
 10
103.0879660386
 20
89.4390871717
 11
103.0879660386
 21
89.6021816622
  0
LINE
  5
515
100
AcDbEntity
  8
0
100
AcDbLine
 62
7
  6
CONTINUOUS
 10
103.0879660386
 20
123.5812292005
 11
103.0879660386
 21
123.7443236911
  0
LINE
  5
516
100
AcDbEntity
  8
0
100
AcDbLine
 62
7
  6
CONTINUOUS
 10
103.5879660386
 20
128.4917815838
 11
103.5879660386
 21
126.519642047
  0
LINE
  5
517
100
AcDbEntity
  8
0
100
AcDbLine
 62
7
  6
CONTINUOUS
 10
103.5879660386
 20
82.0917054314
 11
103.5879660386
 21
84.1917056956
  0
LINE
  5
518
100
AcDbEntity
  8
0
100
AcDbLine
 62
7
  6
CONTINUOUS
 10
103.5879660386
 20
128.991705361
 11
103.5879660386
 21
131.0917054314
  0
LINE
  5
519
100
AcDbEntity
  8
0
100
AcDbLine
 62
7
  6
CONTINUOUS
 10
103.6379660386
 20
86.9039239768
 11
103.6379660386
 21
89.4294868859
  0
LINE
  5
51A
100
AcDbEntity
  8
0
100
AcDbLine
 62
7
  6
CONTINUOUS
 10
103.6379660386
 20
123.7539239768
 11
103.6379660386
 21
126.2794868859
  0
LINE
  5
51B
100
AcDbEntity
  8
0
100
AcDbLine
 62
7
  6
CONTINUOUS
 10
103.5863978368
 20
84.2348723702
 11
103.5863097579
 21
84.2877121861
  0
LINE
  5
51C
100
AcDbEntity
  8
0
100
AcDbLine
 62
7
  6
CONTINUOUS
 10
103.5878266971
 20
84.5882442247
 11
103.5879660386
 21
86.6637688158
  0
LINE
  5
51D
100
AcDbEntity
  8
0
100
AcDbLine
 62
7
  6
CONTINUOUS
 10
103.5863097579
 20
84.2877121861
 11
103.5867695667
 21
84.3970038289
  0
LINE
  5
51E
100
AcDbEntity
  8
0
100
AcDbLine
 62
7
  6
CONTINUOUS
 10
103.5867695667
 20
84.3970038289
 11
103.5878266971
 21
84.5882442247
  0
LWPOLYLINE
  5
51F
100
AcDbEntity
  8
0
100
AcDbPolyline
 62
253
  6
CONTINUOUS
 90
3
 70
0
 10
101.333602937
 20
82.3310250247
 10
101.3331774144
 20
82.3049287933
 10
101.3325334353
 20
82.2545140598
  0
LINE
  5
520
100
AcDbEntity
  8
0
100
AcDbLine
 62
253
  6
CONTINUOUS
 10
104.3423291403
 20
130.8785684354
 11
104.3431132077
 21
130.9303145575
  0
LINE
  5
521
100
AcDbEntity
  8
CURVE
100
AcDbLine
 62
253
  6
CONTINUOUS
 10
112.8582871201
 20
122.5917064328
 11
112.5868999047
 21
122.3202775378
  0
LINE
  5
522
100
AcDbEntity
  8
0
100
AcDbLine
 62
253
  6
CONTINUOUS
 10
109.64304914
 20
118.7936624314
 11
111.0952499291
 21
120.2460364314
  0
LINE
  5
523
100
AcDbEntity
  8
0
100
AcDbLine
 62
253
  6
CONTINUOUS
 10
111.0952499291
 20
119.9609154314
 11
109.64304914
 21
118.5084954314
  0
LINE
  5
524
100
AcDbEntity
  8
CURVE
100
AcDbLine
 62
253
  6
CONTINUOUS
 10
112.5868999047
 20
120.8274206538
 11
112.8582871201
 21
121.0083727974
  0
LINE
  5
525
100
AcDbEntity
  8
0
100
AcDbLine
 62
7
  6
CONTINUOUS
 10
102.7879660386
 20
89.5917054314
 11
105.5879660386
 21
89.689483586
  0
LINE
  5
526
100
AcDbEntity
  8
RACCORDO
100
AcDbLine
 62
7
  6
CONTINUOUS
 10
113.1879660386
 20
89.9743312943
 11
113.0879660386
 21
89.9738949592
  0
LINE
  5
527
100
AcDbEntity
  8
ASSI
100
AcDbLine
 62
7
  6
CONTINUOUS
 10
113.1879660386
 20
89.9743312943
 11
113.0879660386
 21
89.9738949592
  0
LINE
  5
528
100
AcDbEntity
  8
ASSI
100
AcDbLine
 62
7
  6
CONTINUOUS
 10
113.0879660386
 20
90.8417054314
 11
113.1879660386
 21
90.8417054314
  0
LINE
  5
529
100
AcDbEntity
  8
CURVE
100
AcDbLine
 62
253
  6
CONTINUOUS
 10
110.1755312238
 20
91.8016844314
 11
108.1799142122
 21
92.3712954314
  0
LINE
  5
52A
100
AcDbEntity
  8
CURVE
100
AcDbLine
 62
253
  6
CONTINUOUS
 10
108.1799142122
 20
92.9761534314
 11
111.0791255811
 21
92.0440884314
  0
LWPOLYLINE
  5
52B
100
AcDbEntity
  8
0
100
AcDbPolyline
 62
253
  6
CONTINUOUS
 90
28
 70
0
 10
104.3914565199
 20
130.8285760507
 10
104.3914173752
 20
130.8309476596
 10
104.3912402495
 20
130.8333709359
 10
104.3909251426
 20
130.8358458796
 10
104.3904788618
 20
130.8383873065
 10
104.3898945999
 20
130.8409804008
 10
104.3891519355
 20
130.8435807154
 10
104.3882457596
 20
130.8461897025
 10
104.3871811812
 20
130.8488059099
 10
104.385953106
 20
130.8513805336
 10
104.3845558468
 20
130.8539132062
 10
104.3829950908
 20
130.8564042952
 10
104.3812828052
 20
130.8588060994
 10
104.3794146938
 20
130.8611154886
 10
104.3773950528
 20
130.8633355931
 10
104.3752487381
 20
130.8654281029
 10
104.3729746874
 20
130.8673884705
 10
104.370573963
 20
130.8692212435
 10
104.368074608
 20
130.8709017535
 10
104.3654760008
 20
130.8724272251
 10
104.3627787629
 20
130.8738004337
 10
104.3600128019
 20
130.875005038
 10
104.3571771436
 20
130.8760389561
 10
104.3542727621
 20
130.8769042698
 10
104.3513324879
 20
130.8775908842
 10
104.3483672647
 20
130.878095434
 10
104.3453661488
 20
130.8784212844
 10
104.3423291403
 20
130.8785684354
  0
LINE
  5
52C
100
AcDbEntity
  8
0
100
AcDbLine
 62
253
  6
CONTINUOUS
 10
104.343113207
 20
82.2530963447
 11
104.3436060833
 21
82.2048752943
  0
LWPOLYLINE
  5
52D
100
AcDbEntity
  8
0
100
AcDbPolyline
 62
253
  6
CONTINUOUS
 90
7
 70
0
 10
104.3437741933
 20
131.0199467232
 10
104.3437319855
 20
131.0371933129
 10
104.3436060839
 20
131.051726838
 10
104.343398642
 20
131.0632987221
 10
104.3431132076
 20
131.0717110436
 10
104.3427546629
 20
131.0768199212
 10
104.3423291403
 20
131.0785379745
  0
LWPOLYLINE
  5
52E
100
AcDbEntity
  8
0
100
AcDbPolyline
 62
253
  6
CONTINUOUS
 90
8
 70
0
 10
104.3436060833
 20
82.2048752943
 10
104.3437741932
 20
82.1634641942
 10
104.3437319856
 20
82.1462175949
 10
104.3436060842
 20
82.1316840577
 10
104.3433986424
 20
82.1201121615
 10
104.3431132081
 20
82.1116998294
 10
104.3427546632
 20
82.1065909444
 10
104.3423291403
 20
82.1048728883
  0
LINE
  5
52F
100
AcDbEntity
  8
0
100
AcDbLine
 62
253
  6
CONTINUOUS
 10
104.3423291403
 20
130.149886902
 11
104.3423291403
 21
128.9785379745
  0
LINE
  5
530
100
AcDbEntity
  8
0
100
AcDbLine
 62
253
  6
CONTINUOUS
 10
104.3423291403
 20
84.2048728883
 11
104.3423291403
 21
83.0335239608
  0
LINE
  5
531
100
AcDbEntity
  8
0
100
AcDbLine
 62
253
  6
CONTINUOUS
 10
104.3914565199
 20
82.3548348121
 11
104.3914565199
 21
82.7473678641
  0
LINE
  5
532
100
AcDbEntity
  8
0
100
AcDbLine
 62
253
  6
CONTINUOUS
 10
104.3914565199
 20
130.4360429987
 11
104.3914565199
 21
130.8285760507
  0
LINE
  5
533
100
AcDbEntity
  8
0
100
AcDbLine
 62
7
  6
CONTINUOUS
 10
104.5879660386
 20
123.7705062885
 11
104.5879660386
 21
123.5288480463
  0
LINE
  5
534
100
AcDbEntity
  8
0
100
AcDbLine
 62
7
  6
CONTINUOUS
 10
104.5879660386
 20
89.6545628165
 11
104.5879660386
 21
89.4129045743
  0
LINE
  5
535
100
AcDbEntity
  8
0
100
AcDbLine
 62
7
  6
CONTINUOUS
 10
104.5879660386
 20
82.3548348121
 11
104.5879660386
 21
86.9205062885
  0
LINE
  5
536
100
AcDbEntity
  8
0
100
AcDbLine
 62
7
  6
CONTINUOUS
 10
104.5879660386
 20
126.2629045743
 11
104.5879660386
 21
130.8285760507
  0
LINE
  5
537
100
AcDbEntity
  8
0
100
AcDbLine
 62
7
  6
CONTINUOUS
 10
104.7379660386
 20
86.9231245483
 11
104.7379660386
 21
89.4102863145
  0
LINE
  5
538
100
AcDbEntity
  8
0
100
AcDbLine
 62
7
  6
CONTINUOUS
 10
104.7379660386
 20
123.7731245483
 11
104.7379660386
 21
126.2602863145
  0
LINE
  5
539
100
AcDbEntity
  8
0
100
AcDbLine
 62
7
  6
CONTINUOUS
 10
105.5879660386
 20
123.4939272768
 11
105.5879660386
 21
89.689483586
  0
LINE
  5
53A
100
AcDbEntity
  8
RACCORDO
100
AcDbLine
 62
7
  6
CONTINUOUS
 10
105.5879660386
 20
85.7417054314
 11
105.5879660386
 21
89.689483586
  0
LINE
  5
53B
100
AcDbEntity
  8
RACCORDO
100
AcDbLine
 62
7
  6
CONTINUOUS
 10
105.5879660386
 20
123.4939272768
 11
105.5879660386
 21
127.4417054314
  0
LINE
  5
53C
100
AcDbEntity
  8
ASSI
100
AcDbLine
 62
7
  6
CONTINUOUS
 10
105.5879660386
 20
85.7417054314
 11
105.5879660386
 21
127.4417054314
  0
LINE
  5
53D
100
AcDbEntity
  8
0
100
AcDbLine
 62
253
  6
CONTINUOUS
 10
104.3436060839
 20
130.9785356264
 11
104.3437741933
 21
131.0199467232
  0
LINE
  5
53E
100
AcDbEntity
  8
0
100
AcDbLine
 62
253
  6
CONTINUOUS
 10
104.3431132077
 20
130.9303145575
 11
104.3436060839
 21
130.9785356264
  0
LWPOLYLINE
  5
53F
100
AcDbEntity
  8
0
100
AcDbPolyline
 62
7
  6
CONTINUOUS
 90
3
 70
0
 43
0.3500000006
 10
119.0236744995
 20
153.0208793335
 10
118.9522433167
 20
152.8065948486
 10
118.8093900146
 20
152.5208701172
  0
LINE
  5
540
100
AcDbEntity
  8
CURVE
100
AcDbLine
 62
253
  6
CONTINUOUS
 10
113.4010615508
 20
120.4202775378
 11
113.2653679998
 21
120.2393253941
  0
LINE
  5
541
100
AcDbEntity
  8
CURVE
100
AcDbLine
 62
253
  6
CONTINUOUS
 10
113.4010615508
 20
120.8274206538
 11
113.6724488228
 21
121.0988490958
  0
LINE
  5
542
100
AcDbEntity
  8
CURVE
100
AcDbLine
 62
253
  6
CONTINUOUS
 10
114.4866105255
 20
120.4202775378
 11
114.2152232819
 21
120.1488490958
  0
LINE
  5
543
100
AcDbEntity
  8
CURVE
100
AcDbLine
 62
253
  6
CONTINUOUS
 10
113.6724488228
 20
119.6059919853
 11
113.4010615508
 21
119.3345635433
  0
LINE
  5
544
100
AcDbEntity
  8
CURVE
100
AcDbLine
 62
253
  6
CONTINUOUS
 10
112.8582871201
 20
118.2488490958
 11
112.5868999047
 21
117.9774205405
  0
LINE
  5
545
100
AcDbEntity
  8
CURVE
100
AcDbLine
 62
253
  6
CONTINUOUS
 10
112.8582871201
 20
119.5607538361
 11
112.5868999047
 21
119.3345635433
  0
LINE
  5
546
100
AcDbEntity
  8
0
100
AcDbLine
 62
253
  6
CONTINUOUS
 10
109.7877635938
 20
116.9915573632
 11
111.0952495088
 21
117.6777526583
  0
LINE
  5
547
100
AcDbEntity
  8
0
100
AcDbLine
 62
253
  6
CONTINUOUS
 10
111.0952495088
 20
117.450029946
 11
109.596183117
 21
116.6632998861
  0
LINE
  5
548
100
AcDbEntity
  8
CURVE
100
AcDbLine
 62
253
  6
CONTINUOUS
 10
108.1799142122
 20
91.2489574314
 11
110.1755312238
 21
91.8016844314
  0
LINE
  5
549
100
AcDbEntity
  8
CURVE
100
AcDbLine
 62
253
  6
CONTINUOUS
 10
137.1843107224
 20
92.8417054314
 11
132.1850722466
 21
92.8417054314
  0
LINE
  5
54A
100
AcDbEntity
  8
ASSI
100
AcDbLine
 62
7
  6
CONTINUOUS
 10
113.0879660386
 20
92.8417054314
 11
113.1879660386
 21
92.8417054314
  0
LINE
  5
54B
100
AcDbEntity
  8
CURVE
100
AcDbLine
 62
253
  6
CONTINUOUS
 10
108.1797402387
 20
93.2007704314
 11
111.0791255811
 21
93.2007704314
  0
LINE
  5
54C
100
AcDbEntity
  8
CURVE
100
AcDbLine
 62
253
  6
CONTINUOUS
 10
132.1850722466
 20
93.5917054314
 11
131.685148399
 21
93.5917054314
  0
LINE
  5
54D
100
AcDbEntity
  8
CURVE
100
AcDbLine
 62
253
  6
CONTINUOUS
 10
111.0791255811
 20
93.8060414314
 11
108.1797402387
 21
93.8060414314
  0
LINE
  5
54E
100
AcDbEntity
  8
CURVE
100
AcDbLine
 62
253
  6
CONTINUOUS
 10
132.6849960942
 20
94.0917054314
 11
133.4848742503
 21
94.0917054314
  0
LINE
  5
54F
100
AcDbEntity
  8
CURVE
100
AcDbLine
 62
253
  6
CONTINUOUS
 10
131.685148399
 20
94.5917054314
 11
132.1850722466
 21
94.5917054314
  0
LINE
  5
550
100
AcDbEntity
  8
CURVE
100
AcDbLine
 62
253
  6
CONTINUOUS
 10
109.1859949579
 20
94.8415434314
 11
111.0791255811
 21
94.7109264314
  0
LINE
  5
551
100
AcDbEntity
  8
CURVE
100
AcDbLine
 62
253
  6
CONTINUOUS
 10
111.0791255811
 20
94.1318784314
 11
108.1799142122
 21
94.3937004314
  0
LINE
  5
552
100
AcDbEntity
  8
CURVE
100
AcDbLine
 62
253
  6
CONTINUOUS
 10
109.7895650173
 20
95.5973504314
 11
108.1799142122
 21
96.2026214314
  0
LINE
  5
553
100
AcDbEntity
  8
CURVE
100
AcDbLine
 62
253
  6
CONTINUOUS
 10
109.1938867558
 20
96.3561574314
 11
111.0791255811
 21
95.6364894314
  0
LINE
  5
554
100
AcDbEntity
  8
0
100
AcDbLine
 62
253
  6
CONTINUOUS
 10
109.2170677248
 20
82.9072941168
 11
109.2165358189
 21
82.9399144061
  0
LINE
  5
555
100
AcDbEntity
  8
0
100
AcDbLine
 62
253
  6
CONTINUOUS
 10
107.2088759329
 20
121.9896794314
 11
107.2088759329
 21
122.2747994314
  0
LINE
  5
556
100
AcDbEntity
  8
0
100
AcDbLine
 62
253
  6
CONTINUOUS
 10
107.9090352789
 20
121.5745564314
 11
107.9090352789
 21
121.2894124314
  0
LINE
  5
557
100
AcDbEntity
  8
CURVE
100
AcDbLine
 62
253
  6
CONTINUOUS
 10
108.1797402387
 20
93.8060414314
 11
108.1797402387
 21
93.2007704314
  0
LINE
  5
558
100
AcDbEntity
  8
CURVE
100
AcDbLine
 62
253
  6
CONTINUOUS
 10
108.1799142122
 20
90.5914454314
 11
108.1799142122
 21
91.2489574314
  0
LINE
  5
559
100
AcDbEntity
  8
CURVE
100
AcDbLine
 62
253
  6
CONTINUOUS
 10
108.1799142122
 20
92.3712954314
 11
108.1799142122
 21
92.9761534314
  0
LINE
  5
55A
100
AcDbEntity
  8
CURVE
100
AcDbLine
 62
253
  6
CONTINUOUS
 10
108.1799142122
 20
94.3937004314
 11
108.1799142122
 21
94.9984714314
  0
LINE
  5
55B
100
AcDbEntity
  8
CURVE
100
AcDbLine
 62
253
  6
CONTINUOUS
 10
108.1799142122
 20
96.2026214314
 11
108.1799142122
 21
96.8014784314
  0
LINE
  5
55C
100
AcDbEntity
  8
CURVE
100
AcDbLine
 62
253
  6
CONTINUOUS
 10
108.1799142122
 20
98.0771884314
 11
108.1799142122
 21
98.6627154314
  0
LINE
  5
55D
100
AcDbEntity
  8
0
100
AcDbLine
 62
253
  6
CONTINUOUS
 10
108.1873508837
 20
115.0851104314
 11
108.1873508837
 21
115.2920674314
  0
LINE
  5
55E
100
AcDbEntity
  8
0
100
AcDbLine
 62
253
  6
CONTINUOUS
 10
108.1873508837
 20
119.9644154314
 11
108.1873508837
 21
120.2495364314
  0
LINE
  5
55F
100
AcDbEntity
  8
0
100
AcDbLine
 62
253
  6
CONTINUOUS
 10
108.1910873145
 20
120.6711864314
 11
108.1910873145
 21
122.5670394314
  0
LINE
  5
560
100
AcDbEntity
  8
0
100
AcDbLine
 62
253
  6
CONTINUOUS
 10
108.1932139906
 20
118.2024204314
 11
108.1932139906
 21
118.4040574314
  0
LINE
  5
561
100
AcDbEntity
  8
0
100
AcDbLine
 62
253
  6
CONTINUOUS
 10
108.2028146678
 20
115.7234854855
 11
108.2028146678
 21
116.8686027073
  0
LINE
  5
562
100
AcDbEntity
  8
0
100
AcDbLine
 62
253
  6
CONTINUOUS
 10
108.3926936042
 20
122.5670394314
 11
108.3926936042
 21
120.8728234314
  0
LINE
  5
563
100
AcDbEntity
  8
0
100
AcDbLine
 62
253
  6
CONTINUOUS
 10
108.4044210792
 20
116.8686027073
 11
108.4044210792
 21
115.7234854855
  0
LWPOLYLINE
  5
564
100
AcDbEntity
  8
0
100
AcDbPolyline
 62
253
  6
CONTINUOUS
 90
89
 70
0
 10
108.2028146678
 20
116.8686027073
 10
108.2033191694
 20
116.9063677293
 10
108.204862759
 20
116.9440097469
 10
108.207490564
 20
116.9815475373
 10
108.2112477115
 20
117.018999878
 10
108.2161811668
 20
117.0563731358
 10
108.2223452462
 20
117.0936240358
 10
108.229796104
 20
117.1306968926
 10
108.2385898946
 20
117.1675360209
 10
108.2466245075
 20
117.196796148
 10
108.2555528869
 20
117.2258097175
 10
108.2653733834
 20
117.2545153964
 10
108.2760843477
 20
117.2828518521
 10
108.2876841306
 20
117.3107577517
 10
108.3001769973
 20
117.338180736
 10
108.3135908715
 20
117.3651043404
 10
108.3279595915
 20
117.3915210738
 10
108.3433169954
 20
117.4174234451
 10
108.3596969215
 20
117.4428039632
 10
108.377133085
 20
117.4676527959
 10
108.3956587093
 20
117.4919507469
 10
108.4153068948
 20
117.5156762785
 10
108.436110742
 20
117.5388078534
 10
108.4581033512
 20
117.561323934
 10
108.4773628812
 20
117.5795954077
 10
108.497492441
 20
117.5973747191
 10
108.5185135449
 20
117.6146120889
 10
108.5404477072
 20
117.631257738
 10
108.5633164421
 20
117.6472618872
 10
108.5871412638
 20
117.6625747573
 10
108.61193064
 20
117.677141283
 10
108.637640852
 20
117.6908852546
 10
108.6642151345
 20
117.7037251762
 10
108.6846930716
 20
117.7127178936
 10
108.7056871308
 20
117.7211523632
 10
108.727259325
 20
117.7290247071
 10
108.7494716672
 20
117.7363310471
 10
108.772355332
 20
117.7430582731
 10
108.7958181405
 20
117.7491563466
 10
108.8197370755
 20
117.7545659975
 10
108.8439891198
 20
117.7592279552
 10
108.8684611172
 20
117.7630928283
 10
108.8930793546
 20
117.7661507412
 10
108.9177799797
 20
117.7684016973
 10
108.9424991405
 20
117.7698456997
 10
108.9753894722
 20
117.7705200487
 10
109.0081257639
 20
117.7697854344
 10
109.0406345383
 20
117.7676674721
 10
109.0648073272
 20
117.7651935307
 10
109.088688113
 20
117.7620083313
 10
109.1121542021
 20
117.7581643404
 10
109.1350829009
 20
117.7537140248
 10
109.1573837919
 20
117.7487035512
 10
109.1790955632
 20
117.7431538867
 10
109.2002891788
 20
117.7370796985
 10
109.221035603
 20
117.7304956539
 10
109.2480894102
 20
117.7209540012
 10
109.2744318925
 20
117.7105957752
 10
109.3000205733
 20
117.6994847392
 10
109.324822548
 20
117.6876797403
 10
109.3488432006
 20
117.6752199627
 10
109.3720974869
 20
117.6621396743
 10
109.3946003628
 20
117.6484731435
 10
109.4163667843
 20
117.6342546383
 10
109.4374117071
 20
117.6195184269
 10
109.461736162
 20
117.6011907809
 10
109.485080245
 20
117.5821717815
 10
109.5074810059
 20
117.5624662263
 10
109.5289754943
 20
117.5420789127
 10
109.54960076
 20
117.5210146382
 10
109.5693892912
 20
117.4992785494
 10
109.5883553305
 20
117.4768771891
 10
109.6065085592
 20
117.4538174491
 10
109.6238586585
 20
117.4301062213
 10
109.6404153097
 20
117.4057503974
 10
109.6561823728
 20
117.3807647761
 10
109.6711404229
 20
117.3551957825
 10
109.6852642139
 20
117.3290977483
 10
109.6985284998
 20
117.3025250054
 10
109.7109080345
 20
117.2755318856
 10
109.7223848354
 20
117.2481710026
 10
109.7329699732
 20
117.2204880981
 10
109.7426817824
 20
117.1925271957
 10
109.7515385971
 20
117.164332319
 10
109.7595587517
 20
117.1359474916
 10
109.7684355146
 20
117.1002483195
 10
109.7760706029
 20
117.064298599
 10
109.7825009761
 20
117.0280757926
 10
109.7877635938
 20
116.9915573632
  0
LINE
  5
565
100
AcDbEntity
  8
CURVE
100
AcDbLine
 62
253
  6
CONTINUOUS
 10
113.4010615508
 20
117.298849209
 11
113.6724488228
 21
117.5702777643
  0
LINE
  5
566
100
AcDbEntity
  8
CURVE
100
AcDbLine
 62
253
  6
CONTINUOUS
 10
111.0791255811
 20
96.4805124314
 11
109.1938867558
 21
96.3561574314
  0
LINE
  5
567
100
AcDbEntity
  8
CURVE
100
AcDbLine
 62
253
  6
CONTINUOUS
 10
132.1850722466
 20
95.3417054314
 11
137.1843107224
 21
95.3417054314
  0
LINE
  5
568
100
AcDbEntity
  8
CURVE
100
AcDbLine
 62
253
  6
CONTINUOUS
 10
133.4848742503
 20
96.5917054314
 11
132.1850722466
 21
96.5917054314
  0
LINE
  5
569
100
AcDbEntity
  8
CURVE
100
AcDbLine
 62
253
  6
CONTINUOUS
 10
137.1843107224
 20
97.0250387776
 11
136.5344097205
 21
97.0250387776
  0
LINE
  5
56A
100
AcDbEntity
  8
CURVE
100
AcDbLine
 62
253
  6
CONTINUOUS
 10
108.9765438632
 20
98.3585794314
 11
110.0524779683
 21
98.0572054314
  0
LINE
  5
56B
100
AcDbEntity
  8
CURVE
100
AcDbLine
 62
253
  6
CONTINUOUS
 10
110.5003397464
 20
97.9333934314
 11
111.0791255811
 21
97.7663764314
  0
LINE
  5
56C
100
AcDbEntity
  8
CURVE
100
AcDbLine
 62
253
  6
CONTINUOUS
 10
111.0791255811
 20
97.1676724314
 11
108.1799142122
 21
98.0771884314
  0
LWPOLYLINE
  5
56D
100
AcDbEntity
  8
CURVE
100
AcDbPolyline
 62
253
  6
CONTINUOUS
 90
22
 70
0
 10
108.6738237177
 20
100.3129041595
 10
108.6702909998
 20
100.334038452
 10
108.6669182746
 20
100.3551984445
 10
108.6637325688
 20
100.3763878079
 10
108.6607609089
 20
100.3976102133
 10
108.6580303214
 20
100.4188693319
 10
108.6555678331
 20
100.4401688345
 10
108.6532363548
 20
100.4632052899
 10
108.6512487867
 20
100.4862858793
 10
108.6496052405
 20
100.5094034159
 10
108.6483058283
 20
100.5325507129
 10
108.6473506618
 20
100.5557205835
 10
108.6467398529
 20
100.5789058409
 10
108.6464735136
 20
100.6020992983
 10
108.6465517557
 20
100.6252937688
 10
108.6469746911
 20
100.6484820658
 10
108.6477424316
 20
100.6716570023
 10
108.6488550892
 20
100.6948113916
 10
108.6503127756
 20
100.7179380468
 10
108.6521156029
 20
100.7410297813
 10
108.6542636828
 20
100.7640794081
 10
108.6567571272
 20
100.7870797404
  0
LWPOLYLINE
  5
56E
100
AcDbEntity
  8
0
100
AcDbPolyline
 62
253
  6
CONTINUOUS
 90
91
 70
0
 10
109.596183117
 20
116.8300537385
 10
109.5957480359
 20
116.8612892754
 10
109.5944194384
 20
116.8924089431
 10
109.5921622936
 20
116.9234287771
 10
109.5889415704
 20
116.9543648126
 10
109.5856469198
 20
116.9790586489
 10
109.5816906943
 20
117.0036847285
 10
109.5770504291
 20
117.0282186635
 10
109.5717036596
 20
117.0526360655
 10
109.5656279209
 20
117.0769125464
 10
109.5588047655
 20
117.1010199533
 10
109.5512318147
 20
117.1249150741
 10
109.5429107074
 20
117.148550932
 10
109.5338430822
 20
117.1718805501
 10
109.5240305778
 20
117.1948569516
 10
109.5134713771
 20
117.2174389344
 10
109.5021498393
 20
117.2396083957
 10
109.4900468679
 20
117.2613530071
 10
109.4771433664
 20
117.2826604407
 10
109.4634202382
 20
117.3035183683
 10
109.4488569115
 20
117.3239141981
 10
109.433426914
 20
117.3438342842
 10
109.417102298
 20
117.3632647171
 10
109.3998551158
 20
117.3821915873
 10
109.3816574198
 20
117.4006009854
 10
109.3657474572
 20
117.4155309308
 10
109.3491480366
 20
117.4300484512
 10
109.3318491873
 20
117.4441101369
 10
109.3138409385
 20
117.4576725779
 10
109.2951133194
 20
117.4706923644
 10
109.2756563591
 20
117.4831260864
 10
109.255468028
 20
117.4949284658
 10
109.2345780603
 20
117.506046751
 10
109.2130241313
 20
117.5164263221
 10
109.1964334369
 20
117.5236960166
 10
109.1794332281
 20
117.5305123456
 10
109.1619662761
 20
117.5368681941
 10
109.1439753526
 20
117.5427564469
 10
109.1254300238
 20
117.5481619801
 10
109.1064070365
 20
117.5530376337
 10
109.0870099326
 20
117.557328239
 10
109.0673422538
 20
117.5609786269
 10
109.0474967927
 20
117.5639418914
 10
109.0275233445
 20
117.5662041762
 10
109.0074609555
 20
117.567759888
 10
108.9873486716
 20
117.5686034331
 10
108.9672269407
 20
117.5687302374
 10
108.9471418182
 20
117.5681398037
 10
108.927140761
 20
117.5668326542
 10
108.9072712261
 20
117.564809311
 10
108.8875910422
 20
117.5620781932
 10
108.8681995239
 20
117.5586793074
 10
108.8492063574
 20
117.554660557
 10
108.8307212289
 20
117.5500698455
 10
108.8128260324
 20
117.5449482859
 10
108.7954914939
 20
117.5393098292
 10
108.7786605471
 20
117.5331616359
 10
108.7622761258
 20
117.5265108665
 10
108.7410548144
 20
117.5168844166
 10
108.7205623363
 20
117.5064581105
 10
108.7008351529
 20
117.4953128306
 10
108.681901418
 20
117.483523597
 10
108.6637560553
 20
117.4711419788
 10
108.6463856808
 20
117.4582136822
 10
108.6297769105
 20
117.4447844138
 10
108.6139163604
 20
117.4308998798
 10
108.5987906468
 20
117.4166057868
 10
108.5843849076
 20
117.401941234
 10
108.5706783693
 20
117.3869188932
 10
108.5576487807
 20
117.371544829
 10
108.5452738902
 20
117.3558251061
 10
108.5335314464
 20
117.339765789
 10
108.522399198
 20
117.3233729425
 10
108.5098164561
 20
117.3032708802
 10
108.4980528736
 20
117.2827141886
 10
108.4870809704
 20
117.2617197876
 10
108.4768732668
 20
117.2403045972
 10
108.4674022826
 20
117.2184855373
 10
108.4586442674
 20
117.1962853707
 10
108.4505903875
 20
117.1737502313
 10
108.4432355384
 20
117.1509320957
 10
108.4365746158
 20
117.1278829405
 10
108.4306025154
 20
117.1046547425
 10
108.4240918827
 20
117.0754377322
 10
108.4186012675
 20
117.0460686967
 10
108.4140823783
 20
117.0165941521
 10
108.4104869235
 20
116.987060614
 10
108.4077673534
 20
116.9575042214
 10
108.405879084
 20
116.9279196041
 10
108.4047782734
 20
116.8982910151
 10
108.4044210792
 20
116.8686027073
  0
LINE
  5
56F
100
AcDbEntity
  8
0
100
AcDbLine
 62
253
  6
CONTINUOUS
 10
109.1990237424
 20
84.2896468079
 11
109.2166379679
 21
82.9399161892
  0
LINE
  5
570
100
AcDbEntity
  8
0
100
AcDbLine
 62
253
  6
CONTINUOUS
 10
109.2178727011
 20
82.8442756999
 11
109.2170677248
 21
82.9072941168
  0
LINE
  5
571
100
AcDbEntity
  8
0
100
AcDbLine
 62
7
  6
CONTINUOUS
 10
109.0879660386
 20
130.1310855268
 11
109.0879660386
 21
129.452325336
  0
LINE
  5
572
100
AcDbEntity
  8
0
100
AcDbLine
 62
7
  6
CONTINUOUS
 10
109.0879660386
 20
83.7310855268
 11
109.0879660386
 21
83.052325336
  0
LINE
  5
573
100
AcDbEntity
  8
CURVE
100
AcDbLine
 62
253
  6
CONTINUOUS
 10
109.4697138384
 20
100.6588107556
 11
109.4697138384
 21
100.3129041595
  0
LINE
  5
574
100
AcDbEntity
  8
0
100
AcDbLine
 62
253
  6
CONTINUOUS
 10
109.5731047945
 20
114.3694944314
 11
109.5731047945
 21
115.0904304314
  0
LINE
  5
575
100
AcDbEntity
  8
0
100
AcDbLine
 62
253
  6
CONTINUOUS
 10
109.5731987802
 20
121.5117194314
 11
109.5731987802
 21
122.5120064314
  0
LINE
  5
576
100
AcDbEntity
  8
0
100
AcDbLine
 62
7
  6
CONTINUOUS
 10
109.5879660386
 20
82.9421098312
 11
109.5879660386
 21
84.296435821
  0
LINE
  5
577
100
AcDbEntity
  8
0
100
AcDbLine
 62
7
  6
CONTINUOUS
 10
109.5879660386
 20
128.8869750418
 11
109.5879660386
 21
130.2413012667
  0
LINE
  5
578
100
AcDbEntity
  8
0
100
AcDbLine
 62
253
  6
CONTINUOUS
 10
109.596183117
 20
116.6632998861
 11
109.596183117
 21
116.8300537385
  0
LINE
  5
579
100
AcDbEntity
  8
0
100
AcDbLine
 62
253
  6
CONTINUOUS
 10
109.7736702428
 20
122.5120064314
 11
109.7736702428
 21
121.5117194314
  0
LINE
  5
57A
100
AcDbEntity
  8
0
100
AcDbLine
 62
253
  6
CONTINUOUS
 10
109.7747110842
 20
115.0904304314
 11
109.7747110842
 21
114.3694944314
  0
LINE
  5
57B
100
AcDbEntity
  8
CURVE
100
AcDbLine
 62
253
  6
CONTINUOUS
 10
109.9445346491
 20
100.3329740482
 11
109.9445346491
 21
100.6575061041
  0
LINE
  5
57C
100
AcDbEntity
  8
CURVE
100
AcDbLine
 62
253
  6
CONTINUOUS
 10
110.0524779683
 20
98.0572054314
 11
110.0524779683
 21
98.6367094314
  0
LINE
  5
57D
100
AcDbEntity
  8
CURVE
100
AcDbLine
 62
253
  6
CONTINUOUS
 10
110.5003397464
 20
98.7576724314
 11
110.5003397464
 21
97.9333934314
  0
LINE
  5
57E
100
AcDbEntity
  8
0
100
AcDbLine
 62
253
  6
CONTINUOUS
 10
110.8863597489
 20
120.8728234314
 11
110.8863597489
 21
122.5917054314
  0
LINE
  5
57F
100
AcDbEntity
  8
CURVE
100
AcDbLine
 62
253
  6
CONTINUOUS
 10
111.0791255811
 20
99.5524014314
 11
111.0791255811
 21
98.9144704314
  0
LINE
  5
580
100
AcDbEntity
  8
CURVE
100
AcDbLine
 62
253
  6
CONTINUOUS
 10
111.0791255811
 20
97.7663764314
 11
111.0791255811
 21
97.1676724314
  0
LINE
  5
581
100
AcDbEntity
  8
CURVE
100
AcDbLine
 62
253
  6
CONTINUOUS
 10
111.0791255811
 20
97.0726284314
 11
111.0791255811
 21
96.4805124314
  0
LINE
  5
582
100
AcDbEntity
  8
CURVE
100
AcDbLine
 62
253
  6
CONTINUOUS
 10
111.0791255811
 20
95.6364894314
 11
111.0791255811
 21
95.5516004314
  0
LINE
  5
583
100
AcDbEntity
  8
CURVE
100
AcDbLine
 62
253
  6
CONTINUOUS
 10
111.0791255811
 20
94.7109264314
 11
111.0791255811
 21
94.1318784314
  0
LINE
  5
584
100
AcDbEntity
  8
CURVE
100
AcDbLine
 62
253
  6
CONTINUOUS
 10
111.0791255811
 20
92.0440884314
 11
111.0791255811
 21
91.5106924314
  0
LINE
  5
585
100
AcDbEntity
  8
CURVE
100
AcDbLine
 62
253
  6
CONTINUOUS
 10
111.0791255811
 20
93.2007704314
 11
111.0791255811
 21
93.8060414314
  0
LINE
  5
586
100
AcDbEntity
  8
CURVE
100
AcDbLine
 62
253
  6
CONTINUOUS
 10
111.0791259333
 20
99.730138087
 11
111.0791259333
 21
100.3329740482
  0
LINE
  5
587
100
AcDbEntity
  8
CURVE
100
AcDbLine
 62
253
  6
CONTINUOUS
 10
111.0791259333
 20
101.2598636931
 11
111.0791259333
 21
101.8420644166
  0
LINE
  5
588
100
AcDbEntity
  8
0
100
AcDbLine
 62
253
  6
CONTINUOUS
 10
111.0879660386
 20
122.5917054314
 11
111.0879660386
 21
120.6711864314
  0
LINE
  5
589
100
AcDbEntity
  8
0
100
AcDbLine
 62
253
  6
CONTINUOUS
 10
111.0952495088
 20
117.6777526583
 11
111.0952495088
 21
117.450029946
  0
LINE
  5
58A
100
AcDbEntity
  8
0
100
AcDbLine
 62
253
  6
CONTINUOUS
 10
111.0952499291
 20
120.2460364314
 11
111.0952499291
 21
119.9609154314
  0
LINE
  5
58B
100
AcDbEntity
  8
0
100
AcDbLine
 62
253
  6
CONTINUOUS
 10
111.0952499291
 20
118.4040574314
 11
111.0952499291
 21
118.2024204314
  0
LINE
  5
58C
100
AcDbEntity
  8
0
100
AcDbLine
 62
253
  6
CONTINUOUS
 10
111.0952499291
 20
115.2920674314
 11
111.0952499291
 21
115.0904304314
  0
LINE
  5
58D
100
AcDbEntity
  8
0
100
AcDbLine
 62
253
  6
CONTINUOUS
 10
111.0952499291
 20
112.8445154314
 11
111.0952499291
 21
112.5782914314
  0
LINE
  5
58E
100
AcDbEntity
  8
0
100
AcDbLine
 62
253
  6
CONTINUOUS
 10
109.2183420847
 20
130.4202213772
 11
109.2181319734
 21
130.3684575792
  0
LWPOLYLINE
  5
58F
100
AcDbEntity
  8
0
100
AcDbPolyline
 62
253
  6
CONTINUOUS
 90
4
 70
0
 10
109.2181319734
 20
130.3684575792
 10
109.217515899
 20
130.3081805314
 10
109.2170677241
 20
130.2761175379
 10
109.216535823
 20
130.2434964566
  0
LWPOLYLINE
  5
590
100
AcDbEntity
  8
CURVE
100
AcDbPolyline
 62
253
  6
CONTINUOUS
 90
48
 70
0
 10
109.9445346491
 20
100.6575061041
 10
109.9446529551
 20
100.666825522
 10
109.9450091637
 20
100.6761614867
 10
109.9456052106
 20
100.6855044066
 10
109.9464430313
 20
100.69484469
 10
109.9475245617
 20
100.7041727454
 10
109.9488517374
 20
100.7134789811
 10
109.9504264941
 20
100.7227538055
 10
109.9522507674
 20
100.7319876269
 10
109.9543264932
 20
100.7411708537
 10
109.956655607
 20
100.7502938943
 10
109.9592400446
 20
100.7593471571
 10
109.9620817416
 20
100.7683210503
 10
109.9651826338
 20
100.7772059824
 10
109.9685446568
 20
100.7859923617
 10
109.9721697464
 20
100.7946705966
 10
109.9760598381
 20
100.8032310955
 10
109.9802168678
 20
100.8116642668
 10
109.9847572515
 20
100.8201714018
 10
109.9895716109
 20
100.8285325382
 10
109.9946511731
 20
100.8367456623
 10
109.9999871654
 20
100.8448087605
 10
110.0055708148
 20
100.8527198191
 10
110.0113933485
 20
100.8604768244
 10
110.0174459935
 20
100.8680777627
 10
110.0237199771
 20
100.8755206204
 10
110.0302065263
 20
100.8828033837
 10
110.0368968684
 20
100.889924039
 10
110.0437822303
 20
100.8968805726
 10
110.0508538394
 20
100.9036709709
 10
110.0581029226
 20
100.9102932201
 10
110.0655207072
 20
100.9167453065
 10
110.0730984203
 20
100.9230252166
 10
110.0808272889
 20
100.9291309365
 10
110.0886985404
 20
100.9350604527
 10
110.0967034016
 20
100.9408117514
 10
110.1048330999
 20
100.946382819
 10
110.1130788624
 20
100.9517716418
 10
110.1214319161
 20
100.9569762061
 10
110.1298834882
 20
100.9619944983
 10
110.1384248059
 20
100.9668245046
 10
110.1470470963
 20
100.9714642113
 10
110.1557415865
 20
100.9759116049
 10
110.1644995037
 20
100.9801646716
 10
110.1733120749
 20
100.9842213977
 10
110.1821705274
 20
100.9880797696
 10
110.1910660882
 20
100.9917377735
 10
110.1999899845
 20
100.9951933959
  0
LINE
  5
591
100
AcDbEntity
  8
0
100
AcDbLine
 62
253
  6
CONTINUOUS
 10
109.216637974
 20
130.2434946735
 11
109.1990237424
 21
128.8937640549
  0
LWPOLYLINE
  5
592
100
AcDbEntity
  8
CURVE
100
AcDbPolyline
 62
253
  6
CONTINUOUS
 90
49
 70
0
 10
108.6567571272
 20
100.7870797404
 10
108.6581945112
 20
100.7981728737
 10
108.6599317063
 20
100.8092667633
 10
108.6619678697
 20
100.8203491908
 10
108.6643021587
 20
100.8314079378
 10
108.6669337302
 20
100.8424307858
 10
108.6698617416
 20
100.8534055165
 10
108.6730853499
 20
100.8643199114
 10
108.6766037124
 20
100.8751617521
 10
108.6804159861
 20
100.8859188202
 10
108.6845213283
 20
100.8965788973
 10
108.6889188961
 20
100.9071297649
 10
108.6936078466
 20
100.9175592048
 10
108.6985873371
 20
100.9278549983
 10
108.7038565246
 20
100.9380049272
 10
108.7094145664
 20
100.947996773
 10
108.7152606196
 20
100.9578183173
 10
108.7213938413
 20
100.9674573417
 10
108.7278133887
 20
100.9769016277
 10
108.734518419
 20
100.986138957
 10
108.7415080894
 20
100.9951571111
 10
108.7487815569
 20
101.0039438716
 10
108.7563379788
 20
101.0124870201
 10
108.7641765122
 20
101.0207743383
 10
108.7722963143
 20
101.0287936076
 10
108.7806484727
 20
101.0364930911
 10
108.7892649398
 20
101.0439118101
 10
108.7981326128
 20
101.0510462542
 10
108.8072383891
 20
101.0578929132
 10
108.8165691663
 20
101.0644482768
 10
108.8261118415
 20
101.0707088347
 10
108.8358533123
 20
101.0766710767
 10
108.8457804759
 20
101.0823314925
 10
108.8558802298
 20
101.0876865719
 10
108.8661394713
 20
101.0927328045
 10
108.8765450979
 20
101.0974666801
 10
108.8870840069
 20
101.1018846884
 10
108.8977430957
 20
101.1059833193
 10
108.9085092617
 20
101.1097590623
 10
108.9193694023
 20
101.1132084072
 10
108.9303104147
 20
101.1163278439
 10
108.9413191965
 20
101.1191138619
 10
108.952382645
 20
101.1215629511
 10
108.9634876576
 20
101.1236716012
 10
108.9746211317
 20
101.1254363019
 10
108.9857699646
 20
101.1268535429
 10
108.9969210538
 20
101.127919814
 10
109.0080612965
 20
101.1286316048
 10
109.0191775903
 20
101.1289854053
  0
LWPOLYLINE
  5
593
100
AcDbEntity
  8
CURVE
100
AcDbPolyline
 62
253
  6
CONTINUOUS
 90
32
 70
0
 10
108.2443109001
 20
101.2238553122
 10
108.2322542407
 20
101.1888184961
 10
108.22123422
 20
101.1534452989
 10
108.2112005506
 20
101.1177654297
 10
108.2021029454
 20
101.0818085976
 10
108.1938911171
 20
101.0456045118
 10
108.1865147783
 20
101.0091828815
 10
108.1799236419
 20
100.9725734156
 10
108.1740674204
 20
100.9358058235
 10
108.1688958268
 20
100.8989098141
 10
108.1643585736
 20
100.8619150967
 10
108.1604053736
 20
100.8248513804
 10
108.1569859396
 20
100.7877483743
 10
108.1527588238
 20
100.7319210847
 10
108.1495815721
 20
100.6760781008
 10
108.1474104169
 20
100.6202253998
 10
108.1462015906
 20
100.5643689591
 10
108.1459113256
 20
100.5085147557
 10
108.1464958543
 20
100.452668767
 10
108.1479114091
 20
100.3968369702
 10
108.1501142225
 20
100.3410253425
 10
108.1530605269
 20
100.2852398611
 10
108.1567065547
 20
100.2294865033
 10
108.1610085382
 20
100.1737712463
 10
108.16592271
 20
100.1181000674
 10
108.1714053024
 20
100.0624789437
 10
108.1774125479
 20
100.0069138525
 10
108.1839006788
 20
99.951410771
 10
108.1908259275
 20
99.8959756765
 10
108.1981445266
 20
99.8406145462
 10
108.2058127083
 20
99.7853333573
 10
108.2137867052
 20
99.730138087
  0
LINE
  5
594
100
AcDbEntity
  8
CURVE
100
AcDbLine
 62
253
  6
CONTINUOUS
 10
108.1799142122
 20
96.8014784314
 11
111.0791255811
 21
97.0726284314
  0
LINE
  5
595
100
AcDbEntity
  8
CURVE
100
AcDbLine
 62
253
  6
CONTINUOUS
 10
133.4848742503
 20
97.2417054314
 11
132.1850722466
 21
97.2417054314
  0
LINE
  5
596
100
AcDbEntity
  8
CURVE
100
AcDbLine
 62
253
  6
CONTINUOUS
 10
137.091467718
 20
97.7988482553
 11
137.0605200531
 21
97.7988482553
  0
LINE
  5
597
100
AcDbEntity
  8
CURVE
100
AcDbLine
 62
253
  6
CONTINUOUS
 10
133.4848742503
 20
97.7988482553
 11
132.5564442255
 21
97.7988482553
  0
LINE
  5
598
100
AcDbEntity
  8
CURVE
100
AcDbLine
 62
253
  6
CONTINUOUS
 10
132.2779152801
 20
97.7988482553
 11
132.1850722466
 21
97.7988482553
  0
LINE
  5
599
100
AcDbEntity
  8
CURVE
100
AcDbLine
 62
253
  6
CONTINUOUS
 10
137.0295723882
 20
97.9226578492
 11
137.0605200531
 21
97.9226578492
  0
LINE
  5
59A
100
AcDbEntity
  8
CURVE
100
AcDbLine
 62
253
  6
CONTINUOUS
 10
136.9986247136
 20
98.3559910793
 11
136.6272527153
 21
98.3559910793
  0
LINE
  5
59B
100
AcDbEntity
  8
CURVE
100
AcDbLine
 62
253
  6
CONTINUOUS
 10
136.3487237311
 20
98.417895915
 11
136.0701947082
 21
98.417895915
  0
LINE
  5
59C
100
AcDbEntity
  8
CURVE
100
AcDbLine
 62
253
  6
CONTINUOUS
 10
136.0701947082
 20
98.9440863985
 11
136.3487237311
 21
98.9440863985
  0
LINE
  5
59D
100
AcDbEntity
  8
CURVE
100
AcDbLine
 62
253
  6
CONTINUOUS
 10
136.6272527153
 20
99.0059910793
 11
136.9986247136
 21
99.0059910793
  0
LINE
  5
59E
100
AcDbEntity
  8
CURVE
100
AcDbLine
 62
253
  6
CONTINUOUS
 10
133.4848742503
 20
99.2226576943
 11
132.1850722466
 21
99.2226576943
  0
LINE
  5
59F
100
AcDbEntity
  8
CURVE
100
AcDbLine
 62
253
  6
CONTINUOUS
 10
117.1159550386
 20
99.1545364314
 11
120.8104031425
 21
97.9991253989
  0
LINE
  5
5A0
100
AcDbEntity
  8
CURVE
100
AcDbLine
 62
253
  6
CONTINUOUS
 10
123.9703420386
 20
94.5923954314
 11
115.3102209769
 21
99.592318467
  0
LWPOLYLINE
  5
5A1
100
AcDbEntity
  8
CURVE
100
AcDbPolyline
 62
253
  6
CONTINUOUS
 90
73
 70
0
 10
109.7086678462
 20
101.2862611414
 10
109.706854753
 20
101.2961370932
 10
109.704075014
 20
101.3057224231
 10
109.7004361846
 20
101.3150415319
 10
109.6960458202
 20
101.3241188203
 10
109.691011476
 20
101.3329786889
 10
109.6854407075
 20
101.3416455384
 10
109.67944107
 20
101.3501437695
 10
109.6731201188
 20
101.358497783
 10
109.6665854093
 20
101.3667319795
 10
109.6599444968
 20
101.3748707597
 10
109.6431660796
 20
101.3950370518
 10
109.6263037131
 20
101.4147242087
 10
109.6092648715
 20
101.4339034661
 10
109.5919570288
 20
101.4525460598
 10
109.5742876592
 20
101.4706232255
 10
109.5561642367
 20
101.488106199
 10
109.5374942354
 20
101.5049662161
 10
109.5181851295
 20
101.5211745127
 10
109.4977840318
 20
101.5369960789
 10
109.4767042506
 20
101.5521057332
 10
109.4550269263
 20
101.5664982709
 10
109.4328331994
 20
101.5801684872
 10
109.4102042102
 20
101.5931111777
 10
109.3842522231
 20
101.6068240873
 10
109.3578683678
 20
101.6195899731
 10
109.3310709863
 20
101.6313933625
 10
109.3038784203
 20
101.642218783
 10
109.2763090116
 20
101.6520507619
 10
109.2500961365
 20
101.6603687593
 10
109.2236049652
 20
101.6678038891
 10
109.1968733541
 20
101.6743630176
 10
109.1699391591
 20
101.6800530115
 10
109.1428402365
 20
101.684880737
 10
109.1156144422
 20
101.6888530606
 10
109.0854634113
 20
101.6922561694
 10
109.0552301422
 20
101.694659442
 10
109.0249408024
 20
101.6960964138
 10
108.9923679596
 20
101.6965954324
 10
108.959789773
 20
101.6960214222
 10
108.9272354104
 20
101.6943778689
 10
108.896677815
 20
101.6918545222
 10
108.8662106
 20
101.6883581707
 10
108.835877299
 20
101.6838582404
 10
108.805721446
 20
101.6783241575
 10
108.7757865747
 20
101.6717253479
 10
108.749102355
 20
101.6648621835
 10
108.7226629499
 20
101.6571065954
 10
108.6964994369
 20
101.6484511975
 10
108.6706428937
 20
101.6388886038
 10
108.6451243978
 20
101.6284114284
 10
108.6177661689
 20
101.6159634155
 10
108.5908911175
 20
101.6024492622
 10
108.5645449765
 20
101.5878954388
 10
108.5387734785
 20
101.5723284159
 10
108.5136223563
 20
101.5557746636
 10
108.4891373427
 20
101.5382606523
 10
108.4653641705
 20
101.5198128525
 10
108.4423485725
 20
101.5004577344
 10
108.4213441339
 20
101.4813687998
 10
108.4010726883
 20
101.4615208884
 10
108.3815506553
 20
101.4409407656
 10
108.3627944542
 20
101.4196551967
 10
108.3448205047
 20
101.3976909473
 10
108.3276452264
 20
101.3750747827
 10
108.3112850386
 20
101.3518334684
 10
108.2998923751
 20
101.3345123157
 10
108.2890039421
 20
101.3168722812
 10
108.2786821871
 20
101.2989124058
 10
108.2689895577
 20
101.2806317303
 10
108.2599885017
 20
101.2620292957
 10
108.2517414666
 20
101.2431041427
 10
108.2443109001
 20
101.2238553122
  0
LINE
  5
5A2
100
AcDbEntity
  8
CURVE
100
AcDbLine
 62
253
  6
CONTINUOUS
 10
112.5868999047
 20
122.3202775378
 11
112.5868999047
 21
121.9131348748
  0
LINE
  5
5A3
100
AcDbEntity
  8
CURVE
100
AcDbLine
 62
253
  6
CONTINUOUS
 10
112.5868999047
 20
119.3345635433
 11
112.5868999047
 21
118.7917062063
  0
LINE
  5
5A4
100
AcDbEntity
  8
CURVE
100
AcDbLine
 62
253
  6
CONTINUOUS
 10
112.5868999047
 20
117.9774205405
 11
112.5868999047
 21
117.5702777643
  0
LINE
  5
5A5
100
AcDbEntity
  8
CURVE
100
AcDbLine
 62
253
  6
CONTINUOUS
 10
112.5868999047
 20
120.4202775378
 11
112.5868999047
 21
120.8274206538
  0
LINE
  5
5A6
100
AcDbEntity
  8
DRAFT
100
AcDbLine
 62
7
  6
CONTINUOUS
 10
113.0879660386
 20
89.8417054314
 11
113.0879660386
 21
109.3417054314
  0
LINE
  5
5A7
100
AcDbEntity
  8
ASSI
100
AcDbLine
 62
7
  6
CONTINUOUS
 10
113.0879660386
 20
89.8417054314
 11
113.0879660386
 21
109.3417054314
  0
LINE
  5
5A8
100
AcDbEntity
  8
0
100
AcDbLine
 62
7
  6
CONTINUOUS
 10
113.1879660386
 20
89.8417054314
 11
113.1879660386
 21
109.3417054314
  0
LINE
  5
5A9
100
AcDbEntity
  8
ASSI
100
AcDbLine
 62
7
  6
CONTINUOUS
 10
113.1879660386
 20
89.8417054314
 11
113.1879660386
 21
109.3417054314
  0
LINE
  5
5AA
100
AcDbEntity
  8
CURVE
100
AcDbLine
 62
253
  6
CONTINUOUS
 10
113.4010615508
 20
119.3345635433
 11
113.4010615508
 21
119.0631348748
  0
LINE
  5
5AB
100
AcDbEntity
  8
CURVE
100
AcDbLine
 62
253
  6
CONTINUOUS
 10
113.4010615508
 20
120.4202775378
 11
113.4010615508
 21
120.8274206538
  0
LINE
  5
5AC
100
AcDbEntity
  8
CURVE
100
AcDbLine
 62
253
  6
CONTINUOUS
 10
113.6724488228
 20
117.5702777643
 11
113.6724488228
 21
118.1583730239
  0
LINE
  5
5AD
100
AcDbEntity
  8
CURVE
100
AcDbLine
 62
253
  6
CONTINUOUS
 10
111.0791255811
 20
98.9144704314
 11
110.5003397464
 21
98.7576724314
  0
LINE
  5
5AE
100
AcDbEntity
  8
CURVE
100
AcDbLine
 62
253
  6
CONTINUOUS
 10
110.0524779683
 20
98.6367094314
 11
108.9765438632
 21
98.3585794314
  0
LWPOLYLINE
  5
5AF
100
AcDbEntity
  8
CURVE
100
AcDbPolyline
 62
253
  6
CONTINUOUS
 90
59
 70
0
 10
109.0191775903
 20
101.1289854053
 10
109.0317655103
 20
101.1290186779
 10
109.0444507722
 20
101.128731552
 10
109.057216002
 20
101.128123886
 10
109.0700438262
 20
101.1271955379
 10
109.082916871
 20
101.125946366
 10
109.0958177625
 20
101.1243762286
 10
109.1087291272
 20
101.1224849837
 10
109.1216335911
 20
101.1202724896
 10
109.1345137807
 20
101.1177386046
 10
109.147352322
 20
101.1148831868
 10
109.1601318415
 20
101.1117060944
 10
109.1728349653
 20
101.1082071857
 10
109.1854443197
 20
101.1043863188
 10
109.1979425309
 20
101.1002433519
 10
109.2103122253
 20
101.0957781434
 10
109.222536029
 20
101.0909905512
 10
109.2345965683
 20
101.0858804338
 10
109.2464764695
 20
101.0804476492
 10
109.2581583588
 20
101.0746920558
 10
109.2696248624
 20
101.0686135116
 10
109.2808586068
 20
101.0622118749
 10
109.2918422179
 20
101.055487004
 10
109.3025583223
 20
101.0484387569
 10
109.312989546
 20
101.041066992
 10
109.3231185154
 20
101.0333715674
 10
109.3329278567
 20
101.0253523413
 10
109.3424001961
 20
101.017009172
 10
109.3515181599
 20
101.0083419176
 10
109.3602643744
 20
100.9993504363
 10
109.3686214659
 20
100.9900345865
 10
109.376472114
 20
100.9805285065
 10
109.3839355596
 20
100.9707214543
 10
109.3910202388
 20
100.9606282997
 10
109.3977345878
 20
100.9502639127
 10
109.4040870427
 20
100.9396431632
 10
109.4100860396
 20
100.9287809213
 10
109.4157400147
 20
100.9176920567
 10
109.4210574041
 20
100.9063914395
 10
109.4260466439
 20
100.8948939397
 10
109.4307161703
 20
100.8832144271
 10
109.4350744193
 20
100.8713677717
 10
109.4391298272
 20
100.8593688434
 10
109.4428908301
 20
100.8472325122
 10
109.446365864
 20
100.834973648
 10
109.4495633652
 20
100.8226071208
 10
109.4524917697
 20
100.8101478006
 10
109.4551595137
 20
100.7976105571
 10
109.4575750334
 20
100.7850102605
 10
109.4597467648
 20
100.7723617806
 10
109.4616831441
 20
100.7596799874
 10
109.4633926074
 20
100.7469797509
 10
109.4648835908
 20
100.7342759409
 10
109.4661645306
 20
100.7215834274
 10
109.4672438628
 20
100.7089170803
 10
109.4681300235
 20
100.6962917697
 10
109.468831449
 20
100.6837223654
 10
109.4693565752
 20
100.6712237374
 10
109.4697138384
 20
100.6588107556
  0
LINE
  5
5B0
100
AcDbEntity
  8
CURVE
100
AcDbLine
 62
253
  6
CONTINUOUS
 10
108.2137867052
 20
99.730138087
 11
111.0791259333
 21
99.730138087
  0
LINE
  5
5B1
100
AcDbEntity
  8
CURVE
100
AcDbLine
 62
253
  6
CONTINUOUS
 10
132.1850722466
 20
99.9655151028
 11
133.4848742503
 21
99.9655151028
  0
LINE
  5
5B2
100
AcDbEntity
  8
CURVE
100
AcDbLine
 62
253
  6
CONTINUOUS
 10
109.4697138384
 20
100.3129041595
 11
108.6738237177
 21
100.3129041595
  0
LINE
  5
5B3
100
AcDbEntity
  8
CURVE
100
AcDbLine
 62
253
  6
CONTINUOUS
 10
111.0791259333
 20
100.3329740482
 11
109.9445346491
 21
100.3329740482
  0
LINE
  5
5B4
100
AcDbEntity
  8
CURVE
100
AcDbLine
 62
253
  6
CONTINUOUS
 10
133.4848742503
 20
100.3369434971
 11
132.1850722466
 21
100.3369434971
  0
LINE
  5
5B5
100
AcDbEntity
  8
CURVE
100
AcDbLine
 62
253
  6
CONTINUOUS
 10
132.1850722466
 20
100.9869434971
 11
133.4848742503
 21
100.9869434971
  0
LINE
  5
5B6
100
AcDbEntity
  8
CURVE
100
AcDbLine
 62
253
  6
CONTINUOUS
 10
109.7257996594
 20
101.2862611414
 11
109.7086678462
 21
101.2862611414
  0
LINE
  5
5B7
100
AcDbEntity
  8
CURVE
100
AcDbLine
 62
253
  6
CONTINUOUS
 10
136.9986247136
 20
101.4821815628
 11
136.6272527153
 21
101.4821815628
  0
LINE
  5
5B8
100
AcDbEntity
  8
CURVE
100
AcDbLine
 62
253
  6
CONTINUOUS
 10
136.3487237311
 20
101.5440863985
 11
136.0701947082
 21
101.5440863985
  0
LINE
  5
5B9
100
AcDbEntity
  8
CURVE
100
AcDbLine
 62
253
  6
CONTINUOUS
 10
136.0701947082
 20
102.0702770371
 11
136.3487237311
 21
102.0702770371
  0
LINE
  5
5BA
100
AcDbEntity
  8
CURVE
100
AcDbLine
 62
253
  6
CONTINUOUS
 10
120.3636650386
 20
99.3560254314
 11
122.6192769792
 21
98.8857614438
  0
LINE
  5
5BB
100
AcDbEntity
  8
CURVE
100
AcDbLine
 62
253
  6
CONTINUOUS
 10
136.9057817188
 20
96.5917054314
 11
135.8845087187
 21
96.8702768627
  0
LINE
  5
5BC
100
AcDbEntity
  8
CURVE
100
AcDbLine
 62
253
  6
CONTINUOUS
 10
122.7558870386
 20
99.2431254314
 11
119.4845189817
 21
100.4936864532
  0
LINE
  5
5BD
100
AcDbEntity
  8
CURVE
100
AcDbLine
 62
253
  6
CONTINUOUS
 10
119.7074090386
 20
99.1573294314
 11
117.1159550968
 21
100.1729544086
  0
LWPOLYLINE
  5
5BE
100
AcDbEntity
  8
ASSI
100
AcDbPolyline
 62
7
  6
CONTINUOUS
 90
55
 70
0
 10
115.0888798677
 20
99.5917054314
 10
115.0993141821
 20
99.2408916014
 10
115.1296940484
 20
98.8935952461
 10
115.1800194665
 20
98.5498163654
 10
115.2505950125
 20
98.2084180934
 10
115.3411161104
 20
97.8705372961
 10
115.4506690324
 20
97.5395845714
 10
115.5794465359
 20
97.2156300881
 10
115.7272558635
 20
96.8986036774
 10
115.8926050151
 20
96.5917054314
 10
116.0756716369
 20
96.2950379297
 10
116.2762780827
 20
96.0084985928
 10
116.4923994136
 20
95.7349797733
 10
116.724192767
 20
95.4746133452
 10
116.9715010056
 20
95.2272674347
 10
117.2318277785
 20
94.9954387727
 10
117.5053049398
 20
94.7792845204
 10
117.7918006354
 20
94.5786475167
 10
118.0884229532
 20
94.3955530087
 10
118.3952744571
 20
94.2301786698
 10
118.7122525831
 20
94.0823468266
 10
119.0361577266
 20
93.9535497067
 10
119.3670600456
 20
93.8439800967
 10
119.704889382
 20
93.7534452099
 10
120.0462356574
 20
93.6828589133
 10
120.3911344918
 20
93.6324232495
 10
120.7395502652
 20
93.6019361758
 10
121.0879660386
 20
93.5917054314
 10
121.436381812
 20
93.6019361758
 10
121.7847975854
 20
93.6324232495
 10
122.1296964199
 20
93.6828589133
 10
122.4710426953
 20
93.7534452099
 10
122.8088720317
 20
93.8439800967
 10
123.1397743507
 20
93.9535497067
 10
123.4636794942
 20
94.0823468266
 10
123.7806576202
 20
94.2301786698
 10
124.0875091241
 20
94.3955530087
 10
124.3841314419
 20
94.5786475167
 10
124.6706271375
 20
94.7792845204
 10
124.9441042988
 20
94.9954387727
 10
125.2044310717
 20
95.2272674347
 10
125.4517393103
 20
95.4746133452
 10
125.6835326637
 20
95.7349797733
 10
125.8996539946
 20
96.0084985928
 10
126.1002604404
 20
96.2950379297
 10
126.2833270622
 20
96.5917054314
 10
126.4486762138
 20
96.8986036774
 10
126.5964855414
 20
97.2156300881
 10
126.7252630449
 20
97.5395845714
 10
126.8348159669
 20
97.8705372961
 10
126.9253370648
 20
98.2084180934
 10
126.9959126108
 20
98.5498163654
 10
127.0462380289
 20
98.8935952461
 10
127.0766178952
 20
99.2408916014
 10
127.0870522096
 20
99.5917054314
  0
LINE
  5
5BF
100
AcDbEntity
  8
CURVE
100
AcDbLine
 62
253
  6
CONTINUOUS
 10
114.4866105255
 20
122.5917064328
 11
114.4866105255
 21
121.6417064328
  0
LINE
  5
5C0
100
AcDbEntity
  8
CURVE
100
AcDbLine
 62
253
  6
CONTINUOUS
 10
114.4866105255
 20
120.8274206538
 11
114.4866105255
 21
120.4202775378
  0
LINE
  5
5C1
100
AcDbEntity
  8
CURVE
100
AcDbLine
 62
253
  6
CONTINUOUS
 10
114.4866105255
 20
118.7917062063
 11
114.4866105255
 21
119.4702777643
  0
LWPOLYLINE
  5
5C2
100
AcDbEntity
  8
0
100
AcDbPolyline
 62
7
  6
CONTINUOUS
 90
2
 70
0
 43
0.3500000006
 10
114.5951043091
 20
152.7351546021
 10
114.5951043091
 20
154.2351641235
  0
LINE
  5
5C3
100
AcDbEntity
  8
0
100
AcDbLine
 62
7
  6
CONTINUOUS
 10
115.5879660386
 20
85.3838634736
 11
115.5879660386
 21
85.7417054314
  0
LINE
  5
5C4
100
AcDbEntity
  8
RACCORDO
100
AcDbLine
 62
7
  6
CONTINUOUS
 10
115.5879660386
 20
85.7417054314
 11
115.5879660386
 21
87.2735748723
  0
LINE
  5
5C5
100
AcDbEntity
  8
ASSI
100
AcDbLine
 62
7
  6
CONTINUOUS
 10
115.5879660386
 20
85.7417054314
 11
115.5879660386
 21
87.2735748723
  0
LINE
  5
5C6
100
AcDbEntity
  8
RACCORDO
100
AcDbLine
 62
7
  6
CONTINUOUS
 10
115.5879660386
 20
125.9098359905
 11
115.5879660386
 21
127.4417054314
  0
LINE
  5
5C7
100
AcDbEntity
  8
ASSI
100
AcDbLine
 62
7
  6
CONTINUOUS
 10
115.5879660386
 20
125.9098359905
 11
115.5879660386
 21
127.4417054314
  0
LINE
  5
5C8
100
AcDbEntity
  8
0
100
AcDbLine
 62
7
  6
CONTINUOUS
 10
115.5879660386
 20
127.4417054314
 11
115.5879660386
 21
127.7995473891
  0
LWPOLYLINE
  5
5C9
100
AcDbEntity
  8
0
100
AcDbPolyline
 62
7
  6
CONTINUOUS
 90
4
 70
0
 43
0.3500000006
 10
115.9522424011
 20
155.092302063
 10
115.9522424011
 20
155.7351555176
 10
117.4522428589
 20
155.7351555176
 10
116.5950958557
 20
152.7351546021
  0
LINE
  5
5CA
100
AcDbEntity
  8
SMUSSO
100
AcDbLine
 62
253
  6
CONTINUOUS
 10
116.9280480514
 20
121.192007047
 11
116.9129346252
 21
120.9239048232
  0
LINE
  5
5CB
100
AcDbEntity
  8
ASSI
100
AcDbLine
 62
253
  6
CONTINUOUS
 10
116.9280480514
 20
121.192007047
 11
116.9129346252
 21
120.9239048232
  0
LWPOLYLINE
  5
5CC
100
AcDbEntity
  8
0
100
AcDbPolyline
 62
253
  6
CONTINUOUS
 90
9
 70
0
 10
109.2165358189
 20
82.6899524824
 10
109.2170677223
 20
82.6921000489
 10
109.2175159034
 20
82.6984861459
 10
109.2178726966
 20
82.7090015479
 10
109.2181319996
 20
82.7234664029
 10
109.2182893773
 20
82.7416333092
 10
109.2183421378
 20
82.7631915464
 10
109.2182893791
 20
82.7877723898
 10
109.2178727011
 20
82.8442756999
  0
LINE
  5
5CD
100
AcDbEntity
  8
CURVE
100
AcDbLine
 62
253
  6
CONTINUOUS
 10
110.5666002489
 20
101.1114898137
 11
110.690056587
 21
101.1465030694
  0
LWPOLYLINE
  5
5CE
100
AcDbEntity
  8
CURVE
100
AcDbPolyline
 62
253
  6
CONTINUOUS
 90
45
 70
0
 10
110.2270694701
 20
101.6168776007
 10
110.204656565
 20
101.6106393233
 10
110.1821865887
 20
101.6041819359
 10
110.1596128805
 20
101.5974185467
 10
110.13688878
 20
101.5902622639
 10
110.1244005243
 20
101.5861585435
 10
110.1118660835
 20
101.5819090515
 10
110.0992980552
 20
101.577511141
 10
110.0867090371
 20
101.5729621652
 10
110.0741116269
 20
101.5682594773
 10
110.0615184225
 20
101.5634004306
 10
110.0489420215
 20
101.5583823781
 10
110.0363950217
 20
101.5532026732
 10
110.0238900208
 20
101.547858669
 10
110.0114396164
 20
101.5423477188
 10
109.9990564065
 20
101.5366671756
 10
109.9867529886
 20
101.5308143928
 10
109.9745419605
 20
101.5247867234
 10
109.96243592
 20
101.5185815208
 10
109.9504474648
 20
101.5121961381
 10
109.9385891925
 20
101.5056279284
 10
109.926873701
 20
101.4988742451
 10
109.915313588
 20
101.4919324412
 10
109.9039214511
 20
101.4847998701
 10
109.8927098882
 20
101.4774738848
 10
109.8816914969
 20
101.4699518387
 10
109.8708788751
 20
101.4622310848
 10
109.8602846203
 20
101.4543089764
 10
109.8499213304
 20
101.4461828667
 10
109.8398016031
 20
101.4378501089
 10
109.8299380361
 20
101.4293080561
 10
109.8203432271
 20
101.4205540616
 10
109.8110297739
 20
101.4115854786
 10
109.8020102742
 20
101.4023996603
 10
109.7932973257
 20
101.3929939598
 10
109.7849035262
 20
101.3833657304
 10
109.7768414734
 20
101.3735123253
 10
109.769123765
 20
101.3634310976
 10
109.7617629987
 20
101.3531194006
 10
109.7547717723
 20
101.3425745874
 10
109.7481626836
 20
101.3317940113
 10
109.7419483302
 20
101.3207750254
 10
109.7361413099
 20
101.309514983
 10
109.7307542203
 20
101.2980112373
 10
109.7257996594
 20
101.2862611414
  0
LINE
  5
5CF
100
AcDbEntity
  8
CURVE
100
AcDbLine
 62
253
  6
CONTINUOUS
 10
111.0791259333
 20
101.8420644166
 11
111.0274000551
 21
101.8281537085
  0
LWPOLYLINE
  5
5D0
100
AcDbEntity
  8
CURVE
100
AcDbPolyline
 62
253
  6
CONTINUOUS
 90
4
 70
0
 10
110.6088996279
 20
101.7188226516
 10
110.5039866758
 20
101.6912688451
 10
110.3991537734
 20
101.6634161372
 10
110.2270694701
 20
101.6168776007
  0
LINE
  5
5D1
100
AcDbEntity
  8
CURVE
100
AcDbLine
 62
253
  6
CONTINUOUS
 10
111.0274000551
 20
101.8281537085
 11
110.9238043335
 21
101.8008690268
  0
LINE
  5
5D2
100
AcDbEntity
  8
CURVE
100
AcDbLine
 62
253
  6
CONTINUOUS
 10
110.9238043335
 20
101.8008690268
 11
110.6088996279
 21
101.7188226516
  0
LINE
  5
5D3
100
AcDbEntity
  8
CURVE
100
AcDbLine
 62
253
  6
CONTINUOUS
 10
136.6272527153
 20
102.1321815628
 11
136.9986247136
 21
102.1321815628
  0
LINE
  5
5D4
100
AcDbEntity
  8
CURVE
100
AcDbLine
 62
253
  6
CONTINUOUS
 10
136.8129387047
 20
102.5036099571
 11
136.2558806976
 21
102.5036099571
  0
LINE
  5
5D5
100
AcDbEntity
  8
CURVE
100
AcDbLine
 62
253
  6
CONTINUOUS
 10
136.2558806976
 20
103.1536099571
 11
136.8129387047
 21
103.1536099571
  0
LINE
  5
5D6
100
AcDbEntity
  8
CURVE
100
AcDbLine
 62
253
  6
CONTINUOUS
 10
137.1843107224
 20
103.5250389714
 11
136.2558806976
 21
103.5250389714
  0
LINE
  5
5D7
100
AcDbEntity
  8
CURVE
100
AcDbLine
 62
253
  6
CONTINUOUS
 10
136.2558806976
 20
103.9274196286
 11
137.1843107224
 21
103.9274196286
  0
LINE
  5
5D8
100
AcDbEntity
  8
CURVE
100
AcDbLine
 62
253
  6
CONTINUOUS
 10
136.3487237311
 20
104.3607531685
 11
137.1843107224
 21
104.3607531685
  0
LINE
  5
5D9
100
AcDbEntity
  8
CURVE
100
AcDbLine
 62
253
  6
CONTINUOUS
 10
132.1850722466
 20
97.8298006732
 11
132.2779152801
 21
97.7988482553
  0
LINE
  5
5DA
100
AcDbEntity
  8
CURVE
100
AcDbLine
 62
253
  6
CONTINUOUS
 10
137.0605200531
 20
97.9226578492
 11
137.1533630551
 21
97.8917054314
  0
LWPOLYLINE
  5
5DB
100
AcDbEntity
  8
0
100
AcDbPolyline
 62
253
  6
CONTINUOUS
 90
7
 70
0
 10
109.2165358189
 20
130.4934583804
 10
109.2170676926
 20
130.4913109273
 10
109.2175158536
 20
130.4849251261
 10
109.2178726357
 20
130.4744101346
 10
109.2181319352
 20
130.459945741
 10
109.218289316
 20
130.4417792769
 10
109.2183420847
 20
130.4202213772
  0
LINE
  5
5DC
100
AcDbEntity
  8
SMUSSO
100
AcDbLine
 62
253
  6
CONTINUOUS
 10
116.8379374809
 20
114.3351605298
 11
116.8530509072
 21
114.067058306
  0
LINE
  5
5DD
100
AcDbEntity
  8
ASSI
100
AcDbLine
 62
253
  6
CONTINUOUS
 10
116.8379374809
 20
114.3351605298
 11
116.8530509072
 21
114.067058306
  0
LINE
  5
5DE
100
AcDbEntity
  8
SMUSSO
100
AcDbLine
 62
253
  6
CONTINUOUS
 10
116.9129346252
 20
119.2595060396
 11
116.9280480514
 21
118.9914038158
  0
LINE
  5
5DF
100
AcDbEntity
  8
ASSI
100
AcDbLine
 62
253
  6
CONTINUOUS
 10
116.9129346252
 20
119.2595060396
 11
116.9280480514
 21
118.9914038158
  0
LINE
  5
5E0
100
AcDbEntity
  8
CURVE
100
AcDbLine
 62
253
  6
CONTINUOUS
 10
117.1159550386
 20
100.1729544314
 11
117.1159550386
 21
99.1545364461
  0
LINE
  5
5E1
100
AcDbEntity
  8
SMUSSO
100
AcDbLine
 62
253
  6
CONTINUOUS
 10
116.8530509072
 20
116.1163525568
 11
116.8379374809
 21
115.848250333
  0
LINE
  5
5E2
100
AcDbEntity
  8
ASSI
100
AcDbLine
 62
253
  6
CONTINUOUS
 10
116.8530509072
 20
116.1163525568
 11
116.8379374809
 21
115.848250333
  0
LWPOLYLINE
  5
5E3
100
AcDbEntity
  8
0
100
AcDbPolyline
 62
253
  6
CONTINUOUS
 90
6
 70
0
 10
104.4441083425
 20
82.9275486678
 10
104.4510160311
 20
82.9401684769
 10
104.4564338287
 20
82.9502586126
 10
104.460270061
 20
82.9576483403
 10
104.4624598152
 20
82.9622126184
 10
104.4629660386
 20
82.963874215
  0
LINE
  5
5E4
100
AcDbEntity
  8
0
100
AcDbLine
 62
253
  6
CONTINUOUS
 10
104.4263140641
 20
82.8956133784
 11
104.4441083425
 21
82.9275486678
  0
LINE
  5
5E5
100
AcDbEntity
  8
0
100
AcDbLine
 62
253
  6
CONTINUOUS
 10
104.4042502844
 20
82.8566051045
 11
104.4263140641
 21
82.8956133784
  0
LINE
  5
5E6
100
AcDbEntity
  8
0
100
AcDbLine
 62
253
  6
CONTINUOUS
 10
104.3664565199
 20
82.7906691343
 11
104.4042502844
 21
82.8566051045
  0
LINE
  5
5E7
100
AcDbEntity
  8
CURVE
100
AcDbLine
 62
253
  6
CONTINUOUS
 10
137.1843107224
 20
105.8464673657
 11
135.8845087187
 21
105.8464673657
  0
LINE
  5
5E8
100
AcDbEntity
  8
ASSI
100
AcDbLine
 62
7
  6
CONTINUOUS
 10
113.1879660386
 20
106.3417054314
 11
113.0879660386
 21
106.3417054314
  0
LINE
  5
5E9
100
AcDbEntity
  8
CURVE
100
AcDbLine
 62
253
  6
CONTINUOUS
 10
136.3487237311
 20
106.4036099571
 11
137.1843107224
 21
106.4036099571
  0
LINE
  5
5EA
100
AcDbEntity
  8
CURVE
100
AcDbLine
 62
253
  6
CONTINUOUS
 10
137.1843107224
 20
99.7488483328
 11
135.8845087187
 21
100.1202767271
  0
LINE
  5
5EB
100
AcDbEntity
  8
CURVE
100
AcDbLine
 62
253
  6
CONTINUOUS
 10
132.9278162432
 20
99.5940863985
 11
132.1850722466
 21
99.9655151028
  0
LINE
  5
5EC
100
AcDbEntity
  8
0
100
AcDbLine
 62
253
  6
CONTINUOUS
 10
111.0952499291
 20
112.5782914314
 11
108.1873508837
 21
115.0851104314
  0
LINE
  5
5ED
100
AcDbEntity
  8
0
100
AcDbLine
 62
253
  6
CONTINUOUS
 10
108.489971786
 20
115.0904304314
 11
111.0952499291
 21
112.8445154314
  0
LINE
  5
5EE
100
AcDbEntity
  8
0
100
AcDbLine
 62
253
  6
CONTINUOUS
 10
104.3664565199
 20
130.3927417285
 11
104.4042492142
 21
130.3268075495
  0
LINE
  5
5EF
100
AcDbEntity
  8
0
100
AcDbLine
 62
253
  6
CONTINUOUS
 10
104.4042492142
 20
130.3268075495
 11
104.4263128417
 21
130.2877995484
  0
LWPOLYLINE
  5
5F0
100
AcDbEntity
  8
0
100
AcDbPolyline
 62
253
  6
CONTINUOUS
 90
7
 70
0
 10
104.4263128417
 20
130.2877995484
 10
104.4441074179
 20
130.2558637679
 10
104.451015358
 20
130.2432435362
 10
104.4564334067
 20
130.233152976
 10
104.4602698545
 20
130.2257628823
 10
104.4624597614
 20
130.2211983446
 10
104.4629660431
 20
130.2195366503
  0
LINE
  5
5F1
100
AcDbEntity
  8
CURVE
100
AcDbLine
 62
253
  6
CONTINUOUS
 10
120.8104030386
 20
97.9991254314
 11
120.3636650468
 21
99.3560254065
  0
LINE
  5
5F2
100
AcDbEntity
  8
CURVE
100
AcDbLine
 62
253
  6
CONTINUOUS
 10
119.4845190386
 20
100.4936864314
 11
119.707409036
 21
99.1573294475
  0
LWPOLYLINE
  5
5F3
100
AcDbEntity
  8
CURVE
100
AcDbPolyline
 62
253
  6
CONTINUOUS
 90
8
 70
0
 10
110.1999899845
 20
100.9951933959
 10
110.2401111157
 20
101.0099053886
 10
110.2804388648
 20
101.0240176938
 10
110.3209503965
 20
101.0375955166
 10
110.3616228755
 20
101.0507040623
 10
110.4024334668
 20
101.0634085359
 10
110.443359335
 20
101.0757741427
 10
110.4843776449
 20
101.0878660878
  0
LINE
  5
5F4
100
AcDbEntity
  8
ASSI
100
AcDbLine
 62
7
  6
CONTINUOUS
 10
113.1879660386
 20
108.3417054314
 11
113.0879660386
 21
108.3417054314
  0
LINE
  5
5F5
100
AcDbEntity
  8
0
100
AcDbLine
 62
7
  6
CONTINUOUS
 10
113.1879660386
 20
109.2917054314
 11
140.0879660386
 21
109.2917054314
  0
LINE
  5
5F6
100
AcDbEntity
  8
ASSI
100
AcDbLine
 62
7
  6
CONTINUOUS
 10
113.1879660386
 20
109.2917054314
 11
140.0879660386
 21
109.2917054314
  0
LINE
  5
5F7
100
AcDbEntity
  8
CURVE
100
AcDbLine
 62
253
  6
CONTINUOUS
 10
137.0605200531
 20
97.7988482553
 11
136.9986247136
 21
97.8298006732
  0
LINE
  5
5F8
100
AcDbEntity
  8
CURVE
100
AcDbLine
 62
253
  6
CONTINUOUS
 10
137.1533630551
 20
97.8917054314
 11
137.2771537268
 21
97.8298006732
  0
LINE
  5
5F9
100
AcDbEntity
  8
0
100
AcDbLine
 62
253
  6
CONTINUOUS
 10
109.64304914
 20
118.5084954314
 11
108.1873508837
 21
119.9644154314
  0
LINE
  5
5FA
100
AcDbEntity
  8
0
100
AcDbLine
 62
253
  6
CONTINUOUS
 10
108.1873508837
 20
120.2495364314
 11
109.64304914
 21
118.7936624314
  0
LINE
  5
5FB
100
AcDbEntity
  8
CURVE
100
AcDbLine
 62
253
  6
CONTINUOUS
 10
113.4010615508
 20
119.3345635433
 11
113.2653679998
 21
119.5607538361
  0
LINE
  5
5FC
100
AcDbEntity
  8
CURVE
100
AcDbLine
 62
253
  6
CONTINUOUS
 10
123.6231780386
 20
98.7067884314
 11
122.9780270371
 21
99.824223434
  0
LWPOLYLINE
  5
5FD
100
AcDbEntity
  8
0
100
AcDbPolyline
 62
7
  6
CONTINUOUS
 90
4
 70
0
 43
0.3500000006
 10
122.9808224487
 20
145.0922990112
 10
122.9808224487
 20
145.7351705933
 10
124.4808229065
 20
145.7351705933
 10
123.6236759033
 20
142.7351696777
  0
LINE
  5
5FE
100
AcDbEntity
  8
CURVE
100
AcDbLine
 62
253
  6
CONTINUOUS
 10
115.3102210386
 20
99.5923184314
 11
123.9703422158
 21
104.5922405337
  0
LINE
  5
5FF
100
AcDbEntity
  8
CURVE
100
AcDbLine
 62
253
  6
CONTINUOUS
 10
108.1799142122
 20
98.6627154314
 11
111.0791255811
 21
99.5524014314
  0
LINE
  5
600
100
AcDbEntity
  8
CURVE
100
AcDbLine
 62
253
  6
CONTINUOUS
 10
110.9818404849
 20
101.2316245341
 11
111.0791259333
 21
101.2598636931
  0
LWPOLYLINE
  5
601
100
AcDbEntity
  8
CURVE
100
AcDbPolyline
 62
253
  6
CONTINUOUS
 90
3
 70
0
 10
110.690056587
 20
101.1465030694
 10
110.7874183095
 20
101.1746322612
 10
110.9818404849
 20
101.2316245341
  0
LINE
  5
602
100
AcDbEntity
  8
CURVE
100
AcDbLine
 62
253
  6
CONTINUOUS
 10
110.4843776449
 20
101.0878660878
 11
110.5666002489
 21
101.1114898137
  0
LINE
  5
603
100
AcDbEntity
  8
RACCORDO
100
AcDbLine
 62
7
  6
CONTINUOUS
 10
141.5879660386
 20
110.3404211634
 11
140.0879660386
 21
110.3273308617
  0
LINE
  5
604
100
AcDbEntity
  8
ASSI
100
AcDbLine
 62
7
  6
CONTINUOUS
 10
141.5879660386
 20
110.3404211634
 11
140.0879660386
 21
110.3273308617
  0
LINE
  5
605
100
AcDbEntity
  8
DRAFT
100
AcDbLine
 62
7
  6
CONTINUOUS
 10
113.0879660386
 20
109.3417054314
 11
140.0879660386
 21
109.3417054314
  0
LINE
  5
606
100
AcDbEntity
  8
ASSI
100
AcDbLine
 62
7
  6
CONTINUOUS
 10
113.0879660386
 20
109.3417054314
 11
140.0879660386
 21
109.3417054314
  0
LINE
  5
607
100
AcDbEntity
  8
0
100
AcDbLine
 62
7
  6
CONTINUOUS
 10
140.0879660386
 20
110.0417054314
 11
141.5879660386
 21
110.0417054314
  0
LINE
  5
608
100
AcDbEntity
  8
ASSI
100
AcDbLine
 62
7
  6
CONTINUOUS
 10
140.0879660386
 20
110.0417054314
 11
141.5879660386
 21
110.0417054314
  0
LINE
  5
609
100
AcDbEntity
  8
CURVE
100
AcDbLine
 62
253
  6
CONTINUOUS
 10
137.1843107224
 20
104.7321815628
 11
135.8845087187
 21
105.1036099571
  0
LINE
  5
60A
100
AcDbEntity
  8
CURVE
100
AcDbLine
 62
253
  6
CONTINUOUS
 10
136.2558806976
 20
102.5036099571
 11
136.0701947082
 21
102.5964673657
  0
LINE
  5
60B
100
AcDbEntity
  8
CURVE
100
AcDbLine
 62
253
  6
CONTINUOUS
 10
136.0701947082
 20
98.417895915
 11
135.8845087187
 21
98.5417054314
  0
LINE
  5
60C
100
AcDbEntity
  8
0
100
AcDbLine
 62
253
  6
CONTINUOUS
 10
107.9090352789
 20
121.2894124314
 11
107.2088759329
 21
121.9896794314
  0
LINE
  5
60D
100
AcDbEntity
  8
CURVE
100
AcDbLine
 62
253
  6
CONTINUOUS
 10
113.1296743355
 20
116.2131348748
 11
112.5868999047
 21
116.7559920419
  0
LINE
  5
60E
100
AcDbEntity
  8
0
100
AcDbLine
 62
253
  6
CONTINUOUS
 10
107.2088759329
 20
122.2747994314
 11
107.9090352789
 21
121.5745564314
  0
LINE
  5
60F
100
AcDbEntity
  8
CURVE
100
AcDbLine
 62
253
  6
CONTINUOUS
 10
112.5868999047
 20
117.5702777643
 11
112.8582871201
 21
117.298849209
  0
LINE
  5
610
100
AcDbEntity
  8
CURVE
100
AcDbLine
 62
253
  6
CONTINUOUS
 10
114.4866105255
 20
117.5702777643
 11
113.9438360382
 21
118.1131348748
  0
LINE
  5
611
100
AcDbEntity
  8
CURVE
100
AcDbLine
 62
253
  6
CONTINUOUS
 10
113.2653679998
 20
121.0083727974
 11
113.4010615508
 21
120.8274206538
  0
LINE
  5
612
100
AcDbEntity
  8
CURVE
100
AcDbLine
 62
253
  6
CONTINUOUS
 10
123.9703420386
 20
104.5922404314
 11
123.9703420386
 21
94.5923953986
  0
LINE
  5
613
100
AcDbEntity
  8
CURVE
100
AcDbLine
 62
253
  6
CONTINUOUS
 10
122.9780270386
 20
99.8242234314
 11
122.755887036
 21
99.2431254244
  0
LINE
  5
614
100
AcDbEntity
  8
CURVE
100
AcDbLine
 62
253
  6
CONTINUOUS
 10
122.6192770386
 20
98.8857614314
 11
122.3971370347
 21
98.3046634211
  0
LINE
  5
615
100
AcDbEntity
  8
CURVE
100
AcDbLine
 62
253
  6
CONTINUOUS
 10
108.1799142122
 20
94.9984714314
 11
109.7895650173
 21
95.5973504314
  0
LINE
  5
616
100
AcDbEntity
  8
CURVE
100
AcDbLine
 62
253
  6
CONTINUOUS
 10
135.8845087187
 20
105.1036099571
 11
137.1843107224
 21
105.4750389714
  0
LWPOLYLINE
  5
617
100
AcDbEntity
  8
SMUSSO
100
AcDbPolyline
 62
7
  6
CONTINUOUS
 90
200
 70
0
 10
116.8530509072
 20
114.067058306
 10
116.8427074366
 20
114.0670250654
 10
116.8323742642
 20
114.0670956271
 10
116.8220513899
 20
114.067269991
 10
116.811738817
 20
114.0675483521
 10
116.8014365422
 20
114.0679305155
 10
116.7911445558
 20
114.0684158958
 10
116.7808630007
 20
114.0690043827
 10
116.7705917339
 20
114.0696960866
 10
116.760330317
 20
114.0704907535
 10
116.7500799403
 20
114.0713881007
 10
116.7398394134
 20
114.0723884108
 10
116.729604727
 20
114.0734922782
 10
116.7193719385
 20
114.07470013
 10
116.7091449905
 20
114.076011539
 10
116.6989317014
 20
114.077425818
 10
116.688731251
 20
114.0789433611
 10
116.6785444595
 20
114.0805637741
 10
116.6683816061
 20
114.0822851873
 10
116.658247253
 20
114.0841068519
 10
116.6481368379
 20
114.0860295166
 10
116.6380469533
 20
114.0880535577
 10
116.6279753785
 20
114.0901793345
 10
116.6179243341
 20
114.0924064876
 10
116.6078970746
 20
114.0947343158
 10
116.5978927283
 20
114.097163124
 10
116.5879121669
 20
114.0996926073
 10
116.5779612591
 20
114.1023211498
 10
116.5680434493
 20
114.1050477556
 10
116.5581552931
 20
114.1078734207
 10
116.5482923268
 20
114.1107995176
 10
116.5384505727
 20
114.1138272149
 10
116.5286340084
 20
114.1169553441
 10
116.5188501035
 20
114.1201817717
 10
116.5090982152
 20
114.1235069921
 10
116.4993789864
 20
114.126930511
 10
116.4897018145
 20
114.1304487118
 10
116.4800710995
 20
114.1340600004
 10
116.4704824414
 20
114.137765971
 10
116.4609320383
 20
114.1415677898
 10
116.4514174718
 20
114.1454663277
 10
116.4419411603
 20
114.1494607139
 10
116.4325065565
 20
114.153549502
 10
116.4231133587
 20
114.1577329105
 10
116.4137618688
 20
114.1620107208
 10
116.4044564451
 20
114.1663808307
 10
116.3951999262
 20
114.1708417887
 10
116.3859894735
 20
114.1753950463
 10
116.3768209301
 20
114.1800428558
 10
116.3676901145
 20
114.1847873628
 10
116.3586012082
 20
114.1896264217
 10
116.3495625978
 20
114.1945558484
 10
116.3405742839
 20
114.1995759762
 10
116.331636266
 20
114.2046864718
 10
116.3227569282
 20
114.2098821505
 10
116.3139404005
 20
114.2151605837
 10
116.305182553
 20
114.2205242001
 10
116.2964793807
 20
114.2259751013
 10
116.287828376
 20
114.2315147577
 10
116.2792320465
 20
114.2371416989
 10
116.2706939093
 20
114.2428536158
 10
116.2622141021
 20
114.248650498
 10
116.2537924873
 20
114.2545323559
 10
116.24543217
 20
114.2604969114
 10
116.2371352801
 20
114.2665425038
 10
116.2288996877
 20
114.2726707938
 10
116.2207221074
 20
114.2788844849
 10
116.2125987604
 20
114.2851865087
 10
116.2045334256
 20
114.2915739336
 10
116.1965341543
 20
114.298040669
 10
116.1886014947
 20
114.3045866324
 10
116.1807348986
 20
114.3112119063
 10
116.1729407729
 20
114.3179106471
 10
116.1652224972
 20
114.3246798997
 10
116.1575766918
 20
114.3315226192
 10
116.1499996248
 20
114.3384418271
 10
116.1424887478
 20
114.3454397633
 10
116.1350466092
 20
114.3525141879
 10
116.1276771213
 20
114.3596614027
 10
116.1203807811
 20
114.3668810415
 10
116.1131570917
 20
114.3741734704
 10
116.1060084748
 20
114.3815360898
 10
116.0989365296
 20
114.3889670984
 10
116.091939657
 20
114.3964682974
 10
116.0850154811
 20
114.4040424903
 10
116.0781609913
 20
114.411693051
 10
116.0713791982
 20
114.4194166057
 10
116.0646767584
 20
114.427205836
 10
116.0580545567
 20
114.4350600707
 10
116.0515117082
 20
114.4429799812
 10
116.0450522148
 20
114.4509602637
 10
116.0386783583
 20
114.4589979902
 10
116.0323878567
 20
114.4670960887
 10
116.0261778663
 20
114.4752580398
 10
116.0200460093
 20
114.4834869376
 10
116.0139946634
 20
114.4917796879
 10
116.008028118
 20
114.5001304886
 10
116.0021471391
 20
114.5085384768
 10
115.9963509606
 20
114.5170045155
 10
115.9906415733
 20
114.525525392
 10
115.9850202068
 20
114.5340991017
 10
115.9794856314
 20
114.5427276493
 10
115.9740361487
 20
114.5514138364
 10
115.9686696481
 20
114.5601610999
 10
115.9633882403
 20
114.5689660029
 10
115.958196559
 20
114.5778210362
 10
115.9530955592
 20
114.5867248771
 10
115.9480842859
 20
114.5956788484
 10
115.9431645073
 20
114.6046794086
 10
115.938337308
 20
114.6137243807
 10
115.9336016035
 20
114.6228159418
 10
115.9289559078
 20
114.6319570823
 10
115.9243983311
 20
114.6411516346
 10
115.9199307633
 20
114.6503957663
 10
115.915557388
 20
114.6596809698
 10
115.9112791195
 20
114.6690057054
 10
115.9070950435
 20
114.6783715127
 10
115.9030066007
 20
114.6877745032
 10
115.8990146879
 20
114.697212399
 10
115.8951184083
 20
114.706687478
 10
115.8913165123
 20
114.7162026857
 10
115.887607698
 20
114.7257613052
 10
115.8839932673
 20
114.7353600533
 10
115.8804758762
 20
114.7449920262
 10
115.877056292
 20
114.7546553282
 10
115.8737337473
 20
114.7643518549
 10
115.8705085956
 20
114.7740803887
 10
115.8673810257
 20
114.7838400408
 10
115.8643508487
 20
114.7936316999
 10
115.8614178522
 20
114.8034568146
 10
115.858580943
 20
114.8133194848
 10
115.8558412142
 20
114.8232156105
 10
115.8532017325
 20
114.8331343401
 10
115.8506633299
 20
114.8430733105
 10
115.8482251743
 20
114.8530348848
 10
115.8458878361
 20
114.8630152998
 10
115.8436517461
 20
114.8730123295
 10
115.8415164734
 20
114.8830281999
 10
115.8394812953
 20
114.8930658257
 10
115.8375455765
 20
114.9031283067
 10
115.8357099522
 20
114.9132125431
 10
115.8339756054
 20
114.9233121493
 10
115.8323429565
 20
114.9334247344
 10
115.830811585
 20
114.9435526893
 10
115.8293814126
 20
114.9536968012
 10
115.8280522807
 20
114.9638575256
 10
115.8268243479
 20
114.974034407
 10
115.8256980109
 20
114.9842268667
 10
115.8246730282
 20
114.9944387644
 10
115.8237496413
 20
115.0046662404
 10
115.8229289726
 20
115.0148971371
 10
115.8222114659
 20
115.0251282558
 10
115.8215966773
 20
115.0353627953
 10
115.821084398
 20
115.0455981938
 10
115.8206746135
 20
115.0558328475
 10
115.8203673382
 20
115.0660683602
 10
115.8201624063
 20
115.0763069818
 10
115.8200597623
 20
115.0865515318
 10
115.8200594616
 20
115.0967991907
 10
115.8201615045
 20
115.1070437491
 10
115.8203658359
 20
115.1172823888
 10
115.8206725109
 20
115.127517928
 10
115.8210816951
 20
115.1377526123
 10
115.821593374
 20
115.1479880419
 10
115.8222075621
 20
115.1582226165
 10
115.8229244692
 20
115.1684537812
 10
115.8237445389
 20
115.1786847379
 10
115.8246673275
 20
115.1889122846
 10
115.8256917133
 20
115.1991242597
 10
115.8268174554
 20
115.2093168055
 10
115.8280447946
 20
115.2194937797
 10
115.8293733327
 20
115.2296545935
 10
115.8308029103
 20
115.2397987854
 10
115.8323336867
 20
115.2499268169
 10
115.8339657412
 20
115.2600394843
 10
115.8356994941
 20
115.2701391799
 10
115.837534525
 20
115.2802235114
 10
115.8394696526
 20
115.2902860978
 10
115.8415042419
 20
115.3003238406
 10
115.8436389277
 20
115.3103398383
 10
115.8458744329
 20
115.3203370047
 10
115.8482111882
 20
115.3303175651
 10
115.8506487629
 20
115.3402792944
 10
115.8531865877
 20
115.3502184309
 10
115.8558254956
 20
115.3601373409
 10
115.8585646536
 20
115.3700336582
 10
115.8614009938
 20
115.3798965229
 10
115.8643334238
 20
115.3897218353
 10
115.8673630358
 20
115.3995136951
 10
115.870490039
 20
115.4092735419
 10
115.8737146197
 20
115.4190022576
 10
115.8770365915
 20
115.4286989602
 10
115.8804556042
 20
115.4383624432
 10
115.8839724254
 20
115.4479946039
 10
115.8875862875
 20
115.457593545
 10
115.8912945373
 20
115.4671523681
 10
115.895095874
 20
115.4766677923
 10
115.8989915985
 20
115.4861430984
 10
115.9029829605
 20
115.4955812317
 10
115.9070708567
 20
115.5049844699
  0
LWPOLYLINE
  5
618
100
AcDbEntity
  8
SMUSSO
100
AcDbPolyline
 62
7
  6
CONTINUOUS
 90
117
 70
0
 10
115.9070708567
 20
115.5049844699
 10
115.9112543904
 20
115.5143505353
 10
115.9155321215
 20
115.5236755386
 10
115.9199049655
 20
115.5329610221
 10
115.9243720068
 20
115.5422054436
 10
115.9289290587
 20
115.5514002876
 10
115.9335742313
 20
115.5605417203
 10
115.9383094144
 20
115.5696335753
 10
115.9431360907
 20
115.5786788387
 10
115.9480553423
 20
115.5876796834
 10
115.9530660871
 20
115.5966339363
 10
115.9581665612
 20
115.6055380645
 10
115.9633577209
 20
115.6143933931
 10
115.96863861
 20
115.6231985969
 10
115.9740045961
 20
115.6319461679
 10
115.9794535697
 20
115.6406326705
 10
115.9849876404
 20
115.6492615402
 10
115.9906085043
 20
115.6578355756
 10
115.9963173893
 20
115.6663567791
 10
116.0021130675
 20
115.6748231483
 10
116.007993551
 20
115.6832314742
 10
116.0139596071
 20
115.6915826218
 10
116.0200104687
 20
115.6998757263
 10
116.0261418463
 20
115.7081049845
 10
116.0323513624
 20
115.7162673018
 10
116.0386413945
 20
115.724365773
 10
116.0450147869
 20
115.7324038788
 10
116.0514738214
 20
115.7403845475
 10
116.058016216
 20
115.7483048508
 10
116.0646379698
 20
115.7561594848
 10
116.0713399696
 20
115.7639491232
 10
116.0781213286
 20
115.7716730923
 10
116.0849753841
 20
115.7793240665
 10
116.0918991252
 20
115.7868986708
 10
116.098895563
 20
115.7944002802
 10
116.1059670682
 20
115.8018316945
 10
116.113115235
 20
115.8091947102
 10
116.1203384694
 20
115.8164875308
 10
116.1276343593
 20
115.8237075671
 10
116.1350034025
 20
115.8308551866
 10
116.1424451013
 20
115.8379300218
 10
116.1499555508
 20
115.8449283804
 10
116.1575322046
 20
115.8518480241
 10
116.1651776092
 20
115.8586911913
 10
116.1728954998
 20
115.8654609051
 10
116.1806892597
 20
115.8721601238
 10
116.1885555056
 20
115.8787858892
 10
116.196487823
 20
115.8853323494
 10
116.2044867629
 20
115.8917995883
 10
116.2125517742
 20
115.898187522
 10
116.2206747891
 20
115.9044900468
 10
116.2288520248
 20
115.9107042272
 10
116.2370872642
 20
115.9168329988
 10
116.2453837875
 20
115.9228790639
 10
116.253743717
 20
115.9288440782
 10
116.2621649306
 20
115.9347263862
 10
116.2706443422
 20
115.9405237238
 10
116.2791820905
 20
115.9462361032
 10
116.2877780368
 20
115.9518635122
 10
116.2964286792
 20
115.9574036504
 10
116.3051315149
 20
115.9628550504
 10
116.3138890466
 20
115.9682191797
 10
116.3227052815
 20
115.9734981391
 10
116.3315843542
 20
115.9786943602
 10
116.34052213
 20
115.9838054115
 10
116.3495102119
 20
115.9888260992
 10
116.3585486071
 20
115.9937560922
 10
116.3676373083
 20
115.9985957215
 10
116.3767678963
 20
116.0033407865
 10
116.3859361865
 20
116.0079891381
 10
116.3951463635
 20
116.0125429252
 10
116.4044025623
 20
116.017004394
 10
116.4137075771
 20
116.0213749772
 10
116.4230586137
 20
116.0256532421
 10
116.4324514241
 20
116.0298371359
 10
116.4418857056
 20
116.033926445
 10
116.4513617609
 20
116.037921383
 10
116.4608762506
 20
116.0418205389
 10
116.4704267977
 20
116.0456230605
 10
116.4800157791
 20
116.0493297998
 10
116.4896469861
 20
116.0529419022
 10
116.4993248481
 20
116.0564609704
 10
116.5090449357
 20
116.0598854015
 10
116.5187977518
 20
116.0632115327
 10
116.5285826414
 20
116.0664388616
 10
116.5384002596
 20
116.0695678905
 10
116.5482430746
 20
116.0725964633
 10
116.5581070697
 20
116.0755233991
 10
116.5679962616
 20
116.0783498788
 10
116.5779151691
 20
116.0810772886
 10
116.5878672988
 20
116.08370664
 10
116.597849144
 20
116.0862369215
 10
116.6078547033
 20
116.0886664848
 10
116.6178831291
 20
116.0909950238
 10
116.627935269
 20
116.0932228446
 10
116.6380076643
 20
116.0953492177
 10
116.6480980224
 20
116.0973737652
 10
116.658208636
 20
116.099296865
 10
116.6683429237
 20
116.1011189214
 10
116.6785052938
 20
116.1028406666
 10
116.6886913382
 20
116.1044613683
 10
116.6988912508
 20
116.1059792346
 10
116.7091042552
 20
116.1073938942
 10
116.719331128
 20
116.1087057185
 10
116.7295643922
 20
116.109914029
 10
116.7398002762
 20
116.1110184211
 10
116.7500425517
 20
116.1120192994
 10
116.7602950573
 20
116.1129171999
 10
116.7705589319
 20
116.1137123971
 10
116.7808330365
 20
116.1144046165
 10
116.7911177928
 20
116.1149935695
 10
116.8014133395
 20
116.1154793661
 10
116.8117195378
 20
116.1158618963
 10
116.8220363931
 20
116.1161405423
 10
116.8323639074
 20
116.1163150981
 10
116.8427020787
 20
116.1163857696
 10
116.8530509072
 20
116.1163525568
  0
LWPOLYLINE
  5
619
100
AcDbEntity
  8
ASSI
100
AcDbPolyline
 62
7
  6
CONTINUOUS
 90
200
 70
0
 10
116.8530509072
 20
114.067058306
 10
116.8427074366
 20
114.0670250654
 10
116.8323742642
 20
114.0670956271
 10
116.8220513899
 20
114.067269991
 10
116.811738817
 20
114.0675483521
 10
116.8014365422
 20
114.0679305155
 10
116.7911445558
 20
114.0684158958
 10
116.7808630007
 20
114.0690043827
 10
116.7705917339
 20
114.0696960866
 10
116.760330317
 20
114.0704907535
 10
116.7500799403
 20
114.0713881007
 10
116.7398394134
 20
114.0723884108
 10
116.729604727
 20
114.0734922782
 10
116.7193719385
 20
114.07470013
 10
116.7091449905
 20
114.076011539
 10
116.6989317014
 20
114.077425818
 10
116.688731251
 20
114.0789433611
 10
116.6785444595
 20
114.0805637741
 10
116.6683816061
 20
114.0822851873
 10
116.658247253
 20
114.0841068519
 10
116.6481368379
 20
114.0860295166
 10
116.6380469533
 20
114.0880535577
 10
116.6279753785
 20
114.0901793345
 10
116.6179243341
 20
114.0924064876
 10
116.6078970746
 20
114.0947343158
 10
116.5978927283
 20
114.097163124
 10
116.5879121669
 20
114.0996926073
 10
116.5779612591
 20
114.1023211498
 10
116.5680434493
 20
114.1050477556
 10
116.5581552931
 20
114.1078734207
 10
116.5482923268
 20
114.1107995176
 10
116.5384505727
 20
114.1138272149
 10
116.5286340084
 20
114.1169553441
 10
116.5188501035
 20
114.1201817717
 10
116.5090982152
 20
114.1235069921
 10
116.4993789864
 20
114.126930511
 10
116.4897018145
 20
114.1304487118
 10
116.4800710995
 20
114.1340600004
 10
116.4704824414
 20
114.137765971
 10
116.4609320383
 20
114.1415677898
 10
116.4514174718
 20
114.1454663277
 10
116.4419411603
 20
114.1494607139
 10
116.4325065565
 20
114.153549502
 10
116.4231133587
 20
114.1577329105
 10
116.4137618688
 20
114.1620107208
 10
116.4044564451
 20
114.1663808307
 10
116.3951999262
 20
114.1708417887
 10
116.3859894735
 20
114.1753950463
 10
116.3768209301
 20
114.1800428558
 10
116.3676901145
 20
114.1847873628
 10
116.3586012082
 20
114.1896264217
 10
116.3495625978
 20
114.1945558484
 10
116.3405742839
 20
114.1995759762
 10
116.331636266
 20
114.2046864718
 10
116.3227569282
 20
114.2098821505
 10
116.3139404005
 20
114.2151605837
 10
116.305182553
 20
114.2205242001
 10
116.2964793807
 20
114.2259751013
 10
116.287828376
 20
114.2315147577
 10
116.2792320465
 20
114.2371416989
 10
116.2706939093
 20
114.2428536158
 10
116.2622141021
 20
114.248650498
 10
116.2537924873
 20
114.2545323559
 10
116.24543217
 20
114.2604969114
 10
116.2371352801
 20
114.2665425038
 10
116.2288996877
 20
114.2726707938
 10
116.2207221074
 20
114.2788844849
 10
116.2125987604
 20
114.2851865087
 10
116.2045334256
 20
114.2915739336
 10
116.1965341543
 20
114.298040669
 10
116.1886014947
 20
114.3045866324
 10
116.1807348986
 20
114.3112119063
 10
116.1729407729
 20
114.3179106471
 10
116.1652224972
 20
114.3246798997
 10
116.1575766918
 20
114.3315226192
 10
116.1499996248
 20
114.3384418271
 10
116.1424887478
 20
114.3454397633
 10
116.1350466092
 20
114.3525141879
 10
116.1276771213
 20
114.3596614027
 10
116.1203807811
 20
114.3668810415
 10
116.1131570917
 20
114.3741734704
 10
116.1060084748
 20
114.3815360898
 10
116.0989365296
 20
114.3889670984
 10
116.091939657
 20
114.3964682974
 10
116.0850154811
 20
114.4040424903
 10
116.0781609913
 20
114.411693051
 10
116.0713791982
 20
114.4194166057
 10
116.0646767584
 20
114.427205836
 10
116.0580545567
 20
114.4350600707
 10
116.0515117082
 20
114.4429799812
 10
116.0450522148
 20
114.4509602637
 10
116.0386783583
 20
114.4589979902
 10
116.0323878567
 20
114.4670960887
 10
116.0261778663
 20
114.4752580398
 10
116.0200460093
 20
114.4834869376
 10
116.0139946634
 20
114.4917796879
 10
116.008028118
 20
114.5001304886
 10
116.0021471391
 20
114.5085384768
 10
115.9963509606
 20
114.5170045155
 10
115.9906415733
 20
114.525525392
 10
115.9850202068
 20
114.5340991017
 10
115.9794856314
 20
114.5427276493
 10
115.9740361487
 20
114.5514138364
 10
115.9686696481
 20
114.5601610999
 10
115.9633882403
 20
114.5689660029
 10
115.958196559
 20
114.5778210362
 10
115.9530955592
 20
114.5867248771
 10
115.9480842859
 20
114.5956788484
 10
115.9431645073
 20
114.6046794086
 10
115.938337308
 20
114.6137243807
 10
115.9336016035
 20
114.6228159418
 10
115.9289559078
 20
114.6319570823
 10
115.9243983311
 20
114.6411516346
 10
115.9199307633
 20
114.6503957663
 10
115.915557388
 20
114.6596809698
 10
115.9112791195
 20
114.6690057054
 10
115.9070950435
 20
114.6783715127
 10
115.9030066007
 20
114.6877745032
 10
115.8990146879
 20
114.697212399
 10
115.8951184083
 20
114.706687478
 10
115.8913165123
 20
114.7162026857
 10
115.887607698
 20
114.7257613052
 10
115.8839932673
 20
114.7353600533
 10
115.8804758762
 20
114.7449920262
 10
115.877056292
 20
114.7546553282
 10
115.8737337473
 20
114.7643518549
 10
115.8705085956
 20
114.7740803887
 10
115.8673810257
 20
114.7838400408
 10
115.8643508487
 20
114.7936316999
 10
115.8614178522
 20
114.8034568146
 10
115.858580943
 20
114.8133194848
 10
115.8558412142
 20
114.8232156105
 10
115.8532017325
 20
114.8331343401
 10
115.8506633299
 20
114.8430733105
 10
115.8482251743
 20
114.8530348848
 10
115.8458878361
 20
114.8630152998
 10
115.8436517461
 20
114.8730123295
 10
115.8415164734
 20
114.8830281999
 10
115.8394812953
 20
114.8930658257
 10
115.8375455765
 20
114.9031283067
 10
115.8357099522
 20
114.9132125431
 10
115.8339756054
 20
114.9233121493
 10
115.8323429565
 20
114.9334247344
 10
115.830811585
 20
114.9435526893
 10
115.8293814126
 20
114.9536968012
 10
115.8280522807
 20
114.9638575256
 10
115.8268243479
 20
114.974034407
 10
115.8256980109
 20
114.9842268667
 10
115.8246730282
 20
114.9944387644
 10
115.8237496413
 20
115.0046662404
 10
115.8229289726
 20
115.0148971371
 10
115.8222114659
 20
115.0251282558
 10
115.8215966773
 20
115.0353627953
 10
115.821084398
 20
115.0455981938
 10
115.8206746135
 20
115.0558328475
 10
115.8203673382
 20
115.0660683602
 10
115.8201624063
 20
115.0763069818
 10
115.8200597623
 20
115.0865515318
 10
115.8200594616
 20
115.0967991907
 10
115.8201615045
 20
115.1070437491
 10
115.8203658359
 20
115.1172823888
 10
115.8206725109
 20
115.127517928
 10
115.8210816951
 20
115.1377526123
 10
115.821593374
 20
115.1479880419
 10
115.8222075621
 20
115.1582226165
 10
115.8229244692
 20
115.1684537812
 10
115.8237445389
 20
115.1786847379
 10
115.8246673275
 20
115.1889122846
 10
115.8256917133
 20
115.1991242597
 10
115.8268174554
 20
115.2093168055
 10
115.8280447946
 20
115.2194937797
 10
115.8293733327
 20
115.2296545935
 10
115.8308029103
 20
115.2397987854
 10
115.8323336867
 20
115.2499268169
 10
115.8339657412
 20
115.2600394843
 10
115.8356994941
 20
115.2701391799
 10
115.837534525
 20
115.2802235114
 10
115.8394696526
 20
115.2902860978
 10
115.8415042419
 20
115.3003238406
 10
115.8436389277
 20
115.3103398383
 10
115.8458744329
 20
115.3203370047
 10
115.8482111882
 20
115.3303175651
 10
115.8506487629
 20
115.3402792944
 10
115.8531865877
 20
115.3502184309
 10
115.8558254956
 20
115.3601373409
 10
115.8585646536
 20
115.3700336582
 10
115.8614009938
 20
115.3798965229
 10
115.8643334238
 20
115.3897218353
 10
115.8673630358
 20
115.3995136951
 10
115.870490039
 20
115.4092735419
 10
115.8737146197
 20
115.4190022576
 10
115.8770365915
 20
115.4286989602
 10
115.8804556042
 20
115.4383624432
 10
115.8839724254
 20
115.4479946039
 10
115.8875862875
 20
115.457593545
 10
115.8912945373
 20
115.4671523681
 10
115.895095874
 20
115.4766677923
 10
115.8989915985
 20
115.4861430984
 10
115.9029829605
 20
115.4955812317
 10
115.9070708567
 20
115.5049844699
  0
LWPOLYLINE
  5
61A
100
AcDbEntity
  8
ASSI
100
AcDbPolyline
 62
7
  6
CONTINUOUS
 90
117
 70
0
 10
115.9070708567
 20
115.5049844699
 10
115.9112543904
 20
115.5143505353
 10
115.9155321215
 20
115.5236755386
 10
115.9199049655
 20
115.5329610221
 10
115.9243720068
 20
115.5422054436
 10
115.9289290587
 20
115.5514002876
 10
115.9335742313
 20
115.5605417203
 10
115.9383094144
 20
115.5696335753
 10
115.9431360907
 20
115.5786788387
 10
115.9480553423
 20
115.5876796834
 10
115.9530660871
 20
115.5966339363
 10
115.9581665612
 20
115.6055380645
 10
115.9633577209
 20
115.6143933931
 10
115.96863861
 20
115.6231985969
 10
115.9740045961
 20
115.6319461679
 10
115.9794535697
 20
115.6406326705
 10
115.9849876404
 20
115.6492615402
 10
115.9906085043
 20
115.6578355756
 10
115.9963173893
 20
115.6663567791
 10
116.0021130675
 20
115.6748231483
 10
116.007993551
 20
115.6832314742
 10
116.0139596071
 20
115.6915826218
 10
116.0200104687
 20
115.6998757263
 10
116.0261418463
 20
115.7081049845
 10
116.0323513624
 20
115.7162673018
 10
116.0386413945
 20
115.724365773
 10
116.0450147869
 20
115.7324038788
 10
116.0514738214
 20
115.7403845475
 10
116.058016216
 20
115.7483048508
 10
116.0646379698
 20
115.7561594848
 10
116.0713399696
 20
115.7639491232
 10
116.0781213286
 20
115.7716730923
 10
116.0849753841
 20
115.7793240665
 10
116.0918991252
 20
115.7868986708
 10
116.098895563
 20
115.7944002802
 10
116.1059670682
 20
115.8018316945
 10
116.113115235
 20
115.8091947102
 10
116.1203384694
 20
115.8164875308
 10
116.1276343593
 20
115.8237075671
 10
116.1350034025
 20
115.8308551866
 10
116.1424451013
 20
115.8379300218
 10
116.1499555508
 20
115.8449283804
 10
116.1575322046
 20
115.8518480241
 10
116.1651776092
 20
115.8586911913
 10
116.1728954998
 20
115.8654609051
 10
116.1806892597
 20
115.8721601238
 10
116.1885555056
 20
115.8787858892
 10
116.196487823
 20
115.8853323494
 10
116.2044867629
 20
115.8917995883
 10
116.2125517742
 20
115.898187522
 10
116.2206747891
 20
115.9044900468
 10
116.2288520248
 20
115.9107042272
 10
116.2370872642
 20
115.9168329988
 10
116.2453837875
 20
115.9228790639
 10
116.253743717
 20
115.9288440782
 10
116.2621649306
 20
115.9347263862
 10
116.2706443422
 20
115.9405237238
 10
116.2791820905
 20
115.9462361032
 10
116.2877780368
 20
115.9518635122
 10
116.2964286792
 20
115.9574036504
 10
116.3051315149
 20
115.9628550504
 10
116.3138890466
 20
115.9682191797
 10
116.3227052815
 20
115.9734981391
 10
116.3315843542
 20
115.9786943602
 10
116.34052213
 20
115.9838054115
 10
116.3495102119
 20
115.9888260992
 10
116.3585486071
 20
115.9937560922
 10
116.3676373083
 20
115.9985957215
 10
116.3767678963
 20
116.0033407865
 10
116.3859361865
 20
116.0079891381
 10
116.3951463635
 20
116.0125429252
 10
116.4044025623
 20
116.017004394
 10
116.4137075771
 20
116.0213749772
 10
116.4230586137
 20
116.0256532421
 10
116.4324514241
 20
116.0298371359
 10
116.4418857056
 20
116.033926445
 10
116.4513617609
 20
116.037921383
 10
116.4608762506
 20
116.0418205389
 10
116.4704267977
 20
116.0456230605
 10
116.4800157791
 20
116.0493297998
 10
116.4896469861
 20
116.0529419022
 10
116.4993248481
 20
116.0564609704
 10
116.5090449357
 20
116.0598854015
 10
116.5187977518
 20
116.0632115327
 10
116.5285826414
 20
116.0664388616
 10
116.5384002596
 20
116.0695678905
 10
116.5482430746
 20
116.0725964633
 10
116.5581070697
 20
116.0755233991
 10
116.5679962616
 20
116.0783498788
 10
116.5779151691
 20
116.0810772886
 10
116.5878672988
 20
116.08370664
 10
116.597849144
 20
116.0862369215
 10
116.6078547033
 20
116.0886664848
 10
116.6178831291
 20
116.0909950238
 10
116.627935269
 20
116.0932228446
 10
116.6380076643
 20
116.0953492177
 10
116.6480980224
 20
116.0973737652
 10
116.658208636
 20
116.099296865
 10
116.6683429237
 20
116.1011189214
 10
116.6785052938
 20
116.1028406666
 10
116.6886913382
 20
116.1044613683
 10
116.6988912508
 20
116.1059792346
 10
116.7091042552
 20
116.1073938942
 10
116.719331128
 20
116.1087057185
 10
116.7295643922
 20
116.109914029
 10
116.7398002762
 20
116.1110184211
 10
116.7500425517
 20
116.1120192994
 10
116.7602950573
 20
116.1129171999
 10
116.7705589319
 20
116.1137123971
 10
116.7808330365
 20
116.1144046165
 10
116.7911177928
 20
116.1149935695
 10
116.8014133395
 20
116.1154793661
 10
116.8117195378
 20
116.1158618963
 10
116.8220363931
 20
116.1161405423
 10
116.8323639074
 20
116.1163150981
 10
116.8427020787
 20
116.1163857696
 10
116.8530509072
 20
116.1163525568
  0
LINE
  5
61B
100
AcDbEntity
  8
RACCORDO
100
AcDbLine
 62
7
  6
CONTINUOUS
 10
134.8379660386
 20
112.9917054314
 11
141.5879660386
 21
112.9917054314
  0
LINE
  5
61C
100
AcDbEntity
  8
ASSI
100
AcDbLine
 62
7
  6
CONTINUOUS
 10
134.8379660386
 20
112.9917054314
 11
141.5879660386
 21
112.9917054314
  0
LINE
  5
61D
100
AcDbEntity
  8
SMUSSO
100
AcDbLine
 62
7
  6
CONTINUOUS
 10
133.0916540955
 20
113.9253461628
 11
116.8530509072
 21
114.067058306
  0
LINE
  5
61E
100
AcDbEntity
  8
ASSI
100
AcDbLine
 62
7
  6
CONTINUOUS
 10
133.0916540955
 20
113.9253461628
 11
116.8530509072
 21
114.067058306
  0
LINE
  5
61F
100
AcDbEntity
  8
CURVE
100
AcDbLine
 62
253
  6
CONTINUOUS
 10
136.8129387047
 20
103.1536099571
 11
136.9986247136
 21
103.0607531685
  0
LINE
  5
620
100
AcDbEntity
  8
CURVE
100
AcDbLine
 62
253
  6
CONTINUOUS
 10
136.0701947082
 20
101.5440863985
 11
135.8845087187
 21
101.66789576
  0
LINE
  5
621
100
AcDbEntity
  8
CURVE
100
AcDbLine
 62
253
  6
CONTINUOUS
 10
113.6724488228
 20
120.1488490958
 11
113.4010615508
 21
120.4202775378
  0
LINE
  5
622
100
AcDbEntity
  8
CURVE
100
AcDbLine
 62
253
  6
CONTINUOUS
 10
114.4866105255
 20
119.4702777643
 11
114.3509169037
 21
119.6059919853
  0
LINE
  5
623
100
AcDbEntity
  8
CURVE
100
AcDbLine
 62
253
  6
CONTINUOUS
 10
136.9986247136
 20
97.8298006732
 11
136.9676770487
 21
97.8607530135
  0
LINE
  5
624
100
AcDbEntity
  8
CURVE
100
AcDbLine
 62
253
  6
CONTINUOUS
 10
136.6272527153
 20
98.3559910793
 11
136.4415666871
 21
98.5417054314
  0
LINE
  5
625
100
AcDbEntity
  8
CURVE
100
AcDbLine
 62
253
  6
CONTINUOUS
 10
137.0605200531
 20
97.9226578492
 11
137.1224153877
 21
97.8607530135
  0
LINE
  5
626
100
AcDbEntity
  8
CURVE
100
AcDbLine
 62
253
  6
CONTINUOUS
 10
114.2152232819
 20
121.0988490958
 11
114.4866105255
 21
120.8274206538
  0
LWPOLYLINE
  5
627
100
AcDbEntity
  8
ASSI
100
AcDbPolyline
 62
7
  6
CONTINUOUS
 90
55
 70
0
 10
127.0870522096
 20
99.5917054314
 10
127.0766178952
 20
99.9425192614
 10
127.0462380289
 20
100.2898156167
 10
126.9959126108
 20
100.6335944974
 10
126.9253370648
 20
100.9749927694
 10
126.8348159669
 20
101.3128735667
 10
126.7252630449
 20
101.6438262913
 10
126.5964855414
 20
101.9677807747
 10
126.4486762138
 20
102.2848071854
 10
126.2833270622
 20
102.5917054314
 10
126.1002604404
 20
102.888372933
 10
125.8996539946
 20
103.17491227
 10
125.6835326637
 20
103.4484310895
 10
125.4517393103
 20
103.7087975175
 10
125.2044310717
 20
103.9561434281
 10
124.9441042988
 20
104.1879720901
 10
124.6706271375
 20
104.4041263424
 10
124.3841314419
 20
104.6047633461
 10
124.0875091241
 20
104.7878578541
 10
123.7806576202
 20
104.953232193
 10
123.4636794942
 20
105.1010640362
 10
123.1397743507
 20
105.2298611561
 10
122.8088720317
 20
105.3394307661
 10
122.4710426953
 20
105.4299656528
 10
122.1296964199
 20
105.5005519495
 10
121.7847975854
 20
105.5509876133
 10
121.436381812
 20
105.581474687
 10
121.0879660386
 20
105.5917054314
 10
120.7395502652
 20
105.581474687
 10
120.3911344918
 20
105.5509876133
 10
120.0462356574
 20
105.5005519495
 10
119.704889382
 20
105.4299656528
 10
119.3670600456
 20
105.3394307661
 10
119.0361577266
 20
105.2298611561
 10
118.7122525831
 20
105.1010640362
 10
118.3952744571
 20
104.953232193
 10
118.0884229532
 20
104.7878578541
 10
117.7918006354
 20
104.6047633461
 10
117.5053049398
 20
104.4041263424
 10
117.2318277785
 20
104.1879720901
 10
116.9715010056
 20
103.9561434281
 10
116.724192767
 20
103.7087975175
 10
116.4923994136
 20
103.4484310895
 10
116.2762780827
 20
103.17491227
 10
116.0756716369
 20
102.888372933
 10
115.8926050151
 20
102.5917054314
 10
115.7272558635
 20
102.2848071854
 10
115.5794465359
 20
101.9677807747
 10
115.4506690324
 20
101.6438262913
 10
115.3411161104
 20
101.3128735667
 10
115.2505950125
 20
100.9749927694
 10
115.1800194665
 20
100.6335944974
 10
115.1296940484
 20
100.2898156167
 10
115.0993141821
 20
99.9425192614
 10
115.0888798677
 20
99.5917054314
  0
LINE
  5
628
100
AcDbEntity
  8
CURVE
100
AcDbLine
 62
253
  6
CONTINUOUS
 10
111.0791255811
 20
95.5516004314
 11
109.1859949579
 21
94.8415434314
  0
LINE
  5
629
100
AcDbEntity
  8
CURVE
100
AcDbLine
 62
253
  6
CONTINUOUS
 10
122.3971370386
 20
98.3046634314
 11
123.6231780331
 21
98.7067884296
  0
LINE
  5
62A
100
AcDbEntity
  8
SMUSSO
100
AcDbLine
 62
7
  6
CONTINUOUS
 10
132.9392069822
 20
115.9887639832
 11
116.8379374809
 21
115.848250333
  0
LINE
  5
62B
100
AcDbEntity
  8
ASSI
100
AcDbLine
 62
7
  6
CONTINUOUS
 10
132.9392069822
 20
115.9887639832
 11
116.8379374809
 21
115.848250333
  0
LINE
  5
62C
100
AcDbEntity
  8
SMUSSO
100
AcDbLine
 62
7
  6
CONTINUOUS
 10
133.0916540955
 20
116.2580647
 11
116.8530509072
 21
116.1163525568
  0
LINE
  5
62D
100
AcDbEntity
  8
ASSI
100
AcDbLine
 62
7
  6
CONTINUOUS
 10
133.0916540955
 20
116.2580647
 11
116.8530509072
 21
116.1163525568
  0
LINE
  5
62E
100
AcDbEntity
  8
0
100
AcDbLine
 62
253
  6
CONTINUOUS
 10
109.7747110842
 20
114.3694944314
 11
109.5731047945
 21
114.3694944314
  0
LINE
  5
62F
100
AcDbEntity
  8
0
100
AcDbLine
 62
253
  6
CONTINUOUS
 10
111.0952499291
 20
115.0904304314
 11
109.7747110842
 21
115.0904304314
  0
LINE
  5
630
100
AcDbEntity
  8
0
100
AcDbLine
 62
253
  6
CONTINUOUS
 10
109.5731047945
 20
115.0904304314
 11
108.489971786
 21
115.0904304314
  0
LINE
  5
631
100
AcDbEntity
  8
0
100
AcDbLine
 62
253
  6
CONTINUOUS
 10
108.1873508837
 20
115.2920674314
 11
111.0952499291
 21
115.2920674314
  0
LINE
  5
632
100
AcDbEntity
  8
0
100
AcDbLine
 62
253
  6
CONTINUOUS
 10
108.4044210792
 20
115.7234854855
 11
108.2028146678
 21
115.7234854855
  0
LINE
  5
633
100
AcDbEntity
  8
SMUSSO
100
AcDbLine
 62
7
  6
CONTINUOUS
 10
132.9392069822
 20
114.1946468796
 11
116.8379374809
 21
114.3351605298
  0
LINE
  5
634
100
AcDbEntity
  8
ASSI
100
AcDbLine
 62
7
  6
CONTINUOUS
 10
132.9392069822
 20
114.1946468796
 11
116.8379374809
 21
114.3351605298
  0
LINE
  5
635
100
AcDbEntity
  8
CURVE
100
AcDbLine
 62
253
  6
CONTINUOUS
 10
112.8582871201
 20
120.2393253941
 11
112.5868999047
 21
120.4202775378
  0
LINE
  5
636
100
AcDbEntity
  8
CURVE
100
AcDbLine
 62
253
  6
CONTINUOUS
 10
112.5868999047
 20
121.9131348748
 11
112.9939807844
 21
121.6417064328
  0
LINE
  5
637
100
AcDbEntity
  8
CURVE
100
AcDbLine
 62
253
  6
CONTINUOUS
 10
136.9986247136
 20
99.0059910793
 11
137.1843107224
 21
98.8202768821
  0
LINE
  5
638
100
AcDbEntity
  8
CURVE
100
AcDbLine
 62
253
  6
CONTINUOUS
 10
136.6272527153
 20
101.4821815628
 11
136.4415666871
 21
101.66789576
  0
LINE
  5
639
100
AcDbEntity
  8
CURVE
100
AcDbLine
 62
253
  6
CONTINUOUS
 10
136.0701947082
 20
102.5964673657
 11
135.8845087187
 21
102.7821815628
  0
LINE
  5
63A
100
AcDbEntity
  8
CURVE
100
AcDbLine
 62
253
  6
CONTINUOUS
 10
136.3487237311
 20
98.9440863985
 11
136.4415666871
 21
98.8202768821
  0
LINE
  5
63B
100
AcDbEntity
  8
0
100
AcDbLine
 62
7
  6
CONTINUOUS
 10
130.5879660386
 20
121.0432450144
 11
130.5879660386
 21
119.1401658484
  0
LINE
  5
63C
100
AcDbEntity
  8
0
100
AcDbLine
 62
7
  6
CONTINUOUS
 10
130.5879660386
 20
115.9682450144
 11
130.5879660386
 21
114.2151658484
  0
LWPOLYLINE
  5
63D
100
AcDbEntity
  8
0
100
AcDbPolyline
 62
253
  6
CONTINUOUS
 90
10
 70
0
 10
101.3094755574
 20
82.7906691343
 10
101.3045322015
 20
82.7873840764
 10
101.3001007786
 20
82.783666676
 10
101.2961812887
 20
82.7795169329
 10
101.2927344499
 20
82.7748671221
 10
101.289799544
 20
82.7697849686
 10
101.2874944172
 20
82.7644736485
 10
101.2858583515
 20
82.759000887
 10
101.2848520649
 20
82.7532989589
 10
101.2844755574
 20
82.7473678641
  0
LINE
  5
63E
100
AcDbEntity
  8
0
100
AcDbLine
 62
7
  6
CONTINUOUS
 10
102.0925139687
 20
83.4716814492
 11
101.2128928314
 21
82.9638319488
  0
LINE
  5
63F
100
AcDbEntity
  8
0
100
AcDbLine
 62
253
  6
CONTINUOUS
 10
102.333602937
 20
83.3819493526
 11
101.3094755574
 21
82.7906691343
  0
LINE
  5
640
100
AcDbEntity
  8
CURVE
100
AcDbLine
 62
253
  6
CONTINUOUS
 10
136.0701947082
 20
103.0607531685
 11
136.2558806976
 21
103.1536099571
  0
LINE
  5
641
100
AcDbEntity
  8
CURVE
100
AcDbLine
 62
253
  6
CONTINUOUS
 10
136.9986247136
 20
102.5964673657
 11
136.8129387047
 21
102.5036099571
  0
LINE
  5
642
100
AcDbEntity
  8
CURVE
100
AcDbLine
 62
253
  6
CONTINUOUS
 10
111.0791255811
 20
91.5106924314
 11
108.1799142122
 21
90.5914454314
  0
LINE
  5
643
100
AcDbEntity
  8
CURVE
100
AcDbLine
 62
253
  6
CONTINUOUS
 10
135.8845087187
 20
99.3774196286
 11
137.1843107224
 21
99.7488483328
  0
LWPOLYLINE
  5
644
100
AcDbEntity
  8
SMUSSO
100
AcDbPolyline
 62
7
  6
CONTINUOUS
 90
200
 70
0
 10
116.9280480514
 20
118.9914038158
 10
116.9172672482
 20
118.9913801391
 10
116.9064963643
 20
118.9914615192
 10
116.8957353998
 20
118.9916479563
 10
116.8849843579
 20
118.9919396276
 10
116.8742432353
 20
118.9923363558
 10
116.863512022
 20
118.9928376088
 10
116.8527909041
 20
118.9934432762
 10
116.8420796956
 20
118.9941534685
 10
116.8313778277
 20
118.9949679855
 10
116.8206864073
 20
118.9958865597
 10
116.8100043276
 20
118.9969094586
 10
116.7993276994
 20
118.9980372851
 10
116.7886524377
 20
118.9992704879
 10
116.7779826275
 20
119.0006086182
 10
116.7673266348
 20
119.0020509324
 10
116.756683864
 20
119.0035977922
 10
116.7460549106
 20
119.0052488359
 10
116.7354499278
 20
119.0070022348
 10
116.7248734993
 20
119.0088572495
 10
116.7143210413
 20
119.0108146196
 10
116.7037889556
 20
119.0128747346
 10
116.6932749622
 20
119.0150379548
 10
116.6827813411
 20
119.01730392
 10
116.6723113345
 20
119.0196719398
 10
116.6618643241
 20
119.0221422373
 10
116.6514409282
 20
119.0247145894
 10
116.6410462444
 20
119.0273876368
 10
116.6306834736
 20
119.0301604581
 10
116.620349415
 20
119.0330339746
 10
116.6100395634
 20
119.0360095907
 10
116.5997496757
 20
119.0390885375
 10
116.5894839951
 20
119.042269584
 10
116.5792507465
 20
119.0455504411
 10
116.5690495173
 20
119.0489315315
 10
116.55888072
 20
119.0524124325
 10
116.5487538182
 20
119.0559895866
 10
116.5386732807
 20
119.0596614197
 10
116.5286346386
 20
119.063429506
 10
116.5186339485
 20
119.0672950102
 10
116.5086687869
 20
119.071258776
 10
116.4987415773
 20
119.0753199597
 10
116.4888556469
 20
119.0794771954
 10
116.4790108452
 20
119.0837306146
 10
116.4692073228
 20
119.0880800858
 10
116.459448858
 20
119.0925238484
 10
116.4497380352
 20
119.0970606048
 10
116.4400722701
 20
119.1016916527
 10
116.4304475882
 20
119.1064191249
 10
116.4208597681
 20
119.1112451325
 10
116.4113130313
 20
119.1161675645
 10
116.4018160673
 20
119.1211822206
 10
116.3923690583
 20
119.1262893253
 10
116.3829718222
 20
119.1314886542
 10
116.3736325027
 20
119.136775334
 10
116.364355193
 20
119.1421470268
 10
116.3551357999
 20
119.1476060705
 10
116.3459701875
 20
119.1531546059
 10
116.3368556715
 20
119.1587941709
 10
116.3277949362
 20
119.1645232275
 10
116.3187918997
 20
119.1703393024
 10
116.3098467834
 20
119.1762423455
 10
116.3009593658
 20
119.1822324068
 10
116.2921329008
 20
119.1883071638
 10
116.2833695208
 20
119.1944650252
 10
116.2746670935
 20
119.2007075822
 10
116.2660224761
 20
119.2070372853
 10
116.2574321332
 20
119.2134567658
 10
116.2488996002
 20
119.2199633924
 10
116.2404323401
 20
119.2265517213
 10
116.2320309964
 20
119.2332215438
 10
116.2236949256
 20
119.2399730685
 10
116.2154296597
 20
119.2468014781
 10
116.2072382547
 20
119.2537041734
 10
116.1991176547
 20
119.2606837535
 10
116.1910642247
 20
119.2677431981
 10
116.1830750066
 20
119.2748850677
 10
116.1751529586
 20
119.2821068019
 10
116.1673033205
 20
119.2894036983
 10
116.1595266868
 20
119.2967753986
 10
116.151822463
 20
119.3042222612
 10
116.1441941055
 20
119.3117406592
 10
116.1366436516
 20
119.3193284722
 10
116.1291690639
 20
119.3269878206
 10
116.1217676864
 20
119.3347214387
 10
116.1144368953
 20
119.3425320721
 10
116.1071793144
 20
119.3504169751
 10
116.1000001589
 20
119.3583706446
 10
116.09290027
 20
119.3663923522
 10
116.0858788065
 20
119.3744828263
 10
116.0789384598
 20
119.3826387492
 10
116.0720809004
 20
119.3908580146
 10
116.0653044577
 20
119.3991427288
 10
116.0586068116
 20
119.4074958922
 10
116.0519851593
 20
119.4159210817
 10
116.0454423034
 20
119.4244147205
 10
116.0389843318
 20
119.4329690791
 10
116.0326121808
 20
119.4415832715
 10
116.026324914
 20
119.4502581837
 10
116.020125809
 20
119.4589887438
 10
116.0140167616
 20
119.4677721656
 10
116.007995876
 20
119.4766112353
 10
116.0020607418
 20
119.4855092392
 10
115.9962094682
 20
119.4944689493
 10
115.9904439461
 20
119.5034875935
 10
115.9847674382
 20
119.5125601422
 10
115.97918076
 20
119.5216853913
 10
115.973683096
 20
119.5308645449
 10
115.968275262
 20
119.5400961853
 10
115.9629578185
 20
119.5493791448
 10
115.9577302051
 20
119.558714591
 10
115.9525915566
 20
119.5681046097
 10
115.9475397547
 20
119.577553314
 10
115.9425769178
 20
119.5870565907
 10
115.9377085353
 20
119.5966041861
 10
115.9329356985
 20
119.6061944926
 10
115.9282573162
 20
119.6158291178
 10
115.9236756038
 20
119.6255026302
 10
115.9191919218
 20
119.6352119911
 10
115.9148049099
 20
119.6449602392
 10
115.9105127021
 20
119.6547510595
 10
115.9063139578
 20
119.6645874
 10
115.9022100178
 20
119.6744663127
 10
115.8982030382
 20
119.6843826384
 10
115.8942937071
 20
119.6943347154
 10
115.8904813364
 20
119.7043242054
 10
115.886766018
 20
119.7143509352
 10
115.8831477714
 20
119.7244145588
 10
115.8796265771
 20
119.734515422
 10
115.8762024687
 20
119.7446543891
 10
115.8728742254
 20
119.7548355412
 10
115.8696430681
 20
119.765054797
 10
115.8665126932
 20
119.7753007769
 10
115.8634840519
 20
119.7855711059
 10
115.8605561931
 20
119.7958681589
 10
115.8577299597
 20
119.8061876807
 10
115.8550059501
 20
119.8165271737
 10
115.8523835661
 20
119.8268891355
 10
115.8498618552
 20
119.8372768033
 10
115.8474400336
 20
119.8476933512
 10
115.8451188852
 20
119.8581356051
 10
115.8428998089
 20
119.8685972807
 10
115.8407832858
 20
119.8790762165
 10
115.8387688348
 20
119.8895745738
 10
115.8368564117
 20
119.9000925528
 10
115.8350459115
 20
119.9106302241
 10
115.8333374392
 20
119.9211875171
 10
115.8317312665
 20
119.9317644188
 10
115.8302269931
 20
119.9423644999
 10
115.8288250193
 20
119.9529841899
 10
115.8275268169
 20
119.9636127636
 10
115.8263328949
 20
119.9742472005
 10
115.8252427444
 20
119.9848905213
 10
115.82425631
 20
119.9955410627
 10
115.8233735969
 20
120.0061978104
 10
115.8225946
 20
120.0168617788
 10
115.8219192475
 20
120.0275343482
 10
115.8213473974
 20
120.0382188212
 10
115.8208791919
 20
120.0489118951
 10
115.8205149859
 20
120.0596050422
 10
115.8202549406
 20
120.0702954428
 10
115.8200988948
 20
120.0809859164
 10
115.8200467201
 20
120.091676394
 10
115.8200983307
 20
120.1023668749
 10
115.8202538123
 20
120.1130573596
 10
115.8205132938
 20
120.1237477813
 10
115.8208769363
 20
120.1344409619
 10
115.8213445787
 20
120.1451340794
 10
115.8219158663
 20
120.1558186007
 10
115.8225906575
 20
120.1664912238
 10
115.8233690939
 20
120.1771552506
 10
115.8242512461
 20
120.1878120536
 10
115.8252371188
 20
120.1984626418
 10
115.8263267072
 20
120.2091060061
 10
115.8275200674
 20
120.2197404927
 10
115.8288177083
 20
120.2303691243
 10
115.8302191209
 20
120.2409888781
 10
115.8317228344
 20
120.2515890317
 10
115.8333284494
 20
120.2621660167
 10
115.8350363652
 20
120.2727234016
 10
115.8368463097
 20
120.2832611683
 10
115.8387581772
 20
120.2937792433
 10
115.8407720732
 20
120.3042777001
 10
115.8428880428
 20
120.3147567428
 10
115.845106567
 20
120.325218534
 10
115.8474271647
 20
120.335660911
 10
115.8498484375
 20
120.346077589
 10
115.8523696017
 20
120.3564653947
 10
115.854991441
 20
120.3668275014
 10
115.8577149071
 20
120.3771671449
 10
115.8605405979
 20
120.3874868212
 10
115.8634679155
 20
120.3977840343
 10
115.8664960182
 20
120.4080545322
 10
115.8696258581
 20
120.4183006928
 10
115.8728564831
 20
120.4285201382
 10
115.8761841958
 20
120.438701483
 10
115.879607776
 20
120.4488406466
 10
115.8831284438
 20
120.4589417095
 10
115.8867461619
 20
120.4690055275
 10
115.8904609477
 20
120.4790324403
  0
LWPOLYLINE
  5
645
100
AcDbEntity
  8
SMUSSO
100
AcDbPolyline
 62
7
  6
CONTINUOUS
 90
126
 70
0
 10
115.8904609477
 20
120.4790324403
 10
115.8942727838
 20
120.4890221081
 10
115.8981815815
 20
120.4989743673
 10
115.902188029
 20
120.5088908806
 10
115.906291438
 20
120.5187699853
 10
115.910489656
 20
120.5286065292
 10
115.9147813429
 20
120.5383975658
 10
115.9191678387
 20
120.5481460416
 10
115.9236510108
 20
120.557855644
 10
115.9282322205
 20
120.5675294138
 10
115.9329101065
 20
120.5771643101
 10
115.9376824525
 20
120.5867548977
 10
115.9425503515
 20
120.5963027867
 10
115.9475127104
 20
120.6058063669
 10
115.952564034
 20
120.6152553723
 10
115.957702204
 20
120.6246456883
 10
115.9629293386
 20
120.6339814294
 10
115.9682462973
 20
120.6432646735
 10
115.9736536361
 20
120.6524965813
 10
115.979150799
 20
120.661675992
 10
115.9847369773
 20
120.6708015017
 10
115.9904129866
 20
120.6798743157
 10
115.9961780114
 20
120.6888932287
 10
116.0020287962
 20
120.6978532208
 10
116.0079634515
 20
120.7067515228
 10
116.0139838667
 20
120.7155909039
 10
116.0200924543
 20
120.7243746525
 10
116.0262911123
 20
120.7331055574
 10
116.0325779428
 20
120.7417808297
 10
116.0389496646
 20
120.7503953909
 10
116.0454072164
 20
120.7589501286
 10
116.0519496595
 20
120.7674441551
 10
116.0585708973
 20
120.7758697286
 10
116.0652681256
 20
120.7842232692
 10
116.0720441486
 20
120.7925083568
 10
116.0789012824
 20
120.8007279887
 10
116.0858411934
 20
120.8088842667
 10
116.0928622151
 20
120.816975089
 10
116.0999616647
 20
120.8249971482
 10
116.1071403843
 20
120.8329511748
 10
116.1143975318
 20
120.8408364384
 10
116.1217278971
 20
120.8486474406
 10
116.1291288585
 20
120.8563814377
 10
116.1366030377
 20
120.8640411736
 10
116.1441530899
 20
120.871629381
 10
116.1517810523
 20
120.8791481804
 10
116.1594848875
 20
120.8865954514
 10
116.1672611395
 20
120.8939675662
 10
116.1751104038
 20
120.9012648843
 10
116.1830320847
 20
120.9084870464
 10
116.1910209388
 20
120.9156293461
 10
116.1990740064
 20
120.9226892214
 10
116.2071942472
 20
120.9296692344
 10
116.2153852966
 20
120.9365723657
 10
116.22365021
 20
120.9434012145
 10
116.2319859321
 20
120.9501531815
 10
116.240386932
 20
120.9568234501
 10
116.2488538555
 20
120.9634122305
 10
116.257386057
 20
120.9699193124
 10
116.265976068
 20
120.9763392476
 10
116.274620353
 20
120.982669404
 10
116.2833224476
 20
120.9889124138
 10
116.2920854904
 20
120.9950707256
 10
116.3009116089
 20
121.0011459274
 10
116.3097986756
 20
121.0071364312
 10
116.3187434473
 20
121.0130399217
 10
116.3277461465
 20
121.0188564503
 10
116.3368065506
 20
121.0245859655
 10
116.3459207494
 20
121.0302259978
 10
116.3550860603
 20
121.0357750105
 10
116.3643051657
 20
121.0412345404
 10
116.3735822022
 20
121.0466067275
 10
116.3829212642
 20
121.051893911
 10
116.3923182572
 20
121.0570937518
 10
116.4017650345
 20
121.0622013736
 10
116.4112617839
 20
121.0672165544
 10
116.4208083175
 20
121.0721395162
 10
116.4303959251
 20
121.0769660479
 10
116.4400203873
 20
121.0816940383
 10
116.4496859235
 20
121.0863255988
 10
116.4593964815
 20
121.0908628526
 10
116.4691546027
 20
121.0953070797
 10
116.4789577457
 20
121.0996570001
 10
116.4888022345
 20
121.1039108976
 10
116.4986879146
 20
121.1080686436
 10
116.5086149405
 20
121.1121303667
 10
116.5185801004
 20
121.1160947358
 10
116.528581008
 20
121.1199609242
 10
116.5386200496
 20
121.1237297585
 10
116.5487011717
 20
121.1274023876
 10
116.5588288886
 20
121.130980399
 10
116.568998686
 20
121.1344622051
 10
116.579200968
 20
121.1378441919
 10
116.589435314
 20
121.1411259289
 10
116.5997021447
 20
121.1443078467
 10
116.6099931253
 20
121.1473876232
 10
116.6203039579
 20
121.1503640097
 10
116.6306389405
 20
121.153238255
 10
116.6410026328
 20
121.1560117826
 10
116.6513982715
 20
121.1586855236
 10
116.66182262
 20
121.1612585468
 10
116.6722705277
 20
121.1637294832
 10
116.6827414007
 20
121.1660981117
 10
116.693235833
 20
121.1683646534
 10
116.7037504562
 20
121.170528402
 10
116.7142829579
 20
121.1725889878
 10
116.7248356506
 20
121.1745467805
 10
116.7354121028
 20
121.1764021827
 10
116.7460167559
 20
121.1781559173
 10
116.7566451685
 20
121.1798072615
 10
116.7672875861
 20
121.1813544495
 10
116.7779434419
 20
121.1827971378
 10
116.7886133026
 20
121.1841356701
 10
116.799289114
 20
121.1853693111
 10
116.809966942
 20
121.186497632
 10
116.8206507207
 20
121.1875210617
 10
116.8313441977
 20
121.1884401522
 10
116.8420484392
 20
121.1892551646
 10
116.8527623791
 20
121.1899658378
 10
116.8634865667
 20
121.19057194
 10
116.8742211831
 20
121.1910735813
 10
116.8849660473
 20
121.1914706518
 10
116.8957211656
 20
121.1917625897
 10
116.9064865401
 20
121.191949208
 10
116.9172621687
 20
121.1920306937
 10
116.9280480514
 20
121.192007047
  0
LWPOLYLINE
  5
646
100
AcDbEntity
  8
ASSI
100
AcDbPolyline
 62
7
  6
CONTINUOUS
 90
200
 70
0
 10
116.9280480514
 20
118.9914038158
 10
116.9172672482
 20
118.9913801391
 10
116.9064963643
 20
118.9914615192
 10
116.8957353998
 20
118.9916479563
 10
116.8849843579
 20
118.9919396276
 10
116.8742432353
 20
118.9923363558
 10
116.863512022
 20
118.9928376088
 10
116.8527909041
 20
118.9934432762
 10
116.8420796956
 20
118.9941534685
 10
116.8313778277
 20
118.9949679855
 10
116.8206864073
 20
118.9958865597
 10
116.8100043276
 20
118.9969094586
 10
116.7993276994
 20
118.9980372851
 10
116.7886524377
 20
118.9992704879
 10
116.7779826275
 20
119.0006086182
 10
116.7673266348
 20
119.0020509324
 10
116.756683864
 20
119.0035977922
 10
116.7460549106
 20
119.0052488359
 10
116.7354499278
 20
119.0070022348
 10
116.7248734993
 20
119.0088572495
 10
116.7143210413
 20
119.0108146196
 10
116.7037889556
 20
119.0128747346
 10
116.6932749622
 20
119.0150379548
 10
116.6827813411
 20
119.01730392
 10
116.6723113345
 20
119.0196719398
 10
116.6618643241
 20
119.0221422373
 10
116.6514409282
 20
119.0247145894
 10
116.6410462444
 20
119.0273876368
 10
116.6306834736
 20
119.0301604581
 10
116.620349415
 20
119.0330339746
 10
116.6100395634
 20
119.0360095907
 10
116.5997496757
 20
119.0390885375
 10
116.5894839951
 20
119.042269584
 10
116.5792507465
 20
119.0455504411
 10
116.5690495173
 20
119.0489315315
 10
116.55888072
 20
119.0524124325
 10
116.5487538182
 20
119.0559895866
 10
116.5386732807
 20
119.0596614197
 10
116.5286346386
 20
119.063429506
 10
116.5186339485
 20
119.0672950102
 10
116.5086687869
 20
119.071258776
 10
116.4987415773
 20
119.0753199597
 10
116.4888556469
 20
119.0794771954
 10
116.4790108452
 20
119.0837306146
 10
116.4692073228
 20
119.0880800858
 10
116.459448858
 20
119.0925238484
 10
116.4497380352
 20
119.0970606048
 10
116.4400722701
 20
119.1016916527
 10
116.4304475882
 20
119.1064191249
 10
116.4208597681
 20
119.1112451325
 10
116.4113130313
 20
119.1161675645
 10
116.4018160673
 20
119.1211822206
 10
116.3923690583
 20
119.1262893253
 10
116.3829718222
 20
119.1314886542
 10
116.3736325027
 20
119.136775334
 10
116.364355193
 20
119.1421470268
 10
116.3551357999
 20
119.1476060705
 10
116.3459701875
 20
119.1531546059
 10
116.3368556715
 20
119.1587941709
 10
116.3277949362
 20
119.1645232275
 10
116.3187918997
 20
119.1703393024
 10
116.3098467834
 20
119.1762423455
 10
116.3009593658
 20
119.1822324068
 10
116.2921329008
 20
119.1883071638
 10
116.2833695208
 20
119.1944650252
 10
116.2746670935
 20
119.2007075822
 10
116.2660224761
 20
119.2070372853
 10
116.2574321332
 20
119.2134567658
 10
116.2488996002
 20
119.2199633924
 10
116.2404323401
 20
119.2265517213
 10
116.2320309964
 20
119.2332215438
 10
116.2236949256
 20
119.2399730685
 10
116.2154296597
 20
119.2468014781
 10
116.2072382547
 20
119.2537041734
 10
116.1991176547
 20
119.2606837535
 10
116.1910642247
 20
119.2677431981
 10
116.1830750066
 20
119.2748850677
 10
116.1751529586
 20
119.2821068019
 10
116.1673033205
 20
119.2894036983
 10
116.1595266868
 20
119.2967753986
 10
116.151822463
 20
119.3042222612
 10
116.1441941055
 20
119.3117406592
 10
116.1366436516
 20
119.3193284722
 10
116.1291690639
 20
119.3269878206
 10
116.1217676864
 20
119.3347214387
 10
116.1144368953
 20
119.3425320721
 10
116.1071793144
 20
119.3504169751
 10
116.1000001589
 20
119.3583706446
 10
116.09290027
 20
119.3663923522
 10
116.0858788065
 20
119.3744828263
 10
116.0789384598
 20
119.3826387492
 10
116.0720809004
 20
119.3908580146
 10
116.0653044577
 20
119.3991427288
 10
116.0586068116
 20
119.4074958922
 10
116.0519851593
 20
119.4159210817
 10
116.0454423034
 20
119.4244147205
 10
116.0389843318
 20
119.4329690791
 10
116.0326121808
 20
119.4415832715
 10
116.026324914
 20
119.4502581837
 10
116.020125809
 20
119.4589887438
 10
116.0140167616
 20
119.4677721656
 10
116.007995876
 20
119.4766112353
 10
116.0020607418
 20
119.4855092392
 10
115.9962094682
 20
119.4944689493
 10
115.9904439461
 20
119.5034875935
 10
115.9847674382
 20
119.5125601422
 10
115.97918076
 20
119.5216853913
 10
115.973683096
 20
119.5308645449
 10
115.968275262
 20
119.5400961853
 10
115.9629578185
 20
119.5493791448
 10
115.9577302051
 20
119.558714591
 10
115.9525915566
 20
119.5681046097
 10
115.9475397547
 20
119.577553314
 10
115.9425769178
 20
119.5870565907
 10
115.9377085353
 20
119.5966041861
 10
115.9329356985
 20
119.6061944926
 10
115.9282573162
 20
119.6158291178
 10
115.9236756038
 20
119.6255026302
 10
115.9191919218
 20
119.6352119911
 10
115.9148049099
 20
119.6449602392
 10
115.9105127021
 20
119.6547510595
 10
115.9063139578
 20
119.6645874
 10
115.9022100178
 20
119.6744663127
 10
115.8982030382
 20
119.6843826384
 10
115.8942937071
 20
119.6943347154
 10
115.8904813364
 20
119.7043242054
 10
115.886766018
 20
119.7143509352
 10
115.8831477714
 20
119.7244145588
 10
115.8796265771
 20
119.734515422
 10
115.8762024687
 20
119.7446543891
 10
115.8728742254
 20
119.7548355412
 10
115.8696430681
 20
119.765054797
 10
115.8665126932
 20
119.7753007769
 10
115.8634840519
 20
119.7855711059
 10
115.8605561931
 20
119.7958681589
 10
115.8577299597
 20
119.8061876807
 10
115.8550059501
 20
119.8165271737
 10
115.8523835661
 20
119.8268891355
 10
115.8498618552
 20
119.8372768033
 10
115.8474400336
 20
119.8476933512
 10
115.8451188852
 20
119.8581356051
 10
115.8428998089
 20
119.8685972807
 10
115.8407832858
 20
119.8790762165
 10
115.8387688348
 20
119.8895745738
 10
115.8368564117
 20
119.9000925528
 10
115.8350459115
 20
119.9106302241
 10
115.8333374392
 20
119.9211875171
 10
115.8317312665
 20
119.9317644188
 10
115.8302269931
 20
119.9423644999
 10
115.8288250193
 20
119.9529841899
 10
115.8275268169
 20
119.9636127636
 10
115.8263328949
 20
119.9742472005
 10
115.8252427444
 20
119.9848905213
 10
115.82425631
 20
119.9955410627
 10
115.8233735969
 20
120.0061978104
 10
115.8225946
 20
120.0168617788
 10
115.8219192475
 20
120.0275343482
 10
115.8213473974
 20
120.0382188212
 10
115.8208791919
 20
120.0489118951
 10
115.8205149859
 20
120.0596050422
 10
115.8202549406
 20
120.0702954428
 10
115.8200988948
 20
120.0809859164
 10
115.8200467201
 20
120.091676394
 10
115.8200983307
 20
120.1023668749
 10
115.8202538123
 20
120.1130573596
 10
115.8205132938
 20
120.1237477813
 10
115.8208769363
 20
120.1344409619
 10
115.8213445787
 20
120.1451340794
 10
115.8219158663
 20
120.1558186007
 10
115.8225906575
 20
120.1664912238
 10
115.8233690939
 20
120.1771552506
 10
115.8242512461
 20
120.1878120536
 10
115.8252371188
 20
120.1984626418
 10
115.8263267072
 20
120.2091060061
 10
115.8275200674
 20
120.2197404927
 10
115.8288177083
 20
120.2303691243
 10
115.8302191209
 20
120.2409888781
 10
115.8317228344
 20
120.2515890317
 10
115.8333284494
 20
120.2621660167
 10
115.8350363652
 20
120.2727234016
 10
115.8368463097
 20
120.2832611683
 10
115.8387581772
 20
120.2937792433
 10
115.8407720732
 20
120.3042777001
 10
115.8428880428
 20
120.3147567428
 10
115.845106567
 20
120.325218534
 10
115.8474271647
 20
120.335660911
 10
115.8498484375
 20
120.346077589
 10
115.8523696017
 20
120.3564653947
 10
115.854991441
 20
120.3668275014
 10
115.8577149071
 20
120.3771671449
 10
115.8605405979
 20
120.3874868212
 10
115.8634679155
 20
120.3977840343
 10
115.8664960182
 20
120.4080545322
 10
115.8696258581
 20
120.4183006928
 10
115.8728564831
 20
120.4285201382
 10
115.8761841958
 20
120.438701483
 10
115.879607776
 20
120.4488406466
 10
115.8831284438
 20
120.4589417095
 10
115.8867461619
 20
120.4690055275
 10
115.8904609477
 20
120.4790324403
  0
LWPOLYLINE
  5
647
100
AcDbEntity
  8
ASSI
100
AcDbPolyline
 62
7
  6
CONTINUOUS
 90
126
 70
0
 10
115.8904609477
 20
120.4790324403
 10
115.8942727838
 20
120.4890221081
 10
115.8981815815
 20
120.4989743673
 10
115.902188029
 20
120.5088908806
 10
115.906291438
 20
120.5187699853
 10
115.910489656
 20
120.5286065292
 10
115.9147813429
 20
120.5383975658
 10
115.9191678387
 20
120.5481460416
 10
115.9236510108
 20
120.557855644
 10
115.9282322205
 20
120.5675294138
 10
115.9329101065
 20
120.5771643101
 10
115.9376824525
 20
120.5867548977
 10
115.9425503515
 20
120.5963027867
 10
115.9475127104
 20
120.6058063669
 10
115.952564034
 20
120.6152553723
 10
115.957702204
 20
120.6246456883
 10
115.9629293386
 20
120.6339814294
 10
115.9682462973
 20
120.6432646735
 10
115.9736536361
 20
120.6524965813
 10
115.979150799
 20
120.661675992
 10
115.9847369773
 20
120.6708015017
 10
115.9904129866
 20
120.6798743157
 10
115.9961780114
 20
120.6888932287
 10
116.0020287962
 20
120.6978532208
 10
116.0079634515
 20
120.7067515228
 10
116.0139838667
 20
120.7155909039
 10
116.0200924543
 20
120.7243746525
 10
116.0262911123
 20
120.7331055574
 10
116.0325779428
 20
120.7417808297
 10
116.0389496646
 20
120.7503953909
 10
116.0454072164
 20
120.7589501286
 10
116.0519496595
 20
120.7674441551
 10
116.0585708973
 20
120.7758697286
 10
116.0652681256
 20
120.7842232692
 10
116.0720441486
 20
120.7925083568
 10
116.0789012824
 20
120.8007279887
 10
116.0858411934
 20
120.8088842667
 10
116.0928622151
 20
120.816975089
 10
116.0999616647
 20
120.8249971482
 10
116.1071403843
 20
120.8329511748
 10
116.1143975318
 20
120.8408364384
 10
116.1217278971
 20
120.8486474406
 10
116.1291288585
 20
120.8563814377
 10
116.1366030377
 20
120.8640411736
 10
116.1441530899
 20
120.871629381
 10
116.1517810523
 20
120.8791481804
 10
116.1594848875
 20
120.8865954514
 10
116.1672611395
 20
120.8939675662
 10
116.1751104038
 20
120.9012648843
 10
116.1830320847
 20
120.9084870464
 10
116.1910209388
 20
120.9156293461
 10
116.1990740064
 20
120.9226892214
 10
116.2071942472
 20
120.9296692344
 10
116.2153852966
 20
120.9365723657
 10
116.22365021
 20
120.9434012145
 10
116.2319859321
 20
120.9501531815
 10
116.240386932
 20
120.9568234501
 10
116.2488538555
 20
120.9634122305
 10
116.257386057
 20
120.9699193124
 10
116.265976068
 20
120.9763392476
 10
116.274620353
 20
120.982669404
 10
116.2833224476
 20
120.9889124138
 10
116.2920854904
 20
120.9950707256
 10
116.3009116089
 20
121.0011459274
 10
116.3097986756
 20
121.0071364312
 10
116.3187434473
 20
121.0130399217
 10
116.3277461465
 20
121.0188564503
 10
116.3368065506
 20
121.0245859655
 10
116.3459207494
 20
121.0302259978
 10
116.3550860603
 20
121.0357750105
 10
116.3643051657
 20
121.0412345404
 10
116.3735822022
 20
121.0466067275
 10
116.3829212642
 20
121.051893911
 10
116.3923182572
 20
121.0570937518
 10
116.4017650345
 20
121.0622013736
 10
116.4112617839
 20
121.0672165544
 10
116.4208083175
 20
121.0721395162
 10
116.4303959251
 20
121.0769660479
 10
116.4400203873
 20
121.0816940383
 10
116.4496859235
 20
121.0863255988
 10
116.4593964815
 20
121.0908628526
 10
116.4691546027
 20
121.0953070797
 10
116.4789577457
 20
121.0996570001
 10
116.4888022345
 20
121.1039108976
 10
116.4986879146
 20
121.1080686436
 10
116.5086149405
 20
121.1121303667
 10
116.5185801004
 20
121.1160947358
 10
116.528581008
 20
121.1199609242
 10
116.5386200496
 20
121.1237297585
 10
116.5487011717
 20
121.1274023876
 10
116.5588288886
 20
121.130980399
 10
116.568998686
 20
121.1344622051
 10
116.579200968
 20
121.1378441919
 10
116.589435314
 20
121.1411259289
 10
116.5997021447
 20
121.1443078467
 10
116.6099931253
 20
121.1473876232
 10
116.6203039579
 20
121.1503640097
 10
116.6306389405
 20
121.153238255
 10
116.6410026328
 20
121.1560117826
 10
116.6513982715
 20
121.1586855236
 10
116.66182262
 20
121.1612585468
 10
116.6722705277
 20
121.1637294832
 10
116.6827414007
 20
121.1660981117
 10
116.693235833
 20
121.1683646534
 10
116.7037504562
 20
121.170528402
 10
116.7142829579
 20
121.1725889878
 10
116.7248356506
 20
121.1745467805
 10
116.7354121028
 20
121.1764021827
 10
116.7460167559
 20
121.1781559173
 10
116.7566451685
 20
121.1798072615
 10
116.7672875861
 20
121.1813544495
 10
116.7779434419
 20
121.1827971378
 10
116.7886133026
 20
121.1841356701
 10
116.799289114
 20
121.1853693111
 10
116.809966942
 20
121.186497632
 10
116.8206507207
 20
121.1875210617
 10
116.8313441977
 20
121.1884401522
 10
116.8420484392
 20
121.1892551646
 10
116.8527623791
 20
121.1899658378
 10
116.8634865667
 20
121.19057194
 10
116.8742211831
 20
121.1910735813
 10
116.8849660473
 20
121.1914706518
 10
116.8957211656
 20
121.1917625897
 10
116.9064865401
 20
121.191949208
 10
116.9172621687
 20
121.1920306937
 10
116.9280480514
 20
121.192007047
  0
LINE
  5
648
100
AcDbEntity
  8
CURVE
100
AcDbLine
 62
253
  6
CONTINUOUS
 10
112.5868999047
 20
116.7559920419
 11
114.4866105255
 21
116.7559920419
  0
LINE
  5
649
100
AcDbEntity
  8
RACCORDO
100
AcDbLine
 62
7
  6
CONTINUOUS
 10
141.5879660386
 20
117.1917054314
 11
134.8379660386
 21
117.1917054314
  0
LINE
  5
64A
100
AcDbEntity
  8
ASSI
100
AcDbLine
 62
7
  6
CONTINUOUS
 10
141.5879660386
 20
117.1917054314
 11
134.8379660386
 21
117.1917054314
  0
LINE
  5
64B
100
AcDbEntity
  8
CURVE
100
AcDbLine
 62
253
  6
CONTINUOUS
 10
112.8582871201
 20
117.298849209
 11
113.4010615508
 21
117.298849209
  0
LINE
  5
64C
100
AcDbEntity
  8
RACCORDO
100
AcDbLine
 62
7
  6
CONTINUOUS
 10
134.8379660386
 20
117.9917054314
 11
141.5879660386
 21
117.9917054314
  0
LINE
  5
64D
100
AcDbEntity
  8
ASSI
100
AcDbLine
 62
7
  6
CONTINUOUS
 10
134.8379660386
 20
117.9917054314
 11
141.5879660386
 21
117.9917054314
  0
LINE
  5
64E
100
AcDbEntity
  8
0
100
AcDbLine
 62
253
  6
CONTINUOUS
 10
111.0952499291
 20
118.2024204314
 11
108.1932139906
 21
118.2024204314
  0
LINE
  5
64F
100
AcDbEntity
  8
CURVE
100
AcDbLine
 62
253
  6
CONTINUOUS
 10
113.4010615508
 20
118.2488490958
 11
112.8582871201
 21
118.2488490958
  0
LINE
  5
650
100
AcDbEntity
  8
0
100
AcDbLine
 62
253
  6
CONTINUOUS
 10
108.1932139906
 20
118.4040574314
 11
111.0952499291
 21
118.4040574314
  0
LINE
  5
651
100
AcDbEntity
  8
SMUSSO
100
AcDbLine
 62
7
  6
CONTINUOUS
 10
133.1444844267
 20
118.8498851195
 11
116.9280480514
 21
118.9914038158
  0
LINE
  5
652
100
AcDbEntity
  8
ASSI
100
AcDbLine
 62
7
  6
CONTINUOUS
 10
133.1444844267
 20
118.8498851195
 11
116.9280480514
 21
118.9914038158
  0
LINE
  5
653
100
AcDbEntity
  8
CURVE
100
AcDbLine
 62
253
  6
CONTINUOUS
 10
113.9438360382
 20
118.1131348748
 11
113.4010615508
 21
118.2488490958
  0
LINE
  5
654
100
AcDbEntity
  8
0
100
AcDbLine
 62
7
  6
CONTINUOUS
 10
102.0925139687
 20
129.7117294135
 11
101.2129660386
 21
130.2195366477
  0
LINE
  5
655
100
AcDbEntity
  8
0
100
AcDbLine
 62
253
  6
CONTINUOUS
 10
102.333602937
 20
129.8014615102
 11
101.3094755574
 21
130.3927417285
  0
LWPOLYLINE
  5
656
100
AcDbEntity
  8
0
100
AcDbPolyline
 62
253
  6
CONTINUOUS
 90
22
 70
0
 10
101.3094755574
 20
130.3927417285
 10
101.3076959549
 20
130.3938046935
 10
101.3059295463
 20
130.3949805288
 10
101.3041763317
 20
130.3962692342
 10
101.3024253287
 20
130.3976707809
 10
101.3006875197
 20
130.3991851977
 10
101.2989958514
 20
130.4008125715
 10
101.2973505803
 20
130.4025558961
 10
101.29575145
 20
130.4044121776
 10
101.2942306378
 20
130.4063725215
 10
101.2927893558
 20
130.408439919
 10
101.291426392
 20
130.4106113788
 10
101.2901702882
 20
130.4128690328
 10
101.2890231996
 20
130.4152154581
 10
101.287982971
 20
130.4176480775
 10
101.2870716789
 20
130.420141291
 10
101.2862922449
 20
130.4226968929
 10
101.2856417473
 20
130.4253130889
 10
101.2851334986
 20
130.4279588957
 10
101.2847719361
 20
130.4306239858
 10
101.2845526223
 20
130.4333186868
 10
101.2844755574
 20
130.4360429987
  0
LINE
  5
657
100
AcDbEntity
  8
CURVE
100
AcDbLine
 62
253
  6
CONTINUOUS
 10
114.4866105255
 20
121.6417064328
 11
113.1296743355
 21
122.5917064328
  0
LINE
  5
658
100
AcDbEntity
  8
CURVE
100
AcDbLine
 62
253
  6
CONTINUOUS
 10
136.9986247136
 20
102.1321815628
 11
137.1843107224
 21
101.9464673657
  0
LINE
  5
659
100
AcDbEntity
  8
CURVE
100
AcDbLine
 62
253
  6
CONTINUOUS
 10
136.9986247136
 20
103.0607531685
 11
137.1843107224
 21
102.8750389714
  0
LINE
  5
65A
100
AcDbEntity
  8
CURVE
100
AcDbLine
 62
253
  6
CONTINUOUS
 10
136.3487237311
 20
102.0702770371
 11
136.4415666871
 21
101.9464673657
  0
LINE
  5
65B
100
AcDbEntity
  8
CURVE
100
AcDbLine
 62
253
  6
CONTINUOUS
 10
131.685148399
 20
93.5917054314
 11
131.685148399
 21
94.5917054314
  0
LINE
  5
65C
100
AcDbEntity
  8
RACCORDO
100
AcDbLine
 62
253
  6
CONTINUOUS
 10
131.7550022549
 20
109.3417054314
 11
131.7550022549
 21
109.2917054314
  0
LINE
  5
65D
100
AcDbEntity
  8
ASSI
100
AcDbLine
 62
253
  6
CONTINUOUS
 10
131.7550022549
 20
109.3417054314
 11
131.7550022549
 21
109.2917054314
  0
LINE
  5
65E
100
AcDbEntity
  8
RACCORDO
100
AcDbLine
 62
253
  6
CONTINUOUS
 10
131.7550022549
 20
89.8917054314
 11
131.7550022549
 21
89.8417054314
  0
LINE
  5
65F
100
AcDbEntity
  8
ASSI
100
AcDbLine
 62
253
  6
CONTINUOUS
 10
131.7550022549
 20
89.8917054314
 11
131.7550022549
 21
89.8417054314
  0
LINE
  5
660
100
AcDbEntity
  8
CURVE
100
AcDbLine
 62
253
  6
CONTINUOUS
 10
132.1850722466
 20
92.8417054314
 11
132.1850722466
 21
95.3417054314
  0
LINE
  5
661
100
AcDbEntity
  8
CURVE
100
AcDbLine
 62
253
  6
CONTINUOUS
 10
132.1850722466
 20
97.7988482553
 11
132.1850722466
 21
97.8298006732
  0
LINE
  5
662
100
AcDbEntity
  8
0
100
AcDbLine
 62
7
  6
CONTINUOUS
 10
132.2879660386
 20
121.0580806896
 11
132.2879660386
 21
119.1253301732
  0
LINE
  5
663
100
AcDbEntity
  8
0
100
AcDbLine
 62
7
  6
CONTINUOUS
 10
132.2879660386
 20
115.9830806896
 11
132.2879660386
 21
114.2003301732
  0
LINE
  5
664
100
AcDbEntity
  8
RACCORDO
100
AcDbLine
 62
253
  6
CONTINUOUS
 10
132.4201923602
 20
109.3417054314
 11
132.4201923602
 21
109.2917054314
  0
LINE
  5
665
100
AcDbEntity
  8
ASSI
100
AcDbLine
 62
253
  6
CONTINUOUS
 10
132.4201923602
 20
109.3417054314
 11
132.4201923602
 21
109.2917054314
  0
LINE
  5
666
100
AcDbEntity
  8
RACCORDO
100
AcDbLine
 62
253
  6
CONTINUOUS
 10
132.4201923602
 20
89.8917054314
 11
132.4201923602
 21
89.8417054314
  0
LINE
  5
667
100
AcDbEntity
  8
ASSI
100
AcDbLine
 62
253
  6
CONTINUOUS
 10
132.4201923602
 20
89.8917054314
 11
132.4201923602
 21
89.8417054314
  0
LINE
  5
668
100
AcDbEntity
  8
CURVE
100
AcDbLine
 62
253
  6
CONTINUOUS
 10
132.742130215
 20
100.3369434971
 11
132.742130215
 21
100.9869434971
  0
LINE
  5
669
100
AcDbEntity
  8
CURVE
100
AcDbLine
 62
253
  6
CONTINUOUS
 10
133.0206592379
 20
98.2940863985
 11
133.0206592379
 21
98.8512293
  0
LINE
  5
66A
100
AcDbEntity
  8
CURVE
100
AcDbLine
 62
253
  6
CONTINUOUS
 10
133.0849351723
 20
93.6917054314
 11
133.0849351723
 21
94.4917054314
  0
LINE
  5
66B
100
AcDbEntity
  8
CURVE
100
AcDbLine
 62
253
  6
CONTINUOUS
 10
136.2558806976
 20
106.3107531685
 11
136.3487237311
 21
106.4036099571
  0
LINE
  5
66C
100
AcDbEntity
  8
CURVE
100
AcDbLine
 62
253
  6
CONTINUOUS
 10
136.2558806976
 20
104.26789576
 11
136.3487237311
 21
104.3607531685
  0
LINE
  5
66D
100
AcDbEntity
  8
CURVE
100
AcDbLine
 62
253
  6
CONTINUOUS
 10
135.8845087187
 20
101.9464673657
 11
136.0701947082
 21
102.0702770371
  0
LINE
  5
66E
100
AcDbEntity
  8
CURVE
100
AcDbLine
 62
253
  6
CONTINUOUS
 10
132.1850722466
 20
99.2226576943
 11
132.9278162432
 21
99.5940863985
  0
LINE
  5
66F
100
AcDbEntity
  8
SMUSSO
100
AcDbLine
 62
7
  6
CONTINUOUS
 10
132.9766582552
 20
121.0640908155
 11
116.9129346252
 21
120.9239048232
  0
LINE
  5
670
100
AcDbEntity
  8
ASSI
100
AcDbLine
 62
7
  6
CONTINUOUS
 10
132.9766582552
 20
121.0640908155
 11
116.9129346252
 21
120.9239048232
  0
LINE
  5
671
100
AcDbEntity
  8
SMUSSO
100
AcDbLine
 62
7
  6
CONTINUOUS
 10
133.1444844267
 20
121.3335257433
 11
116.9280480514
 21
121.192007047
  0
LINE
  5
672
100
AcDbEntity
  8
ASSI
100
AcDbLine
 62
7
  6
CONTINUOUS
 10
133.1444844267
 20
121.3335257433
 11
116.9280480514
 21
121.192007047
  0
LINE
  5
673
100
AcDbEntity
  8
CURVE
100
AcDbLine
 62
253
  6
CONTINUOUS
 10
113.2653679998
 20
119.5607538361
 11
112.8582871201
 21
119.5607538361
  0
LINE
  5
674
100
AcDbEntity
  8
CURVE
100
AcDbLine
 62
253
  6
CONTINUOUS
 10
114.3509169037
 20
119.6059919853
 11
113.6724488228
 21
119.6059919853
  0
LINE
  5
675
100
AcDbEntity
  8
CURVE
100
AcDbLine
 62
253
  6
CONTINUOUS
 10
114.2152232819
 20
120.1488490958
 11
113.6724488228
 21
120.1488490958
  0
LINE
  5
676
100
AcDbEntity
  8
CURVE
100
AcDbLine
 62
253
  6
CONTINUOUS
 10
113.2653679998
 20
120.2393253941
 11
112.8582871201
 21
120.2393253941
  0
LINE
  5
677
100
AcDbEntity
  8
0
100
AcDbLine
 62
253
  6
CONTINUOUS
 10
111.0879660386
 20
120.6711864314
 11
108.1910873145
 21
120.6711864314
  0
LINE
  5
678
100
AcDbEntity
  8
0
100
AcDbLine
 62
253
  6
CONTINUOUS
 10
108.3926936042
 20
120.8728234314
 11
110.8863597489
 21
120.8728234314
  0
LINE
  5
679
100
AcDbEntity
  8
CURVE
100
AcDbLine
 62
253
  6
CONTINUOUS
 10
112.8582871201
 20
121.0083727974
 11
113.2653679998
 21
121.0083727974
  0
LINE
  5
67A
100
AcDbEntity
  8
CURVE
100
AcDbLine
 62
253
  6
CONTINUOUS
 10
113.6724488228
 20
121.0988490958
 11
114.2152232819
 21
121.0988490958
  0
LINE
  5
67B
100
AcDbEntity
  8
SMUSSO
100
AcDbLine
 62
7
  6
CONTINUOUS
 10
132.9766582552
 20
119.1193200473
 11
116.9129346252
 21
119.2595060396
  0
LINE
  5
67C
100
AcDbEntity
  8
ASSI
100
AcDbLine
 62
7
  6
CONTINUOUS
 10
132.9766582552
 20
119.1193200473
 11
116.9129346252
 21
119.2595060396
  0
LINE
  5
67D
100
AcDbEntity
  8
RACCORDO
100
AcDbLine
 62
253
  6
CONTINUOUS
 10
134.7557397171
 20
109.3417054314
 11
134.7557397171
 21
109.2917054314
  0
LINE
  5
67E
100
AcDbEntity
  8
ASSI
100
AcDbLine
 62
253
  6
CONTINUOUS
 10
134.7557397171
 20
109.3417054314
 11
134.7557397171
 21
109.2917054314
  0
LINE
  5
67F
100
AcDbEntity
  8
RACCORDO
100
AcDbLine
 62
253
  6
CONTINUOUS
 10
134.7557397171
 20
89.8917054314
 11
134.7557397171
 21
89.8417054314
  0
LINE
  5
680
100
AcDbEntity
  8
ASSI
100
AcDbLine
 62
253
  6
CONTINUOUS
 10
134.7557397171
 20
89.8917054314
 11
134.7557397171
 21
89.8417054314
  0
LINE
  5
681
100
AcDbEntity
  8
RACCORDO
100
AcDbLine
 62
253
  6
CONTINUOUS
 10
135.4209298224
 20
109.3417054314
 11
135.4209298224
 21
109.2917054314
  0
LINE
  5
682
100
AcDbEntity
  8
ASSI
100
AcDbLine
 62
253
  6
CONTINUOUS
 10
135.4209298224
 20
109.3417054314
 11
135.4209298224
 21
109.2917054314
  0
LINE
  5
683
100
AcDbEntity
  8
RACCORDO
100
AcDbLine
 62
253
  6
CONTINUOUS
 10
135.4209298224
 20
89.8917054314
 11
135.4209298224
 21
89.8417054314
  0
LINE
  5
684
100
AcDbEntity
  8
ASSI
100
AcDbLine
 62
253
  6
CONTINUOUS
 10
135.4209298224
 20
89.8917054314
 11
135.4209298224
 21
89.8417054314
  0
LINE
  5
685
100
AcDbEntity
  8
CURVE
100
AcDbLine
 62
253
  6
CONTINUOUS
 10
135.8845087187
 20
102.8750389714
 11
136.0701947082
 21
103.0607531685
  0
LINE
  5
686
100
AcDbEntity
  8
CURVE
100
AcDbLine
 62
253
  6
CONTINUOUS
 10
137.1843107224
 20
102.7821815628
 11
136.9986247136
 21
102.5964673657
  0
LINE
  5
687
100
AcDbEntity
  8
CURVE
100
AcDbLine
 62
253
  6
CONTINUOUS
 10
136.4415666871
 20
101.9464673657
 11
136.6272527153
 21
102.1321815628
  0
LINE
  5
688
100
AcDbEntity
  8
CURVE
100
AcDbLine
 62
253
  6
CONTINUOUS
 10
137.1843107224
 20
101.66789576
 11
136.9986247136
 21
101.4821815628
  0
LINE
  5
689
100
AcDbEntity
  8
CURVE
100
AcDbLine
 62
253
  6
CONTINUOUS
 10
135.8845087187
 20
98.8202768821
 11
136.0701947082
 21
98.9440863985
  0
LINE
  5
68A
100
AcDbEntity
  8
CURVE
100
AcDbLine
 62
253
  6
CONTINUOUS
 10
132.1850722466
 20
96.5917054314
 11
133.4848742503
 21
97.2417054314
  0
LINE
  5
68B
100
AcDbEntity
  8
CURVE
100
AcDbLine
 62
253
  6
CONTINUOUS
 10
136.9676770487
 20
97.8917054314
 11
137.0295723882
 21
97.9226578492
  0
LWPOLYLINE
  5
68C
100
AcDbEntity
  8
0
100
AcDbPolyline
 62
7
  6
CONTINUOUS
 90
6
 70
0
 10
102.0925139687
 20
83.4716814492
 10
102.0972742018
 20
83.4732522686
 10
102.1039136556
 20
83.4735284404
 10
102.1124429163
 20
83.4724981482
 10
102.12288982
 20
83.470172522
 10
102.1352156555
 20
83.4665727988
  0
LINE
  5
68D
100
AcDbEntity
  8
0
100
AcDbLine
 62
253
  6
CONTINUOUS
 10
109.7736702428
 20
121.5117194314
 11
109.5731987802
 21
121.5117194314
  0
LINE
  5
68E
100
AcDbEntity
  8
RACCORDO
100
AcDbLine
 62
7
  6
CONTINUOUS
 10
141.5879660386
 20
122.1917054314
 11
134.8379660386
 21
122.1917054314
  0
LINE
  5
68F
100
AcDbEntity
  8
ASSI
100
AcDbLine
 62
7
  6
CONTINUOUS
 10
141.5879660386
 20
122.1917054314
 11
134.8379660386
 21
122.1917054314
  0
LINE
  5
690
100
AcDbEntity
  8
0
100
AcDbLine
 62
253
  6
CONTINUOUS
 10
109.5731987802
 20
122.5120064314
 11
109.7736702428
 21
122.5120064314
  0
LINE
  5
691
100
AcDbEntity
  8
0
100
AcDbLine
 62
253
  6
CONTINUOUS
 10
108.1910873145
 20
122.5670394314
 11
108.3926936042
 21
122.5670394314
  0
LINE
  5
692
100
AcDbEntity
  8
0
100
AcDbLine
 62
253
  6
CONTINUOUS
 10
110.8863597489
 20
122.5917054314
 11
111.0879660386
 21
122.5917054314
  0
LINE
  5
693
100
AcDbEntity
  8
CURVE
100
AcDbLine
 62
253
  6
CONTINUOUS
 10
113.1296743355
 20
122.5917064328
 11
112.8582871201
 21
122.5917064328
  0
LINE
  5
694
100
AcDbEntity
  8
0
100
AcDbLine
 62
7
  6
CONTINUOUS
 10
102.7879660386
 20
123.5917054314
 11
105.5879660386
 21
123.4939272768
  0
LINE
  5
695
100
AcDbEntity
  8
CURVE
100
AcDbLine
 62
253
  6
CONTINUOUS
 10
135.8845087187
 20
98.5417054314
 11
135.8845087187
 21
98.8202768821
  0
LINE
  5
696
100
AcDbEntity
  8
CURVE
100
AcDbLine
 62
253
  6
CONTINUOUS
 10
135.8845087187
 20
101.66789576
 11
135.8845087187
 21
101.9464673657
  0
LINE
  5
697
100
AcDbEntity
  8
CURVE
100
AcDbLine
 62
253
  6
CONTINUOUS
 10
135.8845087187
 20
102.7821815628
 11
135.8845087187
 21
102.8750389714
  0
LINE
  5
698
100
AcDbEntity
  8
CURVE
100
AcDbLine
 62
253
  6
CONTINUOUS
 10
136.2558806976
 20
103.5250389714
 11
136.2558806976
 21
104.26789576
  0
LINE
  5
699
100
AcDbEntity
  8
CURVE
100
AcDbLine
 62
253
  6
CONTINUOUS
 10
136.2558806976
 20
105.8464673657
 11
136.2558806976
 21
106.3107531685
  0
LINE
  5
69A
100
AcDbEntity
  8
CURVE
100
AcDbLine
 62
253
  6
CONTINUOUS
 10
136.4415666871
 20
98.5417054314
 11
136.4415666871
 21
98.8202768821
  0
LINE
  5
69B
100
AcDbEntity
  8
CURVE
100
AcDbLine
 62
253
  6
CONTINUOUS
 10
136.4415666871
 20
101.66789576
 11
136.4415666871
 21
101.9464673657
  0
LINE
  5
69C
100
AcDbEntity
  8
CURVE
100
AcDbLine
 62
253
  6
CONTINUOUS
 10
136.8129387047
 20
104.8559912342
 11
136.8129387047
 21
105.3512293
  0
LINE
  5
69D
100
AcDbEntity
  8
CURVE
100
AcDbLine
 62
253
  6
CONTINUOUS
 10
136.9057817188
 20
97.2417054314
 11
136.9057817188
 21
96.5917054314
  0
LINE
  5
69E
100
AcDbEntity
  8
CURVE
100
AcDbLine
 62
253
  6
CONTINUOUS
 10
136.9676770487
 20
97.8607530135
 11
136.9676770487
 21
97.8917054314
  0
LINE
  5
69F
100
AcDbEntity
  8
0
100
AcDbLine
 62
7
  6
CONTINUOUS
 10
137.0879660386
 20
113.7688297759
 11
137.0879660386
 21
116.4145810869
  0
LINE
  5
6A0
100
AcDbEntity
  8
0
100
AcDbLine
 62
7
  6
CONTINUOUS
 10
137.0879660386
 20
118.7688297759
 11
137.0879660386
 21
121.4145810869
  0
LINE
  5
6A1
100
AcDbEntity
  8
CURVE
100
AcDbLine
 62
253
  6
CONTINUOUS
 10
137.1224153877
 20
97.8607530135
 11
137.1224153877
 21
97.8298006732
  0
LINE
  5
6A2
100
AcDbEntity
  8
CURVE
100
AcDbLine
 62
253
  6
CONTINUOUS
 10
137.1843107224
 20
102.8750389714
 11
137.1843107224
 21
102.7821815628
  0
LINE
  5
6A3
100
AcDbEntity
  8
CURVE
100
AcDbLine
 62
253
  6
CONTINUOUS
 10
137.1843107224
 20
101.9464673657
 11
137.1843107224
 21
101.66789576
  0
LINE
  5
6A4
100
AcDbEntity
  8
CURVE
100
AcDbLine
 62
253
  6
CONTINUOUS
 10
137.1843107224
 20
98.8202768821
 11
137.1843107224
 21
98.5417054314
  0
LINE
  5
6A5
100
AcDbEntity
  8
CURVE
100
AcDbLine
 62
253
  6
CONTINUOUS
 10
137.1843107224
 20
95.3417054314
 11
137.1843107224
 21
92.8417054314
  0
LINE
  5
6A6
100
AcDbEntity
  8
CURVE
100
AcDbLine
 62
253
  6
CONTINUOUS
 10
136.4415666871
 20
101.66789576
 11
136.3487237311
 21
101.5440863985
  0
LINE
  5
6A7
100
AcDbEntity
  8
CURVE
100
AcDbLine
 62
253
  6
CONTINUOUS
 10
136.4415666871
 20
98.5417054314
 11
136.3487237311
 21
98.417895915
  0
LINE
  5
6A8
100
AcDbEntity
  8
CURVE
100
AcDbLine
 62
253
  6
CONTINUOUS
 10
136.4415666871
 20
98.8202768821
 11
136.6272527153
 21
99.0059910793
  0
LINE
  5
6A9
100
AcDbEntity
  8
CURVE
100
AcDbLine
 62
253
  6
CONTINUOUS
 10
137.1843107224
 20
98.5417054314
 11
136.9986247136
 21
98.3559910793
  0
LINE
  5
6AA
100
AcDbEntity
  8
CURVE
100
AcDbLine
 62
253
  6
CONTINUOUS
 10
137.1224153877
 20
97.8298006732
 11
137.091467718
 21
97.7988482553
  0
LINE
  5
6AB
100
AcDbEntity
  8
0
100
AcDbLine
 62
7
  6
CONTINUOUS
 10
104.7379660386
 20
123.7731245483
 11
102.7879660386
 21
123.7390871717
  0
LINE
  5
6AC
100
AcDbEntity
  8
RACCORDO
100
AcDbLine
 62
253
  6
CONTINUOUS
 10
140.6054184451
 20
124.0102239351
 11
141.5879660386
 21
124.0102239351
  0
LINE
  5
6AD
100
AcDbEntity
  8
ASSI
100
AcDbLine
 62
253
  6
CONTINUOUS
 10
140.6054184451
 20
124.0102239351
 11
141.5879660386
 21
124.0102239351
  0
LINE
  5
6AE
100
AcDbEntity
  8
RACCORDO
100
AcDbLine
 62
253
  6
CONTINUOUS
 10
140.6054184451
 20
124.0102239351
 11
105.5879660386
 21
124.2634044801
  0
LINE
  5
6AF
100
AcDbEntity
  8
ASSI
100
AcDbLine
 62
253
  6
CONTINUOUS
 10
140.6054184451
 20
124.0102239351
 11
105.5879660386
 21
124.2634044801
  0
LINE
  5
6B0
100
AcDbEntity
  8
RACCORDO
100
AcDbLine
 62
253
  6
CONTINUOUS
 10
140.6054184451
 20
125.4242221059
 11
105.5879660386
 21
125.6774026509
  0
LINE
  5
6B1
100
AcDbEntity
  8
ASSI
100
AcDbLine
 62
253
  6
CONTINUOUS
 10
140.6054184451
 20
125.4242221059
 11
105.5879660386
 21
125.6774026509
  0
LINE
  5
6B2
100
AcDbEntity
  8
RACCORDO
100
AcDbLine
 62
253
  6
CONTINUOUS
 10
115.5879660386
 20
125.9098359905
 11
140.6054184451
 21
125.4731547344
  0
LINE
  5
6B3
100
AcDbEntity
  8
ASSI
100
AcDbLine
 62
253
  6
CONTINUOUS
 10
115.5879660386
 20
125.9098359905
 11
140.6054184451
 21
125.4731547344
  0
LINE
  5
6B4
100
AcDbEntity
  8
0
100
AcDbLine
 62
7
  6
CONTINUOUS
 10
104.7379660386
 20
126.2602863145
 11
102.9379660386
 21
126.2917054314
  0
LINE
  5
6B5
100
AcDbEntity
  8
RACCORDO
100
AcDbLine
 62
7
  6
CONTINUOUS
 10
115.5879660386
 20
126.2026846003
 11
140.6054184451
 21
125.7660033442
  0
LINE
  5
6B6
100
AcDbEntity
  8
ASSI
100
AcDbLine
 62
7
  6
CONTINUOUS
 10
115.5879660386
 20
126.2026846003
 11
140.6054184451
 21
125.7660033442
  0
LWPOLYLINE
  5
6B7
100
AcDbEntity
  8
RACCORDO
100
AcDbPolyline
 62
253
  6
CONTINUOUS
 90
58
 70
0
 10
140.6054184451
 20
125.4731547344
 10
140.6326737185
 20
125.4725554025
 10
140.6598957803
 20
125.4714308124
 10
140.687064389
 20
125.4697817987
 10
140.7141593352
 20
125.4676095862
 10
140.741160479
 20
125.4649157879
 10
140.7680477637
 20
125.4617024024
 10
140.7948012205
 20
125.4579718123
 10
140.8214009302
 20
125.4537267913
 10
140.8478270614
 20
125.4489705027
 10
140.8740599455
 20
125.4437064871
 10
140.9000800949
 20
125.4379386556
 10
140.9258681648
 20
125.4316712961
 10
140.9514049819
 20
125.4249090682
 10
140.9766715549
 20
125.4176570004
 10
141.0016490924
 20
125.4099204861
 10
141.0263190205
 20
125.4017052786
 10
141.050662996
 20
125.3930174861
 10
141.0746629171
 20
125.3838635688
 10
141.098300938
 20
125.3742503335
 10
141.1215594817
 20
125.3641849282
 10
141.1444212534
 20
125.3536748376
 10
141.1668692537
 20
125.3427278767
 10
141.1888867904
 20
125.3313521857
 10
141.2104574917
 20
125.3195562231
 10
141.2315653179
 20
125.3073487604
 10
141.2521945736
 20
125.2947388749
 10
141.2723299192
 20
125.2817359429
 10
141.2919563824
 20
125.2683496334
 10
141.3110593691
 20
125.2545899002
 10
141.3296246747
 20
125.2404669748
 10
141.3476384945
 20
125.2259913587
 10
141.3650874336
 20
125.2111738158
 10
141.3819585168
 20
125.1960253645
 10
141.3982391994
 20
125.1805572688
 10
141.4139173751
 20
125.1647810307
 10
141.4289813854
 20
125.1487083817
 10
141.4434200291
 20
125.1323512731
 10
141.4572225698
 20
125.1157218681
 10
141.4703787438
 20
125.0988325326
 10
141.4828787686
 20
125.0816958253
 10
141.4947133495
 20
125.0643244889
 10
141.5058736858
 20
125.046731442
 10
141.5163514788
 20
125.0289297674
 10
141.5261389381
 20
125.0109327014
 10
141.535228787
 20
124.9927536251
 10
141.5436142695
 20
124.9744060498
 10
141.5512891472
 20
124.9559036247
 10
141.5582477071
 20
124.9372601257
 10
141.5644847734
 20
124.9184894283
 10
141.5699957154
 20
124.8996054783
 10
141.574776442
 20
124.8806222988
 10
141.5788285008
 20
124.861527503
 10
141.5821417312
 20
124.8423615948
 10
141.5847045139
 20
124.8232188239
 10
141.5865221348
 20
124.8041406643
 10
141.5876065201
 20
124.7851149202
 10
141.5879660386
 20
124.766155649
  0
LWPOLYLINE
  5
6B8
100
AcDbEntity
  8
ASSI
100
AcDbPolyline
 62
253
  6
CONTINUOUS
 90
58
 70
0
 10
140.6054184451
 20
125.4731547344
 10
140.6326737185
 20
125.4725554025
 10
140.6598957803
 20
125.4714308124
 10
140.687064389
 20
125.4697817987
 10
140.7141593352
 20
125.4676095862
 10
140.741160479
 20
125.4649157879
 10
140.7680477637
 20
125.4617024024
 10
140.7948012205
 20
125.4579718123
 10
140.8214009302
 20
125.4537267913
 10
140.8478270614
 20
125.4489705027
 10
140.8740599455
 20
125.4437064871
 10
140.9000800949
 20
125.4379386556
 10
140.9258681648
 20
125.4316712961
 10
140.9514049819
 20
125.4249090682
 10
140.9766715549
 20
125.4176570004
 10
141.0016490924
 20
125.4099204861
 10
141.0263190205
 20
125.4017052786
 10
141.050662996
 20
125.3930174861
 10
141.0746629171
 20
125.3838635688
 10
141.098300938
 20
125.3742503335
 10
141.1215594817
 20
125.3641849282
 10
141.1444212534
 20
125.3536748376
 10
141.1668692537
 20
125.3427278767
 10
141.1888867904
 20
125.3313521857
 10
141.2104574917
 20
125.3195562231
 10
141.2315653179
 20
125.3073487604
 10
141.2521945736
 20
125.2947388749
 10
141.2723299192
 20
125.2817359429
 10
141.2919563824
 20
125.2683496334
 10
141.3110593691
 20
125.2545899002
 10
141.3296246747
 20
125.2404669748
 10
141.3476384945
 20
125.2259913587
 10
141.3650874336
 20
125.2111738158
 10
141.3819585168
 20
125.1960253645
 10
141.3982391994
 20
125.1805572688
 10
141.4139173751
 20
125.1647810307
 10
141.4289813854
 20
125.1487083817
 10
141.4434200291
 20
125.1323512731
 10
141.4572225698
 20
125.1157218681
 10
141.4703787438
 20
125.0988325326
 10
141.4828787686
 20
125.0816958253
 10
141.4947133495
 20
125.0643244889
 10
141.5058736858
 20
125.046731442
 10
141.5163514788
 20
125.0289297674
 10
141.5261389381
 20
125.0109327014
 10
141.535228787
 20
124.9927536251
 10
141.5436142695
 20
124.9744060498
 10
141.5512891472
 20
124.9559036247
 10
141.5582477071
 20
124.9372601257
 10
141.5644847734
 20
124.9184894283
 10
141.5699957154
 20
124.8996054783
 10
141.574776442
 20
124.8806222988
 10
141.5788285008
 20
124.861527503
 10
141.5821417312
 20
124.8423615948
 10
141.5847045139
 20
124.8232188239
 10
141.5865221348
 20
124.8041406643
 10
141.5876065201
 20
124.7851149202
 10
141.5879660386
 20
124.766155649
  0
LWPOLYLINE
  5
6B9
100
AcDbEntity
  8
RACCORDO
100
AcDbPolyline
 62
253
  6
CONTINUOUS
 90
49
 70
0
 10
140.6054184451
 20
125.4242221059
 10
140.6341684893
 20
125.42357468
 10
140.6628803054
 20
125.4223428163
 10
140.6915301373
 20
125.4205275341
 10
140.7200942798
 20
125.4181303353
 10
140.748549099
 20
125.4151532036
 10
140.7768710513
 20
125.411598602
 10
140.8050367029
 20
125.4074694717
 10
140.8330227495
 20
125.4027692292
 10
140.8608060353
 20
125.3975017635
 10
140.8883635724
 20
125.3916714328
 10
140.9156725596
 20
125.3852830613
 10
140.9427104013
 20
125.3783419346
 10
140.9694547264
 20
125.370853796
 10
140.9958834064
 20
125.362824841
 10
141.0219745742
 20
125.3542617129
 10
141.0477066419
 20
125.3451714968
 10
141.0730583186
 20
125.3355617141
 10
141.0980086284
 20
125.3254403159
 10
141.1225369272
 20
125.3148156766
 10
141.1466229203
 20
125.3036965871
 10
141.1702466788
 20
125.2920922475
 10
141.1933886563
 20
125.2800122591
 10
141.2160297052
 20
125.267466617
 10
141.238151092
 20
125.2544657015
 10
141.2597345135
 20
125.2410202696
 10
141.2807621116
 20
125.2271414461
 10
141.3012164878
 20
125.2128407143
 10
141.3210807182
 20
125.1981299069
 10
141.3403383671
 20
125.1830211954
 10
141.3589735005
 20
125.167527081
 10
141.3769706999
 20
125.1516603835
 10
141.394315074
 20
125.135434231
 10
141.4109922723
 20
125.1188620492
 10
141.4269884959
 20
125.1019575499
 10
141.4422905096
 20
125.0847347199
 10
141.4568856522
 20
125.0672078096
 10
141.4707618479
 20
125.0493913206
 10
141.4839076153
 20
125.0312999945
 10
141.4963120777
 20
125.0129488001
 10
141.5079649715
 20
124.9943529211
 10
141.5188566551
 20
124.9755277439
 10
141.5289781166
 20
124.9564888445
 10
141.5383209817
 20
124.9372519758
 10
141.5468775198
 20
124.9178330544
 10
141.5546406513
 20
124.8982481475
 10
141.561603953
 20
124.8785134599
 10
141.5677616635
 20
124.85864532
 10
141.5731086877
 20
124.8386601668
  0
LWPOLYLINE
  5
6BA
100
AcDbEntity
  8
ASSI
100
AcDbPolyline
 62
253
  6
CONTINUOUS
 90
46
 70
0
 10
140.6054184451
 20
125.4242221059
 10
140.6341684893
 20
125.42357468
 10
140.6628803054
 20
125.4223428163
 10
140.6915301373
 20
125.4205275341
 10
140.7200942798
 20
125.4181303353
 10
140.748549099
 20
125.4151532036
 10
140.7768710513
 20
125.411598602
 10
140.8050367029
 20
125.4074694717
 10
140.8330227495
 20
125.4027692292
 10
140.8608060353
 20
125.3975017635
 10
140.8883635724
 20
125.3916714328
 10
140.9156725596
 20
125.3852830613
 10
140.9427104013
 20
125.3783419346
 10
140.9694547264
 20
125.370853796
 10
140.9958834064
 20
125.362824841
 10
141.0219745742
 20
125.3542617129
 10
141.0477066419
 20
125.3451714968
 10
141.0730583186
 20
125.3355617141
 10
141.0980086284
 20
125.3254403159
 10
141.1225369272
 20
125.3148156766
 10
141.1466229203
 20
125.3036965871
 10
141.1702466788
 20
125.2920922475
 10
141.1933886563
 20
125.2800122591
 10
141.2160297052
 20
125.267466617
 10
141.238151092
 20
125.2544657015
 10
141.2597345135
 20
125.2410202696
 10
141.2807621116
 20
125.2271414461
 10
141.3012164878
 20
125.2128407143
 10
141.3210807182
 20
125.1981299069
 10
141.3403383671
 20
125.1830211954
 10
141.3589735005
 20
125.167527081
 10
141.3769706999
 20
125.1516603835
 10
141.394315074
 20
125.135434231
 10
141.4109922723
 20
125.1188620492
 10
141.4269884959
 20
125.1019575499
 10
141.4422905096
 20
125.0847347199
 10
141.4568856522
 20
125.0672078096
 10
141.4707618479
 20
125.0493913206
 10
141.4839076153
 20
125.0312999945
 10
141.4963120777
 20
125.0129488001
 10
141.5079649715
 20
124.9943529211
 10
141.5188566551
 20
124.9755277439
 10
141.5289781166
 20
124.9564888445
 10
141.5383209817
 20
124.9372519758
 10
141.5468775198
 20
124.9178330544
 10
141.5546406513
 20
124.8982481475
  0
LINE
  5
6BB
100
AcDbEntity
  8
0
100
AcDbLine
 62
7
  6
CONTINUOUS
 10
102.9379660386
 20
126.2917054314
 11
102.7879660386
 21
126.3021944532
  0
LINE
  5
6BC
100
AcDbEntity
  8
0
100
AcDbLine
 62
7
  6
CONTINUOUS
 10
138.0879660386
 20
122.1917054314
 11
138.0879660386
 21
117.9917054314
  0
LINE
  5
6BD
100
AcDbEntity
  8
0
100
AcDbLine
 62
7
  6
CONTINUOUS
 10
138.0879660386
 20
117.1917054314
 11
138.0879660386
 21
112.9917054314
  0
LINE
  5
6BE
100
AcDbEntity
  8
DRAFT
100
AcDbLine
 62
7
  6
CONTINUOUS
 10
140.0879660386
 20
110.3273308617
 11
140.0879660386
 21
109.3417054314
  0
LINE
  5
6BF
100
AcDbEntity
  8
0
100
AcDbLine
 62
7
  6
CONTINUOUS
 10
140.0879660386
 20
110.0417054314
 11
140.0879660386
 21
109.2917054314
  0
LINE
  5
6C0
100
AcDbEntity
  8
ASSI
100
AcDbLine
 62
7
  6
CONTINUOUS
 10
140.0879660386
 20
110.3273308617
 11
140.0879660386
 21
109.2917054314
  0
LINE
  5
6C1
100
AcDbEntity
  8
RACCORDO
100
AcDbLine
 62
7
  6
CONTINUOUS
 10
140.0879660386
 20
89.8417054314
 11
140.0879660386
 21
88.856080001
  0
LINE
  5
6C2
100
AcDbEntity
  8
0
100
AcDbLine
 62
7
  6
CONTINUOUS
 10
140.0879660386
 20
89.1417054314
 11
140.0879660386
 21
89.8917054314
  0
LINE
  5
6C3
100
AcDbEntity
  8
ASSI
100
AcDbLine
 62
7
  6
CONTINUOUS
 10
140.0879660386
 20
88.856080001
 11
140.0879660386
 21
89.8917054314
  0
LINE
  5
6C4
100
AcDbEntity
  8
0
100
AcDbLine
 62
7
  6
CONTINUOUS
 10
140.0879660386
 20
112.9917054314
 11
140.0879660386
 21
117.1917054314
  0
LINE
  5
6C5
100
AcDbEntity
  8
ASSI
100
AcDbLine
 62
7
  6
CONTINUOUS
 10
140.0879660386
 20
112.9917054314
 11
140.0879660386
 21
117.1917054314
  0
LINE
  5
6C6
100
AcDbEntity
  8
0
100
AcDbLine
 62
7
  6
CONTINUOUS
 10
140.0879660386
 20
117.9917054314
 11
140.0879660386
 21
122.1917054314
  0
LINE
  5
6C7
100
AcDbEntity
  8
ASSI
100
AcDbLine
 62
7
  6
CONTINUOUS
 10
140.0879660386
 20
117.9917054314
 11
140.0879660386
 21
122.1917054314
  0
LINE
  5
6C8
100
AcDbEntity
  8
0
100
AcDbLine
 62
7
  6
CONTINUOUS
 10
102.7879660386
 20
126.4917054314
 11
104.5879660386
 21
126.5545628165
  0
LINE
  5
6C9
100
AcDbEntity
  8
0
100
AcDbLine
 62
253
  6
CONTINUOUS
 10
95.2831495731
 20
127.4689728475
 11
94.9327919739
 21
127.4618743819
  0
LINE
  5
6CA
100
AcDbEntity
  8
0
100
AcDbLine
 62
7
  6
CONTINUOUS
 10
104.5879660386
 20
126.2829785636
 11
105.5879660386
 21
126.2917054314
  0
LINE
  5
6CB
100
AcDbEntity
  8
0
100
AcDbLine
 62
7
  6
CONTINUOUS
 10
115.5879660386
 20
127.5789741093
 11
104.5879660386
 21
127.4829785636
  0
LINE
  5
6CC
100
AcDbEntity
  8
0
100
AcDbLine
 62
7
  6
CONTINUOUS
 10
115.5553401627
 20
128.0528995236
 11
104.5879660386
 21
127.9968188415
  0
LINE
  5
6CD
100
AcDbEntity
  8
DRAFT
100
AcDbLine
 62
7
  6
CONTINUOUS
 10
105.5879660386
 20
127.4417054314
 11
115.5879660386
 21
127.4417054314
  0
LINE
  5
6CE
100
AcDbEntity
  8
ASSI
100
AcDbLine
 62
7
  6
CONTINUOUS
 10
105.5879660386
 20
127.4417054314
 11
115.5879660386
 21
127.4417054314
  0
LINE
  5
6CF
100
AcDbEntity
  8
0
100
AcDbLine
 62
253
  6
CONTINUOUS
 10
104.5879660386
 20
128.4743265189
 11
103.5879660386
 21
128.4917815838
  0
LINE
  5
6D0
100
AcDbEntity
  8
0
100
AcDbLine
 62
253
  6
CONTINUOUS
 10
95.7684774081
 20
127.4475307904
 11
95.418292253
 21
127.4627992489
  0
LWPOLYLINE
  5
6D1
100
AcDbEntity
  8
0
100
AcDbPolyline
 62
253
  6
CONTINUOUS
 90
3
 70
0
 10
95.418292253
 20
127.4627992489
 10
95.2888539313
 20
127.4686719262
 10
95.2831495964
 20
127.4689729486
  0
LWPOLYLINE
  5
6D2
100
AcDbEntity
  8
0
100
AcDbPolyline
 62
7
  6
CONTINUOUS
 90
10
 70
0
 43
0.3500000006
 10
118.9522433167
 20
153.2351638184
 10
119.0236744995
 20
153.0923014526
 10
119.0236744995
 20
153.0208793335
 10
118.8808121338
 20
152.8780169678
 10
118.8093900146
 20
152.8780169678
 10
118.7379588318
 20
152.9494390869
 10
118.7379588318
 20
153.0208793335
 10
118.8093900146
 20
153.1637416992
 10
118.8808121338
 20
153.2351638184
 10
118.9522433167
 20
153.2351638184
  0
LWPOLYLINE
  5
6D3
100
AcDbEntity
  8
RACCORDO
100
AcDbPolyline
 62
253
  6
CONTINUOUS
 90
8
 70
0
 10
140.6065193478
 20
125.7453282179
 10
140.606408272
 20
125.7507963746
 10
140.6062815971
 20
125.7554316946
 10
140.6061394305
 20
125.7592302573
 10
140.6059818923
 20
125.7621888495
 10
140.6058091158
 20
125.764304969
 10
140.6056212471
 20
125.7655768258
 10
140.6054184451
 20
125.7660033442
  0
LWPOLYLINE
  5
6D4
100
AcDbEntity
  8
ASSI
100
AcDbPolyline
 62
253
  6
CONTINUOUS
 90
8
 70
0
 10
140.6065193478
 20
125.7453282179
 10
140.606408272
 20
125.7507963746
 10
140.6062815971
 20
125.7554316946
 10
140.6061394305
 20
125.7592302573
 10
140.6059818923
 20
125.7621888495
 10
140.6058091158
 20
125.764304969
 10
140.6056212471
 20
125.7655768258
 10
140.6054184451
 20
125.7660033442
  0
LINE
  5
6D5
100
AcDbEntity
  8
RACCORDO
100
AcDbLine
 62
253
  6
CONTINUOUS
 10
141.587552337
 20
124.7375605747
 11
141.5879660386
 21
124.7172230205
  0
LINE
  5
6D6
100
AcDbEntity
  8
ASSI
100
AcDbLine
 62
253
  6
CONTINUOUS
 10
141.587552337
 20
124.7375605747
 11
141.5879660386
 21
124.7172230205
  0
LINE
  5
6D7
100
AcDbEntity
  8
RACCORDO
100
AcDbLine
 62
253
  6
CONTINUOUS
 10
140.6066943402
 20
125.7319125952
 11
140.6065193478
 21
125.7453282179
  0
LINE
  5
6D8
100
AcDbEntity
  8
ASSI
100
AcDbLine
 62
253
  6
CONTINUOUS
 10
140.6066943402
 20
125.7319125952
 11
140.6065193478
 21
125.7453282179
  0
LINE
  5
6D9
100
AcDbEntity
  8
RACCORDO
100
AcDbLine
 62
253
  6
CONTINUOUS
 10
140.6066147308
 20
87.5662877914
 11
140.6054184451
 21
87.7102561284
  0
LINE
  5
6DA
100
AcDbEntity
  8
ASSI
100
AcDbLine
 62
253
  6
CONTINUOUS
 10
140.6066147308
 20
87.5662877914
 11
140.6054184451
 21
87.7102561284
  0
LINE
  5
6DB
100
AcDbEntity
  8
RACCORDO
100
AcDbLine
 62
253
  6
CONTINUOUS
 10
140.6068059822
 20
125.7152302063
 11
140.6066943402
 21
125.7319125952
  0
LINE
  5
6DC
100
AcDbEntity
  8
ASSI
100
AcDbLine
 62
253
  6
CONTINUOUS
 10
140.6068059822
 20
125.7152302063
 11
140.6066943402
 21
125.7319125952
  0
LINE
  5
6DD
100
AcDbEntity
  8
RACCORDO
100
AcDbLine
 62
253
  6
CONTINUOUS
 10
140.6068538964
 20
87.4992030111
 11
140.6066147308
 21
87.5662877914
  0
LINE
  5
6DE
100
AcDbEntity
  8
ASSI
100
AcDbLine
 62
253
  6
CONTINUOUS
 10
140.6068538964
 20
87.4992030111
 11
140.6066147308
 21
87.5662877914
  0
LINE
  5
6DF
100
AcDbEntity
  8
RACCORDO
100
AcDbLine
 62
253
  6
CONTINUOUS
 10
140.6068379298
 20
124.8553214591
 11
140.6054184451
 21
125.4242221059
  0
LINE
  5
6E0
100
AcDbEntity
  8
ASSI
100
AcDbLine
 62
253
  6
CONTINUOUS
 10
140.6068379298
 20
124.8553214591
 11
140.6054184451
 21
125.4242221059
  0
LINE
  5
6E1
100
AcDbEntity
  8
RACCORDO
100
AcDbLine
 62
253
  6
CONTINUOUS
 10
140.6054184451
 20
117.9917054314
 11
140.6054184451
 21
117.1917054314
  0
LINE
  5
6E2
100
AcDbEntity
  8
ASSI
100
AcDbLine
 62
253
  6
CONTINUOUS
 10
140.6054184451
 20
117.9917054314
 11
140.6054184451
 21
117.1917054314
  0
LINE
  5
6E3
100
AcDbEntity
  8
RACCORDO
100
AcDbLine
 62
253
  6
CONTINUOUS
 10
140.6054184451
 20
112.9917054314
 11
140.6054184451
 21
110.3318466005
  0
LINE
  5
6E4
100
AcDbEntity
  8
ASSI
100
AcDbLine
 62
253
  6
CONTINUOUS
 10
140.6054184451
 20
112.9917054314
 11
140.6054184451
 21
110.3318466005
  0
LINE
  5
6E5
100
AcDbEntity
  8
0
100
AcDbLine
 62
253
  6
CONTINUOUS
 10
140.6054184451
 20
110.0417054314
 11
140.6054184451
 21
89.1417054314
  0
LINE
  5
6E6
100
AcDbEntity
  8
ASSI
100
AcDbLine
 62
253
  6
CONTINUOUS
 10
140.6054184451
 20
110.0417054314
 11
140.6054184451
 21
89.1417054314
  0
LINE
  5
6E7
100
AcDbEntity
  8
RACCORDO
100
AcDbLine
 62
253
  6
CONTINUOUS
 10
140.6054184451
 20
87.7102561284
 11
140.6054184451
 21
87.7591887568
  0
LINE
  5
6E8
100
AcDbEntity
  8
ASSI
100
AcDbLine
 62
253
  6
CONTINUOUS
 10
140.6054184451
 20
87.7102561284
 11
140.6054184451
 21
87.7591887568
  0
LINE
  5
6E9
100
AcDbEntity
  8
RACCORDO
100
AcDbLine
 62
253
  6
CONTINUOUS
 10
140.6054184451
 20
125.4242221059
 11
140.6054184451
 21
125.4731547344
  0
LINE
  5
6EA
100
AcDbEntity
  8
ASSI
100
AcDbLine
 62
253
  6
CONTINUOUS
 10
140.6054184451
 20
125.4242221059
 11
140.6054184451
 21
125.4731547344
  0
LINE
  5
6EB
100
AcDbEntity
  8
RACCORDO
100
AcDbLine
 62
253
  6
CONTINUOUS
 10
140.6068538964
 20
125.6842078517
 11
140.6068059822
 21
125.7152302063
  0
LINE
  5
6EC
100
AcDbEntity
  8
ASSI
100
AcDbLine
 62
253
  6
CONTINUOUS
 10
140.6068538964
 20
125.6842078517
 11
140.6068059822
 21
125.7152302063
  0
LINE
  5
6ED
100
AcDbEntity
  8
SMUSSO
100
AcDbLine
 62
7
  6
CONTINUOUS
 10
141.5879660386
 20
124.7172230205
 11
141.5879660386
 21
124.2917054314
  0
LINE
  5
6EE
100
AcDbEntity
  8
RACCORDO
100
AcDbLine
 62
7
  6
CONTINUOUS
 10
141.5879660386
 20
117.9917054314
 11
141.5879660386
 21
117.1917054314
  0
LINE
  5
6EF
100
AcDbEntity
  8
RACCORDO
100
AcDbLine
 62
7
  6
CONTINUOUS
 10
141.5879660386
 20
112.9917054314
 11
141.5879660386
 21
110.3404211634
  0
LINE
  5
6F0
100
AcDbEntity
  8
DRAFT
100
AcDbLine
 62
7
  6
CONTINUOUS
 10
141.5879660386
 20
110.3404211634
 11
141.5879660386
 21
110.0417054314
  0
LINE
  5
6F1
100
AcDbEntity
  8
0
100
AcDbLine
 62
7
  6
CONTINUOUS
 10
141.5879660386
 20
110.0417054314
 11
141.5879660386
 21
89.1417054314
  0
LINE
  5
6F2
100
AcDbEntity
  8
DRAFT
100
AcDbLine
 62
7
  6
CONTINUOUS
 10
141.5879660386
 20
89.1417054314
 11
141.5879660386
 21
88.8429896994
  0
LINE
  5
6F3
100
AcDbEntity
  8
RACCORDO
100
AcDbLine
 62
7
  6
CONTINUOUS
 10
141.5879660386
 20
88.4172552138
 11
141.5879660386
 21
88.8429896994
  0
LINE
  5
6F4
100
AcDbEntity
  8
SMUSSO
100
AcDbLine
 62
7
  6
CONTINUOUS
 10
141.5879660386
 20
88.4661878422
 11
141.5879660386
 21
88.8429896994
  0
LINE
  5
6F5
100
AcDbEntity
  8
0
100
AcDbLine
 62
7
  6
CONTINUOUS
 10
141.5879660386
 20
112.9917054314
 11
141.5879660386
 21
117.1917054314
  0
LINE
  5
6F6
100
AcDbEntity
  8
0
100
AcDbLine
 62
7
  6
CONTINUOUS
 10
141.5879660386
 20
117.9917054314
 11
141.5879660386
 21
122.1917054314
  0
LINE
  5
6F7
100
AcDbEntity
  8
RACCORDO
100
AcDbLine
 62
7
  6
CONTINUOUS
 10
141.5879660386
 20
122.1917054314
 11
141.5879660386
 21
124.766155649
  0
LINE
  5
6F8
100
AcDbEntity
  8
ASSI
100
AcDbLine
 62
7
  6
CONTINUOUS
 10
141.5879660386
 20
88.4172552138
 11
141.5879660386
 21
124.766155649
  0
LINE
  5
6F9
100
AcDbEntity
  8
RACCORDO
100
AcDbLine
 62
253
  6
CONTINUOUS
 10
140.6064583945
 20
88.0469876329
 11
140.6063536352
 21
88.851556101
  0
LINE
  5
6FA
100
AcDbEntity
  8
ASSI
100
AcDbLine
 62
253
  6
CONTINUOUS
 10
140.6064583945
 20
88.0469876329
 11
140.6063536352
 21
88.851556101
  0
LINE
  5
6FB
100
AcDbEntity
  8
RACCORDO
100
AcDbLine
 62
253
  6
CONTINUOUS
 10
140.6068059822
 20
87.4681806565
 11
140.6068538964
 21
87.4992030111
  0
LINE
  5
6FC
100
AcDbEntity
  8
ASSI
100
AcDbLine
 62
253
  6
CONTINUOUS
 10
140.6068059822
 20
87.4681806565
 11
140.6068538964
 21
87.4992030111
  0
LWPOLYLINE
  5
6FD
100
AcDbEntity
  8
RACCORDO
100
AcDbPolyline
 62
253
  6
CONTINUOUS
 90
3
 70
0
 10
140.6054184451
 20
122.1917054314
 10
140.6055718303
 20
124.053847048
 10
140.6068379298
 20
124.8553214591
  0
LWPOLYLINE
  5
6FE
100
AcDbEntity
  8
ASSI
100
AcDbPolyline
 62
253
  6
CONTINUOUS
 90
3
 70
0
 10
140.6054184451
 20
122.1917054314
 10
140.6055718303
 20
124.053847048
 10
140.6068379298
 20
124.8553214591
  0
LINE
  5
6FF
100
AcDbEntity
  8
RACCORDO
100
AcDbLine
 62
253
  6
CONTINUOUS
 10
140.6054184451
 20
87.7591887568
 11
140.6064583945
 21
88.0469876329
  0
LINE
  5
700
100
AcDbEntity
  8
ASSI
100
AcDbLine
 62
253
  6
CONTINUOUS
 10
140.6054184451
 20
87.7591887568
 11
140.6064583945
 21
88.0469876329
  0
LINE
  5
701
100
AcDbEntity
  8
RACCORDO
100
AcDbLine
 62
253
  6
CONTINUOUS
 10
140.6066147308
 20
125.6171230714
 11
140.6068538964
 21
125.6842078517
  0
LINE
  5
702
100
AcDbEntity
  8
ASSI
100
AcDbLine
 62
253
  6
CONTINUOUS
 10
140.6066147308
 20
125.6171230714
 11
140.6068538964
 21
125.6842078517
  0
LINE
  5
703
100
AcDbEntity
  8
RACCORDO
100
AcDbLine
 62
253
  6
CONTINUOUS
 10
140.6066943402
 20
87.4514982676
 11
140.6068059822
 21
87.4681806565
  0
LINE
  5
704
100
AcDbEntity
  8
ASSI
100
AcDbLine
 62
253
  6
CONTINUOUS
 10
140.6066943402
 20
87.4514982676
 11
140.6068059822
 21
87.4681806565
  0
LINE
  5
705
100
AcDbEntity
  8
RACCORDO
100
AcDbLine
 62
253
  6
CONTINUOUS
 10
140.6054184451
 20
125.4731547344
 11
140.6066147308
 21
125.6171230714
  0
LINE
  5
706
100
AcDbEntity
  8
ASSI
100
AcDbLine
 62
253
  6
CONTINUOUS
 10
140.6054184451
 20
125.4731547344
 11
140.6066147308
 21
125.6171230714
  0
LINE
  5
707
100
AcDbEntity
  8
RACCORDO
100
AcDbLine
 62
253
  6
CONTINUOUS
 10
141.587552337
 20
88.4458502883
 11
141.5879660386
 21
88.4661878422
  0
LINE
  5
708
100
AcDbEntity
  8
ASSI
100
AcDbLine
 62
253
  6
CONTINUOUS
 10
141.587552337
 20
88.4458502883
 11
141.5879660386
 21
88.4661878422
  0
LWPOLYLINE
  5
709
100
AcDbEntity
  8
0
100
AcDbPolyline
 62
253
  6
CONTINUOUS
 90
22
 70
0
 10
96.4339691605
 20
128.1167801069
 10
96.3845899701
 20
128.1124325087
 10
96.3360383325
 20
128.104744582
 10
96.2883142479
 20
128.0937163267
 10
96.241166482
 20
128.0792588504
 10
96.1948462691
 20
128.0614610456
 10
96.1501073111
 20
128.04058959
 10
96.1069966751
 20
128.0166009728
 10
96.065467294
 20
127.9895387047
 10
96.0261316685
 20
127.9597999959
 10
95.9890214833
 20
127.9273430237
 10
95.9541050536
 20
127.8922096108
 10
95.9218998259
 20
127.854922435
 10
95.8924474092
 20
127.8154483348
 10
95.8657061945
 20
127.7738204718
 10
95.8420688007
 20
127.7306610084
 10
95.82158212
 20
127.6859274857
 10
95.8041992603
 20
127.6396623627
 10
95.790172165
 20
127.5926151777
 10
95.779584815
 20
127.5450357771
 10
95.7723532294
 20
127.4966743147
 10
95.7684774081
 20
127.4475307904
  0
LWPOLYLINE
  5
70A
100
AcDbEntity
  8
0
100
AcDbPolyline
 62
7
  6
CONTINUOUS
 90
22
 70
0
 10
96.4208896566
 20
128.6160948743
 10
96.336676461
 20
128.608708317
 10
96.2532103651
 20
128.5954316887
 10
96.1709021557
 20
128.5763340251
 10
96.090158763
 20
128.5515142679
 10
96.0113743467
 20
128.5210976637
 10
95.9349293297
 20
128.4852325611
 10
95.8611945794
 20
128.4440939506
 10
95.790537747
 20
128.3978881796
 10
95.7233144868
 20
128.3468482445
 10
95.6598559315
 20
128.2912294434
 10
95.6004706526
 20
128.2313067197
 10
95.5454518815
 20
128.167377064
 10
95.4950683917
 20
128.0997568995
 10
95.4495661108
 20
128.0287813412
 10
95.4091696546
 20
127.9548023459
 10
95.3740780213
 20
127.8781913868
 10
95.3444579697
 20
127.7993216729
 10
95.3204499643
 20
127.7185656348
 10
95.3021726406
 20
127.6363150623
 10
95.2897183559
 20
127.5529805944
 10
95.283149591
 20
127.4689728465
  0
LINE
  5
70B
100
AcDbEntity
  8
0
100
AcDbLine
 62
253
  6
CONTINUOUS
 10
103.5879660386
 20
128.4917051963
 11
96.4339691605
 21
128.1167801069
  0
LINE
  5
70C
100
AcDbEntity
  8
0
100
AcDbLine
 62
7
  6
CONTINUOUS
 10
103.5879609307
 20
128.9917051637
 11
103.3789185005
 21
128.9807497142
  0
LINE
  5
70D
100
AcDbEntity
  8
0
100
AcDbLine
 62
7
  6
CONTINUOUS
 10
102.333602937
 20
128.9258580086
 11
96.0683642928
 21
128.5976198028
  0
LWPOLYLINE
  5
70E
100
AcDbEntity
  8
0
100
AcDbPolyline
 62
253
  6
CONTINUOUS
 90
5
 70
0
 10
109.5569649068
 20
130.2404671489
 10
109.5706695643
 20
130.2405837088
 10
109.5804657749
 20
130.2407680413
 10
109.5862473351
 20
130.2410161715
 10
109.5879660386
 20
130.2413004124
  0
LINE
  5
70F
100
AcDbEntity
  8
0
100
AcDbLine
 62
253
  6
CONTINUOUS
 10
101.0879660386
 20
130.4360429987
 11
101.2844755574
 21
130.4360429987
  0
LINE
  5
710
100
AcDbEntity
  8
0
100
AcDbLine
 62
253
  6
CONTINUOUS
 10
104.3914565199
 20
130.4360429987
 11
104.5879660386
 21
130.4360429987
  0
LINE
  5
711
100
AcDbEntity
  8
0
100
AcDbLine
 62
253
  6
CONTINUOUS
 10
101.0879660386
 20
130.8023934533
 11
101.2844755574
 21
130.8023934533
  0
LINE
  5
712
100
AcDbEntity
  8
0
100
AcDbLine
 62
253
  6
CONTINUOUS
 10
104.3914565199
 20
130.8285760507
 11
104.5879660386
 21
130.8285760507
  0
LINE
  5
713
100
AcDbEntity
  8
0
100
AcDbLine
 62
253
  6
CONTINUOUS
 10
109.5184648905
 20
130.2404436158
 11
109.5569649068
 21
130.2404671489
  0
LINE
  5
714
100
AcDbEntity
  8
0
100
AcDbLine
 62
253
  6
CONTINUOUS
 10
109.4363908388
 20
130.2409223143
 11
109.5184648905
 21
130.2404436158
  0
LINE
  5
715
100
AcDbEntity
  8
0
100
AcDbLine
 62
253
  6
CONTINUOUS
 10
109.2558541445
 20
130.2429423216
 11
109.4363908388
 21
130.2409223143
  0
LINE
  5
716
100
AcDbEntity
  8
0
100
AcDbLine
 62
7
  6
CONTINUOUS
 10
114.6054184451
 20
128.7993950843
 11
103.5879697383
 21
128.9917053668
  0
LINE
  5
717
100
AcDbEntity
  8
0
100
AcDbLine
 62
253
  6
CONTINUOUS
 10
104.5879660386
 20
130.3242884427
 11
109.2558541445
 21
130.2429423216
  0
LINE
  5
718
100
AcDbEntity
  8
0
100
AcDbLine
 62
7
  6
CONTINUOUS
 10
104.5879660386
 20
130.5742503665
 11
109.3423253517
 21
130.491262716
  0
LINE
  5
719
100
AcDbEntity
  8
0
100
AcDbLine
 62
253
  6
CONTINUOUS
 10
104.3423291403
 20
130.8785684354
 11
103.5879660386
 21
130.8917358924
  0
LINE
  5
71A
100
AcDbEntity
  8
0
100
AcDbLine
 62
7
  6
CONTINUOUS
 10
104.3423291403
 20
131.0785379745
 11
103.5879660386
 21
131.0917054314
  0
LWPOLYLINE
  5
71B
100
AcDbEntity
  8
RACCORDO
100
AcDbPolyline
 62
253
  6
CONTINUOUS
 90
6
 70
0
 10
141.5731086879
 20
88.3447506967
 10
141.5776406017
 20
88.3648363273
 10
141.5813536555
 20
88.3850058164
 10
141.5842447771
 20
88.4052424759
 10
141.5863115742
 20
88.4255295617
 10
141.587552337
 20
88.4458502883
  0
LWPOLYLINE
  5
71C
100
AcDbEntity
  8
ASSI
100
AcDbPolyline
 62
253
  6
CONTINUOUS
 90
6
 70
0
 10
141.5731086879
 20
88.3447506967
 10
141.5776406017
 20
88.3648363273
 10
141.5813536555
 20
88.3850058164
 10
141.5842447771
 20
88.4052424759
 10
141.5863115742
 20
88.4255295617
 10
141.587552337
 20
88.4458502883
  0
LINE
  5
71D
100
AcDbEntity
  8
0
100
AcDbLine
 62
253
  6
CONTINUOUS
 10
101.333602937
 20
130.8523858381
 11
103.5879660386
 21
130.8917358924
  0
LINE
  5
71E
100
AcDbEntity
  8
0
100
AcDbLine
 62
7
  6
CONTINUOUS
 10
101.333602937
 20
131.0523553771
 11
103.5879660386
 21
131.0917054314
  0
LWPOLYLINE
  5
71F
100
AcDbEntity
  8
RACCORDO
100
AcDbPolyline
 62
253
  6
CONTINUOUS
 90
6
 70
0
 10
141.5731086877
 20
124.8386601668
 10
141.5776406016
 20
124.8185745362
 10
141.5813536554
 20
124.7984050469
 10
141.584244777
 20
124.7781683873
 10
141.5863115742
 20
124.7578813014
 10
141.587552337
 20
124.7375605747
  0
LWPOLYLINE
  5
720
100
AcDbEntity
  8
ASSI
100
AcDbPolyline
 62
253
  6
CONTINUOUS
 90
6
 70
0
 10
141.5731086877
 20
124.8386601668
 10
141.5776406016
 20
124.8185745362
 10
141.5813536554
 20
124.7984050469
 10
141.584244777
 20
124.7781683873
 10
141.5863115742
 20
124.7578813014
 10
141.587552337
 20
124.7375605747
  0
LWPOLYLINE
  5
721
100
AcDbEntity
  8
ASSI
100
AcDbPolyline
 62
253
  6
CONTINUOUS
 90
4
 70
0
 10
141.5546406517
 20
88.2851627163
 10
141.5616039533
 20
88.3048974038
 10
141.5677616637
 20
88.3247655436
 10
141.5731086879
 20
88.3447506967
  0
LWPOLYLINE
  5
722
100
AcDbEntity
  8
RACCORDO
100
AcDbPolyline
 62
253
  6
CONTINUOUS
 90
9
 70
0
 10
140.6054184451
 20
87.4174075186
 10
140.6056212471
 20
87.417834037
 10
140.6058091158
 20
87.4191058938
 10
140.6059818923
 20
87.4212220133
 10
140.6061394305
 20
87.4241806055
 10
140.6062815971
 20
87.4279791681
 10
140.606408272
 20
87.4326144882
 10
140.6065193478
 20
87.4380826449
 10
140.6066943402
 20
87.4514982676
  0
LWPOLYLINE
  5
723
100
AcDbEntity
  8
ASSI
100
AcDbPolyline
 62
253
  6
CONTINUOUS
 90
9
 70
0
 10
140.6054184451
 20
87.4174075186
 10
140.6056212471
 20
87.417834037
 10
140.6058091158
 20
87.4191058938
 10
140.6059818923
 20
87.4212220133
 10
140.6061394305
 20
87.4241806055
 10
140.6062815971
 20
87.4279791681
 10
140.606408272
 20
87.4326144882
 10
140.6065193478
 20
87.4380826449
 10
140.6066943402
 20
87.4514982676
  0
LWPOLYLINE
  5
724
100
AcDbEntity
  8
ASSI
100
AcDbPolyline
 62
253
  6
CONTINUOUS
 90
4
 70
0
 10
141.5546406513
 20
124.8982481475
 10
141.561603953
 20
124.8785134599
 10
141.5677616635
 20
124.85864532
 10
141.5731086877
 20
124.8386601668
  0
LWPOLYLINE
  5
725
100
AcDbEntity
  8
0
100
AcDbPolyline
 62
7
  6
CONTINUOUS
 90
6
 70
0
 43
0.3500000006
 10
120.8379685364
 20
142.7351696777
 10
121.9093909607
 20
142.7351696777
 10
122.1236845093
 20
142.9494541626
 10
122.1236845093
 20
144.0208765869
 10
121.6951064758
 20
144.4494455566
 10
121.2665375061
 20
144.4494455566
  0
LWPOLYLINE
  5
726
100
AcDbEntity
  8
0
100
AcDbPolyline
 62
7
  6
CONTINUOUS
 90
7
 70
0
 43
0.3500000006
 10
121.5236752625
 20
152.7351546021
 10
120.0236748047
 20
152.7351546021
 10
121.5236752625
 20
154.8780175781
 10
121.5236752625
 20
155.3065865479
 10
121.095097229
 20
155.7351555176
 10
120.4522437744
 20
155.7351555176
 10
120.0236748047
 20
155.092302063
  0
LWPOLYLINE
  5
727
100
AcDbEntity
  8
0
100
AcDbPolyline
 62
7
  6
CONTINUOUS
 90
3
 70
0
 43
0.3500000006
 10
115.0950953979
 20
153.3780261841
 10
113.5951040039
 20
153.3780261841
 10
114.2379574585
 20
155.7351555176
  0
ARC
  5
728
100
AcDbEntity
  8
0
100
AcDbCircle
 62
7
  6
CONTINUOUS
 10
172.2219938929
 20
83.3917054314
 40
0.5
100
AcDbArc
 50
154.1580672368
 51
205.8419327632
  0
ARC
  5
729
100
AcDbEntity
  8
0
100
AcDbCircle
 62
7
  6
CONTINUOUS
 10
180.2219938929
 20
83.3917054314
 40
0.5
100
AcDbArc
 50
334.1580672368
 51
25.8419327632
  0
ARC
  5
72A
100
AcDbEntity
  8
0
100
AcDbCircle
 62
7
  6
CONTINUOUS
 10
172.2219938929
 20
129.7917054314
 40
0.5
100
AcDbArc
 50
154.1580672368
 51
205.8419327632
  0
ARC
  5
72B
100
AcDbEntity
  8
0
100
AcDbCircle
 62
7
  6
CONTINUOUS
 10
180.2219938929
 20
129.7917054314
 40
0.5
100
AcDbArc
 50
334.1580672368
 51
25.8419327632
  0
ARC
  5
72C
100
AcDbEntity
  8
0
100
AcDbCircle
 62
7
  6
CONTINUOUS
 10
96.1311575853
 20
85.7841470182
 40
1.2
100
AcDbArc
 50
182.9907948827
 51
267.0
  0
ARC
  5
72D
100
AcDbEntity
  8
0
100
AcDbCircle
 62
7
  6
CONTINUOUS
 10
114.5879660386
 20
85.3838634736
 40
1.0
100
AcDbArc
 50
271.0
 51
360.0
  0
ARC
  5
72E
100
AcDbEntity
  8
0
100
AcDbCircle
 62
7
  6
CONTINUOUS
 10
109.3379624523
 20
82.9421100741
 40
0.25
100
AcDbArc
 50
271.0000000013
 51
359.9998353086
  0
ARC
  5
72F
100
AcDbEntity
  8
0
100
AcDbCircle
 62
7
  6
CONTINUOUS
 10
104.3379660386
 20
82.7473678641
 40
0.25
100
AcDbArc
 50
0.0199030144
 51
60.0044963491
  0
ARC
  5
730
100
AcDbEntity
  8
0
100
AcDbCircle
 62
7
  6
CONTINUOUS
 10
104.3379660386
 20
82.3548348121
 40
0.25
100
AcDbArc
 50
271.0
 51
360.0
  0
ARC
  5
731
100
AcDbEntity
  8
0
100
AcDbCircle
 62
7
  6
CONTINUOUS
 10
101.3379660386
 20
82.7473678641
 40
0.25
100
AcDbArc
 50
120.0193734378
 51
180.0045916073
  0
ARC
  5
732
100
AcDbEntity
  8
0
100
AcDbCircle
 62
7
  6
CONTINUOUS
 10
101.3379660386
 20
82.3810174095
 40
0.25
100
AcDbArc
 50
180.0
 51
269.0
  0
ARC
  5
733
100
AcDbEntity
  8
0
100
AcDbCircle
 62
7
  6
CONTINUOUS
 10
96.1311575845
 20
127.3992638446
 40
1.2
100
AcDbArc
 50
93.0
 51
177.0092051175
  0
ARC
  5
734
100
AcDbEntity
  8
0
100
AcDbCircle
 62
7
  6
CONTINUOUS
 10
114.5879660386
 20
127.7995473891
 40
1.0
100
AcDbArc
 50
0.0
 51
89.0
  0
ARC
  5
735
100
AcDbEntity
  8
SMUSSO
100
AcDbCircle
 62
7
  6
CONTINUOUS
 10
116.9201971192
 20
120.0917054314
 40
0.8322310806
100
AcDbArc
 50
90.5
 51
269.5
  0
ARC
  5
736
100
AcDbEntity
  8
ASSI
100
AcDbCircle
 62
7
  6
CONTINUOUS
 10
116.9201971192
 20
120.0917054314
 40
0.8322310806
100
AcDbArc
 50
90.5
 51
269.5
  0
ARC
  5
737
100
AcDbEntity
  8
SMUSSO
100
AcDbCircle
 62
7
  6
CONTINUOUS
 10
116.8445397483
 20
115.0917054314
 40
0.7565737096
100
AcDbArc
 50
90.5
 51
269.5
  0
ARC
  5
738
100
AcDbEntity
  8
ASSI
100
AcDbCircle
 62
7
  6
CONTINUOUS
 10
116.8445397483
 20
115.0917054314
 40
0.7565737096
100
AcDbArc
 50
90.5
 51
269.5
  0
ARC
  5
739
100
AcDbEntity
  8
0
100
AcDbCircle
 62
7
  6
CONTINUOUS
 10
109.3379624523
 20
130.2413007886
 40
0.25
100
AcDbArc
 50
0.0001646979
 51
89.0000000095
  0
ARC
  5
73A
100
AcDbEntity
  8
0
100
AcDbCircle
 62
7
  6
CONTINUOUS
 10
104.3379660386
 20
130.4360429987
 40
0.25
100
AcDbArc
 50
300.0193734374
 51
0.0045916073
  0
ARC
  5
73B
100
AcDbEntity
  8
0
100
AcDbCircle
 62
7
  6
CONTINUOUS
 10
104.3379660386
 20
130.8285760507
 40
0.25
100
AcDbArc
 50
0.0
 51
89.0
  0
ARC
  5
73C
100
AcDbEntity
  8
0
100
AcDbCircle
 62
7
  6
CONTINUOUS
 10
101.3379660386
 20
130.8023934533
 40
0.25
100
AcDbArc
 50
91.0
 51
180.0
  0
ARC
  5
73D
100
AcDbEntity
  8
0
100
AcDbCircle
 62
7
  6
CONTINUOUS
 10
101.3379660386
 20
130.4360429987
 40
0.25
100
AcDbArc
 50
180.0004788731
 51
240.0
  0
ARC
  5
73E
100
AcDbEntity
  8
RACCORDO
100
AcDbCircle
 62
7
  6
CONTINUOUS
 10
140.5879660386
 20
88.4172552138
 40
1.0
100
AcDbArc
 50
271.0
 51
360.0
  0
ARC
  5
73F
100
AcDbEntity
  8
ASSI
100
AcDbCircle
 62
7
  6
CONTINUOUS
 10
140.5879660386
 20
88.4172552138
 40
1.0
100
AcDbArc
 50
271.0
 51
360.0
  0
ARC
  5
740
100
AcDbEntity
  8
ASSI
100
AcDbCircle
 62
7
  6
CONTINUOUS
 10
119.3379660386
 20
118.5917054314
 40
2.6
100
AcDbArc
 50
13.9038125464
 51
65.4000991947
  0
ARC
  5
741
100
AcDbEntity
  8
ASSI
100
AcDbCircle
 62
7
  6
CONTINUOUS
 10
119.3379660386
 20
118.5917054314
 40
2.6
100
AcDbArc
 50
115.6584103979
 51
164.9967318736
  0
ARC
  5
742
100
AcDbEntity
  8
SMUSSO
100
AcDbCircle
 62
7
  6
CONTINUOUS
 10
134.8379660386
 20
115.0917054314
 40
2.1
100
AcDbArc
 50
205.2881416632
 51
270.0
  0
ARC
  5
743
100
AcDbEntity
  8
SMUSSO
100
AcDbCircle
 62
7
  6
CONTINUOUS
 10
134.8379660386
 20
115.0917054314
 40
2.1
100
AcDbArc
 50
90.0
 51
154.7118583368
  0
ARC
  5
744
100
AcDbEntity
  8
SMUSSO
100
AcDbCircle
 62
7
  6
CONTINUOUS
 10
134.8379660386
 20
120.0917054314
 40
2.1
100
AcDbArc
 50
207.583490401
 51
270.0
  0
ARC
  5
745
100
AcDbEntity
  8
SMUSSO
100
AcDbCircle
 62
7
  6
CONTINUOUS
 10
134.8379660386
 20
120.0917054314
 40
2.1
100
AcDbArc
 50
90.0
 51
152.416509599
  0
ARC
  5
746
100
AcDbEntity
  8
ASSI
100
AcDbCircle
 62
7
  6
CONTINUOUS
 10
134.8379660386
 20
120.0917054314
 40
2.1
100
AcDbArc
 50
90.0
 51
152.416509599
  0
ARC
  5
747
100
AcDbEntity
  8
ASSI
100
AcDbCircle
 62
7
  6
CONTINUOUS
 10
134.8379660386
 20
120.0917054314
 40
2.1
100
AcDbArc
 50
207.583490401
 51
270.0
  0
ARC
  5
748
100
AcDbEntity
  8
ASSI
100
AcDbCircle
 62
7
  6
CONTINUOUS
 10
134.8379660386
 20
115.0917054314
 40
2.1
100
AcDbArc
 50
90.0
 51
154.7118583368
  0
ARC
  5
749
100
AcDbEntity
  8
ASSI
100
AcDbCircle
 62
7
  6
CONTINUOUS
 10
134.8379660386
 20
115.0917054314
 40
2.1
100
AcDbArc
 50
205.2881416632
 51
270.0
  0
CIRCLE
  5
74A
100
AcDbEntity
  8
ASSI
100
AcDbCircle
 62
7
  6
CONTINUOUS
 10
135.5879660386
 20
120.0917054314
 40
2.0
  0
CIRCLE
  5
74B
100
AcDbEntity
  8
ASSI
100
AcDbCircle
 62
7
  6
CONTINUOUS
 10
135.5879660386
 20
115.0917054314
 40
2.0
  0
ARC
  5
74C
100
AcDbEntity
  8
RACCORDO
100
AcDbCircle
 62
7
  6
CONTINUOUS
 10
140.5879660386
 20
124.766155649
 40
1.0
100
AcDbArc
 50
0.0
 51
89.0
  0
ARC
  5
74D
100
AcDbEntity
  8
ASSI
100
AcDbCircle
 62
7
  6
CONTINUOUS
 10
140.5879660386
 20
124.766155649
 40
1.0
100
AcDbArc
 50
0.0
 51
89.0
  0
ELLIPSE
  5
74E
100
AcDbEntity
  8
RACCORDO
100
AcDbEllipse
 62
7
  6
CONTINUOUS
 10
185.3716892368
 20
88.9202587488
 30
0.0
 11
1.8480888181
 21
-0.7655034529
 31
0.0
 40
0.9998215708
 41
0.1256800797
 42
0.3926359958
  0
ELLIPSE
  5
74F
100
AcDbEntity
  8
RACCORDO
100
AcDbEllipse
 62
7
  6
CONTINUOUS
 10
185.3716892368
 20
124.263152114
 30
0.0
 11
-1.8480888181
 21
-0.7655034529
 31
0.0
 40
0.9998215708
 41
2.7489566578
 42
3.0159125739
  0
ELLIPSE
  5
750
100
AcDbEntity
  8
RACCORDO
100
AcDbEllipse
 62
7
  6
CONTINUOUS
 10
167.072298549
 20
124.263152114
 30
0.0
 11
-1.8480888181
 21
0.7655034529
 31
0.0
 40
0.9998215708
 41
0.1256800797
 42
0.3926359958
  0
ELLIPSE
  5
751
100
AcDbEntity
  8
RACCORDO
100
AcDbEllipse
 62
7
  6
CONTINUOUS
 10
167.072298549
 20
88.9202587488
 30
0.0
 11
1.8480888181
 21
0.7655034529
 31
0.0
 40
0.9998215708
 41
2.7489566578
 42
3.0159125739
  0
ELLIPSE
  5
752
100
AcDbEntity
  8
ASSI
100
AcDbEllipse
 62
7
  6
CONTINUOUS
 10
185.3716892368
 20
88.9202587488
 30
0.0
 11
1.8480888181
 21
-0.7655034529
 31
0.0
 40
0.9998215708
 41
0.1256800797
 42
0.3926359958
  0
ELLIPSE
  5
753
100
AcDbEntity
  8
ASSI
100
AcDbEllipse
 62
7
  6
CONTINUOUS
 10
185.3716892368
 20
124.263152114
 30
0.0
 11
-1.8480888181
 21
-0.7655034529
 31
0.0
 40
0.9998215708
 41
2.7489566578
 42
3.0159125739
  0
ELLIPSE
  5
754
100
AcDbEntity
  8
ASSI
100
AcDbEllipse
 62
7
  6
CONTINUOUS
 10
167.072298549
 20
124.263152114
 30
0.0
 11
-1.8480888181
 21
0.7655034529
 31
0.0
 40
0.9998215708
 41
0.1256800797
 42
0.3926359958
  0
ELLIPSE
  5
755
100
AcDbEntity
  8
ASSI
100
AcDbEllipse
 62
7
  6
CONTINUOUS
 10
167.072298549
 20
88.9202587488
 30
0.0
 11
1.8480888181
 21
0.7655034529
 31
0.0
 40
0.9998215708
 41
2.7489566578
 42
3.0159125739
  0
ELLIPSE
  5
756
100
AcDbEntity
  8
0
100
AcDbEllipse
 62
7
  6
CONTINUOUS
 10
165.7661878578
 20
84.9806343904
 30
0.0
 11
0.2238673116
 21
0.4480418466
 31
0.0
 40
0.9982882662
 41
2.0348549675
 42
3.6042812983
  0
ELLIPSE
  5
757
100
AcDbEntity
  8
0
100
AcDbEllipse
 62
7
  6
CONTINUOUS
 10
186.6777999281
 20
128.2027764723
 30
0.0
 11
-0.2238673116
 21
-0.4480418466
 31
0.0
 40
0.9982882662
 41
2.0348549675
 42
3.6042812983
  0
ELLIPSE
  5
758
100
AcDbEntity
  8
0
100
AcDbEllipse
 62
7
  6
CONTINUOUS
 10
186.6777999281
 20
84.9806343904
 30
0.0
 11
-0.2238673116
 21
0.4480418466
 31
0.0
 40
0.9982882662
 41
-3.6042812983
 42
-2.0348549675
  0
ELLIPSE
  5
759
100
AcDbEntity
  8
0
100
AcDbEllipse
 62
7
  6
CONTINUOUS
 10
186.8223365549
 20
84.6913627825
 30
0.0
 11
-0.9888246763
 21
3.0427267403
 31
0.0
 40
0.0489125227
 41
-4.5852411792
 42
-4.5633435227
  0
ELLIPSE
  5
75A
100
AcDbEntity
  8
0
100
AcDbEllipse
 62
7
  6
CONTINUOUS
 10
186.6777999281
 20
128.2027764723
 30
0.0
 11
0.2238673116
 21
0.4480418466
 31
0.0
 40
0.9982882662
 41
-1.1067376861
 42
0.4626886447
  0
ELLIPSE
  5
75B
100
AcDbEntity
  8
0
100
AcDbEllipse
 62
7
  6
CONTINUOUS
 10
186.8223365549
 20
128.4920480803
 30
0.0
 11
0.9888246763
 21
3.0427267403
 31
0.0
 40
0.0489125227
 41
1.4217508045
 42
1.4436485256
  0
ELLIPSE
  5
75C
100
AcDbEntity
  8
0
100
AcDbEllipse
 62
7
  6
CONTINUOUS
 10
165.7661878578
 20
128.2027764723
 30
0.0
 11
-0.2238673116
 21
0.4480418466
 31
0.0
 40
0.9982882662
 41
-0.4626886447
 42
1.1067376861
  0
ELLIPSE
  5
75D
100
AcDbEntity
  8
0
100
AcDbEllipse
 62
7
  6
CONTINUOUS
 10
165.621651231
 20
128.4920480803
 30
0.0
 11
-0.9888246763
 21
3.0427267403
 31
0.0
 40
0.0489125227
 41
-1.4436485256
 42
-1.4217508691
  0
ELLIPSE
  5
75E
100
AcDbEntity
  8
0
100
AcDbEllipse
 62
7
  6
CONTINUOUS
 10
165.7661878578
 20
84.9806343904
 30
0.0
 11
-0.2238673116
 21
-0.4480418466
 31
0.0
 40
0.9982882662
 41
-1.1067376861
 42
0.4626886447
  0
ELLIPSE
  5
75F
100
AcDbEntity
  8
0
100
AcDbEllipse
 62
7
  6
CONTINUOUS
 10
165.621651231
 20
84.6913627825
 30
0.0
 11
0.9888246763
 21
3.0427267403
 31
0.0
 40
0.0489125227
 41
-1.7198418491
 42
-1.697944128
  0
ELLIPSE
  5
760
100
AcDbEntity
  8
0
100
AcDbEllipse
 62
7
  6
CONTINUOUS
 10
184.9851232736
 20
130.1473678641
 30
0.0
 11
0.25
 21
0.0
 31
0.0
 40
0.5773502692
 41
2.617993878
 42
3.1241393611
  0
ELLIPSE
  5
761
100
AcDbEntity
  8
0
100
AcDbEllipse
 62
7
  6
CONTINUOUS
 10
167.1851232736
 20
130.1473678641
 30
0.0
 11
0.25
 21
0.0
 31
0.0
 40
0.5773502692
 41
2.617993878
 42
3.1241393611
  0
ELLIPSE
  5
762
100
AcDbEntity
  8
0
100
AcDbEllipse
 62
7
  6
CONTINUOUS
 10
167.4588645122
 20
83.0360429987
 30
0.0
 11
0.25
 21
0.0
 31
0.0
 40
0.5773502692
 41
-0.5235987756
 42
-0.0174532925
  0
ELLIPSE
  5
763
100
AcDbEntity
  8
0
100
AcDbEllipse
 62
7
  6
CONTINUOUS
 10
185.2588645122
 20
83.0360429987
 30
0.0
 11
0.25
 21
-0.0
 31
0.0
 40
0.5773502692
 41
-0.5235987756
 42
-0.0174532925
  0
ELLIPSE
  5
764
100
AcDbEntity
  8
0
100
AcDbEllipse
 62
7
  6
CONTINUOUS
 10
175.2167269078
 20
128.9759830976
 30
0.0
 11
0.2
 21
-0.0
 31
0.0
 40
0.0524077793
 41
-1.5707963268
 42
-0.0174532925
  0
ELLIPSE
  5
765
100
AcDbEntity
  8
0
100
AcDbEllipse
 62
7
  6
CONTINUOUS
 10
171.977260878
 20
128.9759830976
 30
0.0
 11
0.2
 21
0.0
 31
0.0
 40
0.0524077793
 41
-3.1241393611
 42
-1.5707963268
  0
ELLIPSE
  5
766
100
AcDbEntity
  8
0
100
AcDbEllipse
 62
7
  6
CONTINUOUS
 10
171.977260878
 20
84.2074277652
 30
0.0
 11
0.2
 21
0.0
 31
0.0
 40
0.0524077793
 41
1.5707963268
 42
3.1241393611
  0
ELLIPSE
  5
767
100
AcDbEntity
  8
0
100
AcDbEllipse
 62
7
  6
CONTINUOUS
 10
175.2167269078
 20
84.2074277652
 30
0.0
 11
0.2
 21
0.0
 31
0.0
 40
0.0524077793
 41
0.0174532925
 42
1.5707963268
  0
ELLIPSE
  5
768
100
AcDbEntity
  8
0
100
AcDbEllipse
 62
7
  6
CONTINUOUS
 10
180.4667269078
 20
128.9759830976
 30
0.0
 11
0.2
 21
0.0
 31
0.0
 40
0.0524077793
 41
-1.5707963268
 42
-0.0174532925
  0
ELLIPSE
  5
769
100
AcDbEntity
  8
0
100
AcDbEllipse
 62
7
  6
CONTINUOUS
 10
177.227260878
 20
128.9759830976
 30
0.0
 11
0.2
 21
0.0
 31
0.0
 40
0.0524077793
 41
-3.1241393611
 42
-1.5707963268
  0
ELLIPSE
  5
76A
100
AcDbEntity
  8
0
100
AcDbEllipse
 62
7
  6
CONTINUOUS
 10
180.4667269078
 20
84.2074277652
 30
0.0
 11
0.2
 21
-0.0
 31
0.0
 40
0.0524077793
 41
0.0174532925
 42
1.5707963268
  0
ELLIPSE
  5
76B
100
AcDbEntity
  8
0
100
AcDbEllipse
 62
7
  6
CONTINUOUS
 10
177.227260878
 20
84.2074277652
 30
0.0
 11
0.2
 21
0.0
 31
0.0
 40
0.0524077793
 41
1.5707963268
 42
3.1241393611
  0
ELLIPSE
  5
76C
100
AcDbEntity
  8
0
100
AcDbEllipse
 62
7
  6
CONTINUOUS
 10
165.2529235008
 20
104.0460498261
 30
0.0
 11
-0.0
 21
0.5
 31
0.0
 40
0.0261859216
 41
-1.5707963268
 42
-1.2584405483
  0
ELLIPSE
  5
76D
100
AcDbEntity
  8
0
100
AcDbEllipse
 62
7
  6
CONTINUOUS
 10
165.2529235008
 20
104.0460498261
 30
0.0
 11
-0.0
 21
0.5
 31
0.0
 40
0.0261859216
 41
-0.8423079092
 42
-0.0087266463
  0
ELLIPSE
  5
76E
100
AcDbEntity
  8
0
100
AcDbEllipse
 62
7
  6
CONTINUOUS
 10
165.17305644
 20
108.1107060115
 30
0.0
 11
-0.0
 21
0.5
 31
0.0
 40
0.0261859216
 41
0.0087266463
 42
1.5707963268
  0
ELLIPSE
  5
76F
100
AcDbEntity
  8
0
100
AcDbEllipse
 62
7
  6
CONTINUOUS
 10
165.17305644
 20
105.0727048512
 30
0.0
 11
0.0
 21
0.5
 31
0.0
 40
0.0261859216
 41
-4.7123889804
 42
-3.1503192998
  0
ELLIPSE
  5
770
100
AcDbEntity
  8
0
100
AcDbEllipse
 62
7
  6
CONTINUOUS
 10
165.2529235008
 20
109.1373610367
 30
0.0
 11
0.0
 21
0.5
 31
0.0
 40
0.0261859216
 41
-3.1328660073
 42
-2.2992847444
  0
ELLIPSE
  5
771
100
AcDbEntity
  8
0
100
AcDbEllipse
 62
7
  6
CONTINUOUS
 10
165.2529235008
 20
109.1373610367
 30
0.0
 11
0.0
 21
0.5
 31
0.0
 40
0.0261859216
 41
-1.8831521052
 42
-1.5707963268
  0
ELLIPSE
  5
772
100
AcDbEntity
  8
0
100
AcDbEllipse
 62
7
  6
CONTINUOUS
 10
184.9851232736
 20
128.873787928
 30
0.0
 11
0.25
 21
0.0
 31
0.0
 40
0.0524077793
 41
-3.1241393611
 42
-1.5707963268
  0
ELLIPSE
  5
773
100
AcDbEntity
  8
0
100
AcDbEllipse
 62
7
  6
CONTINUOUS
 10
167.1851232736
 20
128.873787928
 30
0.0
 11
0.25
 21
0.0
 31
0.0
 40
0.0524077793
 41
-3.1241393611
 42
-1.5707963268
  0
ELLIPSE
  5
774
100
AcDbEntity
  8
0
100
AcDbEllipse
 62
7
  6
CONTINUOUS
 10
167.1851232736
 20
84.3096229348
 30
0.0
 11
0.25
 21
-0.0
 31
0.0
 40
0.0524077793
 41
1.5707963268
 42
3.1241393611
  0
ELLIPSE
  5
775
100
AcDbEntity
  8
0
100
AcDbEllipse
 62
7
  6
CONTINUOUS
 10
167.1851232736
 20
83.0360429987
 30
0.0
 11
0.25
 21
-0.0
 31
0.0
 40
0.5773502692
 41
-3.1241393611
 42
-2.617993878
  0
ELLIPSE
  5
776
100
AcDbEntity
  8
0
100
AcDbEllipse
 62
7
  6
CONTINUOUS
 10
184.9851232736
 20
83.0360429987
 30
0.0
 11
0.25
 21
-0.0
 31
0.0
 40
0.5773502692
 41
-3.1241393611
 42
-2.617993878
  0
ELLIPSE
  5
777
100
AcDbEntity
  8
0
100
AcDbEllipse
 62
7
  6
CONTINUOUS
 10
184.9851232736
 20
84.3096229348
 30
0.0
 11
0.25
 21
-0.0
 31
0.0
 40
0.0524077793
 41
1.5707963268
 42
3.1241393611
  0
ELLIPSE
  5
778
100
AcDbEntity
  8
0
100
AcDbEllipse
 62
7
  6
CONTINUOUS
 10
165.8938508061
 20
83.6133932679
 30
0.0
 11
0.25
 21
0.0
 31
0.0
 40
0.5773502692
 41
-1.7618311193
 42
-1.5707963268
  0
ELLIPSE
  5
779
100
AcDbEntity
  8
0
100
AcDbEllipse
 62
7
  6
CONTINUOUS
 10
165.8938508061
 20
84.2572151555
 30
0.0
 11
0.25
 21
-0.0
 31
0.0
 40
0.0524077793
 41
1.5707963268
 42
2.8253464262
  0
ELLIPSE
  5
77A
100
AcDbEntity
  8
0
100
AcDbEllipse
 62
7
  6
CONTINUOUS
 10
168.7501369798
 20
83.6133932679
 30
0.0
 11
0.25
 21
-0.0
 31
0.0
 40
0.5773502692
 41
-1.5707963268
 42
-1.3797615343
  0
ELLIPSE
  5
77B
100
AcDbEntity
  8
0
100
AcDbEllipse
 62
7
  6
CONTINUOUS
 10
168.7501369798
 20
84.2572151555
 30
0.0
 11
0.25
 21
-0.0
 31
0.0
 40
0.0524077793
 41
0.0174532925
 42
1.5707963268
  0
ELLIPSE
  5
77C
100
AcDbEntity
  8
0
100
AcDbEllipse
 62
7
  6
CONTINUOUS
 10
186.5501369798
 20
83.6133932679
 30
0.0
 11
0.25
 21
0.0
 31
0.0
 40
0.5773502692
 41
-1.5707963268
 42
-1.3797615343
  0
ELLIPSE
  5
77D
100
AcDbEntity
  8
0
100
AcDbEllipse
 62
7
  6
CONTINUOUS
 10
186.5501369798
 20
84.2572151555
 30
0.0
 11
0.25
 21
0.0
 31
0.0
 40
0.0524077793
 41
0.3162462274
 42
1.5707963268
  0
ELLIPSE
  5
77E
100
AcDbEntity
  8
0
100
AcDbEllipse
 62
7
  6
CONTINUOUS
 10
183.6938508061
 20
83.6133932679
 30
0.0
 11
0.25
 21
-0.0
 31
0.0
 40
0.5773502692
 41
-1.7618311193
 42
-1.5707963268
  0
ELLIPSE
  5
77F
100
AcDbEntity
  8
0
100
AcDbEllipse
 62
7
  6
CONTINUOUS
 10
183.6938508061
 20
84.2572151555
 30
0.0
 11
0.25
 21
-0.0
 31
0.0
 40
0.0524077793
 41
1.5707963268
 42
3.1241393611
  0
ELLIPSE
  5
780
100
AcDbEntity
  8
0
100
AcDbEllipse
 62
7
  6
CONTINUOUS
 10
165.8938508061
 20
129.5700175949
 30
0.0
 11
0.25
 21
0.0
 31
0.0
 40
0.5773502692
 41
1.5707963268
 42
1.7618311193
  0
ELLIPSE
  5
781
100
AcDbEntity
  8
0
100
AcDbEllipse
 62
7
  6
CONTINUOUS
 10
165.8938508061
 20
128.9261957073
 30
0.0
 11
0.25
 21
0.0
 31
0.0
 40
0.0524077793
 41
-2.8253464262
 42
-1.5707963268
  0
ELLIPSE
  5
782
100
AcDbEntity
  8
0
100
AcDbEllipse
 62
7
  6
CONTINUOUS
 10
168.7501369798
 20
129.5700175949
 30
0.0
 11
0.25
 21
0.0
 31
0.0
 40
0.5773502692
 41
1.3797615343
 42
1.5707963268
  0
ELLIPSE
  5
783
100
AcDbEntity
  8
0
100
AcDbEllipse
 62
7
  6
CONTINUOUS
 10
168.7501369798
 20
128.9261957073
 30
0.0
 11
0.25
 21
0.0
 31
0.0
 40
0.0524077793
 41
-1.5707963268
 42
-0.0174532925
  0
ELLIPSE
  5
784
100
AcDbEntity
  8
0
100
AcDbEllipse
 62
7
  6
CONTINUOUS
 10
183.6938508061
 20
129.5700175949
 30
0.0
 11
0.25
 21
-0.0
 31
0.0
 40
0.5773502692
 41
1.5707963268
 42
1.7618311193
  0
ELLIPSE
  5
785
100
AcDbEntity
  8
0
100
AcDbEllipse
 62
7
  6
CONTINUOUS
 10
183.6938508061
 20
128.9261957073
 30
0.0
 11
0.25
 21
0.0
 31
0.0
 40
0.0524077793
 41
-3.1241393611
 42
-1.5707963268
  0
ELLIPSE
  5
786
100
AcDbEntity
  8
0
100
AcDbEllipse
 62
7
  6
CONTINUOUS
 10
186.5501369798
 20
129.5700175949
 30
0.0
 11
0.25
 21
-0.0
 31
0.0
 40
0.5773502692
 41
1.3797615343
 42
1.5707963268
  0
ELLIPSE
  5
787
100
AcDbEntity
  8
0
100
AcDbEllipse
 62
7
  6
CONTINUOUS
 10
186.5501369798
 20
128.9261957073
 30
0.0
 11
0.25
 21
-0.0
 31
0.0
 40
0.0524077793
 41
-1.5707963268
 42
-0.3162462274
  0
ELLIPSE
  5
788
100
AcDbEntity
  8
0
100
AcDbEllipse
 62
7
  6
CONTINUOUS
 10
185.2588645122
 20
128.873787928
 30
0.0
 11
0.25
 21
0.0
 31
0.0
 40
0.0524077793
 41
-1.5707963268
 42
-0.0174532925
  0
ELLIPSE
  5
789
100
AcDbEntity
  8
0
100
AcDbEllipse
 62
7
  6
CONTINUOUS
 10
185.2588645122
 20
130.1473678641
 30
0.0
 11
0.25
 21
0.0
 31
0.0
 40
0.5773502692
 41
0.0174532925
 42
0.5235987756
  0
ELLIPSE
  5
78A
100
AcDbEntity
  8
0
100
AcDbEllipse
 62
7
  6
CONTINUOUS
 10
185.2588645122
 20
84.3096229348
 30
0.0
 11
0.25
 21
-0.0
 31
0.0
 40
0.0524077793
 41
0.0174532925
 42
1.5707963268
  0
ELLIPSE
  5
78B
100
AcDbEntity
  8
0
100
AcDbEllipse
 62
7
  6
CONTINUOUS
 10
167.4588645122
 20
130.1473678641
 30
0.0
 11
0.25
 21
0.0
 31
0.0
 40
0.5773502692
 41
0.0174532925
 42
0.5235987756
  0
ELLIPSE
  5
78C
100
AcDbEntity
  8
0
100
AcDbEllipse
 62
7
  6
CONTINUOUS
 10
167.4588645122
 20
128.873787928
 30
0.0
 11
0.25
 21
0.0
 31
0.0
 40
0.0524077793
 41
-1.5707963268
 42
-0.0174532925
  0
ELLIPSE
  5
78D
100
AcDbEntity
  8
0
100
AcDbEllipse
 62
7
  6
CONTINUOUS
 10
167.4588645122
 20
84.3096229348
 30
0.0
 11
0.25
 21
-0.0
 31
0.0
 40
0.0524077793
 41
0.0174532925
 42
1.5707963268
  0
ELLIPSE
  5
78E
100
AcDbEntity
  8
0
100
AcDbEllipse
 62
7
  6
CONTINUOUS
 10
103.6075971301
 20
128.4920480803
 30
0.0
 11
57.2877742299
 21
3.0018677586
 31
0.0
 40
0.0087159045
 41
7.8538675328
 42
7.8757652539
  0
ELLIPSE
  5
78F
100
AcDbEntity
  8
0
100
AcDbEllipse
 62
7
  6
CONTINUOUS
 10
103.6075971301
 20
84.6913627825
 30
0.0
 11
57.2877742299
 21
-3.0018677586
 31
0.0
 40
0.0087159045
 41
4.6906053604
 42
4.7125030169
  0
ELLIPSE
  5
790
100
AcDbEntity
  8
0
100
AcDbEllipse
 62
7
  6
CONTINUOUS
 10
126.7356691417
 20
83.3917054314
 30
0.0
 11
26.3304431995
 21
-0.0
 31
0.0
 40
0.017367588
 41
-2.5701928713
 42
-2.3053277814
  0
ELLIPSE
  5
791
100
AcDbEntity
  8
0
100
AcDbEllipse
 62
7
  6
CONTINUOUS
 10
126.7356691417
 20
83.3917054314
 30
0.0
 11
26.3304431995
 21
0.0
 31
0.0
 40
0.017367588
 41
2.3053277814
 42
2.5701928713
  0
ELLIPSE
  5
792
100
AcDbEntity
  8
0
100
AcDbEllipse
 62
7
  6
CONTINUOUS
 10
126.7356691417
 20
129.7917054314
 30
0.0
 11
26.3304431995
 21
-0.0
 31
0.0
 40
0.017367588
 41
-2.5701928713
 42
-2.3053277814
  0
ELLIPSE
  5
793
100
AcDbEntity
  8
0
100
AcDbEllipse
 62
7
  6
CONTINUOUS
 10
126.7356691417
 20
129.7917054314
 30
0.0
 11
26.3304431995
 21
0.0
 31
0.0
 40
0.017367588
 41
2.3053277814
 42
2.5701928713
  0
ENDSEC
  0
SECTION
  2
OBJECTS
  0
DICTIONARY
  5
C
100
AcDbDictionary
280
0
281
1
  3
ACAD_GROUP
350
D
  3
ACAD_MLINESTYLE
350
17
  3
ACAD_LAYOUT
350
1A
  3
ACAD_PLOTSETTINGS
350
19
  3
ACAD_PLOTSTYLENAME
350
E
  0
DICTIONARY
  5
D
102
{ACAD_REACTORS
330
C
102
}
100
AcDbDictionary
280
0
281
1
  0
ACDBDICTIONARYWDFLT
  5
E
102
{ACAD_REACTORS
330
C
102
}
100
AcDbDictionary
281
1
  3
Normal
350
F
100
AcDbDictionaryWithDefault
340
F
  0
DICTIONARY
  5
17
102
{ACAD_REACTORS
330
C
102
}
100
AcDbDictionary
280
0
281
1
  3
Standard
350
18
  0
DICTIONARY
  5
19
102
{ACAD_REACTORS
330
C
102
}
100
AcDbDictionary
281
1
  0
DICTIONARY
  5
1A
102
{ACAD_REACTORS
330
C
102
}
100
AcDbDictionary
281
1
  3
Model
350
794
  3
Layout1
350
795
  0
ACDBPLACEHOLDER
  5
F
102
{ACAD_REACTORS
330
E
102
}
  0
MLINESTYLE
  5
18
102
{ACAD_REACTORS
330
17
102
}
100
AcDbMlineStyle
  2
STANDARD
 70
0
  3

 62
256
 51
90.0
 52
90.0
 71
2
 49
0.5
 62
256
  6
BYLAYER
 49
-0.5
 62
256
  6
BYLAYER
  0
LAYOUT
  5
794
102
{ACAD_REACTORS
330
1A
102
}
100
AcDbPlotSettings
  1

  2
none_device
  4
ISO_A4_(297.00_x_210.00_MM)
  6

 40
0.0
 41
0.0
 42
0.0
 43
0.0
 44
297.0
 45
210.0
 46
0.0
 47
0.0
 48
0.0
 49
0.0
140
0.0
141
0.0
142
1.0
143
1.0
 70
1024
 72
1
 73
0
 74
0
  7

 75
0
147
1.0
148
0.0
149
0.0
100
AcDbLayout
  1
Model
 70
0
 71
0
 10
0.0
 20
0.0
 11
297.0
 21
210.0
 12
0.0
 22
0.0
 32
0.0
 14
0.0
 24
0.0
 34
0.0
 15
0.0
 25
0.0
 35
0.0
146
0.0
 13
0.0
 23
0.0
 33
0.0
 16
1.0
 26
0.0
 36
0.0
 17
0.0
 27
1.0
 37
0.0
 76
0
330
227
345
0
346
0
  0
LAYOUT
  5
795
102
{ACAD_REACTORS
330
1A
102
}
100
AcDbPlotSettings
  1

  2
none_device
  4
ISO_A4_(297.00_x_210.00_MM)
  6

 40
0.0
 41
0.0
 42
0.0
 43
0.0
 44
297.0
 45
210.0
 46
0.0
 47
0.0
 48
0.0
 49
0.0
140
0.0
141
0.0
142
1.0
143
1.0
 70
0
 72
1
 73
0
 74
0
  7

 75
0
147
1.0
148
0.0
149
0.0
100
AcDbLayout
  1
Layout1
 70
0
 71
1
 10
0.0
 20
0.0
 11
297.0
 21
210.0
 12
0.0
 22
0.0
 32
0.0
 14
0.0
 24
0.0
 34
0.0
 15
0.0
 25
0.0
 35
0.0
146
0.0
 13
0.0
 23
0.0
 33
0.0
 16
1.0
 26
0.0
 36
0.0
 17
0.0
 27
1.0
 37
0.0
 76
0
330
228
345
0
346
0
  0
ENDSEC
  0
EOF
