  0
SECTION
  2
HEADER
  9
$ACADVER
  1
AC1021
  9
$DWGCODEPAGE
  3
ANSI_1252
  9
$EXTMAX
 10
297.0
 20
210.0
 30
0.0
  9
$EXTMIN
 10
0.0
 20
0.0
 30
0.0
  9
$LIMMIN
 10
0.0
 20
0.0
  9
$LIMMAX
 10
297.0
 20
210.0
  9
$VIEWCTR
 10
148.5
 20
105.0
  9
$VIEWSIZE
 40
210.0
  9
$CLAYER
  8
0
  9
$LTSCALE
 40
16.335
  9
$CELTYPE
  6
BYLAYER
  9
$DIMSCALE
 40
1.0
  9
$DIMASZ
 40
3.0
  9
$DIMEXO
 40
0.5
  9
$DIMDLI
 40
11.286
  9
$DIMEXE
 40
1.5
  9
$DIMCEN
 40
2.673
  9
$DIMLFAC
 40
1.0
  9
$DIMBLK
  1
_FILLED
  9
$DIMALT
 70
0
  9
$DIMALTF
 40
0.0393700787
  9
$DIMTXT
 40
3.0
  9
$DIMTOL
 70
1
  9
$DIMLIM
 70
0
  9
$DIMTFAC
 40
1.0
  9
$DIMTP
 40
0.01
  9
$DIMTM
 40
0.01
  9
$DIMGAP
 40
0.625
  9
$DIMDSEP
 70
44
  9
$AUNITS
 70
0
  9
$PDMODE
 70
3
  9
$PDSIZE
 40
3.0
  9
$HANDSEED
  5
426
  9
$TILEMODE
 70
1
  9
$MEASUREMENT
 70
1
  9
$INSUNITS
 70
4
  0
ENDSEC
  0
SECTION
  2
CLASSES
  0
CLASS
  1
ACDBDICTIONARYWDFLT
  2
AcDbDictionaryWithDefault
  3
AutoCAD 2000
 90
0
 91
1
280
0
281
0
  0
CLASS
  1
ACDBPLACEHOLDER
  2
AcDbPlaceHolder
  3
AutoCAD 2000
 90
0
 91
1
280
0
281
0
  0
CLASS
  1
LAYOUT
  2
AcDbLayout
  3
AutoCAD 2000
 90
0
 91
0
280
0
281
0
  0
ENDSEC
  0
SECTION
  2
TABLES
  0
TABLE
  2
VPORT
  5
8
100
AcDbSymbolTable
 70
2
  0
VPORT
  5
1F4
100
AcDbSymbolTableRecord
100
AcDbViewportTableRecord
  2
*ACTIVE
 70
0
 10
0.0
 20
0.0
 11
1.0
 21
1.0
 12
148.5
 22
105.0
 13
0.0
 23
0.0
 14
1.0
 24
1.0
 15
0.0
 25
0.0
 16
0.0
 26
0.0
 36
1.0
 17
0.0
 27
0.0
 37
0.0
 40
210.0
 41
1.4142857143
 42
50.0
 43
0.0
 44
0.0
 50
0.0
 51
0.0
 71
0
 72
100
 73
1
 74
1
 75
0
 76
0
 77
0
 78
0
  0
ENDTAB
  0
TABLE
  2
LTYPE
  5
5
100
AcDbSymbolTable
 70
6
  0
LTYPE
  5
14
100
AcDbSymbolTableRecord
100
AcDbLinetypeTableRecord
  2
BYBLOCK
 70
0
  3

 72
65
 73
0
 40
0.0
  0
LTYPE
  5
15
100
AcDbSymbolTableRecord
100
AcDbLinetypeTableRecord
  2
BYLAYER
 70
0
  3

 72
65
 73
0
 40
0.0
  0
LTYPE
  5
16
100
AcDbSymbolTableRecord
100
AcDbLinetypeTableRecord
  2
CONTINUOUS
 70
64
  3
Solid line
 72
65
 73
0
 40
0.0
  0
LTYPE
  5
1F5
100
AcDbSymbolTableRecord
100
AcDbLinetypeTableRecord
  2
CENTER
 70
64
  3
____ _ ____ _ ____ _ ____ _ ____ _ ____ _ ____
 72
65
 73
4
 40
0.6
 49
0.375
 74
0
 49
-0.075
 74
0
 49
0.075
 74
0
 49
-0.075
 74
0
  0
LTYPE
  5
1F6
100
AcDbSymbolTableRecord
100
AcDbLinetypeTableRecord
  2
HIDDEN
 70
64
  3
- - - - - - - - - - - - - - - - - - - -
 72
65
 73
2
 40
0.2
 49
0.1
 74
0
 49
-0.1
 74
0
  0
LTYPE
  5
1F7
100
AcDbSymbolTableRecord
100
AcDbLinetypeTableRecord
  2
PHANTOM
 70
64
  3
_____ _ _ _____ _ _ _____ _ _ _____
 72
65
 73
6
 40
0.8
 49
0.45
 74
0
 49
-0.05
 74
0
 49
0.1
 74
0
 49
-0.05
 74
0
 49
0.1
 74
0
 49
-0.05
 74
0
  0
LTYPE
  5
1F8
100
AcDbSymbolTableRecord
100
AcDbLinetypeTableRecord
  2
DOT
 70
64
  3
. . . . . . . . . . . . . . . . . . . .
 72
65
 73
2
 40
0.2
 49
0.1
 74
0
 49
-0.1
 74
0
  0
LTYPE
  5
1F9
100
AcDbSymbolTableRecord
100
AcDbLinetypeTableRecord
  2
DASHED
 70
64
  3
- - - - - - - - - - - - - - - - - - - -
 72
65
 73
2
 40
0.2
 49
0.1
 74
0
 49
-0.1
 74
0
  0
ENDTAB
  0
TABLE
  2
LAYER
  5
2
100
AcDbSymbolTable
 70
36
  0
LAYER
  5
10
100
AcDbSymbolTableRecord
100
AcDbLayerTableRecord
  2
0
 70
0
 62
7
  6
CONTINUOUS
370
-3
390
F
  0
LAYER
  5
1FA
100
AcDbSymbolTableRecord
100
AcDbLayerTableRecord
  2
DEFAULT_1
 70
0
 62
7
  6
CENTER
370
-3
390
F
  0
LAYER
  5
1FB
100
AcDbSymbolTableRecord
100
AcDbLayerTableRecord
  2
DEFAULT_2
 70
0
 62
7
  6
HIDDEN
370
-3
390
F
  0
LAYER
  5
1FC
100
AcDbSymbolTableRecord
100
AcDbLayerTableRecord
  2
DEFAULT_3
 70
0
 62
7
  6
PHANTOM
370
-3
390
F
  0
LAYER
  5
1FD
100
AcDbSymbolTableRecord
100
AcDbLayerTableRecord
  2
ASSI
 70
0
 62
7
  6
CONTINUOUS
370
-3
390
F
  0
LAYER
  5
1FE
100
AcDbSymbolTableRecord
100
AcDbLayerTableRecord
  2
COORDINATE
 70
0
 62
7
  6
CONTINUOUS
370
-3
390
F
  0
LAYER
  5
1FF
100
AcDbSymbolTableRecord
100
AcDbLayerTableRecord
  2
COPY_PUBLISH
 70
0
 62
7
  6
CONTINUOUS
370
-3
390
F
  0
LAYER
  5
200
100
AcDbSymbolTableRecord
100
AcDbLayerTableRecord
  2
COSMETICI
 70
0
 62
7
  6
CONTINUOUS
370
-3
390
F
  0
LAYER
  5
201
100
AcDbSymbolTableRecord
100
AcDbLayerTableRecord
  2
CURVE
 70
0
 62
7
  6
CONTINUOUS
370
-3
390
F
  0
LAYER
  5
202
100
AcDbSymbolTableRecord
100
AcDbLayerTableRecord
  2
DRAFT
 70
0
 62
7
  6
CONTINUOUS
370
-3
390
F
  0
LAYER
  5
203
100
AcDbSymbolTableRecord
100
AcDbLayerTableRecord
  2
IMPORT_IGES
 70
0
 62
7
  6
CONTINUOUS
370
-3
390
F
  0
LAYER
  5
204
100
AcDbSymbolTableRecord
100
AcDbLayerTableRecord
  2
INTF_1
 70
0
 62
7
  6
CONTINUOUS
370
-3
390
F
  0
LAYER
  5
205
100
AcDbSymbolTableRecord
100
AcDbLayerTableRecord
  2
INTF_11
 70
0
 62
7
  6
CONTINUOUS
370
-3
390
F
  0
LAYER
  5
206
100
AcDbSymbolTableRecord
100
AcDbLayerTableRecord
  2
NOTE
 70
0
 62
7
  6
CONTINUOUS
370
-3
390
F
  0
LAYER
  5
207
100
AcDbSymbolTableRecord
100
AcDbLayerTableRecord
  2
PIANI
 70
0
 62
7
  6
CONTINUOUS
370
-3
390
F
  0
LAYER
  5
208
100
AcDbSymbolTableRecord
100
AcDbLayerTableRecord
  2
PUNTI
 70
0
 62
7
  6
CONTINUOUS
370
-3
390
F
  0
LAYER
  5
209
100
AcDbSymbolTableRecord
100
AcDbLayerTableRecord
  2
RACCORDO
 70
0
 62
7
  6
CONTINUOUS
370
-3
390
F
  0
LAYER
  5
20A
100
AcDbSymbolTableRecord
100
AcDbLayerTableRecord
  2
RGB____0____0____0__
 70
0
 62
7
  6
CONTINUOUS
370
-3
390
F
  0
LAYER
  5
20B
100
AcDbSymbolTableRecord
100
AcDbLayerTableRecord
  2
SIMBOLI
 70
0
 62
7
  6
CONTINUOUS
370
-3
390
F
  0
LAYER
  5
20C
100
AcDbSymbolTableRecord
100
AcDbLayerTableRecord
  2
SMUSSO
 70
0
 62
7
  6
CONTINUOUS
370
-3
390
F
  0
LAYER
  5
20D
100
AcDbSymbolTableRecord
100
AcDbLayerTableRecord
  2
SNAPLINE
 70
0
 62
7
  6
CONTINUOUS
370
-3
390
F
  0
LAYER
  5
20E
100
AcDbSymbolTableRecord
100
AcDbLayerTableRecord
  2
SUPERFICI
 70
0
 62
7
  6
CONTINUOUS
370
-3
390
F
  0
LAYER
  5
20F
100
AcDbSymbolTableRecord
100
AcDbLayerTableRecord
  2
TRASH
 70
0
 62
7
  6
CONTINUOUS
370
-3
390
F
  0
ENDTAB
  0
TABLE
  2
STYLE
  5
3
100
AcDbSymbolTable
 70
1
  0
STYLE
  5
11
100
AcDbSymbolTableRecord
100
AcDbTextStyleTableRecord
  2
STANDARD
 70
0
 40
0.0
 41
0.8
 50
0.0
 71
0
 42
0.2
  3
txt
  4

  0
STYLE
  5
210
100
AcDbSymbolTableRecord
100
AcDbTextStyleTableRecord
  2
TEXTSTYLE_1
 70
0
 40
0.0
 41
0.8
 50
0.0
 71
0
 42
0.2
  3
gdt
  4

  0
ENDTAB
  0
TABLE
  2
VIEW
  5
6
100
AcDbSymbolTable
 70
0
  0
ENDTAB
  0
TABLE
  2
UCS
  5
7
100
AcDbSymbolTable
 70
0
  0
ENDTAB
  0
TABLE
  2
APPID
  5
9
100
AcDbSymbolTable
 70
1
  0
APPID
  5
211
100
AcDbSymbolTableRecord
100
AcDbRegAppTableRecord
  2
ACAD
 70
0
  0
ENDTAB
  0
TABLE
  2
BLOCK_RECORD
  5
1
100
AcDbSymbolTable
 70
0
  0
BLOCK_RECORD
  5
212
100
AcDbSymbolTableRecord
100
AcDbBlockTableRecord
  2
*Model_Space
  0
BLOCK_RECORD
  5
213
100
AcDbSymbolTableRecord
100
AcDbBlockTableRecord
  2
*Paper_Space
  0
BLOCK_RECORD
  5
214
100
AcDbSymbolTableRecord
100
AcDbBlockTableRecord
  2
_FILLED
  0
BLOCK_RECORD
  5
215
100
AcDbSymbolTableRecord
100
AcDbBlockTableRecord
  2
*D0
  0
BLOCK_RECORD
  5
216
100
AcDbSymbolTableRecord
100
AcDbBlockTableRecord
  2
*D1
  0
BLOCK_RECORD
  5
217
100
AcDbSymbolTableRecord
100
AcDbBlockTableRecord
  2
*D2
  0
ENDTAB
  0
TABLE
  2
DIMSTYLE
  5
A
100
AcDbSymbolTable
 70
1
100
AcDbDimStyleTable
 71
0
  0
DIMSTYLE
105
218
100
AcDbSymbolTableRecord
100
AcDbDimStyleTableRecord
  2
STANDARD
 70
0
  3

  4

 40
1.0
 41
3.0
 42
0.5
 43
0.38
 44
1.5
 45
0.0
 46
0.0
 47
0.01
 48
0.01
140
3.0
141
0.09
142
0.0
143
25.4
144
1.0
145
0.0
146
1.0
147
0.625
 71
1.0
 72
0.0
 73
0
 74
0
 75
0
 76
0
 77
1
 78
8
170
0
171
2
172
0
173
0
174
0
175
0
176
0
177
0
178
0
270
2
271
2
272
2
273
2
274
2
275
0
280
0
281
0
282
0
283
1
284
8
285
0
286
0
287
3
288
0
340
11
278
44
341
214
342
214
343
214
344
214
  0
DIMSTYLE
105
219
100
AcDbSymbolTableRecord
100
AcDbDimStyleTableRecord
  2
DIMSTYLE_1
 70
0
  3

  4

 40
1.0
 41
3.0
 42
0.5
 43
0.38
 44
1.5
 45
0.0
 46
0.0
 47
0.0
 48
0.0
140
3.0
141
0.09
142
0.0
143
25.4
144
1.0
145
0.0
146
1.0
147
0.75
 71
0.0
 72
0.0
 73
0
 74
0
 75
0
 76
0
 77
1
 78
8
170
0
171
2
172
0
173
0
174
0
175
0
176
0
177
0
178
0
270
2
271
2
272
2
273
2
274
2
275
0
280
0
281
0
282
0
283
1
284
8
285
0
286
0
287
3
288
0
340
11
278
44
341
214
342
214
343
214
344
214
  0
DIMSTYLE
105
21A
100
AcDbSymbolTableRecord
100
AcDbDimStyleTableRecord
  2
DIMSTYLE_2
 70
0
  3

  4

 40
1.0
 41
3.0
 42
0.5
 43
0.38
 44
1.5
 45
0.0
 46
0.0
 47
0.0
 48
0.0
140
3.0
141
0.09
142
0.0
143
25.4
144
1.0
145
0.0
146
1.0
147
0.75
 71
0.0
 72
0.0
 73
0
 74
0
 75
0
 76
0
 77
1
 78
8
170
0
171
2
172
0
173
0
174
0
175
0
176
0
177
0
178
0
270
2
271
1
272
1
273
2
274
2
275
0
280
0
281
0
282
0
283
1
284
8
285
0
286
0
287
3
288
0
340
11
278
44
341
214
342
214
343
214
344
214
  0
ENDTAB
  0
ENDSEC
  0
SECTION
  2
BLOCKS
  0
BLOCK
  5
20
100
AcDbEntity
  8
0
100
AcDbBlockBegin
  2
*Model_Space
 70
0
 10
0.0
 20
0.0
 30
0.0
  3
*Model_Space
  1

  0
ENDBLK
  5
21
100
AcDbEntity
  8
0
100
AcDbBlockEnd
  0
BLOCK
  5
1C
100
AcDbEntity
  8
0
100
AcDbBlockBegin
  2
*Paper_Space
 70
0
 10
0.0
 20
0.0
 30
0.0
  3
*Paper_Space
  1

  0
ENDBLK
  5
1D
100
AcDbEntity
  8
0
100
AcDbBlockEnd
  0
BLOCK
  5
21B
100
AcDbEntity
  8
0
100
AcDbBlockBegin
  2
_FILLED
 70
64
 10
0.0
 20
0.0
  3
_FILLED
  1

  0
SOLID
  5
21C
100
AcDbEntity
  8
0
  6
BYBLOCK
 62
0
100
AcDbTrace
 10
0.0
 20
0.0
 11
-1.0
 21
0.3166666667
 12
-1.0
 22
-0.3166666667
 13
-1.0
 23
-0.3166666667
  0
ENDBLK
  5
21D
100
AcDbEntity
  8
0
  6
BYBLOCK
 62
0
100
AcDbBlockEnd
  0
BLOCK
  5
21E
100
AcDbEntity
  8
0
100
AcDbBlockBegin
 62
7
  6
CONTINUOUS
  2
*D0
 70
65
 10
0.0
 20
0.0
  3
*D0
  1

  0
MTEXT
  5
21F
100
AcDbEntity
  8
0
100
AcDbMText
 62
7
  6
CONTINUOUS
  7
STANDARD
 71
2
 72
1
 10
0.0
 20
61.75
 30
0.0
 11
1.0
 21
0.0
 31
0.0
 44
0.9
  1
90
 40
3.0
 41
7.0714285714
  0
LINE
  5
220
100
AcDbEntity
  8
0
100
AcDbLine
 62
7
  6
CONTINUOUS
 10
44.9999890968
 20
44.5035192549
 11
44.9999890968
 21
59.5
  0
LINE
  5
221
100
AcDbEntity
  8
0
100
AcDbLine
 62
7
  6
CONTINUOUS
 10
-44.9999890968
 20
44.5035192549
 11
-44.9999890968
 21
59.5
  0
LINE
  5
222
100
AcDbEntity
  8
0
100
AcDbLine
 62
7
  6
CONTINUOUS
 10
44.9999890968
 20
58.0
 11
0.0
 21
58.0
  0
LINE
  5
223
100
AcDbEntity
  8
0
100
AcDbLine
 62
7
  6
CONTINUOUS
 10
-44.9999890968
 20
58.0
 11
0.0
 21
58.0
  0
INSERT
  5
224
100
AcDbEntity
  8
0
100
AcDbBlockReference
 62
7
  6
CONTINUOUS
  2
_FILLED
 10
44.9999890968
 20
58.0
 41
3.0
 42
3.0
 43
3.0
  0
INSERT
  5
225
100
AcDbEntity
  8
0
100
AcDbBlockReference
 62
7
  6
CONTINUOUS
  2
_FILLED
 10
-44.9999890968
 20
58.0
 41
3.0
 42
3.0
 43
3.0
 50
180.0
  0
ENDBLK
  5
226
100
AcDbEntity
  8
0
  6
BYBLOCK
 62
0
100
AcDbBlockEnd
  0
BLOCK
  5
227
100
AcDbEntity
  8
0
100
AcDbBlockBegin
 62
7
  6
CONTINUOUS
  2
*D1
 70
65
 10
0.0
 20
0.0
  3
*D1
  1

  0
MTEXT
  5
228
100
AcDbEntity
  8
0
100
AcDbMText
 62
7
  6
CONTINUOUS
  7
STANDARD
 71
3
 72
1
 10
67.066075596
 20
61.75
 30
0.0
 11
1.0
 21
0.0
 31
0.0
 44
0.9
  1
9,1
 40
3.0
 41
8.6785714286
  0
LINE
  5
229
100
AcDbEntity
  8
0
100
AcDbLine
 62
7
  6
CONTINUOUS
 10
80.8277169892
 20
9.16052
 11
80.8277169892
 21
59.5
  0
LINE
  5
22A
100
AcDbEntity
  8
0
100
AcDbLine
 62
7
  6
CONTINUOUS
 10
71.7582866646
 20
43.3803686145
 11
71.7582866646
 21
59.5
  0
LINE
  5
22B
100
AcDbEntity
  8
0
100
AcDbLine
 62
7
  6
CONTINUOUS
 10
80.8277169892
 20
58.0
 11
84.8277169892
 21
58.0
  0
LINE
  5
22C
100
AcDbEntity
  8
0
100
AcDbLine
 62
7
  6
CONTINUOUS
 10
84.8277169892
 20
58.0
 11
76.2930018269
 21
58.0
  0
LINE
  5
22D
100
AcDbEntity
  8
0
100
AcDbLine
 62
7
  6
CONTINUOUS
 10
71.7582866646
 20
58.0
 11
61.2803613103
 21
58.0
  0
LINE
  5
22E
100
AcDbEntity
  8
0
100
AcDbLine
 62
7
  6
CONTINUOUS
 10
61.2803613103
 20
58.0
 11
76.2930018269
 21
58.0
  0
INSERT
  5
22F
100
AcDbEntity
  8
0
100
AcDbBlockReference
 62
7
  6
CONTINUOUS
  2
_FILLED
 10
80.8277169892
 20
58.0
 41
3.0
 42
3.0
 43
3.0
 50
180.0
  0
INSERT
  5
230
100
AcDbEntity
  8
0
100
AcDbBlockReference
 62
7
  6
CONTINUOUS
  2
_FILLED
 10
71.7582866646
 20
58.0
 41
3.0
 42
3.0
 43
3.0
  0
ENDBLK
  5
231
100
AcDbEntity
  8
0
  6
BYBLOCK
 62
0
100
AcDbBlockEnd
  0
BLOCK
  5
232
100
AcDbEntity
  8
0
100
AcDbBlockBegin
 62
7
  6
CONTINUOUS
  2
*D2
 70
65
 10
0.0
 20
0.0
  3
*D2
  1

  0
MTEXT
  5
233
100
AcDbEntity
  8
0
100
AcDbMText
 62
7
  6
CONTINUOUS
  7
STANDARD
 71
2
 72
1
 10
86.0082972388
 20
-0.0
 30
0.0
 11
0.0
 21
1.0
 31
0.0
 44
0.9
  1
90
 40
3.0
 41
7.0714285714
  0
LINE
  5
234
100
AcDbEntity
  8
0
100
AcDbLine
 62
7
  6
CONTINUOUS
 10
75.8703655586
 20
45.0
 11
91.2582972388
 21
45.0
  0
LINE
  5
235
100
AcDbEntity
  8
0
100
AcDbLine
 62
7
  6
CONTINUOUS
 10
75.8703655586
 20
-45.0
 11
91.2582972388
 21
-45.0
  0
LINE
  5
236
100
AcDbEntity
  8
0
100
AcDbLine
 62
7
  6
CONTINUOUS
 10
89.7582972388
 20
45.0
 11
89.7582972388
 21
-0.0
  0
LINE
  5
237
100
AcDbEntity
  8
0
100
AcDbLine
 62
7
  6
CONTINUOUS
 10
89.7582972388
 20
-45.0
 11
89.7582972388
 21
-0.0
  0
INSERT
  5
238
100
AcDbEntity
  8
0
100
AcDbBlockReference
 62
7
  6
CONTINUOUS
  2
_FILLED
 10
89.7582972388
 20
45.0
 41
3.0
 42
3.0
 43
3.0
 50
90.0
  0
INSERT
  5
239
100
AcDbEntity
  8
0
100
AcDbBlockReference
 62
7
  6
CONTINUOUS
  2
_FILLED
 10
89.7582972388
 20
-45.0
 41
3.0
 42
3.0
 43
3.0
 50
270.0
  0
ENDBLK
  5
23A
100
AcDbEntity
  8
0
  6
BYBLOCK
 62
0
100
AcDbBlockEnd
  0
ENDSEC
  0
SECTION
  2
ENTITIES
  0
DIMENSION
  5
23B
100
AcDbEntity
  8
0
100
AcDbDimension
 62
7
  6
CONTINUOUS
  2
*D0
 10
-44.9999890968
 20
58.0
 11
-0.4285713773
 21
58.0
 70
160
 71
2
 42
89.9999781935
  3
DIMSTYLE_1
100
AcDbAlignedDimension
 13
44.9999890968
 23
44.0035192549
 14
-44.9999890968
 24
44.0035192549
 50
180.0
100
AcDbRotatedDimension
  0
DIMENSION
  5
23C
100
AcDbEntity
  8
0
100
AcDbDimension
 62
7
  6
CONTINUOUS
  2
*D1
 10
71.7582866646
 20
58.0
 11
63.7446469345
 21
58.0
 70
160
 71
3
 42
9.0694303246
  3
DIMSTYLE_2
100
AcDbAlignedDimension
 13
80.8277169892
 23
8.66052
 14
71.7582866646
 24
42.8803686145
 50
180.0
100
AcDbRotatedDimension
  0
DIMENSION
  5
23D
100
AcDbEntity
  8
0
100
AcDbDimension
 62
7
  6
CONTINUOUS
  2
*D2
 10
89.7582972388
 20
-45.0
 11
89.7582972388
 21
-0.4285728627
 70
160
 71
2
 42
90.0
  3
DIMSTYLE_1
100
AcDbAlignedDimension
 13
75.3703655586
 23
45.0
 14
75.3703655586
 24
-45.0
 50
270.0
100
AcDbRotatedDimension
  0
LWPOLYLINE
  5
23E
100
AcDbEntity
  8
RACCORDO
100
AcDbPolyline
 62
253
  6
CONTINUOUS
 90
25
 70
0
 10
-44.8448916334
 20
-43.8457940382
 10
-44.8420222615
 20
-43.9111937679
 10
-44.8349528213
 20
-43.9761384962
 10
-44.8237333959
 20
-44.0403600021
 10
-44.8084421672
 20
-44.1035670584
 10
-44.7891555789
 20
-44.1655310996
 10
-44.7659285769
 20
-44.2260811216
 10
-44.7388370415
 20
-44.2850115167
 10
-44.7080126265
 20
-44.342031171
 10
-44.6736098612
 20
-44.3968505378
 10
-44.6357961505
 20
-44.4492296003
 10
-44.5947276329
 20
-44.4989787119
 10
-44.5505695136
 20
-44.5459035119
 10
-44.503512224
 20
-44.5898145888
 10
-44.4537568112
 20
-44.6305381185
 10
-44.40149726
 20
-44.667918144
 10
-44.3469489572
 20
-44.7018056865
 10
-44.2903441377
 20
-44.7320630073
 10
-44.2319128801
 20
-44.758569305
 10
-44.1719058516
 20
-44.7812148352
 10
-44.1105646285
 20
-44.7999136402
 10
-44.0481125197
 20
-44.8145977175
 10
-43.9847960628
 20
-44.8252047689
 10
-43.9208858728
 20
-44.8316848737
 10
-43.8566450886
 20
-44.8340076387
  0
LWPOLYLINE
  5
23F
100
AcDbEntity
  8
RACCORDO
100
AcDbPolyline
 62
253
  6
CONTINUOUS
 90
25
 70
0
 10
-44.346857488
 20
-43.9268006745
 10
-44.3457642773
 20
-43.9600619029
 10
-44.3426189638
 20
-43.9928581372
 10
-44.3374215476
 20
-44.0251894264
 10
-44.3301337223
 20
-44.0571838394
 10
-44.3207937942
 20
-44.0887133946
 10
-44.3095166828
 20
-44.1193941047
 10
-44.2962727357
 20
-44.1492248706
 10
-44.2810916052
 20
-44.1782069601
 10
-44.2641771674
 20
-44.2059600105
 10
-44.2455118269
 20
-44.2324580308
 10
-44.2251131791
 20
-44.2577272344
 10
-44.2032378862
 20
-44.2814656205
 10
-44.1798674903
 20
-44.30365586
 10
-44.1550204493
 20
-44.3243155172
 10
-44.1290087989
 20
-44.3431949628
 10
-44.1018192161
 20
-44.3602715451
 10
-44.0734650239
 20
-44.3755681309
 10
-44.0442982279
 20
-44.3889033796
 10
-44.0142988184
 20
-44.4002535237
 10
-43.9834868049
 20
-44.4096424938
 10
-43.9522742218
 20
-44.4169604898
 10
-43.9207984138
 20
-44.4221709422
 10
-43.888922036
 20
-44.4253105083
 10
-43.8566450886
 20
-44.4263792099
  0
LINE
  5
240
100
AcDbEntity
  8
RACCORDO
100
AcDbLine
 62
7
  6
CONTINUOUS
 10
-44.9999996007
 20
-44.0035192549
 11
-45.0
 21
-22.5203789087
  0
LINE
  5
241
100
AcDbEntity
  8
DRAFT
100
AcDbLine
 62
7
  6
CONTINUOUS
 10
-45.0
 20
-22.5203789087
 11
-45.0
 21
22.5203789087
  0
LINE
  5
242
100
AcDbEntity
  8
RACCORDO
100
AcDbLine
 62
7
  6
CONTINUOUS
 10
-45.0
 20
22.5203789087
 11
-44.9999996007
 21
44.0035192549
  0
LINE
  5
243
100
AcDbEntity
  8
RACCORDO
100
AcDbLine
 62
253
  6
CONTINUOUS
 10
-44.8474462442
 20
0.0000001319
 11
-44.8448916333
 21
-43.845794038
  0
LINE
  5
244
100
AcDbEntity
  8
RACCORDO
100
AcDbLine
 62
253
  6
CONTINUOUS
 10
-44.3493488952
 20
0.0000000027
 11
-44.346857488
 21
-43.9268006745
  0
LINE
  5
245
100
AcDbEntity
  8
RACCORDO
100
AcDbLine
 62
253
  6
CONTINUOUS
 10
-43.8566450886
 20
-44.4263792099
 11
-43.8566450886
 21
-44.8340076387
  0
LINE
  5
246
100
AcDbEntity
  8
RACCORDO
100
AcDbLine
 62
253
  6
CONTINUOUS
 10
-43.8566450886
 20
44.4263792099
 11
-43.8566450885
 21
44.8340076387
  0
LINE
  5
247
100
AcDbEntity
  8
RACCORDO
100
AcDbLine
 62
253
  6
CONTINUOUS
 10
-44.8448916333
 20
43.8457940385
 11
-44.8474462442
 21
0.0000001319
  0
LINE
  5
248
100
AcDbEntity
  8
RACCORDO
100
AcDbLine
 62
253
  6
CONTINUOUS
 10
-44.346857488
 20
43.9268006745
 11
-44.3493488952
 21
0.0000000027
  0
LWPOLYLINE
  5
249
100
AcDbEntity
  8
RACCORDO
100
AcDbPolyline
 62
7
  6
CONTINUOUS
 90
25
 70
0
 10
-44.9999996007
 20
44.0035192549
 10
-44.9977748504
 20
44.0707188539
 10
-44.9913318173
 20
44.1369798403
 10
-44.9806705013
 20
44.2023024144
 10
-44.965650718
 20
44.2670516876
 10
-44.9464126519
 20
44.3308628896
 10
-44.9233768564
 20
44.3926416351
 10
-44.8966009274
 20
44.4521350291
 10
-44.8660272689
 20
44.5095968339
 10
-44.8319036465
 20
44.5646929375
 10
-44.7940835273
 20
44.6175842029
 10
-44.7527134442
 20
44.668110621
 10
-44.7084807608
 20
44.7154569545
 10
-44.6613423449
 20
44.7595165548
 10
-44.6113413288
 20
44.8003970889
 10
-44.5592944736
 20
44.8376049556
 10
-44.5053599305
 20
44.8710155068
 10
-44.4493795484
 20
44.9007543068
 10
-44.391695634
 20
44.9267030864
 10
-44.3320714853
 20
44.9489183461
 10
-44.2707438044
 20
44.9673442233
 10
-44.2087650051
 20
44.9816938602
 10
-44.1464858918
 20
44.9918717628
 10
-44.0835556601
 20
44.9979737802
 10
-44.0199743099
 20
45.0
  0
LWPOLYLINE
  5
24A
100
AcDbEntity
  8
RACCORDO
100
AcDbPolyline
 62
253
  6
CONTINUOUS
 90
25
 70
0
 10
43.8566450886
 20
-44.8340076387
 10
43.9209228189
 20
-44.8316821307
 10
43.9848265037
 20
-44.8252004766
 10
44.0480938876
 20
-44.8146013812
 10
44.1104260911
 20
-44.7999510384
 10
44.1716109006
 20
-44.7813152536
 10
44.2315161856
 20
-44.7587335475
 10
44.2899431574
 20
-44.7322603731
 10
44.3465901887
 20
-44.7020124516
 10
44.4011758198
 20
-44.6681326608
 10
44.4534518797
 20
-44.6307718195
 10
44.5032209842
 20
-44.5900696518
 10
44.5502931937
 20
-44.5461792985
 10
44.5944692779
 20
-44.4992724169
 10
44.6355567
 20
-44.4495402194
 10
44.6733883293
 20
-44.3971798877
 10
44.7077991906
 20
-44.3423974828
 10
44.738633886
 20
-44.2854182984
 10
44.7657589711
 20
-44.2264834521
 10
44.7890496382
 20
-44.165835588
 10
44.8083996001
 20
-44.1037204579
 10
44.8237259626
 20
-44.0403956035
 10
44.8349551641
 20
-43.976122429
 10
44.8420245055
 20
-43.9111654893
 10
44.8448916334
 20
-43.8457940386
  0
LWPOLYLINE
  5
24B
100
AcDbEntity
  8
RACCORDO
100
AcDbPolyline
 62
253
  6
CONTINUOUS
 90
25
 70
0
 10
43.8566450886
 20
-44.4263792099
 10
43.8889611314
 20
-44.4252978851
 10
43.9208480702
 20
-44.4221559827
 10
43.9523059047
 20
-44.4169534808
 10
43.9834544763
 20
-44.4096581988
 10
44.0141739436
 20
-44.4003022303
 10
44.0441047838
 20
-44.3889819471
 10
44.0732522084
 20
-44.3756673564
 10
44.1016110058
 20
-44.3603882877
 10
44.1288060179
 20
-44.34333084
 10
44.1548139592
 20
-44.3244767469
 10
44.1796581151
 20
-44.3038440603
 10
44.2030331837
 20
-44.2816733673
 10
44.2249257759
 20
-44.2579421435
 10
44.2453492807
 20
-44.2326726769
 10
44.2640385636
 20
-44.2061728034
 10
44.2809719082
 20
-44.1784255881
 10
44.2961710309
 20
-44.1494477439
 10
44.3094359457
 20
-44.1195976312
 10
44.3207425689
 20
-44.0888499025
 10
44.3301149842
 20
-44.0572297301
 10
44.3374254572
 20
-44.0251713312
 10
44.3426314098
 20
-43.9928194348
 10
44.3457754201
 20
-43.9600292313
 10
44.346857488
 20
-43.9268006745
  0
LWPOLYLINE
  5
24C
100
AcDbEntity
  8
RACCORDO
100
AcDbPolyline
 62
253
  6
CONTINUOUS
 90
19
 70
0
 10
44.346857488
 20
-43.926800663
 10
44.3879801891
 20
-43.9265061011
 10
44.4288242517
 20
-43.9256106825
 10
44.4691129252
 20
-43.9241204744
 10
44.5085732222
 20
-43.9220455743
 10
44.5469377684
 20
-43.919400041
 10
44.5839466137
 20
-43.9162018003
 10
44.6193489943
 20
-43.9124725226
 10
44.6529050313
 20
-43.9082374768
 10
44.6843873562
 20
-43.9035253587
 10
44.7135826515
 20
-43.8983680965
 10
44.7402930963
 20
-43.8928006347
 10
44.7643377064
 20
-43.8868606972
 10
44.7855535605
 20
-43.8805885318
 10
44.8037969048
 20
-43.8740266374
 10
44.8189441262
 20
-43.8672194758
 10
44.8308925904
 20
-43.8602131709
 10
44.8395613373
 20
-43.8530551961
 10
44.8448916292
 20
-43.8457940521
  0
LINE
  5
24D
100
AcDbEntity
  8
RACCORDO
100
AcDbLine
 62
7
  6
CONTINUOUS
 10
-44.0199743099
 20
-45.0
 11
44.0199743099
 21
-45.0
  0
LINE
  5
24E
100
AcDbEntity
  8
RACCORDO
100
AcDbLine
 62
253
  6
CONTINUOUS
 10
-43.8566450886
 20
-44.8340076387
 11
43.8566450886
 21
-44.8340076387
  0
LINE
  5
24F
100
AcDbEntity
  8
RACCORDO
100
AcDbLine
 62
253
  6
CONTINUOUS
 10
-43.8566450886
 20
-44.4263792099
 11
43.8566450886
 21
-44.4263792099
  0
LWPOLYLINE
  5
250
100
AcDbEntity
  8
RACCORDO
100
AcDbPolyline
 62
253
  6
CONTINUOUS
 90
19
 70
0
 10
-44.346857488
 20
-43.9268006656
 10
-44.3879796394
 20
-43.9265060638
 10
-44.428823117
 20
-43.9256106103
 10
-44.4691111783
 20
-43.9241203723
 10
-44.5085708443
 20
-43.9220454469
 10
-44.5469347487
 20
-43.9193998932
 10
-44.5839429499
 20
-43.9162016365
 10
-44.6193446922
 20
-43.9124723471
 10
-44.6529001044
 20
-43.9082372936
 10
-44.6843818258
 20
-43.9035251713
 10
-44.7135765463
 20
-43.8983679081
 10
-44.7402864517
 20
-43.8928004481
 10
-44.7643305641
 20
-43.8868605146
 10
-44.7855459683
 20
-43.8805883549
 10
-44.8037889153
 20
-43.8740264672
 10
-44.8189357969
 20
-43.867219313
 10
-44.8308839825
 20
-43.8602130154
 10
-44.8395525151
 20
-43.8530550472
 10
-44.8448826593
 20
-43.8457939085
  0
LWPOLYLINE
  5
251
100
AcDbEntity
  8
RACCORDO
100
AcDbPolyline
 62
7
  6
CONTINUOUS
 90
25
 70
0
 10
-44.0199743099
 20
-45.0
 10
-44.0835731555
 20
-44.9979667472
 10
-44.1465038528
 20
-44.9918646384
 10
-44.2087664018
 20
-44.9816935862
 10
-44.270699556
 20
-44.967361448
 10
-44.3319645619
 20
-44.9489600123
 10
-44.3915451594
 20
-44.926765019
 10
-44.4492228022
 20
-44.9008275483
 10
-44.5052160367
 20
-44.8710958815
 10
-44.5591642417
 20
-44.8376915152
 10
-44.6112197256
 20
-44.8004898697
 10
-44.6612301801
 20
-44.7596146085
 10
-44.7083780595
 20
-44.7155596069
 10
-44.7526204531
 20
-44.6682162185
 10
-44.7940002716
 20
-44.6176920711
 10
-44.8318287016
 20
-44.5648056154
 10
-44.8659567495
 20
-44.5097245395
 10
-44.8965334089
 20
-44.4522803033
 10
-44.9233168471
 20
-44.392787195
 10
-44.9463700299
 20
-44.3309753788
 10
-44.9656299916
 20
-44.2671138133
 10
-44.9806660025
 20
-44.2023252677
 10
-44.991334486
 20
-44.1369839778
 10
-44.9977790188
 20
-44.0707153728
 10
-44.9999996007
 20
-44.0035192549
  0
LWPOLYLINE
  5
252
100
AcDbEntity
  8
RACCORDO
100
AcDbPolyline
 62
253
  6
CONTINUOUS
 90
16
 70
0
 10
-22.9008701393
 20
22.6310194482
 10
-22.8505357167
 20
22.6897222478
 10
-22.7970675552
 20
22.745075976
 10
-22.7404656547
 20
22.7970807964
 10
-22.6805052031
 20
22.8459304762
 10
-22.6174110126
 20
22.8914315452
 10
-22.5518575197
 20
22.933003322
 10
-22.4837569237
 20
22.9706031358
 10
-22.4131970252
 20
23.0042739461
 10
-22.3411156629
 20
23.0335635375
 10
-22.267466657
 20
23.0583767186
 10
-22.1922961872
 20
23.0788089062
 10
-22.1166806325
 20
23.0946937877
 10
-22.0409787855
 20
23.1059759664
 10
-21.9648318535
 20
23.1127109576
 10
-21.8882398365
 20
23.1148987905
  0
LWPOLYLINE
  5
253
100
AcDbEntity
  8
RACCORDO
100
AcDbPolyline
 62
253
  6
CONTINUOUS
 90
16
 70
0
 10
-22.5124604562
 20
22.2931695584
 10
-22.481521235
 20
22.3290265036
 10
-22.4484536369
 20
22.3630398481
 10
-22.413364947
 20
22.3950812845
 10
-22.3763710508
 20
22.4250267807
 10
-22.3375941518
 20
22.4527626645
 10
-22.2971617849
 20
22.4781852485
 10
-22.2551686287
 20
22.5012137539
 10
-22.2117966892
 20
22.5217280681
 10
-22.1673239915
 20
22.539598285
 10
-22.1219070131
 20
22.5547718971
 10
-22.0757164016
 20
22.5672021431
 10
-22.0290724011
 20
22.5768307257
 10
-21.9821982671
 20
22.5836553704
 10
-21.9352116762
 20
22.5877001985
 10
-21.888277579
 20
22.5889882637
  0
LINE
  5
254
100
AcDbEntity
  8
0
100
AcDbLine
 62
7
  6
CONTINUOUS
 10
-4.616107
 20
-28.877801
 11
-4.101097
 21
-28.877801
  0
LINE
  5
255
100
AcDbEntity
  8
0
100
AcDbLine
 62
7
  6
CONTINUOUS
 10
-2.984285
 20
-28.877801
 11
-2.399877
 21
-28.877801
  0
LINE
  5
256
100
AcDbEntity
  8
0
100
AcDbLine
 62
7
  6
CONTINUOUS
 10
-2.085272
 20
-28.877801
 11
-1.526183
 21
-28.877801
  0
LINE
  5
257
100
AcDbEntity
  8
0
100
AcDbLine
 62
7
  6
CONTINUOUS
 10
-0.714487
 20
-28.877801
 11
-0.632524
 21
-28.877801
  0
LINE
  5
258
100
AcDbEntity
  8
0
100
AcDbLine
 62
7
  6
CONTINUOUS
 10
0.182406
 20
-28.877801
 11
0.754112
 21
-28.877801
  0
LINE
  5
259
100
AcDbEntity
  8
0
100
AcDbLine
 62
7
  6
CONTINUOUS
 10
0.84588
 20
-28.877801
 11
1.423947
 21
-28.877801
  0
LINE
  5
25A
100
AcDbEntity
  8
0
100
AcDbLine
 62
7
  6
CONTINUOUS
 10
2.532466
 20
-28.877801
 11
3.148408
 21
-28.877801
  0
LINE
  5
25B
100
AcDbEntity
  8
0
100
AcDbLine
 62
7
  6
CONTINUOUS
 10
3.3200188023
 20
-28.8778013544
 11
3.9020753449
 21
-28.8778013544
  0
LINE
  5
25C
100
AcDbEntity
  8
0
100
AcDbLine
 62
7
  6
CONTINUOUS
 10
4.7970156219
 20
-28.8778013544
 11
5.3591482119
 21
-28.8778013544
  0
LINE
  5
25D
100
AcDbEntity
  8
0
100
AcDbLine
 62
7
  6
CONTINUOUS
 10
1.585207
 20
-28.318881
 11
2.381074
 21
-28.318881
  0
LINE
  5
25E
100
AcDbEntity
  8
0
100
AcDbLine
 62
7
  6
CONTINUOUS
 10
1.704751
 20
-27.886391
 11
2.26428
 21
-27.886391
  0
LINE
  5
25F
100
AcDbEntity
  8
0
100
AcDbLine
 62
7
  6
CONTINUOUS
 10
3.9020753449
 20
-27.7821519248
 11
4.2154209623
 21
-27.7821519248
  0
LWPOLYLINE
  5
260
100
AcDbEntity
  8
RACCORDO
100
AcDbPolyline
 62
253
  6
CONTINUOUS
 90
13
 70
0
 10
-22.5124604562
 20
-22.2931695584
 10
-22.5396445675
 20
-22.2577185913
 10
-22.5649542236
 20
-22.2205548862
 10
-22.5882680988
 20
-22.1817682862
 10
-22.6095214019
 20
-22.1413503863
 10
-22.6285348836
 20
-22.0995104899
 10
-22.6450781624
 20
-22.0567037037
 10
-22.6591039043
 20
-22.0130827146
 10
-22.6705798584
 20
-21.9687871502
 10
-22.6794229004
 20
-21.9242946059
 10
-22.6856582011
 20
-21.8798722206
 10
-22.6893568619
 20
-21.8355604888
 10
-22.6905731628
 20
-21.791501964
  0
LWPOLYLINE
  5
261
100
AcDbEntity
  8
RACCORDO
100
AcDbPolyline
 62
253
  6
CONTINUOUS
 90
13
 70
0
 10
-22.9008701393
 20
-22.6310194482
 10
-22.9451880134
 20
-22.5731806662
 10
-22.9861171448
 20
-22.5128252747
 10
-23.0236575335
 20
-22.4499532241
 10
-23.0580305266
 20
-22.3841672107
 10
-23.089014777
 20
-22.3158644271
 10
-23.115946243
 20
-22.2462365918
 10
-23.1386484722
 20
-22.1752585035
 10
-23.157297917
 20
-22.1029553051
 10
-23.1717598923
 20
-22.0305942865
 10
-23.1819895031
 20
-21.9585978918
 10
-23.1880316445
 20
-21.8865436847
 10
-23.1898863164
 20
-21.8144316658
  0
LWPOLYLINE
  5
262
100
AcDbEntity
  8
RACCORDO
100
AcDbPolyline
 62
7
  6
CONTINUOUS
 90
25
 70
0
 10
-22.6000000304
 20
-21.7011338162
 10
-22.5983133338
 20
-21.7532149459
 10
-22.5932577281
 20
-21.8047950352
 10
-22.5848332135
 20
-21.855874092
 10
-22.5729548361
 20
-21.9067511078
 10
-22.5577075498
 20
-21.9571271031
 10
-22.5393462156
 20
-22.0061051433
 10
-22.5179085355
 20
-22.0534957168
 10
-22.4933568076
 20
-22.0994883805
 10
-22.4658327874
 20
-22.143754821
 10
-22.4352133541
 20
-22.1864259539
 10
-22.4016216286
 20
-22.2273709113
 10
-22.3655687287
 20
-22.2658687184
 10
-22.3269856534
 20
-22.3018503551
 10
-22.2859414038
 20
-22.3353849024
 10
-22.2431541008
 20
-22.3659585498
 10
-22.1987463026
 20
-22.3934508262
 10
-22.152595451
 20
-22.4179822607
 10
-22.1050519923
 20
-22.4394005457
 10
-22.0559446846
 20
-22.4577375369
 10
-22.0054447697
 20
-22.47296142
 10
-21.954416419
 20
-22.4848243794
 10
-21.9031476896
 20
-22.4932438182
 10
-21.8513505244
 20
-22.4983023565
 10
-21.7990249234
 20
-22.5
  0
LINE
  5
263
100
AcDbEntity
  8
RACCORDO
100
AcDbLine
 62
253
  6
CONTINUOUS
 10
-23.1898863164
 20
-21.8144316658
 11
-23.1898863164
 21
21.8144316658
  0
LWPOLYLINE
  5
264
100
AcDbEntity
  8
RACCORDO
100
AcDbPolyline
 62
253
  6
CONTINUOUS
 90
13
 70
0
 10
-23.1898863164
 20
21.8144316658
 10
-23.1880955195
 20
21.8858708067
 10
-23.1821482674
 20
21.9573603635
 10
-23.1720445601
 20
22.0289003334
 10
-23.1577700142
 20
22.1008904856
 10
-23.1393390131
 20
22.1729310385
 10
-23.1167947072
 20
22.2438226906
 10
-23.0899427996
 20
22.3135964281
 10
-23.0589775872
 20
22.3822213141
 10
-23.0245251108
 20
22.4484052204
 10
-22.9867940509
 20
22.5117174844
 10
-22.9455757271
 20
22.5725888775
 10
-22.9008701393
 20
22.6310194482
  0
LWPOLYLINE
  5
265
100
AcDbEntity
  8
RACCORDO
100
AcDbPolyline
 62
253
  6
CONTINUOUS
 90
13
 70
0
 10
-22.6905731696
 20
21.7914778918
 10
-22.6893771606
 20
21.835193491
 10
-22.6857322721
 20
21.8792069796
 10
-22.6795774651
 20
21.9233780954
 10
-22.6708398831
 20
21.9676458435
 10
-22.6594844562
 20
22.0117666501
 10
-22.6455635601
 20
22.0553271719
 10
-22.6290758325
 20
22.0982192079
 10
-22.6100617406
 20
22.1402449168
 10
-22.5887585536
 20
22.1808959525
 10
-22.5653462434
 20
22.2199420883
 10
-22.5398752454
 20
22.2573993105
 10
-22.5124604562
 20
22.2931695584
  0
LWPOLYLINE
  5
266
100
AcDbEntity
  8
0
100
AcDbPolyline
 62
7
  6
CONTINUOUS
 90
25
 70
0
 10
3.3200188023
 20
-26.110807341
 10
3.379913229
 20
-26.1020828018
 10
3.439751189
 20
-26.0938685307
 10
3.4995326824
 20
-26.0861645332
 10
3.5592190694
 20
-26.0789195031
 10
3.6188489897
 20
-26.072184756
 10
3.6785383627
 20
-26.0661142308
 10
3.7383002532
 20
-26.0607015346
 10
3.7981215964
 20
-26.05595307
 10
3.8580791179
 20
-26.0520419711
 10
3.9181819434
 20
-26.0489612427
 10
3.9784209471
 20
-26.0467178874
 10
4.0388454768
 20
-26.0455060356
 10
4.0995156422
 20
-26.0453227665
 10
4.1603713337
 20
-26.0461710027
 10
4.2212815704
 20
-26.0482536381
 10
4.2822565951
 20
-26.0515023214
 10
4.343286165
 20
-26.0559853957
 10
4.404208571
 20
-26.0621107917
 10
4.4651521586
 20
-26.0697879108
 10
4.5259885822
 20
-26.079107323
 10
4.5861710958
 20
-26.0907486963
 10
4.6455174505
 20
-26.1049385571
 10
4.7042098952
 20
-26.1214502992
 10
4.7622484297
 20
-26.1402838735
  0
LWPOLYLINE
  5
267
100
AcDbEntity
  8
RACCORDO
100
AcDbPolyline
 62
7
  6
CONTINUOUS
 90
25
 70
0
 10
21.7990249234
 20
-22.5
 10
21.8513240094
 20
-22.4983104261
 10
21.9031131864
 20
-22.4932534631
 10
21.9543924545
 20
-22.4848291052
 10
22.0054625192
 20
-22.4729509001
 10
22.0560226751
 20
-22.4577052768
 10
22.1051708052
 20
-22.4393515476
 10
22.1527156104
 20
-22.4179275284
 10
22.19884839
 20
-22.393395362
 10
22.2432409247
 20
-22.365900848
 10
22.2860246785
 20
-22.3353202354
 10
22.3270681874
 20
-22.3017772171
 10
22.3656488412
 20
-22.2657887614
 10
22.4016951091
 20
-22.2272882844
 10
22.4352785217
 20
-22.1863423092
 10
22.4658910611
 20
-22.1436674776
 10
22.4934127797
 20
-22.0993858384
 10
22.5179636251
 20
-22.0533752949
 10
22.5393954213
 20
-22.0059862851
 10
22.5577398797
 20
-21.9570493345
 10
22.5729652891
 20
-21.9067338732
 10
22.5848283398
 20
-21.8558987137
 10
22.5932479286
 20
-21.8048301281
 10
22.5983051588
 20
-21.7532418316
 10
22.6000000304
 20
-21.7011338162
  0
LWPOLYLINE
  5
268
100
AcDbEntity
  8
0
100
AcDbPolyline
 62
7
  6
CONTINUOUS
 90
31
 70
0
 10
4.2166806432
 20
-27.3236280866
 10
4.2404842031
 20
-27.3228715286
 10
4.2641813669
 20
-27.3213804254
 10
4.2877721345
 20
-27.3191547753
 10
4.3112877874
 20
-27.3162593266
 10
4.334697044
 20
-27.3126293258
 10
4.3579060604
 20
-27.3080705175
 10
4.3809308717
 20
-27.3026182096
 10
4.4037554426
 20
-27.2962370812
 10
4.4262378231
 20
-27.2886269275
 10
4.4485028296
 20
-27.279760844
 10
4.4704256457
 20
-27.2696657063
 10
4.4914898718
 20
-27.2581219711
 10
4.5116645288
 20
-27.2450170769
 10
4.5309805958
 20
-27.2304635336
 10
4.5490146107
 20
-27.2145793989
 10
4.5656312828
 20
-27.1972403025
 10
4.5809659028
 20
-27.1785705511
 10
4.5950008806
 20
-27.1590612297
 10
4.6076969648
 20
-27.1387374445
 10
4.6190934068
 20
-27.1175740435
 10
4.6292903716
 20
-27.0959867486
 10
4.638281262
 20
-27.0740624752
 10
4.6460726753
 20
-27.0517142847
 10
4.6527845677
 20
-27.0290971349
 10
4.6584559526
 20
-27.0062356349
 10
4.6630478166
 20
-26.9831051601
 10
4.6665630761
 20
-26.9597868253
 10
4.6690027032
 20
-26.9363076662
 10
4.6703657258
 20
-26.9126406366
 10
4.6706521439
 20
-26.8887857308
  0
LWPOLYLINE
  5
269
100
AcDbEntity
  8
RACCORDO
100
AcDbPolyline
 62
253
  6
CONTINUOUS
 90
17
 70
0
 10
44.431203465
 20
-22.6306824909
 10
44.4715266169
 20
-22.6302605538
 10
44.5110191827
 20
-22.6296730821
 10
44.5494130905
 20
-22.6289240635
 10
44.5864477259
 20
-22.6280185823
 10
44.6218717013
 20
-22.6269627849
 10
44.6554445618
 20
-22.6257638378
 10
44.6869384181
 20
-22.6244298795
 10
44.7161394927
 20
-22.6229699647
 10
44.7428495713
 20
-22.6213940031
 10
44.7668873484
 20
-22.6197126924
 10
44.7880896578
 20
-22.6179374449
 10
44.8063125802
 20
-22.6160803111
 10
44.8214324199
 20
-22.6141538968
 10
44.833346545
 20
-22.6121712785
 10
44.8419740833
 20
-22.610145914
 10
44.8472564721
 20
-22.6080915512
  0
LWPOLYLINE
  5
26A
100
AcDbEntity
  8
RACCORDO
100
AcDbPolyline
 62
253
  6
CONTINUOUS
 90
17
 70
0
 10
44.4312063988
 20
-22.542894538
 10
44.4715296113
 20
-22.5424730477
 10
44.5110222338
 20
-22.5418866889
 10
44.5494161932
 20
-22.5411394418
 10
44.5864508739
 20
-22.5402363786
 10
44.6218748872
 20
-22.5391836293
 10
44.6554477773
 20
-22.5379883399
 10
44.6869416538
 20
-22.5366586239
 10
44.7161427385
 20
-22.5352035073
 10
44.7428528165
 20
-22.5336328674
 10
44.7668905816
 20
-22.5319573655
 10
44.7880928672
 20
-22.5301883749
 10
44.8063157536
 20
-22.5283379033
 10
44.8214355451
 20
-22.5264185116
 10
44.8333496098
 20
-22.5244432284
 10
44.8419770757
 20
-22.522425462
 10
44.8472593802
 20
-22.5203789087
  0
LINE
  5
26B
100
AcDbEntity
  8
0
100
AcDbLine
 62
7
  6
CONTINUOUS
 10
3.8826972541
 20
-27.3236280866
 11
4.2166806432
 21
-27.3236280866
  0
LINE
  5
26C
100
AcDbEntity
  8
0
100
AcDbLine
 62
7
  6
CONTINUOUS
 10
-5.503668
 20
-26.078098
 11
-4.86882
 21
-26.078098
  0
LINE
  5
26D
100
AcDbEntity
  8
0
100
AcDbLine
 62
7
  6
CONTINUOUS
 10
-3.785169
 20
-26.078098
 11
-3.20116
 21
-26.078098
  0
LINE
  5
26E
100
AcDbEntity
  8
0
100
AcDbLine
 62
7
  6
CONTINUOUS
 10
-1.832475
 20
-26.078098
 11
-1.24855
 21
-26.078098
  0
LINE
  5
26F
100
AcDbEntity
  8
0
100
AcDbLine
 62
7
  6
CONTINUOUS
 10
-0.085906
 20
-26.078098
 11
0.492308
 21
-26.078098
  0
LINE
  5
270
100
AcDbEntity
  8
0
100
AcDbLine
 62
7
  6
CONTINUOUS
 10
1.724045
 20
-26.078098
 11
2.28939
 21
-26.078098
  0
LINE
  5
271
100
AcDbEntity
  8
0
100
AcDbLine
 62
7
  6
CONTINUOUS
 10
-2.984285
 20
-26.07793
 11
-2.399877
 21
-26.07793
  0
LINE
  5
272
100
AcDbEntity
  8
RACCORDO
100
AcDbLine
 62
253
  6
CONTINUOUS
 10
21.8882398365
 20
-23.1148987905
 11
-21.8882398365
 21
-23.1148987905
  0
LWPOLYLINE
  5
273
100
AcDbEntity
  8
RACCORDO
100
AcDbPolyline
 62
253
  6
CONTINUOUS
 90
16
 70
0
 10
-21.8882398365
 20
-23.1148987905
 10
-21.96349092
 20
-23.1129194744
 10
-22.0387432805
 20
-23.1063428555
 10
-22.1139969181
 20
-23.0951689046
 10
-22.1896888417
 20
-23.0793863082
 10
-22.2653820424
 20
-23.0590062615
 10
-22.3397654929
 20
-23.0340624693
 10
-22.4128576802
 20
-23.0043550541
 10
-22.4846401174
 20
-22.9700836546
 10
-22.553746316
 20
-22.9318812426
 10
-22.6200385349
 20
-22.8896014802
 10
-22.6836545154
 20
-22.8433904092
 10
-22.7436409925
 20
-22.7943196185
 10
-22.7996802114
 20
-22.7427462394
 10
-22.852089927
 20
-22.6883128948
 10
-22.9008701393
 20
-22.6310194482
  0
LWPOLYLINE
  5
274
100
AcDbEntity
  8
RACCORDO
100
AcDbPolyline
 62
253
  6
CONTINUOUS
 90
16
 70
0
 10
-21.8882479775
 20
-22.5889882145
 10
-21.9344147345
 20
-22.5877449773
 10
-21.9808975617
 20
-22.5838047505
 10
-22.0275328892
 20
-22.5770997368
 10
-22.0742305039
 20
-22.567553504
 10
-22.1207255184
 20
-22.5551268985
 10
-22.1665918799
 20
-22.539866936
 10
-22.2116984891
 20
-22.5217708151
 10
-22.2558151674
 20
-22.500883428
 10
-22.2984093575
 20
-22.4774502383
 10
-22.3393164508
 20
-22.4516032205
 10
-22.3784317712
 20
-22.4234522053
 10
-22.4153912464
 20
-22.3933327705
 10
-22.4500443168
 20
-22.3614945546
 10
-22.4824161707
 20
-22.3280488225
 10
-22.5124604562
 20
-22.2931695584
  0
LWPOLYLINE
  5
275
100
AcDbEntity
  8
0
100
AcDbPolyline
 62
7
  6
CONTINUOUS
 90
10
 70
0
 10
4.34051343
 20
-26.5385722489
 10
4.2915841811
 20
-26.5336433491
 10
4.2421123741
 20
-26.5303936039
 10
4.192098009
 20
-26.5288230205
 10
4.14146408
 20
-26.5289170488
 10
4.090287593
 20
-26.5306902422
 10
4.0387995651
 20
-26.5341862576
 10
3.9870770022
 20
-26.5394196405
 10
3.9350428985
 20
-26.5463758253
 10
3.8826972541
 20
-26.5550547959
  0
LINE
  5
276
100
AcDbEntity
  8
RACCORDO
100
AcDbLine
 62
253
  6
CONTINUOUS
 10
-22.6905731938
 20
-21.7915019943
 11
-22.6905731783
 21
21.7914779004
  0
LINE
  5
277
100
AcDbEntity
  8
RACCORDO
100
AcDbLine
 62
7
  6
CONTINUOUS
 10
-22.6000000304
 20
21.7011338162
 11
-22.6000000304
 21
-21.7011338162
  0
LINE
  5
278
100
AcDbEntity
  8
RACCORDO
100
AcDbLine
 62
253
  6
CONTINUOUS
 10
-21.8882398365
 20
23.1148987905
 11
-21.8882398365
 21
22.5889882007
  0
LINE
  5
279
100
AcDbEntity
  8
RACCORDO
100
AcDbLine
 62
253
  6
CONTINUOUS
 10
-21.8882398365
 20
-23.1148987905
 11
-21.8882398366
 21
-22.5889882007
  0
LWPOLYLINE
  5
27A
100
AcDbEntity
  8
RACCORDO
100
AcDbPolyline
 62
253
  6
CONTINUOUS
 90
16
 70
0
 10
-23.0647013173
 20
-21.8136609015
 10
-23.024361109
 20
-21.8130665564
 10
-22.9851980169
 20
-21.8123095511
 10
-22.9474905456
 20
-21.811395269
 10
-22.911506848
 20
-21.810330212
 10
-22.8775028187
 20
-21.8091219541
 10
-22.8457202739
 20
-21.8077790877
 10
-22.8163852322
 20
-21.8063111625
 10
-22.7897063068
 20
-21.8047286174
 10
-22.7658732222
 20
-21.8030427066
 10
-22.7450554652
 20
-21.8012654193
 10
-22.727401079
 20
-21.7994093945
 10
-22.7130356112
 20
-21.797487831
 10
-22.7020612204
 20
-21.795514394
 10
-22.6945559499
 20
-21.7935031174
 10
-22.6905731727
 20
-21.791468304
  0
LINE
  5
27B
100
AcDbEntity
  8
RACCORDO
100
AcDbLine
 62
253
  6
CONTINUOUS
 10
44.3491668284
 20
-22.5432326076
 11
44.4312063988
 21
-22.542894538
  0
LINE
  5
27C
100
AcDbEntity
  8
RACCORDO
100
AcDbLine
 62
253
  6
CONTINUOUS
 10
44.3491640224
 20
-22.6310194482
 11
44.431203465
 21
-22.6306824909
  0
LWPOLYLINE
  5
27D
100
AcDbEntity
  8
RACCORDO
100
AcDbPolyline
 62
253
  6
CONTINUOUS
 90
3
 70
0
 10
-23.1898863164
 20
-21.8144316653
 10
-23.1477592502
 20
-21.8143458915
 10
-23.0647013173
 20
-21.8136609015
  0
LINE
  5
27E
100
AcDbEntity
  8
RACCORDO
100
AcDbLine
 62
253
  6
CONTINUOUS
 10
22.9008701393
 20
-22.6310194482
 11
44.3491640251
 21
-22.6309807055
  0
LINE
  5
27F
100
AcDbEntity
  8
RACCORDO
100
AcDbLine
 62
253
  6
CONTINUOUS
 10
21.8882778217
 20
-22.5889882007
 11
-21.8882479637
 21
-22.5889882007
  0
LINE
  5
280
100
AcDbEntity
  8
RACCORDO
100
AcDbLine
 62
253
  6
CONTINUOUS
 10
-44.8472593806
 20
-22.5203789087
 11
-45.0
 21
-22.5203789087
  0
LINE
  5
281
100
AcDbEntity
  8
RACCORDO
100
AcDbLine
 62
253
  6
CONTINUOUS
 10
44.8472593806
 20
-22.5203789087
 11
45.0
 21
-22.5203789087
  0
LINE
  5
282
100
AcDbEntity
  8
RACCORDO
100
AcDbLine
 62
7
  6
CONTINUOUS
 10
-21.7990249234
 20
-22.5
 11
21.7990249234
 21
-22.5
  0
LWPOLYLINE
  5
283
100
AcDbEntity
  8
RACCORDO
100
AcDbPolyline
 62
253
  6
CONTINUOUS
 90
19
 70
0
 10
-22.9008701393
 20
-22.6310194482
 10
-44.3903234359
 20
-22.6309360285
 10
-44.4312034631
 20
-22.63068249
 10
-44.471526614
 20
-22.6302605529
 10
-44.511019179
 20
-22.6296730812
 10
-44.549413086
 20
-22.6289240627
 10
-44.5864477207
 20
-22.6280185816
 10
-44.6218716955
 20
-22.6269627842
 10
-44.6554445556
 20
-22.6257638372
 10
-44.6869384116
 20
-22.6244298789
 10
-44.716139486
 20
-22.6229699641
 10
-44.7428495646
 20
-22.6213940027
 10
-44.766887342
 20
-22.6197126919
 10
-44.7880896518
 20
-22.6179374446
 10
-44.8063125747
 20
-22.6160803108
 10
-44.8214324152
 20
-22.6141538966
 10
-44.8333465412
 20
-22.6121712784
 10
-44.8419740807
 20
-22.6101459139
 10
-44.8472564707
 20
-22.6080915512
  0
LWPOLYLINE
  5
284
100
AcDbEntity
  8
RACCORDO
100
AcDbPolyline
 62
253
  6
CONTINUOUS
 90
18
 70
0
 10
-44.3491668284
 20
-22.5432326078
 10
-44.4312063993
 20
-22.5428945383
 10
-44.4715296121
 20
-22.5424730479
 10
-44.5110222349
 20
-22.5418866891
 10
-44.5494161945
 20
-22.541139442
 10
-44.5864508755
 20
-22.5402363788
 10
-44.621874889
 20
-22.5391836295
 10
-44.6554477792
 20
-22.5379883401
 10
-44.6869416558
 20
-22.5366586241
 10
-44.7161427406
 20
-22.5352035075
 10
-44.7428528185
 20
-22.5336328675
 10
-44.7668905836
 20
-22.5319573656
 10
-44.788092869
 20
-22.530188375
 10
-44.8063157552
 20
-22.5283379034
 10
-44.8214355466
 20
-22.5264185116
 10
-44.833349611
 20
-22.5244432285
 10
-44.8419770765
 20
-22.522425462
 10
-44.8472593806
 20
-22.5203789087
  0
LWPOLYLINE
  5
285
100
AcDbEntity
  8
RACCORDO
100
AcDbPolyline
 62
253
  6
CONTINUOUS
 90
18
 70
0
 10
23.1898863164
 20
-21.8144314823
 10
23.1059314718
 20
-21.8140882205
 10
23.0647008306
 20
-21.8136607821
 10
23.0243604075
 20
-21.8130664553
 10
22.9851970833
 20
-21.8123094669
 10
22.947489368
 20
-21.8113952001
 10
22.9115054199
 20
-21.8103301568
 10
22.8775011389
 20
-21.809121911
 10
22.8457183463
 20
-21.8077790552
 10
22.8163830654
 20
-21.806311139
 10
22.7897039141
 20
-21.8047286015
 10
22.765870621
 20
-21.8030426971
 10
22.7450526767
 20
-21.8012654149
 10
22.7273981278
 20
-21.7994093941
 10
22.7130325248
 20
-21.7974878339
 10
22.7020580285
 20
-21.7955143993
 10
22.6945526841
 20
-21.7935031244
 10
22.6905698658
 20
-21.7914683126
  0
LWPOLYLINE
  5
286
100
AcDbEntity
  8
0
100
AcDbPolyline
 62
7
  6
CONTINUOUS
 90
48
 70
0
 10
4.7622484297
 20
-26.1402838735
 10
4.7955501559
 20
-26.1538731307
 10
4.8289757704
 20
-26.1703853466
 10
4.8625252733
 20
-26.1898204589
 10
4.896380534
 20
-26.2120605376
 10
4.930359683
 20
-26.2372233566
 10
4.9639171122
 20
-26.2656623805
 10
4.9973346017
 20
-26.297523407
 10
5.0303303713
 20
-26.3326603755
 10
5.0615134722
 20
-26.3709889338
 10
5.0909356845
 20
-26.4131377081
 10
5.118545228
 20
-26.4584777081
 10
5.1427958133
 20
-26.5050382562
 10
5.1631436559
 20
-26.5529471349
 10
5.1801325403
 20
-26.6020763955
 10
5.1938475298
 20
-26.6500720311
 10
5.2039357709
 20
-26.6963042252
 10
5.2107501172
 20
-26.7414029565
 10
5.2154341932
 20
-26.7849040909
 10
5.218167541
 20
-26.8265955373
 10
5.2187706186
 20
-26.866689574
 10
5.2178484241
 20
-26.905358636
 10
5.2154807853
 20
-26.9426590119
 10
5.2115878744
 20
-26.9785345554
 10
5.2065352059
 20
-27.0129890362
 10
5.2003332246
 20
-27.0460030307
 10
5.1929714855
 20
-27.0775960929
 10
5.1847841687
 20
-27.1078304519
 10
5.1757897429
 20
-27.1366861955
 10
5.1659697392
 20
-27.1641833465
 10
5.1556029309
 20
-27.1904440258
 10
5.1447133376
 20
-27.2154747411
 10
5.1332769397
 20
-27.2392690722
 10
5.1215004512
 20
-27.2619297379
 10
5.1094083223
 20
-27.2834531197
 10
5.0969761028
 20
-27.3038429061
 10
5.0843371565
 20
-27.3232127662
 10
5.0714907135
 20
-27.3415634077
 10
5.0584375437
 20
-27.358894177
 10
5.0453133212
 20
-27.3753166935
 10
5.0321112643
 20
-27.3908037354
 10
5.0188381547
 20
-27.4053825658
 10
5.0056500118
 20
-27.419246523
 10
4.9925552975
 20
-27.4324089767
 10
4.9795455498
 20
-27.4448565844
 10
4.9667514023
 20
-27.4567426079
 10
4.9541977971
 20
-27.4680768788
 10
4.941859792
 20
-27.478849584
  0
LWPOLYLINE
  5
287
100
AcDbEntity
  8
0
100
AcDbPolyline
 62
7
  6
CONTINUOUS
 90
3
 70
0
 10
4.8225031649
 20
-27.5709244369
 10
4.8504347901
 20
-27.5843085944
 10
4.8765536111
 20
-27.5992158224
  0
LWPOLYLINE
  5
288
100
AcDbEntity
  8
0
100
AcDbPolyline
 62
7
  6
CONTINUOUS
 90
22
 70
0
 10
4.8765536111
 20
-27.5992158224
 10
4.9008596278
 20
-27.6156460876
 10
4.9232778918
 20
-27.6339240211
 10
4.9438833514
 20
-27.6537249096
 10
4.9629008523
 20
-27.6740747262
 10
4.9802483647
 20
-27.6947735377
 10
4.9960079182
 20
-27.716021248
 10
5.0106504482
 20
-27.7374436252
 10
5.0242264861
 20
-27.7589643442
 10
5.0366855003
 20
-27.78065972
 10
5.0483468311
 20
-27.8023844966
 10
5.0592571778
 20
-27.824133638
 10
5.0693698411
 20
-27.8459121776
 10
5.0788640627
 20
-27.8675899721
 10
5.0877517502
 20
-27.889135742
 10
5.0960209961
 20
-27.9105807731
 10
5.1038153201
 20
-27.931888775
 10
5.1111267149
 20
-27.953022568
 10
5.1179631877
 20
-27.9740193406
 10
5.1244922807
 20
-27.9949543527
 10
5.1307019808
 20
-28.0158274203
 10
5.136604301
 20
-28.0366387306
  0
LINE
  5
289
100
AcDbEntity
  8
0
100
AcDbLine
 62
7
  6
CONTINUOUS
 10
-1.400068
 20
-27.049647
 11
-0.714487
 21
-28.877801
  0
LINE
  5
28A
100
AcDbEntity
  8
0
100
AcDbLine
 62
7
  6
CONTINUOUS
 10
-1.24855
 20
-26.078098
 11
-0.670314
 21
-27.632502
  0
LINE
  5
28B
100
AcDbEntity
  8
0
100
AcDbLine
 62
7
  6
CONTINUOUS
 10
-5.503668
 20
-26.078098
 11
-4.616107
 21
-28.877801
  0
LINE
  5
28C
100
AcDbEntity
  8
0
100
AcDbLine
 62
7
  6
CONTINUOUS
 10
-4.86882
 20
-26.078098
 11
-4.335146
 21
-28.00522
  0
LWPOLYLINE
  5
28D
100
AcDbEntity
  8
0
100
AcDbPolyline
 62
7
  6
CONTINUOUS
 90
19
 70
0
 10
4.5414020591
 20
-28.0286629449
 10
4.5321355564
 20
-28.0059066019
 10
4.5217321442
 20
-27.983848052
 10
4.5101918226
 20
-27.9624873186
 10
4.4975014542
 20
-27.9417311529
 10
4.4836741763
 20
-27.9216728463
 10
4.4687494009
 20
-27.9025922388
 10
4.4527406508
 20
-27.8844552104
 10
4.4356344033
 20
-27.8672959349
 10
4.4174295026
 20
-27.851496709
 10
4.3980382999
 20
-27.8370514436
 10
4.3775484441
 20
-27.8239662887
 10
4.356221726
 20
-27.8126419125
 10
4.3339894809
 20
-27.8032238443
 10
4.3109203736
 20
-27.7955666102
 10
4.2874821895
 20
-27.7896343739
 10
4.2638308572
 20
-27.7854151985
 10
4.2398104481
 20
-27.7829210467
 10
4.2154209623
 20
-27.7821519248
  0
LINE
  5
28E
100
AcDbEntity
  8
0
100
AcDbLine
 62
7
  6
CONTINUOUS
 10
2.28939
 20
-26.078098
 11
3.148408
 21
-28.877801
  0
LINE
  5
28F
100
AcDbEntity
  8
0
100
AcDbLine
 62
7
  6
CONTINUOUS
 10
2.381074
 20
-28.318881
 11
2.532466
 21
-28.877801
  0
LINE
  5
290
100
AcDbEntity
  8
0
100
AcDbLine
 62
7
  6
CONTINUOUS
 10
1.995737
 20
-26.847385
 11
2.26428
 21
-27.886391
  0
LINE
  5
291
100
AcDbEntity
  8
0
100
AcDbLine
 62
7
  6
CONTINUOUS
 10
0.492308
 20
-26.078098
 11
0.754112
 21
-28.877801
  0
LINE
  5
292
100
AcDbEntity
  8
0
100
AcDbLine
 62
7
  6
CONTINUOUS
 10
0.062337
 20
-27.057269
 11
0.182406
 21
-28.877801
  0
LINE
  5
293
100
AcDbEntity
  8
0
100
AcDbLine
 62
7
  6
CONTINUOUS
 10
-2.984285
 20
-26.07793
 11
-2.984285
 21
-28.877801
  0
LINE
  5
294
100
AcDbEntity
  8
0
100
AcDbLine
 62
7
  6
CONTINUOUS
 10
-2.399877
 20
-26.07793
 11
-2.399877
 21
-28.877801
  0
LINE
  5
295
100
AcDbEntity
  8
0
100
AcDbLine
 62
7
  6
CONTINUOUS
 10
-1.400068
 20
-27.049647
 11
-1.526183
 21
-28.877801
  0
LINE
  5
296
100
AcDbEntity
  8
0
100
AcDbLine
 62
7
  6
CONTINUOUS
 10
-1.832475
 20
-26.078098
 11
-2.085272
 21
-28.877801
  0
LINE
  5
297
100
AcDbEntity
  8
RACCORDO
100
AcDbLine
 62
253
  6
CONTINUOUS
 10
-44.8448916333
 20
-43.845794038
 11
-44.9999996007
 21
-44.0035192549
  0
LINE
  5
298
100
AcDbEntity
  8
RACCORDO
100
AcDbLine
 62
253
  6
CONTINUOUS
 10
43.8566450886
 20
44.8340076387
 11
44.0199743099
 21
45.0
  0
LINE
  5
299
100
AcDbEntity
  8
RACCORDO
100
AcDbLine
 62
253
  6
CONTINUOUS
 10
-43.8566450886
 20
-44.8340076387
 11
-44.0199743099
 21
-45.0
  0
LINE
  5
29A
100
AcDbEntity
  8
RACCORDO
100
AcDbLine
 62
253
  6
CONTINUOUS
 10
-22.6905731938
 20
-21.7915019943
 11
-22.6000000304
 21
-21.7011338162
  0
LINE
  5
29B
100
AcDbEntity
  8
RACCORDO
100
AcDbLine
 62
253
  6
CONTINUOUS
 10
22.6905731942
 20
21.7915025806
 11
22.6000000304
 21
21.7011338162
  0
LINE
  5
29C
100
AcDbEntity
  8
RACCORDO
100
AcDbLine
 62
253
  6
CONTINUOUS
 10
21.8882483498
 20
22.5889882007
 11
21.7990249234
 21
22.5
  0
LINE
  5
29D
100
AcDbEntity
  8
RACCORDO
100
AcDbLine
 62
253
  6
CONTINUOUS
 10
-21.8882479637
 20
-22.5889882007
 11
-21.7990249234
 21
-22.5
  0
LWPOLYLINE
  5
29E
100
AcDbEntity
  8
RACCORDO
100
AcDbPolyline
 62
253
  6
CONTINUOUS
 90
12
 70
0
 10
22.6831268989
 20
22.4508096014
 10
22.6565924351
 20
22.4281049821
 10
22.6318188998
 20
22.4066818451
 10
22.6089848826
 20
22.3866946273
 10
22.5882549913
 20
22.3682874142
 10
22.5697786655
 20
22.3515929015
 10
22.5536890989
 20
22.336731438
 10
22.5401022794
 20
22.3238101582
 10
22.5291161529
 20
22.3129222102
 10
22.5208099172
 20
22.304146084
 10
22.515243451
 20
22.2975450456
 10
22.5124568823
 20
22.2931666812
  0
LINE
  5
29F
100
AcDbEntity
  8
RACCORDO
100
AcDbLine
 62
253
  6
CONTINUOUS
 10
22.7407021604
 20
22.4994005285
 11
22.6831268989
 21
22.4508096014
  0
LINE
  5
2A0
100
AcDbEntity
  8
RACCORDO
100
AcDbLine
 62
253
  6
CONTINUOUS
 10
22.802887462
 20
22.5510560054
 11
22.7407021604
 21
22.4994005285
  0
LWPOLYLINE
  5
2A1
100
AcDbEntity
  8
RACCORDO
100
AcDbPolyline
 62
253
  6
CONTINUOUS
 90
3
 70
0
 10
22.9008701392
 20
22.6310191921
 10
22.8678928877
 20
22.6042892027
 10
22.802887462
 20
22.5510560054
  0
LINE
  5
2A2
100
AcDbEntity
  8
RACCORDO
100
AcDbLine
 62
253
  6
CONTINUOUS
 10
22.9008701394
 20
-22.6310191555
 11
22.8351532863
 21
-22.5775705333
  0
LINE
  5
2A3
100
AcDbEntity
  8
RACCORDO
100
AcDbLine
 62
253
  6
CONTINUOUS
 10
22.8351532863
 20
-22.5775705333
 11
22.7713278102
 21
-22.5249364327
  0
LWPOLYLINE
  5
2A4
100
AcDbEntity
  8
RACCORDO
100
AcDbPolyline
 62
253
  6
CONTINUOUS
 90
14
 70
0
 10
22.7713278102
 20
-22.5249364327
 10
22.7112308418
 20
-22.4746318553
 10
22.6831266952
 20
-22.4508093994
 10
22.6565921922
 20
-22.4281047504
 10
22.6318186177
 20
-22.4066815842
 10
22.608984562
 20
-22.3866943381
 10
22.5882546338
 20
-22.3682870985
 10
22.5697782732
 20
-22.3515925611
 10
22.5536886747
 20
-22.3367310755
 10
22.5401018266
 20
-22.3238097766
 10
22.5291156755
 20
-22.3129218128
 10
22.5208094194
 20
-22.3041456743
 10
22.5152429374
 20
-22.2975446275
 10
22.5124563579
 20
-22.2931662586
  0
LINE
  5
2A5
100
AcDbEntity
  8
RACCORDO
100
AcDbLine
 62
253
  6
CONTINUOUS
 10
21.8882778217
 20
-22.5889882007
 11
21.7990249234
 21
-22.5
  0
LINE
  5
2A6
100
AcDbEntity
  8
RACCORDO
100
AcDbLine
 62
253
  6
CONTINUOUS
 10
-21.888277515
 20
22.5889882007
 11
-21.7990249234
 21
22.5
  0
LINE
  5
2A7
100
AcDbEntity
  8
RACCORDO
100
AcDbLine
 62
253
  6
CONTINUOUS
 10
-22.6905731783
 20
21.7914779004
 11
-22.6000000304
 21
21.7011338162
  0
LINE
  5
2A8
100
AcDbEntity
  8
RACCORDO
100
AcDbLine
 62
253
  6
CONTINUOUS
 10
22.6905731786
 20
-21.791478323
 11
22.6000000304
 21
-21.7011338162
  0
LINE
  5
2A9
100
AcDbEntity
  8
RACCORDO
100
AcDbLine
 62
253
  6
CONTINUOUS
 10
43.8566450886
 20
-44.8340076387
 11
44.0199743099
 21
-45.0
  0
LINE
  5
2AA
100
AcDbEntity
  8
RACCORDO
100
AcDbLine
 62
253
  6
CONTINUOUS
 10
-43.8566450886
 20
44.8340076387
 11
-44.0199743099
 21
45.0
  0
LINE
  5
2AB
100
AcDbEntity
  8
RACCORDO
100
AcDbLine
 62
253
  6
CONTINUOUS
 10
-44.8448916333
 20
43.8457940385
 11
-44.9999996007
 21
44.0035192549
  0
LWPOLYLINE
  5
2AC
100
AcDbEntity
  8
0
100
AcDbPolyline
 62
7
  6
CONTINUOUS
 90
8
 70
0
 10
4.6307755136
 20
-28.3028024175
 10
4.6191058512
 20
-28.2633001156
 10
4.607183355
 20
-28.2239185206
 10
4.5950077323
 20
-28.1846615565
 10
4.5823633543
 20
-28.1455094835
 10
4.5691783446
 20
-28.1064557269
 10
4.5555245795
 20
-28.0675068779
 10
4.5414020591
 20
-28.0286629449
  0
LINE
  5
2AD
100
AcDbEntity
  8
0
100
AcDbLine
 62
7
  6
CONTINUOUS
 10
4.7970156219
 20
-28.8778013544
 11
4.6993390927
 21
-28.5430010648
  0
LWPOLYLINE
  5
2AE
100
AcDbEntity
  8
0
100
AcDbPolyline
 62
7
  6
CONTINUOUS
 90
4
 70
0
 10
4.6993390927
 20
-28.5430010648
 10
4.6762367738
 20
-28.4622390461
 10
4.6649226796
 20
-28.422147657
 10
4.6307755136
 20
-28.3028024175
  0
LWPOLYLINE
  5
2AF
100
AcDbEntity
  8
0
100
AcDbPolyline
 62
7
  6
CONTINUOUS
 90
3
 70
0
 10
5.136604301
 20
-28.0366387306
 10
5.1481654046
 20
-28.0783287875
 10
5.1538241881
 20
-28.0992075319
  0
LINE
  5
2B0
100
AcDbEntity
  8
0
100
AcDbLine
 62
7
  6
CONTINUOUS
 10
5.1538241881
 20
-28.0992075319
 11
5.2287956061
 21
-28.3803436572
  0
LINE
  5
2B1
100
AcDbEntity
  8
0
100
AcDbLine
 62
7
  6
CONTINUOUS
 10
5.2287956061
 20
-28.3803436572
 11
5.3591482119
 21
-28.8778013544
  0
LWPOLYLINE
  5
2B2
100
AcDbEntity
  8
0
100
AcDbPolyline
 62
7
  6
CONTINUOUS
 90
19
 70
0
 10
4.6706521439
 20
-26.8887857308
 10
4.6692887916
 20
-26.8622147803
 10
4.6657626855
 20
-26.8356476101
 10
4.6600738255
 20
-26.8090842209
 10
4.6522698099
 20
-26.782299168
 10
4.6423030404
 20
-26.7555178923
 10
4.6300307223
 20
-26.7294167479
 10
4.6153450584
 20
-26.7038848863
 10
4.5983538458
 20
-26.6790332021
 10
4.5792376808
 20
-26.6558707216
 10
4.5577892812
 20
-26.6345853818
 10
4.5342159291
 20
-26.6149893511
 10
4.509320068
 20
-26.5975280419
 10
4.4831196852
 20
-26.5823466364
 10
4.4555967932
 20
-26.5693000482
 10
4.4274998735
 20
-26.5583982896
 10
4.39907842
 20
-26.5496447171
 10
4.3700829389
 20
-26.5430360306
 10
4.34051343
 20
-26.5385722489
  0
LINE
  5
2B3
100
AcDbEntity
  8
0
100
AcDbLine
 62
7
  6
CONTINUOUS
 10
3.3200188023
 20
-26.110807341
 11
3.3200188023
 21
-28.8778013544
  0
LINE
  5
2B4
100
AcDbEntity
  8
0
100
AcDbLine
 62
7
  6
CONTINUOUS
 10
3.8826972541
 20
-26.5550547959
 11
3.8826972541
 21
-27.3236280866
  0
LINE
  5
2B5
100
AcDbEntity
  8
0
100
AcDbLine
 62
7
  6
CONTINUOUS
 10
3.9020753449
 20
-27.7821519248
 11
3.9020753449
 21
-28.8778013544
  0
LINE
  5
2B6
100
AcDbEntity
  8
0
100
AcDbLine
 62
7
  6
CONTINUOUS
 10
4.8225031649
 20
-27.554380628
 11
4.8225031649
 21
-27.5709244369
  0
LINE
  5
2B7
100
AcDbEntity
  8
0
100
AcDbLine
 62
7
  6
CONTINUOUS
 10
-3.785169
 20
-26.078098
 11
-4.335146
 21
-28.00522
  0
LINE
  5
2B8
100
AcDbEntity
  8
0
100
AcDbLine
 62
7
  6
CONTINUOUS
 10
-3.20116
 20
-26.078098
 11
-4.101097
 21
-28.877801
  0
LINE
  5
2B9
100
AcDbEntity
  8
RACCORDO
100
AcDbLine
 62
253
  6
CONTINUOUS
 10
44.8448916333
 20
43.845794038
 11
44.9999996007
 21
44.0035192549
  0
LWPOLYLINE
  5
2BA
100
AcDbEntity
  8
RACCORDO
100
AcDbPolyline
 62
253
  6
CONTINUOUS
 90
12
 70
0
 10
-22.6831269901
 20
-22.4508096818
 10
-22.6565925424
 20
-22.4281050744
 10
-22.6318190228
 20
-22.4066819491
 10
-22.6089850208
 20
-22.3866947427
 10
-22.5882551438
 20
-22.3682875404
 10
-22.5697788311
 20
-22.3515930376
 10
-22.5536892763
 20
-22.336731583
 10
-22.5401024669
 20
-22.3238103108
 10
-22.5291163488
 20
-22.3129223691
 10
-22.5208101195
 20
-22.3041462476
 10
-22.5152436576
 20
-22.2975452124
 10
-22.5124570911
 20
-22.2931668494
  0
LINE
  5
2BB
100
AcDbEntity
  8
RACCORDO
100
AcDbLine
 62
253
  6
CONTINUOUS
 10
-22.7407022201
 20
-22.4994005858
 11
-22.6831269901
 21
-22.4508096818
  0
LINE
  5
2BC
100
AcDbEntity
  8
RACCORDO
100
AcDbLine
 62
253
  6
CONTINUOUS
 10
-22.8028874931
 20
-22.5510560424
 11
-22.7407022201
 21
-22.4994005858
  0
LWPOLYLINE
  5
2BD
100
AcDbEntity
  8
RACCORDO
100
AcDbPolyline
 62
253
  6
CONTINUOUS
 90
3
 70
0
 10
-22.9008701392
 20
-22.6310192088
 10
-22.867892896
 20
-22.6042892244
 10
-22.8028874931
 20
-22.5510560424
  0
LINE
  5
2BE
100
AcDbEntity
  8
RACCORDO
100
AcDbLine
 62
253
  6
CONTINUOUS
 10
-22.9008701394
 20
22.6310191773
 11
-22.83515331
 21
22.5775705708
  0
LINE
  5
2BF
100
AcDbEntity
  8
RACCORDO
100
AcDbLine
 62
253
  6
CONTINUOUS
 10
-22.83515331
 20
22.5775705708
 11
-22.771327867
 21
22.5249364937
  0
LWPOLYLINE
  5
2C0
100
AcDbEntity
  8
RACCORDO
100
AcDbPolyline
 62
253
  6
CONTINUOUS
 90
14
 70
0
 10
-22.771327867
 20
22.5249364937
 10
-22.7112309377
 20
22.4746319447
 10
-22.6831268118
 20
22.450809504
 10
-22.6565923296
 20
22.4281048706
 10
-22.6318187755
 20
22.4066817196
 10
-22.6089847397
 20
22.3866944883
 10
-22.5882548302
 20
22.3682872626
 10
-22.5697784869
 20
22.3515927382
 10
-22.5536889039
 20
22.3367312641
 10
-22.5401020694
 20
22.3238099752
 10
-22.5291159295
 20
22.3129220196
 10
-22.5208096822
 20
22.3041458874
 10
-22.5152432064
 20
22.2975448447
 10
-22.5124566303
 20
22.2931664778
  0
LINE
  5
2C1
100
AcDbEntity
  8
RACCORDO
100
AcDbLine
 62
253
  6
CONTINUOUS
 10
44.8448916333
 20
-43.8457940385
 11
44.9999996007
 21
-44.0035192549
  0
LINE
  5
2C2
100
AcDbEntity
  8
0
100
AcDbLine
 62
7
  6
CONTINUOUS
 10
1.995737
 20
-26.847385
 11
1.704751
 21
-27.886391
  0
LINE
  5
2C3
100
AcDbEntity
  8
0
100
AcDbLine
 62
7
  6
CONTINUOUS
 10
1.585207
 20
-28.318881
 11
1.423947
 21
-28.877801
  0
LINE
  5
2C4
100
AcDbEntity
  8
0
100
AcDbLine
 62
7
  6
CONTINUOUS
 10
1.724045
 20
-26.078098
 11
0.84588
 21
-28.877801
  0
LINE
  5
2C5
100
AcDbEntity
  8
0
100
AcDbLine
 62
7
  6
CONTINUOUS
 10
-0.085906
 20
-26.078098
 11
-0.670314
 21
-27.632502
  0
LINE
  5
2C6
100
AcDbEntity
  8
0
100
AcDbLine
 62
7
  6
CONTINUOUS
 10
0.062337
 20
-27.057269
 11
-0.632524
 21
-28.877801
  0
LWPOLYLINE
  5
2C7
100
AcDbEntity
  8
RACCORDO
100
AcDbPolyline
 62
7
  6
CONTINUOUS
 90
25
 70
0
 10
22.6000000304
 20
21.7011338162
 10
22.5983133338
 20
21.7532149459
 10
22.5932577281
 20
21.8047950352
 10
22.5848332135
 20
21.855874092
 10
22.5729548361
 20
21.9067511078
 10
22.5577075498
 20
21.9571271031
 10
22.5393462156
 20
22.0061051433
 10
22.5179085355
 20
22.0534957168
 10
22.4933568076
 20
22.0994883805
 10
22.4658327874
 20
22.143754821
 10
22.4352133541
 20
22.1864259539
 10
22.4016216286
 20
22.2273709113
 10
22.3655687287
 20
22.2658687184
 10
22.3269856534
 20
22.3018503551
 10
22.2859414038
 20
22.3353849024
 10
22.2431541008
 20
22.3659585498
 10
22.1987463026
 20
22.3934508262
 10
22.152595451
 20
22.4179822607
 10
22.1050519923
 20
22.4394005457
 10
22.0559446846
 20
22.4577375369
 10
22.0054447697
 20
22.47296142
 10
21.954416419
 20
22.4848243794
 10
21.9031476896
 20
22.4932438182
 10
21.8513505244
 20
22.4983023565
 10
21.7990249234
 20
22.5
  0
LINE
  5
2C8
100
AcDbEntity
  8
RACCORDO
100
AcDbLine
 62
253
  6
CONTINUOUS
 10
21.8882398365
 20
23.1148987905
 11
21.8882398366
 21
22.5889882007
  0
LINE
  5
2C9
100
AcDbEntity
  8
RACCORDO
100
AcDbLine
 62
253
  6
CONTINUOUS
 10
21.8882398365
 20
-23.1148987905
 11
21.8882398365
 21
-22.5889882007
  0
LINE
  5
2CA
100
AcDbEntity
  8
RACCORDO
100
AcDbLine
 62
7
  6
CONTINUOUS
 10
22.6000000304
 20
-21.7011338162
 11
22.6000000304
 21
21.7011338162
  0
LINE
  5
2CB
100
AcDbEntity
  8
RACCORDO
100
AcDbLine
 62
253
  6
CONTINUOUS
 10
22.6905731942
 20
21.7915025806
 11
22.6905731786
 21
-21.791478323
  0
LINE
  5
2CC
100
AcDbEntity
  8
RACCORDO
100
AcDbLine
 62
253
  6
CONTINUOUS
 10
23.1898863164
 20
21.8144316658
 11
23.1898863164
 21
-21.8144316658
  0
LWPOLYLINE
  5
2CD
100
AcDbEntity
  8
RACCORDO
100
AcDbPolyline
 62
253
  6
CONTINUOUS
 90
13
 70
0
 10
23.1898863164
 20
-21.8144316658
 10
23.1880960837
 20
-21.8858793997
 10
23.1821468697
 20
-21.9573807282
 10
23.1720386743
 20
-22.0289356482
 10
23.1577556229
 20
-22.1009480075
 10
23.1393135903
 20
-22.1730139457
 10
23.1167602004
 20
-22.2439219269
 10
23.0899011972
 20
-22.3136982137
 10
23.0589308369
 20
-22.3823165933
 10
23.0244795117
 20
-22.4484868739
 10
22.9867573524
 20
-22.5117790389
 10
22.9455542283
 20
-22.5726232141
 10
22.9008701393
 20
-22.6310194482
  0
LWPOLYLINE
  5
2CE
100
AcDbEntity
  8
RACCORDO
100
AcDbPolyline
 62
253
  6
CONTINUOUS
 90
13
 70
0
 10
22.6905731695
 20
-21.791478314
 10
22.6893770782
 20
-21.8351950726
 10
22.6857316239
 20
-21.8792128622
 10
22.6795752397
 20
-21.923391338
 10
22.6708338934
 20
-21.9676721977
 10
22.6594723185
 20
-22.0118087413
 10
22.6455453026
 20
-22.0553790931
 10
22.6290537098
 20
-22.0982721402
 10
22.6100379978
 20
-22.1402935786
 10
22.5887357052
 20
-22.1809366462
 10
22.5653271949
 20
-22.2199718949
 10
22.5398636444
 20
-22.2574153782
 10
22.5124604562
 20
-22.2931695584
  0
LWPOLYLINE
  5
2CF
100
AcDbEntity
  8
0
100
AcDbPolyline
 62
7
  6
CONTINUOUS
 90
10
 70
0
 10
4.941859792
 20
-27.478849584
 10
4.9180979654
 20
-27.4991636198
 10
4.9066741438
 20
-27.5087049624
 10
4.8952776457
 20
-27.517686475
 10
4.883993077
 20
-27.526259875
 10
4.8727358317
 20
-27.5342734578
 10
4.861008008
 20
-27.5411500334
 10
4.8486436387
 20
-27.5466972149
 10
4.835808691
 20
-27.5511074107
 10
4.8225031649
 20
-27.554380628
  0
LWPOLYLINE
  5
2D0
100
AcDbEntity
  8
RACCORDO
100
AcDbPolyline
 62
7
  6
CONTINUOUS
 90
25
 70
0
 10
-21.7990249234
 20
22.5
 10
-21.8513240094
 20
22.4983104261
 10
-21.9031131864
 20
22.4932534631
 10
-21.9543924545
 20
22.4848291052
 10
-22.0054625192
 20
22.4729509001
 10
-22.0560226751
 20
22.4577052768
 10
-22.1051708052
 20
22.4393515476
 10
-22.1527156104
 20
22.4179275284
 10
-22.19884839
 20
22.393395362
 10
-22.2432409247
 20
22.365900848
 10
-22.2860246785
 20
22.3353202354
 10
-22.3270681874
 20
22.3017772171
 10
-22.3656488412
 20
22.2657887614
 10
-22.4016951091
 20
22.2272882844
 10
-22.4352785217
 20
22.1863423092
 10
-22.4658910611
 20
22.1436674776
 10
-22.4934127797
 20
22.0993858384
 10
-22.5179636251
 20
22.0533752949
 10
-22.5393954213
 20
22.0059862851
 10
-22.5577398797
 20
21.9570493345
 10
-22.5729652891
 20
21.9067338732
 10
-22.5848283398
 20
21.8558987137
 10
-22.5932479286
 20
21.8048301281
 10
-22.5983051588
 20
21.7532418316
 10
-22.6000000304
 20
21.7011338162
  0
LWPOLYLINE
  5
2D1
100
AcDbEntity
  8
RACCORDO
100
AcDbPolyline
 62
253
  6
CONTINUOUS
 90
16
 70
0
 10
-44.4715296113
 20
22.5424730477
 10
-44.5110222338
 20
22.5418866889
 10
-44.5494161932
 20
22.5411394418
 10
-44.5864508739
 20
22.5402363786
 10
-44.6218748872
 20
22.5391836293
 10
-44.6554477773
 20
22.5379883399
 10
-44.6869416538
 20
22.5366586239
 10
-44.7161427385
 20
22.5352035073
 10
-44.7428528165
 20
22.5336328674
 10
-44.7668905816
 20
22.5319573655
 10
-44.7880928672
 20
22.5301883749
 10
-44.8063157536
 20
22.5283379033
 10
-44.8214355451
 20
22.5264185116
 10
-44.8333496098
 20
22.5244432284
 10
-44.8419770757
 20
22.522425462
 10
-44.8472593802
 20
22.5203789087
  0
LWPOLYLINE
  5
2D2
100
AcDbEntity
  8
RACCORDO
100
AcDbPolyline
 62
253
  6
CONTINUOUS
 90
16
 70
0
 10
-44.4715266169
 20
22.6302605538
 10
-44.5110191827
 20
22.6296730821
 10
-44.5494130905
 20
22.6289240635
 10
-44.5864477259
 20
22.6280185823
 10
-44.6218717013
 20
22.6269627849
 10
-44.6554445618
 20
22.6257638378
 10
-44.6869384181
 20
22.6244298795
 10
-44.7161394927
 20
22.6229699647
 10
-44.7428495713
 20
22.6213940031
 10
-44.7668873484
 20
22.6197126924
 10
-44.7880896578
 20
22.6179374449
 10
-44.8063125802
 20
22.6160803111
 10
-44.8214324199
 20
22.6141538968
 10
-44.833346545
 20
22.6121712785
 10
-44.8419740833
 20
22.610145914
 10
-44.8472564721
 20
22.6080915512
  0
LWPOLYLINE
  5
2D3
100
AcDbEntity
  8
RACCORDO
100
AcDbPolyline
 62
253
  6
CONTINUOUS
 90
16
 70
0
 10
23.0647013173
 20
21.8136609015
 10
23.024361109
 20
21.8130665564
 10
22.9851980169
 20
21.8123095511
 10
22.9474905456
 20
21.811395269
 10
22.911506848
 20
21.810330212
 10
22.8775028187
 20
21.8091219541
 10
22.8457202739
 20
21.8077790877
 10
22.8163852322
 20
21.8063111625
 10
22.7897063068
 20
21.8047286174
 10
22.7658732222
 20
21.8030427066
 10
22.7450554652
 20
21.8012654193
 10
22.727401079
 20
21.7994093945
 10
22.7130356112
 20
21.797487831
 10
22.7020612204
 20
21.795514394
 10
22.6945559499
 20
21.7935031174
 10
22.6905731727
 20
21.791468304
  0
LINE
  5
2D4
100
AcDbEntity
  8
RACCORDO
100
AcDbLine
 62
253
  6
CONTINUOUS
 10
-44.3903234369
 20
22.6309360294
 11
-44.4715266169
 21
22.6302605538
  0
LWPOLYLINE
  5
2D5
100
AcDbEntity
  8
RACCORDO
100
AcDbPolyline
 62
253
  6
CONTINUOUS
 90
3
 70
0
 10
-44.3491668284
 20
22.5432326076
 10
-44.3903263074
 20
22.5431482988
 10
-44.4715296113
 20
22.5424730477
  0
LWPOLYLINE
  5
2D6
100
AcDbEntity
  8
RACCORDO
100
AcDbPolyline
 62
253
  6
CONTINUOUS
 90
3
 70
0
 10
23.1898863164
 20
21.8144316653
 10
23.1477592502
 20
21.8143458915
 10
23.0647013173
 20
21.8136609015
  0
LINE
  5
2D7
100
AcDbEntity
  8
RACCORDO
100
AcDbLine
 62
7
  6
CONTINUOUS
 10
21.7990249234
 20
22.5
 11
-21.7990249234
 21
22.5
  0
LINE
  5
2D8
100
AcDbEntity
  8
RACCORDO
100
AcDbLine
 62
253
  6
CONTINUOUS
 10
-44.8472593806
 20
22.5203789087
 11
-45.0
 21
22.5203789087
  0
LINE
  5
2D9
100
AcDbEntity
  8
RACCORDO
100
AcDbLine
 62
253
  6
CONTINUOUS
 10
44.8472593806
 20
22.5203789087
 11
45.0
 21
22.5203789087
  0
LINE
  5
2DA
100
AcDbEntity
  8
RACCORDO
100
AcDbLine
 62
253
  6
CONTINUOUS
 10
-21.888277515
 20
22.5889882007
 11
21.8882483498
 21
22.5889882007
  0
LINE
  5
2DB
100
AcDbEntity
  8
RACCORDO
100
AcDbLine
 62
253
  6
CONTINUOUS
 10
-44.3903234369
 20
22.6309360294
 11
-22.9008701393
 21
22.6310194482
  0
LINE
  5
2DC
100
AcDbEntity
  8
RACCORDO
100
AcDbLine
 62
253
  6
CONTINUOUS
 10
-21.8882398365
 20
23.1148987905
 11
21.8882398365
 21
23.1148987905
  0
LINE
  5
2DD
100
AcDbEntity
  8
RACCORDO
100
AcDbLine
 62
253
  6
CONTINUOUS
 10
22.9008701393
 20
22.6310194482
 11
44.390323436
 21
22.6309360285
  0
LWPOLYLINE
  5
2DE
100
AcDbEntity
  8
RACCORDO
100
AcDbPolyline
 62
253
  6
CONTINUOUS
 90
18
 70
0
 10
-23.1898863164
 20
21.8144314751
 10
-23.1059314602
 20
21.814088215
 10
-23.0647008113
 20
21.8136607774
 10
-23.0243603797
 20
21.8130664514
 10
-22.9851970463
 20
21.8123094636
 10
-22.9474893213
 20
21.8113951975
 10
-22.9115053633
 20
21.8103301547
 10
-22.8775010722
 20
21.8091219094
 10
-22.8457182698
 20
21.8077790539
 10
-22.8163829794
 20
21.8063111381
 10
-22.7897038191
 20
21.8047286009
 10
-22.7658705177
 20
21.8030426967
 10
-22.7450525659
 20
21.8012654147
 10
-22.7273980106
 20
21.7994093941
 10
-22.7130324021
 20
21.797487834
 10
-22.7020579016
 20
21.7955143995
 10
-22.6945525542
 20
21.7935031247
 10
-22.6905697342
 20
21.7914683129
  0
LWPOLYLINE
  5
2DF
100
AcDbEntity
  8
RACCORDO
100
AcDbPolyline
 62
253
  6
CONTINUOUS
 90
18
 70
0
 10
44.3491668284
 20
22.5432326078
 10
44.4312063993
 20
22.5428945383
 10
44.4715296121
 20
22.5424730479
 10
44.5110222349
 20
22.5418866891
 10
44.5494161945
 20
22.541139442
 10
44.5864508755
 20
22.5402363788
 10
44.621874889
 20
22.5391836295
 10
44.6554477792
 20
22.5379883401
 10
44.6869416558
 20
22.5366586241
 10
44.7161427406
 20
22.5352035075
 10
44.7428528185
 20
22.5336328675
 10
44.7668905836
 20
22.5319573656
 10
44.788092869
 20
22.530188375
 10
44.8063157552
 20
22.5283379034
 10
44.8214355466
 20
22.5264185116
 10
44.833349611
 20
22.5244432285
 10
44.8419770765
 20
22.522425462
 10
44.8472593806
 20
22.5203789087
  0
LWPOLYLINE
  5
2E0
100
AcDbEntity
  8
RACCORDO
100
AcDbPolyline
 62
253
  6
CONTINUOUS
 90
17
 70
0
 10
44.390323436
 20
22.6309360285
 10
44.4715266144
 20
22.630260553
 10
44.5110191794
 20
22.6296730813
 10
44.5494130865
 20
22.6289240628
 10
44.5864477213
 20
22.6280185816
 10
44.6218716961
 20
22.6269627842
 10
44.6554445562
 20
22.6257638372
 10
44.6869384122
 20
22.624429879
 10
44.7161394867
 20
22.6229699642
 10
44.7428495653
 20
22.6213940027
 10
44.7668873427
 20
22.619712692
 10
44.7880896524
 20
22.6179374446
 10
44.8063125752
 20
22.6160803108
 10
44.8214324157
 20
22.6141538966
 10
44.8333465416
 20
22.6121712784
 10
44.8419740809
 20
22.6101459139
 10
44.8472564709
 20
22.6080915512
  0
LWPOLYLINE
  5
2E1
100
AcDbEntity
  8
RACCORDO
100
AcDbPolyline
 62
253
  6
CONTINUOUS
 90
19
 70
0
 10
21.8882483643
 20
22.5889882152
 10
21.926715819
 20
22.5881359839
 10
21.9654117654
 20
22.5854182408
 10
22.0042428309
 20
22.5807958157
 10
22.0431257458
 20
22.5742318686
 10
22.0819446709
 20
22.5656973591
 10
22.1205528884
 20
22.5551781022
 10
22.1589196706
 20
22.5426339888
 10
22.1968568292
 20
22.5280769593
 10
22.2339944177
 20
22.5116255258
 10
22.2702146712
 20
22.4933355559
 10
22.3054498652
 20
22.473245342
 10
22.3394395556
 20
22.4515208389
 10
22.3721086996
 20
22.4282487309
 10
22.403400919
 20
22.4035096171
 10
22.433124088
 20
22.377511642
 10
22.4612016764
 20
22.3504045167
 10
22.4876538005
 20
22.3222556523
 10
22.5124604562
 20
22.2931695584
  0
LWPOLYLINE
  5
2E2
100
AcDbEntity
  8
RACCORDO
100
AcDbPolyline
 62
253
  6
CONTINUOUS
 90
19
 70
0
 10
21.8882398365
 20
23.1148987905
 10
21.9507582081
 20
23.1135143027
 10
22.0133777917
 20
23.1089711462
 10
22.0760985874
 20
23.1012693073
 10
22.1391229599
 20
23.0904407128
 10
22.2022485445
 20
23.07645338
 10
22.2648682464
 20
23.059211415
 10
22.3270886005
 20
23.0386008559
 10
22.388803072
 20
23.0147355464
 10
22.4490849617
 20
22.9878612907
 10
22.5078604952
 20
22.9578939809
 10
22.5652034469
 20
22.9249175634
 10
22.6204084412
 20
22.8894299332
 10
22.6734055531
 20
22.8513651828
 10
22.7242647076
 20
22.8107890491
 10
22.7724903035
 20
22.7683969267
 10
22.8179171406
 20
22.7244205792
 10
22.8607104192
 20
22.6786281106
 10
22.9008701393
 20
22.6310194482
  0
LWPOLYLINE
  5
2E3
100
AcDbEntity
  8
RACCORDO
100
AcDbPolyline
 62
253
  6
CONTINUOUS
 90
16
 70
0
 10
22.9008701393
 20
-22.6310194482
 10
22.8505262154
 20
-22.6897330709
 10
22.797046493
 20
-22.7450967429
 10
22.740430972
 20
-22.7971106279
 10
22.6804523783
 20
-22.8459696592
 10
22.6173379862
 20
-22.8914792005
 10
22.5517696181
 20
-22.933055073
 10
22.4836617417
 20
-22.9706523064
 10
22.4130998895
 20
-23.00431616
 10
22.3410224815
 20
-23.0335978182
 10
22.2673855973
 20
-23.0584022221
 10
22.1922331574
 20
-23.0788246559
 10
22.1166353432
 20
-23.09470181
 10
22.0409488819
 20
-23.1059792884
 10
21.9648170463
 20
-23.1127116055
 10
21.8882398365
 20
-23.1148987905
  0
LWPOLYLINE
  5
2E4
100
AcDbEntity
  8
RACCORDO
100
AcDbPolyline
 62
253
  6
CONTINUOUS
 90
16
 70
0
 10
22.5124604562
 20
-22.2931695584
 10
22.4815162833
 20
-22.3290319096
 10
22.4484423563
 20
-22.3630507803
 10
22.413345889
 20
-22.3950976714
 10
22.3763413755
 20
-22.4250493663
 10
22.3375522146
 20
-22.4527908018
 10
22.2971103079
 20
-22.478215504
 10
22.255112429
 20
-22.5012424181
 10
22.2117394546
 20
-22.5217530697
 10
22.167269326
 20
-22.5396183739
 10
22.1218600526
 20
-22.5547860446
 10
22.0756811236
 20
-22.5672105208
 10
22.0290482996
 20
-22.5768349611
 10
21.9821831563
 20
-22.5836571171
 10
21.9352047355
 20
-22.5877005909
 10
21.8882778863
 20
-22.5889882642
  0
LWPOLYLINE
  5
2E5
100
AcDbEntity
  8
RACCORDO
100
AcDbPolyline
 62
253
  6
CONTINUOUS
 90
13
 70
0
 10
22.5124604562
 20
22.2931695584
 10
22.5396570916
 20
22.2577012617
 10
22.5649747533
 20
22.2205228219
 10
22.5882926682
 20
22.1817246482
 10
22.6095465832
 20
22.1412989693
 10
22.6285580167
 20
22.0994554024
 10
22.6450975047
 20
22.0566490021
 10
22.6591180459
 20
22.0130339616
 10
22.6705886139
 20
21.9687488509
 10
22.6794275683
 20
21.9242670198
 10
22.6856602311
 20
21.8798540396
 10
22.6893573464
 20
21.8355517292
 10
22.6905731626
 20
21.7915025498
  0
LWPOLYLINE
  5
2E6
100
AcDbEntity
  8
RACCORDO
100
AcDbPolyline
 62
253
  6
CONTINUOUS
 90
13
 70
0
 10
22.9008701393
 20
22.6310194482
 10
22.9452101593
 20
22.5731452066
 10
22.9861548599
 20
22.5127619778
 10
23.0237042411
 20
22.449869712
 10
23.0580779375
 20
22.3840713952
 10
23.0890563145
 20
22.3157639309
 10
23.1159804685
 20
22.2461381702
 10
23.1386745647
 20
22.1751706289
 10
23.157314438
 20
22.1028847331
 10
23.1717686897
 20
22.0305417553
 10
23.1819935202
 20
21.958562133
 10
23.1880327291
 20
21.8865254363
 10
23.1898863164
 20
21.8144316658
  0
LWPOLYLINE
  5
2E7
100
AcDbEntity
  8
RACCORDO
100
AcDbPolyline
 62
253
  6
CONTINUOUS
 90
25
 70
0
 10
44.8448916334
 20
43.8457940382
 10
44.8420222615
 20
43.9111937679
 10
44.8349528213
 20
43.9761384962
 10
44.8237333959
 20
44.0403600021
 10
44.8084421672
 20
44.1035670584
 10
44.7891555789
 20
44.1655310996
 10
44.7659285769
 20
44.2260811216
 10
44.7388370415
 20
44.2850115167
 10
44.7080126265
 20
44.342031171
 10
44.6736098612
 20
44.3968505378
 10
44.6357961505
 20
44.4492296003
 10
44.5947276329
 20
44.4989787119
 10
44.5505695136
 20
44.5459035119
 10
44.503512224
 20
44.5898145888
 10
44.4537568112
 20
44.6305381185
 10
44.40149726
 20
44.667918144
 10
44.3469489572
 20
44.7018056865
 10
44.2903441377
 20
44.7320630073
 10
44.2319128801
 20
44.758569305
 10
44.1719058516
 20
44.7812148352
 10
44.1105646285
 20
44.7999136402
 10
44.0481125197
 20
44.8145977175
 10
43.9847960628
 20
44.8252047689
 10
43.9208858728
 20
44.8316848737
 10
43.8566450886
 20
44.8340076387
  0
LWPOLYLINE
  5
2E8
100
AcDbEntity
  8
RACCORDO
100
AcDbPolyline
 62
253
  6
CONTINUOUS
 90
25
 70
0
 10
44.346857488
 20
43.9268006745
 10
44.3457642773
 20
43.9600619029
 10
44.3426189638
 20
43.9928581372
 10
44.3374215476
 20
44.0251894264
 10
44.3301337223
 20
44.0571838394
 10
44.3207937942
 20
44.0887133946
 10
44.3095166828
 20
44.1193941047
 10
44.2962727357
 20
44.1492248706
 10
44.2810916052
 20
44.1782069601
 10
44.2641771674
 20
44.2059600105
 10
44.2455118269
 20
44.2324580308
 10
44.2251131791
 20
44.2577272344
 10
44.2032378862
 20
44.2814656205
 10
44.1798674903
 20
44.30365586
 10
44.1550204493
 20
44.3243155172
 10
44.1290087989
 20
44.3431949628
 10
44.1018192161
 20
44.3602715451
 10
44.0734650239
 20
44.3755681309
 10
44.0442982279
 20
44.3889033796
 10
44.0142988184
 20
44.4002535237
 10
43.9834868049
 20
44.4096424938
 10
43.9522742218
 20
44.4169604898
 10
43.9207984138
 20
44.4221709422
 10
43.888922036
 20
44.4253105083
 10
43.8566450886
 20
44.4263792099
  0
LINE
  5
2E9
100
AcDbEntity
  8
RACCORDO
100
AcDbLine
 62
253
  6
CONTINUOUS
 10
43.8566450886
 20
-44.4263792099
 11
43.8566450885
 21
-44.8340076387
  0
LINE
  5
2EA
100
AcDbEntity
  8
RACCORDO
100
AcDbLine
 62
253
  6
CONTINUOUS
 10
43.8566450886
 20
44.4263792099
 11
43.8566450886
 21
44.8340076387
  0
LINE
  5
2EB
100
AcDbEntity
  8
RACCORDO
100
AcDbLine
 62
253
  6
CONTINUOUS
 10
44.3481971776
 20
34.5017285393
 11
44.346857488
 21
43.9268006745
  0
LINE
  5
2EC
100
AcDbEntity
  8
RACCORDO
100
AcDbLine
 62
253
  6
CONTINUOUS
 10
44.8462670871
 20
34.446380284
 11
44.8448916333
 21
43.845794038
  0
LINE
  5
2ED
100
AcDbEntity
  8
RACCORDO
100
AcDbLine
 62
7
  6
CONTINUOUS
 10
44.9999996007
 20
44.0035192549
 11
45.0
 21
22.5203789087
  0
LINE
  5
2EE
100
AcDbEntity
  8
DRAFT
100
AcDbLine
 62
7
  6
CONTINUOUS
 10
45.0
 20
22.5203789087
 11
45.0
 21
-22.5203789087
  0
LINE
  5
2EF
100
AcDbEntity
  8
RACCORDO
100
AcDbLine
 62
7
  6
CONTINUOUS
 10
45.0
 20
-22.5203789087
 11
44.9999996007
 21
-44.0035192549
  0
LINE
  5
2F0
100
AcDbEntity
  8
RACCORDO
100
AcDbLine
 62
253
  6
CONTINUOUS
 10
44.346857488
 20
-43.9268006745
 11
44.3481971776
 21
34.5017285393
  0
LINE
  5
2F1
100
AcDbEntity
  8
RACCORDO
100
AcDbLine
 62
253
  6
CONTINUOUS
 10
44.8448916333
 20
-43.8457940385
 11
44.8462670871
 21
34.446380284
  0
LWPOLYLINE
  5
2F2
100
AcDbEntity
  8
RACCORDO
100
AcDbPolyline
 62
7
  6
CONTINUOUS
 90
25
 70
0
 10
44.9999996007
 20
-44.0035192549
 10
44.9977748504
 20
-44.0707188539
 10
44.9913318173
 20
-44.1369798403
 10
44.9806705013
 20
-44.2023024144
 10
44.965650718
 20
-44.2670516876
 10
44.9464126519
 20
-44.3308628896
 10
44.9233768564
 20
-44.3926416351
 10
44.8966009274
 20
-44.4521350291
 10
44.8660272689
 20
-44.5095968339
 10
44.8319036465
 20
-44.5646929375
 10
44.7940835273
 20
-44.6175842029
 10
44.7527134442
 20
-44.668110621
 10
44.7084807608
 20
-44.7154569545
 10
44.6613423449
 20
-44.7595165548
 10
44.6113413288
 20
-44.8003970889
 10
44.5592944736
 20
-44.8376049556
 10
44.5053599305
 20
-44.8710155068
 10
44.4493795484
 20
-44.9007543068
 10
44.391695634
 20
-44.9267030864
 10
44.3320714853
 20
-44.9489183461
 10
44.2707438044
 20
-44.9673442233
 10
44.2087650051
 20
-44.9816938602
 10
44.1464858918
 20
-44.9918717628
 10
44.0835556601
 20
-44.9979737802
 10
44.0199743099
 20
-45.0
  0
LWPOLYLINE
  5
2F3
100
AcDbEntity
  8
RACCORDO
100
AcDbPolyline
 62
253
  6
CONTINUOUS
 90
25
 70
0
 10
-43.8566450886
 20
44.8340076387
 10
-43.9209228189
 20
44.8316821307
 10
-43.9848265037
 20
44.8252004766
 10
-44.0480938876
 20
44.8146013812
 10
-44.1104260911
 20
44.7999510384
 10
-44.1716109006
 20
44.7813152536
 10
-44.2315161856
 20
44.7587335475
 10
-44.2899431574
 20
44.7322603731
 10
-44.3465901887
 20
44.7020124516
 10
-44.4011758198
 20
44.6681326608
 10
-44.4534518797
 20
44.6307718195
 10
-44.5032209842
 20
44.5900696518
 10
-44.5502931937
 20
44.5461792985
 10
-44.5944692779
 20
44.4992724169
 10
-44.6355567
 20
44.4495402194
 10
-44.6733883293
 20
44.3971798877
 10
-44.7077991906
 20
44.3423974828
 10
-44.738633886
 20
44.2854182984
 10
-44.7657589711
 20
44.2264834521
 10
-44.7890496382
 20
44.165835588
 10
-44.8083996001
 20
44.1037204579
 10
-44.8237259626
 20
44.0403956035
 10
-44.8349551641
 20
43.976122429
 10
-44.8420245055
 20
43.9111654893
 10
-44.8448916334
 20
43.8457940386
  0
LWPOLYLINE
  5
2F4
100
AcDbEntity
  8
RACCORDO
100
AcDbPolyline
 62
253
  6
CONTINUOUS
 90
25
 70
0
 10
-43.8566450886
 20
44.4263792099
 10
-43.8889611314
 20
44.4252978851
 10
-43.9208480702
 20
44.4221559827
 10
-43.9523059047
 20
44.4169534808
 10
-43.9834544763
 20
44.4096581988
 10
-44.0141739436
 20
44.4003022303
 10
-44.0441047838
 20
44.3889819471
 10
-44.0732522084
 20
44.3756673564
 10
-44.1016110058
 20
44.3603882877
 10
-44.1288060179
 20
44.34333084
 10
-44.1548139592
 20
44.3244767469
 10
-44.1796581151
 20
44.3038440603
 10
-44.2030331837
 20
44.2816733673
 10
-44.2249257759
 20
44.2579421435
 10
-44.2453492807
 20
44.2326726769
 10
-44.2640385636
 20
44.2061728034
 10
-44.2809719082
 20
44.1784255881
 10
-44.2961710309
 20
44.1494477439
 10
-44.3094359457
 20
44.1195976312
 10
-44.3207425689
 20
44.0888499025
 10
-44.3301149842
 20
44.0572297301
 10
-44.3374254572
 20
44.0251713312
 10
-44.3426314098
 20
43.9928194348
 10
-44.3457754201
 20
43.9600292313
 10
-44.346857488
 20
43.9268006745
  0
LWPOLYLINE
  5
2F5
100
AcDbEntity
  8
RACCORDO
100
AcDbPolyline
 62
253
  6
CONTINUOUS
 90
19
 70
0
 10
-44.346857488
 20
43.926800663
 10
-44.3879801891
 20
43.9265061011
 10
-44.4288242517
 20
43.9256106825
 10
-44.4691129252
 20
43.9241204745
 10
-44.5085732223
 20
43.9220455743
 10
-44.5469377684
 20
43.919400041
 10
-44.5839466137
 20
43.9162018003
 10
-44.6193489944
 20
43.9124725226
 10
-44.6529050313
 20
43.9082374769
 10
-44.6843873562
 20
43.9035253587
 10
-44.7135826516
 20
43.8983680965
 10
-44.7402930964
 20
43.8928006347
 10
-44.7643377064
 20
43.8868606972
 10
-44.7855535605
 20
43.8805885318
 10
-44.8037969048
 20
43.8740266374
 10
-44.8189441262
 20
43.8672194758
 10
-44.8308925904
 20
43.8602131709
 10
-44.8395613373
 20
43.8530551961
 10
-44.8448916292
 20
43.8457940521
  0
LINE
  5
2F6
100
AcDbEntity
  8
RACCORDO
100
AcDbLine
 62
253
  6
CONTINUOUS
 10
43.8566450886
 20
44.4263792099
 11
-43.8566450886
 21
44.4263792099
  0
LINE
  5
2F7
100
AcDbEntity
  8
RACCORDO
100
AcDbLine
 62
253
  6
CONTINUOUS
 10
43.8566450886
 20
44.8340076387
 11
-43.8566450886
 21
44.8340076387
  0
LINE
  5
2F8
100
AcDbEntity
  8
RACCORDO
100
AcDbLine
 62
7
  6
CONTINUOUS
 10
44.0199743099
 20
45.0
 11
-44.0199743099
 21
45.0
  0
LWPOLYLINE
  5
2F9
100
AcDbEntity
  8
RACCORDO
100
AcDbPolyline
 62
253
  6
CONTINUOUS
 90
19
 70
0
 10
44.346857488
 20
43.9268006656
 10
44.3879796394
 20
43.9265060638
 10
44.428823117
 20
43.9256106103
 10
44.4691111783
 20
43.9241203723
 10
44.5085708443
 20
43.9220454469
 10
44.5469347487
 20
43.9193998932
 10
44.5839429499
 20
43.9162016365
 10
44.6193446922
 20
43.9124723471
 10
44.6529001044
 20
43.9082372936
 10
44.6843818258
 20
43.9035251713
 10
44.7135765463
 20
43.8983679081
 10
44.7402864517
 20
43.8928004481
 10
44.7643305641
 20
43.8868605146
 10
44.7855459683
 20
43.8805883549
 10
44.8037889153
 20
43.8740264672
 10
44.8189357969
 20
43.867219313
 10
44.8308839825
 20
43.8602130154
 10
44.8395525151
 20
43.8530550472
 10
44.8448826593
 20
43.8457939085
  0
LWPOLYLINE
  5
2FA
100
AcDbEntity
  8
RACCORDO
100
AcDbPolyline
 62
7
  6
CONTINUOUS
 90
25
 70
0
 10
44.0199743099
 20
45.0
 10
44.0835731555
 20
44.9979667472
 10
44.1465038528
 20
44.9918646384
 10
44.2087664018
 20
44.9816935862
 10
44.270699556
 20
44.967361448
 10
44.3319645619
 20
44.9489600123
 10
44.3915451594
 20
44.926765019
 10
44.4492228022
 20
44.9008275483
 10
44.5052160367
 20
44.8710958815
 10
44.5591642417
 20
44.8376915152
 10
44.6112197256
 20
44.8004898697
 10
44.6612301801
 20
44.7596146085
 10
44.7083780595
 20
44.7155596069
 10
44.7526204531
 20
44.6682162185
 10
44.7940002716
 20
44.6176920711
 10
44.8318287016
 20
44.5648056154
 10
44.8659567495
 20
44.5097245395
 10
44.8965334089
 20
44.4522803033
 10
44.9233168471
 20
44.392787195
 10
44.9463700299
 20
44.3309753788
 10
44.9656299916
 20
44.2671138133
 10
44.9806660025
 20
44.2023252677
 10
44.991334486
 20
44.1369839778
 10
44.9977790188
 20
44.0707153728
 10
44.9999996007
 20
44.0035192549
  0
LINE
  5
2FB
100
AcDbEntity
  8
RACCORDO
100
AcDbLine
 62
7
  6
CONTINUOUS
 10
77.2676669302
 20
-44.8340076387
 11
75.3703655586
 21
-45.0
  0
LINE
  5
2FC
100
AcDbEntity
  8
RACCORDO
100
AcDbLine
 62
253
  6
CONTINUOUS
 10
77.3585120914
 20
-43.845794038
 11
75.5567083481
 21
-44.0035192549
  0
LINE
  5
2FD
100
AcDbEntity
  8
0
100
AcDbLine
 62
7
  6
CONTINUOUS
 10
74.8625283664
 20
-43.7
 11
74.8686585047
 21
-43.7
  0
LINE
  5
2FE
100
AcDbEntity
  8
SUPERFICI
100
AcDbLine
 62
7
  6
CONTINUOUS
 10
74.5116669803
 20
-43.682811234
 11
74.8625283664
 21
-43.7
  0
LINE
  5
2FF
100
AcDbEntity
  8
RACCORDO
100
AcDbLine
 62
253
  6
CONTINUOUS
 10
74.6154225015
 20
-43.6865350401
 11
74.8686585047
 21
-43.7
  0
LINE
  5
300
100
AcDbEntity
  8
SUPERFICI
100
AcDbLine
 62
7
  6
CONTINUOUS
 10
74.1650400465
 20
-43.6539349482
 11
74.5116669803
 21
-43.682811234
  0
LWPOLYLINE
  5
301
100
AcDbEntity
  8
RACCORDO
100
AcDbPolyline
 62
253
  6
CONTINUOUS
 90
25
 70
0
 10
75.2209471584
 20
-44.6460533149
 10
75.2215258553
 20
-44.6461015835
 10
75.2221373364
 20
-44.6459386758
 10
75.2227851885
 20
-44.645545518
 10
75.2234724751
 20
-44.6449033857
 10
75.2242034491
 20
-44.643992085
 10
75.2249839904
 20
-44.6427876229
 10
75.2258198001
 20
-44.6412676263
 10
75.2267145779
 20
-44.6394044039
 10
75.2276724789
 20
-44.637159182
 10
75.2287003694
 20
-44.634496952
 10
75.2298042497
 20
-44.6313841145
 10
75.2309882388
 20
-44.6277772545
 10
75.232258444
 20
-44.6236437072
 10
75.2336216669
 20
-44.618947036
 10
75.2350838557
 20
-44.6136338779
 10
75.2366516645
 20
-44.6076688599
 10
75.2383324004
 20
-44.6010123333
 10
75.2401349133
 20
-44.5935941708
 10
75.2420680124
 20
-44.5853714647
 10
75.2441374789
 20
-44.5763081577
 10
75.2463512639
 20
-44.5663247676
 10
75.2487202635
 20
-44.5553643419
 10
75.251255027
 20
-44.5433674652
 10
75.2568823322
 20
-44.5158135771
  0
LINE
  5
302
100
AcDbEntity
  8
RACCORDO
100
AcDbLine
 62
253
  6
CONTINUOUS
 10
75.2232908931
 20
-43.9489881854
 11
75.2666260534
 21
-43.9545455124
  0
LINE
  5
303
100
AcDbEntity
  8
RACCORDO
100
AcDbLine
 62
253
  6
CONTINUOUS
 10
75.2666260534
 20
-43.9545455124
 11
75.3497739454
 21
-43.9654816286
  0
LWPOLYLINE
  5
304
100
AcDbEntity
  8
RACCORDO
100
AcDbPolyline
 62
253
  6
CONTINUOUS
 90
12
 70
0
 10
71.9371617078
 20
43.1443663553
 10
72.1634555475
 20
43.2217736469
 10
72.3943869161
 20
43.2939001481
 10
72.629670872
 20
43.3606405127
 10
72.869240668
 20
43.421942391
 10
73.1125832896
 20
43.4776333696
 10
73.3587120421
 20
43.5274746384
 10
73.6072754768
 20
43.5714014285
 10
73.8579732558
 20
43.6093586588
 10
74.1098562292
 20
43.6412146784
 10
74.3623802619
 20
43.66693539
 10
74.615422521
 20
43.6865350413
  0
LINE
  5
305
100
AcDbEntity
  8
SUPERFICI
100
AcDbLine
 62
7
  6
CONTINUOUS
 10
72.1955213773
 20
43.2517748258
 11
71.9593748286
 21
43.1730771635
  0
LINE
  5
306
100
AcDbEntity
  8
RACCORDO
100
AcDbLine
 62
253
  6
CONTINUOUS
 10
71.9565289396
 20
43.1713765197
 11
71.9597957223
 21
43.1728755978
  0
LWPOLYLINE
  5
307
100
AcDbEntity
  8
RACCORDO
100
AcDbPolyline
 62
7
  6
CONTINUOUS
 90
13
 70
0
 10
71.9597957223
 20
43.1728755978
 10
72.1841073307
 20
43.2474390214
 10
72.4129271067
 20
43.3167892487
 10
72.6459761416
 20
43.3808249511
 10
72.8831753866
 20
43.4394916297
 10
73.1240366934
 20
43.4926282472
 10
73.3676380596
 20
43.5400160911
 10
73.613640855
 20
43.5815910373
 10
73.8617505508
 20
43.6172969752
 10
74.1110756166
 20
43.6470117788
 10
74.3610979149
 20
43.6707002253
 10
74.6116875338
 20
43.688368885
 10
74.8625283664
 20
43.7
  0
LINE
  5
308
100
AcDbEntity
  8
RACCORDO
100
AcDbLine
 62
253
  6
CONTINUOUS
 10
75.2037890569
 20
44.6404360501
 11
75.2209476288
 21
44.6460534381
  0
LWPOLYLINE
  5
309
100
AcDbEntity
  8
RACCORDO
100
AcDbPolyline
 62
253
  6
CONTINUOUS
 90
13
 70
0
 10
71.9479874294
 20
42.6667588741
 10
72.1801623709
 20
42.7421544665
 10
72.4169609095
 20
42.8122883283
 10
72.6580983306
 20
42.8770569329
 10
72.9035351996
 20
42.9364129288
 10
73.1527324552
 20
42.9901817044
 10
73.4046215747
 20
43.0381197861
 10
73.6588539092
 20
43.0801695646
 10
73.915124798
 20
43.1162812569
 10
74.1723895476
 20
43.1463254885
 10
74.4300715474
 20
43.1702793081
 10
74.6880804925
 20
43.1881710764
 10
74.9460938563
 20
43.1999994174
  0
LWPOLYLINE
  5
30A
100
AcDbEntity
  8
RACCORDO
100
AcDbPolyline
 62
253
  6
CONTINUOUS
 90
13
 70
0
 10
71.9490556114
 20
42.4321251337
 10
72.1834498782
 20
42.5058838783
 10
72.4224840761
 20
42.5743886041
 10
72.6658741512
 20
42.6375352849
 10
72.9135790754
 20
42.6952734336
 10
73.1650623379
 20
42.747430745
 10
73.4192626339
 20
42.793770379
 10
73.6758300882
 20
42.8342330233
 10
73.9344624296
 20
42.8687674645
 10
74.1941282168
 20
42.8972489423
 10
74.4542555866
 20
42.9196533648
 10
74.7147500027
 20
42.9360037232
 10
74.9752886545
 20
42.9462954714
  0
LINE
  5
30B
100
AcDbEntity
  8
RACCORDO
100
AcDbLine
 62
253
  6
CONTINUOUS
 10
72.1811513506
 20
43.246163483
 11
72.1841073307
 21
43.2474390214
  0
LINE
  5
30C
100
AcDbEntity
  8
SUPERFICI
100
AcDbLine
 62
7
  6
CONTINUOUS
 10
72.5130339977
 20
43.3462334324
 11
72.1955213773
 21
43.2517748258
  0
LWPOLYLINE
  5
30D
100
AcDbEntity
  8
RACCORDO
100
AcDbPolyline
 62
253
  6
CONTINUOUS
 90
4
 70
0
 10
71.7582867411
 20
-42.43331537
 10
71.7597808097
 20
-42.4331879856
 10
71.7642481519
 20
-42.4330618701
 10
71.7716442705
 20
-42.4329382795
  0
LWPOLYLINE
  5
30E
100
AcDbEntity
  8
RACCORDO
100
AcDbPolyline
 62
253
  6
CONTINUOUS
 90
3
 70
0
 10
71.7582866646
 20
-42.6672957805
 10
71.7597712226
 20
-42.6672384151
 10
71.7642102054
 20
-42.6671816174
  0
LINE
  5
30F
100
AcDbEntity
  8
RACCORDO
100
AcDbLine
 62
253
  6
CONTINUOUS
 10
71.7716442705
 20
-42.4329382795
 11
71.7948997222
 21
-42.4327035601
  0
LINE
  5
310
100
AcDbEntity
  8
RACCORDO
100
AcDbLine
 62
253
  6
CONTINUOUS
 10
71.7642102054
 20
-42.6671816174
 11
71.7946710676
 21
-42.6670201908
  0
LINE
  5
311
100
AcDbEntity
  8
RACCORDO
100
AcDbLine
 62
253
  6
CONTINUOUS
 10
71.7948997222
 20
-42.4327035601
 11
71.8958020031
 21
-42.4322410852
  0
LINE
  5
312
100
AcDbEntity
  8
RACCORDO
100
AcDbLine
 62
253
  6
CONTINUOUS
 10
71.8958020031
 20
-42.4322410852
 11
71.9490556086
 21
-42.4321251336
  0
LINE
  5
313
100
AcDbEntity
  8
RACCORDO
100
AcDbLine
 62
253
  6
CONTINUOUS
 10
71.7946710676
 20
-42.6670201908
 11
71.9479874267
 21
-42.6667588741
  0
LINE
  5
314
100
AcDbEntity
  8
RACCORDO
100
AcDbLine
 62
253
  6
CONTINUOUS
 10
73.3660080311
 20
-43.5395274817
 11
73.3676380322
 21
-43.5400160861
  0
LINE
  5
315
100
AcDbEntity
  8
RACCORDO
100
AcDbLine
 62
253
  6
CONTINUOUS
 10
77.806960074
 20
-43.9268006656
 11
77.358511304
 21
-43.8457939085
  0
LINE
  5
316
100
AcDbEntity
  8
RACCORDO
100
AcDbLine
 62
253
  6
CONTINUOUS
 10
75.2384192828
 20
-43.8679118883
 11
75.3615296707
 21
-43.8904815641
  0
LINE
  5
317
100
AcDbEntity
  8
RACCORDO
100
AcDbLine
 62
253
  6
CONTINUOUS
 10
75.556708306
 20
-44.0035194839
 11
75.3497734144
 21
-43.96548541
  0
LINE
  5
318
100
AcDbEntity
  8
RACCORDO
100
AcDbLine
 62
253
  6
CONTINUOUS
 10
73.1221609691
 20
-43.492016571
 11
73.1240366598
 21
-43.4926282402
  0
LINE
  5
319
100
AcDbEntity
  8
RACCORDO
100
AcDbLine
 62
253
  6
CONTINUOUS
 10
72.8810625292
 20
-43.4387454981
 11
72.883175347
 21
-43.4394916204
  0
LINE
  5
31A
100
AcDbEntity
  8
RACCORDO
100
AcDbLine
 62
253
  6
CONTINUOUS
 10
72.6436060419
 20
-43.3799256455
 11
72.645976102
 21
-43.3808249408
  0
LWPOLYLINE
  5
31B
100
AcDbEntity
  8
SUPERFICI
100
AcDbPolyline
 62
7
  6
CONTINUOUS
 90
6
 70
0
 10
72.5130339666
 20
-43.3462334237
 10
72.8354606478
 20
-43.4296678559
 10
73.1605750986
 20
-43.5018003566
 10
73.4888017499
 20
-43.5629869037
 10
73.8233955236
 20
-43.6137831736
 10
74.1650400465
 20
-43.6539349482
  0
LINE
  5
31C
100
AcDbEntity
  8
RACCORDO
100
AcDbLine
 62
7
  6
CONTINUOUS
 10
75.427134158
 20
-44.7
 11
75.2209470765
 21
-44.6460532936
  0
LINE
  5
31D
100
AcDbEntity
  8
RACCORDO
100
AcDbLine
 62
253
  6
CONTINUOUS
 10
72.4102721906
 20
-43.3157134487
 11
72.412927075
 21
-43.3167892395
  0
LINE
  5
31E
100
AcDbEntity
  8
SUPERFICI
100
AcDbLine
 62
7
  6
CONTINUOUS
 10
72.1955213599
 20
-43.2517748203
 11
72.5130339666
 21
-43.3462334237
  0
LINE
  5
31F
100
AcDbEntity
  8
RACCORDO
100
AcDbLine
 62
253
  6
CONTINUOUS
 10
72.1811526003
 20
-43.2461638805
 11
72.1841073123
 21
-43.2474390155
  0
LWPOLYLINE
  5
320
100
AcDbEntity
  8
RACCORDO
100
AcDbPolyline
 62
253
  6
CONTINUOUS
 90
13
 70
0
 10
71.9490556114
 20
-42.4321251337
 10
72.183450011
 20
-42.5058839183
 10
72.4224843045
 20
-42.5743886665
 10
72.6658744358
 20
-42.6375353549
 10
72.9135793604
 20
-42.6952734963
 10
73.1650625796
 20
-42.7474307921
 10
73.419262831
 20
-42.7937704125
 10
73.6758302538
 20
-42.8342330475
 10
73.9344625627
 20
-42.8687674807
 10
74.194128317
 20
-42.8972489521
 10
74.4542556536
 20
-42.9196533697
 10
74.7147500363
 20
-42.9360037249
 10
74.9752886545
 20
-42.9462954714
  0
LWPOLYLINE
  5
321
100
AcDbEntity
  8
RACCORDO
100
AcDbPolyline
 62
253
  6
CONTINUOUS
 90
13
 70
0
 10
71.9479874294
 20
-42.6667588741
 10
72.1801623689
 20
-42.7421544658
 10
72.416960906
 20
-42.8122883273
 10
72.6580983263
 20
-42.8770569318
 10
72.9035351952
 20
-42.9364129278
 10
73.1527324515
 20
-42.9901817037
 10
73.4046215717
 20
-43.0381197855
 10
73.6588539067
 20
-43.0801695642
 10
73.9151247959
 20
-43.1162812567
 10
74.172389546
 20
-43.1463254884
 10
74.4300715464
 20
-43.170279308
 10
74.688080492
 20
-43.1881710764
 10
74.9460938563
 20
-43.1999994174
  0
LINE
  5
322
100
AcDbEntity
  8
RACCORDO
100
AcDbLine
 62
253
  6
CONTINUOUS
 10
75.2037890814
 20
-44.640435957
 11
75.2209476565
 21
-44.6460533321
  0
LWPOLYLINE
  5
323
100
AcDbEntity
  8
RACCORDO
100
AcDbPolyline
 62
7
  6
CONTINUOUS
 90
13
 70
0
 10
71.9597957223
 20
-43.1728755978
 10
72.1841073123
 20
-43.2474390155
 10
72.412927075
 20
-43.3167892395
 10
72.645976102
 20
-43.3808249408
 10
72.883175347
 20
-43.4394916204
 10
73.1240366598
 20
-43.4926282402
 10
73.3676380322
 20
-43.5400160861
 10
73.613640832
 20
-43.5815910337
 10
73.8617505323
 20
-43.6172969728
 10
74.1110756026
 20
-43.6470117773
 10
74.3610979056
 20
-43.6707002246
 10
74.6116875291
 20
-43.6883688847
 10
74.8625283664
 20
-43.7
  0
LINE
  5
324
100
AcDbEntity
  8
RACCORDO
100
AcDbLine
 62
253
  6
CONTINUOUS
 10
71.9565289396
 20
-43.1713765197
 11
71.9597957223
 21
-43.1728755978
  0
LINE
  5
325
100
AcDbEntity
  8
SUPERFICI
100
AcDbLine
 62
7
  6
CONTINUOUS
 10
71.9593748276
 20
-43.1730771631
 11
72.1955213599
 21
-43.2517748203
  0
LWPOLYLINE
  5
326
100
AcDbEntity
  8
RACCORDO
100
AcDbPolyline
 62
253
  6
CONTINUOUS
 90
12
 70
0
 10
71.9371617078
 20
-43.1443663553
 10
72.1634554711
 20
-43.221773622
 10
72.3943867847
 20
-43.293900109
 10
72.6296707082
 20
-43.3606404685
 10
72.8692405038
 20
-43.4219423512
 10
73.1125831503
 20
-43.4776333395
 10
73.3587119285
 20
-43.5274746168
 10
73.6072753813
 20
-43.5714014128
 10
73.8579731789
 20
-43.6093586481
 10
74.1098561713
 20
-43.6412146718
 10
74.3623802232
 20
-43.6669353865
 10
74.6154225015
 20
-43.6865350401
  0
LWPOLYLINE
  5
327
100
AcDbEntity
  8
RACCORDO
100
AcDbPolyline
 62
253
  6
CONTINUOUS
 90
7
 70
0
 10
71.9597957223
 20
-43.1728755978
 10
71.9592846435
 20
-43.1726879342
 10
71.9587602082
 20
-43.1724761353
 10
71.9582224184
 20
-43.1722396522
 10
71.9576712757
 20
-43.17197793
 10
71.9571067821
 20
-43.171690408
 10
71.9565289396
 20
-43.1713765197
  0
LINE
  5
328
100
AcDbEntity
  8
RACCORDO
100
AcDbLine
 62
7
  6
CONTINUOUS
 10
71.9311789423
 20
-43.1612325096
 11
71.959800052
 21
-43.1728631393
  0
LWPOLYLINE
  5
329
100
AcDbEntity
  8
RACCORDO
100
AcDbPolyline
 62
253
  6
CONTINUOUS
 90
7
 70
0
 10
71.9565289396
 20
43.1713765197
 10
71.9571067811
 20
43.1716904086
 10
71.957671274
 20
43.1719779306
 10
71.9582224165
 20
43.1722396526
 10
71.9587602066
 20
43.1724761354
 10
71.9592846424
 20
43.172687934
 10
71.9597957223
 20
43.1728755978
  0
LWPOLYLINE
  5
32A
100
AcDbEntity
  8
RACCORDO
100
AcDbPolyline
 62
253
  6
CONTINUOUS
 90
13
 70
0
 10
71.9565289396
 20
-43.1713765197
 10
71.954748143
 20
-43.1702490705
 10
71.9530003759
 20
-43.1689138812
 10
71.9512854345
 20
-43.1673726325
 10
71.9496044401
 20
-43.1656278365
 10
71.9479558799
 20
-43.1636804855
 10
71.9463356222
 20
-43.1615294312
 10
71.9447433041
 20
-43.1591758062
 10
71.9431789625
 20
-43.1566207939
 10
71.9416391011
 20
-43.1538621693
 10
71.9401224696
 20
-43.1508993029
 10
71.9386300487
 20
-43.1477338354
 10
71.9371617078
 20
-43.1443663553
  0
LWPOLYLINE
  5
32B
100
AcDbEntity
  8
RACCORDO
100
AcDbPolyline
 62
253
  6
CONTINUOUS
 90
4
 70
0
 10
71.8640118091
 20
43.1002524313
 10
71.8868834292
 20
43.1171955954
 10
71.9113422196
 20
43.1319457741
 10
71.9371616951
 20
43.1443663828
  0
LWPOLYLINE
  5
32C
100
AcDbEntity
  8
RACCORDO
100
AcDbPolyline
 62
253
  6
CONTINUOUS
 90
4
 70
0
 10
71.8640117962
 20
-43.1002525079
 10
71.8868834054
 20
-43.1171956815
 10
71.9113421836
 20
-43.1319458701
 10
71.9371616463
 20
-43.1443664892
  0
LWPOLYLINE
  5
32D
100
AcDbEntity
  8
RACCORDO
100
AcDbPolyline
 62
7
  6
CONTINUOUS
 90
4
 70
0
 10
71.8545431104
 20
-43.1096951752
 10
71.8782699194
 20
-43.1294801597
 10
71.9039058203
 20
-43.1467202152
 10
71.9311789423
 20
-43.1612325096
  0
LWPOLYLINE
  5
32E
100
AcDbEntity
  8
RACCORDO
100
AcDbPolyline
 62
253
  6
CONTINUOUS
 90
6
 70
0
 10
75.1345417518
 20
44.5845340762
 10
75.1454770405
 20
44.5989189894
 10
75.1580629262
 20
44.6118782237
 10
75.1721162767
 20
44.6232232144
 10
75.1874326075
 20
44.6327888853
 10
75.2037890569
 20
44.6404360501
  0
LINE
  5
32F
100
AcDbEntity
  8
0
100
AcDbLine
 62
7
  6
CONTINUOUS
 10
79.8260674596
 20
-28.877801
 11
79.9264543419
 21
-28.877801
  0
LWPOLYLINE
  5
330
100
AcDbEntity
  8
RACCORDO
100
AcDbPolyline
 62
253
  6
CONTINUOUS
 90
6
 70
0
 10
75.1345417638
 20
-44.5845340422
 10
75.1454770538
 20
-44.5989189445
 10
75.1580629415
 20
-44.6118781674
 10
75.1721162948
 20
-44.6232231462
 10
75.1874326287
 20
-44.6327888048
 10
75.2037890814
 20
-44.640435957
  0
LINE
  5
331
100
AcDbEntity
  8
0
100
AcDbLine
 62
7
  6
CONTINUOUS
 10
80.048919946
 20
-26.078098
 11
80.1491724705
 21
-26.078098
  0
LINE
  5
332
100
AcDbEntity
  8
SUPERFICI
100
AcDbLine
 62
7
  6
CONTINUOUS
 10
80.1515044938
 20
-26.0452484808
 11
80.0512533743
 21
-26.0452484808
  0
LINE
  5
333
100
AcDbEntity
  8
RACCORDO
100
AcDbLine
 62
253
  6
CONTINUOUS
 10
77.6376514736
 20
-24.0703010971
 11
77.762744548
 21
-24.0778008693
  0
LWPOLYLINE
  5
334
100
AcDbEntity
  8
RACCORDO
100
AcDbPolyline
 62
253
  6
CONTINUOUS
 90
8
 70
0
 10
71.7965083616
 20
-43.0357861566
 10
71.8128000847
 20
-43.0616773955
 10
71.8316467107
 20
-43.0857751426
 10
71.8528520935
 20
-43.1078286007
 10
71.8761955378
 20
-43.1276082481
 10
71.9014340965
 20
-43.144908228
 10
71.9283050994
 20
-43.1595484909
 10
71.9565288861
 20
-43.1713766681
  0
LWPOLYLINE
  5
335
100
AcDbEntity
  8
RACCORDO
100
AcDbPolyline
 62
253
  6
CONTINUOUS
 90
13
 70
0
 10
71.9371617078
 20
43.1443663553
 10
71.9386305458
 20
43.1477349237
 10
71.9401233845
 20
43.1509011612
 10
71.9416403537
 20
43.153864516
 10
71.9431804765
 20
43.1566233877
 10
71.9447449978
 20
43.1591784392
 10
71.9463373996
 20
43.1615319243
 10
71.947957646
 20
43.1636826998
 10
71.9496060969
 20
43.1656296707
 10
71.9512868632
 20
43.1673740139
 10
71.95300145
 20
43.1689147759
 10
71.9547487413
 20
43.1702494906
 10
71.9565289396
 20
43.1713765197
  0
LWPOLYLINE
  5
336
100
AcDbEntity
  8
RACCORDO
100
AcDbPolyline
 62
253
  6
CONTINUOUS
 90
6
 70
0
 10
71.780254077
 20
42.9887576409
 10
71.7923722496
 20
43.0139606338
 10
71.806952753
 20
43.0379265827
 10
71.8238605735
 20
43.0604335664
 10
71.8429391472
 20
43.0812731732
 10
71.8640118091
 20
43.1002524313
  0
LINE
  5
337
100
AcDbEntity
  8
RACCORDO
100
AcDbLine
 62
253
  6
CONTINUOUS
 10
71.7582866646
 20
-22.8076446486
 11
71.7595218269
 21
-22.807621043
  0
LINE
  5
338
100
AcDbEntity
  8
RACCORDO
100
AcDbLine
 62
253
  6
CONTINUOUS
 10
71.7582866646
 20
-21.9188168495
 11
71.7595271107
 21
-21.9187943477
  0
LINE
  5
339
100
AcDbEntity
  8
RACCORDO
100
AcDbLine
 62
253
  6
CONTINUOUS
 10
71.7582866647
 20
-21.2704938486
 11
71.7595307676
 21
-21.2704723138
  0
LINE
  5
33A
100
AcDbEntity
  8
RACCORDO
100
AcDbLine
 62
253
  6
CONTINUOUS
 10
71.7595218269
 20
-22.807621043
 11
71.7886601056
 21
-22.8075304747
  0
LINE
  5
33B
100
AcDbEntity
  8
RACCORDO
100
AcDbLine
 62
253
  6
CONTINUOUS
 10
71.7595271107
 20
-21.9187943477
 11
71.7887878783
 21
-21.9187080303
  0
LINE
  5
33C
100
AcDbEntity
  8
RACCORDO
100
AcDbLine
 62
253
  6
CONTINUOUS
 10
71.7595307676
 20
-21.2704723138
 11
71.8020004641
 21
-21.270370809
  0
LINE
  5
33D
100
AcDbEntity
  8
RACCORDO
100
AcDbLine
 62
253
  6
CONTINUOUS
 10
71.7886601056
 20
-22.8075304747
 11
71.9959911702
 21
-22.8073899216
  0
LINE
  5
33E
100
AcDbEntity
  8
RACCORDO
100
AcDbLine
 62
253
  6
CONTINUOUS
 10
71.7887878783
 20
-21.9187080303
 11
71.996845783
 21
-21.9185744023
  0
LINE
  5
33F
100
AcDbEntity
  8
RACCORDO
100
AcDbLine
 62
253
  6
CONTINUOUS
 10
71.8020004641
 20
-21.270370809
 11
71.9974364844
 21
-21.2702620638
  0
LINE
  5
340
100
AcDbEntity
  8
RACCORDO
100
AcDbLine
 62
253
  6
CONTINUOUS
 10
79.8069038144
 20
-22.5203789087
 11
78.0610705461
 21
-22.5203789087
  0
LINE
  5
341
100
AcDbEntity
  8
RACCORDO
100
AcDbLine
 62
253
  6
CONTINUOUS
 10
80.2626985645
 20
-22.5432326078
 11
79.8069038144
 21
-22.5203789087
  0
LINE
  5
342
100
AcDbEntity
  8
RACCORDO
100
AcDbLine
 62
253
  6
CONTINUOUS
 10
80.2582866464
 20
-22.6310194473
 11
79.8024968075
 21
-22.6080915512
  0
LINE
  5
343
100
AcDbEntity
  8
RACCORDO
100
AcDbLine
 62
253
  6
CONTINUOUS
 10
77.7267038714
 20
-22.4521762792
 11
77.8519754304
 21
-22.4584709197
  0
LINE
  5
344
100
AcDbEntity
  8
RACCORDO
100
AcDbLine
 62
253
  6
CONTINUOUS
 10
77.7241293295
 20
-22.5033846583
 11
78.0610705461
 21
-22.5203789087
  0
LWPOLYLINE
  5
345
100
AcDbEntity
  8
RACCORDO
100
AcDbPolyline
 62
253
  6
CONTINUOUS
 90
10
 70
0
 10
71.9974364845
 20
-21.2702620638
 10
72.5771532709
 20
-21.3637479109
 10
73.1618421299
 20
-21.4503128465
 10
73.7509272531
 20
-21.529872976
 10
74.3441920106
 20
-21.6023861691
 10
74.9407134118
 20
-21.6677195268
 10
75.5388415145
 20
-21.7256923539
 10
76.1376358273
 20
-21.7762337434
 10
76.7368858361
 20
-21.8193395917
 10
77.3360310008
 20
-21.8549701508
  0
LWPOLYLINE
  5
346
100
AcDbEntity
  8
RACCORDO
100
AcDbPolyline
 62
253
  6
CONTINUOUS
 90
10
 70
0
 10
71.996845783
 20
-21.9185744023
 10
72.5723089155
 20
-22.0145874979
 10
73.1529247563
 20
-22.1035344509
 10
73.7381074397
 20
-22.1853269685
 10
74.3276432783
 20
-22.2599215235
 10
74.920585228
 20
-22.3271770153
 10
75.5152310194
 20
-22.3869006906
 10
76.1106138968
 20
-22.4390174955
 10
76.7065244259
 20
-22.4835241436
 10
77.3023895978
 20
-22.5203789262
  0
LWPOLYLINE
  5
347
100
AcDbEntity
  8
RACCORDO
100
AcDbPolyline
 62
253
  6
CONTINUOUS
 90
10
 70
0
 10
71.9959911702
 20
-22.8073899216
 10
72.5652792335
 20
-22.9066563133
 10
73.1399635134
 20
-22.9986652387
 10
73.7194449822
 20
-23.0833221801
 10
74.3035143668
 20
-23.1605815852
 10
74.8911924013
 20
-23.2302907756
 10
75.4807061489
 20
-23.2922400594
 10
76.0710534546
 20
-23.3463485619
 10
76.6620265655
 20
-23.3926141031
 10
77.2530357534
 20
-23.4309921914
  0
LWPOLYLINE
  5
348
100
AcDbEntity
  8
RACCORDO
100
AcDbPolyline
 62
253
  6
CONTINUOUS
 90
6
 70
0
 10
71.7802540934
 20
-42.9887576748
 10
71.7923722643
 20
-43.0139606758
 10
71.8069527636
 20
-43.037926633
 10
71.8238605781
 20
-43.0604336251
 10
71.8429391439
 20
-43.0812732407
 10
71.8640117962
 20
-43.1002525079
  0
LWPOLYLINE
  5
349
100
AcDbEntity
  8
RACCORDO
100
AcDbPolyline
 62
253
  6
CONTINUOUS
 90
4
 70
0
 10
71.9371617078
 20
-43.1443663553
 10
71.9350535294
 20
-43.1394230371
 10
71.9330552918
 20
-43.1340180785
 10
71.9311671074
 20
-43.1281398226
  0
LWPOLYLINE
  5
34A
100
AcDbEntity
  8
RACCORDO
100
AcDbPolyline
 62
253
  6
CONTINUOUS
 90
3
 70
0
 10
71.7638297341
 20
42.9355833222
 10
71.7707104475
 20
42.9625509804
 10
71.780254077
 20
42.9887576409
  0
LWPOLYLINE
  5
34B
100
AcDbEntity
  8
RACCORDO
100
AcDbPolyline
 62
253
  6
CONTINUOUS
 90
40
 70
0
 10
71.9311671074
 20
-43.1281398226
 10
71.9293854384
 20
-43.1217600364
 10
71.9277140884
 20
-43.1148824869
 10
71.9261642019
 20
-43.1075545673
 10
71.924739315
 20
-43.0997822747
 10
71.9234362378
 20
-43.0915609484
 10
71.9222560283
 20
-43.0829404301
 10
71.9212000836
 20
-43.0739322666
 10
71.9202673952
 20
-43.0645419242
 10
71.9194553935
 20
-43.054823727
 10
71.9187647455
 20
-43.0448006617
 10
71.9181951878
 20
-43.0344782152
 10
71.9177427296
 20
-43.0238925702
 10
71.9174066536
 20
-43.0130755224
 10
71.9171880923
 20
-43.0020269865
 10
71.9170858332
 20
-42.9907349527
 10
71.9171001945
 20
-42.9792098748
 10
71.9172313489
 20
-42.9674651547
 10
71.9174778966
 20
-42.9554888266
 10
71.9178420762
 20
-42.9433009228
 10
71.9183216836
 20
-42.9309074036
 10
71.9189086603
 20
-42.9182704041
 10
71.91959871
 20
-42.9054023304
 10
71.9203958102
 20
-42.8923145943
 10
71.9213043278
 20
-42.8789620293
 10
71.9223252224
 20
-42.8653172892
 10
71.9234571872
 20
-42.8514262338
 10
71.9247011839
 20
-42.8373533861
 10
71.9260574502
 20
-42.8231067485
 10
71.927525279
 20
-42.8087041519
 10
71.9291042122
 20
-42.7942294132
 10
71.9307955178
 20
-42.7796934366
 10
71.9325973742
 20
-42.7651154273
 10
71.9345047243
 20
-42.7505953283
 10
71.936521365
 20
-42.7361393021
 10
71.9386429309
 20
-42.7217723008
 10
71.9408522158
 20
-42.7076248406
 10
71.9431433742
 20
-42.6937505405
 10
71.9455218435
 20
-42.6801244411
 10
71.9479874294
 20
-42.6667588741
  0
LWPOLYLINE
  5
34C
100
AcDbEntity
  8
RACCORDO
100
AcDbPolyline
 62
7
  6
CONTINUOUS
 90
7
 70
0
 10
71.7646320264
 20
-42.9508795315
 10
71.7725012671
 20
-42.9807529325
 10
71.7834012846
 20
-43.0096586686
 10
71.7972164835
 20
-43.0372901919
 10
71.8138003524
 20
-43.0633544679
 10
71.832977018
 20
-43.0875750829
 10
71.8545431104
 20
-43.1096951752
  0
LWPOLYLINE
  5
34D
100
AcDbEntity
  8
RACCORDO
100
AcDbPolyline
 62
253
  6
CONTINUOUS
 90
3
 70
0
 10
71.7638297471
 20
-42.9355833397
 10
71.7707104635
 20
-42.9625510061
 10
71.7802540934
 20
-42.9887576748
  0
LWPOLYLINE
  5
34E
100
AcDbEntity
  8
RACCORDO
100
AcDbPolyline
 62
253
  6
CONTINUOUS
 90
12
 70
0
 10
71.7598478732
 20
42.9198959698
 10
71.7645150707
 20
42.950123286
 10
71.7722396833
 20
42.9797180372
 10
71.7829413176
 20
43.0083722162
 10
71.7965085966
 20
43.0357876052
 10
71.8128003196
 20
43.0616788797
 10
71.831646931
 20
43.0857765782
 10
71.8528522858
 20
43.107829906
 10
71.8761956899
 20
43.1276093457
 10
71.9014341979
 20
43.1449090458
 10
71.9283051413
 20
43.1595489629
 10
71.9565288617
 20
43.1713767357
  0
LINE
  5
34F
100
AcDbEntity
  8
RACCORDO
100
AcDbLine
 62
253
  6
CONTINUOUS
 10
74.9752886545
 20
42.9462954714
 11
75.2384192787
 21
43.8679118876
  0
LINE
  5
350
100
AcDbEntity
  8
RACCORDO
100
AcDbLine
 62
7
  6
CONTINUOUS
 10
74.8625283664
 20
43.7
 11
75.1121699325
 21
44.5427758029
  0
LWPOLYLINE
  5
351
100
AcDbEntity
  8
RACCORDO
100
AcDbPolyline
 62
253
  6
CONTINUOUS
 90
4
 70
0
 10
75.1130970226
 20
44.535003544
 10
75.1182330925
 20
44.5523421476
 10
75.1254161749
 20
44.5689327929
 10
75.1345417518
 20
44.5845340762
  0
LINE
  5
352
100
AcDbEntity
  8
RACCORDO
100
AcDbLine
 62
253
  6
CONTINUOUS
 10
77.2530357534
 20
23.4309921914
 11
77.6376514678
 21
24.0703010966
  0
LINE
  5
353
100
AcDbEntity
  8
RACCORDO
100
AcDbLine
 62
253
  6
CONTINUOUS
 10
77.3360310008
 20
21.8549701508
 11
77.7267038716
 21
22.4521762792
  0
LINE
  5
354
100
AcDbEntity
  8
RACCORDO
100
AcDbLine
 62
253
  6
CONTINUOUS
 10
77.3360310008
 20
-21.8549701508
 11
77.7267038716
 21
-22.4521762792
  0
LINE
  5
355
100
AcDbEntity
  8
RACCORDO
100
AcDbLine
 62
253
  6
CONTINUOUS
 10
77.2530357534
 20
-23.4309921914
 11
77.6376514679
 21
-24.0703010967
  0
LINE
  5
356
100
AcDbEntity
  8
RACCORDO
100
AcDbLine
 62
7
  6
CONTINUOUS
 10
74.8625283664
 20
-43.7
 11
75.1121699325
 21
-44.5427758029
  0
LWPOLYLINE
  5
357
100
AcDbEntity
  8
RACCORDO
100
AcDbPolyline
 62
253
  6
CONTINUOUS
 90
4
 70
0
 10
75.1130970377
 20
-44.5350035405
 10
75.1182331053
 20
-44.5523421343
 10
75.1254161868
 20
-44.5689327695
 10
75.1345417638
 20
-44.5845340422
  0
LINE
  5
358
100
AcDbEntity
  8
RACCORDO
100
AcDbLine
 62
253
  6
CONTINUOUS
 10
74.9752886545
 20
-42.9462954714
 11
75.2384192787
 21
-43.8679118876
  0
LWPOLYLINE
  5
359
100
AcDbEntity
  8
RACCORDO
100
AcDbPolyline
 62
253
  6
CONTINUOUS
 90
10
 70
0
 10
75.1121699325
 20
-44.5427758029
 10
75.1119103058
 20
-44.5417699607
 10
75.1117401199
 20
-44.5408034545
 10
75.1116600394
 20
-44.539872692
 10
75.1116706785
 20
-44.5389705753
 10
75.1117729422
 20
-44.5380960153
 10
75.1119670541
 20
-44.5372591064
 10
75.1122525593
 20
-44.5364660108
 10
75.1126292948
 20
-44.5357137884
 10
75.1130970498
 20
-44.5350035377
  0
LINE
  5
35A
100
AcDbEntity
  8
RACCORDO
100
AcDbLine
 62
7
  6
CONTINUOUS
 10
71.7598770165
 20
-42.9203552753
 11
71.7646320264
 21
-42.9508795315
  0
LWPOLYLINE
  5
35B
100
AcDbEntity
  8
RACCORDO
100
AcDbPolyline
 62
7
  6
CONTINUOUS
 90
4
 70
0
 10
71.7628828049
 20
42.9421651235
 10
71.7597077401
 20
42.9190153138
 10
71.7585141876
 20
42.9015214567
 10
71.7582866646
 20
42.8898218882
  0
LINE
  5
35C
100
AcDbEntity
  8
RACCORDO
100
AcDbLine
 62
253
  6
CONTINUOUS
 10
71.759675651
 20
42.9081043832
 11
71.7638297341
 21
42.9355833222
  0
LINE
  5
35D
100
AcDbEntity
  8
RACCORDO
100
AcDbLine
 62
253
  6
CONTINUOUS
 10
71.7596756587
 20
-42.9081043921
 11
71.7638297471
 21
-42.9355833397
  0
LINE
  5
35E
100
AcDbEntity
  8
RACCORDO
100
AcDbLine
 62
7
  6
CONTINUOUS
 10
71.7597077401
 20
-42.9190153196
 11
71.7628828049
 21
-42.9421651207
  0
LINE
  5
35F
100
AcDbEntity
  8
RACCORDO
100
AcDbLine
 62
7
  6
CONTINUOUS
 10
71.7582866646
 20
-42.8895038765
 11
71.7598770165
 21
-42.9203552753
  0
LINE
  5
360
100
AcDbEntity
  8
RACCORDO
100
AcDbLine
 62
253
  6
CONTINUOUS
 10
71.7582866646
 20
-42.8803686145
 11
71.7582866646
 21
-42.8895038765
  0
LWPOLYLINE
  5
361
100
AcDbEntity
  8
RACCORDO
100
AcDbPolyline
 62
7
  6
CONTINUOUS
 90
3
 70
0
 10
71.7582866646
 20
-42.8898219709
 10
71.7585141876
 20
-42.9015214901
 10
71.7597077401
 20
-42.9190153196
  0
LINE
  5
362
100
AcDbEntity
  8
RACCORDO
100
AcDbLine
 62
253
  6
CONTINUOUS
 10
71.9868265326
 20
29.7893818079
 11
71.9778856792
 21
34.1881211111
  0
LINE
  5
363
100
AcDbEntity
  8
RACCORDO
100
AcDbLine
 62
253
  6
CONTINUOUS
 10
72.0069273628
 20
4.0058300883
 11
71.9868265326
 21
29.7893818079
  0
LINE
  5
364
100
AcDbEntity
  8
RACCORDO
100
AcDbLine
 62
7
  6
CONTINUOUS
 10
71.7582866646
 20
-42.8893506799
 11
71.7582866646
 21
-4.0204738956
  0
LINE
  5
365
100
AcDbEntity
  8
RACCORDO
100
AcDbLine
 62
7
  6
CONTINUOUS
 10
71.7582866646
 20
4.0204738976
 11
71.7582866646
 21
42.8893506799
  0
LINE
  5
366
100
AcDbEntity
  8
RACCORDO
100
AcDbLine
 62
253
  6
CONTINUOUS
 10
71.9959911702
 20
-22.8073899216
 11
72.0069273615
 21
-4.005830094
  0
LWPOLYLINE
  5
367
100
AcDbEntity
  8
RACCORDO
100
AcDbPolyline
 62
253
  6
CONTINUOUS
 90
3
 70
0
 10
71.9779735164
 20
-34.1486000316
 10
71.9828084973
 20
-31.9736990563
 10
71.9959911702
 20
-22.8073899216
  0
LINE
  5
368
100
AcDbEntity
  8
RACCORDO
100
AcDbLine
 62
253
  6
CONTINUOUS
 10
71.7582866646
 20
42.8803686145
 11
71.7598478732
 21
42.9198959698
  0
LWPOLYLINE
  5
369
100
AcDbEntity
  8
RACCORDO
100
AcDbPolyline
 62
253
  6
CONTINUOUS
 90
16
 70
0
 10
72.0069659271
 20
4.0058233631
 10
72.0036881398
 20
3.9856167578
 10
72.0008056538
 20
3.9656235667
 10
71.9983488614
 20
3.9460545927
 10
71.9963436662
 20
3.927116166
 10
71.9948112106
 20
3.9090079684
 10
71.9937676524
 20
3.891920928
 10
71.9932239946
 20
3.876035206
 10
71.9931859693
 20
3.8615182973
 10
71.9936539774
 20
3.8485232645
 10
71.9946230845
 20
3.8371871236
 10
71.9960830726
 20
3.8276294001
 10
71.9980185478
 20
3.819950868
 10
72.000409103
 20
3.8142324877
 10
72.0032295329
 20
3.8105345524
 10
72.0064500996
 20
3.8088960522
  0
LINE
  5
36A
100
AcDbEntity
  8
RACCORDO
100
AcDbLine
 62
7
  6
CONTINUOUS
 10
73.5103756105
 20
-3.5437134076
 11
71.923557029
 21
-3.823512337
  0
LINE
  5
36B
100
AcDbEntity
  8
RACCORDO
100
AcDbLine
 62
253
  6
CONTINUOUS
 10
73.5171002335
 20
-3.7405063924
 11
72.0069273615
 21
-4.005830094
  0
LINE
  5
36C
100
AcDbEntity
  8
RACCORDO
100
AcDbLine
 62
253
  6
CONTINUOUS
 10
72.0069274119
 20
-4.0058255728
 11
71.7582865653
 21
-4.0204736885
  0
LINE
  5
36D
100
AcDbEntity
  8
RACCORDO
100
AcDbLine
 62
253
  6
CONTINUOUS
 10
73.7597229961
 20
-3.2482502678
 11
73.7582869158
 21
-3.2482701106
  0
LWPOLYLINE
  5
36E
100
AcDbEntity
  8
RACCORDO
100
AcDbPolyline
 62
253
  6
CONTINUOUS
 90
3
 70
0
 10
73.9319848688
 20
-3.2481056686
 10
73.9084572002
 20
-3.2481094595
 10
73.7597229961
 20
-3.2482502678
  0
LWPOLYLINE
  5
36F
100
AcDbEntity
  8
RACCORDO
100
AcDbPolyline
 62
253
  6
CONTINUOUS
 90
16
 70
0
 10
72.0069662697
 20
-4.0058233724
 10
72.0036884988
 20
-3.9856168264
 10
72.0008060241
 20
-3.9656236925
 10
71.9983492373
 20
-3.9460547716
 10
71.996344042
 20
-3.9271163921
 10
71.9948115801
 20
-3.9090082342
 10
71.9937680093
 20
-3.8919212243
 10
71.9932243325
 20
-3.8760355224
 10
71.9931862821
 20
-3.8615186221
 10
71.9936542592
 20
-3.8485235848
 10
71.9946233295
 20
-3.8371874261
 10
71.9960832755
 20
-3.8276296706
 10
71.9980187038
 20
-3.8199510923
 10
72.000409208
 20
-3.8142326515
 10
72.0032295834
 20
-3.8105346417
 10
72.0064500929
 20
-3.8088960534
  0
LINE
  5
370
100
AcDbEntity
  8
RACCORDO
100
AcDbLine
 62
253
  6
CONTINUOUS
 10
71.9584623531
 20
40.4396140754
 11
71.9482720806
 21
42.5878268474
  0
LINE
  5
371
100
AcDbEntity
  8
RACCORDO
100
AcDbLine
 62
253
  6
CONTINUOUS
 10
71.9482720806
 20
42.5878268474
 11
71.9479874294
 21
42.6667588741
  0
LWPOLYLINE
  5
372
100
AcDbEntity
  8
RACCORDO
100
AcDbPolyline
 62
253
  6
CONTINUOUS
 90
3
 70
0
 10
71.9778856792
 20
34.1881211111
 10
71.972431196
 20
36.3166325187
 10
71.9584623531
 20
40.4396140754
  0
LINE
  5
373
100
AcDbEntity
  8
RACCORDO
100
AcDbLine
 62
7
  6
CONTINUOUS
 10
73.7582866646
 20
3.2482818658
 11
73.7582866646
 21
-3.2482701106
  0
LINE
  5
374
100
AcDbEntity
  8
RACCORDO
100
AcDbLine
 62
253
  6
CONTINUOUS
 10
73.9319849064
 20
3.2481056688
 11
73.9319849064
 21
-3.2481056688
  0
LWPOLYLINE
  5
375
100
AcDbEntity
  8
RACCORDO
100
AcDbPolyline
 62
253
  6
CONTINUOUS
 90
3
 70
0
 10
71.9585442811
 20
-40.4241897391
 10
71.9662315487
 20
-38.3739370751
 10
71.9779735164
 20
-34.1486000316
  0
LINE
  5
376
100
AcDbEntity
  8
RACCORDO
100
AcDbLine
 62
253
  6
CONTINUOUS
 10
71.9479874294
 20
-42.6667588741
 11
71.9585442811
 21
-40.4241897391
  0
LWPOLYLINE
  5
377
100
AcDbEntity
  8
RACCORDO
100
AcDbPolyline
 62
253
  6
CONTINUOUS
 90
19
 70
0
 10
73.9319849064
 20
-3.2481056688
 10
73.9304160742
 20
-3.2870236657
 10
73.9259502338
 20
-3.3252624658
 10
73.9185880668
 20
-3.3628201266
 10
73.9082589565
 20
-3.399899246
 10
73.895035179
 20
-3.4362932111
 10
73.879131852
 20
-3.4713865243
 10
73.86050892
 20
-3.5051615472
 10
73.839208502
 20
-3.5376325484
 10
73.8155688796
 20
-3.5682327023
 10
73.7895380853
 20
-3.5969435516
 10
73.7611701506
 20
-3.6237814518
 10
73.7309619741
 20
-3.6482330106
 10
73.6988942342
 20
-3.6702498153
 10
73.6649878149
 20
-3.689880054
 10
73.6297992903
 20
-3.7067566424
 10
73.5935142779
 20
-3.7207580498
 10
73.55594782
 20
-3.7320076257
 10
73.5171002335
 20
-3.7405063924
  0
LWPOLYLINE
  5
378
100
AcDbEntity
  8
RACCORDO
100
AcDbPolyline
 62
253
  6
CONTINUOUS
 90
16
 70
0
 10
73.5171003053
 20
3.7405063928
 10
73.5137478844
 20
3.7202416471
 10
73.5107281778
 20
3.7001936534
 10
73.50807322
 20
3.6805750917
 10
73.5058111764
 20
3.6615940862
 10
73.5039660438
 20
3.6434519976
 10
73.5025573963
 20
3.626341287
 10
73.5016001777
 20
3.610443474
 10
73.5011045426
 20
3.595927211
 10
73.5010757488
 20
3.5829464945
 10
73.5015141019
 20
3.5716390309
 10
73.5024149514
 20
3.5621247758
 10
73.5037687407
 20
3.5545046616
 10
73.505561108
 20
3.5488595265
 10
73.5077730389
 20
3.5452492572
 10
73.5103810679
 20
3.5437121533
  0
LINE
  5
379
100
AcDbEntity
  8
RACCORDO
100
AcDbLine
 62
253
  6
CONTINUOUS
 10
73.7582866646
 20
-0.0
 11
78.4158570389
 21
-0.0
  0
LWPOLYLINE
  5
37A
100
AcDbEntity
  8
RACCORDO
100
AcDbPolyline
 62
253
  6
CONTINUOUS
 90
16
 70
0
 10
73.5171002316
 20
-3.7405063923
 10
73.513747823
 20
-3.7202416474
 10
73.5107281285
 20
-3.7001936594
 10
73.5080731828
 20
-3.6805751076
 10
73.5058111507
 20
-3.6615941159
 10
73.5039660292
 20
-3.6434520444
 10
73.5025573922
 20
-3.6263413536
 10
73.5016001832
 20
-3.6104435627
 10
73.5011045569
 20
-3.5959273235
 10
73.5010757711
 20
-3.5829466319
 10
73.5015141311
 20
-3.5716391937
 10
73.5024149867
 20
-3.5621249642
 10
73.5037687811
 20
-3.5545048752
 10
73.5055611525
 20
-3.5488597646
 10
73.5077730865
 20
-3.5452495186
 10
73.5103811179
 20
-3.5437124366
  0
LWPOLYLINE
  5
37B
100
AcDbEntity
  8
0
100
AcDbPolyline
 62
7
  6
CONTINUOUS
 90
25
 70
0
 10
74.9494539722
 20
43.15383836
 10
74.9439312761
 20
43.2299921896
 10
74.9414287857
 20
43.2604891963
 10
74.9386049597
 20
43.2913697146
 10
74.9354694314
 20
43.3225397652
 10
74.9320608681
 20
43.3538095273
 10
74.9284496735
 20
43.3848998388
 10
74.9246848407
 20
43.415687924
 10
74.9207937556
 20
43.4459430807
 10
74.9168241508
 20
43.475237348
 10
74.9128296249
 20
43.5033952812
 10
74.9088536512
 20
43.5302373554
 10
74.904931835
 20
43.5553835462
 10
74.9010698425
 20
43.578688338
 10
74.897299599
 20
43.6001086173
 10
74.8936910899
 20
43.6194897939
 10
74.8902431856
 20
43.6368207006
 10
74.8869422676
 20
43.6520752534
 10
74.8838353001
 20
43.6651537125
 10
74.8809394485
 20
43.6760814214
 10
74.8782199603
 20
43.6849050137
 10
74.8756430957
 20
43.6916336009
 10
74.8731915808
 20
43.6963334909
 10
74.8708658737
 20
43.6990954607
 10
74.8686585047
 20
43.7
  0
LWPOLYLINE
  5
37C
100
AcDbEntity
  8
0
100
AcDbPolyline
 62
7
  6
CONTINUOUS
 90
10
 70
0
 10
77.2530357534
 20
23.4309921914
 10
77.1162778371
 20
25.6063318533
 10
76.950036658
 20
27.7824923744
 10
76.7545536675
 20
29.9579751648
 10
76.5302439583
 20
32.1299148631
 10
76.2772285781
 20
34.2981427318
 10
75.9951690662
 20
36.4651357298
 10
75.6839738515
 20
38.6306065532
 10
75.3439637651
 20
40.7915549709
 10
74.9752886545
 20
42.9462954714
  0
LINE
  5
37D
100
AcDbEntity
  8
0
100
AcDbLine
 62
7
  6
CONTINUOUS
 10
77.3062473229
 20
22.4460949145
 11
77.2530357534
 21
23.4309921914
  0
LINE
  5
37E
100
AcDbEntity
  8
0
100
AcDbLine
 62
7
  6
CONTINUOUS
 10
77.3360310008
 20
21.8549701508
 11
77.3062473229
 21
22.4460949145
  0
LWPOLYLINE
  5
37F
100
AcDbEntity
  8
RACCORDO
100
AcDbPolyline
 62
253
  6
CONTINUOUS
 90
10
 70
0
 10
78.2903743419
 20
-0.0
 10
78.2834100251
 20
2.4953686986
 10
78.2625204398
 20
4.990953557
 10
78.2277084722
 20
7.4866078342
 10
78.1789757724
 20
9.9822436501
 10
78.1163257622
 20
12.4776552442
 10
78.0397669242
 20
14.9725189328
 10
77.9493072565
 20
17.4666288405
 10
77.8449509846
 20
19.9598969394
 10
77.7267038716
 20
22.4521762792
  0
LWPOLYLINE
  5
380
100
AcDbEntity
  8
RACCORDO
100
AcDbPolyline
 62
253
  6
CONTINUOUS
 90
10
 70
0
 10
78.4158570389
 20
-0.0
 10
78.4088830965
 20
2.4961871185
 10
78.3879874916
 20
4.9924483792
 10
78.3531685825
 20
7.4887079782
 10
78.3044219433
 20
9.9850189041
 10
78.2417473173
 20
12.4811763968
 10
78.1651566894
 20
14.9767170205
 10
78.0746617338
 20
17.4714339503
 10
77.970265723
 20
19.9653779237
 10
77.8519754304
 20
22.4584709197
  0
LWPOLYLINE
  5
381
100
AcDbEntity
  8
0
100
AcDbPolyline
 62
7
  6
CONTINUOUS
 90
10
 70
0
 10
77.8711901312
 20
-0.0
 10
77.8645831447
 20
2.4289396872
 10
77.8447577122
 20
4.8580174531
 10
77.8117148398
 20
7.2871289148
 10
77.7654541958
 20
9.7162321294
 10
77.7059774696
 20
12.1451601406
 10
77.633291771
 20
14.5736210738
 10
77.5474035642
 20
17.0014480779
 10
77.4483152695
 20
19.4285992305
 10
77.3360310008
 20
21.8549701508
  0
LWPOLYLINE
  5
382
100
AcDbEntity
  8
0
100
AcDbPolyline
 62
7
  6
CONTINUOUS
 90
9
 70
0
 10
77.4483152695
 20
-19.4285992305
 10
77.5474035642
 20
-17.0014480778
 10
77.633291771
 20
-14.5736210737
 10
77.7059774696
 20
-12.1451601405
 10
77.7654541958
 20
-9.7162321294
 10
77.8117148398
 20
-7.2871289149
 10
77.8447577122
 20
-4.8580174532
 10
77.8645831447
 20
-2.4289396872
 10
77.8711901312
 20
-0.0
  0
LWPOLYLINE
  5
383
100
AcDbEntity
  8
RACCORDO
100
AcDbPolyline
 62
253
  6
CONTINUOUS
 90
9
 70
0
 10
77.8449509977
 20
-19.9598966446
 10
77.9493072697
 20
-17.4666285006
 10
78.0397669287
 20
-14.9725187977
 10
78.1163257467
 20
-12.4776557992
 10
78.178975739
 20
-9.9822451455
 10
78.2277084391
 20
-7.486609815
 10
78.26252042
 20
-4.9909553328
 10
78.2834100189
 20
-2.4953698141
 10
78.2903743419
 20
-0.0
  0
LINE
  5
384
100
AcDbEntity
  8
0
100
AcDbLine
 62
7
  6
CONTINUOUS
 10
77.3176406465
 20
-22.2237610349
 11
77.4483152695
 21
-19.4285992305
  0
LINE
  5
385
100
AcDbEntity
  8
0
100
AcDbLine
 62
7
  6
CONTINUOUS
 10
77.2641620269
 20
-23.2317047727
 11
77.3176406465
 21
-22.2237610349
  0
LINE
  5
386
100
AcDbEntity
  8
0
100
AcDbLine
 62
7
  6
CONTINUOUS
 10
77.2530357534
 20
-23.4309921914
 11
77.2641620269
 21
-23.2317047727
  0
LWPOLYLINE
  5
387
100
AcDbEntity
  8
0
100
AcDbPolyline
 62
7
  6
CONTINUOUS
 90
7
 70
0
 10
74.9439312761
 20
-43.2299921896
 10
74.9494539722
 20
-43.15383836
 10
74.9534136769
 20
-43.1092325277
 10
74.9579750523
 20
-43.0661789829
 10
74.9631400898
 20
-43.024674308
 10
74.9689106885
 20
-42.9847146011
 10
74.9752886545
 20
-42.9462954714
  0
LWPOLYLINE
  5
388
100
AcDbEntity
  8
RACCORDO
100
AcDbPolyline
 62
253
  6
CONTINUOUS
 90
3
 70
0
 10
73.9319849064
 20
3.2481056688
 10
73.7597227545
 20
3.2482502675
 10
73.7582866646
 20
3.2482701106
  0
LINE
  5
389
100
AcDbEntity
  8
RACCORDO
100
AcDbLine
 62
253
  6
CONTINUOUS
 10
72.0069273628
 20
4.0058300883
 11
73.5171002335
 21
3.7405063924
  0
LINE
  5
38A
100
AcDbEntity
  8
RACCORDO
100
AcDbLine
 62
7
  6
CONTINUOUS
 10
71.923557029
 20
3.823512337
 11
73.5103754101
 21
3.543713443
  0
LWPOLYLINE
  5
38B
100
AcDbEntity
  8
RACCORDO
100
AcDbPolyline
 62
253
  6
CONTINUOUS
 90
19
 70
0
 10
73.5171002335
 20
3.7405063924
 10
73.5559130943
 20
3.73202247
 10
73.593458639
 20
3.7207818902
 10
73.6297365595
 20
3.706783619
 10
73.6649402057
 20
3.6898995966
 10
73.6988755882
 20
3.6702560326
 10
73.7309609801
 20
3.6482341086
 10
73.7611603799
 20
3.6237965525
 10
73.7895082074
 20
3.5969808972
 10
73.8155277325
 20
3.5682819404
 10
73.8391772569
 20
3.5376668398
 10
73.8604964276
 20
3.5051705063
 10
73.8791301529
 20
3.4713905814
 10
73.8950256007
 20
3.4363403354
 10
73.9082335321
 20
3.4000099012
 10
73.9185541451
 20
3.3629630231
 10
73.9259202701
 20
3.3253890463
 10
73.9303974184
 20
3.2871026156
 10
73.9319849064
 20
3.2481056688
  0
LINE
  5
38C
100
AcDbEntity
  8
RACCORDO
100
AcDbLine
 62
253
  6
CONTINUOUS
 10
77.3199244191
 20
44.4495402194
 11
77.3282921293
 21
44.3423974828
  0
LWPOLYLINE
  5
38D
100
AcDbEntity
  8
RACCORDO
100
AcDbPolyline
 62
253
  6
CONTINUOUS
 90
15
 70
0
 10
77.5736346787
 20
25.085210071
 10
77.5002736205
 20
26.1415346609
 10
77.4168068988
 20
27.2389445806
 10
77.3225795962
 20
28.3755367484
 10
77.2166814249
 20
29.5522876982
 10
77.0978416545
 20
30.7730311604
 10
76.9652426853
 20
32.0358957709
 10
76.8178126571
 20
33.3411158357
 10
76.6535891515
 20
34.6954034064
 10
76.4715603918
 20
36.0966904566
 10
76.2706126202
 20
37.5443065016
 10
76.0482232161
 20
39.0465500601
 10
75.8026207072
 20
40.6046023684
 10
75.5330759439
 20
42.2126591205
 10
75.2384192787
 20
43.8679118876
  0
LWPOLYLINE
  5
38E
100
AcDbEntity
  8
RACCORDO
100
AcDbPolyline
 62
253
  6
CONTINUOUS
 90
15
 70
0
 10
77.6985994692
 20
25.0940015338
 10
77.6251833425
 20
26.1510562397
 10
77.5417013054
 20
27.2488658144
 10
77.4474126407
 20
28.386323899
 10
77.3413915624
 20
29.5642999099
 10
77.2224561116
 20
30.7856316463
 10
77.0897212656
 20
32.049432465
 10
76.9420869345
 20
33.3562437556
 10
76.7778110003
 20
34.7109962447
 10
76.5956561552
 20
36.1133063025
 10
76.3943926982
 20
37.563044616
 10
76.1719578309
 20
39.065449838
 10
75.9265865926
 20
40.6220141385
 10
75.6569748429
 20
42.2305009381
 10
75.3600452404
 20
43.8987385873
  0
LINE
  5
38F
100
AcDbEntity
  8
RACCORDO
100
AcDbLine
 62
253
  6
CONTINUOUS
 10
77.3282921293
 20
44.3423974828
 11
77.3364898795
 21
44.2264834521
  0
LINE
  5
390
100
AcDbEntity
  8
RACCORDO
100
AcDbLine
 62
253
  6
CONTINUOUS
 10
77.3364898795
 20
44.2264834521
 11
77.3443542355
 21
44.1037204579
  0
LINE
  5
391
100
AcDbEntity
  8
RACCORDO
100
AcDbLine
 62
253
  6
CONTINUOUS
 10
77.6479782627
 20
23.8964786093
 11
77.5736346787
 21
25.085210071
  0
LINE
  5
392
100
AcDbEntity
  8
RACCORDO
100
AcDbLine
 62
253
  6
CONTINUOUS
 10
77.7730890824
 20
23.9037019186
 11
77.6985994692
 21
25.0940015338
  0
LINE
  5
393
100
AcDbEntity
  8
RACCORDO
100
AcDbLine
 62
253
  6
CONTINUOUS
 10
77.3443542355
 20
44.1037204579
 11
77.351679734
 21
43.976122429
  0
LINE
  5
394
100
AcDbEntity
  8
RACCORDO
100
AcDbLine
 62
253
  6
CONTINUOUS
 10
77.6969795812
 20
23.0251997041
 11
77.6479782627
 21
23.8964786093
  0
LINE
  5
395
100
AcDbEntity
  8
RACCORDO
100
AcDbLine
 62
253
  6
CONTINUOUS
 10
77.8221662598
 20
23.0319230252
 11
77.7730890824
 21
23.9037019186
  0
LINE
  5
396
100
AcDbEntity
  8
RACCORDO
100
AcDbLine
 62
253
  6
CONTINUOUS
 10
77.351679734
 20
43.976122429
 11
77.3585120897
 21
43.8457940386
  0
LINE
  5
397
100
AcDbEntity
  8
RACCORDO
100
AcDbLine
 62
253
  6
CONTINUOUS
 10
77.7267038716
 20
22.4521762792
 11
77.6969795812
 21
23.0251997041
  0
LINE
  5
398
100
AcDbEntity
  8
RACCORDO
100
AcDbLine
 62
253
  6
CONTINUOUS
 10
77.8519754304
 20
22.4584709197
 11
77.8221662598
 21
23.0319230252
  0
LWPOLYLINE
  5
399
100
AcDbEntity
  8
RACCORDO
100
AcDbPolyline
 62
253
  6
CONTINUOUS
 90
12
 70
0
 10
79.8024968076
 20
22.6080915512
 10
79.9793443378
 20
18.7693858765
 10
80.1204347199
 20
15.0170795117
 10
80.230174962
 20
11.2637237866
 10
80.308568345
 20
7.509584833
 10
80.3556115907
 20
3.754924456
 10
80.3712948605
 20
0.0000001319
 10
80.3556115956
 20
-3.7549241486
 10
80.3085683547
 20
-7.5095844529
 10
80.230174974
 20
-11.2637233922
 10
80.1204347306
 20
-15.0170791905
 10
79.9793443445
 20
-18.7693856868
  0
LWPOLYLINE
  5
39A
100
AcDbEntity
  8
RACCORDO
100
AcDbPolyline
 62
253
  6
CONTINUOUS
 90
9
 70
0
 10
77.9702657362
 20
-19.9653776287
 10
78.074661747
 20
-17.4714336103
 10
78.1651566939
 20
-14.9767168854
 10
78.2417473019
 20
-12.4811769521
 10
78.3044219099
 20
-9.9850204
 10
78.3531685493
 20
-7.4887099595
 10
78.3879874718
 20
-4.9924501556
 10
78.4088830903
 20
-2.4961882344
 10
78.4158570389
 20
-0.0
  0
LINE
  5
39B
100
AcDbEntity
  8
RACCORDO
100
AcDbLine
 62
253
  6
CONTINUOUS
 10
79.9793443445
 20
-18.7693856868
 11
79.8024968076
 21
-22.6080915512
  0
LINE
  5
39C
100
AcDbEntity
  8
RACCORDO
100
AcDbLine
 62
253
  6
CONTINUOUS
 10
77.7152784929
 20
-22.6770325481
 11
77.8449509977
 21
-19.9598966446
  0
LINE
  5
39D
100
AcDbEntity
  8
RACCORDO
100
AcDbLine
 62
253
  6
CONTINUOUS
 10
77.8405052246
 20
-22.6836390937
 11
77.9702657362
 21
-19.9653776287
  0
LINE
  5
39E
100
AcDbEntity
  8
RACCORDO
100
AcDbLine
 62
253
  6
CONTINUOUS
 10
77.3585120897
 20
-43.8457940382
 11
77.3481011447
 21
-44.0403600021
  0
LINE
  5
39F
100
AcDbEntity
  8
RACCORDO
100
AcDbLine
 62
253
  6
CONTINUOUS
 10
77.6681230389
 20
-23.5480728174
 11
77.7152784929
 21
-22.6770325481
  0
LINE
  5
3A0
100
AcDbEntity
  8
RACCORDO
100
AcDbLine
 62
253
  6
CONTINUOUS
 10
77.7932534748
 20
-23.5551822046
 11
77.8405052246
 21
-22.6836390937
  0
LWPOLYLINE
  5
3A1
100
AcDbEntity
  8
RACCORDO
100
AcDbPolyline
 62
253
  6
CONTINUOUS
 90
10
 70
0
 10
79.8024968076
 20
-22.6080915512
 10
79.6659702688
 20
-24.9810868824
 10
79.4956448863
 20
-27.3519082004
 10
79.2915210851
 20
-29.7200634304
 10
79.0535445867
 20
-32.0850471668
 10
78.7817705224
 20
-34.4463804566
 10
78.4763634196
 20
-36.8036105772
 10
78.1373783897
 20
-39.1562580461
 10
77.7647611428
 20
-41.5038168431
 10
77.3585120914
 20
-43.845794038
  0
LINE
  5
3A2
100
AcDbEntity
  8
RACCORDO
100
AcDbLine
 62
253
  6
CONTINUOUS
 10
77.6376514679
 20
-24.0703010967
 11
77.6681230389
 21
-23.5480728174
  0
LINE
  5
3A3
100
AcDbEntity
  8
RACCORDO
100
AcDbLine
 62
253
  6
CONTINUOUS
 10
77.762744548
 20
-24.0778008692
 11
77.7932534748
 21
-23.5551822046
  0
LINE
  5
3A4
100
AcDbEntity
  8
RACCORDO
100
AcDbLine
 62
253
  6
CONTINUOUS
 10
77.3481011447
 20
-44.0403600021
 11
77.3404763073
 21
-44.1655310996
  0
LINE
  5
3A5
100
AcDbEntity
  8
RACCORDO
100
AcDbLine
 62
253
  6
CONTINUOUS
 10
77.3404763073
 20
-44.1655310996
 11
77.3324689439
 21
-44.2850115167
  0
LINE
  5
3A6
100
AcDbEntity
  8
RACCORDO
100
AcDbLine
 62
7
  6
CONTINUOUS
 10
80.0512534199
 20
-26.0452478368
 11
80.0517617384
 21
-26.0380796398
  0
LWPOLYLINE
  5
3A7
100
AcDbEntity
  8
RACCORDO
100
AcDbPolyline
 62
253
  6
CONTINUOUS
 90
17
 70
0
 10
77.3324689439
 20
-44.2850115167
 10
77.3241492636
 20
-44.3968505378
 10
77.3199537812
 20
-44.4492296003
 10
77.3157233261
 20
-44.4989787119
 10
77.311515452
 20
-44.5459035119
 10
77.3073361733
 20
-44.5898145888
 10
77.3031813982
 20
-44.6305381185
 10
77.2990959419
 20
-44.667918144
 10
77.2950923999
 20
-44.7018056865
 10
77.2911716267
 20
-44.7320630073
 10
77.2873633585
 20
-44.758569305
 10
77.2836866008
 20
-44.7812148352
 10
77.2801476021
 20
-44.7999136402
 10
77.2767590521
 20
-44.8145977175
 10
77.2735365292
 20
-44.8252047689
 10
77.2704991573
 20
-44.8316848737
 10
77.2676669302
 20
-44.8340076387
  0
LWPOLYLINE
  5
3A8
100
AcDbEntity
  8
RACCORDO
100
AcDbPolyline
 62
253
  6
CONTINUOUS
 90
9
 70
0
 10
75.3497734144
 20
-43.96548541
 10
75.3509068956
 20
-43.9570945396
 10
75.3520827516
 20
-43.94871633
 10
75.3533009846
 20
-43.9403507745
 10
75.354560513
 20
-43.9319956899
 10
75.3558624221
 20
-43.9236532464
 10
75.3572099642
 20
-43.9153299663
 10
75.3586042261
 20
-43.9070280188
 10
75.3600441273
 20
-43.8987452204
  0
LINE
  5
3A9
100
AcDbEntity
  8
RACCORDO
100
AcDbLine
 62
253
  6
CONTINUOUS
 10
75.3426811479
 20
-44.0140927348
 11
75.3497733958
 21
-43.9654854066
  0
LINE
  5
3AA
100
AcDbEntity
  8
RACCORDO
100
AcDbLine
 62
253
  6
CONTINUOUS
 10
75.3344450044
 20
-44.0685620538
 11
75.3426811479
 21
-44.0140927348
  0
LINE
  5
3AB
100
AcDbEntity
  8
RACCORDO
100
AcDbLine
 62
253
  6
CONTINUOUS
 10
75.3298025101
 20
-44.0984988936
 11
75.3344450044
 21
-44.0685620538
  0
LINE
  5
3AC
100
AcDbEntity
  8
RACCORDO
100
AcDbLine
 62
253
  6
CONTINUOUS
 10
75.2200763935
 20
-43.9692053144
 11
75.2232909223
 21
-43.9489881894
  0
LINE
  5
3AD
100
AcDbEntity
  8
RACCORDO
100
AcDbLine
 62
253
  6
CONTINUOUS
 10
71.7582865725
 20
4.0204736932
 11
72.0069274022
 21
4.0058255594
  0
LWPOLYLINE
  5
3AE
100
AcDbEntity
  8
RACCORDO
100
AcDbPolyline
 62
253
  6
CONTINUOUS
 90
43
 70
0
 10
71.9479874294
 20
42.6667588741
 10
71.9455350219
 20
42.6800403489
 10
71.9431638126
 20
42.6936214033
 10
71.9408739563
 20
42.7074896282
 10
71.9386587471
 20
42.7216717012
 10
71.936525245
 20
42.7361114837
 10
71.934494352
 20
42.7506718068
 10
71.9325708574
 20
42.7653260531
 10
71.9307505265
 20
42.7800678776
 10
71.9290408254
 20
42.7947928397
 10
71.9274437992
 20
42.8094794349
 10
71.9259579668
 20
42.8241163199
 10
71.9245855397
 20
42.8386179112
 10
71.9233271606
 20
42.8529658974
 10
71.922182681
 20
42.8671491307
 10
71.9211531192
 20
42.8810974391
 10
71.9202393267
 20
42.89478187
 10
71.9194408336
 20
42.9082084104
 10
71.9187566544
 20
42.9213623934
 10
71.9181848096
 20
42.9342398832
 10
71.917727589
 20
42.9468234534
 10
71.9173903778
 20
42.9590805594
 10
71.9171774206
 20
42.9709785383
 10
71.9170841773
 20
42.9825422713
 10
71.917102877
 20
42.9938233361
 10
71.9172305279
 20
43.0048036019
 10
71.9174696056
 20
43.0154894989
 10
71.9178206405
 20
43.0259572249
 10
71.9182817473
 20
43.0362205046
 10
71.9188544369
 20
43.0462346793
 10
71.9195443689
 20
43.0559807083
 10
71.9203517247
 20
43.0654560855
 10
71.9212759579
 20
43.0746321967
 10
71.9223216109
 20
43.0834565208
 10
71.9234895419
 20
43.0919214247
 10
71.9247785293
 20
43.1000137892
 10
71.9261899706
 20
43.1076852927
 10
71.9277265355
 20
43.1149371439
 10
71.929385221
 20
43.1217613324
 10
71.9311589114
 20
43.1281124887
 10
71.9330451438
 20
43.1339844946
 10
71.9350461139
 20
43.139399893
 10
71.9371617078
 20
43.1443663553
  0
LWPOLYLINE
  5
3AF
100
AcDbEntity
  8
0
100
AcDbPolyline
 62
7
  6
CONTINUOUS
 90
6
 70
0
 10
74.9752886545
 20
42.9462954714
 10
74.9689106885
 20
42.9847146011
 10
74.9631400898
 20
43.024674308
 10
74.9579750523
 20
43.0661789829
 10
74.9534136769
 20
43.1092325277
 10
74.9494539722
 20
43.15383836
  0
LINE
  5
3B0
100
AcDbEntity
  8
RACCORDO
100
AcDbLine
 62
253
  6
CONTINUOUS
 10
75.2232909223
 20
43.9489881893
 11
75.2202360345
 21
43.9682058305
  0
LINE
  5
3B1
100
AcDbEntity
  8
RACCORDO
100
AcDbLine
 62
253
  6
CONTINUOUS
 10
75.3373790165
 20
44.0493565993
 11
75.3287803418
 21
44.1050358604
  0
LINE
  5
3B2
100
AcDbEntity
  8
RACCORDO
100
AcDbLine
 62
253
  6
CONTINUOUS
 10
75.3448246783
 20
43.999598864
 11
75.3373790165
 21
44.0493565993
  0
LINE
  5
3B3
100
AcDbEntity
  8
RACCORDO
100
AcDbLine
 62
253
  6
CONTINUOUS
 10
75.3497742827
 20
43.9654793076
 11
75.3448246783
 21
43.999598864
  0
LWPOLYLINE
  5
3B4
100
AcDbEntity
  8
RACCORDO
100
AcDbPolyline
 62
253
  6
CONTINUOUS
 90
10
 70
0
 10
75.2232909223
 20
-43.9489881894
 10
75.2247372775
 20
-43.9399927616
 10
75.2262405495
 20
-43.9309939346
 10
75.2278008455
 20
-43.9219911161
 10
75.2294163051
 20
-43.9129816847
 10
75.2310889921
 20
-43.9039671334
 10
75.2328249197
 20
-43.8949529447
 10
75.2346261817
 20
-43.8859404561
 10
75.236490929
 20
-43.8769269856
 10
75.2384192787
 20
-43.8679118876
  0
LINE
  5
3B5
100
AcDbEntity
  8
RACCORDO
100
AcDbLine
 62
253
  6
CONTINUOUS
 10
75.3193499584
 20
-44.1641639508
 11
75.3298025101
 21
-44.0984988936
  0
LINE
  5
3B6
100
AcDbEntity
  8
RACCORDO
100
AcDbLine
 62
253
  6
CONTINUOUS
 10
75.2070376741
 20
-44.0495194334
 11
75.2200763935
 21
-43.9692053144
  0
LINE
  5
3B7
100
AcDbEntity
  8
RACCORDO
100
AcDbLine
 62
253
  6
CONTINUOUS
 10
75.310418196
 20
-44.2185382844
 11
75.3193499584
 21
-44.1641639508
  0
LINE
  5
3B8
100
AcDbEntity
  8
RACCORDO
100
AcDbLine
 62
253
  6
CONTINUOUS
 10
75.193146805
 20
-44.1327006895
 11
75.2070376741
 21
-44.0495194334
  0
LINE
  5
3B9
100
AcDbEntity
  8
RACCORDO
100
AcDbLine
 62
253
  6
CONTINUOUS
 10
75.3005217007
 20
-44.277163941
 11
75.310418196
 21
-44.2185382844
  0
LWPOLYLINE
  5
3BA
100
AcDbEntity
  8
0
100
AcDbPolyline
 62
7
  6
CONTINUOUS
 90
10
 70
0
 10
74.9752886545
 20
-42.9462954714
 10
75.3439637653
 20
-40.7915549701
 10
75.6839738517
 20
-38.6306065519
 10
75.9951690664
 20
-36.4651357284
 10
76.2772285782
 20
-34.2981427309
 10
76.5302439583
 20
-32.1299148632
 10
76.7545536674
 20
-29.9579751656
 10
76.9500366579
 20
-27.7824923752
 10
77.1162778371
 20
-25.6063318539
 10
77.2530357534
 20
-23.4309921914
  0
LINE
  5
3BB
100
AcDbEntity
  8
RACCORDO
100
AcDbLine
 62
253
  6
CONTINUOUS
 10
75.1793628094
 20
-44.2127283578
 11
75.193146805
 21
-44.1327006895
  0
LINE
  5
3BC
100
AcDbEntity
  8
RACCORDO
100
AcDbLine
 62
253
  6
CONTINUOUS
 10
75.2897232838
 20
-44.339357734
 11
75.3005217007
 21
-44.277163941
  0
LINE
  5
3BD
100
AcDbEntity
  8
RACCORDO
100
AcDbLine
 62
253
  6
CONTINUOUS
 10
75.1670014056
 20
-44.2824592626
 11
75.1793628094
 21
-44.2127283578
  0
LWPOLYLINE
  5
3BE
100
AcDbEntity
  8
RACCORDO
100
AcDbPolyline
 62
253
  6
CONTINUOUS
 90
22
 70
0
 10
75.2384192787
 20
-43.8679118876
 10
75.3604340906
 20
-43.1943968624
 10
75.4832397032
 20
-42.499686446
 10
75.6065872795
 20
-41.7836814535
 10
75.7299956776
 20
-41.0476266488
 10
75.8534232909
 20
-40.2901283827
 10
75.977211461
 20
-39.5071091345
 10
76.1010060687
 20
-38.698498037
 10
76.2244361447
 20
-37.864227526
 10
76.3476816379
 20
-37.0001764708
 10
76.4702875946
 20
-36.1061607373
 10
76.5917335974
 20
-35.1823050804
 10
76.7119439712
 20
-34.2249316581
 10
76.8303968556
 20
-33.2332635653
 10
76.9463861619
 20
-32.2082004305
 10
77.0594346178
 20
-31.1486136573
 10
77.1688888874
 20
-30.0546173271
 10
77.2740486438
 20
-28.9265593745
 10
77.374281493
 20
-27.763748524
 10
77.4688455018
 20
-26.5662525711
 10
77.5569118429
 20
-25.3349081367
 10
77.6376514679
 20
-24.0703010967
  0
LWPOLYLINE
  5
3BF
100
AcDbEntity
  8
RACCORDO
100
AcDbPolyline
 62
253
  6
CONTINUOUS
 90
22
 70
0
 10
75.3600441273
 20
-43.8987452204
 10
75.4836082346
 20
-43.2165370574
 10
75.606514738
 20
-42.5212737486
 10
75.7299790212
 20
-41.8046571101
 10
75.8534896283
 20
-41.0680269168
 10
75.977005284
 20
-40.3099795938
 10
76.100890632
 20
-39.5263576633
 10
76.224790772
 20
-38.7171126121
 10
76.3483188301
 20
-37.8822162503
 10
76.4716522389
 20
-37.0175254049
 10
76.5943580889
 20
-36.1228025168
 10
76.7159141653
 20
-35.1982036417
 10
76.8362161456
 20
-34.240163934
 10
76.9547661765
 20
-33.2477142144
 10
77.0708680491
 20
-32.2217495886
 10
77.1840150902
 20
-31.1614990477
 10
77.2935838379
 20
-30.0666815894
 10
77.3988561668
 20
-28.9375337068
 10
77.4991387871
 20
-27.774068203
 10
77.5937136862
 20
-26.5762897414
 10
77.6818367284
 20
-25.344195664
 10
77.762744548
 20
-24.0778008692
  0
LINE
  5
3C0
100
AcDbEntity
  8
RACCORDO
100
AcDbLine
 62
253
  6
CONTINUOUS
 10
75.2782611699
 20
-44.4033236958
 11
75.2897232838
 21
-44.339357734
  0
LINE
  5
3C1
100
AcDbEntity
  8
RACCORDO
100
AcDbLine
 62
253
  6
CONTINUOUS
 10
75.1573045346
 20
-44.3356958062
 11
75.1670014056
 21
-44.2824592626
  0
LINE
  5
3C2
100
AcDbEntity
  8
RACCORDO
100
AcDbLine
 62
253
  6
CONTINUOUS
 10
75.2706072051
 20
-44.4447414396
 11
75.2782611699
 21
-44.4033236958
  0
LINE
  5
3C3
100
AcDbEntity
  8
RACCORDO
100
AcDbLine
 62
253
  6
CONTINUOUS
 10
75.1480523184
 20
-44.38499293
 11
75.1573045346
 21
-44.3356958062
  0
LINE
  5
3C4
100
AcDbEntity
  8
RACCORDO
100
AcDbLine
 62
253
  6
CONTINUOUS
 10
75.2633258788
 20
-44.483053421
 11
75.2706072051
 21
-44.4447414396
  0
LINE
  5
3C5
100
AcDbEntity
  8
RACCORDO
100
AcDbLine
 62
253
  6
CONTINUOUS
 10
75.1427025076
 20
-44.4126137124
 11
75.1480523184
 21
-44.38499293
  0
LINE
  5
3C6
100
AcDbEntity
  8
RACCORDO
100
AcDbLine
 62
253
  6
CONTINUOUS
 10
75.2568823322
 20
-44.5158135771
 11
75.2633258788
 21
-44.483053421
  0
LINE
  5
3C7
100
AcDbEntity
  8
RACCORDO
100
AcDbLine
 62
253
  6
CONTINUOUS
 10
75.1380242141
 20
-44.4360981958
 11
75.1427025076
 21
-44.4126137124
  0
LINE
  5
3C8
100
AcDbEntity
  8
RACCORDO
100
AcDbLine
 62
253
  6
CONTINUOUS
 10
75.1339592489
 20
-44.4558381756
 11
75.1380242141
 21
-44.4360981958
  0
LWPOLYLINE
  5
3C9
100
AcDbEntity
  8
RACCORDO
100
AcDbPolyline
 62
253
  6
CONTINUOUS
 90
6
 70
0
 10
75.1246093869
 20
-44.4980233178
 10
75.1259094675
 20
-44.4925129995
 10
75.1273038683
 20
-44.4864544087
 10
75.1287999922
 20
-44.4797920137
 10
75.1304035832
 20
-44.4724987885
 10
75.1339592489
 20
-44.4558381756
  0
LWPOLYLINE
  5
3CA
100
AcDbEntity
  8
RACCORDO
100
AcDbPolyline
 62
253
  6
CONTINUOUS
 90
18
 70
0
 10
75.1288987499
 20
44.4793531791
 10
75.1273038751
 20
44.4864494089
 10
75.1258228291
 20
44.4928830532
 10
75.1244487802
 20
44.4986944677
 10
75.1231757487
 20
44.5039125756
 10
75.1219948519
 20
44.5085979558
 10
75.1208999284
 20
44.5127818047
 10
75.1198858477
 20
44.5164937545
 10
75.1189466169
 20
44.5197847742
 10
75.118077423
 20
44.5226819731
 10
75.1172734613
 20
44.5252099044
 10
75.1165298756
 20
44.5274096476
 10
75.1158434454
 20
44.5293043807
 10
75.1152092266
 20
44.5309146814
 10
75.114620907
 20
44.5322716641
 10
75.1140744589
 20
44.5333959951
 10
75.1135675432
 20
44.5343010774
 10
75.1130970498
 20
44.5350035377
  0
LINE
  5
3CB
100
AcDbEntity
  8
RACCORDO
100
AcDbLine
 62
253
  6
CONTINUOUS
 10
75.1324739647
 20
44.4628721432
 11
75.1288987499
 21
44.4793531791
  0
LWPOLYLINE
  5
3CC
100
AcDbEntity
  8
RACCORDO
100
AcDbPolyline
 62
253
  6
CONTINUOUS
 90
22
 70
0
 10
75.2495586476
 20
44.5514250909
 10
75.2469701972
 20
44.563494212
 10
75.2445635863
 20
44.5744013693
 10
75.2423285786
 20
44.5842501773
 10
75.2402558917
 20
44.5930953646
 10
75.23833254
 20
44.6010027352
 10
75.2365460499
 20
44.6080745464
 10
75.2348886656
 20
44.6143584753
 10
75.2333517572
 20
44.6198951424
 10
75.2319246242
 20
44.6247595945
 10
75.2305974879
 20
44.6289988578
 10
75.229364562
 20
44.6326493045
 10
75.2282226737
 20
44.6357616917
 10
75.2271648298
 20
44.6383788627
 10
75.2261820653
 20
44.6405430858
 10
75.2252690407
 20
44.6422999685
 10
75.224419485
 20
44.6436851334
 10
75.2236273267
 20
44.6447287011
 10
75.222888814
 20
44.6454611498
 10
75.2221995455
 20
44.6459093982
 10
75.2215541558
 20
44.6460984759
 10
75.220947919
 20
44.646053514
  0
LWPOLYLINE
  5
3CD
100
AcDbEntity
  8
RACCORDO
100
AcDbPolyline
 62
253
  6
CONTINUOUS
 90
10
 70
0
 10
75.2384192787
 20
43.8679118876
 10
75.2364923745
 20
43.87691974
 10
75.2346286379
 20
43.8859280503
 10
75.2328279564
 20
43.8949374367
 10
75.2310920995
 20
43.9039508396
 10
75.229419063
 20
43.9129666038
 10
75.2278030907
 20
43.9219783691
 10
75.2262422045
 20
43.9309843462
 10
75.2247381833
 20
43.939987427
 10
75.2232909223
 20
43.9489881893
  0
LINE
  5
3CE
100
AcDbEntity
  8
RACCORDO
100
AcDbLine
 62
253
  6
CONTINUOUS
 10
75.1366202528
 20
44.4429880574
 11
75.1324739647
 21
44.4628721432
  0
LINE
  5
3CF
100
AcDbEntity
  8
RACCORDO
100
AcDbLine
 62
253
  6
CONTINUOUS
 10
75.2553702967
 20
44.5233316514
 11
75.2495586476
 21
44.5514250909
  0
LINE
  5
3D0
100
AcDbEntity
  8
RACCORDO
100
AcDbLine
 62
253
  6
CONTINUOUS
 10
75.1414422752
 20
44.4190128486
 11
75.1366202528
 21
44.4429880574
  0
LINE
  5
3D1
100
AcDbEntity
  8
RACCORDO
100
AcDbLine
 62
253
  6
CONTINUOUS
 10
75.2619921384
 20
44.4899110274
 11
75.2553702967
 21
44.5233316514
  0
LINE
  5
3D2
100
AcDbEntity
  8
RACCORDO
100
AcDbLine
 62
253
  6
CONTINUOUS
 10
75.1469469838
 20
44.390747412
 11
75.1414422752
 21
44.4190128486
  0
LINE
  5
3D3
100
AcDbEntity
  8
RACCORDO
100
AcDbLine
 62
253
  6
CONTINUOUS
 10
75.2693371937
 20
44.4515225984
 11
75.2619921384
 21
44.4899110274
  0
LINE
  5
3D4
100
AcDbEntity
  8
RACCORDO
100
AcDbLine
 62
253
  6
CONTINUOUS
 10
75.153061025
 20
44.3585152829
 11
75.1469469838
 21
44.390747412
  0
LINE
  5
3D5
100
AcDbEntity
  8
RACCORDO
100
AcDbLine
 62
253
  6
CONTINUOUS
 10
75.2769543923
 20
44.4104555619
 11
75.2693371937
 21
44.4515225984
  0
LINE
  5
3D6
100
AcDbEntity
  8
RACCORDO
100
AcDbLine
 62
253
  6
CONTINUOUS
 10
75.1625886342
 20
44.3068608443
 11
75.153061025
 21
44.3585152829
  0
LINE
  5
3D7
100
AcDbEntity
  8
RACCORDO
100
AcDbLine
 62
253
  6
CONTINUOUS
 10
75.2878972424
 20
44.3496886351
 11
75.2769543923
 21
44.4104555619
  0
LINE
  5
3D8
100
AcDbEntity
  8
RACCORDO
100
AcDbLine
 62
253
  6
CONTINUOUS
 10
75.1744404538
 20
44.2407310697
 11
75.1625886342
 21
44.3068608443
  0
LWPOLYLINE
  5
3D9
100
AcDbEntity
  8
RACCORDO
100
AcDbPolyline
 62
253
  6
CONTINUOUS
 90
9
 70
0
 10
75.3600452404
 20
43.8987385873
 10
75.3586061241
 20
43.9070166168
 10
75.3572123186
 20
43.9153156594
 10
75.3558648051
 20
43.9236383992
 10
75.3545625957
 20
43.9319821664
 10
75.3533027348
 20
43.9403389372
 10
75.3520842363
 20
43.9487060411
 10
75.3509080826
 20
43.9570861617
 10
75.3497742716
 20
43.9654793055
  0
LWPOLYLINE
  5
3DA
100
AcDbEntity
  8
RACCORDO
100
AcDbPolyline
 62
253
  6
CONTINUOUS
 90
10
 70
0
 10
77.3585120913
 20
43.8457940385
 10
77.7647610867
 20
41.5038172084
 10
78.1373782995
 20
39.1562586394
 10
78.476363317
 20
36.8036112606
 10
78.7817704394
 20
34.446381028
 10
79.0535445449
 20
32.0850474864
 10
79.2915210754
 20
29.7200635476
 10
79.495644889
 20
27.3519082284
 10
79.6659702747
 20
24.9810868712
 10
79.8024968076
 20
22.6080915512
  0
LINE
  5
3DB
100
AcDbEntity
  8
RACCORDO
100
AcDbLine
 62
253
  6
CONTINUOUS
 10
75.2980565807
 20
44.2915155579
 11
75.2878972424
 21
44.3496886351
  0
LINE
  5
3DC
100
AcDbEntity
  8
RACCORDO
100
AcDbLine
 62
253
  6
CONTINUOUS
 10
75.1879081761
 20
44.163401616
 11
75.1744404538
 21
44.2407310697
  0
LINE
  5
3DD
100
AcDbEntity
  8
RACCORDO
100
AcDbLine
 62
253
  6
CONTINUOUS
 10
75.310445557
 20
44.2183604166
 11
75.2980565807
 21
44.2915155579
  0
LINE
  5
3DE
100
AcDbEntity
  8
RACCORDO
100
AcDbLine
 62
253
  6
CONTINUOUS
 10
75.2018958765
 20
44.0806089201
 11
75.1879081761
 21
44.163401616
  0
LINE
  5
3DF
100
AcDbEntity
  8
RACCORDO
100
AcDbLine
 62
253
  6
CONTINUOUS
 10
75.32145269
 20
44.1511444105
 11
75.310445557
 21
44.2183604166
  0
LINE
  5
3E0
100
AcDbEntity
  8
RACCORDO
100
AcDbLine
 62
253
  6
CONTINUOUS
 10
75.216997457
 20
43.9883872464
 11
75.2018958765
 21
44.0806089201
  0
LINE
  5
3E1
100
AcDbEntity
  8
RACCORDO
100
AcDbLine
 62
253
  6
CONTINUOUS
 10
75.2202360345
 20
43.9682058305
 11
75.216997457
 21
43.9883872464
  0
LINE
  5
3E2
100
AcDbEntity
  8
RACCORDO
100
AcDbLine
 62
253
  6
CONTINUOUS
 10
75.3287803418
 20
44.1050358604
 11
75.32145269
 21
44.1511444105
  0
LWPOLYLINE
  5
3E3
100
AcDbEntity
  8
RACCORDO
100
AcDbPolyline
 62
253
  6
CONTINUOUS
 90
10
 70
0
 10
71.9959911702
 20
22.8073899216
 10
72.5652792333
 20
22.9066563133
 10
73.1399635131
 20
22.9986652387
 10
73.7194449819
 20
23.0833221801
 10
74.3035143665
 20
23.1605815851
 10
74.8911924011
 20
23.2302907756
 10
75.4807061488
 20
23.2922400594
 10
76.0710534545
 20
23.3463485619
 10
76.6620265654
 20
23.3926141031
 10
77.2530357534
 20
23.4309921914
  0
LWPOLYLINE
  5
3E4
100
AcDbEntity
  8
RACCORDO
100
AcDbPolyline
 62
253
  6
CONTINUOUS
 90
10
 70
0
 10
71.996845783
 20
21.9185744023
 10
72.5723089155
 20
22.0145874979
 10
73.1529247563
 20
22.1035344509
 10
73.7381074397
 20
22.1853269685
 10
74.3276432783
 20
22.2599215235
 10
74.920585228
 20
22.3271770153
 10
75.5152310194
 20
22.3869006906
 10
76.1106138968
 20
22.4390174955
 10
76.7065244259
 20
22.4835241436
 10
77.3023895978
 20
22.5203789262
  0
LWPOLYLINE
  5
3E5
100
AcDbEntity
  8
RACCORDO
100
AcDbPolyline
 62
253
  6
CONTINUOUS
 90
10
 70
0
 10
71.9974364845
 20
21.2702620638
 10
72.5771516649
 20
21.3637476626
 10
73.1618394303
 20
21.4503124644
 10
73.7509239897
 20
21.5298725562
 10
74.3441889107
 20
21.60238581
 10
74.9407110324
 20
21.6677192812
 10
75.5388398637
 20
21.7256922043
 10
76.1376347246
 20
21.7762336572
 10
76.7368852842
 20
21.8193395555
 10
77.3360310008
 20
21.8549701508
  0
LINE
  5
3E6
100
AcDbEntity
  8
RACCORDO
100
AcDbLine
 62
253
  6
CONTINUOUS
 10
77.6376515174
 20
24.0703010996
 11
77.7627445478
 21
24.0778008693
  0
LINE
  5
3E7
100
AcDbEntity
  8
RACCORDO
100
AcDbLine
 62
253
  6
CONTINUOUS
 10
78.0610705461
 20
22.5203789087
 11
77.7241293483
 21
22.5033846483
  0
LINE
  5
3E8
100
AcDbEntity
  8
RACCORDO
100
AcDbLine
 62
253
  6
CONTINUOUS
 10
80.2582866646
 20
22.6310194482
 11
79.8024968076
 21
22.6080915512
  0
LINE
  5
3E9
100
AcDbEntity
  8
RACCORDO
100
AcDbLine
 62
253
  6
CONTINUOUS
 10
80.2626985591
 20
22.5432326076
 11
79.8069038144
 21
22.5203789087
  0
LINE
  5
3EA
100
AcDbEntity
  8
RACCORDO
100
AcDbLine
 62
253
  6
CONTINUOUS
 10
77.7267038716
 20
22.4521762792
 11
77.8519754304
 21
22.4584709197
  0
LINE
  5
3EB
100
AcDbEntity
  8
RACCORDO
100
AcDbLine
 62
253
  6
CONTINUOUS
 10
79.8069038144
 20
22.5203789087
 11
78.0610705461
 21
22.5203789087
  0
LWPOLYLINE
  5
3EC
100
AcDbEntity
  8
RACCORDO
100
AcDbPolyline
 62
253
  6
CONTINUOUS
 90
4
 70
0
 10
71.7582866646
 20
21.2704938486
 10
71.7595307675
 20
21.2704723138
 10
71.7632527578
 20
21.2704509577
 10
71.9974364845
 20
21.2702620638
  0
LWPOLYLINE
  5
3ED
100
AcDbEntity
  8
RACCORDO
100
AcDbPolyline
 62
253
  6
CONTINUOUS
 90
4
 70
0
 10
71.7582866646
 20
21.9188168495
 10
71.7595271107
 20
21.9187943477
 10
71.7632381911
 20
21.9187720321
 10
71.996845783
 20
21.9185744023
  0
LWPOLYLINE
  5
3EE
100
AcDbEntity
  8
RACCORDO
100
AcDbPolyline
 62
253
  6
CONTINUOUS
 90
4
 70
0
 10
71.7582866845
 20
22.8076446486
 10
71.7595218458
 20
22.807621043
 10
71.763217161
 20
22.8075976318
 10
71.9959911723
 20
22.8073899216
  0
LWPOLYLINE
  5
3EF
100
AcDbEntity
  8
RACCORDO
100
AcDbPolyline
 62
253
  6
CONTINUOUS
 90
16
 70
0
 10
75.1130970498
 20
-44.5350035377
 10
75.1135456711
 20
-44.5343365048
 10
75.1140251919
 20
-44.5334901917
 10
75.1145379604
 20
-44.5324520403
 10
75.1150851157
 20
-44.5312126895
 10
75.1156702437
 20
-44.5297562093
 10
75.116300042
 20
-44.5280565496
 10
75.116978971
 20
-44.5260969921
 10
75.1177090658
 20
-44.5238594493
 10
75.1184944808
 20
-44.5213099511
 10
75.1193389033
 20
-44.5184293339
 10
75.1202462933
 20
-44.5151956986
 10
75.1212222254
 20
-44.5115655278
 10
75.1222714471
 20
-44.507513027
 10
75.1233984238
 20
-44.5030144044
 10
75.1246093869
 20
-44.4980233178
  0
LINE
  5
3F0
100
AcDbEntity
  8
RACCORDO
100
AcDbLine
 62
7
  6
CONTINUOUS
 10
71.9595752637
 20
-43.1731471597
 11
71.9597957223
 21
-43.1728755978
  0
LINE
  5
3F1
100
AcDbEntity
  8
RACCORDO
100
AcDbLine
 62
7
  6
CONTINUOUS
 10
71.9597957223
 20
43.1728755978
 11
71.959575469
 21
43.1731472314
  0
LWPOLYLINE
  5
3F2
100
AcDbEntity
  8
RACCORDO
100
AcDbPolyline
 62
253
  6
CONTINUOUS
 90
13
 70
0
 10
75.1130970498
 20
44.5350035377
 10
75.1127637325
 20
44.535482794
 10
75.1124720784
 20
44.5359962429
 10
75.1122227498
 20
44.5365403611
 10
75.1120150084
 20
44.5371061183
 10
75.1118509409
 20
44.5376953825
 10
75.1117355476
 20
44.5383204457
 10
75.1116692918
 20
44.5389758563
 10
75.1116533264
 20
44.5396584944
 10
75.1116938901
 20
44.540383069
 10
75.1117937505
 20
44.5411508382
 10
75.1119520972
 20
44.5419501825
 10
75.1121699325
 20
44.5427758029
  0
LWPOLYLINE
  5
3F3
100
AcDbEntity
  8
RACCORDO
100
AcDbPolyline
 62
253
  6
CONTINUOUS
 90
15
 70
0
 10
77.2676669302
 20
44.8340076387
 10
77.2705030438
 20
44.8316821307
 10
77.273540087
 20
44.8252004766
 10
77.2767588692
 20
44.8146013812
 10
77.2801394053
 20
44.7999510384
 10
77.2836692302
 20
44.7813152536
 10
77.2873405667
 20
44.7587335475
 10
77.2911476162
 20
44.7322603731
 10
77.2950680737
 20
44.7020124516
 10
77.2990706965
 20
44.6681326608
 10
77.303154528
 20
44.6307718195
 10
77.3073075873
 20
44.5900696518
 10
77.3114857704
 20
44.5461792985
 10
77.3156935227
 20
44.4992724169
 10
77.3199244191
 20
44.4495402194
  0
LWPOLYLINE
  5
3F4
100
AcDbEntity
  8
0
100
AcDbPolyline
 62
7
  6
CONTINUOUS
 90
24
 70
0
 10
74.8686585047
 20
-43.7
 10
74.8708658737
 20
-43.6990954607
 10
74.8731915808
 20
-43.6963334909
 10
74.8756430957
 20
-43.6916336009
 10
74.8782199603
 20
-43.6849050137
 10
74.8809394485
 20
-43.6760814214
 10
74.8838353001
 20
-43.6651537125
 10
74.8869422676
 20
-43.6520752534
 10
74.8902431856
 20
-43.6368207006
 10
74.8936910899
 20
-43.6194897939
 10
74.897299599
 20
-43.6001086173
 10
74.9010698425
 20
-43.578688338
 10
74.904931835
 20
-43.5553835462
 10
74.9088536512
 20
-43.5302373554
 10
74.9128296249
 20
-43.5033952812
 10
74.9168241508
 20
-43.475237348
 10
74.9207937556
 20
-43.4459430807
 10
74.9246848407
 20
-43.415687924
 10
74.9284496735
 20
-43.3848998388
 10
74.9320608681
 20
-43.3538095273
 10
74.9354694314
 20
-43.3225397652
 10
74.9386049597
 20
-43.2913697146
 10
74.9414287857
 20
-43.2604891963
 10
74.9439312761
 20
-43.2299921896
  0
LINE
  5
3F5
100
AcDbEntity
  8
RACCORDO
100
AcDbLine
 62
253
  6
CONTINUOUS
 10
72.4102700402
 20
43.3157128267
 11
72.4129271067
 21
43.3167892487
  0
LINE
  5
3F6
100
AcDbEntity
  8
RACCORDO
100
AcDbLine
 62
7
  6
CONTINUOUS
 10
75.427134158
 20
44.7
 11
75.2209470765
 21
44.6460532936
  0
LINE
  5
3F7
100
AcDbEntity
  8
SUPERFICI
100
AcDbLine
 62
7
  6
CONTINUOUS
 10
72.8354606885
 20
43.4296678656
 11
72.5130339977
 21
43.3462334324
  0
LINE
  5
3F8
100
AcDbEntity
  8
RACCORDO
100
AcDbLine
 62
253
  6
CONTINUOUS
 10
72.643603362
 20
43.3799249451
 11
72.6459761416
 21
43.3808249511
  0
LINE
  5
3F9
100
AcDbEntity
  8
RACCORDO
100
AcDbLine
 62
253
  6
CONTINUOUS
 10
72.8810598445
 20
43.4387448692
 11
72.8831753866
 21
43.4394916297
  0
LINE
  5
3FA
100
AcDbEntity
  8
RACCORDO
100
AcDbLine
 62
253
  6
CONTINUOUS
 10
73.1221586905
 20
43.4920160974
 11
73.1240366934
 21
43.4926282472
  0
LINE
  5
3FB
100
AcDbEntity
  8
RACCORDO
100
AcDbLine
 62
253
  6
CONTINUOUS
 10
75.556708306
 20
44.0035194839
 11
75.3497742827
 21
43.9654793076
  0
LINE
  5
3FC
100
AcDbEntity
  8
RACCORDO
100
AcDbLine
 62
253
  6
CONTINUOUS
 10
75.2384192774
 20
43.8679118873
 11
75.3615296707
 21
43.8904815641
  0
LINE
  5
3FD
100
AcDbEntity
  8
RACCORDO
100
AcDbLine
 62
253
  6
CONTINUOUS
 10
77.8069600601
 20
43.926800663
 11
77.3585120888
 21
43.8457940521
  0
LINE
  5
3FE
100
AcDbEntity
  8
RACCORDO
100
AcDbLine
 62
253
  6
CONTINUOUS
 10
73.3660061729
 20
43.5395271435
 11
73.3676380596
 21
43.5400160911
  0
LINE
  5
3FF
100
AcDbEntity
  8
RACCORDO
100
AcDbLine
 62
253
  6
CONTINUOUS
 10
75.2414421225
 20
43.9512900926
 11
75.3497739468
 21
43.9654816289
  0
LINE
  5
400
100
AcDbEntity
  8
RACCORDO
100
AcDbLine
 62
253
  6
CONTINUOUS
 10
75.2232909205
 20
43.9489881891
 11
75.2414421225
 21
43.9512900926
  0
LWPOLYLINE
  5
401
100
AcDbEntity
  8
SUPERFICI
100
AcDbPolyline
 62
7
  6
CONTINUOUS
 90
6
 70
0
 10
74.5116669989
 20
43.6828112352
 10
74.1650400789
 20
43.6539349514
 10
73.823395565
 20
43.6137831792
 10
73.4888017957
 20
43.5629869115
 10
73.1605751442
 20
43.5018003659
 10
72.8354606885
 20
43.4296678656
  0
LINE
  5
402
100
AcDbEntity
  8
RACCORDO
100
AcDbLine
 62
253
  6
CONTINUOUS
 10
74.615422521
 20
43.6865350413
 11
74.8686585047
 21
43.7
  0
LINE
  5
403
100
AcDbEntity
  8
SUPERFICI
100
AcDbLine
 62
7
  6
CONTINUOUS
 10
74.8625283664
 20
43.7
 11
74.5116669989
 21
43.6828112352
  0
LINE
  5
404
100
AcDbEntity
  8
0
100
AcDbLine
 62
7
  6
CONTINUOUS
 10
74.8686585047
 20
43.7
 11
74.8625283664
 21
43.7
  0
LINE
  5
405
100
AcDbEntity
  8
RACCORDO
100
AcDbLine
 62
253
  6
CONTINUOUS
 10
71.7817469492
 20
42.6670719255
 11
71.9479874473
 21
42.6667588742
  0
LINE
  5
406
100
AcDbEntity
  8
RACCORDO
100
AcDbLine
 62
253
  6
CONTINUOUS
 10
71.8105273878
 20
42.43259477
 11
71.9490556092
 21
42.4321251336
  0
LWPOLYLINE
  5
407
100
AcDbEntity
  8
RACCORDO
100
AcDbPolyline
 62
253
  6
CONTINUOUS
 90
4
 70
0
 10
71.7582866646
 20
42.6672957805
 10
71.759771236
 20
42.6672384024
 10
71.7642102301
 20
42.6671815942
 10
71.7817469492
 20
42.6670719255
  0
LWPOLYLINE
  5
408
100
AcDbEntity
  8
RACCORDO
100
AcDbPolyline
 62
253
  6
CONTINUOUS
 90
6
 70
0
 10
71.7582866646
 20
42.43331537
 10
71.7597807415
 20
42.4331879858
 10
71.7642480917
 20
42.4330618705
 10
71.7716442182
 20
42.4329382801
 10
71.7818954516
 20
42.4328184457
 10
71.8105273878
 20
42.43259477
  0
LINE
  5
409
100
AcDbEntity
  8
RACCORDO
100
AcDbLine
 62
253
  6
CONTINUOUS
 10
77.3585120913
 20
43.8457940385
 11
75.5567083481
 21
44.0035192549
  0
LINE
  5
40A
100
AcDbEntity
  8
RACCORDO
100
AcDbLine
 62
7
  6
CONTINUOUS
 10
77.2676669302
 20
44.8340076387
 11
75.3703655586
 21
45.0
  0
ARC
  5
40B
100
AcDbEntity
  8
RACCORDO
100
AcDbCircle
 62
7
  6
CONTINUOUS
 10
-369.1722830108
 20
-0.0
 40
450.0
100
AcDbArc
 50
357.1173180382
 51
2.882682159
  0
ARC
  5
40C
100
AcDbEntity
  8
DRAFT
100
AcDbCircle
 62
7
  6
CONTINUOUS
 10
-369.1722830108
 20
-0.0
 40
447.8
100
AcDbArc
 50
357.1173130894
 51
2.8826869106
  0
ARC
  5
40D
100
AcDbEntity
  8
0
100
AcDbCircle
 62
7
  6
CONTINUOUS
 10
-86.357343059
 20
-14.2411105033
 40
166.926732391
100
AcDbArc
 50
354.9696557406
 51
355.9448854597
  0
ARC
  5
40E
100
AcDbEntity
  8
RACCORDO
100
AcDbCircle
 62
7
  6
CONTINUOUS
 10
-86.357343059
 20
-14.2411105033
 40
166.826732391
100
AcDbArc
 50
349.5756088776
 51
357.1173264383
  0
ARC
  5
40F
100
AcDbEntity
  8
RACCORDO
100
AcDbCircle
 62
7
  6
CONTINUOUS
 10
-86.357343059
 20
-14.2411105033
 40
164.626732391
100
AcDbArc
 50
349.2315617336
 51
357.1173130894
  0
ARC
  5
410
100
AcDbEntity
  8
RACCORDO
100
AcDbCircle
 62
7
  6
CONTINUOUS
 10
77.2240890588
 20
-44.3359102896
 40
0.5
100
AcDbArc
 50
275.0
 51
349.5756088776
  0
ARC
  5
411
100
AcDbEntity
  8
RACCORDO
100
AcDbCircle
 62
7
  6
CONTINUOUS
 10
72.0582866646
 20
-42.8898529836
 40
0.3
100
AcDbArc
 50
180.0
 51
250.7489922919
  0
ARC
  5
412
100
AcDbEntity
  8
RACCORDO
100
AcDbCircle
 62
7
  6
CONTINUOUS
 10
72.0582866646
 20
-42.8833544108
 40
0.3
100
AcDbArc
 50
186.0188222184
 51
210.0941098785
  0
ARC
  5
413
100
AcDbEntity
  8
RACCORDO
100
AcDbCircle
 62
7
  6
CONTINUOUS
 10
71.9582866646
 20
-42.4113525438
 40
0.2
100
AcDbArc
 50
162.0998539777
 51
180.0
  0
ARC
  5
414
100
AcDbEntity
  8
RACCORDO
100
AcDbCircle
 62
7
  6
CONTINUOUS
 10
75.2559928927
 20
-44.5001735011
 40
0.15
100
AcDbArc
 50
196.5000001959
 51
255.3378249884
  0
ARC
  5
415
100
AcDbEntity
  8
RACCORDO
100
AcDbCircle
 62
7
  6
CONTINUOUS
 10
73.4582977679
 20
-3.2482681528
 40
0.2999960812
100
AcDbArc
 50
279.9989319461
 51
359.9996260689
  0
ARC
  5
416
100
AcDbEntity
  8
RACCORDO
100
AcDbCircle
 62
7
  6
CONTINUOUS
 10
71.9582866646
 20
-23.4965394526
 40
0.2
100
AcDbArc
 50
174.0666377965
 51
180.0
  0
ARC
  5
417
100
AcDbEntity
  8
RACCORDO
100
AcDbCircle
 62
7
  6
CONTINUOUS
 10
71.9582866646
 20
-9.8465394526
 40
0.2
100
AcDbArc
 50
174.0666377965
 51
180.0
  0
ARC
  5
418
100
AcDbEntity
  8
RACCORDO
100
AcDbCircle
 62
7
  6
CONTINUOUS
 10
71.9582866667
 20
-4.0204738873
 40
0.2
100
AcDbArc
 50
100.0
 51
180.000002972
  0
ARC
  5
419
100
AcDbEntity
  8
RACCORDO
100
AcDbCircle
 62
7
  6
CONTINUOUS
 10
-86.357343059
 20
14.2411105033
 40
166.826732391
100
AcDbArc
 50
2.8826869105
 51
10.4243911224
  0
ARC
  5
41A
100
AcDbEntity
  8
RACCORDO
100
AcDbCircle
 62
7
  6
CONTINUOUS
 10
-86.357343059
 20
14.2411105033
 40
164.626732391
100
AcDbArc
 50
2.8826869106
 51
10.7684382664
  0
ARC
  5
41B
100
AcDbEntity
  8
RACCORDO
100
AcDbCircle
 62
7
  6
CONTINUOUS
 10
73.4582977679
 20
3.2482681528
 40
0.2999960812
100
AcDbArc
 50
0.0003739311
 51
80.0011069269
  0
ARC
  5
41C
100
AcDbEntity
  8
RACCORDO
100
AcDbCircle
 62
7
  6
CONTINUOUS
 10
71.9582866646
 20
23.8034605474
 40
0.2
100
AcDbArc
 50
174.0572213122
 51
180.0
  0
ARC
  5
41D
100
AcDbEntity
  8
RACCORDO
100
AcDbCircle
 62
7
  6
CONTINUOUS
 10
71.9582866646
 20
10.1534605474
 40
0.2
100
AcDbArc
 50
174.0572213099
 51
180.0
  0
ARC
  5
41E
100
AcDbEntity
  8
RACCORDO
100
AcDbCircle
 62
7
  6
CONTINUOUS
 10
71.9582866646
 20
4.0204738877
 40
0.2
100
AcDbArc
 50
180.0
 51
260.0
  0
ARC
  5
41F
100
AcDbEntity
  8
RACCORDO
100
AcDbCircle
 62
7
  6
CONTINUOUS
 10
72.0582866646
 20
42.8895038752
 40
0.3
100
AcDbArc
 50
109.1658155462
 51
179.9999997508
  0
ARC
  5
420
100
AcDbEntity
  8
RACCORDO
100
AcDbCircle
 62
7
  6
CONTINUOUS
 10
72.0582866646
 20
42.8833544108
 40
0.3
100
AcDbArc
 50
149.9058901215
 51
173.9811777816
  0
ARC
  5
421
100
AcDbEntity
  8
RACCORDO
100
AcDbCircle
 62
7
  6
CONTINUOUS
 10
71.9582866646
 20
42.4113525438
 40
0.2
100
AcDbArc
 50
180.0
 51
197.9000680981
  0
ARC
  5
422
100
AcDbEntity
  8
RACCORDO
100
AcDbCircle
 62
7
  6
CONTINUOUS
 10
77.2240904345
 20
44.3359029681
 40
0.5000000001
100
AcDbArc
 50
10.4252447841
 51
85.0002301434
  0
ARC
  5
423
100
AcDbEntity
  8
RACCORDO
100
AcDbCircle
 62
7
  6
CONTINUOUS
 10
75.2559928927
 20
44.5001735011
 40
0.15
100
AcDbArc
 50
104.6621750116
 51
163.5
  0
ENDSEC
  0
SECTION
  2
OBJECTS
  0
DICTIONARY
  5
C
100
AcDbDictionary
280
0
281
1
  3
ACAD_GROUP
350
D
  3
ACAD_MLINESTYLE
350
17
  3
ACAD_LAYOUT
350
1A
  3
ACAD_PLOTSETTINGS
350
19
  3
ACAD_PLOTSTYLENAME
350
E
  0
DICTIONARY
  5
D
102
{ACAD_REACTORS
330
C
102
}
100
AcDbDictionary
280
0
281
1
  0
ACDBDICTIONARYWDFLT
  5
E
102
{ACAD_REACTORS
330
C
102
}
100
AcDbDictionary
281
1
  3
Normal
350
F
100
AcDbDictionaryWithDefault
340
F
  0
DICTIONARY
  5
17
102
{ACAD_REACTORS
330
C
102
}
100
AcDbDictionary
280
0
281
1
  3
Standard
350
18
  0
DICTIONARY
  5
19
102
{ACAD_REACTORS
330
C
102
}
100
AcDbDictionary
281
1
  0
DICTIONARY
  5
1A
102
{ACAD_REACTORS
330
C
102
}
100
AcDbDictionary
281
1
  3
Model
350
424
  3
Layout1
350
425
  0
ACDBPLACEHOLDER
  5
F
102
{ACAD_REACTORS
330
E
102
}
  0
MLINESTYLE
  5
18
102
{ACAD_REACTORS
330
17
102
}
100
AcDbMlineStyle
  2
STANDARD
 70
0
  3

 62
256
 51
90.0
 52
90.0
 71
2
 49
0.5
 62
256
  6
BYLAYER
 49
-0.5
 62
256
  6
BYLAYER
  0
LAYOUT
  5
424
102
{ACAD_REACTORS
330
1A
102
}
100
AcDbPlotSettings
  1

  2
none_device
  4
ISO_A4_(297.00_x_210.00_MM)
  6

 40
0.0
 41
0.0
 42
0.0
 43
0.0
 44
297.0
 45
210.0
 46
0.0
 47
0.0
 48
0.0
 49
0.0
140
0.0
141
0.0
142
1.0
143
1.0
 70
1024
 72
1
 73
0
 74
0
  7

 75
0
147
1.0
148
0.0
149
0.0
100
AcDbLayout
  1
Model
 70
0
 71
0
 10
0.0
 20
0.0
 11
297.0
 21
210.0
 12
0.0
 22
0.0
 32
0.0
 14
0.0
 24
0.0
 34
0.0
 15
0.0
 25
0.0
 35
0.0
146
0.0
 13
0.0
 23
0.0
 33
0.0
 16
1.0
 26
0.0
 36
0.0
 17
0.0
 27
1.0
 37
0.0
 76
0
330
212
345
0
346
0
  0
LAYOUT
  5
425
102
{ACAD_REACTORS
330
1A
102
}
100
AcDbPlotSettings
  1

  2
none_device
  4
ISO_A4_(297.00_x_210.00_MM)
  6

 40
0.0
 41
0.0
 42
0.0
 43
0.0
 44
297.0
 45
210.0
 46
0.0
 47
0.0
 48
0.0
 49
0.0
140
0.0
141
0.0
142
1.0
143
1.0
 70
0
 72
1
 73
0
 74
0
  7

 75
0
147
1.0
148
0.0
149
0.0
100
AcDbLayout
  1
Layout1
 70
0
 71
1
 10
0.0
 20
0.0
 11
297.0
 21
210.0
 12
0.0
 22
0.0
 32
0.0
 14
0.0
 24
0.0
 34
0.0
 15
0.0
 25
0.0
 35
0.0
146
0.0
 13
0.0
 23
0.0
 33
0.0
 16
1.0
 26
0.0
 36
0.0
 17
0.0
 27
1.0
 37
0.0
 76
0
330
213
345
0
346
0
  0
ENDSEC
  0
EOF
