  0
SECTION
  2
HEADER
  9
$ACADVER
  1
AC1021
  9
$DWGCODEPAGE
  3
ANSI_1252
  9
$EXTMAX
 10
297.0
 20
210.0
 30
0.0
  9
$EXTMIN
 10
0.0
 20
0.0
 30
0.0
  9
$LIMMIN
 10
0.0
 20
0.0
  9
$LIMMAX
 10
297.0
 20
210.0
  9
$VIEWCTR
 10
148.5
 20
105.0
  9
$VIEWSIZE
 40
210.0
  9
$CLAYER
  8
0
  9
$LTSCALE
 40
16.335
  9
$CELTYPE
  6
BYLAYER
  9
$DIMSCALE
 40
1.0
  9
$DIMASZ
 40
3.0
  9
$DIMEXO
 40
0.5
  9
$DIMDLI
 40
11.286
  9
$DIMEXE
 40
1.5
  9
$DIMCEN
 40
2.673
  9
$DIMLFAC
 40
1.0
  9
$DIMBLK
  1
_FILLED
  9
$DIMALT
 70
0
  9
$DIMALTF
 40
0.0393700787
  9
$DIMTXT
 40
3.0
  9
$DIMTOL
 70
1
  9
$DIMLIM
 70
0
  9
$DIMTFAC
 40
1.0
  9
$DIMTP
 40
0.01
  9
$DIMTM
 40
0.01
  9
$DIMGAP
 40
0.625
  9
$DIMDSEP
 70
44
  9
$AUNITS
 70
0
  9
$PDMODE
 70
3
  9
$PDSIZE
 40
3.0
  9
$HANDSEED
  5
425
  9
$TILEMODE
 70
1
  9
$MEASUREMENT
 70
1
  9
$INSUNITS
 70
4
  0
ENDSEC
  0
SECTION
  2
CLASSES
  0
CLASS
  1
ACDBDICTIONARYWDFLT
  2
AcDbDictionaryWithDefault
  3
AutoCAD 2000
 90
0
 91
1
280
0
281
0
  0
CLASS
  1
ACDBPLACEHOLDER
  2
AcDbPlaceHolder
  3
AutoCAD 2000
 90
0
 91
1
280
0
281
0
  0
CLASS
  1
LAYOUT
  2
AcDbLayout
  3
AutoCAD 2000
 90
0
 91
0
280
0
281
0
  0
ENDSEC
  0
SECTION
  2
TABLES
  0
TABLE
  2
VPORT
  5
8
100
AcDbSymbolTable
 70
2
  0
VPORT
  5
1F4
100
AcDbSymbolTableRecord
100
AcDbViewportTableRecord
  2
*ACTIVE
 70
0
 10
0.0
 20
0.0
 11
1.0
 21
1.0
 12
148.5
 22
105.0
 13
0.0
 23
0.0
 14
1.0
 24
1.0
 15
0.0
 25
0.0
 16
0.0
 26
0.0
 36
1.0
 17
0.0
 27
0.0
 37
0.0
 40
210.0
 41
1.4142857143
 42
50.0
 43
0.0
 44
0.0
 50
0.0
 51
0.0
 71
0
 72
100
 73
1
 74
1
 75
0
 76
0
 77
0
 78
0
  0
ENDTAB
  0
TABLE
  2
LTYPE
  5
5
100
AcDbSymbolTable
 70
6
  0
LTYPE
  5
14
100
AcDbSymbolTableRecord
100
AcDbLinetypeTableRecord
  2
BYBLOCK
 70
0
  3

 72
65
 73
0
 40
0.0
  0
LTYPE
  5
15
100
AcDbSymbolTableRecord
100
AcDbLinetypeTableRecord
  2
BYLAYER
 70
0
  3

 72
65
 73
0
 40
0.0
  0
LTYPE
  5
16
100
AcDbSymbolTableRecord
100
AcDbLinetypeTableRecord
  2
CONTINUOUS
 70
64
  3
Solid line
 72
65
 73
0
 40
0.0
  0
LTYPE
  5
1F5
100
AcDbSymbolTableRecord
100
AcDbLinetypeTableRecord
  2
CENTER
 70
64
  3
____ _ ____ _ ____ _ ____ _ ____ _ ____ _ ____
 72
65
 73
4
 40
0.6
 49
0.375
 74
0
 49
-0.075
 74
0
 49
0.075
 74
0
 49
-0.075
 74
0
  0
LTYPE
  5
1F6
100
AcDbSymbolTableRecord
100
AcDbLinetypeTableRecord
  2
HIDDEN
 70
64
  3
- - - - - - - - - - - - - - - - - - - -
 72
65
 73
2
 40
0.2
 49
0.1
 74
0
 49
-0.1
 74
0
  0
LTYPE
  5
1F7
100
AcDbSymbolTableRecord
100
AcDbLinetypeTableRecord
  2
PHANTOM
 70
64
  3
_____ _ _ _____ _ _ _____ _ _ _____
 72
65
 73
6
 40
0.8
 49
0.45
 74
0
 49
-0.05
 74
0
 49
0.1
 74
0
 49
-0.05
 74
0
 49
0.1
 74
0
 49
-0.05
 74
0
  0
LTYPE
  5
1F8
100
AcDbSymbolTableRecord
100
AcDbLinetypeTableRecord
  2
DOT
 70
64
  3
. . . . . . . . . . . . . . . . . . . .
 72
65
 73
2
 40
0.2
 49
0.1
 74
0
 49
-0.1
 74
0
  0
LTYPE
  5
1F9
100
AcDbSymbolTableRecord
100
AcDbLinetypeTableRecord
  2
DASHED
 70
64
  3
- - - - - - - - - - - - - - - - - - - -
 72
65
 73
2
 40
0.2
 49
0.1
 74
0
 49
-0.1
 74
0
  0
ENDTAB
  0
TABLE
  2
LAYER
  5
2
100
AcDbSymbolTable
 70
36
  0
LAYER
  5
10
100
AcDbSymbolTableRecord
100
AcDbLayerTableRecord
  2
0
 70
0
 62
7
  6
CONTINUOUS
370
-3
390
F
  0
LAYER
  5
1FA
100
AcDbSymbolTableRecord
100
AcDbLayerTableRecord
  2
DEFAULT_1
 70
0
 62
7
  6
CENTER
370
-3
390
F
  0
LAYER
  5
1FB
100
AcDbSymbolTableRecord
100
AcDbLayerTableRecord
  2
DEFAULT_2
 70
0
 62
7
  6
HIDDEN
370
-3
390
F
  0
LAYER
  5
1FC
100
AcDbSymbolTableRecord
100
AcDbLayerTableRecord
  2
DEFAULT_3
 70
0
 62
7
  6
PHANTOM
370
-3
390
F
  0
LAYER
  5
1FD
100
AcDbSymbolTableRecord
100
AcDbLayerTableRecord
  2
ASSI
 70
0
 62
7
  6
CONTINUOUS
370
-3
390
F
  0
LAYER
  5
1FE
100
AcDbSymbolTableRecord
100
AcDbLayerTableRecord
  2
COORDINATE
 70
0
 62
7
  6
CONTINUOUS
370
-3
390
F
  0
LAYER
  5
1FF
100
AcDbSymbolTableRecord
100
AcDbLayerTableRecord
  2
COPY_PUBLISH
 70
0
 62
7
  6
CONTINUOUS
370
-3
390
F
  0
LAYER
  5
200
100
AcDbSymbolTableRecord
100
AcDbLayerTableRecord
  2
COSMETICI
 70
0
 62
7
  6
CONTINUOUS
370
-3
390
F
  0
LAYER
  5
201
100
AcDbSymbolTableRecord
100
AcDbLayerTableRecord
  2
CURVE
 70
0
 62
7
  6
CONTINUOUS
370
-3
390
F
  0
LAYER
  5
202
100
AcDbSymbolTableRecord
100
AcDbLayerTableRecord
  2
DRAFT
 70
0
 62
7
  6
CONTINUOUS
370
-3
390
F
  0
LAYER
  5
203
100
AcDbSymbolTableRecord
100
AcDbLayerTableRecord
  2
IMPORT_IGES
 70
0
 62
7
  6
CONTINUOUS
370
-3
390
F
  0
LAYER
  5
204
100
AcDbSymbolTableRecord
100
AcDbLayerTableRecord
  2
INTF_1
 70
0
 62
7
  6
CONTINUOUS
370
-3
390
F
  0
LAYER
  5
205
100
AcDbSymbolTableRecord
100
AcDbLayerTableRecord
  2
INTF_11
 70
0
 62
7
  6
CONTINUOUS
370
-3
390
F
  0
LAYER
  5
206
100
AcDbSymbolTableRecord
100
AcDbLayerTableRecord
  2
NOTE
 70
0
 62
7
  6
CONTINUOUS
370
-3
390
F
  0
LAYER
  5
207
100
AcDbSymbolTableRecord
100
AcDbLayerTableRecord
  2
PIANI
 70
0
 62
7
  6
CONTINUOUS
370
-3
390
F
  0
LAYER
  5
208
100
AcDbSymbolTableRecord
100
AcDbLayerTableRecord
  2
PUNTI
 70
0
 62
7
  6
CONTINUOUS
370
-3
390
F
  0
LAYER
  5
209
100
AcDbSymbolTableRecord
100
AcDbLayerTableRecord
  2
RACCORDO
 70
0
 62
7
  6
CONTINUOUS
370
-3
390
F
  0
LAYER
  5
20A
100
AcDbSymbolTableRecord
100
AcDbLayerTableRecord
  2
RGB____0____0____0__
 70
0
 62
7
  6
CONTINUOUS
370
-3
390
F
  0
LAYER
  5
20B
100
AcDbSymbolTableRecord
100
AcDbLayerTableRecord
  2
SIMBOLI
 70
0
 62
7
  6
CONTINUOUS
370
-3
390
F
  0
LAYER
  5
20C
100
AcDbSymbolTableRecord
100
AcDbLayerTableRecord
  2
SMUSSO
 70
0
 62
7
  6
CONTINUOUS
370
-3
390
F
  0
LAYER
  5
20D
100
AcDbSymbolTableRecord
100
AcDbLayerTableRecord
  2
SNAPLINE
 70
0
 62
7
  6
CONTINUOUS
370
-3
390
F
  0
LAYER
  5
20E
100
AcDbSymbolTableRecord
100
AcDbLayerTableRecord
  2
SUPERFICI
 70
0
 62
7
  6
CONTINUOUS
370
-3
390
F
  0
LAYER
  5
20F
100
AcDbSymbolTableRecord
100
AcDbLayerTableRecord
  2
TRASH
 70
0
 62
7
  6
CONTINUOUS
370
-3
390
F
  0
ENDTAB
  0
TABLE
  2
STYLE
  5
3
100
AcDbSymbolTable
 70
1
  0
STYLE
  5
11
100
AcDbSymbolTableRecord
100
AcDbTextStyleTableRecord
  2
STANDARD
 70
0
 40
0.0
 41
0.8
 50
0.0
 71
0
 42
0.2
  3
txt
  4

  0
STYLE
  5
210
100
AcDbSymbolTableRecord
100
AcDbTextStyleTableRecord
  2
TEXTSTYLE_1
 70
0
 40
0.0
 41
0.8
 50
0.0
 71
0
 42
0.2
  3
gdt
  4

  0
ENDTAB
  0
TABLE
  2
VIEW
  5
6
100
AcDbSymbolTable
 70
0
  0
ENDTAB
  0
TABLE
  2
UCS
  5
7
100
AcDbSymbolTable
 70
0
  0
ENDTAB
  0
TABLE
  2
APPID
  5
9
100
AcDbSymbolTable
 70
1
  0
APPID
  5
211
100
AcDbSymbolTableRecord
100
AcDbRegAppTableRecord
  2
ACAD
 70
0
  0
ENDTAB
  0
TABLE
  2
BLOCK_RECORD
  5
1
100
AcDbSymbolTable
 70
0
  0
BLOCK_RECORD
  5
212
100
AcDbSymbolTableRecord
100
AcDbBlockTableRecord
  2
*Model_Space
  0
BLOCK_RECORD
  5
213
100
AcDbSymbolTableRecord
100
AcDbBlockTableRecord
  2
*Paper_Space
  0
BLOCK_RECORD
  5
214
100
AcDbSymbolTableRecord
100
AcDbBlockTableRecord
  2
_FILLED
  0
BLOCK_RECORD
  5
215
100
AcDbSymbolTableRecord
100
AcDbBlockTableRecord
  2
*D0
  0
BLOCK_RECORD
  5
216
100
AcDbSymbolTableRecord
100
AcDbBlockTableRecord
  2
*D1
  0
BLOCK_RECORD
  5
217
100
AcDbSymbolTableRecord
100
AcDbBlockTableRecord
  2
*D2
  0
ENDTAB
  0
TABLE
  2
DIMSTYLE
  5
A
100
AcDbSymbolTable
 70
1
100
AcDbDimStyleTable
 71
0
  0
DIMSTYLE
105
218
100
AcDbSymbolTableRecord
100
AcDbDimStyleTableRecord
  2
STANDARD
 70
0
  3

  4

 40
1.0
 41
3.0
 42
0.5
 43
0.38
 44
1.5
 45
0.0
 46
0.0
 47
0.01
 48
0.01
140
3.0
141
0.09
142
0.0
143
25.4
144
1.0
145
0.0
146
1.0
147
0.625
 71
1.0
 72
0.0
 73
0
 74
0
 75
0
 76
0
 77
1
 78
8
170
0
171
2
172
0
173
0
174
0
175
0
176
0
177
0
178
0
270
2
271
2
272
2
273
2
274
2
275
0
280
0
281
0
282
0
283
1
284
8
285
0
286
0
287
3
288
0
340
11
278
44
341
214
342
214
343
214
344
214
  0
DIMSTYLE
105
219
100
AcDbSymbolTableRecord
100
AcDbDimStyleTableRecord
  2
DIMSTYLE_1
 70
0
  3

  4

 40
1.0
 41
3.0
 42
0.5
 43
0.38
 44
1.5
 45
0.0
 46
0.0
 47
0.0
 48
0.0
140
3.0
141
0.09
142
0.0
143
25.4
144
1.0
145
0.0
146
1.0
147
0.75
 71
0.0
 72
0.0
 73
0
 74
0
 75
0
 76
0
 77
1
 78
8
170
0
171
2
172
0
173
0
174
0
175
0
176
0
177
0
178
0
270
2
271
2
272
2
273
2
274
2
275
0
280
0
281
0
282
0
283
1
284
8
285
0
286
0
287
3
288
0
340
11
278
44
341
214
342
214
343
214
344
214
  0
DIMSTYLE
105
21A
100
AcDbSymbolTableRecord
100
AcDbDimStyleTableRecord
  2
DIMSTYLE_2
 70
0
  3

  4

 40
1.0
 41
3.0
 42
0.5
 43
0.38
 44
1.5
 45
0.0
 46
0.0
 47
0.0
 48
0.0
140
3.0
141
0.09
142
0.0
143
25.4
144
1.0
145
0.0
146
1.0
147
0.75
 71
0.0
 72
0.0
 73
0
 74
0
 75
0
 76
0
 77
1
 78
8
170
0
171
2
172
0
173
0
174
0
175
0
176
0
177
0
178
0
270
2
271
1
272
1
273
2
274
2
275
0
280
0
281
0
282
0
283
1
284
8
285
0
286
0
287
3
288
0
340
11
278
44
341
214
342
214
343
214
344
214
  0
ENDTAB
  0
ENDSEC
  0
SECTION
  2
BLOCKS
  0
BLOCK
  5
20
100
AcDbEntity
  8
0
100
AcDbBlockBegin
  2
*Model_Space
 70
0
 10
0.0
 20
0.0
 30
0.0
  3
*Model_Space
  1

  0
ENDBLK
  5
21
100
AcDbEntity
  8
0
100
AcDbBlockEnd
  0
BLOCK
  5
1C
100
AcDbEntity
  8
0
100
AcDbBlockBegin
  2
*Paper_Space
 70
0
 10
0.0
 20
0.0
 30
0.0
  3
*Paper_Space
  1

  0
ENDBLK
  5
1D
100
AcDbEntity
  8
0
100
AcDbBlockEnd
  0
BLOCK
  5
21B
100
AcDbEntity
  8
0
100
AcDbBlockBegin
  2
_FILLED
 70
64
 10
0.0
 20
0.0
  3
_FILLED
  1

  0
SOLID
  5
21C
100
AcDbEntity
  8
0
  6
BYBLOCK
 62
0
100
AcDbTrace
 10
0.0
 20
0.0
 11
-1.0
 21
0.3166666667
 12
-1.0
 22
-0.3166666667
 13
-1.0
 23
-0.3166666667
  0
ENDBLK
  5
21D
100
AcDbEntity
  8
0
  6
BYBLOCK
 62
0
100
AcDbBlockEnd
  0
BLOCK
  5
21E
100
AcDbEntity
  8
0
100
AcDbBlockBegin
 62
7
  6
CONTINUOUS
  2
*D0
 70
65
 10
0.0
 20
0.0
  3
*D0
  1

  0
MTEXT
  5
21F
100
AcDbEntity
  8
0
100
AcDbMText
 62
7
  6
CONTINUOUS
  7
STANDARD
 71
2
 72
1
 10
0.0
 20
61.75
 30
0.0
 11
1.0
 21
0.0
 31
0.0
 44
0.9
  1
122
 40
3.0
 41
9.6428571429
  0
LINE
  5
220
100
AcDbEntity
  8
0
100
AcDbLine
 62
7
  6
CONTINUOUS
 10
60.9999890968
 20
44.5035192549
 11
60.9999890968
 21
59.5
  0
LINE
  5
221
100
AcDbEntity
  8
0
100
AcDbLine
 62
7
  6
CONTINUOUS
 10
-60.9999890968
 20
44.5035192549
 11
-60.9999890968
 21
59.5
  0
LINE
  5
222
100
AcDbEntity
  8
0
100
AcDbLine
 62
7
  6
CONTINUOUS
 10
60.9999890968
 20
58.0
 11
0.0
 21
58.0
  0
LINE
  5
223
100
AcDbEntity
  8
0
100
AcDbLine
 62
7
  6
CONTINUOUS
 10
-60.9999890968
 20
58.0
 11
0.0
 21
58.0
  0
INSERT
  5
224
100
AcDbEntity
  8
0
100
AcDbBlockReference
 62
7
  6
CONTINUOUS
  2
_FILLED
 10
60.9999890968
 20
58.0
 41
3.0
 42
3.0
 43
3.0
  0
INSERT
  5
225
100
AcDbEntity
  8
0
100
AcDbBlockReference
 62
7
  6
CONTINUOUS
  2
_FILLED
 10
-60.9999890968
 20
58.0
 41
3.0
 42
3.0
 43
3.0
 50
180.0
  0
ENDBLK
  5
226
100
AcDbEntity
  8
0
  6
BYBLOCK
 62
0
100
AcDbBlockEnd
  0
BLOCK
  5
227
100
AcDbEntity
  8
0
100
AcDbBlockBegin
 62
7
  6
CONTINUOUS
  2
*D1
 70
65
 10
0.0
 20
0.0
  3
*D1
  1

  0
MTEXT
  5
228
100
AcDbEntity
  8
0
100
AcDbMText
 62
7
  6
CONTINUOUS
  7
STANDARD
 71
3
 72
1
 10
84.4577552492
 20
61.75
 30
0.0
 11
1.0
 21
0.0
 31
0.0
 44
0.9
  1
9,1
 40
3.0
 41
8.6785714286
  0
LINE
  5
229
100
AcDbEntity
  8
0
100
AcDbLine
 62
7
  6
CONTINUOUS
 10
98.1242683515
 20
10.0116898012
 11
98.1242683515
 21
59.5
  0
LINE
  5
22A
100
AcDbEntity
  8
0
100
AcDbLine
 62
7
  6
CONTINUOUS
 10
89.0548380269
 20
43.3797358613
 11
89.0548380269
 21
59.5
  0
LINE
  5
22B
100
AcDbEntity
  8
0
100
AcDbLine
 62
7
  6
CONTINUOUS
 10
98.1242683515
 20
58.0
 11
102.1242683515
 21
58.0
  0
LINE
  5
22C
100
AcDbEntity
  8
0
100
AcDbLine
 62
7
  6
CONTINUOUS
 10
102.1242683515
 20
58.0
 11
93.5895531892
 21
58.0
  0
LINE
  5
22D
100
AcDbEntity
  8
0
100
AcDbLine
 62
7
  6
CONTINUOUS
 10
89.0548380269
 20
58.0
 11
78.6720409634
 21
58.0
  0
LINE
  5
22E
100
AcDbEntity
  8
0
100
AcDbLine
 62
7
  6
CONTINUOUS
 10
78.6720409634
 20
58.0
 11
93.5895531892
 21
58.0
  0
INSERT
  5
22F
100
AcDbEntity
  8
0
100
AcDbBlockReference
 62
7
  6
CONTINUOUS
  2
_FILLED
 10
98.1242683515
 20
58.0
 41
3.0
 42
3.0
 43
3.0
 50
180.0
  0
INSERT
  5
230
100
AcDbEntity
  8
0
100
AcDbBlockReference
 62
7
  6
CONTINUOUS
  2
_FILLED
 10
89.0548380269
 20
58.0
 41
3.0
 42
3.0
 43
3.0
  0
ENDBLK
  5
231
100
AcDbEntity
  8
0
  6
BYBLOCK
 62
0
100
AcDbBlockEnd
  0
BLOCK
  5
232
100
AcDbEntity
  8
0
100
AcDbBlockBegin
 62
7
  6
CONTINUOUS
  2
*D2
 70
65
 10
0.0
 20
0.0
  3
*D2
  1

  0
MTEXT
  5
233
100
AcDbEntity
  8
0
100
AcDbMText
 62
7
  6
CONTINUOUS
  7
STANDARD
 71
2
 72
1
 10
103.3048486077
 20
-0.0
 30
0.0
 11
0.0
 21
1.0
 31
0.0
 44
0.9
  1
90
 40
3.0
 41
7.0714285714
  0
LINE
  5
234
100
AcDbEntity
  8
0
100
AcDbLine
 62
7
  6
CONTINUOUS
 10
93.1669169209
 20
45.0
 11
108.5548486077
 21
45.0
  0
LINE
  5
235
100
AcDbEntity
  8
0
100
AcDbLine
 62
7
  6
CONTINUOUS
 10
93.1669169209
 20
-45.0
 11
108.5548486077
 21
-45.0
  0
LINE
  5
236
100
AcDbEntity
  8
0
100
AcDbLine
 62
7
  6
CONTINUOUS
 10
107.0548486077
 20
45.0
 11
107.0548486077
 21
-0.0
  0
LINE
  5
237
100
AcDbEntity
  8
0
100
AcDbLine
 62
7
  6
CONTINUOUS
 10
107.0548486077
 20
-45.0
 11
107.0548486077
 21
-0.0
  0
INSERT
  5
238
100
AcDbEntity
  8
0
100
AcDbBlockReference
 62
7
  6
CONTINUOUS
  2
_FILLED
 10
107.0548486077
 20
45.0
 41
3.0
 42
3.0
 43
3.0
 50
90.0
  0
INSERT
  5
239
100
AcDbEntity
  8
0
100
AcDbBlockReference
 62
7
  6
CONTINUOUS
  2
_FILLED
 10
107.0548486077
 20
-45.0
 41
3.0
 42
3.0
 43
3.0
 50
270.0
  0
ENDBLK
  5
23A
100
AcDbEntity
  8
0
  6
BYBLOCK
 62
0
100
AcDbBlockEnd
  0
ENDSEC
  0
SECTION
  2
ENTITIES
  0
DIMENSION
  5
23B
100
AcDbEntity
  8
0
100
AcDbDimension
 62
7
  6
CONTINUOUS
  2
*D0
 10
-60.9999890968
 20
58.0
 11
-0.4285714481
 21
58.0
 70
160
 71
2
 42
121.9999781935
  3
DIMSTYLE_1
100
AcDbAlignedDimension
 13
60.9999890968
 23
44.0035192549
 14
-60.9999890968
 24
44.0035192549
 50
180.0
100
AcDbRotatedDimension
  0
DIMENSION
  5
23C
100
AcDbEntity
  8
0
100
AcDbDimension
 62
7
  6
CONTINUOUS
  2
*D1
 10
89.0548380269
 20
58.0
 11
81.136329483
 21
58.0
 70
160
 71
3
 42
9.0694303246
  3
DIMSTYLE_2
100
AcDbAlignedDimension
 13
98.1242683515
 23
9.5116898012
 14
89.0548380269
 24
42.8797358613
 50
180.0
100
AcDbRotatedDimension
  0
DIMENSION
  5
23D
100
AcDbEntity
  8
0
100
AcDbDimension
 62
7
  6
CONTINUOUS
  2
*D2
 10
107.0548486077
 20
-45.0
 11
107.0548486077
 21
-0.4285722296
 70
160
 71
2
 42
90.0
  3
DIMSTYLE_1
100
AcDbAlignedDimension
 13
92.6669169209
 23
45.0
 14
92.6669169209
 24
-45.0
 50
270.0
100
AcDbRotatedDimension
  0
LWPOLYLINE
  5
23E
100
AcDbEntity
  8
RACCORDO
100
AcDbPolyline
 62
253
  6
CONTINUOUS
 90
28
 70
0
 10
-60.8448916334
 20
-43.8457940382
 10
-60.8425507296
 20
-43.9039047161
 10
-60.8368913919
 20
-43.9616903536
 10
-60.8279450976
 20
-44.0189621801
 10
-60.8157610321
 20
-44.0755152838
 10
-60.8003871632
 20
-44.1311862319
 10
-60.7818583161
 20
-44.1858503528
 10
-60.7602224396
 20
-44.2393619303
 10
-60.7355633178
 20
-44.2915114641
 10
-60.7079810534
 20
-44.3420846172
 10
-60.6775841457
 20
-44.3909042618
 10
-60.6444724219
 20
-44.4378314313
 10
-60.6087517164
 20
-44.4827206664
 10
-60.5705439738
 20
-44.525429701
 10
-60.5299806739
 20
-44.5658228843
 10
-60.4871913376
 20
-44.6037740409
 10
-60.4423213632
 20
-44.639161417
 10
-60.3955196596
 20
-44.671875489
 10
-60.3469284118
 20
-44.7018184359
 10
-60.2967033705
 20
-44.7288964631
 10
-60.2450142425
 20
-44.7530212018
 10
-60.1920303676
 20
-44.774115063
 10
-60.1379333701
 20
-44.7921085058
 10
-60.0828928168
 20
-44.8069486365
 10
-60.0270638833
 20
-44.8185937441
 10
-59.9706196489
 20
-44.827004556
 10
-59.9137517301
 20
-44.8321490217
 10
-59.8566450886
 20
-44.8340076387
  0
LWPOLYLINE
  5
23F
100
AcDbEntity
  8
RACCORDO
100
AcDbPolyline
 62
253
  6
CONTINUOUS
 90
28
 70
0
 10
-60.346857488
 20
-43.9268006745
 10
-60.3459972074
 20
-43.9563518857
 10
-60.3435067232
 20
-43.9855678874
 10
-60.3393860354
 20
-44.0144487109
 10
-60.3336109048
 20
-44.0430846235
 10
-60.3262055706
 20
-44.0713854142
 10
-60.3172427503
 20
-44.0990804217
 10
-60.3067030812
 20
-44.1261719681
 10
-60.2946059261
 20
-44.1526578398
 10
-60.2810820903
 20
-44.1782606199
 10
-60.2661203156
 20
-44.2029629192
 10
-60.2497318603
 20
-44.2267822746
 10
-60.2320813049
 20
-44.2494936973
 10
-60.2131566167
 20
-44.2710873732
 10
-60.1929698283
 20
-44.2915732801
 10
-60.1717216187
 20
-44.3107561426
 10
-60.1494020633
 20
-44.3286233086
 10
-60.1260210866
 20
-44.3451875919
 10
-60.1018091408
 20
-44.3602919299
 10
-60.0767585841
 20
-44.3739219713
 10
-60.0508770583
 20
-44.3860922083
 10
-60.024417941
 20
-44.3966888465
 10
-59.9973692277
 20
-44.4056969079
 10
-59.9697429228
 20
-44.4131314744
 10
-59.9418284174
 20
-44.4189238353
 10
-59.913722175
 20
-44.4230511061
 10
-59.8853277321
 20
-44.4255362264
 10
-59.8566450886
 20
-44.4263792099
  0
LINE
  5
240
100
AcDbEntity
  8
RACCORDO
100
AcDbLine
 62
7
  6
CONTINUOUS
 10
-60.9999996007
 20
-44.0035192549
 11
-61.0
 21
-22.5203789087
  0
LINE
  5
241
100
AcDbEntity
  8
DRAFT
100
AcDbLine
 62
7
  6
CONTINUOUS
 10
-61.0
 20
-22.5203789087
 11
-61.0
 21
22.5203789087
  0
LINE
  5
242
100
AcDbEntity
  8
RACCORDO
100
AcDbLine
 62
7
  6
CONTINUOUS
 10
-61.0
 20
22.5203789087
 11
-60.9999996007
 21
44.0035192549
  0
LINE
  5
243
100
AcDbEntity
  8
RACCORDO
100
AcDbLine
 62
253
  6
CONTINUOUS
 10
-60.8474462442
 20
0.0000001319
 11
-60.8448916333
 21
-43.845794038
  0
LINE
  5
244
100
AcDbEntity
  8
RACCORDO
100
AcDbLine
 62
253
  6
CONTINUOUS
 10
-60.3493488952
 20
0.0000000027
 11
-60.346857488
 21
-43.9268006745
  0
LINE
  5
245
100
AcDbEntity
  8
RACCORDO
100
AcDbLine
 62
253
  6
CONTINUOUS
 10
-59.8566450886
 20
-44.4263792099
 11
-59.8566450886
 21
-44.8340076387
  0
LINE
  5
246
100
AcDbEntity
  8
RACCORDO
100
AcDbLine
 62
253
  6
CONTINUOUS
 10
-59.8566450886
 20
44.4263792099
 11
-59.8566450889
 21
44.8340076387
  0
LINE
  5
247
100
AcDbEntity
  8
RACCORDO
100
AcDbLine
 62
253
  6
CONTINUOUS
 10
-60.8448916333
 20
43.8457940385
 11
-60.8474462442
 21
0.0000001319
  0
LINE
  5
248
100
AcDbEntity
  8
RACCORDO
100
AcDbLine
 62
253
  6
CONTINUOUS
 10
-60.346857488
 20
43.9268006745
 11
-60.3493488952
 21
0.0000000027
  0
LWPOLYLINE
  5
249
100
AcDbEntity
  8
RACCORDO
100
AcDbPolyline
 62
7
  6
CONTINUOUS
 90
28
 70
0
 10
-60.9999996007
 20
44.0035192549
 10
-60.9982508474
 20
44.0632408899
 10
-60.99314613
 20
44.1222945497
 10
-60.9846854486
 20
44.1806803605
 10
-60.9727769011
 20
44.2386673129
 10
-60.9575123896
 20
44.2959866303
 10
-60.9391676206
 20
44.3518319449
 10
-60.9177594647
 20
44.406038978
 10
-60.8932710513
 20
44.4587725744
 10
-60.8659274749
 20
44.5097202574
 10
-60.8357124582
 20
44.5589113297
 10
-60.8026422785
 20
44.6063170948
 10
-60.7669908621
 20
44.6515381854
 10
-60.7286215913
 20
44.6946403706
 10
-60.6876710837
 20
44.7355585396
 10
-60.6448231187
 20
44.7736971332
 10
-60.6001944544
 20
44.8088965316
 10
-60.5536683327
 20
44.8413170774
 10
-60.5055782576
 20
44.8708432141
 10
-60.4559155216
 20
44.8974915601
 10
-60.4046888324
 20
44.9212460649
 10
-60.3522578166
 20
44.9419421516
 10
-60.2984877502
 20
44.9595833458
 10
-60.2435133572
 20
44.9741665338
 10
-60.1880984368
 20
44.9855171539
 10
-60.1324975887
 20
44.9935770964
 10
-60.076456213
 20
44.9984046934
 10
-60.0199743099
 20
45.0
  0
LWPOLYLINE
  5
24A
100
AcDbEntity
  8
RACCORDO
100
AcDbPolyline
 62
253
  6
CONTINUOUS
 90
28
 70
0
 10
59.8566450886
 20
-44.8340076387
 10
59.9137447525
 20
-44.8321493719
 10
59.9705834619
 20
-44.8270088139
 10
60.0269768705
 20
-44.8186092666
 10
60.0827153883
 20
-44.8069910442
 10
60.1376469904
 20
-44.7921945993
 10
60.1916737481
 20
-44.7742449729
 10
60.2446551885
 20
-44.7531759451
 10
60.2963760028
 20
-44.7290606579
 10
60.3466292175
 20
-44.701990962
 10
60.3952330657
 20
-44.6720637266
 10
60.4420450514
 20
-44.6393668152
 10
60.4869259381
 20
-44.6039963408
 10
60.529727548
 20
-44.5660611712
 10
60.5703037265
 20
-44.5256836327
 10
60.6085252883
 20
-44.4829894899
 10
60.6442613472
 20
-44.4381134444
 10
60.6773891772
 20
-44.3911985155
 10
60.7078015314
 20
-44.3423925188
 10
60.7353927423
 20
-44.2918468391
 10
60.7600622823
 20
-44.2397271833
 10
60.7817238669
 20
-44.1862118502
 10
60.8002974199
 20
-44.1314774343
 10
60.8157160486
 20
-44.0756977734
 10
60.8279280287
 20
-44.0190538877
 10
60.8368863715
 20
-43.9617300776
 10
60.8425501543
 20
-43.9039136401
 10
60.8448916334
 20
-43.8457940386
  0
LWPOLYLINE
  5
24B
100
AcDbEntity
  8
RACCORDO
100
AcDbPolyline
 62
253
  6
CONTINUOUS
 90
28
 70
0
 10
59.8566450886
 20
-44.4263792099
 10
59.8853531406
 20
-44.4255286782
 10
59.9137533943
 20
-44.4230423958
 10
59.9418458497
 20
-44.4189203492
 10
59.9697148026
 20
-44.4131424313
 10
59.9972759571
 20
-44.4057286944
 10
60.0242764262
 20
-44.3967393517
 10
60.0507224648
 20
-44.3861550012
 10
60.0766078181
 20
-44.3739949408
 10
60.1016608342
 20
-44.360377428
 10
60.1258656889
 20
-44.3452911537
 10
60.1492382064
 20
-44.3287472864
 10
60.1715542076
 20
-44.3108978014
 10
60.1928064329
 20
-44.2917290081
 10
60.2130021419
 20
-44.2712544351
 10
60.2319389347
 20
-44.2496668996
 10
60.249605913
 20
-44.2269535946
 10
60.2660139753
 20
-44.2031271626
 10
60.2809934169
 20
-44.1784186206
 10
60.2945299508
 20
-44.1528183786
 10
60.306637864
 20
-44.1263358795
 10
60.317190314
 20
-44.0992307278
 10
60.3261720237
 20
-44.0714872154
 10
60.3335982701
 20
-44.0431209377
 10
60.3393880409
 20
-44.0144385042
 10
60.3435143322
 20
-43.9855421118
 10
60.3460041479
 20
-43.9563295117
 10
60.346857488
 20
-43.9268006745
  0
LWPOLYLINE
  5
24C
100
AcDbEntity
  8
RACCORDO
100
AcDbPolyline
 62
253
  6
CONTINUOUS
 90
19
 70
0
 10
60.346857488
 20
-43.926800663
 10
60.3879801891
 20
-43.9265061011
 10
60.4288242517
 20
-43.9256106825
 10
60.4691129252
 20
-43.9241204744
 10
60.5085732222
 20
-43.9220455743
 10
60.5469377684
 20
-43.919400041
 10
60.5839466137
 20
-43.9162018003
 10
60.6193489943
 20
-43.9124725226
 10
60.6529050313
 20
-43.9082374768
 10
60.6843873562
 20
-43.9035253587
 10
60.7135826515
 20
-43.8983680965
 10
60.7402930963
 20
-43.8928006347
 10
60.7643377064
 20
-43.8868606972
 10
60.7855535605
 20
-43.8805885318
 10
60.8037969048
 20
-43.8740266374
 10
60.8189441262
 20
-43.8672194758
 10
60.8308925904
 20
-43.8602131709
 10
60.8395613373
 20
-43.8530551961
 10
60.8448916292
 20
-43.8457940521
  0
LINE
  5
24D
100
AcDbEntity
  8
RACCORDO
100
AcDbLine
 62
7
  6
CONTINUOUS
 10
-60.0199743099
 20
-45.0
 11
60.0199743099
 21
-45.0
  0
LINE
  5
24E
100
AcDbEntity
  8
RACCORDO
100
AcDbLine
 62
253
  6
CONTINUOUS
 10
-59.8566450886
 20
-44.8340076387
 11
59.8566450886
 21
-44.8340076387
  0
LINE
  5
24F
100
AcDbEntity
  8
RACCORDO
100
AcDbLine
 62
253
  6
CONTINUOUS
 10
-59.8566450886
 20
-44.4263792099
 11
59.8566450886
 21
-44.4263792099
  0
LWPOLYLINE
  5
250
100
AcDbEntity
  8
RACCORDO
100
AcDbPolyline
 62
253
  6
CONTINUOUS
 90
19
 70
0
 10
-60.346857488
 20
-43.9268006691
 10
-60.387979849
 20
-43.92650608
 10
-60.4288235498
 20
-43.9256106375
 10
-60.4691118448
 20
-43.9241204087
 10
-60.5085717519
 20
-43.9220454911
 10
-60.5469359014
 20
-43.9193999435
 10
-60.5839443488
 20
-43.9162016915
 10
-60.6193463348
 20
-43.9124724056
 10
-60.6529019857
 20
-43.9082373542
 10
-60.6843839375
 20
-43.9035252331
 10
-60.7135788772
 20
-43.8983679701
 10
-60.7402889882
 20
-43.8928005095
 10
-60.76433329
 20
-43.886860575
 10
-60.7855488652
 20
-43.880588414
 10
-60.8037919629
 20
-43.8740265248
 10
-60.818938973
 20
-43.8672193692
 10
-60.8308872634
 20
-43.8602130706
 10
-60.839555876
 20
-43.8530551018
 10
-60.8448860746
 20
-43.8457939633
  0
LWPOLYLINE
  5
251
100
AcDbEntity
  8
RACCORDO
100
AcDbPolyline
 62
7
  6
CONTINUOUS
 90
28
 70
0
 10
-60.0199743099
 20
-45.0
 10
-60.0764796275
 20
-44.9983984097
 10
-60.1325279765
 20
-44.9935696001
 10
-60.1881193568
 20
-44.985513516
 10
-60.2434996027
 20
-44.9741734187
 10
-60.2984228799
 20
-44.9596058251
 10
-60.3521516857
 20
-44.9419805178
 10
-60.4045601789
 20
-44.9213008268
 10
-60.4557742006
 20
-44.8975630105
 10
-60.5054337718
 20
-44.8709262165
 10
-60.5535341419
 20
-44.8414026277
 10
-60.6000800615
 20
-44.8089794921
 10
-60.644725804
 20
-44.7737785384
 10
-60.6875837275
 20
-44.7356410578
 10
-60.728541474
 20
-44.6947250367
 10
-60.766916242
 20
-44.6516273066
 10
-60.8025704216
 20
-44.6064154248
 10
-60.8356416227
 20
-44.5590211768
 10
-60.8658598742
 20
-44.5098378632
 10
-60.8932104307
 20
-44.4588949527
 10
-60.9177080375
 20
-44.4061623695
 10
-60.9391269589
 20
-44.3519442023
 10
-60.9574859133
 20
-44.2960644203
 10
-60.9727661823
 20
-44.2386984821
 10
-60.9846858746
 20
-44.1806779204
 10
-60.9931510266
 20
-44.1222799043
 10
-60.998255602
 20
-44.063227057
 10
-60.9999996007
 20
-44.0035192549
  0
LWPOLYLINE
  5
252
100
AcDbEntity
  8
RACCORDO
100
AcDbPolyline
 62
253
  6
CONTINUOUS
 90
16
 70
0
 10
-22.9008701393
 20
22.6310194482
 10
-22.8505357167
 20
22.6897222478
 10
-22.7970675552
 20
22.745075976
 10
-22.7404656547
 20
22.7970807964
 10
-22.6805052031
 20
22.8459304762
 10
-22.6174110126
 20
22.8914315452
 10
-22.5518575197
 20
22.9330033221
 10
-22.4837569237
 20
22.9706031358
 10
-22.4131970252
 20
23.0042739461
 10
-22.3411156629
 20
23.0335635375
 10
-22.2674666569
 20
23.0583767186
 10
-22.1922961872
 20
23.0788089062
 10
-22.1166806325
 20
23.0946937877
 10
-22.0409787855
 20
23.1059759664
 10
-21.9648318535
 20
23.1127109576
 10
-21.8882398365
 20
23.1148987905
  0
LWPOLYLINE
  5
253
100
AcDbEntity
  8
RACCORDO
100
AcDbPolyline
 62
253
  6
CONTINUOUS
 90
16
 70
0
 10
-22.5124604562
 20
22.2931695584
 10
-22.481521235
 20
22.3290265036
 10
-22.4484536369
 20
22.3630398481
 10
-22.413364947
 20
22.3950812845
 10
-22.3763710508
 20
22.4250267807
 10
-22.3375941518
 20
22.4527626645
 10
-22.2971617849
 20
22.4781852485
 10
-22.2551686287
 20
22.5012137539
 10
-22.2117966892
 20
22.5217280681
 10
-22.1673239915
 20
22.539598285
 10
-22.1219070131
 20
22.5547718971
 10
-22.0757164016
 20
22.5672021431
 10
-22.0290724011
 20
22.5768307257
 10
-21.9821982671
 20
22.5836553704
 10
-21.9352116762
 20
22.5877001985
 10
-21.888277579
 20
22.5889882637
  0
LWPOLYLINE
  5
254
100
AcDbEntity
  8
0
100
AcDbPolyline
 62
7
  6
CONTINUOUS
 90
31
 70
0
 10
4.2166806432
 20
-27.3236280866
 10
4.2406630898
 20
-27.322865195
 10
4.2645382475
 20
-27.3213550432
 10
4.2883061162
 20
-27.3190976296
 10
4.3120125585
 20
-27.3161546756
 10
4.3356117119
 20
-27.3124644545
 10
4.3589659888
 20
-27.30784179
 10
4.3820839114
 20
-27.302315917
 10
4.4049569575
 20
-27.2958575875
 10
4.4274219731
 20
-27.2881938949
 10
4.4495838026
 20
-27.2792996444
 10
4.4713376015
 20
-27.2692000026
 10
4.4922056821
 20
-27.257697597
 10
4.5121518137
 20
-27.2446923528
 10
4.531212227
 20
-27.2302842952
 10
4.5490179275
 20
-27.2145761968
 10
4.5654456418
 20
-27.1974566587
 10
4.5806186433
 20
-27.1790370185
 10
4.5945377571
 20
-27.1597541628
 10
4.6071749036
 20
-27.1396284502
 10
4.6185581625
 20
-27.1186394755
 10
4.6287725981
 20
-27.0971630006
 10
4.6378167167
 20
-27.0752673976
 10
4.645692012
 20
-27.0528842672
 10
4.6524880293
 20
-27.0301842299
 10
4.6582392927
 20
-27.0071828236
 10
4.662911278
 20
-26.9838644916
 10
4.6664899585
 20
-26.9603532219
 10
4.6689706585
 20
-26.9366903419
 10
4.6703580537
 20
-26.9128345136
 10
4.670652144
 20
-26.8887857312
  0
LINE
  5
255
100
AcDbEntity
  8
0
100
AcDbLine
 62
7
  6
CONTINUOUS
 10
-4.616107
 20
-28.877801
 11
-4.101097
 21
-28.877801
  0
LINE
  5
256
100
AcDbEntity
  8
0
100
AcDbLine
 62
7
  6
CONTINUOUS
 10
-2.984285
 20
-28.877801
 11
-2.399877
 21
-28.877801
  0
LINE
  5
257
100
AcDbEntity
  8
0
100
AcDbLine
 62
7
  6
CONTINUOUS
 10
-2.085272
 20
-28.877801
 11
-1.526183
 21
-28.877801
  0
LINE
  5
258
100
AcDbEntity
  8
0
100
AcDbLine
 62
7
  6
CONTINUOUS
 10
-0.714487
 20
-28.877801
 11
-0.632524
 21
-28.877801
  0
LINE
  5
259
100
AcDbEntity
  8
0
100
AcDbLine
 62
7
  6
CONTINUOUS
 10
0.182406
 20
-28.877801
 11
0.754112
 21
-28.877801
  0
LINE
  5
25A
100
AcDbEntity
  8
0
100
AcDbLine
 62
7
  6
CONTINUOUS
 10
0.84588
 20
-28.877801
 11
1.423947
 21
-28.877801
  0
LINE
  5
25B
100
AcDbEntity
  8
0
100
AcDbLine
 62
7
  6
CONTINUOUS
 10
2.532466
 20
-28.877801
 11
3.148408
 21
-28.877801
  0
LINE
  5
25C
100
AcDbEntity
  8
0
100
AcDbLine
 62
7
  6
CONTINUOUS
 10
3.3200188023
 20
-28.8778013544
 11
3.9020753449
 21
-28.8778013544
  0
LINE
  5
25D
100
AcDbEntity
  8
0
100
AcDbLine
 62
7
  6
CONTINUOUS
 10
4.7970156219
 20
-28.8778013544
 11
5.3591482119
 21
-28.8778013544
  0
LINE
  5
25E
100
AcDbEntity
  8
0
100
AcDbLine
 62
7
  6
CONTINUOUS
 10
1.585207
 20
-28.318881
 11
2.381074
 21
-28.318881
  0
LINE
  5
25F
100
AcDbEntity
  8
0
100
AcDbLine
 62
7
  6
CONTINUOUS
 10
1.704751
 20
-27.886391
 11
2.26428
 21
-27.886391
  0
LINE
  5
260
100
AcDbEntity
  8
0
100
AcDbLine
 62
7
  6
CONTINUOUS
 10
3.9020753449
 20
-27.7821519248
 11
4.2154209623
 21
-27.7821519248
  0
LINE
  5
261
100
AcDbEntity
  8
0
100
AcDbLine
 62
7
  6
CONTINUOUS
 10
3.8826972541
 20
-27.3236280866
 11
4.2166806432
 21
-27.3236280866
  0
LWPOLYLINE
  5
262
100
AcDbEntity
  8
RACCORDO
100
AcDbPolyline
 62
253
  6
CONTINUOUS
 90
13
 70
0
 10
-22.5124604562
 20
-22.2931695584
 10
-22.5396445675
 20
-22.2577185913
 10
-22.5649542236
 20
-22.2205548862
 10
-22.5882680988
 20
-22.1817682862
 10
-22.6095214019
 20
-22.1413503863
 10
-22.6285348836
 20
-22.0995104899
 10
-22.6450781624
 20
-22.0567037037
 10
-22.6591039043
 20
-22.0130827146
 10
-22.6705798584
 20
-21.9687871502
 10
-22.6794229004
 20
-21.9242946059
 10
-22.6856582011
 20
-21.8798722206
 10
-22.6893568619
 20
-21.8355604888
 10
-22.6905731628
 20
-21.791501964
  0
LWPOLYLINE
  5
263
100
AcDbEntity
  8
RACCORDO
100
AcDbPolyline
 62
253
  6
CONTINUOUS
 90
13
 70
0
 10
-22.9008701393
 20
-22.6310194482
 10
-22.9451880134
 20
-22.5731806662
 10
-22.9861171448
 20
-22.5128252747
 10
-23.0236575335
 20
-22.4499532241
 10
-23.0580305266
 20
-22.3841672107
 10
-23.089014777
 20
-22.3158644271
 10
-23.115946243
 20
-22.2462365918
 10
-23.1386484722
 20
-22.1752585035
 10
-23.157297917
 20
-22.1029553051
 10
-23.1717598923
 20
-22.0305942865
 10
-23.1819895031
 20
-21.9585978918
 10
-23.1880316445
 20
-21.8865436847
 10
-23.1898863164
 20
-21.8144316658
  0
LWPOLYLINE
  5
264
100
AcDbEntity
  8
RACCORDO
100
AcDbPolyline
 62
7
  6
CONTINUOUS
 90
25
 70
0
 10
-22.6000000304
 20
-21.7011338162
 10
-22.5983133338
 20
-21.7532149459
 10
-22.5932577281
 20
-21.8047950352
 10
-22.5848332135
 20
-21.855874092
 10
-22.5729548361
 20
-21.9067511078
 10
-22.5577075498
 20
-21.9571271031
 10
-22.5393462156
 20
-22.0061051433
 10
-22.5179085355
 20
-22.0534957168
 10
-22.4933568076
 20
-22.0994883805
 10
-22.4658327874
 20
-22.143754821
 10
-22.4352133541
 20
-22.1864259539
 10
-22.4016216286
 20
-22.2273709113
 10
-22.3655687287
 20
-22.2658687184
 10
-22.3269856534
 20
-22.3018503551
 10
-22.2859414038
 20
-22.3353849024
 10
-22.2431541008
 20
-22.3659585498
 10
-22.1987463026
 20
-22.3934508262
 10
-22.152595451
 20
-22.4179822607
 10
-22.1050519923
 20
-22.4394005457
 10
-22.0559446846
 20
-22.4577375369
 10
-22.0054447697
 20
-22.47296142
 10
-21.954416419
 20
-22.4848243794
 10
-21.9031476896
 20
-22.4932438182
 10
-21.8513505244
 20
-22.4983023565
 10
-21.7990249234
 20
-22.5
  0
LINE
  5
265
100
AcDbEntity
  8
RACCORDO
100
AcDbLine
 62
253
  6
CONTINUOUS
 10
-23.1898863164
 20
-21.8144316658
 11
-23.1898863164
 21
21.8144316658
  0
LINE
  5
266
100
AcDbEntity
  8
RACCORDO
100
AcDbLine
 62
253
  6
CONTINUOUS
 10
-22.6905731938
 20
-21.7915019943
 11
-22.6905731783
 21
21.7914779004
  0
LINE
  5
267
100
AcDbEntity
  8
RACCORDO
100
AcDbLine
 62
7
  6
CONTINUOUS
 10
-22.6000000304
 20
21.7011338162
 11
-22.6000000304
 21
-21.7011338162
  0
LINE
  5
268
100
AcDbEntity
  8
RACCORDO
100
AcDbLine
 62
253
  6
CONTINUOUS
 10
-21.8882398365
 20
23.1148987905
 11
-21.8882398365
 21
22.5889882007
  0
LINE
  5
269
100
AcDbEntity
  8
RACCORDO
100
AcDbLine
 62
253
  6
CONTINUOUS
 10
-21.8882398365
 20
-23.1148987905
 11
-21.8882398366
 21
-22.5889882007
  0
LWPOLYLINE
  5
26A
100
AcDbEntity
  8
RACCORDO
100
AcDbPolyline
 62
253
  6
CONTINUOUS
 90
13
 70
0
 10
-23.1898863164
 20
21.8144316658
 10
-23.1880955195
 20
21.8858708067
 10
-23.1821482674
 20
21.9573603635
 10
-23.1720445601
 20
22.0289003334
 10
-23.1577700142
 20
22.1008904856
 10
-23.1393390131
 20
22.1729310385
 10
-23.1167947072
 20
22.2438226906
 10
-23.0899427996
 20
22.3135964281
 10
-23.0589775872
 20
22.3822213141
 10
-23.0245251108
 20
22.4484052204
 10
-22.9867940509
 20
22.5117174844
 10
-22.9455757271
 20
22.5725888775
 10
-22.9008701393
 20
22.6310194482
  0
LWPOLYLINE
  5
26B
100
AcDbEntity
  8
RACCORDO
100
AcDbPolyline
 62
253
  6
CONTINUOUS
 90
13
 70
0
 10
-22.6905731696
 20
21.7914778918
 10
-22.6893771606
 20
21.835193491
 10
-22.6857322721
 20
21.8792069796
 10
-22.6795774651
 20
21.9233780954
 10
-22.6708398831
 20
21.9676458435
 10
-22.6594844562
 20
22.0117666501
 10
-22.6455635601
 20
22.0553271719
 10
-22.6290758325
 20
22.0982192079
 10
-22.6100617406
 20
22.1402449168
 10
-22.5887585536
 20
22.1808959525
 10
-22.5653462434
 20
22.2199420883
 10
-22.5398752454
 20
22.2573993105
 10
-22.5124604562
 20
22.2931695584
  0
LWPOLYLINE
  5
26C
100
AcDbEntity
  8
0
100
AcDbPolyline
 62
7
  6
CONTINUOUS
 90
25
 70
0
 10
3.3200188023
 20
-26.110807341
 10
3.3799023793
 20
-26.1020845361
 10
3.4397263421
 20
-26.093872029
 10
3.4994906907
 20
-26.0861698252
 10
3.5591555822
 20
-26.0789268477
 10
3.6187608594
 20
-26.0721941831
 10
3.6784260511
 20
-26.0661250824
 10
3.7381642996
 20
-26.0607129847
 10
3.7979624625
 20
-26.0559644607
 10
3.8579006415
 20
-26.0520524608
 10
3.9179882157
 20
-26.0489697463
 10
3.978215806
 20
-26.0467235634
 10
4.0386353773
 20
-26.0455085899
 10
4.0993086213
 20
-26.0453217847
 10
4.1601738465
 20
-26.0461661909
 10
4.221097943
 20
-26.0482456111
 10
4.2820916131
 20
-26.0514918865
 10
4.3431441546
 20
-26.0559731678
 10
4.404090352
 20
-26.062097716
 10
4.4650586683
 20
-26.0697751301
 10
4.5259206406
 20
-26.0790957826
 10
4.5861256633
 20
-26.0907390803
 10
4.6454902016
 20
-26.1049314623
 10
4.7041977904
 20
-26.1214464099
 10
4.7622484297
 20
-26.1402838735
  0
LWPOLYLINE
  5
26D
100
AcDbEntity
  8
RACCORDO
100
AcDbPolyline
 62
7
  6
CONTINUOUS
 90
25
 70
0
 10
21.7990249234
 20
-22.5
 10
21.8513240094
 20
-22.4983104261
 10
21.9031131864
 20
-22.4932534631
 10
21.9543924545
 20
-22.4848291052
 10
22.0054625192
 20
-22.4729509001
 10
22.0560226751
 20
-22.4577052768
 10
22.1051708052
 20
-22.4393515476
 10
22.1527156104
 20
-22.4179275284
 10
22.19884839
 20
-22.393395362
 10
22.2432409247
 20
-22.365900848
 10
22.2860246785
 20
-22.3353202354
 10
22.3270681874
 20
-22.3017772171
 10
22.3656488412
 20
-22.2657887614
 10
22.4016951091
 20
-22.2272882844
 10
22.4352785217
 20
-22.1863423092
 10
22.4658910611
 20
-22.1436674776
 10
22.4934127797
 20
-22.0993858384
 10
22.5179636251
 20
-22.0533752949
 10
22.5393954213
 20
-22.0059862851
 10
22.5577398797
 20
-21.9570493345
 10
22.5729652891
 20
-21.9067338732
 10
22.5848283398
 20
-21.8558987137
 10
22.5932479286
 20
-21.8048301281
 10
22.5983051588
 20
-21.7532418316
 10
22.6000000304
 20
-21.7011338162
  0
LWPOLYLINE
  5
26E
100
AcDbEntity
  8
RACCORDO
100
AcDbPolyline
 62
253
  6
CONTINUOUS
 90
16
 70
0
 10
60.4715266169
 20
-22.6302605538
 10
60.5110191827
 20
-22.6296730821
 10
60.5494130905
 20
-22.6289240635
 10
60.5864477259
 20
-22.6280185823
 10
60.6218717013
 20
-22.6269627849
 10
60.6554445618
 20
-22.6257638378
 10
60.6869384181
 20
-22.6244298795
 10
60.7161394927
 20
-22.6229699647
 10
60.7428495713
 20
-22.6213940031
 10
60.7668873484
 20
-22.6197126924
 10
60.7880896578
 20
-22.6179374449
 10
60.8063125802
 20
-22.6160803111
 10
60.8214324199
 20
-22.6141538968
 10
60.833346545
 20
-22.6121712785
 10
60.8419740833
 20
-22.610145914
 10
60.8472564721
 20
-22.6080915512
  0
LWPOLYLINE
  5
26F
100
AcDbEntity
  8
RACCORDO
100
AcDbPolyline
 62
253
  6
CONTINUOUS
 90
16
 70
0
 10
60.4715296113
 20
-22.5424730477
 10
60.5110222338
 20
-22.5418866889
 10
60.5494161932
 20
-22.5411394418
 10
60.5864508739
 20
-22.5402363786
 10
60.6218748872
 20
-22.5391836293
 10
60.6554477773
 20
-22.5379883399
 10
60.6869416538
 20
-22.5366586239
 10
60.7161427385
 20
-22.5352035073
 10
60.7428528165
 20
-22.5336328674
 10
60.7668905816
 20
-22.5319573655
 10
60.7880928672
 20
-22.5301883749
 10
60.8063157536
 20
-22.5283379033
 10
60.8214355451
 20
-22.5264185116
 10
60.8333496098
 20
-22.5244432284
 10
60.8419770757
 20
-22.522425462
 10
60.8472593802
 20
-22.5203789087
  0
LWPOLYLINE
  5
270
100
AcDbEntity
  8
RACCORDO
100
AcDbPolyline
 62
253
  6
CONTINUOUS
 90
16
 70
0
 10
-23.0647013173
 20
-21.8136609015
 10
-23.024361109
 20
-21.8130665564
 10
-22.9851980169
 20
-21.8123095511
 10
-22.9474905456
 20
-21.811395269
 10
-22.911506848
 20
-21.810330212
 10
-22.8775028187
 20
-21.8091219541
 10
-22.8457202739
 20
-21.8077790877
 10
-22.8163852322
 20
-21.8063111625
 10
-22.7897063068
 20
-21.8047286174
 10
-22.7658732222
 20
-21.8030427066
 10
-22.7450554652
 20
-21.8012654193
 10
-22.727401079
 20
-21.7994093945
 10
-22.7130356112
 20
-21.797487831
 10
-22.7020612204
 20
-21.795514394
 10
-22.6945559499
 20
-21.7935031174
 10
-22.6905731727
 20
-21.791468304
  0
LINE
  5
271
100
AcDbEntity
  8
RACCORDO
100
AcDbLine
 62
253
  6
CONTINUOUS
 10
60.3903234369
 20
-22.6309360294
 11
60.4715266169
 21
-22.6302605538
  0
LWPOLYLINE
  5
272
100
AcDbEntity
  8
RACCORDO
100
AcDbPolyline
 62
253
  6
CONTINUOUS
 90
3
 70
0
 10
60.3491668284
 20
-22.5432326076
 10
60.3903263074
 20
-22.5431482988
 10
60.4715296113
 20
-22.5424730477
  0
LWPOLYLINE
  5
273
100
AcDbEntity
  8
RACCORDO
100
AcDbPolyline
 62
253
  6
CONTINUOUS
 90
3
 70
0
 10
-23.1898863164
 20
-21.8144316653
 10
-23.1477592502
 20
-21.8143458915
 10
-23.0647013173
 20
-21.8136609015
  0
LINE
  5
274
100
AcDbEntity
  8
0
100
AcDbLine
 62
7
  6
CONTINUOUS
 10
-5.503668
 20
-26.078098
 11
-4.86882
 21
-26.078098
  0
LINE
  5
275
100
AcDbEntity
  8
0
100
AcDbLine
 62
7
  6
CONTINUOUS
 10
-3.785169
 20
-26.078098
 11
-3.20116
 21
-26.078098
  0
LINE
  5
276
100
AcDbEntity
  8
0
100
AcDbLine
 62
7
  6
CONTINUOUS
 10
-1.832475
 20
-26.078098
 11
-1.24855
 21
-26.078098
  0
LINE
  5
277
100
AcDbEntity
  8
0
100
AcDbLine
 62
7
  6
CONTINUOUS
 10
-0.085906
 20
-26.078098
 11
0.492308
 21
-26.078098
  0
LINE
  5
278
100
AcDbEntity
  8
0
100
AcDbLine
 62
7
  6
CONTINUOUS
 10
1.724045
 20
-26.078098
 11
2.28939
 21
-26.078098
  0
LINE
  5
279
100
AcDbEntity
  8
0
100
AcDbLine
 62
7
  6
CONTINUOUS
 10
-2.984285
 20
-26.07793
 11
-2.399877
 21
-26.07793
  0
LINE
  5
27A
100
AcDbEntity
  8
RACCORDO
100
AcDbLine
 62
253
  6
CONTINUOUS
 10
21.8882398365
 20
-23.1148987905
 11
-21.8882398365
 21
-23.1148987905
  0
LINE
  5
27B
100
AcDbEntity
  8
RACCORDO
100
AcDbLine
 62
253
  6
CONTINUOUS
 10
22.9008701393
 20
-22.6310194482
 11
60.3903234369
 21
-22.6309360294
  0
LINE
  5
27C
100
AcDbEntity
  8
RACCORDO
100
AcDbLine
 62
253
  6
CONTINUOUS
 10
21.8882778217
 20
-22.5889882007
 11
-21.8882479637
 21
-22.5889882007
  0
LINE
  5
27D
100
AcDbEntity
  8
RACCORDO
100
AcDbLine
 62
253
  6
CONTINUOUS
 10
60.8472593806
 20
-22.5203789087
 11
61.0
 21
-22.5203789087
  0
LINE
  5
27E
100
AcDbEntity
  8
RACCORDO
100
AcDbLine
 62
253
  6
CONTINUOUS
 10
-60.8472593806
 20
-22.5203789087
 11
-61.0
 21
-22.5203789087
  0
LINE
  5
27F
100
AcDbEntity
  8
RACCORDO
100
AcDbLine
 62
7
  6
CONTINUOUS
 10
-21.7990249234
 20
-22.5
 11
21.7990249234
 21
-22.5
  0
LINE
  5
280
100
AcDbEntity
  8
RACCORDO
100
AcDbLine
 62
253
  6
CONTINUOUS
 10
-22.9008701393
 20
-22.6310194482
 11
-60.3903234359
 21
-22.6309360285
  0
LWPOLYLINE
  5
281
100
AcDbEntity
  8
RACCORDO
100
AcDbPolyline
 62
253
  6
CONTINUOUS
 90
18
 70
0
 10
-60.3491668284
 20
-22.5432326078
 10
-60.4312063993
 20
-22.5428945383
 10
-60.4715296121
 20
-22.5424730479
 10
-60.5110222349
 20
-22.5418866891
 10
-60.5494161945
 20
-22.541139442
 10
-60.5864508755
 20
-22.5402363788
 10
-60.621874889
 20
-22.5391836295
 10
-60.6554477792
 20
-22.5379883401
 10
-60.6869416558
 20
-22.5366586241
 10
-60.7161427406
 20
-22.5352035075
 10
-60.7428528185
 20
-22.5336328675
 10
-60.7668905836
 20
-22.5319573656
 10
-60.788092869
 20
-22.530188375
 10
-60.8063157552
 20
-22.5283379034
 10
-60.8214355466
 20
-22.5264185116
 10
-60.833349611
 20
-22.5244432285
 10
-60.8419770765
 20
-22.522425462
 10
-60.8472593806
 20
-22.5203789087
  0
LWPOLYLINE
  5
282
100
AcDbEntity
  8
RACCORDO
100
AcDbPolyline
 62
253
  6
CONTINUOUS
 90
18
 70
0
 10
23.1898863164
 20
-21.8144314823
 10
23.1059314718
 20
-21.8140882205
 10
23.0647008306
 20
-21.8136607821
 10
23.0243604075
 20
-21.8130664553
 10
22.9851970833
 20
-21.8123094669
 10
22.947489368
 20
-21.8113952001
 10
22.9115054199
 20
-21.8103301568
 10
22.8775011389
 20
-21.809121911
 10
22.8457183463
 20
-21.8077790552
 10
22.8163830654
 20
-21.806311139
 10
22.7897039141
 20
-21.8047286015
 10
22.765870621
 20
-21.8030426971
 10
22.7450526767
 20
-21.8012654149
 10
22.7273981278
 20
-21.7994093941
 10
22.7130325248
 20
-21.7974878339
 10
22.7020580285
 20
-21.7955143993
 10
22.6945526841
 20
-21.7935031244
 10
22.6905698658
 20
-21.7914683126
  0
LWPOLYLINE
  5
283
100
AcDbEntity
  8
RACCORDO
100
AcDbPolyline
 62
253
  6
CONTINUOUS
 90
17
 70
0
 10
-60.3903234359
 20
-22.6309360285
 10
-60.471526614
 20
-22.6302605529
 10
-60.511019179
 20
-22.6296730812
 10
-60.549413086
 20
-22.6289240627
 10
-60.5864477207
 20
-22.6280185816
 10
-60.6218716955
 20
-22.6269627842
 10
-60.6554445556
 20
-22.6257638372
 10
-60.6869384116
 20
-22.6244298789
 10
-60.716139486
 20
-22.6229699641
 10
-60.7428495646
 20
-22.6213940027
 10
-60.766887342
 20
-22.6197126919
 10
-60.7880896518
 20
-22.6179374446
 10
-60.8063125747
 20
-22.6160803108
 10
-60.8214324152
 20
-22.6141538966
 10
-60.8333465412
 20
-22.6121712784
 10
-60.8419740807
 20
-22.6101459139
 10
-60.8472564707
 20
-22.6080915512
  0
LWPOLYLINE
  5
284
100
AcDbEntity
  8
RACCORDO
100
AcDbPolyline
 62
253
  6
CONTINUOUS
 90
16
 70
0
 10
-21.8882398365
 20
-23.1148987905
 10
-21.96349092
 20
-23.1129194744
 10
-22.0387432805
 20
-23.1063428555
 10
-22.1139969181
 20
-23.0951689046
 10
-22.1896888417
 20
-23.0793863082
 10
-22.2653820424
 20
-23.0590062615
 10
-22.3397654929
 20
-23.0340624693
 10
-22.4128576802
 20
-23.0043550541
 10
-22.4846401174
 20
-22.9700836546
 10
-22.553746316
 20
-22.9318812426
 10
-22.6200385349
 20
-22.8896014802
 10
-22.6836545154
 20
-22.8433904092
 10
-22.7436409925
 20
-22.7943196185
 10
-22.7996802114
 20
-22.7427462394
 10
-22.852089927
 20
-22.6883128948
 10
-22.9008701393
 20
-22.6310194482
  0
LWPOLYLINE
  5
285
100
AcDbEntity
  8
RACCORDO
100
AcDbPolyline
 62
253
  6
CONTINUOUS
 90
16
 70
0
 10
-21.8882479775
 20
-22.5889882145
 10
-21.9344147345
 20
-22.5877449773
 10
-21.9808975617
 20
-22.5838047505
 10
-22.0275328892
 20
-22.5770997368
 10
-22.0742305039
 20
-22.567553504
 10
-22.1207255184
 20
-22.5551268985
 10
-22.1665918799
 20
-22.539866936
 10
-22.2116984891
 20
-22.5217708151
 10
-22.2558151674
 20
-22.500883428
 10
-22.2984093575
 20
-22.4774502383
 10
-22.3393164508
 20
-22.4516032205
 10
-22.3784317712
 20
-22.4234522053
 10
-22.4153912464
 20
-22.3933327705
 10
-22.4500443168
 20
-22.3614945546
 10
-22.4824161707
 20
-22.3280488225
 10
-22.5124604562
 20
-22.2931695584
  0
LWPOLYLINE
  5
286
100
AcDbEntity
  8
0
100
AcDbPolyline
 62
7
  6
CONTINUOUS
 90
10
 70
0
 10
4.34051343
 20
-26.5385722489
 10
4.2916348117
 20
-26.533645444
 10
4.242200923
 20
-26.5303963058
 10
4.1922117639
 20
-26.5288248416
 10
4.1415902558
 20
-26.5289152157
 10
4.0904134773
 20
-26.5306832672
 10
4.0389126642
 20
-26.5341765092
 10
3.9871648954
 20
-26.539410773
 10
3.935093092
 20
-26.5463702072
 10
3.8826972541
 20
-26.5550547959
  0
LWPOLYLINE
  5
287
100
AcDbEntity
  8
0
100
AcDbPolyline
 62
7
  6
CONTINUOUS
 90
51
 70
0
 10
4.7622484297
 20
-26.1402838735
 10
4.7932434465
 20
-26.1528344222
 10
4.8243930686
 20
-26.1679495777
 10
4.855697296
 20
-26.1856292898
 10
4.887281998
 20
-26.2057804574
 10
4.9190213053
 20
-26.2284960572
 10
4.9505376104
 20
-26.2540551345
 10
4.9820518874
 20
-26.2824862799
 10
5.0133431622
 20
-26.3137607012
 10
5.0433709049
 20
-26.3480713363
 10
5.0722641638
 20
-26.3858887886
 10
5.0998938906
 20
-26.4267421496
 10
5.1248324103
 20
-26.4694121271
 10
5.1467657291
 20
-26.5142456969
 10
5.1660078408
 20
-26.5608956534
 10
5.1820730518
 20
-26.6071016293
 10
5.1945045267
 20
-26.6524450286
 10
5.203759101
 20
-26.6973445119
 10
5.2107215871
 20
-26.7407957972
 10
5.2154439359
 20
-26.7824390564
 10
5.2178741965
 20
-26.8226342926
 10
5.2187413293
 20
-26.8614570237
 10
5.2181676752
 20
-26.8989225414
 10
5.2160308934
 20
-26.9350156925
 10
5.212692921
 20
-26.9697663199
 10
5.208171185
 20
-27.003167423
 10
5.2024482584
 20
-27.0352261258
 10
5.1958337983
 20
-27.0659934502
 10
5.1883399039
 20
-27.0954551228
 10
5.1799544758
 20
-27.1236255235
 10
5.1709508736
 20
-27.1505986451
 10
5.1613451113
 20
-27.1763762229
 10
5.1511211748
 20
-27.2009566086
 10
5.1405043814
 20
-27.22442871
 10
5.1295237242
 20
-27.2467818225
 10
5.1181502101
 20
-27.2680267214
 10
5.1065221779
 20
-27.2882845254
 10
5.0946461452
 20
-27.3075702827
 10
5.0825155944
 20
-27.3258689993
 10
5.0702493107
 20
-27.3432567233
 10
5.0578465358
 20
-27.3597135521
 10
5.0453080281
 20
-27.375259432
 10
5.0327548484
 20
-27.3900301783
 10
5.0201827379
 20
-27.4040159944
 10
5.0075959555
 20
-27.4172267086
 10
4.995128338
 20
-27.4298275658
 10
4.9827901076
 20
-27.4418328959
 10
4.9705710422
 20
-27.45322839
 10
4.9585743126
 20
-27.4641363293
 10
4.9468282511
 20
-27.4745622535
 10
4.9353045254
 20
-27.4845006376
  0
LWPOLYLINE
  5
288
100
AcDbEntity
  8
0
100
AcDbPolyline
 62
7
  6
CONTINUOUS
 90
3
 70
0
 10
4.8225031649
 20
-27.5709244369
 10
4.8499729217
 20
-27.5840141964
 10
4.8757271999
 20
-27.5986453898
  0
LWPOLYLINE
  5
289
100
AcDbEntity
  8
0
100
AcDbPolyline
 62
7
  6
CONTINUOUS
 90
22
 70
0
 10
4.8757271999
 20
-27.5986453898
 10
4.8997659995
 20
-27.6148179844
 10
4.9220305649
 20
-27.6328445567
 10
4.9425796517
 20
-27.6524124482
 10
4.9615895264
 20
-27.6725837946
 10
4.9789742294
 20
-27.6931753211
 10
4.9948197203
 20
-27.7143702696
 10
5.0095601447
 20
-27.7357805888
 10
5.0232381154
 20
-27.7573303327
 10
5.0358110194
 20
-27.7790954346
 10
5.0475851634
 20
-27.8009156781
 10
5.0586058
 20
-27.8227888213
 10
5.0688276765
 20
-27.8447171019
 10
5.0784213417
 20
-27.8665470334
 10
5.0873966572
 20
-27.8882460563
 10
5.0957437614
 20
-27.9098467362
 10
5.1036036193
 20
-27.9312932808
 10
5.1109657736
 20
-27.9525412982
 10
5.1178406817
 20
-27.9736351901
 10
5.1244006795
 20
-27.9946523534
 10
5.1306333255
 20
-28.0155889041
 10
5.1365510612
 20
-28.0364487302
  0
LINE
  5
28A
100
AcDbEntity
  8
RACCORDO
100
AcDbLine
 62
253
  6
CONTINUOUS
 10
-60.8448916333
 20
-43.845794038
 11
-60.9999996007
 21
-44.0035192549
  0
LINE
  5
28B
100
AcDbEntity
  8
RACCORDO
100
AcDbLine
 62
253
  6
CONTINUOUS
 10
-59.8566450886
 20
-44.8340076387
 11
-60.0199743099
 21
-45.0
  0
LINE
  5
28C
100
AcDbEntity
  8
RACCORDO
100
AcDbLine
 62
253
  6
CONTINUOUS
 10
-59.8566450886
 20
44.8340076387
 11
-60.0199743099
 21
45.0
  0
LINE
  5
28D
100
AcDbEntity
  8
RACCORDO
100
AcDbLine
 62
253
  6
CONTINUOUS
 10
-60.8448916333
 20
43.8457940385
 11
-60.9999996007
 21
44.0035192549
  0
LINE
  5
28E
100
AcDbEntity
  8
0
100
AcDbLine
 62
7
  6
CONTINUOUS
 10
-1.400068
 20
-27.049647
 11
-0.714487
 21
-28.877801
  0
LINE
  5
28F
100
AcDbEntity
  8
0
100
AcDbLine
 62
7
  6
CONTINUOUS
 10
-1.24855
 20
-26.078098
 11
-0.670314
 21
-27.632502
  0
LINE
  5
290
100
AcDbEntity
  8
0
100
AcDbLine
 62
7
  6
CONTINUOUS
 10
-5.503668
 20
-26.078098
 11
-4.616107
 21
-28.877801
  0
LINE
  5
291
100
AcDbEntity
  8
0
100
AcDbLine
 62
7
  6
CONTINUOUS
 10
-4.86882
 20
-26.078098
 11
-4.335146
 21
-28.00522
  0
LWPOLYLINE
  5
292
100
AcDbEntity
  8
0
100
AcDbPolyline
 62
7
  6
CONTINUOUS
 90
19
 70
0
 10
4.5414020591
 20
-28.0286629448
 10
4.532141806
 20
-28.0059211686
 10
4.5217462995
 20
-27.9838763747
 10
4.5102155394
 20
-27.9625285862
 10
4.4975372212
 20
-27.9417855217
 10
4.4837236496
 20
-27.9217395051
 10
4.4688117379
 20
-27.9026674745
 10
4.4528151268
 20
-27.8845343306
 10
4.4357201757
 20
-27.8673752262
 10
4.4175228767
 20
-27.8515724927
 10
4.3981348729
 20
-27.8371188351
 10
4.3776445213
 20
-27.8240216093
 10
4.3563128844
 20
-27.8126851361
 10
4.334069844
 20
-27.8032553258
 10
4.3109855184
 20
-27.7955863236
 10
4.2875313256
 20
-27.789644804
 10
4.263864405
 20
-27.7854196671
 10
4.2398276172
 20
-27.7829220386
 10
4.2154209623
 20
-27.7821519248
  0
LINE
  5
293
100
AcDbEntity
  8
0
100
AcDbLine
 62
7
  6
CONTINUOUS
 10
2.28939
 20
-26.078098
 11
3.148408
 21
-28.877801
  0
LINE
  5
294
100
AcDbEntity
  8
0
100
AcDbLine
 62
7
  6
CONTINUOUS
 10
2.381074
 20
-28.318881
 11
2.532466
 21
-28.877801
  0
LINE
  5
295
100
AcDbEntity
  8
0
100
AcDbLine
 62
7
  6
CONTINUOUS
 10
1.995737
 20
-26.847385
 11
2.26428
 21
-27.886391
  0
LINE
  5
296
100
AcDbEntity
  8
0
100
AcDbLine
 62
7
  6
CONTINUOUS
 10
0.492308
 20
-26.078098
 11
0.754112
 21
-28.877801
  0
LINE
  5
297
100
AcDbEntity
  8
0
100
AcDbLine
 62
7
  6
CONTINUOUS
 10
0.062337
 20
-27.057269
 11
0.182406
 21
-28.877801
  0
LINE
  5
298
100
AcDbEntity
  8
0
100
AcDbLine
 62
7
  6
CONTINUOUS
 10
-2.984285
 20
-26.07793
 11
-2.984285
 21
-28.877801
  0
LINE
  5
299
100
AcDbEntity
  8
0
100
AcDbLine
 62
7
  6
CONTINUOUS
 10
-2.399877
 20
-26.07793
 11
-2.399877
 21
-28.877801
  0
LINE
  5
29A
100
AcDbEntity
  8
0
100
AcDbLine
 62
7
  6
CONTINUOUS
 10
-1.400068
 20
-27.049647
 11
-1.526183
 21
-28.877801
  0
LINE
  5
29B
100
AcDbEntity
  8
0
100
AcDbLine
 62
7
  6
CONTINUOUS
 10
-1.832475
 20
-26.078098
 11
-2.085272
 21
-28.877801
  0
LINE
  5
29C
100
AcDbEntity
  8
RACCORDO
100
AcDbLine
 62
253
  6
CONTINUOUS
 10
-22.6905731938
 20
-21.7915019943
 11
-22.6000000304
 21
-21.7011338162
  0
LINE
  5
29D
100
AcDbEntity
  8
RACCORDO
100
AcDbLine
 62
253
  6
CONTINUOUS
 10
22.6905731942
 20
21.7915025806
 11
22.6000000304
 21
21.7011338162
  0
LINE
  5
29E
100
AcDbEntity
  8
RACCORDO
100
AcDbLine
 62
253
  6
CONTINUOUS
 10
21.8882483498
 20
22.5889882007
 11
21.7990249234
 21
22.5
  0
LINE
  5
29F
100
AcDbEntity
  8
RACCORDO
100
AcDbLine
 62
253
  6
CONTINUOUS
 10
-21.8882479637
 20
-22.5889882007
 11
-21.7990249234
 21
-22.5
  0
LWPOLYLINE
  5
2A0
100
AcDbEntity
  8
RACCORDO
100
AcDbPolyline
 62
253
  6
CONTINUOUS
 90
12
 70
0
 10
22.6831268989
 20
22.4508096014
 10
22.6565924351
 20
22.4281049821
 10
22.6318188998
 20
22.4066818451
 10
22.6089848826
 20
22.3866946273
 10
22.5882549913
 20
22.3682874142
 10
22.5697786655
 20
22.3515929015
 10
22.5536890989
 20
22.336731438
 10
22.5401022794
 20
22.3238101582
 10
22.5291161529
 20
22.3129222102
 10
22.5208099172
 20
22.304146084
 10
22.515243451
 20
22.2975450456
 10
22.5124568823
 20
22.2931666812
  0
LINE
  5
2A1
100
AcDbEntity
  8
RACCORDO
100
AcDbLine
 62
253
  6
CONTINUOUS
 10
22.7407021604
 20
22.4994005285
 11
22.6831268989
 21
22.4508096014
  0
LINE
  5
2A2
100
AcDbEntity
  8
RACCORDO
100
AcDbLine
 62
253
  6
CONTINUOUS
 10
22.802887462
 20
22.5510560054
 11
22.7407021604
 21
22.4994005285
  0
LWPOLYLINE
  5
2A3
100
AcDbEntity
  8
RACCORDO
100
AcDbPolyline
 62
253
  6
CONTINUOUS
 90
3
 70
0
 10
22.9008701392
 20
22.6310191921
 10
22.8678928877
 20
22.6042892027
 10
22.802887462
 20
22.5510560054
  0
LINE
  5
2A4
100
AcDbEntity
  8
RACCORDO
100
AcDbLine
 62
253
  6
CONTINUOUS
 10
22.9008701394
 20
-22.6310191555
 11
22.8351532863
 21
-22.5775705333
  0
LINE
  5
2A5
100
AcDbEntity
  8
RACCORDO
100
AcDbLine
 62
253
  6
CONTINUOUS
 10
22.8351532863
 20
-22.5775705333
 11
22.7713278102
 21
-22.5249364327
  0
LWPOLYLINE
  5
2A6
100
AcDbEntity
  8
RACCORDO
100
AcDbPolyline
 62
253
  6
CONTINUOUS
 90
14
 70
0
 10
22.7713278102
 20
-22.5249364327
 10
22.7112308418
 20
-22.4746318553
 10
22.6831266952
 20
-22.4508093994
 10
22.6565921922
 20
-22.4281047504
 10
22.6318186177
 20
-22.4066815842
 10
22.608984562
 20
-22.3866943381
 10
22.5882546338
 20
-22.3682870985
 10
22.5697782732
 20
-22.3515925611
 10
22.5536886747
 20
-22.3367310755
 10
22.5401018266
 20
-22.3238097766
 10
22.5291156755
 20
-22.3129218128
 10
22.5208094194
 20
-22.3041456743
 10
22.5152429374
 20
-22.2975446275
 10
22.5124563579
 20
-22.2931662586
  0
LINE
  5
2A7
100
AcDbEntity
  8
RACCORDO
100
AcDbLine
 62
253
  6
CONTINUOUS
 10
21.8882778217
 20
-22.5889882007
 11
21.7990249234
 21
-22.5
  0
LINE
  5
2A8
100
AcDbEntity
  8
RACCORDO
100
AcDbLine
 62
253
  6
CONTINUOUS
 10
-21.888277515
 20
22.5889882007
 11
-21.7990249234
 21
22.5
  0
LINE
  5
2A9
100
AcDbEntity
  8
RACCORDO
100
AcDbLine
 62
253
  6
CONTINUOUS
 10
-22.6905731783
 20
21.7914779004
 11
-22.6000000304
 21
21.7011338162
  0
LINE
  5
2AA
100
AcDbEntity
  8
RACCORDO
100
AcDbLine
 62
253
  6
CONTINUOUS
 10
22.6905731786
 20
-21.791478323
 11
22.6000000304
 21
-21.7011338162
  0
LWPOLYLINE
  5
2AB
100
AcDbEntity
  8
0
100
AcDbPolyline
 62
7
  6
CONTINUOUS
 90
8
 70
0
 10
4.6307849224
 20
-28.3028346202
 10
4.619114253
 20
-28.263328288
 10
4.6071906269
 20
-28.2239422879
 10
4.5950137538
 20
-28.1846805603
 10
4.5823680217
 20
-28.1455236958
 10
4.5691815599
 20
-28.1064652298
 10
4.555526239
 20
-28.0675116433
 10
4.5414020591
 20
-28.0286629448
  0
LINE
  5
2AC
100
AcDbEntity
  8
0
100
AcDbLine
 62
7
  6
CONTINUOUS
 10
4.7970156219
 20
-28.8778013544
 11
4.6993517039
 21
-28.5430448886
  0
LWPOLYLINE
  5
2AD
100
AcDbEntity
  8
0
100
AcDbPolyline
 62
7
  6
CONTINUOUS
 90
4
 70
0
 10
4.6993517039
 20
-28.5430448886
 10
4.6762490199
 20
-28.4622820965
 10
4.6649343936
 20
-28.4221889556
 10
4.6307849224
 20
-28.3028346202
  0
LWPOLYLINE
  5
2AE
100
AcDbEntity
  8
0
100
AcDbPolyline
 62
7
  6
CONTINUOUS
 90
3
 70
0
 10
5.1365510612
 20
-28.0364487302
 10
5.1481406719
 20
-28.078235041
 10
5.1538125468
 20
-28.0991615235
  0
LINE
  5
2AF
100
AcDbEntity
  8
0
100
AcDbLine
 62
7
  6
CONTINUOUS
 10
5.1538125468
 20
-28.0991615235
 11
5.2288681329
 21
-28.3806200881
  0
LINE
  5
2B0
100
AcDbEntity
  8
0
100
AcDbLine
 62
7
  6
CONTINUOUS
 10
5.2288681329
 20
-28.3806200881
 11
5.3591482119
 21
-28.8778013544
  0
LWPOLYLINE
  5
2B1
100
AcDbEntity
  8
0
100
AcDbPolyline
 62
7
  6
CONTINUOUS
 90
19
 70
0
 10
4.670652144
 20
-26.8887857312
 10
4.6692892817
 20
-26.8622176389
 10
4.6657637304
 20
-26.8356526885
 10
4.6600754899
 20
-26.8090908809
 10
4.6522720757
 20
-26.7823065066
 10
4.6423059723
 20
-26.7555252712
 10
4.6300346339
 20
-26.7294243227
 10
4.6153506576
 20
-26.703893382
 10
4.5983614461
 20
-26.6790427744
 10
4.5792466627
 20
-26.6558806106
 10
4.5577985608
 20
-26.6345942172
 10
4.534224887
 20
-26.6149963731
 10
4.5093285433
 20
-26.5975334072
 10
4.4831277861
 20
-26.5823508269
 10
4.4556043591
 20
-26.5693032204
 10
4.4275063965
 20
-26.5584005397
 10
4.3990832766
 20
-26.549646121
 10
4.370085621
 20
-26.5430366845
 10
4.34051343
 20
-26.5385722489
  0
LINE
  5
2B2
100
AcDbEntity
  8
0
100
AcDbLine
 62
7
  6
CONTINUOUS
 10
3.3200188023
 20
-26.110807341
 11
3.3200188023
 21
-28.8778013544
  0
LINE
  5
2B3
100
AcDbEntity
  8
0
100
AcDbLine
 62
7
  6
CONTINUOUS
 10
3.8826972541
 20
-26.5550547959
 11
3.8826972541
 21
-27.3236280866
  0
LINE
  5
2B4
100
AcDbEntity
  8
0
100
AcDbLine
 62
7
  6
CONTINUOUS
 10
3.9020753449
 20
-27.7821519248
 11
3.9020753449
 21
-28.8778013544
  0
LINE
  5
2B5
100
AcDbEntity
  8
0
100
AcDbLine
 62
7
  6
CONTINUOUS
 10
4.8225031649
 20
-27.554380628
 11
4.8225031649
 21
-27.5709244369
  0
LINE
  5
2B6
100
AcDbEntity
  8
0
100
AcDbLine
 62
7
  6
CONTINUOUS
 10
-3.785169
 20
-26.078098
 11
-4.335146
 21
-28.00522
  0
LINE
  5
2B7
100
AcDbEntity
  8
0
100
AcDbLine
 62
7
  6
CONTINUOUS
 10
-3.20116
 20
-26.078098
 11
-4.101097
 21
-28.877801
  0
LWPOLYLINE
  5
2B8
100
AcDbEntity
  8
RACCORDO
100
AcDbPolyline
 62
253
  6
CONTINUOUS
 90
12
 70
0
 10
-22.6831269901
 20
-22.4508096818
 10
-22.6565925424
 20
-22.4281050744
 10
-22.6318190228
 20
-22.4066819491
 10
-22.6089850208
 20
-22.3866947427
 10
-22.5882551438
 20
-22.3682875404
 10
-22.5697788311
 20
-22.3515930376
 10
-22.5536892763
 20
-22.336731583
 10
-22.5401024669
 20
-22.3238103108
 10
-22.5291163488
 20
-22.3129223691
 10
-22.5208101195
 20
-22.3041462476
 10
-22.5152436576
 20
-22.2975452124
 10
-22.5124570911
 20
-22.2931668494
  0
LINE
  5
2B9
100
AcDbEntity
  8
RACCORDO
100
AcDbLine
 62
253
  6
CONTINUOUS
 10
-22.7407022201
 20
-22.4994005858
 11
-22.6831269901
 21
-22.4508096818
  0
LINE
  5
2BA
100
AcDbEntity
  8
RACCORDO
100
AcDbLine
 62
253
  6
CONTINUOUS
 10
-22.8028874931
 20
-22.5510560424
 11
-22.7407022201
 21
-22.4994005858
  0
LWPOLYLINE
  5
2BB
100
AcDbEntity
  8
RACCORDO
100
AcDbPolyline
 62
253
  6
CONTINUOUS
 90
3
 70
0
 10
-22.9008701392
 20
-22.6310192088
 10
-22.867892896
 20
-22.6042892244
 10
-22.8028874931
 20
-22.5510560424
  0
LINE
  5
2BC
100
AcDbEntity
  8
RACCORDO
100
AcDbLine
 62
253
  6
CONTINUOUS
 10
-22.9008701394
 20
22.6310191773
 11
-22.83515331
 21
22.5775705708
  0
LINE
  5
2BD
100
AcDbEntity
  8
RACCORDO
100
AcDbLine
 62
253
  6
CONTINUOUS
 10
-22.83515331
 20
22.5775705708
 11
-22.771327867
 21
22.5249364937
  0
LWPOLYLINE
  5
2BE
100
AcDbEntity
  8
RACCORDO
100
AcDbPolyline
 62
253
  6
CONTINUOUS
 90
14
 70
0
 10
-22.771327867
 20
22.5249364937
 10
-22.7112309377
 20
22.4746319447
 10
-22.6831268118
 20
22.450809504
 10
-22.6565923296
 20
22.4281048706
 10
-22.6318187755
 20
22.4066817196
 10
-22.6089847397
 20
22.3866944883
 10
-22.5882548302
 20
22.3682872626
 10
-22.5697784869
 20
22.3515927382
 10
-22.5536889039
 20
22.3367312641
 10
-22.5401020694
 20
22.3238099752
 10
-22.5291159295
 20
22.3129220196
 10
-22.5208096822
 20
22.3041458874
 10
-22.5152432064
 20
22.2975448447
 10
-22.5124566303
 20
22.2931664778
  0
LINE
  5
2BF
100
AcDbEntity
  8
0
100
AcDbLine
 62
7
  6
CONTINUOUS
 10
1.995737
 20
-26.847385
 11
1.704751
 21
-27.886391
  0
LINE
  5
2C0
100
AcDbEntity
  8
0
100
AcDbLine
 62
7
  6
CONTINUOUS
 10
1.585207
 20
-28.318881
 11
1.423947
 21
-28.877801
  0
LINE
  5
2C1
100
AcDbEntity
  8
0
100
AcDbLine
 62
7
  6
CONTINUOUS
 10
1.724045
 20
-26.078098
 11
0.84588
 21
-28.877801
  0
LINE
  5
2C2
100
AcDbEntity
  8
0
100
AcDbLine
 62
7
  6
CONTINUOUS
 10
-0.085906
 20
-26.078098
 11
-0.670314
 21
-27.632502
  0
LINE
  5
2C3
100
AcDbEntity
  8
0
100
AcDbLine
 62
7
  6
CONTINUOUS
 10
0.062337
 20
-27.057269
 11
-0.632524
 21
-28.877801
  0
LINE
  5
2C4
100
AcDbEntity
  8
RACCORDO
100
AcDbLine
 62
253
  6
CONTINUOUS
 10
59.8566450886
 20
44.8340076387
 11
60.0199743099
 21
45.0
  0
LINE
  5
2C5
100
AcDbEntity
  8
RACCORDO
100
AcDbLine
 62
253
  6
CONTINUOUS
 10
59.8566450886
 20
-44.8340076387
 11
60.0199743099
 21
-45.0
  0
LINE
  5
2C6
100
AcDbEntity
  8
RACCORDO
100
AcDbLine
 62
253
  6
CONTINUOUS
 10
60.8448916333
 20
43.845794038
 11
60.9999996007
 21
44.0035192549
  0
LINE
  5
2C7
100
AcDbEntity
  8
RACCORDO
100
AcDbLine
 62
253
  6
CONTINUOUS
 10
60.8448916333
 20
-43.8457940385
 11
60.9999996007
 21
-44.0035192549
  0
LINE
  5
2C8
100
AcDbEntity
  8
RACCORDO
100
AcDbLine
 62
253
  6
CONTINUOUS
 10
21.8882398365
 20
23.1148987905
 11
21.8882398366
 21
22.5889882007
  0
LINE
  5
2C9
100
AcDbEntity
  8
RACCORDO
100
AcDbLine
 62
253
  6
CONTINUOUS
 10
21.8882398365
 20
-23.1148987905
 11
21.8882398365
 21
-22.5889882007
  0
LINE
  5
2CA
100
AcDbEntity
  8
RACCORDO
100
AcDbLine
 62
7
  6
CONTINUOUS
 10
22.6000000304
 20
-21.7011338162
 11
22.6000000304
 21
21.7011338162
  0
LWPOLYLINE
  5
2CB
100
AcDbEntity
  8
RACCORDO
100
AcDbPolyline
 62
253
  6
CONTINUOUS
 90
16
 70
0
 10
23.0647013173
 20
21.8136609015
 10
23.024361109
 20
21.8130665564
 10
22.9851980169
 20
21.8123095511
 10
22.9474905456
 20
21.811395269
 10
22.911506848
 20
21.810330212
 10
22.8775028187
 20
21.8091219541
 10
22.8457202739
 20
21.8077790877
 10
22.8163852322
 20
21.8063111625
 10
22.7897063068
 20
21.8047286174
 10
22.7658732222
 20
21.8030427066
 10
22.7450554652
 20
21.8012654193
 10
22.727401079
 20
21.7994093945
 10
22.7130356112
 20
21.797487831
 10
22.7020612204
 20
21.795514394
 10
22.6945559499
 20
21.7935031174
 10
22.6905731727
 20
21.791468304
  0
LWPOLYLINE
  5
2CC
100
AcDbEntity
  8
RACCORDO
100
AcDbPolyline
 62
253
  6
CONTINUOUS
 90
3
 70
0
 10
23.1898863164
 20
21.8144316653
 10
23.1477592502
 20
21.8143458915
 10
23.0647013173
 20
21.8136609015
  0
LINE
  5
2CD
100
AcDbEntity
  8
RACCORDO
100
AcDbLine
 62
7
  6
CONTINUOUS
 10
21.7990249234
 20
22.5
 11
-21.7990249234
 21
22.5
  0
LINE
  5
2CE
100
AcDbEntity
  8
RACCORDO
100
AcDbLine
 62
253
  6
CONTINUOUS
 10
60.8472593806
 20
22.5203789087
 11
61.0
 21
22.5203789087
  0
LINE
  5
2CF
100
AcDbEntity
  8
RACCORDO
100
AcDbLine
 62
253
  6
CONTINUOUS
 10
-60.8472593806
 20
22.5203789087
 11
-61.0
 21
22.5203789087
  0
LINE
  5
2D0
100
AcDbEntity
  8
RACCORDO
100
AcDbLine
 62
253
  6
CONTINUOUS
 10
-21.888277515
 20
22.5889882007
 11
21.8882483498
 21
22.5889882007
  0
LWPOLYLINE
  5
2D1
100
AcDbEntity
  8
RACCORDO
100
AcDbPolyline
 62
253
  6
CONTINUOUS
 90
18
 70
0
 10
-23.1898863164
 20
21.8144314751
 10
-23.1059314602
 20
21.814088215
 10
-23.0647008113
 20
21.8136607774
 10
-23.0243603797
 20
21.8130664514
 10
-22.9851970463
 20
21.8123094636
 10
-22.9474893213
 20
21.8113951975
 10
-22.9115053633
 20
21.8103301547
 10
-22.8775010722
 20
21.8091219094
 10
-22.8457182698
 20
21.8077790539
 10
-22.8163829794
 20
21.8063111381
 10
-22.7897038191
 20
21.8047286009
 10
-22.7658705177
 20
21.8030426967
 10
-22.7450525659
 20
21.8012654147
 10
-22.7273980106
 20
21.7994093941
 10
-22.7130324021
 20
21.797487834
 10
-22.7020579016
 20
21.7955143995
 10
-22.6945525542
 20
21.7935031247
 10
-22.6905697342
 20
21.7914683129
  0
LWPOLYLINE
  5
2D2
100
AcDbEntity
  8
RACCORDO
100
AcDbPolyline
 62
7
  6
CONTINUOUS
 90
25
 70
0
 10
22.6000000304
 20
21.7011338162
 10
22.5983133338
 20
21.7532149459
 10
22.5932577281
 20
21.8047950352
 10
22.5848332135
 20
21.855874092
 10
22.5729548361
 20
21.9067511078
 10
22.5577075498
 20
21.9571271031
 10
22.5393462156
 20
22.0061051433
 10
22.5179085355
 20
22.0534957168
 10
22.4933568076
 20
22.0994883805
 10
22.4658327874
 20
22.143754821
 10
22.4352133541
 20
22.1864259539
 10
22.4016216286
 20
22.2273709113
 10
22.3655687287
 20
22.2658687184
 10
22.3269856534
 20
22.3018503551
 10
22.2859414038
 20
22.3353849024
 10
22.2431541008
 20
22.3659585498
 10
22.1987463026
 20
22.3934508262
 10
22.152595451
 20
22.4179822607
 10
22.1050519923
 20
22.4394005457
 10
22.0559446846
 20
22.4577375369
 10
22.0054447697
 20
22.47296142
 10
21.954416419
 20
22.4848243794
 10
21.9031476896
 20
22.4932438182
 10
21.8513505244
 20
22.4983023565
 10
21.7990249234
 20
22.5
  0
LINE
  5
2D3
100
AcDbEntity
  8
RACCORDO
100
AcDbLine
 62
253
  6
CONTINUOUS
 10
22.6905731942
 20
21.7915025806
 11
22.6905731786
 21
-21.791478323
  0
LINE
  5
2D4
100
AcDbEntity
  8
RACCORDO
100
AcDbLine
 62
253
  6
CONTINUOUS
 10
23.1898863164
 20
21.8144316658
 11
23.1898863164
 21
-21.8144316658
  0
LWPOLYLINE
  5
2D5
100
AcDbEntity
  8
RACCORDO
100
AcDbPolyline
 62
253
  6
CONTINUOUS
 90
13
 70
0
 10
23.1898863164
 20
-21.8144316658
 10
23.1880960837
 20
-21.8858793997
 10
23.1821468697
 20
-21.9573807282
 10
23.1720386743
 20
-22.0289356483
 10
23.1577556229
 20
-22.1009480075
 10
23.1393135903
 20
-22.1730139457
 10
23.1167602004
 20
-22.2439219269
 10
23.0899011972
 20
-22.3136982137
 10
23.0589308369
 20
-22.3823165933
 10
23.0244795117
 20
-22.4484868739
 10
22.9867573524
 20
-22.5117790389
 10
22.9455542283
 20
-22.5726232141
 10
22.9008701393
 20
-22.6310194482
  0
LWPOLYLINE
  5
2D6
100
AcDbEntity
  8
RACCORDO
100
AcDbPolyline
 62
253
  6
CONTINUOUS
 90
13
 70
0
 10
22.6905731695
 20
-21.791478314
 10
22.6893770782
 20
-21.8351950726
 10
22.6857316239
 20
-21.8792128622
 10
22.6795752397
 20
-21.923391338
 10
22.6708338934
 20
-21.9676721977
 10
22.6594723185
 20
-22.0118087413
 10
22.6455453026
 20
-22.0553790931
 10
22.6290537098
 20
-22.0982721402
 10
22.6100379978
 20
-22.1402935786
 10
22.5887357052
 20
-22.1809366462
 10
22.5653271949
 20
-22.2199718949
 10
22.5398636444
 20
-22.2574153782
 10
22.5124604562
 20
-22.2931695584
  0
LWPOLYLINE
  5
2D7
100
AcDbEntity
  8
0
100
AcDbPolyline
 62
7
  6
CONTINUOUS
 90
10
 70
0
 10
4.9353045254
 20
-27.4845006376
 10
4.9130691091
 20
-27.5033199856
 10
4.9023574184
 20
-27.512200959
 10
4.8916328994
 20
-27.5205412851
 10
4.8809594967
 20
-27.5284558822
 10
4.8702732657
 20
-27.5358298438
 10
4.8591290343
 20
-27.5421596433
 10
4.8473784116
 20
-27.5472774467
 10
4.8351697885
 20
-27.5513511062
 10
4.8225031649
 20
-27.554380628
  0
LWPOLYLINE
  5
2D8
100
AcDbEntity
  8
RACCORDO
100
AcDbPolyline
 62
7
  6
CONTINUOUS
 90
25
 70
0
 10
-21.7990249234
 20
22.5
 10
-21.8513240094
 20
22.4983104261
 10
-21.9031131864
 20
22.4932534631
 10
-21.9543924545
 20
22.4848291052
 10
-22.0054625192
 20
22.4729509001
 10
-22.0560226751
 20
22.4577052768
 10
-22.1051708052
 20
22.4393515476
 10
-22.1527156104
 20
22.4179275284
 10
-22.19884839
 20
22.393395362
 10
-22.2432409247
 20
22.365900848
 10
-22.2860246785
 20
22.3353202354
 10
-22.3270681874
 20
22.3017772171
 10
-22.3656488412
 20
22.2657887614
 10
-22.4016951091
 20
22.2272882844
 10
-22.4352785217
 20
22.1863423092
 10
-22.4658910611
 20
22.1436674776
 10
-22.4934127797
 20
22.0993858384
 10
-22.5179636251
 20
22.0533752949
 10
-22.5393954213
 20
22.0059862851
 10
-22.5577398797
 20
21.9570493345
 10
-22.5729652891
 20
21.9067338732
 10
-22.5848283398
 20
21.8558987137
 10
-22.5932479286
 20
21.8048301281
 10
-22.5983051588
 20
21.7532418316
 10
-22.6000000304
 20
21.7011338162
  0
LWPOLYLINE
  5
2D9
100
AcDbEntity
  8
RACCORDO
100
AcDbPolyline
 62
253
  6
CONTINUOUS
 90
16
 70
0
 10
-60.4715296113
 20
22.5424730477
 10
-60.5110222338
 20
22.5418866889
 10
-60.5494161932
 20
22.5411394418
 10
-60.5864508739
 20
22.5402363786
 10
-60.6218748872
 20
22.5391836293
 10
-60.6554477773
 20
22.5379883399
 10
-60.6869416538
 20
22.5366586239
 10
-60.7161427385
 20
22.5352035073
 10
-60.7428528165
 20
22.5336328674
 10
-60.7668905816
 20
22.5319573655
 10
-60.7880928672
 20
22.5301883749
 10
-60.8063157536
 20
22.5283379033
 10
-60.8214355451
 20
22.5264185116
 10
-60.8333496098
 20
22.5244432284
 10
-60.8419770757
 20
22.522425462
 10
-60.8472593802
 20
22.5203789087
  0
LWPOLYLINE
  5
2DA
100
AcDbEntity
  8
RACCORDO
100
AcDbPolyline
 62
253
  6
CONTINUOUS
 90
16
 70
0
 10
-60.4715266169
 20
22.6302605538
 10
-60.5110191827
 20
22.6296730821
 10
-60.5494130905
 20
22.6289240635
 10
-60.5864477259
 20
22.6280185823
 10
-60.6218717013
 20
22.6269627849
 10
-60.6554445618
 20
22.6257638378
 10
-60.6869384181
 20
22.6244298795
 10
-60.7161394927
 20
22.6229699647
 10
-60.7428495713
 20
22.6213940031
 10
-60.7668873484
 20
22.6197126924
 10
-60.7880896578
 20
22.6179374449
 10
-60.8063125802
 20
22.6160803111
 10
-60.8214324199
 20
22.6141538968
 10
-60.833346545
 20
22.6121712785
 10
-60.8419740833
 20
22.610145914
 10
-60.8472564721
 20
22.6080915512
  0
LINE
  5
2DB
100
AcDbEntity
  8
RACCORDO
100
AcDbLine
 62
253
  6
CONTINUOUS
 10
-60.3903234369
 20
22.6309360294
 11
-60.4715266169
 21
22.6302605538
  0
LWPOLYLINE
  5
2DC
100
AcDbEntity
  8
RACCORDO
100
AcDbPolyline
 62
253
  6
CONTINUOUS
 90
3
 70
0
 10
-60.3491668284
 20
22.5432326076
 10
-60.3903263074
 20
22.5431482988
 10
-60.4715296113
 20
22.5424730477
  0
LINE
  5
2DD
100
AcDbEntity
  8
RACCORDO
100
AcDbLine
 62
253
  6
CONTINUOUS
 10
-60.3903234369
 20
22.6309360294
 11
-22.9008701393
 21
22.6310194482
  0
LINE
  5
2DE
100
AcDbEntity
  8
RACCORDO
100
AcDbLine
 62
253
  6
CONTINUOUS
 10
-21.8882398365
 20
23.1148987905
 11
21.8882398365
 21
23.1148987905
  0
LINE
  5
2DF
100
AcDbEntity
  8
RACCORDO
100
AcDbLine
 62
253
  6
CONTINUOUS
 10
22.9008701393
 20
22.6310194482
 11
60.390323436
 21
22.6309360285
  0
LWPOLYLINE
  5
2E0
100
AcDbEntity
  8
RACCORDO
100
AcDbPolyline
 62
253
  6
CONTINUOUS
 90
18
 70
0
 10
60.3491668284
 20
22.5432326078
 10
60.4312063993
 20
22.5428945383
 10
60.4715296121
 20
22.5424730479
 10
60.5110222349
 20
22.5418866891
 10
60.5494161945
 20
22.541139442
 10
60.5864508755
 20
22.5402363788
 10
60.621874889
 20
22.5391836295
 10
60.6554477792
 20
22.5379883401
 10
60.6869416558
 20
22.5366586241
 10
60.7161427406
 20
22.5352035075
 10
60.7428528185
 20
22.5336328675
 10
60.7668905836
 20
22.5319573656
 10
60.788092869
 20
22.530188375
 10
60.8063157552
 20
22.5283379034
 10
60.8214355466
 20
22.5264185116
 10
60.833349611
 20
22.5244432285
 10
60.8419770765
 20
22.522425462
 10
60.8472593806
 20
22.5203789087
  0
LWPOLYLINE
  5
2E1
100
AcDbEntity
  8
RACCORDO
100
AcDbPolyline
 62
253
  6
CONTINUOUS
 90
17
 70
0
 10
60.390323436
 20
22.6309360285
 10
60.4715266144
 20
22.630260553
 10
60.5110191794
 20
22.6296730813
 10
60.5494130865
 20
22.6289240628
 10
60.5864477213
 20
22.6280185816
 10
60.6218716961
 20
22.6269627842
 10
60.6554445562
 20
22.6257638372
 10
60.6869384122
 20
22.624429879
 10
60.7161394867
 20
22.6229699642
 10
60.7428495653
 20
22.6213940027
 10
60.7668873427
 20
22.619712692
 10
60.7880896524
 20
22.6179374446
 10
60.8063125752
 20
22.6160803108
 10
60.8214324157
 20
22.6141538966
 10
60.8333465416
 20
22.6121712784
 10
60.8419740809
 20
22.6101459139
 10
60.8472564709
 20
22.6080915512
  0
LWPOLYLINE
  5
2E2
100
AcDbEntity
  8
RACCORDO
100
AcDbPolyline
 62
253
  6
CONTINUOUS
 90
19
 70
0
 10
21.8882483643
 20
22.5889882152
 10
21.926715819
 20
22.5881359839
 10
21.9654117654
 20
22.5854182408
 10
22.0042428309
 20
22.5807958157
 10
22.0431257458
 20
22.5742318686
 10
22.0819446709
 20
22.5656973591
 10
22.1205528884
 20
22.5551781022
 10
22.1589196706
 20
22.5426339888
 10
22.1968568292
 20
22.5280769593
 10
22.2339944177
 20
22.5116255258
 10
22.2702146712
 20
22.4933355559
 10
22.3054498652
 20
22.473245342
 10
22.3394395556
 20
22.451520839
 10
22.3721086996
 20
22.4282487309
 10
22.403400919
 20
22.4035096171
 10
22.433124088
 20
22.377511642
 10
22.4612016764
 20
22.3504045167
 10
22.4876538005
 20
22.3222556523
 10
22.5124604562
 20
22.2931695584
  0
LWPOLYLINE
  5
2E3
100
AcDbEntity
  8
RACCORDO
100
AcDbPolyline
 62
253
  6
CONTINUOUS
 90
19
 70
0
 10
21.8882398365
 20
23.1148987905
 10
21.9507582081
 20
23.1135143027
 10
22.0133777917
 20
23.1089711462
 10
22.0760985874
 20
23.1012693073
 10
22.1391229599
 20
23.0904407128
 10
22.2022485445
 20
23.07645338
 10
22.2648682464
 20
23.059211415
 10
22.3270886005
 20
23.0386008559
 10
22.388803072
 20
23.0147355464
 10
22.4490849617
 20
22.9878612907
 10
22.5078604952
 20
22.9578939809
 10
22.5652034469
 20
22.9249175635
 10
22.6204084412
 20
22.8894299332
 10
22.6734055531
 20
22.8513651828
 10
22.7242647076
 20
22.8107890491
 10
22.7724903035
 20
22.7683969267
 10
22.8179171406
 20
22.7244205793
 10
22.8607104192
 20
22.6786281106
 10
22.9008701393
 20
22.6310194482
  0
LWPOLYLINE
  5
2E4
100
AcDbEntity
  8
RACCORDO
100
AcDbPolyline
 62
253
  6
CONTINUOUS
 90
16
 70
0
 10
22.9008701393
 20
-22.6310194482
 10
22.8505262154
 20
-22.6897330709
 10
22.797046493
 20
-22.7450967429
 10
22.740430972
 20
-22.7971106279
 10
22.6804523783
 20
-22.8459696592
 10
22.6173379862
 20
-22.8914792005
 10
22.5517696181
 20
-22.933055073
 10
22.4836617418
 20
-22.9706523064
 10
22.4130998895
 20
-23.00431616
 10
22.3410224815
 20
-23.0335978182
 10
22.2673855973
 20
-23.0584022221
 10
22.1922331574
 20
-23.0788246559
 10
22.1166353432
 20
-23.09470181
 10
22.0409488819
 20
-23.1059792884
 10
21.9648170463
 20
-23.1127116055
 10
21.8882398365
 20
-23.1148987905
  0
LWPOLYLINE
  5
2E5
100
AcDbEntity
  8
RACCORDO
100
AcDbPolyline
 62
253
  6
CONTINUOUS
 90
16
 70
0
 10
22.5124604562
 20
-22.2931695584
 10
22.4815162833
 20
-22.3290319096
 10
22.4484423563
 20
-22.3630507803
 10
22.413345889
 20
-22.3950976714
 10
22.3763413755
 20
-22.4250493663
 10
22.3375522146
 20
-22.4527908018
 10
22.2971103079
 20
-22.478215504
 10
22.255112429
 20
-22.5012424181
 10
22.2117394546
 20
-22.5217530697
 10
22.167269326
 20
-22.5396183739
 10
22.1218600526
 20
-22.5547860446
 10
22.0756811236
 20
-22.5672105208
 10
22.0290482996
 20
-22.5768349611
 10
21.9821831563
 20
-22.5836571171
 10
21.9352047355
 20
-22.5877005909
 10
21.8882778863
 20
-22.5889882642
  0
LWPOLYLINE
  5
2E6
100
AcDbEntity
  8
RACCORDO
100
AcDbPolyline
 62
253
  6
CONTINUOUS
 90
13
 70
0
 10
22.5124604562
 20
22.2931695584
 10
22.5396570916
 20
22.2577012617
 10
22.5649747533
 20
22.2205228219
 10
22.5882926682
 20
22.1817246482
 10
22.6095465832
 20
22.1412989693
 10
22.6285580167
 20
22.0994554024
 10
22.6450975047
 20
22.0566490021
 10
22.6591180459
 20
22.0130339616
 10
22.6705886139
 20
21.9687488509
 10
22.6794275683
 20
21.9242670198
 10
22.6856602311
 20
21.8798540396
 10
22.6893573464
 20
21.8355517292
 10
22.6905731626
 20
21.7915025498
  0
LWPOLYLINE
  5
2E7
100
AcDbEntity
  8
RACCORDO
100
AcDbPolyline
 62
253
  6
CONTINUOUS
 90
13
 70
0
 10
22.9008701393
 20
22.6310194482
 10
22.9452101593
 20
22.5731452066
 10
22.9861548599
 20
22.5127619778
 10
23.0237042411
 20
22.449869712
 10
23.0580779375
 20
22.3840713952
 10
23.0890563145
 20
22.3157639309
 10
23.1159804685
 20
22.2461381702
 10
23.1386745647
 20
22.1751706289
 10
23.157314438
 20
22.1028847331
 10
23.1717686897
 20
22.0305417553
 10
23.1819935202
 20
21.958562133
 10
23.1880327291
 20
21.8865254363
 10
23.1898863164
 20
21.8144316658
  0
LWPOLYLINE
  5
2E8
100
AcDbEntity
  8
RACCORDO
100
AcDbPolyline
 62
253
  6
CONTINUOUS
 90
19
 70
0
 10
-60.346857488
 20
43.926800663
 10
-60.3879801891
 20
43.9265061011
 10
-60.4288242517
 20
43.9256106825
 10
-60.4691129252
 20
43.9241204745
 10
-60.5085732223
 20
43.9220455743
 10
-60.5469377684
 20
43.919400041
 10
-60.5839466137
 20
43.9162018003
 10
-60.6193489944
 20
43.9124725226
 10
-60.6529050313
 20
43.9082374769
 10
-60.6843873562
 20
43.9035253587
 10
-60.7135826516
 20
43.8983680965
 10
-60.7402930964
 20
43.8928006347
 10
-60.7643377064
 20
43.8868606972
 10
-60.7855535605
 20
43.8805885318
 10
-60.8037969048
 20
43.8740266374
 10
-60.8189441262
 20
43.8672194758
 10
-60.8308925904
 20
43.8602131709
 10
-60.8395613373
 20
43.8530551961
 10
-60.8448916292
 20
43.8457940521
  0
LINE
  5
2E9
100
AcDbEntity
  8
RACCORDO
100
AcDbLine
 62
253
  6
CONTINUOUS
 10
59.8566450886
 20
44.4263792099
 11
-59.8566450886
 21
44.4263792099
  0
LWPOLYLINE
  5
2EA
100
AcDbEntity
  8
RACCORDO
100
AcDbPolyline
 62
253
  6
CONTINUOUS
 90
19
 70
0
 10
60.346857488
 20
43.9268006691
 10
60.387979849
 20
43.92650608
 10
60.4288235498
 20
43.9256106375
 10
60.4691118448
 20
43.9241204087
 10
60.5085717519
 20
43.9220454911
 10
60.5469359014
 20
43.9193999435
 10
60.5839443488
 20
43.9162016915
 10
60.6193463348
 20
43.9124724056
 10
60.6529019857
 20
43.9082373542
 10
60.6843839375
 20
43.9035252331
 10
60.7135788772
 20
43.8983679701
 10
60.7402889882
 20
43.8928005095
 10
60.76433329
 20
43.886860575
 10
60.7855488652
 20
43.880588414
 10
60.8037919629
 20
43.8740265248
 10
60.818938973
 20
43.8672193692
 10
60.8308872634
 20
43.8602130706
 10
60.839555876
 20
43.8530551018
 10
60.8448860746
 20
43.8457939633
  0
LWPOLYLINE
  5
2EB
100
AcDbEntity
  8
RACCORDO
100
AcDbPolyline
 62
253
  6
CONTINUOUS
 90
28
 70
0
 10
-59.8566450886
 20
44.8340076387
 10
-59.9137447525
 20
44.8321493719
 10
-59.9705834619
 20
44.8270088139
 10
-60.0269768705
 20
44.8186092666
 10
-60.0827153883
 20
44.8069910442
 10
-60.1376469904
 20
44.7921945993
 10
-60.1916737481
 20
44.7742449729
 10
-60.2446551885
 20
44.7531759451
 10
-60.2963760028
 20
44.7290606579
 10
-60.3466292175
 20
44.701990962
 10
-60.3952330657
 20
44.6720637266
 10
-60.4420450514
 20
44.6393668152
 10
-60.4869259381
 20
44.6039963408
 10
-60.529727548
 20
44.5660611712
 10
-60.5703037265
 20
44.5256836327
 10
-60.6085252883
 20
44.4829894899
 10
-60.6442613472
 20
44.4381134444
 10
-60.6773891772
 20
44.3911985155
 10
-60.7078015314
 20
44.3423925188
 10
-60.7353927423
 20
44.2918468391
 10
-60.7600622823
 20
44.2397271833
 10
-60.7817238669
 20
44.1862118502
 10
-60.8002974199
 20
44.1314774343
 10
-60.8157160486
 20
44.0756977734
 10
-60.8279280287
 20
44.0190538877
 10
-60.8368863715
 20
43.9617300776
 10
-60.8425501543
 20
43.9039136401
 10
-60.8448916334
 20
43.8457940386
  0
LWPOLYLINE
  5
2EC
100
AcDbEntity
  8
RACCORDO
100
AcDbPolyline
 62
253
  6
CONTINUOUS
 90
28
 70
0
 10
-59.8566450886
 20
44.4263792099
 10
-59.8853531406
 20
44.4255286782
 10
-59.9137533943
 20
44.4230423958
 10
-59.9418458497
 20
44.4189203492
 10
-59.9697148026
 20
44.4131424313
 10
-59.9972759571
 20
44.4057286944
 10
-60.0242764262
 20
44.3967393517
 10
-60.0507224648
 20
44.3861550012
 10
-60.0766078181
 20
44.3739949408
 10
-60.1016608342
 20
44.360377428
 10
-60.1258656889
 20
44.3452911537
 10
-60.1492382064
 20
44.3287472864
 10
-60.1715542076
 20
44.3108978014
 10
-60.1928064329
 20
44.2917290081
 10
-60.2130021419
 20
44.2712544351
 10
-60.2319389347
 20
44.2496668996
 10
-60.249605913
 20
44.2269535946
 10
-60.2660139753
 20
44.2031271626
 10
-60.2809934169
 20
44.1784186206
 10
-60.2945299508
 20
44.1528183786
 10
-60.306637864
 20
44.1263358795
 10
-60.317190314
 20
44.0992307278
 10
-60.3261720237
 20
44.0714872154
 10
-60.3335982701
 20
44.0431209377
 10
-60.3393880409
 20
44.0144385042
 10
-60.3435143322
 20
43.9855421118
 10
-60.3460041479
 20
43.9563295117
 10
-60.346857488
 20
43.9268006745
  0
LINE
  5
2ED
100
AcDbEntity
  8
RACCORDO
100
AcDbLine
 62
253
  6
CONTINUOUS
 10
59.8566450886
 20
44.8340076387
 11
-59.8566450886
 21
44.8340076387
  0
LINE
  5
2EE
100
AcDbEntity
  8
RACCORDO
100
AcDbLine
 62
7
  6
CONTINUOUS
 10
60.0199743099
 20
45.0
 11
-60.0199743099
 21
45.0
  0
LWPOLYLINE
  5
2EF
100
AcDbEntity
  8
RACCORDO
100
AcDbPolyline
 62
7
  6
CONTINUOUS
 90
28
 70
0
 10
60.0199743099
 20
45.0
 10
60.0764796275
 20
44.9983984097
 10
60.1325279765
 20
44.9935696001
 10
60.1881193568
 20
44.985513516
 10
60.2434996027
 20
44.9741734187
 10
60.2984228799
 20
44.9596058251
 10
60.3521516857
 20
44.9419805178
 10
60.4045601789
 20
44.9213008268
 10
60.4557742006
 20
44.8975630105
 10
60.5054337718
 20
44.8709262165
 10
60.5535341419
 20
44.8414026277
 10
60.6000800615
 20
44.8089794921
 10
60.644725804
 20
44.7737785384
 10
60.6875837275
 20
44.7356410578
 10
60.728541474
 20
44.6947250367
 10
60.766916242
 20
44.6516273066
 10
60.8025704216
 20
44.6064154248
 10
60.8356416227
 20
44.5590211768
 10
60.8658598742
 20
44.5098378632
 10
60.8932104307
 20
44.4588949527
 10
60.9177080375
 20
44.4061623695
 10
60.9391269589
 20
44.3519442023
 10
60.9574859133
 20
44.2960644203
 10
60.9727661823
 20
44.2386984821
 10
60.9846858746
 20
44.1806779204
 10
60.9931510266
 20
44.1222799043
 10
60.998255602
 20
44.063227057
 10
60.9999996007
 20
44.0035192549
  0
LINE
  5
2F0
100
AcDbEntity
  8
RACCORDO
100
AcDbLine
 62
253
  6
CONTINUOUS
 10
59.8566450886
 20
-44.4263792099
 11
59.8566450889
 21
-44.8340076387
  0
LINE
  5
2F1
100
AcDbEntity
  8
RACCORDO
100
AcDbLine
 62
253
  6
CONTINUOUS
 10
59.8566450886
 20
44.4263792099
 11
59.8566450886
 21
44.8340076387
  0
LINE
  5
2F2
100
AcDbEntity
  8
RACCORDO
100
AcDbLine
 62
253
  6
CONTINUOUS
 10
60.3481971776
 20
34.5017285393
 11
60.346857488
 21
43.9268006745
  0
LINE
  5
2F3
100
AcDbEntity
  8
RACCORDO
100
AcDbLine
 62
253
  6
CONTINUOUS
 10
60.8462670871
 20
34.446380284
 11
60.8448916333
 21
43.845794038
  0
LINE
  5
2F4
100
AcDbEntity
  8
RACCORDO
100
AcDbLine
 62
253
  6
CONTINUOUS
 10
60.346857488
 20
-43.9268006745
 11
60.3481971776
 21
34.5017285393
  0
LINE
  5
2F5
100
AcDbEntity
  8
RACCORDO
100
AcDbLine
 62
253
  6
CONTINUOUS
 10
60.8448916333
 20
-43.8457940385
 11
60.8462670871
 21
34.446380284
  0
LWPOLYLINE
  5
2F6
100
AcDbEntity
  8
RACCORDO
100
AcDbPolyline
 62
253
  6
CONTINUOUS
 90
28
 70
0
 10
60.8448916334
 20
43.8457940382
 10
60.8425507296
 20
43.9039047161
 10
60.8368913919
 20
43.9616903536
 10
60.8279450976
 20
44.0189621801
 10
60.8157610321
 20
44.0755152838
 10
60.8003871632
 20
44.1311862319
 10
60.7818583161
 20
44.1858503528
 10
60.7602224396
 20
44.2393619303
 10
60.7355633178
 20
44.2915114641
 10
60.7079810534
 20
44.3420846172
 10
60.6775841457
 20
44.3909042618
 10
60.6444724219
 20
44.4378314313
 10
60.6087517164
 20
44.4827206664
 10
60.5705439738
 20
44.525429701
 10
60.5299806739
 20
44.5658228843
 10
60.4871913376
 20
44.6037740409
 10
60.4423213632
 20
44.639161417
 10
60.3955196596
 20
44.671875489
 10
60.3469284118
 20
44.7018184359
 10
60.2967033705
 20
44.7288964631
 10
60.2450142425
 20
44.7530212018
 10
60.1920303676
 20
44.774115063
 10
60.1379333701
 20
44.7921085058
 10
60.0828928168
 20
44.8069486365
 10
60.0270638833
 20
44.8185937441
 10
59.9706196489
 20
44.827004556
 10
59.9137517301
 20
44.8321490217
 10
59.8566450886
 20
44.8340076387
  0
LWPOLYLINE
  5
2F7
100
AcDbEntity
  8
RACCORDO
100
AcDbPolyline
 62
253
  6
CONTINUOUS
 90
28
 70
0
 10
60.346857488
 20
43.9268006745
 10
60.3459972074
 20
43.9563518857
 10
60.3435067232
 20
43.9855678874
 10
60.3393860354
 20
44.0144487109
 10
60.3336109048
 20
44.0430846235
 10
60.3262055706
 20
44.0713854142
 10
60.3172427503
 20
44.0990804217
 10
60.3067030812
 20
44.1261719681
 10
60.2946059261
 20
44.1526578398
 10
60.2810820903
 20
44.1782606199
 10
60.2661203156
 20
44.2029629192
 10
60.2497318603
 20
44.2267822746
 10
60.2320813049
 20
44.2494936973
 10
60.2131566167
 20
44.2710873732
 10
60.1929698283
 20
44.2915732801
 10
60.1717216187
 20
44.3107561426
 10
60.1494020633
 20
44.3286233086
 10
60.1260210866
 20
44.3451875919
 10
60.1018091408
 20
44.3602919299
 10
60.0767585841
 20
44.3739219713
 10
60.0508770583
 20
44.3860922083
 10
60.024417941
 20
44.3966888465
 10
59.9973692277
 20
44.4056969079
 10
59.9697429228
 20
44.4131314744
 10
59.9418284174
 20
44.4189238353
 10
59.913722175
 20
44.4230511061
 10
59.8853277321
 20
44.4255362264
 10
59.8566450886
 20
44.4263792099
  0
LINE
  5
2F8
100
AcDbEntity
  8
RACCORDO
100
AcDbLine
 62
7
  6
CONTINUOUS
 10
60.9999996007
 20
44.0035192549
 11
61.0
 21
22.5203789087
  0
LINE
  5
2F9
100
AcDbEntity
  8
DRAFT
100
AcDbLine
 62
7
  6
CONTINUOUS
 10
61.0
 20
22.5203789087
 11
61.0
 21
-22.5203789087
  0
LINE
  5
2FA
100
AcDbEntity
  8
RACCORDO
100
AcDbLine
 62
7
  6
CONTINUOUS
 10
61.0
 20
-22.5203789087
 11
60.9999996007
 21
-44.0035192549
  0
LWPOLYLINE
  5
2FB
100
AcDbEntity
  8
RACCORDO
100
AcDbPolyline
 62
7
  6
CONTINUOUS
 90
28
 70
0
 10
60.9999996007
 20
-44.0035192549
 10
60.9982508474
 20
-44.0632408899
 10
60.99314613
 20
-44.1222945497
 10
60.9846854486
 20
-44.1806803605
 10
60.9727769011
 20
-44.2386673129
 10
60.9575123896
 20
-44.2959866303
 10
60.9391676206
 20
-44.3518319449
 10
60.9177594647
 20
-44.406038978
 10
60.8932710513
 20
-44.4587725744
 10
60.8659274749
 20
-44.5097202574
 10
60.8357124582
 20
-44.5589113297
 10
60.8026422785
 20
-44.6063170948
 10
60.7669908621
 20
-44.6515381854
 10
60.7286215913
 20
-44.6946403706
 10
60.6876710837
 20
-44.7355585396
 10
60.6448231187
 20
-44.7736971332
 10
60.6001944544
 20
-44.8088965316
 10
60.5536683327
 20
-44.8413170774
 10
60.5055782576
 20
-44.8708432141
 10
60.4559155216
 20
-44.8974915601
 10
60.4046888324
 20
-44.9212460649
 10
60.3522578166
 20
-44.9419421516
 10
60.2984877502
 20
-44.9595833458
 10
60.2435133572
 20
-44.9741665338
 10
60.1880984368
 20
-44.9855171539
 10
60.1324975887
 20
-44.9935770964
 10
60.076456213
 20
-44.9984046934
 10
60.0199743099
 20
-45.0
  0
LINE
  5
2FC
100
AcDbEntity
  8
RACCORDO
100
AcDbLine
 62
7
  6
CONTINUOUS
 10
94.5642182925
 20
-44.8340076387
 11
92.6669169209
 21
-45.0
  0
LINE
  5
2FD
100
AcDbEntity
  8
RACCORDO
100
AcDbLine
 62
253
  6
CONTINUOUS
 10
94.6550634537
 20
-43.845794038
 11
92.8532597104
 21
-44.0035192549
  0
LINE
  5
2FE
100
AcDbEntity
  8
0
100
AcDbLine
 62
7
  6
CONTINUOUS
 10
92.1590797287
 20
-43.7
 11
92.1652105508
 21
-43.7
  0
LINE
  5
2FF
100
AcDbEntity
  8
RACCORDO
100
AcDbLine
 62
253
  6
CONTINUOUS
 10
91.9118374311
 20
-43.6864596407
 11
92.1652105508
 21
-43.7
  0
LWPOLYLINE
  5
300
100
AcDbEntity
  8
RACCORDO
100
AcDbPolyline
 62
253
  6
CONTINUOUS
 90
25
 70
0
 10
92.5175006896
 20
-44.6460538824
 10
92.5180799385
 20
-44.6461026412
 10
92.5186919941
 20
-44.6459407286
 10
92.5193405082
 20
-44.6455487248
 10
92.5200287136
 20
-44.6449076174
 10
92.5207608315
 20
-44.6439967695
 10
92.5215425359
 20
-44.6427914496
 10
92.5223794957
 20
-44.6412685826
 10
92.5232755896
 20
-44.6394004
 10
92.5242350822
 20
-44.6371483312
 10
92.5252647768
 20
-44.6344775615
 10
92.5263707241
 20
-44.631354364
 10
92.5275573187
 20
-44.6277350675
 10
92.5288308262
 20
-44.6235866392
 10
92.5301980098
 20
-44.6188723703
 10
92.5316648543
 20
-44.6135384902
 10
92.5332381875
 20
-44.6075494623
 10
92.5349252232
 20
-44.6008653666
 10
92.5367344377
 20
-44.5934155591
 10
92.5386746029
 20
-44.585156371
 10
92.5407515118
 20
-44.5760526276
 10
92.5429728151
 20
-44.5660267988
 10
92.5453491436
 20
-44.5550238006
 10
92.5478912859
 20
-44.5429824769
 10
92.5535362048
 20
-44.5153148257
  0
LINE
  5
301
100
AcDbEntity
  8
RACCORDO
100
AcDbLine
 62
253
  6
CONTINUOUS
 10
92.5198422918
 20
-43.9489890756
 11
92.5631774663
 21
-43.9545460956
  0
LINE
  5
302
100
AcDbEntity
  8
RACCORDO
100
AcDbLine
 62
253
  6
CONTINUOUS
 10
92.5631774663
 20
-43.9545460956
 11
92.6463257121
 21
-43.9654817029
  0
LINE
  5
303
100
AcDbEntity
  8
RACCORDO
100
AcDbLine
 62
253
  6
CONTINUOUS
 10
90.9079680821
 20
-43.5812358926
 11
90.9098282336
 21
-43.5818045125
  0
LINE
  5
304
100
AcDbEntity
  8
RACCORDO
100
AcDbLine
 62
253
  6
CONTINUOUS
 10
90.6615867476
 20
-43.5395023498
 11
90.6638083918
 21
-43.540236024
  0
LINE
  5
305
100
AcDbEntity
  8
RACCORDO
100
AcDbLine
 62
253
  6
CONTINUOUS
 10
92.534970654
 20
-43.8679119205
 11
92.6580810203
 21
-43.8904816335
  0
LINE
  5
306
100
AcDbEntity
  8
RACCORDO
100
AcDbLine
 62
253
  6
CONTINUOUS
 10
92.8532596683
 20
-44.0035194839
 11
92.6463252232
 21
-43.9654851844
  0
LINE
  5
307
100
AcDbEntity
  8
RACCORDO
100
AcDbLine
 62
253
  6
CONTINUOUS
 10
90.4176387049
 20
-43.4919297563
 11
90.4202066389
 21
-43.4928437331
  0
LINE
  5
308
100
AcDbEntity
  8
RACCORDO
100
AcDbLine
 62
7
  6
CONTINUOUS
 10
92.7236855203
 20
-44.7
 11
92.5175006166
 21
-44.6460538634
  0
LWPOLYLINE
  5
309
100
AcDbEntity
  8
RACCORDO
100
AcDbPolyline
 62
253
  6
CONTINUOUS
 90
12
 70
0
 10
89.2329960328
 20
43.1426403415
 10
89.459264977
 20
43.2202508682
 10
89.6901887562
 20
43.2925712402
 10
89.9254815762
 20
43.3594957117
 10
90.1650750128
 20
43.4209714856
 10
90.4084558769
 20
43.4768257884
 10
90.6546388067
 20
43.5268194547
 10
90.9032712459
 20
43.5708871847
 10
91.1540518225
 20
43.6089734077
 10
91.4060327758
 20
43.6409459933
 10
91.6586696346
 20
43.6667702135
 10
91.9118374886
 20
43.6864596445
  0
LINE
  5
30A
100
AcDbEntity
  8
RACCORDO
100
AcDbLine
 62
253
  6
CONTINUOUS
 10
89.2520258688
 20
43.1708440684
 11
89.2562349116
 21
43.1729248008
  0
LWPOLYLINE
  5
30B
100
AcDbEntity
  8
RACCORDO
100
AcDbPolyline
 62
7
  6
CONTINUOUS
 90
13
 70
0
 10
89.2562349116
 20
43.1729248008
 10
89.4804553617
 20
43.2475390323
 10
89.7092034712
 20
43.3169318841
 10
89.9421996707
 20
43.3810014693
 10
90.1793634863
 20
43.439692577
 10
90.420206664
 20
43.4928437383
 10
90.6638084122
 20
43.5402360277
 10
90.9098282508
 20
43.5818045152
 10
91.1579715197
 20
43.6174925953
 10
91.4073504356
 20
43.6471780619
 10
91.6574473686
 20
43.6708249006
 10
91.9081295993
 20
43.6884384653
 10
92.1590797287
 20
43.7
  0
LINE
  5
30C
100
AcDbEntity
  8
RACCORDO
100
AcDbLine
 62
253
  6
CONTINUOUS
 10
92.5003421148
 20
44.6404364313
 11
92.5175011126
 21
44.6460539932
  0
LWPOLYLINE
  5
30D
100
AcDbEntity
  8
RACCORDO
100
AcDbPolyline
 62
253
  6
CONTINUOUS
 90
13
 70
0
 10
89.24455433
 20
42.666764168
 10
89.4767288785
 20
42.7421592057
 10
89.7135267631
 20
42.8122924738
 10
89.9546632615
 20
42.8770604616
 10
90.2000988598
 20
42.936415817
 10
90.449294564
 20
42.9901839659
 10
90.7011820744
 20
43.0381214927
 10
90.9554128191
 20
43.0801708008
 10
91.2116820737
 20
43.1162820946
 10
91.4689451651
 20
43.1463260029
 10
91.7266254938
 20
43.1702795753
 10
91.9846327562
 20
43.1881711721
 10
92.2426444317
 20
43.1999994174
  0
LWPOLYLINE
  5
30E
100
AcDbEntity
  8
RACCORDO
100
AcDbPolyline
 62
253
  6
CONTINUOUS
 90
13
 70
0
 10
89.245668675
 20
42.4324265446
 10
89.4800883001
 20
42.5061436705
 10
89.719140132
 20
42.5746086971
 10
89.9625402338
 20
42.6377178933
 10
90.2102466126
 20
42.6954207957
 10
90.4617240288
 20
42.7475457468
 10
90.7159148477
 20
42.7938568828
 10
90.9724706098
 20
42.8342950973
 10
91.2310884072
 20
42.8688090293
 10
91.4907375665
 20
42.8972740449
 10
91.750846757
 20
42.9196660686
 10
92.0113217133
 20
42.9360080599
 10
92.2718400168
 20
42.9462954714
  0
LINE
  5
30F
100
AcDbEntity
  8
RACCORDO
100
AcDbLine
 62
253
  6
CONTINUOUS
 10
89.4765634197
 20
43.2457296662
 11
89.4804553617
 21
43.2475390323
  0
LWPOLYLINE
  5
310
100
AcDbEntity
  8
RACCORDO
100
AcDbPolyline
 62
253
  6
CONTINUOUS
 90
4
 70
0
 10
89.054838111
 20
-42.4336624566
 10
89.0563327298
 20
-42.433530171
 10
89.0608017118
 20
-42.4333992035
 10
89.0682005271
 20
-42.433270859
  0
LWPOLYLINE
  5
311
100
AcDbEntity
  8
RACCORDO
100
AcDbPolyline
 62
253
  6
CONTINUOUS
 90
3
 70
0
 10
89.0548380269
 20
-42.6673520658
 10
89.0563227232
 20
-42.6672892506
 10
89.0607621183
 20
-42.6672270573
  0
LINE
  5
312
100
AcDbEntity
  8
RACCORDO
100
AcDbLine
 62
253
  6
CONTINUOUS
 10
89.0682005271
 20
-42.433270859
 11
89.0914643064
 21
-42.433027116
  0
LINE
  5
313
100
AcDbEntity
  8
RACCORDO
100
AcDbLine
 62
253
  6
CONTINUOUS
 10
89.0607621183
 20
-42.6672270573
 11
89.0912257528
 21
-42.6670502963
  0
LINE
  5
314
100
AcDbEntity
  8
RACCORDO
100
AcDbLine
 62
253
  6
CONTINUOUS
 10
89.0914643064
 20
-42.433027116
 11
89.1923997786
 21
-42.4325469099
  0
LINE
  5
315
100
AcDbEntity
  8
RACCORDO
100
AcDbLine
 62
253
  6
CONTINUOUS
 10
89.1923997786
 20
-42.4325469099
 11
89.2456686747
 21
-42.4324265446
  0
LINE
  5
316
100
AcDbEntity
  8
RACCORDO
100
AcDbLine
 62
253
  6
CONTINUOUS
 10
89.0912257528
 20
-42.6670502963
 11
89.244554327
 21
-42.6667641679
  0
LINE
  5
317
100
AcDbEntity
  8
RACCORDO
100
AcDbLine
 62
253
  6
CONTINUOUS
 10
95.1035114557
 20
-43.9268006691
 11
94.6550629651
 21
-43.8457939633
  0
LINE
  5
318
100
AcDbEntity
  8
RACCORDO
100
AcDbLine
 62
253
  6
CONTINUOUS
 10
90.1764607571
 20
-43.4385825154
 11
90.1793634567
 21
-43.4396925701
  0
LINE
  5
319
100
AcDbEntity
  8
RACCORDO
100
AcDbLine
 62
253
  6
CONTINUOUS
 10
89.9389646129
 20
-43.3796774161
 11
89.9421996412
 21
-43.3810014616
  0
LINE
  5
31A
100
AcDbEntity
  8
RACCORDO
100
AcDbLine
 62
253
  6
CONTINUOUS
 10
89.7056368793
 20
-43.3153746274
 11
89.7092034475
 21
-43.3169318772
  0
LINE
  5
31B
100
AcDbEntity
  8
RACCORDO
100
AcDbLine
 62
253
  6
CONTINUOUS
 10
89.476563458
 20
-43.2457296784
 11
89.480455348
 21
-43.2475390279
  0
LWPOLYLINE
  5
31C
100
AcDbEntity
  8
RACCORDO
100
AcDbPolyline
 62
253
  6
CONTINUOUS
 90
13
 70
0
 10
89.245668675
 20
-42.4324265446
 10
89.4800873856
 20
-42.5061433959
 10
89.7191385591
 20
-42.5746082681
 10
89.9625382745
 20
-42.6377174112
 10
90.2102446506
 20
-42.6954203639
 10
90.4617223642
 20
-42.7475454228
 10
90.7159134909
 20
-42.7938566524
 10
90.9724694699
 20
-42.8342949314
 10
91.2310874905
 20
-42.8688089179
 10
91.4907368765
 20
-42.8972739774
 10
91.7508462956
 20
-42.9196660343
 10
92.0113214822
 20
-42.9360080481
 10
92.2718400168
 20
-42.9462954714
  0
LWPOLYLINE
  5
31D
100
AcDbEntity
  8
RACCORDO
100
AcDbPolyline
 62
253
  6
CONTINUOUS
 90
13
 70
0
 10
89.24455433
 20
-42.666764168
 10
89.4767288782
 20
-42.7421592056
 10
89.7135267626
 20
-42.8122924737
 10
89.9546632609
 20
-42.8770604615
 10
90.2000988592
 20
-42.9364158168
 10
90.4492945635
 20
-42.9901839658
 10
90.701182074
 20
-43.0381214926
 10
90.9554128188
 20
-43.0801708007
 10
91.2116820734
 20
-43.1162820945
 10
91.4689451649
 20
-43.1463260029
 10
91.7266254936
 20
-43.1702795753
 10
91.9846327561
 20
-43.1881711721
 10
92.2426444317
 20
-43.1999994174
  0
LINE
  5
31E
100
AcDbEntity
  8
RACCORDO
100
AcDbLine
 62
253
  6
CONTINUOUS
 10
92.5003421374
 20
-44.6404363463
 11
92.5175011378
 21
-44.6460538966
  0
LWPOLYLINE
  5
31F
100
AcDbEntity
  8
RACCORDO
100
AcDbPolyline
 62
7
  6
CONTINUOUS
 90
13
 70
0
 10
89.2562349116
 20
-43.1729248008
 10
89.480455348
 20
-43.2475390279
 10
89.7092034475
 20
-43.3169318772
 10
89.9421996412
 20
-43.3810014616
 10
90.1793634567
 20
-43.4396925701
 10
90.4202066389
 20
-43.4928437331
 10
90.6638083918
 20
-43.540236024
 10
90.9098282336
 20
-43.5818045125
 10
91.1579715058
 20
-43.6174925935
 10
91.4073504252
 20
-43.6471780608
 10
91.6574473616
 20
-43.6708249
 10
91.9081295958
 20
-43.6884384651
 10
92.1590797287
 20
-43.7
  0
LINE
  5
320
100
AcDbEntity
  8
RACCORDO
100
AcDbLine
 62
253
  6
CONTINUOUS
 10
89.2520258688
 20
-43.1708440684
 11
89.2562349116
 21
-43.1729248008
  0
LWPOLYLINE
  5
321
100
AcDbEntity
  8
SUPERFICI
100
AcDbPolyline
 62
7
  6
CONTINUOUS
 90
13
 70
0
 10
89.2546708704
 20
-43.1736915846
 10
89.4455290819
 20
-43.2387430198
 10
89.709110719
 20
-43.320504185
 10
89.9700053716
 20
-43.3927083203
 10
90.2267618486
 20
-43.4557321468
 10
90.4792705831
 20
-43.5102774728
 10
90.7288368069
 20
-43.5572035157
 10
90.9750103016
 20
-43.5968905357
 10
91.2172548855
 20
-43.629694805
 10
91.4569359116
 20
-43.656160875
 10
91.6943038375
 20
-43.6765746461
 10
91.9284484329
 20
-43.6911064693
 10
92.1590797287
 20
-43.7
  0
LWPOLYLINE
  5
322
100
AcDbEntity
  8
RACCORDO
100
AcDbPolyline
 62
253
  6
CONTINUOUS
 90
12
 70
0
 10
89.2329960328
 20
-43.1426403415
 10
89.4592647509
 20
-43.220250794
 10
89.690188367
 20
-43.2925711239
 10
89.9254810911
 20
-43.3594955805
 10
90.1650745267
 20
-43.4209713675
 10
90.4084554642
 20
-43.4768256991
 10
90.6546384701
 20
-43.5268193907
 10
90.9032709629
 20
-43.5708871381
 10
91.1540515948
 20
-43.608973376
 10
91.4060326042
 20
-43.6409459736
 10
91.6586695198
 20
-43.6667702032
 10
91.9118374311
 20
-43.6864596407
  0
LWPOLYLINE
  5
323
100
AcDbEntity
  8
RACCORDO
100
AcDbPolyline
 62
253
  6
CONTINUOUS
 90
7
 70
0
 10
89.2562349116
 20
-43.1729248008
 10
89.2555618895
 20
-43.1726733044
 10
89.2548774708
 20
-43.172384834
 10
89.2541816574
 20
-43.1720585387
 10
89.2534744513
 20
-43.1716935591
 10
89.2527558544
 20
-43.1712890277
 10
89.2520258688
 20
-43.1708440684
  0
LINE
  5
324
100
AcDbEntity
  8
RACCORDO
100
AcDbLine
 62
7
  6
CONTINUOUS
 10
89.2276316443
 20
-43.1612745093
 11
89.2562392677
 21
-43.1729122821
  0
LWPOLYLINE
  5
325
100
AcDbEntity
  8
RACCORDO
100
AcDbPolyline
 62
253
  6
CONTINUOUS
 90
4
 70
0
 10
89.1601153708
 20
43.0985970663
 10
89.1828988561
 20
43.1154966673
 10
89.2072672824
 20
43.130223017
 10
89.2329960208
 20
43.1426403674
  0
LWPOLYLINE
  5
326
100
AcDbEntity
  8
RACCORDO
100
AcDbPolyline
 62
253
  6
CONTINUOUS
 90
4
 70
0
 10
89.1720793552
 20
43.1269679632
 10
89.1971896899
 20
43.1442811646
 10
89.2239307482
 20
43.158957089
 10
89.2520259191
 20
43.1708439306
  0
LWPOLYLINE
  5
327
100
AcDbEntity
  8
RACCORDO
100
AcDbPolyline
 62
253
  6
CONTINUOUS
 90
7
 70
0
 10
89.2520258688
 20
43.1708440684
 10
89.252755862
 20
43.1712890311
 10
89.2534744634
 20
43.1716935644
 10
89.2541816711
 20
43.1720585443
 10
89.254877483
 20
43.1723848387
 10
89.2555618972
 20
43.1726733072
 10
89.2562349116
 20
43.1729248008
  0
LWPOLYLINE
  5
328
100
AcDbEntity
  8
RACCORDO
100
AcDbPolyline
 62
7
  6
CONTINUOUS
 90
3
 70
0
 10
89.1747498392
 20
-43.1295148184
 10
89.2003721997
 20
-43.1467574022
 10
89.2276316443
 20
-43.1612745093
  0
LWPOLYLINE
  5
329
100
AcDbEntity
  8
RACCORDO
100
AcDbPolyline
 62
253
  6
CONTINUOUS
 90
4
 70
0
 10
89.1720790701
 20
-43.1269672538
 10
89.1971894545
 20
-43.144280733
 10
89.2239305739
 20
-43.1589569912
 10
89.2520258151
 20
-43.1708442155
  0
LWPOLYLINE
  5
32A
100
AcDbEntity
  8
RACCORDO
100
AcDbPolyline
 62
253
  6
CONTINUOUS
 90
12
 70
0
 10
89.2520258688
 20
-43.1708440684
 10
89.250274426
 20
-43.1696085065
 10
89.2485557182
 20
-43.1681667692
 10
89.2468695541
 20
-43.1665205245
 10
89.2452170395
 20
-43.1646722634
 10
89.243596701
 20
-43.1626229625
 10
89.2420045006
 20
-43.1603715168
 10
89.2404401169
 20
-43.1579191463
 10
89.238903564
 20
-43.1552670224
 10
89.2373913411
 20
-43.1524128705
 10
89.2359022019
 20
-43.1493560782
 10
89.23443714
 20
-43.146098358
  0
LWPOLYLINE
  5
32B
100
AcDbEntity
  8
RACCORDO
100
AcDbPolyline
 62
253
  6
CONTINUOUS
 90
4
 70
0
 10
89.1601153548
 20
-43.0985971434
 10
89.1828988296
 20
-43.1154967543
 10
89.2072672445
 20
-43.1302231144
 10
89.2329959706
 20
-43.1426404757
  0
LINE
  5
32C
100
AcDbEntity
  8
RACCORDO
100
AcDbLine
 62
7
  6
CONTINUOUS
 10
89.1510361177
 20
-43.109729501
 11
89.1747498392
 21
-43.1295148184
  0
LWPOLYLINE
  5
32D
100
AcDbEntity
  8
RACCORDO
100
AcDbPolyline
 62
253
  6
CONTINUOUS
 90
6
 70
0
 10
92.4310937814
 20
44.5845321897
 10
92.4420290773
 20
44.5989176946
 10
92.4546150825
 20
44.6118774686
 10
92.4686686532
 20
44.6232229288
 10
92.4839852901
 20
44.6327889828
 10
92.5003421148
 20
44.6404364313
  0
LINE
  5
32E
100
AcDbEntity
  8
0
100
AcDbLine
 62
7
  6
CONTINUOUS
 10
97.1226188219
 20
-28.877801
 11
97.2230057042
 21
-28.877801
  0
LWPOLYLINE
  5
32F
100
AcDbEntity
  8
RACCORDO
100
AcDbPolyline
 62
253
  6
CONTINUOUS
 90
6
 70
0
 10
92.4310937941
 20
-44.5845321581
 10
92.4420290908
 20
-44.5989176531
 10
92.4546150977
 20
-44.6118774167
 10
92.4686686705
 20
-44.6232228662
 10
92.48398531
 20
-44.6327889092
 10
92.5003421374
 20
-44.6404363463
  0
LINE
  5
330
100
AcDbEntity
  8
0
100
AcDbLine
 62
7
  6
CONTINUOUS
 10
97.3454713083
 20
-26.078098
 11
97.4457238328
 21
-26.078098
  0
LINE
  5
331
100
AcDbEntity
  8
SUPERFICI
100
AcDbLine
 62
7
  6
CONTINUOUS
 10
97.4480558561
 20
-26.0452484808
 11
97.3478047366
 21
-26.0452484808
  0
LINE
  5
332
100
AcDbEntity
  8
RACCORDO
100
AcDbLine
 62
253
  6
CONTINUOUS
 10
94.9343986961
 20
-24.0670399876
 11
95.0594926055
 21
-24.0745373099
  0
LWPOLYLINE
  5
333
100
AcDbEntity
  8
RACCORDO
100
AcDbPolyline
 62
253
  6
CONTINUOUS
 90
10
 70
0
 10
89.293313307
 20
-22.788569243
 10
89.863495518
 20
-22.8885822128
 10
90.438761703
 20
-22.9816085322
 10
91.0185406649
 20
-23.067558702
 10
91.6026447365
 20
-23.1463925425
 10
92.1901288287
 20
-23.2179626674
 10
92.7792682854
 20
-23.2820618641
 10
93.3690971068
 20
-23.3386107138
 10
93.9594300367
 20
-23.3876102017
 10
94.5497060567
 20
-23.4290183628
  0
LWPOLYLINE
  5
334
100
AcDbEntity
  8
RACCORDO
100
AcDbPolyline
 62
253
  6
CONTINUOUS
 90
13
 70
0
 10
89.2329960328
 20
43.1426403415
 10
89.2344376304
 20
43.1460994821
 10
89.2359031045
 20
43.1493580022
 10
89.237392577
 20
43.1524153067
 10
89.2389050581
 20
43.1552697232
 10
89.2404417888
 20
43.1579218975
 10
89.2420062554
 20
43.1603741326
 10
89.243598445
 20
43.1626252972
 10
89.2452186759
 20
43.1646742087
 10
89.2468709655
 20
43.1665220007
 10
89.2485567794
 20
43.1681677345
 10
89.2502750172
 20
43.1696089656
 10
89.2520258688
 20
43.1708440684
  0
LWPOLYLINE
  5
335
100
AcDbEntity
  8
RACCORDO
100
AcDbPolyline
 62
253
  6
CONTINUOUS
 90
6
 70
0
 10
89.0767073571
 20
42.9875686932
 10
89.0887724964
 20
43.0126509268
 10
89.1032902367
 20
43.0365079447
 10
89.1201267529
 20
43.058919832
 10
89.1391268454
 20
43.0796799951
 10
89.1601153708
 20
43.0985970663
  0
LINE
  5
336
100
AcDbEntity
  8
RACCORDO
100
AcDbLine
 62
253
  6
CONTINUOUS
 10
89.0548380269
 20
-22.7888150052
 11
89.0560779543
 21
-22.7887921993
  0
LINE
  5
337
100
AcDbEntity
  8
RACCORDO
100
AcDbLine
 62
253
  6
CONTINUOUS
 10
89.0548380269
 20
-21.902483891
 11
89.0560830269
 21
-21.9024622387
  0
LINE
  5
338
100
AcDbEntity
  8
RACCORDO
100
AcDbLine
 62
253
  6
CONTINUOUS
 10
89.0548380271
 20
-21.2558023096
 11
89.0560865243
 21
-21.2557816619
  0
LINE
  5
339
100
AcDbEntity
  8
RACCORDO
100
AcDbLine
 62
253
  6
CONTINUOUS
 10
89.0560779543
 20
-22.7887921993
 11
89.0853266983
 21
-22.788704713
  0
LINE
  5
33A
100
AcDbEntity
  8
RACCORDO
100
AcDbLine
 62
253
  6
CONTINUOUS
 10
89.0560830269
 20
-21.9024622387
 11
89.0985825781
 21
-21.9023601843
  0
LINE
  5
33B
100
AcDbEntity
  8
RACCORDO
100
AcDbLine
 62
253
  6
CONTINUOUS
 10
89.0560865243
 20
-21.2557816619
 11
89.1140029093
 21
-21.2556672212
  0
LINE
  5
33C
100
AcDbEntity
  8
RACCORDO
100
AcDbLine
 62
253
  6
CONTINUOUS
 10
89.0853266983
 20
-22.788704713
 11
89.293313307
 21
-22.788569243
  0
LINE
  5
33D
100
AcDbEntity
  8
RACCORDO
100
AcDbLine
 62
253
  6
CONTINUOUS
 10
89.0985825781
 20
-21.9023601843
 11
89.2941326572
 21
-21.9022509012
  0
LINE
  5
33E
100
AcDbEntity
  8
RACCORDO
100
AcDbLine
 62
253
  6
CONTINUOUS
 10
89.1140029093
 20
-21.2556672212
 11
89.2946968515
 21
-21.2555803531
  0
LINE
  5
33F
100
AcDbEntity
  8
RACCORDO
100
AcDbLine
 62
253
  6
CONTINUOUS
 10
97.1034551767
 20
-22.5203789087
 11
95.3576219085
 21
-22.5203789087
  0
LINE
  5
340
100
AcDbEntity
  8
RACCORDO
100
AcDbLine
 62
253
  6
CONTINUOUS
 10
97.5592499268
 20
-22.5432326078
 11
97.1034551767
 21
-22.5203789087
  0
LINE
  5
341
100
AcDbEntity
  8
RACCORDO
100
AcDbLine
 62
253
  6
CONTINUOUS
 10
97.5548380087
 20
-22.6310194473
 11
97.0990481698
 21
-22.6080915512
  0
LINE
  5
342
100
AcDbEntity
  8
RACCORDO
100
AcDbLine
 62
253
  6
CONTINUOUS
 10
95.0232503469
 20
-22.4522761667
 11
95.1485221123
 21
-22.4585708418
  0
LINE
  5
343
100
AcDbEntity
  8
RACCORDO
100
AcDbLine
 62
253
  6
CONTINUOUS
 10
95.0206808155
 20
-22.5033847271
 11
95.3576219085
 21
-22.5203789087
  0
LWPOLYLINE
  5
344
100
AcDbEntity
  8
RACCORDO
100
AcDbPolyline
 62
253
  6
CONTINUOUS
 90
10
 70
0
 10
89.2946968516
 20
-21.2555803531
 10
89.8752236311
 20
-21.3497043598
 10
90.4604297563
 20
-21.4371806458
 10
91.0497670979
 20
-21.5179297411
 10
91.6430413098
 20
-21.5919142756
 10
92.2393621833
 20
-21.6590059144
 10
92.8371243909
 20
-21.7190259593
 10
93.4354216868
 20
-21.7719046924
 10
94.034066102
 20
-21.8176407635
 10
94.6325247717
 20
-21.8561965495
  0
LWPOLYLINE
  5
345
100
AcDbEntity
  8
RACCORDO
100
AcDbPolyline
 62
253
  6
CONTINUOUS
 90
10
 70
0
 10
89.2941326572
 20
-21.9022509012
 10
89.8704435108
 20
-21.9989489077
 10
90.4516050128
 20
-22.0888531913
 10
91.0370590641
 20
-22.1718801536
 10
91.6266138287
 20
-22.2479912859
 10
92.2193558314
 20
-22.3170504026
 10
92.813629517
 20
-22.3788670195
 10
93.4085033942
 20
-22.4333674015
 10
94.0037904174
 20
-22.4805511742
 10
94.5989457259
 20
-22.5203789263
  0
LWPOLYLINE
  5
346
100
AcDbEntity
  8
RACCORDO
100
AcDbPolyline
 62
253
  6
CONTINUOUS
 90
6
 70
0
 10
89.0793442435
 20
-43.0079536443
 10
89.0928317664
 20
-43.0352914521
 10
89.1090295122
 20
-43.0611194365
 10
89.1277699295
 20
-43.08517043
 10
89.1488591653
 20
-43.1071956462
 10
89.1720790701
 20
-43.1269672538
  0
LWPOLYLINE
  5
347
100
AcDbEntity
  8
RACCORDO
100
AcDbPolyline
 62
253
  6
CONTINUOUS
 90
6
 70
0
 10
89.0767073704
 20
-42.9875687262
 10
89.0887725077
 20
-43.0126509681
 10
89.1032902438
 20
-43.0365079944
 10
89.1201267539
 20
-43.0589198904
 10
89.1391268387
 20
-43.0796800627
 10
89.1601153548
 20
-43.0985971434
  0
LINE
  5
348
100
AcDbEntity
  8
RACCORDO
100
AcDbLine
 62
253
  6
CONTINUOUS
 10
89.23443714
 20
-43.146098358
 11
89.2329960328
 21
-43.1426403415
  0
LWPOLYLINE
  5
349
100
AcDbEntity
  8
RACCORDO
100
AcDbPolyline
 62
253
  6
CONTINUOUS
 90
4
 70
0
 10
89.2329960328
 20
-43.1426403415
 10
89.2309448777
 20
-43.1376192415
 10
89.2290026332
 20
-43.1321499436
 10
89.227169412
 20
-43.1262224451
  0
LWPOLYLINE
  5
34A
100
AcDbEntity
  8
RACCORDO
100
AcDbPolyline
 62
253
  6
CONTINUOUS
 90
3
 70
0
 10
89.0603561152
 20
42.9346625768
 10
89.0672060355
 20
42.9614924526
 10
89.0767073571
 20
42.9875686932
  0
LINE
  5
34B
100
AcDbEntity
  8
RACCORDO
100
AcDbLine
 62
7
  6
CONTINUOUS
 10
92.1590797287
 20
43.7
 11
92.4087212948
 21
44.5427758029
  0
LWPOLYLINE
  5
34C
100
AcDbEntity
  8
RACCORDO
100
AcDbPolyline
 62
253
  6
CONTINUOUS
 90
4
 70
0
 10
92.4096497778
 20
44.5349997792
 10
92.4147854773
 20
44.552339004
 10
92.4219683186
 20
44.568930283
 10
92.4310937814
 20
44.5845321897
  0
LINE
  5
34D
100
AcDbEntity
  8
RACCORDO
100
AcDbLine
 62
7
  6
CONTINUOUS
 10
92.1590797287
 20
-43.7
 11
92.4087212948
 21
-44.5427758029
  0
LWPOLYLINE
  5
34E
100
AcDbEntity
  8
RACCORDO
100
AcDbPolyline
 62
253
  6
CONTINUOUS
 90
4
 70
0
 10
92.409649794
 20
-44.5349997755
 10
92.4147854912
 20
-44.5523389913
 10
92.4219683314
 20
-44.568930261
 10
92.4310937941
 20
-44.5845321581
  0
LWPOLYLINE
  5
34F
100
AcDbEntity
  8
RACCORDO
100
AcDbPolyline
 62
253
  6
CONTINUOUS
 90
40
 70
0
 10
89.227169412
 20
-43.1262224451
 10
89.2254424218
 20
-43.119811943
 10
89.2238247197
 20
-43.1129223205
 10
89.2223252089
 20
-43.1055962401
 10
89.220946841
 20
-43.0978393166
 10
89.2196870024
 20
-43.0896475694
 10
89.2185462508
 20
-43.0810652464
 10
89.2175256537
 20
-43.0721026718
 10
89.2166245238
 20
-43.062764769
 10
89.2158407702
 20
-43.0530994015
 10
89.2151747899
 20
-43.0431269153
 10
89.2146265873
 20
-43.0328521866
 10
89.2141934642
 20
-43.0223068132
 10
89.2138746103
 20
-43.0115191828
 10
89.2136712593
 20
-43.0004890202
 10
89.2135837902
 20
-42.9892044093
 10
89.2136126964
 20
-42.9776724773
 10
89.2137579948
 20
-42.965907135
 10
89.2140193816
 20
-42.9539030609
 10
89.2143997875
 20
-42.9416759169
 10
89.2148963433
 20
-42.9292344099
 10
89.2155000473
 20
-42.9165597866
 10
89.2162068727
 20
-42.9036683324
 10
89.2170205059
 20
-42.8905689224
 10
89.2179435159
 20
-42.877227616
 10
89.2189765203
 20
-42.8636240642
 10
89.2201185332
 20
-42.8497991698
 10
89.2213697094
 20
-42.8358108525
 10
89.2227300254
 20
-42.821668022
 10
89.2241990255
 20
-42.8073881919
 10
89.2257762127
 20
-42.7930459785
 10
89.2274625703
 20
-42.778652082
 10
89.2292565577
 20
-42.7642254768
 10
89.2311539234
 20
-42.7498562543
 10
89.2331579623
 20
-42.7355507243
 10
89.2352648053
 20
-42.7213327708
 10
89.237459541
 20
-42.7073208483
 10
89.239737079
 20
-42.6935641779
 10
89.2421020784
 20
-42.6800412729
 10
89.24455433
 20
-42.666764168
  0
LWPOLYLINE
  5
350
100
AcDbEntity
  8
RACCORDO
100
AcDbPolyline
 62
7
  6
CONTINUOUS
 90
7
 70
0
 10
89.0611791591
 20
-42.9509482899
 10
89.0690433588
 20
-42.9808127564
 10
89.0799365125
 20
-43.0097104872
 10
89.0937431708
 20
-43.0373352138
 10
89.1103170057
 20
-43.0633941594
 10
89.1294823618
 20
-43.0876111419
 10
89.1510361177
 20
-43.109729501
  0
LWPOLYLINE
  5
351
100
AcDbEntity
  8
RACCORDO
100
AcDbPolyline
 62
253
  6
CONTINUOUS
 90
3
 70
0
 10
89.0603561263
 20
-42.9346625935
 10
89.0672060488
 20
-42.9614924775
 10
89.0767073704
 20
-42.9875687262
  0
LWPOLYLINE
  5
352
100
AcDbEntity
  8
RACCORDO
100
AcDbPolyline
 62
7
  6
CONTINUOUS
 90
3
 70
0
 10
89.0594341672
 20
42.9432224636
 10
89.0562591024
 20
42.9200646945
 10
89.0550655499
 20
42.9025452174
  0
LINE
  5
353
100
AcDbEntity
  8
RACCORDO
100
AcDbLine
 62
253
  6
CONTINUOUS
 10
89.056220739
 20
42.9073263844
 11
89.0603561152
 21
42.9346625768
  0
LWPOLYLINE
  5
354
100
AcDbEntity
  8
RACCORDO
100
AcDbPolyline
 62
253
  6
CONTINUOUS
 90
9
 70
0
 10
89.0563897522
 20
42.9197699227
 10
89.0610286441
 20
42.9498930819
 10
89.0687067174
 20
42.9793897194
 10
89.0793445499
 20
43.0079547192
 10
89.092832103
 20
43.035292603
 10
89.1090298608
 20
43.0611205862
 10
89.1277702728
 20
43.0851715033
 10
89.1488594869
 20
43.1071965713
 10
89.1720793552
 20
43.1269679632
  0
LINE
  5
355
100
AcDbEntity
  8
RACCORDO
100
AcDbLine
 62
253
  6
CONTINUOUS
 10
92.2718400168
 20
42.9462954714
 11
92.5349706503
 21
43.8679119199
  0
LINE
  5
356
100
AcDbEntity
  8
RACCORDO
100
AcDbLine
 62
253
  6
CONTINUOUS
 10
94.5497060567
 20
23.4290183628
 11
94.9343986902
 21
24.0670399872
  0
LINE
  5
357
100
AcDbEntity
  8
RACCORDO
100
AcDbLine
 62
253
  6
CONTINUOUS
 10
94.6325247717
 20
21.8561965495
 11
95.0232503471
 21
22.4522761667
  0
LINE
  5
358
100
AcDbEntity
  8
RACCORDO
100
AcDbLine
 62
253
  6
CONTINUOUS
 10
94.6325247717
 20
-21.8561965495
 11
95.0232503471
 21
-22.4522761667
  0
LINE
  5
359
100
AcDbEntity
  8
RACCORDO
100
AcDbLine
 62
253
  6
CONTINUOUS
 10
94.5497060567
 20
-23.4290183628
 11
94.9343986903
 21
-24.0670399873
  0
LINE
  5
35A
100
AcDbEntity
  8
RACCORDO
100
AcDbLine
 62
253
  6
CONTINUOUS
 10
92.2718400168
 20
-42.9462954714
 11
92.5349706503
 21
-43.8679119199
  0
LWPOLYLINE
  5
35B
100
AcDbEntity
  8
RACCORDO
100
AcDbPolyline
 62
253
  6
CONTINUOUS
 90
10
 70
0
 10
92.4087212948
 20
-44.5427758029
 10
92.408461549
 20
-44.5417696663
 10
92.408291251
 20
-44.5408029783
 10
92.4082110871
 20
-44.5398720299
 10
92.408221672
 20
-44.5389694768
 10
92.4083239577
 20
-44.5380942234
 10
92.4085182458
 20
-44.5372566858
 10
92.4088041053
 20
-44.5364631447
 10
92.4091813597
 20
-44.5357104859
 10
92.409649805
 20
-44.5349997729
  0
LINE
  5
35C
100
AcDbEntity
  8
RACCORDO
100
AcDbLine
 62
7
  6
CONTINUOUS
 10
89.056427261
 20
-42.9204336022
 11
89.0611791591
 21
-42.9509482899
  0
LINE
  5
35D
100
AcDbEntity
  8
RACCORDO
100
AcDbLine
 62
253
  6
CONTINUOUS
 10
89.0562207457
 20
-42.9073263929
 11
89.0603561263
 21
-42.9346625935
  0
LINE
  5
35E
100
AcDbEntity
  8
RACCORDO
100
AcDbLine
 62
7
  6
CONTINUOUS
 10
89.0562591024
 20
-42.9200647005
 11
89.0594341672
 21
-42.9432224557
  0
LINE
  5
35F
100
AcDbEntity
  8
RACCORDO
100
AcDbLine
 62
7
  6
CONTINUOUS
 10
89.0548380269
 20
-42.8895920988
 11
89.056427261
 21
-42.9204336022
  0
LINE
  5
360
100
AcDbEntity
  8
RACCORDO
100
AcDbLine
 62
253
  6
CONTINUOUS
 10
89.0548380269
 20
-42.8797358613
 11
89.0548380269
 21
-42.8895920988
  0
LINE
  5
361
100
AcDbEntity
  8
RACCORDO
100
AcDbLine
 62
253
  6
CONTINUOUS
 10
89.0548380269
 20
42.8797358613
 11
89.0563897522
 21
42.9197699227
  0
LWPOLYLINE
  5
362
100
AcDbEntity
  8
RACCORDO
100
AcDbPolyline
 62
7
  6
CONTINUOUS
 90
3
 70
0
 10
89.0548380269
 20
-42.8907997004
 10
89.0550655499
 20
-42.9025452686
 10
89.0562591024
 20
-42.9200647005
  0
LINE
  5
363
100
AcDbEntity
  8
RACCORDO
100
AcDbLine
 62
253
  6
CONTINUOUS
 10
89.2552893622
 20
40.4514014571
 11
89.2447470057
 21
42.6141246423
  0
LINE
  5
364
100
AcDbEntity
  8
RACCORDO
100
AcDbLine
 62
253
  6
CONTINUOUS
 10
89.2447470057
 20
42.6141246423
 11
89.24455433
 21
42.666764168
  0
LINE
  5
365
100
AcDbEntity
  8
RACCORDO
100
AcDbLine
 62
253
  6
CONTINUOUS
 10
89.2696839241
 20
36.341570136
 11
89.2552893622
 21
40.4514014571
  0
LINE
  5
366
100
AcDbEntity
  8
RACCORDO
100
AcDbLine
 62
253
  6
CONTINUOUS
 10
89.2801423368
 20
32.0394588329
 11
89.2696839241
 21
36.341570136
  0
LINE
  5
367
100
AcDbEntity
  8
RACCORDO
100
AcDbLine
 62
253
  6
CONTINUOUS
 10
89.2906392838
 20
25.183478944
 11
89.2801423368
 21
32.0394588329
  0
LINE
  5
368
100
AcDbEntity
  8
RACCORDO
100
AcDbLine
 62
253
  6
CONTINUOUS
 10
89.3035191359
 20
4.0058311613
 11
89.2906392838
 21
25.183478944
  0
LINE
  5
369
100
AcDbEntity
  8
RACCORDO
100
AcDbLine
 62
7
  6
CONTINUOUS
 10
89.0548380269
 20
-42.8893318391
 11
89.0548380269
 21
-4.0204738983
  0
LINE
  5
36A
100
AcDbEntity
  8
RACCORDO
100
AcDbLine
 62
7
  6
CONTINUOUS
 10
89.0548380269
 20
4.0204738985
 11
89.0548380269
 21
42.8893318391
  0
LINE
  5
36B
100
AcDbEntity
  8
RACCORDO
100
AcDbLine
 62
253
  6
CONTINUOUS
 10
89.293313307
 20
-22.788569243
 11
89.3035191218
 21
-4.0058311638
  0
LINE
  5
36C
100
AcDbEntity
  8
RACCORDO
100
AcDbLine
 62
253
  6
CONTINUOUS
 10
89.280226745
 20
-31.9977258885
 11
89.293313307
 21
-22.788569243
  0
LINE
  5
36D
100
AcDbEntity
  8
RACCORDO
100
AcDbLine
 62
253
  6
CONTINUOUS
 10
89.269789531
 20
-36.3051389405
 11
89.280226745
 21
-31.9977258885
  0
LINE
  5
36E
100
AcDbEntity
  8
RACCORDO
100
AcDbLine
 62
253
  6
CONTINUOUS
 10
89.2553757233
 20
-40.4353611144
 11
89.269789531
 21
-36.3051389405
  0
LINE
  5
36F
100
AcDbEntity
  8
RACCORDO
100
AcDbLine
 62
253
  6
CONTINUOUS
 10
89.24455433
 20
-42.666764168
 11
89.2553757233
 21
-40.4353611144
  0
LINE
  5
370
100
AcDbEntity
  8
RACCORDO
100
AcDbLine
 62
7
  6
CONTINUOUS
 10
89.0550521989
 20
42.9010679241
 11
89.0548480401
 21
42.8897863754
  0
LWPOLYLINE
  5
371
100
AcDbEntity
  8
RACCORDO
100
AcDbPolyline
 62
253
  6
CONTINUOUS
 90
16
 70
0
 10
89.3035577158
 20
4.005824435
 10
89.3002794855
 20
3.985617298
 10
89.2973962978
 20
3.9656235556
 10
89.2949385539
 20
3.9460540276
 10
89.2929321687
 20
3.9271150607
 10
89.2913982984
 20
3.909006353
 10
89.2903531165
 20
3.8919188479
 10
89.2898076436
 20
3.8760327209
 10
89.2897676314
 20
3.86151548
 10
89.2902335017
 20
3.8485201992
 10
89.2912003424
 20
3.8371839045
 10
89.2926579587
 20
3.827626129
 10
89.2945909812
 20
3.8199476527
 10
89.2969790274
 20
3.8142294397
 10
89.2997969172
 20
3.8105317844
 10
89.3030149378
 20
3.808893676
  0
LWPOLYLINE
  5
372
100
AcDbEntity
  8
RACCORDO
100
AcDbPolyline
 62
253
  6
CONTINUOUS
 90
16
 70
0
 10
90.8966348022
 20
3.7259482819
 10
90.8932778663
 20
3.7056788312
 10
90.8902501562
 20
3.685626144
 10
90.887583807
 20
3.6660030513
 10
90.8853071181
 20
3.6470178249
 10
90.8834442533
 20
3.6288719662
 10
90.8820149844
 20
3.6117580681
 10
90.881034481
 20
3.5958577706
 10
90.8805131498
 20
3.5813398331
 10
90.880456524
 20
3.5683583431
 10
90.8808652045
 20
3.557051081
 10
90.8817348538
 20
3.5475380574
 10
90.8830562418
 20
3.5399202397
 10
90.8848153437
 20
3.5342784805
 10
90.8869934893
 20
3.5306726591
 10
90.8895675604
 20
3.5291410462
  0
LINE
  5
373
100
AcDbEntity
  8
RACCORDO
100
AcDbLine
 62
7
  6
CONTINUOUS
 10
90.8895676624
 20
-3.5291416244
 11
89.2201083351
 21
-3.823512347
  0
LINE
  5
374
100
AcDbEntity
  8
RACCORDO
100
AcDbLine
 62
253
  6
CONTINUOUS
 10
90.8966346445
 20
-3.725948281
 11
89.3035191218
 21
-4.0058311638
  0
LINE
  5
375
100
AcDbEntity
  8
RACCORDO
100
AcDbLine
 62
253
  6
CONTINUOUS
 10
89.3035191868
 20
-4.0058266385
 11
89.0548379159
 21
-4.0204736929
  0
LINE
  5
376
100
AcDbEntity
  8
RACCORDO
100
AcDbLine
 62
253
  6
CONTINUOUS
 10
91.055756653
 20
-3.3321653758
 11
91.0548371281
 21
-3.3321800737
  0
LINE
  5
377
100
AcDbEntity
  8
RACCORDO
100
AcDbLine
 62
253
  6
CONTINUOUS
 10
91.0982589354
 20
-3.3320845996
 11
91.055756653
 21
-3.3321653758
  0
LINE
  5
378
100
AcDbEntity
  8
RACCORDO
100
AcDbLine
 62
253
  6
CONTINUOUS
 10
91.2285385833
 20
-3.3320279387
 11
91.0982589354
 21
-3.3320845996
  0
LWPOLYLINE
  5
379
100
AcDbEntity
  8
RACCORDO
100
AcDbPolyline
 62
253
  6
CONTINUOUS
 90
16
 70
0
 10
90.8966346424
 20
-3.725948281
 10
90.8932777284
 20
-3.7056788503
 10
90.8902500412
 20
-3.6856261936
 10
90.8875837153
 20
-3.6660031402
 10
90.8853070497
 20
-3.6470179597
 10
90.8834442078
 20
-3.6288721517
 10
90.882014961
 20
-3.6117583072
 10
90.8810344786
 20
-3.5958580642
 10
90.880513167
 20
-3.5813401804
 10
90.8804565591
 20
-3.5683587415
 10
90.8808652558
 20
-3.5570515264
 10
90.8817349192
 20
-3.5475385443
 10
90.8830563194
 20
-3.5399207616
 10
90.8848154315
 20
-3.5342790296
 10
90.8869935851
 20
-3.5306732272
 10
90.8895676624
 20
-3.5291416244
  0
LWPOLYLINE
  5
37A
100
AcDbEntity
  8
RACCORDO
100
AcDbPolyline
 62
253
  6
CONTINUOUS
 90
16
 70
0
 10
89.3035580529
 20
-4.0058244376
 10
89.3002798397
 20
-3.9856173627
 10
89.2973966637
 20
-3.9656236802
 10
89.2949389258
 20
-3.9460542079
 10
89.2929325407
 20
-3.9271152908
 10
89.2913986641
 20
-3.909006625
 10
89.2903534694
 20
-3.8919191523
 10
89.2898079774
 20
-3.8760330469
 10
89.2897679397
 20
-3.8615158154
 10
89.2902337784
 20
-3.8485205307
 10
89.2912005815
 20
-3.8371842181
 10
89.292658155
 20
-3.82762641
 10
89.2945911296
 20
-3.8199478863
 10
89.2969791238
 20
-3.8142296109
 10
89.2997969579
 20
-3.8105318786
 10
89.3030149201
 20
-3.8088936792
  0
LINE
  5
37B
100
AcDbEntity
  8
RACCORDO
100
AcDbLine
 62
7
  6
CONTINUOUS
 10
91.0548380269
 20
3.3321789024
 11
91.0548380269
 21
-3.3321780415
  0
LINE
  5
37C
100
AcDbEntity
  8
RACCORDO
100
AcDbLine
 62
253
  6
CONTINUOUS
 10
91.2285382699
 20
3.3320279369
 11
91.2285382699
 21
-3.3320279369
  0
LWPOLYLINE
  5
37D
100
AcDbEntity
  8
RACCORDO
100
AcDbPolyline
 62
253
  6
CONTINUOUS
 90
19
 70
0
 10
91.2285382699
 20
-3.3320279369
 10
91.2272724568
 20
-3.3631987434
 10
91.2236913822
 20
-3.3938152961
 10
91.2177954824
 20
-3.423876338
 10
91.2095294928
 20
-3.4535400556
 10
91.1989497293
 20
-3.4826456798
 10
91.1862240567
 20
-3.5107136915
 10
91.1713176241
 20
-3.5377364881
 10
91.1542665743
 20
-3.5637195222
 10
91.1353451975
 20
-3.5882033851
 10
91.1145146336
 20
-3.6111703616
 10
91.0918150171
 20
-3.6326368717
 10
91.0676388904
 20
-3.6521954909
 10
91.0419598076
 20
-3.6698115838
 10
91.0148051752
 20
-3.685519694
 10
90.9866479112
 20
-3.6990170776
 10
90.9576456947
 20
-3.7102033868
 10
90.9276412138
 20
-3.7191802231
 10
90.8966346445
 20
-3.725948281
  0
LINE
  5
37E
100
AcDbEntity
  8
RACCORDO
100
AcDbLine
 62
253
  6
CONTINUOUS
 10
91.0548380269
 20
-0.0
 11
95.7124084012
 21
-0.0
  0
LWPOLYLINE
  5
37F
100
AcDbEntity
  8
0
100
AcDbPolyline
 62
7
  6
CONTINUOUS
 90
25
 70
0
 10
92.2460158138
 20
43.1537004553
 10
92.2404893999
 20
43.2298700973
 10
92.2379927051
 20
43.2602815929
 10
92.2351725163
 20
43.2911118654
 10
92.2320378015
 20
43.3222667163
 10
92.2286273333
 20
43.3535520319
 10
92.2250125275
 20
43.3846803188
 10
92.2212428198
 20
43.4155253611
 10
92.2173454063
 20
43.4458518607
 10
92.2133683831
 20
43.4752214727
 10
92.2093656634
 20
43.5034544454
 10
92.2053811339
 20
43.5303660002
 10
92.2014509706
 20
43.555565611
 10
92.1975802746
 20
43.5789050988
 10
92.1938015277
 20
43.600343703
 10
92.1901867018
 20
43.6197264742
 10
92.1867352429
 20
43.6370448184
 10
92.1834330605
 20
43.6522761666
 10
92.1803274382
 20
43.6653232808
 10
92.1774357646
 20
43.6762153863
 10
92.1747231026
 20
43.6850019434
 10
92.1721553197
 20
43.6916944082
 10
92.1697149514
 20
43.6963631398
 10
92.1674025351
 20
43.6991035034
 10
92.1652105508
 20
43.7
  0
LWPOLYLINE
  5
380
100
AcDbEntity
  8
RACCORDO
100
AcDbPolyline
 62
253
  6
CONTINUOUS
 90
22
 70
0
 10
94.9343986902
 20
24.0670399872
 10
94.8540073845
 20
25.3268823717
 10
94.7663177749
 20
26.554036607
 10
94.672141609
 20
27.7479294686
 10
94.57228976
 20
28.9077525038
 10
94.467490418
 20
30.0334259945
 10
94.3583677247
 20
31.1255897386
 10
94.245609392
 20
32.1839024041
 10
94.1298579008
 20
33.2082460673
 10
94.0115886164
 20
34.1996800941
 10
93.891496781
 20
35.1573120853
 10
93.7700966989
 20
36.0819061663
 10
93.6474704838
 20
36.9770407387
 10
93.5241336711
 20
37.8425845748
 10
93.400536254
 20
38.6787203122
 10
93.2765080347
 20
39.4894784797
 10
93.1524172251
 20
40.2749235214
 10
93.0286157783
 20
41.0351214082
 10
92.9047754329
 20
41.7740583692
 10
92.7809419976
 20
42.4930959616
 10
92.6575909737
 20
43.1910152153
 10
92.5349706503
 20
43.8679119199
  0
LWPOLYLINE
  5
381
100
AcDbEntity
  8
RACCORDO
100
AcDbPolyline
 62
253
  6
CONTINUOUS
 90
21
 70
0
 10
95.0594926054
 20
24.0745373098
 10
94.978935226
 20
25.3361465412
 10
94.891188787
 20
26.5640516083
 10
94.7970007405
 20
27.75823713
 10
94.6970986789
 20
28.9187180813
 10
94.5921873704
 20
30.0454759011
 10
94.4829510226
 20
31.1384577973
 10
94.3700946479
 20
32.1974355841
 10
94.2542309802
 20
33.2226797358
 10
94.1358643096
 20
34.2148931102
 10
94.0156804413
 20
35.1731915328
 10
93.8941701931
 20
36.0985309529
 10
93.7714444207
 20
36.9943721497
 10
93.6480196899
 20
37.8605559056
 10
93.5243236987
 20
38.6973210475
 10
93.4001898637
 20
39.5087137687
 10
93.2760018349
 20
40.2947618974
 10
93.1521115904
 20
41.0555129377
 10
93.0281686885
 20
41.7950268558
 10
92.9042187704
 20
42.5146745271
 10
92.7807665324
 20
43.2131480729
  0
LWPOLYLINE
  5
382
100
AcDbEntity
  8
0
100
AcDbPolyline
 62
7
  6
CONTINUOUS
 90
10
 70
0
 10
94.5497060567
 20
23.4290183628
 10
94.4129608758
 20
25.6046097547
 10
94.2467218805
 20
27.7810310474
 10
94.0512331267
 20
29.9567705708
 10
93.8269152079
 20
32.1289271461
 10
93.5738901743
 20
34.2973400629
 10
93.2918134303
 20
36.4645362983
 10
92.9805913723
 20
38.6302322871
 10
92.6405495448
 20
40.7913871202
 10
92.2718400168
 20
42.9462954714
  0
LINE
  5
383
100
AcDbEntity
  8
RACCORDO
100
AcDbLine
 62
253
  6
CONTINUOUS
 10
94.9841748267
 20
23.1980409734
 11
94.9343986902
 21
24.0670399872
  0
LINE
  5
384
100
AcDbEntity
  8
RACCORDO
100
AcDbLine
 62
253
  6
CONTINUOUS
 10
95.1093432586
 20
23.2048645547
 11
95.0594926054
 21
24.0745373098
  0
LINE
  5
385
100
AcDbEntity
  8
0
100
AcDbLine
 62
7
  6
CONTINUOUS
 10
94.6027960439
 20
22.4462330493
 11
94.5497060567
 21
23.4290183628
  0
LINE
  5
386
100
AcDbEntity
  8
RACCORDO
100
AcDbLine
 62
253
  6
CONTINUOUS
 10
94.6458752679
 20
44.0190538877
 11
94.655063452
 21
43.8457940386
  0
LINE
  5
387
100
AcDbEntity
  8
RACCORDO
100
AcDbLine
 62
253
  6
CONTINUOUS
 10
95.0232503471
 20
22.4522761667
 11
94.9841748267
 21
23.1980409734
  0
LINE
  5
388
100
AcDbEntity
  8
RACCORDO
100
AcDbLine
 62
253
  6
CONTINUOUS
 10
95.1485221123
 20
22.4585708418
 11
95.1093432586
 21
23.2048645547
  0
LINE
  5
389
100
AcDbEntity
  8
0
100
AcDbLine
 62
7
  6
CONTINUOUS
 10
94.6325247717
 20
21.8561965495
 11
94.6027960439
 21
22.4462330493
  0
LWPOLYLINE
  5
38A
100
AcDbEntity
  8
RACCORDO
100
AcDbPolyline
 62
253
  6
CONTINUOUS
 90
10
 70
0
 10
95.5869257043
 20
-0.0
 10
95.5799613535
 20
2.4953846186
 10
95.5590716479
 20
4.9909817849
 10
95.5242594692
 20
7.486645527
 10
95.4755264811
 20
9.9822879219
 10
95.4128760921
 20
12.4777047934
 10
95.3363166985
 20
14.9725756679
 10
95.2458562218
 20
17.4666962534
 10
95.1414988652
 20
19.9599784795
 10
95.0232503471
 20
22.4522761667
  0
LWPOLYLINE
  5
38B
100
AcDbEntity
  8
RACCORDO
100
AcDbPolyline
 62
253
  6
CONTINUOUS
 90
10
 70
0
 10
95.7124084012
 20
-0.0000000001
 10
95.7054344892
 20
2.4962017544
 10
95.6845387561
 20
4.9924755815
 10
95.6497195948
 20
7.4887456763
 10
95.6009726496
 20
9.9850634416
 10
95.5382976806
 20
12.4812257022
 10
95.4617065475
 20
14.9767737759
 10
95.3712108176
 20
17.4715024197
 10
95.2668137631
 20
19.9654607831
 10
95.1485221123
 20
22.4585708418
  0
LWPOLYLINE
  5
38C
100
AcDbEntity
  8
0
100
AcDbPolyline
 62
7
  6
CONTINUOUS
 90
10
 70
0
 10
95.1677414935
 20
-0.0
 10
95.1611338652
 20
2.4290783901
 10
95.1413062882
 20
4.8582944373
 10
95.1082598191
 20
7.2875431982
 10
95.0619942107
 20
9.7167806763
 10
95.0025111859
 20
12.1458408494
 10
94.9298177568
 20
14.5744357633
 10
94.8439203087
 20
17.0023994978
 10
94.7448212825
 20
19.4296880746
 10
94.6325247717
 20
21.8561965495
  0
LWPOLYLINE
  5
38D
100
AcDbEntity
  8
0
100
AcDbPolyline
 62
7
  6
CONTINUOUS
 90
9
 70
0
 10
94.7448212825
 20
-19.4296880746
 10
94.8439203087
 20
-17.0023994978
 10
94.9298177568
 20
-14.5744357633
 10
95.0025111859
 20
-12.1458408494
 10
95.0619942107
 20
-9.7167806762
 10
95.1082598191
 20
-7.2875431982
 10
95.1413062882
 20
-4.8582944373
 10
95.1611338652
 20
-2.4290783901
 10
95.1677414935
 20
-0.0
  0
LWPOLYLINE
  5
38E
100
AcDbEntity
  8
RACCORDO
100
AcDbPolyline
 62
253
  6
CONTINUOUS
 90
9
 70
0
 10
95.1414988785
 20
-19.959978183
 10
95.2458562352
 20
-17.4666959089
 10
95.3363167033
 20
-14.9725755241
 10
95.4128760771
 20
-12.477705332
 10
95.4755264483
 20
-9.982289392
 10
95.5242594366
 20
-7.486647479
 10
95.5590716284
 20
-4.9909835361
 10
95.5799613473
 20
-2.4953857191
 10
95.5869257043
 20
-0.0
  0
LWPOLYLINE
  5
38F
100
AcDbEntity
  8
RACCORDO
100
AcDbPolyline
 62
253
  6
CONTINUOUS
 90
9
 70
0
 10
95.2668137763
 20
-19.9654604865
 10
95.3712108311
 20
-17.471502075
 10
95.4617065523
 20
-14.9767736321
 10
95.5382976656
 20
-12.481226241
 10
95.6009726168
 20
-9.9850649121
 10
95.6497195622
 20
-7.4887476288
 10
95.6845387366
 20
-4.9924773333
 10
95.7054344831
 20
-2.4962028554
 10
95.7124084012
 20
-0.0000000001
  0
LINE
  5
390
100
AcDbEntity
  8
0
100
AcDbLine
 62
7
  6
CONTINUOUS
 10
94.6141678645
 20
-22.2243107336
 11
94.7448212825
 21
-19.4296880746
  0
LINE
  5
391
100
AcDbEntity
  8
RACCORDO
100
AcDbLine
 62
253
  6
CONTINUOUS
 10
95.0118485201
 20
-22.6766735058
 11
95.1414988785
 21
-19.959978183
  0
LINE
  5
392
100
AcDbEntity
  8
RACCORDO
100
AcDbLine
 62
253
  6
CONTINUOUS
 10
95.1370757126
 20
-22.6832777838
 11
95.2668137763
 21
-19.9654604865
  0
LINE
  5
393
100
AcDbEntity
  8
RACCORDO
100
AcDbLine
 62
253
  6
CONTINUOUS
 10
94.6550634521
 20
-43.8457940382
 11
94.645880103
 21
-44.0189621801
  0
LINE
  5
394
100
AcDbEntity
  8
0
100
AcDbLine
 62
7
  6
CONTINUOUS
 10
94.5608014694
 20
-23.2302442153
 11
94.6141678645
 21
-22.2243107336
  0
LINE
  5
395
100
AcDbEntity
  8
0
100
AcDbLine
 62
7
  6
CONTINUOUS
 10
94.5497060567
 20
-23.4290183628
 11
94.5608014694
 21
-23.2302442153
  0
LINE
  5
396
100
AcDbEntity
  8
RACCORDO
100
AcDbLine
 62
253
  6
CONTINUOUS
 10
94.9647978356
 20
-23.5459056182
 11
95.0118485201
 21
-22.6766735058
  0
LINE
  5
397
100
AcDbEntity
  8
RACCORDO
100
AcDbLine
 62
253
  6
CONTINUOUS
 10
95.0899289811
 20
-23.5530133811
 11
95.1370757126
 21
-22.6832777838
  0
LINE
  5
398
100
AcDbEntity
  8
RACCORDO
100
AcDbLine
 62
253
  6
CONTINUOUS
 10
94.9343986903
 20
-24.0670399873
 11
94.9647978356
 21
-23.5459056182
  0
LINE
  5
399
100
AcDbEntity
  8
RACCORDO
100
AcDbLine
 62
253
  6
CONTINUOUS
 10
95.0594926055
 20
-24.0745373098
 11
95.0899289811
 21
-23.5530133811
  0
LWPOLYLINE
  5
39A
100
AcDbEntity
  8
0
100
AcDbPolyline
 62
7
  6
CONTINUOUS
 90
7
 70
0
 10
92.2404893999
 20
-43.2298700973
 10
92.2460158138
 20
-43.1537004553
 10
92.2499854071
 20
-43.1090180667
 10
92.2545530291
 20
-43.0659447775
 10
92.2597183498
 20
-43.0244724963
 10
92.2654808893
 20
-42.9845925088
 10
92.2718400168
 20
-42.9462954714
  0
LWPOLYLINE
  5
39B
100
AcDbEntity
  8
RACCORDO
100
AcDbPolyline
 62
253
  6
CONTINUOUS
 90
4
 70
0
 10
91.2285382699
 20
3.3320279369
 10
91.0585076001
 20
3.3321508101
 10
91.0557575339
 20
3.3321653744
 10
91.0548380269
 20
3.3321800738
  0
LINE
  5
39C
100
AcDbEntity
  8
RACCORDO
100
AcDbLine
 62
253
  6
CONTINUOUS
 10
89.0548379343
 20
4.0204736949
 11
89.3035191718
 21
4.0058266312
  0
LINE
  5
39D
100
AcDbEntity
  8
RACCORDO
100
AcDbLine
 62
253
  6
CONTINUOUS
 10
89.3035191359
 20
4.0058311613
 11
90.8966346445
 21
3.725948281
  0
LINE
  5
39E
100
AcDbEntity
  8
RACCORDO
100
AcDbLine
 62
7
  6
CONTINUOUS
 10
89.2201083443
 20
3.8235123453
 11
90.8895676624
 21
3.5291416244
  0
LWPOLYLINE
  5
39F
100
AcDbEntity
  8
RACCORDO
100
AcDbPolyline
 62
253
  6
CONTINUOUS
 90
19
 70
0
 10
90.8966346445
 20
3.725948281
 10
90.9276520483
 20
3.7191759129
 10
90.9576637455
 20
3.7101959465
 10
90.9866695584
 20
3.6990076896
 10
91.0148247376
 20
3.6855107048
 10
91.0419736613
 20
3.6698041818
 10
91.0676495905
 20
3.6521873779
 10
91.0918293958
 20
3.6326219465
 10
91.1145352495
 20
3.6111463186
 10
91.1353679615
 20
3.5881758321
 10
91.1542830481
 20
3.5636989184
 10
91.1713237143
 20
3.537728453
 10
91.1862220628
 20
3.510717223
 10
91.1989444769
 20
3.4826589907
 10
91.2095232836
 20
3.4535621385
 10
91.2177894382
 20
3.4239019049
 10
91.2236862312
 20
3.3938376314
 10
91.2272693206
 20
3.3632125566
 10
91.2285382699
 20
3.3320279369
  0
LWPOLYLINE
  5
3A0
100
AcDbEntity
  8
RACCORDO
100
AcDbPolyline
 62
253
  6
CONTINUOUS
 90
43
 70
0
 10
89.24455433
 20
42.666764168
 10
89.2421101525
 20
42.6799891754
 10
89.2397492736
 20
42.6934865882
 10
89.2374718755
 20
42.707244308
 10
89.2352724788
 20
42.7212846693
 10
89.2331569576
 20
42.7355570413
 10
89.2311426099
 20
42.7499393618
 10
89.2292335591
 20
42.7644066061
 10
89.2274262461
 20
42.7789523017
 10
89.2257265342
 20
42.79348413
 10
89.2241360909
 20
42.8079814356
 10
89.2226538135
 20
42.8224332134
 10
89.2212814396
 20
42.8367645749
 10
89.220019333
 20
42.850957774
 10
89.2188676279
 20
42.8650013889
 10
89.2178277102
 20
42.8788338127
 10
89.2169001638
 20
42.8924275694
 10
89.2160848008
 20
42.9057860632
 10
89.2153818269
 20
42.9188964189
 10
89.2147891111
 20
42.9317554376
 10
89.214309119
 20
42.9443429453
 10
89.2139489135
 20
42.9566228511
 10
89.2137130021
 20
42.9685654625
 10
89.2135966115
 20
42.9801900509
 10
89.2135928962
 20
42.9915329868
 10
89.2136996499
 20
43.0025766148
 10
89.2139185491
 20
43.013326807
 10
89.2142486617
 20
43.0238455551
 10
89.214688138
 20
43.0341437155
 10
89.2152384369
 20
43.0441827265
 10
89.2159036255
 20
43.0539442965
 10
89.2166836465
 20
43.0634258827
 10
89.2175781862
 20
43.0726025608
 10
89.218590908
 20
43.0814275813
 10
89.2197223998
 20
43.0898943065
 10
89.2209717127
 20
43.0979911197
 10
89.222340184
 20
43.1056747098
 10
89.2238300526
 20
43.1129464045
 10
89.2254387516
 20
43.1197990112
 10
89.2271604049
 20
43.1261912607
 10
89.2289929634
 20
43.1321174693
 10
89.2309382106
 20
43.1375981689
 10
89.2329960328
 20
43.1426403415
  0
LINE
  5
3A1
100
AcDbEntity
  8
RACCORDO
100
AcDbLine
 62
253
  6
CONTINUOUS
 10
94.6099141821
 20
44.5256836327
 11
94.6173995898
 21
44.4381134444
  0
LINE
  5
3A2
100
AcDbEntity
  8
RACCORDO
100
AcDbLine
 62
253
  6
CONTINUOUS
 10
94.6173995898
 20
44.4381134444
 11
94.6248478977
 21
44.3423925188
  0
LINE
  5
3A3
100
AcDbEntity
  8
RACCORDO
100
AcDbLine
 62
253
  6
CONTINUOUS
 10
94.6248478977
 20
44.3423925188
 11
94.6321520194
 21
44.2397271833
  0
LINE
  5
3A4
100
AcDbEntity
  8
RACCORDO
100
AcDbLine
 62
253
  6
CONTINUOUS
 10
94.6321520194
 20
44.2397271833
 11
94.6391788983
 21
44.1314774343
  0
LINE
  5
3A5
100
AcDbEntity
  8
RACCORDO
100
AcDbLine
 62
253
  6
CONTINUOUS
 10
94.6391788983
 20
44.1314774343
 11
94.6458752679
 21
44.0190538877
  0
LWPOLYLINE
  5
3A6
100
AcDbEntity
  8
RACCORDO
100
AcDbPolyline
 62
253
  6
CONTINUOUS
 90
12
 70
0
 10
97.09904817
 20
22.6080915512
 10
97.2758957001
 20
18.7693858765
 10
97.4169860822
 20
15.0170795117
 10
97.5267263243
 20
11.2637237866
 10
97.6051197073
 20
7.509584833
 10
97.652162953
 20
3.754924456
 10
97.6678462229
 20
0.0000001319
 10
97.6521629579
 20
-3.7549241486
 10
97.6051197171
 20
-7.5095844529
 10
97.5267263363
 20
-11.2637233922
 10
97.4169860929
 20
-15.0170791905
 10
97.2758957068
 20
-18.7693856868
  0
LINE
  5
3A7
100
AcDbEntity
  8
RACCORDO
100
AcDbLine
 62
253
  6
CONTINUOUS
 10
97.2758957068
 20
-18.7693856868
 11
97.09904817
 21
-22.6080915512
  0
LWPOLYLINE
  5
3A8
100
AcDbEntity
  8
RACCORDO
100
AcDbPolyline
 62
253
  6
CONTINUOUS
 90
10
 70
0
 10
97.09904817
 20
-22.6080915512
 10
96.9625216311
 20
-24.9810868824
 10
96.7921962486
 20
-27.3519082004
 10
96.5880724475
 20
-29.7200634304
 10
96.350095949
 20
-32.0850471668
 10
96.0783218847
 20
-34.4463804566
 10
95.7729147819
 20
-36.8036105772
 10
95.433929752
 20
-39.1562580461
 10
95.0613125051
 20
-41.5038168431
 10
94.6550634537
 20
-43.845794038
  0
LINE
  5
3A9
100
AcDbEntity
  8
RACCORDO
100
AcDbLine
 62
253
  6
CONTINUOUS
 10
94.645880103
 20
-44.0189621801
 11
94.6391951247
 21
-44.1311862319
  0
LINE
  5
3AA
100
AcDbEntity
  8
RACCORDO
100
AcDbLine
 62
253
  6
CONTINUOUS
 10
94.6391951247
 20
-44.1311862319
 11
94.6321765606
 21
-44.2393619303
  0
LINE
  5
3AB
100
AcDbEntity
  8
RACCORDO
100
AcDbLine
 62
7
  6
CONTINUOUS
 10
97.3478047823
 20
-26.0452478368
 11
97.3483131007
 21
-26.0380796398
  0
LINE
  5
3AC
100
AcDbEntity
  8
RACCORDO
100
AcDbLine
 62
253
  6
CONTINUOUS
 10
94.6321765606
 20
-44.2393619303
 11
94.6248719912
 21
-44.3420846172
  0
LINE
  5
3AD
100
AcDbEntity
  8
RACCORDO
100
AcDbLine
 62
253
  6
CONTINUOUS
 10
94.6248719912
 20
-44.3420846172
 11
94.6174253981
 21
-44.4378314313
  0
LWPOLYLINE
  5
3AE
100
AcDbEntity
  8
RACCORDO
100
AcDbPolyline
 62
253
  6
CONTINUOUS
 90
16
 70
0
 10
94.6174253981
 20
-44.4378314313
 10
94.6099402405
 20
-44.525429701
 10
94.6061972104
 20
-44.5658228843
 10
94.6024891365
 20
-44.6037740409
 10
94.5988221986
 20
-44.639161417
 10
94.5951953192
 20
-44.671875489
 10
94.5916357432
 20
-44.7018184359
 10
94.5881531574
 20
-44.7288964631
 10
94.5847499556
 20
-44.7530212018
 10
94.5814440373
 20
-44.774115063
 10
94.5782492389
 20
-44.7921085058
 10
94.5751712453
 20
-44.8069486365
 10
94.5722170208
 20
-44.8185937441
 10
94.5693971144
 20
-44.827004556
 10
94.5667261327
 20
-44.8321490217
 10
94.5642182925
 20
-44.8340076387
  0
LWPOLYLINE
  5
3AF
100
AcDbEntity
  8
RACCORDO
100
AcDbPolyline
 62
253
  6
CONTINUOUS
 90
9
 70
0
 10
92.6463252232
 20
-43.9654851844
 10
92.6474586408
 20
-43.957094342
 10
92.6486344376
 20
-43.9487161417
 10
92.6498526156
 20
-43.9403505772
 10
92.651112095
 20
-43.9319954389
 10
92.6524139593
 20
-43.9236529232
 10
92.6537614564
 20
-43.9153296312
 10
92.6551556712
 20
-43.9070277583
 10
92.6565955248
 20
-43.8987450947
  0
LINE
  5
3B0
100
AcDbEntity
  8
RACCORDO
100
AcDbLine
 62
253
  6
CONTINUOUS
 10
92.6392429137
 20
-44.014038476
 11
92.6463252063
 21
-43.9654851813
  0
LINE
  5
3B1
100
AcDbEntity
  8
RACCORDO
100
AcDbLine
 62
253
  6
CONTINUOUS
 10
92.6310166048
 20
-44.0684454695
 11
92.6392429137
 21
-44.014038476
  0
LINE
  5
3B2
100
AcDbEntity
  8
RACCORDO
100
AcDbLine
 62
253
  6
CONTINUOUS
 10
92.6213673341
 20
-44.1301177883
 11
92.6310166048
 21
-44.0684454695
  0
LINE
  5
3B3
100
AcDbEntity
  8
RACCORDO
100
AcDbLine
 62
253
  6
CONTINUOUS
 10
92.5076457962
 20
-44.024787126
 11
92.5212885903
 21
-43.9399936075
  0
LINE
  5
3B4
100
AcDbEntity
  8
RACCORDO
100
AcDbLine
 62
253
  6
CONTINUOUS
 10
92.6101159213
 20
-44.1995362758
 11
92.6213673341
 21
-44.1301177883
  0
LWPOLYLINE
  5
3B5
100
AcDbEntity
  8
RACCORDO
100
AcDbPolyline
 62
253
  6
CONTINUOUS
 90
9
 70
0
 10
92.5212885903
 20
-43.9399936075
 10
92.5227917963
 20
-43.9309947035
 10
92.5243520447
 20
-43.9219917827
 10
92.525967467
 20
-43.9129822325
 10
92.5276401318
 20
-43.9039675548
 10
92.5293760694
 20
-43.8949532405
 10
92.5311773781
 20
-43.8859406371
 10
92.5330422001
 20
-43.8769270745
 10
92.5349706503
 20
-43.8679119199
  0
LINE
  5
3B6
100
AcDbEntity
  8
RACCORDO
100
AcDbLine
 62
253
  6
CONTINUOUS
 10
92.4946774483
 20
-44.1031762673
 11
92.5076457962
 21
-44.024787126
  0
LINE
  5
3B7
100
AcDbEntity
  8
RACCORDO
100
AcDbLine
 62
253
  6
CONTINUOUS
 10
92.6005705517
 20
-44.2566192731
 11
92.6101159213
 21
-44.1995362758
  0
LWPOLYLINE
  5
3B8
100
AcDbEntity
  8
0
100
AcDbPolyline
 62
7
  6
CONTINUOUS
 90
10
 70
0
 10
92.2718400168
 20
-42.9462954714
 10
92.6405495448
 20
-40.79138712
 10
92.9805913723
 20
-38.6302322869
 10
93.2918134304
 20
-36.4645362981
 10
93.5738901744
 20
-34.2973400628
 10
93.8269152079
 20
-32.128927146
 10
94.0512331267
 20
-29.9567705708
 10
94.2467218805
 20
-27.7810310474
 10
94.4129608758
 20
-25.6046097548
 10
94.5497060567
 20
-23.4290183628
  0
LINE
  5
3B9
100
AcDbEntity
  8
RACCORDO
100
AcDbLine
 62
253
  6
CONTINUOUS
 10
92.4817482636
 20
-44.1791492463
 11
92.4946774483
 21
-44.1031762673
  0
LINE
  5
3BA
100
AcDbEntity
  8
RACCORDO
100
AcDbLine
 62
253
  6
CONTINUOUS
 10
92.5900967406
 20
-44.3175467518
 11
92.6005705517
 21
-44.2566192731
  0
LINE
  5
3BB
100
AcDbEntity
  8
RACCORDO
100
AcDbLine
 62
253
  6
CONTINUOUS
 10
92.4668470105
 20
-44.2640816451
 11
92.4817482636
 21
-44.1791492463
  0
LWPOLYLINE
  5
3BC
100
AcDbEntity
  8
RACCORDO
100
AcDbPolyline
 62
253
  6
CONTINUOUS
 90
3
 70
0
 10
92.5749667157
 20
-44.4024837475
 10
92.5788417553
 20
-44.3810808494
 10
92.5900967406
 20
-44.3175467518
  0
LWPOLYLINE
  5
3BD
100
AcDbEntity
  8
RACCORDO
100
AcDbPolyline
 62
253
  6
CONTINUOUS
 90
22
 70
0
 10
92.5349706503
 20
-43.8679119199
 10
92.6575612801
 20
-43.1911811264
 10
92.7808852667
 20
-42.4934210486
 10
92.9046943047
 20
-41.7745357749
 10
93.0285128901
 20
-41.0357440068
 10
93.1522951666
 20
-40.2756841956
 10
93.276369319
 20
-39.4903704092
 10
93.4003833713
 20
-38.6797365491
 10
93.5239690841
 20
-37.8437180365
 10
93.6472965927
 20
-36.9782846391
 10
93.7699155122
 20
-36.0832563251
 10
93.891310669
 20
-35.1587614571
 10
94.0114009017
 20
-34.2012136602
 10
94.1296704095
 20
-33.2098596395
 10
94.2454250829
 20
-32.185580599
 10
94.3581935784
 20
-31.1272758735
 10
94.4673320645
 20
-30.0350659671
 10
94.572152006
 20
-28.9092890539
 10
94.672032178
 20
-27.7492551822
 10
94.7662432424
 20
-26.5550273644
 10
94.8539702454
 20
-25.327431014
 10
94.9343986903
 20
-24.0670399873
  0
LWPOLYLINE
  5
3BE
100
AcDbEntity
  8
RACCORDO
100
AcDbPolyline
 62
253
  6
CONTINUOUS
 90
22
 70
0
 10
92.6565955248
 20
-43.8987450947
 10
92.7807367905
 20
-43.2133142947
 10
92.9041619753
 20
-42.5150000101
 10
93.0280874978
 20
-41.7955046244
 10
93.1520086255
 20
-41.0561359702
 10
93.2758796724
 20
-40.2955231845
 10
93.4000510398
 20
-39.5096063734
 10
93.5241706995
 20
-38.6983380162
 10
93.6478549605
 20
-37.8616902649
 10
93.7712703908
 20
-36.9956169941
 10
93.8939888792
 20
-36.0998821266
 10
94.0154941895
 20
-35.1746420917
 10
94.1356764306
 20
-34.2164278527
 10
94.2540432913
 20
-33.2242945161
 10
94.3699101429
 20
-32.1991151328
 10
94.4827767217
 20
-31.1401452113
 10
94.5920289048
 20
-30.0471168945
 10
94.6969608317
 20
-28.9202555141
 10
94.7968912143
 20
-27.7595638491
 10
94.8911141478
 20
-26.5650436343
 10
94.9788979884
 20
-25.3366963675
 10
95.0594926055
 20
-24.0745373098
  0
LWPOLYLINE
  5
3BF
100
AcDbEntity
  8
RACCORDO
100
AcDbPolyline
 62
253
  6
CONTINUOUS
 90
3
 70
0
 10
92.4539840313
 20
-44.3350050004
 10
92.4571971708
 20
-44.3175176236
 10
92.4668470105
 20
-44.2640816451
  0
LWPOLYLINE
  5
3C0
100
AcDbEntity
  8
RACCORDO
100
AcDbPolyline
 62
253
  6
CONTINUOUS
 90
10
 70
0
 10
92.7807665324
 20
43.2131480729
 10
92.656596645
 20
43.8987384189
 10
92.6551575813
 20
43.9070162822
 10
92.6537638261
 20
43.9153152303
 10
92.652416361
 20
43.9236379566
 10
92.6511141976
 20
43.9319817819
 10
92.6498543785
 20
43.9403386536
 10
92.6486359171
 20
43.9487058916
 10
92.6474597963
 20
43.9570861889
 10
92.6463260141
 20
43.9654795523
  0
LINE
  5
3C1
100
AcDbEntity
  8
RACCORDO
100
AcDbLine
 62
253
  6
CONTINUOUS
 10
92.4680033238
 20
44.2575872748
 11
92.4558424575
 21
44.3248988734
  0
LINE
  5
3C2
100
AcDbEntity
  8
RACCORDO
100
AcDbLine
 62
253
  6
CONTINUOUS
 10
92.5877876051
 20
44.3307592666
 11
92.5771255926
 21
44.39059582
  0
LINE
  5
3C3
100
AcDbEntity
  8
RACCORDO
100
AcDbLine
 62
253
  6
CONTINUOUS
 10
92.4818201853
 20
44.1787305334
 11
92.4680033238
 21
44.2575872748
  0
LINE
  5
3C4
100
AcDbEntity
  8
RACCORDO
100
AcDbLine
 62
253
  6
CONTINUOUS
 10
92.5977338974
 20
44.2732976059
 11
92.5877876051
 21
44.3307592666
  0
LINE
  5
3C5
100
AcDbEntity
  8
RACCORDO
100
AcDbLine
 62
253
  6
CONTINUOUS
 10
92.4940224051
 20
44.1070837863
 11
92.4818201853
 21
44.1787305334
  0
LWPOLYLINE
  5
3C6
100
AcDbEntity
  8
0
100
AcDbPolyline
 62
7
  6
CONTINUOUS
 90
6
 70
0
 10
92.2718400168
 20
42.9462954714
 10
92.2654808893
 20
42.9845925088
 10
92.2597183498
 20
43.0244724963
 10
92.2545530291
 20
43.0659447775
 10
92.2499854071
 20
43.1090180667
 10
92.2460158138
 20
43.1537004553
  0
LINE
  5
3C7
100
AcDbEntity
  8
RACCORDO
100
AcDbLine
 62
253
  6
CONTINUOUS
 10
92.6098202165
 20
44.2013324769
 11
92.5977338974
 21
44.2732976059
  0
LINE
  5
3C8
100
AcDbEntity
  8
RACCORDO
100
AcDbLine
 62
253
  6
CONTINUOUS
 10
92.5083173864
 20
44.0206699454
 11
92.4940224051
 21
44.1070837863
  0
LINE
  5
3C9
100
AcDbEntity
  8
RACCORDO
100
AcDbLine
 62
253
  6
CONTINUOUS
 10
92.6204985722
 20
44.1355686443
 11
92.6098202165
 21
44.2013324769
  0
LINE
  5
3CA
100
AcDbEntity
  8
RACCORDO
100
AcDbLine
 62
253
  6
CONTINUOUS
 10
92.5212895029
 20
43.9399882328
 11
92.5083173864
 21
44.0206699454
  0
LINE
  5
3CB
100
AcDbEntity
  8
RACCORDO
100
AcDbLine
 62
253
  6
CONTINUOUS
 10
92.6297781908
 20
44.0764746596
 11
92.6204985722
 21
44.1355686443
  0
LINE
  5
3CC
100
AcDbEntity
  8
RACCORDO
100
AcDbLine
 62
253
  6
CONTINUOUS
 10
92.6377845978
 20
44.0238206112
 11
92.6297781908
 21
44.0764746596
  0
LWPOLYLINE
  5
3CD
100
AcDbEntity
  8
RACCORDO
100
AcDbPolyline
 62
253
  6
CONTINUOUS
 90
3
 70
0
 10
92.6463260243
 20
43.9654795542
 10
92.6447362517
 20
43.9765523785
 10
92.6377845978
 20
44.0238206112
  0
LINE
  5
3CE
100
AcDbEntity
  8
RACCORDO
100
AcDbLine
 62
253
  6
CONTINUOUS
 10
92.5673042195
 20
-44.4439656537
 11
92.5749667157
 21
-44.4024837475
  0
LINE
  5
3CF
100
AcDbEntity
  8
RACCORDO
100
AcDbLine
 62
253
  6
CONTINUOUS
 10
92.4447064654
 20
-44.3844594347
 11
92.4539840313
 21
-44.3350050004
  0
LINE
  5
3D0
100
AcDbEntity
  8
RACCORDO
100
AcDbLine
 62
253
  6
CONTINUOUS
 10
92.5600017499
 20
-44.4824091942
 11
92.5673042195
 21
-44.4439656537
  0
LINE
  5
3D1
100
AcDbEntity
  8
RACCORDO
100
AcDbLine
 62
253
  6
CONTINUOUS
 10
92.4393386666
 20
-44.4121975845
 11
92.4447064654
 21
-44.3844594347
  0
LINE
  5
3D2
100
AcDbEntity
  8
RACCORDO
100
AcDbLine
 62
253
  6
CONTINUOUS
 10
92.5535362048
 20
-44.5153148257
 11
92.5600017499
 21
-44.4824091942
  0
LINE
  5
3D3
100
AcDbEntity
  8
RACCORDO
100
AcDbLine
 62
253
  6
CONTINUOUS
 10
92.4346460793
 20
-44.4357746656
 11
92.4393386666
 21
-44.4121975845
  0
LINE
  5
3D4
100
AcDbEntity
  8
RACCORDO
100
AcDbLine
 62
253
  6
CONTINUOUS
 10
92.4305699228
 20
-44.4555829527
 11
92.4346460793
 21
-44.4357746656
  0
LWPOLYLINE
  5
3D5
100
AcDbEntity
  8
RACCORDO
100
AcDbPolyline
 62
253
  6
CONTINUOUS
 90
6
 70
0
 10
92.4211863517
 20
-44.4979350285
 10
92.4224913504
 20
-44.4924026799
 10
92.4238913517
 20
-44.4863190647
 10
92.4253932134
 20
-44.4796295585
 10
92.4270025235
 20
-44.4723074281
 10
92.4305699228
 20
-44.4555829527
  0
LWPOLYLINE
  5
3D6
100
AcDbEntity
  8
RACCORDO
100
AcDbPolyline
 62
253
  6
CONTINUOUS
 90
18
 70
0
 10
92.4253995675
 20
44.4796063124
 10
92.4238126103
 20
44.4866596776
 10
92.4223385676
 20
44.4930562147
 10
92.4209706567
 20
44.4988362591
 10
92.4197029875
 20
44.5040280007
 10
92.4185269135
 20
44.5086909992
 10
92.4174364127
 20
44.5128563612
 10
92.4164263063
 20
44.5165533148
 10
92.4154905176
 20
44.5198315421
 10
92.4146242942
 20
44.522717674
 10
92.4138228337
 20
44.5252364028
 10
92.4130811076
 20
44.5274284517
 10
92.4123958132
 20
44.5293164584
 10
92.411762184
 20
44.530921032
 10
92.4111741371
 20
44.5322737251
 10
92.4106277499
 20
44.533395198
 10
92.4101206628
 20
44.5342984084
 10
92.409649805
 20
44.5349997729
  0
LINE
  5
3D7
100
AcDbEntity
  8
RACCORDO
100
AcDbLine
 62
253
  6
CONTINUOUS
 10
92.4289552375
 20
44.4632300727
 11
92.4253995675
 21
44.4796063124
  0
LWPOLYLINE
  5
3D8
100
AcDbEntity
  8
RACCORDO
100
AcDbPolyline
 62
253
  6
CONTINUOUS
 90
22
 70
0
 10
92.5459964329
 20
44.5519853646
 10
92.5434220699
 20
44.563976769
 10
92.5410287501
 20
44.5748104484
 10
92.5388057557
 20
44.5845938742
 10
92.5367439872
 20
44.5933813983
 10
92.534830653
 20
44.6012371663
 10
92.533053022
 20
44.6082642618
 10
92.5314033251
 20
44.614509894
 10
92.5298731514
 20
44.6200140382
 10
92.5284520025
 20
44.6248517129
 10
92.5271304055
 20
44.6290695228
 10
92.5259024761
 20
44.6327031492
 10
92.5247646661
 20
44.6358027649
 10
92.5237099998
 20
44.6384104879
 10
92.5227298219
 20
44.6405675711
 10
92.5218188654
 20
44.6423185499
 10
92.5209708923
 20
44.6436984921
 10
92.5201798894
 20
44.6447375858
 10
92.5194421552
 20
44.6454664947
 10
92.5187533077
 20
44.6459121829
 10
92.5181079574
 20
44.6460996591
 10
92.5175013767
 20
44.6460540623
  0
LWPOLYLINE
  5
3D9
100
AcDbEntity
  8
RACCORDO
100
AcDbPolyline
 62
253
  6
CONTINUOUS
 90
9
 70
0
 10
92.5349706503
 20
43.8679119199
 10
92.533043655
 20
43.8769197824
 10
92.5311798503
 20
43.8859281508
 10
92.5293791261
 20
43.8949376304
 10
92.5276432602
 20
43.9039511506
 10
92.5259702443
 20
43.9129670453
 10
92.5243543062
 20
43.9219789427
 10
92.5227934636
 20
43.9309850439
 10
92.5212895029
 20
43.9399882328
  0
LINE
  5
3DA
100
AcDbEntity
  8
RACCORDO
100
AcDbLine
 62
253
  6
CONTINUOUS
 10
92.4330775152
 20
44.443474165
 11
92.4289552375
 21
44.4632300727
  0
LINE
  5
3DB
100
AcDbEntity
  8
RACCORDO
100
AcDbLine
 62
253
  6
CONTINUOUS
 10
92.5517763448
 20
44.5240633822
 11
92.5459964329
 21
44.5519853646
  0
LINE
  5
3DC
100
AcDbEntity
  8
RACCORDO
100
AcDbLine
 62
253
  6
CONTINUOUS
 10
92.4378730725
 20
44.4196407761
 11
92.4330775152
 21
44.443474165
  0
LINE
  5
3DD
100
AcDbEntity
  8
RACCORDO
100
AcDbLine
 62
253
  6
CONTINUOUS
 10
92.5583745472
 20
44.4907829312
 11
92.5517763448
 21
44.5240633822
  0
LINE
  5
3DE
100
AcDbEntity
  8
RACCORDO
100
AcDbLine
 62
253
  6
CONTINUOUS
 10
92.4433579845
 20
44.3914855513
 11
92.4378730725
 21
44.4196407761
  0
LINE
  5
3DF
100
AcDbEntity
  8
RACCORDO
100
AcDbLine
 62
253
  6
CONTINUOUS
 10
92.5657129442
 20
44.452456026
 11
92.5583745472
 21
44.4907829312
  0
LWPOLYLINE
  5
3E0
100
AcDbEntity
  8
RACCORDO
100
AcDbPolyline
 62
253
  6
CONTINUOUS
 90
3
 70
0
 10
92.4558424575
 20
44.3248988734
 10
92.4526213183
 20
44.3423652585
 10
92.4433579845
 20
44.3914855513
  0
LWPOLYLINE
  5
3E1
100
AcDbEntity
  8
RACCORDO
100
AcDbPolyline
 62
253
  6
CONTINUOUS
 90
3
 70
0
 10
92.5771255926
 20
44.39059582
 10
92.5733452827
 20
44.4113334245
 10
92.5657129442
 20
44.452456026
  0
LWPOLYLINE
  5
3E2
100
AcDbEntity
  8
RACCORDO
100
AcDbPolyline
 62
253
  6
CONTINUOUS
 90
10
 70
0
 10
94.6550634536
 20
43.8457940385
 10
95.0613124491
 20
41.5038172084
 10
95.4339296618
 20
39.1562586394
 10
95.7729146793
 20
36.8036112606
 10
96.0783218017
 20
34.446381028
 10
96.3500959073
 20
32.0850474864
 10
96.5880724377
 20
29.7200635476
 10
96.7921962514
 20
27.3519082284
 10
96.9625216371
 20
24.9810868712
 10
97.09904817
 20
22.6080915512
  0
LWPOLYLINE
  5
3E3
100
AcDbEntity
  8
RACCORDO
100
AcDbPolyline
 62
253
  6
CONTINUOUS
 90
10
 70
0
 10
89.293313307
 20
22.788569243
 10
89.8634955178
 20
22.8885822128
 10
90.4387617027
 20
22.9816085321
 10
91.0185406645
 20
23.0675587019
 10
91.6026447361
 20
23.1463925424
 10
92.1901288284
 20
23.2179626674
 10
92.7792682852
 20
23.2820618641
 10
93.3690971067
 20
23.3386107138
 10
93.9594300367
 20
23.3876102017
 10
94.5497060567
 20
23.4290183628
  0
LWPOLYLINE
  5
3E4
100
AcDbEntity
  8
RACCORDO
100
AcDbPolyline
 62
253
  6
CONTINUOUS
 90
10
 70
0
 10
89.2941326572
 20
21.9022509012
 10
89.8704435108
 20
21.9989489077
 10
90.4516050128
 20
22.0888531913
 10
91.0370590641
 20
22.1718801536
 10
91.6266138287
 20
22.2479912859
 10
92.2193558314
 20
22.3170504026
 10
92.813629517
 20
22.3788670195
 10
93.4085033942
 20
22.4333674015
 10
94.0037904174
 20
22.4805511742
 10
94.5989457259
 20
22.5203789263
  0
LWPOLYLINE
  5
3E5
100
AcDbEntity
  8
RACCORDO
100
AcDbPolyline
 62
253
  6
CONTINUOUS
 90
10
 70
0
 10
89.2946968516
 20
21.2555803531
 10
89.8752238546
 20
21.3497043946
 10
90.4604301317
 20
21.4371806996
 10
91.0497675516
 20
21.5179298005
 10
91.6430417406
 20
21.5919143267
 10
92.2393625139
 20
21.6590059496
 10
92.8371246202
 20
21.7190259809
 10
93.4354218399
 20
21.771904705
 10
94.0340661787
 20
21.8176407689
 10
94.6325247717
 20
21.8561965495
  0
LINE
  5
3E6
100
AcDbEntity
  8
RACCORDO
100
AcDbLine
 62
253
  6
CONTINUOUS
 10
94.9343986935
 20
24.0670399874
 11
95.0594926053
 21
24.0745373098
  0
LINE
  5
3E7
100
AcDbEntity
  8
RACCORDO
100
AcDbLine
 62
253
  6
CONTINUOUS
 10
95.3576219085
 20
22.5203789087
 11
95.0206808341
 21
22.503384717
  0
LINE
  5
3E8
100
AcDbEntity
  8
RACCORDO
100
AcDbLine
 62
253
  6
CONTINUOUS
 10
97.5548380269
 20
22.6310194482
 11
97.09904817
 21
22.6080915512
  0
LINE
  5
3E9
100
AcDbEntity
  8
RACCORDO
100
AcDbLine
 62
253
  6
CONTINUOUS
 10
97.5592499214
 20
22.5432326076
 11
97.1034551767
 21
22.5203789087
  0
LINE
  5
3EA
100
AcDbEntity
  8
RACCORDO
100
AcDbLine
 62
253
  6
CONTINUOUS
 10
95.0232503471
 20
22.4522761667
 11
95.1485221123
 21
22.4585708418
  0
LINE
  5
3EB
100
AcDbEntity
  8
RACCORDO
100
AcDbLine
 62
253
  6
CONTINUOUS
 10
97.1034551767
 20
22.5203789087
 11
95.3576219085
 21
22.5203789087
  0
LWPOLYLINE
  5
3EC
100
AcDbEntity
  8
RACCORDO
100
AcDbPolyline
 62
253
  6
CONTINUOUS
 90
4
 70
0
 10
89.0548380269
 20
21.2558023096
 10
89.0560865241
 20
21.2557816619
 10
89.0598216242
 20
21.2557611861
 10
89.2946968516
 20
21.2555803531
  0
LWPOLYLINE
  5
3ED
100
AcDbEntity
  8
RACCORDO
100
AcDbPolyline
 62
253
  6
CONTINUOUS
 90
4
 70
0
 10
89.0548380269
 20
21.902483891
 10
89.0560830269
 20
21.9024622387
 10
89.0598076935
 20
21.9024407661
 10
89.2941326572
 20
21.9022509012
  0
LWPOLYLINE
  5
3EE
100
AcDbEntity
  8
RACCORDO
100
AcDbPolyline
 62
253
  6
CONTINUOUS
 90
4
 70
0
 10
89.0548380481
 20
22.7888150052
 10
89.0560779746
 20
22.7887921993
 10
89.0597875066
 20
22.7887695818
 10
89.2933133095
 20
22.7885692431
  0
LWPOLYLINE
  5
3EF
100
AcDbEntity
  8
RACCORDO
100
AcDbPolyline
 62
253
  6
CONTINUOUS
 90
16
 70
0
 10
92.409649805
 20
-44.5349997729
 10
92.4100990186
 20
-44.5343332998
 10
92.4105792391
 20
-44.5334875625
 10
92.4110928227
 20
-44.5324499617
 10
92.4116409846
 20
-44.5312113789
 10
92.4122272509
 20
-44.5297555534
 10
92.4128581294
 20
-44.5280555016
 10
92.413537959
 20
-44.5260942464
 10
92.4142689256
 20
-44.5238538013
 10
92.4150554348
 20
-44.5212996283
 10
92.415901255
 20
-44.5184119704
 10
92.4168103699
 20
-44.5151689607
 10
92.4177885511
 20
-44.5115272856
 10
92.4188406926
 20
-44.5074607863
 10
92.4199712385
 20
-44.5029453626
 10
92.4211863517
 20
-44.4979350285
  0
LWPOLYLINE
  5
3F0
100
AcDbEntity
  8
RACCORDO
100
AcDbPolyline
 62
253
  6
CONTINUOUS
 90
13
 70
0
 10
92.409649805
 20
44.5349997729
 10
92.409316195
 20
44.5354789073
 10
92.4090242612
 20
44.5359923171
 10
92.4087746685
 20
44.5365364663
 10
92.4085666753
 20
44.5371022875
 10
92.4084023761
 20
44.5376916615
 10
92.4082867901
 20
44.5383169387
 10
92.4082203809
 20
44.5389726404
 10
92.4082043074
 20
44.539655641
 10
92.4082448375
 20
44.5403807313
 10
92.4083447519
 20
44.5411491791
 10
92.4085032355
 20
44.54194931
 10
92.4087212948
 20
44.5427758029
  0
LINE
  5
3F1
100
AcDbEntity
  8
RACCORDO
100
AcDbLine
 62
7
  6
CONTINUOUS
 10
89.255212912
 20
-43.1736817129
 11
89.2557119597
 21
-43.1733121088
  0
LINE
  5
3F2
100
AcDbEntity
  8
RACCORDO
100
AcDbLine
 62
7
  6
CONTINUOUS
 10
89.2562349116
 20
43.1729248008
 11
89.2552129735
 21
43.1736819923
  0
LWPOLYLINE
  5
3F3
100
AcDbEntity
  8
RACCORDO
100
AcDbPolyline
 62
253
  6
CONTINUOUS
 90
15
 70
0
 10
94.5642182925
 20
44.8340076387
 10
94.5667266658
 20
44.8321493719
 10
94.569396086
 20
44.8270088139
 10
94.5722127219
 20
44.8186092666
 10
94.5751612353
 20
44.8069910442
 10
94.5782329002
 20
44.7921945993
 10
94.5814239431
 20
44.7742449729
 10
94.5847292089
 20
44.7531759451
 10
94.588132579
 20
44.7290606579
 10
94.5916147909
 20
44.701990962
 10
94.5951732598
 20
44.6720637266
 10
94.5987988175
 20
44.6393668152
 10
94.6024646419
 20
44.6039963408
 10
94.6061718345
 20
44.5660611712
 10
94.6099141821
 20
44.5256836327
  0
LINE
  5
3F4
100
AcDbEntity
  8
RACCORDO
100
AcDbLine
 62
7
  6
CONTINUOUS
 10
89.2549580806
 20
-43.1737894762
 11
89.255212912
 21
-43.1736817129
  0
LWPOLYLINE
  5
3F5
100
AcDbEntity
  8
0
100
AcDbPolyline
 62
7
  6
CONTINUOUS
 90
24
 70
0
 10
92.1652105508
 20
-43.7
 10
92.1674025351
 20
-43.6991035034
 10
92.1697149514
 20
-43.6963631398
 10
92.1721553197
 20
-43.6916944082
 10
92.1747231026
 20
-43.6850019434
 10
92.1774357646
 20
-43.6762153863
 10
92.1803274382
 20
-43.6653232808
 10
92.1834330605
 20
-43.6522761666
 10
92.1867352429
 20
-43.6370448184
 10
92.1901867018
 20
-43.6197264742
 10
92.1938015277
 20
-43.600343703
 10
92.1975802746
 20
-43.5789050988
 10
92.2014509706
 20
-43.555565611
 10
92.2053811339
 20
-43.5303660002
 10
92.2093656634
 20
-43.5034544454
 10
92.2133683831
 20
-43.4752214727
 10
92.2173454063
 20
-43.4458518607
 10
92.2212428198
 20
-43.4155253611
 10
92.2250125275
 20
-43.3846803188
 10
92.2286273333
 20
-43.3535520319
 10
92.2320378015
 20
-43.3222667163
 10
92.2351725163
 20
-43.2911118654
 10
92.2379927051
 20
-43.2602815929
 10
92.2404893999
 20
-43.2298700973
  0
LINE
  5
3F6
100
AcDbEntity
  8
RACCORDO
100
AcDbLine
 62
7
  6
CONTINUOUS
 10
89.2552129735
 20
43.1736819923
 11
89.2549584842
 21
43.1737896138
  0
LINE
  5
3F7
100
AcDbEntity
  8
RACCORDO
100
AcDbLine
 62
253
  6
CONTINUOUS
 10
89.7056368134
 20
43.3153746083
 11
89.7092034712
 21
43.3169318841
  0
LINE
  5
3F8
100
AcDbEntity
  8
RACCORDO
100
AcDbLine
 62
7
  6
CONTINUOUS
 10
92.7236855203
 20
44.7
 11
92.5175014404
 21
44.6460540789
  0
LINE
  5
3F9
100
AcDbEntity
  8
RACCORDO
100
AcDbLine
 62
253
  6
CONTINUOUS
 10
89.9389645307
 20
43.3796773946
 11
89.9421996707
 21
43.3810014693
  0
LINE
  5
3FA
100
AcDbEntity
  8
RACCORDO
100
AcDbLine
 62
253
  6
CONTINUOUS
 10
90.1764606748
 20
43.4385824961
 11
90.1793634863
 21
43.439692577
  0
LINE
  5
3FB
100
AcDbEntity
  8
RACCORDO
100
AcDbLine
 62
253
  6
CONTINUOUS
 10
90.417638635
 20
43.4919297417
 11
90.420206664
 21
43.4928437383
  0
LINE
  5
3FC
100
AcDbEntity
  8
RACCORDO
100
AcDbLine
 62
253
  6
CONTINUOUS
 10
92.8532596683
 20
44.0035194839
 11
92.6463260243
 21
43.9654795542
  0
LINE
  5
3FD
100
AcDbEntity
  8
RACCORDO
100
AcDbLine
 62
253
  6
CONTINUOUS
 10
92.5349706486
 20
43.8679119196
 11
92.6580810203
 21
43.8904816335
  0
LINE
  5
3FE
100
AcDbEntity
  8
RACCORDO
100
AcDbLine
 62
253
  6
CONTINUOUS
 10
95.1035114224
 20
43.926800663
 11
94.6550634511
 21
43.8457940521
  0
LINE
  5
3FF
100
AcDbEntity
  8
RACCORDO
100
AcDbLine
 62
253
  6
CONTINUOUS
 10
90.6615866906
 20
43.5395023394
 11
90.6638084122
 21
43.5402360277
  0
LINE
  5
400
100
AcDbEntity
  8
RACCORDO
100
AcDbLine
 62
253
  6
CONTINUOUS
 10
90.9079680341
 20
43.5812358851
 11
90.9098282508
 21
43.5818045152
  0
LINE
  5
401
100
AcDbEntity
  8
RACCORDO
100
AcDbLine
 62
253
  6
CONTINUOUS
 10
92.5379934889
 20
43.9512908448
 11
92.6463257134
 21
43.9654817032
  0
LINE
  5
402
100
AcDbEntity
  8
RACCORDO
100
AcDbLine
 62
253
  6
CONTINUOUS
 10
92.5198423193
 20
43.9489890793
 11
92.5379934889
 21
43.9512908448
  0
LINE
  5
403
100
AcDbEntity
  8
RACCORDO
100
AcDbLine
 62
253
  6
CONTINUOUS
 10
91.9118374886
 20
43.6864596445
 11
92.1652105508
 21
43.7
  0
LWPOLYLINE
  5
404
100
AcDbEntity
  8
SUPERFICI
100
AcDbPolyline
 62
7
  6
CONTINUOUS
 90
13
 70
0
 10
92.1590797287
 20
43.7
 10
91.9284484325
 20
43.6911064693
 10
91.6943038369
 20
43.6765746461
 10
91.4569359109
 20
43.6561608749
 10
91.2172548849
 20
43.629694805
 10
90.9750103012
 20
43.5968905356
 10
90.7288368066
 20
43.5572035157
 10
90.4792705829
 20
43.5102774727
 10
90.2267618484
 20
43.4557321467
 10
89.9700053715
 20
43.3927083203
 10
89.7091107189
 20
43.320504185
 10
89.4455290818
 20
43.2387430197
 10
89.254670873
 20
43.1736915855
  0
LINE
  5
405
100
AcDbEntity
  8
0
100
AcDbLine
 62
7
  6
CONTINUOUS
 10
92.1652105508
 20
43.7
 11
92.1590797287
 21
43.7
  0
LINE
  5
406
100
AcDbEntity
  8
RACCORDO
100
AcDbLine
 62
253
  6
CONTINUOUS
 10
89.078300472
 20
42.6671069516
 11
89.244554347
 21
42.666764168
  0
LINE
  5
407
100
AcDbEntity
  8
RACCORDO
100
AcDbLine
 62
253
  6
CONTINUOUS
 10
89.1070974284
 20
42.432914147
 11
89.2456686725
 21
42.4324265446
  0
LWPOLYLINE
  5
408
100
AcDbEntity
  8
RACCORDO
100
AcDbPolyline
 62
253
  6
CONTINUOUS
 90
4
 70
0
 10
89.0548380269
 20
42.6673520658
 10
89.0563227372
 20
42.6672892389
 10
89.0607621439
 20
42.6672270359
 10
89.078300472
 20
42.6671069516
  0
LINE
  5
409
100
AcDbEntity
  8
RACCORDO
100
AcDbLine
 62
253
  6
CONTINUOUS
 10
94.6550634536
 20
43.8457940385
 11
92.8532597104
 21
44.0035192549
  0
LWPOLYLINE
  5
40A
100
AcDbEntity
  8
RACCORDO
100
AcDbPolyline
 62
253
  6
CONTINUOUS
 90
6
 70
0
 10
89.0548380269
 20
42.4336624566
 10
89.056332654
 20
42.4335301711
 10
89.0608016442
 20
42.4333992038
 10
89.0682004676
 20
42.4332708596
 10
89.0784554009
 20
42.4331464173
 10
89.1070974284
 20
42.432914147
  0
LINE
  5
40B
100
AcDbEntity
  8
RACCORDO
100
AcDbLine
 62
7
  6
CONTINUOUS
 10
94.5642182925
 20
44.8340076387
 11
92.6669169209
 21
45.0
  0
ARC
  5
40C
100
AcDbEntity
  8
RACCORDO
100
AcDbCircle
 62
7
  6
CONTINUOUS
 10
-351.8757316485
 20
-0.0
 40
450.0
100
AcDbArc
 50
357.1173180382
 51
2.882682159
  0
ARC
  5
40D
100
AcDbEntity
  8
DRAFT
100
AcDbCircle
 62
7
  6
CONTINUOUS
 10
-351.8757316485
 20
-0.0
 40
447.8
100
AcDbArc
 50
357.1173130894
 51
2.8826869106
  0
ARC
  5
40E
100
AcDbEntity
  8
0
100
AcDbCircle
 62
7
  6
CONTINUOUS
 10
-69.0607916966
 20
-14.2411105033
 40
166.926732391
100
AcDbArc
 50
354.9696557406
 51
355.9448845808
  0
ARC
  5
40F
100
AcDbEntity
  8
RACCORDO
100
AcDbCircle
 62
7
  6
CONTINUOUS
 10
-69.0607916966
 20
-14.2411105033
 40
166.826732391
100
AcDbArc
 50
349.5756088776
 51
357.1173264382
  0
ARC
  5
410
100
AcDbEntity
  8
RACCORDO
100
AcDbCircle
 62
7
  6
CONTINUOUS
 10
-69.0607916966
 20
-14.2411105033
 40
164.626732391
100
AcDbArc
 50
349.2315617336
 51
357.1173130894
  0
ARC
  5
411
100
AcDbEntity
  8
RACCORDO
100
AcDbCircle
 62
7
  6
CONTINUOUS
 10
94.5206404211
 20
-44.3359102896
 40
0.5
100
AcDbArc
 50
275.0
 51
349.5756088776
  0
ARC
  5
412
100
AcDbEntity
  8
RACCORDO
100
AcDbCircle
 62
7
  6
CONTINUOUS
 10
89.3548380269
 20
-42.8909103187
 40
0.3
100
AcDbArc
 50
180.0
 51
250.4947724151
  0
ARC
  5
413
100
AcDbEntity
  8
RACCORDO
100
AcDbCircle
 62
7
  6
CONTINUOUS
 10
89.3548380269
 20
-42.8833544095
 40
0.3
100
AcDbArc
 50
186.0188224577
 51
210.0941100591
  0
ARC
  5
414
100
AcDbEntity
  8
RACCORDO
100
AcDbCircle
 62
7
  6
CONTINUOUS
 10
89.2548380269
 20
-42.4113525438
 40
0.2
100
AcDbArc
 50
162.0999324144
 51
180.0
  0
ARC
  5
415
100
AcDbEntity
  8
RACCORDO
100
AcDbCircle
 62
7
  6
CONTINUOUS
 10
92.552544254
 20
-44.5001735009
 40
0.15
100
AcDbArc
 50
196.5000001981
 51
255.3378253713
  0
ARC
  5
416
100
AcDbEntity
  8
RACCORDO
100
AcDbCircle
 62
7
  6
CONTINUOUS
 10
89.2548380269
 20
-23.8465394526
 40
0.2
100
AcDbArc
 50
174.0666377965
 51
180.0
  0
ARC
  5
417
100
AcDbEntity
  8
RACCORDO
100
AcDbCircle
 62
7
  6
CONTINUOUS
 10
89.2548380269
 20
-4.0204738877
 40
0.2
100
AcDbArc
 50
100.0
 51
180.0
  0
ARC
  5
418
100
AcDbEntity
  8
RACCORDO
100
AcDbCircle
 62
7
  6
CONTINUOUS
 10
90.8548380269
 20
-3.3321800738
 40
0.2
100
AcDbArc
 50
280.0
 51
0.0005822011
  0
ARC
  5
419
100
AcDbEntity
  8
RACCORDO
100
AcDbCircle
 62
7
  6
CONTINUOUS
 10
-69.0607916966
 20
14.2411105033
 40
166.826732391
100
AcDbArc
 50
2.8826740936
 51
10.4243911224
  0
ARC
  5
41A
100
AcDbEntity
  8
RACCORDO
100
AcDbCircle
 62
7
  6
CONTINUOUS
 10
-69.0607916966
 20
14.2411105033
 40
164.626732391
100
AcDbArc
 50
2.8826869106
 51
10.7684382664
  0
ARC
  5
41B
100
AcDbEntity
  8
RACCORDO
100
AcDbCircle
 62
7
  6
CONTINUOUS
 10
89.2548380292
 20
4.0204738872
 40
0.2
100
AcDbArc
 50
179.9999967781
 51
259.9999856496
  0
ARC
  5
41C
100
AcDbEntity
  8
RACCORDO
100
AcDbCircle
 62
7
  6
CONTINUOUS
 10
90.8548380269
 20
3.3321800738
 40
0.2
100
AcDbArc
 50
359.9996644386
 51
80.0
  0
ARC
  5
41D
100
AcDbEntity
  8
RACCORDO
100
AcDbCircle
 62
7
  6
CONTINUOUS
 10
94.5206412576
 20
44.3359058363
 40
0.5000000001
100
AcDbArc
 50
10.4249103538
 51
85.0001399559
  0
ARC
  5
41E
100
AcDbEntity
  8
RACCORDO
100
AcDbCircle
 62
7
  6
CONTINUOUS
 10
89.3548380269
 20
42.8895920964
 40
0.3
100
AcDbArc
 50
109.1884981587
 51
179.9999995471
  0
ARC
  5
41F
100
AcDbEntity
  8
RACCORDO
100
AcDbCircle
 62
7
  6
CONTINUOUS
 10
89.3548380269
 20
42.8833544095
 40
0.3
100
AcDbArc
 50
149.9058899409
 51
173.9811775423
  0
ARC
  5
420
100
AcDbEntity
  8
RACCORDO
100
AcDbCircle
 62
7
  6
CONTINUOUS
 10
89.2548380269
 20
24.1534605474
 40
0.2
100
AcDbArc
 50
174.0666377965
 51
180.0
  0
ARC
  5
421
100
AcDbEntity
  8
RACCORDO
100
AcDbCircle
 62
7
  6
CONTINUOUS
 10
89.2548380269
 20
42.4113525438
 40
0.2
100
AcDbArc
 50
180.0
 51
197.9000680981
  0
ARC
  5
422
100
AcDbEntity
  8
RACCORDO
100
AcDbCircle
 62
7
  6
CONTINUOUS
 10
92.552544254
 20
44.5001735009
 40
0.15
100
AcDbArc
 50
104.6621746287
 51
163.4999998019
  0
ENDSEC
  0
SECTION
  2
OBJECTS
  0
DICTIONARY
  5
C
100
AcDbDictionary
280
0
281
1
  3
ACAD_GROUP
350
D
  3
ACAD_MLINESTYLE
350
17
  3
ACAD_LAYOUT
350
1A
  3
ACAD_PLOTSETTINGS
350
19
  3
ACAD_PLOTSTYLENAME
350
E
  0
DICTIONARY
  5
D
102
{ACAD_REACTORS
330
C
102
}
100
AcDbDictionary
280
0
281
1
  0
ACDBDICTIONARYWDFLT
  5
E
102
{ACAD_REACTORS
330
C
102
}
100
AcDbDictionary
281
1
  3
Normal
350
F
100
AcDbDictionaryWithDefault
340
F
  0
DICTIONARY
  5
17
102
{ACAD_REACTORS
330
C
102
}
100
AcDbDictionary
280
0
281
1
  3
Standard
350
18
  0
DICTIONARY
  5
19
102
{ACAD_REACTORS
330
C
102
}
100
AcDbDictionary
281
1
  0
DICTIONARY
  5
1A
102
{ACAD_REACTORS
330
C
102
}
100
AcDbDictionary
281
1
  3
Model
350
423
  3
Layout1
350
424
  0
ACDBPLACEHOLDER
  5
F
102
{ACAD_REACTORS
330
E
102
}
  0
MLINESTYLE
  5
18
102
{ACAD_REACTORS
330
17
102
}
100
AcDbMlineStyle
  2
STANDARD
 70
0
  3

 62
256
 51
90.0
 52
90.0
 71
2
 49
0.5
 62
256
  6
BYLAYER
 49
-0.5
 62
256
  6
BYLAYER
  0
LAYOUT
  5
423
102
{ACAD_REACTORS
330
1A
102
}
100
AcDbPlotSettings
  1

  2
none_device
  4
ISO_A4_(297.00_x_210.00_MM)
  6

 40
0.0
 41
0.0
 42
0.0
 43
0.0
 44
297.0
 45
210.0
 46
0.0
 47
0.0
 48
0.0
 49
0.0
140
0.0
141
0.0
142
1.0
143
1.0
 70
1024
 72
1
 73
0
 74
0
  7

 75
0
147
1.0
148
0.0
149
0.0
100
AcDbLayout
  1
Model
 70
0
 71
0
 10
0.0
 20
0.0
 11
297.0
 21
210.0
 12
0.0
 22
0.0
 32
0.0
 14
0.0
 24
0.0
 34
0.0
 15
0.0
 25
0.0
 35
0.0
146
0.0
 13
0.0
 23
0.0
 33
0.0
 16
1.0
 26
0.0
 36
0.0
 17
0.0
 27
1.0
 37
0.0
 76
0
330
212
345
0
346
0
  0
LAYOUT
  5
424
102
{ACAD_REACTORS
330
1A
102
}
100
AcDbPlotSettings
  1

  2
none_device
  4
ISO_A4_(297.00_x_210.00_MM)
  6

 40
0.0
 41
0.0
 42
0.0
 43
0.0
 44
297.0
 45
210.0
 46
0.0
 47
0.0
 48
0.0
 49
0.0
140
0.0
141
0.0
142
1.0
143
1.0
 70
0
 72
1
 73
0
 74
0
  7

 75
0
147
1.0
148
0.0
149
0.0
100
AcDbLayout
  1
Layout1
 70
0
 71
1
 10
0.0
 20
0.0
 11
297.0
 21
210.0
 12
0.0
 22
0.0
 32
0.0
 14
0.0
 24
0.0
 34
0.0
 15
0.0
 25
0.0
 35
0.0
146
0.0
 13
0.0
 23
0.0
 33
0.0
 16
1.0
 26
0.0
 36
0.0
 17
0.0
 27
1.0
 37
0.0
 76
0
330
213
345
0
346
0
  0
ENDSEC
  0
EOF
