  0
SECTION
  2
HEADER
  9
$ACADVER
  1
AC1021
  9
$DWGCODEPAGE
  3
ANSI_1252
  9
$EXTMAX
 10
297.0
 20
210.0
 30
0.0
  9
$EXTMIN
 10
0.0
 20
0.0
 30
0.0
  9
$LIMMIN
 10
0.0
 20
0.0
  9
$LIMMAX
 10
297.0
 20
210.0
  9
$VIEWCTR
 10
148.5
 20
105.0
  9
$VIEWSIZE
 40
210.0
  9
$CLAYER
  8
0
  9
$LTSCALE
 40
16.335
  9
$CELTYPE
  6
BYLAYER
  9
$DIMSCALE
 40
1.0
  9
$DIMASZ
 40
3.0
  9
$DIMEXO
 40
1.85625
  9
$DIMDLI
 40
11.286
  9
$DIMEXE
 40
5.346
  9
$DIMCEN
 40
2.673
  9
$DIMLFAC
 40
1.0
  9
$DIMBLK
  1
_FILLED
  9
$DIMTXT
 40
3.0
  9
$DIMTOL
 70
1
  9
$DIMLIM
 70
0
  9
$DIMTFAC
 40
1.0
  9
$DIMTP
 40
0.01
  9
$DIMTM
 40
0.01
  9
$PDMODE
 70
3
  9
$PDSIZE
 40
3.0
  9
$HANDSEED
  5
362
  9
$TILEMODE
 70
1
  9
$MEASUREMENT
 70
1
  9
$INSUNITS
 70
4
  0
ENDSEC
  0
SECTION
  2
CLASSES
  0
CLASS
  1
ACDBDICTIONARYWDFLT
  2
AcDbDictionaryWithDefault
  3
AutoCAD 2000
 90
0
 91
1
280
0
281
0
  0
CLASS
  1
ACDBPLACEHOLDER
  2
AcDbPlaceHolder
  3
AutoCAD 2000
 90
0
 91
1
280
0
281
0
  0
CLASS
  1
LAYOUT
  2
AcDbLayout
  3
AutoCAD 2000
 90
0
 91
0
280
0
281
0
  0
ENDSEC
  0
SECTION
  2
TABLES
  0
TABLE
  2
VPORT
  5
8
100
AcDbSymbolTable
 70
2
  0
VPORT
  5
1F4
100
AcDbSymbolTableRecord
100
AcDbViewportTableRecord
  2
*ACTIVE
 70
0
 10
0.0
 20
0.0
 11
1.0
 21
1.0
 12
148.5
 22
105.0
 13
0.0
 23
0.0
 14
1.0
 24
1.0
 15
0.0
 25
0.0
 16
0.0
 26
0.0
 36
1.0
 17
0.0
 27
0.0
 37
0.0
 40
210.0
 41
1.4142857143
 42
50.0
 43
0.0
 44
0.0
 50
0.0
 51
0.0
 71
0
 72
100
 73
1
 74
1
 75
0
 76
0
 77
0
 78
0
  0
ENDTAB
  0
TABLE
  2
LTYPE
  5
5
100
AcDbSymbolTable
 70
6
  0
LTYPE
  5
14
100
AcDbSymbolTableRecord
100
AcDbLinetypeTableRecord
  2
BYBLOCK
 70
0
  3

 72
65
 73
0
 40
0.0
  0
LTYPE
  5
15
100
AcDbSymbolTableRecord
100
AcDbLinetypeTableRecord
  2
BYLAYER
 70
0
  3

 72
65
 73
0
 40
0.0
  0
LTYPE
  5
16
100
AcDbSymbolTableRecord
100
AcDbLinetypeTableRecord
  2
CONTINUOUS
 70
64
  3
Solid line
 72
65
 73
0
 40
0.0
  0
LTYPE
  5
1F5
100
AcDbSymbolTableRecord
100
AcDbLinetypeTableRecord
  2
CENTER
 70
64
  3
____ _ ____ _ ____ _ ____ _ ____ _ ____ _ ____
 72
65
 73
4
 40
0.6
 49
0.375
 74
0
 49
-0.075
 74
0
 49
0.075
 74
0
 49
-0.075
 74
0
  0
LTYPE
  5
1F6
100
AcDbSymbolTableRecord
100
AcDbLinetypeTableRecord
  2
HIDDEN
 70
64
  3
- - - - - - - - - - - - - - - - - - - -
 72
65
 73
2
 40
0.2
 49
0.1
 74
0
 49
-0.1
 74
0
  0
LTYPE
  5
1F7
100
AcDbSymbolTableRecord
100
AcDbLinetypeTableRecord
  2
PHANTOM
 70
64
  3
_____ _ _ _____ _ _ _____ _ _ _____
 72
65
 73
6
 40
0.8
 49
0.45
 74
0
 49
-0.05
 74
0
 49
0.1
 74
0
 49
-0.05
 74
0
 49
0.1
 74
0
 49
-0.05
 74
0
  0
LTYPE
  5
1F8
100
AcDbSymbolTableRecord
100
AcDbLinetypeTableRecord
  2
DOT
 70
64
  3
. . . . . . . . . . . . . . . . . . . .
 72
65
 73
2
 40
0.2
 49
0.1
 74
0
 49
-0.1
 74
0
  0
LTYPE
  5
1F9
100
AcDbSymbolTableRecord
100
AcDbLinetypeTableRecord
  2
DASHED
 70
64
  3
- - - - - - - - - - - - - - - - - - - -
 72
65
 73
2
 40
0.2
 49
0.1
 74
0
 49
-0.1
 74
0
  0
ENDTAB
  0
TABLE
  2
LAYER
  5
2
100
AcDbSymbolTable
 70
36
  0
LAYER
  5
10
100
AcDbSymbolTableRecord
100
AcDbLayerTableRecord
  2
0
 70
0
 62
7
  6
CONTINUOUS
370
-3
390
F
  0
LAYER
  5
1FA
100
AcDbSymbolTableRecord
100
AcDbLayerTableRecord
  2
DEFAULT_1
 70
0
 62
7
  6
CENTER
370
-3
390
F
  0
LAYER
  5
1FB
100
AcDbSymbolTableRecord
100
AcDbLayerTableRecord
  2
DEFAULT_2
 70
0
 62
7
  6
HIDDEN
370
-3
390
F
  0
LAYER
  5
1FC
100
AcDbSymbolTableRecord
100
AcDbLayerTableRecord
  2
DEFAULT_3
 70
0
 62
7
  6
PHANTOM
370
-3
390
F
  0
LAYER
  5
1FD
100
AcDbSymbolTableRecord
100
AcDbLayerTableRecord
  2
ASSI
 70
0
 62
7
  6
CONTINUOUS
370
-3
390
F
  0
LAYER
  5
1FE
100
AcDbSymbolTableRecord
100
AcDbLayerTableRecord
  2
COORDINATE
 70
0
 62
7
  6
CONTINUOUS
370
-3
390
F
  0
LAYER
  5
1FF
100
AcDbSymbolTableRecord
100
AcDbLayerTableRecord
  2
COPY_PUBLISH
 70
0
 62
7
  6
CONTINUOUS
370
-3
390
F
  0
LAYER
  5
200
100
AcDbSymbolTableRecord
100
AcDbLayerTableRecord
  2
COSMETICI
 70
0
 62
7
  6
CONTINUOUS
370
-3
390
F
  0
LAYER
  5
201
100
AcDbSymbolTableRecord
100
AcDbLayerTableRecord
  2
CURVE
 70
0
 62
7
  6
CONTINUOUS
370
-3
390
F
  0
LAYER
  5
202
100
AcDbSymbolTableRecord
100
AcDbLayerTableRecord
  2
DRAFT
 70
0
 62
7
  6
CONTINUOUS
370
-3
390
F
  0
LAYER
  5
203
100
AcDbSymbolTableRecord
100
AcDbLayerTableRecord
  2
IMPORT_IGES
 70
0
 62
7
  6
CONTINUOUS
370
-3
390
F
  0
LAYER
  5
204
100
AcDbSymbolTableRecord
100
AcDbLayerTableRecord
  2
INTF_1
 70
0
 62
7
  6
CONTINUOUS
370
-3
390
F
  0
LAYER
  5
205
100
AcDbSymbolTableRecord
100
AcDbLayerTableRecord
  2
NOTE
 70
0
 62
7
  6
CONTINUOUS
370
-3
390
F
  0
LAYER
  5
206
100
AcDbSymbolTableRecord
100
AcDbLayerTableRecord
  2
PIANI
 70
0
 62
7
  6
CONTINUOUS
370
-3
390
F
  0
LAYER
  5
207
100
AcDbSymbolTableRecord
100
AcDbLayerTableRecord
  2
PUNTI
 70
0
 62
7
  6
CONTINUOUS
370
-3
390
F
  0
LAYER
  5
208
100
AcDbSymbolTableRecord
100
AcDbLayerTableRecord
  2
RACCORDO
 70
0
 62
7
  6
CONTINUOUS
370
-3
390
F
  0
LAYER
  5
209
100
AcDbSymbolTableRecord
100
AcDbLayerTableRecord
  2
SIMBOLI
 70
0
 62
7
  6
CONTINUOUS
370
-3
390
F
  0
LAYER
  5
20A
100
AcDbSymbolTableRecord
100
AcDbLayerTableRecord
  2
SMUSSO
 70
0
 62
7
  6
CONTINUOUS
370
-3
390
F
  0
LAYER
  5
20B
100
AcDbSymbolTableRecord
100
AcDbLayerTableRecord
  2
SNAPLINE
 70
0
 62
7
  6
CONTINUOUS
370
-3
390
F
  0
LAYER
  5
20C
100
AcDbSymbolTableRecord
100
AcDbLayerTableRecord
  2
SUPERFICI
 70
0
 62
7
  6
CONTINUOUS
370
-3
390
F
  0
LAYER
  5
20D
100
AcDbSymbolTableRecord
100
AcDbLayerTableRecord
  2
TRASH
 70
0
 62
7
  6
CONTINUOUS
370
-3
390
F
  0
ENDTAB
  0
TABLE
  2
STYLE
  5
3
100
AcDbSymbolTable
 70
1
  0
STYLE
  5
11
100
AcDbSymbolTableRecord
100
AcDbTextStyleTableRecord
  2
STANDARD
 70
0
 40
0.0
 41
0.8
 50
0.0
 71
0
 42
0.2
  3
txt
  4

  0
STYLE
  5
20E
100
AcDbSymbolTableRecord
100
AcDbTextStyleTableRecord
  2
TEXTSTYLE_1
 70
0
 40
0.0
 41
0.8
 50
0.0
 71
0
 42
0.2
  3
gdt
  4

  0
ENDTAB
  0
TABLE
  2
VIEW
  5
6
100
AcDbSymbolTable
 70
0
  0
ENDTAB
  0
TABLE
  2
UCS
  5
7
100
AcDbSymbolTable
 70
0
  0
ENDTAB
  0
TABLE
  2
APPID
  5
9
100
AcDbSymbolTable
 70
1
  0
APPID
  5
20F
100
AcDbSymbolTableRecord
100
AcDbRegAppTableRecord
  2
ACAD
 70
0
  0
ENDTAB
  0
TABLE
  2
BLOCK_RECORD
  5
1
100
AcDbSymbolTable
 70
0
  0
BLOCK_RECORD
  5
210
100
AcDbSymbolTableRecord
100
AcDbBlockTableRecord
  2
*Model_Space
  0
BLOCK_RECORD
  5
211
100
AcDbSymbolTableRecord
100
AcDbBlockTableRecord
  2
*Paper_Space
  0
BLOCK_RECORD
  5
212
100
AcDbSymbolTableRecord
100
AcDbBlockTableRecord
  2
_FILLED
  0
BLOCK_RECORD
  5
213
100
AcDbSymbolTableRecord
100
AcDbBlockTableRecord
  2
*D0
  0
BLOCK_RECORD
  5
214
100
AcDbSymbolTableRecord
100
AcDbBlockTableRecord
  2
*D1
  0
BLOCK_RECORD
  5
215
100
AcDbSymbolTableRecord
100
AcDbBlockTableRecord
  2
*D2
  0
ENDTAB
  0
TABLE
  2
DIMSTYLE
  5
A
100
AcDbSymbolTable
 70
1
100
AcDbDimStyleTable
 71
0
  0
DIMSTYLE
105
216
100
AcDbSymbolTableRecord
100
AcDbDimStyleTableRecord
  2
STANDARD
 70
0
  3

  4

 40
1.0
 41
3.0
 42
0.0625
 43
0.38
 44
0.18
 45
0.0
 46
0.0
 47
0.01
 48
0.01
140
3.0
141
0.09
142
0.0
143
25.4
144
1.0
145
0.0
146
1.0
147
0.09
 71
1.0
 72
0.0
 73
0
 74
0
 75
0
 76
0
 77
1
 78
8
170
0
171
2
172
0
173
0
174
0
175
0
176
0
177
0
178
0
270
2
271
2
272
2
273
2
274
2
275
0
280
0
281
0
282
0
283
1
284
8
285
0
286
0
287
3
288
0
340
11
341
212
342
212
343
212
344
212
  0
DIMSTYLE
105
217
100
AcDbSymbolTableRecord
100
AcDbDimStyleTableRecord
  2
DIMSTYLE_1
 70
0
  3

  4

 40
1.0
 41
3.0
 42
0.0625
 43
0.38
 44
0.18
 45
0.0
 46
0.0
 47
0.0
 48
0.0
140
3.0
141
0.09
142
0.0
143
25.4
144
1.0
145
0.0
146
1.0
147
0.09
 71
0.0
 72
0.0
 73
0
 74
0
 75
0
 76
0
 77
1
 78
8
170
0
171
2
172
0
173
0
174
0
175
0
176
0
177
0
178
0
270
2
271
2
272
2
273
2
274
2
275
0
280
0
281
0
282
0
283
1
284
8
285
0
286
0
287
3
288
0
340
11
341
212
342
212
343
212
344
212
  0
DIMSTYLE
105
218
100
AcDbSymbolTableRecord
100
AcDbDimStyleTableRecord
  2
DIMSTYLE_2
 70
0
  3

  4

 40
1.0
 41
3.0
 42
0.0625
 43
0.38
 44
0.18
 45
0.0
 46
0.0
 47
0.0
 48
0.0
140
3.0
141
0.09
142
0.0
143
25.4
144
1.0
145
0.0
146
1.0
147
0.09
 71
0.0
 72
0.0
 73
0
 74
0
 75
0
 76
0
 77
1
 78
8
170
0
171
2
172
0
173
0
174
0
175
0
176
0
177
0
178
0
270
2
271
1
272
1
273
2
274
2
275
0
280
0
281
0
282
0
283
1
284
8
285
0
286
0
287
3
288
0
340
11
341
212
342
212
343
212
344
212
  0
ENDTAB
  0
ENDSEC
  0
SECTION
  2
BLOCKS
  0
BLOCK
  5
20
100
AcDbEntity
  8
0
100
AcDbBlockBegin
  2
*Model_Space
 70
0
 10
0.0
 20
0.0
 30
0.0
  3
*Model_Space
  1

  0
ENDBLK
  5
21
100
AcDbEntity
  8
0
100
AcDbBlockEnd
  0
BLOCK
  5
1C
100
AcDbEntity
  8
0
100
AcDbBlockBegin
  2
*Paper_Space
 70
0
 10
0.0
 20
0.0
 30
0.0
  3
*Paper_Space
  1

  0
ENDBLK
  5
1D
100
AcDbEntity
  8
0
100
AcDbBlockEnd
  0
BLOCK
  5
219
100
AcDbEntity
  8
0
100
AcDbBlockBegin
  2
_FILLED
 70
64
 10
0.0
 20
0.0
  3
_FILLED
  1

  0
SOLID
  5
21A
100
AcDbEntity
  8
0
  6
BYBLOCK
 62
0
100
AcDbTrace
 10
0.0
 20
0.0
 11
-1.0
 21
0.3166666667
 12
-1.0
 22
-0.3166666667
 13
-1.0
 23
-0.3166666667
  0
ENDBLK
  5
21B
100
AcDbEntity
  8
0
  6
BYBLOCK
 62
0
100
AcDbBlockEnd
  0
BLOCK
  5
21C
100
AcDbEntity
  8
0
100
AcDbBlockBegin
 62
7
  6
CONTINUOUS
  2
*D0
 70
65
 10
0.0
 20
0.0
  3
*D0
  1

  0
MTEXT
  5
21D
100
AcDbEntity
  8
0
100
AcDbMText
 62
7
  6
CONTINUOUS
  7
STANDARD
 71
2
 72
1
 10
0.0
 20
66.75
 30
0.0
 11
1.0
 21
0.0
 31
0.0
 44
0.9
  1
122
 40
3.0
 41
6.4285714286
  0
LINE
  5
21E
100
AcDbEntity
  8
0
100
AcDbLine
 62
7
  6
CONTINUOUS
 10
-61.0
 20
22.9691771128
 11
-61.0
 21
64.5
  0
LINE
  5
21F
100
AcDbEntity
  8
0
100
AcDbLine
 62
7
  6
CONTINUOUS
 10
61.0
 20
22.9691866652
 11
61.0
 21
64.5
  0
LINE
  5
220
100
AcDbEntity
  8
0
100
AcDbLine
 62
7
  6
CONTINUOUS
 10
-61.0
 20
63.0
 11
0.0
 21
63.0
  0
LINE
  5
221
100
AcDbEntity
  8
0
100
AcDbLine
 62
7
  6
CONTINUOUS
 10
61.0
 20
63.0
 11
0.0
 21
63.0
  0
INSERT
  5
222
100
AcDbEntity
  8
0
100
AcDbBlockReference
 62
7
  6
CONTINUOUS
  2
_FILLED
 10
-61.0
 20
63.0
 41
3.0
 42
3.0
 43
3.0
 50
180.0
  0
INSERT
  5
223
100
AcDbEntity
  8
0
100
AcDbBlockReference
 62
7
  6
CONTINUOUS
  2
_FILLED
 10
61.0
 20
63.0
 41
3.0
 42
3.0
 43
3.0
 50
0.0
  0
ENDBLK
  5
224
100
AcDbEntity
  8
0
  6
BYBLOCK
 62
0
100
AcDbBlockEnd
  0
BLOCK
  5
225
100
AcDbEntity
  8
0
100
AcDbBlockBegin
 62
7
  6
CONTINUOUS
  2
*D1
 70
65
 10
0.0
 20
0.0
  3
*D1
  1

  0
MTEXT
  5
226
100
AcDbEntity
  8
0
100
AcDbMText
 62
7
  6
CONTINUOUS
  7
STANDARD
 71
2
 72
1
 10
72.25
 20
-0.0
 30
0.0
 11
0.0
 21
1.0
 31
0.0
 44
0.9
  1
90
 40
3.0
 41
4.7142857143
  0
LINE
  5
227
100
AcDbEntity
  8
0
100
AcDbLine
 62
7
  6
CONTINUOUS
 10
59.9
 20
-45.0
 11
77.5
 21
-45.0
  0
LINE
  5
228
100
AcDbEntity
  8
0
100
AcDbLine
 62
7
  6
CONTINUOUS
 10
59.9
 20
45.0
 11
77.5
 21
45.0
  0
LINE
  5
229
100
AcDbEntity
  8
0
100
AcDbLine
 62
7
  6
CONTINUOUS
 10
76.0
 20
-45.0
 11
76.0
 21
-0.0
  0
LINE
  5
22A
100
AcDbEntity
  8
0
100
AcDbLine
 62
7
  6
CONTINUOUS
 10
76.0
 20
45.0
 11
76.0
 21
-0.0
  0
INSERT
  5
22B
100
AcDbEntity
  8
0
100
AcDbBlockReference
 62
7
  6
CONTINUOUS
  2
_FILLED
 10
76.0
 20
-45.0
 41
3.0
 42
3.0
 43
3.0
 50
270.0
  0
INSERT
  5
22C
100
AcDbEntity
  8
0
100
AcDbBlockReference
 62
7
  6
CONTINUOUS
  2
_FILLED
 10
76.0
 20
45.0
 41
3.0
 42
3.0
 43
3.0
 50
90.0
  0
ENDBLK
  5
22D
100
AcDbEntity
  8
0
  6
BYBLOCK
 62
0
100
AcDbBlockEnd
  0
BLOCK
  5
22E
100
AcDbEntity
  8
0
100
AcDbBlockBegin
 62
7
  6
CONTINUOUS
  2
*D2
 70
65
 10
0.0
 20
0.0
  3
*D2
  1

  0
MTEXT
  5
22F
100
AcDbEntity
  8
0
100
AcDbMText
 62
7
  6
CONTINUOUS
  7
STANDARD
 71
3
 72
1
 10
-83.8651923302
 20
66.75
 30
0.0
 11
1.0
 21
0.0
 31
0.0
 44
0.9
  1
8,6
 40
3.0
 41
6.4285714286
  0
LINE
  5
230
100
AcDbEntity
  8
0
100
AcDbLine
 62
7
  6
CONTINUOUS
 10
-72.9494168656
 20
43.0625296896
 11
-72.9494168656
 21
64.5
  0
LINE
  5
231
100
AcDbEntity
  8
0
100
AcDbLine
 62
7
  6
CONTINUOUS
 10
-81.5175284625
 20
0.5
 11
-81.5175284625
 21
64.5
  0
LINE
  5
232
100
AcDbEntity
  8
0
100
AcDbLine
 62
7
  6
CONTINUOUS
 10
-72.9494168656
 20
63.0
 11
-77.233472664
 21
63.0
  0
LINE
  5
233
100
AcDbEntity
  8
0
100
AcDbLine
 62
7
  6
CONTINUOUS
 10
-81.5175284625
 20
63.0
 11
-77.233472664
 21
63.0
  0
LINE
  5
234
100
AcDbEntity
  8
0
100
AcDbLine
 62
7
  6
CONTINUOUS
 10
-77.233472664
 20
63.0
 11
-90.2937637588
 21
63.0
  0
INSERT
  5
235
100
AcDbEntity
  8
0
100
AcDbBlockReference
 62
7
  6
CONTINUOUS
  2
_FILLED
 10
-72.9494168656
 20
63.0
 41
3.0
 42
3.0
 43
3.0
  0
INSERT
  5
236
100
AcDbEntity
  8
0
100
AcDbBlockReference
 62
7
  6
CONTINUOUS
  2
_FILLED
 10
-81.5175284625
 20
63.0
 41
3.0
 42
3.0
 43
3.0
 50
180.0
  0
ENDBLK
  5
237
100
AcDbEntity
  8
0
  6
BYBLOCK
 62
0
100
AcDbBlockEnd
  0
ENDSEC
  0
SECTION
  2
ENTITIES
  0
DIMENSION
  5
238
100
AcDbEntity
  8
0
100
AcDbDimension
 62
7
  6
CONTINUOUS
  2
*D0
 10
61.0
 20
63.0
 11
-3.2142857143
 21
65.25
 70
160
 71
2
 42
122.0
  3
DIMSTYLE_1
100
AcDbAlignedDimension
 13
-61.0
 23
22.9691771128
 14
61.0
 24
22.9691866652
100
AcDbRotatedDimension
  0
DIMENSION
  5
239
100
AcDbEntity
  8
0
100
AcDbDimension
 62
7
  6
CONTINUOUS
  2
*D1
 10
76.0
 20
45.0
 11
74.8061735237
 21
-2.1072778499
 70
160
 71
2
 42
90.0
  3
DIMSTYLE_1
100
AcDbAlignedDimension
 13
59.9
 23
-45.0
 14
59.9
 24
45.0
 50
90.0
100
AcDbRotatedDimension
  0
DIMENSION
  5
23A
100
AcDbEntity
  8
0
100
AcDbDimension
 62
7
  6
CONTINUOUS
  2
*D2
 10
-81.5175284625
 20
63.0
 11
-93.5080494731
 21
65.25
 70
160
 71
3
 42
8.5681115969
  3
DIMSTYLE_2
100
AcDbAlignedDimension
 13
-72.9494168656
 23
43.0625296896
 14
-81.5175284625
 24
0.5
 50
180.0
100
AcDbRotatedDimension
  0
LWPOLYLINE
  5
23B
100
AcDbEntity
  8
0
100
AcDbPolyline
 62
253
  6
CONTINUOUS
 90
28
 70
0
 10
-60.8653318443
 20
-43.3989453427
 10
-60.8616464561
 20
-43.4833639627
 10
-60.8531194124
 20
-43.5673398674
 10
-60.8397914881
 20
-43.6505935572
 10
-60.8217150195
 20
-43.7328243714
 10
-60.7989370767
 20
-43.8138553158
 10
-60.7714872547
 20
-43.8935807553
 10
-60.7394615872
 20
-43.9717049797
 10
-60.7030017162
 20
-44.0478329753
 10
-60.6622020841
 20
-44.1217404295
 10
-60.6171160363
 20
-44.1932793466
 10
-60.5678482883
 20
-44.2622552392
 10
-60.5146632556
 20
-44.3283315904
 10
-60.4578067004
 20
-44.3911687848
 10
-60.3974664248
 20
-44.4505275632
 10
-60.3338303104
 20
-44.5062552269
 10
-60.2670868997
 20
-44.5582249661
 10
-60.1975057812
 20
-44.6062486872
 10
-60.1254076374
 20
-44.6501083493
 10
-60.0509551626
 20
-44.6897030491
 10
-59.9742722294
 20
-44.7249673527
 10
-59.8956166721
 20
-44.7557969396
 10
-59.8153462356
 20
-44.7820537973
 10
-59.7337899217
 20
-44.8036153291
 10
-59.6512281177
 20
-44.8204271793
 10
-59.5679026581
 20
-44.8324608376
 10
-59.484065606
 20
-44.8396927071
 10
-59.4
 20
-44.8421061027
  0
LWPOLYLINE
  5
23C
100
AcDbEntity
  8
0
100
AcDbPolyline
 62
253
  6
CONTINUOUS
 90
28
 70
0
 10
-59.5704506376
 20
-43.605491578
 10
-59.5701573891
 20
-43.6152722859
 10
-59.5693140863
 20
-43.624966225
 10
-59.5679207293
 20
-43.6345733979
 10
-59.5659755931
 20
-43.644112342
 10
-59.5634804027
 20
-43.6535645248
 10
-59.5604403332
 20
-43.6628743466
 10
-59.5568557049
 20
-43.6720562024
 10
-59.5527261976
 20
-43.6810957052
 10
-59.5480560253
 20
-43.6898940865
 10
-59.5427889431
 20
-43.6984892567
 10
-59.5369811959
 20
-43.7068433181
 10
-59.5308057325
 20
-43.7147437982
 10
-59.5243493587
 20
-43.7220911348
 10
-59.5175252687
 20
-43.7289849141
 10
-59.5102459939
 20
-43.735511389
 10
-59.5024268364
 20
-43.7417509079
 10
-59.4941524942
 20
-43.7476231364
 10
-59.4855895924
 20
-43.7529733043
 10
-59.4767531957
 20
-43.7577617857
 10
-59.4676282393
 20
-43.7620282241
 10
-59.4583361536
 20
-43.7657367545
 10
-59.4488921113
 20
-43.7688805128
 10
-59.4392809398
 20
-43.7714663757
 10
-59.4295785516
 20
-43.7734790891
 10
-59.419810251
 20
-43.7749135705
 10
-59.4099507338
 20
-43.7757749089
 10
-59.4
 20
-43.7760631058
  0
LWPOLYLINE
  5
23D
100
AcDbEntity
  8
0
100
AcDbPolyline
 62
7
  6
CONTINUOUS
 90
28
 70
0
 10
-61.0
 20
-43.4
 10
-60.9972355762
 20
-43.4939627288
 10
-60.9889656528
 20
-43.5875668867
 10
-60.9752255223
 20
-43.6804875234
 10
-60.9560414015
 20
-43.7724930461
 10
-60.9314659617
 20
-43.8632559154
 10
-60.901639483
 20
-43.9523003198
 10
-60.8668131607
 20
-44.0390942023
 10
-60.8271294077
 20
-44.1234208468
 10
-60.7825708753
 20
-44.2053199516
 10
-60.733096735
 20
-44.2847778703
 10
-60.6789345343
 20
-44.3613802991
 10
-60.6205515158
 20
-44.434522067
 10
-60.5583997977
 20
-44.5037041277
 10
-60.4925678425
 20
-44.5689051851
 10
-60.4229876955
 20
-44.6302318586
 10
-60.3496833953
 20
-44.6876504738
 10
-60.2731316229
 20
-44.7407587346
 10
-60.193959832
 20
-44.7891254294
 10
-60.1125623542
 20
-44.8325795874
 10
-60.0289135775
 20
-44.8712049005
 10
-59.9430080229
 20
-44.9050254712
 10
-59.8550859213
 20
-44.9339149881
 10
-59.7656485474
 20
-44.9576634266
 10
-59.6751254694
 20
-44.9761703244
 10
-59.583833636
 20
-44.9894017121
 10
-59.4920191649
 20
-44.9973486637
 10
-59.4
 20
-45.0
  0
LINE
  5
23E
100
AcDbEntity
  8
0
100
AcDbLine
 62
7
  6
CONTINUOUS
 10
-61.0
 20
43.4
 11
-61.0
 21
-43.4
  0
LINE
  5
23F
100
AcDbEntity
  8
0
100
AcDbLine
 62
253
  6
CONTINUOUS
 10
-59.5725396842
 20
-0.0000022119
 11
-59.5704506376
 21
-43.605491578
  0
LINE
  5
240
100
AcDbEntity
  8
0
100
AcDbLine
 62
253
  6
CONTINUOUS
 10
-59.4
 20
-43.7760631058
 11
-59.4
 21
-45.0
  0
LINE
  5
241
100
AcDbEntity
  8
0
100
AcDbLine
 62
253
  6
CONTINUOUS
 10
-59.4
 20
43.7760631058
 11
-59.4
 21
45.0
  0
LINE
  5
242
100
AcDbEntity
  8
0
100
AcDbLine
 62
253
  6
CONTINUOUS
 10
-60.8653452931
 20
43.3978896672
 11
-60.8653459101
 21
-43.39894544
  0
LINE
  5
243
100
AcDbEntity
  8
0
100
AcDbLine
 62
253
  6
CONTINUOUS
 10
-59.570451454
 20
43.6052349613
 11
-59.5725396842
 21
-0.0000022119
  0
LWPOLYLINE
  5
244
100
AcDbEntity
  8
0
100
AcDbPolyline
 62
7
  6
CONTINUOUS
 90
28
 70
0
 10
59.4
 20
-45.0
 10
59.4920068904
 20
-44.9973495777
 10
59.5838192418
 20
-44.9894035717
 10
59.6751227089
 20
-44.9761705285
 10
59.7656564445
 20
-44.957661303
 10
59.8551020144
 20
-44.9339102529
 10
59.9430472128
 20
-44.9050105909
 10
60.0289780036
 20
-44.8711768288
 10
60.1126330487
 20
-44.8325446057
 10
60.1940275508
 20
-44.7890868397
 10
60.2732003525
 20
-44.7407141542
 10
60.3497486191
 20
-44.687603008
 10
60.423036583
 20
-44.6301913569
 10
60.4926030506
 20
-44.5688721673
 10
60.5584282988
 20
-44.5036739617
 10
60.6205625067
 20
-44.4345093056
 10
60.6789248708
 20
-44.3613952084
 10
60.7330767814
 20
-44.284808911
 10
60.7825486375
 20
-44.2053564869
 10
60.8271075531
 20
-44.1234623116
 10
60.8667943996
 20
-44.0391375543
 10
60.9016268193
 20
-43.9523363536
 10
60.9314563463
 20
-43.8632884611
 10
60.9560325553
 20
-43.7725246808
 10
60.975221939
 20
-43.6805022714
 10
60.9889669416
 20
-43.587560268
 10
60.9972366566
 20
-43.4939535365
 10
61.0
 20
-43.4
  0
LWPOLYLINE
  5
245
100
AcDbEntity
  8
0
100
AcDbPolyline
 62
253
  6
CONTINUOUS
 90
28
 70
0
 10
59.4
 20
-44.8421061027
 10
59.4840988648
 20
-44.8396908328
 10
59.5679823435
 20
-44.8324516195
 10
59.6513701438
 20
-44.820402011
 10
59.733993651
 20
-44.8035673334
 10
59.8156108562
 20
-44.7819755962
 10
59.8959619175
 20
-44.7556722577
 10
59.9747080062
 20
-44.724781573
 10
60.0514661898
 20
-44.6894502387
 10
60.1259828629
 20
-44.6497810612
 10
60.198143521
 20
-44.6058352403
 10
60.2677796692
 20
-44.5577169526
 10
60.3345640144
 20
-44.5056487122
 10
60.3982459071
 20
-44.4498034253
 10
60.4586338226
 20
-44.3903055753
 10
60.5155078978
 20
-44.3273418596
 10
60.5686795946
 20
-44.2611604294
 10
60.6179221718
 20
-44.192077728
 10
60.66297489
 20
-44.1204275812
 10
60.7037297303
 20
-44.0464152975
 10
60.7401344085
 20
-43.9701875987
 10
60.7720976098
 20
-43.8919598243
 10
60.7994843768
 20
-43.8120999661
 10
60.8221833065
 20
-43.7309421982
 10
60.8401500791
 20
-43.6486919982
 10
60.8533485082
 20
-43.5655791222
 10
60.8617528847
 20
-43.4818874778
 10
60.8653468858
 20
-43.3978896922
  0
LWPOLYLINE
  5
246
100
AcDbEntity
  8
0
100
AcDbPolyline
 62
253
  6
CONTINUOUS
 90
10
 70
0
 10
-35.0459366909
 20
22.6048155586
 10
-35.0777102997
 20
22.5214238433
 10
-35.1058819164
 20
22.436665574
 10
-35.130451541
 20
22.3505407151
 10
-35.1515016717
 20
22.2627557551
 10
-35.1689498104
 20
22.1736041275
 10
-35.182548462
 20
22.0839662397
 10
-35.1922151283
 20
21.9941355651
 10
-35.1980323077
 20
21.9038186147
 10
-35.2
 20
21.8130153778
  0
LWPOLYLINE
  5
247
100
AcDbEntity
  8
0
100
AcDbPolyline
 62
253
  6
CONTINUOUS
 90
28
 70
0
 10
59.4
 20
-43.7760631058
 10
59.4099065602
 20
-43.7757837977
 10
59.4197367828
 20
-43.7749288061
 10
59.4294906678
 20
-43.7734981295
 10
59.4391964003
 20
-43.7714875533
 10
59.4488257951
 20
-43.7689012857
 10
59.4582942969
 20
-43.7657519577
 10
59.4676204392
 20
-43.7620285266
 10
59.4767856885
 20
-43.7577420225
 10
59.4856498879
 20
-43.752938186
 10
59.4942151988
 20
-43.7475851198
 10
59.5024794599
 20
-43.7417147038
 10
59.5102960306
 20
-43.735468346
 10
59.5175926054
 20
-43.7289162069
 10
59.5244414898
 20
-43.7219881115
 10
59.5309129595
 20
-43.7146149654
 10
59.5370833789
 20
-43.7067091327
 10
59.5428763837
 20
-43.6983582259
 10
59.5481331564
 20
-43.6897560254
 10
59.5528052623
 20
-43.6809292676
 10
59.5569411361
 20
-43.6718512025
 10
59.5605272637
 20
-43.6626353892
 10
59.563559914
 20
-43.6532989303
 10
59.5660428181
 20
-43.6438247153
 10
59.5679736562
 20
-43.6342749882
 10
59.5693516548
 20
-43.6246704963
 10
59.5701775874
 20
-43.6149904881
 10
59.570451454
 20
-43.6052349613
  0
LINE
  5
248
100
AcDbEntity
  8
0
100
AcDbLine
 62
253
  6
CONTINUOUS
 10
-60.8653459101
 20
-43.39894544
 11
-61.0
 21
-43.4
  0
LWPOLYLINE
  5
249
100
AcDbEntity
  8
0
100
AcDbPolyline
 62
253
  6
CONTINUOUS
 90
25
 70
0
 10
59.570451454
 20
-43.6052349609
 10
59.6506830922
 20
-43.6048123676
 10
59.7306088381
 20
-43.6035233026
 10
59.8099239685
 20
-43.6013726806
 10
59.8883260883
 20
-43.5983687012
 10
59.9655162832
 20
-43.5945228171
 10
60.0412002596
 20
-43.5898496912
 10
60.1150894663
 20
-43.5843671402
 10
60.186902195
 20
-43.5780960667
 10
60.256364654
 20
-43.5710603797
 10
60.3232120123
 20
-43.5632869034
 10
60.387189409
 20
-43.5548052748
 10
60.4480529253
 20
-43.5456478307
 10
60.5055705144
 20
-43.5358494846
 10
60.5595228857
 20
-43.5254475936
 10
60.6097043418
 20
-43.5144818157
 10
60.6559235619
 20
-43.5029939589
 10
60.6980043316
 20
-43.4910278213
 10
60.7357862146
 20
-43.4786290251
 10
60.7691251645
 20
-43.4658448415
 10
60.7978940741
 20
-43.4527240112
 10
60.8219832595
 20
-43.4393165586
 10
60.8413008789
 20
-43.4256736005
 10
60.8557732824
 20
-43.411847152
 10
60.8653452927
 20
-43.3978899273
  0
LINE
  5
24A
100
AcDbEntity
  8
0
100
AcDbLine
 62
7
  6
CONTINUOUS
 10
-59.4
 20
-45.0
 11
59.4
 21
-45.0
  0
LINE
  5
24B
100
AcDbEntity
  8
0
100
AcDbLine
 62
253
  6
CONTINUOUS
 10
-59.4
 20
-44.8421061027
 11
59.4
 21
-44.8421061027
  0
LINE
  5
24C
100
AcDbEntity
  8
0
100
AcDbLine
 62
253
  6
CONTINUOUS
 10
-59.4
 20
-43.7760631058
 11
59.4
 21
-43.7760631058
  0
LWPOLYLINE
  5
24D
100
AcDbEntity
  8
0
100
AcDbPolyline
 62
253
  6
CONTINUOUS
 90
25
 70
0
 10
-59.5704520079
 20
-43.6054758255
 10
-59.6506697902
 20
-43.605161248
 10
-59.7305818163
 20
-43.6039804493
 10
-59.8098835206
 20
-43.6019379288
 10
-59.8882726634
 20
-43.5990414693
 10
-59.9654504829
 20
-43.5953021064
 10
-60.0411228344
 20
-43.5907340871
 10
-60.1150013105
 20
-43.5853548152
 10
-60.1868043409
 20
-43.579184785
 10
-60.2562582654
 20
-43.5722475034
 10
-60.323098377
 20
-43.5645694004
 10
-60.3870699302
 20
-43.5561797279
 10
-60.4479291128
 20
-43.547110449
 10
-60.5054439744
 20
-43.5373961157
 10
-60.5593953108
 20
-43.5270737374
 10
-60.6095774993
 20
-43.51618264
 10
-60.6557992823
 20
-43.5047643161
 10
-60.6978844965
 20
-43.4928622666
 10
-60.7356727441
 20
-43.4805218356
 10
-60.7690200042
 20
-43.4677900369
 10
-60.7977991816
 20
-43.4547153755
 10
-60.8219005914
 20
-43.441347663
 10
-60.8412323768
 20
-43.4277378273
 10
-60.8557208593
 20
-43.4139377182
 10
-60.8653108194
 20
-43.3999999105
  0
LINE
  5
24E
100
AcDbEntity
  8
0
100
AcDbLine
 62
253
  6
CONTINUOUS
 10
60.8653452931
 20
-43.3978896672
 11
61.0
 21
-43.4
  0
LWPOLYLINE
  5
24F
100
AcDbEntity
  8
0
100
AcDbPolyline
 62
253
  6
CONTINUOUS
 90
25
 70
0
 10
-35.0459366909
 20
-22.6048155586
 10
-35.0050823311
 20
-22.6997400053
 10
-34.9596694959
 20
-22.7924059058
 10
-34.9096981853
 20
-22.8828134229
 10
-34.8550285972
 20
-22.9712436904
 10
-34.7958005337
 20
-23.0574158826
 10
-34.7324334012
 20
-23.14048729
 10
-34.6648764755
 20
-23.2204137787
 10
-34.5931804807
 20
-23.297239929
 10
-34.5179169962
 20
-23.3702562166
 10
-34.4390488783
 20
-23.4394123619
 10
-34.3566132707
 20
-23.5047591518
 10
-34.271293183
 20
-23.565738735
 10
-34.1830557148
 20
-23.6223018779
 10
-34.0919337665
 20
-23.6744983153
 10
-33.9987090486
 20
-23.7219186817
 10
-33.9033436885
 20
-23.7645094362
 10
-33.8058755587
 20
-23.8023245525
 10
-33.7071999873
 20
-23.835115937
 10
-33.6073035996
 20
-23.8628144018
 10
-33.5061997702
 20
-23.8854894474
 10
-33.4048239504
 20
-23.9031009863
 10
-33.3034879573
 20
-23.9156357095
 10
-33.2018799739
 20
-23.9231070842
 10
-33.1
 20
-23.9255151499
  0
LWPOLYLINE
  5
250
100
AcDbEntity
  8
0
100
AcDbPolyline
 62
253
  6
CONTINUOUS
 90
16
 70
0
 10
-35.2
 20
-21.8130153778
 10
-35.1997103181
 20
-21.8556987213
 10
-35.1983373307
 20
-21.8996464661
 10
-35.195881038
 20
-21.9448585934
 10
-35.1924673669
 20
-21.9911862022
 10
-35.1879703904
 20
-22.0387781564
 10
-35.1820123271
 20
-22.0880810777
 10
-35.1746074099
 20
-22.1392886418
 10
-35.1657414058
 20
-22.1922071132
 10
-35.1549938344
 20
-22.24670199
 10
-35.1423807519
 20
-22.3027909986
 10
-35.1278861022
 20
-22.3604563531
 10
-35.1110412361
 20
-22.4195102881
 10
-35.0916899373
 20
-22.4798901976
 10
-35.0699884223
 20
-22.541658631
 10
-35.0459366909
 20
-22.6048155586
  0
LINE
  5
251
100
AcDbEntity
  8
0
100
AcDbLine
 62
253
  6
CONTINUOUS
 10
-35.2
 20
21.8130153778
 11
-35.2
 21
-21.8130153778
  0
LINE
  5
252
100
AcDbEntity
  8
0
100
AcDbLine
 62
7
  6
CONTINUOUS
 10
-33.9
 20
21.7500116681
 11
-33.9
 21
-21.7500003012
  0
LINE
  5
253
100
AcDbEntity
  8
0
100
AcDbLine
 62
253
  6
CONTINUOUS
 10
-33.1
 20
22.55
 11
-33.1
 21
23.9255151499
  0
LINE
  5
254
100
AcDbEntity
  8
0
100
AcDbLine
 62
253
  6
CONTINUOUS
 10
-33.1
 20
-22.55
 11
-33.1
 21
-23.9255151499
  0
LINE
  5
255
100
AcDbEntity
  8
0
100
AcDbLine
 62
7
  6
CONTINUOUS
 10
-4.616107
 20
-28.877801
 11
-4.101097
 21
-28.877801
  0
LINE
  5
256
100
AcDbEntity
  8
0
100
AcDbLine
 62
7
  6
CONTINUOUS
 10
-2.984285
 20
-28.877801
 11
-2.399877
 21
-28.877801
  0
LINE
  5
257
100
AcDbEntity
  8
0
100
AcDbLine
 62
7
  6
CONTINUOUS
 10
-2.085272
 20
-28.877801
 11
-1.526183
 21
-28.877801
  0
LINE
  5
258
100
AcDbEntity
  8
0
100
AcDbLine
 62
7
  6
CONTINUOUS
 10
-0.714487
 20
-28.877801
 11
-0.632524
 21
-28.877801
  0
LINE
  5
259
100
AcDbEntity
  8
0
100
AcDbLine
 62
7
  6
CONTINUOUS
 10
0.182406
 20
-28.877801
 11
0.754112
 21
-28.877801
  0
LINE
  5
25A
100
AcDbEntity
  8
0
100
AcDbLine
 62
7
  6
CONTINUOUS
 10
0.84588
 20
-28.877801
 11
1.423947
 21
-28.877801
  0
LINE
  5
25B
100
AcDbEntity
  8
0
100
AcDbLine
 62
7
  6
CONTINUOUS
 10
2.532466
 20
-28.877801
 11
3.148408
 21
-28.877801
  0
LINE
  5
25C
100
AcDbEntity
  8
0
100
AcDbLine
 62
7
  6
CONTINUOUS
 10
3.3200188023
 20
-28.8778013544
 11
3.9020753449
 21
-28.8778013544
  0
LINE
  5
25D
100
AcDbEntity
  8
0
100
AcDbLine
 62
7
  6
CONTINUOUS
 10
4.7970156219
 20
-28.8778013544
 11
5.3591482119
 21
-28.8778013544
  0
LWPOLYLINE
  5
25E
100
AcDbEntity
  8
0
100
AcDbPolyline
 62
253
  6
CONTINUOUS
 90
16
 70
0
 10
-33.8413087857
 20
-22.0507665906
 10
-33.8424443069
 20
-22.0555503529
 10
-33.8488579961
 20
-22.0624566337
 10
-33.8605217247
 20
-22.0714551441
 10
-33.8773843389
 20
-22.0825064191
 10
-33.8993718842
 20
-22.0955619911
 10
-33.9263879293
 20
-22.110564602
 10
-33.9583139898
 20
-22.1274484547
 10
-33.9950100469
 20
-22.1461395015
 10
-34.0363151624
 20
-22.1665557687
 10
-34.0820481839
 20
-22.1886077165
 10
-34.1320085393
 20
-22.2121986313
 10
-34.1859771169
 20
-22.2372250502
 10
-34.243717226
 20
-22.2635772145
 10
-34.3049756349
 20
-22.291139551
 10
-34.3694836818
 20
-22.3197911794
  0
LWPOLYLINE
  5
25F
100
AcDbEntity
  8
0
100
AcDbPolyline
 62
7
  6
CONTINUOUS
 90
25
 70
0
 10
3.3200188023
 20
-26.110807341
 10
3.3798058319
 20
-26.1020975421
 10
3.4395547779
 20
-26.0938944905
 10
3.4992656401
 20
-26.0861981914
 10
3.5589006806
 20
-26.0789568406
 10
3.6184976374
 20
-26.0722222517
 10
3.6781697246
 20
-26.0661498575
 10
3.7379290849
 20
-26.0607331346
 10
3.7977635757
 20
-26.055978616
 10
3.8577499824
 20
-26.0520613214
 10
3.9178997851
 20
-26.0489740721
 10
3.9782015037
 20
-26.0467240541
 10
4.0386974834
 20
-26.0455078336
 10
4.0994490779
 20
-26.0453229124
 10
4.1603949334
 20
-26.0461717904
 10
4.2213933337
 20
-26.0482585292
 10
4.2824509824
 20
-26.0515145167
 10
4.3435611758
 20
-26.0560083567
 10
4.4045620863
 20
-26.0621499289
 10
4.4655880594
 20
-26.0698504217
 10
4.5265047496
 20
-26.0791986182
 10
4.5867472921
 20
-26.0908707747
 10
4.6461273988
 20
-26.1050922805
 10
4.7048333578
 20
-26.121637667
 10
4.7628651691
 20
-26.1405068851
  0
LWPOLYLINE
  5
260
100
AcDbEntity
  8
0
100
AcDbPolyline
 62
253
  6
CONTINUOUS
 90
15
 70
0
 10
60.3257055761
 20
-22.5927640328
 10
60.3897109818
 20
-22.5903275146
 10
60.4505948847
 20
-22.5876969273
 10
60.5081247602
 20
-22.5848823177
 10
60.5620808932
 20
-22.581894435
 10
60.6122572174
 20
-22.5787446904
 10
60.6584621019
 20
-22.5754451133
 10
60.7005190835
 20
-22.5720083053
 10
60.7382675405
 20
-22.5684473919
 10
60.7715633058
 20
-22.564775973
 10
60.8002792181
 20
-22.5610080701
 10
60.8243056071
 20
-22.5571580735
 10
60.8435507124
 20
-22.5532406868
 10
60.8579410342
 20
-22.5492708711
 10
60.8674216137
 20
-22.5452637878
  0
LWPOLYLINE
  5
261
100
AcDbEntity
  8
0
100
AcDbPolyline
 62
253
  6
CONTINUOUS
 90
15
 70
0
 10
60.3257085684
 20
-22.5165368901
 10
60.3897140182
 20
-22.514106961
 10
60.4505979532
 20
-22.5114836962
 10
60.508127848
 20
-22.5086771145
 10
60.5620839869
 20
-22.5056979346
 10
60.6122603028
 20
-22.5025575345
 10
60.6584651646
 20
-22.4992679079
 10
60.7005221086
 20
-22.4958416183
 10
60.7382705127
 20
-22.4922917513
 10
60.7715662097
 20
-22.4886318644
 10
60.8002820383
 20
-22.4848759353
 10
60.824308328
 20
-22.4810383084
 10
60.8435533188
 20
-22.4771336403
 10
60.8579435109
 20
-22.4731768436
 10
60.867423946
 20
-22.4691830297
  0
LWPOLYLINE
  5
262
100
AcDbEntity
  8
0
100
AcDbPolyline
 62
7
  6
CONTINUOUS
 90
31
 70
0
 10
4.2166806432
 20
-27.3236280866
 10
4.2409753262
 20
-27.3228502164
 10
4.2651398116
 20
-27.3213088304
 10
4.2891740995
 20
-27.3190039271
 10
4.3131454739
 20
-27.3159897998
 10
4.3369866506
 20
-27.3122121496
 10
4.3604957779
 20
-27.307508084
 10
4.3836769178
 20
-27.301891077
 10
4.4065260082
 20
-27.2953476414
 10
4.4288290109
 20
-27.2876744381
 10
4.4506347712
 20
-27.2788583701
 10
4.4718944439
 20
-27.2689125083
 10
4.4922474547
 20
-27.2576727589
 10
4.5116554113
 20
-27.2450776416
 10
4.5301567061
 20
-27.2311885929
 10
4.5475059417
 20
-27.2160258893
 10
4.563620552
 20
-27.1994882416
 10
4.5785831032
 20
-27.1816768814
 10
4.5923958967
 20
-27.1629158717
 10
4.6050458843
 20
-27.1432144743
 10
4.6165461142
 20
-27.1225633772
 10
4.6269380324
 20
-27.101258797
 10
4.636229814
 20
-27.0793299273
 10
4.6444132839
 20
-27.0567475367
 10
4.6515053627
 20
-27.0337202182
 10
4.6575309614
 20
-27.010237633
 10
4.6624651689
 20
-26.9863100922
 10
4.6662501722
 20
-26.9621771778
 10
4.6688667004
 20
-26.9379187496
 10
4.6703340243
 20
-26.9134549369
 10
4.6706521441
 20
-26.8887857334
  0
LINE
  5
263
100
AcDbEntity
  8
0
100
AcDbLine
 62
253
  6
CONTINUOUS
 10
60.1893190284
 20
-22.5970184171
 11
60.3257055761
 21
-22.5927640328
  0
LINE
  5
264
100
AcDbEntity
  8
0
100
AcDbLine
 62
253
  6
CONTINUOUS
 10
60.1893218998
 20
-22.5207803941
 11
60.3257085684
 21
-22.5165368901
  0
LWPOLYLINE
  5
265
100
AcDbEntity
  8
0
100
AcDbPolyline
 62
253
  6
CONTINUOUS
 90
25
 70
0
 10
33.1
 20
-23.9255151499
 10
33.2014138403
 20
-23.9231177681
 10
33.3025183882
 20
-23.9157203948
 10
33.4033136437
 20
-23.9033229916
 10
33.5040253498
 20
-23.8859434779
 10
33.6044277634
 20
-23.8635637803
 10
33.7038436555
 20
-23.8361298312
 10
33.8024083074
 20
-23.803536705
 10
33.8999864378
 20
-23.7658890147
 10
33.9954949733
 20
-23.7234469706
 10
34.0888389836
 20
-23.6761621416
 10
34.1801133991
 20
-23.6240825259
 10
34.2685199377
 20
-23.5676129774
 10
34.3540188847
 20
-23.5067090707
 10
34.4366499548
 20
-23.4414147281
 10
34.5157340107
 20
-23.3722673567
 10
34.5912409728
 20
-23.2992118997
 10
34.6632009206
 20
-23.2223029001
 10
34.7310249553
 20
-23.1422422359
 10
34.7946649437
 20
-23.058977461
 10
34.8541690189
 20
-22.9725605657
 10
34.9090926812
 20
-22.8838501978
 10
34.959287764
 20
-22.793132494
 10
35.0049024339
 20
-22.7001210029
 10
35.0459366909
 20
-22.6048155586
  0
LINE
  5
266
100
AcDbEntity
  8
0
100
AcDbLine
 62
253
  6
CONTINUOUS
 10
60.0435167736
 20
-22.60039515
 11
60.1893190284
 21
-22.5970184171
  0
LINE
  5
267
100
AcDbEntity
  8
0
100
AcDbLine
 62
253
  6
CONTINUOUS
 10
60.0435194868
 20
-22.5241494438
 11
60.1893218998
 21
-22.5207803941
  0
LINE
  5
268
100
AcDbEntity
  8
0
100
AcDbLine
 62
253
  6
CONTINUOUS
 10
59.8905240459
 20
-22.6028426955
 11
60.0435167736
 21
-22.60039515
  0
LINE
  5
269
100
AcDbEntity
  8
0
100
AcDbLine
 62
253
  6
CONTINUOUS
 10
59.8905265722
 20
-22.5265926206
 11
60.0435194868
 21
-22.5241494438
  0
LINE
  5
26A
100
AcDbEntity
  8
0
100
AcDbLine
 62
253
  6
CONTINUOUS
 10
59.732675821
 20
-22.6043236994
 11
59.8905240459
 21
-22.6028426955
  0
LINE
  5
26B
100
AcDbEntity
  8
0
100
AcDbLine
 62
253
  6
CONTINUOUS
 10
59.7326781406
 20
-22.5280726365
 11
59.8905265722
 21
-22.5265926206
  0
LINE
  5
26C
100
AcDbEntity
  8
0
100
AcDbLine
 62
253
  6
CONTINUOUS
 10
59.5723832817
 20
-22.5285669036
 11
59.7326781406
 21
-22.5280726365
  0
LINE
  5
26D
100
AcDbEntity
  8
0
100
AcDbLine
 62
253
  6
CONTINUOUS
 10
59.5723811787
 20
-22.6048155586
 11
59.732675821
 21
-22.6043236994
  0
LINE
  5
26E
100
AcDbEntity
  8
0
100
AcDbLine
 62
7
  6
CONTINUOUS
 10
1.585207
 20
-28.318881
 11
2.381074
 21
-28.318881
  0
LINE
  5
26F
100
AcDbEntity
  8
0
100
AcDbLine
 62
7
  6
CONTINUOUS
 10
1.704751
 20
-27.886391
 11
2.26428
 21
-27.886391
  0
LINE
  5
270
100
AcDbEntity
  8
0
100
AcDbLine
 62
7
  6
CONTINUOUS
 10
3.9020753449
 20
-27.7821519248
 11
4.2154209623
 21
-27.7821519248
  0
LINE
  5
271
100
AcDbEntity
  8
0
100
AcDbLine
 62
7
  6
CONTINUOUS
 10
3.8826972541
 20
-27.3236280866
 11
4.2166806432
 21
-27.3236280866
  0
LINE
  5
272
100
AcDbEntity
  8
0
100
AcDbLine
 62
7
  6
CONTINUOUS
 10
-5.503668
 20
-26.078098
 11
-4.86882
 21
-26.078098
  0
LINE
  5
273
100
AcDbEntity
  8
0
100
AcDbLine
 62
7
  6
CONTINUOUS
 10
-3.785169
 20
-26.078098
 11
-3.20116
 21
-26.078098
  0
LINE
  5
274
100
AcDbEntity
  8
0
100
AcDbLine
 62
7
  6
CONTINUOUS
 10
-1.832475
 20
-26.078098
 11
-1.24855
 21
-26.078098
  0
LINE
  5
275
100
AcDbEntity
  8
0
100
AcDbLine
 62
7
  6
CONTINUOUS
 10
-0.085906
 20
-26.078098
 11
0.492308
 21
-26.078098
  0
LINE
  5
276
100
AcDbEntity
  8
0
100
AcDbLine
 62
7
  6
CONTINUOUS
 10
1.724045
 20
-26.078098
 11
2.28939
 21
-26.078098
  0
LINE
  5
277
100
AcDbEntity
  8
0
100
AcDbLine
 62
7
  6
CONTINUOUS
 10
-2.984285
 20
-26.07793
 11
-2.399877
 21
-26.07793
  0
LINE
  5
278
100
AcDbEntity
  8
0
100
AcDbLine
 62
253
  6
CONTINUOUS
 10
-33.1
 20
-23.9255151499
 11
33.1
 21
-23.9255151499
  0
LINE
  5
279
100
AcDbEntity
  8
0
100
AcDbLine
 62
253
  6
CONTINUOUS
 10
59.572381179
 20
-22.6048093234
 11
35.0459366909
 21
-22.6048155586
  0
LINE
  5
27A
100
AcDbEntity
  8
0
100
AcDbLine
 62
7
  6
CONTINUOUS
 10
-33.1000199327
 20
-22.55
 11
33.1000114044
 21
-22.55
  0
LINE
  5
27B
100
AcDbEntity
  8
0
100
AcDbLine
 62
253
  6
CONTINUOUS
 10
-35.0459366909
 20
-22.6048155586
 11
-59.6526818397
 21
-22.6046940974
  0
LINE
  5
27C
100
AcDbEntity
  8
0
100
AcDbLine
 62
253
  6
CONTINUOUS
 10
-59.5723832817
 20
-22.5285707642
 11
-59.7326781409
 21
-22.528076497
  0
LINE
  5
27D
100
AcDbEntity
  8
0
100
AcDbLine
 62
253
  6
CONTINUOUS
 10
-59.6526818397
 20
-22.6046940974
 11
-59.8120576129
 21
-22.6037057786
  0
LINE
  5
27E
100
AcDbEntity
  8
0
100
AcDbLine
 62
253
  6
CONTINUOUS
 10
-59.7326781409
 20
-22.528076497
 11
-59.8905265729
 21
-22.5265964809
  0
LINE
  5
27F
100
AcDbEntity
  8
0
100
AcDbLine
 62
253
  6
CONTINUOUS
 10
-59.8120576129
 20
-22.6037057786
 11
-59.9677754436
 21
-22.6017377458
  0
LINE
  5
280
100
AcDbEntity
  8
0
100
AcDbLine
 62
253
  6
CONTINUOUS
 10
-59.8905265729
 20
-22.5265964809
 11
-60.043519488
 21
-22.5241533037
  0
LINE
  5
281
100
AcDbEntity
  8
0
100
AcDbLine
 62
253
  6
CONTINUOUS
 10
-59.9677754436
 20
-22.6017377458
 11
-60.117458766
 21
-22.598820035
  0
LINE
  5
282
100
AcDbEntity
  8
0
100
AcDbLine
 62
253
  6
CONTINUOUS
 10
-60.043519488
 20
-22.5241533037
 11
-60.1893219013
 21
-22.5207842535
  0
LWPOLYLINE
  5
283
100
AcDbEntity
  8
0
100
AcDbPolyline
 62
253
  6
CONTINUOUS
 90
17
 70
0
 10
-60.117458766
 20
-22.598820035
 10
-60.2588231127
 20
-22.5949971764
 10
-60.3257055751
 20
-22.5927640327
 10
-60.3897109807
 20
-22.5903275145
 10
-60.4505948835
 20
-22.5876969272
 10
-60.508124759
 20
-22.5848823176
 10
-60.562080892
 20
-22.5818944349
 10
-60.6122572162
 20
-22.5787446903
 10
-60.6584621008
 20
-22.5754451132
 10
-60.7005190825
 20
-22.5720083052
 10
-60.7382675395
 20
-22.5684473919
 10
-60.7715633049
 20
-22.564775973
 10
-60.8002792173
 20
-22.5610080701
 10
-60.8243056064
 20
-22.5571580735
 10
-60.8435507118
 20
-22.5532406868
 10
-60.8579410338
 20
-22.5492708711
 10
-60.8674216134
 20
-22.5452637878
  0
LWPOLYLINE
  5
284
100
AcDbEntity
  8
0
100
AcDbPolyline
 62
253
  6
CONTINUOUS
 90
16
 70
0
 10
-60.1893219013
 20
-22.5207842535
 10
-60.3257085702
 20
-22.5165407487
 10
-60.3897140201
 20
-22.5141108192
 10
-60.4505979551
 20
-22.511487554
 10
-60.5081278499
 20
-22.5086809718
 10
-60.5620839888
 20
-22.5057017914
 10
-60.6122603047
 20
-22.5025613908
 10
-60.6584651665
 20
-22.4992717636
 10
-60.7005221104
 20
-22.4958454734
 10
-60.7382705144
 20
-22.4922956058
 10
-60.7715662113
 20
-22.4886357183
 10
-60.8002820397
 20
-22.4848797885
 10
-60.8243083292
 20
-22.481042161
 10
-60.8435533197
 20
-22.4771374923
 10
-60.8579435116
 20
-22.4731806948
 10
-60.8674239464
 20
-22.4691868803
  0
LWPOLYLINE
  5
285
100
AcDbEntity
  8
0
100
AcDbPolyline
 62
7
  6
CONTINUOUS
 90
10
 70
0
 10
4.34051343
 20
-26.5385722489
 10
4.2918185677
 20
-26.5336528172
 10
4.2425207602
 20
-26.5304058812
 10
4.1926200076
 20
-26.5288314481
 10
4.1420369168
 20
-26.5289092451
 10
4.0908508808
 20
-26.5306595483
 10
4.0393000787
 20
-26.5341431822
 10
3.9874639033
 20
-26.5393804148
 10
3.9352629618
 20
-26.5463509581
 10
3.8826972541
 20
-26.5550547959
  0
LWPOLYLINE
  5
286
100
AcDbEntity
  8
0
100
AcDbPolyline
 62
7
  6
CONTINUOUS
 90
3
 70
0
 10
4.8225031649
 20
-27.5709244369
 10
4.8503150606
 20
-27.5842835948
 10
4.8762573613
 20
-27.5990568942
  0
LWPOLYLINE
  5
287
100
AcDbEntity
  8
0
100
AcDbPolyline
 62
253
  6
CONTINUOUS
 90
18
 70
0
 10
-33.8413075058
 20
22.0507660712
 10
-33.8424430362
 20
22.0555498285
 10
-33.8488567437
 20
22.062456108
 10
-33.8605204994
 20
22.0714546206
 10
-33.8773831493
 20
22.0825059015
 10
-33.8993707384
 20
22.0955614826
 10
-33.9263868351
 20
22.1105641058
 10
-33.9583129541
 20
22.1274479737
 10
-33.995009076
 20
22.1461390382
 10
-34.0363142616
 20
22.1665553254
 10
-34.0820473576
 20
22.1886072952
 10
-34.1320077909
 20
22.2121982335
 10
-34.1859764488
 20
22.2372246768
 10
-34.2437166391
 20
22.2635768662
 10
-34.3049751292
 20
22.291139228
 10
-34.3694832559
 20
22.3197908812
 10
-34.436958104
 20
22.3494061675
 10
-34.5796125455
 20
22.4110044443
  0
LINE
  5
288
100
AcDbEntity
  8
0
100
AcDbLine
 62
253
  6
CONTINUOUS
 10
-34.4777586949
 20
-21.8023953716
 11
-34.6250247008
 21
-21.8065167746
  0
LINE
  5
289
100
AcDbEntity
  8
0
100
AcDbLine
 62
253
  6
CONTINUOUS
 10
-34.6250247008
 20
-21.8065167746
 11
-34.7821286936
 21
-21.8096711598
  0
LINE
  5
28A
100
AcDbEntity
  8
0
100
AcDbLine
 62
253
  6
CONTINUOUS
 10
-34.7821286936
 20
-21.8096711598
 11
-34.9463825804
 21
-21.8118045549
  0
LWPOLYLINE
  5
28B
100
AcDbEntity
  8
0
100
AcDbPolyline
 62
253
  6
CONTINUOUS
 90
3
 70
0
 10
-34.9463825804
 20
-21.8118045549
 10
-35.1149759317
 20
-21.812880457
 10
-35.2
 20
-21.8130153778
  0
LINE
  5
28C
100
AcDbEntity
  8
0
100
AcDbLine
 62
253
  6
CONTINUOUS
 10
60.8674239465
 20
-22.4691830293
 11
61.0
 21
-22.4691783918
  0
LINE
  5
28D
100
AcDbEntity
  8
0
100
AcDbLine
 62
253
  6
CONTINUOUS
 10
-60.8674239464
 20
-22.4691868803
 11
-61.0
 21
-22.4691866652
  0
LINE
  5
28E
100
AcDbEntity
  8
0
100
AcDbLine
 62
253
  6
CONTINUOUS
 10
35.0303159361
 20
-21.8124762725
 11
35.2
 21
-21.8130153778
  0
LINE
  5
28F
100
AcDbEntity
  8
0
100
AcDbLine
 62
253
  6
CONTINUOUS
 10
34.8635352168
 20
-21.8108681807
 11
35.0303159361
 21
-21.8124762725
  0
LINE
  5
290
100
AcDbEntity
  8
0
100
AcDbLine
 62
253
  6
CONTINUOUS
 10
34.7025115068
 20
-21.8082186173
 11
34.8635352168
 21
-21.8108681807
  0
LWPOLYLINE
  5
291
100
AcDbEntity
  8
0
100
AcDbPolyline
 62
7
  6
CONTINUOUS
 90
45
 70
0
 10
4.7628651691
 20
-26.1405068851
 10
4.7961744924
 20
-26.1541240961
 10
4.8296721066
 20
-26.1707349534
 10
4.8633580115
 20
-26.1903393933
 10
4.8974261469
 20
-26.2128000148
 10
4.931682573
 20
-26.238254059
 10
4.9655454707
 20
-26.267113393
 10
4.9993095753
 20
-26.2995317521
 10
5.0326801515
 20
-26.3353551252
 10
5.0641911737
 20
-26.3745337255
 10
5.093892986
 20
-26.4177064709
 10
5.1217352443
 20
-26.4642340554
 10
5.1461008917
 20
-26.5121494536
 10
5.166421559
 20
-26.561560067
 10
5.1832656153
 20
-26.6123583031
 10
5.1967211105
 20
-26.6622549142
 10
5.2064511279
 20
-26.7107529901
 10
5.2127925843
 20
-26.7583495724
 10
5.21684428
 20
-26.8042465437
 10
5.2187590699
 20
-26.8481741916
 10
5.2183840991
 20
-26.8904024389
 10
5.2163596035
 20
-26.9309426672
 10
5.2127522238
 20
-26.9697735375
 10
5.2074953192
 20
-27.0069165676
 10
5.2010292036
 20
-27.0424474149
 10
5.1933715519
 20
-27.0763539067
 10
5.1845046892
 20
-27.108648367
 10
5.174815905
 20
-27.1394431846
 10
5.1643297855
 20
-27.1687330487
 10
5.1530217446
 20
-27.196523393
 10
5.1412053127
 20
-27.2229427088
 10
5.1289190172
 20
-27.2479841833
 10
5.1161243309
 20
-27.2716547267
 10
5.1030192029
 20
-27.2941034004
 10
5.0896149662
 20
-27.3153424887
 10
5.0759002879
 20
-27.3353597813
 10
5.0620391185
 20
-27.354267587
 10
5.0480244204
 20
-27.3720336313
 10
5.0338632311
 20
-27.3886902461
 10
5.0197406137
 20
-27.4044466406
 10
5.0056623155
 20
-27.4193007059
 10
4.9916225892
 20
-27.4332545895
 10
4.9777892555
 20
-27.4465238735
 10
4.9641905567
 20
-27.4591230815
 10
4.9507982505
 20
-27.4710377147
  0
LWPOLYLINE
  5
292
100
AcDbEntity
  8
0
100
AcDbPolyline
 62
7
  6
CONTINUOUS
 90
22
 70
0
 10
4.8762573613
 20
-27.5990568942
 10
4.9003300671
 20
-27.6152443049
 10
4.9224060571
 20
-27.6331135061
 10
4.9426124521
 20
-27.6523967446
 10
4.961330615
 20
-27.6722908595
 10
4.9785435324
 20
-27.6926394687
 10
4.9942682175
 20
-27.7135989213
 10
5.0089370729
 20
-27.7348351843
 10
5.0226089204
 20
-27.756309751
 10
5.0352249381
 20
-27.7780611111
 10
5.0470410623
 20
-27.7998707436
 10
5.0580859825
 20
-27.8217179827
 10
5.0683310092
 20
-27.8436234901
 10
5.0779460106
 20
-27.8654307477
 10
5.0869378409
 20
-27.8870976604
 10
5.095299646
 20
-27.9086663297
 10
5.1031807316
 20
-27.9301065384
 10
5.110574452
 20
-27.9513818178
 10
5.117487453
 20
-27.9725286447
 10
5.1240889779
 20
-27.9936262178
 10
5.1303656798
 20
-28.0146726184
 10
5.1363309057
 20
-28.0356697677
  0
LWPOLYLINE
  5
293
100
AcDbEntity
  8
0
100
AcDbPolyline
 62
253
  6
CONTINUOUS
 90
16
 70
0
 10
-33.9
 20
-21.75
 10
-33.9027833998
 20
-21.7541214029
 10
-33.9111216801
 20
-21.7582251573
 10
-33.9249791352
 20
-21.7622936903
 10
-33.9442964253
 20
-21.7663095798
 10
-33.9689908309
 20
-21.7702556292
 10
-33.9989566068
 20
-21.7741149409
 10
-34.0340654348
 20
-21.7778709888
 10
-34.0741669736
 20
-21.7815076888
 10
-34.1190895023
 20
-21.785009468
 10
-34.1686406558
 20
-21.7883613313
 10
-34.2226082483
 20
-21.7915489255
 10
-34.2807611823
 20
-21.7945586008
 10
-34.3428504382
 20
-21.7973774694
 10
-34.4086101401
 20
-21.7999934604
 10
-34.4777586949
 20
-21.8023953716
  0
LWPOLYLINE
  5
294
100
AcDbEntity
  8
0
100
AcDbPolyline
 62
253
  6
CONTINUOUS
 90
18
 70
0
 10
-33.9
 20
21.75
 10
-33.9027833993
 20
21.7541214026
 10
-33.9111216783
 20
21.7582251567
 10
-33.9249791313
 20
21.7622936895
 10
-33.9442964186
 20
21.7663095788
 10
-33.9689908208
 20
21.7702556281
 10
-33.9989565927
 20
21.7741149396
 10
-34.0340654165
 20
21.7778709873
 10
-34.0741669509
 20
21.7815076872
 10
-34.1190894751
 20
21.7850094664
 10
-34.1686406242
 20
21.7883613297
 10
-34.2226082127
 20
21.7915489239
 10
-34.2807611432
 20
21.7945585993
 10
-34.3428503962
 20
21.797377468
 10
-34.408610096
 20
21.7999934591
 10
-34.4777586497
 20
21.8023953706
 10
-34.5499999527
 20
21.804572917
 10
-34.7025114944
 20
21.8082186172
  0
LINE
  5
295
100
AcDbEntity
  8
0
100
AcDbLine
 62
7
  6
CONTINUOUS
 10
-5.503668
 20
-26.078098
 11
-4.616107
 21
-28.877801
  0
LINE
  5
296
100
AcDbEntity
  8
0
100
AcDbLine
 62
7
  6
CONTINUOUS
 10
-4.86882
 20
-26.078098
 11
-4.335146
 21
-28.00522
  0
LINE
  5
297
100
AcDbEntity
  8
0
100
AcDbLine
 62
253
  6
CONTINUOUS
 10
34.3694836667
 20
22.3197911688
 11
34.5071040133
 21
22.3798554448
  0
LINE
  5
298
100
AcDbEntity
  8
0
100
AcDbLine
 62
253
  6
CONTINUOUS
 10
34.5071040133
 20
22.3798554448
 11
34.6541666383
 21
22.4427174866
  0
LINE
  5
299
100
AcDbEntity
  8
0
100
AcDbLine
 62
253
  6
CONTINUOUS
 10
34.6541666383
 20
22.4427174866
 11
34.8080944718
 21
22.5072757236
  0
LWPOLYLINE
  5
29A
100
AcDbEntity
  8
0
100
AcDbPolyline
 62
253
  6
CONTINUOUS
 90
3
 70
0
 10
34.8080944718
 20
22.5072757236
 10
34.9661901405
 20
22.5723988617
 10
35.0459366909
 20
22.6048154853
  0
LINE
  5
29B
100
AcDbEntity
  8
0
100
AcDbLine
 62
253
  6
CONTINUOUS
 10
34.8867933045
 20
-22.5398378043
 11
35.045936691
 21
-22.604815283
  0
LINE
  5
29C
100
AcDbEntity
  8
0
100
AcDbLine
 62
253
  6
CONTINUOUS
 10
34.7304386087
 20
-22.474854597
 11
34.8867933045
 21
-22.5398378043
  0
LINE
  5
29D
100
AcDbEntity
  8
0
100
AcDbLine
 62
253
  6
CONTINUOUS
 10
34.5796125149
 20
-22.4110044067
 11
34.7304386087
 21
-22.474854597
  0
LWPOLYLINE
  5
29E
100
AcDbEntity
  8
0
100
AcDbPolyline
 62
7
  6
CONTINUOUS
 90
19
 70
0
 10
4.5414020599
 20
-28.0286629469
 10
4.5320538816
 20
-28.0057207788
 10
4.5215520961
 20
-27.9834913392
 10
4.5098967033
 20
-27.9619746517
 10
4.4970658799
 20
-27.9410684033
 10
4.4830814492
 20
-27.9208749503
 10
4.468008881
 20
-27.9017013289
 10
4.4518602682
 20
-27.883522904
 10
4.4346235179
 20
-27.8663643668
 10
4.4163278217
 20
-27.8506067583
 10
4.3968906399
 20
-27.8362563853
 10
4.3763945123
 20
-27.8233070032
 10
4.3551162496
 20
-27.8121208385
 10
4.3330056959
 20
-27.8028410683
 10
4.3101130072
 20
-27.7953245697
 10
4.2868654616
 20
-27.7895041181
 10
4.2634054853
 20
-27.7853573134
 10
4.2395906522
 20
-27.7829065803
 10
4.2154209623
 20
-27.7821519248
  0
LINE
  5
29F
100
AcDbEntity
  8
0
100
AcDbLine
 62
7
  6
CONTINUOUS
 10
-1.400068
 20
-27.049647
 11
-0.714487
 21
-28.877801
  0
LINE
  5
2A0
100
AcDbEntity
  8
0
100
AcDbLine
 62
7
  6
CONTINUOUS
 10
-1.24855
 20
-26.078098
 11
-0.670314
 21
-27.632502
  0
LINE
  5
2A1
100
AcDbEntity
  8
0
100
AcDbLine
 62
7
  6
CONTINUOUS
 10
2.28939
 20
-26.078098
 11
3.148408
 21
-28.877801
  0
LINE
  5
2A2
100
AcDbEntity
  8
0
100
AcDbLine
 62
7
  6
CONTINUOUS
 10
2.381074
 20
-28.318881
 11
2.532466
 21
-28.877801
  0
LINE
  5
2A3
100
AcDbEntity
  8
0
100
AcDbLine
 62
7
  6
CONTINUOUS
 10
0.492308
 20
-26.078098
 11
0.754112
 21
-28.877801
  0
LINE
  5
2A4
100
AcDbEntity
  8
0
100
AcDbLine
 62
7
  6
CONTINUOUS
 10
0.062337
 20
-27.057269
 11
0.182406
 21
-28.877801
  0
LINE
  5
2A5
100
AcDbEntity
  8
0
100
AcDbLine
 62
7
  6
CONTINUOUS
 10
-2.984285
 20
-26.07793
 11
-2.984285
 21
-28.877801
  0
LINE
  5
2A6
100
AcDbEntity
  8
0
100
AcDbLine
 62
7
  6
CONTINUOUS
 10
-2.399877
 20
-26.07793
 11
-2.399877
 21
-28.877801
  0
LINE
  5
2A7
100
AcDbEntity
  8
0
100
AcDbLine
 62
7
  6
CONTINUOUS
 10
-1.400068
 20
-27.049647
 11
-1.526183
 21
-28.877801
  0
LINE
  5
2A8
100
AcDbEntity
  8
0
100
AcDbLine
 62
7
  6
CONTINUOUS
 10
-1.832475
 20
-26.078098
 11
-2.085272
 21
-28.877801
  0
LWPOLYLINE
  5
2A9
100
AcDbEntity
  8
0
100
AcDbPolyline
 62
7
  6
CONTINUOUS
 90
8
 70
0
 10
4.6309598492
 20
-28.3034331709
 10
4.6192756727
 20
-28.2638696463
 10
4.6073351035
 20
-28.2244142045
 10
4.5951379158
 20
-28.1850718857
 10
4.5824676624
 20
-28.1458271479
 10
4.569252194
 20
-28.1066748151
 10
4.5555636598
 20
-28.0676200788
 10
4.5414020599
 20
-28.0286629469
  0
LINE
  5
2AA
100
AcDbEntity
  8
0
100
AcDbLine
 62
7
  6
CONTINUOUS
 10
4.7970156219
 20
-28.8778013544
 11
4.6995517816
 21
-28.543740219
  0
LWPOLYLINE
  5
2AB
100
AcDbEntity
  8
0
100
AcDbPolyline
 62
7
  6
CONTINUOUS
 90
4
 70
0
 10
4.6995517816
 20
-28.543740219
 10
4.6764518869
 20
-28.4629953125
 10
4.6651334261
 20
-28.4228908825
 10
4.6309598492
 20
-28.3034331709
  0
LWPOLYLINE
  5
2AC
100
AcDbEntity
  8
0
100
AcDbPolyline
 62
7
  6
CONTINUOUS
 90
3
 70
0
 10
5.1363309057
 20
-28.0356697677
 10
5.1480245425
 20
-28.0777994905
 10
5.1537529535
 20
-28.0989320604
  0
LINE
  5
2AD
100
AcDbEntity
  8
0
100
AcDbLine
 62
7
  6
CONTINUOUS
 10
5.1537529535
 20
-28.0989320604
 11
5.2289097352
 21
-28.3807786559
  0
LINE
  5
2AE
100
AcDbEntity
  8
0
100
AcDbLine
 62
7
  6
CONTINUOUS
 10
5.2289097352
 20
-28.3807786559
 11
5.3591482119
 21
-28.8778013544
  0
LINE
  5
2AF
100
AcDbEntity
  8
0
100
AcDbLine
 62
7
  6
CONTINUOUS
 10
1.995737
 20
-26.847385
 11
2.26428
 21
-27.886391
  0
LWPOLYLINE
  5
2B0
100
AcDbEntity
  8
0
100
AcDbPolyline
 62
7
  6
CONTINUOUS
 90
19
 70
0
 10
4.6706521441
 20
-26.8887857334
 10
4.6691860039
 20
-26.8617083042
 10
4.665569518
 20
-26.8347818271
 10
4.6598026865
 20
-26.8080063083
 10
4.6519434795
 20
-26.7812145416
 10
4.6419339268
 20
-26.7545737414
 10
4.6296001177
 20
-26.7285855631
 10
4.6148143052
 20
-26.70306417
 10
4.5977042362
 20
-26.6781954408
 10
4.5784792406
 20
-26.6550386547
 10
4.5569140625
 20
-26.6337954538
 10
4.5332339578
 20
-26.6142643023
 10
4.5083240238
 20
-26.5968997533
 10
4.4822679884
 20
-26.5818737411
 10
4.4549821237
 20
-26.5690144275
 10
4.4271003441
 20
-26.5582607086
 10
4.3988339544
 20
-26.5495922339
 10
4.3699716497
 20
-26.5430294079
 10
4.34051343
 20
-26.5385722489
  0
LINE
  5
2B1
100
AcDbEntity
  8
0
100
AcDbLine
 62
7
  6
CONTINUOUS
 10
3.3200188023
 20
-26.110807341
 11
3.3200188023
 21
-28.8778013544
  0
LINE
  5
2B2
100
AcDbEntity
  8
0
100
AcDbLine
 62
7
  6
CONTINUOUS
 10
3.8826972541
 20
-26.5550547959
 11
3.8826972541
 21
-27.3236280866
  0
LINE
  5
2B3
100
AcDbEntity
  8
0
100
AcDbLine
 62
7
  6
CONTINUOUS
 10
3.9020753449
 20
-27.7821519248
 11
3.9020753449
 21
-28.8778013544
  0
LINE
  5
2B4
100
AcDbEntity
  8
0
100
AcDbLine
 62
7
  6
CONTINUOUS
 10
4.8225031649
 20
-27.554380628
 11
4.8225031649
 21
-27.5709244369
  0
LINE
  5
2B5
100
AcDbEntity
  8
0
100
AcDbLine
 62
7
  6
CONTINUOUS
 10
-3.785169
 20
-26.078098
 11
-4.335146
 21
-28.00522
  0
LINE
  5
2B6
100
AcDbEntity
  8
0
100
AcDbLine
 62
7
  6
CONTINUOUS
 10
-3.20116
 20
-26.078098
 11
-4.101097
 21
-28.877801
  0
LINE
  5
2B7
100
AcDbEntity
  8
0
100
AcDbLine
 62
7
  6
CONTINUOUS
 10
1.995737
 20
-26.847385
 11
1.704751
 21
-27.886391
  0
LINE
  5
2B8
100
AcDbEntity
  8
0
100
AcDbLine
 62
7
  6
CONTINUOUS
 10
1.585207
 20
-28.318881
 11
1.423947
 21
-28.877801
  0
LINE
  5
2B9
100
AcDbEntity
  8
0
100
AcDbLine
 62
7
  6
CONTINUOUS
 10
1.724045
 20
-26.078098
 11
0.84588
 21
-28.877801
  0
LINE
  5
2BA
100
AcDbEntity
  8
0
100
AcDbLine
 62
7
  6
CONTINUOUS
 10
-0.085906
 20
-26.078098
 11
-0.670314
 21
-27.632502
  0
LINE
  5
2BB
100
AcDbEntity
  8
0
100
AcDbLine
 62
7
  6
CONTINUOUS
 10
0.062337
 20
-27.057269
 11
-0.632524
 21
-28.877801
  0
LINE
  5
2BC
100
AcDbEntity
  8
0
100
AcDbLine
 62
253
  6
CONTINUOUS
 10
-34.3694836818
 20
-22.3197911794
 11
-34.5071040233
 21
-22.3798554539
  0
LINE
  5
2BD
100
AcDbEntity
  8
0
100
AcDbLine
 62
253
  6
CONTINUOUS
 10
-34.5071040233
 20
-22.3798554539
 11
-34.6541666439
 21
-22.4427174945
  0
LINE
  5
2BE
100
AcDbEntity
  8
0
100
AcDbLine
 62
253
  6
CONTINUOUS
 10
-34.6541666439
 20
-22.4427174945
 11
-34.808094474
 21
-22.5072757308
  0
LWPOLYLINE
  5
2BF
100
AcDbEntity
  8
0
100
AcDbPolyline
 62
253
  6
CONTINUOUS
 90
3
 70
0
 10
-34.808094474
 20
-22.5072757308
 10
-34.9661901408
 20
-22.5723988688
 10
-35.0459366909
 20
-22.6048154925
  0
LINE
  5
2C0
100
AcDbEntity
  8
0
100
AcDbLine
 62
253
  6
CONTINUOUS
 10
-34.8867933079
 20
22.5398378348
 11
-35.045936691
 21
22.6048153137
  0
LINE
  5
2C1
100
AcDbEntity
  8
0
100
AcDbLine
 62
253
  6
CONTINUOUS
 10
-34.7304386228
 20
22.4748546301
 11
-34.8867933079
 21
22.5398378348
  0
LINE
  5
2C2
100
AcDbEntity
  8
0
100
AcDbLine
 62
253
  6
CONTINUOUS
 10
-34.5796125455
 20
22.4110044443
 11
-34.7304386228
 21
22.4748546301
  0
LWPOLYLINE
  5
2C3
100
AcDbEntity
  8
0
100
AcDbPolyline
 62
253
  6
CONTINUOUS
 90
16
 70
0
 10
33.9
 20
21.75
 10
33.9027833998
 20
21.7541214029
 10
33.9111216801
 20
21.7582251573
 10
33.9249791352
 20
21.7622936903
 10
33.9442964253
 20
21.7663095798
 10
33.9689908309
 20
21.7702556292
 10
33.9989566068
 20
21.7741149409
 10
34.0340654348
 20
21.7778709888
 10
34.0741669736
 20
21.7815076888
 10
34.1190895023
 20
21.785009468
 10
34.1686406558
 20
21.7883613313
 10
34.2226082483
 20
21.7915489255
 10
34.2807611823
 20
21.7945586008
 10
34.3428504382
 20
21.7973774694
 10
34.4086101401
 20
21.7999934604
 10
34.4777586949
 20
21.8023953716
  0
LWPOLYLINE
  5
2C4
100
AcDbEntity
  8
0
100
AcDbPolyline
 62
253
  6
CONTINUOUS
 90
18
 70
0
 10
33.9
 20
-21.75
 10
33.9027833994
 20
-21.7541214027
 10
33.9111216789
 20
-21.7582251569
 10
33.9249791325
 20
-21.7622936897
 10
33.9442964207
 20
-21.7663095791
 10
33.9689908239
 20
-21.7702556284
 10
33.998956597
 20
-21.77411494
 10
34.0340654221
 20
-21.7778709878
 10
34.0741669578
 20
-21.7815076877
 10
34.1190894834
 20
-21.7850094669
 10
34.1686406338
 20
-21.7883613302
 10
34.2226082234
 20
-21.7915489244
 10
34.280761155
 20
-21.7945585998
 10
34.3428504088
 20
-21.7973774684
 10
34.4086101092
 20
-21.7999934595
 10
34.4777586632
 20
-21.8023953709
 10
34.5499999662
 20
-21.8045729173
 10
34.7025115068
 20
-21.8082186173
  0
LWPOLYLINE
  5
2C5
100
AcDbEntity
  8
0
100
AcDbPolyline
 62
7
  6
CONTINUOUS
 90
10
 70
0
 10
4.9507982505
 20
-27.4710377147
 10
4.9249762562
 20
-27.4934123383
 10
4.9125465681
 20
-27.503872344
 10
4.9002069853
 20
-27.5137430022
 10
4.8880821503
 20
-27.5232230387
 10
4.8760474206
 20
-27.532113742
 10
4.863529488
 20
-27.5397421377
 10
4.8503372498
 20
-27.5458839128
 10
4.8366618088
 20
-27.5507634067
 10
4.8225031649
 20
-27.554380628
  0
LINE
  5
2C6
100
AcDbEntity
  8
0
100
AcDbLine
 62
253
  6
CONTINUOUS
 10
34.4777586949
 20
21.8023953716
 11
34.6250247008
 21
21.8065167746
  0
LINE
  5
2C7
100
AcDbEntity
  8
0
100
AcDbLine
 62
253
  6
CONTINUOUS
 10
-60.0435194868
 20
22.5241488805
 11
-60.1893218998
 21
22.5207798309
  0
LINE
  5
2C8
100
AcDbEntity
  8
0
100
AcDbLine
 62
253
  6
CONTINUOUS
 10
-60.0435167736
 20
22.60039515
 11
-60.1893190284
 21
22.5970184171
  0
LINE
  5
2C9
100
AcDbEntity
  8
0
100
AcDbLine
 62
253
  6
CONTINUOUS
 10
34.6250247008
 20
21.8065167746
 11
34.7821286936
 21
21.8096711598
  0
LINE
  5
2CA
100
AcDbEntity
  8
0
100
AcDbLine
 62
253
  6
CONTINUOUS
 10
-59.8905265722
 20
22.5265920572
 11
-60.0435194868
 21
22.5241488805
  0
LINE
  5
2CB
100
AcDbEntity
  8
0
100
AcDbLine
 62
253
  6
CONTINUOUS
 10
-59.8905240459
 20
22.6028426955
 11
-60.0435167736
 21
22.60039515
  0
LINE
  5
2CC
100
AcDbEntity
  8
0
100
AcDbLine
 62
253
  6
CONTINUOUS
 10
34.7821286936
 20
21.8096711598
 11
34.9463825804
 21
21.8118045549
  0
LINE
  5
2CD
100
AcDbEntity
  8
0
100
AcDbLine
 62
253
  6
CONTINUOUS
 10
-59.7326781406
 20
22.5280720731
 11
-59.8905265722
 21
22.5265920572
  0
LINE
  5
2CE
100
AcDbEntity
  8
0
100
AcDbLine
 62
253
  6
CONTINUOUS
 10
-59.732675821
 20
22.6043236994
 11
-59.8905240459
 21
22.6028426955
  0
LWPOLYLINE
  5
2CF
100
AcDbEntity
  8
0
100
AcDbPolyline
 62
253
  6
CONTINUOUS
 90
3
 70
0
 10
34.9463825804
 20
21.8118045549
 10
35.1149759317
 20
21.812880457
 10
35.2
 20
21.8130153778
  0
LINE
  5
2D0
100
AcDbEntity
  8
0
100
AcDbLine
 62
253
  6
CONTINUOUS
 10
-59.5723832818
 20
22.5285663402
 11
-59.7326781406
 21
22.5280720731
  0
LINE
  5
2D1
100
AcDbEntity
  8
0
100
AcDbLine
 62
253
  6
CONTINUOUS
 10
-59.5723811787
 20
22.6048155586
 11
-59.732675821
 21
22.6043236994
  0
LINE
  5
2D2
100
AcDbEntity
  8
0
100
AcDbLine
 62
253
  6
CONTINUOUS
 10
60.8674239464
 20
22.4691866652
 11
61.0
 21
22.4691866652
  0
LINE
  5
2D3
100
AcDbEntity
  8
0
100
AcDbLine
 62
253
  6
CONTINUOUS
 10
-60.8674239465
 20
22.4691824673
 11
-61.0
 21
22.4691771128
  0
LINE
  5
2D4
100
AcDbEntity
  8
0
100
AcDbLine
 62
7
  6
CONTINUOUS
 10
-33.1
 20
22.55
 11
33.1
 21
22.55
  0
LINE
  5
2D5
100
AcDbEntity
  8
0
100
AcDbLine
 62
253
  6
CONTINUOUS
 10
-35.0459366909
 20
22.6048155586
 11
-59.5723811789
 21
22.6048094875
  0
LINE
  5
2D6
100
AcDbEntity
  8
0
100
AcDbLine
 62
253
  6
CONTINUOUS
 10
33.1
 20
23.9255151499
 11
-33.1
 21
23.9255151499
  0
LINE
  5
2D7
100
AcDbEntity
  8
0
100
AcDbLine
 62
253
  6
CONTINUOUS
 10
35.0459366909
 20
22.6048155586
 11
59.6526818397
 21
22.6046940974
  0
LINE
  5
2D8
100
AcDbEntity
  8
0
100
AcDbLine
 62
253
  6
CONTINUOUS
 10
59.5723832817
 20
22.5285705486
 11
59.7326781409
 21
22.5280762814
  0
LINE
  5
2D9
100
AcDbEntity
  8
0
100
AcDbLine
 62
253
  6
CONTINUOUS
 10
-35.0303159305
 20
21.8124762725
 11
-35.2
 21
21.8130153778
  0
LINE
  5
2DA
100
AcDbEntity
  8
0
100
AcDbLine
 62
253
  6
CONTINUOUS
 10
59.6526818397
 20
22.6046940974
 11
59.8120576129
 21
22.6037057786
  0
LINE
  5
2DB
100
AcDbEntity
  8
0
100
AcDbLine
 62
253
  6
CONTINUOUS
 10
59.7326781409
 20
22.5280762814
 11
59.890526573
 21
22.5265962653
  0
LINE
  5
2DC
100
AcDbEntity
  8
0
100
AcDbLine
 62
253
  6
CONTINUOUS
 10
-34.863535207
 20
21.8108681806
 11
-35.0303159305
 21
21.8124762725
  0
LINE
  5
2DD
100
AcDbEntity
  8
0
100
AcDbLine
 62
253
  6
CONTINUOUS
 10
59.8120576129
 20
22.6037057786
 11
59.9677754437
 21
22.6017377458
  0
LINE
  5
2DE
100
AcDbEntity
  8
0
100
AcDbLine
 62
253
  6
CONTINUOUS
 10
59.890526573
 20
22.5265962653
 11
60.043519488
 21
22.5241530881
  0
LINE
  5
2DF
100
AcDbEntity
  8
0
100
AcDbLine
 62
253
  6
CONTINUOUS
 10
-34.7025114944
 20
21.8082186172
 11
-34.863535207
 21
21.8108681806
  0
LWPOLYLINE
  5
2E0
100
AcDbEntity
  8
0
100
AcDbPolyline
 62
253
  6
CONTINUOUS
 90
3
 70
0
 10
59.9677754437
 20
22.6017377458
 10
60.117458766
 20
22.598820035
 10
60.1893190276
 20
22.597018417
  0
LINE
  5
2E1
100
AcDbEntity
  8
0
100
AcDbLine
 62
253
  6
CONTINUOUS
 10
60.043519488
 20
22.5241530881
 11
60.1893219013
 21
22.5207840379
  0
LWPOLYLINE
  5
2E2
100
AcDbEntity
  8
0
100
AcDbPolyline
 62
253
  6
CONTINUOUS
 90
16
 70
0
 10
33.8413087425
 20
22.050766573
 10
33.8424442639
 20
22.0555503351
 10
33.8488579536
 20
22.0624566159
 10
33.860521683
 20
22.0714551263
 10
33.8773842984
 20
22.0825064015
 10
33.899371845
 20
22.0955619738
 10
33.9263878918
 20
22.1105645851
 10
33.9583139541
 20
22.1274484383
 10
33.9950100134
 20
22.1461394856
 10
34.0363151313
 20
22.1665557535
 10
34.0820481552
 20
22.188607702
 10
34.1320085132
 20
22.2121986176
 10
34.1859770935
 20
22.2372250373
 10
34.2437172053
 20
22.2635772023
 10
34.304975617
 20
22.2911395397
 10
34.3694836667
 20
22.3197911688
  0
LWPOLYLINE
  5
2E3
100
AcDbEntity
  8
0
100
AcDbPolyline
 62
253
  6
CONTINUOUS
 90
15
 70
0
 10
-60.3257055761
 20
22.5927640328
 10
-60.3897109818
 20
22.5903275146
 10
-60.4505948847
 20
22.5876969273
 10
-60.5081247602
 20
22.5848823177
 10
-60.5620808932
 20
22.581894435
 10
-60.6122572174
 20
22.5787446904
 10
-60.6584621019
 20
22.5754451133
 10
-60.7005190835
 20
22.5720083053
 10
-60.7382675405
 20
22.5684473919
 10
-60.7715633058
 20
22.564775973
 10
-60.8002792181
 20
22.5610080701
 10
-60.8243056071
 20
22.5571580735
 10
-60.8435507124
 20
22.5532406868
 10
-60.8579410342
 20
22.5492708711
 10
-60.8674216137
 20
22.5452637878
  0
LWPOLYLINE
  5
2E4
100
AcDbEntity
  8
0
100
AcDbPolyline
 62
253
  6
CONTINUOUS
 90
15
 70
0
 10
-60.3257085684
 20
22.5165363269
 10
-60.3897140183
 20
22.5141063979
 10
-60.4505979532
 20
22.5114831332
 10
-60.508127848
 20
22.5086765516
 10
-60.5620839869
 20
22.5056973718
 10
-60.6122603028
 20
22.5025569717
 10
-60.6584651646
 20
22.4992673452
 10
-60.7005221086
 20
22.4958410557
 10
-60.7382705127
 20
22.4922911887
 10
-60.7715662097
 20
22.4886313019
 10
-60.8002820383
 20
22.4848753729
 10
-60.824308328
 20
22.4810377461
 10
-60.8435533188
 20
22.4771330782
 10
-60.8579435109
 20
22.4731762815
 10
-60.867423946
 20
22.4691824678
  0
LINE
  5
2E5
100
AcDbEntity
  8
0
100
AcDbLine
 62
253
  6
CONTINUOUS
 10
-60.1893218998
 20
22.5207798309
 11
-60.3257085684
 21
22.5165363269
  0
LINE
  5
2E6
100
AcDbEntity
  8
0
100
AcDbLine
 62
253
  6
CONTINUOUS
 10
-60.1893190284
 20
22.5970184171
 11
-60.3257055761
 21
22.5927640328
  0
LWPOLYLINE
  5
2E7
100
AcDbEntity
  8
0
100
AcDbPolyline
 62
253
  6
CONTINUOUS
 90
25
 70
0
 10
-33.1
 20
23.9255151499
 10
-33.2014127583
 20
23.9231185196
 10
-33.3025189542
 20
23.915720903
 10
-33.4033185877
 20
23.9033222617
 10
-33.5040394767
 20
23.8859400143
 10
-33.6044538033
 20
23.8635565882
 10
-33.7038781139
 20
23.8361194182
 10
-33.8024448486
 20
23.8035239854
 10
-33.9000215673
 20
23.765874496
 10
-33.9955274965
 20
23.7234314436
 10
-34.0888684581
 20
23.6761462265
 10
-34.1801386303
 20
23.6240670136
 10
-34.2685397745
 20
23.5675994537
 10
-34.3540317274
 20
23.5066995023
 10
-34.4366546523
 20
23.4414107011
 10
-34.5157308005
 20
23.37227011
 10
-34.5912297402
 20
23.2992237828
 10
-34.6631819034
 20
23.2223251521
 10
-34.7310008371
 20
23.1422724169
 10
-34.7946394656
 20
23.0590126135
 10
-34.8541448648
 20
22.9725982495
 10
-34.9090718094
 20
22.883885845
 10
-34.9592718911
 20
22.7931608274
 10
-35.0048935183
 20
22.7001374541
 10
-35.0459366909
 20
22.6048155586
  0
LWPOLYLINE
  5
2E8
100
AcDbEntity
  8
0
100
AcDbPolyline
 62
253
  6
CONTINUOUS
 90
16
 70
0
 10
60.1893219013
 20
22.5207840379
 10
60.3257085702
 20
22.5165405332
 10
60.3897140201
 20
22.5141106037
 10
60.4505979551
 20
22.5114873385
 10
60.5081278499
 20
22.5086807564
 10
60.5620839888
 20
22.505701576
 10
60.6122603047
 20
22.5025611754
 10
60.6584651665
 20
22.4992715482
 10
60.7005221104
 20
22.4958452581
 10
60.7382705144
 20
22.4922953905
 10
60.7715662113
 20
22.488635503
 10
60.8002820397
 20
22.4848795733
 10
60.8243083292
 20
22.4810419458
 10
60.8435533197
 20
22.4771372771
 10
60.8579435116
 20
22.4731804797
 10
60.8674239464
 20
22.4691866652
  0
LWPOLYLINE
  5
2E9
100
AcDbEntity
  8
0
100
AcDbPolyline
 62
253
  6
CONTINUOUS
 90
16
 70
0
 10
60.1893190276
 20
22.597018417
 10
60.3257055752
 20
22.5927640327
 10
60.3897109808
 20
22.5903275145
 10
60.4505948837
 20
22.5876969272
 10
60.5081247591
 20
22.5848823176
 10
60.5620808922
 20
22.5818944349
 10
60.6122572163
 20
22.5787446903
 10
60.6584621009
 20
22.5754451132
 10
60.7005190826
 20
22.5720083052
 10
60.7382675396
 20
22.5684473919
 10
60.771563305
 20
22.564775973
 10
60.8002792174
 20
22.5610080701
 10
60.8243056064
 20
22.5571580735
 10
60.8435507119
 20
22.5532406868
 10
60.8579410338
 20
22.5492708711
 10
60.8674216135
 20
22.5452637878
  0
LWPOLYLINE
  5
2EA
100
AcDbEntity
  8
0
100
AcDbPolyline
 62
253
  6
CONTINUOUS
 90
18
 70
0
 10
33.8413073172
 20
-22.0507659946
 10
33.842442849
 20
-22.055549751
 10
33.8488565592
 20
-22.0624560301
 10
33.860520319
 20
-22.0714545429
 10
33.8773829742
 20
-22.0825058244
 10
33.8993705698
 20
-22.0955614066
 10
33.9263866741
 20
-22.1105640314
 10
33.9583128017
 20
-22.1274479013
 10
33.9950089332
 20
-22.1461389683
 10
34.0363141291
 20
-22.1665552583
 10
34.0820472361
 20
-22.188607231
 10
34.1320076809
 20
-22.2121981726
 10
34.1859763506
 20
-22.2372246194
 10
34.2437165529
 20
-22.2635768122
 10
34.3049750549
 20
-22.2911391775
 10
34.3694831933
 20
-22.3197908342
 10
34.4369580528
 20
-22.3494061239
 10
34.5796125149
 20
-22.4110044067
  0
LWPOLYLINE
  5
2EB
100
AcDbEntity
  8
0
100
AcDbPolyline
 62
253
  6
CONTINUOUS
 90
16
 70
0
 10
35.2
 20
21.8130153778
 10
35.1997147829
 20
21.8555784513
 10
35.1983479625
 20
21.8994274576
 10
35.1958995389
 20
21.944562378
 10
35.1924958424
 20
21.9908389301
 10
35.1880105427
 20
22.0384013585
 10
35.1820646486
 20
22.0876824265
 10
35.1746738561
 20
22.1388667494
 10
35.1658224692
 20
22.191769652
 10
35.1550844088
 20
22.2462699556
 10
35.1424749469
 20
22.3023923481
 10
35.1279788115
 20
22.3601120812
 10
35.1111241077
 20
22.4192338271
 10
35.0917535372
 20
22.4796924587
 10
35.0700243982
 20
22.5415530459
 10
35.0459366909
 20
22.6048155586
  0
LINE
  5
2EC
100
AcDbEntity
  8
0
100
AcDbLine
 62
253
  6
CONTINUOUS
 10
33.1
 20
-22.55
 11
33.1
 21
-23.9255151499
  0
LINE
  5
2ED
100
AcDbEntity
  8
0
100
AcDbLine
 62
253
  6
CONTINUOUS
 10
33.1
 20
22.55
 11
33.1
 21
23.9255151499
  0
LINE
  5
2EE
100
AcDbEntity
  8
0
100
AcDbLine
 62
7
  6
CONTINUOUS
 10
33.9
 20
21.75
 11
33.9
 21
-21.75
  0
LINE
  5
2EF
100
AcDbEntity
  8
0
100
AcDbLine
 62
253
  6
CONTINUOUS
 10
35.2
 20
-21.8130153778
 11
35.2
 21
21.8130153778
  0
LWPOLYLINE
  5
2F0
100
AcDbEntity
  8
0
100
AcDbPolyline
 62
253
  6
CONTINUOUS
 90
10
 70
0
 10
35.0459366909
 20
-22.6048155586
 10
35.0777100172
 20
-22.5214247697
 10
35.1058814258
 20
-22.4366673803
 10
35.1304509165
 20
-22.350543355
 10
35.1515009926
 20
-22.2627594289
 10
35.1689491509
 20
-22.1736087889
 10
35.1825478817
 20
-22.0839711015
 10
35.1922146819
 20
-21.9941395935
 10
35.1980320547
 20
-21.9038210224
 10
35.2
 20
-21.8130153778
  0
LWPOLYLINE
  5
2F1
100
AcDbEntity
  8
0
100
AcDbPolyline
 62
253
  6
CONTINUOUS
 90
25
 70
0
 10
35.0459366909
 20
22.6048155586
 10
35.0050772113
 20
22.6997491089
 10
34.9596609046
 20
22.7924209909
 10
34.9096877708
 20
22.8828313675
 10
34.8550183154
 20
22.9712604087
 10
34.7957920328
 20
23.0574282533
 10
34.7324274067
 20
23.1404950848
 10
34.6648735651
 20
23.2204174912
 10
34.59318138
 20
23.2972393309
 10
34.517921951
 20
23.3702518064
 10
34.4390583099
 20
23.4394047408
 10
34.356627425
 20
23.5047488184
 10
34.2713113006
 20
23.565726607
 10
34.1830767042
 20
23.6222891759
 10
34.0919568683
 20
23.6744859569
 10
33.9987334946
 20
23.7219070957
 10
33.9033687017
 20
23.7644990183
 10
33.805900371
 20
23.8023157311
 10
33.7072238493
 20
23.8351087504
 10
33.6073258594
 20
23.8628088555
 10
33.5062196785
 20
23.8854855795
 10
33.4048404843
 20
23.9030985416
 10
33.3035000028
 20
23.9156343349
 10
33.201886508
 20
23.9231065246
 10
33.1
 20
23.9255151499
  0
LWPOLYLINE
  5
2F2
100
AcDbEntity
  8
0
100
AcDbPolyline
 62
7
  6
CONTINUOUS
 90
28
 70
0
 10
-59.4
 20
45.0
 10
-59.4920068904
 20
44.9973495777
 10
-59.5838192418
 20
44.9894035717
 10
-59.6751227089
 20
44.9761705285
 10
-59.7656564445
 20
44.957661303
 10
-59.8551020144
 20
44.9339102529
 10
-59.9430472128
 20
44.9050105909
 10
-60.0289780036
 20
44.8711768288
 10
-60.1126330487
 20
44.8325446057
 10
-60.1940275508
 20
44.7890868397
 10
-60.2732003525
 20
44.7407141542
 10
-60.3497486191
 20
44.687603008
 10
-60.423036583
 20
44.6301913569
 10
-60.4926030506
 20
44.5688721673
 10
-60.5584282988
 20
44.5036739617
 10
-60.6205625067
 20
44.4345093056
 10
-60.6789248708
 20
44.3613952084
 10
-60.7330767814
 20
44.284808911
 10
-60.7825486375
 20
44.2053564869
 10
-60.8271075531
 20
44.1234623116
 10
-60.8667943996
 20
44.0391375543
 10
-60.9016268193
 20
43.9523363536
 10
-60.9314563463
 20
43.8632884611
 10
-60.9560325553
 20
43.7725246808
 10
-60.975221939
 20
43.6805022714
 10
-60.9889669416
 20
43.587560268
 10
-60.9972366566
 20
43.4939535365
 10
-61.0
 20
43.4
  0
LWPOLYLINE
  5
2F3
100
AcDbEntity
  8
0
100
AcDbPolyline
 62
253
  6
CONTINUOUS
 90
28
 70
0
 10
-59.4
 20
44.8421061027
 10
-59.4840988662
 20
44.8396908328
 10
-59.5679823464
 20
44.8324516192
 10
-59.6513701481
 20
44.8204020103
 10
-59.7339936566
 20
44.8035673321
 10
-59.8156108632
 20
44.7819755941
 10
-59.8959619258
 20
44.7556722547
 10
-59.9747080157
 20
44.7247815689
 10
-60.0514662003
 20
44.6894502335
 10
-60.1259828743
 20
44.6497810546
 10
-60.1981435333
 20
44.6058352324
 10
-60.2677796821
 20
44.5577169432
 10
-60.3345640278
 20
44.5056487011
 10
-60.3982459209
 20
44.4498034125
 10
-60.4586338366
 20
44.3903055607
 10
-60.515507912
 20
44.3273418429
 10
-60.5686796091
 20
44.2611604103
 10
-60.6179221863
 20
44.1920777063
 10
-60.6629749042
 20
44.1204275572
 10
-60.7037297438
 20
44.0464152712
 10
-60.7401344211
 20
43.9701875703
 10
-60.7720976209
 20
43.8919597948
 10
-60.7994843859
 20
43.8120999368
 10
-60.8221833134
 20
43.7309421701
 10
-60.8401500837
 20
43.6486919736
 10
-60.8533485106
 20
43.5655791036
 10
-60.8617528855
 20
43.4818874673
 10
-60.8653468858
 20
43.3978896922
  0
LWPOLYLINE
  5
2F4
100
AcDbEntity
  8
0
100
AcDbPolyline
 62
253
  6
CONTINUOUS
 90
28
 70
0
 10
-59.4
 20
43.7760631058
 10
-59.4099065607
 20
43.7757837976
 10
-59.4197367837
 20
43.774928806
 10
-59.429490669
 20
43.7734981293
 10
-59.4391964019
 20
43.7714875529
 10
-59.4488257972
 20
43.768901285
 10
-59.4582942993
 20
43.7657519569
 10
-59.467620442
 20
43.7620285254
 10
-59.4767856915
 20
43.757742021
 10
-59.4856498912
 20
43.7529381841
 10
-59.4942152023
 20
43.7475851174
 10
-59.5024794637
 20
43.7417147009
 10
-59.5102960345
 20
43.7354683427
 10
-59.5175926094
 20
43.7289162031
 10
-59.5244414939
 20
43.7219881072
 10
-59.5309129636
 20
43.7146149604
 10
-59.537083383
 20
43.7067091272
 10
-59.5428763877
 20
43.6983582198
 10
-59.5481331602
 20
43.6897560187
 10
-59.5528052659
 20
43.6809292603
 10
-59.5569411394
 20
43.6718511946
 10
-59.5605272667
 20
43.6626353807
 10
-59.5635599166
 20
43.6532989211
 10
-59.5660428203
 20
43.6438247056
 10
-59.5679736579
 20
43.634274979
 10
-59.569351656
 20
43.6246704891
 10
-59.5701775881
 20
43.6149904839
 10
-59.570451454
 20
43.6052349613
  0
LINE
  5
2F5
100
AcDbEntity
  8
0
100
AcDbLine
 62
253
  6
CONTINUOUS
 10
60.8653459104
 20
43.39894544
 11
61.0
 21
43.4
  0
LWPOLYLINE
  5
2F6
100
AcDbEntity
  8
0
100
AcDbPolyline
 62
253
  6
CONTINUOUS
 90
25
 70
0
 10
-59.570451454
 20
43.6052349609
 10
-59.6506830922
 20
43.6048123676
 10
-59.7306088381
 20
43.6035233026
 10
-59.8099239685
 20
43.6013726806
 10
-59.8883260883
 20
43.5983687012
 10
-59.9655162832
 20
43.5945228171
 10
-60.0412002596
 20
43.5898496912
 10
-60.1150894663
 20
43.5843671402
 10
-60.186902195
 20
43.5780960667
 10
-60.256364654
 20
43.5710603797
 10
-60.3232120123
 20
43.5632869034
 10
-60.387189409
 20
43.5548052748
 10
-60.4480529253
 20
43.5456478307
 10
-60.5055705144
 20
43.5358494846
 10
-60.5595228857
 20
43.5254475936
 10
-60.6097043418
 20
43.5144818157
 10
-60.6559235619
 20
43.5029939588
 10
-60.6980043316
 20
43.4910278213
 10
-60.7357862146
 20
43.4786290251
 10
-60.7691251645
 20
43.4658448414
 10
-60.7978940741
 20
43.4527240112
 10
-60.8219832595
 20
43.4393165586
 10
-60.8413008789
 20
43.4256736005
 10
-60.8557732824
 20
43.411847152
 10
-60.8653452927
 20
43.3978899273
  0
LINE
  5
2F7
100
AcDbEntity
  8
0
100
AcDbLine
 62
253
  6
CONTINUOUS
 10
59.4
 20
43.7760631058
 11
-59.4
 21
43.7760631058
  0
LINE
  5
2F8
100
AcDbEntity
  8
0
100
AcDbLine
 62
253
  6
CONTINUOUS
 10
59.4
 20
44.8421061027
 11
-59.4
 21
44.8421061027
  0
LINE
  5
2F9
100
AcDbEntity
  8
0
100
AcDbLine
 62
7
  6
CONTINUOUS
 10
-59.4
 20
45.0
 11
59.4
 21
45.0
  0
LWPOLYLINE
  5
2FA
100
AcDbEntity
  8
0
100
AcDbPolyline
 62
253
  6
CONTINUOUS
 90
25
 70
0
 10
59.5704520079
 20
43.6054758255
 10
59.6506697902
 20
43.605161248
 10
59.7305818163
 20
43.6039804493
 10
59.8098835206
 20
43.6019379288
 10
59.8882726634
 20
43.5990414693
 10
59.9654504829
 20
43.5953021064
 10
60.0411228344
 20
43.5907340871
 10
60.1150013105
 20
43.5853548152
 10
60.1868043409
 20
43.579184785
 10
60.2562582654
 20
43.5722475034
 10
60.323098377
 20
43.5645694004
 10
60.3870699302
 20
43.5561797279
 10
60.4479291128
 20
43.547110449
 10
60.5054439744
 20
43.5373961157
 10
60.5593953108
 20
43.5270737374
 10
60.6095774993
 20
43.51618264
 10
60.6557992823
 20
43.5047643161
 10
60.6978844965
 20
43.4928622666
 10
60.7356727441
 20
43.4805218356
 10
60.7690200042
 20
43.4677900368
 10
60.7977991816
 20
43.4547153755
 10
60.8219005915
 20
43.441347663
 10
60.8412323768
 20
43.4277378273
 10
60.8557208593
 20
43.4139377182
 10
60.8653108194
 20
43.3999999105
  0
LINE
  5
2FB
100
AcDbEntity
  8
0
100
AcDbLine
 62
253
  6
CONTINUOUS
 10
-60.8653452931
 20
43.3978896672
 11
-61.0
 21
43.4
  0
LWPOLYLINE
  5
2FC
100
AcDbEntity
  8
0
100
AcDbPolyline
 62
253
  6
CONTINUOUS
 90
28
 70
0
 10
60.8653318443
 20
43.3989453427
 10
60.8616464561
 20
43.4833639627
 10
60.8531194124
 20
43.5673398674
 10
60.8397914881
 20
43.6505935572
 10
60.8217150195
 20
43.7328243714
 10
60.7989370767
 20
43.8138553158
 10
60.7714872547
 20
43.8935807553
 10
60.7394615872
 20
43.9717049797
 10
60.7030017162
 20
44.0478329753
 10
60.6622020841
 20
44.1217404295
 10
60.6171160363
 20
44.1932793466
 10
60.5678482883
 20
44.2622552392
 10
60.5146632556
 20
44.3283315904
 10
60.4578067004
 20
44.3911687848
 10
60.3974664248
 20
44.4505275632
 10
60.3338303104
 20
44.5062552269
 10
60.2670868997
 20
44.5582249661
 10
60.1975057812
 20
44.6062486872
 10
60.1254076374
 20
44.6501083493
 10
60.0509551626
 20
44.6897030491
 10
59.9742722294
 20
44.7249673527
 10
59.8956166722
 20
44.7557969396
 10
59.8153462356
 20
44.7820537973
 10
59.7337899217
 20
44.8036153291
 10
59.6512281177
 20
44.8204271793
 10
59.5679026581
 20
44.8324608376
 10
59.484065606
 20
44.8396927071
 10
59.4
 20
44.8421061027
  0
LWPOLYLINE
  5
2FD
100
AcDbEntity
  8
0
100
AcDbPolyline
 62
253
  6
CONTINUOUS
 90
28
 70
0
 10
59.5704506376
 20
43.605491578
 10
59.5701573891
 20
43.6152722859
 10
59.5693140863
 20
43.624966225
 10
59.5679207293
 20
43.6345733979
 10
59.5659755931
 20
43.644112342
 10
59.5634804027
 20
43.6535645248
 10
59.5604403332
 20
43.6628743466
 10
59.5568557049
 20
43.6720562024
 10
59.5527261976
 20
43.6810957052
 10
59.5480560253
 20
43.6898940865
 10
59.5427889431
 20
43.6984892567
 10
59.5369811959
 20
43.7068433181
 10
59.5308057325
 20
43.7147437982
 10
59.5243493587
 20
43.7220911348
 10
59.5175252687
 20
43.7289849141
 10
59.5102459939
 20
43.735511389
 10
59.5024268364
 20
43.7417509079
 10
59.4941524942
 20
43.7476231364
 10
59.4855895924
 20
43.7529733043
 10
59.4767531957
 20
43.7577617857
 10
59.4676282393
 20
43.7620282241
 10
59.4583361536
 20
43.7657367545
 10
59.4488921113
 20
43.7688805128
 10
59.4392809398
 20
43.7714663757
 10
59.4295785516
 20
43.7734790891
 10
59.419810251
 20
43.7749135705
 10
59.4099507338
 20
43.7757749089
 10
59.4
 20
43.7760631058
  0
LWPOLYLINE
  5
2FE
100
AcDbEntity
  8
0
100
AcDbPolyline
 62
7
  6
CONTINUOUS
 90
28
 70
0
 10
61.0
 20
43.4
 10
60.9972355762
 20
43.4939627288
 10
60.9889656528
 20
43.5875668867
 10
60.9752255223
 20
43.6804875234
 10
60.9560414016
 20
43.7724930461
 10
60.9314659617
 20
43.8632559154
 10
60.901639483
 20
43.9523003198
 10
60.8668131607
 20
44.0390942023
 10
60.8271294077
 20
44.1234208468
 10
60.7825708753
 20
44.2053199516
 10
60.733096735
 20
44.2847778703
 10
60.6789345343
 20
44.3613802991
 10
60.6205515158
 20
44.434522067
 10
60.5583997977
 20
44.5037041277
 10
60.4925678425
 20
44.5689051851
 10
60.4229876955
 20
44.6302318585
 10
60.3496833953
 20
44.6876504738
 10
60.2731316229
 20
44.7407587346
 10
60.193959832
 20
44.7891254294
 10
60.1125623542
 20
44.8325795874
 10
60.0289135775
 20
44.8712049005
 10
59.9430080229
 20
44.9050254712
 10
59.8550859213
 20
44.9339149881
 10
59.7656485474
 20
44.9576634266
 10
59.6751254694
 20
44.9761703244
 10
59.583833636
 20
44.9894017121
 10
59.4920191649
 20
44.9973486637
 10
59.4
 20
45.0
  0
LINE
  5
2FF
100
AcDbEntity
  8
0
100
AcDbLine
 62
253
  6
CONTINUOUS
 10
59.4
 20
-43.7760631058
 11
59.4
 21
-45.0
  0
LINE
  5
300
100
AcDbEntity
  8
0
100
AcDbLine
 62
253
  6
CONTINUOUS
 10
59.4
 20
43.7760631058
 11
59.4
 21
45.0
  0
LINE
  5
301
100
AcDbEntity
  8
0
100
AcDbLine
 62
253
  6
CONTINUOUS
 10
59.5710106956
 20
39.4226414567
 11
59.5704506376
 21
43.605491578
  0
LINE
  5
302
100
AcDbEntity
  8
0
100
AcDbLine
 62
253
  6
CONTINUOUS
 10
60.8672192418
 20
26.3291047172
 11
60.8653459104
 21
43.39894544
  0
LINE
  5
303
100
AcDbEntity
  8
0
100
AcDbLine
 62
7
  6
CONTINUOUS
 10
61.0
 20
-43.4
 11
61.0
 21
43.4
  0
LINE
  5
304
100
AcDbEntity
  8
0
100
AcDbLine
 62
253
  6
CONTINUOUS
 10
59.570451454
 20
-43.6052349613
 11
59.5710106956
 21
39.4226414567
  0
LINE
  5
305
100
AcDbEntity
  8
0
100
AcDbLine
 62
253
  6
CONTINUOUS
 10
60.8653452931
 20
-43.3978896672
 11
60.8672192418
 21
26.3291047172
  0
LINE
  5
306
100
AcDbEntity
  8
0
100
AcDbLine
 62
7
  6
CONTINUOUS
 10
-77.3660974854
 20
-44.8421061027
 11
-75.5613619807
 21
-45.0
  0
LINE
  5
307
100
AcDbEntity
  8
0
100
AcDbLine
 62
7
  6
CONTINUOUS
 10
-75.8568381707
 20
-43.4
 11
-75.7871221091
 21
-43.3874795569
  0
LINE
  5
308
100
AcDbEntity
  8
0
100
AcDbLine
 62
253
  6
CONTINUOUS
 10
-78.5629451379
 20
-43.6052349609
 11
-77.3963274536
 21
-43.3978899273
  0
LWPOLYLINE
  5
309
100
AcDbEntity
  8
RACCORDO
100
AcDbPolyline
 62
253
  6
CONTINUOUS
 90
16
 70
0
 10
-75.4975661238
 20
-43.7092508581
 10
-75.373903297
 20
-43.6909042464
 10
-75.2502297033
 20
-43.6697025213
 10
-75.1266218691
 20
-43.6456408122
 10
-75.0032420392
 20
-43.6187968045
 10
-74.8800947338
 20
-43.5890830051
 10
-74.7570284905
 20
-43.5562461743
 10
-74.6341207227
 20
-43.5203092629
 10
-74.5114973978
 20
-43.4812380307
 10
-74.3890907062
 20
-43.438692154
 10
-74.2669076889
 20
-43.3926976642
 10
-74.145189328
 20
-43.3432154365
 10
-74.0242114022
 20
-43.2898059494
 10
-73.9041201418
 20
-43.2323175364
 10
-73.7849595734
 20
-43.1708871476
 10
-73.6668283705
 20
-43.1055075237
  0
LINE
  5
30A
100
AcDbEntity
  8
RACCORDO
100
AcDbLine
 62
253
  6
CONTINUOUS
 10
-73.6668283705
 20
-43.1055075237
 11
-75.6041528273
 21
-43.1172115123
  0
LINE
  5
30B
100
AcDbEntity
  8
0
100
AcDbLine
 62
253
  6
CONTINUOUS
 10
-77.3963274974
 20
-43.3978896672
 11
-75.8568381707
 21
-43.4
  0
LINE
  5
30C
100
AcDbEntity
  8
RACCORDO
100
AcDbLine
 62
7
  6
CONTINUOUS
 10
-75.6067251589
 20
-43.8874038752
 11
-75.4627507935
 21
-43.9
  0
LINE
  5
30D
100
AcDbEntity
  8
RACCORDO
100
AcDbLine
 62
253
  6
CONTINUOUS
 10
-75.6420773533
 20
-42.9035217104
 11
-75.8740653232
 21
-42.8832141462
  0
LINE
  5
30E
100
AcDbEntity
  8
0
100
AcDbLine
 62
253
  6
CONTINUOUS
 10
-78.2528259513
 20
-22.4691783918
 11
-78.183102027
 21
-22.4656715303
  0
LINE
  5
30F
100
AcDbEntity
  8
0
100
AcDbLine
 62
253
  6
CONTINUOUS
 10
-80.9494168656
 20
-22.6048155586
 11
-79.7643594337
 21
-22.5452637878
  0
LINE
  5
310
100
AcDbEntity
  8
0
100
AcDbLine
 62
253
  6
CONTINUOUS
 10
-80.9532454103
 20
-22.5285669036
 11
-79.7681769437
 21
-22.4691830297
  0
LINE
  5
311
100
AcDbEntity
  8
0
100
AcDbLine
 62
253
  6
CONTINUOUS
 10
-72.9494168656
 20
-22.3686091925
 11
-75.6808262364
 21
-22.4139622947
  0
LINE
  5
312
100
AcDbEntity
  8
0
100
AcDbLine
 62
253
  6
CONTINUOUS
 10
-75.6808262364
 20
-22.4139622947
 11
-77.9553332443
 21
-22.4493333334
  0
LINE
  5
313
100
AcDbEntity
  8
0
100
AcDbLine
 62
253
  6
CONTINUOUS
 10
-79.7681769437
 20
-22.4691830293
 11
-78.2528259513
 21
-22.4691783918
  0
LINE
  5
314
100
AcDbEntity
  8
RACCORDO
100
AcDbLine
 62
253
  6
CONTINUOUS
 10
-78.1831020269
 20
-22.4493333334
 11
-77.9553332443
 21
-22.4493333334
  0
LINE
  5
315
100
AcDbEntity
  8
0
100
AcDbLine
 62
7
  6
CONTINUOUS
 10
-75.5099231193
 20
44.1531803228
 11
-75.4921632643
 21
44.2016139696
  0
LWPOLYLINE
  5
316
100
AcDbEntity
  8
RACCORDO
100
AcDbPolyline
 62
253
  6
CONTINUOUS
 90
19
 70
0
 10
-73.6668285191
 20
-43.1055075335
 10
-73.6446583415
 20
-43.1533223591
 10
-73.6248711139
 20
-43.2010583098
 10
-73.6075611982
 20
-43.2484877413
 10
-73.5928111424
 20
-43.2953844706
 10
-73.5806912869
 20
-43.3415248558
 10
-73.571259429
 20
-43.386688862
 10
-73.5645605477
 20
-43.43066111
 10
-73.5606265891
 20
-43.4732319037
 10
-73.5594763137
 20
-43.5141982306
 10
-73.5611152072
 20
-43.5533647294
 10
-73.5655354542
 20
-43.5905446214
 10
-73.5727159757
 20
-43.6255606023
 10
-73.5826225293
 20
-43.6582456866
 10
-73.5952078727
 20
-43.6884440043
 10
-73.6104119888
 20
-43.7160115446
 10
-73.628162372
 20
-43.7408168423
 10
-73.648374374
 20
-43.7627416047
 10
-73.6709516076
 20
-43.781681276
  0
LINE
  5
317
100
AcDbEntity
  8
0
100
AcDbLine
 62
7
  6
CONTINUOUS
 10
-75.4916373865
 20
-44.2030442415
 11
-75.5098961464
 21
-44.1532486838
  0
LINE
  5
318
100
AcDbEntity
  8
0
100
AcDbLine
 62
7
  6
CONTINUOUS
 10
-75.7871221182
 20
43.3874795712
 11
-75.5614348951
 21
44.0120489645
  0
LINE
  5
319
100
AcDbEntity
  8
0
100
AcDbLine
 62
7
  6
CONTINUOUS
 10
-75.5614348951
 20
44.0120489645
 11
-75.5099231193
 21
44.1531803228
  0
LINE
  5
31A
100
AcDbEntity
  8
0
100
AcDbLine
 62
7
  6
CONTINUOUS
 10
-75.5098961464
 20
-44.1532486838
 11
-75.6869968334
 21
-43.6655878835
  0
LINE
  5
31B
100
AcDbEntity
  8
0
100
AcDbLine
 62
7
  6
CONTINUOUS
 10
-75.6869968334
 20
-43.6655878835
 11
-75.7871221241
 21
-43.3874795274
  0
LINE
  5
31C
100
AcDbEntity
  8
0
100
AcDbLine
 62
7
  6
CONTINUOUS
 10
-75.8568381707
 20
43.4
 11
-75.725257666
 21
44.1234208468
  0
LINE
  5
31D
100
AcDbEntity
  8
0
100
AcDbLine
 62
7
  6
CONTINUOUS
 10
-75.725257666
 20
44.1234208468
 11
-75.5857496532
 21
44.8712049005
  0
LINE
  5
31E
100
AcDbEntity
  8
0
100
AcDbLine
 62
7
  6
CONTINUOUS
 10
-75.5857496532
 20
44.8712049005
 11
-75.5613619807
 21
45.0
  0
LINE
  5
31F
100
AcDbEntity
  8
0
100
AcDbLine
 62
7
  6
CONTINUOUS
 10
-75.5613619807
 20
-45.0
 11
-75.6954497548
 21
-44.284808911
  0
LINE
  5
320
100
AcDbEntity
  8
0
100
AcDbLine
 62
7
  6
CONTINUOUS
 10
-75.6954497548
 20
-44.284808911
 11
-75.8230423625
 21
-43.587560268
  0
LINE
  5
321
100
AcDbEntity
  8
0
100
AcDbLine
 62
7
  6
CONTINUOUS
 10
-75.8230423625
 20
-43.587560268
 11
-75.8568381707
 21
-43.4
  0
LWPOLYLINE
  5
322
100
AcDbEntity
  8
0
100
AcDbPolyline
 62
253
  6
CONTINUOUS
 90
21
 70
0
 10
-77.3963274974
 20
-43.3978896672
 10
-77.5789799351
 20
-42.350020662
 10
-77.7541365971
 20
-41.3073478996
 10
-77.9217983732
 20
-40.2699350174
 10
-78.0818526485
 20
-39.2378599962
 10
-78.2344138065
 20
-38.2111671276
 10
-78.3798232219
 20
-37.1898668866
 10
-78.5180838781
 20
-36.1740142883
 10
-78.6491945189
 20
-35.1636665612
 10
-78.7734901395
 20
-34.1588348943
 10
-78.8909736175
 20
-33.1595697759
 10
-79.0016437647
 20
-32.165923523
 10
-79.1058294605
 20
-31.1779076383
 10
-79.2035335361
 20
-30.1955682056
 10
-79.2947548135
 20
-29.2189530213
 10
-79.3798161425
 20
-28.2480738871
 10
-79.4587203027
 20
-27.2829728973
 10
-79.5314661331
 20
-26.3236933938
 10
-79.5983705572
 20
-25.3702469259
 10
-79.6595397427
 20
-24.4226631348
 10
-79.7148691061
 20
-23.4809898169
  0
LINE
  5
323
100
AcDbEntity
  8
0
100
AcDbLine
 62
253
  6
CONTINUOUS
 10
-79.7148691061
 20
-23.4809898169
 11
-79.7681769437
 21
-22.4691830293
  0
LWPOLYLINE
  5
324
100
AcDbEntity
  8
0
100
AcDbPolyline
 62
253
  6
CONTINUOUS
 90
12
 70
0
 10
-79.7681769437
 20
-22.4691830293
 10
-79.9400867648
 20
-18.7267120826
 10
-80.0807429215
 20
-14.9829335203
 10
-80.1901454151
 20
-11.2381101041
 10
-80.2682975117
 20
-7.4925066436
 10
-80.3151959478
 20
-3.7463838453
 10
-80.3308309281
 20
0.00000169
 10
-80.3151959223
 20
3.7463871816
 10
-80.2682974607
 20
7.4925099072
 10
-80.1901453358
 20
11.2381133525
 10
-80.0807428107
 20
14.9829368403
 10
-79.9400866196
 20
18.7267155318
  0
LINE
  5
325
100
AcDbEntity
  8
0
100
AcDbLine
 62
253
  6
CONTINUOUS
 10
-79.9400866196
 20
18.7267155318
 11
-79.7643594337
 21
22.5452637878
  0
LWPOLYLINE
  5
326
100
AcDbEntity
  8
0
100
AcDbPolyline
 62
253
  6
CONTINUOUS
 90
22
 70
0
 10
-79.7643594337
 20
22.5452637878
 10
-79.7147771017
 20
23.4825654247
 10
-79.6593517255
 20
24.4256658359
 10
-79.598082537
 20
25.3745282064
 10
-79.5310717168
 20
26.3291047172
 10
-79.458215537
 20
27.2893658336
 10
-79.3792043567
 20
28.2553002414
 10
-79.2940392661
 20
29.2268647291
 10
-79.2027175946
 20
30.2040173338
 10
-79.1049240463
 20
31.1867465363
 10
-79.000659728
 20
32.1750047829
 10
-78.889921919
 20
33.1687462039
 10
-78.7723895658
 20
34.167959587
 10
-78.6480637854
 20
35.172592969
 10
-78.5169418123
 20
36.1825961775
 10
-78.378696752
 20
37.1979583122
 10
-78.2333231997
 20
38.2186618121
 10
-78.0808248716
 20
39.2446128231
 10
-77.9208885523
 20
40.2756837913
 10
-77.753409278
 20
41.3117921854
 10
-77.5784903254
 20
42.3529002555
 10
-77.3961308441
 20
43.39894544
  0
LWPOLYLINE
  5
327
100
AcDbEntity
  8
0
100
AcDbPolyline
 62
7
  6
CONTINUOUS
 90
10
 70
0
 10
-75.8568381707
 20
43.4
 10
-76.2546653458
 20
41.091616558
 10
-76.6196316463
 20
38.7778290244
 10
-76.951736666
 20
36.459103839
 10
-77.2510330213
 20
34.1359073073
 10
-77.5174672834
 20
31.8087060097
 10
-77.7508799786
 20
29.4779668046
 10
-77.9512176784
 20
27.1441562794
 10
-78.1185329993
 20
24.8077407485
 10
-78.2528255351
 20
22.4691866652
  0
LWPOLYLINE
  5
328
100
AcDbEntity
  8
0
100
AcDbPolyline
 62
7
  6
CONTINUOUS
 90
10
 70
0
 10
-75.7871221152
 20
43.3874795872
 10
-76.1849479587
 20
41.0801134182
 10
-76.5499130456
 20
38.7673377827
 10
-76.8820169681
 20
36.4496197349
 10
-77.181312341
 20
34.1274261947
 10
-77.447745734
 20
31.8012243566
 10
-77.6811576718
 20
29.4714816919
 10
-77.8814947244
 20
27.1386654021
 10
-78.0488095066
 20
24.8032424161
 10
-78.1831016109
 20
22.4656798014
  0
LWPOLYLINE
  5
329
100
AcDbEntity
  8
0
100
AcDbPolyline
 62
7
  6
CONTINUOUS
 90
10
 70
0
 10
-78.1831020269
 20
-22.4656715314
 10
-78.0488099807
 20
-24.8032350682
 10
-77.8814952304
 20
-27.1386589762
 10
-77.6811581837
 20
-29.4714761874
 10
-77.4477462258
 20
-31.8012197715
 10
-77.1813127867
 20
-34.1274225273
 10
-76.8820173414
 20
-36.4496169851
 10
-76.5499133201
 20
-38.7673359508
 10
-76.1849481081
 20
-41.0801125031
 10
-75.7871221133
 20
-43.3874795872
  0
LWPOLYLINE
  5
32A
100
AcDbEntity
  8
0
100
AcDbPolyline
 62
7
  6
CONTINUOUS
 90
10
 70
0
 10
-78.2528259513
 20
-22.4691783918
 10
-78.1185334732
 20
-24.8077334003
 10
-77.9512181841
 20
-27.1441498562
 10
-77.75088049
 20
-29.4779613058
 10
-77.5174677744
 20
-31.8087014338
 10
-77.2510334658
 20
-34.1359036525
 10
-76.9517370382
 20
-36.4591011029
 10
-76.6196319204
 20
-38.777827204
 10
-76.2546654958
 20
-41.0916156499
 10
-75.8568381707
 20
-43.4
  0
LWPOLYLINE
  5
32B
100
AcDbEntity
  8
0
100
AcDbPolyline
 62
7
  6
CONTINUOUS
 90
13
 70
0
 10
-78.2528259513
 20
-22.4691783918
 10
-78.4253625086
 20
-18.7266870029
 10
-78.5665312733
 20
-14.9828963107
 10
-78.6763322483
 20
-11.2380690871
 10
-78.7547684951
 20
-7.4924729296
 10
-78.8018369583
 20
-3.7463657678
 10
-78.8175284625
 20
0.000004142
 10
-78.8018368889
 20
3.7463740514
 10
-78.7547683564
 20
7.4924812124
 10
-78.6763320402
 20
11.2380773684
 10
-78.5665309959
 20
14.9829045899
 10
-78.4253621618
 20
18.7266952796
 10
-78.2528255351
 20
22.4691866652
  0
LINE
  5
32C
100
AcDbEntity
  8
0
100
AcDbLine
 62
253
  6
CONTINUOUS
 10
-77.3660974854
 20
-44.8421061027
 11
-77.3963267043
 21
-43.3978896922
  0
LINE
  5
32D
100
AcDbEntity
  8
0
100
AcDbLine
 62
253
  6
CONTINUOUS
 10
-77.3661384367
 20
44.8396927071
 11
-77.3660974854
 21
44.8421061027
  0
LINE
  5
32E
100
AcDbEntity
  8
0
100
AcDbLine
 62
253
  6
CONTINUOUS
 10
-77.3963046945
 20
43.3989453427
 11
-77.3732453152
 21
44.5062552269
  0
LINE
  5
32F
100
AcDbEntity
  8
0
100
AcDbLine
 62
253
  6
CONTINUOUS
 10
-77.3732453152
 20
44.5062552269
 11
-77.3661384367
 21
44.8396927071
  0
LWPOLYLINE
  5
330
100
AcDbEntity
  8
0
100
AcDbPolyline
 62
7
  6
CONTINUOUS
 90
13
 70
0
 10
-78.1831016109
 20
22.4656798014
 10
-78.3556380323
 20
18.7237740186
 10
-78.4968066985
 20
14.9805683186
 10
-78.6066076122
 20
11.2363255956
 10
-78.6850438351
 20
7.4913135686
 10
-78.7321123117
 20
3.74579029
 10
-78.7478038666
 20
0.0000041408
 10
-78.7321123811
 20
-3.7457820089
 10
-78.6850439739
 20
-7.4913052884
 10
-78.6066078203
 20
-11.2363173167
 10
-78.4968069759
 20
-14.9805600415
 10
-78.3556383791
 20
-18.7237657437
 10
-78.183102027
 20
-22.4656715292
  0
LINE
  5
331
100
AcDbEntity
  8
0
100
AcDbLine
 62
253
  6
CONTINUOUS
 10
-74.9494168656
 20
-0.0
 11
-78.5194168656
 21
-0.0
  0
LINE
  5
332
100
AcDbEntity
  8
RACCORDO
100
AcDbLine
 62
7
  6
CONTINUOUS
 10
-72.9494168656
 20
-3.8526539614
 11
-74.7841465011
 21
-3.5291416244
  0
LINE
  5
333
100
AcDbEntity
  8
RACCORDO
100
AcDbLine
 62
7
  6
CONTINUOUS
 10
-74.9494168656
 20
-3.3321800738
 11
-74.9494168656
 21
3.3321800738
  0
LINE
  5
334
100
AcDbEntity
  8
DRAFT
100
AcDbLine
 62
7
  6
CONTINUOUS
 10
-72.9494168656
 20
-22.3686091925
 11
-72.9494168656
 21
-3.8526539614
  0
LINE
  5
335
100
AcDbEntity
  8
RACCORDO
100
AcDbLine
 62
7
  6
CONTINUOUS
 10
-72.9494168656
 20
-22.3686091925
 11
-72.9494168656
 21
-43.1000004714
  0
LINE
  5
336
100
AcDbEntity
  8
DRAFT
100
AcDbLine
 62
7
  6
CONTINUOUS
 10
-72.9494168656
 20
3.8526539614
 11
-72.9494168656
 21
22.3686091925
  0
LINE
  5
337
100
AcDbEntity
  8
RACCORDO
100
AcDbLine
 62
7
  6
CONTINUOUS
 10
-72.9494168656
 20
22.3686091925
 11
-72.9494168656
 21
43.1000004364
  0
LINE
  5
338
100
AcDbEntity
  8
RACCORDO
100
AcDbLine
 62
7
  6
CONTINUOUS
 10
-74.7841465011
 20
3.5291416244
 11
-72.9494168656
 21
3.8526539614
  0
LINE
  5
339
100
AcDbEntity
  8
0
100
AcDbLine
 62
7
  6
CONTINUOUS
 10
-75.5613619807
 20
45.0
 11
-75.4916373865
 21
44.2030442415
  0
LINE
  5
33A
100
AcDbEntity
  8
0
100
AcDbLine
 62
7
  6
CONTINUOUS
 10
-75.5613619807
 20
-45.0
 11
-75.4916373865
 21
-44.2030442415
  0
LINE
  5
33B
100
AcDbEntity
  8
RACCORDO
100
AcDbLine
 62
253
  6
CONTINUOUS
 10
-78.1831016109
 20
22.4493333334
 11
-77.9553332443
 21
22.4493333334
  0
LINE
  5
33C
100
AcDbEntity
  8
0
100
AcDbLine
 62
253
  6
CONTINUOUS
 10
-79.7681767615
 20
22.4691866652
 11
-78.2528255351
 21
22.4691866652
  0
LINE
  5
33D
100
AcDbEntity
  8
0
100
AcDbLine
 62
253
  6
CONTINUOUS
 10
-72.9494168656
 20
22.3686091925
 11
-77.9553332443
 21
22.4493333334
  0
LINE
  5
33E
100
AcDbEntity
  8
0
100
AcDbLine
 62
253
  6
CONTINUOUS
 10
-80.953245233
 20
22.5285705486
 11
-79.7681767615
 21
22.4691866652
  0
LINE
  5
33F
100
AcDbEntity
  8
0
100
AcDbLine
 62
253
  6
CONTINUOUS
 10
-78.2528255351
 20
22.4691866652
 11
-78.1831016109
 21
22.4656798014
  0
LINE
  5
340
100
AcDbEntity
  8
0
100
AcDbLine
 62
253
  6
CONTINUOUS
 10
-80.9494168627
 20
22.6048155584
 11
-79.7643594337
 21
22.5452637878
  0
LWPOLYLINE
  5
341
100
AcDbEntity
  8
RACCORDO
100
AcDbPolyline
 62
253
  6
CONTINUOUS
 90
19
 70
0
 10
-73.6709506848
 20
43.7816825334
 10
-73.6483734949
 20
43.7627427916
 10
-73.6281615411
 20
43.7408179551
 10
-73.6104112101
 20
43.7160125805
 10
-73.5952071498
 20
43.6884449613
 10
-73.5826218649
 20
43.6582465635
 10
-73.572715372
 20
43.625561399
 10
-73.5655349127
 20
43.5905453385
 10
-73.5611147285
 20
43.5533653681
 10
-73.5594758977
 20
43.5141987929
 10
-73.560626235
 20
43.4732323921
 10
-73.5645602539
 20
43.4306615274
 10
-73.5712591933
 20
43.3866892113
 10
-73.5806911065
 20
43.3415251401
 10
-73.5928110141
 20
43.2953846933
 10
-73.6075611184
 20
43.248487905
 10
-73.6248710787
 20
43.2010584171
 10
-73.6446583469
 20
43.1533224128
 10
-73.666828561
 20
43.1055075362
  0
LWPOLYLINE
  5
342
100
AcDbEntity
  8
RACCORDO
100
AcDbPolyline
 62
253
  6
CONTINUOUS
 90
10
 70
0
 10
-73.6668283705
 20
-43.1055075237
 10
-73.5750753836
 20
-43.0505997691
 10
-73.4870517204
 20
-42.9947778807
 10
-73.4026672606
 20
-42.938042943
 10
-73.3225396112
 20
-42.8809864146
 10
-73.2458388395
 20
-42.8230200639
 10
-73.1703874343
 20
-42.7623715902
 10
-73.0954909293
 20
-42.698446753
 10
-73.0218386624
 20
-42.6318337547
 10
-72.9494168972
 20
-42.5625301352
  0
LWPOLYLINE
  5
343
100
AcDbEntity
  8
RACCORDO
100
AcDbPolyline
 62
253
  6
CONTINUOUS
 90
10
 70
0
 10
-73.6668283705
 20
43.1055075237
 10
-73.575412403
 20
43.0508452998
 10
-73.4874669603
 20
42.9950804745
 10
-73.4029122341
 20
42.9382136753
 10
-73.3221604785
 20
42.8806657402
 10
-73.2446140296
 20
42.8220179292
 10
-73.1687352257
 20
42.7610088058
 10
-73.094019037
 20
42.6972154205
 10
-73.0209237635
 20
42.6310564295
 10
-72.9494168995
 20
42.5625301374
  0
LINE
  5
344
100
AcDbEntity
  8
RACCORDO
100
AcDbLine
 62
253
  6
CONTINUOUS
 10
-75.8740653196
 20
42.8832141863
 11
-75.6420773533
 21
42.9035217104
  0
LINE
  5
345
100
AcDbEntity
  8
RACCORDO
100
AcDbLine
 62
7
  6
CONTINUOUS
 10
-75.6067204479
 20
43.8874042873
 11
-75.4627507935
 21
43.9
  0
LINE
  5
346
100
AcDbEntity
  8
0
100
AcDbLine
 62
253
  6
CONTINUOUS
 10
-77.3961308441
 20
43.39894544
 11
-75.8568381707
 21
43.4
  0
LINE
  5
347
100
AcDbEntity
  8
RACCORDO
100
AcDbLine
 62
253
  6
CONTINUOUS
 10
-73.6668283705
 20
43.1055075237
 11
-75.6041528273
 21
43.1172115123
  0
LWPOLYLINE
  5
348
100
AcDbEntity
  8
0
100
AcDbPolyline
 62
253
  6
CONTINUOUS
 90
3
 70
0
 10
-78.562902284
 20
43.6054758255
 10
-78.5604416269
 20
43.605161248
 10
-78.5531122276
 20
43.6039804493
  0
LWPOLYLINE
  5
349
100
AcDbEntity
  8
RACCORDO
100
AcDbPolyline
 62
253
  6
CONTINUOUS
 90
16
 70
0
 10
-75.4975661629
 20
43.7092508649
 10
-75.3759106542
 20
43.6912561847
 10
-75.2539237159
 20
43.6704006675
 10
-75.1316825895
 20
43.6466794248
 10
-75.0093369079
 20
43.6201842997
 10
-74.8869099802
 20
43.5908135503
 10
-74.76429839
 20
43.5582712215
 10
-74.6416149517
 20
43.5225901367
 10
-74.5189602849
 20
43.4837258607
 10
-74.3962240378
 20
43.4412650145
 10
-74.2733853268
 20
43.3952219722
 10
-74.1507357721
 20
43.3455684307
 10
-74.0286263371
 20
43.2918252951
 10
-73.9072353435
 20
43.2338273403
 10
-73.7865985468
 20
43.1717240205
 10
-73.6668283705
 20
43.1055075237
  0
LINE
  5
34A
100
AcDbEntity
  8
0
100
AcDbLine
 62
253
  6
CONTINUOUS
 10
-78.5531122276
 20
43.6039804493
 11
-78.52397739
 21
43.5990414693
  0
LINE
  5
34B
100
AcDbEntity
  8
0
100
AcDbLine
 62
253
  6
CONTINUOUS
 10
-78.52397739
 20
43.5990414693
 11
-77.396282765
 21
43.3999999105
  0
LINE
  5
34C
100
AcDbEntity
  8
0
100
AcDbLine
 62
7
  6
CONTINUOUS
 10
-75.8568381707
 20
43.4
 11
-75.7871221164
 21
43.3874795793
  0
LINE
  5
34D
100
AcDbEntity
  8
0
100
AcDbLine
 62
7
  6
CONTINUOUS
 10
-77.3660974854
 20
44.8421061027
 11
-75.5613619807
 21
45.0
  0
ARC
  5
34E
100
AcDbEntity
  8
0
100
AcDbCircle
 62
7
  6
CONTINUOUS
 10
33.1
 20
21.75
 40
0.8
100
AcDbArc
 50
0.0000219403
 51
89.9985948723
  0
ARC
  5
34F
100
AcDbEntity
  8
0
100
AcDbCircle
 62
7
  6
CONTINUOUS
 10
33.1
 20
-21.75
 40
0.8
100
AcDbArc
 50
270.0008167777
 51
359.9992233358
  0
ARC
  5
350
100
AcDbEntity
  8
0
100
AcDbCircle
 62
7
  6
CONTINUOUS
 10
-33.1
 20
-21.75
 40
0.8
100
AcDbArc
 50
180.0000215712
 51
269.9985724246
  0
ARC
  5
351
100
AcDbEntity
  8
0
100
AcDbCircle
 62
7
  6
CONTINUOUS
 10
-33.1
 20
21.75
 40
0.8
100
AcDbArc
 50
90.0008249767
 51
179.9991643371
  0
ARC
  5
352
100
AcDbEntity
  8
0
100
AcDbCircle
 62
7
  6
CONTINUOUS
 10
86.9592446065
 20
-14.1596107985
 40
168.1209091124
100
AcDbArc
 50
182.8793441777
 51
190.1462645046
  0
ARC
  5
353
100
AcDbEntity
  8
0
100
AcDbCircle
 62
7
  6
CONTINUOUS
 10
86.9562965375
 20
-14.15664
 40
165.12
100
AcDbArc
 50
182.8787323946
 51
190.1014160686
  0
ARC
  5
354
100
AcDbEntity
  8
RACCORDO
100
AcDbCircle
 62
7
  6
CONTINUOUS
 10
86.9562965375
 20
-14.15664
 40
165.12
100
AcDbArc
 50
190.1014160686
 51
190.5891670949
  0
ARC
  5
355
100
AcDbEntity
  8
RACCORDO
100
AcDbCircle
 62
7
  6
CONTINUOUS
 10
-76.0497980602
 20
-40.5410492628
 40
4.0200239337
100
AcDbArc
 50
279.9999998059
 51
320.4648679848
  0
ARC
  5
356
100
AcDbEntity
  8
0
100
AcDbCircle
 62
7
  6
CONTINUOUS
 10
-77.252797431
 20
-43.5470395244
 40
1.3
100
AcDbArc
 50
190.1468676515
 51
265.0001576023
  0
ARC
  5
357
100
AcDbEntity
  8
RACCORDO
100
AcDbCircle
 62
7
  6
CONTINUOUS
 10
-74.7494168656
 20
-3.3321800738
 40
0.2
100
AcDbArc
 50
180.0
 51
260.0
  0
ARC
  5
358
100
AcDbEntity
  8
0
100
AcDbCircle
 62
7
  6
CONTINUOUS
 10
86.9592446065
 20
14.1596107985
 40
168.1209091124
100
AcDbArc
 50
169.8537354954
 51
177.1206557591
  0
ARC
  5
359
100
AcDbEntity
  8
0
100
AcDbCircle
 62
7
  6
CONTINUOUS
 10
86.9562965375
 20
14.15664
 40
165.12
100
AcDbArc
 50
169.8985839314
 51
177.1212676054
  0
ARC
  5
35A
100
AcDbEntity
  8
RACCORDO
100
AcDbCircle
 62
7
  6
CONTINUOUS
 10
86.9562965375
 20
14.15664
 40
165.12
100
AcDbArc
 50
169.4108329051
 51
169.8985839314
  0
ARC
  5
35B
100
AcDbEntity
  8
RACCORDO
100
AcDbCircle
 62
7
  6
CONTINUOUS
 10
-76.0497980602
 20
40.5410492628
 40
4.0200239337
100
AcDbArc
 50
39.5351313682
 51
80.0000000715
  0
ARC
  5
35C
100
AcDbEntity
  8
0
100
AcDbCircle
 62
7
  6
CONTINUOUS
 10
-77.252797431
 20
43.5470395244
 40
1.3
100
AcDbArc
 50
94.9998424081
 51
169.8531323485
  0
ARC
  5
35D
100
AcDbEntity
  8
RACCORDO
100
AcDbCircle
 62
7
  6
CONTINUOUS
 10
-74.7494168656
 20
3.3321800738
 40
0.2
100
AcDbArc
 50
100.0
 51
180.0
  0
ARC
  5
35E
100
AcDbEntity
  8
0
100
AcDbCircle
 62
7
  6
CONTINUOUS
 10
368.4824715375
 20
-0.0
 40
450.0
100
AcDbArc
 50
177.1206544659
 51
182.8793455105
  0
ARC
  5
35F
100
AcDbEntity
  8
0
100
AcDbCircle
 62
7
  6
CONTINUOUS
 10
368.4805831344
 20
-0.0
 40
447.0
100
AcDbArc
 50
177.1212676054
 51
182.8787323946
  0
ENDSEC
  0
SECTION
  2
OBJECTS
  0
DICTIONARY
  5
C
100
AcDbDictionary
280
0
281
1
  3
ACAD_GROUP
350
D
  3
ACAD_MLINESTYLE
350
17
  3
ACAD_LAYOUT
350
1A
  3
ACAD_PLOTSETTINGS
350
19
  3
ACAD_PLOTSTYLENAME
350
E
  0
DICTIONARY
  5
D
102
{ACAD_REACTORS
330
C
102
}
100
AcDbDictionary
280
0
281
1
  0
ACDBDICTIONARYWDFLT
  5
E
102
{ACAD_REACTORS
330
C
102
}
100
AcDbDictionary
281
1
  3
Normal
350
F
100
AcDbDictionaryWithDefault
340
F
  0
DICTIONARY
  5
17
102
{ACAD_REACTORS
330
C
102
}
100
AcDbDictionary
280
0
281
1
  3
Standard
350
18
  0
DICTIONARY
  5
19
102
{ACAD_REACTORS
330
C
102
}
100
AcDbDictionary
281
1
  0
DICTIONARY
  5
1A
102
{ACAD_REACTORS
330
C
102
}
100
AcDbDictionary
281
1
  3
Model
350
360
  3
Layout1
350
361
  0
ACDBPLACEHOLDER
  5
F
102
{ACAD_REACTORS
330
E
102
}
  0
MLINESTYLE
  5
18
102
{ACAD_REACTORS
330
17
102
}
100
AcDbMlineStyle
  2
STANDARD
 70
0
  3

 62
256
 51
90.0
 52
90.0
 71
2
 49
0.5
 62
256
  6
BYLAYER
 49
-0.5
 62
256
  6
BYLAYER
  0
LAYOUT
  5
360
102
{ACAD_REACTORS
330
1A
102
}
100
AcDbPlotSettings
  1

  2
none_device
  4
ISO_A4_(297.00_x_210.00_MM)
  6

 40
0.0
 41
0.0
 42
0.0
 43
0.0
 44
297.0
 45
210.0
 46
0.0
 47
0.0
 48
0.0
 49
0.0
140
0.0
141
0.0
142
1.0
143
1.0
 70
1024
 72
1
 73
0
 74
0
  7

 75
0
147
1.0
148
0.0
149
0.0
100
AcDbLayout
  1
Model
 70
0
 71
0
 10
0.0
 20
0.0
 11
297.0
 21
210.0
 12
0.0
 22
0.0
 32
0.0
 14
0.0
 24
0.0
 34
0.0
 15
0.0
 25
0.0
 35
0.0
146
0.0
 13
0.0
 23
0.0
 33
0.0
 16
1.0
 26
0.0
 36
0.0
 17
0.0
 27
1.0
 37
0.0
 76
0
330
210
345
0
346
0
  0
LAYOUT
  5
361
102
{ACAD_REACTORS
330
1A
102
}
100
AcDbPlotSettings
  1

  2
none_device
  4
ISO_A4_(297.00_x_210.00_MM)
  6

 40
0.0
 41
0.0
 42
0.0
 43
0.0
 44
297.0
 45
210.0
 46
0.0
 47
0.0
 48
0.0
 49
0.0
140
0.0
141
0.0
142
1.0
143
1.0
 70
0
 72
1
 73
0
 74
0
  7

 75
0
147
1.0
148
0.0
149
0.0
100
AcDbLayout
  1
Layout1
 70
0
 71
1
 10
0.0
 20
0.0
 11
297.0
 21
210.0
 12
0.0
 22
0.0
 32
0.0
 14
0.0
 24
0.0
 34
0.0
 15
0.0
 25
0.0
 35
0.0
146
0.0
 13
0.0
 23
0.0
 33
0.0
 16
1.0
 26
0.0
 36
0.0
 17
0.0
 27
1.0
 37
0.0
 76
0
330
211
345
0
346
0
  0
ENDSEC
  0
EOF
