  0
SECTION
  2
HEADER
  9
$ACADVER
  1
AC1021
  9
$DWGCODEPAGE
  3
ANSI_1252
  9
$EXTMAX
 10
297.0
 20
210.0
 30
0.0
  9
$EXTMIN
 10
0.0
 20
0.0
 30
0.0
  9
$LIMMIN
 10
0.0
 20
0.0
  9
$LIMMAX
 10
297.0
 20
210.0
  9
$VIEWCTR
 10
148.5
 20
105.0
  9
$VIEWSIZE
 40
210.0
  9
$CLAYER
  8
0
  9
$LTSCALE
 40
16.335
  9
$CELTYPE
  6
BYLAYER
  9
$DIMSCALE
 40
1.0
  9
$DIMASZ
 40
3.0
  9
$DIMEXO
 40
0.5
  9
$DIMDLI
 40
11.286
  9
$DIMEXE
 40
1.5
  9
$DIMCEN
 40
2.673
  9
$DIMLFAC
 40
1.0
  9
$DIMBLK
  1
_FILLED
  9
$DIMALT
 70
0
  9
$DIMALTF
 40
0.0393700787
  9
$DIMTXT
 40
3.0
  9
$DIMTOL
 70
1
  9
$DIMLIM
 70
0
  9
$DIMTFAC
 40
1.0
  9
$DIMTP
 40
0.01
  9
$DIMTM
 40
0.01
  9
$DIMGAP
 40
0.625
  9
$DIMDSEP
 70
44
  9
$AUNITS
 70
0
  9
$PDMODE
 70
3
  9
$PDSIZE
 40
3.0
  9
$HANDSEED
  5
426
  9
$TILEMODE
 70
1
  9
$MEASUREMENT
 70
1
  9
$INSUNITS
 70
4
  0
ENDSEC
  0
SECTION
  2
CLASSES
  0
CLASS
  1
ACDBDICTIONARYWDFLT
  2
AcDbDictionaryWithDefault
  3
AutoCAD 2000
 90
0
 91
1
280
0
281
0
  0
CLASS
  1
ACDBPLACEHOLDER
  2
AcDbPlaceHolder
  3
AutoCAD 2000
 90
0
 91
1
280
0
281
0
  0
CLASS
  1
LAYOUT
  2
AcDbLayout
  3
AutoCAD 2000
 90
0
 91
0
280
0
281
0
  0
ENDSEC
  0
SECTION
  2
TABLES
  0
TABLE
  2
VPORT
  5
8
100
AcDbSymbolTable
 70
2
  0
VPORT
  5
1F4
100
AcDbSymbolTableRecord
100
AcDbViewportTableRecord
  2
*ACTIVE
 70
0
 10
0.0
 20
0.0
 11
1.0
 21
1.0
 12
148.5
 22
105.0
 13
0.0
 23
0.0
 14
1.0
 24
1.0
 15
0.0
 25
0.0
 16
0.0
 26
0.0
 36
1.0
 17
0.0
 27
0.0
 37
0.0
 40
210.0
 41
1.4142857143
 42
50.0
 43
0.0
 44
0.0
 50
0.0
 51
0.0
 71
0
 72
100
 73
1
 74
1
 75
0
 76
0
 77
0
 78
0
  0
ENDTAB
  0
TABLE
  2
LTYPE
  5
5
100
AcDbSymbolTable
 70
6
  0
LTYPE
  5
14
100
AcDbSymbolTableRecord
100
AcDbLinetypeTableRecord
  2
BYBLOCK
 70
0
  3

 72
65
 73
0
 40
0.0
  0
LTYPE
  5
15
100
AcDbSymbolTableRecord
100
AcDbLinetypeTableRecord
  2
BYLAYER
 70
0
  3

 72
65
 73
0
 40
0.0
  0
LTYPE
  5
16
100
AcDbSymbolTableRecord
100
AcDbLinetypeTableRecord
  2
CONTINUOUS
 70
64
  3
Solid line
 72
65
 73
0
 40
0.0
  0
LTYPE
  5
1F5
100
AcDbSymbolTableRecord
100
AcDbLinetypeTableRecord
  2
CENTER
 70
64
  3
____ _ ____ _ ____ _ ____ _ ____ _ ____ _ ____
 72
65
 73
4
 40
0.6
 49
0.375
 74
0
 49
-0.075
 74
0
 49
0.075
 74
0
 49
-0.075
 74
0
  0
LTYPE
  5
1F6
100
AcDbSymbolTableRecord
100
AcDbLinetypeTableRecord
  2
HIDDEN
 70
64
  3
- - - - - - - - - - - - - - - - - - - -
 72
65
 73
2
 40
0.2
 49
0.1
 74
0
 49
-0.1
 74
0
  0
LTYPE
  5
1F7
100
AcDbSymbolTableRecord
100
AcDbLinetypeTableRecord
  2
PHANTOM
 70
64
  3
_____ _ _ _____ _ _ _____ _ _ _____
 72
65
 73
6
 40
0.8
 49
0.45
 74
0
 49
-0.05
 74
0
 49
0.1
 74
0
 49
-0.05
 74
0
 49
0.1
 74
0
 49
-0.05
 74
0
  0
LTYPE
  5
1F8
100
AcDbSymbolTableRecord
100
AcDbLinetypeTableRecord
  2
DOT
 70
64
  3
. . . . . . . . . . . . . . . . . . . .
 72
65
 73
2
 40
0.2
 49
0.1
 74
0
 49
-0.1
 74
0
  0
LTYPE
  5
1F9
100
AcDbSymbolTableRecord
100
AcDbLinetypeTableRecord
  2
DASHED
 70
64
  3
- - - - - - - - - - - - - - - - - - - -
 72
65
 73
2
 40
0.2
 49
0.1
 74
0
 49
-0.1
 74
0
  0
ENDTAB
  0
TABLE
  2
LAYER
  5
2
100
AcDbSymbolTable
 70
36
  0
LAYER
  5
10
100
AcDbSymbolTableRecord
100
AcDbLayerTableRecord
  2
0
 70
0
 62
7
  6
CONTINUOUS
370
-3
390
F
  0
LAYER
  5
1FA
100
AcDbSymbolTableRecord
100
AcDbLayerTableRecord
  2
DEFAULT_1
 70
0
 62
7
  6
CENTER
370
-3
390
F
  0
LAYER
  5
1FB
100
AcDbSymbolTableRecord
100
AcDbLayerTableRecord
  2
DEFAULT_2
 70
0
 62
7
  6
HIDDEN
370
-3
390
F
  0
LAYER
  5
1FC
100
AcDbSymbolTableRecord
100
AcDbLayerTableRecord
  2
DEFAULT_3
 70
0
 62
7
  6
PHANTOM
370
-3
390
F
  0
LAYER
  5
1FD
100
AcDbSymbolTableRecord
100
AcDbLayerTableRecord
  2
ASSI
 70
0
 62
7
  6
CONTINUOUS
370
-3
390
F
  0
LAYER
  5
1FE
100
AcDbSymbolTableRecord
100
AcDbLayerTableRecord
  2
COORDINATE
 70
0
 62
7
  6
CONTINUOUS
370
-3
390
F
  0
LAYER
  5
1FF
100
AcDbSymbolTableRecord
100
AcDbLayerTableRecord
  2
COPY_PUBLISH
 70
0
 62
7
  6
CONTINUOUS
370
-3
390
F
  0
LAYER
  5
200
100
AcDbSymbolTableRecord
100
AcDbLayerTableRecord
  2
COSMETICI
 70
0
 62
7
  6
CONTINUOUS
370
-3
390
F
  0
LAYER
  5
201
100
AcDbSymbolTableRecord
100
AcDbLayerTableRecord
  2
CURVE
 70
0
 62
7
  6
CONTINUOUS
370
-3
390
F
  0
LAYER
  5
202
100
AcDbSymbolTableRecord
100
AcDbLayerTableRecord
  2
DRAFT
 70
0
 62
7
  6
CONTINUOUS
370
-3
390
F
  0
LAYER
  5
203
100
AcDbSymbolTableRecord
100
AcDbLayerTableRecord
  2
IMPORT_IGES
 70
0
 62
7
  6
CONTINUOUS
370
-3
390
F
  0
LAYER
  5
204
100
AcDbSymbolTableRecord
100
AcDbLayerTableRecord
  2
INTF_1
 70
0
 62
7
  6
CONTINUOUS
370
-3
390
F
  0
LAYER
  5
205
100
AcDbSymbolTableRecord
100
AcDbLayerTableRecord
  2
INTF_11
 70
0
 62
7
  6
CONTINUOUS
370
-3
390
F
  0
LAYER
  5
206
100
AcDbSymbolTableRecord
100
AcDbLayerTableRecord
  2
NOTE
 70
0
 62
7
  6
CONTINUOUS
370
-3
390
F
  0
LAYER
  5
207
100
AcDbSymbolTableRecord
100
AcDbLayerTableRecord
  2
PIANI
 70
0
 62
7
  6
CONTINUOUS
370
-3
390
F
  0
LAYER
  5
208
100
AcDbSymbolTableRecord
100
AcDbLayerTableRecord
  2
PUNTI
 70
0
 62
7
  6
CONTINUOUS
370
-3
390
F
  0
LAYER
  5
209
100
AcDbSymbolTableRecord
100
AcDbLayerTableRecord
  2
RACCORDO
 70
0
 62
7
  6
CONTINUOUS
370
-3
390
F
  0
LAYER
  5
20A
100
AcDbSymbolTableRecord
100
AcDbLayerTableRecord
  2
RGB____0____0____0__
 70
0
 62
7
  6
CONTINUOUS
370
-3
390
F
  0
LAYER
  5
20B
100
AcDbSymbolTableRecord
100
AcDbLayerTableRecord
  2
SIMBOLI
 70
0
 62
7
  6
CONTINUOUS
370
-3
390
F
  0
LAYER
  5
20C
100
AcDbSymbolTableRecord
100
AcDbLayerTableRecord
  2
SMUSSO
 70
0
 62
7
  6
CONTINUOUS
370
-3
390
F
  0
LAYER
  5
20D
100
AcDbSymbolTableRecord
100
AcDbLayerTableRecord
  2
SNAPLINE
 70
0
 62
7
  6
CONTINUOUS
370
-3
390
F
  0
LAYER
  5
20E
100
AcDbSymbolTableRecord
100
AcDbLayerTableRecord
  2
SUPERFICI
 70
0
 62
7
  6
CONTINUOUS
370
-3
390
F
  0
LAYER
  5
20F
100
AcDbSymbolTableRecord
100
AcDbLayerTableRecord
  2
TRASH
 70
0
 62
7
  6
CONTINUOUS
370
-3
390
F
  0
ENDTAB
  0
TABLE
  2
STYLE
  5
3
100
AcDbSymbolTable
 70
1
  0
STYLE
  5
11
100
AcDbSymbolTableRecord
100
AcDbTextStyleTableRecord
  2
STANDARD
 70
0
 40
0.0
 41
0.8
 50
0.0
 71
0
 42
0.2
  3
txt
  4

  0
STYLE
  5
210
100
AcDbSymbolTableRecord
100
AcDbTextStyleTableRecord
  2
TEXTSTYLE_1
 70
0
 40
0.0
 41
0.8
 50
0.0
 71
0
 42
0.2
  3
gdt
  4

  0
ENDTAB
  0
TABLE
  2
VIEW
  5
6
100
AcDbSymbolTable
 70
0
  0
ENDTAB
  0
TABLE
  2
UCS
  5
7
100
AcDbSymbolTable
 70
0
  0
ENDTAB
  0
TABLE
  2
APPID
  5
9
100
AcDbSymbolTable
 70
1
  0
APPID
  5
211
100
AcDbSymbolTableRecord
100
AcDbRegAppTableRecord
  2
ACAD
 70
0
  0
ENDTAB
  0
TABLE
  2
BLOCK_RECORD
  5
1
100
AcDbSymbolTable
 70
0
  0
BLOCK_RECORD
  5
212
100
AcDbSymbolTableRecord
100
AcDbBlockTableRecord
  2
*Model_Space
  0
BLOCK_RECORD
  5
213
100
AcDbSymbolTableRecord
100
AcDbBlockTableRecord
  2
*Paper_Space
  0
BLOCK_RECORD
  5
214
100
AcDbSymbolTableRecord
100
AcDbBlockTableRecord
  2
_FILLED
  0
BLOCK_RECORD
  5
215
100
AcDbSymbolTableRecord
100
AcDbBlockTableRecord
  2
*D0
  0
BLOCK_RECORD
  5
216
100
AcDbSymbolTableRecord
100
AcDbBlockTableRecord
  2
*D1
  0
BLOCK_RECORD
  5
217
100
AcDbSymbolTableRecord
100
AcDbBlockTableRecord
  2
*D2
  0
ENDTAB
  0
TABLE
  2
DIMSTYLE
  5
A
100
AcDbSymbolTable
 70
1
100
AcDbDimStyleTable
 71
0
  0
DIMSTYLE
105
218
100
AcDbSymbolTableRecord
100
AcDbDimStyleTableRecord
  2
STANDARD
 70
0
  3

  4

 40
1.0
 41
3.0
 42
0.5
 43
0.38
 44
1.5
 45
0.0
 46
0.0
 47
0.01
 48
0.01
140
3.0
141
0.09
142
0.0
143
25.4
144
1.0
145
0.0
146
1.0
147
0.625
 71
1.0
 72
0.0
 73
0
 74
0
 75
0
 76
0
 77
1
 78
8
170
0
171
2
172
0
173
0
174
0
175
0
176
0
177
0
178
0
270
2
271
2
272
2
273
2
274
2
275
0
280
0
281
0
282
0
283
1
284
8
285
0
286
0
287
3
288
0
340
11
278
44
341
214
342
214
343
214
344
214
  0
DIMSTYLE
105
219
100
AcDbSymbolTableRecord
100
AcDbDimStyleTableRecord
  2
DIMSTYLE_1
 70
0
  3

  4

 40
1.0
 41
3.0
 42
0.5
 43
0.38
 44
1.5
 45
0.0
 46
0.0
 47
0.0
 48
0.0
140
3.0
141
0.09
142
0.0
143
25.4
144
1.0
145
0.0
146
1.0
147
0.75
 71
0.0
 72
0.0
 73
0
 74
0
 75
0
 76
0
 77
1
 78
8
170
0
171
2
172
0
173
0
174
0
175
0
176
0
177
0
178
0
270
2
271
1
272
1
273
2
274
2
275
0
280
0
281
0
282
0
283
1
284
8
285
0
286
0
287
3
288
0
340
11
278
44
341
214
342
214
343
214
344
214
  0
DIMSTYLE
105
21A
100
AcDbSymbolTableRecord
100
AcDbDimStyleTableRecord
  2
DIMSTYLE_2
 70
0
  3

  4

 40
1.0
 41
3.0
 42
0.5
 43
0.38
 44
1.5
 45
0.0
 46
0.0
 47
0.0
 48
0.0
140
3.0
141
0.09
142
0.0
143
25.4
144
1.0
145
0.0
146
1.0
147
0.75
 71
0.0
 72
0.0
 73
0
 74
0
 75
0
 76
0
 77
1
 78
8
170
0
171
2
172
0
173
0
174
0
175
0
176
0
177
0
178
0
270
2
271
2
272
2
273
2
274
2
275
0
280
0
281
0
282
0
283
1
284
8
285
0
286
0
287
3
288
0
340
11
278
44
341
214
342
214
343
214
344
214
  0
ENDTAB
  0
ENDSEC
  0
SECTION
  2
BLOCKS
  0
BLOCK
  5
20
100
AcDbEntity
  8
0
100
AcDbBlockBegin
  2
*Model_Space
 70
0
 10
0.0
 20
0.0
 30
0.0
  3
*Model_Space
  1

  0
ENDBLK
  5
21
100
AcDbEntity
  8
0
100
AcDbBlockEnd
  0
BLOCK
  5
1C
100
AcDbEntity
  8
0
100
AcDbBlockBegin
  2
*Paper_Space
 70
0
 10
0.0
 20
0.0
 30
0.0
  3
*Paper_Space
  1

  0
ENDBLK
  5
1D
100
AcDbEntity
  8
0
100
AcDbBlockEnd
  0
BLOCK
  5
21B
100
AcDbEntity
  8
0
100
AcDbBlockBegin
  2
_FILLED
 70
64
 10
0.0
 20
0.0
  3
_FILLED
  1

  0
SOLID
  5
21C
100
AcDbEntity
  8
0
  6
BYBLOCK
 62
0
100
AcDbTrace
 10
0.0
 20
0.0
 11
-1.0
 21
0.3166666667
 12
-1.0
 22
-0.3166666667
 13
-1.0
 23
-0.3166666667
  0
ENDBLK
  5
21D
100
AcDbEntity
  8
0
  6
BYBLOCK
 62
0
100
AcDbBlockEnd
  0
BLOCK
  5
21E
100
AcDbEntity
  8
0
100
AcDbBlockBegin
 62
7
  6
CONTINUOUS
  2
*D0
 70
65
 10
0.0
 20
0.0
  3
*D0
  1

  0
MTEXT
  5
21F
100
AcDbEntity
  8
0
100
AcDbMText
 62
7
  6
CONTINUOUS
  7
STANDARD
 71
3
 72
1
 10
86.4635762959
 20
61.75
 30
0.0
 11
1.0
 21
0.0
 31
0.0
 44
0.9
  1
9,1
 40
3.0
 41
8.6785714286
  0
LINE
  5
220
100
AcDbEntity
  8
0
100
AcDbLine
 62
7
  6
CONTINUOUS
 10
99.2604760761
 20
11.3167038491
 11
99.2604760761
 21
59.5
  0
LINE
  5
221
100
AcDbEntity
  8
0
100
AcDbLine
 62
7
  6
CONTINUOUS
 10
90.1910457515
 20
43.3797358613
 11
90.1910457515
 21
59.5
  0
LINE
  5
222
100
AcDbEntity
  8
0
100
AcDbLine
 62
7
  6
CONTINUOUS
 10
99.2604760761
 20
58.0
 11
103.2604760761
 21
58.0
  0
LINE
  5
223
100
AcDbEntity
  8
0
100
AcDbLine
 62
7
  6
CONTINUOUS
 10
103.2604760761
 20
58.0
 11
94.7257609138
 21
58.0
  0
LINE
  5
224
100
AcDbEntity
  8
0
100
AcDbLine
 62
7
  6
CONTINUOUS
 10
90.1910457515
 20
58.0
 11
80.6778620102
 21
58.0
  0
LINE
  5
225
100
AcDbEntity
  8
0
100
AcDbLine
 62
7
  6
CONTINUOUS
 10
80.6778620102
 20
58.0
 11
94.7257609138
 21
58.0
  0
INSERT
  5
226
100
AcDbEntity
  8
0
100
AcDbBlockReference
 62
7
  6
CONTINUOUS
  2
_FILLED
 10
99.2604760761
 20
58.0
 41
3.0
 42
3.0
 43
3.0
 50
180.0
  0
INSERT
  5
227
100
AcDbEntity
  8
0
100
AcDbBlockReference
 62
7
  6
CONTINUOUS
  2
_FILLED
 10
90.1910457515
 20
58.0
 41
3.0
 42
3.0
 43
3.0
  0
ENDBLK
  5
228
100
AcDbEntity
  8
0
  6
BYBLOCK
 62
0
100
AcDbBlockEnd
  0
BLOCK
  5
229
100
AcDbEntity
  8
0
100
AcDbBlockBegin
 62
7
  6
CONTINUOUS
  2
*D1
 70
65
 10
0.0
 20
0.0
  3
*D1
  1

  0
MTEXT
  5
22A
100
AcDbEntity
  8
0
100
AcDbMText
 62
7
  6
CONTINUOUS
  7
STANDARD
 71
2
 72
1
 10
0.0
 20
61.75
 30
0.0
 11
1.0
 21
0.0
 31
0.0
 44
0.9
  1
122
 40
3.0
 41
9.6428571429
  0
LINE
  5
22B
100
AcDbEntity
  8
0
100
AcDbLine
 62
7
  6
CONTINUOUS
 10
60.9999890968
 20
44.5035192549
 11
60.9999890968
 21
59.5
  0
LINE
  5
22C
100
AcDbEntity
  8
0
100
AcDbLine
 62
7
  6
CONTINUOUS
 10
-60.9999890968
 20
44.5035192549
 11
-60.9999890968
 21
59.5
  0
LINE
  5
22D
100
AcDbEntity
  8
0
100
AcDbLine
 62
7
  6
CONTINUOUS
 10
60.9999890968
 20
58.0
 11
0.0
 21
58.0
  0
LINE
  5
22E
100
AcDbEntity
  8
0
100
AcDbLine
 62
7
  6
CONTINUOUS
 10
-60.9999890968
 20
58.0
 11
0.0
 21
58.0
  0
INSERT
  5
22F
100
AcDbEntity
  8
0
100
AcDbBlockReference
 62
7
  6
CONTINUOUS
  2
_FILLED
 10
60.9999890968
 20
58.0
 41
3.0
 42
3.0
 43
3.0
  0
INSERT
  5
230
100
AcDbEntity
  8
0
100
AcDbBlockReference
 62
7
  6
CONTINUOUS
  2
_FILLED
 10
-60.9999890968
 20
58.0
 41
3.0
 42
3.0
 43
3.0
 50
180.0
  0
ENDBLK
  5
231
100
AcDbEntity
  8
0
  6
BYBLOCK
 62
0
100
AcDbBlockEnd
  0
BLOCK
  5
232
100
AcDbEntity
  8
0
100
AcDbBlockBegin
 62
7
  6
CONTINUOUS
  2
*D2
 70
65
 10
0.0
 20
0.0
  3
*D2
  1

  0
MTEXT
  5
233
100
AcDbEntity
  8
0
100
AcDbMText
 62
7
  6
CONTINUOUS
  7
STANDARD
 71
2
 72
1
 10
104.4410563323
 20
0.0
 30
0.0
 11
0.0
 21
1.0
 31
0.0
 44
0.9
  1
90
 40
3.0
 41
7.0714285714
  0
LINE
  5
234
100
AcDbEntity
  8
0
100
AcDbLine
 62
7
  6
CONTINUOUS
 10
94.3031246455
 20
45.0
 11
109.6910563323
 21
45.0
  0
LINE
  5
235
100
AcDbEntity
  8
0
100
AcDbLine
 62
7
  6
CONTINUOUS
 10
94.3031246455
 20
-45.0
 11
109.6910563323
 21
-45.0
  0
LINE
  5
236
100
AcDbEntity
  8
0
100
AcDbLine
 62
7
  6
CONTINUOUS
 10
108.1910563323
 20
45.0
 11
108.1910563323
 21
-0.0
  0
LINE
  5
237
100
AcDbEntity
  8
0
100
AcDbLine
 62
7
  6
CONTINUOUS
 10
108.1910563323
 20
-45.0
 11
108.1910563323
 21
-0.0
  0
INSERT
  5
238
100
AcDbEntity
  8
0
100
AcDbBlockReference
 62
7
  6
CONTINUOUS
  2
_FILLED
 10
108.1910563323
 20
45.0
 41
3.0
 42
3.0
 43
3.0
 50
90.0
  0
INSERT
  5
239
100
AcDbEntity
  8
0
100
AcDbBlockReference
 62
7
  6
CONTINUOUS
  2
_FILLED
 10
108.1910563323
 20
-45.0
 41
3.0
 42
3.0
 43
3.0
 50
270.0
  0
ENDBLK
  5
23A
100
AcDbEntity
  8
0
  6
BYBLOCK
 62
0
100
AcDbBlockEnd
  0
ENDSEC
  0
SECTION
  2
ENTITIES
  0
DIMENSION
  5
23B
100
AcDbEntity
  8
0
100
AcDbDimension
 62
7
  6
CONTINUOUS
  2
*D0
 10
90.1910457515
 20
58.0
 11
83.1421490021
 21
58.0
 70
160
 71
3
 42
9.0694303246
  3
DIMSTYLE_1
100
AcDbAlignedDimension
 13
99.2604760761
 23
10.8167038491
 14
90.1910457515
 24
42.8797358613
 50
180.0
100
AcDbRotatedDimension
  0
DIMENSION
  5
23C
100
AcDbEntity
  8
0
100
AcDbDimension
 62
7
  6
CONTINUOUS
  2
*D1
 10
-60.9999890968
 20
58.0
 11
-0.4285714481
 21
58.0
 70
160
 71
2
 42
121.9999781935
  3
DIMSTYLE_2
100
AcDbAlignedDimension
 13
60.9999890968
 23
44.0035192549
 14
-60.9999890968
 24
44.0035192549
 50
180.0
100
AcDbRotatedDimension
  0
DIMENSION
  5
23D
100
AcDbEntity
  8
0
100
AcDbDimension
 62
7
  6
CONTINUOUS
  2
*D2
 10
108.1910563323
 20
-45.0
 11
108.1910563323
 21
-0.4285700543
 70
160
 71
2
 42
90.0
  3
DIMSTYLE_2
100
AcDbAlignedDimension
 13
93.8031246455
 23
45.0
 14
93.8031246455
 24
-45.0
 50
270.0
100
AcDbRotatedDimension
  0
LWPOLYLINE
  5
23E
100
AcDbEntity
  8
RACCORDO
100
AcDbPolyline
 62
253
  6
CONTINUOUS
 90
28
 70
0
 10
-60.8448916334
 20
-43.8457940382
 10
-60.8425507296
 20
-43.9039047161
 10
-60.8368913919
 20
-43.9616903536
 10
-60.8279450976
 20
-44.0189621801
 10
-60.8157610321
 20
-44.0755152838
 10
-60.8003871632
 20
-44.1311862319
 10
-60.7818583161
 20
-44.1858503528
 10
-60.7602224396
 20
-44.2393619303
 10
-60.7355633178
 20
-44.2915114641
 10
-60.7079810534
 20
-44.3420846172
 10
-60.6775841457
 20
-44.3909042618
 10
-60.6444724219
 20
-44.4378314313
 10
-60.6087517164
 20
-44.4827206664
 10
-60.5705439738
 20
-44.525429701
 10
-60.5299806739
 20
-44.5658228843
 10
-60.4871913376
 20
-44.6037740409
 10
-60.4423213632
 20
-44.639161417
 10
-60.3955196596
 20
-44.671875489
 10
-60.3469284118
 20
-44.7018184359
 10
-60.2967033705
 20
-44.7288964631
 10
-60.2450142425
 20
-44.7530212018
 10
-60.1920303676
 20
-44.774115063
 10
-60.1379333701
 20
-44.7921085058
 10
-60.0828928168
 20
-44.8069486365
 10
-60.0270638833
 20
-44.8185937441
 10
-59.9706196489
 20
-44.827004556
 10
-59.9137517301
 20
-44.8321490217
 10
-59.8566450886
 20
-44.8340076387
  0
LWPOLYLINE
  5
23F
100
AcDbEntity
  8
RACCORDO
100
AcDbPolyline
 62
253
  6
CONTINUOUS
 90
28
 70
0
 10
-60.346857488
 20
-43.9268006745
 10
-60.3459972074
 20
-43.9563518857
 10
-60.3435067232
 20
-43.9855678874
 10
-60.3393860354
 20
-44.0144487109
 10
-60.3336109048
 20
-44.0430846235
 10
-60.3262055706
 20
-44.0713854142
 10
-60.3172427503
 20
-44.0990804217
 10
-60.3067030812
 20
-44.1261719681
 10
-60.2946059261
 20
-44.1526578398
 10
-60.2810820903
 20
-44.1782606199
 10
-60.2661203156
 20
-44.2029629192
 10
-60.2497318603
 20
-44.2267822746
 10
-60.2320813049
 20
-44.2494936973
 10
-60.2131566167
 20
-44.2710873732
 10
-60.1929698283
 20
-44.2915732801
 10
-60.1717216187
 20
-44.3107561426
 10
-60.1494020633
 20
-44.3286233086
 10
-60.1260210866
 20
-44.3451875919
 10
-60.1018091408
 20
-44.3602919299
 10
-60.0767585841
 20
-44.3739219713
 10
-60.0508770583
 20
-44.3860922083
 10
-60.024417941
 20
-44.3966888465
 10
-59.9973692277
 20
-44.4056969079
 10
-59.9697429228
 20
-44.4131314744
 10
-59.9418284174
 20
-44.4189238353
 10
-59.913722175
 20
-44.4230511061
 10
-59.8853277321
 20
-44.4255362264
 10
-59.8566450886
 20
-44.4263792099
  0
LINE
  5
240
100
AcDbEntity
  8
RACCORDO
100
AcDbLine
 62
7
  6
CONTINUOUS
 10
-60.9999996007
 20
-44.0035192549
 11
-61.0
 21
-22.5203789087
  0
LINE
  5
241
100
AcDbEntity
  8
DRAFT
100
AcDbLine
 62
7
  6
CONTINUOUS
 10
-61.0
 20
-22.5203789087
 11
-61.0
 21
22.5203789087
  0
LINE
  5
242
100
AcDbEntity
  8
RACCORDO
100
AcDbLine
 62
7
  6
CONTINUOUS
 10
-61.0
 20
22.5203789087
 11
-60.9999996007
 21
44.0035192549
  0
LINE
  5
243
100
AcDbEntity
  8
RACCORDO
100
AcDbLine
 62
253
  6
CONTINUOUS
 10
-60.8474462442
 20
0.0000001319
 11
-60.8448916333
 21
-43.845794038
  0
LINE
  5
244
100
AcDbEntity
  8
RACCORDO
100
AcDbLine
 62
253
  6
CONTINUOUS
 10
-60.3493488952
 20
0.0000000027
 11
-60.346857488
 21
-43.9268006745
  0
LINE
  5
245
100
AcDbEntity
  8
RACCORDO
100
AcDbLine
 62
253
  6
CONTINUOUS
 10
-59.8566450886
 20
-44.4263792099
 11
-59.8566450886
 21
-44.8340076387
  0
LINE
  5
246
100
AcDbEntity
  8
RACCORDO
100
AcDbLine
 62
253
  6
CONTINUOUS
 10
-59.8566450886
 20
44.4263792099
 11
-59.8566450889
 21
44.8340076387
  0
LINE
  5
247
100
AcDbEntity
  8
RACCORDO
100
AcDbLine
 62
253
  6
CONTINUOUS
 10
-60.8448916333
 20
43.8457940385
 11
-60.8474462442
 21
0.0000001319
  0
LINE
  5
248
100
AcDbEntity
  8
RACCORDO
100
AcDbLine
 62
253
  6
CONTINUOUS
 10
-60.346857488
 20
43.9268006745
 11
-60.3493488952
 21
0.0000000027
  0
LWPOLYLINE
  5
249
100
AcDbEntity
  8
RACCORDO
100
AcDbPolyline
 62
7
  6
CONTINUOUS
 90
28
 70
0
 10
-60.9999996007
 20
44.0035192549
 10
-60.9982508474
 20
44.0632408899
 10
-60.99314613
 20
44.1222945497
 10
-60.9846854486
 20
44.1806803605
 10
-60.9727769011
 20
44.2386673129
 10
-60.9575123896
 20
44.2959866303
 10
-60.9391676206
 20
44.3518319449
 10
-60.9177594647
 20
44.406038978
 10
-60.8932710513
 20
44.4587725744
 10
-60.8659274749
 20
44.5097202574
 10
-60.8357124582
 20
44.5589113297
 10
-60.8026422785
 20
44.6063170948
 10
-60.7669908621
 20
44.6515381854
 10
-60.7286215913
 20
44.6946403706
 10
-60.6876710837
 20
44.7355585396
 10
-60.6448231187
 20
44.7736971332
 10
-60.6001944544
 20
44.8088965316
 10
-60.5536683327
 20
44.8413170774
 10
-60.5055782576
 20
44.8708432141
 10
-60.4559155216
 20
44.8974915601
 10
-60.4046888324
 20
44.9212460649
 10
-60.3522578166
 20
44.9419421516
 10
-60.2984877502
 20
44.9595833458
 10
-60.2435133572
 20
44.9741665338
 10
-60.1880984368
 20
44.9855171539
 10
-60.1324975887
 20
44.9935770964
 10
-60.076456213
 20
44.9984046934
 10
-60.0199743099
 20
45.0
  0
LWPOLYLINE
  5
24A
100
AcDbEntity
  8
RACCORDO
100
AcDbPolyline
 62
253
  6
CONTINUOUS
 90
28
 70
0
 10
59.8566450886
 20
-44.8340076387
 10
59.9137447525
 20
-44.8321493719
 10
59.9705834619
 20
-44.8270088139
 10
60.0269768705
 20
-44.8186092666
 10
60.0827153883
 20
-44.8069910442
 10
60.1376469904
 20
-44.7921945993
 10
60.1916737481
 20
-44.7742449729
 10
60.2446551885
 20
-44.7531759451
 10
60.2963760028
 20
-44.7290606579
 10
60.3466292175
 20
-44.701990962
 10
60.3952330657
 20
-44.6720637266
 10
60.4420450514
 20
-44.6393668152
 10
60.4869259381
 20
-44.6039963408
 10
60.529727548
 20
-44.5660611712
 10
60.5703037265
 20
-44.5256836327
 10
60.6085252883
 20
-44.4829894899
 10
60.6442613472
 20
-44.4381134444
 10
60.6773891772
 20
-44.3911985155
 10
60.7078015314
 20
-44.3423925188
 10
60.7353927423
 20
-44.2918468391
 10
60.7600622823
 20
-44.2397271833
 10
60.7817238669
 20
-44.1862118502
 10
60.8002974199
 20
-44.1314774343
 10
60.8157160486
 20
-44.0756977734
 10
60.8279280287
 20
-44.0190538877
 10
60.8368863715
 20
-43.9617300776
 10
60.8425501543
 20
-43.9039136401
 10
60.8448916334
 20
-43.8457940386
  0
LWPOLYLINE
  5
24B
100
AcDbEntity
  8
RACCORDO
100
AcDbPolyline
 62
253
  6
CONTINUOUS
 90
28
 70
0
 10
59.8566450886
 20
-44.4263792099
 10
59.8853531406
 20
-44.4255286782
 10
59.9137533943
 20
-44.4230423958
 10
59.9418458497
 20
-44.4189203492
 10
59.9697148026
 20
-44.4131424313
 10
59.9972759571
 20
-44.4057286944
 10
60.0242764262
 20
-44.3967393517
 10
60.0507224648
 20
-44.3861550012
 10
60.0766078181
 20
-44.3739949408
 10
60.1016608342
 20
-44.360377428
 10
60.1258656889
 20
-44.3452911537
 10
60.1492382064
 20
-44.3287472864
 10
60.1715542076
 20
-44.3108978014
 10
60.1928064329
 20
-44.2917290081
 10
60.2130021419
 20
-44.2712544351
 10
60.2319389347
 20
-44.2496668996
 10
60.249605913
 20
-44.2269535946
 10
60.2660139753
 20
-44.2031271626
 10
60.2809934169
 20
-44.1784186206
 10
60.2945299508
 20
-44.1528183786
 10
60.306637864
 20
-44.1263358795
 10
60.317190314
 20
-44.0992307278
 10
60.3261720237
 20
-44.0714872154
 10
60.3335982701
 20
-44.0431209377
 10
60.3393880409
 20
-44.0144385042
 10
60.3435143322
 20
-43.9855421118
 10
60.3460041479
 20
-43.9563295117
 10
60.346857488
 20
-43.9268006745
  0
LWPOLYLINE
  5
24C
100
AcDbEntity
  8
RACCORDO
100
AcDbPolyline
 62
253
  6
CONTINUOUS
 90
19
 70
0
 10
60.346857488
 20
-43.926800663
 10
60.3879801891
 20
-43.9265061011
 10
60.4288242517
 20
-43.9256106825
 10
60.4691129252
 20
-43.9241204744
 10
60.5085732222
 20
-43.9220455743
 10
60.5469377684
 20
-43.919400041
 10
60.5839466137
 20
-43.9162018003
 10
60.6193489943
 20
-43.9124725226
 10
60.6529050313
 20
-43.9082374768
 10
60.6843873562
 20
-43.9035253587
 10
60.7135826515
 20
-43.8983680965
 10
60.7402930963
 20
-43.8928006347
 10
60.7643377064
 20
-43.8868606972
 10
60.7855535605
 20
-43.8805885318
 10
60.8037969048
 20
-43.8740266374
 10
60.8189441262
 20
-43.8672194758
 10
60.8308925904
 20
-43.8602131709
 10
60.8395613373
 20
-43.8530551961
 10
60.8448916292
 20
-43.8457940521
  0
LINE
  5
24D
100
AcDbEntity
  8
RACCORDO
100
AcDbLine
 62
7
  6
CONTINUOUS
 10
-60.0199743099
 20
-45.0
 11
60.0199743099
 21
-45.0
  0
LINE
  5
24E
100
AcDbEntity
  8
RACCORDO
100
AcDbLine
 62
253
  6
CONTINUOUS
 10
-59.8566450886
 20
-44.8340076387
 11
59.8566450886
 21
-44.8340076387
  0
LINE
  5
24F
100
AcDbEntity
  8
RACCORDO
100
AcDbLine
 62
253
  6
CONTINUOUS
 10
-59.8566450886
 20
-44.4263792099
 11
59.8566450886
 21
-44.4263792099
  0
LWPOLYLINE
  5
250
100
AcDbEntity
  8
RACCORDO
100
AcDbPolyline
 62
253
  6
CONTINUOUS
 90
19
 70
0
 10
-60.346857488
 20
-43.9268006691
 10
-60.387979849
 20
-43.92650608
 10
-60.4288235498
 20
-43.9256106375
 10
-60.4691118448
 20
-43.9241204087
 10
-60.5085717519
 20
-43.9220454911
 10
-60.5469359014
 20
-43.9193999435
 10
-60.5839443488
 20
-43.9162016915
 10
-60.6193463348
 20
-43.9124724056
 10
-60.6529019857
 20
-43.9082373542
 10
-60.6843839375
 20
-43.9035252331
 10
-60.7135788772
 20
-43.8983679701
 10
-60.7402889882
 20
-43.8928005095
 10
-60.76433329
 20
-43.886860575
 10
-60.7855488652
 20
-43.880588414
 10
-60.8037919629
 20
-43.8740265248
 10
-60.818938973
 20
-43.8672193692
 10
-60.8308872634
 20
-43.8602130706
 10
-60.839555876
 20
-43.8530551018
 10
-60.8448860746
 20
-43.8457939633
  0
LWPOLYLINE
  5
251
100
AcDbEntity
  8
RACCORDO
100
AcDbPolyline
 62
7
  6
CONTINUOUS
 90
28
 70
0
 10
-60.0199743099
 20
-45.0
 10
-60.0764796275
 20
-44.9983984097
 10
-60.1325279765
 20
-44.9935696001
 10
-60.1881193568
 20
-44.985513516
 10
-60.2434996027
 20
-44.9741734187
 10
-60.2984228799
 20
-44.9596058251
 10
-60.3521516857
 20
-44.9419805178
 10
-60.4045601789
 20
-44.9213008268
 10
-60.4557742006
 20
-44.8975630105
 10
-60.5054337718
 20
-44.8709262165
 10
-60.5535341419
 20
-44.8414026277
 10
-60.6000800615
 20
-44.8089794921
 10
-60.644725804
 20
-44.7737785384
 10
-60.6875837275
 20
-44.7356410578
 10
-60.728541474
 20
-44.6947250367
 10
-60.766916242
 20
-44.6516273066
 10
-60.8025704216
 20
-44.6064154248
 10
-60.8356416227
 20
-44.5590211768
 10
-60.8658598742
 20
-44.5098378632
 10
-60.8932104307
 20
-44.4588949527
 10
-60.9177080375
 20
-44.4061623695
 10
-60.9391269589
 20
-44.3519442023
 10
-60.9574859133
 20
-44.2960644203
 10
-60.9727661823
 20
-44.2386984821
 10
-60.9846858746
 20
-44.1806779204
 10
-60.9931510266
 20
-44.1222799043
 10
-60.998255602
 20
-44.063227057
 10
-60.9999996007
 20
-44.0035192549
  0
LWPOLYLINE
  5
252
100
AcDbEntity
  8
RACCORDO
100
AcDbPolyline
 62
253
  6
CONTINUOUS
 90
16
 70
0
 10
-34.1508701393
 20
22.6310194482
 10
-34.1005357167
 20
22.6897222478
 10
-34.0470675552
 20
22.745075976
 10
-33.9904656547
 20
22.7970807964
 10
-33.9305052031
 20
22.8459304762
 10
-33.8674110126
 20
22.8914315452
 10
-33.8018575197
 20
22.9330033221
 10
-33.7337569237
 20
22.9706031358
 10
-33.6631970252
 20
23.0042739461
 10
-33.5911156629
 20
23.0335635375
 10
-33.5174666569
 20
23.0583767186
 10
-33.4422961872
 20
23.0788089062
 10
-33.3666806325
 20
23.0946937877
 10
-33.2909787855
 20
23.1059759664
 10
-33.2148318535
 20
23.1127109576
 10
-33.1382398365
 20
23.1148987905
  0
LWPOLYLINE
  5
253
100
AcDbEntity
  8
RACCORDO
100
AcDbPolyline
 62
253
  6
CONTINUOUS
 90
16
 70
0
 10
-33.7624604562
 20
22.2931695584
 10
-33.731521235
 20
22.3290265036
 10
-33.6984536369
 20
22.3630398481
 10
-33.663364947
 20
22.3950812845
 10
-33.6263710508
 20
22.4250267807
 10
-33.5875941518
 20
22.4527626645
 10
-33.5471617849
 20
22.4781852485
 10
-33.5051686287
 20
22.5012137539
 10
-33.4617966892
 20
22.5217280681
 10
-33.4173239915
 20
22.5395982851
 10
-33.3719070131
 20
22.5547718971
 10
-33.3257164016
 20
22.5672021431
 10
-33.2790724011
 20
22.5768307257
 10
-33.2321982671
 20
22.5836553704
 10
-33.1852116762
 20
22.5877001985
 10
-33.138277579
 20
22.5889882637
  0
LWPOLYLINE
  5
254
100
AcDbEntity
  8
RACCORDO
100
AcDbPolyline
 62
253
  6
CONTINUOUS
 90
13
 70
0
 10
-33.7624604562
 20
-22.2931695584
 10
-33.7896445675
 20
-22.2577185913
 10
-33.8149542236
 20
-22.2205548862
 10
-33.8382680988
 20
-22.1817682862
 10
-33.8595214019
 20
-22.1413503863
 10
-33.8785348836
 20
-22.0995104899
 10
-33.8950781624
 20
-22.0567037037
 10
-33.9091039043
 20
-22.0130827146
 10
-33.9205798584
 20
-21.9687871502
 10
-33.9294229004
 20
-21.9242946059
 10
-33.9356582011
 20
-21.8798722206
 10
-33.9393568619
 20
-21.8355604888
 10
-33.9405731628
 20
-21.791501964
  0
LWPOLYLINE
  5
255
100
AcDbEntity
  8
RACCORDO
100
AcDbPolyline
 62
253
  6
CONTINUOUS
 90
13
 70
0
 10
-34.1508701393
 20
-22.6310194482
 10
-34.1951880134
 20
-22.5731806662
 10
-34.2361171448
 20
-22.5128252747
 10
-34.2736575335
 20
-22.4499532241
 10
-34.3080305266
 20
-22.3841672107
 10
-34.339014777
 20
-22.3158644271
 10
-34.365946243
 20
-22.2462365918
 10
-34.3886484722
 20
-22.1752585035
 10
-34.407297917
 20
-22.1029553051
 10
-34.4217598923
 20
-22.0305942865
 10
-34.4319895031
 20
-21.9585978918
 10
-34.4380316445
 20
-21.8865436847
 10
-34.4398863164
 20
-21.8144316658
  0
LWPOLYLINE
  5
256
100
AcDbEntity
  8
RACCORDO
100
AcDbPolyline
 62
7
  6
CONTINUOUS
 90
25
 70
0
 10
-33.8500000304
 20
-21.7011338162
 10
-33.8483133338
 20
-21.7532149459
 10
-33.8432577281
 20
-21.8047950352
 10
-33.8348332135
 20
-21.855874092
 10
-33.8229548361
 20
-21.9067511078
 10
-33.8077075498
 20
-21.9571271031
 10
-33.7893462156
 20
-22.0061051433
 10
-33.7679085355
 20
-22.0534957168
 10
-33.7433568076
 20
-22.0994883805
 10
-33.7158327874
 20
-22.143754821
 10
-33.6852133541
 20
-22.1864259539
 10
-33.6516216286
 20
-22.2273709113
 10
-33.6155687287
 20
-22.2658687184
 10
-33.5769856534
 20
-22.3018503551
 10
-33.5359414038
 20
-22.3353849024
 10
-33.4931541008
 20
-22.3659585498
 10
-33.4487463026
 20
-22.3934508262
 10
-33.402595451
 20
-22.4179822607
 10
-33.3550519923
 20
-22.4394005457
 10
-33.3059446846
 20
-22.4577375369
 10
-33.2554447697
 20
-22.47296142
 10
-33.204416419
 20
-22.4848243794
 10
-33.1531476896
 20
-22.4932438182
 10
-33.1013505244
 20
-22.4983023565
 10
-33.0490249234
 20
-22.5
  0
LINE
  5
257
100
AcDbEntity
  8
RACCORDO
100
AcDbLine
 62
253
  6
CONTINUOUS
 10
-34.4398863164
 20
-21.8144316658
 11
-34.4398863164
 21
21.8144316658
  0
LINE
  5
258
100
AcDbEntity
  8
RACCORDO
100
AcDbLine
 62
253
  6
CONTINUOUS
 10
-33.9405731938
 20
-21.7915019943
 11
-33.9405731783
 21
21.7914779004
  0
LINE
  5
259
100
AcDbEntity
  8
RACCORDO
100
AcDbLine
 62
7
  6
CONTINUOUS
 10
-33.8500000304
 20
21.7011338162
 11
-33.8500000304
 21
-21.7011338162
  0
LINE
  5
25A
100
AcDbEntity
  8
RACCORDO
100
AcDbLine
 62
253
  6
CONTINUOUS
 10
-33.1382398365
 20
23.1148987905
 11
-33.1382398365
 21
22.5889882007
  0
LINE
  5
25B
100
AcDbEntity
  8
RACCORDO
100
AcDbLine
 62
253
  6
CONTINUOUS
 10
-33.1382398365
 20
-23.1148987905
 11
-33.1382398366
 21
-22.5889882007
  0
LWPOLYLINE
  5
25C
100
AcDbEntity
  8
RACCORDO
100
AcDbPolyline
 62
253
  6
CONTINUOUS
 90
13
 70
0
 10
-34.4398863164
 20
21.8144316658
 10
-34.4380955195
 20
21.8858708067
 10
-34.4321482674
 20
21.9573603635
 10
-34.4220445601
 20
22.0289003334
 10
-34.4077700142
 20
22.1008904856
 10
-34.3893390131
 20
22.1729310385
 10
-34.3667947072
 20
22.2438226906
 10
-34.3399427996
 20
22.3135964281
 10
-34.3089775872
 20
22.3822213141
 10
-34.2745251108
 20
22.4484052204
 10
-34.2367940509
 20
22.5117174844
 10
-34.1955757271
 20
22.5725888775
 10
-34.1508701393
 20
22.6310194482
  0
LWPOLYLINE
  5
25D
100
AcDbEntity
  8
RACCORDO
100
AcDbPolyline
 62
253
  6
CONTINUOUS
 90
13
 70
0
 10
-33.9405731696
 20
21.7914778918
 10
-33.9393771606
 20
21.835193491
 10
-33.9357322721
 20
21.8792069796
 10
-33.9295774651
 20
21.9233780954
 10
-33.9208398831
 20
21.9676458435
 10
-33.9094844562
 20
22.0117666501
 10
-33.8955635601
 20
22.0553271719
 10
-33.8790758325
 20
22.0982192079
 10
-33.8600617406
 20
22.1402449168
 10
-33.8387585536
 20
22.1808959525
 10
-33.8153462434
 20
22.2199420883
 10
-33.7898752454
 20
22.2573993105
 10
-33.7624604562
 20
22.2931695584
  0
LWPOLYLINE
  5
25E
100
AcDbEntity
  8
0
100
AcDbPolyline
 62
7
  6
CONTINUOUS
 90
31
 70
0
 10
4.2166806432
 20
-27.3236280866
 10
4.2406546757
 20
-27.3228654953
 10
4.2645214762
 20
-27.3213562407
 10
4.2882810445
 20
-27.3191003212
 10
4.3119785627
 20
-27.3161596021
 10
4.3355688487
 20
-27.3124722128
 10
4.3589163566
 20
-27.3078525456
 10
4.3820299674
 20
-27.3023301173
 10
4.4049008
 20
-27.2958753978
 10
4.4273666646
 20
-27.2882142046
 10
4.4495333333
 20
-27.2793212544
 10
4.471295034
 20
-27.269221802
 10
4.4921722609
 20
-27.2577174635
 10
4.5121290129
 20
-27.2447075899
 10
4.5312012911
 20
-27.2302927806
 10
4.5490175932
 20
-27.2145765195
 10
4.5654540938
 20
-27.1974468155
 10
4.5806346183
 20
-27.1790155984
 10
4.59455914
 20
-27.1597222429
 10
4.6071990685
 20
-27.1395873156
 10
4.6185829943
 20
-27.1185902033
 10
4.628796663
 20
-27.097108533
 10
4.6378383375
 20
-27.0752115309
 10
4.6457097549
 20
-27.0528299435
 10
4.6525018722
 20
-27.0301336947
 10
4.6582494173
 20
-27.0071387548
 10
4.6629176622
 20
-26.9838291347
 10
4.66649338
 20
-26.9603268274
 10
4.6689721617
 20
-26.9366724951
 10
4.6703584164
 20
-26.912825465
 10
4.670652144
 20
-26.8887857312
  0
LINE
  5
25F
100
AcDbEntity
  8
0
100
AcDbLine
 62
7
  6
CONTINUOUS
 10
-4.616107
 20
-28.877801
 11
-4.101097
 21
-28.877801
  0
LINE
  5
260
100
AcDbEntity
  8
0
100
AcDbLine
 62
7
  6
CONTINUOUS
 10
-2.984285
 20
-28.877801
 11
-2.399877
 21
-28.877801
  0
LINE
  5
261
100
AcDbEntity
  8
0
100
AcDbLine
 62
7
  6
CONTINUOUS
 10
-2.085272
 20
-28.877801
 11
-1.526183
 21
-28.877801
  0
LINE
  5
262
100
AcDbEntity
  8
0
100
AcDbLine
 62
7
  6
CONTINUOUS
 10
-0.714487
 20
-28.877801
 11
-0.632524
 21
-28.877801
  0
LINE
  5
263
100
AcDbEntity
  8
0
100
AcDbLine
 62
7
  6
CONTINUOUS
 10
0.182406
 20
-28.877801
 11
0.754112
 21
-28.877801
  0
LINE
  5
264
100
AcDbEntity
  8
0
100
AcDbLine
 62
7
  6
CONTINUOUS
 10
0.84588
 20
-28.877801
 11
1.423947
 21
-28.877801
  0
LINE
  5
265
100
AcDbEntity
  8
0
100
AcDbLine
 62
7
  6
CONTINUOUS
 10
2.532466
 20
-28.877801
 11
3.148408
 21
-28.877801
  0
LINE
  5
266
100
AcDbEntity
  8
0
100
AcDbLine
 62
7
  6
CONTINUOUS
 10
3.3200188023
 20
-28.8778013544
 11
3.9020753449
 21
-28.8778013544
  0
LINE
  5
267
100
AcDbEntity
  8
0
100
AcDbLine
 62
7
  6
CONTINUOUS
 10
4.7970156219
 20
-28.8778013544
 11
5.3591482119
 21
-28.8778013544
  0
LINE
  5
268
100
AcDbEntity
  8
0
100
AcDbLine
 62
7
  6
CONTINUOUS
 10
1.585207
 20
-28.318881
 11
2.381074
 21
-28.318881
  0
LINE
  5
269
100
AcDbEntity
  8
0
100
AcDbLine
 62
7
  6
CONTINUOUS
 10
1.704751
 20
-27.886391
 11
2.26428
 21
-27.886391
  0
LINE
  5
26A
100
AcDbEntity
  8
0
100
AcDbLine
 62
7
  6
CONTINUOUS
 10
3.9020753449
 20
-27.7821519248
 11
4.2154209623
 21
-27.7821519248
  0
LINE
  5
26B
100
AcDbEntity
  8
0
100
AcDbLine
 62
7
  6
CONTINUOUS
 10
3.8826972541
 20
-27.3236280866
 11
4.2166806432
 21
-27.3236280866
  0
LWPOLYLINE
  5
26C
100
AcDbEntity
  8
0
100
AcDbPolyline
 62
7
  6
CONTINUOUS
 90
25
 70
0
 10
3.3200188023
 20
-26.110807341
 10
3.3799027966
 20
-26.1020844693
 10
3.4397272979
 20
-26.0938718944
 10
3.4994923061
 20
-26.0861696216
 10
3.5591580247
 20
-26.0789265652
 10
3.6187642502
 20
-26.0721938203
 10
3.6784303725
 20
-26.0661246648
 10
3.7381695309
 20
-26.060712544
 10
3.797968586
 20
-26.0559640222
 10
3.8579075097
 20
-26.052052057
 10
3.9179956712
 20
-26.0489694189
 10
3.9782237012
 20
-26.0467233447
 10
4.0386434638
 20
-26.0455084914
 10
4.0993165898
 20
-26.0453218223
 10
4.1601814484
 20
-26.0461663759
 10
4.2211050119
 20
-26.0482459199
 10
4.2820979644
 20
-26.051492288
 10
4.3431496219
 20
-26.0559736384
 10
4.4040949035
 20
-26.0620982194
 10
4.465062268
 20
-26.0697756221
 10
4.5259232566
 20
-26.0790962269
 10
4.5861274128
 20
-26.0907394505
 10
4.6454912509
 20
-26.1049317355
 10
4.7041982566
 20
-26.1214465597
 10
4.7622484297
 20
-26.1402838735
  0
LWPOLYLINE
  5
26D
100
AcDbEntity
  8
RACCORDO
100
AcDbPolyline
 62
7
  6
CONTINUOUS
 90
25
 70
0
 10
33.0490249234
 20
-22.5
 10
33.1013240094
 20
-22.4983104261
 10
33.1531131864
 20
-22.4932534631
 10
33.2043924545
 20
-22.4848291052
 10
33.2554625192
 20
-22.4729509001
 10
33.3060226751
 20
-22.4577052768
 10
33.3551708052
 20
-22.4393515476
 10
33.4027156104
 20
-22.4179275284
 10
33.44884839
 20
-22.393395362
 10
33.4932409247
 20
-22.365900848
 10
33.5360246785
 20
-22.3353202354
 10
33.5770681874
 20
-22.3017772171
 10
33.6156488412
 20
-22.2657887614
 10
33.6516951091
 20
-22.2272882844
 10
33.6852785217
 20
-22.1863423092
 10
33.7158910611
 20
-22.1436674776
 10
33.7434127797
 20
-22.0993858384
 10
33.7679636251
 20
-22.0533752949
 10
33.7893954213
 20
-22.0059862851
 10
33.8077398797
 20
-21.9570493345
 10
33.8229652891
 20
-21.9067338732
 10
33.8348283398
 20
-21.8558987137
 10
33.8432479286
 20
-21.8048301281
 10
33.8483051588
 20
-21.7532418316
 10
33.8500000304
 20
-21.7011338162
  0
LWPOLYLINE
  5
26E
100
AcDbEntity
  8
RACCORDO
100
AcDbPolyline
 62
253
  6
CONTINUOUS
 90
16
 70
0
 10
60.4715266169
 20
-22.6302605538
 10
60.5110191827
 20
-22.6296730821
 10
60.5494130905
 20
-22.6289240635
 10
60.5864477259
 20
-22.6280185823
 10
60.6218717013
 20
-22.6269627849
 10
60.6554445618
 20
-22.6257638378
 10
60.6869384181
 20
-22.6244298795
 10
60.7161394927
 20
-22.6229699647
 10
60.7428495713
 20
-22.6213940031
 10
60.7668873484
 20
-22.6197126924
 10
60.7880896578
 20
-22.6179374449
 10
60.8063125802
 20
-22.6160803111
 10
60.8214324199
 20
-22.6141538968
 10
60.833346545
 20
-22.6121712785
 10
60.8419740833
 20
-22.610145914
 10
60.8472564721
 20
-22.6080915512
  0
LWPOLYLINE
  5
26F
100
AcDbEntity
  8
RACCORDO
100
AcDbPolyline
 62
253
  6
CONTINUOUS
 90
16
 70
0
 10
60.4715296113
 20
-22.5424730477
 10
60.5110222338
 20
-22.5418866889
 10
60.5494161932
 20
-22.5411394418
 10
60.5864508739
 20
-22.5402363786
 10
60.6218748872
 20
-22.5391836293
 10
60.6554477773
 20
-22.5379883399
 10
60.6869416538
 20
-22.5366586239
 10
60.7161427385
 20
-22.5352035073
 10
60.7428528165
 20
-22.5336328674
 10
60.7668905816
 20
-22.5319573655
 10
60.7880928672
 20
-22.5301883749
 10
60.8063157536
 20
-22.5283379033
 10
60.8214355451
 20
-22.5264185116
 10
60.8333496098
 20
-22.5244432284
 10
60.8419770757
 20
-22.522425462
 10
60.8472593802
 20
-22.5203789087
  0
LWPOLYLINE
  5
270
100
AcDbEntity
  8
RACCORDO
100
AcDbPolyline
 62
253
  6
CONTINUOUS
 90
16
 70
0
 10
-34.3147013173
 20
-21.8136609015
 10
-34.274361109
 20
-21.8130665564
 10
-34.2351980169
 20
-21.8123095511
 10
-34.1974905456
 20
-21.811395269
 10
-34.161506848
 20
-21.810330212
 10
-34.1275028187
 20
-21.8091219541
 10
-34.0957202739
 20
-21.8077790877
 10
-34.0663852322
 20
-21.8063111625
 10
-34.0397063068
 20
-21.8047286174
 10
-34.0158732222
 20
-21.8030427066
 10
-33.9950554652
 20
-21.8012654193
 10
-33.977401079
 20
-21.7994093945
 10
-33.9630356112
 20
-21.797487831
 10
-33.9520612204
 20
-21.795514394
 10
-33.9445559499
 20
-21.7935031174
 10
-33.9405731727
 20
-21.791468304
  0
LINE
  5
271
100
AcDbEntity
  8
RACCORDO
100
AcDbLine
 62
253
  6
CONTINUOUS
 10
60.3903234369
 20
-22.6309360294
 11
60.4715266169
 21
-22.6302605538
  0
LWPOLYLINE
  5
272
100
AcDbEntity
  8
RACCORDO
100
AcDbPolyline
 62
253
  6
CONTINUOUS
 90
3
 70
0
 10
60.3491668284
 20
-22.5432326076
 10
60.3903263074
 20
-22.5431482988
 10
60.4715296113
 20
-22.5424730477
  0
LWPOLYLINE
  5
273
100
AcDbEntity
  8
RACCORDO
100
AcDbPolyline
 62
253
  6
CONTINUOUS
 90
3
 70
0
 10
-34.4398863164
 20
-21.8144316653
 10
-34.3977592502
 20
-21.8143458915
 10
-34.3147013173
 20
-21.8136609015
  0
LINE
  5
274
100
AcDbEntity
  8
0
100
AcDbLine
 62
7
  6
CONTINUOUS
 10
-5.503668
 20
-26.078098
 11
-4.86882
 21
-26.078098
  0
LINE
  5
275
100
AcDbEntity
  8
0
100
AcDbLine
 62
7
  6
CONTINUOUS
 10
-3.785169
 20
-26.078098
 11
-3.20116
 21
-26.078098
  0
LINE
  5
276
100
AcDbEntity
  8
0
100
AcDbLine
 62
7
  6
CONTINUOUS
 10
-1.832475
 20
-26.078098
 11
-1.24855
 21
-26.078098
  0
LINE
  5
277
100
AcDbEntity
  8
0
100
AcDbLine
 62
7
  6
CONTINUOUS
 10
-0.085906
 20
-26.078098
 11
0.492308
 21
-26.078098
  0
LINE
  5
278
100
AcDbEntity
  8
0
100
AcDbLine
 62
7
  6
CONTINUOUS
 10
1.724045
 20
-26.078098
 11
2.28939
 21
-26.078098
  0
LINE
  5
279
100
AcDbEntity
  8
0
100
AcDbLine
 62
7
  6
CONTINUOUS
 10
-2.984285
 20
-26.07793
 11
-2.399877
 21
-26.07793
  0
LINE
  5
27A
100
AcDbEntity
  8
RACCORDO
100
AcDbLine
 62
253
  6
CONTINUOUS
 10
33.1382398365
 20
-23.1148987905
 11
-33.1382398365
 21
-23.1148987905
  0
LINE
  5
27B
100
AcDbEntity
  8
RACCORDO
100
AcDbLine
 62
253
  6
CONTINUOUS
 10
34.1508701393
 20
-22.6310194482
 11
60.3903234369
 21
-22.6309360294
  0
LINE
  5
27C
100
AcDbEntity
  8
RACCORDO
100
AcDbLine
 62
253
  6
CONTINUOUS
 10
33.1382778217
 20
-22.5889882007
 11
-33.1382479637
 21
-22.5889882007
  0
LINE
  5
27D
100
AcDbEntity
  8
RACCORDO
100
AcDbLine
 62
253
  6
CONTINUOUS
 10
60.8472593806
 20
-22.5203789087
 11
61.0
 21
-22.5203789087
  0
LINE
  5
27E
100
AcDbEntity
  8
RACCORDO
100
AcDbLine
 62
253
  6
CONTINUOUS
 10
-60.8472593806
 20
-22.5203789087
 11
-61.0
 21
-22.5203789087
  0
LINE
  5
27F
100
AcDbEntity
  8
RACCORDO
100
AcDbLine
 62
7
  6
CONTINUOUS
 10
-33.0490249234
 20
-22.5
 11
33.0490249234
 21
-22.5
  0
LINE
  5
280
100
AcDbEntity
  8
RACCORDO
100
AcDbLine
 62
253
  6
CONTINUOUS
 10
-34.1508701393
 20
-22.6310194482
 11
-60.3903234359
 21
-22.6309360285
  0
LWPOLYLINE
  5
281
100
AcDbEntity
  8
RACCORDO
100
AcDbPolyline
 62
253
  6
CONTINUOUS
 90
18
 70
0
 10
-60.3491668284
 20
-22.5432326078
 10
-60.4312063993
 20
-22.5428945383
 10
-60.4715296121
 20
-22.5424730479
 10
-60.5110222349
 20
-22.5418866891
 10
-60.5494161945
 20
-22.541139442
 10
-60.5864508755
 20
-22.5402363788
 10
-60.621874889
 20
-22.5391836295
 10
-60.6554477792
 20
-22.5379883401
 10
-60.6869416558
 20
-22.5366586241
 10
-60.7161427406
 20
-22.5352035075
 10
-60.7428528185
 20
-22.5336328675
 10
-60.7668905836
 20
-22.5319573656
 10
-60.788092869
 20
-22.530188375
 10
-60.8063157552
 20
-22.5283379034
 10
-60.8214355466
 20
-22.5264185116
 10
-60.833349611
 20
-22.5244432285
 10
-60.8419770765
 20
-22.522425462
 10
-60.8472593806
 20
-22.5203789087
  0
LWPOLYLINE
  5
282
100
AcDbEntity
  8
RACCORDO
100
AcDbPolyline
 62
253
  6
CONTINUOUS
 90
18
 70
0
 10
34.4398863164
 20
-21.8144314823
 10
34.3559314718
 20
-21.8140882205
 10
34.3147008306
 20
-21.8136607821
 10
34.2743604075
 20
-21.8130664553
 10
34.2351970833
 20
-21.8123094669
 10
34.197489368
 20
-21.8113952001
 10
34.1615054199
 20
-21.8103301568
 10
34.1275011389
 20
-21.809121911
 10
34.0957183463
 20
-21.8077790552
 10
34.0663830654
 20
-21.806311139
 10
34.0397039141
 20
-21.8047286015
 10
34.015870621
 20
-21.8030426971
 10
33.9950526767
 20
-21.8012654149
 10
33.9773981278
 20
-21.7994093941
 10
33.9630325248
 20
-21.7974878339
 10
33.9520580285
 20
-21.7955143993
 10
33.9445526841
 20
-21.7935031244
 10
33.9405698658
 20
-21.7914683126
  0
LWPOLYLINE
  5
283
100
AcDbEntity
  8
RACCORDO
100
AcDbPolyline
 62
253
  6
CONTINUOUS
 90
17
 70
0
 10
-60.3903234359
 20
-22.6309360285
 10
-60.471526614
 20
-22.6302605529
 10
-60.511019179
 20
-22.6296730812
 10
-60.549413086
 20
-22.6289240627
 10
-60.5864477207
 20
-22.6280185816
 10
-60.6218716955
 20
-22.6269627842
 10
-60.6554445556
 20
-22.6257638372
 10
-60.6869384116
 20
-22.6244298789
 10
-60.716139486
 20
-22.6229699641
 10
-60.7428495646
 20
-22.6213940027
 10
-60.766887342
 20
-22.6197126919
 10
-60.7880896518
 20
-22.6179374446
 10
-60.8063125747
 20
-22.6160803108
 10
-60.8214324152
 20
-22.6141538966
 10
-60.8333465412
 20
-22.6121712784
 10
-60.8419740807
 20
-22.6101459139
 10
-60.8472564707
 20
-22.6080915512
  0
LWPOLYLINE
  5
284
100
AcDbEntity
  8
RACCORDO
100
AcDbPolyline
 62
253
  6
CONTINUOUS
 90
16
 70
0
 10
-33.1382398365
 20
-23.1148987905
 10
-33.21349092
 20
-23.1129194744
 10
-33.2887432805
 20
-23.1063428555
 10
-33.3639969181
 20
-23.0951689046
 10
-33.4396888418
 20
-23.0793863082
 10
-33.5153820424
 20
-23.0590062615
 10
-33.5897654929
 20
-23.0340624693
 10
-33.6628576802
 20
-23.0043550541
 10
-33.7346401174
 20
-22.9700836546
 10
-33.803746316
 20
-22.9318812426
 10
-33.8700385349
 20
-22.8896014802
 10
-33.9336545154
 20
-22.8433904092
 10
-33.9936409925
 20
-22.7943196185
 10
-34.0496802114
 20
-22.7427462394
 10
-34.102089927
 20
-22.6883128948
 10
-34.1508701393
 20
-22.6310194482
  0
LWPOLYLINE
  5
285
100
AcDbEntity
  8
RACCORDO
100
AcDbPolyline
 62
253
  6
CONTINUOUS
 90
16
 70
0
 10
-33.1382479775
 20
-22.5889882145
 10
-33.1844147345
 20
-22.5877449773
 10
-33.2308975617
 20
-22.5838047505
 10
-33.2775328892
 20
-22.5770997368
 10
-33.3242305039
 20
-22.567553504
 10
-33.3707255184
 20
-22.5551268985
 10
-33.4165918799
 20
-22.539866936
 10
-33.4616984891
 20
-22.5217708151
 10
-33.5058151674
 20
-22.500883428
 10
-33.5484093575
 20
-22.4774502383
 10
-33.5893164508
 20
-22.4516032205
 10
-33.6284317712
 20
-22.4234522053
 10
-33.6653912464
 20
-22.3933327705
 10
-33.7000443168
 20
-22.3614945546
 10
-33.7324161707
 20
-22.3280488225
 10
-33.7624604562
 20
-22.2931695584
  0
LWPOLYLINE
  5
286
100
AcDbEntity
  8
0
100
AcDbPolyline
 62
7
  6
CONTINUOUS
 90
10
 70
0
 10
4.34051343
 20
-26.5385722489
 10
4.2916328622
 20
-26.5336453633
 10
4.2421975134
 20
-26.5303962016
 10
4.1922073838
 20
-26.5288247713
 10
4.1415853973
 20
-26.5289152862
 10
4.09040863
 20
-26.5306835356
 10
4.0389083093
 20
-26.5341768844
 10
3.987161511
 20
-26.5394111143
 10
3.9350911592
 20
-26.5463704235
 10
3.8826972541
 20
-26.5550547959
  0
LWPOLYLINE
  5
287
100
AcDbEntity
  8
0
100
AcDbPolyline
 62
7
  6
CONTINUOUS
 90
51
 70
0
 10
4.7622484297
 20
-26.1402838735
 10
4.7932666574
 20
-26.1528453516
 10
4.8244379648
 20
-26.1679736384
 10
4.8557623521
 20
-26.1856686836
 10
4.8873660258
 20
-26.2058374532
 10
4.9191227794
 20
-26.2285728565
 10
4.950653993
 20
-26.254153737
 10
4.9821804314
 20
-26.2826085275
 10
5.0134813299
 20
-26.313908593
 10
5.0435157744
 20
-26.3482471424
 10
5.0724134728
 20
-26.3860969967
 10
5.1000447174
 20
-26.4269850289
 10
5.1249794703
 20
-26.4696855644
 10
5.1469019238
 20
-26.5145463974
 10
5.1661278857
 20
-26.561219504
 10
5.1821747416
 20
-26.6074356801
 10
5.1945848625
 20
-26.6527707105
 10
5.2038158774
 20
-26.6976488767
 10
5.2107580588
 20
-26.7410739193
 10
5.2154654336
 20
-26.7826857923
 10
5.217883975
 20
-26.822844717
 10
5.218741874
 20
-26.8616348867
 10
5.2181616096
 20
-26.8990750666
 10
5.2160207029
 20
-26.9351466294
 10
5.2126799092
 20
-26.9698776705
 10
5.2081564158
 20
-27.0032608567
 10
5.2024330354
 20
-27.0353036444
 10
5.1958189622
 20
-27.0660563059
 10
5.188326324
 20
-27.0955042496
 10
5.1799429931
 20
-27.1236621734
 10
5.1709417803
 20
-27.1506242757
 10
5.1613386124
 20
-27.1763924882
 10
5.1511175626
 20
-27.200964966
 10
5.1405036612
 20
-27.2244302327
 10
5.1295258455
 20
-27.2467775651
 10
5.1181551782
 20
-27.2680177571
 10
5.1065298778
 20
-27.2882715994
 10
5.0946564719
 20
-27.3075540737
 10
5.082528433
 20
-27.3258502525
 10
5.0702643964
 20
-27.3432360543
 10
5.0578635951
 20
-27.3596916002
 10
5.0453267961
 20
-27.3752368129
 10
5.032774936
 20
-27.3900073071
 10
5.0202037056
 20
-27.4039932822
 10
5.007617414
 20
-27.4172045706
 10
4.9951499253
 20
-27.4298062287
 10
4.982811417
 20
-27.4418125803
 10
4.9705917116
 20
-27.4532093228
 10
4.9585941409
 20
-27.464118568
 10
4.9468469939
 20
-27.4745458516
 10
4.9353219817
 20
-27.4844856526
  0
LWPOLYLINE
  5
288
100
AcDbEntity
  8
0
100
AcDbPolyline
 62
7
  6
CONTINUOUS
 90
3
 70
0
 10
4.8225031649
 20
-27.5709244369
 10
4.8499892706
 20
-27.5840245448
 10
4.8757565086
 20
-27.5986655151
  0
LWPOLYLINE
  5
289
100
AcDbEntity
  8
0
100
AcDbPolyline
 62
7
  6
CONTINUOUS
 90
22
 70
0
 10
4.8757565086
 20
-27.5986655151
 10
4.8998048789
 20
-27.614847315
 10
4.9220750839
 20
-27.6328829695
 10
4.9426264211
 20
-27.6524593717
 10
4.961636783
 20
-27.6726373124
 10
4.9790203223
 20
-27.6932329306
 10
4.9948628862
 20
-27.7144300547
 10
5.0095999088
 20
-27.7358410463
 10
5.023274259
 20
-27.7573898967
 10
5.0358430679
 20
-27.7791526021
 10
5.0476131634
 20
-27.8009695487
 10
5.0586298702
 20
-27.8228384199
 10
5.0688478635
 20
-27.8447615281
 10
5.0784379973
 20
-27.866586213
 10
5.0874102133
 20
-27.8882799879
 10
5.0957545697
 20
-27.9098753458
 10
5.1036120944
 20
-27.9313171025
 10
5.1109724051
 20
-27.952561097
 10
5.1178458842
 20
-27.9736515003
 10
5.1244047065
 20
-27.9946656259
 10
5.1306364498
 20
-28.0155997231
 10
5.1365535363
 20
-28.0364575467
  0
LINE
  5
28A
100
AcDbEntity
  8
RACCORDO
100
AcDbLine
 62
253
  6
CONTINUOUS
 10
-60.8448916333
 20
-43.845794038
 11
-60.9999996007
 21
-44.0035192549
  0
LINE
  5
28B
100
AcDbEntity
  8
RACCORDO
100
AcDbLine
 62
253
  6
CONTINUOUS
 10
-59.8566450886
 20
-44.8340076387
 11
-60.0199743099
 21
-45.0
  0
LINE
  5
28C
100
AcDbEntity
  8
RACCORDO
100
AcDbLine
 62
253
  6
CONTINUOUS
 10
-59.8566450886
 20
44.8340076387
 11
-60.0199743099
 21
45.0
  0
LINE
  5
28D
100
AcDbEntity
  8
RACCORDO
100
AcDbLine
 62
253
  6
CONTINUOUS
 10
-60.8448916333
 20
43.8457940385
 11
-60.9999996007
 21
44.0035192549
  0
LINE
  5
28E
100
AcDbEntity
  8
0
100
AcDbLine
 62
7
  6
CONTINUOUS
 10
-1.400068
 20
-27.049647
 11
-0.714487
 21
-28.877801
  0
LINE
  5
28F
100
AcDbEntity
  8
0
100
AcDbLine
 62
7
  6
CONTINUOUS
 10
-1.24855
 20
-26.078098
 11
-0.670314
 21
-27.632502
  0
LINE
  5
290
100
AcDbEntity
  8
0
100
AcDbLine
 62
7
  6
CONTINUOUS
 10
-5.503668
 20
-26.078098
 11
-4.616107
 21
-28.877801
  0
LINE
  5
291
100
AcDbEntity
  8
0
100
AcDbLine
 62
7
  6
CONTINUOUS
 10
-4.86882
 20
-26.078098
 11
-4.335146
 21
-28.00522
  0
LINE
  5
292
100
AcDbEntity
  8
RACCORDO
100
AcDbLine
 62
253
  6
CONTINUOUS
 10
-33.9405731938
 20
-21.7915019943
 11
-33.8500000304
 21
-21.7011338162
  0
LINE
  5
293
100
AcDbEntity
  8
RACCORDO
100
AcDbLine
 62
253
  6
CONTINUOUS
 10
-33.1382479637
 20
-22.5889882007
 11
-33.0490249234
 21
-22.5
  0
LWPOLYLINE
  5
294
100
AcDbEntity
  8
RACCORDO
100
AcDbPolyline
 62
253
  6
CONTINUOUS
 90
13
 70
0
 10
-33.9612310823
 20
-22.4746320966
 10
-33.9331269901
 20
-22.4508096818
 10
-33.9065925424
 20
-22.4281050744
 10
-33.8818190228
 20
-22.4066819491
 10
-33.8589850208
 20
-22.3866947427
 10
-33.8382551438
 20
-22.3682875404
 10
-33.8197788311
 20
-22.3515930376
 10
-33.8036892763
 20
-22.336731583
 10
-33.7901024669
 20
-22.3238103108
 10
-33.7791163488
 20
-22.3129223691
 10
-33.7708101195
 20
-22.3041462476
 10
-33.7652436576
 20
-22.2975452124
 10
-33.7624570911
 20
-22.2931668494
  0
LINE
  5
295
100
AcDbEntity
  8
RACCORDO
100
AcDbLine
 62
253
  6
CONTINUOUS
 10
-33.138277515
 20
22.5889882007
 11
-33.0490249234
 21
22.5
  0
LINE
  5
296
100
AcDbEntity
  8
RACCORDO
100
AcDbLine
 62
253
  6
CONTINUOUS
 10
-33.9405731783
 20
21.7914779004
 11
-33.8500000304
 21
21.7011338162
  0
LWPOLYLINE
  5
297
100
AcDbEntity
  8
0
100
AcDbPolyline
 62
7
  6
CONTINUOUS
 90
19
 70
0
 10
4.5414020591
 20
-28.0286629448
 10
4.5321414255
 20
-28.0059202829
 10
4.521745439
 20
-27.9838746538
 10
4.5102140996
 20
-27.9625260806
 10
4.4975350524
 20
-27.941782224
 10
4.4837206523
 20
-27.9217354657
 10
4.4688079636
 20
-27.9026629182
 10
4.4528106197
 20
-27.884529541
 10
4.4357149872
 20
-27.867370428
 10
4.4175172298
 20
-27.851567908
 10
4.3981290332
 20
-27.8371147586
 10
4.3776387117
 20
-27.8240182628
 10
4.3563073723
 20
-27.8126825214
 10
4.3340649846
 20
-27.8032534214
 10
4.310981579
 20
-27.795585131
 10
4.2875283541
 20
-27.789644173
 10
4.2638623761
 20
-27.7854193967
 10
4.2398265788
 20
-27.7829219785
 10
4.2154209623
 20
-27.7821519248
  0
LINE
  5
298
100
AcDbEntity
  8
0
100
AcDbLine
 62
7
  6
CONTINUOUS
 10
2.28939
 20
-26.078098
 11
3.148408
 21
-28.877801
  0
LINE
  5
299
100
AcDbEntity
  8
0
100
AcDbLine
 62
7
  6
CONTINUOUS
 10
2.381074
 20
-28.318881
 11
2.532466
 21
-28.877801
  0
LINE
  5
29A
100
AcDbEntity
  8
0
100
AcDbLine
 62
7
  6
CONTINUOUS
 10
1.995737
 20
-26.847385
 11
2.26428
 21
-27.886391
  0
LINE
  5
29B
100
AcDbEntity
  8
0
100
AcDbLine
 62
7
  6
CONTINUOUS
 10
0.492308
 20
-26.078098
 11
0.754112
 21
-28.877801
  0
LINE
  5
29C
100
AcDbEntity
  8
0
100
AcDbLine
 62
7
  6
CONTINUOUS
 10
0.062337
 20
-27.057269
 11
0.182406
 21
-28.877801
  0
LINE
  5
29D
100
AcDbEntity
  8
0
100
AcDbLine
 62
7
  6
CONTINUOUS
 10
-2.984285
 20
-26.07793
 11
-2.984285
 21
-28.877801
  0
LINE
  5
29E
100
AcDbEntity
  8
0
100
AcDbLine
 62
7
  6
CONTINUOUS
 10
-2.399877
 20
-26.07793
 11
-2.399877
 21
-28.877801
  0
LINE
  5
29F
100
AcDbEntity
  8
0
100
AcDbLine
 62
7
  6
CONTINUOUS
 10
-1.400068
 20
-27.049647
 11
-1.526183
 21
-28.877801
  0
LINE
  5
2A0
100
AcDbEntity
  8
0
100
AcDbLine
 62
7
  6
CONTINUOUS
 10
-1.832475
 20
-26.078098
 11
-2.085272
 21
-28.877801
  0
LINE
  5
2A1
100
AcDbEntity
  8
RACCORDO
100
AcDbLine
 62
253
  6
CONTINUOUS
 10
-34.0213279494
 20
-22.5249365964
 11
-33.9612310823
 21
-22.4746320966
  0
LINE
  5
2A2
100
AcDbEntity
  8
RACCORDO
100
AcDbLine
 62
253
  6
CONTINUOUS
 10
-34.0851533422
 20
-22.5775706319
 11
-34.0213279494
 21
-22.5249365964
  0
LINE
  5
2A3
100
AcDbEntity
  8
RACCORDO
100
AcDbLine
 62
253
  6
CONTINUOUS
 10
-34.1508701392
 20
-22.6310192088
 11
-34.0851533422
 21
-22.5775706319
  0
LINE
  5
2A4
100
AcDbEntity
  8
RACCORDO
100
AcDbLine
 62
253
  6
CONTINUOUS
 10
-34.1508701394
 20
22.6310191773
 11
-34.08515331
 21
22.5775705708
  0
LINE
  5
2A5
100
AcDbEntity
  8
RACCORDO
100
AcDbLine
 62
253
  6
CONTINUOUS
 10
-34.08515331
 20
22.5775705708
 11
-34.021327867
 21
22.5249364937
  0
LWPOLYLINE
  5
2A6
100
AcDbEntity
  8
RACCORDO
100
AcDbPolyline
 62
253
  6
CONTINUOUS
 90
14
 70
0
 10
-34.021327867
 20
22.5249364937
 10
-33.9612309377
 20
22.4746319447
 10
-33.9331268118
 20
22.450809504
 10
-33.9065923296
 20
22.4281048706
 10
-33.8818187755
 20
22.4066817196
 10
-33.8589847397
 20
22.3866944883
 10
-33.8382548302
 20
22.3682872626
 10
-33.8197784869
 20
22.3515927382
 10
-33.8036889039
 20
22.3367312641
 10
-33.7901020694
 20
22.3238099752
 10
-33.7791159295
 20
22.3129220196
 10
-33.7708096822
 20
22.3041458874
 10
-33.7652432064
 20
22.2975448447
 10
-33.7624566303
 20
22.2931664778
  0
LWPOLYLINE
  5
2A7
100
AcDbEntity
  8
0
100
AcDbPolyline
 62
7
  6
CONTINUOUS
 90
8
 70
0
 10
4.6307843653
 20
-28.302832717
 10
4.6191136752
 20
-28.2633263503
 10
4.6071900511
 20
-28.2239404123
 10
4.595013204
 20
-28.1846788349
 10
4.5823675406
 20
-28.1455222308
 10
4.5691811964
 20
-28.1064641428
 10
4.5555260359
 20
-28.0675110447
 10
4.5414020591
 20
-28.0286629448
  0
LINE
  5
2A8
100
AcDbEntity
  8
0
100
AcDbLine
 62
7
  6
CONTINUOUS
 10
4.7970156219
 20
-28.8778013544
 11
4.6993515084
 21
-28.5430442068
  0
LWPOLYLINE
  5
2A9
100
AcDbEntity
  8
0
100
AcDbPolyline
 62
7
  6
CONTINUOUS
 90
4
 70
0
 10
4.6993515084
 20
-28.5430442068
 10
4.676248686
 20
-28.4622809213
 10
4.6649339928
 20
-28.422187539
 10
4.6307843653
 20
-28.302832717
  0
LWPOLYLINE
  5
2AA
100
AcDbEntity
  8
0
100
AcDbPolyline
 62
7
  6
CONTINUOUS
 90
3
 70
0
 10
5.1365535363
 20
-28.0364575467
 10
5.1481418777
 20
-28.0782395945
 10
5.1538131327
 20
-28.0991638164
  0
LINE
  5
2AB
100
AcDbEntity
  8
0
100
AcDbLine
 62
7
  6
CONTINUOUS
 10
5.1538131327
 20
-28.0991638164
 11
5.2288653385
 21
-28.3806094376
  0
LINE
  5
2AC
100
AcDbEntity
  8
0
100
AcDbLine
 62
7
  6
CONTINUOUS
 10
5.2288653385
 20
-28.3806094376
 11
5.3591482119
 21
-28.8778013544
  0
LWPOLYLINE
  5
2AD
100
AcDbEntity
  8
0
100
AcDbPolyline
 62
7
  6
CONTINUOUS
 90
19
 70
0
 10
4.670652144
 20
-26.8887857312
 10
4.6692887917
 20
-26.8622147805
 10
4.6657626855
 20
-26.8356476102
 10
4.6600738255
 20
-26.8090842209
 10
4.6522698099
 20
-26.782299168
 10
4.6423030404
 20
-26.7555178923
 10
4.6300307223
 20
-26.7294167479
 10
4.6153450584
 20
-26.7038848863
 10
4.5983538458
 20
-26.6790332021
 10
4.5792376808
 20
-26.6558707216
 10
4.5577892812
 20
-26.6345853818
 10
4.5342159291
 20
-26.6149893511
 10
4.509320068
 20
-26.5975280419
 10
4.4831196852
 20
-26.5823466364
 10
4.4555967932
 20
-26.5693000482
 10
4.4274998735
 20
-26.5583982896
 10
4.39907842
 20
-26.5496447171
 10
4.3700829389
 20
-26.5430360306
 10
4.34051343
 20
-26.5385722489
  0
LINE
  5
2AE
100
AcDbEntity
  8
0
100
AcDbLine
 62
7
  6
CONTINUOUS
 10
3.3200188023
 20
-26.110807341
 11
3.3200188023
 21
-28.8778013544
  0
LINE
  5
2AF
100
AcDbEntity
  8
0
100
AcDbLine
 62
7
  6
CONTINUOUS
 10
3.8826972541
 20
-26.5550547959
 11
3.8826972541
 21
-27.3236280866
  0
LINE
  5
2B0
100
AcDbEntity
  8
0
100
AcDbLine
 62
7
  6
CONTINUOUS
 10
3.9020753449
 20
-27.7821519248
 11
3.9020753449
 21
-28.8778013544
  0
LINE
  5
2B1
100
AcDbEntity
  8
0
100
AcDbLine
 62
7
  6
CONTINUOUS
 10
4.8225031649
 20
-27.554380628
 11
4.8225031649
 21
-27.5709244369
  0
LINE
  5
2B2
100
AcDbEntity
  8
0
100
AcDbLine
 62
7
  6
CONTINUOUS
 10
-3.785169
 20
-26.078098
 11
-4.335146
 21
-28.00522
  0
LINE
  5
2B3
100
AcDbEntity
  8
0
100
AcDbLine
 62
7
  6
CONTINUOUS
 10
-3.20116
 20
-26.078098
 11
-4.101097
 21
-28.877801
  0
LWPOLYLINE
  5
2B4
100
AcDbEntity
  8
RACCORDO
100
AcDbPolyline
 62
253
  6
CONTINUOUS
 90
12
 70
0
 10
33.9331268989
 20
22.4508096014
 10
33.9065924351
 20
22.4281049821
 10
33.8818188998
 20
22.4066818451
 10
33.8589848826
 20
22.3866946273
 10
33.8382549913
 20
22.3682874142
 10
33.8197786655
 20
22.3515929015
 10
33.8036890989
 20
22.336731438
 10
33.7901022794
 20
22.3238101582
 10
33.7791161529
 20
22.3129222102
 10
33.7708099172
 20
22.304146084
 10
33.765243451
 20
22.2975450456
 10
33.7624568823
 20
22.2931666812
  0
LINE
  5
2B5
100
AcDbEntity
  8
RACCORDO
100
AcDbLine
 62
253
  6
CONTINUOUS
 10
33.9907021604
 20
22.4994005285
 11
33.9331268989
 21
22.4508096014
  0
LINE
  5
2B6
100
AcDbEntity
  8
RACCORDO
100
AcDbLine
 62
253
  6
CONTINUOUS
 10
34.052887462
 20
22.5510560054
 11
33.9907021604
 21
22.4994005285
  0
LWPOLYLINE
  5
2B7
100
AcDbEntity
  8
RACCORDO
100
AcDbPolyline
 62
253
  6
CONTINUOUS
 90
3
 70
0
 10
34.1508701392
 20
22.6310191921
 10
34.1178928877
 20
22.6042892027
 10
34.052887462
 20
22.5510560054
  0
LINE
  5
2B8
100
AcDbEntity
  8
RACCORDO
100
AcDbLine
 62
253
  6
CONTINUOUS
 10
34.1508701394
 20
-22.6310191555
 11
34.0851532863
 21
-22.5775705333
  0
LINE
  5
2B9
100
AcDbEntity
  8
RACCORDO
100
AcDbLine
 62
253
  6
CONTINUOUS
 10
34.0851532863
 20
-22.5775705333
 11
34.0213278102
 21
-22.5249364327
  0
LWPOLYLINE
  5
2BA
100
AcDbEntity
  8
RACCORDO
100
AcDbPolyline
 62
253
  6
CONTINUOUS
 90
14
 70
0
 10
34.0213278102
 20
-22.5249364327
 10
33.9612308418
 20
-22.4746318553
 10
33.9331266952
 20
-22.4508093994
 10
33.9065921922
 20
-22.4281047504
 10
33.8818186177
 20
-22.4066815842
 10
33.858984562
 20
-22.3866943381
 10
33.8382546338
 20
-22.3682870985
 10
33.8197782732
 20
-22.3515925611
 10
33.8036886747
 20
-22.3367310755
 10
33.7901018266
 20
-22.3238097766
 10
33.7791156755
 20
-22.3129218128
 10
33.7708094194
 20
-22.3041456743
 10
33.7652429374
 20
-22.2975446275
 10
33.7624563579
 20
-22.2931662586
  0
LINE
  5
2BB
100
AcDbEntity
  8
0
100
AcDbLine
 62
7
  6
CONTINUOUS
 10
1.995737
 20
-26.847385
 11
1.704751
 21
-27.886391
  0
LINE
  5
2BC
100
AcDbEntity
  8
0
100
AcDbLine
 62
7
  6
CONTINUOUS
 10
1.585207
 20
-28.318881
 11
1.423947
 21
-28.877801
  0
LINE
  5
2BD
100
AcDbEntity
  8
0
100
AcDbLine
 62
7
  6
CONTINUOUS
 10
1.724045
 20
-26.078098
 11
0.84588
 21
-28.877801
  0
LINE
  5
2BE
100
AcDbEntity
  8
0
100
AcDbLine
 62
7
  6
CONTINUOUS
 10
-0.085906
 20
-26.078098
 11
-0.670314
 21
-27.632502
  0
LINE
  5
2BF
100
AcDbEntity
  8
0
100
AcDbLine
 62
7
  6
CONTINUOUS
 10
0.062337
 20
-27.057269
 11
-0.632524
 21
-28.877801
  0
LINE
  5
2C0
100
AcDbEntity
  8
RACCORDO
100
AcDbLine
 62
253
  6
CONTINUOUS
 10
59.8566450886
 20
44.8340076387
 11
60.0199743099
 21
45.0
  0
LINE
  5
2C1
100
AcDbEntity
  8
RACCORDO
100
AcDbLine
 62
253
  6
CONTINUOUS
 10
33.9405731942
 20
21.7915025806
 11
33.8500000304
 21
21.7011338162
  0
LINE
  5
2C2
100
AcDbEntity
  8
RACCORDO
100
AcDbLine
 62
253
  6
CONTINUOUS
 10
33.1382483498
 20
22.5889882007
 11
33.0490249234
 21
22.5
  0
LINE
  5
2C3
100
AcDbEntity
  8
RACCORDO
100
AcDbLine
 62
253
  6
CONTINUOUS
 10
33.1382778217
 20
-22.5889882007
 11
33.0490249234
 21
-22.5
  0
LINE
  5
2C4
100
AcDbEntity
  8
RACCORDO
100
AcDbLine
 62
253
  6
CONTINUOUS
 10
33.9405731786
 20
-21.791478323
 11
33.8500000304
 21
-21.7011338162
  0
LINE
  5
2C5
100
AcDbEntity
  8
RACCORDO
100
AcDbLine
 62
253
  6
CONTINUOUS
 10
59.8566450886
 20
-44.8340076387
 11
60.0199743099
 21
-45.0
  0
LINE
  5
2C6
100
AcDbEntity
  8
RACCORDO
100
AcDbLine
 62
253
  6
CONTINUOUS
 10
60.8448916333
 20
43.845794038
 11
60.9999996007
 21
44.0035192549
  0
LINE
  5
2C7
100
AcDbEntity
  8
RACCORDO
100
AcDbLine
 62
253
  6
CONTINUOUS
 10
60.8448916333
 20
-43.8457940385
 11
60.9999996007
 21
-44.0035192549
  0
LWPOLYLINE
  5
2C8
100
AcDbEntity
  8
RACCORDO
100
AcDbPolyline
 62
253
  6
CONTINUOUS
 90
16
 70
0
 10
34.3147013173
 20
21.8136609015
 10
34.274361109
 20
21.8130665564
 10
34.2351980169
 20
21.8123095511
 10
34.1974905456
 20
21.811395269
 10
34.161506848
 20
21.810330212
 10
34.1275028187
 20
21.8091219541
 10
34.0957202739
 20
21.8077790877
 10
34.0663852322
 20
21.8063111625
 10
34.0397063068
 20
21.8047286174
 10
34.0158732222
 20
21.8030427066
 10
33.9950554652
 20
21.8012654193
 10
33.977401079
 20
21.7994093945
 10
33.9630356112
 20
21.797487831
 10
33.9520612204
 20
21.795514394
 10
33.9445559499
 20
21.7935031174
 10
33.9405731727
 20
21.791468304
  0
LWPOLYLINE
  5
2C9
100
AcDbEntity
  8
RACCORDO
100
AcDbPolyline
 62
253
  6
CONTINUOUS
 90
3
 70
0
 10
34.4398863164
 20
21.8144316653
 10
34.3977592502
 20
21.8143458915
 10
34.3147013173
 20
21.8136609015
  0
LINE
  5
2CA
100
AcDbEntity
  8
RACCORDO
100
AcDbLine
 62
7
  6
CONTINUOUS
 10
33.0490249234
 20
22.5
 11
-33.0490249234
 21
22.5
  0
LINE
  5
2CB
100
AcDbEntity
  8
RACCORDO
100
AcDbLine
 62
253
  6
CONTINUOUS
 10
60.8472593806
 20
22.5203789087
 11
61.0
 21
22.5203789087
  0
LINE
  5
2CC
100
AcDbEntity
  8
RACCORDO
100
AcDbLine
 62
253
  6
CONTINUOUS
 10
-60.8472593806
 20
22.5203789087
 11
-61.0
 21
22.5203789087
  0
LINE
  5
2CD
100
AcDbEntity
  8
RACCORDO
100
AcDbLine
 62
253
  6
CONTINUOUS
 10
-33.138277515
 20
22.5889882007
 11
33.1382483498
 21
22.5889882007
  0
LWPOLYLINE
  5
2CE
100
AcDbEntity
  8
RACCORDO
100
AcDbPolyline
 62
253
  6
CONTINUOUS
 90
18
 70
0
 10
-34.4398863164
 20
21.8144314751
 10
-34.3559314602
 20
21.814088215
 10
-34.3147008113
 20
21.8136607774
 10
-34.2743603797
 20
21.8130664514
 10
-34.2351970463
 20
21.8123094636
 10
-34.1974893213
 20
21.8113951975
 10
-34.1615053633
 20
21.8103301547
 10
-34.1275010722
 20
21.8091219094
 10
-34.0957182698
 20
21.8077790539
 10
-34.0663829794
 20
21.8063111381
 10
-34.0397038191
 20
21.8047286009
 10
-34.0158705177
 20
21.8030426967
 10
-33.9950525659
 20
21.8012654147
 10
-33.9773980106
 20
21.7994093941
 10
-33.9630324021
 20
21.797487834
 10
-33.9520579016
 20
21.7955143995
 10
-33.9445525542
 20
21.7935031247
 10
-33.9405697342
 20
21.7914683129
  0
LWPOLYLINE
  5
2CF
100
AcDbEntity
  8
0
100
AcDbPolyline
 62
7
  6
CONTINUOUS
 90
10
 70
0
 10
4.9353219817
 20
-27.4844856526
 10
4.9130844271
 20
-27.5033073734
 10
4.9023718847
 20
-27.5121893027
 10
4.8916464017
 20
-27.5205308203
 10
4.8809720387
 20
-27.5284470413
 10
4.8702847352
 20
-27.5358228624
 10
4.8591387683
 20
-27.5421545014
 10
4.8473855638
 20
-27.5472740389
 10
4.835173696
 20
-27.5513494124
 10
4.8225031649
 20
-27.554380628
  0
LWPOLYLINE
  5
2D0
100
AcDbEntity
  8
RACCORDO
100
AcDbPolyline
 62
7
  6
CONTINUOUS
 90
25
 70
0
 10
-33.0490249234
 20
22.5
 10
-33.1013240094
 20
22.4983104261
 10
-33.1531131864
 20
22.4932534631
 10
-33.2043924545
 20
22.4848291052
 10
-33.2554625192
 20
22.4729509001
 10
-33.3060226751
 20
22.4577052768
 10
-33.3551708052
 20
22.4393515476
 10
-33.4027156104
 20
22.4179275284
 10
-33.44884839
 20
22.393395362
 10
-33.4932409247
 20
22.365900848
 10
-33.5360246785
 20
22.3353202354
 10
-33.5770681874
 20
22.3017772171
 10
-33.6156488412
 20
22.2657887614
 10
-33.6516951091
 20
22.2272882844
 10
-33.6852785217
 20
22.1863423092
 10
-33.7158910611
 20
22.1436674776
 10
-33.7434127797
 20
22.0993858384
 10
-33.7679636251
 20
22.0533752949
 10
-33.7893954213
 20
22.0059862851
 10
-33.8077398797
 20
21.9570493345
 10
-33.8229652891
 20
21.9067338732
 10
-33.8348283398
 20
21.8558987137
 10
-33.8432479286
 20
21.8048301281
 10
-33.8483051588
 20
21.7532418316
 10
-33.8500000304
 20
21.7011338162
  0
LWPOLYLINE
  5
2D1
100
AcDbEntity
  8
RACCORDO
100
AcDbPolyline
 62
253
  6
CONTINUOUS
 90
16
 70
0
 10
-60.4715296113
 20
22.5424730477
 10
-60.5110222338
 20
22.5418866889
 10
-60.5494161932
 20
22.5411394418
 10
-60.5864508739
 20
22.5402363786
 10
-60.6218748872
 20
22.5391836293
 10
-60.6554477773
 20
22.5379883399
 10
-60.6869416538
 20
22.5366586239
 10
-60.7161427385
 20
22.5352035073
 10
-60.7428528165
 20
22.5336328674
 10
-60.7668905816
 20
22.5319573655
 10
-60.7880928672
 20
22.5301883749
 10
-60.8063157536
 20
22.5283379033
 10
-60.8214355451
 20
22.5264185116
 10
-60.8333496098
 20
22.5244432284
 10
-60.8419770757
 20
22.522425462
 10
-60.8472593802
 20
22.5203789087
  0
LWPOLYLINE
  5
2D2
100
AcDbEntity
  8
RACCORDO
100
AcDbPolyline
 62
253
  6
CONTINUOUS
 90
16
 70
0
 10
-60.4715266169
 20
22.6302605538
 10
-60.5110191827
 20
22.6296730821
 10
-60.5494130905
 20
22.6289240635
 10
-60.5864477259
 20
22.6280185823
 10
-60.6218717013
 20
22.6269627849
 10
-60.6554445618
 20
22.6257638378
 10
-60.6869384181
 20
22.6244298795
 10
-60.7161394927
 20
22.6229699647
 10
-60.7428495713
 20
22.6213940031
 10
-60.7668873484
 20
22.6197126924
 10
-60.7880896578
 20
22.6179374449
 10
-60.8063125802
 20
22.6160803111
 10
-60.8214324199
 20
22.6141538968
 10
-60.833346545
 20
22.6121712785
 10
-60.8419740833
 20
22.610145914
 10
-60.8472564721
 20
22.6080915512
  0
LINE
  5
2D3
100
AcDbEntity
  8
RACCORDO
100
AcDbLine
 62
253
  6
CONTINUOUS
 10
-60.3903234369
 20
22.6309360294
 11
-60.4715266169
 21
22.6302605538
  0
LWPOLYLINE
  5
2D4
100
AcDbEntity
  8
RACCORDO
100
AcDbPolyline
 62
253
  6
CONTINUOUS
 90
3
 70
0
 10
-60.3491668284
 20
22.5432326076
 10
-60.3903263074
 20
22.5431482988
 10
-60.4715296113
 20
22.5424730477
  0
LINE
  5
2D5
100
AcDbEntity
  8
RACCORDO
100
AcDbLine
 62
253
  6
CONTINUOUS
 10
-60.3903234369
 20
22.6309360294
 11
-34.1508701393
 21
22.6310194482
  0
LINE
  5
2D6
100
AcDbEntity
  8
RACCORDO
100
AcDbLine
 62
253
  6
CONTINUOUS
 10
-33.1382398365
 20
23.1148987905
 11
33.1382398365
 21
23.1148987905
  0
LINE
  5
2D7
100
AcDbEntity
  8
RACCORDO
100
AcDbLine
 62
253
  6
CONTINUOUS
 10
34.1508701393
 20
22.6310194482
 11
60.390323436
 21
22.6309360285
  0
LWPOLYLINE
  5
2D8
100
AcDbEntity
  8
RACCORDO
100
AcDbPolyline
 62
253
  6
CONTINUOUS
 90
18
 70
0
 10
60.3491668284
 20
22.5432326078
 10
60.4312063993
 20
22.5428945383
 10
60.4715296121
 20
22.5424730479
 10
60.5110222349
 20
22.5418866891
 10
60.5494161945
 20
22.541139442
 10
60.5864508755
 20
22.5402363788
 10
60.621874889
 20
22.5391836295
 10
60.6554477792
 20
22.5379883401
 10
60.6869416558
 20
22.5366586241
 10
60.7161427406
 20
22.5352035075
 10
60.7428528185
 20
22.5336328675
 10
60.7668905836
 20
22.5319573656
 10
60.788092869
 20
22.530188375
 10
60.8063157552
 20
22.5283379034
 10
60.8214355466
 20
22.5264185116
 10
60.833349611
 20
22.5244432285
 10
60.8419770765
 20
22.522425462
 10
60.8472593806
 20
22.5203789087
  0
LWPOLYLINE
  5
2D9
100
AcDbEntity
  8
RACCORDO
100
AcDbPolyline
 62
253
  6
CONTINUOUS
 90
17
 70
0
 10
60.390323436
 20
22.6309360285
 10
60.4715266144
 20
22.630260553
 10
60.5110191794
 20
22.6296730813
 10
60.5494130865
 20
22.6289240628
 10
60.5864477213
 20
22.6280185816
 10
60.6218716961
 20
22.6269627842
 10
60.6554445562
 20
22.6257638372
 10
60.6869384122
 20
22.624429879
 10
60.7161394867
 20
22.6229699642
 10
60.7428495653
 20
22.6213940027
 10
60.7668873427
 20
22.619712692
 10
60.7880896524
 20
22.6179374446
 10
60.8063125752
 20
22.6160803108
 10
60.8214324157
 20
22.6141538966
 10
60.8333465416
 20
22.6121712784
 10
60.8419740809
 20
22.6101459139
 10
60.8472564709
 20
22.6080915512
  0
LWPOLYLINE
  5
2DA
100
AcDbEntity
  8
RACCORDO
100
AcDbPolyline
 62
253
  6
CONTINUOUS
 90
19
 70
0
 10
33.1382483643
 20
22.5889882152
 10
33.176715819
 20
22.5881359839
 10
33.2154117654
 20
22.5854182408
 10
33.2542428309
 20
22.5807958157
 10
33.2931257458
 20
22.5742318686
 10
33.3319446709
 20
22.5656973591
 10
33.3705528884
 20
22.5551781022
 10
33.4089196706
 20
22.5426339888
 10
33.4468568292
 20
22.5280769593
 10
33.4839944177
 20
22.5116255258
 10
33.5202146712
 20
22.4933355559
 10
33.5554498652
 20
22.473245342
 10
33.5894395556
 20
22.451520839
 10
33.6221086996
 20
22.4282487309
 10
33.653400919
 20
22.4035096171
 10
33.683124088
 20
22.377511642
 10
33.7112016764
 20
22.3504045167
 10
33.7376538005
 20
22.3222556523
 10
33.7624604562
 20
22.2931695584
  0
LWPOLYLINE
  5
2DB
100
AcDbEntity
  8
RACCORDO
100
AcDbPolyline
 62
253
  6
CONTINUOUS
 90
19
 70
0
 10
33.1382398365
 20
23.1148987905
 10
33.2007582081
 20
23.1135143027
 10
33.2633777917
 20
23.1089711462
 10
33.3260985874
 20
23.1012693073
 10
33.3891229599
 20
23.0904407128
 10
33.4522485445
 20
23.07645338
 10
33.5148682464
 20
23.059211415
 10
33.5770886005
 20
23.0386008559
 10
33.638803072
 20
23.0147355464
 10
33.6990849617
 20
22.9878612907
 10
33.7578604952
 20
22.9578939809
 10
33.8152034469
 20
22.9249175635
 10
33.8704084412
 20
22.8894299332
 10
33.9234055531
 20
22.8513651828
 10
33.9742647076
 20
22.8107890491
 10
34.0224903035
 20
22.7683969267
 10
34.0679171406
 20
22.7244205793
 10
34.1107104192
 20
22.6786281106
 10
34.1508701393
 20
22.6310194482
  0
LINE
  5
2DC
100
AcDbEntity
  8
RACCORDO
100
AcDbLine
 62
253
  6
CONTINUOUS
 10
33.1382398365
 20
23.1148987905
 11
33.1382398366
 21
22.5889882007
  0
LINE
  5
2DD
100
AcDbEntity
  8
RACCORDO
100
AcDbLine
 62
253
  6
CONTINUOUS
 10
33.1382398365
 20
-23.1148987905
 11
33.1382398365
 21
-22.5889882007
  0
LWPOLYLINE
  5
2DE
100
AcDbEntity
  8
RACCORDO
100
AcDbPolyline
 62
7
  6
CONTINUOUS
 90
25
 70
0
 10
33.8500000304
 20
21.7011338162
 10
33.8483133338
 20
21.7532149459
 10
33.8432577281
 20
21.8047950352
 10
33.8348332135
 20
21.855874092
 10
33.8229548361
 20
21.9067511078
 10
33.8077075498
 20
21.9571271031
 10
33.7893462156
 20
22.0061051433
 10
33.7679085355
 20
22.0534957168
 10
33.7433568076
 20
22.0994883805
 10
33.7158327874
 20
22.143754821
 10
33.6852133541
 20
22.1864259539
 10
33.6516216286
 20
22.2273709113
 10
33.6155687287
 20
22.2658687184
 10
33.5769856534
 20
22.3018503551
 10
33.5359414038
 20
22.3353849024
 10
33.4931541008
 20
22.3659585498
 10
33.4487463026
 20
22.3934508262
 10
33.402595451
 20
22.4179822607
 10
33.3550519923
 20
22.4394005457
 10
33.3059446846
 20
22.4577375369
 10
33.2554447697
 20
22.47296142
 10
33.204416419
 20
22.4848243794
 10
33.1531476896
 20
22.4932438182
 10
33.1013505244
 20
22.4983023565
 10
33.0490249234
 20
22.5
  0
LINE
  5
2DF
100
AcDbEntity
  8
RACCORDO
100
AcDbLine
 62
7
  6
CONTINUOUS
 10
33.8500000304
 20
-21.7011338162
 11
33.8500000304
 21
21.7011338162
  0
LINE
  5
2E0
100
AcDbEntity
  8
RACCORDO
100
AcDbLine
 62
253
  6
CONTINUOUS
 10
33.9405731942
 20
21.7915025806
 11
33.9405731786
 21
-21.791478323
  0
LINE
  5
2E1
100
AcDbEntity
  8
RACCORDO
100
AcDbLine
 62
253
  6
CONTINUOUS
 10
34.4398863164
 20
21.8144316658
 11
34.4398863164
 21
-21.8144316658
  0
LWPOLYLINE
  5
2E2
100
AcDbEntity
  8
RACCORDO
100
AcDbPolyline
 62
253
  6
CONTINUOUS
 90
13
 70
0
 10
34.4398863164
 20
-21.8144316658
 10
34.4380960837
 20
-21.8858793997
 10
34.4321468697
 20
-21.9573807282
 10
34.4220386743
 20
-22.0289356483
 10
34.4077556229
 20
-22.1009480075
 10
34.3893135903
 20
-22.1730139457
 10
34.3667602004
 20
-22.2439219269
 10
34.3399011972
 20
-22.3136982137
 10
34.3089308369
 20
-22.3823165933
 10
34.2744795117
 20
-22.4484868739
 10
34.2367573524
 20
-22.5117790389
 10
34.1955542283
 20
-22.5726232141
 10
34.1508701393
 20
-22.6310194482
  0
LWPOLYLINE
  5
2E3
100
AcDbEntity
  8
RACCORDO
100
AcDbPolyline
 62
253
  6
CONTINUOUS
 90
13
 70
0
 10
33.9405731695
 20
-21.791478314
 10
33.9393770782
 20
-21.8351950726
 10
33.9357316239
 20
-21.8792128622
 10
33.9295752397
 20
-21.923391338
 10
33.9208338934
 20
-21.9676721977
 10
33.9094723185
 20
-22.0118087413
 10
33.8955453026
 20
-22.0553790931
 10
33.8790537098
 20
-22.0982721402
 10
33.8600379978
 20
-22.1402935786
 10
33.8387357052
 20
-22.1809366462
 10
33.8153271949
 20
-22.2199718949
 10
33.7898636444
 20
-22.2574153782
 10
33.7624604562
 20
-22.2931695584
  0
LWPOLYLINE
  5
2E4
100
AcDbEntity
  8
RACCORDO
100
AcDbPolyline
 62
253
  6
CONTINUOUS
 90
16
 70
0
 10
34.1508701393
 20
-22.6310194482
 10
34.1005262154
 20
-22.6897330709
 10
34.047046493
 20
-22.7450967429
 10
33.990430972
 20
-22.7971106279
 10
33.9304523783
 20
-22.8459696592
 10
33.8673379862
 20
-22.8914792005
 10
33.8017696181
 20
-22.933055073
 10
33.7336617418
 20
-22.9706523064
 10
33.6630998895
 20
-23.00431616
 10
33.5910224815
 20
-23.0335978182
 10
33.5173855973
 20
-23.0584022221
 10
33.4422331574
 20
-23.0788246559
 10
33.3666353432
 20
-23.09470181
 10
33.2909488819
 20
-23.1059792884
 10
33.2148170463
 20
-23.1127116055
 10
33.1382398365
 20
-23.1148987905
  0
LWPOLYLINE
  5
2E5
100
AcDbEntity
  8
RACCORDO
100
AcDbPolyline
 62
253
  6
CONTINUOUS
 90
16
 70
0
 10
33.7624604562
 20
-22.2931695584
 10
33.7315162833
 20
-22.3290319096
 10
33.6984423563
 20
-22.3630507803
 10
33.663345889
 20
-22.3950976714
 10
33.6263413755
 20
-22.4250493663
 10
33.5875522146
 20
-22.4527908018
 10
33.5471103079
 20
-22.478215504
 10
33.505112429
 20
-22.5012424181
 10
33.4617394546
 20
-22.5217530697
 10
33.417269326
 20
-22.5396183739
 10
33.3718600526
 20
-22.5547860446
 10
33.3256811236
 20
-22.5672105208
 10
33.2790482996
 20
-22.5768349611
 10
33.2321831563
 20
-22.5836571171
 10
33.1852047355
 20
-22.5877005909
 10
33.1382778863
 20
-22.5889882642
  0
LWPOLYLINE
  5
2E6
100
AcDbEntity
  8
RACCORDO
100
AcDbPolyline
 62
253
  6
CONTINUOUS
 90
19
 70
0
 10
-60.346857488
 20
43.926800663
 10
-60.3879801891
 20
43.9265061011
 10
-60.4288242517
 20
43.9256106825
 10
-60.4691129252
 20
43.9241204745
 10
-60.5085732223
 20
43.9220455743
 10
-60.5469377684
 20
43.919400041
 10
-60.5839466137
 20
43.9162018003
 10
-60.6193489944
 20
43.9124725226
 10
-60.6529050313
 20
43.9082374769
 10
-60.6843873562
 20
43.9035253587
 10
-60.7135826516
 20
43.8983680965
 10
-60.7402930964
 20
43.8928006347
 10
-60.7643377064
 20
43.8868606972
 10
-60.7855535605
 20
43.8805885318
 10
-60.8037969048
 20
43.8740266374
 10
-60.8189441262
 20
43.8672194758
 10
-60.8308925904
 20
43.8602131709
 10
-60.8395613373
 20
43.8530551961
 10
-60.8448916292
 20
43.8457940521
  0
LINE
  5
2E7
100
AcDbEntity
  8
RACCORDO
100
AcDbLine
 62
253
  6
CONTINUOUS
 10
59.8566450886
 20
44.4263792099
 11
-59.8566450886
 21
44.4263792099
  0
LWPOLYLINE
  5
2E8
100
AcDbEntity
  8
RACCORDO
100
AcDbPolyline
 62
253
  6
CONTINUOUS
 90
19
 70
0
 10
60.346857488
 20
43.9268006691
 10
60.387979849
 20
43.92650608
 10
60.4288235498
 20
43.9256106375
 10
60.4691118448
 20
43.9241204087
 10
60.5085717519
 20
43.9220454911
 10
60.5469359014
 20
43.9193999435
 10
60.5839443488
 20
43.9162016915
 10
60.6193463348
 20
43.9124724056
 10
60.6529019857
 20
43.9082373542
 10
60.6843839375
 20
43.9035252331
 10
60.7135788772
 20
43.8983679701
 10
60.7402889882
 20
43.8928005095
 10
60.76433329
 20
43.886860575
 10
60.7855488652
 20
43.880588414
 10
60.8037919629
 20
43.8740265248
 10
60.818938973
 20
43.8672193692
 10
60.8308872634
 20
43.8602130706
 10
60.839555876
 20
43.8530551018
 10
60.8448860746
 20
43.8457939633
  0
LWPOLYLINE
  5
2E9
100
AcDbEntity
  8
RACCORDO
100
AcDbPolyline
 62
253
  6
CONTINUOUS
 90
13
 70
0
 10
33.7624604562
 20
22.2931695584
 10
33.7896570916
 20
22.2577012617
 10
33.8149747533
 20
22.2205228219
 10
33.8382926682
 20
22.1817246482
 10
33.8595465832
 20
22.1412989693
 10
33.8785580167
 20
22.0994554024
 10
33.8950975047
 20
22.0566490021
 10
33.9091180459
 20
22.0130339616
 10
33.9205886139
 20
21.9687488509
 10
33.9294275683
 20
21.9242670198
 10
33.9356602311
 20
21.8798540396
 10
33.9393573464
 20
21.8355517292
 10
33.9405731626
 20
21.7915025498
  0
LWPOLYLINE
  5
2EA
100
AcDbEntity
  8
RACCORDO
100
AcDbPolyline
 62
253
  6
CONTINUOUS
 90
13
 70
0
 10
34.1508701393
 20
22.6310194482
 10
34.1952101593
 20
22.5731452066
 10
34.2361548599
 20
22.5127619778
 10
34.2737042411
 20
22.449869712
 10
34.3080779375
 20
22.3840713952
 10
34.3390563145
 20
22.3157639309
 10
34.3659804685
 20
22.2461381702
 10
34.3886745647
 20
22.1751706289
 10
34.407314438
 20
22.1028847331
 10
34.4217686897
 20
22.0305417553
 10
34.4319935202
 20
21.958562133
 10
34.4380327291
 20
21.8865254363
 10
34.4398863164
 20
21.8144316658
  0
LWPOLYLINE
  5
2EB
100
AcDbEntity
  8
RACCORDO
100
AcDbPolyline
 62
253
  6
CONTINUOUS
 90
28
 70
0
 10
-59.8566450886
 20
44.8340076387
 10
-59.9137447525
 20
44.8321493719
 10
-59.9705834619
 20
44.8270088139
 10
-60.0269768705
 20
44.8186092666
 10
-60.0827153883
 20
44.8069910442
 10
-60.1376469904
 20
44.7921945993
 10
-60.1916737481
 20
44.7742449729
 10
-60.2446551885
 20
44.7531759451
 10
-60.2963760028
 20
44.7290606579
 10
-60.3466292175
 20
44.701990962
 10
-60.3952330657
 20
44.6720637266
 10
-60.4420450514
 20
44.6393668152
 10
-60.4869259381
 20
44.6039963408
 10
-60.529727548
 20
44.5660611712
 10
-60.5703037265
 20
44.5256836327
 10
-60.6085252883
 20
44.4829894899
 10
-60.6442613472
 20
44.4381134444
 10
-60.6773891772
 20
44.3911985155
 10
-60.7078015314
 20
44.3423925188
 10
-60.7353927423
 20
44.2918468391
 10
-60.7600622823
 20
44.2397271833
 10
-60.7817238669
 20
44.1862118502
 10
-60.8002974199
 20
44.1314774343
 10
-60.8157160486
 20
44.0756977734
 10
-60.8279280287
 20
44.0190538877
 10
-60.8368863715
 20
43.9617300776
 10
-60.8425501543
 20
43.9039136401
 10
-60.8448916334
 20
43.8457940386
  0
LWPOLYLINE
  5
2EC
100
AcDbEntity
  8
RACCORDO
100
AcDbPolyline
 62
253
  6
CONTINUOUS
 90
28
 70
0
 10
-59.8566450886
 20
44.4263792099
 10
-59.8853531406
 20
44.4255286782
 10
-59.9137533943
 20
44.4230423958
 10
-59.9418458497
 20
44.4189203492
 10
-59.9697148026
 20
44.4131424313
 10
-59.9972759571
 20
44.4057286944
 10
-60.0242764262
 20
44.3967393517
 10
-60.0507224648
 20
44.3861550012
 10
-60.0766078181
 20
44.3739949408
 10
-60.1016608342
 20
44.360377428
 10
-60.1258656889
 20
44.3452911537
 10
-60.1492382064
 20
44.3287472864
 10
-60.1715542076
 20
44.3108978014
 10
-60.1928064329
 20
44.2917290081
 10
-60.2130021419
 20
44.2712544351
 10
-60.2319389347
 20
44.2496668996
 10
-60.249605913
 20
44.2269535946
 10
-60.2660139753
 20
44.2031271626
 10
-60.2809934169
 20
44.1784186206
 10
-60.2945299508
 20
44.1528183786
 10
-60.306637864
 20
44.1263358795
 10
-60.317190314
 20
44.0992307278
 10
-60.3261720237
 20
44.0714872154
 10
-60.3335982701
 20
44.0431209377
 10
-60.3393880409
 20
44.0144385042
 10
-60.3435143322
 20
43.9855421118
 10
-60.3460041479
 20
43.9563295117
 10
-60.346857488
 20
43.9268006745
  0
LINE
  5
2ED
100
AcDbEntity
  8
RACCORDO
100
AcDbLine
 62
253
  6
CONTINUOUS
 10
59.8566450886
 20
44.8340076387
 11
-59.8566450886
 21
44.8340076387
  0
LINE
  5
2EE
100
AcDbEntity
  8
RACCORDO
100
AcDbLine
 62
7
  6
CONTINUOUS
 10
60.0199743099
 20
45.0
 11
-60.0199743099
 21
45.0
  0
LWPOLYLINE
  5
2EF
100
AcDbEntity
  8
RACCORDO
100
AcDbPolyline
 62
7
  6
CONTINUOUS
 90
28
 70
0
 10
60.0199743099
 20
45.0
 10
60.0764796275
 20
44.9983984097
 10
60.1325279765
 20
44.9935696001
 10
60.1881193568
 20
44.985513516
 10
60.2434996027
 20
44.9741734187
 10
60.2984228799
 20
44.9596058251
 10
60.3521516857
 20
44.9419805178
 10
60.4045601789
 20
44.9213008268
 10
60.4557742006
 20
44.8975630105
 10
60.5054337718
 20
44.8709262165
 10
60.5535341419
 20
44.8414026277
 10
60.6000800615
 20
44.8089794921
 10
60.644725804
 20
44.7737785384
 10
60.6875837275
 20
44.7356410578
 10
60.728541474
 20
44.6947250367
 10
60.766916242
 20
44.6516273066
 10
60.8025704216
 20
44.6064154248
 10
60.8356416227
 20
44.5590211768
 10
60.8658598742
 20
44.5098378632
 10
60.8932104307
 20
44.4588949527
 10
60.9177080375
 20
44.4061623695
 10
60.9391269589
 20
44.3519442023
 10
60.9574859133
 20
44.2960644203
 10
60.9727661823
 20
44.2386984821
 10
60.9846858746
 20
44.1806779204
 10
60.9931510266
 20
44.1222799043
 10
60.998255602
 20
44.063227057
 10
60.9999996007
 20
44.0035192549
  0
LINE
  5
2F0
100
AcDbEntity
  8
RACCORDO
100
AcDbLine
 62
253
  6
CONTINUOUS
 10
59.8566450886
 20
-44.4263792099
 11
59.8566450889
 21
-44.8340076387
  0
LINE
  5
2F1
100
AcDbEntity
  8
RACCORDO
100
AcDbLine
 62
253
  6
CONTINUOUS
 10
59.8566450886
 20
44.4263792099
 11
59.8566450886
 21
44.8340076387
  0
LINE
  5
2F2
100
AcDbEntity
  8
RACCORDO
100
AcDbLine
 62
253
  6
CONTINUOUS
 10
60.3481971776
 20
34.5017285393
 11
60.346857488
 21
43.9268006745
  0
LINE
  5
2F3
100
AcDbEntity
  8
RACCORDO
100
AcDbLine
 62
253
  6
CONTINUOUS
 10
60.8462670871
 20
34.446380284
 11
60.8448916333
 21
43.845794038
  0
LINE
  5
2F4
100
AcDbEntity
  8
RACCORDO
100
AcDbLine
 62
253
  6
CONTINUOUS
 10
60.346857488
 20
-43.9268006745
 11
60.3481971776
 21
34.5017285393
  0
LINE
  5
2F5
100
AcDbEntity
  8
RACCORDO
100
AcDbLine
 62
253
  6
CONTINUOUS
 10
60.8448916333
 20
-43.8457940385
 11
60.8462670871
 21
34.446380284
  0
LWPOLYLINE
  5
2F6
100
AcDbEntity
  8
RACCORDO
100
AcDbPolyline
 62
253
  6
CONTINUOUS
 90
28
 70
0
 10
60.8448916334
 20
43.8457940382
 10
60.8425507296
 20
43.9039047161
 10
60.8368913919
 20
43.9616903536
 10
60.8279450976
 20
44.0189621801
 10
60.8157610321
 20
44.0755152838
 10
60.8003871632
 20
44.1311862319
 10
60.7818583161
 20
44.1858503528
 10
60.7602224396
 20
44.2393619303
 10
60.7355633178
 20
44.2915114641
 10
60.7079810534
 20
44.3420846172
 10
60.6775841457
 20
44.3909042618
 10
60.6444724219
 20
44.4378314313
 10
60.6087517164
 20
44.4827206664
 10
60.5705439738
 20
44.525429701
 10
60.5299806739
 20
44.5658228843
 10
60.4871913376
 20
44.6037740409
 10
60.4423213632
 20
44.639161417
 10
60.3955196596
 20
44.671875489
 10
60.3469284118
 20
44.7018184359
 10
60.2967033705
 20
44.7288964631
 10
60.2450142425
 20
44.7530212018
 10
60.1920303676
 20
44.774115063
 10
60.1379333701
 20
44.7921085058
 10
60.0828928168
 20
44.8069486365
 10
60.0270638833
 20
44.8185937441
 10
59.9706196489
 20
44.827004556
 10
59.9137517301
 20
44.8321490217
 10
59.8566450886
 20
44.8340076387
  0
LWPOLYLINE
  5
2F7
100
AcDbEntity
  8
RACCORDO
100
AcDbPolyline
 62
253
  6
CONTINUOUS
 90
28
 70
0
 10
60.346857488
 20
43.9268006745
 10
60.3459972074
 20
43.9563518857
 10
60.3435067232
 20
43.9855678874
 10
60.3393860354
 20
44.0144487109
 10
60.3336109048
 20
44.0430846235
 10
60.3262055706
 20
44.0713854142
 10
60.3172427503
 20
44.0990804217
 10
60.3067030812
 20
44.1261719681
 10
60.2946059261
 20
44.1526578398
 10
60.2810820903
 20
44.1782606199
 10
60.2661203156
 20
44.2029629192
 10
60.2497318603
 20
44.2267822746
 10
60.2320813049
 20
44.2494936973
 10
60.2131566167
 20
44.2710873732
 10
60.1929698283
 20
44.2915732801
 10
60.1717216187
 20
44.3107561426
 10
60.1494020633
 20
44.3286233086
 10
60.1260210866
 20
44.3451875919
 10
60.1018091408
 20
44.3602919299
 10
60.0767585841
 20
44.3739219713
 10
60.0508770583
 20
44.3860922083
 10
60.024417941
 20
44.3966888465
 10
59.9973692277
 20
44.4056969079
 10
59.9697429228
 20
44.4131314744
 10
59.9418284174
 20
44.4189238353
 10
59.913722175
 20
44.4230511061
 10
59.8853277321
 20
44.4255362264
 10
59.8566450886
 20
44.4263792099
  0
LINE
  5
2F8
100
AcDbEntity
  8
RACCORDO
100
AcDbLine
 62
7
  6
CONTINUOUS
 10
60.9999996007
 20
44.0035192549
 11
61.0
 21
22.5203789087
  0
LINE
  5
2F9
100
AcDbEntity
  8
DRAFT
100
AcDbLine
 62
7
  6
CONTINUOUS
 10
61.0
 20
22.5203789087
 11
61.0
 21
-22.5203789087
  0
LINE
  5
2FA
100
AcDbEntity
  8
RACCORDO
100
AcDbLine
 62
7
  6
CONTINUOUS
 10
61.0
 20
-22.5203789087
 11
60.9999996007
 21
-44.0035192549
  0
LWPOLYLINE
  5
2FB
100
AcDbEntity
  8
RACCORDO
100
AcDbPolyline
 62
7
  6
CONTINUOUS
 90
28
 70
0
 10
60.9999996007
 20
-44.0035192549
 10
60.9982508474
 20
-44.0632408899
 10
60.99314613
 20
-44.1222945497
 10
60.9846854486
 20
-44.1806803605
 10
60.9727769011
 20
-44.2386673129
 10
60.9575123896
 20
-44.2959866303
 10
60.9391676206
 20
-44.3518319449
 10
60.9177594647
 20
-44.406038978
 10
60.8932710513
 20
-44.4587725744
 10
60.8659274749
 20
-44.5097202574
 10
60.8357124582
 20
-44.5589113297
 10
60.8026422785
 20
-44.6063170948
 10
60.7669908621
 20
-44.6515381854
 10
60.7286215913
 20
-44.6946403706
 10
60.6876710837
 20
-44.7355585396
 10
60.6448231187
 20
-44.7736971332
 10
60.6001944544
 20
-44.8088965316
 10
60.5536683327
 20
-44.8413170774
 10
60.5055782576
 20
-44.8708432141
 10
60.4559155216
 20
-44.8974915601
 10
60.4046888324
 20
-44.9212460649
 10
60.3522578166
 20
-44.9419421516
 10
60.2984877502
 20
-44.9595833458
 10
60.2435133572
 20
-44.9741665338
 10
60.1880984368
 20
-44.9855171539
 10
60.1324975887
 20
-44.9935770964
 10
60.076456213
 20
-44.9984046934
 10
60.0199743099
 20
-45.0
  0
LINE
  5
2FC
100
AcDbEntity
  8
RACCORDO
100
AcDbLine
 62
7
  6
CONTINUOUS
 10
95.7004260171
 20
-44.8340076387
 11
93.8031246455
 21
-45.0
  0
LINE
  5
2FD
100
AcDbEntity
  8
RACCORDO
100
AcDbLine
 62
253
  6
CONTINUOUS
 10
95.7912711783
 20
-43.845794038
 11
93.989467435
 21
-44.0035192549
  0
LINE
  5
2FE
100
AcDbEntity
  8
0
100
AcDbLine
 62
7
  6
CONTINUOUS
 10
93.2952874534
 20
-43.7
 11
93.3014182754
 21
-43.7
  0
LINE
  5
2FF
100
AcDbEntity
  8
RACCORDO
100
AcDbLine
 62
253
  6
CONTINUOUS
 10
93.0480451557
 20
-43.6864596407
 11
93.3014182754
 21
-43.7
  0
LWPOLYLINE
  5
300
100
AcDbEntity
  8
RACCORDO
100
AcDbPolyline
 62
253
  6
CONTINUOUS
 90
25
 70
0
 10
93.6537084143
 20
-44.6460538824
 10
93.6542876631
 20
-44.6461026412
 10
93.6548997187
 20
-44.6459407286
 10
93.6555482328
 20
-44.6455487248
 10
93.6562364382
 20
-44.6449076174
 10
93.6569685561
 20
-44.6439967695
 10
93.6577502605
 20
-44.6427914496
 10
93.6585872203
 20
-44.6412685826
 10
93.6594833142
 20
-44.6394004
 10
93.6604428068
 20
-44.6371483312
 10
93.6614725014
 20
-44.6344775615
 10
93.6625784487
 20
-44.631354364
 10
93.6637650433
 20
-44.6277350675
 10
93.6650385508
 20
-44.6235866392
 10
93.6664057344
 20
-44.6188723703
 10
93.6678725789
 20
-44.6135384902
 10
93.6694459121
 20
-44.6075494623
 10
93.6711329478
 20
-44.6008653666
 10
93.6729421623
 20
-44.5934155591
 10
93.6748823275
 20
-44.585156371
 10
93.6769592364
 20
-44.5760526276
 10
93.6791805397
 20
-44.5660267988
 10
93.6815568683
 20
-44.5550238006
 10
93.6840990105
 20
-44.5429824769
 10
93.6897439294
 20
-44.5153148257
  0
LINE
  5
301
100
AcDbEntity
  8
RACCORDO
100
AcDbLine
 62
253
  6
CONTINUOUS
 10
93.6560500164
 20
-43.9489890756
 11
93.6993851909
 21
-43.9545460956
  0
LINE
  5
302
100
AcDbEntity
  8
RACCORDO
100
AcDbLine
 62
253
  6
CONTINUOUS
 10
93.6993851909
 20
-43.9545460956
 11
93.7825334367
 21
-43.9654817029
  0
LINE
  5
303
100
AcDbEntity
  8
RACCORDO
100
AcDbLine
 62
253
  6
CONTINUOUS
 10
92.0441758067
 20
-43.5812358926
 11
92.0460359583
 21
-43.5818045125
  0
LINE
  5
304
100
AcDbEntity
  8
RACCORDO
100
AcDbLine
 62
253
  6
CONTINUOUS
 10
91.7977944722
 20
-43.5395023498
 11
91.8000161164
 21
-43.540236024
  0
LINE
  5
305
100
AcDbEntity
  8
RACCORDO
100
AcDbLine
 62
253
  6
CONTINUOUS
 10
93.6711783786
 20
-43.8679119205
 11
93.794288745
 21
-43.8904816335
  0
LINE
  5
306
100
AcDbEntity
  8
RACCORDO
100
AcDbLine
 62
253
  6
CONTINUOUS
 10
93.9894673929
 20
-44.0035194839
 11
93.7825329478
 21
-43.9654851844
  0
LINE
  5
307
100
AcDbEntity
  8
RACCORDO
100
AcDbLine
 62
253
  6
CONTINUOUS
 10
91.5538464295
 20
-43.4919297563
 11
91.5564143635
 21
-43.4928437331
  0
LINE
  5
308
100
AcDbEntity
  8
RACCORDO
100
AcDbLine
 62
7
  6
CONTINUOUS
 10
93.859893245
 20
-44.7
 11
93.6537083412
 21
-44.6460538634
  0
LWPOLYLINE
  5
309
100
AcDbEntity
  8
RACCORDO
100
AcDbPolyline
 62
253
  6
CONTINUOUS
 90
12
 70
0
 10
90.3692037574
 20
43.1426403415
 10
90.5954727015
 20
43.2202508681
 10
90.8263964806
 20
43.2925712401
 10
91.0616893006
 20
43.3594957117
 10
91.3012827372
 20
43.4209714856
 10
91.5446636013
 20
43.4768257883
 10
91.7908465311
 20
43.5268194547
 10
92.0394789703
 20
43.5708871847
 10
92.290259547
 20
43.6089734077
 10
92.5422405003
 20
43.6409459933
 10
92.7948773592
 20
43.6667702135
 10
93.0480452132
 20
43.6864596445
  0
LINE
  5
30A
100
AcDbEntity
  8
RACCORDO
100
AcDbLine
 62
253
  6
CONTINUOUS
 10
90.3882335934
 20
43.1708440684
 11
90.3924426362
 21
43.1729248008
  0
LWPOLYLINE
  5
30B
100
AcDbEntity
  8
RACCORDO
100
AcDbPolyline
 62
7
  6
CONTINUOUS
 90
13
 70
0
 10
90.3924426362
 20
43.1729248008
 10
90.6166630863
 20
43.2475390323
 10
90.8454111958
 20
43.3169318841
 10
91.0784073953
 20
43.3810014693
 10
91.3155712109
 20
43.439692577
 10
91.5564143886
 20
43.4928437383
 10
91.8000161368
 20
43.5402360277
 10
92.0460359755
 20
43.5818045152
 10
92.2941792443
 20
43.6174925953
 10
92.5435581602
 20
43.6471780619
 10
92.7936550932
 20
43.6708249006
 10
93.0443373239
 20
43.6884384653
 10
93.2952874534
 20
43.7
  0
LINE
  5
30C
100
AcDbEntity
  8
RACCORDO
100
AcDbLine
 62
253
  6
CONTINUOUS
 10
93.6365498394
 20
44.6404364313
 11
93.6537088372
 21
44.6460539932
  0
LWPOLYLINE
  5
30D
100
AcDbEntity
  8
RACCORDO
100
AcDbPolyline
 62
253
  6
CONTINUOUS
 90
13
 70
0
 10
90.3807620546
 20
42.666764168
 10
90.6129366031
 20
42.7421592057
 10
90.8497344877
 20
42.8122924738
 10
91.0908709861
 20
42.8770604616
 10
91.3363065844
 20
42.936415817
 10
91.5855022886
 20
42.9901839659
 10
91.837389799
 20
43.0381214927
 10
92.0916205437
 20
43.0801708008
 10
92.3478897983
 20
43.1162820946
 10
92.6051528897
 20
43.1463260029
 10
92.8628332184
 20
43.1702795753
 10
93.1208404808
 20
43.1881711721
 10
93.3788521563
 20
43.1999994174
  0
LWPOLYLINE
  5
30E
100
AcDbEntity
  8
RACCORDO
100
AcDbPolyline
 62
253
  6
CONTINUOUS
 90
13
 70
0
 10
90.3818763996
 20
42.4324265446
 10
90.6162960247
 20
42.5061436705
 10
90.8553478567
 20
42.5746086971
 10
91.0987479584
 20
42.6377178933
 10
91.3464543373
 20
42.6954207957
 10
91.5979317534
 20
42.7475457468
 10
91.8521225723
 20
42.7938568829
 10
92.1086783344
 20
42.8342950973
 10
92.3672961318
 20
42.8688090293
 10
92.6269452911
 20
42.8972740449
 10
92.8870544816
 20
42.9196660686
 10
93.1475294379
 20
42.9360080599
 10
93.4080477414
 20
42.9462954714
  0
LINE
  5
30F
100
AcDbEntity
  8
RACCORDO
100
AcDbLine
 62
253
  6
CONTINUOUS
 10
90.6127711443
 20
43.2457296662
 11
90.6166630863
 21
43.2475390323
  0
LWPOLYLINE
  5
310
100
AcDbEntity
  8
RACCORDO
100
AcDbPolyline
 62
253
  6
CONTINUOUS
 90
4
 70
0
 10
90.1910458356
 20
-42.4336624566
 10
90.1925404545
 20
-42.433530171
 10
90.1970094364
 20
-42.4333992035
 10
90.2044082518
 20
-42.433270859
  0
LWPOLYLINE
  5
311
100
AcDbEntity
  8
RACCORDO
100
AcDbPolyline
 62
253
  6
CONTINUOUS
 90
3
 70
0
 10
90.1910457515
 20
-42.6673520658
 10
90.1925304478
 20
-42.6672892506
 10
90.1969698429
 20
-42.6672270573
  0
LINE
  5
312
100
AcDbEntity
  8
RACCORDO
100
AcDbLine
 62
253
  6
CONTINUOUS
 10
90.2044082518
 20
-42.433270859
 11
90.227672031
 21
-42.433027116
  0
LINE
  5
313
100
AcDbEntity
  8
RACCORDO
100
AcDbLine
 62
253
  6
CONTINUOUS
 10
90.1969698429
 20
-42.6672270573
 11
90.2274334774
 21
-42.6670502963
  0
LINE
  5
314
100
AcDbEntity
  8
RACCORDO
100
AcDbLine
 62
253
  6
CONTINUOUS
 10
90.227672031
 20
-42.433027116
 11
90.3286075032
 21
-42.4325469099
  0
LINE
  5
315
100
AcDbEntity
  8
RACCORDO
100
AcDbLine
 62
253
  6
CONTINUOUS
 10
90.3286075032
 20
-42.4325469099
 11
90.3818763993
 21
-42.4324265446
  0
LINE
  5
316
100
AcDbEntity
  8
RACCORDO
100
AcDbLine
 62
253
  6
CONTINUOUS
 10
90.2274334774
 20
-42.6670502963
 11
90.3807620516
 21
-42.6667641679
  0
LINE
  5
317
100
AcDbEntity
  8
RACCORDO
100
AcDbLine
 62
253
  6
CONTINUOUS
 10
96.2397191803
 20
-43.9268006691
 11
95.7912706897
 21
-43.8457939633
  0
LINE
  5
318
100
AcDbEntity
  8
RACCORDO
100
AcDbLine
 62
253
  6
CONTINUOUS
 10
91.3126684817
 20
-43.4385825154
 11
91.3155711813
 21
-43.4396925701
  0
LINE
  5
319
100
AcDbEntity
  8
RACCORDO
100
AcDbLine
 62
253
  6
CONTINUOUS
 10
91.0751723375
 20
-43.3796774161
 11
91.0784073658
 21
-43.3810014616
  0
LINE
  5
31A
100
AcDbEntity
  8
RACCORDO
100
AcDbLine
 62
253
  6
CONTINUOUS
 10
90.8418446039
 20
-43.3153746274
 11
90.8454111721
 21
-43.3169318772
  0
LINE
  5
31B
100
AcDbEntity
  8
RACCORDO
100
AcDbLine
 62
253
  6
CONTINUOUS
 10
90.6127711826
 20
-43.2457296784
 11
90.6166630726
 21
-43.2475390279
  0
LWPOLYLINE
  5
31C
100
AcDbEntity
  8
RACCORDO
100
AcDbPolyline
 62
253
  6
CONTINUOUS
 90
13
 70
0
 10
90.3818763996
 20
-42.4324265446
 10
90.6162951102
 20
-42.5061433959
 10
90.8553462837
 20
-42.5746082681
 10
91.0987459991
 20
-42.6377174112
 10
91.3464523752
 20
-42.6954203639
 10
91.5979300888
 20
-42.7475454228
 10
91.8521212155
 20
-42.7938566524
 10
92.1086771945
 20
-42.8342949314
 10
92.3672952151
 20
-42.8688089179
 10
92.6269446011
 20
-42.8972739774
 10
92.8870540202
 20
-42.9196660343
 10
93.1475292068
 20
-42.9360080481
 10
93.4080477414
 20
-42.9462954714
  0
LWPOLYLINE
  5
31D
100
AcDbEntity
  8
RACCORDO
100
AcDbPolyline
 62
253
  6
CONTINUOUS
 90
13
 70
0
 10
90.3807620546
 20
-42.666764168
 10
90.6129366028
 20
-42.7421592056
 10
90.8497344872
 20
-42.8122924737
 10
91.0908709856
 20
-42.8770604615
 10
91.3363065838
 20
-42.9364158168
 10
91.5855022881
 20
-42.9901839658
 10
91.8373897986
 20
-43.0381214926
 10
92.0916205434
 20
-43.0801708007
 10
92.347889798
 20
-43.1162820945
 10
92.6051528895
 20
-43.1463260029
 10
92.8628332182
 20
-43.1702795753
 10
93.1208404807
 20
-43.1881711721
 10
93.3788521563
 20
-43.1999994174
  0
LINE
  5
31E
100
AcDbEntity
  8
RACCORDO
100
AcDbLine
 62
253
  6
CONTINUOUS
 10
93.636549862
 20
-44.6404363463
 11
93.6537088624
 21
-44.6460538966
  0
LWPOLYLINE
  5
31F
100
AcDbEntity
  8
RACCORDO
100
AcDbPolyline
 62
7
  6
CONTINUOUS
 90
13
 70
0
 10
90.3924426362
 20
-43.1729248008
 10
90.6166630726
 20
-43.2475390279
 10
90.8454111721
 20
-43.3169318772
 10
91.0784073658
 20
-43.3810014616
 10
91.3155711813
 20
-43.4396925701
 10
91.5564143635
 20
-43.4928437331
 10
91.8000161164
 20
-43.540236024
 10
92.0460359583
 20
-43.5818045125
 10
92.2941792304
 20
-43.6174925935
 10
92.5435581498
 20
-43.6471780608
 10
92.7936550862
 20
-43.6708249
 10
93.0443373204
 20
-43.6884384651
 10
93.2952874534
 20
-43.7
  0
LINE
  5
320
100
AcDbEntity
  8
RACCORDO
100
AcDbLine
 62
253
  6
CONTINUOUS
 10
90.3882335934
 20
-43.1708440684
 11
90.3924426362
 21
-43.1729248008
  0
LWPOLYLINE
  5
321
100
AcDbEntity
  8
SUPERFICI
100
AcDbPolyline
 62
7
  6
CONTINUOUS
 90
13
 70
0
 10
90.390878595
 20
-43.1736915846
 10
90.5817368064
 20
-43.2387430197
 10
90.8453184435
 20
-43.3205041849
 10
91.106213096
 20
-43.3927083203
 10
91.362969573
 20
-43.4557321467
 10
91.6154783075
 20
-43.5102774727
 10
91.8650445312
 20
-43.5572035157
 10
92.1112180257
 20
-43.5968905356
 10
92.3534626094
 20
-43.6296948049
 10
92.5931436354
 20
-43.6561608749
 10
92.8305115613
 20
-43.6765746461
 10
93.064656157
 20
-43.6911064693
 10
93.2952874534
 20
-43.7
  0
LWPOLYLINE
  5
322
100
AcDbEntity
  8
RACCORDO
100
AcDbPolyline
 62
253
  6
CONTINUOUS
 90
12
 70
0
 10
90.3692037574
 20
-43.1426403415
 10
90.5954724753
 20
-43.220250794
 10
90.8263960912
 20
-43.2925711238
 10
91.0616888153
 20
-43.3594955804
 10
91.3012822509
 20
-43.4209713674
 10
91.5446631884
 20
-43.4768256991
 10
91.7908461944
 20
-43.5268193907
 10
92.0394786872
 20
-43.5708871381
 10
92.2902593192
 20
-43.6089733759
 10
92.5422403287
 20
-43.6409459736
 10
92.7948772443
 20
-43.6667702032
 10
93.0480451557
 20
-43.6864596407
  0
LWPOLYLINE
  5
323
100
AcDbEntity
  8
RACCORDO
100
AcDbPolyline
 62
253
  6
CONTINUOUS
 90
7
 70
0
 10
90.3924426362
 20
-43.1729248008
 10
90.3917696141
 20
-43.1726733044
 10
90.3910851954
 20
-43.172384834
 10
90.390389382
 20
-43.1720585387
 10
90.3896821759
 20
-43.1716935591
 10
90.388963579
 20
-43.1712890277
 10
90.3882335934
 20
-43.1708440684
  0
LINE
  5
324
100
AcDbEntity
  8
RACCORDO
100
AcDbLine
 62
7
  6
CONTINUOUS
 10
90.3638393689
 20
-43.1612745093
 11
90.3924469923
 21
-43.1729122821
  0
LWPOLYLINE
  5
325
100
AcDbEntity
  8
RACCORDO
100
AcDbPolyline
 62
253
  6
CONTINUOUS
 90
4
 70
0
 10
90.2963230954
 20
43.0985970663
 10
90.3191065807
 20
43.1154966673
 10
90.343475007
 20
43.130223017
 10
90.3692037454
 20
43.1426403674
  0
LWPOLYLINE
  5
326
100
AcDbEntity
  8
RACCORDO
100
AcDbPolyline
 62
253
  6
CONTINUOUS
 90
4
 70
0
 10
90.3082870798
 20
43.1269679632
 10
90.3333974145
 20
43.1442811646
 10
90.3601384728
 20
43.158957089
 10
90.3882336437
 20
43.1708439306
  0
LWPOLYLINE
  5
327
100
AcDbEntity
  8
RACCORDO
100
AcDbPolyline
 62
253
  6
CONTINUOUS
 90
7
 70
0
 10
90.3882335934
 20
43.1708440684
 10
90.3889635866
 20
43.1712890311
 10
90.389682188
 20
43.1716935644
 10
90.3903893957
 20
43.1720585443
 10
90.3910852076
 20
43.1723848387
 10
90.3917696218
 20
43.1726733072
 10
90.3924426362
 20
43.1729248008
  0
LWPOLYLINE
  5
328
100
AcDbEntity
  8
RACCORDO
100
AcDbPolyline
 62
7
  6
CONTINUOUS
 90
3
 70
0
 10
90.3109575638
 20
-43.1295148184
 10
90.3365799243
 20
-43.1467574022
 10
90.3638393689
 20
-43.1612745093
  0
LWPOLYLINE
  5
329
100
AcDbEntity
  8
RACCORDO
100
AcDbPolyline
 62
253
  6
CONTINUOUS
 90
4
 70
0
 10
90.3082867947
 20
-43.1269672538
 10
90.3333971792
 20
-43.144280733
 10
90.3601382986
 20
-43.1589569912
 10
90.3882335397
 20
-43.1708442155
  0
LWPOLYLINE
  5
32A
100
AcDbEntity
  8
RACCORDO
100
AcDbPolyline
 62
253
  6
CONTINUOUS
 90
12
 70
0
 10
90.3882335934
 20
-43.1708440684
 10
90.3864821506
 20
-43.1696085065
 10
90.3847634428
 20
-43.1681667692
 10
90.3830772787
 20
-43.1665205245
 10
90.3814247641
 20
-43.1646722634
 10
90.3798044256
 20
-43.1626229625
 10
90.3782122252
 20
-43.1603715168
 10
90.3766478415
 20
-43.1579191463
 10
90.3751112886
 20
-43.1552670224
 10
90.3735990657
 20
-43.1524128705
 10
90.3721099265
 20
-43.1493560782
 10
90.3706448646
 20
-43.146098358
  0
LWPOLYLINE
  5
32B
100
AcDbEntity
  8
RACCORDO
100
AcDbPolyline
 62
253
  6
CONTINUOUS
 90
4
 70
0
 10
90.2963230795
 20
-43.0985971434
 10
90.3191065543
 20
-43.1154967543
 10
90.3434749691
 20
-43.1302231144
 10
90.3692036952
 20
-43.1426404757
  0
LINE
  5
32C
100
AcDbEntity
  8
RACCORDO
100
AcDbLine
 62
7
  6
CONTINUOUS
 10
90.2872438423
 20
-43.109729501
 11
90.3109575638
 21
-43.1295148184
  0
LWPOLYLINE
  5
32D
100
AcDbEntity
  8
RACCORDO
100
AcDbPolyline
 62
253
  6
CONTINUOUS
 90
6
 70
0
 10
93.567301506
 20
44.5845321897
 10
93.5782368019
 20
44.5989176946
 10
93.5908228071
 20
44.6118774686
 10
93.6048763778
 20
44.6232229288
 10
93.6201930147
 20
44.6327889828
 10
93.6365498394
 20
44.6404364313
  0
LINE
  5
32E
100
AcDbEntity
  8
0
100
AcDbLine
 62
7
  6
CONTINUOUS
 10
98.2588265465
 20
-28.877801
 11
98.3592134288
 21
-28.877801
  0
LWPOLYLINE
  5
32F
100
AcDbEntity
  8
RACCORDO
100
AcDbPolyline
 62
253
  6
CONTINUOUS
 90
6
 70
0
 10
93.5673015187
 20
-44.5845321581
 10
93.5782368154
 20
-44.5989176531
 10
93.5908228223
 20
-44.6118774167
 10
93.6048763951
 20
-44.6232228662
 10
93.6201930346
 20
-44.6327889092
 10
93.636549862
 20
-44.6404363463
  0
LINE
  5
330
100
AcDbEntity
  8
0
100
AcDbLine
 62
7
  6
CONTINUOUS
 10
98.4816790329
 20
-26.078098
 11
98.5819315574
 21
-26.078098
  0
LINE
  5
331
100
AcDbEntity
  8
SUPERFICI
100
AcDbLine
 62
7
  6
CONTINUOUS
 10
98.5842635807
 20
-26.0452484808
 11
98.4840124612
 21
-26.0452484808
  0
LINE
  5
332
100
AcDbEntity
  8
RACCORDO
100
AcDbLine
 62
253
  6
CONTINUOUS
 10
96.0706064207
 20
-24.0670399876
 11
96.1957003301
 21
-24.0745373099
  0
LWPOLYLINE
  5
333
100
AcDbEntity
  8
RACCORDO
100
AcDbPolyline
 62
253
  6
CONTINUOUS
 90
10
 70
0
 10
90.4295210316
 20
-22.788569243
 10
90.9997032426
 20
-22.8885822128
 10
91.5749694276
 20
-22.9816085322
 10
92.1547483895
 20
-23.067558702
 10
92.7388524611
 20
-23.1463925425
 10
93.3263365533
 20
-23.2179626674
 10
93.91547601
 20
-23.2820618641
 10
94.5053048314
 20
-23.3386107138
 10
95.0956377614
 20
-23.3876102017
 10
95.6859137813
 20
-23.4290183628
  0
LWPOLYLINE
  5
334
100
AcDbEntity
  8
RACCORDO
100
AcDbPolyline
 62
253
  6
CONTINUOUS
 90
13
 70
0
 10
90.3692037574
 20
43.1426403415
 10
90.370645355
 20
43.1460994821
 10
90.3721108291
 20
43.1493580022
 10
90.3736003016
 20
43.1524153067
 10
90.3751127828
 20
43.1552697232
 10
90.3766495134
 20
43.1579218975
 10
90.37821398
 20
43.1603741326
 10
90.3798061696
 20
43.1626252972
 10
90.3814264005
 20
43.1646742087
 10
90.3830786901
 20
43.1665220007
 10
90.384764504
 20
43.1681677345
 10
90.3864827418
 20
43.1696089656
 10
90.3882335934
 20
43.1708440684
  0
LWPOLYLINE
  5
335
100
AcDbEntity
  8
RACCORDO
100
AcDbPolyline
 62
253
  6
CONTINUOUS
 90
6
 70
0
 10
90.2129150817
 20
42.9875686932
 10
90.224980221
 20
43.0126509268
 10
90.2394979613
 20
43.0365079447
 10
90.2563344775
 20
43.058919832
 10
90.27533457
 20
43.0796799951
 10
90.2963230954
 20
43.0985970663
  0
LINE
  5
336
100
AcDbEntity
  8
RACCORDO
100
AcDbLine
 62
253
  6
CONTINUOUS
 10
90.1910457515
 20
-22.7888150052
 11
90.1922856789
 21
-22.7887921993
  0
LINE
  5
337
100
AcDbEntity
  8
RACCORDO
100
AcDbLine
 62
253
  6
CONTINUOUS
 10
90.1910457515
 20
-21.902483891
 11
90.1922907515
 21
-21.9024622387
  0
LINE
  5
338
100
AcDbEntity
  8
RACCORDO
100
AcDbLine
 62
253
  6
CONTINUOUS
 10
90.1910457517
 20
-21.2558023096
 11
90.1922942489
 21
-21.2557816619
  0
LINE
  5
339
100
AcDbEntity
  8
RACCORDO
100
AcDbLine
 62
253
  6
CONTINUOUS
 10
90.1922856789
 20
-22.7887921993
 11
90.2215344229
 21
-22.788704713
  0
LINE
  5
33A
100
AcDbEntity
  8
RACCORDO
100
AcDbLine
 62
253
  6
CONTINUOUS
 10
90.1922907515
 20
-21.9024622387
 11
90.2347903027
 21
-21.9023601843
  0
LINE
  5
33B
100
AcDbEntity
  8
RACCORDO
100
AcDbLine
 62
253
  6
CONTINUOUS
 10
90.1922942489
 20
-21.2557816619
 11
90.2502106339
 21
-21.2556672212
  0
LINE
  5
33C
100
AcDbEntity
  8
RACCORDO
100
AcDbLine
 62
253
  6
CONTINUOUS
 10
90.2215344229
 20
-22.788704713
 11
90.4295210316
 21
-22.788569243
  0
LINE
  5
33D
100
AcDbEntity
  8
RACCORDO
100
AcDbLine
 62
253
  6
CONTINUOUS
 10
90.2347903027
 20
-21.9023601843
 11
90.4303403818
 21
-21.9022509012
  0
LINE
  5
33E
100
AcDbEntity
  8
RACCORDO
100
AcDbLine
 62
253
  6
CONTINUOUS
 10
90.2502106339
 20
-21.2556672212
 11
90.4309045761
 21
-21.2555803531
  0
LINE
  5
33F
100
AcDbEntity
  8
RACCORDO
100
AcDbLine
 62
253
  6
CONTINUOUS
 10
98.2396629014
 20
-22.5203789087
 11
96.4938296331
 21
-22.5203789087
  0
LINE
  5
340
100
AcDbEntity
  8
RACCORDO
100
AcDbLine
 62
253
  6
CONTINUOUS
 10
98.6954576514
 20
-22.5432326078
 11
98.2396629014
 21
-22.5203789087
  0
LINE
  5
341
100
AcDbEntity
  8
RACCORDO
100
AcDbLine
 62
253
  6
CONTINUOUS
 10
98.6910457333
 20
-22.6310194473
 11
98.2352558945
 21
-22.6080915512
  0
LINE
  5
342
100
AcDbEntity
  8
RACCORDO
100
AcDbLine
 62
253
  6
CONTINUOUS
 10
96.1594580715
 20
-22.4522761667
 11
96.2847298369
 21
-22.4585708418
  0
LINE
  5
343
100
AcDbEntity
  8
RACCORDO
100
AcDbLine
 62
253
  6
CONTINUOUS
 10
96.1568885401
 20
-22.5033847271
 11
96.4938296331
 21
-22.5203789087
  0
LWPOLYLINE
  5
344
100
AcDbEntity
  8
RACCORDO
100
AcDbPolyline
 62
253
  6
CONTINUOUS
 90
10
 70
0
 10
90.4309045762
 20
-21.2555803531
 10
91.0114313623
 20
-21.3497043608
 10
91.5966374919
 20
-21.4371806474
 10
92.1859748358
 20
-21.5179297428
 10
92.779249047
 20
-21.5919142771
 10
93.3755699176
 20
-21.6590059154
 10
93.9733321222
 20
-21.7190259599
 10
94.5716294159
 20
-21.7719046928
 10
95.1702738289
 20
-21.8176407637
 10
95.7687324963
 20
-21.8561965495
  0
LWPOLYLINE
  5
345
100
AcDbEntity
  8
RACCORDO
100
AcDbPolyline
 62
253
  6
CONTINUOUS
 90
10
 70
0
 10
90.4303403818
 20
-21.9022509012
 10
91.0066512354
 20
-21.9989489077
 10
91.5878127374
 20
-22.0888531913
 10
92.1732667887
 20
-22.1718801537
 10
92.7628215533
 20
-22.2479912859
 10
93.355563556
 20
-22.3170504026
 10
93.9498372416
 20
-22.3788670196
 10
94.5447111188
 20
-22.4333674015
 10
95.139998142
 20
-22.4805511742
 10
95.7351534505
 20
-22.5203789263
  0
LWPOLYLINE
  5
346
100
AcDbEntity
  8
RACCORDO
100
AcDbPolyline
 62
253
  6
CONTINUOUS
 90
6
 70
0
 10
90.2155519681
 20
-43.0079536443
 10
90.229039491
 20
-43.0352914521
 10
90.2452372368
 20
-43.0611194365
 10
90.2639776541
 20
-43.08517043
 10
90.2850668899
 20
-43.1071956462
 10
90.3082867947
 20
-43.1269672538
  0
LWPOLYLINE
  5
347
100
AcDbEntity
  8
RACCORDO
100
AcDbPolyline
 62
253
  6
CONTINUOUS
 90
6
 70
0
 10
90.212915095
 20
-42.9875687262
 10
90.2249802323
 20
-43.0126509681
 10
90.2394979684
 20
-43.0365079944
 10
90.2563344785
 20
-43.0589198904
 10
90.2753345633
 20
-43.0796800627
 10
90.2963230795
 20
-43.0985971434
  0
LINE
  5
348
100
AcDbEntity
  8
RACCORDO
100
AcDbLine
 62
253
  6
CONTINUOUS
 10
90.3706448646
 20
-43.146098358
 11
90.3692037574
 21
-43.1426403415
  0
LWPOLYLINE
  5
349
100
AcDbEntity
  8
RACCORDO
100
AcDbPolyline
 62
253
  6
CONTINUOUS
 90
4
 70
0
 10
90.3692037574
 20
-43.1426403415
 10
90.367152595
 20
-43.1376192211
 10
90.3652103451
 20
-43.1321499041
 10
90.3633771203
 20
-43.1262223887
  0
LWPOLYLINE
  5
34A
100
AcDbEntity
  8
RACCORDO
100
AcDbPolyline
 62
253
  6
CONTINUOUS
 90
3
 70
0
 10
90.1965638398
 20
42.9346625768
 10
90.2034137601
 20
42.9614924526
 10
90.2129150817
 20
42.9875686932
  0
LINE
  5
34B
100
AcDbEntity
  8
RACCORDO
100
AcDbLine
 62
7
  6
CONTINUOUS
 10
93.2952874534
 20
43.7
 11
93.5449290194
 21
44.5427758029
  0
LWPOLYLINE
  5
34C
100
AcDbEntity
  8
RACCORDO
100
AcDbPolyline
 62
253
  6
CONTINUOUS
 90
4
 70
0
 10
93.5458575025
 20
44.5349997792
 10
93.5509932019
 20
44.552339004
 10
93.5581760432
 20
44.568930283
 10
93.567301506
 20
44.5845321897
  0
LINE
  5
34D
100
AcDbEntity
  8
RACCORDO
100
AcDbLine
 62
7
  6
CONTINUOUS
 10
93.2952874534
 20
-43.7
 11
93.5449290194
 21
-44.5427758029
  0
LWPOLYLINE
  5
34E
100
AcDbEntity
  8
RACCORDO
100
AcDbPolyline
 62
253
  6
CONTINUOUS
 90
4
 70
0
 10
93.5458575186
 20
-44.5349997755
 10
93.5509932159
 20
-44.5523389913
 10
93.558176056
 20
-44.568930261
 10
93.5673015187
 20
-44.5845321581
  0
LWPOLYLINE
  5
34F
100
AcDbEntity
  8
RACCORDO
100
AcDbPolyline
 62
253
  6
CONTINUOUS
 90
40
 70
0
 10
90.3633771203
 20
-43.1262223887
 10
90.3616501288
 20
-43.1198118737
 10
90.3600324272
 20
-43.1129222425
 10
90.3585329176
 20
-43.1055961564
 10
90.3571545512
 20
-43.0978392304
 10
90.3558947149
 20
-43.0896474848
 10
90.3547539655
 20
-43.0810651659
 10
90.3537333705
 20
-43.072102598
 10
90.3528322427
 20
-43.062764705
 10
90.3520484909
 20
-43.0530993486
 10
90.351382512
 20
-43.0431268744
 10
90.3508343106
 20
-43.0328521591
 10
90.3504011883
 20
-43.0223067994
 10
90.3500823349
 20
-43.0115191823
 10
90.3498789841
 20
-43.0004890329
 10
90.3497915148
 20
-42.9892044356
 10
90.3498204208
 20
-42.9776725174
 10
90.3499657185
 20
-42.9659071889
 10
90.3502271044
 20
-42.9539031297
 10
90.3506075091
 20
-42.9416760017
 10
90.3511040635
 20
-42.9292345116
 10
90.3517077658
 20
-42.9165599065
 10
90.3524145891
 20
-42.9036684723
 10
90.3532282199
 20
-42.8905690837
 10
90.3541512272
 20
-42.8772277994
 10
90.3551842284
 20
-42.863624271
 10
90.3563262379
 20
-42.8497994007
 10
90.3575774106
 20
-42.8358111053
 10
90.3589377228
 20
-42.8216682946
 10
90.3604067191
 20
-42.8073884819
 10
90.361983903
 20
-42.7930462806
 10
90.3636702576
 20
-42.7786523906
 10
90.3654642425
 20
-42.7642257862
 10
90.3673616071
 20
-42.7498565551
 10
90.3693656462
 20
-42.7355510072
 10
90.3714724907
 20
-42.7213330262
 10
90.3736672311
 20
-42.707321062
 10
90.3759447776
 20
-42.6935643345
 10
90.3783097884
 20
-42.6800413581
 10
90.3807620546
 20
-42.666764168
  0
LWPOLYLINE
  5
350
100
AcDbEntity
  8
RACCORDO
100
AcDbPolyline
 62
7
  6
CONTINUOUS
 90
7
 70
0
 10
90.1973868837
 20
-42.9509482899
 10
90.2052510834
 20
-42.9808127564
 10
90.2161442371
 20
-43.0097104872
 10
90.2299508954
 20
-43.0373352138
 10
90.2465247303
 20
-43.0633941594
 10
90.2656900864
 20
-43.0876111419
 10
90.2872438423
 20
-43.109729501
  0
LWPOLYLINE
  5
351
100
AcDbEntity
  8
RACCORDO
100
AcDbPolyline
 62
253
  6
CONTINUOUS
 90
3
 70
0
 10
90.1965638509
 20
-42.9346625935
 10
90.2034137735
 20
-42.9614924775
 10
90.212915095
 20
-42.9875687262
  0
LWPOLYLINE
  5
352
100
AcDbEntity
  8
RACCORDO
100
AcDbPolyline
 62
7
  6
CONTINUOUS
 90
3
 70
0
 10
90.1956418918
 20
42.9432224636
 10
90.192466827
 20
42.9200646945
 10
90.1912732745
 20
42.9025452174
  0
LINE
  5
353
100
AcDbEntity
  8
RACCORDO
100
AcDbLine
 62
253
  6
CONTINUOUS
 10
90.1924284636
 20
42.9073263844
 11
90.1965638398
 21
42.9346625768
  0
LWPOLYLINE
  5
354
100
AcDbEntity
  8
RACCORDO
100
AcDbPolyline
 62
253
  6
CONTINUOUS
 90
9
 70
0
 10
90.1925974768
 20
42.9197699227
 10
90.1972363687
 20
42.9498930819
 10
90.204914442
 20
42.9793897194
 10
90.2155522745
 20
43.0079547192
 10
90.2290398276
 20
43.035292603
 10
90.2452375855
 20
43.0611205862
 10
90.2639779974
 20
43.0851715033
 10
90.2850672115
 20
43.1071965713
 10
90.3082870798
 20
43.1269679632
  0
LINE
  5
355
100
AcDbEntity
  8
RACCORDO
100
AcDbLine
 62
253
  6
CONTINUOUS
 10
93.4080477414
 20
42.9462954714
 11
93.6711783749
 21
43.8679119199
  0
LINE
  5
356
100
AcDbEntity
  8
RACCORDO
100
AcDbLine
 62
253
  6
CONTINUOUS
 10
95.6859137813
 20
23.4290183628
 11
96.0706064148
 21
24.0670399872
  0
LINE
  5
357
100
AcDbEntity
  8
RACCORDO
100
AcDbLine
 62
253
  6
CONTINUOUS
 10
95.7687324963
 20
21.8561965495
 11
96.1594580717
 21
22.4522761667
  0
LINE
  5
358
100
AcDbEntity
  8
RACCORDO
100
AcDbLine
 62
253
  6
CONTINUOUS
 10
95.7687324963
 20
-21.8561965495
 11
96.1594580717
 21
-22.4522761667
  0
LINE
  5
359
100
AcDbEntity
  8
RACCORDO
100
AcDbLine
 62
253
  6
CONTINUOUS
 10
95.6859137813
 20
-23.4290183628
 11
96.0706064149
 21
-24.0670399873
  0
LINE
  5
35A
100
AcDbEntity
  8
RACCORDO
100
AcDbLine
 62
253
  6
CONTINUOUS
 10
93.4080477414
 20
-42.9462954714
 11
93.6711783749
 21
-43.8679119199
  0
LWPOLYLINE
  5
35B
100
AcDbEntity
  8
RACCORDO
100
AcDbPolyline
 62
253
  6
CONTINUOUS
 90
10
 70
0
 10
93.5449290194
 20
-44.5427758029
 10
93.5446692736
 20
-44.5417696663
 10
93.5444989756
 20
-44.5408029783
 10
93.5444188117
 20
-44.5398720299
 10
93.5444293966
 20
-44.5389694768
 10
93.5445316823
 20
-44.5380942234
 10
93.5447259704
 20
-44.5372566858
 10
93.5450118299
 20
-44.5364631447
 10
93.5453890843
 20
-44.5357104859
 10
93.5458575296
 20
-44.5349997729
  0
LINE
  5
35C
100
AcDbEntity
  8
RACCORDO
100
AcDbLine
 62
7
  6
CONTINUOUS
 10
90.1926349856
 20
-42.9204336022
 11
90.1973868837
 21
-42.9509482899
  0
LINE
  5
35D
100
AcDbEntity
  8
RACCORDO
100
AcDbLine
 62
253
  6
CONTINUOUS
 10
90.1924284703
 20
-42.9073263929
 11
90.1965638509
 21
-42.9346625935
  0
LINE
  5
35E
100
AcDbEntity
  8
RACCORDO
100
AcDbLine
 62
7
  6
CONTINUOUS
 10
90.192466827
 20
-42.9200647005
 11
90.1956418918
 21
-42.9432224557
  0
LINE
  5
35F
100
AcDbEntity
  8
RACCORDO
100
AcDbLine
 62
7
  6
CONTINUOUS
 10
90.1910457515
 20
-42.8895920988
 11
90.1926349856
 21
-42.9204336022
  0
LINE
  5
360
100
AcDbEntity
  8
RACCORDO
100
AcDbLine
 62
253
  6
CONTINUOUS
 10
90.1910457515
 20
-42.8797358613
 11
90.1910457515
 21
-42.8895920988
  0
LINE
  5
361
100
AcDbEntity
  8
RACCORDO
100
AcDbLine
 62
253
  6
CONTINUOUS
 10
90.1910457515
 20
42.8797358613
 11
90.1925974768
 21
42.9197699227
  0
LWPOLYLINE
  5
362
100
AcDbEntity
  8
RACCORDO
100
AcDbPolyline
 62
7
  6
CONTINUOUS
 90
3
 70
0
 10
90.1910457515
 20
-42.8907997004
 10
90.1912732745
 20
-42.9025452686
 10
90.192466827
 20
-42.9200647005
  0
LINE
  5
363
100
AcDbEntity
  8
RACCORDO
100
AcDbLine
 62
253
  6
CONTINUOUS
 10
90.3914970868
 20
40.4514014571
 11
90.3809547303
 21
42.6141246423
  0
LINE
  5
364
100
AcDbEntity
  8
RACCORDO
100
AcDbLine
 62
253
  6
CONTINUOUS
 10
90.3809547303
 20
42.6141246423
 11
90.3807620546
 21
42.666764168
  0
LINE
  5
365
100
AcDbEntity
  8
RACCORDO
100
AcDbLine
 62
253
  6
CONTINUOUS
 10
90.4058916488
 20
36.341570136
 11
90.3914970868
 21
40.4514014571
  0
LINE
  5
366
100
AcDbEntity
  8
RACCORDO
100
AcDbLine
 62
253
  6
CONTINUOUS
 10
90.4163500614
 20
32.0394588329
 11
90.4058916488
 21
36.341570136
  0
LINE
  5
367
100
AcDbEntity
  8
RACCORDO
100
AcDbLine
 62
253
  6
CONTINUOUS
 10
90.4268470084
 20
25.183478944
 11
90.4163500614
 21
32.0394588329
  0
LINE
  5
368
100
AcDbEntity
  8
RACCORDO
100
AcDbLine
 62
253
  6
CONTINUOUS
 10
90.4397268635
 20
4.005831165
 11
90.4268470084
 21
25.183478944
  0
LINE
  5
369
100
AcDbEntity
  8
RACCORDO
100
AcDbLine
 62
7
  6
CONTINUOUS
 10
90.1910457515
 20
-42.8893318391
 11
90.1910457515
 21
-4.0204738982
  0
LINE
  5
36A
100
AcDbEntity
  8
RACCORDO
100
AcDbLine
 62
7
  6
CONTINUOUS
 10
90.1910457515
 20
4.0204738961
 11
90.1910457515
 21
42.8893318391
  0
LINE
  5
36B
100
AcDbEntity
  8
RACCORDO
100
AcDbLine
 62
253
  6
CONTINUOUS
 10
90.4295210316
 20
-22.788569243
 11
90.4397268489
 21
-4.0058311661
  0
LINE
  5
36C
100
AcDbEntity
  8
RACCORDO
100
AcDbLine
 62
253
  6
CONTINUOUS
 10
90.4164344697
 20
-31.9977258885
 11
90.4295210316
 21
-22.788569243
  0
LINE
  5
36D
100
AcDbEntity
  8
RACCORDO
100
AcDbLine
 62
253
  6
CONTINUOUS
 10
90.4059972556
 20
-36.3051389405
 11
90.4164344697
 21
-31.9977258885
  0
LINE
  5
36E
100
AcDbEntity
  8
RACCORDO
100
AcDbLine
 62
253
  6
CONTINUOUS
 10
90.3915834479
 20
-40.4353611144
 11
90.4059972556
 21
-36.3051389405
  0
LINE
  5
36F
100
AcDbEntity
  8
RACCORDO
100
AcDbLine
 62
253
  6
CONTINUOUS
 10
90.3807620546
 20
-42.666764168
 11
90.3915834479
 21
-40.4353611144
  0
LINE
  5
370
100
AcDbEntity
  8
RACCORDO
100
AcDbLine
 62
7
  6
CONTINUOUS
 10
90.1912599235
 20
42.9010679241
 11
90.1910557647
 21
42.8897863754
  0
LWPOLYLINE
  5
371
100
AcDbEntity
  8
RACCORDO
100
AcDbPolyline
 62
253
  6
CONTINUOUS
 90
16
 70
0
 10
90.4397654373
 20
4.0058244371
 10
90.4364872069
 20
3.985617299
 10
90.433604019
 20
3.9656235555
 10
90.431146275
 20
3.9460540265
 10
90.4291398898
 20
3.9271150587
 10
90.4276060195
 20
3.9090063502
 10
90.4265608377
 20
3.8919188444
 10
90.4260153649
 20
3.8760327169
 10
90.4259753529
 20
3.8615154757
 10
90.4264412235
 20
3.8485201948
 10
90.4274080644
 20
3.8371839002
 10
90.4288656811
 20
3.8276261251
 10
90.4307987039
 20
3.8199476494
 10
90.4331867506
 20
3.8142294373
 10
90.4360046408
 20
3.8105317831
 10
90.4392226619
 20
3.8088936761
  0
LWPOLYLINE
  5
372
100
AcDbEntity
  8
RACCORDO
100
AcDbPolyline
 62
253
  6
CONTINUOUS
 90
16
 70
0
 10
91.9498691765
 20
3.7405228196
 10
91.946516247
 20
3.7202568159
 10
91.9434959713
 20
3.7002074288
 10
91.9408403939
 20
3.6805873777
 10
91.9385776899
 20
3.6616048266
 10
91.9367318659
 20
3.643461176
 10
91.9353225058
 20
3.6263489259
 10
91.9343645625
 20
3.6104496331
 10
91.9338681995
 20
3.5959319855
 10
91.9338386832
 20
3.582950012
 10
91.9342763267
 20
3.5716414483
 10
91.9351764867
 20
3.5621262755
 10
91.9365296127
 20
3.5545054475
 10
91.9383213484
 20
3.5488598195
 10
91.9405326838
 20
3.5452492902
 10
91.9431401572
 20
3.5437121665
  0
LINE
  5
373
100
AcDbEntity
  8
RACCORDO
100
AcDbLine
 62
7
  6
CONTINUOUS
 10
91.9431424431
 20
-3.5437120419
 11
90.3563161159
 21
-3.823512337
  0
LINE
  5
374
100
AcDbEntity
  8
RACCORDO
100
AcDbLine
 62
253
  6
CONTINUOUS
 10
91.9498691222
 20
-3.7405228193
 11
90.4397268489
 21
-4.0058311661
  0
LINE
  5
375
100
AcDbEntity
  8
RACCORDO
100
AcDbLine
 62
253
  6
CONTINUOUS
 10
90.4397269138
 20
-4.0058266383
 11
90.1910456407
 21
-4.0204736928
  0
LINE
  5
376
100
AcDbEntity
  8
RACCORDO
100
AcDbLine
 62
253
  6
CONTINUOUS
 10
92.1919655771
 20
-3.2482557771
 11
92.1910460632
 21
-3.2482701107
  0
LINE
  5
377
100
AcDbEntity
  8
RACCORDO
100
AcDbLine
 62
253
  6
CONTINUOUS
 10
92.2471063237
 20
-3.2481662104
 11
92.1919655771
 21
-3.2482557771
  0
LINE
  5
378
100
AcDbEntity
  8
RACCORDO
100
AcDbLine
 62
253
  6
CONTINUOUS
 10
92.3647488107
 20
-3.248121753
 11
92.2471063237
 21
-3.2481662104
  0
LWPOLYLINE
  5
379
100
AcDbEntity
  8
RACCORDO
100
AcDbPolyline
 62
253
  6
CONTINUOUS
 90
16
 70
0
 10
91.9498691218
 20
-3.7405228193
 10
91.9465162015
 20
-3.7202568213
 10
91.9434959353
 20
-3.7002074442
 10
91.9408403674
 20
-3.6805874068
 10
91.9385776727
 20
-3.6616048726
 10
91.9367318579
 20
-3.6434612414
 10
91.9353225065
 20
-3.6263490125
 10
91.9343645714
 20
-3.6104497423
 10
91.933868216
 20
-3.595932118
 10
91.9338387066
 20
-3.5829501678
 10
91.9342763562
 20
-3.5716416269
 10
91.9351765215
 20
-3.562126476
 10
91.936529652
 20
-3.5545056684
 10
91.9383213913
 20
-3.548860059
 10
91.9405327294
 20
-3.5452495461
 10
91.9431402048
 20
-3.5437124366
  0
LWPOLYLINE
  5
37A
100
AcDbEntity
  8
RACCORDO
100
AcDbPolyline
 62
253
  6
CONTINUOUS
 90
16
 70
0
 10
90.4397657775
 20
-4.0058244376
 10
90.4364875643
 20
-3.9856173627
 10
90.4336043883
 20
-3.9656236801
 10
90.4311466504
 20
-3.9460542078
 10
90.4291402653
 20
-3.9271152906
 10
90.4276063887
 20
-3.9090066248
 10
90.4265611941
 20
-3.8919191521
 10
90.426015702
 20
-3.8760330467
 10
90.4259756643
 20
-3.8615158152
 10
90.426441503
 20
-3.8485205305
 10
90.4274083062
 20
-3.8371842179
 10
90.4288658796
 20
-3.8276264099
 10
90.4307988543
 20
-3.8199478861
 10
90.4331868485
 20
-3.8142296108
 10
90.4360046826
 20
-3.8105318785
 10
90.4392226448
 20
-3.8088936791
  0
LINE
  5
37B
100
AcDbEntity
  8
RACCORDO
100
AcDbLine
 62
7
  6
CONTINUOUS
 10
92.1910457515
 20
3.2482650274
 11
92.1910457515
 21
-3.248266502
  0
LINE
  5
37C
100
AcDbEntity
  8
RACCORDO
100
AcDbLine
 62
253
  6
CONTINUOUS
 10
92.3647488441
 20
3.2481217532
 11
92.3647488441
 21
-3.2481217532
  0
LWPOLYLINE
  5
37D
100
AcDbEntity
  8
RACCORDO
100
AcDbPolyline
 62
253
  6
CONTINUOUS
 90
22
 70
0
 10
92.3647488441
 20
-3.2481217532
 10
92.3636018548
 20
-3.2814480658
 10
92.3603111855
 20
-3.3143295846
 10
92.3548772461
 20
-3.3467650635
 10
92.3472620454
 20
-3.3788785938
 10
92.3375045518
 20
-3.4105435257
 10
92.3257206772
 20
-3.4413826174
 10
92.3118884699
 20
-3.4713927352
 10
92.2960311107
 20
-3.5005747323
 10
92.2783321968
 20
-3.5285577225
 10
92.2587644592
 20
-3.5553340711
 10
92.2373564746
 20
-3.5809097178
 10
92.2143754735
 20
-3.6049347167
 10
92.1898013889
 20
-3.6273886536
 10
92.1636554571
 20
-3.6482911433
 10
92.1362665973
 20
-3.6673530105
 10
92.1076201555
 20
-3.6845516787
 10
92.0777316203
 20
-3.6999099772
 10
92.0469747565
 20
-3.7132076089
 10
92.0154741834
 20
-3.7243717222
 10
91.9831055899
 20
-3.7334765434
 10
91.9498691222
 20
-3.7405228193
  0
LINE
  5
37E
100
AcDbEntity
  8
RACCORDO
100
AcDbLine
 62
253
  6
CONTINUOUS
 10
92.1910457515
 20
0.0
 11
96.8486161258
 21
0.0
  0
LWPOLYLINE
  5
37F
100
AcDbEntity
  8
0
100
AcDbPolyline
 62
7
  6
CONTINUOUS
 90
25
 70
0
 10
93.3822235384
 20
43.1537004553
 10
93.3766971245
 20
43.2298700973
 10
93.3742004297
 20
43.2602815929
 10
93.3713802409
 20
43.2911118654
 10
93.3682455261
 20
43.3222667163
 10
93.3648350579
 20
43.3535520319
 10
93.3612202521
 20
43.3846803188
 10
93.3574505444
 20
43.4155253611
 10
93.3535531309
 20
43.4458518607
 10
93.3495761077
 20
43.4752214727
 10
93.345573388
 20
43.5034544454
 10
93.3415888585
 20
43.5303660002
 10
93.3376586952
 20
43.555565611
 10
93.3337879992
 20
43.5789050988
 10
93.3300092523
 20
43.600343703
 10
93.3263944264
 20
43.6197264742
 10
93.3229429675
 20
43.6370448184
 10
93.3196407851
 20
43.6522761666
 10
93.3165351628
 20
43.6653232808
 10
93.3136434892
 20
43.6762153863
 10
93.3109308272
 20
43.6850019434
 10
93.3083630443
 20
43.6916944082
 10
93.305922676
 20
43.6963631398
 10
93.3036102597
 20
43.6991035034
 10
93.3014182754
 20
43.7
  0
LWPOLYLINE
  5
380
100
AcDbEntity
  8
RACCORDO
100
AcDbPolyline
 62
253
  6
CONTINUOUS
 90
22
 70
0
 10
96.0706064148
 20
24.0670399872
 10
95.9902151091
 20
25.3268823717
 10
95.9025254995
 20
26.554036607
 10
95.8083493336
 20
27.7479294686
 10
95.7084974846
 20
28.9077525038
 10
95.6036981426
 20
30.0334259945
 10
95.4945754493
 20
31.1255897386
 10
95.3818171166
 20
32.1839024041
 10
95.2660656254
 20
33.2082460673
 10
95.147796341
 20
34.1996800941
 10
95.0277045056
 20
35.1573120853
 10
94.9063044235
 20
36.0819061663
 10
94.7836782084
 20
36.9770407387
 10
94.6603413958
 20
37.8425845748
 10
94.5367439786
 20
38.6787203122
 10
94.4127157593
 20
39.4894784797
 10
94.2886249498
 20
40.2749235214
 10
94.1648235029
 20
41.0351214082
 10
94.0409831575
 20
41.7740583692
 10
93.9171497222
 20
42.4930959616
 10
93.7937986983
 20
43.1910152153
 10
93.6711783749
 20
43.8679119199
  0
LWPOLYLINE
  5
381
100
AcDbEntity
  8
RACCORDO
100
AcDbPolyline
 62
253
  6
CONTINUOUS
 90
21
 70
0
 10
96.19570033
 20
24.0745373098
 10
96.1151429506
 20
25.3361465412
 10
96.0273965116
 20
26.5640516083
 10
95.9332084651
 20
27.75823713
 10
95.8333064035
 20
28.9187180813
 10
95.728395095
 20
30.0454759011
 10
95.6191587472
 20
31.1384577973
 10
95.5063023725
 20
32.1974355841
 10
95.3904387048
 20
33.2226797358
 10
95.2720720342
 20
34.2148931102
 10
95.1518881659
 20
35.1731915328
 10
95.0303779178
 20
36.0985309529
 10
94.9076521453
 20
36.9943721497
 10
94.7842274145
 20
37.8605559056
 10
94.6605314233
 20
38.6973210475
 10
94.5363975883
 20
39.5087137687
 10
94.4122095595
 20
40.2947618974
 10
94.288319315
 20
41.0555129377
 10
94.1643764131
 20
41.7950268558
 10
94.0404264951
 20
42.5146745271
 10
93.916974257
 20
43.2131480729
  0
LWPOLYLINE
  5
382
100
AcDbEntity
  8
0
100
AcDbPolyline
 62
7
  6
CONTINUOUS
 90
10
 70
0
 10
95.6859137813
 20
23.4290183628
 10
95.5491686004
 20
25.6046097548
 10
95.3829296051
 20
27.7810310475
 10
95.1874408513
 20
29.9567705709
 10
94.9631229325
 20
32.1289271461
 10
94.7100978989
 20
34.2973400629
 10
94.4280211549
 20
36.4645362982
 10
94.1167990969
 20
38.630232287
 10
93.7767572694
 20
40.7913871201
 10
93.4080477414
 20
42.9462954714
  0
LINE
  5
383
100
AcDbEntity
  8
RACCORDO
100
AcDbLine
 62
253
  6
CONTINUOUS
 10
96.1203825513
 20
23.1980409734
 11
96.0706064148
 21
24.0670399872
  0
LINE
  5
384
100
AcDbEntity
  8
RACCORDO
100
AcDbLine
 62
253
  6
CONTINUOUS
 10
96.2455509833
 20
23.2048645547
 11
96.19570033
 21
24.0745373098
  0
LINE
  5
385
100
AcDbEntity
  8
0
100
AcDbLine
 62
7
  6
CONTINUOUS
 10
95.7390037685
 20
22.4462330493
 11
95.6859137813
 21
23.4290183628
  0
LINE
  5
386
100
AcDbEntity
  8
RACCORDO
100
AcDbLine
 62
253
  6
CONTINUOUS
 10
95.7820829925
 20
44.0190538877
 11
95.7912711767
 21
43.8457940386
  0
LINE
  5
387
100
AcDbEntity
  8
RACCORDO
100
AcDbLine
 62
253
  6
CONTINUOUS
 10
96.1594580717
 20
22.4522761667
 11
96.1203825513
 21
23.1980409734
  0
LINE
  5
388
100
AcDbEntity
  8
RACCORDO
100
AcDbLine
 62
253
  6
CONTINUOUS
 10
96.2847298369
 20
22.4585708418
 11
96.2455509833
 21
23.2048645547
  0
LINE
  5
389
100
AcDbEntity
  8
0
100
AcDbLine
 62
7
  6
CONTINUOUS
 10
95.7687324963
 20
21.8561965495
 11
95.7390037685
 21
22.4462330493
  0
LWPOLYLINE
  5
38A
100
AcDbEntity
  8
RACCORDO
100
AcDbPolyline
 62
253
  6
CONTINUOUS
 90
10
 70
0
 10
96.7231334289
 20
0.0
 10
96.7161690781
 20
2.4953846186
 10
96.6952793725
 20
4.9909817849
 10
96.6604671938
 20
7.486645527
 10
96.6117342058
 20
9.9822879219
 10
96.5490838167
 20
12.4777047934
 10
96.4725244231
 20
14.9725756679
 10
96.3820639464
 20
17.4666962534
 10
96.2777065898
 20
19.9599784795
 10
96.1594580717
 20
22.4522761667
  0
LWPOLYLINE
  5
38B
100
AcDbEntity
  8
RACCORDO
100
AcDbPolyline
 62
253
  6
CONTINUOUS
 90
10
 70
0
 10
96.8486161259
 20
-0.0000000001
 10
96.8416422138
 20
2.4962017544
 10
96.8207464807
 20
4.9924755815
 10
96.7859273195
 20
7.4887456763
 10
96.7371803742
 20
9.9850634416
 10
96.6745054052
 20
12.4812257022
 10
96.5979142721
 20
14.9767737759
 10
96.5074185422
 20
17.4715024197
 10
96.4030214877
 20
19.9654607831
 10
96.2847298369
 20
22.4585708418
  0
LWPOLYLINE
  5
38C
100
AcDbEntity
  8
0
100
AcDbPolyline
 62
7
  6
CONTINUOUS
 90
10
 70
0
 10
96.3039492182
 20
0.0
 10
96.2973415898
 20
2.4290783901
 10
96.2775140128
 20
4.8582944373
 10
96.2444675437
 20
7.2875431982
 10
96.1982019353
 20
9.7167806763
 10
96.1387189106
 20
12.1458408494
 10
96.0660254814
 20
14.5744357633
 10
95.9801280333
 20
17.0023994979
 10
95.8810290071
 20
19.4296880746
 10
95.7687324963
 20
21.8561965495
  0
LWPOLYLINE
  5
38D
100
AcDbEntity
  8
0
100
AcDbPolyline
 62
7
  6
CONTINUOUS
 90
9
 70
0
 10
95.8810290071
 20
-19.4296880746
 10
95.9801280333
 20
-17.0023994978
 10
96.0660254814
 20
-14.5744357632
 10
96.1387189106
 20
-12.1458408494
 10
96.1982019353
 20
-9.7167806762
 10
96.2444675437
 20
-7.2875431982
 10
96.2775140128
 20
-4.8582944373
 10
96.2973415898
 20
-2.4290783901
 10
96.3039492182
 20
0.0
  0
LWPOLYLINE
  5
38E
100
AcDbEntity
  8
RACCORDO
100
AcDbPolyline
 62
253
  6
CONTINUOUS
 90
9
 70
0
 10
96.2777066031
 20
-19.959978183
 10
96.3820639599
 20
-17.4666959089
 10
96.4725244279
 20
-14.9725755241
 10
96.5490838017
 20
-12.477705332
 10
96.611734173
 20
-9.982289392
 10
96.6604671612
 20
-7.486647479
 10
96.695279353
 20
-4.9909835361
 10
96.7161690719
 20
-2.4953857191
 10
96.7231334289
 20
0.0
  0
LWPOLYLINE
  5
38F
100
AcDbEntity
  8
RACCORDO
100
AcDbPolyline
 62
253
  6
CONTINUOUS
 90
9
 70
0
 10
96.4030215009
 20
-19.9654604865
 10
96.5074185557
 20
-17.471502075
 10
96.5979142769
 20
-14.9767736321
 10
96.6745053902
 20
-12.481226241
 10
96.7371803414
 20
-9.9850649121
 10
96.7859272868
 20
-7.4887476288
 10
96.8207464612
 20
-4.9924773333
 10
96.8416422077
 20
-2.4962028554
 10
96.8486161259
 20
-0.0000000001
  0
LINE
  5
390
100
AcDbEntity
  8
0
100
AcDbLine
 62
7
  6
CONTINUOUS
 10
95.7503755891
 20
-22.2243107336
 11
95.8810290071
 21
-19.4296880746
  0
LINE
  5
391
100
AcDbEntity
  8
RACCORDO
100
AcDbLine
 62
253
  6
CONTINUOUS
 10
96.1480562447
 20
-22.6766735058
 11
96.2777066031
 21
-19.959978183
  0
LINE
  5
392
100
AcDbEntity
  8
RACCORDO
100
AcDbLine
 62
253
  6
CONTINUOUS
 10
96.2732834372
 20
-22.6832777838
 11
96.4030215009
 21
-19.9654604865
  0
LINE
  5
393
100
AcDbEntity
  8
RACCORDO
100
AcDbLine
 62
253
  6
CONTINUOUS
 10
95.7912711767
 20
-43.8457940382
 11
95.7820878276
 21
-44.0189621801
  0
LINE
  5
394
100
AcDbEntity
  8
0
100
AcDbLine
 62
7
  6
CONTINUOUS
 10
95.697009194
 20
-23.2302442153
 11
95.7503755891
 21
-22.2243107336
  0
LINE
  5
395
100
AcDbEntity
  8
0
100
AcDbLine
 62
7
  6
CONTINUOUS
 10
95.6859137813
 20
-23.4290183628
 11
95.697009194
 21
-23.2302442153
  0
LINE
  5
396
100
AcDbEntity
  8
RACCORDO
100
AcDbLine
 62
253
  6
CONTINUOUS
 10
96.1010055602
 20
-23.5459056182
 11
96.1480562447
 21
-22.6766735058
  0
LINE
  5
397
100
AcDbEntity
  8
RACCORDO
100
AcDbLine
 62
253
  6
CONTINUOUS
 10
96.2261367057
 20
-23.5530133811
 11
96.2732834372
 21
-22.6832777838
  0
LINE
  5
398
100
AcDbEntity
  8
RACCORDO
100
AcDbLine
 62
253
  6
CONTINUOUS
 10
96.0706064149
 20
-24.0670399873
 11
96.1010055602
 21
-23.5459056182
  0
LINE
  5
399
100
AcDbEntity
  8
RACCORDO
100
AcDbLine
 62
253
  6
CONTINUOUS
 10
96.1957003301
 20
-24.0745373098
 11
96.2261367057
 21
-23.5530133811
  0
LWPOLYLINE
  5
39A
100
AcDbEntity
  8
0
100
AcDbPolyline
 62
7
  6
CONTINUOUS
 90
7
 70
0
 10
93.3766971245
 20
-43.2298700973
 10
93.3822235384
 20
-43.1537004553
 10
93.3861931317
 20
-43.1090180667
 10
93.3907607537
 20
-43.0659447775
 10
93.3959260744
 20
-43.0244724963
 10
93.4016886139
 20
-42.9845925088
 10
93.4080477414
 20
-42.9462954714
  0
LWPOLYLINE
  5
39B
100
AcDbEntity
  8
RACCORDO
100
AcDbPolyline
 62
253
  6
CONTINUOUS
 90
4
 70
0
 10
92.3647488441
 20
3.2481217532
 10
92.1947153978
 20
3.2482415737
 10
92.1919652769
 20
3.2482557763
 10
92.1910457515
 20
3.2482701106
  0
LINE
  5
39C
100
AcDbEntity
  8
RACCORDO
100
AcDbLine
 62
253
  6
CONTINUOUS
 10
90.1910456708
 20
4.0204736912
 11
90.4397269046
 21
4.0058266349
  0
LINE
  5
39D
100
AcDbEntity
  8
RACCORDO
100
AcDbLine
 62
253
  6
CONTINUOUS
 10
90.4397268635
 20
4.005831165
 11
91.9498691222
 21
3.7405228193
  0
LINE
  5
39E
100
AcDbEntity
  8
RACCORDO
100
AcDbLine
 62
7
  6
CONTINUOUS
 10
90.3563161159
 20
3.823512337
 11
91.943141852
 21
3.5437121461
  0
LWPOLYLINE
  5
39F
100
AcDbEntity
  8
RACCORDO
100
AcDbPolyline
 62
253
  6
CONTINUOUS
 90
22
 70
0
 10
91.9498691222
 20
3.7405228193
 10
91.9831012265
 20
3.7334779615
 10
92.0154666493
 20
3.7243743555
 10
92.046965245
 20
3.713211254
 10
92.077721615
 20
3.699914476
 10
92.107610851
 20
3.6845568263
 10
92.1362583189
 20
3.6673584627
 10
92.1636483951
 20
3.648296428
 10
92.1897958691
 20
3.6273934261
 10
92.2143713566
 20
3.6049388771
 10
92.2373541534
 20
3.580911605
 10
92.2587637943
 20
3.5553335849
 10
92.2783309879
 20
3.5285596945
 10
92.2960247565
 20
3.5005888334
 10
92.3118747678
 20
3.4714238048
 10
92.3257025643
 20
3.4414259177
 10
92.3374876952
 20
3.4105910427
 10
92.3472493845
 20
3.3789255816
 10
92.3548686738
 20
3.3468070111
 10
92.3603055789
 20
3.3143620603
 10
92.3635991057
 20
3.2814665588
 10
92.3647488441
 20
3.2481217532
  0
LWPOLYLINE
  5
3A0
100
AcDbEntity
  8
RACCORDO
100
AcDbPolyline
 62
253
  6
CONTINUOUS
 90
43
 70
0
 10
90.3807620546
 20
42.666764168
 10
90.3783178626
 20
42.67998926
 10
90.3759569723
 20
42.6934867435
 10
90.3736795659
 20
42.70724452
 10
90.3714801645
 20
42.7212849225
 10
90.3693646418
 20
42.7355573217
 10
90.367350294
 20
42.7499396597
 10
90.3654412443
 20
42.7644069124
 10
90.3636339339
 20
42.778952607
 10
90.361934225
 20
42.7934844286
 10
90.3603437851
 20
42.8079817222
 10
90.3588615114
 20
42.8224334825
 10
90.3574891412
 20
42.8367648244
 10
90.3562270381
 20
42.8509580018
 10
90.3550753364
 20
42.8650015931
 10
90.3540354218
 20
42.8788339938
 10
90.3531078781
 20
42.8924277288
 10
90.3522925174
 20
42.9057862016
 10
90.3515895456
 20
42.9188965374
 10
90.3509968316
 20
42.9317555379
 10
90.3505168409
 20
42.9443430285
 10
90.3501566365
 20
42.9566229182
 10
90.3499207259
 20
42.9685655143
 10
90.3498043359
 20
42.9801900884
 10
90.3498006209
 20
42.9915330102
 10
90.3499073746
 20
43.0025766243
 10
90.3501262736
 20
43.0133268029
 10
90.3504563857
 20
43.0238455375
 10
90.350895861
 20
43.034143684
 10
90.3514461587
 20
43.0441826814
 10
90.3521113458
 20
43.0539442391
 10
90.3528913649
 20
43.0634258142
 10
90.3537859025
 20
43.0726024826
 10
90.3547986221
 20
43.0814274965
 10
90.3559301116
 20
43.0898942177
 10
90.3571794223
 20
43.0979910296
 10
90.358547892
 20
43.1056746225
 10
90.3600377595
 20
43.1129463234
 10
90.3616464579
 20
43.1197989392
 10
90.3633681127
 20
43.1261912023
 10
90.3652006749
 20
43.1321174285
 10
90.3671459277
 20
43.1375981479
 10
90.3692037574
 20
43.1426403415
  0
LINE
  5
3A1
100
AcDbEntity
  8
RACCORDO
100
AcDbLine
 62
253
  6
CONTINUOUS
 10
95.7461219067
 20
44.5256836327
 11
95.7536073144
 21
44.4381134444
  0
LINE
  5
3A2
100
AcDbEntity
  8
RACCORDO
100
AcDbLine
 62
253
  6
CONTINUOUS
 10
95.7536073144
 20
44.4381134444
 11
95.7610556223
 21
44.3423925188
  0
LINE
  5
3A3
100
AcDbEntity
  8
RACCORDO
100
AcDbLine
 62
253
  6
CONTINUOUS
 10
95.7610556223
 20
44.3423925188
 11
95.7683597441
 21
44.2397271833
  0
LINE
  5
3A4
100
AcDbEntity
  8
RACCORDO
100
AcDbLine
 62
253
  6
CONTINUOUS
 10
95.7683597441
 20
44.2397271833
 11
95.7753866229
 21
44.1314774343
  0
LINE
  5
3A5
100
AcDbEntity
  8
RACCORDO
100
AcDbLine
 62
253
  6
CONTINUOUS
 10
95.7753866229
 20
44.1314774343
 11
95.7820829925
 21
44.0190538877
  0
LWPOLYLINE
  5
3A6
100
AcDbEntity
  8
RACCORDO
100
AcDbPolyline
 62
253
  6
CONTINUOUS
 90
12
 70
0
 10
98.2352558946
 20
22.6080915512
 10
98.4121034247
 20
18.7693858765
 10
98.5531938068
 20
15.0170795117
 10
98.6629340489
 20
11.2637237866
 10
98.7413274319
 20
7.509584833
 10
98.7883706776
 20
3.754924456
 10
98.8040539475
 20
0.0000001319
 10
98.7883706825
 20
-3.7549241486
 10
98.7413274417
 20
-7.5095844529
 10
98.6629340609
 20
-11.2637233922
 10
98.5531938175
 20
-15.0170791905
 10
98.4121034314
 20
-18.7693856868
  0
LINE
  5
3A7
100
AcDbEntity
  8
RACCORDO
100
AcDbLine
 62
253
  6
CONTINUOUS
 10
98.4121034314
 20
-18.7693856868
 11
98.2352558946
 21
-22.6080915512
  0
LWPOLYLINE
  5
3A8
100
AcDbEntity
  8
RACCORDO
100
AcDbPolyline
 62
253
  6
CONTINUOUS
 90
10
 70
0
 10
98.2352558946
 20
-22.6080915512
 10
98.0987293557
 20
-24.9810868824
 10
97.9284039732
 20
-27.3519082004
 10
97.7242801721
 20
-29.7200634304
 10
97.4863036736
 20
-32.0850471668
 10
97.2145296093
 20
-34.4463804566
 10
96.9091225065
 20
-36.8036105772
 10
96.5701374766
 20
-39.1562580461
 10
96.1975202297
 20
-41.5038168431
 10
95.7912711783
 20
-43.845794038
  0
LINE
  5
3A9
100
AcDbEntity
  8
RACCORDO
100
AcDbLine
 62
253
  6
CONTINUOUS
 10
95.7820878276
 20
-44.0189621801
 11
95.7754028493
 21
-44.1311862319
  0
LINE
  5
3AA
100
AcDbEntity
  8
RACCORDO
100
AcDbLine
 62
253
  6
CONTINUOUS
 10
95.7754028493
 20
-44.1311862319
 11
95.7683842853
 21
-44.2393619303
  0
LINE
  5
3AB
100
AcDbEntity
  8
RACCORDO
100
AcDbLine
 62
7
  6
CONTINUOUS
 10
98.4840125069
 20
-26.0452478368
 11
98.4845208253
 21
-26.0380796398
  0
LINE
  5
3AC
100
AcDbEntity
  8
RACCORDO
100
AcDbLine
 62
253
  6
CONTINUOUS
 10
95.7683842853
 20
-44.2393619303
 11
95.7610797158
 21
-44.3420846172
  0
LINE
  5
3AD
100
AcDbEntity
  8
RACCORDO
100
AcDbLine
 62
253
  6
CONTINUOUS
 10
95.7610797158
 20
-44.3420846172
 11
95.7536331227
 21
-44.4378314313
  0
LWPOLYLINE
  5
3AE
100
AcDbEntity
  8
RACCORDO
100
AcDbPolyline
 62
253
  6
CONTINUOUS
 90
16
 70
0
 10
95.7536331227
 20
-44.4378314313
 10
95.7461479651
 20
-44.525429701
 10
95.742404935
 20
-44.5658228843
 10
95.7386968611
 20
-44.6037740409
 10
95.7350299232
 20
-44.639161417
 10
95.7314030438
 20
-44.671875489
 10
95.7278434678
 20
-44.7018184359
 10
95.724360882
 20
-44.7288964631
 10
95.7209576802
 20
-44.7530212018
 10
95.7176517619
 20
-44.774115063
 10
95.7144569635
 20
-44.7921085058
 10
95.7113789699
 20
-44.8069486365
 10
95.7084247454
 20
-44.8185937441
 10
95.705604839
 20
-44.827004556
 10
95.7029338574
 20
-44.8321490217
 10
95.7004260171
 20
-44.8340076387
  0
LWPOLYLINE
  5
3AF
100
AcDbEntity
  8
RACCORDO
100
AcDbPolyline
 62
253
  6
CONTINUOUS
 90
9
 70
0
 10
93.7825329478
 20
-43.9654851844
 10
93.7836663654
 20
-43.957094342
 10
93.7848421622
 20
-43.9487161417
 10
93.7860603402
 20
-43.9403505772
 10
93.7873198196
 20
-43.9319954389
 10
93.7886216839
 20
-43.9236529232
 10
93.789969181
 20
-43.9153296312
 10
93.7913633958
 20
-43.9070277583
 10
93.7928032494
 20
-43.8987450947
  0
LINE
  5
3B0
100
AcDbEntity
  8
RACCORDO
100
AcDbLine
 62
253
  6
CONTINUOUS
 10
93.7754506383
 20
-44.014038476
 11
93.7825329309
 21
-43.9654851813
  0
LINE
  5
3B1
100
AcDbEntity
  8
RACCORDO
100
AcDbLine
 62
253
  6
CONTINUOUS
 10
93.7672243294
 20
-44.0684454695
 11
93.7754506383
 21
-44.014038476
  0
LINE
  5
3B2
100
AcDbEntity
  8
RACCORDO
100
AcDbLine
 62
253
  6
CONTINUOUS
 10
93.7575750587
 20
-44.1301177883
 11
93.7672243294
 21
-44.0684454695
  0
LINE
  5
3B3
100
AcDbEntity
  8
RACCORDO
100
AcDbLine
 62
253
  6
CONTINUOUS
 10
93.6438535208
 20
-44.024787126
 11
93.6574963149
 21
-43.9399936075
  0
LINE
  5
3B4
100
AcDbEntity
  8
RACCORDO
100
AcDbLine
 62
253
  6
CONTINUOUS
 10
93.7463236459
 20
-44.1995362758
 11
93.7575750587
 21
-44.1301177883
  0
LWPOLYLINE
  5
3B5
100
AcDbEntity
  8
RACCORDO
100
AcDbPolyline
 62
253
  6
CONTINUOUS
 90
9
 70
0
 10
93.6574963149
 20
-43.9399936075
 10
93.6589995209
 20
-43.9309947035
 10
93.6605597693
 20
-43.9219917827
 10
93.6621751916
 20
-43.9129822325
 10
93.6638478564
 20
-43.9039675548
 10
93.665583794
 20
-43.8949532405
 10
93.6673851027
 20
-43.8859406371
 10
93.6692499247
 20
-43.8769270745
 10
93.6711783749
 20
-43.8679119199
  0
LINE
  5
3B6
100
AcDbEntity
  8
RACCORDO
100
AcDbLine
 62
253
  6
CONTINUOUS
 10
93.6308851729
 20
-44.1031762673
 11
93.6438535208
 21
-44.024787126
  0
LINE
  5
3B7
100
AcDbEntity
  8
RACCORDO
100
AcDbLine
 62
253
  6
CONTINUOUS
 10
93.7367782764
 20
-44.2566192731
 11
93.7463236459
 21
-44.1995362758
  0
LWPOLYLINE
  5
3B8
100
AcDbEntity
  8
0
100
AcDbPolyline
 62
7
  6
CONTINUOUS
 90
10
 70
0
 10
93.4080477414
 20
-42.9462954714
 10
93.7767572694
 20
-40.7913871201
 10
94.1167990969
 20
-38.630232287
 10
94.4280211549
 20
-36.4645362981
 10
94.710097899
 20
-34.2973400628
 10
94.9631229326
 20
-32.128927146
 10
95.1874408513
 20
-29.9567705708
 10
95.3829296051
 20
-27.7810310474
 10
95.5491686005
 20
-25.6046097547
 10
95.6859137813
 20
-23.4290183628
  0
LINE
  5
3B9
100
AcDbEntity
  8
RACCORDO
100
AcDbLine
 62
253
  6
CONTINUOUS
 10
93.6179559882
 20
-44.1791492463
 11
93.6308851729
 21
-44.1031762673
  0
LINE
  5
3BA
100
AcDbEntity
  8
RACCORDO
100
AcDbLine
 62
253
  6
CONTINUOUS
 10
93.7263044652
 20
-44.3175467518
 11
93.7367782764
 21
-44.2566192731
  0
LINE
  5
3BB
100
AcDbEntity
  8
RACCORDO
100
AcDbLine
 62
253
  6
CONTINUOUS
 10
93.6030547351
 20
-44.2640816451
 11
93.6179559882
 21
-44.1791492463
  0
LWPOLYLINE
  5
3BC
100
AcDbEntity
  8
RACCORDO
100
AcDbPolyline
 62
253
  6
CONTINUOUS
 90
3
 70
0
 10
93.7111744403
 20
-44.4024837475
 10
93.7150494799
 20
-44.3810808494
 10
93.7263044652
 20
-44.3175467518
  0
LWPOLYLINE
  5
3BD
100
AcDbEntity
  8
RACCORDO
100
AcDbPolyline
 62
253
  6
CONTINUOUS
 90
22
 70
0
 10
93.6711783749
 20
-43.8679119199
 10
93.7937690047
 20
-43.1911811264
 10
93.9170929913
 20
-42.4934210486
 10
94.0409020293
 20
-41.7745357749
 10
94.1647206147
 20
-41.0357440068
 10
94.2885028912
 20
-40.2756841956
 10
94.4125770436
 20
-39.4903704092
 10
94.5365910959
 20
-38.6797365491
 10
94.6601768087
 20
-37.8437180365
 10
94.7835043173
 20
-36.9782846391
 10
94.9061232368
 20
-36.0832563251
 10
95.0275183936
 20
-35.1587614571
 10
95.1476086263
 20
-34.2012136602
 10
95.2658781341
 20
-33.2098596395
 10
95.3816328075
 20
-32.185580599
 10
95.494401303
 20
-31.1272758735
 10
95.6035397891
 20
-30.0350659671
 10
95.7083597306
 20
-28.9092890539
 10
95.8082399026
 20
-27.7492551822
 10
95.902450967
 20
-26.5550273644
 10
95.99017797
 20
-25.327431014
 10
96.0706064149
 20
-24.0670399873
  0
LWPOLYLINE
  5
3BE
100
AcDbEntity
  8
RACCORDO
100
AcDbPolyline
 62
253
  6
CONTINUOUS
 90
22
 70
0
 10
93.7928032494
 20
-43.8987450947
 10
93.9169445151
 20
-43.2133142947
 10
94.0403696999
 20
-42.5150000101
 10
94.1642952224
 20
-41.7955046244
 10
94.2882163501
 20
-41.0561359702
 10
94.412087397
 20
-40.2955231845
 10
94.5362587644
 20
-39.5096063734
 10
94.6603784241
 20
-38.6983380162
 10
94.7840626851
 20
-37.8616902649
 10
94.9074781154
 20
-36.9956169941
 10
95.0301966038
 20
-36.0998821266
 10
95.1517019141
 20
-35.1746420917
 10
95.2718841552
 20
-34.2164278527
 10
95.3902510159
 20
-33.2242945161
 10
95.5061178675
 20
-32.1991151328
 10
95.6189844463
 20
-31.1401452113
 10
95.7282366294
 20
-30.0471168945
 10
95.8331685563
 20
-28.9202555141
 10
95.9330989389
 20
-27.7595638491
 10
96.0273218724
 20
-26.5650436343
 10
96.115105713
 20
-25.3366963675
 10
96.1957003301
 20
-24.0745373098
  0
LWPOLYLINE
  5
3BF
100
AcDbEntity
  8
RACCORDO
100
AcDbPolyline
 62
253
  6
CONTINUOUS
 90
3
 70
0
 10
93.5901917559
 20
-44.3350050004
 10
93.5934048954
 20
-44.3175176236
 10
93.6030547351
 20
-44.2640816451
  0
LWPOLYLINE
  5
3C0
100
AcDbEntity
  8
RACCORDO
100
AcDbPolyline
 62
253
  6
CONTINUOUS
 90
10
 70
0
 10
93.916974257
 20
43.2131480729
 10
93.7928043696
 20
43.8987384189
 10
93.7913653059
 20
43.9070162822
 10
93.7899715507
 20
43.9153152303
 10
93.7886240856
 20
43.9236379566
 10
93.7873219222
 20
43.9319817819
 10
93.7860621031
 20
43.9403386536
 10
93.7848436417
 20
43.9487058916
 10
93.7836675209
 20
43.9570861889
 10
93.7825337387
 20
43.9654795523
  0
LINE
  5
3C1
100
AcDbEntity
  8
RACCORDO
100
AcDbLine
 62
253
  6
CONTINUOUS
 10
93.6042110484
 20
44.2575872748
 11
93.5920501821
 21
44.3248988734
  0
LINE
  5
3C2
100
AcDbEntity
  8
RACCORDO
100
AcDbLine
 62
253
  6
CONTINUOUS
 10
93.7239953297
 20
44.3307592666
 11
93.7133333172
 21
44.39059582
  0
LINE
  5
3C3
100
AcDbEntity
  8
RACCORDO
100
AcDbLine
 62
253
  6
CONTINUOUS
 10
93.6180279099
 20
44.1787305334
 11
93.6042110484
 21
44.2575872748
  0
LINE
  5
3C4
100
AcDbEntity
  8
RACCORDO
100
AcDbLine
 62
253
  6
CONTINUOUS
 10
93.733941622
 20
44.2732976059
 11
93.7239953297
 21
44.3307592666
  0
LINE
  5
3C5
100
AcDbEntity
  8
RACCORDO
100
AcDbLine
 62
253
  6
CONTINUOUS
 10
93.6302301297
 20
44.1070837863
 11
93.6180279099
 21
44.1787305334
  0
LWPOLYLINE
  5
3C6
100
AcDbEntity
  8
0
100
AcDbPolyline
 62
7
  6
CONTINUOUS
 90
6
 70
0
 10
93.4080477414
 20
42.9462954714
 10
93.4016886139
 20
42.9845925088
 10
93.3959260744
 20
43.0244724963
 10
93.3907607537
 20
43.0659447775
 10
93.3861931317
 20
43.1090180667
 10
93.3822235384
 20
43.1537004553
  0
LINE
  5
3C7
100
AcDbEntity
  8
RACCORDO
100
AcDbLine
 62
253
  6
CONTINUOUS
 10
93.7460279411
 20
44.2013324769
 11
93.733941622
 21
44.2732976059
  0
LINE
  5
3C8
100
AcDbEntity
  8
RACCORDO
100
AcDbLine
 62
253
  6
CONTINUOUS
 10
93.644525111
 20
44.0206699454
 11
93.6302301297
 21
44.1070837863
  0
LINE
  5
3C9
100
AcDbEntity
  8
RACCORDO
100
AcDbLine
 62
253
  6
CONTINUOUS
 10
93.7567062968
 20
44.1355686443
 11
93.7460279411
 21
44.2013324769
  0
LINE
  5
3CA
100
AcDbEntity
  8
RACCORDO
100
AcDbLine
 62
253
  6
CONTINUOUS
 10
93.6574972275
 20
43.9399882328
 11
93.644525111
 21
44.0206699454
  0
LINE
  5
3CB
100
AcDbEntity
  8
RACCORDO
100
AcDbLine
 62
253
  6
CONTINUOUS
 10
93.7659859154
 20
44.0764746596
 11
93.7567062968
 21
44.1355686443
  0
LINE
  5
3CC
100
AcDbEntity
  8
RACCORDO
100
AcDbLine
 62
253
  6
CONTINUOUS
 10
93.7739923224
 20
44.0238206112
 11
93.7659859154
 21
44.0764746596
  0
LWPOLYLINE
  5
3CD
100
AcDbEntity
  8
RACCORDO
100
AcDbPolyline
 62
253
  6
CONTINUOUS
 90
3
 70
0
 10
93.7825337489
 20
43.9654795542
 10
93.7809439763
 20
43.9765523785
 10
93.7739923224
 20
44.0238206112
  0
LINE
  5
3CE
100
AcDbEntity
  8
RACCORDO
100
AcDbLine
 62
253
  6
CONTINUOUS
 10
93.7035119441
 20
-44.4439656537
 11
93.7111744403
 21
-44.4024837475
  0
LINE
  5
3CF
100
AcDbEntity
  8
RACCORDO
100
AcDbLine
 62
253
  6
CONTINUOUS
 10
93.58091419
 20
-44.3844594347
 11
93.5901917559
 21
-44.3350050004
  0
LINE
  5
3D0
100
AcDbEntity
  8
RACCORDO
100
AcDbLine
 62
253
  6
CONTINUOUS
 10
93.6962094745
 20
-44.4824091942
 11
93.7035119441
 21
-44.4439656537
  0
LINE
  5
3D1
100
AcDbEntity
  8
RACCORDO
100
AcDbLine
 62
253
  6
CONTINUOUS
 10
93.5755463912
 20
-44.4121975845
 11
93.58091419
 21
-44.3844594347
  0
LINE
  5
3D2
100
AcDbEntity
  8
RACCORDO
100
AcDbLine
 62
253
  6
CONTINUOUS
 10
93.6897439294
 20
-44.5153148257
 11
93.6962094745
 21
-44.4824091942
  0
LINE
  5
3D3
100
AcDbEntity
  8
RACCORDO
100
AcDbLine
 62
253
  6
CONTINUOUS
 10
93.5708538039
 20
-44.4357746656
 11
93.5755463912
 21
-44.4121975845
  0
LINE
  5
3D4
100
AcDbEntity
  8
RACCORDO
100
AcDbLine
 62
253
  6
CONTINUOUS
 10
93.5667776474
 20
-44.4555829527
 11
93.5708538039
 21
-44.4357746656
  0
LWPOLYLINE
  5
3D5
100
AcDbEntity
  8
RACCORDO
100
AcDbPolyline
 62
253
  6
CONTINUOUS
 90
6
 70
0
 10
93.5573940763
 20
-44.4979350285
 10
93.558699075
 20
-44.4924026799
 10
93.5600990763
 20
-44.4863190647
 10
93.561600938
 20
-44.4796295585
 10
93.5632102481
 20
-44.4723074281
 10
93.5667776474
 20
-44.4555829527
  0
LWPOLYLINE
  5
3D6
100
AcDbEntity
  8
RACCORDO
100
AcDbPolyline
 62
253
  6
CONTINUOUS
 90
18
 70
0
 10
93.5616072921
 20
44.4796063124
 10
93.5600203349
 20
44.4866596776
 10
93.5585462922
 20
44.4930562147
 10
93.5571783813
 20
44.4988362591
 10
93.5559107121
 20
44.5040280007
 10
93.5547346381
 20
44.5086909992
 10
93.5536441373
 20
44.5128563612
 10
93.5526340309
 20
44.5165533148
 10
93.5516982422
 20
44.5198315421
 10
93.5508320188
 20
44.522717674
 10
93.5500305583
 20
44.5252364028
 10
93.5492888322
 20
44.5274284517
 10
93.5486035379
 20
44.5293164584
 10
93.5479699086
 20
44.530921032
 10
93.5473818617
 20
44.5322737251
 10
93.5468354745
 20
44.533395198
 10
93.5463283874
 20
44.5342984084
 10
93.5458575296
 20
44.5349997729
  0
LINE
  5
3D7
100
AcDbEntity
  8
RACCORDO
100
AcDbLine
 62
253
  6
CONTINUOUS
 10
93.5651629621
 20
44.4632300727
 11
93.5616072921
 21
44.4796063124
  0
LWPOLYLINE
  5
3D8
100
AcDbEntity
  8
RACCORDO
100
AcDbPolyline
 62
253
  6
CONTINUOUS
 90
22
 70
0
 10
93.6822041575
 20
44.5519853646
 10
93.6796297945
 20
44.563976769
 10
93.6772364747
 20
44.5748104484
 10
93.6750134803
 20
44.5845938742
 10
93.6729517118
 20
44.5933813983
 10
93.6710383777
 20
44.6012371663
 10
93.6692607466
 20
44.6082642618
 10
93.6676110497
 20
44.614509894
 10
93.666080876
 20
44.6200140382
 10
93.6646597271
 20
44.6248517129
 10
93.6633381301
 20
44.6290695228
 10
93.6621102007
 20
44.6327031492
 10
93.6609723907
 20
44.6358027649
 10
93.6599177244
 20
44.6384104879
 10
93.6589375465
 20
44.6405675711
 10
93.65802659
 20
44.6423185499
 10
93.6571786169
 20
44.6436984921
 10
93.656387614
 20
44.6447375858
 10
93.6556498798
 20
44.6454664947
 10
93.6549610323
 20
44.6459121829
 10
93.654315682
 20
44.6460996591
 10
93.6537091013
 20
44.6460540623
  0
LWPOLYLINE
  5
3D9
100
AcDbEntity
  8
RACCORDO
100
AcDbPolyline
 62
253
  6
CONTINUOUS
 90
9
 70
0
 10
93.6711783749
 20
43.8679119199
 10
93.6692513796
 20
43.8769197824
 10
93.6673875749
 20
43.8859281508
 10
93.6655868507
 20
43.8949376304
 10
93.6638509848
 20
43.9039511506
 10
93.6621779689
 20
43.9129670453
 10
93.6605620308
 20
43.9219789427
 10
93.6590011882
 20
43.9309850439
 10
93.6574972275
 20
43.9399882328
  0
LINE
  5
3DA
100
AcDbEntity
  8
RACCORDO
100
AcDbLine
 62
253
  6
CONTINUOUS
 10
93.5692852398
 20
44.443474165
 11
93.5651629621
 21
44.4632300727
  0
LINE
  5
3DB
100
AcDbEntity
  8
RACCORDO
100
AcDbLine
 62
253
  6
CONTINUOUS
 10
93.6879840694
 20
44.5240633822
 11
93.6822041575
 21
44.5519853646
  0
LINE
  5
3DC
100
AcDbEntity
  8
RACCORDO
100
AcDbLine
 62
253
  6
CONTINUOUS
 10
93.5740807971
 20
44.4196407761
 11
93.5692852398
 21
44.443474165
  0
LINE
  5
3DD
100
AcDbEntity
  8
RACCORDO
100
AcDbLine
 62
253
  6
CONTINUOUS
 10
93.6945822718
 20
44.4907829312
 11
93.6879840694
 21
44.5240633822
  0
LINE
  5
3DE
100
AcDbEntity
  8
RACCORDO
100
AcDbLine
 62
253
  6
CONTINUOUS
 10
93.5795657091
 20
44.3914855513
 11
93.5740807971
 21
44.4196407761
  0
LINE
  5
3DF
100
AcDbEntity
  8
RACCORDO
100
AcDbLine
 62
253
  6
CONTINUOUS
 10
93.7019206688
 20
44.452456026
 11
93.6945822718
 21
44.4907829312
  0
LWPOLYLINE
  5
3E0
100
AcDbEntity
  8
RACCORDO
100
AcDbPolyline
 62
253
  6
CONTINUOUS
 90
3
 70
0
 10
93.5920501821
 20
44.3248988734
 10
93.5888290429
 20
44.3423652585
 10
93.5795657091
 20
44.3914855513
  0
LWPOLYLINE
  5
3E1
100
AcDbEntity
  8
RACCORDO
100
AcDbPolyline
 62
253
  6
CONTINUOUS
 90
3
 70
0
 10
93.7133333172
 20
44.39059582
 10
93.7095530073
 20
44.4113334245
 10
93.7019206688
 20
44.452456026
  0
LWPOLYLINE
  5
3E2
100
AcDbEntity
  8
RACCORDO
100
AcDbPolyline
 62
253
  6
CONTINUOUS
 90
10
 70
0
 10
95.7912711782
 20
43.8457940385
 10
96.1975201737
 20
41.5038172084
 10
96.5701373864
 20
39.1562586394
 10
96.9091224039
 20
36.8036112606
 10
97.2145295263
 20
34.446381028
 10
97.4863036319
 20
32.0850474864
 10
97.7242801623
 20
29.7200635476
 10
97.928403976
 20
27.3519082284
 10
98.0987293617
 20
24.9810868712
 10
98.2352558946
 20
22.6080915512
  0
LWPOLYLINE
  5
3E3
100
AcDbEntity
  8
RACCORDO
100
AcDbPolyline
 62
253
  6
CONTINUOUS
 90
10
 70
0
 10
90.4295210316
 20
22.788569243
 10
90.9997032424
 20
22.8885822128
 10
91.5749694273
 20
22.9816085321
 10
92.1547483891
 20
23.0675587019
 10
92.7388524607
 20
23.1463925424
 10
93.326336553
 20
23.2179626674
 10
93.9154760098
 20
23.2820618641
 10
94.5053048313
 20
23.3386107138
 10
95.0956377613
 20
23.3876102017
 10
95.6859137813
 20
23.4290183628
  0
LWPOLYLINE
  5
3E4
100
AcDbEntity
  8
RACCORDO
100
AcDbPolyline
 62
253
  6
CONTINUOUS
 90
10
 70
0
 10
90.4303403818
 20
21.9022509012
 10
91.0066512354
 20
21.9989489077
 10
91.5878127374
 20
22.0888531913
 10
92.1732667887
 20
22.1718801537
 10
92.7628215533
 20
22.2479912859
 10
93.355563556
 20
22.3170504026
 10
93.9498372416
 20
22.3788670196
 10
94.5447111188
 20
22.4333674015
 10
95.139998142
 20
22.4805511742
 10
95.7351534505
 20
22.5203789263
  0
LWPOLYLINE
  5
3E5
100
AcDbEntity
  8
RACCORDO
100
AcDbPolyline
 62
253
  6
CONTINUOUS
 90
10
 70
0
 10
90.4309045762
 20
21.2555803531
 10
91.0114313832
 20
21.3497043641
 10
91.5966375271
 20
21.4371806524
 10
92.1859748783
 20
21.5179297484
 10
92.7792490874
 20
21.5919142819
 10
93.3755699486
 20
21.6590059187
 10
93.9733321437
 20
21.719025962
 10
94.5716294302
 20
21.771904694
 10
95.1702738361
 20
21.8176407642
 10
95.7687324963
 20
21.8561965495
  0
LINE
  5
3E6
100
AcDbEntity
  8
RACCORDO
100
AcDbLine
 62
253
  6
CONTINUOUS
 10
96.0706064181
 20
24.0670399874
 11
96.1957003299
 21
24.0745373098
  0
LINE
  5
3E7
100
AcDbEntity
  8
RACCORDO
100
AcDbLine
 62
253
  6
CONTINUOUS
 10
96.4938296331
 20
22.5203789087
 11
96.1568885587
 21
22.503384717
  0
LINE
  5
3E8
100
AcDbEntity
  8
RACCORDO
100
AcDbLine
 62
253
  6
CONTINUOUS
 10
98.6910457515
 20
22.6310194482
 11
98.2352558946
 21
22.6080915512
  0
LINE
  5
3E9
100
AcDbEntity
  8
RACCORDO
100
AcDbLine
 62
253
  6
CONTINUOUS
 10
98.695457646
 20
22.5432326076
 11
98.2396629013
 21
22.5203789087
  0
LINE
  5
3EA
100
AcDbEntity
  8
RACCORDO
100
AcDbLine
 62
253
  6
CONTINUOUS
 10
96.1594580718
 20
22.4522761667
 11
96.2847298369
 21
22.4585708418
  0
LINE
  5
3EB
100
AcDbEntity
  8
RACCORDO
100
AcDbLine
 62
253
  6
CONTINUOUS
 10
98.2396629014
 20
22.5203789087
 11
96.4938296331
 21
22.5203789087
  0
LWPOLYLINE
  5
3EC
100
AcDbEntity
  8
RACCORDO
100
AcDbPolyline
 62
253
  6
CONTINUOUS
 90
4
 70
0
 10
90.1910457515
 20
21.2558023096
 10
90.1922942487
 20
21.2557816619
 10
90.1960293488
 20
21.2557611861
 10
90.4309045762
 20
21.2555803531
  0
LWPOLYLINE
  5
3ED
100
AcDbEntity
  8
RACCORDO
100
AcDbPolyline
 62
253
  6
CONTINUOUS
 90
4
 70
0
 10
90.1910457515
 20
21.902483891
 10
90.1922907515
 20
21.9024622387
 10
90.1960154181
 20
21.9024407662
 10
90.4303403818
 20
21.9022509012
  0
LWPOLYLINE
  5
3EE
100
AcDbEntity
  8
RACCORDO
100
AcDbPolyline
 62
253
  6
CONTINUOUS
 90
4
 70
0
 10
90.1910457727
 20
22.7888150052
 10
90.1922856992
 20
22.7887921993
 10
90.1959952312
 20
22.7887695818
 10
90.4295210341
 20
22.7885692431
  0
LWPOLYLINE
  5
3EF
100
AcDbEntity
  8
RACCORDO
100
AcDbPolyline
 62
253
  6
CONTINUOUS
 90
16
 70
0
 10
93.5458575296
 20
-44.5349997729
 10
93.5463067432
 20
-44.5343332998
 10
93.5467869638
 20
-44.5334875625
 10
93.5473005473
 20
-44.5324499617
 10
93.5478487092
 20
-44.5312113789
 10
93.5484349755
 20
-44.5297555534
 10
93.549065854
 20
-44.5280555016
 10
93.5497456836
 20
-44.5260942464
 10
93.5504766502
 20
-44.5238538013
 10
93.5512631594
 20
-44.5212996283
 10
93.5521089796
 20
-44.5184119704
 10
93.5530180946
 20
-44.5151689607
 10
93.5539962757
 20
-44.5115272856
 10
93.5550484172
 20
-44.5074607863
 10
93.5561789631
 20
-44.5029453626
 10
93.5573940763
 20
-44.4979350285
  0
LWPOLYLINE
  5
3F0
100
AcDbEntity
  8
RACCORDO
100
AcDbPolyline
 62
253
  6
CONTINUOUS
 90
13
 70
0
 10
93.5458575296
 20
44.5349997729
 10
93.5455239196
 20
44.5354789073
 10
93.5452319858
 20
44.5359923171
 10
93.5449823931
 20
44.5365364663
 10
93.5447744
 20
44.5371022875
 10
93.5446101007
 20
44.5376916615
 10
93.5444945147
 20
44.5383169387
 10
93.5444281056
 20
44.5389726404
 10
93.544412032
 20
44.539655641
 10
93.5444525621
 20
44.5403807313
 10
93.5445524765
 20
44.5411491791
 10
93.5447109601
 20
44.54194931
 10
93.5449290194
 20
44.5427758029
  0
LINE
  5
3F1
100
AcDbEntity
  8
RACCORDO
100
AcDbLine
 62
7
  6
CONTINUOUS
 10
90.3914206366
 20
-43.1736817129
 11
90.3919197887
 21
-43.1733120315
  0
LINE
  5
3F2
100
AcDbEntity
  8
RACCORDO
100
AcDbLine
 62
7
  6
CONTINUOUS
 10
90.3924426362
 20
43.1729248008
 11
90.3914206981
 21
43.1736819923
  0
LWPOLYLINE
  5
3F3
100
AcDbEntity
  8
RACCORDO
100
AcDbPolyline
 62
253
  6
CONTINUOUS
 90
15
 70
0
 10
95.7004260171
 20
44.8340076387
 10
95.7029343904
 20
44.8321493719
 10
95.7056038106
 20
44.8270088139
 10
95.7084204465
 20
44.8186092666
 10
95.7113689599
 20
44.8069910442
 10
95.7144406248
 20
44.7921945993
 10
95.7176316677
 20
44.7742449729
 10
95.7209369335
 20
44.7531759451
 10
95.7243403036
 20
44.7290606579
 10
95.7278225155
 20
44.701990962
 10
95.7313809844
 20
44.6720637266
 10
95.7350065421
 20
44.6393668152
 10
95.7386723665
 20
44.6039963408
 10
95.7423795591
 20
44.5660611712
 10
95.7461219067
 20
44.5256836327
  0
LINE
  5
3F4
100
AcDbEntity
  8
RACCORDO
100
AcDbLine
 62
7
  6
CONTINUOUS
 10
90.3911658052
 20
-43.1737894762
 11
90.3914206366
 21
-43.1736817129
  0
LWPOLYLINE
  5
3F5
100
AcDbEntity
  8
0
100
AcDbPolyline
 62
7
  6
CONTINUOUS
 90
24
 70
0
 10
93.3014182754
 20
-43.7
 10
93.3036102597
 20
-43.6991035034
 10
93.305922676
 20
-43.6963631398
 10
93.3083630443
 20
-43.6916944082
 10
93.3109308272
 20
-43.6850019434
 10
93.3136434892
 20
-43.6762153863
 10
93.3165351628
 20
-43.6653232808
 10
93.3196407851
 20
-43.6522761666
 10
93.3229429675
 20
-43.6370448184
 10
93.3263944264
 20
-43.6197264742
 10
93.3300092523
 20
-43.600343703
 10
93.3337879992
 20
-43.5789050988
 10
93.3376586952
 20
-43.555565611
 10
93.3415888585
 20
-43.5303660002
 10
93.345573388
 20
-43.5034544454
 10
93.3495761077
 20
-43.4752214727
 10
93.3535531309
 20
-43.4458518607
 10
93.3574505444
 20
-43.4155253611
 10
93.3612202521
 20
-43.3846803188
 10
93.3648350579
 20
-43.3535520319
 10
93.3682455261
 20
-43.3222667163
 10
93.3713802409
 20
-43.2911118654
 10
93.3742004297
 20
-43.2602815929
 10
93.3766971245
 20
-43.2298700973
  0
LINE
  5
3F6
100
AcDbEntity
  8
RACCORDO
100
AcDbLine
 62
7
  6
CONTINUOUS
 10
90.3914206981
 20
43.1736819923
 11
90.3911662088
 21
43.1737896138
  0
LINE
  5
3F7
100
AcDbEntity
  8
RACCORDO
100
AcDbLine
 62
253
  6
CONTINUOUS
 10
90.841844538
 20
43.3153746083
 11
90.8454111958
 21
43.3169318841
  0
LINE
  5
3F8
100
AcDbEntity
  8
RACCORDO
100
AcDbLine
 62
7
  6
CONTINUOUS
 10
93.859893245
 20
44.7
 11
93.653709165
 21
44.6460540789
  0
LINE
  5
3F9
100
AcDbEntity
  8
RACCORDO
100
AcDbLine
 62
253
  6
CONTINUOUS
 10
91.0751722553
 20
43.3796773946
 11
91.0784073953
 21
43.3810014693
  0
LINE
  5
3FA
100
AcDbEntity
  8
RACCORDO
100
AcDbLine
 62
253
  6
CONTINUOUS
 10
91.3126683994
 20
43.4385824961
 11
91.3155712109
 21
43.439692577
  0
LINE
  5
3FB
100
AcDbEntity
  8
RACCORDO
100
AcDbLine
 62
253
  6
CONTINUOUS
 10
91.5538463596
 20
43.4919297417
 11
91.5564143886
 21
43.4928437383
  0
LINE
  5
3FC
100
AcDbEntity
  8
RACCORDO
100
AcDbLine
 62
253
  6
CONTINUOUS
 10
93.9894673929
 20
44.0035194839
 11
93.7825337489
 21
43.9654795542
  0
LINE
  5
3FD
100
AcDbEntity
  8
RACCORDO
100
AcDbLine
 62
253
  6
CONTINUOUS
 10
93.6711783732
 20
43.8679119196
 11
93.7942887449
 21
43.8904816335
  0
LINE
  5
3FE
100
AcDbEntity
  8
RACCORDO
100
AcDbLine
 62
253
  6
CONTINUOUS
 10
96.239719147
 20
43.926800663
 11
95.7912711757
 21
43.8457940521
  0
LINE
  5
3FF
100
AcDbEntity
  8
RACCORDO
100
AcDbLine
 62
253
  6
CONTINUOUS
 10
91.7977944152
 20
43.5395023394
 11
91.8000161368
 21
43.5402360277
  0
LINE
  5
400
100
AcDbEntity
  8
RACCORDO
100
AcDbLine
 62
253
  6
CONTINUOUS
 10
92.0441757588
 20
43.5812358851
 11
92.0460359755
 21
43.5818045152
  0
LINE
  5
401
100
AcDbEntity
  8
RACCORDO
100
AcDbLine
 62
253
  6
CONTINUOUS
 10
93.6742012135
 20
43.9512908448
 11
93.782533438
 21
43.9654817032
  0
LINE
  5
402
100
AcDbEntity
  8
RACCORDO
100
AcDbLine
 62
253
  6
CONTINUOUS
 10
93.6560500439
 20
43.9489890793
 11
93.6742012135
 21
43.9512908448
  0
LINE
  5
403
100
AcDbEntity
  8
RACCORDO
100
AcDbLine
 62
253
  6
CONTINUOUS
 10
93.0480452132
 20
43.6864596445
 11
93.3014182754
 21
43.7
  0
LWPOLYLINE
  5
404
100
AcDbEntity
  8
SUPERFICI
100
AcDbPolyline
 62
7
  6
CONTINUOUS
 90
13
 70
0
 10
93.2952874534
 20
43.7
 10
93.0646561574
 20
43.6911064693
 10
92.830511562
 20
43.6765746461
 10
92.5931436361
 20
43.656160875
 10
92.3534626101
 20
43.629694805
 10
92.1112180262
 20
43.5968905357
 10
91.8650445315
 20
43.5572035157
 10
91.6154783077
 20
43.5102774727
 10
91.3629695732
 20
43.4557321467
 10
91.1062130962
 20
43.3927083203
 10
90.8453184435
 20
43.320504185
 10
90.5817368065
 20
43.2387430198
 10
90.3908785976
 20
43.1736915855
  0
LINE
  5
405
100
AcDbEntity
  8
0
100
AcDbLine
 62
7
  6
CONTINUOUS
 10
93.3014182754
 20
43.7
 11
93.2952874534
 21
43.7
  0
LINE
  5
406
100
AcDbEntity
  8
RACCORDO
100
AcDbLine
 62
253
  6
CONTINUOUS
 10
90.2145081966
 20
42.6671069516
 11
90.3807620716
 21
42.666764168
  0
LINE
  5
407
100
AcDbEntity
  8
RACCORDO
100
AcDbLine
 62
253
  6
CONTINUOUS
 10
90.243305153
 20
42.432914147
 11
90.3818763972
 21
42.4324265446
  0
LWPOLYLINE
  5
408
100
AcDbEntity
  8
RACCORDO
100
AcDbPolyline
 62
253
  6
CONTINUOUS
 90
4
 70
0
 10
90.1910457515
 20
42.6673520658
 10
90.1925304618
 20
42.6672892389
 10
90.1969698686
 20
42.6672270359
 10
90.2145081966
 20
42.6671069516
  0
LINE
  5
409
100
AcDbEntity
  8
RACCORDO
100
AcDbLine
 62
253
  6
CONTINUOUS
 10
95.7912711782
 20
43.8457940385
 11
93.989467435
 21
44.0035192549
  0
LWPOLYLINE
  5
40A
100
AcDbEntity
  8
RACCORDO
100
AcDbPolyline
 62
253
  6
CONTINUOUS
 90
6
 70
0
 10
90.1910457515
 20
42.4336624566
 10
90.1925403787
 20
42.4335301711
 10
90.1970093688
 20
42.4333992038
 10
90.2044081922
 20
42.4332708596
 10
90.2146631255
 20
42.4331464173
 10
90.243305153
 20
42.432914147
  0
LINE
  5
40B
100
AcDbEntity
  8
RACCORDO
100
AcDbLine
 62
7
  6
CONTINUOUS
 10
95.7004260171
 20
44.8340076387
 11
93.8031246455
 21
45.0
  0
ARC
  5
40C
100
AcDbEntity
  8
RACCORDO
100
AcDbCircle
 62
7
  6
CONTINUOUS
 10
-350.7395239239
 20
0.0
 40
450.0
100
AcDbArc
 50
357.1173180382
 51
2.882682159
  0
ARC
  5
40D
100
AcDbEntity
  8
DRAFT
100
AcDbCircle
 62
7
  6
CONTINUOUS
 10
-350.7395239239
 20
0.0
 40
447.8
100
AcDbArc
 50
357.1173130894
 51
2.8826869106
  0
ARC
  5
40E
100
AcDbEntity
  8
0
100
AcDbCircle
 62
7
  6
CONTINUOUS
 10
-67.924583972
 20
-14.2411105033
 40
166.926732391
100
AcDbArc
 50
354.9696557406
 51
355.9448846147
  0
ARC
  5
40F
100
AcDbEntity
  8
RACCORDO
100
AcDbCircle
 62
7
  6
CONTINUOUS
 10
-67.924583972
 20
-14.2411105033
 40
166.826732391
100
AcDbArc
 50
349.5756088776
 51
357.1173264382
  0
ARC
  5
410
100
AcDbEntity
  8
RACCORDO
100
AcDbCircle
 62
7
  6
CONTINUOUS
 10
-67.924583972
 20
-14.2411105033
 40
164.626732391
100
AcDbArc
 50
349.2315617336
 51
357.1173130894
  0
ARC
  5
411
100
AcDbEntity
  8
RACCORDO
100
AcDbCircle
 62
7
  6
CONTINUOUS
 10
95.6568481457
 20
-44.3359102896
 40
0.5
100
AcDbArc
 50
275.0
 51
349.5756088776
  0
ARC
  5
412
100
AcDbEntity
  8
RACCORDO
100
AcDbCircle
 62
7
  6
CONTINUOUS
 10
90.4910457515
 20
-42.8909103187
 40
0.3
100
AcDbArc
 50
180.0
 51
250.4947724151
  0
ARC
  5
413
100
AcDbEntity
  8
RACCORDO
100
AcDbCircle
 62
7
  6
CONTINUOUS
 10
90.4910457515
 20
-42.8833544095
 40
0.3
100
AcDbArc
 50
186.0188224577
 51
210.0941100591
  0
ARC
  5
414
100
AcDbEntity
  8
RACCORDO
100
AcDbCircle
 62
7
  6
CONTINUOUS
 10
90.3910457515
 20
-42.4113525438
 40
0.2
100
AcDbArc
 50
162.0999324144
 51
180.0
  0
ARC
  5
415
100
AcDbEntity
  8
RACCORDO
100
AcDbCircle
 62
7
  6
CONTINUOUS
 10
93.6887519786
 20
-44.5001735009
 40
0.15
100
AcDbArc
 50
196.5000001981
 51
255.3378253713
  0
ARC
  5
416
100
AcDbEntity
  8
RACCORDO
100
AcDbCircle
 62
7
  6
CONTINUOUS
 10
91.8910457515
 20
-3.2482701106
 40
0.3
100
AcDbArc
 50
280.0004340787
 51
0.0006891973
  0
ARC
  5
417
100
AcDbEntity
  8
RACCORDO
100
AcDbCircle
 62
7
  6
CONTINUOUS
 10
90.3910457515
 20
-7.8613525438
 40
0.2
100
AcDbArc
 50
174.0236141485
 51
180.0
  0
ARC
  5
418
100
AcDbEntity
  8
RACCORDO
100
AcDbCircle
 62
7
  6
CONTINUOUS
 10
90.3910457515
 20
-23.8465394526
 40
0.2
100
AcDbArc
 50
174.0666377965
 51
180.0
  0
ARC
  5
419
100
AcDbEntity
  8
RACCORDO
100
AcDbCircle
 62
7
  6
CONTINUOUS
 10
90.3910457515
 20
-4.0204738877
 40
0.2
100
AcDbArc
 50
100.0
 51
180.0
  0
ARC
  5
41A
100
AcDbEntity
  8
RACCORDO
100
AcDbCircle
 62
7
  6
CONTINUOUS
 10
-67.924583972
 20
14.2411105033
 40
166.826732391
100
AcDbArc
 50
2.8826740936
 51
10.4243911224
  0
ARC
  5
41B
100
AcDbEntity
  8
RACCORDO
100
AcDbCircle
 62
7
  6
CONTINUOUS
 10
-67.924583972
 20
14.2411105033
 40
164.626732391
100
AcDbArc
 50
2.8826869106
 51
10.7684382664
  0
ARC
  5
41C
100
AcDbEntity
  8
RACCORDO
100
AcDbCircle
 62
7
  6
CONTINUOUS
 10
91.8910457515
 20
3.2482701106
 40
0.3
100
AcDbArc
 50
359.999029172
 51
79.9996805584
  0
ARC
  5
41D
100
AcDbEntity
  8
RACCORDO
100
AcDbCircle
 62
7
  6
CONTINUOUS
 10
90.3910457657
 20
4.0204738851
 40
0.2
100
AcDbArc
 50
179.9999968591
 51
259.9999839205
  0
ARC
  5
41E
100
AcDbEntity
  8
RACCORDO
100
AcDbCircle
 62
7
  6
CONTINUOUS
 10
95.6568489822
 20
44.3359058363
 40
0.5000000001
100
AcDbArc
 50
10.4249103538
 51
85.0001399559
  0
ARC
  5
41F
100
AcDbEntity
  8
RACCORDO
100
AcDbCircle
 62
7
  6
CONTINUOUS
 10
90.4910457515
 20
42.8895920964
 40
0.3
100
AcDbArc
 50
109.1884981587
 51
179.9999995471
  0
ARC
  5
420
100
AcDbEntity
  8
RACCORDO
100
AcDbCircle
 62
7
  6
CONTINUOUS
 10
90.4910457515
 20
42.8833544095
 40
0.3
100
AcDbArc
 50
149.9058899409
 51
173.9811775423
  0
ARC
  5
421
100
AcDbEntity
  8
RACCORDO
100
AcDbCircle
 62
7
  6
CONTINUOUS
 10
90.3910457515
 20
24.1534605474
 40
0.2
100
AcDbArc
 50
174.0666377965
 51
180.0
  0
ARC
  5
422
100
AcDbEntity
  8
RACCORDO
100
AcDbCircle
 62
7
  6
CONTINUOUS
 10
90.3910457515
 20
42.4113525438
 40
0.2
100
AcDbArc
 50
180.0
 51
197.9000680981
  0
ARC
  5
423
100
AcDbEntity
  8
RACCORDO
100
AcDbCircle
 62
7
  6
CONTINUOUS
 10
93.6887519786
 20
44.5001735009
 40
0.15
100
AcDbArc
 50
104.6621746287
 51
163.4999998019
  0
ENDSEC
  0
SECTION
  2
OBJECTS
  0
DICTIONARY
  5
C
100
AcDbDictionary
280
0
281
1
  3
ACAD_GROUP
350
D
  3
ACAD_MLINESTYLE
350
17
  3
ACAD_LAYOUT
350
1A
  3
ACAD_PLOTSETTINGS
350
19
  3
ACAD_PLOTSTYLENAME
350
E
  0
DICTIONARY
  5
D
102
{ACAD_REACTORS
330
C
102
}
100
AcDbDictionary
280
0
281
1
  0
ACDBDICTIONARYWDFLT
  5
E
102
{ACAD_REACTORS
330
C
102
}
100
AcDbDictionary
281
1
  3
Normal
350
F
100
AcDbDictionaryWithDefault
340
F
  0
DICTIONARY
  5
17
102
{ACAD_REACTORS
330
C
102
}
100
AcDbDictionary
280
0
281
1
  3
Standard
350
18
  0
DICTIONARY
  5
19
102
{ACAD_REACTORS
330
C
102
}
100
AcDbDictionary
281
1
  0
DICTIONARY
  5
1A
102
{ACAD_REACTORS
330
C
102
}
100
AcDbDictionary
281
1
  3
Model
350
424
  3
Layout1
350
425
  0
ACDBPLACEHOLDER
  5
F
102
{ACAD_REACTORS
330
E
102
}
  0
MLINESTYLE
  5
18
102
{ACAD_REACTORS
330
17
102
}
100
AcDbMlineStyle
  2
STANDARD
 70
0
  3

 62
256
 51
90.0
 52
90.0
 71
2
 49
0.5
 62
256
  6
BYLAYER
 49
-0.5
 62
256
  6
BYLAYER
  0
LAYOUT
  5
424
102
{ACAD_REACTORS
330
1A
102
}
100
AcDbPlotSettings
  1

  2
none_device
  4
ISO_A4_(297.00_x_210.00_MM)
  6

 40
0.0
 41
0.0
 42
0.0
 43
0.0
 44
297.0
 45
210.0
 46
0.0
 47
0.0
 48
0.0
 49
0.0
140
0.0
141
0.0
142
1.0
143
1.0
 70
1024
 72
1
 73
0
 74
0
  7

 75
0
147
1.0
148
0.0
149
0.0
100
AcDbLayout
  1
Model
 70
0
 71
0
 10
0.0
 20
0.0
 11
297.0
 21
210.0
 12
0.0
 22
0.0
 32
0.0
 14
0.0
 24
0.0
 34
0.0
 15
0.0
 25
0.0
 35
0.0
146
0.0
 13
0.0
 23
0.0
 33
0.0
 16
1.0
 26
0.0
 36
0.0
 17
0.0
 27
1.0
 37
0.0
 76
0
330
212
345
0
346
0
  0
LAYOUT
  5
425
102
{ACAD_REACTORS
330
1A
102
}
100
AcDbPlotSettings
  1

  2
none_device
  4
ISO_A4_(297.00_x_210.00_MM)
  6

 40
0.0
 41
0.0
 42
0.0
 43
0.0
 44
297.0
 45
210.0
 46
0.0
 47
0.0
 48
0.0
 49
0.0
140
0.0
141
0.0
142
1.0
143
1.0
 70
0
 72
1
 73
0
 74
0
  7

 75
0
147
1.0
148
0.0
149
0.0
100
AcDbLayout
  1
Layout1
 70
0
 71
1
 10
0.0
 20
0.0
 11
297.0
 21
210.0
 12
0.0
 22
0.0
 32
0.0
 14
0.0
 24
0.0
 34
0.0
 15
0.0
 25
0.0
 35
0.0
146
0.0
 13
0.0
 23
0.0
 33
0.0
 16
1.0
 26
0.0
 36
0.0
 17
0.0
 27
1.0
 37
0.0
 76
0
330
213
345
0
346
0
  0
ENDSEC
  0
EOF
