  0
SECTION
  2
HEADER
  9
$ACADVER
  1
AC1021
  9
$DWGCODEPAGE
  3
ANSI_1252
  9
$EXTMAX
 10
297.0
 20
210.0
 30
0.0
  9
$EXTMIN
 10
0.0
 20
0.0
 30
0.0
  9
$LIMMIN
 10
0.0
 20
0.0
  9
$LIMMAX
 10
297.0
 20
210.0
  9
$VIEWCTR
 10
148.5
 20
105.0
  9
$VIEWSIZE
 40
210.0
  9
$CLAYER
  8
0
  9
$LTSCALE
 40
16.335
  9
$CELTYPE
  6
BYLAYER
  9
$DIMSCALE
 40
1.0
  9
$DIMASZ
 40
3.0
  9
$DIMEXO
 40
1.85625
  9
$DIMDLI
 40
11.286
  9
$DIMEXE
 40
5.346
  9
$DIMCEN
 40
2.673
  9
$DIMLFAC
 40
1.0
  9
$DIMBLK
  1
_FILLED
  9
$DIMTXT
 40
3.0
  9
$DIMTOL
 70
1
  9
$DIMLIM
 70
0
  9
$DIMTFAC
 40
1.0
  9
$DIMTP
 40
0.01
  9
$DIMTM
 40
0.01
  9
$PDMODE
 70
3
  9
$PDSIZE
 40
3.0
  9
$HANDSEED
  5
360
  9
$TILEMODE
 70
1
  9
$MEASUREMENT
 70
1
  9
$INSUNITS
 70
4
  0
ENDSEC
  0
SECTION
  2
CLASSES
  0
CLASS
  1
ACDBDICTIONARYWDFLT
  2
AcDbDictionaryWithDefault
  3
AutoCAD 2000
 90
0
 91
1
280
0
281
0
  0
CLASS
  1
ACDBPLACEHOLDER
  2
AcDbPlaceHolder
  3
AutoCAD 2000
 90
0
 91
1
280
0
281
0
  0
CLASS
  1
LAYOUT
  2
AcDbLayout
  3
AutoCAD 2000
 90
0
 91
0
280
0
281
0
  0
ENDSEC
  0
SECTION
  2
TABLES
  0
TABLE
  2
VPORT
  5
8
100
AcDbSymbolTable
 70
2
  0
VPORT
  5
1F4
100
AcDbSymbolTableRecord
100
AcDbViewportTableRecord
  2
*ACTIVE
 70
0
 10
0.0
 20
0.0
 11
1.0
 21
1.0
 12
148.5
 22
105.0
 13
0.0
 23
0.0
 14
1.0
 24
1.0
 15
0.0
 25
0.0
 16
0.0
 26
0.0
 36
1.0
 17
0.0
 27
0.0
 37
0.0
 40
210.0
 41
1.4142857143
 42
50.0
 43
0.0
 44
0.0
 50
0.0
 51
0.0
 71
0
 72
100
 73
1
 74
1
 75
0
 76
0
 77
0
 78
0
  0
ENDTAB
  0
TABLE
  2
LTYPE
  5
5
100
AcDbSymbolTable
 70
6
  0
LTYPE
  5
14
100
AcDbSymbolTableRecord
100
AcDbLinetypeTableRecord
  2
BYBLOCK
 70
0
  3

 72
65
 73
0
 40
0.0
  0
LTYPE
  5
15
100
AcDbSymbolTableRecord
100
AcDbLinetypeTableRecord
  2
BYLAYER
 70
0
  3

 72
65
 73
0
 40
0.0
  0
LTYPE
  5
16
100
AcDbSymbolTableRecord
100
AcDbLinetypeTableRecord
  2
CONTINUOUS
 70
64
  3
Solid line
 72
65
 73
0
 40
0.0
  0
LTYPE
  5
1F5
100
AcDbSymbolTableRecord
100
AcDbLinetypeTableRecord
  2
CENTER
 70
64
  3
____ _ ____ _ ____ _ ____ _ ____ _ ____ _ ____
 72
65
 73
4
 40
0.6
 49
0.375
 74
0
 49
-0.075
 74
0
 49
0.075
 74
0
 49
-0.075
 74
0
  0
LTYPE
  5
1F6
100
AcDbSymbolTableRecord
100
AcDbLinetypeTableRecord
  2
HIDDEN
 70
64
  3
- - - - - - - - - - - - - - - - - - - -
 72
65
 73
2
 40
0.2
 49
0.1
 74
0
 49
-0.1
 74
0
  0
LTYPE
  5
1F7
100
AcDbSymbolTableRecord
100
AcDbLinetypeTableRecord
  2
PHANTOM
 70
64
  3
_____ _ _ _____ _ _ _____ _ _ _____
 72
65
 73
6
 40
0.8
 49
0.45
 74
0
 49
-0.05
 74
0
 49
0.1
 74
0
 49
-0.05
 74
0
 49
0.1
 74
0
 49
-0.05
 74
0
  0
LTYPE
  5
1F8
100
AcDbSymbolTableRecord
100
AcDbLinetypeTableRecord
  2
DOT
 70
64
  3
. . . . . . . . . . . . . . . . . . . .
 72
65
 73
2
 40
0.2
 49
0.1
 74
0
 49
-0.1
 74
0
  0
LTYPE
  5
1F9
100
AcDbSymbolTableRecord
100
AcDbLinetypeTableRecord
  2
DASHED
 70
64
  3
- - - - - - - - - - - - - - - - - - - -
 72
65
 73
2
 40
0.2
 49
0.1
 74
0
 49
-0.1
 74
0
  0
ENDTAB
  0
TABLE
  2
LAYER
  5
2
100
AcDbSymbolTable
 70
36
  0
LAYER
  5
10
100
AcDbSymbolTableRecord
100
AcDbLayerTableRecord
  2
0
 70
0
 62
7
  6
CONTINUOUS
370
-3
390
F
  0
LAYER
  5
1FA
100
AcDbSymbolTableRecord
100
AcDbLayerTableRecord
  2
DEFAULT_1
 70
0
 62
7
  6
CENTER
370
-3
390
F
  0
LAYER
  5
1FB
100
AcDbSymbolTableRecord
100
AcDbLayerTableRecord
  2
DEFAULT_2
 70
0
 62
7
  6
HIDDEN
370
-3
390
F
  0
LAYER
  5
1FC
100
AcDbSymbolTableRecord
100
AcDbLayerTableRecord
  2
DEFAULT_3
 70
0
 62
7
  6
PHANTOM
370
-3
390
F
  0
LAYER
  5
1FD
100
AcDbSymbolTableRecord
100
AcDbLayerTableRecord
  2
ASSI
 70
0
 62
7
  6
CONTINUOUS
370
-3
390
F
  0
LAYER
  5
1FE
100
AcDbSymbolTableRecord
100
AcDbLayerTableRecord
  2
COORDINATE
 70
0
 62
7
  6
CONTINUOUS
370
-3
390
F
  0
LAYER
  5
1FF
100
AcDbSymbolTableRecord
100
AcDbLayerTableRecord
  2
COPY_PUBLISH
 70
0
 62
7
  6
CONTINUOUS
370
-3
390
F
  0
LAYER
  5
200
100
AcDbSymbolTableRecord
100
AcDbLayerTableRecord
  2
COSMETICI
 70
0
 62
7
  6
CONTINUOUS
370
-3
390
F
  0
LAYER
  5
201
100
AcDbSymbolTableRecord
100
AcDbLayerTableRecord
  2
CURVE
 70
0
 62
7
  6
CONTINUOUS
370
-3
390
F
  0
LAYER
  5
202
100
AcDbSymbolTableRecord
100
AcDbLayerTableRecord
  2
DRAFT
 70
0
 62
7
  6
CONTINUOUS
370
-3
390
F
  0
LAYER
  5
203
100
AcDbSymbolTableRecord
100
AcDbLayerTableRecord
  2
IMPORT_IGES
 70
0
 62
7
  6
CONTINUOUS
370
-3
390
F
  0
LAYER
  5
204
100
AcDbSymbolTableRecord
100
AcDbLayerTableRecord
  2
INTF_1
 70
0
 62
7
  6
CONTINUOUS
370
-3
390
F
  0
LAYER
  5
205
100
AcDbSymbolTableRecord
100
AcDbLayerTableRecord
  2
NOTE
 70
0
 62
7
  6
CONTINUOUS
370
-3
390
F
  0
LAYER
  5
206
100
AcDbSymbolTableRecord
100
AcDbLayerTableRecord
  2
PIANI
 70
0
 62
7
  6
CONTINUOUS
370
-3
390
F
  0
LAYER
  5
207
100
AcDbSymbolTableRecord
100
AcDbLayerTableRecord
  2
PUNTI
 70
0
 62
7
  6
CONTINUOUS
370
-3
390
F
  0
LAYER
  5
208
100
AcDbSymbolTableRecord
100
AcDbLayerTableRecord
  2
RACCORDO
 70
0
 62
7
  6
CONTINUOUS
370
-3
390
F
  0
LAYER
  5
209
100
AcDbSymbolTableRecord
100
AcDbLayerTableRecord
  2
SIMBOLI
 70
0
 62
7
  6
CONTINUOUS
370
-3
390
F
  0
LAYER
  5
20A
100
AcDbSymbolTableRecord
100
AcDbLayerTableRecord
  2
SMUSSO
 70
0
 62
7
  6
CONTINUOUS
370
-3
390
F
  0
LAYER
  5
20B
100
AcDbSymbolTableRecord
100
AcDbLayerTableRecord
  2
SNAPLINE
 70
0
 62
7
  6
CONTINUOUS
370
-3
390
F
  0
LAYER
  5
20C
100
AcDbSymbolTableRecord
100
AcDbLayerTableRecord
  2
SUPERFICI
 70
0
 62
7
  6
CONTINUOUS
370
-3
390
F
  0
LAYER
  5
20D
100
AcDbSymbolTableRecord
100
AcDbLayerTableRecord
  2
TRASH
 70
0
 62
7
  6
CONTINUOUS
370
-3
390
F
  0
ENDTAB
  0
TABLE
  2
STYLE
  5
3
100
AcDbSymbolTable
 70
1
  0
STYLE
  5
11
100
AcDbSymbolTableRecord
100
AcDbTextStyleTableRecord
  2
STANDARD
 70
0
 40
0.0
 41
0.8
 50
0.0
 71
0
 42
0.2
  3
txt
  4

  0
STYLE
  5
20E
100
AcDbSymbolTableRecord
100
AcDbTextStyleTableRecord
  2
TEXTSTYLE_1
 70
0
 40
0.0
 41
0.8
 50
0.0
 71
0
 42
0.2
  3
gdt
  4

  0
ENDTAB
  0
TABLE
  2
VIEW
  5
6
100
AcDbSymbolTable
 70
0
  0
ENDTAB
  0
TABLE
  2
UCS
  5
7
100
AcDbSymbolTable
 70
0
  0
ENDTAB
  0
TABLE
  2
APPID
  5
9
100
AcDbSymbolTable
 70
1
  0
APPID
  5
20F
100
AcDbSymbolTableRecord
100
AcDbRegAppTableRecord
  2
ACAD
 70
0
  0
ENDTAB
  0
TABLE
  2
BLOCK_RECORD
  5
1
100
AcDbSymbolTable
 70
0
  0
BLOCK_RECORD
  5
210
100
AcDbSymbolTableRecord
100
AcDbBlockTableRecord
  2
*Model_Space
  0
BLOCK_RECORD
  5
211
100
AcDbSymbolTableRecord
100
AcDbBlockTableRecord
  2
*Paper_Space
  0
BLOCK_RECORD
  5
212
100
AcDbSymbolTableRecord
100
AcDbBlockTableRecord
  2
_FILLED
  0
BLOCK_RECORD
  5
213
100
AcDbSymbolTableRecord
100
AcDbBlockTableRecord
  2
*D0
  0
BLOCK_RECORD
  5
214
100
AcDbSymbolTableRecord
100
AcDbBlockTableRecord
  2
*D1
  0
BLOCK_RECORD
  5
215
100
AcDbSymbolTableRecord
100
AcDbBlockTableRecord
  2
*D2
  0
ENDTAB
  0
TABLE
  2
DIMSTYLE
  5
A
100
AcDbSymbolTable
 70
1
100
AcDbDimStyleTable
 71
0
  0
DIMSTYLE
105
216
100
AcDbSymbolTableRecord
100
AcDbDimStyleTableRecord
  2
STANDARD
 70
0
  3

  4

 40
1.0
 41
3.0
 42
0.0625
 43
0.38
 44
0.18
 45
0.0
 46
0.0
 47
0.01
 48
0.01
140
3.0
141
0.09
142
0.0
143
25.4
144
1.0
145
0.0
146
1.0
147
0.09
 71
1.0
 72
0.0
 73
0
 74
0
 75
0
 76
0
 77
1
 78
8
170
0
171
2
172
0
173
0
174
0
175
0
176
0
177
0
178
0
270
2
271
2
272
2
273
2
274
2
275
0
280
0
281
0
282
0
283
1
284
8
285
0
286
0
287
3
288
0
340
11
341
212
342
212
343
212
344
212
  0
DIMSTYLE
105
217
100
AcDbSymbolTableRecord
100
AcDbDimStyleTableRecord
  2
DIMSTYLE_1
 70
0
  3

  4

 40
1.0
 41
3.0
 42
0.0625
 43
0.38
 44
0.18
 45
0.0
 46
0.0
 47
0.0
 48
0.0
140
3.0
141
0.09
142
0.0
143
25.4
144
1.0
145
0.0
146
1.0
147
0.09
 71
0.0
 72
0.0
 73
0
 74
0
 75
0
 76
0
 77
1
 78
8
170
0
171
2
172
0
173
0
174
0
175
0
176
0
177
0
178
0
270
2
271
2
272
2
273
2
274
2
275
0
280
0
281
0
282
0
283
1
284
8
285
0
286
0
287
3
288
0
340
11
341
212
342
212
343
212
344
212
  0
DIMSTYLE
105
218
100
AcDbSymbolTableRecord
100
AcDbDimStyleTableRecord
  2
DIMSTYLE_2
 70
0
  3

  4

 40
1.0
 41
3.0
 42
0.0625
 43
0.38
 44
0.18
 45
0.0
 46
0.0
 47
0.0
 48
0.0
140
3.0
141
0.09
142
0.0
143
25.4
144
1.0
145
0.0
146
1.0
147
0.09
 71
0.0
 72
0.0
 73
0
 74
0
 75
0
 76
0
 77
1
 78
8
170
0
171
2
172
0
173
0
174
0
175
0
176
0
177
0
178
0
270
2
271
1
272
1
273
2
274
2
275
0
280
0
281
0
282
0
283
1
284
8
285
0
286
0
287
3
288
0
340
11
341
212
342
212
343
212
344
212
  0
ENDTAB
  0
ENDSEC
  0
SECTION
  2
BLOCKS
  0
BLOCK
  5
20
100
AcDbEntity
  8
0
100
AcDbBlockBegin
  2
*Model_Space
 70
0
 10
0.0
 20
0.0
 30
0.0
  3
*Model_Space
  1

  0
ENDBLK
  5
21
100
AcDbEntity
  8
0
100
AcDbBlockEnd
  0
BLOCK
  5
1C
100
AcDbEntity
  8
0
100
AcDbBlockBegin
  2
*Paper_Space
 70
0
 10
0.0
 20
0.0
 30
0.0
  3
*Paper_Space
  1

  0
ENDBLK
  5
1D
100
AcDbEntity
  8
0
100
AcDbBlockEnd
  0
BLOCK
  5
219
100
AcDbEntity
  8
0
100
AcDbBlockBegin
  2
_FILLED
 70
64
 10
0.0
 20
0.0
  3
_FILLED
  1

  0
SOLID
  5
21A
100
AcDbEntity
  8
0
  6
BYBLOCK
 62
0
100
AcDbTrace
 10
0.0
 20
0.0
 11
-1.0
 21
0.3166666667
 12
-1.0
 22
-0.3166666667
 13
-1.0
 23
-0.3166666667
  0
ENDBLK
  5
21B
100
AcDbEntity
  8
0
  6
BYBLOCK
 62
0
100
AcDbBlockEnd
  0
BLOCK
  5
21C
100
AcDbEntity
  8
0
100
AcDbBlockBegin
 62
7
  6
CONTINUOUS
  2
*D0
 70
65
 10
0.0
 20
0.0
  3
*D0
  1

  0
MTEXT
  5
21D
100
AcDbEntity
  8
0
100
AcDbMText
 62
7
  6
CONTINUOUS
  7
STANDARD
 71
2
 72
1
 10
0.0
 20
59.0386808273
 30
0.0
 11
1.0
 21
0.0
 31
0.0
 44
0.9
  1
144,5
 40
3.0
 41
10.2857142857
  0
LINE
  5
21E
100
AcDbEntity
  8
0
100
AcDbLine
 62
7
  6
CONTINUOUS
 10
-72.25
 20
17.9156852783
 11
-72.25
 21
56.7886808273
  0
LINE
  5
21F
100
AcDbEntity
  8
0
100
AcDbLine
 62
7
  6
CONTINUOUS
 10
72.25
 20
17.9156852783
 11
72.25
 21
56.7886808273
  0
LINE
  5
220
100
AcDbEntity
  8
0
100
AcDbLine
 62
7
  6
CONTINUOUS
 10
-72.25
 20
55.2886808273
 11
-0.0
 21
55.2886808273
  0
LINE
  5
221
100
AcDbEntity
  8
0
100
AcDbLine
 62
7
  6
CONTINUOUS
 10
72.25
 20
55.2886808273
 11
-0.0
 21
55.2886808273
  0
INSERT
  5
222
100
AcDbEntity
  8
0
100
AcDbBlockReference
 62
7
  6
CONTINUOUS
  2
_FILLED
 10
-72.25
 20
55.2886808273
 41
3.0
 42
3.0
 43
3.0
 50
180.0
  0
INSERT
  5
223
100
AcDbEntity
  8
0
100
AcDbBlockReference
 62
7
  6
CONTINUOUS
  2
_FILLED
 10
72.25
 20
55.2886808273
 41
3.0
 42
3.0
 43
3.0
  0
ENDBLK
  5
224
100
AcDbEntity
  8
0
  6
BYBLOCK
 62
0
100
AcDbBlockEnd
  0
BLOCK
  5
225
100
AcDbEntity
  8
0
100
AcDbBlockBegin
 62
7
  6
CONTINUOUS
  2
*D1
 70
65
 10
0.0
 20
0.0
  3
*D1
  1

  0
MTEXT
  5
226
100
AcDbEntity
  8
0
100
AcDbMText
 62
7
  6
CONTINUOUS
  7
STANDARD
 71
2
 72
1
 10
84.3943413639
 20
-5.0535013869
 30
0.0
 11
0.0
 21
1.0
 31
0.0
 44
0.9
  1
90
 40
3.0
 41
4.7142857143
  0
LINE
  5
227
100
AcDbEntity
  8
0
100
AcDbLine
 62
7
  6
CONTINUOUS
 10
73.8314656209
 20
-50.0535013869
 11
89.6443413639
 21
-50.0535013869
  0
LINE
  5
228
100
AcDbEntity
  8
0
100
AcDbLine
 62
7
  6
CONTINUOUS
 10
74.3366949555
 20
39.9464986131
 11
89.6443413639
 21
39.9464986131
  0
LINE
  5
229
100
AcDbEntity
  8
0
100
AcDbLine
 62
7
  6
CONTINUOUS
 10
88.1443413639
 20
-50.0535013869
 11
88.1443413639
 21
-5.0535013869
  0
LINE
  5
22A
100
AcDbEntity
  8
0
100
AcDbLine
 62
7
  6
CONTINUOUS
 10
88.1443413639
 20
39.9464986131
 11
88.1443413639
 21
-5.0535013869
  0
INSERT
  5
22B
100
AcDbEntity
  8
0
100
AcDbBlockReference
 62
7
  6
CONTINUOUS
  2
_FILLED
 10
88.1443413639
 20
-50.0535013869
 41
3.0
 42
3.0
 43
3.0
 50
270.0
  0
INSERT
  5
22C
100
AcDbEntity
  8
0
100
AcDbBlockReference
 62
7
  6
CONTINUOUS
  2
_FILLED
 10
88.1443413639
 20
39.9464986131
 41
3.0
 42
3.0
 43
3.0
 50
90.0
  0
ENDBLK
  5
22D
100
AcDbEntity
  8
0
  6
BYBLOCK
 62
0
100
AcDbBlockEnd
  0
BLOCK
  5
22E
100
AcDbEntity
  8
0
100
AcDbBlockBegin
 62
7
  6
CONTINUOUS
  2
*D2
 70
65
 10
0.0
 20
0.0
  3
*D2
  1

  0
MTEXT
  5
22F
100
AcDbEntity
  8
0
100
AcDbMText
 62
7
  6
CONTINUOUS
  7
STANDARD
 71
3
 72
1
 10
-98.0928124802
 20
59.0848671058
 30
0.0
 11
1.0
 21
0.0
 31
0.0
 44
0.9
  1
8,6
 40
3.0
 41
6.4285714286
  0
LINE
  5
230
100
AcDbEntity
  8
0
100
AcDbLine
 62
7
  6
CONTINUOUS
 10
-84.9451917731
 20
38.0132472731
 11
-84.9451917605
 21
56.834867097
  0
LINE
  5
231
100
AcDbEntity
  8
0
100
AcDbLine
 62
7
  6
CONTINUOUS
 10
-93.5133033835
 20
-4.5535010854
 11
-93.5133033424
 21
56.8348671028
  0
LINE
  5
232
100
AcDbEntity
  8
0
100
AcDbLine
 62
7
  6
CONTINUOUS
 10
-84.9451917615
 20
55.334867097
 11
-89.2292475524
 21
55.3348670999
  0
LINE
  5
233
100
AcDbEntity
  8
0
100
AcDbLine
 62
7
  6
CONTINUOUS
 10
-93.5133033434
 20
55.3348671028
 11
-89.2292475524
 21
55.3348670999
  0
LINE
  5
234
100
AcDbEntity
  8
0
100
AcDbLine
 62
7
  6
CONTINUOUS
 10
-89.2292475524
 20
55.3348670999
 11
-104.5213839088
 21
55.3348671058
  0
INSERT
  5
235
100
AcDbEntity
  8
0
100
AcDbBlockReference
 62
7
  6
CONTINUOUS
  2
_FILLED
 10
-84.9451917615
 20
55.334867097
 41
3.0
 42
3.0
 43
3.0
 50
359.9999999616
  0
INSERT
  5
236
100
AcDbEntity
  8
0
100
AcDbBlockReference
 62
7
  6
CONTINUOUS
  2
_FILLED
 10
-93.5133033434
 20
55.3348671028
 41
3.0
 42
3.0
 43
3.0
 50
179.9999999616
  0
ENDBLK
  5
237
100
AcDbEntity
  8
0
  6
BYBLOCK
 62
0
100
AcDbBlockEnd
  0
ENDSEC
  0
SECTION
  2
ENTITIES
  0
DIMENSION
  5
238
100
AcDbEntity
  8
0
100
AcDbDimension
 62
7
  6
CONTINUOUS
  2
*D0
 10
72.25
 20
55.2886808273
 11
-5.1428571429
 21
57.5386808273
 70
160
 71
2
 42
144.5
  3
DIMSTYLE_1
100
AcDbAlignedDimension
 13
-72.25
 23
17.9156852783
 14
72.25
 24
17.9156852783
100
AcDbRotatedDimension
  0
DIMENSION
  5
239
100
AcDbEntity
  8
0
100
AcDbDimension
 62
7
  6
CONTINUOUS
  2
*D1
 10
88.1443413639
 20
39.9464986131
 11
86.9505148876
 21
-7.1607792368
 70
160
 71
2
 42
90.0
  3
DIMSTYLE_1
100
AcDbAlignedDimension
 13
73.8314656209
 23
-50.0535013869
 14
74.3366949555
 24
39.9464986131
 50
90.0
100
AcDbRotatedDimension
  0
DIMENSION
  5
23A
100
AcDbEntity
  8
0
100
AcDbDimension
 62
7
  6
CONTINUOUS
  2
*D2
 10
-93.5133033434
 20
55.3348671028
 11
-107.735669623
 21
57.5848671058
 70
160
 71
3
 42
8.5681115819
  3
DIMSTYLE_2
100
AcDbAlignedDimension
 13
-84.9451917731
 23
38.0132472731
 14
-93.5133033835
 24
-4.5535010854
 50
179.9999999616
100
AcDbRotatedDimension
  0
LWPOLYLINE
  5
23B
100
AcDbEntity
  8
0
100
AcDbPolyline
 62
253
  6
CONTINUOUS
 90
28
 70
0
 10
-72.1153318476
 20
-48.4524466308
 10
-72.1116464343
 20
-48.5368666957
 10
-72.1031188703
 20
-48.6208459653
 10
-72.0897891464
 20
-48.7041064685
 10
-72.0717106199
 20
-48.786342497
 10
-72.0489313469
 20
-48.8673750539
 10
-72.0214793899
 20
-48.9471029364
 10
-71.9894521558
 20
-49.0252275626
 10
-71.9529934004
 20
-49.1013503868
 10
-71.9121956763
 20
-49.1752524408
 10
-71.8671111294
 20
-49.2467882148
 10
-71.8178460322
 20
-49.3157600906
 10
-71.7646643013
 20
-49.3818318641
 10
-71.7078059053
 20
-49.4446709488
 10
-71.6474585032
 20
-49.5040362875
 10
-71.5838201518
 20
-49.5597650246
 10
-71.5170808357
 20
-49.6117310374
 10
-71.4475033568
 20
-49.6597517356
 10
-71.3754089227
 20
-49.7036089047
 10
-71.3009632381
 20
-49.7432003496
 10
-71.2242870953
 20
-49.7784623429
 10
-71.1456327795
 20
-49.8092925191
 10
-71.0653619797
 20
-49.8355505783
 10
-70.9838062134
 20
-49.8571126806
 10
-70.9012404706
 20
-49.8739262482
 10
-70.8179084372
 20
-49.885961685
 10
-70.7340677992
 20
-49.8931940924
 10
-70.65
 20
-49.8956074896
  0
LWPOLYLINE
  5
23C
100
AcDbEntity
  8
0
100
AcDbPolyline
 62
7
  6
CONTINUOUS
 90
28
 70
0
 10
-72.25
 20
-48.4535013869
 10
-72.2472359271
 20
-48.5474602242
 10
-72.2389662417
 20
-48.6410642299
 10
-72.2252250925
 20
-48.7339901757
 10
-72.2060398036
 20
-48.8260000932
 10
-72.1814639029
 20
-48.9167642262
 10
-72.1516354535
 20
-49.0058125705
 10
-72.1168062637
 20
-49.0926113146
 10
-72.0771212506
 20
-49.1769381383
 10
-72.0325625268
 20
-49.2588354464
 10
-71.9830882492
 20
-49.3382922651
 10
-71.9289273829
 20
-49.4148916487
 10
-71.8705487315
 20
-49.4880267762
 10
-71.8084010204
 20
-49.5572041763
 10
-71.742570647
 20
-49.6224038949
 10
-71.6729954182
 20
-49.6837269085
 10
-71.5996978926
 20
-49.7411414932
 10
-71.5231489653
 20
-49.7942489057
 10
-71.4439777045
 20
-49.8426164814
 10
-71.3625814933
 20
-49.8860713877
 10
-71.2789320083
 20
-49.924698354
 10
-71.1930211393
 20
-49.958522104
 10
-71.1050944628
 20
-49.9874138644
 10
-71.015655173
 20
-50.0111629889
 10
-70.9251274691
 20
-50.029671173
 10
-70.8338303903
 20
-50.0429035968
 10
-70.7420158386
 20
-50.0508503638
 10
-70.65
 20
-50.0535013869
  0
LWPOLYLINE
  5
23D
100
AcDbEntity
  8
0
100
AcDbPolyline
 62
253
  6
CONTINUOUS
 90
28
 70
0
 10
-70.8204506376
 20
-48.6589929637
 10
-70.8201574256
 20
-48.6687731129
 10
-70.8193140721
 20
-48.6784669269
 10
-70.8179205771
 20
-48.6880744082
 10
-70.8159751641
 20
-48.6976144011
 10
-70.8134796097
 20
-48.7070680662
 10
-70.8104392434
 20
-48.7163788831
 10
-70.8068542866
 20
-48.7255609574
 10
-70.802724518
 20
-48.7346001916
 10
-70.7980546026
 20
-48.7433977654
 10
-70.7927889978
 20
-48.75199096
 10
-70.7869832463
 20
-48.760342507
 10
-70.7808086414
 20
-48.7682417705
 10
-70.7743506379
 20
-48.7755906036
 10
-70.7675237809
 20
-48.782487177
 10
-70.7602429989
 20
-48.7890153336
 10
-70.7524249363
 20
-48.7952541014
 10
-70.7441529486
 20
-48.8011244665
 10
-70.7355920308
 20
-48.8064732087
 10
-70.7267567476
 20
-48.8112613263
 10
-70.7176325343
 20
-48.8155278386
 10
-70.7083406917
 20
-48.8192365597
 10
-70.6988961731
 20
-48.8223805691
 10
-70.6892840252
 20
-48.8249667997
 10
-70.6795806898
 20
-48.8269798452
 10
-70.6698116474
 20
-48.8284145725
 10
-70.6599514175
 20
-48.8292761211
 10
-70.65
 20
-48.8295644927
  0
LINE
  5
23E
100
AcDbEntity
  8
0
100
AcDbLine
 62
7
  6
CONTINUOUS
 10
-72.25
 20
38.3464986131
 11
-72.25
 21
-48.4535013869
  0
LINE
  5
23F
100
AcDbEntity
  8
0
100
AcDbLine
 62
253
  6
CONTINUOUS
 10
-70.8225358539
 20
-1.297213079
 11
-70.8204506376
 21
-48.6589929637
  0
LINE
  5
240
100
AcDbEntity
  8
0
100
AcDbLine
 62
253
  6
CONTINUOUS
 10
-70.65
 20
-48.8295644927
 11
-70.65
 21
-50.0535013869
  0
LINE
  5
241
100
AcDbEntity
  8
0
100
AcDbLine
 62
253
  6
CONTINUOUS
 10
-70.65
 20
38.7225617189
 11
-70.65
 21
39.9464986131
  0
LINE
  5
242
100
AcDbEntity
  8
0
100
AcDbLine
 62
253
  6
CONTINUOUS
 10
-72.1153452931
 20
38.3443882837
 11
-72.1173176784
 21
19.3684301342
  0
LINE
  5
243
100
AcDbEntity
  8
0
100
AcDbLine
 62
253
  6
CONTINUOUS
 10
-72.1173176784
 20
19.3684301342
 11
-72.1153459102
 21
-48.4524467285
  0
LINE
  5
244
100
AcDbEntity
  8
0
100
AcDbLine
 62
253
  6
CONTINUOUS
 10
-70.820451454
 20
38.5517335778
 11
-70.8225358539
 21
-1.297213079
  0
LWPOLYLINE
  5
245
100
AcDbEntity
  8
0
100
AcDbPolyline
 62
253
  6
CONTINUOUS
 90
25
 70
0
 10
-46.2959366909
 20
-27.6583169454
 10
-46.2550823311
 20
-27.7532413922
 10
-46.2096694959
 20
-27.8459072927
 10
-46.1596981853
 20
-27.9363148098
 10
-46.1050285972
 20
-28.0247450773
 10
-46.0458005337
 20
-28.1109172695
 10
-45.9824334012
 20
-28.1939886769
 10
-45.9148764755
 20
-28.2739151656
 10
-45.8431804807
 20
-28.3507413159
 10
-45.7679169962
 20
-28.4237576034
 10
-45.6890488783
 20
-28.4929137488
 10
-45.6066132707
 20
-28.5582605387
 10
-45.521293183
 20
-28.6192401219
 10
-45.4330557148
 20
-28.6758032648
 10
-45.3419337665
 20
-28.7279997021
 10
-45.2487090486
 20
-28.7754200686
 10
-45.1533436885
 20
-28.8180108231
 10
-45.0558755587
 20
-28.8558259393
 10
-44.9571999873
 20
-28.8886173239
 10
-44.8573035996
 20
-28.9163157887
 10
-44.7561997702
 20
-28.9389908342
 10
-44.6548239504
 20
-28.9566023732
 10
-44.5534879573
 20
-28.9691370963
 10
-44.4518799739
 20
-28.9766084711
 10
-44.35
 20
-28.9790165368
  0
LWPOLYLINE
  5
246
100
AcDbEntity
  8
0
100
AcDbPolyline
 62
253
  6
CONTINUOUS
 90
16
 70
0
 10
-46.45
 20
-26.8665167646
 10
-46.4497102589
 20
-26.9092018926
 10
-46.448337176
 20
-26.9531511656
 10
-46.4458807512
 20
-26.9983645651
 10
-46.4424668934
 20
-27.0446932042
 10
-46.4379696938
 20
-27.0922859326
 10
-46.4320114254
 20
-27.1415893288
 10
-46.4246063258
 20
-27.1927970208
 10
-46.4157401575
 20
-27.2457153208
 10
-46.4049924809
 20
-27.3002098272
 10
-46.3923793416
 20
-27.3562983094
 10
-46.3778846941
 20
-27.4139629385
 10
-46.3610399628
 20
-27.4730159212
 10
-46.3416889559
 20
-27.5333946422
 10
-46.3199878653
 20
-27.5951616602
 10
-46.2959366909
 20
-27.6583169454
  0
LINE
  5
247
100
AcDbEntity
  8
0
100
AcDbLine
 62
253
  6
CONTINUOUS
 10
-46.45
 20
16.7595139909
 11
-46.45
 21
-26.8665167646
  0
LWPOLYLINE
  5
248
100
AcDbEntity
  8
0
100
AcDbPolyline
 62
253
  6
CONTINUOUS
 90
10
 70
0
 10
-46.2959366909
 20
17.5513141717
 10
-46.3277102997
 20
17.4679224564
 10
-46.3558819164
 20
17.3831641871
 10
-46.380451541
 20
17.2970393283
 10
-46.4015016717
 20
17.2092543682
 10
-46.4189498104
 20
17.1201027406
 10
-46.432548462
 20
17.0304648528
 10
-46.4422151283
 20
16.9406341782
 10
-46.4480323077
 20
16.8503172278
 10
-46.45
 20
16.7595139909
  0
LWPOLYLINE
  5
249
100
AcDbEntity
  8
0
100
AcDbPolyline
 62
7
  6
CONTINUOUS
 90
28
 70
0
 10
70.65
 20
-50.0535013869
 10
70.7420068579
 20
-50.050850968
 10
70.8338192268
 20
-50.0429049619
 10
70.9251227845
 20
-50.0296718997
 10
71.0156566042
 20
-50.0111626489
 10
71.1051022261
 20
-49.9874115774
 10
71.1930475231
 20
-49.9585118655
 10
71.278978448
 20
-49.9246780247
 10
71.3626335674
 20
-49.8860457332
 10
71.4440280748
 20
-49.8425879242
 10
71.5232008828
 20
-49.7942151976
 10
71.599749126
 20
-49.741104031
 10
71.6730369872
 20
-49.6836924105
 10
71.7426033537
 20
-49.6223732682
 10
71.8084285923
 20
-49.5571750429
 10
71.8705628596
 20
-49.488010275
 10
71.9289252642
 20
-49.4148960573
 10
71.9830771636
 20
-49.3383097158
 10
72.0325489914
 20
-49.2588572717
 10
72.0771078692
 20
-49.1769630787
 10
72.1167946419
 20
-49.0926383871
 10
72.1516269702
 20
-49.0058373317
 10
72.1814564369
 20
-48.9167895462
 10
72.2060326174
 20
-48.8260258256
 10
72.2252219656
 20
-48.7340035285
 10
72.23896694
 20
-48.6410616525
 10
72.2472366527
 20
-48.5474549547
 10
72.25
 20
-48.4535013869
  0
LWPOLYLINE
  5
24A
100
AcDbEntity
  8
0
100
AcDbPolyline
 62
253
  6
CONTINUOUS
 90
28
 70
0
 10
70.65
 20
-49.8956074896
 10
70.7340988638
 20
-49.8931922212
 10
70.817982417
 20
-49.8859529994
 10
70.9013703872
 20
-49.8739033534
 10
70.9839941163
 20
-49.8570686088
 10
71.0656115332
 20
-49.8354767839
 10
71.1459627657
 20
-49.8091733393
 10
71.2247089467
 20
-49.7782825581
 10
71.3014670924
 20
-49.7429511763
 10
71.3759835968
 20
-49.7032820271
 10
71.4481439761
 20
-49.6593363341
 10
71.5177797845
 20
-49.6112182628
 10
71.5845638453
 20
-49.5591502402
 10
71.6482456092
 20
-49.503305089
 10
71.7086335613
 20
-49.4438072399
 10
71.7655078167
 20
-49.3808433388
 10
71.8186797831
 20
-49.3146615529
 10
71.8679226105
 20
-49.2455784565
 10
71.9129754629
 20
-49.1739280003
 10
71.953730322
 20
-49.0999155336
 10
71.9901349333
 20
-49.0236878007
 10
72.0220980111
 20
-48.9454601441
 10
72.0494846432
 20
-48.8656004965
 10
72.0721834593
 20
-48.7844429851
 10
72.0901501435
 20
-48.7021930556
 10
72.1033485219
 20
-48.6190803913
 10
72.1117528845
 20
-48.5353888494
 10
72.1153468858
 20
-48.4513910824
  0
LWPOLYLINE
  5
24B
100
AcDbEntity
  8
0
100
AcDbPolyline
 62
253
  6
CONTINUOUS
 90
28
 70
0
 10
70.65
 20
-48.8295644927
 10
70.6599065946
 20
-48.8292851806
 10
70.669736851
 20
-48.828430182
 10
70.6794907693
 20
-48.8269994951
 10
70.6891965389
 20
-48.8249889037
 10
70.6988259704
 20
-48.8224026176
 10
70.7082944949
 20
-48.8192532735
 10
70.7176206437
 20
-48.8155298248
 10
70.7267858856
 20
-48.8112433053
 10
70.7356500582
 20
-48.8064394715
 10
70.7442153065
 20
-48.8010864424
 10
70.7524794855
 20
-48.7952160816
 10
70.7602959973
 20
-48.7889697642
 10
70.7675925533
 20
-48.7824176435
 10
70.7744414421
 20
-48.7754895516
 10
70.7809129321
 20
-48.7681163826
 10
70.7870833977
 20
-48.7602104796
 10
70.7928764645
 20
-48.7518594762
 10
70.7981332776
 20
-48.7432572043
 10
70.8028053835
 20
-48.7344304207
 10
70.8069412357
 20
-48.7253523551
 10
70.8105273404
 20
-48.7161365574
 10
70.8135599707
 20
-48.7068001346
 10
70.8160428535
 20
-48.6973259718
 10
70.8179736746
 20
-48.6877762915
 10
70.8193516627
 20
-48.6781718339
 10
70.8201775892
 20
-48.6684918547
 10
70.820451454
 20
-48.6587363515
  0
LINE
  5
24C
100
AcDbEntity
  8
0
100
AcDbLine
 62
253
  6
CONTINUOUS
 10
-72.1153459102
 20
-48.4524467285
 11
-72.25
 21
-48.4535013869
  0
LWPOLYLINE
  5
24D
100
AcDbEntity
  8
0
100
AcDbPolyline
 62
253
  6
CONTINUOUS
 90
25
 70
0
 10
70.820451454
 20
-48.6587363512
 10
70.9006830922
 20
-48.6583137578
 10
70.9806088381
 20
-48.6570246928
 10
71.0599239685
 20
-48.6548740709
 10
71.1383260883
 20
-48.6518700914
 10
71.2155162832
 20
-48.6480242074
 10
71.2912002596
 20
-48.6433510815
 10
71.3650894663
 20
-48.6378685304
 10
71.436902195
 20
-48.631597457
 10
71.506364654
 20
-48.62456177
 10
71.5732120123
 20
-48.6167882937
 10
71.637189409
 20
-48.608306665
 10
71.6980529253
 20
-48.5991492209
 10
71.7555705144
 20
-48.5893508749
 10
71.8095228857
 20
-48.5789489839
 10
71.8597043418
 20
-48.567983206
 10
71.9059235619
 20
-48.5564953491
 10
71.9480043316
 20
-48.5445292116
 10
71.9857862146
 20
-48.5321304153
 10
72.0191251645
 20
-48.5193462317
 10
72.0478940741
 20
-48.5062254014
 10
72.0719832595
 20
-48.4928179488
 10
72.0913008789
 20
-48.4791749908
 10
72.1057732824
 20
-48.4653485422
 10
72.1153452927
 20
-48.4513913175
  0
LINE
  5
24E
100
AcDbEntity
  8
0
100
AcDbLine
 62
7
  6
CONTINUOUS
 10
-70.65
 20
-50.0535013869
 11
70.65
 21
-50.0535013869
  0
LINE
  5
24F
100
AcDbEntity
  8
0
100
AcDbLine
 62
253
  6
CONTINUOUS
 10
-70.65
 20
-49.8956074896
 11
70.65
 21
-49.8956074896
  0
LINE
  5
250
100
AcDbEntity
  8
0
100
AcDbLine
 62
253
  6
CONTINUOUS
 10
-70.65
 20
-48.8295644927
 11
70.65
 21
-48.8295644927
  0
LWPOLYLINE
  5
251
100
AcDbEntity
  8
0
100
AcDbPolyline
 62
253
  6
CONTINUOUS
 90
25
 70
0
 10
-70.8204520079
 20
-48.6589772124
 10
-70.9006697903
 20
-48.6586627977
 10
-70.980581817
 20
-48.6574821475
 10
-71.0598835222
 20
-48.6554397609
 10
-71.1382726661
 20
-48.65254342
 10
-71.2154504872
 20
-48.6488041602
 10
-71.2911228403
 20
-48.6442362283
 10
-71.3650013183
 20
-48.6388570279
 10
-71.4368043508
 20
-48.6326870534
 10
-71.5062582776
 20
-48.6257498119
 10
-71.5730983914
 20
-48.6180717333
 10
-71.637069947
 20
-48.6096820701
 10
-71.697929132
 20
-48.6006127857
 10
-71.755443996
 20
-48.5908984326
 10
-71.8093953347
 20
-48.5805760209
 10
-71.8595775254
 20
-48.5696848772
 10
-71.9057993105
 20
-48.5582664947
 10
-71.9478845267
 20
-48.5463643754
 10
-71.9856727762
 20
-48.534023864
 10
-72.019020038
 20
-48.5212919756
 10
-72.047799217
 20
-48.5082172162
 10
-72.071900628
 20
-48.4948493984
 10
-72.0912324145
 20
-48.4812394513
 10
-72.1057208977
 20
-48.4674392258
 10
-72.1153108584
 20
-48.4535012981
  0
LINE
  5
252
100
AcDbEntity
  8
0
100
AcDbLine
 62
253
  6
CONTINUOUS
 10
72.1153452931
 20
-48.4513910574
 11
72.25
 21
-48.4535013869
  0
LINE
  5
253
100
AcDbEntity
  8
0
100
AcDbLine
 62
7
  6
CONTINUOUS
 10
-45.15
 20
16.6965102812
 11
-45.15
 21
-26.8035016883
  0
LINE
  5
254
100
AcDbEntity
  8
0
100
AcDbLine
 62
253
  6
CONTINUOUS
 10
-44.35
 20
-27.6035013869
 11
-44.35
 21
-28.9790165368
  0
LINE
  5
255
100
AcDbEntity
  8
0
100
AcDbLine
 62
253
  6
CONTINUOUS
 10
-44.35
 20
17.4964986131
 11
-44.35
 21
18.872013763
  0
LWPOLYLINE
  5
256
100
AcDbEntity
  8
0
100
AcDbPolyline
 62
253
  6
CONTINUOUS
 90
18
 70
0
 10
-45.0913075058
 20
16.9972646843
 10
-45.0924430362
 20
17.0020484416
 10
-45.0988567437
 20
17.0089547211
 10
-45.1105204994
 20
17.0179532337
 10
-45.1273831493
 20
17.0290045146
 10
-45.1493707384
 20
17.0420600957
 10
-45.1763868351
 20
17.0570627189
 10
-45.2083129541
 20
17.0739465868
 10
-45.245009076
 20
17.0926376513
 10
-45.2863142616
 20
17.1130539386
 10
-45.3320473576
 20
17.1351059083
 10
-45.3820077909
 20
17.1586968466
 10
-45.4359764488
 20
17.18372329
 10
-45.4937166391
 20
17.2100754793
 10
-45.5549751292
 20
17.2376378411
 10
-45.6194832559
 20
17.2662894943
 10
-45.686958104
 20
17.2959047806
 10
-45.8296125455
 20
17.3575030574
  0
LWPOLYLINE
  5
257
100
AcDbEntity
  8
0
100
AcDbPolyline
 62
253
  6
CONTINUOUS
 90
16
 70
0
 10
-45.0913087857
 20
-27.1042679775
 10
-45.092444307
 20
-27.1090517398
 10
-45.0988579962
 20
-27.1159580206
 10
-45.1105217248
 20
-27.124956531
 10
-45.127384339
 20
-27.136007806
 10
-45.1493718842
 20
-27.149063378
 10
-45.1763879294
 20
-27.1640659889
 10
-45.2083139898
 20
-27.1809498416
 10
-45.245010047
 20
-27.1996408884
 10
-45.2863151625
 20
-27.2200571556
 10
-45.3320481839
 20
-27.2421091034
 10
-45.3820085393
 20
-27.2657000182
 10
-45.4359771169
 20
-27.2907264371
 10
-45.493717226
 20
-27.3170786014
 10
-45.5549756349
 20
-27.3446409379
 10
-45.6194836819
 20
-27.3732925663
  0
LWPOLYLINE
  5
258
100
AcDbEntity
  8
0
100
AcDbPolyline
 62
7
  6
CONTINUOUS
 90
31
 70
0
 10
4.2166806432
 20
-32.3771294735
 10
4.2410946342
 20
-32.3763456035
 10
4.2653683122
 20
-32.3747923424
 10
4.2895016772
 20
-32.3724696885
 10
4.3135686277
 20
-32.3694294141
 10
4.3374952652
 20
-32.3656197412
 10
4.3610598936
 20
-32.3608853411
 10
4.3842601411
 20
-32.3552376687
 10
4.4070983795
 20
-32.3486652556
 10
4.4293600282
 20
-32.3409783838
 10
4.4510855394
 20
-32.3321662342
 10
4.4722344608
 20
-32.3222396
 10
4.4924708547
 20
-32.3110411749
 10
4.51175664
 20
-32.298515506
 10
4.5301298979
 20
-32.2847180036
 10
4.5473689335
 20
-32.2696576504
 10
4.5633970459
 20
-32.2532383841
 10
4.5782909361
 20
-32.2355562106
 10
4.5920590122
 20
-32.2169082197
 10
4.6046933868
 20
-32.1973005274
 10
4.6162019474
 20
-32.176726967
 10
4.6266167648
 20
-32.1554662183
 10
4.6359482589
 20
-32.13353845
 10
4.6441860099
 20
-32.1109234535
 10
4.651330829
 20
-32.0878393558
 10
4.6574051222
 20
-32.0642711611
 10
4.6623864835
 20
-32.0402338356
 10
4.666208507
 20
-32.0159904643
 10
4.6688490572
 20
-31.9916287417
 10
4.6703302696
 20
-31.9670609626
 10
4.6706521441
 20
-31.9422871205
  0
LINE
  5
259
100
AcDbEntity
  8
0
100
AcDbLine
 62
7
  6
CONTINUOUS
 10
-4.616107
 20
-33.9313023869
 11
-4.101097
 21
-33.9313023869
  0
LINE
  5
25A
100
AcDbEntity
  8
0
100
AcDbLine
 62
7
  6
CONTINUOUS
 10
-2.984285
 20
-33.9313023869
 11
-2.399877
 21
-33.9313023869
  0
LINE
  5
25B
100
AcDbEntity
  8
0
100
AcDbLine
 62
7
  6
CONTINUOUS
 10
-2.085272
 20
-33.9313023869
 11
-1.526183
 21
-33.9313023869
  0
LINE
  5
25C
100
AcDbEntity
  8
0
100
AcDbLine
 62
7
  6
CONTINUOUS
 10
-0.714487
 20
-33.9313023869
 11
-0.632524
 21
-33.9313023869
  0
LINE
  5
25D
100
AcDbEntity
  8
0
100
AcDbLine
 62
7
  6
CONTINUOUS
 10
0.182406
 20
-33.9313023869
 11
0.754112
 21
-33.9313023869
  0
LINE
  5
25E
100
AcDbEntity
  8
0
100
AcDbLine
 62
7
  6
CONTINUOUS
 10
0.84588
 20
-33.9313023869
 11
1.423947
 21
-33.9313023869
  0
LINE
  5
25F
100
AcDbEntity
  8
0
100
AcDbLine
 62
7
  6
CONTINUOUS
 10
2.532466
 20
-33.9313023869
 11
3.148408
 21
-33.9313023869
  0
LINE
  5
260
100
AcDbEntity
  8
0
100
AcDbLine
 62
7
  6
CONTINUOUS
 10
3.3200188023
 20
-33.9313027413
 11
3.9020753449
 21
-33.9313027413
  0
LINE
  5
261
100
AcDbEntity
  8
0
100
AcDbLine
 62
7
  6
CONTINUOUS
 10
4.7970156219
 20
-33.9313027413
 11
5.3591482119
 21
-33.9313027413
  0
LINE
  5
262
100
AcDbEntity
  8
0
100
AcDbLine
 62
7
  6
CONTINUOUS
 10
1.585207
 20
-33.3723823869
 11
2.381074
 21
-33.3723823869
  0
LINE
  5
263
100
AcDbEntity
  8
0
100
AcDbLine
 62
7
  6
CONTINUOUS
 10
1.704751
 20
-32.9398923869
 11
2.26428
 21
-32.9398923869
  0
LINE
  5
264
100
AcDbEntity
  8
0
100
AcDbLine
 62
7
  6
CONTINUOUS
 10
3.9020753449
 20
-32.8356533116
 11
4.2154209623
 21
-32.8356533116
  0
LWPOLYLINE
  5
265
100
AcDbEntity
  8
0
100
AcDbPolyline
 62
7
  6
CONTINUOUS
 90
25
 70
0
 10
3.3200188023
 20
-31.1643087279
 10
3.3797996866
 20
-31.1555998774
 10
3.4395413972
 20
-31.1473977379
 10
3.499243934
 20
-31.1397023146
 10
3.5588690561
 20
-31.1324618945
 10
3.6184550045
 20
-31.1257282
 10
3.6781165019
 20
-31.1196563901
 10
3.7378657348
 20
-31.1142398674
 10
3.7976905167
 20
-31.1094852389
 10
3.8576690109
 20
-31.1055674725
 10
3.9178128326
 20
-31.1024792876
 10
3.9781103666
 20
-31.1002279723
 10
4.0386049304
 20
-31.099010348
 10
4.099358535
 20
-31.0988238725
 10
4.1603091694
 20
-31.0996710899
 10
4.2213141188
 20
-31.101756449
 10
4.2823802696
 20
-31.1050114258
 10
4.3435007353
 20
-31.1095045361
 10
4.4045121415
 20
-31.1156457831
 10
4.46554886
 20
-31.1233464429
 10
4.5264765189
 20
-31.1326952109
 10
4.5867286283
 20
-31.1443682037
 10
4.6461163581
 20
-31.158590764
 10
4.7048285384
 20
-31.1751374698
 10
4.7628651691
 20
-31.1940082719
  0
LWPOLYLINE
  5
266
100
AcDbEntity
  8
0
100
AcDbPolyline
 62
253
  6
CONTINUOUS
 90
15
 70
0
 10
71.5757055761
 20
-27.6462654197
 10
71.6397109818
 20
-27.6438289015
 10
71.7005948847
 20
-27.6411983142
 10
71.7581247602
 20
-27.6383837045
 10
71.8120808932
 20
-27.6353958218
 10
71.8622572174
 20
-27.6322460773
 10
71.9084621019
 20
-27.6289465002
 10
71.9505190835
 20
-27.6255096921
 10
71.9882675405
 20
-27.6219487788
 10
72.0215633058
 20
-27.6182773599
 10
72.0502792181
 20
-27.614509457
 10
72.0743056071
 20
-27.6106594604
 10
72.0935507124
 20
-27.6067420737
 10
72.1079410342
 20
-27.602772258
 10
72.1174216137
 20
-27.5987651746
  0
LWPOLYLINE
  5
267
100
AcDbEntity
  8
0
100
AcDbPolyline
 62
253
  6
CONTINUOUS
 90
15
 70
0
 10
71.5757085684
 20
-27.5700419199
 10
71.6397140182
 20
-27.5676119904
 10
71.7005979531
 20
-27.5649887252
 10
71.7581278479
 20
-27.5621821431
 10
71.8120839868
 20
-27.5592029628
 10
71.8622603027
 20
-27.5560625622
 10
71.9084651645
 20
-27.552772935
 10
71.9505221085
 20
-27.5493466448
 10
71.9882705126
 20
-27.5457967773
 10
72.0215662097
 20
-27.5421368898
 10
72.0502820382
 20
-27.5383809601
 10
72.074308328
 20
-27.5345433326
 10
72.0935533187
 20
-27.5306386639
 10
72.1079435109
 20
-27.5266818666
 10
72.117423946
 20
-27.5226880521
  0
LINE
  5
268
100
AcDbEntity
  8
0
100
AcDbLine
 62
253
  6
CONTINUOUS
 10
71.4393190284
 20
-27.650519804
 11
71.5757055761
 21
-27.6462654197
  0
LINE
  5
269
100
AcDbEntity
  8
0
100
AcDbLine
 62
253
  6
CONTINUOUS
 10
71.4393218998
 20
-27.5742854246
 11
71.5757085684
 21
-27.5700419199
  0
LWPOLYLINE
  5
26A
100
AcDbEntity
  8
0
100
AcDbPolyline
 62
253
  6
CONTINUOUS
 90
25
 70
0
 10
44.35
 20
-28.9790165368
 10
44.4514138403
 20
-28.976619155
 10
44.5525183882
 20
-28.9692217817
 10
44.6533136437
 20
-28.9568243785
 10
44.7540253498
 20
-28.9394448648
 10
44.8544277634
 20
-28.9170651672
 10
44.9538436555
 20
-28.889631218
 10
45.0524083074
 20
-28.8570380919
 10
45.1499864378
 20
-28.8193904016
 10
45.2454949733
 20
-28.7769483575
 10
45.3388389836
 20
-28.7296635285
 10
45.4301133991
 20
-28.6775839128
 10
45.5185199377
 20
-28.6211143643
 10
45.6040188847
 20
-28.5602104576
 10
45.6866499548
 20
-28.494916115
 10
45.7657340107
 20
-28.4257687436
 10
45.8412409728
 20
-28.3527132866
 10
45.9132009206
 20
-28.275804287
 10
45.9810249553
 20
-28.1957436228
 10
46.0446649437
 20
-28.1124788478
 10
46.1041690189
 20
-28.0260619526
 10
46.1590926812
 20
-27.9373515847
 10
46.209287764
 20
-27.8466338808
 10
46.2549024339
 20
-27.7536223898
 10
46.2959366909
 20
-27.6583169454
  0
LINE
  5
26B
100
AcDbEntity
  8
0
100
AcDbLine
 62
253
  6
CONTINUOUS
 10
71.2935167736
 20
-27.6538965368
 11
71.4393190284
 21
-27.650519804
  0
LINE
  5
26C
100
AcDbEntity
  8
0
100
AcDbLine
 62
253
  6
CONTINUOUS
 10
71.2935194867
 20
-27.5776544748
 11
71.4393218998
 21
-27.5742854246
  0
LINE
  5
26D
100
AcDbEntity
  8
0
100
AcDbLine
 62
253
  6
CONTINUOUS
 10
-45.8750247008
 20
-26.8600181614
 11
-46.0321286936
 21
-26.8631725467
  0
LINE
  5
26E
100
AcDbEntity
  8
0
100
AcDbLine
 62
253
  6
CONTINUOUS
 10
71.1405240459
 20
-27.6563440824
 11
71.2935167736
 21
-27.6538965368
  0
LINE
  5
26F
100
AcDbEntity
  8
0
100
AcDbLine
 62
253
  6
CONTINUOUS
 10
71.1405265721
 20
-27.5800976519
 11
71.2935194867
 21
-27.5776544748
  0
LINE
  5
270
100
AcDbEntity
  8
0
100
AcDbLine
 62
253
  6
CONTINUOUS
 10
-46.0321286936
 20
-26.8631725467
 11
-46.1963825804
 21
-26.8653059418
  0
LINE
  5
271
100
AcDbEntity
  8
0
100
AcDbLine
 62
253
  6
CONTINUOUS
 10
70.982675821
 20
-27.6578250863
 11
71.1405240459
 21
-27.6563440824
  0
LINE
  5
272
100
AcDbEntity
  8
0
100
AcDbLine
 62
253
  6
CONTINUOUS
 10
70.9826781405
 20
-27.5815776681
 11
71.1405265721
 21
-27.5800976519
  0
LWPOLYLINE
  5
273
100
AcDbEntity
  8
0
100
AcDbPolyline
 62
253
  6
CONTINUOUS
 90
3
 70
0
 10
-46.1963825804
 20
-26.8653059418
 10
-46.3649759317
 20
-26.8663818439
 10
-46.45
 20
-26.8665167646
  0
LINE
  5
274
100
AcDbEntity
  8
0
100
AcDbLine
 62
253
  6
CONTINUOUS
 10
70.8223832817
 20
-27.5820719352
 11
70.9826781405
 21
-27.5815776681
  0
LINE
  5
275
100
AcDbEntity
  8
0
100
AcDbLine
 62
253
  6
CONTINUOUS
 10
70.8223811787
 20
-27.6583169454
 11
70.982675821
 21
-27.6578250863
  0
LINE
  5
276
100
AcDbEntity
  8
0
100
AcDbLine
 62
7
  6
CONTINUOUS
 10
3.8826972541
 20
-32.3771294735
 11
4.2166806432
 21
-32.3771294735
  0
LINE
  5
277
100
AcDbEntity
  8
0
100
AcDbLine
 62
7
  6
CONTINUOUS
 10
-5.503668
 20
-31.1315993869
 11
-4.86882
 21
-31.1315993869
  0
LINE
  5
278
100
AcDbEntity
  8
0
100
AcDbLine
 62
7
  6
CONTINUOUS
 10
-3.785169
 20
-31.1315993869
 11
-3.20116
 21
-31.1315993869
  0
LINE
  5
279
100
AcDbEntity
  8
0
100
AcDbLine
 62
7
  6
CONTINUOUS
 10
-1.832475
 20
-31.1315993869
 11
-1.24855
 21
-31.1315993869
  0
LINE
  5
27A
100
AcDbEntity
  8
0
100
AcDbLine
 62
7
  6
CONTINUOUS
 10
-0.085906
 20
-31.1315993869
 11
0.492308
 21
-31.1315993869
  0
LINE
  5
27B
100
AcDbEntity
  8
0
100
AcDbLine
 62
7
  6
CONTINUOUS
 10
1.724045
 20
-31.1315993869
 11
2.28939
 21
-31.1315993869
  0
LINE
  5
27C
100
AcDbEntity
  8
0
100
AcDbLine
 62
7
  6
CONTINUOUS
 10
-2.984285
 20
-31.1314313869
 11
-2.399877
 21
-31.1314313869
  0
LINE
  5
27D
100
AcDbEntity
  8
0
100
AcDbLine
 62
253
  6
CONTINUOUS
 10
-44.35
 20
-28.9790165368
 11
44.35
 21
-28.9790165368
  0
LINE
  5
27E
100
AcDbEntity
  8
0
100
AcDbLine
 62
253
  6
CONTINUOUS
 10
70.822381179
 20
-27.6583107103
 11
46.2959366909
 21
-27.6583169454
  0
LINE
  5
27F
100
AcDbEntity
  8
0
100
AcDbLine
 62
7
  6
CONTINUOUS
 10
-44.3500199327
 20
-27.6035013869
 11
44.3500114044
 21
-27.6035013869
  0
LINE
  5
280
100
AcDbEntity
  8
0
100
AcDbLine
 62
253
  6
CONTINUOUS
 10
72.1174239464
 20
-27.5226880521
 11
72.25
 21
-27.5226880521
  0
LINE
  5
281
100
AcDbEntity
  8
0
100
AcDbLine
 62
253
  6
CONTINUOUS
 10
-72.1174239464
 20
-27.5226880521
 11
-72.25
 21
-27.5226880521
  0
LINE
  5
282
100
AcDbEntity
  8
0
100
AcDbLine
 62
253
  6
CONTINUOUS
 10
-46.2959366909
 20
-27.6583169454
 11
-70.9026818397
 21
-27.6581954843
  0
LINE
  5
283
100
AcDbEntity
  8
0
100
AcDbLine
 62
253
  6
CONTINUOUS
 10
-70.8223832817
 20
-27.5820719355
 11
-70.9826781409
 21
-27.5815776683
  0
LINE
  5
284
100
AcDbEntity
  8
0
100
AcDbLine
 62
253
  6
CONTINUOUS
 10
46.2803159361
 20
-26.8659776593
 11
46.45
 21
-26.8665167646
  0
LINE
  5
285
100
AcDbEntity
  8
0
100
AcDbLine
 62
253
  6
CONTINUOUS
 10
-70.9026818397
 20
-27.6581954843
 11
-71.0620576129
 21
-27.6572071655
  0
LINE
  5
286
100
AcDbEntity
  8
0
100
AcDbLine
 62
253
  6
CONTINUOUS
 10
-70.9826781409
 20
-27.5815776683
 11
-71.140526573
 21
-27.5800976521
  0
LINE
  5
287
100
AcDbEntity
  8
0
100
AcDbLine
 62
253
  6
CONTINUOUS
 10
46.1135352168
 20
-26.8643695676
 11
46.2803159361
 21
-26.8659776593
  0
LINE
  5
288
100
AcDbEntity
  8
0
100
AcDbLine
 62
253
  6
CONTINUOUS
 10
-71.0620576129
 20
-27.6572071655
 11
-71.2177754436
 21
-27.6552391327
  0
LINE
  5
289
100
AcDbEntity
  8
0
100
AcDbLine
 62
253
  6
CONTINUOUS
 10
-71.140526573
 20
-27.5800976521
 11
-71.293519488
 21
-27.577654475
  0
LINE
  5
28A
100
AcDbEntity
  8
0
100
AcDbLine
 62
253
  6
CONTINUOUS
 10
-71.2177754436
 20
-27.6552391327
 11
-71.367458766
 21
-27.6523214219
  0
LWPOLYLINE
  5
28B
100
AcDbEntity
  8
0
100
AcDbPolyline
 62
253
  6
CONTINUOUS
 90
3
 70
0
 10
45.8750246698
 20
-26.860018161
 10
45.9525115068
 20
-26.8617200042
 10
46.1135352168
 20
-26.8643695676
  0
LINE
  5
28C
100
AcDbEntity
  8
0
100
AcDbLine
 62
253
  6
CONTINUOUS
 10
-71.293519488
 20
-27.577654475
 11
-71.4393219013
 21
-27.5742854248
  0
LWPOLYLINE
  5
28D
100
AcDbEntity
  8
0
100
AcDbPolyline
 62
253
  6
CONTINUOUS
 90
17
 70
0
 10
-71.367458766
 20
-27.6523214219
 10
-71.5088231127
 20
-27.6484985633
 10
-71.5757055751
 20
-27.6462654196
 10
-71.6397109807
 20
-27.6438289014
 10
-71.7005948835
 20
-27.6411983141
 10
-71.758124759
 20
-27.6383837044
 10
-71.812080892
 20
-27.6353958217
 10
-71.8622572162
 20
-27.6322460772
 10
-71.9084621008
 20
-27.6289465001
 10
-71.9505190825
 20
-27.6255096921
 10
-71.9882675395
 20
-27.6219487788
 10
-72.0215633049
 20
-27.6182773598
 10
-72.0502792173
 20
-27.614509457
 10
-72.0743056064
 20
-27.6106594603
 10
-72.0935507118
 20
-27.6067420736
 10
-72.1079410338
 20
-27.602772258
 10
-72.1174216134
 20
-27.5987651746
  0
LWPOLYLINE
  5
28E
100
AcDbEntity
  8
0
100
AcDbPolyline
 62
253
  6
CONTINUOUS
 90
16
 70
0
 10
-71.4393219013
 20
-27.5742854248
 10
-71.5757085702
 20
-27.5700419201
 10
-71.6397140201
 20
-27.5676119906
 10
-71.7005979551
 20
-27.5649887254
 10
-71.7581278499
 20
-27.5621821433
 10
-71.8120839888
 20
-27.5592029629
 10
-71.8622603047
 20
-27.5560625623
 10
-71.9084651665
 20
-27.5527729351
 10
-71.9505221104
 20
-27.549346645
 10
-71.9882705144
 20
-27.5457967774
 10
-72.0215662113
 20
-27.5421368899
 10
-72.0502820397
 20
-27.5383809602
 10
-72.0743083292
 20
-27.5345433327
 10
-72.0935533197
 20
-27.530638664
 10
-72.1079435116
 20
-27.5266818666
 10
-72.1174239464
 20
-27.5226880521
  0
LWPOLYLINE
  5
28F
100
AcDbEntity
  8
0
100
AcDbPolyline
 62
7
  6
CONTINUOUS
 90
10
 70
0
 10
4.34051343
 20
-31.5920736358
 10
4.2918405595
 20
-31.5871551261
 10
4.2425592504
 20
-31.5839084596
 10
4.1926695026
 20
-31.5823336435
 10
4.1420919292
 20
-31.5824098425
 10
4.0909059171
 20
-31.5841578952
 10
4.0393496275
 20
-31.587640314
 10
3.9875024473
 20
-31.5928779296
 10
3.9352849895
 20
-31.5998498912
 10
3.8826972541
 20
-31.6085561828
  0
LWPOLYLINE
  5
290
100
AcDbEntity
  8
0
100
AcDbPolyline
 62
7
  6
CONTINUOUS
 90
45
 70
0
 10
4.7628651691
 20
-31.1940082719
 10
4.7958823119
 20
-31.2074834496
 10
4.8291150535
 20
-31.2239292348
 10
4.8625633941
 20
-31.2433455646
 10
4.8964210493
 20
-31.2655976081
 10
4.9304943035
 20
-31.2908200392
 10
4.9642020091
 20
-31.3194170216
 10
4.9978356928
 20
-31.3515404416
 10
5.0311038279
 20
-31.3870381421
 10
5.0625506865
 20
-31.4258581891
 10
5.0922164041
 20
-31.4685867784
 10
5.1200608452
 20
-31.5146373352
 10
5.1445078754
 20
-31.5621988574
 10
5.1650324686
 20
-31.611424842
 10
5.1821596509
 20
-31.6621615846
 10
5.1958883653
 20
-31.7121375351
 10
5.2058635215
 20
-31.7609125486
 10
5.2124402098
 20
-31.808926881
 10
5.2166826438
 20
-31.8552297957
 10
5.2187250038
 20
-31.8995082964
 10
5.2184331097
 20
-31.9420755947
 10
5.2164686348
 20
-31.9829203226
 10
5.2129021518
 20
-32.0220088016
 10
5.2076630881
 20
-32.0593748944
 10
5.2012013999
 20
-32.0951085364
 10
5.193535299
 20
-32.1292022357
 10
5.1846465736
 20
-32.1616636379
 10
5.1749305445
 20
-32.19260537
 10
5.1644128222
 20
-32.2220205715
 10
5.1530677962
 20
-32.2499162282
 10
5.1412139558
 20
-32.2764257213
 10
5.1288907021
 20
-32.3015424032
 10
5.1160586341
 20
-32.3252730204
 10
5.1029180376
 20
-32.3477710311
 10
5.0894802801
 20
-32.3690493384
 10
5.0757339941
 20
-32.3890951139
 10
5.0618453629
 20
-32.4080232076
 10
5.0478076836
 20
-32.4258010316
 10
5.033627659
 20
-32.4424612319
 10
5.0194915813
 20
-32.4582164988
 10
5.00540612
 20
-32.4730649058
 10
4.9913646056
 20
-32.4870084184
 10
4.9775333216
 20
-32.5002655545
 10
4.9639411811
 20
-32.5128509274
 10
4.9505592711
 20
-32.5247499488
  0
LWPOLYLINE
  5
291
100
AcDbEntity
  8
0
100
AcDbPolyline
 62
7
  6
CONTINUOUS
 90
3
 70
0
 10
4.8225031649
 20
-32.6244258237
 10
4.8501382169
 20
-32.6376699873
 10
4.8759442473
 20
-32.6523402377
  0
LWPOLYLINE
  5
292
100
AcDbEntity
  8
0
100
AcDbPolyline
 62
253
  6
CONTINUOUS
 90
18
 70
0
 10
-45.15
 20
16.6964986131
 10
-45.1527833993
 20
16.7006200157
 10
-45.1611216783
 20
16.7047237699
 10
-45.1749791313
 20
16.7087923026
 10
-45.1942964186
 20
16.7128081919
 10
-45.2189908208
 20
16.7167542412
 10
-45.2489565927
 20
16.7206135527
 10
-45.2840654165
 20
16.7243696004
 10
-45.3241669509
 20
16.7280063003
 10
-45.3690894751
 20
16.7315080795
 10
-45.4186406242
 20
16.7348599428
 10
-45.4726082127
 20
16.7380475371
 10
-45.5307611432
 20
16.7410572125
 10
-45.5928503962
 20
16.7438760811
 10
-45.658610096
 20
16.7464920722
 10
-45.7277586497
 20
16.7488939837
 10
-45.7999999527
 20
16.7510715301
 10
-45.9525114944
 20
16.7547172303
  0
LWPOLYLINE
  5
293
100
AcDbEntity
  8
0
100
AcDbPolyline
 62
253
  6
CONTINUOUS
 90
16
 70
0
 10
-45.15
 20
-26.8035013869
 10
-45.1527833998
 20
-26.8076227897
 10
-45.1611216801
 20
-26.8117265441
 10
-45.1749791352
 20
-26.8157950771
 10
-45.1942964253
 20
-26.8198109667
 10
-45.2189908309
 20
-26.8237570161
 10
-45.2489566068
 20
-26.8276163278
 10
-45.2840654348
 20
-26.8313723757
 10
-45.3241669736
 20
-26.8350090756
 10
-45.3690895023
 20
-26.8385108549
 10
-45.4186406558
 20
-26.8418627182
 10
-45.4726082483
 20
-26.8450503124
 10
-45.5307611823
 20
-26.8480599877
 10
-45.5928504382
 20
-26.8508788563
 10
-45.6586101401
 20
-26.8534948472
 10
-45.7277586949
 20
-26.8558967585
  0
LINE
  5
294
100
AcDbEntity
  8
0
100
AcDbLine
 62
253
  6
CONTINUOUS
 10
-45.7277586949
 20
-26.8558967585
 11
-45.8750247008
 21
-26.8600181614
  0
LWPOLYLINE
  5
295
100
AcDbEntity
  8
0
100
AcDbPolyline
 62
7
  6
CONTINUOUS
 90
22
 70
0
 10
4.8759442473
 20
-32.6523402377
 10
4.8999212561
 20
-32.6684365449
 10
4.9219510325
 20
-32.6862249988
 10
4.9421517873
 20
-32.7054394353
 10
4.9608781526
 20
-32.7252814603
 10
4.9781070705
 20
-32.7455964054
 10
4.9938615988
 20
-32.7665389051
 10
5.0085655435
 20
-32.78777455
 10
5.0222770641
 20
-32.8092674986
 10
5.034938001
 20
-32.8310535744
 10
5.0467976807
 20
-32.8529058827
 10
5.0578836748
 20
-32.8748042741
 10
5.0681684118
 20
-32.8967688934
 10
5.0778185029
 20
-32.9186333004
 10
5.0868397022
 20
-32.9403539138
 10
5.0952262558
 20
-32.9619743213
 10
5.1031275132
 20
-32.9834588429
 10
5.1105361394
 20
-33.0047685791
 10
5.1174594695
 20
-33.0259424378
 10
5.1240688576
 20
-33.0470614482
 10
5.1303509011
 20
-33.0681223994
 10
5.1363190026
 20
-33.089128505
  0
LINE
  5
296
100
AcDbEntity
  8
0
100
AcDbLine
 62
7
  6
CONTINUOUS
 10
-1.400068
 20
-32.1031483869
 11
-0.714487
 21
-33.9313023869
  0
LINE
  5
297
100
AcDbEntity
  8
0
100
AcDbLine
 62
7
  6
CONTINUOUS
 10
-5.503668
 20
-31.1315993869
 11
-4.616107
 21
-33.9313023869
  0
LINE
  5
298
100
AcDbEntity
  8
0
100
AcDbLine
 62
7
  6
CONTINUOUS
 10
-4.86882
 20
-31.1315993869
 11
-4.335146
 21
-33.0587213869
  0
LINE
  5
299
100
AcDbEntity
  8
0
100
AcDbLine
 62
253
  6
CONTINUOUS
 10
46.1367933045
 20
-27.5933391911
 11
46.295936691
 21
-27.6583166699
  0
LINE
  5
29A
100
AcDbEntity
  8
0
100
AcDbLine
 62
253
  6
CONTINUOUS
 10
45.9804386087
 20
-27.5283559839
 11
46.1367933045
 21
-27.5933391911
  0
LINE
  5
29B
100
AcDbEntity
  8
0
100
AcDbLine
 62
253
  6
CONTINUOUS
 10
45.8296125149
 20
-27.4645057935
 11
45.9804386087
 21
-27.5283559839
  0
LWPOLYLINE
  5
29C
100
AcDbEntity
  8
0
100
AcDbPolyline
 62
7
  6
CONTINUOUS
 90
19
 70
0
 10
4.5414020603
 20
-33.0821643352
 10
4.5319922007
 20
-33.0590853216
 10
4.5214198156
 20
-33.0367335599
 10
4.5096849051
 20
-33.0151090746
 10
4.4967590189
 20
-32.9941040183
 10
4.4826706073
 20
-32.9738262825
 10
4.4675050212
 20
-32.954599508
 10
4.4512752708
 20
-32.9364069253
 10
4.4339683458
 20
-32.9192653618
 10
4.4156305666
 20
-32.9035488702
 10
4.3961850156
 20
-32.8892706218
 10
4.3757086103
 20
-32.8764175082
 10
4.3544784235
 20
-32.8653241735
 10
4.3324535192
 20
-32.8561294719
 10
4.3096748334
 20
-32.8486946029
 10
4.2865422468
 20
-32.8429377262
 10
4.2631890528
 20
-32.8388315696
 10
4.239481958
 20
-32.8364034295
 10
4.2154209623
 20
-32.8356533116
  0
LINE
  5
29D
100
AcDbEntity
  8
0
100
AcDbLine
 62
7
  6
CONTINUOUS
 10
-1.24855
 20
-31.1315993869
 11
-0.670314
 21
-32.6860033869
  0
LINE
  5
29E
100
AcDbEntity
  8
0
100
AcDbLine
 62
7
  6
CONTINUOUS
 10
2.28939
 20
-31.1315993869
 11
3.148408
 21
-33.9313023869
  0
LINE
  5
29F
100
AcDbEntity
  8
0
100
AcDbLine
 62
7
  6
CONTINUOUS
 10
2.381074
 20
-33.3723823869
 11
2.532466
 21
-33.9313023869
  0
LINE
  5
2A0
100
AcDbEntity
  8
0
100
AcDbLine
 62
7
  6
CONTINUOUS
 10
1.995737
 20
-31.9008863869
 11
2.26428
 21
-32.9398923869
  0
LINE
  5
2A1
100
AcDbEntity
  8
0
100
AcDbLine
 62
7
  6
CONTINUOUS
 10
0.492308
 20
-31.1315993869
 11
0.754112
 21
-33.9313023869
  0
LINE
  5
2A2
100
AcDbEntity
  8
0
100
AcDbLine
 62
7
  6
CONTINUOUS
 10
0.062337
 20
-32.1107703869
 11
0.182406
 21
-33.9313023869
  0
LINE
  5
2A3
100
AcDbEntity
  8
0
100
AcDbLine
 62
7
  6
CONTINUOUS
 10
-2.984285
 20
-31.1314313869
 11
-2.984285
 21
-33.9313023869
  0
LINE
  5
2A4
100
AcDbEntity
  8
0
100
AcDbLine
 62
7
  6
CONTINUOUS
 10
-2.399877
 20
-31.1314313869
 11
-2.399877
 21
-33.9313023869
  0
LINE
  5
2A5
100
AcDbEntity
  8
0
100
AcDbLine
 62
7
  6
CONTINUOUS
 10
-1.400068
 20
-32.1031483869
 11
-1.526183
 21
-33.9313023869
  0
LINE
  5
2A6
100
AcDbEntity
  8
0
100
AcDbLine
 62
253
  6
CONTINUOUS
 10
-46.1367933079
 20
17.4863364479
 11
-46.295936691
 21
17.5513139268
  0
LINE
  5
2A7
100
AcDbEntity
  8
0
100
AcDbLine
 62
253
  6
CONTINUOUS
 10
-45.9804386228
 20
17.4213532432
 11
-46.1367933079
 21
17.4863364479
  0
LINE
  5
2A8
100
AcDbEntity
  8
0
100
AcDbLine
 62
253
  6
CONTINUOUS
 10
-45.8296125455
 20
17.3575030574
 11
-45.9804386228
 21
17.4213532432
  0
LWPOLYLINE
  5
2A9
100
AcDbEntity
  8
0
100
AcDbPolyline
 62
7
  6
CONTINUOUS
 90
8
 70
0
 10
4.6309603119
 20
-33.3569361424
 10
4.6192760742
 20
-33.3173723799
 10
4.6073354396
 20
-33.2779166914
 10
4.5951381829
 20
-33.2385741173
 10
4.5824678609
 20
-33.1993291396
 10
4.569252326
 20
-33.1601765903
 10
4.5555637258
 20
-33.1211216528
 10
4.5414020603
 20
-33.0821643352
  0
LINE
  5
2AA
100
AcDbEntity
  8
0
100
AcDbLine
 62
7
  6
CONTINUOUS
 10
4.7970156219
 20
-33.9313027413
 11
4.6995524819
 21
-33.5972440386
  0
LWPOLYLINE
  5
2AB
100
AcDbEntity
  8
0
100
AcDbPolyline
 62
7
  6
CONTINUOUS
 90
4
 70
0
 10
4.6995524819
 20
-33.5972440386
 10
4.6764525459
 20
-33.5164990155
 10
4.6651340445
 20
-33.4763944491
 10
4.6309603119
 20
-33.3569361424
  0
LWPOLYLINE
  5
2AC
100
AcDbEntity
  8
0
100
AcDbPolyline
 62
7
  6
CONTINUOUS
 90
3
 70
0
 10
5.1363190026
 20
-33.089128505
 10
5.1480185868
 20
-33.1312783778
 10
5.1537500695
 20
-33.1524221415
  0
LINE
  5
2AD
100
AcDbEntity
  8
0
100
AcDbLine
 62
7
  6
CONTINUOUS
 10
5.1537500695
 20
-33.1524221415
 11
5.2289416738
 21
-33.4344017781
  0
LINE
  5
2AE
100
AcDbEntity
  8
0
100
AcDbLine
 62
7
  6
CONTINUOUS
 10
5.2289416738
 20
-33.4344017781
 11
5.3591482119
 21
-33.9313027413
  0
LWPOLYLINE
  5
2AF
100
AcDbEntity
  8
0
100
AcDbPolyline
 62
7
  6
CONTINUOUS
 90
19
 70
0
 10
4.6706521441
 20
-31.9422871205
 10
4.6691860039
 20
-31.9152096912
 10
4.6655695181
 20
-31.888283214
 10
4.6598026865
 20
-31.8615076952
 10
4.6519434795
 20
-31.8347159284
 10
4.6419339268
 20
-31.8080751283
 10
4.6296001177
 20
-31.78208695
 10
4.6148143052
 20
-31.7565655569
 10
4.5977042362
 20
-31.7316968277
 10
4.5784792406
 20
-31.7085400416
 10
4.5569140625
 20
-31.6872968407
 10
4.5332339578
 20
-31.6677656891
 10
4.5083240238
 20
-31.6504011402
 10
4.4822679884
 20
-31.635375128
 10
4.4549821237
 20
-31.6225158144
 10
4.4271003441
 20
-31.6117620954
 10
4.3988339544
 20
-31.6030936208
 10
4.3699716497
 20
-31.5965307948
 10
4.34051343
 20
-31.5920736358
  0
LINE
  5
2B0
100
AcDbEntity
  8
0
100
AcDbLine
 62
7
  6
CONTINUOUS
 10
3.3200188023
 20
-31.1643087279
 11
3.3200188023
 21
-33.9313027413
  0
LINE
  5
2B1
100
AcDbEntity
  8
0
100
AcDbLine
 62
7
  6
CONTINUOUS
 10
3.8826972541
 20
-31.6085561828
 11
3.8826972541
 21
-32.3771294735
  0
LINE
  5
2B2
100
AcDbEntity
  8
0
100
AcDbLine
 62
7
  6
CONTINUOUS
 10
3.9020753449
 20
-32.8356533116
 11
3.9020753449
 21
-33.9313027413
  0
LINE
  5
2B3
100
AcDbEntity
  8
0
100
AcDbLine
 62
7
  6
CONTINUOUS
 10
4.8225031649
 20
-32.6078820149
 11
4.8225031649
 21
-32.6244258237
  0
LINE
  5
2B4
100
AcDbEntity
  8
0
100
AcDbLine
 62
7
  6
CONTINUOUS
 10
-1.832475
 20
-31.1315993869
 11
-2.085272
 21
-33.9313023869
  0
LINE
  5
2B5
100
AcDbEntity
  8
0
100
AcDbLine
 62
7
  6
CONTINUOUS
 10
-3.785169
 20
-31.1315993869
 11
-4.335146
 21
-33.0587213869
  0
LINE
  5
2B6
100
AcDbEntity
  8
0
100
AcDbLine
 62
7
  6
CONTINUOUS
 10
-3.20116
 20
-31.1315993869
 11
-4.101097
 21
-33.9313023869
  0
LINE
  5
2B7
100
AcDbEntity
  8
0
100
AcDbLine
 62
253
  6
CONTINUOUS
 10
45.6194836667
 20
17.266289782
 11
45.7571040133
 21
17.3263540579
  0
LINE
  5
2B8
100
AcDbEntity
  8
0
100
AcDbLine
 62
253
  6
CONTINUOUS
 10
-45.6194836819
 20
-27.3732925663
 11
-45.7571040233
 21
-27.4333568408
  0
LINE
  5
2B9
100
AcDbEntity
  8
0
100
AcDbLine
 62
253
  6
CONTINUOUS
 10
45.7571040133
 20
17.3263540579
 11
45.9041666383
 21
17.3892160998
  0
LWPOLYLINE
  5
2BA
100
AcDbEntity
  8
0
100
AcDbPolyline
 62
253
  6
CONTINUOUS
 90
3
 70
0
 10
-45.7571040233
 20
-27.4333568408
 10
-45.9041666439
 20
-27.4962188814
 10
-45.9804387195
 20
-27.528356215
  0
LINE
  5
2BB
100
AcDbEntity
  8
0
100
AcDbLine
 62
253
  6
CONTINUOUS
 10
45.9041666383
 20
17.3892160998
 11
46.0580944718
 21
17.4537743368
  0
LWPOLYLINE
  5
2BC
100
AcDbEntity
  8
0
100
AcDbPolyline
 62
253
  6
CONTINUOUS
 90
3
 70
0
 10
46.0580944718
 20
17.4537743368
 10
46.2161901405
 20
17.5188974749
 10
46.2959366909
 20
17.5513140984
  0
LINE
  5
2BD
100
AcDbEntity
  8
0
100
AcDbLine
 62
7
  6
CONTINUOUS
 10
1.995737
 20
-31.9008863869
 11
1.704751
 21
-32.9398923869
  0
LINE
  5
2BE
100
AcDbEntity
  8
0
100
AcDbLine
 62
7
  6
CONTINUOUS
 10
1.585207
 20
-33.3723823869
 11
1.423947
 21
-33.9313023869
  0
LINE
  5
2BF
100
AcDbEntity
  8
0
100
AcDbLine
 62
7
  6
CONTINUOUS
 10
1.724045
 20
-31.1315993869
 11
0.84588
 21
-33.9313023869
  0
LINE
  5
2C0
100
AcDbEntity
  8
0
100
AcDbLine
 62
7
  6
CONTINUOUS
 10
-0.085906
 20
-31.1315993869
 11
-0.670314
 21
-32.6860033869
  0
LINE
  5
2C1
100
AcDbEntity
  8
0
100
AcDbLine
 62
7
  6
CONTINUOUS
 10
0.062337
 20
-32.1107703869
 11
-0.632524
 21
-33.9313023869
  0
LINE
  5
2C2
100
AcDbEntity
  8
0
100
AcDbLine
 62
253
  6
CONTINUOUS
 10
-45.9804387195
 20
-27.528356215
 11
-46.1367933313
 21
-27.5933394009
  0
LINE
  5
2C3
100
AcDbEntity
  8
0
100
AcDbLine
 62
253
  6
CONTINUOUS
 10
-46.1367933313
 20
-27.5933394009
 11
-46.2959366909
 21
-27.6583168794
  0
LWPOLYLINE
  5
2C4
100
AcDbEntity
  8
0
100
AcDbPolyline
 62
253
  6
CONTINUOUS
 90
15
 70
0
 10
-71.5757055761
 20
17.5392626459
 10
-71.6397109818
 20
17.5368261277
 10
-71.7005948847
 20
17.5341955405
 10
-71.7581247602
 20
17.5313809308
 10
-71.8120808932
 20
17.5283930481
 10
-71.8622572174
 20
17.5252433035
 10
-71.9084621019
 20
17.5219437264
 10
-71.9505190835
 20
17.5185069184
 10
-71.9882675405
 20
17.5149460051
 10
-72.0215633058
 20
17.5112745861
 10
-72.0502792181
 20
17.5075066832
 10
-72.0743056071
 20
17.5036566866
 10
-72.0935507124
 20
17.4997392999
 10
-72.1079410342
 20
17.4957694842
 10
-72.1174216137
 20
17.4917624009
  0
LWPOLYLINE
  5
2C5
100
AcDbEntity
  8
0
100
AcDbPolyline
 62
253
  6
CONTINUOUS
 90
15
 70
0
 10
-71.5757085684
 20
17.4630391461
 10
-71.6397140182
 20
17.4606092166
 10
-71.7005979531
 20
17.4579859515
 10
-71.7581278479
 20
17.4551793693
 10
-71.8120839868
 20
17.452200189
 10
-71.8622603027
 20
17.4490597884
 10
-71.9084651645
 20
17.4457701612
 10
-71.9505221085
 20
17.4423438711
 10
-71.9882705126
 20
17.4387940035
 10
-72.0215662097
 20
17.435134116
 10
-72.0502820382
 20
17.4313781863
 10
-72.074308328
 20
17.4275405589
 10
-72.0935533187
 20
17.4236358902
 10
-72.1079435109
 20
17.4196790928
 10
-72.117423946
 20
17.4156852783
  0
LINE
  5
2C6
100
AcDbEntity
  8
0
100
AcDbLine
 62
253
  6
CONTINUOUS
 10
-71.4393218998
 20
17.4672826508
 11
-71.5757085684
 21
17.4630391461
  0
LINE
  5
2C7
100
AcDbEntity
  8
0
100
AcDbLine
 62
253
  6
CONTINUOUS
 10
-71.4393190284
 20
17.5435170303
 11
-71.5757055761
 21
17.5392626459
  0
LINE
  5
2C8
100
AcDbEntity
  8
0
100
AcDbLine
 62
253
  6
CONTINUOUS
 10
45.7277586949
 20
16.7488939848
 11
45.8750247008
 21
16.7530153877
  0
LWPOLYLINE
  5
2C9
100
AcDbEntity
  8
0
100
AcDbPolyline
 62
253
  6
CONTINUOUS
 90
25
 70
0
 10
-44.35
 20
18.872013763
 10
-44.4514127583
 20
18.8696171327
 10
-44.5525189542
 20
18.8622195161
 10
-44.6533185877
 20
18.8498208748
 10
-44.7540394767
 20
18.8324386275
 10
-44.8544538033
 20
18.8100552014
 10
-44.9538781139
 20
18.7826180314
 10
-45.0524448486
 20
18.7500225985
 10
-45.1500215673
 20
18.7123731091
 10
-45.2455274965
 20
18.6699300567
 10
-45.3388684581
 20
18.6226448396
 10
-45.4301386303
 20
18.5705656267
 10
-45.5185397745
 20
18.5140980668
 10
-45.6040317274
 20
18.4531981155
 10
-45.6866546523
 20
18.3879093142
 10
-45.7657308005
 20
18.3187687231
 10
-45.8412297402
 20
18.2457223959
 10
-45.9131819034
 20
18.1688237653
 10
-45.9810008371
 20
18.0887710301
 10
-46.0446394656
 20
18.0055112266
 10
-46.1041448648
 20
17.9190968626
 10
-46.1590718094
 20
17.8303844581
 10
-46.2092718911
 20
17.7396594405
 10
-46.2548935183
 20
17.6466360673
 10
-46.2959366909
 20
17.5513141717
  0
LINE
  5
2CA
100
AcDbEntity
  8
0
100
AcDbLine
 62
253
  6
CONTINUOUS
 10
-71.2935194867
 20
17.470651701
 11
-71.4393218998
 21
17.4672826508
  0
LINE
  5
2CB
100
AcDbEntity
  8
0
100
AcDbLine
 62
253
  6
CONTINUOUS
 10
-71.2935167736
 20
17.5468937631
 11
-71.4393190284
 21
17.5435170303
  0
LINE
  5
2CC
100
AcDbEntity
  8
0
100
AcDbLine
 62
253
  6
CONTINUOUS
 10
45.8750247008
 20
16.7530153877
 11
46.0321286936
 21
16.7561697729
  0
LINE
  5
2CD
100
AcDbEntity
  8
0
100
AcDbLine
 62
253
  6
CONTINUOUS
 10
-71.1405265721
 20
17.4730948781
 11
-71.2935194867
 21
17.470651701
  0
LINE
  5
2CE
100
AcDbEntity
  8
0
100
AcDbLine
 62
253
  6
CONTINUOUS
 10
-71.1405240459
 20
17.5493413087
 11
-71.2935167736
 21
17.5468937631
  0
LINE
  5
2CF
100
AcDbEntity
  8
0
100
AcDbLine
 62
253
  6
CONTINUOUS
 10
46.0321286936
 20
16.7561697729
 11
46.1963825804
 21
16.7583031681
  0
LINE
  5
2D0
100
AcDbEntity
  8
0
100
AcDbLine
 62
253
  6
CONTINUOUS
 10
-70.9826781405
 20
17.4745748943
 11
-71.1405265721
 21
17.4730948781
  0
LINE
  5
2D1
100
AcDbEntity
  8
0
100
AcDbLine
 62
253
  6
CONTINUOUS
 10
-70.982675821
 20
17.5508223126
 11
-71.1405240459
 21
17.5493413087
  0
LWPOLYLINE
  5
2D2
100
AcDbEntity
  8
0
100
AcDbPolyline
 62
253
  6
CONTINUOUS
 90
3
 70
0
 10
46.1963825804
 20
16.7583031681
 10
46.3649759317
 20
16.7593790701
 10
46.45
 20
16.7595139909
  0
LINE
  5
2D3
100
AcDbEntity
  8
0
100
AcDbLine
 62
253
  6
CONTINUOUS
 10
-70.8223832817
 20
17.4750691614
 11
-70.9826781405
 21
17.4745748943
  0
LINE
  5
2D4
100
AcDbEntity
  8
0
100
AcDbLine
 62
253
  6
CONTINUOUS
 10
-70.8223811787
 20
17.5513141717
 11
-70.982675821
 21
17.5508223126
  0
LINE
  5
2D5
100
AcDbEntity
  8
0
100
AcDbLine
 62
253
  6
CONTINUOUS
 10
72.1174239464
 20
17.4156852783
 11
72.25
 21
17.4156852783
  0
LINE
  5
2D6
100
AcDbEntity
  8
0
100
AcDbLine
 62
253
  6
CONTINUOUS
 10
-72.1174239464
 20
17.4156852783
 11
-72.25
 21
17.4156852783
  0
LINE
  5
2D7
100
AcDbEntity
  8
0
100
AcDbLine
 62
7
  6
CONTINUOUS
 10
-44.35
 20
17.4964986131
 11
44.35
 21
17.4964986131
  0
LINE
  5
2D8
100
AcDbEntity
  8
0
100
AcDbLine
 62
253
  6
CONTINUOUS
 10
-46.2959366909
 20
17.5513141717
 11
-70.8223811789
 21
17.5513081007
  0
LINE
  5
2D9
100
AcDbEntity
  8
0
100
AcDbLine
 62
253
  6
CONTINUOUS
 10
44.35
 20
18.872013763
 11
-44.35
 21
18.872013763
  0
LINE
  5
2DA
100
AcDbEntity
  8
0
100
AcDbLine
 62
253
  6
CONTINUOUS
 10
46.2959366909
 20
17.5513141717
 11
70.9026818397
 21
17.5511927105
  0
LINE
  5
2DB
100
AcDbEntity
  8
0
100
AcDbLine
 62
253
  6
CONTINUOUS
 10
70.8223832817
 20
17.4750691617
 11
70.9826781409
 21
17.4745748946
  0
LINE
  5
2DC
100
AcDbEntity
  8
0
100
AcDbLine
 62
253
  6
CONTINUOUS
 10
-46.2803159305
 20
16.7589748856
 11
-46.45
 21
16.7595139909
  0
LINE
  5
2DD
100
AcDbEntity
  8
0
100
AcDbLine
 62
253
  6
CONTINUOUS
 10
70.9026818397
 20
17.5511927105
 11
71.0620576129
 21
17.5502043918
  0
LINE
  5
2DE
100
AcDbEntity
  8
0
100
AcDbLine
 62
253
  6
CONTINUOUS
 10
70.9826781409
 20
17.4745748946
 11
71.140526573
 21
17.4730948784
  0
LINE
  5
2DF
100
AcDbEntity
  8
0
100
AcDbLine
 62
253
  6
CONTINUOUS
 10
-46.113535207
 20
16.7573667937
 11
-46.2803159305
 21
16.7589748856
  0
LINE
  5
2E0
100
AcDbEntity
  8
0
100
AcDbLine
 62
253
  6
CONTINUOUS
 10
71.0620576129
 20
17.5502043918
 11
71.2177754437
 21
17.5482363589
  0
LINE
  5
2E1
100
AcDbEntity
  8
0
100
AcDbLine
 62
253
  6
CONTINUOUS
 10
71.140526573
 20
17.4730948784
 11
71.293519488
 21
17.4706517012
  0
LINE
  5
2E2
100
AcDbEntity
  8
0
100
AcDbLine
 62
253
  6
CONTINUOUS
 10
-45.9525114944
 20
16.7547172303
 11
-46.113535207
 21
16.7573667937
  0
LINE
  5
2E3
100
AcDbEntity
  8
0
100
AcDbLine
 62
253
  6
CONTINUOUS
 10
71.2177754437
 20
17.5482363589
 11
71.367458766
 21
17.5453186482
  0
LINE
  5
2E4
100
AcDbEntity
  8
0
100
AcDbLine
 62
253
  6
CONTINUOUS
 10
71.293519488
 20
17.4706517012
 11
71.4393219013
 21
17.467282651
  0
LWPOLYLINE
  5
2E5
100
AcDbEntity
  8
0
100
AcDbPolyline
 62
253
  6
CONTINUOUS
 90
17
 70
0
 10
71.367458766
 20
17.5453186482
 10
71.5088231128
 20
17.5414957896
 10
71.5757055752
 20
17.5392626458
 10
71.6397109808
 20
17.5368261276
 10
71.7005948837
 20
17.5341955404
 10
71.7581247591
 20
17.5313809307
 10
71.8120808922
 20
17.528393048
 10
71.8622572163
 20
17.5252433034
 10
71.9084621009
 20
17.5219437264
 10
71.9505190826
 20
17.5185069183
 10
71.9882675396
 20
17.514946005
 10
72.021563305
 20
17.5112745861
 10
72.0502792174
 20
17.5075066832
 10
72.0743056064
 20
17.5036566866
 10
72.0935507119
 20
17.4997392999
 10
72.1079410338
 20
17.4957694842
 10
72.1174216135
 20
17.4917624009
  0
LWPOLYLINE
  5
2E6
100
AcDbEntity
  8
0
100
AcDbPolyline
 62
253
  6
CONTINUOUS
 90
16
 70
0
 10
71.4393219013
 20
17.467282651
 10
71.5757085702
 20
17.4630391463
 10
71.6397140201
 20
17.4606092168
 10
71.7005979551
 20
17.4579859516
 10
71.7581278499
 20
17.4551793695
 10
71.8120839888
 20
17.4522001891
 10
71.8622603047
 20
17.4490597885
 10
71.9084651665
 20
17.4457701613
 10
71.9505221104
 20
17.4423438712
 10
71.9882705144
 20
17.4387940036
 10
72.0215662113
 20
17.4351341161
 10
72.0502820397
 20
17.4313781864
 10
72.0743083292
 20
17.4275405589
 10
72.0935533197
 20
17.4236358902
 10
72.1079435116
 20
17.4196790928
 10
72.1174239464
 20
17.4156852783
  0
LWPOLYLINE
  5
2E7
100
AcDbEntity
  8
0
100
AcDbPolyline
 62
253
  6
CONTINUOUS
 90
17
 70
0
 10
45.15
 20
-26.8035013869
 10
45.1527833994
 20
-26.8076227896
 10
45.1611216789
 20
-26.8117265438
 10
45.1749791325
 20
-26.8157950766
 10
45.1942964207
 20
-26.819810966
 10
45.2189908239
 20
-26.8237570153
 10
45.248956597
 20
-26.8276163269
 10
45.2840654221
 20
-26.8313723747
 10
45.3241669578
 20
-26.8350090746
 10
45.3690894834
 20
-26.8385108538
 10
45.4186406338
 20
-26.8418627171
 10
45.4726082234
 20
-26.8450503113
 10
45.530761155
 20
-26.8480599867
 10
45.5928504088
 20
-26.8508788553
 10
45.6586101092
 20
-26.8534948464
 10
45.7277586632
 20
-26.8558967578
 10
45.8750246698
 20
-26.860018161
  0
LWPOLYLINE
  5
2E8
100
AcDbEntity
  8
0
100
AcDbPolyline
 62
253
  6
CONTINUOUS
 90
16
 70
0
 10
45.15
 20
16.6964986131
 10
45.1527833998
 20
16.700620016
 10
45.1611216801
 20
16.7047237704
 10
45.1749791352
 20
16.7087923034
 10
45.1942964253
 20
16.7128081929
 10
45.2189908309
 20
16.7167542423
 10
45.2489566068
 20
16.7206135541
 10
45.2840654348
 20
16.7243696019
 10
45.3241669736
 20
16.7280063019
 10
45.3690895023
 20
16.7315080811
 10
45.4186406558
 20
16.7348599444
 10
45.4726082483
 20
16.7380475386
 10
45.5307611823
 20
16.7410572139
 10
45.5928504382
 20
16.7438760825
 10
45.6586101401
 20
16.7464920735
 10
45.7277586949
 20
16.7488939848
  0
LWPOLYLINE
  5
2E9
100
AcDbEntity
  8
0
100
AcDbPolyline
 62
7
  6
CONTINUOUS
 90
10
 70
0
 10
4.9505592711
 20
-32.5247499488
 10
4.9247572514
 20
-32.5470985948
 10
4.9123371419
 20
-32.5575482348
 10
4.9000089287
 20
-32.5674043676
 10
4.8878944504
 20
-32.5768631237
 10
4.8758718685
 20
-32.5857283873
 10
4.8633777885
 20
-32.5933299197
 10
4.8502244121
 20
-32.5994443201
 10
4.8365995376
 20
-32.6042950156
 10
4.8225031649
 20
-32.6078820149
  0
LWPOLYLINE
  5
2EA
100
AcDbEntity
  8
0
100
AcDbPolyline
 62
253
  6
CONTINUOUS
 90
16
 70
0
 10
45.0913087426
 20
16.9972651862
 10
45.092444264
 20
17.0020489483
 10
45.0988579537
 20
17.008955229
 10
45.1105216831
 20
17.0179537395
 10
45.1273842984
 20
17.0290050147
 10
45.149371845
 20
17.0420605869
 10
45.1763878918
 20
17.0570631982
 10
45.2083139542
 20
17.0739470514
 10
45.2450100135
 20
17.0926380987
 10
45.2863151313
 20
17.1130543666
 10
45.3320481552
 20
17.1351063151
 10
45.3820085133
 20
17.1586972307
 10
45.4359770936
 20
17.1837236504
 10
45.4937172054
 20
17.2100758155
 10
45.554975617
 20
17.2376381528
 10
45.6194836667
 20
17.266289782
  0
LWPOLYLINE
  5
2EB
100
AcDbEntity
  8
0
100
AcDbPolyline
 62
253
  6
CONTINUOUS
 90
28
 70
0
 10
-70.65
 20
38.7225617189
 10
-70.6599065944
 20
38.7222824069
 10
-70.6697368506
 20
38.7214274082
 10
-70.6794907686
 20
38.7199967215
 10
-70.6891965381
 20
38.7179861301
 10
-70.6988259693
 20
38.7153998442
 10
-70.7082944937
 20
38.7122505002
 10
-70.7176206423
 20
38.7085270516
 10
-70.726785884
 20
38.7042405324
 10
-70.7356500564
 20
38.6994366988
 10
-70.7442153046
 20
38.6940836699
 10
-70.7524794835
 20
38.6882133093
 10
-70.7602959953
 20
38.6819669922
 10
-70.7675925512
 20
38.6754148717
 10
-70.77444144
 20
38.6684867801
 10
-70.78091293
 20
38.6611136114
 10
-70.7870833956
 20
38.6532077088
 10
-70.7928764623
 20
38.6448567056
 10
-70.7981332755
 20
38.6362544341
 10
-70.8028053816
 20
38.6274276508
 10
-70.806941234
 20
38.6183495856
 10
-70.8105273388
 20
38.6091337882
 10
-70.8135599694
 20
38.5997973656
 10
-70.8160428523
 20
38.590323203
 10
-70.8179736737
 20
38.5807735225
 10
-70.8193516621
 20
38.5711690638
 10
-70.8201775888
 20
38.5614890831
 10
-70.820451454
 20
38.5517335778
  0
LINE
  5
2EC
100
AcDbEntity
  8
0
100
AcDbLine
 62
253
  6
CONTINUOUS
 10
72.1153459105
 20
38.3454439547
 11
72.25
 21
38.3464986131
  0
LWPOLYLINE
  5
2ED
100
AcDbEntity
  8
0
100
AcDbPolyline
 62
253
  6
CONTINUOUS
 90
25
 70
0
 10
-70.820451454
 20
38.5517335774
 10
-70.9006830922
 20
38.5513109841
 10
-70.9806088381
 20
38.5500219191
 10
-71.0599239685
 20
38.5478712971
 10
-71.1383260883
 20
38.5448673177
 10
-71.2155162832
 20
38.5410214336
 10
-71.2912002596
 20
38.5363483077
 10
-71.3650894663
 20
38.5308657567
 10
-71.436902195
 20
38.5245946832
 10
-71.506364654
 20
38.5175589962
 10
-71.5732120123
 20
38.5097855199
 10
-71.637189409
 20
38.5013038913
 10
-71.6980529253
 20
38.4921464472
 10
-71.7555705144
 20
38.4823481011
 10
-71.8095228857
 20
38.4719462101
 10
-71.8597043418
 20
38.4609804322
 10
-71.9059235619
 20
38.4494925753
 10
-71.9480043316
 20
38.4375264378
 10
-71.9857862146
 20
38.4251276415
 10
-72.0191251645
 20
38.4123434579
 10
-72.0478940741
 20
38.3992226277
 10
-72.0719832595
 20
38.3858151751
 10
-72.0913008789
 20
38.372172217
 10
-72.1057732824
 20
38.3583457684
 10
-72.1153452927
 20
38.3443885438
  0
LINE
  5
2EE
100
AcDbEntity
  8
0
100
AcDbLine
 62
253
  6
CONTINUOUS
 10
70.65
 20
38.7225617189
 11
-70.65
 21
38.7225617189
  0
LINE
  5
2EF
100
AcDbEntity
  8
0
100
AcDbLine
 62
253
  6
CONTINUOUS
 10
70.65
 20
39.7886047158
 11
-70.65
 21
39.7886047158
  0
LINE
  5
2F0
100
AcDbEntity
  8
0
100
AcDbLine
 62
7
  6
CONTINUOUS
 10
-70.65
 20
39.9464986131
 11
70.65
 21
39.9464986131
  0
LWPOLYLINE
  5
2F1
100
AcDbEntity
  8
0
100
AcDbPolyline
 62
253
  6
CONTINUOUS
 90
25
 70
0
 10
70.8204520079
 20
38.5519744386
 10
70.9006697903
 20
38.551660024
 10
70.980581817
 20
38.5504793738
 10
71.0598835222
 20
38.5484369871
 10
71.1382726661
 20
38.5455406462
 10
71.2154504872
 20
38.5418013865
 10
71.2911228403
 20
38.5372334546
 10
71.3650013183
 20
38.5318542542
 10
71.4368043508
 20
38.5256842797
 10
71.5062582776
 20
38.5187470381
 10
71.5730983914
 20
38.5110689595
 10
71.637069947
 20
38.5026792963
 10
71.697929132
 20
38.4936100119
 10
71.755443996
 20
38.4838956589
 10
71.8093953347
 20
38.4735732471
 10
71.8595775254
 20
38.4626821034
 10
71.9057993105
 20
38.4512637209
 10
71.9478845267
 20
38.4393616016
 10
71.9856727762
 20
38.4270210903
 10
72.019020038
 20
38.4142892018
 10
72.047799217
 20
38.4012144424
 10
72.071900628
 20
38.3878466247
 10
72.0912324145
 20
38.3742366775
 10
72.1057208977
 20
38.360436452
 10
72.1153108584
 20
38.3464985243
  0
LINE
  5
2F2
100
AcDbEntity
  8
0
100
AcDbLine
 62
253
  6
CONTINUOUS
 10
-72.1153452931
 20
38.3443882837
 11
-72.25
 21
38.3464986131
  0
LWPOLYLINE
  5
2F3
100
AcDbEntity
  8
0
100
AcDbPolyline
 62
253
  6
CONTINUOUS
 90
18
 70
0
 10
45.0913073172
 20
-27.1042673815
 10
45.092442849
 20
-27.1090511379
 10
45.0988565592
 20
-27.115957417
 10
45.110520319
 20
-27.1249559298
 10
45.1273829742
 20
-27.1360072112
 10
45.1493705698
 20
-27.1490627935
 10
45.1763866741
 20
-27.1640654183
 10
45.2083128017
 20
-27.1809492882
 10
45.2450089332
 20
-27.1996403551
 10
45.2863141291
 20
-27.2200566452
 10
45.3320472361
 20
-27.2421086179
 10
45.3820076809
 20
-27.2656995594
 10
45.4359763506
 20
-27.2907260063
 10
45.4937165529
 20
-27.3170781991
 10
45.5549750549
 20
-27.3446405644
 10
45.6194831933
 20
-27.3732922211
 10
45.6869580528
 20
-27.4029075107
 10
45.8296125149
 20
-27.4645057935
  0
LWPOLYLINE
  5
2F4
100
AcDbEntity
  8
0
100
AcDbPolyline
 62
253
  6
CONTINUOUS
 90
16
 70
0
 10
46.45
 20
16.7595139909
 10
46.4497147227
 20
16.8020788929
 10
46.4483478045
 20
16.845929467
 10
46.4458992453
 20
16.8910656945
 10
46.4424953568
 20
16.93734331
 10
46.4380098273
 20
16.984906541
 10
46.4320637224
 20
17.0341881007
 10
46.4246727433
 20
17.0853725512
 10
46.4158211889
 20
17.1382752704
 10
46.4050830213
 20
17.1927751885
 10
46.3924735008
 20
17.2488970399
 10
46.3779773672
 20
17.3066160298
 10
46.3611228012
 20
17.3657367992
 10
46.34175253
 20
17.426194211
 10
46.3200238266
 20
17.4880533452
 10
46.2959366909
 20
17.5513141717
  0
LINE
  5
2F5
100
AcDbEntity
  8
0
100
AcDbLine
 62
253
  6
CONTINUOUS
 10
44.35
 20
-27.6035013869
 11
44.35
 21
-28.9790165368
  0
LINE
  5
2F6
100
AcDbEntity
  8
0
100
AcDbLine
 62
253
  6
CONTINUOUS
 10
44.35
 20
17.4964986131
 11
44.35
 21
18.872013763
  0
LINE
  5
2F7
100
AcDbEntity
  8
0
100
AcDbLine
 62
7
  6
CONTINUOUS
 10
45.15
 20
16.6964986131
 11
45.15
 21
-26.8035013869
  0
LINE
  5
2F8
100
AcDbEntity
  8
0
100
AcDbLine
 62
253
  6
CONTINUOUS
 10
46.45
 20
-26.8665167646
 11
46.45
 21
16.7595139909
  0
LWPOLYLINE
  5
2F9
100
AcDbEntity
  8
0
100
AcDbPolyline
 62
7
  6
CONTINUOUS
 90
28
 70
0
 10
-70.65
 20
39.9464986131
 10
-70.7420068579
 20
39.9438481943
 10
-70.8338192268
 20
39.9359021882
 10
-70.9251227845
 20
39.9226691259
 10
-71.0156566042
 20
39.9041598751
 10
-71.1051022261
 20
39.8804088036
 10
-71.1930475231
 20
39.8515090917
 10
-71.278978448
 20
39.817675251
 10
-71.3626335674
 20
39.7790429594
 10
-71.4440280748
 20
39.7355851504
 10
-71.5232008828
 20
39.6872124238
 10
-71.599749126
 20
39.6341012572
 10
-71.6730369872
 20
39.5766896367
 10
-71.7426033537
 20
39.5153704944
 10
-71.8084285923
 20
39.4501722692
 10
-71.8705628596
 20
39.3810075013
 10
-71.9289252642
 20
39.3078932835
 10
-71.9830771636
 20
39.2313069421
 10
-72.0325489914
 20
39.1518544979
 10
-72.0771078692
 20
39.0699603049
 10
-72.1167946419
 20
38.9856356133
 10
-72.1516269702
 20
38.8988345579
 10
-72.1814564369
 20
38.8097867725
 10
-72.2060326174
 20
38.7190230518
 10
-72.2252219656
 20
38.6270007547
 10
-72.23896694
 20
38.5340588787
 10
-72.2472366527
 20
38.4404521809
 10
-72.25
 20
38.3464986131
  0
LWPOLYLINE
  5
2FA
100
AcDbEntity
  8
0
100
AcDbPolyline
 62
253
  6
CONTINUOUS
 90
28
 70
0
 10
-70.65
 20
39.7886047158
 10
-70.7340988629
 20
39.7861894475
 10
-70.8179824152
 20
39.7789502259
 10
-70.9013703845
 20
39.7669005801
 10
-70.9839941127
 20
39.7500658359
 10
-71.0656115287
 20
39.7284740114
 10
-71.1459627603
 20
39.7021705675
 10
-71.2247089406
 20
39.6712797869
 10
-71.3014670856
 20
39.6359484059
 10
-71.3759835895
 20
39.5962792575
 10
-71.4481439683
 20
39.5523335654
 10
-71.5177797762
 20
39.5042154951
 10
-71.5845638367
 20
39.4521474735
 10
-71.6482456005
 20
39.3963023234
 10
-71.7086335524
 20
39.3368044755
 10
-71.7655078076
 20
39.2738405757
 10
-71.8186797739
 20
39.2076587913
 10
-71.8679226012
 20
39.1385756965
 10
-71.9129754539
 20
39.0669252419
 10
-71.9537303133
 20
38.9929127767
 10
-71.9901349252
 20
38.9166850452
 10
-72.0220980039
 20
38.8384573893
 10
-72.0494846373
 20
38.7585977417
 10
-72.0721834548
 20
38.6774402296
 10
-72.0901501405
 20
38.5951902979
 10
-72.1033485204
 20
38.5120776297
 10
-72.111752884
 20
38.4283860825
 10
-72.1153468858
 20
38.3443883086
  0
LWPOLYLINE
  5
2FB
100
AcDbEntity
  8
0
100
AcDbPolyline
 62
253
  6
CONTINUOUS
 90
10
 70
0
 10
46.2959366909
 20
-27.6583169454
 10
46.3277100172
 20
-27.5749261565
 10
46.3558814258
 20
-27.4901687672
 10
46.3804509165
 20
-27.4040447419
 10
46.4015009926
 20
-27.3162608158
 10
46.4189491509
 20
-27.2271101758
 10
46.4325478817
 20
-27.1374724884
 10
46.4422146819
 20
-27.0476409804
 10
46.4480320547
 20
-26.9573224093
 10
46.45
 20
-26.8665167646
  0
LWPOLYLINE
  5
2FC
100
AcDbEntity
  8
0
100
AcDbPolyline
 62
253
  6
CONTINUOUS
 90
25
 70
0
 10
46.2959366909
 20
17.5513141717
 10
46.2550772113
 20
17.646247722
 10
46.2096609046
 20
17.738919604
 10
46.1596877708
 20
17.8293299807
 10
46.1050183154
 20
17.9177590218
 10
46.0457920328
 20
18.0039268664
 10
45.9824274067
 20
18.0869936979
 10
45.9148735651
 20
18.1669161043
 10
45.84318138
 20
18.243737944
 10
45.767921951
 20
18.3167504195
 10
45.6890583099
 20
18.3859033539
 10
45.606627425
 20
18.4512474315
 10
45.5213113006
 20
18.5122252201
 10
45.4330767042
 20
18.568787789
 10
45.3419568683
 20
18.6209845701
 10
45.2487334946
 20
18.6684057089
 10
45.1533687017
 20
18.7109976314
 10
45.055900371
 20
18.7488143442
 10
44.9572238493
 20
18.7816073635
 10
44.8573258594
 20
18.8093074687
 10
44.7562196785
 20
18.8319841926
 10
44.6548404843
 20
18.8495971547
 10
44.5535000028
 20
18.862132948
 10
44.451886508
 20
18.8696051377
 10
44.35
 20
18.872013763
  0
LWPOLYLINE
  5
2FD
100
AcDbEntity
  8
0
100
AcDbPolyline
 62
253
  6
CONTINUOUS
 90
28
 70
0
 10
72.1153318476
 20
38.3454438571
 10
72.1116464343
 20
38.429863922
 10
72.1031188703
 20
38.5138431916
 10
72.0897891464
 20
38.5971036948
 10
72.0717106199
 20
38.6793397232
 10
72.0489313469
 20
38.7603722802
 10
72.0214793899
 20
38.8401001626
 10
71.9894521558
 20
38.9182247888
 10
71.9529934004
 20
38.9943476131
 10
71.9121956763
 20
39.068249667
 10
71.8671111294
 20
39.139785441
 10
71.8178460322
 20
39.2087573168
 10
71.7646643013
 20
39.2748290903
 10
71.7078059053
 20
39.337668175
 10
71.6474585032
 20
39.3970335138
 10
71.5838201518
 20
39.4527622508
 10
71.5170808357
 20
39.5047282637
 10
71.4475033568
 20
39.5527489618
 10
71.3754089227
 20
39.5966061309
 10
71.3009632381
 20
39.6361975759
 10
71.2242870953
 20
39.6714595692
 10
71.1456327795
 20
39.7022897453
 10
71.0653619797
 20
39.7285478046
 10
70.9838062134
 20
39.7501099069
 10
70.9012404706
 20
39.7669234745
 10
70.8179084372
 20
39.7789589113
 10
70.7340677992
 20
39.7861913186
 10
70.65
 20
39.7886047158
  0
LWPOLYLINE
  5
2FE
100
AcDbEntity
  8
0
100
AcDbPolyline
 62
253
  6
CONTINUOUS
 90
28
 70
0
 10
70.8204506376
 20
38.55199019
 10
70.8201574256
 20
38.5617703392
 10
70.8193140721
 20
38.5714641531
 10
70.8179205771
 20
38.5810716345
 10
70.8159751642
 20
38.5906116273
 10
70.8134796097
 20
38.6000652924
 10
70.8104392434
 20
38.6093761094
 10
70.8068542866
 20
38.6185581836
 10
70.802724518
 20
38.6275974178
 10
70.7980546026
 20
38.6363949917
 10
70.7927889978
 20
38.6449881862
 10
70.7869832463
 20
38.6533397333
 10
70.7808086414
 20
38.6612389967
 10
70.7743506379
 20
38.6685878299
 10
70.7675237809
 20
38.6754844033
 10
70.7602429989
 20
38.6820125598
 10
70.7524249363
 20
38.6882513276
 10
70.7441529486
 20
38.6941216927
 10
70.7355920308
 20
38.6994704349
 10
70.7267567476
 20
38.7042585525
 10
70.7176325343
 20
38.7085250648
 10
70.7083406917
 20
38.712233786
 10
70.6988961731
 20
38.7153777953
 10
70.6892840252
 20
38.7179640259
 10
70.6795806898
 20
38.7199770715
 10
70.6698116474
 20
38.7214117987
 10
70.6599514175
 20
38.7222733473
 10
70.65
 20
38.7225617189
  0
LWPOLYLINE
  5
2FF
100
AcDbEntity
  8
0
100
AcDbPolyline
 62
7
  6
CONTINUOUS
 90
28
 70
0
 10
72.25
 20
38.3464986131
 10
72.2472359271
 20
38.4404574504
 10
72.2389662417
 20
38.5340614562
 10
72.2252250925
 20
38.6269874019
 10
72.2060398036
 20
38.7189973194
 10
72.1814639029
 20
38.8097614524
 10
72.1516354535
 20
38.8988097967
 10
72.1168062637
 20
38.9856085408
 10
72.0771212506
 20
39.0699353645
 10
72.0325625268
 20
39.1518326726
 10
71.9830882492
 20
39.2312894913
 10
71.9289273829
 20
39.307888875
 10
71.8705487315
 20
39.3810240024
 10
71.8084010204
 20
39.4502014025
 10
71.742570647
 20
39.5154011212
 10
71.6729954182
 20
39.5767241347
 10
71.5996978926
 20
39.6341387194
 10
71.5231489653
 20
39.6872461319
 10
71.4439777045
 20
39.7356137076
 10
71.3625814933
 20
39.779068614
 10
71.2789320083
 20
39.8176955802
 10
71.1930211393
 20
39.8515193303
 10
71.1050944628
 20
39.8804110907
 10
71.015655173
 20
39.9041602152
 10
70.9251274691
 20
39.9226683993
 10
70.8338303903
 20
39.9359008231
 10
70.7420158386
 20
39.9438475901
 10
70.65
 20
39.9464986131
  0
LINE
  5
300
100
AcDbEntity
  8
0
100
AcDbLine
 62
253
  6
CONTINUOUS
 10
70.65
 20
-48.8295644927
 11
70.65
 21
-50.0535013869
  0
LINE
  5
301
100
AcDbEntity
  8
0
100
AcDbLine
 62
253
  6
CONTINUOUS
 10
70.65
 20
38.7225617189
 11
70.65
 21
39.9464986131
  0
LINE
  5
302
100
AcDbEntity
  8
0
100
AcDbLine
 62
253
  6
CONTINUOUS
 10
72.1172192418
 20
21.2756033304
 11
72.1153459105
 21
38.3454439547
  0
LINE
  5
303
100
AcDbEntity
  8
0
100
AcDbLine
 62
7
  6
CONTINUOUS
 10
72.25
 20
-48.4535013869
 11
72.25
 21
38.3464986131
  0
LINE
  5
304
100
AcDbEntity
  8
0
100
AcDbLine
 62
253
  6
CONTINUOUS
 10
70.820451454
 20
-48.6587363515
 11
70.8204506376
 21
38.55199019
  0
LINE
  5
305
100
AcDbEntity
  8
0
100
AcDbLine
 62
253
  6
CONTINUOUS
 10
72.1153452931
 20
-48.4513910574
 11
72.1172192418
 21
21.2756033304
  0
LINE
  5
306
100
AcDbEntity
  8
0
100
AcDbLine
 62
7
  6
CONTINUOUS
 10
-87.8526130921
 20
-48.4535013869
 11
-87.7828970305
 21
-48.4409809438
  0
LWPOLYLINE
  5
307
100
AcDbEntity
  8
RACCORDO
100
AcDbPolyline
 62
253
  6
CONTINUOUS
 90
16
 70
0
 10
-87.4933181667
 20
-48.7628787666
 10
-87.3693039234
 20
-48.7447650834
 10
-87.2452740902
 20
-48.7237550654
 10
-87.1213053988
 20
-48.6998437782
 10
-86.9975553197
 20
-48.6731068718
 10
-86.8740344022
 20
-48.643458758
 10
-86.7506076953
 20
-48.610652059
 10
-86.6273565137
 20
-48.5747081827
 10
-86.5044052903
 20
-48.5355943539
 10
-86.3816947165
 20
-48.492980669
 10
-86.2592387704
 20
-48.4468929461
 10
-86.1372762792
 20
-48.3972923018
 10
-86.0160787994
 20
-48.3437503648
 10
-85.8957937486
 20
-48.2861191652
 10
-85.7764722433
 20
-48.2245318989
 10
-85.6582183959
 20
-48.1589812484
  0
LINE
  5
308
100
AcDbEntity
  8
RACCORDO
100
AcDbLine
 62
253
  6
CONTINUOUS
 10
-87.5999277486
 20
-48.1707128992
 11
-85.6582183959
 21
-48.1589812484
  0
LINE
  5
309
100
AcDbEntity
  8
0
100
AcDbLine
 62
253
  6
CONTINUOUS
 10
-89.3921024181
 20
-48.4513910574
 11
-87.8526130921
 21
-48.4535013869
  0
LINE
  5
30A
100
AcDbEntity
  8
0
100
AcDbLine
 62
7
  6
CONTINUOUS
 10
-89.3618724067
 20
-49.8956074896
 11
-87.5571369021
 21
-50.0535013869
  0
LINE
  5
30B
100
AcDbEntity
  8
RACCORDO
100
AcDbLine
 62
7
  6
CONTINUOUS
 10
-87.6025000565
 20
-48.9409052642
 11
-87.4585257149
 21
-48.9535013869
  0
LINE
  5
30C
100
AcDbEntity
  8
RACCORDO
100
AcDbLine
 62
253
  6
CONTINUOUS
 10
-87.6378522746
 20
-47.9570230973
 11
-87.869840246
 21
-47.936715533
  0
LINE
  5
30D
100
AcDbEntity
  8
0
100
AcDbLine
 62
253
  6
CONTINUOUS
 10
-90.5587200587
 20
-48.6587363512
 11
-89.3921023743
 21
-48.4513913175
  0
LINE
  5
30E
100
AcDbEntity
  8
0
100
AcDbLine
 62
253
  6
CONTINUOUS
 10
-90.2486004565
 20
-27.5226880521
 11
-90.1788765322
 21
-27.5191811882
  0
LINE
  5
30F
100
AcDbEntity
  8
0
100
AcDbLine
 62
253
  6
CONTINUOUS
 10
-92.9451917869
 20
-27.6583169454
 11
-91.7601343551
 21
-27.5987651746
  0
LINE
  5
310
100
AcDbEntity
  8
0
100
AcDbLine
 62
253
  6
CONTINUOUS
 10
-92.949020149
 20
-27.5820719352
 11
-91.7639516829
 21
-27.5226880521
  0
LINE
  5
311
100
AcDbEntity
  8
0
100
AcDbLine
 62
253
  6
CONTINUOUS
 10
-84.9451917869
 20
-27.4221105794
 11
-87.3854246883
 21
-27.46290515
  0
LINE
  5
312
100
AcDbEntity
  8
0
100
AcDbLine
 62
253
  6
CONTINUOUS
 10
-87.3854246883
 20
-27.46290515
 11
-89.9511081656
 21
-27.5028347203
  0
LINE
  5
313
100
AcDbEntity
  8
0
100
AcDbLine
 62
253
  6
CONTINUOUS
 10
-91.7639516829
 20
-27.5226880521
 11
-90.2486004565
 21
-27.5226880521
  0
LINE
  5
314
100
AcDbEntity
  8
RACCORDO
100
AcDbLine
 62
253
  6
CONTINUOUS
 10
-89.9511081656
 20
-27.5028347203
 11
-90.1788766197
 21
-27.5028359388
  0
LWPOLYLINE
  5
315
100
AcDbEntity
  8
RACCORDO
100
AcDbPolyline
 62
253
  6
CONTINUOUS
 90
19
 70
0
 10
-85.6582185504
 20
-48.1589812579
 10
-85.636213009
 20
-48.2066343567
 10
-85.6165831361
 20
-48.2542009825
 10
-85.5994219525
 20
-48.30145573
 10
-85.5848107803
 20
-48.3481746719
 10
-85.5728188578
 20
-48.3941364203
 10
-85.5635030114
 20
-48.4391231757
 10
-85.5569073864
 20
-48.4829217583
 10
-85.5530632381
 20
-48.5253246184
 10
-85.551988783
 20
-48.566130821
 10
-85.5536891131
 20
-48.6051469964
 10
-85.5581561712
 20
-48.6421882572
 10
-85.5653687896
 20
-48.6770790749
 10
-85.5752927901
 20
-48.7096541112
 10
-85.587881146
 20
-48.7397590013
 10
-85.6030742047
 20
-48.7672510859
 10
-85.6207999708
 20
-48.7920000869
 10
-85.6409744471
 20
-48.8138887252
 10
-85.6635020325
 20
-48.832813276
  0
LINE
  5
316
100
AcDbEntity
  8
0
100
AcDbLine
 62
7
  6
CONTINUOUS
 10
-87.4874123079
 20
-49.2565456284
 11
-87.6073112451
 21
-48.9276440468
  0
LINE
  5
317
100
AcDbEntity
  8
0
100
AcDbLine
 62
7
  6
CONTINUOUS
 10
-87.6073112451
 20
-48.9276440468
 11
-87.7828970455
 21
-48.4409809142
  0
LINE
  5
318
100
AcDbEntity
  8
0
100
AcDbLine
 62
7
  6
CONTINUOUS
 10
-87.7828970396
 20
38.3339781845
 11
-87.5572011687
 21
38.9585699963
  0
LINE
  5
319
100
AcDbEntity
  8
0
100
AcDbLine
 62
7
  6
CONTINUOUS
 10
-87.5572011687
 20
38.9585699963
 11
-87.4879380284
 21
39.1481129368
  0
LINE
  5
31A
100
AcDbEntity
  8
RACCORDO
100
AcDbLine
 62
7
  6
CONTINUOUS
 10
-84.9451917869
 20
-8.9061553483
 11
-86.7799214225
 21
-8.5826430112
  0
LINE
  5
31B
100
AcDbEntity
  8
0
100
AcDbLine
 62
7
  6
CONTINUOUS
 10
-87.5571369021
 20
-50.0535013869
 11
-87.6912247839
 21
-49.3383097158
  0
LINE
  5
31C
100
AcDbEntity
  8
0
100
AcDbLine
 62
7
  6
CONTINUOUS
 10
-87.6912247839
 20
-49.3383097158
 11
-87.8188172842
 21
-48.6410616525
  0
LINE
  5
31D
100
AcDbEntity
  8
0
100
AcDbLine
 62
7
  6
CONTINUOUS
 10
-87.8188172842
 20
-48.6410616525
 11
-87.8526130921
 21
-48.4535013869
  0
LWPOLYLINE
  5
31E
100
AcDbEntity
  8
0
100
AcDbPolyline
 62
253
  6
CONTINUOUS
 90
21
 70
0
 10
-89.3921024181
 20
-48.4513910574
 10
-89.5747548559
 20
-47.403522052
 10
-89.7499115179
 20
-46.3608492895
 10
-89.9175732941
 20
-45.3234364072
 10
-90.0776275694
 20
-44.2913613858
 10
-90.2301887275
 20
-43.264668517
 10
-90.3755981429
 20
-42.2433682758
 10
-90.5138587992
 20
-41.2275156773
 10
-90.64496944
 20
-40.2171679501
 10
-90.7692650607
 20
-39.212336283
 10
-90.8867485386
 20
-38.2130711644
 10
-90.9974186859
 20
-37.2194249114
 10
-91.1016043817
 20
-36.2314090266
 10
-91.1993084573
 20
-35.2490695937
 10
-91.2905297348
 20
-34.2724544092
 10
-91.3755910638
 20
-33.3015752749
 10
-91.454495224
 20
-32.3364742849
 10
-91.5272410545
 20
-31.3771947812
 10
-91.5941454785
 20
-30.4237483132
 10
-91.655314664
 20
-29.476164522
 10
-91.7106440275
 20
-28.534491204
  0
LINE
  5
31F
100
AcDbEntity
  8
0
100
AcDbLine
 62
253
  6
CONTINUOUS
 10
-91.7106440275
 20
-28.534491204
 11
-91.7639516829
 21
-27.5226880521
  0
LWPOLYLINE
  5
320
100
AcDbEntity
  8
0
100
AcDbPolyline
 62
253
  6
CONTINUOUS
 90
12
 70
0
 10
-91.7639516829
 20
-27.5226880521
 10
-91.935861547
 20
-23.7802168035
 10
-92.0765177417
 20
-20.036437939
 10
-92.1859202681
 20
-16.2916142202
 10
-92.2640723926
 20
-12.5460104569
 10
-92.3109708515
 20
-8.7998873555
 10
-92.3266058494
 20
-5.053501517
 10
-92.3109708563
 20
-1.3071157219
 10
-92.2640724023
 20
2.4390073071
 10
-92.18592028
 20
6.1846110559
 10
-92.0765177523
 20
9.9294348471
 10
-91.9358615536
 20
13.6732138418
  0
LINE
  5
321
100
AcDbEntity
  8
0
100
AcDbLine
 62
253
  6
CONTINUOUS
 10
-91.9358615536
 20
13.6732138418
 11
-91.7601343551
 21
17.4917624009
  0
LWPOLYLINE
  5
322
100
AcDbEntity
  8
0
100
AcDbPolyline
 62
253
  6
CONTINUOUS
 90
22
 70
0
 10
-91.7601343551
 20
17.4917624009
 10
-91.710552023
 20
18.4290640378
 10
-91.6551266468
 20
19.372164449
 10
-91.5938574584
 20
20.3210268195
 10
-91.5268466382
 20
21.2756033304
 10
-91.4539904583
 20
22.2358644467
 10
-91.3749792781
 20
23.2017988545
 10
-91.2898141874
 20
24.1733633422
 10
-91.198492516
 20
25.1505159469
 10
-91.1006989676
 20
26.1332451494
 10
-90.9964346493
 20
27.121503396
 10
-90.8856968403
 20
28.1152448171
 10
-90.7681644872
 20
29.1144582001
 10
-90.6438387068
 20
30.1190915821
 10
-90.5127167336
 20
31.1290947906
 10
-90.3744716733
 20
32.1444569253
 10
-90.2290981205
 20
33.1651604289
 10
-90.0765997918
 20
34.1911114435
 10
-89.9166634737
 20
35.2221824045
 10
-89.749184203
 20
36.2582907766
 10
-89.574265256
 20
37.2993988139
 10
-89.391905782
 20
38.3454439547
  0
LWPOLYLINE
  5
323
100
AcDbEntity
  8
0
100
AcDbPolyline
 62
7
  6
CONTINUOUS
 90
10
 70
0
 10
-87.8526130921
 20
38.3464986131
 10
-88.2504402672
 20
36.0381151711
 10
-88.6154065677
 20
33.7243276375
 10
-88.9475115873
 20
31.4056024521
 10
-89.2468079426
 20
29.0824059204
 10
-89.5132422047
 20
26.7552046229
 10
-89.7466549
 20
24.4244654177
 10
-89.9469925998
 20
22.0906548925
 10
-90.1143079206
 20
19.7542393616
 10
-90.2486004565
 20
17.4156852783
  0
LWPOLYLINE
  5
324
100
AcDbEntity
  8
0
100
AcDbPolyline
 62
7
  6
CONTINUOUS
 90
10
 70
0
 10
-87.7828970366
 20
38.3339782003
 10
-88.1807228801
 20
36.0266120313
 10
-88.545687967
 20
33.7138363958
 10
-88.8777918895
 20
31.3961183481
 10
-89.1770872624
 20
29.0739248079
 10
-89.4435206554
 20
26.7477229698
 10
-89.6769325932
 20
24.4179803051
 10
-89.8772696458
 20
22.0851640152
 10
-90.044584428
 20
19.7497410292
 10
-90.1788765322
 20
17.4121784145
  0
LINE
  5
325
100
AcDbEntity
  8
0
100
AcDbLine
 62
7
  6
CONTINUOUS
 10
-87.8526130921
 20
38.3464986131
 11
-87.7210296579
 21
39.0699353645
  0
LINE
  5
326
100
AcDbEntity
  8
0
100
AcDbLine
 62
7
  6
CONTINUOUS
 10
-87.7210296579
 20
39.0699353645
 11
-87.5815260736
 21
39.8176955802
  0
LINE
  5
327
100
AcDbEntity
  8
0
100
AcDbLine
 62
7
  6
CONTINUOUS
 10
-87.5815260736
 20
39.8176955802
 11
-87.5571369021
 21
39.9464986131
  0
LINE
  5
328
100
AcDbEntity
  8
0
100
AcDbLine
 62
253
  6
CONTINUOUS
 10
-86.9451917869
 20
-5.0535013869
 11
-90.5151917869
 21
-5.0535013869
  0
LWPOLYLINE
  5
329
100
AcDbEntity
  8
0
100
AcDbPolyline
 62
7
  6
CONTINUOUS
 90
10
 70
0
 10
-90.1788765322
 20
-27.5191811882
 10
-90.0445844282
 20
-29.8567438005
 10
-89.8772696461
 20
-32.1921667841
 10
-89.6769325937
 20
-34.5249830715
 10
-89.4435206561
 20
-36.854725733
 10
-89.1770872635
 20
-39.1809275679
 10
-88.8777918905
 20
-41.5031211073
 10
-88.5456879674
 20
-43.8208391575
 10
-88.1807228795
 20
-46.1336147978
 10
-87.7828970346
 20
-48.4409809741
  0
LWPOLYLINE
  5
32A
100
AcDbEntity
  8
0
100
AcDbPolyline
 62
7
  6
CONTINUOUS
 90
10
 70
0
 10
-90.2486004565
 20
-27.5226880521
 10
-90.1143079206
 20
-29.8612421354
 10
-89.9469925998
 20
-32.1976576663
 10
-89.7466549
 20
-34.5314681915
 10
-89.5132422047
 20
-36.8622073966
 10
-89.2468079426
 20
-39.1894086942
 10
-88.9475115873
 20
-41.5126052259
 10
-88.6154065677
 20
-43.8313304112
 10
-88.2504402672
 20
-46.1451179449
 10
-87.8526130921
 20
-48.4535013869
  0
LWPOLYLINE
  5
32B
100
AcDbEntity
  8
0
100
AcDbPolyline
 62
7
  6
CONTINUOUS
 90
13
 70
0
 10
-90.2486004565
 20
-27.5226880521
 10
-90.421137112
 20
-23.7801959767
 10
-90.5623059635
 20
-20.0364045969
 10
-90.6721070136
 20
-16.2915766849
 10
-90.750543324
 20
-12.5459798383
 10
-90.7976118392
 20
-8.7998719868
 10
-90.8133033838
 20
-5.0535013869
 10
-90.7976118392
 20
-1.307130787
 10
-90.750543324
 20
2.4389770646
 10
-90.6721070136
 20
6.1845739111
 10
-90.5623059635
 20
9.9294018231
 10
-90.421137112
 20
13.673193203
 10
-90.2486004565
 20
17.4156852783
  0
LINE
  5
32C
100
AcDbEntity
  8
0
100
AcDbLine
 62
253
  6
CONTINUOUS
 10
-89.3618724067
 20
-49.8956074896
 11
-89.3921016251
 21
-48.4513910824
  0
LINE
  5
32D
100
AcDbEntity
  8
0
100
AcDbLine
 62
253
  6
CONTINUOUS
 10
-89.3619131872
 20
39.7861913186
 11
-89.3618724067
 21
39.7886047158
  0
LINE
  5
32E
100
AcDbEntity
  8
0
100
AcDbLine
 62
253
  6
CONTINUOUS
 10
-89.392079597
 20
38.3454438571
 11
-89.3690201624
 21
39.4527622508
  0
LINE
  5
32F
100
AcDbEntity
  8
0
100
AcDbLine
 62
253
  6
CONTINUOUS
 10
-89.3690201624
 20
39.4527622508
 11
-89.3619131872
 21
39.7861913186
  0
LWPOLYLINE
  5
330
100
AcDbEntity
  8
0
100
AcDbPolyline
 62
7
  6
CONTINUOUS
 90
13
 70
0
 10
-90.1788765322
 20
17.4121784145
 10
-90.3514129825
 20
13.6702719422
 10
-90.4925816661
 20
9.9270655522
 10
-90.6023825856
 20
6.182822139
 10
-90.6808188027
 20
2.4378094216
 10
-90.727887262
 20
-1.3077145474
 10
-90.743578788
 20
-5.0535013869
 10
-90.727887262
 20
-8.7992882264
 10
-90.6808188027
 20
-12.5448121954
 10
-90.6023825856
 20
-16.2898249127
 10
-90.4925816661
 20
-20.034068326
 10
-90.3514129825
 20
-23.7772747159
 10
-90.1788765322
 20
-27.5191811882
  0
LINE
  5
331
100
AcDbEntity
  8
RACCORDO
100
AcDbLine
 62
7
  6
CONTINUOUS
 10
-86.7799214225
 20
-1.5243597625
 11
-84.9451917869
 21
-1.2008474255
  0
LINE
  5
332
100
AcDbEntity
  8
0
100
AcDbLine
 62
7
  6
CONTINUOUS
 10
-87.5571369021
 20
39.9464986131
 11
-87.4874123079
 21
39.1495428546
  0
LINE
  5
333
100
AcDbEntity
  8
RACCORDO
100
AcDbLine
 62
7
  6
CONTINUOUS
 10
-86.9451917869
 20
-8.3856814606
 11
-86.9451917869
 21
-1.7213213131
  0
LINE
  5
334
100
AcDbEntity
  8
DRAFT
100
AcDbLine
 62
7
  6
CONTINUOUS
 10
-84.9451917869
 20
-27.4221105794
 11
-84.9451917869
 21
-8.9061553483
  0
LINE
  5
335
100
AcDbEntity
  8
RACCORDO
100
AcDbLine
 62
7
  6
CONTINUOUS
 10
-84.9451917869
 20
-27.4221105794
 11
-84.9451917869
 21
-48.1535014659
  0
LINE
  5
336
100
AcDbEntity
  8
DRAFT
100
AcDbLine
 62
7
  6
CONTINUOUS
 10
-84.9451917869
 20
-1.2008474255
 11
-84.9451917869
 21
17.3151078057
  0
LINE
  5
337
100
AcDbEntity
  8
RACCORDO
100
AcDbLine
 62
7
  6
CONTINUOUS
 10
-84.9451917869
 20
17.3151078057
 11
-84.9451917869
 21
38.0464986182
  0
LINE
  5
338
100
AcDbEntity
  8
0
100
AcDbLine
 62
7
  6
CONTINUOUS
 10
-87.5571369021
 20
-50.0535013869
 11
-87.4874123079
 21
-49.2565456284
  0
LINE
  5
339
100
AcDbEntity
  8
RACCORDO
100
AcDbLine
 62
253
  6
CONTINUOUS
 10
-89.9511081656
 20
17.3958319465
 11
-90.1788765322
 21
17.3958319465
  0
LINE
  5
33A
100
AcDbEntity
  8
0
100
AcDbLine
 62
253
  6
CONTINUOUS
 10
-91.7639516829
 20
17.4156852783
 11
-90.2486004565
 21
17.4156852783
  0
LWPOLYLINE
  5
33B
100
AcDbEntity
  8
0
100
AcDbPolyline
 62
253
  6
CONTINUOUS
 90
3
 70
0
 10
-89.9511081656
 20
17.3958319465
 10
-85.3390957484
 20
17.3219768565
 10
-84.9451917869
 20
17.3151078057
  0
LINE
  5
33C
100
AcDbEntity
  8
0
100
AcDbLine
 62
253
  6
CONTINUOUS
 10
-92.9490201544
 20
17.4750691617
 11
-91.7639516829
 21
17.4156852783
  0
LINE
  5
33D
100
AcDbEntity
  8
0
100
AcDbLine
 62
253
  6
CONTINUOUS
 10
-90.2486004565
 20
17.4156852783
 11
-90.1788765322
 21
17.4121784145
  0
LINE
  5
33E
100
AcDbEntity
  8
0
100
AcDbLine
 62
253
  6
CONTINUOUS
 10
-92.9451917841
 20
17.5513141715
 11
-91.7601343551
 21
17.4917624009
  0
LWPOLYLINE
  5
33F
100
AcDbEntity
  8
RACCORDO
100
AcDbPolyline
 62
253
  6
CONTINUOUS
 90
19
 70
0
 10
-85.6635019978
 20
38.7258105496
 10
-85.6409744468
 20
38.7068860344
 10
-85.6207999936
 20
38.6849974351
 10
-85.6030742402
 20
38.6602484747
 10
-85.587881185
 20
38.6327564304
 10
-85.5752928247
 20
38.6026515785
 10
-85.5653688129
 20
38.5700765757
 10
-85.558156178
 20
38.5351857848
 10
-85.5536891
 20
38.4981445429
 10
-85.5519887485
 20
38.4591283775
 10
-85.5530631823
 20
38.4183221745
 10
-85.5569073112
 20
38.3759193031
 10
-85.56350292
 20
38.3321206994
 10
-85.572818755
 20
38.2871339125
 10
-85.584810672
 20
38.2411721226
 10
-85.5994218449
 20
38.1944531321
 10
-85.6165830357
 20
38.1471983303
 10
-85.6362129229
 20
38.0996316444
 10
-85.6582184863
 20
38.0519784802
  0
LWPOLYLINE
  5
340
100
AcDbEntity
  8
RACCORDO
100
AcDbPolyline
 62
253
  6
CONTINUOUS
 90
13
 70
0
 10
-85.6582183959
 20
38.0519784746
 10
-85.5767368708
 20
38.0031218716
 10
-85.4999277446
 20
37.9549242805
 10
-85.4276674998
 20
37.907389207
 10
-85.3599815964
 20
37.8604584129
 10
-85.2965881859
 20
37.8141968575
 10
-85.2369251555
 20
37.7687925745
 10
-85.1809732601
 20
37.72437097
 10
-85.1285482988
 20
37.6808125844
 10
-85.0788921361
 20
37.6379372944
 10
-85.0317163106
 20
37.5956861808
 10
-84.9871726841
 20
37.5541221817
 10
-84.9451917734
 20
37.5132472731
  0
LINE
  5
341
100
AcDbEntity
  8
RACCORDO
100
AcDbLine
 62
253
  6
CONTINUOUS
 10
-87.8698402411
 20
37.8297127992
 11
-87.6378522746
 21
37.8500203235
  0
LINE
  5
342
100
AcDbEntity
  8
RACCORDO
100
AcDbLine
 62
7
  6
CONTINUOUS
 10
-87.6024964166
 20
38.8339028088
 11
-87.4585257149
 21
38.8464986131
  0
LINE
  5
343
100
AcDbEntity
  8
0
100
AcDbLine
 62
7
  6
CONTINUOUS
 10
-89.3618724067
 20
39.7886047158
 11
-87.5571369021
 21
39.9464986131
  0
LINE
  5
344
100
AcDbEntity
  8
0
100
AcDbLine
 62
253
  6
CONTINUOUS
 10
-89.391905782
 20
38.3454439547
 11
-87.8526130921
 21
38.3464986131
  0
LINE
  5
345
100
AcDbEntity
  8
RACCORDO
100
AcDbLine
 62
253
  6
CONTINUOUS
 10
-85.6582183959
 20
38.0519784746
 11
-87.5999277486
 21
38.0637101254
  0
LWPOLYLINE
  5
346
100
AcDbEntity
  8
0
100
AcDbPolyline
 62
253
  6
CONTINUOUS
 90
3
 70
0
 10
-90.5586772055
 20
38.5519744386
 10
-90.5562165256
 20
38.551660024
 10
-90.5488871056
 20
38.5504793738
  0
LWPOLYLINE
  5
347
100
AcDbEntity
  8
RACCORDO
100
AcDbPolyline
 62
253
  6
CONTINUOUS
 90
13
 70
0
 10
-87.4933182595
 20
38.6558760079
 10
-87.3387585747
 20
38.6329525369
 10
-87.1841080032
 20
38.6054315406
 10
-87.0295188537
 20
38.57330318
 10
-86.8753555697
 20
38.5367587032
 10
-86.7215954298
 20
38.4955870858
 10
-86.5678369673
 20
38.4491732499
 10
-86.414059592
 20
38.3975514313
 10
-86.2607478221
 20
38.3406630674
 10
-86.1082696446
 20
38.2777504147
 10
-85.9568994467
 20
38.2085507462
 10
-85.8068102126
 20
38.1332981677
 10
-85.6582183959
 20
38.0519784746
  0
LINE
  5
348
100
AcDbEntity
  8
0
100
AcDbLine
 62
253
  6
CONTINUOUS
 10
-90.5488871056
 20
38.5504793738
 11
-90.5197522327
 21
38.5455406462
  0
LINE
  5
349
100
AcDbEntity
  8
0
100
AcDbLine
 62
253
  6
CONTINUOUS
 10
-90.5197522327
 20
38.5455406462
 11
-89.3920576898
 21
38.3464985243
  0
LINE
  5
34A
100
AcDbEntity
  8
0
100
AcDbLine
 62
7
  6
CONTINUOUS
 10
-87.8526130921
 20
38.3464986131
 11
-87.7828970379
 21
38.3339781925
  0
LWPOLYLINE
  5
34B
100
AcDbEntity
  8
RACCORDO
100
AcDbPolyline
 62
253
  6
CONTINUOUS
 90
13
 70
0
 10
-85.6582183959
 20
-48.1589812484
 10
-85.5786052589
 20
-48.1113162533
 10
-85.5032157422
 20
-48.0640834529
 10
-85.4319428823
 20
-48.0172857405
 10
-85.3647957001
 20
-47.9708655481
 10
-85.3015420794
 20
-47.924886036
 10
-85.2417303737
 20
-47.8795310379
 10
-85.185325656
 20
-47.8348916619
 10
-85.1321791729
 20
-47.7908819289
 10
-85.0817085002
 20
-47.7474194796
 10
-85.0336827278
 20
-47.7044779718
 10
-84.9881996429
 20
-47.6620875251
 10
-84.9451917163
 20
-47.6202499928
  0
ARC
  5
34C
100
AcDbEntity
  8
0
100
AcDbCircle
 62
7
  6
CONTINUOUS
 10
44.35
 20
16.6964986131
 40
0.8
100
AcDbArc
 50
0.0000219597
 51
89.9985948723
  0
ARC
  5
34D
100
AcDbEntity
  8
0
100
AcDbCircle
 62
7
  6
CONTINUOUS
 10
44.35
 20
-26.8035013869
 40
0.8
100
AcDbArc
 50
270.0008167777
 51
359.9992233358
  0
ARC
  5
34E
100
AcDbEntity
  8
0
100
AcDbCircle
 62
7
  6
CONTINUOUS
 10
-44.35
 20
-26.8035013869
 40
0.8
100
AcDbArc
 50
180.0000215896
 51
269.9985724246
  0
ARC
  5
34F
100
AcDbEntity
  8
0
100
AcDbCircle
 62
7
  6
CONTINUOUS
 10
-44.35
 20
16.6964986131
 40
0.8
100
AcDbArc
 50
90.0008249767
 51
179.9991643371
  0
ARC
  5
350
100
AcDbEntity
  8
0
100
AcDbCircle
 62
7
  6
CONTINUOUS
 10
74.9634696851
 20
-19.2131121854
 40
168.1209091124
100
AcDbArc
 50
182.8793441777
 51
190.1462645046
  0
ARC
  5
351
100
AcDbEntity
  8
0
100
AcDbCircle
 62
7
  6
CONTINUOUS
 10
74.9605216161
 20
-19.2101413869
 40
165.12
100
AcDbArc
 50
182.8787323946
 51
190.1014160741
  0
ARC
  5
352
100
AcDbEntity
  8
RACCORDO
100
AcDbCircle
 62
7
  6
CONTINUOUS
 10
74.9605216161
 20
-19.2101413869
 40
165.12
100
AcDbArc
 50
190.1014160741
 51
190.5891670948
  0
ARC
  5
353
100
AcDbEntity
  8
RACCORDO
100
AcDbCircle
 62
7
  6
CONTINUOUS
 10
-88.0455729816
 20
-45.5945506497
 40
4.0200239337
100
AcDbArc
 50
279.9999996913
 51
320.464875236
  0
ARC
  5
354
100
AcDbEntity
  8
0
100
AcDbCircle
 62
7
  6
CONTINUOUS
 10
-89.2485723517
 20
-48.6005409147
 40
1.3
100
AcDbArc
 50
190.1468674987
 51
265.0001575624
  0
ARC
  5
355
100
AcDbEntity
  8
RACCORDO
100
AcDbCircle
 62
7
  6
CONTINUOUS
 10
-86.7451917869
 20
-8.3856814606
 40
0.2
100
AcDbArc
 50
180.0
 51
260.0
  0
ARC
  5
356
100
AcDbEntity
  8
0
100
AcDbCircle
 62
7
  6
CONTINUOUS
 10
74.9634696851
 20
9.1061094116
 40
168.1209091124
100
AcDbArc
 50
169.8537354954
 51
177.1206557591
  0
ARC
  5
357
100
AcDbEntity
  8
RACCORDO
100
AcDbCircle
 62
7
  6
CONTINUOUS
 10
74.9605216161
 20
9.1031386131
 40
165.12
100
AcDbArc
 50
169.4108329052
 51
169.8985839314
  0
ARC
  5
358
100
AcDbEntity
  8
0
100
AcDbCircle
 62
7
  6
CONTINUOUS
 10
74.9605216161
 20
9.1031386131
 40
165.12
100
AcDbArc
 50
169.8985839314
 51
177.1212676054
  0
ARC
  5
359
100
AcDbEntity
  8
RACCORDO
100
AcDbCircle
 62
7
  6
CONTINUOUS
 10
-88.0455729816
 20
35.4875478759
 40
4.0200239337
100
AcDbArc
 50
39.5351233981
 51
80.0000000573
  0
ARC
  5
35A
100
AcDbEntity
  8
0
100
AcDbCircle
 62
7
  6
CONTINUOUS
 10
-89.2485723517
 20
38.493538141
 40
1.3
100
AcDbArc
 50
94.999842448
 51
169.8531325013
  0
ARC
  5
35B
100
AcDbEntity
  8
RACCORDO
100
AcDbCircle
 62
7
  6
CONTINUOUS
 10
-86.7451917869
 20
-1.7213213131
 40
0.2
100
AcDbArc
 50
100.0
 51
180.0
  0
ARC
  5
35C
100
AcDbEntity
  8
0
100
AcDbCircle
 62
7
  6
CONTINUOUS
 10
356.4866966162
 20
-5.0535013869
 40
450.0
100
AcDbArc
 50
177.1206544659
 51
182.8793455105
  0
ARC
  5
35D
100
AcDbEntity
  8
0
100
AcDbCircle
 62
7
  6
CONTINUOUS
 10
356.4848082131
 20
-5.0535013869
 40
447.0
100
AcDbArc
 50
177.1212676054
 51
182.8787323946
  0
ENDSEC
  0
SECTION
  2
OBJECTS
  0
DICTIONARY
  5
C
100
AcDbDictionary
280
0
281
1
  3
ACAD_GROUP
350
D
  3
ACAD_MLINESTYLE
350
17
  3
ACAD_LAYOUT
350
1A
  3
ACAD_PLOTSETTINGS
350
19
  3
ACAD_PLOTSTYLENAME
350
E
  0
DICTIONARY
  5
D
102
{ACAD_REACTORS
330
C
102
}
100
AcDbDictionary
280
0
281
1
  0
ACDBDICTIONARYWDFLT
  5
E
102
{ACAD_REACTORS
330
C
102
}
100
AcDbDictionary
281
1
  3
Normal
350
F
100
AcDbDictionaryWithDefault
340
F
  0
DICTIONARY
  5
17
102
{ACAD_REACTORS
330
C
102
}
100
AcDbDictionary
280
0
281
1
  3
Standard
350
18
  0
DICTIONARY
  5
19
102
{ACAD_REACTORS
330
C
102
}
100
AcDbDictionary
281
1
  0
DICTIONARY
  5
1A
102
{ACAD_REACTORS
330
C
102
}
100
AcDbDictionary
281
1
  3
Model
350
35E
  3
Layout1
350
35F
  0
ACDBPLACEHOLDER
  5
F
102
{ACAD_REACTORS
330
E
102
}
  0
MLINESTYLE
  5
18
102
{ACAD_REACTORS
330
17
102
}
100
AcDbMlineStyle
  2
STANDARD
 70
0
  3

 62
256
 51
90.0
 52
90.0
 71
2
 49
0.5
 62
256
  6
BYLAYER
 49
-0.5
 62
256
  6
BYLAYER
  0
LAYOUT
  5
35E
102
{ACAD_REACTORS
330
1A
102
}
100
AcDbPlotSettings
  1

  2
none_device
  4
ISO_A4_(297.00_x_210.00_MM)
  6

 40
0.0
 41
0.0
 42
0.0
 43
0.0
 44
297.0
 45
210.0
 46
0.0
 47
0.0
 48
0.0
 49
0.0
140
0.0
141
0.0
142
1.0
143
1.0
 70
1024
 72
1
 73
0
 74
0
  7

 75
0
147
1.0
148
0.0
149
0.0
100
AcDbLayout
  1
Model
 70
0
 71
0
 10
0.0
 20
0.0
 11
297.0
 21
210.0
 12
0.0
 22
0.0
 32
0.0
 14
0.0
 24
0.0
 34
0.0
 15
0.0
 25
0.0
 35
0.0
146
0.0
 13
0.0
 23
0.0
 33
0.0
 16
1.0
 26
0.0
 36
0.0
 17
0.0
 27
1.0
 37
0.0
 76
0
330
210
345
0
346
0
  0
LAYOUT
  5
35F
102
{ACAD_REACTORS
330
1A
102
}
100
AcDbPlotSettings
  1

  2
none_device
  4
ISO_A4_(297.00_x_210.00_MM)
  6

 40
0.0
 41
0.0
 42
0.0
 43
0.0
 44
297.0
 45
210.0
 46
0.0
 47
0.0
 48
0.0
 49
0.0
140
0.0
141
0.0
142
1.0
143
1.0
 70
0
 72
1
 73
0
 74
0
  7

 75
0
147
1.0
148
0.0
149
0.0
100
AcDbLayout
  1
Layout1
 70
0
 71
1
 10
0.0
 20
0.0
 11
297.0
 21
210.0
 12
0.0
 22
0.0
 32
0.0
 14
0.0
 24
0.0
 34
0.0
 15
0.0
 25
0.0
 35
0.0
146
0.0
 13
0.0
 23
0.0
 33
0.0
 16
1.0
 26
0.0
 36
0.0
 17
0.0
 27
1.0
 37
0.0
 76
0
330
211
345
0
346
0
  0
ENDSEC
  0
EOF
