  0
SECTION
  2
HEADER
  9
$ACADVER
  1
AC1021
  9
$DWGCODEPAGE
  3
ANSI_1252
  9
$EXTMAX
 10
297.0
 20
210.0
 30
0.0
  9
$EXTMIN
 10
0.0
 20
0.0
 30
0.0
  9
$LIMMIN
 10
0.0
 20
0.0
  9
$LIMMAX
 10
297.0
 20
210.0
  9
$VIEWCTR
 10
148.5
 20
105.0
  9
$VIEWSIZE
 40
210.0
  9
$CLAYER
  8
0
  9
$LTSCALE
 40
16.335
  9
$CELTYPE
  6
BYLAYER
  9
$DIMSCALE
 40
1.0
  9
$DIMASZ
 40
3.0
  9
$DIMEXO
 40
1.85625
  9
$DIMDLI
 40
11.286
  9
$DIMEXE
 40
5.346
  9
$DIMCEN
 40
2.673
  9
$DIMLFAC
 40
1.0
  9
$DIMBLK
  1
_FILLED
  9
$DIMTXT
 40
3.0
  9
$DIMTOL
 70
1
  9
$DIMLIM
 70
0
  9
$DIMTFAC
 40
1.0
  9
$DIMTP
 40
0.01
  9
$DIMTM
 40
0.01
  9
$PDMODE
 70
3
  9
$PDSIZE
 40
3.0
  9
$HANDSEED
  5
468
  9
$TILEMODE
 70
1
  9
$MEASUREMENT
 70
1
  9
$INSUNITS
 70
4
  0
ENDSEC
  0
SECTION
  2
CLASSES
  0
CLASS
  1
ACDBDICTIONARYWDFLT
  2
AcDbDictionaryWithDefault
  3
AutoCAD 2000
 90
0
 91
1
280
0
281
0
  0
CLASS
  1
ACDBPLACEHOLDER
  2
AcDbPlaceHolder
  3
AutoCAD 2000
 90
0
 91
1
280
0
281
0
  0
CLASS
  1
LAYOUT
  2
AcDbLayout
  3
AutoCAD 2000
 90
0
 91
0
280
0
281
0
  0
ENDSEC
  0
SECTION
  2
TABLES
  0
TABLE
  2
VPORT
  5
8
100
AcDbSymbolTable
 70
2
  0
VPORT
  5
1F4
100
AcDbSymbolTableRecord
100
AcDbViewportTableRecord
  2
*ACTIVE
 70
0
 10
0.0
 20
0.0
 11
1.0
 21
1.0
 12
148.5
 22
105.0
 13
0.0
 23
0.0
 14
1.0
 24
1.0
 15
0.0
 25
0.0
 16
0.0
 26
0.0
 36
1.0
 17
0.0
 27
0.0
 37
0.0
 40
210.0
 41
1.4142857143
 42
50.0
 43
0.0
 44
0.0
 50
0.0
 51
0.0
 71
0
 72
100
 73
1
 74
1
 75
0
 76
0
 77
0
 78
0
  0
ENDTAB
  0
TABLE
  2
LTYPE
  5
5
100
AcDbSymbolTable
 70
6
  0
LTYPE
  5
14
100
AcDbSymbolTableRecord
100
AcDbLinetypeTableRecord
  2
BYBLOCK
 70
0
  3

 72
65
 73
0
 40
0.0
  0
LTYPE
  5
15
100
AcDbSymbolTableRecord
100
AcDbLinetypeTableRecord
  2
BYLAYER
 70
0
  3

 72
65
 73
0
 40
0.0
  0
LTYPE
  5
16
100
AcDbSymbolTableRecord
100
AcDbLinetypeTableRecord
  2
CONTINUOUS
 70
64
  3
Solid line
 72
65
 73
0
 40
0.0
  0
LTYPE
  5
1F5
100
AcDbSymbolTableRecord
100
AcDbLinetypeTableRecord
  2
CENTER
 70
64
  3
____ _ ____ _ ____ _ ____ _ ____ _ ____ _ ____
 72
65
 73
4
 40
0.6
 49
0.375
 74
0
 49
-0.075
 74
0
 49
0.075
 74
0
 49
-0.075
 74
0
  0
LTYPE
  5
1F6
100
AcDbSymbolTableRecord
100
AcDbLinetypeTableRecord
  2
HIDDEN
 70
64
  3
- - - - - - - - - - - - - - - - - - - -
 72
65
 73
2
 40
0.2
 49
0.1
 74
0
 49
-0.1
 74
0
  0
LTYPE
  5
1F7
100
AcDbSymbolTableRecord
100
AcDbLinetypeTableRecord
  2
PHANTOM
 70
64
  3
_____ _ _ _____ _ _ _____ _ _ _____
 72
65
 73
6
 40
0.8
 49
0.45
 74
0
 49
-0.05
 74
0
 49
0.1
 74
0
 49
-0.05
 74
0
 49
0.1
 74
0
 49
-0.05
 74
0
  0
LTYPE
  5
1F8
100
AcDbSymbolTableRecord
100
AcDbLinetypeTableRecord
  2
DOT
 70
64
  3
. . . . . . . . . . . . . . . . . . . .
 72
65
 73
2
 40
0.2
 49
0.1
 74
0
 49
-0.1
 74
0
  0
LTYPE
  5
1F9
100
AcDbSymbolTableRecord
100
AcDbLinetypeTableRecord
  2
DASHED
 70
64
  3
- - - - - - - - - - - - - - - - - - - -
 72
65
 73
2
 40
0.2
 49
0.1
 74
0
 49
-0.1
 74
0
  0
ENDTAB
  0
TABLE
  2
LAYER
  5
2
100
AcDbSymbolTable
 70
36
  0
LAYER
  5
10
100
AcDbSymbolTableRecord
100
AcDbLayerTableRecord
  2
0
 70
0
 62
7
  6
CONTINUOUS
370
-3
390
F
  0
LAYER
  5
1FA
100
AcDbSymbolTableRecord
100
AcDbLayerTableRecord
  2
DEFAULT_1
 70
0
 62
7
  6
CENTER
370
-3
390
F
  0
LAYER
  5
1FB
100
AcDbSymbolTableRecord
100
AcDbLayerTableRecord
  2
DEFAULT_2
 70
0
 62
7
  6
HIDDEN
370
-3
390
F
  0
LAYER
  5
1FC
100
AcDbSymbolTableRecord
100
AcDbLayerTableRecord
  2
DEFAULT_3
 70
0
 62
7
  6
PHANTOM
370
-3
390
F
  0
LAYER
  5
1FD
100
AcDbSymbolTableRecord
100
AcDbLayerTableRecord
  2
ASSI
 70
0
 62
7
  6
CONTINUOUS
370
-3
390
F
  0
LAYER
  5
1FE
100
AcDbSymbolTableRecord
100
AcDbLayerTableRecord
  2
COORDINATE
 70
0
 62
7
  6
CONTINUOUS
370
-3
390
F
  0
LAYER
  5
1FF
100
AcDbSymbolTableRecord
100
AcDbLayerTableRecord
  2
COPY_PUBLISH
 70
0
 62
7
  6
CONTINUOUS
370
-3
390
F
  0
LAYER
  5
200
100
AcDbSymbolTableRecord
100
AcDbLayerTableRecord
  2
COSMETICI
 70
0
 62
7
  6
CONTINUOUS
370
-3
390
F
  0
LAYER
  5
201
100
AcDbSymbolTableRecord
100
AcDbLayerTableRecord
  2
CURVE
 70
0
 62
7
  6
CONTINUOUS
370
-3
390
F
  0
LAYER
  5
202
100
AcDbSymbolTableRecord
100
AcDbLayerTableRecord
  2
DRAFT
 70
0
 62
7
  6
CONTINUOUS
370
-3
390
F
  0
LAYER
  5
203
100
AcDbSymbolTableRecord
100
AcDbLayerTableRecord
  2
IMPORT_IGES
 70
0
 62
7
  6
CONTINUOUS
370
-3
390
F
  0
LAYER
  5
204
100
AcDbSymbolTableRecord
100
AcDbLayerTableRecord
  2
INTF_1
 70
0
 62
7
  6
CONTINUOUS
370
-3
390
F
  0
LAYER
  5
205
100
AcDbSymbolTableRecord
100
AcDbLayerTableRecord
  2
NOTE
 70
0
 62
7
  6
CONTINUOUS
370
-3
390
F
  0
LAYER
  5
206
100
AcDbSymbolTableRecord
100
AcDbLayerTableRecord
  2
PIANI
 70
0
 62
7
  6
CONTINUOUS
370
-3
390
F
  0
LAYER
  5
207
100
AcDbSymbolTableRecord
100
AcDbLayerTableRecord
  2
PUNTI
 70
0
 62
7
  6
CONTINUOUS
370
-3
390
F
  0
LAYER
  5
208
100
AcDbSymbolTableRecord
100
AcDbLayerTableRecord
  2
RACCORDO
 70
0
 62
7
  6
CONTINUOUS
370
-3
390
F
  0
LAYER
  5
209
100
AcDbSymbolTableRecord
100
AcDbLayerTableRecord
  2
SCRITTE
 70
0
 62
7
  6
CONTINUOUS
370
-3
390
F
  0
LAYER
  5
20A
100
AcDbSymbolTableRecord
100
AcDbLayerTableRecord
  2
SIMBOLI
 70
0
 62
7
  6
CONTINUOUS
370
-3
390
F
  0
LAYER
  5
20B
100
AcDbSymbolTableRecord
100
AcDbLayerTableRecord
  2
SMUSSO
 70
0
 62
7
  6
CONTINUOUS
370
-3
390
F
  0
LAYER
  5
20C
100
AcDbSymbolTableRecord
100
AcDbLayerTableRecord
  2
SNAPLINE
 70
0
 62
7
  6
CONTINUOUS
370
-3
390
F
  0
LAYER
  5
20D
100
AcDbSymbolTableRecord
100
AcDbLayerTableRecord
  2
SUPERFICI
 70
0
 62
7
  6
CONTINUOUS
370
-3
390
F
  0
LAYER
  5
20E
100
AcDbSymbolTableRecord
100
AcDbLayerTableRecord
  2
TRASH
 70
0
 62
7
  6
CONTINUOUS
370
-3
390
F
  0
ENDTAB
  0
TABLE
  2
STYLE
  5
3
100
AcDbSymbolTable
 70
1
  0
STYLE
  5
11
100
AcDbSymbolTableRecord
100
AcDbTextStyleTableRecord
  2
STANDARD
 70
0
 40
0.0
 41
0.8
 50
0.0
 71
0
 42
0.2
  3
txt
  4

  0
STYLE
  5
20F
100
AcDbSymbolTableRecord
100
AcDbTextStyleTableRecord
  2
TEXTSTYLE_1
 70
0
 40
0.0
 41
0.8
 50
0.0
 71
0
 42
0.2
  3
gdt
  4

  0
ENDTAB
  0
TABLE
  2
VIEW
  5
6
100
AcDbSymbolTable
 70
0
  0
ENDTAB
  0
TABLE
  2
UCS
  5
7
100
AcDbSymbolTable
 70
0
  0
ENDTAB
  0
TABLE
  2
APPID
  5
9
100
AcDbSymbolTable
 70
1
  0
APPID
  5
210
100
AcDbSymbolTableRecord
100
AcDbRegAppTableRecord
  2
ACAD
 70
0
  0
ENDTAB
  0
TABLE
  2
BLOCK_RECORD
  5
1
100
AcDbSymbolTable
 70
0
  0
BLOCK_RECORD
  5
211
100
AcDbSymbolTableRecord
100
AcDbBlockTableRecord
  2
*Model_Space
  0
BLOCK_RECORD
  5
212
100
AcDbSymbolTableRecord
100
AcDbBlockTableRecord
  2
*Paper_Space
  0
BLOCK_RECORD
  5
213
100
AcDbSymbolTableRecord
100
AcDbBlockTableRecord
  2
_FILLED
  0
BLOCK_RECORD
  5
214
100
AcDbSymbolTableRecord
100
AcDbBlockTableRecord
  2
*D0
  0
BLOCK_RECORD
  5
215
100
AcDbSymbolTableRecord
100
AcDbBlockTableRecord
  2
*D1
  0
BLOCK_RECORD
  5
216
100
AcDbSymbolTableRecord
100
AcDbBlockTableRecord
  2
*D2
  0
BLOCK_RECORD
  5
217
100
AcDbSymbolTableRecord
100
AcDbBlockTableRecord
  2
*D3
  0
BLOCK_RECORD
  5
218
100
AcDbSymbolTableRecord
100
AcDbBlockTableRecord
  2
*D4
  0
ENDTAB
  0
TABLE
  2
DIMSTYLE
  5
A
100
AcDbSymbolTable
 70
1
100
AcDbDimStyleTable
 71
0
  0
DIMSTYLE
105
219
100
AcDbSymbolTableRecord
100
AcDbDimStyleTableRecord
  2
STANDARD
 70
0
  3

  4

 40
1.0
 41
3.0
 42
0.0625
 43
0.38
 44
0.18
 45
0.0
 46
0.0
 47
0.01
 48
0.01
140
3.0
141
0.09
142
0.0
143
25.4
144
1.0
145
0.0
146
1.0
147
0.09
 71
1.0
 72
0.0
 73
0
 74
0
 75
0
 76
0
 77
1
 78
8
170
0
171
2
172
0
173
0
174
0
175
0
176
0
177
0
178
0
270
2
271
2
272
2
273
2
274
2
275
0
280
0
281
0
282
0
283
1
284
8
285
0
286
0
287
3
288
0
340
11
341
213
342
213
343
213
344
213
  0
DIMSTYLE
105
21A
100
AcDbSymbolTableRecord
100
AcDbDimStyleTableRecord
  2
DIMSTYLE_1
 70
0
  3

  4

 40
1.0
 41
3.0
 42
0.0625
 43
0.38
 44
0.18
 45
0.0
 46
0.0
 47
0.0
 48
0.0
140
3.0
141
0.09
142
0.0
143
25.4
144
1.0
145
0.0
146
1.0
147
0.09
 71
0.0
 72
0.0
 73
0
 74
0
 75
0
 76
0
 77
1
 78
8
170
0
171
2
172
0
173
0
174
0
175
0
176
0
177
0
178
0
270
2
271
2
272
2
273
2
274
2
275
0
280
0
281
0
282
0
283
1
284
8
285
0
286
0
287
3
288
0
340
11
341
213
342
213
343
213
344
213
  0
DIMSTYLE
105
21B
100
AcDbSymbolTableRecord
100
AcDbDimStyleTableRecord
  2
DIMSTYLE_2
 70
0
  3

  4

 40
1.0
 41
3.0
 42
0.0625
 43
0.38
 44
0.18
 45
0.0
 46
0.0
 47
0.0
 48
0.0
140
3.0
141
0.09
142
0.0
143
25.4
144
1.0
145
0.0
146
1.0
147
0.09
 71
0.0
 72
0.0
 73
0
 74
0
 75
0
 76
0
 77
1
 78
8
170
0
171
2
172
0
173
0
174
0
175
0
176
0
177
0
178
0
270
2
271
1
272
1
273
2
274
2
275
0
280
0
281
0
282
0
283
1
284
8
285
0
286
0
287
3
288
0
340
11
341
213
342
213
343
213
344
213
  0
ENDTAB
  0
ENDSEC
  0
SECTION
  2
BLOCKS
  0
BLOCK
  5
20
100
AcDbEntity
  8
0
100
AcDbBlockBegin
  2
*Model_Space
 70
0
 10
0.0
 20
0.0
 30
0.0
  3
*Model_Space
  1

  0
ENDBLK
  5
21
100
AcDbEntity
  8
0
100
AcDbBlockEnd
  0
BLOCK
  5
1C
100
AcDbEntity
  8
0
100
AcDbBlockBegin
  2
*Paper_Space
 70
0
 10
0.0
 20
0.0
 30
0.0
  3
*Paper_Space
  1

  0
ENDBLK
  5
1D
100
AcDbEntity
  8
0
100
AcDbBlockEnd
  0
BLOCK
  5
21C
100
AcDbEntity
  8
0
100
AcDbBlockBegin
  2
_FILLED
 70
64
 10
0.0
 20
0.0
  3
_FILLED
  1

  0
SOLID
  5
21D
100
AcDbEntity
  8
0
  6
BYBLOCK
 62
0
100
AcDbTrace
 10
0.0
 20
0.0
 11
-1.0
 21
0.3166666667
 12
-1.0
 22
-0.3166666667
 13
-1.0
 23
-0.3166666667
  0
ENDBLK
  5
21E
100
AcDbEntity
  8
0
  6
BYBLOCK
 62
0
100
AcDbBlockEnd
  0
BLOCK
  5
21F
100
AcDbEntity
  8
0
100
AcDbBlockBegin
 62
7
  6
CONTINUOUS
  2
*D0
 70
65
 10
0.0
 20
0.0
  3
*D0
  1

  0
MTEXT
  5
220
100
AcDbEntity
  8
0
100
AcDbMText
 62
7
  6
CONTINUOUS
  7
STANDARD
 71
2
 72
1
 10
154.649068323
 20
187.4656414737
 30
0.0
 11
1.0
 21
0.0
 31
0.0
 44
0.9
  1
144,5
 40
3.0
 41
10.2857142857
  0
LINE
  5
221
100
AcDbEntity
  8
0
100
AcDbLine
 62
7
  6
CONTINUOUS
 10
226.8990575391
 20
157.1121598008
 11
226.8990575391
 21
185.2156414737
  0
LINE
  5
222
100
AcDbEntity
  8
0
100
AcDbLine
 62
7
  6
CONTINUOUS
 10
82.3990791069
 20
157.1121598008
 11
82.3990791069
 21
185.2156414737
  0
LINE
  5
223
100
AcDbEntity
  8
0
100
AcDbLine
 62
7
  6
CONTINUOUS
 10
226.8990575391
 20
183.7156414737
 11
154.649068323
 21
183.7156414737
  0
LINE
  5
224
100
AcDbEntity
  8
0
100
AcDbLine
 62
7
  6
CONTINUOUS
 10
82.3990791069
 20
183.7156414737
 11
154.649068323
 21
183.7156414737
  0
INSERT
  5
225
100
AcDbEntity
  8
0
100
AcDbBlockReference
 62
7
  6
CONTINUOUS
  2
_FILLED
 10
226.8990575391
 20
183.7156414737
 41
3.0
 42
3.0
 43
3.0
  0
INSERT
  5
226
100
AcDbEntity
  8
0
100
AcDbBlockReference
 62
7
  6
CONTINUOUS
  2
_FILLED
 10
82.3990791069
 20
183.7156414737
 41
3.0
 42
3.0
 43
3.0
 50
180.0
  0
ENDBLK
  5
227
100
AcDbEntity
  8
0
  6
BYBLOCK
 62
0
100
AcDbBlockEnd
  0
BLOCK
  5
228
100
AcDbEntity
  8
0
100
AcDbBlockBegin
 62
7
  6
CONTINUOUS
  2
*D1
 70
65
 10
0.0
 20
0.0
  3
*D1
  1

  0
MTEXT
  5
229
100
AcDbEntity
  8
0
100
AcDbMText
 62
7
  6
CONTINUOUS
  7
STANDARD
 71
1
 72
1
 10
63.9392948041
 20
177.4656414737
 30
0.0
 11
1.0
 21
0.0
 31
0.0
 44
0.9
  1
8,6
 40
3.0
 41
6.4285714286
  0
LINE
  5
22A
100
AcDbEntity
  8
0
100
AcDbLine
 62
7
  6
CONTINUOUS
 10
59.2028515667
 20
155.67538736
 11
59.2028515798
 21
175.2156414769
  0
LINE
  5
22B
100
AcDbEntity
  8
0
100
AcDbLine
 62
7
  6
CONTINUOUS
 10
50.6347399562
 20
113.1086390014
 11
50.6347399978
 21
175.2156414827
  0
LINE
  5
22C
100
AcDbEntity
  8
0
100
AcDbLine
 62
7
  6
CONTINUOUS
 10
59.2028515788
 20
173.7156414769
 11
70.3678662327
 21
173.7156414737
  0
LINE
  5
22D
100
AcDbEntity
  8
0
100
AcDbLine
 62
7
  6
CONTINUOUS
 10
70.3678662327
 20
173.7156414737
 11
54.9187957878
 21
173.7156414798
  0
LINE
  5
22E
100
AcDbEntity
  8
0
100
AcDbLine
 62
7
  6
CONTINUOUS
 10
50.6347399968
 20
173.7156414827
 11
46.6347399968
 21
173.7156414853
  0
LINE
  5
22F
100
AcDbEntity
  8
0
100
AcDbLine
 62
7
  6
CONTINUOUS
 10
46.6347399968
 20
173.7156414853
 11
54.9187957878
 21
173.7156414798
  0
INSERT
  5
230
100
AcDbEntity
  8
0
100
AcDbBlockReference
 62
7
  6
CONTINUOUS
  2
_FILLED
 10
59.2028515788
 20
173.7156414769
 41
3.0
 42
3.0
 43
3.0
 50
179.9999999837
  0
INSERT
  5
231
100
AcDbEntity
  8
0
100
AcDbBlockReference
 62
7
  6
CONTINUOUS
  2
_FILLED
 10
50.6347399968
 20
173.7156414827
 41
3.0
 42
3.0
 43
3.0
 50
359.9999999616
  0
ENDBLK
  5
232
100
AcDbEntity
  8
0
  6
BYBLOCK
 62
0
100
AcDbBlockEnd
  0
BLOCK
  5
233
100
AcDbEntity
  8
0
100
AcDbBlockBegin
 62
7
  6
CONTINUOUS
  2
*D2
 70
65
 10
0.0
 20
0.0
  3
*D2
  1

  0
MTEXT
  5
234
100
AcDbEntity
  8
0
100
AcDbMText
 62
7
  6
CONTINUOUS
  7
STANDARD
 71
2
 72
1
 10
249.0434096868
 20
112.6086387
 30
0.0
 11
0.0
 21
1.0
 31
0.0
 44
0.9
  1
90
 40
3.0
 41
4.7142857143
  0
LINE
  5
235
100
AcDbEntity
  8
0
100
AcDbLine
 62
7
  6
CONTINUOUS
 10
226.4189874226
 20
157.6086387
 11
254.2934096868
 21
157.6086387
  0
LINE
  5
236
100
AcDbEntity
  8
0
100
AcDbLine
 62
7
  6
CONTINUOUS
 10
226.4189874226
 20
67.6086387
 11
254.2934096868
 21
67.6086387
  0
LINE
  5
237
100
AcDbEntity
  8
0
100
AcDbLine
 62
7
  6
CONTINUOUS
 10
252.7934096868
 20
157.6086387
 11
252.7934096868
 21
112.6086387
  0
LINE
  5
238
100
AcDbEntity
  8
0
100
AcDbLine
 62
7
  6
CONTINUOUS
 10
252.7934096868
 20
67.6086387
 11
252.7934096868
 21
112.6086387
  0
INSERT
  5
239
100
AcDbEntity
  8
0
100
AcDbBlockReference
 62
7
  6
CONTINUOUS
  2
_FILLED
 10
252.7934096868
 20
157.6086387
 41
3.0
 42
3.0
 43
3.0
 50
90.0
  0
INSERT
  5
23A
100
AcDbEntity
  8
0
100
AcDbBlockReference
 62
7
  6
CONTINUOUS
  2
_FILLED
 10
252.7934096868
 20
67.6086387
 41
3.0
 42
3.0
 43
3.0
 50
270.0
  0
ENDBLK
  5
23B
100
AcDbEntity
  8
0
  6
BYBLOCK
 62
0
100
AcDbBlockEnd
  0
BLOCK
  5
23C
100
AcDbEntity
  8
0
100
AcDbBlockBegin
 62
7
  6
CONTINUOUS
  2
*D3
 70
65
 10
0.0
 20
0.0
  3
*D3
  1

  0
MTEXT
  5
23D
100
AcDbEntity
  8
0
100
AcDbMText
 62
7
  6
CONTINUOUS
  7
STANDARD
 71
2
 72
1
 10
239.0434096868
 20
112.6086387
 30
0.0
 11
0.0
 21
1.0
 31
0.0
 44
0.9
  1
45,1
 40
3.0
 41
7.9285714286
  0
LINE
  5
23E
100
AcDbEntity
  8
0
100
AcDbLine
 62
7
  6
CONTINUOUS
 10
199.4980879672
 20
135.1586387
 11
244.2934096868
 21
135.1586387
  0
LINE
  5
23F
100
AcDbEntity
  8
0
100
AcDbLine
 62
7
  6
CONTINUOUS
 10
199.4980879672
 20
90.0586387
 11
244.2934096868
 21
90.0586387
  0
LINE
  5
240
100
AcDbEntity
  8
0
100
AcDbLine
 62
7
  6
CONTINUOUS
 10
242.7934096868
 20
135.1586387
 11
242.7934096868
 21
112.6086387
  0
LINE
  5
241
100
AcDbEntity
  8
0
100
AcDbLine
 62
7
  6
CONTINUOUS
 10
242.7934096868
 20
90.0586387
 11
242.7934096868
 21
112.6086387
  0
INSERT
  5
242
100
AcDbEntity
  8
0
100
AcDbBlockReference
 62
7
  6
CONTINUOUS
  2
_FILLED
 10
242.7934096868
 20
135.1586387
 41
3.0
 42
3.0
 43
3.0
 50
90.0
  0
INSERT
  5
243
100
AcDbEntity
  8
0
100
AcDbBlockReference
 62
7
  6
CONTINUOUS
  2
_FILLED
 10
242.7934096868
 20
90.0586387
 41
3.0
 42
3.0
 43
3.0
 50
270.0
  0
ENDBLK
  5
244
100
AcDbEntity
  8
0
  6
BYBLOCK
 62
0
100
AcDbBlockEnd
  0
BLOCK
  5
245
100
AcDbEntity
  8
0
100
AcDbBlockBegin
 62
7
  6
CONTINUOUS
  2
*D4
 70
65
 10
0.0
 20
0.0
  3
*D4
  1

  0
MTEXT
  5
246
100
AcDbEntity
  8
0
100
AcDbMText
 62
7
  6
CONTINUOUS
  7
STANDARD
 71
2
 72
1
 10
154.649068323
 20
177.4656414737
 30
0.0
 11
1.0
 21
0.0
 31
0.0
 44
0.9
  1
90,3
 40
3.0
 41
8.5714285714
  0
LINE
  5
247
100
AcDbEntity
  8
0
100
AcDbLine
 62
7
  6
CONTINUOUS
 10
199.7990728418
 20
91.357504546
 11
199.7990728418
 21
175.2156414737
  0
LINE
  5
248
100
AcDbEntity
  8
0
100
AcDbLine
 62
7
  6
CONTINUOUS
 10
109.4990638042
 20
91.357504546
 11
109.4990638042
 21
175.2156414737
  0
LINE
  5
249
100
AcDbEntity
  8
0
100
AcDbLine
 62
7
  6
CONTINUOUS
 10
199.7990728418
 20
173.7156414737
 11
154.649068323
 21
173.7156414737
  0
LINE
  5
24A
100
AcDbEntity
  8
0
100
AcDbLine
 62
7
  6
CONTINUOUS
 10
109.4990638042
 20
173.7156414737
 11
154.649068323
 21
173.7156414737
  0
INSERT
  5
24B
100
AcDbEntity
  8
0
100
AcDbBlockReference
 62
7
  6
CONTINUOUS
  2
_FILLED
 10
199.7990728418
 20
173.7156414737
 41
3.0
 42
3.0
 43
3.0
  0
INSERT
  5
24C
100
AcDbEntity
  8
0
100
AcDbBlockReference
 62
7
  6
CONTINUOUS
  2
_FILLED
 10
109.4990638042
 20
173.7156414737
 41
3.0
 42
3.0
 43
3.0
 50
180.0
  0
ENDBLK
  5
24D
100
AcDbEntity
  8
0
  6
BYBLOCK
 62
0
100
AcDbBlockEnd
  0
ENDSEC
  0
SECTION
  2
ENTITIES
  0
DIMENSION
  5
24E
100
AcDbEntity
  8
0
100
AcDbDimension
 62
7
  6
CONTINUOUS
  2
*D0
 10
82.3990791069
 20
183.7156414737
 11
149.5062111801
 21
185.9656414737
 70
160
 71
2
 42
144.4999784322
  3
DIMSTYLE_1
100
AcDbAlignedDimension
 13
226.8990575391
 23
157.1121598008
 14
82.3990791069
 24
157.1121598008
 50
180.0
100
AcDbRotatedDimension
  0
DIMENSION
  5
24F
100
AcDbEntity
  8
0
100
AcDbDimension
 62
7
  6
CONTINUOUS
  2
*D1
 10
50.6347399968
 20
173.7156414827
 11
67.1535805184
 21
175.9656414737
 70
160
 71
1
 42
8.5681115819
  3
DIMSTYLE_2
100
AcDbAlignedDimension
 13
59.2028515667
 23
155.67538736
 14
50.6347399562
 24
113.1086390014
 50
179.9999999616
100
AcDbRotatedDimension
  0
DIMENSION
  5
250
100
AcDbEntity
  8
0
100
AcDbDimension
 62
7
  6
CONTINUOUS
  2
*D2
 10
252.7934096868
 20
67.6086387
 11
251.5995832106
 21
110.5013608501
 70
160
 71
2
 42
90.0
  3
DIMSTYLE_1
100
AcDbAlignedDimension
 13
226.4189874226
 23
157.6086387
 14
226.4189874226
 24
67.6086387
 50
270.0
100
AcDbRotatedDimension
  0
DIMENSION
  5
251
100
AcDbEntity
  8
0
100
AcDbDimension
 62
7
  6
CONTINUOUS
  2
*D3
 10
242.7934096868
 20
90.0586387
 11
242.3197015222
 21
109.0645804979
 70
160
 71
2
 42
45.1
  3
DIMSTYLE_1
100
AcDbAlignedDimension
 13
199.4980879672
 23
135.1586387
 14
199.4980879672
 24
90.0586387
 50
270.0
100
AcDbRotatedDimension
  0
DIMENSION
  5
252
100
AcDbEntity
  8
0
100
AcDbDimension
 62
7
  6
CONTINUOUS
  2
*D4
 10
109.4990638042
 20
173.7156414737
 11
150.3633540373
 21
175.9656414737
 70
160
 71
2
 42
90.3000090376
  3
DIMSTYLE_1
100
AcDbAlignedDimension
 13
199.7990728418
 23
91.357504546
 14
109.4990638042
 24
91.357504546
 50
180.0
100
AcDbRotatedDimension
  0
LWPOLYLINE
  5
253
100
AcDbEntity
  8
RACCORDO
100
AcDbPolyline
 62
253
  6
CONTINUOUS
 90
28
 70
0
 10
82.580822876
 20
68.7899263511
 10
82.583162601
 20
68.7318188056
 10
82.5888207209
 20
68.6740358735
 10
82.5977657993
 20
68.6167663278
 10
82.6099486903
 20
68.5602151346
 10
82.6253214621
 20
68.5045456874
 10
82.6438493439
 20
68.4498825304
 10
82.6654844578
 20
68.3963713681
 10
82.6901430639
 20
68.3442217688
 10
82.7177250894
 20
68.293648076
 10
82.7481220812
 20
68.2448274591
 10
82.7812342561
 20
68.1978989322
 10
82.8169558025
 20
68.1530079788
 10
82.8551648248
 20
68.1102969036
 10
82.8957298588
 20
68.0699014368
 10
82.938521342
 20
68.0319478373
 10
82.9833938839
 20
67.9965579166
 10
83.0301985824
 20
67.9638412575
 10
83.0787931888
 20
67.9338957538
 10
83.1290219291
 20
67.9068152567
 10
83.1807150921
 20
67.8826881812
 10
83.2337032897
 20
67.8615921627
 10
83.287804889
 20
67.8435967814
 10
83.342850275
 20
67.8287549852
 10
83.3986841533
 20
67.8171085348
 10
83.4551333751
 20
67.8086967308
 10
83.5120063084
 20
67.8035516435
 10
83.5691179461
 20
67.8016927963
  0
LWPOLYLINE
  5
254
100
AcDbEntity
  8
ASSI
100
AcDbPolyline
 62
253
  6
CONTINUOUS
 90
28
 70
0
 10
82.580822876
 20
68.7899263511
 10
82.583162601
 20
68.7318188056
 10
82.5888207209
 20
68.6740358735
 10
82.5977657993
 20
68.6167663278
 10
82.6099486903
 20
68.5602151346
 10
82.6253214621
 20
68.5045456874
 10
82.6438493439
 20
68.4498825304
 10
82.6654844578
 20
68.3963713681
 10
82.6901430639
 20
68.3442217688
 10
82.7177250894
 20
68.293648076
 10
82.7481220812
 20
68.2448274591
 10
82.7812342561
 20
68.1978989322
 10
82.8169558025
 20
68.1530079788
 10
82.8551648248
 20
68.1102969036
 10
82.8957298588
 20
68.0699014368
 10
82.938521342
 20
68.0319478373
 10
82.9833938839
 20
67.9965579166
 10
83.0301985824
 20
67.9638412575
 10
83.0787931888
 20
67.9338957538
 10
83.1290219291
 20
67.9068152567
 10
83.1807150921
 20
67.8826881812
 10
83.2337032897
 20
67.8615921627
 10
83.287804889
 20
67.8435967814
 10
83.342850275
 20
67.8287549852
 10
83.3986841533
 20
67.8171085348
 10
83.4551333751
 20
67.8086967308
 10
83.5120063084
 20
67.8035516435
 10
83.5691179461
 20
67.8016927963
  0
LWPOLYLINE
  5
255
100
AcDbEntity
  8
RACCORDO
100
AcDbPolyline
 62
253
  6
CONTINUOUS
 90
28
 70
0
 10
83.0788575655
 20
68.7094098661
 10
83.079718611
 20
68.6798623788
 10
83.0822098652
 20
68.6506498592
 10
83.0863313281
 20
68.6217722763
 10
83.0921072182
 20
68.5931393833
 10
83.099513317
 20
68.5648413716
 10
83.1084769689
 20
68.5371488438
 10
83.1190175395
 20
68.5100594533
 10
83.1311156631
 20
68.4835754397
 10
83.1446405874
 20
68.4579742373
 10
83.1596035753
 20
68.4332732271
 10
83.175993364
 20
68.4094548825
 10
83.1936454117
 20
68.3867442382
 10
83.2125717672
 20
68.3651510971
 10
83.2327603817
 20
68.3446654949
 10
83.2540105675
 20
68.3254827912
 10
83.27633226
 20
68.3076156407
 10
83.2997155237
 20
68.2910512292
 10
83.3239298643
 20
68.2759466989
 10
83.3489829266
 20
68.2623164077
 10
83.3748670658
 20
68.2501458586
 10
83.4013288535
 20
68.2395489091
 10
83.4283803096
 20
68.2305405404
 10
83.4560094143
 20
68.2231056687
 10
83.4839266792
 20
68.2173130593
 10
83.512035608
 20
68.2131856154
 10
83.540432697
 20
68.2107003795
 10
83.5691179461
 20
68.2098573383
  0
LWPOLYLINE
  5
256
100
AcDbEntity
  8
ASSI
100
AcDbPolyline
 62
253
  6
CONTINUOUS
 90
28
 70
0
 10
83.0788575655
 20
68.7094098661
 10
83.079718611
 20
68.6798623788
 10
83.0822098652
 20
68.6506498592
 10
83.0863313281
 20
68.6217722763
 10
83.0921072182
 20
68.5931393833
 10
83.099513317
 20
68.5648413716
 10
83.1084769689
 20
68.5371488438
 10
83.1190175395
 20
68.5100594533
 10
83.1311156631
 20
68.4835754397
 10
83.1446405874
 20
68.4579742373
 10
83.1596035753
 20
68.4332732271
 10
83.175993364
 20
68.4094548825
 10
83.1936454117
 20
68.3867442382
 10
83.2125717672
 20
68.3651510971
 10
83.2327603817
 20
68.3446654949
 10
83.2540105675
 20
68.3254827912
 10
83.27633226
 20
68.3076156407
 10
83.2997155237
 20
68.2910512292
 10
83.3239298643
 20
68.2759466989
 10
83.3489829266
 20
68.2623164077
 10
83.3748670658
 20
68.2501458586
 10
83.4013288535
 20
68.2395489091
 10
83.4283803096
 20
68.2305405404
 10
83.4560094143
 20
68.2231056687
 10
83.4839266792
 20
68.2173130593
 10
83.512035608
 20
68.2131856154
 10
83.540432697
 20
68.2107003795
 10
83.5691179461
 20
68.2098573383
  0
LWPOLYLINE
  5
257
100
AcDbEntity
  8
RACCORDO
100
AcDbPolyline
 62
7
  6
CONTINUOUS
 90
28
 70
0
 10
82.3990687165
 20
156.6121598008
 10
82.4008170463
 20
156.6718735784
 10
82.405921066
 20
156.7309202209
 10
82.4143807756
 20
156.7892998529
 10
82.4262879633
 20
156.8472814248
 10
82.4415508409
 20
156.9045961979
 10
82.4598940438
 20
156.9604379195
 10
82.4813007524
 20
157.0146424294
 10
82.5057877864
 20
157.0673744481
 10
82.5331302395
 20
157.1183212467
 10
82.5633443337
 20
157.167512039
 10
82.596413847
 20
157.2149182114
 10
82.632065208
 20
157.2601404016
 10
82.6704351232
 20
157.3032444995
 10
82.7113868859
 20
157.3441652669
 10
82.7542368053
 20
157.3823067759
 10
82.7988682335
 20
157.4175094175
 10
82.8453978182
 20
157.4499335165
 10
82.8934918118
 20
157.4794631029
 10
82.9431588307
 20
157.5061147051
 10
82.9943902585
 20
157.5298723575
 10
83.0468264975
 20
157.5505713327
 10
83.1006023687
 20
157.5682151784
 10
83.1555830512
 20
157.5828007552
 10
83.211004484
 20
157.5941532794
 10
83.2666119801
 20
157.6022145668
 10
83.3226602266
 20
157.6070430222
 10
83.3791492234
 20
157.6086387
  0
LWPOLYLINE
  5
258
100
AcDbEntity
  8
ASSI
100
AcDbPolyline
 62
7
  6
CONTINUOUS
 90
28
 70
0
 10
82.3990687165
 20
156.6121598008
 10
82.4008170463
 20
156.6718735784
 10
82.405921066
 20
156.7309202209
 10
82.4143807756
 20
156.7892998529
 10
82.4262879633
 20
156.8472814248
 10
82.4415508409
 20
156.9045961979
 10
82.4598940438
 20
156.9604379195
 10
82.4813007524
 20
157.0146424294
 10
82.5057877864
 20
157.0673744481
 10
82.5331302395
 20
157.1183212467
 10
82.5633443337
 20
157.167512039
 10
82.596413847
 20
157.2149182114
 10
82.632065208
 20
157.2601404016
 10
82.6704351232
 20
157.3032444995
 10
82.7113868859
 20
157.3441652669
 10
82.7542368053
 20
157.3823067759
 10
82.7988682335
 20
157.4175094175
 10
82.8453978182
 20
157.4499335165
 10
82.8934918118
 20
157.4794631029
 10
82.9431588307
 20
157.5061147051
 10
82.9943902585
 20
157.5298723575
 10
83.0468264975
 20
157.5505713327
 10
83.1006023687
 20
157.5682151784
 10
83.1555830512
 20
157.5828007552
 10
83.211004484
 20
157.5941532794
 10
83.2666119801
 20
157.6022145668
 10
83.3226602266
 20
157.6070430222
 10
83.3791492234
 20
157.6086387
  0
LINE
  5
259
100
AcDbEntity
  8
RACCORDO
100
AcDbLine
 62
7
  6
CONTINUOUS
 10
82.3990687165
 20
68.6051175991
 11
82.399068323
 21
90.1294054501
  0
LINE
  5
25A
100
AcDbEntity
  8
DRAFT
100
AcDbLine
 62
7
  6
CONTINUOUS
 10
82.399068323
 20
90.1294054501
 11
82.399068323
 21
135.0878719499
  0
LINE
  5
25B
100
AcDbEntity
  8
RACCORDO
100
AcDbLine
 62
7
  6
CONTINUOUS
 10
82.399068323
 20
135.0878719499
 11
82.3990687165
 21
156.6121598008
  0
LINE
  5
25C
100
AcDbEntity
  8
ASSI
100
AcDbLine
 62
7
  6
CONTINUOUS
 10
82.3990687165
 20
68.6051175991
 11
82.3990687165
 21
156.6121598008
  0
LINE
  5
25D
100
AcDbEntity
  8
RACCORDO
100
AcDbLine
 62
253
  6
CONTINUOUS
 10
82.5778742071
 20
116.356697298
 11
82.5808228761
 21
68.7899263512
  0
LINE
  5
25E
100
AcDbEntity
  8
ASSI
100
AcDbLine
 62
253
  6
CONTINUOUS
 10
82.5778742071
 20
116.356697298
 11
82.5808228761
 21
68.7899263512
  0
LINE
  5
25F
100
AcDbEntity
  8
RACCORDO
100
AcDbLine
 62
253
  6
CONTINUOUS
 10
83.0759714147
 20
116.3605004841
 11
83.0788575655
 21
68.7094098661
  0
LINE
  5
260
100
AcDbEntity
  8
ASSI
100
AcDbLine
 62
253
  6
CONTINUOUS
 10
83.0759714147
 20
116.3605004841
 11
83.0788575655
 21
68.7094098661
  0
LINE
  5
261
100
AcDbEntity
  8
RACCORDO
100
AcDbLine
 62
253
  6
CONTINUOUS
 10
83.5691179461
 20
68.2098573383
 11
83.5691179461
 21
67.8016927963
  0
LINE
  5
262
100
AcDbEntity
  8
ASSI
100
AcDbLine
 62
253
  6
CONTINUOUS
 10
83.5691179461
 20
68.2098573383
 11
83.5691179461
 21
67.8016927963
  0
LINE
  5
263
100
AcDbEntity
  8
RACCORDO
100
AcDbLine
 62
253
  6
CONTINUOUS
 10
83.5691179461
 20
157.0074200617
 11
83.5691179458
 21
157.4155846037
  0
LINE
  5
264
100
AcDbEntity
  8
ASSI
100
AcDbLine
 62
253
  6
CONTINUOUS
 10
83.5691179461
 20
157.0074200617
 11
83.5691179458
 21
157.4155846037
  0
LWPOLYLINE
  5
265
100
AcDbEntity
  8
RACCORDO
100
AcDbPolyline
 62
253
  6
CONTINUOUS
 90
3
 70
0
 10
82.5808228761
 20
156.4273510492
 10
82.5782386433
 20
137.5632850825
 10
82.5778742071
 20
116.356697298
  0
LWPOLYLINE
  5
266
100
AcDbEntity
  8
ASSI
100
AcDbPolyline
 62
253
  6
CONTINUOUS
 90
3
 70
0
 10
82.5808228761
 20
156.4273510492
 10
82.5782386433
 20
137.5632850825
 10
82.5778742071
 20
116.356697298
  0
LWPOLYLINE
  5
267
100
AcDbEntity
  8
RACCORDO
100
AcDbPolyline
 62
253
  6
CONTINUOUS
 90
3
 70
0
 10
83.0788575655
 20
156.5078675339
 10
83.0763358359
 20
137.5926280243
 10
83.0759714147
 20
116.3605004841
  0
LWPOLYLINE
  5
268
100
AcDbEntity
  8
ASSI
100
AcDbPolyline
 62
253
  6
CONTINUOUS
 90
3
 70
0
 10
83.0788575655
 20
156.5078675339
 10
83.0763358359
 20
137.5926280243
 10
83.0759714147
 20
116.3605004841
  0
LWPOLYLINE
  5
269
100
AcDbEntity
  8
RACCORDO
100
AcDbPolyline
 62
253
  6
CONTINUOUS
 90
13
 70
0
 10
109.5476164277
 20
90.3112804174
 10
109.5256722561
 20
90.3446950183
 10
109.5053485255
 20
90.3793230333
 10
109.4867198823
 20
90.4150905599
 10
109.469823402
 20
90.4519989746
 10
109.454770083
 20
90.4898879803
 10
109.4417031553
 20
90.5284194658
 10
109.4306462964
 20
90.5674848185
 10
109.421614048
 20
90.6069842542
 10
109.4146540532
 20
90.6465695108
 10
109.4097433732
 20
90.6860501702
 10
109.4068294632
 20
90.7254030174
 10
109.4058711219
 20
90.7645286198
  0
LWPOLYLINE
  5
26A
100
AcDbEntity
  8
ASSI
100
AcDbPolyline
 62
253
  6
CONTINUOUS
 90
13
 70
0
 10
109.5476164277
 20
90.3112804174
 10
109.5256722561
 20
90.3446950183
 10
109.5053485255
 20
90.3793230333
 10
109.4867198823
 20
90.4150905599
 10
109.469823402
 20
90.4519989746
 10
109.454770083
 20
90.4898879803
 10
109.4417031553
 20
90.5284194658
 10
109.4306462964
 20
90.5674848185
 10
109.421614048
 20
90.6069842542
 10
109.4146540532
 20
90.6465695108
 10
109.4097433732
 20
90.6860501702
 10
109.4068294632
 20
90.7254030174
 10
109.4058711219
 20
90.7645286198
  0
LWPOLYLINE
  5
26B
100
AcDbEntity
  8
RACCORDO
100
AcDbPolyline
 62
253
  6
CONTINUOUS
 90
13
 70
0
 10
109.1365700318
 20
90.0038231414
 10
109.1008495963
 20
90.0583084473
 10
109.0679660375
 20
90.1145517073
 10
109.0379193555
 20
90.1725529538
 10
109.0105750764
 20
90.2326083481
 10
108.986067674
 20
90.2944217997
 10
108.9648005697
 20
90.357104946
 10
108.9468894621
 20
90.4206637558
 10
108.9322186526
 20
90.485092294
 10
108.920844467
 20
90.5494843054
 10
108.9127856807
 20
90.6135376947
 10
108.9080235184
 20
90.6775545488
 10
108.9065579801
 20
90.7415348654
  0
LWPOLYLINE
  5
26C
100
AcDbEntity
  8
ASSI
100
AcDbPolyline
 62
253
  6
CONTINUOUS
 90
13
 70
0
 10
109.1365700318
 20
90.0038231414
 10
109.1008495963
 20
90.0583084473
 10
109.0679660375
 20
90.1145517073
 10
109.0379193555
 20
90.1725529538
 10
109.0105750764
 20
90.2326083481
 10
108.986067674
 20
90.2944217997
 10
108.9648005697
 20
90.357104946
 10
108.9468894621
 20
90.4206637558
 10
108.9322186526
 20
90.485092294
 10
108.920844467
 20
90.5494843054
 10
108.9127856807
 20
90.6135376947
 10
108.9080235184
 20
90.6775545488
 10
108.9065579801
 20
90.7415348654
  0
LWPOLYLINE
  5
26D
100
AcDbEntity
  8
RACCORDO
100
AcDbPolyline
 62
7
  6
CONTINUOUS
 90
22
 70
0
 10
109.4990682968
 20
90.857504546
 10
109.5003174021
 20
90.812585428
 10
109.5040924511
 20
90.7679601476
 10
109.5103934437
 20
90.7236287011
 10
109.5192677422
 20
90.6793863087
 10
109.5306679844
 20
90.6354377445
 10
109.5444520834
 20
90.592397326
 10
109.5606190565
 20
90.5503727135
 10
109.5791698864
 20
90.5092562211
 10
109.599965435
 20
90.4693391346
 10
109.6230061184
 20
90.4306201713
 10
109.6482915204
 20
90.3931005833
 10
109.6756812542
 20
90.3570754508
 10
109.7052874525
 20
90.3224722411
 10
109.7369979825
 20
90.2893634527
 10
109.7703360585
 20
90.2582617054
 10
109.8052799987
 20
90.2292628941
 10
109.8418514848
 20
90.2022710831
 10
109.8796387762
 20
90.1775111394
 10
109.9185046259
 20
90.1550580061
 10
109.9585862809
 20
90.1348367044
 10
109.9998837412
 20
90.1168472192
  0
LWPOLYLINE
  5
26E
100
AcDbEntity
  8
ASSI
100
AcDbPolyline
 62
7
  6
CONTINUOUS
 90
22
 70
0
 10
109.4990682968
 20
90.857504546
 10
109.5003174021
 20
90.812585428
 10
109.5040924511
 20
90.7679601476
 10
109.5103934437
 20
90.7236287011
 10
109.5192677422
 20
90.6793863087
 10
109.5306679844
 20
90.6354377445
 10
109.5444520834
 20
90.592397326
 10
109.5606190565
 20
90.5503727135
 10
109.5791698864
 20
90.5092562211
 10
109.599965435
 20
90.4693391346
 10
109.6230061184
 20
90.4306201713
 10
109.6482915204
 20
90.3931005833
 10
109.6756812542
 20
90.3570754508
 10
109.7052874525
 20
90.3224722411
 10
109.7369979825
 20
90.2893634527
 10
109.7703360585
 20
90.2582617054
 10
109.8052799987
 20
90.2292628941
 10
109.8418514848
 20
90.2022710831
 10
109.8796387762
 20
90.1775111394
 10
109.9185046259
 20
90.1550580061
 10
109.9585862809
 20
90.1348367044
 10
109.9998837412
 20
90.1168472192
  0
LWPOLYLINE
  5
26F
100
AcDbEntity
  8
RACCORDO
100
AcDbPolyline
 62
253
  6
CONTINUOUS
 90
13
 70
0
 10
108.9065579801
 20
134.4757425346
 10
108.9079689146
 20
134.539103461
 10
108.9126548421
 20
134.6026079613
 10
108.9206157625
 20
134.6662560312
 10
108.9318484291
 20
134.7303373933
 10
108.9463560887
 20
134.7945623123
 10
108.9641484815
 20
134.8580616157
 10
108.9853522502
 20
134.9208651534
 10
109.0098407521
 20
134.9829431029
 10
109.0372438
 20
135.0433368197
 10
109.067437998
 20
135.1017267861
 10
109.1005467419
 20
135.1584325887
 10
109.1365700318
 20
135.2134542585
  0
LWPOLYLINE
  5
270
100
AcDbEntity
  8
ASSI
100
AcDbPolyline
 62
253
  6
CONTINUOUS
 90
13
 70
0
 10
108.9065579801
 20
134.4757425346
 10
108.9079689146
 20
134.539103461
 10
108.9126548421
 20
134.6026079613
 10
108.9206157625
 20
134.6662560312
 10
108.9318484291
 20
134.7303373933
 10
108.9463560887
 20
134.7945623123
 10
108.9641484815
 20
134.8580616157
 10
108.9853522502
 20
134.9208651534
 10
109.0098407521
 20
134.9829431029
 10
109.0372438
 20
135.0433368197
 10
109.067437998
 20
135.1017267861
 10
109.1005467419
 20
135.1584325887
 10
109.1365700318
 20
135.2134542585
  0
LWPOLYLINE
  5
271
100
AcDbEntity
  8
RACCORDO
100
AcDbPolyline
 62
253
  6
CONTINUOUS
 90
19
 70
0
 10
109.1365700318
 20
135.2134542585
 10
109.1777001261
 20
135.2698551926
 10
109.2216421461
 20
135.3237794476
 10
109.2683960918
 20
135.3752271391
 10
109.3181189021
 20
135.4243634906
 10
109.3706536381
 20
135.4710234925
 10
109.4255294831
 20
135.5147119254
 10
109.4827755431
 20
135.5553919216
 10
109.542362712
 20
135.5931005777
 10
109.6037328542
 20
135.6274536453
 10
109.6669390428
 20
135.6584146585
 10
109.7319282047
 20
135.6860202879
 10
109.7979829846
 20
135.7099959962
 10
109.8651248065
 20
135.7302776575
 10
109.9333322464
 20
135.7469295506
 10
110.0018236767
 20
135.7598697358
 10
110.0703385551
 20
135.7690709265
 10
110.1391374238
 20
135.774560488
 10
110.2082202831
 20
135.7763384398
  0
LWPOLYLINE
  5
272
100
AcDbEntity
  8
ASSI
100
AcDbPolyline
 62
253
  6
CONTINUOUS
 90
19
 70
0
 10
109.1365700318
 20
135.2134542585
 10
109.1777001261
 20
135.2698551926
 10
109.2216421461
 20
135.3237794476
 10
109.2683960918
 20
135.3752271391
 10
109.3181189021
 20
135.4243634906
 10
109.3706536381
 20
135.4710234925
 10
109.4255294831
 20
135.5147119254
 10
109.4827755431
 20
135.5553919216
 10
109.542362712
 20
135.5931005777
 10
109.6037328542
 20
135.6274536453
 10
109.6669390428
 20
135.6584146585
 10
109.7319282047
 20
135.6860202879
 10
109.7979829846
 20
135.7099959962
 10
109.8651248065
 20
135.7302776575
 10
109.9333322464
 20
135.7469295506
 10
110.0018236767
 20
135.7598697358
 10
110.0703385551
 20
135.7690709265
 10
110.1391374238
 20
135.774560488
 10
110.2082202831
 20
135.7763384398
  0
LWPOLYLINE
  5
273
100
AcDbEntity
  8
RACCORDO
100
AcDbPolyline
 62
253
  6
CONTINUOUS
 90
19
 70
0
 10
109.5476164277
 20
134.9059969826
 10
109.572920375
 20
134.9404810976
 10
109.6000855801
 20
134.9736143297
 10
109.6290425107
 20
135.0052946332
 10
109.6597193627
 20
135.035425644
 10
109.6920321471
 20
135.0639099311
 10
109.7258834305
 20
135.0906509372
 10
109.7611886052
 20
135.1155690181
 10
109.7978429233
 20
135.1385781561
 10
109.8357067731
 20
135.1595864341
 10
109.8746879793
 20
135.1785377925
 10
109.9146578546
 20
135.1953650232
 10
109.955407402
 20
135.2099881943
 10
109.9968170684
 20
135.2223776675
 10
110.0387599237
 20
135.2325085105
 10
110.0810046305
 20
135.2403490494
 10
110.1233888773
 20
135.2459030586
 10
110.1658242654
 20
135.2491910323
 10
110.2081895197
 20
135.2502332166
  0
LWPOLYLINE
  5
274
100
AcDbEntity
  8
ASSI
100
AcDbPolyline
 62
253
  6
CONTINUOUS
 90
19
 70
0
 10
109.5476164277
 20
134.9059969826
 10
109.572920375
 20
134.9404810976
 10
109.6000855801
 20
134.9736143297
 10
109.6290425107
 20
135.0052946332
 10
109.6597193627
 20
135.035425644
 10
109.6920321471
 20
135.0639099311
 10
109.7258834305
 20
135.0906509372
 10
109.7611886052
 20
135.1155690181
 10
109.7978429233
 20
135.1385781561
 10
109.8357067731
 20
135.1595864341
 10
109.8746879793
 20
135.1785377925
 10
109.9146578546
 20
135.1953650232
 10
109.955407402
 20
135.2099881943
 10
109.9968170684
 20
135.2223776675
 10
110.0387599237
 20
135.2325085105
 10
110.0810046305
 20
135.2403490494
 10
110.1233888773
 20
135.2459030586
 10
110.1658242654
 20
135.2491910323
 10
110.2081895197
 20
135.2502332166
  0
LWPOLYLINE
  5
275
100
AcDbEntity
  8
RACCORDO
100
AcDbPolyline
 62
253
  6
CONTINUOUS
 90
28
 70
0
 10
225.7290186999
 20
67.8016927963
 10
225.7861233271
 20
67.8035512908
 10
225.8429670212
 20
67.8086924647
 10
225.8993653909
 20
67.8170929955
 10
225.9551088306
 20
67.8287125494
 10
226.0100452467
 20
67.8435106458
 10
226.064076592
 20
67.8614621956
 10
226.1170623438
 20
67.8825333658
 10
226.1687871854
 20
67.9066509758
 10
226.2190440984
 20
67.9337231304
 10
226.2676513141
 20
67.9636529161
 10
226.3144663094
 20
67.9963524131
 10
226.3593497791
 20
68.0317254323
 10
226.4021535513
 20
68.0696630466
 10
226.4427314796
 20
68.1100428722
 10
226.4809543339
 20
68.152739058
 10
226.5166912437
 20
68.1976168218
 10
226.5498195327
 20
68.2445331058
 10
226.5802319762
 20
68.2933400685
 10
226.6078229476
 20
68.3438862697
 10
226.632491971
 20
68.3960059678
 10
226.654152801
 20
68.4495208796
 10
226.6727254063
 20
68.5042543601
 10
226.6881429554
 20
68.5600325675
 10
226.7003537716
 20
68.6166745819
 10
226.7093109026
 20
68.673996133
 10
226.7149734692
 20
68.7318098778
 10
226.71731377
 20
68.7899263506
  0
LWPOLYLINE
  5
276
100
AcDbEntity
  8
ASSI
100
AcDbPolyline
 62
253
  6
CONTINUOUS
 90
28
 70
0
 10
225.7290186999
 20
67.8016927963
 10
225.7861233271
 20
67.8035512908
 10
225.8429670212
 20
67.8086924647
 10
225.8993653909
 20
67.8170929955
 10
225.9551088306
 20
67.8287125494
 10
226.0100452467
 20
67.8435106458
 10
226.064076592
 20
67.8614621956
 10
226.1170623438
 20
67.8825333658
 10
226.1687871854
 20
67.9066509758
 10
226.2190440984
 20
67.9337231304
 10
226.2676513141
 20
67.9636529161
 10
226.3144663094
 20
67.9963524131
 10
226.3593497791
 20
68.0317254323
 10
226.4021535513
 20
68.0696630466
 10
226.4427314796
 20
68.1100428722
 10
226.4809543339
 20
68.152739058
 10
226.5166912437
 20
68.1976168218
 10
226.5498195327
 20
68.2445331058
 10
226.5802319762
 20
68.2933400685
 10
226.6078229476
 20
68.3438862697
 10
226.632491971
 20
68.3960059678
 10
226.654152801
 20
68.4495208796
 10
226.6727254063
 20
68.5042543601
 10
226.6881429554
 20
68.5600325675
 10
226.7003537716
 20
68.6166745819
 10
226.7093109026
 20
68.673996133
 10
226.7149734692
 20
68.7318098778
 10
226.71731377
 20
68.7899263506
  0
LWPOLYLINE
  5
277
100
AcDbEntity
  8
RACCORDO
100
AcDbPolyline
 62
253
  6
CONTINUOUS
 90
28
 70
0
 10
225.7290186999
 20
68.2098573383
 10
225.7577293293
 20
68.2107079242
 10
225.7861322055
 20
68.2131943176
 10
225.8142273285
 20
68.2173165321
 10
225.842099027
 20
68.223094692
 10
225.8696629723
 20
68.2305087269
 10
225.8966661778
 20
68.2394983696
 10
225.9231148819
 20
68.2500830236
 10
225.9490028461
 20
68.2622433881
 10
225.9740583687
 20
68.2758611453
 10
225.9982656237
 20
68.2909476096
 10
226.0216404372
 20
68.3074916053
 10
226.0439585854
 20
68.3253410769
 10
226.0652127979
 20
68.3445097164
 10
226.0854103452
 20
68.3649839916
 10
226.1043488156
 20
68.3865709977
 10
226.1220172935
 20
68.4092835271
 10
226.1384266944
 20
68.4331089497
 10
226.1534073534
 20
68.4578162017
 10
226.1669449774
 20
68.4834148591
 10
226.1790538595
 20
68.509895491
 10
226.1896072139
 20
68.5369984854
 10
226.1985897639
 20
68.5647395325
 10
226.2060167862
 20
68.5931030534
 10
226.2118073246
 20
68.6217824834
 10
226.2159343938
 20
68.650675641
 10
226.2184249791
 20
68.6798847588
 10
226.2192790805
 20
68.7094098661
  0
LWPOLYLINE
  5
278
100
AcDbEntity
  8
ASSI
100
AcDbPolyline
 62
253
  6
CONTINUOUS
 90
28
 70
0
 10
225.7290186999
 20
68.2098573383
 10
225.7577293293
 20
68.2107079242
 10
225.7861322055
 20
68.2131943176
 10
225.8142273285
 20
68.2173165321
 10
225.842099027
 20
68.223094692
 10
225.8696629723
 20
68.2305087269
 10
225.8966661778
 20
68.2394983696
 10
225.9231148819
 20
68.2500830236
 10
225.9490028461
 20
68.2622433881
 10
225.9740583687
 20
68.2758611453
 10
225.9982656237
 20
68.2909476096
 10
226.0216404372
 20
68.3074916053
 10
226.0439585854
 20
68.3253410769
 10
226.0652127979
 20
68.3445097164
 10
226.0854103452
 20
68.3649839916
 10
226.1043488156
 20
68.3865709977
 10
226.1220172935
 20
68.4092835271
 10
226.1384266944
 20
68.4331089497
 10
226.1534073534
 20
68.4578162017
 10
226.1669449774
 20
68.4834148591
 10
226.1790538595
 20
68.509895491
 10
226.1896072139
 20
68.5369984854
 10
226.1985897639
 20
68.5647395325
 10
226.2060167862
 20
68.5931030534
 10
226.2118073246
 20
68.6217824834
 10
226.2159343938
 20
68.650675641
 10
226.2184249791
 20
68.6798847588
 10
226.2192790805
 20
68.7094098661
  0
LWPOLYLINE
  5
279
100
AcDbEntity
  8
RACCORDO
100
AcDbPolyline
 62
253
  6
CONTINUOUS
 90
19
 70
0
 10
226.2192790805
 20
68.7094098796
 10
226.2604021224
 20
68.7097015801
 10
226.3012465188
 20
68.7105906124
 10
226.3415355124
 20
68.7120709528
 10
226.380996109
 20
68.7141325705
 10
226.4193609277
 20
68.7167614963
 10
226.4563700125
 20
68.7199399167
 10
226.4917725937
 20
68.7236462953
 10
226.5253287869
 20
68.7278555178
 10
226.556811219
 20
68.7325390631
 10
226.5860065681
 20
68.737665196
 10
226.6127170096
 20
68.7431991822
 10
226.6367615564
 20
68.7491035242
 10
226.6579772851
 20
68.7553382146
 10
226.67622044
 20
68.7618610078
 10
226.6913674074
 20
68.7686277061
 10
226.7033155532
 20
68.7755924591
 10
226.7119839177
 20
68.7827080742
 10
226.7173137652
 20
68.7899263369
  0
LWPOLYLINE
  5
27A
100
AcDbEntity
  8
ASSI
100
AcDbPolyline
 62
253
  6
CONTINUOUS
 90
19
 70
0
 10
226.2192790805
 20
68.7094098796
 10
226.2604021224
 20
68.7097015801
 10
226.3012465188
 20
68.7105906124
 10
226.3415355124
 20
68.7120709528
 10
226.380996109
 20
68.7141325705
 10
226.4193609277
 20
68.7167614963
 10
226.4563700125
 20
68.7199399167
 10
226.4917725937
 20
68.7236462953
 10
226.5253287869
 20
68.7278555178
 10
226.556811219
 20
68.7325390631
 10
226.5860065681
 20
68.737665196
 10
226.6127170096
 20
68.7431991822
 10
226.6367615564
 20
68.7491035242
 10
226.6579772851
 20
68.7553382146
 10
226.67622044
 20
68.7618610078
 10
226.6913674074
 20
68.7686277061
 10
226.7033155532
 20
68.7755924591
 10
226.7119839177
 20
68.7827080742
 10
226.7173137652
 20
68.7899263369
  0
LINE
  5
27B
100
AcDbEntity
  8
RACCORDO
100
AcDbLine
 62
7
  6
CONTINUOUS
 10
83.3791492234
 20
67.6086387
 11
225.9189874226
 21
67.6086387
  0
LINE
  5
27C
100
AcDbEntity
  8
ASSI
100
AcDbLine
 62
7
  6
CONTINUOUS
 10
83.3791492234
 20
67.6086387
 11
225.9189874226
 21
67.6086387
  0
LINE
  5
27D
100
AcDbEntity
  8
RACCORDO
100
AcDbLine
 62
253
  6
CONTINUOUS
 10
83.5691179461
 20
67.8016927963
 11
225.7290186999
 21
67.8016927963
  0
LINE
  5
27E
100
AcDbEntity
  8
ASSI
100
AcDbLine
 62
253
  6
CONTINUOUS
 10
83.5691179461
 20
67.8016927963
 11
225.7290186999
 21
67.8016927963
  0
LINE
  5
27F
100
AcDbEntity
  8
RACCORDO
100
AcDbLine
 62
253
  6
CONTINUOUS
 10
83.5691179461
 20
68.2098573383
 11
225.7290186999
 21
68.2098573383
  0
LINE
  5
280
100
AcDbEntity
  8
ASSI
100
AcDbLine
 62
253
  6
CONTINUOUS
 10
83.5691179461
 20
68.2098573383
 11
225.7290186999
 21
68.2098573383
  0
LWPOLYLINE
  5
281
100
AcDbEntity
  8
RACCORDO
100
AcDbPolyline
 62
253
  6
CONTINUOUS
 90
19
 70
0
 10
83.0788575655
 20
68.7094098715
 10
83.0377348642
 20
68.7097015987
 10
82.99689083
 20
68.7105906548
 10
82.9566022155
 20
68.7120710157
 10
82.9171420094
 20
68.7141326508
 10
82.8787775879
 20
68.7167615908
 10
82.8417689018
 20
68.7199400225
 10
82.8063667158
 20
68.7236464094
 10
82.7728109095
 20
68.7278556376
 10
82.7413288513
 20
68.732539186
 10
82.7121338586
 20
68.7376653198
 10
82.6854237518
 20
68.743199305
 10
82.6613795141
 20
68.7491036443
 10
82.6401640654
 20
68.7553383306
 10
82.6219211581
 20
68.7618611189
 10
82.606774403
 20
68.7686278115
 10
82.5948264322
 20
68.7755925586
 10
82.586158203
 20
68.782708168
 10
82.5808284501
 20
68.7899264255
  0
LWPOLYLINE
  5
282
100
AcDbEntity
  8
ASSI
100
AcDbPolyline
 62
253
  6
CONTINUOUS
 90
19
 70
0
 10
83.0788575655
 20
68.7094098715
 10
83.0377348642
 20
68.7097015987
 10
82.99689083
 20
68.7105906548
 10
82.9566022155
 20
68.7120710157
 10
82.9171420094
 20
68.7141326508
 10
82.8787775879
 20
68.7167615908
 10
82.8417689018
 20
68.7199400225
 10
82.8063667158
 20
68.7236464094
 10
82.7728109095
 20
68.7278556376
 10
82.7413288513
 20
68.732539186
 10
82.7121338586
 20
68.7376653198
 10
82.6854237518
 20
68.743199305
 10
82.6613795141
 20
68.7491036443
 10
82.6401640654
 20
68.7553383306
 10
82.6219211581
 20
68.7618611189
 10
82.606774403
 20
68.7686278115
 10
82.5948264322
 20
68.7755925586
 10
82.586158203
 20
68.782708168
 10
82.5808284501
 20
68.7899264255
  0
LWPOLYLINE
  5
283
100
AcDbEntity
  8
RACCORDO
100
AcDbPolyline
 62
7
  6
CONTINUOUS
 90
28
 70
0
 10
83.3791492234
 20
67.6086387
 10
83.3226368342
 20
67.6102406578
 10
83.2665816274
 20
67.6150703236
 10
83.2109836029
 20
67.6231277519
 10
83.1555968381
 20
67.6344697528
 10
83.1006672558
 20
67.6490397359
 10
83.0469326235
 20
67.6666677012
 10
82.9945188731
 20
67.6873502983
 10
82.9433000727
 20
67.7110912853
 10
82.8936361952
 20
67.7377313505
 10
82.8455319144
 20
67.7672583884
 10
82.7989825564
 20
67.7996850683
 10
82.7543340714
 20
67.8348892569
 10
82.7114742036
 20
67.8730296497
 10
82.6705152089
 20
67.9139482667
 10
82.6321398049
 20
67.9570479023
 10
82.596485695
 20
68.0022608643
 10
82.5634151758
 20
68.0496554957
 10
82.533197855
 20
68.0988385189
 10
82.5058484155
 20
68.1497805599
 10
82.4813521744
 20
68.202511594
 10
82.4599346901
 20
68.2567272629
 10
82.4415772998
 20
68.3126034704
 10
82.4262986662
 20
68.3699648792
 10
82.4143803365
 20
68.4279800627
 10
82.4059161594
 20
68.4863718872
 10
82.4008122861
 20
68.545417692
 10
82.3990687165
 20
68.6051175991
  0
LWPOLYLINE
  5
284
100
AcDbEntity
  8
ASSI
100
AcDbPolyline
 62
7
  6
CONTINUOUS
 90
28
 70
0
 10
83.3791492234
 20
67.6086387
 10
83.3226368342
 20
67.6102406578
 10
83.2665816274
 20
67.6150703236
 10
83.2109836029
 20
67.6231277519
 10
83.1555968381
 20
67.6344697528
 10
83.1006672558
 20
67.6490397359
 10
83.0469326235
 20
67.6666677012
 10
82.9945188731
 20
67.6873502983
 10
82.9433000727
 20
67.7110912853
 10
82.8936361952
 20
67.7377313505
 10
82.8455319144
 20
67.7672583884
 10
82.7989825564
 20
67.7996850683
 10
82.7543340714
 20
67.8348892569
 10
82.7114742036
 20
67.8730296497
 10
82.6705152089
 20
67.9139482667
 10
82.6321398049
 20
67.9570479023
 10
82.596485695
 20
68.0022608643
 10
82.5634151758
 20
68.0496554957
 10
82.533197855
 20
68.0988385189
 10
82.5058484155
 20
68.1497805599
 10
82.4813521744
 20
68.202511594
 10
82.4599346901
 20
68.2567272629
 10
82.4415772998
 20
68.3126034704
 10
82.4262986662
 20
68.3699648792
 10
82.4143803365
 20
68.4279800627
 10
82.4059161594
 20
68.4863718872
 10
82.4008122861
 20
68.545417692
 10
82.3990687165
 20
68.6051175991
  0
LINE
  5
285
100
AcDbEntity
  8
RACCORDO
100
AcDbLine
 62
253
  6
CONTINUOUS
 10
108.9065579801
 20
90.7415348654
 11
108.9065579801
 21
134.4757425346
  0
LINE
  5
286
100
AcDbEntity
  8
ASSI
100
AcDbLine
 62
253
  6
CONTINUOUS
 10
108.9065579801
 20
90.7415348654
 11
108.9065579801
 21
134.4757425346
  0
LINE
  5
287
100
AcDbEntity
  8
RACCORDO
100
AcDbLine
 62
253
  6
CONTINUOUS
 10
109.4058711
 20
90.7645285983
 11
109.4058711077
 21
134.4527369165
  0
LINE
  5
288
100
AcDbEntity
  8
ASSI
100
AcDbLine
 62
253
  6
CONTINUOUS
 10
109.4058711
 20
90.7645285983
 11
109.4058711077
 21
134.4527369165
  0
LINE
  5
289
100
AcDbEntity
  8
RACCORDO
100
AcDbLine
 62
7
  6
CONTINUOUS
 10
109.4990682968
 20
134.359772854
 11
109.4990682968
 21
90.857504546
  0
LINE
  5
28A
100
AcDbEntity
  8
ASSI
100
AcDbLine
 62
7
  6
CONTINUOUS
 10
109.4990682968
 20
134.359772854
 11
109.4990682968
 21
90.857504546
  0
LINE
  5
28B
100
AcDbEntity
  8
RACCORDO
100
AcDbLine
 62
253
  6
CONTINUOUS
 10
110.2082202831
 20
135.7763384398
 11
110.2082202831
 21
135.250233165
  0
LINE
  5
28C
100
AcDbEntity
  8
ASSI
100
AcDbLine
 62
253
  6
CONTINUOUS
 10
110.2082202831
 20
135.7763384398
 11
110.2082202831
 21
135.250233165
  0
LINE
  5
28D
100
AcDbEntity
  8
RACCORDO
100
AcDbLine
 62
253
  6
CONTINUOUS
 10
110.2082202831
 20
89.4409389602
 11
110.208220283
 21
89.967044235
  0
LINE
  5
28E
100
AcDbEntity
  8
ASSI
100
AcDbLine
 62
253
  6
CONTINUOUS
 10
110.2082202831
 20
89.4409389602
 11
110.208220283
 21
89.967044235
  0
LWPOLYLINE
  5
28F
100
AcDbEntity
  8
RACCORDO
100
AcDbPolyline
 62
253
  6
CONTINUOUS
 90
13
 70
0
 10
109.405871119
 20
134.4527369053
 10
109.4068128248
 20
134.4915355136
 10
109.4096825608
 20
134.5306112707
 10
109.4145283915
 20
134.5698663216
 10
109.4214070589
 20
134.6092649873
 10
109.4303501657
 20
134.6486307854
 10
109.4413300284
 20
134.6876541616
 10
109.4543541949
 20
134.7262562263
 10
109.4694056011
 20
134.7642988072
 10
109.4863382317
 20
134.8014053568
 10
109.5050422063
 20
134.8374003119
 10
109.5254912432
 20
134.8722907886
 10
109.5476164277
 20
134.9059969826
  0
LWPOLYLINE
  5
290
100
AcDbEntity
  8
ASSI
100
AcDbPolyline
 62
253
  6
CONTINUOUS
 90
13
 70
0
 10
109.405871119
 20
134.4527369053
 10
109.4068128248
 20
134.4915355136
 10
109.4096825608
 20
134.5306112707
 10
109.4145283915
 20
134.5698663216
 10
109.4214070589
 20
134.6092649873
 10
109.4303501657
 20
134.6486307854
 10
109.4413300284
 20
134.6876541616
 10
109.4543541949
 20
134.7262562263
 10
109.4694056011
 20
134.7642988072
 10
109.4863382317
 20
134.8014053568
 10
109.5050422063
 20
134.8374003119
 10
109.5254912432
 20
134.8722907886
 10
109.5476164277
 20
134.9059969826
  0
LWPOLYLINE
  5
291
100
AcDbEntity
  8
RACCORDO
100
AcDbPolyline
 62
7
  6
CONTINUOUS
 90
7
 70
0
 10
109.9998837412
 20
90.1168472192
 10
110.0484017997
 20
90.0991259181
 10
110.0975236306
 20
90.0846126168
 10
110.147249234
 20
90.0733072727
 10
110.1975786098
 20
90.0652098528
 10
110.2485117581
 20
90.0603203334
 10
110.3000486788
 20
90.0586387
  0
LWPOLYLINE
  5
292
100
AcDbEntity
  8
ASSI
100
AcDbPolyline
 62
7
  6
CONTINUOUS
 90
7
 70
0
 10
109.9998837412
 20
90.1168472192
 10
110.0484017997
 20
90.0991259181
 10
110.0975236306
 20
90.0846126168
 10
110.147249234
 20
90.0733072727
 10
110.1975786098
 20
90.0652098528
 10
110.2485117581
 20
90.0603203334
 10
110.3000486788
 20
90.0586387
  0
LWPOLYLINE
  5
293
100
AcDbEntity
  8
RACCORDO
100
AcDbPolyline
 62
7
  6
CONTINUOUS
 90
22
 70
0
 10
109.9998837412
 20
135.1004301808
 10
109.9586060015
 20
135.0824509714
 10
109.9185403802
 20
135.062239529
 10
109.8796868774
 20
135.0397958385
 10
109.8419100211
 20
135.0150479367
 10
109.8053452832
 20
134.988067751
 10
109.7703990792
 20
134.9590711021
 10
109.7370434271
 20
134.92795542
 10
109.7053063089
 20
134.8948232336
 10
109.6756780863
 20
134.8601980174
 10
109.6482754682
 20
134.8241541768
 10
109.6229817458
 20
134.7866172722
 10
109.599937154
 20
134.7478875201
 10
109.5791431805
 20
134.707966823
 10
109.5605983377
 20
134.6668532478
 10
109.5444383972
 20
134.624841264
 10
109.5306628733
 20
134.5818334048
 10
109.5192722518
 20
134.5379271115
 10
109.5104037605
 20
134.4937092275
 10
109.5041031423
 20
134.4493753681
 10
109.5003246544
 20
134.4047299117
 10
109.4990682968
 20
134.359772854
  0
LWPOLYLINE
  5
294
100
AcDbEntity
  8
ASSI
100
AcDbPolyline
 62
7
  6
CONTINUOUS
 90
22
 70
0
 10
109.9998837412
 20
135.1004301808
 10
109.9586060015
 20
135.0824509714
 10
109.9185403802
 20
135.062239529
 10
109.8796868774
 20
135.0397958385
 10
109.8419100211
 20
135.0150479367
 10
109.8053452832
 20
134.988067751
 10
109.7703990792
 20
134.9590711021
 10
109.7370434271
 20
134.92795542
 10
109.7053063089
 20
134.8948232336
 10
109.6756780863
 20
134.8601980174
 10
109.6482754682
 20
134.8241541768
 10
109.6229817458
 20
134.7866172722
 10
109.599937154
 20
134.7478875201
 10
109.5791431805
 20
134.707966823
 10
109.5605983377
 20
134.6668532478
 10
109.5444383972
 20
134.624841264
 10
109.5306628733
 20
134.5818334048
 10
109.5192722518
 20
134.5379271115
 10
109.5104037605
 20
134.4937092275
 10
109.5041031423
 20
134.4493753681
 10
109.5003246544
 20
134.4047299117
 10
109.4990682968
 20
134.359772854
  0
LWPOLYLINE
  5
295
100
AcDbEntity
  8
SCRITTE
100
AcDbPolyline
 62
253
  6
CONTINUOUS
 90
56
 70
0
 10
158.8657489662
 20
85.2850106134
 10
158.8820116606
 20
85.2855143346
 10
158.8983804964
 20
85.2863187275
 10
158.9148771279
 20
85.2874502814
 10
158.9315232093
 20
85.2889354855
 10
158.9483256421
 20
85.2908006271
 10
158.9652323162
 20
85.2930711877
 10
158.9821763686
 20
85.2957724469
 10
158.9990909364
 20
85.2989296844
 10
159.0125553728
 20
85.3017989185
 10
159.0259175714
 20
85.3049780116
 10
159.0391369568
 20
85.3084688173
 10
159.0521729537
 20
85.3122731894
 10
159.0649849866
 20
85.3163929818
 10
159.0775367383
 20
85.3208296604
 10
159.0898089231
 20
85.3255831395
 10
159.1017865136
 20
85.3306529457
 10
159.1134544823
 20
85.3360386056
 10
159.1247978014
 20
85.3417396456
 10
159.133993702
 20
85.3467319872
 10
159.1429568529
 20
85.3519481458
 10
159.1516903914
 20
85.3573932533
 10
159.1601964443
 20
85.3630727982
 10
159.1684730962
 20
85.3689936954
 10
159.1765174218
 20
85.3751632165
 10
159.1843270642
 20
85.3815867277
 10
159.191901943
 20
85.3882619728
 10
159.1992425466
 20
85.3951847904
 10
159.206349941
 20
85.4023498352
 10
159.2132275023
 20
85.4097470257
 10
159.219879184
 20
85.4173650967
 10
159.227568962
 20
85.4267858044
 10
159.234948123
 20
85.4365088208
 10
159.2420256234
 20
85.4465346089
 10
159.2488104197
 20
85.4568636315
 10
159.255311468
 20
85.4674963513
 10
159.2615354696
 20
85.4784320687
 10
159.2674801045
 20
85.489665435
 10
159.2731407975
 20
85.5011899389
 10
159.2785129733
 20
85.5129990691
 10
159.2835920567
 20
85.5250863144
 10
159.2883723631
 20
85.5374404276
 10
159.2928437694
 20
85.5500312168
 10
159.2969950433
 20
85.5628237541
 10
159.3008149523
 20
85.5757831117
 10
159.3042922639
 20
85.5888743617
 10
159.30741767
 20
85.6020620985
 10
159.3101895594
 20
85.6153090059
 10
159.3126082452
 20
85.62857729
 10
159.3146740405
 20
85.6418291568
 10
159.3163872583
 20
85.6550268124
 10
159.3177485611
 20
85.6681408678
 10
159.3187600083
 20
85.6811755541
 10
159.3194240086
 20
85.6941435071
 10
159.319742971
 20
85.7070573629
 10
159.3197193041
 20
85.7199297574
  0
LINE
  5
296
100
AcDbEntity
  8
SCRITTE
100
AcDbLine
 62
253
  6
CONTINUOUS
 10
160.0082165349
 20
83.7308373456
 11
159.4460839448
 21
83.7308373456
  0
LINE
  5
297
100
AcDbEntity
  8
SCRITTE
100
AcDbLine
 62
253
  6
CONTINUOUS
 10
158.5511436678
 20
83.7308373456
 11
157.9690871253
 21
83.7308373456
  0
LINE
  5
298
100
AcDbEntity
  8
SCRITTE
100
AcDbLine
 62
253
  6
CONTINUOUS
 10
152.249191323
 20
83.7308377
 11
151.664783323
 21
83.7308377
  0
LINE
  5
299
100
AcDbEntity
  8
SCRITTE
100
AcDbLine
 62
253
  6
CONTINUOUS
 10
150.032961323
 20
83.7308377
 11
150.547971323
 21
83.7308377
  0
LINE
  5
29A
100
AcDbEntity
  8
SCRITTE
100
AcDbLine
 62
253
  6
CONTINUOUS
 10
152.563796323
 20
83.7308377
 11
153.122885323
 21
83.7308377
  0
LINE
  5
29B
100
AcDbEntity
  8
SCRITTE
100
AcDbLine
 62
253
  6
CONTINUOUS
 10
153.934581323
 20
83.7308377
 11
154.016544323
 21
83.7308377
  0
LINE
  5
29C
100
AcDbEntity
  8
SCRITTE
100
AcDbLine
 62
253
  6
CONTINUOUS
 10
154.831474323
 20
83.7308377
 11
155.403180323
 21
83.7308377
  0
LINE
  5
29D
100
AcDbEntity
  8
SCRITTE
100
AcDbLine
 62
253
  6
CONTINUOUS
 10
155.494948323
 20
83.7308377
 11
156.073015323
 21
83.7308377
  0
LINE
  5
29E
100
AcDbEntity
  8
SCRITTE
100
AcDbLine
 62
253
  6
CONTINUOUS
 10
157.181534323
 20
83.7308377
 11
157.797476323
 21
83.7308377
  0
LINE
  5
29F
100
AcDbEntity
  8
SCRITTE
100
AcDbLine
 62
253
  6
CONTINUOUS
 10
156.234275323
 20
84.2897577
 11
157.030142323
 21
84.2897577
  0
LINE
  5
2A0
100
AcDbEntity
  8
SCRITTE
100
AcDbLine
 62
253
  6
CONTINUOUS
 10
156.913348323
 20
84.7222477
 11
156.353819323
 21
84.7222477
  0
LINE
  5
2A1
100
AcDbEntity
  8
SCRITTE
100
AcDbLine
 62
253
  6
CONTINUOUS
 10
158.8644892853
 20
84.8264867752
 11
158.5511436678
 21
84.8264867752
  0
LINE
  5
2A2
100
AcDbEntity
  8
SCRITTE
100
AcDbLine
 62
253
  6
CONTINUOUS
 10
158.5317655771
 20
85.2850106134
 11
158.8657489662
 21
85.2850106134
  0
LWPOLYLINE
  5
2A3
100
AcDbEntity
  8
SCRITTE
100
AcDbPolyline
 62
253
  6
CONTINUOUS
 90
36
 70
0
 10
157.9690871253
 20
86.497831359
 10
158.0130202135
 20
86.5041981903
 10
158.0562548156
 20
86.5102641553
 10
158.0987726869
 20
86.5160188314
 10
158.140555583
 20
86.5214517962
 10
158.181585259
 20
86.5265526271
 10
158.2218563086
 20
86.5313133034
 10
158.2614146776
 20
86.5357354123
 10
158.30031915
 20
86.539822943
 10
158.33862851
 20
86.5435798844
 10
158.3764015415
 20
86.5470102258
 10
158.4229450432
 20
86.5508435195
 10
158.4688084178
 20
86.5541719525
 10
158.5140577011
 20
86.556994744
 10
158.5587589292
 20
86.559311113
 10
158.6029816071
 20
86.5611185858
 10
158.6468091169
 20
86.5624079176
 10
158.6903283097
 20
86.5631681707
 10
158.7336260365
 20
86.5633884075
 10
158.7911363611
 20
86.5628224712
 10
158.848459709
 20
86.5612472036
 10
158.9056484188
 20
86.558632747
 10
158.9484782539
 20
86.5559652266
 10
158.9912549218
 20
86.5526432767
 10
159.0339715487
 20
86.5486138066
 10
159.0766212608
 20
86.5438237256
 10
159.110684773
 20
86.5394049912
 10
159.1446767826
 20
86.5344181887
 10
159.1785730114
 20
86.5288160191
 10
159.2123491816
 20
86.5225511832
 10
159.2459810149
 20
86.5155763822
 10
159.2794457643
 20
86.507843976
 10
159.3127268058
 20
86.4993049615
 10
159.3458090464
 20
86.4899099945
 10
159.378677393
 20
86.4796097309
 10
159.4113167527
 20
86.4683548265
  0
LWPOLYLINE
  5
2A4
100
AcDbEntity
  8
RACCORDO
100
AcDbPolyline
 62
7
  6
CONTINUOUS
 90
7
 70
0
 10
198.9980879672
 20
90.0586387
 10
199.0495944998
 20
90.0603144454
 10
199.1005094152
 20
90.0652004321
 10
199.1508327134
 20
90.0732966743
 10
199.2005643944
 20
90.084603196
 10
199.2497044582
 20
90.0991200301
 10
199.2982529048
 20
90.1168472192
  0
LWPOLYLINE
  5
2A5
100
AcDbEntity
  8
ASSI
100
AcDbPolyline
 62
7
  6
CONTINUOUS
 90
7
 70
0
 10
198.9980879672
 20
90.0586387
 10
199.0495944998
 20
90.0603144454
 10
199.1005094152
 20
90.0652004321
 10
199.1508327134
 20
90.0732966743
 10
199.2005643944
 20
90.084603196
 10
199.2497044582
 20
90.0991200301
 10
199.2982529048
 20
90.1168472192
  0
LWPOLYLINE
  5
2A6
100
AcDbEntity
  8
RACCORDO
100
AcDbPolyline
 62
253
  6
CONTINUOUS
 90
16
 70
0
 10
226.3443148571
 20
90.0045802143
 10
226.3838074199
 20
90.0051667014
 10
226.4222013249
 20
90.0059145568
 10
226.4592359578
 20
90.006818704
 10
226.4946599311
 20
90.0078730059
 10
226.5282327901
 20
90.0090703059
 10
226.5597266453
 20
90.0104024768
 10
226.5889277193
 20
90.011860476
 10
226.615637798
 20
90.0134344068
 10
226.6396755757
 20
90.0151135854
 10
226.6608778864
 20
90.0168866137
 10
226.6791008106
 20
90.0187414566
 10
226.6942206529
 20
90.0206655236
 10
226.7061347812
 20
90.0226457542
 10
226.7147623234
 20
90.024668707
 10
226.7200447167
 20
90.0267206501
  0
LWPOLYLINE
  5
2A7
100
AcDbEntity
  8
ASSI
100
AcDbPolyline
 62
253
  6
CONTINUOUS
 90
16
 70
0
 10
226.3443148571
 20
90.0045802143
 10
226.3838074199
 20
90.0051667014
 10
226.4222013249
 20
90.0059145568
 10
226.4592359578
 20
90.006818704
 10
226.4946599311
 20
90.0078730059
 10
226.5282327901
 20
90.0090703059
 10
226.5597266453
 20
90.0104024768
 10
226.5889277193
 20
90.011860476
 10
226.615637798
 20
90.0134344068
 10
226.6396755757
 20
90.0151135854
 10
226.6608778864
 20
90.0168866137
 10
226.6791008106
 20
90.0187414566
 10
226.6942206529
 20
90.0206655236
 10
226.7061347812
 20
90.0226457542
 10
226.7147623234
 20
90.024668707
 10
226.7200447167
 20
90.0267206501
  0
LWPOLYLINE
  5
2A8
100
AcDbEntity
  8
RACCORDO
100
AcDbPolyline
 62
253
  6
CONTINUOUS
 90
16
 70
0
 10
226.3443189049
 20
90.1073527811
 10
226.3838115337
 20
90.1079379523
 10
226.4222054987
 20
90.1086837212
 10
226.4592401844
 20
90.1095850254
 10
226.4946642019
 20
90.1106357471
 10
226.5282370952
 20
90.111828754
 10
226.559730974
 20
90.1131559481
 10
226.5889320598
 20
90.1146083204
 10
226.6156421376
 20
90.1161760123
 10
226.6396799014
 20
90.1178483824
 10
226.6608821844
 20
90.1196140789
 10
226.6791050668
 20
90.1214611163
 10
226.6942248531
 20
90.123376957
 10
226.7061389111
 20
90.1253485964
 10
226.714766369
 20
90.1273626512
 10
226.7200486643
 20
90.1294054501
  0
LWPOLYLINE
  5
2A9
100
AcDbEntity
  8
ASSI
100
AcDbPolyline
 62
253
  6
CONTINUOUS
 90
16
 70
0
 10
226.3443189049
 20
90.1073527811
 10
226.3838115337
 20
90.1079379523
 10
226.4222054987
 20
90.1086837212
 10
226.4592401844
 20
90.1095850254
 10
226.4946642019
 20
90.1106357471
 10
226.5282370952
 20
90.111828754
 10
226.559730974
 20
90.1131559481
 10
226.5889320598
 20
90.1146083204
 10
226.6156421376
 20
90.1161760123
 10
226.6396799014
 20
90.1178483824
 10
226.6608821844
 20
90.1196140789
 10
226.6791050668
 20
90.1214611163
 10
226.6942248531
 20
90.123376957
 10
226.7061389111
 20
90.1253485964
 10
226.714766369
 20
90.1273626512
 10
226.7200486643
 20
90.1294054501
  0
LWPOLYLINE
  5
2AA
100
AcDbEntity
  8
RACCORDO
100
AcDbPolyline
 62
253
  6
CONTINUOUS
 90
16
 70
0
 10
109.0317429542
 20
90.7423074538
 10
109.072083155
 20
90.742903222
 10
109.1112462403
 20
90.7436620434
 10
109.1489537057
 20
90.7445785217
 10
109.1849373984
 20
90.7456461394
 10
109.218941424
 20
90.7468573043
 10
109.2507239663
 20
90.7482034034
 10
109.280059007
 20
90.7496748639
 10
109.3067379329
 20
90.7512612218
 10
109.3305710195
 20
90.7529511958
 10
109.3513887802
 20
90.7547327678
 10
109.3690431717
 20
90.7565932684
 10
109.3834086464
 20
90.7585194668
 10
109.3943830459
 20
90.760497665
 10
109.4018883266
 20
90.7625137953
 10
109.4058711157
 20
90.7645535202
  0
LWPOLYLINE
  5
2AB
100
AcDbEntity
  8
ASSI
100
AcDbPolyline
 62
253
  6
CONTINUOUS
 90
16
 70
0
 10
109.0317429542
 20
90.7423074538
 10
109.072083155
 20
90.742903222
 10
109.1112462403
 20
90.7436620434
 10
109.1489537057
 20
90.7445785217
 10
109.1849373984
 20
90.7456461394
 10
109.218941424
 20
90.7468573043
 10
109.2507239663
 20
90.7482034034
 10
109.280059007
 20
90.7496748639
 10
109.3067379329
 20
90.7512612218
 10
109.3305710195
 20
90.7529511958
 10
109.3513887802
 20
90.7547327678
 10
109.3690431717
 20
90.7565932684
 10
109.3834086464
 20
90.7585194668
 10
109.3943830459
 20
90.760497665
 10
109.4018883266
 20
90.7625137953
 10
109.4058711157
 20
90.7645535202
  0
LINE
  5
2AC
100
AcDbEntity
  8
RACCORDO
100
AcDbLine
 62
253
  6
CONTINUOUS
 10
226.2631116837
 20
90.0039061465
 11
226.3443148571
 21
90.0045802143
  0
LINE
  5
2AD
100
AcDbEntity
  8
ASSI
100
AcDbLine
 62
253
  6
CONTINUOUS
 10
226.2631116837
 20
90.0039061465
 11
226.3443148571
 21
90.0045802143
  0
LWPOLYLINE
  5
2AE
100
AcDbEntity
  8
RACCORDO
100
AcDbPolyline
 62
253
  6
CONTINUOUS
 90
3
 70
0
 10
226.2219561014
 20
90.1065949694
 10
226.2631155875
 20
90.1066790029
 10
226.3443189049
 20
90.1073527811
  0
LWPOLYLINE
  5
2AF
100
AcDbEntity
  8
ASSI
100
AcDbPolyline
 62
253
  6
CONTINUOUS
 90
3
 70
0
 10
226.2219561014
 20
90.1065949694
 10
226.2631155875
 20
90.1066790029
 10
226.3443189049
 20
90.1073527811
  0
LWPOLYLINE
  5
2B0
100
AcDbEntity
  8
RACCORDO
100
AcDbPolyline
 62
253
  6
CONTINUOUS
 90
3
 70
0
 10
108.9065579801
 20
90.7415348658
 10
108.9486850377
 20
90.7416208343
 10
109.0317429542
 20
90.7423074538
  0
LWPOLYLINE
  5
2B1
100
AcDbEntity
  8
ASSI
100
AcDbPolyline
 62
253
  6
CONTINUOUS
 90
3
 70
0
 10
108.9065579801
 20
90.7415348658
 10
108.9486850377
 20
90.7416208343
 10
109.0317429542
 20
90.7423074538
  0
LINE
  5
2B2
100
AcDbEntity
  8
SCRITTE
100
AcDbLine
 62
253
  6
CONTINUOUS
 10
156.938458323
 20
86.5305407
 11
156.373113323
 21
86.5305407
  0
LINE
  5
2B3
100
AcDbEntity
  8
SCRITTE
100
AcDbLine
 62
253
  6
CONTINUOUS
 10
155.141376323
 20
86.5305407
 11
154.563162323
 21
86.5305407
  0
LINE
  5
2B4
100
AcDbEntity
  8
SCRITTE
100
AcDbLine
 62
253
  6
CONTINUOUS
 10
153.400518323
 20
86.5305407
 11
152.816593323
 21
86.5305407
  0
LINE
  5
2B5
100
AcDbEntity
  8
SCRITTE
100
AcDbLine
 62
253
  6
CONTINUOUS
 10
151.447908323
 20
86.5305407
 11
150.863899323
 21
86.5305407
  0
LINE
  5
2B6
100
AcDbEntity
  8
SCRITTE
100
AcDbLine
 62
253
  6
CONTINUOUS
 10
149.780248323
 20
86.5305407
 11
149.145400323
 21
86.5305407
  0
LINE
  5
2B7
100
AcDbEntity
  8
SCRITTE
100
AcDbLine
 62
253
  6
CONTINUOUS
 10
151.664783323
 20
86.5307087
 11
152.249191323
 21
86.5307087
  0
LINE
  5
2B8
100
AcDbEntity
  8
RACCORDO
100
AcDbLine
 62
253
  6
CONTINUOUS
 10
199.0899163629
 20
89.4409389602
 11
110.2082202831
 21
89.4409389602
  0
LINE
  5
2B9
100
AcDbEntity
  8
ASSI
100
AcDbLine
 62
253
  6
CONTINUOUS
 10
199.0899163629
 20
89.4409389602
 11
110.2082202831
 21
89.4409389602
  0
LINE
  5
2BA
100
AcDbEntity
  8
RACCORDO
100
AcDbLine
 62
253
  6
CONTINUOUS
 10
199.089947534
 20
89.967044235
 11
110.2082087426
 21
89.967044235
  0
LINE
  5
2BB
100
AcDbEntity
  8
ASSI
100
AcDbLine
 62
253
  6
CONTINUOUS
 10
199.089947534
 20
89.967044235
 11
110.2082087426
 21
89.967044235
  0
LINE
  5
2BC
100
AcDbEntity
  8
RACCORDO
100
AcDbLine
 62
253
  6
CONTINUOUS
 10
200.1615666142
 20
90.0038231414
 11
226.2631116837
 21
90.0039061465
  0
LINE
  5
2BD
100
AcDbEntity
  8
ASSI
100
AcDbLine
 62
253
  6
CONTINUOUS
 10
200.1615666142
 20
90.0038231414
 11
226.2631116837
 21
90.0039061465
  0
LINE
  5
2BE
100
AcDbEntity
  8
RACCORDO
100
AcDbLine
 62
7
  6
CONTINUOUS
 10
110.3000486788
 20
90.0586387
 11
198.9980879672
 21
90.0586387
  0
LINE
  5
2BF
100
AcDbEntity
  8
ASSI
100
AcDbLine
 62
7
  6
CONTINUOUS
 10
110.3000486788
 20
90.0586387
 11
198.9980879672
 21
90.0586387
  0
LINE
  5
2C0
100
AcDbEntity
  8
RACCORDO
100
AcDbLine
 62
253
  6
CONTINUOUS
 10
82.5780879812
 20
90.1294054501
 11
82.399068323
 21
90.1294054501
  0
LINE
  5
2C1
100
AcDbEntity
  8
ASSI
100
AcDbLine
 62
253
  6
CONTINUOUS
 10
82.5780879812
 20
90.1294054501
 11
82.399068323
 21
90.1294054501
  0
LINE
  5
2C2
100
AcDbEntity
  8
RACCORDO
100
AcDbLine
 62
253
  6
CONTINUOUS
 10
226.7200486647
 20
90.1294054501
 11
226.899068323
 21
90.1294054501
  0
LINE
  5
2C3
100
AcDbEntity
  8
ASSI
100
AcDbLine
 62
253
  6
CONTINUOUS
 10
226.7200486647
 20
90.1294054501
 11
226.899068323
 21
90.1294054501
  0
LINE
  5
2C4
100
AcDbEntity
  8
RACCORDO
100
AcDbLine
 62
253
  6
CONTINUOUS
 10
109.1365700318
 20
90.0038231414
 11
83.0350249632
 21
90.0039061474
  0
LINE
  5
2C5
100
AcDbEntity
  8
ASSI
100
AcDbLine
 62
253
  6
CONTINUOUS
 10
109.1365700318
 20
90.0038231414
 11
83.0350249632
 21
90.0039061474
  0
LWPOLYLINE
  5
2C6
100
AcDbEntity
  8
RACCORDO
100
AcDbPolyline
 62
253
  6
CONTINUOUS
 90
18
 70
0
 10
83.0761805446
 20
90.1065949692
 10
82.9941409596
 20
90.1069321793
 10
82.9538177402
 20
90.1073527808
 10
82.9143251112
 20
90.107937952
 10
82.8759311459
 20
90.1086837209
 10
82.83889646
 20
90.1095850252
 10
82.8034724424
 20
90.1106357469
 10
82.7698995489
 20
90.1118287538
 10
82.73840567
 20
90.1131559479
 10
82.7092045842
 20
90.1146083202
 10
82.6824945063
 20
90.1161760121
 10
82.6584567426
 20
90.1178483823
 10
82.6372544598
 20
90.1196140788
 10
82.6190315775
 20
90.1214611162
 10
82.6039117914
 20
90.1233769569
 10
82.5919977337
 20
90.1253485964
 10
82.5833702761
 20
90.1273626512
 10
82.5780879812
 20
90.1294054501
  0
LWPOLYLINE
  5
2C7
100
AcDbEntity
  8
ASSI
100
AcDbPolyline
 62
253
  6
CONTINUOUS
 90
18
 70
0
 10
83.0761805446
 20
90.1065949692
 10
82.9941409596
 20
90.1069321793
 10
82.9538177402
 20
90.1073527808
 10
82.9143251112
 20
90.107937952
 10
82.8759311459
 20
90.1086837209
 10
82.83889646
 20
90.1095850252
 10
82.8034724424
 20
90.1106357469
 10
82.7698995489
 20
90.1118287538
 10
82.73840567
 20
90.1131559479
 10
82.7092045842
 20
90.1146083202
 10
82.6824945063
 20
90.1161760121
 10
82.6584567426
 20
90.1178483823
 10
82.6372544598
 20
90.1196140788
 10
82.6190315775
 20
90.1214611162
 10
82.6039117914
 20
90.1233769569
 10
82.5919977337
 20
90.1253485964
 10
82.5833702761
 20
90.1273626512
 10
82.5780879812
 20
90.1294054501
  0
LWPOLYLINE
  5
2C8
100
AcDbEntity
  8
RACCORDO
100
AcDbPolyline
 62
253
  6
CONTINUOUS
 90
18
 70
0
 10
200.3915786658
 20
90.7415349775
 10
200.3076239539
 20
90.7418790606
 10
200.2663933962
 20
90.7423075268
 10
200.2260530649
 20
90.7429032838
 10
200.1868898387
 20
90.7436620949
 10
200.1491822252
 20
90.7445785639
 10
200.1131983805
 20
90.7456461733
 10
200.0791942022
 20
90.7468573308
 10
200.0474115096
 20
90.7482034234
 10
200.0180763238
 20
90.7496748785
 10
199.9913972609
 20
90.7512612317
 10
199.967564048
 20
90.7529512018
 10
199.9467461737
 20
90.7547327707
 10
199.9290916837
 20
90.7565932687
 10
199.9147261271
 20
90.7585194652
 10
199.9037516639
 20
90.7604976619
 10
199.8962463385
 20
90.7625137911
 10
199.8922635247
 20
90.764553515
  0
LWPOLYLINE
  5
2C9
100
AcDbEntity
  8
ASSI
100
AcDbPolyline
 62
253
  6
CONTINUOUS
 90
18
 70
0
 10
200.3915786658
 20
90.7415349775
 10
200.3076239539
 20
90.7418790606
 10
200.2663933962
 20
90.7423075268
 10
200.2260530649
 20
90.7429032838
 10
200.1868898387
 20
90.7436620949
 10
200.1491822252
 20
90.7445785639
 10
200.1131983805
 20
90.7456461733
 10
200.0791942022
 20
90.7468573308
 10
200.0474115096
 20
90.7482034234
 10
200.0180763238
 20
90.7496748785
 10
199.9913972609
 20
90.7512612317
 10
199.967564048
 20
90.7529512018
 10
199.9467461737
 20
90.7547327707
 10
199.9290916837
 20
90.7565932687
 10
199.9147261271
 20
90.7585194652
 10
199.9037516639
 20
90.7604976619
 10
199.8962463385
 20
90.7625137911
 10
199.8922635247
 20
90.764553515
  0
LWPOLYLINE
  5
2CA
100
AcDbEntity
  8
RACCORDO
100
AcDbPolyline
 62
253
  6
CONTINUOUS
 90
17
 70
0
 10
83.0350249632
 20
90.0039061474
 10
82.9538217917
 20
90.0045802152
 10
82.9143292298
 20
90.0051667022
 10
82.8759353256
 20
90.0059145576
 10
82.8389006933
 20
90.0068187048
 10
82.8034767205
 20
90.0078730066
 10
82.769903862
 20
90.0090703065
 10
82.7384100071
 20
90.0104024774
 10
82.7092089332
 20
90.0118604766
 10
82.6824988545
 20
90.0134344072
 10
82.6584610766
 20
90.0151135858
 10
82.6372587655
 20
90.016886614
 10
82.6190358407
 20
90.0187414569
 10
82.6039159977
 20
90.0206655238
 10
82.5920018685
 20
90.0226457544
 10
82.5833743251
 20
90.024668707
 10
82.5780919306
 20
90.0267206501
  0
LWPOLYLINE
  5
2CB
100
AcDbEntity
  8
ASSI
100
AcDbPolyline
 62
253
  6
CONTINUOUS
 90
17
 70
0
 10
83.0350249632
 20
90.0039061474
 10
82.9538217917
 20
90.0045802152
 10
82.9143292298
 20
90.0051667022
 10
82.8759353256
 20
90.0059145576
 10
82.8389006933
 20
90.0068187048
 10
82.8034767205
 20
90.0078730066
 10
82.769903862
 20
90.0090703065
 10
82.7384100071
 20
90.0104024774
 10
82.7092089332
 20
90.0118604766
 10
82.6824988545
 20
90.0134344072
 10
82.6584610766
 20
90.0151135858
 10
82.6372587655
 20
90.016886614
 10
82.6190358407
 20
90.0187414569
 10
82.6039159977
 20
90.0206655238
 10
82.5920018685
 20
90.0226457544
 10
82.5833743251
 20
90.024668707
 10
82.5780919306
 20
90.0267206501
  0
LWPOLYLINE
  5
2CC
100
AcDbEntity
  8
RACCORDO
100
AcDbPolyline
 62
253
  6
CONTINUOUS
 90
19
 70
0
 10
110.2082087229
 20
89.9670442155
 10
110.1659404278
 20
89.968080467
 10
110.1236066126
 20
89.9713517138
 10
110.0813276156
 20
89.9768773565
 10
110.0392103982
 20
89.9846729201
 10
109.9973960267
 20
89.99474358
 10
109.9560573497
 20
90.0070758902
 10
109.9152892607
 20
90.0216667481
 10
109.8752494908
 20
90.0384854277
 10
109.8361944669
 20
90.0574375902
 10
109.7982650325
 20
90.0784501049
 10
109.7615424648
 20
90.1014728494
 10
109.7261753883
 20
90.126408492
 10
109.6922743203
 20
90.1531654189
 10
109.6599176089
 20
90.1816673285
 10
109.6291939934
 20
90.2118257948
 10
109.6001860279
 20
90.2435471069
 10
109.5729698632
 20
90.2767325548
 10
109.5476164277
 20
90.3112804174
  0
LWPOLYLINE
  5
2CD
100
AcDbEntity
  8
ASSI
100
AcDbPolyline
 62
253
  6
CONTINUOUS
 90
19
 70
0
 10
110.2082087229
 20
89.9670442155
 10
110.1659404278
 20
89.968080467
 10
110.1236066126
 20
89.9713517138
 10
110.0813276156
 20
89.9768773565
 10
110.0392103982
 20
89.9846729201
 10
109.9973960267
 20
89.99474358
 10
109.9560573497
 20
90.0070758902
 10
109.9152892607
 20
90.0216667481
 10
109.8752494908
 20
90.0384854277
 10
109.8361944669
 20
90.0574375902
 10
109.7982650325
 20
90.0784501049
 10
109.7615424648
 20
90.1014728494
 10
109.7261753883
 20
90.126408492
 10
109.6922743203
 20
90.1531654189
 10
109.6599176089
 20
90.1816673285
 10
109.6291939934
 20
90.2118257948
 10
109.6001860279
 20
90.2435471069
 10
109.5729698632
 20
90.2767325548
 10
109.5476164277
 20
90.3112804174
  0
LWPOLYLINE
  5
2CE
100
AcDbEntity
  8
RACCORDO
100
AcDbPolyline
 62
253
  6
CONTINUOUS
 90
19
 70
0
 10
110.2082202831
 20
89.4409389602
 10
110.1393968178
 20
89.4426985384
 10
110.0708347785
 20
89.448150232
 10
110.0025341652
 20
89.4572940601
 10
109.9342564574
 20
89.4701432497
 10
109.8662401757
 20
89.4866846515
 10
109.7992008817
 20
89.5068787392
 10
109.7331107456
 20
89.5308065311
 10
109.6679975972
 20
89.5583871626
 10
109.6046604875
 20
89.5893382939
 10
109.5431740688
 20
89.6236970647
 10
109.4834636888
 20
89.661426541
 10
109.4261044415
 20
89.7021332666
 10
109.3711362804
 20
89.7458451159
 10
109.3185192521
 20
89.7925344437
 10
109.2687085897
 20
89.84172449
 10
109.2218560377
 20
89.8932563996
 10
109.1778098518
 20
89.9472892444
 10
109.1365700318
 20
90.0038231414
  0
LWPOLYLINE
  5
2CF
100
AcDbEntity
  8
ASSI
100
AcDbPolyline
 62
253
  6
CONTINUOUS
 90
19
 70
0
 10
110.2082202831
 20
89.4409389602
 10
110.1393968178
 20
89.4426985384
 10
110.0708347785
 20
89.448150232
 10
110.0025341652
 20
89.4572940601
 10
109.9342564574
 20
89.4701432497
 10
109.8662401757
 20
89.4866846515
 10
109.7992008817
 20
89.5068787392
 10
109.7331107456
 20
89.5308065311
 10
109.6679975972
 20
89.5583871626
 10
109.6046604875
 20
89.5893382939
 10
109.5431740688
 20
89.6236970647
 10
109.4834636888
 20
89.661426541
 10
109.4261044415
 20
89.7021332666
 10
109.3711362804
 20
89.7458451159
 10
109.3185192521
 20
89.7925344437
 10
109.2687085897
 20
89.84172449
 10
109.2218560377
 20
89.8932563996
 10
109.1778098518
 20
89.9472892444
 10
109.1365700318
 20
90.0038231414
  0
LWPOLYLINE
  5
2D0
100
AcDbEntity
  8
SCRITTE
100
AcDbPolyline
 62
253
  6
CONTINUOUS
 90
24
 70
0
 10
158.9895768054
 20
86.0700670252
 10
158.9680795685
 20
86.0724031798
 10
158.9465574515
 20
86.0744254022
 10
158.9250140582
 20
86.0761344216
 10
158.9034529925
 20
86.0775309673
 10
158.8818778581
 20
86.0786157683
 10
158.8602922589
 20
86.0793895539
 10
158.8386997987
 20
86.0798530534
 10
158.8198021122
 20
86.0800045803
 10
158.8008954136
 20
86.0799191312
 10
158.7819731848
 20
86.0795967346
 10
158.7630289075
 20
86.0790374189
 10
158.7440552067
 20
86.0782401571
 10
158.7250412801
 20
86.0771997
 10
158.7059754689
 20
86.0759097427
 10
158.6868461139
 20
86.0743639804
 10
158.667645275
 20
86.0725589084
 10
158.6483798866
 20
86.0705022231
 10
158.6290606018
 20
86.0682044212
 10
158.6096980736
 20
86.0656759994
 10
158.5902988458
 20
86.0629292957
 10
158.5708530234
 20
86.0599840146
 10
158.551346602
 20
86.056861702
 10
158.5317655771
 20
86.053583904
  0
LWPOLYLINE
  5
2D1
100
AcDbEntity
  8
SCRITTE
100
AcDbPolyline
 62
253
  6
CONTINUOUS
 90
86
 70
0
 10
159.4113167527
 20
86.4683548265
 10
159.4265938543
 20
86.4625250171
 10
159.4421071451
 20
86.4559568715
 10
159.4578811805
 20
86.4486174597
 10
159.4739405161
 20
86.4404738514
 10
159.4903097072
 20
86.4314931164
 10
159.5070133095
 20
86.4216423245
 10
159.5240552578
 20
86.4108985182
 10
159.5413570057
 20
86.3992786311
 10
159.558819386
 20
86.3868095693
 10
159.5763432317
 20
86.3735182392
 10
159.5938293757
 20
86.359431547
 10
159.611178651
 20
86.344576399
 10
159.6283004278
 20
86.328976517
 10
159.6451382263
 20
86.3126428853
 10
159.6616441036
 20
86.2955833038
 10
159.6777701171
 20
86.2778055723
 10
159.6934683243
 20
86.2593174908
 10
159.7086907825
 20
86.2401268591
 10
159.7233888975
 20
86.220253659
 10
159.7375114696
 20
86.1997665999
 10
159.7510066475
 20
86.1787465731
 10
159.7638225802
 20
86.15727447
 10
159.7759074163
 20
86.1354311819
 10
159.7872093047
 20
86.1132976
 10
159.7976874126
 20
86.0909478744
 10
159.8073449816
 20
86.0684291891
 10
159.8161962718
 20
86.0457819871
 10
159.8242555431
 20
86.023046711
 10
159.8315370557
 20
86.0002638038
 10
159.8380550697
 20
85.9774737081
 10
159.8448948201
 20
85.9501776017
 10
159.8507155511
 20
85.9230265888
 10
159.8555771469
 20
85.8961178766
 10
159.8595394917
 20
85.8695486722
 10
159.8626624696
 20
85.8434161827
 10
159.8650039412
 20
85.8178048804
 10
159.8666136718
 20
85.7927482974
 10
159.8675394028
 20
85.7682672309
 10
159.8678288761
 20
85.744382478
 10
159.867529833
 20
85.7211148359
 10
159.8666868801
 20
85.6984787041
 10
159.8653320834
 20
85.6764628917
 10
159.8634943739
 20
85.6550498099
 10
159.8612026826
 20
85.6342218702
 10
159.8584859403
 20
85.6139614839
 10
159.8545330535
 20
85.5894051367
 10
159.8499979012
 20
85.5656606092
 10
159.8449171554
 20
85.5426804013
 10
159.839327488
 20
85.5204170129
 10
159.8332658849
 20
85.4988305611
 10
159.826770587
 20
85.4779116327
 10
159.819880149
 20
85.4576584319
 10
159.8126331258
 20
85.4380691628
 10
159.8050674073
 20
85.4191414607
 10
159.7972182247
 20
85.4008706853
 10
159.7891201442
 20
85.3832516274
 10
159.7808077322
 20
85.3662790778
 10
159.769444243
 20
85.3446398082
 10
159.7578034293
 20
85.324093001
 10
159.7459275492
 20
85.3045910315
 10
159.7338579336
 20
85.2860905183
 10
159.7216322039
 20
85.2685650541
 10
159.7092870546
 20
85.2519924752
 10
159.6968600939
 20
85.2363434079
 10
159.6843925869
 20
85.2215596381
 10
159.6719267128
 20
85.207575742
 10
159.6595053227
 20
85.1943285239
 10
159.6471739567
 20
85.1817637031
 10
159.6349788266
 20
85.1698292271
 10
159.6229618731
 20
85.1584743815
 10
159.6111479507
 20
85.1476538034
 10
159.5995576424
 20
85.1373234681
 10
159.5826213581
 20
85.1226521724
 10
159.5662374926
 20
85.1088500809
 10
159.5504486749
 20
85.095845726
 10
159.5427161055
 20
85.0896711616
 10
159.5349795506
 20
85.0837478783
 10
159.5271535963
 20
85.0781203825
 10
159.519259665
 20
85.0728962648
 10
159.5113406135
 20
85.0681884401
 10
159.5034181986
 20
85.0640680381
 10
159.4955007662
 20
85.0605891235
 10
159.4875641186
 20
85.0577792882
 10
159.4795843776
 20
85.0556604211
 10
159.4715714879
 20
85.0542580719
  0
LWPOLYLINE
  5
2D2
100
AcDbEntity
  8
SCRITTE
100
AcDbPolyline
 62
253
  6
CONTINUOUS
 90
42
 70
0
 10
159.4715714879
 20
85.0377142631
 10
159.4808139262
 20
85.0338565786
 10
159.4900062262
 20
85.0296701357
 10
159.499153687
 20
85.0251464816
 10
159.5082616077
 20
85.0202771634
 10
159.5173347267
 20
85.0150531466
 10
159.5263755404
 20
85.0094630698
 10
159.5353859844
 20
85.00349499
 10
159.5443679943
 20
84.997136964
 10
159.553319942
 20
84.9903803769
 10
159.5622259434
 20
84.9832299266
 10
159.5710665506
 20
84.9756936393
 10
159.5798223155
 20
84.9677795409
 10
159.5884749578
 20
84.9594970911
 10
159.5970108668
 20
84.9508614835
 10
159.6054175997
 20
84.941889345
 10
159.6136827132
 20
84.932597303
 10
159.6217970487
 20
84.9229984101
 10
159.6297645839
 20
84.9130914223
 10
159.6375925811
 20
84.902871521
 10
159.6452883023
 20
84.8923338879
 10
159.6528572009
 20
84.881475929
 10
159.660297495
 20
84.8703039481
 10
159.667605594
 20
84.8588264736
 10
159.6747779072
 20
84.8470520338
 10
159.6828049859
 20
84.8332417049
 10
159.6906508038
 20
84.8190605597
 10
159.6983161427
 20
84.804514516
 10
159.7058017845
 20
84.7896094916
 10
159.7131085111
 20
84.7743514041
 10
159.7202371044
 20
84.7587461714
 10
159.7271883461
 20
84.7427997112
 10
159.7339629311
 20
84.7265185281
 10
159.7405612059
 20
84.7099114738
 10
159.7469834298
 20
84.6929879869
 10
159.7532298623
 20
84.6757575062
 10
159.7593007628
 20
84.6582294702
 10
159.7651963907
 20
84.6404133175
 10
159.7709170055
 20
84.6223184868
 10
159.7773811527
 20
84.6008677339
 10
159.7836735397
 20
84.5790625584
 10
159.7898602657
 20
84.5569150024
  0
LINE
  5
2D3
100
AcDbEntity
  8
RACCORDO
100
AcDbLine
 62
253
  6
CONTINUOUS
 10
109.4058711077
 20
134.4527369165
 11
109.4990682968
 21
134.359772854
  0
LINE
  5
2D4
100
AcDbEntity
  8
ASSI
100
AcDbLine
 62
253
  6
CONTINUOUS
 10
109.4058711077
 20
134.4527369165
 11
109.4990682968
 21
134.359772854
  0
LINE
  5
2D5
100
AcDbEntity
  8
RACCORDO
100
AcDbLine
 62
253
  6
CONTINUOUS
 10
83.5691179461
 20
157.4155846037
 11
83.3791492234
 21
157.6086387
  0
LINE
  5
2D6
100
AcDbEntity
  8
ASSI
100
AcDbLine
 62
253
  6
CONTINUOUS
 10
83.5691179461
 20
157.4155846037
 11
83.3791492234
 21
157.6086387
  0
LINE
  5
2D7
100
AcDbEntity
  8
RACCORDO
100
AcDbLine
 62
253
  6
CONTINUOUS
 10
82.5808228761
 20
156.4273510492
 11
82.3990687165
 21
156.6121598008
  0
LINE
  5
2D8
100
AcDbEntity
  8
ASSI
100
AcDbLine
 62
253
  6
CONTINUOUS
 10
82.5808228761
 20
156.4273510492
 11
82.3990687165
 21
156.6121598008
  0
LINE
  5
2D9
100
AcDbEntity
  8
RACCORDO
100
AcDbLine
 62
253
  6
CONTINUOUS
 10
82.5808228761
 20
68.7899263512
 11
82.3990687165
 21
68.6051175991
  0
LINE
  5
2DA
100
AcDbEntity
  8
ASSI
100
AcDbLine
 62
253
  6
CONTINUOUS
 10
82.5808228761
 20
68.7899263512
 11
82.3990687165
 21
68.6051175991
  0
LINE
  5
2DB
100
AcDbEntity
  8
RACCORDO
100
AcDbLine
 62
253
  6
CONTINUOUS
 10
83.5691179461
 20
67.8016927963
 11
83.3791492234
 21
67.6086387
  0
LINE
  5
2DC
100
AcDbEntity
  8
ASSI
100
AcDbLine
 62
253
  6
CONTINUOUS
 10
83.5691179461
 20
67.8016927963
 11
83.3791492234
 21
67.6086387
  0
LINE
  5
2DD
100
AcDbEntity
  8
RACCORDO
100
AcDbLine
 62
253
  6
CONTINUOUS
 10
109.4058711
 20
90.7645285983
 11
109.4990682968
 21
90.857504546
  0
LINE
  5
2DE
100
AcDbEntity
  8
ASSI
100
AcDbLine
 62
253
  6
CONTINUOUS
 10
109.4058711
 20
90.7645285983
 11
109.4990682968
 21
90.857504546
  0
LINE
  5
2DF
100
AcDbEntity
  8
RACCORDO
100
AcDbLine
 62
253
  6
CONTINUOUS
 10
110.2081895721
 20
135.250233165
 11
110.3000486788
 21
135.1586387
  0
LINE
  5
2E0
100
AcDbEntity
  8
ASSI
100
AcDbLine
 62
253
  6
CONTINUOUS
 10
110.2081895721
 20
135.250233165
 11
110.3000486788
 21
135.1586387
  0
LINE
  5
2E1
100
AcDbEntity
  8
SCRITTE
100
AcDbLine
 62
253
  6
CONTINUOUS
 10
153.249000323
 20
85.5589917
 11
153.934581323
 21
83.7308377
  0
LINE
  5
2E2
100
AcDbEntity
  8
SCRITTE
100
AcDbLine
 62
253
  6
CONTINUOUS
 10
149.145400323
 20
86.5305407
 11
150.032961323
 21
83.7308377
  0
LINE
  5
2E3
100
AcDbEntity
  8
SCRITTE
100
AcDbLine
 62
253
  6
CONTINUOUS
 10
150.313922323
 20
84.6034187
 11
149.780248323
 21
86.5305407
  0
LINE
  5
2E4
100
AcDbEntity
  8
RACCORDO
100
AcDbLine
 62
253
  6
CONTINUOUS
 10
110.2082087426
 20
89.967044235
 11
110.3000486788
 21
90.0586387
  0
LINE
  5
2E5
100
AcDbEntity
  8
ASSI
100
AcDbLine
 62
253
  6
CONTINUOUS
 10
110.2082087426
 20
89.967044235
 11
110.3000486788
 21
90.0586387
  0
LINE
  5
2E6
100
AcDbEntity
  8
RACCORDO
100
AcDbLine
 62
253
  6
CONTINUOUS
 10
109.1365700318
 20
135.2134540659
 11
109.2060206027
 21
135.1652011685
  0
LINE
  5
2E7
100
AcDbEntity
  8
ASSI
100
AcDbLine
 62
253
  6
CONTINUOUS
 10
109.1365700318
 20
135.2134540659
 11
109.2060206027
 21
135.1652011685
  0
LINE
  5
2E8
100
AcDbEntity
  8
RACCORDO
100
AcDbLine
 62
253
  6
CONTINUOUS
 10
109.2060206027
 20
135.1652011685
 11
109.2734782432
 21
135.117612147
  0
LINE
  5
2E9
100
AcDbEntity
  8
ASSI
100
AcDbLine
 62
253
  6
CONTINUOUS
 10
109.2060206027
 20
135.1652011685
 11
109.2734782432
 21
135.117612147
  0
LWPOLYLINE
  5
2EA
100
AcDbEntity
  8
RACCORDO
100
AcDbPolyline
 62
253
  6
CONTINUOUS
 90
14
 70
0
 10
109.2734782432
 20
135.117612147
 10
109.3370070803
 20
135.0720526922
 10
109.3667226072
 20
135.0504459468
 10
109.3947839885
 20
135.0298302511
 10
109.420989538
 20
135.0103537765
 10
109.4451509084
 20
134.9921565065
 10
109.467094444
 20
134.9753692307
 10
109.4866624299
 20
134.9601126045
 10
109.5037142245
 20
134.946496282
 10
109.5181272714
 20
134.9346181279
 10
109.5297979793
 20
134.9245635144
 10
109.5386424672
 20
134.9164047071
 10
109.5445971669
 20
134.9102003458
 10
109.54761928
 20
134.9059950232
  0
LWPOLYLINE
  5
2EB
100
AcDbEntity
  8
ASSI
100
AcDbPolyline
 62
253
  6
CONTINUOUS
 90
14
 70
0
 10
109.2734782432
 20
135.117612147
 10
109.3370070803
 20
135.0720526922
 10
109.3667226072
 20
135.0504459468
 10
109.3947839885
 20
135.0298302511
 10
109.420989538
 20
135.0103537765
 10
109.4451509084
 20
134.9921565065
 10
109.467094444
 20
134.9753692307
 10
109.4866624299
 20
134.9601126045
 10
109.5037142245
 20
134.946496282
 10
109.5181272714
 20
134.9346181279
 10
109.5297979793
 20
134.9245635144
 10
109.5386424672
 20
134.9164047071
 10
109.5445971669
 20
134.9102003458
 10
109.54761928
 20
134.9059950232
  0
LWPOLYLINE
  5
2EC
100
AcDbEntity
  8
SCRITTE
100
AcDbPolyline
 62
253
  6
CONTINUOUS
 90
47
 70
0
 10
159.1904484393
 20
84.5800342097
 10
159.1865135812
 20
84.5901358034
 10
159.1824014279
 20
84.599996105
 10
159.1781210459
 20
84.6096175874
 10
159.1736815015
 20
84.6190027237
 10
159.1690918614
 20
84.6281539869
 10
159.1643611919
 20
84.6370738499
 10
159.1594985595
 20
84.6457647858
 10
159.1545130306
 20
84.6542292674
 10
159.1494136718
 20
84.6624697679
 10
159.1442095495
 20
84.6704887602
 10
159.1383133521
 20
84.679142133
 10
159.1322994724
 20
84.6875294877
 10
159.1261683723
 20
84.6956552196
 10
159.1199205141
 20
84.7035237246
 10
159.1135563598
 20
84.7111393981
 10
159.1070763715
 20
84.7185066359
 10
159.1004810113
 20
84.7256298334
 10
159.0937707413
 20
84.7325133863
 10
159.0869460236
 20
84.7391616903
 10
159.0800075562
 20
84.7455777975
 10
159.0729569807
 20
84.7517593872
 10
159.0657961747
 20
84.7577027952
 10
159.0585270155
 20
84.7634043571
 10
159.0511513808
 20
84.768860409
 10
159.043671148
 20
84.7740672864
 10
159.0360881946
 20
84.7790213254
 10
159.0284043982
 20
84.7837188616
 10
159.0206216362
 20
84.7881562308
 10
159.0127415896
 20
84.7923311456
 10
159.0047651528
 20
84.7962468245
 10
158.9966930236
 20
84.7999078631
 10
158.9885259001
 20
84.8033188565
 10
158.98026448
 20
84.8064844002
 10
158.9719094612
 20
84.8094090896
 10
158.9634615417
 20
84.8120975199
 10
158.9549214192
 20
84.8145542866
 10
158.9462897917
 20
84.8167839849
 10
158.9375672017
 20
84.8187899693
 10
158.92875357
 20
84.8205706303
 10
158.9198486622
 20
84.8221231177
 10
158.9108522438
 20
84.823444581
 10
158.9017640802
 20
84.82453217
 10
158.8925839371
 20
84.8253830343
 10
158.8833115799
 20
84.8259943235
 10
158.8739467741
 20
84.8263631872
 10
158.8644892853
 20
84.8264867752
  0
LINE
  5
2ED
100
AcDbEntity
  8
SCRITTE
100
AcDbLine
 62
253
  6
CONTINUOUS
 10
153.978754323
 20
84.9761367
 11
153.400518323
 21
86.5305407
  0
LINE
  5
2EE
100
AcDbEntity
  8
SCRITTE
100
AcDbLine
 62
253
  6
CONTINUOUS
 10
157.797476323
 20
83.7308377
 11
156.938458323
 21
86.5305407
  0
LINE
  5
2EF
100
AcDbEntity
  8
SCRITTE
100
AcDbLine
 62
253
  6
CONTINUOUS
 10
157.030142323
 20
84.2897577
 11
157.181534323
 21
83.7308377
  0
LINE
  5
2F0
100
AcDbEntity
  8
SCRITTE
100
AcDbLine
 62
253
  6
CONTINUOUS
 10
156.644805323
 20
85.7612537
 11
156.913348323
 21
84.7222477
  0
LINE
  5
2F1
100
AcDbEntity
  8
SCRITTE
100
AcDbLine
 62
253
  6
CONTINUOUS
 10
155.403180323
 20
83.7308377
 11
155.141376323
 21
86.5305407
  0
LINE
  5
2F2
100
AcDbEntity
  8
SCRITTE
100
AcDbLine
 62
253
  6
CONTINUOUS
 10
154.711405323
 20
85.5513697
 11
154.831474323
 21
83.7308377
  0
LINE
  5
2F3
100
AcDbEntity
  8
SCRITTE
100
AcDbLine
 62
253
  6
CONTINUOUS
 10
151.664783323
 20
83.7308377
 11
151.664783323
 21
86.5307086015
  0
LINE
  5
2F4
100
AcDbEntity
  8
SCRITTE
100
AcDbLine
 62
253
  6
CONTINUOUS
 10
152.249191323
 20
86.5307087
 11
152.249191323
 21
83.7308377983
  0
LINE
  5
2F5
100
AcDbEntity
  8
SCRITTE
100
AcDbLine
 62
253
  6
CONTINUOUS
 10
153.122885323
 20
83.7308377
 11
153.249000323
 21
85.5589917
  0
LWPOLYLINE
  5
2F6
100
AcDbEntity
  8
RACCORDO
100
AcDbPolyline
 62
253
  6
CONTINUOUS
 90
13
 70
0
 10
109.3370069975
 20
90.1452246289
 10
109.3667225046
 20
90.1668313614
 10
109.3947838656
 20
90.1874470441
 10
109.4209893949
 20
90.206923506
 10
109.4451507452
 20
90.2251207637
 10
109.4670942614
 20
90.2419080279
 10
109.4866622289
 20
90.2571646434
 10
109.5037140065
 20
90.2707809563
 10
109.518127038
 20
90.2826591019
 10
109.5297977324
 20
90.2927137085
 10
109.5386422089
 20
90.3008725104
 10
109.5445968995
 20
90.3070768678
 10
109.547619006
 20
90.3112821883
  0
LWPOLYLINE
  5
2F7
100
AcDbEntity
  8
ASSI
100
AcDbPolyline
 62
253
  6
CONTINUOUS
 90
13
 70
0
 10
109.3370069975
 20
90.1452246289
 10
109.3667225046
 20
90.1668313614
 10
109.3947838656
 20
90.1874470441
 10
109.4209893949
 20
90.206923506
 10
109.4451507452
 20
90.2251207637
 10
109.4670942614
 20
90.2419080279
 10
109.4866622289
 20
90.2571646434
 10
109.5037140065
 20
90.2707809563
 10
109.518127038
 20
90.2826591019
 10
109.5297977324
 20
90.2927137085
 10
109.5386422089
 20
90.3008725104
 10
109.5445968995
 20
90.3070768678
 10
109.547619006
 20
90.3112821883
  0
LINE
  5
2F8
100
AcDbEntity
  8
RACCORDO
100
AcDbLine
 62
253
  6
CONTINUOUS
 10
109.2734781964
 20
90.0996651985
 11
109.3370069975
 21
90.1452246289
  0
LINE
  5
2F9
100
AcDbEntity
  8
ASSI
100
AcDbLine
 62
253
  6
CONTINUOUS
 10
109.2734781964
 20
90.0996651985
 11
109.3370069975
 21
90.1452246289
  0
LINE
  5
2FA
100
AcDbEntity
  8
RACCORDO
100
AcDbLine
 62
253
  6
CONTINUOUS
 10
109.2060205846
 20
90.0520761978
 11
109.2734781964
 21
90.0996651985
  0
LINE
  5
2FB
100
AcDbEntity
  8
ASSI
100
AcDbLine
 62
253
  6
CONTINUOUS
 10
109.2060205846
 20
90.0520761978
 11
109.2734781964
 21
90.0996651985
  0
LINE
  5
2FC
100
AcDbEntity
  8
RACCORDO
100
AcDbLine
 62
253
  6
CONTINUOUS
 10
109.1365700319
 20
90.0038233154
 11
109.2060205846
 21
90.0520761978
  0
LINE
  5
2FD
100
AcDbEntity
  8
ASSI
100
AcDbLine
 62
253
  6
CONTINUOUS
 10
109.1365700319
 20
90.0038233154
 11
109.2060205846
 21
90.0520761978
  0
LWPOLYLINE
  5
2FE
100
AcDbEntity
  8
SCRITTE
100
AcDbPolyline
 62
253
  6
CONTINUOUS
 90
8
 70
0
 10
159.2765064953
 20
84.317165774
 10
159.2649339449
 20
84.3561566498
 10
159.2531940041
 20
84.3946915229
 10
159.241244076
 20
84.43275299
 10
159.2290415636
 20
84.4703236481
 10
159.21654387
 20
84.5073860938
 10
159.2037083983
 20
84.543922924
 10
159.1904925516
 20
84.5799167355
  0
LINE
  5
2FF
100
AcDbEntity
  8
SCRITTE
100
AcDbLine
 62
253
  6
CONTINUOUS
 10
159.431143862
 20
83.7825150618
 11
159.3578403103
 21
84.0329803129
  0
LINE
  5
300
100
AcDbEntity
  8
SCRITTE
100
AcDbLine
 62
253
  6
CONTINUOUS
 10
159.4460839448
 20
83.7308373456
 11
159.431143862
 21
83.7825150618
  0
LWPOLYLINE
  5
301
100
AcDbEntity
  8
SCRITTE
100
AcDbPolyline
 62
253
  6
CONTINUOUS
 90
4
 70
0
 10
159.3578403103
 20
84.0329803129
 10
159.3165310804
 20
84.1773761883
 10
159.3031637596
 20
84.2245168838
 10
159.2765064953
 20
84.317165774
  0
LINE
  5
302
100
AcDbEntity
  8
SCRITTE
100
AcDbLine
 62
253
  6
CONTINUOUS
 10
159.7898602657
 20
84.5569150024
 11
159.8435695255
 21
84.3580774922
  0
LINE
  5
303
100
AcDbEntity
  8
SCRITTE
100
AcDbLine
 62
253
  6
CONTINUOUS
 10
159.9757280238
 20
83.8527731765
 11
160.0082165349
 21
83.7308373456
  0
LINE
  5
304
100
AcDbEntity
  8
SCRITTE
100
AcDbLine
 62
253
  6
CONTINUOUS
 10
159.8435695255
 20
84.3580774922
 11
159.9108637423
 21
84.1020578747
  0
LINE
  5
305
100
AcDbEntity
  8
SCRITTE
100
AcDbLine
 62
253
  6
CONTINUOUS
 10
159.9108637423
 20
84.1020578747
 11
159.9757280238
 21
83.8527731765
  0
LWPOLYLINE
  5
306
100
AcDbEntity
  8
SCRITTE
100
AcDbPolyline
 62
253
  6
CONTINUOUS
 90
49
 70
0
 10
159.3197216211
 20
85.7197761286
 10
159.3194059984
 20
85.7302753945
 10
159.3187709537
 20
85.740716851
 10
159.3178196115
 20
85.7511043158
 10
159.3165550963
 20
85.7614416065
 10
159.3149805324
 20
85.7717325406
 10
159.3130990443
 20
85.7819809359
 10
159.3109137565
 20
85.7921906098
 10
159.3084277934
 20
85.8023653799
 10
159.305643751
 20
85.8125065448
 10
159.3025621121
 20
85.822605326
 10
159.2991828309
 20
85.8326504263
 10
159.2955058616
 20
85.842630548
 10
159.2915311586
 20
85.8525343938
 10
159.2872586762
 20
85.8623506661
 10
159.2826883686
 20
85.8720680677
 10
159.2778201901
 20
85.8816753009
 10
159.2726540762
 20
85.8911605668
 10
159.2671898874
 20
85.9005100606
 10
159.2614274655
 20
85.9097094756
 10
159.2553666521
 20
85.9187445055
 10
159.2490072891
 20
85.9276008438
 10
159.2423492181
 20
85.9362641839
 10
159.2353922808
 20
85.9447202195
 10
159.2281363191
 20
85.9529546441
 10
159.2205831285
 20
85.9609546232
 10
159.2127423207
 20
85.9687132106
 10
159.2046254613
 20
85.9762249323
 10
159.1962441159
 20
85.9834843141
 10
159.1876098499
 20
85.990485882
 10
159.1787342292
 20
85.9972241617
 10
159.1696288191
 20
86.0036936791
 10
159.1603051852
 20
86.0098889602
 10
159.150774906
 20
86.0158052761
 10
159.1410496105
 20
86.0214408792
 10
159.1311409406
 20
86.0267947673
 10
159.1210605381
 20
86.031865938
 10
159.1108200451
 20
86.036653389
 10
159.1004311032
 20
86.0411561182
 10
159.0899053545
 20
86.0453731231
 10
159.0792544408
 20
86.0493034016
 10
159.0684873352
 20
86.0529454911
 10
159.0576023364
 20
86.0562960886
 10
159.0465950742
 20
86.0593514309
 10
159.0354611786
 20
86.0621077546
 10
159.0241962794
 20
86.0645612966
 10
159.0127960065
 20
86.0667082935
 10
159.0012559898
 20
86.0685449822
 10
158.9895718591
 20
86.0700675994
  0
LINE
  5
307
100
AcDbEntity
  8
SCRITTE
100
AcDbLine
 62
253
  6
CONTINUOUS
 10
157.9690871253
 20
83.7308373456
 11
157.9690871253
 21
86.4978314673
  0
LINE
  5
308
100
AcDbEntity
  8
SCRITTE
100
AcDbLine
 62
253
  6
CONTINUOUS
 10
158.5317655771
 20
86.053583904
 11
158.5317655771
 21
85.285010597
  0
LINE
  5
309
100
AcDbEntity
  8
SCRITTE
100
AcDbLine
 62
253
  6
CONTINUOUS
 10
158.5511436678
 20
84.8264867752
 11
158.5511436678
 21
83.7308373137
  0
LINE
  5
30A
100
AcDbEntity
  8
SCRITTE
100
AcDbLine
 62
253
  6
CONTINUOUS
 10
159.4715714879
 20
85.0542580719
 11
159.4715714879
 21
85.0377142626
  0
LINE
  5
30B
100
AcDbEntity
  8
SCRITTE
100
AcDbLine
 62
253
  6
CONTINUOUS
 10
152.816593323
 20
86.5305407
 11
152.563796323
 21
83.7308377
  0
LINE
  5
30C
100
AcDbEntity
  8
SCRITTE
100
AcDbLine
 62
253
  6
CONTINUOUS
 10
150.863899323
 20
86.5305407
 11
150.313922323
 21
84.6034187
  0
LINE
  5
30D
100
AcDbEntity
  8
SCRITTE
100
AcDbLine
 62
253
  6
CONTINUOUS
 10
150.547971323
 20
83.7308377
 11
151.447908323
 21
86.5305407
  0
LINE
  5
30E
100
AcDbEntity
  8
RACCORDO
100
AcDbLine
 62
253
  6
CONTINUOUS
 10
200.1615666142
 20
90.0038233479
 11
200.0921160278
 21
90.0520762537
  0
LINE
  5
30F
100
AcDbEntity
  8
ASSI
100
AcDbLine
 62
253
  6
CONTINUOUS
 10
200.1615666142
 20
90.0038233479
 11
200.0921160278
 21
90.0520762537
  0
LINE
  5
310
100
AcDbEntity
  8
RACCORDO
100
AcDbLine
 62
253
  6
CONTINUOUS
 10
200.0921160278
 20
90.0520762537
 11
200.0246583656
 21
90.099665288
  0
LINE
  5
311
100
AcDbEntity
  8
ASSI
100
AcDbLine
 62
253
  6
CONTINUOUS
 10
200.0921160278
 20
90.0520762537
 11
200.0246583656
 21
90.099665288
  0
LWPOLYLINE
  5
312
100
AcDbEntity
  8
RACCORDO
100
AcDbPolyline
 62
253
  6
CONTINUOUS
 90
14
 70
0
 10
200.0246583656
 20
90.099665288
 10
199.9611295028
 20
90.1452247585
 10
199.9314139624
 20
90.1668315122
 10
199.9033525676
 20
90.1874472164
 10
199.8771470046
 20
90.2069236995
 10
199.8529856213
 20
90.2251209776
 10
199.8310420734
 20
90.2419082611
 10
199.8114740763
 20
90.2571648945
 10
199.7944222714
 20
90.2707812235
 10
199.7800092157
 20
90.282659383
 10
199.7683385004
 20
90.2927140011
 10
199.7594940067
 20
90.3008728119
 10
199.753539303
 20
90.3070771756
 10
199.7505171875
 20
90.3112824993
  0
LWPOLYLINE
  5
313
100
AcDbEntity
  8
ASSI
100
AcDbPolyline
 62
253
  6
CONTINUOUS
 90
14
 70
0
 10
200.0246583656
 20
90.099665288
 10
199.9611295028
 20
90.1452247585
 10
199.9314139624
 20
90.1668315122
 10
199.9033525676
 20
90.1874472164
 10
199.8771470046
 20
90.2069236995
 10
199.8529856213
 20
90.2251209776
 10
199.8310420734
 20
90.2419082611
 10
199.8114740763
 20
90.2571648945
 10
199.7944222714
 20
90.2707812235
 10
199.7800092157
 20
90.282659383
 10
199.7683385004
 20
90.2927140011
 10
199.7594940067
 20
90.3008728119
 10
199.753539303
 20
90.3070771756
 10
199.7505171875
 20
90.3112824993
  0
LINE
  5
314
100
AcDbEntity
  8
SCRITTE
100
AcDbLine
 62
253
  6
CONTINUOUS
 10
156.353819323
 20
84.7222477
 11
156.644805323
 21
85.7612537
  0
LINE
  5
315
100
AcDbEntity
  8
SCRITTE
100
AcDbLine
 62
253
  6
CONTINUOUS
 10
156.073015323
 20
83.7308377
 11
156.234275323
 21
84.2897577
  0
LINE
  5
316
100
AcDbEntity
  8
SCRITTE
100
AcDbLine
 62
253
  6
CONTINUOUS
 10
156.373113323
 20
86.5305407
 11
155.494948323
 21
83.7308377
  0
LINE
  5
317
100
AcDbEntity
  8
SCRITTE
100
AcDbLine
 62
253
  6
CONTINUOUS
 10
154.563162323
 20
86.5305407
 11
153.978754323
 21
84.9761367
  0
LINE
  5
318
100
AcDbEntity
  8
SCRITTE
100
AcDbLine
 62
253
  6
CONTINUOUS
 10
154.016544323
 20
83.7308377
 11
154.711405323
 21
85.5513697
  0
LWPOLYLINE
  5
319
100
AcDbEntity
  8
RACCORDO
100
AcDbPolyline
 62
253
  6
CONTINUOUS
 90
13
 70
0
 10
199.9611295942
 20
135.0720527283
 10
199.9314140755
 20
135.0504459886
 10
199.9033527029
 20
135.0298302986
 10
199.8771471623
 20
135.0103538296
 10
199.8529858011
 20
134.9921565649
 10
199.8310422745
 20
134.9753692942
 10
199.8114742975
 20
134.9601126726
 10
199.7944225114
 20
134.9464963542
 10
199.7800094726
 20
134.9346182039
 10
199.7683387721
 20
134.9245635935
 10
199.7594942909
 20
134.9164047887
 10
199.7535395971
 20
134.9102004293
 10
199.750517489
 20
134.9059951079
  0
LWPOLYLINE
  5
31A
100
AcDbEntity
  8
ASSI
100
AcDbPolyline
 62
253
  6
CONTINUOUS
 90
13
 70
0
 10
199.9611295942
 20
135.0720527283
 10
199.9314140755
 20
135.0504459886
 10
199.9033527029
 20
135.0298302986
 10
199.8771471623
 20
135.0103538296
 10
199.8529858011
 20
134.9921565649
 10
199.8310422745
 20
134.9753692942
 10
199.8114742975
 20
134.9601126726
 10
199.7944225114
 20
134.9464963542
 10
199.7800094726
 20
134.9346182039
 10
199.7683387721
 20
134.9245635935
 10
199.7594942909
 20
134.9164047887
 10
199.7535395971
 20
134.9102004293
 10
199.750517489
 20
134.9059951079
  0
LINE
  5
31B
100
AcDbEntity
  8
RACCORDO
100
AcDbLine
 62
253
  6
CONTINUOUS
 10
200.0246584172
 20
135.117612172
 11
199.9611295942
 21
135.0720527283
  0
LINE
  5
31C
100
AcDbEntity
  8
ASSI
100
AcDbLine
 62
253
  6
CONTINUOUS
 10
200.0246584172
 20
135.117612172
 11
199.9611295942
 21
135.0720527283
  0
LINE
  5
31D
100
AcDbEntity
  8
RACCORDO
100
AcDbLine
 62
253
  6
CONTINUOUS
 10
200.0921160477
 20
135.1652011836
 11
200.0246584172
 21
135.117612172
  0
LINE
  5
31E
100
AcDbEntity
  8
ASSI
100
AcDbLine
 62
253
  6
CONTINUOUS
 10
200.0921160477
 20
135.1652011836
 11
200.0246584172
 21
135.117612172
  0
LINE
  5
31F
100
AcDbEntity
  8
RACCORDO
100
AcDbLine
 62
253
  6
CONTINUOUS
 10
200.1615666141
 20
135.2134540731
 11
200.0921160477
 21
135.1652011836
  0
LINE
  5
320
100
AcDbEntity
  8
ASSI
100
AcDbLine
 62
253
  6
CONTINUOUS
 10
200.1615666141
 20
135.2134540731
 11
200.0921160477
 21
135.1652011836
  0
LINE
  5
321
100
AcDbEntity
  8
RACCORDO
100
AcDbLine
 62
253
  6
CONTINUOUS
 10
199.089947534
 20
89.967044235
 11
198.9980879672
 21
90.0586387
  0
LINE
  5
322
100
AcDbEntity
  8
ASSI
100
AcDbLine
 62
253
  6
CONTINUOUS
 10
199.089947534
 20
89.967044235
 11
198.9980879672
 21
90.0586387
  0
LINE
  5
323
100
AcDbEntity
  8
RACCORDO
100
AcDbLine
 62
253
  6
CONTINUOUS
 10
199.8922655383
 20
90.7645403357
 11
199.7990683492
 21
90.857504546
  0
LINE
  5
324
100
AcDbEntity
  8
ASSI
100
AcDbLine
 62
253
  6
CONTINUOUS
 10
199.8922655383
 20
90.7645403357
 11
199.7990683492
 21
90.857504546
  0
LINE
  5
325
100
AcDbEntity
  8
RACCORDO
100
AcDbLine
 62
253
  6
CONTINUOUS
 10
199.8922655465
 20
134.4527496609
 11
199.7990683492
 21
134.359772854
  0
LINE
  5
326
100
AcDbEntity
  8
ASSI
100
AcDbLine
 62
253
  6
CONTINUOUS
 10
199.8922655465
 20
134.4527496609
 11
199.7990683492
 21
134.359772854
  0
LINE
  5
327
100
AcDbEntity
  8
RACCORDO
100
AcDbLine
 62
253
  6
CONTINUOUS
 10
199.0899281024
 20
135.250233165
 11
198.9980879672
 21
135.1586387
  0
LINE
  5
328
100
AcDbEntity
  8
ASSI
100
AcDbLine
 62
253
  6
CONTINUOUS
 10
199.0899281024
 20
135.250233165
 11
198.9980879672
 21
135.1586387
  0
LWPOLYLINE
  5
329
100
AcDbEntity
  8
RACCORDO
100
AcDbPolyline
 62
7
  6
CONTINUOUS
 90
7
 70
0
 10
110.3000486788
 20
135.1586387
 10
110.2485421462
 20
135.1569629545
 10
110.1976272308
 20
135.1520769679
 10
110.1473039326
 20
135.1439807256
 10
110.0975722516
 20
135.132674204
 10
110.0484321878
 20
135.1181573699
 10
109.9998837412
 20
135.1004301808
  0
LWPOLYLINE
  5
32A
100
AcDbEntity
  8
ASSI
100
AcDbPolyline
 62
7
  6
CONTINUOUS
 90
7
 70
0
 10
110.3000486788
 20
135.1586387
 10
110.2485421462
 20
135.1569629545
 10
110.1976272308
 20
135.1520769679
 10
110.1473039326
 20
135.1439807256
 10
110.0975722516
 20
135.132674204
 10
110.0484321878
 20
135.1181573699
 10
109.9998837412
 20
135.1004301808
  0
LWPOLYLINE
  5
32B
100
AcDbEntity
  8
RACCORDO
100
AcDbPolyline
 62
253
  6
CONTINUOUS
 90
16
 70
0
 10
82.9538177411
 20
135.1099246189
 10
82.9143251123
 20
135.1093394477
 10
82.8759311473
 20
135.1085936788
 10
82.8388964616
 20
135.1076923745
 10
82.8034724441
 20
135.1066416528
 10
82.7698995507
 20
135.1054486459
 10
82.738405672
 20
135.1041214519
 10
82.7092045862
 20
135.1026690796
 10
82.6824945083
 20
135.1011013877
 10
82.6584567446
 20
135.0994290175
 10
82.6372544616
 20
135.097663321
 10
82.6190315792
 20
135.0958162837
 10
82.6039117929
 20
135.093900443
 10
82.5919977349
 20
135.0919288036
 10
82.5833702769
 20
135.0899147488
 10
82.5780879817
 20
135.0878719499
  0
LWPOLYLINE
  5
32C
100
AcDbEntity
  8
ASSI
100
AcDbPolyline
 62
253
  6
CONTINUOUS
 90
16
 70
0
 10
82.9538177411
 20
135.1099246189
 10
82.9143251123
 20
135.1093394477
 10
82.8759311473
 20
135.1085936788
 10
82.8388964616
 20
135.1076923745
 10
82.8034724441
 20
135.1066416528
 10
82.7698995507
 20
135.1054486459
 10
82.738405672
 20
135.1041214519
 10
82.7092045862
 20
135.1026690796
 10
82.6824945083
 20
135.1011013877
 10
82.6584567446
 20
135.0994290175
 10
82.6372544616
 20
135.097663321
 10
82.6190315792
 20
135.0958162837
 10
82.6039117929
 20
135.093900443
 10
82.5919977349
 20
135.0919288036
 10
82.5833702769
 20
135.0899147488
 10
82.5780879817
 20
135.0878719499
  0
LWPOLYLINE
  5
32D
100
AcDbEntity
  8
RACCORDO
100
AcDbPolyline
 62
253
  6
CONTINUOUS
 90
16
 70
0
 10
82.9538217889
 20
135.2126971857
 10
82.9143292261
 20
135.2121106986
 10
82.8759353211
 20
135.2113628432
 10
82.8389006881
 20
135.2104586959
 10
82.8034767148
 20
135.2094043941
 10
82.7699038559
 20
135.2082070941
 10
82.7384100007
 20
135.2068749232
 10
82.7092089267
 20
135.2054169239
 10
82.682498848
 20
135.2038429932
 10
82.6584610702
 20
135.2021638146
 10
82.6372587596
 20
135.2003907863
 10
82.6190358353
 20
135.1985359434
 10
82.603915993
 20
135.1966118764
 10
82.5920018648
 20
135.1946316457
 10
82.5833743225
 20
135.192608693
 10
82.5780919293
 20
135.1905567498
  0
LWPOLYLINE
  5
32E
100
AcDbEntity
  8
ASSI
100
AcDbPolyline
 62
253
  6
CONTINUOUS
 90
16
 70
0
 10
82.9538217889
 20
135.2126971857
 10
82.9143292261
 20
135.2121106986
 10
82.8759353211
 20
135.2113628432
 10
82.8389006881
 20
135.2104586959
 10
82.8034767148
 20
135.2094043941
 10
82.7699038559
 20
135.2082070941
 10
82.7384100007
 20
135.2068749232
 10
82.7092089267
 20
135.2054169239
 10
82.682498848
 20
135.2038429932
 10
82.6584610702
 20
135.2021638146
 10
82.6372587596
 20
135.2003907863
 10
82.6190358353
 20
135.1985359434
 10
82.603915993
 20
135.1966118764
 10
82.5920018648
 20
135.1946316457
 10
82.5833743225
 20
135.192608693
 10
82.5780919293
 20
135.1905567498
  0
LWPOLYLINE
  5
32F
100
AcDbEntity
  8
RACCORDO
100
AcDbPolyline
 62
253
  6
CONTINUOUS
 90
16
 70
0
 10
200.2663936918
 20
134.4749699462
 10
200.226053491
 20
134.474374178
 10
200.1868904057
 20
134.4736153566
 10
200.1491829403
 20
134.4726988783
 10
200.1131992476
 20
134.4716312606
 10
200.079195222
 20
134.4704200956
 10
200.0474126796
 20
134.4690739966
 10
200.0180776389
 20
134.467602536
 10
199.9913987131
 20
134.4660161781
 10
199.9675656265
 20
134.4643262042
 10
199.9467478657
 20
134.4625446321
 10
199.9290934743
 20
134.4606841315
 10
199.9147279995
 20
134.4587579331
 10
199.9037536001
 20
134.4567797349
 10
199.8962483193
 20
134.4547636046
 10
199.8922655302
 20
134.4527238797
  0
LWPOLYLINE
  5
330
100
AcDbEntity
  8
ASSI
100
AcDbPolyline
 62
253
  6
CONTINUOUS
 90
16
 70
0
 10
200.2663936918
 20
134.4749699462
 10
200.226053491
 20
134.474374178
 10
200.1868904057
 20
134.4736153566
 10
200.1491829403
 20
134.4726988783
 10
200.1131992476
 20
134.4716312606
 10
200.079195222
 20
134.4704200956
 10
200.0474126796
 20
134.4690739966
 10
200.0180776389
 20
134.467602536
 10
199.9913987131
 20
134.4660161781
 10
199.9675656265
 20
134.4643262042
 10
199.9467478657
 20
134.4625446321
 10
199.9290934743
 20
134.4606841315
 10
199.9147279995
 20
134.4587579331
 10
199.9037536001
 20
134.4567797349
 10
199.8962483193
 20
134.4547636046
 10
199.8922655302
 20
134.4527238797
  0
LINE
  5
331
100
AcDbEntity
  8
RACCORDO
100
AcDbLine
 62
253
  6
CONTINUOUS
 10
83.0350249623
 20
135.2133712534
 11
82.9538217889
 21
135.2126971857
  0
LINE
  5
332
100
AcDbEntity
  8
ASSI
100
AcDbLine
 62
253
  6
CONTINUOUS
 10
83.0350249623
 20
135.2133712534
 11
82.9538217889
 21
135.2126971857
  0
LWPOLYLINE
  5
333
100
AcDbEntity
  8
RACCORDO
100
AcDbPolyline
 62
253
  6
CONTINUOUS
 90
3
 70
0
 10
200.3915786658
 20
134.4757425342
 10
200.3494516082
 20
134.4756565657
 10
200.2663936918
 20
134.4749699462
  0
LWPOLYLINE
  5
334
100
AcDbEntity
  8
ASSI
100
AcDbPolyline
 62
253
  6
CONTINUOUS
 90
3
 70
0
 10
200.3915786658
 20
134.4757425342
 10
200.3494516082
 20
134.4756565657
 10
200.2663936918
 20
134.4749699462
  0
LWPOLYLINE
  5
335
100
AcDbEntity
  8
RACCORDO
100
AcDbPolyline
 62
253
  6
CONTINUOUS
 90
3
 70
0
 10
83.0761805446
 20
135.1106824305
 10
83.0350210585
 20
135.1105983971
 10
82.9538177411
 20
135.1099246189
  0
LWPOLYLINE
  5
336
100
AcDbEntity
  8
ASSI
100
AcDbPolyline
 62
253
  6
CONTINUOUS
 90
3
 70
0
 10
83.0761805446
 20
135.1106824305
 10
83.0350210585
 20
135.1105983971
 10
82.9538177411
 20
135.1099246189
  0
LINE
  5
337
100
AcDbEntity
  8
RACCORDO
100
AcDbLine
 62
253
  6
CONTINUOUS
 10
82.5780879812
 20
135.0878719499
 11
82.399068323
 21
135.0878719499
  0
LINE
  5
338
100
AcDbEntity
  8
ASSI
100
AcDbLine
 62
253
  6
CONTINUOUS
 10
82.5780879812
 20
135.0878719499
 11
82.399068323
 21
135.0878719499
  0
LINE
  5
339
100
AcDbEntity
  8
RACCORDO
100
AcDbLine
 62
253
  6
CONTINUOUS
 10
226.7200486647
 20
135.0878719499
 11
226.899068323
 21
135.0878719499
  0
LINE
  5
33A
100
AcDbEntity
  8
ASSI
100
AcDbLine
 62
253
  6
CONTINUOUS
 10
226.7200486647
 20
135.0878719499
 11
226.899068323
 21
135.0878719499
  0
LINE
  5
33B
100
AcDbEntity
  8
RACCORDO
100
AcDbLine
 62
7
  6
CONTINUOUS
 10
198.9980879672
 20
135.1586387
 11
110.3000486788
 21
135.1586387
  0
LINE
  5
33C
100
AcDbEntity
  8
ASSI
100
AcDbLine
 62
7
  6
CONTINUOUS
 10
198.9980879672
 20
135.1586387
 11
110.3000486788
 21
135.1586387
  0
LINE
  5
33D
100
AcDbEntity
  8
RACCORDO
100
AcDbLine
 62
253
  6
CONTINUOUS
 10
109.1365700318
 20
135.2134542585
 11
83.0350249623
 21
135.2133712534
  0
LINE
  5
33E
100
AcDbEntity
  8
ASSI
100
AcDbLine
 62
253
  6
CONTINUOUS
 10
109.1365700318
 20
135.2134542585
 11
83.0350249623
 21
135.2133712534
  0
LINE
  5
33F
100
AcDbEntity
  8
RACCORDO
100
AcDbLine
 62
253
  6
CONTINUOUS
 10
110.2081895721
 20
135.250233165
 11
199.0899281024
 21
135.250233165
  0
LINE
  5
340
100
AcDbEntity
  8
ASSI
100
AcDbLine
 62
253
  6
CONTINUOUS
 10
110.2081895721
 20
135.250233165
 11
199.0899281024
 21
135.250233165
  0
LINE
  5
341
100
AcDbEntity
  8
RACCORDO
100
AcDbLine
 62
253
  6
CONTINUOUS
 10
110.2082202831
 20
135.7763384398
 11
199.0899163629
 21
135.7763384398
  0
LINE
  5
342
100
AcDbEntity
  8
ASSI
100
AcDbLine
 62
253
  6
CONTINUOUS
 10
110.2082202831
 20
135.7763384398
 11
199.0899163629
 21
135.7763384398
  0
LINE
  5
343
100
AcDbEntity
  8
RACCORDO
100
AcDbLine
 62
253
  6
CONTINUOUS
 10
200.1615666142
 20
135.2134542585
 11
226.2631116828
 21
135.2133712526
  0
LINE
  5
344
100
AcDbEntity
  8
ASSI
100
AcDbLine
 62
253
  6
CONTINUOUS
 10
200.1615666142
 20
135.2134542585
 11
226.2631116828
 21
135.2133712526
  0
LWPOLYLINE
  5
345
100
AcDbEntity
  8
RACCORDO
100
AcDbPolyline
 62
253
  6
CONTINUOUS
 90
18
 70
0
 10
108.9065579802
 20
134.4757424173
 10
108.9905127003
 20
134.4753983354
 10
109.0317432635
 20
134.4749698698
 10
109.0720836008
 20
134.4743741133
 10
109.1112468335
 20
134.4736153027
 10
109.1489544538
 20
134.4726988342
 10
109.1849383056
 20
134.4716312252
 10
109.218942491
 20
134.4704200679
 10
109.2507251907
 20
134.4690739756
 10
109.2800603831
 20
134.4676025209
 10
109.3067394524
 20
134.4660161679
 10
109.3305726713
 20
134.4643261979
 10
109.3513905508
 20
134.4625446292
 10
109.3690450454
 20
134.4606841312
 10
109.3834106059
 20
134.4587579349
 10
109.3943850721
 20
134.4567797382
 10
109.4018903996
 20
134.4547636091
 10
109.4058732145
 20
134.4527238852
  0
LWPOLYLINE
  5
346
100
AcDbEntity
  8
ASSI
100
AcDbPolyline
 62
253
  6
CONTINUOUS
 90
18
 70
0
 10
108.9065579802
 20
134.4757424173
 10
108.9905127003
 20
134.4753983354
 10
109.0317432635
 20
134.4749698698
 10
109.0720836008
 20
134.4743741133
 10
109.1112468335
 20
134.4736153027
 10
109.1489544538
 20
134.4726988342
 10
109.1849383056
 20
134.4716312252
 10
109.218942491
 20
134.4704200679
 10
109.2507251907
 20
134.4690739756
 10
109.2800603831
 20
134.4676025209
 10
109.3067394524
 20
134.4660161679
 10
109.3305726713
 20
134.4643261979
 10
109.3513905508
 20
134.4625446292
 10
109.3690450454
 20
134.4606841312
 10
109.3834106059
 20
134.4587579349
 10
109.3943850721
 20
134.4567797382
 10
109.4018903996
 20
134.4547636091
 10
109.4058732145
 20
134.4527238852
  0
LWPOLYLINE
  5
347
100
AcDbEntity
  8
RACCORDO
100
AcDbPolyline
 62
253
  6
CONTINUOUS
 90
18
 70
0
 10
226.2219561014
 20
135.1106824308
 10
226.3039956863
 20
135.1103452206
 10
226.3443189058
 20
135.1099246192
 10
226.3838115348
 20
135.1093394479
 10
226.4222055001
 20
135.1085936791
 10
226.459240186
 20
135.1076923748
 10
226.4946642036
 20
135.106641653
 10
226.5282370971
 20
135.1054486461
 10
226.5597309759
 20
135.1041214521
 10
226.5889320618
 20
135.1026690798
 10
226.6156421397
 20
135.1011013878
 10
226.6396799034
 20
135.0994290176
 10
226.6608821862
 20
135.0976633211
 10
226.6791050685
 20
135.0958162838
 10
226.6942248545
 20
135.093900443
 10
226.7061389123
 20
135.0919288036
 10
226.7147663699
 20
135.0899147488
 10
226.7200486647
 20
135.0878719499
  0
LWPOLYLINE
  5
348
100
AcDbEntity
  8
ASSI
100
AcDbPolyline
 62
253
  6
CONTINUOUS
 90
18
 70
0
 10
226.2219561014
 20
135.1106824308
 10
226.3039956863
 20
135.1103452206
 10
226.3443189058
 20
135.1099246192
 10
226.3838115348
 20
135.1093394479
 10
226.4222055001
 20
135.1085936791
 10
226.459240186
 20
135.1076923748
 10
226.4946642036
 20
135.106641653
 10
226.5282370971
 20
135.1054486461
 10
226.5597309759
 20
135.1041214521
 10
226.5889320618
 20
135.1026690798
 10
226.6156421397
 20
135.1011013878
 10
226.6396799034
 20
135.0994290176
 10
226.6608821862
 20
135.0976633211
 10
226.6791050685
 20
135.0958162838
 10
226.6942248545
 20
135.093900443
 10
226.7061389123
 20
135.0919288036
 10
226.7147663699
 20
135.0899147488
 10
226.7200486647
 20
135.0878719499
  0
LWPOLYLINE
  5
349
100
AcDbEntity
  8
RACCORDO
100
AcDbPolyline
 62
253
  6
CONTINUOUS
 90
17
 70
0
 10
226.2631116828
 20
135.2133712526
 10
226.3443148546
 20
135.2126971849
 10
226.3838074166
 20
135.2121106978
 10
226.4222013209
 20
135.2113628425
 10
226.4592359532
 20
135.2104586953
 10
226.494659926
 20
135.2094043934
 10
226.5282327846
 20
135.2082070935
 10
226.5597266395
 20
135.2068749226
 10
226.5889277134
 20
135.2054169235
 10
226.6156377921
 20
135.2038429928
 10
226.6396755701
 20
135.2021638142
 10
226.6608778811
 20
135.200390786
 10
226.6791008058
 20
135.1985359431
 10
226.6942206488
 20
135.1966118762
 10
226.7061347779
 20
135.1946316456
 10
226.7147623211
 20
135.192608693
 10
226.7200447155
 20
135.1905567498
  0
LWPOLYLINE
  5
34A
100
AcDbEntity
  8
ASSI
100
AcDbPolyline
 62
253
  6
CONTINUOUS
 90
17
 70
0
 10
226.2631116828
 20
135.2133712526
 10
226.3443148546
 20
135.2126971849
 10
226.3838074166
 20
135.2121106978
 10
226.4222013209
 20
135.2113628425
 10
226.4592359532
 20
135.2104586953
 10
226.494659926
 20
135.2094043934
 10
226.5282327846
 20
135.2082070935
 10
226.5597266395
 20
135.2068749226
 10
226.5889277134
 20
135.2054169235
 10
226.6156377921
 20
135.2038429928
 10
226.6396755701
 20
135.2021638142
 10
226.6608778811
 20
135.200390786
 10
226.6791008058
 20
135.1985359431
 10
226.6942206488
 20
135.1966118762
 10
226.7061347779
 20
135.1946316456
 10
226.7147623211
 20
135.192608693
 10
226.7200447155
 20
135.1905567498
  0
LWPOLYLINE
  5
34B
100
AcDbEntity
  8
RACCORDO
100
AcDbPolyline
 62
253
  6
CONTINUOUS
 90
19
 70
0
 10
199.0899281224
 20
135.2502331848
 10
199.1321972393
 20
135.2491968819
 10
199.174534454
 20
135.2459252281
 10
199.2168193665
 20
135.2403984139
 10
199.2589466553
 20
135.2326001382
 10
199.3007733138
 20
135.2225250148
 10
199.3421212
 20
135.2101877759
 10
199.3828936067
 20
135.1955926913
 10
199.4229348317
 20
135.1787704103
 10
199.4619891558
 20
135.1598154229
 10
199.499916
 20
135.1388011145
 10
199.5366341498
 20
135.1157779615
 10
199.5719953806
 20
135.0908434458
 10
199.6058886173
 20
135.0640900595
 10
199.6382366065
 20
135.0355937377
 10
199.668953154
 20
135.0054407282
 10
199.6979563209
 20
134.9737237093
 10
199.7251690327
 20
134.9405419444
 10
199.7505202183
 20
134.9059969826
  0
LWPOLYLINE
  5
34C
100
AcDbEntity
  8
ASSI
100
AcDbPolyline
 62
253
  6
CONTINUOUS
 90
19
 70
0
 10
199.0899281224
 20
135.2502331848
 10
199.1321972393
 20
135.2491968819
 10
199.174534454
 20
135.2459252281
 10
199.2168193665
 20
135.2403984139
 10
199.2589466553
 20
135.2326001382
 10
199.3007733138
 20
135.2225250148
 10
199.3421212
 20
135.2101877759
 10
199.3828936067
 20
135.1955926913
 10
199.4229348317
 20
135.1787704103
 10
199.4619891558
 20
135.1598154229
 10
199.499916
 20
135.1388011145
 10
199.5366341498
 20
135.1157779615
 10
199.5719953806
 20
135.0908434458
 10
199.6058886173
 20
135.0640900595
 10
199.6382366065
 20
135.0355937377
 10
199.668953154
 20
135.0054407282
 10
199.6979563209
 20
134.9737237093
 10
199.7251690327
 20
134.9405419444
 10
199.7505202183
 20
134.9059969826
  0
LWPOLYLINE
  5
34D
100
AcDbEntity
  8
RACCORDO
100
AcDbPolyline
 62
253
  6
CONTINUOUS
 90
19
 70
0
 10
199.0899163629
 20
135.7763384398
 10
199.1587448696
 20
135.7745794787
 10
199.2273149629
 20
135.7691264998
 10
199.2956266426
 20
135.759979484
 10
199.3639210167
 20
135.7471244972
 10
199.4319569773
 20
135.7305753957
 10
199.4990112011
 20
135.7103738264
 10
199.5651084455
 20
135.686438966
 10
199.6302239531
 20
135.658851484
 10
199.6935601283
 20
135.6278952567
 10
199.7550423669
 20
135.5935332975
 10
199.8147452732
 20
135.5558023873
 10
199.8720950642
 20
135.5150970592
 10
199.9270510052
 20
135.4713906471
 10
199.979653831
 20
135.4247095883
 10
200.0294519626
 20
135.3755280948
 10
200.0762948739
 20
135.3240041729
 10
200.1203330911
 20
135.2699795998
 10
200.1615666142
 20
135.2134542585
  0
LWPOLYLINE
  5
34E
100
AcDbEntity
  8
ASSI
100
AcDbPolyline
 62
253
  6
CONTINUOUS
 90
19
 70
0
 10
199.0899163629
 20
135.7763384398
 10
199.1587448696
 20
135.7745794787
 10
199.2273149629
 20
135.7691264998
 10
199.2956266426
 20
135.759979484
 10
199.3639210167
 20
135.7471244972
 10
199.4319569773
 20
135.7305753957
 10
199.4990112011
 20
135.7103738264
 10
199.5651084455
 20
135.686438966
 10
199.6302239531
 20
135.658851484
 10
199.6935601283
 20
135.6278952567
 10
199.7550423669
 20
135.5935332975
 10
199.8147452732
 20
135.5558023873
 10
199.8720950642
 20
135.5150970592
 10
199.9270510052
 20
135.4713906471
 10
199.979653831
 20
135.4247095883
 10
200.0294519626
 20
135.3755280948
 10
200.0762948739
 20
135.3240041729
 10
200.1203330911
 20
135.2699795998
 10
200.1615666142
 20
135.2134542585
  0
LINE
  5
34F
100
AcDbEntity
  8
RACCORDO
100
AcDbLine
 62
253
  6
CONTINUOUS
 10
225.7290186999
 20
67.8016927963
 11
225.9189874226
 21
67.6086387
  0
LINE
  5
350
100
AcDbEntity
  8
ASSI
100
AcDbLine
 62
253
  6
CONTINUOUS
 10
225.7290186999
 20
67.8016927963
 11
225.9189874226
 21
67.6086387
  0
LINE
  5
351
100
AcDbEntity
  8
RACCORDO
100
AcDbLine
 62
253
  6
CONTINUOUS
 10
226.7173137699
 20
68.7899263508
 11
226.8990679295
 21
68.6051175991
  0
LINE
  5
352
100
AcDbEntity
  8
ASSI
100
AcDbLine
 62
253
  6
CONTINUOUS
 10
226.7173137699
 20
68.7899263508
 11
226.8990679295
 21
68.6051175991
  0
LINE
  5
353
100
AcDbEntity
  8
RACCORDO
100
AcDbLine
 62
253
  6
CONTINUOUS
 10
226.7173137699
 20
156.4273510488
 11
226.8990679295
 21
156.6121598008
  0
LINE
  5
354
100
AcDbEntity
  8
ASSI
100
AcDbLine
 62
253
  6
CONTINUOUS
 10
226.7173137699
 20
156.4273510488
 11
226.8990679295
 21
156.6121598008
  0
LINE
  5
355
100
AcDbEntity
  8
RACCORDO
100
AcDbLine
 62
253
  6
CONTINUOUS
 10
225.7290186999
 20
157.4155846037
 11
225.9189874226
 21
157.6086387
  0
LINE
  5
356
100
AcDbEntity
  8
ASSI
100
AcDbLine
 62
253
  6
CONTINUOUS
 10
225.7290186999
 20
157.4155846037
 11
225.9189874226
 21
157.6086387
  0
LWPOLYLINE
  5
357
100
AcDbEntity
  8
RACCORDO
100
AcDbPolyline
 62
7
  6
CONTINUOUS
 90
7
 70
0
 10
199.2982529048
 20
135.1004301808
 10
199.2497348463
 20
135.1181514818
 10
199.2006130153
 20
135.1326647832
 10
199.150887412
 20
135.1439701273
 10
199.1005580361
 20
135.1520675471
 10
199.0496248879
 20
135.1569570666
 10
198.9980879672
 20
135.1586387
  0
LWPOLYLINE
  5
358
100
AcDbEntity
  8
ASSI
100
AcDbPolyline
 62
7
  6
CONTINUOUS
 90
7
 70
0
 10
199.2982529048
 20
135.1004301808
 10
199.2497348463
 20
135.1181514818
 10
199.2006130153
 20
135.1326647832
 10
199.150887412
 20
135.1439701273
 10
199.1005580361
 20
135.1520675471
 10
199.0496248879
 20
135.1569570666
 10
198.9980879672
 20
135.1586387
  0
LWPOLYLINE
  5
359
100
AcDbEntity
  8
RACCORDO
100
AcDbPolyline
 62
253
  6
CONTINUOUS
 90
19
 70
0
 10
83.0788575655
 20
156.5078675203
 10
83.0377345236
 20
156.5075758199
 10
82.9968901271
 20
156.5066867875
 10
82.9566011336
 20
156.5052064472
 10
82.917140537
 20
156.5031448295
 10
82.8787757182
 20
156.5005159037
 10
82.8417666334
 20
156.4973374832
 10
82.8063640523
 20
156.4936311047
 10
82.772807859
 20
156.4894218822
 10
82.741325427
 20
156.4847383369
 10
82.7121300779
 20
156.479612204
 10
82.6854196363
 20
156.4740782178
 10
82.6613750895
 20
156.4681738758
 10
82.6401593609
 20
156.4619391854
 10
82.621916206
 20
156.4554163922
 10
82.6067692385
 20
156.4486496938
 10
82.5948210928
 20
156.4416849409
 10
82.5861527282
 20
156.4345693257
 10
82.5808228808
 20
156.4273510631
  0
LWPOLYLINE
  5
35A
100
AcDbEntity
  8
ASSI
100
AcDbPolyline
 62
253
  6
CONTINUOUS
 90
19
 70
0
 10
83.0788575655
 20
156.5078675203
 10
83.0377345236
 20
156.5075758199
 10
82.9968901271
 20
156.5066867875
 10
82.9566011336
 20
156.5052064472
 10
82.917140537
 20
156.5031448295
 10
82.8787757182
 20
156.5005159037
 10
82.8417666334
 20
156.4973374832
 10
82.8063640523
 20
156.4936311047
 10
82.772807859
 20
156.4894218822
 10
82.741325427
 20
156.4847383369
 10
82.7121300779
 20
156.479612204
 10
82.6854196363
 20
156.4740782178
 10
82.6613750895
 20
156.4681738758
 10
82.6401593609
 20
156.4619391854
 10
82.621916206
 20
156.4554163922
 10
82.6067692385
 20
156.4486496938
 10
82.5948210928
 20
156.4416849409
 10
82.5861527282
 20
156.4345693257
 10
82.5808228808
 20
156.4273510631
  0
LINE
  5
35B
100
AcDbEntity
  8
RACCORDO
100
AcDbLine
 62
253
  6
CONTINUOUS
 10
225.7290186999
 20
157.0074200617
 11
83.5691179461
 21
157.0074200617
  0
LINE
  5
35C
100
AcDbEntity
  8
ASSI
100
AcDbLine
 62
253
  6
CONTINUOUS
 10
225.7290186999
 20
157.0074200617
 11
83.5691179461
 21
157.0074200617
  0
LINE
  5
35D
100
AcDbEntity
  8
RACCORDO
100
AcDbLine
 62
253
  6
CONTINUOUS
 10
225.7290186999
 20
157.4155846037
 11
83.5691179461
 21
157.4155846037
  0
LINE
  5
35E
100
AcDbEntity
  8
ASSI
100
AcDbLine
 62
253
  6
CONTINUOUS
 10
225.7290186999
 20
157.4155846037
 11
83.5691179461
 21
157.4155846037
  0
LINE
  5
35F
100
AcDbEntity
  8
RACCORDO
100
AcDbLine
 62
7
  6
CONTINUOUS
 10
225.9189874226
 20
157.6086387
 11
83.3791492234
 21
157.6086387
  0
LINE
  5
360
100
AcDbEntity
  8
ASSI
100
AcDbLine
 62
7
  6
CONTINUOUS
 10
225.9189874226
 20
157.6086387
 11
83.3791492234
 21
157.6086387
  0
LWPOLYLINE
  5
361
100
AcDbEntity
  8
RACCORDO
100
AcDbPolyline
 62
253
  6
CONTINUOUS
 90
19
 70
0
 10
226.2192790805
 20
156.5078675285
 10
226.2604017818
 20
156.5075758012
 10
226.3012458159
 20
156.5066867451
 10
226.3415344305
 20
156.5052063843
 10
226.3809946365
 20
156.5031447492
 10
226.4193590581
 20
156.5005158092
 10
226.4563677442
 20
156.4973373775
 10
226.4917699301
 20
156.4936309906
 10
226.5253257365
 20
156.4894217624
 10
226.5568077946
 20
156.4847382139
 10
226.5860027874
 20
156.4796120801
 10
226.6127128942
 20
156.4740780949
 10
226.6367571319
 20
156.4681737557
 10
226.6579725805
 20
156.4619390693
 10
226.6762154879
 20
156.4554162811
 10
226.6913622429
 20
156.4486495884
 10
226.7033102138
 20
156.4416848414
 10
226.7119784429
 20
156.434569232
 10
226.7173081959
 20
156.4273509745
  0
LWPOLYLINE
  5
362
100
AcDbEntity
  8
ASSI
100
AcDbPolyline
 62
253
  6
CONTINUOUS
 90
19
 70
0
 10
226.2192790805
 20
156.5078675285
 10
226.2604017818
 20
156.5075758012
 10
226.3012458159
 20
156.5066867451
 10
226.3415344305
 20
156.5052063843
 10
226.3809946365
 20
156.5031447492
 10
226.4193590581
 20
156.5005158092
 10
226.4563677442
 20
156.4973373775
 10
226.4917699301
 20
156.4936309906
 10
226.5253257365
 20
156.4894217624
 10
226.5568077946
 20
156.4847382139
 10
226.5860027874
 20
156.4796120801
 10
226.6127128942
 20
156.4740780949
 10
226.6367571319
 20
156.4681737557
 10
226.6579725805
 20
156.4619390693
 10
226.6762154879
 20
156.4554162811
 10
226.6913622429
 20
156.4486495884
 10
226.7033102138
 20
156.4416848414
 10
226.7119784429
 20
156.434569232
 10
226.7173081959
 20
156.4273509745
  0
LWPOLYLINE
  5
363
100
AcDbEntity
  8
RACCORDO
100
AcDbPolyline
 62
7
  6
CONTINUOUS
 90
22
 70
0
 10
199.7990683492
 20
134.359772854
 10
199.7978192439
 20
134.404691972
 10
199.7940441949
 20
134.4493172524
 10
199.7877432023
 20
134.4936486989
 10
199.7788689037
 20
134.5378910913
 10
199.7674686616
 20
134.5818396555
 10
199.7536845625
 20
134.624880074
 10
199.7375175895
 20
134.6669046864
 10
199.7189667595
 20
134.7080211788
 10
199.698171211
 20
134.7479382654
 10
199.6751305276
 20
134.7866572286
 10
199.6498451255
 20
134.8241768167
 10
199.6224553918
 20
134.8602019491
 10
199.5928491935
 20
134.8948051589
 10
199.5611386634
 20
134.9279139472
 10
199.5278005875
 20
134.9590156946
 10
199.4928566473
 20
134.9880145058
 10
199.4562851612
 20
135.0150063169
 10
199.4184978698
 20
135.0397662606
 10
199.3796320201
 20
135.0622193939
 10
199.3395503651
 20
135.0824406955
 10
199.2982529048
 20
135.1004301808
  0
LWPOLYLINE
  5
364
100
AcDbEntity
  8
ASSI
100
AcDbPolyline
 62
7
  6
CONTINUOUS
 90
22
 70
0
 10
199.7990683492
 20
134.359772854
 10
199.7978192439
 20
134.404691972
 10
199.7940441949
 20
134.4493172524
 10
199.7877432023
 20
134.4936486989
 10
199.7788689037
 20
134.5378910913
 10
199.7674686616
 20
134.5818396555
 10
199.7536845625
 20
134.624880074
 10
199.7375175895
 20
134.6669046864
 10
199.7189667595
 20
134.7080211788
 10
199.698171211
 20
134.7479382654
 10
199.6751305276
 20
134.7866572286
 10
199.6498451255
 20
134.8241768167
 10
199.6224553918
 20
134.8602019491
 10
199.5928491935
 20
134.8948051589
 10
199.5611386634
 20
134.9279139472
 10
199.5278005875
 20
134.9590156946
 10
199.4928566473
 20
134.9880145058
 10
199.4562851612
 20
135.0150063169
 10
199.4184978698
 20
135.0397662606
 10
199.3796320201
 20
135.0622193939
 10
199.3395503651
 20
135.0824406955
 10
199.2982529048
 20
135.1004301808
  0
LINE
  5
365
100
AcDbEntity
  8
RACCORDO
100
AcDbLine
 62
253
  6
CONTINUOUS
 10
199.0899163629
 20
135.7763384398
 11
199.089916363
 21
135.250233165
  0
LINE
  5
366
100
AcDbEntity
  8
ASSI
100
AcDbLine
 62
253
  6
CONTINUOUS
 10
199.0899163629
 20
135.7763384398
 11
199.089916363
 21
135.250233165
  0
LINE
  5
367
100
AcDbEntity
  8
RACCORDO
100
AcDbLine
 62
253
  6
CONTINUOUS
 10
199.0899163629
 20
89.4409389602
 11
199.0899163629
 21
89.967044235
  0
LINE
  5
368
100
AcDbEntity
  8
ASSI
100
AcDbLine
 62
253
  6
CONTINUOUS
 10
199.0899163629
 20
89.4409389602
 11
199.0899163629
 21
89.967044235
  0
LINE
  5
369
100
AcDbEntity
  8
RACCORDO
100
AcDbLine
 62
7
  6
CONTINUOUS
 10
199.7990683492
 20
90.857504546
 11
199.7990683492
 21
134.359772854
  0
LINE
  5
36A
100
AcDbEntity
  8
ASSI
100
AcDbLine
 62
7
  6
CONTINUOUS
 10
199.7990683492
 20
90.857504546
 11
199.7990683492
 21
134.359772854
  0
LINE
  5
36B
100
AcDbEntity
  8
RACCORDO
100
AcDbLine
 62
253
  6
CONTINUOUS
 10
199.8922655465
 20
134.4527496609
 11
199.8922655383
 21
90.7645403357
  0
LINE
  5
36C
100
AcDbEntity
  8
ASSI
100
AcDbLine
 62
253
  6
CONTINUOUS
 10
199.8922655465
 20
134.4527496609
 11
199.8922655383
 21
90.7645403357
  0
LINE
  5
36D
100
AcDbEntity
  8
RACCORDO
100
AcDbLine
 62
253
  6
CONTINUOUS
 10
200.3915786658
 20
134.4757425346
 11
200.3915786658
 21
90.7415348654
  0
LINE
  5
36E
100
AcDbEntity
  8
ASSI
100
AcDbLine
 62
253
  6
CONTINUOUS
 10
200.3915786658
 20
134.4757425346
 11
200.3915786658
 21
90.7415348654
  0
LWPOLYLINE
  5
36F
100
AcDbEntity
  8
RACCORDO
100
AcDbPolyline
 62
253
  6
CONTINUOUS
 90
13
 70
0
 10
200.3915786658
 20
90.7415348654
 10
200.390167918
 20
90.678166057
 10
200.3854805377
 20
90.6146517044
 10
200.3775165248
 20
90.5509918118
 10
200.3662781368
 20
90.4868937402
 10
200.3517631162
 20
90.4226501414
 10
200.3339646914
 20
90.3591389372
 10
200.3127562532
 20
90.296333623
 10
200.2882644108
 20
90.2342606758
 10
200.2608622201
 20
90.1738774513
 10
200.2306740331
 20
90.1155030379
 10
200.1975754978
 20
90.0588182783
 10
200.1615666142
 20
90.0038231414
  0
LWPOLYLINE
  5
370
100
AcDbEntity
  8
ASSI
100
AcDbPolyline
 62
253
  6
CONTINUOUS
 90
13
 70
0
 10
200.3915786658
 20
90.7415348654
 10
200.390167918
 20
90.678166057
 10
200.3854805377
 20
90.6146517044
 10
200.3775165248
 20
90.5509918118
 10
200.3662781368
 20
90.4868937402
 10
200.3517631162
 20
90.4226501414
 10
200.3339646914
 20
90.3591389372
 10
200.3127562532
 20
90.296333623
 10
200.2882644108
 20
90.2342606758
 10
200.2608622201
 20
90.1738774513
 10
200.2306740331
 20
90.1155030379
 10
200.1975754978
 20
90.0588182783
 10
200.1615666142
 20
90.0038231414
  0
LWPOLYLINE
  5
371
100
AcDbEntity
  8
RACCORDO
100
AcDbPolyline
 62
253
  6
CONTINUOUS
 90
13
 70
0
 10
199.8922655269
 20
90.764540347
 10
199.8913237157
 20
90.7257396692
 10
199.8884534738
 20
90.6866598851
 10
199.8836064427
 20
90.6473989002
 10
199.8767251782
 20
90.6079904561
 10
199.8677779893
 20
90.5686132119
 10
199.8567941117
 20
90.529582783
 10
199.8437674706
 20
90.4909802631
 10
199.8287151429
 20
90.4529412429
 10
199.8117832322
 20
90.4158409157
 10
199.7930818288
 20
90.3798542568
 10
199.7726377379
 20
90.3449742568
 10
199.7505202183
 20
90.3112804174
  0
LWPOLYLINE
  5
372
100
AcDbEntity
  8
ASSI
100
AcDbPolyline
 62
253
  6
CONTINUOUS
 90
13
 70
0
 10
199.8922655269
 20
90.764540347
 10
199.8913237157
 20
90.7257396692
 10
199.8884534738
 20
90.6866598851
 10
199.8836064427
 20
90.6473989002
 10
199.8767251782
 20
90.6079904561
 10
199.8677779893
 20
90.5686132119
 10
199.8567941117
 20
90.529582783
 10
199.8437674706
 20
90.4909802631
 10
199.8287151429
 20
90.4529412429
 10
199.8117832322
 20
90.4158409157
 10
199.7930818288
 20
90.3798542568
 10
199.7726377379
 20
90.3449742568
 10
199.7505202183
 20
90.3112804174
  0
LWPOLYLINE
  5
373
100
AcDbEntity
  8
RACCORDO
100
AcDbPolyline
 62
7
  6
CONTINUOUS
 90
22
 70
0
 10
199.2982529048
 20
90.1168472192
 10
199.3395306445
 20
90.1348264286
 10
199.3795962657
 20
90.155037871
 10
199.4184497686
 20
90.1774815614
 10
199.4562266249
 20
90.2022294633
 10
199.4927913627
 20
90.2292096489
 10
199.5277375667
 20
90.2582062979
 10
199.5610932189
 20
90.28932198
 10
199.5928303371
 20
90.3224541664
 10
199.6224585597
 20
90.3570793826
 10
199.6498611777
 20
90.3931232232
 10
199.6751549002
 20
90.4306601277
 10
199.698199492
 20
90.4693898799
 10
199.7189934654
 20
90.5093105769
 10
199.7375383082
 20
90.5504241521
 10
199.7536982488
 20
90.592436136
 10
199.7674737726
 20
90.6354439952
 10
199.7788643942
 20
90.6793502884
 10
199.7877328854
 20
90.7235681725
 10
199.7940335037
 20
90.7679020319
 10
199.7978119916
 20
90.8125474883
 10
199.7990683492
 20
90.857504546
  0
LWPOLYLINE
  5
374
100
AcDbEntity
  8
ASSI
100
AcDbPolyline
 62
7
  6
CONTINUOUS
 90
22
 70
0
 10
199.2982529048
 20
90.1168472192
 10
199.3395306445
 20
90.1348264286
 10
199.3795962657
 20
90.155037871
 10
199.4184497686
 20
90.1774815614
 10
199.4562266249
 20
90.2022294633
 10
199.4927913627
 20
90.2292096489
 10
199.5277375667
 20
90.2582062979
 10
199.5610932189
 20
90.28932198
 10
199.5928303371
 20
90.3224541664
 10
199.6224585597
 20
90.3570793826
 10
199.6498611777
 20
90.3931232232
 10
199.6751549002
 20
90.4306601277
 10
199.698199492
 20
90.4693898799
 10
199.7189934654
 20
90.5093105769
 10
199.7375383082
 20
90.5504241521
 10
199.7536982488
 20
90.592436136
 10
199.7674737726
 20
90.6354439952
 10
199.7788643942
 20
90.6793502884
 10
199.7877328854
 20
90.7235681725
 10
199.7940335037
 20
90.7679020319
 10
199.7978119916
 20
90.8125474883
 10
199.7990683492
 20
90.857504546
  0
LWPOLYLINE
  5
375
100
AcDbEntity
  8
RACCORDO
100
AcDbPolyline
 62
253
  6
CONTINUOUS
 90
28
 70
0
 10
83.5691179461
 20
157.4155846037
 10
83.5120133189
 20
157.4137261091
 10
83.4551696247
 20
157.4085849353
 10
83.3987712551
 20
157.4001844045
 10
83.3430278154
 20
157.3885648506
 10
83.2880913993
 20
157.3737667542
 10
83.2340600539
 20
157.3558152044
 10
83.1810743022
 20
157.3347440341
 10
83.1293494606
 20
157.3106264242
 10
83.0790925476
 20
157.2835542696
 10
83.0304853318
 20
157.2536244838
 10
82.9836703366
 20
157.2209249869
 10
82.9387868669
 20
157.1855519676
 10
82.8959830946
 20
157.1476143533
 10
82.8554051664
 20
157.1072345278
 10
82.817182312
 20
157.064538342
 10
82.7814454023
 20
157.0196605781
 10
82.7483171133
 20
156.9727442942
 10
82.7179046698
 20
156.9239373315
 10
82.6903136984
 20
156.8733911303
 10
82.6656446749
 20
156.8212714322
 10
82.6439838449
 20
156.7677565204
 10
82.6254112397
 20
156.7130230399
 10
82.6099936905
 20
156.6572448325
 10
82.5977828744
 20
156.600602818
 10
82.5888257433
 20
156.543281267
 10
82.5831631768
 20
156.4854675221
 10
82.580822876
 20
156.4273510493
  0
LWPOLYLINE
  5
376
100
AcDbEntity
  8
ASSI
100
AcDbPolyline
 62
253
  6
CONTINUOUS
 90
28
 70
0
 10
83.5691179461
 20
157.4155846037
 10
83.5120133189
 20
157.4137261091
 10
83.4551696247
 20
157.4085849353
 10
83.3987712551
 20
157.4001844045
 10
83.3430278154
 20
157.3885648506
 10
83.2880913993
 20
157.3737667542
 10
83.2340600539
 20
157.3558152044
 10
83.1810743022
 20
157.3347440341
 10
83.1293494606
 20
157.3106264242
 10
83.0790925476
 20
157.2835542696
 10
83.0304853318
 20
157.2536244838
 10
82.9836703366
 20
157.2209249869
 10
82.9387868669
 20
157.1855519676
 10
82.8959830946
 20
157.1476143533
 10
82.8554051664
 20
157.1072345278
 10
82.817182312
 20
157.064538342
 10
82.7814454023
 20
157.0196605781
 10
82.7483171133
 20
156.9727442942
 10
82.7179046698
 20
156.9239373315
 10
82.6903136984
 20
156.8733911303
 10
82.6656446749
 20
156.8212714322
 10
82.6439838449
 20
156.7677565204
 10
82.6254112397
 20
156.7130230399
 10
82.6099936905
 20
156.6572448325
 10
82.5977828744
 20
156.600602818
 10
82.5888257433
 20
156.543281267
 10
82.5831631768
 20
156.4854675221
 10
82.580822876
 20
156.4273510493
  0
LWPOLYLINE
  5
377
100
AcDbEntity
  8
RACCORDO
100
AcDbPolyline
 62
253
  6
CONTINUOUS
 90
28
 70
0
 10
83.5691179461
 20
157.0074200617
 10
83.5404073166
 20
157.0065694758
 10
83.5120044404
 20
157.0040830823
 10
83.4839093175
 20
156.9999608679
 10
83.456037619
 20
156.9941827079
 10
83.4284736736
 20
156.9867686731
 10
83.4014704682
 20
156.9777790304
 10
83.3750217641
 20
156.9671943763
 10
83.3491337999
 20
156.9550340119
 10
83.3240782772
 20
156.9414162546
 10
83.2998710222
 20
156.9263297903
 10
83.2764962088
 20
156.9097857947
 10
83.2541780605
 20
156.8919363231
 10
83.2329238481
 20
156.8727676836
 10
83.2127263007
 20
156.8522934084
 10
83.1937878303
 20
156.8307064023
 10
83.1761193525
 20
156.8079938728
 10
83.1597099516
 20
156.7841684502
 10
83.1447292926
 20
156.7594611983
 10
83.1311916686
 20
156.7338625408
 10
83.1190827864
 20
156.707381909
 10
83.1085294321
 20
156.6802789145
 10
83.099546882
 20
156.6525378674
 10
83.0921198597
 20
156.6241743466
 10
83.0863293213
 20
156.5954949165
 10
83.0822022522
 20
156.566601759
 10
83.0797116669
 20
156.5373926411
 10
83.0788575655
 20
156.5078675339
  0
LWPOLYLINE
  5
378
100
AcDbEntity
  8
ASSI
100
AcDbPolyline
 62
253
  6
CONTINUOUS
 90
28
 70
0
 10
83.5691179461
 20
157.0074200617
 10
83.5404073166
 20
157.0065694758
 10
83.5120044404
 20
157.0040830823
 10
83.4839093175
 20
156.9999608679
 10
83.456037619
 20
156.9941827079
 10
83.4284736736
 20
156.9867686731
 10
83.4014704682
 20
156.9777790304
 10
83.3750217641
 20
156.9671943763
 10
83.3491337999
 20
156.9550340119
 10
83.3240782772
 20
156.9414162546
 10
83.2998710222
 20
156.9263297903
 10
83.2764962088
 20
156.9097857947
 10
83.2541780605
 20
156.8919363231
 10
83.2329238481
 20
156.8727676836
 10
83.2127263007
 20
156.8522934084
 10
83.1937878303
 20
156.8307064023
 10
83.1761193525
 20
156.8079938728
 10
83.1597099516
 20
156.7841684502
 10
83.1447292926
 20
156.7594611983
 10
83.1311916686
 20
156.7338625408
 10
83.1190827864
 20
156.707381909
 10
83.1085294321
 20
156.6802789145
 10
83.099546882
 20
156.6525378674
 10
83.0921198597
 20
156.6241743466
 10
83.0863293213
 20
156.5954949165
 10
83.0822022522
 20
156.566601759
 10
83.0797116669
 20
156.5373926411
 10
83.0788575655
 20
156.5078675339
  0
LWPOLYLINE
  5
379
100
AcDbEntity
  8
RACCORDO
100
AcDbPolyline
 62
7
  6
CONTINUOUS
 90
28
 70
0
 10
225.9189874226
 20
157.6086387
 10
225.9754998118
 20
157.6070367422
 10
226.0315550186
 20
157.6022070763
 10
226.0871530431
 20
157.5941496481
 10
226.1425398078
 20
157.5828076472
 10
226.1974693902
 20
157.568237664
 10
226.2512040225
 20
157.5506096988
 10
226.3036177729
 20
157.5299271016
 10
226.3548365732
 20
157.5061861146
 10
226.4045004508
 20
157.4795460494
 10
226.4526047316
 20
157.4500190115
 10
226.4991540896
 20
157.4175923317
 10
226.5438025746
 20
157.3823881431
 10
226.5866624423
 20
157.3442477503
 10
226.6276214371
 20
157.3033291333
 10
226.6659968411
 20
157.2602294976
 10
226.701650951
 20
157.2150165357
 10
226.7347214702
 20
157.1676219043
 10
226.764938791
 20
157.1184388811
 10
226.7922882305
 20
157.06749684
 10
226.8167844716
 20
157.014765806
 10
226.8382019559
 20
156.960550137
 10
226.8565593462
 20
156.9046739296
 10
226.8718379797
 20
156.8473125208
 10
226.8837563095
 20
156.7892973373
 10
226.8922204866
 20
156.7309055127
 10
226.8973243599
 20
156.671859708
 10
226.8990679295
 20
156.6121598008
  0
LWPOLYLINE
  5
37A
100
AcDbEntity
  8
ASSI
100
AcDbPolyline
 62
7
  6
CONTINUOUS
 90
28
 70
0
 10
225.9189874226
 20
157.6086387
 10
225.9754998118
 20
157.6070367422
 10
226.0315550186
 20
157.6022070763
 10
226.0871530431
 20
157.5941496481
 10
226.1425398078
 20
157.5828076472
 10
226.1974693902
 20
157.568237664
 10
226.2512040225
 20
157.5506096988
 10
226.3036177729
 20
157.5299271016
 10
226.3548365732
 20
157.5061861146
 10
226.4045004508
 20
157.4795460494
 10
226.4526047316
 20
157.4500190115
 10
226.4991540896
 20
157.4175923317
 10
226.5438025746
 20
157.3823881431
 10
226.5866624423
 20
157.3442477503
 10
226.6276214371
 20
157.3033291333
 10
226.6659968411
 20
157.2602294976
 10
226.701650951
 20
157.2150165357
 10
226.7347214702
 20
157.1676219043
 10
226.764938791
 20
157.1184388811
 10
226.7922882305
 20
157.06749684
 10
226.8167844716
 20
157.014765806
 10
226.8382019559
 20
156.960550137
 10
226.8565593462
 20
156.9046739296
 10
226.8718379797
 20
156.8473125208
 10
226.8837563095
 20
156.7892973373
 10
226.8922204866
 20
156.7309055127
 10
226.8973243599
 20
156.671859708
 10
226.8990679295
 20
156.6121598008
  0
LWPOLYLINE
  5
37B
100
AcDbEntity
  8
RACCORDO
100
AcDbPolyline
 62
253
  6
CONTINUOUS
 90
13
 70
0
 10
199.7505202183
 20
134.9059969826
 10
199.7724724873
 20
134.872569341
 10
199.7928013626
 20
134.8379304342
 10
199.8114325818
 20
134.8021544933
 10
199.8283293899
 20
134.7652406382
 10
199.8433813513
 20
134.7273492173
 10
199.856445932
 20
134.6888179016
 10
199.867499747
 20
134.6497558232
 10
199.8765287958
 20
134.6102624616
 10
199.8834861367
 20
134.5706842376
 10
199.8883948904
 20
134.5312108998
 10
199.8913075835
 20
134.4918662406
 10
199.8922655238
 20
134.4527496388
  0
LWPOLYLINE
  5
37C
100
AcDbEntity
  8
ASSI
100
AcDbPolyline
 62
253
  6
CONTINUOUS
 90
13
 70
0
 10
199.7505202183
 20
134.9059969826
 10
199.7724724873
 20
134.872569341
 10
199.7928013626
 20
134.8379304342
 10
199.8114325818
 20
134.8021544933
 10
199.8283293899
 20
134.7652406382
 10
199.8433813513
 20
134.7273492173
 10
199.856445932
 20
134.6888179016
 10
199.867499747
 20
134.6497558232
 10
199.8765287958
 20
134.6102624616
 10
199.8834861367
 20
134.5706842376
 10
199.8883948904
 20
134.5312108998
 10
199.8913075835
 20
134.4918662406
 10
199.8922655238
 20
134.4527496388
  0
LWPOLYLINE
  5
37D
100
AcDbEntity
  8
RACCORDO
100
AcDbPolyline
 62
253
  6
CONTINUOUS
 90
19
 70
0
 10
200.1615666142
 20
90.0038231414
 10
200.120433045
 20
89.9474171483
 10
200.0764858734
 20
89.893487571
 10
200.0297250995
 20
89.842034294
 10
199.9799929154
 20
89.7928913738
 10
199.9274471289
 20
89.74622454
 10
199.8725611638
 20
89.7025311715
 10
199.8153060994
 20
89.6618488973
 10
199.7557108564
 20
89.6241398593
 10
199.6943356202
 20
89.5897881826
 10
199.6311280299
 20
89.5588308473
 10
199.5661404464
 20
89.5312306683
 10
199.5000901379
 20
89.5072605165
 10
199.432956536
 20
89.4869843824
 10
199.3647602091
 20
89.4703381225
 10
199.296280131
 20
89.457402416
 10
199.2277759595
 20
89.4482041292
 10
199.1589880368
 20
89.4427163171
 10
199.0899163629
 20
89.4409389602
  0
LWPOLYLINE
  5
37E
100
AcDbEntity
  8
ASSI
100
AcDbPolyline
 62
253
  6
CONTINUOUS
 90
19
 70
0
 10
200.1615666142
 20
90.0038231414
 10
200.120433045
 20
89.9474171483
 10
200.0764858734
 20
89.893487571
 10
200.0297250995
 20
89.842034294
 10
199.9799929154
 20
89.7928913738
 10
199.9274471289
 20
89.74622454
 10
199.8725611638
 20
89.7025311715
 10
199.8153060994
 20
89.6618488973
 10
199.7557108564
 20
89.6241398593
 10
199.6943356202
 20
89.5897881826
 10
199.6311280299
 20
89.5588308473
 10
199.5661404464
 20
89.5312306683
 10
199.5000901379
 20
89.5072605165
 10
199.432956536
 20
89.4869843824
 10
199.3647602091
 20
89.4703381225
 10
199.296280131
 20
89.457402416
 10
199.2277759595
 20
89.4482041292
 10
199.1589880368
 20
89.4427163171
 10
199.0899163629
 20
89.4409389602
  0
LWPOLYLINE
  5
37F
100
AcDbEntity
  8
RACCORDO
100
AcDbPolyline
 62
253
  6
CONTINUOUS
 90
19
 70
0
 10
199.7505202183
 20
90.3112804174
 10
199.7252152871
 20
90.2767950321
 10
199.6980479879
 20
90.2436595147
 10
199.6690876846
 20
90.2119760823
 10
199.6384054047
 20
90.1818407071
 10
199.6060855718
 20
90.1533516772
 10
199.572227571
 20
90.1266073115
 10
199.5369166093
 20
90.1016874511
 10
199.5002571736
 20
90.0786776585
 10
199.4623898772
 20
90.0576701701
 10
199.423407476
 20
90.0387209418
 10
199.3834384343
 20
90.0218966564
 10
199.3426915609
 20
90.0072768197
 10
199.3012869972
 20
89.9948909318
 10
199.2593512016
 20
89.9847634443
 10
199.2171135917
 20
89.9769254371
 10
199.1747357636
 20
89.9713730915
 10
199.1323066893
 20
89.9680860779
 10
199.0899475872
 20
89.9670441826
  0
LWPOLYLINE
  5
380
100
AcDbEntity
  8
ASSI
100
AcDbPolyline
 62
253
  6
CONTINUOUS
 90
19
 70
0
 10
199.7505202183
 20
90.3112804174
 10
199.7252152871
 20
90.2767950321
 10
199.6980479879
 20
90.2436595147
 10
199.6690876846
 20
90.2119760823
 10
199.6384054047
 20
90.1818407071
 10
199.6060855718
 20
90.1533516772
 10
199.572227571
 20
90.1266073115
 10
199.5369166093
 20
90.1016874511
 10
199.5002571736
 20
90.0786776585
 10
199.4623898772
 20
90.0576701701
 10
199.423407476
 20
90.0387209418
 10
199.3834384343
 20
90.0218966564
 10
199.3426915609
 20
90.0072768197
 10
199.3012869972
 20
89.9948909318
 10
199.2593512016
 20
89.9847634443
 10
199.2171135917
 20
89.9769254371
 10
199.1747357636
 20
89.9713730915
 10
199.1323066893
 20
89.9680860779
 10
199.0899475872
 20
89.9670441826
  0
LWPOLYLINE
  5
381
100
AcDbEntity
  8
RACCORDO
100
AcDbPolyline
 62
253
  6
CONTINUOUS
 90
13
 70
0
 10
200.1615666142
 20
135.2134542585
 10
200.197301397
 20
135.1589423169
 10
200.2301949927
 20
135.1026783915
 10
200.2602474013
 20
135.0446624501
 10
200.2875919046
 20
134.9845989427
 10
200.3120952208
 20
134.9227833486
 10
200.3333575044
 20
134.8601021967
 10
200.3512636648
 20
134.7965498296
 10
200.3659287925
 20
134.7321318709
 10
200.3772983138
 20
134.6677518077
 10
200.3853540375
 20
134.6037108121
 10
200.3901141549
 20
134.5397077203
 10
200.3915786658
 20
134.4757425346
  0
LWPOLYLINE
  5
382
100
AcDbEntity
  8
ASSI
100
AcDbPolyline
 62
253
  6
CONTINUOUS
 90
13
 70
0
 10
200.1615666142
 20
135.2134542585
 10
200.197301397
 20
135.1589423169
 10
200.2301949927
 20
135.1026783915
 10
200.2602474013
 20
135.0446624501
 10
200.2875919046
 20
134.9845989427
 10
200.3120952208
 20
134.9227833486
 10
200.3333575044
 20
134.8601021967
 10
200.3512636648
 20
134.7965498296
 10
200.3659287925
 20
134.7321318709
 10
200.3772983138
 20
134.6677518077
 10
200.3853540375
 20
134.6037108121
 10
200.3901141549
 20
134.5397077203
 10
200.3915786658
 20
134.4757425346
  0
LWPOLYLINE
  5
383
100
AcDbEntity
  8
RACCORDO
100
AcDbPolyline
 62
253
  6
CONTINUOUS
 90
28
 70
0
 10
226.71731377
 20
156.4273510489
 10
226.7149740449
 20
156.4854585944
 10
226.7093159251
 20
156.5432415265
 10
226.7003708467
 20
156.6005110722
 10
226.6881879556
 20
156.6570622654
 10
226.6728151838
 20
156.7127317126
 10
226.6542873021
 20
156.7673948695
 10
226.6326521882
 20
156.8209060318
 10
226.6079935821
 20
156.8730556312
 10
226.5804115565
 20
156.923629324
 10
226.5500145648
 20
156.9724499409
 10
226.5169023898
 20
157.0193784677
 10
226.4811808434
 20
157.0642694212
 10
226.4429718211
 20
157.1069804963
 10
226.4024067872
 20
157.1473759632
 10
226.359615304
 20
157.1853295627
 10
226.3147427621
 20
157.2207194834
 10
226.2679380636
 20
157.2534361424
 10
226.2193434571
 20
157.2833816461
 10
226.1691147169
 20
157.3104621433
 10
226.1174215538
 20
157.3345892188
 10
226.0644333563
 20
157.3556852373
 10
226.0103317569
 20
157.3736806185
 10
225.955286371
 20
157.3885224147
 10
225.8994524927
 20
157.4001688652
 10
225.8430032708
 20
157.4085806692
 10
225.7861303375
 20
157.4137257564
 10
225.7290186999
 20
157.4155846037
  0
LWPOLYLINE
  5
384
100
AcDbEntity
  8
ASSI
100
AcDbPolyline
 62
253
  6
CONTINUOUS
 90
28
 70
0
 10
226.71731377
 20
156.4273510489
 10
226.7149740449
 20
156.4854585944
 10
226.7093159251
 20
156.5432415265
 10
226.7003708467
 20
156.6005110722
 10
226.6881879556
 20
156.6570622654
 10
226.6728151838
 20
156.7127317126
 10
226.6542873021
 20
156.7673948695
 10
226.6326521882
 20
156.8209060318
 10
226.6079935821
 20
156.8730556312
 10
226.5804115565
 20
156.923629324
 10
226.5500145648
 20
156.9724499409
 10
226.5169023898
 20
157.0193784677
 10
226.4811808434
 20
157.0642694212
 10
226.4429718211
 20
157.1069804963
 10
226.4024067872
 20
157.1473759632
 10
226.359615304
 20
157.1853295627
 10
226.3147427621
 20
157.2207194834
 10
226.2679380636
 20
157.2534361424
 10
226.2193434571
 20
157.2833816461
 10
226.1691147169
 20
157.3104621433
 10
226.1174215538
 20
157.3345892188
 10
226.0644333563
 20
157.3556852373
 10
226.0103317569
 20
157.3736806185
 10
225.955286371
 20
157.3885224147
 10
225.8994524927
 20
157.4001688652
 10
225.8430032708
 20
157.4085806692
 10
225.7861303375
 20
157.4137257564
 10
225.7290186999
 20
157.4155846037
  0
LWPOLYLINE
  5
385
100
AcDbEntity
  8
RACCORDO
100
AcDbPolyline
 62
253
  6
CONTINUOUS
 90
28
 70
0
 10
226.2192790805
 20
156.5078675339
 10
226.218418035
 20
156.5374150212
 10
226.2159267808
 20
156.5666275408
 10
226.2118053179
 20
156.5955051236
 10
226.2060294277
 20
156.6241380167
 10
226.1986233289
 20
156.6524360284
 10
226.189659677
 20
156.6801285562
 10
226.1791191065
 20
156.7072179467
 10
226.1670209829
 20
156.7337019603
 10
226.1534960586
 20
156.7593031627
 10
226.1385330706
 20
156.7840041729
 10
226.122143282
 20
156.8078225175
 10
226.1044912343
 20
156.8305331618
 10
226.0855648788
 20
156.8521263029
 10
226.0653762642
 20
156.8726119051
 10
226.0441260784
 20
156.8917946088
 10
226.021804386
 20
156.9096617593
 10
225.9984211222
 20
156.9262261708
 10
225.9742067816
 20
156.9413307011
 10
225.9491537194
 20
156.9549609923
 10
225.9232695802
 20
156.9671315413
 10
225.8968077925
 20
156.9777284909
 10
225.8697563363
 20
156.9867368596
 10
225.8421272316
 20
156.9941717313
 10
225.8142099668
 20
156.9999643406
 10
225.786101038
 20
157.0040917846
 10
225.757703949
 20
157.0065770204
 10
225.7290186999
 20
157.0074200617
  0
LWPOLYLINE
  5
386
100
AcDbEntity
  8
ASSI
100
AcDbPolyline
 62
253
  6
CONTINUOUS
 90
28
 70
0
 10
226.2192790805
 20
156.5078675339
 10
226.218418035
 20
156.5374150212
 10
226.2159267808
 20
156.5666275408
 10
226.2118053179
 20
156.5955051236
 10
226.2060294277
 20
156.6241380167
 10
226.1986233289
 20
156.6524360284
 10
226.189659677
 20
156.6801285562
 10
226.1791191065
 20
156.7072179467
 10
226.1670209829
 20
156.7337019603
 10
226.1534960586
 20
156.7593031627
 10
226.1385330706
 20
156.7840041729
 10
226.122143282
 20
156.8078225175
 10
226.1044912343
 20
156.8305331618
 10
226.0855648788
 20
156.8521263029
 10
226.0653762642
 20
156.8726119051
 10
226.0441260784
 20
156.8917946088
 10
226.021804386
 20
156.9096617593
 10
225.9984211222
 20
156.9262261708
 10
225.9742067816
 20
156.9413307011
 10
225.9491537194
 20
156.9549609923
 10
225.9232695802
 20
156.9671315413
 10
225.8968077925
 20
156.9777284909
 10
225.8697563363
 20
156.9867368596
 10
225.8421272316
 20
156.9941717313
 10
225.8142099668
 20
156.9999643406
 10
225.786101038
 20
157.0040917846
 10
225.757703949
 20
157.0065770204
 10
225.7290186999
 20
157.0074200617
  0
LINE
  5
387
100
AcDbEntity
  8
RACCORDO
100
AcDbLine
 62
253
  6
CONTINUOUS
 10
225.7290186999
 20
68.2098573383
 11
225.7290187002
 21
67.8016927963
  0
LINE
  5
388
100
AcDbEntity
  8
ASSI
100
AcDbLine
 62
253
  6
CONTINUOUS
 10
225.7290186999
 20
68.2098573383
 11
225.7290187002
 21
67.8016927963
  0
LINE
  5
389
100
AcDbEntity
  8
RACCORDO
100
AcDbLine
 62
253
  6
CONTINUOUS
 10
225.7290186999
 20
157.0074200617
 11
225.7290186999
 21
157.4155846037
  0
LINE
  5
38A
100
AcDbEntity
  8
ASSI
100
AcDbLine
 62
253
  6
CONTINUOUS
 10
225.7290186999
 20
157.0074200617
 11
225.7290186999
 21
157.4155846037
  0
LINE
  5
38B
100
AcDbEntity
  8
RACCORDO
100
AcDbLine
 62
253
  6
CONTINUOUS
 10
226.2211289869
 20
144.7152675123
 11
226.2192790805
 21
156.5078675339
  0
LINE
  5
38C
100
AcDbEntity
  8
ASSI
100
AcDbLine
 62
253
  6
CONTINUOUS
 10
226.2211289869
 20
144.7152675123
 11
226.2192790805
 21
156.5078675339
  0
LINE
  5
38D
100
AcDbEntity
  8
RACCORDO
100
AcDbLine
 62
253
  6
CONTINUOUS
 10
226.7192023055
 20
144.6666247021
 11
226.7173137699
 21
156.4273510488
  0
LINE
  5
38E
100
AcDbEntity
  8
ASSI
100
AcDbLine
 62
253
  6
CONTINUOUS
 10
226.7192023055
 20
144.6666247021
 11
226.7173137699
 21
156.4273510488
  0
LINE
  5
38F
100
AcDbEntity
  8
RACCORDO
100
AcDbLine
 62
7
  6
CONTINUOUS
 10
226.8990679295
 20
156.6121598008
 11
226.899068323
 21
135.0878719499
  0
LINE
  5
390
100
AcDbEntity
  8
DRAFT
100
AcDbLine
 62
7
  6
CONTINUOUS
 10
226.899068323
 20
135.0878719499
 11
226.899068323
 21
90.1294054501
  0
LINE
  5
391
100
AcDbEntity
  8
RACCORDO
100
AcDbLine
 62
7
  6
CONTINUOUS
 10
226.899068323
 20
90.1294054501
 11
226.8990679295
 21
68.6051175991
  0
LINE
  5
392
100
AcDbEntity
  8
ASSI
100
AcDbLine
 62
7
  6
CONTINUOUS
 10
226.8990679295
 20
156.6121598008
 11
226.8990679295
 21
68.6051175991
  0
LINE
  5
393
100
AcDbEntity
  8
RACCORDO
100
AcDbLine
 62
253
  6
CONTINUOUS
 10
226.2192790805
 20
68.7094098661
 11
226.2211289869
 21
144.7152675123
  0
LINE
  5
394
100
AcDbEntity
  8
ASSI
100
AcDbLine
 62
253
  6
CONTINUOUS
 10
226.2192790805
 20
68.7094098661
 11
226.2211289869
 21
144.7152675123
  0
LINE
  5
395
100
AcDbEntity
  8
RACCORDO
100
AcDbLine
 62
253
  6
CONTINUOUS
 10
226.7173137699
 20
68.7899263508
 11
226.7192023055
 21
144.6666247021
  0
LINE
  5
396
100
AcDbEntity
  8
ASSI
100
AcDbLine
 62
253
  6
CONTINUOUS
 10
226.7173137699
 20
68.7899263508
 11
226.7192023055
 21
144.6666247021
  0
LWPOLYLINE
  5
397
100
AcDbEntity
  8
RACCORDO
100
AcDbPolyline
 62
7
  6
CONTINUOUS
 90
28
 70
0
 10
226.8990679295
 20
68.6051175991
 10
226.8973195997
 20
68.5454038215
 10
226.8922155799
 20
68.4863571791
 10
226.8837558703
 20
68.4279775471
 10
226.8718486826
 20
68.3699959752
 10
226.8565858051
 20
68.312681202
 10
226.8382426022
 20
68.2568394805
 10
226.8168358935
 20
68.2026349705
 10
226.7923488596
 20
68.1499029519
 10
226.7650064065
 20
68.0989561532
 10
226.7347923123
 20
68.0497653609
 10
226.7017227989
 20
68.0023591885
 10
226.6660714379
 20
67.9571369984
 10
226.6277015228
 20
67.9140329005
 10
226.58674976
 20
67.873112133
 10
226.5438998407
 20
67.8349706241
 10
226.4992684125
 20
67.7997679825
 10
226.4527388277
 20
67.7673438835
 10
226.4046448342
 20
67.7378142971
 10
226.3549778152
 20
67.7111626948
 10
226.3037463875
 20
67.6874050425
 10
226.2513101485
 20
67.6667060672
 10
226.1975342772
 20
67.6490622215
 10
226.1425535948
 20
67.6344766448
 10
226.087132162
 20
67.6231241205
 10
226.0315246659
 20
67.6150628331
 10
225.9754764194
 20
67.6102343778
 10
225.9189874226
 20
67.6086387
  0
LWPOLYLINE
  5
398
100
AcDbEntity
  8
ASSI
100
AcDbPolyline
 62
7
  6
CONTINUOUS
 90
28
 70
0
 10
226.8990679295
 20
68.6051175991
 10
226.8973195997
 20
68.5454038215
 10
226.8922155799
 20
68.4863571791
 10
226.8837558703
 20
68.4279775471
 10
226.8718486826
 20
68.3699959752
 10
226.8565858051
 20
68.312681202
 10
226.8382426022
 20
68.2568394805
 10
226.8168358935
 20
68.2026349705
 10
226.7923488596
 20
68.1499029519
 10
226.7650064065
 20
68.0989561532
 10
226.7347923123
 20
68.0497653609
 10
226.7017227989
 20
68.0023591885
 10
226.6660714379
 20
67.9571369984
 10
226.6277015228
 20
67.9140329005
 10
226.58674976
 20
67.873112133
 10
226.5438998407
 20
67.8349706241
 10
226.4992684125
 20
67.7997679825
 10
226.4527388277
 20
67.7673438835
 10
226.4046448342
 20
67.7378142971
 10
226.3549778152
 20
67.7111626948
 10
226.3037463875
 20
67.6874050425
 10
226.2513101485
 20
67.6667060672
 10
226.1975342772
 20
67.6490622215
 10
226.1425535948
 20
67.6344766448
 10
226.087132162
 20
67.6231241205
 10
226.0315246659
 20
67.6150628331
 10
225.9754764194
 20
67.6102343778
 10
225.9189874226
 20
67.6086387
  0
LINE
  5
399
100
AcDbEntity
  8
RACCORDO
100
AcDbLine
 62
253
  6
CONTINUOUS
 10
53.6418929281
 20
68.7094098796
 11
54.0904353978
 21
68.7899263369
  0
LINE
  5
39A
100
AcDbEntity
  8
ASSI
100
AcDbLine
 62
253
  6
CONTINUOUS
 10
53.6418929281
 20
68.7094098796
 11
54.0904353978
 21
68.7899263369
  0
LWPOLYLINE
  5
39B
100
AcDbEntity
  8
RACCORDO
100
AcDbPolyline
 62
253
  6
CONTINUOUS
 90
16
 70
0
 10
56.6547251731
 20
68.8992613203
 10
56.7787394163
 20
68.9173750034
 10
56.9027692495
 20
68.9383850215
 10
57.0267379409
 20
68.9622963087
 10
57.15048802
 20
68.989033215
 10
57.2740089376
 20
69.0186813288
 10
57.3974356445
 20
69.0514880279
 10
57.520686826
 20
69.0874319042
 10
57.6436380494
 20
69.126545733
 10
57.7663486232
 20
69.1691594179
 10
57.8888045693
 20
69.2152471408
 10
58.0107670606
 20
69.264847785
 10
58.1319645403
 20
69.3183897221
 10
58.2522495912
 20
69.3760209216
 10
58.3715710964
 20
69.437608188
 10
58.4898249439
 20
69.5031588385
  0
LINE
  5
39C
100
AcDbEntity
  8
RACCORDO
100
AcDbLine
 62
253
  6
CONTINUOUS
 10
56.5481155911
 20
69.4914271877
 11
58.4898249439
 21
69.5031588385
  0
LINE
  5
39D
100
AcDbEntity
  8
RACCORDO
100
AcDbLine
 62
7
  6
CONTINUOUS
 10
54.1807232952
 20
67.8016927963
 11
56.3873417131
 21
67.6086387
  0
LINE
  5
39E
100
AcDbEntity
  8
ASSI
100
AcDbLine
 62
7
  6
CONTINUOUS
 10
54.1807232952
 20
67.8016927963
 11
56.3873417131
 21
67.6086387
  0
LINE
  5
39F
100
AcDbEntity
  8
RACCORDO
100
AcDbLine
 62
253
  6
CONTINUOUS
 10
54.0904353952
 20
68.7899263508
 11
56.2016405399
 21
68.6051175991
  0
LINE
  5
3A0
100
AcDbEntity
  8
ASSI
100
AcDbLine
 62
253
  6
CONTINUOUS
 10
54.0904353952
 20
68.7899263508
 11
56.2016405399
 21
68.6051175991
  0
LINE
  5
3A1
100
AcDbEntity
  8
RACCORDO
100
AcDbLine
 62
7
  6
CONTINUOUS
 10
56.1802805038
 20
70.1613978739
 11
56.4309428795
 21
70.1570225459
  0
LINE
  5
3A2
100
AcDbEntity
  8
RACCORDO
100
AcDbLine
 62
7
  6
CONTINUOUS
 10
54.7448388026
 20
78.1730040291
 11
55.2401709924
 21
78.1600332992
  0
LWPOLYLINE
  5
3A3
100
AcDbEntity
  8
RACCORDO
100
AcDbPolyline
 62
253
  6
CONTINUOUS
 90
15
 70
0
 10
54.1807232952
 20
67.8016927963
 10
54.1782155234
 20
67.8035512908
 10
54.1755485467
 20
67.8086924647
 10
54.1727361996
 20
67.8170929955
 10
54.169793843
 20
67.8287125494
 10
54.1667301855
 20
67.8435106458
 10
54.1635489405
 20
67.8614621956
 10
54.1602552845
 20
67.8825333658
 10
54.1568653139
 20
67.9066509758
 10
54.1533981635
 20
67.9337231304
 10
54.1498564273
 20
67.9636529161
 10
54.14624926
 20
67.9963524131
 10
54.1426033202
 20
68.0317254323
 10
54.1389175157
 20
68.0696630466
 10
54.1351980409
 20
68.1100428722
  0
LWPOLYLINE
  5
3A4
100
AcDbEntity
  8
ASSI
100
AcDbPolyline
 62
253
  6
CONTINUOUS
 90
15
 70
0
 10
54.1807232952
 20
67.8016927963
 10
54.1782155234
 20
67.8035512908
 10
54.1755485467
 20
67.8086924647
 10
54.1727361996
 20
67.8170929955
 10
54.169793843
 20
67.8287125494
 10
54.1667301855
 20
67.8435106458
 10
54.1635489405
 20
67.8614621956
 10
54.1602552845
 20
67.8825333658
 10
54.1568653139
 20
67.9066509758
 10
54.1533981635
 20
67.9337231304
 10
54.1498564273
 20
67.9636529161
 10
54.14624926
 20
67.9963524131
 10
54.1426033202
 20
68.0317254323
 10
54.1389175157
 20
68.0696630466
 10
54.1351980409
 20
68.1100428722
  0
LINE
  5
3A5
100
AcDbEntity
  8
RACCORDO
100
AcDbLine
 62
7
  6
CONTINUOUS
 10
54.6400094825
 20
79.0415283185
 11
55.1318961672
 21
79.0544088247
  0
LWPOLYLINE
  5
3A6
100
AcDbEntity
  8
0
100
AcDbPolyline
 62
7
  6
CONTINUOUS
 90
19
 70
0
 10
55.6022288337
 20
75.4515706666
 10
55.5782856309
 20
75.4620072197
 10
55.5258161067
 20
75.4886902064
 10
55.4747693262
 20
75.5186868577
 10
55.4250454843
 20
75.5520911855
 10
55.3767443861
 20
75.588809178
 10
55.3305556477
 20
75.6285103823
 10
55.2865189026
 20
75.6712497678
 10
55.2445945173
 20
75.7169723651
 10
55.2053532072
 20
75.7651828135
 10
55.1688720398
 20
75.8158294696
 10
55.1350739476
 20
75.8689639769
 10
55.1042984432
 20
75.9242459047
 10
55.0765164067
 20
75.981811591
 10
55.0517569581
 20
76.0415246979
 10
55.0304469701
 20
76.1026357817
 10
55.0127287338
 20
76.1648950279
 10
54.9984599581
 20
76.2285522511
 10
54.9876406432
 20
76.2936074511
  0
LWPOLYLINE
  5
3A7
100
AcDbEntity
  8
RACCORDO
100
AcDbPolyline
 62
253
  6
CONTINUOUS
 90
3
 70
0
 10
53.8932939345
 20
87.0245614857
 10
53.8953514745
 20
87.0248202906
 10
53.9015316122
 20
87.0253637607
  0
LINE
  5
3A8
100
AcDbEntity
  8
RACCORDO
100
AcDbLine
 62
253
  6
CONTINUOUS
 10
53.9015316122
 20
87.0253637607
 11
53.9261403476
 21
87.0272945247
  0
LINE
  5
3A9
100
AcDbEntity
  8
RACCORDO
100
AcDbLine
 62
253
  6
CONTINUOUS
 10
53.9261403476
 20
87.0272945247
 11
54.2224988637
 21
87.0486762885
  0
LINE
  5
3AA
100
AcDbEntity
  8
RACCORDO
100
AcDbLine
 62
253
  6
CONTINUOUS
 10
54.2224988637
 20
87.0486762885
 11
54.3856573184
 21
87.060178039
  0
LINE
  5
3AB
100
AcDbEntity
  8
0
100
AcDbLine
 62
253
  6
CONTINUOUS
 10
59.2028515528
 20
90.2400295074
 11
56.7626186514
 21
90.1992349369
  0
LINE
  5
3AC
100
AcDbEntity
  8
0
100
AcDbLine
 62
253
  6
CONTINUOUS
 10
56.7626186514
 20
90.1992349369
 11
54.1969351741
 21
90.1593053666
  0
LINE
  5
3AD
100
AcDbEntity
  8
RACCORDO
100
AcDbLine
 62
253
  6
CONTINUOUS
 10
51.6534913202
 20
90.1294054501
 11
53.6996953773
 21
90.1294054501
  0
LINE
  5
3AE
100
AcDbEntity
  8
ASSI
100
AcDbLine
 62
253
  6
CONTINUOUS
 10
51.6534913202
 20
90.1294054501
 11
53.6996953773
 21
90.1294054501
  0
LWPOLYLINE
  5
3AF
100
AcDbEntity
  8
RACCORDO
100
AcDbPolyline
 62
7
  6
CONTINUOUS
 90
23
 70
0
 10
54.1593270682
 20
90.9512601715
 10
54.1460571413
 20
90.9487055707
 10
54.1179238966
 20
90.9454605979
 10
54.0908587099
 20
90.9444832886
 10
54.0650648771
 20
90.9456859377
 10
54.040638011
 20
90.9488947024
 10
54.0176384537
 20
90.9539962101
 10
53.9961738323
 20
90.9609343804
 10
53.9762908144
 20
90.9695017669
 10
53.9579769469
 20
90.9795479511
 10
53.9412196811
 20
90.9910637948
 10
53.9260657524
 20
91.0037843902
 10
53.912412545
 20
91.0176118497
 10
53.900053252
 20
91.0327988117
 10
53.888939382
 20
91.049254666
 10
53.8791239327
 20
91.0667979296
 10
53.8705870004
 20
91.0855504446
 10
53.8632671597
 20
91.1055361953
 10
53.8571926269
 20
91.1264722955
 10
53.8524034311
 20
91.1480032232
 10
53.8488172642
 20
91.1699417498
 10
53.8463024201
 20
91.192285792
 10
53.8447573598
 20
91.214973993
  0
LWPOLYLINE
  5
3B0
100
AcDbEntity
  8
RACCORDO
100
AcDbPolyline
 62
253
  6
CONTINUOUS
 90
3
 70
0
 10
53.7075535293
 20
90.1346964781
 10
53.7096170839
 20
90.1348849351
 10
53.7158076986
 20
90.1352805734
  0
LINE
  5
3B1
100
AcDbEntity
  8
RACCORDO
100
AcDbLine
 62
253
  6
CONTINUOUS
 10
53.815216465
 20
91.8731832556
 11
53.8137305991
 21
91.8730863729
  0
LINE
  5
3B2
100
AcDbEntity
  8
RACCORDO
100
AcDbLine
 62
253
  6
CONTINUOUS
 10
53.7158076986
 20
90.1352805734
 11
53.781074453
 21
90.1388894731
  0
LINE
  5
3B3
100
AcDbEntity
  8
RACCORDO
100
AcDbLine
 62
253
  6
CONTINUOUS
 10
53.781074453
 20
90.1388894731
 11
54.1968815271
 21
90.1604350702
  0
LINE
  5
3B4
100
AcDbEntity
  8
RACCORDO
100
AcDbLine
 62
253
  6
CONTINUOUS
 10
51.2028515528
 20
90.0038231414
 11
51.6586428755
 21
90.0267206501
  0
LINE
  5
3B5
100
AcDbEntity
  8
ASSI
100
AcDbLine
 62
253
  6
CONTINUOUS
 10
51.2028515528
 20
90.0038231414
 11
51.6586428755
 21
90.0267206501
  0
LINE
  5
3B6
100
AcDbEntity
  8
RACCORDO
100
AcDbLine
 62
253
  6
CONTINUOUS
 10
51.1976942831
 20
90.1065949694
 11
51.6534913203
 21
90.1294054501
  0
LINE
  5
3B7
100
AcDbEntity
  8
ASSI
100
AcDbLine
 62
253
  6
CONTINUOUS
 10
51.1976942831
 20
90.1065949694
 11
51.6534913203
 21
90.1294054501
  0
LINE
  5
3B8
100
AcDbEntity
  8
RACCORDO
100
AcDbLine
 62
253
  6
CONTINUOUS
 10
53.8503481706
 20
91.8749212017
 11
53.815216465
 21
91.8731832556
  0
LINE
  5
3B9
100
AcDbEntity
  8
RACCORDO
100
AcDbLine
 62
253
  6
CONTINUOUS
 10
54.114873122
 20
91.887375284
 11
53.8503481706
 21
91.8749212017
  0
LWPOLYLINE
  5
3BA
100
AcDbEntity
  8
RACCORDO
100
AcDbPolyline
 62
7
  6
CONTINUOUS
 90
7
 70
0
 10
53.6845172693
 20
91.7049615832
 10
53.7006891423
 20
91.7056657161
 10
53.7194252352
 20
91.7082905226
 10
53.7407268135
 20
91.7128220212
 10
53.7645950588
 20
91.7192424629
 10
53.7910310665
 20
91.7275304033
 10
53.820035845
 20
91.7376607808
  0
LINE
  5
3BB
100
AcDbEntity
  8
0
100
AcDbLine
 62
7
  6
CONTINUOUS
 10
53.6845172693
 20
91.7049615832
 11
53.6313132918
 21
91.7058902621
  0
LINE
  5
3BC
100
AcDbEntity
  8
0
100
AcDbLine
 62
253
  6
CONTINUOUS
 10
53.5856433371
 20
92.7065351293
 11
54.0766376152
 21
92.6979647923
  0
LINE
  5
3BD
100
AcDbEntity
  8
RACCORDO
100
AcDbLine
 62
7
  6
CONTINUOUS
 10
53.4507877851
 20
96.0103874524
 11
53.9406491157
 21
96.0232149228
  0
LINE
  5
3BE
100
AcDbEntity
  8
RACCORDO
100
AcDbLine
 62
7
  6
CONTINUOUS
 10
53.48136562
 20
95.2060892387
 11
53.9722379722
 21
95.1932352938
  0
LINE
  5
3BF
100
AcDbEntity
  8
RACCORDO
100
AcDbLine
 62
253
  6
CONTINUOUS
 10
53.5305362968
 20
99.3116588609
 11
53.5320238477
 21
99.3117209987
  0
LINE
  5
3C0
100
AcDbEntity
  8
RACCORDO
100
AcDbLine
 62
253
  6
CONTINUOUS
 10
53.5320238477
 20
99.3117209987
 11
53.8319267495
 21
99.3208234073
  0
LINE
  5
3C1
100
AcDbEntity
  8
0
100
AcDbLine
 62
253
  6
CONTINUOUS
 10
53.8566621948
 20
98.5154729225
 11
53.3651008046
 21
98.5068926865
  0
LINE
  5
3C2
100
AcDbEntity
  8
0
100
AcDbLine
 62
7
  6
CONTINUOUS
 10
53.3886920944
 20
99.5071521691
 11
53.3347110914
 21
99.5062099272
  0
LINE
  5
3C3
100
AcDbEntity
  8
RACCORDO
100
AcDbLine
 62
7
  6
CONTINUOUS
 10
53.3347110914
 20
99.5062099272
 11
53.3886920944
 21
99.5071521691
  0
LWPOLYLINE
  5
3C4
100
AcDbEntity
  8
RACCORDO
100
AcDbPolyline
 62
7
  6
CONTINUOUS
 90
7
 70
0
 10
53.5257033041
 20
99.4751705779
 10
53.4960828021
 20
99.4851359853
 10
53.4691781729
 20
99.4932588597
 10
53.4449881523
 20
99.4995277725
 10
53.4235114078
 20
99.5039350132
 10
53.4047465418
 20
99.506476581
 10
53.3886920944
 20
99.5071521691
  0
LWPOLYLINE
  5
3C5
100
AcDbEntity
  8
RACCORDO
100
AcDbPolyline
 62
253
  6
CONTINUOUS
 90
19
 70
0
 10
58.4898247893
 20
69.503158829
 10
58.5118303308
 20
69.4555057302
 10
58.5314602036
 20
69.4079391044
 10
58.5486213872
 20
69.3606843568
 10
58.5632325594
 20
69.3139654149
 10
58.5752244819
 20
69.2680036666
 10
58.5845403284
 20
69.2230169112
 10
58.5911359533
 20
69.1792183286
 10
58.5949801016
 20
69.1368154684
 10
58.5960545567
 20
69.0960092659
 10
58.5943542267
 20
69.0569930905
 10
58.5898871686
 20
69.0199518297
 10
58.5826745501
 20
68.985061012
 10
58.5727505496
 20
68.9524859757
 10
58.5601621938
 20
68.9223810856
 10
58.5449691351
 20
68.894889001
 10
58.5272433689
 20
68.8701399999
 10
58.5070688926
 20
68.8482513616
 10
58.4845413072
 20
68.8293268109
  0
LWPOLYLINE
  5
3C6
100
AcDbEntity
  8
RACCORDO
100
AcDbPolyline
 62
7
  6
CONTINUOUS
 90
19
 70
0
 10
53.8522021925
 20
98.6606841772
 10
53.8085332834
 20
98.7274330169
 10
53.7776298186
 20
98.7752322201
 10
53.7484750522
 20
98.8212587748
 10
53.7210812138
 20
98.865502354
 10
53.6954309973
 20
98.9078688221
 10
53.6716236217
 20
98.9484550339
 10
53.6496831284
 20
98.987237811
 10
53.6295802008
 20
99.0242064541
 10
53.6113347071
 20
99.059478178
 10
53.594949502
 20
99.0930625658
 10
53.5804168372
 20
99.1249574513
 10
53.5677413263
 20
99.1552584819
 10
53.5569166334
 20
99.1840250922
 10
53.5479446779
 20
99.2112299376
 10
53.5408425132
 20
99.2368459029
 10
53.535614072
 20
99.2608929045
 10
53.5322504175
 20
99.2834305929
 10
53.5307491166
 20
99.3045041125
  0
LWPOLYLINE
  5
3C7
100
AcDbEntity
  8
RACCORDO
100
AcDbPolyline
 62
7
  6
CONTINUOUS
 90
4
 70
0
 10
54.8603194141
 20
77.2248724521
 10
54.8616763362
 20
77.2209726576
 10
54.8668168065
 20
77.2010508651
 10
54.870301749
 20
77.180773849
  0
LINE
  5
3C8
100
AcDbEntity
  8
RACCORDO
100
AcDbLine
 62
7
  6
CONTINUOUS
 10
59.2028515528
 20
108.7559847386
 11
57.3681219173
 21
109.0794970756
  0
LWPOLYLINE
  5
3C9
100
AcDbEntity
  8
RACCORDO
100
AcDbPolyline
 62
253
  6
CONTINUOUS
 90
10
 70
0
 10
54.0904353952
 20
68.7899263508
 10
53.6866005517
 20
71.132033561
 10
53.316133504
 20
73.4796496558
 10
52.9790346531
 20
75.8322875902
 10
52.6752508242
 20
78.1894456634
 10
52.4048359904
 20
80.5506518907
 10
52.1679512886
 20
82.9154642495
 10
51.9646507141
 20
85.2834113473
 10
51.7948811048
 20
87.6539921747
 10
51.6586428755
 20
90.0267206501
  0
LWPOLYLINE
  5
3CA
100
AcDbEntity
  8
ASSI
100
AcDbPolyline
 62
253
  6
CONTINUOUS
 90
10
 70
0
 10
54.0904353952
 20
68.7899263508
 10
53.6866005517
 20
71.132033561
 10
53.316133504
 20
73.4796496558
 10
52.9790346531
 20
75.8322875902
 10
52.6752508242
 20
78.1894456634
 10
52.4048359904
 20
80.5506518907
 10
52.1679512886
 20
82.9154642495
 10
51.9646507141
 20
85.2834113473
 10
51.7948811048
 20
87.6539921747
 10
51.6586428755
 20
90.0267206501
  0
LINE
  5
3CB
100
AcDbEntity
  8
RACCORDO
100
AcDbLine
 62
253
  6
CONTINUOUS
 10
54.1351980409
 20
68.1100428722
 11
54.1277622104
 21
68.1976168218
  0
LINE
  5
3CC
100
AcDbEntity
  8
ASSI
100
AcDbLine
 62
253
  6
CONTINUOUS
 10
54.1351980409
 20
68.1100428722
 11
54.1277622104
 21
68.1976168218
  0
LINE
  5
3CD
100
AcDbEntity
  8
RACCORDO
100
AcDbLine
 62
253
  6
CONTINUOUS
 10
54.1277622104
 20
68.1976168218
 11
54.1203682949
 21
68.2933400685
  0
LINE
  5
3CE
100
AcDbEntity
  8
ASSI
100
AcDbLine
 62
253
  6
CONTINUOUS
 10
54.1277622104
 20
68.1976168218
 11
54.1203682949
 21
68.2933400685
  0
LINE
  5
3CF
100
AcDbEntity
  8
RACCORDO
100
AcDbLine
 62
253
  6
CONTINUOUS
 10
54.1203682949
 20
68.2933400685
 11
54.1131226159
 21
68.3960059678
  0
LINE
  5
3D0
100
AcDbEntity
  8
ASSI
100
AcDbLine
 62
253
  6
CONTINUOUS
 10
54.1203682949
 20
68.2933400685
 11
54.1131226159
 21
68.3960059678
  0
LINE
  5
3D1
100
AcDbEntity
  8
RACCORDO
100
AcDbLine
 62
253
  6
CONTINUOUS
 10
54.1131226159
 20
68.3960059678
 11
54.1061572975
 21
68.5042543601
  0
LINE
  5
3D2
100
AcDbEntity
  8
ASSI
100
AcDbLine
 62
253
  6
CONTINUOUS
 10
54.1131226159
 20
68.3960059678
 11
54.1061572975
 21
68.5042543601
  0
LINE
  5
3D3
100
AcDbEntity
  8
RACCORDO
100
AcDbLine
 62
253
  6
CONTINUOUS
 10
54.1061572975
 20
68.5042543601
 11
54.0995249678
 21
68.6166745819
  0
LINE
  5
3D4
100
AcDbEntity
  8
ASSI
100
AcDbLine
 62
253
  6
CONTINUOUS
 10
54.1061572975
 20
68.5042543601
 11
54.0995249678
 21
68.6166745819
  0
LINE
  5
3D5
100
AcDbEntity
  8
RACCORDO
100
AcDbLine
 62
253
  6
CONTINUOUS
 10
54.0995249678
 20
68.6166745819
 11
54.0904353968
 21
68.7899263506
  0
LINE
  5
3D6
100
AcDbEntity
  8
ASSI
100
AcDbLine
 62
253
  6
CONTINUOUS
 10
54.0995249678
 20
68.6166745819
 11
54.0904353968
 21
68.7899263506
  0
LWPOLYLINE
  5
3D7
100
AcDbEntity
  8
RACCORDO
100
AcDbPolyline
 62
253
  6
CONTINUOUS
 90
12
 70
0
 10
51.6586428755
 20
90.0267206501
 10
51.4816807045
 20
93.8735534431
 10
51.3411057212
 20
97.6190082851
 10
51.231766369
 20
101.365507095
 10
51.1536593906
 20
105.112784492
 10
51.1067880401
 20
108.8605801041
 10
51.0911620845
 20
112.6086385703
 10
51.1067880353
 20
116.3566969931
 10
51.153659381
 20
120.104492533
 10
51.2317663572
 20
123.8517699156
 10
51.3411057107
 20
127.5982687977
 10
51.4816806979
 20
131.3437237694
  0
LWPOLYLINE
  5
3D8
100
AcDbEntity
  8
ASSI
100
AcDbPolyline
 62
253
  6
CONTINUOUS
 90
12
 70
0
 10
51.6586428755
 20
90.0267206501
 10
51.4816807045
 20
93.8735534431
 10
51.3411057212
 20
97.6190082851
 10
51.231766369
 20
101.365507095
 10
51.1536593906
 20
105.112784492
 10
51.1067880401
 20
108.8605801041
 10
51.0911620845
 20
112.6086385703
 10
51.1067880353
 20
116.3566969931
 10
51.153659381
 20
120.104492533
 10
51.2317663572
 20
123.8517699156
 10
51.3411057107
 20
127.5982687977
 10
51.4816806979
 20
131.3437237694
  0
LINE
  5
3D9
100
AcDbEntity
  8
RACCORDO
100
AcDbLine
 62
253
  6
CONTINUOUS
 10
51.4816806979
 20
131.3437237694
 11
51.6586428755
 21
135.1905567498
  0
LINE
  5
3DA
100
AcDbEntity
  8
ASSI
100
AcDbLine
 62
253
  6
CONTINUOUS
 10
51.4816806979
 20
131.3437237694
 11
51.6586428755
 21
135.1905567498
  0
LINE
  5
3DB
100
AcDbEntity
  8
RACCORDO
100
AcDbLine
 62
253
  6
CONTINUOUS
 10
54.0904353968
 20
156.4273510489
 11
54.0995201872
 21
156.6005110722
  0
LINE
  5
3DC
100
AcDbEntity
  8
ASSI
100
AcDbLine
 62
253
  6
CONTINUOUS
 10
54.0904353968
 20
156.4273510489
 11
54.0995201872
 21
156.6005110722
  0
LWPOLYLINE
  5
3DD
100
AcDbEntity
  8
RACCORDO
100
AcDbPolyline
 62
253
  6
CONTINUOUS
 90
10
 70
0
 10
51.6586428755
 20
135.1905567498
 10
51.794881091
 20
137.563284951
 10
51.9646506833
 20
139.9338655563
 10
52.1679512376
 20
142.301812484
 10
52.4048359072
 20
144.6666247021
 10
52.6752507056
 20
147.0278308405
 10
52.9790345224
 20
149.3849889441
 10
53.3161333935
 20
151.7376270497
 10
53.6866004847
 20
154.0852434332
 10
54.0904353951
 20
156.4273510488
  0
LWPOLYLINE
  5
3DE
100
AcDbEntity
  8
ASSI
100
AcDbPolyline
 62
253
  6
CONTINUOUS
 90
10
 70
0
 10
51.6586428755
 20
135.1905567498
 10
51.794881091
 20
137.563284951
 10
51.9646506833
 20
139.9338655563
 10
52.1679512376
 20
142.301812484
 10
52.4048359072
 20
144.6666247021
 10
52.6752507056
 20
147.0278308405
 10
52.9790345224
 20
149.3849889441
 10
53.3161333935
 20
151.7376270497
 10
53.6866004847
 20
154.0852434332
 10
54.0904353951
 20
156.4273510488
  0
LINE
  5
3DF
100
AcDbEntity
  8
RACCORDO
100
AcDbLine
 62
253
  6
CONTINUOUS
 10
54.0995201872
 20
156.6005110722
 11
54.1061412229
 21
156.7127317126
  0
LINE
  5
3E0
100
AcDbEntity
  8
ASSI
100
AcDbLine
 62
253
  6
CONTINUOUS
 10
54.0995201872
 20
156.6005110722
 11
54.1061412229
 21
156.7127317126
  0
LINE
  5
3E1
100
AcDbEntity
  8
RACCORDO
100
AcDbLine
 62
253
  6
CONTINUOUS
 10
54.1061412229
 20
156.7127317126
 11
54.1130982654
 21
156.8209060318
  0
LINE
  5
3E2
100
AcDbEntity
  8
ASSI
100
AcDbLine
 62
253
  6
CONTINUOUS
 10
54.1061412229
 20
156.7127317126
 11
54.1130982654
 21
156.8209060318
  0
LINE
  5
3E3
100
AcDbEntity
  8
RACCORDO
100
AcDbLine
 62
253
  6
CONTINUOUS
 10
54.1130982654
 20
156.8209060318
 11
54.120344368
 21
156.923629324
  0
LINE
  5
3E4
100
AcDbEntity
  8
ASSI
100
AcDbLine
 62
253
  6
CONTINUOUS
 10
54.1130982654
 20
156.8209060318
 11
54.120344368
 21
156.923629324
  0
LINE
  5
3E5
100
AcDbEntity
  8
RACCORDO
100
AcDbLine
 62
253
  6
CONTINUOUS
 10
54.120344368
 20
156.923629324
 11
54.1277365653
 21
157.0193784677
  0
LINE
  5
3E6
100
AcDbEntity
  8
ASSI
100
AcDbLine
 62
253
  6
CONTINUOUS
 10
54.120344368
 20
156.923629324
 11
54.1277365653
 21
157.0193784677
  0
LWPOLYLINE
  5
3E7
100
AcDbEntity
  8
RACCORDO
100
AcDbPolyline
 62
253
  6
CONTINUOUS
 90
16
 70
0
 10
54.1277365653
 20
157.0193784677
 10
54.1351721367
 20
157.1069804963
 10
54.138892286
 20
157.1473759632
 10
54.142578961
 20
157.1853295627
 10
54.1462259999
 20
157.2207194834
 10
54.1498344722
 20
157.2534361424
 10
54.1533772996
 20
157.2833816461
 10
54.1568448113
 20
157.3104621433
 10
54.1602346022
 20
157.3345892188
 10
54.1635288976
 20
157.3556852373
 10
54.1667138798
 20
157.3736806185
 10
54.1697838462
 20
157.3885224147
 10
54.1727318998
 20
157.4001688652
 10
54.1755475119
 20
157.4085806692
 10
54.1782160504
 20
157.4137257564
 10
54.1807232952
 20
157.4155846037
  0
LWPOLYLINE
  5
3E8
100
AcDbEntity
  8
ASSI
100
AcDbPolyline
 62
253
  6
CONTINUOUS
 90
16
 70
0
 10
54.1277365653
 20
157.0193784677
 10
54.1351721367
 20
157.1069804963
 10
54.138892286
 20
157.1473759632
 10
54.142578961
 20
157.1853295627
 10
54.1462259999
 20
157.2207194834
 10
54.1498344722
 20
157.2534361424
 10
54.1533772996
 20
157.2833816461
 10
54.1568448113
 20
157.3104621433
 10
54.1602346022
 20
157.3345892188
 10
54.1635288976
 20
157.3556852373
 10
54.1667138798
 20
157.3736806185
 10
54.1697838462
 20
157.3885224147
 10
54.1727318998
 20
157.4001688652
 10
54.1755475119
 20
157.4085806692
 10
54.1782160504
 20
157.4137257564
 10
54.1807232952
 20
157.4155846037
  0
LWPOLYLINE
  5
3E9
100
AcDbEntity
  8
RACCORDO
100
AcDbPolyline
 62
253
  6
CONTINUOUS
 90
3
 70
0
 10
54.9359435725
 20
146.1679997746
 10
55.0245089898
 20
146.9031993594
 10
55.0428467423
 20
147.0520769834
  0
LWPOLYLINE
  5
3EA
100
AcDbEntity
  8
0
100
AcDbPolyline
 62
7
  6
CONTINUOUS
 90
19
 70
0
 10
54.9876356105
 20
148.9236326738
 10
54.9984532623
 20
148.9886898104
 10
55.0127205699
 20
149.0523489597
 10
55.0304375331
 20
149.1146101216
 10
55.0517464417
 20
149.1757231097
 10
55.0765050061
 20
149.2354381104
 10
55.1042863575
 20
149.2930056829
 10
55.1350613847
 20
149.3482895053
 10
55.168859199
 20
149.4014258997
 10
55.2053402654
 20
149.4520743912
 10
55.2445816489
 20
149.5002866199
 10
55.2865062846
 20
149.5460109458
 10
55.330543443
 20
149.5887519747
 10
55.3767327708
 20
149.6284547424
 10
55.4250346212
 20
149.6651742131
 10
55.4747593246
 20
149.6985798854
 10
55.5258070831
 20
149.7285777386
 10
55.5782776944
 20
149.7552617934
 10
55.6022281149
 20
149.7657016819
  0
LWPOLYLINE
  5
3EB
100
AcDbEntity
  8
RACCORDO
100
AcDbPolyline
 62
7
  6
CONTINUOUS
 90
4
 70
0
 10
54.8703017489
 20
148.0365035504
 10
54.8668168064
 20
148.0162265344
 10
54.861676336
 20
147.9963047419
 10
54.8603194628
 20
147.9924050876
  0
LINE
  5
3EC
100
AcDbEntity
  8
RACCORDO
100
AcDbLine
 62
7
  6
CONTINUOUS
 10
53.8083197761
 20
126.4895158625
 11
53.8522022175
 21
126.5565940384
  0
LINE
  5
3ED
100
AcDbEntity
  8
RACCORDO
100
AcDbLine
 62
7
  6
CONTINUOUS
 10
53.1430247317
 20
113.0023283933
 11
53.6330364068
 21
113.0151598006
  0
LINE
  5
3EE
100
AcDbEntity
  8
0
100
AcDbLine
 62
253
  6
CONTINUOUS
 10
57.2028515528
 20
112.6086387
 11
53.6328515528
 21
112.6086387
  0
LINE
  5
3EF
100
AcDbEntity
  8
RACCORDO
100
AcDbLine
 62
7
  6
CONTINUOUS
 10
53.6330364068
 20
112.2021175994
 11
53.1430247317
 21
112.2149490067
  0
LWPOLYLINE
  5
3F0
100
AcDbEntity
  8
RACCORDO
100
AcDbPolyline
 62
7
  6
CONTINUOUS
 90
4
 70
0
 10
53.14373618
 20
110.4604734081
 10
53.1441227443
 20
110.45878962
 10
53.1471437002
 20
110.4369492636
 10
53.1482286107
 20
110.414927678
  0
LWPOLYLINE
  5
3F1
100
AcDbEntity
  8
RACCORDO
100
AcDbPolyline
 62
253
  6
CONTINUOUS
 90
3
 70
0
 10
55.0428467423
 20
78.1652004165
 10
54.9535725746
 20
78.9007132427
 10
54.9359435725
 20
79.0492776254
  0
LWPOLYLINE
  5
3F2
100
AcDbEntity
  8
RACCORDO
100
AcDbPolyline
 62
7
  6
CONTINUOUS
 90
3
 70
0
 10
54.1229153041
 20
141.1766949777
 10
54.1239647138
 20
141.1566093055
 10
54.1230302375
 20
141.1334880571
  0
LINE
  5
3F3
100
AcDbEntity
  8
RACCORDO
100
AcDbLine
 62
7
  6
CONTINUOUS
 10
53.8121182559
 20
91.9078586177
 11
53.813730577
 21
91.8730863704
  0
LWPOLYLINE
  5
3F4
100
AcDbEntity
  8
RACCORDO
100
AcDbPolyline
 62
7
  6
CONTINUOUS
 90
3
 70
0
 10
54.1230302375
 20
84.0837893428
 10
54.1239647138
 20
84.0606680945
 10
54.1229153111
 20
84.0405825551
  0
LINE
  5
3F5
100
AcDbEntity
  8
RACCORDO
100
AcDbLine
 62
253
  6
CONTINUOUS
 10
53.7766583724
 20
95.1983567259
 11
53.7454722409
 21
96.0181040365
  0
LINE
  5
3F6
100
AcDbEntity
  8
RACCORDO
100
AcDbLine
 62
7
  6
CONTINUOUS
 10
53.5307491166
 20
99.3045041126
 11
53.5305362746
 21
99.3116588605
  0
LWPOLYLINE
  5
3F7
100
AcDbEntity
  8
RACCORDO
100
AcDbPolyline
 62
7
  6
CONTINUOUS
 90
22
 70
0
 10
53.5114024351
 20
99.9714023385
 10
53.5112308094
 20
99.9948648187
 10
53.5121219237
 20
100.0180049756
 10
53.5141842488
 20
100.0407622172
 10
53.5175506488
 20
100.0631174299
 10
53.5223189385
 20
100.0848975005
 10
53.5284813051
 20
100.1057887164
 10
53.5360289615
 20
100.1254939294
 10
53.5450280452
 20
100.1440306905
 10
53.5555201228
 20
100.1615666908
 10
53.5674949906
 20
100.1779259931
 10
53.5810038466
 20
100.1929720091
 10
53.5962174607
 20
100.2069277057
 10
53.6132446243
 20
100.2196778203
 10
53.6320573884
 20
100.23094048
 10
53.6526373736
 20
100.2406902371
 10
53.6749812601
 20
100.2487658733
 10
53.6990571037
 20
100.2549492556
 10
53.7247634185
 20
100.2591717228
 10
53.7520566608
 20
100.2613140319
 10
53.7808113837
 20
100.2611771151
 10
53.8038089779
 20
100.2592279132
  0
LWPOLYLINE
  5
3F8
100
AcDbEntity
  8
RACCORDO
100
AcDbPolyline
 62
7
  6
CONTINUOUS
 90
18
 70
0
 10
53.8121182559
 20
91.9078586178
 10
53.8119984733
 20
91.9287692974
 10
53.8136182468
 20
91.9511700675
 10
53.816980146
 20
91.9751109569
 10
53.8220839821
 20
92.0006522191
 10
53.8289352391
 20
92.0278226874
 10
53.8375448808
 20
92.0566140445
 10
53.8479157475
 20
92.0870093562
 10
53.8600498887
 20
92.1190698093
 10
53.8739572137
 20
92.1528980686
 10
53.8896506454
 20
92.1885010879
 10
53.9071226834
 20
92.2258891004
 10
53.9263532318
 20
92.2651722144
 10
53.9474018227
 20
92.3063855639
 10
53.9702147589
 20
92.3494653562
 10
53.9946022571
 20
92.3943614951
 10
54.0206513054
 20
92.4410710788
 10
54.0482796343
 20
92.4894801412
  0
LINE
  5
3F9
100
AcDbEntity
  8
ASSI
100
AcDbLine
 62
7
  6
CONTINUOUS
 10
53.6028515528
 20
132.9870857052
 11
53.6028515528
 21
132.8936235824
  0
LINE
  5
3FA
100
AcDbEntity
  8
ASSI
100
AcDbLine
 62
7
  6
CONTINUOUS
 10
53.6028515528
 20
92.3237149783
 11
53.6028515528
 21
92.2301916947
  0
LINE
  5
3FB
100
AcDbEntity
  8
ASSI
100
AcDbLine
 62
7
  6
CONTINUOUS
 10
53.6528515528
 20
91.1455658777
 11
53.6528515528
 21
91.250580943
  0
LINE
  5
3FC
100
AcDbEntity
  8
ASSI
100
AcDbLine
 62
7
  6
CONTINUOUS
 10
53.8528515528
 20
137.6958489608
 11
53.8528515528
 21
137.5910963938
  0
LINE
  5
3FD
100
AcDbEntity
  8
ASSI
100
AcDbLine
 62
7
  6
CONTINUOUS
 10
53.9028515528
 20
86.8289220279
 11
53.9028515528
 21
86.8885963981
  0
LINE
  5
3FE
100
AcDbEntity
  8
ASSI
100
AcDbLine
 62
7
  6
CONTINUOUS
 10
53.9028515528
 20
138.3286874433
 11
53.9028515528
 21
138.388355257
  0
LINE
  5
3FF
100
AcDbEntity
  8
RACCORDO
100
AcDbLine
 62
253
  6
CONTINUOUS
 10
53.4377959879
 20
112.2072301497
 11
53.4377959879
 21
113.0100472503
  0
LINE
  5
400
100
AcDbEntity
  8
RACCORDO
100
AcDbLine
 62
7
  6
CONTINUOUS
 10
53.5307491166
 20
125.9127732873
 11
53.5305362601
 21
125.9056180515
  0
LINE
  5
401
100
AcDbEntity
  8
RACCORDO
100
AcDbLine
 62
253
  6
CONTINUOUS
 10
53.7454722409
 20
129.1991733635
 11
53.7766583724
 21
130.0189206741
  0
LINE
  5
402
100
AcDbEntity
  8
RACCORDO
100
AcDbLine
 62
7
  6
CONTINUOUS
 10
53.8121182559
 20
133.3094187823
 11
53.8137305595
 21
133.3441906525
  0
LWPOLYLINE
  5
403
100
AcDbEntity
  8
RACCORDO
100
AcDbPolyline
 62
7
  6
CONTINUOUS
 90
4
 70
0
 10
53.1482286107
 20
114.8023497219
 10
53.1471437002
 20
114.7803281363
 10
53.1441227443
 20
114.75848778
 10
53.14373618
 20
114.7568039918
  0
LWPOLYLINE
  5
404
100
AcDbEntity
  8
RACCORDO
100
AcDbPolyline
 62
7
  6
CONTINUOUS
 90
23
 70
0
 10
53.8447573578
 20
134.0023034046
 10
53.8463664283
 20
134.0256541533
 10
53.8489612026
 20
134.0483257316
 10
53.8525920081
 20
134.070251373
 10
53.8573168271
 20
134.091328694
 10
53.8631749988
 20
134.1114812452
 10
53.8701576887
 20
134.1306727764
 10
53.8781943014
 20
134.1486398305
 10
53.8873501115
 20
134.1654308435
 10
53.8978533697
 20
134.181464472
 10
53.9098264353
 20
134.1966942824
 10
53.9232715264
 20
134.2108441947
 10
53.9383072665
 20
134.2239557801
 10
53.9550288196
 20
134.2358701953
 10
53.9734324611
 20
134.2463446535
 10
53.9934724603
 20
134.2553090163
 10
54.0151564461
 20
134.2625925831
 10
54.0384464707
 20
134.267984119
 10
54.0631735599
 20
134.2714186404
 10
54.0892332264
 20
134.2727860668
 10
54.1165565334
 20
134.2719200038
 10
54.1449808346
 20
134.2687365271
 10
54.1593266965
 20
134.2660093992
  0
LINE
  5
405
100
AcDbEntity
  8
RACCORDO
100
AcDbLine
 62
7
  6
CONTINUOUS
 10
53.5307491166
 20
125.9127732874
 11
53.5322430115
 21
125.9338097125
  0
LWPOLYLINE
  5
406
100
AcDbEntity
  8
RACCORDO
100
AcDbPolyline
 62
7
  6
CONTINUOUS
 90
17
 70
0
 10
53.5322430115
 20
125.9338097125
 10
53.5355987881
 20
125.9563152849
 10
53.5408189077
 20
125.9803361477
 10
53.547912464
 20
126.0059360334
 10
53.5568754376
 20
126.0331330045
 10
53.567690404
 20
126.0618910238
 10
53.5803565448
 20
126.0921812132
 10
53.5948790869
 20
126.1240644059
 10
53.6112496745
 20
126.1576302044
 10
53.6294725389
 20
126.1928699194
 10
53.649548279
 20
126.2297984452
 10
53.6714637599
 20
126.2685451561
 10
53.6952483883
 20
126.3091019256
 10
53.7208780752
 20
126.3514441312
 10
53.7482601961
 20
126.3956759948
 10
53.7774111886
 20
126.4417026884
 10
53.8083197761
 20
126.4895158625
  0
LINE
  5
407
100
AcDbEntity
  8
RACCORDO
100
AcDbLine
 62
7
  6
CONTINUOUS
 10
57.3681219173
 20
116.1377803244
 11
59.2028515528
 21
116.4612926614
  0
LINE
  5
408
100
AcDbEntity
  8
RACCORDO
100
AcDbLine
 62
7
  6
CONTINUOUS
 10
57.2028515528
 20
109.2764586262
 11
57.2028515528
 21
115.9408187737
  0
LINE
  5
409
100
AcDbEntity
  8
RACCORDO
100
AcDbLine
 62
7
  6
CONTINUOUS
 10
59.2028515528
 20
69.508638621
 11
59.2028515528
 21
90.2400295074
  0
LINE
  5
40A
100
AcDbEntity
  8
DRAFT
100
AcDbLine
 62
7
  6
CONTINUOUS
 10
59.2028515528
 20
90.2400295074
 11
59.2028515528
 21
108.7559847386
  0
LINE
  5
40B
100
AcDbEntity
  8
DRAFT
100
AcDbLine
 62
7
  6
CONTINUOUS
 10
59.2028515528
 20
116.4612926614
 11
59.2028515528
 21
134.9772478925
  0
LINE
  5
40C
100
AcDbEntity
  8
RACCORDO
100
AcDbLine
 62
7
  6
CONTINUOUS
 10
59.2028515528
 20
134.9772478925
 11
59.2028515528
 21
155.7086387051
  0
LWPOLYLINE
  5
40D
100
AcDbEntity
  8
RACCORDO
100
AcDbPolyline
 62
7
  6
CONTINUOUS
 90
22
 70
0
 10
53.8038082138
 20
124.958019112
 10
53.7784649833
 20
124.9560032888
 10
53.7489940049
 20
124.9560838271
 10
53.721006221
 20
124.9585817813
 10
53.6946071086
 20
124.9633053029
 10
53.6698958131
 20
124.9701335697
 10
53.6471135752
 20
124.9789611274
 10
53.6263112204
 20
124.9895250642
 10
53.6074455067
 20
125.001637677
 10
53.5905431056
 20
125.0152275602
 10
53.5755811463
 20
125.0300266622
 10
53.5624537697
 20
125.0458507465
 10
53.5510434252
 20
125.0627397119
 10
53.5412605003
 20
125.0805452373
 10
53.5330382676
 20
125.0990568661
 10
53.5262937507
 20
125.1182328047
 10
53.5209624864
 20
125.1377864807
 10
53.516896592
 20
125.1577445368
 10
53.5139460986
 20
125.1785565712
 10
53.5120630877
 20
125.2003199873
 10
53.5112296156
 20
125.2227795673
 10
53.5114024242
 20
125.2458746086
  0
LWPOLYLINE
  5
40E
100
AcDbEntity
  8
RACCORDO
100
AcDbPolyline
 62
7
  6
CONTINUOUS
 90
7
 70
0
 10
53.388692624
 20
125.7101252216
 10
53.4047471689
 20
125.7108008148
 10
53.423512058
 20
125.713342393
 10
53.4449887511
 20
125.7177496342
 10
53.4691786454
 20
125.724018523
 10
53.4960830732
 20
125.7321413342
 10
53.5257032983
 20
125.7421066251
  0
LINE
  5
40F
100
AcDbEntity
  8
0
100
AcDbLine
 62
7
  6
CONTINUOUS
 10
53.388692624
 20
125.7101252216
 11
53.3347110914
 21
125.7110674727
  0
LWPOLYLINE
  5
410
100
AcDbEntity
  8
RACCORDO
100
AcDbPolyline
 62
253
  6
CONTINUOUS
 90
3
 70
0
 10
53.8319267349
 20
125.8964535035
 10
53.5320238498
 20
125.9055559125
 10
53.5305362823
 20
125.9056180509
  0
LWPOLYLINE
  5
411
100
AcDbEntity
  8
RACCORDO
100
AcDbPolyline
 62
7
  6
CONTINUOUS
 90
19
 70
0
 10
54.0833941944
 20
132.6670160808
 10
54.0485649187
 20
132.7272997036
 10
54.0209494879
 20
132.7756757973
 10
53.9948988281
 20
132.8223780595
 10
53.9704939272
 20
132.8672936481
 10
53.947649247
 20
132.9104160894
 10
53.9265665545
 20
132.9516791803
 10
53.907301009
 20
132.9910184795
 10
53.8897916702
 20
133.0284682039
 10
53.8740662069
 20
133.0641238245
 10
53.8601354785
 20
133.0979902293
 10
53.8479831363
 20
133.1300808207
 10
53.8375966298
 20
133.1605021653
 10
53.828973264
 20
133.1893134438
 10
53.8221108151
 20
133.2165003016
 10
53.816997622
 20
133.2420638705
 10
53.8136280002
 20
133.2660351322
 10
53.8120023944
 20
133.2884703555
 10
53.8121182559
 20
133.3094187822
  0
LINE
  5
412
100
AcDbEntity
  8
RACCORDO
100
AcDbLine
 62
7
  6
CONTINUOUS
 10
54.0482796343
 20
92.4894801412
 11
54.0833941403
 21
92.5502624513
  0
LINE
  5
413
100
AcDbEntity
  8
RACCORDO
100
AcDbLine
 62
7
  6
CONTINUOUS
 10
53.4813656203
 20
130.0111881612
 11
53.9722379722
 21
130.0240421061
  0
LINE
  5
414
100
AcDbEntity
  8
0
100
AcDbLine
 62
253
  6
CONTINUOUS
 10
53.3651008046
 20
126.7103847135
 11
53.8566621947
 21
126.7018044775
  0
LINE
  5
415
100
AcDbEntity
  8
RACCORDO
100
AcDbLine
 62
7
  6
CONTINUOUS
 10
53.4507877851
 20
129.2068899475
 11
53.9406491157
 21
129.1940624771
  0
LINE
  5
416
100
AcDbEntity
  8
0
100
AcDbLine
 62
253
  6
CONTINUOUS
 10
54.0766376149
 20
132.5193126077
 11
53.5856433371
 21
132.5107422707
  0
LINE
  5
417
100
AcDbEntity
  8
0
100
AcDbLine
 62
7
  6
CONTINUOUS
 10
53.6845173625
 20
133.5123158184
 11
53.6313132918
 21
133.5113871379
  0
LWPOLYLINE
  5
418
100
AcDbEntity
  8
RACCORDO
100
AcDbPolyline
 62
253
  6
CONTINUOUS
 90
4
 70
0
 10
53.8137305817
 20
133.3441906526
 10
53.8152164344
 20
133.3440937711
 10
53.819665083
 20
133.343859603
 10
54.1148731047
 20
133.3299017466
  0
LWPOLYLINE
  5
419
100
AcDbEntity
  8
RACCORDO
100
AcDbPolyline
 62
7
  6
CONTINUOUS
 90
7
 70
0
 10
53.8200358467
 20
133.4796166544
 10
53.7910309135
 20
133.4897470949
 10
53.7645948196
 20
133.4980350468
 10
53.7407265562
 20
133.5044554662
 10
53.7194250275
 20
133.508986927
 10
53.7006890516
 20
133.5116116987
 10
53.6845173625
 20
133.5123158184
  0
LINE
  5
41A
100
AcDbEntity
  8
RACCORDO
100
AcDbLine
 62
253
  6
CONTINUOUS
 10
51.6534913202
 20
135.0878719499
 11
53.6996953773
 21
135.0878719499
  0
LINE
  5
41B
100
AcDbEntity
  8
ASSI
100
AcDbLine
 62
253
  6
CONTINUOUS
 10
51.6534913202
 20
135.0878719499
 11
53.6996953773
 21
135.0878719499
  0
LWPOLYLINE
  5
41C
100
AcDbEntity
  8
0
100
AcDbPolyline
 62
253
  6
CONTINUOUS
 90
3
 70
0
 10
54.1969351741
 20
135.0579720334
 10
58.8089475913
 20
134.9841169434
 10
59.2028515528
 20
134.9772478925
  0
LINE
  5
41D
100
AcDbEntity
  8
RACCORDO
100
AcDbLine
 62
253
  6
CONTINUOUS
 10
51.1976942777
 20
135.1106824308
 11
51.6534913202
 21
135.0878719499
  0
LINE
  5
41E
100
AcDbEntity
  8
ASSI
100
AcDbLine
 62
253
  6
CONTINUOUS
 10
51.1976942777
 20
135.1106824308
 11
51.6534913202
 21
135.0878719499
  0
LINE
  5
41F
100
AcDbEntity
  8
RACCORDO
100
AcDbLine
 62
253
  6
CONTINUOUS
 10
51.2028515688
 20
135.2134542577
 11
51.6586428756
 21
135.1905567498
  0
LINE
  5
420
100
AcDbEntity
  8
ASSI
100
AcDbLine
 62
253
  6
CONTINUOUS
 10
51.2028515688
 20
135.2134542577
 11
51.6586428756
 21
135.1905567498
  0
LINE
  5
421
100
AcDbEntity
  8
RACCORDO
100
AcDbLine
 62
253
  6
CONTINUOUS
 10
53.7404505804
 20
135.0805914106
 11
54.1968815271
 21
135.0568423298
  0
LINE
  5
422
100
AcDbEntity
  8
RACCORDO
100
AcDbLine
 62
253
  6
CONTINUOUS
 10
53.9444672312
 20
138.1886034403
 11
54.3856573068
 21
138.1570991965
  0
LWPOLYLINE
  5
423
100
AcDbEntity
  8
RACCORDO
100
AcDbPolyline
 62
253
  6
CONTINUOUS
 90
4
 70
0
 10
53.7075535209
 20
135.0825809222
 10
53.7096170756
 20
135.0823924653
 10
53.7158076904
 20
135.081996827
 10
53.7404505804
 20
135.0805914106
  0
LWPOLYLINE
  5
424
100
AcDbEntity
  8
RACCORDO
100
AcDbPolyline
 62
253
  6
CONTINUOUS
 90
5
 70
0
 10
53.893293991
 20
138.1927159103
 10
53.8953515642
 20
138.1924570743
 10
53.901531732
 20
138.1919135752
 10
53.9118089024
 20
138.1910876637
 10
53.9444672312
 20
138.1886034403
  0
LINE
  5
425
100
AcDbEntity
  8
RACCORDO
100
AcDbLine
 62
7
  6
CONTINUOUS
 10
54.6400094828
 20
146.1757490814
 11
55.1318961672
 21
146.1628685753
  0
LINE
  5
426
100
AcDbEntity
  8
RACCORDO
100
AcDbLine
 62
7
  6
CONTINUOUS
 10
54.7448388041
 20
147.0442733709
 11
55.2401709924
 21
147.0572441008
  0
LWPOLYLINE
  5
427
100
AcDbEntity
  8
RACCORDO
100
AcDbPolyline
 62
253
  6
CONTINUOUS
 90
19
 70
0
 10
58.484541342
 20
156.3879506365
 10
58.507068893
 20
156.3690261212
 10
58.5272433462
 20
156.347137522
 10
58.5449690995
 20
156.3223885615
 10
58.5601621547
 20
156.2948965173
 10
58.572750515
 20
156.2647916653
 10
58.5826745268
 20
156.2322166626
 10
58.5898871617
 20
156.1973258717
 10
58.5943542397
 20
156.1602846297
 10
58.5960545912
 20
156.1212684644
 10
58.5949801574
 20
156.0804622614
 10
58.5911360285
 20
156.0380593899
 10
58.5845404197
 20
155.9942607862
 10
58.5752245847
 20
155.9492739994
 10
58.5632326677
 20
155.9033122095
 10
58.5486214948
 20
155.856593219
 10
58.531460304
 20
155.8093384172
 10
58.5118304168
 20
155.7617717313
 10
58.4898248534
 20
155.714118567
  0
LWPOLYLINE
  5
428
100
AcDbEntity
  8
RACCORDO
100
AcDbPolyline
 62
253
  6
CONTINUOUS
 90
13
 70
0
 10
58.4898249439
 20
155.7141185615
 10
58.5713064689
 20
155.6652619584
 10
58.6481155951
 20
155.6170643674
 10
58.7203758399
 20
155.5695292939
 10
58.7880617433
 20
155.5225984998
 10
58.8514551539
 20
155.4763369444
 10
58.9111181842
 20
155.4309326614
 10
58.9670700796
 20
155.3865110569
 10
59.0194950409
 20
155.3429526713
 10
59.0691512036
 20
155.3000773812
 10
59.1163270291
 20
155.2578262677
 10
59.1608706556
 20
155.2162622685
 10
59.2028515663
 20
155.17538736
  0
LINE
  5
429
100
AcDbEntity
  8
RACCORDO
100
AcDbLine
 62
253
  6
CONTINUOUS
 10
54.0904353951
 20
156.4273510488
 11
56.2016405399
 21
156.6121598008
  0
LINE
  5
42A
100
AcDbEntity
  8
ASSI
100
AcDbLine
 62
253
  6
CONTINUOUS
 10
54.0904353951
 20
156.4273510488
 11
56.2016405399
 21
156.6121598008
  0
LINE
  5
42B
100
AcDbEntity
  8
RACCORDO
100
AcDbLine
 62
7
  6
CONTINUOUS
 10
54.1807232952
 20
157.4155846037
 11
56.3873417131
 21
157.6086387
  0
LINE
  5
42C
100
AcDbEntity
  8
ASSI
100
AcDbLine
 62
7
  6
CONTINUOUS
 10
54.1807232952
 20
157.4155846037
 11
56.3873417131
 21
157.6086387
  0
LINE
  5
42D
100
AcDbEntity
  8
RACCORDO
100
AcDbLine
 62
7
  6
CONTINUOUS
 10
56.1802805038
 20
155.0558795261
 11
56.4309428795
 21
155.0602548541
  0
LINE
  5
42E
100
AcDbEntity
  8
RACCORDO
100
AcDbLine
 62
253
  6
CONTINUOUS
 10
58.4898249439
 20
155.7141185615
 11
56.5481155911
 21
155.7258502123
  0
LWPOLYLINE
  5
42F
100
AcDbEntity
  8
RACCORDO
100
AcDbPolyline
 62
253
  6
CONTINUOUS
 90
13
 70
0
 10
56.6547250803
 20
156.3180160947
 10
56.809284765
 20
156.2950926238
 10
56.9639353365
 20
156.2675716275
 10
57.118524486
 20
156.2354432669
 10
57.27268777
 20
156.1988987901
 10
57.42644791
 20
156.1577271726
 10
57.5802063724
 20
156.1113133368
 10
57.7339837477
 20
156.0596915182
 10
57.8872955177
 20
156.0028031542
 10
58.0397736952
 20
155.9398905016
 10
58.191143893
 20
155.8706908331
 10
58.3412331271
 20
155.7954382546
 10
58.4898249439
 20
155.7141185615
  0
LINE
  5
430
100
AcDbEntity
  8
RACCORDO
100
AcDbLine
 62
253
  6
CONTINUOUS
 10
53.6418928825
 20
156.5078675285
 11
53.6830203426
 21
156.5005158092
  0
LINE
  5
431
100
AcDbEntity
  8
ASSI
100
AcDbLine
 62
253
  6
CONTINUOUS
 10
53.6418928825
 20
156.5078675285
 11
53.6830203426
 21
156.5005158092
  0
LINE
  5
432
100
AcDbEntity
  8
RACCORDO
100
AcDbLine
 62
253
  6
CONTINUOUS
 10
53.6830203426
 20
156.5005158092
 11
54.0904358851
 21
156.4273509745
  0
LINE
  5
433
100
AcDbEntity
  8
ASSI
100
AcDbLine
 62
253
  6
CONTINUOUS
 10
53.6830203426
 20
156.5005158092
 11
54.0904358851
 21
156.4273509745
  0
LWPOLYLINE
  5
434
100
AcDbEntity
  8
RACCORDO
100
AcDbPolyline
 62
253
  6
CONTINUOUS
 90
13
 70
0
 10
58.4898249439
 20
69.5031588385
 10
58.5694380808
 20
69.5508238335
 10
58.6448275976
 20
69.5980566339
 10
58.7161004575
 20
69.6448543464
 10
58.7832476396
 20
69.6912745388
 10
58.8465012603
 20
69.7372540508
 10
58.906312966
 20
69.782609049
 10
58.9627176837
 20
69.827248425
 10
59.0158641669
 20
69.871258158
 10
59.0663348395
 20
69.9147206073
 10
59.1143606119
 20
69.9576621151
 10
59.1598436968
 20
70.0000525618
 10
59.2028516235
 20
70.0418900941
  0
ARC
  5
435
100
AcDbEntity
  8
RACCORDO
100
AcDbCircle
 62
7
  6
CONTINUOUS
 10
56.1024703582
 20
72.0675894372
 40
4.0200239337
100
AcDbArc
 50
279.9999996913
 51
320.464875236
  0
ARC
  5
436
100
AcDbEntity
  8
RACCORDO
100
AcDbCircle
 62
7
  6
CONTINUOUS
 10
54.2243011666
 20
68.2997901453
 40
0.5
100
AcDbArc
 50
190.3619323081
 51
265.0
  0
ARC
  5
437
100
AcDbEntity
  8
ASSI
100
AcDbCircle
 62
7
  6
CONTINUOUS
 10
54.2243011666
 20
68.2997901453
 40
0.5
100
AcDbArc
 50
190.3619323081
 51
265.0
  0
ARC
  5
438
100
AcDbEntity
  8
RACCORDO
100
AcDbCircle
 62
7
  6
CONTINUOUS
 10
56.1855162257
 20
70.4613521824
 40
0.3
100
AcDbArc
 50
189.748410443
 51
269.0
  0
ARC
  5
439
100
AcDbEntity
  8
RACCORDO
100
AcDbCircle
 62
7
  6
CONTINUOUS
 10
57.4028515528
 20
109.2764586262
 40
0.2
100
AcDbArc
 50
180.0
 51
260.0
  0
ARC
  5
43A
100
AcDbEntity
  8
RACCORDO
100
AcDbCircle
 62
7
  6
CONTINUOUS
 10
219.1115130249
 20
98.4490279015
 40
168.1209091124
100
AcDbArc
 50
182.8793331649
 51
190.3616402356
  0
ARC
  5
43B
100
AcDbEntity
  8
ASSI
100
AcDbCircle
 62
7
  6
CONTINUOUS
 10
219.1115130249
 20
98.4490279015
 40
168.1209091124
100
AcDbArc
 50
182.8793331649
 51
190.3616402356
  0
ARC
  5
43C
100
AcDbEntity
  8
RACCORDO
100
AcDbCircle
 62
7
  6
CONTINUOUS
 10
219.1115130249
 20
98.4490279015
 40
165.6209091124
100
AcDbArc
 50
182.8793463054
 51
190.7317283603
  0
ARC
  5
43D
100
AcDbEntity
  8
ASSI
100
AcDbCircle
 62
7
  6
CONTINUOUS
 10
219.1115130249
 20
98.4490279015
 40
165.6209091124
100
AcDbArc
 50
182.8793463054
 51
190.7317283603
  0
ARC
  5
43E
100
AcDbEntity
  8
RACCORDO
100
AcDbCircle
 62
7
  6
CONTINUOUS
 10
219.1085649559
 20
98.4519987
 40
165.61
100
AcDbArc
 50
187.6887854184
 51
189.748410443
  0
ARC
  5
43F
100
AcDbEntity
  8
RACCORDO
100
AcDbCircle
 62
7
  6
CONTINUOUS
 10
219.1085649559
 20
98.4519987
 40
165.61
100
AcDbArc
 50
186.7308748473
 51
187.033537714
  0
ARC
  5
440
100
AcDbEntity
  8
0
100
AcDbCircle
 62
7
  6
CONTINUOUS
 10
219.1085649559
 20
98.4519987
 40
165.61
100
AcDbArc
 50
187.0335377129
 51
187.6887854184
  0
ARC
  5
441
100
AcDbEntity
  8
RACCORDO
100
AcDbCircle
 62
7
  6
CONTINUOUS
 10
219.1085649559
 20
98.4519987
 40
165.61
100
AcDbArc
 50
182.8787266865
 51
183.9566729684
  0
ARC
  5
442
100
AcDbEntity
  8
0
100
AcDbCircle
 62
7
  6
CONTINUOUS
 10
219.1085649559
 20
98.4519987
 40
165.61
100
AcDbArc
 50
183.9566729684
 51
186.7308748492
  0
ARC
  5
443
100
AcDbEntity
  8
RACCORDO
100
AcDbCircle
 62
7
  6
CONTINUOUS
 10
219.1085649559
 20
98.4519987
 40
165.61
100
AcDbArc
 50
184.9771844013
 51
185.199477402
  0
ARC
  5
444
100
AcDbEntity
  8
0
100
AcDbCircle
 62
7
  6
CONTINUOUS
 10
219.1085649559
 20
98.4519987
 40
165.12
100
AcDbArc
 50
182.8787323946
 51
190.1014160741
  0
ARC
  5
445
100
AcDbEntity
  8
RACCORDO
100
AcDbCircle
 62
7
  6
CONTINUOUS
 10
219.1085649559
 20
98.4519987
 40
165.12
100
AcDbArc
 50
190.1014160741
 51
190.5891670948
  0
ARC
  5
446
100
AcDbEntity
  8
RACCORDO
100
AcDbCircle
 62
7
  6
CONTINUOUS
 10
57.4028515528
 20
115.9408187737
 40
0.2
100
AcDbArc
 50
100.0
 51
180.0
  0
ARC
  5
447
100
AcDbEntity
  8
RACCORDO
100
AcDbCircle
 62
7
  6
CONTINUOUS
 10
56.1024703582
 20
153.1496879628
 40
4.0200239337
100
AcDbArc
 50
39.5351233981
 51
80.0000000573
  0
ARC
  5
448
100
AcDbEntity
  8
RACCORDO
100
AcDbCircle
 62
7
  6
CONTINUOUS
 10
54.2243003356
 20
156.9174828031
 40
0.5
100
AcDbArc
 50
94.9998606877
 51
169.637548776
  0
ARC
  5
449
100
AcDbEntity
  8
ASSI
100
AcDbCircle
 62
7
  6
CONTINUOUS
 10
54.2243003356
 20
156.9174828031
 40
0.5
100
AcDbArc
 50
94.9998606877
 51
169.637548776
  0
ARC
  5
44A
100
AcDbEntity
  8
RACCORDO
100
AcDbCircle
 62
7
  6
CONTINUOUS
 10
56.1855162257
 20
154.7559252175
 40
0.3
100
AcDbArc
 50
91.0
 51
170.2515895569
  0
ARC
  5
44B
100
AcDbEntity
  8
RACCORDO
100
AcDbCircle
 62
7
  6
CONTINUOUS
 10
219.1115130249
 20
126.7682494985
 40
168.1209091124
100
AcDbArc
 50
169.6380676919
 51
177.1206536946
  0
ARC
  5
44C
100
AcDbEntity
  8
ASSI
100
AcDbCircle
 62
7
  6
CONTINUOUS
 10
219.1115130249
 20
126.7682494985
 40
168.1209091124
100
AcDbArc
 50
169.6380676919
 51
177.1206536946
  0
ARC
  5
44D
100
AcDbEntity
  8
RACCORDO
100
AcDbCircle
 62
7
  6
CONTINUOUS
 10
219.1115130249
 20
126.7682494985
 40
165.6209091124
100
AcDbArc
 50
169.2682716397
 51
177.1206536946
  0
ARC
  5
44E
100
AcDbEntity
  8
ASSI
100
AcDbCircle
 62
7
  6
CONTINUOUS
 10
219.1115130249
 20
126.7682494985
 40
165.6209091124
100
AcDbArc
 50
169.2682716397
 51
177.1206536946
  0
ARC
  5
44F
100
AcDbEntity
  8
RACCORDO
100
AcDbCircle
 62
7
  6
CONTINUOUS
 10
219.1085649559
 20
126.7652787
 40
165.61
100
AcDbArc
 50
170.251589557
 51
172.3112145832
  0
ARC
  5
450
100
AcDbEntity
  8
RACCORDO
100
AcDbCircle
 62
7
  6
CONTINUOUS
 10
219.1085649559
 20
126.7652787
 40
165.61
100
AcDbArc
 50
172.9664622826
 51
173.2691251518
  0
ARC
  5
451
100
AcDbEntity
  8
RACCORDO
100
AcDbCircle
 62
7
  6
CONTINUOUS
 10
219.1085649559
 20
126.7652787
 40
165.61
100
AcDbArc
 50
176.0433270316
 51
177.1212745084
  0
ARC
  5
452
100
AcDbEntity
  8
0
100
AcDbCircle
 62
7
  6
CONTINUOUS
 10
219.1085649559
 20
126.7652787
 40
165.61
100
AcDbArc
 50
173.2691251512
 51
176.0433270316
  0
ARC
  5
453
100
AcDbEntity
  8
0
100
AcDbCircle
 62
7
  6
CONTINUOUS
 10
219.1085649559
 20
126.7652787
 40
165.61
100
AcDbArc
 50
172.3112145832
 51
172.9664622871
  0
ARC
  5
454
100
AcDbEntity
  8
RACCORDO
100
AcDbCircle
 62
7
  6
CONTINUOUS
 10
219.1085649559
 20
126.7652787
 40
165.61
100
AcDbArc
 50
174.800522598
 51
175.0228155987
  0
ARC
  5
455
100
AcDbEntity
  8
RACCORDO
100
AcDbCircle
 62
7
  6
CONTINUOUS
 10
219.1085649559
 20
126.7652787
 40
165.12
100
AcDbArc
 50
169.4108329052
 51
169.8985839314
  0
ARC
  5
456
100
AcDbEntity
  8
0
100
AcDbCircle
 62
7
  6
CONTINUOUS
 10
219.1085649559
 20
126.7652787
 40
165.12
100
AcDbArc
 50
169.8985839314
 51
177.1212676054
  0
ARC
  5
457
100
AcDbEntity
  8
RACCORDO
100
AcDbCircle
 62
7
  6
CONTINUOUS
 10
500.6347399559
 20
112.6086387
 40
450.0
100
AcDbArc
 50
177.1206584177
 51
182.8793414056
  0
ARC
  5
458
100
AcDbEntity
  8
ASSI
100
AcDbCircle
 62
7
  6
CONTINUOUS
 10
500.6347399559
 20
112.6086387
 40
450.0
100
AcDbArc
 50
177.1206584177
 51
182.8793414056
  0
ARC
  5
459
100
AcDbEntity
  8
DRAFT
100
AcDbCircle
 62
7
  6
CONTINUOUS
 10
500.6347399559
 20
112.6086387
 40
447.5
100
AcDbArc
 50
177.1206536946
 51
182.8793463054
  0
ARC
  5
45A
100
AcDbEntity
  8
ASSI
100
AcDbCircle
 62
7
  6
CONTINUOUS
 10
500.6347399559
 20
112.6086387
 40
447.5
100
AcDbArc
 50
177.1206536946
 51
182.8793463054
  0
ARC
  5
45B
100
AcDbEntity
  8
RACCORDO
100
AcDbCircle
 62
7
  6
CONTINUOUS
 10
500.6328515528
 20
112.6086387
 40
447.49
100
AcDbArc
 50
177.7712482109
 51
177.8743034551
  0
ARC
  5
45C
100
AcDbEntity
  8
RACCORDO
100
AcDbCircle
 62
7
  6
CONTINUOUS
 10
500.6328515528
 20
112.6086387
 40
447.49
100
AcDbArc
 50
182.1256965448
 51
182.2287517884
  0
ARC
  5
45D
100
AcDbEntity
  8
RACCORDO
100
AcDbCircle
 62
7
  6
CONTINUOUS
 10
500.6328515528
 20
112.6086387
 40
447.49
100
AcDbArc
 50
182.6777961491
 51
182.7122066774
  0
ARC
  5
45E
100
AcDbEntity
  8
RACCORDO
100
AcDbCircle
 62
7
  6
CONTINUOUS
 10
500.6328515528
 20
112.6086387
 40
447.49
100
AcDbArc
 50
179.719113427
 51
180.057479122
  0
ARC
  5
45F
100
AcDbEntity
  8
0
100
AcDbCircle
 62
7
  6
CONTINUOUS
 10
500.6328515528
 20
112.6086387
 40
447.49
100
AcDbArc
 50
180.0504072961
 51
182.8787302821
  0
ARC
  5
460
100
AcDbEntity
  8
0
100
AcDbCircle
 62
7
  6
CONTINUOUS
 10
500.6328515528
 20
112.6086387
 40
447.49
100
AcDbArc
 50
177.1212701601
 51
179.9495927031
  0
ARC
  5
461
100
AcDbEntity
  8
RACCORDO
100
AcDbCircle
 62
7
  6
CONTINUOUS
 10
500.6328515528
 20
112.6086387
 40
447.3
100
AcDbArc
 50
178.2965055846
 51
178.3810493186
  0
ARC
  5
462
100
AcDbEntity
  8
RACCORDO
100
AcDbCircle
 62
7
  6
CONTINUOUS
 10
500.6328515528
 20
112.6086387
 40
447.3
100
AcDbArc
 50
182.6570211641
 51
182.7414140705
  0
ARC
  5
463
100
AcDbEntity
  8
RACCORDO
100
AcDbCircle
 62
7
  6
CONTINUOUS
 10
500.6328515528
 20
112.6086387
 40
447.3
100
AcDbArc
 50
181.6189507393
 51
181.703494478
  0
ARC
  5
464
100
AcDbEntity
  8
RACCORDO
100
AcDbCircle
 62
7
  6
CONTINUOUS
 10
500.6328515528
 20
112.6086387
 40
447.3
100
AcDbArc
 50
177.2585859297
 51
177.3429788839
  0
ARC
  5
465
100
AcDbEntity
  8
0
100
AcDbCircle
 62
7
  6
CONTINUOUS
 10
500.6328515528
 20
112.6086387
 40
447.0
100
AcDbArc
 50
177.1212676054
 51
182.8787323946
  0
ENDSEC
  0
SECTION
  2
OBJECTS
  0
DICTIONARY
  5
C
100
AcDbDictionary
280
0
281
1
  3
ACAD_GROUP
350
D
  3
ACAD_MLINESTYLE
350
17
  3
ACAD_LAYOUT
350
1A
  3
ACAD_PLOTSETTINGS
350
19
  3
ACAD_PLOTSTYLENAME
350
E
  0
DICTIONARY
  5
D
102
{ACAD_REACTORS
330
C
102
}
100
AcDbDictionary
280
0
281
1
  0
ACDBDICTIONARYWDFLT
  5
E
102
{ACAD_REACTORS
330
C
102
}
100
AcDbDictionary
281
1
  3
Normal
350
F
100
AcDbDictionaryWithDefault
340
F
  0
DICTIONARY
  5
17
102
{ACAD_REACTORS
330
C
102
}
100
AcDbDictionary
280
0
281
1
  3
Standard
350
18
  0
DICTIONARY
  5
19
102
{ACAD_REACTORS
330
C
102
}
100
AcDbDictionary
281
1
  0
DICTIONARY
  5
1A
102
{ACAD_REACTORS
330
C
102
}
100
AcDbDictionary
281
1
  3
Model
350
466
  3
Layout1
350
467
  0
ACDBPLACEHOLDER
  5
F
102
{ACAD_REACTORS
330
E
102
}
  0
MLINESTYLE
  5
18
102
{ACAD_REACTORS
330
17
102
}
100
AcDbMlineStyle
  2
STANDARD
 70
0
  3

 62
256
 51
90.0
 52
90.0
 71
2
 49
0.5
 62
256
  6
BYLAYER
 49
-0.5
 62
256
  6
BYLAYER
  0
LAYOUT
  5
466
102
{ACAD_REACTORS
330
1A
102
}
100
AcDbPlotSettings
  1

  2
none_device
  4
ISO_A4_(297.00_x_210.00_MM)
  6

 40
0.0
 41
0.0
 42
0.0
 43
0.0
 44
297.0
 45
210.0
 46
0.0
 47
0.0
 48
0.0
 49
0.0
140
0.0
141
0.0
142
1.0
143
1.0
 70
1024
 72
1
 73
0
 74
0
  7

 75
0
147
1.0
148
0.0
149
0.0
100
AcDbLayout
  1
Model
 70
0
 71
0
 10
0.0
 20
0.0
 11
297.0
 21
210.0
 12
0.0
 22
0.0
 32
0.0
 14
0.0
 24
0.0
 34
0.0
 15
0.0
 25
0.0
 35
0.0
146
0.0
 13
0.0
 23
0.0
 33
0.0
 16
1.0
 26
0.0
 36
0.0
 17
0.0
 27
1.0
 37
0.0
 76
0
330
211
345
0
346
0
  0
LAYOUT
  5
467
102
{ACAD_REACTORS
330
1A
102
}
100
AcDbPlotSettings
  1

  2
none_device
  4
ISO_A4_(297.00_x_210.00_MM)
  6

 40
0.0
 41
0.0
 42
0.0
 43
0.0
 44
297.0
 45
210.0
 46
0.0
 47
0.0
 48
0.0
 49
0.0
140
0.0
141
0.0
142
1.0
143
1.0
 70
0
 72
1
 73
0
 74
0
  7

 75
0
147
1.0
148
0.0
149
0.0
100
AcDbLayout
  1
Layout1
 70
0
 71
1
 10
0.0
 20
0.0
 11
297.0
 21
210.0
 12
0.0
 22
0.0
 32
0.0
 14
0.0
 24
0.0
 34
0.0
 15
0.0
 25
0.0
 35
0.0
146
0.0
 13
0.0
 23
0.0
 33
0.0
 16
1.0
 26
0.0
 36
0.0
 17
0.0
 27
1.0
 37
0.0
 76
0
330
212
345
0
346
0
  0
ENDSEC
  0
EOF
