  0
SECTION
  2
HEADER
  9
$ACADVER
  1
AC1021
  9
$DWGCODEPAGE
  3
ANSI_1252
  9
$EXTMAX
 10
297.0
 20
210.0
 30
0.0
  9
$EXTMIN
 10
0.0
 20
0.0
 30
0.0
  9
$LIMMIN
 10
0.0
 20
0.0
  9
$LIMMAX
 10
297.0
 20
210.0
  9
$VIEWCTR
 10
148.5
 20
105.0
  9
$VIEWSIZE
 40
210.0
  9
$CLAYER
  8
0
  9
$LTSCALE
 40
16.335
  9
$CELTYPE
  6
BYLAYER
  9
$DIMSCALE
 40
1.0
  9
$DIMASZ
 40
3.0
  9
$DIMEXO
 40
1.85625
  9
$DIMDLI
 40
11.286
  9
$DIMEXE
 40
5.346
  9
$DIMCEN
 40
2.673
  9
$DIMLFAC
 40
1.0
  9
$DIMBLK
  1
_FILLED
  9
$DIMTXT
 40
3.0
  9
$DIMTOL
 70
1
  9
$DIMLIM
 70
0
  9
$DIMTFAC
 40
1.0
  9
$DIMTP
 40
0.01
  9
$DIMTM
 40
0.01
  9
$PDMODE
 70
3
  9
$PDSIZE
 40
3.0
  9
$HANDSEED
  5
361
  9
$TILEMODE
 70
1
  9
$MEASUREMENT
 70
1
  9
$INSUNITS
 70
4
  0
ENDSEC
  0
SECTION
  2
CLASSES
  0
CLASS
  1
ACDBDICTIONARYWDFLT
  2
AcDbDictionaryWithDefault
  3
AutoCAD 2000
 90
0
 91
1
280
0
281
0
  0
CLASS
  1
ACDBPLACEHOLDER
  2
AcDbPlaceHolder
  3
AutoCAD 2000
 90
0
 91
1
280
0
281
0
  0
CLASS
  1
LAYOUT
  2
AcDbLayout
  3
AutoCAD 2000
 90
0
 91
0
280
0
281
0
  0
ENDSEC
  0
SECTION
  2
TABLES
  0
TABLE
  2
VPORT
  5
8
100
AcDbSymbolTable
 70
2
  0
VPORT
  5
1F4
100
AcDbSymbolTableRecord
100
AcDbViewportTableRecord
  2
*ACTIVE
 70
0
 10
0.0
 20
0.0
 11
1.0
 21
1.0
 12
148.5
 22
105.0
 13
0.0
 23
0.0
 14
1.0
 24
1.0
 15
0.0
 25
0.0
 16
0.0
 26
0.0
 36
1.0
 17
0.0
 27
0.0
 37
0.0
 40
210.0
 41
1.4142857143
 42
50.0
 43
0.0
 44
0.0
 50
0.0
 51
0.0
 71
0
 72
100
 73
1
 74
1
 75
0
 76
0
 77
0
 78
0
  0
ENDTAB
  0
TABLE
  2
LTYPE
  5
5
100
AcDbSymbolTable
 70
6
  0
LTYPE
  5
14
100
AcDbSymbolTableRecord
100
AcDbLinetypeTableRecord
  2
BYBLOCK
 70
0
  3

 72
65
 73
0
 40
0.0
  0
LTYPE
  5
15
100
AcDbSymbolTableRecord
100
AcDbLinetypeTableRecord
  2
BYLAYER
 70
0
  3

 72
65
 73
0
 40
0.0
  0
LTYPE
  5
16
100
AcDbSymbolTableRecord
100
AcDbLinetypeTableRecord
  2
CONTINUOUS
 70
64
  3
Solid line
 72
65
 73
0
 40
0.0
  0
LTYPE
  5
1F5
100
AcDbSymbolTableRecord
100
AcDbLinetypeTableRecord
  2
CENTER
 70
64
  3
____ _ ____ _ ____ _ ____ _ ____ _ ____ _ ____
 72
65
 73
4
 40
0.6
 49
0.375
 74
0
 49
-0.075
 74
0
 49
0.075
 74
0
 49
-0.075
 74
0
  0
LTYPE
  5
1F6
100
AcDbSymbolTableRecord
100
AcDbLinetypeTableRecord
  2
HIDDEN
 70
64
  3
- - - - - - - - - - - - - - - - - - - -
 72
65
 73
2
 40
0.2
 49
0.1
 74
0
 49
-0.1
 74
0
  0
LTYPE
  5
1F7
100
AcDbSymbolTableRecord
100
AcDbLinetypeTableRecord
  2
PHANTOM
 70
64
  3
_____ _ _ _____ _ _ _____ _ _ _____
 72
65
 73
6
 40
0.8
 49
0.45
 74
0
 49
-0.05
 74
0
 49
0.1
 74
0
 49
-0.05
 74
0
 49
0.1
 74
0
 49
-0.05
 74
0
  0
LTYPE
  5
1F8
100
AcDbSymbolTableRecord
100
AcDbLinetypeTableRecord
  2
DOT
 70
64
  3
. . . . . . . . . . . . . . . . . . . .
 72
65
 73
2
 40
0.2
 49
0.1
 74
0
 49
-0.1
 74
0
  0
LTYPE
  5
1F9
100
AcDbSymbolTableRecord
100
AcDbLinetypeTableRecord
  2
DASHED
 70
64
  3
- - - - - - - - - - - - - - - - - - - -
 72
65
 73
2
 40
0.2
 49
0.1
 74
0
 49
-0.1
 74
0
  0
ENDTAB
  0
TABLE
  2
LAYER
  5
2
100
AcDbSymbolTable
 70
36
  0
LAYER
  5
10
100
AcDbSymbolTableRecord
100
AcDbLayerTableRecord
  2
0
 70
0
 62
7
  6
CONTINUOUS
370
-3
390
F
  0
LAYER
  5
1FA
100
AcDbSymbolTableRecord
100
AcDbLayerTableRecord
  2
DEFAULT_1
 70
0
 62
7
  6
CENTER
370
-3
390
F
  0
LAYER
  5
1FB
100
AcDbSymbolTableRecord
100
AcDbLayerTableRecord
  2
DEFAULT_2
 70
0
 62
7
  6
HIDDEN
370
-3
390
F
  0
LAYER
  5
1FC
100
AcDbSymbolTableRecord
100
AcDbLayerTableRecord
  2
DEFAULT_3
 70
0
 62
7
  6
PHANTOM
370
-3
390
F
  0
LAYER
  5
1FD
100
AcDbSymbolTableRecord
100
AcDbLayerTableRecord
  2
ASSI
 70
0
 62
7
  6
CONTINUOUS
370
-3
390
F
  0
LAYER
  5
1FE
100
AcDbSymbolTableRecord
100
AcDbLayerTableRecord
  2
COORDINATE
 70
0
 62
7
  6
CONTINUOUS
370
-3
390
F
  0
LAYER
  5
1FF
100
AcDbSymbolTableRecord
100
AcDbLayerTableRecord
  2
COPY_PUBLISH
 70
0
 62
7
  6
CONTINUOUS
370
-3
390
F
  0
LAYER
  5
200
100
AcDbSymbolTableRecord
100
AcDbLayerTableRecord
  2
COSMETIC
 70
0
 62
7
  6
CONTINUOUS
370
-3
390
F
  0
LAYER
  5
201
100
AcDbSymbolTableRecord
100
AcDbLayerTableRecord
  2
COSMETICI
 70
0
 62
7
  6
CONTINUOUS
370
-3
390
F
  0
LAYER
  5
202
100
AcDbSymbolTableRecord
100
AcDbLayerTableRecord
  2
CURVE
 70
0
 62
7
  6
CONTINUOUS
370
-3
390
F
  0
LAYER
  5
203
100
AcDbSymbolTableRecord
100
AcDbLayerTableRecord
  2
DRAFT
 70
0
 62
7
  6
CONTINUOUS
370
-3
390
F
  0
LAYER
  5
204
100
AcDbSymbolTableRecord
100
AcDbLayerTableRecord
  2
IMPORT_IGES
 70
0
 62
7
  6
CONTINUOUS
370
-3
390
F
  0
LAYER
  5
205
100
AcDbSymbolTableRecord
100
AcDbLayerTableRecord
  2
INTFCLR_1
 70
0
 62
7
  6
CONTINUOUS
370
-3
390
F
  0
LAYER
  5
206
100
AcDbSymbolTableRecord
100
AcDbLayerTableRecord
  2
NOTE
 70
0
 62
7
  6
CONTINUOUS
370
-3
390
F
  0
LAYER
  5
207
100
AcDbSymbolTableRecord
100
AcDbLayerTableRecord
  2
PIANI
 70
0
 62
7
  6
CONTINUOUS
370
-3
390
F
  0
LAYER
  5
208
100
AcDbSymbolTableRecord
100
AcDbLayerTableRecord
  2
PUNTI
 70
0
 62
7
  6
CONTINUOUS
370
-3
390
F
  0
LAYER
  5
209
100
AcDbSymbolTableRecord
100
AcDbLayerTableRecord
  2
RACCORDO
 70
0
 62
7
  6
CONTINUOUS
370
-3
390
F
  0
LAYER
  5
20A
100
AcDbSymbolTableRecord
100
AcDbLayerTableRecord
  2
SIMBOLI
 70
0
 62
7
  6
CONTINUOUS
370
-3
390
F
  0
LAYER
  5
20B
100
AcDbSymbolTableRecord
100
AcDbLayerTableRecord
  2
SMUSSO
 70
0
 62
7
  6
CONTINUOUS
370
-3
390
F
  0
LAYER
  5
20C
100
AcDbSymbolTableRecord
100
AcDbLayerTableRecord
  2
SNAPLINE
 70
0
 62
7
  6
CONTINUOUS
370
-3
390
F
  0
LAYER
  5
20D
100
AcDbSymbolTableRecord
100
AcDbLayerTableRecord
  2
SUPERFICI
 70
0
 62
7
  6
CONTINUOUS
370
-3
390
F
  0
LAYER
  5
20E
100
AcDbSymbolTableRecord
100
AcDbLayerTableRecord
  2
TRASH
 70
0
 62
7
  6
CONTINUOUS
370
-3
390
F
  0
LAYER
  5
20F
100
AcDbSymbolTableRecord
100
AcDbLayerTableRecord
  2
XSEC_DATUMS
 70
0
 62
7
  6
CONTINUOUS
370
-3
390
F
  0
ENDTAB
  0
TABLE
  2
STYLE
  5
3
100
AcDbSymbolTable
 70
1
  0
STYLE
  5
11
100
AcDbSymbolTableRecord
100
AcDbTextStyleTableRecord
  2
STANDARD
 70
0
 40
0.0
 41
0.8
 50
0.0
 71
0
 42
0.2
  3
txt
  4

  0
STYLE
  5
210
100
AcDbSymbolTableRecord
100
AcDbTextStyleTableRecord
  2
TEXTSTYLE_1
 70
0
 40
0.0
 41
0.8
 50
0.0
 71
0
 42
0.2
  3
gdt
  4

  0
ENDTAB
  0
TABLE
  2
VIEW
  5
6
100
AcDbSymbolTable
 70
0
  0
ENDTAB
  0
TABLE
  2
UCS
  5
7
100
AcDbSymbolTable
 70
0
  0
ENDTAB
  0
TABLE
  2
APPID
  5
9
100
AcDbSymbolTable
 70
1
  0
APPID
  5
211
100
AcDbSymbolTableRecord
100
AcDbRegAppTableRecord
  2
ACAD
 70
0
  0
ENDTAB
  0
TABLE
  2
BLOCK_RECORD
  5
1
100
AcDbSymbolTable
 70
0
  0
BLOCK_RECORD
  5
212
100
AcDbSymbolTableRecord
100
AcDbBlockTableRecord
  2
*Model_Space
  0
BLOCK_RECORD
  5
213
100
AcDbSymbolTableRecord
100
AcDbBlockTableRecord
  2
*Paper_Space
  0
BLOCK_RECORD
  5
214
100
AcDbSymbolTableRecord
100
AcDbBlockTableRecord
  2
_FILLED
  0
BLOCK_RECORD
  5
215
100
AcDbSymbolTableRecord
100
AcDbBlockTableRecord
  2
*D0
  0
BLOCK_RECORD
  5
216
100
AcDbSymbolTableRecord
100
AcDbBlockTableRecord
  2
*D1
  0
BLOCK_RECORD
  5
217
100
AcDbSymbolTableRecord
100
AcDbBlockTableRecord
  2
*D2
  0
ENDTAB
  0
TABLE
  2
DIMSTYLE
  5
A
100
AcDbSymbolTable
 70
1
100
AcDbDimStyleTable
 71
0
  0
DIMSTYLE
105
218
100
AcDbSymbolTableRecord
100
AcDbDimStyleTableRecord
  2
STANDARD
 70
0
  3

  4

 40
1.0
 41
3.0
 42
0.0625
 43
0.38
 44
0.18
 45
0.0
 46
0.0
 47
0.01
 48
0.01
140
3.0
141
0.09
142
0.0
143
25.4
144
1.0
145
0.0
146
1.0
147
0.09
 71
1.0
 72
0.0
 73
0
 74
0
 75
0
 76
0
 77
1
 78
8
170
0
171
2
172
0
173
0
174
0
175
0
176
0
177
0
178
0
270
2
271
2
272
2
273
2
274
2
275
0
280
0
281
0
282
0
283
1
284
8
285
0
286
0
287
3
288
0
340
11
341
214
342
214
343
214
344
214
  0
DIMSTYLE
105
219
100
AcDbSymbolTableRecord
100
AcDbDimStyleTableRecord
  2
DIMSTYLE_1
 70
0
  3

  4

 40
1.0
 41
3.0
 42
0.0625
 43
0.38
 44
0.18
 45
0.0
 46
0.0
 47
0.0
 48
0.0
140
3.0
141
0.09
142
0.0
143
25.4
144
1.0
145
0.0
146
1.0
147
0.09
 71
0.0
 72
0.0
 73
0
 74
0
 75
0
 76
0
 77
1
 78
8
170
0
171
2
172
0
173
0
174
0
175
0
176
0
177
0
178
0
270
2
271
2
272
2
273
2
274
2
275
0
280
0
281
0
282
0
283
1
284
8
285
0
286
0
287
3
288
0
340
11
341
214
342
214
343
214
344
214
  0
DIMSTYLE
105
21A
100
AcDbSymbolTableRecord
100
AcDbDimStyleTableRecord
  2
DIMSTYLE_2
 70
0
  3

  4

 40
1.0
 41
3.0
 42
0.0625
 43
0.38
 44
0.18
 45
0.0
 46
0.0
 47
0.0
 48
0.0
140
3.0
141
0.09
142
0.0
143
25.4
144
1.0
145
0.0
146
1.0
147
0.09
 71
0.0
 72
0.0
 73
0
 74
0
 75
0
 76
0
 77
1
 78
8
170
0
171
2
172
0
173
0
174
0
175
0
176
0
177
0
178
0
270
2
271
1
272
1
273
2
274
2
275
0
280
0
281
0
282
0
283
1
284
8
285
0
286
0
287
3
288
0
340
11
341
214
342
214
343
214
344
214
  0
ENDTAB
  0
ENDSEC
  0
SECTION
  2
BLOCKS
  0
BLOCK
  5
20
100
AcDbEntity
  8
0
100
AcDbBlockBegin
  2
*Model_Space
 70
0
 10
0.0
 20
0.0
 30
0.0
  3
*Model_Space
  1

  0
ENDBLK
  5
21
100
AcDbEntity
  8
0
100
AcDbBlockEnd
  0
BLOCK
  5
1C
100
AcDbEntity
  8
0
100
AcDbBlockBegin
  2
*Paper_Space
 70
0
 10
0.0
 20
0.0
 30
0.0
  3
*Paper_Space
  1

  0
ENDBLK
  5
1D
100
AcDbEntity
  8
0
100
AcDbBlockEnd
  0
BLOCK
  5
21B
100
AcDbEntity
  8
0
100
AcDbBlockBegin
  2
_FILLED
 70
64
 10
0.0
 20
0.0
  3
_FILLED
  1

  0
SOLID
  5
21C
100
AcDbEntity
  8
0
  6
BYBLOCK
 62
0
100
AcDbTrace
 10
0.0
 20
0.0
 11
-1.0
 21
0.3166666667
 12
-1.0
 22
-0.3166666667
 13
-1.0
 23
-0.3166666667
  0
ENDBLK
  5
21D
100
AcDbEntity
  8
0
  6
BYBLOCK
 62
0
100
AcDbBlockEnd
  0
BLOCK
  5
21E
100
AcDbEntity
  8
0
100
AcDbBlockBegin
 62
7
  6
CONTINUOUS
  2
*D0
 70
65
 10
0.0
 20
0.0
  3
*D0
  1

  0
MTEXT
  5
21F
100
AcDbEntity
  8
0
100
AcDbMText
 62
7
  6
CONTINUOUS
  7
STANDARD
 71
2
 72
1
 10
0.0
 20
61.75
 30
0.0
 11
1.0
 21
0.0
 31
0.0
 44
0.9
  1
210
 40
3.0
 41
6.4285714286
  0
LINE
  5
220
100
AcDbEntity
  8
0
100
AcDbLine
 62
7
  6
CONTINUOUS
 10
-105.0
 20
44.5013704652
 11
-105.0
 21
59.5
  0
LINE
  5
221
100
AcDbEntity
  8
0
100
AcDbLine
 62
7
  6
CONTINUOUS
 10
105.0
 20
44.5013704652
 11
105.0
 21
59.5
  0
LINE
  5
222
100
AcDbEntity
  8
0
100
AcDbLine
 62
7
  6
CONTINUOUS
 10
-105.0
 20
58.0
 11
0.0
 21
58.0
  0
LINE
  5
223
100
AcDbEntity
  8
0
100
AcDbLine
 62
7
  6
CONTINUOUS
 10
105.0
 20
58.0
 11
0.0
 21
58.0
  0
INSERT
  5
224
100
AcDbEntity
  8
0
100
AcDbBlockReference
 62
7
  6
CONTINUOUS
  2
_FILLED
 10
-105.0
 20
58.0
 41
3.0
 42
3.0
 43
3.0
 50
180.0
  0
INSERT
  5
225
100
AcDbEntity
  8
0
100
AcDbBlockReference
 62
7
  6
CONTINUOUS
  2
_FILLED
 10
105.0
 20
58.0
 41
3.0
 42
3.0
 43
3.0
  0
ENDBLK
  5
226
100
AcDbEntity
  8
0
  6
BYBLOCK
 62
0
100
AcDbBlockEnd
  0
BLOCK
  5
227
100
AcDbEntity
  8
0
100
AcDbBlockBegin
 62
7
  6
CONTINUOUS
  2
*D1
 70
65
 10
0.0
 20
0.0
  3
*D1
  1

  0
MTEXT
  5
228
100
AcDbEntity
  8
0
100
AcDbMText
 62
7
  6
CONTINUOUS
  7
STANDARD
 71
2
 72
1
 10
154.25
 20
-0.0
 30
0.0
 11
0.0
 21
1.0
 31
0.0
 44
0.9
  1
90
 40
3.0
 41
4.7142857143
  0
LINE
  5
229
100
AcDbEntity
  8
0
100
AcDbLine
 62
7
  6
CONTINUOUS
 10
104.5013704652
 20
45.0
 11
159.5
 21
45.0
  0
LINE
  5
22A
100
AcDbEntity
  8
0
100
AcDbLine
 62
7
  6
CONTINUOUS
 10
104.5013704652
 20
-45.0
 11
159.5
 21
-45.0
  0
LINE
  5
22B
100
AcDbEntity
  8
0
100
AcDbLine
 62
7
  6
CONTINUOUS
 10
158.0
 20
45.0
 11
158.0
 21
-0.0
  0
LINE
  5
22C
100
AcDbEntity
  8
0
100
AcDbLine
 62
7
  6
CONTINUOUS
 10
158.0
 20
-45.0
 11
158.0
 21
-0.0
  0
INSERT
  5
22D
100
AcDbEntity
  8
0
100
AcDbBlockReference
 62
7
  6
CONTINUOUS
  2
_FILLED
 10
158.0
 20
45.0
 41
3.0
 42
3.0
 43
3.0
 50
90.0
  0
INSERT
  5
22E
100
AcDbEntity
  8
0
100
AcDbBlockReference
 62
7
  6
CONTINUOUS
  2
_FILLED
 10
158.0
 20
-45.0
 41
3.0
 42
3.0
 43
3.0
 50
270.0
  0
ENDBLK
  5
22F
100
AcDbEntity
  8
0
  6
BYBLOCK
 62
0
100
AcDbBlockEnd
  0
BLOCK
  5
230
100
AcDbEntity
  8
0
100
AcDbBlockBegin
 62
7
  6
CONTINUOUS
  2
*D2
 70
65
 10
0.0
 20
0.0
  3
*D2
  1

  0
MTEXT
  5
231
100
AcDbEntity
  8
0
100
AcDbMText
 62
7
  6
CONTINUOUS
  7
STANDARD
 71
2
 72
1
 10
-130.1705053646
 20
61.75
 30
0.0
 11
1.0
 21
0.0
 31
0.0
 44
0.9
  1
8,6
 40
3.0
 41
6.4285714286
  0
LINE
  5
232
100
AcDbEntity
  8
0
100
AcDbLine
 62
7
  6
CONTINUOUS
 10
-125.8848658151
 20
43.5970753632
 11
-125.8848658075
 21
59.499999998
  0
LINE
  5
233
100
AcDbEntity
  8
0
100
AcDbLine
 62
7
  6
CONTINUOUS
 10
-134.4561449503
 20
0.5000002129
 11
-134.4561449223
 21
59.500000002
  0
LINE
  5
234
100
AcDbEntity
  8
0
100
AcDbLine
 62
7
  6
CONTINUOUS
 10
-125.8848658082
 20
57.999999998
 11
-121.8848658082
 21
57.9999999961
  0
LINE
  5
235
100
AcDbEntity
  8
0
100
AcDbLine
 62
7
  6
CONTINUOUS
 10
-121.8848658082
 20
57.9999999961
 11
-130.1705053656
 21
58.0
  0
LINE
  5
236
100
AcDbEntity
  8
0
100
AcDbLine
 62
7
  6
CONTINUOUS
 10
-134.4561449231
 20
58.000000002
 11
-138.4561449231
 21
58.0000000039
  0
LINE
  5
237
100
AcDbEntity
  8
0
100
AcDbLine
 62
7
  6
CONTINUOUS
 10
-138.4561449231
 20
58.0000000039
 11
-130.1705053656
 21
58.0
  0
INSERT
  5
238
100
AcDbEntity
  8
0
100
AcDbBlockReference
 62
7
  6
CONTINUOUS
  2
_FILLED
 10
-125.8848658082
 20
57.999999998
 41
3.0
 42
3.0
 43
3.0
 50
179.9999999729
  0
INSERT
  5
239
100
AcDbEntity
  8
0
100
AcDbBlockReference
 62
7
  6
CONTINUOUS
  2
_FILLED
 10
-134.4561449231
 20
58.000000002
 41
3.0
 42
3.0
 43
3.0
 50
359.9999999729
  0
ENDBLK
  5
23A
100
AcDbEntity
  8
0
  6
BYBLOCK
 62
0
100
AcDbBlockEnd
  0
ENDSEC
  0
SECTION
  2
ENTITIES
  0
DIMENSION
  5
23B
100
AcDbEntity
  8
0
100
AcDbDimension
 62
7
  6
CONTINUOUS
  2
*D0
 10
105.0
 20
58.0
 11
-3.2142857143
 21
60.25
 70
160
 71
2
 42
210.0
  3
DIMSTYLE_1
100
AcDbAlignedDimension
 13
-105.0
 23
44.5013704652
 14
105.0
 24
44.5013704652
100
AcDbRotatedDimension
  0
DIMENSION
  5
23C
100
AcDbEntity
  8
0
100
AcDbDimension
 62
7
  6
CONTINUOUS
  2
*D1
 10
158.0
 20
-45.0
 11
156.8061735237
 21
-2.1072778499
 70
160
 71
2
 42
90.0
  3
DIMSTYLE_1
100
AcDbAlignedDimension
 13
104.5013704652
 23
45.0
 14
104.5013704652
 24
-45.0
 50
270.0
100
AcDbRotatedDimension
  0
DIMENSION
  5
23D
100
AcDbEntity
  8
0
100
AcDbDimension
 62
7
  6
CONTINUOUS
  2
*D2
 10
-134.4561449231
 20
58.000000002
 11
-133.3847910789
 21
60.25
 70
160
 71
2
 42
8.5712791148
  3
DIMSTYLE_2
100
AcDbAlignedDimension
 13
-125.8848658151
 23
43.5970753632
 14
-134.4561449503
 24
0.5000002129
 50
179.9999999729
100
AcDbRotatedDimension
  0
LWPOLYLINE
  5
23E
100
AcDbEntity
  8
RACCORDO
100
AcDbPolyline
 62
253
  6
CONTINUOUS
 90
28
 70
0
 10
-104.8700585586
 20
-43.8714290238
 10
-104.8686881559
 20
-43.930404659
 10
-104.863890799
 20
-43.9891293049
 10
-104.8556914589
 20
-44.0474040146
 10
-104.8441293465
 20
-44.1050285906
 10
-104.8292501648
 20
-44.1618126557
 10
-104.8111030301
 20
-44.2175755305
 10
-104.7897486426
 20
-44.2721449935
 10
-104.7652699892
 20
-44.3253223099
 10
-104.7377684947
 20
-44.3768955349
 10
-104.7073548702
 20
-44.426684228
 10
-104.6741364567
 20
-44.4745382505
 10
-104.6382282535
 20
-44.520303288
 10
-104.599760775
 20
-44.5638300968
 10
-104.5588708001
 20
-44.6049806892
 10
-104.5156926382
 20
-44.6436280055
 10
-104.4703775911
 20
-44.6796477316
 10
-104.423082596
 20
-44.7129264419
 10
-104.3739576264
 20
-44.743363996
 10
-104.3231672173
 20
-44.7708645503
 10
-104.2708870046
 20
-44.7953396286
 10
-104.2172895892
 20
-44.8167126207
 10
-104.1625605491
 20
-44.8349147836
 10
-104.10687934
 20
-44.849892191
 10
-104.0504131687
 20
-44.8616025001
 10
-103.993343731
 20
-44.8700084074
 10
-103.9358675486
 20
-44.8750814005
 10
-103.8781758769
 20
-44.8768054117
  0
LWPOLYLINE
  5
23F
100
AcDbEntity
  8
RACCORDO
100
AcDbPolyline
 62
253
  6
CONTINUOUS
 90
28
 70
0
 10
-104.5704696982
 20
-43.9246281065
 10
-104.569627635
 20
-43.9663052582
 10
-104.5664296626
 20
-44.007546129
 10
-104.5608757811
 20
-44.0483507751
 10
-104.5529280557
 20
-44.0888575385
 10
-104.5426244211
 20
-44.1289281764
 10
-104.5300786815
 20
-44.1681479222
 10
-104.5152634356
 20
-44.2065107593
 10
-104.4982060847
 20
-44.2440229185
 10
-104.4791026373
 20
-44.280288105
 10
-104.4579354039
 20
-44.3152832963
 10
-104.4347220739
 20
-44.3490318082
 10
-104.4097117235
 20
-44.381206932
 10
-104.3828891152
 20
-44.4117914742
 10
-104.3542694865
 20
-44.4408029562
 10
-104.3241476257
 20
-44.4679667926
 10
-104.2925112557
 20
-44.4932647268
 10
-104.2593726536
 20
-44.5167153391
 10
-104.2250634396
 20
-44.5380993262
 10
-104.1895715849
 20
-44.5573976116
 10
-104.1529091183
 20
-44.5746295539
 10
-104.1154437467
 20
-44.5896335076
 10
-104.0771628556
 20
-44.6023878343
 10
-104.0380790595
 20
-44.6129143806
 10
-103.9985979086
 20
-44.6211167166
 10
-103.9588545862
 20
-44.6269627369
 10
-103.918713909
 20
-44.6304846572
 10
-103.8781758769
 20
-44.6316825048
  0
LWPOLYLINE
  5
240
100
AcDbEntity
  8
RACCORDO
100
AcDbPolyline
 62
253
  6
CONTINUOUS
 90
9
 70
0
 10
-104.8700585586
 20
43.8714290238
 10
-104.8488539353
 20
41.530635219
 10
-104.8294010733
 20
39.1852651697
 10
-104.8116999728
 20
36.8353188758
 10
-104.7957477181
 20
34.4803128887
 10
-104.7815472247
 20
32.1207306571
 10
-104.7691072395
 20
29.7580225269
 10
-104.7584306778
 20
27.3926719467
 10
-104.7495146241
 20
25.0241954679
  0
LWPOLYLINE
  5
241
100
AcDbEntity
  8
RACCORDO
100
AcDbPolyline
 62
253
  6
CONTINUOUS
 90
9
 70
0
 10
-104.5704696982
 20
43.9246281065
 10
-104.5492646814
 20
41.5803705021
 10
-104.5298115775
 20
39.2305985388
 10
-104.5121103866
 20
36.8757866537
 10
-104.4961582719
 20
34.5164144648
 10
-104.4819580701
 20
32.1529541779
 10
-104.4695182913
 20
29.7858704217
 10
-104.4588417721
 20
27.4156368628
 10
-104.4499256757
 20
25.0427361763
  0
LINE
  5
242
100
AcDbEntity
  8
RACCORDO
100
AcDbLine
 62
253
  6
CONTINUOUS
 10
-104.7495146241
 20
25.0241954679
 11
-104.7332181219
 21
18.8795044447
  0
LINE
  5
243
100
AcDbEntity
  8
RACCORDO
100
AcDbLine
 62
253
  6
CONTINUOUS
 10
-104.4499256757
 20
25.0427361763
 11
-104.4336291884
 21
18.8925039473
  0
LINE
  5
244
100
AcDbEntity
  8
RACCORDO
100
AcDbLine
 62
253
  6
CONTINUOUS
 10
-104.7332181219
 20
18.8795044447
 11
-104.7199214545
 21
11.3305150114
  0
LINE
  5
245
100
AcDbEntity
  8
RACCORDO
100
AcDbLine
 62
253
  6
CONTINUOUS
 10
-104.4336291884
 20
18.8925039473
 11
-104.4203325766
 21
11.3380604683
  0
LINE
  5
246
100
AcDbEntity
  8
RACCORDO
100
AcDbLine
 62
253
  6
CONTINUOUS
 10
-104.7199214545
 20
11.3305150114
 11
-104.7132711867
 21
3.77715111
  0
LINE
  5
247
100
AcDbEntity
  8
RACCORDO
100
AcDbLine
 62
253
  6
CONTINUOUS
 10
-104.4203325766
 20
11.3380604683
 11
-104.4136823257
 21
3.7797559319
  0
LINE
  5
248
100
AcDbEntity
  8
RACCORDO
100
AcDbLine
 62
7
  6
CONTINUOUS
 10
-105.0
 20
-44.0013704652
 11
-105.0
 21
44.0013704652
  0
LINE
  5
249
100
AcDbEntity
  8
RACCORDO
100
AcDbLine
 62
253
  6
CONTINUOUS
 10
-104.7132711867
 20
3.77715111
 11
-104.713271186
 21
-3.7771499691
  0
LINE
  5
24A
100
AcDbEntity
  8
RACCORDO
100
AcDbLine
 62
253
  6
CONTINUOUS
 10
-104.4136823257
 20
3.7797559319
 11
-104.4136823261
 21
-3.7797569659
  0
LINE
  5
24B
100
AcDbEntity
  8
RACCORDO
100
AcDbLine
 62
253
  6
CONTINUOUS
 10
-104.713271186
 20
-3.7771499691
 11
-104.7199214528
 21
-11.3305136537
  0
LINE
  5
24C
100
AcDbEntity
  8
RACCORDO
100
AcDbLine
 62
253
  6
CONTINUOUS
 10
-104.4136823261
 20
-3.7797569659
 11
-104.4203325776
 21
-11.3380611962
  0
LINE
  5
24D
100
AcDbEntity
  8
RACCORDO
100
AcDbLine
 62
253
  6
CONTINUOUS
 10
-104.7199214528
 20
-11.3305136537
 11
-104.7332181209
 21
-18.8795038031
  0
LINE
  5
24E
100
AcDbEntity
  8
RACCORDO
100
AcDbLine
 62
253
  6
CONTINUOUS
 10
-104.4203325776
 20
-11.3380611962
 11
-104.433629189
 21
-18.892504222
  0
LWPOLYLINE
  5
24F
100
AcDbEntity
  8
RACCORDO
100
AcDbPolyline
 62
253
  6
CONTINUOUS
 90
10
 70
0
 10
-104.433629189
 20
-18.892504222
 10
-104.449925677
 20
-25.0427362954
 10
-104.4588417737
 20
-27.4156370147
 10
-104.4695182923
 20
-29.7858705046
 10
-104.4819580688
 20
-32.1529539987
 10
-104.4961582673
 20
-34.516413923
 10
-104.5121103802
 20
-36.8757859222
 10
-104.5298115717
 20
-39.2305978808
 10
-104.5492646777
 20
-41.5803700883
 10
-104.5704696982
 20
-43.9246281065
  0
LWPOLYLINE
  5
250
100
AcDbEntity
  8
RACCORDO
100
AcDbPolyline
 62
253
  6
CONTINUOUS
 90
10
 70
0
 10
-104.7332181209
 20
-18.8795038031
 10
-104.7495146367
 20
-25.0241988665
 10
-104.7584307064
 20
-27.3926785798
 10
-104.7691072875
 20
-29.7580322302
 10
-104.7815473045
 20
-32.1207441804
 10
-104.7957478329
 20
-34.4803300678
 10
-104.8117000999
 20
-36.8353368046
 10
-104.829401181
 20
-39.1852800282
 10
-104.8488540005
 20
-41.5306441013
 10
-104.8700585586
 20
-43.8714290238
  0
LINE
  5
251
100
AcDbEntity
  8
RACCORDO
100
AcDbLine
 62
253
  6
CONTINUOUS
 10
-103.8781758769
 20
-44.6316825048
 11
-103.8781758769
 21
-44.8768054117
  0
LINE
  5
252
100
AcDbEntity
  8
RACCORDO
100
AcDbLine
 62
253
  6
CONTINUOUS
 10
-103.8781758769
 20
44.6316825048
 11
-103.8781758772
 21
44.8768054117
  0
LINE
  5
253
100
AcDbEntity
  8
RACCORDO
100
AcDbLine
 62
253
  6
CONTINUOUS
 10
-79.4942885593
 20
-21.8703705759
 11
-79.5097532489
 21
-14.5834397175
  0
LINE
  5
254
100
AcDbEntity
  8
RACCORDO
100
AcDbLine
 62
253
  6
CONTINUOUS
 10
-78.9949737704
 20
-21.846081448
 11
-79.0104384624
 21
-14.5669313808
  0
LINE
  5
255
100
AcDbEntity
  8
RACCORDO
100
AcDbLine
 62
253
  6
CONTINUOUS
 10
-79.5097532489
 20
-14.5834397175
 11
-79.5190327639
 21
-7.2926778504
  0
LINE
  5
256
100
AcDbEntity
  8
RACCORDO
100
AcDbLine
 62
253
  6
CONTINUOUS
 10
-79.0104384624
 20
-14.5669313808
 11
-79.0197179866
 21
-7.2846627828
  0
LINE
  5
257
100
AcDbEntity
  8
RACCORDO
100
AcDbLine
 62
253
  6
CONTINUOUS
 10
-79.5190327639
 20
-7.2926778504
 11
-79.5221266469
 21
-0.0000000449
  0
LINE
  5
258
100
AcDbEntity
  8
RACCORDO
100
AcDbLine
 62
253
  6
CONTINUOUS
 10
-79.0197179866
 20
-7.2846627828
 11
-79.0228118795
 21
0.0000046778
  0
LINE
  5
259
100
AcDbEntity
  8
0
100
AcDbLine
 62
7
  6
CONTINUOUS
 10
-78.85
 20
-21.7010963722
 11
-78.85
 21
21.7010963722
  0
LINE
  5
25A
100
AcDbEntity
  8
RACCORDO
100
AcDbLine
 62
253
  6
CONTINUOUS
 10
-78.1926456448
 20
23.1675430277
 11
-78.1926456448
 21
22.6415492726
  0
LINE
  5
25B
100
AcDbEntity
  8
RACCORDO
100
AcDbLine
 62
253
  6
CONTINUOUS
 10
-78.1926456448
 20
-23.1675430277
 11
-78.1926456448
 21
-22.6415492726
  0
LINE
  5
25C
100
AcDbEntity
  8
RACCORDO
100
AcDbLine
 62
253
  6
CONTINUOUS
 10
-79.5221266469
 20
-0.0000000449
 11
-79.5190327641
 21
7.2926777695
  0
LINE
  5
25D
100
AcDbEntity
  8
RACCORDO
100
AcDbLine
 62
253
  6
CONTINUOUS
 10
-79.0228118795
 20
0.0000046778
 11
-79.0197179775
 21
7.2846725872
  0
LINE
  5
25E
100
AcDbEntity
  8
RACCORDO
100
AcDbLine
 62
253
  6
CONTINUOUS
 10
-79.5190327641
 20
7.2926777695
 11
-79.5097532492
 21
14.5834396663
  0
LINE
  5
25F
100
AcDbEntity
  8
RACCORDO
100
AcDbLine
 62
253
  6
CONTINUOUS
 10
-79.0197179775
 20
7.2846725872
 11
-79.010438451
 21
14.5669391701
  0
LINE
  5
260
100
AcDbEntity
  8
RACCORDO
100
AcDbLine
 62
253
  6
CONTINUOUS
 10
-79.5097532492
 20
14.5834396663
 11
-79.4942885593
 21
21.8703705759
  0
LINE
  5
261
100
AcDbEntity
  8
RACCORDO
100
AcDbLine
 62
253
  6
CONTINUOUS
 10
-79.010438451
 20
14.5669391701
 11
-78.9949737654
 21
21.846084038
  0
LWPOLYLINE
  5
262
100
AcDbEntity
  8
RACCORDO
100
AcDbPolyline
 62
253
  6
CONTINUOUS
 90
16
 70
0
 10
-79.4942885593
 20
21.8703705759
 10
-79.4930696482
 20
21.9256977643
 10
-79.4893491109
 20
21.9812203203
 10
-79.4831269474
 20
22.0369382395
 10
-79.4744189504
 20
22.0930452931
 10
-79.4632093273
 20
22.1493476987
 10
-79.4494506998
 20
22.2052641322
 10
-79.4330759225
 20
22.2608089846
 10
-79.4141521409
 20
22.3159678772
 10
-79.3928334134
 20
22.3701163535
 10
-79.3690590079
 20
22.4232253812
 10
-79.3428896567
 20
22.4753240274
 10
-79.3146616141
 20
22.5258750061
 10
-79.2844869652
 20
22.5746992426
 10
-79.252253625
 20
22.6219758638
 10
-79.2179615936
 20
22.6677048937
  0
LWPOLYLINE
  5
263
100
AcDbEntity
  8
RACCORDO
100
AcDbPolyline
 62
253
  6
CONTINUOUS
 90
16
 70
0
 10
-78.9949737539
 20
21.8460840266
 10
-78.9941682721
 20
21.8799863143
 10
-78.9918904158
 20
21.9141382241
 10
-78.988103488
 20
21.9484744684
 10
-78.9827654961
 20
21.9829719617
 10
-78.9758492896
 20
22.0175125085
 10
-78.9673627526
 20
22.0518868095
 10
-78.9572944116
 20
22.0860358836
 10
-78.9456445297
 20
22.119870507
 10
-78.9324850269
 20
22.1531455608
 10
-78.9178449774
 20
22.1857888154
 10
-78.9017521356
 20
22.2177406585
 10
-78.8843240961
 20
22.2487946642
 10
-78.8656455063
 20
22.2788538116
 10
-78.8457457478
 20
22.3079194772
 10
-78.8246817863
 20
22.3359476087
  0
LWPOLYLINE
  5
264
100
AcDbEntity
  8
RACCORDO
100
AcDbPolyline
 62
253
  6
CONTINUOUS
 90
19
 70
0
 10
-79.2179615936
 20
22.6677048937
 10
-79.1763515819
 20
22.7182633631
 10
-79.1323970285
 20
22.7665090906
 10
-79.0860979334
 20
22.8124421741
 10
-79.0373275136
 20
22.856185478
 10
-78.9862125521
 20
22.8976163188
 10
-78.9331333978
 20
22.9363664805
 10
-78.8780583149
 20
22.9724168283
 10
-78.8210190391
 20
23.0057866808
 10
-78.7624911261
 20
23.0361655172
 10
-78.7024288641
 20
23.0635235532
 10
-78.6408779649
 20
23.0878907349
 10
-78.5784511205
 20
23.1090461402
 10
-78.5151331148
 20
23.126936511
 10
-78.4509391638
 20
23.141615225
 10
-78.3865276073
 20
23.1530213053
 10
-78.3221178919
 20
23.1611344469
 10
-78.2574905711
 20
23.165975016
 10
-78.1926456448
 20
23.1675430277
  0
LWPOLYLINE
  5
265
100
AcDbEntity
  8
RACCORDO
100
AcDbPolyline
 62
253
  6
CONTINUOUS
 90
19
 70
0
 10
-78.8246817863
 20
22.3359476087
 10
-78.7990830042
 20
22.3668591205
 10
-78.771922505
 20
22.3964852272
 10
-78.7432631352
 20
22.4247458834
 10
-78.7131733801
 20
22.4515620177
 10
-78.681723042
 20
22.4768619692
 10
-78.648982314
 20
22.50058075
 10
-78.6150162128
 20
22.5226586151
 10
-78.5799188397
 20
22.5430223145
 10
-78.5438117559
 20
22.5615964443
 10
-78.5067701843
 20
22.5783371431
 10
-78.4689030148
 20
22.5931902598
 10
-78.4303941157
 20
22.6060896159
 10
-78.3913427985
 20
22.6170126917
 10
-78.3518539734
 20
22.6259407359
 10
-78.3121289781
 20
22.6328483042
 10
-78.2723053082
 20
22.6377400429
 10
-78.2324526834
 20
22.6406344807
 10
-78.192671399
 20
22.6415493158
  0
LWPOLYLINE
  5
266
100
AcDbEntity
  8
RACCORDO
100
AcDbPolyline
 62
253
  6
CONTINUOUS
 90
16
 70
0
 10
-78.8246817863
 20
-22.3359476087
 10
-78.8455625291
 20
-22.3081747445
 10
-78.8653228245
 20
-22.2793478778
 10
-78.883902587
 20
-22.2495069992
 10
-78.9012685552
 20
-22.2186479267
 10
-78.9173328084
 20
-22.1868632489
 10
-78.9319745691
 20
-22.1543531312
 10
-78.9451587528
 20
-22.1211809696
 10
-78.9568542785
 20
-22.0874099464
 10
-78.9669900278
 20
-22.0532590913
 10
-78.9755600163
 20
-22.0188023065
 10
-78.9825629305
 20
-21.9841097445
 10
-78.9879798084
 20
-21.9494049196
 10
-78.9918306184
 20
-21.9148113324
 10
-78.9941518242
 20
-21.8803479564
 10
-78.994973761
 20
-21.8460814387
  0
LWPOLYLINE
  5
267
100
AcDbEntity
  8
RACCORDO
100
AcDbPolyline
 62
253
  6
CONTINUOUS
 90
16
 70
0
 10
-79.2179709811
 20
-22.6676911416
 10
-79.2519489926
 20
-22.6224275802
 10
-79.2839347626
 20
-22.5755700465
 10
-79.313928291
 20
-22.5271185159
 10
-79.3420496453
 20
-22.4768990554
 10
-79.368178758
 20
-22.4250855446
 10
-79.3919554269
 20
-22.3721996869
 10
-79.4133182266
 20
-22.3182240722
 10
-79.4323285825
 20
-22.2631760737
 10
-79.4488105682
 20
-22.2076295885
 10
-79.4627042935
 20
-22.151578117
 10
-79.4740696486
 20
-22.0950281422
 10
-79.4829103782
 20
-22.0385730568
 10
-79.4892277307
 20
-21.9824106652
 10
-79.4930204577
 20
-21.9263431706
 10
-79.4942885593
 20
-21.8703705759
  0
LINE
  5
268
100
AcDbEntity
  8
RACCORDO
100
AcDbLine
 62
253
  6
CONTINUOUS
 10
-104.8700585586
 20
-43.8714290238
 11
-105.0
 21
-44.0013704652
  0
LINE
  5
269
100
AcDbEntity
  8
RACCORDO
100
AcDbLine
 62
253
  6
CONTINUOUS
 10
-103.8781758769
 20
-44.8768054117
 11
-104.0013704652
 21
-45.0
  0
LWPOLYLINE
  5
26A
100
AcDbEntity
  8
RACCORDO
100
AcDbPolyline
 62
253
  6
CONTINUOUS
 90
28
 70
0
 10
103.8781758769
 20
-44.8768054117
 10
103.93578679
 20
-44.8750861756
 10
103.993186491
 20
-44.8700269096
 10
104.0501844407
 20
-44.8616430028
 10
104.1065777064
 20
-44.8499639429
 10
104.1621924189
 20
-44.8350253678
 10
104.2168823609
 20
-44.8168612786
 10
104.2704825348
 20
-44.7955145933
 10
104.3227897742
 20
-44.7710547175
 10
104.3736047723
 20
-44.7435684775
 10
104.4227429306
 20
-44.7131507633
 10
104.4700496338
 20
-44.6798929841
 10
104.515378277
 20
-44.6438930823
 10
104.5585729173
 20
-44.6052632506
 10
104.5994808767
 20
-44.5641285547
 10
104.6379673093
 20
-44.5206163526
 10
104.6738956263
 20
-44.4748641718
 10
104.7071348757
 20
-44.4270215538
 10
104.7375689344
 20
-44.3772445341
 10
104.7650866635
 20
-44.3256914554
 10
104.7895825078
 20
-44.2725352288
 10
104.8109637239
 20
-44.2179642341
 10
104.8291478267
 20
-44.1621609304
 10
104.8440639982
 20
-44.1053109523
 10
104.8556553218
 20
-44.0476157488
 10
104.8638747757
 20
-43.9892734721
 10
104.868684313
 20
-43.9304780154
 10
104.8700585586
 20
-43.8714290238
  0
LWPOLYLINE
  5
26B
100
AcDbEntity
  8
RACCORDO
100
AcDbPolyline
 62
253
  6
CONTINUOUS
 90
28
 70
0
 10
103.8781758769
 20
-44.6316825048
 10
103.9186969438
 20
-44.6304834787
 10
103.9588142111
 20
-44.6269657081
 10
103.9985276789
 20
-44.6211291657
 10
104.0379644978
 20
-44.6129447267
 10
104.0769975172
 20
-44.602441406
 10
104.1152452852
 20
-44.5897063624
 10
104.1527095796
 20
-44.5747131722
 10
104.1893886226
 20
-44.5574880505
 10
104.2248956289
 20
-44.5381971019
 10
104.2592114272
 20
-44.5168228911
 10
104.2923551888
 20
-44.4933825716
 10
104.3239976428
 20
-44.4680941368
 10
104.3541274616
 20
-44.4409385391
 10
104.3827559729
 20
-44.4119345022
 10
104.4095878881
 20
-44.3813567037
 10
104.4346080233
 20
-44.3491872479
 10
104.4578315625
 20
-44.3154437023
 10
104.4790087695
 20
-44.2804539909
 10
104.4981206026
 20
-44.2442008786
 10
104.5151861035
 20
-44.2067013078
 10
104.5300126608
 20
-44.1683345452
 10
104.5425767841
 20
-44.1290806128
 10
104.5529019638
 20
-44.0889592689
 10
104.5608660591
 20
-44.0484094866
 10
104.5664283565
 20
-44.0075775797
 10
104.5696295695
 20
-43.9663171381
 10
104.5704696982
 20
-43.9246281065
  0
LWPOLYLINE
  5
26C
100
AcDbEntity
  8
RACCORDO
100
AcDbPolyline
 62
253
  6
CONTINUOUS
 90
19
 70
0
 10
104.5704696982
 20
-43.9246280943
 10
104.5957596656
 20
-43.924207405
 10
104.6208695746
 20
-43.9234109463
 10
104.6456206487
 20
-43.9222443888
 10
104.6698366663
 20
-43.9207160381
 10
104.6933452151
 20
-43.9188367757
 10
104.7159789199
 20
-43.9166199815
 10
104.7375766343
 20
-43.9140814385
 10
104.7579845877
 20
-43.9112392206
 10
104.7770574805
 20
-43.9081135635
 10
104.7946595182
 20
-43.9047267214
 10
104.8106653787
 20
-43.9011028076
 10
104.824961104
 20
-43.8972676235
 10
104.837444912
 20
-43.8932484748
 10
104.8480279211
 20
-43.8890739767
 10
104.8566347828
 20
-43.8847738508
 10
104.8632042183
 20
-43.8803787129
 10
104.8676894548
 20
-43.8759198552
 10
104.8700585586
 20
-43.8714290238
  0
LINE
  5
26D
100
AcDbEntity
  8
RACCORDO
100
AcDbLine
 62
7
  6
CONTINUOUS
 10
-104.0013704652
 20
-45.0
 11
104.0013704652
 21
-45.0
  0
LINE
  5
26E
100
AcDbEntity
  8
RACCORDO
100
AcDbLine
 62
253
  6
CONTINUOUS
 10
-103.8781758769
 20
-44.8768054117
 11
103.8781758769
 21
-44.8768054117
  0
LINE
  5
26F
100
AcDbEntity
  8
RACCORDO
100
AcDbLine
 62
253
  6
CONTINUOUS
 10
-103.8781758769
 20
-44.6316825048
 11
103.8781758769
 21
-44.6316825048
  0
LWPOLYLINE
  5
270
100
AcDbEntity
  8
RACCORDO
100
AcDbPolyline
 62
253
  6
CONTINUOUS
 90
19
 70
0
 10
-104.5704696982
 20
-43.9246280998
 10
-104.5957594015
 20
-43.9242073646
 10
-104.6208690256
 20
-43.9234108659
 10
-104.6456197984
 20
-43.9222442744
 10
-104.669835503
 20
-43.9207158959
 10
-104.6933437321
 20
-43.9188366118
 10
-104.715977115
 20
-43.9166198021
 10
-104.73757451
 20
-43.9140812496
 10
-104.757982151
 20
-43.911239028
 10
-104.7770547427
 20
-43.9081133728
 10
-104.7946564948
 20
-43.9047265377
 10
-104.8106620889
 20
-43.9011026357
 10
-104.8249575708
 20
-43.8972674678
 10
-104.8374411614
 20
-43.8932483391
 10
-104.848023982
 20
-43.8890738642
 10
-104.8566306865
 20
-43.8847737642
 10
-104.8631999982
 20
-43.880378654
 10
-104.8676851458
 20
-43.8759198255
 10
-104.8700541966
 20
-43.871429024
  0
LINE
  5
271
100
AcDbEntity
  8
RACCORDO
100
AcDbLine
 62
253
  6
CONTINUOUS
 10
-104.8700585586
 20
43.8714290238
 11
-105.0
 21
44.0013704652
  0
LINE
  5
272
100
AcDbEntity
  8
RACCORDO
100
AcDbLine
 62
253
  6
CONTINUOUS
 10
-103.8781758769
 20
44.8768054117
 11
-104.0013704652
 21
45.0
  0
LINE
  5
273
100
AcDbEntity
  8
0
100
AcDbLine
 62
253
  6
CONTINUOUS
 10
-78.9949737704
 20
-21.846081448
 11
-78.85
 21
-21.7010963722
  0
LINE
  5
274
100
AcDbEntity
  8
0
100
AcDbLine
 62
253
  6
CONTINUOUS
 10
-78.1926541173
 20
-22.6415492726
 11
-78.0510963722
 21
-22.5
  0
LWPOLYLINE
  5
275
100
AcDbEntity
  8
RACCORDO
100
AcDbPolyline
 62
253
  6
CONTINUOUS
 90
13
 70
0
 10
-78.9781655163
 20
-22.4749144996
 10
-78.9561007015
 20
-22.4564859933
 10
-78.9354223799
 20
-22.4390424857
 10
-78.9162400395
 20
-22.422676337
 10
-78.8986552475
 20
-22.4074742033
 10
-78.8827611122
 20
-22.3935165769
 10
-78.8686417902
 20
-22.3808773612
 10
-78.8563720408
 20
-22.3696234784
 10
-78.8460168303
 20
-22.3598145159
 10
-78.8376309875
 20
-22.3515024105
 10
-78.8312589141
 20
-22.3447311732
 10
-78.826934349
 20
-22.3395366565
 10
-78.8246801902
 20
-22.3359463644
  0
LINE
  5
276
100
AcDbEntity
  8
RACCORDO
100
AcDbLine
 62
253
  6
CONTINUOUS
 10
-79.0259805857
 20
-22.514331507
 11
-78.9781655163
 21
-22.4749144996
  0
LINE
  5
277
100
AcDbEntity
  8
RACCORDO
100
AcDbLine
 62
253
  6
CONTINUOUS
 10
-79.0778562393
 20
-22.5564597887
 11
-79.0259805857
 21
-22.514331507
  0
LINE
  5
278
100
AcDbEntity
  8
RACCORDO
100
AcDbLine
 62
253
  6
CONTINUOUS
 10
-79.1326952419
 20
-22.6004082786
 11
-79.0778562393
 21
-22.5564597887
  0
LWPOLYLINE
  5
279
100
AcDbEntity
  8
RACCORDO
100
AcDbPolyline
 62
253
  6
CONTINUOUS
 90
3
 70
0
 10
-79.2179615936
 20
-22.6677047803
 10
-79.1893376796
 20
-22.6452474111
 10
-79.1326952419
 20
-22.6004082786
  0
LINE
  5
27A
100
AcDbEntity
  8
RACCORDO
100
AcDbLine
 62
253
  6
CONTINUOUS
 10
-79.2179615936
 20
22.6677047264
 11
-79.1608652592
 21
22.622775493
  0
LINE
  5
27B
100
AcDbEntity
  8
RACCORDO
100
AcDbLine
 62
253
  6
CONTINUOUS
 10
-79.1608652592
 20
22.622775493
 11
-79.1049765067
 21
22.5782637897
  0
LINE
  5
27C
100
AcDbEntity
  8
RACCORDO
100
AcDbLine
 62
253
  6
CONTINUOUS
 10
-79.1049765067
 20
22.5782637897
 11
-79.051477458
 21
22.5351110986
  0
LWPOLYLINE
  5
27D
100
AcDbEntity
  8
RACCORDO
100
AcDbPolyline
 62
253
  6
CONTINUOUS
 90
15
 70
0
 10
-79.051477458
 20
22.5351110986
 10
-79.0014996896
 20
22.4942301565
 10
-78.9781651619
 20
22.4749141916
 10
-78.9561002983
 20
22.45648565
 10
-78.9354219287
 20
22.4390421077
 10
-78.916239542
 20
22.4226759257
 10
-78.8986547058
 20
22.4074737602
 10
-78.8827605291
 20
22.3935161043
 10
-78.8686411692
 20
22.3808768616
 10
-78.8563713857
 20
22.369622955
 10
-78.8460161454
 20
22.3598139719
 10
-78.8376302776
 20
22.3515018495
 10
-78.8312581842
 20
22.3447305992
 10
-78.8269336044
 20
22.3395360735
 10
-78.8246794363
 20
22.3359457767
  0
LINE
  5
27E
100
AcDbEntity
  8
0
100
AcDbLine
 62
253
  6
CONTINUOUS
 10
-78.1926713554
 20
22.6415492726
 11
-78.0510963722
 21
22.5
  0
LINE
  5
27F
100
AcDbEntity
  8
0
100
AcDbLine
 62
253
  6
CONTINUOUS
 10
-78.9949737654
 20
21.846084038
 11
-78.85
 21
21.7010963722
  0
LWPOLYLINE
  5
280
100
AcDbEntity
  8
0
100
AcDbPolyline
 62
7
  6
CONTINUOUS
 90
22
 70
0
 10
3.6000188023
 20
-26.110807341
 10
3.6885570541
 20
-26.0980472822
 10
3.7750567169
 20
-26.0866308337
 10
3.8595177909
 20
-26.0765580151
 10
3.9419106002
 20
-26.0677878736
 10
4.0222648207
 20
-26.0603613939
 10
4.1006694793
 20
-26.0544015004
 10
4.1771636095
 20
-26.0499504655
 10
4.2517081778
 20
-26.0469660363
 10
4.3242751117
 20
-26.0454443462
 10
4.3948188422
 20
-26.045413097
 10
4.4633849382
 20
-26.0468445898
 10
4.5300820337
 20
-26.0496518524
 10
4.5949726914
 20
-26.053772625
 10
4.6579943485
 20
-26.0592691555
 10
4.7190679505
 20
-26.0662412299
 10
4.7782483995
 20
-26.0746841312
 10
4.8354807933
 20
-26.0846025475
 10
4.8905213715
 20
-26.096110365
 10
4.9432888806
 20
-26.1092455286
 10
4.9938645739
 20
-26.1239700429
 10
5.0422484517
 20
-26.1402838781
  0
LWPOLYLINE
  5
281
100
AcDbEntity
  8
0
100
AcDbPolyline
 62
7
  6
CONTINUOUS
 90
28
 70
0
 10
4.496680797
 20
-27.3236280866
 10
4.5286338981
 20
-27.3223163458
 10
4.5593114635
 20
-27.3199807128
 10
4.5887134934
 20
-27.3166211841
 10
4.6167668576
 20
-27.3122536208
 10
4.6435446861
 20
-27.3068621508
 10
4.6692663697
 20
-27.3003991688
 10
4.693995462
 20
-27.2929010629
 10
4.7176684093
 20
-27.2843314243
 10
4.740313941
 20
-27.2745334483
 10
4.7619559302
 20
-27.2635486414
 10
4.7825705039
 20
-27.2513354618
 10
4.8021147729
 20
-27.2376125222
 10
4.8206056202
 20
-27.2222611999
 10
4.8380261628
 20
-27.2054000547
 10
4.8542828625
 20
-27.1871034655
 10
4.8693801062
 20
-27.1672531486
 10
4.8833135069
 20
-27.1459673097
 10
4.8959763654
 20
-27.1236750715
 10
4.9073445293
 20
-27.1004093898
 10
4.917442151
 20
-27.0761372468
 10
4.9262349879
 20
-27.051188827
 10
4.9337438767
 20
-27.0256434166
 10
4.9399479808
 20
-26.9994216852
 10
4.9447505467
 20
-26.9726159057
 10
4.9481193233
 20
-26.9452568232
 10
4.9500865618
 20
-26.9173136514
 10
4.9506522622
 20
-26.8887863689
  0
LINE
  5
282
100
AcDbEntity
  8
RACCORDO
100
AcDbLine
 62
253
  6
CONTINUOUS
 10
-79.3174282049
 20
-21.8683496278
 11
-79.2518755116
 21
-21.8667068282
  0
LINE
  5
283
100
AcDbEntity
  8
RACCORDO
100
AcDbLine
 62
253
  6
CONTINUOUS
 10
-79.3866734236
 20
-21.8695272723
 11
-79.3174282049
 21
-21.8683496278
  0
LWPOLYLINE
  5
284
100
AcDbEntity
  8
RACCORDO
100
AcDbPolyline
 62
253
  6
CONTINUOUS
 90
17
 70
0
 10
104.4931469953
 20
-22.667357485
 10
104.5178871765
 20
-22.6670254536
 10
104.5420930806
 20
-22.6665907705
 10
104.5655925403
 20
-22.6660565275
 10
104.5882184134
 20
-22.6654265243
 10
104.6098097709
 20
-22.664705242
 10
104.6302130421
 20
-22.6638978107
 10
104.6492831066
 20
-22.6630099734
 10
104.6668843265
 20
-22.6620480449
 10
104.6828915112
 20
-22.6610188671
 10
104.6971908081
 20
-22.6599297601
 10
104.7096805118
 20
-22.6587884702
 10
104.7202717881
 20
-22.657603115
 10
104.7288893053
 20
-22.6563821255
 10
104.7354717705
 20
-22.6551341861
 10
104.7399723652
 20
-22.6538681728
 10
104.7423590785
 20
-22.6525930904
  0
LINE
  5
285
100
AcDbEntity
  8
RACCORDO
100
AcDbLine
 62
253
  6
CONTINUOUS
 10
104.4427702181
 20
-22.6677048932
 11
104.4931469953
 21
-22.667357485
  0
LWPOLYLINE
  5
286
100
AcDbEntity
  8
RACCORDO
100
AcDbPolyline
 62
253
  6
CONTINUOUS
 90
3
 70
0
 10
-79.4942885593
 20
-21.8703705753
 10
-79.4581654523
 20
-21.8702151746
 10
-79.3866734236
 20
-21.8695272723
  0
LINE
  5
287
100
AcDbEntity
  8
0
100
AcDbLine
 62
7
  6
CONTINUOUS
 10
5.6391482119
 20
-28.8778013544
 11
5.0770156219
 21
-28.8778013544
  0
LINE
  5
288
100
AcDbEntity
  8
0
100
AcDbLine
 62
7
  6
CONTINUOUS
 10
4.1820753449
 20
-28.8778013544
 11
3.6000188023
 21
-28.8778013544
  0
LINE
  5
289
100
AcDbEntity
  8
0
100
AcDbLine
 62
7
  6
CONTINUOUS
 10
3.298408
 20
-28.877801
 11
2.682466
 21
-28.877801
  0
LINE
  5
28A
100
AcDbEntity
  8
0
100
AcDbLine
 62
7
  6
CONTINUOUS
 10
1.573947
 20
-28.877801
 11
0.99588
 21
-28.877801
  0
LINE
  5
28B
100
AcDbEntity
  8
0
100
AcDbLine
 62
7
  6
CONTINUOUS
 10
0.694112
 20
-28.877801
 11
0.122406
 21
-28.877801
  0
LINE
  5
28C
100
AcDbEntity
  8
0
100
AcDbLine
 62
7
  6
CONTINUOUS
 10
-0.692524
 20
-28.877801
 11
-0.774487
 21
-28.877801
  0
LINE
  5
28D
100
AcDbEntity
  8
0
100
AcDbLine
 62
7
  6
CONTINUOUS
 10
-1.586183
 20
-28.877801
 11
-2.145272
 21
-28.877801
  0
LINE
  5
28E
100
AcDbEntity
  8
0
100
AcDbLine
 62
7
  6
CONTINUOUS
 10
-2.449877
 20
-28.877801
 11
-3.034285
 21
-28.877801
  0
LINE
  5
28F
100
AcDbEntity
  8
0
100
AcDbLine
 62
7
  6
CONTINUOUS
 10
-4.231097
 20
-28.877801
 11
-4.746107
 21
-28.877801
  0
LINE
  5
290
100
AcDbEntity
  8
0
100
AcDbLine
 62
7
  6
CONTINUOUS
 10
2.531074
 20
-28.318881
 11
1.735207
 21
-28.318881
  0
LINE
  5
291
100
AcDbEntity
  8
0
100
AcDbLine
 62
7
  6
CONTINUOUS
 10
2.41428
 20
-27.886391
 11
1.854751
 21
-27.886391
  0
LINE
  5
292
100
AcDbEntity
  8
0
100
AcDbLine
 62
7
  6
CONTINUOUS
 10
4.4954209623
 20
-27.7821519248
 11
4.1820753449
 21
-27.7821519248
  0
LINE
  5
293
100
AcDbEntity
  8
0
100
AcDbLine
 62
7
  6
CONTINUOUS
 10
4.4966806432
 20
-27.3236280866
 11
4.1626972541
 21
-27.3236280866
  0
LINE
  5
294
100
AcDbEntity
  8
0
100
AcDbLine
 62
7
  6
CONTINUOUS
 10
2.43939
 20
-26.078098
 11
1.874045
 21
-26.078098
  0
LINE
  5
295
100
AcDbEntity
  8
0
100
AcDbLine
 62
7
  6
CONTINUOUS
 10
0.432308
 20
-26.078098
 11
-0.145906
 21
-26.078098
  0
LINE
  5
296
100
AcDbEntity
  8
0
100
AcDbLine
 62
7
  6
CONTINUOUS
 10
-1.30855
 20
-26.078098
 11
-1.892475
 21
-26.078098
  0
LINE
  5
297
100
AcDbEntity
  8
0
100
AcDbLine
 62
7
  6
CONTINUOUS
 10
-3.33116
 20
-26.078098
 11
-3.915169
 21
-26.078098
  0
LINE
  5
298
100
AcDbEntity
  8
0
100
AcDbLine
 62
7
  6
CONTINUOUS
 10
-4.99882
 20
-26.078098
 11
-5.633668
 21
-26.078098
  0
LINE
  5
299
100
AcDbEntity
  8
0
100
AcDbLine
 62
7
  6
CONTINUOUS
 10
-2.449877
 20
-26.07793
 11
-3.034285
 21
-26.07793
  0
LINE
  5
29A
100
AcDbEntity
  8
RACCORDO
100
AcDbLine
 62
253
  6
CONTINUOUS
 10
78.1926456448
 20
-23.1675430277
 11
-78.1926456448
 21
-23.1675430277
  0
LINE
  5
29B
100
AcDbEntity
  8
RACCORDO
100
AcDbLine
 62
253
  6
CONTINUOUS
 10
104.4427701044
 20
-22.6676475367
 11
79.2179615936
 21
-22.6677048937
  0
LINE
  5
29C
100
AcDbEntity
  8
RACCORDO
100
AcDbLine
 62
253
  6
CONTINUOUS
 10
-79.2179709811
 20
-22.6676911416
 11
-104.4427701041
 21
-22.6676473889
  0
LINE
  5
29D
100
AcDbEntity
  8
RACCORDO
100
AcDbLine
 62
253
  6
CONTINUOUS
 10
78.1926713554
 20
-22.6415492726
 11
-78.1926541173
 21
-22.6415492726
  0
LINE
  5
29E
100
AcDbEntity
  8
0
100
AcDbLine
 62
7
  6
CONTINUOUS
 10
78.0510963722
 20
-22.5
 11
-78.0510963722
 21
-22.5
  0
LINE
  5
29F
100
AcDbEntity
  8
RACCORDO
100
AcDbLine
 62
253
  6
CONTINUOUS
 10
79.4942885593
 20
-21.8703705168
 11
79.4222310587
 21
-21.8699335366
  0
LWPOLYLINE
  5
2A0
100
AcDbEntity
  8
RACCORDO
100
AcDbPolyline
 62
253
  6
CONTINUOUS
 90
18
 70
0
 10
-104.4427702181
 20
-22.6677048929
 10
-104.4931469947
 20
-22.6673574847
 10
-104.5178871757
 20
-22.6670254534
 10
-104.5420930795
 20
-22.6665907703
 10
-104.565592539
 20
-22.6660565272
 10
-104.5882184119
 20
-22.6654265241
 10
-104.6098097693
 20
-22.6647052418
 10
-104.6302130404
 20
-22.6638978105
 10
-104.6492831048
 20
-22.6630099732
 10
-104.6668843246
 20
-22.6620480448
 10
-104.6828915094
 20
-22.661018867
 10
-104.6971908064
 20
-22.65992976
 10
-104.7096805103
 20
-22.6587884701
 10
-104.7202717867
 20
-22.6576031149
 10
-104.7288893042
 20
-22.6563821254
 10
-104.7354717697
 20
-22.655134186
 10
-104.7399723648
 20
-22.6538681728
 10
-104.7423590785
 20
-22.6525930904
  0
LWPOLYLINE
  5
2A1
100
AcDbEntity
  8
RACCORDO
100
AcDbPolyline
 62
253
  6
CONTINUOUS
 90
31
 70
0
 10
-78.1926541317
 20
-22.641549287
 10
-78.218620985
 20
-22.6411751138
 10
-78.2442376462
 20
-22.6399846691
 10
-78.2694795516
 20
-22.6380101152
 10
-78.2942973275
 20
-22.6352873753
 10
-78.3186973266
 20
-22.6318472718
 10
-78.3427404035
 20
-22.6277072304
 10
-78.3664076544
 20
-22.6228929457
 10
-78.3896826554
 20
-22.6174301229
 10
-78.412629297
 20
-22.6113219323
 10
-78.4352307928
 20
-22.6045875427
 10
-78.4574721279
 20
-22.5972461453
 10
-78.479417227
 20
-22.5892871881
 10
-78.5010499406
 20
-22.5807235849
 10
-78.5223543968
 20
-22.5715687024
 10
-78.543390556
 20
-22.5617996228
 10
-78.5641409446
 20
-22.5514237488
 10
-78.5845874956
 20
-22.540449335
 10
-78.6047833074
 20
-22.5288426095
 10
-78.6247076209
 20
-22.5166065188
 10
-78.6443391142
 20
-22.5037448912
 10
-78.6637225173
 20
-22.490214087
 10
-78.6828319457
 20
-22.4760137885
 10
-78.7016416518
 20
-22.4611440797
 10
-78.7201873335
 20
-22.4455515599
 10
-78.7384351527
 20
-22.4292348435
 10
-78.756354502
 20
-22.4121901516
 10
-78.7739743028
 20
-22.3943505199
 10
-78.7912741733
 20
-22.3756880853
 10
-78.8081909477
 20
-22.3562209428
 10
-78.8246817863
 20
-22.3359476087
  0
LINE
  5
2A2
100
AcDbEntity
  8
RACCORDO
100
AcDbLine
 62
253
  6
CONTINUOUS
 10
79.4222310587
 20
-21.8699335366
 11
79.3516779593
 21
-21.8689983299
  0
LWPOLYLINE
  5
2A3
100
AcDbEntity
  8
RACCORDO
100
AcDbPolyline
 62
253
  6
CONTINUOUS
 90
31
 70
0
 10
-78.1926456448
 20
-23.1675430277
 10
-78.2348377477
 20
-23.1667729449
 10
-78.2763862646
 20
-23.1647788527
 10
-78.3172911956
 20
-23.1615607487
 10
-78.3575406831
 20
-23.1570774682
 10
-78.3971465846
 20
-23.1513701668
 10
-78.4361444728
 20
-23.144562321
 10
-78.4745298853
 20
-23.1366689744
 10
-78.5123072846
 20
-23.1276750681
 10
-78.5495256305
 20
-23.1176589243
 10
-78.586184017
 20
-23.1066347773
 10
-78.6222833501
 20
-23.0945883726
 10
-78.6578753079
 20
-23.0815552986
 10
-78.6929630459
 20
-23.0675484205
 10
-78.7275434085
 20
-23.0525548482
 10
-78.7616586072
 20
-23.0365715367
 10
-78.7953150694
 20
-23.0196096398
 10
-78.8285063677
 20
-23.0016579734
 10
-78.8612554307
 20
-22.9826799836
 10
-78.8935711541
 20
-22.9626853296
 10
-78.9254446421
 20
-22.9416643153
 10
-78.9568721361
 20
-22.9195513512
 10
-78.987864575
 20
-22.8963549253
 10
-79.0184110199
 20
-22.8720665044
 10
-79.0484748952
 20
-22.8465949623
 10
-79.0780691045
 20
-22.8199486136
 10
-79.1071807443
 20
-22.7921190882
 10
-79.1357345284
 20
-22.7629902261
 10
-79.1637053616
 20
-22.732523283
 10
-79.191118339
 20
-22.7007569337
 10
-79.2179734609
 20
-22.6676911416
  0
LWPOLYLINE
  5
2A4
100
AcDbEntity
  8
RACCORDO
100
AcDbPolyline
 62
253
  6
CONTINUOUS
 90
17
 70
0
 10
79.3516779593
 20
-21.8689983299
 10
79.284102289
 20
-21.8675844222
 10
79.2518751303
 20
-21.8667068055
 10
79.2209149123
 20
-21.8657213334
 10
79.1913834456
 20
-21.8646331564
 10
79.1634350734
 20
-21.8634479617
 10
79.1372158653
 20
-21.8621719437
 10
79.1128628531
 20
-21.8608117712
 10
79.0905033157
 20
-21.8593745532
 10
79.0702541128
 20
-21.8578678011
 10
79.0522210749
 20
-21.8562993898
 10
79.03649845
 20
-21.8546775164
 10
79.0231684107
 20
-21.8530106575
 10
79.0123006252
 20
-21.8513075248
 10
79.003951893
 20
-21.8495770195
 10
78.9981658477
 20
-21.8478281859
 10
78.9949727297
 20
-21.8460701642
  0
LWPOLYLINE
  5
2A5
100
AcDbEntity
  8
0
100
AcDbPolyline
 62
7
  6
CONTINUOUS
 90
10
 70
0
 10
4.6205133991
 20
-26.5385722392
 10
4.5720439966
 20
-26.5336623006
 10
4.52291535
 20
-26.5304181566
 10
4.4731274594
 20
-26.5288398144
 10
4.4226010189
 20
-26.5289012304
 10
4.3714153342
 20
-26.5306284514
 10
4.3198083237
 20
-26.5340996145
 10
4.2678592931
 20
-26.5393407585
 10
4.2154889366
 20
-26.5463258244
 10
4.1626972541
 20
-26.5550547959
  0
LWPOLYLINE
  5
2A6
100
AcDbEntity
  8
0
100
AcDbPolyline
 62
7
  6
CONTINUOUS
 90
54
 70
0
 10
5.0422484517
 20
-26.1402838781
 10
5.070135411
 20
-26.1513980316
 10
5.0983415693
 20
-26.164763192
 10
5.1268669265
 20
-26.1803793207
 10
5.1558062828
 20
-26.1981676004
 10
5.185064838
 20
-26.2182067526
 10
5.2143581916
 20
-26.24073303
 10
5.24390978
 20
-26.2657950284
 10
5.2734961668
 20
-26.2933439973
 10
5.302162643
 20
-26.3234701481
 10
5.3299558765
 20
-26.3564356806
 10
5.3568291994
 20
-26.3919781741
 10
5.3816878992
 20
-26.4294009248
 10
5.4043437068
 20
-26.4687295602
 10
5.4249848913
 20
-26.5099382586
 10
5.4430815476
 20
-26.5522532088
 10
5.4584477188
 20
-26.595921655
 10
5.4712693618
 20
-26.6406962118
 10
5.4815744417
 20
-26.6850612528
 10
5.4891561796
 20
-26.7288786296
 10
5.4942213544
 20
-26.772286538
 10
5.4974182674
 20
-26.8141840225
 10
5.4987946469
 20
-26.8542110875
 10
5.4983027645
 20
-26.8927279043
 10
5.4964477364
 20
-26.9297138285
 10
5.4932768252
 20
-26.9651241354
 10
5.4887427682
 20
-26.999003699
 10
5.4832088946
 20
-27.0314662644
 10
5.4766904815
 20
-27.062517988
 10
5.4691722517
 20
-27.0921528347
 10
5.4609717022
 20
-27.1204662489
 10
5.4521111294
 20
-27.1474422555
 10
5.442568237
 20
-27.1730969296
 10
5.4325936334
 20
-27.1975737789
 10
5.422210912
 20
-27.2208816506
 10
5.4113964794
 20
-27.2430117748
 10
5.4003301641
 20
-27.2640812218
 10
5.3890324731
 20
-27.2840899886
 10
5.3774828993
 20
-27.3030381388
 10
5.3657997501
 20
-27.3210428342
 10
5.3539875343
 20
-27.338106233
 10
5.3420417431
 20
-27.3542262233
 10
5.3300671576
 20
-27.3695135548
 10
5.3180573933
 20
-27.3839508065
 10
5.3060188345
 20
-27.3975554345
 10
5.2940754151
 20
-27.410490497
 10
5.2822398996
 20
-27.4227592804
 10
5.2704995234
 20
-27.434358522
 10
5.2589399266
 20
-27.445441451
 10
5.2475722245
 20
-27.4560220697
 10
5.2363853018
 20
-27.4660863914
 10
5.2254314522
 20
-27.4757456563
 10
5.2147372692
 20
-27.485016699
 10
5.2042761593
 20
-27.4938826956
  0
LWPOLYLINE
  5
2A7
100
AcDbEntity
  8
0
100
AcDbPolyline
 62
7
  6
CONTINUOUS
 90
3
 70
0
 10
5.1025031649
 20
-27.5709244369
 10
5.1283841821
 20
-27.5830382144
 10
5.1528515087
 20
-27.5967117984
  0
LWPOLYLINE
  5
2A8
100
AcDbEntity
  8
0
100
AcDbPolyline
 62
7
  6
CONTINUOUS
 90
22
 70
0
 10
5.1528515087
 20
-27.5967117984
 10
5.1759051446
 20
-27.6119451581
 10
5.1975363753
 20
-27.6290155825
 10
5.2177539154
 20
-27.6476457054
 10
5.2365839085
 20
-27.6670035293
 10
5.2538997837
 20
-27.6869015673
 10
5.269828112
 20
-27.707527268
 10
5.2847747503
 20
-27.7286110663
 10
5.2988162633
 20
-27.7501649212
 10
5.3118760864
 20
-27.7721768442
 10
5.3241303828
 20
-27.7943413664
 10
5.3355926436
 20
-27.8166395252
 10
5.3462493776
 20
-27.8390902729
 10
5.3562362751
 20
-27.861445031
 10
5.3655502368
 20
-27.8836512754
 10
5.3741943621
 20
-27.9057615368
 10
5.3823136387
 20
-27.9276848303
 10
5.3898933073
 20
-27.9493581422
 10
5.3969481274
 20
-27.9708444987
 10
5.4036673654
 20
-27.9922419747
 10
5.4100376289
 20
-28.0135409087
 10
5.4160723103
 20
-28.0347509674
  0
LWPOLYLINE
  5
2A9
100
AcDbEntity
  8
RACCORDO
100
AcDbPolyline
 62
253
  6
CONTINUOUS
 90
15
 70
0
 10
-79.2518755116
 20
-21.8667068282
 10
-79.2209153628
 20
-21.8657213525
 10
-79.1913839656
 20
-21.8646331723
 10
-79.1634356624
 20
-21.8634479747
 10
-79.1372165215
 20
-21.8621719542
 10
-79.1128635741
 20
-21.8608117796
 10
-79.0905040978
 20
-21.8593745597
 10
-79.0702549518
 20
-21.8578678061
 10
-79.0522219658
 20
-21.8562993935
 10
-79.0364993868
 20
-21.8546775191
 10
-79.0231693872
 20
-21.8530106594
 10
-79.0123016344
 20
-21.851307526
 10
-79.0039529276
 20
-21.8495770202
 10
-78.9981669001
 20
-21.8478281862
 10
-78.994973792
 20
-21.8460701642
  0
LINE
  5
2AA
100
AcDbEntity
  8
0
100
AcDbLine
 62
7
  6
CONTINUOUS
 10
-0.774487
 20
-28.877801
 11
-1.460068
 21
-27.049647
  0
LINE
  5
2AB
100
AcDbEntity
  8
0
100
AcDbLine
 62
7
  6
CONTINUOUS
 10
-0.730314
 20
-27.632502
 11
-1.30855
 21
-26.078098
  0
LINE
  5
2AC
100
AcDbEntity
  8
0
100
AcDbLine
 62
7
  6
CONTINUOUS
 10
-4.746107
 20
-28.877801
 11
-5.633668
 21
-26.078098
  0
LINE
  5
2AD
100
AcDbEntity
  8
0
100
AcDbLine
 62
7
  6
CONTINUOUS
 10
-4.465146
 20
-28.00522
 11
-4.99882
 21
-26.078098
  0
LINE
  5
2AE
100
AcDbEntity
  8
0
100
AcDbLine
 62
7
  6
CONTINUOUS
 10
0.694112
 20
-28.877801
 11
0.432308
 21
-26.078098
  0
LINE
  5
2AF
100
AcDbEntity
  8
0
100
AcDbLine
 62
7
  6
CONTINUOUS
 10
0.122406
 20
-28.877801
 11
0.002337
 21
-27.057269
  0
LINE
  5
2B0
100
AcDbEntity
  8
0
100
AcDbLine
 62
7
  6
CONTINUOUS
 10
-3.034285
 20
-28.877801
 11
-3.034285
 21
-26.07793
  0
LINE
  5
2B1
100
AcDbEntity
  8
0
100
AcDbLine
 62
7
  6
CONTINUOUS
 10
-2.449877
 20
-28.877801
 11
-2.449877
 21
-26.07793
  0
LINE
  5
2B2
100
AcDbEntity
  8
0
100
AcDbLine
 62
7
  6
CONTINUOUS
 10
-1.586183
 20
-28.877801
 11
-1.460068
 21
-27.049647
  0
LINE
  5
2B3
100
AcDbEntity
  8
0
100
AcDbLine
 62
7
  6
CONTINUOUS
 10
-2.145272
 20
-28.877801
 11
-1.892475
 21
-26.078098
  0
LWPOLYLINE
  5
2B4
100
AcDbEntity
  8
0
100
AcDbPolyline
 62
7
  6
CONTINUOUS
 90
19
 70
0
 10
4.8214020807
 20
-28.0286629956
 10
4.8116082121
 20
-28.0047721832
 10
4.800636491
 20
-27.9817335011
 10
4.7884869172
 20
-27.9595469788
 10
4.775155794
 20
-27.9381366987
 10
4.7606468182
 20
-27.9175786324
 10
4.7449710802
 20
-27.8981006494
 10
4.7280323831
 20
-27.8795925612
 10
4.7099269238
 20
-27.862164615
 10
4.6909543843
 20
-27.8463753516
 10
4.6710658471
 20
-27.8323499018
 10
4.6503102296
 20
-27.8199632084
 10
4.6291339665
 20
-27.8093985416
 10
4.607638271
 20
-27.8008091909
 10
4.5857219299
 20
-27.7940419193
 10
4.5635277376
 20
-27.7888202013
 10
4.5411032922
 20
-27.7850518673
 10
4.5184009957
 20
-27.7828291068
 10
4.4954208479
 20
-27.7821519248
  0
LINE
  5
2B5
100
AcDbEntity
  8
0
100
AcDbLine
 62
7
  6
CONTINUOUS
 10
3.298408
 20
-28.877801
 11
2.43939
 21
-26.078098
  0
LWPOLYLINE
  5
2B6
100
AcDbEntity
  8
0
100
AcDbPolyline
 62
7
  6
CONTINUOUS
 90
8
 70
0
 10
4.9109651014
 20
-28.3034511535
 10
4.8992803262
 20
-28.2638852554
 10
4.8873390928
 20
-28.2244272524
 10
4.87514118
 20
-28.1850821978
 10
4.8624701648
 20
-28.1458347701
 10
4.8492539059
 20
-28.1066798668
 10
4.8355645446
 20
-28.067622606
 10
4.8214020807
 20
-28.0286629956
  0
LINE
  5
2B7
100
AcDbEntity
  8
0
100
AcDbLine
 62
7
  6
CONTINUOUS
 10
5.0770156219
 20
-28.8778013544
 11
4.9795590686
 21
-28.5437655356
  0
LWPOLYLINE
  5
2B8
100
AcDbEntity
  8
0
100
AcDbPolyline
 62
7
  6
CONTINUOUS
 90
4
 70
0
 10
4.9795590686
 20
-28.5437655356
 10
4.9564588983
 20
-28.4630199569
 10
4.9451400957
 20
-28.4229143949
 10
4.9109651014
 20
-28.3034511535
  0
LWPOLYLINE
  5
2B9
100
AcDbEntity
  8
0
100
AcDbPolyline
 62
7
  6
CONTINUOUS
 90
3
 70
0
 10
5.4160723103
 20
-28.0347509674
 10
5.4278997419
 20
-28.0773279867
 10
5.433692492
 20
-28.0986949433
  0
LINE
  5
2BA
100
AcDbEntity
  8
0
100
AcDbLine
 62
7
  6
CONTINUOUS
 10
2.682466
 20
-28.877801
 11
2.531074
 21
-28.318881
  0
LINE
  5
2BB
100
AcDbEntity
  8
0
100
AcDbLine
 62
7
  6
CONTINUOUS
 10
5.433692492
 20
-28.0986949433
 11
5.5092367565
 21
-28.3820251767
  0
LINE
  5
2BC
100
AcDbEntity
  8
0
100
AcDbLine
 62
7
  6
CONTINUOUS
 10
5.5092367565
 20
-28.3820251767
 11
5.6391482119
 21
-28.8778013544
  0
LINE
  5
2BD
100
AcDbEntity
  8
0
100
AcDbLine
 62
7
  6
CONTINUOUS
 10
2.41428
 20
-27.886391
 11
2.145737
 21
-26.847385
  0
LWPOLYLINE
  5
2BE
100
AcDbEntity
  8
0
100
AcDbPolyline
 62
7
  6
CONTINUOUS
 90
22
 70
0
 10
4.9506522622
 20
-26.8887863689
 10
4.9495402042
 20
-26.8657819356
 10
4.9468535122
 20
-26.8428034166
 10
4.9425921863
 20
-26.8198508132
 10
4.9367881303
 20
-26.7968234717
 10
4.9294094403
 20
-26.7738220462
 10
4.9203604051
 20
-26.7511485092
 10
4.9096233433
 20
-26.7287084302
 10
4.8972159363
 20
-26.7065962586
 10
4.8830955165
 20
-26.6853973134
 10
4.867107692
 20
-26.6651059335
 10
4.8494068547
 20
-26.6457278314
 10
4.8304135131
 20
-26.6278654173
 10
4.8100869667
 20
-26.6116975666
 10
4.7884679159
 20
-26.5970454759
 10
4.7660989714
 20
-26.5839750495
 10
4.7430391275
 20
-26.5725204312
 10
4.7192293897
 20
-26.5626475292
 10
4.6950353853
 20
-26.5543198909
 10
4.6705789899
 20
-26.5475253754
 10
4.6457383279
 20
-26.5422761546
 10
4.6205133991
 20
-26.5385722392
  0
LINE
  5
2BF
100
AcDbEntity
  8
0
100
AcDbLine
 62
7
  6
CONTINUOUS
 10
3.6000188023
 20
-28.8778013544
 11
3.6000188023
 21
-26.110807341
  0
LINE
  5
2C0
100
AcDbEntity
  8
0
100
AcDbLine
 62
7
  6
CONTINUOUS
 10
4.1626972541
 20
-27.3236280866
 11
4.1626972541
 21
-26.5550547959
  0
LINE
  5
2C1
100
AcDbEntity
  8
0
100
AcDbLine
 62
7
  6
CONTINUOUS
 10
4.1820753449
 20
-28.8778013544
 11
4.1820753449
 21
-27.7821519248
  0
LINE
  5
2C2
100
AcDbEntity
  8
0
100
AcDbLine
 62
7
  6
CONTINUOUS
 10
5.1025031649
 20
-27.5709244369
 11
5.1025031649
 21
-27.554380628
  0
LINE
  5
2C3
100
AcDbEntity
  8
0
100
AcDbLine
 62
7
  6
CONTINUOUS
 10
1.854751
 20
-27.886391
 11
2.145737
 21
-26.847385
  0
LINE
  5
2C4
100
AcDbEntity
  8
0
100
AcDbLine
 62
7
  6
CONTINUOUS
 10
-4.465146
 20
-28.00522
 11
-3.915169
 21
-26.078098
  0
LINE
  5
2C5
100
AcDbEntity
  8
0
100
AcDbLine
 62
7
  6
CONTINUOUS
 10
1.573947
 20
-28.877801
 11
1.735207
 21
-28.318881
  0
LINE
  5
2C6
100
AcDbEntity
  8
0
100
AcDbLine
 62
7
  6
CONTINUOUS
 10
0.99588
 20
-28.877801
 11
1.874045
 21
-26.078098
  0
LINE
  5
2C7
100
AcDbEntity
  8
0
100
AcDbLine
 62
7
  6
CONTINUOUS
 10
-4.231097
 20
-28.877801
 11
-3.33116
 21
-26.078098
  0
LINE
  5
2C8
100
AcDbEntity
  8
0
100
AcDbLine
 62
7
  6
CONTINUOUS
 10
-0.730314
 20
-27.632502
 11
-0.145906
 21
-26.078098
  0
LINE
  5
2C9
100
AcDbEntity
  8
0
100
AcDbLine
 62
7
  6
CONTINUOUS
 10
-0.692524
 20
-28.877801
 11
0.002337
 21
-27.057269
  0
LWPOLYLINE
  5
2CA
100
AcDbEntity
  8
RACCORDO
100
AcDbPolyline
 62
253
  6
CONTINUOUS
 90
15
 70
0
 10
79.2518755116
 20
21.8667068282
 10
79.2209153628
 20
21.8657213525
 10
79.1913839656
 20
21.8646331723
 10
79.1634356624
 20
21.8634479747
 10
79.1372165215
 20
21.8621719542
 10
79.1128635741
 20
21.8608117796
 10
79.0905040978
 20
21.8593745597
 10
79.0702549518
 20
21.8578678061
 10
79.0522219658
 20
21.8562993935
 10
79.0364993868
 20
21.8546775191
 10
79.0231693872
 20
21.8530106594
 10
79.0123016344
 20
21.851307526
 10
79.0039529276
 20
21.8495770202
 10
78.9981669001
 20
21.8478281862
 10
78.994973792
 20
21.8460701642
  0
LINE
  5
2CB
100
AcDbEntity
  8
RACCORDO
100
AcDbLine
 62
253
  6
CONTINUOUS
 10
79.3174282049
 20
21.8683496278
 11
79.2518755116
 21
21.8667068282
  0
LINE
  5
2CC
100
AcDbEntity
  8
RACCORDO
100
AcDbLine
 62
253
  6
CONTINUOUS
 10
79.3866734236
 20
21.8695272723
 11
79.3174282049
 21
21.8683496278
  0
LWPOLYLINE
  5
2CD
100
AcDbEntity
  8
RACCORDO
100
AcDbPolyline
 62
253
  6
CONTINUOUS
 90
3
 70
0
 10
79.4942885593
 20
21.8703705753
 10
79.4581654523
 20
21.8702151746
 10
79.3866734236
 20
21.8695272723
  0
LINE
  5
2CE
100
AcDbEntity
  8
RACCORDO
100
AcDbLine
 62
253
  6
CONTINUOUS
 10
-79.4942885593
 20
21.8703705135
 11
-79.4222310543
 21
21.869933534
  0
LINE
  5
2CF
100
AcDbEntity
  8
RACCORDO
100
AcDbLine
 62
253
  6
CONTINUOUS
 10
-79.4222310543
 20
21.869933534
 11
-79.3516779488
 21
21.8689983278
  0
LWPOLYLINE
  5
2D0
100
AcDbEntity
  8
RACCORDO
100
AcDbPolyline
 62
253
  6
CONTINUOUS
 90
17
 70
0
 10
-79.3516779488
 20
21.8689983278
 10
-79.2841022714
 20
21.8675844206
 10
-79.2518751089
 20
21.8667068041
 10
-79.220914887
 20
21.8657213323
 10
-79.1913834163
 20
21.8646331554
 10
-79.1634350402
 20
21.8634479609
 10
-79.1372158282
 20
21.862171943
 10
-79.1128628124
 20
21.8608117707
 10
-79.0905032715
 20
21.8593745528
 10
-79.0702540653
 20
21.8578678008
 10
-79.0522210245
 20
21.8562993896
 10
-79.036498397
 20
21.8546775162
 10
-79.0231683554
 20
21.8530106574
 10
-79.012300568
 20
21.8513075247
 10
-79.0039518343
 20
21.8495770194
 10
-78.998165788
 20
21.8478281859
 10
-78.9949726693
 20
21.8460701642
  0
LWPOLYLINE
  5
2D1
100
AcDbEntity
  8
0
100
AcDbPolyline
 62
7
  6
CONTINUOUS
 90
10
 70
0
 10
5.2042761593
 20
-27.4938826956
 10
5.1840365037
 20
-27.5106774863
 10
5.1742579579
 20
-27.5186062878
 10
5.1644601066
 20
-27.5259644967
 10
5.1546537127
 20
-27.5327988469
 10
5.1448280133
 20
-27.5390626158
 10
5.134725827
 20
-27.5443893205
 10
5.1242614265
 20
-27.5486568056
 10
5.1135205392
 20
-27.55198724
 10
5.1025031649
 20
-27.554380628
  0
LINE
  5
2D2
100
AcDbEntity
  8
RACCORDO
100
AcDbLine
 62
253
  6
CONTINUOUS
 10
79.0514776639
 20
22.5351112978
 11
79.0014999892
 21
22.4942304236
  0
LINE
  5
2D3
100
AcDbEntity
  8
RACCORDO
100
AcDbLine
 62
253
  6
CONTINUOUS
 10
79.1049766274
 20
22.5782639274
 11
79.0514776639
 21
22.5351112978
  0
LINE
  5
2D4
100
AcDbEntity
  8
RACCORDO
100
AcDbLine
 62
253
  6
CONTINUOUS
 10
79.1608653092
 20
22.6227755802
 11
79.1049766274
 21
22.5782639274
  0
LINE
  5
2D5
100
AcDbEntity
  8
RACCORDO
100
AcDbLine
 62
253
  6
CONTINUOUS
 10
79.2179615936
 20
22.6677047787
 11
79.1608653092
 21
22.6227755802
  0
LWPOLYLINE
  5
2D6
100
AcDbEntity
  8
RACCORDO
100
AcDbPolyline
 62
253
  6
CONTINUOUS
 90
17
 70
0
 10
-104.4931469952
 20
22.667357485
 10
-104.5178871764
 20
22.6670254536
 10
-104.5420930804
 20
22.6665907705
 10
-104.5655925401
 20
22.6660565274
 10
-104.5882184131
 20
22.6654265242
 10
-104.6098097706
 20
22.6647052419
 10
-104.6302130418
 20
22.6638978107
 10
-104.6492831063
 20
22.6630099734
 10
-104.6668843261
 20
22.6620480449
 10
-104.6828915109
 20
22.6610188671
 10
-104.6971908078
 20
22.65992976
 10
-104.7096805115
 20
22.6587884702
 10
-104.7202717878
 20
22.657603115
 10
-104.7288893051
 20
22.6563821255
 10
-104.7354717704
 20
22.6551341861
 10
-104.7399723652
 20
22.6538681728
 10
-104.7423590785
 20
22.6525930904
  0
LINE
  5
2D7
100
AcDbEntity
  8
RACCORDO
100
AcDbLine
 62
253
  6
CONTINUOUS
 10
-104.4427702181
 20
22.6677048931
 11
-104.4931469952
 21
22.667357485
  0
LINE
  5
2D8
100
AcDbEntity
  8
0
100
AcDbLine
 62
7
  6
CONTINUOUS
 10
-78.0510963722
 20
22.5
 11
78.0510963722
 21
22.5
  0
LINE
  5
2D9
100
AcDbEntity
  8
RACCORDO
100
AcDbLine
 62
253
  6
CONTINUOUS
 10
-78.1926713554
 20
22.6415492726
 11
78.1926541173
 21
22.6415492726
  0
LINE
  5
2DA
100
AcDbEntity
  8
RACCORDO
100
AcDbLine
 62
253
  6
CONTINUOUS
 10
-104.4427701042
 20
22.6676474049
 11
-79.2179615936
 21
22.6677048937
  0
LINE
  5
2DB
100
AcDbEntity
  8
RACCORDO
100
AcDbLine
 62
253
  6
CONTINUOUS
 10
79.2179615936
 20
22.6677048937
 11
104.4427701039
 21
22.667647257
  0
LINE
  5
2DC
100
AcDbEntity
  8
RACCORDO
100
AcDbLine
 62
253
  6
CONTINUOUS
 10
-78.1926456448
 20
23.1675430277
 11
78.1926456448
 21
23.1675430277
  0
LWPOLYLINE
  5
2DD
100
AcDbEntity
  8
RACCORDO
100
AcDbPolyline
 62
253
  6
CONTINUOUS
 90
18
 70
0
 10
104.4427702181
 20
22.6677048929
 10
104.4931469947
 20
22.6673574847
 10
104.5178871757
 20
22.6670254534
 10
104.5420930795
 20
22.6665907703
 10
104.565592539
 20
22.6660565272
 10
104.5882184119
 20
22.6654265241
 10
104.6098097693
 20
22.6647052418
 10
104.6302130404
 20
22.6638978105
 10
104.6492831048
 20
22.6630099732
 10
104.6668843246
 20
22.6620480448
 10
104.6828915094
 20
22.661018867
 10
104.6971908064
 20
22.65992976
 10
104.7096805103
 20
22.6587884701
 10
104.7202717867
 20
22.6576031149
 10
104.7288893042
 20
22.6563821254
 10
104.7354717697
 20
22.655134186
 10
104.7399723648
 20
22.6538681728
 10
104.7423590785
 20
22.6525930904
  0
LWPOLYLINE
  5
2DE
100
AcDbEntity
  8
RACCORDO
100
AcDbPolyline
 62
253
  6
CONTINUOUS
 90
31
 70
0
 10
78.1926541317
 20
22.641549287
 10
78.2186209849
 20
22.6411751138
 10
78.2442376459
 20
22.6399846691
 10
78.2694795511
 20
22.6380101153
 10
78.2942973269
 20
22.6352873754
 10
78.3186973259
 20
22.6318472719
 10
78.3427404027
 20
22.6277072305
 10
78.3664076536
 20
22.6228929459
 10
78.3896826544
 20
22.6174301232
 10
78.412629296
 20
22.6113219326
 10
78.4352307916
 20
22.6045875431
 10
78.4574721267
 20
22.5972461457
 10
78.4794172257
 20
22.5892871885
 10
78.5010499392
 20
22.5807235855
 10
78.5223543953
 20
22.5715687031
 10
78.5433905544
 20
22.5617996236
 10
78.5641409429
 20
22.5514237497
 10
78.5845874938
 20
22.5404493361
 10
78.6047833055
 20
22.5288426107
 10
78.6247076189
 20
22.5166065201
 10
78.6443391122
 20
22.5037448926
 10
78.6637225152
 20
22.4902140885
 10
78.6828319437
 20
22.47601379
 10
78.7016416498
 20
22.4611440812
 10
78.7201873317
 20
22.4455515615
 10
78.7384351511
 20
22.429234845
 10
78.7563545006
 20
22.412190153
 10
78.7739743017
 20
22.3943505211
 10
78.7912741726
 20
22.3756880861
 10
78.8081909473
 20
22.3562209433
 10
78.8246817863
 20
22.3359476087
  0
LWPOLYLINE
  5
2DF
100
AcDbEntity
  8
RACCORDO
100
AcDbPolyline
 62
253
  6
CONTINUOUS
 90
31
 70
0
 10
78.1926456448
 20
23.1675430277
 10
78.2348377474
 20
23.1667729449
 10
78.2763862641
 20
23.1647788527
 10
78.3172911948
 20
23.1615607487
 10
78.3575406821
 20
23.1570774683
 10
78.3971465834
 20
23.151370167
 10
78.4361444715
 20
23.1445623212
 10
78.4745298839
 20
23.1366689747
 10
78.512307283
 20
23.1276750685
 10
78.5495256287
 20
23.1176589248
 10
78.5861840151
 20
23.1066347779
 10
78.6222833481
 20
23.0945883733
 10
78.6578753057
 20
23.0815552995
 10
78.6929630435
 20
23.0675484215
 10
78.727543406
 20
23.0525548493
 10
78.7616586045
 20
23.036571538
 10
78.7953150666
 20
23.0196096413
 10
78.8285063647
 20
23.0016579751
 10
78.8612554275
 20
22.9826799855
 10
78.8935711507
 20
22.9626853317
 10
78.9254446387
 20
22.9416643176
 10
78.9568721326
 20
22.9195513537
 10
78.9878645716
 20
22.8963549279
 10
79.0184110166
 20
22.8720665071
 10
79.0484748921
 20
22.846594965
 10
79.0780695413
 20
22.8199481069
 10
79.107181621
 20
22.7921180719
 10
79.1357345265
 20
22.7629902281
 10
79.163702723
 20
22.7325263405
 10
79.1911117454
 20
22.7007645745
 10
79.2179615936
 20
22.6677048937
  0
LINE
  5
2E0
100
AcDbEntity
  8
RACCORDO
100
AcDbLine
 62
253
  6
CONTINUOUS
 10
79.2179615936
 20
-22.6677047264
 11
79.1608652593
 21
-22.622775493
  0
LINE
  5
2E1
100
AcDbEntity
  8
RACCORDO
100
AcDbLine
 62
253
  6
CONTINUOUS
 10
79.1608652593
 20
-22.622775493
 11
79.1049765067
 21
-22.5782637897
  0
LINE
  5
2E2
100
AcDbEntity
  8
RACCORDO
100
AcDbLine
 62
253
  6
CONTINUOUS
 10
79.1049765067
 20
-22.5782637897
 11
79.051477458
 21
-22.5351110986
  0
LWPOLYLINE
  5
2E3
100
AcDbEntity
  8
RACCORDO
100
AcDbPolyline
 62
253
  6
CONTINUOUS
 90
15
 70
0
 10
79.051477458
 20
-22.5351110986
 10
79.0014996896
 20
-22.4942301565
 10
78.9781651619
 20
-22.4749141916
 10
78.9561002983
 20
-22.45648565
 10
78.9354219287
 20
-22.4390421077
 10
78.916239542
 20
-22.4226759257
 10
78.8986547058
 20
-22.4074737602
 10
78.8827605291
 20
-22.3935161043
 10
78.8686411692
 20
-22.3808768616
 10
78.8563713858
 20
-22.369622955
 10
78.8460161454
 20
-22.3598139719
 10
78.8376302777
 20
-22.3515018495
 10
78.8312581842
 20
-22.3447305992
 10
78.8269336044
 20
-22.3395360735
 10
78.8246794363
 20
-22.3359457767
  0
LINE
  5
2E4
100
AcDbEntity
  8
0
100
AcDbLine
 62
253
  6
CONTINUOUS
 10
78.1926541173
 20
22.6415492726
 11
78.0510963722
 21
22.5
  0
LINE
  5
2E5
100
AcDbEntity
  8
0
100
AcDbLine
 62
253
  6
CONTINUOUS
 10
78.9949737683
 20
21.8460825235
 11
78.85
 21
21.7010963722
  0
LINE
  5
2E6
100
AcDbEntity
  8
RACCORDO
100
AcDbLine
 62
253
  6
CONTINUOUS
 10
103.8781758769
 20
44.8768054117
 11
104.0013704652
 21
45.0
  0
LINE
  5
2E7
100
AcDbEntity
  8
RACCORDO
100
AcDbLine
 62
253
  6
CONTINUOUS
 10
104.8700585586
 20
43.8714290238
 11
105.0
 21
44.0013704652
  0
LWPOLYLINE
  5
2E8
100
AcDbEntity
  8
RACCORDO
100
AcDbPolyline
 62
253
  6
CONTINUOUS
 90
14
 70
0
 10
79.0014999892
 20
22.4942304236
 10
78.9781655096
 20
22.4749144936
 10
78.9561006939
 20
22.4564859866
 10
78.9354223714
 20
22.4390424784
 10
78.9162400302
 20
22.4226763292
 10
78.8986552374
 20
22.4074741949
 10
78.8827611014
 20
22.3935165681
 10
78.8686417788
 20
22.3808773519
 10
78.8563720289
 20
22.3696234688
 10
78.8460168178
 20
22.359814506
 10
78.8376309747
 20
22.3515024003
 10
78.831258901
 20
22.3447311628
 10
78.8269343358
 20
22.339536646
 10
78.8246801768
 20
22.335946354
  0
LINE
  5
2E9
100
AcDbEntity
  8
0
100
AcDbLine
 62
253
  6
CONTINUOUS
 10
78.1926713554
 20
-22.6415492726
 11
78.0510963722
 21
-22.5
  0
LINE
  5
2EA
100
AcDbEntity
  8
RACCORDO
100
AcDbLine
 62
253
  6
CONTINUOUS
 10
103.8781758769
 20
-44.8768054117
 11
104.0013704652
 21
-45.0
  0
LINE
  5
2EB
100
AcDbEntity
  8
RACCORDO
100
AcDbLine
 62
253
  6
CONTINUOUS
 10
104.8700585586
 20
-43.8714290238
 11
105.0
 21
-44.0013704652
  0
LINE
  5
2EC
100
AcDbEntity
  8
0
100
AcDbLine
 62
253
  6
CONTINUOUS
 10
78.9949737656
 20
-21.8460839501
 11
78.85
 21
-21.7010963722
  0
LWPOLYLINE
  5
2ED
100
AcDbEntity
  8
RACCORDO
100
AcDbPolyline
 62
253
  6
CONTINUOUS
 90
28
 70
0
 10
-103.8781758769
 20
44.8768054117
 10
-103.93578679
 20
44.8750861756
 10
-103.993186491
 20
44.8700269096
 10
-104.0501844407
 20
44.8616430028
 10
-104.1065777064
 20
44.8499639429
 10
-104.1621924189
 20
44.8350253678
 10
-104.2168823609
 20
44.8168612786
 10
-104.2704825348
 20
44.7955145933
 10
-104.3227897742
 20
44.7710547175
 10
-104.3736047723
 20
44.7435684775
 10
-104.4227429306
 20
44.7131507633
 10
-104.4700496338
 20
44.6798929841
 10
-104.515378277
 20
44.6438930823
 10
-104.5585729173
 20
44.6052632506
 10
-104.5994808767
 20
44.5641285547
 10
-104.6379673093
 20
44.5206163526
 10
-104.6738956263
 20
44.4748641718
 10
-104.7071348757
 20
44.4270215538
 10
-104.7375689344
 20
44.3772445341
 10
-104.7650866635
 20
44.3256914554
 10
-104.7895825078
 20
44.2725352288
 10
-104.8109637239
 20
44.2179642341
 10
-104.8291478267
 20
44.1621609304
 10
-104.8440639982
 20
44.1053109523
 10
-104.8556553218
 20
44.0476157488
 10
-104.8638747757
 20
43.9892734721
 10
-104.868684313
 20
43.9304780154
 10
-104.8700585586
 20
43.8714290238
  0
LWPOLYLINE
  5
2EE
100
AcDbEntity
  8
RACCORDO
100
AcDbPolyline
 62
253
  6
CONTINUOUS
 90
28
 70
0
 10
-103.8781758769
 20
44.6316825048
 10
-103.9186969438
 20
44.6304834787
 10
-103.9588142111
 20
44.6269657081
 10
-103.9985276789
 20
44.6211291657
 10
-104.0379644978
 20
44.6129447267
 10
-104.0769975172
 20
44.602441406
 10
-104.1152452852
 20
44.5897063624
 10
-104.1527095796
 20
44.5747131722
 10
-104.1893886226
 20
44.5574880505
 10
-104.2248956289
 20
44.5381971019
 10
-104.2592114272
 20
44.5168228911
 10
-104.2923551888
 20
44.4933825716
 10
-104.3239976428
 20
44.4680941368
 10
-104.3541274616
 20
44.4409385391
 10
-104.3827559729
 20
44.4119345022
 10
-104.4095878881
 20
44.3813567037
 10
-104.4346080233
 20
44.3491872479
 10
-104.4578315625
 20
44.3154437023
 10
-104.4790087695
 20
44.2804539909
 10
-104.4981206026
 20
44.2442008786
 10
-104.5151861035
 20
44.2067013078
 10
-104.5300126608
 20
44.1683345452
 10
-104.5425767841
 20
44.1290806128
 10
-104.5529019638
 20
44.0889592689
 10
-104.5608660591
 20
44.0484094866
 10
-104.5664283565
 20
44.0075775797
 10
-104.5696295695
 20
43.9663171381
 10
-104.5704696982
 20
43.9246281065
  0
LWPOLYLINE
  5
2EF
100
AcDbEntity
  8
RACCORDO
100
AcDbPolyline
 62
253
  6
CONTINUOUS
 90
19
 70
0
 10
-104.5704696982
 20
43.9246280943
 10
-104.5957596656
 20
43.924207405
 10
-104.6208695746
 20
43.9234109463
 10
-104.6456206487
 20
43.9222443888
 10
-104.6698366663
 20
43.9207160381
 10
-104.6933452151
 20
43.9188367757
 10
-104.7159789199
 20
43.9166199815
 10
-104.7375766343
 20
43.9140814385
 10
-104.7579845877
 20
43.9112392206
 10
-104.7770574805
 20
43.9081135635
 10
-104.7946595182
 20
43.9047267214
 10
-104.8106653787
 20
43.9011028076
 10
-104.824961104
 20
43.8972676235
 10
-104.837444912
 20
43.8932484748
 10
-104.8480279211
 20
43.8890739767
 10
-104.8566347828
 20
43.8847738508
 10
-104.8632042183
 20
43.8803787129
 10
-104.8676894548
 20
43.8759198552
 10
-104.8700585586
 20
43.8714290238
  0
LINE
  5
2F0
100
AcDbEntity
  8
RACCORDO
100
AcDbLine
 62
253
  6
CONTINUOUS
 10
103.8781758769
 20
44.6316825048
 11
-103.8781758769
 21
44.6316825048
  0
LINE
  5
2F1
100
AcDbEntity
  8
RACCORDO
100
AcDbLine
 62
253
  6
CONTINUOUS
 10
103.8781758769
 20
44.8768054117
 11
-103.8781758769
 21
44.8768054117
  0
LINE
  5
2F2
100
AcDbEntity
  8
RACCORDO
100
AcDbLine
 62
7
  6
CONTINUOUS
 10
-104.0013704652
 20
45.0
 11
104.0013704652
 21
45.0
  0
LWPOLYLINE
  5
2F3
100
AcDbEntity
  8
RACCORDO
100
AcDbPolyline
 62
253
  6
CONTINUOUS
 90
19
 70
0
 10
104.5704696982
 20
43.9246280998
 10
104.5957594015
 20
43.9242073646
 10
104.6208690256
 20
43.9234108659
 10
104.6456197984
 20
43.9222442744
 10
104.669835503
 20
43.9207158959
 10
104.6933437321
 20
43.9188366118
 10
104.715977115
 20
43.9166198021
 10
104.73757451
 20
43.9140812496
 10
104.757982151
 20
43.911239028
 10
104.7770547427
 20
43.9081133728
 10
104.7946564948
 20
43.9047265377
 10
104.8106620889
 20
43.9011026357
 10
104.8249575708
 20
43.8972674678
 10
104.8374411614
 20
43.8932483391
 10
104.848023982
 20
43.8890738642
 10
104.8566306865
 20
43.8847737642
 10
104.8631999982
 20
43.880378654
 10
104.8676851458
 20
43.8759198255
 10
104.8700541966
 20
43.871429024
  0
LWPOLYLINE
  5
2F4
100
AcDbEntity
  8
RACCORDO
100
AcDbPolyline
 62
253
  6
CONTINUOUS
 90
19
 70
0
 10
78.8246817863
 20
-22.3359476087
 10
78.7990830043
 20
-22.3668591204
 10
78.7719225051
 20
-22.3964852271
 10
78.7432631354
 20
-22.4247458832
 10
78.7131733805
 20
-22.4515620173
 10
78.6817230425
 20
-22.4768619688
 10
78.6489823148
 20
-22.5005807494
 10
78.6150162137
 20
-22.5226586146
 10
78.5799188407
 20
-22.543022314
 10
78.5438117569
 20
-22.5615964438
 10
78.5067701854
 20
-22.5783371427
 10
78.4689030158
 20
-22.5931902595
 10
78.4303941166
 20
-22.6060896157
 10
78.3913427993
 20
-22.6170126915
 10
78.351853974
 20
-22.6259407357
 10
78.3121289785
 20
-22.6328483041
 10
78.2723053085
 20
-22.6377400429
 10
78.2324526836
 20
-22.6406344807
 10
78.192671399
 20
-22.6415493158
  0
LINE
  5
2F5
100
AcDbEntity
  8
RACCORDO
100
AcDbLine
 62
253
  6
CONTINUOUS
 10
78.9949737683
 20
21.8460825235
 11
79.010438462
 21
14.5669316247
  0
LINE
  5
2F6
100
AcDbEntity
  8
RACCORDO
100
AcDbLine
 62
253
  6
CONTINUOUS
 10
79.4942885593
 20
21.8703705759
 11
79.5097532489
 21
14.5834397224
  0
LINE
  5
2F7
100
AcDbEntity
  8
RACCORDO
100
AcDbLine
 62
253
  6
CONTINUOUS
 10
79.010438462
 20
14.5669316247
 11
79.0197179867
 21
7.2846627106
  0
LINE
  5
2F8
100
AcDbEntity
  8
RACCORDO
100
AcDbLine
 62
253
  6
CONTINUOUS
 10
79.5097532489
 20
14.5834397224
 11
79.5190327639
 21
7.2926778579
  0
LINE
  5
2F9
100
AcDbEntity
  8
RACCORDO
100
AcDbLine
 62
253
  6
CONTINUOUS
 10
79.0197179867
 20
7.2846627106
 11
79.0228118795
 21
-0.0000046698
  0
LINE
  5
2FA
100
AcDbEntity
  8
RACCORDO
100
AcDbLine
 62
253
  6
CONTINUOUS
 10
79.5190327639
 20
7.2926778579
 11
79.5221266469
 21
0.000000053
  0
LINE
  5
2FB
100
AcDbEntity
  8
RACCORDO
100
AcDbLine
 62
253
  6
CONTINUOUS
 10
78.1926456448
 20
23.1675430277
 11
78.1926456448
 21
22.6415492726
  0
LINE
  5
2FC
100
AcDbEntity
  8
RACCORDO
100
AcDbLine
 62
253
  6
CONTINUOUS
 10
78.1926456448
 20
-23.1675430277
 11
78.1926456448
 21
-22.6415492726
  0
LINE
  5
2FD
100
AcDbEntity
  8
0
100
AcDbLine
 62
7
  6
CONTINUOUS
 10
78.85
 20
21.7010963722
 11
78.85
 21
-21.7010963722
  0
LINE
  5
2FE
100
AcDbEntity
  8
RACCORDO
100
AcDbLine
 62
253
  6
CONTINUOUS
 10
79.0228118795
 20
-0.0000046698
 11
79.0197179775
 21
-7.2846725862
  0
LINE
  5
2FF
100
AcDbEntity
  8
RACCORDO
100
AcDbLine
 62
253
  6
CONTINUOUS
 10
79.5221266469
 20
0.000000053
 11
79.5190327641
 21
-7.292677762
  0
LINE
  5
300
100
AcDbEntity
  8
RACCORDO
100
AcDbLine
 62
253
  6
CONTINUOUS
 10
79.0197179775
 20
-7.2846725862
 11
79.010438451
 21
-14.5669391457
  0
LINE
  5
301
100
AcDbEntity
  8
RACCORDO
100
AcDbLine
 62
253
  6
CONTINUOUS
 10
79.5190327641
 20
-7.292677762
 11
79.5097532492
 21
-14.5834396614
  0
LINE
  5
302
100
AcDbEntity
  8
RACCORDO
100
AcDbLine
 62
253
  6
CONTINUOUS
 10
79.010438451
 20
-14.5669391457
 11
78.9949737656
 21
-21.8460839501
  0
LINE
  5
303
100
AcDbEntity
  8
RACCORDO
100
AcDbLine
 62
253
  6
CONTINUOUS
 10
79.5097532492
 20
-14.5834396614
 11
79.4942885593
 21
-21.8703705759
  0
LWPOLYLINE
  5
304
100
AcDbEntity
  8
RACCORDO
100
AcDbPolyline
 62
253
  6
CONTINUOUS
 90
16
 70
0
 10
79.4942885593
 20
-21.8703705759
 10
79.4930696316
 20
-21.9257075394
 10
79.4893475979
 20
-21.9812414982
 10
79.4831224583
 20
-22.0369724478
 10
79.4744094194
 20
-22.0930962688
 10
79.4631932746
 20
-22.1494170692
 10
79.4494284042
 20
-22.2053471971
 10
79.4330479634
 20
-22.2608982434
 10
79.414118797
 20
-22.3160586297
 10
79.3927958197
 20
-22.3702059721
 10
79.3690171943
 20
-22.4233131057
 10
79.342844758
 20
-22.4754072303
 10
79.3146189372
 20
-22.5259475287
 10
79.2844532072
 20
-22.5747537495
 10
79.2522340927
 20
-22.6220061964
 10
79.2179615936
 20
-22.6677048937
  0
LWPOLYLINE
  5
305
100
AcDbEntity
  8
RACCORDO
100
AcDbPolyline
 62
253
  6
CONTINUOUS
 90
16
 70
0
 10
78.9949737542
 20
-21.8460839388
 10
78.9941680897
 20
-21.8799903925
 10
78.9918895682
 20
-21.9141478328
 10
78.9881013097
 20
-21.9484909292
 10
78.9827608932
 20
-21.9829979106
 10
78.9758411108
 20
-22.0175491064
 10
78.9673507712
 20
-22.0519310738
 10
78.957279317
 20
-22.0860831503
 10
78.9456269865
 20
-22.1199179546
 10
78.9324656004
 20
-22.1531916168
 10
78.9178240066
 20
-22.1858328851
 10
78.9017304972
 20
-22.2177813107
 10
78.8843037556
 20
-22.2488290757
 10
78.8656291213
 20
-22.2788789194
 10
78.8457360385
 20
-22.3079330121
 10
78.8246817863
 20
-22.3359476087
  0
LWPOLYLINE
  5
306
100
AcDbEntity
  8
RACCORDO
100
AcDbPolyline
 62
253
  6
CONTINUOUS
 90
19
 70
0
 10
79.2179615936
 20
-22.6677048937
 10
79.176351582
 20
-22.7182633629
 10
79.1323970288
 20
-22.7665090903
 10
79.0860979339
 20
-22.8124421736
 10
79.0373275144
 20
-22.8561854773
 10
78.9862125532
 20
-22.897616318
 10
78.9331333991
 20
-22.9363664796
 10
78.8780583164
 20
-22.9724168273
 10
78.8210190407
 20
-23.0057866799
 10
78.7624911279
 20
-23.0361655164
 10
78.7024288658
 20
-23.0635235524
 10
78.6408779666
 20
-23.0878907343
 10
78.578451122
 20
-23.1090461397
 10
78.5151331161
 20
-23.1269365107
 10
78.4509391649
 20
-23.1416152248
 10
78.3865276081
 20
-23.1530213051
 10
78.3221178925
 20
-23.1611344468
 10
78.2574905714
 20
-23.165975016
 10
78.1926456448
 20
-23.1675430277
  0
LWPOLYLINE
  5
307
100
AcDbEntity
  8
RACCORDO
100
AcDbPolyline
 62
253
  6
CONTINUOUS
 90
16
 70
0
 10
78.8246817863
 20
22.3359476087
 10
78.8455728747
 20
22.3081603338
 10
78.8653402762
 20
22.2793211761
 10
78.8839242385
 20
22.2494704518
 10
78.9012915954
 20
22.2186047679
 10
78.9173551301
 20
22.1868165111
 10
78.931995155
 20
22.1543045396
 10
78.9451769454
 20
22.121132021
 10
78.9568695047
 20
22.0873625554
 10
78.967002132
 20
22.0532146752
 10
78.9755690515
 20
22.018762168
 10
78.9825690809
 20
21.9840753373
 10
78.9879834633
 20
21.9493775422
 10
78.9918323247
 20
21.9147922109
 10
78.9941522636
 20
21.8803383339
 10
78.9949737581
 20
21.8460825133
  0
LWPOLYLINE
  5
308
100
AcDbEntity
  8
RACCORDO
100
AcDbPolyline
 62
253
  6
CONTINUOUS
 90
16
 70
0
 10
79.2179615936
 20
22.6677048937
 10
79.2519642914
 20
22.622403282
 10
79.2839680257
 20
22.5755159876
 10
79.3139727965
 20
22.527042986
 10
79.3420968248
 20
22.4768120613
 10
79.3682218897
 20
22.4249953764
 10
79.3919933284
 20
22.3721094828
 10
79.413351075
 20
22.3181356153
 10
79.4323551954
 20
22.2630925025
 10
79.4488312244
 20
22.2075529563
 10
79.4627195252
 20
22.1515103356
 10
79.4740797346
 20
22.094971265
 10
79.4829162981
 20
22.038528476
 10
79.4892306977
 20
21.9823795524
 10
79.4930214514
 20
21.9263269182
 10
79.4942885593
 20
21.8703705759
  0
LWPOLYLINE
  5
309
100
AcDbEntity
  8
RACCORDO
100
AcDbPolyline
 62
253
  6
CONTINUOUS
 90
28
 70
0
 10
104.8700585586
 20
43.8714290238
 10
104.8686881559
 20
43.930404659
 10
104.863890799
 20
43.9891293049
 10
104.8556914589
 20
44.0474040146
 10
104.8441293465
 20
44.1050285906
 10
104.8292501648
 20
44.1618126557
 10
104.8111030301
 20
44.2175755305
 10
104.7897486426
 20
44.2721449935
 10
104.7652699892
 20
44.3253223099
 10
104.7377684947
 20
44.3768955349
 10
104.7073548702
 20
44.426684228
 10
104.6741364567
 20
44.4745382505
 10
104.6382282535
 20
44.520303288
 10
104.599760775
 20
44.5638300968
 10
104.5588708001
 20
44.6049806892
 10
104.5156926382
 20
44.6436280055
 10
104.4703775911
 20
44.6796477316
 10
104.423082596
 20
44.7129264419
 10
104.3739576264
 20
44.743363996
 10
104.3231672173
 20
44.7708645503
 10
104.2708870046
 20
44.7953396286
 10
104.2172895892
 20
44.8167126207
 10
104.1625605491
 20
44.8349147836
 10
104.10687934
 20
44.849892191
 10
104.0504131687
 20
44.8616025001
 10
103.993343731
 20
44.8700084074
 10
103.9358675486
 20
44.8750814005
 10
103.8781758769
 20
44.8768054117
  0
LWPOLYLINE
  5
30A
100
AcDbEntity
  8
RACCORDO
100
AcDbPolyline
 62
253
  6
CONTINUOUS
 90
28
 70
0
 10
104.5704696982
 20
43.9246281065
 10
104.569627635
 20
43.9663052582
 10
104.5664296626
 20
44.007546129
 10
104.5608757811
 20
44.0483507751
 10
104.5529280557
 20
44.0888575385
 10
104.5426244211
 20
44.1289281764
 10
104.5300786815
 20
44.1681479222
 10
104.5152634356
 20
44.2065107593
 10
104.4982060847
 20
44.2440229185
 10
104.4791026373
 20
44.280288105
 10
104.4579354039
 20
44.3152832963
 10
104.4347220739
 20
44.3490318082
 10
104.4097117235
 20
44.381206932
 10
104.3828891152
 20
44.4117914742
 10
104.3542694865
 20
44.4408029562
 10
104.3241476257
 20
44.4679667926
 10
104.2925112557
 20
44.4932647268
 10
104.2593726536
 20
44.5167153391
 10
104.2250634396
 20
44.5380993262
 10
104.1895715849
 20
44.5573976116
 10
104.1529091183
 20
44.5746295539
 10
104.1154437467
 20
44.5896335076
 10
104.0771628556
 20
44.6023878343
 10
104.0380790595
 20
44.6129143806
 10
103.9985979086
 20
44.6211167166
 10
103.9588545862
 20
44.6269627369
 10
103.918713909
 20
44.6304846572
 10
103.8781758769
 20
44.6316825048
  0
LWPOLYLINE
  5
30B
100
AcDbEntity
  8
RACCORDO
100
AcDbPolyline
 62
253
  6
CONTINUOUS
 90
9
 70
0
 10
104.5704696982
 20
-43.9246281065
 10
104.5492646814
 20
-41.5803705021
 10
104.5298115775
 20
-39.2305985388
 10
104.5121103866
 20
-36.8757866537
 10
104.4961582719
 20
-34.51641446
 10
104.4819580701
 20
-32.1529541681
 10
104.4695182913
 20
-29.7858704217
 10
104.4588417722
 20
-27.415636892
 10
104.449925676
 20
-25.0427362495
  0
LWPOLYLINE
  5
30C
100
AcDbEntity
  8
RACCORDO
100
AcDbPolyline
 62
253
  6
CONTINUOUS
 90
9
 70
0
 10
104.8700585586
 20
-43.8714290238
 10
104.8488539353
 20
-41.530635219
 10
104.8294010733
 20
-39.1852651697
 10
104.8116999728
 20
-36.8353188758
 10
104.7957477181
 20
-34.4803128887
 10
104.7815472247
 20
-32.1207306571
 10
104.7691072395
 20
-29.7580225269
 10
104.7584306778
 20
-27.3926719467
 10
104.7495146241
 20
-25.0241954679
  0
LINE
  5
30D
100
AcDbEntity
  8
RACCORDO
100
AcDbLine
 62
253
  6
CONTINUOUS
 10
104.449925676
 20
-25.0427362495
 11
104.4336291891
 21
-18.8925043042
  0
LINE
  5
30E
100
AcDbEntity
  8
RACCORDO
100
AcDbLine
 62
253
  6
CONTINUOUS
 10
104.7495146241
 20
-25.0241954679
 11
104.7332181209
 21
-18.8795038031
  0
LINE
  5
30F
100
AcDbEntity
  8
RACCORDO
100
AcDbLine
 62
253
  6
CONTINUOUS
 10
104.4336291891
 20
-18.8925043042
 11
104.4203325776
 21
-11.3380611962
  0
LINE
  5
310
100
AcDbEntity
  8
RACCORDO
100
AcDbLine
 62
253
  6
CONTINUOUS
 10
104.7332181209
 20
-18.8795038031
 11
104.7199214528
 21
-11.3305136537
  0
LINE
  5
311
100
AcDbEntity
  8
RACCORDO
100
AcDbLine
 62
253
  6
CONTINUOUS
 10
104.4203325776
 20
-11.3380611962
 11
104.4136823261
 21
-3.7797569604
  0
LINE
  5
312
100
AcDbEntity
  8
RACCORDO
100
AcDbLine
 62
253
  6
CONTINUOUS
 10
104.7199214528
 20
-11.3305136537
 11
104.713271186
 21
-3.7771499691
  0
LINE
  5
313
100
AcDbEntity
  8
RACCORDO
100
AcDbLine
 62
253
  6
CONTINUOUS
 10
103.8781758769
 20
-44.6316825048
 11
103.8781758772
 21
-44.8768054117
  0
LINE
  5
314
100
AcDbEntity
  8
RACCORDO
100
AcDbLine
 62
253
  6
CONTINUOUS
 10
103.8781758769
 20
44.6316825048
 11
103.8781758769
 21
44.8768054117
  0
LINE
  5
315
100
AcDbEntity
  8
RACCORDO
100
AcDbLine
 62
7
  6
CONTINUOUS
 10
105.0
 20
-44.0013704652
 11
105.0
 21
44.0013704652
  0
LINE
  5
316
100
AcDbEntity
  8
RACCORDO
100
AcDbLine
 62
253
  6
CONTINUOUS
 10
104.4136823261
 20
-3.7797569604
 11
104.4136823257
 21
3.7797559374
  0
LINE
  5
317
100
AcDbEntity
  8
RACCORDO
100
AcDbLine
 62
253
  6
CONTINUOUS
 10
104.713271186
 20
-3.7771499691
 11
104.7132711867
 21
3.77715111
  0
LINE
  5
318
100
AcDbEntity
  8
RACCORDO
100
AcDbLine
 62
253
  6
CONTINUOUS
 10
104.4136823257
 20
3.7797559374
 11
104.4203325766
 21
11.3380604683
  0
LINE
  5
319
100
AcDbEntity
  8
RACCORDO
100
AcDbLine
 62
253
  6
CONTINUOUS
 10
104.7132711867
 20
3.77715111
 11
104.7199214545
 21
11.3305150114
  0
LINE
  5
31A
100
AcDbEntity
  8
RACCORDO
100
AcDbLine
 62
253
  6
CONTINUOUS
 10
104.4203325766
 20
11.3380604683
 11
104.4336291883
 21
18.8925038652
  0
LINE
  5
31B
100
AcDbEntity
  8
RACCORDO
100
AcDbLine
 62
253
  6
CONTINUOUS
 10
104.7199214545
 20
11.3305150114
 11
104.7332181219
 21
18.8795044447
  0
LWPOLYLINE
  5
31C
100
AcDbEntity
  8
RACCORDO
100
AcDbPolyline
 62
253
  6
CONTINUOUS
 90
10
 70
0
 10
104.4336291883
 20
18.8925038652
 10
104.4499256767
 20
25.0427362222
 10
104.4588417736
 20
27.4156369854
 10
104.4695182923
 20
29.7858705046
 10
104.4819580689
 20
32.1529540084
 10
104.4961582673
 20
34.5164139278
 10
104.5121103802
 20
36.8757859222
 10
104.5298115717
 20
39.2305978808
 10
104.5492646777
 20
41.5803700883
 10
104.5704696982
 20
43.9246281065
  0
LWPOLYLINE
  5
31D
100
AcDbEntity
  8
RACCORDO
100
AcDbPolyline
 62
253
  6
CONTINUOUS
 90
10
 70
0
 10
104.7332181219
 20
18.8795044447
 10
104.7495146367
 20
25.0241988665
 10
104.7584307064
 20
27.3926785798
 10
104.7691072875
 20
29.7580322302
 10
104.7815473045
 20
32.1207441804
 10
104.7957478329
 20
34.4803300678
 10
104.8117000999
 20
36.8353368046
 10
104.829401181
 20
39.1852800282
 10
104.8488540005
 20
41.5306441013
 10
104.8700585586
 20
43.8714290238
  0
LINE
  5
31E
100
AcDbEntity
  8
RACCORDO
100
AcDbLine
 62
7
  6
CONTINUOUS
 10
-131.035558613
 20
-44.8768054117
 11
-128.6848658339
 21
-45.0
  0
LINE
  5
31F
100
AcDbEntity
  8
RACCORDO
100
AcDbLine
 62
253
  6
CONTINUOUS
 10
-131.1642962387
 20
-43.8714290238
 11
-128.6848658339
 21
-44.0013704652
  0
LINE
  5
320
100
AcDbEntity
  8
RACCORDO
100
AcDbLine
 62
253
  6
CONTINUOUS
 10
-131.4181396514
 20
-43.9188367757
 11
-131.3940664486
 21
-43.9140814385
  0
LINE
  5
321
100
AcDbEntity
  8
RACCORDO
100
AcDbLine
 62
253
  6
CONTINUOUS
 10
-131.3940664486
 20
-43.9140814385
 11
-131.3451410242
 21
-43.9047267214
  0
LINE
  5
322
100
AcDbEntity
  8
RACCORDO
100
AcDbLine
 62
253
  6
CONTINUOUS
 10
-131.3451410242
 20
-43.9047267214
 11
-131.2376541378
 21
-43.8847738508
  0
LINE
  5
323
100
AcDbEntity
  8
RACCORDO
100
AcDbLine
 62
253
  6
CONTINUOUS
 10
-131.2376541378
 20
-43.8847738508
 11
-131.1642962387
 21
-43.8714290238
  0
LWPOLYLINE
  5
324
100
AcDbEntity
  8
RACCORDO
100
AcDbPolyline
 62
253
  6
CONTINUOUS
 90
9
 70
0
 10
-131.035558613
 20
-44.8768054117
 10
-131.0366474388
 20
-44.8750861756
 10
-131.0381199456
 20
-44.8700269096
 10
-131.0399669542
 20
-44.8616430028
 10
-131.0421803567
 20
-44.8499639429
 10
-131.0447519268
 20
-44.8350253678
 10
-131.0476728376
 20
-44.8168612786
 10
-131.0509426637
 20
-44.7955145933
 10
-131.0545484225
 20
-44.7710547175
  0
LWPOLYLINE
  5
325
100
AcDbEntity
  8
RACCORDO
100
AcDbPolyline
 62
253
  6
CONTINUOUS
 90
3
 70
0
 10
-133.8848658231
 20
-22.6677048932
 10
-133.8838036483
 20
-22.6675845031
 10
-133.8806179558
 20
-22.667357485
  0
LINE
  5
326
100
AcDbEntity
  8
RACCORDO
100
AcDbLine
 62
253
  6
CONTINUOUS
 10
-133.8806179558
 20
-22.667357485
 11
-133.8679815942
 21
-22.6665907705
  0
LINE
  5
327
100
AcDbEntity
  8
RACCORDO
100
AcDbLine
 62
253
  6
CONTINUOUS
 10
-133.8679815942
 20
-22.6665907705
 11
-133.7844537804
 21
-22.6620480449
  0
LINE
  5
328
100
AcDbEntity
  8
RACCORDO
100
AcDbLine
 62
253
  6
CONTINUOUS
 10
-133.7844537804
 20
-22.6620480449
 11
-133.6009474735
 21
-22.6525930904
  0
LINE
  5
329
100
AcDbEntity
  8
0
100
AcDbLine
 62
7
  6
CONTINUOUS
 10
-133.5770890036
 20
-27.423487196
 11
-133.5782514452
 21
-27.4087686351
  0
LINE
  5
32A
100
AcDbEntity
  8
RACCORDO
100
AcDbLine
 62
253
  6
CONTINUOUS
 10
-131.1642962387
 20
43.8714290238
 11
-131.1312491742
 21
44.1618126557
  0
LINE
  5
32B
100
AcDbEntity
  8
RACCORDO
100
AcDbLine
 62
253
  6
CONTINUOUS
 10
-131.1312491742
 20
44.1618126557
 11
-131.1056646736
 21
44.3768955349
  0
LINE
  5
32C
100
AcDbEntity
  8
RACCORDO
100
AcDbLine
 62
253
  6
CONTINUOUS
 10
-131.1056646736
 20
44.3768955349
 11
-131.0879208092
 21
44.520303288
  0
LINE
  5
32D
100
AcDbEntity
  8
RACCORDO
100
AcDbLine
 62
253
  6
CONTINUOUS
 10
-131.0879208092
 20
44.520303288
 11
-131.0720361309
 21
44.6436280055
  0
LINE
  5
32E
100
AcDbEntity
  8
RACCORDO
100
AcDbLine
 62
253
  6
CONTINUOUS
 10
-131.0720361309
 20
44.6436280055
 11
-131.0627185114
 21
44.7129264419
  0
LWPOLYLINE
  5
32F
100
AcDbEntity
  8
RACCORDO
100
AcDbPolyline
 62
253
  6
CONTINUOUS
 90
10
 70
0
 10
-131.0627185114
 20
44.7129264419
 10
-131.0545752162
 20
44.7708645503
 10
-131.0509680075
 20
44.7953396286
 10
-131.0476960198
 20
44.8167126207
 10
-131.044770851
 20
44.8349147836
 10
-131.042193605
 20
44.849892191
 10
-131.0399752188
 20
44.8616025001
 10
-131.0381247243
 20
44.8700084074
 10
-131.036649462
 20
44.8750814005
 10
-131.035558613
 20
44.8768054117
  0
LWPOLYLINE
  5
330
100
AcDbEntity
  8
RACCORDO
100
AcDbPolyline
 62
253
  6
CONTINUOUS
 90
10
 70
0
 10
-131.1642962387
 20
-43.8714290238
 10
-131.5689045548
 20
-41.530635219
 10
-131.9400872724
 20
-39.1852651697
 10
-132.2778443915
 20
-36.8353188758
 10
-132.5822315442
 20
-34.4803128887
 10
-132.8531930983
 20
-32.1207306571
 10
-133.0905621579
 20
-29.7580225269
 10
-133.294283091
 20
-27.3926719467
 10
-133.4644115295
 20
-25.0241954679
 10
-133.6009474735
 20
-22.6525930904
  0
LINE
  5
331
100
AcDbEntity
  8
RACCORDO
100
AcDbLine
 62
253
  6
CONTINUOUS
 10
-131.0545484225
 20
-44.7710547175
 11
-131.0626880151
 21
-44.7131507633
  0
LINE
  5
332
100
AcDbEntity
  8
RACCORDO
100
AcDbLine
 62
253
  6
CONTINUOUS
 10
-131.0626880151
 20
-44.7131507633
 11
-131.0720016471
 21
-44.6438930823
  0
LINE
  5
333
100
AcDbEntity
  8
RACCORDO
100
AcDbLine
 62
253
  6
CONTINUOUS
 10
-131.0720016471
 20
-44.6438930823
 11
-131.0878819279
 21
-44.5206163526
  0
LINE
  5
334
100
AcDbEntity
  8
RACCORDO
100
AcDbLine
 62
253
  6
CONTINUOUS
 10
-131.0878819279
 20
-44.5206163526
 11
-131.1118508616
 21
-44.3256914554
  0
LINE
  5
335
100
AcDbEntity
  8
RACCORDO
100
AcDbLine
 62
253
  6
CONTINUOUS
 10
-131.1118508616
 20
-44.3256914554
 11
-131.1378255414
 21
-44.1053109523
  0
LINE
  5
336
100
AcDbEntity
  8
RACCORDO
100
AcDbLine
 62
253
  6
CONTINUOUS
 10
-131.1378255414
 20
-44.1053109523
 11
-131.1642962387
 21
-43.8714290238
  0
LWPOLYLINE
  5
337
100
AcDbEntity
  8
RACCORDO
100
AcDbPolyline
 62
253
  6
CONTINUOUS
 90
13
 70
0
 10
-133.6009474735
 20
-22.6525930904
 10
-133.775367335
 20
-18.8795038031
 10
-133.9180791362
 20
-15.1054773242
 10
-134.0290828771
 20
-11.3305136537
 10
-134.108384232
 20
-7.5543004072
 10
-134.1559775266
 20
-3.7771499691
 10
-134.1718457374
 20
0.0000005072
 10
-134.155977513
 20
3.77715111
 10
-134.1083842048
 20
7.554301751
 10
-134.0290828437
 20
11.3305150114
 10
-133.9180791066
 20
15.1054784183
 10
-133.7753673165
 20
18.8795044447
 10
-133.6009474735
 20
22.6525930904
  0
LWPOLYLINE
  5
338
100
AcDbEntity
  8
RACCORDO
100
AcDbPolyline
 62
253
  6
CONTINUOUS
 90
10
 70
0
 10
-133.6009474735
 20
22.6525930904
 10
-133.4644112892
 20
25.0241988665
 10
-133.2942825448
 20
27.3926785798
 10
-133.0905612403
 20
29.7580322302
 10
-132.8531915763
 20
32.1207441804
 10
-132.5822293522
 20
34.4803300678
 10
-132.2778419666
 20
36.8353368046
 10
-131.9400852189
 20
39.1852800282
 10
-131.5689033096
 20
41.5306441013
 10
-131.1642962387
 20
43.8714290238
  0
LINE
  5
339
100
AcDbEntity
  8
DRAFT
100
AcDbLine
 62
7
  6
CONTINUOUS
 10
-125.8848658339
 20
-3.8526539614
 11
-127.8848658339
 21
-3.5
  0
LINE
  5
33A
100
AcDbEntity
  8
RACCORDO
100
AcDbLine
 62
7
  6
CONTINUOUS
 10
-128.6848658339
 20
-45.0
 11
-128.6848658339
 21
45.0
  0
LINE
  5
33B
100
AcDbEntity
  8
DRAFT
100
AcDbLine
 62
7
  6
CONTINUOUS
 10
-127.8848658339
 20
3.5
 11
-127.8848658339
 21
-3.5
  0
LINE
  5
33C
100
AcDbEntity
  8
RACCORDO
100
AcDbLine
 62
7
  6
CONTINUOUS
 10
-125.8848658339
 20
43.499999972
 11
-125.8848658339
 21
43.0970755118
  0
LINE
  5
33D
100
AcDbEntity
  8
DRAFT
100
AcDbLine
 62
7
  6
CONTINUOUS
 10
-125.8848658339
 20
43.0970755118
 11
-125.8848658339
 21
3.8526539614
  0
LINE
  5
33E
100
AcDbEntity
  8
DRAFT
100
AcDbLine
 62
7
  6
CONTINUOUS
 10
-125.8848658339
 20
-3.8526539614
 11
-125.8848658339
 21
-43.0970748075
  0
LINE
  5
33F
100
AcDbEntity
  8
RACCORDO
100
AcDbLine
 62
7
  6
CONTINUOUS
 10
-125.8848658339
 20
-43.0970748075
 11
-125.8848658339
 21
-43.5000000254
  0
LINE
  5
340
100
AcDbEntity
  8
DRAFT
100
AcDbLine
 62
7
  6
CONTINUOUS
 10
-125.8848658339
 20
3.8526539614
 11
-127.8848658339
 21
3.5
  0
LINE
  5
341
100
AcDbEntity
  8
RACCORDO
100
AcDbLine
 62
253
  6
CONTINUOUS
 10
-133.8473156043
 20
22.6654265241
 11
-133.6009474735
 21
22.6525930904
  0
LWPOLYLINE
  5
342
100
AcDbEntity
  8
RACCORDO
100
AcDbPolyline
 62
253
  6
CONTINUOUS
 90
5
 70
0
 10
-133.8848658177
 20
22.6677048929
 10
-133.883803643
 20
22.6675845028
 10
-133.8806179505
 20
22.6673574847
 10
-133.8753313989
 20
22.6670254534
 10
-133.8473156043
 20
22.6654265241
  0
LWPOLYLINE
  5
343
100
AcDbEntity
  8
RACCORDO
100
AcDbPolyline
 62
253
  6
CONTINUOUS
 90
13
 70
0
 10
-125.8848659108
 20
-43.0970754232
 10
-125.9966443101
 20
-43.1691770532
 10
-126.1092517543
 20
-43.2379262795
 10
-126.2225453369
 20
-43.303323102
 10
-126.3362117268
 20
-43.3652442165
 10
-126.4502868355
 20
-43.4238129273
 10
-126.5651812035
 20
-43.4793991471
 10
-126.6809490533
 20
-43.5320954568
 10
-126.7973341597
 20
-43.5818092756
 10
-126.9143100738
 20
-43.6286327726
 10
-127.0318062563
 20
-43.6725966713
 10
-127.1497053044
 20
-43.7136702482
 10
-127.2679161319
 20
-43.7518535036
  0
LWPOLYLINE
  5
344
100
AcDbEntity
  8
RACCORDO
100
AcDbPolyline
 62
253
  6
CONTINUOUS
 90
6
 70
0
 10
-131.4438408033
 20
-43.9246280943
 10
-131.4428314438
 20
-43.924207405
 10
-131.4397271948
 20
-43.9234109463
 10
-131.4345501577
 20
-43.9222443888
 10
-131.4273371917
 20
-43.9207160381
 10
-131.4181396514
 20
-43.9188367757
  0
LWPOLYLINE
  5
345
100
AcDbEntity
  8
RACCORDO
100
AcDbPolyline
 62
253
  6
CONTINUOUS
 90
7
 70
0
 10
-131.4438408341
 20
43.9246280998
 10
-131.4428311929
 20
43.9242073646
 10
-131.4397266945
 20
43.9234108659
 10
-131.4345494419
 20
43.9222442744
 10
-131.4273362954
 20
43.9207158959
 10
-131.41813861
 20
43.9188366118
 10
-131.3940652231
 20
43.9140812496
  0
LWPOLYLINE
  5
346
100
AcDbEntity
  8
RACCORDO
100
AcDbPolyline
 62
253
  6
CONTINUOUS
 90
13
 70
0
 10
-127.2679161319
 20
-43.7518535036
 10
-127.3826590118
 20
-43.7861717437
 10
-127.4977319645
 20
-43.8179598287
 10
-127.6130619538
 20
-43.8472177587
 10
-127.7282698711
 20
-43.8738895586
 10
-127.8435894675
 20
-43.8980312036
 10
-127.9598836924
 20
-43.9198106186
 10
-128.077114444
 20
-43.9393034415
 10
-128.1952077453
 20
-43.9564340346
 10
-128.314994964
 20
-43.9711434091
 10
-128.4367206735
 20
-43.9834119021
 10
-128.5600316402
 20
-43.9932591766
 10
-128.6848658334
 20
-44.0006852326
  0
LINE
  5
347
100
AcDbEntity
  8
RACCORDO
100
AcDbLine
 62
253
  6
CONTINUOUS
 10
-131.1642962387
 20
43.8714290238
 11
-128.6848658339
 21
44.0013704652
  0
LWPOLYLINE
  5
348
100
AcDbEntity
  8
RACCORDO
100
AcDbPolyline
 62
253
  6
CONTINUOUS
 90
13
 70
0
 10
-128.6848658127
 20
44.000685231
 10
-128.5663549824
 20
43.9938353098
 10
-128.4480247538
 20
43.9845425152
 10
-128.3299373103
 20
43.9728068472
 10
-128.2123942438
 20
43.9586770647
 10
-128.0952163878
 20
43.9421044088
 10
-127.9777523561
 20
43.9229426026
 10
-127.8599078144
 20
43.901197126
 10
-127.7419237368
 20
43.8768624991
 10
-127.6236660123
 20
43.8497760048
 10
-127.5051472563
 20
43.8198834041
 10
-127.3865230387
 20
43.7872389361
 10
-127.267881345
 20
43.7518426007
  0
LINE
  5
349
100
AcDbEntity
  8
RACCORDO
100
AcDbLine
 62
253
  6
CONTINUOUS
 10
-131.2836800824
 20
43.8932483391
 11
-131.1642960101
 21
43.871429024
  0
LINE
  5
34A
100
AcDbEntity
  8
RACCORDO
100
AcDbLine
 62
253
  6
CONTINUOUS
 10
-131.3630136378
 20
43.9081133728
 11
-131.2836800824
 21
43.8932483391
  0
LINE
  5
34B
100
AcDbEntity
  8
RACCORDO
100
AcDbLine
 62
253
  6
CONTINUOUS
 10
-131.3940652231
 20
43.9140812496
 11
-131.3630136378
 21
43.9081133728
  0
LWPOLYLINE
  5
34C
100
AcDbEntity
  8
RACCORDO
100
AcDbPolyline
 62
253
  6
CONTINUOUS
 90
13
 70
0
 10
-127.267881345
 20
43.7518426007
 10
-127.1521535068
 20
43.7145138369
 10
-127.0364941616
 20
43.6743045654
 10
-126.9209954691
 20
43.6312147861
 10
-126.8059666613
 20
43.5853876763
 10
-126.6912864319
 20
43.5366800588
 10
-126.5764274087
 20
43.4846624024
 10
-126.4615146748
 20
43.4293808348
 10
-126.3466842968
 20
43.3707892283
 10
-126.2314819902
 20
43.3083196692
 10
-126.11588725
 20
43.2417828531
 10
-126.0002843585
 20
43.1713680844
 10
-125.8848658153
 20
43.0970753632
  0
LINE
  5
34D
100
AcDbEntity
  8
RACCORDO
100
AcDbLine
 62
7
  6
CONTINUOUS
 10
-131.035558613
 20
44.8768054117
 11
-128.6848658339
 21
45.0
  0
ARC
  5
34E
100
AcDbEntity
  8
RACCORDO
100
AcDbCircle
 62
7
  6
CONTINUOUS
 10
33.3358259337
 20
-14.2336437913
 40
167.4332498099
100
AcDbArc
 50
182.8873441217
 51
190.4602411505
  0
ARC
  5
34F
100
AcDbEntity
  8
0
100
AcDbCircle
 62
7
  6
CONTINUOUS
 10
33.3358259337
 20
-14.2336437913
 40
167.4332498099
100
AcDbArc
 50
184.0677903884
 51
184.5132030469
  0
ARC
  5
350
100
AcDbEntity
  8
0
100
AcDbCircle
 62
7
  6
CONTINUOUS
 10
33.3358259337
 20
-14.2336437913
 40
167.4332498099
100
AcDbArc
 50
184.5182554331
 51
185.0176525292
  0
ARC
  5
351
100
AcDbEntity
  8
RACCORDO
100
AcDbCircle
 62
7
  6
CONTINUOUS
 10
-128.9563456503
 20
-39.3198565139
 40
5.1872524353
100
AcDbArc
 50
273.000000003
 51
306.3076471449
  0
ARC
  5
352
100
AcDbEntity
  8
RACCORDO
100
AcDbCircle
 62
7
  6
CONTINUOUS
 10
-131.0198585856
 20
-44.5772125487
 40
0.3
100
AcDbArc
 50
190.4610191988
 51
267.0001848343
  0
ARC
  5
353
100
AcDbEntity
  8
RACCORDO
100
AcDbCircle
 62
7
  6
CONTINUOUS
 10
33.3358259337
 20
14.2336437913
 40
167.4332498099
100
AcDbArc
 50
169.5397588495
 51
177.1126559741
  0
ARC
  5
354
100
AcDbEntity
  8
RACCORDO
100
AcDbCircle
 62
7
  6
CONTINUOUS
 10
-128.9563456503
 20
39.3198565139
 40
5.1872524353
100
AcDbArc
 50
53.6923513618
 51
86.9999997664
  0
ARC
  5
355
100
AcDbEntity
  8
RACCORDO
100
AcDbCircle
 62
7
  6
CONTINUOUS
 10
-131.0198578262
 20
44.5772165512
 40
0.3
100
AcDbArc
 50
93.0
 51
169.5397588495
  0
ARC
  5
356
100
AcDbEntity
  8
RACCORDO
100
AcDbCircle
 62
7
  6
CONTINUOUS
 10
315.5438550495
 20
-0.0
 40
450.0
100
AcDbArc
 50
177.1126435736
 51
182.8873564621
  0
ELLIPSE
  5
357
100
AcDbEntity
  8
RACCORDO
100
AcDbEllipse
 62
7
  6
CONTINUOUS
 10
-103.998627654
 20
-43.998627654
 30
0.0
 11
0.7090462434
 21
0.7090462434
 31
0.0
 40
0.9972646886
 41
2.3575640181
 42
3.9256212891
  0
ELLIPSE
  5
358
100
AcDbEntity
  8
RACCORDO
100
AcDbEllipse
 62
7
  6
CONTINUOUS
 10
103.998627654
 20
-43.998627654
 30
0.0
 11
0.7090462434
 21
-0.7090462434
 31
0.0
 40
0.9972646886
 41
-0.7840286355
 42
0.7840286355
  0
ELLIPSE
  5
359
100
AcDbEntity
  8
RACCORDO
100
AcDbEllipse
 62
7
  6
CONTINUOUS
 10
103.998627654
 20
43.998627654
 30
0.0
 11
0.7090462434
 21
0.7090462434
 31
0.0
 40
0.9972646886
 41
-0.7840286355
 42
0.7840286355
  0
ELLIPSE
  5
35A
100
AcDbEntity
  8
RACCORDO
100
AcDbEllipse
 62
7
  6
CONTINUOUS
 10
-103.998627654
 20
43.998627654
 30
0.0
 11
0.7090462434
 21
-0.7090462434
 31
0.0
 40
0.9972646886
 41
2.3575640181
 42
3.9256212891
  0
ELLIPSE
  5
35B
100
AcDbEntity
  8
0
100
AcDbEllipse
 62
7
  6
CONTINUOUS
 10
78.0489021232
 20
-21.6989021232
 30
0.0
 11
0.5672369947
 21
-0.5672369947
 31
0.0
 40
0.9972646886
 41
-0.7840286355
 42
0.7840286355
  0
ELLIPSE
  5
35C
100
AcDbEntity
  8
0
100
AcDbEllipse
 62
7
  6
CONTINUOUS
 10
78.0489021232
 20
21.6989021232
 30
0.0
 11
0.5672369947
 21
0.5672369947
 31
0.0
 40
0.9972646886
 41
-0.7840286355
 42
0.7840286355
  0
ELLIPSE
  5
35D
100
AcDbEntity
  8
0
100
AcDbEllipse
 62
7
  6
CONTINUOUS
 10
-78.0489021232
 20
21.6989021232
 30
0.0
 11
0.5672369947
 21
-0.5672369947
 31
0.0
 40
0.9972646886
 41
2.3575640181
 42
3.9256212891
  0
ELLIPSE
  5
35E
100
AcDbEntity
  8
0
100
AcDbEllipse
 62
7
  6
CONTINUOUS
 10
-78.0489021232
 20
-21.6989021232
 30
0.0
 11
0.5672369947
 21
0.5672369947
 31
0.0
 40
0.9972646886
 41
-3.9256212891
 42
-2.3575640181
  0
ENDSEC
  0
SECTION
  2
OBJECTS
  0
DICTIONARY
  5
C
100
AcDbDictionary
280
0
281
1
  3
ACAD_GROUP
350
D
  3
ACAD_MLINESTYLE
350
17
  3
ACAD_LAYOUT
350
1A
  3
ACAD_PLOTSETTINGS
350
19
  3
ACAD_PLOTSTYLENAME
350
E
  0
DICTIONARY
  5
D
102
{ACAD_REACTORS
330
C
102
}
100
AcDbDictionary
280
0
281
1
  0
ACDBDICTIONARYWDFLT
  5
E
102
{ACAD_REACTORS
330
C
102
}
100
AcDbDictionary
281
1
  3
Normal
350
F
100
AcDbDictionaryWithDefault
340
F
  0
DICTIONARY
  5
17
102
{ACAD_REACTORS
330
C
102
}
100
AcDbDictionary
280
0
281
1
  3
Standard
350
18
  0
DICTIONARY
  5
19
102
{ACAD_REACTORS
330
C
102
}
100
AcDbDictionary
281
1
  0
DICTIONARY
  5
1A
102
{ACAD_REACTORS
330
C
102
}
100
AcDbDictionary
281
1
  3
Model
350
35F
  3
Layout1
350
360
  0
ACDBPLACEHOLDER
  5
F
102
{ACAD_REACTORS
330
E
102
}
  0
MLINESTYLE
  5
18
102
{ACAD_REACTORS
330
17
102
}
100
AcDbMlineStyle
  2
STANDARD
 70
0
  3

 62
256
 51
90.0
 52
90.0
 71
2
 49
0.5
 62
256
  6
BYLAYER
 49
-0.5
 62
256
  6
BYLAYER
  0
LAYOUT
  5
35F
102
{ACAD_REACTORS
330
1A
102
}
100
AcDbPlotSettings
  1

  2
none_device
  4
ISO_A4_(297.00_x_210.00_MM)
  6

 40
0.0
 41
0.0
 42
0.0
 43
0.0
 44
297.0
 45
210.0
 46
0.0
 47
0.0
 48
0.0
 49
0.0
140
0.0
141
0.0
142
1.0
143
1.0
 70
1024
 72
1
 73
0
 74
0
  7

 75
0
147
1.0
148
0.0
149
0.0
100
AcDbLayout
  1
Model
 70
0
 71
0
 10
0.0
 20
0.0
 11
297.0
 21
210.0
 12
0.0
 22
0.0
 32
0.0
 14
0.0
 24
0.0
 34
0.0
 15
0.0
 25
0.0
 35
0.0
146
0.0
 13
0.0
 23
0.0
 33
0.0
 16
1.0
 26
0.0
 36
0.0
 17
0.0
 27
1.0
 37
0.0
 76
0
330
212
345
0
346
0
  0
LAYOUT
  5
360
102
{ACAD_REACTORS
330
1A
102
}
100
AcDbPlotSettings
  1

  2
none_device
  4
ISO_A4_(297.00_x_210.00_MM)
  6

 40
0.0
 41
0.0
 42
0.0
 43
0.0
 44
297.0
 45
210.0
 46
0.0
 47
0.0
 48
0.0
 49
0.0
140
0.0
141
0.0
142
1.0
143
1.0
 70
0
 72
1
 73
0
 74
0
  7

 75
0
147
1.0
148
0.0
149
0.0
100
AcDbLayout
  1
Layout1
 70
0
 71
1
 10
0.0
 20
0.0
 11
297.0
 21
210.0
 12
0.0
 22
0.0
 32
0.0
 14
0.0
 24
0.0
 34
0.0
 15
0.0
 25
0.0
 35
0.0
146
0.0
 13
0.0
 23
0.0
 33
0.0
 16
1.0
 26
0.0
 36
0.0
 17
0.0
 27
1.0
 37
0.0
 76
0
330
213
345
0
346
0
  0
ENDSEC
  0
EOF
