  0
SECTION
  2
HEADER
  9
$ACADVER
  1
AC1021
  9
$DWGCODEPAGE
  3
ANSI_1252
  9
$EXTMAX
 10
297.0
 20
210.0
 30
0.0
  9
$EXTMIN
 10
0.0
 20
0.0
 30
0.0
  9
$LIMMIN
 10
0.0
 20
0.0
  9
$LIMMAX
 10
297.0
 20
210.0
  9
$VIEWCTR
 10
148.5
 20
105.0
  9
$VIEWSIZE
 40
210.0
  9
$CLAYER
  8
0
  9
$LTSCALE
 40
16.335
  9
$CELTYPE
  6
BYLAYER
  9
$DIMSCALE
 40
1.0
  9
$DIMASZ
 40
3.0
  9
$DIMEXO
 40
1.85625
  9
$DIMDLI
 40
11.286
  9
$DIMEXE
 40
5.346
  9
$DIMCEN
 40
2.673
  9
$DIMLFAC
 40
1.0
  9
$DIMBLK
  1
_FILLED
  9
$DIMTXT
 40
3.0
  9
$DIMTOL
 70
1
  9
$DIMLIM
 70
0
  9
$DIMTFAC
 40
1.0
  9
$DIMTP
 40
0.01
  9
$DIMTM
 40
0.01
  9
$PDMODE
 70
3
  9
$PDSIZE
 40
3.0
  9
$HANDSEED
  5
480
  9
$TILEMODE
 70
1
  9
$MEASUREMENT
 70
1
  9
$INSUNITS
 70
4
  0
ENDSEC
  0
SECTION
  2
CLASSES
  0
CLASS
  1
ACDBDICTIONARYWDFLT
  2
AcDbDictionaryWithDefault
  3
AutoCAD 2000
 90
0
 91
1
280
0
281
0
  0
CLASS
  1
ACDBPLACEHOLDER
  2
AcDbPlaceHolder
  3
AutoCAD 2000
 90
0
 91
1
280
0
281
0
  0
CLASS
  1
LAYOUT
  2
AcDbLayout
  3
AutoCAD 2000
 90
0
 91
0
280
0
281
0
  0
ENDSEC
  0
SECTION
  2
TABLES
  0
TABLE
  2
VPORT
  5
8
100
AcDbSymbolTable
 70
2
  0
VPORT
  5
1F4
100
AcDbSymbolTableRecord
100
AcDbViewportTableRecord
  2
*ACTIVE
 70
0
 10
0.0
 20
0.0
 11
1.0
 21
1.0
 12
148.5
 22
105.0
 13
0.0
 23
0.0
 14
1.0
 24
1.0
 15
0.0
 25
0.0
 16
0.0
 26
0.0
 36
1.0
 17
0.0
 27
0.0
 37
0.0
 40
210.0
 41
1.4142857143
 42
50.0
 43
0.0
 44
0.0
 50
0.0
 51
0.0
 71
0
 72
100
 73
1
 74
1
 75
0
 76
0
 77
0
 78
0
  0
ENDTAB
  0
TABLE
  2
LTYPE
  5
5
100
AcDbSymbolTable
 70
6
  0
LTYPE
  5
14
100
AcDbSymbolTableRecord
100
AcDbLinetypeTableRecord
  2
BYBLOCK
 70
0
  3

 72
65
 73
0
 40
0.0
  0
LTYPE
  5
15
100
AcDbSymbolTableRecord
100
AcDbLinetypeTableRecord
  2
BYLAYER
 70
0
  3

 72
65
 73
0
 40
0.0
  0
LTYPE
  5
16
100
AcDbSymbolTableRecord
100
AcDbLinetypeTableRecord
  2
CONTINUOUS
 70
64
  3
Solid line
 72
65
 73
0
 40
0.0
  0
LTYPE
  5
1F5
100
AcDbSymbolTableRecord
100
AcDbLinetypeTableRecord
  2
CENTER
 70
64
  3
____ _ ____ _ ____ _ ____ _ ____ _ ____ _ ____
 72
65
 73
4
 40
0.6
 49
0.375
 74
0
 49
-0.075
 74
0
 49
0.075
 74
0
 49
-0.075
 74
0
  0
LTYPE
  5
1F6
100
AcDbSymbolTableRecord
100
AcDbLinetypeTableRecord
  2
HIDDEN
 70
64
  3
- - - - - - - - - - - - - - - - - - - -
 72
65
 73
2
 40
0.2
 49
0.1
 74
0
 49
-0.1
 74
0
  0
LTYPE
  5
1F7
100
AcDbSymbolTableRecord
100
AcDbLinetypeTableRecord
  2
PHANTOM
 70
64
  3
_____ _ _ _____ _ _ _____ _ _ _____
 72
65
 73
6
 40
0.8
 49
0.45
 74
0
 49
-0.05
 74
0
 49
0.1
 74
0
 49
-0.05
 74
0
 49
0.1
 74
0
 49
-0.05
 74
0
  0
LTYPE
  5
1F8
100
AcDbSymbolTableRecord
100
AcDbLinetypeTableRecord
  2
DOT
 70
64
  3
. . . . . . . . . . . . . . . . . . . .
 72
65
 73
2
 40
0.2
 49
0.1
 74
0
 49
-0.1
 74
0
  0
LTYPE
  5
1F9
100
AcDbSymbolTableRecord
100
AcDbLinetypeTableRecord
  2
DASHED
 70
64
  3
- - - - - - - - - - - - - - - - - - - -
 72
65
 73
2
 40
0.2
 49
0.1
 74
0
 49
-0.1
 74
0
  0
ENDTAB
  0
TABLE
  2
LAYER
  5
2
100
AcDbSymbolTable
 70
36
  0
LAYER
  5
10
100
AcDbSymbolTableRecord
100
AcDbLayerTableRecord
  2
0
 70
0
 62
7
  6
CONTINUOUS
370
-3
390
F
  0
LAYER
  5
1FA
100
AcDbSymbolTableRecord
100
AcDbLayerTableRecord
  2
DEFAULT_1
 70
0
 62
7
  6
CENTER
370
-3
390
F
  0
LAYER
  5
1FB
100
AcDbSymbolTableRecord
100
AcDbLayerTableRecord
  2
DEFAULT_2
 70
0
 62
7
  6
HIDDEN
370
-3
390
F
  0
LAYER
  5
1FC
100
AcDbSymbolTableRecord
100
AcDbLayerTableRecord
  2
DEFAULT_3
 70
0
 62
7
  6
PHANTOM
370
-3
390
F
  0
LAYER
  5
1FD
100
AcDbSymbolTableRecord
100
AcDbLayerTableRecord
  2
ASSI
 70
0
 62
7
  6
CONTINUOUS
370
-3
390
F
  0
LAYER
  5
1FE
100
AcDbSymbolTableRecord
100
AcDbLayerTableRecord
  2
COORDINATE
 70
0
 62
7
  6
CONTINUOUS
370
-3
390
F
  0
LAYER
  5
1FF
100
AcDbSymbolTableRecord
100
AcDbLayerTableRecord
  2
COPY_PUBLISH
 70
0
 62
7
  6
CONTINUOUS
370
-3
390
F
  0
LAYER
  5
200
100
AcDbSymbolTableRecord
100
AcDbLayerTableRecord
  2
COSMETICI
 70
0
 62
7
  6
CONTINUOUS
370
-3
390
F
  0
LAYER
  5
201
100
AcDbSymbolTableRecord
100
AcDbLayerTableRecord
  2
CURVE
 70
0
 62
7
  6
CONTINUOUS
370
-3
390
F
  0
LAYER
  5
202
100
AcDbSymbolTableRecord
100
AcDbLayerTableRecord
  2
DRAFT
 70
0
 62
7
  6
CONTINUOUS
370
-3
390
F
  0
LAYER
  5
203
100
AcDbSymbolTableRecord
100
AcDbLayerTableRecord
  2
IMPORT_IGES
 70
0
 62
7
  6
CONTINUOUS
370
-3
390
F
  0
LAYER
  5
204
100
AcDbSymbolTableRecord
100
AcDbLayerTableRecord
  2
INTF_1
 70
0
 62
7
  6
CONTINUOUS
370
-3
390
F
  0
LAYER
  5
205
100
AcDbSymbolTableRecord
100
AcDbLayerTableRecord
  2
NOTE
 70
0
 62
7
  6
CONTINUOUS
370
-3
390
F
  0
LAYER
  5
206
100
AcDbSymbolTableRecord
100
AcDbLayerTableRecord
  2
PIANI
 70
0
 62
7
  6
CONTINUOUS
370
-3
390
F
  0
LAYER
  5
207
100
AcDbSymbolTableRecord
100
AcDbLayerTableRecord
  2
PUNTI
 70
0
 62
7
  6
CONTINUOUS
370
-3
390
F
  0
LAYER
  5
208
100
AcDbSymbolTableRecord
100
AcDbLayerTableRecord
  2
RACCORDO
 70
0
 62
7
  6
CONTINUOUS
370
-3
390
F
  0
LAYER
  5
209
100
AcDbSymbolTableRecord
100
AcDbLayerTableRecord
  2
SCRITTE
 70
0
 62
7
  6
CONTINUOUS
370
-3
390
F
  0
LAYER
  5
20A
100
AcDbSymbolTableRecord
100
AcDbLayerTableRecord
  2
SIMBOLI
 70
0
 62
7
  6
CONTINUOUS
370
-3
390
F
  0
LAYER
  5
20B
100
AcDbSymbolTableRecord
100
AcDbLayerTableRecord
  2
SMUSSO
 70
0
 62
7
  6
CONTINUOUS
370
-3
390
F
  0
LAYER
  5
20C
100
AcDbSymbolTableRecord
100
AcDbLayerTableRecord
  2
SNAPLINE
 70
0
 62
7
  6
CONTINUOUS
370
-3
390
F
  0
LAYER
  5
20D
100
AcDbSymbolTableRecord
100
AcDbLayerTableRecord
  2
SUPERFICI
 70
0
 62
7
  6
CONTINUOUS
370
-3
390
F
  0
LAYER
  5
20E
100
AcDbSymbolTableRecord
100
AcDbLayerTableRecord
  2
TRASH
 70
0
 62
7
  6
CONTINUOUS
370
-3
390
F
  0
ENDTAB
  0
TABLE
  2
STYLE
  5
3
100
AcDbSymbolTable
 70
1
  0
STYLE
  5
11
100
AcDbSymbolTableRecord
100
AcDbTextStyleTableRecord
  2
STANDARD
 70
0
 40
0.0
 41
0.8
 50
0.0
 71
0
 42
0.2
  3
txt
  4

  0
STYLE
  5
20F
100
AcDbSymbolTableRecord
100
AcDbTextStyleTableRecord
  2
TEXTSTYLE_1
 70
0
 40
0.0
 41
0.8
 50
0.0
 71
0
 42
0.2
  3
gdt
  4

  0
ENDTAB
  0
TABLE
  2
VIEW
  5
6
100
AcDbSymbolTable
 70
0
  0
ENDTAB
  0
TABLE
  2
UCS
  5
7
100
AcDbSymbolTable
 70
0
  0
ENDTAB
  0
TABLE
  2
APPID
  5
9
100
AcDbSymbolTable
 70
1
  0
APPID
  5
210
100
AcDbSymbolTableRecord
100
AcDbRegAppTableRecord
  2
ACAD
 70
0
  0
ENDTAB
  0
TABLE
  2
BLOCK_RECORD
  5
1
100
AcDbSymbolTable
 70
0
  0
BLOCK_RECORD
  5
211
100
AcDbSymbolTableRecord
100
AcDbBlockTableRecord
  2
*Model_Space
  0
BLOCK_RECORD
  5
212
100
AcDbSymbolTableRecord
100
AcDbBlockTableRecord
  2
*Paper_Space
  0
BLOCK_RECORD
  5
213
100
AcDbSymbolTableRecord
100
AcDbBlockTableRecord
  2
_FILLED
  0
BLOCK_RECORD
  5
214
100
AcDbSymbolTableRecord
100
AcDbBlockTableRecord
  2
*D0
  0
BLOCK_RECORD
  5
215
100
AcDbSymbolTableRecord
100
AcDbBlockTableRecord
  2
*D1
  0
BLOCK_RECORD
  5
216
100
AcDbSymbolTableRecord
100
AcDbBlockTableRecord
  2
*D2
  0
BLOCK_RECORD
  5
217
100
AcDbSymbolTableRecord
100
AcDbBlockTableRecord
  2
*D3
  0
BLOCK_RECORD
  5
218
100
AcDbSymbolTableRecord
100
AcDbBlockTableRecord
  2
*D4
  0
ENDTAB
  0
TABLE
  2
DIMSTYLE
  5
A
100
AcDbSymbolTable
 70
1
100
AcDbDimStyleTable
 71
0
  0
DIMSTYLE
105
219
100
AcDbSymbolTableRecord
100
AcDbDimStyleTableRecord
  2
STANDARD
 70
0
  3

  4

 40
1.0
 41
3.0
 42
0.0625
 43
0.38
 44
0.18
 45
0.0
 46
0.0
 47
0.01
 48
0.01
140
3.0
141
0.09
142
0.0
143
25.4
144
1.0
145
0.0
146
1.0
147
0.09
 71
1.0
 72
0.0
 73
0
 74
0
 75
0
 76
0
 77
1
 78
8
170
0
171
2
172
0
173
0
174
0
175
0
176
0
177
0
178
0
270
2
271
2
272
2
273
2
274
2
275
0
280
0
281
0
282
0
283
1
284
8
285
0
286
0
287
3
288
0
340
11
341
213
342
213
343
213
344
213
  0
DIMSTYLE
105
21A
100
AcDbSymbolTableRecord
100
AcDbDimStyleTableRecord
  2
DIMSTYLE_1
 70
0
  3

  4

 40
1.0
 41
3.0
 42
0.0625
 43
0.38
 44
0.18
 45
0.0
 46
0.0
 47
0.0
 48
0.0
140
3.0
141
0.09
142
0.0
143
25.4
144
1.0
145
0.0
146
1.0
147
0.09
 71
0.0
 72
0.0
 73
0
 74
0
 75
0
 76
0
 77
1
 78
8
170
0
171
2
172
0
173
0
174
0
175
0
176
0
177
0
178
0
270
2
271
2
272
2
273
2
274
2
275
0
280
0
281
0
282
0
283
1
284
8
285
0
286
0
287
3
288
0
340
11
341
213
342
213
343
213
344
213
  0
DIMSTYLE
105
21B
100
AcDbSymbolTableRecord
100
AcDbDimStyleTableRecord
  2
DIMSTYLE_2
 70
0
  3

  4

 40
1.0
 41
3.0
 42
0.0625
 43
0.38
 44
0.18
 45
0.0
 46
0.0
 47
0.0
 48
0.0
140
3.0
141
0.09
142
0.0
143
25.4
144
1.0
145
0.0
146
1.0
147
0.09
 71
0.0
 72
0.0
 73
0
 74
0
 75
0
 76
0
 77
1
 78
8
170
0
171
2
172
0
173
0
174
0
175
0
176
0
177
0
178
0
270
2
271
1
272
1
273
2
274
2
275
0
280
0
281
0
282
0
283
1
284
8
285
0
286
0
287
3
288
0
340
11
341
213
342
213
343
213
344
213
  0
ENDTAB
  0
ENDSEC
  0
SECTION
  2
BLOCKS
  0
BLOCK
  5
20
100
AcDbEntity
  8
0
100
AcDbBlockBegin
  2
*Model_Space
 70
0
 10
0.0
 20
0.0
 30
0.0
  3
*Model_Space
  1

  0
ENDBLK
  5
21
100
AcDbEntity
  8
0
100
AcDbBlockEnd
  0
BLOCK
  5
1C
100
AcDbEntity
  8
0
100
AcDbBlockBegin
  2
*Paper_Space
 70
0
 10
0.0
 20
0.0
 30
0.0
  3
*Paper_Space
  1

  0
ENDBLK
  5
1D
100
AcDbEntity
  8
0
100
AcDbBlockEnd
  0
BLOCK
  5
21C
100
AcDbEntity
  8
0
100
AcDbBlockBegin
  2
_FILLED
 70
64
 10
0.0
 20
0.0
  3
_FILLED
  1

  0
SOLID
  5
21D
100
AcDbEntity
  8
0
  6
BYBLOCK
 62
0
100
AcDbTrace
 10
0.0
 20
0.0
 11
-1.0
 21
0.3166666667
 12
-1.0
 22
-0.3166666667
 13
-1.0
 23
-0.3166666667
  0
ENDBLK
  5
21E
100
AcDbEntity
  8
0
  6
BYBLOCK
 62
0
100
AcDbBlockEnd
  0
BLOCK
  5
21F
100
AcDbEntity
  8
0
100
AcDbBlockBegin
 62
7
  6
CONTINUOUS
  2
*D0
 70
65
 10
0.0
 20
0.0
  3
*D0
  1

  0
MTEXT
  5
220
100
AcDbEntity
  8
0
100
AcDbMText
 62
7
  6
CONTINUOUS
  7
STANDARD
 71
2
 72
1
 10
275.9822481486
 20
102.5890311717
 30
0.0
 11
0.0
 21
1.0
 31
0.0
 44
0.9
  1
90
 40
3.0
 41
4.7142857143
  0
LINE
  5
221
100
AcDbEntity
  8
0
100
AcDbLine
 62
7
  6
CONTINUOUS
 10
256.2026858907
 20
147.5890311717
 11
281.2322481486
 21
147.5890311717
  0
LINE
  5
222
100
AcDbEntity
  8
0
100
AcDbLine
 62
7
  6
CONTINUOUS
 10
256.2026858907
 20
57.5890311717
 11
281.2322481486
 21
57.5890311717
  0
LINE
  5
223
100
AcDbEntity
  8
0
100
AcDbLine
 62
7
  6
CONTINUOUS
 10
279.7322481486
 20
147.5890311717
 11
279.7322481486
 21
102.5890311717
  0
LINE
  5
224
100
AcDbEntity
  8
0
100
AcDbLine
 62
7
  6
CONTINUOUS
 10
279.7322481486
 20
57.5890311717
 11
279.7322481486
 21
102.5890311717
  0
INSERT
  5
225
100
AcDbEntity
  8
0
100
AcDbBlockReference
 62
7
  6
CONTINUOUS
  2
_FILLED
 10
279.7322481486
 20
147.5890311717
 41
3.0
 42
3.0
 43
3.0
 50
90.0
  0
INSERT
  5
226
100
AcDbEntity
  8
0
100
AcDbBlockReference
 62
7
  6
CONTINUOUS
  2
_FILLED
 10
279.7322481486
 20
57.5890311717
 41
3.0
 42
3.0
 43
3.0
 50
270.0
  0
ENDBLK
  5
227
100
AcDbEntity
  8
0
  6
BYBLOCK
 62
0
100
AcDbBlockEnd
  0
BLOCK
  5
228
100
AcDbEntity
  8
0
100
AcDbBlockBegin
 62
7
  6
CONTINUOUS
  2
*D1
 70
65
 10
0.0
 20
0.0
  3
*D1
  1

  0
MTEXT
  5
229
100
AcDbEntity
  8
0
100
AcDbMText
 62
7
  6
CONTINUOUS
  7
STANDARD
 71
2
 72
1
 10
265.9822481486
 20
102.5890311717
 30
0.0
 11
0.0
 21
1.0
 31
0.0
 44
0.9
  1
45,1
 40
3.0
 41
7.9285714286
  0
LINE
  5
22A
100
AcDbEntity
  8
0
100
AcDbLine
 62
7
  6
CONTINUOUS
 10
230.2817864353
 20
80.0390311717
 11
271.2322481486
 21
80.0390311717
  0
LINE
  5
22B
100
AcDbEntity
  8
0
100
AcDbLine
 62
7
  6
CONTINUOUS
 10
230.2817864353
 20
125.1390311717
 11
271.2322481486
 21
125.1390311717
  0
LINE
  5
22C
100
AcDbEntity
  8
0
100
AcDbLine
 62
7
  6
CONTINUOUS
 10
269.7322481486
 20
80.0390311717
 11
269.7322481486
 21
102.5890311717
  0
LINE
  5
22D
100
AcDbEntity
  8
0
100
AcDbLine
 62
7
  6
CONTINUOUS
 10
269.7322481486
 20
125.1390311717
 11
269.7322481486
 21
102.5890311717
  0
INSERT
  5
22E
100
AcDbEntity
  8
0
100
AcDbBlockReference
 62
7
  6
CONTINUOUS
  2
_FILLED
 10
269.7322481486
 20
80.0390311717
 41
3.0
 42
3.0
 43
3.0
 50
270.0
  0
INSERT
  5
22F
100
AcDbEntity
  8
0
100
AcDbBlockReference
 62
7
  6
CONTINUOUS
  2
_FILLED
 10
269.7322481486
 20
125.1390311717
 41
3.0
 42
3.0
 43
3.0
 50
90.0
  0
ENDBLK
  5
230
100
AcDbEntity
  8
0
  6
BYBLOCK
 62
0
100
AcDbBlockEnd
  0
BLOCK
  5
231
100
AcDbEntity
  8
0
100
AcDbBlockBegin
 62
7
  6
CONTINUOUS
  2
*D2
 70
65
 10
0.0
 20
0.0
  3
*D2
  1

  0
MTEXT
  5
232
100
AcDbEntity
  8
0
100
AcDbMText
 62
7
  6
CONTINUOUS
  7
STANDARD
 71
2
 72
1
 10
151.6827667911
 20
164.1187893747
 30
0.0
 11
1.0
 21
0.0
 31
0.0
 44
0.9
  1
157,8
 40
3.0
 41
10.2857142857
  0
LINE
  5
233
100
AcDbEntity
  8
0
100
AcDbLine
 62
7
  6
CONTINUOUS
 10
230.5827713099
 20
124.8401653257
 11
230.5827713099
 21
161.8687893747
  0
LINE
  5
234
100
AcDbEntity
  8
0
100
AcDbLine
 62
7
  6
CONTINUOUS
 10
72.7827622723
 20
124.8401653257
 11
72.7827622723
 21
161.8687893747
  0
LINE
  5
235
100
AcDbEntity
  8
0
100
AcDbLine
 62
7
  6
CONTINUOUS
 10
230.5827713099
 20
160.3687893747
 11
151.6827667911
 21
160.3687893747
  0
LINE
  5
236
100
AcDbEntity
  8
0
100
AcDbLine
 62
7
  6
CONTINUOUS
 10
72.7827622723
 20
160.3687893747
 11
151.6827667911
 21
160.3687893747
  0
INSERT
  5
237
100
AcDbEntity
  8
0
100
AcDbBlockReference
 62
7
  6
CONTINUOUS
  2
_FILLED
 10
230.5827713099
 20
160.3687893747
 41
3.0
 42
3.0
 43
3.0
  0
INSERT
  5
238
100
AcDbEntity
  8
0
100
AcDbBlockReference
 62
7
  6
CONTINUOUS
  2
_FILLED
 10
72.7827622723
 20
160.3687893747
 41
3.0
 42
3.0
 43
3.0
 50
180.0
  0
ENDBLK
  5
239
100
AcDbEntity
  8
0
  6
BYBLOCK
 62
0
100
AcDbBlockEnd
  0
BLOCK
  5
23A
100
AcDbEntity
  8
0
100
AcDbBlockBegin
 62
7
  6
CONTINUOUS
  2
*D3
 70
65
 10
0.0
 20
0.0
  3
*D3
  1

  0
MTEXT
  5
23B
100
AcDbEntity
  8
0
100
AcDbMText
 62
7
  6
CONTINUOUS
  7
STANDARD
 71
2
 72
1
 10
151.6827667911
 20
174.1187893747
 30
0.0
 11
1.0
 21
0.0
 31
0.0
 44
0.9
  1
210
 40
3.0
 41
6.4285714286
  0
LINE
  5
23C
100
AcDbEntity
  8
0
100
AcDbLine
 62
7
  6
CONTINUOUS
 10
256.6827560072
 20
147.0925522726
 11
256.6827560072
 21
171.8687893747
  0
LINE
  5
23D
100
AcDbEntity
  8
0
100
AcDbLine
 62
7
  6
CONTINUOUS
 10
46.682777575
 20
147.0925522726
 11
46.682777575
 21
171.8687893747
  0
LINE
  5
23E
100
AcDbEntity
  8
0
100
AcDbLine
 62
7
  6
CONTINUOUS
 10
256.6827560072
 20
170.3687893747
 11
151.6827667911
 21
170.3687893747
  0
LINE
  5
23F
100
AcDbEntity
  8
0
100
AcDbLine
 62
7
  6
CONTINUOUS
 10
46.682777575
 20
170.3687893747
 11
151.6827667911
 21
170.3687893747
  0
INSERT
  5
240
100
AcDbEntity
  8
0
100
AcDbBlockReference
 62
7
  6
CONTINUOUS
  2
_FILLED
 10
256.6827560072
 20
170.3687893747
 41
3.0
 42
3.0
 43
3.0
  0
INSERT
  5
241
100
AcDbEntity
  8
0
100
AcDbBlockReference
 62
7
  6
CONTINUOUS
  2
_FILLED
 10
46.682777575
 20
170.3687893747
 41
3.0
 42
3.0
 43
3.0
 50
180.0
  0
ENDBLK
  5
242
100
AcDbEntity
  8
0
  6
BYBLOCK
 62
0
100
AcDbBlockEnd
  0
BLOCK
  5
243
100
AcDbEntity
  8
0
100
AcDbBlockBegin
 62
7
  6
CONTINUOUS
  2
*D4
 70
65
 10
0.0
 20
0.0
  3
*D4
  1

  0
MTEXT
  5
244
100
AcDbEntity
  8
0
100
AcDbMText
 62
7
  6
CONTINUOUS
  7
STANDARD
 71
1
 72
1
 10
26.6125546098
 20
164.1187893747
 30
0.0
 11
1.0
 21
0.0
 31
0.0
 44
0.9
  1
8,6
 40
3.0
 41
6.4285714286
  0
LINE
  5
245
100
AcDbEntity
  8
0
100
AcDbLine
 62
7
  6
CONTINUOUS
 10
22.2564435481
 20
145.6515621066
 11
22.2564435481
 21
161.8687893747
  0
LINE
  5
246
100
AcDbEntity
  8
0
100
AcDbLine
 62
7
  6
CONTINUOUS
 10
13.6883319511
 20
103.0890311717
 11
13.6883319511
 21
161.8687893747
  0
LINE
  5
247
100
AcDbEntity
  8
0
100
AcDbLine
 62
7
  6
CONTINUOUS
 10
22.2564435481
 20
160.3687893747
 11
33.0411260384
 21
160.3687893747
  0
LINE
  5
248
100
AcDbEntity
  8
0
100
AcDbLine
 62
7
  6
CONTINUOUS
 10
33.0411260384
 20
160.3687893747
 11
17.9723877496
 21
160.3687893747
  0
LINE
  5
249
100
AcDbEntity
  8
0
100
AcDbLine
 62
7
  6
CONTINUOUS
 10
13.6883319511
 20
160.3687893747
 11
9.6883319511
 21
160.3687893747
  0
LINE
  5
24A
100
AcDbEntity
  8
0
100
AcDbLine
 62
7
  6
CONTINUOUS
 10
9.6883319511
 20
160.3687893747
 11
17.9723877496
 21
160.3687893747
  0
INSERT
  5
24B
100
AcDbEntity
  8
0
100
AcDbBlockReference
 62
7
  6
CONTINUOUS
  2
_FILLED
 10
22.2564435481
 20
160.3687893747
 41
3.0
 42
3.0
 43
3.0
 50
180.0
  0
INSERT
  5
24C
100
AcDbEntity
  8
0
100
AcDbBlockReference
 62
7
  6
CONTINUOUS
  2
_FILLED
 10
13.6883319511
 20
160.3687893747
 41
3.0
 42
3.0
 43
3.0
  0
ENDBLK
  5
24D
100
AcDbEntity
  8
0
  6
BYBLOCK
 62
0
100
AcDbBlockEnd
  0
ENDSEC
  0
SECTION
  2
ENTITIES
  0
DIMENSION
  5
24E
100
AcDbEntity
  8
0
100
AcDbDimension
 62
7
  6
CONTINUOUS
  2
*D0
 10
279.7322481486
 20
57.5890311717
 11
278.5384216723
 21
100.4817533218
 70
160
 71
2
 42
90.0
  3
DIMSTYLE_1
100
AcDbAlignedDimension
 13
256.2026858907
 23
147.5890311717
 14
256.2026858907
 24
57.5890311717
 50
270.0
100
AcDbRotatedDimension
  0
DIMENSION
  5
24F
100
AcDbEntity
  8
0
100
AcDbDimension
 62
7
  6
CONTINUOUS
  2
*D1
 10
269.7322481486
 20
125.1390311717
 11
269.258539984
 21
99.0449729696
 70
160
 71
2
 42
45.1
  3
DIMSTYLE_1
100
AcDbAlignedDimension
 13
230.2817864353
 23
80.0390311717
 14
230.2817864353
 24
125.1390311717
 50
90.0
100
AcDbRotatedDimension
  0
DIMENSION
  5
250
100
AcDbEntity
  8
0
100
AcDbDimension
 62
7
  6
CONTINUOUS
  2
*D2
 10
72.7827622723
 20
160.3687893747
 11
146.5399096483
 21
162.6187893747
 70
160
 71
2
 42
157.8000090376
  3
DIMSTYLE_1
100
AcDbAlignedDimension
 13
230.5827713099
 23
124.8401653257
 14
72.7827622723
 24
124.8401653257
 50
180.0
100
AcDbRotatedDimension
  0
DIMENSION
  5
251
100
AcDbEntity
  8
0
100
AcDbDimension
 62
7
  6
CONTINUOUS
  2
*D3
 10
46.682777575
 20
170.3687893747
 11
148.4684810768
 21
172.6187893747
 70
160
 71
2
 42
209.9999784322
  3
DIMSTYLE_1
100
AcDbAlignedDimension
 13
256.6827560072
 23
147.0925522726
 14
46.682777575
 24
147.0925522726
 50
180.0
100
AcDbRotatedDimension
  0
DIMENSION
  5
252
100
AcDbEntity
  8
0
100
AcDbDimension
 62
7
  6
CONTINUOUS
  2
*D4
 10
13.6883319511
 20
160.3687893747
 11
29.8268403241
 21
162.6187893747
 70
160
 71
1
 42
8.5681115969
  3
DIMSTYLE_2
100
AcDbAlignedDimension
 13
22.2564435481
 23
145.6515621066
 14
13.6883319511
 24
103.0890311717
 50
180.0
100
AcDbRotatedDimension
  0
LWPOLYLINE
  5
253
100
AcDbEntity
  8
RACCORDO
100
AcDbPolyline
 62
253
  6
CONTINUOUS
 90
28
 70
0
 10
46.8645213441
 20
58.7703188228
 10
46.8668572341
 20
58.7122664523
 10
46.8725085627
 20
58.6545118269
 10
46.8814484304
 20
58.5972439001
 10
46.8936358079
 20
58.5406533717
 10
46.9090251487
 20
58.484920281
 10
46.9275698806
 20
58.4302143384
 10
46.9492096936
 20
58.3767015342
 10
46.9738643805
 20
58.3245682959
 10
47.0014420798
 20
58.2740079601
 10
47.0318394256
 20
58.2251907027
 10
47.0649532207
 20
58.1782633358
 10
47.1006761
 20
58.1333739493
 10
47.1388850142
 20
58.0906660141
 10
47.1794494225
 20
58.0502738607
 10
47.2222411395
 20
58.0123224276
 10
47.2671162233
 20
57.976932742
 10
47.3139247533
 20
57.9442157023
 10
47.3625220663
 20
57.9142708796
 10
47.4127506812
 20
57.8871927016
 10
47.4644422475
 20
57.8630684106
 10
47.5174294832
 20
57.8419746245
 10
47.571533084
 20
57.8239803754
 10
47.6265812983
 20
57.8091396905
 10
47.6824141735
 20
57.7974953369
 10
47.7388568718
 20
57.7890861581
 10
47.795719272
 20
57.7839431839
 10
47.8528164142
 20
57.782085268
  0
LWPOLYLINE
  5
254
100
AcDbEntity
  8
ASSI
100
AcDbPolyline
 62
253
  6
CONTINUOUS
 90
28
 70
0
 10
46.8645213441
 20
58.7703188228
 10
46.8668572341
 20
58.7122664523
 10
46.8725085627
 20
58.6545118269
 10
46.8814484304
 20
58.5972439001
 10
46.8936358079
 20
58.5406533717
 10
46.9090251487
 20
58.484920281
 10
46.9275698806
 20
58.4302143384
 10
46.9492096936
 20
58.3767015342
 10
46.9738643805
 20
58.3245682959
 10
47.0014420798
 20
58.2740079601
 10
47.0318394256
 20
58.2251907027
 10
47.0649532207
 20
58.1782633358
 10
47.1006761
 20
58.1333739493
 10
47.1388850142
 20
58.0906660141
 10
47.1794494225
 20
58.0502738607
 10
47.2222411395
 20
58.0123224276
 10
47.2671162233
 20
57.976932742
 10
47.3139247533
 20
57.9442157023
 10
47.3625220663
 20
57.9142708796
 10
47.4127506812
 20
57.8871927016
 10
47.4644422475
 20
57.8630684106
 10
47.5174294832
 20
57.8419746245
 10
47.571533084
 20
57.8239803754
 10
47.6265812983
 20
57.8091396905
 10
47.6824141735
 20
57.7974953369
 10
47.7388568718
 20
57.7890861581
 10
47.795719272
 20
57.7839431839
 10
47.8528164142
 20
57.782085268
  0
LWPOLYLINE
  5
255
100
AcDbEntity
  8
RACCORDO
100
AcDbPolyline
 62
253
  6
CONTINUOUS
 90
28
 70
0
 10
47.3625560336
 20
58.6898023378
 10
47.3634171255
 20
58.6602396018
 10
47.3659114488
 20
58.6310092444
 10
47.3700390035
 20
58.602111235
 10
47.3758258085
 20
58.5734507438
 10
47.383245845
 20
58.5451225458
 10
47.392221056
 20
58.5174109921
 10
47.4027686905
 20
58.490321735
 10
47.4148714996
 20
58.4638490127
 10
47.4283996791
 20
58.4382600071
 10
47.4433655382
 20
58.4135683409
 10
47.4597567678
 20
58.3897602459
 10
47.4774066367
 20
58.3670617808
 10
47.4963260762
 20
58.3454841133
 10
47.5165041551
 20
58.3250159141
 10
47.5377413482
 20
58.305849472
 10
47.560046693
 20
58.2879971235
 10
47.5834111521
 20
58.2714463729
 10
47.6076080883
 20
58.2563522475
 10
47.632645952
 20
58.2427280109
 10
47.658516293
 20
58.2305602609
 10
47.6849671231
 20
58.2199640234
 10
47.7120085943
 20
58.2109541297
 10
47.7396305548
 20
58.2035156461
 10
47.7675505613
 20
58.1977189572
 10
47.7956744662
 20
58.1935875057
 10
47.8240964171
 20
58.1910977944
 10
47.8528164142
 20
58.19024981
  0
LWPOLYLINE
  5
256
100
AcDbEntity
  8
ASSI
100
AcDbPolyline
 62
253
  6
CONTINUOUS
 90
28
 70
0
 10
47.3625560336
 20
58.6898023378
 10
47.3634171255
 20
58.6602396018
 10
47.3659114488
 20
58.6310092444
 10
47.3700390035
 20
58.602111235
 10
47.3758258085
 20
58.5734507438
 10
47.383245845
 20
58.5451225458
 10
47.392221056
 20
58.5174109921
 10
47.4027686905
 20
58.490321735
 10
47.4148714996
 20
58.4638490127
 10
47.4283996791
 20
58.4382600071
 10
47.4433655382
 20
58.4135683409
 10
47.4597567678
 20
58.3897602459
 10
47.4774066367
 20
58.3670617808
 10
47.4963260762
 20
58.3454841133
 10
47.5165041551
 20
58.3250159141
 10
47.5377413482
 20
58.305849472
 10
47.560046693
 20
58.2879971235
 10
47.5834111521
 20
58.2714463729
 10
47.6076080883
 20
58.2563522475
 10
47.632645952
 20
58.2427280109
 10
47.658516293
 20
58.2305602609
 10
47.6849671231
 20
58.2199640234
 10
47.7120085943
 20
58.2109541297
 10
47.7396305548
 20
58.2035156461
 10
47.7675505613
 20
58.1977189572
 10
47.7956744662
 20
58.1935875057
 10
47.8240964171
 20
58.1910977944
 10
47.8528164142
 20
58.19024981
  0
LINE
  5
257
100
AcDbEntity
  8
RACCORDO
100
AcDbLine
 62
7
  6
CONTINUOUS
 10
46.6827671846
 20
58.5855100708
 11
46.6827667911
 21
80.1097979218
  0
LINE
  5
258
100
AcDbEntity
  8
DRAFT
100
AcDbLine
 62
7
  6
CONTINUOUS
 10
46.6827667911
 20
80.1097979218
 11
46.6827667911
 21
125.0682644216
  0
LINE
  5
259
100
AcDbEntity
  8
RACCORDO
100
AcDbLine
 62
7
  6
CONTINUOUS
 10
46.6827667911
 20
125.0682644216
 11
46.6827671846
 21
146.5925522726
  0
LINE
  5
25A
100
AcDbEntity
  8
ASSI
100
AcDbLine
 62
7
  6
CONTINUOUS
 10
46.6827671846
 20
58.5855100708
 11
46.6827671846
 21
146.5925522726
  0
LINE
  5
25B
100
AcDbEntity
  8
RACCORDO
100
AcDbLine
 62
253
  6
CONTINUOUS
 10
46.8615726752
 20
106.3370897697
 11
46.8645213442
 21
58.7703188229
  0
LINE
  5
25C
100
AcDbEntity
  8
ASSI
100
AcDbLine
 62
253
  6
CONTINUOUS
 10
46.8615726752
 20
106.3370897697
 11
46.8645213442
 21
58.7703188229
  0
LINE
  5
25D
100
AcDbEntity
  8
RACCORDO
100
AcDbLine
 62
253
  6
CONTINUOUS
 10
47.3596698828
 20
106.3408929558
 11
47.3625560336
 21
58.6898023378
  0
LINE
  5
25E
100
AcDbEntity
  8
ASSI
100
AcDbLine
 62
253
  6
CONTINUOUS
 10
47.3596698828
 20
106.3408929558
 11
47.3625560336
 21
58.6898023378
  0
LINE
  5
25F
100
AcDbEntity
  8
RACCORDO
100
AcDbLine
 62
253
  6
CONTINUOUS
 10
47.8528164142
 20
58.19024981
 11
47.8528164142
 21
57.782085268
  0
LINE
  5
260
100
AcDbEntity
  8
ASSI
100
AcDbLine
 62
253
  6
CONTINUOUS
 10
47.8528164142
 20
58.19024981
 11
47.8528164142
 21
57.782085268
  0
LINE
  5
261
100
AcDbEntity
  8
RACCORDO
100
AcDbLine
 62
253
  6
CONTINUOUS
 10
47.8528164142
 20
146.9878125334
 11
47.8528164139
 21
147.3959770754
  0
LINE
  5
262
100
AcDbEntity
  8
ASSI
100
AcDbLine
 62
253
  6
CONTINUOUS
 10
47.8528164142
 20
146.9878125334
 11
47.8528164139
 21
147.3959770754
  0
LWPOLYLINE
  5
263
100
AcDbEntity
  8
RACCORDO
100
AcDbPolyline
 62
253
  6
CONTINUOUS
 90
3
 70
0
 10
46.8645213442
 20
146.4077435209
 10
46.8619371115
 20
127.5436775543
 10
46.8615726752
 20
106.3370897697
  0
LWPOLYLINE
  5
264
100
AcDbEntity
  8
ASSI
100
AcDbPolyline
 62
253
  6
CONTINUOUS
 90
3
 70
0
 10
46.8645213442
 20
146.4077435209
 10
46.8619371115
 20
127.5436775543
 10
46.8615726752
 20
106.3370897697
  0
LWPOLYLINE
  5
265
100
AcDbEntity
  8
RACCORDO
100
AcDbPolyline
 62
253
  6
CONTINUOUS
 90
3
 70
0
 10
47.3625560336
 20
146.4882600056
 10
47.360034304
 20
127.573020496
 10
47.3596698828
 20
106.3408929558
  0
LWPOLYLINE
  5
266
100
AcDbEntity
  8
ASSI
100
AcDbPolyline
 62
253
  6
CONTINUOUS
 90
3
 70
0
 10
47.3625560336
 20
146.4882600056
 10
47.360034304
 20
127.573020496
 10
47.3596698828
 20
106.3408929558
  0
LWPOLYLINE
  5
267
100
AcDbEntity
  8
RACCORDO
100
AcDbPolyline
 62
7
  6
CONTINUOUS
 90
28
 70
0
 10
46.6827671846
 20
146.5925522726
 10
46.6845155144
 20
146.6522660501
 10
46.6896195342
 20
146.7113126926
 10
46.6980792438
 20
146.7696923246
 10
46.7099864315
 20
146.8276738965
 10
46.725249309
 20
146.8849886696
 10
46.7435925119
 20
146.9408303912
 10
46.7649992205
 20
146.9950349011
 10
46.7894862545
 20
147.0477669198
 10
46.8168287076
 20
147.0987137185
 10
46.8470428018
 20
147.1479045107
 10
46.8801123152
 20
147.1953106831
 10
46.9157636762
 20
147.2405328733
 10
46.9541335913
 20
147.2836369712
 10
46.9950853541
 20
147.3245577387
 10
47.0379352734
 20
147.3626992476
 10
47.0825667016
 20
147.3979018892
 10
47.1290962864
 20
147.4303259882
 10
47.1771902799
 20
147.4598555746
 10
47.2268572989
 20
147.4865071769
 10
47.2780887266
 20
147.5102648292
 10
47.3305249656
 20
147.5309638045
 10
47.3843008368
 20
147.5486076501
 10
47.4392815193
 20
147.5631932269
 10
47.4947029521
 20
147.5745457511
 10
47.5503104482
 20
147.5826070385
 10
47.6063586947
 20
147.5874354939
 10
47.6628476915
 20
147.5890311717
  0
LWPOLYLINE
  5
268
100
AcDbEntity
  8
ASSI
100
AcDbPolyline
 62
7
  6
CONTINUOUS
 90
28
 70
0
 10
46.6827671846
 20
146.5925522726
 10
46.6845155144
 20
146.6522660501
 10
46.6896195342
 20
146.7113126926
 10
46.6980792438
 20
146.7696923246
 10
46.7099864315
 20
146.8276738965
 10
46.725249309
 20
146.8849886696
 10
46.7435925119
 20
146.9408303912
 10
46.7649992205
 20
146.9950349011
 10
46.7894862545
 20
147.0477669198
 10
46.8168287076
 20
147.0987137185
 10
46.8470428018
 20
147.1479045107
 10
46.8801123152
 20
147.1953106831
 10
46.9157636762
 20
147.2405328733
 10
46.9541335913
 20
147.2836369712
 10
46.9950853541
 20
147.3245577387
 10
47.0379352734
 20
147.3626992476
 10
47.0825667016
 20
147.3979018892
 10
47.1290962864
 20
147.4303259882
 10
47.1771902799
 20
147.4598555746
 10
47.2268572989
 20
147.4865071769
 10
47.2780887266
 20
147.5102648292
 10
47.3305249656
 20
147.5309638045
 10
47.3843008368
 20
147.5486076501
 10
47.4392815193
 20
147.5631932269
 10
47.4947029521
 20
147.5745457511
 10
47.5503104482
 20
147.5826070385
 10
47.6063586947
 20
147.5874354939
 10
47.6628476915
 20
147.5890311717
  0
LWPOLYLINE
  5
269
100
AcDbEntity
  8
RACCORDO
100
AcDbPolyline
 62
7
  6
CONTINUOUS
 90
22
 70
0
 10
72.7827667649
 20
80.8378970177
 10
72.7840158702
 20
80.7929778997
 10
72.7877909192
 20
80.7483526193
 10
72.7940919118
 20
80.7040211728
 10
72.8029662104
 20
80.6597787804
 10
72.8143664525
 20
80.6158302162
 10
72.8281505516
 20
80.5727897977
 10
72.8443175246
 20
80.5307651852
 10
72.8628683546
 20
80.4896486928
 10
72.8836639031
 20
80.4497316063
 10
72.9067045865
 20
80.411012643
 10
72.9319899886
 20
80.373493055
 10
72.9593797223
 20
80.3374679225
 10
72.9889859206
 20
80.3028647128
 10
73.0206964507
 20
80.2697559244
 10
73.0540345266
 20
80.2386541771
 10
73.0889784668
 20
80.2096553658
 10
73.1255499529
 20
80.1826635548
 10
73.1633372443
 20
80.1579036111
 10
73.202203094
 20
80.1354504778
 10
73.242284749
 20
80.1152291761
 10
73.2835822093
 20
80.0972396909
  0
LWPOLYLINE
  5
26A
100
AcDbEntity
  8
ASSI
100
AcDbPolyline
 62
7
  6
CONTINUOUS
 90
22
 70
0
 10
72.7827667649
 20
80.8378970177
 10
72.7840158702
 20
80.7929778997
 10
72.7877909192
 20
80.7483526193
 10
72.7940919118
 20
80.7040211728
 10
72.8029662104
 20
80.6597787804
 10
72.8143664525
 20
80.6158302162
 10
72.8281505516
 20
80.5727897977
 10
72.8443175246
 20
80.5307651852
 10
72.8628683546
 20
80.4896486928
 10
72.8836639031
 20
80.4497316063
 10
72.9067045865
 20
80.411012643
 10
72.9319899886
 20
80.373493055
 10
72.9593797223
 20
80.3374679225
 10
72.9889859206
 20
80.3028647128
 10
73.0206964507
 20
80.2697559244
 10
73.0540345266
 20
80.2386541771
 10
73.0889784668
 20
80.2096553658
 10
73.1255499529
 20
80.1826635548
 10
73.1633372443
 20
80.1579036111
 10
73.202203094
 20
80.1354504778
 10
73.242284749
 20
80.1152291761
 10
73.2835822093
 20
80.0972396909
  0
LINE
  5
26B
100
AcDbEntity
  8
RACCORDO
100
AcDbLine
 62
253
  6
CONTINUOUS
 10
72.1902564483
 20
80.7219273371
 11
72.1902564483
 21
124.4561350063
  0
LINE
  5
26C
100
AcDbEntity
  8
ASSI
100
AcDbLine
 62
253
  6
CONTINUOUS
 10
72.1902564483
 20
80.7219273371
 11
72.1902564483
 21
124.4561350063
  0
LINE
  5
26D
100
AcDbEntity
  8
RACCORDO
100
AcDbLine
 62
253
  6
CONTINUOUS
 10
72.6895695682
 20
80.74492107
 11
72.6895695758
 21
124.4331293882
  0
LINE
  5
26E
100
AcDbEntity
  8
ASSI
100
AcDbLine
 62
253
  6
CONTINUOUS
 10
72.6895695682
 20
80.74492107
 11
72.6895695758
 21
124.4331293882
  0
LINE
  5
26F
100
AcDbEntity
  8
RACCORDO
100
AcDbLine
 62
7
  6
CONTINUOUS
 10
72.7827667649
 20
124.3401653257
 11
72.7827667649
 21
80.8378970177
  0
LINE
  5
270
100
AcDbEntity
  8
ASSI
100
AcDbLine
 62
7
  6
CONTINUOUS
 10
72.7827667649
 20
124.3401653257
 11
72.7827667649
 21
80.8378970177
  0
LINE
  5
271
100
AcDbEntity
  8
RACCORDO
100
AcDbLine
 62
253
  6
CONTINUOUS
 10
73.4919187512
 20
125.7567309115
 11
73.4919187512
 21
125.2306256367
  0
LINE
  5
272
100
AcDbEntity
  8
ASSI
100
AcDbLine
 62
253
  6
CONTINUOUS
 10
73.4919187512
 20
125.7567309115
 11
73.4919187512
 21
125.2306256367
  0
LINE
  5
273
100
AcDbEntity
  8
RACCORDO
100
AcDbLine
 62
253
  6
CONTINUOUS
 10
73.4919187512
 20
79.4213314319
 11
73.4919187511
 21
79.9474367067
  0
LINE
  5
274
100
AcDbEntity
  8
ASSI
100
AcDbLine
 62
253
  6
CONTINUOUS
 10
73.4919187512
 20
79.4213314319
 11
73.4919187511
 21
79.9474367067
  0
LWPOLYLINE
  5
275
100
AcDbEntity
  8
RACCORDO
100
AcDbPolyline
 62
253
  6
CONTINUOUS
 90
13
 70
0
 10
72.1902564483
 20
124.4561350063
 10
72.1916673828
 20
124.5194959328
 10
72.1963533102
 20
124.5830004331
 10
72.2043142307
 20
124.646648503
 10
72.2155468973
 20
124.710729865
 10
72.2300545568
 20
124.7749547841
 10
72.2478469497
 20
124.8384540874
 10
72.2690507183
 20
124.9012576252
 10
72.2935392203
 20
124.9633355746
 10
72.3209422681
 20
125.0237292914
 10
72.3511364661
 20
125.0821192578
 10
72.3842452101
 20
125.1388250604
 10
72.4202684999
 20
125.1938467302
  0
LWPOLYLINE
  5
276
100
AcDbEntity
  8
ASSI
100
AcDbPolyline
 62
253
  6
CONTINUOUS
 90
13
 70
0
 10
72.1902564483
 20
124.4561350063
 10
72.1916673828
 20
124.5194959328
 10
72.1963533102
 20
124.5830004331
 10
72.2043142307
 20
124.646648503
 10
72.2155468973
 20
124.710729865
 10
72.2300545568
 20
124.7749547841
 10
72.2478469497
 20
124.8384540874
 10
72.2690507183
 20
124.9012576252
 10
72.2935392203
 20
124.9633355746
 10
72.3209422681
 20
125.0237292914
 10
72.3511364661
 20
125.0821192578
 10
72.3842452101
 20
125.1388250604
 10
72.4202684999
 20
125.1938467302
  0
LWPOLYLINE
  5
277
100
AcDbEntity
  8
RACCORDO
100
AcDbPolyline
 62
253
  6
CONTINUOUS
 90
13
 70
0
 10
72.6895695872
 20
124.433129377
 10
72.6905112929
 20
124.4719279853
 10
72.6933810289
 20
124.5110037424
 10
72.6982268596
 20
124.5502587933
 10
72.705105527
 20
124.589657459
 10
72.7140486338
 20
124.6290232571
 10
72.7250284965
 20
124.6680466333
 10
72.7380526631
 20
124.706648698
 10
72.7531040692
 20
124.7446912789
 10
72.7700366998
 20
124.7817978285
 10
72.7887406744
 20
124.8177927836
 10
72.8091897114
 20
124.8526832603
 10
72.8313148958
 20
124.8863894543
  0
LWPOLYLINE
  5
278
100
AcDbEntity
  8
ASSI
100
AcDbPolyline
 62
253
  6
CONTINUOUS
 90
13
 70
0
 10
72.6895695872
 20
124.433129377
 10
72.6905112929
 20
124.4719279853
 10
72.6933810289
 20
124.5110037424
 10
72.6982268596
 20
124.5502587933
 10
72.705105527
 20
124.589657459
 10
72.7140486338
 20
124.6290232571
 10
72.7250284965
 20
124.6680466333
 10
72.7380526631
 20
124.706648698
 10
72.7531040692
 20
124.7446912789
 10
72.7700366998
 20
124.7817978285
 10
72.7887406744
 20
124.8177927836
 10
72.8091897114
 20
124.8526832603
 10
72.8313148958
 20
124.8863894543
  0
LWPOLYLINE
  5
279
100
AcDbEntity
  8
RACCORDO
100
AcDbPolyline
 62
253
  6
CONTINUOUS
 90
13
 70
0
 10
72.8313148958
 20
80.2916728891
 10
72.8093707242
 20
80.32508749
 10
72.7890469936
 20
80.359715505
 10
72.7704183504
 20
80.3954830316
 10
72.7535218701
 20
80.4323914464
 10
72.7384685511
 20
80.4702804521
 10
72.7254016234
 20
80.5088119375
 10
72.7143447645
 20
80.5478772902
 10
72.7053125161
 20
80.5873767259
 10
72.6983525214
 20
80.6269619825
 10
72.6934418413
 20
80.6664426419
 10
72.6905279313
 20
80.7057954891
 10
72.6895695901
 20
80.7449210915
  0
LWPOLYLINE
  5
27A
100
AcDbEntity
  8
ASSI
100
AcDbPolyline
 62
253
  6
CONTINUOUS
 90
13
 70
0
 10
72.8313148958
 20
80.2916728891
 10
72.8093707242
 20
80.32508749
 10
72.7890469936
 20
80.359715505
 10
72.7704183504
 20
80.3954830316
 10
72.7535218701
 20
80.4323914464
 10
72.7384685511
 20
80.4702804521
 10
72.7254016234
 20
80.5088119375
 10
72.7143447645
 20
80.5478772902
 10
72.7053125161
 20
80.5873767259
 10
72.6983525214
 20
80.6269619825
 10
72.6934418413
 20
80.6664426419
 10
72.6905279313
 20
80.7057954891
 10
72.6895695901
 20
80.7449210915
  0
LWPOLYLINE
  5
27B
100
AcDbEntity
  8
RACCORDO
100
AcDbPolyline
 62
253
  6
CONTINUOUS
 90
13
 70
0
 10
72.4202684999
 20
79.9842156131
 10
72.3845480644
 20
80.038700919
 10
72.3516645057
 20
80.094944179
 10
72.3216178236
 20
80.1529454255
 10
72.2942735445
 20
80.2130008198
 10
72.2697661421
 20
80.2748142714
 10
72.2484990379
 20
80.3374974177
 10
72.2305879302
 20
80.4010562275
 10
72.2159171207
 20
80.4654847657
 10
72.2045429351
 20
80.5298767771
 10
72.1964841489
 20
80.5939301664
 10
72.1917219866
 20
80.6579470205
 10
72.1902564483
 20
80.7219273371
  0
LWPOLYLINE
  5
27C
100
AcDbEntity
  8
ASSI
100
AcDbPolyline
 62
253
  6
CONTINUOUS
 90
13
 70
0
 10
72.4202684999
 20
79.9842156131
 10
72.3845480644
 20
80.038700919
 10
72.3516645057
 20
80.094944179
 10
72.3216178236
 20
80.1529454255
 10
72.2942735445
 20
80.2130008198
 10
72.2697661421
 20
80.2748142714
 10
72.2484990379
 20
80.3374974177
 10
72.2305879302
 20
80.4010562275
 10
72.2159171207
 20
80.4654847657
 10
72.2045429351
 20
80.5298767771
 10
72.1964841489
 20
80.5939301664
 10
72.1917219866
 20
80.6579470205
 10
72.1902564483
 20
80.7219273371
  0
LWPOLYLINE
  5
27D
100
AcDbEntity
  8
RACCORDO
100
AcDbPolyline
 62
253
  6
CONTINUOUS
 90
19
 70
0
 10
72.4202684999
 20
125.1938467302
 10
72.4613985942
 20
125.2502476644
 10
72.5053406142
 20
125.3041719193
 10
72.5520945599
 20
125.3556196108
 10
72.6018173702
 20
125.4047559623
 10
72.6543521063
 20
125.4514159642
 10
72.7092279512
 20
125.4951043971
 10
72.7664740112
 20
125.5357843933
 10
72.8260611801
 20
125.5734930494
 10
72.8874313223
 20
125.607846117
 10
72.9506375109
 20
125.6388071302
 10
73.0156266728
 20
125.6664127596
 10
73.0816814527
 20
125.6903884679
 10
73.1488232746
 20
125.7106701292
 10
73.2170307145
 20
125.7273220223
 10
73.2855221449
 20
125.7402622075
 10
73.3540370232
 20
125.7494633982
 10
73.422835892
 20
125.7549529597
 10
73.4919187512
 20
125.7567309115
  0
LWPOLYLINE
  5
27E
100
AcDbEntity
  8
ASSI
100
AcDbPolyline
 62
253
  6
CONTINUOUS
 90
19
 70
0
 10
72.4202684999
 20
125.1938467302
 10
72.4613985942
 20
125.2502476644
 10
72.5053406142
 20
125.3041719193
 10
72.5520945599
 20
125.3556196108
 10
72.6018173702
 20
125.4047559623
 10
72.6543521063
 20
125.4514159642
 10
72.7092279512
 20
125.4951043971
 10
72.7664740112
 20
125.5357843933
 10
72.8260611801
 20
125.5734930494
 10
72.8874313223
 20
125.607846117
 10
72.9506375109
 20
125.6388071302
 10
73.0156266728
 20
125.6664127596
 10
73.0816814527
 20
125.6903884679
 10
73.1488232746
 20
125.7106701292
 10
73.2170307145
 20
125.7273220223
 10
73.2855221449
 20
125.7402622075
 10
73.3540370232
 20
125.7494633982
 10
73.422835892
 20
125.7549529597
 10
73.4919187512
 20
125.7567309115
  0
LWPOLYLINE
  5
27F
100
AcDbEntity
  8
RACCORDO
100
AcDbPolyline
 62
253
  6
CONTINUOUS
 90
19
 70
0
 10
72.8313148958
 20
124.8863894543
 10
72.8566188431
 20
124.9208735693
 10
72.8837840483
 20
124.9540068014
 10
72.9127409788
 20
124.9856871049
 10
72.9434178308
 20
125.0158181157
 10
72.9757306152
 20
125.0443024028
 10
73.0095818987
 20
125.0710434089
 10
73.0448870734
 20
125.0959614898
 10
73.0815413915
 20
125.1189706278
 10
73.1194052412
 20
125.1399789058
 10
73.1583864474
 20
125.1589302642
 10
73.1983563227
 20
125.175757495
 10
73.2391058701
 20
125.190380666
 10
73.2805155365
 20
125.2027701392
 10
73.3224583918
 20
125.2129009822
 10
73.3647030986
 20
125.2207415212
 10
73.4070873454
 20
125.2262955303
 10
73.4495227335
 20
125.229583504
 10
73.4918879878
 20
125.2306256883
  0
LWPOLYLINE
  5
280
100
AcDbEntity
  8
ASSI
100
AcDbPolyline
 62
253
  6
CONTINUOUS
 90
19
 70
0
 10
72.8313148958
 20
124.8863894543
 10
72.8566188431
 20
124.9208735693
 10
72.8837840483
 20
124.9540068014
 10
72.9127409788
 20
124.9856871049
 10
72.9434178308
 20
125.0158181157
 10
72.9757306152
 20
125.0443024028
 10
73.0095818987
 20
125.0710434089
 10
73.0448870734
 20
125.0959614898
 10
73.0815413915
 20
125.1189706278
 10
73.1194052412
 20
125.1399789058
 10
73.1583864474
 20
125.1589302642
 10
73.1983563227
 20
125.175757495
 10
73.2391058701
 20
125.190380666
 10
73.2805155365
 20
125.2027701392
 10
73.3224583918
 20
125.2129009822
 10
73.3647030986
 20
125.2207415212
 10
73.4070873454
 20
125.2262955303
 10
73.4495227335
 20
125.229583504
 10
73.4918879878
 20
125.2306256883
  0
LWPOLYLINE
  5
281
100
AcDbEntity
  8
RACCORDO
100
AcDbPolyline
 62
253
  6
CONTINUOUS
 90
28
 70
0
 10
255.512717168
 20
57.782085268
 10
255.5697522944
 20
57.7839393325
 10
255.6265579165
 20
57.7890718981
 10
255.6829495646
 20
57.7974649638
 10
255.7387338878
 20
57.8090874931
 10
255.7937400784
 20
57.8239020229
 10
255.8478189338
 20
57.8418705998
 10
255.9008069999
 20
57.8629457291
 10
255.9525148031
 20
57.8870581793
 10
256.0027584342
 20
57.9141250188
 10
256.0513639653
 20
57.9440550854
 10
256.0981800646
 20
57.9767567217
 10
256.1430641003
 20
58.0121316976
 10
256.1858667951
 20
58.0500699153
 10
256.2264433219
 20
58.090449882
 10
256.2646650473
 20
58.1331463634
 10
256.3004015306
 20
58.1780252603
 10
256.3335295076
 20
58.224942966
 10
256.3639409255
 20
58.2737503535
 10
256.3915298026
 20
58.3242947987
 10
256.4161964936
 20
58.3764114919
 10
256.4378556161
 20
58.4299240689
 10
256.456427366
 20
58.4846572917
 10
256.4718442749
 20
58.5404361022
 10
256.484054231
 20
58.5970776001
 10
256.4930104073
 20
58.654396803
 10
256.4986722467
 20
58.7122070271
 10
256.5010122381
 20
58.7703188223
  0
LWPOLYLINE
  5
282
100
AcDbEntity
  8
ASSI
100
AcDbPolyline
 62
253
  6
CONTINUOUS
 90
28
 70
0
 10
255.512717168
 20
57.782085268
 10
255.5697522944
 20
57.7839393325
 10
255.6265579165
 20
57.7890718981
 10
255.6829495646
 20
57.7974649638
 10
255.7387338878
 20
57.8090874931
 10
255.7937400784
 20
57.8239020229
 10
255.8478189338
 20
57.8418705998
 10
255.9008069999
 20
57.8629457291
 10
255.9525148031
 20
57.8870581793
 10
256.0027584342
 20
57.9141250188
 10
256.0513639653
 20
57.9440550854
 10
256.0981800646
 20
57.9767567217
 10
256.1430641003
 20
58.0121316976
 10
256.1858667951
 20
58.0500699153
 10
256.2264433219
 20
58.090449882
 10
256.2646650473
 20
58.1331463634
 10
256.3004015306
 20
58.1780252603
 10
256.3335295076
 20
58.224942966
 10
256.3639409255
 20
58.2737503535
 10
256.3915298026
 20
58.3242947987
 10
256.4161964936
 20
58.3764114919
 10
256.4378556161
 20
58.4299240689
 10
256.456427366
 20
58.4846572917
 10
256.4718442749
 20
58.5404361022
 10
256.484054231
 20
58.5970776001
 10
256.4930104073
 20
58.654396803
 10
256.4986722467
 20
58.7122070271
 10
256.5010122381
 20
58.7703188223
  0
LWPOLYLINE
  5
283
100
AcDbEntity
  8
RACCORDO
100
AcDbPolyline
 62
253
  6
CONTINUOUS
 90
28
 70
0
 10
255.512717168
 20
58.19024981
 10
255.541437599
 20
58.1910994831
 10
255.5698547465
 20
58.1935883423
 10
255.5979686107
 20
58.1977164009
 10
255.625868921
 20
58.2035057431
 10
255.653465948
 20
58.2109343389
 10
255.6804905028
 20
58.2199360426
 10
255.7069397261
 20
58.230527874
 10
255.7328164773
 20
58.2426929157
 10
255.7578601458
 20
58.2563141226
 10
255.782059056
 20
58.2714040223
 10
255.8054248835
 20
58.2879502258
 10
255.8277320444
 20
58.3057983098
 10
255.8489719349
 20
58.3249610039
 10
255.8691531589
 20
58.3454257378
 10
255.888075944
 20
58.3670001258
 10
255.9057293636
 20
58.3896956469
 10
255.9221243444
 20
58.4135009839
 10
255.937093894
 20
58.4381895321
 10
255.9506249938
 20
58.4637718716
 10
255.9627306626
 20
58.4902375676
 10
255.9732829634
 20
58.5173284576
 10
255.9822667552
 20
58.5450580206
 10
255.9896971792
 20
58.573412889
 10
255.9954917218
 20
58.6020945818
 10
255.9996228787
 20
58.6310036127
 10
256.0021181543
 20
58.6602395213
 10
256.0029775486
 20
58.6898023378
  0
LWPOLYLINE
  5
284
100
AcDbEntity
  8
ASSI
100
AcDbPolyline
 62
253
  6
CONTINUOUS
 90
28
 70
0
 10
255.512717168
 20
58.19024981
 10
255.541437599
 20
58.1910994831
 10
255.5698547465
 20
58.1935883423
 10
255.5979686107
 20
58.1977164009
 10
255.625868921
 20
58.2035057431
 10
255.653465948
 20
58.2109343389
 10
255.6804905028
 20
58.2199360426
 10
255.7069397261
 20
58.230527874
 10
255.7328164773
 20
58.2426929157
 10
255.7578601458
 20
58.2563141226
 10
255.782059056
 20
58.2714040223
 10
255.8054248835
 20
58.2879502258
 10
255.8277320444
 20
58.3057983098
 10
255.8489719349
 20
58.3249610039
 10
255.8691531589
 20
58.3454257378
 10
255.888075944
 20
58.3670001258
 10
255.9057293636
 20
58.3896956469
 10
255.9221243444
 20
58.4135009839
 10
255.937093894
 20
58.4381895321
 10
255.9506249938
 20
58.4637718716
 10
255.9627306626
 20
58.4902375676
 10
255.9732829634
 20
58.5173284576
 10
255.9822667552
 20
58.5450580206
 10
255.9896971792
 20
58.573412889
 10
255.9954917218
 20
58.6020945818
 10
255.9996228787
 20
58.6310036127
 10
256.0021181543
 20
58.6602395213
 10
256.0029775486
 20
58.6898023378
  0
LWPOLYLINE
  5
285
100
AcDbEntity
  8
RACCORDO
100
AcDbPolyline
 62
7
  6
CONTINUOUS
 90
28
 70
0
 10
47.6628476915
 20
57.5890311717
 10
47.6063353023
 20
57.5906331295
 10
47.5502800955
 20
57.5954627953
 10
47.494682071
 20
57.6035202236
 10
47.4392953063
 20
57.6148622245
 10
47.3843657239
 20
57.6294322076
 10
47.3306310916
 20
57.6470601729
 10
47.2782173412
 20
57.6677427701
 10
47.2269985409
 20
57.691483757
 10
47.1773346633
 20
57.7181238222
 10
47.1292303825
 20
57.7476508601
 10
47.0826810245
 20
57.78007754
 10
47.0380325395
 20
57.8152817286
 10
46.9951726718
 20
57.8534221214
 10
46.954213677
 20
57.8943407384
 10
46.915838273
 20
57.937440374
 10
46.8801841631
 20
57.982653336
 10
46.8471136439
 20
58.0300479674
 10
46.8168963231
 20
58.0792309906
 10
46.7895468836
 20
58.1301730316
 10
46.7650506425
 20
58.1829040657
 10
46.7436331582
 20
58.2371197346
 10
46.7252757679
 20
58.2929959421
 10
46.7099971344
 20
58.3503573509
 10
46.6980788046
 20
58.4083725344
 10
46.6896146275
 20
58.4667643589
 10
46.6845107542
 20
58.5258101637
 10
46.6827671846
 20
58.5855100708
  0
LWPOLYLINE
  5
286
100
AcDbEntity
  8
ASSI
100
AcDbPolyline
 62
7
  6
CONTINUOUS
 90
28
 70
0
 10
47.6628476915
 20
57.5890311717
 10
47.6063353023
 20
57.5906331295
 10
47.5502800955
 20
57.5954627953
 10
47.494682071
 20
57.6035202236
 10
47.4392953063
 20
57.6148622245
 10
47.3843657239
 20
57.6294322076
 10
47.3306310916
 20
57.6470601729
 10
47.2782173412
 20
57.6677427701
 10
47.2269985409
 20
57.691483757
 10
47.1773346633
 20
57.7181238222
 10
47.1292303825
 20
57.7476508601
 10
47.0826810245
 20
57.78007754
 10
47.0380325395
 20
57.8152817286
 10
46.9951726718
 20
57.8534221214
 10
46.954213677
 20
57.8943407384
 10
46.915838273
 20
57.937440374
 10
46.8801841631
 20
57.982653336
 10
46.8471136439
 20
58.0300479674
 10
46.8168963231
 20
58.0792309906
 10
46.7895468836
 20
58.1301730316
 10
46.7650506425
 20
58.1829040657
 10
46.7436331582
 20
58.2371197346
 10
46.7252757679
 20
58.2929959421
 10
46.7099971344
 20
58.3503573509
 10
46.6980788046
 20
58.4083725344
 10
46.6896146275
 20
58.4667643589
 10
46.6845107542
 20
58.5258101637
 10
46.6827671846
 20
58.5855100708
  0
LWPOLYLINE
  5
287
100
AcDbEntity
  8
RACCORDO
100
AcDbPolyline
 62
7
  6
CONTINUOUS
 90
7
 70
0
 10
73.2835822093
 20
80.0972396909
 10
73.3321002678
 20
80.0795183898
 10
73.3812220988
 20
80.0650050885
 10
73.4309477021
 20
80.0536997444
 10
73.481277078
 20
80.0456023245
 10
73.5322102262
 20
80.0407128051
 10
73.5837471469
 20
80.0390311717
  0
LWPOLYLINE
  5
288
100
AcDbEntity
  8
ASSI
100
AcDbPolyline
 62
7
  6
CONTINUOUS
 90
7
 70
0
 10
73.2835822093
 20
80.0972396909
 10
73.3321002678
 20
80.0795183898
 10
73.3812220988
 20
80.0650050885
 10
73.4309477021
 20
80.0536997444
 10
73.481277078
 20
80.0456023245
 10
73.5322102262
 20
80.0407128051
 10
73.5837471469
 20
80.0390311717
  0
LWPOLYLINE
  5
289
100
AcDbEntity
  8
RACCORDO
100
AcDbPolyline
 62
7
  6
CONTINUOUS
 90
22
 70
0
 10
73.2835822093
 20
125.0808226525
 10
73.2423044696
 20
125.0628434431
 10
73.2022388484
 20
125.0426320007
 10
73.1633853455
 20
125.0201883102
 10
73.1256084892
 20
124.9954404084
 10
73.0890437513
 20
124.9684602227
 10
73.0540975474
 20
124.9394635738
 10
73.0207418952
 20
124.9083478917
 10
72.989004777
 20
124.8752157053
 10
72.9593765544
 20
124.8405904891
 10
72.9319739363
 20
124.8045466485
 10
72.9066802139
 20
124.7670097439
 10
72.8836356221
 20
124.7282799918
 10
72.8628416487
 20
124.6883592947
 10
72.8442968059
 20
124.6472457196
 10
72.8281368653
 20
124.6052337357
 10
72.8143613415
 20
124.5622258765
 10
72.8029707199
 20
124.5183195832
 10
72.7941022286
 20
124.4741016992
 10
72.7878016104
 20
124.4297678398
 10
72.7840231225
 20
124.3851223834
 10
72.7827667649
 20
124.3401653257
  0
LWPOLYLINE
  5
28A
100
AcDbEntity
  8
ASSI
100
AcDbPolyline
 62
7
  6
CONTINUOUS
 90
22
 70
0
 10
73.2835822093
 20
125.0808226525
 10
73.2423044696
 20
125.0628434431
 10
73.2022388484
 20
125.0426320007
 10
73.1633853455
 20
125.0201883102
 10
73.1256084892
 20
124.9954404084
 10
73.0890437513
 20
124.9684602227
 10
73.0540975474
 20
124.9394635738
 10
73.0207418952
 20
124.9083478917
 10
72.989004777
 20
124.8752157053
 10
72.9593765544
 20
124.8405904891
 10
72.9319739363
 20
124.8045466485
 10
72.9066802139
 20
124.7670097439
 10
72.8836356221
 20
124.7282799918
 10
72.8628416487
 20
124.6883592947
 10
72.8442968059
 20
124.6472457196
 10
72.8281368653
 20
124.6052337357
 10
72.8143613415
 20
124.5622258765
 10
72.8029707199
 20
124.5183195832
 10
72.7941022286
 20
124.4741016992
 10
72.7878016104
 20
124.4297678398
 10
72.7840231225
 20
124.3851223834
 10
72.7827667649
 20
124.3401653257
  0
LWPOLYLINE
  5
28B
100
AcDbEntity
  8
RACCORDO
100
AcDbPolyline
 62
253
  6
CONTINUOUS
 90
22
 70
0
 10
256.0029775486
 20
58.6898023514
 10
256.0382364428
 20
58.6900157189
 10
256.0733197846
 20
58.6906683984
 10
256.1080528955
 20
58.6917571401
 10
256.1422628408
 20
58.6932765234
 10
256.1757792908
 20
58.6952189832
 10
256.2084353684
 20
58.6975748481
 10
256.2400684806
 20
58.7003323884
 10
256.2705211275
 20
58.7034778745
 10
256.2996416866
 20
58.7069956449
 10
256.327285168
 20
58.7108681851
 10
256.3533139359
 20
58.7150762136
 10
256.3775983944
 20
58.7195987791
 10
256.400017632
 20
58.7244133637
 10
256.4204600246
 20
58.7294959959
 10
256.4388237901
 20
58.7348213694
 10
256.4550174964
 20
58.7403629696
 10
256.4689605155
 20
58.7460932049
 10
256.4805834259
 20
58.7519835449
 10
256.4898283576
 20
58.7580046617
 10
256.4966492804
 20
58.7641265765
 10
256.5010122333
 20
58.7703188086
  0
LWPOLYLINE
  5
28C
100
AcDbEntity
  8
ASSI
100
AcDbPolyline
 62
253
  6
CONTINUOUS
 90
22
 70
0
 10
256.0029775486
 20
58.6898023514
 10
256.0382364428
 20
58.6900157189
 10
256.0733197846
 20
58.6906683984
 10
256.1080528955
 20
58.6917571401
 10
256.1422628408
 20
58.6932765234
 10
256.1757792908
 20
58.6952189832
 10
256.2084353684
 20
58.6975748481
 10
256.2400684806
 20
58.7003323884
 10
256.2705211275
 20
58.7034778745
 10
256.2996416866
 20
58.7069956449
 10
256.327285168
 20
58.7108681851
 10
256.3533139359
 20
58.7150762136
 10
256.3775983944
 20
58.7195987791
 10
256.400017632
 20
58.7244133637
 10
256.4204600246
 20
58.7294959959
 10
256.4388237901
 20
58.7348213694
 10
256.4550174964
 20
58.7403629696
 10
256.4689605155
 20
58.7460932049
 10
256.4805834259
 20
58.7519835449
 10
256.4898283576
 20
58.7580046617
 10
256.4966492804
 20
58.7641265765
 10
256.5010122333
 20
58.7703188086
  0
LINE
  5
28D
100
AcDbEntity
  8
RACCORDO
100
AcDbLine
 62
7
  6
CONTINUOUS
 10
47.6628476915
 20
57.5890311717
 11
255.7026858907
 21
57.5890311717
  0
LINE
  5
28E
100
AcDbEntity
  8
ASSI
100
AcDbLine
 62
7
  6
CONTINUOUS
 10
47.6628476915
 20
57.5890311717
 11
255.7026858907
 21
57.5890311717
  0
LINE
  5
28F
100
AcDbEntity
  8
RACCORDO
100
AcDbLine
 62
253
  6
CONTINUOUS
 10
47.8528164142
 20
57.782085268
 11
255.512717168
 21
57.782085268
  0
LINE
  5
290
100
AcDbEntity
  8
ASSI
100
AcDbLine
 62
253
  6
CONTINUOUS
 10
47.8528164142
 20
57.782085268
 11
255.512717168
 21
57.782085268
  0
LINE
  5
291
100
AcDbEntity
  8
RACCORDO
100
AcDbLine
 62
253
  6
CONTINUOUS
 10
47.8528164142
 20
58.19024981
 11
255.512717168
 21
58.19024981
  0
LINE
  5
292
100
AcDbEntity
  8
ASSI
100
AcDbLine
 62
253
  6
CONTINUOUS
 10
47.8528164142
 20
58.19024981
 11
255.512717168
 21
58.19024981
  0
LWPOLYLINE
  5
293
100
AcDbEntity
  8
RACCORDO
100
AcDbPolyline
 62
253
  6
CONTINUOUS
 90
22
 70
0
 10
47.3625560336
 20
58.689802341
 10
47.3272973177
 20
58.6900157243
 10
47.2922141644
 20
58.6906684179
 10
47.2574812501
 20
58.6917571724
 10
47.2232715076
 20
58.6932765668
 10
47.1897552647
 20
58.6952190363
 10
47.1570993964
 20
58.6975749093
 10
47.1254664941
 20
58.7003324563
 10
47.0950140556
 20
58.7034779475
 10
47.0658937015
 20
58.7069957219
 10
47.03825042
 20
58.7108682646
 10
47.012221845
 20
58.7150762945
 10
46.9879375709
 20
58.7195988602
 10
46.9655185075
 20
58.7244134441
 10
46.9450762776
 20
58.7294960747
 10
46.9267126616
 20
58.7348214459
 10
46.9105190907
 20
58.7403630431
 10
46.8965761916
 20
58.746093275
 10
46.8849533849
 20
58.7519836112
 10
46.8757085397
 20
58.7580047241
 10
46.8688876856
 20
58.7641266349
 10
46.8645247829
 20
58.7703188632
  0
LWPOLYLINE
  5
294
100
AcDbEntity
  8
ASSI
100
AcDbPolyline
 62
253
  6
CONTINUOUS
 90
22
 70
0
 10
47.3625560336
 20
58.689802341
 10
47.3272973177
 20
58.6900157243
 10
47.2922141644
 20
58.6906684179
 10
47.2574812501
 20
58.6917571724
 10
47.2232715076
 20
58.6932765668
 10
47.1897552647
 20
58.6952190363
 10
47.1570993964
 20
58.6975749093
 10
47.1254664941
 20
58.7003324563
 10
47.0950140556
 20
58.7034779475
 10
47.0658937015
 20
58.7069957219
 10
47.03825042
 20
58.7108682646
 10
47.012221845
 20
58.7150762945
 10
46.9879375709
 20
58.7195988602
 10
46.9655185075
 20
58.7244134441
 10
46.9450762776
 20
58.7294960747
 10
46.9267126616
 20
58.7348214459
 10
46.9105190907
 20
58.7403630431
 10
46.8965761916
 20
58.746093275
 10
46.8849533849
 20
58.7519836112
 10
46.8757085397
 20
58.7580047241
 10
46.8688876856
 20
58.7641266349
 10
46.8645247829
 20
58.7703188632
  0
LINE
  5
295
100
AcDbEntity
  8
RACCORDO
100
AcDbLine
 62
253
  6
CONTINUOUS
 10
47.8528164142
 20
147.3959770754
 11
47.6628476915
 21
147.5890311717
  0
LINE
  5
296
100
AcDbEntity
  8
ASSI
100
AcDbLine
 62
253
  6
CONTINUOUS
 10
47.8528164142
 20
147.3959770754
 11
47.6628476915
 21
147.5890311717
  0
LINE
  5
297
100
AcDbEntity
  8
RACCORDO
100
AcDbLine
 62
253
  6
CONTINUOUS
 10
46.8645213442
 20
146.4077435209
 11
46.6827671846
 21
146.5925522726
  0
LINE
  5
298
100
AcDbEntity
  8
ASSI
100
AcDbLine
 62
253
  6
CONTINUOUS
 10
46.8645213442
 20
146.4077435209
 11
46.6827671846
 21
146.5925522726
  0
LINE
  5
299
100
AcDbEntity
  8
RACCORDO
100
AcDbLine
 62
253
  6
CONTINUOUS
 10
46.8645213442
 20
58.7703188229
 11
46.6827671846
 21
58.5855100708
  0
LINE
  5
29A
100
AcDbEntity
  8
ASSI
100
AcDbLine
 62
253
  6
CONTINUOUS
 10
46.8645213442
 20
58.7703188229
 11
46.6827671846
 21
58.5855100708
  0
LINE
  5
29B
100
AcDbEntity
  8
RACCORDO
100
AcDbLine
 62
253
  6
CONTINUOUS
 10
47.8528164142
 20
57.782085268
 11
47.6628476915
 21
57.5890311717
  0
LINE
  5
29C
100
AcDbEntity
  8
ASSI
100
AcDbLine
 62
253
  6
CONTINUOUS
 10
47.8528164142
 20
57.782085268
 11
47.6628476915
 21
57.5890311717
  0
LINE
  5
29D
100
AcDbEntity
  8
RACCORDO
100
AcDbLine
 62
253
  6
CONTINUOUS
 10
72.6895695682
 20
80.74492107
 11
72.7827667649
 21
80.8378970177
  0
LINE
  5
29E
100
AcDbEntity
  8
ASSI
100
AcDbLine
 62
253
  6
CONTINUOUS
 10
72.6895695682
 20
80.74492107
 11
72.7827667649
 21
80.8378970177
  0
LINE
  5
29F
100
AcDbEntity
  8
RACCORDO
100
AcDbLine
 62
253
  6
CONTINUOUS
 10
73.4919072107
 20
79.9474367067
 11
73.5837471469
 21
80.0390311717
  0
LINE
  5
2A0
100
AcDbEntity
  8
ASSI
100
AcDbLine
 62
253
  6
CONTINUOUS
 10
73.4919072107
 20
79.9474367067
 11
73.5837471469
 21
80.0390311717
  0
LINE
  5
2A1
100
AcDbEntity
  8
RACCORDO
100
AcDbLine
 62
253
  6
CONTINUOUS
 10
73.4918880402
 20
125.2306256367
 11
73.5837471469
 21
125.1390311717
  0
LINE
  5
2A2
100
AcDbEntity
  8
ASSI
100
AcDbLine
 62
253
  6
CONTINUOUS
 10
73.4918880402
 20
125.2306256367
 11
73.5837471469
 21
125.1390311717
  0
LINE
  5
2A3
100
AcDbEntity
  8
RACCORDO
100
AcDbLine
 62
253
  6
CONTINUOUS
 10
72.6895695758
 20
124.4331293882
 11
72.7827667649
 21
124.3401653257
  0
LINE
  5
2A4
100
AcDbEntity
  8
ASSI
100
AcDbLine
 62
253
  6
CONTINUOUS
 10
72.6895695758
 20
124.4331293882
 11
72.7827667649
 21
124.3401653257
  0
LWPOLYLINE
  5
2A5
100
AcDbEntity
  8
RACCORDO
100
AcDbPolyline
 62
253
  6
CONTINUOUS
 90
13
 70
0
 10
72.6706455905
 20
80.1620592326
 10
72.6936965692
 20
80.1791175973
 10
72.7153035117
 20
80.1952792873
 10
72.735352305
 20
80.2104589476
 10
72.7537370653
 20
80.2245764098
 10
72.770360697
 20
80.2375571151
 10
72.7851354054
 20
80.2493325085
 10
72.7979831608
 20
80.2598404004
 10
72.8088361101
 20
80.2690252955
 10
72.8176369357
 20
80.2768386854
 10
72.8243391575
 20
80.2832393053
 10
72.828907379
 20
80.2881933514
 10
72.8313174741
 20
80.29167466
  0
LWPOLYLINE
  5
2A6
100
AcDbEntity
  8
ASSI
100
AcDbPolyline
 62
253
  6
CONTINUOUS
 90
13
 70
0
 10
72.6706455905
 20
80.1620592326
 10
72.6936965692
 20
80.1791175973
 10
72.7153035117
 20
80.1952792873
 10
72.735352305
 20
80.2104589476
 10
72.7537370653
 20
80.2245764098
 10
72.770360697
 20
80.2375571151
 10
72.7851354054
 20
80.2493325085
 10
72.7979831608
 20
80.2598404004
 10
72.8088361101
 20
80.2690252955
 10
72.8176369357
 20
80.2768386854
 10
72.8243391575
 20
80.2832393053
 10
72.828907379
 20
80.2881933514
 10
72.8313174741
 20
80.29167466
  0
LWPOLYLINE
  5
2A7
100
AcDbEntity
  8
SCRITTE
100
AcDbPolyline
 62
253
  6
CONTINUOUS
 90
35
 70
0
 10
155.0027855934
 20
76.4782238307
 10
155.0641017616
 20
76.4870539185
 10
155.1244881527
 20
76.4953446223
 10
155.1839468289
 20
76.5030640419
 10
155.2424798528
 20
76.5101802776
 10
155.3000892867
 20
76.5166614294
 10
155.3567785123
 20
76.5224788673
 10
155.4125561881
 20
76.527617041
 10
155.4674322917
 20
76.5320636701
 10
155.5214168007
 20
76.5358064744
 10
155.5745196928
 20
76.5388331736
 10
155.6181037055
 20
76.5408013756
 10
155.6610753568
 20
76.5422676713
 10
155.7034275904
 20
76.5432359773
 10
155.7451533498
 20
76.5437102106
 10
155.7862455787
 20
76.5436942881
 10
155.8266972209
 20
76.5431921265
 10
155.8665042363
 20
76.5422073437
 10
155.905674651
 20
76.5407423615
 10
155.9442195075
 20
76.5387993025
 10
155.9821498482
 20
76.5363802896
 10
156.0194767157
 20
76.5334874452
 10
156.0562111523
 20
76.5301228923
 10
156.0923577922
 20
76.5262854821
 10
156.1278956356
 20
76.5219609805
 10
156.1627972744
 20
76.5171318817
 10
156.1970353003
 20
76.5117806803
 10
156.2305823053
 20
76.5058898707
 10
156.2634108811
 20
76.4994419473
 10
156.2954994286
 20
76.4924225183
 10
156.326849585
 20
76.4848296476
 10
156.3574687963
 20
76.4766645126
 10
156.3873645086
 20
76.4679282909
 10
156.4165441681
 20
76.4586221603
 10
156.4450152208
 20
76.4487472982
  0
LWPOLYLINE
  5
2A8
100
AcDbEntity
  8
RACCORDO
100
AcDbPolyline
 62
7
  6
CONTINUOUS
 90
7
 70
0
 10
229.7817864353
 20
80.0390311717
 10
229.8332929679
 20
80.0407069171
 10
229.8842078833
 20
80.0455929038
 10
229.9345311815
 20
80.053689146
 10
229.9842628625
 20
80.0649956677
 10
230.0334029263
 20
80.0795125018
 10
230.0819513729
 20
80.0972396909
  0
LWPOLYLINE
  5
2A9
100
AcDbEntity
  8
ASSI
100
AcDbPolyline
 62
7
  6
CONTINUOUS
 90
7
 70
0
 10
229.7817864353
 20
80.0390311717
 10
229.8332929679
 20
80.0407069171
 10
229.8842078833
 20
80.0455929038
 10
229.9345311815
 20
80.053689146
 10
229.9842628625
 20
80.0649956677
 10
230.0334029263
 20
80.0795125018
 10
230.0819513729
 20
80.0972396909
  0
LWPOLYLINE
  5
2AA
100
AcDbEntity
  8
SCRITTE
100
AcDbPolyline
 62
253
  6
CONTINUOUS
 90
54
 70
0
 10
155.8994474343
 20
75.2654030851
 10
155.9157465874
 20
75.2659081709
 10
155.9321566679
 20
75.2667155446
 10
155.9486999487
 20
75.2678523216
 10
155.965398703
 20
75.2693456177
 10
155.9822600332
 20
75.271222285
 10
155.9992303606
 20
75.2735081218
 10
156.0162409357
 20
75.2762286628
 10
156.0332230095
 20
75.2794094429
 10
156.0467408531
 20
75.2823007328
 10
156.0601546876
 20
75.2855047976
 10
156.0734227444
 20
75.2890235167
 10
156.0865032549
 20
75.2928587696
 10
156.0993544503
 20
75.2970124359
 10
156.1119390813
 20
75.3014857404
 10
156.1242379752
 20
75.3062772885
 10
156.1362364783
 20
75.3113850308
 10
156.1479199372
 20
75.3168069182
 10
156.1592736984
 20
75.3225409012
 10
156.1702856605
 20
75.328587189
 10
156.1809539306
 20
75.3349550244
 10
156.1912791679
 20
75.3416559087
 10
156.2012620319
 20
75.3487013432
 10
156.2109031817
 20
75.3561028292
 10
156.2202037934
 20
75.3638677725
 10
156.2291671099
 20
75.3719871975
 10
156.2377968909
 20
75.380448033
 10
156.2460968961
 20
75.3892372081
 10
156.2540708852
 20
75.3983416516
 10
156.2617236897
 20
75.4077504783
 10
156.2690644286
 20
75.4174615459
 10
156.2761032925
 20
75.427474898
 10
156.2828504723
 20
75.4377905782
 10
156.2893161587
 20
75.44840863
 10
156.2955080029
 20
75.4593280311
 10
156.3014234978
 20
75.4705434959
 10
156.3070575966
 20
75.482048673
 10
156.3124052527
 20
75.4938372107
 10
156.3174614193
 20
75.5059027577
 10
156.3222200355
 20
75.5182342059
 10
156.3266709833
 20
75.5308014213
 10
156.3308031306
 20
75.5435695132
 10
156.3346053452
 20
75.5565035911
 10
156.3380664951
 20
75.5695687645
 10
156.3411773494
 20
75.5827296596
 10
156.3439362836
 20
75.5959489703
 10
156.3463435743
 20
75.6091889075
 10
156.3483994984
 20
75.622411682
 10
156.3501043326
 20
75.6355795046
 10
156.3514587212
 20
75.6486629902
 10
156.3524647781
 20
75.6616663702
 10
156.3531249847
 20
75.6746022797
 10
156.3534418223
 20
75.6874833542
 10
156.3534177722
 20
75.7003222291
  0
LWPOLYLINE
  5
2AB
100
AcDbEntity
  8
RACCORDO
100
AcDbPolyline
 62
253
  6
CONTINUOUS
 90
15
 70
0
 10
256.242934426
 20
79.9872111757
 10
256.2734056856
 20
79.9881059304
 10
256.3025414416
 20
79.9891065565
 10
256.3301963713
 20
79.990208063
 10
256.3562325378
 20
79.991404956
 10
256.3805200784
 20
79.9926912656
 10
256.4029378521
 20
79.9940605759
 10
256.4233740439
 20
79.9955060571
 10
256.4417267225
 20
79.9970204995
 10
256.4579043487
 20
79.9985963493
 10
256.4718262321
 20
80.0002257467
 10
256.4834229333
 20
80.0019005644
 10
256.4926366105
 20
80.0036124489
 10
256.4994213079
 20
80.0053528616
 10
256.5037431848
 20
80.0071131218
  0
LWPOLYLINE
  5
2AC
100
AcDbEntity
  8
ASSI
100
AcDbPolyline
 62
253
  6
CONTINUOUS
 90
15
 70
0
 10
256.242934426
 20
79.9872111757
 10
256.2734056856
 20
79.9881059304
 10
256.3025414416
 20
79.9891065565
 10
256.3301963713
 20
79.990208063
 10
256.3562325378
 20
79.991404956
 10
256.3805200784
 20
79.9926912656
 10
256.4029378521
 20
79.9940605759
 10
256.4233740439
 20
79.9955060571
 10
256.4417267225
 20
79.9970204995
 10
256.4579043487
 20
79.9985963493
 10
256.4718262321
 20
80.0002257467
 10
256.4834229333
 20
80.0019005644
 10
256.4926366105
 20
80.0036124489
 10
256.4994213079
 20
80.0053528616
 10
256.5037431848
 20
80.0071131218
  0
LWPOLYLINE
  5
2AD
100
AcDbEntity
  8
RACCORDO
100
AcDbPolyline
 62
253
  6
CONTINUOUS
 90
15
 70
0
 10
256.2429386525
 20
80.0899774971
 10
256.2734099506
 20
80.0908692274
 10
256.302545738
 20
80.0918663024
 10
256.3302006913
 20
80.0929637489
 10
256.356236873
 20
80.0941560932
 10
256.3805244199
 20
80.095437388
 10
256.4029421906
 20
80.0968012426
 10
256.4233783695
 20
80.0982408541
 10
256.4417310252
 20
80.0997490423
 10
256.4579086182
 20
80.1013182845
 10
256.471830458
 20
80.1029407537
 10
256.4834271051
 20
80.1046083572
 10
256.4926407177
 20
80.1063127775
 10
256.4994253403
 20
80.1080455132
 10
256.5037471324
 20
80.1097979218
  0
LWPOLYLINE
  5
2AE
100
AcDbEntity
  8
ASSI
100
AcDbPolyline
 62
253
  6
CONTINUOUS
 90
15
 70
0
 10
256.2429386525
 20
80.0899774971
 10
256.2734099506
 20
80.0908692274
 10
256.302545738
 20
80.0918663024
 10
256.3302006913
 20
80.0929637489
 10
256.356236873
 20
80.0941560932
 10
256.3805244199
 20
80.095437388
 10
256.4029421906
 20
80.0968012426
 10
256.4233783695
 20
80.0982408541
 10
256.4417310252
 20
80.0997490423
 10
256.4579086182
 20
80.1013182845
 10
256.471830458
 20
80.1029407537
 10
256.4834271051
 20
80.1046083572
 10
256.4926407177
 20
80.1063127775
 10
256.4994253403
 20
80.1080455132
 10
256.5037471324
 20
80.1097979218
  0
LINE
  5
2AF
100
AcDbEntity
  8
RACCORDO
100
AcDbLine
 62
253
  6
CONTINUOUS
 10
256.1785992353
 20
79.9857565817
 11
256.242934426
 21
79.9872111757
  0
LINE
  5
2B0
100
AcDbEntity
  8
ASSI
100
AcDbLine
 62
253
  6
CONTINUOUS
 10
256.1785992353
 20
79.9857565817
 11
256.242934426
 21
79.9872111757
  0
LINE
  5
2B1
100
AcDbEntity
  8
RACCORDO
100
AcDbLine
 62
253
  6
CONTINUOUS
 10
256.178603367
 20
80.0885273145
 11
256.2429386525
 21
80.0899774971
  0
LINE
  5
2B2
100
AcDbEntity
  8
ASSI
100
AcDbLine
 62
253
  6
CONTINUOUS
 10
256.178603367
 20
80.0885273145
 11
256.2429386525
 21
80.0899774971
  0
LINE
  5
2B3
100
AcDbEntity
  8
RACCORDO
100
AcDbLine
 62
253
  6
CONTINUOUS
 10
256.1108178291
 20
79.9847717589
 11
256.1785992353
 21
79.9857565817
  0
LINE
  5
2B4
100
AcDbEntity
  8
ASSI
100
AcDbLine
 62
253
  6
CONTINUOUS
 10
256.1108178291
 20
79.9847717589
 11
256.1785992353
 21
79.9857565817
  0
LINE
  5
2B5
100
AcDbEntity
  8
RACCORDO
100
AcDbLine
 62
253
  6
CONTINUOUS
 10
256.1108218471
 20
80.0875446513
 11
256.178603367
 21
80.0885273145
  0
LINE
  5
2B6
100
AcDbEntity
  8
ASSI
100
AcDbLine
 62
253
  6
CONTINUOUS
 10
256.1108218471
 20
80.0875446513
 11
256.178603367
 21
80.0885273145
  0
LINE
  5
2B7
100
AcDbEntity
  8
RACCORDO
100
AcDbLine
 62
253
  6
CONTINUOUS
 10
72.2623082492
 20
80.7221802081
 11
72.3328559842
 21
80.7229349903
  0
LINE
  5
2B8
100
AcDbEntity
  8
ASSI
100
AcDbLine
 62
253
  6
CONTINUOUS
 10
72.2623082492
 20
80.7221802081
 11
72.3328559842
 21
80.7229349903
  0
LINE
  5
2B9
100
AcDbEntity
  8
RACCORDO
100
AcDbLine
 62
253
  6
CONTINUOUS
 10
256.0409408367
 20
79.9842763312
 11
256.1108178291
 21
79.9847717589
  0
LINE
  5
2BA
100
AcDbEntity
  8
ASSI
100
AcDbLine
 62
253
  6
CONTINUOUS
 10
256.0409408367
 20
79.9842763312
 11
256.1108178291
 21
79.9847717589
  0
LWPOLYLINE
  5
2BB
100
AcDbEntity
  8
RACCORDO
100
AcDbPolyline
 62
253
  6
CONTINUOUS
 90
3
 70
0
 10
256.0056545695
 20
80.0869874412
 10
256.0409447298
 20
80.0870490883
 10
256.1108218471
 20
80.0875446513
  0
LWPOLYLINE
  5
2BC
100
AcDbEntity
  8
ASSI
100
AcDbPolyline
 62
253
  6
CONTINUOUS
 90
3
 70
0
 10
256.0056545695
 20
80.0869874412
 10
256.0409447298
 20
80.0870490883
 10
256.1108218471
 20
80.0875446513
  0
LINE
  5
2BD
100
AcDbEntity
  8
RACCORDO
100
AcDbLine
 62
253
  6
CONTINUOUS
 10
72.1902564483
 20
80.7219273375
 11
72.2623082492
 21
80.7221802081
  0
LINE
  5
2BE
100
AcDbEntity
  8
ASSI
100
AcDbLine
 62
253
  6
CONTINUOUS
 10
72.1902564483
 20
80.7219273375
 11
72.2623082492
 21
80.7221802081
  0
LINE
  5
2BF
100
AcDbEntity
  8
SCRITTE
100
AcDbLine
 62
253
  6
CONTINUOUS
 10
157.041915003
 20
73.7112298173
 11
156.479782413
 21
73.7112298173
  0
LINE
  5
2C0
100
AcDbEntity
  8
SCRITTE
100
AcDbLine
 62
253
  6
CONTINUOUS
 10
155.584842136
 20
73.7112298173
 11
155.0027855934
 21
73.7112298173
  0
LINE
  5
2C1
100
AcDbEntity
  8
SCRITTE
100
AcDbLine
 62
253
  6
CONTINUOUS
 10
149.2828897911
 20
73.7112301717
 11
148.6984817911
 21
73.7112301717
  0
LINE
  5
2C2
100
AcDbEntity
  8
SCRITTE
100
AcDbLine
 62
253
  6
CONTINUOUS
 10
147.0666597911
 20
73.7112301717
 11
147.5816697911
 21
73.7112301717
  0
LINE
  5
2C3
100
AcDbEntity
  8
SCRITTE
100
AcDbLine
 62
253
  6
CONTINUOUS
 10
149.5974947911
 20
73.7112301717
 11
150.1565837911
 21
73.7112301717
  0
LINE
  5
2C4
100
AcDbEntity
  8
SCRITTE
100
AcDbLine
 62
253
  6
CONTINUOUS
 10
150.9682797911
 20
73.7112301717
 11
151.0502427911
 21
73.7112301717
  0
LINE
  5
2C5
100
AcDbEntity
  8
SCRITTE
100
AcDbLine
 62
253
  6
CONTINUOUS
 10
151.8651727911
 20
73.7112301717
 11
152.4368787911
 21
73.7112301717
  0
LINE
  5
2C6
100
AcDbEntity
  8
SCRITTE
100
AcDbLine
 62
253
  6
CONTINUOUS
 10
152.5286467911
 20
73.7112301717
 11
153.1067137911
 21
73.7112301717
  0
LINE
  5
2C7
100
AcDbEntity
  8
SCRITTE
100
AcDbLine
 62
253
  6
CONTINUOUS
 10
154.2152327911
 20
73.7112301717
 11
154.8311747911
 21
73.7112301717
  0
LINE
  5
2C8
100
AcDbEntity
  8
SCRITTE
100
AcDbLine
 62
253
  6
CONTINUOUS
 10
153.2679737911
 20
74.2701501717
 11
154.0638407911
 21
74.2701501717
  0
LINE
  5
2C9
100
AcDbEntity
  8
SCRITTE
100
AcDbLine
 62
253
  6
CONTINUOUS
 10
153.9470467911
 20
74.7026401717
 11
153.3875177911
 21
74.7026401717
  0
LINE
  5
2CA
100
AcDbEntity
  8
SCRITTE
100
AcDbLine
 62
253
  6
CONTINUOUS
 10
155.8981877534
 20
74.8068792469
 11
155.584842136
 21
74.8068792469
  0
LINE
  5
2CB
100
AcDbEntity
  8
SCRITTE
100
AcDbLine
 62
253
  6
CONTINUOUS
 10
155.5654640452
 20
75.2654030851
 11
155.8994474343
 21
75.2654030851
  0
LINE
  5
2CC
100
AcDbEntity
  8
SCRITTE
100
AcDbLine
 62
253
  6
CONTINUOUS
 10
153.9721567911
 20
76.5109331717
 11
153.4068117911
 21
76.5109331717
  0
LINE
  5
2CD
100
AcDbEntity
  8
SCRITTE
100
AcDbLine
 62
253
  6
CONTINUOUS
 10
152.1750747911
 20
76.5109331717
 11
151.5968607911
 21
76.5109331717
  0
LINE
  5
2CE
100
AcDbEntity
  8
SCRITTE
100
AcDbLine
 62
253
  6
CONTINUOUS
 10
150.4342167911
 20
76.5109331717
 11
149.8502917911
 21
76.5109331717
  0
LINE
  5
2CF
100
AcDbEntity
  8
SCRITTE
100
AcDbLine
 62
253
  6
CONTINUOUS
 10
148.4816067911
 20
76.5109331717
 11
147.8975977911
 21
76.5109331717
  0
LINE
  5
2D0
100
AcDbEntity
  8
SCRITTE
100
AcDbLine
 62
253
  6
CONTINUOUS
 10
146.8139467911
 20
76.5109331717
 11
146.1790987911
 21
76.5109331717
  0
LINE
  5
2D1
100
AcDbEntity
  8
SCRITTE
100
AcDbLine
 62
253
  6
CONTINUOUS
 10
148.6984817911
 20
76.5111011717
 11
149.2828897911
 21
76.5111011717
  0
LINE
  5
2D2
100
AcDbEntity
  8
RACCORDO
100
AcDbLine
 62
253
  6
CONTINUOUS
 10
229.873614831
 20
79.4213314319
 11
73.4919187512
 21
79.4213314319
  0
LINE
  5
2D3
100
AcDbEntity
  8
ASSI
100
AcDbLine
 62
253
  6
CONTINUOUS
 10
229.873614831
 20
79.4213314319
 11
73.4919187512
 21
79.4213314319
  0
LINE
  5
2D4
100
AcDbEntity
  8
RACCORDO
100
AcDbLine
 62
253
  6
CONTINUOUS
 10
229.8736460022
 20
79.9474367067
 11
73.4919072107
 21
79.9474367067
  0
LINE
  5
2D5
100
AcDbEntity
  8
ASSI
100
AcDbLine
 62
253
  6
CONTINUOUS
 10
229.8736460022
 20
79.9474367067
 11
73.4919072107
 21
79.9474367067
  0
LINE
  5
2D6
100
AcDbEntity
  8
RACCORDO
100
AcDbLine
 62
253
  6
CONTINUOUS
 10
230.9452650823
 20
79.9842156131
 11
256.0409408367
 21
79.9842763312
  0
LINE
  5
2D7
100
AcDbEntity
  8
ASSI
100
AcDbLine
 62
253
  6
CONTINUOUS
 10
230.9452650823
 20
79.9842156131
 11
256.0409408367
 21
79.9842763312
  0
LINE
  5
2D8
100
AcDbEntity
  8
RACCORDO
100
AcDbLine
 62
7
  6
CONTINUOUS
 10
73.5837471469
 20
80.0390311717
 11
229.7817864353
 21
80.0390311717
  0
LINE
  5
2D9
100
AcDbEntity
  8
ASSI
100
AcDbLine
 62
7
  6
CONTINUOUS
 10
73.5837471469
 20
80.0390311717
 11
229.7817864353
 21
80.0390311717
  0
LINE
  5
2DA
100
AcDbEntity
  8
RACCORDO
100
AcDbLine
 62
253
  6
CONTINUOUS
 10
46.8617864494
 20
80.1097979218
 11
46.6827667911
 21
80.1097979218
  0
LINE
  5
2DB
100
AcDbEntity
  8
ASSI
100
AcDbLine
 62
253
  6
CONTINUOUS
 10
46.8617864494
 20
80.1097979218
 11
46.6827667911
 21
80.1097979218
  0
LINE
  5
2DC
100
AcDbEntity
  8
RACCORDO
100
AcDbLine
 62
253
  6
CONTINUOUS
 10
256.5037471329
 20
80.1097979218
 11
256.6827667911
 21
80.1097979218
  0
LINE
  5
2DD
100
AcDbEntity
  8
ASSI
100
AcDbLine
 62
253
  6
CONTINUOUS
 10
256.5037471329
 20
80.1097979218
 11
256.6827667911
 21
80.1097979218
  0
LINE
  5
2DE
100
AcDbEntity
  8
RACCORDO
100
AcDbLine
 62
253
  6
CONTINUOUS
 10
72.4202684999
 20
79.9842156131
 11
47.3245927464
 21
79.984276332
  0
LINE
  5
2DF
100
AcDbEntity
  8
ASSI
100
AcDbLine
 62
253
  6
CONTINUOUS
 10
72.4202684999
 20
79.9842156131
 11
47.3245927464
 21
79.984276332
  0
LINE
  5
2E0
100
AcDbEntity
  8
RACCORDO
100
AcDbLine
 62
253
  6
CONTINUOUS
 10
231.1752771339
 20
80.7219274492
 11
231.1032251843
 21
80.7221802968
  0
LINE
  5
2E1
100
AcDbEntity
  8
ASSI
100
AcDbLine
 62
253
  6
CONTINUOUS
 10
231.1752771339
 20
80.7219274492
 11
231.1032251843
 21
80.7221802968
  0
LINE
  5
2E2
100
AcDbEntity
  8
RACCORDO
100
AcDbLine
 62
253
  6
CONTINUOUS
 10
47.3598790127
 20
80.0869874409
 11
47.2894747119
 21
80.0872351341
  0
LINE
  5
2E3
100
AcDbEntity
  8
ASSI
100
AcDbLine
 62
253
  6
CONTINUOUS
 10
47.3598790127
 20
80.0869874409
 11
47.2894747119
 21
80.0872351341
  0
LINE
  5
2E4
100
AcDbEntity
  8
RACCORDO
100
AcDbLine
 62
253
  6
CONTINUOUS
 10
47.3245927464
 20
79.984276332
 11
47.2547157556
 21
79.9847717597
  0
LINE
  5
2E5
100
AcDbEntity
  8
ASSI
100
AcDbLine
 62
253
  6
CONTINUOUS
 10
47.3245927464
 20
79.984276332
 11
47.2547157556
 21
79.9847717597
  0
LINE
  5
2E6
100
AcDbEntity
  8
RACCORDO
100
AcDbLine
 62
253
  6
CONTINUOUS
 10
47.2894747119
 20
80.0872351341
 11
47.2204733102
 21
80.0879760951
  0
LINE
  5
2E7
100
AcDbEntity
  8
ASSI
100
AcDbLine
 62
253
  6
CONTINUOUS
 10
47.2894747119
 20
80.0872351341
 11
47.2204733102
 21
80.0879760951
  0
LINE
  5
2E8
100
AcDbEntity
  8
RACCORDO
100
AcDbLine
 62
253
  6
CONTINUOUS
 10
231.1032251843
 20
80.7221802968
 11
231.032677248
 21
80.7229350584
  0
LINE
  5
2E9
100
AcDbEntity
  8
ASSI
100
AcDbLine
 62
253
  6
CONTINUOUS
 10
231.1032251843
 20
80.7221802968
 11
231.032677248
 21
80.7229350584
  0
LINE
  5
2EA
100
AcDbEntity
  8
RACCORDO
100
AcDbLine
 62
253
  6
CONTINUOUS
 10
47.2547157556
 20
79.9847717597
 11
47.1869343508
 21
79.9857565825
  0
LINE
  5
2EB
100
AcDbEntity
  8
ASSI
100
AcDbLine
 62
253
  6
CONTINUOUS
 10
47.2547157556
 20
79.9847717597
 11
47.1869343508
 21
79.9857565825
  0
LWPOLYLINE
  5
2EC
100
AcDbEntity
  8
RACCORDO
100
AcDbPolyline
 62
253
  6
CONTINUOUS
 90
17
 70
0
 10
47.2204733102
 20
80.0879760951
 10
47.1542497522
 20
80.0891955592
 10
47.1225949281
 20
80.0899774969
 10
47.0921236299
 20
80.0908692271
 10
47.0629878424
 20
80.0918663022
 10
47.035332889
 20
80.0929637487
 10
47.0092967072
 20
80.094156093
 10
46.9850091603
 20
80.0954373879
 10
46.9625913896
 20
80.0968012424
 10
46.9421552107
 20
80.098240854
 10
46.9238025551
 20
80.0997490422
 10
46.9076249622
 20
80.1013182844
 10
46.8937031227
 20
80.1029407536
 10
46.8821064758
 20
80.1046083572
 10
46.8728928634
 20
80.1063127775
 10
46.8661082411
 20
80.1080455132
 10
46.8617864494
 20
80.1097979218
  0
LWPOLYLINE
  5
2ED
100
AcDbEntity
  8
ASSI
100
AcDbPolyline
 62
253
  6
CONTINUOUS
 90
17
 70
0
 10
47.2204733102
 20
80.0879760951
 10
47.1542497522
 20
80.0891955592
 10
47.1225949281
 20
80.0899774969
 10
47.0921236299
 20
80.0908692271
 10
47.0629878424
 20
80.0918663022
 10
47.035332889
 20
80.0929637487
 10
47.0092967072
 20
80.094156093
 10
46.9850091603
 20
80.0954373879
 10
46.9625913896
 20
80.0968012424
 10
46.9421552107
 20
80.098240854
 10
46.9238025551
 20
80.0997490422
 10
46.9076249622
 20
80.1013182844
 10
46.8937031227
 20
80.1029407536
 10
46.8821064758
 20
80.1046083572
 10
46.8728928634
 20
80.1063127775
 10
46.8661082411
 20
80.1080455132
 10
46.8617864494
 20
80.1097979218
  0
LWPOLYLINE
  5
2EE
100
AcDbEntity
  8
RACCORDO
100
AcDbPolyline
 62
253
  6
CONTINUOUS
 90
19
 70
0
 10
73.491907191
 20
79.9474366872
 10
73.449638896
 20
79.9484729387
 10
73.4073050807
 20
79.9517441855
 10
73.3650260837
 20
79.9572698282
 10
73.3229088663
 20
79.9650653918
 10
73.2810944948
 20
79.9751360517
 10
73.2397558179
 20
79.9874683619
 10
73.1989877289
 20
80.0020592199
 10
73.1589479589
 20
80.0188778994
 10
73.1198929351
 20
80.0378300619
 10
73.0819635006
 20
80.0588425766
 10
73.0452409329
 20
80.0818653211
 10
73.0098738564
 20
80.1068009637
 10
72.9759727884
 20
80.1335578906
 10
72.943616077
 20
80.1620598002
 10
72.9128924615
 20
80.1922182665
 10
72.883884496
 20
80.2239395786
 10
72.8566683314
 20
80.2571250265
 10
72.8313148958
 20
80.2916728891
  0
LWPOLYLINE
  5
2EF
100
AcDbEntity
  8
ASSI
100
AcDbPolyline
 62
253
  6
CONTINUOUS
 90
19
 70
0
 10
73.491907191
 20
79.9474366872
 10
73.449638896
 20
79.9484729387
 10
73.4073050807
 20
79.9517441855
 10
73.3650260837
 20
79.9572698282
 10
73.3229088663
 20
79.9650653918
 10
73.2810944948
 20
79.9751360517
 10
73.2397558179
 20
79.9874683619
 10
73.1989877289
 20
80.0020592199
 10
73.1589479589
 20
80.0188778994
 10
73.1198929351
 20
80.0378300619
 10
73.0819635006
 20
80.0588425766
 10
73.0452409329
 20
80.0818653211
 10
73.0098738564
 20
80.1068009637
 10
72.9759727884
 20
80.1335578906
 10
72.943616077
 20
80.1620598002
 10
72.9128924615
 20
80.1922182665
 10
72.883884496
 20
80.2239395786
 10
72.8566683314
 20
80.2571250265
 10
72.8313148958
 20
80.2916728891
  0
LWPOLYLINE
  5
2F0
100
AcDbEntity
  8
RACCORDO
100
AcDbPolyline
 62
253
  6
CONTINUOUS
 90
16
 70
0
 10
47.1869343508
 20
79.9857565825
 10
47.1225991614
 20
79.9872111765
 10
47.0921279023
 20
79.9881059311
 10
47.0629921466
 20
79.9891065571
 10
47.0353372172
 20
79.9902080636
 10
47.0093010509
 20
79.9914049566
 10
46.9850135104
 20
79.9926912661
 10
46.9625957367
 20
79.9940605763
 10
46.9421595447
 20
79.9955060575
 10
46.9238068658
 20
79.9970204998
 10
46.9076292391
 20
79.9985963496
 10
46.8937073551
 20
80.0002257469
 10
46.8821106532
 20
80.0019005646
 10
46.8728969751
 20
80.003612449
 10
46.8661122767
 20
80.0053528617
 10
46.8617903987
 20
80.0071131218
  0
LWPOLYLINE
  5
2F1
100
AcDbEntity
  8
ASSI
100
AcDbPolyline
 62
253
  6
CONTINUOUS
 90
16
 70
0
 10
47.1869343508
 20
79.9857565825
 10
47.1225991614
 20
79.9872111765
 10
47.0921279023
 20
79.9881059311
 10
47.0629921466
 20
79.9891065571
 10
47.0353372172
 20
79.9902080636
 10
47.0093010509
 20
79.9914049566
 10
46.9850135104
 20
79.9926912661
 10
46.9625957367
 20
79.9940605763
 10
46.9421595447
 20
79.9955060575
 10
46.9238068658
 20
79.9970204998
 10
46.9076292391
 20
79.9985963496
 10
46.8937073551
 20
80.0002257469
 10
46.8821106532
 20
80.0019005646
 10
46.8728969751
 20
80.003612449
 10
46.8661122767
 20
80.0053528617
 10
46.8617903987
 20
80.0071131218
  0
LWPOLYLINE
  5
2F2
100
AcDbEntity
  8
RACCORDO
100
AcDbPolyline
 62
253
  6
CONTINUOUS
 90
19
 70
0
 10
73.4919187512
 20
79.4213314319
 10
73.4230952859
 20
79.4230910102
 10
73.3545332466
 20
79.4285427037
 10
73.2862326334
 20
79.4376865318
 10
73.2179549256
 20
79.4505357214
 10
73.1499386438
 20
79.4670771232
 10
73.0828993498
 20
79.4872712109
 10
73.0168092137
 20
79.5111990028
 10
72.9516960653
 20
79.5387796343
 10
72.8883589557
 20
79.5697307656
 10
72.826872537
 20
79.6040895364
 10
72.767162157
 20
79.6418190127
 10
72.7098029096
 20
79.6825257383
 10
72.6548347486
 20
79.7262375876
 10
72.6022177202
 20
79.7729269154
 10
72.5524070578
 20
79.8221169617
 10
72.5055545059
 20
79.8736488713
 10
72.4615083199
 20
79.9276817161
 10
72.4202684999
 20
79.9842156131
  0
LWPOLYLINE
  5
2F3
100
AcDbEntity
  8
ASSI
100
AcDbPolyline
 62
253
  6
CONTINUOUS
 90
19
 70
0
 10
73.4919187512
 20
79.4213314319
 10
73.4230952859
 20
79.4230910102
 10
73.3545332466
 20
79.4285427037
 10
73.2862326334
 20
79.4376865318
 10
73.2179549256
 20
79.4505357214
 10
73.1499386438
 20
79.4670771232
 10
73.0828993498
 20
79.4872712109
 10
73.0168092137
 20
79.5111990028
 10
72.9516960653
 20
79.5387796343
 10
72.8883589557
 20
79.5697307656
 10
72.826872537
 20
79.6040895364
 10
72.767162157
 20
79.6418190127
 10
72.7098029096
 20
79.6825257383
 10
72.6548347486
 20
79.7262375876
 10
72.6022177202
 20
79.7729269154
 10
72.5524070578
 20
79.8221169617
 10
72.5055545059
 20
79.8736488713
 10
72.4615083199
 20
79.9276817161
 10
72.4202684999
 20
79.9842156131
  0
LWPOLYLINE
  5
2F4
100
AcDbEntity
  8
SCRITTE
100
AcDbPolyline
 62
253
  6
CONTINUOUS
 90
24
 70
0
 10
156.0232752735
 20
76.0504594969
 10
156.0017923087
 20
76.0527941442
 10
155.9802837237
 20
76.0548152861
 10
155.9587536492
 20
76.056523655
 10
155.9372062158
 20
76.0579199834
 10
155.9156455543
 20
76.0590050034
 10
155.8940757953
 20
76.0597794475
 10
155.8725010695
 20
76.0602440481
 10
155.8536206388
 20
76.0603969085
 10
155.8347320239
 20
76.0603131627
 10
155.815827681
 20
76.0599928678
 10
155.7969000659
 20
76.0594360809
 10
155.7779407328
 20
76.0586417495
 10
155.7589376289
 20
76.0576043831
 10
155.7398777991
 20
76.0563173815
 10
155.7207482887
 20
76.0547741447
 10
155.7015402253
 20
76.0529708946
 10
155.6822610663
 20
76.0509151426
 10
155.6629223519
 20
76.0486172222
 10
155.643535622
 20
76.0460874669
 10
155.624108115
 20
76.043338079
 10
155.6046298629
 20
76.0403887366
 10
155.5850865962
 20
76.0372609866
 10
155.5654640452
 20
76.0339763757
  0
LWPOLYLINE
  5
2F5
100
AcDbEntity
  8
SCRITTE
100
AcDbPolyline
 62
253
  6
CONTINUOUS
 90
88
 70
0
 10
156.4450152208
 20
76.4487472982
 10
156.4603978595
 20
76.4428724856
 10
156.4759378457
 20
76.4362830786
 10
156.4916545876
 20
76.4289617442
 10
156.5075674934
 20
76.4208911489
 10
156.5236959716
 20
76.4120539597
 10
156.5400594302
 20
76.4024328432
 10
156.5566620512
 20
76.3920156437
 10
156.5734471107
 20
76.3808109155
 10
156.5903426583
 20
76.3688323907
 10
156.6072767436
 20
76.3560938011
 10
156.6241774163
 20
76.3426088787
 10
156.640972726
 20
76.3283913552
 10
156.6608932902
 20
76.310381429
 10
156.6804736601
 20
76.2913528638
 10
156.6996289722
 20
76.2713221921
 10
156.7182743634
 20
76.2503059462
 10
156.7363249704
 20
76.2283206588
 10
156.7508526832
 20
76.2092768942
 10
156.7648659918
 20
76.1896149594
 10
156.7783224693
 20
76.1693781488
 10
156.7911796889
 20
76.1486097569
 10
156.8033952237
 20
76.127353078
 10
156.8149266469
 20
76.1056514068
 10
156.8257369161
 20
76.0835522225
 10
156.8358105264
 20
76.0611197449
 10
156.8451373576
 20
76.0384223784
 10
156.8537072891
 20
76.0155285275
 10
156.8615102006
 20
75.9925065968
 10
156.8685359716
 20
75.9694249908
 10
156.8747818018
 20
75.9463469671
 10
156.8802741699
 20
75.9233151955
 10
156.8850468747
 20
75.9003671987
 10
156.8891335155
 20
75.877555618
 10
156.8925668935
 20
75.8549935693
 10
156.8953796103
 20
75.8328092871
 10
156.8976063823
 20
75.8110996996
 10
156.8992903836
 20
75.7898365107
 10
156.900476903
 20
75.768960118
 10
156.9012064083
 20
75.7484263797
 10
156.9015000838
 20
75.7282529948
 10
156.9013742927
 20
75.708473123
 10
156.9006929435
 20
75.6852908645
 10
156.8994609391
 20
75.6627050846
 10
156.897708093
 20
75.6406978535
 10
156.8954642186
 20
75.6192512415
 10
156.8927591293
 20
75.5983473185
 10
156.888772864
 20
75.5729580204
 10
156.8841603281
 20
75.5483822237
 10
156.8789693156
 20
75.5246134933
 10
156.8732476206
 20
75.5016453942
 10
156.8670425362
 20
75.4794698355
 10
156.8603993504
 20
75.4580721026
 10
156.8533628504
 20
75.4374358248
 10
156.8459778233
 20
75.4175446318
 10
156.8382867026
 20
75.3983817059
 10
156.830322508
 20
75.3799284419
 10
156.8221159058
 20
75.3621657876
 10
156.8136975622
 20
75.3450746906
 10
156.8050963159
 20
75.3286362016
 10
156.7963336957
 20
75.3128317831
 10
156.7874294028
 20
75.2976430005
 10
156.7784031386
 20
75.2830514192
 10
156.7662105574
 20
75.2644957133
 10
156.7538715796
 20
75.2469409398
 10
156.7414216224
 20
75.2303591126
 10
156.7288990093
 20
75.2147167859
 10
156.7163536904
 20
75.1999586751
 10
156.7038385223
 20
75.1860240362
 10
156.6914032687
 20
75.17285149
 10
156.679085322
 20
75.1603771169
 10
156.6669189816
 20
75.1485363624
 10
156.6549364786
 20
75.1372685529
 10
156.6431617714
 20
75.1265285396
 10
156.6316167502
 20
75.1162750551
 10
156.6147629463
 20
75.1017180395
 10
156.598480268
 20
75.0880318426
 10
156.5828003972
 20
75.0751481177
 10
156.5751269253
 20
75.0690572838
 10
156.5674649622
 20
75.0632419358
 10
156.5597392505
 20
75.0577470969
 10
156.5519667742
 20
75.0526687285
 10
156.5441831777
 20
75.0481062403
 10
156.5364065055
 20
75.044121898
 10
156.5286437382
 20
75.0407627773
 10
156.5208752007
 20
75.0380523376
 10
156.5130813662
 20
75.036008487
 10
156.505269956
 20
75.0346505436
  0
LWPOLYLINE
  5
2F6
100
AcDbEntity
  8
SCRITTE
100
AcDbPolyline
 62
253
  6
CONTINUOUS
 90
42
 70
0
 10
156.505269956
 20
75.0181067348
 10
156.5143437302
 20
75.0143226103
 10
156.5233790133
 20
75.0102170919
 10
156.5323811763
 20
75.0057807955
 10
156.5413555905
 20
75.0010043372
 10
156.5503069511
 20
74.9958778276
 10
156.5592372488
 20
74.9903893563
 10
156.5681477983
 20
74.9845265075
 10
156.5770399142
 20
74.9782768656
 10
156.5859114407
 20
74.9716312563
 10
156.5947463408
 20
74.9645934712
 10
156.603525107
 20
74.9571705432
 10
156.6122282317
 20
74.9493695054
 10
156.6208373749
 20
74.9411987549
 10
156.6293388663
 20
74.9326721457
 10
156.6377202031
 20
74.9238048959
 10
156.6459688823
 20
74.9146122236
 10
156.65407555
 20
74.9051059991
 10
156.6620434471
 20
74.8952847013
 10
156.6698789633
 20
74.885143461
 10
156.6775884887
 20
74.8746774093
 10
156.685176679
 20
74.8638838376
 10
156.6926412553
 20
74.8527686801
 10
156.6999782047
 20
74.8413400313
 10
156.7071835143
 20
74.8296059859
 10
156.7152528809
 20
74.8158309814
 10
156.7231454767
 20
74.8016731737
 10
156.7308617099
 20
74.7871380725
 10
156.7384019888
 20
74.7722311875
 10
156.7457667217
 20
74.7569580282
 10
156.7529563166
 20
74.7413241044
 10
156.7599711819
 20
74.7253349257
 10
156.7668115921
 20
74.7089966395
 10
156.7734772875
 20
74.6923179435
 10
156.7799678749
 20
74.6753081732
 10
156.7862829607
 20
74.6579766641
 10
156.7924221517
 20
74.6403327517
 10
156.7983850546
 20
74.6223857715
 10
156.8041712759
 20
74.604145059
 10
156.8107093852
 20
74.582505026
 10
156.8170739412
 20
74.560490255
 10
156.823332409
 20
74.5381131036
  0
LINE
  5
2F7
100
AcDbEntity
  8
RACCORDO
100
AcDbLine
 62
253
  6
CONTINUOUS
 10
72.4202684999
 20
125.1938465376
 11
72.4798734472
 21
125.152478541
  0
LINE
  5
2F8
100
AcDbEntity
  8
ASSI
100
AcDbLine
 62
253
  6
CONTINUOUS
 10
72.4202684999
 20
125.1938465376
 11
72.4798734472
 21
125.152478541
  0
LINE
  5
2F9
100
AcDbEntity
  8
RACCORDO
100
AcDbLine
 62
253
  6
CONTINUOUS
 10
72.4798734472
 20
125.152478541
 11
72.5382209857
 21
125.1114533471
  0
LINE
  5
2FA
100
AcDbEntity
  8
ASSI
100
AcDbLine
 62
253
  6
CONTINUOUS
 10
72.4798734472
 20
125.152478541
 11
72.5382209857
 21
125.1114533471
  0
LINE
  5
2FB
100
AcDbEntity
  8
RACCORDO
100
AcDbLine
 62
253
  6
CONTINUOUS
 10
72.5382209857
 20
125.1114533471
 11
72.5940801354
 21
125.0716364797
  0
LINE
  5
2FC
100
AcDbEntity
  8
ASSI
100
AcDbLine
 62
253
  6
CONTINUOUS
 10
72.5382209857
 20
125.1114533471
 11
72.5940801354
 21
125.0716364797
  0
LWPOLYLINE
  5
2FD
100
AcDbEntity
  8
RACCORDO
100
AcDbPolyline
 62
253
  6
CONTINUOUS
 90
15
 70
0
 10
72.5940801354
 20
125.0716364797
 10
72.6462724148
 20
125.0338679699
 10
72.6706457075
 20
125.0160030098
 10
72.6936967036
 20
124.998944634
 10
72.7153036635
 20
124.9827829333
 10
72.7353524739
 20
124.9676032626
 10
72.7537372507
 20
124.9534857907
 10
72.770360898
 20
124.9405050762
 10
72.7851356211
 20
124.9287296745
 10
72.79798339
 20
124.9182217751
 10
72.8088363515
 20
124.9090368736
 10
72.8176371877
 20
124.9012234784
 10
72.8243394186
 20
124.8948228543
 10
72.8289076475
 20
124.8898688052
 10
72.8313177482
 20
124.8863874949
  0
LWPOLYLINE
  5
2FE
100
AcDbEntity
  8
ASSI
100
AcDbPolyline
 62
253
  6
CONTINUOUS
 90
15
 70
0
 10
72.5940801354
 20
125.0716364797
 10
72.6462724148
 20
125.0338679699
 10
72.6706457075
 20
125.0160030098
 10
72.6936967036
 20
124.998944634
 10
72.7153036635
 20
124.9827829333
 10
72.7353524739
 20
124.9676032626
 10
72.7537372507
 20
124.9534857907
 10
72.770360898
 20
124.9405050762
 10
72.7851356211
 20
124.9287296745
 10
72.79798339
 20
124.9182217751
 10
72.8088363515
 20
124.9090368736
 10
72.8176371877
 20
124.9012234784
 10
72.8243394186
 20
124.8948228543
 10
72.8289076475
 20
124.8898688052
 10
72.8313177482
 20
124.8863874949
  0
LINE
  5
2FF
100
AcDbEntity
  8
RACCORDO
100
AcDbLine
 62
253
  6
CONTINUOUS
 10
72.6207054656
 20
80.1256171006
 11
72.6706455905
 21
80.1620592326
  0
LINE
  5
300
100
AcDbEntity
  8
ASSI
100
AcDbLine
 62
253
  6
CONTINUOUS
 10
72.6207054656
 20
80.1256171006
 11
72.6706455905
 21
80.1620592326
  0
LINE
  5
301
100
AcDbEntity
  8
RACCORDO
100
AcDbLine
 62
253
  6
CONTINUOUS
 10
72.5665367412
 20
80.0867217236
 11
72.6207054656
 21
80.1256171006
  0
LINE
  5
302
100
AcDbEntity
  8
ASSI
100
AcDbLine
 62
253
  6
CONTINUOUS
 10
72.5665367412
 20
80.0867217236
 11
72.6207054656
 21
80.1256171006
  0
LINE
  5
303
100
AcDbEntity
  8
RACCORDO
100
AcDbLine
 62
253
  6
CONTINUOUS
 10
72.5092822337
 20
80.0461936909
 11
72.5665367412
 21
80.0867217236
  0
LINE
  5
304
100
AcDbEntity
  8
ASSI
100
AcDbLine
 62
253
  6
CONTINUOUS
 10
72.5092822337
 20
80.0461936909
 11
72.5665367412
 21
80.0867217236
  0
LWPOLYLINE
  5
305
100
AcDbEntity
  8
RACCORDO
100
AcDbPolyline
 62
253
  6
CONTINUOUS
 90
3
 70
0
 10
72.4202685
 20
79.9842157871
 10
72.4501498615
 20
80.0048880364
 10
72.5092822337
 20
80.0461936909
  0
LWPOLYLINE
  5
306
100
AcDbEntity
  8
ASSI
100
AcDbPolyline
 62
253
  6
CONTINUOUS
 90
3
 70
0
 10
72.4202685
 20
79.9842157871
 10
72.4501498615
 20
80.0048880364
 10
72.5092822337
 20
80.0461936909
  0
LWPOLYLINE
  5
307
100
AcDbEntity
  8
RACCORDO
100
AcDbPolyline
 62
253
  6
CONTINUOUS
 90
15
 70
0
 10
72.4326521738
 20
80.7249709934
 10
72.4636107189
 20
80.7258771173
 10
72.4931408449
 20
80.7268895649
 10
72.5210882414
 20
80.7280030457
 10
72.5473068687
 20
80.7292117412
 10
72.5716597206
 20
80.7305093352
 10
72.5940195409
 20
80.7318890473
 10
72.6142694876
 20
80.7333436675
 10
72.6323037444
 20
80.7348655949
 10
72.6480280726
 20
80.7364468765
 10
72.6613603046
 20
80.7380792493
 10
72.6722307724
 20
80.7397541833
 10
72.680582672
 20
80.7414629262
 10
72.6863723606
 20
80.7431965487
 10
72.6895695838
 20
80.7449459919
  0
LWPOLYLINE
  5
308
100
AcDbEntity
  8
ASSI
100
AcDbPolyline
 62
253
  6
CONTINUOUS
 90
15
 70
0
 10
72.4326521738
 20
80.7249709934
 10
72.4636107189
 20
80.7258771173
 10
72.4931408449
 20
80.7268895649
 10
72.5210882414
 20
80.7280030457
 10
72.5473068687
 20
80.7292117412
 10
72.5716597206
 20
80.7305093352
 10
72.5940195409
 20
80.7318890473
 10
72.6142694876
 20
80.7333436675
 10
72.6323037444
 20
80.7348655949
 10
72.6480280726
 20
80.7364468765
 10
72.6613603046
 20
80.7380792493
 10
72.6722307724
 20
80.7397541833
 10
72.680582672
 20
80.7414629262
 10
72.6863723606
 20
80.7431965487
 10
72.6895695838
 20
80.7449459919
  0
LWPOLYLINE
  5
309
100
AcDbEntity
  8
RACCORDO
100
AcDbPolyline
 62
253
  6
CONTINUOUS
 90
3
 70
0
 10
72.3328559842
 20
80.7229349903
 10
72.3671035435
 20
80.7234960763
 10
72.4326521738
 20
80.7249709934
  0
LWPOLYLINE
  5
30A
100
AcDbEntity
  8
ASSI
100
AcDbPolyline
 62
253
  6
CONTINUOUS
 90
3
 70
0
 10
72.3328559842
 20
80.7229349903
 10
72.3671035435
 20
80.7234960763
 10
72.4326521738
 20
80.7249709934
  0
LWPOLYLINE
  5
30B
100
AcDbEntity
  8
RACCORDO
100
AcDbPolyline
 62
253
  6
CONTINUOUS
 90
17
 70
0
 10
231.032677248
 20
80.7229350584
 10
230.9651060103
 20
80.7241759783
 10
230.9328806934
 20
80.7249710356
 10
230.9019220181
 20
80.7258771523
 10
230.8723917611
 20
80.7268895934
 10
230.8444442347
 20
80.7280030684
 10
230.8182254805
 20
80.7292117588
 10
230.7938725064
 20
80.7305093483
 10
230.7715125705
 20
80.7318890565
 10
230.7512625161
 20
80.7333436735
 10
230.7332281612
 20
80.7348655981
 10
230.7175037456
 20
80.7364468775
 10
230.7041714381
 20
80.7380792484
 10
230.6933009078
 20
80.739754181
 10
230.6849489592
 20
80.7414629227
 10
230.679159236
 20
80.7431965443
 10
230.6759619929
 20
80.7449459867
  0
LWPOLYLINE
  5
30C
100
AcDbEntity
  8
ASSI
100
AcDbPolyline
 62
253
  6
CONTINUOUS
 90
17
 70
0
 10
231.032677248
 20
80.7229350584
 10
230.9651060103
 20
80.7241759783
 10
230.9328806934
 20
80.7249710356
 10
230.9019220181
 20
80.7258771523
 10
230.8723917611
 20
80.7268895934
 10
230.8444442347
 20
80.7280030684
 10
230.8182254805
 20
80.7292117588
 10
230.7938725064
 20
80.7305093483
 10
230.7715125705
 20
80.7318890565
 10
230.7512625161
 20
80.7333436735
 10
230.7332281612
 20
80.7348655981
 10
230.7175037456
 20
80.7364468775
 10
230.7041714381
 20
80.7380792484
 10
230.6933009078
 20
80.739754181
 10
230.6849489592
 20
80.7414629227
 10
230.679159236
 20
80.7431965443
 10
230.6759619929
 20
80.7449459867
  0
LINE
  5
30D
100
AcDbEntity
  8
SCRITTE
100
AcDbLine
 62
253
  6
CONTINUOUS
 10
150.2826987911
 20
75.5393841717
 11
150.9682797911
 21
73.7112301717
  0
LINE
  5
30E
100
AcDbEntity
  8
SCRITTE
100
AcDbLine
 62
253
  6
CONTINUOUS
 10
151.0124527911
 20
74.9565291717
 11
150.4342167911
 21
76.5109331717
  0
LINE
  5
30F
100
AcDbEntity
  8
SCRITTE
100
AcDbLine
 62
253
  6
CONTINUOUS
 10
146.1790987911
 20
76.5109331717
 11
147.0666597911
 21
73.7112301717
  0
LINE
  5
310
100
AcDbEntity
  8
SCRITTE
100
AcDbLine
 62
253
  6
CONTINUOUS
 10
147.3476207911
 20
74.5838111717
 11
146.8139467911
 21
76.5109331717
  0
LINE
  5
311
100
AcDbEntity
  8
SCRITTE
100
AcDbLine
 62
253
  6
CONTINUOUS
 10
152.4368787911
 20
73.7112301717
 11
152.1750747911
 21
76.5109331717
  0
LINE
  5
312
100
AcDbEntity
  8
SCRITTE
100
AcDbLine
 62
253
  6
CONTINUOUS
 10
151.7451037911
 20
75.5317621717
 11
151.8651727911
 21
73.7112301717
  0
LINE
  5
313
100
AcDbEntity
  8
SCRITTE
100
AcDbLine
 62
253
  6
CONTINUOUS
 10
148.6984817911
 20
73.7112301717
 11
148.6984817911
 21
76.5111010732
  0
LINE
  5
314
100
AcDbEntity
  8
SCRITTE
100
AcDbLine
 62
253
  6
CONTINUOUS
 10
149.2828897911
 20
76.5111011717
 11
149.2828897911
 21
73.71123027
  0
LWPOLYLINE
  5
315
100
AcDbEntity
  8
SCRITTE
100
AcDbPolyline
 62
253
  6
CONTINUOUS
 90
46
 70
0
 10
156.2241469074
 20
74.5604266814
 10
156.2202043167
 20
74.5705476024
 10
156.2160835513
 20
74.5804269906
 10
156.2117936002
 20
74.5900673806
 10
156.2073434525
 20
74.5994713074
 10
156.2027420972
 20
74.6086413057
 10
156.1979985233
 20
74.6175799105
 10
156.1931217197
 20
74.6262896566
 10
156.1881206755
 20
74.6347730789
 10
156.1830043796
 20
74.6430327121
 10
156.1777818211
 20
74.6510710911
 10
156.171863327
 20
74.6597463092
 10
156.1658253409
 20
74.6681555709
 10
156.1596684615
 20
74.6763029435
 10
156.1533932876
 20
74.6841924945
 10
156.1470004182
 20
74.6918282914
 10
156.1404904519
 20
74.6992144016
 10
156.1338639877
 20
74.7063548925
 10
156.1271216244
 20
74.7132538314
 10
156.1202639608
 20
74.719915286
 10
156.1132918926
 20
74.7263420225
 10
156.1062075032
 20
74.7325316032
 10
156.0990131727
 20
74.7384802894
 10
156.0917112814
 20
74.7441843425
 10
156.0843042094
 20
74.7496400237
 10
156.0767943371
 20
74.7548435942
 10
156.0691840445
 20
74.7597913153
 10
156.0614757119
 20
74.7644794484
 10
156.0536717194
 20
74.7689042547
 10
156.0457742454
 20
74.7730634552
 10
156.0377846595
 20
74.77696061
 10
156.0297041295
 20
74.7806007388
 10
156.0215338234
 20
74.7839888615
 10
156.0132749088
 20
74.7871299978
 10
156.0049285535
 20
74.7900291676
 10
155.9964959253
 20
74.7926913906
 10
155.9879781921
 20
74.7951216867
 10
155.9793765215
 20
74.7973250755
 10
155.9696003953
 20
74.7995371676
 10
155.9597189589
 20
74.8014651069
 10
155.9497316576
 20
74.8031055668
 10
155.9396379363
 20
74.8044552208
 10
155.9294372401
 20
74.8055107424
 10
155.9191290142
 20
74.806268805
 10
155.9087127036
 20
74.806726082
 10
155.8981877534
 20
74.8068792469
  0
LINE
  5
316
100
AcDbEntity
  8
SCRITTE
100
AcDbLine
 62
253
  6
CONTINUOUS
 10
154.8311747911
 20
73.7112301717
 11
153.9721567911
 21
76.5109331717
  0
LWPOLYLINE
  5
317
100
AcDbEntity
  8
SCRITTE
100
AcDbPolyline
 62
253
  6
CONTINUOUS
 90
8
 70
0
 10
156.3098927587
 20
74.2986219112
 10
156.2983397456
 20
74.337521571
 10
156.2866255524
 20
74.3759444295
 10
156.2747088687
 20
74.4138734155
 10
156.2625483839
 20
74.4512914575
 10
156.2501027878
 20
74.4881814844
 10
156.2373307699
 20
74.5245264247
 10
156.2241910197
 20
74.5603092072
  0
LINE
  5
318
100
AcDbEntity
  8
SCRITTE
100
AcDbLine
 62
253
  6
CONTINUOUS
 10
156.4647672713
 20
73.7631659989
 11
156.3912227045
 21
74.0144609097
  0
LINE
  5
319
100
AcDbEntity
  8
SCRITTE
100
AcDbLine
 62
253
  6
CONTINUOUS
 10
156.479782413
 20
73.7112298173
 11
156.4647672713
 21
73.7631659989
  0
LWPOLYLINE
  5
31A
100
AcDbEntity
  8
SCRITTE
100
AcDbPolyline
 62
253
  6
CONTINUOUS
 90
3
 70
0
 10
156.3912227045
 20
74.0144609097
 10
156.3365234408
 20
74.2061028855
 10
156.3098927587
 20
74.2986219112
  0
LINE
  5
31B
100
AcDbEntity
  8
SCRITTE
100
AcDbLine
 62
253
  6
CONTINUOUS
 10
154.0638407911
 20
74.2701501717
 11
154.2152327911
 21
73.7112301717
  0
LINE
  5
31C
100
AcDbEntity
  8
SCRITTE
100
AcDbLine
 62
253
  6
CONTINUOUS
 10
156.823332409
 20
74.5381131036
 11
156.8773396715
 21
74.3382012282
  0
LINE
  5
31D
100
AcDbEntity
  8
SCRITTE
100
AcDbLine
 62
253
  6
CONTINUOUS
 10
157.0094945325
 20
73.8329083264
 11
157.041915003
 21
73.7112298173
  0
LINE
  5
31E
100
AcDbEntity
  8
SCRITTE
100
AcDbLine
 62
253
  6
CONTINUOUS
 10
156.8773396715
 20
74.3382012282
 11
156.9446855371
 21
74.0819762515
  0
LINE
  5
31F
100
AcDbEntity
  8
SCRITTE
100
AcDbLine
 62
253
  6
CONTINUOUS
 10
156.9446855371
 20
74.0819762515
 11
157.0094945325
 21
73.8329083264
  0
LINE
  5
320
100
AcDbEntity
  8
SCRITTE
100
AcDbLine
 62
253
  6
CONTINUOUS
 10
153.6785037911
 20
75.7416461717
 11
153.9470467911
 21
74.7026401717
  0
LWPOLYLINE
  5
321
100
AcDbEntity
  8
SCRITTE
100
AcDbPolyline
 62
253
  6
CONTINUOUS
 90
49
 70
0
 10
156.3534200892
 20
75.7001686004
 10
156.3531044694
 20
75.7106678184
 10
156.3524694314
 20
75.7211092297
 10
156.3515180985
 20
75.7314966525
 10
156.3502535942
 20
75.7418339055
 10
156.3486790417
 20
75.7521248072
 10
156.3467975645
 20
75.762373176
 10
156.3446122859
 20
75.7725828305
 10
156.3421263293
 20
75.7827575893
 10
156.3393422902
 20
75.792898751
 10
156.3362606526
 20
75.8029975352
 10
156.3328813727
 20
75.8130426416
 10
156.3292044065
 20
75.82302277
 10
156.3252297102
 20
75.8329266203
 10
156.32095724
 20
75.842742892
 10
156.3163869519
 20
75.852460285
 10
156.3115188021
 20
75.8620674991
 10
156.3063527272
 20
75.8715527335
 10
156.3008885856
 20
75.8809021861
 10
156.2951262164
 20
75.8901015541
 10
156.2890654585
 20
75.8991365348
 10
156.2827061508
 20
75.9079928255
 10
156.2760481324
 20
75.9166561236
 10
156.2690912421
 20
75.9251121264
 10
156.2618353191
 20
75.9333465311
 10
156.2542821568
 20
75.9413465061
 10
156.2464413679
 20
75.9491051036
 10
156.2383245197
 20
75.9566168465
 10
156.2299431793
 20
75.9638762582
 10
156.221308914
 20
75.9708778617
 10
156.2124332911
 20
75.9776161802
 10
156.2033278778
 20
75.9840857367
 10
156.1940042414
 20
75.9902810545
 10
156.1844739613
 20
75.9961974026
 10
156.1747486657
 20
76.0018330338
 10
156.1648399951
 20
76.0071869466
 10
156.1547595897
 20
76.0122581399
 10
156.14451909
 20
76.0170456121
 10
156.1341301364
 20
76.0215483621
 10
156.1236043693
 20
76.0257653884
 10
156.1129534291
 20
76.0296956898
 10
156.1021862878
 20
76.0333378044
 10
156.091301244
 20
76.0366884284
 10
156.0802939282
 20
76.0397437975
 10
156.0691599705
 20
76.0425001476
 10
156.0578950012
 20
76.0449537142
 10
156.0464946507
 20
76.0471007332
 10
156.0349545493
 20
76.0489374402
 10
156.0232703272
 20
76.0504600711
  0
LINE
  5
322
100
AcDbEntity
  8
SCRITTE
100
AcDbLine
 62
253
  6
CONTINUOUS
 10
155.0027855934
 20
73.7112298173
 11
155.0027855934
 21
76.478223939
  0
LINE
  5
323
100
AcDbEntity
  8
SCRITTE
100
AcDbLine
 62
253
  6
CONTINUOUS
 10
155.5654640452
 20
76.0339763757
 11
155.5654640452
 21
75.2654030687
  0
LINE
  5
324
100
AcDbEntity
  8
SCRITTE
100
AcDbLine
 62
253
  6
CONTINUOUS
 10
155.584842136
 20
74.8068792469
 11
155.584842136
 21
73.7112297854
  0
LINE
  5
325
100
AcDbEntity
  8
SCRITTE
100
AcDbLine
 62
253
  6
CONTINUOUS
 10
156.505269956
 20
75.0346505436
 11
156.505269956
 21
75.0181067343
  0
LINE
  5
326
100
AcDbEntity
  8
SCRITTE
100
AcDbLine
 62
253
  6
CONTINUOUS
 10
150.1565837911
 20
73.7112301717
 11
150.2826987911
 21
75.5393841717
  0
LINE
  5
327
100
AcDbEntity
  8
SCRITTE
100
AcDbLine
 62
253
  6
CONTINUOUS
 10
149.8502917911
 20
76.5109331717
 11
149.5974947911
 21
73.7112301717
  0
LINE
  5
328
100
AcDbEntity
  8
SCRITTE
100
AcDbLine
 62
253
  6
CONTINUOUS
 10
147.8975977911
 20
76.5109331717
 11
147.3476207911
 21
74.5838111717
  0
LINE
  5
329
100
AcDbEntity
  8
SCRITTE
100
AcDbLine
 62
253
  6
CONTINUOUS
 10
147.5816697911
 20
73.7112301717
 11
148.4816067911
 21
76.5109331717
  0
LINE
  5
32A
100
AcDbEntity
  8
SCRITTE
100
AcDbLine
 62
253
  6
CONTINUOUS
 10
153.3875177911
 20
74.7026401717
 11
153.6785037911
 21
75.7416461717
  0
LINE
  5
32B
100
AcDbEntity
  8
SCRITTE
100
AcDbLine
 62
253
  6
CONTINUOUS
 10
153.1067137911
 20
73.7112301717
 11
153.2679737911
 21
74.2701501717
  0
LINE
  5
32C
100
AcDbEntity
  8
SCRITTE
100
AcDbLine
 62
253
  6
CONTINUOUS
 10
153.4068117911
 20
76.5109331717
 11
152.5286467911
 21
73.7112301717
  0
LINE
  5
32D
100
AcDbEntity
  8
SCRITTE
100
AcDbLine
 62
253
  6
CONTINUOUS
 10
151.5968607911
 20
76.5109331717
 11
151.0124527911
 21
74.9565291717
  0
LINE
  5
32E
100
AcDbEntity
  8
SCRITTE
100
AcDbLine
 62
253
  6
CONTINUOUS
 10
151.0502427911
 20
73.7112301717
 11
151.7451037911
 21
75.5317621717
  0
LWPOLYLINE
  5
32F
100
AcDbEntity
  8
RACCORDO
100
AcDbPolyline
 62
253
  6
CONTINUOUS
 90
15
 70
0
 10
230.9328814084
 20
124.45309135
 10
230.9019228633
 20
124.4521852261
 10
230.8723927373
 20
124.4511727785
 10
230.8444453408
 20
124.4500592976
 10
230.8182267135
 20
124.4488506022
 10
230.7938738616
 20
124.4475530081
 10
230.7715140414
 20
124.4461732961
 10
230.7512640946
 20
124.4447186759
 10
230.7332298378
 20
124.4431967485
 10
230.7175055096
 20
124.4416154669
 10
230.7041732776
 20
124.4399830941
 10
230.6933028099
 20
124.43830816
 10
230.6849509102
 20
124.4365994172
 10
230.6791612216
 20
124.4348657946
 10
230.6759639984
 20
124.4331163514
  0
LWPOLYLINE
  5
330
100
AcDbEntity
  8
ASSI
100
AcDbPolyline
 62
253
  6
CONTINUOUS
 90
15
 70
0
 10
230.9328814084
 20
124.45309135
 10
230.9019228633
 20
124.4521852261
 10
230.8723927373
 20
124.4511727785
 10
230.8444453408
 20
124.4500592976
 10
230.8182267135
 20
124.4488506022
 10
230.7938738616
 20
124.4475530081
 10
230.7715140414
 20
124.4461732961
 10
230.7512640946
 20
124.4447186759
 10
230.7332298378
 20
124.4431967485
 10
230.7175055096
 20
124.4416154669
 10
230.7041732776
 20
124.4399830941
 10
230.6933028099
 20
124.43830816
 10
230.6849509102
 20
124.4365994172
 10
230.6791612216
 20
124.4348657946
 10
230.6759639984
 20
124.4331163514
  0
LINE
  5
331
100
AcDbEntity
  8
RACCORDO
100
AcDbLine
 62
253
  6
CONTINUOUS
 10
230.9984300387
 20
124.4545662671
 11
230.9328814084
 21
124.45309135
  0
LINE
  5
332
100
AcDbEntity
  8
ASSI
100
AcDbLine
 62
253
  6
CONTINUOUS
 10
230.9984300387
 20
124.4545662671
 11
230.9328814084
 21
124.45309135
  0
LINE
  5
333
100
AcDbEntity
  8
RACCORDO
100
AcDbLine
 62
253
  6
CONTINUOUS
 10
231.0676703145
 20
124.4555667411
 11
230.9984300387
 21
124.4545662671
  0
LINE
  5
334
100
AcDbEntity
  8
ASSI
100
AcDbLine
 62
253
  6
CONTINUOUS
 10
231.0676703145
 20
124.4555667411
 11
230.9984300387
 21
124.4545662671
  0
LINE
  5
335
100
AcDbEntity
  8
RACCORDO
100
AcDbLine
 62
253
  6
CONTINUOUS
 10
72.2263767923
 20
124.4560717828
 11
72.2978635227
 21
124.4555666594
  0
LINE
  5
336
100
AcDbEntity
  8
ASSI
100
AcDbLine
 62
253
  6
CONTINUOUS
 10
72.2263767923
 20
124.4560717828
 11
72.2978635227
 21
124.4555666594
  0
LINE
  5
337
100
AcDbEntity
  8
RACCORDO
100
AcDbLine
 62
253
  6
CONTINUOUS
 10
72.2978635227
 20
124.4555666594
 11
72.3671040304
 21
124.4545662056
  0
LINE
  5
338
100
AcDbEntity
  8
ASSI
100
AcDbLine
 62
253
  6
CONTINUOUS
 10
72.2978635227
 20
124.4555666594
 11
72.3671040304
 21
124.4545662056
  0
LWPOLYLINE
  5
339
100
AcDbEntity
  8
RACCORDO
100
AcDbPolyline
 62
253
  6
CONTINUOUS
 90
16
 70
0
 10
72.3671040304
 20
124.4545662056
 10
72.432652922
 20
124.4530913059
 10
72.4636116033
 20
124.4521851895
 10
72.4931418664
 20
124.4511727487
 10
72.5210893988
 20
124.4500592739
 10
72.5473081589
 20
124.4488505838
 10
72.5716611387
 20
124.4475529945
 10
72.59402108
 20
124.4461732865
 10
72.6142711394
 20
124.4447186696
 10
72.6323054988
 20
124.4431967451
 10
72.6480299186
 20
124.4416154659
 10
72.6613622295
 20
124.439983095
 10
72.6722327628
 20
124.4383081625
 10
72.6805847137
 20
124.4365994209
 10
72.6863744385
 20
124.4348657993
 10
72.6895716826
 20
124.4331163569
  0
LWPOLYLINE
  5
33A
100
AcDbEntity
  8
ASSI
100
AcDbPolyline
 62
253
  6
CONTINUOUS
 90
16
 70
0
 10
72.3671040304
 20
124.4545662056
 10
72.432652922
 20
124.4530913059
 10
72.4636116033
 20
124.4521851895
 10
72.4931418664
 20
124.4511727487
 10
72.5210893988
 20
124.4500592739
 10
72.5473081589
 20
124.4488505838
 10
72.5716611387
 20
124.4475529945
 10
72.59402108
 20
124.4461732865
 10
72.6142711394
 20
124.4447186696
 10
72.6323054988
 20
124.4431967451
 10
72.6480299186
 20
124.4416154659
 10
72.6613622295
 20
124.439983095
 10
72.6722327628
 20
124.4383081625
 10
72.6805847137
 20
124.4365994209
 10
72.6863744385
 20
124.4348657993
 10
72.6895716826
 20
124.4331163569
  0
LWPOLYLINE
  5
33B
100
AcDbEntity
  8
RACCORDO
100
AcDbPolyline
 62
7
  6
CONTINUOUS
 90
7
 70
0
 10
73.5837471469
 20
125.1390311717
 10
73.5322406143
 20
125.1373554262
 10
73.4813256989
 20
125.1324694396
 10
73.4310024007
 20
125.1243731973
 10
73.3812707197
 20
125.1130666757
 10
73.3321306559
 20
125.0985498416
 10
73.2835822093
 20
125.0808226525
  0
LWPOLYLINE
  5
33C
100
AcDbEntity
  8
ASSI
100
AcDbPolyline
 62
7
  6
CONTINUOUS
 90
7
 70
0
 10
73.5837471469
 20
125.1390311717
 10
73.5322406143
 20
125.1373554262
 10
73.4813256989
 20
125.1324694396
 10
73.4310024007
 20
125.1243731973
 10
73.3812707197
 20
125.1130666757
 10
73.3321306559
 20
125.0985498416
 10
73.2835822093
 20
125.0808226525
  0
LWPOLYLINE
  5
33D
100
AcDbEntity
  8
RACCORDO
100
AcDbPolyline
 62
253
  6
CONTINUOUS
 90
15
 70
0
 10
47.1225991563
 20
125.1908511676
 10
47.0921278966
 20
125.189956413
 10
47.0629921406
 20
125.1889557869
 10
47.0353372109
 20
125.1878542804
 10
47.0093010444
 20
125.1866573874
 10
46.9850135038
 20
125.1853710778
 10
46.9625957302
 20
125.1840017675
 10
46.9421595384
 20
125.1825562863
 10
46.9238068598
 20
125.1810418439
 10
46.9076292335
 20
125.179465994
 10
46.8937073501
 20
125.1778365967
 10
46.8821106489
 20
125.176161779
 10
46.8728969717
 20
125.1744498945
 10
46.8661122743
 20
125.1727094817
 10
46.8617903974
 20
125.1709492215
  0
LWPOLYLINE
  5
33E
100
AcDbEntity
  8
ASSI
100
AcDbPolyline
 62
253
  6
CONTINUOUS
 90
15
 70
0
 10
47.1225991563
 20
125.1908511676
 10
47.0921278966
 20
125.189956413
 10
47.0629921406
 20
125.1889557869
 10
47.0353372109
 20
125.1878542804
 10
47.0093010444
 20
125.1866573874
 10
46.9850135038
 20
125.1853710778
 10
46.9625957302
 20
125.1840017675
 10
46.9421595384
 20
125.1825562863
 10
46.9238068598
 20
125.1810418439
 10
46.9076292335
 20
125.179465994
 10
46.8937073501
 20
125.1778365967
 10
46.8821106489
 20
125.176161779
 10
46.8728969717
 20
125.1744498945
 10
46.8661122743
 20
125.1727094817
 10
46.8617903974
 20
125.1709492215
  0
LWPOLYLINE
  5
33F
100
AcDbEntity
  8
RACCORDO
100
AcDbPolyline
 62
253
  6
CONTINUOUS
 90
15
 70
0
 10
47.1225949297
 20
125.0880848462
 10
47.0921236317
 20
125.087193116
 10
47.0629878442
 20
125.086196041
 10
47.0353328909
 20
125.0850985945
 10
47.0092967092
 20
125.0839062502
 10
46.9850091623
 20
125.0826249554
 10
46.9625913916
 20
125.0812611008
 10
46.9421552127
 20
125.0798214892
 10
46.923802557
 20
125.0783133011
 10
46.907624964
 20
125.0767440589
 10
46.8937031242
 20
125.0751215897
 10
46.8821064772
 20
125.0734539862
 10
46.8728928645
 20
125.0717495659
 10
46.8661082419
 20
125.0700168302
 10
46.8617864498
 20
125.0682644216
  0
LWPOLYLINE
  5
340
100
AcDbEntity
  8
ASSI
100
AcDbPolyline
 62
253
  6
CONTINUOUS
 90
15
 70
0
 10
47.1225949297
 20
125.0880848462
 10
47.0921236317
 20
125.087193116
 10
47.0629878442
 20
125.086196041
 10
47.0353328909
 20
125.0850985945
 10
47.0092967092
 20
125.0839062502
 10
46.9850091623
 20
125.0826249554
 10
46.9625913916
 20
125.0812611008
 10
46.9421552127
 20
125.0798214892
 10
46.923802557
 20
125.0783133011
 10
46.907624964
 20
125.0767440589
 10
46.8937031242
 20
125.0751215897
 10
46.8821064772
 20
125.0734539862
 10
46.8728928645
 20
125.0717495659
 10
46.8661082419
 20
125.0700168302
 10
46.8617864498
 20
125.0682644216
  0
LINE
  5
341
100
AcDbEntity
  8
RACCORDO
100
AcDbLine
 62
253
  6
CONTINUOUS
 10
47.1869302153
 20
125.0895350289
 11
47.1225949297
 21
125.0880848462
  0
LINE
  5
342
100
AcDbEntity
  8
ASSI
100
AcDbLine
 62
253
  6
CONTINUOUS
 10
47.1869302153
 20
125.0895350289
 11
47.1225949297
 21
125.0880848462
  0
LINE
  5
343
100
AcDbEntity
  8
RACCORDO
100
AcDbLine
 62
253
  6
CONTINUOUS
 10
47.1869343469
 20
125.1923057617
 11
47.1225991563
 21
125.1908511676
  0
LINE
  5
344
100
AcDbEntity
  8
ASSI
100
AcDbLine
 62
253
  6
CONTINUOUS
 10
47.1869343469
 20
125.1923057617
 11
47.1225991563
 21
125.1908511676
  0
LINE
  5
345
100
AcDbEntity
  8
RACCORDO
100
AcDbLine
 62
253
  6
CONTINUOUS
 10
47.2547117351
 20
125.0905176921
 11
47.1869302153
 21
125.0895350289
  0
LINE
  5
346
100
AcDbEntity
  8
ASSI
100
AcDbLine
 62
253
  6
CONTINUOUS
 10
47.2547117351
 20
125.0905176921
 11
47.1869302153
 21
125.0895350289
  0
LINE
  5
347
100
AcDbEntity
  8
RACCORDO
100
AcDbLine
 62
253
  6
CONTINUOUS
 10
47.2547157531
 20
125.1932905845
 11
47.1869343469
 21
125.1923057617
  0
LINE
  5
348
100
AcDbEntity
  8
ASSI
100
AcDbLine
 62
253
  6
CONTINUOUS
 10
47.2547157531
 20
125.1932905845
 11
47.1869343469
 21
125.1923057617
  0
LINE
  5
349
100
AcDbEntity
  8
RACCORDO
100
AcDbLine
 62
253
  6
CONTINUOUS
 10
47.3245927455
 20
125.1937860122
 11
47.2547157531
 21
125.1932905845
  0
LINE
  5
34A
100
AcDbEntity
  8
ASSI
100
AcDbLine
 62
253
  6
CONTINUOUS
 10
47.3245927455
 20
125.1937860122
 11
47.2547157531
 21
125.1932905845
  0
LWPOLYLINE
  5
34B
100
AcDbEntity
  8
RACCORDO
100
AcDbPolyline
 62
253
  6
CONTINUOUS
 90
3
 70
0
 10
231.175277134
 20
124.4561350059
 10
231.1391568598
 20
124.4560718874
 10
231.0676703145
 20
124.4555667411
  0
LWPOLYLINE
  5
34C
100
AcDbEntity
  8
ASSI
100
AcDbPolyline
 62
253
  6
CONTINUOUS
 90
3
 70
0
 10
231.175277134
 20
124.4561350059
 10
231.1391568598
 20
124.4560718874
 10
231.0676703145
 20
124.4555667411
  0
LWPOLYLINE
  5
34D
100
AcDbEntity
  8
RACCORDO
100
AcDbPolyline
 62
253
  6
CONTINUOUS
 90
3
 70
0
 10
47.3598790127
 20
125.0910749022
 10
47.3245888524
 20
125.0910132551
 10
47.2547117351
 20
125.0905176921
  0
LWPOLYLINE
  5
34E
100
AcDbEntity
  8
ASSI
100
AcDbPolyline
 62
253
  6
CONTINUOUS
 90
3
 70
0
 10
47.3598790127
 20
125.0910749022
 10
47.3245888524
 20
125.0910132551
 10
47.2547117351
 20
125.0905176921
  0
LINE
  5
34F
100
AcDbEntity
  8
RACCORDO
100
AcDbLine
 62
253
  6
CONTINUOUS
 10
46.8617864494
 20
125.0682644216
 11
46.6827667911
 21
125.0682644216
  0
LINE
  5
350
100
AcDbEntity
  8
ASSI
100
AcDbLine
 62
253
  6
CONTINUOUS
 10
46.8617864494
 20
125.0682644216
 11
46.6827667911
 21
125.0682644216
  0
LINE
  5
351
100
AcDbEntity
  8
RACCORDO
100
AcDbLine
 62
253
  6
CONTINUOUS
 10
256.5037471329
 20
125.0682644216
 11
256.6827667911
 21
125.0682644216
  0
LINE
  5
352
100
AcDbEntity
  8
ASSI
100
AcDbLine
 62
253
  6
CONTINUOUS
 10
256.5037471329
 20
125.0682644216
 11
256.6827667911
 21
125.0682644216
  0
LINE
  5
353
100
AcDbEntity
  8
RACCORDO
100
AcDbLine
 62
7
  6
CONTINUOUS
 10
229.7817864353
 20
125.1390311717
 11
73.5837471469
 21
125.1390311717
  0
LINE
  5
354
100
AcDbEntity
  8
ASSI
100
AcDbLine
 62
7
  6
CONTINUOUS
 10
229.7817864353
 20
125.1390311717
 11
73.5837471469
 21
125.1390311717
  0
LINE
  5
355
100
AcDbEntity
  8
RACCORDO
100
AcDbLine
 62
253
  6
CONTINUOUS
 10
72.4202684999
 20
125.1938467302
 11
47.3245927455
 21
125.1937860122
  0
LINE
  5
356
100
AcDbEntity
  8
ASSI
100
AcDbLine
 62
253
  6
CONTINUOUS
 10
72.4202684999
 20
125.1938467302
 11
47.3245927455
 21
125.1937860122
  0
LINE
  5
357
100
AcDbEntity
  8
RACCORDO
100
AcDbLine
 62
253
  6
CONTINUOUS
 10
73.4918880402
 20
125.2306256367
 11
229.8736265705
 21
125.2306256367
  0
LINE
  5
358
100
AcDbEntity
  8
ASSI
100
AcDbLine
 62
253
  6
CONTINUOUS
 10
73.4918880402
 20
125.2306256367
 11
229.8736265705
 21
125.2306256367
  0
LINE
  5
359
100
AcDbEntity
  8
RACCORDO
100
AcDbLine
 62
253
  6
CONTINUOUS
 10
73.4919187512
 20
125.7567309115
 11
229.873614831
 21
125.7567309115
  0
LINE
  5
35A
100
AcDbEntity
  8
ASSI
100
AcDbLine
 62
253
  6
CONTINUOUS
 10
73.4919187512
 20
125.7567309115
 11
229.873614831
 21
125.7567309115
  0
LINE
  5
35B
100
AcDbEntity
  8
RACCORDO
100
AcDbLine
 62
253
  6
CONTINUOUS
 10
72.1902564483
 20
124.456134889
 11
72.2263767923
 21
124.4560717828
  0
LINE
  5
35C
100
AcDbEntity
  8
ASSI
100
AcDbLine
 62
253
  6
CONTINUOUS
 10
72.1902564483
 20
124.456134889
 11
72.2263767923
 21
124.4560717828
  0
LINE
  5
35D
100
AcDbEntity
  8
RACCORDO
100
AcDbLine
 62
253
  6
CONTINUOUS
 10
230.9452650823
 20
125.1938467302
 11
256.040940836
 21
125.1937860114
  0
LINE
  5
35E
100
AcDbEntity
  8
ASSI
100
AcDbLine
 62
253
  6
CONTINUOUS
 10
230.9452650823
 20
125.1938467302
 11
256.040940836
 21
125.1937860114
  0
LINE
  5
35F
100
AcDbEntity
  8
RACCORDO
100
AcDbLine
 62
253
  6
CONTINUOUS
 10
256.0056545695
 20
125.0910749025
 11
256.0760588703
 21
125.0908272093
  0
LINE
  5
360
100
AcDbEntity
  8
ASSI
100
AcDbLine
 62
253
  6
CONTINUOUS
 10
256.0056545695
 20
125.0910749025
 11
256.0760588703
 21
125.0908272093
  0
LINE
  5
361
100
AcDbEntity
  8
RACCORDO
100
AcDbLine
 62
253
  6
CONTINUOUS
 10
256.040940836
 20
125.1937860114
 11
256.1108178269
 21
125.1932905837
  0
LINE
  5
362
100
AcDbEntity
  8
ASSI
100
AcDbLine
 62
253
  6
CONTINUOUS
 10
256.040940836
 20
125.1937860114
 11
256.1108178269
 21
125.1932905837
  0
LINE
  5
363
100
AcDbEntity
  8
RACCORDO
100
AcDbLine
 62
253
  6
CONTINUOUS
 10
256.0760588703
 20
125.0908272093
 11
256.145060272
 21
125.0900862483
  0
LINE
  5
364
100
AcDbEntity
  8
ASSI
100
AcDbLine
 62
253
  6
CONTINUOUS
 10
256.0760588703
 20
125.0908272093
 11
256.145060272
 21
125.0900862483
  0
LINE
  5
365
100
AcDbEntity
  8
RACCORDO
100
AcDbLine
 62
253
  6
CONTINUOUS
 10
256.1108178269
 20
125.1932905837
 11
256.1785992318
 21
125.192305761
  0
LINE
  5
366
100
AcDbEntity
  8
ASSI
100
AcDbLine
 62
253
  6
CONTINUOUS
 10
256.1108178269
 20
125.1932905837
 11
256.1785992318
 21
125.192305761
  0
LWPOLYLINE
  5
367
100
AcDbEntity
  8
RACCORDO
100
AcDbPolyline
 62
253
  6
CONTINUOUS
 90
17
 70
0
 10
256.145060272
 20
125.0900862483
 10
256.2112838301
 20
125.0888667841
 10
256.2429386541
 20
125.0880848465
 10
256.2734099523
 20
125.0871931162
 10
256.3025457398
 20
125.0861960412
 10
256.3302006932
 20
125.0850985947
 10
256.356236875
 20
125.0839062504
 10
256.380524422
 20
125.0826249555
 10
256.4029421926
 20
125.081261101
 10
256.4233783715
 20
125.0798214894
 10
256.4417310271
 20
125.0783133012
 10
256.45790862
 20
125.076744059
 10
256.4718304595
 20
125.0751215898
 10
256.4834271064
 20
125.0734539862
 10
256.4926407188
 20
125.0717495659
 10
256.4994253411
 20
125.0700168302
 10
256.5037471329
 20
125.0682644216
  0
LWPOLYLINE
  5
368
100
AcDbEntity
  8
ASSI
100
AcDbPolyline
 62
253
  6
CONTINUOUS
 90
17
 70
0
 10
256.145060272
 20
125.0900862483
 10
256.2112838301
 20
125.0888667841
 10
256.2429386541
 20
125.0880848465
 10
256.2734099523
 20
125.0871931162
 10
256.3025457398
 20
125.0861960412
 10
256.3302006932
 20
125.0850985947
 10
256.356236875
 20
125.0839062504
 10
256.380524422
 20
125.0826249555
 10
256.4029421926
 20
125.081261101
 10
256.4233783715
 20
125.0798214894
 10
256.4417310271
 20
125.0783133012
 10
256.45790862
 20
125.076744059
 10
256.4718304595
 20
125.0751215898
 10
256.4834271064
 20
125.0734539862
 10
256.4926407188
 20
125.0717495659
 10
256.4994253411
 20
125.0700168302
 10
256.5037471329
 20
125.0682644216
  0
LWPOLYLINE
  5
369
100
AcDbEntity
  8
RACCORDO
100
AcDbPolyline
 62
253
  6
CONTINUOUS
 90
19
 70
0
 10
229.8736265906
 20
125.2306256566
 10
229.9158957074
 20
125.2295893536
 10
229.9582329221
 20
125.2263176998
 10
230.0005178346
 20
125.2207908856
 10
230.0426451234
 20
125.2129926099
 10
230.084471782
 20
125.2029174865
 10
230.1258196682
 20
125.1905802476
 10
230.1665920749
 20
125.175985163
 10
230.2066332998
 20
125.159162882
 10
230.245687624
 20
125.1402078946
 10
230.2836144682
 20
125.1191935862
 10
230.320332618
 20
125.0961704332
 10
230.3556938487
 20
125.0712359175
 10
230.3895870854
 20
125.0444825312
 10
230.4219350746
 20
125.0159862094
 10
230.4526516221
 20
124.9858331999
 10
230.4816547891
 20
124.954116181
 10
230.5088675008
 20
124.9209344161
 10
230.5342186864
 20
124.8863894543
  0
LWPOLYLINE
  5
36A
100
AcDbEntity
  8
ASSI
100
AcDbPolyline
 62
253
  6
CONTINUOUS
 90
19
 70
0
 10
229.8736265906
 20
125.2306256566
 10
229.9158957074
 20
125.2295893536
 10
229.9582329221
 20
125.2263176998
 10
230.0005178346
 20
125.2207908856
 10
230.0426451234
 20
125.2129926099
 10
230.084471782
 20
125.2029174865
 10
230.1258196682
 20
125.1905802476
 10
230.1665920749
 20
125.175985163
 10
230.2066332998
 20
125.159162882
 10
230.245687624
 20
125.1402078946
 10
230.2836144682
 20
125.1191935862
 10
230.320332618
 20
125.0961704332
 10
230.3556938487
 20
125.0712359175
 10
230.3895870854
 20
125.0444825312
 10
230.4219350746
 20
125.0159862094
 10
230.4526516221
 20
124.9858331999
 10
230.4816547891
 20
124.954116181
 10
230.5088675008
 20
124.9209344161
 10
230.5342186864
 20
124.8863894543
  0
LWPOLYLINE
  5
36B
100
AcDbEntity
  8
RACCORDO
100
AcDbPolyline
 62
253
  6
CONTINUOUS
 90
16
 70
0
 10
256.1785992318
 20
125.192305761
 10
256.2429344214
 20
125.190851167
 10
256.2734056805
 20
125.1899564123
 10
256.3025414362
 20
125.1889557863
 10
256.3301963657
 20
125.1878542798
 10
256.356232532
 20
125.1866573869
 10
256.3805200725
 20
125.1853710774
 10
256.4029378462
 20
125.1840017671
 10
256.4233740382
 20
125.1825562859
 10
256.4417267171
 20
125.1810418436
 10
256.4579043437
 20
125.1794659938
 10
256.4718262276
 20
125.1778365965
 10
256.4834229295
 20
125.1761617788
 10
256.4926366075
 20
125.1744498944
 10
256.4994213057
 20
125.1727094817
 10
256.5037431836
 20
125.1709492215
  0
LWPOLYLINE
  5
36C
100
AcDbEntity
  8
ASSI
100
AcDbPolyline
 62
253
  6
CONTINUOUS
 90
16
 70
0
 10
256.1785992318
 20
125.192305761
 10
256.2429344214
 20
125.190851167
 10
256.2734056805
 20
125.1899564123
 10
256.3025414362
 20
125.1889557863
 10
256.3301963657
 20
125.1878542798
 10
256.356232532
 20
125.1866573869
 10
256.3805200725
 20
125.1853710774
 10
256.4029378462
 20
125.1840017671
 10
256.4233740382
 20
125.1825562859
 10
256.4417267171
 20
125.1810418436
 10
256.4579043437
 20
125.1794659938
 10
256.4718262276
 20
125.1778365965
 10
256.4834229295
 20
125.1761617788
 10
256.4926366075
 20
125.1744498944
 10
256.4994213057
 20
125.1727094817
 10
256.5037431836
 20
125.1709492215
  0
LWPOLYLINE
  5
36D
100
AcDbEntity
  8
RACCORDO
100
AcDbPolyline
 62
253
  6
CONTINUOUS
 90
19
 70
0
 10
229.873614831
 20
125.7567309115
 10
229.9424433377
 20
125.7549719504
 10
230.011013431
 20
125.7495189715
 10
230.0793251108
 20
125.7403719557
 10
230.1476194848
 20
125.7275169689
 10
230.2156554454
 20
125.7109678674
 10
230.2827096692
 20
125.6907662981
 10
230.3488069136
 20
125.6668314377
 10
230.4139224212
 20
125.6392439557
 10
230.4772585964
 20
125.6082877284
 10
230.5387408351
 20
125.5739257692
 10
230.5984437413
 20
125.536194859
 10
230.6557935323
 20
125.4954895309
 10
230.7107494734
 20
125.4517831188
 10
230.7633522991
 20
125.40510206
 10
230.8131504307
 20
125.3559205665
 10
230.859993342
 20
125.3043966446
 10
230.9040315592
 20
125.2503720715
 10
230.9452650823
 20
125.1938467302
  0
LWPOLYLINE
  5
36E
100
AcDbEntity
  8
ASSI
100
AcDbPolyline
 62
253
  6
CONTINUOUS
 90
19
 70
0
 10
229.873614831
 20
125.7567309115
 10
229.9424433377
 20
125.7549719504
 10
230.011013431
 20
125.7495189715
 10
230.0793251108
 20
125.7403719557
 10
230.1476194848
 20
125.7275169689
 10
230.2156554454
 20
125.7109678674
 10
230.2827096692
 20
125.6907662981
 10
230.3488069136
 20
125.6668314377
 10
230.4139224212
 20
125.6392439557
 10
230.4772585964
 20
125.6082877284
 10
230.5387408351
 20
125.5739257692
 10
230.5984437413
 20
125.536194859
 10
230.6557935323
 20
125.4954895309
 10
230.7107494734
 20
125.4517831188
 10
230.7633522991
 20
125.40510206
 10
230.8131504307
 20
125.3559205665
 10
230.859993342
 20
125.3043966446
 10
230.9040315592
 20
125.2503720715
 10
230.9452650823
 20
125.1938467302
  0
LINE
  5
36F
100
AcDbEntity
  8
RACCORDO
100
AcDbLine
 62
253
  6
CONTINUOUS
 10
230.9452650823
 20
79.9842158196
 11
230.8856601222
 21
80.025583823
  0
LINE
  5
370
100
AcDbEntity
  8
ASSI
100
AcDbLine
 62
253
  6
CONTINUOUS
 10
230.9452650823
 20
79.9842158196
 11
230.8856601222
 21
80.025583823
  0
LWPOLYLINE
  5
371
100
AcDbEntity
  8
RACCORDO
100
AcDbPolyline
 62
253
  6
CONTINUOUS
 90
3
 70
0
 10
230.8856601222
 20
80.025583823
 10
230.827312566
 20
80.0666090272
 10
230.7989967488
 20
80.0867218186
  0
LWPOLYLINE
  5
372
100
AcDbEntity
  8
ASSI
100
AcDbPolyline
 62
253
  6
CONTINUOUS
 90
3
 70
0
 10
230.8856601222
 20
80.025583823
 10
230.827312566
 20
80.0666090272
 10
230.7989967488
 20
80.0867218186
  0
LWPOLYLINE
  5
373
100
AcDbEntity
  8
RACCORDO
100
AcDbPolyline
 62
253
  6
CONTINUOUS
 90
13
 70
0
 10
230.6948879176
 20
125.0160030557
 10
230.6718369291
 20
124.9989446847
 10
230.650229977
 20
124.9827829887
 10
230.6301811744
 20
124.9676033225
 10
230.6117964054
 20
124.9534858548
 10
230.5951727657
 20
124.9405051443
 10
230.5803980499
 20
124.9287297462
 10
230.567550288
 20
124.9182218501
 10
230.556697333
 20
124.9090369514
 10
230.5478965029
 20
124.9012235586
 10
230.5411942776
 20
124.8948229366
 10
230.5366260536
 20
124.8898688889
 10
230.5342159571
 20
124.8863875797
  0
LWPOLYLINE
  5
374
100
AcDbEntity
  8
ASSI
100
AcDbPolyline
 62
253
  6
CONTINUOUS
 90
13
 70
0
 10
230.6948879176
 20
125.0160030557
 10
230.6718369291
 20
124.9989446847
 10
230.650229977
 20
124.9827829887
 10
230.6301811744
 20
124.9676033225
 10
230.6117964054
 20
124.9534858548
 10
230.5951727657
 20
124.9405051443
 10
230.5803980499
 20
124.9287297462
 10
230.567550288
 20
124.9182218501
 10
230.556697333
 20
124.9090369514
 10
230.5478965029
 20
124.9012235586
 10
230.5411942776
 20
124.8948229366
 10
230.5366260536
 20
124.8898688889
 10
230.5342159571
 20
124.8863875797
  0
LINE
  5
375
100
AcDbEntity
  8
RACCORDO
100
AcDbLine
 62
253
  6
CONTINUOUS
 10
230.7448280623
 20
125.0524452
 11
230.6948879176
 21
125.0160030557
  0
LINE
  5
376
100
AcDbEntity
  8
ASSI
100
AcDbLine
 62
253
  6
CONTINUOUS
 10
230.7448280623
 20
125.0524452
 11
230.6948879176
 21
125.0160030557
  0
LINE
  5
377
100
AcDbEntity
  8
RACCORDO
100
AcDbLine
 62
253
  6
CONTINUOUS
 10
230.7989968057
 20
125.0913405885
 11
230.7448280623
 21
125.0524452
  0
LINE
  5
378
100
AcDbEntity
  8
ASSI
100
AcDbLine
 62
253
  6
CONTINUOUS
 10
230.7989968057
 20
125.0913405885
 11
230.7448280623
 21
125.0524452
  0
LINE
  5
379
100
AcDbEntity
  8
RACCORDO
100
AcDbLine
 62
253
  6
CONTINUOUS
 10
230.85625133
 20
125.1318686311
 11
230.7989968057
 21
125.0913405885
  0
LINE
  5
37A
100
AcDbEntity
  8
ASSI
100
AcDbLine
 62
253
  6
CONTINUOUS
 10
230.85625133
 20
125.1318686311
 11
230.7989968057
 21
125.0913405885
  0
LWPOLYLINE
  5
37B
100
AcDbEntity
  8
RACCORDO
100
AcDbPolyline
 62
253
  6
CONTINUOUS
 90
3
 70
0
 10
230.9452650822
 20
125.1938465448
 10
230.9153837157
 20
125.173174293
 10
230.85625133
 20
125.1318686311
  0
LWPOLYLINE
  5
37C
100
AcDbEntity
  8
ASSI
100
AcDbPolyline
 62
253
  6
CONTINUOUS
 90
3
 70
0
 10
230.9452650822
 20
125.1938465448
 10
230.9153837157
 20
125.173174293
 10
230.85625133
 20
125.1318686311
  0
LINE
  5
37D
100
AcDbEntity
  8
RACCORDO
100
AcDbLine
 62
253
  6
CONTINUOUS
 10
230.7989967488
 20
80.0867218186
 11
230.7448279709
 21
80.1256172302
  0
LINE
  5
37E
100
AcDbEntity
  8
ASSI
100
AcDbLine
 62
253
  6
CONTINUOUS
 10
230.7989967488
 20
80.0867218186
 11
230.7448279709
 21
80.1256172302
  0
LWPOLYLINE
  5
37F
100
AcDbEntity
  8
RACCORDO
100
AcDbPolyline
 62
253
  6
CONTINUOUS
 90
14
 70
0
 10
230.7448279709
 20
80.1256172302
 10
230.6948877887
 20
80.1620593987
 10
230.671836781
 20
80.1791177817
 10
230.6502298098
 20
80.1952794896
 10
230.6301809885
 20
80.2104591672
 10
230.6117962014
 20
80.2245766457
 10
230.5951725444
 20
80.2375573662
 10
230.5803978125
 20
80.2493327735
 10
230.5675500357
 20
80.2598406778
 10
230.5566970674
 20
80.2690255835
 10
230.5478962255
 20
80.2768389822
 10
230.5411939902
 20
80.2832396089
 10
230.5366257582
 20
80.2881936598
 10
230.5342156557
 20
80.291674971
  0
LWPOLYLINE
  5
380
100
AcDbEntity
  8
ASSI
100
AcDbPolyline
 62
253
  6
CONTINUOUS
 90
14
 70
0
 10
230.7448279709
 20
80.1256172302
 10
230.6948877887
 20
80.1620593987
 10
230.671836781
 20
80.1791177817
 10
230.6502298098
 20
80.1952794896
 10
230.6301809885
 20
80.2104591672
 10
230.6117962014
 20
80.2245766457
 10
230.5951725444
 20
80.2375573662
 10
230.5803978125
 20
80.2493327735
 10
230.5675500357
 20
80.2598406778
 10
230.5566970674
 20
80.2690255835
 10
230.5478962255
 20
80.2768389822
 10
230.5411939902
 20
80.2832396089
 10
230.5366257582
 20
80.2881936598
 10
230.5342156557
 20
80.291674971
  0
LWPOLYLINE
  5
381
100
AcDbEntity
  8
RACCORDO
100
AcDbPolyline
 62
253
  6
CONTINUOUS
 90
22
 70
0
 10
47.3625560336
 20
146.488259992
 10
47.3272971394
 20
146.4880466245
 10
47.2922137976
 20
146.487393945
 10
47.2574806867
 20
146.4863052033
 10
47.2232707414
 20
146.48478582
 10
47.1897542914
 20
146.4828433602
 10
47.1570982138
 20
146.4804874953
 10
47.1254651016
 20
146.477729955
 10
47.0950124547
 20
146.4745844689
 10
47.0658918956
 20
146.4710666984
 10
47.0382484142
 20
146.4671941583
 10
47.0122196463
 20
146.4629861297
 10
46.9879351878
 20
146.4584635643
 10
46.9655159501
 20
146.4536489797
 10
46.9450735576
 20
146.4485663475
 10
46.9267097921
 20
146.4432409739
 10
46.9105160858
 20
146.4376993738
 10
46.8965730667
 20
146.4319691384
 10
46.8849501563
 20
146.4260787985
 10
46.8757052247
 20
146.4200576817
 10
46.8688843018
 20
146.4139357669
 10
46.8645213489
 20
146.4077435348
  0
LWPOLYLINE
  5
382
100
AcDbEntity
  8
ASSI
100
AcDbPolyline
 62
253
  6
CONTINUOUS
 90
22
 70
0
 10
47.3625560336
 20
146.488259992
 10
47.3272971394
 20
146.4880466245
 10
47.2922137976
 20
146.487393945
 10
47.2574806867
 20
146.4863052033
 10
47.2232707414
 20
146.48478582
 10
47.1897542914
 20
146.4828433602
 10
47.1570982138
 20
146.4804874953
 10
47.1254651016
 20
146.477729955
 10
47.0950124547
 20
146.4745844689
 10
47.0658918956
 20
146.4710666984
 10
47.0382484142
 20
146.4671941583
 10
47.0122196463
 20
146.4629861297
 10
46.9879351878
 20
146.4584635643
 10
46.9655159501
 20
146.4536489797
 10
46.9450735576
 20
146.4485663475
 10
46.9267097921
 20
146.4432409739
 10
46.9105160858
 20
146.4376993738
 10
46.8965730667
 20
146.4319691384
 10
46.8849501563
 20
146.4260787985
 10
46.8757052247
 20
146.4200576817
 10
46.8688843018
 20
146.4139357669
 10
46.8645213489
 20
146.4077435348
  0
LINE
  5
383
100
AcDbEntity
  8
RACCORDO
100
AcDbLine
 62
253
  6
CONTINUOUS
 10
255.512717168
 20
146.9878125334
 11
47.8528164142
 21
146.9878125334
  0
LINE
  5
384
100
AcDbEntity
  8
ASSI
100
AcDbLine
 62
253
  6
CONTINUOUS
 10
255.512717168
 20
146.9878125334
 11
47.8528164142
 21
146.9878125334
  0
LINE
  5
385
100
AcDbEntity
  8
RACCORDO
100
AcDbLine
 62
253
  6
CONTINUOUS
 10
255.512717168
 20
147.3959770754
 11
47.8528164142
 21
147.3959770754
  0
LINE
  5
386
100
AcDbEntity
  8
ASSI
100
AcDbLine
 62
253
  6
CONTINUOUS
 10
255.512717168
 20
147.3959770754
 11
47.8528164142
 21
147.3959770754
  0
LINE
  5
387
100
AcDbEntity
  8
RACCORDO
100
AcDbLine
 62
7
  6
CONTINUOUS
 10
255.7026858907
 20
147.5890311717
 11
47.6628476915
 21
147.5890311717
  0
LINE
  5
388
100
AcDbEntity
  8
ASSI
100
AcDbLine
 62
7
  6
CONTINUOUS
 10
255.7026858907
 20
147.5890311717
 11
47.6628476915
 21
147.5890311717
  0
LWPOLYLINE
  5
389
100
AcDbEntity
  8
RACCORDO
100
AcDbPolyline
 62
253
  6
CONTINUOUS
 90
22
 70
0
 10
256.0029775486
 20
146.4882600024
 10
256.0382362645
 20
146.4880466191
 10
256.0733194178
 20
146.4873939254
 10
256.1080523321
 20
146.486305171
 10
256.1422620747
 20
146.4847857766
 10
256.1757783175
 20
146.4828433071
 10
256.2084341858
 20
146.4804874341
 10
256.2400670881
 20
146.4777298871
 10
256.2705195266
 20
146.4745843959
 10
256.2996398807
 20
146.4710666215
 10
256.3272831622
 20
146.4671940788
 10
256.3533117372
 20
146.4629860489
 10
256.3775960113
 20
146.4584634832
 10
256.4000150747
 20
146.4536488993
 10
256.4204573047
 20
146.4485662687
 10
256.4388209206
 20
146.4432408975
 10
256.4550144915
 20
146.4376993003
 10
256.4689573906
 20
146.4319690684
 10
256.4805801974
 20
146.4260787322
 10
256.4898250425
 20
146.4200576193
 10
256.4966458967
 20
146.4139357085
 10
256.5010087993
 20
146.4077434802
  0
LWPOLYLINE
  5
38A
100
AcDbEntity
  8
ASSI
100
AcDbPolyline
 62
253
  6
CONTINUOUS
 90
22
 70
0
 10
256.0029775486
 20
146.4882600024
 10
256.0382362645
 20
146.4880466191
 10
256.0733194178
 20
146.4873939254
 10
256.1080523321
 20
146.486305171
 10
256.1422620747
 20
146.4847857766
 10
256.1757783175
 20
146.4828433071
 10
256.2084341858
 20
146.4804874341
 10
256.2400670881
 20
146.4777298871
 10
256.2705195266
 20
146.4745843959
 10
256.2996398807
 20
146.4710666215
 10
256.3272831622
 20
146.4671940788
 10
256.3533117372
 20
146.4629860489
 10
256.3775960113
 20
146.4584634832
 10
256.4000150747
 20
146.4536488993
 10
256.4204573047
 20
146.4485662687
 10
256.4388209206
 20
146.4432408975
 10
256.4550144915
 20
146.4376993003
 10
256.4689573906
 20
146.4319690684
 10
256.4805801974
 20
146.4260787322
 10
256.4898250425
 20
146.4200576193
 10
256.4966458967
 20
146.4139357085
 10
256.5010087993
 20
146.4077434802
  0
LINE
  5
38B
100
AcDbEntity
  8
RACCORDO
100
AcDbLine
 62
253
  6
CONTINUOUS
 10
229.8736460022
 20
79.9474367067
 11
229.7817864353
 21
80.0390311717
  0
LINE
  5
38C
100
AcDbEntity
  8
ASSI
100
AcDbLine
 62
253
  6
CONTINUOUS
 10
229.8736460022
 20
79.9474367067
 11
229.7817864353
 21
80.0390311717
  0
LINE
  5
38D
100
AcDbEntity
  8
RACCORDO
100
AcDbLine
 62
253
  6
CONTINUOUS
 10
230.6759640065
 20
80.7449328074
 11
230.5827668173
 21
80.8378970177
  0
LINE
  5
38E
100
AcDbEntity
  8
ASSI
100
AcDbLine
 62
253
  6
CONTINUOUS
 10
230.6759640065
 20
80.7449328074
 11
230.5827668173
 21
80.8378970177
  0
LINE
  5
38F
100
AcDbEntity
  8
RACCORDO
100
AcDbLine
 62
253
  6
CONTINUOUS
 10
255.512717168
 20
57.782085268
 11
255.7026858907
 21
57.5890311717
  0
LINE
  5
390
100
AcDbEntity
  8
ASSI
100
AcDbLine
 62
253
  6
CONTINUOUS
 10
255.512717168
 20
57.782085268
 11
255.7026858907
 21
57.5890311717
  0
LINE
  5
391
100
AcDbEntity
  8
RACCORDO
100
AcDbLine
 62
253
  6
CONTINUOUS
 10
256.501012238
 20
146.4077435205
 11
256.6827663976
 21
146.5925522726
  0
LINE
  5
392
100
AcDbEntity
  8
ASSI
100
AcDbLine
 62
253
  6
CONTINUOUS
 10
256.501012238
 20
146.4077435205
 11
256.6827663976
 21
146.5925522726
  0
LINE
  5
393
100
AcDbEntity
  8
RACCORDO
100
AcDbLine
 62
253
  6
CONTINUOUS
 10
255.512717168
 20
147.3959770754
 11
255.7026858907
 21
147.5890311717
  0
LINE
  5
394
100
AcDbEntity
  8
ASSI
100
AcDbLine
 62
253
  6
CONTINUOUS
 10
255.512717168
 20
147.3959770754
 11
255.7026858907
 21
147.5890311717
  0
LINE
  5
395
100
AcDbEntity
  8
RACCORDO
100
AcDbLine
 62
253
  6
CONTINUOUS
 10
230.6759640146
 20
124.4331421327
 11
230.5827668173
 21
124.3401653257
  0
LINE
  5
396
100
AcDbEntity
  8
ASSI
100
AcDbLine
 62
253
  6
CONTINUOUS
 10
230.6759640146
 20
124.4331421327
 11
230.5827668173
 21
124.3401653257
  0
LINE
  5
397
100
AcDbEntity
  8
RACCORDO
100
AcDbLine
 62
253
  6
CONTINUOUS
 10
229.8736265705
 20
125.2306256367
 11
229.7817864353
 21
125.1390311717
  0
LINE
  5
398
100
AcDbEntity
  8
ASSI
100
AcDbLine
 62
253
  6
CONTINUOUS
 10
229.8736265705
 20
125.2306256367
 11
229.7817864353
 21
125.1390311717
  0
LWPOLYLINE
  5
399
100
AcDbEntity
  8
RACCORDO
100
AcDbPolyline
 62
253
  6
CONTINUOUS
 90
28
 70
0
 10
47.8528164142
 20
147.3959770754
 10
47.7957812879
 20
147.3941230109
 10
47.7389756657
 20
147.3889904453
 10
47.6825840176
 20
147.3805973796
 10
47.6267996944
 20
147.3689748502
 10
47.5717935038
 20
147.3541603205
 10
47.5177146485
 20
147.3361917435
 10
47.4647265823
 20
147.3151166143
 10
47.4130187791
 20
147.291004164
 10
47.362775148
 20
147.2639373245
 10
47.3141696169
 20
147.234007258
 10
47.2673535176
 20
147.2013056217
 10
47.2224694819
 20
147.1659306457
 10
47.1796667872
 20
147.127992428
 10
47.1390902603
 20
147.0876124614
 10
47.1008685349
 20
147.0449159799
 10
47.0651320516
 20
147.0000370831
 10
47.0320040746
 20
146.9531193774
 10
47.0015926567
 20
146.9043119899
 10
46.9740037796
 20
146.8537675447
 10
46.9493370886
 20
146.8016508514
 10
46.9276779661
 20
146.7481382745
 10
46.9091062162
 20
146.6934050516
 10
46.8936893073
 20
146.6376262412
 10
46.8814793512
 20
146.5809847433
 10
46.8725231749
 20
146.5236655403
 10
46.8668613356
 20
146.4658553163
 10
46.8645213441
 20
146.4077435211
  0
LWPOLYLINE
  5
39A
100
AcDbEntity
  8
ASSI
100
AcDbPolyline
 62
253
  6
CONTINUOUS
 90
28
 70
0
 10
47.8528164142
 20
147.3959770754
 10
47.7957812879
 20
147.3941230109
 10
47.7389756657
 20
147.3889904453
 10
47.6825840176
 20
147.3805973796
 10
47.6267996944
 20
147.3689748502
 10
47.5717935038
 20
147.3541603205
 10
47.5177146485
 20
147.3361917435
 10
47.4647265823
 20
147.3151166143
 10
47.4130187791
 20
147.291004164
 10
47.362775148
 20
147.2639373245
 10
47.3141696169
 20
147.234007258
 10
47.2673535176
 20
147.2013056217
 10
47.2224694819
 20
147.1659306457
 10
47.1796667872
 20
147.127992428
 10
47.1390902603
 20
147.0876124614
 10
47.1008685349
 20
147.0449159799
 10
47.0651320516
 20
147.0000370831
 10
47.0320040746
 20
146.9531193774
 10
47.0015926567
 20
146.9043119899
 10
46.9740037796
 20
146.8537675447
 10
46.9493370886
 20
146.8016508514
 10
46.9276779661
 20
146.7481382745
 10
46.9091062162
 20
146.6934050516
 10
46.8936893073
 20
146.6376262412
 10
46.8814793512
 20
146.5809847433
 10
46.8725231749
 20
146.5236655403
 10
46.8668613356
 20
146.4658553163
 10
46.8645213441
 20
146.4077435211
  0
LWPOLYLINE
  5
39B
100
AcDbEntity
  8
RACCORDO
100
AcDbPolyline
 62
253
  6
CONTINUOUS
 90
28
 70
0
 10
47.8528164142
 20
146.9878125334
 10
47.8240959833
 20
146.9869628603
 10
47.7956788357
 20
146.9844740011
 10
47.7675649716
 20
146.9803459425
 10
47.7396646612
 20
146.9745566003
 10
47.7120676342
 20
146.9671280045
 10
47.6850430794
 20
146.9581263008
 10
47.6585938561
 20
146.9475344694
 10
47.6327171049
 20
146.9353694277
 10
47.6076734364
 20
146.9217482208
 10
47.5834745262
 20
146.9066583211
 10
47.5601086987
 20
146.8901121176
 10
47.5378015378
 20
146.8722640335
 10
47.5165616473
 20
146.8531013395
 10
47.4963804233
 20
146.8326366056
 10
47.4774576382
 20
146.8110622176
 10
47.4598042186
 20
146.7883666964
 10
47.4434092378
 20
146.7645613595
 10
47.4284396883
 20
146.7398728113
 10
47.4149085884
 20
146.7142904718
 10
47.4028029197
 20
146.6878247758
 10
47.3922506188
 20
146.6607338858
 10
47.383266827
 20
146.6330043228
 10
47.3758364031
 20
146.6046494544
 10
47.3700418604
 20
146.5759677616
 10
47.3659107035
 20
146.5470587307
 10
47.3634154279
 20
146.517822822
 10
47.3625560336
 20
146.4882600056
  0
LWPOLYLINE
  5
39C
100
AcDbEntity
  8
ASSI
100
AcDbPolyline
 62
253
  6
CONTINUOUS
 90
28
 70
0
 10
47.8528164142
 20
146.9878125334
 10
47.8240959833
 20
146.9869628603
 10
47.7956788357
 20
146.9844740011
 10
47.7675649716
 20
146.9803459425
 10
47.7396646612
 20
146.9745566003
 10
47.7120676342
 20
146.9671280045
 10
47.6850430794
 20
146.9581263008
 10
47.6585938561
 20
146.9475344694
 10
47.6327171049
 20
146.9353694277
 10
47.6076734364
 20
146.9217482208
 10
47.5834745262
 20
146.9066583211
 10
47.5601086987
 20
146.8901121176
 10
47.5378015378
 20
146.8722640335
 10
47.5165616473
 20
146.8531013395
 10
47.4963804233
 20
146.8326366056
 10
47.4774576382
 20
146.8110622176
 10
47.4598042186
 20
146.7883666964
 10
47.4434092378
 20
146.7645613595
 10
47.4284396883
 20
146.7398728113
 10
47.4149085884
 20
146.7142904718
 10
47.4028029197
 20
146.6878247758
 10
47.3922506188
 20
146.6607338858
 10
47.383266827
 20
146.6330043228
 10
47.3758364031
 20
146.6046494544
 10
47.3700418604
 20
146.5759677616
 10
47.3659107035
 20
146.5470587307
 10
47.3634154279
 20
146.517822822
 10
47.3625560336
 20
146.4882600056
  0
LWPOLYLINE
  5
39D
100
AcDbEntity
  8
RACCORDO
100
AcDbPolyline
 62
7
  6
CONTINUOUS
 90
28
 70
0
 10
255.7026858907
 20
147.5890311717
 10
255.7591982799
 20
147.5874292139
 10
255.8152534867
 20
147.5825995481
 10
255.8708515112
 20
147.5745421198
 10
255.926238276
 20
147.5632001189
 10
255.9811678583
 20
147.5486301357
 10
256.0349024906
 20
147.5310021705
 10
256.087316241
 20
147.5103195733
 10
256.1385350413
 20
147.4865785863
 10
256.1881989189
 20
147.4599385211
 10
256.2363031997
 20
147.4304114832
 10
256.2828525577
 20
147.3979848034
 10
256.3275010427
 20
147.3627806148
 10
256.3703609105
 20
147.324640222
 10
256.4113199052
 20
147.283721605
 10
256.4496953092
 20
147.2406219693
 10
256.4853494191
 20
147.1954090074
 10
256.5184199383
 20
147.148014376
 10
256.5486372591
 20
147.0988313528
 10
256.5759866986
 20
147.0478893118
 10
256.6004829397
 20
146.9951582777
 10
256.621900424
 20
146.9409426087
 10
256.6402578143
 20
146.8850664013
 10
256.6555364478
 20
146.8277049925
 10
256.6674547776
 20
146.769689809
 10
256.6759189547
 20
146.7112979845
 10
256.681022828
 20
146.6522521797
 10
256.6827663976
 20
146.5925522726
  0
LWPOLYLINE
  5
39E
100
AcDbEntity
  8
ASSI
100
AcDbPolyline
 62
7
  6
CONTINUOUS
 90
28
 70
0
 10
255.7026858907
 20
147.5890311717
 10
255.7591982799
 20
147.5874292139
 10
255.8152534867
 20
147.5825995481
 10
255.8708515112
 20
147.5745421198
 10
255.926238276
 20
147.5632001189
 10
255.9811678583
 20
147.5486301357
 10
256.0349024906
 20
147.5310021705
 10
256.087316241
 20
147.5103195733
 10
256.1385350413
 20
147.4865785863
 10
256.1881989189
 20
147.4599385211
 10
256.2363031997
 20
147.4304114832
 10
256.2828525577
 20
147.3979848034
 10
256.3275010427
 20
147.3627806148
 10
256.3703609105
 20
147.324640222
 10
256.4113199052
 20
147.283721605
 10
256.4496953092
 20
147.2406219693
 10
256.4853494191
 20
147.1954090074
 10
256.5184199383
 20
147.148014376
 10
256.5486372591
 20
147.0988313528
 10
256.5759866986
 20
147.0478893118
 10
256.6004829397
 20
146.9951582777
 10
256.621900424
 20
146.9409426087
 10
256.6402578143
 20
146.8850664013
 10
256.6555364478
 20
146.8277049925
 10
256.6674547776
 20
146.769689809
 10
256.6759189547
 20
146.7112979845
 10
256.681022828
 20
146.6522521797
 10
256.6827663976
 20
146.5925522726
  0
LWPOLYLINE
  5
39F
100
AcDbEntity
  8
RACCORDO
100
AcDbPolyline
 62
7
  6
CONTINUOUS
 90
7
 70
0
 10
230.0819513729
 20
125.0808226525
 10
230.0334333144
 20
125.0985439536
 10
229.9843114835
 20
125.1130572549
 10
229.9345858801
 20
125.124362599
 10
229.8842565043
 20
125.1324600188
 10
229.833323356
 20
125.1373495383
 10
229.7817864353
 20
125.1390311717
  0
LWPOLYLINE
  5
3A0
100
AcDbEntity
  8
ASSI
100
AcDbPolyline
 62
7
  6
CONTINUOUS
 90
7
 70
0
 10
230.0819513729
 20
125.0808226525
 10
230.0334333144
 20
125.0985439536
 10
229.9843114835
 20
125.1130572549
 10
229.9345858801
 20
125.124362599
 10
229.8842565043
 20
125.1324600188
 10
229.833323356
 20
125.1373495383
 10
229.7817864353
 20
125.1390311717
  0
LINE
  5
3A1
100
AcDbEntity
  8
RACCORDO
100
AcDbLine
 62
253
  6
CONTINUOUS
 10
256.501012238
 20
58.7703188225
 11
256.6827663976
 21
58.5855100708
  0
LINE
  5
3A2
100
AcDbEntity
  8
ASSI
100
AcDbLine
 62
253
  6
CONTINUOUS
 10
256.501012238
 20
58.7703188225
 11
256.6827663976
 21
58.5855100708
  0
LWPOLYLINE
  5
3A3
100
AcDbEntity
  8
RACCORDO
100
AcDbPolyline
 62
7
  6
CONTINUOUS
 90
22
 70
0
 10
230.0819513729
 20
80.0972396909
 10
230.1232291126
 20
80.1152189003
 10
230.1632947338
 20
80.1354303427
 10
230.2021482367
 20
80.1578740331
 10
230.239925093
 20
80.182621935
 10
230.2764898309
 20
80.2096021206
 10
230.3114360348
 20
80.2385987696
 10
230.344791687
 20
80.2697144517
 10
230.3765288052
 20
80.3028466381
 10
230.4061570278
 20
80.3374718543
 10
230.4335596459
 20
80.3735156949
 10
230.4588533683
 20
80.4110525995
 10
230.4818979601
 20
80.4497823516
 10
230.5026919335
 20
80.4897030486
 10
230.5212367764
 20
80.5308166238
 10
230.5373967169
 20
80.5728286077
 10
230.5511722408
 20
80.6158364669
 10
230.5625628623
 20
80.6597427602
 10
230.5714313536
 20
80.7039606442
 10
230.5777319718
 20
80.7482945036
 10
230.5815104597
 20
80.79293996
 10
230.5827668173
 20
80.8378970177
  0
LWPOLYLINE
  5
3A4
100
AcDbEntity
  8
ASSI
100
AcDbPolyline
 62
7
  6
CONTINUOUS
 90
22
 70
0
 10
230.0819513729
 20
80.0972396909
 10
230.1232291126
 20
80.1152189003
 10
230.1632947338
 20
80.1354303427
 10
230.2021482367
 20
80.1578740331
 10
230.239925093
 20
80.182621935
 10
230.2764898309
 20
80.2096021206
 10
230.3114360348
 20
80.2385987696
 10
230.344791687
 20
80.2697144517
 10
230.3765288052
 20
80.3028466381
 10
230.4061570278
 20
80.3374718543
 10
230.4335596459
 20
80.3735156949
 10
230.4588533683
 20
80.4110525995
 10
230.4818979601
 20
80.4497823516
 10
230.5026919335
 20
80.4897030486
 10
230.5212367764
 20
80.5308166238
 10
230.5373967169
 20
80.5728286077
 10
230.5511722408
 20
80.6158364669
 10
230.5625628623
 20
80.6597427602
 10
230.5714313536
 20
80.7039606442
 10
230.5777319718
 20
80.7482945036
 10
230.5815104597
 20
80.79293996
 10
230.5827668173
 20
80.8378970177
  0
LWPOLYLINE
  5
3A5
100
AcDbEntity
  8
RACCORDO
100
AcDbPolyline
 62
7
  6
CONTINUOUS
 90
22
 70
0
 10
230.5827668173
 20
124.3401653257
 10
230.581517712
 20
124.3850844437
 10
230.577742663
 20
124.4297097241
 10
230.5714416704
 20
124.4740411706
 10
230.5625673719
 20
124.518283563
 10
230.5511671297
 20
124.5622321272
 10
230.5373830307
 20
124.6052725457
 10
230.5212160576
 20
124.6472971581
 10
230.5026652277
 20
124.6884136506
 10
230.4818696791
 20
124.7283307371
 10
230.4588289957
 20
124.7670497003
 10
230.4335435936
 20
124.8045692884
 10
230.4061538599
 20
124.8405944208
 10
230.3765476616
 20
124.8751976306
 10
230.3448371316
 20
124.908306419
 10
230.3114990556
 20
124.9394081663
 10
230.2765551154
 20
124.9684069775
 10
230.2399836293
 20
124.9953987886
 10
230.2021963379
 20
125.0201587323
 10
230.1633304882
 20
125.0426118656
 10
230.1232488332
 20
125.0628331672
 10
230.0819513729
 20
125.0808226525
  0
LWPOLYLINE
  5
3A6
100
AcDbEntity
  8
ASSI
100
AcDbPolyline
 62
7
  6
CONTINUOUS
 90
22
 70
0
 10
230.5827668173
 20
124.3401653257
 10
230.581517712
 20
124.3850844437
 10
230.577742663
 20
124.4297097241
 10
230.5714416704
 20
124.4740411706
 10
230.5625673719
 20
124.518283563
 10
230.5511671297
 20
124.5622321272
 10
230.5373830307
 20
124.6052725457
 10
230.5212160576
 20
124.6472971581
 10
230.5026652277
 20
124.6884136506
 10
230.4818696791
 20
124.7283307371
 10
230.4588289957
 20
124.7670497003
 10
230.4335435936
 20
124.8045692884
 10
230.4061538599
 20
124.8405944208
 10
230.3765476616
 20
124.8751976306
 10
230.3448371316
 20
124.908306419
 10
230.3114990556
 20
124.9394081663
 10
230.2765551154
 20
124.9684069775
 10
230.2399836293
 20
124.9953987886
 10
230.2021963379
 20
125.0201587323
 10
230.1633304882
 20
125.0426118656
 10
230.1232488332
 20
125.0628331672
 10
230.0819513729
 20
125.0808226525
  0
LINE
  5
3A7
100
AcDbEntity
  8
RACCORDO
100
AcDbLine
 62
253
  6
CONTINUOUS
 10
229.873614831
 20
125.7567309115
 11
229.8736148311
 21
125.2306256367
  0
LINE
  5
3A8
100
AcDbEntity
  8
ASSI
100
AcDbLine
 62
253
  6
CONTINUOUS
 10
229.873614831
 20
125.7567309115
 11
229.8736148311
 21
125.2306256367
  0
LINE
  5
3A9
100
AcDbEntity
  8
RACCORDO
100
AcDbLine
 62
253
  6
CONTINUOUS
 10
229.873614831
 20
79.4213314319
 11
229.873614831
 21
79.9474367067
  0
LINE
  5
3AA
100
AcDbEntity
  8
ASSI
100
AcDbLine
 62
253
  6
CONTINUOUS
 10
229.873614831
 20
79.4213314319
 11
229.873614831
 21
79.9474367067
  0
LINE
  5
3AB
100
AcDbEntity
  8
RACCORDO
100
AcDbLine
 62
7
  6
CONTINUOUS
 10
230.5827668173
 20
80.8378970177
 11
230.5827668173
 21
124.3401653257
  0
LINE
  5
3AC
100
AcDbEntity
  8
ASSI
100
AcDbLine
 62
7
  6
CONTINUOUS
 10
230.5827668173
 20
80.8378970177
 11
230.5827668173
 21
124.3401653257
  0
LINE
  5
3AD
100
AcDbEntity
  8
RACCORDO
100
AcDbLine
 62
253
  6
CONTINUOUS
 10
230.6759640146
 20
124.4331421327
 11
230.6759640065
 21
80.7449328074
  0
LINE
  5
3AE
100
AcDbEntity
  8
ASSI
100
AcDbLine
 62
253
  6
CONTINUOUS
 10
230.6759640146
 20
124.4331421327
 11
230.6759640065
 21
80.7449328074
  0
LINE
  5
3AF
100
AcDbEntity
  8
RACCORDO
100
AcDbLine
 62
253
  6
CONTINUOUS
 10
231.175277134
 20
124.4561350063
 11
231.175277134
 21
80.7219273371
  0
LINE
  5
3B0
100
AcDbEntity
  8
ASSI
100
AcDbLine
 62
253
  6
CONTINUOUS
 10
231.175277134
 20
124.4561350063
 11
231.175277134
 21
80.7219273371
  0
LWPOLYLINE
  5
3B1
100
AcDbEntity
  8
RACCORDO
100
AcDbPolyline
 62
253
  6
CONTINUOUS
 90
13
 70
0
 10
231.175277134
 20
80.7219273371
 10
231.1738663861
 20
80.6585585287
 10
231.1691790058
 20
80.5950441761
 10
231.161214993
 20
80.5313842835
 10
231.1499766049
 20
80.4672862119
 10
231.1354615843
 20
80.4030426131
 10
231.1176631596
 20
80.3395314089
 10
231.0964547214
 20
80.2767260948
 10
231.0719628789
 20
80.2146531475
 10
231.0445606882
 20
80.154269923
 10
231.0143725012
 20
80.0958955096
 10
230.9812739659
 20
80.0392107501
 10
230.9452650823
 20
79.9842156131
  0
LWPOLYLINE
  5
3B2
100
AcDbEntity
  8
ASSI
100
AcDbPolyline
 62
253
  6
CONTINUOUS
 90
13
 70
0
 10
231.175277134
 20
80.7219273371
 10
231.1738663861
 20
80.6585585287
 10
231.1691790058
 20
80.5950441761
 10
231.161214993
 20
80.5313842835
 10
231.1499766049
 20
80.4672862119
 10
231.1354615843
 20
80.4030426131
 10
231.1176631596
 20
80.3395314089
 10
231.0964547214
 20
80.2767260948
 10
231.0719628789
 20
80.2146531475
 10
231.0445606882
 20
80.154269923
 10
231.0143725012
 20
80.0958955096
 10
230.9812739659
 20
80.0392107501
 10
230.9452650823
 20
79.9842156131
  0
LWPOLYLINE
  5
3B3
100
AcDbEntity
  8
RACCORDO
100
AcDbPolyline
 62
253
  6
CONTINUOUS
 90
13
 70
0
 10
230.675963995
 20
80.7449328187
 10
230.6750221838
 20
80.7061321409
 10
230.6721519419
 20
80.6670523568
 10
230.6673049108
 20
80.6277913719
 10
230.6604236463
 20
80.5883829278
 10
230.6514764575
 20
80.5490056836
 10
230.6404925798
 20
80.5099752547
 10
230.6274659387
 20
80.4713727348
 10
230.612413611
 20
80.4333337146
 10
230.5954817003
 20
80.3962333874
 10
230.576780297
 20
80.3602467285
 10
230.556336206
 20
80.3253667285
 10
230.5342186864
 20
80.2916728891
  0
LWPOLYLINE
  5
3B4
100
AcDbEntity
  8
ASSI
100
AcDbPolyline
 62
253
  6
CONTINUOUS
 90
13
 70
0
 10
230.675963995
 20
80.7449328187
 10
230.6750221838
 20
80.7061321409
 10
230.6721519419
 20
80.6670523568
 10
230.6673049108
 20
80.6277913719
 10
230.6604236463
 20
80.5883829278
 10
230.6514764575
 20
80.5490056836
 10
230.6404925798
 20
80.5099752547
 10
230.6274659387
 20
80.4713727348
 10
230.612413611
 20
80.4333337146
 10
230.5954817003
 20
80.3962333874
 10
230.576780297
 20
80.3602467285
 10
230.556336206
 20
80.3253667285
 10
230.5342186864
 20
80.2916728891
  0
LWPOLYLINE
  5
3B5
100
AcDbEntity
  8
RACCORDO
100
AcDbPolyline
 62
253
  6
CONTINUOUS
 90
19
 70
0
 10
230.9452650823
 20
79.9842156131
 10
230.9041315131
 20
79.92780962
 10
230.8601843416
 20
79.8738800427
 10
230.8134235677
 20
79.8224267657
 10
230.7636913835
 20
79.7732838455
 10
230.7111455971
 20
79.7266170117
 10
230.6562596319
 20
79.6829236432
 10
230.5990045675
 20
79.642241369
 10
230.5394093245
 20
79.604532331
 10
230.4780340883
 20
79.5701806543
 10
230.414826498
 20
79.539223319
 10
230.3498389145
 20
79.51162314
 10
230.2837886061
 20
79.4876529882
 10
230.2166550041
 20
79.4673768541
 10
230.1484586772
 20
79.4507305942
 10
230.0799785991
 20
79.4377948877
 10
230.0114744277
 20
79.4285966009
 10
229.942686505
 20
79.4231087888
 10
229.873614831
 20
79.4213314319
  0
LWPOLYLINE
  5
3B6
100
AcDbEntity
  8
ASSI
100
AcDbPolyline
 62
253
  6
CONTINUOUS
 90
19
 70
0
 10
230.9452650823
 20
79.9842156131
 10
230.9041315131
 20
79.92780962
 10
230.8601843416
 20
79.8738800427
 10
230.8134235677
 20
79.8224267657
 10
230.7636913835
 20
79.7732838455
 10
230.7111455971
 20
79.7266170117
 10
230.6562596319
 20
79.6829236432
 10
230.5990045675
 20
79.642241369
 10
230.5394093245
 20
79.604532331
 10
230.4780340883
 20
79.5701806543
 10
230.414826498
 20
79.539223319
 10
230.3498389145
 20
79.51162314
 10
230.2837886061
 20
79.4876529882
 10
230.2166550041
 20
79.4673768541
 10
230.1484586772
 20
79.4507305942
 10
230.0799785991
 20
79.4377948877
 10
230.0114744277
 20
79.4285966009
 10
229.942686505
 20
79.4231087888
 10
229.873614831
 20
79.4213314319
  0
LWPOLYLINE
  5
3B7
100
AcDbEntity
  8
RACCORDO
100
AcDbPolyline
 62
253
  6
CONTINUOUS
 90
19
 70
0
 10
230.5342186864
 20
80.2916728891
 10
230.5089137552
 20
80.2571875038
 10
230.481746456
 20
80.2240519864
 10
230.4527861527
 20
80.192368554
 10
230.4221038728
 20
80.1622331788
 10
230.38978404
 20
80.1337441489
 10
230.3559260391
 20
80.1069997833
 10
230.3206150775
 20
80.0820799228
 10
230.2839556417
 20
80.0590701302
 10
230.2460883454
 20
80.0380626418
 10
230.2071059441
 20
80.0191134135
 10
230.1671369024
 20
80.0022891281
 10
230.126390029
 20
79.9876692914
 10
230.0849854654
 20
79.9752834035
 10
230.0430496698
 20
79.965155916
 10
230.0008120598
 20
79.9573179088
 10
229.9584342317
 20
79.9517655632
 10
229.9160051574
 20
79.9484785496
 10
229.8736460554
 20
79.9474366543
  0
LWPOLYLINE
  5
3B8
100
AcDbEntity
  8
ASSI
100
AcDbPolyline
 62
253
  6
CONTINUOUS
 90
19
 70
0
 10
230.5342186864
 20
80.2916728891
 10
230.5089137552
 20
80.2571875038
 10
230.481746456
 20
80.2240519864
 10
230.4527861527
 20
80.192368554
 10
230.4221038728
 20
80.1622331788
 10
230.38978404
 20
80.1337441489
 10
230.3559260391
 20
80.1069997833
 10
230.3206150775
 20
80.0820799228
 10
230.2839556417
 20
80.0590701302
 10
230.2460883454
 20
80.0380626418
 10
230.2071059441
 20
80.0191134135
 10
230.1671369024
 20
80.0022891281
 10
230.126390029
 20
79.9876692914
 10
230.0849854654
 20
79.9752834035
 10
230.0430496698
 20
79.965155916
 10
230.0008120598
 20
79.9573179088
 10
229.9584342317
 20
79.9517655632
 10
229.9160051574
 20
79.9484785496
 10
229.8736460554
 20
79.9474366543
  0
LWPOLYLINE
  5
3B9
100
AcDbEntity
  8
RACCORDO
100
AcDbPolyline
 62
253
  6
CONTINUOUS
 90
13
 70
0
 10
230.5342186864
 20
124.8863894543
 10
230.5561709554
 20
124.8529618127
 10
230.5764998307
 20
124.8183229059
 10
230.5951310499
 20
124.782546965
 10
230.612027858
 20
124.7456331099
 10
230.6270798194
 20
124.707741689
 10
230.6401444002
 20
124.6692103733
 10
230.6511982151
 20
124.6301482949
 10
230.6602272639
 20
124.5906549333
 10
230.6671846048
 20
124.5510767093
 10
230.6720933586
 20
124.5116033715
 10
230.6750060516
 20
124.4722587123
 10
230.6759639919
 20
124.4331421105
  0
LWPOLYLINE
  5
3BA
100
AcDbEntity
  8
ASSI
100
AcDbPolyline
 62
253
  6
CONTINUOUS
 90
13
 70
0
 10
230.5342186864
 20
124.8863894543
 10
230.5561709554
 20
124.8529618127
 10
230.5764998307
 20
124.8183229059
 10
230.5951310499
 20
124.782546965
 10
230.612027858
 20
124.7456331099
 10
230.6270798194
 20
124.707741689
 10
230.6401444002
 20
124.6692103733
 10
230.6511982151
 20
124.6301482949
 10
230.6602272639
 20
124.5906549333
 10
230.6671846048
 20
124.5510767093
 10
230.6720933586
 20
124.5116033715
 10
230.6750060516
 20
124.4722587123
 10
230.6759639919
 20
124.4331421105
  0
LWPOLYLINE
  5
3BB
100
AcDbEntity
  8
RACCORDO
100
AcDbPolyline
 62
253
  6
CONTINUOUS
 90
13
 70
0
 10
230.9452650823
 20
125.1938467302
 10
230.9809998651
 20
125.1393347886
 10
231.0138934608
 20
125.0830708632
 10
231.0439458694
 20
125.0250549218
 10
231.0712903728
 20
124.9649914144
 10
231.095793689
 20
124.9031758203
 10
231.1170559725
 20
124.8404946684
 10
231.1349621329
 20
124.7769423013
 10
231.1496272606
 20
124.7125243426
 10
231.1609967819
 20
124.6481442794
 10
231.1690525056
 20
124.5841032838
 10
231.173812623
 20
124.520100192
 10
231.175277134
 20
124.4561350063
  0
LWPOLYLINE
  5
3BC
100
AcDbEntity
  8
ASSI
100
AcDbPolyline
 62
253
  6
CONTINUOUS
 90
13
 70
0
 10
230.9452650823
 20
125.1938467302
 10
230.9809998651
 20
125.1393347886
 10
231.0138934608
 20
125.0830708632
 10
231.0439458694
 20
125.0250549218
 10
231.0712903728
 20
124.9649914144
 10
231.095793689
 20
124.9031758203
 10
231.1170559725
 20
124.8404946684
 10
231.1349621329
 20
124.7769423013
 10
231.1496272606
 20
124.7125243426
 10
231.1609967819
 20
124.6481442794
 10
231.1690525056
 20
124.5841032838
 10
231.173812623
 20
124.520100192
 10
231.175277134
 20
124.4561350063
  0
LWPOLYLINE
  5
3BD
100
AcDbEntity
  8
RACCORDO
100
AcDbPolyline
 62
253
  6
CONTINUOUS
 90
28
 70
0
 10
256.5010122381
 20
146.4077435206
 10
256.4986763482
 20
146.4657958911
 10
256.4930250195
 20
146.5235505165
 10
256.4840851519
 20
146.5808184432
 10
256.4718977743
 20
146.6374089717
 10
256.4565084335
 20
146.6931420623
 10
256.4379637016
 20
146.747848005
 10
256.4163238886
 20
146.8013608092
 10
256.3916692017
 20
146.8534940475
 10
256.3640915024
 20
146.9040543832
 10
256.3336941566
 20
146.9528716406
 10
256.3005803615
 20
146.9997990076
 10
256.2648574822
 20
147.0446883941
 10
256.226648568
 20
147.0873963292
 10
256.1860841597
 20
147.1277884827
 10
256.1432924428
 20
147.1657399157
 10
256.0984173589
 20
147.2011296013
 10
256.051608829
 20
147.2338466411
 10
256.0030115159
 20
147.2637914638
 10
255.952782901
 20
147.2908696418
 10
255.9010913347
 20
147.3149939328
 10
255.848104099
 20
147.3360877189
 10
255.7940004982
 20
147.354081968
 10
255.7389522839
 20
147.3689226529
 10
255.6831194087
 20
147.3805670065
 10
255.6266767104
 20
147.3889761853
 10
255.5698143102
 20
147.3941191595
 10
255.512717168
 20
147.3959770754
  0
LWPOLYLINE
  5
3BE
100
AcDbEntity
  8
ASSI
100
AcDbPolyline
 62
253
  6
CONTINUOUS
 90
28
 70
0
 10
256.5010122381
 20
146.4077435206
 10
256.4986763482
 20
146.4657958911
 10
256.4930250195
 20
146.5235505165
 10
256.4840851519
 20
146.5808184432
 10
256.4718977743
 20
146.6374089717
 10
256.4565084335
 20
146.6931420623
 10
256.4379637016
 20
146.747848005
 10
256.4163238886
 20
146.8013608092
 10
256.3916692017
 20
146.8534940475
 10
256.3640915024
 20
146.9040543832
 10
256.3336941566
 20
146.9528716406
 10
256.3005803615
 20
146.9997990076
 10
256.2648574822
 20
147.0446883941
 10
256.226648568
 20
147.0873963292
 10
256.1860841597
 20
147.1277884827
 10
256.1432924428
 20
147.1657399157
 10
256.0984173589
 20
147.2011296013
 10
256.051608829
 20
147.2338466411
 10
256.0030115159
 20
147.2637914638
 10
255.952782901
 20
147.2908696418
 10
255.9010913347
 20
147.3149939328
 10
255.848104099
 20
147.3360877189
 10
255.7940004982
 20
147.354081968
 10
255.7389522839
 20
147.3689226529
 10
255.6831194087
 20
147.3805670065
 10
255.6266767104
 20
147.3889761853
 10
255.5698143102
 20
147.3941191595
 10
255.512717168
 20
147.3959770754
  0
LWPOLYLINE
  5
3BF
100
AcDbEntity
  8
RACCORDO
100
AcDbPolyline
 62
253
  6
CONTINUOUS
 90
28
 70
0
 10
256.0029775486
 20
146.4882600056
 10
256.0021164567
 20
146.5178227416
 10
255.9996221334
 20
146.547053099
 10
255.9954945787
 20
146.5759511084
 10
255.9897077737
 20
146.6046115996
 10
255.9822877372
 20
146.6329397976
 10
255.9733125262
 20
146.6606513513
 10
255.9627648917
 20
146.6877406084
 10
255.9506620826
 20
146.7142133307
 10
255.9371339031
 20
146.7398023363
 10
255.922168044
 20
146.7644940025
 10
255.9057768144
 20
146.7883020975
 10
255.8881269455
 20
146.8110005625
 10
255.869207506
 20
146.8325782301
 10
255.8490294271
 20
146.8530464293
 10
255.827792234
 20
146.8722128714
 10
255.8054868892
 20
146.8900652199
 10
255.7821224302
 20
146.9066159705
 10
255.7579254939
 20
146.9217100959
 10
255.7328876302
 20
146.9353343325
 10
255.7070172893
 20
146.9475020825
 10
255.6805664591
 20
146.95809832
 10
255.6535249879
 20
146.9671082137
 10
255.6259030275
 20
146.9745466972
 10
255.5979830209
 20
146.9803433862
 10
255.5698591161
 20
146.9844748377
 10
255.5414371651
 20
146.986964549
 10
255.512717168
 20
146.9878125334
  0
LWPOLYLINE
  5
3C0
100
AcDbEntity
  8
ASSI
100
AcDbPolyline
 62
253
  6
CONTINUOUS
 90
28
 70
0
 10
256.0029775486
 20
146.4882600056
 10
256.0021164567
 20
146.5178227416
 10
255.9996221334
 20
146.547053099
 10
255.9954945787
 20
146.5759511084
 10
255.9897077737
 20
146.6046115996
 10
255.9822877372
 20
146.6329397976
 10
255.9733125262
 20
146.6606513513
 10
255.9627648917
 20
146.6877406084
 10
255.9506620826
 20
146.7142133307
 10
255.9371339031
 20
146.7398023363
 10
255.922168044
 20
146.7644940025
 10
255.9057768144
 20
146.7883020975
 10
255.8881269455
 20
146.8110005625
 10
255.869207506
 20
146.8325782301
 10
255.8490294271
 20
146.8530464293
 10
255.827792234
 20
146.8722128714
 10
255.8054868892
 20
146.8900652199
 10
255.7821224302
 20
146.9066159705
 10
255.7579254939
 20
146.9217100959
 10
255.7328876302
 20
146.9353343325
 10
255.7070172893
 20
146.9475020825
 10
255.6805664591
 20
146.95809832
 10
255.6535249879
 20
146.9671082137
 10
255.6259030275
 20
146.9745466972
 10
255.5979830209
 20
146.9803433862
 10
255.5698591161
 20
146.9844748377
 10
255.5414371651
 20
146.986964549
 10
255.512717168
 20
146.9878125334
  0
LINE
  5
3C1
100
AcDbEntity
  8
RACCORDO
100
AcDbLine
 62
253
  6
CONTINUOUS
 10
255.512717168
 20
58.19024981
 11
255.5127171683
 21
57.782085268
  0
LINE
  5
3C2
100
AcDbEntity
  8
ASSI
100
AcDbLine
 62
253
  6
CONTINUOUS
 10
255.512717168
 20
58.19024981
 11
255.5127171683
 21
57.782085268
  0
LINE
  5
3C3
100
AcDbEntity
  8
RACCORDO
100
AcDbLine
 62
253
  6
CONTINUOUS
 10
255.512717168
 20
146.9878125334
 11
255.512717168
 21
147.3959770754
  0
LINE
  5
3C4
100
AcDbEntity
  8
ASSI
100
AcDbLine
 62
253
  6
CONTINUOUS
 10
255.512717168
 20
146.9878125334
 11
255.512717168
 21
147.3959770754
  0
LINE
  5
3C5
100
AcDbEntity
  8
RACCORDO
100
AcDbLine
 62
253
  6
CONTINUOUS
 10
256.004827455
 20
134.695659984
 11
256.0029775486
 21
146.4882600056
  0
LINE
  5
3C6
100
AcDbEntity
  8
ASSI
100
AcDbLine
 62
253
  6
CONTINUOUS
 10
256.004827455
 20
134.695659984
 11
256.0029775486
 21
146.4882600056
  0
LINE
  5
3C7
100
AcDbEntity
  8
RACCORDO
100
AcDbLine
 62
253
  6
CONTINUOUS
 10
256.5029007736
 20
134.6470171738
 11
256.501012238
 21
146.4077435205
  0
LINE
  5
3C8
100
AcDbEntity
  8
ASSI
100
AcDbLine
 62
253
  6
CONTINUOUS
 10
256.5029007736
 20
134.6470171738
 11
256.501012238
 21
146.4077435205
  0
LINE
  5
3C9
100
AcDbEntity
  8
RACCORDO
100
AcDbLine
 62
7
  6
CONTINUOUS
 10
256.6827663976
 20
146.5925522726
 11
256.6827667911
 21
125.0682644216
  0
LINE
  5
3CA
100
AcDbEntity
  8
DRAFT
100
AcDbLine
 62
7
  6
CONTINUOUS
 10
256.6827667911
 20
125.0682644216
 11
256.6827667911
 21
80.1097979218
  0
LINE
  5
3CB
100
AcDbEntity
  8
RACCORDO
100
AcDbLine
 62
7
  6
CONTINUOUS
 10
256.6827667911
 20
80.1097979218
 11
256.6827663976
 21
58.5855100708
  0
LINE
  5
3CC
100
AcDbEntity
  8
ASSI
100
AcDbLine
 62
7
  6
CONTINUOUS
 10
256.6827663976
 20
146.5925522726
 11
256.6827663976
 21
58.5855100708
  0
LINE
  5
3CD
100
AcDbEntity
  8
RACCORDO
100
AcDbLine
 62
253
  6
CONTINUOUS
 10
256.0029775486
 20
58.6898023378
 11
256.004827455
 21
134.695659984
  0
LINE
  5
3CE
100
AcDbEntity
  8
ASSI
100
AcDbLine
 62
253
  6
CONTINUOUS
 10
256.0029775486
 20
58.6898023378
 11
256.004827455
 21
134.695659984
  0
LINE
  5
3CF
100
AcDbEntity
  8
RACCORDO
100
AcDbLine
 62
253
  6
CONTINUOUS
 10
256.501012238
 20
58.7703188225
 11
256.5029007736
 21
134.6470171738
  0
LINE
  5
3D0
100
AcDbEntity
  8
ASSI
100
AcDbLine
 62
253
  6
CONTINUOUS
 10
256.501012238
 20
58.7703188225
 11
256.5029007736
 21
134.6470171738
  0
LWPOLYLINE
  5
3D1
100
AcDbEntity
  8
RACCORDO
100
AcDbPolyline
 62
7
  6
CONTINUOUS
 90
28
 70
0
 10
256.6827663976
 20
58.5855100708
 10
256.6810180678
 20
58.5257962932
 10
256.6759140481
 20
58.4667496508
 10
256.6674543385
 20
58.4083700188
 10
256.6555471508
 20
58.3503884469
 10
256.6402842732
 20
58.2930736738
 10
256.6219410703
 20
58.2372319522
 10
256.6005343617
 20
58.1830274422
 10
256.5760473277
 20
58.1302954236
 10
256.5487048746
 20
58.0793486249
 10
256.5184907804
 20
58.0301578327
 10
256.4854212671
 20
57.9827516602
 10
256.4497699061
 20
57.9375294701
 10
256.4113999909
 20
57.8944253722
 10
256.3704482281
 20
57.8535046047
 10
256.3275983088
 20
57.8153630958
 10
256.2829668806
 20
57.7801604542
 10
256.2364372959
 20
57.7477363552
 10
256.1883433023
 20
57.7182067688
 10
256.1386762833
 20
57.6915551665
 10
256.0874448556
 20
57.6677975142
 10
256.0350086166
 20
57.6470985389
 10
255.9812327454
 20
57.6294546932
 10
255.9262520629
 20
57.6148691165
 10
255.8708306301
 20
57.6035165922
 10
255.815223134
 20
57.5954553048
 10
255.7591748875
 20
57.5906268495
 10
255.7026858907
 20
57.5890311717
  0
LWPOLYLINE
  5
3D2
100
AcDbEntity
  8
ASSI
100
AcDbPolyline
 62
7
  6
CONTINUOUS
 90
28
 70
0
 10
256.6827663976
 20
58.5855100708
 10
256.6810180678
 20
58.5257962932
 10
256.6759140481
 20
58.4667496508
 10
256.6674543385
 20
58.4083700188
 10
256.6555471508
 20
58.3503884469
 10
256.6402842732
 20
58.2930736738
 10
256.6219410703
 20
58.2372319522
 10
256.6005343617
 20
58.1830274422
 10
256.5760473277
 20
58.1302954236
 10
256.5487048746
 20
58.0793486249
 10
256.5184907804
 20
58.0301578327
 10
256.4854212671
 20
57.9827516602
 10
256.4497699061
 20
57.9375294701
 10
256.4113999909
 20
57.8944253722
 10
256.3704482281
 20
57.8535046047
 10
256.3275983088
 20
57.8153630958
 10
256.2829668806
 20
57.7801604542
 10
256.2364372959
 20
57.7477363552
 10
256.1883433023
 20
57.7182067688
 10
256.1386762833
 20
57.6915551665
 10
256.0874448556
 20
57.6677975142
 10
256.0350086166
 20
57.6470985389
 10
255.9812327454
 20
57.6294546932
 10
255.9262520629
 20
57.6148691165
 10
255.8708306301
 20
57.6035165922
 10
255.815223134
 20
57.5954553048
 10
255.7591748875
 20
57.5906268495
 10
255.7026858907
 20
57.5890311717
  0
LWPOLYLINE
  5
3D3
100
AcDbEntity
  8
RACCORDO
100
AcDbPolyline
 62
253
  6
CONTINUOUS
 90
3
 70
0
 10
16.6967112582
 20
58.6900157189
 10
16.7003817059
 20
58.6906683984
 10
17.1440273931
 20
58.7703188086
  0
LWPOLYLINE
  5
3D4
100
AcDbEntity
  8
ASSI
100
AcDbPolyline
 62
253
  6
CONTINUOUS
 90
3
 70
0
 10
16.6967112582
 20
58.6900157189
 10
16.7003817059
 20
58.6906683984
 10
17.1440273931
 20
58.7703188086
  0
LWPOLYLINE
  5
3D5
100
AcDbEntity
  8
RACCORDO
100
AcDbPolyline
 62
253
  6
CONTINUOUS
 90
16
 70
0
 10
19.7082939903
 20
58.8797802626
 10
19.8302015282
 20
58.8978820495
 10
19.951807425
 20
58.9186588397
 10
20.0730427692
 20
58.9421150447
 10
20.1935790927
 20
58.9681366369
 10
20.3136015339
 20
58.9968463739
 10
20.433794797
 20
59.0286047575
 10
20.5540293776
 20
59.0633208057
 10
20.6742351144
 20
59.1010963483
 10
20.7951451563
 20
59.142583619
 10
20.9164834357
 20
59.187550098
 10
21.0382330077
 20
59.2362426993
 10
21.1614488893
 20
59.2900378314
 10
21.2863335772
 20
59.3494033084
 10
21.4122700575
 20
59.4138946775
 10
21.5390320432
 20
59.483523648
  0
LINE
  5
3D6
100
AcDbEntity
  8
RACCORDO
100
AcDbLine
 62
253
  6
CONTINUOUS
 10
21.5390320432
 20
59.483523648
 11
19.6017075863
 21
59.4718196594
  0
LINE
  5
3D7
100
AcDbEntity
  8
RACCORDO
100
AcDbLine
 62
7
  6
CONTINUOUS
 10
17.2343152905
 20
57.782085268
 11
19.4409337083
 21
57.5890311717
  0
LINE
  5
3D8
100
AcDbEntity
  8
ASSI
100
AcDbLine
 62
7
  6
CONTINUOUS
 10
17.2343152905
 20
57.782085268
 11
19.4409337083
 21
57.5890311717
  0
LINE
  5
3D9
100
AcDbEntity
  8
RACCORDO
100
AcDbLine
 62
253
  6
CONTINUOUS
 10
17.1440273904
 20
58.7703188225
 11
19.2552325351
 21
58.5855100708
  0
LINE
  5
3DA
100
AcDbEntity
  8
ASSI
100
AcDbLine
 62
253
  6
CONTINUOUS
 10
17.1440273904
 20
58.7703188225
 11
19.2552325351
 21
58.5855100708
  0
LINE
  5
3DB
100
AcDbEntity
  8
RACCORDO
100
AcDbLine
 62
7
  6
CONTINUOUS
 10
19.2323188398
 20
60.0918174648
 11
19.4932659881
 21
60.0872626154
  0
LWPOLYLINE
  5
3DC
100
AcDbEntity
  8
RACCORDO
100
AcDbPolyline
 62
253
  6
CONTINUOUS
 90
15
 70
0
 10
17.2343152905
 20
57.782085268
 10
17.231812427
 20
57.7839393325
 10
17.2291475805
 20
57.7890718981
 10
17.2263350579
 20
57.7974649638
 10
17.2233898904
 20
57.8090874931
 10
17.2203224054
 20
57.8239020229
 10
17.2171388264
 20
57.8418705998
 10
17.2138446649
 20
57.8629457291
 10
17.2104545819
 20
57.8870581793
 10
17.20698707
 20
57.9141250188
 10
17.203444644
 20
57.9440550854
 10
17.1998367973
 20
57.9767567217
 10
17.1961905808
 20
58.0121316976
 10
17.1925050932
 20
58.0500699153
 10
17.1887862948
 20
58.090449882
  0
LWPOLYLINE
  5
3DD
100
AcDbEntity
  8
ASSI
100
AcDbPolyline
 62
253
  6
CONTINUOUS
 90
15
 70
0
 10
17.2343152905
 20
57.782085268
 10
17.231812427
 20
57.7839393325
 10
17.2291475805
 20
57.7890718981
 10
17.2263350579
 20
57.7974649638
 10
17.2233898904
 20
57.8090874931
 10
17.2203224054
 20
57.8239020229
 10
17.2171388264
 20
57.8418705998
 10
17.2138446649
 20
57.8629457291
 10
17.2104545819
 20
57.8870581793
 10
17.20698707
 20
57.9141250188
 10
17.203444644
 20
57.9440550854
 10
17.1998367973
 20
57.9767567217
 10
17.1961905808
 20
58.0121316976
 10
17.1925050932
 20
58.0500699153
 10
17.1887862948
 20
58.090449882
  0
LINE
  5
3DE
100
AcDbEntity
  8
RACCORDO
100
AcDbLine
 62
7
  6
CONTINUOUS
 10
17.6893876309
 20
69.0218104468
 11
18.1854881625
 21
69.0348012964
  0
LINE
  5
3DF
100
AcDbEntity
  8
RACCORDO
100
AcDbLine
 62
7
  6
CONTINUOUS
 10
17.7903060047
 20
68.153609256
 11
18.2937629876
 21
68.1404257709
  0
LWPOLYLINE
  5
3E0
100
AcDbEntity
  8
0
100
AcDbPolyline
 62
7
  6
CONTINUOUS
 90
18
 70
0
 10
18.7105033552
 20
65.0475155896
 10
18.6663199591
 20
65.0665494426
 10
18.6139224498
 20
65.0928780086
 10
18.5630764241
 20
65.1223606365
 10
18.5136905821
 20
65.1550957487
 10
18.4658562237
 20
65.1909849228
 10
18.4202556732
 20
65.2296232351
 10
18.3769532849
 20
65.271042918
 10
18.3358847046
 20
65.3152117391
 10
18.2975391939
 20
65.361628078
 10
18.2619865576
 20
65.4102434799
 10
18.2291569908
 20
65.4611063995
 10
18.1993303414
 20
65.5138605807
 10
18.17248203
 20
65.5686295394
 10
18.148636636
 20
65.6252897597
 10
18.1281477442
 20
65.6831144374
 10
18.1111332163
 20
65.7418613045
 10
18.0981924648
 20
65.7986262857
  0
LINE
  5
3E1
100
AcDbEntity
  8
RACCORDO
100
AcDbLine
 62
253
  6
CONTINUOUS
 10
17.0363538927
 20
77.0126280386
 11
16.9564435481
 21
77.0066685217
  0
LINE
  5
3E2
100
AcDbEntity
  8
RACCORDO
100
AcDbLine
 62
253
  6
CONTINUOUS
 10
17.4391992034
 20
77.0412725834
 11
17.0363538927
 21
77.0126280386
  0
LWPOLYLINE
  5
3E3
100
AcDbEntity
  8
RACCORDO
100
AcDbPolyline
 62
7
  6
CONTINUOUS
 90
16
 70
0
 10
17.2156003757
 20
80.875189347
 10
17.2075054718
 20
80.8729208319
 10
17.1816008071
 20
80.8673420649
 10
17.1569937547
 20
80.8636663892
 10
17.1335470409
 20
80.8617953993
 10
17.1112842828
 20
80.8616057894
 10
17.0902754004
 20
80.8630113532
 10
17.0704536205
 20
80.8660129435
 10
17.0518020118
 20
80.8705340157
 10
17.034375274
 20
80.8764792525
 10
17.0182027696
 20
80.883832932
 10
17.0032974722
 20
80.8925077194
 10
16.9896088323
 20
80.9024245514
 10
16.9770624401
 20
80.9135878013
 10
16.9656660178
 20
80.9258840098
 10
16.9564435481
 20
80.9378741543
  0
LINE
  5
3E4
100
AcDbEntity
  8
RACCORDO
100
AcDbLine
 62
253
  6
CONTINUOUS
 10
17.2504731744
 20
80.14083487
 11
16.9564435481
 21
80.125708889
  0
LINE
  5
3E5
100
AcDbEntity
  8
RACCORDO
100
AcDbLine
 62
253
  6
CONTINUOUS
 10
14.2564435481
 20
79.9842156131
 11
14.7122348707
 21
80.0071131218
  0
LINE
  5
3E6
100
AcDbEntity
  8
ASSI
100
AcDbLine
 62
253
  6
CONTINUOUS
 10
14.2564435481
 20
79.9842156131
 11
14.7122348707
 21
80.0071131218
  0
LINE
  5
3E7
100
AcDbEntity
  8
RACCORDO
100
AcDbLine
 62
253
  6
CONTINUOUS
 10
14.2512862783
 20
80.0869874412
 11
14.7070833155
 21
80.1097979218
  0
LINE
  5
3E8
100
AcDbEntity
  8
ASSI
100
AcDbLine
 62
253
  6
CONTINUOUS
 10
14.2512862783
 20
80.0869874412
 11
14.7070833155
 21
80.1097979218
  0
LINE
  5
3E9
100
AcDbEntity
  8
RACCORDO
100
AcDbLine
 62
253
  6
CONTINUOUS
 10
17.1730820072
 20
81.7705449078
 11
16.9564435481
 21
81.760328913
  0
LINE
  5
3EA
100
AcDbEntity
  8
0
100
AcDbLine
 62
253
  6
CONTINUOUS
 10
22.2564435481
 20
80.2204219791
 11
19.5250341773
 21
80.175068877
  0
LINE
  5
3EB
100
AcDbEntity
  8
0
100
AcDbLine
 62
253
  6
CONTINUOUS
 10
19.5250341773
 20
80.175068877
 11
17.2505271694
 21
80.1396978383
  0
LINE
  5
3EC
100
AcDbEntity
  8
RACCORDO
100
AcDbLine
 62
253
  6
CONTINUOUS
 10
14.7070833155
 20
80.1097979218
 11
16.7532873725
 21
80.1097979218
  0
LINE
  5
3ED
100
AcDbEntity
  8
ASSI
100
AcDbLine
 62
253
  6
CONTINUOUS
 10
14.7070833155
 20
80.1097979218
 11
16.7532873725
 21
80.1097979218
  0
LINE
  5
3EE
100
AcDbEntity
  8
0
100
AcDbLine
 62
7
  6
CONTINUOUS
 10
16.7064435481
 20
81.6509966522
 11
16.6822203961
 21
81.6514194689
  0
LINE
  5
3EF
100
AcDbEntity
  8
0
100
AcDbLine
 62
253
  6
CONTINUOUS
 10
16.6360914518
 20
82.6520723477
 11
16.7064435481
 21
82.6508443473
  0
LINE
  5
3F0
100
AcDbEntity
  8
0
100
AcDbLine
 62
253
  6
CONTINUOUS
 10
16.9564435481
 20
82.6464805811
 11
17.1316932005
 21
82.643421587
  0
LWPOLYLINE
  5
3F1
100
AcDbEntity
  8
RACCORDO
100
AcDbPolyline
 62
253
  6
CONTINUOUS
 90
11
 70
0
 10
17.2062312258
 20
81.0724857328
 10
17.1844790766
 20
81.0755452618
 10
17.1523752791
 20
81.0821265577
 10
17.1212619336
 20
81.0906195905
 10
17.0913606983
 20
81.100963854
 10
17.0628845958
 20
81.1130856536
 10
17.0360364958
 20
81.126898631
 10
17.0110076698
 20
81.1423043798
 10
16.9879764284
 20
81.159193146
 10
16.9671068509
 20
81.1774446107
 10
16.9564435481
 20
81.1886393203
  0
LINE
  5
3F2
100
AcDbEntity
  8
RACCORDO
100
AcDbLine
 62
7
  6
CONTINUOUS
 10
16.5001142176
 20
85.9906682265
 11
16.9942411109
 21
86.0036073945
  0
LINE
  5
3F3
100
AcDbEntity
  8
RACCORDO
100
AcDbLine
 62
7
  6
CONTINUOUS
 10
16.5304343484
 20
85.1866001564
 11
17.0258299675
 21
85.1736277655
  0
LINE
  5
3F4
100
AcDbEntity
  8
RACCORDO
100
AcDbLine
 62
253
  6
CONTINUOUS
 10
16.5812453252
 20
89.3893449945
 11
16.5823383605
 21
89.389392496
  0
LINE
  5
3F5
100
AcDbEntity
  8
RACCORDO
100
AcDbLine
 62
253
  6
CONTINUOUS
 10
16.5823383605
 20
89.389392496
 11
16.7064435481
 21
89.393190971
  0
LINE
  5
3F6
100
AcDbEntity
  8
0
100
AcDbLine
 62
253
  6
CONTINUOUS
 10
16.7064435481
 20
88.527217996
 11
16.4075946426
 21
88.522001569
  0
LINE
  5
3F7
100
AcDbEntity
  8
0
100
AcDbLine
 62
7
  6
CONTINUOUS
 10
16.444076823
 20
89.522486063
 11
16.3830917743
 21
89.521421565
  0
LWPOLYLINE
  5
3F8
100
AcDbEntity
  8
RACCORDO
100
AcDbPolyline
 62
7
  6
CONTINUOUS
 90
7
 70
0
 10
16.5781089581
 20
89.4960124134
 10
16.5498765292
 20
89.5042799886
 10
16.5240027614
 20
89.5110228082
 10
16.5004868222
 20
89.5162259653
 10
16.4793278232
 20
89.5198770515
 10
16.460524822
 20
89.5219661898
 10
16.444076823
 20
89.522486063
  0
LWPOLYLINE
  5
3F9
100
AcDbEntity
  8
RACCORDO
100
AcDbPolyline
 62
253
  6
CONTINUOUS
 90
19
 70
0
 10
21.539031898
 20
59.4835236385
 10
21.5612020753
 20
59.4357088145
 10
21.5809893028
 20
59.3879728651
 10
21.5982992187
 20
59.3405434348
 10
21.6130492748
 20
59.2936467064
 10
21.6251691309
 20
59.2475063219
 10
21.6346009896
 20
59.2023423161
 10
21.6412998716
 20
59.158370068
 10
21.6452338312
 20
59.115799274
 10
21.6463841075
 20
59.0748329464
 10
21.6447452149
 20
59.0356664466
 10
21.6403249687
 20
58.9984865532
 10
21.6331444478
 20
58.9634705708
 10
21.6232378945
 20
58.9307854847
 10
21.6106525512
 20
58.9005871651
 10
21.5954484348
 20
58.873019623
 10
21.5776980509
 20
58.8482143235
 10
21.5574860478
 20
58.8262895594
 10
21.5349088127
 20
58.8073498866
  0
LWPOLYLINE
  5
3FA
100
AcDbEntity
  8
0
100
AcDbPolyline
 62
7
  6
CONTINUOUS
 90
18
 70
0
 10
18.0981929466
 20
139.3794386007
 10
18.1111340191
 20
139.4362041863
 10
18.1281486767
 20
139.4949508567
 10
18.1486376796
 20
139.5527753373
 10
18.1724831659
 20
139.6094353605
 10
18.1993315503
 20
139.6642041229
 10
18.2291582527
 20
139.7169581075
 10
18.2619878532
 20
139.7678208313
 10
18.2975405062
 20
139.8164360425
 10
18.3358860167
 20
139.8628521965
 10
18.3769545797
 20
139.907020838
 10
18.4202569343
 20
139.9484403494
 10
18.4658574335
 20
139.9870784977
 10
18.5136917244
 20
140.022967516
 10
18.5630774869
 20
140.0557024852
 10
18.6139234211
 20
140.085184984
 10
18.666320827
 20
140.1115134337
 10
18.710503372
 20
140.1305468756
  0
LWPOLYLINE
  5
3FB
100
AcDbEntity
  8
RACCORDO
100
AcDbPolyline
 62
253
  6
CONTINUOUS
 90
15
 70
0
 10
16.9064435481
 20
123.9124346885
 10
16.9079663469
 20
123.9167111733
 10
16.9188716557
 20
123.939030341
 10
16.9324309453
 20
123.960555599
 10
16.9485476166
 20
123.9811335969
 10
16.9671068509
 20
124.0006177326
 10
16.9879764284
 20
124.0188691973
 10
17.0110076698
 20
124.0357579635
 10
17.0360364958
 20
124.0511637122
 10
17.0628845959
 20
124.0649766896
 10
17.0913606984
 20
124.0770984891
 10
17.1212619336
 20
124.0874427526
 10
17.1523752791
 20
124.0959357854
 10
17.1844790766
 20
124.1025170812
 10
17.2062312254
 20
124.1055766102
  0
LWPOLYLINE
  5
3FC
100
AcDbEntity
  8
RACCORDO
100
AcDbPolyline
 62
7
  6
CONTINUOUS
 90
13
 70
0
 10
16.7064435481
 20
88.995046001
 10
16.7018201417
 20
89.0032230142
 10
16.681671558
 20
89.0403177887
 10
16.663397481
 20
89.0757033025
 10
16.6469859854
 20
89.1094180595
 10
16.6324441242
 20
89.1414293462
 10
16.6197853783
 20
89.1717995999
 10
16.6090113192
 20
89.2006188323
 10
16.6001157289
 20
89.2278345107
 10
16.5930999129
 20
89.2533180931
 10
16.5879620156
 20
89.2770719081
 10
16.5846977506
 20
89.2992083206
 10
16.5833042148
 20
89.3197886026
  0
LWPOLYLINE
  5
3FD
100
AcDbEntity
  8
RACCORDO
100
AcDbPolyline
 62
253
  6
CONTINUOUS
 90
10
 70
0
 10
17.1440273904
 20
58.7703188225
 10
16.740192547
 20
61.1124260327
 10
16.3697254993
 20
63.4600421275
 10
16.0326266483
 20
65.8126800619
 10
15.7288428194
 20
68.1698381351
 10
15.4584279857
 20
70.5310443624
 10
15.2215432839
 20
72.8958567212
 10
15.0182427094
 20
75.263803819
 10
14.8484731
 20
77.6343846464
 10
14.7122348707
 20
80.0071131218
  0
LWPOLYLINE
  5
3FE
100
AcDbEntity
  8
ASSI
100
AcDbPolyline
 62
253
  6
CONTINUOUS
 90
10
 70
0
 10
17.1440273904
 20
58.7703188225
 10
16.740192547
 20
61.1124260327
 10
16.3697254993
 20
63.4600421275
 10
16.0326266483
 20
65.8126800619
 10
15.7288428194
 20
68.1698381351
 10
15.4584279857
 20
70.5310443624
 10
15.2215432839
 20
72.8958567212
 10
15.0182427094
 20
75.263803819
 10
14.8484731
 20
77.6343846464
 10
14.7122348707
 20
80.0071131218
  0
LINE
  5
3FF
100
AcDbEntity
  8
RACCORDO
100
AcDbLine
 62
253
  6
CONTINUOUS
 10
17.1887862948
 20
58.090449882
 11
17.1813518655
 21
58.1780252603
  0
LINE
  5
400
100
AcDbEntity
  8
ASSI
100
AcDbLine
 62
253
  6
CONTINUOUS
 10
17.1887862948
 20
58.090449882
 11
17.1813518655
 21
58.1780252603
  0
LINE
  5
401
100
AcDbEntity
  8
RACCORDO
100
AcDbLine
 62
253
  6
CONTINUOUS
 10
17.1813518655
 20
58.1780252603
 11
17.1739595678
 21
58.2737503535
  0
LINE
  5
402
100
AcDbEntity
  8
ASSI
100
AcDbLine
 62
253
  6
CONTINUOUS
 10
17.1813518655
 20
58.1780252603
 11
17.1739595678
 21
58.2737503535
  0
LINE
  5
403
100
AcDbEntity
  8
RACCORDO
100
AcDbLine
 62
253
  6
CONTINUOUS
 10
17.1739595678
 20
58.2737503535
 11
17.1667163637
 21
58.3764114919
  0
LINE
  5
404
100
AcDbEntity
  8
ASSI
100
AcDbLine
 62
253
  6
CONTINUOUS
 10
17.1739595678
 20
58.2737503535
 11
17.1667163637
 21
58.3764114919
  0
LINE
  5
405
100
AcDbEntity
  8
RACCORDO
100
AcDbLine
 62
253
  6
CONTINUOUS
 10
17.1667163637
 20
58.3764114919
 11
17.1597510612
 21
58.4846572917
  0
LINE
  5
406
100
AcDbEntity
  8
ASSI
100
AcDbLine
 62
253
  6
CONTINUOUS
 10
17.1667163637
 20
58.3764114919
 11
17.1597510612
 21
58.4846572917
  0
LINE
  5
407
100
AcDbEntity
  8
RACCORDO
100
AcDbLine
 62
253
  6
CONTINUOUS
 10
17.1597510612
 20
58.4846572917
 11
17.1531166861
 21
58.5970776001
  0
LINE
  5
408
100
AcDbEntity
  8
ASSI
100
AcDbLine
 62
253
  6
CONTINUOUS
 10
17.1597510612
 20
58.4846572917
 11
17.1531166861
 21
58.5970776001
  0
LINE
  5
409
100
AcDbEntity
  8
RACCORDO
100
AcDbLine
 62
253
  6
CONTINUOUS
 10
17.1531166861
 20
58.5970776001
 11
17.144027392
 21
58.7703188223
  0
LINE
  5
40A
100
AcDbEntity
  8
ASSI
100
AcDbLine
 62
253
  6
CONTINUOUS
 10
17.1531166861
 20
58.5970776001
 11
17.144027392
 21
58.7703188223
  0
LWPOLYLINE
  5
40B
100
AcDbEntity
  8
RACCORDO
100
AcDbPolyline
 62
253
  6
CONTINUOUS
 90
12
 70
0
 10
14.7122348707
 20
80.0071131218
 10
14.5352726997
 20
83.8539459148
 10
14.3946977165
 20
87.5994007568
 10
14.2853583643
 20
91.3458995667
 10
14.2072513859
 20
95.0931769637
 10
14.1603800354
 20
98.8409725758
 10
14.1447540798
 20
102.589031042
 10
14.1603800306
 20
106.3370894648
 10
14.2072513762
 20
110.0848850047
 10
14.2853583524
 20
113.8321623873
 10
14.3946977059
 20
117.5786612694
 10
14.5352726931
 20
121.3241162411
  0
LWPOLYLINE
  5
40C
100
AcDbEntity
  8
ASSI
100
AcDbPolyline
 62
253
  6
CONTINUOUS
 90
12
 70
0
 10
14.7122348707
 20
80.0071131218
 10
14.5352726997
 20
83.8539459148
 10
14.3946977165
 20
87.5994007568
 10
14.2853583643
 20
91.3458995667
 10
14.2072513859
 20
95.0931769637
 10
14.1603800354
 20
98.8409725758
 10
14.1447540798
 20
102.589031042
 10
14.1603800306
 20
106.3370894648
 10
14.2072513762
 20
110.0848850047
 10
14.2853583524
 20
113.8321623873
 10
14.3946977059
 20
117.5786612694
 10
14.5352726931
 20
121.3241162411
  0
LINE
  5
40D
100
AcDbEntity
  8
RACCORDO
100
AcDbLine
 62
253
  6
CONTINUOUS
 10
14.5352726931
 20
121.3241162411
 11
14.7122348707
 21
125.1709492215
  0
LINE
  5
40E
100
AcDbEntity
  8
ASSI
100
AcDbLine
 62
253
  6
CONTINUOUS
 10
14.5352726931
 20
121.3241162411
 11
14.7122348707
 21
125.1709492215
  0
LINE
  5
40F
100
AcDbEntity
  8
RACCORDO
100
AcDbLine
 62
253
  6
CONTINUOUS
 10
17.144027392
 20
146.4077435206
 11
17.1531078122
 21
146.5808184432
  0
LINE
  5
410
100
AcDbEntity
  8
ASSI
100
AcDbLine
 62
253
  6
CONTINUOUS
 10
17.144027392
 20
146.4077435206
 11
17.1531078122
 21
146.5808184432
  0
LWPOLYLINE
  5
411
100
AcDbEntity
  8
RACCORDO
100
AcDbPolyline
 62
253
  6
CONTINUOUS
 90
10
 70
0
 10
14.7122348707
 20
125.1709492215
 10
14.8484730862
 20
127.5436774227
 10
15.0182426785
 20
129.914258028
 10
15.2215432328
 20
132.2822049557
 10
15.4584279024
 20
134.6470171738
 10
15.7288427008
 20
137.0082233122
 10
16.0326265177
 20
139.3653814158
 10
16.3697253887
 20
141.7180195214
 10
16.74019248
 20
144.0656359049
 10
17.1440273904
 20
146.4077435205
  0
LWPOLYLINE
  5
412
100
AcDbEntity
  8
ASSI
100
AcDbPolyline
 62
253
  6
CONTINUOUS
 90
10
 70
0
 10
14.7122348707
 20
125.1709492215
 10
14.8484730862
 20
127.5436774227
 10
15.0182426785
 20
129.914258028
 10
15.2215432328
 20
132.2822049557
 10
15.4584279024
 20
134.6470171738
 10
15.7288427008
 20
137.0082233122
 10
16.0326265177
 20
139.3653814158
 10
16.3697253887
 20
141.7180195214
 10
16.74019248
 20
144.0656359049
 10
17.1440273904
 20
146.4077435205
  0
LINE
  5
413
100
AcDbEntity
  8
RACCORDO
100
AcDbLine
 62
253
  6
CONTINUOUS
 10
17.1531078122
 20
146.5808184432
 11
17.159736742
 21
146.6931420623
  0
LINE
  5
414
100
AcDbEntity
  8
ASSI
100
AcDbLine
 62
253
  6
CONTINUOUS
 10
17.1531078122
 20
146.5808184432
 11
17.159736742
 21
146.6931420623
  0
LINE
  5
415
100
AcDbEntity
  8
RACCORDO
100
AcDbLine
 62
253
  6
CONTINUOUS
 10
17.159736742
 20
146.6931420623
 11
17.16669872
 21
146.8013608092
  0
LINE
  5
416
100
AcDbEntity
  8
ASSI
100
AcDbLine
 62
253
  6
CONTINUOUS
 10
17.159736742
 20
146.6931420623
 11
17.16669872
 21
146.8013608092
  0
LINE
  5
417
100
AcDbEntity
  8
RACCORDO
100
AcDbLine
 62
253
  6
CONTINUOUS
 10
17.16669872
 20
146.8013608092
 11
17.1739423037
 21
146.9040543832
  0
LINE
  5
418
100
AcDbEntity
  8
ASSI
100
AcDbLine
 62
253
  6
CONTINUOUS
 10
17.16669872
 20
146.8013608092
 11
17.1739423037
 21
146.9040543832
  0
LINE
  5
419
100
AcDbEntity
  8
RACCORDO
100
AcDbLine
 62
253
  6
CONTINUOUS
 10
17.1739423037
 20
146.9040543832
 11
17.1813344125
 21
146.9997990076
  0
LINE
  5
41A
100
AcDbEntity
  8
ASSI
100
AcDbLine
 62
253
  6
CONTINUOUS
 10
17.1739423037
 20
146.9040543832
 11
17.1813344125
 21
146.9997990076
  0
LWPOLYLINE
  5
41B
100
AcDbEntity
  8
RACCORDO
100
AcDbPolyline
 62
253
  6
CONTINUOUS
 90
16
 70
0
 10
17.1813344125
 20
146.9997990076
 10
17.1887687088
 20
147.0873963292
 10
17.1924874753
 20
147.1277884827
 10
17.1961729758
 20
147.1657399157
 10
17.1998193088
 20
147.2011296013
 10
17.2034273668
 20
147.2338466411
 10
17.2069699781
 20
147.2637914638
 10
17.210437401
 20
147.2908696418
 10
17.2138272192
 20
147.3149939328
 10
17.2171216408
 20
147.3360877189
 10
17.2203070031
 20
147.354081968
 10
17.2233775115
 20
147.3689226529
 10
17.22632584
 20
147.3805670065
 10
17.2291412356
 20
147.3889761853
 10
17.2318091439
 20
147.3941191595
 10
17.2343152905
 20
147.3959770754
  0
LWPOLYLINE
  5
41C
100
AcDbEntity
  8
ASSI
100
AcDbPolyline
 62
253
  6
CONTINUOUS
 90
16
 70
0
 10
17.1813344125
 20
146.9997990076
 10
17.1887687088
 20
147.0873963292
 10
17.1924874753
 20
147.1277884827
 10
17.1961729758
 20
147.1657399157
 10
17.1998193088
 20
147.2011296013
 10
17.2034273668
 20
147.2338466411
 10
17.2069699781
 20
147.2637914638
 10
17.210437401
 20
147.2908696418
 10
17.2138272192
 20
147.3149939328
 10
17.2171216408
 20
147.3360877189
 10
17.2203070031
 20
147.354081968
 10
17.2233775115
 20
147.3689226529
 10
17.22632584
 20
147.3805670065
 10
17.2291412356
 20
147.3889761853
 10
17.2318091439
 20
147.3941191595
 10
17.2343152905
 20
147.3959770754
  0
LWPOLYLINE
  5
41D
100
AcDbEntity
  8
RACCORDO
100
AcDbPolyline
 62
253
  6
CONTINUOUS
 90
3
 70
0
 10
17.9794970378
 20
136.1486551144
 10
18.0680045113
 20
136.8834174929
 10
18.0863298498
 20
137.0322047446
  0
LWPOLYLINE
  5
41E
100
AcDbEntity
  8
RACCORDO
100
AcDbPolyline
 62
7
  6
CONTINUOUS
 90
24
 70
0
 10
16.9064435481
 20
124.0965318265
 10
16.9080630792
 20
124.1082225131
 10
16.9120701736
 20
124.1301532506
 10
16.9169363083
 20
124.1510636516
 10
16.9226591369
 20
124.1707959771
 10
16.9292255947
 20
124.1892296596
 10
16.9366626053
 20
124.2064173015
 10
16.9450298405
 20
124.2224564226
 10
16.9543262845
 20
124.2372855116
 10
16.9645826658
 20
124.2508796818
 10
16.975947501
 20
124.2633700435
 10
16.9884993496
 20
124.2747318832
 10
17.0022340391
 20
124.2848526623
 10
17.0172027135
 20
124.2937088702
 10
17.0334496123
 20
124.301212176
 10
17.0509675709
 20
124.3072821819
 10
17.0697150334
 20
124.3119040578
 10
17.0896267459
 20
124.3149815168
 10
17.1107252866
 20
124.3164403517
 10
17.1330892318
 20
124.3162871973
 10
17.1566652083
 20
124.31443273
 10
17.1814121683
 20
124.3107526163
 10
17.2074267293
 20
124.30516098
 10
17.2156003432
 20
124.3028723187
  0
LINE
  5
41F
100
AcDbEntity
  8
0
100
AcDbLine
 62
253
  6
CONTINUOUS
 10
20.2564435481
 20
102.5890311717
 11
16.6864435481
 21
102.5890311717
  0
LINE
  5
420
100
AcDbEntity
  8
RACCORDO
100
AcDbLine
 62
7
  6
CONTINUOUS
 10
16.686628402
 20
102.1825100711
 11
16.1899799422
 21
102.1955152687
  0
LINE
  5
421
100
AcDbEntity
  8
RACCORDO
100
AcDbLine
 62
7
  6
CONTINUOUS
 10
22.2564435481
 20
98.7363772103
 11
20.4217139125
 21
99.0598895473
  0
LWPOLYLINE
  5
422
100
AcDbEntity
  8
RACCORDO
100
AcDbPolyline
 62
253
  6
CONTINUOUS
 90
3
 70
0
 10
18.0863298498
 20
68.1458575988
 10
17.9971150331
 20
68.8809282462
 10
17.9794970378
 20
69.029407229
  0
LINE
  5
423
100
AcDbEntity
  8
RACCORDO
100
AcDbLine
 62
253
  6
CONTINUOUS
 10
16.82023256
 20
85.1790115231
 11
16.789067066
 21
85.9982347231
  0
LWPOLYLINE
  5
424
100
AcDbEntity
  8
RACCORDO
100
AcDbPolyline
 62
253
  6
CONTINUOUS
 90
11
 70
0
 10
16.56891497
 20
115.364227366
 10
16.5694322312
 20
115.343027173
 10
16.5721904489
 20
115.32188185
 10
16.5771741442
 20
115.3009100634
 10
16.5843553489
 20
115.2802295054
 10
16.5936937626
 20
115.259956234
 10
16.6051369786
 20
115.2402040216
 10
16.6186207783
 20
115.2210837164
 10
16.6340694915
 20
115.2027026203
 10
16.6513964211
 20
115.1851638869
 10
16.6564435481
 20
115.1807797369
  0
LWPOLYLINE
  5
425
100
AcDbEntity
  8
RACCORDO
100
AcDbPolyline
 62
7
  6
CONTINUOUS
 90
19
 70
0
 10
16.5634425319
 20
90.0068230084
 10
16.5631483325
 20
90.0325583303
 10
16.5637633539
 20
90.0573573042
 10
16.5653215425
 20
90.0811897685
 10
16.5678623163
 20
90.104084577
 10
16.5714131821
 20
90.1259448709
 10
16.5759666029
 20
90.1465509507
 10
16.5815036613
 20
90.1657485792
 10
16.5880424853
 20
90.1836215673
 10
16.5956209588
 20
90.2003053429
 10
16.6042160454
 20
90.2157220698
 10
16.6138620558
 20
90.2298669788
 10
16.6247360276
 20
90.2429633016
 10
16.6369181431
 20
90.2550023746
 10
16.6504134553
 20
90.2658536789
 10
16.6653383701
 20
90.2755249105
 10
16.681760052
 20
90.2839297122
 10
16.6996816846
 20
90.2909615421
 10
16.7064435481
 20
90.2929145966
  0
LINE
  5
426
100
AcDbEntity
  8
ASSI
100
AcDbLine
 62
7
  6
CONTINUOUS
 10
16.6564435481
 20
122.967478177
 11
16.6564435481
 21
119.994761854
  0
LINE
  5
427
100
AcDbEntity
  8
ASSI
100
AcDbLine
 62
7
  6
CONTINUOUS
 10
16.6564435481
 20
119.1833004893
 11
16.6564435481
 21
107.5890311717
  0
LINE
  5
428
100
AcDbEntity
  8
ASSI
100
AcDbLine
 62
7
  6
CONTINUOUS
 10
16.7064435481
 20
81.1259583494
 11
16.7064435481
 21
85.1819911933
  0
LINE
  5
429
100
AcDbEntity
  8
ASSI
100
AcDbLine
 62
7
  6
CONTINUOUS
 10
16.7064435481
 20
85.9960711501
 11
16.7064435481
 21
97.5890311717
  0
LINE
  5
42A
100
AcDbEntity
  8
ASSI
100
AcDbLine
 62
7
  6
CONTINUOUS
 10
16.9064435481
 20
127.6762414325
 11
16.9064435481
 21
120.0013083344
  0
LINE
  5
42B
100
AcDbEntity
  8
ASSI
100
AcDbLine
 62
7
  6
CONTINUOUS
 10
16.9064435481
 20
119.1767540089
 11
16.9064435481
 21
116.5581279431
  0
LINE
  5
42C
100
AcDbEntity
  8
ASSI
100
AcDbLine
 62
7
  6
CONTINUOUS
 10
16.9564435481
 20
76.8093144996
 11
16.9564435481
 21
85.1754447129
  0
LINE
  5
42D
100
AcDbEntity
  8
ASSI
100
AcDbLine
 62
7
  6
CONTINUOUS
 10
16.9564435481
 20
86.0036073945
 11
16.9564435481
 21
87.0885843675
  0
LINE
  5
42E
100
AcDbEntity
  8
RACCORDO
100
AcDbLine
 62
253
  6
CONTINUOUS
 10
16.4813877442
 20
102.1878844869
 11
16.4813877442
 21
102.9901778565
  0
LWPOLYLINE
  5
42F
100
AcDbEntity
  8
RACCORDO
100
AcDbPolyline
 62
253
  6
CONTINUOUS
 90
13
 70
0
 10
16.5689149695
 20
89.8138349773
 10
16.5694320795
 20
89.8350352979
 10
16.5721901615
 20
89.8561807555
 10
16.5771737371
 20
89.8771526825
 10
16.5843548387
 20
89.8978333849
 10
16.5936931661
 20
89.9181068031
 10
16.6051363128
 20
89.9378591633
 10
16.6186200602
 20
89.9569796156
 10
16.6340687379
 20
89.9753608567
 10
16.6513956483
 20
89.9928997315
 10
16.6705035531
 20
90.0094978122
 10
16.6912852194
 20
90.0250619508
 10
16.7064435481
 20
90.0348623639
  0
LINE
  5
430
100
AcDbEntity
  8
RACCORDO
100
AcDbLine
 62
253
  6
CONTINUOUS
 10
16.789067066
 20
119.1798276203
 11
16.82023256
 21
119.9990508203
  0
LWPOLYLINE
  5
431
100
AcDbEntity
  8
RACCORDO
100
AcDbPolyline
 62
7
  6
CONTINUOUS
 90
10
 70
0
 10
16.5833042148
 20
115.8582737407
 10
16.5846979821
 20
115.8788554661
 10
16.5879625887
 20
115.9009932806
 10
16.5931009376
 20
115.9247484377
 10
16.6001173314
 20
115.9502332433
 10
16.6090136082
 20
115.977450042
 10
16.6197884117
 20
116.0062703963
 10
16.6324478992
 20
116.0366417163
 10
16.6469905593
 20
116.0686540498
 10
16.6564435481
 20
116.0880732667
  0
LINE
  5
432
100
AcDbEntity
  8
RACCORDO
100
AcDbLine
 62
7
  6
CONTINUOUS
 10
20.4217139125
 20
106.1181727961
 11
22.2564435481
 21
106.4416851331
  0
LINE
  5
433
100
AcDbEntity
  8
RACCORDO
100
AcDbLine
 62
7
  6
CONTINUOUS
 10
16.1899799422
 20
102.9825470746
 11
16.686628402
 21
102.9955522723
  0
LINE
  5
434
100
AcDbEntity
  8
RACCORDO
100
AcDbLine
 62
7
  6
CONTINUOUS
 10
20.2564435481
 20
99.2568510979
 11
20.2564435481
 21
105.9212112455
  0
LINE
  5
435
100
AcDbEntity
  8
RACCORDO
100
AcDbLine
 62
7
  6
CONTINUOUS
 10
22.2564435481
 20
59.4890307296
 11
22.2564435481
 21
80.2204219791
  0
LINE
  5
436
100
AcDbEntity
  8
DRAFT
100
AcDbLine
 62
7
  6
CONTINUOUS
 10
22.2564435481
 20
80.2204219791
 11
22.2564435481
 21
98.7363772103
  0
LINE
  5
437
100
AcDbEntity
  8
DRAFT
100
AcDbLine
 62
7
  6
CONTINUOUS
 10
22.2564435481
 20
106.4416851331
 11
22.2564435481
 21
124.9576403642
  0
LINE
  5
438
100
AcDbEntity
  8
RACCORDO
100
AcDbLine
 62
7
  6
CONTINUOUS
 10
22.2564435481
 20
124.9576403642
 11
22.2564435481
 21
145.6890320057
  0
LINE
  5
439
100
AcDbEntity
  8
ASSI
100
AcDbLine
 62
7
  6
CONTINUOUS
 10
16.6564435481
 20
107.5890311717
 11
16.7144343388
 21
107.5890311717
  0
LWPOLYLINE
  5
43A
100
AcDbEntity
  8
RACCORDO
100
AcDbPolyline
 62
7
  6
CONTINUOUS
 90
16
 70
0
 10
16.6564435481
 20
114.9083015088
 10
16.6504134291
 20
114.9122089886
 10
16.6369181183
 20
114.9230603137
 10
16.6247360052
 20
114.9350994069
 10
16.6138620366
 20
114.9481957492
 10
16.6042160301
 20
114.962340677
 10
16.5956209478
 20
114.9777574212
 10
16.5880424788
 20
114.9944412129
 10
16.5815036592
 20
115.0123142156
 10
16.5759666049
 20
115.0315118569
 10
16.5714131878
 20
115.0521179473
 10
16.5678623252
 20
115.07397825
 10
16.5653215538
 20
115.0968730658
 10
16.5637633668
 20
115.1207055362
 10
16.5631483463
 20
115.1455045151
 10
16.5634425461
 20
115.1712398406
  0
LWPOLYLINE
  5
43B
100
AcDbEntity
  8
RACCORDO
100
AcDbPolyline
 62
7
  6
CONTINUOUS
 90
12
 70
0
 10
17.1386387016
 20
122.6822072822
 10
17.1046471027
 20
122.7410567499
 10
17.0766328929
 20
122.7901108032
 10
17.0502261699
 20
122.8374312725
 10
17.0255923419
 20
122.8827781607
 10
17.0025608691
 20
122.9262737922
 10
16.981345032
 20
122.967820608
 10
16.9620169905
 20
123.0073231022
 10
16.9444981738
 20
123.0448560028
 10
16.9287759634
 20
123.0805885727
 10
16.9148450201
 20
123.1145609801
 10
16.9064435481
 20
123.1368370167
  0
LWPOLYLINE
  5
43C
100
AcDbEntity
  8
RACCORDO
100
AcDbPolyline
 62
7
  6
CONTINUOUS
 90
8
 70
0
 10
16.9564435481
 20
82.158799393
 10
16.9620723619
 20
82.1708564859
 10
16.9814042502
 20
82.2103600777
 10
17.0026233151
 20
82.251909279
 10
17.025658557
 20
82.2954084877
 10
17.0503036851
 20
82.3407716222
 10
17.0767433605
 20
82.388144893
 10
17.1047981924
 20
82.4372658854
  0
LINE
  5
43D
100
AcDbEntity
  8
RACCORDO
100
AcDbLine
 62
7
  6
CONTINUOUS
 10
17.1047981924
 20
82.4372658854
 11
17.1386387264
 21
82.4958545589
  0
LWPOLYLINE
  5
43E
100
AcDbEntity
  8
RACCORDO
100
AcDbPolyline
 62
7
  6
CONTINUOUS
 90
7
 70
0
 10
16.4440763036
 20
115.6555762895
 10
16.460524397
 20
115.6560961689
 10
16.4793274898
 20
115.658185327
 10
16.5004865777
 20
115.6618364424
 10
16.524002603
 20
115.6670396342
 10
16.5498764539
 20
115.6737824902
 10
16.5781089631
 20
115.6820500995
  0
LINE
  5
43F
100
AcDbEntity
  8
0
100
AcDbLine
 62
7
  6
CONTINUOUS
 10
16.4440763036
 20
115.6555762895
 11
16.3830917743
 21
115.6566407784
  0
LINE
  5
440
100
AcDbEntity
  8
0
100
AcDbLine
 62
253
  6
CONTINUOUS
 10
16.4075946426
 20
116.6560607744
 11
16.6564435481
 21
116.6517171006
  0
LWPOLYLINE
  5
441
100
AcDbEntity
  8
RACCORDO
100
AcDbPolyline
 62
253
  6
CONTINUOUS
 90
3
 70
0
 10
16.5812453177
 20
115.7887173491
 10
16.582338178
 20
115.7886698519
 10
16.6564435481
 20
115.7863772077
  0
LINE
  5
442
100
AcDbEntity
  8
RACCORDO
100
AcDbLine
 62
7
  6
CONTINUOUS
 10
16.5304343484
 20
119.991462187
 11
17.0258299675
 21
120.0044345778
  0
LINE
  5
443
100
AcDbEntity
  8
RACCORDO
100
AcDbLine
 62
7
  6
CONTINUOUS
 10
16.5001142176
 20
119.1873941169
 11
16.9942411109
 21
119.1744549489
  0
LINE
  5
444
100
AcDbEntity
  8
0
100
AcDbLine
 62
253
  6
CONTINUOUS
 10
17.1316932015
 20
122.5346407563
 11
16.9064435481
 21
122.530709009
  0
LINE
  5
445
100
AcDbEntity
  8
0
100
AcDbLine
 62
253
  6
CONTINUOUS
 10
16.6564435481
 20
122.5263452428
 11
16.6360914518
 21
122.5259899956
  0
LINE
  5
446
100
AcDbEntity
  8
RACCORDO
100
AcDbLine
 62
253
  6
CONTINUOUS
 10
14.7070833155
 20
125.0682644216
 11
16.7532873725
 21
125.0682644216
  0
LINE
  5
447
100
AcDbEntity
  8
ASSI
100
AcDbLine
 62
253
  6
CONTINUOUS
 10
14.7070833155
 20
125.0682644216
 11
16.7532873725
 21
125.0682644216
  0
LINE
  5
448
100
AcDbEntity
  8
0
100
AcDbLine
 62
253
  6
CONTINUOUS
 10
22.2564435481
 20
124.9576403642
 11
17.2505271694
 21
125.0383645051
  0
LINE
  5
449
100
AcDbEntity
  8
RACCORDO
100
AcDbLine
 62
253
  6
CONTINUOUS
 10
16.9064435481
 20
123.4201329329
 11
17.1730820063
 21
123.4075174308
  0
LINE
  5
44A
100
AcDbEntity
  8
RACCORDO
100
AcDbLine
 62
253
  6
CONTINUOUS
 10
14.251286273
 20
125.0910749025
 11
14.7070833155
 21
125.0682644216
  0
LINE
  5
44B
100
AcDbEntity
  8
ASSI
100
AcDbLine
 62
253
  6
CONTINUOUS
 10
14.251286273
 20
125.0910749025
 11
14.7070833155
 21
125.0682644216
  0
LINE
  5
44C
100
AcDbEntity
  8
RACCORDO
100
AcDbLine
 62
253
  6
CONTINUOUS
 10
14.256443564
 20
125.1938467295
 11
14.7122348708
 21
125.1709492215
  0
LINE
  5
44D
100
AcDbEntity
  8
ASSI
100
AcDbLine
 62
253
  6
CONTINUOUS
 10
14.256443564
 20
125.1938467295
 11
14.7122348708
 21
125.1709492215
  0
LINE
  5
44E
100
AcDbEntity
  8
RACCORDO
100
AcDbLine
 62
253
  6
CONTINUOUS
 10
17.2504731744
 20
125.0372274733
 11
16.9064435481
 21
125.0549626363
  0
LINE
  5
44F
100
AcDbEntity
  8
RACCORDO
100
AcDbLine
 62
253
  6
CONTINUOUS
 10
17.4391992114
 20
128.1367898794
 11
16.988034875
 21
128.1689921063
  0
LWPOLYLINE
  5
450
100
AcDbEntity
  8
RACCORDO
100
AcDbPolyline
 62
253
  6
CONTINUOUS
 90
4
 70
0
 10
16.988034875
 20
128.1689921063
 10
16.9553765789
 20
128.1714761335
 10
16.9450994315
 20
128.1723019681
 10
16.9422777819
 20
128.1725500836
  0
LINE
  5
451
100
AcDbEntity
  8
RACCORDO
100
AcDbLine
 62
7
  6
CONTINUOUS
 10
17.790306052
 20
137.0244530886
 11
18.2937629876
 21
137.0376365725
  0
LINE
  5
452
100
AcDbEntity
  8
RACCORDO
100
AcDbLine
 62
7
  6
CONTINUOUS
 10
17.6893877058
 20
136.1562518946
 11
18.1854881625
 21
136.143261047
  0
LWPOLYLINE
  5
453
100
AcDbEntity
  8
RACCORDO
100
AcDbPolyline
 62
253
  6
CONTINUOUS
 90
10
 70
0
 10
21.5390320432
 20
145.6945386954
 10
21.6316435783
 20
145.6391327972
 10
21.7206661748
 20
145.5826188681
 10
21.8061840058
 20
145.5249976167
 10
21.8880632027
 20
145.4664359986
 10
21.9666250966
 20
145.4067689668
 10
22.0426127491
 20
145.3454981474
 10
22.1163071675
 20
145.2824568037
 10
22.1875598916
 20
145.2178111594
 10
22.256443604
 20
145.1515612256
  0
LWPOLYLINE
  5
454
100
AcDbEntity
  8
RACCORDO
100
AcDbPolyline
 62
253
  6
CONTINUOUS
 90
19
 70
0
 10
21.534909902
 20
146.370713941
 10
21.5574870926
 20
146.3517741777
 10
21.5776990436
 20
146.3298493181
 10
21.5954493684
 20
146.3050439194
 10
21.6106534197
 20
146.2774762756
 10
21.623238693
 20
146.2472778534
 10
21.6331451724
 20
146.2145926653
 10
21.6403256165
 20
146.179576583
 10
21.6447457845
 20
146.1423965928
 10
21.6463845986
 20
146.1032300001
 10
21.6452342448
 20
146.0622635846
 10
21.64130021
 20
146.0196927083
 10
21.6346012559
 20
145.9757203834
 10
21.6251693294
 20
145.9305563064
 10
21.6130494106
 20
145.8844158569
 10
21.5982992971
 20
145.8375190681
 10
21.5809893298
 20
145.7900895814
 10
21.561202057
 20
145.7423535802
 10
21.539031841
 20
145.6945387087
  0
LINE
  5
455
100
AcDbEntity
  8
RACCORDO
100
AcDbLine
 62
7
  6
CONTINUOUS
 10
19.2323188398
 20
145.0862448786
 11
19.4932659881
 21
145.090799728
  0
LINE
  5
456
100
AcDbEntity
  8
RACCORDO
100
AcDbLine
 62
253
  6
CONTINUOUS
 10
16.6954848659
 20
146.4882600024
 11
16.7003819569
 21
146.4873939254
  0
LINE
  5
457
100
AcDbEntity
  8
ASSI
100
AcDbLine
 62
253
  6
CONTINUOUS
 10
16.6954848659
 20
146.4882600024
 11
16.7003819569
 21
146.4873939254
  0
LINE
  5
458
100
AcDbEntity
  8
RACCORDO
100
AcDbLine
 62
253
  6
CONTINUOUS
 10
16.7003819569
 20
146.4873939254
 11
17.1440276935
 21
146.4077434802
  0
LINE
  5
459
100
AcDbEntity
  8
ASSI
100
AcDbLine
 62
253
  6
CONTINUOUS
 10
16.7003819569
 20
146.4873939254
 11
17.1440276935
 21
146.4077434802
  0
LWPOLYLINE
  5
45A
100
AcDbEntity
  8
RACCORDO
100
AcDbPolyline
 62
253
  6
CONTINUOUS
 90
10
 70
0
 10
21.5390320432
 20
59.483523648
 10
21.6314998155
 20
59.5388678375
 10
21.720221009
 20
59.5951740933
 10
21.8052862502
 20
59.6524413821
 10
21.8863119276
 20
59.7102870754
 10
21.9638891739
 20
59.7690909568
 10
22.0395147238
 20
59.8299981374
 10
22.113688742
 20
59.8933923285
 10
22.1859831623
 20
59.9588929271
 10
22.2564435344
 20
60.0265010531
  0
LINE
  5
45B
100
AcDbEntity
  8
RACCORDO
100
AcDbLine
 62
253
  6
CONTINUOUS
 10
17.1440273904
 20
146.4077435205
 11
19.2552325351
 21
146.5925522726
  0
LINE
  5
45C
100
AcDbEntity
  8
ASSI
100
AcDbLine
 62
253
  6
CONTINUOUS
 10
17.1440273904
 20
146.4077435205
 11
19.2552325351
 21
146.5925522726
  0
LINE
  5
45D
100
AcDbEntity
  8
RACCORDO
100
AcDbLine
 62
7
  6
CONTINUOUS
 10
17.2343152905
 20
147.3959770754
 11
19.4409337083
 21
147.5890311717
  0
LINE
  5
45E
100
AcDbEntity
  8
ASSI
100
AcDbLine
 62
7
  6
CONTINUOUS
 10
17.2343152905
 20
147.3959770754
 11
19.4409337083
 21
147.5890311717
  0
LINE
  5
45F
100
AcDbEntity
  8
RACCORDO
100
AcDbLine
 62
253
  6
CONTINUOUS
 10
21.5390320432
 20
145.6945386954
 11
19.6017075863
 21
145.706242684
  0
LWPOLYLINE
  5
460
100
AcDbEntity
  8
RACCORDO
100
AcDbPolyline
 62
253
  6
CONTINUOUS
 90
16
 70
0
 10
19.7082940174
 20
146.2982820762
 10
19.8310454318
 20
146.2800195378
 10
19.9532461662
 20
146.2591206469
 10
20.0748292489
 20
146.2355810943
 10
20.1953940098
 20
146.209525001
 10
20.3152063817
 20
146.1808198003
 10
20.4351791865
 20
146.1490751374
 10
20.5552588613
 20
146.114370129
 10
20.6752992651
 20
146.0766148318
 10
20.7960288747
 20
146.0351626753
 10
20.9171522215
 20
145.9902562381
 10
21.0386742579
 20
145.9416386588
 10
21.1617055259
 20
145.887909125
 10
21.2864653043
 20
145.828591633
 10
21.4123168153
 20
145.7641387406
 10
21.5390320432
 20
145.6945386954
  0
ARC
  5
461
100
AcDbEntity
  8
RACCORDO
100
AcDbCircle
 62
7
  6
CONTINUOUS
 10
182.1651050201
 20
88.4294203732
 40
168.1209091124
100
AcDbArc
 50
182.8793331904
 51
190.361637938
  0
ARC
  5
462
100
AcDbEntity
  8
ASSI
100
AcDbCircle
 62
7
  6
CONTINUOUS
 10
182.1651050201
 20
88.4294203732
 40
168.1209091124
100
AcDbArc
 50
182.8793331904
 51
190.361637938
  0
ARC
  5
463
100
AcDbEntity
  8
RACCORDO
100
AcDbCircle
 62
7
  6
CONTINUOUS
 10
182.1651050201
 20
88.4294203732
 40
165.6209091124
100
AcDbArc
 50
182.8793463054
 51
190.7317283603
  0
ARC
  5
464
100
AcDbEntity
  8
ASSI
100
AcDbCircle
 62
7
  6
CONTINUOUS
 10
182.1651050201
 20
88.4294203732
 40
165.6209091124
100
AcDbArc
 50
182.8793463054
 51
190.7317283603
  0
ARC
  5
465
100
AcDbEntity
  8
0
100
AcDbCircle
 62
7
  6
CONTINUOUS
 10
182.1621569511
 20
88.4323911717
 40
165.12
100
AcDbArc
 50
182.8787323946
 51
190.1014160686
  0
ARC
  5
466
100
AcDbEntity
  8
RACCORDO
100
AcDbCircle
 62
7
  6
CONTINUOUS
 10
182.1621569511
 20
88.4323911717
 40
165.12
100
AcDbArc
 50
190.1014160686
 51
190.5891670949
  0
ARC
  5
467
100
AcDbEntity
  8
RACCORDO
100
AcDbCircle
 62
7
  6
CONTINUOUS
 10
19.1560623534
 20
62.0479819089
 40
4.0200239337
100
AcDbArc
 50
279.9999997997
 51
320.4648685262
  0
ARC
  5
468
100
AcDbEntity
  8
RACCORDO
100
AcDbCircle
 62
7
  6
CONTINUOUS
 10
17.2778931619
 20
58.280182617
 40
0.5
100
AcDbArc
 50
190.3619323081
 51
265.0
  0
ARC
  5
469
100
AcDbEntity
  8
ASSI
100
AcDbCircle
 62
7
  6
CONTINUOUS
 10
17.2778931619
 20
58.280182617
 40
0.5
100
AcDbArc
 50
190.3619323081
 51
265.0
  0
ARC
  5
46A
100
AcDbEntity
  8
RACCORDO
100
AcDbCircle
 62
7
  6
CONTINUOUS
 10
19.2375545617
 20
60.3917717734
 40
0.3
100
AcDbArc
 50
200.0858331543
 51
269.0
  0
ARC
  5
46B
100
AcDbEntity
  8
RACCORDO
100
AcDbCircle
 62
7
  6
CONTINUOUS
 10
20.4564435481
 20
99.2568510979
 40
0.2
100
AcDbArc
 50
180.0
 51
260.0
  0
ARC
  5
46C
100
AcDbEntity
  8
RACCORDO
100
AcDbCircle
 62
7
  6
CONTINUOUS
 10
182.1651050201
 20
116.7486419702
 40
168.1209091124
100
AcDbArc
 50
169.6380676919
 51
177.1206663367
  0
ARC
  5
46D
100
AcDbEntity
  8
ASSI
100
AcDbCircle
 62
7
  6
CONTINUOUS
 10
182.1651050201
 20
116.7486419702
 40
168.1209091124
100
AcDbArc
 50
169.6380676919
 51
177.1206663367
  0
ARC
  5
46E
100
AcDbEntity
  8
RACCORDO
100
AcDbCircle
 62
7
  6
CONTINUOUS
 10
182.1651050201
 20
116.7486419702
 40
165.6209091124
100
AcDbArc
 50
169.2682716397
 51
177.1206536946
  0
ARC
  5
46F
100
AcDbEntity
  8
ASSI
100
AcDbCircle
 62
7
  6
CONTINUOUS
 10
182.1651050201
 20
116.7486419702
 40
165.6209091124
100
AcDbArc
 50
169.2682716397
 51
177.1206536946
  0
ARC
  5
470
100
AcDbEntity
  8
0
100
AcDbCircle
 62
7
  6
CONTINUOUS
 10
182.1621569511
 20
116.7456711717
 40
165.12
100
AcDbArc
 50
169.8985839314
 51
177.1212676054
  0
ARC
  5
471
100
AcDbEntity
  8
RACCORDO
100
AcDbCircle
 62
7
  6
CONTINUOUS
 10
182.1621569511
 20
116.7456711717
 40
165.12
100
AcDbArc
 50
169.4108329051
 51
169.8985839314
  0
ARC
  5
472
100
AcDbEntity
  8
RACCORDO
100
AcDbCircle
 62
7
  6
CONTINUOUS
 10
19.1560623534
 20
143.1300804345
 40
4.0200239337
100
AcDbArc
 50
39.5351387157
 51
80.0000000069
  0
ARC
  5
473
100
AcDbEntity
  8
RACCORDO
100
AcDbCircle
 62
7
  6
CONTINUOUS
 10
17.2778926598
 20
146.8978770351
 40
0.5
100
AcDbArc
 50
94.9999158083
 51
169.6377539761
  0
ARC
  5
474
100
AcDbEntity
  8
ASSI
100
AcDbCircle
 62
7
  6
CONTINUOUS
 10
17.2778926598
 20
146.8978770351
 40
0.5
100
AcDbArc
 50
94.9999158083
 51
169.6377539761
  0
ARC
  5
475
100
AcDbEntity
  8
RACCORDO
100
AcDbCircle
 62
7
  6
CONTINUOUS
 10
19.2375545617
 20
144.78629057
 40
0.3
100
AcDbArc
 50
91.0
 51
159.9142475605
  0
ARC
  5
476
100
AcDbEntity
  8
RACCORDO
100
AcDbCircle
 62
7
  6
CONTINUOUS
 10
20.4564435481
 20
105.9212112455
 40
0.2
100
AcDbArc
 50
100.0
 51
180.0
  0
ARC
  5
477
100
AcDbEntity
  8
RACCORDO
100
AcDbCircle
 62
7
  6
CONTINUOUS
 10
463.6883319511
 20
102.5890311717
 40
450.0
100
AcDbArc
 50
177.1206584177
 51
182.8793414056
  0
ARC
  5
478
100
AcDbEntity
  8
ASSI
100
AcDbCircle
 62
7
  6
CONTINUOUS
 10
463.6883319511
 20
102.5890311717
 40
450.0
100
AcDbArc
 50
177.1206584177
 51
182.8793414056
  0
ARC
  5
479
100
AcDbEntity
  8
DRAFT
100
AcDbCircle
 62
7
  6
CONTINUOUS
 10
463.6883319511
 20
102.5890311717
 40
447.5
100
AcDbArc
 50
177.1206536946
 51
182.8793463054
  0
ARC
  5
47A
100
AcDbEntity
  8
ASSI
100
AcDbCircle
 62
7
  6
CONTINUOUS
 10
463.6883319511
 20
102.5890311717
 40
447.5
100
AcDbArc
 50
177.1206536946
 51
182.8793463054
  0
ARC
  5
47B
100
AcDbEntity
  8
RACCORDO
100
AcDbCircle
 62
7
  6
CONTINUOUS
 10
463.6864435481
 20
102.5890311717
 40
447.3
100
AcDbArc
 50
178.3000600263
 51
178.3881006982
  0
ARC
  5
47C
100
AcDbEntity
  8
RACCORDO
100
AcDbCircle
 62
7
  6
CONTINUOUS
 10
463.6864435481
 20
102.5890311717
 40
447.3
100
AcDbArc
 50
181.611899237
 51
181.6999399737
  0
ARC
  5
47D
100
AcDbEntity
  8
0
100
AcDbCircle
 62
7
  6
CONTINUOUS
 10
463.6864435481
 20
102.5890311717
 40
447.0
100
AcDbArc
 50
177.1212676054
 51
182.8787323946
  0
ENDSEC
  0
SECTION
  2
OBJECTS
  0
DICTIONARY
  5
C
100
AcDbDictionary
280
0
281
1
  3
ACAD_GROUP
350
D
  3
ACAD_MLINESTYLE
350
17
  3
ACAD_LAYOUT
350
1A
  3
ACAD_PLOTSETTINGS
350
19
  3
ACAD_PLOTSTYLENAME
350
E
  0
DICTIONARY
  5
D
102
{ACAD_REACTORS
330
C
102
}
100
AcDbDictionary
280
0
281
1
  0
ACDBDICTIONARYWDFLT
  5
E
102
{ACAD_REACTORS
330
C
102
}
100
AcDbDictionary
281
1
  3
Normal
350
F
100
AcDbDictionaryWithDefault
340
F
  0
DICTIONARY
  5
17
102
{ACAD_REACTORS
330
C
102
}
100
AcDbDictionary
280
0
281
1
  3
Standard
350
18
  0
DICTIONARY
  5
19
102
{ACAD_REACTORS
330
C
102
}
100
AcDbDictionary
281
1
  0
DICTIONARY
  5
1A
102
{ACAD_REACTORS
330
C
102
}
100
AcDbDictionary
281
1
  3
Model
350
47E
  3
Layout1
350
47F
  0
ACDBPLACEHOLDER
  5
F
102
{ACAD_REACTORS
330
E
102
}
  0
MLINESTYLE
  5
18
102
{ACAD_REACTORS
330
17
102
}
100
AcDbMlineStyle
  2
STANDARD
 70
0
  3

 62
256
 51
90.0
 52
90.0
 71
2
 49
0.5
 62
256
  6
BYLAYER
 49
-0.5
 62
256
  6
BYLAYER
  0
LAYOUT
  5
47E
102
{ACAD_REACTORS
330
1A
102
}
100
AcDbPlotSettings
  1

  2
none_device
  4
ISO_A4_(297.00_x_210.00_MM)
  6

 40
0.0
 41
0.0
 42
0.0
 43
0.0
 44
297.0
 45
210.0
 46
0.0
 47
0.0
 48
0.0
 49
0.0
140
0.0
141
0.0
142
1.0
143
1.0
 70
1024
 72
1
 73
0
 74
0
  7

 75
0
147
1.0
148
0.0
149
0.0
100
AcDbLayout
  1
Model
 70
0
 71
0
 10
0.0
 20
0.0
 11
297.0
 21
210.0
 12
0.0
 22
0.0
 32
0.0
 14
0.0
 24
0.0
 34
0.0
 15
0.0
 25
0.0
 35
0.0
146
0.0
 13
0.0
 23
0.0
 33
0.0
 16
1.0
 26
0.0
 36
0.0
 17
0.0
 27
1.0
 37
0.0
 76
0
330
211
345
0
346
0
  0
LAYOUT
  5
47F
102
{ACAD_REACTORS
330
1A
102
}
100
AcDbPlotSettings
  1

  2
none_device
  4
ISO_A4_(297.00_x_210.00_MM)
  6

 40
0.0
 41
0.0
 42
0.0
 43
0.0
 44
297.0
 45
210.0
 46
0.0
 47
0.0
 48
0.0
 49
0.0
140
0.0
141
0.0
142
1.0
143
1.0
 70
0
 72
1
 73
0
 74
0
  7

 75
0
147
1.0
148
0.0
149
0.0
100
AcDbLayout
  1
Layout1
 70
0
 71
1
 10
0.0
 20
0.0
 11
297.0
 21
210.0
 12
0.0
 22
0.0
 32
0.0
 14
0.0
 24
0.0
 34
0.0
 15
0.0
 25
0.0
 35
0.0
146
0.0
 13
0.0
 23
0.0
 33
0.0
 16
1.0
 26
0.0
 36
0.0
 17
0.0
 27
1.0
 37
0.0
 76
0
330
212
345
0
346
0
  0
ENDSEC
  0
EOF
