  0
SECTION
  2
HEADER
  9
$ACADVER
  1
AC1021
  9
$DWGCODEPAGE
  3
ANSI_1252
  9
$EXTMAX
 10
297.0
 20
210.0
 30
0.0
  9
$EXTMIN
 10
0.0
 20
0.0
 30
0.0
  9
$LIMMIN
 10
0.0
 20
0.0
  9
$LIMMAX
 10
297.0
 20
210.0
  9
$VIEWCTR
 10
148.5
 20
105.0
  9
$VIEWSIZE
 40
210.0
  9
$CLAYER
  8
0
  9
$LTSCALE
 40
16.335
  9
$CELTYPE
  6
BYLAYER
  9
$DIMSCALE
 40
1.0
  9
$DIMASZ
 40
3.0
  9
$DIMEXO
 40
1.85625
  9
$DIMDLI
 40
11.286
  9
$DIMEXE
 40
5.346
  9
$DIMCEN
 40
2.673
  9
$DIMLFAC
 40
1.0
  9
$DIMBLK
  1
_FILLED
  9
$DIMTXT
 40
3.0
  9
$DIMTOL
 70
1
  9
$DIMLIM
 70
0
  9
$DIMTFAC
 40
1.0
  9
$DIMTP
 40
0.01
  9
$DIMTM
 40
0.01
  9
$PDMODE
 70
3
  9
$PDSIZE
 40
3.0
  9
$HANDSEED
  5
699
  9
$TILEMODE
 70
1
  9
$MEASUREMENT
 70
1
  9
$INSUNITS
 70
4
  0
ENDSEC
  0
SECTION
  2
CLASSES
  0
CLASS
  1
ACDBDICTIONARYWDFLT
  2
AcDbDictionaryWithDefault
  3
AutoCAD 2000
 90
0
 91
1
280
0
281
0
  0
CLASS
  1
ACDBPLACEHOLDER
  2
AcDbPlaceHolder
  3
AutoCAD 2000
 90
0
 91
1
280
0
281
0
  0
CLASS
  1
LAYOUT
  2
AcDbLayout
  3
AutoCAD 2000
 90
0
 91
0
280
0
281
0
  0
ENDSEC
  0
SECTION
  2
TABLES
  0
TABLE
  2
VPORT
  5
8
100
AcDbSymbolTable
 70
2
  0
VPORT
  5
1F4
100
AcDbSymbolTableRecord
100
AcDbViewportTableRecord
  2
*ACTIVE
 70
0
 10
0.0
 20
0.0
 11
1.0
 21
1.0
 12
148.5
 22
105.0
 13
0.0
 23
0.0
 14
1.0
 24
1.0
 15
0.0
 25
0.0
 16
0.0
 26
0.0
 36
1.0
 17
0.0
 27
0.0
 37
0.0
 40
210.0
 41
1.4142857143
 42
50.0
 43
0.0
 44
0.0
 50
0.0
 51
0.0
 71
0
 72
100
 73
1
 74
1
 75
0
 76
0
 77
0
 78
0
  0
ENDTAB
  0
TABLE
  2
LTYPE
  5
5
100
AcDbSymbolTable
 70
6
  0
LTYPE
  5
14
100
AcDbSymbolTableRecord
100
AcDbLinetypeTableRecord
  2
BYBLOCK
 70
0
  3

 72
65
 73
0
 40
0.0
  0
LTYPE
  5
15
100
AcDbSymbolTableRecord
100
AcDbLinetypeTableRecord
  2
BYLAYER
 70
0
  3

 72
65
 73
0
 40
0.0
  0
LTYPE
  5
16
100
AcDbSymbolTableRecord
100
AcDbLinetypeTableRecord
  2
CONTINUOUS
 70
64
  3
Solid line
 72
65
 73
0
 40
0.0
  0
LTYPE
  5
1F5
100
AcDbSymbolTableRecord
100
AcDbLinetypeTableRecord
  2
CENTER
 70
64
  3
____ _ ____ _ ____ _ ____ _ ____ _ ____ _ ____
 72
65
 73
4
 40
0.6
 49
0.375
 74
0
 49
-0.075
 74
0
 49
0.075
 74
0
 49
-0.075
 74
0
  0
LTYPE
  5
1F6
100
AcDbSymbolTableRecord
100
AcDbLinetypeTableRecord
  2
HIDDEN
 70
64
  3
- - - - - - - - - - - - - - - - - - - -
 72
65
 73
2
 40
0.2
 49
0.1
 74
0
 49
-0.1
 74
0
  0
LTYPE
  5
1F7
100
AcDbSymbolTableRecord
100
AcDbLinetypeTableRecord
  2
PHANTOM
 70
64
  3
_____ _ _ _____ _ _ _____ _ _ _____
 72
65
 73
6
 40
0.8
 49
0.45
 74
0
 49
-0.05
 74
0
 49
0.1
 74
0
 49
-0.05
 74
0
 49
0.1
 74
0
 49
-0.05
 74
0
  0
LTYPE
  5
1F8
100
AcDbSymbolTableRecord
100
AcDbLinetypeTableRecord
  2
DOT
 70
64
  3
. . . . . . . . . . . . . . . . . . . .
 72
65
 73
2
 40
0.2
 49
0.1
 74
0
 49
-0.1
 74
0
  0
LTYPE
  5
1F9
100
AcDbSymbolTableRecord
100
AcDbLinetypeTableRecord
  2
DASHED
 70
64
  3
- - - - - - - - - - - - - - - - - - - -
 72
65
 73
2
 40
0.2
 49
0.1
 74
0
 49
-0.1
 74
0
  0
ENDTAB
  0
TABLE
  2
LAYER
  5
2
100
AcDbSymbolTable
 70
36
  0
LAYER
  5
10
100
AcDbSymbolTableRecord
100
AcDbLayerTableRecord
  2
0
 70
0
 62
7
  6
CONTINUOUS
370
-3
390
F
  0
LAYER
  5
1FA
100
AcDbSymbolTableRecord
100
AcDbLayerTableRecord
  2
DEFAULT_1
 70
0
 62
7
  6
CENTER
370
-3
390
F
  0
LAYER
  5
1FB
100
AcDbSymbolTableRecord
100
AcDbLayerTableRecord
  2
DEFAULT_2
 70
0
 62
7
  6
HIDDEN
370
-3
390
F
  0
LAYER
  5
1FC
100
AcDbSymbolTableRecord
100
AcDbLayerTableRecord
  2
DEFAULT_3
 70
0
 62
7
  6
PHANTOM
370
-3
390
F
  0
LAYER
  5
1FD
100
AcDbSymbolTableRecord
100
AcDbLayerTableRecord
  2
ASSI
 70
0
 62
7
  6
CONTINUOUS
370
-3
390
F
  0
LAYER
  5
1FE
100
AcDbSymbolTableRecord
100
AcDbLayerTableRecord
  2
COORDINATE
 70
0
 62
7
  6
CONTINUOUS
370
-3
390
F
  0
LAYER
  5
1FF
100
AcDbSymbolTableRecord
100
AcDbLayerTableRecord
  2
COPY_PUBLISH
 70
0
 62
7
  6
CONTINUOUS
370
-3
390
F
  0
LAYER
  5
200
100
AcDbSymbolTableRecord
100
AcDbLayerTableRecord
  2
COSMETIC
 70
0
 62
7
  6
CONTINUOUS
370
-3
390
F
  0
LAYER
  5
201
100
AcDbSymbolTableRecord
100
AcDbLayerTableRecord
  2
COSMETICI
 70
0
 62
7
  6
CONTINUOUS
370
-3
390
F
  0
LAYER
  5
202
100
AcDbSymbolTableRecord
100
AcDbLayerTableRecord
  2
CURVE
 70
0
 62
7
  6
CONTINUOUS
370
-3
390
F
  0
LAYER
  5
203
100
AcDbSymbolTableRecord
100
AcDbLayerTableRecord
  2
DRAFT
 70
0
 62
7
  6
CONTINUOUS
370
-3
390
F
  0
LAYER
  5
204
100
AcDbSymbolTableRecord
100
AcDbLayerTableRecord
  2
IMPORT_IGES
 70
0
 62
7
  6
CONTINUOUS
370
-3
390
F
  0
LAYER
  5
205
100
AcDbSymbolTableRecord
100
AcDbLayerTableRecord
  2
INTF_1
 70
0
 62
7
  6
CONTINUOUS
370
-3
390
F
  0
LAYER
  5
206
100
AcDbSymbolTableRecord
100
AcDbLayerTableRecord
  2
NOTE
 70
0
 62
7
  6
CONTINUOUS
370
-3
390
F
  0
LAYER
  5
207
100
AcDbSymbolTableRecord
100
AcDbLayerTableRecord
  2
PIANI
 70
0
 62
7
  6
CONTINUOUS
370
-3
390
F
  0
LAYER
  5
208
100
AcDbSymbolTableRecord
100
AcDbLayerTableRecord
  2
PUNTI
 70
0
 62
7
  6
CONTINUOUS
370
-3
390
F
  0
LAYER
  5
209
100
AcDbSymbolTableRecord
100
AcDbLayerTableRecord
  2
RACCORDO
 70
0
 62
7
  6
CONTINUOUS
370
-3
390
F
  0
LAYER
  5
20A
100
AcDbSymbolTableRecord
100
AcDbLayerTableRecord
  2
SIMBOLI
 70
0
 62
7
  6
CONTINUOUS
370
-3
390
F
  0
LAYER
  5
20B
100
AcDbSymbolTableRecord
100
AcDbLayerTableRecord
  2
SMUSSO
 70
0
 62
7
  6
CONTINUOUS
370
-3
390
F
  0
LAYER
  5
20C
100
AcDbSymbolTableRecord
100
AcDbLayerTableRecord
  2
SNAPLINE
 70
0
 62
7
  6
CONTINUOUS
370
-3
390
F
  0
LAYER
  5
20D
100
AcDbSymbolTableRecord
100
AcDbLayerTableRecord
  2
SUPERFICI
 70
0
 62
7
  6
CONTINUOUS
370
-3
390
F
  0
LAYER
  5
20E
100
AcDbSymbolTableRecord
100
AcDbLayerTableRecord
  2
TRASH
 70
0
 62
7
  6
CONTINUOUS
370
-3
390
F
  0
LAYER
  5
20F
100
AcDbSymbolTableRecord
100
AcDbLayerTableRecord
  2
XSEC_DATUMS
 70
0
 62
7
  6
CONTINUOUS
370
-3
390
F
  0
ENDTAB
  0
TABLE
  2
STYLE
  5
3
100
AcDbSymbolTable
 70
1
  0
STYLE
  5
11
100
AcDbSymbolTableRecord
100
AcDbTextStyleTableRecord
  2
STANDARD
 70
0
 40
0.0
 41
0.8
 50
0.0
 71
0
 42
0.2
  3
txt
  4

  0
STYLE
  5
210
100
AcDbSymbolTableRecord
100
AcDbTextStyleTableRecord
  2
TEXTSTYLE_1
 70
0
 40
0.0
 41
0.8
 50
0.0
 71
0
 42
0.2
  3
gdt
  4

  0
ENDTAB
  0
TABLE
  2
VIEW
  5
6
100
AcDbSymbolTable
 70
0
  0
ENDTAB
  0
TABLE
  2
UCS
  5
7
100
AcDbSymbolTable
 70
0
  0
ENDTAB
  0
TABLE
  2
APPID
  5
9
100
AcDbSymbolTable
 70
1
  0
APPID
  5
211
100
AcDbSymbolTableRecord
100
AcDbRegAppTableRecord
  2
ACAD
 70
0
  0
ENDTAB
  0
TABLE
  2
BLOCK_RECORD
  5
1
100
AcDbSymbolTable
 70
0
  0
BLOCK_RECORD
  5
212
100
AcDbSymbolTableRecord
100
AcDbBlockTableRecord
  2
*Model_Space
  0
BLOCK_RECORD
  5
213
100
AcDbSymbolTableRecord
100
AcDbBlockTableRecord
  2
*Paper_Space
  0
BLOCK_RECORD
  5
214
100
AcDbSymbolTableRecord
100
AcDbBlockTableRecord
  2
_FILLED
  0
BLOCK_RECORD
  5
215
100
AcDbSymbolTableRecord
100
AcDbBlockTableRecord
  2
*D0
  0
BLOCK_RECORD
  5
216
100
AcDbSymbolTableRecord
100
AcDbBlockTableRecord
  2
*D1
  0
BLOCK_RECORD
  5
217
100
AcDbSymbolTableRecord
100
AcDbBlockTableRecord
  2
*D2
  0
BLOCK_RECORD
  5
218
100
AcDbSymbolTableRecord
100
AcDbBlockTableRecord
  2
*D3
  0
BLOCK_RECORD
  5
219
100
AcDbSymbolTableRecord
100
AcDbBlockTableRecord
  2
*D4
  0
ENDTAB
  0
TABLE
  2
DIMSTYLE
  5
A
100
AcDbSymbolTable
 70
1
100
AcDbDimStyleTable
 71
0
  0
DIMSTYLE
105
21A
100
AcDbSymbolTableRecord
100
AcDbDimStyleTableRecord
  2
STANDARD
 70
0
  3

  4

 40
1.0
 41
3.0
 42
0.0625
 43
0.38
 44
0.18
 45
0.0
 46
0.0
 47
0.01
 48
0.01
140
3.0
141
0.09
142
0.0
143
25.4
144
1.0
145
0.0
146
1.0
147
0.09
 71
1.0
 72
0.0
 73
0
 74
0
 75
0
 76
0
 77
1
 78
8
170
0
171
2
172
0
173
0
174
0
175
0
176
0
177
0
178
0
270
2
271
2
272
2
273
2
274
2
275
0
280
0
281
0
282
0
283
1
284
8
285
0
286
0
287
3
288
0
340
11
341
214
342
214
343
214
344
214
  0
DIMSTYLE
105
21B
100
AcDbSymbolTableRecord
100
AcDbDimStyleTableRecord
  2
DIMSTYLE_1
 70
0
  3

  4

 40
1.0
 41
3.0
 42
0.0625
 43
0.38
 44
0.18
 45
0.0
 46
0.0
 47
0.0
 48
0.0
140
3.0
141
0.09
142
0.0
143
25.4
144
1.0
145
0.0
146
1.0
147
0.09
 71
0.0
 72
0.0
 73
0
 74
0
 75
0
 76
0
 77
1
 78
8
170
0
171
2
172
0
173
0
174
0
175
0
176
0
177
0
178
0
270
2
271
1
272
1
273
2
274
2
275
0
280
0
281
0
282
0
283
1
284
8
285
0
286
0
287
3
288
0
340
11
341
214
342
214
343
214
344
214
  0
DIMSTYLE
105
21C
100
AcDbSymbolTableRecord
100
AcDbDimStyleTableRecord
  2
DIMSTYLE_2
 70
0
  3

  4

 40
1.0
 41
3.0
 42
0.0625
 43
0.38
 44
0.18
 45
0.0
 46
0.0
 47
0.0
 48
0.0
140
3.0
141
0.09
142
0.0
143
25.4
144
1.0
145
0.0
146
1.0
147
0.09
 71
0.0
 72
0.0
 73
0
 74
0
 75
0
 76
0
 77
1
 78
8
170
0
171
2
172
0
173
0
174
0
175
0
176
0
177
0
178
0
270
2
271
2
272
2
273
2
274
2
275
0
280
0
281
0
282
0
283
1
284
8
285
0
286
0
287
3
288
0
340
11
341
214
342
214
343
214
344
214
  0
ENDTAB
  0
ENDSEC
  0
SECTION
  2
BLOCKS
  0
BLOCK
  5
20
100
AcDbEntity
  8
0
100
AcDbBlockBegin
  2
*Model_Space
 70
0
 10
0.0
 20
0.0
 30
0.0
  3
*Model_Space
  1

  0
ENDBLK
  5
21
100
AcDbEntity
  8
0
100
AcDbBlockEnd
  0
BLOCK
  5
1C
100
AcDbEntity
  8
0
100
AcDbBlockBegin
  2
*Paper_Space
 70
0
 10
0.0
 20
0.0
 30
0.0
  3
*Paper_Space
  1

  0
ENDBLK
  5
1D
100
AcDbEntity
  8
0
100
AcDbBlockEnd
  0
BLOCK
  5
21D
100
AcDbEntity
  8
0
100
AcDbBlockBegin
  2
_FILLED
 70
64
 10
0.0
 20
0.0
  3
_FILLED
  1

  0
SOLID
  5
21E
100
AcDbEntity
  8
0
  6
BYBLOCK
 62
0
100
AcDbTrace
 10
0.0
 20
0.0
 11
-1.0
 21
0.3166666667
 12
-1.0
 22
-0.3166666667
 13
-1.0
 23
-0.3166666667
  0
ENDBLK
  5
21F
100
AcDbEntity
  8
0
  6
BYBLOCK
 62
0
100
AcDbBlockEnd
  0
BLOCK
  5
220
100
AcDbEntity
  8
0
100
AcDbBlockBegin
 62
7
  6
CONTINUOUS
  2
*D0
 70
65
 10
0.0
 20
0.0
  3
*D0
  1

  0
MTEXT
  5
221
100
AcDbEntity
  8
0
100
AcDbMText
 62
7
  6
CONTINUOUS
  7
STANDARD
 71
3
 72
1
 10
-79.4818700085
 20
61.2788336418
 30
0.0
 11
1.0
 21
0.0
 31
0.0
 44
0.9
  1
9,1
 40
3.0
 41
5.7857142857
  0
LINE
  5
222
100
AcDbEntity
  8
0
100
AcDbLine
 62
7
  6
CONTINUOUS
 10
-66.6600848513
 20
42.855103784
 11
-66.6600848513
 21
59.0288336418
  0
LINE
  5
223
100
AcDbEntity
  8
0
100
AcDbLine
 62
7
  6
CONTINUOUS
 10
-75.7831218322
 20
0.9530911458
 11
-75.7831218322
 21
59.0288336418
  0
LINE
  5
224
100
AcDbEntity
  8
0
100
AcDbLine
 62
7
  6
CONTINUOUS
 10
-66.6600848513
 20
57.5288336418
 11
-62.6600848513
 21
57.5288336418
  0
LINE
  5
225
100
AcDbEntity
  8
0
100
AcDbLine
 62
7
  6
CONTINUOUS
 10
-62.6600848513
 20
57.5288336418
 11
-71.2216033418
 21
57.5288336418
  0
LINE
  5
226
100
AcDbEntity
  8
0
100
AcDbLine
 62
7
  6
CONTINUOUS
 10
-75.7831218322
 20
57.5288336418
 11
-85.2675842942
 21
57.5288336418
  0
LINE
  5
227
100
AcDbEntity
  8
0
100
AcDbLine
 62
7
  6
CONTINUOUS
 10
-85.2675842942
 20
57.5288336418
 11
-71.2216033418
 21
57.5288336418
  0
INSERT
  5
228
100
AcDbEntity
  8
0
100
AcDbBlockReference
 62
7
  6
CONTINUOUS
  2
_FILLED
 10
-66.6600848513
 20
57.5288336418
 41
3.0
 42
3.0
 43
3.0
 50
180.0
  0
INSERT
  5
229
100
AcDbEntity
  8
0
100
AcDbBlockReference
 62
7
  6
CONTINUOUS
  2
_FILLED
 10
-75.7831218322
 20
57.5288336418
 41
3.0
 42
3.0
 43
3.0
  0
ENDBLK
  5
22A
100
AcDbEntity
  8
0
  6
BYBLOCK
 62
0
100
AcDbBlockEnd
  0
BLOCK
  5
22B
100
AcDbEntity
  8
0
100
AcDbBlockBegin
 62
7
  6
CONTINUOUS
  2
*D1
 70
65
 10
0.0
 20
0.0
  3
*D1
  1

  0
MTEXT
  5
22C
100
AcDbEntity
  8
0
100
AcDbMText
 62
7
  6
CONTINUOUS
  7
STANDARD
 71
2
 72
1
 10
0.4791606433
 20
71.2788336418
 30
0.0
 11
1.0
 21
0.0
 31
0.0
 44
0.9
  1
94,5
 40
3.0
 41
8.5714285714
  0
LINE
  5
22D
100
AcDbEntity
  8
0
100
AcDbLine
 62
7
  6
CONTINUOUS
 10
-46.7708393567
 20
0.0288336418
 11
-46.7708393567
 21
69.0288336418
  0
LINE
  5
22E
100
AcDbEntity
  8
0
100
AcDbLine
 62
7
  6
CONTINUOUS
 10
47.7291606433
 20
0.0288336418
 11
47.7291606433
 21
69.0288336418
  0
LINE
  5
22F
100
AcDbEntity
  8
0
100
AcDbLine
 62
7
  6
CONTINUOUS
 10
-46.7708393567
 20
67.5288336418
 11
0.4791606433
 21
67.5288336418
  0
LINE
  5
230
100
AcDbEntity
  8
0
100
AcDbLine
 62
7
  6
CONTINUOUS
 10
47.7291606433
 20
67.5288336418
 11
0.4791606433
 21
67.5288336418
  0
INSERT
  5
231
100
AcDbEntity
  8
0
100
AcDbBlockReference
 62
7
  6
CONTINUOUS
  2
_FILLED
 10
-46.7708393567
 20
67.5288336418
 41
3.0
 42
3.0
 43
3.0
 50
180.0
  0
INSERT
  5
232
100
AcDbEntity
  8
0
100
AcDbBlockReference
 62
7
  6
CONTINUOUS
  2
_FILLED
 10
47.7291606433
 20
67.5288336418
 41
3.0
 42
3.0
 43
3.0
  0
ENDBLK
  5
233
100
AcDbEntity
  8
0
  6
BYBLOCK
 62
0
100
AcDbBlockEnd
  0
BLOCK
  5
234
100
AcDbEntity
  8
0
100
AcDbBlockBegin
 62
7
  6
CONTINUOUS
  2
*D2
 70
65
 10
0.0
 20
0.0
  3
*D2
  1

  0
MTEXT
  5
235
100
AcDbEntity
  8
0
100
AcDbMText
 62
7
  6
CONTINUOUS
  7
STANDARD
 71
2
 72
1
 10
63.7708393567
 20
-0.4711663582
 30
0.0
 11
0.0
 21
1.0
 31
0.0
 44
0.9
  1
94,5
 40
3.0
 41
8.5714285714
  0
LINE
  5
236
100
AcDbEntity
  8
0
100
AcDbLine
 62
7
  6
CONTINUOUS
 10
0.9791606433
 20
46.7788322851
 11
69.0208393567
 21
46.7788322851
  0
LINE
  5
237
100
AcDbEntity
  8
0
100
AcDbLine
 62
7
  6
CONTINUOUS
 10
0.9791606433
 20
-47.7211650016
 11
69.0208393567
 21
-47.7211650016
  0
LINE
  5
238
100
AcDbEntity
  8
0
100
AcDbLine
 62
7
  6
CONTINUOUS
 10
67.5208393567
 20
46.7788322851
 11
67.5208393567
 21
-0.4711663582
  0
LINE
  5
239
100
AcDbEntity
  8
0
100
AcDbLine
 62
7
  6
CONTINUOUS
 10
67.5208393567
 20
-47.7211650016
 11
67.5208393567
 21
-0.4711663582
  0
INSERT
  5
23A
100
AcDbEntity
  8
0
100
AcDbBlockReference
 62
7
  6
CONTINUOUS
  2
_FILLED
 10
67.5208393567
 20
46.7788322851
 41
3.0
 42
3.0
 43
3.0
 50
90.0
  0
INSERT
  5
23B
100
AcDbEntity
  8
0
100
AcDbBlockReference
 62
7
  6
CONTINUOUS
  2
_FILLED
 10
67.5208393567
 20
-47.7211650016
 41
3.0
 42
3.0
 43
3.0
 50
270.0
  0
ENDBLK
  5
23C
100
AcDbEntity
  8
0
  6
BYBLOCK
 62
0
100
AcDbBlockEnd
  0
BLOCK
  5
23D
100
AcDbEntity
  8
0
100
AcDbBlockBegin
 62
7
  6
CONTINUOUS
  2
*D3
 70
65
 10
0.0
 20
0.0
  3
*D3
  1

  0
MTEXT
  5
23E
100
AcDbEntity
  8
0
100
AcDbMText
 62
7
  6
CONTINUOUS
  7
STANDARD
 71
2
 72
1
 10
53.7708393567
 20
-0.4711663582
 30
0.0
 11
0.0
 21
1.0
 31
0.0
 44
0.9
  1
45
 40
3.0
 41
4.5
  0
LINE
  5
23F
100
AcDbEntity
  8
0
100
AcDbLine
 62
7
  6
CONTINUOUS
 10
22.7791606433
 20
22.0434866711
 11
59.0208393567
 21
22.0434866711
  0
LINE
  5
240
100
AcDbEntity
  8
0
100
AcDbLine
 62
7
  6
CONTINUOUS
 10
22.7791606433
 20
-22.9858193876
 11
59.0208393567
 21
-22.9858193876
  0
LINE
  5
241
100
AcDbEntity
  8
0
100
AcDbLine
 62
7
  6
CONTINUOUS
 10
57.5208393567
 20
22.0434866711
 11
57.5208393567
 21
-0.4711663582
  0
LINE
  5
242
100
AcDbEntity
  8
0
100
AcDbLine
 62
7
  6
CONTINUOUS
 10
57.5208393567
 20
-22.9858193876
 11
57.5208393567
 21
-0.4711663582
  0
INSERT
  5
243
100
AcDbEntity
  8
0
100
AcDbBlockReference
 62
7
  6
CONTINUOUS
  2
_FILLED
 10
57.5208393567
 20
22.0434866711
 41
3.0
 42
3.0
 43
3.0
 50
90.0
  0
INSERT
  5
244
100
AcDbEntity
  8
0
100
AcDbBlockReference
 62
7
  6
CONTINUOUS
  2
_FILLED
 10
57.5208393567
 20
-22.9858193876
 41
3.0
 42
3.0
 43
3.0
 50
270.0
  0
ENDBLK
  5
245
100
AcDbEntity
  8
0
  6
BYBLOCK
 62
0
100
AcDbBlockEnd
  0
BLOCK
  5
246
100
AcDbEntity
  8
0
100
AcDbBlockBegin
 62
7
  6
CONTINUOUS
  2
*D4
 70
65
 10
0.0
 20
0.0
  3
*D4
  1

  0
MTEXT
  5
247
100
AcDbEntity
  8
0
100
AcDbMText
 62
7
  6
CONTINUOUS
  7
STANDARD
 71
2
 72
1
 10
0.4791606433
 20
61.2788336418
 30
0.0
 11
1.0
 21
0.0
 31
0.0
 44
0.9
  1
45,2
 40
3.0
 41
8.5714285714
  0
LINE
  5
248
100
AcDbEntity
  8
0
100
AcDbLine
 62
7
  6
CONTINUOUS
 10
23.0909662389
 20
21.7288336418
 11
23.0909662389
 21
59.0288336418
  0
LINE
  5
249
100
AcDbEntity
  8
0
100
AcDbLine
 62
7
  6
CONTINUOUS
 10
-22.1326449523
 20
21.7288336418
 11
-22.1326449523
 21
59.0288336418
  0
LINE
  5
24A
100
AcDbEntity
  8
0
100
AcDbLine
 62
7
  6
CONTINUOUS
 10
23.0909662389
 20
57.5288336418
 11
0.4791606433
 21
57.5288336418
  0
LINE
  5
24B
100
AcDbEntity
  8
0
100
AcDbLine
 62
7
  6
CONTINUOUS
 10
-22.1326449523
 20
57.5288336418
 11
0.4791606433
 21
57.5288336418
  0
INSERT
  5
24C
100
AcDbEntity
  8
0
100
AcDbBlockReference
 62
7
  6
CONTINUOUS
  2
_FILLED
 10
23.0909662389
 20
57.5288336418
 41
3.0
 42
3.0
 43
3.0
  0
INSERT
  5
24D
100
AcDbEntity
  8
0
100
AcDbBlockReference
 62
7
  6
CONTINUOUS
  2
_FILLED
 10
-22.1326449523
 20
57.5288336418
 41
3.0
 42
3.0
 43
3.0
 50
180.0
  0
ENDBLK
  5
24E
100
AcDbEntity
  8
0
  6
BYBLOCK
 62
0
100
AcDbBlockEnd
  0
ENDSEC
  0
SECTION
  2
ENTITIES
  0
DIMENSION
  5
24F
100
AcDbEntity
  8
0
100
AcDbDimension
 62
7
  6
CONTINUOUS
  2
*D0
 10
-75.7831218322
 20
57.5288336418
 11
-88.160441437
 21
59.7788336418
 70
160
 71
3
 42
9.1230369809
  3
DIMSTYLE_1
100
AcDbAlignedDimension
 13
-66.6600848513
 23
42.855103784
 14
-75.7831218322
 24
0.9530911458
 50
180.0
100
AcDbRotatedDimension
  0
DIMENSION
  5
250
100
AcDbEntity
  8
0
100
AcDbDimension
 62
7
  6
CONTINUOUS
  2
*D1
 10
47.7291606433
 20
67.5288336418
 11
-3.8065536424
 21
69.7788336418
 70
160
 71
2
 42
94.5
  3
DIMSTYLE_2
100
AcDbAlignedDimension
 13
-46.7708393567
 23
0.0288336418
 14
47.7291606433
 24
0.0288336418
100
AcDbRotatedDimension
  0
DIMENSION
  5
251
100
AcDbEntity
  8
0
100
AcDbDimension
 62
7
  6
CONTINUOUS
  2
*D2
 10
67.5208393567
 20
-47.7211650016
 11
67.1911548544
 21
-4.3025806308
 70
160
 71
2
 42
94.4999972867
  3
DIMSTYLE_2
100
AcDbAlignedDimension
 13
0.9791606433
 23
46.7788322851
 14
0.9791606433
 24
-47.7211650016
 50
270.0
100
AcDbRotatedDimension
  0
DIMENSION
  5
252
100
AcDbEntity
  8
0
100
AcDbDimension
 62
7
  6
CONTINUOUS
  2
*D3
 10
57.5208393567
 20
-22.9858193876
 11
56.279004993
 21
-2.4826588514
 70
160
 71
2
 42
45.0293060587
  3
DIMSTYLE_1
100
AcDbAlignedDimension
 13
22.7791606433
 23
22.0434866711
 14
22.7791606433
 24
-22.9858193876
 50
270.0
100
AcDbRotatedDimension
  0
DIMENSION
  5
253
100
AcDbEntity
  8
0
100
AcDbDimension
 62
7
  6
CONTINUOUS
  2
*D4
 10
-22.1326449523
 20
57.5288336418
 11
-3.8065536424
 21
59.7788336418
 70
160
 71
2
 42
45.2236111913
  3
DIMSTYLE_1
100
AcDbAlignedDimension
 13
23.0909662389
 23
21.7288336418
 14
-22.1326449523
 24
21.7288336418
 50
180.0
100
AcDbRotatedDimension
  0
LWPOLYLINE
  5
254
100
AcDbEntity
  8
RACCORDO
100
AcDbPolyline
 62
253
  6
CONTINUOUS
 90
33
 70
0
 10
-43.0127328718
 20
35.0127341494
 10
-43.0445906424
 20
34.9414934813
 10
-43.0769730527
 20
34.8680312758
 10
-43.1102698483
 20
34.791540988
 10
-43.1440909354
 20
34.7128285513
 10
-43.1784544693
 20
34.6315507566
 10
-43.2133998915
 20
34.5476307265
 10
-43.2488873612
 20
34.461144651
 10
-43.2848160654
 20
34.3719788481
 10
-43.3211543818
 20
34.2802322738
 10
-43.3579334856
 20
34.1858052203
 10
-43.3951467044
 20
34.0882859172
 10
-43.4327652651
 20
33.9877927513
 10
-43.4708173761
 20
33.8842064034
 10
-43.5093817128
 20
33.7767583357
 10
-43.5484491045
 20
33.665577111
 10
-43.5880279419
 20
33.5505328991
 10
-43.6282230225
 20
33.4304692074
 10
-43.6692195362
 20
33.3049142025
 10
-43.7108311048
 20
33.1743378179
 10
-43.7526050437
 20
33.0389960104
 10
-43.7946010644
 20
32.8986792486
 10
-43.8367582087
 20
32.7535951565
 10
-43.8784429054
 20
32.6046256422
 10
-43.9196116363
 20
32.4517995707
 10
-43.9603068238
 20
32.2950865124
 10
-44.0000240214
 20
32.1352798022
 10
-44.0387229439
 20
31.9723782482
 10
-44.0764429396
 20
31.8063818197
 10
-44.1127992376
 20
31.6380859694
 10
-44.1476633917
 20
31.4677556565
 10
-44.181163144
 20
31.2951251347
 10
-44.2132981213
 20
31.1201939952
  0
LINE
  5
255
100
AcDbEntity
  8
DRAFT
100
AcDbLine
 62
7
  6
CONTINUOUS
 10
-45.276805186
 20
-27.7619149859
 11
-45.3931807905
 21
-26.680541262
  0
LINE
  5
256
100
AcDbEntity
  8
RACCORDO
100
AcDbLine
 62
253
  6
CONTINUOUS
 10
-45.2520192332
 20
-26.3798495287
 11
-45.1043407642
 21
-27.7579445531
  0
LINE
  5
257
100
AcDbEntity
  8
RACCORDO
100
AcDbLine
 62
253
  6
CONTINUOUS
 10
-44.9725928055
 20
-26.3644256933
 11
-44.8251095393
 21
-27.742878366
  0
LINE
  5
258
100
AcDbEntity
  8
DRAFT
100
AcDbLine
 62
7
  6
CONTINUOUS
 10
-45.3931807905
 20
-26.680541262
 11
-45.5048236238
 21
-25.5989413508
  0
LINE
  5
259
100
AcDbEntity
  8
RACCORDO
100
AcDbLine
 62
253
  6
CONTINUOUS
 10
-45.3919919715
 20
-25.0014170477
 11
-45.2520192332
 21
-26.3798495287
  0
LINE
  5
25A
100
AcDbEntity
  8
RACCORDO
100
AcDbLine
 62
253
  6
CONTINUOUS
 10
-45.1123804017
 20
-24.9856383843
 11
-44.9725928055
 21
-26.3644256933
  0
LINE
  5
25B
100
AcDbEntity
  8
DRAFT
100
AcDbLine
 62
7
  6
CONTINUOUS
 10
-45.5048236238
 20
-25.5989413508
 11
-45.5766219238
 21
-24.8777753235
  0
LINE
  5
25C
100
AcDbEntity
  8
RACCORDO
100
AcDbLine
 62
253
  6
CONTINUOUS
 10
-45.2928594538
 20
-23.1575729407
 11
-45.1123804005
 21
-24.9856383843
  0
LWPOLYLINE
  5
25D
100
AcDbEntity
  8
DRAFT
100
AcDbPolyline
 62
7
  6
CONTINUOUS
 90
19
 70
0
 10
-45.5766219238
 20
-24.8777753235
 10
-45.8273609417
 20
-22.1697597042
 10
-46.0485836428
 20
-19.4604082815
 10
-46.2402885
 20
-16.7498009847
 10
-46.4024646012
 20
-14.0377619933
 10
-46.5351199809
 20
-11.3246273352
 10
-46.6382824446
 20
-8.6112452263
 10
-46.7119492618
 20
-5.8979779071
 10
-46.7561228013
 20
-3.1846244942
 10
-46.7708393567
 20
-0.4711888067
 10
-46.7561231667
 20
2.242249623
 10
-46.7119499889
 20
4.9556090836
 10
-46.6382834226
 20
7.6688824878
 10
-46.5351210639
 20
10.3822696556
 10
-46.4024656792
 20
13.095409409
 10
-46.2402894668
 20
15.8074534527
 10
-46.0485843934
 20
18.518065732
 10
-45.8273613701
 20
21.2274220933
 10
-45.5766219238
 20
23.935442607
  0
LWPOLYLINE
  5
25E
100
AcDbEntity
  8
RACCORDO
100
AcDbPolyline
 62
253
  6
CONTINUOUS
 90
20
 70
0
 10
-45.293128013
 20
22.2136474036
 10
-45.4550685203
 20
20.3465767133
 10
-45.6118854271
 20
18.3017389817
 10
-45.7690020211
 20
16.0394760754
 10
-45.9207035403
 20
13.5993433549
 10
-46.0502502601
 20
11.1001726898
 10
-46.1535352932
 20
8.562624772
 10
-46.2345722676
 20
5.9661306668
 10
-46.2889544896
 20
3.3677566476
 10
-46.3151960762
 20
0.7845703919
 10
-46.3147898982
 20
-1.8003557033
 10
-46.2878552908
 20
-4.3809342109
 10
-46.2329347316
 20
-6.9736538952
 10
-46.1514838161
 20
-9.5618872358
 10
-46.0480480758
 20
-12.0898868348
 10
-45.9187597254
 20
-14.5773923854
 10
-45.767582192
 20
-17.004575123
 10
-45.6109548683
 20
-19.2564118529
 10
-45.4544891343
 20
-21.2946152283
 10
-45.2928594538
 20
-23.1575729407
  0
LWPOLYLINE
  5
25F
100
AcDbEntity
  8
RACCORDO
100
AcDbPolyline
 62
253
  6
CONTINUOUS
 90
21
 70
0
 10
-45.5659007314
 20
22.2281443049
 10
-45.7293375513
 20
20.3598976459
 10
-45.89213044
 20
18.3137978622
 10
-46.0525386433
 20
16.0501345686
 10
-46.2024114552
 20
13.6084449928
 10
-46.3310481814
 20
11.1076074725
 10
-46.4359499204
 20
8.5684469091
 10
-46.5165134399
 20
5.9703465886
 10
-46.5700535309
 20
3.3702280463
 10
-46.5964371393
 20
0.7853402737
 10
-46.596056586
 20
-1.8011602157
 10
-46.5689531725
 20
-4.383437272
 10
-46.5148222563
 20
-6.9778977909
 10
-46.4338806612
 20
-9.5677332326
 10
-46.3288438115
 20
-12.0973390936
 10
-46.2003917131
 20
-14.5865020866
 10
-46.0510282216
 20
-17.0152342315
 10
-45.89119949
 20
-19.2684684164
 10
-45.7288600342
 20
-21.3079342787
 10
-45.5657553449
 20
-23.1720695031
 10
-45.3919919715
 20
-25.0014170477
  0
LINE
  5
260
100
AcDbEntity
  8
RACCORDO
100
AcDbLine
 62
253
  6
CONTINUOUS
 10
-45.3919919715
 20
24.0590843312
 11
-45.5659007314
 21
22.2281443049
  0
LINE
  5
261
100
AcDbEntity
  8
DRAFT
100
AcDbLine
 62
7
  6
CONTINUOUS
 10
-45.5766219238
 20
23.935442607
 11
-45.4681354177
 21
25.0171629704
  0
LINE
  5
262
100
AcDbEntity
  8
RACCORDO
100
AcDbLine
 62
253
  6
CONTINUOUS
 10
-45.0082613867
 20
25.0774226304
 11
-45.293128013
 21
22.2136474036
  0
LINE
  5
263
100
AcDbEntity
  8
RACCORDO
100
AcDbLine
 62
253
  6
CONTINUOUS
 10
-45.2520191934
 20
25.4375171941
 11
-45.3919919715
 21
24.0590843312
  0
LINE
  5
264
100
AcDbEntity
  8
DRAFT
100
AcDbLine
 62
7
  6
CONTINUOUS
 10
-45.4681354177
 20
25.0171629704
 11
-45.3549146915
 21
26.0986941976
  0
LINE
  5
265
100
AcDbEntity
  8
RACCORDO
100
AcDbLine
 62
253
  6
CONTINUOUS
 10
-44.862701455
 20
26.4559713705
 11
-45.0082613867
 21
25.0774226304
  0
LINE
  5
266
100
AcDbEntity
  8
RACCORDO
100
AcDbLine
 62
253
  6
CONTINUOUS
 10
-45.1043407736
 20
26.8156117516
 11
-45.2520191934
 21
25.4375171941
  0
LINE
  5
267
100
AcDbEntity
  8
DRAFT
100
AcDbLine
 62
7
  6
CONTINUOUS
 10
-45.3549146915
 20
26.0986941976
 11
-45.2369617679
 21
27.1799821521
  0
LINE
  5
268
100
AcDbEntity
  8
RACCORDO
100
AcDbLine
 62
253
  6
CONTINUOUS
 10
-44.7870368378
 20
27.1450926427
 11
-44.862701455
 21
26.4559713705
  0
LWPOLYLINE
  5
269
100
AcDbEntity
  8
DRAFT
100
AcDbPolyline
 62
7
  6
CONTINUOUS
 90
10
 70
0
 10
-45.2369617679
 20
27.1799821521
 10
-45.1857338434
 20
27.6256561897
 10
-45.131262134
 20
28.0710453894
 10
-45.0735467558
 20
28.5161473191
 10
-45.0125874249
 20
28.960982148
 10
-44.9483846538
 20
29.4055248577
 10
-44.8809397821
 20
29.8497052845
 10
-44.8102533685
 20
30.2934984858
 10
-44.7363251584
 20
30.736924699
 10
-44.6591553016
 20
31.179981582
  0
LWPOLYLINE
  5
26A
100
AcDbEntity
  8
RACCORDO
100
AcDbPolyline
 62
253
  6
CONTINUOUS
 90
10
 70
0
 10
-44.2132981213
 20
31.1201939952
 10
-44.289916062
 20
30.6799329601
 10
-44.363317934
 20
30.2392921092
 10
-44.4335035849
 20
29.7982736773
 10
-44.5004740516
 20
29.3568528077
 10
-44.5642279874
 20
28.915058847
 10
-44.6247616997
 20
28.4729753932
 10
-44.682073896
 20
28.0306318779
 10
-44.7361656466
 20
27.5880035176
 10
-44.7870368378
 20
27.1450926427
  0
LWPOLYLINE
  5
26B
100
AcDbEntity
  8
RACCORDO
100
AcDbPolyline
 62
253
  6
CONTINUOUS
 90
10
 70
0
 10
-44.4895517939
 20
31.1485502105
 10
-44.5665560801
 20
30.7068555234
 10
-44.6403306123
 20
30.2647338437
 10
-44.7108741835
 20
29.8222085667
 10
-44.7781866409
 20
29.3792965695
 10
-44.8422661142
 20
28.9360277876
 10
-44.9031092501
 20
28.4924452337
 10
-44.9607150061
 20
28.0485789164
 10
-45.0150844174
 20
27.6044458265
 10
-45.1043407736
 20
26.8156117516
  0
LWPOLYLINE
  5
26C
100
AcDbEntity
  8
DRAFT
100
AcDbPolyline
 62
7
  6
CONTINUOUS
 90
97
 70
0
 10
-44.6591553016
 20
31.179981582
 10
-44.5967454303
 20
31.5087762165
 10
-44.5301423788
 20
31.8293802738
 10
-44.459348643
 20
32.1417966173
 10
-44.3838756114
 20
32.4462309579
 10
-44.3042166567
 20
32.7424833706
 10
-44.2218473218
 20
33.0299485942
 10
-44.1367942366
 20
33.3085846614
 10
-44.0490354989
 20
33.5784400653
 10
-43.9599740261
 20
33.839045721
 10
-43.8696542876
 20
34.0903583646
 10
-43.7780363068
 20
34.3324280929
 10
-43.6863963998
 20
34.5649261499
 10
-43.5947942688
 20
34.7876236199
 10
-43.5031743658
 20
35.0007562491
 10
-43.4126399977
 20
35.2046921683
 10
-43.3233594921
 20
35.3992866663
 10
-43.2351680011
 20
35.5846905112
 10
-43.1486687288
 20
35.7617145194
 10
-43.0639606451
 20
35.930289919
 10
-42.9809475195
 20
36.0904904638
 10
-42.8999393574
 20
36.2433400617
 10
-42.8209798732
 20
36.3888724283
 10
-42.744027416
 20
36.5270577331
 10
-42.6692635896
 20
36.6588239133
 10
-42.5969022972
 20
36.7839495609
 10
-42.5267312055
 20
36.9026591293
 10
-42.4582922044
 20
37.0165486517
 10
-42.391709958
 20
37.1255314506
 10
-42.3268608188
 20
37.2296962109
 10
-42.2629138155
 20
37.3309012155
 10
-42.1999152916
 20
37.4291898846
 10
-42.1378194565
 20
37.5245198914
 10
-42.0756567881
 20
37.6186201759
 10
-42.0133284308
 20
37.7117383424
 10
-41.9509334431
 20
37.803627164
 10
-41.8877989311
 20
37.8952728233
 10
-41.8236629036
 20
37.9870674868
 10
-41.7587873727
 20
38.0786189827
 10
-41.6932853809
 20
38.1697368399
 10
-41.6271708014
 20
38.2603736808
 10
-41.560429839
 20
38.3505770039
 10
-41.493134054
 20
38.4402986964
 10
-41.4253603535
 20
38.5294490961
 10
-41.3570319174
 20
38.6181180104
 10
-41.2879897004
 20
38.7065264994
 10
-41.2183709246
 20
38.7945419513
 10
-41.1480384195
 20
38.8822970483
 10
-41.0764214811
 20
38.9704106366
 10
-41.0036312643
 20
39.0587910129
 10
-40.9295565619
 20
39.1475297165
 10
-40.8532930015
 20
39.2375201735
 10
-40.7748858186
 20
39.3287622338
 10
-40.6942895681
 20
39.4212555176
 10
-40.6104637036
 20
39.5158927526
 10
-40.523401858
 20
39.6127520341
 10
-40.4331100138
 20
39.7117543151
 10
-40.3385660047
 20
39.8135562712
 10
-40.2396316451
 20
39.9183562057
 10
-40.1364445731
 20
40.0259544524
 10
-40.028396282
 20
40.1364105429
 10
-39.9154628022
 20
40.2497910406
 10
-39.7976675087
 20
40.366027867
 10
-39.6744729114
 20
40.4849785758
 10
-39.5458881402
 20
40.6066830479
 10
-39.4119034623
 20
40.7310998197
 10
-39.271953131
 20
40.8579645038
 10
-39.1260618046
 20
40.9873073079
 10
-38.9742042495
 20
41.1190964576
 10
-38.8157399492
 20
41.2529747427
 10
-38.6507740696
 20
41.38890823
 10
-38.4792009368
 20
41.5269294014
 10
-38.3000638483
 20
41.6667808355
 10
-38.113731126
 20
41.8082918905
 10
-37.9198340008
 20
41.9516318601
 10
-37.7163101322
 20
42.0970532013
 10
-37.5033087102
 20
42.2446596803
 10
-37.2806799909
 20
42.3943458505
 10
-37.045913207
 20
42.5460502575
 10
-36.7990400287
 20
42.7000163732
 10
-36.5400282184
 20
42.8559989398
 10
-36.2662712698
 20
43.0132037069
 10
-35.9772870627
 20
43.1720952365
 10
-35.6735573457
 20
43.3322076406
 10
-35.3539218534
 20
43.491352158
 10
-35.0175424955
 20
43.6499563162
 10
-34.6652576283
 20
43.8075929975
 10
-34.2984224716
 20
43.9607937369
 10
-33.9169616159
 20
44.1094546229
 10
-33.5209517099
 20
44.2536828121
 10
-33.1119769334
 20
44.3903289507
 10
-32.6897748378
 20
44.5193084182
 10
-32.2546096807
 20
44.6407109521
 10
-31.8088563322
 20
44.7516506337
 10
-31.3533071864
 20
44.8511678023
 10
-30.8871718162
 20
44.9402280306
 10
-30.4104510054
 20
45.0188337661
  0
LWPOLYLINE
  5
26D
100
AcDbEntity
  8
RACCORDO
100
AcDbPolyline
 62
253
  6
CONTINUOUS
 90
100
 70
0
 10
31.3148885058
 20
-45.5369298009
 10
31.8222207589
 20
-45.4507486248
 10
32.3071783615
 20
-45.356492836
 10
32.7697606991
 20
-45.2541605189
 10
33.2087132578
 20
-45.1426057997
 10
33.6252890282
 20
-45.0229700384
 10
34.0232489027
 20
-44.8986829767
 10
34.403112745
 20
-44.7700061428
 10
34.7643596742
 20
-44.6366752404
 10
35.1091900966
 20
-44.5013331173
 10
35.4373813437
 20
-44.3643748987
 10
35.7491556147
 20
-44.22540435
 10
36.0473811048
 20
-44.085878644
 10
36.3322886097
 20
-43.9459664488
 10
36.6036471911
 20
-43.8054989237
 10
36.8636327472
 20
-43.6654277985
 10
37.1126434354
 20
-43.52568005
 10
37.350281175
 20
-43.3863291176
 10
37.5775277788
 20
-43.2485471308
 10
37.7942157646
 20
-43.1125595041
 10
38.0005130074
 20
-42.9781420403
 10
38.1979045646
 20
-42.8457929784
 10
38.3863015534
 20
-42.7157219276
 10
38.5657933544
 20
-42.5877207186
 10
38.7381324639
 20
-42.4616610177
 10
38.9033549673
 20
-42.3376436977
 10
39.0614252195
 20
-42.2155691339
 10
39.2139880561
 20
-42.0950080685
 10
39.3613627068
 20
-41.9757852632
 10
39.5032302528
 20
-41.8580768472
 10
39.6402782673
 20
-41.7419805057
 10
39.7732660098
 20
-41.6268110459
 10
39.9014345073
 20
-41.5132544653
 10
40.0231942151
 20
-41.4034657858
 10
40.137505808
 20
-41.2984022133
 10
40.2454094109
 20
-41.1971085429
 10
40.3484347933
 20
-41.0988715024
 10
40.4463642238
 20
-41.0040296812
 10
40.539415992
 20
-40.91224587
 10
40.6297736748
 20
-40.8217925604
 10
40.7175257818
 20
-40.7327086808
 10
40.8025840225
 20
-40.6449558629
 10
40.886866477
 20
-40.5566899561
 10
40.9707711509
 20
-40.4675703378
 10
41.0538999343
 20
-40.3779374369
 10
41.1369765161
 20
-40.2869681789
 10
41.2203069009
 20
-40.194345919
 10
41.3035848383
 20
-40.1003867937
 10
41.386615575
 20
-40.0052167669
 10
41.4699019959
 20
-39.9081819594
 10
41.5529409608
 20
-39.8099357348
 10
41.6340288754
 20
-39.712565364
 10
41.7132435655
 20
-39.6158318713
 10
41.7905073456
 20
-39.5199746028
 10
41.863883788
 20
-39.4277992714
 10
41.9319725073
 20
-39.3411083594
 10
41.9961745945
 20
-39.2581009742
 10
42.0587558655
 20
-39.1761778262
 10
42.1202607709
 20
-39.0947277933
 10
42.1801449919
 20
-39.0143623173
 10
42.239040932
 20
-38.9343153906
 10
42.2974417218
 20
-38.8538904502
 10
42.3548542425
 20
-38.7737841173
 10
42.4104315639
 20
-38.6953202455
 10
42.463771408
 20
-38.6190390023
 10
42.5152763127
 20
-38.5444007991
 10
42.5653066465
 20
-38.4711100095
 10
42.6137647774
 20
-38.3993530855
 10
42.6607485259
 20
-38.3289439935
 10
42.7069113598
 20
-38.2590282131
 10
42.7522645131
 20
-38.1896357305
 10
42.7967968163
 20
-38.1207367138
 10
42.8411280157
 20
-38.0513866738
 10
42.8852678472
 20
-37.9816132621
 10
42.9292065175
 20
-37.9113887302
 10
42.9735343512
 20
-37.8396852282
 10
43.0184397078
 20
-37.7662216291
 10
43.0637340156
 20
-37.6912786531
 10
43.109442119
 20
-37.6146710542
 10
43.1558884061
 20
-37.5358127239
 10
43.2027482199
 20
-37.4552892603
 10
43.2490729388
 20
-37.3746731794
 10
43.2949682138
 20
-37.2936825231
 10
43.3403283649
 20
-37.212599225
 10
43.3838880725
 20
-37.133842229
 10
43.4248920387
 20
-37.0587847595
 10
43.4640959583
 20
-36.9860543977
 10
43.5025010588
 20
-36.913951737
 10
43.5401411763
 20
-36.8424908965
 10
43.5769825586
 20
-36.7716579422
 10
43.6139248197
 20
-36.6997109396
 10
43.6514044961
 20
-36.6258080711
 10
43.6889848617
 20
-36.550790815
 10
43.7262555736
 20
-36.4754420612
 10
43.7632288827
 20
-36.3996934357
 10
43.7998924878
 20
-36.3236132434
 10
43.8357993418
 20
-36.2481896283
 10
43.8707694898
 20
-36.173791137
 10
43.9049829948
 20
-36.1000494507
 10
43.9710541584
 20
-35.9550668659
  0
LWPOLYLINE
  5
26E
100
AcDbEntity
  8
RACCORDO
100
AcDbPolyline
 62
253
  6
CONTINUOUS
 90
133
 70
0
 10
31.3421128553
 20
-45.7851592535
 10
31.858465293
 20
-45.7005406806
 10
32.3521446
 20
-45.6041027416
 10
32.8230387721
 20
-45.4977131961
 10
33.2698091002
 20
-45.3835138818
 10
33.6937802023
 20
-45.2629505134
 10
34.0988093703
 20
-45.1364497519
 10
34.4854627647
 20
-45.0051218413
 10
34.8531810149
 20
-44.8703995801
 10
35.204095531
 20
-44.7326460076
 10
35.5380943521
 20
-44.5929843249
 10
35.8554883368
 20
-44.4523526054
 10
36.1589743297
 20
-44.3104769098
 10
36.4489489777
 20
-44.1679579497
 10
36.7252796961
 20
-44.0256209167
 10
36.9898041076
 20
-43.8832108204
 10
37.2431862765
 20
-43.7409932146
 10
37.4852199134
 20
-43.5996928018
 10
37.7164463912
 20
-43.4595854005
 10
37.9369044218
 20
-43.3212167509
 10
38.147018142
 20
-43.1848705664
 10
38.3478663146
 20
-43.050343801
 10
38.5395350979
 20
-42.9180318529
 10
38.7223706325
 20
-42.78811988
 10
38.8977690086
 20
-42.6599877267
 10
39.0658846338
 20
-42.5338533409
 10
39.2269090793
 20
-42.4098977774
 10
39.3822138683
 20
-42.2873472209
 10
39.5321918035
 20
-42.1661265447
 10
39.6766873583
 20
-42.0465929557
 10
39.816199521
 20
-41.9285578279
 10
39.9515689283
 20
-41.8115004351
 10
40.0820872171
 20
-41.6962265371
 10
40.2059674826
 20
-41.584574341
 10
40.3222668551
 20
-41.4777210451
 10
40.4321453792
 20
-41.3749139037
 10
40.5369908935
 20
-41.2750957949
 10
40.6366114348
 20
-41.1786573514
 10
40.7313561092
 20
-41.08546137
 10
40.8233441891
 20
-40.9935636923
 10
40.9126321673
 20
-40.9029976975
 10
40.9992235372
 20
-40.8138483072
 10
41.0850596046
 20
-40.724160621
 10
41.1704726102
 20
-40.6335784882
 10
41.2550885155
 20
-40.5424904832
 10
41.3397103318
 20
-40.4500191658
 10
41.4245676213
 20
-40.3558755245
 10
41.5093186357
 20
-40.2603997334
 10
41.5938814546
 20
-40.1636520191
 10
41.6787283367
 20
-40.0650455869
 10
41.7632570022
 20
-39.9652324715
 10
41.8458312262
 20
-39.8661572687
 10
41.9265423254
 20
-39.7677909283
 10
42.0051753624
 20
-39.6704933731
 10
42.0797710491
 20
-39.5768378151
 10
42.1489793207
 20
-39.488745347
 10
42.21430577
 20
-39.4045084388
 10
42.2780614601
 20
-39.3212518016
 10
42.340729873
 20
-39.2383751234
 10
42.4017109993
 20
-39.1567010278
 10
42.4616215964
 20
-39.075430054
 10
42.5211243494
 20
-38.9936613673
 10
42.57968942
 20
-38.9121236286
 10
42.636225895
 20
-38.832386661
 10
42.6904911084
 20
-38.7548864487
 10
42.7430205166
 20
-38.6789499689
 10
42.79394649
 20
-38.6044649639
 10
42.8432035477
 20
-38.5316077769
 10
42.8910505914
 20
-38.4600627329
 10
42.9380560616
 20
-38.3890145141
 10
42.9842016797
 20
-38.3185116529
 10
43.0295338482
 20
-38.2485037974
 10
43.0746764992
 20
-38.1780317975
 10
43.1196051591
 20
-38.1071232469
 10
43.1643305421
 20
-38.0357505625
 10
43.2094864473
 20
-37.9628736461
 10
43.2552252532
 20
-37.8881945906
 10
43.3013350066
 20
-37.8120072701
 10
43.3478830368
 20
-37.7341518624
 10
43.3952049006
 20
-37.6540044846
 10
43.4429199484
 20
-37.5721466087
 10
43.4900568893
 20
-37.4902249818
 10
43.5367950795
 20
-37.4079357749
 10
43.5829922954
 20
-37.3255380131
 10
43.6272792083
 20
-37.2455368325
 10
43.6689858193
 20
-37.1692672883
 10
43.7089441916
 20
-37.0953097411
 10
43.7480555283
 20
-37.022043978
 10
43.7863732682
 20
-36.949391143
 10
43.8239321624
 20
-36.8773081166
 10
43.861565445
 20
-36.8041920684
 10
43.8997233778
 20
-36.729121197
 10
43.9380088629
 20
-36.652829336
 10
43.9759770616
 20
-36.5761898944
 10
44.0136162264
 20
-36.4992339065
 10
44.0509262633
 20
-36.4219683047
 10
44.0874862597
 20
-36.3452852583
 10
44.1230873204
 20
-36.2696657982
 10
44.1578927143
 20
-36.1948055909
 10
44.1920457603
 20
-36.1204247194
 10
44.2251404002
 20
-36.0474451423
 10
44.2575510194
 20
-35.9750787991
 10
44.290556488
 20
-35.9004359245
 10
44.324484719
 20
-35.8226636932
 10
44.3589042941
 20
-35.7426398685
 10
44.3939154335
 20
-35.6600317748
 10
44.4295210776
 20
-35.5747194251
 10
44.4656438741
 20
-35.4867698933
 10
44.5022571768
 20
-35.3961256461
 10
44.5392814661
 20
-35.3028575461
 10
44.5767170044
 20
-35.206833062
 10
44.6146490281
 20
-35.1076832366
 10
44.652967533
 20
-35.0055392972
 10
44.691671514
 20
-34.900253633
 10
44.7309844079
 20
-34.7910336616
 10
44.7707658333
 20
-34.6780555435
 10
44.8109836669
 20
-34.5611866557
 10
44.8519723549
 20
-34.4391685935
 10
44.8937401968
 20
-34.3116091683
 10
44.9359984935
 20
-34.1789991361
 10
44.978594343
 20
-34.0414203159
 10
45.0214221564
 20
-33.8987818794
 10
45.0642518229
 20
-33.7513873722
 10
45.1067456577
 20
-33.5999395103
 10
45.1487556943
 20
-33.4445136295
 10
45.1901407396
 20
-33.2852057716
 10
45.2306093637
 20
-33.1227550003
 10
45.2700824538
 20
-32.957129187
 10
45.308465693
 20
-32.7883652031
 10
45.3455014431
 20
-32.617288811
 10
45.381082863
 20
-32.4441642453
 10
45.4152222156
 20
-32.2687011282
 10
45.4478731136
 20
-32.0908829331
  0
LWPOLYLINE
  5
26F
100
AcDbEntity
  8
DRAFT
100
AcDbPolyline
 62
7
  6
CONTINUOUS
 90
9
 70
0
 10
31.368773133
 20
-45.9611663663
 10
30.8148106507
 20
-46.041345443
 10
30.2604334499
 20
-46.118005262
 10
29.7056417523
 20
-46.1911465307
 10
29.1504144653
 20
-46.2607724017
 10
28.5947730883
 20
-46.3268810475
 10
28.038781714
 20
-46.3894656616
 10
27.4824618186
 20
-46.4485243572
 10
26.9257922613
 20
-46.5040601657
  0
LWPOLYLINE
  5
270
100
AcDbEntity
  8
RACCORDO
100
AcDbPolyline
 62
253
  6
CONTINUOUS
 90
9
 70
0
 10
26.8954392291
 20
-46.0775923604
 10
27.4491528571
 20
-46.0222856034
 10
28.0025289746
 20
-45.9634691726
 10
28.555597043
 20
-45.9011390499
 10
29.1083272712
 20
-45.8352981608
 10
29.6606306171
 20
-45.7659563768
 10
30.2124772672
 20
-45.6931165678
 10
30.763896636
 20
-45.6167746006
 10
31.3148885058
 20
-45.5369298009
  0
LWPOLYLINE
  5
271
100
AcDbEntity
  8
RACCORDO
100
AcDbPolyline
 62
253
  6
CONTINUOUS
 90
9
 70
0
 10
26.9079542945
 20
-46.326815903
 10
27.4635239479
 20
-46.2714042647
 10
28.0187756138
 20
-46.2124749722
 10
28.5736970475
 20
-46.1500283203
 10
29.1282567425
 20
-46.0840669465
 10
29.6824029406
 20
-46.0145964111
 10
30.2361042433
 20
-45.9416204001
 10
30.7893484908
 20
-45.8651403971
 10
31.3421128542
 20
-45.7851592465
  0
LINE
  5
272
100
AcDbEntity
  8
RACCORDO
100
AcDbLine
 62
253
  6
CONTINUOUS
 10
25.9775554785
 20
-46.1620091481
 11
26.8954392291
 21
-46.0775923604
  0
LINE
  5
273
100
AcDbEntity
  8
DRAFT
100
AcDbLine
 62
7
  6
CONTINUOUS
 10
26.9257922613
 20
-46.5040601657
 11
25.9869818123
 21
-46.5902504079
  0
LINE
  5
274
100
AcDbEntity
  8
RACCORDO
100
AcDbLine
 62
253
  6
CONTINUOUS
 10
25.9878904196
 20
-46.4113105105
 11
26.9079542945
 21
-46.326815903
  0
LINE
  5
275
100
AcDbEntity
  8
DRAFT
100
AcDbLine
 62
7
  6
CONTINUOUS
 10
25.9869818123
 20
-46.5902504079
 11
24.841424
 21
-46.6897268108
  0
LINE
  5
276
100
AcDbEntity
  8
RACCORDO
100
AcDbLine
 62
253
  6
CONTINUOUS
 10
24.5218607476
 20
-46.2878575035
 11
25.9775554785
 21
-46.1620091481
  0
LINE
  5
277
100
AcDbEntity
  8
RACCORDO
100
AcDbLine
 62
253
  6
CONTINUOUS
 10
24.5307228911
 20
-46.5370938493
 11
25.9878904196
 21
-46.4113105105
  0
LINE
  5
278
100
AcDbEntity
  8
DRAFT
100
AcDbLine
 62
7
  6
CONTINUOUS
 10
24.841424
 20
-46.6897268108
 11
23.6955970699
 21
-46.7846227379
  0
LINE
  5
279
100
AcDbEntity
  8
RACCORDO
100
AcDbLine
 62
253
  6
CONTINUOUS
 10
23.0655910649
 20
-46.4063006703
 11
24.5218607476
 21
-46.2878575035
  0
LINE
  5
27A
100
AcDbEntity
  8
RACCORDO
100
AcDbLine
 62
253
  6
CONTINUOUS
 10
23.0729789534
 20
-46.6554763055
 11
24.5307228911
 21
-46.5370938493
  0
LINE
  5
27B
100
AcDbEntity
  8
DRAFT
100
AcDbLine
 62
7
  6
CONTINUOUS
 10
23.6955970699
 20
-46.7846227379
 11
22.9315707733
 21
-46.8453420118
  0
LINE
  5
27C
100
AcDbEntity
  8
RACCORDO
100
AcDbLine
 62
253
  6
CONTINUOUS
 10
22.184543635
 20
-46.4765247966
 11
23.0655910649
 21
-46.4063006697
  0
LWPOLYLINE
  5
27D
100
AcDbEntity
  8
DRAFT
100
AcDbPolyline
 62
7
  6
CONTINUOUS
 90
16
 70
0
 10
22.9315707733
 20
-46.8453420118
 10
19.9455735924
 20
-47.0631359216
 10
16.9568613006
 20
-47.2498430858
 10
13.9654975037
 20
-47.4054793934
 10
10.9709018369
 20
-47.5301060074
 10
7.9737741294
 20
-47.6236859067
 10
4.97609528
 20
-47.6860838751
 10
1.9782875742
 20
-47.7172576145
 10
-1.0199602114
 20
-47.7172576517
 10
-4.0177684532
 20
-47.6860839615
 10
-7.0154487053
 20
-47.6236859915
 10
-10.0125783513
 20
-47.5301060655
 10
-13.0071755001
 20
-47.405479427
 10
-15.9985399919
 20
-47.2498431061
 10
-18.9872525226
 20
-47.0631359306
 10
-21.9732494867
 20
-46.8453420118
  0
LWPOLYLINE
  5
27E
100
AcDbEntity
  8
RACCORDO
100
AcDbPolyline
 62
253
  6
CONTINUOUS
 90
32
 70
0
 10
-21.1266464331
 20
-46.4835615912
 10
-20.2042769942
 20
-46.5512251705
 10
-19.184889152
 20
-46.6214722053
 10
-18.0582033731
 20
-46.69594845
 10
-16.8344589997
 20
-46.7730069205
 10
-15.5444185743
 20
-46.8477090116
 10
-14.1881446889
 20
-46.9196357227
 10
-12.7655547243
 20
-46.9892070111
 10
-11.3072032035
 20
-47.0527443769
 10
-9.8150458956
 20
-47.1096572955
 10
-8.287127945
 20
-47.1605383036
 10
-6.7481455967
 20
-47.2034842959
 10
-5.2047996123
 20
-47.2380278315
 10
-3.650402711
 20
-47.2646380484
 10
-2.0895714217
 20
-47.2828167532
 10
-0.5237193764
 20
-47.2925000772
 10
1.0485515537
 20
-47.2937525297
 10
2.6268429158
 20
-47.2862682325
 10
4.2128803448
 20
-47.269969761
 10
5.8049211403
 20
-47.2449339731
 10
7.3973649983
 20
-47.2110861
 10
9.0002627887
 20
-47.1677336292
 10
10.6035454734
 20
-47.1155671824
 10
12.1714375063
 20
-47.0565866562
 10
13.7074549511
 20
-46.9898337344
 10
15.2080788919
 20
-46.9162643271
 10
16.626994528
 20
-46.8407507247
 10
17.9644287795
 20
-46.7626249474
 10
19.2201824537
 20
-46.6825541107
 10
20.3473183706
 20
-46.6074155387
 10
21.3302120953
 20
-46.5395029398
 10
22.184543635
 20
-46.4765247966
  0
LWPOLYLINE
  5
27F
100
AcDbEntity
  8
RACCORDO
100
AcDbPolyline
 62
253
  6
CONTINUOUS
 90
33
 70
0
 10
-21.1336097618
 20
-46.7309878427
 10
-20.2109584795
 20
-46.7989317719
 10
-19.1913280412
 20
-46.8705523201
 10
-18.064311708
 20
-46.9454864401
 10
-16.8401288501
 20
-47.0218529777
 10
-15.5496654157
 20
-47.0966893105
 10
-14.1929964895
 20
-47.1691003939
 10
-12.7699361479
 20
-47.2381598795
 10
-11.3110629456
 20
-47.3016340943
 10
-9.8184259196
 20
-47.3589103836
 10
-8.2900384707
 20
-47.4095290173
 10
-6.7505146691
 20
-47.4523073545
 10
-5.2066402662
 20
-47.4869356326
 10
-3.6517748118
 20
-47.5134404973
 10
-2.0904157835
 20
-47.5316047739
 10
-0.5240334175
 20
-47.5413203757
 10
1.0487118759
 20
-47.5425043659
 10
2.6275418187
 20
-47.5350547427
 10
4.2141125524
 20
-47.51884866
 10
5.8066284285
 20
-47.4937887393
 10
7.3996252973
 20
-47.459906027
 10
9.0030930453
 20
-47.4168957841
 10
10.6068632357
 20
-47.364937999
 10
12.1752593628
 20
-47.3054749272
 10
13.7118394029
 20
-47.2389154309
 10
15.2129620393
 20
-47.1659493347
 10
16.6322766583
 20
-47.0897344155
 10
17.9701516491
 20
-47.0114575273
 10
19.2263679791
 20
-46.9322689808
 10
20.3538211395
 20
-46.8565020578
 10
21.3369158689
 20
-46.786808615
 10
22.1915023501
 20
-46.7234773337
 10
23.0729789534
 20
-46.6554763055
  0
LINE
  5
280
100
AcDbEntity
  8
RACCORDO
100
AcDbLine
 62
253
  6
CONTINUOUS
 10
-22.8436001761
 20
-46.5972102725
 11
-21.1336097618
 21
-46.7309878427
  0
LINE
  5
281
100
AcDbEntity
  8
DRAFT
100
AcDbLine
 62
7
  6
CONTINUOUS
 10
-21.9732494867
 20
-46.8453420118
 11
-23.1192305102
 21
-46.7535010459
  0
LINE
  5
282
100
AcDbEntity
  8
RACCORDO
100
AcDbLine
 62
253
  6
CONTINUOUS
 10
-23.1995253817
 20
-46.3181625466
 11
-21.1266464331
 21
-46.4835615912
  0
LINE
  5
283
100
AcDbEntity
  8
DRAFT
100
AcDbLine
 62
7
  6
CONTINUOUS
 10
-23.1192305102
 20
-46.7535010459
 11
-24.2649709825
 21
-46.6570782538
  0
LINE
  5
284
100
AcDbEntity
  8
RACCORDO
100
AcDbLine
 62
253
  6
CONTINUOUS
 10
-24.3010581276
 20
-46.4751272768
 11
-22.8436001761
 21
-46.5972102725
  0
LINE
  5
285
100
AcDbEntity
  8
RACCORDO
100
AcDbLine
 62
253
  6
CONTINUOUS
 10
-24.655365005
 20
-46.194165467
 11
-23.1995253817
 21
-46.3181625466
  0
LINE
  5
286
100
AcDbEntity
  8
DRAFT
100
AcDbLine
 62
7
  6
CONTINUOUS
 10
-24.2649709825
 20
-46.6570782538
 11
-25.4104519047
 21
-46.5560736123
  0
LINE
  5
287
100
AcDbEntity
  8
RACCORDO
100
AcDbLine
 62
253
  6
CONTINUOUS
 10
-25.3937680688
 20
-46.3787084474
 11
-24.3010581276
 21
-46.4751272768
  0
LINE
  5
288
100
AcDbEntity
  8
RACCORDO
100
AcDbLine
 62
253
  6
CONTINUOUS
 10
-25.383066951
 20
-46.1293899447
 11
-24.655365005
 21
-46.194165467
  0
LWPOLYLINE
  5
289
100
AcDbEntity
  8
DRAFT
100
AcDbPolyline
 62
7
  6
CONTINUOUS
 90
10
 70
0
 10
-25.4104519047
 20
-46.5560736123
 10
-25.9674705122
 20
-46.504060214
 10
-26.5241397213
 20
-46.4485244436
 10
-27.0804593825
 20
-46.3894657759
 10
-27.6364506344
 20
-46.326881182
 10
-28.1920920031
 20
-46.2607725462
 10
-28.7473194032
 20
-46.1911466673
 10
-29.3021113377
 20
-46.1180053704
 10
-29.8564888969
 20
-46.0413455052
 10
-30.410451859
 20
-45.9611663646
  0
LWPOLYLINE
  5
28A
100
AcDbEntity
  8
RACCORDO
100
AcDbPolyline
 62
253
  6
CONTINUOUS
 90
10
 70
0
 10
-30.3837940469
 20
-45.7851588798
 10
-29.8310289322
 20
-45.8651401526
 10
-29.2777841205
 20
-45.941620243
 10
-28.7240824409
 20
-46.0145963099
 10
-28.169936154
 20
-46.0840668612
 10
-27.6153765587
 20
-46.1500282279
 10
-27.0604551129
 20
-46.2124748863
 10
-26.5052032225
 20
-46.271404207
 10
-25.9496332323
 20
-46.3268158813
 10
-25.3937680689
 20
-46.3787084492
  0
LWPOLYLINE
  5
28B
100
AcDbEntity
  8
RACCORDO
100
AcDbPolyline
 62
253
  6
CONTINUOUS
 90
10
 70
0
 10
-30.3565672207
 20
-45.5369298007
 10
-29.8055743443
 20
-45.6167747344
 10
-29.2541542197
 20
-45.6931167987
 10
-28.7023070645
 20
-45.7659566678
 10
-28.1500034633
 20
-45.8352984705
 10
-27.5972732306
 20
-45.9011393414
 10
-27.0442054118
 20
-45.9634694227
 10
-26.4908297989
 20
-46.0222857933
 10
-25.9371169296
 20
-46.077592467
 10
-25.383066951
 20
-46.1293899447
  0
LWPOLYLINE
  5
28C
100
AcDbEntity
  8
DRAFT
100
AcDbPolyline
 62
7
  6
CONTINUOUS
 90
97
 70
0
 10
-30.410451859
 20
-45.9611663646
 10
-30.8953630884
 20
-45.8817631241
 10
-31.374126486
 20
-45.7897220349
 10
-31.8467410621
 20
-45.6850400365
 10
-32.3150046794
 20
-45.5667211433
 10
-32.7771169482
 20
-45.4357537981
 10
-33.2276796135
 20
-45.2951120118
 10
-33.6663716999
 20
-45.144355941
 10
-34.0935116119
 20
-44.9839181779
 10
-34.5046609895
 20
-44.8180838626
 10
-34.8993535005
 20
-44.6466310989
 10
-35.2780537769
 20
-44.4697773643
 10
-35.6377212709
 20
-44.292470764
 10
-35.9766201611
 20
-44.1155636184
 10
-36.2964861761
 20
-43.9382038058
 10
-36.5994872785
 20
-43.7627860313
 10
-36.8852329384
 20
-43.5898610136
 10
-37.1541143302
 20
-43.4188801877
 10
-37.4094724816
 20
-43.2505906675
 10
-37.6515443804
 20
-43.0851689087
 10
-37.8800938567
 20
-42.9224409619
 10
-38.0977523503
 20
-42.7626286835
 10
-38.3046243185
 20
-42.6058814068
 10
-38.5006061502
 20
-42.4520522706
 10
-38.6880171787
 20
-42.300918794
 10
-38.8672150343
 20
-42.1523375924
 10
-39.0378428057
 20
-42.0064541069
 10
-39.201148006
 20
-41.8634790432
 10
-39.3572985694
 20
-41.7233567589
 10
-39.5061273087
 20
-41.5861449441
 10
-39.6483791236
 20
-41.4522244469
 10
-39.7840725839
 20
-41.3216506401
 10
-39.9131899244
 20
-41.1943702644
 10
-40.036421604
 20
-41.0706013475
 10
-40.1537146268
 20
-40.9504624535
 10
-40.2651227881
 20
-40.8338370498
 10
-40.3714967303
 20
-40.7205904912
 10
-40.4726568251
 20
-40.6109965781
 10
-40.5687834164
 20
-40.5047832846
 10
-40.6612669808
 20
-40.4009969225
 10
-40.7501262808
 20
-40.2997177055
 10
-40.8353430198
 20
-40.2008665709
 10
-40.9182518738
 20
-40.1032504162
 10
-40.9989231929
 20
-40.0068562966
 10
-41.0772868475
 20
-39.9116977211
 10
-41.1544665788
 20
-39.8166207748
 10
-41.2306676865
 20
-39.7214369449
 10
-41.3056848723
 20
-39.6263348043
 10
-41.3800258264
 20
-39.5307257159
 10
-41.4538475255
 20
-39.4344496955
 10
-41.5269928905
 20
-39.3376665579
 10
-41.5994984658
 20
-39.2402672273
 10
-41.6714419704
 20
-39.1421296542
 10
-41.7427455632
 20
-39.0433756815
 10
-41.8132124619
 20
-38.9442621019
 10
-41.8827988432
 20
-38.8448117692
 10
-41.9515484628
 20
-38.7450017476
 10
-42.0193959486
 20
-38.645020235
 10
-42.0860661382
 20
-38.5453299185
 10
-42.1518341889
 20
-38.4454681646
 10
-42.2174601129
 20
-38.3442349903
 10
-42.2828953235
 20
-38.2418034974
 10
-42.3481881547
 20
-38.1380001209
 10
-42.414243717
 20
-38.0311042871
 10
-42.4811117459
 20
-37.9211434595
 10
-42.5487418763
 20
-37.8080889532
 10
-42.6178886926
 20
-37.6901352101
 10
-42.6887150845
 20
-37.567133303
 10
-42.7610570396
 20
-37.4392299856
 10
-42.8351783985
 20
-37.3050624454
 10
-42.9111763294
 20
-37.1646174153
 10
-42.988952042
 20
-37.0179050876
 10
-43.0684750342
 20
-36.8635970679
 10
-43.1502151278
 20
-36.7007049983
 10
-43.23370013
 20
-36.5302128579
 10
-43.3174865107
 20
-36.3537507914
 10
-43.4018100991
 20
-36.1705961629
 10
-43.4864329552
 20
-35.9814679546
 10
-43.5692017778
 20
-35.790160461
 10
-43.6495857126
 20
-35.597546185
 10
-43.728114922
 20
-35.402751784
 10
-43.804228512
 20
-35.2069544509
 10
-43.877644137
 20
-35.0108005598
 10
-43.9486438431
 20
-34.8136436643
 10
-44.0175133959
 20
-34.614721877
 10
-44.0844024365
 20
-34.4137427213
 10
-44.1491606129
 20
-34.2109979299
 10
-44.2116235762
 20
-34.0066017278
 10
-44.2718508926
 20
-33.8003327231
 10
-44.3297823187
 20
-33.5924116993
 10
-44.3850739616
 20
-33.3836164452
 10
-44.4376681562
 20
-33.1739001343
 10
-44.4876222078
 20
-32.9633095663
 10
-44.5347650141
 20
-32.7527635195
 10
-44.5790396261
 20
-32.5425685743
 10
-44.6205030444
 20
-32.3324187917
 10
-44.6591552748
 20
-32.1223144591
  0
LWPOLYLINE
  5
28D
100
AcDbEntity
  8
RACCORDO
100
AcDbPolyline
 62
253
  6
CONTINUOUS
 90
127
 70
0
 10
-44.4895477494
 20
-32.0909058184
 10
-44.4564976691
 20
-32.2708332711
 10
-44.4214427888
 20
-32.4507497701
 10
-44.3843467457
 20
-32.6306891968
 10
-44.34501611
 20
-32.8113906835
 10
-44.3035559768
 20
-32.9921853618
 10
-44.2604571485
 20
-33.1709769513
 10
-44.2157732587
 20
-33.3477491559
 10
-44.1695466303
 20
-33.5225410049
 10
-44.1224124998
 20
-33.6932930082
 10
-44.0745697572
 20
-33.8597985416
 10
-44.0261995233
 20
-34.0219488409
 10
-43.9780652583
 20
-34.1777637872
 10
-43.9306381743
 20
-34.3263817102
 10
-43.8839178286
 20
-34.4684190183
 10
-43.8379858006
 20
-34.6041538012
 10
-43.7931531651
 20
-34.733159251
 10
-43.7494613889
 20
-34.8557772102
 10
-43.7065250379
 20
-34.973456134
 10
-43.664375849
 20
-35.0863980078
 10
-43.6231981297
 20
-35.1943849274
 10
-43.5827692882
 20
-35.2982574954
 10
-43.543129446
 20
-35.3981389846
 10
-43.5043724922
 20
-35.494006841
 10
-43.4663211186
 20
-35.5864884907
 10
-43.428964052
 20
-35.6757711646
 10
-43.3924131575
 20
-35.7617392525
 10
-43.3566609612
 20
-35.8445551155
 10
-43.3221654029
 20
-35.9233130836
 10
-43.2885858952
 20
-35.9989441571
 10
-43.254674616
 20
-36.074331326
 10
-43.2202292483
 20
-36.1499269218
 10
-43.1855076509
 20
-36.2251669055
 10
-43.1499008143
 20
-36.301356105
 10
-43.11310115
 20
-36.3790983604
 10
-43.0754568389
 20
-36.457603338
 10
-43.0373389331
 20
-36.5360691521
 10
-42.9987075666
 20
-36.6145602728
 10
-42.9596454795
 20
-36.6928899667
 10
-42.9206871839
 20
-36.769993485
 10
-42.882030764
 20
-36.8455177286
 10
-42.8434164194
 20
-36.9200093071
 10
-42.8046929476
 20
-36.9937860204
 10
-42.766415437
 20
-37.0658325056
 10
-42.7279767437
 20
-37.1373333144
 10
-42.6874360347
 20
-37.2118591525
 10
-42.6438178325
 20
-37.2910731928
 10
-42.5979082139
 20
-37.37340229
 10
-42.5503833219
 20
-37.4575210188
 10
-42.5008817345
 20
-37.5439673128
 10
-42.4496319049
 20
-37.6322378339
 10
-42.398281293
 20
-37.7194602424
 10
-42.3472531975
 20
-37.8049560073
 10
-42.2961347756
 20
-37.8894577598
 10
-42.2454076362
 20
-37.972212169
 10
-42.1953795909
 20
-38.0527854855
 10
-42.1458204882
 20
-38.1316163795
 10
-42.0964191644
 20
-38.2092482994
 10
-42.0473032057
 20
-38.2855213662
 10
-41.9983962959
 20
-38.3605939966
 10
-41.9490447494
 20
-38.4354886173
 10
-41.8993215869
 20
-38.5100978619
 10
-41.8491566162
 20
-38.5845300474
 10
-41.7975982884
 20
-38.6601645938
 10
-41.7444687548
 20
-38.7371882207
 10
-41.6897114557
 20
-38.8156056064
 10
-41.6324346945
 20
-38.8965957811
 10
-41.5722666136
 20
-38.9805576441
 10
-41.5091802818
 20
-39.0673970425
 10
-41.4427214055
 20
-39.1576017681
 10
-41.3718015543
 20
-39.2524766795
 10
-41.296999837
 20
-39.3510680945
 10
-41.2206191621
 20
-39.4502435688
 10
-41.1440051548
 20
-39.548256087
 10
-41.0661381181
 20
-39.6464092954
 10
-40.9858872511
 20
-39.746057821
 10
-40.9024293982
 20
-39.8480880579
 10
-40.8167065195
 20
-39.9512052218
 10
-40.7302079336
 20
-40.0535542529
 10
-40.6433426799
 20
-40.1546725037
 10
-40.5558193407
 20
-40.2549235681
 10
-40.4680954514
 20
-40.3538084377
 10
-40.3805054153
 20
-40.45099235
 10
-40.2928415889
 20
-40.5467467944
 10
-40.2047472099
 20
-40.6414843761
 10
-40.1167259544
 20
-40.7346904193
 10
-40.0283563371
 20
-40.8268455379
 10
-39.937830189
 20
-40.9198155439
 10
-39.8452482177
 20
-41.0134360615
 10
-39.7504802666
 20
-41.1077771912
 10
-39.6512679493
 20
-41.2049692803
 10
-39.5474289688
 20
-41.3050134777
 10
-39.4390087981
 20
-41.4076831554
 10
-39.3239882812
 20
-41.514655435
 10
-39.2010961691
 20
-41.6267867877
 10
-39.0713673692
 20
-41.7427916658
 10
-38.9362378042
 20
-41.8611050646
 10
-38.7960962322
 20
-41.9811516523
 10
-38.650420408
 20
-42.1031419806
 10
-38.49930761
 20
-42.2267520283
 10
-38.343128705
 20
-42.3514523362
 10
-38.1812798421
 20
-42.4774959677
 10
-38.0123587419
 20
-42.6056909734
 10
-37.8361812699
 20
-42.73584914
 10
-37.6525845161
 20
-42.8677571133
 10
-37.4601146335
 20
-43.0020821745
 10
-37.2584453566
 20
-43.1386236252
 10
-37.0474500684
 20
-43.2770140104
 10
-36.8259033479
 20
-43.4175479968
 10
-36.5933217824
 20
-43.5599624928
 10
-36.3497071624
 20
-43.703666435
 10
-36.0945165399
 20
-43.8483684323
 10
-35.8279246907
 20
-43.9933393135
 10
-35.5492712444
 20
-44.1382898313
 10
-35.2567710854
 20
-44.2834324181
 10
-34.950608991
 20
-44.4278997114
 10
-34.6303270154
 20
-44.5711058009
 10
-34.2931233453
 20
-44.7133586038
 10
-33.9386797404
 20
-44.853693428
 10
-33.5671076975
 20
-44.9909481705
 10
-33.176170836
 20
-45.1247664778
 10
-32.7664149437
 20
-45.2536759124
 10
-32.3372813129
 20
-45.3765206752
 10
-31.8848382089
 20
-45.4928498756
 10
-31.4077398789
 20
-45.6011616265
 10
-30.9073526796
 20
-45.6992424361
 10
-30.383794048
 20
-45.7851588867
  0
LWPOLYLINE
  5
28E
100
AcDbEntity
  8
RACCORDO
100
AcDbPolyline
 62
253
  6
CONTINUOUS
 90
127
 70
0
 10
-44.2132981213
 20
-32.0625267117
 10
-44.1809074679
 20
-32.2395115287
 10
-44.1464805986
 20
-32.4165370504
 10
-44.1100175087
 20
-32.593603107
 10
-44.0713542897
 20
-32.7713785142
 10
-44.030654767
 20
-32.9491940011
 10
-43.9884108697
 20
-33.1250427829
 10
-43.944504652
 20
-33.2989724921
 10
-43.8990547019
 20
-33.4709361911
 10
-43.85290842
 20
-33.6387863143
 10
-43.8059636934
 20
-33.8025516601
 10
-43.7583239102
 20
-33.9622052283
 10
-43.7111453742
 20
-34.1155168428
 10
-43.6646546215
 20
-34.2617161344
 10
-43.6186269637
 20
-34.4015763528
 10
-43.5735421309
 20
-34.53518322
 10
-43.52959357
 20
-34.6621098437
 10
-43.4865893905
 20
-34.7827856409
 10
-43.4444310949
 20
-34.8985804472
 10
-43.403102891
 20
-35.0096580652
 10
-43.3626215933
 20
-35.1158563854
 10
-43.3229373394
 20
-35.218055914
 10
-43.2840534347
 20
-35.3163163234
 10
-43.2459673181
 20
-35.4105791998
 10
-43.208620155
 20
-35.5015476279
 10
-43.1719613171
 20
-35.5893867231
 10
-43.1360419731
 20
-35.6739322991
 10
-43.1009558904
 20
-35.7553933268
 10
-43.067115335
 20
-35.8329089286
 10
-43.0341085405
 20
-35.9073408629
 10
-43.0007930012
 20
-35.9814816477
 10
-42.9669679576
 20
-36.0558852653
 10
-42.9328341845
 20
-36.1299977366
 10
-42.8978512045
 20
-36.204949136
 10
-42.8617021662
 20
-36.2814289235
 10
-42.8247037711
 20
-36.3587473324
 10
-42.787265859
 20
-36.4359655748
 10
-42.7493534431
 20
-36.5131091386
 10
-42.711001524
 20
-36.5901525337
 10
-42.6727250633
 20
-36.6660807701
 10
-42.6347685991
 20
-36.7403894212
 10
-42.5968877731
 20
-36.8135832313
 10
-42.5588642387
 20
-36.8861610374
 10
-42.5213000521
 20
-36.9570740409
 10
-42.4835932863
 20
-37.0273712677
 10
-42.4437193459
 20
-37.1006977588
 10
-42.4008261467
 20
-37.1786871964
 10
-42.3557652714
 20
-37.259704891
 10
-42.309067467
 20
-37.342493016
 10
-42.2603912949
 20
-37.4275581827
 10
-42.2100778926
 20
-37.5143931472
 10
-42.1596821838
 20
-37.6002199168
 10
-42.1095549927
 20
-37.6843481943
 10
-42.0593456914
 20
-37.7674686319
 10
-42.009557301
 20
-37.848875213
 10
-41.9604407341
 20
-37.9281531501
 10
-41.911745355
 20
-38.0057177597
 10
-41.8632218733
 20
-38.0821082059
 10
-41.8149934062
 20
-38.1571691657
 10
-41.7669370093
 20
-38.2310562894
 10
-41.7184341903
 20
-38.3047749766
 10
-41.6696242415
 20
-38.3781823779
 10
-41.6203679007
 20
-38.4514213802
 10
-41.5696286777
 20
-38.5259256423
 10
-41.5174585919
 20
-38.6016998737
 10
-41.4638054485
 20
-38.6787389706
 10
-41.4074762346
 20
-38.7584614482
 10
-41.3483649682
 20
-38.8410727026
 10
-41.2865772194
 20
-38.9263664304
 10
-41.2212371282
 20
-39.0151432231
 10
-41.151329908
 20
-39.1087115631
 10
-41.0778696868
 20
-39.2057615059
 10
-41.0030241766
 20
-39.3031664257
 10
-40.927810637
 20
-39.3995837222
 10
-40.8512118269
 20
-39.4963559777
 10
-40.7723439049
 20
-39.5943847649
 10
-40.6903899228
 20
-39.6946528255
 10
-40.6061665414
 20
-39.7961767211
 10
-40.5212404423
 20
-39.8969089931
 10
-40.4359452831
 20
-39.9963617325
 10
-40.3499475849
 20
-40.095023182
 10
-40.2638135669
 20
-40.192310655
 10
-40.1778176491
 20
-40.2879119678
 10
-40.0916856764
 20
-40.3821398451
 10
-40.0051610248
 20
-40.4753490093
 10
-39.9187440303
 20
-40.5670677095
 10
-39.8319345591
 20
-40.6577681083
 10
-39.7429751023
 20
-40.7492203856
 10
-39.652045382
 20
-40.8413694777
 10
-39.5589655548
 20
-40.9342701144
 10
-39.4614384494
 20
-41.0298564327
 10
-39.3594147161
 20
-41.1283277075
 10
-39.2529432178
 20
-41.2294834554
 10
-39.1398738034
 20
-41.334657465
 10
-39.0190763678
 20
-41.4449346161
 10
-38.8916801563
 20
-41.5592278899
 10
-38.7589240997
 20
-41.6756133504
 10
-38.6212535938
 20
-41.7936622768
 10
-38.4782228312
 20
-41.9138022798
 10
-38.3297342052
 20
-42.0353945527
 10
-38.1763134958
 20
-42.1580717925
 10
-38.0174346343
 20
-42.2822004617
 10
-37.851422258
 20
-42.4082424301
 10
-37.6783250638
 20
-42.5362910106
 10
-37.4980939147
 20
-42.6662516388
 10
-37.3089066212
 20
-42.7983041636
 10
-37.1107047538
 20
-42.9326457922
 10
-36.9035462322
 20
-43.0690778424
 10
-36.6857834191
 20
-43.2071863824
 10
-36.4572017337
 20
-43.3472373043
 10
-36.2180153277
 20
-43.4889633972
 10
-35.967219869
 20
-43.6311515936
 10
-35.7051949387
 20
-43.7737378559
 10
-35.4315608607
 20
-43.916785746
 10
-35.1441747081
 20
-44.0592743517
 10
-34.8433160962
 20
-44.2013538727
 10
-34.5287055584
 20
-44.3428742856
 10
-34.1973618649
 20
-44.4823652052
 10
-33.8490617384
 20
-44.620241337
 10
-33.4840289381
 20
-44.7560891064
 10
-33.0999532952
 20
-44.8871971257
 10
-32.6973410569
 20
-45.0138501764
 10
-32.2756870317
 20
-45.1357663423
 10
-31.8311645576
 20
-45.2493861285
 10
-31.3624987521
 20
-45.3535250138
 10
-30.8709660924
 20
-45.4493722381
 10
-30.3565672207
 20
-45.5369298007
  0
LWPOLYLINE
  5
28F
100
AcDbEntity
  8
DRAFT
100
AcDbPolyline
 62
7
  6
CONTINUOUS
 90
9
 70
0
 10
-44.6591552748
 20
-32.1223144591
 10
-44.7363256345
 20
-31.6792542252
 10
-44.8102540727
 20
-31.2358265483
 10
-44.8809404401
 20
-30.7920337713
 10
-44.9483847936
 20
-30.3478570654
 10
-45.0125867745
 20
-29.9033199674
 10
-45.0735456379
 20
-29.458488419
 10
-45.1312610686
 20
-29.0133860293
 10
-45.1857331509
 20
-28.5679940356
  0
LWPOLYLINE
  5
290
100
AcDbEntity
  8
RACCORDO
100
AcDbPolyline
 62
253
  6
CONTINUOUS
 90
9
 70
0
 10
-45.0150844583
 20
-28.5467781988
 10
-44.9607151178
 20
-28.9909107473
 10
-44.9031094166
 20
-29.4347767027
 10
-44.842266434
 20
-29.8783582342
 10
-44.7781871024
 20
-30.3216261738
 10
-44.7108743797
 20
-30.764540023
 10
-44.6403299408
 20
-31.2070706759
 10
-44.5665540044
 20
-31.6492004074
 10
-44.4895477186
 20
-32.0909058127
  0
LWPOLYLINE
  5
291
100
AcDbEntity
  8
RACCORDO
100
AcDbPolyline
 62
253
  6
CONTINUOUS
 90
9
 70
0
 10
-44.7361655043
 20
-28.5303373392
 10
-44.682073643
 20
-28.972966525
 10
-44.6247613677
 20
-29.4153105866
 10
-44.5642276033
 20
-29.8573943037
 10
-44.5004736474
 20
-30.2991882486
 10
-44.4335032075
 20
-30.7406088349
 10
-44.3633176353
 20
-31.1816267202
 10
-44.2899158891
 20
-31.6222667573
 10
-44.2132981213
 20
-32.0625267117
  0
LINE
  5
292
100
AcDbEntity
  8
DRAFT
100
AcDbLine
 62
7
  6
CONTINUOUS
 10
-45.1857331509
 20
-28.5679940356
 11
-45.276805186
 21
-27.7619149859
  0
LINE
  5
293
100
AcDbEntity
  8
RACCORDO
100
AcDbLine
 62
253
  6
CONTINUOUS
 10
-45.1043407642
 20
-27.7579445531
 11
-45.0150844583
 21
-28.5467781988
  0
LINE
  5
294
100
AcDbEntity
  8
RACCORDO
100
AcDbLine
 62
253
  6
CONTINUOUS
 10
-44.8251095393
 20
-27.742878366
 11
-44.7361655043
 21
-28.5303373392
  0
LWPOLYLINE
  5
295
100
AcDbEntity
  8
RACCORDO
100
AcDbPolyline
 62
253
  6
CONTINUOUS
 90
16
 70
0
 10
-22.2444497017
 20
-23.3260432638
 10
-22.3082073108
 20
-23.2677912648
 10
-22.3683415197
 20
-23.2063014493
 10
-22.4248522602
 20
-23.1415737637
 10
-22.4779301807
 20
-23.0733773948
 10
-22.5273844805
 20
-23.0019430382
 10
-22.5726429294
 20
-22.9279629127
 10
-22.613665759
 20
-22.8513405922
 10
-22.6504926022
 20
-22.7721724014
 10
-22.6826703702
 20
-22.6914397178
 10
-22.7100965587
 20
-22.60909351
 10
-22.7328735803
 20
-22.5251827448
 10
-22.7508557798
 20
-22.440835842
 10
-22.7639946107
 20
-22.3564289478
 10
-22.7723385982
 20
-22.2715859069
 10
-22.7758877277
 20
-22.1863067122
  0
LWPOLYLINE
  5
296
100
AcDbEntity
  8
RACCORDO
100
AcDbPolyline
 62
253
  6
CONTINUOUS
 90
7
 70
0
 10
-22.2344408564
 20
21.7952805029
 10
-22.2004528959
 20
21.8499854598
 10
-22.1636078102
 20
21.9026930047
 10
-22.1240241131
 20
21.9532804683
 10
-22.0818138907
 20
22.0016225801
 10
-22.0370912259
 20
22.0475996841
 10
-21.9899901048
 20
22.0911164342
  0
LWPOLYLINE
  5
297
100
AcDbEntity
  8
RACCORDO
100
AcDbPolyline
 62
253
  6
CONTINUOUS
 90
22
 70
0
 10
-22.2344408564
 20
21.7952805029
 10
-22.1994819693
 20
21.8479239881
 10
-22.1617311453
 20
21.8981356801
 10
-22.121372028
 20
21.9457859253
 10
-22.0783820138
 20
21.9909503145
 10
-22.0331200394
 20
22.0332925543
 10
-21.9864552321
 20
22.0722030458
 10
-21.9387425034
 20
22.1076746619
 10
-21.8901824429
 20
22.1398166087
 10
-21.8415410276
 20
22.1684043849
 10
-21.793265962
 20
22.1935195432
 10
-21.7454474182
 20
22.215452013
 10
-21.6983278499
 20
22.2343856187
 10
-21.6522011105
 20
22.2504841853
 10
-21.607152666
 20
22.2639851366
 10
-21.5630657378
 20
22.2751519736
 10
-21.5200974246
 20
22.2841555275
 10
-21.4783272609
 20
22.2911774992
 10
-21.4374812005
 20
22.2964256603
 10
-21.3975126113
 20
22.3000332848
 10
-21.3586105013
 20
22.302107017
 10
-21.3208320187
 20
22.3027677059
  0
LWPOLYLINE
  5
298
100
AcDbEntity
  8
RACCORDO
100
AcDbPolyline
 62
253
  6
CONTINUOUS
 90
16
 70
0
 10
-21.9899901048
 20
22.0911164342
 10
-21.951768917
 20
22.1231853995
 10
-21.9120031219
 20
22.1537959681
 10
-21.8707324423
 20
22.1828675324
 10
-21.8278712281
 20
22.210405942
 10
-21.7835922947
 20
22.2362439359
 10
-21.7383638287
 20
22.2600880605
 10
-21.6922916262
 20
22.2819227406
 10
-21.6454551858
 20
22.3017315181
 10
-21.5983493633
 20
22.3193231128
 10
-21.5510953846
 20
22.3347429605
 10
-21.5037969821
 20
22.3480507714
 10
-21.4569678307
 20
22.3591825581
 10
-21.4108626418
 20
22.3682148184
 10
-21.3654510893
 20
22.3753080497
 10
-21.320826521
 20
22.3805749426
  0
LWPOLYLINE
  5
299
100
AcDbEntity
  8
RACCORDO
100
AcDbPolyline
 62
253
  6
CONTINUOUS
 90
16
 70
0
 10
-22.2444497017
 20
22.3837105473
 10
-22.1933698671
 20
22.4259897191
 10
-22.1403007494
 20
22.4660573014
 10
-22.0852423215
 20
22.5039133182
 10
-22.027891277
 20
22.5397432911
 10
-21.9685508466
 20
22.5733617419
 10
-21.9081308064
 20
22.604212199
 10
-21.8466010808
 20
22.6321678441
 10
-21.7839916494
 20
22.6573555412
 10
-21.7213023874
 20
22.6795993453
 10
-21.6585384814
 20
22.6987777036
 10
-21.5956946545
 20
22.7150122033
 10
-21.5337551219
 20
22.7284916065
 10
-21.4730479481
 20
22.73927884
 10
-21.4132450199
 20
22.7473109956
 10
-21.3543463078
 20
22.7525880794
  0
LWPOLYLINE
  5
29A
100
AcDbEntity
  8
0
100
AcDbPolyline
 62
7
  6
CONTINUOUS
 90
31
 70
0
 10
4.6958412865
 20
-27.8247944448
 10
4.7196464136
 20
-27.8240376541
 10
4.7433441285
 20
-27.8225464916
 10
4.7669344396
 20
-27.8203209563
 10
4.7904487263
 20
-27.8174256273
 10
4.813855625
 20
-27.8137959217
 10
4.837061032
 20
-27.8092380942
 10
4.8600807161
 20
-27.8037874009
 10
4.8828989274
 20
-27.7974085764
 10
4.9053742884
 20
-27.7898020882
 10
4.927631022
 20
-27.7809414797
 10
4.9495449274
 20
-27.770853187
 10
4.9706019943
 20
-27.7593170101
 10
4.9907718698
 20
-27.7462209441
 10
5.0100849226
 20
-27.731676957
 10
5.0281182192
 20
-27.7158008056
 10
5.0447371525
 20
-27.6984675941
 10
5.0600763267
 20
-27.6798021726
 10
5.0741166171
 20
-27.6602949249
 10
5.0868186188
 20
-27.6399704454
 10
5.0982217186
 20
-27.6188041068
 10
5.1084249765
 20
-27.5972124782
 10
5.1174215365
 20
-27.5752824181
 10
5.1252182314
 20
-27.5529270513
 10
5.1319346542
 20
-27.5303023587
 10
5.1376096714
 20
-27.507432849
 10
5.1422043935
 20
-27.4842940023
 10
5.1457217812
 20
-27.4609682614
 10
5.1481628133
 20
-27.4374831053
 10
5.1495264863
 20
-27.4138110475
 10
5.1498127875
 20
-27.3899520839
  0
LINE
  5
29B
100
AcDbEntity
  8
0
100
AcDbLine
 62
7
  6
CONTINUOUS
 10
5.8383088552
 20
-29.3789677126
 11
5.2761762652
 21
-29.3789677126
  0
LINE
  5
29C
100
AcDbEntity
  8
0
100
AcDbLine
 62
7
  6
CONTINUOUS
 10
4.3812359882
 20
-29.3789677126
 11
3.7991794456
 21
-29.3789677126
  0
LINE
  5
29D
100
AcDbEntity
  8
0
100
AcDbLine
 62
7
  6
CONTINUOUS
 10
3.6275686433
 20
-29.3789673582
 11
3.0116266433
 21
-29.3789673582
  0
LINE
  5
29E
100
AcDbEntity
  8
0
100
AcDbLine
 62
7
  6
CONTINUOUS
 10
1.9031076433
 20
-29.3789673582
 11
1.3250406433
 21
-29.3789673582
  0
LINE
  5
29F
100
AcDbEntity
  8
0
100
AcDbLine
 62
7
  6
CONTINUOUS
 10
1.2332726433
 20
-29.3789673582
 11
0.6615666433
 21
-29.3789673582
  0
LINE
  5
2A0
100
AcDbEntity
  8
0
100
AcDbLine
 62
7
  6
CONTINUOUS
 10
-0.1533633567
 20
-29.3789673582
 11
-0.2353263567
 21
-29.3789673582
  0
LINE
  5
2A1
100
AcDbEntity
  8
0
100
AcDbLine
 62
7
  6
CONTINUOUS
 10
-1.0470223567
 20
-29.3789673582
 11
-1.6061113567
 21
-29.3789673582
  0
LINE
  5
2A2
100
AcDbEntity
  8
0
100
AcDbLine
 62
7
  6
CONTINUOUS
 10
-1.9207163567
 20
-29.3789673582
 11
-2.5051243567
 21
-29.3789673582
  0
LINE
  5
2A3
100
AcDbEntity
  8
0
100
AcDbLine
 62
7
  6
CONTINUOUS
 10
-3.6219363567
 20
-29.3789673582
 11
-4.1369463567
 21
-29.3789673582
  0
LINE
  5
2A4
100
AcDbEntity
  8
0
100
AcDbLine
 62
7
  6
CONTINUOUS
 10
2.8602346433
 20
-28.8200473582
 11
2.0643676433
 21
-28.8200473582
  0
LINE
  5
2A5
100
AcDbEntity
  8
0
100
AcDbLine
 62
7
  6
CONTINUOUS
 10
2.7434406433
 20
-28.3875573582
 11
2.1839116433
 21
-28.3875573582
  0
LINE
  5
2A6
100
AcDbEntity
  8
0
100
AcDbLine
 62
7
  6
CONTINUOUS
 10
4.6945816056
 20
-28.283318283
 11
4.3812359882
 21
-28.283318283
  0
LINE
  5
2A7
100
AcDbEntity
  8
0
100
AcDbLine
 62
7
  6
CONTINUOUS
 10
4.6958412865
 20
-27.8247944448
 11
4.3618578974
 21
-27.8247944448
  0
LWPOLYLINE
  5
2A8
100
AcDbEntity
  8
RACCORDO
100
AcDbPolyline
 62
253
  6
CONTINUOUS
 90
7
 70
0
 10
-21.9899901048
 20
-23.0334491507
 10
-22.0370989918
 20
-22.989924554
 10
-22.08182869
 20
-22.9439389446
 10
-22.1240451764
 20
-22.8955877022
 10
-22.1636343403
 20
-22.8449905269
 10
-22.2004840567
 20
-22.7922727248
 10
-22.2344757653
 20
-22.7375569959
  0
LWPOLYLINE
  5
2A9
100
AcDbEntity
  8
RACCORDO
100
AcDbPolyline
 62
253
  6
CONTINUOUS
 90
7
 70
0
 10
-22.2344751614
 20
-22.7375600986
 10
-22.2361863621
 20
-22.7348548775
 10
-22.2378655088
 20
-22.7321286436
 10
-22.2395124473
 20
-22.7293816354
 10
-22.2411270294
 20
-22.7266140947
 10
-22.2427091128
 20
-22.7238262668
 10
-22.2442585612
 20
-22.7210184001
  0
LWPOLYLINE
  5
2AA
100
AcDbEntity
  8
RACCORDO
100
AcDbPolyline
 62
253
  6
CONTINUOUS
 90
7
 70
0
 10
-22.2442585612
 20
-22.7210184001
 10
-22.2454810338
 20
-22.7187382515
 10
-22.2467251038
 20
-22.7164662865
 10
-22.2479908286
 20
-22.7142023172
 10
-22.2492782696
 20
-22.7119461574
 10
-22.2505874926
 20
-22.7096976221
 10
-22.2519185674
 20
-22.707456528
  0
LWPOLYLINE
  5
2AB
100
AcDbEntity
  8
RACCORDO
100
AcDbPolyline
 62
253
  6
CONTINUOUS
 90
10
 70
0
 10
-22.3968884527
 20
-22.1763817198
 10
-22.3941397987
 20
-22.2480565113
 10
-22.3869044063
 20
-22.3168348606
 10
-22.3757056546
 20
-22.3824358253
 10
-22.3610747219
 20
-22.4444855041
 10
-22.3435413447
 20
-22.5030514027
 10
-22.3235090288
 20
-22.5586051835
 10
-22.3013109703
 20
-22.6112836687
 10
-22.2773312962
 20
-22.6608956818
 10
-22.2519185674
 20
-22.707456528
  0
LINE
  5
2AC
100
AcDbEntity
  8
RACCORDO
100
AcDbLine
 62
253
  6
CONTINUOUS
 10
-22.7758877277
 20
-22.1863067122
 11
-22.7852498993
 21
-17.5839537619
  0
LINE
  5
2AD
100
AcDbEntity
  8
RACCORDO
100
AcDbLine
 62
253
  6
CONTINUOUS
 10
-22.7852498993
 20
-17.5839537619
 11
-22.7928357271
 21
-12.6521606898
  0
LINE
  5
2AE
100
AcDbEntity
  8
RACCORDO
100
AcDbLine
 62
253
  6
CONTINUOUS
 10
-22.7928357271
 20
-12.6521606898
 11
-22.797986266
 21
-7.5277162384
  0
LINE
  5
2AF
100
AcDbEntity
  8
RACCORDO
100
AcDbLine
 62
253
  6
CONTINUOUS
 10
-22.797986266
 20
-7.5277162384
 11
-22.8003022881
 21
-2.7574550046
  0
LINE
  5
2B0
100
AcDbEntity
  8
RACCORDO
100
AcDbLine
 62
253
  6
CONTINUOUS
 10
-22.8003022881
 20
-2.7574550046
 11
-22.79946044
 21
4.1583979145
  0
LINE
  5
2B1
100
AcDbEntity
  8
RACCORDO
100
AcDbLine
 62
253
  6
CONTINUOUS
 10
-22.79946044
 20
4.1583979145
 11
-22.7958186417
 21
9.0884338494
  0
LINE
  5
2B2
100
AcDbEntity
  8
RACCORDO
100
AcDbLine
 62
253
  6
CONTINUOUS
 10
-22.7958186417
 20
9.0884338494
 11
-22.7893386156
 21
14.1909798147
  0
LWPOLYLINE
  5
2B3
100
AcDbEntity
  8
RACCORDO
100
AcDbPolyline
 62
253
  6
CONTINUOUS
 90
3
 70
0
 10
-22.7893386156
 20
14.1909798147
 10
-22.7808153896
 20
18.9561354494
 10
-22.7758877265
 20
21.2439740077
  0
LWPOLYLINE
  5
2B4
100
AcDbEntity
  8
RACCORDO
100
AcDbPolyline
 62
253
  6
CONTINUOUS
 90
28
 70
0
 10
-22.2268699463
 20
21.2287807083
 10
-22.2250259328
 20
21.2845460479
 10
-22.2196250898
 20
21.3411078002
 10
-22.2104967077
 20
21.3982247962
 10
-22.1974058909
 20
21.4559300927
 10
-22.1802522082
 20
21.5136276059
 10
-22.1592676217
 20
21.5701515508
 10
-22.1346294892
 20
21.6250329229
 10
-22.1063528438
 20
21.6782450801
 10
-22.0746650563
 20
21.7293654155
 10
-22.0396707648
 20
21.7782507771
 10
-22.0015856187
 20
21.8246223414
 10
-21.9609336927
 20
21.867953206
 10
-21.9178037513
 20
21.9082865732
 10
-21.872606571
 20
21.9453648469
 10
-21.8265646614
 20
21.9784757901
 10
-21.780310231
 20
22.0076039814
 10
-21.7339399262
 20
22.033094846
 10
-21.6879900837
 20
22.0550261125
 10
-21.642902712
 20
22.0735754559
 10
-21.5987864447
 20
22.0890620314
 10
-21.5556348989
 20
22.1017960504
 10
-21.5137011311
 20
22.1119827434
 10
-21.4730692661
 20
22.119867119
 10
-21.4334176118
 20
22.1257257031
 10
-21.3946976227
 20
22.129730908
 10
-21.3571478702
 20
22.132018197
 10
-21.3208428768
 20
22.1327464677
  0
LWPOLYLINE
  5
2B5
100
AcDbEntity
  8
RACCORDO
100
AcDbPolyline
 62
253
  6
CONTINUOUS
 90
10
 70
0
 10
-22.3968872353
 20
21.2340490594
 10
-22.3944364834
 20
21.2995863806
 10
-22.3879945549
 20
21.3649533141
 10
-22.3775695044
 20
21.4298487402
 10
-22.3631890258
 20
21.4940016457
 10
-22.3449152372
 20
21.5571721566
 10
-22.3228203446
 20
21.6191105886
 10
-22.2969756077
 20
21.6795848507
 10
-22.2674755816
 20
21.7383817138
 10
-22.2344371485
 20
21.7952814813
  0
LWPOLYLINE
  5
2B6
100
AcDbEntity
  8
RACCORDO
100
AcDbPolyline
 62
253
  6
CONTINUOUS
 90
16
 70
0
 10
-22.7758877265
 20
21.2439740077
 10
-22.7723385975
 20
21.3292531972
 10
-22.7639946105
 20
21.414096234
 10
-22.7508557801
 20
21.4985031251
 10
-22.7328735809
 20
21.5828500261
 10
-22.7100965597
 20
21.6667607906
 10
-22.6826703714
 20
21.7491069977
 10
-22.6504926035
 20
21.8298396803
 10
-22.6136657603
 20
21.9090078701
 10
-22.5726429306
 20
21.9856301903
 10
-22.5273844818
 20
22.0596103167
 10
-22.477930182
 20
22.1310446749
 10
-22.4248522615
 20
22.1992410451
 10
-22.3683415207
 20
22.2639687316
 10
-22.3082073114
 20
22.3254585478
 10
-22.2444497017
 20
22.3837105473
  0
LWPOLYLINE
  5
2B7
100
AcDbEntity
  8
RACCORDO
100
AcDbPolyline
 62
253
  6
CONTINUOUS
 90
11
 70
0
 10
-30.3652209925
 20
-45.5996514482
 10
-30.3691032795
 20
-45.6292087748
 10
-30.3726254941
 20
-45.6570832554
 10
-30.3757451671
 20
-45.6829387936
 10
-30.3784246831
 20
-45.7064636363
 10
-30.3806317338
 20
-45.7273741327
 10
-30.3823397078
 20
-45.7454181547
 10
-30.383528011
 20
-45.7603781363
 10
-30.3841823156
 20
-45.7720736978
 10
-30.3842947323
 20
-45.7803638199
 10
-30.3838639056
 20
-45.7851485444
  0
LINE
  5
2B8
100
AcDbEntity
  8
RACCORDO
100
AcDbLine
 62
253
  6
CONTINUOUS
 10
-30.3565672207
 20
-45.5369298007
 11
-30.3652209925
 21
-45.5996514482
  0
LINE
  5
2B9
100
AcDbEntity
  8
RACCORDO
100
AcDbLine
 62
253
  6
CONTINUOUS
 10
-30.4104519047
 20
-45.9611663582
 11
-30.383794048
 21
-45.7851588867
  0
LWPOLYLINE
  5
2BA
100
AcDbEntity
  8
0
100
AcDbPolyline
 62
7
  6
CONTINUOUS
 90
22
 70
0
 10
-22.1189196134
 20
21.3879815122
 10
-22.1067273143
 20
21.4397966023
 10
-22.0911841919
 20
21.4907106725
 10
-22.0723550327
 20
21.5405078291
 10
-22.0503172971
 20
21.5889788353
 10
-22.0251640984
 20
21.6359155337
 10
-21.9970051789
 20
21.6811125351
 10
-21.9659603307
 20
21.7243778406
 10
-21.9321604575
 20
21.7655284962
 10
-21.8957521565
 20
21.8043861742
 10
-21.8568904866
 20
21.8407865401
 10
-21.8157400971
 20
21.8745758523
 10
-21.7724787539
 20
21.9056084026
 10
-21.7272907766
 20
21.9337535617
 10
-21.6803677301
 20
21.9588930446
 10
-21.6319113046
 20
21.9809189704
 10
-21.5821283306
 20
21.9997391471
 10
-21.5312291684
 20
22.015275424
 10
-21.4794296817
 20
22.0274617067
 10
-21.4269496425
 20
22.0362470571
 10
-21.3740114769
 20
22.0415959066
 10
-21.3208393567
 20
22.0434866711
  0
LINE
  5
2BB
100
AcDbEntity
  8
RACCORDO
100
AcDbLine
 62
253
  6
CONTINUOUS
 10
-44.6591552064
 20
-32.122314869
 11
-44.4895477186
 21
-32.0909058127
  0
LWPOLYLINE
  5
2BC
100
AcDbEntity
  8
RACCORDO
100
AcDbPolyline
 62
253
  6
CONTINUOUS
 90
16
 70
0
 10
-44.2132981212
 20
-32.0625267114
 10
-44.2408997437
 20
-32.0671839138
 10
-44.2681018515
 20
-32.0715709871
 10
-44.2946641945
 20
-32.0756491848
 10
-44.3203521734
 20
-32.0793824881
 10
-44.3449389107
 20
-32.0827379244
 10
-44.3682072558
 20
-32.0856858586
 10
-44.3899517015
 20
-32.0882002545
 10
-44.4099802004
 20
-32.0902589048
 10
-44.4281158599
 20
-32.0918436276
 10
-44.4441985052
 20
-32.0929404268
 10
-44.4580860939
 20
-32.0935396153
 10
-44.4696559702
 20
-32.0936359012
 10
-44.4788059485
 20
-32.0932284343
 10
-44.4854552161
 20
-32.0923208133
 10
-44.4895450461
 20
-32.0909210546
  0
LWPOLYLINE
  5
2BD
100
AcDbEntity
  8
0
100
AcDbPolyline
 62
7
  6
CONTINUOUS
 90
25
 70
0
 10
3.7991794456
 20
-26.6119736993
 10
3.8590775802
 20
-26.6032485303
 10
3.9189209862
 20
-26.5950335741
 10
3.9787096491
 20
-26.5873288343
 10
4.0384054448
 20
-26.58008289
 10
4.0980464694
 20
-26.5733471689
 10
4.1577470349
 20
-26.5672759493
 10
4.2175201433
 20
-26.5618629083
 10
4.2773527556
 20
-26.5571143757
 10
4.3373201132
 20
-26.5532036092
 10
4.3974312308
 20
-26.5501237196
 10
4.4576770466
 20
-26.5478816013
 10
4.518105678
 20
-26.5466711879
 10
4.5787765799
 20
-26.5464896265
 10
4.6396302379
 20
-26.5473397712
 10
4.7005363035
 20
-26.5494241138
 10
4.7615048667
 20
-26.5526742647
 10
4.8225257678
 20
-26.5571586077
 10
4.8834382682
 20
-26.5632847905
 10
4.9443703638
 20
-26.5709621977
 10
5.0051939659
 20
-26.5802814244
 10
5.065364185
 20
-26.5919219228
 10
5.124699344
 20
-26.6061101559
 10
5.1833809938
 20
-26.6226196039
 10
5.241409073
 20
-26.6414502317
  0
LWPOLYLINE
  5
2BE
100
AcDbEntity
  8
RACCORDO
100
AcDbPolyline
 62
253
  6
CONTINUOUS
 90
16
 70
0
 10
-44.7870368377
 20
-28.0874253591
 10
-44.8150442576
 20
-28.0903559766
 10
-44.8426440562
 20
-28.0930852897
 10
-44.8695899225
 20
-28.0955889409
 10
-44.8956413814
 20
-28.0978445869
 10
-44.9205659397
 20
-28.0998320972
 10
-44.9441411612
 20
-28.1015337346
 10
-44.9661566518
 20
-28.1029343131
 10
-44.9864159368
 20
-28.1040213334
 10
-45.0047382147
 20
-28.1047850945
 10
-45.0209599706
 20
-28.1052187802
 10
-45.0349364353
 20
-28.1053185203
 10
-45.0465428776
 20
-28.1050834246
 10
-45.0556757172
 20
-28.1045155912
 10
-45.0622534492
 20
-28.1036200876
 10
-45.0662173714
 20
-28.1024049057
  0
LWPOLYLINE
  5
2BF
100
AcDbEntity
  8
RACCORDO
100
AcDbPolyline
 62
253
  6
CONTINUOUS
 90
16
 70
0
 10
22.3126675944
 20
-23.6949207959
 10
19.4094237494
 20
-23.898024708
 10
16.5033598227
 20
-24.0721565608
 10
13.5946075
 20
-24.2173177586
 10
10.6828614856
 20
-24.3335451688
 10
7.7686893148
 20
-24.4208040645
 10
4.8535320955
 20
-24.478988122
 10
1.93752017
 20
-24.5080621519
 10
-0.9792142164
 20
-24.5080620746
 10
-3.8952267099
 20
-24.4789878709
 10
-6.8103862225
 20
-24.420803542
 10
-9.7245612539
 20
-24.3335443555
 10
-12.6363072239
 20
-24.2173168325
 10
-15.5450554419
 20
-24.0721557654
 10
-18.4511123639
 20
-23.8980242214
 10
-21.3543463078
 20
-23.6949207959
  0
LWPOLYLINE
  5
2C0
100
AcDbEntity
  8
RACCORDO
100
AcDbPolyline
 62
253
  6
CONTINUOUS
 90
16
 70
0
 10
22.2791469553
 20
-23.3229072493
 10
19.3801495316
 20
-23.5257649484
 10
16.4785957878
 20
-23.699687944
 10
13.5744857239
 20
-23.8446762362
 10
10.6672513611
 20
-23.9607648145
 10
7.7574606782
 20
-24.0479186894
 10
4.8468176116
 20
-24.1060328918
 10
1.9353220701
 20
-24.1350724381
 10
-0.977025855
 20
-24.1350723119
 10
-3.8885219538
 20
-24.1060324946
 10
-6.7991676132
 20
-24.0479178999
 10
-9.7089614462
 20
-23.960763614
 10
-12.6161950822
 20
-23.8446748774
 10
-15.5202990641
 20
-23.6996867701
 10
-18.4218428488
 20
-23.5257642121
 10
-21.3208264364
 20
-23.3229072033
  0
LINE
  5
2C1
100
AcDbEntity
  8
0
100
AcDbLine
 62
7
  6
CONTINUOUS
 10
2.7685506433
 20
-26.5792643582
 11
2.2032056433
 21
-26.5792643582
  0
LINE
  5
2C2
100
AcDbEntity
  8
0
100
AcDbLine
 62
7
  6
CONTINUOUS
 10
0.9714686433
 20
-26.5792643582
 11
0.3932546433
 21
-26.5792643582
  0
LINE
  5
2C3
100
AcDbEntity
  8
0
100
AcDbLine
 62
7
  6
CONTINUOUS
 10
-0.7693893567
 20
-26.5792643582
 11
-1.3533143567
 21
-26.5792643582
  0
LINE
  5
2C4
100
AcDbEntity
  8
0
100
AcDbLine
 62
7
  6
CONTINUOUS
 10
-2.7219993567
 20
-26.5792643582
 11
-3.3060083567
 21
-26.5792643582
  0
LINE
  5
2C5
100
AcDbEntity
  8
0
100
AcDbLine
 62
7
  6
CONTINUOUS
 10
-4.3896593567
 20
-26.5792643582
 11
-5.0245073567
 21
-26.5792643582
  0
LINE
  5
2C6
100
AcDbEntity
  8
0
100
AcDbLine
 62
7
  6
CONTINUOUS
 10
-1.9207163567
 20
-26.5790963582
 11
-2.5051243567
 21
-26.5790963582
  0
LINE
  5
2C7
100
AcDbEntity
  8
0
100
AcDbLine
 62
253
  6
CONTINUOUS
 10
-22.2398706487
 20
-24.9856390032
 11
23.1981919353
 21
-24.9856390032
  0
LINE
  5
2C8
100
AcDbEntity
  8
RACCORDO
100
AcDbLine
 62
253
  6
CONTINUOUS
 10
23.1981919353
 20
-24.9856390032
 11
46.0707016896
 21
-24.9856383714
  0
LINE
  5
2C9
100
AcDbEntity
  8
RACCORDO
100
AcDbLine
 62
253
  6
CONTINUOUS
 10
-22.2398706487
 20
-24.9856390032
 11
-45.1123804017
 21
-24.9856383843
  0
LINE
  5
2CA
100
AcDbEntity
  8
RACCORDO
100
AcDbLine
 62
253
  6
CONTINUOUS
 10
22.2791619757
 20
-23.245100423
 11
-21.3208349979
 21
-23.245100423
  0
LINE
  5
2CB
100
AcDbEntity
  8
RACCORDO
100
AcDbLine
 62
253
  6
CONTINUOUS
 10
22.2791495687
 20
-23.0750791836
 11
-21.3208384035
 21
-23.0750791836
  0
LWPOLYLINE
  5
2CC
100
AcDbEntity
  8
0
100
AcDbPolyline
 62
7
  6
CONTINUOUS
 90
13
 70
0
 10
-21.3208393567
 20
-22.9858193876
 10
-17.6898873206
 20
-22.9956005703
 10
-14.0579827656
 20
-23.0036035467
 10
-10.4251256917
 20
-23.0098283168
 10
-6.7909985926
 20
-23.0142751134
 10
-3.1559189747
 20
-23.0169437037
 10
0.4791606433
 20
-23.0178333891
 10
4.1142402612
 20
-23.0169437037
 10
7.7493198792
 20
-23.0142751134
 10
11.3834469783
 20
-23.0098283168
 10
15.0163040522
 20
-23.0036035467
 10
18.6482086072
 20
-22.9956005703
 10
22.2791606433
 20
-22.9858193876
  0
LWPOLYLINE
  5
2CD
100
AcDbEntity
  8
RACCORDO
100
AcDbPolyline
 62
253
  6
CONTINUOUS
 90
22
 70
0
 10
-21.3208349979
 20
-23.2451004226
 10
-21.3611623927
 20
-23.244347429
 10
-21.4021985859
 20
-23.2420213963
 10
-21.4438794234
 20
-23.2380420355
 10
-21.4858444306
 20
-23.2323717181
 10
-21.5283088148
 20
-23.2249083886
 10
-21.5720435631
 20
-23.2153697663
 10
-21.6171840948
 20
-23.2034949924
 10
-21.6633325469
 20
-23.1891451637
 10
-21.7104113966
 20
-23.1721083817
 10
-21.7583951138
 20
-23.1521252608
 10
-21.8069114258
 20
-23.1290675908
 10
-21.8553498148
 20
-23.1029698068
 10
-21.9035325513
 20
-23.0736864153
 10
-21.9511769154
 20
-23.0411524487
 10
-21.9975664308
 20
-23.005670309
 10
-22.0424777309
 20
-22.9672668413
 10
-22.0857120041
 20
-22.9259474395
 10
-22.1266969884
 20
-22.8821454851
 10
-22.1651825403
 20
-22.8361237915
 10
-22.201155476
 20
-22.7878841845
 10
-22.2344757653
 20
-22.7375569959
  0
LWPOLYLINE
  5
2CE
100
AcDbEntity
  8
RACCORDO
100
AcDbPolyline
 62
253
  6
CONTINUOUS
 90
28
 70
0
 10
-21.3208384035
 20
-23.0750791835
 10
-21.3603407611
 20
-23.0742174032
 10
-21.4007274857
 20
-23.0715503414
 10
-21.4419096605
 20
-23.0669542883
 10
-21.4834391296
 20
-23.0603702089
 10
-21.5255574181
 20
-23.0516489276
 10
-21.5691614199
 20
-23.0403868995
 10
-21.6144825358
 20
-23.0261773229
 10
-21.6608741489
 20
-23.0088539911
 10
-21.7078516514
 20
-22.9882676228
 10
-21.7552883937
 20
-22.964129899
 10
-21.8027269653
 20
-22.9363070182
 10
-21.8492227033
 20
-22.9050602495
 10
-21.8944899123
 20
-22.8703537989
 10
-21.9382346869
 20
-22.8321689584
 10
-21.9796419538
 20
-22.7910498736
 10
-22.0184291583
 20
-22.7472148054
 10
-22.0544755735
 20
-22.7007320044
 10
-22.0873720316
 20
-22.6520986191
 10
-22.1170137714
 20
-22.6015022558
 10
-22.1432759407
 20
-22.5491915408
 10
-22.1658878275
 20
-22.4958555467
 10
-22.1848336658
 20
-22.4418528917
 10
-22.2001877553
 20
-22.3873465236
 10
-22.2119620439
 20
-22.3327728807
 10
-22.2202479692
 20
-22.2784356837
 10
-22.2251754238
 20
-22.2244938657
 10
-22.2268698558
 20
-22.1711535649
  0
LWPOLYLINE
  5
2CF
100
AcDbEntity
  8
RACCORDO
100
AcDbPolyline
 62
253
  6
CONTINUOUS
 90
16
 70
0
 10
-21.3543463078
 20
-23.6949207959
 10
-21.4132450262
 20
-23.6896437441
 10
-21.473047958
 20
-23.6816116065
 10
-21.5337551322
 20
-23.6708243772
 10
-21.5956946607
 20
-23.6573449562
 10
-21.6585384806
 20
-23.6411104249
 10
-21.7213023818
 20
-23.6219320445
 10
-21.7839916436
 20
-23.5996882389
 10
-21.8466010771
 20
-23.57450055
 10
-21.908130805
 20
-23.5465449126
 10
-21.9685508477
 20
-23.5156944601
 10
-22.0278912809
 20
-23.4820760136
 10
-22.0852423268
 20
-23.4462460429
 10
-22.1403007543
 20
-23.4083900254
 10
-22.1933698702
 20
-23.3683224404
 10
-22.2444497017
 20
-23.3260432638
  0
LWPOLYLINE
  5
2D0
100
AcDbEntity
  8
0
100
AcDbPolyline
 62
7
  6
CONTINUOUS
 90
10
 70
0
 10
4.8196740735
 20
-27.0397386072
 10
4.7707244107
 20
-27.0348088771
 10
4.7212373597
 20
-27.0315588895
 10
4.6712129573
 20
-27.0299886496
 10
4.6205744414
 20
-27.0300841118
 10
4.5693986489
 20
-27.031859324
 10
4.517916018
 20
-27.0353564272
 10
4.4662033891
 20
-27.0405894634
 10
4.4141840022
 20
-27.0475443762
 10
4.3618578974
 20
-27.0562211542
  0
LWPOLYLINE
  5
2D1
100
AcDbEntity
  8
RACCORDO
100
AcDbPolyline
 62
253
  6
CONTINUOUS
 90
16
 70
0
 10
45.7453581243
 20
-28.0874253592
 10
45.773365544
 20
-28.0903559767
 10
45.8009653424
 20
-28.0930852897
 10
45.8279112085
 20
-28.095588941
 10
45.8539626671
 20
-28.0978445869
 10
45.8788872251
 20
-28.0998320972
 10
45.9024624464
 20
-28.1015337347
 10
45.9244779367
 20
-28.1029343131
 10
45.9447372215
 20
-28.1040213334
 10
45.9630594991
 20
-28.1047850944
 10
45.9792812548
 20
-28.1052187802
 10
45.9932577193
 20
-28.1053185202
 10
46.0048641614
 20
-28.1050834244
 10
46.0139970009
 20
-28.1045155909
 10
46.0205747327
 20
-28.1036200873
 10
46.0245386548
 20
-28.1024049053
  0
LWPOLYLINE
  5
2D2
100
AcDbEntity
  8
RACCORDO
100
AcDbPolyline
 62
253
  6
CONTINUOUS
 90
16
 70
0
 10
-21.3208264364
 20
-23.3229076672
 10
-21.3654513201
 20
-23.3176407453
 10
-21.4108630893
 20
-23.3105474724
 10
-21.4569683974
 20
-23.3015151688
 10
-21.5037975355
 20
-23.2903833557
 10
-21.5510958331
 20
-23.2770755424
 10
-21.5983497277
 20
-23.2616556968
 10
-21.6454555262
 20
-23.2440640932
 10
-21.6922919611
 20
-23.224255303
 10
-21.7383641636
 20
-23.2024206078
 10
-21.7835926483
 20
-23.1785764573
 10
-21.8278716042
 20
-23.1527384321
 10
-21.8707327942
 20
-23.125200017
 10
-21.9120033913
 20
-23.0961284899
 10
-21.9517690675
 20
-23.065517997
 10
-21.9899901048
 20
-23.0334491507
  0
LWPOLYLINE
  5
2D3
100
AcDbEntity
  8
RACCORDO
100
AcDbPolyline
 62
253
  6
CONTINUOUS
 90
16
 70
0
 10
45.1716194079
 20
-32.0625267116
 10
45.1992210265
 20
-32.0671839177
 10
45.2264231303
 20
-32.0715709947
 10
45.2529854692
 20
-32.0756491957
 10
45.2786734438
 20
-32.079382502
 10
45.303260177
 20
-32.0827379408
 10
45.326528518
 20
-32.0856858768
 10
45.3482729601
 20
-32.0882002737
 10
45.3683014554
 20
-32.0902589243
 10
45.3864371118
 20
-32.0918436465
 10
45.4025197545
 20
-32.0929404441
 10
45.416407341
 20
-32.0935396299
 10
45.4279772157
 20
-32.0936359121
 10
45.4371271931
 20
-32.0932284402
 10
45.4437764603
 20
-32.092320813
 10
45.4478662906
 20
-32.0909210468
  0
LINE
  5
2D4
100
AcDbEntity
  8
RACCORDO
100
AcDbLine
 62
253
  6
CONTINUOUS
 10
45.617476493
 20
-32.122314869
 11
45.4478730805
 21
-32.090882927
  0
LWPOLYLINE
  5
2D5
100
AcDbEntity
  8
0
100
AcDbPolyline
 62
7
  6
CONTINUOUS
 90
3
 70
0
 10
5.3016638082
 20
-28.0720907951
 10
5.329785223
 20
-28.0855969908
 10
5.3560532071
 20
-28.1006177746
  0
LWPOLYLINE
  5
2D6
100
AcDbEntity
  8
SUPERFICI
100
AcDbPolyline
 62
7
  6
CONTINUOUS
 90
22
 70
0
 10
-22.1189196134
 20
-22.3303142287
 10
-22.1067273143
 20
-22.3821293188
 10
-22.0911841919
 20
-22.433043389
 10
-22.0723550327
 20
-22.4828405456
 10
-22.0503172971
 20
-22.5313115518
 10
-22.0251640984
 20
-22.5782482502
 10
-21.9970051789
 20
-22.6234452516
 10
-21.9659603307
 20
-22.6667105571
 10
-21.9321604575
 20
-22.7078612127
 10
-21.8957521565
 20
-22.7467188907
 10
-21.8568904866
 20
-22.7831192566
 10
-21.8157400971
 20
-22.8169085688
 10
-21.7724787539
 20
-22.8479411191
 10
-21.7272907766
 20
-22.8760862782
 10
-21.6803677301
 20
-22.9012257611
 10
-21.6319113046
 20
-22.9232516869
 10
-21.5821283306
 20
-22.9420718636
 10
-21.5312291684
 20
-22.9576081405
 10
-21.4794296817
 20
-22.9697944232
 10
-21.4269496425
 20
-22.9785797736
 10
-21.3740114769
 20
-22.9839286231
 10
-21.3208393567
 20
-22.9858193876
  0
LINE
  5
2D7
100
AcDbEntity
  8
RACCORDO
100
AcDbLine
 62
253
  6
CONTINUOUS
 10
-30.4104519047
 20
45.0188336418
 11
-30.3837915687
 21
44.842826537
  0
LWPOLYLINE
  5
2D8
100
AcDbEntity
  8
RACCORDO
100
AcDbPolyline
 62
253
  6
CONTINUOUS
 90
12
 70
0
 10
-30.3565672193
 20
44.5945970847
 10
-30.3652209712
 20
44.657318696
 10
-30.369103249
 20
44.6868760023
 10
-30.3726254554
 20
44.7147504621
 10
-30.3757451215
 20
44.7406059792
 10
-30.3784246322
 20
44.7641308012
 10
-30.3806316796
 20
44.7850412778
 10
-30.3823396524
 20
44.8030852811
 10
-30.383527957
 20
44.8180452458
 10
-30.3841822656
 20
44.8297407923
 10
-30.3842946891
 20
44.8380309016
 10
-30.3838638721
 20
44.8428156158
  0
LWPOLYLINE
  5
2D9
100
AcDbEntity
  8
RACCORDO
100
AcDbPolyline
 62
253
  6
CONTINUOUS
 90
4
 70
0
 10
-21.3327642513
 20
22.4955732742
 10
-21.3288250145
 20
22.4557280054
 10
-21.3248429271
 20
22.4173261306
 10
-21.3208393567
 20
22.3805737123
  0
LINE
  5
2DA
100
AcDbEntity
  8
RACCORDO
100
AcDbLine
 62
253
  6
CONTINUOUS
 10
-25.4104519047
 20
45.6137408958
 11
-25.393768294
 21
45.4363757125
  0
LINE
  5
2DB
100
AcDbEntity
  8
RACCORDO
100
AcDbLine
 62
253
  6
CONTINUOUS
 10
-21.3404299654
 20
22.578732166
 11
-21.3327642513
 21
22.4955732742
  0
LINE
  5
2DC
100
AcDbEntity
  8
RACCORDO
100
AcDbLine
 62
253
  6
CONTINUOUS
 10
-21.347675755
 20
22.6650202958
 11
-21.3404299654
 21
22.578732166
  0
LWPOLYLINE
  5
2DD
100
AcDbEntity
  8
RACCORDO
100
AcDbPolyline
 62
253
  6
CONTINUOUS
 90
13
 70
0
 10
-25.383066951
 20
45.1870572283
 10
-25.3856384673
 20
45.2190741239
 10
-25.3879711626
 20
45.2501248315
 10
-25.3900369504
 20
45.2798354884
 10
-25.3918109578
 20
45.3078483668
 10
-25.3932718249
 20
45.3338261808
 10
-25.3944019625
 20
45.3574561474
 10
-25.3951877633
 20
45.3784537527
 10
-25.3956197658
 20
45.3965661772
 10
-25.3956927686
 20
45.4115753404
 10
-25.3954058927
 20
45.4233005261
 10
-25.3947625922
 20
45.4316005586
 10
-25.3937706128
 20
45.4363755022
  0
LINE
  5
2DE
100
AcDbEntity
  8
RACCORDO
100
AcDbLine
 62
253
  6
CONTINUOUS
 10
-21.9593656363
 20
45.7253186584
 11
-21.9732494867
 21
45.9030092953
  0
LINE
  5
2DF
100
AcDbEntity
  8
RACCORDO
100
AcDbLine
 62
253
  6
CONTINUOUS
 10
-21.3543463065
 20
22.7525880784
 11
-21.347675755
 21
22.6650202958
  0
LWPOLYLINE
  5
2E0
100
AcDbEntity
  8
RACCORDO
100
AcDbPolyline
 62
253
  6
CONTINUOUS
 90
13
 70
0
 10
-22.1072700433
 20
45.4639679324
 10
-22.1094603204
 20
45.495983009
 10
-22.1114171929
 20
45.5270280589
 10
-22.1131171337
 20
45.5567298358
 10
-22.114539705
 20
45.5847312436
 10
-22.1156678035
 20
45.610695629
 10
-22.1164878665
 20
45.6343108293
 10
-22.1169900346
 20
45.6552929254
 10
-22.1171682703
 20
45.6733896554
 10
-22.1170204308
 20
45.6883834473
 10
-22.1165482935
 20
45.7000940347
 10
-22.1157575347
 20
45.7083806245
 10
-22.1146576616
 20
45.7131435894
  0
LWPOLYLINE
  5
2E1
100
AcDbEntity
  8
RACCORDO
100
AcDbPolyline
 62
253
  6
CONTINUOUS
 90
13
 70
0
 10
-21.9520184504
 20
45.4761492242
 10
-21.9541948075
 20
45.508164911
 10
-21.9561393552
 20
45.539210346
 10
-21.9578287151
 20
45.5689122839
 10
-21.9592425768
 20
45.5969136318
 10
-21.960363942
 20
45.6228777421
 10
-21.9611793292
 20
45.6464924602
 10
-21.9616789352
 20
45.6674738769
 10
-21.9618567535
 20
45.6855697422
 10
-21.9617106463
 20
45.7005624976
 10
-21.9612423702
 20
45.7122718922
 10
-21.9604575551
 20
45.7205571491
 10
-21.9593656363
 20
45.7253186584
  0
LWPOLYLINE
  5
2E2
100
AcDbEntity
  8
SUPERFICI
100
AcDbPolyline
 62
7
  6
CONTINUOUS
 90
7
 70
0
 10
-22.1349499502
 20
-22.1711663582
 10
-22.1344515456
 20
-22.1978849646
 10
-22.1330798231
 20
-22.2245637452
 10
-22.1308370876
 20
-22.2511742853
 10
-22.1277265637
 20
-22.2776882862
 10
-22.12375239
 20
-22.3040775938
 10
-22.1189196134
 20
-22.3303142287
  0
LWPOLYLINE
  5
2E3
100
AcDbEntity
  8
RACCORDO
100
AcDbPolyline
 62
253
  6
CONTINUOUS
 90
9
 70
0
 10
-22.2321588532
 20
-27.3767533005
 10
-22.2226871325
 20
-29.7659987643
 10
-22.2114570033
 20
-32.1529927501
 10
-22.198470274
 20
-34.5373529738
 10
-22.1837290147
 20
-36.9186975732
 10
-22.1672355572
 20
-39.2966451692
 10
-22.1489925331
 20
-41.6708149265
 10
-22.1290028738
 20
-44.0408266148
 10
-22.1072697808
 20
-46.4063006701
  0
LINE
  5
2E4
100
AcDbEntity
  8
RACCORDO
100
AcDbLine
 62
253
  6
CONTINUOUS
 10
-22.2444497017
 20
-23.3260432638
 11
-22.2321588532
 21
-27.3767533005
  0
LINE
  5
2E5
100
AcDbEntity
  8
RACCORDO
100
AcDbLine
 62
253
  6
CONTINUOUS
 10
-22.3968407987
 20
-22.1763816753
 11
-22.4065972399
 21
-17.3552418002
  0
LINE
  5
2E6
100
AcDbEntity
  8
RACCORDO
100
AcDbLine
 62
253
  6
CONTINUOUS
 10
-22.226865827
 20
-22.1711535655
 11
-22.2379417902
 21
-16.5830978298
  0
LINE
  5
2E7
100
AcDbEntity
  8
0
100
AcDbLine
 62
7
  6
CONTINUOUS
 10
-22.1349499502
 20
-22.1711663582
 11
-22.1487079565
 21
-14.9401257458
  0
LINE
  5
2E8
100
AcDbEntity
  8
RACCORDO
100
AcDbLine
 62
253
  6
CONTINUOUS
 10
-22.4065972399
 20
-17.3552418002
 11
-22.4139118946
 21
-12.5322945523
  0
LINE
  5
2E9
100
AcDbEntity
  8
RACCORDO
100
AcDbLine
 62
253
  6
CONTINUOUS
 10
-22.2379417902
 20
-16.5830978298
 11
-22.2457311727
 21
-11.0110945233
  0
LINE
  5
2EA
100
AcDbEntity
  8
RACCORDO
100
AcDbLine
 62
253
  6
CONTINUOUS
 10
-22.4139118946
 20
-12.5322945523
 11
-22.4187846814
 21
-7.7080937807
  0
LINE
  5
2EB
100
AcDbEntity
  8
0
100
AcDbLine
 62
7
  6
CONTINUOUS
 10
-22.1487079565
 20
-14.9401257458
 11
-22.1569632616
 21
-7.7066013524
  0
LINE
  5
2EC
100
AcDbEntity
  8
RACCORDO
100
AcDbLine
 62
253
  6
CONTINUOUS
 10
-22.2457311727
 20
-11.0110945233
 11
-22.2503485739
 21
-5.2482809711
  0
LINE
  5
2ED
100
AcDbEntity
  8
RACCORDO
100
AcDbLine
 62
253
  6
CONTINUOUS
 10
-22.4187846814
 20
-7.7080937807
 11
-22.4212142827
 21
-2.8834952384
  0
LINE
  5
2EE
100
AcDbEntity
  8
0
100
AcDbLine
 62
7
  6
CONTINUOUS
 10
-22.1569632616
 20
-7.7066013524
 11
-22.1597155387
 21
-0.4711663582
  0
LINE
  5
2EF
100
AcDbEntity
  8
RACCORDO
100
AcDbLine
 62
253
  6
CONTINUOUS
 10
-21.3208264364
 20
-23.3229072033
 11
-21.3208393567
 21
-22.9858193876
  0
LINE
  5
2F0
100
AcDbEntity
  8
RACCORDO
100
AcDbLine
 62
253
  6
CONTINUOUS
 10
-22.4212142827
 20
-2.8834952384
 11
-22.4212142775
 21
1.9411786885
  0
LINE
  5
2F1
100
AcDbEntity
  8
RACCORDO
100
AcDbLine
 62
253
  6
CONTINUOUS
 10
-22.2503485739
 20
-5.2482809711
 11
-22.251434767
 21
0.9748649971
  0
LINE
  5
2F2
100
AcDbEntity
  8
RACCORDO
100
AcDbLine
 62
253
  6
CONTINUOUS
 10
-21.3208393567
 20
22.0434866711
 11
-21.320826521
 21
22.3805744817
  0
LINE
  5
2F3
100
AcDbEntity
  8
RACCORDO
100
AcDbLine
 62
253
  6
CONTINUOUS
 10
-22.4212142775
 20
1.9411786885
 11
-22.4187846647
 21
6.76578926
  0
LINE
  5
2F4
100
AcDbEntity
  8
0
100
AcDbLine
 62
7
  6
CONTINUOUS
 10
-22.1597155387
 20
-0.4711663582
 11
-22.1569632616
 21
6.7642686359
  0
LINE
  5
2F5
100
AcDbEntity
  8
RACCORDO
100
AcDbLine
 62
253
  6
CONTINUOUS
 10
-22.251434767
 20
0.9748649971
 11
-22.2475996436
 21
8.2054377205
  0
LINE
  5
2F6
100
AcDbEntity
  8
RACCORDO
100
AcDbLine
 62
253
  6
CONTINUOUS
 10
-22.4187846647
 20
6.76578926
 11
-22.41391194
 21
11.5899733488
  0
LINE
  5
2F7
100
AcDbEntity
  8
0
100
AcDbLine
 62
7
  6
CONTINUOUS
 10
-22.1569632616
 20
6.7642686359
 11
-22.1487079565
 21
13.9977930293
  0
LINE
  5
2F8
100
AcDbEntity
  8
RACCORDO
100
AcDbLine
 62
253
  6
CONTINUOUS
 10
-22.41391194
 20
11.5899733488
 11
-22.4065973099
 21
16.4129074098
  0
LWPOLYLINE
  5
2F9
100
AcDbEntity
  8
RACCORDO
100
AcDbPolyline
 62
253
  6
CONTINUOUS
 90
3
 70
0
 10
-22.2475996436
 20
8.2054377205
 10
-22.2300610471
 20
19.7759718071
 10
-22.2268699131
 20
21.2287807083
  0
LINE
  5
2FA
100
AcDbEntity
  8
0
100
AcDbLine
 62
7
  6
CONTINUOUS
 10
-22.1487079565
 20
13.9977930293
 11
-22.1349499502
 21
21.2288336418
  0
LINE
  5
2FB
100
AcDbEntity
  8
RACCORDO
100
AcDbLine
 62
253
  6
CONTINUOUS
 10
-22.4065973099
 20
16.4129074098
 11
-22.3968408013
 21
21.2340480447
  0
LWPOLYLINE
  5
2FC
100
AcDbEntity
  8
RACCORDO
100
AcDbPolyline
 62
253
  6
CONTINUOUS
 90
10
 70
0
 10
-22.2444497017
 20
22.3837105473
 10
-22.2321588532
 20
26.434420584
 10
-22.2226871325
 20
28.8236660479
 10
-22.2114570033
 20
31.2106600337
 10
-22.1984702741
 20
33.5950202574
 10
-22.1837290149
 20
35.9763648569
 10
-22.1672355572
 20
38.3543124528
 10
-22.1489925325
 20
40.7284822101
 10
-22.1290028724
 20
43.0984938985
 10
-22.1072697782
 20
45.4639679538
  0
LWPOLYLINE
  5
2FD
100
AcDbEntity
  8
0
100
AcDbPolyline
 62
7
  6
CONTINUOUS
 90
7
 70
0
 10
-22.1349499502
 20
21.2288336418
 10
-22.1344515456
 20
21.2555522482
 10
-22.1330798231
 20
21.2822310287
 10
-22.1308370876
 20
21.3088415688
 10
-22.1277265637
 20
21.3353555697
 10
-22.12375239
 20
21.3617448773
 10
-22.1189196134
 20
21.3879815122
  0
LWPOLYLINE
  5
2FE
100
AcDbEntity
  8
RACCORDO
100
AcDbPolyline
 62
253
  6
CONTINUOUS
 90
13
 70
0
 10
-21.9520184503
 20
-46.4184819407
 10
-21.9541948075
 20
-46.4504976277
 10
-21.9561393552
 20
-46.481543063
 10
-21.9578287152
 20
-46.5112450011
 10
-21.9592425769
 20
-46.5392463492
 10
-21.9603639422
 20
-46.5652104598
 10
-21.9611793293
 20
-46.5888251781
 10
-21.9616789353
 20
-46.609806595
 10
-21.9618567537
 20
-46.6279024605
 10
-21.9617106465
 20
-46.6428952162
 10
-21.9612423704
 20
-46.6546046109
 10
-21.9604575553
 20
-46.6628898679
 10
-21.9593656365
 20
-46.6676513774
  0
LWPOLYLINE
  5
2FF
100
AcDbEntity
  8
RACCORDO
100
AcDbPolyline
 62
253
  6
CONTINUOUS
 90
13
 70
0
 10
-22.1072700433
 20
-46.4063006489
 10
-22.1094603204
 20
-46.4383157255
 10
-22.1114171929
 20
-46.4693607753
 10
-22.1131171337
 20
-46.4990625523
 10
-22.114539705
 20
-46.5270639601
 10
-22.1156678035
 20
-46.5530283455
 10
-22.1164878665
 20
-46.5766435458
 10
-22.1169900346
 20
-46.5976256419
 10
-22.1171682703
 20
-46.6157223719
 10
-22.1170204308
 20
-46.6307161638
 10
-22.1165482935
 20
-46.6424267512
 10
-22.1157575347
 20
-46.6507133411
 10
-22.1146576616
 20
-46.655476306
  0
LINE
  5
300
100
AcDbEntity
  8
RACCORDO
100
AcDbLine
 62
253
  6
CONTINUOUS
 10
-21.3543463464
 20
-23.694920828
 11
-21.3476757609
 21
-23.6073529685
  0
LINE
  5
301
100
AcDbEntity
  8
RACCORDO
100
AcDbLine
 62
253
  6
CONTINUOUS
 10
-21.9593656363
 20
-46.6676513749
 11
-21.9732494867
 21
-46.8453420118
  0
LWPOLYLINE
  5
302
100
AcDbEntity
  8
RACCORDO
100
AcDbPolyline
 62
253
  6
CONTINUOUS
 90
13
 70
0
 10
-25.383066951
 20
-46.1293899447
 10
-25.3856384673
 20
-46.1614068403
 10
-25.3879711626
 20
-46.1924575477
 10
-25.3900369504
 20
-46.2221682046
 10
-25.3918109578
 20
-46.2501810829
 10
-25.393271825
 20
-46.2761588969
 10
-25.3944019625
 20
-46.2997888634
 10
-25.3951877633
 20
-46.3207864686
 10
-25.3956197658
 20
-46.3388988931
 10
-25.3956927686
 20
-46.3539080563
 10
-25.3954058927
 20
-46.365633242
 10
-25.3947625922
 20
-46.3739332745
 10
-25.3937706127
 20
-46.3787082181
  0
LINE
  5
303
100
AcDbEntity
  8
RACCORDO
100
AcDbLine
 62
253
  6
CONTINUOUS
 10
-21.3476757609
 20
-23.6073529685
 11
-21.3404299559
 21
-23.5210647153
  0
LINE
  5
304
100
AcDbEntity
  8
RACCORDO
100
AcDbLine
 62
253
  6
CONTINUOUS
 10
-25.4104519047
 20
-46.5560736123
 11
-25.3937680689
 21
-46.3787084492
  0
LWPOLYLINE
  5
305
100
AcDbEntity
  8
RACCORDO
100
AcDbPolyline
 62
253
  6
CONTINUOUS
 90
5
 70
0
 10
-21.3404299559
 20
-23.5210647153
 10
-21.3327642402
 20
-23.4379056519
 10
-21.328825006
 20
-23.3980602788
 10
-21.3248429226
 20
-23.3596582875
 10
-21.3208393567
 20
-23.3229057407
  0
LINE
  5
306
100
AcDbEntity
  8
RACCORDO
100
AcDbLine
 62
253
  6
CONTINUOUS
 10
-45.2369617679
 20
-28.122314869
 11
-45.0662176289
 21
-28.102402563
  0
LINE
  5
307
100
AcDbEntity
  8
RACCORDO
100
AcDbLine
 62
253
  6
CONTINUOUS
 10
-45.4058117684
 20
-24.8610196974
 11
-45.5766219238
 21
-24.8777753235
  0
LWPOLYLINE
  5
308
100
AcDbEntity
  8
RACCORDO
100
AcDbPolyline
 62
253
  6
CONTINUOUS
 90
15
 70
0
 10
-45.1123803395
 20
-24.9856390032
 10
-45.1681508415
 20
-24.9907586681
 10
-45.1951733978
 20
-24.9930632982
 10
-45.2212962471
 20
-24.9951697492
 10
-45.2462854851
 20
-24.9970591599
 10
-45.2699173577
 20
-24.9987146125
 10
-45.2919802645
 20
-25.000121284
 10
-45.3122766541
 20
-25.0012665791
 10
-45.330624792
 20
-25.0021402428
 10
-45.3468603888
 20
-25.0027344523
 10
-45.3608380706
 20
-25.003043887
 10
-45.3724326811
 20
-25.0030657762
 10
-45.3815404018
 20
-25.002799924
 10
-45.3880796821
 20
-25.0022487108
 10
-45.3919919692
 20
-25.0014170721
  0
LWPOLYLINE
  5
309
100
AcDbEntity
  8
RACCORDO
100
AcDbPolyline
 62
253
  6
CONTINUOUS
 90
15
 70
0
 10
-45.1261814644
 20
-24.8453439658
 10
-45.1819573528
 20
-24.8504323207
 10
-45.2089824721
 20
-24.8527227598
 10
-45.2351077424
 20
-24.8548161662
 10
-45.2600992201
 20
-24.8566937941
 10
-45.2837331144
 20
-24.85833883
 10
-45.305797791
 20
-24.859736543
 10
-45.3260956677
 20
-24.860874417
 10
-45.3444449833
 20
-24.8617422628
 10
-45.3606814255
 20
-24.8623323091
 10
-45.3746596019
 20
-24.8626392722
 10
-45.3862543423
 20
-24.8626604033
 10
-45.3953618194
 20
-24.8623955132
 10
-45.4019004787
 20
-24.8618469739
 10
-45.4058117684
 20
-24.8610196974
  0
LINE
  5
30A
100
AcDbEntity
  8
RACCORDO
100
AcDbLine
 62
253
  6
CONTINUOUS
 10
-22.434295782
 20
-22.1775149113
 11
-22.396840794
 21
-22.176380252
  0
LINE
  5
30B
100
AcDbEntity
  8
RACCORDO
100
AcDbLine
 62
253
  6
CONTINUOUS
 10
-22.5140727637
 20
-22.1794195599
 11
-22.434295782
 21
-22.1775149113
  0
LWPOLYLINE
  5
30C
100
AcDbEntity
  8
RACCORDO
100
AcDbPolyline
 62
253
  6
CONTINUOUS
 90
10
 70
0
 10
-22.3290633855
 20
-22.1757442271
 10
-22.309692815
 20
-22.1753994457
 10
-22.292128325
 20
-22.174998118
 10
-22.2764748582
 20
-22.174546465
 10
-22.2628233003
 20
-22.1740510463
 10
-22.2512495826
 20
-22.173518796
 10
-22.24181866
 20
-22.1729568928
 10
-22.2345848976
 20
-22.1723726073
 10
-22.2295908425
 20
-22.1717732748
 10
-22.2268658007
 20
-22.1711663582
  0
LINE
  5
30D
100
AcDbEntity
  8
RACCORDO
100
AcDbLine
 62
253
  6
CONTINUOUS
 10
-22.5988576355
 20
-22.1808040886
 11
-22.5140727637
 21
-22.1794195599
  0
LINE
  5
30E
100
AcDbEntity
  8
RACCORDO
100
AcDbLine
 62
253
  6
CONTINUOUS
 10
-22.6867794249
 20
-22.1816379447
 11
-22.5988576355
 21
-22.1808040886
  0
LWPOLYLINE
  5
30F
100
AcDbEntity
  8
RACCORDO
100
AcDbPolyline
 62
253
  6
CONTINUOUS
 90
3
 70
0
 10
-22.3968407987
 20
-22.1763816753
 10
-22.3727624316
 20
-22.1762407569
 10
-22.3290633855
 20
-22.1757442271
  0
LINE
  5
310
100
AcDbEntity
  8
RACCORDO
100
AcDbLine
 62
253
  6
CONTINUOUS
 10
-22.775897936
 20
-22.1819027272
 11
-22.6867794249
 21
-22.1816379447
  0
LINE
  5
311
100
AcDbEntity
  8
RACCORDO
100
AcDbLine
 62
253
  6
CONTINUOUS
 10
23.0932712368
 20
-22.1711663582
 11
23.1851871246
 21
-22.1711481124
  0
LINE
  5
312
100
AcDbEntity
  8
RACCORDO
100
AcDbLine
 62
253
  6
CONTINUOUS
 10
-22.1349499502
 20
-22.1711663582
 11
-22.226865827
 21
-22.1711535655
  0
LWPOLYLINE
  5
313
100
AcDbEntity
  8
RACCORDO
100
AcDbPolyline
 62
253
  6
CONTINUOUS
 90
12
 70
0
 10
23.3552103932
 20
-22.1763816896
 10
23.3084516965
 20
-22.1760317867
 10
23.2873762301
 20
-22.1757522224
 10
23.2680003282
 20
-22.1754097072
 10
23.2504350913
 20
-22.1750100016
 10
23.2347814772
 20
-22.1745593855
 10
23.2211283658
 20
-22.1740644033
 10
23.2095544957
 20
-22.1735317097
 10
23.2001273147
 20
-22.1729682352
 10
23.1928998958
 20
-22.1723812076
 10
23.187911792
 20
-22.171778075
 10
23.1851902949
 20
-22.1711663582
  0
LINE
  5
314
100
AcDbEntity
  8
RACCORDO
100
AcDbLine
 62
253
  6
CONTINUOUS
 10
23.734178803
 20
-22.1866150011
 11
23.6450645379
 21
-22.1852248631
  0
LINE
  5
315
100
AcDbEntity
  8
RACCORDO
100
AcDbLine
 62
253
  6
CONTINUOUS
 10
23.6450645379
 20
-22.1852248631
 11
23.5571440728
 21
-22.1832903039
  0
LINE
  5
316
100
AcDbEntity
  8
RACCORDO
100
AcDbLine
 62
253
  6
CONTINUOUS
 10
23.5571440728
 20
-22.1832903039
 11
23.4723663931
 21
-22.1808542218
  0
LWPOLYLINE
  5
317
100
AcDbEntity
  8
RACCORDO
100
AcDbPolyline
 62
253
  6
CONTINUOUS
 90
3
 70
0
 10
23.4723663931
 20
-22.1808542218
 10
23.3926322395
 20
-22.1779717043
 10
23.3552070352
 20
-22.1763826406
  0
LWPOLYLINE
  5
318
100
AcDbEntity
  8
RACCORDO
100
AcDbPolyline
 62
253
  6
CONTINUOUS
 90
13
 70
0
 10
46.1673037556
 20
-24.8527227592
 10
46.1934290248
 20
-24.8548161655
 10
46.2184205015
 20
-24.8566937933
 10
46.2420543947
 20
-24.858338829
 10
46.2641190704
 20
-24.8597365419
 10
46.2844169461
 20
-24.8608744159
 10
46.3027662609
 20
-24.8617422616
 10
46.3190027023
 20
-24.8623323079
 10
46.3329808781
 20
-24.8626392709
 10
46.344575618
 20
-24.862660402
 10
46.3536830948
 20
-24.8623955119
 10
46.3602217539
 20
-24.8618469727
 10
46.3641330436
 20
-24.8610196963
  0
LWPOLYLINE
  5
319
100
AcDbEntity
  8
RACCORDO
100
AcDbPolyline
 62
253
  6
CONTINUOUS
 90
13
 70
0
 10
46.1534946844
 20
-24.9930632982
 10
46.1796175338
 20
-24.9951697492
 10
46.2046067718
 20
-24.9970591599
 10
46.2282386443
 20
-24.9987146125
 10
46.2503015512
 20
-25.000121284
 10
46.2705979407
 20
-25.0012665791
 10
46.2889460786
 20
-25.0021402428
 10
46.3051816754
 20
-25.0027344523
 10
46.3191593572
 20
-25.003043887
 10
46.3307539677
 20
-25.0030657762
 10
46.3398616884
 20
-25.002799924
 10
46.3464009687
 20
-25.0022487108
 10
46.3503132557
 20
-25.0014170721
  0
LWPOLYLINE
  5
31A
100
AcDbEntity
  8
RACCORDO
100
AcDbPolyline
 62
253
  6
CONTINUOUS
 90
3
 70
0
 10
46.0845027508
 20
-24.8453439657
 10
46.1125956717
 20
-24.8479653588
 10
46.1673037556
 20
-24.8527227592
  0
LWPOLYLINE
  5
31B
100
AcDbEntity
  8
RACCORDO
100
AcDbPolyline
 62
253
  6
CONTINUOUS
 90
3
 70
0
 10
46.0707016261
 20
-24.9856390032
 10
46.0987918254
 20
-24.9882764946
 10
46.1534946844
 20
-24.9930632982
  0
LINE
  5
31C
100
AcDbEntity
  8
RACCORDO
100
AcDbLine
 62
253
  6
CONTINUOUS
 10
46.364133055
 20
-24.8610196974
 11
46.5349432104
 21
-24.8777753235
  0
LINE
  5
31D
100
AcDbEntity
  8
RACCORDO
100
AcDbLine
 62
253
  6
CONTINUOUS
 10
46.1952830545
 20
-28.122314869
 11
46.0245389575
 21
-28.1024021861
  0
LWPOLYLINE
  5
31E
100
AcDbEntity
  8
0
100
AcDbPolyline
 62
7
  6
CONTINUOUS
 90
48
 70
0
 10
5.241409073
 20
-26.6414502317
 10
5.2749809951
 20
-26.6551651723
 10
5.3086646651
 20
-26.6718381641
 10
5.3424600273
 20
-26.6914691617
 10
5.3765579427
 20
-26.7139436161
 10
5.4107674311
 20
-26.7393759623
 10
5.444515672
 20
-26.7681096101
 10
5.4780905355
 20
-26.8003172663
 10
5.5112040178
 20
-26.8358260323
 10
5.5424195188
 20
-26.8744608922
 10
5.5717580719
 20
-26.916843566
 10
5.5991985728
 20
-26.9623520765
 10
5.6232413295
 20
-27.0089459396
 10
5.6433299256
 20
-27.0566909899
 10
5.6600209004
 20
-27.1055212877
 10
5.6734841146
 20
-27.1531988761
 10
5.6833997724
 20
-27.1991123373
 10
5.6900878622
 20
-27.2438732053
 10
5.6946779322
 20
-27.2870780707
 10
5.6973511948
 20
-27.3285433294
 10
5.6979265544
 20
-27.3684527144
 10
5.6969900602
 20
-27.4069538308
 10
5.6946176082
 20
-27.4440940953
 10
5.6907333758
 20
-27.4798261917
 10
5.6856958116
 20
-27.5141556176
 10
5.6795146671
 20
-27.5470650864
 10
5.6721802396
 20
-27.5785719766
 10
5.664021782
 20
-27.6087337786
 10
5.6550570796
 20
-27.6375302785
 10
5.6452683752
 20
-27.6649817685
 10
5.6349315968
 20
-27.6912064911
 10
5.6240703158
 20
-27.7162105213
 10
5.6126609742
 20
-27.7399878463
 10
5.6009087991
 20
-27.7626385688
 10
5.5888379001
 20
-27.7841590274
 10
5.5764241718
 20
-27.8045529334
 10
5.563800515
 20
-27.8239314425
 10
5.5509662648
 20
-27.8422951927
 10
5.5379220851
 20
-27.8596435845
 10
5.5248028683
 20
-27.8760859126
 10
5.5116014941
 20
-27.8915947129
 10
5.4983250781
 20
-27.9061974791
 10
5.4851298646
 20
-27.9200859361
 10
5.4720243708
 20
-27.9332727969
 10
5.4590000734
 20
-27.9457453682
 10
5.4461876555
 20
-27.9576572599
 10
5.4336118901
 20
-27.9690182869
 10
5.4212479979
 20
-27.9798186475
  0
LWPOLYLINE
  5
31F
100
AcDbEntity
  8
0
100
AcDbPolyline
 62
7
  6
CONTINUOUS
 90
22
 70
0
 10
5.3560532071
 20
-28.1006177746
 10
5.3804677543
 20
-28.1171531226
 10
5.402946972
 20
-28.1355325096
 10
5.4235727439
 20
-28.1554264015
 10
5.4425907426
 20
-28.1758462778
 10
5.4599208319
 20
-28.1965852933
 10
5.4756431749
 20
-28.217850273
 10
5.4902439039
 20
-28.2392732308
 10
5.5037768878
 20
-28.2607778117
 10
5.5161882812
 20
-28.282440364
 10
5.5278026412
 20
-28.3041219679
 10
5.538667195
 20
-28.3258163011
 10
5.5487347337
 20
-28.3475296844
 10
5.5581881557
 20
-28.3691421679
 10
5.5670402433
 20
-28.3906230263
 10
5.5752782306
 20
-28.4120029894
 10
5.5830466917
 20
-28.4332542939
 10
5.59033873
 20
-28.4543430523
 10
5.5971612551
 20
-28.475303158
 10
5.6036795457
 20
-28.4962085177
 10
5.6098817065
 20
-28.5170605172
 10
5.6157796405
 20
-28.5378577727
  0
LINE
  5
320
100
AcDbEntity
  8
0
100
AcDbLine
 62
7
  6
CONTINUOUS
 10
-0.2353263567
 20
-29.3789673582
 11
-0.9209073567
 21
-27.5508133582
  0
LINE
  5
321
100
AcDbEntity
  8
0
100
AcDbLine
 62
7
  6
CONTINUOUS
 10
-0.7693893567
 20
-26.5792643582
 11
-0.1911533567
 21
-28.1336683582
  0
LINE
  5
322
100
AcDbEntity
  8
0
100
AcDbLine
 62
7
  6
CONTINUOUS
 10
-4.1369463567
 20
-29.3789673582
 11
-5.0245073567
 21
-26.5792643582
  0
LINE
  5
323
100
AcDbEntity
  8
0
100
AcDbLine
 62
7
  6
CONTINUOUS
 10
-4.3896593567
 20
-26.5792643582
 11
-3.8559853567
 21
-28.5063863582
  0
LWPOLYLINE
  5
324
100
AcDbEntity
  8
0
100
AcDbPolyline
 62
7
  6
CONTINUOUS
 90
19
 70
0
 10
5.0205627023
 20
-28.5298293029
 10
5.0112938986
 20
-28.5070680789
 10
5.0008881171
 20
-28.485005405
 10
4.9893453507
 20
-28.4636412983
 10
4.9766523188
 20
-28.4428824653
 10
4.9628222886
 20
-28.42282223
 10
4.9478950789
 20
-28.4037405406
 10
4.9318841616
 20
-28.3856033451
 10
4.9147760632
 20
-28.3684447343
 10
4.8965701941
 20
-28.3526468813
 10
4.8771791757
 20
-28.3382039391
 10
4.8566903994
 20
-28.3251217985
 10
4.8353654439
 20
-28.3138002497
 10
4.8131359062
 20
-28.3043846306
 10
4.7900702243
 20
-28.296729643
 10
4.7666352491
 20
-28.290799123
 10
4.7429866124
 20
-28.2865810221
 10
4.7189687243
 20
-28.2840874072
 10
4.6945816056
 20
-28.283318283
  0
LINE
  5
325
100
AcDbEntity
  8
0
100
AcDbLine
 62
7
  6
CONTINUOUS
 10
2.7685506433
 20
-26.5792643582
 11
3.6275686433
 21
-29.3789673582
  0
LINE
  5
326
100
AcDbEntity
  8
0
100
AcDbLine
 62
7
  6
CONTINUOUS
 10
3.0116266433
 20
-29.3789673582
 11
2.8602346433
 21
-28.8200473582
  0
LINE
  5
327
100
AcDbEntity
  8
0
100
AcDbLine
 62
7
  6
CONTINUOUS
 10
2.7434406433
 20
-28.3875573582
 11
2.4748976433
 21
-27.3485513582
  0
LINE
  5
328
100
AcDbEntity
  8
0
100
AcDbLine
 62
7
  6
CONTINUOUS
 10
0.9714686433
 20
-26.5792643582
 11
1.2332726433
 21
-29.3789673582
  0
LINE
  5
329
100
AcDbEntity
  8
0
100
AcDbLine
 62
7
  6
CONTINUOUS
 10
0.6615666433
 20
-29.3789673582
 11
0.5414976433
 21
-27.5584353582
  0
LINE
  5
32A
100
AcDbEntity
  8
0
100
AcDbLine
 62
7
  6
CONTINUOUS
 10
-2.5051243567
 20
-29.3789673582
 11
-2.5051243567
 21
-26.5790963582
  0
LINE
  5
32B
100
AcDbEntity
  8
0
100
AcDbLine
 62
7
  6
CONTINUOUS
 10
-1.9207163567
 20
-26.5790963582
 11
-1.9207163567
 21
-29.3789673582
  0
LINE
  5
32C
100
AcDbEntity
  8
RACCORDO
100
AcDbLine
 62
253
  6
CONTINUOUS
 10
-22.2444494764
 20
-23.3260430867
 11
-22.1260317599
 21
-23.1891085696
  0
LWPOLYLINE
  5
32D
100
AcDbEntity
  8
RACCORDO
100
AcDbPolyline
 62
253
  6
CONTINUOUS
 90
3
 70
0
 10
-22.1260317599
 20
-23.1891085696
 10
-22.0152662707
 20
-23.0622072187
 10
-21.9899890546
 20
-23.0334478827
  0
LINE
  5
32E
100
AcDbEntity
  8
RACCORDO
100
AcDbLine
 62
253
  6
CONTINUOUS
 10
23.7589005969
 20
-0.4711663582
 11
23.2098655773
 21
-0.4711663582
  0
LINE
  5
32F
100
AcDbEntity
  8
RACCORDO
100
AcDbLine
 62
253
  6
CONTINUOUS
 10
-22.8005793104
 20
-0.4711663582
 11
-22.2515442907
 21
-0.4711663582
  0
LINE
  5
330
100
AcDbEntity
  8
RACCORDO
100
AcDbLine
 62
253
  6
CONTINUOUS
 10
-22.0972065119
 20
22.2136324808
 11
-21.989989554
 21
22.0911157692
  0
LWPOLYLINE
  5
331
100
AcDbEntity
  8
RACCORDO
100
AcDbPolyline
 62
253
  6
CONTINUOUS
 90
3
 70
0
 10
-22.2444497372
 20
22.3837105752
 10
-22.2147181013
 20
22.3492177028
 10
-22.0972065119
 20
22.2136324808
  0
LWPOLYLINE
  5
332
100
AcDbEntity
  8
0
100
AcDbPolyline
 62
7
  6
CONTINUOUS
 90
8
 70
0
 10
5.1099303025
 20
-28.8039487676
 10
5.098260807
 20
-28.7644474032
 10
5.0863386027
 20
-28.725067297
 10
5.0741634214
 20
-28.6858123632
 10
5.0615197956
 20
-28.646663047
 10
5.0483358952
 20
-28.6076128338
 10
5.0346835333
 20
-28.5686682504
 10
5.0205627023
 20
-28.5298293029
  0
LINE
  5
333
100
AcDbEntity
  8
0
100
AcDbLine
 62
7
  6
CONTINUOUS
 10
5.2761762652
 20
-29.3789677126
 11
5.1784946124
 21
-29.0441496073
  0
LWPOLYLINE
  5
334
100
AcDbEntity
  8
0
100
AcDbPolyline
 62
7
  6
CONTINUOUS
 90
4
 70
0
 10
5.1784946124
 20
-29.0441496073
 10
5.1553918591
 20
-28.963385874
 10
5.1440776077
 20
-28.9232938521
 10
5.1099303025
 20
-28.8039487676
  0
LWPOLYLINE
  5
335
100
AcDbEntity
  8
0
100
AcDbPolyline
 62
7
  6
CONTINUOUS
 90
3
 70
0
 10
5.6157796405
 20
-28.5378577727
 10
5.6273327296
 20
-28.5795205476
 10
5.6329878861
 20
-28.6003860654
  0
LINE
  5
336
100
AcDbEntity
  8
0
100
AcDbLine
 62
7
  6
CONTINUOUS
 10
5.6329878861
 20
-28.6003860654
 11
5.7079258578
 21
-28.8813941822
  0
LINE
  5
337
100
AcDbEntity
  8
0
100
AcDbLine
 62
7
  6
CONTINUOUS
 10
5.7079258578
 20
-28.8813941822
 11
5.8383088552
 21
-29.3789677126
  0
LWPOLYLINE
  5
338
100
AcDbEntity
  8
0
100
AcDbPolyline
 62
7
  6
CONTINUOUS
 90
22
 70
0
 10
5.1498127875
 20
-27.3899520839
 10
5.1483974727
 20
-27.3647008043
 10
5.1452810753
 20
-27.3398240901
 10
5.140463577
 20
-27.3153219507
 10
5.1339004587
 20
-27.2910715694
 10
5.1256362035
 20
-27.2671957796
 10
5.1158043023
 20
-27.2440630746
 10
5.1044123526
 20
-27.2216595892
 10
5.0914527347
 20
-27.1999992217
 10
5.0770361248
 20
-27.1794921271
 10
5.0611067488
 20
-27.1601909653
 10
5.0437203753
 20
-27.1420431217
 10
5.0251550074
 20
-27.1253008503
 10
5.0053698988
 20
-27.1100372196
 10
4.9844058084
 20
-27.0961792052
 10
4.9626630084
 20
-27.083759923
 10
4.9401630999
 20
-27.0727824969
 10
4.9168845064
 20
-27.0632438352
 10
4.8931627411
 20
-27.0551677275
 10
4.8691096531
 20
-27.0485621105
 10
4.8446134252
 20
-27.043419068
 10
4.8196740735
 20
-27.0397386072
  0
LINE
  5
339
100
AcDbEntity
  8
0
100
AcDbLine
 62
7
  6
CONTINUOUS
 10
3.7991794456
 20
-29.3789677126
 11
3.7991794456
 21
-26.6119736993
  0
LINE
  5
33A
100
AcDbEntity
  8
0
100
AcDbLine
 62
7
  6
CONTINUOUS
 10
4.3618578974
 20
-27.0562211542
 11
4.3618578974
 21
-27.8247944448
  0
LINE
  5
33B
100
AcDbEntity
  8
0
100
AcDbLine
 62
7
  6
CONTINUOUS
 10
4.3812359882
 20
-28.283318283
 11
4.3812359882
 21
-29.3789677126
  0
LINE
  5
33C
100
AcDbEntity
  8
0
100
AcDbLine
 62
7
  6
CONTINUOUS
 10
-0.9209073567
 20
-27.5508133582
 11
-1.0470223567
 21
-29.3789673582
  0
LINE
  5
33D
100
AcDbEntity
  8
0
100
AcDbLine
 62
7
  6
CONTINUOUS
 10
-1.6061113567
 20
-29.3789673582
 11
-1.3533143567
 21
-26.5792643582
  0
LINE
  5
33E
100
AcDbEntity
  8
0
100
AcDbLine
 62
7
  6
CONTINUOUS
 10
-3.8559853567
 20
-28.5063863582
 11
-3.3060083567
 21
-26.5792643582
  0
LINE
  5
33F
100
AcDbEntity
  8
RACCORDO
100
AcDbLine
 62
253
  6
CONTINUOUS
 10
23.202770763
 20
22.3837103702
 11
23.0843530465
 21
22.2467758531
  0
LWPOLYLINE
  5
340
100
AcDbEntity
  8
RACCORDO
100
AcDbPolyline
 62
253
  6
CONTINUOUS
 90
3
 70
0
 10
23.0843530465
 20
22.2467758531
 10
22.9735875573
 20
22.1198745022
 10
22.9483103412
 20
22.0911151662
  0
LINE
  5
341
100
AcDbEntity
  8
RACCORDO
100
AcDbLine
 62
253
  6
CONTINUOUS
 10
23.0555278128
 20
-23.1559652027
 11
22.948310838
 21
-23.0334484825
  0
LWPOLYLINE
  5
342
100
AcDbEntity
  8
RACCORDO
100
AcDbPolyline
 62
253
  6
CONTINUOUS
 90
3
 70
0
 10
23.2027710463
 20
-23.3260433094
 10
23.1730394088
 20
-23.2915504325
 10
23.0555278128
 20
-23.1559652027
  0
LINE
  5
343
100
AcDbEntity
  8
0
100
AcDbLine
 62
7
  6
CONTINUOUS
 10
5.3016638082
 20
-28.0555469863
 11
5.3016638082
 21
-28.0720907951
  0
LINE
  5
344
100
AcDbEntity
  8
0
100
AcDbLine
 62
7
  6
CONTINUOUS
 10
2.4748976433
 20
-27.3485513582
 11
2.1839116433
 21
-28.3875573582
  0
LINE
  5
345
100
AcDbEntity
  8
0
100
AcDbLine
 62
7
  6
CONTINUOUS
 10
-2.7219993567
 20
-26.5792643582
 11
-3.6219363567
 21
-29.3789673582
  0
LINE
  5
346
100
AcDbEntity
  8
0
100
AcDbLine
 62
7
  6
CONTINUOUS
 10
-0.1911533567
 20
-28.1336683582
 11
0.3932546433
 21
-26.5792643582
  0
LINE
  5
347
100
AcDbEntity
  8
0
100
AcDbLine
 62
7
  6
CONTINUOUS
 10
2.0643676433
 20
-28.8200473582
 11
1.9031076433
 21
-29.3789673582
  0
LINE
  5
348
100
AcDbEntity
  8
0
100
AcDbLine
 62
7
  6
CONTINUOUS
 10
1.3250406433
 20
-29.3789673582
 11
2.2032056433
 21
-26.5792643582
  0
LINE
  5
349
100
AcDbEntity
  8
0
100
AcDbLine
 62
7
  6
CONTINUOUS
 10
0.5414976433
 20
-27.5584353582
 11
-0.1533633567
 21
-29.3789673582
  0
LINE
  5
34A
100
AcDbEntity
  8
RACCORDO
100
AcDbLine
 62
253
  6
CONTINUOUS
 10
22.9176869229
 20
-46.6676513749
 11
22.9315707733
 21
-46.8453420118
  0
LINE
  5
34B
100
AcDbEntity
  8
RACCORDO
100
AcDbLine
 62
253
  6
CONTINUOUS
 10
22.9176869229
 20
45.7253186584
 11
22.9315707733
 21
45.9030092953
  0
LINE
  5
34C
100
AcDbEntity
  8
RACCORDO
100
AcDbLine
 62
253
  6
CONTINUOUS
 10
46.364133055
 20
23.9186869809
 11
46.5349432104
 21
23.935442607
  0
LWPOLYLINE
  5
34D
100
AcDbEntity
  8
RACCORDO
100
AcDbPolyline
 62
253
  6
CONTINUOUS
 90
4
 70
0
 10
22.291085538
 20
-23.43790599
 10
22.2871463012
 20
-23.3980607213
 10
22.2831642137
 20
-23.3596588468
 10
22.2791606433
 20
-23.3229064288
  0
LINE
  5
34E
100
AcDbEntity
  8
RACCORDO
100
AcDbLine
 62
253
  6
CONTINUOUS
 10
26.3687731913
 20
-46.5560736123
 11
26.3520895805
 21
-46.378708429
  0
LINE
  5
34F
100
AcDbEntity
  8
RACCORDO
100
AcDbLine
 62
253
  6
CONTINUOUS
 10
22.2987512523
 20
-23.5210648818
 11
22.291085538
 21
-23.43790599
  0
LINE
  5
350
100
AcDbEntity
  8
RACCORDO
100
AcDbLine
 62
253
  6
CONTINUOUS
 10
22.305997042
 20
-23.607353012
 11
22.2987512523
 21
-23.5210648818
  0
LWPOLYLINE
  5
351
100
AcDbEntity
  8
RACCORDO
100
AcDbPolyline
 62
253
  6
CONTINUOUS
 90
13
 70
0
 10
26.3413882376
 20
-46.1293899448
 10
26.3439597539
 20
-46.1614068404
 10
26.3462924492
 20
-46.192457548
 10
26.348358237
 20
-46.2221682049
 10
26.3501322444
 20
-46.2501810833
 10
26.3515931115
 20
-46.2761588973
 10
26.3527232491
 20
-46.2997888639
 10
26.3535090498
 20
-46.3207864692
 10
26.3539410523
 20
-46.3388988937
 10
26.3540140552
 20
-46.3539080569
 10
26.3537271793
 20
-46.3656332426
 10
26.3530838788
 20
-46.3739332751
 10
26.3520918994
 20
-46.3787082187
  0
LINE
  5
352
100
AcDbEntity
  8
RACCORDO
100
AcDbLine
 62
253
  6
CONTINUOUS
 10
22.3126675937
 20
-23.6949207954
 11
22.305997042
 21
-23.607353012
  0
LWPOLYLINE
  5
353
100
AcDbEntity
  8
RACCORDO
100
AcDbPolyline
 62
253
  6
CONTINUOUS
 90
13
 70
0
 10
23.0655913299
 20
-46.4063006489
 10
23.067781607
 20
-46.4383157255
 10
23.0697384795
 20
-46.4693607754
 10
23.0714384203
 20
-46.4990625523
 10
23.0728609916
 20
-46.5270639601
 10
23.0739890901
 20
-46.5530283455
 10
23.0748091531
 20
-46.5766435458
 10
23.0753113212
 20
-46.5976256419
 10
23.0754895569
 20
-46.6157223719
 10
23.0753417174
 20
-46.6307161637
 10
23.0748695801
 20
-46.6424267512
 10
23.0740788213
 20
-46.650713341
 10
23.0729789482
 20
-46.6554763059
  0
LWPOLYLINE
  5
354
100
AcDbEntity
  8
RACCORDO
100
AcDbPolyline
 62
253
  6
CONTINUOUS
 90
13
 70
0
 10
22.9103397369
 20
-46.4184819407
 10
22.9125160941
 20
-46.4504976275
 10
22.9144606418
 20
-46.4815430625
 10
22.9161500017
 20
-46.5112450004
 10
22.9175638634
 20
-46.5392463483
 10
22.9186852286
 20
-46.5652104586
 10
22.9195006157
 20
-46.5888251767
 10
22.9200002217
 20
-46.6098065934
 10
22.9201780401
 20
-46.6279024587
 10
22.9200319329
 20
-46.6428952141
 10
22.9195636568
 20
-46.6546046087
 10
22.9187788416
 20
-46.6628898656
 10
22.9176869229
 20
-46.6676513749
  0
LWPOLYLINE
  5
355
100
AcDbEntity
  8
SUPERFICI
100
AcDbPolyline
 62
7
  6
CONTINUOUS
 90
7
 70
0
 10
23.0932712368
 20
21.2288336418
 10
23.0927728322
 20
21.2555522482
 10
23.0914011096
 20
21.2822310287
 10
23.0891583742
 20
21.3088415688
 10
23.0860478503
 20
21.3353555697
 10
23.0820736766
 20
21.3617448773
 10
23.0772409
 20
21.3879815122
  0
LWPOLYLINE
  5
356
100
AcDbEntity
  8
RACCORDO
100
AcDbPolyline
 62
253
  6
CONTINUOUS
 90
9
 70
0
 10
23.1904801398
 20
26.434420584
 10
23.1810084191
 20
28.8236660478
 10
23.1697782899
 20
31.2106600336
 10
23.1567915606
 20
33.5950202573
 10
23.1420503013
 20
35.9763648567
 10
23.1255568438
 20
38.3543124527
 10
23.1073138197
 20
40.72848221
 10
23.0873241605
 20
43.0984938983
 10
23.0655910675
 20
45.4639679536
  0
LINE
  5
357
100
AcDbEntity
  8
RACCORDO
100
AcDbLine
 62
253
  6
CONTINUOUS
 10
23.2027709883
 20
22.3837105473
 11
23.1904801398
 21
26.434420584
  0
LINE
  5
358
100
AcDbEntity
  8
RACCORDO
100
AcDbLine
 62
253
  6
CONTINUOUS
 10
23.3551620853
 20
21.2340489588
 11
23.3649185264
 21
16.4129090826
  0
LINE
  5
359
100
AcDbEntity
  8
RACCORDO
100
AcDbLine
 62
253
  6
CONTINUOUS
 10
23.7342090143
 20
21.2439739957
 11
23.7435711859
 21
16.6416210455
  0
LINE
  5
35A
100
AcDbEntity
  8
SUPERFICI
100
AcDbLine
 62
7
  6
CONTINUOUS
 10
23.1070292431
 20
13.9977930293
 11
23.0932712368
 21
21.2288336418
  0
LINE
  5
35B
100
AcDbEntity
  8
RACCORDO
100
AcDbLine
 62
253
  6
CONTINUOUS
 10
23.1851871141
 20
21.2288206117
 11
23.1985202731
 21
14.2434129427
  0
LINE
  5
35C
100
AcDbEntity
  8
RACCORDO
100
AcDbLine
 62
253
  6
CONTINUOUS
 10
23.3649185264
 20
16.4129090826
 11
23.3722331812
 21
11.5899618347
  0
LINE
  5
35D
100
AcDbEntity
  8
RACCORDO
100
AcDbLine
 62
253
  6
CONTINUOUS
 10
23.7435711859
 20
16.6416210455
 11
23.7511570137
 21
11.7098279735
  0
LINE
  5
35E
100
AcDbEntity
  8
SUPERFICI
100
AcDbLine
 62
7
  6
CONTINUOUS
 10
23.1152845482
 20
6.7642686359
 11
23.1070292431
 21
13.9977930293
  0
LINE
  5
35F
100
AcDbEntity
  8
RACCORDO
100
AcDbLine
 62
253
  6
CONTINUOUS
 10
23.3722331812
 20
11.5899618347
 11
23.3771059679
 21
6.7657610638
  0
LINE
  5
360
100
AcDbEntity
  8
RACCORDO
100
AcDbLine
 62
253
  6
CONTINUOUS
 10
23.7511570137
 20
11.7098279735
 11
23.7563075526
 21
6.5853835221
  0
LINE
  5
361
100
AcDbEntity
  8
RACCORDO
100
AcDbLine
 62
253
  6
CONTINUOUS
 10
23.1985202731
 20
14.2434129427
 11
23.2086698605
 21
4.305948258
  0
LINE
  5
362
100
AcDbEntity
  8
RACCORDO
100
AcDbLine
 62
253
  6
CONTINUOUS
 10
23.3771059679
 20
6.7657610638
 11
23.3795355693
 21
1.9411625218
  0
LINE
  5
363
100
AcDbEntity
  8
RACCORDO
100
AcDbLine
 62
253
  6
CONTINUOUS
 10
23.7563075526
 20
6.5853835221
 11
23.7586235747
 21
1.8151222882
  0
LINE
  5
364
100
AcDbEntity
  8
SUPERFICI
100
AcDbLine
 62
7
  6
CONTINUOUS
 10
23.1180368253
 20
-0.4711663582
 11
23.1152845482
 21
6.7642686359
  0
LINE
  5
365
100
AcDbEntity
  8
RACCORDO
100
AcDbLine
 62
253
  6
CONTINUOUS
 10
22.2791606433
 20
22.0434866711
 11
22.2791468701
 21
22.3805745379
  0
LINE
  5
366
100
AcDbEntity
  8
RACCORDO
100
AcDbLine
 62
253
  6
CONTINUOUS
 10
22.2791606433
 20
-22.9858193876
 11
22.2791469553
 21
-23.3229072493
  0
LINE
  5
367
100
AcDbEntity
  8
RACCORDO
100
AcDbLine
 62
253
  6
CONTINUOUS
 10
23.2086698605
 20
4.305948258
 11
23.2097298866
 21
-1.9784038151
  0
LINE
  5
368
100
AcDbEntity
  8
RACCORDO
100
AcDbLine
 62
253
  6
CONTINUOUS
 10
23.3795355693
 20
1.9411625218
 11
23.3795355584
 21
-2.8835104929
  0
LINE
  5
369
100
AcDbEntity
  8
RACCORDO
100
AcDbLine
 62
253
  6
CONTINUOUS
 10
23.7586235747
 20
1.8151222882
 11
23.7577817266
 21
-5.1007306311
  0
LINE
  5
36A
100
AcDbEntity
  8
SUPERFICI
100
AcDbLine
 62
7
  6
CONTINUOUS
 10
23.1152845482
 20
-7.7066013524
 11
23.1180368253
 21
-0.4711663582
  0
LINE
  5
36B
100
AcDbEntity
  8
RACCORDO
100
AcDbLine
 62
253
  6
CONTINUOUS
 10
23.2097298866
 20
-1.9784038151
 11
23.2070757368
 21
-7.7752925577
  0
LINE
  5
36C
100
AcDbEntity
  8
RACCORDO
100
AcDbLine
 62
253
  6
CONTINUOUS
 10
23.3795355584
 20
-2.8835104929
 11
23.3771059413
 21
-7.7081243069
  0
LINE
  5
36D
100
AcDbEntity
  8
RACCORDO
100
AcDbLine
 62
253
  6
CONTINUOUS
 10
23.7577817266
 20
-5.1007306311
 11
23.7541399283
 21
-10.030766566
  0
LINE
  5
36E
100
AcDbEntity
  8
RACCORDO
100
AcDbLine
 62
253
  6
CONTINUOUS
 10
23.3771059413
 20
-7.7081243069
 11
23.3722332033
 21
-12.532321648
  0
LINE
  5
36F
100
AcDbEntity
  8
SUPERFICI
100
AcDbLine
 62
7
  6
CONTINUOUS
 10
23.1070292431
 20
-14.9401257458
 11
23.1152845482
 21
-7.7066013524
  0
LINE
  5
370
100
AcDbEntity
  8
RACCORDO
100
AcDbLine
 62
253
  6
CONTINUOUS
 10
23.2070757368
 20
-7.7752925577
 11
23.2010374381
 21
-13.4514011336
  0
LINE
  5
371
100
AcDbEntity
  8
RACCORDO
100
AcDbLine
 62
253
  6
CONTINUOUS
 10
23.7541399283
 20
-10.030766566
 11
23.7476599022
 21
-15.1333125314
  0
LINE
  5
372
100
AcDbEntity
  8
RACCORDO
100
AcDbLine
 62
253
  6
CONTINUOUS
 10
23.3722332033
 20
-12.532321648
 11
23.364918566
 21
-17.3552571694
  0
LINE
  5
373
100
AcDbEntity
  8
RACCORDO
100
AcDbLine
 62
253
  6
CONTINUOUS
 10
23.2010374381
 20
-13.4514011336
 11
23.1915183515
 21
-19.175773235
  0
LWPOLYLINE
  5
374
100
AcDbEntity
  8
RACCORDO
100
AcDbPolyline
 62
253
  6
CONTINUOUS
 90
3
 70
0
 10
23.7476599022
 20
-15.1333125314
 10
23.7391366762
 20
-19.898468166
 10
23.7342090131
 20
-22.1863067242
  0
LINE
  5
375
100
AcDbEntity
  8
SUPERFICI
100
AcDbLine
 62
7
  6
CONTINUOUS
 10
23.0932712368
 20
-22.1711663582
 11
23.1070292431
 21
-14.9401257458
  0
LINE
  5
376
100
AcDbEntity
  8
RACCORDO
100
AcDbLine
 62
253
  6
CONTINUOUS
 10
23.1915183515
 20
-19.175773235
 11
23.1851871246
 21
-22.1711481124
  0
LINE
  5
377
100
AcDbEntity
  8
RACCORDO
100
AcDbLine
 62
253
  6
CONTINUOUS
 10
23.364918566
 20
-17.3552571694
 11
23.355162084
 21
-22.1763816806
  0
LWPOLYLINE
  5
378
100
AcDbEntity
  8
RACCORDO
100
AcDbPolyline
 62
253
  6
CONTINUOUS
 90
10
 70
0
 10
23.2027709883
 20
-23.3260432638
 10
23.1904801398
 20
-27.3767533005
 10
23.1810084191
 20
-29.7659987644
 10
23.1697782899
 20
-32.1529927502
 10
23.1567915607
 20
-34.5373529739
 10
23.1420503015
 20
-36.9186975734
 10
23.1255568438
 20
-39.2966451693
 10
23.1073138191
 20
-41.6708149266
 10
23.087324159
 20
-44.040826615
 10
23.0655910649
 20
-46.4063006703
  0
LWPOLYLINE
  5
379
100
AcDbEntity
  8
SUPERFICI
100
AcDbPolyline
 62
7
  6
CONTINUOUS
 90
7
 70
0
 10
23.0932712368
 20
-22.1711663582
 10
23.0927728322
 20
-22.1978849646
 10
23.0914011096
 20
-22.2245637452
 10
23.0891583742
 20
-22.2511742853
 10
23.0860478503
 20
-22.2776882862
 10
23.0820736766
 20
-22.3040775938
 10
23.0772409
 20
-22.3303142287
  0
LWPOLYLINE
  5
37A
100
AcDbEntity
  8
RACCORDO
100
AcDbPolyline
 62
253
  6
CONTINUOUS
 90
28
 70
0
 10
23.1851911548
 20
-22.1711481116
 10
23.1831863676
 20
-22.22934238
 10
23.1773780599
 20
-22.2878217874
 10
23.1676859542
 20
-22.346329798
 10
23.1540008224
 20
-22.4047666014
 10
23.1363016663
 20
-22.4626779678
 10
23.1147683513
 20
-22.5192911243
 10
23.0895010932
 20
-22.5743377165
 10
23.0606041849
 20
-22.6275855437
 10
23.0284722339
 20
-22.6784028654
 10
22.9932655544
 20
-22.726689506
 10
22.9552575711
 20
-22.7722074094
 10
22.9152203438
 20
-22.8142879864
 10
22.8735346198
 20
-22.8528791275
 10
22.8304770695
 20
-22.8880433534
 10
22.7868232381
 20
-22.9195017811
 10
22.743037837
 20
-22.9473274567
 10
22.6993126522
 20
-22.9717763464
 10
22.6560465285
 20
-22.992975219
 10
22.613826346
 20
-23.0110076238
 10
22.5725600282
 20
-23.0262603525
 10
22.5315462332
 20
-23.0392185258
 10
22.4912095634
 20
-23.0499164038
 10
22.4513878164
 20
-23.0585598341
 10
22.4103813656
 20
-23.0655272345
 10
22.3676506936
 20
-23.070748445
 10
22.3238755634
 20
-23.0739758849
 10
22.2791495687
 20
-23.0750791816
  0
LWPOLYLINE
  5
37B
100
AcDbEntity
  8
RACCORDO
100
AcDbPolyline
 62
253
  6
CONTINUOUS
 90
13
 70
0
 10
22.9103397369
 20
45.4761492242
 10
22.9125160941
 20
45.5081649112
 10
22.9144606418
 20
45.5392103465
 10
22.9161500018
 20
45.5689122846
 10
22.9175638635
 20
45.5969136327
 10
22.9186852288
 20
45.6228777433
 10
22.9195006159
 20
45.6464924616
 10
22.9200002219
 20
45.6674738785
 10
22.9201780403
 20
45.685569744
 10
22.9200319331
 20
45.7005624997
 10
22.919563657
 20
45.7122718944
 10
22.9187788419
 20
45.7205571514
 10
22.9176869231
 20
45.7253186609
  0
LWPOLYLINE
  5
37C
100
AcDbEntity
  8
RACCORDO
100
AcDbPolyline
 62
253
  6
CONTINUOUS
 90
13
 70
0
 10
23.0655913299
 20
45.4639679324
 10
23.067781607
 20
45.495983009
 10
23.0697384794
 20
45.5270280588
 10
23.0714384203
 20
45.5567298358
 10
23.0728609916
 20
45.5847312436
 10
23.0739890901
 20
45.610695629
 10
23.0748091531
 20
45.6343108293
 10
23.0753113212
 20
45.6552929254
 10
23.0754895569
 20
45.6733896554
 10
23.0753417174
 20
45.6883834473
 10
23.0748695801
 20
45.7000940347
 10
23.0740788213
 20
45.7083806246
 10
23.0729789482
 20
45.7131435895
  0
LINE
  5
37D
100
AcDbEntity
  8
RACCORDO
100
AcDbLine
 62
253
  6
CONTINUOUS
 10
22.312667637
 20
22.7525881149
 11
22.3059970482
 21
22.6650202529
  0
LWPOLYLINE
  5
37E
100
AcDbEntity
  8
RACCORDO
100
AcDbPolyline
 62
253
  6
CONTINUOUS
 90
13
 70
0
 10
26.3413882376
 20
45.1870572282
 10
26.3439597539
 20
45.2190741238
 10
26.3462924492
 20
45.2501248313
 10
26.348358237
 20
45.2798354881
 10
26.3501322444
 20
45.3078483664
 10
26.3515931115
 20
45.3338261804
 10
26.3527232491
 20
45.3574561469
 10
26.3535090499
 20
45.3784537521
 10
26.3539410524
 20
45.3965661766
 10
26.3540140551
 20
45.4115753398
 10
26.3537271793
 20
45.4233005255
 10
26.3530838788
 20
45.431600558
 10
26.3520918993
 20
45.4363755016
  0
LINE
  5
37F
100
AcDbEntity
  8
RACCORDO
100
AcDbLine
 62
253
  6
CONTINUOUS
 10
22.3059970482
 20
22.6650202529
 11
22.2987512417
 21
22.5787319956
  0
LINE
  5
380
100
AcDbEntity
  8
RACCORDO
100
AcDbLine
 62
253
  6
CONTINUOUS
 10
26.3687731913
 20
45.6137408958
 11
26.3520893555
 21
45.4363757327
  0
LWPOLYLINE
  5
381
100
AcDbEntity
  8
RACCORDO
100
AcDbPolyline
 62
253
  6
CONTINUOUS
 90
5
 70
0
 10
22.2987512417
 20
22.5787319956
 10
22.2910855257
 20
22.495572926
 10
22.2871462918
 20
22.4557275489
 10
22.2831642087
 20
22.4173255529
 10
22.2791606433
 20
22.3805730006
  0
LINE
  5
382
100
AcDbEntity
  8
RACCORDO
100
AcDbLine
 62
253
  6
CONTINUOUS
 10
45.617476493
 20
31.1799821525
 11
45.4478690051
 21
31.1485730962
  0
LWPOLYLINE
  5
383
100
AcDbEntity
  8
RACCORDO
100
AcDbPolyline
 62
253
  6
CONTINUOUS
 90
16
 70
0
 10
45.1716194078
 20
31.120193995
 10
45.1992210303
 20
31.1248511973
 10
45.2264231381
 20
31.1292382706
 10
45.2529854811
 20
31.1333164683
 10
45.2786734599
 20
31.1370497716
 10
45.3032601973
 20
31.1404052079
 10
45.3265285423
 20
31.1433531421
 10
45.3482729881
 20
31.145867538
 10
45.368301487
 20
31.1479261883
 10
45.3864371465
 20
31.1495109111
 10
45.4025197918
 20
31.1506077103
 10
45.4164073805
 20
31.1512068988
 10
45.4279772568
 20
31.1513031847
 10
45.4371272351
 20
31.1508957178
 10
45.4437765026
 20
31.1499880968
 10
45.4478663327
 20
31.1485883381
  0
LINE
  5
384
100
AcDbEntity
  8
RACCORDO
100
AcDbLine
 62
253
  6
CONTINUOUS
 10
46.1952830545
 20
27.1799821525
 11
46.0245389155
 21
27.1600698465
  0
LWPOLYLINE
  5
385
100
AcDbEntity
  8
RACCORDO
100
AcDbPolyline
 62
253
  6
CONTINUOUS
 90
16
 70
0
 10
45.7453581243
 20
27.1450926426
 10
45.7733655442
 20
27.1480232601
 10
45.8009653428
 20
27.1507525732
 10
45.8279112091
 20
27.1532562245
 10
45.853962668
 20
27.1555118704
 10
45.8788872262
 20
27.1574993807
 10
45.9024624478
 20
27.1592010181
 10
45.9244779384
 20
27.1606015966
 10
45.9447372234
 20
27.1616886169
 10
45.9630595013
 20
27.162452378
 10
45.9792812572
 20
27.1628860637
 10
45.9932577219
 20
27.1629858038
 10
46.0048641642
 20
27.1627507081
 10
46.0139970038
 20
27.1621828747
 10
46.0205747358
 20
27.1612873711
 10
46.024538658
 20
27.1600721892
  0
LWPOLYLINE
  5
386
100
AcDbEntity
  8
RACCORDO
100
AcDbPolyline
 62
253
  6
CONTINUOUS
 90
15
 70
0
 10
46.0707016261
 20
24.0433062867
 10
46.1264721281
 20
24.0484259516
 10
46.1534946844
 20
24.0507305817
 10
46.1796175337
 20
24.0528370327
 10
46.2046067717
 20
24.0547264434
 10
46.2282386443
 20
24.056381896
 10
46.2503015511
 20
24.0577885675
 10
46.2705979406
 20
24.0589338626
 10
46.2889460786
 20
24.0598075263
 10
46.3051816754
 20
24.0604017358
 10
46.3191593572
 20
24.0607111705
 10
46.3307539677
 20
24.0607330598
 10
46.3398616884
 20
24.0604672075
 10
46.3464009687
 20
24.0599159943
 10
46.3503132557
 20
24.0590843556
  0
LWPOLYLINE
  5
387
100
AcDbEntity
  8
RACCORDO
100
AcDbPolyline
 62
253
  6
CONTINUOUS
 90
15
 70
0
 10
46.084502751
 20
23.9030112493
 10
46.1402786394
 20
23.9080996042
 10
46.1673037587
 20
23.9103900433
 10
46.193429029
 20
23.9124834497
 10
46.2184205067
 20
23.9143610777
 10
46.242054401
 20
23.9160061135
 10
46.2641190776
 20
23.9174038265
 10
46.2844169543
 20
23.9185417005
 10
46.3027662699
 20
23.9194095463
 10
46.3190027121
 20
23.9199995926
 10
46.3329808884
 20
23.9203065557
 10
46.3445756289
 20
23.9203276868
 10
46.353683106
 20
23.9200627967
 10
46.3602217653
 20
23.9195142574
 10
46.364133055
 20
23.9186869809
  0
LWPOLYLINE
  5
388
100
AcDbEntity
  8
RACCORDO
100
AcDbPolyline
 62
253
  6
CONTINUOUS
 90
16
 70
0
 10
-21.320826521
 20
22.3805744817
 10
-18.4218428958
 20
22.5834314928
 10
-15.5202990829
 20
22.7573540525
 10
-12.6161950822
 20
22.9023421609
 10
-9.70896144
 20
23.0184308979
 10
-6.79916761
 20
23.1055851836
 10
-3.8885219538
 20
23.1636997781
 10
-0.977025855
 20
23.1927395954
 10
1.9353220701
 20
23.1927397216
 10
4.8468176116
 20
23.1637001753
 10
7.7574606813
 20
23.1055859728
 10
10.6672513674
 20
23.0184320977
 10
13.5744857239
 20
22.9023435197
 10
16.4785957689
 20
22.7573552286
 10
19.3801494843
 20
22.5834322347
 10
22.2791468701
 20
22.3805745379
  0
LINE
  5
389
100
AcDbEntity
  8
RACCORDO
100
AcDbLine
 62
253
  6
CONTINUOUS
 10
23.3926170686
 20
21.2351821948
 11
23.3551620806
 21
21.2340475355
  0
LINE
  5
38A
100
AcDbEntity
  8
RACCORDO
100
AcDbLine
 62
253
  6
CONTINUOUS
 10
23.4723940502
 20
21.2370868434
 11
23.3926170686
 21
21.2351821948
  0
LWPOLYLINE
  5
38B
100
AcDbEntity
  8
RACCORDO
100
AcDbPolyline
 62
253
  6
CONTINUOUS
 90
10
 70
0
 10
23.2873846651
 20
21.233411511
 10
23.2680140945
 20
21.2330667295
 10
23.250449605
 20
21.2326654017
 10
23.2347961392
 20
21.2322137485
 10
23.2211445826
 20
21.2317183298
 10
23.2095708662
 20
21.2311860794
 10
23.2001399447
 20
21.2306241762
 10
23.1929061833
 20
21.2300398906
 10
23.1879121287
 20
21.2294405582
 10
23.1851870873
 20
21.2288336418
  0
LINE
  5
38C
100
AcDbEntity
  8
RACCORDO
100
AcDbLine
 62
253
  6
CONTINUOUS
 10
23.5571789221
 20
21.2384713721
 11
23.4723940502
 21
21.2370868434
  0
LINE
  5
38D
100
AcDbEntity
  8
RACCORDO
100
AcDbLine
 62
253
  6
CONTINUOUS
 10
23.6451007115
 20
21.2393052282
 11
23.5571789221
 21
21.2384713721
  0
LWPOLYLINE
  5
38E
100
AcDbEntity
  8
RACCORDO
100
AcDbPolyline
 62
253
  6
CONTINUOUS
 90
3
 70
0
 10
23.3551620853
 20
21.2340489588
 10
23.3310837147
 20
21.2339080406
 10
23.2873846651
 20
21.233411511
  0
LWPOLYLINE
  5
38F
100
AcDbEntity
  8
0
100
AcDbPolyline
 62
7
  6
CONTINUOUS
 90
13
 70
0
 10
-21.3208393567
 20
22.0434866711
 10
-17.6898873206
 20
22.0532678538
 10
-14.0579827656
 20
22.0612708302
 10
-10.4251256917
 20
22.0674956003
 10
-6.7909985926
 20
22.0719423969
 10
-3.1559189747
 20
22.0746109873
 10
0.4791606433
 20
22.0755006726
 10
4.1142402612
 20
22.0746109873
 10
7.7493198792
 20
22.0719423969
 10
11.3834469783
 20
22.0674956003
 10
15.0163040522
 20
22.0612708302
 10
18.6482086072
 20
22.0532678538
 10
22.2791606433
 20
22.0434866711
  0
LINE
  5
390
100
AcDbEntity
  8
RACCORDO
100
AcDbLine
 62
253
  6
CONTINUOUS
 10
23.7342192226
 20
21.2395700107
 11
23.6451007115
 21
21.2393052282
  0
LINE
  5
391
100
AcDbEntity
  8
RACCORDO
100
AcDbLine
 62
253
  6
CONTINUOUS
 10
-22.1349499502
 20
21.2288336418
 11
-22.2268699131
 21
21.2287807083
  0
LINE
  5
392
100
AcDbEntity
  8
RACCORDO
100
AcDbLine
 62
253
  6
CONTINUOUS
 10
-21.3208428768
 20
22.1327464671
 11
22.2791596794
 21
22.1327464671
  0
LINE
  5
393
100
AcDbEntity
  8
RACCORDO
100
AcDbLine
 62
253
  6
CONTINUOUS
 10
-21.3208320187
 20
22.3027677065
 11
22.2791562989
 21
22.3027677065
  0
LINE
  5
394
100
AcDbEntity
  8
RACCORDO
100
AcDbLine
 62
253
  6
CONTINUOUS
 10
23.0932712368
 20
21.2288336418
 11
23.1851871141
 21
21.2288206117
  0
LWPOLYLINE
  5
395
100
AcDbEntity
  8
RACCORDO
100
AcDbPolyline
 62
253
  6
CONTINUOUS
 90
10
 70
0
 10
-22.3968872353
 20
21.2340490594
 10
-22.3650672856
 20
21.2338479548
 10
-22.3359015962
 20
21.2335201207
 10
-22.3096865496
 20
21.2330774562
 10
-22.2866885415
 20
21.2325332817
 10
-22.2671412739
 20
21.2319021752
 10
-22.2512433798
 20
21.2311997932
 10
-22.2391564049
 20
21.2304426794
 10
-22.2310031657
 20
21.2296480616
 10
-22.2268665016
 20
21.2288336414
  0
LINE
  5
396
100
AcDbEntity
  8
RACCORDO
100
AcDbLine
 62
253
  6
CONTINUOUS
 10
-22.7758575164
 20
21.2442822846
 11
-22.6867432513
 21
21.2428921466
  0
LWPOLYLINE
  5
397
100
AcDbEntity
  8
RACCORDO
100
AcDbPolyline
 62
253
  6
CONTINUOUS
 90
22
 70
0
 10
22.2791562989
 20
22.3027677061
 10
22.3194841296
 20
22.3020146963
 10
22.3605206625
 20
22.2996886209
 10
22.4022017425
 20
22.2957092014
 10
22.4441667965
 20
22.2900388354
 10
22.4866311322
 20
22.2825754706
 10
22.5303660285
 20
22.2730367665
 10
22.5755071103
 20
22.2611617763
 10
22.6216562869
 20
22.2468116141
 10
22.6687356815
 20
22.229774489
 10
22.716719679
 20
22.2097910766
 10
22.765236103
 20
22.1867331548
 10
22.8136743771
 20
22.1606352162
 10
22.8618566932
 20
22.1313518596
 10
22.9095004554
 20
22.0988181017
 10
22.9558894199
 20
22.0633362143
 10
23.000800219
 20
22.0249330462
 10
23.0440340481
 20
21.9836139771
 10
23.085018832
 20
21.9398121616
 10
23.1235044471
 20
21.8937902993
 10
23.1594776027
 20
21.845550255
 10
23.1927982229
 20
21.7952223334
  0
LWPOLYLINE
  5
398
100
AcDbEntity
  8
RACCORDO
100
AcDbPolyline
 62
253
  6
CONTINUOUS
 90
28
 70
0
 10
22.2791596794
 20
22.132746467
 10
22.3186538827
 20
22.1318850436
 10
22.3590319074
 20
22.1292191181
 10
22.4002048976
 20
22.1246250839
 10
22.4417249206
 20
22.1180439666
 10
22.4838334325
 20
22.1093267098
 10
22.527426996
 20
22.0980700562
 10
22.5727368658
 20
22.0838675402
 10
22.6191169385
 20
22.0665530522
 10
22.6660833058
 20
22.0459772433
 10
22.7135094807
 20
22.0218519247
 10
22.7609383602
 20
21.9940433092
 10
22.8074260912
 20
21.9628121581
 10
22.8526871746
 20
21.9281225119
 10
22.8964278129
 20
21.8899555392
 10
22.9378333754
 20
21.8488546731
 10
22.9766219028
 20
21.8050371428
 10
23.0126719327
 20
21.7585716189
 10
23.0455729175
 20
21.7099569021
 10
23.0752190631
 20
21.6593830177
 10
23.1014874227
 20
21.6070962895
 10
23.1241095831
 20
21.5537800789
 10
23.1430666721
 20
21.4997996219
 10
23.1584353147
 20
21.4453106143
 10
23.170231664
 20
21.3907211901
 10
23.1785422799
 20
21.3363246365
 10
23.1834888763
 20
21.2822888939
 10
23.1851911429
 20
21.2288206111
  0
LINE
  5
399
100
AcDbEntity
  8
RACCORDO
100
AcDbLine
 62
253
  6
CONTINUOUS
 10
-22.6867432513
 20
21.2428921466
 11
-22.5988227862
 21
21.2409575874
  0
LWPOLYLINE
  5
39A
100
AcDbEntity
  8
RACCORDO
100
AcDbPolyline
 62
253
  6
CONTINUOUS
 90
10
 70
0
 10
-22.3968828165
 20
21.234049025
 10
-22.3650696777
 20
21.2331660194
 10
-22.3359085731
 20
21.2321848048
 10
-22.3096961576
 20
21.2311153331
 10
-22.2866988293
 20
21.2299684347
 10
-22.2671512687
 20
21.2287557691
 10
-22.251253416
 20
21.2274897175
 10
-22.2391669929
 20
21.2261831681
 10
-22.231014493
 20
21.2248493746
 10
-22.226878753
 20
21.2235018894
  0
LINE
  5
39B
100
AcDbEntity
  8
RACCORDO
100
AcDbLine
 62
253
  6
CONTINUOUS
 10
-22.5988227862
 20
21.2409575874
 11
-22.5140451065
 21
21.2385215053
  0
LWPOLYLINE
  5
39C
100
AcDbEntity
  8
RACCORDO
100
AcDbPolyline
 62
253
  6
CONTINUOUS
 90
3
 70
0
 10
-22.5140451065
 20
21.2385215053
 10
-22.4343109527
 20
21.2356389878
 10
-22.3968857482
 20
21.2340499241
  0
LWPOLYLINE
  5
39D
100
AcDbEntity
  8
RACCORDO
100
AcDbPolyline
 62
253
  6
CONTINUOUS
 90
13
 70
0
 10
-45.208982469
 20
23.9103900428
 10
-45.2351077382
 20
23.912483449
 10
-45.2600992149
 20
23.9143610768
 10
-45.2837331081
 20
23.9160061125
 10
-45.3057977838
 20
23.9174038254
 10
-45.3260956596
 20
23.9185416994
 10
-45.3444449743
 20
23.9194095451
 10
-45.3606814157
 20
23.9199995914
 10
-45.3746595915
 20
23.9203065544
 10
-45.3862543314
 20
23.9203276855
 10
-45.3953618082
 20
23.9200627954
 10
-45.4019004673
 20
23.9195142562
 10
-45.405811757
 20
23.9186869798
  0
LWPOLYLINE
  5
39E
100
AcDbEntity
  8
RACCORDO
100
AcDbPolyline
 62
253
  6
CONTINUOUS
 90
13
 70
0
 10
-45.1951733978
 20
24.0507305817
 10
-45.2212962472
 20
24.0528370327
 10
-45.2462854852
 20
24.0547264434
 10
-45.2699173577
 20
24.056381896
 10
-45.2919802646
 20
24.0577885675
 10
-45.3122766541
 20
24.0589338626
 10
-45.330624792
 20
24.0598075263
 10
-45.3468603888
 20
24.0604017358
 10
-45.3608380706
 20
24.0607111705
 10
-45.3724326811
 20
24.0607330597
 10
-45.3815404018
 20
24.0604672075
 10
-45.3880796821
 20
24.0599159943
 10
-45.3919919691
 20
24.0590843556
  0
LWPOLYLINE
  5
39F
100
AcDbEntity
  8
RACCORDO
100
AcDbPolyline
 62
253
  6
CONTINUOUS
 90
3
 70
0
 10
-45.1261814642
 20
23.9030112492
 10
-45.1542743851
 20
23.9056326423
 10
-45.208982469
 20
23.9103900428
  0
LWPOLYLINE
  5
3A0
100
AcDbEntity
  8
RACCORDO
100
AcDbPolyline
 62
253
  6
CONTINUOUS
 90
3
 70
0
 10
-45.1123803395
 20
24.0433062867
 10
-45.1404705388
 20
24.0459437781
 10
-45.1951733978
 20
24.0507305817
  0
LINE
  5
3A1
100
AcDbEntity
  8
RACCORDO
100
AcDbLine
 62
253
  6
CONTINUOUS
 10
-45.4058117684
 20
23.9186869809
 11
-45.5766219238
 21
23.935442607
  0
LWPOLYLINE
  5
3A2
100
AcDbEntity
  8
RACCORDO
100
AcDbPolyline
 62
253
  6
CONTINUOUS
 90
16
 70
0
 10
-44.7870368378
 20
27.1450926427
 10
-44.8150442574
 20
27.1480232602
 10
-44.8426440558
 20
27.1507525733
 10
-44.8695899219
 20
27.1532562245
 10
-44.8956413805
 20
27.1555118704
 10
-44.9205659385
 20
27.1574993807
 10
-44.9441411598
 20
27.1592010182
 10
-44.9661566501
 20
27.1606015966
 10
-44.9864159349
 20
27.1616886169
 10
-45.0047382126
 20
27.1624523779
 10
-45.0209599682
 20
27.1628860637
 10
-45.0349364327
 20
27.1629858037
 10
-45.0465428748
 20
27.1627507079
 10
-45.0556757143
 20
27.1621828744
 10
-45.0622534461
 20
27.1612873708
 10
-45.0662173682
 20
27.1600721888
  0
LINE
  5
3A3
100
AcDbEntity
  8
RACCORDO
100
AcDbLine
 62
253
  6
CONTINUOUS
 10
-45.2369617679
 20
27.1799821525
 11
-45.0662176709
 21
27.1600694696
  0
LWPOLYLINE
  5
3A4
100
AcDbEntity
  8
RACCORDO
100
AcDbPolyline
 62
253
  6
CONTINUOUS
 90
16
 70
0
 10
-44.2132981213
 20
31.1201939951
 10
-44.2408997399
 20
31.1248512012
 10
-44.2681018437
 20
31.1292382782
 10
-44.2946641826
 20
31.1333164792
 10
-44.3203521572
 20
31.1370497855
 10
-44.3449388904
 20
31.1404052243
 10
-44.3682072315
 20
31.1433531603
 10
-44.3899516735
 20
31.1458675572
 10
-44.4099801689
 20
31.1479262078
 10
-44.4281158252
 20
31.14951093
 10
-44.4441984679
 20
31.1506077276
 10
-44.4580860544
 20
31.1512069134
 10
-44.4696559291
 20
31.1513031956
 10
-44.4788059065
 20
31.1508957237
 10
-44.4854551737
 20
31.1499880965
 10
-44.489545004
 20
31.1485883303
  0
LINE
  5
3A5
100
AcDbEntity
  8
RACCORDO
100
AcDbLine
 62
253
  6
CONTINUOUS
 10
-44.6591552064
 20
31.1799821525
 11
-44.4895517939
 21
31.1485502105
  0
LWPOLYLINE
  5
3A6
100
AcDbEntity
  8
RACCORDO
100
AcDbPolyline
 62
253
  6
CONTINUOUS
 90
10
 70
0
 10
23.355209787
 20
21.2340490011
 10
23.352461185
 20
21.3057232177
 10
23.345225938
 20
21.374500889
 10
23.3340273598
 20
21.4401010708
 10
23.3193967033
 20
21.5021500375
 10
23.3018636063
 20
21.5607154305
 10
23.2818314624
 20
21.6162691435
 10
23.2596334581
 20
21.6689480912
 10
23.235653733
 20
21.7185610024
 10
23.2102407376
 20
21.7651231273
  0
LWPOLYLINE
  5
3A7
100
AcDbEntity
  8
RACCORDO
100
AcDbPolyline
 62
253
  6
CONTINUOUS
 90
10
 70
0
 10
23.3552103932
 20
-22.1763816896
 10
23.3527618853
 20
-22.2419353822
 10
23.3463196408
 20
-22.3072833371
 10
23.3358947935
 20
-22.3721524017
 10
23.3215180791
 20
-22.4362868436
 10
23.303251344
 20
-22.4994468035
 10
23.2811630882
 20
-22.5613854031
 10
23.2553214654
 20
-22.6218671336
 10
23.225820849
 20
-22.6806738433
 10
23.1927768972
 20
-22.7375865454
  0
LWPOLYLINE
  5
3A8
100
AcDbEntity
  8
RACCORDO
100
AcDbPolyline
 62
253
  6
CONTINUOUS
 90
16
 70
0
 10
23.7342090131
 20
-22.1863067242
 10
23.7306598841
 20
-22.2715859137
 10
23.7223158971
 20
-22.3564289505
 10
23.7091770667
 20
-22.4408358416
 10
23.6911948675
 20
-22.5251827426
 10
23.6684178463
 20
-22.6090935071
 10
23.640991658
 20
-22.6914397142
 10
23.6088138901
 20
-22.7721723968
 10
23.5719870469
 20
-22.8513405866
 10
23.5309642172
 20
-22.9279629068
 10
23.4857057684
 20
-23.0019430332
 10
23.4362514686
 20
-23.0733773914
 10
23.3831735481
 20
-23.1415737616
 10
23.3266628074
 20
-23.206301448
 10
23.266528598
 20
-23.2677912643
 10
23.2027709883
 20
-23.3260432638
  0
LWPOLYLINE
  5
3A9
100
AcDbEntity
  8
RACCORDO
100
AcDbPolyline
 62
253
  6
CONTINUOUS
 90
11
 70
0
 10
31.323542279
 20
44.6573187317
 10
31.3274245661
 20
44.6868760583
 10
31.3309467807
 20
44.7147505389
 10
31.3340664537
 20
44.7406060771
 10
31.3367459697
 20
44.7641309198
 10
31.3389530204
 20
44.7850414162
 10
31.3406609944
 20
44.8030854382
 10
31.3418492976
 20
44.8180454198
 10
31.3425036022
 20
44.8297409813
 10
31.3426160189
 20
44.8380311034
 10
31.3421851922
 20
44.8428158279
  0
LINE
  5
3AA
100
AcDbEntity
  8
RACCORDO
100
AcDbLine
 62
253
  6
CONTINUOUS
 10
31.3148885073
 20
44.5945970842
 11
31.323542279
 21
44.6573187317
  0
LINE
  5
3AB
100
AcDbEntity
  8
RACCORDO
100
AcDbLine
 62
253
  6
CONTINUOUS
 10
31.3687731913
 20
45.0188336418
 11
31.3421153346
 21
44.8428261702
  0
LWPOLYLINE
  5
3AC
100
AcDbEntity
  8
SUPERFICI
100
AcDbPolyline
 62
7
  6
CONTINUOUS
 90
22
 70
0
 10
23.0772409
 20
-22.3303142287
 10
23.0650486009
 20
-22.3821293188
 10
23.0495054784
 20
-22.433043389
 10
23.0306763193
 20
-22.4828405456
 10
23.0086385837
 20
-22.5313115518
 10
22.9834853849
 20
-22.5782482502
 10
22.9553264655
 20
-22.6234452516
 10
22.9242816173
 20
-22.6667105571
 10
22.8904817441
 20
-22.7078612127
 10
22.8540734431
 20
-22.7467188907
 10
22.8152117732
 20
-22.7831192566
 10
22.7740613837
 20
-22.8169085688
 10
22.7308000405
 20
-22.8479411191
 10
22.6856120632
 20
-22.8760862782
 10
22.6386890167
 20
-22.9012257611
 10
22.5902325912
 20
-22.9232516869
 10
22.5404496172
 20
-22.9420718636
 10
22.489550455
 20
-22.9576081405
 10
22.4377509683
 20
-22.9697944232
 10
22.3852709291
 20
-22.9785797736
 10
22.3323327635
 20
-22.9839286231
 10
22.2791606433
 20
-22.9858193876
  0
LWPOLYLINE
  5
3AD
100
AcDbEntity
  8
0
100
AcDbPolyline
 62
7
  6
CONTINUOUS
 90
10
 70
0
 10
5.4212479979
 20
-27.9798186475
 10
5.3974236798
 20
-28.0001931243
 10
5.3859632484
 20
-28.0097672492
 10
5.3745310335
 20
-28.0187794508
 10
5.363209488
 20
-28.0273825369
 10
5.3519161547
 20
-28.0354237091
 10
5.3401636617
 20
-28.0423191178
 10
5.3277895484
 20
-28.0478741534
 10
5.3149562658
 20
-28.0522834412
 10
5.3016638082
 20
-28.0555469863
  0
LWPOLYLINE
  5
3AE
100
AcDbEntity
  8
RACCORDO
100
AcDbPolyline
 62
253
  6
CONTINUOUS
 90
16
 70
0
 10
-21.3543463078
 20
22.7525880794
 10
-18.4511123639
 20
22.9556915049
 10
-15.5450554419
 20
23.1298230489
 10
-12.6363072239
 20
23.274984116
 10
-9.7245612539
 20
23.391211639
 10
-6.8103862225
 20
23.4784708255
 10
-3.8952267099
 20
23.5366551544
 10
-0.9792142164
 20
23.5657293581
 10
1.93752017
 20
23.5657294354
 10
4.8535320955
 20
23.5366554055
 10
7.7686893148
 20
23.478471348
 10
10.6828614856
 20
23.3912124523
 10
13.5946075
 20
23.2749850421
 10
16.5033598227
 20
23.1298238443
 10
19.4094237494
 20
22.9556919915
 10
22.3126675944
 20
22.7525880794
  0
LINE
  5
3AF
100
AcDbEntity
  8
0
100
AcDbLine
 62
253
  6
CONTINUOUS
 10
23.1981919353
 20
24.0433062867
 11
-22.2398706487
 21
24.0433062867
  0
LINE
  5
3B0
100
AcDbEntity
  8
RACCORDO
100
AcDbLine
 62
253
  6
CONTINUOUS
 10
23.1981919353
 20
24.0433062867
 11
46.0707016883
 21
24.0433056679
  0
LINE
  5
3B1
100
AcDbEntity
  8
RACCORDO
100
AcDbLine
 62
253
  6
CONTINUOUS
 10
-22.2398706487
 20
24.0433062867
 11
-45.112380403
 21
24.0433056551
  0
LWPOLYLINE
  5
3B2
100
AcDbEntity
  8
RACCORDO
100
AcDbPolyline
 62
253
  6
CONTINUOUS
 90
16
 70
0
 10
22.3126675944
 20
22.7525880794
 10
22.3715436854
 20
22.7473139358
 10
22.4313284096
 20
22.7392851374
 10
22.492021796
 20
22.7285016779
 10
22.553952356
 20
22.7150270079
 10
22.616791627
 20
22.6987976585
 10
22.6795541994
 20
22.6796232401
 10
22.7422472341
 20
22.6573806239
 10
22.8048636605
 20
22.6321929044
 10
22.866396757
 20
22.604239024
 10
22.926809636
 20
22.5733961159
 10
22.9861392813
 20
22.5397870014
 10
23.0434897952
 20
22.5039591587
 10
23.0985625731
 20
22.466095068
 10
23.1516562951
 20
22.4260122056
 10
23.2027709883
 20
22.3837105473
  0
LWPOLYLINE
  5
3B3
100
AcDbEntity
  8
RACCORDO
100
AcDbPolyline
 62
253
  6
CONTINUOUS
 90
16
 70
0
 10
22.27914687
 20
22.3805750325
 10
22.3237592575
 20
22.3753097171
 10
22.3691600352
 20
22.368218853
 10
22.4152558826
 20
22.3591896222
 10
22.4620767539
 20
22.3480615516
 10
22.5093683561
 20
22.3347578856
 10
22.5566181327
 20
22.3193419002
 10
22.6037237498
 20
22.3017529151
 10
22.6505622661
 20
22.2819457185
 10
22.69663539
 20
22.260112987
 10
22.7418596459
 20
22.2362734647
 10
22.7861336171
 20
22.21044111
 10
22.8289977241
 20
22.1829041717
 10
22.8702811767
 20
22.1538270021
 10
22.910065922
 20
22.1232044928
 10
22.9483113913
 20
22.0911164342
  0
LWPOLYLINE
  5
3B4
100
AcDbEntity
  8
SUPERFICI
100
AcDbPolyline
 62
7
  6
CONTINUOUS
 90
22
 70
0
 10
23.0772409
 20
21.3879815122
 10
23.0650486009
 20
21.4397966023
 10
23.0495054784
 20
21.4907106725
 10
23.0306763193
 20
21.5405078291
 10
23.0086385837
 20
21.5889788353
 10
22.9834853849
 20
21.6359155337
 10
22.9553264655
 20
21.6811125351
 10
22.9242816173
 20
21.7243778406
 10
22.8904817441
 20
21.7655284962
 10
22.8540734431
 20
21.8043861742
 10
22.8152117732
 20
21.8407865401
 10
22.7740613837
 20
21.8745758523
 10
22.7308000405
 20
21.9056084026
 10
22.6856120632
 20
21.9337535617
 10
22.6386890167
 20
21.9588930446
 10
22.5902325912
 20
21.9809189704
 10
22.5404496172
 20
21.9997391471
 10
22.489550455
 20
22.015275424
 10
22.4377509683
 20
22.0274617067
 10
22.3852709291
 20
22.0362470571
 10
22.3323327635
 20
22.0415959066
 10
22.2791606433
 20
22.0434866711
  0
LINE
  5
3B5
100
AcDbEntity
  8
RACCORDO
100
AcDbLine
 62
253
  6
CONTINUOUS
 10
31.3687731913
 20
-45.9611663582
 11
31.3421128553
 21
-45.7851592535
  0
LWPOLYLINE
  5
3B6
100
AcDbEntity
  8
RACCORDO
100
AcDbPolyline
 62
253
  6
CONTINUOUS
 90
12
 70
0
 10
31.3148885059
 20
-45.5369298012
 10
31.3235422578
 20
-45.5996514125
 10
31.3274245356
 20
-45.6292087188
 10
31.330946742
 20
-45.6570831786
 10
31.3340664081
 20
-45.6829386957
 10
31.3367459188
 20
-45.7064635177
 10
31.3389529662
 20
-45.7273739943
 10
31.340660939
 20
-45.7454179976
 10
31.3418492436
 20
-45.7603779623
 10
31.3425035522
 20
-45.7720735088
 10
31.3426159756
 20
-45.7803636181
 10
31.3421851587
 20
-45.7851483323
  0
LWPOLYLINE
  5
3B7
100
AcDbEntity
  8
RACCORDO
100
AcDbPolyline
 62
253
  6
CONTINUOUS
 90
7
 70
0
 10
23.192780093
 20
-22.7375847811
 10
23.1587901223
 20
-22.7922951707
 10
23.1219426086
 20
-22.8450078882
 10
23.0823560877
 20
-22.8956002534
 10
23.0401426636
 20
-22.9439469825
 10
22.9954164308
 20
-22.9899284013
 10
22.9483113913
 20
-23.0334491507
  0
LWPOLYLINE
  5
3B8
100
AcDbEntity
  8
RACCORDO
100
AcDbPolyline
 62
253
  6
CONTINUOUS
 90
22
 70
0
 10
23.192780093
 20
-22.7375847811
 10
23.1574706395
 20
-22.790725767
 10
23.1196585695
 20
-22.8409599083
 10
23.0796049666
 20
-22.8882157386
 10
23.0374243847
 20
-22.9325675636
 10
22.9934755553
 20
-22.9738265094
 10
22.9484495505
 20
-23.0116341599
 10
22.9027032971
 20
-23.0460263119
 10
22.8564505789
 20
-23.0771458923
 10
22.8102309223
 20
-23.1049303544
 10
22.7644528133
 20
-23.1294620927
 10
22.7192016152
 20
-23.151016094
 10
22.6745094871
 20
-23.1698458551
 10
22.630805728
 20
-23.1860253502
 10
22.5880003803
 20
-23.1998315379
 10
22.5452665331
 20
-23.2116798427
 10
22.502879359
 20
-23.2215873275
 10
22.4607453138
 20
-23.2296683411
 10
22.4174023061
 20
-23.2361835739
 10
22.3723889805
 20
-23.2410551469
 10
22.3262833667
 20
-23.2440707805
 10
22.2791619757
 20
-23.2451004231
  0
LWPOLYLINE
  5
3B9
100
AcDbEntity
  8
RACCORDO
100
AcDbPolyline
 62
253
  6
CONTINUOUS
 90
16
 70
0
 10
22.9483113913
 20
-23.0334491507
 10
22.9100657695
 20
-23.0655373296
 10
22.870280904
 20
-23.0961599151
 10
22.8289973689
 20
-23.1252371218
 10
22.7861332397
 20
-23.1527740534
 10
22.7418592941
 20
-23.1786063757
 10
22.6966350587
 20
-23.2024458716
 10
22.650561933
 20
-23.2242785885
 10
22.6037234077
 20
-23.2440857733
 10
22.556617764
 20
-23.2616747501
 10
22.5093679031
 20
-23.2770907377
 10
22.462076197
 20
-23.2903944014
 10
22.4152553134
 20
-23.3015224456
 10
22.369159586
 20
-23.3105516329
 10
22.323759026
 20
-23.3176424551
 10
22.2791469552
 20
-23.3229077408
  0
LWPOLYLINE
  5
3BA
100
AcDbEntity
  8
RACCORDO
100
AcDbPolyline
 62
253
  6
CONTINUOUS
 90
16
 70
0
 10
23.2027709883
 20
-23.3260432638
 10
23.1516562917
 20
-23.3683449168
 10
23.0985625679
 20
-23.4084277764
 10
23.0434897897
 20
-23.4462918666
 10
22.9861392775
 20
-23.4821197121
 10
22.9268096354
 20
-23.5157288318
 10
22.8663967592
 20
-23.546571745
 10
22.8048636646
 20
-23.5745256322
 10
22.7422472398
 20
-23.5997133584
 10
22.6795542046
 20
-23.6219559724
 10
22.6167916275
 20
-23.6411303692
 10
22.5539523498
 20
-23.657359688
 10
22.4920217858
 20
-23.670834341
 10
22.4313283999
 20
-23.6816178047
 10
22.3715436792
 20
-23.6896466209
 10
22.3126675944
 20
-23.6949207959
  0
LWPOLYLINE
  5
3BB
100
AcDbEntity
  8
RACCORDO
100
AcDbPolyline
 62
253
  6
CONTINUOUS
 90
16
 70
0
 10
23.2027709883
 20
22.3837105473
 10
23.2665285974
 20
22.3254585483
 10
23.3266628063
 20
22.2639687328
 10
23.3831735468
 20
22.1992410472
 10
23.4362514673
 20
22.1310446783
 10
23.4857057671
 20
22.0596103217
 10
23.530964216
 20
21.9856301962
 10
23.5719870456
 20
21.9090078757
 10
23.6088138888
 20
21.8298396849
 10
23.6409916568
 20
21.7491070013
 10
23.6684178452
 20
21.6667607935
 10
23.6911948669
 20
21.5828500283
 10
23.7091770664
 20
21.4985031255
 10
23.7223158973
 20
21.4140962313
 10
23.7306598848
 20
21.3292531904
 10
23.7342090143
 20
21.2439739957
  0
LWPOLYLINE
  5
3BC
100
AcDbEntity
  8
RACCORDO
100
AcDbPolyline
 62
253
  6
CONTINUOUS
 90
7
 70
0
 10
22.9483113913
 20
22.0911164342
 10
22.9954205463
 20
22.0475915716
 10
23.0401504856
 20
22.0016056708
 10
23.0823671844
 20
21.9532541128
 10
23.1219565306
 20
21.9026565998
 10
23.1588063975
 20
21.8499384395
 10
23.1927982229
 20
21.7952223334
  0
LWPOLYLINE
  5
3BD
100
AcDbEntity
  8
RACCORDO
100
AcDbPolyline
 62
253
  6
CONTINUOUS
 90
7
 70
0
 10
23.1927976636
 20
21.7952254558
 10
23.1945069676
 20
21.7925232308
 10
23.19618426
 20
21.7898000216
 10
23.197829387
 20
21.787056066
 10
23.1994422008
 20
21.7842916052
 10
23.2010225595
 20
21.7815068841
 10
23.202570327
 20
21.7787021505
  0
LWPOLYLINE
  5
3BE
100
AcDbEntity
  8
RACCORDO
100
AcDbPolyline
 62
253
  6
CONTINUOUS
 90
7
 70
0
 10
23.202570327
 20
21.7787021505
 10
23.2037946154
 20
21.776419227
 10
23.2050404686
 20
21.7741444538
 10
23.206307944
 20
21.7718776429
 10
23.2075971028
 20
21.7696186079
 10
23.2089080108
 20
21.7673671638
 10
23.2102407376
 20
21.7651231273
  0
LINE
  5
3BF
100
AcDbEntity
  8
RACCORDO
100
AcDbLine
 62
253
  6
CONTINUOUS
 10
-23.9275177138
 20
45.3147568835
 11
-25.383066951
 21
45.1870572282
  0
LINE
  5
3C0
100
AcDbEntity
  8
RACCORDO
100
AcDbLine
 62
253
  6
CONTINUOUS
 10
-22.4713907172
 20
45.4350513497
 11
-23.9275177138
 21
45.3147568835
  0
LINE
  5
3C1
100
AcDbEntity
  8
RACCORDO
100
AcDbLine
 62
253
  6
CONTINUOUS
 10
-21.2266245177
 20
45.534160294
 11
-22.4713907172
 21
45.4350513497
  0
LWPOLYLINE
  5
3C2
100
AcDbEntity
  8
RACCORDO
100
AcDbPolyline
 62
253
  6
CONTINUOUS
 90
32
 70
0
 10
22.0847006085
 20
45.5412504425
 10
21.1620168071
 20
45.6089355592
 10
20.1422673342
 20
45.6792041007
 10
19.0151578124
 20
45.7537033439
 10
17.7909423961
 20
45.8307847817
 10
16.500428106
 20
45.9055052425
 10
15.1436775556
 20
45.9774447546
 10
13.7206081077
 20
46.0470242485
 10
12.2618187244
 20
46.1105635767
 10
10.7692739882
 20
46.1674710323
 10
9.2410102587
 20
46.2183403363
 10
7.7017418358
 20
46.2612702857
 10
6.1581791813
 20
46.295793124
 10
4.6036253375
 20
46.3223783048
 10
3.0426858257
 20
46.3405304824
 10
1.4767720689
 20
46.3501859735
 10
-0.0955118451
 20
46.3514091007
 10
-1.6737718293
 20
46.3438962737
 10
-3.2597383217
 20
46.327569924
 10
-4.8516638223
 20
46.302507052
 10
-6.4439379861
 20
46.2686356065
 10
-8.0466077391
 20
46.2252629988
 10
-9.6496080056
 20
46.1730799264
 10
-11.2171650567
 20
46.114089232
 10
-12.7527833325
 20
46.0473337213
 10
-14.2529555752
 20
45.9737681846
 10
-15.6714037145
 20
45.898264496
 10
-17.0083545894
 20
45.8201557263
 10
-18.263609101
 20
45.7401079432
 10
-19.3902670428
 20
45.6649949052
 10
-20.3727162921
 20
45.5971091316
 10
-21.2266245177
 20
45.534160294
  0
LWPOLYLINE
  5
3C3
100
AcDbEntity
  8
RACCORDO
100
AcDbPolyline
 62
253
  6
CONTINUOUS
 90
33
 70
0
 10
22.0916637588
 20
45.7886752412
 10
21.1686980265
 20
45.8566409551
 10
20.148705911
 20
45.9282841874
 10
19.0212657455
 20
46.0032419346
 10
17.7966116729
 20
46.0796310116
 10
16.505674186
 20
46.1544854848
 10
15.1485284908
 20
46.226909942
 10
13.7249885389
 20
46.2959776751
 10
12.2656772501
 20
46.3594532272
 10
10.7726526259
 20
46.4167241269
 10
9.2439193381
 20
46.467331531
 10
7.7041093596
 20
46.5100932918
 10
6.1600181691
 20
46.5447004928
 10
4.6049957485
 20
46.571180902
 10
3.0435284801
 20
46.5893184826
 10
1.4770843707
 20
46.5990059683
 10
-0.0956739081
 20
46.6001611531
 10
-1.6744724539
 20
46.5926828012
 10
-3.2609722441
 20
46.5764487007
 10
-4.8533728098
 20
46.5513622508
 10
-6.4461998902
 20
46.5174555856
 10
-8.0494395359
 20
46.4744248188
 10
-9.6529272701
 20
46.4224509496
 10
-11.2209882439
 20
46.3629775756
 10
-12.7571688996
 20
46.2964147837
 10
-14.2578397298
 20
46.2234527368
 10
-15.6766867458
 20
46.1472482542
 10
-17.0140781599
 20
46.0689880383
 10
-18.2697951544
 20
45.9898222042
 10
-19.3967702332
 20
45.9140814626
 10
-20.3794204041
 20
45.8444159325
 10
-21.2335834464
 20
45.7811141951
 10
-22.479146246
 20
45.684241892
  0
LINE
  5
3C4
100
AcDbEntity
  8
RACCORDO
100
AcDbLine
 62
253
  6
CONTINUOUS
 10
24.1578466684
 20
45.3758298301
 11
22.0847006085
 21
45.5412504425
  0
LINE
  5
3C5
100
AcDbEntity
  8
RACCORDO
100
AcDbLine
 62
253
  6
CONTINUOUS
 10
25.6136862917
 20
45.2518327505
 11
24.1578466684
 21
45.3758298301
  0
LINE
  5
3C6
100
AcDbEntity
  8
DRAFT
100
AcDbLine
 62
7
  6
CONTINUOUS
 10
46.2351264925
 20
26.8195820855
 11
46.3515021275
 21
25.7382080678
  0
LINE
  5
3C7
100
AcDbEntity
  8
RACCORDO
100
AcDbLine
 62
253
  6
CONTINUOUS
 10
45.9309140921
 20
25.4220929766
 11
45.7834308259
 21
26.8005456494
  0
LINE
  5
3C8
100
AcDbEntity
  8
RACCORDO
100
AcDbLine
 62
253
  6
CONTINUOUS
 10
46.2103405199
 20
25.4375168118
 11
46.0626620508
 21
26.8156118366
  0
LINE
  5
3C9
100
AcDbEntity
  8
DRAFT
100
AcDbLine
 62
7
  6
CONTINUOUS
 10
46.3515021275
 20
25.7382080678
 11
46.4631449464
 21
24.6566082806
  0
LINE
  5
3CA
100
AcDbEntity
  8
RACCORDO
100
AcDbLine
 62
253
  6
CONTINUOUS
 10
46.3503132578
 20
24.0590843341
 11
46.2103405199
 21
25.4375168118
  0
LINE
  5
3CB
100
AcDbEntity
  8
RACCORDO
100
AcDbLine
 62
253
  6
CONTINUOUS
 10
46.0707016883
 20
24.0433056679
 11
45.9309140921
 21
25.4220929766
  0
LINE
  5
3CC
100
AcDbEntity
  8
DRAFT
100
AcDbLine
 62
7
  6
CONTINUOUS
 10
46.4631449464
 20
24.6566082806
 11
46.5349432104
 21
23.935442607
  0
LINE
  5
3CD
100
AcDbEntity
  8
RACCORDO
100
AcDbLine
 62
253
  6
CONTINUOUS
 10
46.2511809576
 20
22.2152380492
 11
46.0707016871
 21
24.0433056679
  0
LWPOLYLINE
  5
3CE
100
AcDbEntity
  8
DRAFT
100
AcDbPolyline
 62
7
  6
CONTINUOUS
 90
19
 70
0
 10
46.5349432104
 20
23.935442607
 10
46.7856822283
 20
21.2274269878
 10
47.0069049294
 20
18.5180755652
 10
47.1986097866
 20
15.8074682684
 10
47.3607858878
 20
13.095429277
 10
47.4934412675
 20
10.3822946189
 10
47.5966037312
 20
7.6689125099
 10
47.6702705484
 20
4.9556451906
 10
47.7144440878
 20
2.2422917777
 10
47.7291606433
 20
-0.4711439098
 10
47.7144444533
 20
-3.1845823396
 10
47.6702712755
 20
-5.8979418002
 10
47.5966047092
 20
-8.6112152045
 10
47.4934423505
 20
-11.3246023724
 10
47.3607869658
 20
-14.0377421259
 10
47.1986107534
 20
-16.7497861696
 10
47.00690568
 20
-19.4603984488
 10
46.7856826567
 20
-22.16975481
 10
46.5349432104
 20
-24.8777753235
  0
LWPOLYLINE
  5
3CF
100
AcDbEntity
  8
RACCORDO
100
AcDbPolyline
 62
253
  6
CONTINUOUS
 90
20
 70
0
 10
46.2514492566
 20
-23.1559801542
 10
46.4133896974
 20
-21.2889103445
 10
46.5702065145
 20
-19.2440743404
 10
46.7273229639
 20
-16.9818143961
 10
46.8790243173
 20
-14.5416854853
 10
47.0085709479
 20
-12.0425183158
 10
47.1118560118
 20
-9.5049733136
 10
47.1928930931
 20
-6.908481809
 10
47.2472754634
 20
-4.3101097094
 10
47.2735172481
 20
-1.7269245712
 10
47.2731113083
 20
0.858001088
 10
47.2461769164
 20
3.438579846
 10
47.1912565454
 20
6.0313005258
 10
47.1098057942
 20
8.6195355481
 10
47.0063701437
 20
11.1475373436
 10
46.8770817778
 20
13.6350458026
 10
46.7259041535
 20
16.0622319627
 10
46.5692767033
 20
18.3140718666
 10
46.412810821
 20
20.3522779135
 10
46.2511809576
 20
22.2152380492
  0
LWPOLYLINE
  5
3D0
100
AcDbEntity
  8
RACCORDO
100
AcDbPolyline
 62
253
  6
CONTINUOUS
 90
21
 70
0
 10
46.5242220147
 20
-23.1704770566
 10
46.6876587612
 20
-21.3022312786
 10
46.8504515271
 20
-19.2561332227
 10
47.0108595581
 20
-16.9924728923
 10
47.1607322099
 20
-14.5507871287
 10
47.2893688685
 20
-12.0499531069
 10
47.3942706335
 20
-9.5107954612
 10
47.4748342508
 20
-6.9126977427
 10
47.5283745043
 20
-4.3125811212
 10
47.5547583178
 20
-1.7276944673
 10
47.5543779893
 20
0.8588055858
 10
47.5272747985
 20
3.4410828931
 10
47.4731440815
 20
6.035544408
 10
47.3922026397
 20
8.6253815322
 10
47.2871658804
 20
11.1549895915
 10
47.1587137851
 20
13.6441554952
 10
47.009350202
 20
16.0728910646
 10
46.8495213257
 20
18.3261284253
 10
46.687181706
 20
20.365596961
 10
46.5240768301
 20
22.2297346102
 10
46.3503132578
 20
24.0590843341
  0
LINE
  5
3D1
100
AcDbEntity
  8
RACCORDO
100
AcDbLine
 62
253
  6
CONTINUOUS
 10
46.3503132586
 20
-25.0014170422
 11
46.5242220147
 21
-23.1704770566
  0
LINE
  5
3D2
100
AcDbEntity
  8
DRAFT
100
AcDbLine
 62
7
  6
CONTINUOUS
 10
46.5349432104
 20
-24.8777753235
 11
46.4264567043
 21
-25.9594956869
  0
LINE
  5
3D3
100
AcDbEntity
  8
RACCORDO
100
AcDbLine
 62
253
  6
CONTINUOUS
 10
45.9665826727
 20
-26.0197553517
 11
46.2514492566
 21
-23.1559801542
  0
LINE
  5
3D4
100
AcDbEntity
  8
RACCORDO
100
AcDbLine
 62
253
  6
CONTINUOUS
 10
46.2103404794
 20
-26.3798499158
 11
46.3503132586
 21
-25.0014170422
  0
LINE
  5
3D5
100
AcDbEntity
  8
DRAFT
100
AcDbLine
 62
7
  6
CONTINUOUS
 10
46.4264567043
 20
-25.9594956869
 11
46.3132359781
 21
-27.0410269141
  0
LINE
  5
3D6
100
AcDbEntity
  8
RACCORDO
100
AcDbLine
 62
253
  6
CONTINUOUS
 10
45.8210227414
 20
-27.3983040892
 11
45.9665826727
 21
-26.0197553517
  0
LINE
  5
3D7
100
AcDbEntity
  8
RACCORDO
100
AcDbLine
 62
253
  6
CONTINUOUS
 10
46.0626620601
 20
-27.7579444693
 11
46.2103404794
 21
-26.3798499158
  0
LINE
  5
3D8
100
AcDbEntity
  8
RACCORDO
100
AcDbLine
 62
253
  6
CONTINUOUS
 10
45.7453581243
 20
-28.0874253592
 11
45.8210227414
 21
-27.3983040892
  0
LINE
  5
3D9
100
AcDbEntity
  8
DRAFT
100
AcDbLine
 62
7
  6
CONTINUOUS
 10
46.3132359781
 20
-27.0410269141
 11
46.1952830546
 21
-28.1223148677
  0
LWPOLYLINE
  5
3DA
100
AcDbEntity
  8
DRAFT
100
AcDbPolyline
 62
7
  6
CONTINUOUS
 90
10
 70
0
 10
46.1952830546
 20
-28.1223148677
 10
46.1440545963
 20
-28.567992791
 10
46.0895826383
 20
-29.013383853
 10
46.0318672973
 20
-29.4584856227
 10
45.9709084953
 20
-29.903316865
 10
45.9067065411
 20
-30.3478539684
 10
45.8392621601
 20
-30.7920309847
 10
45.7685757046
 20
-31.2358243747
 10
45.6946471238
 20
-31.6792529694
 10
45.617476567
 20
-32.1223144255
  0
LWPOLYLINE
  5
3DB
100
AcDbEntity
  8
RACCORDO
100
AcDbPolyline
 62
253
  6
CONTINUOUS
 90
10
 70
0
 10
45.1716194079
 20
-32.0625267117
 10
45.2482373486
 20
-31.6222656766
 10
45.3216392206
 20
-31.1816248257
 10
45.3918248715
 20
-30.7406063938
 10
45.4587953382
 20
-30.2991855242
 10
45.522549274
 20
-29.8573915635
 10
45.5830829863
 20
-29.4153081097
 10
45.6403951826
 20
-28.9729645944
 10
45.6944869332
 20
-28.5303362341
 10
45.7453581243
 20
-28.0874253592
  0
LWPOLYLINE
  5
3DC
100
AcDbEntity
  8
RACCORDO
100
AcDbPolyline
 62
253
  6
CONTINUOUS
 90
10
 70
0
 10
45.4478730805
 20
-32.090882927
 10
45.5248773667
 20
-31.6491882398
 10
45.5986518989
 20
-31.2070665602
 10
45.6691954701
 20
-30.7645412832
 10
45.7365079275
 20
-30.321629286
 10
45.8005874008
 20
-29.8783605041
 10
45.8614305366
 20
-29.4347779502
 10
45.9190362927
 20
-28.9909116329
 10
45.9734057039
 20
-28.546778543
 10
46.0626620601
 20
-27.7579444693
  0
LWPOLYLINE
  5
3DD
100
AcDbEntity
  8
DRAFT
100
AcDbPolyline
 62
7
  6
CONTINUOUS
 90
97
 70
0
 10
45.617476567
 20
-32.1223144255
 10
45.5785486843
 20
-32.3336736438
 10
45.5369330256
 20
-32.5445245469
 10
45.4926296958
 20
-32.7548670132
 10
45.4456299378
 20
-32.9647704434
 10
45.3959427086
 20
-33.1741651892
 10
45.3435947254
 20
-33.382842626
 10
45.2885587154
 20
-33.590780748
 10
45.2308622444
 20
-33.7980014872
 10
45.1706143556
 20
-34.0043622446
 10
45.1078507861
 20
-34.2097985113
 10
45.0425361495
 20
-34.4143748528
 10
44.9746728204
 20
-34.6181423173
 10
44.9043125188
 20
-34.8210707585
 10
44.8314038473
 20
-35.0231903677
 10
44.7557944669
 20
-35.2246426426
 10
44.6771469854
 20
-35.4261077557
 10
44.5957989714
 20
-35.6269053468
 10
44.5126108594
 20
-35.8251367271
 10
44.4270900257
 20
-36.0215165683
 10
44.3397299689
 20
-36.2153313419
 10
44.2528713897
 20
-36.4025421046
 10
44.166861162
 20
-36.5822086216
 10
44.081354809
 20
-36.7552753141
 10
43.9976568727
 20
-36.9205319272
 10
43.9161690535
 20
-37.0771540834
 10
43.8364921045
 20
-37.2259707018
 10
43.7587290784
 20
-37.3682513869
 10
43.6830032874
 20
-37.5039570863
 10
43.6091931337
 20
-37.6331301162
 10
43.5370338963
 20
-37.7571613538
 10
43.4667000007
 20
-37.8758857868
 10
43.3980182086
 20
-37.9894707374
 10
43.3302018934
 20
-38.0998047714
 10
43.2632957173
 20
-38.2069341601
 10
43.1972556803
 20
-38.3108139247
 10
43.1311617739
 20
-38.4131949615
 10
43.0649273815
 20
-38.5143121763
 10
42.9986393924
 20
-38.6139311705
 10
42.9316377844
 20
-38.7130983152
 10
42.8637032048
 20
-38.8121801502
 10
42.7950550693
 20
-38.9108102075
 10
42.7256914149
 20
-39.0089351498
 10
42.6556006363
 20
-39.1065397517
 10
42.5847944343
 20
-39.2036393843
 10
42.5133058098
 20
-39.3002266171
 10
42.4411670039
 20
-39.3962588976
 10
42.3683458724
 20
-39.4917789326
 10
42.2947788272
 20
-39.5869071587
 10
42.2206676555
 20
-39.6814343344
 10
42.145810654
 20
-39.7755698314
 10
42.0695389221
 20
-39.8700618362
 10
41.9920116093
 20
-39.9647792141
 10
41.9130695129
 20
-40.0598529233
 10
41.8315660382
 20
-40.1564239093
 10
41.7475631649
 20
-40.2544919426
 10
41.6609986439
 20
-40.3540565749
 10
41.5705393272
 20
-40.4562579375
 10
41.4761498087
 20
-40.5612302018
 10
41.3778649801
 20
-40.6688379283
 10
41.2744569519
 20
-40.779816386
 10
41.1657233242
 20
-40.8944435943
 10
41.0518657743
 20
-41.0124397348
 10
40.9322624517
 20
-41.133703125
 10
40.8068903909
 20
-41.2583054096
 10
40.6757718116
 20
-41.3861730319
 10
40.5383526765
 20
-41.5169865754
 10
40.3946492725
 20
-41.6507879099
 10
40.2446445943
 20
-41.7875332556
 10
40.0877347511
 20
-41.9267749091
 10
39.9241582966
 20
-42.0683856131
 10
39.7536760499
 20
-42.2124908731
 10
39.57496758
 20
-42.3590222564
 10
39.3884103852
 20
-42.507827003
 10
39.1936263334
 20
-42.6590560371
 10
38.9881614984
 20
-42.8130963015
 10
38.7721099526
 20
-42.9701138543
 10
38.5453768208
 20
-43.1299402867
 10
38.3052247135
 20
-43.2924607005
 10
38.0517877758
 20
-43.4579102944
 10
37.7849310523
 20
-43.6260513964
 10
37.5015136448
 20
-43.7960601372
 10
37.2010394696
 20
-43.9684991412
 10
36.8840039987
 20
-44.1428037361
 10
36.5487541976
 20
-44.3164605042
 10
36.1938930014
 20
-44.4901457922
 10
35.8208176449
 20
-44.6631832933
 10
35.4320676581
 20
-44.831033685
 10
35.0273318115
 20
-44.9935062984
 10
34.6069229316
 20
-45.150795956
 10
34.1743178628
 20
-45.2989450916
 10
33.7292252777
 20
-45.4376373871
 10
33.271938884
 20
-45.567195873
 10
32.8068138584
 20
-45.684624347
 10
32.3353028576
 20
-45.7889268533
 10
31.8559556331
 20
-45.8811065469
 10
31.368773133
 20
-45.9611663663
  0
LWPOLYLINE
  5
3DE
100
AcDbEntity
  8
RACCORDO
100
AcDbPolyline
 62
253
  6
CONTINUOUS
 90
100
 70
0
 10
-30.3565672192
 20
44.5945970844
 10
-30.8638994722
 20
44.5084159084
 10
-31.3488570749
 20
44.4141601195
 10
-31.8114394125
 20
44.3118278024
 10
-32.2503919711
 20
44.2002730832
 10
-32.6669677415
 20
44.0806373219
 10
-33.064927616
 20
43.9563502602
 10
-33.4447914583
 20
43.8276734263
 10
-33.8060383875
 20
43.6943425239
 10
-34.1508688099
 20
43.5590004009
 10
-34.479060057
 20
43.4220421822
 10
-34.790834328
 20
43.2830716335
 10
-35.0890598181
 20
43.1435459276
 10
-35.373967323
 20
43.0036337323
 10
-35.6453259044
 20
42.8631662073
 10
-35.9053114605
 20
42.7230950821
 10
-36.1543221487
 20
42.5833473336
 10
-36.3919598883
 20
42.4439964012
 10
-36.6192064921
 20
42.3062144143
 10
-36.835894478
 20
42.1702267877
 10
-37.0421917207
 20
42.0358093238
 10
-37.2395832779
 20
41.903460262
 10
-37.4279802667
 20
41.7733892112
 10
-37.6074720677
 20
41.6453880022
 10
-37.7798111772
 20
41.5193283013
 10
-37.9450336806
 20
41.3953109812
 10
-38.1031039328
 20
41.2732364175
 10
-38.2556667694
 20
41.1526753521
 10
-38.4030414202
 20
41.0334525468
 10
-38.5449089662
 20
40.9157441307
 10
-38.6819569806
 20
40.7996477893
 10
-38.8149447232
 20
40.6844783294
 10
-38.9431132206
 20
40.5709217489
 10
-39.0648729284
 20
40.4611330694
 10
-39.1791845213
 20
40.3560694969
 10
-39.2870881242
 20
40.2547758265
 10
-39.3901135066
 20
40.156538786
 10
-39.4880429371
 20
40.0616969648
 10
-39.5810947054
 20
39.9699131536
 10
-39.6714523882
 20
39.8794598439
 10
-39.7592044951
 20
39.7903759644
 10
-39.8442627358
 20
39.7026231464
 10
-39.9285451903
 20
39.6143572397
 10
-40.0124498642
 20
39.5252376214
 10
-40.0955786476
 20
39.4356047205
 10
-40.1786552294
 20
39.3446354625
 10
-40.2619856142
 20
39.2520132026
 10
-40.3452635516
 20
39.1580540773
 10
-40.4282942883
 20
39.0628840505
 10
-40.5115807093
 20
38.965849243
 10
-40.5946196742
 20
38.8676030184
 10
-40.6757075887
 20
38.7702326476
 10
-40.7549222789
 20
38.6734991549
 10
-40.8321860589
 20
38.5776418864
 10
-40.9055625014
 20
38.485466555
 10
-40.9736512207
 20
38.398775643
 10
-41.0378533078
 20
38.3157682579
 10
-41.1004345788
 20
38.2338451099
 10
-41.1619394842
 20
38.152395077
 10
-41.2218237053
 20
38.0720296009
 10
-41.2807196453
 20
37.9919826743
 10
-41.3391204352
 20
37.9115577339
 10
-41.3965329558
 20
37.8314514009
 10
-41.4521102772
 20
37.7529875291
 10
-41.5054501213
 20
37.6767062859
 10
-41.5569550261
 20
37.6020680827
 10
-41.6069853598
 20
37.5287772931
 10
-41.6554434908
 20
37.4570203691
 10
-41.7024272392
 20
37.3866112771
 10
-41.7485900732
 20
37.3166954967
 10
-41.7939432265
 20
37.247303014
 10
-41.8384755297
 20
37.1784039973
 10
-41.8828067291
 20
37.1090539573
 10
-41.9269465606
 20
37.0392805456
 10
-41.970885231
 20
36.9690560137
 10
-42.0152130647
 20
36.8973525117
 10
-42.0601184213
 20
36.8238889125
 10
-42.105412729
 20
36.7489459366
 10
-42.1511208325
 20
36.6723383376
 10
-42.1975671195
 20
36.5934800073
 10
-42.2444269334
 20
36.5129565438
 10
-42.2907516523
 20
36.4323404628
 10
-42.3366469272
 20
36.3513498065
 10
-42.3820070784
 20
36.2702665084
 10
-42.425566786
 20
36.1915095125
 10
-42.4665707522
 20
36.116452043
 10
-42.5057746717
 20
36.0437216812
 10
-42.5441797722
 20
35.9716190205
 10
-42.5818198898
 20
35.90015818
 10
-42.6186612721
 20
35.8293252256
 10
-42.6556035331
 20
35.7573782231
 10
-42.6930832096
 20
35.6834753546
 10
-42.7306635751
 20
35.6084580984
 10
-42.767934287
 20
35.5331093446
 10
-42.8049075962
 20
35.4573607191
 10
-42.8415712013
 20
35.3812805269
 10
-42.8774780552
 20
35.3058569117
 10
-42.9124482033
 20
35.2314584204
 10
-42.9466617083
 20
35.1577167341
 10
-43.0127328718
 20
35.0127341494
  0
LWPOLYLINE
  5
3DF
100
AcDbEntity
  8
RACCORDO
100
AcDbPolyline
 62
253
  6
CONTINUOUS
 90
133
 70
0
 10
-30.3837915687
 20
44.842826537
 10
-30.9001440064
 20
44.7582079641
 10
-31.3938233133
 20
44.6617700251
 10
-31.8647174854
 20
44.5553804796
 10
-32.3114878135
 20
44.4411811654
 10
-32.7354589156
 20
44.3206177969
 10
-33.1404880836
 20
44.1941170354
 10
-33.527141478
 20
44.0627891249
 10
-33.8948597282
 20
43.9280668637
 10
-34.2457742443
 20
43.7903132911
 10
-34.5797730654
 20
43.6506516084
 10
-34.8971670501
 20
43.510019889
 10
-35.200653043
 20
43.3681441934
 10
-35.490627691
 20
43.2256252333
 10
-35.7669584094
 20
43.0832882003
 10
-36.0314828208
 20
42.9408781039
 10
-36.2848649898
 20
42.7986604981
 10
-36.5268986267
 20
42.6573600854
 10
-36.7581251045
 20
42.5172526841
 10
-36.9785831351
 20
42.3788840345
 10
-37.1886968553
 20
42.24253785
 10
-37.3895450279
 20
42.1080110845
 10
-37.5812138112
 20
41.9756991365
 10
-37.7640493458
 20
41.8457871636
 10
-37.9394477219
 20
41.7176550103
 10
-38.1075633471
 20
41.5915206244
 10
-38.2685877926
 20
41.467565061
 10
-38.4238925817
 20
41.3450145045
 10
-38.5738705168
 20
41.2237938283
 10
-38.7183660716
 20
41.1042602393
 10
-38.8578782343
 20
40.9862251115
 10
-38.9932476416
 20
40.8691677187
 10
-39.1237659305
 20
40.7538938207
 10
-39.247646196
 20
40.6422416246
 10
-39.3639455684
 20
40.5353883286
 10
-39.4738240926
 20
40.4325811873
 10
-39.5786696069
 20
40.3327630785
 10
-39.6782901481
 20
40.2363246349
 10
-39.7730348225
 20
40.1431286535
 10
-39.8650229024
 20
40.0512309759
 10
-39.9543108807
 20
39.9606649811
 10
-40.0409022505
 20
39.8715155908
 10
-40.1267383179
 20
39.7818279046
 10
-40.2121513236
 20
39.6912457718
 10
-40.2967672288
 20
39.6001577667
 10
-40.3813890452
 20
39.5076864494
 10
-40.4662463347
 20
39.4135428081
 10
-40.550997349
 20
39.318067017
 10
-40.6355601679
 20
39.2213193027
 10
-40.72040705
 20
39.1227128705
 10
-40.8049357155
 20
39.0228997551
 10
-40.8875099395
 20
38.9238245523
 10
-40.9682210388
 20
38.8254582119
 10
-41.0468540757
 20
38.7281606567
 10
-41.1214497624
 20
38.6345050987
 10
-41.190658034
 20
38.5464126307
 10
-41.2559844833
 20
38.4621757225
 10
-41.3197401734
 20
38.3789190853
 10
-41.3824085864
 20
38.296042407
 10
-41.4433897126
 20
38.2143683115
 10
-41.5033003097
 20
38.1330973376
 10
-41.5628030627
 20
38.051328651
 10
-41.6213681333
 20
37.9697909122
 10
-41.6779046083
 20
37.8900539446
 10
-41.7321698218
 20
37.8125537323
 10
-41.78469923
 20
37.7366172526
 10
-41.8356252033
 20
37.6621322475
 10
-41.8848822611
 20
37.5892750605
 10
-41.9327293048
 20
37.5177300165
 10
-41.979734775
 20
37.4466817977
 10
-42.0258803931
 20
37.3761789365
 10
-42.0712125616
 20
37.3061710809
 10
-42.1163552126
 20
37.235699081
 10
-42.1612838725
 20
37.1647905304
 10
-42.2060092555
 20
37.093417846
 10
-42.2511651607
 20
37.0205409296
 10
-42.2969039666
 20
36.9458618741
 10
-42.34301372
 20
36.8696745535
 10
-42.3895617503
 20
36.7918191459
 10
-42.4368836141
 20
36.7116717681
 10
-42.4845986619
 20
36.6298138922
 10
-42.5317356027
 20
36.5478922653
 10
-42.5784737929
 20
36.4656030584
 10
-42.6246710089
 20
36.3832052966
 10
-42.6689579217
 20
36.3032041159
 10
-42.7106645328
 20
36.2269345717
 10
-42.7506229051
 20
36.1529770246
 10
-42.7897342418
 20
36.0797112614
 10
-42.8280519817
 20
36.0070584264
 10
-42.8656108759
 20
35.9349754
 10
-42.9032441584
 20
35.8618593518
 10
-42.9414020913
 20
35.7867884805
 10
-42.9796875764
 20
35.7104966194
 10
-43.0176557751
 20
35.6338571778
 10
-43.0552949398
 20
35.55690119
 10
-43.0926049767
 20
35.4796355881
 10
-43.1291649731
 20
35.4029525418
 10
-43.1647660339
 20
35.3273330816
 10
-43.1995714277
 20
35.2524728743
 10
-43.2337244737
 20
35.1780920028
 10
-43.2668191136
 20
35.1051124258
 10
-43.2992297329
 20
35.0327460825
 10
-43.3322352015
 20
34.9581032079
 10
-43.3661634325
 20
34.8803309766
 10
-43.4005830076
 20
34.8003071519
 10
-43.435594147
 20
34.7176990583
 10
-43.4711997911
 20
34.6323867085
 10
-43.5073225875
 20
34.5444371767
 10
-43.5439358903
 20
34.4537929295
 10
-43.5809601795
 20
34.3605248295
 10
-43.6183957178
 20
34.2645003455
 10
-43.6563277416
 20
34.1653505201
 10
-43.6946462465
 20
34.0632065806
 10
-43.7333502274
 20
33.9579209165
 10
-43.7726631214
 20
33.848700945
 10
-43.8124445468
 20
33.735722827
 10
-43.8526623803
 20
33.6188539391
 10
-43.8936510683
 20
33.4968358769
 10
-43.9354189102
 20
33.3692764517
 10
-43.9776772069
 20
33.2366664195
 10
-44.0202730564
 20
33.0990875993
 10
-44.0631008699
 20
32.9564491628
 10
-44.1059305363
 20
32.8090546556
 10
-44.1484243711
 20
32.6576067937
 10
-44.1904344077
 20
32.5021809129
 10
-44.231819453
 20
32.342873055
 10
-44.2722880771
 20
32.1804222838
 10
-44.3117611672
 20
32.0147964705
 10
-44.3501444064
 20
31.8460324865
 10
-44.3871801565
 20
31.6749560945
 10
-44.4227615764
 20
31.5018315288
 10
-44.456900929
 20
31.3263684117
 10
-44.489551827
 20
31.1485502166
  0
LWPOLYLINE
  5
3E0
100
AcDbEntity
  8
DRAFT
100
AcDbPolyline
 62
7
  6
CONTINUOUS
 90
9
 70
0
 10
-30.4104510054
 20
45.0188337661
 10
-29.8564844193
 20
45.0990134175
 10
-29.3021032383
 20
45.1756737458
 10
-28.747307684
 20
45.2488154581
 10
-28.1920754294
 20
45.3184418159
 10
-27.6364292083
 20
45.384550883
 10
-27.0804368166
 20
45.4471355272
 10
-26.5241209648
 20
45.5061937531
 10
-25.9674592777
 20
45.561728701
  0
LWPOLYLINE
  5
3E1
100
AcDbEntity
  8
RACCORDO
100
AcDbPolyline
 62
253
  6
CONTINUOUS
 90
9
 70
0
 10
-25.949633008
 20
45.3844831865
 10
-26.5052026613
 20
45.3290715482
 10
-27.0604543273
 20
45.2701422557
 10
-27.6153757609
 20
45.2076956038
 10
-28.1699354559
 20
45.14173423
 10
-28.724081654
 20
45.0722636946
 10
-29.2777829567
 20
44.9992876836
 10
-29.8310272042
 20
44.9228076806
 10
-30.3837915676
 20
44.84282653
  0
LWPOLYLINE
  5
3E2
100
AcDbEntity
  8
RACCORDO
100
AcDbPolyline
 62
253
  6
CONTINUOUS
 90
10
 70
0
 10
-25.383066951
 20
45.1870572282
 10
-25.9371179425
 20
45.1352596439
 10
-26.4908315705
 20
45.0799528869
 10
-27.0442076881
 20
45.0211364561
 10
-27.5972757564
 20
44.9588063334
 10
-28.1500059846
 20
44.8929654443
 10
-28.7023093305
 20
44.8236236603
 10
-29.2541559806
 20
44.7507838513
 10
-29.8055753494
 20
44.6744418841
 10
-30.3565672192
 20
44.5945970844
  0
LINE
  5
3E3
100
AcDbEntity
  8
RACCORDO
100
AcDbLine
 62
253
  6
CONTINUOUS
 10
-25.029569133
 20
45.468977794
 11
-25.949633008
 21
45.3844831865
  0
LINE
  5
3E4
100
AcDbEntity
  8
DRAFT
100
AcDbLine
 62
7
  6
CONTINUOUS
 10
-25.9674592777
 20
45.561728701
 11
-25.0286538609
 21
45.6479182727
  0
LINE
  5
3E5
100
AcDbEntity
  8
DRAFT
100
AcDbLine
 62
7
  6
CONTINUOUS
 10
-25.0286538609
 20
45.6479182727
 11
-23.8830857577
 21
45.7473955344
  0
LINE
  5
3E6
100
AcDbEntity
  8
RACCORDO
100
AcDbLine
 62
253
  6
CONTINUOUS
 10
-23.572401605
 20
45.5947611328
 11
-25.029569133
 21
45.468977794
  0
LINE
  5
3E7
100
AcDbEntity
  8
DRAFT
100
AcDbLine
 62
7
  6
CONTINUOUS
 10
-23.8830857577
 20
45.7473955344
 11
-22.7372635994
 21
45.8422910156
  0
LINE
  5
3E8
100
AcDbEntity
  8
RACCORDO
100
AcDbLine
 62
253
  6
CONTINUOUS
 10
-22.479146246
 20
45.684241892
 11
-23.572401605
 21
45.5947611328
  0
LINE
  5
3E9
100
AcDbEntity
  8
DRAFT
100
AcDbLine
 62
7
  6
CONTINUOUS
 10
-22.7372635994
 20
45.8422910156
 11
-21.9732494867
 21
45.9030092953
  0
LWPOLYLINE
  5
3EA
100
AcDbEntity
  8
DRAFT
100
AcDbPolyline
 62
7
  6
CONTINUOUS
 90
16
 70
0
 10
-21.9732494867
 20
45.9030092953
 10
-18.9872507843
 20
46.1208032801
 10
-15.9985375081
 20
46.3075104904
 10
-13.0071732646
 20
46.4631468152
 10
-10.0125778813
 20
46.5877734037
 10
-7.0154509954
 20
46.6813532486
 10
-4.0177729295
 20
46.7437511752
 10
-1.019965779
 20
46.7749249004
 10
1.9782814895
 20
46.7749249358
 10
4.9760892587
 20
46.7437512525
 10
7.9737689973
 20
46.681353305
 10
10.9708981743
 20
46.5877734101
 10
13.9654951619
 20
46.4631467866
 10
16.9568598879
 20
46.3075104564
 10
19.9455729603
 20
46.1208032556
 10
22.9315707733
 20
45.9030092953
  0
LINE
  5
3EB
100
AcDbEntity
  8
RACCORDO
100
AcDbLine
 62
253
  6
CONTINUOUS
 10
23.8019214617
 20
45.6548775561
 11
22.0916637588
 21
45.7886752412
  0
LINE
  5
3EC
100
AcDbEntity
  8
DRAFT
100
AcDbLine
 62
7
  6
CONTINUOUS
 10
22.9315707733
 20
45.9030092953
 11
24.0775517968
 21
45.8111683294
  0
LINE
  5
3ED
100
AcDbEntity
  8
DRAFT
100
AcDbLine
 62
7
  6
CONTINUOUS
 10
24.0775517968
 20
45.8111683294
 11
25.2232922691
 21
45.7147455373
  0
LINE
  5
3EE
100
AcDbEntity
  8
RACCORDO
100
AcDbLine
 62
253
  6
CONTINUOUS
 10
25.2593794143
 20
45.5327945603
 11
23.8019214617
 21
45.6548775561
  0
LINE
  5
3EF
100
AcDbEntity
  8
RACCORDO
100
AcDbLine
 62
253
  6
CONTINUOUS
 10
26.3520893554
 20
45.4363757309
 11
25.2593794143
 21
45.5327945603
  0
LINE
  5
3F0
100
AcDbEntity
  8
DRAFT
100
AcDbLine
 62
7
  6
CONTINUOUS
 10
25.2232922691
 20
45.7147455373
 11
26.3687731913
 21
45.6137408958
  0
LINE
  5
3F1
100
AcDbEntity
  8
RACCORDO
100
AcDbLine
 62
253
  6
CONTINUOUS
 10
26.3413882376
 20
45.1870572282
 11
25.6136862917
 21
45.2518327505
  0
LWPOLYLINE
  5
3F2
100
AcDbEntity
  8
DRAFT
100
AcDbPolyline
 62
7
  6
CONTINUOUS
 90
10
 70
0
 10
26.3687731913
 20
45.6137408958
 10
26.9257917988
 20
45.5617274975
 10
27.4824610079
 20
45.5061917271
 10
28.0387806691
 20
45.4471330594
 10
28.594771921
 20
45.3845484655
 10
29.1504132896
 20
45.3184398297
 10
29.7056406898
 20
45.2488139508
 10
30.2604326243
 20
45.1756726539
 10
30.8148101835
 20
45.0990127888
 10
31.3687731456
 20
45.0188336481
  0
LWPOLYLINE
  5
3F3
100
AcDbEntity
  8
RACCORDO
100
AcDbPolyline
 62
253
  6
CONTINUOUS
 90
10
 70
0
 10
31.3421153335
 20
44.8428261633
 10
30.7893502188
 20
44.9228074361
 10
30.2361054071
 20
44.9992875265
 10
29.6824037275
 20
45.0722635934
 10
29.1282574406
 20
45.1417341447
 10
28.5736978453
 20
45.2076955115
 10
28.0187763995
 20
45.2701421698
 10
27.463524509
 20
45.3290714905
 10
26.9079545189
 20
45.3844831648
 10
26.3520893555
 20
45.4363757327
  0
LWPOLYLINE
  5
3F4
100
AcDbEntity
  8
RACCORDO
100
AcDbPolyline
 62
253
  6
CONTINUOUS
 90
10
 70
0
 10
31.3148885073
 20
44.5945970842
 10
30.7638956309
 20
44.6744420179
 10
30.2124755063
 20
44.7507840822
 10
29.6606283511
 20
44.8236239513
 10
29.1083247499
 20
44.892965754
 10
28.5555945172
 20
44.9588066249
 10
28.0025266984
 20
45.0211367062
 10
27.4491510855
 20
45.0799530768
 10
26.8954382162
 20
45.1352597505
 10
26.3413882376
 20
45.1870572282
  0
LWPOLYLINE
  5
3F5
100
AcDbEntity
  8
DRAFT
100
AcDbPolyline
 62
7
  6
CONTINUOUS
 90
97
 70
0
 10
31.3687731456
 20
45.0188336481
 10
31.853684375
 20
44.9394304076
 10
32.3324477726
 20
44.8473893184
 10
32.8050623487
 20
44.74270732
 10
33.273325966
 20
44.6243884268
 10
33.7354382348
 20
44.4934210816
 10
34.1860009001
 20
44.3527792953
 10
34.6246929865
 20
44.2020232245
 10
35.0518328985
 20
44.0415854614
 10
35.462982276
 20
43.8757511461
 10
35.8576747871
 20
43.7042983824
 10
36.2363750635
 20
43.5274446478
 10
36.5960425575
 20
43.3501380475
 10
36.9349414477
 20
43.1732309019
 10
37.2548074627
 20
42.9958710893
 10
37.5578085651
 20
42.8204533148
 10
37.843554225
 20
42.6475282971
 10
38.1124356167
 20
42.4765474712
 10
38.3677937682
 20
42.308257951
 10
38.609865667
 20
42.1428361922
 10
38.8384151432
 20
41.9801082454
 10
39.0560736369
 20
41.820295967
 10
39.2629456051
 20
41.6635486903
 10
39.4589274368
 20
41.5097195541
 10
39.6463384653
 20
41.3585860775
 10
39.8255363209
 20
41.2100048759
 10
39.9961640923
 20
41.0641213904
 10
40.1594692926
 20
40.9211463267
 10
40.315619856
 20
40.7810240424
 10
40.4644485953
 20
40.6438122276
 10
40.6067004102
 20
40.5098917304
 10
40.7423938705
 20
40.3793179236
 10
40.871511211
 20
40.2520375479
 10
40.9947428906
 20
40.128268631
 10
41.1120359134
 20
40.008129737
 10
41.2234440747
 20
39.8915043333
 10
41.3298180169
 20
39.7782577747
 10
41.4309781117
 20
39.6686638616
 10
41.527104703
 20
39.5624505681
 10
41.6195882674
 20
39.458664206
 10
41.7084475674
 20
39.357384989
 10
41.7936643064
 20
39.2585338544
 10
41.8765731604
 20
39.1609176997
 10
41.9572444795
 20
39.0645235801
 10
42.0356081341
 20
38.9693650046
 10
42.1127878654
 20
38.8742880583
 10
42.1889889731
 20
38.7791042284
 10
42.2640061589
 20
38.6840020878
 10
42.338347113
 20
38.5883929994
 10
42.4121688121
 20
38.492116979
 10
42.485314177
 20
38.3953338414
 10
42.5578197524
 20
38.2979345108
 10
42.629763257
 20
38.1997969377
 10
42.7010668498
 20
38.101042965
 10
42.7715337485
 20
38.0019293854
 10
42.8411201297
 20
37.9024790527
 10
42.9098697494
 20
37.8026690311
 10
42.9777172352
 20
37.7026875185
 10
43.0443874248
 20
37.602997202
 10
43.1101554754
 20
37.5031354481
 10
43.1757813995
 20
37.4019022738
 10
43.2412166101
 20
37.2994707809
 10
43.3065094413
 20
37.1956674044
 10
43.3725650036
 20
37.0887715706
 10
43.4394330325
 20
36.978810743
 10
43.5070631629
 20
36.8657562367
 10
43.5762099792
 20
36.7478024936
 10
43.6470363711
 20
36.6248005865
 10
43.7193783262
 20
36.4968972691
 10
43.7934996851
 20
36.3627297289
 10
43.869497616
 20
36.2222846988
 10
43.9472733285
 20
36.0755723711
 10
44.0267963208
 20
35.9212643514
 10
44.1085364144
 20
35.7583722818
 10
44.1920214166
 20
35.5878801414
 10
44.2758077973
 20
35.4114180749
 10
44.3601313857
 20
35.2282634464
 10
44.4447542418
 20
35.0391352381
 10
44.5275230644
 20
34.8478277445
 10
44.6079069992
 20
34.6552134685
 10
44.6864362086
 20
34.4604190675
 10
44.7625497985
 20
34.2646217344
 10
44.8359654236
 20
34.0684678433
 10
44.9069651297
 20
33.8713109478
 10
44.9758346825
 20
33.6723891605
 10
45.0427237231
 20
33.4714100048
 10
45.1074818995
 20
33.2686652134
 10
45.1699448628
 20
33.0642690113
 10
45.2301721792
 20
32.8580000066
 10
45.2881036053
 20
32.6500789828
 10
45.3433952482
 20
32.4412837287
 10
45.3959894428
 20
32.2315674178
 10
45.4459434944
 20
32.0209768498
 10
45.4930863007
 20
31.810430803
 10
45.5373609127
 20
31.6002358578
 10
45.578824331
 20
31.3900860752
 10
45.6174765614
 20
31.1799817426
  0
LWPOLYLINE
  5
3F6
100
AcDbEntity
  8
RACCORDO
100
AcDbPolyline
 62
253
  6
CONTINUOUS
 90
127
 70
0
 10
45.447869036
 20
31.1485731019
 10
45.4148189557
 20
31.3285005546
 10
45.3797640754
 20
31.5084170536
 10
45.3426680323
 20
31.6883564803
 10
45.3033373966
 20
31.869057967
 10
45.2618772633
 20
32.0498526453
 10
45.2187784351
 20
32.2286442348
 10
45.1740945453
 20
32.4054164394
 10
45.1278679169
 20
32.5802082884
 10
45.0807337864
 20
32.7509602917
 10
45.0328910438
 20
32.9174658251
 10
44.9845208098
 20
33.0796161244
 10
44.9363865449
 20
33.2354310707
 10
44.8889594609
 20
33.3840489937
 10
44.8422391152
 20
33.5260863018
 10
44.7963070872
 20
33.6618210847
 10
44.7514744516
 20
33.7908265345
 10
44.7077826755
 20
33.9134444937
 10
44.6648463245
 20
34.0311234175
 10
44.6226971355
 20
34.1440652913
 10
44.5815194163
 20
34.2520522109
 10
44.5410905748
 20
34.3559247789
 10
44.5014507326
 20
34.4558062681
 10
44.4626937788
 20
34.5516741245
 10
44.4246424052
 20
34.6441557742
 10
44.3872853386
 20
34.7334384481
 10
44.3507344441
 20
34.819406536
 10
44.3149822477
 20
34.902222399
 10
44.2804866894
 20
34.9809803671
 10
44.2469071818
 20
35.0566114406
 10
44.2129959026
 20
35.1319986095
 10
44.1785505349
 20
35.2075942053
 10
44.1438289375
 20
35.282834189
 10
44.1082221009
 20
35.3590233885
 10
44.0714224365
 20
35.4367656439
 10
44.0337781255
 20
35.5152706215
 10
43.9956602197
 20
35.5937364356
 10
43.9570288531
 20
35.6722275563
 10
43.9179667661
 20
35.7505572502
 10
43.8790084704
 20
35.8276607685
 10
43.8403520506
 20
35.9031850121
 10
43.801737706
 20
35.9776765906
 10
43.7630142342
 20
36.0514533039
 10
43.7247367236
 20
36.1234997891
 10
43.6862980303
 20
36.1950005979
 10
43.6457573212
 20
36.269526436
 10
43.6021391191
 20
36.3487404763
 10
43.5562295004
 20
36.4310695735
 10
43.5087046085
 20
36.5151883023
 10
43.4592030211
 20
36.6016345963
 10
43.4079531915
 20
36.6899051174
 10
43.3566025796
 20
36.7771275259
 10
43.3055744841
 20
36.8626232908
 10
43.2544560622
 20
36.9471250433
 10
43.2037289228
 20
37.0298794525
 10
43.1537008775
 20
37.110452769
 10
43.1041417748
 20
37.189283663
 10
43.054740451
 20
37.2669155829
 10
43.0056244923
 20
37.3431886497
 10
42.9567175824
 20
37.4182612801
 10
42.9073660359
 20
37.4931559008
 10
42.8576428735
 20
37.5677651454
 10
42.8074779028
 20
37.6421973309
 10
42.755919575
 20
37.7178318773
 10
42.7027900414
 20
37.7948555042
 10
42.6480327423
 20
37.8732728899
 10
42.5907559811
 20
37.9542630646
 10
42.5305879002
 20
38.0382249276
 10
42.4675015684
 20
38.125064326
 10
42.4010426921
 20
38.2152690516
 10
42.3301228409
 20
38.310143963
 10
42.2553211236
 20
38.408735378
 10
42.1789404486
 20
38.5079108523
 10
42.1023264414
 20
38.6059233705
 10
42.0244594046
 20
38.7040765789
 10
41.9442085377
 20
38.8037251045
 10
41.8607506848
 20
38.9057553414
 10
41.775027806
 20
39.0088725053
 10
41.6885292202
 20
39.1112215364
 10
41.6016639665
 20
39.2123397872
 10
41.5141406273
 20
39.3125908516
 10
41.426416738
 20
39.4114757212
 10
41.3388267019
 20
39.5086596335
 10
41.2511628755
 20
39.6044140779
 10
41.1630684965
 20
39.6991516596
 10
41.075047241
 20
39.7923577028
 10
40.9866776237
 20
39.8845128214
 10
40.8961514756
 20
39.9774828274
 10
40.8035695043
 20
40.071103345
 10
40.7088015532
 20
40.1654444747
 10
40.6095892359
 20
40.2626365638
 10
40.5057502554
 20
40.3626807612
 10
40.3973300847
 20
40.4653504389
 10
40.2823095678
 20
40.5723227185
 10
40.1594174557
 20
40.6844540712
 10
40.0296886558
 20
40.8004589493
 10
39.8945590908
 20
40.9187723481
 10
39.7544175188
 20
41.0388189358
 10
39.6087416946
 20
41.1608092641
 10
39.4576288966
 20
41.2844193118
 10
39.3014499916
 20
41.4091196197
 10
39.1396011287
 20
41.5351632512
 10
38.9706800285
 20
41.6633582569
 10
38.7945025565
 20
41.7935164235
 10
38.6109058027
 20
41.9254243968
 10
38.4184359201
 20
42.059749458
 10
38.2167666432
 20
42.1962909087
 10
38.005771355
 20
42.3346812939
 10
37.7842246345
 20
42.4752152803
 10
37.551643069
 20
42.6176297763
 10
37.308028449
 20
42.7613337185
 10
37.0528378265
 20
42.9060357158
 10
36.7862459773
 20
43.051006597
 10
36.507592531
 20
43.1959571148
 10
36.215092372
 20
43.3410997016
 10
35.9089302776
 20
43.4855669949
 10
35.588648302
 20
43.6287730844
 10
35.2514446318
 20
43.7710258873
 10
34.897001027
 20
43.9113607115
 10
34.5254289841
 20
44.048615454
 10
34.1344921225
 20
44.1824337613
 10
33.7247362303
 20
44.3113431959
 10
33.2956025994
 20
44.4341879587
 10
32.8431594955
 20
44.5505171591
 10
32.3660611655
 20
44.65882891
 10
31.8656739661
 20
44.7569097196
 10
31.3421153346
 20
44.8428261702
  0
LWPOLYLINE
  5
3F7
100
AcDbEntity
  8
RACCORDO
100
AcDbPolyline
 62
253
  6
CONTINUOUS
 90
127
 70
0
 10
45.1716194079
 20
31.1201939952
 10
45.1392287545
 20
31.2971788122
 10
45.1048018852
 20
31.4742043339
 10
45.0683387953
 20
31.6512703905
 10
45.0296755763
 20
31.8290457977
 10
44.9889760536
 20
32.0068612846
 10
44.9467321562
 20
32.1827100664
 10
44.9028259386
 20
32.3566397756
 10
44.8573759884
 20
32.5286034746
 10
44.8112297066
 20
32.6964535978
 10
44.76428498
 20
32.8602189436
 10
44.7166451967
 20
33.0198725118
 10
44.6694666608
 20
33.1731841263
 10
44.6229759081
 20
33.3193834179
 10
44.5769482503
 20
33.4592436363
 10
44.5318634175
 20
33.5928505035
 10
44.4879148566
 20
33.7197771272
 10
44.444910677
 20
33.8404529244
 10
44.4027523815
 20
33.9562477307
 10
44.3614241775
 20
34.0673253487
 10
44.3209428799
 20
34.1735236689
 10
44.281258626
 20
34.2757231975
 10
44.2423747213
 20
34.3739836069
 10
44.2042886047
 20
34.4682464833
 10
44.1669414416
 20
34.5592149114
 10
44.1302826037
 20
34.6470540066
 10
44.0943632597
 20
34.7315995826
 10
44.059277177
 20
34.8130606103
 10
44.0254366216
 20
34.8905762121
 10
43.9924298271
 20
34.9650081464
 10
43.9591142878
 20
35.0391489312
 10
43.9252892442
 20
35.1135525488
 10
43.8911554711
 20
35.1876650201
 10
43.8561724911
 20
35.2626164195
 10
43.8200234528
 20
35.339096207
 10
43.7830250576
 20
35.4164146159
 10
43.7455871456
 20
35.4936328583
 10
43.7076747297
 20
35.5707764221
 10
43.6693228106
 20
35.6478198172
 10
43.6310463499
 20
35.7237480536
 10
43.5930898857
 20
35.7980567047
 10
43.5552090597
 20
35.8712505148
 10
43.5171855253
 20
35.9438283209
 10
43.4796213387
 20
36.0147413245
 10
43.4419145729
 20
36.0850385512
 10
43.4020406325
 20
36.1583650423
 10
43.3591474333
 20
36.2363544799
 10
43.314086558
 20
36.3173721745
 10
43.2673887536
 20
36.4001602995
 10
43.2187125815
 20
36.4852254662
 10
43.1683991792
 20
36.5720604307
 10
43.1180034704
 20
36.6578872003
 10
43.0678762793
 20
36.7420154778
 10
43.017666978
 20
36.8251359154
 10
42.9678785876
 20
36.9065424965
 10
42.9187620207
 20
36.9858204336
 10
42.8700666416
 20
37.0633850432
 10
42.8215431599
 20
37.1397754894
 10
42.7733146928
 20
37.2148364492
 10
42.7252582959
 20
37.2887235729
 10
42.6767554769
 20
37.3624422601
 10
42.6279455281
 20
37.4358496614
 10
42.5786891873
 20
37.5090886637
 10
42.5279499643
 20
37.5835929258
 10
42.4757798785
 20
37.6593671572
 10
42.4221267351
 20
37.7364062541
 10
42.3657975211
 20
37.8161287317
 10
42.3066862548
 20
37.8987399861
 10
42.244898506
 20
37.9840337139
 10
42.1795584148
 20
38.0728105066
 10
42.1096511946
 20
38.1663788466
 10
42.0361909734
 20
38.2634287894
 10
41.9613454631
 20
38.3608337092
 10
41.8861319235
 20
38.4572510057
 10
41.8095331135
 20
38.5540232612
 10
41.7306651915
 20
38.6520520484
 10
41.6487112093
 20
38.752320109
 10
41.564487828
 20
38.8538440046
 10
41.4795617289
 20
38.9545762766
 10
41.3942665697
 20
39.054029016
 10
41.3082688715
 20
39.1526904655
 10
41.2221348535
 20
39.2499779385
 10
41.1361389357
 20
39.3455792513
 10
41.050006963
 20
39.4398071286
 10
40.9634823114
 20
39.5330162928
 10
40.8770653169
 20
39.624734993
 10
40.7902558457
 20
39.7154353918
 10
40.7012963889
 20
39.8068876691
 10
40.6103666686
 20
39.8990367612
 10
40.5172868414
 20
39.9919373979
 10
40.419759736
 20
40.0875237162
 10
40.3177360027
 20
40.185994991
 10
40.2112645044
 20
40.2871507389
 10
40.09819509
 20
40.3923247485
 10
39.9773976543
 20
40.5026018997
 10
39.8500014429
 20
40.6168951734
 10
39.7172453863
 20
40.7332806339
 10
39.5795748804
 20
40.8513295603
 10
39.4365441178
 20
40.9714695633
 10
39.2880554918
 20
41.0930618362
 10
39.1346347824
 20
41.215739076
 10
38.9757559209
 20
41.3398677452
 10
38.8097435446
 20
41.4659097136
 10
38.6366463504
 20
41.5939582941
 10
38.4564152013
 20
41.7239189223
 10
38.2672279078
 20
41.8559714471
 10
38.0690260404
 20
41.9903130757
 10
37.8618675188
 20
42.1267451259
 10
37.6441047057
 20
42.2648536659
 10
37.4155230203
 20
42.4049045878
 10
37.1763366143
 20
42.5466306807
 10
36.9255411556
 20
42.6888188771
 10
36.6635162253
 20
42.8314051394
 10
36.3898821473
 20
42.9744530295
 10
36.1024959947
 20
43.1169416352
 10
35.8016373828
 20
43.2590211562
 10
35.487026845
 20
43.4005415691
 10
35.1556831515
 20
43.5400324887
 10
34.807383025
 20
43.6779086205
 10
34.4423502247
 20
43.8137563899
 10
34.0582745818
 20
43.9448644092
 10
33.6556623435
 20
44.0715174599
 10
33.2340083182
 20
44.1934336258
 10
32.7894858442
 20
44.307053412
 10
32.3208200387
 20
44.4111922973
 10
31.829287379
 20
44.5070395216
 10
31.3148885073
 20
44.5945970842
  0
LWPOLYLINE
  5
3F8
100
AcDbEntity
  8
DRAFT
100
AcDbPolyline
 62
7
  6
CONTINUOUS
 90
9
 70
0
 10
45.6174765614
 20
31.1799817426
 10
45.6946469211
 20
30.7369215087
 10
45.7685753593
 20
30.2934938318
 10
45.8392617267
 20
29.8497010548
 10
45.9067060802
 20
29.4055243489
 10
45.970908061
 20
28.9609872509
 10
46.0318669245
 20
28.5161557025
 10
46.0895823552
 20
28.0710533128
 10
46.1440544375
 20
27.6256613191
  0
LWPOLYLINE
  5
3F9
100
AcDbEntity
  8
RACCORDO
100
AcDbPolyline
 62
253
  6
CONTINUOUS
 90
9
 70
0
 10
45.9734057448
 20
27.6044454823
 10
45.9190364044
 20
28.0485780308
 10
45.8614307032
 20
28.4924439862
 10
45.8005877205
 20
28.9360255177
 10
45.7365083889
 20
29.3792934573
 10
45.6691956663
 20
29.8222073065
 10
45.5986512274
 20
30.2647379594
 10
45.5248752909
 20
30.7068676909
 10
45.4478690051
 20
31.1485730962
  0
LWPOLYLINE
  5
3FA
100
AcDbEntity
  8
RACCORDO
100
AcDbPolyline
 62
253
  6
CONTINUOUS
 90
9
 70
0
 10
45.6944867908
 20
27.5880046227
 10
45.6403949296
 20
28.0306338085
 10
45.5830826543
 20
28.4729778701
 10
45.5225488899
 20
28.9150615872
 10
45.458794934
 20
29.3568555321
 10
45.3918244941
 20
29.7982761185
 10
45.3216389219
 20
30.2392940037
 10
45.2482371757
 20
30.6799340408
 10
45.1716194079
 20
31.1201939952
  0
LINE
  5
3FB
100
AcDbEntity
  8
RACCORDO
100
AcDbLine
 62
253
  6
CONTINUOUS
 10
46.0626620508
 20
26.8156118366
 11
45.9734057448
 21
27.6044454823
  0
LINE
  5
3FC
100
AcDbEntity
  8
DRAFT
100
AcDbLine
 62
7
  6
CONTINUOUS
 10
46.1440544375
 20
27.6256613191
 11
46.2351264925
 21
26.8195820855
  0
LINE
  5
3FD
100
AcDbEntity
  8
RACCORDO
100
AcDbLine
 62
253
  6
CONTINUOUS
 10
45.7834308259
 20
26.8005456494
 11
45.6944867908
 21
27.5880046227
  0
LWPOLYLINE
  5
3FE
100
AcDbEntity
  8
RACCORDO
100
AcDbPolyline
 62
253
  6
CONTINUOUS
 90
33
 70
0
 10
43.9710541584
 20
-35.9550668659
 10
44.002911929
 20
-35.8838261978
 10
44.0352943393
 20
-35.8103639923
 10
44.0685911349
 20
-35.7338737045
 10
44.102412222
 20
-35.6551612679
 10
44.1367757558
 20
-35.5738834732
 10
44.1717211781
 20
-35.4899634431
 10
44.2072086478
 20
-35.4034773676
 10
44.2431373519
 20
-35.3143115647
 10
44.2794756683
 20
-35.2225649904
 10
44.3162547722
 20
-35.1281379369
 10
44.353467991
 20
-35.0306186338
 10
44.3910865516
 20
-34.9301254678
 10
44.4291386627
 20
-34.82653912
 10
44.4677029994
 20
-34.7190910523
 10
44.5067703911
 20
-34.6079098275
 10
44.5463492285
 20
-34.4928656157
 10
44.586544309
 20
-34.372801924
 10
44.6275408228
 20
-34.2472469191
 10
44.6691523913
 20
-34.1166705345
 10
44.7109263303
 20
-33.981328727
 10
44.752922351
 20
-33.8410119652
 10
44.7950794953
 20
-33.6959278731
 10
44.836764192
 20
-33.5469583588
 10
44.8779329229
 20
-33.3941322873
 10
44.9186281104
 20
-33.237419229
 10
44.958345308
 20
-33.0776125188
 10
44.9970442305
 20
-32.9147109647
 10
45.0347642262
 20
-32.7487145363
 10
45.0711205241
 20
-32.580418686
 10
45.1059846783
 20
-32.410088373
 10
45.1394844306
 20
-32.2374578512
 10
45.1716194079
 20
-32.0625267117
  0
LINE
  5
3FF
100
AcDbEntity
  8
DRAFT
100
AcDbLine
 62
7
  6
CONTINUOUS
 10
-73.0632108737
 20
-47.5430675537
 11
-71.0275236856
 21
-47.7211671054
  0
LINE
  5
400
100
AcDbEntity
  8
RACCORDO
100
AcDbLine
 62
253
  6
CONTINUOUS
 10
-70.2199406204
 20
-46.2087878286
 11
-70.2447036859
 21
-46.2146922526
  0
LINE
  5
401
100
AcDbEntity
  8
RACCORDO
100
AcDbLine
 62
253
  6
CONTINUOUS
 10
-70.0256595153
 20
-45.6166534415
 11
-70.136073251
 21
-45.642555566
  0
LWPOLYLINE
  5
402
100
AcDbEntity
  8
RACCORDO
100
AcDbPolyline
 62
253
  6
CONTINUOUS
 90
10
 70
0
 10
-69.9202007007
 20
-45.5285236318
 10
-69.6934939122
 20
-45.4946447165
 10
-69.3317134525
 20
-45.4317664562
 10
-68.9715617294
 20
-45.360322493
 10
-68.6132414727
 20
-45.2803529673
 10
-68.2569555796
 20
-45.1919030855
 10
-67.9029069647
 20
-45.0950232361
 10
-67.5512960629
 20
-44.989768369
 10
-67.2023207519
 20
-44.876197824
 10
-66.8561780113
 20
-44.7543757889
  0
LWPOLYLINE
  5
403
100
AcDbEntity
  8
RACCORDO
100
AcDbPolyline
 62
253
  6
CONTINUOUS
 90
9
 70
0
 10
-69.8526007422
 20
-45.2555933673
 10
-69.5594575384
 20
-45.2119686149
 10
-69.2155898751
 20
-45.152844976
 10
-68.8731786594
 20
-45.0859918738
 10
-68.5323979426
 20
-45.0114432267
 10
-68.1934219294
 20
-44.9292370795
 10
-67.8564248622
 20
-44.8394156939
 10
-67.5215789788
 20
-44.742025053
 10
-67.1890544517
 20
-44.6371147284
  0
LWPOLYLINE
  5
404
100
AcDbEntity
  8
RACCORDO
100
AcDbPolyline
 62
253
  6
CONTINUOUS
 90
8
 70
0
 10
-69.852121659
 20
-45.2536631615
 10
-69.5585964553
 20
-45.209980995
 10
-69.2148436791
 20
-45.1508792375
 10
-68.8725462758
 20
-45.0840533011
 10
-68.5318781209
 20
-45.0095370675
 10
-68.1930132436
 20
-44.9273685391
 10
-67.8561257106
 20
-44.8375899296
 10
-67.5213875868
 20
-44.740247169
  0
LWPOLYLINE
  5
405
100
AcDbEntity
  8
RACCORDO
100
AcDbPolyline
 62
253
  6
CONTINUOUS
 90
10
 70
0
 10
-69.7091754081
 20
-44.6777382422
 10
-69.3870177289
 20
-44.6299331607
 10
-69.0659876672
 20
-44.5754432567
 10
-68.7462277238
 20
-44.514292656
 10
-68.4278816524
 20
-44.4465174767
 10
-68.1110889531
 20
-44.3721386824
 10
-67.7959847994
 20
-44.2911621762
 10
-67.4827072368
 20
-44.2036149303
 10
-67.1713971329
 20
-44.1095448618
 10
-66.8621926646
 20
-44.0089937557
  0
LWPOLYLINE
  5
406
100
AcDbEntity
  8
RACCORDO
100
AcDbPolyline
 62
253
  6
CONTINUOUS
 90
10
 70
0
 10
-69.7085634334
 20
-44.6751689388
 10
-69.3864971374
 20
-44.6274725471
 10
-69.0655514331
 20
-44.5730666905
 10
-68.7458687297
 20
-44.5119754733
 10
-68.4275905364
 20
-44.4442258901
 10
-68.1108584262
 20
-44.3698480282
 10
-67.7958139554
 20
-44.2888751261
 10
-67.4825972382
 20
-44.2013432378
 10
-67.1713469013
 20
-44.1072911465
 10
-66.8622010372
 20
-44.0067606113
  0
LINE
  5
407
100
AcDbEntity
  8
RACCORDO
100
AcDbLine
 62
253
  6
CONTINUOUS
 10
-70.1781252513
 20
-45.9611663582
 11
-72.2128527476
 21
-45.7851592535
  0
LINE
  5
408
100
AcDbEntity
  8
RACCORDO
100
AcDbLine
 62
253
  6
CONTINUOUS
 10
-70.3719677726
 20
-46.5560736123
 11
-72.4082245713
 21
-46.378708429
  0
LINE
  5
409
100
AcDbEntity
  8
RACCORDO
100
AcDbLine
 62
253
  6
CONTINUOUS
 10
-72.5610248404
 20
-46.6676513749
 11
-70.5238212594
 21
-46.8453420118
  0
LWPOLYLINE
  5
40A
100
AcDbEntity
  8
RACCORDO
100
AcDbPolyline
 62
253
  6
CONTINUOUS
 90
8
 70
0
 10
-66.6990707259
 20
-31.4202195373
 10
-66.7156772072
 20
-31.424098533
 10
-66.7348793312
 20
-31.4277027059
 10
-66.7564731687
 20
-31.4309937792
 10
-66.7802293902
 20
-31.4339368013
 10
-66.8058957014
 20
-31.4365005168
 10
-66.8331995225
 20
-31.4386576988
 10
-66.8618508832
 20
-31.4403854376
  0
LWPOLYLINE
  5
40B
100
AcDbEntity
  8
RACCORDO
100
AcDbPolyline
 62
253
  6
CONTINUOUS
 90
6
 70
0
 10
-68.8474545617
 20
-31.6820132038
 10
-68.4447899909
 20
-31.6370379375
 10
-68.0446110503
 20
-31.590378264
 10
-67.6472100973
 20
-31.541983796
 10
-67.2528630582
 20
-31.4919721352
 10
-66.8618508781
 20
-31.440379003
  0
LINE
  5
40C
100
AcDbEntity
  8
RACCORDO
100
AcDbLine
 62
253
  6
CONTINUOUS
 10
-70.899144196
 20
-32.0489728887
 11
-71.0879900263
 21
-32.0679596381
  0
LWPOLYLINE
  5
40D
100
AcDbEntity
  8
RACCORDO
100
AcDbPolyline
 62
253
  6
CONTINUOUS
 90
4
 70
0
 10
-70.4769759652
 20
-31.847117231
 10
-70.0673436264
 20
-31.8081453119
 10
-69.6590202245
 20
-31.7676015186
 10
-68.8474545617
 20
-31.6820132038
  0
LWPOLYLINE
  5
40E
100
AcDbEntity
  8
RACCORDO
100
AcDbPolyline
 62
253
  6
CONTINUOUS
 90
10
 70
0
 10
-70.4733861695
 20
-31.8945825635
 10
-70.0641216896
 20
-31.8569511353
 10
-69.6561817699
 20
-31.817502391
 10
-69.2498564409
 20
-31.7762643659
 10
-68.845433718
 20
-31.7332662756
 10
-68.443202016
 20
-31.6885387644
 10
-68.0434498942
 20
-31.642113921
 10
-67.6464623727
 20
-31.5940248773
 10
-67.2525207804
 20
-31.5443057484
 10
-66.8619051394
 20
-31.4929919034
  0
LINE
  5
40F
100
AcDbEntity
  8
RACCORDO
100
AcDbLine
 62
253
  6
CONTINUOUS
 10
-71.083817797
 20
-32.122314869
 11
-73.0554476731
 21
-32.090882927
  0
LWPOLYLINE
  5
410
100
AcDbEntity
  8
RACCORDO
100
AcDbPolyline
 62
253
  6
CONTINUOUS
 90
9
 70
0
 10
-66.6846883534
 20
-27.6417110004
 10
-66.6982282232
 20
-27.6441628031
 10
-66.714487665
 20
-27.646478614
 10
-66.7332978124
 20
-27.6486343817
 10
-66.7544633084
 20
-27.650607717
 10
-66.777764334
 20
-27.6523781253
 10
-66.8029588909
 20
-27.6539272197
 10
-66.8297853154
 20
-27.6552389117
 10
-66.8579649955
 20
-27.6562995784
  0
LWPOLYLINE
  5
411
100
AcDbEntity
  8
RACCORDO
100
AcDbPolyline
 62
253
  6
CONTINUOUS
 90
8
 70
0
 10
-66.6982192361
 20
-27.6061143106
 10
-66.7144749733
 20
-27.6084256327
 10
-66.7332809343
 20
-27.6105772634
 10
-66.7544418525
 20
-27.6125468619
 10
-66.7777380091
 20
-27.6143139771
 10
-66.8029275149
 20
-27.6158602604
 10
-66.8297488214
 20
-27.6171696564
 10
-66.8579234368
 20
-27.6182285691
  0
LINE
  5
412
100
AcDbEntity
  8
RACCORDO
100
AcDbLine
 62
253
  6
CONTINUOUS
 10
-67.4872139242
 20
-27.7166413738
 11
-66.8579649945
 21
-27.6562995786
  0
LINE
  5
413
100
AcDbEntity
  8
RACCORDO
100
AcDbLine
 62
253
  6
CONTINUOUS
 10
-67.4875195411
 20
-27.6785898864
 11
-66.8579234366
 21
-27.6182283842
  0
LINE
  5
414
100
AcDbEntity
  8
RACCORDO
100
AcDbLine
 62
253
  6
CONTINUOUS
 10
-68.1250439825
 20
-27.774466248
 11
-67.4872139242
 21
-27.7166413738
  0
LINE
  5
415
100
AcDbEntity
  8
RACCORDO
100
AcDbLine
 62
253
  6
CONTINUOUS
 10
-68.1257152896
 20
-27.7364364812
 11
-67.4875195411
 21
-27.6785898864
  0
LINE
  5
416
100
AcDbEntity
  8
RACCORDO
100
AcDbLine
 62
253
  6
CONTINUOUS
 10
-68.7702757441
 20
-27.8296671907
 11
-68.1250439825
 21
-27.774466248
  0
LINE
  5
417
100
AcDbEntity
  8
RACCORDO
100
AcDbLine
 62
253
  6
CONTINUOUS
 10
-68.7713281893
 20
-27.7916608342
 11
-68.1257152896
 21
-27.7364364812
  0
LINE
  5
418
100
AcDbEntity
  8
RACCORDO
100
AcDbLine
 62
253
  6
CONTINUOUS
 10
-69.4217136923
 20
-27.8821418709
 11
-68.7702757441
 21
-27.8296671907
  0
LINE
  5
419
100
AcDbEntity
  8
RACCORDO
100
AcDbLine
 62
253
  6
CONTINUOUS
 10
-69.4231560568
 20
-27.8441600378
 11
-68.7713281893
 21
-27.7916608342
  0
LINE
  5
41A
100
AcDbEntity
  8
RACCORDO
100
AcDbLine
 62
253
  6
CONTINUOUS
 10
-71.1720319649
 20
-28.0737381121
 11
-71.3619669073
 21
-28.0878496455
  0
LINE
  5
41B
100
AcDbEntity
  8
RACCORDO
100
AcDbLine
 62
253
  6
CONTINUOUS
 10
-70.0781505773
 20
-27.9317930404
 11
-69.4217136923
 21
-27.8821418709
  0
LINE
  5
41C
100
AcDbEntity
  8
RACCORDO
100
AcDbLine
 62
253
  6
CONTINUOUS
 10
-70.0799901904
 20
-27.8938367455
 11
-69.4231560568
 21
-27.8441600378
  0
LINE
  5
41D
100
AcDbEntity
  8
RACCORDO
100
AcDbLine
 62
253
  6
CONTINUOUS
 10
-70.7383722653
 20
-27.9785288967
 11
-70.0781505773
 21
-27.9317930404
  0
LINE
  5
41E
100
AcDbEntity
  8
RACCORDO
100
AcDbLine
 62
253
  6
CONTINUOUS
 10
-70.7406142354
 20
-27.9405989951
 11
-70.0799901904
 21
-27.8938367455
  0
LINE
  5
41F
100
AcDbEntity
  8
0
100
AcDbLine
 62
7
  6
CONTINUOUS
 10
-75.5566456142
 20
-29.3789677126
 11
-75.4563743033
 21
-29.3789677126
  0
LINE
  5
420
100
AcDbEntity
  8
0
100
AcDbLine
 62
7
  6
CONTINUOUS
 10
-75.5739331896
 20
-29.3789677126
 11
-75.5639596733
 21
-29.3789677126
  0
LINE
  5
421
100
AcDbEntity
  8
0
100
AcDbLine
 62
7
  6
CONTINUOUS
 10
-75.5908412138
 20
-29.3789673582
 11
-75.5852229271
 21
-29.3789673582
  0
LINE
  5
422
100
AcDbEntity
  8
0
100
AcDbLine
 62
7
  6
CONTINUOUS
 10
-75.5784811184
 20
-29.3789677126
 11
-75.5793183688
 21
-29.3789677126
  0
LINE
  5
423
100
AcDbEntity
  8
0
100
AcDbLine
 62
7
  6
CONTINUOUS
 10
-75.625808952
 20
-28.8200473582
 11
-75.6298522787
 21
-28.8200473582
  0
LINE
  5
424
100
AcDbEntity
  8
0
100
AcDbLine
 62
253
  6
CONTINUOUS
 10
-75.6126692904
 20
-28.6212665863
 11
-75.5124269964
 21
-28.6212665863
  0
LINE
  5
425
100
AcDbEntity
  8
0
100
AcDbLine
 62
7
  6
CONTINUOUS
 10
-75.6537216636
 20
-28.0720907951
 11
-75.5534999823
 21
-28.0720907951
  0
LINE
  5
426
100
AcDbEntity
  8
0
100
AcDbLine
 62
7
  6
CONTINUOUS
 10
-75.6548037179
 20
-28.0555469863
 11
-75.5545826109
 21
-28.0555469863
  0
LINE
  5
427
100
AcDbEntity
  8
0
100
AcDbLine
 62
7
  6
CONTINUOUS
 10
-75.6767580817
 20
-27.8247944448
 11
-75.6802225376
 21
-27.8247944448
  0
LINE
  5
428
100
AcDbEntity
  8
0
100
AcDbLine
 62
7
  6
CONTINUOUS
 10
-75.7279443202
 20
-27.0562211542
 11
-75.7222643328
 21
-27.0562211542
  0
LINE
  5
429
100
AcDbEntity
  8
RACCORDO
100
AcDbLine
 62
253
  6
CONTINUOUS
 10
-71.3594062561
 20
-28.122314869
 11
-73.3242740653
 21
-28.1024021861
  0
LWPOLYLINE
  5
42A
100
AcDbEntity
  8
RACCORDO
100
AcDbPolyline
 62
253
  6
CONTINUOUS
 90
10
 70
0
 10
-71.2163452659
 20
-24.8533497186
 10
-71.2235262937
 20
-24.8550734841
 10
-71.2326786831
 20
-24.8567845887
 10
-71.2436678037
 20
-24.858454588
 10
-71.2563319787
 20
-24.8600556439
 10
-71.2704848659
 20
-24.8615609341
 10
-71.2859182013
 20
-24.8629450474
 10
-71.3024048662
 20
-24.8641843574
 10
-71.319702231
 20
-24.8652573711
 10
-71.3375557287
 20
-24.8661450446
  0
LINE
  5
42B
100
AcDbEntity
  8
RACCORDO
100
AcDbLine
 62
253
  6
CONTINUOUS
 10
-67.5100129068
 20
-24.5424797338
 11
-66.8548938145
 21
-24.4922719136
  0
LINE
  5
42C
100
AcDbEntity
  8
RACCORDO
100
AcDbLine
 62
253
  6
CONTINUOUS
 10
-68.1747500051
 20
-24.5902020902
 11
-67.5100129068
 21
-24.5424797338
  0
LINE
  5
42D
100
AcDbEntity
  8
RACCORDO
100
AcDbLine
 62
253
  6
CONTINUOUS
 10
-68.8477657142
 20
-24.6353427023
 11
-68.1747500051
 21
-24.5902020902
  0
LINE
  5
42E
100
AcDbEntity
  8
RACCORDO
100
AcDbLine
 62
253
  6
CONTINUOUS
 10
-69.5276999279
 20
-24.6778102715
 11
-68.8477657142
 21
-24.6353427023
  0
LINE
  5
42F
100
AcDbEntity
  8
RACCORDO
100
AcDbLine
 62
253
  6
CONTINUOUS
 10
-70.213179616
 20
-24.717519034
 11
-69.5276999279
 21
-24.6778102715
  0
LINE
  5
430
100
AcDbEntity
  8
RACCORDO
100
AcDbLine
 62
253
  6
CONTINUOUS
 10
-71.3375558357
 20
-24.8661425765
 11
-71.5272372252
 21
-24.8767786569
  0
LINE
  5
431
100
AcDbEntity
  8
RACCORDO
100
AcDbLine
 62
253
  6
CONTINUOUS
 10
-70.902823411
 20
-24.7543890007
 11
-70.213179616
 21
-24.717519034
  0
LINE
  5
432
100
AcDbEntity
  8
0
100
AcDbLine
 62
253
  6
CONTINUOUS
 10
-75.7426580742
 20
-26.6414502317
 11
-75.6424833714
 21
-26.6414502317
  0
LINE
  5
433
100
AcDbEntity
  8
0
100
AcDbLine
 62
7
  6
CONTINUOUS
 10
-75.6556758207
 20
-26.5464148391
 11
-75.7558456417
 21
-26.5464148391
  0
LINE
  5
434
100
AcDbEntity
  8
0
100
AcDbLine
 62
253
  6
CONTINUOUS
 10
-75.7600848513
 20
-24.9856390032
 11
-75.0986069111
 21
-24.9856390032
  0
LINE
  5
435
100
AcDbEntity
  8
RACCORDO
100
AcDbLine
 62
253
  6
CONTINUOUS
 10
-75.0986069111
 20
-24.9856390032
 11
-73.7558326819
 21
-24.9856383714
  0
LINE
  5
436
100
AcDbEntity
  8
RACCORDO
100
AcDbLine
 62
253
  6
CONTINUOUS
 10
-73.4889213244
 20
-24.8610196974
 11
-71.5271813387
 21
-24.8777753235
  0
LWPOLYLINE
  5
437
100
AcDbEntity
  8
0
100
AcDbPolyline
 62
7
  6
CONTINUOUS
 90
13
 70
0
 10
-75.7558439127
 20
-26.5464449941
 10
-75.7556468006
 20
-26.5464896265
 10
-75.754954406
 20
-26.5473397712
 10
-75.7541811665
 20
-26.5494241138
 10
-75.7533308298
 20
-26.5526742647
 10
-75.7523994935
 20
-26.5571586077
 10
-75.7513654452
 20
-26.5632847905
 10
-75.7502323193
 20
-26.5709621977
 10
-75.7489961899
 20
-26.5802814244
 10
-75.7476241378
 20
-26.5919219228
 10
-75.7461051375
 20
-26.6061101559
 10
-75.7444498875
 20
-26.6226196039
 10
-75.7426580742
 20
-26.6414502317
  0
LINE
  5
438
100
AcDbEntity
  8
RACCORDO
100
AcDbLine
 62
253
  6
CONTINUOUS
 10
-75.1971232087
 20
-22.1866150011
 11
-75.1981599161
 21
-22.1861384705
  0
LWPOLYLINE
  5
439
100
AcDbEntity
  8
RACCORDO
100
AcDbPolyline
 62
253
  6
CONTINUOUS
 90
16
 70
0
 10
-73.3276554941
 20
31.120193995
 10
-73.3242873947
 20
31.1248511973
 10
-73.3183139441
 20
31.1292382706
 10
-73.3097879002
 20
31.1333164683
 10
-73.2987845652
 20
31.1370497716
 10
-73.285401121
 20
31.1404052079
 10
-73.2697557706
 20
31.1433531421
 10
-73.2519866943
 20
31.145867538
 10
-73.2322508292
 20
31.1479261883
 10
-73.2107224831
 20
31.1495109111
 10
-73.1875917952
 20
31.1506077103
 10
-73.1630630564
 20
31.1512068988
 10
-73.1373529055
 20
31.1513031847
 10
-73.1106884154
 20
31.1508957178
 10
-73.0833050878
 20
31.1499880968
 10
-73.0554447733
 20
31.1485883381
  0
LWPOLYLINE
  5
43A
100
AcDbEntity
  8
RACCORDO
100
AcDbPolyline
 62
253
  6
CONTINUOUS
 90
16
 70
0
 10
-73.5969630644
 20
27.1450926426
 10
-73.5937708815
 20
27.1480232601
 10
-73.5879402654
 20
27.1507525732
 10
-73.5795232505
 20
27.1532562245
 10
-73.5685949537
 20
27.1555118704
 10
-73.555252903
 20
27.1574993807
 10
-73.5396161681
 20
27.1592010181
 10
-73.5218242971
 20
27.1606015966
 10
-73.5020360714
 20
27.1616886169
 10
-73.4804280886
 20
27.162452378
 10
-73.4571931866
 20
27.1628860637
 10
-73.4325387224
 20
27.1629858038
 10
-73.4066847219
 20
27.1627507081
 10
-73.3798619158
 20
27.1621828747
 10
-73.3523096811
 20
27.1612873711
 10
-73.3242739045
 20
27.1600721892
  0
LWPOLYLINE
  5
43B
100
AcDbEntity
  8
RACCORDO
100
AcDbPolyline
 62
253
  6
CONTINUOUS
 90
16
 70
0
 10
-73.7558326544
 20
24.0433062867
 10
-73.7526948254
 20
24.0459437781
 10
-73.7469067962
 20
24.0484259516
 10
-73.738520393
 20
24.0507305817
 10
-73.7276107078
 20
24.0528370327
 10
-73.7142754261
 20
24.0547264434
 10
-73.6986339523
 20
24.056381896
 10
-73.6808263404
 20
24.0577885675
 10
-73.6610120401
 20
24.0589338626
 10
-73.639368469
 20
24.0598075263
 10
-73.6160894239
 20
24.0604017358
 10
-73.591383346
 20
24.0607111705
 10
-73.5654714539
 20
24.0607330598
 10
-73.538585763
 20
24.0604672075
 10
-73.5109670085
 20
24.0599159943
 10
-73.482862489
 20
24.0590843556
  0
LWPOLYLINE
  5
43C
100
AcDbEntity
  8
RACCORDO
100
AcDbPolyline
 62
253
  6
CONTINUOUS
 90
16
 70
0
 10
-73.761895588
 20
23.9030112493
 10
-73.7587590326
 20
23.9056326426
 10
-73.7529720307
 20
23.9080996042
 10
-73.7445864029
 20
23.9103900433
 10
-73.73367724
 20
23.9124834497
 10
-73.7203422301
 20
23.9143610777
 10
-73.7047007841
 20
23.9160061135
 10
-73.6868929661
 20
23.9174038265
 10
-73.6670782398
 20
23.9185417005
 10
-73.6454340398
 20
23.9194095463
 10
-73.6221541831
 20
23.9199995926
 10
-73.5974471336
 20
23.9203065557
 10
-73.5715341353
 20
23.9203276868
 10
-73.5446472309
 20
23.9200627967
 10
-73.5170271843
 20
23.9195142574
 10
-73.4889213244
 20
23.9186869809
  0
LWPOLYLINE
  5
43D
100
AcDbEntity
  8
RACCORDO
100
AcDbPolyline
 62
253
  6
CONTINUOUS
 90
16
 70
0
 10
-73.7618955851
 20
-24.8453439657
 10
-73.7587590288
 20
-24.8479653588
 10
-73.7529720261
 20
-24.8504323203
 10
-73.7445863978
 20
-24.8527227592
 10
-73.7336772344
 20
-24.8548161655
 10
-73.7203422243
 20
-24.8566937933
 10
-73.7047007782
 20
-24.858338829
 10
-73.6868929604
 20
-24.8597365419
 10
-73.6670782343
 20
-24.8608744159
 10
-73.6454340346
 20
-24.8617422616
 10
-73.6221541784
 20
-24.8623323079
 10
-73.5974471296
 20
-24.8626392709
 10
-73.5715341319
 20
-24.862660402
 10
-73.5446472282
 20
-24.8623955119
 10
-73.5170271824
 20
-24.8618469727
 10
-73.4889213234
 20
-24.8610196963
  0
LWPOLYLINE
  5
43E
100
AcDbEntity
  8
RACCORDO
100
AcDbPolyline
 62
253
  6
CONTINUOUS
 90
16
 70
0
 10
-73.7558326546
 20
-24.9856390032
 10
-73.7526948255
 20
-24.9882764946
 10
-73.7469067964
 20
-24.9907586681
 10
-73.7385203932
 20
-24.9930632982
 10
-73.727610708
 20
-24.9951697492
 10
-73.7142754263
 20
-24.9970591599
 10
-73.6986339524
 20
-24.9987146125
 10
-73.6808263405
 20
-25.000121284
 10
-73.6610120402
 20
-25.0012665791
 10
-73.639368469
 20
-25.0021402428
 10
-73.616089424
 20
-25.0027344523
 10
-73.591383346
 20
-25.003043887
 10
-73.5654714539
 20
-25.0030657762
 10
-73.538585763
 20
-25.002799924
 10
-73.5109670085
 20
-25.0022487108
 10
-73.482862489
 20
-25.0014170721
  0
LWPOLYLINE
  5
43F
100
AcDbEntity
  8
RACCORDO
100
AcDbPolyline
 62
253
  6
CONTINUOUS
 90
16
 70
0
 10
-73.5969630653
 20
-28.0874253592
 10
-73.5937708822
 20
-28.0903559767
 10
-73.5879402657
 20
-28.0930852897
 10
-73.5795232507
 20
-28.095588941
 10
-73.5685949536
 20
-28.0978445869
 10
-73.5552529028
 20
-28.0998320972
 10
-73.5396161678
 20
-28.1015337347
 10
-73.5218242968
 20
-28.1029343131
 10
-73.502036071
 20
-28.1040213334
 10
-73.4804280883
 20
-28.1047850944
 10
-73.4571931863
 20
-28.1052187802
 10
-73.4325387221
 20
-28.1053185202
 10
-73.4066847217
 20
-28.1050834244
 10
-73.3798619157
 20
-28.1045155909
 10
-73.3523096812
 20
-28.1036200873
 10
-73.3242739047
 20
-28.1024049053
  0
LWPOLYLINE
  5
440
100
AcDbEntity
  8
RACCORDO
100
AcDbPolyline
 62
253
  6
CONTINUOUS
 90
16
 70
0
 10
-73.3276554954
 20
-32.0625267116
 10
-73.3242873925
 20
-32.0671839177
 10
-73.318313939
 20
-32.0715709947
 10
-73.3097878926
 20
-32.0756491957
 10
-73.2987845556
 20
-32.079382502
 10
-73.2854011099
 20
-32.0827379408
 10
-73.2697557586
 20
-32.0856858768
 10
-73.2519866818
 20
-32.0882002737
 10
-73.2322508167
 20
-32.0902589243
 10
-73.2107224712
 20
-32.0918436465
 10
-73.1875917842
 20
-32.0929404441
 10
-73.1630630468
 20
-32.0935396299
 10
-73.1373528977
 20
-32.0936359121
 10
-73.1106884097
 20
-32.0932284402
 10
-73.0833050845
 20
-32.092320813
 10
-73.0554447726
 20
-32.0909210468
  0
LWPOLYLINE
  5
441
100
AcDbEntity
  8
RACCORDO
100
AcDbPolyline
 62
253
  6
CONTINUOUS
 90
13
 70
0
 10
-72.677672191
 20
45.1870572282
 10
-72.6704652045
 20
45.2190741238
 10
-72.6597859232
 20
45.2501248313
 10
-72.6457629298
 20
45.2798354881
 10
-72.6285650667
 20
45.3078483664
 10
-72.6083994027
 20
45.3338261804
 10
-72.5855087404
 20
45.3574561469
 10
-72.5601686922
 20
45.3784537521
 10
-72.532684362
 20
45.3965661766
 10
-72.503386672
 20
45.4115753398
 10
-72.4726283776
 20
45.4233005255
 10
-72.4407798207
 20
45.431600558
 10
-72.4082244702
 20
45.4363755016
  0
LWPOLYLINE
  5
442
100
AcDbEntity
  8
RACCORDO
100
AcDbPolyline
 62
253
  6
CONTINUOUS
 90
13
 70
0
 10
-72.4824458941
 20
44.5945970842
 10
-72.4752591314
 20
44.6264349467
 10
-72.4645931114
 20
44.6573187317
 10
-72.4505764395
 20
44.6868760583
 10
-72.4333781219
 20
44.7147505389
 10
-72.4132055272
 20
44.7406060771
 10
-72.3903018863
 20
44.7641309198
 10
-72.36494336
 20
44.7850414162
 10
-72.3374357085
 20
44.8030854382
 10
-72.3081106053
 20
44.8180454198
 10
-72.2773216377
 20
44.8297409813
 10
-72.2454400438
 20
44.8380311034
 10
-72.2128502357
 20
44.8428158279
  0
LWPOLYLINE
  5
443
100
AcDbEntity
  8
RACCORDO
100
AcDbPolyline
 62
253
  6
CONTINUOUS
 90
13
 70
0
 10
-72.8304066578
 20
45.4761492242
 10
-72.8231755791
 20
45.5081649112
 10
-72.8124784331
 20
45.5392103465
 10
-72.7984438266
 20
45.5689122846
 10
-72.7812404913
 20
45.5969136327
 10
-72.7610752551
 20
45.6228777433
 10
-72.7381905556
 20
45.6464924616
 10
-72.7128615252
 20
45.6674738785
 10
-72.6853926832
 20
45.685569744
 10
-72.6561142751
 20
45.7005624997
 10
-72.6253783021
 20
45.7122718944
 10
-72.5935542887
 20
45.7205571514
 10
-72.5610248407
 20
45.7253186609
  0
LWPOLYLINE
  5
444
100
AcDbEntity
  8
RACCORDO
100
AcDbPolyline
 62
253
  6
CONTINUOUS
 90
13
 70
0
 10
-72.8233961126
 20
45.4639679324
 10
-72.8161654248
 20
45.495983009
 10
-72.8054686581
 20
45.5270280588
 10
-72.7914344165
 20
45.5567298358
 10
-72.7742314302
 20
45.5847312436
 10
-72.7540665256
 20
45.610695629
 10
-72.7311821401
 20
45.6343108293
 10
-72.7058534063
 20
45.6552929254
 10
-72.6783848445
 20
45.6733896554
 10
-72.6491067019
 20
45.6883834473
 10
-72.6183709813
 20
45.7000940347
 10
-72.5865472101
 20
45.7083806246
 10
-72.5540179965
 20
45.7131435895
  0
LWPOLYLINE
  5
445
100
AcDbEntity
  8
RACCORDO
100
AcDbPolyline
 62
253
  6
CONTINUOUS
 90
13
 70
0
 10
-72.8304066578
 20
-46.4184819407
 10
-72.823175579
 20
-46.4504976275
 10
-72.8124784327
 20
-46.4815430625
 10
-72.7984438261
 20
-46.5112450004
 10
-72.7812404907
 20
-46.5392463483
 10
-72.7610752544
 20
-46.5652104586
 10
-72.7381905549
 20
-46.5888251767
 10
-72.7128615245
 20
-46.6098065934
 10
-72.6853926825
 20
-46.6279024587
 10
-72.6561142745
 20
-46.6428952141
 10
-72.6253783016
 20
-46.6546046087
 10
-72.5935542883
 20
-46.6628898656
 10
-72.5610248404
 20
-46.6676513749
  0
LWPOLYLINE
  5
446
100
AcDbEntity
  8
RACCORDO
100
AcDbPolyline
 62
253
  6
CONTINUOUS
 90
13
 70
0
 10
-72.8233961126
 20
-46.4063006489
 10
-72.8161654249
 20
-46.4383157255
 10
-72.8054686581
 20
-46.4693607754
 10
-72.7914344166
 20
-46.4990625523
 10
-72.7742314302
 20
-46.5270639601
 10
-72.7540665257
 20
-46.5530283455
 10
-72.7311821401
 20
-46.5766435458
 10
-72.7058534063
 20
-46.5976256419
 10
-72.6783848446
 20
-46.6157223719
 10
-72.6491067019
 20
-46.6307161637
 10
-72.6183709813
 20
-46.6424267512
 10
-72.5865472101
 20
-46.650713341
 10
-72.5540179965
 20
-46.6554763059
  0
LWPOLYLINE
  5
447
100
AcDbEntity
  8
RACCORDO
100
AcDbPolyline
 62
253
  6
CONTINUOUS
 90
13
 70
0
 10
-72.4824458956
 20
-45.5369298012
 10
-72.4752591118
 20
-45.5687676464
 10
-72.4645930746
 20
-45.5996514125
 10
-72.4505763894
 20
-45.6292087188
 10
-72.4333780623
 20
-45.6570831786
 10
-72.4132054619
 20
-45.6829386957
 10
-72.3903018191
 20
-45.7064635177
 10
-72.3649432942
 20
-45.7273739943
 10
-72.3374356473
 20
-45.7454179976
 10
-72.3081105515
 20
-45.7603779623
 10
-72.2773215937
 20
-45.7720735088
 10
-72.2454400113
 20
-45.7803636181
 10
-72.2128502163
 20
-45.7851483323
  0
LWPOLYLINE
  5
448
100
AcDbEntity
  8
RACCORDO
100
AcDbPolyline
 62
253
  6
CONTINUOUS
 90
13
 70
0
 10
-72.6776721913
 20
-46.1293899448
 10
-72.6704652048
 20
-46.1614068404
 10
-72.6597859235
 20
-46.192457548
 10
-72.6457629302
 20
-46.2221682049
 10
-72.6285650671
 20
-46.2501810833
 10
-72.6083994031
 20
-46.2761588973
 10
-72.5855087407
 20
-46.2997888639
 10
-72.5601686924
 20
-46.3207864692
 10
-72.5326843622
 20
-46.3388988937
 10
-72.5033866721
 20
-46.3539080569
 10
-72.4726283776
 20
-46.3656332426
 10
-72.4407798206
 20
-46.3739332751
 10
-72.4082244701
 20
-46.3787082187
  0
LWPOLYLINE
  5
449
100
AcDbEntity
  8
0
100
AcDbPolyline
 62
7
  6
CONTINUOUS
 90
13
 70
0
 10
-75.6424833714
 20
-26.6414502317
 10
-75.6442759257
 20
-26.6226181679
 10
-75.6459321986
 20
-26.6061057672
 10
-75.6474524935
 20
-26.5919130649
 10
-75.6488262723
 20
-26.5802649418
 10
-75.6500643769
 20
-26.5709365739
 10
-75.6511992114
 20
-26.5632534255
 10
-75.6522345337
 20
-26.5571267729
 10
-75.6531668795
 20
-26.5526453601
 10
-75.6540179664
 20
-26.5494008429
 10
-75.6547917079
 20
-26.5473252729
 10
-75.6554843476
 20
-26.5464866043
 10
-75.6556740575
 20
-26.5464455723
  0
LINE
  5
44A
100
AcDbEntity
  8
0
100
AcDbLine
 62
7
  6
CONTINUOUS
 10
-75.5522383295
 20
-28.0859432563
 11
-75.5534999823
 21
-28.0720907951
  0
LWPOLYLINE
  5
44B
100
AcDbEntity
  8
0
100
AcDbPolyline
 62
7
  6
CONTINUOUS
 90
8
 70
0
 10
-75.6422342975
 20
-28.3251217985
 10
-75.6432287193
 20
-28.3138002497
 10
-75.6441042533
 20
-28.3043846306
 10
-75.6448699587
 20
-28.296729643
 10
-75.6455231841
 20
-28.290799123
 10
-75.646063129
 20
-28.2865810221
 10
-75.6464907564
 20
-28.2840874072
 10
-75.6468060664
 20
-28.283318283
  0
LWPOLYLINE
  5
44C
100
AcDbEntity
  8
0
100
AcDbPolyline
 62
7
  6
CONTINUOUS
 90
6
 70
0
 10
-75.7207700016
 20
-27.0727824969
 10
-75.7216086801
 20
-27.0632438352
 10
-75.722362683
 20
-27.0551677275
 10
-75.7230303839
 20
-27.0485621105
 10
-75.7236136016
 20
-27.043419068
 10
-75.7241123722
 20
-27.0397386072
  0
LINE
  5
44D
100
AcDbEntity
  8
0
100
AcDbLine
 62
7
  6
CONTINUOUS
 10
-75.7426580742
 20
-26.6414502317
 11
-75.7414532762
 21
-26.6551651723
  0
LINE
  5
44E
100
AcDbEntity
  8
0
100
AcDbLine
 62
7
  6
CONTINUOUS
 10
-75.6537216636
 20
-28.0720907951
 11
-75.6511767378
 21
-28.1006177746
  0
LWPOLYLINE
  5
44F
100
AcDbEntity
  8
RACCORDO
100
AcDbPolyline
 62
253
  6
CONTINUOUS
 90
6
 70
0
 10
-68.6600830211
 20
-3.803346432
 10
-68.6612778985
 20
-3.8036066753
 10
-68.6648481592
 20
-3.8038638095
 10
-68.6707511557
 20
-3.8041147622
 10
-68.6789163704
 20
-3.8043565351
 10
-68.6892462509
 20
-3.8045862391
  0
LINE
  5
450
100
AcDbEntity
  8
RACCORDO
100
AcDbLine
 62
253
  6
CONTINUOUS
 10
-68.6892462509
 20
-3.8045862391
 11
-68.7158819315
 21
-3.804998639
  0
LINE
  5
451
100
AcDbEntity
  8
RACCORDO
100
AcDbLine
 62
253
  6
CONTINUOUS
 10
-68.7158819315
 20
-3.804998639
 11
-68.7682309139
 21
-3.8054644827
  0
LINE
  5
452
100
AcDbEntity
  8
RACCORDO
100
AcDbLine
 62
253
  6
CONTINUOUS
 10
-68.7682309139
 20
-3.8054644827
 11
-68.808968825
 21
-3.8056516306
  0
LINE
  5
453
100
AcDbEntity
  8
RACCORDO
100
AcDbLine
 62
253
  6
CONTINUOUS
 10
-66.6717199366
 20
-4.4916943906
 11
-66.6799788662
 21
-4.4914301184
  0
LINE
  5
454
100
AcDbEntity
  8
RACCORDO
100
AcDbLine
 62
253
  6
CONTINUOUS
 10
-66.6799788662
 20
-4.4914301184
 11
-66.6905884228
 21
-4.4910235296
  0
LINE
  5
455
100
AcDbEntity
  8
RACCORDO
100
AcDbLine
 62
253
  6
CONTINUOUS
 10
-66.6905884228
 20
-4.4910235296
 11
-66.7107591662
 21
-4.4901504663
  0
LINE
  5
456
100
AcDbEntity
  8
RACCORDO
100
AcDbLine
 62
253
  6
CONTINUOUS
 10
-66.7107591662
 20
-4.4901504663
 11
-66.7545643469
 21
-4.4880370386
  0
LINE
  5
457
100
AcDbEntity
  8
RACCORDO
100
AcDbLine
 62
253
  6
CONTINUOUS
 10
-66.7545643469
 20
-4.4880370386
 11
-66.8454437363
 21
-4.4832147609
  0
LINE
  5
458
100
AcDbEntity
  8
RACCORDO
100
AcDbLine
 62
253
  6
CONTINUOUS
 10
-66.8454439804
 20
-4.483214634
 11
-68.4741241799
 21
-4.1998054304
  0
LWPOLYLINE
  5
459
100
AcDbEntity
  8
0
100
AcDbPolyline
 62
7
  6
CONTINUOUS
 90
5
 70
0
 10
-75.7241123722
 20
-27.0397386072
 10
-75.724949004
 20
-27.0348088771
 10
-75.7256845651
 20
-27.0315588895
 10
-75.7263189379
 20
-27.0299886496
 10
-75.7265857021
 20
-27.0298272665
  0
LINE
  5
45A
100
AcDbEntity
  8
0
100
AcDbLine
 62
7
  6
CONTINUOUS
 10
-75.6412281647
 20
-26.6557538286
 11
-75.6424833714
 21
-26.6414502317
  0
LINE
  5
45B
100
AcDbEntity
  8
0
100
AcDbLine
 62
7
  6
CONTINUOUS
 10
-75.5495136109
 20
-28.1177421345
 11
-75.5522383295
 21
-28.0859432563
  0
LINE
  5
45C
100
AcDbEntity
  8
0
100
AcDbLine
 62
7
  6
CONTINUOUS
 10
-75.6511767378
 20
-28.1006177746
 11
-75.6482943932
 21
-28.1355325096
  0
LINE
  5
45D
100
AcDbEntity
  8
0
100
AcDbLine
 62
7
  6
CONTINUOUS
 10
-75.7188534905
 20
-27.0961792052
 11
-75.7207700016
 21
-27.0727824969
  0
LINE
  5
45E
100
AcDbEntity
  8
0
100
AcDbLine
 62
7
  6
CONTINUOUS
 10
-75.6386799094
 20
-28.3684447343
 11
-75.6422342975
 21
-28.3251217985
  0
LINE
  5
45F
100
AcDbEntity
  8
0
100
AcDbLine
 62
7
  6
CONTINUOUS
 10
-75.7414532762
 20
-26.6551651723
 11
-75.7385123336
 21
-26.6914691617
  0
LINE
  5
460
100
AcDbEntity
  8
0
100
AcDbLine
 62
7
  6
CONTINUOUS
 10
-75.6381529391
 20
-26.6938137703
 11
-75.6412281647
 21
-26.6557538286
  0
LINE
  5
461
100
AcDbEntity
  8
RACCORDO
100
AcDbLine
 62
253
  6
CONTINUOUS
 10
-73.1025314461
 20
-34.9301254678
 11
-73.2368082976
 21
-33.237419229
  0
LINE
  5
462
100
AcDbEntity
  8
0
100
AcDbLine
 62
7
  6
CONTINUOUS
 10
-75.54492337
 20
-28.1756749853
 11
-75.5495136109
 21
-28.1177421345
  0
LINE
  5
463
100
AcDbEntity
  8
RACCORDO
100
AcDbLine
 62
253
  6
CONTINUOUS
 10
-72.6621869254
 20
-40.3779374369
 11
-73.1025314461
 21
-34.9301254678
  0
LINE
  5
464
100
AcDbEntity
  8
RACCORDO
100
AcDbLine
 62
253
  6
CONTINUOUS
 10
-72.8148428412
 20
-35.206833062
 11
-72.9525227031
 21
-33.4445136295
  0
LINE
  5
465
100
AcDbEntity
  8
RACCORDO
100
AcDbLine
 62
253
  6
CONTINUOUS
 10
-73.2368082976
 20
-33.237419229
 11
-73.3276554965
 21
-32.0625267117
  0
LINE
  5
466
100
AcDbEntity
  8
RACCORDO
100
AcDbLine
 62
253
  6
CONTINUOUS
 10
-72.3914102917
 20
-40.5424904832
 11
-72.8148428412
 21
-35.206833062
  0
LINE
  5
467
100
AcDbEntity
  8
0
100
AcDbLine
 62
7
  6
CONTINUOUS
 10
-75.7166239434
 20
-27.1253008503
 11
-75.7188534905
 21
-27.0961792052
  0
LINE
  5
468
100
AcDbEntity
  8
0
100
AcDbLine
 62
7
  6
CONTINUOUS
 10
-75.6482943932
 20
-28.1355325096
 11
-75.6403301433
 21
-28.2392732308
  0
LINE
  5
469
100
AcDbEntity
  8
RACCORDO
100
AcDbLine
 62
253
  6
CONTINUOUS
 10
-72.9525227031
 20
-33.4445136295
 11
-73.0885966462
 21
-31.6491882398
  0
LINE
  5
46A
100
AcDbEntity
  8
0
100
AcDbLine
 62
7
  6
CONTINUOUS
 10
-75.6314208787
 20
-28.4636412983
 11
-75.6386799094
 21
-28.3684447343
  0
LINE
  5
46B
100
AcDbEntity
  8
RACCORDO
100
AcDbLine
 62
253
  6
CONTINUOUS
 10
-73.3276554965
 20
-32.0625267117
 11
-73.3932650465
 21
-31.1816248257
  0
LINE
  5
46C
100
AcDbEntity
  8
0
100
AcDbLine
 62
7
  6
CONTINUOUS
 10
-75.7385123336
 20
-26.6914691617
 11
-75.7327582941
 21
-26.7681096101
  0
LINE
  5
46D
100
AcDbEntity
  8
0
100
AcDbLine
 62
7
  6
CONTINUOUS
 10
-75.6321123151
 20
-26.7745346502
 11
-75.6381529391
 21
-26.6938137703
  0
LINE
  5
46E
100
AcDbEntity
  8
RACCORDO
100
AcDbLine
 62
253
  6
CONTINUOUS
 10
-72.5849864817
 20
-41.4034657858
 11
-72.6621869254
 21
-40.3779374369
  0
LINE
  5
46F
100
AcDbEntity
  8
0
100
AcDbLine
 62
7
  6
CONTINUOUS
 10
-75.5290983659
 20
-28.3892879656
 11
-75.54492337
 21
-28.1756749853
  0
LINE
  5
470
100
AcDbEntity
  8
0
100
AcDbLine
 62
7
  6
CONTINUOUS
 10
-75.5639596733
 20
-29.3789677126
 11
-75.6314208787
 21
-28.4636412983
  0
LINE
  5
471
100
AcDbEntity
  8
0
100
AcDbLine
 62
7
  6
CONTINUOUS
 10
-75.4563743033
 20
-29.3789677126
 11
-75.5154596008
 21
-28.5790529617
  0
LINE
  5
472
100
AcDbEntity
  8
0
100
AcDbLine
 62
7
  6
CONTINUOUS
 10
-75.5154596008
 20
-28.5790529617
 11
-75.5290983659
 21
-28.3892879656
  0
LINE
  5
473
100
AcDbEntity
  8
RACCORDO
100
AcDbLine
 62
253
  6
CONTINUOUS
 10
-72.3144264101
 20
-41.584574341
 11
-72.3914102917
 21
-40.5424904832
  0
LINE
  5
474
100
AcDbEntity
  8
0
100
AcDbLine
 62
7
  6
CONTINUOUS
 10
-75.6403301433
 20
-28.2392732308
 11
-75.5566456142
 21
-29.3789677126
  0
LINE
  5
475
100
AcDbEntity
  8
RACCORDO
100
AcDbLine
 62
253
  6
CONTINUOUS
 10
-73.0885966462
 20
-31.6491882398
 11
-73.1524592035
 21
-30.7645412832
  0
LINE
  5
476
100
AcDbEntity
  8
RACCORDO
100
AcDbLine
 62
253
  6
CONTINUOUS
 10
-73.3932650465
 20
-31.1816248257
 11
-73.4556039023
 21
-30.2991855242
  0
LINE
  5
477
100
AcDbEntity
  8
0
100
AcDbLine
 62
7
  6
CONTINUOUS
 10
-75.7113184323
 20
-27.1999992217
 11
-75.7166239434
 21
-27.1253008503
  0
LINE
  5
478
100
AcDbEntity
  8
0
100
AcDbLine
 62
7
  6
CONTINUOUS
 10
-75.6298522787
 20
-28.8200473582
 11
-75.5908412138
 21
-29.3789673582
  0
LINE
  5
479
100
AcDbEntity
  8
0
100
AcDbLine
 62
7
  6
CONTINUOUS
 10
-75.6336953161
 20
-28.5268338433
 11
-75.5739331896
 21
-29.3789677126
  0
LINE
  5
47A
100
AcDbEntity
  8
0
100
AcDbLine
 62
7
  6
CONTINUOUS
 10
-75.7327582941
 20
-26.7681096101
 11
-75.7223564454
 21
-26.916843566
  0
LINE
  5
47B
100
AcDbEntity
  8
0
100
AcDbLine
 62
7
  6
CONTINUOUS
 10
-75.6210595477
 20
-26.9333125409
 11
-75.6321123151
 21
-26.7745346502
  0
LINE
  5
47C
100
AcDbEntity
  8
RACCORDO
100
AcDbLine
 62
253
  6
CONTINUOUS
 10
-72.5363978327
 20
-42.0950080685
 11
-72.5849864817
 21
-41.4034657858
  0
LINE
  5
47D
100
AcDbEntity
  8
RACCORDO
100
AcDbLine
 62
253
  6
CONTINUOUS
 10
-73.1524592035
 20
-30.7645412832
 11
-73.2130478855
 21
-29.8783605041
  0
LINE
  5
47E
100
AcDbEntity
  8
0
100
AcDbLine
 62
7
  6
CONTINUOUS
 10
-75.6619715835
 20
-28.3879539506
 11
-75.632366105
 21
-28.8205069112
  0
LINE
  5
47F
100
AcDbEntity
  8
0
100
AcDbLine
 62
7
  6
CONTINUOUS
 10
-75.6496029477
 20
-28.2902100174
 11
-75.6336953161
 21
-28.5268338433
  0
LINE
  5
480
100
AcDbEntity
  8
RACCORDO
100
AcDbLine
 62
253
  6
CONTINUOUS
 10
-72.2659899344
 20
-42.2873472209
 11
-72.3144264101
 21
-41.584574341
  0
LINE
  5
481
100
AcDbEntity
  8
RACCORDO
100
AcDbLine
 62
253
  6
CONTINUOUS
 10
-73.4556039023
 20
-30.2991855242
 11
-73.5146482122
 21
-29.4153081097
  0
LINE
  5
482
100
AcDbEntity
  8
0
100
AcDbLine
 62
7
  6
CONTINUOUS
 10
-75.7107827851
 20
-27.5127933024
 11
-75.5807404329
 21
-29.3789673582
  0
LINE
  5
483
100
AcDbEntity
  8
0
100
AcDbLine
 62
7
  6
CONTINUOUS
 10
-75.6548037179
 20
-28.0555469863
 11
-75.6537216636
 21
-28.0720907951
  0
LINE
  5
484
100
AcDbEntity
  8
0
100
AcDbLine
 62
7
  6
CONTINUOUS
 10
-75.5534999823
 20
-28.0720907951
 11
-75.5545826109
 21
-28.0555469863
  0
LINE
  5
485
100
AcDbEntity
  8
0
100
AcDbLine
 62
7
  6
CONTINUOUS
 10
-75.6387739924
 20
-28.5306624445
 11
-75.6843041724
 21
-27.8420725108
  0
LINE
  5
486
100
AcDbEntity
  8
0
100
AcDbLine
 62
7
  6
CONTINUOUS
 10
-75.7021234554
 20
-27.3398240901
 11
-75.7113184323
 21
-27.1999992217
  0
LINE
  5
487
100
AcDbEntity
  8
RACCORDO
100
AcDbLine
 62
253
  6
CONTINUOUS
 10
-73.2130478855
 20
-29.8783605041
 11
-73.2703285156
 21
-28.9909116329
  0
LINE
  5
488
100
AcDbEntity
  8
0
100
AcDbLine
 62
7
  6
CONTINUOUS
 10
-75.7223564454
 20
-26.916843566
 11
-75.703930755
 21
-27.1991123373
  0
LINE
  5
489
100
AcDbEntity
  8
0
100
AcDbLine
 62
7
  6
CONTINUOUS
 10
-75.6950110558
 20
-27.8259449958
 11
-75.6588755756
 21
-28.3875573582
  0
LINE
  5
48A
100
AcDbEntity
  8
RACCORDO
100
AcDbLine
 62
253
  6
CONTINUOUS
 10
-72.5043913074
 20
-42.5877207186
 11
-72.5363978327
 21
-42.0950080685
  0
LINE
  5
48B
100
AcDbEntity
  8
0
100
AcDbLine
 62
7
  6
CONTINUOUS
 10
-75.599035364
 20
-27.2739207213
 11
-75.6210595477
 21
-26.9333125409
  0
LINE
  5
48C
100
AcDbEntity
  8
RACCORDO
100
AcDbLine
 62
253
  6
CONTINUOUS
 10
-73.5146482122
 20
-29.4153081097
 11
-73.5703597032
 21
-28.5303362341
  0
LINE
  5
48D
100
AcDbEntity
  8
RACCORDO
100
AcDbLine
 62
253
  6
CONTINUOUS
 10
-72.2340881436
 20
-42.78811988
 11
-72.2659899344
 21
-42.2873472209
  0
LINE
  5
48E
100
AcDbEntity
  8
0
100
AcDbLine
 62
7
  6
CONTINUOUS
 10
-75.7279443202
 20
-27.0562211542
 11
-75.6802225376
 21
-27.8247944448
  0
LINE
  5
48F
100
AcDbEntity
  8
0
100
AcDbLine
 62
7
  6
CONTINUOUS
 10
-75.7685737452
 20
-26.5792643582
 11
-75.7107827851
 21
-27.5127933024
  0
LWPOLYLINE
  5
490
100
AcDbEntity
  8
0
100
AcDbPolyline
 62
7
  6
CONTINUOUS
 90
3
 70
0
 10
-75.6843041724
 20
-27.8420725108
 10
-75.7412918988
 20
-26.9195451366
 10
-75.7592870041
 20
-26.6119736993
  0
LINE
  5
491
100
AcDbEntity
  8
RACCORDO
100
AcDbLine
 62
253
  6
CONTINUOUS
 10
-73.2703285156
 20
-28.9909116329
 11
-73.3242740643
 21
-28.1024021867
  0
LINE
  5
492
100
AcDbEntity
  8
0
100
AcDbLine
 62
7
  6
CONTINUOUS
 10
-75.6891239595
 20
-27.5529270513
 11
-75.7021234554
 21
-27.3398240901
  0
LINE
  5
493
100
AcDbEntity
  8
0
100
AcDbLine
 62
7
  6
CONTINUOUS
 10
-75.703930755
 20
-27.1991123373
 11
-75.6771362125
 21
-27.6375302785
  0
LINE
  5
494
100
AcDbEntity
  8
RACCORDO
100
AcDbLine
 62
253
  6
CONTINUOUS
 10
-72.2185231556
 20
-43.050343801
 11
-72.2340881436
 21
-42.78811988
  0
LINE
  5
495
100
AcDbEntity
  8
0
100
AcDbLine
 62
7
  6
CONTINUOUS
 10
-75.774974521
 20
-26.5792643582
 11
-75.7289787122
 21
-27.348836221
  0
LINE
  5
496
100
AcDbEntity
  8
RACCORDO
100
AcDbLine
 62
253
  6
CONTINUOUS
 10
-73.5703597032
 20
-28.5303362341
 11
-73.6170240887
 21
-27.7428784418
  0
LINE
  5
497
100
AcDbEntity
  8
0
100
AcDbLine
 62
7
  6
CONTINUOUS
 10
-75.5733203555
 20
-27.6994246867
 11
-75.599035364
 21
-27.2739207213
  0
LINE
  5
498
100
AcDbEntity
  8
RACCORDO
100
AcDbLine
 62
253
  6
CONTINUOUS
 10
-72.4811170762
 20
-42.9781420403
 11
-72.5043913074
 21
-42.5877207186
  0
LINE
  5
499
100
AcDbEntity
  8
SUPERFICI
100
AcDbLine
 62
7
  6
CONTINUOUS
 10
-75.6772473335
 20
-26.5422245155
 11
-75.6769419152
 21
-26.5475488347
  0
LINE
  5
49A
100
AcDbEntity
  8
RACCORDO
100
AcDbLine
 62
253
  6
CONTINUOUS
 10
-73.3242740653
 20
-28.1024021861
 11
-73.3637244246
 21
-27.4134601451
  0
LWPOLYLINE
  5
49B
100
AcDbEntity
  8
RACCORDO
100
AcDbPolyline
 62
253
  6
CONTINUOUS
 90
10
 70
0
 10
-75.0986069111
 20
-24.9856390032
 10
-74.9662850397
 20
-27.3767533005
 10
-74.8037657112
 20
-29.7659987644
 10
-74.6110749535
 20
-32.1529927502
 10
-74.3882436261
 20
-34.5373529739
 10
-74.1353074166
 20
-36.9186975734
 10
-73.8523068351
 20
-39.2966451693
 10
-73.5392872056
 20
-41.6708149266
 10
-73.1962986585
 20
-44.040826615
 10
-72.8233961245
 20
-46.4063006703
  0
LINE
  5
49C
100
AcDbEntity
  8
0
100
AcDbLine
 62
7
  6
CONTINUOUS
 10
-75.6818972047
 20
-27.6798021726
 11
-75.6891239595
 21
-27.5529270513
  0
LINE
  5
49D
100
AcDbEntity
  8
RACCORDO
100
AcDbLine
 62
253
  6
CONTINUOUS
 10
-73.6170240887
 20
-27.7428784418
 11
-73.6553395804
 21
-27.0537034528
  0
LINE
  5
49E
100
AcDbEntity
  8
0
100
AcDbLine
 62
7
  6
CONTINUOUS
 10
-75.6771362125
 20
-27.6375302785
 11
-75.664516236
 21
-27.8596435845
  0
LINE
  5
49F
100
AcDbEntity
  8
0
100
AcDbLine
 62
7
  6
CONTINUOUS
 10
-75.5627119579
 20
-27.8891859912
 11
-75.5733203555
 21
-27.6994246867
  0
LINE
  5
4A0
100
AcDbEntity
  8
RACCORDO
100
AcDbLine
 62
253
  6
CONTINUOUS
 10
-72.4663537292
 20
-43.2485471308
 11
-72.4811170762
 21
-42.9781420403
  0
LINE
  5
4A1
100
AcDbEntity
  8
RACCORDO
100
AcDbLine
 62
253
  6
CONTINUOUS
 10
-73.3637244246
 20
-27.4134601451
 11
-73.4007700617
 21
-26.7244117335
  0
LINE
  5
4A2
100
AcDbEntity
  8
RACCORDO
100
AcDbLine
 62
253
  6
CONTINUOUS
 10
-73.6553395804
 20
-27.0537034528
 11
-73.6912464346
 21
-26.3644259901
  0
LINE
  5
4A3
100
AcDbEntity
  8
0
100
AcDbLine
 62
7
  6
CONTINUOUS
 10
-75.6791864572
 20
-27.731676957
 11
-75.6818972047
 21
-27.6798021726
  0
LWPOLYLINE
  5
4A4
100
AcDbEntity
  8
RACCORDO
100
AcDbPolyline
 62
253
  6
CONTINUOUS
 90
3
 70
0
 10
-73.4007700617
 20
-26.7244117335
 10
-73.4354109766
 20
-26.0352677024
 10
-73.4518294167
 20
-25.6906679226
  0
LINE
  5
4A5
100
AcDbEntity
  8
0
100
AcDbLine
 62
7
  6
CONTINUOUS
 10
-75.5558372302
 20
-28.0236557442
 11
-75.5627119579
 21
-27.8891859912
  0
LINE
  5
4A6
100
AcDbEntity
  8
SUPERFICI
100
AcDbLine
 62
7
  6
CONTINUOUS
 10
-75.7846977153
 20
-24.4789879964
 11
-75.7831233196
 21
-24.5117170405
  0
LWPOLYLINE
  5
4A7
100
AcDbEntity
  8
0
100
AcDbPolyline
 62
7
  6
CONTINUOUS
 90
6
 70
0
 10
-75.664516236
 20
-27.8596435845
 10
-75.6554939062
 20
-28.0354237091
 10
-75.6551903424
 20
-28.0423191178
 10
-75.6549814524
 20
-28.0478741534
 10
-75.6548525659
 20
-28.0522834412
 10
-75.6548037179
 20
-28.0555469863
  0
LINE
  5
4A8
100
AcDbEntity
  8
RACCORDO
100
AcDbLine
 62
253
  6
CONTINUOUS
 10
-73.6912464346
 20
-26.3644259901
 11
-73.7247441191
 21
-25.6750669206
  0
LINE
  5
4A9
100
AcDbEntity
  8
0
100
AcDbLine
 62
7
  6
CONTINUOUS
 10
-75.6778816648
 20
-27.7593170101
 11
-75.6791864572
 21
-27.731676957
  0
LWPOLYLINE
  5
4AA
100
AcDbEntity
  8
RACCORDO
100
AcDbPolyline
 62
253
  6
CONTINUOUS
 90
3
 70
0
 10
-75.0986069111
 20
-24.9856390032
 10
-75.1787558928
 20
-23.2915504325
 10
-75.1786782473
 20
-23.2855966167
  0
LINE
  5
4AB
100
AcDbEntity
  8
RACCORDO
100
AcDbLine
 62
253
  6
CONTINUOUS
 10
-73.7247441191
 20
-25.6750669206
 11
-73.761895588
 21
-24.8453439658
  0
LWPOLYLINE
  5
4AC
100
AcDbEntity
  8
RACCORDO
100
AcDbPolyline
 62
253
  6
CONTINUOUS
 90
21
 70
0
 10
-73.761895588
 20
-24.8453439658
 10
-73.8317500002
 20
-23.1559801542
 10
-73.9036138829
 20
-21.2889103445
 10
-73.9755000885
 20
-19.2440743404
 10
-74.0462161281
 20
-16.9818143961
 10
-74.1120291755
 20
-14.5416854853
 10
-74.1685812705
 20
-12.0425183158
 10
-74.2148592473
 20
-9.5049733136
 10
-74.2503099447
 20
-6.908481809
 10
-74.2738416325
 20
-4.3101097094
 10
-74.2854725362
 20
-1.7269245712
 10
-74.2853064684
 20
0.858001088
 10
-74.2733570344
 20
3.438579846
 10
-74.2495621947
 20
6.0313005258
 10
-74.2139473941
 20
8.6195355481
 10
-74.1676111799
 20
11.1475373436
 10
-74.1111362291
 20
13.6350458026
 10
-74.0455465735
 20
16.0622319627
 10
-73.97509085
 20
18.3140718666
 10
-73.903410133
 20
20.3522779135
 10
-73.8316934988
 20
22.2152380492
  0
LINE
  5
4AD
100
AcDbEntity
  8
RACCORDO
100
AcDbLine
 62
7
  6
CONTINUOUS
 10
-75.2948153034
 20
-19.8317529411
 11
-75.1902158311
 21
-22.3903750985
  0
LINE
  5
4AE
100
AcDbEntity
  8
RACCORDO
100
AcDbLine
 62
253
  6
CONTINUOUS
 10
-75.2948153034
 20
-19.8317529411
 11
-75.2912131796
 21
-19.898468166
  0
LINE
  5
4AF
100
AcDbEntity
  8
RACCORDO
100
AcDbLine
 62
253
  6
CONTINUOUS
 10
-75.1903895237
 20
-22.3564289505
 11
-75.1902158311
 21
-22.3903750985
  0
LINE
  5
4B0
100
AcDbEntity
  8
RACCORDO
100
AcDbLine
 62
253
  6
CONTINUOUS
 10
-75.3829129876
 20
-17.4026005721
 11
-75.3769742048
 21
-17.5474635194
  0
LINE
  5
4B1
100
AcDbEntity
  8
RACCORDO
100
AcDbLine
 62
7
  6
CONTINUOUS
 10
-75.1902158311
 20
-22.3903750985
 11
-75.1842629832
 21
-22.5800195419
  0
LINE
  5
4B2
100
AcDbEntity
  8
RACCORDO
100
AcDbLine
 62
253
  6
CONTINUOUS
 10
-75.1847691667
 20
-22.5251827426
 11
-75.1842629832
 21
-22.5800195419
  0
LINE
  5
4B3
100
AcDbEntity
  8
RACCORDO
100
AcDbLine
 62
253
  6
CONTINUOUS
 10
-75.4592163959
 20
-14.9730470816
 11
-75.4535301086
 21
-15.1333125314
  0
LINE
  5
4B4
100
AcDbEntity
  8
RACCORDO
100
AcDbLine
 62
253
  6
CONTINUOUS
 10
-75.5769927052
 20
-10.030766566
 11
-75.5764331119
 21
-10.1129831667
  0
LINE
  5
4B5
100
AcDbEntity
  8
RACCORDO
100
AcDbLine
 62
253
  6
CONTINUOUS
 10
-75.5237235253
 20
-12.5431561879
 11
-75.5210027949
 21
-12.613585778
  0
LWPOLYLINE
  5
4B6
100
AcDbEntity
  8
RACCORDO
100
AcDbPolyline
 62
7
  6
CONTINUOUS
 90
9
 70
0
 10
-75.1842629832
 20
-22.5800195419
 10
-75.1800150241
 20
-22.760545774
 10
-75.1785322413
 20
-22.8464542196
 10
-75.1774839819
 20
-22.9289717262
 10
-75.1768644692
 20
-23.0077522003
 10
-75.1766700209
 20
-23.082488624
 10
-75.1768925311
 20
-23.1528364875
 10
-75.1775175936
 20
-23.2184643212
 10
-75.1785361917
 20
-23.2791084984
  0
LINE
  5
4B7
100
AcDbEntity
  8
RACCORDO
100
AcDbLine
 62
7
  6
CONTINUOUS
 10
-75.1786745659
 20
22.3432707476
 11
-75.1778882542
 21
22.3016031433
  0
LWPOLYLINE
  5
4B8
100
AcDbEntity
  8
0
100
AcDbPolyline
 62
7
  6
CONTINUOUS
 90
5
 70
0
 10
-75.5545826109
 20
-28.0555469863
 10
-75.5546506573
 20
-28.0517626617
 10
-75.5548066606
 20
-28.0467276817
 10
-75.5550505799
 20
-28.04044204
 10
-75.5558372302
 20
-28.0236557442
  0
LINE
  5
4B9
100
AcDbEntity
  8
RACCORDO
100
AcDbLine
 62
253
  6
CONTINUOUS
 10
-75.1771760167
 20
22.3837105473
 11
-75.1761266947
 21
22.3254585483
  0
LINE
  5
4BA
100
AcDbEntity
  8
RACCORDO
100
AcDbLine
 62
253
  6
CONTINUOUS
 10
-75.1785322413
 20
-22.8464542196
 11
-75.1771870471
 21
-22.8513405866
  0
LINE
  5
4BB
100
AcDbEntity
  8
RACCORDO
100
AcDbLine
 62
253
  6
CONTINUOUS
 10
-75.6187509768
 20
-7.5122988884
 11
-75.6173440463
 21
-7.68257926
  0
LWPOLYLINE
  5
4BC
100
AcDbEntity
  8
RACCORDO
100
AcDbPolyline
 62
253
  6
CONTINUOUS
 90
6
 70
0
 10
-75.2109903232
 20
-23.6949207954
 10
-75.2115995165
 20
-23.6510940883
 10
-75.2089943778
 20
-23.607353012
 10
-75.203188886
 20
-23.5639322787
 10
-75.1942141932
 20
-23.5210648818
 10
-75.1887264623
 20
-23.5019717181
  0
LWPOLYLINE
  5
4BD
100
AcDbEntity
  8
RACCORDO
100
AcDbPolyline
 62
7
  6
CONTINUOUS
 90
5
 70
0
 10
-75.1778882542
 20
22.3016031433
 10
-75.1772026437
 20
22.2487662557
 10
-75.1767946184
 20
22.192492334
 10
-75.1766704625
 20
22.1329784078
 10
-75.1768387423
 20
22.0704463849
  0
LINE
  5
4BE
100
AcDbEntity
  8
RACCORDO
100
AcDbLine
 62
253
  6
CONTINUOUS
 10
-75.1787519036
 20
22.3492171387
 11
-75.1786745659
 21
22.3432707476
  0
LINE
  5
4BF
100
AcDbEntity
  8
RACCORDO
100
AcDbLine
 62
253
  6
CONTINUOUS
 10
-75.6468601667
 20
-5.1007306311
 11
-75.6464551955
 21
-5.251999742
  0
LINE
  5
4C0
100
AcDbEntity
  8
RACCORDO
100
AcDbLine
 62
253
  6
CONTINUOUS
 10
-75.1761266947
 20
22.3254585483
 11
-75.1754292308
 21
22.2639687328
  0
LWPOLYLINE
  5
4C1
100
AcDbEntity
  8
RACCORDO
100
AcDbPolyline
 62
7
  6
CONTINUOUS
 90
8
 70
0
 10
-75.6637657991
 20
-2.8213085265
 10
-75.6464551955
 20
-5.251999742
 10
-75.6173440463
 20
-7.68257926
 10
-75.5764331119
 20
-10.1129831667
 10
-75.5237235253
 20
-12.5431561879
 10
-75.4592163959
 20
-14.9730470816
 10
-75.3829129876
 20
-17.4026005721
 10
-75.2948153034
 20
-19.8317529411
  0
LINE
  5
4C2
100
AcDbEntity
  8
RACCORDO
100
AcDbLine
 62
253
  6
CONTINUOUS
 10
-75.6630620596
 20
-2.7536670984
 11
-75.6637657991
 21
-2.8213085265
  0
LWPOLYLINE
  5
4C3
100
AcDbEntity
  8
RACCORDO
100
AcDbPolyline
 62
253
  6
CONTINUOUS
 90
3
 70
0
 10
-75.1754292308
 20
22.2639687328
 10
-75.1750824556
 20
22.1992410472
 10
-75.1766704625
 20
22.1329784078
  0
LINE
  5
4C4
100
AcDbEntity
  8
RACCORDO
100
AcDbLine
 62
7
  6
CONTINUOUS
 10
-75.6692817368
 20
-0.4711663583
 11
-75.663744258
 21
-2.8243332495
  0
LINE
  5
4C5
100
AcDbEntity
  8
0
100
AcDbLine
 62
7
  6
CONTINUOUS
 10
-75.7279413181
 20
-27.0475443762
 11
-75.7279443202
 21
-27.0562211542
  0
LWPOLYLINE
  5
4C6
100
AcDbEntity
  8
0
100
AcDbPolyline
 62
7
  6
CONTINUOUS
 90
14
 70
0
 10
-75.7592870041
 20
-26.6119736993
 10
-75.7592762939
 20
-26.6032485303
 10
-75.7592270863
 20
-26.5950335741
 10
-75.7591394729
 20
-26.5873288343
 10
-75.7590168467
 20
-26.58008289
 10
-75.7588559937
 20
-26.5733471689
 10
-75.7586470528
 20
-26.5672759493
 10
-75.7583902996
 20
-26.5618629083
 10
-75.7580855206
 20
-26.5571143757
 10
-75.7577220538
 20
-26.5532036092
 10
-75.7573001938
 20
-26.5501237196
 10
-75.7568196117
 20
-26.5478816013
 10
-75.7562686559
 20
-26.5466711879
 10
-75.7558439127
 20
-26.5464449941
  0
LINE
  5
4C7
100
AcDbEntity
  8
RACCORDO
100
AcDbLine
 62
253
  6
CONTINUOUS
 10
-75.1750824556
 20
-23.1415737616
 11
-75.1754292308
 21
-23.206301448
  0
LINE
  5
4C8
100
AcDbEntity
  8
RACCORDO
100
AcDbLine
 62
253
  6
CONTINUOUS
 10
-75.663736918
 20
1.8851196811
 11
-75.6630447868
 21
1.8151222882
  0
LINE
  5
4C9
100
AcDbEntity
  8
RACCORDO
100
AcDbLine
 62
7
  6
CONTINUOUS
 10
-75.1768387423
 20
22.0704463849
 11
-75.1780678857
 21
21.9370316606
  0
LINE
  5
4CA
100
AcDbEntity
  8
RACCORDO
100
AcDbLine
 62
253
  6
CONTINUOUS
 10
-75.1754292308
 20
-23.206301448
 11
-75.1761266947
 21
-23.2677912643
  0
LINE
  5
4CB
100
AcDbEntity
  8
RACCORDO
100
AcDbLine
 62
253
  6
CONTINUOUS
 10
-75.6464014906
 20
4.3152874818
 11
-75.6467775442
 21
4.1673251045
  0
LINE
  5
4CC
100
AcDbEntity
  8
RACCORDO
100
AcDbLine
 62
253
  6
CONTINUOUS
 10
-75.1761336033
 20
21.9856301962
 11
-75.1780678857
 21
21.9370316606
  0
LWPOLYLINE
  5
4CD
100
AcDbEntity
  8
RACCORDO
100
AcDbPolyline
 62
253
  6
CONTINUOUS
 90
6
 70
0
 10
-75.2109910962
 20
22.7525881149
 10
-75.2116002956
 20
22.7087613743
 10
-75.2089951687
 20
22.6650202529
 10
-75.2031896943
 20
22.6215994623
 10
-75.1942150244
 20
22.5787319956
 10
-75.1887252228
 20
22.5596315459
  0
LINE
  5
4CE
100
AcDbEntity
  8
RACCORDO
100
AcDbLine
 62
253
  6
CONTINUOUS
 10
-75.6172706033
 20
6.7453431005
 11
-75.6185338975
 21
6.5853835221
  0
LINE
  5
4CF
100
AcDbEntity
  8
RACCORDO
100
AcDbLine
 62
253
  6
CONTINUOUS
 10
-75.1761266947
 20
-23.2677912643
 11
-75.1771760167
 21
-23.3260432638
  0
LINE
  5
4D0
100
AcDbEntity
  8
RACCORDO
100
AcDbLine
 62
7
  6
CONTINUOUS
 10
-75.1780678857
 20
21.9370316606
 11
-75.1805053314
 21
21.793719963
  0
LINE
  5
4D1
100
AcDbEntity
  8
RACCORDO
100
AcDbLine
 62
7
  6
CONTINUOUS
 10
-75.1785361917
 20
-23.2791084984
 11
-75.178671381
 21
-23.2854576745
  0
LINE
  5
4D2
100
AcDbEntity
  8
RACCORDO
100
AcDbLine
 62
253
  6
CONTINUOUS
 10
-75.1785871027
 20
21.8298396849
 11
-75.1805053314
 21
21.793719963
  0
LINE
  5
4D3
100
AcDbEntity
  8
RACCORDO
100
AcDbLine
 62
253
  6
CONTINUOUS
 10
-75.5200654795
 20
11.7098279735
 11
-75.5236258738
 21
11.6048715733
  0
LINE
  5
4D4
100
AcDbEntity
  8
RACCORDO
100
AcDbLine
 62
253
  6
CONTINUOUS
 10
-75.5763450177
 20
9.175222902
 11
-75.5764893187
 21
9.1147557885
  0
LINE
  5
4D5
100
AcDbEntity
  8
RACCORDO
100
AcDbLine
 62
7
  6
CONTINUOUS
 10
-75.1805053314
 20
21.793719963
 11
-75.1841398559
 21
21.6421854622
  0
LINE
  5
4D6
100
AcDbEntity
  8
RACCORDO
100
AcDbLine
 62
253
  6
CONTINUOUS
 10
-75.4522689477
 20
14.2339641669
 11
-75.4591142886
 21
14.0342378324
  0
LINE
  5
4D7
100
AcDbEntity
  8
RACCORDO
100
AcDbLine
 62
253
  6
CONTINUOUS
 10
-75.1823789197
 20
21.6667607935
 11
-75.1841398559
 21
21.6421854622
  0
LINE
  5
4D8
100
AcDbEntity
  8
RACCORDO
100
AcDbLine
 62
253
  6
CONTINUOUS
 10
-75.3757276551
 20
16.6416210455
 11
-75.3828115271
 21
16.4632663704
  0
LINE
  5
4D9
100
AcDbEntity
  8
RACCORDO
100
AcDbLine
 62
7
  6
CONTINUOUS
 10
-75.1841398559
 20
21.6421854622
 11
-75.1889690461
 21
21.4842180536
  0
LINE
  5
4DA
100
AcDbEntity
  8
RACCORDO
100
AcDbLine
 62
253
  6
CONTINUOUS
 10
-75.1874439978
 20
21.4985031255
 11
-75.1889690461
 21
21.4842180536
  0
LWPOLYLINE
  5
4DB
100
AcDbEntity
  8
RACCORDO
100
AcDbPolyline
 62
7
  6
CONTINUOUS
 90
9
 70
0
 10
-75.2947195952
 20
18.8918934336
 10
-75.3828115271
 20
16.4632663704
 10
-75.4591142886
 20
14.0342378324
 10
-75.5236258738
 20
11.6048715733
 10
-75.5763450177
 20
9.175222902
 10
-75.6172706033
 20
6.7453431005
 10
-75.6464014906
 20
4.3152874818
 10
-75.663736918
 20
1.8851196811
 10
-75.6692817368
 20
-0.4711663582
  0
LINE
  5
4DC
100
AcDbEntity
  8
RACCORDO
100
AcDbLine
 62
253
  6
CONTINUOUS
 10
-75.2903522333
 20
18.9782959678
 11
-75.2947195952
 21
18.8918934336
  0
LINE
  5
4DD
100
AcDbEntity
  8
RACCORDO
100
AcDbLine
 62
7
  6
CONTINUOUS
 10
-75.1889690461
 20
21.4842180536
 11
-75.194956447
 21
21.3215714235
  0
LINE
  5
4DE
100
AcDbEntity
  8
RACCORDO
100
AcDbLine
 62
253
  6
CONTINUOUS
 10
-75.1936193368
 20
21.3292531904
 11
-75.194956447
 21
21.3215714235
  0
LINE
  5
4DF
100
AcDbEntity
  8
RACCORDO
100
AcDbLine
 62
7
  6
CONTINUOUS
 10
-75.194956447
 20
21.3215714235
 11
-75.2947638038
 21
18.8906746382
  0
LINE
  5
4E0
100
AcDbEntity
  8
RACCORDO
100
AcDbLine
 62
253
  6
CONTINUOUS
 10
-73.8316934988
 20
22.2152380492
 11
-73.7405895273
 21
24.3880280244
  0
LINE
  5
4E1
100
AcDbEntity
  8
RACCORDO
100
AcDbLine
 62
253
  6
CONTINUOUS
 10
-73.7405895273
 20
24.3880280244
 11
-73.7082964628
 21
25.0774223385
  0
LINE
  5
4E2
100
AcDbEntity
  8
COPY_PUBLISH
100
AcDbLine
 62
7
  6
CONTINUOUS
 10
-75.7831233195
 20
23.5693843257
 11
-75.7846977152
 21
23.5366552816
  0
LWPOLYLINE
  5
4E3
100
AcDbEntity
  8
RACCORDO
100
AcDbPolyline
 62
253
  6
CONTINUOUS
 90
3
 70
0
 10
-75.1787519036
 20
22.3492171387
 10
-75.1120841891
 20
23.7667228944
 10
-75.0986069111
 20
24.0433062867
  0
LINE
  5
4E4
100
AcDbEntity
  8
RACCORDO
100
AcDbLine
 62
253
  6
CONTINUOUS
 10
-73.7082964628
 20
25.0774223385
 11
-73.673594113
 21
25.766743744
  0
LINE
  5
4E5
100
AcDbEntity
  8
RACCORDO
100
AcDbLine
 62
253
  6
CONTINUOUS
 10
-73.4354109937
 20
25.0929346336
 11
-73.4007700812
 21
25.7820786407
  0
LINE
  5
4E6
100
AcDbEntity
  8
RACCORDO
100
AcDbLine
 62
253
  6
CONTINUOUS
 10
-73.673594113
 20
25.766743744
 11
-73.6364829352
 21
26.4559712315
  0
LINE
  5
4E7
100
AcDbEntity
  8
RACCORDO
100
AcDbLine
 62
253
  6
CONTINUOUS
 10
-73.4007700812
 20
25.7820786407
 11
-73.3637244324
 21
26.4711272879
  0
LWPOLYLINE
  5
4E8
100
AcDbEntity
  8
RACCORDO
100
AcDbPolyline
 62
253
  6
CONTINUOUS
 90
10
 70
0
 10
-75.0986069111
 20
24.0433062867
 10
-74.9662850397
 20
26.434420584
 10
-74.8037657112
 20
28.8236660478
 10
-74.6110749536
 20
31.2106600336
 10
-74.3882436261
 20
33.5950202573
 10
-74.1353074166
 20
35.9763648567
 10
-73.8523068351
 20
38.3543124527
 10
-73.5392872056
 20
40.72848221
 10
-73.1962986585
 20
43.0984938983
 10
-72.8233961244
 20
45.4639679536
  0
LINE
  5
4E9
100
AcDbEntity
  8
RACCORDO
100
AcDbLine
 62
253
  6
CONTINUOUS
 10
-72.4837173555
 20
41.9903130757
 11
-72.4685277667
 21
42.2648536659
  0
LINE
  5
4EA
100
AcDbEntity
  8
RACCORDO
100
AcDbLine
 62
253
  6
CONTINUOUS
 10
-73.6364829352
 20
26.4559712315
 11
-73.5969630654
 21
27.1450926427
  0
LINE
  5
4EB
100
AcDbEntity
  8
RACCORDO
100
AcDbLine
 62
253
  6
CONTINUOUS
 10
-73.3637244324
 20
26.4711272879
 11
-73.324274043
 21
27.1600698465
  0
LINE
  5
4EC
100
AcDbEntity
  8
RACCORDO
100
AcDbLine
 62
253
  6
CONTINUOUS
 10
-73.3242740421
 20
27.1600698471
 11
-73.2703285707
 21
28.0485780308
  0
LINE
  5
4ED
100
AcDbEntity
  8
RACCORDO
100
AcDbLine
 62
253
  6
CONTINUOUS
 10
-73.5969630654
 20
27.1450926427
 11
-73.5429207523
 21
28.0306338085
  0
LINE
  5
4EE
100
AcDbEntity
  8
RACCORDO
100
AcDbLine
 62
253
  6
CONTINUOUS
 10
-72.5076068082
 20
41.5939582941
 11
-72.4837173555
 21
41.9903130757
  0
LINE
  5
4EF
100
AcDbEntity
  8
RACCORDO
100
AcDbLine
 62
253
  6
CONTINUOUS
 10
-72.2454064669
 20
41.6633582569
 11
-72.2213207612
 21
42.059749458
  0
LINE
  5
4F0
100
AcDbEntity
  8
RACCORDO
100
AcDbLine
 62
253
  6
CONTINUOUS
 10
-73.2703285707
 20
28.0485780308
 11
-73.213048036
 21
28.9360255177
  0
LINE
  5
4F1
100
AcDbEntity
  8
RACCORDO
100
AcDbLine
 62
253
  6
CONTINUOUS
 10
-73.5429207523
 20
28.0306338085
 11
-73.4855412112
 21
28.9150615872
  0
LINE
  5
4F2
100
AcDbEntity
  8
RACCORDO
100
AcDbLine
 62
253
  6
CONTINUOUS
 10
-72.2783246751
 20
41.1608092641
 11
-72.2454064669
 21
41.6633582569
  0
LINE
  5
4F3
100
AcDbEntity
  8
RACCORDO
100
AcDbLine
 62
253
  6
CONTINUOUS
 10
-72.5404360954
 20
41.0930618362
 11
-72.5076068082
 21
41.5939582941
  0
LINE
  5
4F4
100
AcDbEntity
  8
RACCORDO
100
AcDbLine
 62
253
  6
CONTINUOUS
 10
-73.213048036
 20
28.9360255177
 11
-73.1524592923
 21
29.8222073065
  0
LINE
  5
4F5
100
AcDbEntity
  8
RACCORDO
100
AcDbLine
 62
253
  6
CONTINUOUS
 10
-73.4855412112
 20
28.9150615872
 11
-73.4248434887
 21
29.7982761185
  0
LINE
  5
4F6
100
AcDbEntity
  8
RACCORDO
100
AcDbLine
 62
253
  6
CONTINUOUS
 10
-72.3345843365
 20
40.3626807612
 11
-72.2783246751
 21
41.1608092641
  0
LINE
  5
4F7
100
AcDbEntity
  8
RACCORDO
100
AcDbLine
 62
253
  6
CONTINUOUS
 10
-72.5900021728
 20
40.3923247485
 11
-72.5404360954
 21
41.0930618362
  0
LINE
  5
4F8
100
AcDbEntity
  8
RACCORDO
100
AcDbLine
 62
253
  6
CONTINUOUS
 10
-73.1524592923
 20
29.8222073065
 11
-73.0885957444
 21
30.7068676909
  0
LINE
  5
4F9
100
AcDbEntity
  8
RACCORDO
100
AcDbLine
 62
253
  6
CONTINUOUS
 10
-73.4248434887
 20
29.7982761185
 11
-73.3608681691
 21
30.6799340408
  0
LINE
  5
4FA
100
AcDbEntity
  8
RACCORDO
100
AcDbLine
 62
253
  6
CONTINUOUS
 10
-73.0885957444
 20
30.7068676909
 11
-72.946513618
 21
32.5802082884
  0
LINE
  5
4FB
100
AcDbEntity
  8
RACCORDO
100
AcDbLine
 62
253
  6
CONTINUOUS
 10
-72.4289478534
 20
39.1112215364
 11
-72.3345843365
 21
40.3626807612
  0
LINE
  5
4FC
100
AcDbEntity
  8
RACCORDO
100
AcDbLine
 62
253
  6
CONTINUOUS
 10
-73.3608681691
 20
30.6799340408
 11
-73.2592903961
 21
32.0068612846
  0
LINE
  5
4FD
100
AcDbEntity
  8
RACCORDO
100
AcDbLine
 62
253
  6
CONTINUOUS
 10
-72.6691749694
 20
39.3455792513
 11
-72.5900021728
 21
40.3923247485
  0
LINE
  5
4FE
100
AcDbEntity
  8
RACCORDO
100
AcDbLine
 62
253
  6
CONTINUOUS
 10
-72.946513618
 20
32.5802082884
 11
-72.7996967151
 21
34.4558062681
  0
LINE
  5
4FF
100
AcDbEntity
  8
RACCORDO
100
AcDbLine
 62
253
  6
CONTINUOUS
 10
-73.2592903961
 20
32.0068612846
 11
-73.1341930567
 21
33.5928505035
  0
LINE
  5
500
100
AcDbEntity
  8
RACCORDO
100
AcDbLine
 62
253
  6
CONTINUOUS
 10
-72.7996967151
 20
34.4558062681
 11
-72.4289478534
 21
39.1112215364
  0
LINE
  5
501
100
AcDbEntity
  8
RACCORDO
100
AcDbLine
 62
253
  6
CONTINUOUS
 10
-73.1341930567
 20
33.5928505035
 11
-72.6691749694
 21
39.3455792513
  0
LWPOLYLINE
  5
502
100
AcDbEntity
  8
RACCORDO
100
AcDbPolyline
 62
253
  6
CONTINUOUS
 90
16
 70
0
 10
-68.4948145909
 20
3.0579758559
 10
-68.4894580234
 20
3.059983025
 10
-68.4845209491
 20
3.0640303681
 10
-68.4800550348
 20
3.0700755366
 10
-68.4761070181
 20
3.0780552727
 10
-68.4727182152
 20
3.0878860761
 10
-68.4699240899
 20
3.0994650806
 10
-68.4677538845
 20
3.1126711286
 10
-68.4662303146
 20
3.1273660203
 10
-68.4653693284
 20
3.1433959613
 10
-68.4651799367
 20
3.1605931992
 10
-68.4656641226
 20
3.1787777662
 10
-68.4668168183
 20
3.1977593413
 10
-68.4686259591
 20
3.2173392738
 10
-68.4710726112
 20
3.237312665
 10
-68.4741311695
 20
3.257470493
  0
LINE
  5
503
100
AcDbEntity
  8
RACCORDO
100
AcDbLine
 62
253
  6
CONTINUOUS
 10
-68.6600848513
 20
-0.4711663582
 11
-72.0562335615
 21
-0.4711663582
  0
LINE
  5
504
100
AcDbEntity
  8
RACCORDO
100
AcDbLine
 62
253
  6
CONTINUOUS
 10
-75.6682646546
 20
-0.4711663582
 11
-75.669281737
 21
-0.4711663582
  0
LINE
  5
505
100
AcDbEntity
  8
RACCORDO
100
AcDbLine
 62
7
  6
CONTINUOUS
 10
-66.8253552158
 20
-4.2946786953
 11
-68.4948144869
 21
-4.0003079826
  0
LINE
  5
506
100
AcDbEntity
  8
RACCORDO
100
AcDbLine
 62
253
  6
CONTINUOUS
 10
-70.660663575
 20
-35.0395287971
 11
-70.3007465934
 21
-39.3853394106
  0
LINE
  5
507
100
AcDbEntity
  8
RACCORDO
100
AcDbLine
 62
253
  6
CONTINUOUS
 10
-70.5425875741
 20
-34.9950329085
 11
-70.1974415417
 21
-39.173784388
  0
LINE
  5
508
100
AcDbEntity
  8
RACCORDO
100
AcDbLine
 62
253
  6
CONTINUOUS
 10
-70.3007465934
 20
-39.3853394106
 11
-70.2047244213
 21
-40.577168036
  0
LINE
  5
509
100
AcDbEntity
  8
RACCORDO
100
AcDbLine
 62
253
  6
CONTINUOUS
 10
-70.1974415417
 20
-39.173784388
 11
-70.0909314771
 21
-40.4990730474
  0
LINE
  5
50A
100
AcDbEntity
  8
DRAFT
100
AcDbLine
 62
7
  6
CONTINUOUS
 10
-71.0838178318
 20
-32.1223144255
 11
-70.3810613594
 21
-40.6688379283
  0
LINE
  5
50B
100
AcDbEntity
  8
RACCORDO
100
AcDbLine
 62
253
  6
CONTINUOUS
 10
-70.899144196
 20
-32.0489728887
 11
-70.660663575
 21
-35.0395287971
  0
LINE
  5
50C
100
AcDbEntity
  8
RACCORDO
100
AcDbLine
 62
253
  6
CONTINUOUS
 10
-70.779230069
 20
-32.0224087415
 11
-70.5425875741
 21
-34.9950329085
  0
LINE
  5
50D
100
AcDbEntity
  8
DRAFT
100
AcDbLine
 62
7
  6
CONTINUOUS
 10
-70.3810613594
 20
-40.6688379283
 11
-70.3039041614
 21
-41.6507879099
  0
LINE
  5
50E
100
AcDbEntity
  8
RACCORDO
100
AcDbLine
 62
253
  6
CONTINUOUS
 10
-70.2047244213
 20
-40.577168036
 11
-70.143604666
 21
-41.3704578067
  0
LINE
  5
50F
100
AcDbEntity
  8
RACCORDO
100
AcDbLine
 62
253
  6
CONTINUOUS
 10
-70.0909314771
 20
-40.4990730474
 11
-70.0304568768
 21
-41.2879255793
  0
LINE
  5
510
100
AcDbEntity
  8
DRAFT
100
AcDbLine
 62
7
  6
CONTINUOUS
 10
-71.1509944611
 20
-31.2358243747
 11
-71.0838178318
 21
-32.1223144255
  0
LINE
  5
511
100
AcDbEntity
  8
RACCORDO
100
AcDbLine
 62
253
  6
CONTINUOUS
 10
-70.9656367313
 20
-31.1680832284
 11
-70.8991441951
 21
-32.0489728886
  0
LINE
  5
512
100
AcDbEntity
  8
RACCORDO
100
AcDbLine
 62
253
  6
CONTINUOUS
 10
-70.8455000693
 20
-31.1434683656
 11
-70.7792300641
 21
-32.0224087393
  0
LINE
  5
513
100
AcDbEntity
  8
0
100
AcDbLine
 62
7
  6
CONTINUOUS
 10
-70.5091518284
 20
-31.4186573203
 11
-69.8502784342
 21
-39.9283624861
  0
LINE
  5
514
100
AcDbEntity
  8
DRAFT
100
AcDbLine
 62
7
  6
CONTINUOUS
 10
-70.3039041614
 20
-41.6507879099
 11
-70.2514431977
 21
-42.3590222564
  0
LINE
  5
515
100
AcDbEntity
  8
DRAFT
100
AcDbLine
 62
7
  6
CONTINUOUS
 10
-71.2148006024
 20
-30.3478539684
 11
-71.1509944611
 21
-31.2358243747
  0
LINE
  5
516
100
AcDbEntity
  8
RACCORDO
100
AcDbLine
 62
253
  6
CONTINUOUS
 10
-71.0288155316
 20
-30.2855441942
 11
-70.9656367313
 21
-31.1680832284
  0
LINE
  5
517
100
AcDbEntity
  8
RACCORDO
100
AcDbLine
 62
253
  6
CONTINUOUS
 10
-70.143604666
 20
-41.3704578067
 11
-70.0899355368
 21
-42.109521995
  0
LINE
  5
518
100
AcDbEntity
  8
RACCORDO
100
AcDbLine
 62
253
  6
CONTINUOUS
 10
-70.9084718179
 20
-30.2628584687
 11
-70.8455000693
 21
-31.1434683656
  0
LINE
  5
519
100
AcDbEntity
  8
RACCORDO
100
AcDbLine
 62
253
  6
CONTINUOUS
 10
-70.0304568768
 20
-41.2879255793
 11
-69.9774176356
 21
-42.0224915621
  0
LINE
  5
51A
100
AcDbEntity
  8
0
100
AcDbLine
 62
7
  6
CONTINUOUS
 10
-70.6010165745
 20
-30.1309775364
 11
-70.5091518284
 21
-31.4186573203
  0
LINE
  5
51B
100
AcDbEntity
  8
0
100
AcDbLine
 62
7
  6
CONTINUOUS
 10
-69.8502784342
 20
-39.9283624861
 11
-69.7940524133
 21
-40.7162039065
  0
LINE
  5
51C
100
AcDbEntity
  8
DRAFT
100
AcDbLine
 62
7
  6
CONTINUOUS
 10
-70.2514431977
 20
-42.3590222564
 11
-70.2199464603
 21
-42.8130963015
  0
LINE
  5
51D
100
AcDbEntity
  8
DRAFT
100
AcDbLine
 62
7
  6
CONTINUOUS
 10
-71.2752140665
 20
-29.4584856227
 11
-71.2148006024
 21
-30.3478539684
  0
LINE
  5
51E
100
AcDbEntity
  8
RACCORDO
100
AcDbLine
 62
253
  6
CONTINUOUS
 10
-71.0886458013
 20
-29.4015881011
 11
-71.0288155316
 21
-30.2855441942
  0
LINE
  5
51F
100
AcDbEntity
  8
RACCORDO
100
AcDbLine
 62
253
  6
CONTINUOUS
 10
-70.9681146559
 20
-29.3807532208
 11
-70.9084718179
 21
-30.2628584687
  0
LINE
  5
520
100
AcDbEntity
  8
RACCORDO
100
AcDbLine
 62
253
  6
CONTINUOUS
 10
-70.0899355368
 20
-42.109521995
 11
-70.0576002753
 21
-42.5884603225
  0
LINE
  5
521
100
AcDbEntity
  8
RACCORDO
100
AcDbLine
 62
253
  6
CONTINUOUS
 10
-69.9774176356
 20
-42.0224915621
 11
-69.945485646
 21
-42.4985301507
  0
LINE
  5
522
100
AcDbEntity
  8
0
100
AcDbLine
 62
7
  6
CONTINUOUS
 10
-69.7940524133
 20
-40.7162039065
 11
-69.7529919182
 21
-41.3298307195
  0
LINE
  5
523
100
AcDbEntity
  8
0
100
AcDbLine
 62
7
  6
CONTINUOUS
 10
-70.6858120726
 20
-28.840317394
 11
-70.6010165745
 21
-30.1309775364
  0
LINE
  5
524
100
AcDbEntity
  8
DRAFT
100
AcDbLine
 62
7
  6
CONTINUOUS
 10
-71.3322008483
 20
-28.567992791
 11
-71.2752140665
 21
-29.4584856227
  0
LINE
  5
525
100
AcDbEntity
  8
RACCORDO
100
AcDbLine
 62
253
  6
CONTINUOUS
 10
-71.1450879598
 20
-28.5165850273
 11
-71.0886458013
 21
-29.4015881011
  0
LINE
  5
526
100
AcDbEntity
  8
RACCORDO
100
AcDbLine
 62
253
  6
CONTINUOUS
 10
-71.0243798511
 20
-28.4976521228
 11
-70.9681146559
 21
-29.3807532208
  0
LINE
  5
527
100
AcDbEntity
  8
DRAFT
100
AcDbLine
 62
7
  6
CONTINUOUS
 10
-70.2199464603
 20
-42.8130963015
 11
-70.1891787905
 21
-43.2924607005
  0
LINE
  5
528
100
AcDbEntity
  8
RACCORDO
100
AcDbLine
 62
253
  6
CONTINUOUS
 10
-70.0576002753
 20
-42.5884603225
 11
-70.0366000413
 21
-42.9224964023
  0
LINE
  5
529
100
AcDbEntity
  8
RACCORDO
100
AcDbLine
 62
253
  6
CONTINUOUS
 10
-69.945485646
 20
-42.4985301507
 11
-69.92474983
 21
-42.8307622902
  0
LINE
  5
52A
100
AcDbEntity
  8
0
100
AcDbLine
 62
7
  6
CONTINUOUS
 10
-69.7529919182
 20
-41.3298307195
 11
-69.7275114411
 21
-41.7384028982
  0
LINE
  5
52B
100
AcDbEntity
  8
0
100
AcDbLine
 62
7
  6
CONTINUOUS
 10
-70.7616988313
 20
-27.578227216
 11
-70.6858120726
 21
-28.840317394
  0
LINE
  5
52C
100
AcDbEntity
  8
DRAFT
100
AcDbLine
 62
7
  6
CONTINUOUS
 10
-71.4013594886
 20
-27.4014850614
 11
-71.3322008483
 21
-28.567992791
  0
LINE
  5
52D
100
AcDbEntity
  8
DRAFT
100
AcDbLine
 62
7
  6
CONTINUOUS
 10
-70.1891787905
 20
-43.2924607005
 11
-70.1696565397
 21
-43.6260513964
  0
LINE
  5
52E
100
AcDbEntity
  8
RACCORDO
100
AcDbLine
 62
253
  6
CONTINUOUS
 10
-71.2134010323
 20
-27.3608071758
 11
-71.1450879598
 21
-28.5165850273
  0
LINE
  5
52F
100
AcDbEntity
  8
RACCORDO
100
AcDbLine
 62
253
  6
CONTINUOUS
 10
-71.0925033344
 20
-27.34399958
 11
-71.0243798511
 21
-28.4976521228
  0
LINE
  5
530
100
AcDbEntity
  8
RACCORDO
100
AcDbLine
 62
253
  6
CONTINUOUS
 10
-70.0366000413
 20
-42.9224964023
 11
-70.0165838403
 21
-43.2678880451
  0
LINE
  5
531
100
AcDbEntity
  8
0
100
AcDbLine
 62
7
  6
CONTINUOUS
 10
-69.7275114411
 20
-41.7384028982
 11
-69.7080739924
 21
-42.0736770756
  0
LINE
  5
532
100
AcDbEntity
  8
RACCORDO
100
AcDbLine
 62
253
  6
CONTINUOUS
 10
-69.92474983
 20
-42.8307622902
 11
-69.905020333
 21
-43.1739723532
  0
LINE
  5
533
100
AcDbEntity
  8
0
100
AcDbLine
 62
7
  6
CONTINUOUS
 10
-70.8202441298
 20
-26.5036192434
 11
-70.7616988313
 21
-27.578227216
  0
LINE
  5
534
100
AcDbEntity
  8
RACCORDO
100
AcDbLine
 62
7
  6
CONTINUOUS
 10
-75.1842243767
 20
22.4970084187
 11
-75.1832584031
 21
22.478685257
  0
LINE
  5
535
100
AcDbEntity
  8
RACCORDO
100
AcDbLine
 62
253
  6
CONTINUOUS
 10
-72.1962074847
 20
-43.4595854005
 11
-72.2185231556
 21
-43.050343801
  0
LINE
  5
536
100
AcDbEntity
  8
DRAFT
100
AcDbLine
 62
7
  6
CONTINUOUS
 10
-71.4592860257
 20
-26.3200295661
 11
-71.4013594886
 21
-27.4014850614
  0
LINE
  5
537
100
AcDbEntity
  8
RACCORDO
100
AcDbLine
 62
253
  6
CONTINUOUS
 10
-71.2705387084
 20
-26.2915354524
 11
-71.2134010323
 21
-27.3608071758
  0
LINE
  5
538
100
AcDbEntity
  8
RACCORDO
100
AcDbLine
 62
253
  6
CONTINUOUS
 10
-71.1494980265
 20
-26.2764234183
 11
-71.0925033344
 21
-27.34399958
  0
LINE
  5
539
100
AcDbEntity
  8
0
100
AcDbLine
 62
7
  6
CONTINUOUS
 10
-69.7080739924
 20
-42.0736770756
 11
-69.6892795895
 21
-42.429666724
  0
LWPOLYLINE
  5
53A
100
AcDbEntity
  8
DRAFT
100
AcDbPolyline
 62
7
  6
CONTINUOUS
 90
16
 70
0
 10
-70.1696565397
 20
-43.6260513964
 10
-70.1518922104
 20
-43.9684991412
 10
-70.1437621413
 20
-44.1428037361
 10
-70.1366310554
 20
-44.3164605042
 10
-70.1304766669
 20
-44.4901457922
 10
-70.1253221071
 20
-44.6631832933
 10
-70.1217360699
 20
-44.831033685
 10
-70.1197808774
 20
-44.9935062984
 10
-70.1194208363
 20
-45.150795956
 10
-70.1210999261
 20
-45.2989450916
 10
-70.124908216
 20
-45.4376373871
 10
-70.1307973764
 20
-45.567195873
 10
-70.1390184543
 20
-45.684624347
 10
-70.1496722135
 20
-45.7889268533
 10
-70.1627019126
 20
-45.8811065469
 10
-70.1781252533
 20
-45.9611663663
  0
LWPOLYLINE
  5
53B
100
AcDbEntity
  8
RACCORDO
100
AcDbPolyline
 62
253
  6
CONTINUOUS
 90
17
 70
0
 10
-70.0165838403
 20
-43.2678880451
 10
-69.9984013734
 20
-43.6205508295
 10
-69.9903132246
 20
-43.7981697038
 10
-69.9831133207
 20
-43.9751127945
 10
-69.9769968555
 20
-44.1494283474
 10
-69.9721089045
 20
-44.3204701163
 10
-69.9686151875
 20
-44.4871034999
 10
-69.9666876439
 20
-44.6469987104
 10
-69.966453814
 20
-44.8013731587
 10
-69.9680754415
 20
-44.9474801228
 10
-69.9714790001
 20
-45.0787727057
 10
-69.9763633603
 20
-45.1927610148
 10
-69.9826698157
 20
-45.2941046281
 10
-69.9906313909
 20
-45.3872993821
 10
-70.0004559795
 20
-45.4730689349
 10
-70.0121100453
 20
-45.5496522374
 10
-70.0256595153
 20
-45.6166534415
  0
LWPOLYLINE
  5
53C
100
AcDbEntity
  8
RACCORDO
100
AcDbPolyline
 62
253
  6
CONTINUOUS
 90
17
 70
0
 10
-69.905020333
 20
-43.1739723532
 10
-69.8871257269
 20
-43.5243571868
 10
-69.8791953083
 20
-43.7003732458
 10
-69.8721076855
 20
-43.8767180566
 10
-69.8661177098
 20
-44.0500262742
 10
-69.8613544944
 20
-44.2197038308
 10
-69.8579689026
 20
-44.3854697064
 10
-69.8561353248
 20
-44.5445696576
 10
-69.8559873478
 20
-44.6974943298
 10
-69.8576768887
 20
-44.8424417726
 10
-69.8611427435
 20
-44.973723038
 10
-69.8660896811
 20
-45.0875721632
 10
-69.8724090948
 20
-45.1879397101
 10
-69.880365312
 20
-45.2803771222
 10
-69.8902144957
 20
-45.3658864465
 10
-69.901865853
 20
-45.4420371528
 10
-69.9153386707
 20
-45.5083618537
  0
LINE
  5
53D
100
AcDbEntity
  8
RACCORDO
100
AcDbLine
 62
253
  6
CONTINUOUS
 10
-72.4526464517
 20
-43.52568005
 11
-72.4663537292
 21
-43.2485471308
  0
LINE
  5
53E
100
AcDbEntity
  8
0
100
AcDbLine
 62
7
  6
CONTINUOUS
 10
-70.8719724558
 20
-25.4478076865
 11
-70.8202441298
 21
-26.5036192434
  0
LINE
  5
53F
100
AcDbEntity
  8
RACCORDO
100
AcDbLine
 62
7
  6
CONTINUOUS
 10
-75.183375755
 20
22.4810396225
 11
-75.1824410196
 21
22.4613097835
  0
LINE
  5
540
100
AcDbEntity
  8
RACCORDO
100
AcDbLine
 62
253
  6
CONTINUOUS
 10
-72.1826013158
 20
-43.7409932146
 11
-72.1962074847
 21
-43.4595854005
  0
LINE
  5
541
100
AcDbEntity
  8
DRAFT
100
AcDbLine
 62
7
  6
CONTINUOUS
 10
-71.5112081965
 20
-25.2383675445
 11
-71.4592860257
 21
-26.3200295661
  0
LINE
  5
542
100
AcDbEntity
  8
RACCORDO
100
AcDbLine
 62
253
  6
CONTINUOUS
 10
-71.321782875
 20
-25.222454629
 11
-71.2705387084
 21
-26.2915354524
  0
LINE
  5
543
100
AcDbEntity
  8
RACCORDO
100
AcDbLine
 62
253
  6
CONTINUOUS
 10
-71.2006168783
 20
-25.2089978083
 11
-71.1494980265
 21
-26.2764234183
  0
LINE
  5
544
100
AcDbEntity
  8
0
100
AcDbLine
 62
7
  6
CONTINUOUS
 10
-69.6892795895
 20
-42.429666724
 11
-69.6781310702
 21
-42.6655992918
  0
LINE
  5
545
100
AcDbEntity
  8
0
100
AcDbLine
 62
7
  6
CONTINUOUS
 10
-70.902823411
 20
-24.7543890007
 11
-70.8719724558
 21
-25.4478076865
  0
LINE
  5
546
100
AcDbEntity
  8
RACCORDO
100
AcDbLine
 62
253
  6
CONTINUOUS
 10
-73.4518294167
 20
-25.6906679226
 11
-73.4889213244
 21
-24.8610196974
  0
LINE
  5
547
100
AcDbEntity
  8
RACCORDO
100
AcDbLine
 62
7
  6
CONTINUOUS
 10
-75.182557703
 20
22.4639199933
 11
-75.1816598736
 21
22.4427606249
  0
LWPOLYLINE
  5
548
100
AcDbEntity
  8
RACCORDO
100
AcDbPolyline
 62
253
  6
CONTINUOUS
 90
21
 70
0
 10
-73.4889213244
 20
-24.8610196974
 10
-73.5591230996
 20
-23.1704770566
 10
-73.6308652459
 20
-21.3022312786
 10
-73.7023819052
 20
-19.2561332227
 10
-73.7728784317
 20
-16.9924728923
 10
-73.8387579786
 20
-14.5507871287
 10
-73.8953321148
 20
-12.0499531069
 10
-73.9414965236
 20
-9.5107954612
 10
-73.9769540829
 20
-6.9126977427
 10
-74.0005210629
 20
-4.3125811212
 10
-74.0121390336
 20
-1.7276944673
 10
-74.0119716541
 20
0.8588055858
 10
-74.0000368898
 20
3.4410828931
 10
-73.9762098856
 20
6.035544408
 10
-73.9405863558
 20
8.6253815322
 10
-73.894362945
 20
11.1549895915
 10
-73.8378701071
 20
13.6441554952
 10
-73.7722146805
 20
16.0728910646
 10
-73.7019732818
 20
18.3261284253
 10
-73.6306562071
 20
20.365596961
 10
-73.5590598851
 20
22.2297346102
  0
LWPOLYLINE
  5
549
100
AcDbEntity
  8
0
100
AcDbPolyline
 62
7
  6
CONTINUOUS
 90
3
 70
0
 10
-69.6781310702
 20
-42.6655992918
 10
-69.6684664195
 20
-42.8953680296
 10
-69.6642792372
 20
-43.006882938
  0
LWPOLYLINE
  5
54A
100
AcDbEntity
  8
RACCORDO
100
AcDbPolyline
 62
253
  6
CONTINUOUS
 90
3
 70
0
 10
-75.1809003515
 20
22.5039591587
 10
-75.1794524961
 20
22.466095068
 10
-75.1782109595
 20
22.4260122056
  0
LINE
  5
54B
100
AcDbEntity
  8
RACCORDO
100
AcDbLine
 62
7
  6
CONTINUOUS
 10
-75.1817748664
 20
22.4456368903
 11
-75.18034401
 21
22.405925552
  0
LINE
  5
54C
100
AcDbEntity
  8
RACCORDO
100
AcDbLine
 62
7
  6
CONTINUOUS
 10
-75.1809236024
 20
22.4231509783
 11
-75.1795985822
 21
22.3808102347
  0
LINE
  5
54D
100
AcDbEntity
  8
RACCORDO
100
AcDbLine
 62
253
  6
CONTINUOUS
 10
-75.1782109595
 20
22.4260122056
 11
-75.1771760167
 21
22.3837105473
  0
LINE
  5
54E
100
AcDbEntity
  8
RACCORDO
100
AcDbLine
 62
7
  6
CONTINUOUS
 10
-75.1797021654
 20
22.3845254592
 11
-75.1786783825
 21
22.3432706827
  0
LWPOLYLINE
  5
54F
100
AcDbEntity
  8
0
100
AcDbPolyline
 62
7
  6
CONTINUOUS
 90
10
 70
0
 10
-71.4258583322
 20
-0.4711663582
 10
-71.4193874013
 20
-3.1723759386
 10
-71.399979889
 20
-5.8734464618
 10
-71.3676442751
 20
-8.573958303
 10
-71.3223900348
 20
-11.2735631785
 10
-71.2642283967
 20
-13.9721734094
 10
-71.1931708039
 20
-16.6697602799
 10
-71.1092315667
 20
-19.366236126
 10
-71.0124384358
 20
-22.0612523802
 10
-70.9028233573
 20
-24.754388998
  0
LWPOLYLINE
  5
550
100
AcDbEntity
  8
RACCORDO
100
AcDbPolyline
 62
253
  6
CONTINUOUS
 90
22
 70
0
 10
-71.8662222092
 20
-0.4711663582
 10
-71.865359041
 20
-1.457061791
 10
-71.8626531498
 20
-2.475830955
 10
-71.8579265409
 20
-3.5274557014
 10
-71.8510088282
 20
-4.6101088073
 10
-71.8417045086
 20
-5.7255691391
 10
-71.8297571912
 20
-6.8792204784
 10
-71.8148909183
 20
-8.0740799717
 10
-71.7968914006
 20
-9.3070490276
 10
-71.7755760381
 20
-10.5743406009
 10
-71.7503401989
 20
-11.8943417818
 10
-71.7212319157
 20
-13.2485941092
 10
-71.6894855355
 20
-14.5780803052
 10
-71.6556910926
 20
-15.8676371352
 10
-71.6196737578
 20
-17.1324291535
 10
-71.5820288731
 20
-18.3589667098
 10
-71.5431319418
 20
-19.5435530969
 10
-71.5031155639
 20
-20.6898759126
 10
-71.4623047883
 20
-21.7955267755
 10
-71.4209707076
 20
-22.8597108278
 10
-71.3793142
 20
-23.8832440755
 10
-71.321782875
 20
-25.222454629
  0
LWPOLYLINE
  5
551
100
AcDbEntity
  8
RACCORDO
100
AcDbPolyline
 62
253
  6
CONTINUOUS
 90
22
 70
0
 10
-71.7445545217
 20
-0.4711663582
 10
-71.7436911982
 20
-1.4565970194
 10
-71.7409876881
 20
-2.4748474766
 10
-71.7362656757
 20
-3.5259162642
 10
-71.7293540208
 20
-4.608028741
 10
-71.7200569959
 20
-5.7229583327
 10
-71.7081191281
 20
-6.8760258611
 10
-71.6932653274
 20
-8.0702638912
 10
-71.675280388
 20
-9.3026395153
 10
-71.6539812009
 20
-10.5693475553
 10
-71.6287650094
 20
-11.8886958215
 10
-71.5996809202
 20
-13.2422428326
 10
-71.5679612365
 20
-14.5710553112
 10
-71.5341946503
 20
-15.859969009
 10
-71.4982079968
 20
-17.1240754477
 10
-71.4605970036
 20
-18.3498946808
 10
-71.4217351856
 20
-19.5338053028
 10
-71.3817539678
 20
-20.6795011888
 10
-71.3409795627
 20
-21.7845200584
 10
-71.2996833825
 20
-22.8480637384
 10
-71.258065179
 20
-23.8709961477
 10
-71.2006168783
 20
-25.2089978083
  0
LINE
  5
552
100
AcDbEntity
  8
RACCORDO
100
AcDbLine
 62
253
  6
CONTINUOUS
 10
-75.1771760167
 20
-23.3260432638
 11
-75.1782109599
 21
-23.3683449168
  0
LINE
  5
553
100
AcDbEntity
  8
RACCORDO
100
AcDbLine
 62
7
  6
CONTINUOUS
 10
-75.1786752025
 20
-23.2854576086
 11
-75.1794122293
 21
-23.3162054143
  0
LWPOLYLINE
  5
554
100
AcDbEntity
  8
RACCORDO
100
AcDbPolyline
 62
253
  6
CONTINUOUS
 90
3
 70
0
 10
-75.1782109599
 20
-23.3683449168
 10
-75.1794524968
 20
-23.4084277764
 10
-75.1809003522
 20
-23.4462918666
  0
LINE
  5
555
100
AcDbEntity
  8
RACCORDO
100
AcDbLine
 62
7
  6
CONTINUOUS
 10
-75.1794122293
 20
-23.3162054143
 11
-75.1805955941
 21
-23.3559544827
  0
LWPOLYLINE
  5
556
100
AcDbEntity
  8
RACCORDO
100
AcDbPolyline
 62
253
  6
CONTINUOUS
 90
14
 70
0
 10
-72.1665592656
 20
43.1959571148
 10
-72.1618546948
 20
43.3410997016
 10
-72.1579275525
 20
43.4855669949
 10
-72.1548973586
 20
43.6287730844
 10
-72.1528658922
 20
43.7710258873
 10
-72.152012732
 20
43.9113607115
 10
-72.1525195129
 20
44.048615454
 10
-72.1545535547
 20
44.1824337613
 10
-72.1583326506
 20
44.3113431959
 10
-72.1640857265
 20
44.4341879587
 10
-72.1720936508
 20
44.5505171591
 10
-72.1826806676
 20
44.65882891
 10
-72.1961567155
 20
44.7569097196
 10
-72.2128526619
 20
44.8428261702
  0
LWPOLYLINE
  5
557
100
AcDbEntity
  8
RACCORDO
100
AcDbPolyline
 62
253
  6
CONTINUOUS
 90
14
 70
0
 10
-72.4364934363
 20
42.9744530295
 10
-72.4318100222
 20
43.1169416352
 10
-72.4278663459
 20
43.2590211562
 10
-72.4247022955
 20
43.4005415691
 10
-72.4227203527
 20
43.5400324887
 10
-72.421873404
 20
43.6779086205
 10
-72.4222156407
 20
43.8137563899
 10
-72.424310365
 20
43.9448644092
 10
-72.4280925361
 20
44.0715174599
 10
-72.4336446751
 20
44.1934336258
 10
-72.4417633568
 20
44.307053412
 10
-72.452725911
 20
44.4111922973
 10
-72.4662829323
 20
44.5070395216
 10
-72.4824458938
 20
44.5945970842
  0
LWPOLYLINE
  5
558
100
AcDbEntity
  8
0
100
AcDbPolyline
 62
7
  6
CONTINUOUS
 90
9
 70
0
 10
-71.0124384358
 20
21.1189196636
 10
-71.1092315667
 20
18.4239034093
 10
-71.1931708039
 20
15.7274275632
 10
-71.2642283967
 20
13.0298406927
 10
-71.3223900348
 20
10.3312304619
 10
-71.3676442751
 20
7.6316255865
 10
-71.399979889
 20
4.9311137453
 10
-71.4193874013
 20
2.2300432221
 10
-71.4258583322
 20
-0.4711663582
  0
LWPOLYLINE
  5
559
100
AcDbEntity
  8
DRAFT
100
AcDbPolyline
 62
7
  6
CONTINUOUS
 90
18
 70
0
 10
-71.6381076747
 20
21.2274269878
 10
-71.7360299034
 20
18.5180755652
 10
-71.8209341773
 20
15.8074682684
 10
-71.892814533
 20
13.095429277
 10
-71.9516474538
 20
10.3822946189
 10
-71.9974057978
 20
7.6689125099
 10
-72.0300866616
 20
4.9556451906
 10
-72.0496964144
 20
2.2422917777
 10
-72.0562336156
 20
-0.4711439098
 10
-72.0496966229
 20
-3.1845823396
 10
-72.0300870129
 20
-5.8979418002
 10
-71.9974062317
 20
-8.6112152045
 10
-71.9516479351
 20
-11.3246023724
 10
-71.8928150118
 20
-14.0377421259
 10
-71.8209346057
 20
-16.7497861696
 10
-71.736030235
 20
-19.4603984488
 10
-71.6381078633
 20
-22.16975481
 10
-71.5112081965
 20
-25.2383675445
  0
LWPOLYLINE
  5
55A
100
AcDbEntity
  8
RACCORDO
100
AcDbPolyline
 62
7
  6
CONTINUOUS
 90
4
 70
0
 10
-75.1805955941
 20
-23.3559544827
 10
-75.1819491423
 20
-23.3922200079
 10
-75.1826803027
 20
-23.4089386808
 10
-75.1834422392
 20
-23.4246853473
  0
LWPOLYLINE
  5
55B
100
AcDbEntity
  8
RACCORDO
100
AcDbPolyline
 62
253
  6
CONTINUOUS
 90
21
 70
0
 10
-71.3794187906
 20
22.9383975382
 10
-71.4208820779
 20
21.9196054581
 10
-71.4617653714
 20
20.8674239816
 10
-71.5018159723
 20
19.783683303
 10
-71.5409143748
 20
18.6665445945
 10
-71.5790378791
 20
17.5104955458
 10
-71.6160471194
 20
16.31216413
 10
-71.651578627
 20
15.074927493
 10
-71.6852593957
 20
13.803391497
 10
-71.7172931315
 20
12.4786342531
 10
-71.7469154552
 20
11.1195627884
 10
-71.7727631189
 20
9.787558172
 10
-71.7947646086
 20
8.4992104733
 10
-71.8134462127
 20
7.2379953968
 10
-71.8288551338
 20
6.015665929
 10
-71.8412097339
 20
4.835991649
 10
-71.8508059029
 20
3.6952897202
 10
-71.8578775081
 20
2.5941426028
 10
-71.8626557773
 20
1.5327612765
 10
-71.8653655882
 20
0.5109856427
 10
-71.8662222092
 20
-0.4711663582
  0
LWPOLYLINE
  5
55C
100
AcDbEntity
  8
RACCORDO
100
AcDbPolyline
 62
253
  6
CONTINUOUS
 90
21
 70
0
 10
-71.2581704146
 20
22.9261336215
 10
-71.2995960632
 20
21.9079266562
 10
-71.3404421702
 20
20.8563685863
 10
-71.3804572212
 20
19.7732405543
 10
-71.4195213114
 20
18.6567083589
 10
-71.4576103462
 20
17.5013178518
 10
-71.494586089
 20
16.303691312
 10
-71.5300869655
 20
15.0671340715
 10
-71.5637395363
 20
13.796243172
 10
-71.5957459399
 20
12.4721701021
 10
-71.6253433751
 20
11.1138170426
 10
-71.6511707549
 20
9.7824765961
 10
-71.673155416
 20
8.4947256524
 10
-71.6918218187
 20
7.2341220995
 10
-71.707217787
 20
6.0124334933
 10
-71.7195626302
 20
4.8333576603
 10
-71.7291512767
 20
3.6931978947
 10
-71.7362166779
 20
2.5925995906
 10
-71.7409902901
 20
1.5317789572
 10
-71.7436977199
 20
0.5105228322
 10
-71.7445545217
 20
-0.4711663582
  0
LINE
  5
55D
100
AcDbEntity
  8
RACCORDO
100
AcDbLine
 62
253
  6
CONTINUOUS
 10
-72.1778590685
 20
42.9060357158
 11
-72.1665592656
 21
43.1959571148
  0
LINE
  5
55E
100
AcDbEntity
  8
RACCORDO
100
AcDbLine
 62
253
  6
CONTINUOUS
 10
-72.4479155942
 20
42.6888188771
 11
-72.4364934363
 21
42.9744530295
  0
LINE
  5
55F
100
AcDbEntity
  8
0
100
AcDbLine
 62
7
  6
CONTINUOUS
 10
-69.6681265195
 20
41.961794598
 11
-69.6777302482
 21
41.7322677703
  0
LINE
  5
560
100
AcDbEntity
  8
0
100
AcDbLine
 62
7
  6
CONTINUOUS
 10
-70.887754176
 20
24.1577183711
 11
-71.0124384358
 21
21.1189196636
  0
LINE
  5
561
100
AcDbEntity
  8
RACCORDO
100
AcDbLine
 62
253
  6
CONTINUOUS
 10
-73.5590598851
 20
22.2297346102
 11
-73.4676465666
 21
24.4037181386
  0
LINE
  5
562
100
AcDbEntity
  8
DRAFT
100
AcDbLine
 62
7
  6
CONTINUOUS
 10
-71.511208209
 20
24.2960345523
 11
-71.6381076747
 21
21.2274269878
  0
LINE
  5
563
100
AcDbEntity
  8
RACCORDO
100
AcDbLine
 62
253
  6
CONTINUOUS
 10
-71.3053559022
 20
24.6364584081
 11
-71.3794187906
 21
22.9383975382
  0
LINE
  5
564
100
AcDbEntity
  8
RACCORDO
100
AcDbLine
 62
253
  6
CONTINUOUS
 10
-71.1842303684
 20
24.6224423649
 11
-71.2581704146
 21
22.9261336215
  0
LWPOLYLINE
  5
565
100
AcDbEntity
  8
RACCORDO
100
AcDbPolyline
 62
253
  6
CONTINUOUS
 90
13
 70
0
 10
-75.1809003522
 20
-23.4462918666
 10
-75.1825630085
 20
-23.4821197121
 10
-75.1844311387
 20
-23.5157288318
 10
-75.1864781824
 20
-23.546571745
 10
-75.1887119543
 20
-23.5745256322
 10
-75.1911246015
 20
-23.5997133584
 10
-75.1936670082
 20
-23.6219559724
 10
-75.1963448475
 20
-23.6411303692
 10
-75.1991531165
 20
-23.657359688
 10
-75.2020275746
 20
-23.670834341
 10
-75.2049474303
 20
-23.6816178047
 10
-75.2079348338
 20
-23.6896466209
 10
-75.2109903356
 20
-23.6949207959
  0
LINE
  5
566
100
AcDbEntity
  8
RACCORDO
100
AcDbLine
 62
253
  6
CONTINUOUS
 10
-73.4676465666
 20
24.4037181386
 11
-73.4354109937
 21
25.0929346336
  0
LINE
  5
567
100
AcDbEntity
  8
RACCORDO
100
AcDbLine
 62
253
  6
CONTINUOUS
 10
-72.1911702553
 20
42.6176297763
 11
-72.1778590685
 21
42.9060357158
  0
LINE
  5
568
100
AcDbEntity
  8
0
100
AcDbLine
 62
7
  6
CONTINUOUS
 10
-69.6777302482
 20
41.7322677703
 11
-69.6889001484
 21
41.494977255
  0
LINE
  5
569
100
AcDbEntity
  8
0
100
AcDbLine
 62
7
  6
CONTINUOUS
 10
-70.8382286688
 20
25.2072605208
 11
-70.887754176
 21
24.1577183711
  0
LINE
  5
56A
100
AcDbEntity
  8
RACCORDO
100
AcDbLine
 62
253
  6
CONTINUOUS
 10
-69.8784728617
 20
42.7750321807
 11
-69.8953998366
 21
42.4137081764
  0
LINE
  5
56B
100
AcDbEntity
  8
RACCORDO
100
AcDbLine
 62
253
  6
CONTINUOUS
 10
-69.9895733424
 20
42.8730451729
 11
-70.0068419585
 21
42.5082681472
  0
LINE
  5
56C
100
AcDbEntity
  8
DRAFT
100
AcDbLine
 62
7
  6
CONTINUOUS
 10
-71.4592860492
 20
25.3776963878
 11
-71.511208209
 21
24.2960345523
  0
LINE
  5
56D
100
AcDbEntity
  8
DRAFT
100
AcDbLine
 62
7
  6
CONTINUOUS
 10
-70.144962229
 20
43.1732309019
 11
-70.1622889759
 21
42.8204533148
  0
LWPOLYLINE
  5
56E
100
AcDbEntity
  8
RACCORDO
100
AcDbPolyline
 62
253
  6
CONTINUOUS
 90
3
 70
0
 10
-72.4685277667
 20
42.2648536659
 10
-72.4613129277
 20
42.4049045878
 10
-72.4479155942
 20
42.6888188771
  0
LINE
  5
56F
100
AcDbEntity
  8
RACCORDO
100
AcDbLine
 62
253
  6
CONTINUOUS
 10
-71.1311553961
 20
25.6898915366
 11
-71.1842303684
 21
24.6224423649
  0
LINE
  5
570
100
AcDbEntity
  8
RACCORDO
100
AcDbLine
 62
253
  6
CONTINUOUS
 10
-71.2521478959
 20
25.7056090997
 11
-71.3053559022
 21
24.6364584081
  0
LINE
  5
571
100
AcDbEntity
  8
RACCORDO
100
AcDbLine
 62
253
  6
CONTINUOUS
 10
-72.2058340311
 20
42.3346812939
 11
-72.1911702553
 21
42.6176297763
  0
LWPOLYLINE
  5
572
100
AcDbEntity
  8
RACCORDO
100
AcDbPolyline
 62
7
  6
CONTINUOUS
 90
11
 70
0
 10
-75.1834422392
 20
-23.4246853473
 10
-75.1842304404
 20
-23.4394494572
 10
-75.1850343603
 20
-23.4531330182
 10
-75.1858488604
 20
-23.4657589703
 10
-75.1866655086
 20
-23.4773056506
 10
-75.1874642318
 20
-23.4876128682
 10
-75.1882365161
 20
-23.4967089075
 10
-75.1889689013
 20
-23.5045759037
 10
-75.1896239052
 20
-23.5109905494
 10
-75.1901862984
 20
-23.5160113544
 10
-75.190426849
 20
-23.5180086403
  0
LINE
  5
573
100
AcDbEntity
  8
0
100
AcDbLine
 62
7
  6
CONTINUOUS
 10
-70.7819909241
 20
26.2756051744
 11
-70.8382286688
 21
25.2072605208
  0
LINE
  5
574
100
AcDbEntity
  8
0
100
AcDbLine
 62
7
  6
CONTINUOUS
 10
-69.6889001484
 20
41.494977255
 11
-69.7079406166
 21
41.1337433024
  0
LINE
  5
575
100
AcDbEntity
  8
DRAFT
100
AcDbLine
 62
7
  6
CONTINUOUS
 10
-71.401359493
 20
26.4591522658
 11
-71.4592860492
 21
25.3776963878
  0
LINE
  5
576
100
AcDbEntity
  8
RACCORDO
100
AcDbLine
 62
253
  6
CONTINUOUS
 10
-69.8953998366
 20
42.4137081764
 11
-69.9149604896
 21
42.0545899612
  0
LINE
  5
577
100
AcDbEntity
  8
RACCORDO
100
AcDbLine
 62
253
  6
CONTINUOUS
 10
-70.0068419585
 20
42.5082681472
 11
-70.0266593156
 21
42.1475665724
  0
LINE
  5
578
100
AcDbEntity
  8
RACCORDO
100
AcDbLine
 62
253
  6
CONTINUOUS
 10
-71.1930444225
 20
26.7749319811
 11
-71.2521478959
 21
25.7056090997
  0
LINE
  5
579
100
AcDbEntity
  8
RACCORDO
100
AcDbLine
 62
253
  6
CONTINUOUS
 10
-71.0721973711
 20
26.7575651669
 11
-71.1311553961
 21
25.6898915366
  0
LINE
  5
57A
100
AcDbEntity
  8
RACCORDO
100
AcDbLine
 62
253
  6
CONTINUOUS
 10
-72.2213207612
 20
42.059749458
 11
-72.2058340311
 21
42.3346812939
  0
LINE
  5
57B
100
AcDbEntity
  8
DRAFT
100
AcDbLine
 62
7
  6
CONTINUOUS
 10
-70.1622889759
 20
42.8204533148
 11
-70.18159621
 21
42.4765474712
  0
LINE
  5
57C
100
AcDbEntity
  8
DRAFT
100
AcDbLine
 62
7
  6
CONTINUOUS
 10
-71.3594062561
 20
27.1799821521
 11
-71.401359493
 21
26.4591522658
  0
LINE
  5
57D
100
AcDbEntity
  8
0
100
AcDbLine
 62
7
  6
CONTINUOUS
 10
-70.7124910597
 20
27.467210382
 11
-70.7819909241
 21
26.2756051744
  0
LINE
  5
57E
100
AcDbEntity
  8
RACCORDO
100
AcDbLine
 62
253
  6
CONTINUOUS
 10
-71.1450879599
 20
27.5742523096
 11
-71.1930444225
 21
26.7749319811
  0
LINE
  5
57F
100
AcDbEntity
  8
RACCORDO
100
AcDbLine
 62
253
  6
CONTINUOUS
 10
-71.0243798511
 20
27.5553194062
 11
-71.0721973711
 21
26.7575651669
  0
LINE
  5
580
100
AcDbEntity
  8
0
100
AcDbLine
 62
7
  6
CONTINUOUS
 10
-69.7079406166
 20
41.1337433024
 11
-69.7341501757
 21
40.6868384663
  0
LINE
  5
581
100
AcDbEntity
  8
RACCORDO
100
AcDbLine
 62
253
  6
CONTINUOUS
 10
-69.9149604896
 20
42.0545899612
 11
-69.9359313759
 21
41.706417942
  0
LINE
  5
582
100
AcDbEntity
  8
RACCORDO
100
AcDbLine
 62
253
  6
CONTINUOUS
 10
-70.0266593156
 20
42.1475665724
 11
-70.0479228613
 21
41.7972191857
  0
LINE
  5
583
100
AcDbEntity
  8
DRAFT
100
AcDbLine
 62
7
  6
CONTINUOUS
 10
-70.18159621
 20
42.4765474712
 11
-70.2020932823
 21
42.1428361922
  0
LINE
  5
584
100
AcDbEntity
  8
DRAFT
100
AcDbLine
 62
7
  6
CONTINUOUS
 10
-71.3041360848
 20
28.0710533128
 11
-71.3594062561
 21
27.1799821521
  0
LINE
  5
585
100
AcDbEntity
  8
RACCORDO
100
AcDbLine
 62
253
  6
CONTINUOUS
 10
-70.9681146559
 20
28.4384205042
 11
-71.0243798511
 21
27.5553194062
  0
LINE
  5
586
100
AcDbEntity
  8
RACCORDO
100
AcDbLine
 62
253
  6
CONTINUOUS
 10
-71.0886458013
 20
28.4592553845
 11
-71.1450879599
 21
27.5742523096
  0
LINE
  5
587
100
AcDbEntity
  8
0
100
AcDbLine
 62
7
  6
CONTINUOUS
 10
-70.6300719651
 20
28.7587217402
 11
-70.7124910597
 21
27.467210382
  0
LINE
  5
588
100
AcDbEntity
  8
0
100
AcDbLine
 62
7
  6
CONTINUOUS
 10
-69.7341501757
 20
40.6868384663
 11
-69.7665004189
 21
40.1807742181
  0
LINE
  5
589
100
AcDbEntity
  8
DRAFT
100
AcDbLine
 62
7
  6
CONTINUOUS
 10
-71.2454342503
 20
28.9609872509
 11
-71.3041360848
 21
28.0710533128
  0
LINE
  5
58A
100
AcDbEntity
  8
RACCORDO
100
AcDbLine
 62
253
  6
CONTINUOUS
 10
-69.9359313759
 20
41.706417942
 11
-69.9688251268
 21
41.2049990796
  0
LINE
  5
58B
100
AcDbEntity
  8
RACCORDO
100
AcDbLine
 62
253
  6
CONTINUOUS
 10
-70.0479228613
 20
41.7972191857
 11
-70.0812456977
 21
41.2926569176
  0
LINE
  5
58C
100
AcDbEntity
  8
DRAFT
100
AcDbLine
 62
7
  6
CONTINUOUS
 10
-70.2020932823
 20
42.1428361922
 11
-70.2340507196
 21
41.6635486903
  0
LINE
  5
58D
100
AcDbEntity
  8
RACCORDO
100
AcDbLine
 62
253
  6
CONTINUOUS
 10
-71.0288155442
 20
29.3432112976
 11
-71.0886458013
 21
28.4592553845
  0
LINE
  5
58E
100
AcDbEntity
  8
RACCORDO
100
AcDbLine
 62
253
  6
CONTINUOUS
 10
-70.9084717544
 20
29.3205266648
 11
-70.9681146559
 21
28.4384205042
  0
LINE
  5
58F
100
AcDbEntity
  8
0
100
AcDbLine
 62
7
  6
CONTINUOUS
 10
-69.7665004189
 20
40.1807742181
 11
-69.8177738132
 21
39.4358305134
  0
LINE
  5
590
100
AcDbEntity
  8
DRAFT
100
AcDbLine
 62
7
  6
CONTINUOUS
 10
-71.1833190998
 20
29.8497010548
 11
-71.2454342503
 21
28.9609872509
  0
LINE
  5
591
100
AcDbEntity
  8
0
100
AcDbLine
 62
7
  6
CONTINUOUS
 10
-70.5405531225
 20
30.0474660623
 11
-70.6300719651
 21
28.7587217402
  0
LINE
  5
592
100
AcDbEntity
  8
RACCORDO
100
AcDbLine
 62
253
  6
CONTINUOUS
 10
-70.9656366916
 20
30.2257510517
 11
-71.0288155442
 21
29.3432112976
  0
LINE
  5
593
100
AcDbEntity
  8
RACCORDO
100
AcDbLine
 62
253
  6
CONTINUOUS
 10
-70.84550027
 20
30.2011329159
 11
-70.9084717544
 21
29.3205266648
  0
LINE
  5
594
100
AcDbEntity
  8
RACCORDO
100
AcDbLine
 62
253
  6
CONTINUOUS
 10
-69.9688251268
 20
41.2049990796
 11
-70.013073413
 21
40.5806896924
  0
LINE
  5
595
100
AcDbEntity
  8
RACCORDO
100
AcDbLine
 62
253
  6
CONTINUOUS
 10
-70.0812456977
 20
41.2926569176
 11
-70.1260174547
 21
40.6646879106
  0
LINE
  5
596
100
AcDbEntity
  8
DRAFT
100
AcDbLine
 62
7
  6
CONTINUOUS
 10
-70.2340507196
 20
41.6635486903
 11
-70.2771334011
 21
41.0641213904
  0
LINE
  5
597
100
AcDbEntity
  8
DRAFT
100
AcDbLine
 62
7
  6
CONTINUOUS
 10
-71.11782649
 20
30.7369215087
 11
-71.1833190998
 21
29.8497010548
  0
LINE
  5
598
100
AcDbEntity
  8
0
100
AcDbLine
 62
7
  6
CONTINUOUS
 10
-69.8177738132
 20
39.4358305134
 11
-69.87565845
 21
38.6439929813
  0
LINE
  5
599
100
AcDbEntity
  8
RACCORDO
100
AcDbLine
 62
253
  6
CONTINUOUS
 10
-70.013073413
 20
40.5806896924
 11
-70.0753320774
 21
39.7566426711
  0
LINE
  5
59A
100
AcDbEntity
  8
RACCORDO
100
AcDbLine
 62
253
  6
CONTINUOUS
 10
-70.1260174547
 20
40.6646879106
 11
-70.1889809091
 21
39.8356303276
  0
LINE
  5
59B
100
AcDbEntity
  8
DRAFT
100
AcDbLine
 62
7
  6
CONTINUOUS
 10
-70.2771334011
 20
41.0641213904
 11
-70.3392619797
 21
40.2520375479
  0
LINE
  5
59C
100
AcDbEntity
  8
RACCORDO
100
AcDbLine
 62
253
  6
CONTINUOUS
 10
-70.8278492872
 20
32.0184301032
 11
-70.9656366916
 21
30.2257510517
  0
LINE
  5
59D
100
AcDbEntity
  8
RACCORDO
100
AcDbLine
 62
253
  6
CONTINUOUS
 10
-70.6922471772
 20
32.1920537599
 11
-70.84550027
 21
30.2011329159
  0
LWPOLYLINE
  5
59E
100
AcDbEntity
  8
0
100
AcDbPolyline
 62
7
  6
CONTINUOUS
 90
3
 70
0
 10
-69.87565845
 20
38.6439929813
 10
-70.0533180236
 20
36.346000672
 10
-70.5405531225
 20
30.0474660623
  0
LINE
  5
59F
100
AcDbEntity
  8
DRAFT
100
AcDbLine
 62
7
  6
CONTINUOUS
 10
-70.9177939455
 20
33.2686652134
 11
-71.11782649
 21
30.7369215087
  0
LINE
  5
5A0
100
AcDbEntity
  8
RACCORDO
100
AcDbLine
 62
253
  6
CONTINUOUS
 10
-70.0753320774
 20
39.7566426711
 11
-70.1671047659
 21
38.603964431
  0
LINE
  5
5A1
100
AcDbEntity
  8
RACCORDO
100
AcDbLine
 62
253
  6
CONTINUOUS
 10
-70.1889809091
 20
39.8356303276
 11
-70.2817343121
 21
38.6758105043
  0
LINE
  5
5A2
100
AcDbEntity
  8
DRAFT
100
AcDbLine
 62
7
  6
CONTINUOUS
 10
-70.3392619797
 20
40.2520375479
 11
-70.4270658054
 21
39.1609176997
  0
LINE
  5
5A3
100
AcDbEntity
  8
RACCORDO
100
AcDbLine
 62
253
  6
CONTINUOUS
 10
-70.1671047659
 20
38.603964431
 11
-70.6922471772
 21
32.1920537599
  0
LINE
  5
5A4
100
AcDbEntity
  8
RACCORDO
100
AcDbLine
 62
253
  6
CONTINUOUS
 10
-70.2817343121
 20
38.6758105043
 11
-70.8278492872
 21
32.0184301032
  0
LINE
  5
5A5
100
AcDbEntity
  8
DRAFT
100
AcDbLine
 62
7
  6
CONTINUOUS
 10
-70.4270658054
 20
39.1609176997
 11
-70.9177939455
 21
33.2686652134
  0
LWPOLYLINE
  5
5A6
100
AcDbEntity
  8
RACCORDO
100
AcDbPolyline
 62
253
  6
CONTINUOUS
 90
19
 70
0
 10
-68.474131715
 20
3.2574704558
 10
-68.5062263451
 20
3.2504453741
 10
-68.5371690325
 20
3.2411774936
 10
-68.5669574303
 20
3.2296664091
 10
-68.5957374289
 20
3.2157865125
 10
-68.6233588338
 20
3.199662692
 10
-68.6493746442
 20
3.1816705392
 10
-68.6737469349
 20
3.1617819161
 10
-68.696508541
 20
3.1400249222
 10
-68.7173178274
 20
3.1168599339
 10
-68.7361280215
 20
3.0922783996
 10
-68.7529812229
 20
3.0662894296
 10
-68.7676689576
 20
3.0393802464
 10
-68.7801527242
 20
3.0115718049
 10
-68.7904675878
 20
2.9828441264
 10
-68.7985157138
 20
2.9536232528
 10
-68.8042639062
 20
2.9240516134
 10
-68.807743589
 20
2.8939879543
 10
-68.8089542855
 20
2.863432863
  0
LINE
  5
5A7
100
AcDbEntity
  8
RACCORDO
100
AcDbLine
 62
7
  6
CONTINUOUS
 10
-68.4948144869
 20
3.0579752661
 11
-66.8253552158
 21
3.3523459788
  0
LINE
  5
5A8
100
AcDbEntity
  8
RACCORDO
100
AcDbLine
 62
253
  6
CONTINUOUS
 10
-68.474131715
 20
3.2574704558
 11
-66.8454426328
 21
3.5408821794
  0
LINE
  5
5A9
100
AcDbEntity
  8
RACCORDO
100
AcDbLine
 62
253
  6
CONTINUOUS
 10
-66.845442276
 20
3.5408821511
 11
-66.7631117011
 21
3.5452707739
  0
LINE
  5
5AA
100
AcDbEntity
  8
RACCORDO
100
AcDbLine
 62
253
  6
CONTINUOUS
 10
-66.7631117011
 20
3.5452707739
 11
-66.7181371612
 21
3.5474777836
  0
LINE
  5
5AB
100
AcDbEntity
  8
RACCORDO
100
AcDbLine
 62
253
  6
CONTINUOUS
 10
-66.7181371612
 20
3.5474777836
 11
-66.6964247994
 21
3.5484487377
  0
LINE
  5
5AC
100
AcDbEntity
  8
RACCORDO
100
AcDbLine
 62
253
  6
CONTINUOUS
 10
-66.6964247994
 20
3.5484487377
 11
-66.6845868288
 21
3.5489274984
  0
LWPOLYLINE
  5
5AD
100
AcDbEntity
  8
RACCORDO
100
AcDbPolyline
 62
253
  6
CONTINUOUS
 90
9
 70
0
 10
-66.6845868288
 20
3.5489274984
 10
-66.6749915066
 20
3.5492652862
 10
-66.6710614698
 20
3.5493802818
 10
-66.6677215855
 20
3.5494588692
 10
-66.6649791912
 20
3.549501663
 10
-66.6628407965
 20
3.549507688
 10
-66.6613106752
 20
3.5494768691
 10
-66.6603914767
 20
3.5494100281
 10
-66.6600848514
 20
3.5493075406
  0
LINE
  5
5AE
100
AcDbEntity
  8
RACCORDO
100
AcDbLine
 62
253
  6
CONTINUOUS
 10
-68.8089578554
 20
2.8633189456
 11
-68.7493870505
 21
2.8629996227
  0
LINE
  5
5AF
100
AcDbEntity
  8
RACCORDO
100
AcDbLine
 62
253
  6
CONTINUOUS
 10
-68.7493870505
 20
2.8629996227
 11
-68.7158808987
 21
2.8626659363
  0
LWPOLYLINE
  5
5B0
100
AcDbEntity
  8
RACCORDO
100
AcDbPolyline
 62
253
  6
CONTINUOUS
 90
7
 70
0
 10
-68.7158808987
 20
2.8626659363
 10
-68.6892460488
 20
2.8622535207
 10
-68.6789167712
 20
2.8620238139
 10
-68.6707520786
 20
2.8617820394
 10
-68.6648494959
 20
2.8615310854
 10
-68.6612795421
 20
2.8612739508
 10
-68.6600848513
 20
2.8610137078
  0
LWPOLYLINE
  5
5B1
100
AcDbEntity
  8
RACCORDO
100
AcDbPolyline
 62
253
  6
CONTINUOUS
 90
19
 70
0
 10
-68.8089497506
 20
-3.8058049641
 10
-68.8077550032
 20
-3.836283498
 10
-68.8042848786
 20
-3.8662993125
 10
-68.7985398485
 20
-3.8958518187
 10
-68.7904842138
 20
-3.9250975575
 10
-68.780155441
 20
-3.9538788042
 10
-68.7676641818
 20
-3.981723647
 10
-68.7529833564
 20
-4.0086288109
 10
-68.7361434753
 20
-4.034596605
 10
-68.717341869
 20
-4.0591637149
 10
-68.696530772
 20
-4.0823318491
 10
-68.6737626333
 20
-4.1040987337
 10
-68.6493849605
 20
-4.1239954307
 10
-68.6233676655
 20
-4.1419903636
 10
-68.5957459222
 20
-4.1581151496
 10
-68.5669643528
 20
-4.1719960721
 10
-68.537172362
 20
-4.1835088674
 10
-68.5062248545
 20
-4.1927785185
 10
-68.4741241799
 20
-4.1998054304
  0
LWPOLYLINE
  5
5B2
100
AcDbEntity
  8
0
100
AcDbPolyline
 62
7
  6
CONTINUOUS
 90
21
 70
0
 10
-69.6642792372
 20
-43.006882938
 10
-69.6571887447
 20
-43.2260314022
 10
-69.6543580473
 20
-43.3324522983
 10
-69.6520771809
 20
-43.4357018186
 10
-69.6503498205
 20
-43.5357616473
 10
-69.6491548338
 20
-43.6324391286
 10
-69.6485221801
 20
-43.7252069361
 10
-69.6484628049
 20
-43.8140530356
 10
-69.6489762402
 20
-43.8992344834
 10
-69.6500584697
 20
-43.9807626382
 10
-69.6517042836
 20
-44.0586363552
 10
-69.653918672
 20
-44.1329011947
 10
-69.6567163494
 20
-44.2035758123
 10
-69.6601068454
 20
-44.270668307
 10
-69.6640891964
 20
-44.3341441973
 10
-69.6686581691
 20
-44.3939518554
 10
-69.6738148259
 20
-44.4500821562
 10
-69.6795671307
 20
-44.5025342879
 10
-69.6859191537
 20
-44.5512823804
 10
-69.6928704816
 20
-44.5963127636
 10
-69.7004183048
 20
-44.637614125
  0
LINE
  5
5B3
100
AcDbEntity
  8
RACCORDO
100
AcDbLine
 62
253
  6
CONTINUOUS
 10
-66.8467396645
 20
-45.4185490331
 11
-66.8466808541
 21
-45.4206221306
  0
LINE
  5
5B4
100
AcDbEntity
  8
RACCORDO
100
AcDbLine
 62
7
  6
CONTINUOUS
 10
-68.6600848513
 20
-3.803346432
 11
-68.6600848513
 21
2.8610137155
  0
LINE
  5
5B5
100
AcDbEntity
  8
RACCORDO
100
AcDbLine
 62
253
  6
CONTINUOUS
 10
-68.8089497506
 20
-3.8058049641
 11
-68.8089542855
 21
2.863432863
  0
LINE
  5
5B6
100
AcDbEntity
  8
RACCORDO
100
AcDbLine
 62
253
  6
CONTINUOUS
 10
-66.8466808541
 20
44.4782894141
 11
-66.8467398977
 21
44.4762159186
  0
LINE
  5
5B7
100
AcDbEntity
  8
0
100
AcDbLine
 62
7
  6
CONTINUOUS
 10
-69.6542033174
 20
42.3964064131
 11
-69.6602751314
 21
42.1821934238
  0
LINE
  5
5B8
100
AcDbEntity
  8
0
100
AcDbLine
 62
7
  6
CONTINUOUS
 10
-69.6602751314
 20
42.1821934238
 11
-69.6681265195
 21
41.961794598
  0
LWPOLYLINE
  5
5B9
100
AcDbEntity
  8
RACCORDO
100
AcDbPolyline
 62
253
  6
CONTINUOUS
 90
16
 70
0
 10
-68.4740403725
 20
-4.1992522947
 10
-68.4710314073
 20
-4.179340728
 10
-68.4686135526
 20
-4.1595521345
 10
-68.466817283
 20
-4.1400924765
 10
-68.4656661844
 20
-4.1211485986
 10
-68.4651804163
 20
-4.1029443101
 10
-68.4653695794
 20
-4.085729107
 10
-68.4662304856
 20
-4.0696990719
 10
-68.4677539786
 20
-4.0550040515
 10
-68.4699241146
 20
-4.0417978534
 10
-68.4727181802
 20
-4.0302186936
 10
-68.4761069373
 20
-4.0203877362
 10
-68.4800549296
 20
-4.0124078525
 10
-68.4845208464
 20
-4.006362561
 10
-68.4894579517
 20
-4.0023151427
 10
-68.4948145801
 20
-4.0003079662
  0
LWPOLYLINE
  5
5BA
100
AcDbEntity
  8
0
100
AcDbPolyline
 62
7
  6
CONTINUOUS
 90
12
 70
0
 10
-75.6767580817
 20
-27.8247944448
 10
-75.6765487727
 20
-27.8240376541
 10
-75.6763862729
 20
-27.8225464916
 10
-75.6762705846
 20
-27.8203209563
 10
-75.6761972155
 20
-27.8174256273
 10
-75.676170635
 20
-27.8137959217
 10
-75.6762042802
 20
-27.8092380942
 10
-75.6762956856
 20
-27.8037874009
 10
-75.6764472407
 20
-27.7974085764
 10
-75.6766796444
 20
-27.7898020882
 10
-75.6769930823
 20
-27.7809414797
 10
-75.6778816648
 20
-27.7593170101
  0
LWPOLYLINE
  5
5BB
100
AcDbEntity
  8
RACCORDO
100
AcDbPolyline
 62
7
  6
CONTINUOUS
 90
14
 70
0
 10
-75.1898669798
 20
22.5735435075
 10
-75.1900113418
 20
22.5742900682
 10
-75.1906855812
 20
22.5779842625
 10
-75.1909307938
 20
22.5794764159
 10
-75.1908197569
 20
22.5787017934
 10
-75.1904806359
 20
22.5761088542
 10
-75.1899590374
 20
22.5717065637
 10
-75.189285073
 20
22.5654135
 10
-75.1885277476
 20
22.5575920854
 10
-75.1877118423
 20
22.54828765
 10
-75.1868501465
 20
22.5374397034
 10
-75.185974459
 20
22.5252716769
 10
-75.1850964096
 20
22.5118040098
 10
-75.1842243767
 20
22.4970084187
  0
LWPOLYLINE
  5
5BC
100
AcDbEntity
  8
RACCORDO
100
AcDbPolyline
 62
253
  6
CONTINUOUS
 90
11
 70
0
 10
-66.8401689747
 20
-4.3873190241
 10
-66.8416167605
 20
-4.370244745
 10
-66.8438842196
 20
-4.3542990577
 10
-66.8469481935
 20
-4.3396448223
 10
-66.8507773886
 20
-4.3264317085
 10
-66.8553326958
 20
-4.3147946676
 10
-66.8605675898
 20
-4.3048525535
 10
-66.8664286045
 20
-4.2967069094
 10
-66.8728558788
 20
-4.2904409301
 10
-66.8797837684
 20
-4.286118613
 10
-66.8871415158
 20
-4.2837841036
  0
LINE
  5
5BD
100
AcDbEntity
  8
RACCORDO
100
AcDbLine
 62
253
  6
CONTINUOUS
 10
-66.8590388794
 20
-44.5230711986
 11
-66.8467396645
 21
-45.4185490331
  0
LINE
  5
5BE
100
AcDbEntity
  8
RACCORDO
100
AcDbLine
 62
253
  6
CONTINUOUS
 10
-66.8618814619
 20
-44.0808519261
 11
-66.8590388794
 21
-44.5230711986
  0
LINE
  5
5BF
100
AcDbEntity
  8
RACCORDO
100
AcDbLine
 62
253
  6
CONTINUOUS
 10
-66.8622679917
 20
-43.972846807
 11
-66.8618814619
 21
-44.0808519261
  0
LINE
  5
5C0
100
AcDbEntity
  8
RACCORDO
100
AcDbLine
 62
253
  6
CONTINUOUS
 10
-66.8511993614
 20
18.4300415097
 11
-66.8454426328
 21
3.5408821794
  0
LINE
  5
5C1
100
AcDbEntity
  8
RACCORDO
100
AcDbLine
 62
7
  6
CONTINUOUS
 10
-66.6600848513
 20
44.2005493677
 11
-66.6600848513
 21
3.5493075294
  0
LINE
  5
5C2
100
AcDbEntity
  8
RACCORDO
100
AcDbLine
 62
7
  6
CONTINUOUS
 10
-66.6600848513
 20
-4.4916402459
 11
-66.6600848513
 21
-45.1428820841
  0
LINE
  5
5C3
100
AcDbEntity
  8
RACCORDO
100
AcDbLine
 62
253
  6
CONTINUOUS
 10
-66.8619129569
 20
30.8019790321
 11
-66.8511993614
 21
18.4300415097
  0
LINE
  5
5C4
100
AcDbEntity
  8
RACCORDO
100
AcDbLine
 62
253
  6
CONTINUOUS
 10
-66.8454439804
 20
-4.483214634
 11
-66.8510821355
 21
-19.1871683753
  0
LINE
  5
5C5
100
AcDbEntity
  8
RACCORDO
100
AcDbLine
 62
253
  6
CONTINUOUS
 10
-66.8510821355
 20
-19.1871683753
 11
-66.8568091131
 21
-26.5792513694
  0
LINE
  5
5C6
100
AcDbEntity
  8
RACCORDO
100
AcDbLine
 62
253
  6
CONTINUOUS
 10
-66.8568091131
 20
-26.5792513694
 11
-66.8613625414
 21
-31.0229323851
  0
LINE
  5
5C7
100
AcDbEntity
  8
RACCORDO
100
AcDbLine
 62
253
  6
CONTINUOUS
 10
-66.8613625414
 20
-31.0229323851
 11
-66.8621618337
 21
-43.8417388791
  0
LINE
  5
5C8
100
AcDbEntity
  8
RACCORDO
100
AcDbLine
 62
253
  6
CONTINUOUS
 10
-66.8621618337
 20
-43.8417388791
 11
-66.8622679917
 21
-43.972846807
  0
LINE
  5
5C9
100
AcDbEntity
  8
RACCORDO
100
AcDbLine
 62
253
  6
CONTINUOUS
 10
-66.8622010372
 20
43.0644278948
 11
-66.8619129569
 21
30.8019790321
  0
LINE
  5
5CA
100
AcDbEntity
  8
RACCORDO
100
AcDbLine
 62
253
  6
CONTINUOUS
 10
-66.8597959061
 20
43.4923106247
 11
-66.8622010372
 21
43.0644278948
  0
LINE
  5
5CB
100
AcDbEntity
  8
RACCORDO
100
AcDbLine
 62
253
  6
CONTINUOUS
 10
-66.8574537953
 20
43.715544241
 11
-66.8597959061
 21
43.4923106247
  0
LINE
  5
5CC
100
AcDbEntity
  8
RACCORDO
100
AcDbLine
 62
253
  6
CONTINUOUS
 10
-66.8467398977
 20
44.4762159186
 11
-66.8574537953
 21
43.715544241
  0
LWPOLYLINE
  5
5CD
100
AcDbEntity
  8
RACCORDO
100
AcDbPolyline
 62
253
  6
CONTINUOUS
 90
11
 70
0
 10
-66.8401687075
 20
3.4449861384
 10
-66.8416165097
 20
3.4279118209
 10
-66.8438839902
 20
3.4119661049
 10
-66.8469479902
 20
3.3973118517
 10
-66.8507772155
 20
3.3840987323
 10
-66.8553325564
 20
3.3724616986
 10
-66.8605674871
 20
3.3625196054
 10
-66.8664285406
 20
3.3543739959
 10
-66.8728558552
 20
3.3481080653
 10
-66.8797837856
 20
3.3437858106
 10
-66.8871415735
 20
3.3414513769
  0
LWPOLYLINE
  5
5CE
100
AcDbEntity
  8
RACCORDO
100
AcDbPolyline
 62
253
  6
CONTINUOUS
 90
6
 70
0
 10
-66.8454436604
 20
-4.4832146948
 10
-66.8427421647
 20
-4.4632795011
 10
-66.8408488481
 20
-4.4435226962
 10
-66.8397830477
 20
-4.4241460646
 10
-66.8395556491
 20
-4.4053475081
 10
-66.8401689747
 20
-4.3873190241
  0
LWPOLYLINE
  5
5CF
100
AcDbEntity
  8
RACCORDO
100
AcDbPolyline
 62
253
  6
CONTINUOUS
 90
8
 70
0
 10
-66.6600848514
 20
-4.4916402592
 10
-66.6602910912
 20
-4.4917304074
 10
-66.6609309851
 20
-4.4917939373
 10
-66.6620366451
 20
-4.4918305991
 10
-66.6636440354
 20
-4.4918415219
 10
-66.665783216
 20
-4.4918249667
 10
-66.6684679734
 20
-4.4917763484
 10
-66.6717199366
 20
-4.4916943906
  0
LWPOLYLINE
  5
5D0
100
AcDbEntity
  8
RACCORDO
100
AcDbPolyline
 62
253
  6
CONTINUOUS
 90
6
 70
0
 10
-66.8454433921
 20
3.5408820911
 10
-66.8427418858
 20
3.520946835
 10
-66.8408485639
 20
3.5011899689
 10
-66.8397827637
 20
3.4818132791
 10
-66.8395553707
 20
3.4630146692
 10
-66.8401687075
 20
3.4449861384
  0
LINE
  5
5D1
100
AcDbEntity
  8
RACCORDO
100
AcDbLine
 62
253
  6
CONTINUOUS
 10
-66.6600848513
 20
42.7834241227
 11
-66.6616809745
 21
42.816273342
  0
LINE
  5
5D2
100
AcDbEntity
  8
RACCORDO
100
AcDbLine
 62
253
  6
CONTINUOUS
 10
-66.6600848513
 20
43.2990471627
 11
-66.6616522419
 21
43.3312605317
  0
LWPOLYLINE
  5
5D3
100
AcDbEntity
  8
RACCORDO
100
AcDbPolyline
 62
253
  6
CONTINUOUS
 90
6
 70
0
 10
-66.6600848513
 20
43.5311396233
 10
-66.6616266194
 20
43.5614584473
 10
-66.6662360765
 20
43.5914656403
 10
-66.6738658445
 20
43.6208527746
 10
-66.6844375012
 20
43.6493177955
 10
-66.6978423863
 20
43.6765681264
  0
LWPOLYLINE
  5
5D4
100
AcDbEntity
  8
RACCORDO
100
AcDbPolyline
 62
253
  6
CONTINUOUS
 90
6
 70
0
 10
-66.6600848513
 20
-44.4734723398
 10
-66.6616266146
 20
-44.5037910237
 10
-66.6662360576
 20
-44.5337980797
 10
-66.6738658024
 20
-44.5631850829
 10
-66.6844374273
 20
-44.5916499816
 10
-66.6978422728
 20
-44.6189002019
  0
LINE
  5
5D5
100
AcDbEntity
  8
RACCORDO
100
AcDbLine
 62
253
  6
CONTINUOUS
 10
-66.6600848513
 20
-44.2413798792
 11
-66.6616522419
 21
-44.2735932459
  0
LINE
  5
5D6
100
AcDbEntity
  8
RACCORDO
100
AcDbLine
 62
253
  6
CONTINUOUS
 10
-66.6600848513
 20
-43.7257568392
 11
-66.6616809758
 21
-43.7586060577
  0
LWPOLYLINE
  5
5D7
100
AcDbEntity
  8
RACCORDO
100
AcDbPolyline
 62
253
  6
CONTINUOUS
 90
16
 70
0
 10
-72.4824458939
 20
-45.5369298009
 10
-72.466477656
 20
-45.4507486248
 10
-72.4530540632
 20
-45.356492836
 10
-72.4421641349
 20
-45.2541605189
 10
-72.4340497588
 20
-45.1426057997
 10
-72.428442367
 20
-45.0229700384
 10
-72.4245700143
 20
-44.8986829767
 10
-72.4223528006
 20
-44.7700061428
 10
-72.4218537638
 20
-44.6366752404
 10
-72.4225266955
 20
-44.5013331173
 10
-72.4243202246
 20
-44.3643748987
 10
-72.4272788071
 20
-44.22540435
 10
-72.4310085087
 20
-44.085878644
 10
-72.4354694796
 20
-43.9459664488
 10
-72.4407002603
 20
-43.8054989237
 10
-72.4526464517
 20
-43.52568005
  0
LWPOLYLINE
  5
5D8
100
AcDbEntity
  8
RACCORDO
100
AcDbPolyline
 62
253
  6
CONTINUOUS
 90
16
 70
0
 10
-72.2128527476
 20
-45.7851592535
 10
-72.1963694155
 20
-45.7005406806
 10
-72.1830238709
 20
-45.6041027416
 10
-72.1724964867
 20
-45.4977131961
 10
-72.1644883851
 20
-45.3835138818
 10
-72.1586860406
 20
-45.2629505134
 10
-72.15481622
 20
-45.1364497519
 10
-72.1526570705
 20
-45.0051218413
 10
-72.1519982104
 20
-44.8703995801
 10
-72.152676733
 20
-44.7326460076
 10
-72.1545172893
 20
-44.5929843249
 10
-72.1573451044
 20
-44.4523526054
 10
-72.1610591013
 20
-44.3104769098
 10
-72.1655412014
 20
-44.1679579497
 10
-72.1706674755
 20
-44.0256209167
 10
-72.1826013158
 20
-43.7409932146
  0
LINE
  5
5D9
100
AcDbEntity
  8
RACCORDO
100
AcDbLine
 62
7
  6
CONTINUOUS
 10
-75.6752929066
 20
-24.1387023353
 11
-75.1841115608
 21
-23.4372226753
  0
LINE
  5
5DA
100
AcDbEntity
  8
RACCORDO
100
AcDbLine
 62
253
  6
CONTINUOUS
 10
-75.2109903356
 20
-23.6949207959
 11
-75.783109766
 21
-24.5116756234
  0
LINE
  5
5DB
100
AcDbEntity
  8
RACCORDO
100
AcDbLine
 62
7
  6
CONTINUOUS
 10
-75.6752929066
 20
23.1963696188
 11
-75.1841118158
 21
22.4948903231
  0
LINE
  5
5DC
100
AcDbEntity
  8
RACCORDO
100
AcDbLine
 62
253
  6
CONTINUOUS
 10
-75.783109766
 20
23.5693429069
 11
-75.2109903356
 21
22.7525880794
  0
LWPOLYLINE
  5
5DD
100
AcDbEntity
  8
RACCORDO
100
AcDbPolyline
 62
253
  6
CONTINUOUS
 90
13
 70
0
 10
-75.2109903356
 20
22.7525880794
 10
-75.207934832
 20
22.7473139358
 10
-75.2049474275
 20
22.7392851374
 10
-75.2020275715
 20
22.7285016779
 10
-75.1991531144
 20
22.7150270079
 10
-75.1963448472
 20
22.6987976585
 10
-75.1936670092
 20
22.6796232401
 10
-75.1911246027
 20
22.6573806239
 10
-75.1887119551
 20
22.6321929044
 10
-75.1864781828
 20
22.604239024
 10
-75.1844311387
 20
22.5733961159
 10
-75.182563008
 20
22.5397870014
 10
-75.1809003515
 20
22.5039591587
  0
LWPOLYLINE
  5
5DE
100
AcDbEntity
  8
RACCORDO
100
AcDbPolyline
 62
253
  6
CONTINUOUS
 90
10
 70
0
 10
-72.4824458938
 20
44.5945970842
 10
-72.5019369196
 20
44.6744420179
 10
-72.5219697714
 20
44.7507840822
 10
-72.5425487049
 20
44.8236239513
 10
-72.5636789492
 20
44.892965754
 10
-72.5853631928
 20
44.9588066249
 10
-72.6076016011
 20
45.0211367062
 10
-72.630396494
 20
45.0799530768
 10
-72.6537523274
 20
45.1352597505
 10
-72.677672191
 20
45.1870572282
  0
LWPOLYLINE
  5
5DF
100
AcDbEntity
  8
RACCORDO
100
AcDbPolyline
 62
253
  6
CONTINUOUS
 90
10
 70
0
 10
-72.2128526649
 20
44.8428261633
 10
-72.2323614454
 20
44.9228074361
 10
-72.2524127294
 20
44.9992875265
 10
-72.2730101099
 20
45.0722635934
 10
-72.2941575717
 20
45.1417341447
 10
-72.3158577532
 20
45.2076955115
 10
-72.3381121342
 20
45.2701421698
 10
-72.3609229821
 20
45.3290714905
 10
-72.3842930788
 20
45.3844831648
 10
-72.4082245811
 20
45.4363757327
  0
LWPOLYLINE
  5
5E0
100
AcDbEntity
  8
RACCORDO
100
AcDbPolyline
 62
253
  6
CONTINUOUS
 90
15
 70
0
 10
-69.9153380904
 20
44.5660266647
 10
-69.9020299141
 20
44.5006339462
 10
-69.8905161248
 20
44.4258162187
 10
-69.880767494
 20
44.3420585549
 10
-69.8728654871
 20
44.2517275742
 10
-69.8665533505
 20
44.1538813623
 10
-69.8615613083
 20
44.0431779232
 10
-69.857995608
 20
43.9163738777
 10
-69.8561138656
 20
43.7765681289
 10
-69.8559911508
 20
43.6274239297
 10
-69.8575568401
 20
43.4697887574
 10
-69.8607228586
 20
43.3038459015
 10
-69.8653452762
 20
43.1325832966
 10
-69.8713036561
 20
42.9560219145
 10
-69.8784728617
 20
42.7750321807
  0
LWPOLYLINE
  5
5E1
100
AcDbEntity
  8
RACCORDO
100
AcDbPolyline
 62
253
  6
CONTINUOUS
 90
15
 70
0
 10
-70.0256595153
 20
44.674320725
 10
-70.0122801172
 20
44.6082882033
 10
-70.000761597
 20
44.5330420839
 10
-69.9910333886
 20
44.4490053373
 10
-69.9831246161
 20
44.3579392306
 10
-69.9768247822
 20
44.2591615324
 10
-69.9718933097
 20
44.1482991249
 10
-69.9683845993
 20
44.0213518192
 10
-69.9665672648
 20
43.8803711052
 10
-69.9665289487
 20
43.7300066589
 10
-69.9681837977
 20
43.5717063067
 10
-69.9714591548
 20
43.4047755714
 10
-69.9762065856
 20
43.2321384121
 10
-69.9822868703
 20
43.0547016373
 10
-69.9895733424
 20
42.8730451729
  0
LWPOLYLINE
  5
5E2
100
AcDbEntity
  8
DRAFT
100
AcDbPolyline
 62
7
  6
CONTINUOUS
 90
14
 70
0
 10
-70.1781252529
 20
45.0188336481
 10
-70.1627275235
 20
44.9394304076
 10
-70.1497098067
 20
44.8473893184
 10
-70.1390535636
 20
44.74270732
 10
-70.1307929078
 20
44.6243884268
 10
-70.1248473954
 20
44.4934210816
 10
-70.1210293345
 20
44.3527792953
 10
-70.1194057039
 20
44.2020232245
 10
-70.1198643181
 20
44.0415854614
 10
-70.1219643324
 20
43.8757511461
 10
-70.1257538394
 20
43.7042983824
 10
-70.131156368
 20
43.5274446478
 10
-70.1375690403
 20
43.3501380475
 10
-70.144962229
 20
43.1732309019
  0
LWPOLYLINE
  5
5E3
100
AcDbEntity
  8
0
100
AcDbPolyline
 62
7
  6
CONTINUOUS
 90
19
 70
0
 10
-69.7004423295
 20
43.6954023314
 10
-69.6929139706
 20
43.6542392086
 10
-69.6859777811
 20
43.6093628666
 10
-69.6796364595
 20
43.5607803223
 10
-69.673891097
 20
43.5085065527
 10
-69.6687386449
 20
43.4525759184
 10
-69.6641710504
 20
43.3929899912
 10
-69.6601871624
 20
43.3297580424
 10
-69.6567927161
 20
43.2629424591
 10
-69.6539885851
 20
43.1925841512
 10
-69.6517648849
 20
43.1186731938
 10
-69.6501064056
 20
43.0411899557
 10
-69.6490076719
 20
42.9600981768
 10
-69.6484731952
 20
42.8753961924
 10
-69.6485068794
 20
42.7870490093
 10
-69.6491096773
 20
42.6947871963
 10
-69.6502721902
 20
42.5986309347
 10
-69.6519636964
 20
42.4991091023
 10
-69.6542033174
 20
42.3964064131
  0
LWPOLYLINE
  5
5E4
100
AcDbEntity
  8
RACCORDO
100
AcDbPolyline
 62
253
  6
CONTINUOUS
 90
7
 70
0
 10
-66.6616522419
 20
-44.2735932459
 10
-66.6663380353
 20
-44.3038162662
 10
-66.6740932686
 20
-44.3334043348
 10
-66.6848369051
 20
-44.3620482778
 10
-66.6984566817
 20
-44.3894487871
 10
-66.7148102817
 20
-44.4153195472
 10
-66.733726822
 20
-44.4393902276
  0
LINE
  5
5E5
100
AcDbEntity
  8
RACCORDO
100
AcDbLine
 62
253
  6
CONTINUOUS
 10
-66.661681051
 20
-43.7563817089
 11
-66.6664523635
 21
-43.7889055913
  0
LINE
  5
5E6
100
AcDbEntity
  8
0
100
AcDbLine
 62
7
  6
CONTINUOUS
 10
-69.7004183048
 20
-44.637614125
 11
-69.7085634334
 21
-44.6751689388
  0
LINE
  5
5E7
100
AcDbEntity
  8
0
100
AcDbLine
 62
7
  6
CONTINUOUS
 10
-69.7085634334
 20
-44.6751689388
 11
-69.7091754081
 21
-44.6777382422
  0
LWPOLYLINE
  5
5E8
100
AcDbEntity
  8
DRAFT
100
AcDbPolyline
 62
7
  6
CONTINUOUS
 90
6
 70
0
 10
-70.1781252533
 20
-45.9611663663
 10
-70.1973960845
 20
-46.041345443
 10
-70.2172249032
 20
-46.118005262
 10
-70.2376160569
 20
-46.1911465307
 10
-70.2585745284
 20
-46.2607724017
 10
-70.2801034249
 20
-46.3268810475
  0
LINE
  5
5E9
100
AcDbEntity
  8
RACCORDO
100
AcDbLine
 62
7
  6
CONTINUOUS
 10
-69.9153386707
 20
-45.5083618546
 11
-69.9300172681
 21
-45.5692307935
  0
LWPOLYLINE
  5
5EA
100
AcDbEntity
  8
RACCORDO
100
AcDbPolyline
 62
253
  6
CONTINUOUS
 90
5
 70
0
 10
-70.0256595153
 20
-45.6166534415
 10
-70.045010316
 20
-45.6964473929
 10
-70.06491296
 20
-45.7727479646
 10
-70.0853709983
 20
-45.8455523096
 10
-70.1063884314
 20
-45.914859418
  0
LINE
  5
5EB
100
AcDbEntity
  8
0
100
AcDbLine
 62
7
  6
CONTINUOUS
 10
-69.7091754081
 20
-44.6777382422
 11
-69.718820069
 21
-44.7173175196
  0
LINE
  5
5EC
100
AcDbEntity
  8
SUPERFICI
100
AcDbLine
 62
7
  6
CONTINUOUS
 10
-69.9300172206
 20
-45.569230602
 11
-69.7188192565
 21
-44.7173177211
  0
LINE
  5
5ED
100
AcDbEntity
  8
RACCORDO
100
AcDbLine
 62
7
  6
CONTINUOUS
 10
-69.9153386707
 20
-45.5083618546
 11
-69.7091753008
 21
-44.6777382688
  0
LWPOLYLINE
  5
5EE
100
AcDbEntity
  8
RACCORDO
100
AcDbPolyline
 62
7
  6
CONTINUOUS
 90
10
 70
0
 10
-69.9300172681
 20
-45.5692307935
 10
-69.9347149576
 20
-45.5880205932
 10
-69.954639461
 20
-45.6641880885
 10
-69.9751169801
 20
-45.7368661548
 10
-69.9961527384
 20
-45.8060581692
 10
-70.0177487949
 20
-45.8717579957
 10
-70.0399050122
 20
-45.9339543837
 10
-70.0626229766
 20
-45.992642903
 10
-70.0859068773
 20
-46.0478271595
 10
-70.109760286
 20
-46.0995091628
  0
LWPOLYLINE
  5
5EF
100
AcDbEntity
  8
RACCORDO
100
AcDbPolyline
 62
7
  6
CONTINUOUS
 90
3
 70
0
 10
-69.966223244
 20
-45.7062672597
 10
-69.9465652606
 20
-45.634056887
 10
-69.9300328933
 20
-45.5692935814
  0
LWPOLYLINE
  5
5F0
100
AcDbEntity
  8
RACCORDO
100
AcDbPolyline
 62
7
  6
CONTINUOUS
 90
3
 70
0
 10
-69.9300331592
 20
44.6269619376
 10
-69.9465922623
 20
44.6918268504
 10
-69.9662790461
 20
44.7641324585
  0
LINE
  5
5F1
100
AcDbEntity
  8
RACCORDO
100
AcDbLine
 62
7
  6
CONTINUOUS
 10
-69.9153380904
 20
44.5660266654
 11
-69.7091753146
 21
43.7354055489
  0
LINE
  5
5F2
100
AcDbEntity
  8
SUPERFICI
100
AcDbLine
 62
7
  6
CONTINUOUS
 10
-69.7188192565
 20
43.7749850046
 11
-69.9300172206
 21
44.6268978855
  0
LINE
  5
5F3
100
AcDbEntity
  8
0
100
AcDbLine
 62
7
  6
CONTINUOUS
 10
-69.718820069
 20
43.7749848031
 11
-69.7091754081
 21
43.7354055257
  0
LINE
  5
5F4
100
AcDbEntity
  8
RACCORDO
100
AcDbLine
 62
7
  6
CONTINUOUS
 10
-69.9300172681
 20
44.626898077
 11
-69.9153380904
 21
44.5660266654
  0
LINE
  5
5F5
100
AcDbEntity
  8
0
100
AcDbLine
 62
7
  6
CONTINUOUS
 10
-69.7091754081
 20
43.7354055257
 11
-69.7085634334
 21
43.7328362223
  0
LINE
  5
5F6
100
AcDbEntity
  8
0
100
AcDbLine
 62
7
  6
CONTINUOUS
 10
-69.7085634334
 20
43.7328362223
 11
-69.7004423295
 21
43.6954023314
  0
LINE
  5
5F7
100
AcDbEntity
  8
RACCORDO
100
AcDbLine
 62
253
  6
CONTINUOUS
 10
-66.6616810652
 20
42.8140489836
 11
-66.6664523611
 21
42.8465728766
  0
LINE
  5
5F8
100
AcDbEntity
  8
RACCORDO
100
AcDbLine
 62
253
  6
CONTINUOUS
 10
-66.6616522419
 20
43.3312605317
 11
-66.6663380355
 21
43.3614835544
  0
LINE
  5
5F9
100
AcDbEntity
  8
RACCORDO
100
AcDbLine
 62
253
  6
CONTINUOUS
 10
-66.6664526644
 20
-43.7866806892
 11
-66.6743482429
 21
-43.8185568332
  0
LWPOLYLINE
  5
5FA
100
AcDbEntity
  8
RACCORDO
100
AcDbPolyline
 62
253
  6
CONTINUOUS
 90
10
 70
0
 10
-69.9153336639
 20
-45.50834053
 10
-69.9207322236
 20
-45.5255074711
 10
-69.9281947655
 20
-45.5418903261
 10
-69.937611426
 20
-45.5572479113
 10
-69.9488435727
 20
-45.5713541372
 10
-69.9617258448
 20
-45.5840013372
 10
-69.976068588
 20
-45.595003325
 10
-69.9916606467
 20
-45.6041981354
 10
-70.0082724721
 20
-45.611450409
 10
-70.0256595027
 20
-45.6166533851
  0
LWPOLYLINE
  5
5FB
100
AcDbEntity
  8
RACCORDO
100
AcDbPolyline
 62
253
  6
CONTINUOUS
 90
3
 70
0
 10
-70.1063884314
 20
-45.914859418
 10
-70.1279678149
 20
-45.9806650807
 10
-70.1501104038
 20
-46.0429624584
  0
LWPOLYLINE
  5
5FC
100
AcDbEntity
  8
RACCORDO
100
AcDbPolyline
 62
253
  6
CONTINUOUS
 90
13
 70
0
 10
-66.6600848513
 20
-31.4505114001
 10
-66.6616783649
 20
-31.4551388767
 10
-66.6664419758
 20
-31.4597171937
 10
-66.6743250783
 20
-31.4641977136
 10
-66.6852439267
 20
-31.468532838
 10
-66.6990825257
 20
-31.4726765131
 10
-66.715693862
 20
-31.4765847189
 10
-66.7349014663
 20
-31.4802159368
 10
-66.7565012883
 20
-31.4835315908
 10
-66.7802638639
 20
-31.4864964574
 10
-66.8059367533
 20
-31.4890790396
 10
-66.8332472227
 20
-31.4912519015
 10
-66.8619051415
 20
-31.4929919598
  0
LWPOLYLINE
  5
5FD
100
AcDbEntity
  8
RACCORDO
100
AcDbPolyline
 62
253
  6
CONTINUOUS
 90
6
 70
0
 10
-66.6600848513
 20
-31.3982210127
 10
-66.661677871
 20
-31.4028136485
 10
-66.6664400137
 20
-31.4073575099
 10
-66.6743207049
 20
-31.4118043404
 10
-66.6852362505
 20
-31.4161069142
 10
-66.6990707259
 20
-31.4202195373
  0
LWPOLYLINE
  5
5FE
100
AcDbEntity
  8
DRAFT
100
AcDbPolyline
 62
7
  6
CONTINUOUS
 90
5
 70
0
 10
-70.2801034249
 20
-46.3268810475
 10
-70.3022039916
 20
-46.3894656616
 10
-70.3248789521
 20
-46.4485243572
 10
-70.3481324949
 20
-46.5040601657
 10
-70.3719677726
 20
-46.5560736123
  0
LWPOLYLINE
  5
5FF
100
AcDbEntity
  8
RACCORDO
100
AcDbPolyline
 62
253
  6
CONTINUOUS
 90
13
 70
0
 10
-66.6600848513
 20
-24.4693124738
 10
-66.6616150764
 20
-24.4717868544
 10
-66.666190141
 20
-24.4742359837
 10
-66.6737633725
 20
-24.4766348681
 10
-66.6842575127
 20
-24.4789590266
 10
-66.6975655055
 20
-24.4811847403
 10
-66.7135515895
 20
-24.483289295
 10
-66.7320526826
 20
-24.4852512122
 10
-66.7528800459
 20
-24.4870504685
 10
-66.7758212092
 20
-24.4886687002
 10
-66.800642138
 20
-24.4900893899
 10
-66.8270896217
 20
-24.4912980357
 10
-66.8548938562
 20
-24.4922822988
  0
LWPOLYLINE
  5
600
100
AcDbEntity
  8
0
100
AcDbPolyline
 62
7
  6
CONTINUOUS
 90
6
 70
0
 10
-75.7265857021
 20
-27.0298272665
 10
-75.726853614
 20
-27.0300841118
 10
-75.7272867057
 20
-27.031859324
 10
-75.7276130452
 20
-27.0353564272
 10
-75.7278307888
 20
-27.0405894634
 10
-75.7279413181
 20
-27.0475443762
  0
LWPOLYLINE
  5
601
100
AcDbEntity
  8
RACCORDO
100
AcDbPolyline
 62
253
  6
CONTINUOUS
 90
13
 70
0
 10
-66.6600848513
 20
23.5269797573
 10
-66.661615085
 20
23.529451337
 10
-66.6661901739
 20
23.5318977386
 10
-66.6737634451
 20
23.5342940133
 10
-66.6842576393
 20
23.5366157332
 10
-66.6975656995
 20
23.538839213
 10
-66.7135518627
 20
23.5409417517
 10
-66.7320530452
 20
23.5429019094
 10
-66.7528805063
 20
23.5446996988
 10
-66.7758217734
 20
23.5463167614
 10
-66.80064281
 20
23.5477366006
 10
-66.8270904029
 20
23.5489447496
 10
-66.8548947457
 20
23.5499288919
  0
LWPOLYLINE
  5
602
100
AcDbEntity
  8
RACCORDO
100
AcDbPolyline
 62
253
  6
CONTINUOUS
 90
6
 70
0
 10
-66.6600848513
 20
26.6507132762
 10
-66.6616423359
 20
26.6534388659
 10
-66.666298618
 20
26.6561361553
 10
-66.6740053505
 20
26.658777138
 10
-66.6846825124
 20
26.6613343923
 10
-66.6982192405
 20
26.6637813657
  0
LWPOLYLINE
  5
603
100
AcDbEntity
  8
RACCORDO
100
AcDbPolyline
 62
253
  6
CONTINUOUS
 90
5
 70
0
 10
-66.6600848513
 20
26.6887359812
 10
-66.6616427106
 20
26.6914670255
 10
-66.666300109
 20
26.6941697059
 10
-66.6740086759
 20
26.6968159531
 10
-66.6846883524
 20
26.699378284
  0
LWPOLYLINE
  5
604
100
AcDbEntity
  8
RACCORDO
100
AcDbPolyline
 62
253
  6
CONTINUOUS
 90
3
 70
0
 10
-70.1501104038
 20
45.1006297419
 10
-70.1279678149
 20
45.0383323642
 10
-70.1063884314
 20
44.9725267015
  0
LWPOLYLINE
  5
605
100
AcDbEntity
  8
RACCORDO
100
AcDbPolyline
 62
253
  6
CONTINUOUS
 90
6
 70
0
 10
-66.6600848513
 20
30.4558882962
 10
-66.6616778732
 20
30.4604809318
 10
-66.6664400179
 20
30.4650247929
 10
-66.6743207107
 20
30.4694716232
 10
-66.6852362576
 20
30.4737741967
 10
-66.699070734
 20
30.4778868194
  0
LWPOLYLINE
  5
606
100
AcDbEntity
  8
RACCORDO
100
AcDbPolyline
 62
253
  6
CONTINUOUS
 90
13
 70
0
 10
-66.6600848513
 20
30.5081786836
 10
-66.6616783643
 20
30.51280616
 10
-66.6664419748
 20
30.5173844769
 10
-66.6743250768
 20
30.5218649967
 10
-66.6852439249
 20
30.526200121
 10
-66.6990825237
 20
30.5303437961
 10
-66.7156938597
 20
30.5342520018
 10
-66.7349014639
 20
30.5378832198
 10
-66.7565012858
 20
30.5411988739
 10
-66.7802638614
 20
30.5441637408
 10
-66.8059367509
 20
30.5467463232
 10
-66.8332472204
 20
30.5489191854
 10
-66.8619051394
 20
30.5506592442
  0
LWPOLYLINE
  5
607
100
AcDbEntity
  8
DRAFT
100
AcDbPolyline
 62
7
  6
CONTINUOUS
 90
6
 70
0
 10
-70.2801034708
 20
45.3845484655
 10
-70.2585745732
 20
45.3184398297
 10
-70.2376160965
 20
45.2488139508
 10
-70.2172249336
 20
45.1756726539
 10
-70.1973961017
 20
45.0990127888
 10
-70.1781252529
 20
45.0188336481
  0
LWPOLYLINE
  5
608
100
AcDbEntity
  8
RACCORDO
100
AcDbPolyline
 62
253
  6
CONTINUOUS
 90
10
 70
0
 10
-69.9153338013
 20
44.5660077794
 10
-69.9207323876
 20
44.5831746711
 10
-69.928194947
 20
44.5995574768
 10
-69.9376116163
 20
44.6149150143
 10
-69.948843763
 20
44.6290211954
 10
-69.9617260273
 20
44.6416683548
 10
-69.9760687555
 20
44.6526703074
 10
-69.9916607928
 20
44.6618650888
 10
-70.0082725919
 20
44.6691173406
 10
-70.0256595921
 20
44.6743203025
  0
LWPOLYLINE
  5
609
100
AcDbEntity
  8
RACCORDO
100
AcDbPolyline
 62
253
  6
CONTINUOUS
 90
5
 70
0
 10
-70.1063884314
 20
44.9725267015
 10
-70.0853709983
 20
44.9032195931
 10
-70.06491296
 20
44.8304152481
 10
-70.045010316
 20
44.7541146764
 10
-70.0256595153
 20
44.674320725
  0
LWPOLYLINE
  5
60A
100
AcDbEntity
  8
RACCORDO
100
AcDbPolyline
 62
7
  6
CONTINUOUS
 90
8
 70
0
 10
-69.9662790461
 20
44.7641324585
 10
-69.9866212722
 20
44.8337519059
 10
-70.0076277267
 20
44.9006197869
 10
-70.0293304239
 20
44.9647438549
 10
-70.0517932064
 20
45.0262019252
 10
-70.0750631851
 20
45.0849945228
 10
-70.0991618464
 20
45.1410470461
 10
-70.1202901753
 20
45.1864361978
  0
LINE
  5
60B
100
AcDbEntity
  8
RACCORDO
100
AcDbLine
 62
253
  6
CONTINUOUS
 10
-66.6664526909
 20
42.8443479539
 11
-66.6743482396
 21
42.8762241195
  0
LINE
  5
60C
100
AcDbEntity
  8
RACCORDO
100
AcDbLine
 62
253
  6
CONTINUOUS
 10
-66.6663386875
 20
43.3598149821
 11
-66.6740947227
 21
43.3894042507
  0
LINE
  5
60D
100
AcDbEntity
  8
RACCORDO
100
AcDbLine
 62
253
  6
CONTINUOUS
 10
-66.6743489152
 20
-43.8163313586
 11
-66.6852845955
 21
-43.8472442697
  0
LINE
  5
60E
100
AcDbEntity
  8
RACCORDO
100
AcDbLine
 62
253
  6
CONTINUOUS
 10
-70.1501104038
 20
-46.0429624584
 11
-70.1728183303
 21
-46.1017487301
  0
LINE
  5
60F
100
AcDbEntity
  8
RACCORDO
100
AcDbLine
 62
253
  6
CONTINUOUS
 10
-70.1728183303
 20
-46.1017487301
 11
-70.1960943718
 21
-46.1570242678
  0
LINE
  5
610
100
AcDbEntity
  8
RACCORDO
100
AcDbLine
 62
253
  6
CONTINUOUS
 10
-70.1960943718
 20
-46.1570242678
 11
-70.2199406204
 21
-46.2087878286
  0
LWPOLYLINE
  5
611
100
AcDbEntity
  8
RACCORDO
100
AcDbPolyline
 62
253
  6
CONTINUOUS
 90
10
 70
0
 10
-72.4082245713
 20
-46.378708429
 10
-72.3842930884
 20
-46.326815903
 10
-72.3609230055
 20
-46.2714042647
 10
-72.3381121662
 20
-46.2124749722
 10
-72.3158577848
 20
-46.1500283203
 10
-72.2941575986
 20
-46.0840669465
 10
-72.2730101395
 20
-46.0145964111
 10
-72.2524127721
 20
-45.9416204001
 10
-72.2323615072
 20
-45.8651403971
 10
-72.2128527511
 20
-45.7851592465
  0
LWPOLYLINE
  5
612
100
AcDbEntity
  8
RACCORDO
100
AcDbPolyline
 62
253
  6
CONTINUOUS
 90
10
 70
0
 10
-72.677672191
 20
-46.1293899447
 10
-72.6537522856
 20
-46.0775923604
 10
-72.6303964214
 20
-46.0222856034
 10
-72.6076015086
 20
-45.9634691726
 10
-72.5853630922
 20
-45.9011390499
 10
-72.5636788518
 20
-45.8352981608
 10
-72.5425486192
 20
-45.7659563768
 10
-72.5219697054
 20
-45.6931165678
 10
-72.5019368821
 20
-45.6167746006
 10
-72.4824458939
 20
-45.5369298009
  0
LWPOLYLINE
  5
613
100
AcDbEntity
  8
RACCORDO
100
AcDbPolyline
 62
7
  6
CONTINUOUS
 90
8
 70
0
 10
-70.1202893982
 20
-46.1287673069
 10
-70.0988886382
 20
-46.0827704568
 10
-70.074832543
 20
-46.0267676196
 10
-70.0516023351
 20
-45.9680324091
 10
-70.0291766485
 20
-45.9066390588
 10
-70.0075086309
 20
-45.8425870615
 10
-69.986534782
 20
-45.7757990217
 10
-69.966223244
 20
-45.7062672597
  0
LWPOLYLINE
  5
614
100
AcDbEntity
  8
RACCORDO
100
AcDbPolyline
 62
253
  6
CONTINUOUS
 90
5
 70
0
 10
-66.6600848513
 20
-27.6310686977
 10
-66.6616427109
 20
-27.633799742
 10
-66.6663001095
 20
-27.6365024224
 10
-66.6740086767
 20
-27.6391486696
 10
-66.6846883534
 20
-27.6417110004
  0
LWPOLYLINE
  5
615
100
AcDbEntity
  8
RACCORDO
100
AcDbPolyline
 62
253
  6
CONTINUOUS
 90
6
 70
0
 10
-66.6600848513
 20
-27.5930459927
 10
-66.6616423358
 20
-27.5957716314
 10
-66.6662986174
 20
-27.5984689689
 10
-66.6740053489
 20
-27.6011099981
 10
-66.6846825096
 20
-27.6036672964
 10
-66.6982192361
 20
-27.6061143106
  0
LINE
  5
616
100
AcDbEntity
  8
RACCORDO
100
AcDbLine
 62
253
  6
CONTINUOUS
 10
-75.1973243765
 20
21.2395700107
 11
-75.1983420291
 21
21.2395348663
  0
LINE
  5
617
100
AcDbEntity
  8
RACCORDO
100
AcDbLine
 62
253
  6
CONTINUOUS
 10
-73.4889213244
 20
23.9186869809
 11
-71.5271813387
 21
23.935442607
  0
LINE
  5
618
100
AcDbEntity
  8
RACCORDO
100
AcDbLine
 62
253
  6
CONTINUOUS
 10
-75.0986069111
 20
24.0433062867
 11
-73.7558326813
 21
24.0433056679
  0
LINE
  5
619
100
AcDbEntity
  8
0
100
AcDbLine
 62
253
  6
CONTINUOUS
 10
-75.0986069111
 20
24.0433062867
 11
-75.7600848513
 21
24.0433062867
  0
LINE
  5
61A
100
AcDbEntity
  8
RACCORDO
100
AcDbLine
 62
253
  6
CONTINUOUS
 10
-70.902823411
 20
23.8120562842
 11
-70.2131796169
 21
23.7751863175
  0
LINE
  5
61B
100
AcDbEntity
  8
RACCORDO
100
AcDbLine
 62
253
  6
CONTINUOUS
 10
-71.3375558357
 20
23.92380986
 11
-71.5272372252
 21
23.9344459404
  0
LINE
  5
61C
100
AcDbEntity
  8
RACCORDO
100
AcDbLine
 62
253
  6
CONTINUOUS
 10
-70.2131796169
 20
23.7751863175
 11
-69.5276999295
 21
23.7354775551
  0
LINE
  5
61D
100
AcDbEntity
  8
RACCORDO
100
AcDbLine
 62
253
  6
CONTINUOUS
 10
-69.5276999295
 20
23.7354775551
 11
-68.8477657167
 21
23.693009986
  0
LINE
  5
61E
100
AcDbEntity
  8
RACCORDO
100
AcDbLine
 62
253
  6
CONTINUOUS
 10
-68.8477657167
 20
23.693009986
 11
-68.1747500087
 21
23.647869374
  0
LINE
  5
61F
100
AcDbEntity
  8
RACCORDO
100
AcDbLine
 62
253
  6
CONTINUOUS
 10
-68.1747500087
 20
23.647869374
 11
-67.5100129097
 21
23.6001470175
  0
LINE
  5
620
100
AcDbEntity
  8
RACCORDO
100
AcDbLine
 62
253
  6
CONTINUOUS
 10
-67.5100129097
 20
23.6001470175
 11
-66.8548938145
 21
23.5499391971
  0
LWPOLYLINE
  5
621
100
AcDbEntity
  8
RACCORDO
100
AcDbPolyline
 62
253
  6
CONTINUOUS
 90
10
 70
0
 10
-71.2163455444
 20
23.9110118349
 10
-71.2235266152
 20
23.9127348719
 10
-71.2326790401
 20
23.9144454228
 10
-71.2436681882
 20
23.916115054
 10
-71.2563323824
 20
23.9177159348
 10
-71.2704852805
 20
23.9192212476
 10
-71.2859186183
 20
23.9206055822
 10
-71.3024052771
 20
23.9218453105
 10
-71.3197026279
 20
23.9229189341
 10
-71.3375561037
 20
23.9238074011
  0
LINE
  5
622
100
AcDbEntity
  8
RACCORDO
100
AcDbLine
 62
253
  6
CONTINUOUS
 10
-71.2163453831
 20
23.9110143734
 11
-70.9028234636
 21
23.8120561175
  0
LWPOLYLINE
  5
623
100
AcDbEntity
  8
RACCORDO
100
AcDbPolyline
 62
253
  6
CONTINUOUS
 90
7
 70
0
 10
-72.8304066578
 20
45.4761492242
 10
-72.8665759464
 20
45.5412504425
 10
-72.9057229759
 20
45.6089355592
 10
-72.947152212
 20
45.6792041007
 10
-72.9903126096
 20
45.7537033439
 10
-73.0340792005
 20
45.8307847817
 10
-73.1187327458
 20
45.9774447546
  0
LINE
  5
624
100
AcDbEntity
  8
RACCORDO
100
AcDbLine
 62
253
  6
CONTINUOUS
 10
-73.3318721856
 20
46.3501859735
 11
-73.3328543632
 21
46.3519586233
  0
LWPOLYLINE
  5
625
100
AcDbEntity
  8
RACCORDO
100
AcDbPolyline
 62
253
  6
CONTINUOUS
 90
10
 70
0
 10
-72.4082245813
 20
45.4363757309
 10
-72.4241539758
 20
45.4689778057
 10
-72.4401503319
 20
45.5011174292
 10
-72.4562138677
 20
45.5327945603
 10
-72.4723447909
 20
45.5640091322
 10
-72.4885433223
 20
45.5947611364
 10
-72.5048097004
 20
45.6250506151
 10
-72.521144144
 20
45.6548775561
 10
-72.5375468441
 20
45.6842418944
 10
-73.0632115217
 20
46.6007347805
  0
LWPOLYLINE
  5
626
100
AcDbEntity
  8
RACCORDO
100
AcDbPolyline
 62
253
  6
CONTINUOUS
 90
10
 70
0
 10
-72.677672191
 20
45.1870572282
 10
-72.6935934835
 20
45.2196764359
 10
-72.7095818021
 20
45.2518327505
 10
-72.7256373839
 20
45.2835262099
 10
-72.7417604664
 20
45.3147568933
 10
-72.7579512755
 20
45.345524796
 10
-72.7742100256
 20
45.3758298301
 10
-72.7905369357
 20
45.40567199
 10
-72.8069322298
 20
45.4350513528
 10
-72.8233961244
 20
45.4639679536
  0
LWPOLYLINE
  5
627
100
AcDbEntity
  8
RACCORDO
100
AcDbPolyline
 62
7
  6
CONTINUOUS
 90
10
 70
0
 10
-70.109760286
 20
45.1571764463
 10
-70.0859068773
 20
45.105494443
 10
-70.0626229766
 20
45.0503101865
 10
-70.0399050122
 20
44.9916216672
 10
-70.0177488195
 20
44.9294253511
 10
-69.9961527863
 20
44.8637256044
 10
-69.9751169801
 20
44.7945334383
 10
-69.9546393246
 20
44.7218548698
 10
-69.934714626
 20
44.645686562
 10
-69.9300350347
 20
44.6269697577
  0
LWPOLYLINE
  5
628
100
AcDbEntity
  8
RACCORDO
100
AcDbPolyline
 62
253
  6
CONTINUOUS
 90
3
 70
0
 10
-70.2199406203
 20
45.266455112
 10
-70.1960943718
 20
45.2146915512
 10
-70.1728183303
 20
45.1594160136
  0
LWPOLYLINE
  5
629
100
AcDbEntity
  8
DRAFT
100
AcDbPolyline
 62
7
  6
CONTINUOUS
 90
5
 70
0
 10
-70.3719677726
 20
45.6137408958
 10
-70.3481325139
 20
45.5617274975
 10
-70.3248789851
 20
45.5061917271
 10
-70.3022040337
 20
45.4471330594
 10
-70.2801034708
 20
45.3845484655
  0
LINE
  5
62A
100
AcDbEntity
  8
RACCORDO
100
AcDbLine
 62
253
  6
CONTINUOUS
 10
-70.1728183303
 20
45.1594160136
 11
-70.1501104038
 21
45.1006297419
  0
LINE
  5
62B
100
AcDbEntity
  8
RACCORDO
100
AcDbLine
 62
253
  6
CONTINUOUS
 10
-66.674348952
 20
42.8739986123
 11
-66.6852845914
 21
42.904911557
  0
LWPOLYLINE
  5
62C
100
AcDbEntity
  8
RACCORDO
100
AcDbPolyline
 62
253
  6
CONTINUOUS
 90
5
 70
0
 10
-66.6740932691
 20
43.3910716251
 10
-66.684836906
 20
43.4197155702
 10
-66.6984566832
 20
43.4471160813
 10
-66.7148102839
 20
43.472986843
 10
-66.7337268249
 20
43.4970575248
  0
LWPOLYLINE
  5
62D
100
AcDbEntity
  8
DRAFT
100
AcDbPolyline
 62
7
  6
CONTINUOUS
 90
9
 70
0
 10
-70.3719677726
 20
-46.5560736123
 10
-70.3885367597
 20
-46.5902504079
 10
-70.4051810443
 20
-46.6239181684
 10
-70.4219009029
 20
-46.6570769391
 10
-70.4386966378
 20
-46.6897268108
 10
-70.4555684871
 20
-46.7218677818
 10
-70.4725166251
 20
-46.7534997585
 10
-70.4895412817
 20
-46.7846227379
 10
-70.5066427427
 20
-46.8152368084
  0
LINE
  5
62E
100
AcDbEntity
  8
RACCORDO
100
AcDbLine
 62
7
  6
CONTINUOUS
 10
-70.1344308262
 20
-46.157797558
 11
-70.1202802853
 21
-46.1287484473
  0
LWPOLYLINE
  5
62F
100
AcDbEntity
  8
RACCORDO
100
AcDbPolyline
 62
253
  6
CONTINUOUS
 90
5
 70
0
 10
-70.2199406204
 20
-46.2087878286
 10
-70.2364314879
 20
-46.2426349167
 10
-70.2529949746
 20
-46.2759806335
 10
-70.2696313051
 20
-46.3088250123
 10
-70.2825739203
 20
-46.333877022
  0
LWPOLYLINE
  5
630
100
AcDbEntity
  8
RACCORDO
100
AcDbPolyline
 62
253
  6
CONTINUOUS
 90
3
 70
0
 10
-70.1202894005
 20
-46.1287673058
 10
-70.1225839838
 20
-46.1333131611
 10
-70.1319822496
 20
-46.1487945635
  0
LINE
  5
631
100
AcDbEntity
  8
RACCORDO
100
AcDbLine
 62
253
  6
CONTINUOUS
 10
-66.6852857767
 20
-43.8450181946
 11
-66.6991450493
 21
-43.8746626428
  0
LWPOLYLINE
  5
632
100
AcDbEntity
  8
RACCORDO
100
AcDbPolyline
 62
7
  6
CONTINUOUS
 90
5
 70
0
 10
-70.2064463586
 20
-46.2986023499
 10
-70.1882836981
 20
-46.2641796806
 10
-70.1702276461
 20
-46.2292378437
 10
-70.1522768484
 20
-46.1937766124
 10
-70.1344308262
 20
-46.157797558
  0
LWPOLYLINE
  5
633
100
AcDbEntity
  8
RACCORDO
100
AcDbPolyline
 62
253
  6
CONTINUOUS
 90
9
 70
0
 10
-72.5375468426
 20
-46.6265746081
 10
-72.5211441417
 20
-46.5972102686
 10
-72.5048096979
 20
-46.567383327
 10
-72.4885433204
 20
-46.5370938493
 10
-72.47234479
 20
-46.5063418471
 10
-72.4562138667
 20
-46.4751272748
 10
-72.4401503291
 20
-46.4434501401
 10
-72.42415397
 20
-46.4113105105
 10
-72.4082245714
 20
-46.3787084271
  0
LWPOLYLINE
  5
634
100
AcDbEntity
  8
RACCORDO
100
AcDbPolyline
 62
7
  6
CONTINUOUS
 90
4
 70
0
 10
-70.2615934309
 20
-46.3987660417
 10
-70.2431000895
 20
-46.365896281
 10
-70.2247179821
 20
-46.3325078375
 10
-70.2064463586
 20
-46.2986023499
  0
LINE
  5
635
100
AcDbEntity
  8
RACCORDO
100
AcDbLine
 62
7
  6
CONTINUOUS
 10
-70.2619045714
 20
-46.3993129317
 11
-70.2469787473
 21
-46.372793735
  0
LWPOLYLINE
  5
636
100
AcDbEntity
  8
RACCORDO
100
AcDbPolyline
 62
253
  6
CONTINUOUS
 90
6
 70
0
 10
-73.0280425109
 20
-46.7626249474
 10
-72.982696436
 20
-46.6825541107
 10
-72.9390382296
 20
-46.6074155387
 10
-72.8986579924
 20
-46.5395029398
 10
-72.8621625674
 20
-46.4765247966
 10
-72.8304066578
 20
-46.4184819407
  0
LWPOLYLINE
  5
637
100
AcDbEntity
  8
RACCORDO
100
AcDbPolyline
 62
253
  6
CONTINUOUS
 90
10
 70
0
 10
-72.8233961245
 20
-46.4063006703
 10
-72.8069322281
 20
-46.3773840662
 10
-72.7905369326
 20
-46.3480047008
 10
-72.7742100214
 20
-46.318162539
 10
-72.7579512707
 20
-46.2878575035
 10
-72.7417604614
 20
-46.2570896
 10
-72.7256373792
 20
-46.2258589171
 10
-72.7095817984
 20
-46.1941654596
 10
-72.6935934813
 20
-46.1620091481
 10
-72.677672191
 20
-46.1293899447
  0
LWPOLYLINE
  5
638
100
AcDbEntity
  8
RACCORDO
100
AcDbPolyline
 62
253
  6
CONTINUOUS
 90
4
 70
0
 10
-73.2852503868
 20
-47.2110861
 10
-73.2309382792
 20
-47.1155671824
 10
-73.1967722499
 20
-47.0565866562
 10
-73.116880231
 20
-46.9162643271
  0
LINE
  5
639
100
AcDbEntity
  8
RACCORDO
100
AcDbLine
 62
253
  6
CONTINUOUS
 10
-73.332527909
 20
-47.2937525297
 11
-73.2852503868
 21
-47.2110861
  0
LINE
  5
63A
100
AcDbEntity
  8
RACCORDO
100
AcDbLine
 62
253
  6
CONTINUOUS
 10
-72.8304066578
 20
-46.4184819407
 11
-72.8233961246
 21
-46.4063006697
  0
LINE
  5
63B
100
AcDbEntity
  8
RACCORDO
100
AcDbLine
 62
253
  6
CONTINUOUS
 10
-73.062889271
 20
-47.5425043659
 11
-72.5375468426
 21
-46.6265746081
  0
LINE
  5
63C
100
AcDbEntity
  8
DRAFT
100
AcDbLine
 62
7
  6
CONTINUOUS
 10
-70.5066427427
 20
-46.8152368084
 11
-71.0275259132
 21
-47.7211542831
  0
LINE
  5
63D
100
AcDbEntity
  8
RACCORDO
100
AcDbLine
 62
7
  6
CONTINUOUS
 10
-70.4740731839
 20
-46.7667069268
 11
-70.2615934309
 21
-46.3987660417
  0
LINE
  5
63E
100
AcDbEntity
  8
RACCORDO
100
AcDbLine
 62
253
  6
CONTINUOUS
 10
-73.116880231
 20
-46.9162643271
 11
-73.0280425109
 21
-46.7626249474
  0
LINE
  5
63F
100
AcDbEntity
  8
RACCORDO
100
AcDbLine
 62
253
  6
CONTINUOUS
 10
-73.3328543077
 20
-47.2942920271
 11
-73.332527909
 21
-47.2937525297
  0
LINE
  5
640
100
AcDbEntity
  8
RACCORDO
100
AcDbLine
 62
253
  6
CONTINUOUS
 10
-71.2163453831
 20
-24.8533470899
 11
-70.9028234636
 21
-24.754388834
  0
LINE
  5
641
100
AcDbEntity
  8
RACCORDO
100
AcDbLine
 62
253
  6
CONTINUOUS
 10
-71.3594062561
 20
27.1799821525
 11
-73.324274043
 21
27.1600698465
  0
LINE
  5
642
100
AcDbEntity
  8
RACCORDO
100
AcDbLine
 62
253
  6
CONTINUOUS
 10
-70.7406142354
 20
26.9982662786
 11
-70.0799901915
 21
26.9515040291
  0
LINE
  5
643
100
AcDbEntity
  8
RACCORDO
100
AcDbLine
 62
253
  6
CONTINUOUS
 10
-70.7383722653
 20
27.0361961802
 11
-70.0781505773
 21
26.9894603239
  0
LINE
  5
644
100
AcDbEntity
  8
RACCORDO
100
AcDbLine
 62
253
  6
CONTINUOUS
 10
-71.172031965
 20
27.1314053936
 11
-71.3619669077
 21
27.1455169288
  0
LINE
  5
645
100
AcDbEntity
  8
RACCORDO
100
AcDbLine
 62
253
  6
CONTINUOUS
 10
-70.0799901915
 20
26.9515040291
 11
-69.423156059
 21
26.9018273215
  0
LINE
  5
646
100
AcDbEntity
  8
RACCORDO
100
AcDbLine
 62
253
  6
CONTINUOUS
 10
-70.0781505773
 20
26.9894603239
 11
-69.4217136923
 21
26.9398091544
  0
LINE
  5
647
100
AcDbEntity
  8
RACCORDO
100
AcDbLine
 62
253
  6
CONTINUOUS
 10
-69.423156059
 20
26.9018273215
 11
-68.7713281924
 21
26.8493281179
  0
LINE
  5
648
100
AcDbEntity
  8
RACCORDO
100
AcDbLine
 62
253
  6
CONTINUOUS
 10
-69.4217136923
 20
26.9398091544
 11
-68.7702757441
 21
26.8873344742
  0
LINE
  5
649
100
AcDbEntity
  8
RACCORDO
100
AcDbLine
 62
253
  6
CONTINUOUS
 10
-68.7713281924
 20
26.8493281179
 11
-68.1257152943
 21
26.7941037651
  0
LINE
  5
64A
100
AcDbEntity
  8
RACCORDO
100
AcDbLine
 62
253
  6
CONTINUOUS
 10
-68.7702757441
 20
26.8873344742
 11
-68.1250439825
 21
26.8321335315
  0
LINE
  5
64B
100
AcDbEntity
  8
RACCORDO
100
AcDbLine
 62
253
  6
CONTINUOUS
 10
-68.1257152943
 20
26.7941037651
 11
-67.4875195449
 21
26.7362571702
  0
LINE
  5
64C
100
AcDbEntity
  8
RACCORDO
100
AcDbLine
 62
253
  6
CONTINUOUS
 10
-68.1250439825
 20
26.8321335315
 11
-67.4872139242
 21
26.7743086573
  0
LINE
  5
64D
100
AcDbEntity
  8
RACCORDO
100
AcDbLine
 62
253
  6
CONTINUOUS
 10
-67.4875195449
 20
26.7362571702
 11
-66.8579234366
 21
26.6758956677
  0
LINE
  5
64E
100
AcDbEntity
  8
RACCORDO
100
AcDbLine
 62
253
  6
CONTINUOUS
 10
-67.4872139242
 20
26.7743086573
 11
-66.8579649945
 21
26.7139668621
  0
LWPOLYLINE
  5
64F
100
AcDbEntity
  8
RACCORDO
100
AcDbPolyline
 62
253
  6
CONTINUOUS
 90
8
 70
0
 10
-66.6982192405
 20
26.6637813657
 10
-66.7144749797
 20
26.6660926509
 10
-66.7332809428
 20
26.6682442495
 10
-66.7544418634
 20
26.6702138211
 10
-66.7777380226
 20
26.6719809153
 10
-66.802927531
 20
26.6735271842
 10
-66.8297488402
 20
26.6748365726
 10
-66.8579234583
 20
26.675895485
  0
LWPOLYLINE
  5
650
100
AcDbEntity
  8
RACCORDO
100
AcDbPolyline
 62
253
  6
CONTINUOUS
 90
10
 70
0
 10
-71.0512432667
 20
27.1133779936
 10
-71.058368795
 20
27.115654372
 10
-71.0674663915
 20
27.1179378262
 10
-71.0784020907
 20
27.12019476
 10
-71.0910148607
 20
27.1223919679
 10
-71.1051189746
 20
27.1244971236
 10
-71.1205067448
 20
27.1264792563
 10
-71.1369515819
 20
27.1283092069
 10
-71.154211331
 20
27.129960057
 10
-71.1720318374
 20
27.1314075258
  0
LINE
  5
651
100
AcDbEntity
  8
RACCORDO
100
AcDbLine
 62
253
  6
CONTINUOUS
 10
-71.0512432695
 20
27.1133779956
 11
-70.7406142354
 21
26.9982662786
  0
LINE
  5
652
100
AcDbEntity
  8
RACCORDO
100
AcDbLine
 62
253
  6
CONTINUOUS
 10
-72.8233961245
 20
45.463967953
 11
-72.8304066578
 21
45.4761492242
  0
LWPOLYLINE
  5
653
100
AcDbEntity
  8
DRAFT
100
AcDbPolyline
 62
7
  6
CONTINUOUS
 90
10
 70
0
 10
-71.0275259132
 20
46.7788215668
 10
-70.5066430552
 20
45.8729046611
 10
-70.4895418267
 20
45.8422910197
 10
-70.4725173221
 20
45.8111683294
 10
-70.4555692524
 20
45.7795365049
 10
-70.4386973908
 20
45.747395546
 10
-70.4219015725
 20
45.7147455373
 10
-70.4051815623
 20
45.6815864775
 10
-70.3885370545
 20
45.6479182788
 10
-70.3719677726
 20
45.6137408958
  0
LINE
  5
654
100
AcDbEntity
  8
RACCORDO
100
AcDbLine
 62
253
  6
CONTINUOUS
 10
-73.2275481429
 20
46.1674710323
 11
-73.3318721856
 21
46.3501859735
  0
LWPOLYLINE
  5
655
100
AcDbEntity
  8
RACCORDO
100
AcDbPolyline
 62
253
  6
CONTINUOUS
 90
3
 70
0
 10
-73.1187327458
 20
45.9774447546
 10
-73.1582698028
 20
46.0470242485
 10
-73.2275481429
 20
46.1674710323
  0
LWPOLYLINE
  5
656
100
AcDbEntity
  8
RACCORDO
100
AcDbPolyline
 62
7
  6
CONTINUOUS
 90
5
 70
0
 10
-70.2067519484
 20
45.3568426363
 10
-70.2250253862
 20
45.3907394024
 10
-70.2434093434
 20
45.4241191426
 10
-70.2619045714
 20
45.4569802152
 10
-70.4742535529
 20
45.8246867084
  0
LWPOLYLINE
  5
657
100
AcDbEntity
  8
RACCORDO
100
AcDbPolyline
 62
7
  6
CONTINUOUS
 90
3
 70
0
 10
-70.170529694
 20
45.2874956168
 10
-70.1885875041
 20
45.3224287051
 10
-70.2067519484
 20
45.3568426363
  0
LWPOLYLINE
  5
658
100
AcDbEntity
  8
RACCORDO
100
AcDbPolyline
 62
253
  6
CONTINUOUS
 90
5
 70
0
 10
-70.2825739165
 20
45.3915442981
 10
-70.2696313051
 20
45.3664922958
 10
-70.2529949746
 20
45.333647917
 10
-70.2364314879
 20
45.3003022001
 10
-70.2199406203
 20
45.266455112
  0
LINE
  5
659
100
AcDbEntity
  8
RACCORDO
100
AcDbLine
 62
253
  6
CONTINUOUS
 10
-66.6852858219
 20
42.9026854365
 11
-66.6991450447
 21
42.9323299312
  0
LWPOLYLINE
  5
65A
100
AcDbEntity
  8
RACCORDO
100
AcDbPolyline
 62
253
  6
CONTINUOUS
 90
3
 70
0
 10
-70.1202901753
 20
45.1864361978
 10
-70.1225839815
 20
45.1909804453
 10
-70.1319822477
 20
45.2064618476
  0
LWPOLYLINE
  5
65B
100
AcDbEntity
  8
RACCORDO
100
AcDbPolyline
 62
7
  6
CONTINUOUS
 90
4
 70
0
 10
-70.1202802994
 20
45.1864157601
 10
-70.1347294337
 20
45.2160728591
 10
-70.152577163
 20
45.2520431433
 10
-70.170529694
 20
45.2874956168
  0
LWPOLYLINE
  5
65C
100
AcDbEntity
  8
RACCORDO
100
AcDbPolyline
 62
253
  6
CONTINUOUS
 90
8
 70
0
 10
-66.6978422728
 20
-44.6189002019
 10
-66.7139425581
 20
-44.6446556547
 10
-66.7325727977
 20
-44.6686516151
 10
-66.7535415022
 20
-44.6906414427
 10
-66.7766331464
 20
-44.710399117
 10
-66.8016103846
 20
-44.7277215607
 10
-66.8282164902
 20
-44.7424307267
 10
-66.8561779945
 20
-44.7543754282
  0
LWPOLYLINE
  5
65D
100
AcDbEntity
  8
RACCORDO
100
AcDbPolyline
 62
253
  6
CONTINUOUS
 90
7
 70
0
 10
-70.2766733605
 20
-46.4250407234
 10
-70.2830517587
 20
-46.4351044194
 10
-70.2942589683
 20
-46.4493740003
 10
-70.3071184914
 20
-46.4621789966
 10
-70.3214411304
 20
-46.4733311035
 10
-70.3370161476
 20
-46.4826663503
 10
-70.3396685031
 20
-46.4838458425
  0
LINE
  5
65E
100
AcDbEntity
  8
RACCORDO
100
AcDbLine
 62
253
  6
CONTINUOUS
 10
-66.6991468662
 20
-43.872435931
 11
-66.7157821178
 21
-43.9005201984
  0
LINE
  5
65F
100
AcDbEntity
  8
RACCORDO
100
AcDbLine
 62
253
  6
CONTINUOUS
 10
-70.779230069
 20
-32.0224087415
 11
-70.4770123026
 21
-31.8470546045
  0
LWPOLYLINE
  5
660
100
AcDbEntity
  8
RACCORDO
100
AcDbPolyline
 62
253
  6
CONTINUOUS
 90
10
 70
0
 10
-70.7792165011
 20
-32.0225858504
 10
-70.7862106591
 20
-32.026059717
 10
-70.7951818541
 20
-32.0295110492
 10
-70.8059979787
 20
-32.0328890958
 10
-70.8184997589
 20
-32.0361441847
 10
-70.832503099
 20
-32.0392284542
 10
-70.8478017931
 20
-32.0420965578
 10
-70.8641705606
 20
-32.0447063321
 10
-70.8813683643
 20
-32.0470194173
 10
-70.8991419592
 20
-32.0490018225
  0
LINE
  5
661
100
AcDbEntity
  8
RACCORDO
100
AcDbLine
 62
253
  6
CONTINUOUS
 10
-71.0512432695
 20
-28.0557107121
 11
-70.7406142354
 21
-27.9405989951
  0
LWPOLYLINE
  5
662
100
AcDbEntity
  8
RACCORDO
100
AcDbPolyline
 62
253
  6
CONTINUOUS
 90
10
 70
0
 10
-71.0512432687
 20
-28.0557107141
 10
-71.0583687971
 20
-28.0579870898
 10
-71.0674663935
 20
-28.0602705421
 10
-71.0784020927
 20
-28.0625274746
 10
-71.0910148625
 20
-28.0647246817
 10
-71.1051189761
 20
-28.0668298371
 10
-71.120506746
 20
-28.06881197
 10
-71.1369515829
 20
-28.0706419212
 10
-71.1542113316
 20
-28.0722927723
 10
-71.1720318376
 20
-28.0737402421
  0
LWPOLYLINE
  5
663
100
AcDbEntity
  8
RACCORDO
100
AcDbPolyline
 62
253
  6
CONTINUOUS
 90
9
 70
0
 10
-66.6846883524
 20
26.699378284
 10
-66.6982282222
 20
26.7018300867
 10
-66.7144876638
 20
26.7041458977
 10
-66.7332978112
 20
26.7063016654
 10
-66.7544633072
 20
26.7082750007
 10
-66.7777643327
 20
26.710045409
 10
-66.8029588897
 20
26.7115945034
 10
-66.8297853143
 20
26.7129061954
 10
-66.8579649945
 20
26.7139668621
  0
LWPOLYLINE
  5
664
100
AcDbEntity
  8
RACCORDO
100
AcDbPolyline
 62
253
  6
CONTINUOUS
 90
10
 70
0
 10
-70.7792163658
 20
31.0802531321
 10
-70.7862105306
 20
31.0837270339
 10
-70.7951817354
 20
31.0871783904
 10
-70.8059978726
 20
31.0905564512
 10
-70.8184996676
 20
31.093811545
 10
-70.8325030244
 20
31.0968958111
 10
-70.847801736
 20
31.0997639043
 10
-70.8641705216
 20
31.1023736627
 10
-70.881368343
 20
31.1046867282
 10
-70.8991419545
 20
31.1066691114
  0
LINE
  5
665
100
AcDbEntity
  8
RACCORDO
100
AcDbLine
 62
253
  6
CONTINUOUS
 10
-70.7792310193
 20
31.0800637455
 11
-70.4770146035
 21
30.9047179196
  0
LINE
  5
666
100
AcDbEntity
  8
RACCORDO
100
AcDbLine
 62
253
  6
CONTINUOUS
 10
-66.6991469178
 20
42.9301031607
 11
-66.7157821128
 21
42.958187488
  0
LWPOLYLINE
  5
667
100
AcDbEntity
  8
RACCORDO
100
AcDbPolyline
 62
253
  6
CONTINUOUS
 90
7
 70
0
 10
-70.2766735857
 20
45.4827083934
 10
-70.2830519925
 20
45.4927720926
 10
-70.2942592139
 20
45.5070416761
 10
-70.3071187433
 20
45.5198466655
 10
-70.3214413832
 20
45.5309987558
 10
-70.3370163959
 20
45.5403339765
 10
-70.3396686177
 20
45.5415134043
  0
LWPOLYLINE
  5
668
100
AcDbEntity
  8
RACCORDO
100
AcDbPolyline
 62
253
  6
CONTINUOUS
 90
8
 70
0
 10
-66.6978423863
 20
43.6765681264
 10
-66.7139427183
 20
43.7023236757
 10
-66.7325730107
 20
43.7263197158
 10
-66.753541773
 20
43.7483096043
 10
-66.7766334787
 20
43.7680673189
 10
-66.8016107807
 20
43.7853897805
 10
-66.8282169511
 20
43.8000989407
 10
-66.8561785195
 20
43.8120436118
  0
LWPOLYLINE
  5
669
100
AcDbEntity
  8
RACCORDO
100
AcDbPolyline
 62
253
  6
CONTINUOUS
 90
7
 70
0
 10
-70.1319822496
 20
-46.1487945635
 10
-70.1431965681
 20
-46.1630199645
 10
-70.1560618404
 20
-46.1757799363
 10
-70.1703886619
 20
-46.1868866257
 10
-70.1859661106
 20
-46.1961765195
 10
-70.2025648527
 20
-46.2035128518
 10
-70.2199405185
 20
-46.2087876175
  0
LINE
  5
66A
100
AcDbEntity
  8
RACCORDO
100
AcDbLine
 62
253
  6
CONTINUOUS
 10
-66.7157846833
 20
-43.8982928066
 11
-66.7350187687
 21
-43.9245417908
  0
LINE
  5
66B
100
AcDbEntity
  8
RACCORDO
100
AcDbLine
 62
253
  6
CONTINUOUS
 10
-71.083817797
 20
31.1799821525
 11
-73.0554459318
 21
31.1485730962
  0
LWPOLYLINE
  5
66C
100
AcDbEntity
  8
RACCORDO
100
AcDbPolyline
 62
253
  6
CONTINUOUS
 90
10
 70
0
 10
-70.4733861695
 20
30.952249847
 10
-70.0641216896
 20
30.9146184188
 10
-69.65618177
 20
30.8751696745
 10
-69.249856441
 20
30.8339316494
 10
-68.845433718
 20
30.7909335591
 10
-68.443202016
 20
30.7462060479
 10
-68.0434498942
 20
30.6997812045
 10
-67.6464623727
 20
30.6516921608
 10
-67.2525207804
 20
30.6019730319
 10
-66.8619051394
 20
30.5506591869
  0
LWPOLYLINE
  5
66D
100
AcDbEntity
  8
RACCORDO
100
AcDbPolyline
 62
253
  6
CONTINUOUS
 90
3
 70
0
 10
-70.4769759652
 20
30.9047845145
 10
-70.0673436266
 20
30.8658125954
 10
-69.6590202249
 20
30.825268802
  0
LINE
  5
66E
100
AcDbEntity
  8
RACCORDO
100
AcDbLine
 62
253
  6
CONTINUOUS
 10
-70.8991440083
 20
31.1066425966
 11
-71.0879900102
 21
31.1256271317
  0
LWPOLYLINE
  5
66F
100
AcDbEntity
  8
RACCORDO
100
AcDbPolyline
 62
253
  6
CONTINUOUS
 90
7
 70
0
 10
-69.6590202249
 20
30.825268802
 10
-68.8474545626
 20
30.7396804866
 10
-68.444789992
 20
30.6947052195
 10
-68.0446110515
 20
30.6480455477
 10
-67.6472100983
 20
30.5996510846
 10
-67.2528630588
 20
30.5496394311
 10
-66.8618508781
 20
30.4980463088
  0
LWPOLYLINE
  5
670
100
AcDbEntity
  8
RACCORDO
100
AcDbPolyline
 62
253
  6
CONTINUOUS
 90
8
 70
0
 10
-66.699070734
 20
30.4778868194
 10
-66.715677216
 20
30.4817658148
 10
-66.7348793403
 20
30.4853699875
 10
-66.7564731779
 20
30.4886610605
 10
-66.7802293991
 20
30.4916040823
 10
-66.8058957098
 20
30.4941677976
 10
-66.8331995302
 20
30.4963249793
 10
-66.86185089
 20
30.498052718
  0
LINE
  5
671
100
AcDbEntity
  8
RACCORDO
100
AcDbLine
 62
253
  6
CONTINUOUS
 10
-66.7157847391
 20
42.955960024
 11
-66.7350187636
 21
42.9822090815
  0
LWPOLYLINE
  5
672
100
AcDbEntity
  8
RACCORDO
100
AcDbPolyline
 62
253
  6
CONTINUOUS
 90
7
 70
0
 10
-70.1319822477
 20
45.2064618476
 10
-70.1431965666
 20
45.2206872484
 10
-70.1560618393
 20
45.2334472199
 10
-70.1703886611
 20
45.2445539091
 10
-70.1859661102
 20
45.2538438026
 10
-70.2025648527
 20
45.2611801345
 10
-70.2199405188
 20
45.2664548998
  0
LWPOLYLINE
  5
673
100
AcDbEntity
  8
RACCORDO
100
AcDbPolyline
 62
253
  6
CONTINUOUS
 90
4
 70
0
 10
-66.7337341914
 20
-44.4377258674
 10
-66.7550180051
 20
-44.459745066
 10
-66.7784448416
 20
-44.4794822694
 10
-66.8037698818
 20
-44.4967312166
  0
LWPOLYLINE
  5
674
100
AcDbEntity
  8
RACCORDO
100
AcDbPolyline
 62
253
  6
CONTINUOUS
 90
6
 70
0
 10
-66.7350221793
 20
-43.9223136697
 10
-66.7566546419
 20
-43.9442429066
 10
-66.7804518726
 20
-43.9638471608
 10
-66.8061606374
 20
-43.980917817
 10
-66.8335073608
 20
-43.9952732207
 10
-66.8622010372
 20
-44.0067606113
  0
LWPOLYLINE
  5
675
100
AcDbEntity
  8
RACCORDO
100
AcDbPolyline
 62
253
  6
CONTINUOUS
 90
6
 70
0
 10
-66.7350222376
 20
42.9799808751
 10
-66.7566547005
 20
43.0019101003
 10
-66.78045193
 20
43.0215143435
 10
-66.8061606919
 20
43.0385849897
 10
-66.8335074108
 20
43.0529403845
 10
-66.8622010816
 20
43.0644277674
  0
LWPOLYLINE
  5
676
100
AcDbEntity
  8
RACCORDO
100
AcDbPolyline
 62
253
  6
CONTINUOUS
 90
6
 70
0
 10
-66.7337341926
 20
43.4953931493
 10
-66.7550180063
 20
43.5174123476
 10
-66.7784448428
 20
43.5371495507
 10
-66.803769883
 20
43.5543984977
 10
-66.8307284712
 20
43.5689789309
 10
-66.8590388804
 20
43.5807384794
  0
LWPOLYLINE
  5
677
100
AcDbEntity
  8
RACCORDO
100
AcDbPolyline
 62
253
  6
CONTINUOUS
 90
5
 70
0
 10
-66.7566503084
 20
-43.9464718105
 10
-66.7804465593
 20
-43.966076904
 10
-66.8061543097
 20
-43.9831484569
 10
-66.833500008
 20
-43.9975048138
 10
-66.8621926734
 20
-44.0089932113
  0
LWPOLYLINE
  5
678
100
AcDbEntity
  8
RACCORDO
100
AcDbPolyline
 62
253
  6
CONTINUOUS
 90
5
 70
0
 10
-66.7566503032
 20
43.0041391023
 10
-66.7804465542
 20
43.0237441968
 10
-66.8061543049
 20
43.0408157506
 10
-66.8335000037
 20
43.0551721083
 10
-66.8621926696
 20
43.0666605065
  0
LWPOLYLINE
  5
679
100
AcDbEntity
  8
RACCORDO
100
AcDbPolyline
 62
253
  6
CONTINUOUS
 90
3
 70
0
 10
-66.8037561902
 20
-44.4983961733
 10
-66.8307125493
 20
-44.5129774739
 10
-66.8590207545
 20
-44.5247382408
  0
LINE
  5
67A
100
AcDbEntity
  8
RACCORDO
100
AcDbLine
 62
253
  6
CONTINUOUS
 10
-70.1781252513
 20
45.0188336418
 11
-72.2128526619
 21
44.8428261702
  0
LWPOLYLINE
  5
67B
100
AcDbEntity
  8
RACCORDO
100
AcDbPolyline
 62
253
  6
CONTINUOUS
 90
10
 70
0
 10
-69.7085634334
 20
43.7328362223
 10
-69.3864971377
 20
43.6851398306
 10
-69.0655514336
 20
43.6307339741
 10
-68.7458687305
 20
43.569642757
 10
-68.4275905375
 20
43.5018931738
 10
-68.1108584276
 20
43.4275153121
 10
-67.7958139569
 20
43.34654241
 10
-67.4825972395
 20
43.2590105217
 10
-67.171346902
 20
43.1649584302
 10
-66.8622010372
 20
43.0644278948
  0
LWPOLYLINE
  5
67C
100
AcDbEntity
  8
RACCORDO
100
AcDbPolyline
 62
253
  6
CONTINUOUS
 90
10
 70
0
 10
-69.7091754081
 20
43.7354055257
 10
-69.3870177289
 20
43.6876004442
 10
-69.0659876672
 20
43.6331105402
 10
-68.7462277239
 20
43.5719599395
 10
-68.4278816525
 20
43.5041847603
 10
-68.1110889533
 20
43.429805966
 10
-67.7959847995
 20
43.3488294598
 10
-67.4827072369
 20
43.2612822137
 10
-67.1713971329
 20
43.167212145
 10
-66.8621926646
 20
43.0666610386
  0
LWPOLYLINE
  5
67D
100
AcDbEntity
  8
RACCORDO
100
AcDbPolyline
 62
253
  6
CONTINUOUS
 90
10
 70
0
 10
-69.8521216878
 20
44.3113304493
 10
-69.5585964553
 20
44.2676482785
 10
-69.2148436791
 20
44.208546521
 10
-68.8725462758
 20
44.1417205846
 10
-68.5318781209
 20
44.067204351
 10
-68.1930132436
 20
43.9850358226
 10
-67.8561257106
 20
43.8952572131
 10
-67.5213875868
 20
43.7979144525
 10
-67.1889688749
 20
43.6930570541
 10
-66.8590388794
 20
43.5807384821
  0
LWPOLYLINE
  5
67E
100
AcDbEntity
  8
RACCORDO
100
AcDbPolyline
 62
253
  6
CONTINUOUS
 90
8
 70
0
 10
-69.852600771
 20
44.3132606551
 10
-69.5594575384
 20
44.2696358984
 10
-69.2155898751
 20
44.2105122595
 10
-68.8731786594
 20
44.1436591573
 10
-68.5323979426
 20
44.0691105102
 10
-68.1934219294
 20
43.986904363
 10
-67.8564248622
 20
43.8970829774
 10
-67.5215789788
 20
43.7996923365
  0
LINE
  5
67F
100
AcDbEntity
  8
RACCORDO
100
AcDbLine
 62
253
  6
CONTINUOUS
 10
-67.1889688749
 20
-44.6353897706
 11
-66.8590388794
 21
-44.5230711986
  0
LINE
  5
680
100
AcDbEntity
  8
DRAFT
100
AcDbLine
 62
7
  6
CONTINUOUS
 10
-71.0275236856
 20
46.778834389
 11
-73.0632108736
 21
46.6007348372
  0
LINE
  5
681
100
AcDbEntity
  8
RACCORDO
100
AcDbLine
 62
253
  6
CONTINUOUS
 10
-70.3719677726
 20
45.6137408958
 11
-72.4082245811
 21
45.4363757327
  0
LINE
  5
682
100
AcDbEntity
  8
RACCORDO
100
AcDbLine
 62
253
  6
CONTINUOUS
 10
-72.5610248404
 20
45.7253186584
 11
-70.5238212594
 21
45.9030092953
  0
LWPOLYLINE
  5
683
100
AcDbEntity
  8
RACCORDO
100
AcDbPolyline
 62
253
  6
CONTINUOUS
 90
10
 70
0
 10
-69.9202007118
 20
44.586190917
 10
-69.6934939122
 20
44.552312
 10
-69.3317134525
 20
44.4894337397
 10
-68.9715617294
 20
44.4179897765
 10
-68.6132414727
 20
44.3380202508
 10
-68.2569555796
 20
44.249570369
 10
-67.9029069647
 20
44.1526905196
 10
-67.5512960629
 20
44.0474356525
 10
-67.2023207518
 20
43.9338651075
 10
-66.8561780113
 20
43.8120430724
  0
LINE
  5
684
100
AcDbEntity
  8
RACCORDO
100
AcDbLine
 62
253
  6
CONTINUOUS
 10
-70.0256595153
 20
44.674320725
 11
-70.1360876666
 21
44.7002262312
  0
LINE
  5
685
100
AcDbEntity
  8
RACCORDO
100
AcDbLine
 62
253
  6
CONTINUOUS
 10
-70.2199406203
 20
45.266455112
 11
-70.2447036852
 21
45.2723595358
  0
ARC
  5
686
100
AcDbEntity
  8
SUPERFICI
100
AcDbCircle
 62
7
  6
CONTINUOUS
 10
113.2463276351
 20
-15.7076959027
 40
189.2339932178
100
AcDbArc
 50
184.1429775987
 51
189.6057377251
  0
ARC
  5
687
100
AcDbEntity
  8
SUPERFICI
100
AcDbCircle
 62
7
  6
CONTINUOUS
 10
113.2463276351
 20
-15.7076959027
 40
189.2339932178
100
AcDbArc
 50
182.8102783156
 51
183.2822454998
  0
ARC
  5
688
100
AcDbEntity
  8
RACCORDO
100
AcDbCircle
 62
7
  6
CONTINUOUS
 10
-72.6987286458
 20
-31.0882523239
 40
15.4810622256
100
AcDbArc
 50
279.1129944004
 51
292.2106775515
  0
ARC
  5
689
100
AcDbEntity
  8
RACCORDO
100
AcDbCircle
 62
7
  6
CONTINUOUS
 10
-75.1838157708
 20
-24.4828683208
 40
0.6
100
AcDbArc
 50
145.0
 51
182.7559058336
  0
ARC
  5
68A
100
AcDbEntity
  8
RACCORDO
100
AcDbCircle
 62
7
  6
CONTINUOUS
 10
-66.9600848513
 20
-45.1428820847
 40
0.3
100
AcDbArc
 50
292.2106775937
 51
0.0000001117
  0
ARC
  5
68B
100
AcDbEntity
  8
RACCORDO
100
AcDbCircle
 62
7
  6
CONTINUOUS
 10
-73.0370642436
 20
-47.2442101825
 40
0.3000000003
100
AcDbArc
 50
189.6086823742
 51
265.0000003666
  0
ARC
  5
68C
100
AcDbEntity
  8
RACCORDO
100
AcDbCircle
 62
7
  6
CONTINUOUS
 10
-68.4600848513
 20
-3.803346432
 40
0.2
100
AcDbArc
 50
179.9996732792
 51
259.9999999983
  0
ARC
  5
68D
100
AcDbEntity
  8
RACCORDO
100
AcDbCircle
 62
7
  6
CONTINUOUS
 10
-66.8600848513
 20
-4.4916402459
 40
0.2
100
AcDbArc
 50
0.0
 51
80.0
  0
ARC
  5
68E
100
AcDbEntity
  8
COPY_PUBLISH
100
AcDbCircle
 62
7
  6
CONTINUOUS
 10
113.2463276351
 20
14.7653631862
 40
189.2339932178
100
AcDbArc
 50
170.3942634897
 51
177.1897216844
  0
ARC
  5
68F
100
AcDbEntity
  8
RACCORDO
100
AcDbCircle
 62
7
  6
CONTINUOUS
 10
-72.6987286458
 20
30.1459196074
 40
15.4810622256
100
AcDbArc
 50
67.7893224485
 51
80.886997318
  0
ARC
  5
690
100
AcDbEntity
  8
RACCORDO
100
AcDbCircle
 62
7
  6
CONTINUOUS
 10
-75.1838157708
 20
23.5405356043
 40
0.6
100
AcDbArc
 50
177.2440941664
 51
215.0
  0
ARC
  5
691
100
AcDbEntity
  8
RACCORDO
100
AcDbCircle
 62
7
  6
CONTINUOUS
 10
-66.9600848513
 20
44.2005493682
 40
0.3
100
AcDbArc
 50
359.9999998883
 51
67.7893224063
  0
ARC
  5
692
100
AcDbEntity
  8
RACCORDO
100
AcDbCircle
 62
7
  6
CONTINUOUS
 10
-73.0370642436
 20
46.3018774668
 40
0.3000000003
100
AcDbArc
 50
94.9999996332
 51
170.3913176256
  0
ARC
  5
693
100
AcDbEntity
  8
RACCORDO
100
AcDbCircle
 62
7
  6
CONTINUOUS
 10
-66.8600848513
 20
3.5493075294
 40
0.2
100
AcDbArc
 50
280.0
 51
359.9999999525
  0
ARC
  5
694
100
AcDbEntity
  8
RACCORDO
100
AcDbCircle
 62
7
  6
CONTINUOUS
 10
-68.4600848513
 20
2.8610137155
 40
0.2
100
AcDbArc
 50
100.0000000028
 51
179.9995361529
  0
ARC
  5
695
100
AcDbEntity
  8
SUPERFICI
100
AcDbCircle
 62
7
  6
CONTINUOUS
 10
423.6385941927
 20
-0.4711663582
 40
500.0
100
AcDbArc
 50
182.7559067264
 51
182.8102783156
  0
ARC
  5
696
100
AcDbEntity
  8
COPY_PUBLISH
100
AcDbCircle
 62
7
  6
CONTINUOUS
 10
423.6385941927
 20
-0.4711663582
 40
500.0
100
AcDbArc
 50
177.1897216844
 51
177.2440932736
  0
ENDSEC
  0
SECTION
  2
OBJECTS
  0
DICTIONARY
  5
C
100
AcDbDictionary
280
0
281
1
  3
ACAD_GROUP
350
D
  3
ACAD_MLINESTYLE
350
17
  3
ACAD_LAYOUT
350
1A
  3
ACAD_PLOTSETTINGS
350
19
  3
ACAD_PLOTSTYLENAME
350
E
  0
DICTIONARY
  5
D
102
{ACAD_REACTORS
330
C
102
}
100
AcDbDictionary
280
0
281
1
  0
ACDBDICTIONARYWDFLT
  5
E
102
{ACAD_REACTORS
330
C
102
}
100
AcDbDictionary
281
1
  3
Normal
350
F
100
AcDbDictionaryWithDefault
340
F
  0
DICTIONARY
  5
17
102
{ACAD_REACTORS
330
C
102
}
100
AcDbDictionary
280
0
281
1
  3
Standard
350
18
  0
DICTIONARY
  5
19
102
{ACAD_REACTORS
330
C
102
}
100
AcDbDictionary
281
1
  0
DICTIONARY
  5
1A
102
{ACAD_REACTORS
330
C
102
}
100
AcDbDictionary
281
1
  3
Model
350
697
  3
Layout1
350
698
  0
ACDBPLACEHOLDER
  5
F
102
{ACAD_REACTORS
330
E
102
}
  0
MLINESTYLE
  5
18
102
{ACAD_REACTORS
330
17
102
}
100
AcDbMlineStyle
  2
STANDARD
 70
0
  3

 62
256
 51
90.0
 52
90.0
 71
2
 49
0.5
 62
256
  6
BYLAYER
 49
-0.5
 62
256
  6
BYLAYER
  0
LAYOUT
  5
697
102
{ACAD_REACTORS
330
1A
102
}
100
AcDbPlotSettings
  1

  2
none_device
  4
ISO_A4_(297.00_x_210.00_MM)
  6

 40
0.0
 41
0.0
 42
0.0
 43
0.0
 44
297.0
 45
210.0
 46
0.0
 47
0.0
 48
0.0
 49
0.0
140
0.0
141
0.0
142
1.0
143
1.0
 70
1024
 72
1
 73
0
 74
0
  7

 75
0
147
1.0
148
0.0
149
0.0
100
AcDbLayout
  1
Model
 70
0
 71
0
 10
0.0
 20
0.0
 11
297.0
 21
210.0
 12
0.0
 22
0.0
 32
0.0
 14
0.0
 24
0.0
 34
0.0
 15
0.0
 25
0.0
 35
0.0
146
0.0
 13
0.0
 23
0.0
 33
0.0
 16
1.0
 26
0.0
 36
0.0
 17
0.0
 27
1.0
 37
0.0
 76
0
330
212
345
0
346
0
  0
LAYOUT
  5
698
102
{ACAD_REACTORS
330
1A
102
}
100
AcDbPlotSettings
  1

  2
none_device
  4
ISO_A4_(297.00_x_210.00_MM)
  6

 40
0.0
 41
0.0
 42
0.0
 43
0.0
 44
297.0
 45
210.0
 46
0.0
 47
0.0
 48
0.0
 49
0.0
140
0.0
141
0.0
142
1.0
143
1.0
 70
0
 72
1
 73
0
 74
0
  7

 75
0
147
1.0
148
0.0
149
0.0
100
AcDbLayout
  1
Layout1
 70
0
 71
1
 10
0.0
 20
0.0
 11
297.0
 21
210.0
 12
0.0
 22
0.0
 32
0.0
 14
0.0
 24
0.0
 34
0.0
 15
0.0
 25
0.0
 35
0.0
146
0.0
 13
0.0
 23
0.0
 33
0.0
 16
1.0
 26
0.0
 36
0.0
 17
0.0
 27
1.0
 37
0.0
 76
0
330
213
345
0
346
0
  0
ENDSEC
  0
EOF
