  0
SECTION
  2
HEADER
  9
$ACADVER
  1
AC1021
  9
$DWGCODEPAGE
  3
ANSI_1252
  9
$EXTMAX
 10
297.0
 20
210.0
 30
0.0
  9
$EXTMIN
 10
0.0
 20
0.0
 30
0.0
  9
$LIMMIN
 10
0.0
 20
0.0
  9
$LIMMAX
 10
297.0
 20
210.0
  9
$VIEWCTR
 10
148.5
 20
105.0
  9
$VIEWSIZE
 40
210.0
  9
$CLAYER
  8
0
  9
$LTSCALE
 40
16.335
  9
$CELTYPE
  6
BYLAYER
  9
$DIMSCALE
 40
1.0
  9
$DIMASZ
 40
3.0
  9
$DIMEXO
 40
1.85625
  9
$DIMDLI
 40
11.286
  9
$DIMEXE
 40
5.346
  9
$DIMCEN
 40
2.673
  9
$DIMLFAC
 40
1.0
  9
$DIMBLK
  1
_FILLED
  9
$DIMTXT
 40
3.0
  9
$DIMTOL
 70
1
  9
$DIMLIM
 70
0
  9
$DIMTFAC
 40
1.0
  9
$DIMTP
 40
0.01
  9
$DIMTM
 40
0.01
  9
$PDMODE
 70
3
  9
$PDSIZE
 40
3.0
  9
$HANDSEED
  5
63A
  9
$TILEMODE
 70
1
  9
$MEASUREMENT
 70
1
  9
$INSUNITS
 70
4
  0
ENDSEC
  0
SECTION
  2
CLASSES
  0
CLASS
  1
ACDBDICTIONARYWDFLT
  2
AcDbDictionaryWithDefault
  3
AutoCAD 2000
 90
0
 91
1
280
0
281
0
  0
CLASS
  1
ACDBPLACEHOLDER
  2
AcDbPlaceHolder
  3
AutoCAD 2000
 90
0
 91
1
280
0
281
0
  0
CLASS
  1
LAYOUT
  2
AcDbLayout
  3
AutoCAD 2000
 90
0
 91
0
280
0
281
0
  0
ENDSEC
  0
SECTION
  2
TABLES
  0
TABLE
  2
VPORT
  5
8
100
AcDbSymbolTable
 70
2
  0
VPORT
  5
1F4
100
AcDbSymbolTableRecord
100
AcDbViewportTableRecord
  2
*ACTIVE
 70
0
 10
0.0
 20
0.0
 11
1.0
 21
1.0
 12
148.5
 22
105.0
 13
0.0
 23
0.0
 14
1.0
 24
1.0
 15
0.0
 25
0.0
 16
0.0
 26
0.0
 36
1.0
 17
0.0
 27
0.0
 37
0.0
 40
210.0
 41
1.4142857143
 42
50.0
 43
0.0
 44
0.0
 50
0.0
 51
0.0
 71
0
 72
100
 73
1
 74
1
 75
0
 76
0
 77
0
 78
0
  0
ENDTAB
  0
TABLE
  2
LTYPE
  5
5
100
AcDbSymbolTable
 70
6
  0
LTYPE
  5
14
100
AcDbSymbolTableRecord
100
AcDbLinetypeTableRecord
  2
BYBLOCK
 70
0
  3

 72
65
 73
0
 40
0.0
  0
LTYPE
  5
15
100
AcDbSymbolTableRecord
100
AcDbLinetypeTableRecord
  2
BYLAYER
 70
0
  3

 72
65
 73
0
 40
0.0
  0
LTYPE
  5
16
100
AcDbSymbolTableRecord
100
AcDbLinetypeTableRecord
  2
CONTINUOUS
 70
64
  3
Solid line
 72
65
 73
0
 40
0.0
  0
LTYPE
  5
1F5
100
AcDbSymbolTableRecord
100
AcDbLinetypeTableRecord
  2
CENTER
 70
64
  3
____ _ ____ _ ____ _ ____ _ ____ _ ____ _ ____
 72
65
 73
4
 40
0.6
 49
0.375
 74
0
 49
-0.075
 74
0
 49
0.075
 74
0
 49
-0.075
 74
0
  0
LTYPE
  5
1F6
100
AcDbSymbolTableRecord
100
AcDbLinetypeTableRecord
  2
HIDDEN
 70
64
  3
- - - - - - - - - - - - - - - - - - - -
 72
65
 73
2
 40
0.2
 49
0.1
 74
0
 49
-0.1
 74
0
  0
LTYPE
  5
1F7
100
AcDbSymbolTableRecord
100
AcDbLinetypeTableRecord
  2
PHANTOM
 70
64
  3
_____ _ _ _____ _ _ _____ _ _ _____
 72
65
 73
6
 40
0.8
 49
0.45
 74
0
 49
-0.05
 74
0
 49
0.1
 74
0
 49
-0.05
 74
0
 49
0.1
 74
0
 49
-0.05
 74
0
  0
LTYPE
  5
1F8
100
AcDbSymbolTableRecord
100
AcDbLinetypeTableRecord
  2
DOT
 70
64
  3
. . . . . . . . . . . . . . . . . . . .
 72
65
 73
2
 40
0.2
 49
0.1
 74
0
 49
-0.1
 74
0
  0
LTYPE
  5
1F9
100
AcDbSymbolTableRecord
100
AcDbLinetypeTableRecord
  2
DASHED
 70
64
  3
- - - - - - - - - - - - - - - - - - - -
 72
65
 73
2
 40
0.2
 49
0.1
 74
0
 49
-0.1
 74
0
  0
ENDTAB
  0
TABLE
  2
LAYER
  5
2
100
AcDbSymbolTable
 70
36
  0
LAYER
  5
10
100
AcDbSymbolTableRecord
100
AcDbLayerTableRecord
  2
0
 70
0
 62
7
  6
CONTINUOUS
370
-3
390
F
  0
LAYER
  5
1FA
100
AcDbSymbolTableRecord
100
AcDbLayerTableRecord
  2
DEFAULT_1
 70
0
 62
7
  6
CENTER
370
-3
390
F
  0
LAYER
  5
1FB
100
AcDbSymbolTableRecord
100
AcDbLayerTableRecord
  2
DEFAULT_2
 70
0
 62
7
  6
HIDDEN
370
-3
390
F
  0
LAYER
  5
1FC
100
AcDbSymbolTableRecord
100
AcDbLayerTableRecord
  2
DEFAULT_3
 70
0
 62
7
  6
PHANTOM
370
-3
390
F
  0
LAYER
  5
1FD
100
AcDbSymbolTableRecord
100
AcDbLayerTableRecord
  2
ASSI
 70
0
 62
7
  6
CONTINUOUS
370
-3
390
F
  0
LAYER
  5
1FE
100
AcDbSymbolTableRecord
100
AcDbLayerTableRecord
  2
COORDINATE
 70
0
 62
7
  6
CONTINUOUS
370
-3
390
F
  0
LAYER
  5
1FF
100
AcDbSymbolTableRecord
100
AcDbLayerTableRecord
  2
COPY_PUBLISH
 70
0
 62
7
  6
CONTINUOUS
370
-3
390
F
  0
LAYER
  5
200
100
AcDbSymbolTableRecord
100
AcDbLayerTableRecord
  2
COSMETIC
 70
0
 62
7
  6
CONTINUOUS
370
-3
390
F
  0
LAYER
  5
201
100
AcDbSymbolTableRecord
100
AcDbLayerTableRecord
  2
COSMETICI
 70
0
 62
7
  6
CONTINUOUS
370
-3
390
F
  0
LAYER
  5
202
100
AcDbSymbolTableRecord
100
AcDbLayerTableRecord
  2
CURVE
 70
0
 62
7
  6
CONTINUOUS
370
-3
390
F
  0
LAYER
  5
203
100
AcDbSymbolTableRecord
100
AcDbLayerTableRecord
  2
DRAFT
 70
0
 62
7
  6
CONTINUOUS
370
-3
390
F
  0
LAYER
  5
204
100
AcDbSymbolTableRecord
100
AcDbLayerTableRecord
  2
IMPORT_IGES
 70
0
 62
7
  6
CONTINUOUS
370
-3
390
F
  0
LAYER
  5
205
100
AcDbSymbolTableRecord
100
AcDbLayerTableRecord
  2
INTF_1
 70
0
 62
7
  6
CONTINUOUS
370
-3
390
F
  0
LAYER
  5
206
100
AcDbSymbolTableRecord
100
AcDbLayerTableRecord
  2
NOTE
 70
0
 62
7
  6
CONTINUOUS
370
-3
390
F
  0
LAYER
  5
207
100
AcDbSymbolTableRecord
100
AcDbLayerTableRecord
  2
PIANI
 70
0
 62
7
  6
CONTINUOUS
370
-3
390
F
  0
LAYER
  5
208
100
AcDbSymbolTableRecord
100
AcDbLayerTableRecord
  2
PUNTI
 70
0
 62
7
  6
CONTINUOUS
370
-3
390
F
  0
LAYER
  5
209
100
AcDbSymbolTableRecord
100
AcDbLayerTableRecord
  2
RACCORDO
 70
0
 62
7
  6
CONTINUOUS
370
-3
390
F
  0
LAYER
  5
20A
100
AcDbSymbolTableRecord
100
AcDbLayerTableRecord
  2
SIMBOLI
 70
0
 62
7
  6
CONTINUOUS
370
-3
390
F
  0
LAYER
  5
20B
100
AcDbSymbolTableRecord
100
AcDbLayerTableRecord
  2
SMUSSO
 70
0
 62
7
  6
CONTINUOUS
370
-3
390
F
  0
LAYER
  5
20C
100
AcDbSymbolTableRecord
100
AcDbLayerTableRecord
  2
SNAPLINE
 70
0
 62
7
  6
CONTINUOUS
370
-3
390
F
  0
LAYER
  5
20D
100
AcDbSymbolTableRecord
100
AcDbLayerTableRecord
  2
SUPERFICI
 70
0
 62
7
  6
CONTINUOUS
370
-3
390
F
  0
LAYER
  5
20E
100
AcDbSymbolTableRecord
100
AcDbLayerTableRecord
  2
TRASH
 70
0
 62
7
  6
CONTINUOUS
370
-3
390
F
  0
LAYER
  5
20F
100
AcDbSymbolTableRecord
100
AcDbLayerTableRecord
  2
XSEC_DATUMS
 70
0
 62
7
  6
CONTINUOUS
370
-3
390
F
  0
ENDTAB
  0
TABLE
  2
STYLE
  5
3
100
AcDbSymbolTable
 70
1
  0
STYLE
  5
11
100
AcDbSymbolTableRecord
100
AcDbTextStyleTableRecord
  2
STANDARD
 70
0
 40
0.0
 41
0.8
 50
0.0
 71
0
 42
0.2
  3
txt
  4

  0
STYLE
  5
210
100
AcDbSymbolTableRecord
100
AcDbTextStyleTableRecord
  2
TEXTSTYLE_1
 70
0
 40
0.0
 41
0.8
 50
0.0
 71
0
 42
0.2
  3
gdt
  4

  0
ENDTAB
  0
TABLE
  2
VIEW
  5
6
100
AcDbSymbolTable
 70
0
  0
ENDTAB
  0
TABLE
  2
UCS
  5
7
100
AcDbSymbolTable
 70
0
  0
ENDTAB
  0
TABLE
  2
APPID
  5
9
100
AcDbSymbolTable
 70
1
  0
APPID
  5
211
100
AcDbSymbolTableRecord
100
AcDbRegAppTableRecord
  2
ACAD
 70
0
  0
ENDTAB
  0
TABLE
  2
BLOCK_RECORD
  5
1
100
AcDbSymbolTable
 70
0
  0
BLOCK_RECORD
  5
212
100
AcDbSymbolTableRecord
100
AcDbBlockTableRecord
  2
*Model_Space
  0
BLOCK_RECORD
  5
213
100
AcDbSymbolTableRecord
100
AcDbBlockTableRecord
  2
*Paper_Space
  0
BLOCK_RECORD
  5
214
100
AcDbSymbolTableRecord
100
AcDbBlockTableRecord
  2
_FILLED
  0
BLOCK_RECORD
  5
215
100
AcDbSymbolTableRecord
100
AcDbBlockTableRecord
  2
*D0
  0
BLOCK_RECORD
  5
216
100
AcDbSymbolTableRecord
100
AcDbBlockTableRecord
  2
*D1
  0
BLOCK_RECORD
  5
217
100
AcDbSymbolTableRecord
100
AcDbBlockTableRecord
  2
*D2
  0
BLOCK_RECORD
  5
218
100
AcDbSymbolTableRecord
100
AcDbBlockTableRecord
  2
*D3
  0
BLOCK_RECORD
  5
219
100
AcDbSymbolTableRecord
100
AcDbBlockTableRecord
  2
*D4
  0
ENDTAB
  0
TABLE
  2
DIMSTYLE
  5
A
100
AcDbSymbolTable
 70
1
100
AcDbDimStyleTable
 71
0
  0
DIMSTYLE
105
21A
100
AcDbSymbolTableRecord
100
AcDbDimStyleTableRecord
  2
STANDARD
 70
0
  3

  4

 40
1.0
 41
3.0
 42
0.0625
 43
0.38
 44
0.18
 45
0.0
 46
0.0
 47
0.01
 48
0.01
140
3.0
141
0.09
142
0.0
143
25.4
144
1.0
145
0.0
146
1.0
147
0.09
 71
1.0
 72
0.0
 73
0
 74
0
 75
0
 76
0
 77
1
 78
8
170
0
171
2
172
0
173
0
174
0
175
0
176
0
177
0
178
0
270
2
271
2
272
2
273
2
274
2
275
0
280
0
281
0
282
0
283
1
284
8
285
0
286
0
287
3
288
0
340
11
341
214
342
214
343
214
344
214
  0
DIMSTYLE
105
21B
100
AcDbSymbolTableRecord
100
AcDbDimStyleTableRecord
  2
DIMSTYLE_1
 70
0
  3

  4

 40
1.0
 41
3.0
 42
0.0625
 43
0.38
 44
0.18
 45
0.0
 46
0.0
 47
0.0
 48
0.0
140
3.0
141
0.09
142
0.0
143
25.4
144
1.0
145
0.0
146
1.0
147
0.09
 71
0.0
 72
0.0
 73
0
 74
0
 75
0
 76
0
 77
1
 78
8
170
0
171
2
172
0
173
0
174
0
175
0
176
0
177
0
178
0
270
2
271
2
272
2
273
2
274
2
275
0
280
0
281
0
282
0
283
1
284
8
285
0
286
0
287
3
288
0
340
11
341
214
342
214
343
214
344
214
  0
DIMSTYLE
105
21C
100
AcDbSymbolTableRecord
100
AcDbDimStyleTableRecord
  2
DIMSTYLE_2
 70
0
  3

  4

 40
1.0
 41
3.0
 42
0.0625
 43
0.38
 44
0.18
 45
0.0
 46
0.0
 47
0.0
 48
0.0
140
3.0
141
0.09
142
0.0
143
25.4
144
1.0
145
0.0
146
1.0
147
0.09
 71
0.0
 72
0.0
 73
0
 74
0
 75
0
 76
0
 77
1
 78
8
170
0
171
2
172
0
173
0
174
0
175
0
176
0
177
0
178
0
270
2
271
1
272
1
273
2
274
2
275
0
280
0
281
0
282
0
283
1
284
8
285
0
286
0
287
3
288
0
340
11
341
214
342
214
343
214
344
214
  0
ENDTAB
  0
ENDSEC
  0
SECTION
  2
BLOCKS
  0
BLOCK
  5
20
100
AcDbEntity
  8
0
100
AcDbBlockBegin
  2
*Model_Space
 70
0
 10
0.0
 20
0.0
 30
0.0
  3
*Model_Space
  1

  0
ENDBLK
  5
21
100
AcDbEntity
  8
0
100
AcDbBlockEnd
  0
BLOCK
  5
1C
100
AcDbEntity
  8
0
100
AcDbBlockBegin
  2
*Paper_Space
 70
0
 10
0.0
 20
0.0
 30
0.0
  3
*Paper_Space
  1

  0
ENDBLK
  5
1D
100
AcDbEntity
  8
0
100
AcDbBlockEnd
  0
BLOCK
  5
21D
100
AcDbEntity
  8
0
100
AcDbBlockBegin
  2
_FILLED
 70
64
 10
0.0
 20
0.0
  3
_FILLED
  1

  0
SOLID
  5
21E
100
AcDbEntity
  8
0
  6
BYBLOCK
 62
0
100
AcDbTrace
 10
0.0
 20
0.0
 11
-1.0
 21
0.3166666667
 12
-1.0
 22
-0.3166666667
 13
-1.0
 23
-0.3166666667
  0
ENDBLK
  5
21F
100
AcDbEntity
  8
0
  6
BYBLOCK
 62
0
100
AcDbBlockEnd
  0
BLOCK
  5
220
100
AcDbEntity
  8
0
100
AcDbBlockBegin
 62
7
  6
CONTINUOUS
  2
*D0
 70
65
 10
0.0
 20
0.0
  3
*D0
  1

  0
MTEXT
  5
221
100
AcDbEntity
  8
0
100
AcDbMText
 62
7
  6
CONTINUOUS
  7
STANDARD
 71
2
 72
1
 10
6.6685440773
 20
71.3235931869
 30
0.0
 11
1.0
 21
0.0
 31
0.0
 44
0.9
  1
122
 40
3.0
 41
6.4285714286
  0
LINE
  5
222
100
AcDbEntity
  8
0
100
AcDbLine
 62
7
  6
CONTINUOUS
 10
-54.3314533872
 20
7.0419921875
 11
-54.3314533872
 21
69.0735931869
  0
LINE
  5
223
100
AcDbEntity
  8
0
100
AcDbLine
 62
7
  6
CONTINUOUS
 10
67.6685415418
 20
7.0419921875
 11
67.6685415418
 21
69.0735931869
  0
LINE
  5
224
100
AcDbEntity
  8
0
100
AcDbLine
 62
7
  6
CONTINUOUS
 10
-54.3314533872
 20
67.5735931869
 11
6.6685440773
 21
67.5735931869
  0
LINE
  5
225
100
AcDbEntity
  8
0
100
AcDbLine
 62
7
  6
CONTINUOUS
 10
67.6685415418
 20
67.5735931869
 11
6.6685440773
 21
67.5735931869
  0
INSERT
  5
226
100
AcDbEntity
  8
0
100
AcDbBlockReference
 62
7
  6
CONTINUOUS
  2
_FILLED
 10
-54.3314533872
 20
67.5735931869
 41
3.0
 42
3.0
 43
3.0
 50
180.0
  0
INSERT
  5
227
100
AcDbEntity
  8
0
100
AcDbBlockReference
 62
7
  6
CONTINUOUS
  2
_FILLED
 10
67.6685415418
 20
67.5735931869
 41
3.0
 42
3.0
 43
3.0
  0
ENDBLK
  5
228
100
AcDbEntity
  8
0
  6
BYBLOCK
 62
0
100
AcDbBlockEnd
  0
BLOCK
  5
229
100
AcDbEntity
  8
0
100
AcDbBlockBegin
 62
7
  6
CONTINUOUS
  2
*D1
 70
65
 10
0.0
 20
0.0
  3
*D1
  1

  0
MTEXT
  5
22A
100
AcDbEntity
  8
0
100
AcDbMText
 62
7
  6
CONTINUOUS
  7
STANDARD
 71
2
 72
1
 10
85.5814559227
 20
-0.4264068131
 30
0.0
 11
0.0
 21
1.0
 31
0.0
 44
0.9
  1
90
 40
3.0
 41
4.7142857143
  0
LINE
  5
22B
100
AcDbEntity
  8
0
100
AcDbLine
 62
7
  6
CONTINUOUS
 10
11.0465494792
 20
44.5735931869
 11
90.8314559227
 21
44.5735931869
  0
LINE
  5
22C
100
AcDbEntity
  8
0
100
AcDbLine
 62
7
  6
CONTINUOUS
 10
11.0465494792
 20
-45.4264068131
 11
90.8314559227
 21
-45.4264068131
  0
LINE
  5
22D
100
AcDbEntity
  8
0
100
AcDbLine
 62
7
  6
CONTINUOUS
 10
89.3314559227
 20
44.5735931869
 11
89.3314559227
 21
-0.4264068131
  0
LINE
  5
22E
100
AcDbEntity
  8
0
100
AcDbLine
 62
7
  6
CONTINUOUS
 10
89.3314559227
 20
-45.4264068131
 11
89.3314559227
 21
-0.4264068131
  0
INSERT
  5
22F
100
AcDbEntity
  8
0
100
AcDbBlockReference
 62
7
  6
CONTINUOUS
  2
_FILLED
 10
89.3314559227
 20
44.5735931869
 41
3.0
 42
3.0
 43
3.0
 50
90.0
  0
INSERT
  5
230
100
AcDbEntity
  8
0
100
AcDbBlockReference
 62
7
  6
CONTINUOUS
  2
_FILLED
 10
89.3314559227
 20
-45.4264068131
 41
3.0
 42
3.0
 43
3.0
 50
270.0
  0
ENDBLK
  5
231
100
AcDbEntity
  8
0
  6
BYBLOCK
 62
0
100
AcDbBlockEnd
  0
BLOCK
  5
232
100
AcDbEntity
  8
0
100
AcDbBlockBegin
 62
7
  6
CONTINUOUS
  2
*D2
 70
65
 10
0.0
 20
0.0
  3
*D2
  1

  0
MTEXT
  5
233
100
AcDbEntity
  8
0
100
AcDbMText
 62
7
  6
CONTINUOUS
  7
STANDARD
 71
3
 72
1
 10
-97.5651190097
 20
61.3235931869
 30
0.0
 11
1.0
 21
0.0
 31
0.0
 44
0.9
  1
9,1
 40
3.0
 41
5.7857142857
  0
LINE
  5
234
100
AcDbEntity
  8
0
100
AcDbLine
 62
7
  6
CONTINUOUS
 10
-83.2242921692
 20
40.1671200268
 11
-83.2242921692
 21
59.0735931869
  0
LINE
  5
235
100
AcDbEntity
  8
0
100
AcDbLine
 62
7
  6
CONTINUOUS
 10
-92.3613935467
 20
0.0304941283
 11
-92.3613935467
 21
59.0735931869
  0
LINE
  5
236
100
AcDbEntity
  8
0
100
AcDbLine
 62
7
  6
CONTINUOUS
 10
-83.2242921692
 20
57.5735931869
 11
-79.2242921692
 21
57.5735931869
  0
LINE
  5
237
100
AcDbEntity
  8
0
100
AcDbLine
 62
7
  6
CONTINUOUS
 10
-79.2242921692
 20
57.5735931869
 11
-87.792842858
 21
57.5735931869
  0
LINE
  5
238
100
AcDbEntity
  8
0
100
AcDbLine
 62
7
  6
CONTINUOUS
 10
-92.3613935467
 20
57.5735931869
 11
-103.3508332955
 21
57.5735931869
  0
LINE
  5
239
100
AcDbEntity
  8
0
100
AcDbLine
 62
7
  6
CONTINUOUS
 10
-103.3508332955
 20
57.5735931869
 11
-87.792842858
 21
57.5735931869
  0
INSERT
  5
23A
100
AcDbEntity
  8
0
100
AcDbBlockReference
 62
7
  6
CONTINUOUS
  2
_FILLED
 10
-83.2242921692
 20
57.5735931869
 41
3.0
 42
3.0
 43
3.0
 50
180.0
  0
INSERT
  5
23B
100
AcDbEntity
  8
0
100
AcDbBlockReference
 62
7
  6
CONTINUOUS
  2
_FILLED
 10
-92.3613935467
 20
57.5735931869
 41
3.0
 42
3.0
 43
3.0
  0
ENDBLK
  5
23C
100
AcDbEntity
  8
0
  6
BYBLOCK
 62
0
100
AcDbBlockEnd
  0
BLOCK
  5
23D
100
AcDbEntity
  8
0
100
AcDbBlockBegin
 62
7
  6
CONTINUOUS
  2
*D3
 70
65
 10
0.0
 20
0.0
  3
*D3
  1

  0
MTEXT
  5
23E
100
AcDbEntity
  8
0
100
AcDbMText
 62
7
  6
CONTINUOUS
  7
STANDARD
 71
2
 72
1
 10
75.5814559227
 20
-0.4264068131
 30
0.0
 11
0.0
 21
1.0
 31
0.0
 44
0.9
  1
45
 40
3.0
 41
4.5
  0
LINE
  5
23F
100
AcDbEntity
  8
0
100
AcDbLine
 62
7
  6
CONTINUOUS
 10
28.9685440773
 20
22.0898432905
 11
80.8314559227
 21
22.0898432905
  0
LINE
  5
240
100
AcDbEntity
  8
0
100
AcDbLine
 62
7
  6
CONTINUOUS
 10
28.9685440773
 20
-22.9426569166
 11
80.8314559227
 21
-22.9426569166
  0
LINE
  5
241
100
AcDbEntity
  8
0
100
AcDbLine
 62
7
  6
CONTINUOUS
 10
79.3314559227
 20
22.0898432905
 11
79.3314559227
 21
-0.4264068131
  0
LINE
  5
242
100
AcDbEntity
  8
0
100
AcDbLine
 62
7
  6
CONTINUOUS
 10
79.3314559227
 20
-22.9426569166
 11
79.3314559227
 21
-0.4264068131
  0
INSERT
  5
243
100
AcDbEntity
  8
0
100
AcDbBlockReference
 62
7
  6
CONTINUOUS
  2
_FILLED
 10
79.3314559227
 20
22.0898432905
 41
3.0
 42
3.0
 43
3.0
 50
90.0
  0
INSERT
  5
244
100
AcDbEntity
  8
0
100
AcDbBlockReference
 62
7
  6
CONTINUOUS
  2
_FILLED
 10
79.3314559227
 20
-22.9426569166
 41
3.0
 42
3.0
 43
3.0
 50
270.0
  0
ENDBLK
  5
245
100
AcDbEntity
  8
0
  6
BYBLOCK
 62
0
100
AcDbBlockEnd
  0
BLOCK
  5
246
100
AcDbEntity
  8
0
100
AcDbBlockBegin
 62
7
  6
CONTINUOUS
  2
*D4
 70
65
 10
0.0
 20
0.0
  3
*D4
  1

  0
MTEXT
  5
247
100
AcDbEntity
  8
0
100
AcDbMText
 62
7
  6
CONTINUOUS
  7
STANDARD
 71
2
 72
1
 10
6.6685440773
 20
61.3235931869
 30
0.0
 11
1.0
 21
0.0
 31
0.0
 44
0.9
  1
45,2
 40
3.0
 41
8.5714285714
  0
LINE
  5
248
100
AcDbEntity
  8
0
100
AcDbLine
 62
7
  6
CONTINUOUS
 10
29.2857745691
 20
21.7735931869
 11
29.2857745691
 21
59.0735931869
  0
LINE
  5
249
100
AcDbEntity
  8
0
100
AcDbLine
 62
7
  6
CONTINUOUS
 10
-15.9486864144
 20
21.7735931869
 11
-15.9486864144
 21
59.0735931869
  0
LINE
  5
24A
100
AcDbEntity
  8
0
100
AcDbLine
 62
7
  6
CONTINUOUS
 10
29.2857745691
 20
57.5735931869
 11
6.6685440773
 21
57.5735931869
  0
LINE
  5
24B
100
AcDbEntity
  8
0
100
AcDbLine
 62
7
  6
CONTINUOUS
 10
-15.9486864144
 20
57.5735931869
 11
6.6685440773
 21
57.5735931869
  0
INSERT
  5
24C
100
AcDbEntity
  8
0
100
AcDbBlockReference
 62
7
  6
CONTINUOUS
  2
_FILLED
 10
29.2857745691
 20
57.5735931869
 41
3.0
 42
3.0
 43
3.0
  0
INSERT
  5
24D
100
AcDbEntity
  8
0
100
AcDbBlockReference
 62
7
  6
CONTINUOUS
  2
_FILLED
 10
-15.9486864144
 20
57.5735931869
 41
3.0
 42
3.0
 43
3.0
 50
180.0
  0
ENDBLK
  5
24E
100
AcDbEntity
  8
0
  6
BYBLOCK
 62
0
100
AcDbBlockEnd
  0
ENDSEC
  0
SECTION
  2
ENTITIES
  0
DIMENSION
  5
24F
100
AcDbEntity
  8
0
100
AcDbDimension
 62
7
  6
CONTINUOUS
  2
*D0
 10
67.6685415418
 20
67.5735931869
 11
3.4542583631
 21
69.8235931869
 70
160
 71
2
 42
121.999994929
  3
DIMSTYLE_1
100
AcDbAlignedDimension
 13
-54.3314533872
 23
7.0419921875
 14
67.6685415418
 24
7.0419921875
100
AcDbRotatedDimension
  0
DIMENSION
  5
250
100
AcDbEntity
  8
0
100
AcDbDimension
 62
7
  6
CONTINUOUS
  2
*D1
 10
89.3314559227
 20
-45.4264068131
 11
88.1376294464
 21
-2.533684663
 70
160
 71
2
 42
90.0
  3
DIMSTYLE_1
100
AcDbAlignedDimension
 13
11.0465494792
 23
44.5735931869
 14
11.0465494792
 24
-45.4264068131
 50
270.0
100
AcDbRotatedDimension
  0
DIMENSION
  5
251
100
AcDbEntity
  8
0
100
AcDbDimension
 62
7
  6
CONTINUOUS
  2
*D2
 10
-92.3613935467
 20
57.5735931869
 11
-106.2436904383
 21
59.8235931869
 70
160
 71
3
 42
9.1371013775
  3
DIMSTYLE_2
100
AcDbAlignedDimension
 13
-83.2242921692
 23
40.1671200268
 14
-92.3613935467
 24
0.0304941283
 50
180.0
100
AcDbRotatedDimension
  0
DIMENSION
  5
252
100
AcDbEntity
  8
0
100
AcDbDimension
 62
7
  6
CONTINUOUS
  2
*D3
 10
79.3314559227
 20
-22.9426569166
 11
78.089621559
 21
-2.4378993062
 70
160
 71
2
 42
45.0325002071
  3
DIMSTYLE_2
100
AcDbAlignedDimension
 13
28.9685440773
 23
22.0898432905
 14
28.9685440773
 24
-22.9426569166
 50
270.0
100
AcDbRotatedDimension
  0
DIMENSION
  5
253
100
AcDbEntity
  8
0
100
AcDbDimension
 62
7
  6
CONTINUOUS
  2
*D4
 10
-15.9486864144
 20
57.5735931869
 11
2.3828297916
 21
59.8235931869
 70
160
 71
2
 42
45.2344609835
  3
DIMSTYLE_2
100
AcDbAlignedDimension
 13
29.2857745691
 23
21.7735931869
 14
-15.9486864144
 24
21.7735931869
 50
180.0
100
AcDbRotatedDimension
  0
LINE
  5
254
100
AcDbEntity
  8
RACCORDO
100
AcDbLine
 62
253
  6
CONTINUOUS
 10
-52.9072070411
 20
-25.412536359
 11
-52.8444972183
 21
-26.0162793041
  0
LINE
  5
255
100
AcDbEntity
  8
DRAFT
100
AcDbLine
 62
7
  6
CONTINUOUS
 10
-53.0151073716
 20
-26.0356161182
 11
-53.0794340076
 21
-25.4152722097
  0
LINE
  5
256
100
AcDbEntity
  8
RACCORDO
100
AcDbLine
 62
253
  6
CONTINUOUS
 10
-52.6271603145
 20
-25.3976360565
 11
-52.5646941214
 21
-25.9999603849
  0
LINE
  5
257
100
AcDbEntity
  8
DRAFT
100
AcDbLine
 62
7
  6
CONTINUOUS
 10
-53.0794340076
 20
-25.4152722097
 11
-53.1656483688
 21
-24.5416441058
  0
LINE
  5
258
100
AcDbEntity
  8
RACCORDO
100
AcDbLine
 62
253
  6
CONTINUOUS
 10
-53.0169490824
 20
-24.2964027533
 11
-52.9072070411
 21
-25.412536359
  0
LINE
  5
259
100
AcDbEntity
  8
RACCORDO
100
AcDbLine
 62
253
  6
CONTINUOUS
 10
-52.7367866161
 20
-24.2811948745
 11
-52.6271603145
 21
-25.3976360565
  0
LINE
  5
25A
100
AcDbEntity
  8
DRAFT
100
AcDbLine
 62
7
  6
CONTINUOUS
 10
-53.1656483688
 20
-24.5416441058
 11
-53.2158983104
 21
-24.0173868131
  0
LINE
  5
25B
100
AcDbEntity
  8
RACCORDO
100
AcDbLine
 62
253
  6
CONTINUOUS
 10
-53.045124657
 20
-24.0011997111
 11
-53.0169490824
 21
-24.2964027533
  0
LWPOLYLINE
  5
25C
100
AcDbEntity
  8
DRAFT
100
AcDbPolyline
 62
7
  6
CONTINUOUS
 90
16
 70
0
 10
-53.2158983104
 20
-24.0173868131
 10
-53.4935284721
 20
-20.8769961884
 10
-53.7315356088
 20
-17.7346433879
 10
-53.9298930081
 20
-14.5904530324
 10
-54.0885628768
 20
-11.4441428016
 10
-54.2075419536
 20
-8.2962450608
 10
-54.2868630325
 20
-5.1481073444
 10
-54.3265334829
 20
-2.0003135365
 10
-54.326533703
 20
1.147468265
 10
-54.286863598
 20
4.2952637807
 10
-54.2075427127
 20
7.4434055102
 10
-54.0885637307
 20
10.5913089706
 10
-53.9298938351
 20
13.7376248333
 10
-53.7315362809
 20
16.8818201352
 10
-53.4935288684
 20
20.0241777935
 10
-53.2158983104
 20
23.1645731869
  0
LWPOLYLINE
  5
25D
100
AcDbEntity
  8
RACCORDO
100
AcDbPolyline
 62
253
  6
CONTINUOUS
 90
18
 70
0
 10
-52.9599072886
 20
21.0706562383
 10
-53.1415283872
 20
18.8344309638
 10
-53.3096562547
 20
16.4245081918
 10
-53.469659474
 20
13.7946612882
 10
-53.6158271627
 20
10.9910553586
 10
-53.7315138851
 20
8.1523180298
 10
-53.8119596321
 20
5.3131599065
 10
-53.8618615581
 20
2.4390400003
 10
-53.8789278136
 20
-0.4352173937
 10
-53.8616490896
 20
-3.3096395486
 10
-53.8115345453
 20
-6.1840091351
 10
-53.7308943158
 20
-9.0231350181
 10
-53.6149881303
 20
-11.8618499245
 10
-53.4686195111
 20
-14.6651516521
 10
-53.3085836079
 20
-17.2931714821
 10
-53.1406424172
 20
-19.6993315428
 10
-52.9593786163
 20
-21.930273275
 10
-52.7367866161
 20
-24.2811948745
  0
LWPOLYLINE
  5
25E
100
AcDbEntity
  8
RACCORDO
100
AcDbPolyline
 62
253
  6
CONTINUOUS
 90
19
 70
0
 10
-53.045124657
 20
23.148386085
 10
-53.2321809685
 20
21.0844191601
 10
-53.4154888614
 20
18.8467789252
 10
-53.590390818
 20
16.4353292141
 10
-53.7545048564
 20
13.8038771615
 10
-53.8987826389
 20
10.9985253237
 10
-54.0126661993
 20
8.157830097
 10
-54.0941870283
 20
5.316825769
 10
-54.1437668006
 20
2.4409904044
 10
-54.1602262402
 20
-0.4352148804
 10
-54.1435620225
 20
-3.3115851979
 10
-54.0937716445
 20
-6.1876706132
 10
-54.0120465572
 20
-9.0286428136
 10
-53.8979587423
 20
-11.8693168037
 10
-53.7534955154
 20
-14.6743657207
 10
-53.5893180161
 20
-17.3039894774
 10
-53.4145535016
 20
-19.7116740519
 10
-53.2315932221
 20
-21.9440308395
 10
-53.045124657
 20
-24.0011997111
  0
LINE
  5
25F
100
AcDbEntity
  8
DRAFT
100
AcDbLine
 62
7
  6
CONTINUOUS
 10
-53.2158983104
 20
23.1645731869
 11
-53.1315322284
 21
24.0383030976
  0
LINE
  5
260
100
AcDbEntity
  8
RACCORDO
100
AcDbLine
 62
253
  6
CONTINUOUS
 10
-52.9390742878
 20
24.24087507
 11
-53.045124657
 21
23.148386085
  0
LINE
  5
261
100
AcDbEntity
  8
RACCORDO
100
AcDbLine
 62
253
  6
CONTINUOUS
 10
-52.6589940299
 20
24.2258859172
 11
-52.9599072886
 21
21.0706562383
  0
LINE
  5
262
100
AcDbEntity
  8
DRAFT
100
AcDbLine
 62
7
  6
CONTINUOUS
 10
-53.1315322284
 20
24.0383030976
 11
-53.0618215819
 21
24.7371620719
  0
LINE
  5
263
100
AcDbEntity
  8
RACCORDO
100
AcDbLine
 62
253
  6
CONTINUOUS
 10
-52.6110899163
 20
24.7042762474
 11
-52.6589940299
 21
24.2258859172
  0
LINE
  5
264
100
AcDbEntity
  8
RACCORDO
100
AcDbLine
 62
253
  6
CONTINUOUS
 10
-52.8911197814
 20
24.7191314563
 11
-52.9390742878
 21
24.24087507
  0
LWPOLYLINE
  5
265
100
AcDbEntity
  8
DRAFT
100
AcDbPolyline
 62
7
  6
CONTINUOUS
 90
10
 70
0
 10
-53.0618215819
 20
24.7371620719
 10
-53.0151080543
 20
25.1827970064
 10
-52.9651487716
 20
25.6281571155
 10
-52.9119442016
 20
26.0732398947
 10
-52.855494555
 20
26.5180655787
 10
-52.7958006038
 20
26.9626089398
 10
-52.7328637125
 20
27.4067993245
 10
-52.6666847315
 20
27.8506115743
 10
-52.5972639672
 20
28.294065989
 10
-52.5246020211
 20
28.7371601505
  0
LWPOLYLINE
  5
266
100
AcDbEntity
  8
RACCORDO
100
AcDbPolyline
 62
253
  6
CONTINUOUS
 90
10
 70
0
 10
-52.0775557942
 20
28.6794017762
 10
-52.1497121698
 20
28.2390970683
 10
-52.2186519233
 20
27.7984223099
 10
-52.2843744672
 20
27.3573798099
 10
-52.3468802725
 20
26.9159443727
 10
-52.4061677364
 20
26.4741458334
 10
-52.4622332185
 20
26.0320691014
 10
-52.5150752004
 20
25.5897440894
 10
-52.5646942506
 20
25.1471456714
 10
-52.6110899163
 20
24.7042762474
  0
LWPOLYLINE
  5
267
100
AcDbEntity
  8
RACCORDO
100
AcDbPolyline
 62
253
  6
CONTINUOUS
 90
10
 70
0
 10
-52.3550066502
 20
28.7076224059
 10
-52.4275070452
 20
28.2658899751
 10
-52.4967779158
 20
27.8237388405
 10
-52.5628177559
 20
27.3811924116
 10
-52.6256261597
 20
26.9382667754
 10
-52.6852008834
 20
26.4949929093
 10
-52.7415381482
 20
26.0514165966
 10
-52.7946366293
 20
25.607568896
 10
-52.8444971825
 20
25.1634660079
 10
-52.8911197849
 20
24.7191314567
  0
LWPOLYLINE
  5
268
100
AcDbEntity
  8
DRAFT
100
AcDbPolyline
 62
7
  6
CONTINUOUS
 90
73
 70
0
 10
-52.5246020211
 20
28.7371601505
 10
-52.4409010299
 20
29.2045496881
 10
-52.3406172917
 20
29.6777051973
 10
-52.2237503019
 20
30.1566198664
 10
-52.0893043
 20
30.6456258741
 10
-51.9382732284
 20
31.1403744897
 10
-51.7736464541
 20
31.6278464657
 10
-51.5942917965
 20
32.1072218181
 10
-51.4013515749
 20
32.579324814
 10
-51.2012352947
 20
33.0336201543
 10
-50.995788968
 20
33.4651720056
 10
-50.7831825718
 20
33.8789393415
 10
-50.5643128326
 20
34.279234058
 10
-50.3390429473
 20
34.6670527969
 10
-50.1075194812
 20
35.041413435
 10
-49.8710619205
 20
35.4036558449
 10
-49.628588884
 20
35.7552065641
 10
-49.381189187
 20
36.0946517673
 10
-49.133437111
 20
36.4190717804
 10
-48.88581597
 20
36.7273942958
 10
-48.6378492631
 20
37.0207087291
 10
-48.3926711647
 20
37.29933945
 10
-48.1506045127
 20
37.5630701579
 10
-47.9113311163
 20
37.81213224
 10
-47.6770227549
 20
38.0475205348
 10
-47.448052151
 20
38.2689722652
 10
-47.2240495313
 20
38.4767627243
 10
-47.0060722114
 20
38.6726921489
 10
-46.7949965599
 20
38.8562610252
 10
-46.5899478788
 20
39.0279783313
 10
-46.3893563373
 20
39.1911546527
 10
-46.1934581293
 20
39.3458956792
 10
-46.0020178986
 20
39.4921014605
 10
-45.8127581671
 20
39.6327717044
 10
-45.6258028058
 20
39.7681281461
 10
-45.4410283879
 20
39.8979522876
 10
-45.2557863609
 20
40.0245817361
 10
-45.0696955543
 20
40.1485128029
 10
-44.8831374434
 20
40.2692507937
 10
-44.6946074252
 20
40.387645856
 10
-44.5034488055
 20
40.5040725283
 10
-44.3103185466
 20
40.618157382
 10
-44.1156825219
 20
40.7296284392
 10
-43.919603597
 20
40.8383944484
 10
-43.7220190903
 20
40.9445479505
 10
-43.5232065267
 20
41.0480927125
 10
-43.3232606509
 20
41.1490519169
 10
-43.1220868234
 20
41.2474035843
 10
-42.919678472
 20
41.3430837356
 10
-42.7160753657
 20
41.4360679256
 10
-42.511237773
 20
41.5263817682
 10
-42.3050398557
 20
41.6140363664
 10
-42.0974518649
 20
41.6990324969
 10
-41.8885035227
 20
41.7813704633
 10
-41.6781581821
 20
41.8610606347
 10
-41.4663886521
 20
41.9381419109
 10
-41.2532220316
 20
42.0125763799
 10
-41.0387030875
 20
42.0842591877
 10
-40.8227750993
 20
42.1531839999
 10
-40.6054946188
 20
42.2193580917
 10
-40.3870762965
 20
42.2826970336
 10
-40.1675065811
 20
42.3431994259
 10
-39.9467987795
 20
42.4008675328
 10
-39.7252078054
 20
42.455622419
 10
-39.5027317251
 20
42.507477676
 10
-39.2793721565
 20
42.5564204845
 10
-39.055389315
 20
42.6023322892
 10
-38.8307711678
 20
42.6451863628
 10
-38.605529356
 20
42.6850101113
 10
-38.3799595861
 20
42.7217661646
 10
-38.1541602779
 20
42.7554422503
 10
-37.928032564
 20
42.786051189
 10
-37.7015762072
 20
42.8135932195
  0
LWPOLYLINE
  5
269
100
AcDbEntity
  8
RACCORDO
100
AcDbPolyline
 62
253
  6
CONTINUOUS
 90
148
 70
0
 10
-52.0775557942
 20
-29.5322154023
 10
-52.0169893235
 20
-29.8659905127
 10
-51.9533256955
 20
-30.1871559504
 10
-51.8865687187
 20
-30.4957159049
 10
-51.8162622921
 20
-30.7911475235
 10
-51.7428697227
 20
-31.0739821866
 10
-51.6677732142
 20
-31.345804814
 10
-51.5911304112
 20
-31.606608724
 10
-51.5127889291
 20
-31.8564076345
 10
-51.4336648939
 20
-32.0968158364
 10
-51.3538683762
 20
-32.3279247355
 10
-51.2732931242
 20
-32.5496485745
 10
-51.1925299891
 20
-32.7633348267
 10
-51.1115945624
 20
-32.969157446
 10
-51.0304740503
 20
-33.1669470001
 10
-50.9497162036
 20
-33.357535133
 10
-50.8693712186
 20
-33.5409468963
 10
-50.7893910508
 20
-33.7171610643
 10
-50.7101757397
 20
-33.8869393439
 10
-50.6317773281
 20
-34.0502881787
 10
-50.5541454132
 20
-34.2072043078
 10
-50.4775260914
 20
-34.3584344232
 10
-50.4020517669
 20
-34.5038265279
 10
-50.327591281
 20
-34.6435352408
 10
-50.2539951258
 20
-34.7787666572
 10
-50.1815486054
 20
-34.9091618537
 10
-50.1099672839
 20
-35.0350816805
 10
-50.0382467163
 20
-35.1588110873
 10
-49.9663941217
 20
-35.2805047854
 10
-49.8944026925
 20
-35.4000088592
 10
-49.8212466315
 20
-35.5191444412
 10
-49.7464430873
 20
-35.6387380162
 10
-49.6704750282
 20
-35.7579630365
 10
-49.5937653034
 20
-35.8761608449
 10
-49.516206314
 20
-35.9934421513
 10
-49.4379058886
 20
-36.1096965654
 10
-49.3596101146
 20
-36.2239341277
 10
-49.2815608421
 20
-36.3357735103
 10
-49.203516564
 20
-36.445596837
 10
-49.1254983705
 20
-36.5535594975
 10
-49.047613168
 20
-36.6595328463
 10
-48.969754333
 20
-36.7636462088
 10
-48.8916226153
 20
-36.8664417912
 10
-48.813389366
 20
-36.9677443177
 10
-48.7348834415
 20
-37.0677295276
 10
-48.6552917712
 20
-37.1674658409
 10
-48.5745978642
 20
-37.2670328637
 10
-48.4928183103
 20
-37.3663510145
 10
-48.4091895811
 20
-37.4662495711
 10
-48.3233728617
 20
-37.5671486356
 10
-48.235706997
 20
-37.668627765
 10
-48.1464449368
 20
-37.7702553438
 10
-48.0555249289
 20
-37.8720786953
 10
-47.9630088083
 20
-37.974050367
 10
-47.8693349474
 20
-38.0755967796
 10
-47.7746875145
 20
-38.1765130203
 10
-47.6788824726
 20
-38.2770041376
 10
-47.581805907
 20
-38.3771116022
 10
-47.4833559084
 20
-38.4769362288
 10
-47.3836345085
 20
-38.5763772829
 10
-47.2828337124
 20
-38.6751739565
 10
-47.180803501
 20
-38.7734379313
 10
-47.0776940289
 20
-38.8710577114
 10
-46.9741475823
 20
-38.9674378945
 10
-46.8701378739
 20
-39.0625645393
 10
-46.7656913455
 20
-39.1564520261
 10
-46.6615293942
 20
-39.2485476603
 10
-46.5576354639
 20
-39.3388310341
 10
-46.4540262639
 20
-39.4273231954
 10
-46.351473096
 20
-39.5135338264
 10
-46.2499675889
 20
-39.5974340428
 10
-46.1495182504
 20
-39.679053516
 10
-46.0509216959
 20
-39.7579899114
 10
-45.9541862916
 20
-39.8342059254
 10
-45.8593037797
 20
-39.9077397273
 10
-45.767045828
 20
-39.9783022886
 10
-45.6778598169
 20
-40.0455683821
 10
-45.591298441
 20
-40.109864131
 10
-45.5067913236
 20
-40.1718774573
 10
-45.4246619604
 20
-40.2314247585
 10
-45.3445868982
 20
-40.2886902432
 10
-45.2650253248
 20
-40.3449132838
 10
-45.1851469498
 20
-40.4006943754
 10
-45.1057820918
 20
-40.4554332187
 10
-45.0278808462
 20
-40.5085679039
 10
-44.9515951223
 20
-40.55997925
 10
-44.8767730292
 20
-40.6097868083
 10
-44.8039089562
 20
-40.6577868498
 10
-44.733406181
 20
-40.7037249576
 10
-44.6648614329
 20
-40.7478559368
 10
-44.5975592755
 20
-40.7907398483
 10
-44.5315644504
 20
-40.8323579218
 10
-44.4668122204
 20
-40.8727291595
 10
-44.4023929334
 20
-40.9124701656
 10
-44.3383491189
 20
-40.951578608
 10
-44.2746382538
 20
-40.9900569268
 10
-44.2102231122
 20
-41.028528774
 10
-44.1451295672
 20
-41.0670044771
 10
-44.079331758
 20
-41.1054737057
 10
-44.0117148658
 20
-41.1445290191
 10
-43.9420751797
 20
-41.1843058157
 10
-43.8706164336
 20
-41.2246685806
 10
-43.7968349826
 20
-41.2658034341
 10
-43.7204051444
 20
-41.3078890722
 10
-43.6416526328
 20
-41.3507466368
 10
-43.5610508987
 20
-41.3940259322
 10
-43.4789027096
 20
-41.4375735708
 10
-43.394905325
 20
-41.4815428615
 10
-43.3086239347
 20
-41.5260436756
 10
-43.2203646613
 20
-41.5709515161
 10
-43.1298214165
 20
-41.6163907739
 10
-43.0356410863
 20
-41.6628445895
 10
-42.9374586136
 20
-41.7105225504
 10
-42.8356391159
 20
-41.7592148267
 10
-42.7299247533
 20
-41.8087753953
 10
-42.6203066736
 20
-41.8592237544
 10
-42.506793796
 20
-41.9105401945
 10
-42.3891549395
 20
-41.9625199181
 10
-42.2673871609
 20
-42.0151727522
 10
-42.1414934746
 20
-42.0684886978
 10
-42.0112516352
 20
-42.1222332705
 10
-41.8766206828
 20
-42.1764322249
 10
-41.737641647
 20
-42.2310596855
 10
-41.5942152592
 20
-42.2858037916
 10
-41.4463259374
 20
-42.340688875
 10
-41.2939893195
 20
-42.3956905613
 10
-41.1371529518
 20
-42.4504240206
 10
-40.97607356
 20
-42.5048300031
 10
-40.8104944426
 20
-42.5589678234
 10
-40.639592987
 20
-42.6126305747
 10
-40.462095875
 20
-42.6661450247
 10
-40.2792764232
 20
-42.7191844901
 10
-40.0941319159
 20
-42.7705620646
 10
-39.9059320835
 20
-42.8202911524
 10
-39.715407065
 20
-42.8683587454
 10
-39.5277446684
 20
-42.9135386023
 10
-39.3440128938
 20
-42.9554270678
 10
-39.1631435019
 20
-42.9944284303
 10
-38.9871199131
 20
-43.0305284788
 10
-38.816305969
 20
-43.063599903
 10
-38.650337617
 20
-43.0937705066
 10
-38.490106475
 20
-43.1214086941
 10
-38.3356176068
 20
-43.1465004082
 10
-38.1868658023
 20
-43.1690600321
 10
-38.0447273258
 20
-43.1894985572
 10
-37.9094942527
 20
-43.2079530381
 10
-37.7808744383
 20
-43.2242866175
 10
-37.1067279132
 20
-43.3005816974
  0
LWPOLYLINE
  5
26A
100
AcDbEntity
  8
RACCORDO
100
AcDbPolyline
 62
253
  6
CONTINUOUS
 90
148
 70
0
 10
-52.3550071452
 20
-29.5604332489
 10
-52.2944514307
 20
-29.8997460616
 10
-52.2293827881
 20
-30.2262308714
 10
-52.1605032686
 20
-30.5398821028
 10
-52.0886303537
 20
-30.8401632296
 10
-52.014309577
 20
-31.1276429598
 10
-51.9377154058
 20
-31.4039784524
 10
-51.8594276555
 20
-31.6690826849
 10
-51.7800019665
 20
-31.9229375074
 10
-51.6993808587
 20
-32.1672739901
 10
-51.6179532189
 20
-32.4021842707
 10
-51.5361730966
 20
-32.6275295341
 10
-51.453903109
 20
-32.8446919175
 10
-51.3713731645
 20
-33.053900441
 10
-51.288973967
 20
-33.2549694788
 10
-51.2067029262
 20
-33.4486573842
 10
-51.1248033799
 20
-33.6350560618
 10
-51.0435344269
 20
-33.814197701
 10
-50.9628516278
 20
-33.9867381348
 10
-50.8829566785
 20
-34.1527441353
 10
-50.804045359
 20
-34.3122781791
 10
-50.7260121857
 20
-34.465974209
 10
-50.6491048457
 20
-34.6137268087
 10
-50.573394533
 20
-34.7557675191
 10
-50.4984579798
 20
-34.8932089288
 10
-50.424642057
 20
-35.0256952034
 10
-50.3518413823
 20
-35.1536807052
 10
-50.2788622809
 20
-35.2794361012
 10
-50.2056918252
 20
-35.4030793786
 10
-50.132443526
 20
-35.5245109898
 10
-50.0580133374
 20
-35.6456005723
 10
-49.9818887613
 20
-35.767144269
 10
-49.9045832668
 20
-35.8882847377
 10
-49.8265031374
 20
-36.00838804
 10
-49.7475641251
 20
-36.1275986768
 10
-49.6678798471
 20
-36.2457559221
 10
-49.5881761901
 20
-36.3618212921
 10
-49.5087200216
 20
-36.4754816003
 10
-49.4292774019
 20
-36.5871457262
 10
-49.3498447627
 20
-36.6968815437
 10
-49.270540696
 20
-36.804590046
 10
-49.1912786634
 20
-36.9104525326
 10
-49.111737146
 20
-37.0149466113
 10
-49.03207531
 20
-37.1179046646
 10
-48.9521488318
 20
-37.2195542246
 10
-48.8711458636
 20
-37.3209390704
 10
-48.7890156275
 20
-37.4221086856
 10
-48.7057702442
 20
-37.5230344983
 10
-48.6206564751
 20
-37.6245969278
 10
-48.5333346959
 20
-37.7271386168
 10
-48.4441299163
 20
-37.8302149146
 10
-48.3532931499
 20
-37.9334888161
 10
-48.2607868346
 20
-38.0369612203
 10
-48.1666657767
 20
-38.1405285238
 10
-48.0713391972
 20
-38.2437096889
 10
-47.9750251757
 20
-38.3462532498
 10
-47.8775538817
 20
-38.4483240552
 10
-47.7787598566
 20
-38.5500688677
 10
-47.6785540962
 20
-38.6515445984
 10
-47.5770661064
 20
-38.7525848114
 10
-47.4744578426
 20
-38.8529999817
 10
-47.3706048695
 20
-38.9528941961
 10
-47.2656711659
 20
-39.0520979356
 10
-47.1602618868
 20
-39.1500451967
 10
-47.0543938483
 20
-39.2467397824
 10
-46.9481107024
 20
-39.3421606335
 10
-46.8420766113
 20
-39.4357445155
 10
-46.7363198931
 20
-39.5275125767
 10
-46.6308866792
 20
-39.6174695826
 10
-46.5264828507
 20
-39.7050711944
 10
-46.4231451845
 20
-39.7903566286
 10
-46.3209163592
 20
-39.8733585917
 10
-46.2205224376
 20
-39.9535674235
 10
-46.122041508
 20
-40.0310208267
 10
-46.0255143458
 20
-40.1057901135
 10
-45.9316217965
 20
-40.1774560884
 10
-45.8408576732
 20
-40.2457611435
 10
-45.7528246561
 20
-40.311116269
 10
-45.6668581028
 20
-40.374103283
 10
-45.5833074664
 20
-40.4345442644
 10
-45.501881285
 20
-40.4927241783
 10
-45.4209511311
 20
-40.5498514626
 10
-45.3396943404
 20
-40.6065182339
 10
-45.2589887559
 20
-40.6621234275
 10
-45.1797548605
 20
-40.7160652308
 10
-45.1021433405
 20
-40.7682847808
 10
-45.0260355502
 20
-40.8189038185
 10
-44.9519346834
 20
-40.8676318102
 10
-44.8802027894
 20
-40.9142807506
 10
-44.8104228021
 20
-40.9591661029
 10
-44.7419287563
 20
-41.0027483457
 10
-44.6747529184
 20
-41.0450329102
 10
-44.608793129
 20
-41.0861097699
 10
-44.5431930307
 20
-41.1265285791
 10
-44.4779721373
 20
-41.1662859375
 10
-44.4130572379
 20
-41.2054352133
 10
-44.3474555112
 20
-41.2445741446
 10
-44.2811556975
 20
-41.283699392
 10
-44.2141112493
 20
-41.3228286216
 10
-44.1452683484
 20
-41.3625571699
 10
-44.0743571082
 20
-41.4030087958
 10
-44.0015596818
 20
-41.4440475998
 10
-43.9264850991
 20
-41.485861009
 10
-43.8487386948
 20
-41.5286290161
 10
-43.7685829294
 20
-41.5721675394
 10
-43.6866085293
 20
-41.6161268081
 10
-43.6030837775
 20
-41.6603432834
 10
-43.5176371988
 20
-41.7049832904
 10
-43.429900349
 20
-41.7501967956
 10
-43.3401274814
 20
-41.7958083041
 10
-43.2479920165
 20
-41.8419378043
 10
-43.1522223689
 20
-41.8891571268
 10
-43.0523525589
 20
-41.9376091626
 10
-42.9487067228
 20
-41.9870454872
 10
-42.8411691026
 20
-42.0374302233
 10
-42.7296429818
 20
-42.0887123879
 10
-42.6140672788
 20
-42.1408193049
 10
-42.4943741493
 20
-42.1936768103
 10
-42.3704959649
 20
-42.2472057031
 10
-42.2423237589
 20
-42.3013394479
 10
-42.1097501249
 20
-42.3560103735
 10
-41.972768738
 20
-42.4111117915
 10
-41.8313520414
 20
-42.4665423717
 10
-41.6854041054
 20
-42.522221824
 10
-41.5349455104
 20
-42.5780185397
 10
-41.3799729857
 20
-42.633805195
 10
-41.2203647397
 20
-42.6894895154
 10
-41.0564350754
 20
-42.7448220827
 10
-40.8879503922
 20
-42.7997360522
 10
-40.7139690765
 20
-42.8543640139
 10
-40.5333491207
 20
-42.9088639675
 10
-40.3474075686
 20
-42.9626639872
 10
-40.1589336953
 20
-43.014854827
 10
-39.9674063546
 20
-43.0655136128
 10
-39.7736998068
 20
-43.1143402541
 10
-39.582730696
 20
-43.1601255084
 10
-39.3956411486
 20
-43.2027268047
 10
-39.2116232893
 20
-43.2424537402
 10
-39.0325933581
 20
-43.2790311269
 10
-38.8587565205
 20
-43.3125990889
 10
-38.6898105797
 20
-43.3433936832
 10
-38.5267691991
 20
-43.3714127505
 10
-38.3695712944
 20
-43.3968574771
 10
-38.2181580336
 20
-43.4199183815
 10
-38.0735348719
 20
-43.4406279113
 10
-37.9359972739
 20
-43.4591373591
 10
-37.805139501
 20
-43.4756829573
 10
-37.6809140868
 20
-43.4904362911
  0
LWPOLYLINE
  5
26B
100
AcDbEntity
  8
DRAFT
100
AcDbPolyline
 62
7
  6
CONTINUOUS
 90
9
 70
0
 10
-52.5246017254
 20
-29.5899756633
 10
-52.5972642104
 20
-29.1468777157
 10
-52.6666852413
 20
-28.7034215139
 10
-52.7328642175
 20
-28.2596094771
 10
-52.7958006404
 20
-27.8154227818
 10
-52.8554938536
 20
-27.3708851128
 10
-52.911943071
 20
-26.9260626972
 10
-52.9651477118
 20
-26.4809792858
 10
-53.0151073716
 20
-26.0356161182
  0
LWPOLYLINE
  5
26C
100
AcDbEntity
  8
RACCORDO
100
AcDbPolyline
 62
253
  6
CONTINUOUS
 90
9
 70
0
 10
-52.8444972183
 20
-26.0162793041
 10
-52.794636736
 20
-26.4603816019
 10
-52.7415383103
 20
-26.9042289083
 10
-52.6852010656
 20
-27.3478051418
 10
-52.6256263361
 20
-27.7910791238
 10
-52.5628179485
 20
-28.2340047137
 10
-52.4967781683
 20
-28.6765508156
 10
-52.4275073883
 20
-29.118701462
 10
-52.3550071181
 20
-29.5604332442
  0
LWPOLYLINE
  5
26D
100
AcDbEntity
  8
RACCORDO
100
AcDbPolyline
 62
253
  6
CONTINUOUS
 90
9
 70
0
 10
-52.5646941214
 20
-25.9999603849
 10
-52.5150749705
 20
-26.4425596158
 10
-52.4622329161
 20
-26.884885166
 10
-52.4061673853
 20
-27.3269621585
 10
-52.3468799013
 20
-27.768760684
 10
-52.2843741195
 20
-28.2101958433
 10
-52.2186516477
 20
-28.6512378047
 10
-52.14971201
 20
-29.0919117606
 10
-52.0775557942
 20
-29.5322154023
  0
LWPOLYLINE
  5
26E
100
AcDbEntity
  8
RACCORDO
100
AcDbPolyline
 62
253
  6
CONTINUOUS
 90
142
 70
0
 10
50.9959560035
 20
-43.2384993805
 10
51.2770770875
 20
-43.2029854315
 10
51.5483817664
 20
-43.1649160341
 10
51.809870423
 20
-43.1242909517
 10
52.061201786
 20
-43.0807681218
 10
52.3027178026
 20
-43.0346890622
 10
52.5354435427
 20
-42.9870789986
 10
52.7592861053
 20
-42.938049849
 10
52.974338694
 20
-42.8874893513
 10
53.1819053714
 20
-42.8360866527
 10
53.3818627434
 20
-42.7840003865
 10
53.5743343146
 20
-42.7310717304
 10
53.7609944172
 20
-42.6775137578
 10
53.9417878383
 20
-42.6234334486
 10
54.1167698224
 20
-42.568723679
 10
54.2877803684
 20
-42.5132763777
 10
54.4555945023
 20
-42.4568633456
 10
54.6194372127
 20
-42.3997125752
 10
54.7788234232
 20
-42.3424003463
 10
54.9337650448
 20
-42.2849174493
 10
55.0842501225
 20
-42.2272730607
 10
55.2297577468
 20
-42.1700711998
 10
55.3700476248
 20
-42.1134086021
 10
55.5053599673
 20
-42.0571886711
 10
55.6358946018
 20
-42.0017255508
 10
55.7616038153
 20
-41.9470502904
 10
55.8825352347
 20
-41.8931320491
 10
55.999031695
 20
-41.8401922022
 10
56.1111601073
 20
-41.7882175014
 10
56.2188534811
 20
-41.7372214419
 10
56.3222538005
 20
-41.6874655694
 10
56.4207728604
 20
-41.6392766875
 10
56.514998791
 20
-41.5923283056
 10
56.606838095
 20
-41.5459019747
 10
56.6965583708
 20
-41.4999133687
 10
56.7838919823
 20
-41.4544469249
 10
56.8699426017
 20
-41.4090372108
 10
56.9554630623
 20
-41.3632935581
 10
57.0397005101
 20
-41.3176066256
 10
57.1215000867
 20
-41.2726829966
 10
57.2004450387
 20
-41.228736032
 10
57.276952083
 20
-41.1855525451
 10
57.3511165618
 20
-41.1431993745
 10
57.4226377952
 20
-41.1018611796
 10
57.491816433
 20
-41.0613534746
 10
57.5596498184
 20
-41.0211893396
 10
57.6261303745
 20
-40.9813982471
 10
57.6912656601
 20
-40.9419507924
 10
57.7560757301
 20
-40.9022716434
 10
57.8205410289
 20
-40.8623984701
 10
57.8846811014
 20
-40.8222935674
 10
57.9495746591
 20
-40.7812684278
 10
58.0152607035
 20
-40.739324953
 10
58.0817002265
 20
-40.6964610755
 10
58.1498549301
 20
-40.6519822031
 10
58.2200597146
 20
-40.6056872627
 10
58.2919796729
 20
-40.5577769944
 10
58.3655717945
 20
-40.5081594416
 10
58.4410194064
 20
-40.4567069225
 10
58.518139166
 20
-40.4035467367
 10
58.596338054
 20
-40.3489694154
 10
58.6752462196
 20
-40.2932403615
 10
58.755233487
 20
-40.2360938612
 10
58.8368163435
 20
-40.1770237365
 10
58.9199781705
 20
-40.1160725231
 10
59.004735547
 20
-40.0531971997
 10
59.0916547459
 20
-39.9877630921
 10
59.1809460849
 20
-39.9196369234
 10
59.2723991812
 20
-39.8489512381
 10
59.3659492406
 20
-39.7754699537
 10
59.461792571
 20
-39.6990283141
 10
59.559732763
 20
-39.6197901867
 10
59.6591159304
 20
-39.5380124111
 10
59.759978366
 20
-39.4536346455
 10
59.8622836424
 20
-39.3667163657
 10
59.9652687851
 20
-39.2776942449
 10
60.0689194398
 20
-39.1865479156
 10
60.1732498026
 20
-39.0932969931
 10
60.277539725
 20
-38.998438293
 10
60.3817705366
 20
-38.901952461
 10
60.4859607389
 20
-38.8038582653
 10
60.5894459528
 20
-38.7047099084
 10
60.6921102709
 20
-38.6045817402
 10
60.7940694396
 20
-38.5033990518
 10
60.8950065779
 20
-38.4014926365
 10
60.9948020159
 20
-38.2989739549
 10
61.0935752733
 20
-38.1957313283
 10
61.1913682619
 20
-38.0917609085
 10
61.2883534396
 20
-37.9868676674
 10
61.384358186
 20
-37.881246373
 10
61.4789068171
 20
-37.7754779918
 10
61.5719893694
 20
-37.6695430142
 10
61.6636156879
 20
-37.563460958
 10
61.7533398508
 20
-37.4578715841
 10
61.8409682947
 20
-37.3529908761
 10
61.9266945297
 20
-37.2486031506
 10
62.0106532764
 20
-37.1447007974
 10
62.092758029
 20
-37.0414059586
 10
62.1730952487
 20
-36.9385967668
 10
62.2520590962
 20
-36.8358995207
 10
62.3295026351
 20
-36.7335537606
 10
62.4055727362
 20
-36.6313200851
 10
62.4811042057
 20
-36.5281060994
 10
62.5561664666
 20
-36.4238809935
 10
62.6306899166
 20
-36.3186752647
 10
62.7053007174
 20
-36.2114880774
 10
62.7803352677
 20
-36.1018494897
 10
62.8554568481
 20
-35.9902286761
 10
62.9302819042
 20
-35.8770333594
 10
63.0047927584
 20
-35.7622661432
 10
63.0790068023
 20
-35.6459238704
 10
63.1525931249
 20
-35.5284057863
 10
63.2252052904
 20
-35.4103093714
 10
63.2971895064
 20
-35.2910368383
 10
63.3692537497
 20
-35.1691943232
 10
63.441391291
 20
-35.0449240821
 10
63.5136083916
 20
-34.9180828979
 10
63.5866322599
 20
-34.786848003
 10
63.6606638718
 20
-34.6509880808
 10
63.7355013974
 20
-34.5107325678
 10
63.8112675511
 20
-34.3649491358
 10
63.888065741
 20
-34.2135372419
 10
63.9657913433
 20
-34.0565948871
 10
64.0442547646
 20
-33.8932870348
 10
64.1235106037
 20
-33.7236174543
 10
64.2035026382
 20
-33.5475792297
 10
64.2838747495
 20
-33.364320792
 10
64.3646817402
 20
-33.1738593873
 10
64.4458666528
 20
-32.9761739302
 10
64.526905358
 20
-32.7703547827
 10
64.6078243864
 20
-32.5565421247
 10
64.6885943762
 20
-32.3345911814
 10
64.7686068237
 20
-32.1031641087
 10
64.8479698343
 20
-31.8623389221
 10
64.9265714438
 20
-31.6120318845
 10
65.0034722572
 20
-31.3506614607
 10
65.0788193632
 20
-31.0782357728
 10
65.1524603781
 20
-30.7947396114
 10
65.2230056561
 20
-30.4985552122
 10
65.2899893826
 20
-30.1891402107
 10
65.3538700957
 20
-29.8670283521
 10
65.4146439488
 20
-29.5322154023
  0
LWPOLYLINE
  5
26F
100
AcDbEntity
  8
RACCORDO
100
AcDbPolyline
 62
253
  6
CONTINUOUS
 90
142
 70
0
 10
51.0179481951
 20
-43.4904425075
 10
51.3038846535
 20
-43.4550930857
 10
51.5800064537
 20
-43.4162443893
 10
51.846236717
 20
-43.3743414131
 10
52.101994944
 20
-43.3299273254
 10
52.3476723155
 20
-43.2833871366
 10
52.584655819
 20
-43.2348635146
 10
52.8125284814
 20
-43.1848285301
 10
53.0311441487
 20
-43.1337179919
 10
53.2423774622
 20
-43.0814336795
 10
53.4459333994
 20
-43.028333103
 10
53.6416182316
 20
-42.9747430254
 10
53.8315431156
 20
-42.9203093901
 10
54.0156050416
 20
-42.8652376228
 10
54.193642255
 20
-42.8097502823
 10
54.3676973412
 20
-42.7533680593
 10
54.5385062084
 20
-42.6959808347
 10
54.7051822262
 20
-42.6380113049
 10
54.8673471692
 20
-42.5797304971
 10
55.025023067
 20
-42.5212693819
 10
55.1781275126
 20
-42.4627920463
 10
55.3261599291
 20
-42.4046269466
 10
55.4689560352
 20
-42.3469818115
 10
55.6067117892
 20
-42.2899154058
 10
55.7395007675
 20
-42.2335282259
 10
55.8674095127
 20
-42.1779199483
 10
55.9905502636
 20
-42.1231764826
 10
56.1090753962
 20
-42.0693576613
 10
56.2231401667
 20
-42.0165132774
 10
56.3327783054
 20
-41.964742358
 10
56.4379550493
 20
-41.914172695
 10
56.5381306301
 20
-41.865179062
 10
56.6340236773
 20
-41.8175191504
 10
56.7274479053
 20
-41.7703674827
 10
56.8186752022
 20
-41.7236373184
 10
56.9075125119
 20
-41.6774764107
 10
56.9950187182
 20
-41.631373212
 10
57.0820082655
 20
-41.5849150483
 10
57.1677367557
 20
-41.5385038078
 10
57.2509270706
 20
-41.4928542709
 10
57.3312518521
 20
-41.4481896452
 10
57.4091957593
 20
-41.4042843056
 10
57.4847104689
 20
-41.36120619
 10
57.5575242197
 20
-41.3191558323
 10
57.6280182377
 20
-41.2779582943
 10
57.6971097906
 20
-41.237109914
 10
57.7648114281
 20
-41.1966269788
 10
57.8311780105
 20
-41.1565004797
 10
57.8971802041
 20
-41.1161577573
 10
57.9628240765
 20
-41.07560035
 10
58.0281566967
 20
-41.0348046638
 10
58.0942114102
 20
-40.9931209612
 10
58.161057926
 20
-40.9504903737
 10
58.2286881782
 20
-40.9069032083
 10
58.2980306079
 20
-40.8617375663
 10
58.3694319522
 20
-40.8147302655
 10
58.4425870206
 20
-40.7660396404
 10
58.5174534904
 20
-40.7156520695
 10
58.5941909004
 20
-40.6634148564
 10
58.6726153715
 20
-40.6094057817
 10
58.7521620774
 20
-40.5539732285
 10
58.8324244578
 20
-40.4973699288
 10
58.9137628323
 20
-40.439310078
 10
58.99675839
 20
-40.3793329131
 10
59.08135714
 20
-40.3174216124
 10
59.1675559731
 20
-40.2535200039
 10
59.2560088028
 20
-40.1870714825
 10
59.3468763747
 20
-40.117865843
 10
59.4399123623
 20
-40.045996013
 10
59.5351506864
 20
-39.9713374641
 10
59.6327401639
 20
-39.8936640971
 10
59.7324140227
 20
-39.813077644
 10
59.8335929157
 20
-39.7299569037
 10
59.9362763855
 20
-39.6442207752
 10
60.0403818524
 20
-39.5558538917
 10
60.1452168112
 20
-39.4653715258
 10
60.2507311317
 20
-39.3727563295
 10
60.3568926114
 20
-39.2779740167
 10
60.4630487641
 20
-39.1815565742
 10
60.569155209
 20
-39.0835068041
 10
60.6751829772
 20
-38.9838128161
 10
60.7805199018
 20
-38.8830245167
 10
60.8850288834
 20
-38.7812639828
 10
60.988791323
 20
-38.6784454834
 10
61.0915331475
 20
-38.5748499941
 10
61.193098396
 20
-38.4706567374
 10
61.2935857933
 20
-38.3657858765
 10
61.393104446
 20
-38.2601373191
 10
61.4918034961
 20
-38.1535572112
 10
61.5894680982
 20
-38.0462813551
 10
61.6856695993
 20
-37.9388001023
 10
61.7804006276
 20
-37.8311518026
 10
61.8736318578
 20
-37.7233993527
 10
61.9649274086
 20
-37.6160883256
 10
62.0541270194
 20
-37.5094659048
 10
62.1413973584
 20
-37.4033914187
 10
62.2268318731
 20
-37.2978043872
 10
62.3103943247
 20
-37.1928045129
 10
62.3922054893
 20
-37.0882953836
 10
62.4725925173
 20
-36.9839030191
 10
62.5514132448
 20
-36.8798527787
 10
62.6288723256
 20
-36.7759156867
 10
62.7057822048
 20
-36.6710113423
 10
62.7821877034
 20
-36.5650608427
 10
62.858051427
 20
-36.4580983457
 10
62.934018093
 20
-36.3491755842
 10
63.0103954672
 20
-36.2377760229
 10
63.0868394831
 20
-36.1243249144
 10
63.1630061549
 20
-36.0092797809
 10
63.2388492018
 20
-35.8926647758
 10
63.3143596791
 20
-35.774443497
 10
63.3892549109
 20
-35.6550168177
 10
63.4631428742
 20
-35.5349945162
 10
63.5363745695
 20
-35.4137904007
 10
63.6097579836
 20
-35.2899932599
 10
63.6831703149
 20
-35.163695832
 10
63.7566152411
 20
-35.0347728012
 10
63.8310118381
 20
-34.9014285851
 10
63.9063921898
 20
-34.7633491272
 10
63.982488184
 20
-34.620754608
 10
64.0596898733
 20
-34.4726031158
 10
64.1379023721
 20
-34.3187207786
 10
64.2169110943
 20
-34.1591615812
 10
64.2968725686
 20
-33.9931981237
 10
64.377594028
 20
-33.8207673628
 10
64.4588754254
 20
-33.6418052384
 10
64.5408043859
 20
-33.455564026
 10
64.6231238361
 20
-33.2620047178
 10
64.7055870492
 20
-33.0610410033
 10
64.7882255084
 20
-32.8518381692
 10
64.8706554345
 20
-32.6345489972
 10
64.9526306597
 20
-32.408972434
 10
65.0342796057
 20
-32.1737392518
 10
65.1151457543
 20
-31.9289806229
 10
65.1948330958
 20
-31.6746100021
 10
65.2733846436
 20
-31.4089298825
 10
65.3502341723
 20
-31.131982403
 10
65.4248039544
 20
-30.8438328729
 10
65.4969239851
 20
-30.5427872629
 10
65.5660446206
 20
-30.2282640966
 10
65.6313380661
 20
-29.9008118746
 10
65.6920948265
 20
-29.5604360672
  0
LWPOLYLINE
  5
270
100
AcDbEntity
  8
DRAFT
100
AcDbPolyline
 62
7
  6
CONTINUOUS
 90
10
 70
0
 10
51.0386643619
 20
-43.6664068456
 10
50.4841272666
 20
-43.7286930535
 10
49.9293244209
 20
-43.7880032015
 10
49.3742553787
 20
-43.8443377355
 10
48.8189033789
 20
-43.897698464
 10
48.2632842528
 20
-43.9480844074
 10
47.7074464256
 20
-43.9954917984
 10
47.1514057075
 20
-44.0399196153
 10
46.5951452925
 20
-44.0813695813
 10
46.0386646665
 20
-44.119842014
  0
LWPOLYLINE
  5
271
100
AcDbEntity
  8
RACCORDO
100
AcDbPolyline
 62
253
  6
CONTINUOUS
 90
10
 70
0
 10
46.0172488897
 20
-43.6904806341
 10
46.5713294268
 20
-43.6521334833
 10
47.125206551
 20
-43.6108170872
 10
47.678880753
 20
-43.5665311424
 10
48.2323797266
 20
-43.519272953
 10
48.7856767277
 20
-43.469044545
 10
49.3386905763
 20
-43.4158526675
 10
49.8913945089
 20
-43.359699307
 10
50.4438161762
 20
-43.3005816864
 10
50.9959560035
 20
-43.2384993805
  0
LWPOLYLINE
  5
272
100
AcDbEntity
  8
RACCORDO
100
AcDbPolyline
 62
253
  6
CONTINUOUS
 90
10
 70
0
 10
46.0264798034
 20
-43.9430175044
 10
46.5819617307
 20
-43.904619725
 10
47.1372721601
 20
-43.8632472481
 10
47.6923945205
 20
-43.81890065
 10
48.2473266525
 20
-43.7715792796
 10
48.8020399288
 20
-43.7212848014
 10
49.3564781277
 20
-43.6680219405
 10
49.9106127102
 20
-43.6117934884
 10
50.46444157
 20
-43.5525997737
 10
51.0179481946
 20
-43.4904425028
  0
LWPOLYLINE
  5
273
100
AcDbEntity
  8
DRAFT
100
AcDbPolyline
 62
7
  6
CONTINUOUS
 90
19
 70
0
 10
46.0386646665
 20
-44.119842014
 10
41.677513944
 20
-44.393630341
 10
37.3124260704
 20
-44.6352834605
 10
32.9434212527
 20
-44.8448213704
 10
28.569759036
 20
-45.0223366984
 10
24.1922139475
 20
-45.1677694167
 10
19.8130757876
 20
-45.2809068575
 10
15.4326009426
 20
-45.3617034462
 10
11.0505583567
 20
-45.4102216467
 10
6.6685050983
 20
-45.4264068131
 10
2.2864518026
 20
-45.4102210591
 10
-2.0955898633
 20
-45.361702271
 10
-6.4760612836
 20
-45.2809052268
 10
-10.8551929026
 20
-45.1677674574
 10
-15.232728946
 20
-45.0223345428
 10
-19.6063799001
 20
-44.8448192976
 10
-23.9753713335
 20
-44.635281799
 10
-28.3404436061
 20
-44.3936293703
 10
-32.7015765118
 20
-44.119842014
  0
LWPOLYLINE
  5
274
100
AcDbEntity
  8
RACCORDO
100
AcDbPolyline
 62
253
  6
CONTINUOUS
 90
37
 70
0
 10
-32.6893913259
 20
-43.9430175251
 10
-31.0606742206
 20
-44.0489684606
 10
-29.3853550825
 20
-44.1532618772
 10
-27.6633899387
 20
-44.2555056332
 10
-25.9006012206
 20
-44.3549739622
 10
-24.0910812262
 20
-44.4516103915
 10
-22.2171704846
 20
-44.5458489138
 10
-20.2787856378
 20
-44.637083724
 10
-18.2758794934
 20
-44.7246860547
 10
-16.1908414627
 20
-44.8086842714
 10
-14.0227717093
 20
-44.8882467534
 10
-11.7725579803
 20
-44.9624384119
 10
-9.4252804838
 20
-45.030732064
 10
-6.9673313089
 20
-45.0922892572
 10
-4.4123904995
 20
-45.1454790863
 10
-1.7864894788
 20
-45.1886825897
 10
0.921832893
 20
-45.2210734305
 10
3.7009317223
 20
-45.2414679191
 10
6.4900659464
 20
-45.2488577775
 10
9.2935983823
 20
-45.2430813796
 10
12.10687972
 20
-45.223978094
 10
14.8556482733
 20
-45.1924376382
 10
17.5279267904
 20
-45.1495730574
 10
20.1354901383
 20
-45.0961458858
 10
22.6397646461
 20
-45.0340439232
 10
25.0226692411
 20
-44.965134712
 10
27.3022150717
 20
-44.8902539446
 10
29.493995174
 20
-44.8099906744
 10
31.5966969264
 20
-44.7253699456
 10
33.6116539794
 20
-44.6372754128
 10
35.5584370043
 20
-44.5456453895
 10
37.4370806456
 20
-44.4511480551
 10
39.2476894855
 20
-44.3544245181
 10
41.0099297344
 20
-44.2549581327
 10
42.7303781855
 20
-44.1527791052
 10
44.4025463334
 20
-44.0486638331
 10
46.0264798034
 20
-43.9430175037
  0
LWPOLYLINE
  5
275
100
AcDbEntity
  8
RACCORDO
100
AcDbPolyline
 62
253
  6
CONTINUOUS
 90
37
 70
0
 10
-32.680160735
 20
-43.6904806341
 10
-31.0518964227
 20
-43.7972183297
 10
-29.3769570877
 20
-43.9014916885
 10
-27.6553398012
 20
-44.0033013201
 10
-25.8929597028
 20
-44.1028473269
 10
-24.0838976742
 20
-44.1999307613
 10
-22.2103975566
 20
-44.2939537892
 10
-20.2724262314
 20
-44.3852108629
 10
-18.2700109656
 20
-44.4734088807
 10
-16.1854816269
 20
-44.5570691299
 10
-14.0179032235
 20
-44.6365648087
 10
-11.7682046011
 20
-44.7115245397
 10
-9.4215061521
 20
-44.7793535099
 10
-6.9641250281
 20
-44.8404376104
 10
-4.4097391817
 20
-44.8943932769
 10
-1.7845065128
 20
-44.9374723443
 10
0.9231708883
 20
-44.9691246832
 10
3.7016935874
 20
-44.9899025775
 10
6.4901087908
 20
-44.9977116561
 10
9.2929219164
 20
-44.9913112017
 10
12.1056215417
 20
-44.971941981
 10
14.8537299427
 20
-44.9412313832
 10
17.5253219089
 20
-44.8983736611
 10
20.1323205552
 20
-44.8441723347
 10
22.6360205128
 20
-44.7826688399
 10
25.0183361154
 20
-44.7142681865
 10
27.2973585631
 20
-44.6385629637
 10
29.4886444199
 20
-44.5583768903
 10
31.5908348324
 20
-44.4741328295
 10
33.6052954752
 20
-44.3854061142
 10
35.5516639986
 20
-44.2937500001
 10
37.4298984906
 20
-44.1994926662
 10
39.2400472297
 20
-44.1023046457
 10
41.0018781597
 20
-44.0027531919
 10
42.7219809878
 20
-43.9010270725
 10
44.3937702043
 20
-43.7969364142
 10
46.0172488897
 20
-43.6904806341
  0
LWPOLYLINE
  5
276
100
AcDbEntity
  8
DRAFT
100
AcDbPolyline
 62
7
  6
CONTINUOUS
 90
10
 70
0
 10
-32.7015765118
 20
-44.119842014
 10
-33.2581339617
 20
-44.0813635288
 10
-33.8144513079
 20
-44.0399088606
 10
-34.370529065
 20
-43.9954776917
 10
-34.9263831537
 20
-43.9480680794
 10
-35.4819986504
 20
-43.8976812654
 10
-36.0373297883
 20
-43.8443216761
 10
-36.5923616224
 20
-43.7879905114
 10
-37.147110028
 20
-43.7286857434
 10
-37.7015754515
 20
-43.6664069264
  0
LWPOLYLINE
  5
277
100
AcDbEntity
  8
RACCORDO
100
AcDbPolyline
 62
253
  6
CONTINUOUS
 90
9
 70
0
 10
-37.1067279132
 20
-43.3005816974
 10
-36.5543061644
 20
-43.3596993259
 10
-36.001602177
 20
-43.4158526914
 10
-35.4485882998
 20
-43.4690445705
 10
-34.8952912969
 20
-43.5192729772
 10
-34.3417923495
 20
-43.5665311632
 10
-33.7881182024
 20
-43.610817103
 10
-33.2342411611
 20
-43.6521334922
 10
-32.680160735
 20
-43.6904806341
  0
LWPOLYLINE
  5
278
100
AcDbEntity
  8
RACCORDO
100
AcDbPolyline
 62
253
  6
CONTINUOUS
 90
10
 70
0
 10
-37.6809140863
 20
-43.4904362869
 10
-37.1273843335
 20
-43.5525963854
 10
-36.5735381122
 20
-43.6117920762
 10
-36.0193919455
 20
-43.6680217457
 10
-35.4649499668
 20
-43.7212849701
 10
-34.9102387077
 20
-43.7715792611
 10
-34.3553083396
 20
-43.818900487
 10
-33.8001854694
 20
-43.8632471351
 10
-33.2448742746
 20
-43.9046196748
 10
-32.689391326
 20
-43.9430175259
  0
LWPOLYLINE
  5
279
100
AcDbEntity
  8
DRAFT
100
AcDbPolyline
 62
7
  6
CONTINUOUS
 90
70
 70
0
 10
-37.7015754515
 20
-43.6664069264
 10
-38.0815555959
 20
-43.6170152329
 10
-38.4472287519
 20
-43.5628457593
 10
-38.7985957756
 20
-43.5038978512
 10
-39.1352170396
 20
-43.4394832121
 10
-39.4575336317
 20
-43.3702885841
 10
-39.7668671219
 20
-43.2983761478
 10
-40.0630693946
 20
-43.2240075332
 10
-40.3462890713
 20
-43.1469201651
 10
-40.6182924446
 20
-43.0683904992
 10
-40.8791152211
 20
-42.9885472339
 10
-41.1287217789
 20
-42.9072611485
 10
-41.3687712421
 20
-42.82542224
 10
-41.5992775157
 20
-42.743166114
 10
-41.8202265816
 20
-42.6603569939
 10
-42.033235614
 20
-42.5774780822
 10
-42.2374823112
 20
-42.4950489461
 10
-42.4337887871
 20
-42.4125500964
 10
-42.6262388821
 20
-42.3289060331
 10
-42.8140740649
 20
-42.2447401792
 10
-42.9980527608
 20
-42.159428767
 10
-43.1845343949
 20
-42.0700246786
 10
-43.3767467309
 20
-41.9750719845
 10
-43.5714620981
 20
-41.8760246336
 10
-43.7653568036
 20
-41.774299998
 10
-43.9579020211
 20
-41.6700898801
 10
-44.1496264579
 20
-41.5632012669
 10
-44.338792628
 20
-41.4544748375
 10
-44.5247342905
 20
-41.344161984
 10
-44.7081174591
 20
-41.2320104953
 10
-44.889202998
 20
-41.1181058737
 10
-45.0672406827
 20
-41.0030128343
 10
-45.2429804807
 20
-40.8861659267
 10
-45.418933555
 20
-40.7659549895
 10
-45.5948638118
 20
-40.6428362598
 10
-45.771007066
 20
-40.516351829
 10
-45.9505823149
 20
-40.3835189997
 10
-46.1337418168
 20
-40.2445745825
 10
-46.320332862
 20
-40.0992780938
 10
-46.5131168259
 20
-39.9439287302
 10
-46.7128456769
 20
-39.7782145672
 10
-46.9187664976
 20
-39.6024405912
 10
-47.1313829542
 20
-39.4138288316
 10
-47.3518268558
 20
-39.2114672512
 10
-47.5789644786
 20
-38.9962572672
 10
-47.809900681
 20
-38.7681395996
 10
-48.0445280004
 20
-38.5271389205
 10
-48.2829508446
 20
-38.2732186647
 10
-48.5225913262
 20
-38.0062272645
 10
-48.7635849857
 20
-37.7260036999
 10
-49.0057918074
 20
-37.4326956968
 10
-49.2462199681
 20
-37.126614662
 10
-49.4852504602
 20
-36.8066760358
 10
-49.7224961646
 20
-36.4739502624
 10
-49.953813086
 20
-36.1319835463
 10
-50.1775115722
 20
-35.7834695408
 10
-50.3952754748
 20
-35.4257064292
 10
-50.6080202247
 20
-35.0541465705
 10
-50.8160684257
 20
-34.6695930438
 10
-51.0190881818
 20
-34.2712280947
 10
-51.2170095695
 20
-33.8520651636
 10
-51.4123969739
 20
-33.4056381267
 10
-51.6026684713
 20
-32.9383853057
 10
-51.7800356057
 20
-32.4626811786
 10
-51.9431188317
 20
-31.9776828905
 10
-52.0932868154
 20
-31.4842272307
 10
-52.2268829886
 20
-30.9972283184
 10
-52.3426915264
 20
-30.5216673515
 10
-52.4419308369
 20
-30.0525807521
 10
-52.5246017254
 20
-29.5899756633
  0
LINE
  5
27A
100
AcDbEntity
  8
RACCORDO
100
AcDbLine
 62
253
  6
CONTINUOUS
 10
-37.6588678489
 20
42.3856857545
 11
-37.664435205
 21
42.4369342124
  0
LINE
  5
27B
100
AcDbEntity
  8
RACCORDO
100
AcDbLine
 62
253
  6
CONTINUOUS
 10
-37.664435205
 20
42.4369342124
 11
-37.6694288379
 21
42.4851700795
  0
LWPOLYLINE
  5
27C
100
AcDbEntity
  8
RACCORDO
100
AcDbPolyline
 62
253
  6
CONTINUOUS
 90
11
 70
0
 10
-37.6694288379
 20
42.4851700795
 10
-37.6736922661
 20
42.5288818401
 10
-37.6755073897
 20
42.548606386
 10
-37.6770918899
 20
42.5666997454
 10
-37.6784333291
 20
42.5830198965
 10
-37.6795211776
 20
42.597438736
 10
-37.6803468964
 20
42.6098430851
 10
-37.6809040038
 20
42.6201355771
 10
-37.6811881269
 20
42.6282354224
 10
-37.6811970353
 20
42.6340790421
 10
-37.6809306587
 20
42.6376205674
  0
LINE
  5
27D
100
AcDbEntity
  8
RACCORDO
100
AcDbLine
 62
253
  6
CONTINUOUS
 10
-32.7015765116
 20
43.2670283879
 11
-32.6893916519
 21
43.0902038781
  0
LINE
  5
27E
100
AcDbEntity
  8
RACCORDO
100
AcDbLine
 62
253
  6
CONTINUOUS
 10
-32.680160735
 20
42.837667008
 11
-32.6832195922
 21
42.8890898341
  0
LINE
  5
27F
100
AcDbEntity
  8
RACCORDO
100
AcDbLine
 62
253
  6
CONTINUOUS
 10
-32.6832195922
 20
42.8890898341
 11
-32.6858287746
 21
42.9374751826
  0
LWPOLYLINE
  5
280
100
AcDbEntity
  8
RACCORDO
100
AcDbPolyline
 62
253
  6
CONTINUOUS
 90
11
 70
0
 10
-32.6858287746
 20
42.9374751826
 10
-32.6879066096
 20
42.9813084958
 10
-32.6887252376
 20
43.0010825906
 10
-32.689388057
 20
43.0192177042
 10
-32.6898898709
 20
43.0355716416
 10
-32.6902267445
 20
43.050016174
 10
-32.6903960365
 20
43.0624380435
 10
-32.6903964194
 20
43.072739852
 10
-32.6902278904
 20
43.0808408244
 10
-32.6898917707
 20
43.086677442
 10
-32.6893906959
 20
43.0902039408
  0
LWPOLYLINE
  5
281
100
AcDbEntity
  8
RACCORDO
100
AcDbPolyline
 62
253
  6
CONTINUOUS
 90
9
 70
0
 10
-32.6887252377
 20
-43.8538962174
 10
-32.6893880571
 20
-43.8720313311
 10
-32.689889871
 20
-43.8883852687
 10
-32.6902267446
 20
-43.9028298012
 10
-32.6903960366
 20
-43.9152516708
 10
-32.6903964195
 20
-43.9255534794
 10
-32.6902278905
 20
-43.9336544519
 10
-32.6898917708
 20
-43.9394910696
 10
-32.689390696
 20
-43.9430175684
  0
LINE
  5
282
100
AcDbEntity
  8
RACCORDO
100
AcDbLine
 62
253
  6
CONTINUOUS
 10
-32.686938592
 20
-43.8128640927
 11
-32.6887252377
 21
-43.8538962174
  0
LINE
  5
283
100
AcDbEntity
  8
RACCORDO
100
AcDbLine
 62
253
  6
CONTINUOUS
 10
-32.6845858595
 20
-43.7665732816
 11
-32.686938592
 21
-43.8128640927
  0
LWPOLYLINE
  5
284
100
AcDbEntity
  8
RACCORDO
100
AcDbPolyline
 62
253
  6
CONTINUOUS
 90
3
 70
0
 10
-32.680160735
 20
-43.6904806341
 10
-32.6817406854
 20
-43.7164727784
 10
-32.6845858595
 20
-43.7665732816
  0
LINE
  5
285
100
AcDbEntity
  8
RACCORDO
100
AcDbLine
 62
253
  6
CONTINUOUS
 10
-32.7015765116
 20
-44.119842014
 11
-32.689391326
 21
-43.9430175259
  0
LWPOLYLINE
  5
286
100
AcDbEntity
  8
RACCORDO
100
AcDbPolyline
 62
253
  6
CONTINUOUS
 90
9
 70
0
 10
-37.6755073592
 20
-43.4014201167
 10
-37.6770918594
 20
-43.4195134904
 10
-37.6784333002
 20
-43.4358336548
 10
-37.6795211521
 20
-43.4502525067
 10
-37.6803468761
 20
-43.4626568668
 10
-37.6809039908
 20
-43.4729493685
 10
-37.6811881233
 20
-43.4810492218
 10
-37.6811970431
 20
-43.4868928478
 10
-37.6809306803
 20
-43.4904343776
  0
LINE
  5
287
100
AcDbEntity
  8
RACCORDO
100
AcDbLine
 62
253
  6
CONTINUOUS
 10
-37.6716607403
 20
-43.3604946336
 11
-37.6755073592
 21
-43.4014201167
  0
LINE
  5
288
100
AcDbEntity
  8
RACCORDO
100
AcDbLine
 62
253
  6
CONTINUOUS
 10
-37.6670139809
 20
-43.3143396446
 11
-37.6716607403
 21
-43.3604946336
  0
LWPOLYLINE
  5
289
100
AcDbEntity
  8
RACCORDO
100
AcDbPolyline
 62
253
  6
CONTINUOUS
 90
3
 70
0
 10
-37.6588678489
 20
-43.2384993805
 10
-37.6617126918
 20
-43.2644014605
 10
-37.6670139809
 20
-43.3143396446
  0
LINE
  5
28A
100
AcDbEntity
  8
RACCORDO
100
AcDbLine
 62
253
  6
CONTINUOUS
 10
-37.7015765116
 20
-43.6664068131
 11
-37.6809140868
 21
-43.4904362911
  0
LINE
  5
28B
100
AcDbEntity
  8
0
100
AcDbLine
 62
7
  6
CONTINUOUS
 10
12.0276922893
 20
-29.3342081674
 11
11.4655596992
 21
-29.3342081674
  0
LINE
  5
28C
100
AcDbEntity
  8
0
100
AcDbLine
 62
7
  6
CONTINUOUS
 10
10.5706194222
 20
-29.3342081674
 11
9.9885628796
 21
-29.3342081674
  0
LINE
  5
28D
100
AcDbEntity
  8
0
100
AcDbLine
 62
7
  6
CONTINUOUS
 10
9.8169520773
 20
-29.3342078131
 11
9.2010100773
 21
-29.3342078131
  0
LINE
  5
28E
100
AcDbEntity
  8
0
100
AcDbLine
 62
7
  6
CONTINUOUS
 10
8.0924910773
 20
-29.3342078131
 11
7.5144240773
 21
-29.3342078131
  0
LINE
  5
28F
100
AcDbEntity
  8
0
100
AcDbLine
 62
7
  6
CONTINUOUS
 10
7.4226560773
 20
-29.3342078131
 11
6.8509500773
 21
-29.3342078131
  0
LINE
  5
290
100
AcDbEntity
  8
0
100
AcDbLine
 62
7
  6
CONTINUOUS
 10
6.0360200773
 20
-29.3342078131
 11
5.9540570773
 21
-29.3342078131
  0
LINE
  5
291
100
AcDbEntity
  8
0
100
AcDbLine
 62
7
  6
CONTINUOUS
 10
5.1423610773
 20
-29.3342078131
 11
4.5832720773
 21
-29.3342078131
  0
LINE
  5
292
100
AcDbEntity
  8
0
100
AcDbLine
 62
7
  6
CONTINUOUS
 10
4.2686670773
 20
-29.3342078131
 11
3.6842590773
 21
-29.3342078131
  0
LINE
  5
293
100
AcDbEntity
  8
0
100
AcDbLine
 62
7
  6
CONTINUOUS
 10
2.5674470773
 20
-29.3342078131
 11
2.0524370773
 21
-29.3342078131
  0
LINE
  5
294
100
AcDbEntity
  8
0
100
AcDbLine
 62
7
  6
CONTINUOUS
 10
9.0496180773
 20
-28.7752878131
 11
8.2537510773
 21
-28.7752878131
  0
LINE
  5
295
100
AcDbEntity
  8
0
100
AcDbLine
 62
7
  6
CONTINUOUS
 10
8.9328240773
 20
-28.3427978131
 11
8.3732950773
 21
-28.3427978131
  0
LINE
  5
296
100
AcDbEntity
  8
0
100
AcDbLine
 62
7
  6
CONTINUOUS
 10
10.8839650396
 20
-28.2385587378
 11
10.5706194222
 21
-28.2385587378
  0
LINE
  5
297
100
AcDbEntity
  8
RACCORDO
100
AcDbLine
 62
253
  6
CONTINUOUS
 10
-37.7015765116
 20
42.8135931869
 11
-37.6808600352
 21
42.637628882
  0
LWPOLYLINE
  5
298
100
AcDbEntity
  8
0
100
AcDbPolyline
 62
7
  6
CONTINUOUS
 90
25
 70
0
 10
9.9885628796
 20
-26.5672141541
 10
10.0484526162
 20
-26.5584903571
 10
10.10828462
 20
-26.5502768373
 10
10.1680588856
 20
-26.5425735988
 10
10.2277362602
 20
-26.5353294276
 10
10.287355886
 20
-26.5285955448
 10
10.3470351984
 20
-26.5225256081
 10
10.4067872772
 20
-26.5171131527
 10
10.4665990288
 20
-26.5123646508
 10
10.5265486241
 20
-26.508453166
 10
10.5866452961
 20
-26.5053715997
 10
10.6468797942
 20
-26.5031270562
 10
10.7073025601
 20
-26.5019139048
 10
10.7679743692
 20
-26.5017291777
 10
10.8288344237
 20
-26.5025758442
 10
10.8897508016
 20
-26.504657178
 10
10.9507339593
 20
-26.5079049247
 10
11.0117734135
 20
-26.5123873326
 10
11.0727058262
 20
-26.5185124253
 10
11.1336594092
 20
-26.5261896784
 10
11.1945059145
 20
-26.5355095949
 10
11.2546973043
 20
-26.5471517272
 10
11.3140508801
 20
-26.5613425705
 10
11.3727492892
 20
-26.5778555694
 10
11.4307925071
 20
-26.5966906865
  0
LWPOLYLINE
  5
299
100
AcDbEntity
  8
RACCORDO
100
AcDbPolyline
 62
7
  6
CONTINUOUS
 90
25
 70
0
 10
28.4685440773
 20
-23.2285196607
 10
28.5408823099
 20
-23.2249355586
 10
28.6125672603
 20
-23.2167315391
 10
28.6833137377
 20
-23.203989904
 10
28.752938752
 20
-23.1867778025
 10
28.8212375961
 20
-23.1651720162
 10
28.8877567963
 20
-23.1393586854
 10
28.9519831815
 20
-23.1096330121
 10
29.0139423237
 20
-23.0760680143
 10
29.0738734005
 20
-23.0385338853
 10
29.1316721676
 20
-22.9970049892
 10
29.1868575426
 20
-22.9517549855
 10
29.2390649503
 20
-22.9030673121
 10
29.2881117614
 20
-22.8511057091
 10
29.3337895563
 20
-22.7960638076
 10
29.3757793598
 20
-22.7383358809
 10
29.4138216877
 20
-22.6783683983
 10
29.4479355356
 20
-22.6162199527
 10
29.4781954821
 20
-22.5516679093
 10
29.50448704
 20
-22.4846753921
 10
29.526482282
 20
-22.4158592825
 10
29.5439651219
 20
-22.3459711341
 10
29.5568967068
 20
-22.2754054418
 10
29.5652896302
 20
-22.2042619488
 10
29.5691373309
 20
-22.1328272818
  0
LWPOLYLINE
  5
29A
100
AcDbEntity
  8
0
100
AcDbPolyline
 62
7
  6
CONTINUOUS
 90
31
 70
0
 10
10.8852247205
 20
-27.7800348996
 10
10.9090861317
 20
-27.779276169
 10
10.9328401659
 20
-27.7777789931
 10
10.9564868264
 20
-27.7755433709
 10
10.9800621592
 20
-27.7726329504
 10
11.0035301245
 20
-27.7689840797
 10
11.0267825978
 20
-27.7644058052
 10
11.049833053
 20
-27.7589314073
 10
11.0726680234
 20
-27.7525275957
 10
11.0951389751
 20
-27.7449035579
 10
11.1173637551
 20
-27.7360332388
 10
11.1392245248
 20
-27.7259426716
 10
11.1602192219
 20
-27.7144191694
 10
11.1803155801
 20
-27.7013547
 10
11.1995458711
 20
-27.6868572568
 10
11.2175048374
 20
-27.671038188
 10
11.2340615612
 20
-27.6537771655
 10
11.2493469582
 20
-27.6351944694
 10
11.2633485184
 20
-27.6157623677
 10
11.2760306673
 20
-27.5955039165
 10
11.2874289717
 20
-27.5743960246
 10
11.2976376318
 20
-27.5528417573
 10
11.3066515399
 20
-27.530921761
 10
11.3144757943
 20
-27.5085553706
 10
11.3212199048
 20
-27.4859036964
 10
11.326921264
 20
-27.462988294
 10
11.3315424699
 20
-27.4397875952
 10
11.3350808413
 20
-27.4163980311
 10
11.3375354809
 20
-27.3928517435
 10
11.338907276
 20
-27.3691165825
 10
11.3391962213
 20
-27.345192544
  0
LWPOLYLINE
  5
29B
100
AcDbEntity
  8
RACCORDO
100
AcDbPolyline
 62
253
  6
CONTINUOUS
 90
10
 70
0
 10
28.4832981804
 20
-23.6444135396
 10
23.6358006863
 20
-23.7662368287
 10
18.7880879123
 20
-23.8576033686
 10
13.9402468983
 20
-23.9185139386
 10
9.0924223664
 20
-23.9489690403
 10
4.2446427984
 20
-23.9489689565
 10
-0.6031794341
 20
-23.9185137502
 10
-5.4510158496
 20
-23.8576031802
 10
-10.2987217266
 20
-23.7662367031
 10
-15.1462100257
 20
-23.6444135396
  0
LWPOLYLINE
  5
29C
100
AcDbEntity
  8
RACCORDO
100
AcDbPolyline
 62
253
  6
CONTINUOUS
 90
10
 70
0
 10
27.2650612277
 20
-23.2434559604
 10
22.688222911
 20
-23.3520469424
 10
18.111300624
 20
-23.4334901633
 10
13.5342943666
 20
-23.4877856229
 10
8.9571474141
 20
-23.5149333006
 10
4.3799164911
 20
-23.514933217
 10
-0.1972282278
 20
-23.487785435
 10
-4.7742300179
 20
-23.4334899753
 10
-9.3511456039
 20
-23.3520468171
 10
-13.927974986
 20
-23.2434559604
  0
LINE
  5
29D
100
AcDbEntity
  8
RACCORDO
100
AcDbLine
 62
7
  6
CONTINUOUS
 10
27.2656720169
 20
-23.2434559604
 11
28.4685440773
 21
-23.2285154355
  0
LINE
  5
29E
100
AcDbEntity
  8
0
100
AcDbLine
 62
7
  6
CONTINUOUS
 10
18.7801371051
 20
-22.9509830729
 11
28.4685440773
 21
-22.9426569166
  0
LINE
  5
29F
100
AcDbEntity
  8
0
100
AcDbLine
 62
7
  6
CONTINUOUS
 10
9.0909804847
 20
-22.9545514255
 11
18.7801371051
 21
-22.9509830729
  0
LINE
  5
2A0
100
AcDbEntity
  8
0
100
AcDbLine
 62
7
  6
CONTINUOUS
 10
10.8852247205
 20
-27.7800348996
 11
10.5512413314
 21
-27.7800348996
  0
LINE
  5
2A1
100
AcDbEntity
  8
0
100
AcDbLine
 62
7
  6
CONTINUOUS
 10
8.9579340773
 20
-26.5345048131
 11
8.3925890773
 21
-26.5345048131
  0
LINE
  5
2A2
100
AcDbEntity
  8
0
100
AcDbLine
 62
7
  6
CONTINUOUS
 10
7.1608520773
 20
-26.5345048131
 11
6.5826380773
 21
-26.5345048131
  0
LINE
  5
2A3
100
AcDbEntity
  8
0
100
AcDbLine
 62
7
  6
CONTINUOUS
 10
5.4199940773
 20
-26.5345048131
 11
4.8360690773
 21
-26.5345048131
  0
LINE
  5
2A4
100
AcDbEntity
  8
0
100
AcDbLine
 62
7
  6
CONTINUOUS
 10
3.4673840773
 20
-26.5345048131
 11
2.8833750773
 21
-26.5345048131
  0
LINE
  5
2A5
100
AcDbEntity
  8
0
100
AcDbLine
 62
7
  6
CONTINUOUS
 10
1.7997240773
 20
-26.5345048131
 11
1.1648760773
 21
-26.5345048131
  0
LINE
  5
2A6
100
AcDbEntity
  8
0
100
AcDbLine
 62
7
  6
CONTINUOUS
 10
4.2686670773
 20
-26.5343368131
 11
3.6842590773
 21
-26.5343368131
  0
LINE
  5
2A7
100
AcDbEntity
  8
RACCORDO
100
AcDbLine
 62
253
  6
CONTINUOUS
 10
-52.7520379225
 20
-24.1216667093
 11
66.089126077
 21
-24.1216667118
  0
LINE
  5
2A8
100
AcDbEntity
  8
RACCORDO
100
AcDbLine
 62
253
  6
CONTINUOUS
 10
27.2650612277
 20
-23.2434559604
 11
-13.927974986
 21
-23.2434559604
  0
LINE
  5
2A9
100
AcDbEntity
  8
RACCORDO
100
AcDbLine
 62
253
  6
CONTINUOUS
 10
28.4685407797
 20
-23.0309294112
 11
-15.1314547067
 21
-23.0309294112
  0
LINE
  5
2AA
100
AcDbEntity
  8
0
100
AcDbLine
 62
7
  6
CONTINUOUS
 10
-0.598604506
 20
-22.9533619746
 11
9.0909804847
 21
-22.9545514255
  0
LWPOLYLINE
  5
2AB
100
AcDbEntity
  8
0
100
AcDbPolyline
 62
7
  6
CONTINUOUS
 90
3
 70
0
 10
-15.1314559227
 20
-22.9426569166
 10
-10.287332756
 20
-22.9474147202
 10
-0.598604506
 20
-22.9533619746
  0
LINE
  5
2AC
100
AcDbEntity
  8
RACCORDO
100
AcDbLine
 62
7
  6
CONTINUOUS
 10
-15.1314559228
 20
-23.2285154351
 11
-13.9285838574
 21
-23.2434559604
  0
LWPOLYLINE
  5
2AD
100
AcDbEntity
  8
RACCORDO
100
AcDbPolyline
 62
253
  6
CONTINUOUS
 90
49
 70
0
 10
-15.1314547067
 20
-23.0309294111
 10
-15.1549764197
 20
-23.0306242882
 10
-15.178136893
 20
-23.0297267923
 10
-15.2009220418
 20
-23.0282640712
 10
-15.2231498788
 20
-23.0262803698
 10
-15.2449791227
 20
-23.0237936544
 10
-15.2669044694
 20
-23.0207543498
 10
-15.2889687641
 20
-23.0171421045
 10
-15.3110987078
 20
-23.0129544199
 10
-15.3336050901
 20
-23.0081072481
 10
-15.3565954407
 20
-23.0025331696
 10
-15.3799133694
 20
-22.9962243592
 10
-15.4034674792
 20
-22.9891667709
 10
-15.4273218608
 20
-22.98130013
 10
-15.4513538734
 20
-22.9726228831
 10
-15.47520086
 20
-22.9632434677
 10
-15.498796932
 20
-22.9531832295
 10
-15.522166358
 20
-22.9424271808
 10
-15.5450993559
 20
-22.9310750767
 10
-15.5675026053
 20
-22.9191906272
 10
-15.5894466403
 20
-22.9067536359
 10
-15.6109735924
 20
-22.8937500202
 10
-15.6320004507
 20
-22.8802410651
 10
-15.6525866806
 20
-22.866200098
 10
-15.6729717442
 20
-22.8514554326
 10
-15.6930856662
 20
-22.8360357564
 10
-15.7129449535
 20
-22.8199059704
 10
-15.7328776564
 20
-22.8027471887
 10
-15.7528357414
 20
-22.7845174787
 10
-15.7727483866
 20
-22.765194015
 10
-15.7928507199
 20
-22.7444286743
 10
-15.8130959404
 20
-22.722105232
 10
-15.8333197113
 20
-22.6982275584
 10
-15.8535260367
 20
-22.6725900646
 10
-15.8735922834
 20
-22.645109387
 10
-15.8933472413
 20
-22.6157587653
 10
-15.912681501
 20
-22.5844067684
 10
-15.9315195747
 20
-22.5508111229
 10
-15.9495423258
 20
-22.5151325285
 10
-15.9663165224
 20
-22.4778882271
 10
-15.9818315673
 20
-22.4387513864
 10
-15.9957779586
 20
-22.398101379
 10
-16.0075668061
 20
-22.3576443854
 10
-16.0171466256
 20
-22.3181320709
 10
-16.0248027742
 20
-22.2790548536
 10
-16.0306575973
 20
-22.2402859622
 10
-16.0347851518
 20
-22.2018350483
 10
-16.0372431168
 20
-22.1638546566
 10
-16.0381042079
 20
-22.1264168426
  0
LWPOLYLINE
  5
2AE
100
AcDbEntity
  8
RACCORDO
100
AcDbPolyline
 62
253
  6
CONTINUOUS
 90
55
 70
0
 10
-15.1462100257
 20
-23.6444135396
 10
-15.190992065
 20
-23.6424501191
 10
-15.2353445513
 20
-23.6392537911
 10
-15.2792674925
 20
-23.6348245544
 10
-15.3227657946
 20
-23.6291410389
 10
-15.3658345662
 20
-23.6222246113
 10
-15.4084591176
 20
-23.6141393753
 10
-15.4506427783
 20
-23.604888916
 10
-15.4923822307
 20
-23.5944696427
 10
-15.5336528132
 20
-23.5829348944
 10
-15.5744500699
 20
-23.5702905984
 10
-15.6147784663
 20
-23.5565308201
 10
-15.6546267225
 20
-23.5416911053
 10
-15.6940003282
 20
-23.5257800824
 10
-15.7328938011
 20
-23.5087891139
 10
-15.7712794021
 20
-23.4907278467
 10
-15.8091793962
 20
-23.4715844429
 10
-15.8465715239
 20
-23.4513707294
 10
-15.8833612578
 20
-23.4301318498
 10
-15.9195464506
 20
-23.4078621624
 10
-15.9551292528
 20
-23.3845672965
 10
-15.9900215832
 20
-23.3603093022
 10
-16.0242226178
 20
-23.3350859741
 10
-16.0577331814
 20
-23.3088995045
 10
-16.0904676646
 20
-23.2818185403
 10
-16.1224247717
 20
-23.253838933
 10
-16.1536057968
 20
-23.2249648178
 10
-16.1839290148
 20
-23.1952772682
 10
-16.2133873017
 20
-23.16477727
 10
-16.2419877775
 20
-23.1334638243
 10
-16.269670081
 20
-23.1014150287
 10
-16.2964296819
 20
-23.0686331712
 10
-16.3222711045
 20
-23.0351159512
 10
-16.3471475689
 20
-23.0009345848
 10
-16.3710653237
 20
-22.9660771732
 10
-16.3940181123
 20
-22.9305556031
 10
-16.4159403978
 20
-22.8944767706
 10
-16.436823225
 20
-22.8578418304
 10
-16.4566755394
 20
-22.8206496172
 10
-16.4754586541
 20
-22.7830035489
 10
-16.4931491079
 20
-22.7449634355
 10
-16.5097703513
 20
-22.7064694586
 10
-16.5253540637
 20
-22.6674455934
 10
-16.5399158033
 20
-22.6279184511
 10
-16.5534399996
 20
-22.58786141
 10
-16.5659116388
 20
-22.547118594
 10
-16.5773568252
 20
-22.5056889623
 10
-16.5877494393
 20
-22.4635735413
 10
-16.5969961286
 20
-22.4206195519
 10
-16.6051213336
 20
-22.3768546646
 10
-16.6121005945
 20
-22.3322511907
 10
-16.6177672048
 20
-22.2865733077
 10
-16.6220655858
 20
-22.2397423986
 10
-16.6250512888
 20
-22.1918370545
 10
-16.6267242996
 20
-22.1428572624
  0
LWPOLYLINE
  5
2AF
100
AcDbEntity
  8
0
100
AcDbPolyline
 62
7
  6
CONTINUOUS
 90
10
 70
0
 10
11.0090575074
 20
-26.994979062
 10
10.9601507778
 20
-26.9900511049
 10
10.910695894
 20
-26.9868016309
 10
10.860692871
 20
-26.9852306455
 10
10.8100648106
 20
-26.9853230153
 10
10.7588886412
 20
-26.9870938761
 10
10.7073951186
 20
-26.9905886327
 10
10.6556611721
 20
-26.995822415
 10
10.6036099044
 20
-27.0027800778
 10
10.5512413314
 20
-27.011461609
  0
LWPOLYLINE
  5
2B0
100
AcDbEntity
  8
RACCORDO
100
AcDbPolyline
 62
7
  6
CONTINUOUS
 90
25
 70
0
 10
-16.232048587
 20
-22.1328341498
 10
-16.2282097764
 20
-22.2041183636
 10
-16.2198328009
 20
-22.2752020746
 10
-16.206908671
 20
-22.3457928779
 10
-16.1894008058
 20
-22.4158256081
 10
-16.16731866
 20
-22.484902546
 10
-16.140887209
 20
-22.5521877596
 10
-16.1104210526
 20
-22.6170625508
 10
-16.0760353309
 20
-22.6795477531
 10
-16.0377207755
 20
-22.7397593245
 10
-15.9955052855
 20
-22.7976045095
 10
-15.9496347951
 20
-22.8526845706
 10
-15.9004046562
 20
-22.9046458867
 10
-15.8480365243
 20
-22.9532852741
 10
-15.7927594038
 20
-22.9984167876
 10
-15.7348687071
 20
-23.0398294077
 10
-15.6748107353
 20
-23.0772663659
 10
-15.6127693192
 20
-23.1107041322
 10
-15.548446039
 20
-23.1403061823
 10
-15.4817646398
 20
-23.1660104452
 10
-15.4133232797
 20
-23.187485938
 10
-15.3438403194
 20
-23.2044939112
 10
-15.2735927699
 20
-23.2170036718
 10
-15.2027049924
 20
-23.2250209298
 10
-15.1314559228
 20
-23.2285197395
  0
LWPOLYLINE
  5
2B1
100
AcDbEntity
  8
SUPERFICI
100
AcDbPolyline
 62
7
  6
CONTINUOUS
 90
25
 70
0
 10
-15.9486864144
 20
-22.1264068131
 10
-15.9468182108
 20
-22.1798136596
 10
-15.941468495
 20
-22.2329826018
 10
-15.9326599352
 20
-22.2856872114
 10
-15.9204294335
 20
-22.3377030177
 10
-15.9048293521
 20
-22.3888082721
 10
-15.8859273181
 20
-22.4387851901
 10
-15.8638033752
 20
-22.4874215903
 10
-15.8385516404
 20
-22.5345095856
 10
-15.810281683
 20
-22.5798469531
 10
-15.779114026
 20
-22.6232408235
 10
-15.7451812377
 20
-22.6645065654
 10
-15.7086299322
 20
-22.7034674396
 10
-15.6696163183
 20
-22.7399577141
 10
-15.6283061122
 20
-22.7738227265
 10
-15.584876039
 20
-22.80491858
 10
-15.539510833
 20
-22.8331134898
 10
-15.4924035523
 20
-22.8582875741
 10
-15.4437557427
 20
-22.8803335605
 10
-15.3937745557
 20
-22.8991580658
 10
-15.3426722911
 20
-22.9146812777
 10
-15.2906667856
 20
-22.9268370108
 10
-15.2379793556
 20
-22.9355736926
 10
-15.1848337763
 20
-22.9408544551
 10
-15.1314559227
 20
-22.9426569166
  0
LINE
  5
2B2
100
AcDbEntity
  8
RACCORDO
100
AcDbLine
 62
253
  6
CONTINUOUS
 10
-16.6267242996
 20
-22.1428572624
 11
-16.6362176964
 21
-17.4943613671
  0
LINE
  5
2B3
100
AcDbEntity
  8
RACCORDO
100
AcDbLine
 62
253
  6
CONTINUOUS
 10
-16.6362176964
 20
-17.4943613671
 11
-16.6436862119
 21
-12.5714579538
  0
LINE
  5
2B4
100
AcDbEntity
  8
RACCORDO
100
AcDbLine
 62
253
  6
CONTINUOUS
 10
-16.6436862119
 20
-12.5714579538
 11
-16.648834059
 21
-7.4914332135
  0
LINE
  5
2B5
100
AcDbEntity
  8
RACCORDO
100
AcDbLine
 62
253
  6
CONTINUOUS
 10
-16.648834059
 20
-7.4914332135
 11
-16.6512066257
 21
-2.7229310248
  0
LINE
  5
2B6
100
AcDbEntity
  8
RACCORDO
100
AcDbLine
 62
253
  6
CONTINUOUS
 10
-16.6512066257
 20
-2.7229310248
 11
-16.6503450955
 21
4.2252939959
  0
LINE
  5
2B7
100
AcDbEntity
  8
RACCORDO
100
AcDbLine
 62
253
  6
CONTINUOUS
 10
-16.6503450955
 20
4.2252939959
 11
-16.6466181712
 21
9.1423902006
  0
LINE
  5
2B8
100
AcDbEntity
  8
RACCORDO
100
AcDbLine
 62
253
  6
CONTINUOUS
 10
-16.6466181712
 20
9.1423902006
 11
-16.6402229502
 21
14.2122373018
  0
LWPOLYLINE
  5
2B9
100
AcDbEntity
  8
RACCORDO
100
AcDbPolyline
 62
253
  6
CONTINUOUS
 90
3
 70
0
 10
-16.6402229502
 20
14.2122373018
 10
-16.6317365385
 20
18.9861318508
 10
-16.6267243016
 20
21.2900438449
  0
LWPOLYLINE
  5
2BA
100
AcDbEntity
  8
RACCORDO
100
AcDbPolyline
 62
253
  6
CONTINUOUS
 90
55
 70
0
 10
-16.6267243016
 20
21.2900438449
 10
-16.6250494365
 20
21.3390513926
 10
-16.6220610366
 20
21.3869812551
 10
-16.6177591161
 20
21.4338334456
 10
-16.6120880664
 20
21.479528539
 10
-16.6051035235
 20
21.5241459865
 10
-16.5969723662
 20
21.5679241117
 10
-16.5877193488
 20
21.6108906903
 10
-16.5773197364
 20
21.653017965
 10
-16.5658661701
 20
21.6944609563
 10
-16.5533850041
 20
21.7352187875
 10
-16.5398498993
 20
21.7752923496
 10
-16.5252744557
 20
21.8148393107
 10
-16.5096737876
 20
21.8538875986
 10
-16.4930327929
 20
21.8924092958
 10
-16.4753197452
 20
21.9304783002
 10
-16.4565088059
 20
21.9681574169
 10
-16.4366258243
 20
22.0053838491
 10
-16.4157166061
 20
22.0420430923
 10
-16.3937715676
 20
22.0781348794
 10
-16.3708003019
 20
22.1136594883
 10
-16.3468773799
 20
22.1485032349
 10
-16.3220130599
 20
22.182648464
 10
-16.2961970914
 20
22.2161128432
 10
-16.2694732808
 20
22.248835674
 10
-16.2418390032
 20
22.2808190525
 10
-16.2132968896
 20
22.3120608954
 10
-16.1838986301
 20
22.3424942357
 10
-16.1536375289
 20
22.3721216141
 10
-16.1225202856
 20
22.4009405031
 10
-16.0906186829
 20
22.4288763348
 10
-16.0579297456
 20
22.4559274803
 10
-16.0244564505
 20
22.4820955817
 10
-15.9902795071
 20
22.5073109778
 10
-15.955393467
 20
22.5315741283
 10
-15.919803778
 20
22.5548845864
 10
-15.8836074931
 20
22.5771713317
 10
-15.8468032322
 20
22.5984270048
 10
-15.8093923723
 20
22.6186589774
 10
-15.7714761014
 20
22.6378183257
 10
-15.733079144
 20
22.6558915927
 10
-15.6941767701
 20
22.6728922466
 10
-15.6547959855
 20
22.6888117512
 10
-15.6149427887
 20
22.7036587753
 10
-15.5746111737
 20
22.7174246592
 10
-15.5338101387
 20
22.7300748748
 10
-15.4925352781
 20
22.7416156375
 10
-15.4507909879
 20
22.7520407393
 10
-15.4085994684
 20
22.7612970159
 10
-15.3659641363
 20
22.7693883496
 10
-15.3228815629
 20
22.7763108637
 10
-15.2793636787
 20
22.7819997559
 10
-15.2354144557
 20
22.7864334265
 10
-15.1910299073
 20
22.7896334787
 10
-15.1462100257
 20
22.7915999135
  0
LWPOLYLINE
  5
2BB
100
AcDbEntity
  8
0
100
AcDbPolyline
 62
7
  6
CONTINUOUS
 90
25
 70
0
 10
-15.9486864144
 20
21.2735931869
 10
-15.9468182108
 20
21.3270000335
 10
-15.941468495
 20
21.3801689757
 10
-15.9326599352
 20
21.4328735852
 10
-15.9204294335
 20
21.4848893916
 10
-15.9048293521
 20
21.535994646
 10
-15.8859273181
 20
21.585971564
 10
-15.8638033752
 20
21.6346079642
 10
-15.8385516404
 20
21.6816959594
 10
-15.810281683
 20
21.727033327
 10
-15.779114026
 20
21.7704271974
 10
-15.7451812377
 20
21.8116929393
 10
-15.7086299322
 20
21.8506538135
 10
-15.6696163183
 20
21.887144088
 10
-15.6283061122
 20
21.9210091003
 10
-15.584876039
 20
21.9521049539
 10
-15.539510833
 20
21.9802998637
 10
-15.4924035523
 20
22.005473948
 10
-15.4437557427
 20
22.0275199344
 10
-15.3937745557
 20
22.0463444397
 10
-15.3426722911
 20
22.0618676516
 10
-15.2906667856
 20
22.0740233847
 10
-15.2379793556
 20
22.0827600664
 10
-15.1848337763
 20
22.088040829
 10
-15.1314559227
 20
22.0898432905
  0
LINE
  5
2BC
100
AcDbEntity
  8
RACCORDO
100
AcDbLine
 62
253
  6
CONTINUOUS
 10
-52.5246017199
 20
-29.589975698
 11
-52.3550071181
 21
-29.5604332442
  0
LWPOLYLINE
  5
2BD
100
AcDbEntity
  8
RACCORDO
100
AcDbPolyline
 62
253
  6
CONTINUOUS
 90
16
 70
0
 10
-52.0775557938
 20
-29.5322154018
 10
-52.1052993857
 20
-29.536652986
 10
-52.1326452217
 20
-29.5408475592
 10
-52.1593502209
 20
-29.5447618353
 10
-52.1851769992
 20
-29.5483610197
 10
-52.2098959789
 20
-29.5516131187
 10
-52.2332874297
 20
-29.5544892238
 10
-52.255143422
 20
-29.5569637688
 10
-52.275269675
 20
-29.5590147572
 10
-52.2934872837
 20
-29.5606239573
 10
-52.3096343094
 20
-29.5617770647
 10
-52.3235672192
 20
-29.5624638291
 10
-52.3351621614
 20
-29.5626781458
 10
-52.3443160673
 20
-29.5624181095
 10
-52.3509475664
 20
-29.5616860317
 10
-52.3549977106
 20
-29.5604884197
  0
LINE
  5
2BE
100
AcDbEntity
  8
RACCORDO
100
AcDbLine
 62
253
  6
CONTINUOUS
 10
-53.0618215819
 20
-25.589975698
 11
-52.8911197352
 21
-25.5719455394
  0
LWPOLYLINE
  5
2BF
100
AcDbEntity
  8
RACCORDO
100
AcDbPolyline
 62
253
  6
CONTINUOUS
 90
16
 70
0
 10
-52.6110899162
 20
-25.5570898735
 10
-52.6391971411
 20
-25.5597815046
 10
-52.6668983462
 20
-25.5623008566
 10
-52.6939451603
 20
-25.5646253408
 10
-52.7200950794
 20
-25.5667341156
 10
-52.7451136413
 20
-25.5686082736
 10
-52.7687765274
 20
-25.570231011
 10
-52.7908715743
 20
-25.5715877782
 10
-52.8112006762
 20
-25.5726664102
 10
-52.8295815605
 20
-25.573457236
 10
-52.8458494228
 20
-25.573953165
 10
-52.8598584041
 20
-25.5741497506
 10
-52.8714828987
 20
-25.5740452302
 10
-52.8806186805
 20
-25.573640541
 10
-52.8871838373
 20
-25.5729393114
 10
-52.8911195053
 20
-25.5719478288
  0
LINE
  5
2C0
100
AcDbEntity
  8
RACCORDO
100
AcDbLine
 62
253
  6
CONTINUOUS
 10
-53.045124657
 20
-24.0011997111
 11
-53.2158983104
 21
-24.0173868131
  0
LWPOLYLINE
  5
2C1
100
AcDbEntity
  8
RACCORDO
100
AcDbPolyline
 62
253
  6
CONTINUOUS
 90
15
 70
0
 10
-52.7520379125
 20
-24.1216668131
 10
-52.8079111317
 20
-24.1266254642
 10
-52.8349879119
 20
-24.1288573216
 10
-52.8611654067
 20
-24.1308969702
 10
-52.8862086126
 20
-24.1327260994
 10
-52.9098927089
 20
-24.1343282887
 10
-52.9320050762
 20
-24.1356891546
 10
-52.9523472049
 20
-24.1367964802
 10
-52.9707364773
 20
-24.1376403248
 10
-52.9870078073
 20
-24.1382131129
 10
-53.001015122
 20
-24.1385097023
 10
-53.0126326736
 20
-24.1385274305
 10
-53.0217561676
 20
-24.1382661384
 10
-53.0283036995
 20
-24.1377281716
 10
-53.0322164902
 20
-24.1369183597
  0
LWPOLYLINE
  5
2C2
100
AcDbEntity
  8
RACCORDO
100
AcDbPolyline
 62
253
  6
CONTINUOUS
 90
15
 70
0
 10
-52.7649320916
 20
-23.9860473633
 10
-52.8208098096
 20
-23.9909755611
 10
-52.8478886906
 20
-23.9931936182
 10
-52.8740681439
 20
-23.9952205841
 10
-52.899113136
 20
-23.9970382613
 10
-52.922798818
 20
-23.9986303309
 10
-52.9449125449
 20
-23.9999824997
 10
-52.9652557841
 20
-24.0010826283
 10
-52.9836458983
 20
-24.0019208398
 10
-52.9999177848
 20
-24.002489609
 10
-53.0139253581
 20
-24.0027838296
 10
-53.025542861
 20
-24.0028008601
 10
-53.0346659939
 20
-24.0025405477
 10
-53.0412128514
 20
-24.0020052294
 10
-53.045124657
 20
-24.0011997111
  0
LINE
  5
2C3
100
AcDbEntity
  8
RACCORDO
100
AcDbLine
 62
253
  6
CONTINUOUS
 10
-16.3129004736
 20
-22.1344228097
 11
-16.2320718775
 21
-22.1322948008
  0
LWPOLYLINE
  5
2C4
100
AcDbEntity
  8
RACCORDO
100
AcDbPolyline
 62
253
  6
CONTINUOUS
 90
10
 70
0
 10
-16.1545071469
 20
-22.1319454147
 10
-16.1324314027
 20
-22.1315060733
 10
-16.1124424565
 20
-22.1310058463
 10
-16.0946426227
 20
-22.1304515686
 10
-16.0791240374
 20
-22.1298503885
 10
-16.0659658424
 20
-22.1292097403
 10
-16.0552344299
 20
-22.1285372298
 10
-16.0469856823
 20
-22.1278406227
 10
-16.0412635855
 20
-22.1271278204
 10
-16.0380985842
 20
-22.1264068131
  0
LINE
  5
2C5
100
AcDbEntity
  8
RACCORDO
100
AcDbLine
 62
253
  6
CONTINUOUS
 10
-16.398926649
 20
-22.1360830487
 11
-16.3129004736
 21
-22.1344228097
  0
LINE
  5
2C6
100
AcDbEntity
  8
RACCORDO
100
AcDbLine
 62
253
  6
CONTINUOUS
 10
-16.4886509238
 20
-22.1372466964
 11
-16.398926649
 21
-22.1360830487
  0
LWPOLYLINE
  5
2C7
100
AcDbEntity
  8
RACCORDO
100
AcDbPolyline
 62
253
  6
CONTINUOUS
 90
3
 70
0
 10
-16.2320706482
 20
-22.1328341189
 10
-16.2044553129
 20
-22.1326154932
 10
-16.1545071469
 20
-22.1319454147
  0
LWPOLYLINE
  5
2C8
100
AcDbEntity
  8
RACCORDO
100
AcDbPolyline
 62
253
  6
CONTINUOUS
 90
3
 70
0
 10
-16.6267342999
 20
-22.1380202501
 10
-16.5805065831
 20
-22.1378940799
 10
-16.4886509238
 20
-22.1372466964
  0
LINE
  5
2C9
100
AcDbEntity
  8
RACCORDO
100
AcDbLine
 62
253
  6
CONTINUOUS
 10
-15.9486864144
 20
-22.1264068131
 11
-16.038098564
 21
-22.126416842
  0
LINE
  5
2CA
100
AcDbEntity
  8
RACCORDO
100
AcDbLine
 62
253
  6
CONTINUOUS
 10
29.2857745691
 20
-22.1264068131
 11
29.3751867281
 21
-22.1264122297
  0
LINE
  5
2CB
100
AcDbEntity
  8
RACCORDO
100
AcDbLine
 62
253
  6
CONTINUOUS
 10
29.5691373309
 20
-22.1328272818
 11
29.5156281961
 21
-22.132296222
  0
LINE
  5
2CC
100
AcDbEntity
  8
RACCORDO
100
AcDbLine
 62
253
  6
CONTINUOUS
 10
29.9637741472
 20
-22.1434717594
 11
29.8714621611
 21
-22.1418744986
  0
LWPOLYLINE
  5
2CD
100
AcDbEntity
  8
RACCORDO
100
AcDbPolyline
 62
253
  6
CONTINUOUS
 90
10
 70
0
 10
29.5156281961
 20
-22.132296222
 10
29.4695006782
 20
-22.1314822177
 10
29.4495089479
 20
-22.1309832835
 10
29.4317078461
 20
-22.1304315801
 10
29.4161884531
 20
-22.129833902
 10
29.4030313026
 20
-22.1291971681
 10
29.3923057121
 20
-22.1285285472
 10
29.3840658994
 20
-22.1278354945
 10
29.3783521207
 20
-22.127125673
 10
29.3751922878
 20
-22.1264068131
  0
LINE
  5
2CE
100
AcDbEntity
  8
RACCORDO
100
AcDbLine
 62
253
  6
CONTINUOUS
 10
29.8714621611
 20
-22.1418744986
 11
29.7804847148
 21
-22.1397750036
  0
LINE
  5
2CF
100
AcDbEntity
  8
RACCORDO
100
AcDbLine
 62
253
  6
CONTINUOUS
 10
29.7804847148
 20
-22.1397750036
 11
29.6924263354
 21
-22.1372100751
  0
LWPOLYLINE
  5
2D0
100
AcDbEntity
  8
RACCORDO
100
AcDbPolyline
 62
253
  6
CONTINUOUS
 90
3
 70
0
 10
29.6924263354
 20
-22.1372100751
 10
29.6088180722
 20
-22.1342250567
 10
29.5691423443
 20
-22.132590897
  0
LWPOLYLINE
  5
2D1
100
AcDbEntity
  8
RACCORDO
100
AcDbPolyline
 62
253
  6
CONTINUOUS
 90
13
 70
0
 10
66.1849768411
 20
-23.9931936174
 10
66.211156293
 20
-23.9952205832
 10
66.2362012837
 20
-23.9970382602
 10
66.2598869644
 20
-23.9986303297
 10
66.28200069
 20
-23.9999824984
 10
66.302343928
 20
-24.0010826269
 10
66.3207340411
 20
-24.0019208383
 10
66.3370059267
 20
-24.0024896075
 10
66.3510134992
 20
-24.002783828
 10
66.3626310015
 20
-24.0028008585
 10
66.3717541341
 20
-24.0025405462
 10
66.3783009913
 20
-24.0020052279
 10
66.382212797
 20
-24.0011997097
  0
LWPOLYLINE
  5
2D2
100
AcDbEntity
  8
RACCORDO
100
AcDbPolyline
 62
253
  6
CONTINUOUS
 90
13
 70
0
 10
66.1720760666
 20
-24.1288573216
 10
66.1982535614
 20
-24.1308969702
 10
66.2232967673
 20
-24.1327260994
 10
66.2469808636
 20
-24.1343282887
 10
66.2690932309
 20
-24.1356891546
 10
66.2894353596
 20
-24.1367964802
 10
66.307824632
 20
-24.1376403248
 10
66.324095962
 20
-24.1382131129
 10
66.3381032768
 20
-24.1385097023
 10
66.3497208283
 20
-24.1385274305
 10
66.3588443223
 20
-24.1382661384
 10
66.3653918542
 20
-24.1377281716
 10
66.3693046449
 20
-24.1369183597
  0
LWPOLYLINE
  5
2D3
100
AcDbEntity
  8
RACCORDO
100
AcDbPolyline
 62
253
  6
CONTINUOUS
 90
3
 70
0
 10
66.102020246
 20
-23.9860473631
 10
66.1301627628
 20
-23.9885863257
 10
66.1849768411
 20
-23.9931936174
  0
LWPOLYLINE
  5
2D4
100
AcDbEntity
  8
RACCORDO
100
AcDbPolyline
 62
253
  6
CONTINUOUS
 90
3
 70
0
 10
66.0891260672
 20
-24.1216668131
 10
66.1172662974
 20
-24.1242214341
 10
66.1720760666
 20
-24.1288573216
  0
LINE
  5
2D5
100
AcDbEntity
  8
RACCORDO
100
AcDbLine
 62
253
  6
CONTINUOUS
 10
66.3822128117
 20
-24.0011997111
 11
66.5529864651
 21
-24.0173868131
  0
LWPOLYLINE
  5
2D6
100
AcDbEntity
  8
RACCORDO
100
AcDbPolyline
 62
253
  6
CONTINUOUS
 90
16
 70
0
 10
65.948178071
 20
-25.5570898735
 10
65.9762852957
 20
-25.5597815047
 10
66.0039865007
 20
-25.5623008567
 10
66.0310333147
 20
-25.5646253409
 10
66.0571832337
 20
-25.5667341157
 10
66.0822017954
 20
-25.5686082738
 10
66.1058646813
 20
-25.5702310112
 10
66.1279597282
 20
-25.5715877783
 10
66.1482888298
 20
-25.5726664104
 10
66.166669714
 20
-25.5734572361
 10
66.1829375762
 20
-25.5739531651
 10
66.1969465574
 20
-25.5741497506
 10
66.2085710518
 20
-25.5740452302
 10
66.2177068335
 20
-25.573640541
 10
66.2242719902
 20
-25.5729393113
 10
66.2282076581
 20
-25.5719478286
  0
LINE
  5
2D7
100
AcDbEntity
  8
RACCORDO
100
AcDbLine
 62
253
  6
CONTINUOUS
 10
66.3989097366
 20
-25.589975698
 11
66.2282079361
 21
-25.5719450824
  0
LWPOLYLINE
  5
2D8
100
AcDbEntity
  8
RACCORDO
100
AcDbPolyline
 62
253
  6
CONTINUOUS
 90
16
 70
0
 10
65.4146439488
 20
-29.5322154022
 10
65.4423875512
 20
-29.5366529844
 10
65.4697333984
 20
-29.5408475558
 10
65.4964384096
 20
-29.5447618304
 10
65.5222652001
 20
-29.5483610136
 10
65.5469841921
 20
-29.5516131118
 10
65.5703756552
 20
-29.5544892166
 10
65.5922316593
 20
-29.556963762
 10
65.6123579235
 20
-29.5590147514
 10
65.6305755426
 20
-29.5606239532
 10
65.6467225777
 20
-29.5617770631
 10
65.6606554957
 20
-29.5624638309
 10
65.6722504448
 20
-29.5626781517
 10
65.6814043561
 20
-29.5624181206
 10
65.6880358591
 20
-29.5616860489
 10
65.6920860054
 20
-29.5604884441
  0
LINE
  5
2D9
100
AcDbEntity
  8
RACCORDO
100
AcDbLine
 62
253
  6
CONTINUOUS
 10
65.8616898746
 20
-29.589975698
 11
65.6920947997
 21
-29.5604360626
  0
LWPOLYLINE
  5
2DA
100
AcDbEntity
  8
0
100
AcDbPolyline
 62
7
  6
CONTINUOUS
 90
48
 70
0
 10
11.4307925071
 20
-26.5966906865
 10
11.4637820142
 20
-26.6101345901
 10
11.4969104179
 20
-26.6264622072
 10
11.5301776971
 20
-26.6456734919
 10
11.5637559469
 20
-26.6676472268
 10
11.5974730276
 20
-26.692504514
 10
11.6308125646
 20
-26.7206087644
 10
11.6640494515
 20
-26.7520776294
 10
11.6969087428
 20
-26.7867932631
 10
11.7280493128
 20
-26.8247658053
 10
11.757554827
 20
-26.8666277438
 10
11.7853415845
 20
-26.9117463115
 10
11.8098174503
 20
-26.9582338331
 10
11.8304554781
 20
-27.0062844348
 10
11.8477826523
 20
-27.0557038477
 10
11.8617877835
 20
-27.1040220077
 10
11.8720823779
 20
-27.1505948418
 10
11.8790550059
 20
-27.196066544
 10
11.8838600833
 20
-27.2398995977
 10
11.8866738033
 20
-27.2818493348
 10
11.8873200208
 20
-27.3221605709
 10
11.8864246288
 20
-27.3610300274
 10
11.8840719413
 20
-27.3985229476
 10
11.8801776741
 20
-27.4345741981
 10
11.8751148134
 20
-27.4691849245
 10
11.8688944063
 20
-27.5023335107
 10
11.8615054256
 20
-27.5340416737
 10
11.8532877399
 20
-27.5643755546
 10
11.8442604963
 20
-27.5933152735
 10
11.8344045591
 20
-27.6208807956
 10
11.8240023687
 20
-27.647198021
 10
11.8130784484
 20
-27.6722737848
 10
11.8016082804
 20
-27.6961013193
 10
11.7898007401
 20
-27.7187861113
 10
11.7776806946
 20
-27.7403245086
 10
11.7652232785
 20
-27.760720217
 10
11.752562767
 20
-27.7800897535
 10
11.7396983154
 20
-27.7984338295
 10
11.7266307679
 20
-27.8157517749
 10
11.7134969319
 20
-27.8321580284
 10
11.7002904645
 20
-27.8476255764
 10
11.6870177067
 20
-27.862181464
 10
11.6738344915
 20
-27.8760212121
 10
11.6607492978
 20
-27.889158905
 10
11.6477536442
 20
-27.901580479
 10
11.6349779225
 20
-27.9134392274
 10
11.6224472952
 20
-27.9247450434
 10
11.6101365973
 20
-27.9354880478
  0
LWPOLYLINE
  5
2DB
100
AcDbEntity
  8
0
100
AcDbPolyline
 62
7
  6
CONTINUOUS
 90
3
 70
0
 10
11.4910472422
 20
-28.0273312499
 10
11.5187743991
 20
-28.0405850203
 10
11.5447315361
 20
-28.0553695542
  0
LWPOLYLINE
  5
2DC
100
AcDbEntity
  8
0
100
AcDbPolyline
 62
7
  6
CONTINUOUS
 90
22
 70
0
 10
11.5447315361
 20
-28.0553695542
 10
11.5689186494
 20
-28.0716848267
 10
11.5912677982
 20
-28.0898499965
 10
11.6118469171
 20
-28.1095458422
 10
11.6308598206
 20
-28.1298147852
 10
11.6482229511
 20
-28.1504644597
 10
11.6640198746
 20
-28.1716872078
 10
11.6787050957
 20
-28.1931025413
 10
11.6923255722
 20
-28.2146342018
 10
11.7048343546
 20
-28.2363584392
 10
11.716545086
 20
-28.2581235398
 10
11.7275038255
 20
-28.2799256417
 10
11.7376645207
 20
-28.3017686043
 10
11.7472026458
 20
-28.3235123037
 10
11.7561292398
 20
-28.3451249323
 10
11.76443327
 20
-28.3666383025
 10
11.7722571022
 20
-28.3880077242
 10
11.77959168
 20
-28.4091929353
 10
11.786446065
 20
-28.4302342049
 10
11.7929897984
 20
-28.4512076386
 10
11.7992106698
 20
-28.4721115266
 10
11.8051208927
 20
-28.4929475813
  0
LINE
  5
2DD
100
AcDbEntity
  8
RACCORDO
100
AcDbLine
 62
253
  6
CONTINUOUS
 10
-15.1371947466
 20
22.5053438324
 11
-15.1322103683
 21
22.375692299
  0
LINE
  5
2DE
100
AcDbEntity
  8
RACCORDO
100
AcDbLine
 62
253
  6
CONTINUOUS
 10
-15.1419298502
 20
22.646016271
 11
-15.1371947466
 21
22.5053438324
  0
LINE
  5
2DF
100
AcDbEntity
  8
RACCORDO
100
AcDbLine
 62
253
  6
CONTINUOUS
 10
-15.1462100257
 20
22.7915999135
 11
-15.1419298502
 21
22.646016271
  0
LINE
  5
2E0
100
AcDbEntity
  8
RACCORDO
100
AcDbLine
 62
253
  6
CONTINUOUS
 10
-16.038098564
 20
-22.126416842
 11
-16.0484826426
 21
-16.947526664
  0
LINE
  5
2E1
100
AcDbEntity
  8
0
100
AcDbLine
 62
7
  6
CONTINUOUS
 10
-15.9486864144
 20
-22.1264068131
 11
-15.9624533251
 21
-14.8953676339
  0
LINE
  5
2E2
100
AcDbEntity
  8
RACCORDO
100
AcDbLine
 62
7
  6
CONTINUOUS
 10
-16.2457980077
 20
-14.9008647895
 11
-16.2320706482
 21
-22.1328341189
  0
LINE
  5
2E3
100
AcDbEntity
  8
RACCORDO
100
AcDbLine
 62
253
  6
CONTINUOUS
 10
-16.0484826426
 20
-16.947526664
 11
-16.0560364125
 21
-11.7798493366
  0
LINE
  5
2E4
100
AcDbEntity
  8
RACCORDO
100
AcDbLine
 62
7
  6
CONTINUOUS
 10
-16.2540279027
 20
-7.6650106733
 11
-16.2457980077
 21
-14.9008647895
  0
LINE
  5
2E5
100
AcDbEntity
  8
0
100
AcDbLine
 62
7
  6
CONTINUOUS
 10
-15.9624533251
 20
-14.8953676339
 11
-15.9707139732
 21
-7.661843121
  0
LINE
  5
2E6
100
AcDbEntity
  8
RACCORDO
100
AcDbLine
 62
253
  6
CONTINUOUS
 10
-16.0560364125
 20
-11.7798493366
 11
-16.0609340101
 21
-6.384481629
  0
LINE
  5
2E7
100
AcDbEntity
  8
RACCORDO
100
AcDbLine
 62
253
  6
CONTINUOUS
 10
-16.0609340101
 20
-6.384481629
 11
-16.0627954047
 21
-0.4264068131
  0
LINE
  5
2E8
100
AcDbEntity
  8
0
100
AcDbLine
 62
7
  6
CONTINUOUS
 10
-15.9707139732
 20
-7.661843121
 11
-15.9734680316
 21
-0.4264068131
  0
LINE
  5
2E9
100
AcDbEntity
  8
RACCORDO
100
AcDbLine
 62
7
  6
CONTINUOUS
 10
-16.2567685444
 20
-0.4264068131
 11
-16.2540279027
 21
-7.6650106733
  0
LINE
  5
2EA
100
AcDbEntity
  8
RACCORDO
100
AcDbLine
 62
253
  6
CONTINUOUS
 10
-15.1314559227
 20
22.375701809
 11
-15.1314559227
 21
22.0898432905
  0
LINE
  5
2EB
100
AcDbEntity
  8
RACCORDO
100
AcDbLine
 62
253
  6
CONTINUOUS
 10
-15.1314559228
 20
-23.2285154351
 11
-15.1314559227
 21
-22.9426569166
  0
LINE
  5
2EC
100
AcDbEntity
  8
RACCORDO
100
AcDbLine
 62
253
  6
CONTINUOUS
 10
-16.0627954047
 20
-0.4264068131
 11
-16.061172533
 21
5.1368628506
  0
LINE
  5
2ED
100
AcDbEntity
  8
RACCORDO
100
AcDbLine
 62
7
  6
CONTINUOUS
 10
-16.2540297678
 20
6.8113823781
 11
-16.2567685533
 21
-0.4264068131
  0
LINE
  5
2EE
100
AcDbEntity
  8
0
100
AcDbLine
 62
7
  6
CONTINUOUS
 10
-15.9734680316
 20
-0.4264068131
 11
-15.9707139732
 21
6.8090294949
  0
LINE
  5
2EF
100
AcDbEntity
  8
RACCORDO
100
AcDbLine
 62
253
  6
CONTINUOUS
 10
-16.061172533
 20
5.1368628506
 11
-16.0566176537
 21
10.427878908
  0
LINE
  5
2F0
100
AcDbEntity
  8
RACCORDO
100
AcDbLine
 62
7
  6
CONTINUOUS
 10
-16.2457964562
 20
14.0472854596
 11
-16.2540297678
 21
6.8113823781
  0
LINE
  5
2F1
100
AcDbEntity
  8
0
100
AcDbLine
 62
7
  6
CONTINUOUS
 10
-15.9707139732
 20
6.8090294949
 11
-15.9624533251
 21
14.0425540077
  0
LINE
  5
2F2
100
AcDbEntity
  8
RACCORDO
100
AcDbLine
 62
253
  6
CONTINUOUS
 10
-16.0566176537
 20
10.427878908
 11
-16.0491256689
 21
15.7193930384
  0
LINE
  5
2F3
100
AcDbEntity
  8
0
100
AcDbLine
 62
7
  6
CONTINUOUS
 10
-15.9624533251
 20
14.0425540077
 11
-15.9486864144
 21
21.2735931869
  0
LINE
  5
2F4
100
AcDbEntity
  8
RACCORDO
100
AcDbLine
 62
7
  6
CONTINUOUS
 10
-16.2320704424
 20
21.2800136318
 11
-16.2457964562
 21
14.0472854596
  0
LINE
  5
2F5
100
AcDbEntity
  8
RACCORDO
100
AcDbLine
 62
253
  6
CONTINUOUS
 10
-16.0491256689
 20
15.7193930384
 11
-16.0380985735
 21
21.2735985572
  0
LWPOLYLINE
  5
2F6
100
AcDbEntity
  8
RACCORDO
100
AcDbPolyline
 62
253
  6
CONTINUOUS
 90
52
 70
0
 10
-16.0381042188
 20
21.2735985575
 10
-16.0372595908
 20
21.3106605215
 10
-16.0348280883
 20
21.3485186096
 10
-16.0307055729
 20
21.3870993458
 10
-16.0247071006
 20
21.4267928895
 10
-16.016771464
 20
21.4670256587
 10
-16.007173707
 20
21.5063022146
 10
-15.9960868248
 20
21.5443111513
 10
-15.9835473395
 20
21.5812589139
 10
-15.9698957537
 20
21.6165023604
 10
-15.9553897392
 20
21.6498366675
 10
-15.9401122771
 20
21.6814729814
 10
-15.9242095301
 20
21.7114342264
 10
-15.9078469421
 20
21.7397043238
 10
-15.8911386757
 20
21.7663521176
 10
-15.8741290405
 20
21.7915300124
 10
-15.8569522099
 20
21.8152349462
 10
-15.8396859076
 20
21.8375397372
 10
-15.8222475639
 20
21.8586930836
 10
-15.8047294166
 20
21.8786983108
 10
-15.7871794438
 20
21.8976086446
 10
-15.7693996458
 20
21.9157138763
 10
-15.7514227213
 20
21.9330308695
 10
-15.733292742
 20
21.9495653555
 10
-15.7147848087
 20
21.9655503508
 10
-15.6958802274
 20
21.9810081882
 10
-15.6766317141
 20
21.9959019467
 10
-15.6568928319
 20
22.0103431478
 10
-15.6366089518
 20
22.0243558694
 10
-15.6158503138
 20
22.0378758923
 10
-15.5946500399
 20
22.0508713168
 10
-15.5729512339
 20
22.0633641278
 10
-15.5508331358
 20
22.0752960491
 10
-15.528545522
 20
22.0865362043
 10
-15.5061021772
 20
22.0970931767
 10
-15.4835348608
 20
22.1069666423
 10
-15.4611395294
 20
22.1160546411
 10
-15.4390384644
 20
22.1243516979
 10
-15.4171688056
 20
22.1319244376
 10
-15.3955555757
 20
22.1388016102
 10
-15.3743203906
 20
22.1449848224
 10
-15.3533892259
 20
22.1505350108
 10
-15.3324854102
 20
22.1555488735
 10
-15.3116684321
 20
22.1600254011
 10
-15.2909073963
 20
22.1639842753
 10
-15.2697778977
 20
22.1675018962
 10
-15.2482692721
 20
22.1705587404
 10
-15.2264099143
 20
22.1731293777
 10
-15.2038263492
 20
22.175222555
 10
-15.1803998527
 20
22.1767937248
 10
-15.156270306
 20
22.1777762497
 10
-15.1314526418
 20
22.1781157848
  0
LINE
  5
2F7
100
AcDbEntity
  8
RACCORDO
100
AcDbLine
 62
253
  6
CONTINUOUS
 10
-15.1462100218
 20
-23.6444135311
 11
-15.1403921929
 21
-23.4510846191
  0
LINE
  5
2F8
100
AcDbEntity
  8
RACCORDO
100
AcDbLine
 62
253
  6
CONTINUOUS
 10
-15.1403921929
 20
-23.4510846191
 11
-15.1355504321
 21
-23.3134254268
  0
LINE
  5
2F9
100
AcDbEntity
  8
RACCORDO
100
AcDbLine
 62
253
  6
CONTINUOUS
 10
-15.1355504321
 20
-23.3134254268
 11
-15.1322103971
 21
-23.2285065008
  0
LINE
  5
2FA
100
AcDbEntity
  8
0
100
AcDbLine
 62
7
  6
CONTINUOUS
 10
2.0524370773
 20
-29.3342078131
 11
1.1648760773
 21
-26.5345048131
  0
LINE
  5
2FB
100
AcDbEntity
  8
0
100
AcDbLine
 62
7
  6
CONTINUOUS
 10
1.7997240773
 20
-26.5345048131
 11
2.3333980773
 21
-28.4616268131
  0
LINE
  5
2FC
100
AcDbEntity
  8
RACCORDO
100
AcDbLine
 62
253
  6
CONTINUOUS
 10
29.9885225678
 20
-0.4264068131
 11
29.3998835594
 21
-0.4264068131
  0
LINE
  5
2FD
100
AcDbEntity
  8
RACCORDO
100
AcDbLine
 62
253
  6
CONTINUOUS
 10
-16.6514344131
 20
-0.4264068131
 11
-16.0627954047
 21
-0.4264068131
  0
LWPOLYLINE
  5
2FE
100
AcDbEntity
  8
0
100
AcDbPolyline
 62
7
  6
CONTINUOUS
 90
19
 70
0
 10
11.2099461364
 20
-28.4850697578
 10
11.200679421
 20
-28.4623130387
 10
11.19027588
 20
-28.4402542651
 10
11.1787355108
 20
-28.4188934546
 10
11.1660452255
 20
-28.3981374275
 10
11.1522181073
 20
-28.378079396
 10
11.1372934119
 20
-28.3589989717
 10
11.121284605
 20
-28.340861913
 10
11.104178221
 20
-28.3237025025
 10
11.0859731217
 20
-28.3079031503
 10
11.0665816531
 20
-28.2934577763
 10
11.046091475
 20
-28.280372507
 10
11.024764425
 20
-28.2690480723
 10
11.0025317463
 20
-28.2596300164
 10
10.9794622102
 20
-28.2519728372
 10
10.9560239506
 20
-28.2460406955
 10
10.9323730177
 20
-28.241821651
 10
10.9083533779
 20
-28.2393276636
 10
10.8839650396
 20
-28.2385587378
  0
LINE
  5
2FF
100
AcDbEntity
  8
0
100
AcDbLine
 62
7
  6
CONTINUOUS
 10
5.9540570773
 20
-29.3342078131
 11
5.2684760773
 21
-27.5060538131
  0
LINE
  5
300
100
AcDbEntity
  8
0
100
AcDbLine
 62
7
  6
CONTINUOUS
 10
5.4199940773
 20
-26.5345048131
 11
5.9982300773
 21
-28.0889088131
  0
LINE
  5
301
100
AcDbEntity
  8
0
100
AcDbLine
 62
7
  6
CONTINUOUS
 10
7.1608520773
 20
-26.5345048131
 11
7.4226560773
 21
-29.3342078131
  0
LINE
  5
302
100
AcDbEntity
  8
0
100
AcDbLine
 62
7
  6
CONTINUOUS
 10
6.8509500773
 20
-29.3342078131
 11
6.7308810773
 21
-27.5136758131
  0
LINE
  5
303
100
AcDbEntity
  8
0
100
AcDbLine
 62
7
  6
CONTINUOUS
 10
3.6842590773
 20
-29.3342078131
 11
3.6842590773
 21
-26.5343368131
  0
LINE
  5
304
100
AcDbEntity
  8
0
100
AcDbLine
 62
7
  6
CONTINUOUS
 10
4.2686670773
 20
-26.5343368131
 11
4.2686670773
 21
-29.3342078131
  0
LINE
  5
305
100
AcDbEntity
  8
0
100
AcDbLine
 62
7
  6
CONTINUOUS
 10
8.9579340773
 20
-26.5345048131
 11
9.8169520773
 21
-29.3342078131
  0
LWPOLYLINE
  5
306
100
AcDbEntity
  8
0
100
AcDbPolyline
 62
7
  6
CONTINUOUS
 90
8
 70
0
 10
11.299317326
 20
-28.7592014959
 10
11.2876475512
 20
-28.7196989573
 10
11.2757250124
 20
-28.6803174628
 10
11.2635494354
 20
-28.6410609338
 10
11.250905313
 20
-28.6019098455
 10
11.2377208068
 20
-28.5628576939
 10
11.2240677489
 20
-28.5239109958
 10
11.2099461364
 20
-28.4850697578
  0
LINE
  5
307
100
AcDbEntity
  8
0
100
AcDbLine
 62
7
  6
CONTINUOUS
 10
11.4655596992
 20
-29.3342081674
 11
11.3678822969
 21
-28.9994048356
  0
LWPOLYLINE
  5
308
100
AcDbEntity
  8
0
100
AcDbPolyline
 62
7
  6
CONTINUOUS
 90
4
 70
0
 10
11.3678822969
 20
-28.9994048356
 10
11.3447795147
 20
-28.9186411615
 10
11.3334651601
 20
-28.878548827
 10
11.299317326
 20
-28.7592014959
  0
LWPOLYLINE
  5
309
100
AcDbEntity
  8
0
100
AcDbPolyline
 62
7
  6
CONTINUOUS
 90
3
 70
0
 10
11.8051208927
 20
-28.4929475813
 10
11.8166966419
 20
-28.5346869723
 10
11.8223621687
 20
-28.555590307
  0
LINE
  5
30A
100
AcDbEntity
  8
0
100
AcDbLine
 62
7
  6
CONTINUOUS
 10
9.2010100773
 20
-29.3342078131
 11
9.0496180773
 21
-28.7752878131
  0
LINE
  5
30B
100
AcDbEntity
  8
0
100
AcDbLine
 62
7
  6
CONTINUOUS
 10
11.8223621687
 20
-28.555590307
 11
11.8973704438
 21
-28.8368677105
  0
LINE
  5
30C
100
AcDbEntity
  8
0
100
AcDbLine
 62
7
  6
CONTINUOUS
 10
11.8973704438
 20
-28.8368677105
 11
12.0276922893
 21
-29.3342081674
  0
LINE
  5
30D
100
AcDbEntity
  8
0
100
AcDbLine
 62
7
  6
CONTINUOUS
 10
8.9328240773
 20
-28.3427978131
 11
8.6642810773
 21
-27.3037918131
  0
LWPOLYLINE
  5
30E
100
AcDbEntity
  8
0
100
AcDbPolyline
 62
7
  6
CONTINUOUS
 90
19
 70
0
 10
11.3391962213
 20
-27.345192544
 10
11.337834487
 20
-27.3186316799
 10
11.3343103945
 20
-27.2920725535
 10
11.328623933
 20
-27.2655151654
 10
11.3208228873
 20
-27.2387337836
 10
11.3108594506
 20
-27.2119541371
 10
11.2985902265
 20
-27.1858534369
 10
11.2839072452
 20
-27.1603208201
 10
11.2669184591
 20
-27.1354671846
 10
11.2478043639
 20
-27.1123024249
 10
11.2263579552
 20
-27.0910147106
 10
11.2027862371
 20
-27.0714159522
 10
11.1778907312
 20
-27.053951686
 10
11.1516891456
 20
-27.0387669032
 10
11.1241637891
 20
-27.0257166852
 10
11.0960630933
 20
-27.0148117061
 10
11.0676365438
 20
-27.0060555383
 10
11.038634678
 20
-26.9994446521
 10
11.0090575074
 20
-26.994979062
  0
LINE
  5
30F
100
AcDbEntity
  8
0
100
AcDbLine
 62
7
  6
CONTINUOUS
 10
9.9885628796
 20
-29.3342081674
 11
9.9885628796
 21
-26.5672141541
  0
LINE
  5
310
100
AcDbEntity
  8
0
100
AcDbLine
 62
7
  6
CONTINUOUS
 10
10.5512413314
 20
-27.011461609
 11
10.5512413314
 21
-27.7800348996
  0
LINE
  5
311
100
AcDbEntity
  8
0
100
AcDbLine
 62
7
  6
CONTINUOUS
 10
10.5706194222
 20
-28.2385587378
 11
10.5706194222
 21
-29.3342081674
  0
LINE
  5
312
100
AcDbEntity
  8
0
100
AcDbLine
 62
7
  6
CONTINUOUS
 10
11.4910472422
 20
-28.0107874411
 11
11.4910472422
 21
-28.0273312499
  0
LINE
  5
313
100
AcDbEntity
  8
0
100
AcDbLine
 62
7
  6
CONTINUOUS
 10
5.2684760773
 20
-27.5060538131
 11
5.1423610773
 21
-29.3342078131
  0
LINE
  5
314
100
AcDbEntity
  8
0
100
AcDbLine
 62
7
  6
CONTINUOUS
 10
4.5832720773
 20
-29.3342078131
 11
4.8360690773
 21
-26.5345048131
  0
LINE
  5
315
100
AcDbEntity
  8
0
100
AcDbLine
 62
7
  6
CONTINUOUS
 10
2.3333980773
 20
-28.4616268131
 11
2.8833750773
 21
-26.5345048131
  0
LINE
  5
316
100
AcDbEntity
  8
0
100
AcDbLine
 62
7
  6
CONTINUOUS
 10
3.4673840773
 20
-26.5345048131
 11
2.5674470773
 21
-29.3342078131
  0
LINE
  5
317
100
AcDbEntity
  8
0
100
AcDbLine
 62
7
  6
CONTINUOUS
 10
8.6642810773
 20
-27.3037918131
 11
8.3732950773
 21
-28.3427978131
  0
LINE
  5
318
100
AcDbEntity
  8
0
100
AcDbLine
 62
7
  6
CONTINUOUS
 10
8.2537510773
 20
-28.7752878131
 11
8.0924910773
 21
-29.3342078131
  0
LINE
  5
319
100
AcDbEntity
  8
0
100
AcDbLine
 62
7
  6
CONTINUOUS
 10
7.5144240773
 20
-29.3342078131
 11
8.3925890773
 21
-26.5345048131
  0
LINE
  5
31A
100
AcDbEntity
  8
0
100
AcDbLine
 62
7
  6
CONTINUOUS
 10
5.9982300773
 20
-28.0889088131
 11
6.5826380773
 21
-26.5345048131
  0
LINE
  5
31B
100
AcDbEntity
  8
0
100
AcDbLine
 62
7
  6
CONTINUOUS
 10
6.7308810773
 20
-27.5136758131
 11
6.0360200773
 21
-29.3342078131
  0
LINE
  5
31C
100
AcDbEntity
  8
RACCORDO
100
AcDbLine
 62
253
  6
CONTINUOUS
 10
65.8616898746
 20
28.7371620719
 11
65.6920952791
 21
28.7076195806
  0
LWPOLYLINE
  5
31D
100
AcDbEntity
  8
RACCORDO
100
AcDbPolyline
 62
253
  6
CONTINUOUS
 90
16
 70
0
 10
65.4146439485
 20
28.6794017757
 10
65.4423875404
 20
28.6838393598
 10
65.4697333763
 20
28.6880339331
 10
65.4964383756
 20
28.6919482092
 10
65.5222651538
 20
28.6955473936
 10
65.5469841335
 20
28.6987994926
 10
65.5703755844
 20
28.7016755976
 10
65.5922315766
 20
28.7041501427
 10
65.6123578296
 20
28.7062011311
 10
65.6305754383
 20
28.7078103312
 10
65.646722464
 20
28.7089634386
 10
65.6606553737
 20
28.709650203
 10
65.672250316
 20
28.7098645196
 10
65.6814042218
 20
28.7096044834
 10
65.688035721
 20
28.7088724055
 10
65.6920858651
 20
28.7076747936
  0
LINE
  5
31E
100
AcDbEntity
  8
RACCORDO
100
AcDbLine
 62
253
  6
CONTINUOUS
 10
66.3989097366
 20
24.7371620719
 11
66.2282078898
 21
24.7191319131
  0
LINE
  5
31F
100
AcDbEntity
  8
RACCORDO
100
AcDbLine
 62
253
  6
CONTINUOUS
 10
66.3822128117
 20
23.148386085
 11
66.5529864651
 21
23.1645731869
  0
LWPOLYLINE
  5
320
100
AcDbEntity
  8
RACCORDO
100
AcDbPolyline
 62
253
  6
CONTINUOUS
 90
15
 70
0
 10
66.0891260672
 20
23.2688531869
 10
66.1449992864
 20
23.2738118381
 10
66.1720760666
 20
23.2760436955
 10
66.1982535614
 20
23.2780833441
 10
66.2232967673
 20
23.2799124733
 10
66.2469808636
 20
23.2815146626
 10
66.2690932309
 20
23.2828755285
 10
66.2894353595
 20
23.2839828541
 10
66.307824632
 20
23.2848266987
 10
66.3240959619
 20
23.2853994867
 10
66.3381032767
 20
23.2856960762
 10
66.3497208283
 20
23.2857138044
 10
66.3588443222
 20
23.2854525123
 10
66.3653918542
 20
23.2849145455
 10
66.3693046448
 20
23.2841047336
  0
LWPOLYLINE
  5
321
100
AcDbEntity
  8
RACCORDO
100
AcDbPolyline
 62
253
  6
CONTINUOUS
 90
15
 70
0
 10
66.1020202463
 20
23.1332337372
 10
66.1578979643
 20
23.138161935
 10
66.1849768452
 20
23.140379992
 10
66.2111562986
 20
23.142406958
 10
66.2362012907
 20
23.1442246352
 10
66.2598869727
 20
23.1458167048
 10
66.2820006996
 20
23.1471688736
 10
66.3023439388
 20
23.1482690022
 10
66.320734053
 20
23.1491072137
 10
66.3370059395
 20
23.1496759829
 10
66.3510135128
 20
23.1499702035
 10
66.3626310156
 20
23.149987234
 10
66.3717541486
 20
23.1497269216
 10
66.3783010061
 20
23.1491916033
 10
66.3822128117
 20
23.148386085
  0
LINE
  5
322
100
AcDbEntity
  8
RACCORDO
100
AcDbLine
 62
253
  6
CONTINUOUS
 10
-53.045124657
 20
23.148386085
 11
-53.2158983104
 21
23.1645731869
  0
LWPOLYLINE
  5
323
100
AcDbEntity
  8
RACCORDO
100
AcDbPolyline
 62
253
  6
CONTINUOUS
 90
16
 70
0
 10
65.9481780709
 20
24.7042762474
 10
65.9762852958
 20
24.7069678785
 10
66.0039865009
 20
24.7094872305
 10
66.031033315
 20
24.7118117147
 10
66.0571832341
 20
24.7139204895
 10
66.082201796
 20
24.7157946475
 10
66.1058646821
 20
24.7174173849
 10
66.127959729
 20
24.7187741521
 10
66.1482888309
 20
24.7198527841
 10
66.1666697152
 20
24.7206436099
 10
66.1829375775
 20
24.7211395389
 10
66.1969465588
 20
24.7213361245
 10
66.2085710534
 20
24.7212316041
 10
66.2177068352
 20
24.7208269149
 10
66.2242719919
 20
24.7201256853
 10
66.22820766
 20
24.7191342027
  0
LWPOLYLINE
  5
324
100
AcDbEntity
  8
RACCORDO
100
AcDbPolyline
 62
253
  6
CONTINUOUS
 90
6
 70
0
 10
29.4161811579
 20
21.2785875905
 10
29.4030312782
 20
21.2776199187
 10
29.3923086711
 20
21.2766315163
 10
29.3840685392
 20
21.2756274719
 10
29.3783533046
 20
21.2746129544
 10
29.3751923908
 20
21.2735931869
  0
LWPOLYLINE
  5
325
100
AcDbEntity
  8
RACCORDO
100
AcDbPolyline
 62
7
  6
CONTINUOUS
 90
25
 70
0
 10
-15.1314559227
 20
22.3757060353
 10
-15.2037966919
 20
22.3721216733
 10
-15.2754881455
 20
22.3639165339
 10
-15.3462450139
 20
22.3511721294
 10
-15.4158849488
 20
22.3339545824
 10
-15.4842020425
 20
22.3123400311
 10
-15.5507386605
 20
22.2865155264
 10
-15.6149815099
 20
22.2567762985
 10
-15.6769552319
 20
22.2231958302
 10
-15.7368982091
 20
22.1856448993
 10
-15.7947048966
 20
22.1440991319
 10
-15.8498939541
 20
22.0988331715
 10
-15.902100565
 20
22.0501313328
 10
-15.951142028
 20
21.9981583998
 10
-15.9968097753
 20
21.9431099546
 10
-16.0387851114
 20
21.8853825547
 10
-16.0768102793
 20
21.825422951
 10
-16.1109069727
 20
21.7632873135
 10
-16.1411506474
 20
21.6987522092
 10
-16.1674269382
 20
21.631784116
 10
-16.1894100971
 20
21.5629957358
 10
-16.2068857392
 20
21.493128614
 10
-16.2198129088
 20
21.4225764698
 10
-16.2282031754
 20
21.3514430343
 10
-16.2320490248
 20
21.2800136596
  0
LWPOLYLINE
  5
326
100
AcDbEntity
  8
RACCORDO
100
AcDbPolyline
 62
253
  6
CONTINUOUS
 90
13
 70
0
 10
29.5691597645
 20
21.2794826145
 10
29.541547235
 20
21.2784251969
 10
29.5156501515
 20
21.2772882964
 10
29.4916019312
 20
21.2760777702
 10
29.4695264662
 20
21.2747998547
 10
29.4495374856
 20
21.2734611335
 10
29.4317379688
 20
21.2720685035
 10
29.4162196161
 20
21.2706291392
 10
29.4030623751
 20
21.2691504559
 10
29.3923340296
 20
21.2676400717
 10
29.3840898502
 20
21.2661057677
 10
29.3783723095
 20
21.2645554483
 10
29.3752108632
 20
21.2629971007
  0
LWPOLYLINE
  5
327
100
AcDbEntity
  8
RACCORDO
100
AcDbPolyline
 62
253
  6
CONTINUOUS
 90
10
 70
0
 10
-15.1462100257
 20
22.7915999135
 10
-10.2987217266
 20
22.913423077
 10
-5.4510158496
 20
23.004789554
 10
-0.6031794342
 20
23.0657001241
 10
4.2446427984
 20
23.0961553304
 10
9.0924223664
 20
23.0961554142
 10
13.9402468983
 20
23.0657003125
 10
18.7880879123
 20
23.0047897425
 10
23.6358006863
 20
22.9134232026
 10
28.4832981804
 20
22.7915999135
  0
LINE
  5
328
100
AcDbEntity
  8
RACCORDO
100
AcDbLine
 62
253
  6
CONTINUOUS
 10
29.6499878663
 20
21.2816091663
 11
29.5691597678
 21
21.2794811668
  0
LWPOLYLINE
  5
329
100
AcDbEntity
  8
RACCORDO
100
AcDbPolyline
 62
253
  6
CONTINUOUS
 90
10
 70
0
 10
-13.9279749857
 20
22.3906423343
 10
-9.351145604
 20
22.499233191
 10
-4.7742300182
 20
22.5806763492
 10
-0.1972282283
 20
22.6349718089
 10
4.3799164905
 20
22.6621195909
 10
8.9571474134
 20
22.6621196745
 10
13.534294366
 20
22.6349719968
 10
18.1113006236
 20
22.5806765371
 10
22.6882229109
 20
22.4992333163
 10
27.265061228
 20
22.3906423343
  0
LINE
  5
32A
100
AcDbEntity
  8
RACCORDO
100
AcDbLine
 62
253
  6
CONTINUOUS
 10
29.7360139918
 20
21.2832694096
 11
29.6499878663
 21
21.2816091663
  0
LINE
  5
32B
100
AcDbEntity
  8
RACCORDO
100
AcDbLine
 62
7
  6
CONTINUOUS
 10
-13.928583856
 20
22.3906423343
 11
-15.1314559227
 21
22.375701809
  0
LINE
  5
32C
100
AcDbEntity
  8
RACCORDO
100
AcDbLine
 62
253
  6
CONTINUOUS
 10
29.8257386222
 20
21.2844330657
 11
29.7360139918
 21
21.2832694096
  0
LWPOLYLINE
  5
32D
100
AcDbEntity
  8
RACCORDO
100
AcDbPolyline
 62
253
  6
CONTINUOUS
 90
3
 70
0
 10
29.9638224546
 20
21.285206624
 10
29.9175945834
 20
21.2850804531
 10
29.8257386222
 20
21.2844330657
  0
LINE
  5
32E
100
AcDbEntity
  8
0
100
AcDbLine
 62
7
  6
CONTINUOUS
 10
-15.1314559227
 20
22.0898432905
 11
-5.4430489504
 21
22.0981694467
  0
LINE
  5
32F
100
AcDbEntity
  8
0
100
AcDbLine
 62
7
  6
CONTINUOUS
 10
-5.4430489504
 20
22.0981694467
 11
4.2461076699
 21
22.1017377994
  0
LINE
  5
330
100
AcDbEntity
  8
RACCORDO
100
AcDbLine
 62
253
  6
CONTINUOUS
 10
29.2857745691
 20
21.2735931869
 11
29.3751923883
 21
21.2735916069
  0
LINE
  5
331
100
AcDbEntity
  8
RACCORDO
100
AcDbLine
 62
253
  6
CONTINUOUS
 10
-15.1314526418
 20
22.1781157851
 11
28.4685413992
 21
22.1781157851
  0
LINE
  5
332
100
AcDbEntity
  8
RACCORDO
100
AcDbLine
 62
253
  6
CONTINUOUS
 10
-13.9279749857
 20
22.3906423343
 11
27.265061228
 21
22.3906423343
  0
LINE
  5
333
100
AcDbEntity
  8
RACCORDO
100
AcDbLine
 62
253
  6
CONTINUOUS
 10
-52.7520379223
 20
23.2688530841
 11
66.0891260773
 21
23.2688530814
  0
LINE
  5
334
100
AcDbEntity
  8
RACCORDO
100
AcDbLine
 62
253
  6
CONTINUOUS
 10
-15.9486864144
 20
21.2735931869
 11
-16.0380985735
 21
21.2735985572
  0
LINE
  5
335
100
AcDbEntity
  8
0
100
AcDbLine
 62
7
  6
CONTINUOUS
 10
4.2461076699
 20
22.1017377994
 11
13.9356926607
 21
22.1005483485
  0
LWPOLYLINE
  5
336
100
AcDbEntity
  8
0
100
AcDbPolyline
 62
7
  6
CONTINUOUS
 90
3
 70
0
 10
13.9356926607
 20
22.1005483485
 10
23.6244209107
 20
22.0946010941
 10
28.4685440773
 20
22.0898432905
  0
LINE
  5
337
100
AcDbEntity
  8
RACCORDO
100
AcDbLine
 62
253
  6
CONTINUOUS
 10
-16.2320490248
 20
21.2800136596
 11
-16.1785399567
 21
21.2794826094
  0
LINE
  5
338
100
AcDbEntity
  8
RACCORDO
100
AcDbLine
 62
7
  6
CONTINUOUS
 10
28.4685440775
 20
22.3757018093
 11
27.2656720182
 21
22.3906423343
  0
LWPOLYLINE
  5
339
100
AcDbEntity
  8
RACCORDO
100
AcDbPolyline
 62
253
  6
CONTINUOUS
 90
7
 70
0
 10
29.569096059
 20
21.2819323144
 10
29.5414691362
 20
21.2823077621
 10
29.5155663181
 20
21.2823837976
 10
29.4915197385
 20
21.2821534701
 10
29.4694536385
 20
21.2815110674
 10
29.4494782115
 20
21.2805397242
 10
29.4161811579
 20
21.2785875905
  0
LWPOLYLINE
  5
33A
100
AcDbEntity
  8
RACCORDO
100
AcDbPolyline
 62
253
  6
CONTINUOUS
 90
49
 70
0
 10
28.4685413992
 20
22.1781157848
 10
28.4933743213
 20
22.1777757957
 10
28.5175880361
 20
22.1767882961
 10
28.5411672221
 20
22.1752022827
 10
28.5639202502
 20
22.1730848019
 10
28.5860164255
 20
22.1704728376
 10
28.6079806239
 20
22.1673291291
 10
28.6298247959
 20
22.1636555908
 10
28.6515120919
 20
22.1594621788
 10
28.6734834436
 20
22.1546508695
 10
28.6957973679
 20
22.1491749857
 10
28.718352937
 20
22.1430245214
 10
28.7413386121
 20
22.1361065401
 10
28.76490908
 20
22.1283141052
 10
28.7888422789
 20
22.1196582607
 10
28.8127632285
 20
22.1102354348
 10
28.8366518568
 20
22.1000294065
 10
28.8604724273
 20
22.0890307765
 10
28.8838495663
 20
22.0774070674
 10
28.9066661201
 20
22.065235045
 10
28.9290147372
 20
22.0524833319
 10
28.9508516577
 20
22.0391909497
 10
28.9721076246
 20
22.0254199295
 10
28.9928350354
 20
22.011156722
 10
29.0131671504
 20
21.9963175131
 10
29.0330098195
 20
21.98097509
 10
29.0524286915
 20
21.9650828562
 10
29.0717636896
 20
21.9483356789
 10
29.0909710121
 20
21.9307169163
 10
29.1100080159
 20
21.9122089608
 10
29.1291588215
 20
21.8924461146
 10
29.1483750712
 20
21.8713480235
 10
29.1675353206
 20
21.8489087493
 10
29.1867514515
 20
21.8248261863
 10
29.2059775608
 20
21.7989330615
 10
29.2249900356
 20
21.7712851434
 10
29.2436029199
 20
21.7419059377
 10
29.261589149
 20
21.7109090752
 10
29.2788869033
 20
21.6781304966
 10
29.2955072319
 20
21.6431699955
 10
29.3113512557
 20
21.6056932536
 10
29.3260346048
 20
21.5659843628
 10
29.3391497936
 20
21.5245967841
 10
29.3507121228
 20
21.4807671987
 10
29.3602650975
 20
21.4353518827
 10
29.3672199606
 20
21.391481159
 10
29.3717605063
 20
21.35032744
 10
29.3743331583
 20
21.3110002242
 10
29.3751923895
 20
21.2735916069
  0
LINE
  5
33B
100
AcDbEntity
  8
RACCORDO
100
AcDbLine
 62
253
  6
CONTINUOUS
 10
-16.6266859925
 20
21.2906581332
 11
-16.5343739828
 21
21.289060872
  0
LWPOLYLINE
  5
33C
100
AcDbEntity
  8
RACCORDO
100
AcDbPolyline
 62
253
  6
CONTINUOUS
 90
10
 70
0
 10
-16.1785399567
 20
21.2794826094
 10
-16.132412473
 20
21.278668609
 10
-16.1124207503
 20
21.2781696749
 10
-16.0946196555
 20
21.2776179706
 10
-16.0791002702
 20
21.2770202908
 10
-16.0659431265
 20
21.2763835545
 10
-16.0552175417
 20
21.2757149308
 10
-16.0469777337
 20
21.2750218749
 10
-16.0412639588
 20
21.2743120502
 10
-16.0381041287
 20
21.2735931869
  0
LINE
  5
33D
100
AcDbEntity
  8
RACCORDO
100
AcDbLine
 62
253
  6
CONTINUOUS
 10
-16.5343739828
 20
21.289060872
 11
-16.4433965163
 21
21.2869613763
  0
LINE
  5
33E
100
AcDbEntity
  8
RACCORDO
100
AcDbLine
 62
253
  6
CONTINUOUS
 10
-16.4433965163
 20
21.2869613763
 11
-16.3553381142
 21
21.2843964468
  0
LWPOLYLINE
  5
33F
100
AcDbEntity
  8
RACCORDO
100
AcDbPolyline
 62
253
  6
CONTINUOUS
 90
3
 70
0
 10
-16.3553381142
 20
21.2843964468
 10
-16.2717298004
 20
21.2814114259
 10
-16.232054041
 20
21.2797772645
  0
LWPOLYLINE
  5
340
100
AcDbEntity
  8
RACCORDO
100
AcDbPolyline
 62
253
  6
CONTINUOUS
 90
13
 70
0
 10
-52.8478886864
 20
23.1403799913
 10
-52.8740681383
 20
23.1424069571
 10
-52.899113129
 20
23.1442246341
 10
-52.9227988097
 20
23.1458167036
 10
-52.9449125353
 20
23.1471688723
 10
-52.9652557733
 20
23.1482690008
 10
-52.9836458864
 20
23.1491072122
 10
-52.999917772
 20
23.1496759813
 10
-53.0139253445
 20
23.1499702019
 10
-53.0255428468
 20
23.1499872324
 10
-53.0346659794
 20
23.14972692
 10
-53.0412128367
 20
23.1491916018
 10
-53.0451246423
 20
23.1483860836
  0
LWPOLYLINE
  5
341
100
AcDbEntity
  8
RACCORDO
100
AcDbPolyline
 62
253
  6
CONTINUOUS
 90
13
 70
0
 10
-52.8349879119
 20
23.2760436955
 10
-52.8611654067
 20
23.2780833441
 10
-52.8862086126
 20
23.2799124733
 10
-52.909892709
 20
23.2815146626
 10
-52.9320050762
 20
23.2828755285
 10
-52.9523472049
 20
23.2839828541
 10
-52.9707364773
 20
23.2848266987
 10
-52.9870078073
 20
23.2853994867
 10
-53.0010151221
 20
23.2856960762
 10
-53.0126326736
 20
23.2857138044
 10
-53.0217561676
 20
23.2854525123
 10
-53.0283036995
 20
23.2849145455
 10
-53.0322164902
 20
23.2841047336
  0
LWPOLYLINE
  5
342
100
AcDbEntity
  8
RACCORDO
100
AcDbPolyline
 62
253
  6
CONTINUOUS
 90
3
 70
0
 10
-52.7649320913
 20
23.133233737
 10
-52.7930746082
 20
23.1357726996
 10
-52.8478886864
 20
23.1403799913
  0
LWPOLYLINE
  5
343
100
AcDbEntity
  8
RACCORDO
100
AcDbPolyline
 62
253
  6
CONTINUOUS
 90
3
 70
0
 10
-52.7520379125
 20
23.2688531869
 10
-52.7801781427
 20
23.271407808
 10
-52.8349879119
 20
23.2760436955
  0
LWPOLYLINE
  5
344
100
AcDbEntity
  8
RACCORDO
100
AcDbPolyline
 62
253
  6
CONTINUOUS
 90
16
 70
0
 10
-52.6110899163
 20
24.7042762474
 10
-52.6391971411
 20
24.7069678786
 10
-52.6668983461
 20
24.7094872306
 10
-52.69394516
 20
24.7118117148
 10
-52.720095079
 20
24.7139204896
 10
-52.7451136407
 20
24.7157946477
 10
-52.7687765267
 20
24.7174173851
 10
-52.7908715735
 20
24.7187741522
 10
-52.8112006752
 20
24.7198527842
 10
-52.8295815593
 20
24.72064361
 10
-52.8458494215
 20
24.721139539
 10
-52.8598584027
 20
24.7213361245
 10
-52.8714828972
 20
24.7212316041
 10
-52.8806186788
 20
24.7208269148
 10
-52.8871838355
 20
24.7201256852
 10
-52.8911195034
 20
24.7191342025
  0
LINE
  5
345
100
AcDbEntity
  8
RACCORDO
100
AcDbLine
 62
253
  6
CONTINUOUS
 10
-53.0618215819
 20
24.7371620719
 11
-52.8911197814
 21
24.7191314563
  0
LWPOLYLINE
  5
346
100
AcDbEntity
  8
RACCORDO
100
AcDbPolyline
 62
253
  6
CONTINUOUS
 90
16
 70
0
 10
-52.0775557941
 20
28.6794017761
 10
-52.1052993965
 20
28.6838393583
 10
-52.1326452437
 20
28.6880339297
 10
-52.1593502549
 20
28.6919482043
 10
-52.1851770454
 20
28.6955473875
 10
-52.2098960375
 20
28.6987994857
 10
-52.2332875005
 20
28.7016755905
 10
-52.2551435046
 20
28.7041501359
 10
-52.2752697688
 20
28.7062011253
 10
-52.2934873879
 20
28.7078103271
 10
-52.309634423
 20
28.708963437
 10
-52.323567341
 20
28.7096502048
 10
-52.3351622901
 20
28.7098645256
 10
-52.3443162014
 20
28.7096044945
 10
-52.3509477044
 20
28.7088724228
 10
-52.3549978508
 20
28.707674818
  0
LINE
  5
347
100
AcDbEntity
  8
RACCORDO
100
AcDbLine
 62
253
  6
CONTINUOUS
 10
-52.5246017199
 20
28.7371620719
 11
-52.3550066502
 21
28.7076224059
  0
LINE
  5
348
100
AcDbEntity
  8
RACCORDO
100
AcDbLine
 62
253
  6
CONTINUOUS
 10
28.4742829013
 20
-23.3581574583
 11
28.469298523
 21
-23.2285059255
  0
LINE
  5
349
100
AcDbEntity
  8
RACCORDO
100
AcDbLine
 62
253
  6
CONTINUOUS
 10
28.4790180049
 20
-23.498829897
 11
28.4742829013
 21
-23.3581574583
  0
LINE
  5
34A
100
AcDbEntity
  8
RACCORDO
100
AcDbLine
 62
253
  6
CONTINUOUS
 10
28.4832981804
 20
-23.6444135396
 11
28.4790180049
 21
-23.498829897
  0
LINE
  5
34B
100
AcDbEntity
  8
SUPERFICI
100
AcDbLine
 62
7
  6
CONTINUOUS
 10
29.2995414797
 20
14.0425540077
 11
29.2857745691
 21
21.2735931869
  0
LINE
  5
34C
100
AcDbEntity
  8
RACCORDO
100
AcDbLine
 62
253
  6
CONTINUOUS
 10
29.3751923883
 20
21.2735916069
 11
29.386007113
 21
15.8409911381
  0
LINE
  5
34D
100
AcDbEntity
  8
RACCORDO
100
AcDbLine
 62
7
  6
CONTINUOUS
 10
29.5828855276
 20
14.0467021376
 11
29.5691597645
 21
21.2794826145
  0
LINE
  5
34E
100
AcDbEntity
  8
RACCORDO
100
AcDbLine
 62
253
  6
CONTINUOUS
 10
29.386007113
 20
15.8409911381
 11
29.3937165464
 21
10.4184412651
  0
LINE
  5
34F
100
AcDbEntity
  8
SUPERFICI
100
AcDbLine
 62
7
  6
CONTINUOUS
 10
29.3078021279
 20
6.8090294949
 11
29.2995414797
 21
14.0425540077
  0
LINE
  5
350
100
AcDbEntity
  8
RACCORDO
100
AcDbLine
 62
7
  6
CONTINUOUS
 10
29.5911184693
 20
6.8109383807
 11
29.5828855276
 21
14.0467021376
  0
LINE
  5
351
100
AcDbEntity
  8
RACCORDO
100
AcDbLine
 62
253
  6
CONTINUOUS
 10
29.3937165464
 20
10.4184412651
 11
29.3983419357
 21
4.9958187672
  0
LINE
  5
352
100
AcDbEntity
  8
SUPERFICI
100
AcDbLine
 62
7
  6
CONTINUOUS
 10
29.3105561862
 20
-0.4264068131
 11
29.3078021279
 21
6.8090294949
  0
LINE
  5
353
100
AcDbEntity
  8
RACCORDO
100
AcDbLine
 62
253
  6
CONTINUOUS
 10
28.4685440773
 20
22.0898432905
 11
28.4685440775
 21
22.3757018093
  0
LINE
  5
354
100
AcDbEntity
  8
RACCORDO
100
AcDbLine
 62
253
  6
CONTINUOUS
 10
28.4685440773
 20
-22.9426569166
 11
28.4685440773
 21
-23.2285154355
  0
LINE
  5
355
100
AcDbEntity
  8
RACCORDO
100
AcDbLine
 62
253
  6
CONTINUOUS
 10
29.3983419357
 20
4.9958187672
 11
29.3998835594
 21
-0.4264068131
  0
LINE
  5
356
100
AcDbEntity
  8
RACCORDO
100
AcDbLine
 62
7
  6
CONTINUOUS
 10
29.5938567138
 20
-0.426406813
 11
29.5911184693
 21
6.8109383807
  0
LINE
  5
357
100
AcDbEntity
  8
RACCORDO
100
AcDbLine
 62
253
  6
CONTINUOUS
 10
29.3998835594
 20
-0.4264068131
 11
29.398260642
 21
-5.989754343
  0
LINE
  5
358
100
AcDbEntity
  8
SUPERFICI
100
AcDbLine
 62
7
  6
CONTINUOUS
 10
29.3078021279
 20
-7.661843121
 11
29.3105561862
 21
-0.4264068131
  0
LINE
  5
359
100
AcDbEntity
  8
RACCORDO
100
AcDbLine
 62
7
  6
CONTINUOUS
 10
29.5911177867
 20
-7.6642712401
 11
29.5938567074
 21
-0.426406813
  0
LINE
  5
35A
100
AcDbEntity
  8
RACCORDO
100
AcDbLine
 62
253
  6
CONTINUOUS
 10
29.398260642
 20
-5.989754343
 11
29.3937055719
 21
-11.2809003927
  0
LINE
  5
35B
100
AcDbEntity
  8
SUPERFICI
100
AcDbLine
 62
7
  6
CONTINUOUS
 10
29.2995414797
 20
-14.8953676339
 11
29.3078021279
 21
-7.661843121
  0
LINE
  5
35C
100
AcDbEntity
  8
RACCORDO
100
AcDbLine
 62
7
  6
CONTINUOUS
 10
29.5828845858
 20
-14.9001742944
 11
29.5911177867
 21
-7.6642712401
  0
LINE
  5
35D
100
AcDbEntity
  8
RACCORDO
100
AcDbLine
 62
253
  6
CONTINUOUS
 10
29.3937055719
 20
-11.2809003927
 11
29.386213366
 21
-16.5724770391
  0
LINE
  5
35E
100
AcDbEntity
  8
SUPERFICI
100
AcDbLine
 62
7
  6
CONTINUOUS
 10
29.2857745691
 20
-22.1264068131
 11
29.2995414797
 21
-14.8953676339
  0
LINE
  5
35F
100
AcDbEntity
  8
RACCORDO
100
AcDbLine
 62
253
  6
CONTINUOUS
 10
29.386213366
 20
-16.5724770391
 11
29.3751867281
 21
-22.1264122297
  0
LINE
  5
360
100
AcDbEntity
  8
RACCORDO
100
AcDbLine
 62
7
  6
CONTINUOUS
 10
29.5691586288
 20
-22.1328272537
 11
29.5828845858
 21
-14.9001742944
  0
LINE
  5
361
100
AcDbEntity
  8
RACCORDO
100
AcDbLine
 62
253
  6
CONTINUOUS
 10
28.4832981765
 20
22.791599905
 11
28.4774803469
 21
22.598270973
  0
LINE
  5
362
100
AcDbEntity
  8
RACCORDO
100
AcDbLine
 62
253
  6
CONTINUOUS
 10
28.4774803469
 20
22.598270973
 11
28.4726385851
 21
22.4606117549
  0
LINE
  5
363
100
AcDbEntity
  8
RACCORDO
100
AcDbLine
 62
253
  6
CONTINUOUS
 10
28.4726385851
 20
22.4606117549
 11
28.4692985483
 21
22.3756927899
  0
LWPOLYLINE
  5
364
100
AcDbEntity
  8
0
100
AcDbPolyline
 62
7
  6
CONTINUOUS
 90
10
 70
0
 10
11.6101365973
 20
-27.9354880478
 10
11.586440693
 20
-27.9557374523
 10
11.5750554844
 20
-27.9652438615
 10
11.5636970001
 20
-27.9741919184
 10
11.5524515679
 20
-27.9827318784
 10
11.5412328583
 20
-27.9907134959
 10
11.5295337815
 20
-27.9975668459
 10
11.5171853064
 20
-28.0031019605
 10
11.5043564607
 20
-28.0075088237
 10
11.4910472422
 20
-28.0107874411
  0
LWPOLYLINE
  5
365
100
AcDbEntity
  8
RACCORDO
100
AcDbPolyline
 62
253
  6
CONTINUOUS
 90
55
 70
0
 10
28.4832981804
 20
22.7915999135
 10
28.5280802196
 20
22.789636493
 10
28.572432706
 20
22.786440165
 10
28.6163556471
 20
22.7820109283
 10
28.6598539493
 20
22.7763274128
 10
28.7029227209
 20
22.7694109852
 10
28.7455472723
 20
22.7613257492
 10
28.787730933
 20
22.7520752899
 10
28.8294703854
 20
22.7416560166
 10
28.8707409679
 20
22.7301212683
 10
28.9115382246
 20
22.7174769723
 10
28.951866621
 20
22.703717194
 10
28.9917148771
 20
22.6888774792
 10
29.0310884829
 20
22.6729664563
 10
29.0699819558
 20
22.6559754878
 10
29.1083675568
 20
22.6379142206
 10
29.1462675509
 20
22.6187708168
 10
29.1836596785
 20
22.5985571033
 10
29.2204494124
 20
22.5773182236
 10
29.2566346053
 20
22.5550485362
 10
29.2922174075
 20
22.5317536704
 10
29.3271097379
 20
22.5074956761
 10
29.3613107725
 20
22.482272348
 10
29.394821336
 20
22.4560858784
 10
29.4275558192
 20
22.4290049142
 10
29.4595129264
 20
22.4010253069
 10
29.4906939515
 20
22.3721511917
 10
29.5210171694
 20
22.3424636421
 10
29.5504754564
 20
22.3119636439
 10
29.5790759322
 20
22.2806501982
 10
29.6067582357
 20
22.2486014026
 10
29.6335178366
 20
22.2158195451
 10
29.6593592591
 20
22.1823023251
 10
29.6842357236
 20
22.1481209587
 10
29.7081534783
 20
22.1132635471
 10
29.731106267
 20
22.077741977
 10
29.7530285524
 20
22.0416631445
 10
29.7739113797
 20
22.0050282043
 10
29.7937636941
 20
21.9678359911
 10
29.8125468087
 20
21.9301899228
 10
29.8302372626
 20
21.8921498094
 10
29.846858506
 20
21.8536558325
 10
29.8624422184
 20
21.8146319673
 10
29.8770039579
 20
21.775104825
 10
29.8905281543
 20
21.7350477839
 10
29.9029997935
 20
21.6943049679
 10
29.9144449799
 20
21.6528753362
 10
29.9248375939
 20
21.6107599152
 10
29.9340842833
 20
21.5678059258
 10
29.9422094883
 20
21.5240410386
 10
29.9491887492
 20
21.4794375646
 10
29.9548553595
 20
21.4337596816
 10
29.9591537405
 20
21.3869287725
 10
29.9621394435
 20
21.3390234283
 10
29.9638124543
 20
21.290043636
  0
LWPOLYLINE
  5
366
100
AcDbEntity
  8
RACCORDO
100
AcDbPolyline
 62
7
  6
CONTINUOUS
 90
25
 70
0
 10
29.5690330443
 20
21.2843821302
 10
29.5647202591
 20
21.3579145953
 10
29.5556342984
 20
21.4307389558
 10
29.5418648089
 20
21.5025872317
 10
29.5234546276
 20
21.5733812066
 10
29.5005028893
 20
21.6427205388
 10
29.4733166964
 20
21.7098724819
 10
29.442289099
 20
21.7742824743
 10
29.4075139923
 20
21.8361054275
 10
29.3688628317
 20
21.8956249361
 10
29.3263529182
 20
21.9527487652
 10
29.2803066845
 20
22.0070273469
 10
29.2310570351
 20
22.0581259463
 10
29.178836803
 20
22.1058783717
 10
29.1238259763
 20
22.1501530639
 10
29.0663360295
 20
22.1907300799
 10
29.006824257
 20
22.2273654961
 10
28.9453889942
 20
22.2600956645
 10
28.8817604657
 20
22.2890686069
 10
28.8158361771
 20
22.3142400521
 10
28.7482018142
 20
22.3352852976
 10
28.6794381884
 20
22.3519972269
 10
28.6097934684
 20
22.3643234594
 10
28.5394045624
 20
22.3722424526
 10
28.4685440775
 20
22.3757060314
  0
LWPOLYLINE
  5
367
100
AcDbEntity
  8
SUPERFICI
100
AcDbPolyline
 62
7
  6
CONTINUOUS
 90
25
 70
0
 10
29.2857745691
 20
21.2735931869
 10
29.2839063655
 20
21.3270000335
 10
29.2785566497
 20
21.3801689757
 10
29.2697480898
 20
21.4328735852
 10
29.2575175881
 20
21.4848893916
 10
29.2419175068
 20
21.535994646
 10
29.2230154728
 20
21.585971564
 10
29.2008915299
 20
21.6346079642
 10
29.1756397951
 20
21.6816959594
 10
29.1473698377
 20
21.727033327
 10
29.1162021806
 20
21.7704271974
 10
29.0822693923
 20
21.8116929393
 10
29.0457180869
 20
21.8506538135
 10
29.006704473
 20
21.887144088
 10
28.9653942669
 20
21.9210091003
 10
28.9219641937
 20
21.9521049539
 10
28.8765989877
 20
21.9802998637
 10
28.829491707
 20
22.005473948
 10
28.7808438974
 20
22.0275199344
 10
28.7308627103
 20
22.0463444397
 10
28.6797604458
 20
22.0618676516
 10
28.6277549403
 20
22.0740233847
 10
28.5750675103
 20
22.0827600664
 10
28.521921931
 20
22.088040829
 10
28.4685440773
 20
22.0898432905
  0
LINE
  5
368
100
AcDbEntity
  8
RACCORDO
100
AcDbLine
 62
253
  6
CONTINUOUS
 10
29.9638124543
 20
21.290043636
 11
29.9733060096
 21
16.6414502742
  0
LINE
  5
369
100
AcDbEntity
  8
RACCORDO
100
AcDbLine
 62
253
  6
CONTINUOUS
 10
29.9733060096
 20
16.6414502742
 11
29.9807744692
 21
11.7185768563
  0
LINE
  5
36A
100
AcDbEntity
  8
RACCORDO
100
AcDbLine
 62
253
  6
CONTINUOUS
 10
29.9807744692
 20
11.7185768563
 11
29.9859221832
 21
6.6386610224
  0
LINE
  5
36B
100
AcDbEntity
  8
RACCORDO
100
AcDbLine
 62
253
  6
CONTINUOUS
 10
29.9859221832
 20
6.6386610224
 11
29.9882947569
 21
1.8701520356
  0
LINE
  5
36C
100
AcDbEntity
  8
RACCORDO
100
AcDbLine
 62
253
  6
CONTINUOUS
 10
29.9882947569
 20
1.8701520356
 11
29.9874332922
 21
-5.07804583
  0
LINE
  5
36D
100
AcDbEntity
  8
RACCORDO
100
AcDbLine
 62
253
  6
CONTINUOUS
 10
29.9874332922
 20
-5.07804583
 11
29.9837063392
 21
-9.9951767765
  0
LINE
  5
36E
100
AcDbEntity
  8
RACCORDO
100
AcDbLine
 62
253
  6
CONTINUOUS
 10
29.9837063392
 20
-9.9951767765
 11
29.9773110084
 21
-15.0651136454
  0
LWPOLYLINE
  5
36F
100
AcDbEntity
  8
RACCORDO
100
AcDbPolyline
 62
253
  6
CONTINUOUS
 90
3
 70
0
 10
29.9773110084
 20
-15.0651136454
 10
29.9688246232
 20
-19.8389871563
 10
29.9638124563
 20
-22.1428574711
  0
LWPOLYLINE
  5
370
100
AcDbEntity
  8
RACCORDO
100
AcDbPolyline
 62
253
  6
CONTINUOUS
 90
49
 70
0
 10
29.3751923733
 20
-22.12641223
 10
29.3742411549
 20
-22.1658645485
 10
29.3714939188
 20
-22.2061338657
 10
29.3668361835
 20
-22.2471319358
 10
29.3600541881
 20
-22.2893084091
 10
29.3510876078
 20
-22.3319933032
 10
29.3402915545
 20
-22.3734520402
 10
29.3279042461
 20
-22.4132981582
 10
29.3139762518
 20
-22.4518095696
 10
29.2988984153
 20
-22.4883437786
 10
29.2829831606
 20
-22.5226762804
 10
29.2663288891
 20
-22.5550580976
 10
29.249063315
 20
-22.5856038612
 10
29.2313628886
 20
-22.6143179072
 10
29.2133632468
 20
-22.6412654365
 10
29.1950888407
 20
-22.6666469157
 10
29.1766951255
 20
-22.6904520237
 10
29.1582558256
 20
-22.7127746965
 10
29.139616629
 20
-22.7339434002
 10
29.1208638128
 20
-22.7539674272
 10
29.1020492261
 20
-22.7728924462
 10
29.0829050134
 20
-22.7910535762
 10
29.0634392477
 20
-22.8084768097
 10
29.0437098755
 20
-22.8251429999
 10
29.0234751166
 20
-22.8412705343
 10
29.0026852763
 20
-22.8568892999
 10
28.9814156255
 20
-22.8719331896
 10
28.9595879609
 20
-22.8864464991
 10
28.9371201238
 20
-22.9004613378
 10
28.9141130764
 20
-22.9138926743
 10
28.8907686916
 20
-22.9266175953
 10
28.8670516398
 20
-22.9386577648
 10
28.8430401975
 20
-22.9499752175
 10
28.8191313947
 20
-22.9604072002
 10
28.7954566492
 20
-22.9699444987
 10
28.7719556338
 20
-22.9786580112
 10
28.748752684
 20
-22.9865461825
 10
28.7260080852
 20
-22.9936077893
 10
28.7036239628
 20
-22.9999251279
 10
28.6813302056
 20
-23.0056071576
 10
28.6592146485
 20
-23.0106540618
 10
28.6372273529
 20
-23.0150994092
 10
28.6148761622
 20
-23.0190423399
 10
28.5921558461
 20
-23.0224629221
 10
28.5690935801
 20
-23.0253361455
 10
28.5452352556
 20
-23.0276797694
 10
28.5204359696
 20
-23.0294431671
 10
28.4948652463
 20
-23.0305473838
 10
28.4685407797
 20
-23.0309294108
  0
LWPOLYLINE
  5
371
100
AcDbEntity
  8
RACCORDO
100
AcDbPolyline
 62
253
  6
CONTINUOUS
 90
55
 70
0
 10
29.9638124563
 20
-22.1428574711
 10
29.9621375912
 20
-22.1918650188
 10
29.9591491913
 20
-22.2397948813
 10
29.9548472708
 20
-22.2866470717
 10
29.9491762211
 20
-22.3323421651
 10
29.9421916782
 20
-22.3769596126
 10
29.9340605209
 20
-22.4207377378
 10
29.9248075035
 20
-22.4637043164
 10
29.914407891
 20
-22.5058315911
 10
29.9029543248
 20
-22.5472745824
 10
29.8904731587
 20
-22.5880324136
 10
29.876938054
 20
-22.6281059757
 10
29.8623626104
 20
-22.6676529369
 10
29.8467619423
 20
-22.7067012247
 10
29.8301209475
 20
-22.7452229219
 10
29.8124078998
 20
-22.7832919264
 10
29.7935969605
 20
-22.820971043
 10
29.773713979
 20
-22.8581974752
 10
29.7528047608
 20
-22.8948567184
 10
29.7308597222
 20
-22.9309485055
 10
29.7078884566
 20
-22.9664731144
 10
29.6839655345
 20
-23.001316861
 10
29.6591012145
 20
-23.0354620901
 10
29.633285246
 20
-23.0689264693
 10
29.6065614355
 20
-23.1016493001
 10
29.5789271579
 20
-23.1336326786
 10
29.5503850443
 20
-23.1648745215
 10
29.5209867848
 20
-23.1953078618
 10
29.4907256835
 20
-23.2249352402
 10
29.4596084403
 20
-23.2537541292
 10
29.4277068376
 20
-23.2816899609
 10
29.3950179003
 20
-23.3087411064
 10
29.3615446051
 20
-23.3349092078
 10
29.3273676618
 20
-23.3601246039
 10
29.2924816217
 20
-23.3843877544
 10
29.2568919326
 20
-23.4076982125
 10
29.2206956478
 20
-23.4299849578
 10
29.1838913868
 20
-23.4512406309
 10
29.1464805269
 20
-23.4714726035
 10
29.108564256
 20
-23.4906319518
 10
29.0701672987
 20
-23.5087052188
 10
29.0312649248
 20
-23.5257058727
 10
28.9918841402
 20
-23.5416253773
 10
28.9520309434
 20
-23.5564724014
 10
28.9116993284
 20
-23.5702382854
 10
28.8708982934
 20
-23.5828885009
 10
28.8296234328
 20
-23.5944292636
 10
28.7878791426
 20
-23.6048543654
 10
28.745687623
 20
-23.614110642
 10
28.703052291
 20
-23.6222019757
 10
28.6599697176
 20
-23.6291244898
 10
28.6164518334
 20
-23.634813382
 10
28.5725026104
 20
-23.6392470526
 10
28.528118062
 20
-23.6424471048
 10
28.4832981804
 20
-23.6444135396
  0
LWPOLYLINE
  5
372
100
AcDbEntity
  8
SUPERFICI
100
AcDbPolyline
 62
7
  6
CONTINUOUS
 90
25
 70
0
 10
29.2857745691
 20
-22.1264068131
 10
29.2839063655
 20
-22.1798136596
 10
29.2785566497
 20
-22.2329826018
 10
29.2697480898
 20
-22.2856872114
 10
29.2575175881
 20
-22.3377030177
 10
29.2419175068
 20
-22.3888082721
 10
29.2230154728
 20
-22.4387851901
 10
29.2008915299
 20
-22.4874215903
 10
29.1756397951
 20
-22.5345095856
 10
29.1473698377
 20
-22.5798469531
 10
29.1162021806
 20
-22.6232408235
 10
29.0822693923
 20
-22.6645065654
 10
29.0457180869
 20
-22.7034674396
 10
29.006704473
 20
-22.7399577141
 10
28.9653942669
 20
-22.7738227265
 10
28.9219641937
 20
-22.80491858
 10
28.8765989877
 20
-22.8331134898
 10
28.829491707
 20
-22.8582875741
 10
28.7808438974
 20
-22.8803335605
 10
28.7308627103
 20
-22.8991580658
 10
28.6797604458
 20
-22.9146812777
 10
28.6277549403
 20
-22.9268370108
 10
28.5750675103
 20
-22.9355736926
 10
28.521921931
 20
-22.9408544551
 10
28.4685440773
 20
-22.9426569166
  0
LINE
  5
373
100
AcDbEntity
  8
RACCORDO
100
AcDbLine
 62
253
  6
CONTINUOUS
 10
50.9959560036
 20
-43.2384993806
 11
51.0015233597
 21
-43.2897478385
  0
LINE
  5
374
100
AcDbEntity
  8
RACCORDO
100
AcDbLine
 62
253
  6
CONTINUOUS
 10
51.0015233597
 20
-43.2897478385
 11
51.0065169925
 21
-43.3379837057
  0
LWPOLYLINE
  5
375
100
AcDbEntity
  8
RACCORDO
100
AcDbPolyline
 62
253
  6
CONTINUOUS
 90
11
 70
0
 10
51.0065169925
 20
-43.3379837057
 10
51.0107804208
 20
-43.3816954663
 10
51.0125955444
 20
-43.4014200122
 10
51.0141800446
 20
-43.4195133715
 10
51.0155214837
 20
-43.4358335226
 10
51.0166093323
 20
-43.4502523622
 10
51.017435051
 20
-43.4626567112
 10
51.0179921585
 20
-43.4729492033
 10
51.0182762816
 20
-43.4810490485
 10
51.0182851899
 20
-43.4868926682
 10
51.0180188134
 20
-43.4904341935
  0
LINE
  5
376
100
AcDbEntity
  8
RACCORDO
100
AcDbLine
 62
253
  6
CONTINUOUS
 10
46.0386646663
 20
-44.119842014
 11
46.0264798034
 21
-43.9430175044
  0
LINE
  5
377
100
AcDbEntity
  8
RACCORDO
100
AcDbLine
 62
253
  6
CONTINUOUS
 10
46.0172488897
 20
-43.6904806341
 11
46.0203077468
 21
-43.7419034602
  0
LINE
  5
378
100
AcDbEntity
  8
RACCORDO
100
AcDbLine
 62
253
  6
CONTINUOUS
 10
46.0203077468
 20
-43.7419034602
 11
46.0229169292
 21
-43.7902888087
  0
LWPOLYLINE
  5
379
100
AcDbEntity
  8
RACCORDO
100
AcDbPolyline
 62
253
  6
CONTINUOUS
 90
11
 70
0
 10
46.0229169292
 20
-43.7902888087
 10
46.0249947643
 20
-43.834122122
 10
46.0258133923
 20
-43.8538962167
 10
46.0264762117
 20
-43.8720313303
 10
46.0269780256
 20
-43.8883852678
 10
46.0273148992
 20
-43.9028298001
 10
46.0274841911
 20
-43.9152516696
 10
46.0274845741
 20
-43.9255534781
 10
46.027316045
 20
-43.9336544505
 10
46.0269799254
 20
-43.9394910682
 10
46.0264788506
 20
-43.9430175669
  0
LWPOLYLINE
  5
37A
100
AcDbEntity
  8
RACCORDO
100
AcDbPolyline
 62
253
  6
CONTINUOUS
 90
9
 70
0
 10
46.0258133924
 20
43.0010825913
 10
46.0264762118
 20
43.019217705
 10
46.0269780257
 20
43.0355716426
 10
46.0273148993
 20
43.050016175
 10
46.0274841913
 20
43.0624380447
 10
46.0274845742
 20
43.0727398533
 10
46.0273160452
 20
43.0808408258
 10
46.0269799255
 20
43.0866774435
 10
46.0264788507
 20
43.0902039422
  0
LINE
  5
37B
100
AcDbEntity
  8
RACCORDO
100
AcDbLine
 62
253
  6
CONTINUOUS
 10
46.0240267467
 20
42.9600504666
 11
46.0258133924
 21
43.0010825913
  0
LINE
  5
37C
100
AcDbEntity
  8
RACCORDO
100
AcDbLine
 62
253
  6
CONTINUOUS
 10
46.0216740142
 20
42.9137596554
 11
46.0240267467
 21
42.9600504666
  0
LWPOLYLINE
  5
37D
100
AcDbEntity
  8
RACCORDO
100
AcDbPolyline
 62
253
  6
CONTINUOUS
 90
3
 70
0
 10
46.0172488897
 20
42.837667008
 10
46.0188288401
 20
42.8636591523
 10
46.0216740142
 20
42.9137596554
  0
LINE
  5
37E
100
AcDbEntity
  8
RACCORDO
100
AcDbLine
 62
253
  6
CONTINUOUS
 10
46.0386646663
 20
43.2670283879
 11
46.0264794781
 21
43.0902038999
  0
LINE
  5
37F
100
AcDbEntity
  8
RACCORDO
100
AcDbLine
 62
253
  6
CONTINUOUS
 10
51.0087488949
 20
42.5076810075
 11
51.0125955138
 21
42.5486064906
  0
LINE
  5
380
100
AcDbEntity
  8
RACCORDO
100
AcDbLine
 62
253
  6
CONTINUOUS
 10
51.0041021356
 20
42.4615260185
 11
51.0087488949
 21
42.5076810075
  0
LWPOLYLINE
  5
381
100
AcDbEntity
  8
RACCORDO
100
AcDbPolyline
 62
253
  6
CONTINUOUS
 90
3
 70
0
 10
50.9959560036
 20
42.3856857544
 10
50.9988008465
 20
42.4115878344
 10
51.0041021356
 20
42.4615260185
  0
LINE
  5
382
100
AcDbEntity
  8
RACCORDO
100
AcDbLine
 62
253
  6
CONTINUOUS
 10
51.0386646663
 20
42.8135931869
 11
51.018002241
 21
42.6376226651
  0
LWPOLYLINE
  5
383
100
AcDbEntity
  8
RACCORDO
100
AcDbPolyline
 62
253
  6
CONTINUOUS
 90
142
 70
0
 10
-37.6588678489
 20
42.3856857543
 10
-37.9399919046
 20
42.3501713896
 10
-38.2112993563
 20
42.3121015323
 10
-38.4727905868
 20
42.271475946
 10
-38.7241243129
 20
42.2279525584
 10
-38.9656424936
 20
42.1818728971
 10
-39.198370235
 20
42.1342622166
 10
-39.4222146315
 20
42.085232441
 10
-39.6372688912
 20
42.034671302
 10
-39.8448371251
 20
41.9832679576
 10
-40.0447959258
 20
41.9311810502
 10
-40.2372688112
 20
41.8782517485
 10
-40.4239302033
 20
41.8246931087
 10
-40.6047249368
 20
41.7706120969
 10
-40.7797082085
 20
41.7159016032
 10
-40.9507199633
 20
41.6604535819
 10
-41.1185352343
 20
41.604039829
 10
-41.282379003
 20
41.546888342
 10
-41.441766117
 20
41.489575441
 10
-41.5967084496
 20
41.4320919302
 10
-41.7471940836
 20
41.3744469723
 10
-41.8927021475
 20
41.3172445868
 10
-42.0329923461
 20
41.2605815114
 10
-42.1683048926
 20
41.2043611473
 10
-42.2988396601
 20
41.148897631
 10
-42.4245489486
 20
41.094222008
 10
-42.5454803721
 20
41.040303441
 10
-42.661976773
 20
40.9873633093
 10
-42.77410506
 20
40.9353883664
 10
-42.8817982449
 20
40.8843921056
 10
-42.9851983269
 20
40.8346360697
 10
-43.0837169906
 20
40.7864471233
 10
-43.1779424763
 20
40.739498715
 10
-43.2697816321
 20
40.6930722104
 10
-43.3595023292
 20
40.647083143
 10
-43.4468366588
 20
40.6016160904
 10
-43.5328878194
 20
40.556205857
 10
-43.6184084855
 20
40.5104618499
 10
-43.7026459621
 20
40.4647746526
 10
-43.7844453946
 20
40.4198508588
 10
-43.8633899484
 20
40.3759038782
 10
-43.9398964217
 20
40.3327204755
 10
-44.0140604042
 20
40.2903673551
 10
-44.0855812815
 20
40.2490291442
 10
-44.1547596378
 20
40.2085213893
 10
-44.2225928676
 20
40.1683571328
 10
-44.2890733968
 20
40.1285658469
 10
-44.3542087814
 20
40.0891181271
 10
-44.4190191189
 20
40.0494386049
 10
-44.4834848553
 20
40.0095649504
 10
-44.547625534
 20
39.9694594583
 10
-44.6125199046
 20
39.9284335832
 10
-44.6782069963
 20
39.8864892102
 10
-44.7446477735
 20
39.8436242883
 10
-44.8128038924
 20
39.7991442382
 10
-44.883010314
 20
39.7528479432
 10
-44.9549320706
 20
39.7049361867
 10
-45.0285259244
 20
39.6553171555
 10
-45.1039751135
 20
39.603863224
 10
-45.1810963841
 20
39.5507016355
 10
-45.2592967563
 20
39.4961228952
 10
-45.3382062581
 20
39.4403925011
 10
-45.4181948348
 20
39.3832446443
 10
-45.4997793757
 20
39.3241728353
 10
-45.582943537
 20
39.2632194119
 10
-45.6677036229
 20
39.2003415506
 10
-45.7546254856
 20
39.1349048591
 10
-45.8439194956
 20
39.0667759978
 10
-45.9353752173
 20
38.9960875738
 10
-46.0289272769
 20
38.9226039748
 10
-46.1247717824
 20
38.8461605819
 10
-46.2227125243
 20
38.7669211253
 10
-46.3220956373
 20
38.6851425034
 10
-46.4229572963
 20
38.6007644807
 10
-46.5252611917
 20
38.5138464266
 10
-46.6282447229
 20
38.4248247545
 10
-46.7318935447
 20
38.3336791086
 10
-46.8362218442
 20
38.2404290925
 10
-46.9405098203
 20
38.1455712255
 10
-47.0447388169
 20
38.0490861611
 10
-47.1489273212
 20
37.9509926598
 10
-47.2524112591
 20
37.8518446049
 10
-47.3550750386
 20
37.7517160303
 10
-47.4570340908
 20
37.650532543
 10
-47.5579708935
 20
37.5486255651
 10
-47.6577661431
 20
37.4461061016
 10
-47.7565389931
 20
37.3428629294
 10
-47.8543296153
 20
37.2388941965
 10
-47.951310052
 20
37.1340052303
 10
-48.0473080986
 20
37.0283904442
 10
-48.1418475777
 20
36.9226317362
 10
-48.2349182474
 20
36.8167098961
 10
-48.3265302315
 20
36.7106441436
 10
-48.4162379516
 20
36.6050742746
 10
-48.5038474456
 20
36.5002168138
 10
-48.5895526226
 20
36.395855538
 10
-48.6734897425
 20
36.2919812496
 10
-48.7555724338
 20
36.1887160268
 10
-48.8358870234
 20
36.0859380666
 10
-48.9148288081
 20
35.9832722735
 10
-48.992251197
 20
35.8809577688
 10
-49.0683007155
 20
35.77875557
 10
-49.1438122691
 20
35.675573143
 10
-49.2188549462
 20
35.5713801839
 10
-49.2933594793
 20
35.4662066841
 10
-49.3679531323
 20
35.3590501512
 10
-49.4429719894
 20
35.249441288
 10
-49.5180796456
 20
35.1378486239
 10
-49.5928945913
 20
35.0246762891
 10
-49.6674000566
 20
34.9099256134
 10
-49.7416125248
 20
34.7935947111
 10
-49.8152004044
 20
34.6760830526
 10
-49.8878180598
 20
34.5579865974
 10
-49.9598108977
 20
34.4387090767
 10
-50.0318838138
 20
34.316861411
 10
-50.1040291637
 20
34.1925871987
 10
-50.1762541236
 20
34.0657418802
 10
-50.2492855659
 20
33.9345034468
 10
-50.3233236753
 20
33.7986422127
 10
-50.3981674133
 20
33.6583859837
 10
-50.4739415318
 20
33.5125982966
 10
-50.5507504344
 20
33.3611768377
 10
-50.6284885011
 20
33.2042213767
 10
-50.706965188
 20
33.0408980507
 10
-50.7862350833
 20
32.8712105197
 10
-50.8662419745
 20
32.6951519756
 10
-50.9466288239
 20
32.5118723499
 10
-51.0274503497
 20
32.3213889168
 10
-51.1086496782
 20
32.1236805619
 10
-51.1897020125
 20
31.9178390634
 10
-51.2706335978
 20
31.7040052564
 10
-51.3514153577
 20
31.482033711
 10
-51.4314389783
 20
31.2505860326
 10
-51.5108125205
 20
31.0097406136
 10
-51.5894240642
 20
30.7594133398
 10
-51.6663345361
 20
30.4980209937
 10
-51.7416912499
 20
30.2255712395
 10
-51.8153415955
 20
29.9420493242
 10
-51.8858955712
 20
29.6458371709
 10
-51.952887243
 20
29.3363923104
 10
-52.0167752665
 20
29.0142485905
 10
-52.0775557942
 20
28.6794017762
  0
LWPOLYLINE
  5
384
100
AcDbEntity
  8
RACCORDO
100
AcDbPolyline
 62
253
  6
CONTINUOUS
 90
142
 70
0
 10
-37.6808600352
 20
42.637628882
 10
-37.9667995158
 20
42.6022790605
 10
-38.2429241406
 20
42.5634298919
 10
-38.5091570286
 20
42.5215263845
 10
-38.764917657
 20
42.4771117248
 10
-39.0105972237
 20
42.4305709343
 10
-39.247582774
 20
42.3820466805
 10
-39.4754573107
 20
42.3320110515
 10
-39.6940746687
 20
42.2808998696
 10
-39.9053095606
 20
42.2286149031
 10
-40.1088669541
 20
42.1755136705
 10
-40.3045531248
 20
42.1219229391
 10
-40.4944793231
 20
42.0674886269
 10
-40.6785425872
 20
42.0124161455
 10
-40.8565811113
 20
41.9569280704
 10
-41.0306374271
 20
41.9005451136
 10
-41.2014474505
 20
41.8431571564
 10
-41.3681245425
 20
41.7851869024
 10
-41.5302904009
 20
41.7269054105
 10
-41.6879670222
 20
41.6684436691
 10
-41.8410720376
 20
41.6099657569
 10
-41.9891049018
 20
41.5518001234
 10
-42.1319013387
 20
41.4941544998
 10
-42.2696573078
 20
41.4370876531
 10
-42.4024464179
 20
41.3807000712
 10
-42.5303552339
 20
41.3250914257
 10
-42.6534959891
 20
41.2703476308
 10
-42.7720210597
 20
41.2165285208
 10
-42.8860856993
 20
41.1636838917
 10
-42.995723644
 20
41.1119127694
 10
-43.1009001436
 20
41.0613429419
 10
-43.2010753142
 20
41.0123492422
 10
-43.2969679044
 20
40.9646893041
 10
-43.3903919845
 20
40.9175374652
 10
-43.4816197156
 20
40.8708068365
 10
-43.5704577532
 20
40.8246453098
 10
-43.6579644977
 20
40.7785415851
 10
-43.7449542526
 20
40.7320830638
 10
-43.8306827901
 20
40.685671546
 10
-43.9138729743
 20
40.6400218299
 10
-43.9941973564
 20
40.5953571801
 10
-44.0721406885
 20
40.5514519238
 10
-44.1476549004
 20
40.5083738585
 10
-44.2204682933
 20
40.4663234815
 10
-44.2909620253
 20
40.4251258913
 10
-44.3600534202
 20
40.3842773885
 10
-44.427755031
 20
40.3437942563
 10
-44.4941217123
 20
40.303667487
 10
-44.5601241748
 20
40.2633243888
 10
-44.62576849
 20
40.2227664944
 10
-44.6911017237
 20
40.1819702088
 10
-44.757157257
 20
40.1402857654
 10
-44.8240048252
 20
40.0976542745
 10
-44.8916363412
 20
40.0540660526
 10
-44.9609802116
 20
40.0088992159
 10
-45.0323832244
 20
39.9618905421
 10
-45.1055401151
 20
39.9131984079
 10
-45.1804083435
 20
39.8628093347
 10
-45.2571473577
 20
39.8105706868
 10
-45.3355733636
 20
39.7565601885
 10
-45.4151215798
 20
39.7011261944
 10
-45.4953853208
 20
39.6445215261
 10
-45.5767250269
 20
39.5864602927
 10
-45.6597223019
 20
39.5264814256
 10
-45.7443234299
 20
39.4645678875
 10
-45.8305250214
 20
39.4006636937
 10
-45.9189805704
 20
39.3342125362
 10
-46.0098508755
 20
39.2650041633
 10
-46.1028895461
 20
39.1931315475
 10
-46.1981299082
 20
39.1184706246
 10
-46.295720581
 20
39.0407954688
 10
-46.3953950034
 20
38.9602076771
 10
-46.4965738392
 20
38.8770860701
 10
-46.5992565131
 20
38.7913496689
 10
-46.7033605743
 20
38.7029830265
 10
-46.8081938911
 20
38.6125011226
 10
-46.9137063414
 20
38.5198866128
 10
-47.0198657215
 20
38.4251052227
 10
-47.1260198964
 20
38.3286886347
 10
-47.2321244921
 20
38.2306396398
 10
-47.3381505312
 20
38.1309463503
 10
-47.4434861642
 20
38.0301583662
 10
-47.5479946054
 20
37.9283974353
 10
-47.6517569212
 20
37.8255781261
 10
-47.7544983909
 20
37.7219820575
 10
-47.8560634691
 20
37.6177880347
 10
-47.9565504683
 20
37.5129166426
 10
-48.0560666653
 20
37.4072697581
 10
-48.1547608883
 20
37.30069398
 10
-48.2524187215
 20
37.1934247701
 10
-48.3486108662
 20
37.0859533245
 10
-48.4433297749
 20
36.9783183478
 10
-48.5365464781
 20
36.870582492
 10
-48.627825267
 20
36.7632912792
 10
-48.7170055228
 20
36.6566924686
 10
-48.8042544602
 20
36.5506448897
 10
-48.889666986
 20
36.4450863852
 10
-48.9732069498
 20
36.3401165965
 10
-49.0549950701
 20
36.2356392337
 10
-49.1353596592
 20
36.1312788571
 10
-49.2141588606
 20
36.0272603905
 10
-49.2915969746
 20
35.9233553016
 10
-49.3684865852
 20
35.8184830278
 10
-49.4448721435
 20
35.7125651738
 10
-49.5207166005
 20
35.605635415
 10
-49.596665856
 20
35.496743816
 10
-49.6730272744
 20
35.3853743723
 10
-49.7494571029
 20
35.2719517753
 10
-49.82561354
 20
35.1569300981
 10
-49.9014511261
 20
35.0403319622
 10
-49.9769599362
 20
34.9221221542
 10
-50.0518567949
 20
34.8027020193
 10
-50.1257504382
 20
34.6826797663
 10
-50.1989908648
 20
34.5614705571
 10
-50.2723830385
 20
34.4376681435
 10
-50.3458033181
 20
34.3113667029
 10
-50.4192562353
 20
34.1824394925
 10
-50.4936605137
 20
34.0490916935
 10
-50.5690473864
 20
33.9110108813
 10
-50.6451496544
 20
33.7684156358
 10
-50.722359561
 20
33.6202598948
 10
-50.8005830235
 20
33.4663678675
 10
-50.8796043686
 20
33.3067952991
 10
-50.9595793645
 20
33.1408161078
 10
-51.0403151871
 20
32.968367132
 10
-51.1216116582
 20
32.7893843364
 10
-51.2035556145
 20
32.6031215806
 10
-51.285889904
 20
32.4095398978
 10
-51.3683677696
 20
32.2085529061
 10
-51.4510200781
 20
31.9993273506
 10
-51.5334627774
 20
31.7820166774
 10
-51.6154499772
 20
31.5564191679
 10
-51.6971103236
 20
31.3211650278
 10
-51.7779871404
 20
31.0763858386
 10
-51.8576845316
 20
30.8219946802
 10
-51.936246018
 20
30.5562922731
 10
-52.0131053662
 20
30.2793203001
 10
-52.0876845405
 20
29.9911446118
 10
-52.1598134965
 20
29.690070809
 10
-52.2289424523
 20
29.3755172838
 10
-52.2942434039
 20
29.0480326598
 10
-52.355006677
 20
28.7076224106
  0
LWPOLYLINE
  5
385
100
AcDbEntity
  8
DRAFT
100
AcDbPolyline
 62
7
  6
CONTINUOUS
 90
10
 70
0
 10
-37.7015762072
 20
42.8135932195
 10
-37.1470391119
 20
42.8758794274
 10
-36.5922362662
 20
42.9351895754
 10
-36.037167224
 20
42.9915241094
 10
-35.4818152242
 20
43.0448848379
 10
-34.9261960981
 20
43.0952707813
 10
-34.3703582709
 20
43.1426781723
 10
-33.8143175529
 20
43.1871059892
 10
-33.2580571379
 20
43.2285559552
 10
-32.7015765119
 20
43.2670283878
  0
LWPOLYLINE
  5
386
100
AcDbEntity
  8
RACCORDO
100
AcDbPolyline
 62
253
  6
CONTINUOUS
 90
10
 70
0
 10
-32.680160735
 20
42.837667008
 10
-33.2342412721
 20
42.7993198571
 10
-33.7881183963
 20
42.758003461
 10
-34.3417925983
 20
42.7137175163
 10
-34.8952915719
 20
42.6664593269
 10
-35.4485885731
 20
42.6162309189
 10
-36.0016024216
 20
42.5630390414
 10
-36.5543063542
 20
42.5068856809
 10
-37.1067280215
 20
42.4477680603
 10
-37.6588678489
 20
42.3856857543
  0
LWPOLYLINE
  5
387
100
AcDbEntity
  8
RACCORDO
100
AcDbPolyline
 62
253
  6
CONTINUOUS
 90
10
 70
0
 10
-32.6893916519
 20
43.0902038781
 10
-33.2448735778
 20
43.0518060987
 10
-33.8001840061
 20
43.010433622
 10
-34.3553063658
 20
42.9660870239
 10
-34.9102384978
 20
42.9187656535
 10
-35.4649517745
 20
42.8684711752
 10
-36.019389973
 20
42.8152083144
 10
-36.5735245544
 20
42.7589798624
 10
-37.1273534124
 20
42.6997861479
 10
-37.6808600347
 20
42.6376288773
  0
LWPOLYLINE
  5
388
100
AcDbEntity
  8
DRAFT
100
AcDbPolyline
 62
7
  6
CONTINUOUS
 90
19
 70
0
 10
-32.7015765119
 20
43.2670283878
 10
-28.3426939462
 20
43.5407066275
 10
-23.9792264821
 20
43.7822879859
 10
-19.6111941425
 20
43.9917924307
 10
-15.2377476665
 20
44.169326912
 10
-10.8597701919
 20
44.314817034
 10
-6.4798775108
 20
44.4280070895
 10
-2.0983269438
 20
44.5088419188
 10
2.2851135334
 20
44.5573935828
 10
6.6685637193
 20
44.5735931869
 10
11.0520117307
 20
44.5573933571
 10
15.4354471337
 20
44.5088414672
 10
19.8169919005
 20
44.4280065084
 10
24.1968780587
 20
44.3148164838
 10
28.5748482846
 20
44.1693264892
 10
32.9482889489
 20
43.9917921361
 10
37.3163176347
 20
43.7822877885
 10
41.6797828816
 20
43.5407065284
 10
46.0386646665
 20
43.2670283878
  0
LWPOLYLINE
  5
389
100
AcDbEntity
  8
RACCORDO
100
AcDbPolyline
 62
253
  6
CONTINUOUS
 90
37
 70
0
 10
46.0264794781
 20
43.0902038992
 10
44.3964358983
 20
43.1962392923
 10
42.719782554
 20
43.3006101052
 10
40.9964754377
 20
43.4029238214
 10
39.2323584478
 20
43.5024531672
 10
37.4215023678
 20
43.5991425727
 10
35.5461831362
 20
43.6934285543
 10
33.6063172387
 20
43.7847041705
 10
31.6018574736
 20
43.8723394649
 10
29.5151289326
 20
43.9563636723
 10
27.345212031
 20
44.0359436955
 10
25.0930143524
 20
44.1101413623
 10
22.7436110226
 20
44.178426773
 10
20.2832537062
 20
44.2399614758
 10
17.7257632252
 20
44.29310764
 10
15.097587975
 20
44.3362385068
 10
12.3872673964
 20
44.368530036
 10
9.6064467843
 20
44.3888020509
 10
6.8162842387
 20
44.3960525966
 10
4.0126083795
 20
44.3901304091
 10
1.1998773082
 20
44.3708858756
 10
-1.5478046102
 20
44.339220028
 10
-4.2183606025
 20
44.2962553651
 10
-6.8236661283
 20
44.2427585465
 10
-9.3256048589
 20
44.1806128674
 10
-11.7062042229
 20
44.1116829159
 10
-13.9833676471
 20
44.0368057829
 10
-16.1728208217
 20
43.9565646432
 10
-18.2732758105
 20
43.8719818901
 10
-20.2860419524
 20
43.783940402
 10
-22.2307489637
 20
43.6923737847
 10
-24.1074311619
 20
43.5979483962
 10
-25.916193172
 20
43.5013035823
 10
-27.6767604219
 20
43.4019174574
 10
-29.3957292784
 20
43.2998170524
 10
-31.0665912164
 20
43.1957780546
 10
-32.6893916518
 20
43.0902038774
  0
LWPOLYLINE
  5
38A
100
AcDbEntity
  8
RACCORDO
100
AcDbPolyline
 62
253
  6
CONTINUOUS
 90
37
 70
0
 10
46.0172488897
 20
42.837667008
 10
44.38765847
 20
42.9444898875
 10
42.7113852305
 20
43.0488405991
 10
40.9884262417
 20
43.150719755
 10
39.2247181962
 20
43.2503271404
 10
37.4143204249
 20
43.3474641296
 10
35.5394121052
 20
43.4415338484
 10
33.5999600064
 20
43.5328319164
 10
31.5959915005
 20
43.6210640684
 10
29.5097721002
 20
43.7047490559
 10
27.3403469555
 20
43.7842618185
 10
25.0886647593
 20
43.8592292415
 10
22.7398410917
 20
43.9270487604
 10
20.2800523231
 20
43.9881062154
 10
17.7231171825
 20
44.0420180983
 10
15.0956111051
 20
44.0850286551
 10
12.385936238
 20
44.1165788855
 10
9.6056919926
 20
44.1372299449
 10
6.8162486067
 20
44.144906484
 10
4.0132923621
 20
44.1383648386
 10
1.2011429878
 20
44.1188487125
 10
-1.5458794178
 20
44.0880133426
 10
-4.2157494978
 20
44.0450615431
 10
-6.8204905612
 20
43.9907882707
 10
-9.321855343
 20
43.9292371264
 10
-11.7018664743
 20
43.860816409
 10
-13.9785068781
 20
43.785115426
 10
-16.1674663309
 20
43.7049502068
 10
-18.2674106982
 20
43.6207437593
 10
-20.2796809358
 20
43.5320712793
 10
-22.2239737468
 20
43.4404779078
 10
-24.1002472655
 20
43.3462921014
 10
-25.9085497108
 20
43.2491841206
 10
-27.6687079229
 20
43.1497122752
 10
-29.3873312336
 20
43.0480623506
 10
-31.057814483
 20
42.9440474557
 10
-32.680160735
 20
42.837667008
  0
LWPOLYLINE
  5
38B
100
AcDbEntity
  8
DRAFT
100
AcDbPolyline
 62
7
  6
CONTINUOUS
 90
10
 70
0
 10
46.0386646665
 20
43.2670283878
 10
46.5951428423
 20
43.2285561476
 10
47.1514014203
 20
43.1871063334
 10
47.7074409144
 20
43.1426786275
 10
48.2632781305
 20
43.0952713167
 10
48.8188972587
 20
43.0448854128
 10
49.374249874
 20
42.9915246532
 10
49.9293201454
 20
42.9351900076
 10
50.4841248338
 20
42.8758796775
 10
51.0386643853
 20
42.813593217
  0
LINE
  5
38C
100
AcDbEntity
  8
RACCORDO
100
AcDbLine
 62
253
  6
CONTINUOUS
 10
51.0386646663
 20
-43.6664068131
 11
51.0179481951
 21
-43.4904425075
  0
LWPOLYLINE
  5
38D
100
AcDbEntity
  8
RACCORDO
100
AcDbPolyline
 62
253
  6
CONTINUOUS
 90
9
 70
0
 10
51.0125955138
 20
42.5486064906
 10
51.014180014
 20
42.5666998642
 10
51.0155214549
 20
42.5830200287
 10
51.0166093068
 20
42.5974388806
 10
51.0174350308
 20
42.6098432407
 10
51.0179921455
 20
42.6201357424
 10
51.0182762779
 20
42.6282355957
 10
51.0182851978
 20
42.6340792217
 10
51.018018835
 20
42.6376207515
  0
LWPOLYLINE
  5
38E
100
AcDbEntity
  8
RACCORDO
100
AcDbPolyline
 62
253
  6
CONTINUOUS
 90
9
 70
0
 10
50.4438160679
 20
42.4477680713
 10
49.891394319
 20
42.5068856998
 10
49.3386903316
 20
42.5630390653
 10
48.7856764545
 20
42.6162309444
 10
48.2323794515
 20
42.666459351
 10
47.6788805042
 20
42.7137175371
 10
47.125206357
 20
42.7580034769
 10
46.5713293157
 20
42.7993198661
 10
46.0172488897
 20
42.837667008
  0
LWPOLYLINE
  5
38F
100
AcDbEntity
  8
RACCORDO
100
AcDbPolyline
 62
253
  6
CONTINUOUS
 90
10
 70
0
 10
51.0180022405
 20
42.6376226609
 10
50.4644724879
 20
42.6997827593
 10
49.9106262668
 20
42.7589784501
 10
49.3564801001
 20
42.8152081196
 10
48.8020381216
 20
42.868471344
 10
48.2473268625
 20
42.918765635
 10
47.6923964943
 20
42.9660868609
 10
47.1372736235
 20
43.0104335091
 10
46.5819624278
 20
43.0518060488
 10
46.0264794781
 20
43.0902038999
  0
LWPOLYLINE
  5
390
100
AcDbEntity
  8
DRAFT
100
AcDbPolyline
 62
7
  6
CONTINUOUS
 90
73
 70
0
 10
51.0386643853
 20
42.813593217
 10
51.2652898793
 20
42.7860161696
 10
51.4913952643
 20
42.7554107112
 10
51.7169807774
 20
42.7217766061
 10
51.9420656518
 20
42.6851120708
 10
52.1666311005
 20
42.6454183492
 10
52.3906203156
 20
42.6026997133
 10
52.6140288711
 20
42.556940142
 10
52.836861582
 20
42.5081549821
 10
53.0590754853
 20
42.4563955305
 10
53.2807223647
 20
42.4016697356
 10
53.5017507571
 20
42.3439688605
 10
53.7219628097
 20
42.2833191548
 10
53.9414344932
 20
42.2196892668
 10
54.1600900933
 20
42.1531096419
 10
54.3775042065
 20
42.0836992182
 10
54.5936214983
 20
42.0114378985
 10
54.8084974795
 20
41.9363448029
 10
55.0218729839
 20
41.8585977229
 10
55.2337075394
 20
41.7782279294
 10
55.4440417085
 20
41.6952031523
 10
55.652737849
 20
41.6096058991
 10
55.85970502
 20
41.5214550196
 10
56.065034178
 20
41.4307306167
 10
56.2688605079
 20
41.3374570822
 10
56.471146544
 20
41.2416533477
 10
56.6719297026
 20
41.1432993731
 10
56.8714574799
 20
41.0423610723
 10
57.0698821443
 20
40.9388413415
 10
57.2670513211
 20
40.8327360901
 10
57.4627555252
 20
40.7240007164
 10
57.6570821544
 20
40.612527546
 10
57.8499436276
 20
40.4984229525
 10
58.0408679645
 20
40.3819634536
 10
58.2291600339
 20
40.2635532086
 10
58.415514699
 20
40.1427869467
 10
58.6015449637
 20
40.0187268426
 10
58.7868999068
 20
39.891854332
 10
58.9719301447
 20
39.7616863002
 10
59.1593009673
 20
39.6258371021
 10
59.3491509671
 20
39.4845165764
 10
59.5413411
 20
39.3375115411
 10
59.7381200684
 20
39.1818000357
 10
59.9397506048
 20
39.0174581335
 10
60.145969117
 20
38.8444038619
 10
60.3582344891
 20
38.6593757643
 10
60.5774173437
 20
38.4618587948
 10
60.8026453454
 20
38.2523583685
 10
61.0327623889
 20
38.0291413594
 10
61.2681118852
 20
37.791954499
 10
61.5083474156
 20
37.5410384179
 10
61.7512774022
 20
37.2753991516
 10
61.9972578994
 20
36.9947461537
 10
62.2459281177
 20
36.6993547277
 10
62.4940203732
 20
36.3890787239
 10
62.742009536
 20
36.0627697558
 10
62.989413864
 20
35.7215591781
 10
63.2315304651
 20
35.3687222667
 10
63.4671720121
 20
35.0058148545
 10
63.6975185547
 20
34.6312691057
 10
63.9214178517
 20
34.2436760016
 10
64.1387602539
 20
33.8439376058
 10
64.3496458409
 20
33.4311379084
 10
64.5532347458
 20
33.001137004
 10
64.7513050105
 20
32.5490673273
 10
64.9420630657
 20
32.0797742984
 10
65.1193129674
 20
31.6036924866
 10
65.2819100957
 20
31.1201704556
 10
65.430989475
 20
30.6298560954
 10
65.5637827257
 20
30.1451498476
 10
65.6793694318
 20
29.6701937984
 10
65.7786717264
 20
29.2008618775
 10
65.8616900889
 20
28.7371607049
  0
LINE
  5
391
100
AcDbEntity
  8
RACCORDO
100
AcDbLine
 62
253
  6
CONTINUOUS
 10
66.2442951958
 20
24.5597227326
 11
66.181585373
 21
25.1634656779
  0
LINE
  5
392
100
AcDbEntity
  8
RACCORDO
100
AcDbLine
 62
253
  6
CONTINUOUS
 10
65.9642484693
 20
24.5448224297
 11
65.9017822761
 21
25.1471467588
  0
LINE
  5
393
100
AcDbEntity
  8
DRAFT
100
AcDbLine
 62
7
  6
CONTINUOUS
 10
66.3521958046
 20
25.1828004482
 11
66.4165221714
 21
24.5624584917
  0
LINE
  5
394
100
AcDbEntity
  8
DRAFT
100
AcDbLine
 62
7
  6
CONTINUOUS
 10
66.4165221714
 20
24.5624584917
 11
66.5027365344
 21
23.6888303668
  0
LINE
  5
395
100
AcDbEntity
  8
RACCORDO
100
AcDbLine
 62
253
  6
CONTINUOUS
 10
66.0738747709
 20
23.4283812471
 11
65.9642484693
 21
24.5448224297
  0
LINE
  5
396
100
AcDbEntity
  8
RACCORDO
100
AcDbLine
 62
253
  6
CONTINUOUS
 10
66.3540372369
 20
23.4435891294
 11
66.2442951958
 21
24.5597227326
  0
LINE
  5
397
100
AcDbEntity
  8
RACCORDO
100
AcDbLine
 62
253
  6
CONTINUOUS
 10
66.3822128117
 20
23.148386085
 11
66.3540372369
 21
23.4435891294
  0
LINE
  5
398
100
AcDbEntity
  8
DRAFT
100
AcDbLine
 62
7
  6
CONTINUOUS
 10
66.5027365344
 20
23.6888303668
 11
66.5529864651
 21
23.1645731869
  0
LWPOLYLINE
  5
399
100
AcDbEntity
  8
DRAFT
100
AcDbPolyline
 62
7
  6
CONTINUOUS
 90
16
 70
0
 10
66.5529864651
 20
23.1645731869
 10
66.8306166765
 20
20.0241818446
 10
67.0686238454
 20
16.8818284753
 10
67.2669812596
 20
13.7376376999
 10
67.4256511211
 20
10.5913272297
 10
67.5446301736
 20
7.4434293988
 10
67.6239512263
 20
4.295291648
 10
67.6636216504
 20
1.1474978137
 10
67.6636218423
 20
-2.0002839586
 10
67.6239517161
 20
-5.1480793396
 10
67.54463082
 20
-8.2962207686
 10
67.4256518342
 20
-11.4441238233
 10
67.2669819417
 20
-14.5904393067
 10
67.0686243969
 20
-17.7346342997
 10
66.8306170005
 20
-20.8769916756
 10
66.5529864651
 20
-24.0173868131
  0
LWPOLYLINE
  5
39A
100
AcDbEntity
  8
RACCORDO
100
AcDbPolyline
 62
253
  6
CONTINUOUS
 90
18
 70
0
 10
66.2970339574
 20
-21.9229812867
 10
66.4786814138
 20
-19.6863660951
 10
66.6468235284
 20
-17.2761521308
 10
66.8068257401
 20
-14.6461357031
 10
66.9529804551
 20
-11.8424591106
 10
67.0686518935
 20
-9.0036813799
 10
67.1490825188
 20
-6.1645000516
 10
67.1989670654
 20
-3.2903872245
 10
67.2160159126
 20
-0.4161377729
 10
67.1987197407
 20
2.4582952579
 10
67.1485877111
 20
5.3326748569
 10
67.0679322069
 20
8.1717802776
 10
66.9520104608
 20
11.0104580379
 10
66.8056285444
 20
13.8136921676
 10
66.6455915134
 20
16.441543048
 10
66.4776647388
 20
18.8474092353
 10
66.296427672
 20
21.0779558818
 10
66.0738747709
 20
23.4283812471
  0
LWPOLYLINE
  5
39B
100
AcDbEntity
  8
RACCORDO
100
AcDbPolyline
 62
253
  6
CONTINUOUS
 90
19
 70
0
 10
66.3822128117
 20
-24.0011997111
 10
66.56931136
 20
-21.9367441813
 10
66.752645033
 20
-19.6987137212
 10
66.9275581693
 20
-17.2869724131
 10
67.0916694913
 20
-14.6553506155
 10
67.2359353938
 20
-11.849928138
 10
67.3498042565
 20
-9.0091925323
 10
67.4313090919
 20
-6.1681649599
 10
67.4808717975
 20
-3.2923366893
 10
67.4973143391
 20
-0.4161393681
 10
67.480633188
 20
2.460241848
 10
67.4308256397
 20
5.3363372915
 10
67.3490843993
 20
8.1772889915
 10
67.2349816424
 20
11.0179258622
 10
67.0905062336
 20
13.8229072074
 10
66.9263258431
 20
16.4523617912
 10
66.7515726
 20
18.8597520822
 10
66.5686384637
 20
21.0917134723
 10
66.3822128117
 20
23.148386085
  0
LINE
  5
39C
100
AcDbEntity
  8
DRAFT
100
AcDbLine
 62
7
  6
CONTINUOUS
 10
66.5529864651
 20
-24.0173868131
 11
66.4686203844
 21
-24.8911167103
  0
LINE
  5
39D
100
AcDbEntity
  8
RACCORDO
100
AcDbLine
 62
253
  6
CONTINUOUS
 10
65.9960821844
 20
-25.0786995447
 11
66.2970339574
 21
-21.9229812867
  0
LINE
  5
39E
100
AcDbEntity
  8
RACCORDO
100
AcDbLine
 62
253
  6
CONTINUOUS
 10
66.2761624425
 20
-25.093688696
 11
66.3822128117
 21
-24.0011997111
  0
LINE
  5
39F
100
AcDbEntity
  8
RACCORDO
100
AcDbLine
 62
253
  6
CONTINUOUS
 10
65.948178071
 20
-25.5570898735
 11
65.9960821844
 21
-25.0786995447
  0
LINE
  5
3A0
100
AcDbEntity
  8
DRAFT
100
AcDbLine
 62
7
  6
CONTINUOUS
 10
66.4686203844
 20
-24.8911167103
 11
66.3989097366
 21
-25.589975698
  0
LINE
  5
3A1
100
AcDbEntity
  8
RACCORDO
100
AcDbLine
 62
253
  6
CONTINUOUS
 10
66.2282079361
 20
-25.5719450824
 11
66.2761624425
 21
-25.093688696
  0
LWPOLYLINE
  5
3A2
100
AcDbEntity
  8
DRAFT
100
AcDbPolyline
 62
7
  6
CONTINUOUS
 90
10
 70
0
 10
66.3989097366
 20
-25.589975698
 10
66.3521962089
 20
-26.0356106325
 10
66.3022369263
 20
-26.4809707416
 10
66.2490323563
 20
-26.9260535208
 10
66.1925827096
 20
-27.3708792053
 10
66.1328887583
 20
-27.8154225669
 10
66.0699518671
 20
-28.2596129506
 10
66.0037728867
 20
-28.7034251973
 10
65.9343521231
 20
-29.1468796073
 10
65.861690178
 20
-29.5899737626
  0
LWPOLYLINE
  5
3A3
100
AcDbEntity
  8
RACCORDO
100
AcDbPolyline
 62
253
  6
CONTINUOUS
 90
10
 70
0
 10
65.4146439488
 20
-29.5322154023
 10
65.4868003244
 20
-29.0919106944
 10
65.555740078
 20
-28.651235936
 10
65.6214626218
 20
-28.210193436
 10
65.6839684271
 20
-27.7687579988
 10
65.7432558911
 20
-27.3269594595
 10
65.7993213731
 20
-26.8848827275
 10
65.8521633551
 20
-26.4425577155
 10
65.9017824052
 20
-25.9999592975
 10
65.948178071
 20
-25.5570898735
  0
LWPOLYLINE
  5
3A4
100
AcDbEntity
  8
RACCORDO
100
AcDbPolyline
 62
253
  6
CONTINUOUS
 90
10
 70
0
 10
65.6920947997
 20
-29.5604360626
 10
65.7645951971
 20
-29.1187036182
 10
65.8338660695
 20
-28.6765524735
 10
65.8999059106
 20
-28.2340060377
 10
65.9627143147
 20
-27.7910803993
 10
66.0222890382
 20
-27.3478065343
 10
66.0786263029
 20
-26.9042302227
 10
66.1317247839
 20
-26.4603825221
 10
66.1815853372
 20
-26.016279634
 10
66.2282079396
 20
-25.5719450828
  0
LWPOLYLINE
  5
3A5
100
AcDbEntity
  8
DRAFT
100
AcDbPolyline
 62
7
  6
CONTINUOUS
 90
73
 70
0
 10
65.861690178
 20
-29.5899737626
 10
65.7779634266
 20
-30.0575225313
 10
65.6776314305
 20
-30.5308657754
 10
65.5606936756
 20
-31.0099966601
 10
65.4261515167
 20
-31.4992607605
 10
65.275001758
 20
-31.9942958897
 10
65.1102423954
 20
-32.4820425297
 10
64.9307370227
 20
-32.9616775328
 10
64.7376322055
 20
-33.4340283445
 10
64.5373588154
 20
-33.8885289719
 10
64.3317649713
 20
-34.3202346591
 10
64.1190185799
 20
-34.7341133769
 10
63.9000314764
 20
-35.134473235
 10
63.6746705797
 20
-35.5223055092
 10
63.4430787571
 20
-35.896633512
 10
63.2065794662
 20
-36.258809525
 10
62.9640981898
 20
-36.6102531259
 10
62.716716889
 20
-36.9495574971
 10
62.4689932288
 20
-37.2738362921
 10
62.2214077073
 20
-37.5820254881
 10
61.9734866323
 20
-37.8752062088
 10
61.7283559914
 20
-38.1537112592
 10
61.4863359731
 20
-38.4173278834
 10
61.2471110295
 20
-38.6662839093
 10
61.0128526919
 20
-38.9015719513
 10
60.7839345445
 20
-39.1229281956
 10
60.5599859487
 20
-39.3306289628
 10
60.3420613818
 20
-39.5264753628
 10
60.1310371209
 20
-39.7099681273
 10
59.9260385573
 20
-39.8816159801
 10
59.7254932948
 20
-40.0447296316
 10
59.5296366751
 20
-40.1994153833
 10
59.338234193
 20
-40.3455726664
 10
59.14900836
 20
-40.4861994697
 10
58.9620829771
 20
-40.6215174877
 10
58.7773346869
 20
-40.7513082592
 10
58.5921151355
 20
-40.8779077897
 10
58.4060419856
 20
-41.0018128282
 10
58.219497879
 20
-41.1225282403
 10
58.0309819116
 20
-41.2409012567
 10
57.8398383225
 20
-41.3573054601
 10
57.6467231405
 20
-41.4713683775
 10
57.4521031385
 20
-41.5828179816
 10
57.2560416658
 20
-41.6915629833
 10
57.0584755568
 20
-41.7976959608
 10
56.8596817839
 20
-41.9012207441
 10
56.6597549649
 20
-42.0021605294
 10
56.4586005872
 20
-42.100493323
 10
56.2562119061
 20
-42.1961551679
 10
56.0526286329
 20
-42.2891216003
 10
55.847811094
 20
-42.379418252
 10
55.6416334524
 20
-42.4670563024
 10
55.4340659375
 20
-42.5520365728
 10
55.2251382933
 20
-42.6343593218
 10
55.01481394
 20
-42.7140348606
 10
54.803065669
 20
-42.791102085
 10
54.589920597
 20
-42.8655230865
 10
54.375423612
 20
-42.9371929661
 10
54.1595180544
 20
-43.0061053425
 10
53.9422604151
 20
-43.0722675373
 10
53.7238652822
 20
-43.135595215
 10
53.5043190964
 20
-43.196087012
 10
53.2836351728
 20
-43.2537451563
 10
53.0620683875
 20
-43.308490698
 10
52.8396168358
 20
-43.3603372058
 10
52.6162821066
 20
-43.409271883
 10
52.3923242914
 20
-43.4551762287
 10
52.1677313403
 20
-43.4980235252
 10
51.9425149115
 20
-43.5378411684
 10
51.7169706386
 20
-43.5745918131
 10
51.491196917
 20
-43.608263195
 10
51.2650949038
 20
-43.6388681263
 10
51.0386643619
 20
-43.6664068456
  0
LWPOLYLINE
  5
3A6
100
AcDbEntity
  8
RACCORDO
100
AcDbPolyline
 62
253
  6
CONTINUOUS
 90
148
 70
0
 10
65.4146439488
 20
28.6794017762
 10
65.3540708926
 20
29.0132103214
 10
65.2904000512
 20
29.3344072232
 10
65.2236352342
 20
29.642996672
 10
65.1533202229
 20
29.9384557209
 10
65.0799184438
 20
30.2213158468
 10
65.0048124572
 20
30.4931622559
 10
64.9281601368
 20
30.7539877975
 10
64.8498088701
 20
31.0038066605
 10
64.7706744528
 20
31.2442348324
 10
64.6908669059
 20
31.4753641116
 10
64.6102800275
 20
31.6971083484
 10
64.5295044882
 20
31.9108155346
 10
64.448555565
 20
32.1166603353
 10
64.3674207785
 20
32.3144726068
 10
64.2866486426
 20
32.5050823768
 10
64.2062892564
 20
32.6885147304
 10
64.1262946729
 20
32.8647484095
 10
64.0470659881
 20
33.0345434062
 10
63.968655228
 20
33.1979060511
 10
63.8910120072
 20
33.3548331984
 10
63.8143835295
 20
33.5060701685
 10
63.7389037223
 20
33.6514622835
 10
63.6644399046
 20
33.7911668459
 10
63.5908391058
 20
33.9263966245
 10
63.5183853888
 20
34.0567952484
 10
63.4467955584
 20
34.1827210139
 10
63.3750654304
 20
34.3064578839
 10
63.303200854
 20
34.4281625948
 10
63.2311963912
 20
34.5476792052
 10
63.1580306152
 20
34.6668217852
 10
63.0832216623
 20
34.7864148542
 10
63.007251514
 20
34.9056338327
 10
62.930544428
 20
35.0238189048
 10
62.8529940081
 20
35.1410790319
 10
62.7747068811
 20
35.2573055753
 10
62.6964269363
 20
35.3715126663
 10
62.6183958068
 20
35.4833195347
 10
62.5403722028
 20
35.5931077475
 10
62.4623756673
 20
35.7010351125
 10
62.3845129538
 20
35.8069733276
 10
62.3066775915
 20
35.9110513748
 10
62.2285692414
 20
36.0138128464
 10
62.1503592189
 20
36.1150825881
 10
62.071876416
 20
36.2150362172
 10
61.9923067798
 20
36.3147431739
 10
61.9116337296
 20
36.4142832186
 10
61.8298739448
 20
36.5135766147
 10
61.7462631847
 20
36.6134531961
 10
61.6604625364
 20
36.714333209
 10
61.5728109425
 20
36.8157960654
 10
61.4835609344
 20
36.917410272
 10
61.3926505879
 20
37.0192233499
 10
61.3001419096
 20
37.1211876476
 10
61.2064733683
 20
37.2227291124
 10
61.1118285959
 20
37.323643336
 10
61.0160240916
 20
37.4241348613
 10
60.9189476473
 20
37.5242431696
 10
60.8204976212
 20
37.6240687133
 10
60.7207757773
 20
37.7235111201
 10
60.6199750244
 20
37.8223086798
 10
60.5179457288
 20
37.9205726788
 10
60.4148376598
 20
38.018192017
 10
60.31129285
 20
38.1145715769
 10
60.2072850439
 20
38.2096974075
 10
60.1028406515
 20
38.303583899
 10
59.9986807217
 20
38.3956786714
 10
59.8947887096
 20
38.4859613277
 10
59.7911813132
 20
38.5744529048
 10
59.6886294516
 20
38.6606633665
 10
59.5871247087
 20
38.7445638822
 10
59.486675637
 20
38.8261840694
 10
59.3880786046
 20
38.9051217125
 10
59.291341762
 20
38.9813396678
 10
59.1964570669
 20
39.0548759444
 10
59.1041965873
 20
39.1254411531
 10
59.0150075186
 20
39.1927101726
 10
58.9284427402
 20
39.25700902
 10
58.8439328296
 20
39.319024938
 10
58.7618018038
 20
39.3785739386
 10
58.6817256884
 20
39.4358406161
 10
58.6021630617
 20
39.4920648199
 10
58.5222834905
 20
39.5478471649
 10
58.4429174362
 20
39.6025872322
 10
58.3650148126
 20
39.6557232302
 10
58.2887273703
 20
39.7071360819
 10
58.213903377
 20
39.7569452346
 10
58.1410375153
 20
39.8049467652
 10
58.070533136
 20
39.8508862036
 10
58.0019868952
 20
39.8950184083
 10
57.9346834309
 20
39.9379034069
 10
57.8686875141
 20
39.9795224105
 10
57.8039343783
 20
40.0198944398
 10
57.7395143568
 20
40.0596361218
 10
57.6754699778
 20
40.0987451258
 10
57.6117587196
 20
40.1372238902
 10
57.5473433469
 20
40.1756960853
 10
57.4822497416
 20
40.2141720338
 10
57.416452034
 20
40.2526414099
 10
57.3488353694
 20
40.2916968047
 10
57.279196092
 20
40.3314735888
 10
57.2077378806
 20
40.3718362751
 10
57.1339568894
 20
40.412971098
 10
57.0575273892
 20
40.4550567829
 10
56.9787751407
 20
40.4979144426
 10
56.8981735345
 20
40.5411939072
 10
56.8160252229
 20
40.5847418461
 10
56.7320275808
 20
40.6287115113
 10
56.645746083
 20
40.6732126296
 10
56.5574869975
 20
40.7181206273
 10
56.4669440907
 20
40.7635599718
 10
56.3727640973
 20
40.8100138886
 10
56.2745819271
 20
40.8576919855
 10
56.1727627307
 20
40.9063844122
 10
56.0670486161
 20
40.9559451688
 10
55.9574307158
 20
41.0063937623
 10
55.8439179643
 20
41.0577104745
 10
55.7262791753
 20
41.1096905055
 10
55.6045114092
 20
41.1623436818
 10
55.4786176768
 20
41.2156600049
 10
55.3483757161
 20
41.2694049888
 10
55.213744568
 20
41.3236043876
 10
55.0747652611
 20
41.3782323264
 10
54.9313385089
 20
41.4329769439
 10
54.7834487196
 20
41.4878625755
 10
54.6311115406
 20
41.5428648431
 10
54.4742745283
 20
41.5975989058
 10
54.3131944126
 20
41.6520055142
 10
54.1476144877
 20
41.7061439823
 10
53.9767121385
 20
41.7598073915
 10
53.799214116
 20
41.8133224946
 10
53.6163936676
 20
41.8663626233
 10
53.4312478665
 20
41.9177409036
 10
53.2430463014
 20
41.967470777
 10
53.0525192531
 20
42.0155391982
 10
52.8648547432
 20
42.0607198478
 10
52.6811207931
 20
42.1026090547
 10
52.5002491423
 20
42.1416111231
 10
52.3242233619
 20
42.1777118114
 10
52.1534073344
 20
42.2107837964
 10
51.9874369663
 20
42.2409548948
 10
51.8272039045
 20
42.2685935196
 10
51.6727132164
 20
42.2936856122
 10
51.5239596882
 20
42.3162455571
 10
51.3818196026
 20
42.3366843585
 10
51.2465850409
 20
42.355139075
 10
51.1179638525
 20
42.3714728453
 10
50.4438160679
 20
42.4477680713
  0
LWPOLYLINE
  5
3A7
100
AcDbEntity
  8
RACCORDO
100
AcDbPolyline
 62
253
  6
CONTINUOUS
 90
148
 70
0
 10
65.6920953062
 20
28.7076195852
 10
65.6315331639
 20
29.0469664042
 10
65.566457115
 20
29.3734832133
 10
65.4975693866
 20
29.6871644337
 10
65.4256876637
 20
29.9874734252
 10
65.3513576167
 20
30.274979018
 10
65.2747537575
 20
30.5513387147
 10
65.1964562124
 20
30.816464939
 10
65.1170206248
 20
31.070340011
 10
65.0363890016
 20
31.3146967877
 10
64.9549501092
 20
31.5496277969
 10
64.8731581582
 20
31.774993799
 10
64.7908755522
 20
31.9921774654
 10
64.7083318979
 20
32.2014085406
 10
64.625918194
 20
32.402500673
 10
64.5436325575
 20
32.5962105516
 10
64.4617183597
 20
32.7826301663
 10
64.3804347889
 20
32.9617916585
 10
64.2997383135
 20
33.1343490489
 10
64.2198307739
 20
33.3003690922
 10
64.1409080199
 20
33.4599143918
 10
64.0628654603
 20
33.6136173514
 10
63.9859523869
 20
33.761369857
 10
63.9102387197
 20
33.9034063411
 10
63.8352975864
 20
34.040846145
 10
63.7614743879
 20
34.1733359019
 10
63.6886650304
 20
34.3013273955
 10
63.615676205
 20
34.4270903654
 10
63.5424936642
 20
34.550744907
 10
63.4692321361
 20
34.6721892739
 10
63.3947919324
 20
34.7932858534
 10
63.3186618161
 20
34.9148290348
 10
63.2413542764
 20
35.0359634628
 10
63.1632767851
 20
35.1560537318
 10
63.0843464215
 20
35.2752427218
 10
63.0046757122
 20
35.3933717644
 10
62.9249881436
 20
35.5094062638
 10
62.8455503764
 20
35.6230334992
 10
62.7661288222
 20
35.7346619612
 10
62.6867182464
 20
35.8443619458
 10
62.6074370469
 20
35.9520347291
 10
62.5281989149
 20
36.0578612998
 10
62.4486812128
 20
36.1623207242
 10
62.3690430182
 20
36.2652454515
 10
62.2891400669
 20
36.3668628773
 10
62.2081595591
 20
36.4682178981
 10
62.1260505539
 20
36.5693601075
 10
62.0428252579
 20
36.6702607347
 10
61.9577298211
 20
36.7718008321
 10
61.8704244186
 20
36.874323164
 10
61.7812341102
 20
36.9773829043
 10
61.6904096345
 20
37.0806432416
 10
61.5979131832
 20
37.1841052199
 10
61.5037996523
 20
37.2876649996
 10
61.4084784971
 20
37.3908411576
 10
61.3121672306
 20
37.4933827093
 10
61.2146964646
 20
37.5954539039
 10
61.1159025437
 20
37.6971995488
 10
61.0156967733
 20
37.7986762243
 10
60.9142083367
 20
37.8997178071
 10
60.8116001055
 20
38.0001338581
 10
60.7077480573
 20
38.1000280898
 10
60.6028157837
 20
38.199231389
 10
60.4974081716
 20
38.297178019
 10
60.391542065
 20
38.3938717681
 10
60.2852610933
 20
38.489291609
 10
60.179229064
 20
38.5828746223
 10
60.0734742994
 20
38.6746419466
 10
59.9680429216
 20
38.7645983498
 10
59.8636404285
 20
38.8521998002
 10
59.7603035406
 20
38.9374855392
 10
59.6580749825
 20
39.0204882142
 10
59.5576805796
 20
39.1006983257
 10
59.4591981863
 20
39.1781537228
 10
59.3626687895
 20
39.2529255234
 10
59.2687736501
 20
39.3245941919
 10
59.1780064063
 20
39.3929022431
 10
59.0899699252
 20
39.4582605234
 10
59.0040005262
 20
39.5212501514
 10
58.9204481939
 20
39.5816928446
 10
58.8390209411
 20
39.6398739776
 10
58.7580897148
 20
39.6970024543
 10
58.6768317077
 20
39.7536704958
 10
58.5961249085
 20
39.8092769304
 10
58.5168896106
 20
39.8632200707
 10
58.4392763475
 20
39.9154411522
 10
58.3631666337
 20
39.9660618041
 10
58.2890639436
 20
40.0147913049
 10
58.2173304163
 20
40.0614415962
 10
58.1475489228
 20
40.1063281885
 10
58.0790535613
 20
40.1499115255
 10
58.0118766203
 20
40.1921970287
 10
57.9459159119
 20
40.2332746937
 10
57.8803150688
 20
40.2736941876
 10
57.8150936042
 20
40.3134521135
 10
57.7501783055
 20
40.352601844
 10
57.6845763426
 20
40.3917411287
 10
57.6182764671
 20
40.4308666246
 10
57.5512321213
 20
40.4699960066
 10
57.4823894476
 20
40.5097246401
 10
57.4114786173
 20
40.5501762536
 10
57.3386817302
 20
40.5912149803
 10
57.2636076086
 20
40.6330283654
 10
57.1858615324
 20
40.6757964302
 10
57.1057060179
 20
40.7193350586
 10
57.0237317469
 20
40.7632944995
 10
56.94020688
 20
40.8075112767
 10
56.8547600395
 20
40.8521516648
 10
56.7670230769
 20
40.8973654769
 10
56.6772504011
 20
40.9429771419
 10
56.5851152844
 20
40.9891067293
 10
56.4893459843
 20
41.036326154
 10
56.3894764843
 20
41.084778326
 10
56.2858309569
 20
41.1342148019
 10
56.1782935929
 20
41.1845997284
 10
56.0667676574
 20
41.23588213
 10
55.9511920842
 20
41.2879893217
 10
55.8314990271
 20
41.3408471387
 10
55.7076208542
 20
41.3943763802
 10
55.5794485979
 20
41.4485105089
 10
55.4468748403
 20
41.5031818535
 10
55.3098932542
 20
41.5582837238
 10
55.1684762764
 20
41.6137147899
 10
55.0225279674
 20
41.6693947636
 10
54.8720688982
 20
41.7251920367
 10
54.7170958032
 20
41.7809792809
 10
54.5574869033
 20
41.8366642148
 10
54.3935565048
 20
41.8919974157
 10
54.2250710017
 20
41.9469120388
 10
54.0510887794
 20
42.0015406729
 10
53.8704678967
 20
42.0560412901
 10
53.6845253257
 20
42.1098419797
 10
53.4960501296
 20
42.1620335448
 10
53.3045210267
 20
42.2126931373
 10
53.1108124176
 20
42.2615206154
 10
52.9198411528
 20
42.3073066711
 10
52.7327493901
 20
42.3499087243
 10
52.5487292377
 20
42.3896363771
 10
52.3696970784
 20
42.4262144092
 10
52.1958581181
 20
42.4597829409
 10
52.0269101257
 20
42.4905780413
 10
51.8638667933
 20
42.5185975503
 10
51.7066670369
 20
42.5440426599
 10
51.5552520205
 20
42.5671038944
 10
51.4106272214
 20
42.587813703
 10
51.2730881106
 20
42.6063233833
 10
51.1422289396
 20
42.6228691739
 10
51.018002241
 20
42.6376226651
  0
LWPOLYLINE
  5
3A8
100
AcDbEntity
  8
DRAFT
100
AcDbPolyline
 62
7
  6
CONTINUOUS
 90
9
 70
0
 10
65.8616900889
 20
28.7371607049
 10
65.9343515549
 20
28.2940697291
 10
66.0037719738
 20
27.8506177055
 10
66.0699507437
 20
27.4068070516
 10
66.1328875733
 20
26.9626174887
 10
66.1925815965
 20
26.5180741534
 10
66.2490314027
 20
26.0732476343
 10
66.302236204
 20
25.6281631371
 10
66.3521958046
 20
25.1828004482
  0
LWPOLYLINE
  5
3A9
100
AcDbEntity
  8
RACCORDO
100
AcDbPolyline
 62
253
  6
CONTINUOUS
 90
9
 70
0
 10
66.181585373
 20
25.1634656779
 10
66.1317248907
 20
25.6075679758
 10
66.078626465
 20
26.0514152822
 10
66.0222892201
 20
26.4949915171
 10
65.9627144904
 20
26.9382655005
 10
65.8999061032
 20
27.3811910876
 10
65.8338663243
 20
27.8237371811
 10
65.7645955463
 20
28.265887815
 10
65.6920952791
 20
28.7076195806
  0
LWPOLYLINE
  5
3AA
100
AcDbEntity
  8
RACCORDO
100
AcDbPolyline
 62
253
  6
CONTINUOUS
 90
9
 70
0
 10
65.9017822761
 20
25.1471467588
 10
65.8521631252
 20
25.5897459896
 10
65.7993210708
 20
26.0320715398
 10
65.74325554
 20
26.4741485324
 10
65.683968056
 20
26.9159470579
 10
65.6214622741
 20
27.3573822172
 10
65.5557398023
 20
27.7984241786
 10
65.4868001647
 20
28.2390981345
 10
65.4146439488
 20
28.6794017762
  0
LINE
  5
3AB
100
AcDbEntity
  8
RACCORDO
100
AcDbLine
 62
7
  6
CONTINUOUS
 10
-87.4510649316
 20
-45.0810777858
 11
-87.4389265104
 21
-45.0782080348
  0
LINE
  5
3AC
100
AcDbEntity
  8
RACCORDO
100
AcDbLine
 62
253
  6
CONTINUOUS
 10
-87.2725597877
 20
-44.6501528839
 11
-87.2603599692
 21
-44.6472988727
  0
LINE
  5
3AD
100
AcDbEntity
  8
RACCORDO
100
AcDbLine
 62
253
  6
CONTINUOUS
 10
-86.8956507127
 20
-43.7737962181
 11
-86.9471830004
 21
-43.7855929133
  0
LINE
  5
3AE
100
AcDbEntity
  8
RACCORDO
100
AcDbLine
 62
253
  6
CONTINUOUS
 10
-86.7630512616
 20
-43.3222408899
 11
-86.8872404058
 21
-43.3503137331
  0
LWPOLYLINE
  5
3AF
100
AcDbEntity
  8
RACCORDO
100
AcDbPolyline
 62
253
  6
CONTINUOUS
 90
10
 70
0
 10
-86.7830655134
 20
-43.672458478
 10
-86.5354952753
 20
-43.6344302129
 10
-86.1363134827
 20
-43.562361171
 10
-85.7391644791
 20
-43.4798593644
 10
-85.3443191364
 20
-43.3869809162
 10
-84.952050794
 20
-43.2837899758
 10
-84.5626349346
 20
-43.1703592006
 10
-84.176340958
 20
-43.0467675918
 10
-83.7934321366
 20
-42.9130999144
 10
-83.414171396
 20
-42.7694484038
  0
LINE
  5
3B0
100
AcDbEntity
  8
DRAFT
100
AcDbLine
 62
7
  6
CONTINUOUS
 10
-89.6224962121
 20
-45.2488846057
 11
-87.5934080969
 21
-45.4264068131
  0
LWPOLYLINE
  5
3B1
100
AcDbEntity
  8
RACCORDO
100
AcDbPolyline
 62
253
  6
CONTINUOUS
 90
7
 70
0
 10
-86.5469846498
 20
-42.8204635159
 10
-86.2112555212
 20
-42.7696563668
 10
-85.8556741403
 20
-42.7073333276
 10
-85.5016615409
 20
-42.6367407099
 10
-85.1494100162
 20
-42.5579167868
 10
-84.7991120374
 20
-42.4709045558
 10
-84.4509601164
 20
-42.3757518473
  0
LWPOLYLINE
  5
3B2
100
AcDbEntity
  8
RACCORDO
100
AcDbPolyline
 62
253
  6
CONTINUOUS
 90
7
 70
0
 10
-86.4347690614
 20
-42.3764410968
 10
-86.0935723801
 20
-42.3250775799
 10
-85.7536373978
 20
-42.2661737706
 10
-85.4151333088
 20
-42.1997589124
 10
-85.0782291994
 20
-42.1258706379
 10
-84.7430921616
 20
-42.0445409752
 10
-84.4098871913
 20
-41.9557964658
  0
LINE
  5
3B3
100
AcDbEntity
  8
RACCORDO
100
AcDbLine
 62
253
  6
CONTINUOUS
 10
-86.9194879828
 20
-43.6664068131
 11
-88.9446647171
 21
-43.4904425075
  0
LINE
  5
3B4
100
AcDbEntity
  8
RACCORDO
100
AcDbLine
 62
253
  6
CONTINUOUS
 10
-87.0518023983
 20
-44.119842014
 11
-89.0777146901
 21
-43.9430175044
  0
LWPOLYLINE
  5
3B5
100
AcDbEntity
  8
RACCORDO
100
AcDbPolyline
 62
253
  6
CONTINUOUS
 90
8
 70
0
 10
-83.2626524029
 20
-28.9268004843
 10
-83.2790012251
 20
-28.930467003
 10
-83.2979123676
 20
-28.9338784942
 10
-83.3191882836
 20
-28.9369993212
 10
-83.3426067242
 20
-28.9397968836
 10
-83.367923059
 20
-28.9422419581
 10
-83.3948728327
 20
-28.9443090033
 10
-83.4231745266
 20
-28.9459764267
  0
LINE
  5
3B6
100
AcDbEntity
  8
RACCORDO
100
AcDbLine
 62
253
  6
CONTINUOUS
 10
-87.6296738283
 20
-29.5218468753
 11
-87.8204114459
 21
-29.5388952518
  0
LWPOLYLINE
  5
3B7
100
AcDbEntity
  8
RACCORDO
100
AcDbPolyline
 62
253
  6
CONTINUOUS
 90
10
 70
0
 10
-87.2024200142
 20
-29.3327484136
 10
-86.7736334106
 20
-29.2963971347
 10
-86.3462889497
 20
-29.2583597778
 10
-85.9207196506
 20
-29.2186694731
 10
-85.4972517256
 20
-29.1774273038
 10
-85.0762205931
 20
-29.1346026127
 10
-84.6579707879
 20
-29.090029615
 10
-84.2428338989
 20
-29.0436754281
 10
-83.8311281475
 20
-28.9956433968
 10
-83.4231745228
 20
-28.9459710587
  0
LWPOLYLINE
  5
3B8
100
AcDbEntity
  8
RACCORDO
100
AcDbPolyline
 62
253
  6
CONTINUOUS
 90
10
 70
0
 10
-87.1996142581
 20
-29.3749255132
 10
-86.7711202655
 20
-29.339694198
 10
-86.3440791783
 20
-29.3025776348
 10
-85.9188234496
 20
-29.2636047085
 10
-85.4956831905
 20
-29.2228056504
 10
-85.0749887889
 20
-29.1802123034
 10
-84.6570705942
 20
-29.1358581373
 10
-84.2422548411
 20
-29.089777818
 10
-83.8308634553
 20
-29.0420071404
 10
-83.423216638
 20
-28.9925833174
  0
LINE
  5
3B9
100
AcDbEntity
  8
0
100
AcDbLine
 62
7
  6
CONTINUOUS
 10
-91.8284295762
 20
-29.3342081674
 11
-91.7281438501
 21
-29.3342081674
  0
LINE
  5
3BA
100
AcDbEntity
  8
0
100
AcDbLine
 62
253
  6
CONTINUOUS
 10
-91.8850677584
 20
-28.5765070411
 11
-91.784812037
 21
-28.5765070411
  0
LINE
  5
3BB
100
AcDbEntity
  8
0
100
AcDbLine
 62
7
  6
CONTINUOUS
 10
-91.9250755312
 20
-28.0273312499
 11
-91.8248405935
 21
-28.0273312499
  0
LINE
  5
3BC
100
AcDbEntity
  8
0
100
AcDbLine
 62
7
  6
CONTINUOUS
 10
-91.9262065644
 20
-28.0107874411
 11
-91.8259722343
 21
-28.0107874411
  0
LINE
  5
3BD
100
AcDbEntity
  8
RACCORDO
100
AcDbLine
 62
253
  6
CONTINUOUS
 10
-87.8158458488
 20
-29.589975698
 11
-89.7835454267
 21
-29.5604360626
  0
LWPOLYLINE
  5
3BE
100
AcDbEntity
  8
RACCORDO
100
AcDbPolyline
 62
253
  6
CONTINUOUS
 90
10
 70
0
 10
-87.7432289071
 20
-25.5308281529
 10
-87.750406223
 20
-25.5328700694
 10
-87.7595549002
 20
-25.5349094589
 10
-87.770540153
 20
-25.5369162971
 10
-87.7832001378
 20
-25.5388610396
 10
-87.7973483379
 20
-25.5407150564
 10
-87.8127763109
 20
-25.5424510545
 10
-87.8292567601
 20
-25.5440434793
 10
-87.846546883
 20
-25.5454688916
 10
-87.8643919482
 20
-25.5467063127
  0
LWPOLYLINE
  5
3BF
100
AcDbEntity
  8
RACCORDO
100
AcDbPolyline
 62
253
  6
CONTINUOUS
 90
10
 70
0
 10
-87.8139594169
 20
-23.9937681681
 10
-87.8211639803
 20
-23.9954353844
 10
-87.8303396998
 20
-23.9970904003
 10
-87.8413515242
 20
-23.998705686
 10
-87.8540373513
 20
-24.0002542976
 10
-87.8682104163
 20
-24.0017102745
 10
-87.8836620434
 20
-24.0030490213
 10
-87.9001647201
 20
-24.0042476705
 10
-87.9174754488
 20
-24.0052854196
 10
-87.9353393273
 20
-24.006143837
  0
LWPOLYLINE
  5
3C0
100
AcDbEntity
  8
RACCORDO
100
AcDbPolyline
 62
253
  6
CONTINUOUS
 90
8
 70
0
 10
-83.2619291987
 20
-25.1600651273
 10
-83.277979814
 20
-25.1621901153
 10
-83.296553889
 20
-25.1641704589
 10
-83.3174611332
 20
-25.1659858696
 10
-83.3404873526
 20
-25.1676177485
 10
-83.3653966447
 20
-25.169049377
 10
-83.3919338148
 20
-25.1702660883
 10
-83.4198269907
 20
-25.1712554172
  0
LWPOLYLINE
  5
3C1
100
AcDbEntity
  8
RACCORDO
100
AcDbPolyline
 62
253
  6
CONTINUOUS
 90
8
 70
0
 10
-83.2619228744
 20
-25.1280612547
 10
-83.2779708805
 20
-25.1301825964
 10
-83.296542005
 20
-25.1321595685
 10
-83.3174460202
 20
-25.1339719204
 10
-83.340468802
 20
-25.1356010877
 10
-83.3653745235
 20
-25.1370303824
 10
-83.3919080703
 20
-25.1382451639
 10
-83.419797654
 20
-25.1392329886
  0
LINE
  5
3C2
100
AcDbEntity
  8
RACCORDO
100
AcDbLine
 62
253
  6
CONTINUOUS
 10
-84.0687855493
 20
-25.2257346033
 11
-83.4198269898
 21
-25.1712554174
  0
LINE
  5
3C3
100
AcDbEntity
  8
RACCORDO
100
AcDbLine
 62
253
  6
CONTINUOUS
 10
-84.0690020523
 20
-25.1937160067
 11
-83.4197976539
 21
-25.1392328424
  0
LINE
  5
3C4
100
AcDbEntity
  8
RACCORDO
100
AcDbLine
 62
253
  6
CONTINUOUS
 10
-84.7271093608
 20
-25.2777454322
 11
-84.0687855493
 21
-25.2257346033
  0
LINE
  5
3C5
100
AcDbEntity
  8
RACCORDO
100
AcDbLine
 62
253
  6
CONTINUOUS
 10
-84.7275838586
 20
-25.2457329482
 11
-84.0690020523
 21
-25.1937160067
  0
LINE
  5
3C6
100
AcDbEntity
  8
RACCORDO
100
AcDbLine
 62
253
  6
CONTINUOUS
 10
-84.0786189318
 20
-23.6903583781
 11
-83.4184976946
 21
-23.6411565522
  0
LINE
  5
3C7
100
AcDbEntity
  8
RACCORDO
100
AcDbLine
 62
253
  6
CONTINUOUS
 10
-85.393498228
 20
-25.3271850959
 11
-84.7271093608
 21
-25.2777454322
  0
LINE
  5
3C8
100
AcDbEntity
  8
RACCORDO
100
AcDbLine
 62
253
  6
CONTINUOUS
 10
-85.3942409151
 20
-25.2951807071
 11
-84.7275838586
 21
-25.2457329482
  0
LINE
  5
3C9
100
AcDbEntity
  8
RACCORDO
100
AcDbLine
 62
253
  6
CONTINUOUS
 10
-84.7485710347
 20
-23.7371237947
 11
-84.0786189318
 21
-23.6903583781
  0
LINE
  5
3CA
100
AcDbEntity
  8
RACCORDO
100
AcDbLine
 62
253
  6
CONTINUOUS
 10
-86.0666340203
 20
-25.3739557429
 11
-85.393498228
 21
-25.3271850959
  0
LINE
  5
3CB
100
AcDbEntity
  8
RACCORDO
100
AcDbLine
 62
253
  6
CONTINUOUS
 10
-86.0676517028
 20
-25.3419611955
 11
-85.3942409151
 21
-25.2951807071
  0
LINE
  5
3CC
100
AcDbEntity
  8
RACCORDO
100
AcDbLine
 62
253
  6
CONTINUOUS
 10
-85.4269816687
 20
-23.7813569028
 11
-84.7485710347
 21
-23.7371237947
  0
LINE
  5
3CD
100
AcDbEntity
  8
RACCORDO
100
AcDbLine
 62
253
  6
CONTINUOUS
 10
-86.7451835573
 20
-25.417964734
 11
-86.0666340203
 21
-25.3739557429
  0
LINE
  5
3CE
100
AcDbEntity
  8
RACCORDO
100
AcDbLine
 62
253
  6
CONTINUOUS
 10
-86.7464816737
 20
-25.3859816994
 11
-86.0676517028
 21
-25.3419611955
  0
LINE
  5
3CF
100
AcDbEntity
  8
RACCORDO
100
AcDbLine
 62
253
  6
CONTINUOUS
 10
-87.8643920514
 20
-25.5467042478
 11
-88.0547848522
 21
-25.558708337
  0
LINE
  5
3D0
100
AcDbEntity
  8
RACCORDO
100
AcDbLine
 62
253
  6
CONTINUOUS
 10
-86.1124582738
 20
-23.8229668377
 11
-85.4269816687
 21
-23.7813569028
  0
LINE
  5
3D1
100
AcDbEntity
  8
RACCORDO
100
AcDbLine
 62
253
  6
CONTINUOUS
 10
-87.427806042
 20
-25.4591251398
 11
-86.7451835573
 21
-25.417964734
  0
LINE
  5
3D2
100
AcDbEntity
  8
RACCORDO
100
AcDbLine
 62
253
  6
CONTINUOUS
 10
-87.4293883566
 20
-25.4271551942
 11
-86.7464816737
 21
-25.3859816994
  0
LINE
  5
3D3
100
AcDbEntity
  8
RACCORDO
100
AcDbLine
 62
253
  6
CONTINUOUS
 10
-87.9353394296
 20
-24.0061414029
 11
-88.1253955165
 21
-24.0164423133
  0
LWPOLYLINE
  5
3D4
100
AcDbEntity
  8
RACCORDO
100
AcDbPolyline
 62
253
  6
CONTINUOUS
 90
3
 70
0
 10
-87.4989693348
 20
-23.8979810814
 10
-87.1508396529
 20
-23.880277896
 10
-86.1124582738
 20
-23.8229668377
  0
LINE
  5
3D5
100
AcDbEntity
  8
0
100
AcDbLine
 62
253
  6
CONTINUOUS
 10
-92.0177201198
 20
-26.5966906865
 11
-91.9175348112
 21
-26.5966906865
  0
LINE
  5
3D6
100
AcDbEntity
  8
0
100
AcDbLine
 62
7
  6
CONTINUOUS
 10
-91.9261975907
 20
-26.5016552939
 11
-92.0263795329
 21
-26.5016552939
  0
LINE
  5
3D7
100
AcDbEntity
  8
RACCORDO
100
AcDbLine
 62
253
  6
CONTINUOUS
 10
-92.0623987198
 20
-24.1216668131
 11
-90.3533843757
 21
-24.1216667118
  0
LINE
  5
3D8
100
AcDbEntity
  8
RACCORDO
100
AcDbLine
 62
253
  6
CONTINUOUS
 10
-90.0860452139
 20
-24.0011997111
 11
-88.1253443252
 21
-24.0173868131
  0
LINE
  5
3D9
100
AcDbEntity
  8
RACCORDO
100
AcDbLine
 62
253
  6
CONTINUOUS
 10
-88.0528134741
 20
-25.589975698
 11
-90.0148168675
 21
-25.5719450824
  0
LWPOLYLINE
  5
3DA
100
AcDbEntity
  8
0
100
AcDbPolyline
 62
7
  6
CONTINUOUS
 90
9
 70
0
 10
-92.0263777107
 20
-26.5016855602
 10
-92.0263023369
 20
-26.5017291777
 10
-92.0260082384
 20
-26.5025758442
 10
-92.0256359744
 20
-26.504657178
 10
-92.0251895616
 20
-26.5079049247
 10
-92.0246648584
 20
-26.5123873326
 10
-92.0240378598
 20
-26.5185124253
 10
-92.0233133306
 20
-26.5261896784
 10
-92.0224861713
 20
-26.5355095949
  0
LWPOLYLINE
  5
3DB
100
AcDbEntity
  8
RACCORDO
100
AcDbPolyline
 62
253
  6
CONTINUOUS
 90
16
 70
0
 10
-90.2877220134
 20
24.7042762474
 10
-90.2846097167
 20
24.7069678785
 10
-90.2788440025
 20
24.7094872305
 10
-90.2704765669
 20
24.7118117147
 10
-90.2595824328
 20
24.7139204895
 10
-90.246259278
 20
24.7157946475
 10
-90.230626559
 20
24.7174173849
 10
-90.21282444
 20
24.7187741521
 10
-90.1930125362
 20
24.7198527841
 10
-90.1713684829
 20
24.7206436099
 10
-90.1480863423
 20
24.7211395389
 10
-90.1233748641
 20
24.7213361245
 10
-90.0974556133
 20
24.7212316041
 10
-90.0705609842
 20
24.7208269149
 10
-90.0429321161
 20
24.7201256853
 10
-90.0148167317
 20
24.7191342027
  0
LWPOLYLINE
  5
3DC
100
AcDbEntity
  8
RACCORDO
100
AcDbPolyline
 62
253
  6
CONTINUOUS
 90
16
 70
0
 10
-90.3590697324
 20
-23.9860473631
 10
-90.3559788266
 20
-23.9885863257
 10
-90.3502297747
 20
-23.9909755605
 10
-90.3418741905
 20
-23.9931936174
 10
-90.3309870886
 20
-23.9952205832
 10
-90.3176662112
 20
-23.9970382602
 10
-90.3020311503
 20
-23.9986303297
 10
-90.2842222743
 20
-23.9999824984
 10
-90.2643994675
 20
-24.0010826269
 10
-90.2427406951
 20
-24.0019208383
 10
-90.2194404048
 20
-24.0024896075
 10
-90.194707782
 20
-24.002783828
 10
-90.168764871
 20
-24.0028008585
 10
-90.1418445817
 20
-24.0025405462
 10
-90.114188599
 20
-24.0020052279
 10
-90.0860452126
 20
-24.0011997097
  0
LWPOLYLINE
  5
3DD
100
AcDbEntity
  8
RACCORDO
100
AcDbPolyline
 62
253
  6
CONTINUOUS
 90
16
 70
0
 10
-90.3533843715
 20
-24.1216668131
 10
-90.350292561
 20
-24.1242214341
 10
-90.3445427877
 20
-24.1266254642
 10
-90.3361866692
 20
-24.1288573216
 10
-90.3252992208
 20
-24.1308969702
 10
-90.3119781826
 20
-24.1327260994
 10
-90.2963431417
 20
-24.1343282887
 10
-90.2785344587
 20
-24.1356891546
 10
-90.2587120077
 20
-24.1367964802
 10
-90.2370537409
 20
-24.1376403248
 10
-90.2137540914
 20
-24.1382131129
 10
-90.1890222273
 20
-24.1385097023
 10
-90.1630801743
 20
-24.1385274305
 10
-90.1361608222
 20
-24.1382661384
 10
-90.1085058344
 20
-24.1377281716
 10
-90.0803634783
 20
-24.1369183597
  0
LWPOLYLINE
  5
3DE
100
AcDbEntity
  8
RACCORDO
100
AcDbPolyline
 62
253
  6
CONTINUOUS
 90
16
 70
0
 10
-90.2877220143
 20
-25.5570898735
 10
-90.2846097174
 20
-25.5597815047
 10
-90.2788440031
 20
-25.5623008567
 10
-90.2704765673
 20
-25.5646253409
 10
-90.2595824331
 20
-25.5667341157
 10
-90.2462592782
 20
-25.5686082738
 10
-90.2306265591
 20
-25.5702310112
 10
-90.21282444
 20
-25.5715877783
 10
-90.1930125362
 20
-25.5726664104
 10
-90.1713684829
 20
-25.5734572361
 10
-90.1480863423
 20
-25.5739531651
 10
-90.1233748641
 20
-25.5741497506
 10
-90.0974556134
 20
-25.5740452302
 10
-90.0705609843
 20
-25.573640541
 10
-90.0429321162
 20
-25.5729393113
 10
-90.0148167319
 20
-25.5719478286
  0
LWPOLYLINE
  5
3DF
100
AcDbEntity
  8
RACCORDO
100
AcDbPolyline
 62
253
  6
CONTINUOUS
 90
16
 70
0
 10
-90.0560367148
 20
28.6794017757
 10
-90.0527774504
 20
28.6838393598
 10
-90.0468924982
 20
28.6880339331
 10
-90.0384341703
 20
28.6919482092
 10
-90.0274776539
 20
28.6955473936
 10
-90.014120343
 20
28.6987994926
 10
-89.9984809725
 20
28.7016755976
 10
-89.9806985627
 20
28.7041501427
 10
-89.960931184
 20
28.7062011311
 10
-89.9393545511
 20
28.7078103312
 10
-89.9161604616
 20
28.7089634386
 10
-89.8915550908
 20
28.709650203
 10
-89.8657571592
 20
28.7098645196
 10
-89.838995988
 20
28.7096044834
 10
-89.8115094607
 20
28.7088724055
 10
-89.7835419088
 20
28.7076747936
  0
LWPOLYLINE
  5
3E0
100
AcDbEntity
  8
RACCORDO
100
AcDbPolyline
 62
253
  6
CONTINUOUS
 90
16
 70
0
 10
-90.3533843714
 20
23.2688531869
 10
-90.3502925609
 20
23.271407808
 10
-90.3445427877
 20
23.2738118381
 10
-90.3361866691
 20
23.2760436955
 10
-90.3252992207
 20
23.2780833441
 10
-90.3119781826
 20
23.2799124733
 10
-90.2963431417
 20
23.2815146626
 10
-90.2785344587
 20
23.2828755285
 10
-90.2587120077
 20
23.2839828541
 10
-90.2370537409
 20
23.2848266987
 10
-90.2137540914
 20
23.2853994867
 10
-90.1890222273
 20
23.2856960762
 10
-90.1630801743
 20
23.2857138044
 10
-90.1361608222
 20
23.2854525123
 10
-90.1085058344
 20
23.2849145455
 10
-90.0803634783
 20
23.2841047336
  0
LWPOLYLINE
  5
3E1
100
AcDbEntity
  8
RACCORDO
100
AcDbPolyline
 62
253
  6
CONTINUOUS
 90
16
 70
0
 10
-90.3590697368
 20
23.1332337372
 10
-90.3559788322
 20
23.1357727
 10
-90.3502297813
 20
23.138161935
 10
-90.3418741978
 20
23.140379992
 10
-90.3309870964
 20
23.142406958
 10
-90.3176662192
 20
23.1442246352
 10
-90.3020311584
 20
23.1458167048
 10
-90.2842222822
 20
23.1471688736
 10
-90.2643994751
 20
23.1482690022
 10
-90.2427407021
 20
23.1491072137
 10
-90.2194404112
 20
23.1496759829
 10
-90.1947077875
 20
23.1499702035
 10
-90.1687648755
 20
23.149987234
 10
-90.1418445852
 20
23.1497269216
 10
-90.1141886014
 20
23.1491916033
 10
-90.0860452139
 20
23.148386085
  0
LWPOLYLINE
  5
3E2
100
AcDbEntity
  8
RACCORDO
100
AcDbPolyline
 62
253
  6
CONTINUOUS
 90
16
 70
0
 10
-90.0560367206
 20
-29.5322154022
 10
-90.0527774677
 20
-29.5366529844
 10
-90.0468925254
 20
-29.5408475558
 10
-90.0384342057
 20
-29.5447618304
 10
-90.0274776958
 20
-29.5483610136
 10
-90.0141203896
 20
-29.5516131118
 10
-89.9984810221
 20
-29.5544892166
 10
-89.9806986138
 20
-29.556963762
 10
-89.9609312348
 20
-29.5590147514
 10
-89.9393546002
 20
-29.5606239532
 10
-89.9161605076
 20
-29.5617770631
 10
-89.8915551325
 20
-29.5624638309
 10
-89.8657571954
 20
-29.5626781517
 10
-89.8389960177
 20
-29.5624181206
 10
-89.8115094832
 20
-29.5616860489
 10
-89.7835419235
 20
-29.5604884441
  0
LINE
  5
3E3
100
AcDbEntity
  8
RACCORDO
100
AcDbLine
 62
253
  6
CONTINUOUS
 10
-91.8898830927
 20
-22.1434717594
 11
-91.8900708438
 21
-22.1432364679
  0
LWPOLYLINE
  5
3E4
100
AcDbEntity
  8
RACCORDO
100
AcDbPolyline
 62
253
  6
CONTINUOUS
 90
16
 70
0
 10
-89.3478642472
 20
42.837667008
 10
-89.3426116123
 20
42.8636591523
 10
-89.3350769439
 20
42.8890898343
 10
-89.3253193203
 20
42.9137596554
 10
-89.3134152497
 20
42.937475183
 10
-89.2994580703
 20
42.9600504666
 10
-89.2835572185
 20
42.9813084965
 10
-89.2658373708
 20
43.0010825913
 10
-89.2464374661
 20
43.019217705
 10
-89.2255096165
 20
43.0355716426
 10
-89.2032179145
 20
43.050016175
 10
-89.1797371463
 20
43.0624380447
 10
-89.1552514214
 20
43.0727398533
 10
-89.1299527293
 20
43.0808408258
 10
-89.1040394335
 20
43.0866774435
 10
-89.0777147168
 20
43.0902039422
  0
LWPOLYLINE
  5
3E5
100
AcDbEntity
  8
RACCORDO
100
AcDbPolyline
 62
253
  6
CONTINUOUS
 90
16
 70
0
 10
-89.2148649734
 20
42.3856857544
 10
-89.2096271856
 20
42.4115878344
 10
-89.2021043539
 20
42.4369342404
 10
-89.1923555282
 20
42.4615260185
 10
-89.1804572307
 20
42.4851701382
 10
-89.1665028559
 20
42.5076810075
 10
-89.150601937
 20
42.5288819297
 10
-89.1328792867
 20
42.5486064906
 10
-89.113474017
 20
42.5666998642
 10
-89.0925384475
 20
42.5830200287
 10
-89.0702369097
 20
42.5974388806
 10
-89.046744457
 20
42.6098432407
 10
-89.022245491
 20
42.6201357424
 10
-88.9969323136
 20
42.6282355957
 10
-88.9710036179
 20
42.6340792217
 10
-88.9446629285
 20
42.6376207515
  0
LWPOLYLINE
  5
3E6
100
AcDbEntity
  8
RACCORDO
100
AcDbPolyline
 62
253
  6
CONTINUOUS
 90
6
 70
0
 10
-85.2242914423
 20
-3.7585868869
 10
-85.2250564108
 20
-3.7587951358
 10
-85.2273454339
 20
-3.7590017918
 10
-85.2311410037
 20
-3.759205274
 10
-85.2364140871
 20
-3.7594040259
 10
-85.2431243496
 20
-3.759596527
  0
LINE
  5
3E7
100
AcDbEntity
  8
RACCORDO
100
AcDbLine
 62
253
  6
CONTINUOUS
 10
-85.2431243496
 20
-3.759596527
 11
-85.2606405091
 21
-3.7599569464
  0
LINE
  5
3E8
100
AcDbEntity
  8
RACCORDO
100
AcDbLine
 62
253
  6
CONTINUOUS
 10
-85.2606405091
 20
-3.7599569464
 11
-85.2831545581
 21
-3.7602755248
  0
LINE
  5
3E9
100
AcDbEntity
  8
RACCORDO
100
AcDbLine
 62
253
  6
CONTINUOUS
 10
-85.2831545581
 20
-3.7602755248
 11
-85.3247558764
 21
-3.76065408
  0
LINE
  5
3EA
100
AcDbEntity
  8
RACCORDO
100
AcDbLine
 62
253
  6
CONTINUOUS
 10
-85.3247558764
 20
-3.76065408
 11
-85.3731746928
 21
-3.76089104
  0
LINE
  5
3EB
100
AcDbEntity
  8
RACCORDO
100
AcDbLine
 62
253
  6
CONTINUOUS
 10
-83.2353410777
 20
-4.4469504624
 11
-83.2432766228
 21
-4.4467020524
  0
LINE
  5
3EC
100
AcDbEntity
  8
RACCORDO
100
AcDbLine
 62
253
  6
CONTINUOUS
 10
-83.2432766228
 20
-4.4467020524
 11
-83.253559747
 21
-4.4463131542
  0
LINE
  5
3ED
100
AcDbEntity
  8
RACCORDO
100
AcDbLine
 62
253
  6
CONTINUOUS
 10
-83.253559747
 20
-4.4463131542
 11
-83.2733562705
 21
-4.4454626961
  0
LINE
  5
3EE
100
AcDbEntity
  8
RACCORDO
100
AcDbLine
 62
253
  6
CONTINUOUS
 10
-83.2733562705
 20
-4.4454626961
 11
-83.3171778996
 21
-4.4433556655
  0
LINE
  5
3EF
100
AcDbEntity
  8
RACCORDO
100
AcDbLine
 62
253
  6
CONTINUOUS
 10
-83.3171778996
 20
-4.4433556655
 11
-83.4096470297
 21
-4.4384533449
  0
LWPOLYLINE
  5
3F0
100
AcDbEntity
  8
RACCORDO
100
AcDbPolyline
 62
7
  6
CONTINUOUS
 90
17
 70
0
 10
-89.8925310799
 20
-44.9977385051
 10
-89.8875886627
 20
-45.0219966246
 10
-89.8801562947
 20
-45.0472563129
 10
-89.8705376917
 20
-45.0717670182
 10
-89.8588069469
 20
-45.0953399282
 10
-89.8450544242
 20
-45.1177934542
 10
-89.8293860624
 20
-45.1389546293
 10
-89.8119225586
 20
-45.1586604427
 10
-89.7927984377
 20
-45.1767590951
 10
-89.7721610169
 20
-45.1931111677
 10
-89.750169271
 20
-45.2075906953
 10
-89.7269926076
 20
-45.2200861376
 10
-89.7028095622
 20
-45.230501238
 10
-89.6778064228
 20
-45.2387557654
 10
-89.6521757949
 20
-45.2447861319
 10
-89.6261151181
 20
-45.248545883
 10
-89.6224962115
 20
-45.2488845991
  0
LWPOLYLINE
  5
3F1
100
AcDbEntity
  8
RACCORDO
100
AcDbPolyline
 62
253
  6
CONTINUOUS
 90
16
 70
0
 10
-89.2148649743
 20
-43.2384993806
 10
-89.2096271731
 20
-43.264401447
 10
-89.20210433
 20
-43.2897478385
 10
-89.1923554946
 20
-43.3143396014
 10
-89.1804571894
 20
-43.3379837057
 10
-89.1665028087
 20
-43.3604945594
 10
-89.150601886
 20
-43.3816954663
 10
-89.1328792336
 20
-43.4014200122
 10
-89.1134739636
 20
-43.4195133715
 10
-89.0925383954
 20
-43.4358335226
 10
-89.0702368604
 20
-43.4502523622
 10
-89.0467444121
 20
-43.4626567112
 10
-89.0222454516
 20
-43.4729492033
 10
-88.996932281
 20
-43.4810490485
 10
-88.9710035929
 20
-43.4868926682
 10
-88.9446629119
 20
-43.4904341935
  0
LWPOLYLINE
  5
3F2
100
AcDbEntity
  8
RACCORDO
100
AcDbPolyline
 62
253
  6
CONTINUOUS
 90
16
 70
0
 10
-89.3478642474
 20
-43.6904806341
 10
-89.3426116124
 20
-43.7164727783
 10
-89.3350769439
 20
-43.7419034602
 10
-89.3253193201
 20
-43.7665732813
 10
-89.3134152494
 20
-43.7902888087
 10
-89.29945807
 20
-43.8128640922
 10
-89.2835572182
 20
-43.834122122
 10
-89.2658373704
 20
-43.8538962167
 10
-89.2464374657
 20
-43.8720313303
 10
-89.2255096161
 20
-43.8883852678
 10
-89.2032179141
 20
-43.9028298001
 10
-89.1797371459
 20
-43.9152516696
 10
-89.1552514211
 20
-43.9255534781
 10
-89.129952729
 20
-43.9336544505
 10
-89.1040394333
 20
-43.9394910682
 10
-89.0777147166
 20
-43.9430175669
  0
LWPOLYLINE
  5
3F3
100
AcDbEntity
  8
0
100
AcDbPolyline
 62
7
  6
CONTINUOUS
 90
9
 70
0
 10
-91.9223044573
 20
-26.5354926849
 10
-91.9231328833
 20
-26.526163484
 10
-91.92385841
 20
-26.5184804029
 10
-91.9244860028
 20
-26.5123548266
 10
-91.9250110327
 20
-26.5078753918
 10
-91.92545754
 20
-26.5046333922
 10
-91.9258296541
 20
-26.5025610364
 10
-91.9261233715
 20
-26.5017261221
 10
-91.9261957322
 20
-26.5016861478
  0
LINE
  5
3F4
100
AcDbEntity
  8
0
100
AcDbLine
 62
7
  6
CONTINUOUS
 10
-91.920210329
 20
-26.5613379951
 11
-91.9223044573
 21
-26.5354926849
  0
LINE
  5
3F5
100
AcDbEntity
  8
0
100
AcDbLine
 62
7
  6
CONTINUOUS
 10
-92.0224861713
 20
-26.5355095949
 11
-92.0203941308
 21
-26.5613425705
  0
LINE
  5
3F6
100
AcDbEntity
  8
0
100
AcDbLine
 62
7
  6
CONTINUOUS
 10
-91.9175348112
 20
-26.5966906865
 11
-91.920210329
 21
-26.5613379951
  0
LINE
  5
3F7
100
AcDbEntity
  8
0
100
AcDbLine
 62
7
  6
CONTINUOUS
 10
-92.0203941308
 20
-26.5613425705
 11
-92.0177201198
 21
-26.5966906865
  0
LINE
  5
3F8
100
AcDbEntity
  8
0
100
AcDbLine
 62
7
  6
CONTINUOUS
 10
-91.9250755312
 20
-28.0273312499
 11
-91.9203156626
 21
-28.0898499965
  0
LINE
  5
3F9
100
AcDbEntity
  8
0
100
AcDbLine
 62
7
  6
CONTINUOUS
 10
-91.8186005669
 20
-28.1098654361
 11
-91.8248405935
 21
-28.0273312499
  0
LINE
  5
3FA
100
AcDbEntity
  8
0
100
AcDbLine
 62
7
  6
CONTINUOUS
 10
-91.7281438501
 20
-29.3342081674
 11
-91.7894086438
 21
-28.5131807321
  0
LINE
  5
3FB
100
AcDbEntity
  8
0
100
AcDbLine
 62
7
  6
CONTINUOUS
 10
-91.8941415538
 20
-28.4512076386
 11
-91.8284295762
 21
-29.3342081674
  0
LINE
  5
3FC
100
AcDbEntity
  8
0
100
AcDbLine
 62
7
  6
CONTINUOUS
 10
-91.9203156626
 20
-28.0898499965
 11
-91.8941415538
 21
-28.4512076386
  0
LINE
  5
3FD
100
AcDbEntity
  8
0
100
AcDbLine
 62
7
  6
CONTINUOUS
 10
-91.7894086438
 20
-28.5131807321
 11
-91.8186005669
 21
-28.1098654361
  0
LINE
  5
3FE
100
AcDbEntity
  8
0
100
AcDbLine
 62
7
  6
CONTINUOUS
 10
-91.8972939054
 20
-28.4820764331
 11
-91.8349572639
 21
-29.3342081674
  0
LINE
  5
3FF
100
AcDbEntity
  8
0
100
AcDbLine
 62
7
  6
CONTINUOUS
 10
-91.9496838574
 20
-27.7791720722
 11
-91.9178397349
 21
-28.2388883458
  0
LINE
  5
400
100
AcDbEntity
  8
0
100
AcDbLine
 62
7
  6
CONTINUOUS
 10
-91.9262065644
 20
-28.0107874411
 11
-91.9250755312
 21
-28.0273312499
  0
LINE
  5
401
100
AcDbEntity
  8
0
100
AcDbLine
 62
7
  6
CONTINUOUS
 10
-91.8248405935
 20
-28.0273312499
 11
-91.8259722343
 21
-28.0107874411
  0
LINE
  5
402
100
AcDbEntity
  8
0
100
AcDbLine
 62
7
  6
CONTINUOUS
 10
-92.0177201198
 20
-26.5966906865
 11
-92.0127773557
 21
-26.6676472268
  0
LINE
  5
403
100
AcDbEntity
  8
0
100
AcDbLine
 62
7
  6
CONTINUOUS
 10
-91.9123540845
 20
-26.6711181791
 11
-91.9175348112
 21
-26.5966906865
  0
LINE
  5
404
100
AcDbEntity
  8
0
100
AcDbLine
 62
7
  6
CONTINUOUS
 10
-91.9256786747
 20
-28.1047790402
 11
-91.9477182512
 21
-27.7802499175
  0
LINE
  5
405
100
AcDbEntity
  8
0
100
AcDbLine
 62
7
  6
CONTINUOUS
 10
-92.0127773557
 20
-26.6676472268
 11
-91.9383034337
 21
-27.8157517749
  0
LINE
  5
406
100
AcDbEntity
  8
0
100
AcDbLine
 62
7
  6
CONTINUOUS
 10
-91.9957522187
 20
-27.011461609
 11
-91.9457857426
 21
-27.7800348996
  0
LINE
  5
407
100
AcDbEntity
  8
0
100
AcDbLine
 62
7
  6
CONTINUOUS
 10
-92.0278835108
 20
-26.5673836912
 11
-92.0011317398
 21
-26.9953711434
  0
LINE
  5
408
100
AcDbEntity
  8
0
100
AcDbLine
 62
7
  6
CONTINUOUS
 10
-91.9993014522
 20
-26.9852574245
 11
-92.025145114
 21
-26.5672141541
  0
LINE
  5
409
100
AcDbEntity
  8
0
100
AcDbLine
 62
7
  6
CONTINUOUS
 10
-91.9383034337
 20
-27.8157517749
 11
-91.9269290792
 21
-27.9975668459
  0
LINE
  5
40A
100
AcDbEntity
  8
SUPERFICI
100
AcDbLine
 62
7
  6
CONTINUOUS
 10
-91.934551647
 20
-26.4967034208
 11
-91.9342273162
 21
-26.50208878
  0
LWPOLYLINE
  5
40B
100
AcDbEntity
  8
0
100
AcDbPolyline
 62
7
  6
CONTINUOUS
 90
3
 70
0
 10
-91.9269290792
 20
-27.9975668459
 10
-91.9263683591
 20
-28.0075088237
 10
-91.9262065644
 20
-28.0107874411
  0
LWPOLYLINE
  5
40C
100
AcDbEntity
  8
0
100
AcDbPolyline
 62
7
  6
CONTINUOUS
 90
4
 70
0
 10
-91.8259722343
 20
-28.0107874411
 10
-91.8261596757
 20
-28.0070621577
 10
-91.8264349177
 20
-28.0020839098
 10
-91.9123540845
 20
-26.6711181791
  0
LINE
  5
40D
100
AcDbEntity
  8
COPY_PUBLISH
100
AcDbLine
 62
7
  6
CONTINUOUS
 10
-92.0719975883
 20
-23.9185138444
 11
-92.070385222
 21
-23.9527612477
  0
LINE
  5
40E
100
AcDbEntity
  8
RACCORDO
100
AcDbLine
 62
7
  6
CONTINUOUS
 10
-91.98681452
 20
-19.7884383188
 11
-91.8813426928
 21
-22.3521140693
  0
LINE
  5
40F
100
AcDbEntity
  8
RACCORDO
100
AcDbLine
 62
253
  6
CONTINUOUS
 10
-91.8819617046
 20
-22.3323421651
 11
-91.8813426928
 21
-22.3521140693
  0
LINE
  5
410
100
AcDbEntity
  8
0
100
AcDbLine
 62
7
  6
CONTINUOUS
 10
-91.9961004639
 20
-27.0027800778
 11
-91.9957522187
 21
-27.011461609
  0
LINE
  5
411
100
AcDbEntity
  8
RACCORDO
100
AcDbLine
 62
253
  6
CONTINUOUS
 10
-91.98681452
 20
-19.7884383188
 11
-91.9846759493
 21
-19.8389871563
  0
LINE
  5
412
100
AcDbEntity
  8
RACCORDO
100
AcDbLine
 62
7
  6
CONTINUOUS
 10
-91.8813426928
 20
-22.3521140693
 11
-91.8693855228
 21
-22.6650685058
  0
LINE
  5
413
100
AcDbEntity
  8
RACCORDO
100
AcDbLine
 62
253
  6
CONTINUOUS
 10
-92.0749807396
 20
-17.3591059499
 11
-92.070703415
 21
-17.4797311351
  0
LINE
  5
414
100
AcDbEntity
  8
RACCORDO
100
AcDbLine
 62
7
  6
CONTINUOUS
 10
-91.8693855228
 20
-22.6650685058
 11
-91.8611051641
 21
-22.9108770375
  0
LINE
  5
415
100
AcDbEntity
  8
RACCORDO
100
AcDbLine
 62
7
  6
CONTINUOUS
 10
-91.8611051641
 20
-22.9108770375
 11
-91.8557150465
 21
-23.0962441057
  0
LINE
  5
416
100
AcDbEntity
  8
RACCORDO
100
AcDbLine
 62
253
  6
CONTINUOUS
 10
-92.1513435517
 20
-14.9293720663
 11
-92.1472112748
 21
-15.0651136454
  0
LINE
  5
417
100
AcDbEntity
  8
RACCORDO
100
AcDbLine
 62
253
  6
CONTINUOUS
 10
-91.8529121463
 20
-23.2103340997
 11
-91.852224778
 21
-23.2249352402
  0
LINE
  5
418
100
AcDbEntity
  8
RACCORDO
100
AcDbLine
 62
7
  6
CONTINUOUS
 10
-91.8557150465
 20
-23.0962441057
 11
-91.8529121463
 21
-23.2103340997
  0
LINE
  5
419
100
AcDbEntity
  8
RACCORDO
100
AcDbLine
 62
253
  6
CONTINUOUS
 10
-92.2698908008
 20
-9.9951767765
 11
-92.2686513225
 21
-10.0689468797
  0
LINE
  5
41A
100
AcDbEntity
  8
RACCORDO
100
AcDbLine
 62
253
  6
CONTINUOUS
 10
-92.2159008415
 20
-12.4993006175
 11
-92.2143086963
 21
-12.5577952485
  0
LINE
  5
41B
100
AcDbEntity
  8
RACCORDO
100
AcDbLine
 62
253
  6
CONTINUOUS
 10
-92.311540541
 20
-7.4894411862
 11
-92.3095938874
 21
-7.6383620589
  0
LINE
  5
41C
100
AcDbEntity
  8
RACCORDO
100
AcDbLine
 62
253
  6
CONTINUOUS
 10
-92.3397700653
 20
-5.07804583
 11
-92.3387274275
 21
-5.2076014187
  0
LINE
  5
41D
100
AcDbEntity
  8
RACCORDO
100
AcDbLine
 62
253
  6
CONTINUOUS
 10
-92.3561188138
 20
-2.7236817445
 11
-92.3560512825
 21
-2.7767290691
  0
LINE
  5
41E
100
AcDbEntity
  8
RACCORDO
100
AcDbLine
 62
253
  6
CONTINUOUS
 10
-92.3560227685
 20
1.9299772619
 11
-92.3561220773
 21
1.8701520356
  0
LINE
  5
41F
100
AcDbEntity
  8
RACCORDO
100
AcDbLine
 62
253
  6
CONTINUOUS
 10
-92.3386752571
 20
4.3602440907
 11
-92.3397704012
 21
4.2251940028
  0
LINE
  5
420
100
AcDbEntity
  8
RACCORDO
100
AcDbLine
 62
253
  6
CONTINUOUS
 10
-92.3095239478
 20
6.7903986678
 11
-92.3115118299
 21
6.6386610224
  0
LINE
  5
421
100
AcDbEntity
  8
RACCORDO
100
AcDbLine
 62
253
  6
CONTINUOUS
 10
-92.2139788358
 20
11.7185768563
 11
-92.215813038
 21
11.6501243468
  0
LINE
  5
422
100
AcDbEntity
  8
RACCORDO
100
AcDbLine
 62
253
  6
CONTINUOUS
 10
-92.268569503
 20
9.2203771652
 11
-92.2697546329
 21
9.1494813093
  0
LINE
  5
423
100
AcDbEntity
  8
RACCORDO
100
AcDbLine
 62
253
  6
CONTINUOUS
 10
-91.8522241279
 20
22.3721511917
 11
-91.8533530732
 21
22.338146927
  0
LINE
  5
424
100
AcDbEntity
  8
RACCORDO
100
AcDbLine
 62
253
  6
CONTINUOUS
 10
-91.8538474102
 20
22.3171875503
 11
-91.8536472818
 21
22.3119636439
  0
LINE
  5
425
100
AcDbEntity
  8
RACCORDO
100
AcDbLine
 62
253
  6
CONTINUOUS
 10
-92.1467249637
 20
14.2289060376
 11
-92.1512556658
 21
14.0795890012
  0
LINE
  5
426
100
AcDbEntity
  8
RACCORDO
100
AcDbLine
 62
7
  6
CONTINUOUS
 10
-91.8533530732
 20
22.338146927
 11
-91.8567797833
 21
22.2040804073
  0
LINE
  5
427
100
AcDbEntity
  8
RACCORDO
100
AcDbLine
 62
253
  6
CONTINUOUS
 10
-91.8561751463
 20
22.2158195451
 11
-91.8567797833
 21
22.2040804073
  0
LINE
  5
428
100
AcDbEntity
  8
RACCORDO
100
AcDbLine
 62
253
  6
CONTINUOUS
 10
-92.0702075675
 20
16.6414502742
 11
-92.0748986767
 21
16.5087158305
  0
LINE
  5
429
100
AcDbEntity
  8
RACCORDO
100
AcDbLine
 62
7
  6
CONTINUOUS
 10
-91.8567797833
 20
22.2040804073
 11
-91.8630977231
 21
21.9954820377
  0
LINE
  5
42A
100
AcDbEntity
  8
RACCORDO
100
AcDbLine
 62
253
  6
CONTINUOUS
 10
-91.8625614988
 20
22.0050282043
 11
-91.8630977231
 21
21.9954820377
  0
LWPOLYLINE
  5
42B
100
AcDbEntity
  8
RACCORDO
100
AcDbPolyline
 62
7
  6
CONTINUOUS
 90
9
 70
0
 10
-91.986744192
 20
18.9374407936
 10
-92.0748986767
 20
16.5087158305
 10
-92.1512556658
 20
14.0795890012
 10
-92.215813038
 20
11.6501243468
 10
-92.268569503
 20
9.2203771652
 10
-92.3095239478
 20
6.7903986678
 10
-92.3386752571
 20
4.3602440907
 10
-92.3560227685
 20
1.9299772619
 10
-92.3615714535
 20
-0.4264068131
  0
LINE
  5
42C
100
AcDbEntity
  8
RACCORDO
100
AcDbLine
 62
253
  6
CONTINUOUS
 10
-91.9843265072
 20
18.9951701851
 11
-91.986744192
 21
18.9374407936
  0
LINE
  5
42D
100
AcDbEntity
  8
RACCORDO
100
AcDbLine
 62
7
  6
CONTINUOUS
 10
-91.8630977231
 20
21.9954820377
 11
-91.8726386301
 21
21.7232912191
  0
LINE
  5
42E
100
AcDbEntity
  8
RACCORDO
100
AcDbLine
 62
253
  6
CONTINUOUS
 10
-91.872004812
 20
21.7350477839
 11
-91.8726386301
 21
21.7232912191
  0
LINE
  5
42F
100
AcDbEntity
  8
RACCORDO
100
AcDbLine
 62
7
  6
CONTINUOUS
 10
-91.8726386301
 20
21.7232912191
 11
-91.986744192
 21
18.9374407936
  0
LINE
  5
430
100
AcDbEntity
  8
RACCORDO
100
AcDbLine
 62
253
  6
CONTINUOUS
 10
-91.8857910491
 20
21.3869287725
 11
-91.8899093777
 21
21.290043636
  0
LINE
  5
431
100
AcDbEntity
  8
COPY_PUBLISH
100
AcDbLine
 62
7
  6
CONTINUOUS
 10
-92.070385222
 20
23.09994762
 11
-92.0719975883
 21
23.0657002168
  0
LWPOLYLINE
  5
432
100
AcDbEntity
  8
RACCORDO
100
AcDbPolyline
 62
253
  6
CONTINUOUS
 90
16
 70
0
 10
-85.0590218524
 20
3.1027350811
 10
-85.0536652204
 20
3.1047422574
 10
-85.0487280821
 20
3.1087896014
 10
-85.0442621048
 20
3.114834763
 10
-85.0403140256
 20
3.1228144846
 10
-85.0369251616
 20
3.1326452643
 10
-85.0341309775
 20
3.144224231
 10
-85.0319607153
 20
3.1574302221
 10
-85.0304370896
 20
3.1721250386
 10
-85.0295760475
 20
3.1881548892
 10
-85.0293865999
 20
3.205352021
 10
-85.0298707294
 20
3.2235364687
 10
-85.0310233688
 20
3.2425179218
 10
-85.0328324545
 20
3.2620977357
 10
-85.0352790536
 20
3.2820710119
 10
-85.0383375619
 20
3.3022287313
  0
LINE
  5
433
100
AcDbEntity
  8
RACCORDO
100
AcDbLine
 62
253
  6
CONTINUOUS
 10
-85.2242921692
 20
-0.4264068131
 11
-88.6180727948
 21
-0.4264068131
  0
LINE
  5
434
100
AcDbEntity
  8
RACCORDO
100
AcDbLine
 62
253
  6
CONTINUOUS
 10
-92.3613935461
 20
-0.4264068131
 11
-92.3615714537
 21
-0.4264068131
  0
LINE
  5
435
100
AcDbEntity
  8
RACCORDO
100
AcDbLine
 62
253
  6
CONTINUOUS
 10
-83.4096470644
 20
-4.4384531367
 11
-85.038330864
 21
-4.1550444527
  0
LINE
  5
436
100
AcDbEntity
  8
RACCORDO
100
AcDbLine
 62
7
  6
CONTINUOUS
 10
-83.3895625337
 20
-4.2499191501
 11
-85.0590218048
 21
-3.9555484374
  0
LINE
  5
437
100
AcDbEntity
  8
DRAFT
100
AcDbLine
 62
7
  6
CONTINUOUS
 10
-87.5751042443
 20
-32.9616775328
 11
-87.1564347205
 21
-38.4173278834
  0
LINE
  5
438
100
AcDbEntity
  8
DRAFT
100
AcDbLine
 62
7
  6
CONTINUOUS
 10
-87.1564347205
 20
-38.4173278834
 11
-87.0595966335
 21
-39.7099681273
  0
LINE
  5
439
100
AcDbEntity
  8
RACCORDO
100
AcDbLine
 62
253
  6
CONTINUOUS
 10
-89.7235457483
 20
-34.2135372419
 11
-89.8450106454
 21
-32.5565421247
  0
LINE
  5
43A
100
AcDbEntity
  8
RACCORDO
100
AcDbLine
 62
253
  6
CONTINUOUS
 10
-89.3600794138
 20
-39.0932969931
 11
-89.7235457483
 21
-34.2135372419
  0
LINE
  5
43B
100
AcDbEntity
  8
RACCORDO
100
AcDbLine
 62
253
  6
CONTINUOUS
 10
-89.4516909064
 20
-34.3187207786
 11
-89.5729056568
 21
-32.6345489972
  0
LINE
  5
43C
100
AcDbEntity
  8
DRAFT
100
AcDbLine
 62
7
  6
CONTINUOUS
 10
-87.7506769319
 20
-30.5308657754
 11
-87.5751042443
 21
-32.9616775328
  0
LINE
  5
43D
100
AcDbEntity
  8
RACCORDO
100
AcDbLine
 62
253
  6
CONTINUOUS
 10
-89.8450106454
 20
-32.5565421247
 11
-89.9500899675
 21
-31.0782357728
  0
LINE
  5
43E
100
AcDbEntity
  8
RACCORDO
100
AcDbLine
 62
253
  6
CONTINUOUS
 10
-89.0890717659
 20
-39.2779740167
 11
-89.4516909064
 21
-34.3187207786
  0
LINE
  5
43F
100
AcDbEntity
  8
RACCORDO
100
AcDbLine
 62
253
  6
CONTINUOUS
 10
-87.5751802737
 20
-30.3140601983
 11
-86.8892710331
 21
-39.5254929173
  0
LINE
  5
440
100
AcDbEntity
  8
RACCORDO
100
AcDbLine
 62
253
  6
CONTINUOUS
 10
-89.5729056568
 20
-32.6345489972
 11
-89.6777838747
 21
-31.131982403
  0
LINE
  5
441
100
AcDbEntity
  8
DRAFT
100
AcDbLine
 62
7
  6
CONTINUOUS
 10
-87.0595966335
 20
-39.7099681273
 11
-87.0047224984
 21
-40.4861994697
  0
LINE
  5
442
100
AcDbEntity
  8
RACCORDO
100
AcDbLine
 62
253
  6
CONTINUOUS
 10
-87.4909323136
 20
-29.7657917848
 11
-86.8071744465
 21
-38.9977973277
  0
LINE
  5
443
100
AcDbEntity
  8
RACCORDO
100
AcDbLine
 62
253
  6
CONTINUOUS
 10
-86.8071744465
 20
-38.9977973277
 11
-86.745486606
 21
-39.8689721378
  0
LINE
  5
444
100
AcDbEntity
  8
RACCORDO
100
AcDbLine
 62
253
  6
CONTINUOUS
 10
-89.9500899675
 20
-31.0782357728
 11
-90.0560367216
 21
-29.5322154023
  0
LINE
  5
445
100
AcDbEntity
  8
DRAFT
100
AcDbLine
 62
7
  6
CONTINUOUS
 10
-87.8456545681
 20
-29.1468796073
 11
-87.7506769319
 21
-30.5308657754
  0
LINE
  5
446
100
AcDbEntity
  8
RACCORDO
100
AcDbLine
 62
253
  6
CONTINUOUS
 10
-87.6591869691
 20
-29.081582442
 11
-87.5751802737
 21
-30.3140601983
  0
LINE
  5
447
100
AcDbEntity
  8
RACCORDO
100
AcDbLine
 62
253
  6
CONTINUOUS
 10
-86.8892710331
 20
-39.5254929173
 11
-86.8385066813
 21
-40.2596480763
  0
LINE
  5
448
100
AcDbEntity
  8
RACCORDO
100
AcDbLine
 62
253
  6
CONTINUOUS
 10
-89.6777838747
 20
-31.131982403
 11
-89.7610035226
 21
-29.9008118746
  0
LINE
  5
449
100
AcDbEntity
  8
RACCORDO
100
AcDbLine
 62
253
  6
CONTINUOUS
 10
-89.2983368359
 20
-39.9877630921
 11
-89.3600794138
 21
-39.0932969931
  0
LINE
  5
44A
100
AcDbEntity
  8
0
100
AcDbLine
 62
7
  6
CONTINUOUS
 10
-86.5995132874
 20
-37.8577032984
 11
-86.5334153923
 21
-38.8263480493
  0
LINE
  5
44B
100
AcDbEntity
  8
RACCORDO
100
AcDbLine
 62
253
  6
CONTINUOUS
 10
-89.0275014067
 20
-40.1870714825
 11
-89.0890717659
 21
-39.2779740167
  0
LINE
  5
44C
100
AcDbEntity
  8
RACCORDO
100
AcDbLine
 62
253
  6
CONTINUOUS
 10
-87.5672284423
 20
-28.6184170198
 11
-87.4909323136
 21
-29.7657917848
  0
LINE
  5
44D
100
AcDbEntity
  8
DRAFT
100
AcDbLine
 62
7
  6
CONTINUOUS
 10
-87.0047224984
 20
-40.4861994697
 11
-86.9704655612
 21
-41.0018128282
  0
LINE
  5
44E
100
AcDbEntity
  8
RACCORDO
100
AcDbLine
 62
253
  6
CONTINUOUS
 10
-90.0560367216
 20
-29.5322154023
 11
-90.1134534635
 21
-28.651235936
  0
LINE
  5
44F
100
AcDbEntity
  8
RACCORDO
100
AcDbLine
 62
253
  6
CONTINUOUS
 10
-89.7610035226
 20
-29.9008118746
 11
-89.8408551107
 21
-28.6765524735
  0
LINE
  5
450
100
AcDbEntity
  8
RACCORDO
100
AcDbLine
 62
253
  6
CONTINUOUS
 10
-86.745486606
 20
-39.8689721378
 11
-86.7027967966
 21
-40.514077216
  0
LINE
  5
451
100
AcDbEntity
  8
DRAFT
100
AcDbLine
 62
7
  6
CONTINUOUS
 10
-87.9026750147
 20
-28.2596129506
 11
-87.8456545681
 21
-29.1468796073
  0
LINE
  5
452
100
AcDbEntity
  8
RACCORDO
100
AcDbLine
 62
253
  6
CONTINUOUS
 10
-87.7156586442
 20
-28.1998166979
 11
-87.6591869691
 21
-29.081582442
  0
LINE
  5
453
100
AcDbEntity
  8
0
100
AcDbLine
 62
7
  6
CONTINUOUS
 10
-86.5334153923
 20
-38.8263480493
 11
-86.5020626116
 21
-39.3138302231
  0
LINE
  5
454
100
AcDbEntity
  8
RACCORDO
100
AcDbLine
 62
253
  6
CONTINUOUS
 10
-89.261643118
 20
-40.5577769944
 11
-89.2983368359
 21
-39.9877630921
  0
LINE
  5
455
100
AcDbEntity
  8
RACCORDO
100
AcDbLine
 62
253
  6
CONTINUOUS
 10
-86.8385066813
 20
-40.2596480763
 11
-86.8037539394
 21
-40.7980220357
  0
LWPOLYLINE
  5
456
100
AcDbEntity
  8
0
100
AcDbPolyline
 62
7
  6
CONTINUOUS
 90
3
 70
0
 10
-87.2848639658
 20
-28.0444284793
 10
-87.2581890251
 20
-28.4742411289
 10
-86.5995132874
 20
-37.8577032984
  0
LINE
  5
457
100
AcDbEntity
  8
RACCORDO
100
AcDbLine
 62
253
  6
CONTINUOUS
 10
-87.6218180717
 20
-27.7377670394
 11
-87.5672284423
 21
-28.6184170198
  0
LINE
  5
458
100
AcDbEntity
  8
RACCORDO
100
AcDbLine
 62
253
  6
CONTINUOUS
 10
-88.9879689209
 20
-40.8147302655
 11
-89.0275014067
 21
-40.1870714825
  0
LINE
  5
459
100
AcDbEntity
  8
DRAFT
100
AcDbLine
 62
7
  6
CONTINUOUS
 10
-86.9704655612
 20
-41.0018128282
 11
-86.9483583659
 21
-41.3573054601
  0
LINE
  5
45A
100
AcDbEntity
  8
RACCORDO
100
AcDbLine
 62
253
  6
CONTINUOUS
 10
-90.1134534635
 20
-28.651235936
 11
-90.1674989052
 21
-27.7687579988
  0
LINE
  5
45B
100
AcDbEntity
  8
RACCORDO
100
AcDbLine
 62
253
  6
CONTINUOUS
 10
-89.8408551107
 20
-28.6765524735
 11
-89.8948059016
 21
-27.7910803993
  0
LINE
  5
45C
100
AcDbEntity
  8
RACCORDO
100
AcDbLine
 62
253
  6
CONTINUOUS
 10
-86.7027967966
 20
-40.514077216
 11
-86.6785482858
 21
-40.9088995291
  0
LINE
  5
45D
100
AcDbEntity
  8
DRAFT
100
AcDbLine
 62
7
  6
CONTINUOUS
 10
-87.9562256437
 20
-27.3708792053
 11
-87.9026750147
 21
-28.2596129506
  0
LINE
  5
45E
100
AcDbEntity
  8
RACCORDO
100
AcDbLine
 62
253
  6
CONTINUOUS
 10
-87.7687038083
 20
-27.316528725
 11
-87.7156586442
 21
-28.1998166979
  0
LINE
  5
45F
100
AcDbEntity
  8
RACCORDO
100
AcDbLine
 62
7
  6
CONTINUOUS
 10
-91.8501837879
 20
22.687709306
 11
-91.8502328255
 21
22.6885449669
  0
LINE
  5
460
100
AcDbEntity
  8
RACCORDO
100
AcDbLine
 62
253
  6
CONTINUOUS
 10
-89.2386142907
 20
-40.9419507924
 11
-89.261643118
 21
-40.5577769944
  0
LINE
  5
461
100
AcDbEntity
  8
RACCORDO
100
AcDbLine
 62
253
  6
CONTINUOUS
 10
-86.8037539394
 20
-40.7980220357
 11
-86.7830339924
 21
-41.1448211022
  0
LINE
  5
462
100
AcDbEntity
  8
RACCORDO
100
AcDbLine
 62
253
  6
CONTINUOUS
 10
-87.6729802281
 20
-26.8557225703
 11
-87.6218180717
 21
-27.7377670394
  0
LINE
  5
463
100
AcDbEntity
  8
RACCORDO
100
AcDbLine
 62
253
  6
CONTINUOUS
 10
-90.1674989052
 20
-27.7687579988
 11
-90.2181545076
 21
-26.8848827275
  0
LINE
  5
464
100
AcDbEntity
  8
RACCORDO
100
AcDbLine
 62
253
  6
CONTINUOUS
 10
-86.6785482858
 20
-40.9088995291
 11
-86.6662765083
 21
-41.1226040965
  0
LINE
  5
465
100
AcDbEntity
  8
RACCORDO
100
AcDbLine
 62
253
  6
CONTINUOUS
 10
-89.8948059016
 20
-27.7910803993
 11
-89.9453713533
 21
-26.9042302227
  0
LINE
  5
466
100
AcDbEntity
  8
RACCORDO
100
AcDbLine
 62
253
  6
CONTINUOUS
 10
-88.9657187021
 20
-41.1966269788
 11
-88.9879689209
 21
-40.8147302655
  0
LINE
  5
467
100
AcDbEntity
  8
DRAFT
100
AcDbLine
 62
7
  6
CONTINUOUS
 10
-86.9483583659
 20
-41.3573054601
 11
-86.9291751748
 21
-41.6915629833
  0
LINE
  5
468
100
AcDbEntity
  8
DRAFT
100
AcDbLine
 62
7
  6
CONTINUOUS
 10
-88.0062764143
 20
-26.4809707416
 11
-87.9562256437
 21
-27.3708792053
  0
LINE
  5
469
100
AcDbEntity
  8
RACCORDO
100
AcDbLine
 62
253
  6
CONTINUOUS
 10
-87.8182888432
 20
-26.432080591
 11
-87.7687038083
 21
-27.316528725
  0
LINE
  5
46A
100
AcDbEntity
  8
RACCORDO
100
AcDbLine
 62
253
  6
CONTINUOUS
 10
-86.7830339924
 20
-41.1448211022
 11
-86.7706978973
 21
-41.3670619606
  0
LINE
  5
46B
100
AcDbEntity
  8
RACCORDO
100
AcDbLine
 62
253
  6
CONTINUOUS
 10
-89.2227449639
 20
-41.228736032
 11
-89.2386142907
 21
-40.9419507924
  0
LINE
  5
46C
100
AcDbEntity
  8
RACCORDO
100
AcDbLine
 62
253
  6
CONTINUOUS
 10
-87.7206796129
 20
-25.9727100885
 11
-87.6729802281
 21
-26.8557225703
  0
LINE
  5
46D
100
AcDbEntity
  8
RACCORDO
100
AcDbLine
 62
253
  6
CONTINUOUS
 10
-90.2181545076
 20
-26.8848827275
 11
-90.2653891262
 21
-25.9999592975
  0
LINE
  5
46E
100
AcDbEntity
  8
RACCORDO
100
AcDbLine
 62
253
  6
CONTINUOUS
 10
-89.9453713533
 20
-26.9042302227
 11
-89.9925250494
 21
-26.016279634
  0
LINE
  5
46F
100
AcDbEntity
  8
RACCORDO
100
AcDbLine
 62
253
  6
CONTINUOUS
 10
-88.9498546653
 20
-41.4928542709
 11
-88.9657187021
 21
-41.1966269788
  0
LINE
  5
470
100
AcDbEntity
  8
DRAFT
100
AcDbLine
 62
7
  6
CONTINUOUS
 10
-88.0615081308
 20
-25.4152721678
 11
-88.0062764143
 21
-26.4809707416
  0
LINE
  5
471
100
AcDbEntity
  8
DRAFT
100
AcDbLine
 62
7
  6
CONTINUOUS
 10
-86.9291751748
 20
-41.6915629833
 11
-86.913111461
 21
-42.0021605294
  0
LINE
  5
472
100
AcDbEntity
  8
RACCORDO
100
AcDbLine
 62
253
  6
CONTINUOUS
 10
-87.8812422343
 20
-25.2040902415
 11
-87.8182888432
 21
-26.432080591
  0
LINE
  5
473
100
AcDbEntity
  8
RACCORDO
100
AcDbLine
 62
253
  6
CONTINUOUS
 10
-87.7600261341
 20
-25.1890061841
 11
-87.7206796129
 21
-25.9727100885
  0
LINE
  5
474
100
AcDbEntity
  8
RACCORDO
100
AcDbLine
 62
253
  6
CONTINUOUS
 10
-89.209039483
 20
-41.4999133687
 11
-89.2227449639
 21
-41.228736032
  0
LINE
  5
475
100
AcDbEntity
  8
RACCORDO
100
AcDbLine
 62
253
  6
CONTINUOUS
 10
-90.2653891262
 20
-25.9999592975
 11
-90.3107853581
 21
-25.0786995447
  0
LINE
  5
476
100
AcDbEntity
  8
RACCORDO
100
AcDbLine
 62
253
  6
CONTINUOUS
 10
-88.9363308784
 20
-41.7703674827
 11
-88.9498546653
 21
-41.4928542709
  0
LINE
  5
477
100
AcDbEntity
  8
RACCORDO
100
AcDbLine
 62
253
  6
CONTINUOUS
 10
-89.9925250494
 20
-26.016279634
 11
-90.0452530105
 21
-24.9342502509
  0
LINE
  5
478
100
AcDbEntity
  8
DRAFT
100
AcDbLine
 62
7
  6
CONTINUOUS
 10
-88.1025976466
 20
-24.5416441209
 11
-88.0615081308
 21
-25.4152721678
  0
LINE
  5
479
100
AcDbEntity
  8
RACCORDO
100
AcDbLine
 62
253
  6
CONTINUOUS
 10
-90.3107853581
 20
-25.0786995447
 11
-90.3466112181
 21
-24.2811948701
  0
LWPOLYLINE
  5
47A
100
AcDbEntity
  8
RACCORDO
100
AcDbPolyline
 62
7
  6
CONTINUOUS
 90
4
 70
0
 10
-91.8502337071
 20
22.6885632574
 10
-91.8501831514
 20
22.6873965086
 10
-91.8501025075
 20
22.6852320307
 10
-91.8500008749
 20
22.6820577836
  0
LWPOLYLINE
  5
47B
100
AcDbEntity
  8
RACCORDO
100
AcDbPolyline
 62
253
  6
CONTINUOUS
 90
3
 70
0
 10
-87.9280761681
 20
-24.1771318932
 10
-87.9206581216
 20
-24.348172424
 10
-87.8812422343
 20
-25.2040902415
  0
LINE
  5
47C
100
AcDbEntity
  8
RACCORDO
100
AcDbLine
 62
253
  6
CONTINUOUS
 10
-89.1982789449
 20
-41.7372214419
 11
-89.209039483
 21
-41.4999133687
  0
LINE
  5
47D
100
AcDbEntity
  8
RACCORDO
100
AcDbLine
 62
253
  6
CONTINUOUS
 10
-90.0452530105
 20
-24.9342502509
 11
-90.0803634784
 21
-24.1369183593
  0
LINE
  5
47E
100
AcDbEntity
  8
DRAFT
100
AcDbLine
 62
7
  6
CONTINUOUS
 10
-88.1253443252
 20
-24.0173868131
 11
-88.1025976466
 21
-24.5416441209
  0
LINE
  5
47F
100
AcDbEntity
  8
RACCORDO
100
AcDbLine
 62
253
  6
CONTINUOUS
 10
-88.9277871737
 20
-41.964742358
 11
-88.9363308784
 21
-41.7703674827
  0
LWPOLYLINE
  5
480
100
AcDbEntity
  8
RACCORDO
100
AcDbPolyline
 62
253
  6
CONTINUOUS
 90
18
 70
0
 10
-90.0803634784
 20
-24.1369183593
 10
-90.1684112817
 20
-21.9367441813
 10
-90.24917191
 20
-19.6987137212
 10
-90.3262594539
 20
-17.2869724131
 10
-90.3985946609
 20
-14.6553506155
 10
-90.4621756507
 20
-11.849928138
 10
-90.5123680397
 20
-9.0091925323
 10
-90.5483088796
 20
-6.1681649599
 10
-90.5701630994
 20
-3.2923366893
 10
-90.5774117807
 20
-0.4161393681
 10
-90.570057914
 20
2.460241848
 10
-90.5480957424
 20
5.3363372915
 10
-90.5120506602
 20
8.1772889915
 10
-90.4617552789
 20
11.0179258622
 10
-90.3980820945
 20
13.8229072074
 10
-90.3257164485
 20
16.4523617912
 10
-90.2486992841
 20
18.8597520822
 10
-90.1681146995
 20
21.0917134723
  0
LWPOLYLINE
  5
481
100
AcDbEntity
  8
RACCORDO
100
AcDbPolyline
 62
253
  6
CONTINUOUS
 90
18
 70
0
 10
-90.3466112181
 20
-24.2811948701
 10
-90.4410443493
 20
-21.9229812867
 10
-90.5219391618
 20
-19.6863660951
 10
-90.5994370662
 20
-17.2761521308
 10
-90.6720369731
 20
-14.6461357031
 10
-90.7355486466
 20
-11.8424591106
 10
-90.7856652087
 20
-9.0036813799
 10
-90.8216833596
 20
-6.1645000516
 10
-90.8435321241
 20
-3.2903872245
 10
-90.8507506954
 20
-0.4161377729
 10
-90.8434272691
 20
2.4582952579
 10
-90.8214705551
 20
5.3326748569
 10
-90.7853473851
 20
8.1717802776
 10
-90.7351286224
 20
11.0104580379
 10
-90.6715256428
 20
13.8136921676
 10
-90.5988933183
 20
16.441543048
 10
-90.5214627119
 20
18.8474092353
 10
-90.4407435353
 20
21.0779558818
  0
LINE
  5
482
100
AcDbEntity
  8
RACCORDO
100
AcDbLine
 62
253
  6
CONTINUOUS
 10
-89.1919929462
 20
-41.8931320491
 11
-89.1982789449
 21
-41.7372214419
  0
LINE
  5
483
100
AcDbEntity
  8
RACCORDO
100
AcDbLine
 62
253
  6
CONTINUOUS
 10
-88.921532264
 20
-42.1231764826
 11
-88.9277871737
 21
-41.964742358
  0
LINE
  5
484
100
AcDbEntity
  8
RACCORDO
100
AcDbLine
 62
253
  6
CONTINUOUS
 10
-89.1862189019
 20
-42.0571886711
 11
-89.1919929462
 21
-41.8931320491
  0
LINE
  5
485
100
AcDbEntity
  8
RACCORDO
100
AcDbLine
 62
253
  6
CONTINUOUS
 10
-88.9157899229
 20
-42.2899154058
 11
-88.921532264
 21
-42.1231764826
  0
LINE
  5
486
100
AcDbEntity
  8
RACCORDO
100
AcDbLine
 62
253
  6
CONTINUOUS
 10
-89.182837274
 20
-42.1700711998
 11
-89.1862189019
 21
-42.0571886711
  0
LINE
  5
487
100
AcDbEntity
  8
RACCORDO
100
AcDbLine
 62
253
  6
CONTINUOUS
 10
-88.912435993
 20
-42.4046269466
 11
-88.9157899229
 21
-42.2899154058
  0
LINE
  5
488
100
AcDbEntity
  8
RACCORDO
100
AcDbLine
 62
253
  6
CONTINUOUS
 10
-89.1799794793
 20
-42.2849174493
 11
-89.182837274
 21
-42.1700711998
  0
LINE
  5
489
100
AcDbEntity
  8
RACCORDO
100
AcDbLine
 62
7
  6
CONTINUOUS
 10
-91.8500008749
 20
22.6820577836
 11
-91.8497726974
 21
22.6729319908
  0
LINE
  5
48A
100
AcDbEntity
  8
RACCORDO
100
AcDbLine
 62
253
  6
CONTINUOUS
 10
-88.9096076641
 20
-42.5212693819
 11
-88.912435993
 21
-42.4046269466
  0
LINE
  5
48B
100
AcDbEntity
  8
RACCORDO
100
AcDbLine
 62
7
  6
CONTINUOUS
 10
-91.8529121463
 20
-23.2103340997
 11
-91.8509386223
 21
-23.3086087731
  0
LINE
  5
48C
100
AcDbEntity
  8
RACCORDO
100
AcDbLine
 62
253
  6
CONTINUOUS
 10
-89.1778245355
 20
-42.3997125752
 11
-89.1799794793
 21
-42.2849174493
  0
LINE
  5
48D
100
AcDbEntity
  8
RACCORDO
100
AcDbLine
 62
253
  6
CONTINUOUS
 10
-88.907461403
 20
-42.6380113049
 11
-88.9096076641
 21
-42.5212693819
  0
LINE
  5
48E
100
AcDbEntity
  8
RACCORDO
100
AcDbLine
 62
7
  6
CONTINUOUS
 10
-91.8497726974
 20
22.6729319908
 11
-91.8495649551
 21
22.6609307477
  0
LINE
  5
48F
100
AcDbEntity
  8
RACCORDO
100
AcDbLine
 62
253
  6
CONTINUOUS
 10
-91.8501478509
 20
-23.3597812828
 11
-91.8492760239
 21
-23.3843877544
  0
LINE
  5
490
100
AcDbEntity
  8
RACCORDO
100
AcDbLine
 62
7
  6
CONTINUOUS
 10
-91.8509386223
 20
-23.3086087731
 11
-91.8499432965
 21
-23.3756277356
  0
LWPOLYLINE
  5
491
100
AcDbEntity
  8
RACCORDO
100
AcDbPolyline
 62
253
  6
CONTINUOUS
 90
4
 70
0
 10
-91.8546454663
 20
-23.6444135396
 10
-91.8552415901
 20
-23.5957289101
 10
-91.8524500822
 20
-23.5471225843
 10
-91.8497852675
 20
-23.5262502337
  0
LINE
  5
492
100
AcDbEntity
  8
RACCORDO
100
AcDbLine
 62
7
  6
CONTINUOUS
 10
-91.8495649551
 20
22.6609307477
 11
-91.8494055342
 21
22.6459488009
  0
LINE
  5
493
100
AcDbEntity
  8
RACCORDO
100
AcDbLine
 62
7
  6
CONTINUOUS
 10
-91.8499432965
 20
-23.3756277356
 11
-91.8494924845
 21
-23.4191448044
  0
LINE
  5
494
100
AcDbEntity
  8
RACCORDO
100
AcDbLine
 62
253
  6
CONTINUOUS
 10
-91.8494924845
 20
-23.4191448044
 11
-91.8485684242
 21
-23.4512406309
  0
LINE
  5
495
100
AcDbEntity
  8
RACCORDO
100
AcDbLine
 62
7
  6
CONTINUOUS
 10
-91.8494055342
 20
22.6459488009
 11
-91.8493115895
 21
22.6280780861
  0
LINE
  5
496
100
AcDbEntity
  8
RACCORDO
100
AcDbLine
 62
253
  6
CONTINUOUS
 10
-91.8485570129
 20
22.6888774792
 11
-91.8483860156
 21
22.6559754878
  0
LINE
  5
497
100
AcDbEntity
  8
RACCORDO
100
AcDbLine
 62
253
  6
CONTINUOUS
 10
-91.8492998876
 20
-23.4563541389
 11
-91.8483882719
 21
-23.4906319518
  0
LINE
  5
498
100
AcDbEntity
  8
RACCORDO
100
AcDbLine
 62
7
  6
CONTINUOUS
 10
-91.8494924845
 20
-23.4191448044
 11
-91.8492998876
 21
-23.4563541389
  0
LWPOLYLINE
  5
499
100
AcDbEntity
  8
RACCORDO
100
AcDbPolyline
 62
7
  6
CONTINUOUS
 90
9
 70
0
 10
-92.3615714537
 20
-0.4264068131
 10
-92.3560512825
 20
-2.7767290691
 10
-92.3387274275
 20
-5.2076014187
 10
-92.3095938874
 20
-7.6383620589
 10
-92.2686513225
 20
-10.0689468797
 10
-92.2159008415
 20
-12.4993006175
 10
-92.1513435517
 20
-14.9293720663
 10
-92.0749807396
 20
-17.3591059499
 10
-91.98681452
 20
-19.7884383188
  0
LWPOLYLINE
  5
49A
100
AcDbEntity
  8
RACCORDO
100
AcDbPolyline
 62
253
  6
CONTINUOUS
 90
20
 70
0
 10
-89.176204909
 20
41.7061439823
 10
-89.1761253439
 20
41.7598073915
 10
-89.1763251259
 20
41.8133224946
 10
-89.176791547
 20
41.8663626233
 10
-89.1775629847
 20
41.9177409036
 10
-89.1786705874
 20
41.967470777
 10
-89.1800831282
 20
42.0155391982
 10
-89.1817517523
 20
42.0607198478
 10
-89.1836930312
 20
42.1026090547
 10
-89.185898134
 20
42.1416111231
 10
-89.1882847298
 20
42.1777118114
 10
-89.1908601416
 20
42.2107837964
 10
-89.1936253587
 20
42.2409548948
 10
-89.1964895435
 20
42.2685935196
 10
-89.1994584291
 20
42.2936856122
 10
-89.2025337064
 20
42.3162455571
 10
-89.2056186527
 20
42.3366843585
 10
-89.2086833534
 20
42.355139075
 10
-89.211764448
 20
42.3714728453
 10
-89.2148649733
 20
42.3856857543
  0
LINE
  5
49B
100
AcDbEntity
  8
RACCORDO
100
AcDbLine
 62
7
  6
CONTINUOUS
 10
-91.8493115895
 20
22.6280780861
 11
-91.8493181092
 21
22.5964713012
  0
LINE
  5
49C
100
AcDbEntity
  8
RACCORDO
100
AcDbLine
 62
253
  6
CONTINUOUS
 10
-91.8483860156
 20
22.6559754878
 11
-91.8493115895
 21
22.6280780861
  0
LWPOLYLINE
  5
49D
100
AcDbEntity
  8
RACCORDO
100
AcDbPolyline
 62
253
  6
CONTINUOUS
 90
15
 70
0
 10
-91.8483882719
 20
-23.4906319518
 10
-91.8484419655
 20
-23.5257058727
 10
-91.8485564005
 20
-23.5416253773
 10
-91.8487287004
 20
-23.5564724014
 10
-91.848959437
 20
-23.5702382854
 10
-91.8492500519
 20
-23.5828885009
 10
-91.8496003805
 20
-23.5944292636
 10
-91.8500106372
 20
-23.6048543654
 10
-91.85048283
 20
-23.614110642
 10
-91.8510167159
 20
-23.6222019757
 10
-91.8516125497
 20
-23.6291244898
 10
-91.8522730832
 20
-23.634813382
 10
-91.8529992237
 20
-23.6392470526
 10
-91.8537900292
 20
-23.6424471048
 10
-91.8546454672
 20
-23.6444135396
  0
LINE
  5
49E
100
AcDbEntity
  8
RACCORDO
100
AcDbLine
 62
7
  6
CONTINUOUS
 10
-91.8492998876
 20
-23.4563541389
 11
-91.8493371556
 21
-23.4876290668
  0
LINE
  5
49F
100
AcDbEntity
  8
RACCORDO
100
AcDbLine
 62
7
  6
CONTINUOUS
 10
-91.8493181092
 20
22.5964713012
 11
-91.8495495319
 21
22.5596113086
  0
LINE
  5
4A0
100
AcDbEntity
  8
RACCORDO
100
AcDbLine
 62
253
  6
CONTINUOUS
 10
-91.8484486412
 20
22.6187708168
 11
-91.8493181092
 21
22.5964713012
  0
LINE
  5
4A1
100
AcDbEntity
  8
RACCORDO
100
AcDbLine
 62
7
  6
CONTINUOUS
 10
-91.8493371556
 20
-23.4876290668
 11
-91.8494609067
 21
-23.505004936
  0
LINE
  5
4A2
100
AcDbEntity
  8
RACCORDO
100
AcDbLine
 62
253
  6
CONTINUOUS
 10
-88.9067671593
 20
41.8366642148
 11
-88.9058913006
 21
41.9469120388
  0
LINE
  5
4A3
100
AcDbEntity
  8
RACCORDO
100
AcDbLine
 62
253
  6
CONTINUOUS
 10
-89.1771130883
 20
41.5975989058
 11
-89.176204909
 21
41.7061439823
  0
LINE
  5
4A4
100
AcDbEntity
  8
RACCORDO
100
AcDbLine
 62
253
  6
CONTINUOUS
 10
-91.8487445098
 20
22.5773182236
 11
-91.8495495319
 21
22.5596113086
  0
LWPOLYLINE
  5
4A5
100
AcDbEntity
  8
RACCORDO
100
AcDbPolyline
 62
253
  6
CONTINUOUS
 90
4
 70
0
 10
-91.8546452837
 20
22.791599905
 10
-91.855241465
 20
22.7429152677
 10
-91.8524500114
 20
22.6943089317
 10
-91.8497841297
 20
22.6734280467
  0
LINE
  5
4A6
100
AcDbEntity
  8
RACCORDO
100
AcDbLine
 62
7
  6
CONTINUOUS
 10
-91.8495495319
 20
22.5596113086
 11
-91.8502213027
 21
22.5016095511
  0
LINE
  5
4A7
100
AcDbEntity
  8
RACCORDO
100
AcDbLine
 62
7
  6
CONTINUOUS
 10
-91.8494609067
 20
-23.505004936
 11
-91.8496488767
 21
-23.5191981902
  0
LINE
  5
4A8
100
AcDbEntity
  8
RACCORDO
100
AcDbLine
 62
253
  6
CONTINUOUS
 10
-91.8492735507
 20
22.5317536704
 11
-91.8502213027
 21
22.5016095511
  0
LINE
  5
4A9
100
AcDbEntity
  8
RACCORDO
100
AcDbLine
 62
253
  6
CONTINUOUS
 10
-88.9084710193
 20
41.7251920367
 11
-88.9067671593
 21
41.8366642148
  0
LINE
  5
4AA
100
AcDbEntity
  8
RACCORDO
100
AcDbLine
 62
253
  6
CONTINUOUS
 10
-89.1788436535
 20
41.4878625755
 11
-89.1771130883
 21
41.5975989058
  0
LINE
  5
4AB
100
AcDbEntity
  8
RACCORDO
100
AcDbLine
 62
7
  6
CONTINUOUS
 10
-91.8502213027
 20
22.5016095511
 11
-91.8513196557
 21
22.4346725453
  0
LINE
  5
4AC
100
AcDbEntity
  8
RACCORDO
100
AcDbLine
 62
253
  6
CONTINUOUS
 10
-91.8504965625
 20
22.4560858784
 11
-91.8513196557
 21
22.4346725453
  0
LINE
  5
4AD
100
AcDbEntity
  8
RACCORDO
100
AcDbLine
 62
7
  6
CONTINUOUS
 10
-91.8513196557
 20
22.4346725453
 11
-91.8533530732
 21
22.338146927
  0
LWPOLYLINE
  5
4AE
100
AcDbEntity
  8
RACCORDO
100
AcDbPolyline
 62
7
  6
CONTINUOUS
 90
4
 70
0
 10
-91.8496488767
 20
-23.5191981902
 10
-91.849876758
 20
-23.5302930428
 10
-91.8499955333
 20
-23.5346910568
 10
-91.8501011186
 20
-23.5380059952
  0
LINE
  5
4AF
100
AcDbEntity
  8
RACCORDO
100
AcDbLine
 62
253
  6
CONTINUOUS
 10
-88.9108567137
 20
41.6137147899
 11
-88.9084710193
 21
41.7251920367
  0
LINE
  5
4B0
100
AcDbEntity
  8
RACCORDO
100
AcDbLine
 62
253
  6
CONTINUOUS
 10
-89.1812383276
 20
41.3782323264
 11
-89.1788436535
 21
41.4878625755
  0
LINE
  5
4B1
100
AcDbEntity
  8
RACCORDO
100
AcDbLine
 62
253
  6
CONTINUOUS
 10
-88.913793412
 20
41.5031818535
 11
-88.9108567137
 21
41.6137147899
  0
LINE
  5
4B2
100
AcDbEntity
  8
RACCORDO
100
AcDbLine
 62
253
  6
CONTINUOUS
 10
-89.1842040239
 20
41.2694049888
 11
-89.1812383276
 21
41.3782323264
  0
LINE
  5
4B3
100
AcDbEntity
  8
RACCORDO
100
AcDbLine
 62
253
  6
CONTINUOUS
 10
-88.9189896708
 20
41.3408471387
 11
-88.913793412
 21
41.5031818535
  0
LINE
  5
4B4
100
AcDbEntity
  8
RACCORDO
100
AcDbLine
 62
253
  6
CONTINUOUS
 10
-89.1894323859
 20
41.1096905055
 11
-89.1842040239
 21
41.2694049888
  0
LINE
  5
4B5
100
AcDbEntity
  8
RACCORDO
100
AcDbLine
 62
7
  6
CONTINUOUS
 10
-91.8501384904
 20
-23.5390182551
 11
-91.8501669716
 21
-23.5398027807
  0
LINE
  5
4B6
100
AcDbEntity
  8
RACCORDO
100
AcDbLine
 62
253
  6
CONTINUOUS
 10
-88.9248311167
 20
41.1845997284
 11
-88.9189896708
 21
41.3408471387
  0
LINE
  5
4B7
100
AcDbEntity
  8
RACCORDO
100
AcDbLine
 62
253
  6
CONTINUOUS
 10
-89.1953046699
 20
40.9559451688
 11
-89.1894323859
 21
41.1096905055
  0
LINE
  5
4B8
100
AcDbEntity
  8
RACCORDO
100
AcDbLine
 62
253
  6
CONTINUOUS
 10
-90.4407435353
 20
21.0779558818
 11
-90.3397073791
 21
23.5879004903
  0
LINE
  5
4B9
100
AcDbEntity
  8
RACCORDO
100
AcDbLine
 62
253
  6
CONTINUOUS
 10
-90.1681146995
 20
21.0917134723
 11
-90.066710662
 21
23.6030645901
  0
LINE
  5
4BA
100
AcDbEntity
  8
DRAFT
100
AcDbLine
 62
7
  6
CONTINUOUS
 10
-88.1103387933
 20
23.51408429
 11
-88.2484848007
 21
20.0241818446
  0
LINE
  5
4BB
100
AcDbEntity
  8
RACCORDO
100
AcDbLine
 62
253
  6
CONTINUOUS
 10
-88.933085847
 20
40.9891067293
 11
-88.9248311167
 21
41.1845997284
  0
LINE
  5
4BC
100
AcDbEntity
  8
RACCORDO
100
AcDbLine
 62
253
  6
CONTINUOUS
 10
-89.2035921537
 20
40.7635599718
 11
-89.1953046699
 21
40.9559451688
  0
LINE
  5
4BD
100
AcDbEntity
  8
RACCORDO
100
AcDbLine
 62
253
  6
CONTINUOUS
 10
-90.066710662
 20
23.6030645901
 11
-90.0302957569
 21
24.4003037791
  0
LINE
  5
4BE
100
AcDbEntity
  8
RACCORDO
100
AcDbLine
 62
253
  6
CONTINUOUS
 10
-90.3397073791
 20
23.5879004903
 11
-90.3032282156
 21
24.3853589475
  0
LINE
  5
4BF
100
AcDbEntity
  8
DRAFT
100
AcDbLine
 62
7
  6
CONTINUOUS
 10
-88.070043871
 20
24.3877473541
 11
-88.1103387933
 21
23.51408429
  0
LINE
  5
4C0
100
AcDbEntity
  8
RACCORDO
100
AcDbLine
 62
253
  6
CONTINUOUS
 10
-87.8728946317
 20
24.522566995
 11
-87.9130851344
 21
23.666449286
  0
LINE
  5
4C1
100
AcDbEntity
  8
RACCORDO
100
AcDbLine
 62
253
  6
CONTINUOUS
 10
-88.94585086
 20
40.7193350586
 11
-88.933085847
 21
40.9891067293
  0
LINE
  5
4C2
100
AcDbEntity
  8
RACCORDO
100
AcDbLine
 62
253
  6
CONTINUOUS
 10
-90.0302957569
 20
24.4003037791
 11
-89.992525066
 21
25.1634656779
  0
LINE
  5
4C3
100
AcDbEntity
  8
RACCORDO
100
AcDbLine
 62
253
  6
CONTINUOUS
 10
-90.3032282156
 20
24.3853589475
 11
-90.2653890709
 21
25.1471467588
  0
LINE
  5
4C4
100
AcDbEntity
  8
RACCORDO
100
AcDbLine
 62
253
  6
CONTINUOUS
 10
-89.2164154975
 20
40.4979144426
 11
-89.2035921537
 21
40.7635599718
  0
LINE
  5
4C5
100
AcDbEntity
  8
DRAFT
100
AcDbLine
 62
7
  6
CONTINUOUS
 10
-88.0299843993
 20
25.1828004482
 11
-88.070043871
 21
24.3877473541
  0
LINE
  5
4C6
100
AcDbEntity
  8
RACCORDO
100
AcDbLine
 62
253
  6
CONTINUOUS
 10
-87.8182888432
 20
25.5792669644
 11
-87.8728946317
 21
24.522566995
  0
LINE
  5
4C7
100
AcDbEntity
  8
RACCORDO
100
AcDbLine
 62
253
  6
CONTINUOUS
 10
-87.6972631895
 20
25.5615255765
 11
-87.7432289078
 21
24.6780145253
  0
LINE
  5
4C8
100
AcDbEntity
  8
RACCORDO
100
AcDbLine
 62
253
  6
CONTINUOUS
 10
-89.992525066
 20
25.1634656779
 11
-89.9453714254
 21
26.0514152822
  0
LINE
  5
4C9
100
AcDbEntity
  8
RACCORDO
100
AcDbLine
 62
253
  6
CONTINUOUS
 10
-90.2653890709
 20
25.1471467588
 11
-90.2181543728
 21
26.0320715398
  0
LINE
  5
4CA
100
AcDbEntity
  8
RACCORDO
100
AcDbLine
 62
253
  6
CONTINUOUS
 10
-88.9609148706
 20
40.4308666246
 11
-88.94585086
 21
40.7193350586
  0
LINE
  5
4CB
100
AcDbEntity
  8
DRAFT
100
AcDbLine
 62
7
  6
CONTINUOUS
 10
-87.9816897646
 20
26.0732476343
 11
-88.0299843993
 21
25.1828004482
  0
LINE
  5
4CC
100
AcDbEntity
  8
RACCORDO
100
AcDbLine
 62
253
  6
CONTINUOUS
 10
-89.2315345311
 20
40.2141720338
 11
-89.2164154975
 21
40.4979144426
  0
LINE
  5
4CD
100
AcDbEntity
  8
DRAFT
100
AcDbLine
 62
7
  6
CONTINUOUS
 10
-86.9184364049
 20
41.0423610723
 11
-86.9355570998
 21
40.7240007164
  0
LINE
  5
4CE
100
AcDbEntity
  8
RACCORDO
100
AcDbLine
 62
253
  6
CONTINUOUS
 10
-87.7687038099
 20
26.4637150714
 11
-87.8182888432
 21
25.5792669644
  0
LINE
  5
4CF
100
AcDbEntity
  8
RACCORDO
100
AcDbLine
 62
253
  6
CONTINUOUS
 10
-87.6478306226
 20
26.4440663466
 11
-87.6972631895
 21
25.5615255765
  0
LINE
  5
4D0
100
AcDbEntity
  8
RACCORDO
100
AcDbLine
 62
253
  6
CONTINUOUS
 10
-89.9453714254
 20
26.0514152822
 11
-89.8948059768
 21
26.9382655005
  0
LINE
  5
4D1
100
AcDbEntity
  8
RACCORDO
100
AcDbLine
 62
253
  6
CONTINUOUS
 10
-90.2181543728
 20
26.0320715398
 11
-90.167498746
 21
26.9159470579
  0
LINE
  5
4D2
100
AcDbEntity
  8
RACCORDO
100
AcDbLine
 62
253
  6
CONTINUOUS
 10
-86.7742350277
 20
40.448978206
 11
-86.7919047431
 21
40.1402417311
  0
LINE
  5
4D3
100
AcDbEntity
  8
RACCORDO
100
AcDbLine
 62
253
  6
CONTINUOUS
 10
-88.9820072248
 20
40.0614415962
 11
-88.9609148706
 21
40.4308666246
  0
LINE
  5
4D4
100
AcDbEntity
  8
DRAFT
100
AcDbLine
 62
7
  6
CONTINUOUS
 10
-87.9298847653
 20
26.9626174887
 11
-87.9816897646
 21
26.0732476343
  0
LINE
  5
4D5
100
AcDbEntity
  8
RACCORDO
100
AcDbLine
 62
253
  6
CONTINUOUS
 10
-89.2526973489
 20
39.8508862036
 11
-89.2315345311
 21
40.2141720338
  0
LINE
  5
4D6
100
AcDbEntity
  8
DRAFT
100
AcDbLine
 62
7
  6
CONTINUOUS
 10
-86.9355570998
 20
40.7240007164
 11
-86.9557993763
 21
40.3819634536
  0
LINE
  5
4D7
100
AcDbEntity
  8
RACCORDO
100
AcDbLine
 62
253
  6
CONTINUOUS
 10
-87.5949492443
 20
27.3254805482
 11
-87.6478306226
 21
26.4440663466
  0
LINE
  5
4D8
100
AcDbEntity
  8
RACCORDO
100
AcDbLine
 62
253
  6
CONTINUOUS
 10
-87.7156586442
 20
27.3470030718
 11
-87.7687038099
 21
26.4637150714
  0
LINE
  5
4D9
100
AcDbEntity
  8
RACCORDO
100
AcDbLine
 62
253
  6
CONTINUOUS
 10
-86.6704573809
 20
40.1955870545
 11
-86.6917433027
 21
39.8376155335
  0
LINE
  5
4DA
100
AcDbEntity
  8
RACCORDO
100
AcDbLine
 62
253
  6
CONTINUOUS
 10
-89.8948059768
 20
26.9382655005
 11
-89.8408552158
 21
27.8237371811
  0
LINE
  5
4DB
100
AcDbEntity
  8
RACCORDO
100
AcDbLine
 62
253
  6
CONTINUOUS
 10
-90.167498746
 20
26.9159470579
 11
-90.1134533448
 21
27.7984241786
  0
LINE
  5
4DC
100
AcDbEntity
  8
DRAFT
100
AcDbLine
 62
7
  6
CONTINUOUS
 10
-87.8745977006
 20
27.8506177055
 11
-87.9298847653
 21
26.9626174887
  0
LINE
  5
4DD
100
AcDbEntity
  8
RACCORDO
100
AcDbLine
 62
253
  6
CONTINUOUS
 10
-89.0154182846
 20
39.5212501514
 11
-88.9820072248
 21
40.0614415962
  0
LINE
  5
4DE
100
AcDbEntity
  8
RACCORDO
100
AcDbLine
 62
253
  6
CONTINUOUS
 10
-86.7919047431
 20
40.1402417311
 11
-86.8169645334
 21
39.7357213975
  0
LINE
  5
4DF
100
AcDbEntity
  8
RACCORDO
100
AcDbLine
 62
253
  6
CONTINUOUS
 10
-89.2862177962
 20
39.319024938
 11
-89.2526973489
 21
39.8508862036
  0
LINE
  5
4E0
100
AcDbEntity
  8
RACCORDO
100
AcDbLine
 62
253
  6
CONTINUOUS
 10
-87.6591869419
 20
28.2287692278
 11
-87.7156586442
 21
27.3470030718
  0
LINE
  5
4E1
100
AcDbEntity
  8
RACCORDO
100
AcDbLine
 62
253
  6
CONTINUOUS
 10
-87.5386561503
 20
28.2053425627
 11
-87.5949492443
 21
27.3254805482
  0
LINE
  5
4E2
100
AcDbEntity
  8
DRAFT
100
AcDbLine
 62
7
  6
CONTINUOUS
 10
-86.9557993763
 20
40.3819634536
 11
-86.9872787827
 21
39.891854332
  0
LINE
  5
4E3
100
AcDbEntity
  8
RACCORDO
100
AcDbLine
 62
253
  6
CONTINUOUS
 10
-90.1134533448
 20
27.7984241786
 11
-90.0560367216
 21
28.6794017762
  0
LINE
  5
4E4
100
AcDbEntity
  8
RACCORDO
100
AcDbLine
 62
253
  6
CONTINUOUS
 10
-89.8408552158
 20
27.8237371811
 11
-89.7610721219
 21
29.0469664042
  0
LINE
  5
4E5
100
AcDbEntity
  8
RACCORDO
100
AcDbLine
 62
253
  6
CONTINUOUS
 10
-86.6917433027
 20
39.8376155335
 11
-86.7262420727
 21
39.3012310766
  0
LINE
  5
4E6
100
AcDbEntity
  8
DRAFT
100
AcDbLine
 62
7
  6
CONTINUOUS
 10
-87.815845943
 20
28.7371607049
 11
-87.8745977006
 21
27.8506177055
  0
LINE
  5
4E7
100
AcDbEntity
  8
RACCORDO
100
AcDbLine
 62
253
  6
CONTINUOUS
 10
-89.0656039635
 20
38.7645983498
 11
-89.0154182846
 21
39.5212501514
  0
LINE
  5
4E8
100
AcDbEntity
  8
0
100
AcDbLine
 62
7
  6
CONTINUOUS
 10
-86.5153118614
 20
38.2519244574
 11
-86.5684747763
 21
37.4526749324
  0
LINE
  5
4E9
100
AcDbEntity
  8
RACCORDO
100
AcDbLine
 62
253
  6
CONTINUOUS
 10
-86.8169645334
 20
39.7357213975
 11
-86.8601896938
 21
39.0873499681
  0
LINE
  5
4EA
100
AcDbEntity
  8
RACCORDO
100
AcDbLine
 62
253
  6
CONTINUOUS
 10
-89.7610721219
 20
29.0469664042
 11
-89.6590466966
 21
30.5513387147
  0
LINE
  5
4EB
100
AcDbEntity
  8
RACCORDO
100
AcDbLine
 62
253
  6
CONTINUOUS
 10
-90.0560367216
 20
28.6794017762
 11
-89.9503769093
 21
30.2213158468
  0
LINE
  5
4EC
100
AcDbEntity
  8
RACCORDO
100
AcDbLine
 62
253
  6
CONTINUOUS
 10
-89.3365507526
 20
38.5744529048
 11
-89.2862177962
 21
39.319024938
  0
LINE
  5
4ED
100
AcDbEntity
  8
0
100
AcDbLine
 62
7
  6
CONTINUOUS
 10
-86.987269457
 20
31.6181679399
 11
-87.2581890251
 21
27.6214275027
  0
LINE
  5
4EE
100
AcDbEntity
  8
DRAFT
100
AcDbLine
 62
7
  6
CONTINUOUS
 10
-86.9872787827
 20
39.891854332
 11
-87.0362497338
 21
39.1818000357
  0
LINE
  5
4EF
100
AcDbEntity
  8
RACCORDO
100
AcDbLine
 62
253
  6
CONTINUOUS
 10
-87.3866063193
 20
30.4066382498
 11
-87.5386561503
 21
28.2053425627
  0
LINE
  5
4F0
100
AcDbEntity
  8
RACCORDO
100
AcDbLine
 62
253
  6
CONTINUOUS
 10
-89.6590466966
 20
30.5513387147
 11
-89.5579510502
 21
31.9921774654
  0
LINE
  5
4F1
100
AcDbEntity
  8
RACCORDO
100
AcDbLine
 62
253
  6
CONTINUOUS
 10
-87.5061192321
 20
30.4418845654
 11
-87.6591869419
 21
28.2287692278
  0
LINE
  5
4F2
100
AcDbEntity
  8
RACCORDO
100
AcDbLine
 62
253
  6
CONTINUOUS
 10
-86.7262420727
 20
39.3012310766
 11
-86.7802978623
 21
38.5182327972
  0
LINE
  5
4F3
100
AcDbEntity
  8
0
100
AcDbLine
 62
7
  6
CONTINUOUS
 10
-86.5684747763
 20
37.4526749324
 11
-86.6628823104
 21
36.1125726081
  0
LINE
  5
4F4
100
AcDbEntity
  8
RACCORDO
100
AcDbLine
 62
253
  6
CONTINUOUS
 10
-89.9503769093
 20
30.2213158468
 11
-89.8454886318
 21
31.6971083484
  0
LINE
  5
4F5
100
AcDbEntity
  8
DRAFT
100
AcDbLine
 62
7
  6
CONTINUOUS
 10
-87.647793296
 20
31.1201704556
 11
-87.815845943
 21
28.7371607049
  0
LINE
  5
4F6
100
AcDbEntity
  8
0
100
AcDbLine
 62
7
  6
CONTINUOUS
 10
-86.6628823104
 20
36.1125726081
 11
-86.987269457
 21
31.6181679399
  0
LINE
  5
4F7
100
AcDbEntity
  8
RACCORDO
100
AcDbLine
 62
253
  6
CONTINUOUS
 10
-89.1854754542
 20
37.0806432416
 11
-89.0656039635
 21
38.7645983498
  0
LINE
  5
4F8
100
AcDbEntity
  8
RACCORDO
100
AcDbLine
 62
253
  6
CONTINUOUS
 10
-86.8601896938
 20
39.0873499681
 11
-86.9225777974
 21
38.2115468797
  0
LINE
  5
4F9
100
AcDbEntity
  8
RACCORDO
100
AcDbLine
 62
253
  6
CONTINUOUS
 10
-89.5579510502
 20
31.9921774654
 11
-89.3999008398
 21
34.1733359019
  0
LINE
  5
4FA
100
AcDbEntity
  8
RACCORDO
100
AcDbLine
 62
253
  6
CONTINUOUS
 10
-89.4491632316
 20
37.0192233499
 11
-89.3365507526
 21
38.5744529048
  0
LINE
  5
4FB
100
AcDbEntity
  8
RACCORDO
100
AcDbLine
 62
253
  6
CONTINUOUS
 10
-89.3999008398
 20
34.1733359019
 11
-89.1854754542
 21
37.0806432416
  0
LINE
  5
4FC
100
AcDbEntity
  8
DRAFT
100
AcDbLine
 62
7
  6
CONTINUOUS
 10
-87.0362497338
 20
39.1818000357
 11
-87.1043086031
 21
38.2523583685
  0
LINE
  5
4FD
100
AcDbEntity
  8
RACCORDO
100
AcDbLine
 62
253
  6
CONTINUOUS
 10
-89.8454886318
 20
31.6971083484
 11
-89.662206972
 21
34.1827210139
  0
LINE
  5
4FE
100
AcDbEntity
  8
RACCORDO
100
AcDbLine
 62
253
  6
CONTINUOUS
 10
-86.7802978623
 20
38.5182327972
 11
-86.8625899452
 21
37.3950939428
  0
LINE
  5
4FF
100
AcDbEntity
  8
RACCORDO
100
AcDbLine
 62
253
  6
CONTINUOUS
 10
-89.662206972
 20
34.1827210139
 11
-89.4491632316
 21
37.0192233499
  0
LINE
  5
500
100
AcDbEntity
  8
RACCORDO
100
AcDbLine
 62
253
  6
CONTINUOUS
 10
-87.2672047183
 20
33.6800677085
 11
-87.5061192321
 21
30.4418845654
  0
LINE
  5
501
100
AcDbEntity
  8
RACCORDO
100
AcDbLine
 62
253
  6
CONTINUOUS
 10
-87.1315843758
 20
33.8637575113
 11
-87.3866063193
 21
30.4066382498
  0
LINE
  5
502
100
AcDbEntity
  8
RACCORDO
100
AcDbLine
 62
253
  6
CONTINUOUS
 10
-86.9225777974
 20
38.2115468797
 11
-87.0226287437
 21
36.8752673329
  0
LINE
  5
503
100
AcDbEntity
  8
RACCORDO
100
AcDbLine
 62
253
  6
CONTINUOUS
 10
-86.8625899452
 20
37.3950939428
 11
-87.1315843758
 21
33.8637575113
  0
LINE
  5
504
100
AcDbEntity
  8
RACCORDO
100
AcDbLine
 62
253
  6
CONTINUOUS
 10
-87.0226287437
 20
36.8752673329
 11
-87.2672047183
 21
33.6800677085
  0
LINE
  5
505
100
AcDbEntity
  8
DRAFT
100
AcDbLine
 62
7
  6
CONTINUOUS
 10
-87.3545641137
 20
35.0058148545
 11
-87.647793296
 21
31.1201704556
  0
LINE
  5
506
100
AcDbEntity
  8
DRAFT
100
AcDbLine
 62
7
  6
CONTINUOUS
 10
-87.1043086031
 20
38.2523583685
 11
-87.3545641137
 21
35.0058148545
  0
LWPOLYLINE
  5
507
100
AcDbEntity
  8
RACCORDO
100
AcDbPolyline
 62
253
  6
CONTINUOUS
 90
19
 70
0
 10
-85.0382858674
 20
3.302244308
 10
-85.0703795128
 20
3.2952224006
 10
-85.1013244841
 20
3.2859556009
 10
-85.131118439
 20
3.2744435007
 10
-85.1599092905
 20
3.2605596485
 10
-85.187544831
 20
3.2444297691
 10
-85.2135720004
 20
3.2264319726
 10
-85.2379497091
 20
3.2065397508
 10
-85.2607139422
 20
3.1847795728
 10
-85.2815264714
 20
3.1616094458
 10
-85.3003422958
 20
3.1370198244
 10
-85.3172017423
 20
3.1110208099
 10
-85.3318944306
 20
3.084100235
 10
-85.3443813806
 20
3.0562785188
 10
-85.3546981312
 20
3.0275362192
 10
-85.3627463693
 20
2.9983015973
 10
-85.3684927392
 20
2.9687178235
 10
-85.371968823
 20
2.9386429059
 10
-85.3731741444
 20
2.9080774334
  0
LINE
  5
508
100
AcDbEntity
  8
RACCORDO
100
AcDbLine
 62
7
  6
CONTINUOUS
 10
-85.0590218048
 20
3.1027348113
 11
-83.3895625337
 21
3.397105524
  0
LINE
  5
509
100
AcDbEntity
  8
RACCORDO
100
AcDbLine
 62
253
  6
CONTINUOUS
 10
-85.0382858674
 20
3.302244308
 11
-83.4096453143
 21
3.5856398384
  0
LINE
  5
50A
100
AcDbEntity
  8
RACCORDO
100
AcDbLine
 62
253
  6
CONTINUOUS
 10
-83.4096453136
 20
3.5856398621
 11
-83.3291513075
 21
3.5899350378
  0
LINE
  5
50B
100
AcDbEntity
  8
RACCORDO
100
AcDbLine
 62
253
  6
CONTINUOUS
 10
-83.3291513075
 20
3.5899350378
 11
-83.2762405231
 21
3.5925188002
  0
LINE
  5
50C
100
AcDbEntity
  8
RACCORDO
100
AcDbLine
 62
253
  6
CONTINUOUS
 10
-83.2762405231
 20
3.5925188002
 11
-83.2555798048
 21
3.5934181345
  0
LINE
  5
50D
100
AcDbEntity
  8
RACCORDO
100
AcDbLine
 62
253
  6
CONTINUOUS
 10
-83.2555798048
 20
3.5934181345
 11
-83.2444893304
 21
3.5938447711
  0
LWPOLYLINE
  5
50E
100
AcDbEntity
  8
RACCORDO
100
AcDbPolyline
 62
253
  6
CONTINUOUS
 90
8
 70
0
 10
-83.2444893304
 20
3.5938447711
 10
-83.2357206536
 20
3.5941269751
 10
-83.2322448062
 20
3.5942113071
 10
-83.2293877905
 20
3.5942585727
 10
-83.2271605385
 20
3.5942675471
 10
-83.2255678186
 20
3.5942380904
 10
-83.2246112155
 20
3.5941711378
 10
-83.2242921693
 20
3.5940670881
  0
LINE
  5
50F
100
AcDbEntity
  8
RACCORDO
100
AcDbLine
 62
253
  6
CONTINUOUS
 10
-85.3731741438
 20
2.9080774387
 11
-85.3099781959
 21
2.9077289177
  0
LINE
  5
510
100
AcDbEntity
  8
RACCORDO
100
AcDbLine
 62
253
  6
CONTINUOUS
 10
-85.3099781959
 20
2.9077289177
 11
-85.2713120696
 21
2.9073084847
  0
LWPOLYLINE
  5
511
100
AcDbEntity
  8
RACCORDO
100
AcDbPolyline
 62
253
  6
CONTINUOUS
 90
8
 70
0
 10
-85.2713120696
 20
2.9073084847
 10
-85.2512204633
 20
2.9069676787
 10
-85.2431245309
 20
2.9067828998
 10
-85.2364144398
 20
2.9065903983
 10
-85.2311414968
 20
2.9063916461
 10
-85.2273460341
 20
2.9061881636
 10
-85.2250570887
 20
2.9059815074
 10
-85.2242921692
 20
2.9057732582
  0
LINE
  5
512
100
AcDbEntity
  8
0
100
AcDbLine
 62
7
  6
CONTINUOUS
 10
-86.5020626116
 20
-39.3138302231
 11
-86.4656105405
 21
-39.9138244674
  0
LINE
  5
513
100
AcDbEntity
  8
0
100
AcDbLine
 62
7
  6
CONTINUOUS
 10
-87.3600166984
 20
-26.7530086956
 11
-87.2848639658
 21
-28.0444284793
  0
LINE
  5
514
100
AcDbEntity
  8
0
100
AcDbLine
 62
7
  6
CONTINUOUS
 10
-86.4656105405
 20
-39.9138244674
 11
-86.4465327983
 21
-40.2553226536
  0
LINE
  5
515
100
AcDbEntity
  8
0
100
AcDbLine
 62
7
  6
CONTINUOUS
 10
-87.4060314899
 20
-25.8906568946
 11
-87.3600166984
 21
-26.7530086956
  0
LINE
  5
516
100
AcDbEntity
  8
RACCORDO
100
AcDbLine
 62
253
  6
CONTINUOUS
 10
-86.6662765083
 20
-41.1226040965
 11
-86.6501290035
 21
-41.4266341867
  0
LINE
  5
517
100
AcDbEntity
  8
RACCORDO
100
AcDbLine
 62
253
  6
CONTINUOUS
 10
-86.7706978973
 20
-41.3670619606
 11
-86.7586777647
 21
-41.6006030595
  0
LINE
  5
518
100
AcDbEntity
  8
0
100
AcDbLine
 62
7
  6
CONTINUOUS
 10
-86.4465327983
 20
-40.2553226536
 11
-86.4328467652
 21
-40.5270067705
  0
LINE
  5
519
100
AcDbEntity
  8
0
100
AcDbLine
 62
7
  6
CONTINUOUS
 10
-87.462186162
 20
-24.7396107177
 11
-87.4060314899
 21
-25.8906568946
  0
LINE
  5
51A
100
AcDbEntity
  8
RACCORDO
100
AcDbLine
 62
253
  6
CONTINUOUS
 10
-86.6501290035
 20
-41.4266341867
 11
-86.6394367495
 21
-41.6492690389
  0
LINE
  5
51B
100
AcDbEntity
  8
DRAFT
100
AcDbLine
 62
7
  6
CONTINUOUS
 10
-86.913111461
 20
-42.0021605294
 11
-86.9041303003
 21
-42.1961551679
  0
LINE
  5
51C
100
AcDbEntity
  8
RACCORDO
100
AcDbLine
 62
253
  6
CONTINUOUS
 10
-86.7586777647
 20
-41.6006030595
 11
-86.7485643653
 21
-41.8166487218
  0
LINE
  5
51D
100
AcDbEntity
  8
RACCORDO
100
AcDbLine
 62
253
  6
CONTINUOUS
 10
-87.7993231408
 20
-24.3350051265
 11
-87.7600261341
 21
-25.1890061841
  0
LINE
  5
51E
100
AcDbEntity
  8
0
100
AcDbLine
 62
7
  6
CONTINUOUS
 10
-86.4328467652
 20
-40.5270067705
 11
-86.4210689267
 21
-40.7855380617
  0
LINE
  5
51F
100
AcDbEntity
  8
0
100
AcDbLine
 62
7
  6
CONTINUOUS
 10
-87.4989693348
 20
-23.8979810814
 11
-87.462186162
 21
-24.7396107177
  0
LINE
  5
520
100
AcDbEntity
  8
RACCORDO
100
AcDbLine
 62
253
  6
CONTINUOUS
 10
-86.6394367495
 20
-41.6492690389
 11
-86.6311380412
 21
-41.8427048334
  0
LINE
  5
521
100
AcDbEntity
  8
DRAFT
100
AcDbLine
 62
7
  6
CONTINUOUS
 10
-86.9041303003
 20
-42.1961551679
 11
-86.8966076363
 21
-42.379418252
  0
LINE
  5
522
100
AcDbEntity
  8
RACCORDO
100
AcDbLine
 62
253
  6
CONTINUOUS
 10
-86.7485643653
 20
-41.8166487218
 11
-86.7409089538
 21
-42.0012324658
  0
LINE
  5
523
100
AcDbEntity
  8
0
100
AcDbLine
 62
7
  6
CONTINUOUS
 10
-86.4210689267
 20
-40.7855380617
 11
-86.4126026664
 21
-40.9935184362
  0
LINE
  5
524
100
AcDbEntity
  8
RACCORDO
100
AcDbLine
 62
253
  6
CONTINUOUS
 10
-86.6311380412
 20
-41.8427048334
 11
-86.6247697358
 21
-42.0136892817
  0
LINE
  5
525
100
AcDbEntity
  8
RACCORDO
100
AcDbLine
 62
253
  6
CONTINUOUS
 10
-86.7409089538
 20
-42.0012324658
 11
-86.7349326743
 21
-42.1686572025
  0
LINE
  5
526
100
AcDbEntity
  8
0
100
AcDbLine
 62
7
  6
CONTINUOUS
 10
-86.4126026664
 20
-40.9935184362
 11
-86.4071123195
 21
-41.148580413
  0
LINE
  5
527
100
AcDbEntity
  8
DRAFT
100
AcDbLine
 62
7
  6
CONTINUOUS
 10
-86.8966076363
 20
-42.379418252
 11
-86.8905806316
 21
-42.5520365728
  0
LINE
  5
528
100
AcDbEntity
  8
RACCORDO
100
AcDbLine
 62
253
  6
CONTINUOUS
 10
-86.7349326743
 20
-42.1686572025
 11
-86.7316948066
 21
-42.2746818929
  0
LINE
  5
529
100
AcDbEntity
  8
0
100
AcDbLine
 62
7
  6
CONTINUOUS
 10
-86.4071123195
 20
-41.148580413
 11
-86.4037139654
 21
-41.2591508307
  0
LINE
  5
52A
100
AcDbEntity
  8
RACCORDO
100
AcDbLine
 62
253
  6
CONTINUOUS
 10
-86.6247697358
 20
-42.0136892817
 11
-86.619801297
 21
-42.1732392021
  0
LWPOLYLINE
  5
52B
100
AcDbEntity
  8
DRAFT
100
AcDbPolyline
 62
7
  6
CONTINUOUS
 90
20
 70
0
 10
-86.8905806316
 20
-42.5520365728
 10
-86.8860774669
 20
-42.7140348606
 10
-86.8843993322
 20
-42.791102085
 10
-86.883109808
 20
-42.8655230865
 10
-86.8822251468
 20
-42.9371929661
 10
-86.8817513879
 20
-43.0061053425
 10
-86.8816871118
 20
-43.0722675373
 10
-86.8820375739
 20
-43.135595215
 10
-86.8828058798
 20
-43.196087012
 10
-86.883993218
 20
-43.2537451563
 10
-86.8856022325
 20
-43.308490698
 10
-86.8876330169
 20
-43.3603372058
 10
-86.8900894157
 20
-43.409271883
 10
-86.8929799912
 20
-43.4551762287
 10
-86.8963113322
 20
-43.4980235252
 10
-86.9000804538
 20
-43.5378411684
 10
-86.9042818138
 20
-43.5745918131
 10
-86.9089146995
 20
-43.608263195
 10
-86.9139829839
 20
-43.6388681263
 10
-86.9194879909
 20
-43.6664068456
  0
LINE
  5
52C
100
AcDbEntity
  8
0
100
AcDbLine
 62
7
  6
CONTINUOUS
 10
-86.4037139654
 20
-41.2591508307
 11
-86.4009033164
 21
-41.366273496
  0
LINE
  5
52D
100
AcDbEntity
  8
RACCORDO
100
AcDbLine
 62
253
  6
CONTINUOUS
 10
-86.7316948066
 20
-42.2746818929
 11
-86.7290357998
 21
-42.3783606652
  0
LINE
  5
52E
100
AcDbEntity
  8
RACCORDO
100
AcDbLine
 62
253
  6
CONTINUOUS
 10
-86.619801297
 20
-42.1732392021
 11
-86.6172009811
 21
-42.2762949237
  0
LINE
  5
52F
100
AcDbEntity
  8
0
100
AcDbLine
 62
7
  6
CONTINUOUS
 10
-86.4009033164
 20
-41.366273496
 11
-86.3986820786
 21
-41.4697233274
  0
LINE
  5
530
100
AcDbEntity
  8
RACCORDO
100
AcDbLine
 62
253
  6
CONTINUOUS
 10
-86.7290357998
 20
-42.3783606652
 11
-86.7269916111
 21
-42.4805044431
  0
LINE
  5
531
100
AcDbEntity
  8
RACCORDO
100
AcDbLine
 62
253
  6
CONTINUOUS
 10
-86.6172009811
 20
-42.2762949237
 11
-86.6152168323
 21
-42.3778043376
  0
LINE
  5
532
100
AcDbEntity
  8
0
100
AcDbLine
 62
7
  6
CONTINUOUS
 10
-86.3976699824
 20
41.0663805498
 11
-86.3967010863
 21
41.0057835764
  0
LINE
  5
533
100
AcDbEntity
  8
0
100
AcDbLine
 62
7
  6
CONTINUOUS
 10
-86.3986820786
 20
-41.4697233274
 11
-86.3971432395
 21
-41.5668568874
  0
LINE
  5
534
100
AcDbEntity
  8
RACCORDO
100
AcDbLine
 62
253
  6
CONTINUOUS
 10
-86.7269916111
 20
-42.4805044431
 11
-86.7256348827
 21
-42.5822523059
  0
LINE
  5
535
100
AcDbEntity
  8
RACCORDO
100
AcDbLine
 62
253
  6
CONTINUOUS
 10
-86.6152168323
 20
-42.3778043376
 11
-86.6139166906
 21
-42.4788875151
  0
LINE
  5
536
100
AcDbEntity
  8
0
100
AcDbLine
 62
7
  6
CONTINUOUS
 10
-86.3971432395
 20
-41.5668568874
 11
-86.3962832907
 21
-41.6568219416
  0
LINE
  5
537
100
AcDbEntity
  8
0
100
AcDbLine
 62
7
  6
CONTINUOUS
 10
-86.3967010863
 20
41.0057835764
 11
-86.3961826908
 21
40.9455907437
  0
LWPOLYLINE
  5
538
100
AcDbEntity
  8
RACCORDO
100
AcDbPolyline
 62
253
  6
CONTINUOUS
 90
16
 70
0
 10
-86.7256348827
 20
-42.5822523059
 10
-86.7250221913
 20
-42.6841342446
 10
-86.7250422375
 20
-42.7348964022
 10
-86.7253282072
 20
-42.7857085067
 10
-86.7259109667
 20
-42.8363845452
 10
-86.7268169576
 20
-42.8866470208
 10
-86.7280891907
 20
-42.9364986941
 10
-86.7297717213
 20
-42.9856124769
 10
-86.7318921684
 20
-43.0337079975
 10
-86.7344827713
 20
-43.0807418266
 10
-86.7375736452
 20
-43.1263205645
 10
-86.7412262535
 20
-43.1701042796
 10
-86.745537566
 20
-43.2119906662
 10
-86.750581698
 20
-43.2516350423
 10
-86.7564001715
 20
-43.2885264641
 10
-86.7630512625
 20
-43.3222408901
  0
LWPOLYLINE
  5
539
100
AcDbEntity
  8
RACCORDO
100
AcDbPolyline
 62
253
  6
CONTINUOUS
 90
16
 70
0
 10
-86.6139166906
 20
-42.4788875151
 10
-86.6133555811
 20
-42.5802095981
 10
-86.6133987895
 20
-42.6306265447
 10
-86.6137056417
 20
-42.6811359914
 10
-86.614310148
 20
-42.7315136883
 10
-86.6152365627
 20
-42.781441819
 10
-86.6165257594
 20
-42.8310175573
 10
-86.618215771
 20
-42.8798184807
 10
-86.6203407561
 20
-42.9275563985
 10
-86.622948973
 20
-42.974387417
 10
-86.6260565522
 20
-43.019730813
 10
-86.6297054413
 20
-43.0631769386
 10
-86.6340073893
 20
-43.1048297016
 10
-86.6390449117
 20
-43.1442814367
 10
-86.6448495104
 20
-43.1809166178
 10
-86.6514788808
 20
-43.2144235553
  0
LINE
  5
53A
100
AcDbEntity
  8
0
100
AcDbLine
 62
7
  6
CONTINUOUS
 10
-86.3962832907
 20
-41.6568219416
 11
-86.396040107
 21
-41.7152234862
  0
LWPOLYLINE
  5
53B
100
AcDbEntity
  8
0
100
AcDbPolyline
 62
7
  6
CONTINUOUS
 90
10
 70
0
 10
-87.9898160942
 20
-0.4264068131
 10
-87.9837493005
 20
-3.0375865127
 10
-87.9655518829
 20
-5.6485632884
 10
-87.9352286016
 20
-8.258983484
 10
-87.8927843107
 20
-10.8685491657
 10
-87.8382238923
 20
-13.4771141033
 10
-87.7715526118
 20
-16.0845522215
 10
-87.6927770655
 20
-18.690717356
 10
-87.6019106482
 20
-21.2953115455
 10
-87.4989692914
 20
-23.8979810793
  0
LINE
  5
53C
100
AcDbEntity
  8
0
100
AcDbLine
 62
7
  6
CONTINUOUS
 10
-86.3961826908
 20
40.9455907437
 11
-86.3960220873
 21
40.8859067221
  0
LWPOLYLINE
  5
53D
100
AcDbEntity
  8
RACCORDO
100
AcDbPolyline
 62
253
  6
CONTINUOUS
 90
19
 70
0
 10
-88.4302418805
 20
-0.4264068131
 10
-88.429112305
 20
-1.5537963052
 10
-88.4255572754
 20
-2.7221830641
 10
-88.4193216499
 20
-3.9315382275
 10
-88.4101625725
 20
-5.1793175153
 10
-88.3977974142
 20
-6.4679886377
 10
-88.3818462476
 20
-7.80502851
 10
-88.3617160076
 20
-9.2062467837
 10
-88.3372154023
 20
-10.655709284
 10
-88.3088053321
 20
-12.1132879561
 10
-88.2763220389
 20
-13.5832048765
 10
-88.2397781984
 20
-15.0611559391
 10
-88.2006215223
 20
-16.4942864454
 10
-88.159693547
 20
-17.8664909788
 10
-88.1169019212
 20
-19.19387846
 10
-88.0727233027
 20
-20.471969458
 10
-88.027549461
 20
-21.699283335
 10
-87.9816520543
 20
-22.8773326355
 10
-87.9280761681
 20
-24.1771318932
  0
LWPOLYLINE
  5
53E
100
AcDbEntity
  8
RACCORDO
100
AcDbPolyline
 62
253
  6
CONTINUOUS
 90
19
 70
0
 10
-88.3085327336
 20
-0.4264068131
 10
-88.3074028632
 20
-1.5532747446
 10
-88.3038502394
 20
-2.7210632851
 10
-88.2976193355
 20
-3.9297677946
 10
-88.2884665733
 20
-5.1769152674
 10
-88.276108838
 20
-6.4649721425
 10
-88.2601668455
 20
-7.8013426222
 10
-88.2400489263
 20
-9.2018309294
 10
-88.215563599
 20
-10.6505717607
 10
-88.187170664
 20
-12.1074571961
 10
-88.1547067529
 20
-13.5766539894
 10
-88.1181862598
 20
-15.0538231848
 10
-88.0790564467
 20
-16.4861561648
 10
-88.0381566814
 20
-17.8576058961
 10
-87.9953937554
 20
-19.1842713862
 10
-87.9512455441
 20
-20.4616277881
 10
-87.9061040384
 20
-21.6882015995
 10
-87.8602393459
 20
-22.8655659323
 10
-87.7993231408
 20
-24.3350051265
  0
LWPOLYLINE
  5
53F
100
AcDbEntity
  8
RACCORDO
100
AcDbPolyline
 62
253
  6
CONTINUOUS
 90
20
 70
0
 10
-88.9058913006
 20
41.9469120388
 10
-88.9058117488
 20
42.0015406729
 10
-88.9060039454
 20
42.0560412901
 10
-88.906491324
 20
42.1098419797
 10
-88.907278867
 20
42.1620335448
 10
-88.9083781924
 20
42.2126931373
 10
-88.909796245
 20
42.2615206154
 10
-88.9114942892
 20
42.3073066711
 10
-88.9134447929
 20
42.3499087243
 10
-88.9156422063
 20
42.3896363771
 10
-88.9180490558
 20
42.4262144092
 10
-88.9206378792
 20
42.4597829409
 10
-88.9233901342
 20
42.4905780413
 10
-88.9262692989
 20
42.5185975503
 10
-88.9292509389
 20
42.5440426599
 10
-88.9323115272
 20
42.5671038944
 10
-88.9354092309
 20
42.587813703
 10
-88.9385125004
 20
42.6063233833
 10
-88.941604415
 20
42.6228691739
 10
-88.944663347
 20
42.6376226651
  0
LINE
  5
540
100
AcDbEntity
  8
0
100
AcDbLine
 62
7
  6
CONTINUOUS
 10
-86.396040107
 20
-41.7152234862
 11
-86.396079933
 21
-41.7740635887
  0
LINE
  5
541
100
AcDbEntity
  8
0
100
AcDbLine
 62
7
  6
CONTINUOUS
 10
-86.3960220873
 20
40.8859067221
 11
-86.3961573284
 21
40.826573512
  0
LINE
  5
542
100
AcDbEntity
  8
RACCORDO
100
AcDbLine
 62
253
  6
CONTINUOUS
 10
-86.6133525652
 20
41.7299260799
 11
-86.6138898182
 21
41.6289522297
  0
LINE
  5
543
100
AcDbEntity
  8
0
100
AcDbLine
 62
7
  6
CONTINUOUS
 10
-86.396079933
 20
-41.7740635887
 11
-86.3964342492
 21
-41.8333422695
  0
LINE
  5
544
100
AcDbEntity
  8
RACCORDO
100
AcDbLine
 62
253
  6
CONTINUOUS
 10
-86.725018117
 20
41.8338640472
 11
-86.7256063772
 21
41.7323332343
  0
LINE
  5
545
100
AcDbEntity
  8
0
100
AcDbLine
 62
7
  6
CONTINUOUS
 10
-86.3961573284
 20
40.826573512
 11
-86.3968753211
 21
40.7365887932
  0
LINE
  5
546
100
AcDbEntity
  8
RACCORDO
100
AcDbLine
 62
253
  6
CONTINUOUS
 10
-86.6138898182
 20
41.6289522297
 11
-86.6151671167
 21
41.5280637414
  0
LWPOLYLINE
  5
547
100
AcDbEntity
  8
0
100
AcDbPolyline
 62
7
  6
CONTINUOUS
 90
20
 70
0
 10
-86.3964342492
 20
-41.8333422695
 10
-86.3971934152
 20
-41.8930238369
 10
-86.3977462156
 20
-41.9229967055
 10
-86.3984194112
 20
-41.9529635854
 10
-86.3992264762
 20
-41.9830179177
 10
-86.400181987
 20
-42.0130633346
 10
-86.4012964948
 20
-42.0429993383
 10
-86.4025874999
 20
-42.0729065607
 10
-86.4040750748
 20
-42.1027889831
 10
-86.4057739703
 20
-42.1324345429
 10
-86.4076874206
 20
-42.1615970984
 10
-86.4098196411
 20
-42.1902266377
 10
-86.4121750342
 20
-42.2181357751
 10
-86.4147446244
 20
-42.2449111743
 10
-86.4175489422
 20
-42.2704943661
 10
-86.4205882905
 20
-42.2947517317
 10
-86.4238118165
 20
-42.3173020643
 10
-86.4271939072
 20
-42.3380909698
 10
-86.4307411396
 20
-42.3572840191
 10
-86.4344283733
 20
-42.3749236606
  0
LINE
  5
548
100
AcDbEntity
  8
RACCORDO
100
AcDbLine
 62
253
  6
CONTINUOUS
 10
-86.7256063772
 20
41.7323332343
 11
-86.7269401823
 21
41.6307824763
  0
LINE
  5
549
100
AcDbEntity
  8
0
100
AcDbLine
 62
7
  6
CONTINUOUS
 10
-86.3968753211
 20
40.7365887932
 11
-86.3982520965
 21
40.6407322108
  0
LINE
  5
54A
100
AcDbEntity
  8
RACCORDO
100
AcDbLine
 62
253
  6
CONTINUOUS
 10
-86.6151671167
 20
41.5280637414
 11
-86.6171337335
 21
41.4264725661
  0
LINE
  5
54B
100
AcDbEntity
  8
RACCORDO
100
AcDbLine
 62
253
  6
CONTINUOUS
 10
-86.7269401823
 20
41.6307824763
 11
-86.7289666521
 21
41.5285630785
  0
LINE
  5
54C
100
AcDbEntity
  8
0
100
AcDbLine
 62
7
  6
CONTINUOUS
 10
-86.3982520965
 20
40.6407322108
 11
-86.4003428759
 21
40.5372593798
  0
LINE
  5
54D
100
AcDbEntity
  8
DRAFT
100
AcDbLine
 62
7
  6
CONTINUOUS
 10
-86.8844383182
 20
41.9363448029
 11
-86.8882302462
 21
41.7782279294
  0
LINE
  5
54E
100
AcDbEntity
  8
RACCORDO
100
AcDbLine
 62
253
  6
CONTINUOUS
 10
-86.6171337335
 20
41.4264725661
 11
-86.6197175912
 21
41.3234412151
  0
LINE
  5
54F
100
AcDbEntity
  8
0
100
AcDbLine
 62
7
  6
CONTINUOUS
 10
-86.4003428759
 20
40.5372593798
 11
-86.4030635788
 21
40.4296277175
  0
LINE
  5
550
100
AcDbEntity
  8
RACCORDO
100
AcDbLine
 62
253
  6
CONTINUOUS
 10
-86.7289666521
 20
41.5285630785
 11
-86.7316091626
 21
41.4249064836
  0
LINE
  5
551
100
AcDbEntity
  8
0
100
AcDbLine
 62
7
  6
CONTINUOUS
 10
-86.4030635788
 20
40.4296277175
 11
-86.4075995623
 21
40.2809751488
  0
LINE
  5
552
100
AcDbEntity
  8
RACCORDO
100
AcDbLine
 62
253
  6
CONTINUOUS
 10
-86.6197175912
 20
41.3234412151
 11
-86.6246374824
 21
41.1647488328
  0
LINE
  5
553
100
AcDbEntity
  8
DRAFT
100
AcDbLine
 62
7
  6
CONTINUOUS
 10
-86.8882302462
 20
41.7782279294
 11
-86.8935668361
 21
41.6096058991
  0
LINE
  5
554
100
AcDbEntity
  8
RACCORDO
100
AcDbLine
 62
253
  6
CONTINUOUS
 10
-86.7316091626
 20
41.4249064836
 11
-86.7366328651
 21
41.2652266616
  0
LWPOLYLINE
  5
555
100
AcDbEntity
  8
DRAFT
100
AcDbPolyline
 62
7
  6
CONTINUOUS
 90
15
 70
0
 10
-88.2484848007
 20
20.0241818446
 10
-88.3540469651
 20
16.8818284753
 10
-88.4420318465
 20
13.7376376999
 10
-88.5124466145
 20
10.5913272297
 10
-88.565269631
 20
7.4434293988
 10
-88.6004761457
 20
4.295291648
 10
-88.618072757
 20
1.1474978137
 10
-88.6180728327
 20
-2.0002839586
 10
-88.6004763632
 20
-5.1480793396
 10
-88.5652699454
 20
-8.2962207686
 10
-88.5124469502
 20
-11.4441238233
 10
-88.4420321492
 20
-14.5904393067
 10
-88.3540472047
 20
-17.7346342997
 10
-88.2484849381
 20
-20.8769916756
 10
-88.1253443252
 20
-24.0173868131
  0
LWPOLYLINE
  5
556
100
AcDbEntity
  8
0
100
AcDbPolyline
 62
7
  6
CONTINUOUS
 90
9
 70
0
 10
-87.6019106482
 20
20.4424979196
 10
-87.6927770654
 20
17.8379037301
 10
-87.7715526118
 20
15.2317385957
 10
-87.8382238923
 20
12.6243004773
 10
-87.8927843107
 20
10.0157355395
 10
-87.9352286017
 20
7.4061698576
 10
-87.9655518829
 20
4.795749662
 10
-87.9837493005
 20
2.1847728864
 10
-87.9898160942
 20
-0.4264068131
  0
LINE
  5
557
100
AcDbEntity
  8
0
100
AcDbLine
 62
7
  6
CONTINUOUS
 10
-86.4075995623
 20
40.2809751488
 11
-86.4132456124
 21
40.1238684918
  0
LWPOLYLINE
  5
558
100
AcDbEntity
  8
RACCORDO
100
AcDbPolyline
 62
253
  6
CONTINUOUS
 90
18
 70
0
 10
-87.9816043929
 20
22.0257099167
 10
-88.0271717172
 20
20.8564326087
 10
-88.071782679
 20
19.6454797522
 10
-88.1150835319
 20
18.3953905645
 10
-88.1568937759
 20
17.1036100311
 10
-88.197147447
 20
15.7624814617
 10
-88.2359413153
 20
14.3549296224
 10
-88.272373144
 20
12.8980155219
 10
-88.3051431706
 20
11.4353209147
 10
-88.3342614676
 20
9.9639893769
 10
-88.3596157317
 20
8.4869376861
 10
-88.3804687513
 20
7.0564731593
 10
-88.3969933399
 20
5.6895750898
 10
-88.409798539
 20
4.3693930004
 10
-88.4192042861
 20
3.0975096636
 10
-88.4255363996
 20
1.8744799902
 10
-88.4291146159
 20
0.6998313534
 10
-88.4302418805
 20
-0.4264068131
  0
LWPOLYLINE
  5
559
100
AcDbEntity
  8
RACCORDO
100
AcDbPolyline
 62
253
  6
CONTINUOUS
 90
18
 70
0
 10
-87.8601923484
 20
22.0139274655
 10
-87.9057275822
 20
20.8453189772
 10
-87.9503068256
 20
19.6350882331
 10
-87.9935779418
 20
18.3857121053
 10
-88.0353601002
 20
17.0946318782
 10
-88.075585838
 20
15.7542452801
 10
-88.1143527762
 20
14.3474873553
 10
-88.1507610017
 20
12.8913539501
 10
-88.1835111578
 20
11.4293835157
 10
-88.2126116052
 20
9.9587607203
 10
-88.2379499084
 20
8.4824532597
 10
-88.2587901682
 20
7.0527372457
 10
-88.2753052834
 20
5.6865235736
 10
-88.2881027882
 20
4.3669712224
 10
-88.2975020306
 20
3.0957320813
 10
-88.3038293424
 20
1.8733603304
 10
-88.3074051445
 20
0.6993119142
 10
-88.3085327336
 20
-0.4264068131
  0
LINE
  5
55A
100
AcDbEntity
  8
RACCORDO
100
AcDbLine
 62
253
  6
CONTINUOUS
 10
-86.6246374824
 20
41.1647488328
 11
-86.6308569858
 21
40.9969187705
  0
LINE
  5
55B
100
AcDbEntity
  8
RACCORDO
100
AcDbLine
 62
253
  6
CONTINUOUS
 10
-86.7366328651
 20
41.2652266616
 11
-86.7429637886
 21
41.0963637767
  0
LINE
  5
55C
100
AcDbEntity
  8
DRAFT
100
AcDbLine
 62
7
  6
CONTINUOUS
 10
-86.8935668361
 20
41.6096058991
 11
-86.9004153579
 21
41.4307306167
  0
LINE
  5
55D
100
AcDbEntity
  8
0
100
AcDbLine
 62
7
  6
CONTINUOUS
 10
-86.4132456124
 20
40.1238684918
 11
-86.4218653099
 21
39.9143479754
  0
LINE
  5
55E
100
AcDbEntity
  8
0
100
AcDbLine
 62
7
  6
CONTINUOUS
 10
-87.4774485325
 20
23.5477725809
 11
-87.6019106482
 21
20.4424979196
  0
LINE
  5
55F
100
AcDbEntity
  8
RACCORDO
100
AcDbLine
 62
253
  6
CONTINUOUS
 10
-87.9130851344
 20
23.666449286
 11
-87.9816043929
 21
22.0257099167
  0
LINE
  5
560
100
AcDbEntity
  8
RACCORDO
100
AcDbLine
 62
253
  6
CONTINUOUS
 10
-86.6308569858
 20
40.9969187705
 11
-86.6387919031
 21
40.8106739929
  0
LINE
  5
561
100
AcDbEntity
  8
RACCORDO
100
AcDbLine
 62
253
  6
CONTINUOUS
 10
-86.7429637886
 20
41.0963637767
 11
-86.7510204552
 21
40.9090880732
  0
LINE
  5
562
100
AcDbEntity
  8
RACCORDO
100
AcDbLine
 62
253
  6
CONTINUOUS
 10
-87.7840671413
 20
23.8236663536
 11
-87.8601923484
 21
22.0139274655
  0
LINE
  5
563
100
AcDbEntity
  8
DRAFT
100
AcDbLine
 62
7
  6
CONTINUOUS
 10
-86.9004153579
 20
41.4307306167
 11
-86.9087191011
 21
41.2416533477
  0
LINE
  5
564
100
AcDbEntity
  8
0
100
AcDbLine
 62
7
  6
CONTINUOUS
 10
-86.4218653099
 20
39.9143479754
 11
-86.4338291193
 21
39.6537341523
  0
LINE
  5
565
100
AcDbEntity
  8
0
100
AcDbLine
 62
7
  6
CONTINUOUS
 10
-87.437877344
 20
24.4012689732
 11
-87.4774485325
 21
23.5477725809
  0
LINE
  5
566
100
AcDbEntity
  8
RACCORDO
100
AcDbLine
 62
253
  6
CONTINUOUS
 10
-86.6387919031
 20
40.8106739929
 11
-86.6491493949
 21
40.5933417995
  0
LINE
  5
567
100
AcDbEntity
  8
RACCORDO
100
AcDbLine
 62
253
  6
CONTINUOUS
 10
-87.7432289078
 20
24.6780145253
 11
-87.7840671413
 21
23.8236663536
  0
LINE
  5
568
100
AcDbEntity
  8
RACCORDO
100
AcDbLine
 62
253
  6
CONTINUOUS
 10
-86.7510204552
 20
40.9090880732
 11
-86.7615246949
 21
40.6905870471
  0
LINE
  5
569
100
AcDbEntity
  8
DRAFT
100
AcDbLine
 62
7
  6
CONTINUOUS
 10
-86.9087191011
 20
41.2416533477
 11
-86.9184364049
 21
41.0423610723
  0
LINE
  5
56A
100
AcDbEntity
  8
0
100
AcDbLine
 62
7
  6
CONTINUOUS
 10
-87.3834342965
 20
25.4691460253
 11
-87.437877344
 21
24.4012689732
  0
LINE
  5
56B
100
AcDbEntity
  8
0
100
AcDbLine
 62
7
  6
CONTINUOUS
 10
-86.4338291193
 20
39.6537341523
 11
-86.4474123349
 21
39.3859686542
  0
LINE
  5
56C
100
AcDbEntity
  8
RACCORDO
100
AcDbLine
 62
253
  6
CONTINUOUS
 10
-86.7615246949
 20
40.6905870471
 11
-86.7742350277
 21
40.448978206
  0
LWPOLYLINE
  5
56D
100
AcDbEntity
  8
RACCORDO
100
AcDbPolyline
 62
253
  6
CONTINUOUS
 90
3
 70
0
 10
-86.6491493949
 20
40.5933417995
 10
-86.6660703119
 20
40.2734881666
 10
-86.6704573809
 20
40.1955870545
  0
LINE
  5
56E
100
AcDbEntity
  8
0
100
AcDbLine
 62
7
  6
CONTINUOUS
 10
-86.4474123349
 20
39.3859686542
 11
-86.4660926754
 21
39.0527461673
  0
LINE
  5
56F
100
AcDbEntity
  8
0
100
AcDbLine
 62
7
  6
CONTINUOUS
 10
-87.3107287438
 20
26.7614558086
 11
-87.3834342965
 21
25.4691460253
  0
LINE
  5
570
100
AcDbEntity
  8
0
100
AcDbLine
 62
7
  6
CONTINUOUS
 10
-87.2581890251
 20
27.6214275027
 11
-87.3107287438
 21
26.7614558086
  0
LWPOLYLINE
  5
571
100
AcDbEntity
  8
0
100
AcDbPolyline
 62
7
  6
CONTINUOUS
 90
3
 70
0
 10
-86.4660926754
 20
39.0527461673
 10
-86.5090587725
 20
38.3500580677
 10
-86.5153118614
 20
38.2519244574
  0
LWPOLYLINE
  5
572
100
AcDbEntity
  8
RACCORDO
100
AcDbPolyline
 62
253
  6
CONTINUOUS
 90
11
 70
0
 10
-83.4043715331
 20
-4.3425587096
 10
-83.4058195715
 20
-4.3254846234
 10
-83.4080872955
 20
-4.3095391208
 10
-83.4111515442
 20
-4.2948850575
 10
-83.4149810216
 20
-4.2816720992
 10
-83.4195366164
 20
-4.2700351932
 10
-83.424771801
 20
-4.2600931905
 10
-83.4306331072
 20
-4.2519476313
 10
-83.4370606719
 20
-4.2456817085
 10
-83.4439888489
 20
-4.2413594175
 10
-83.4513468788
 20
-4.2390249031
  0
LWPOLYLINE
  5
573
100
AcDbEntity
  8
RACCORDO
100
AcDbPolyline
 62
253
  6
CONTINUOUS
 90
19
 70
0
 10
-85.3731741445
 20
-3.7608910588
 10
-85.3719795138
 20
-3.7914104026
 10
-85.3685098397
 20
-3.8214576403
 10
-85.3627655956
 20
-3.8510321817
 10
-85.3547127048
 20
-3.8802856455
 10
-85.3443870145
 20
-3.9090652291
 10
-85.3318943158
 20
-3.936913785
 10
-85.317202754
 20
-3.9638372579
 10
-85.3003476238
 20
-3.9898287316
 10
-85.2815357307
 20
-4.0144119912
 10
-85.2607262228
 20
-4.037580751
 10
-85.2379646255
 20
-4.0593407398
 10
-85.2135871705
 20
-4.0792341167
 10
-85.1875541611
 20
-4.0972358557
 10
-85.1599104086
 20
-4.1133710195
 10
-85.1311181166
 20
-4.1272573337
 10
-85.1013325267
 20
-4.1387676883
 10
-85.0704026661
 20
-4.1480299246
 10
-85.038330864
 20
-4.1550444527
  0
LINE
  5
574
100
AcDbEntity
  8
RACCORDO
100
AcDbLine
 62
253
  6
CONTINUOUS
 10
-83.4107884208
 20
-43.1201216105
 11
-83.4106942084
 21
-43.1245479782
  0
LINE
  5
575
100
AcDbEntity
  8
RACCORDO
100
AcDbLine
 62
253
  6
CONTINUOUS
 10
-83.422297575
 20
-41.8951689371
 11
-83.4107884208
 21
-43.1201216105
  0
LINE
  5
576
100
AcDbEntity
  8
RACCORDO
100
AcDbLine
 62
253
  6
CONTINUOUS
 10
-83.423515859
 20
-41.6455206483
 11
-83.422297575
 21
-41.8951689371
  0
LINE
  5
577
100
AcDbEntity
  8
RACCORDO
100
AcDbLine
 62
253
  6
CONTINUOUS
 10
-83.4177799588
 20
21.6524594784
 11
-83.4108191038
 21
8.8299976381
  0
LINE
  5
578
100
AcDbEntity
  8
RACCORDO
100
AcDbLine
 62
253
  6
CONTINUOUS
 10
-83.4108191038
 20
8.8299976381
 11
-83.4096453143
 21
3.5856398384
  0
LINE
  5
579
100
AcDbEntity
  8
RACCORDO
100
AcDbLine
 62
7
  6
CONTINUOUS
 10
-85.2242921692
 20
-3.7585868868
 11
-85.2242921692
 21
2.9057732607
  0
LINE
  5
57A
100
AcDbEntity
  8
RACCORDO
100
AcDbLine
 62
7
  6
CONTINUOUS
 10
-83.2242921692
 20
41.9940735819
 11
-83.2242921692
 21
3.5940670746
  0
LINE
  5
57B
100
AcDbEntity
  8
RACCORDO
100
AcDbLine
 62
7
  6
CONTINUOUS
 10
-83.2242921692
 20
-4.4468807007
 11
-83.2242921692
 21
-42.846887208
  0
LINE
  5
57C
100
AcDbEntity
  8
RACCORDO
100
AcDbLine
 62
253
  6
CONTINUOUS
 10
-85.3731741445
 20
-3.7608910588
 11
-85.3731741444
 21
2.9080774334
  0
LINE
  5
57D
100
AcDbEntity
  8
RACCORDO
100
AcDbLine
 62
253
  6
CONTINUOUS
 10
-83.4232073558
 20
28.3100155356
 11
-83.4177799588
 21
21.6524594784
  0
LINE
  5
57E
100
AcDbEntity
  8
RACCORDO
100
AcDbLine
 62
253
  6
CONTINUOUS
 10
-83.4235207729
 20
40.7913661986
 11
-83.4233432435
 21
36.2526763797
  0
LINE
  5
57F
100
AcDbEntity
  8
RACCORDO
100
AcDbLine
 62
253
  6
CONTINUOUS
 10
-83.4233432435
 20
36.2526763797
 11
-83.4232073558
 21
28.3100155356
  0
LINE
  5
580
100
AcDbEntity
  8
RACCORDO
100
AcDbLine
 62
253
  6
CONTINUOUS
 10
-83.4096470644
 20
-4.4384531367
 11
-83.4219554983
 21
-27.6937957965
  0
LINE
  5
581
100
AcDbEntity
  8
RACCORDO
100
AcDbLine
 62
253
  6
CONTINUOUS
 10
-83.4219554983
 20
-27.6937957965
 11
-83.4235207729
 21
-41.6441798247
  0
LINE
  5
582
100
AcDbEntity
  8
RACCORDO
100
AcDbLine
 62
253
  6
CONTINUOUS
 10
-83.4212801323
 20
41.1883528721
 11
-83.423515859
 21
40.7927070221
  0
LINE
  5
583
100
AcDbEntity
  8
RACCORDO
100
AcDbLine
 62
253
  6
CONTINUOUS
 10
-83.4107884208
 20
42.2673079844
 11
-83.4212722296
 21
41.1891788587
  0
LINE
  5
584
100
AcDbEntity
  8
RACCORDO
100
AcDbLine
 62
253
  6
CONTINUOUS
 10
-83.4106942084
 20
42.2717343521
 11
-83.4107884208
 21
42.2673079844
  0
LWPOLYLINE
  5
585
100
AcDbEntity
  8
RACCORDO
100
AcDbPolyline
 62
253
  6
CONTINUOUS
 90
11
 70
0
 10
-83.4043714643
 20
3.4897450661
 10
-83.4058195055
 20
3.4726709728
 10
-83.4080872331
 20
3.4567254649
 10
-83.411151486
 20
3.4420713981
 10
-83.4149809684
 20
3.4288584384
 10
-83.4195365686
 20
3.4172215333
 10
-83.424771759
 20
3.4072795336
 10
-83.4306330713
 20
3.3991339796
 10
-83.4370606423
 20
3.3928680642
 10
-83.4439888255
 20
3.3885457828
 10
-83.4513468614
 20
3.38621128
  0
LWPOLYLINE
  5
586
100
AcDbEntity
  8
RACCORDO
100
AcDbPolyline
 62
253
  6
CONTINUOUS
 90
6
 70
0
 10
-83.4096452194
 20
-4.4384534637
 10
-83.4069438808
 20
-4.4185184304
 10
-83.4050507449
 20
-4.3987618023
 10
-83.4039851466
 20
-4.3793853591
 10
-83.4037579693
 20
-4.3605869973
 10
-83.4043715331
 20
-4.3425587096
  0
LWPOLYLINE
  5
587
100
AcDbEntity
  8
RACCORDO
100
AcDbPolyline
 62
253
  6
CONTINUOUS
 90
16
 70
0
 10
-85.0383885675
 20
-4.1553463887
 10
-85.0353025552
 20
-4.1350530236
 10
-85.0328399791
 20
-4.1149779323
 10
-85.0310237248
 20
-4.0953318632
 10
-85.0298701322
 20
-4.0763296837
 10
-85.029386788
 20
-4.0581561402
 10
-85.0295762651
 20
-4.0409688793
 10
-85.0304372522
 20
-4.0249389765
 10
-85.0319608239
 20
-4.0102440828
 10
-85.0341310364
 20
-3.9970379979
 10
-85.0369251763
 20
-3.9854589334
 10
-85.0403140052
 20
-3.975628055
 10
-85.0442620654
 20
-3.9676482348
 10
-85.0487280451
 20
-3.9616029891
 10
-85.0536652083
 20
-3.9575555962
 10
-85.0590218893
 20
-3.9555484225
  0
LWPOLYLINE
  5
588
100
AcDbEntity
  8
RACCORDO
100
AcDbPolyline
 62
253
  6
CONTINUOUS
 90
8
 70
0
 10
-83.2242921693
 20
-4.446880691
 10
-83.2244854847
 20
-4.4469685377
 10
-83.2250872451
 20
-4.4470312693
 10
-83.2261301967
 20
-4.4470686559
 10
-83.2276504423
 20
-4.4470819753
 10
-83.2296793223
 20
-4.4470693806
 10
-83.2322347285
 20
-4.4470259179
 10
-83.2353410777
 20
-4.4469504624
  0
LWPOLYLINE
  5
589
100
AcDbEntity
  8
RACCORDO
100
AcDbPolyline
 62
253
  6
CONTINUOUS
 90
13
 70
0
 10
-91.8546454672
 20
22.7915999135
 10
-91.8537906893
 20
22.789636493
 10
-91.8530003918
 20
22.786440165
 10
-91.8522746063
 20
22.7820109283
 10
-91.8516142436
 20
22.7763274128
 10
-91.8510184263
 20
22.7694109852
 10
-91.8504844931
 20
22.7613257492
 10
-91.8500122047
 20
22.7520752899
 10
-91.849601788
 20
22.7416560166
 10
-91.8492512794
 20
22.7301212683
 10
-91.8489604787
 20
22.7174769723
 10
-91.8487295364
 20
22.703717194
 10
-91.8485570129
 20
22.6888774792
  0
LWPOLYLINE
  5
58A
100
AcDbEntity
  8
RACCORDO
100
AcDbPolyline
 62
253
  6
CONTINUOUS
 90
6
 70
0
 10
-83.4096451508
 20
3.5856398709
 10
-83.4069438104
 20
3.5657048264
 10
-83.4050506735
 20
3.5459481874
 10
-83.4039850751
 20
3.5265717337
 10
-83.4037578987
 20
3.5077733623
 10
-83.4043714643
 20
3.4897450661
  0
LWPOLYLINE
  5
58B
100
AcDbEntity
  8
RACCORDO
100
AcDbPolyline
 62
253
  6
CONTINUOUS
 90
4
 70
0
 10
-83.2242921692
 20
40.5117027316
 10
-83.2258621604
 20
40.5421849473
 10
-83.2305557019
 20
40.5723481175
 10
-83.2383236683
 20
40.6018765362
  0
LWPOLYLINE
  5
58C
100
AcDbEntity
  8
RACCORDO
100
AcDbPolyline
 62
253
  6
CONTINUOUS
 90
6
 70
0
 10
-83.2242921692
 20
40.9078644372
 10
-83.2258419155
 20
40.9382706219
 10
-83.2304751429
 20
40.9683626608
 10
-83.2381439825
 20
40.9978296537
 10
-83.2487692027
 20
41.0263671582
 10
-83.2622410274
 20
41.053680335
  0
LWPOLYLINE
  5
58D
100
AcDbEntity
  8
RACCORDO
100
AcDbPolyline
 62
253
  6
CONTINUOUS
 90
13
 70
0
 10
-83.2242921692
 20
41.6377177879
 10
-83.2257783171
 20
41.6675268619
 10
-83.2302220366
 20
41.6970405979
 10
-83.2375793009
 20
41.7259665841
 10
-83.2477772169
 20
41.7540182319
 10
-83.260714747
 20
41.7809176153
 10
-83.2762637108
 20
41.8063982245
 10
-83.2942700545
 20
41.8302076064
 10
-83.3145553775
 20
41.8521098661
 10
-83.3369186998
 20
41.8718880034
 10
-83.3611384535
 20
41.8893460635
 10
-83.3869746775
 20
41.904311078
 10
-83.4141713956
 20
41.9166347787
  0
LWPOLYLINE
  5
58E
100
AcDbEntity
  8
RACCORDO
100
AcDbPolyline
 62
253
  6
CONTINUOUS
 90
13
 70
0
 10
-83.2242921692
 20
-42.490531414
 10
-83.2257783169
 20
-42.5203404881
 10
-83.2302220363
 20
-42.5498542242
 10
-83.2375793005
 20
-42.5787802106
 10
-83.2477772163
 20
-42.6068318585
 10
-83.2607147464
 20
-42.6337312421
 10
-83.2762637101
 20
-42.6592118514
 10
-83.2942700538
 20
-42.6830212335
 10
-83.3145553767
 20
-42.7049234933
 10
-83.3369186991
 20
-42.7247016307
 10
-83.3611384527
 20
-42.742159691
 10
-83.3869746768
 20
-42.7571247055
 10
-83.414171395
 20
-42.7694484063
  0
LWPOLYLINE
  5
58F
100
AcDbEntity
  8
RACCORDO
100
AcDbPolyline
 62
253
  6
CONTINUOUS
 90
6
 70
0
 10
-83.2242921692
 20
-41.7606780633
 10
-83.2258419154
 20
-41.791084247
 10
-83.2304751427
 20
-41.8211762848
 10
-83.2381439821
 20
-41.8506432768
 10
-83.2487692021
 20
-41.8791807804
 10
-83.2622410266
 20
-41.9064939564
  0
LWPOLYLINE
  5
590
100
AcDbEntity
  8
RACCORDO
100
AcDbPolyline
 62
253
  6
CONTINUOUS
 90
4
 70
0
 10
-83.2242921692
 20
-41.3645163577
 10
-83.225862161
 20
-41.394998573
 10
-83.2305557029
 20
-41.4251617429
 10
-83.2383236697
 20
-41.4546901612
  0
LWPOLYLINE
  5
591
100
AcDbEntity
  8
RACCORDO
100
AcDbPolyline
 62
253
  6
CONTINUOUS
 90
17
 70
0
 10
-89.2148649733
 20
-43.2384993805
 10
-89.2081160163
 20
-43.2029854315
 10
-89.2020968455
 20
-43.1649160341
 10
-89.1968136334
 20
-43.1242909517
 10
-89.1923386874
 20
-43.0807681218
 10
-89.1886108765
 20
-43.0346890622
 10
-89.1854356779
 20
-42.9870789986
 10
-89.1828052304
 20
-42.938049849
 10
-89.1807367771
 20
-42.8874893513
 10
-89.1790728464
 20
-42.8360866527
 10
-89.1777992059
 20
-42.7840003865
 10
-89.1769376931
 20
-42.7310717304
 10
-89.1763836693
 20
-42.6775137578
 10
-89.1761264249
 20
-42.6234334486
 10
-89.176181871
 20
-42.568723679
 10
-89.1764833518
 20
-42.5132763777
 10
-89.1778245355
 20
-42.3997125752
  0
LWPOLYLINE
  5
592
100
AcDbEntity
  8
RACCORDO
100
AcDbPolyline
 62
253
  6
CONTINUOUS
 90
17
 70
0
 10
-88.9446647171
 20
-43.4904425075
 10
-88.9377973492
 20
-43.4550930857
 10
-88.9317942649
 20
-43.4162443893
 10
-88.9265937379
 20
-43.3743414131
 10
-88.9221392718
 20
-43.3299273254
 10
-88.9183621519
 20
-43.2833871366
 10
-88.9151919383
 20
-43.2348635146
 10
-88.9125795743
 20
-43.1848285301
 10
-88.9104687911
 20
-43.1337179919
 10
-88.9088011729
 20
-43.0814336795
 10
-88.9075394545
 20
-43.028333103
 10
-88.906644888
 20
-42.9747430254
 10
-88.9060822179
 20
-42.9203093901
 10
-88.9058276605
 20
-42.8652376228
 10
-88.9058561375
 20
-42.8097502823
 10
-88.9061498353
 20
-42.7533680593
 10
-88.907461403
 20
-42.6380113049
  0
LINE
  5
593
100
AcDbEntity
  8
RACCORDO
100
AcDbLine
 62
7
  6
CONTINUOUS
 10
-91.9445767763
 20
22.6655130989
 11
-91.8498550447
 21
22.5302364468
  0
LINE
  5
594
100
AcDbEntity
  8
RACCORDO
100
AcDbLine
 62
253
  6
CONTINUOUS
 10
-92.0703845323
 20
23.0999622604
 11
-91.8546454672
 21
22.7915999135
  0
LWPOLYLINE
  5
595
100
AcDbEntity
  8
RACCORDO
100
AcDbPolyline
 62
253
  6
CONTINUOUS
 90
10
 70
0
 10
-89.2148649733
 20
42.3856857543
 10
-89.2290413675
 20
42.4477680713
 10
-89.2433635125
 20
42.5068856998
 10
-89.2578338001
 20
42.5630390653
 10
-89.2724552286
 20
42.6162309444
 10
-89.2872291235
 20
42.666459351
 10
-89.3021552905
 20
42.7137175371
 10
-89.317234982
 20
42.7580034769
 10
-89.3324707447
 20
42.7993198661
 10
-89.3478642472
 20
42.837667008
  0
LWPOLYLINE
  5
596
100
AcDbEntity
  8
RACCORDO
100
AcDbPolyline
 62
253
  6
CONTINUOUS
 90
10
 70
0
 10
-88.9446633512
 20
42.6376226609
 10
-88.9588473209
 20
42.6997827593
 10
-88.9731771572
 20
42.7589784501
 10
-88.9876548604
 20
42.8152081196
 10
-89.0022827464
 20
42.868471344
 10
-89.0170621952
 20
42.918765635
 10
-89.031993773
 20
42.9660868609
 10
-89.0470786848
 20
43.0104335091
 10
-89.0623185889
 20
43.0518060488
 10
-89.0777146992
 20
43.0902038999
  0
LINE
  5
597
100
AcDbEntity
  8
0
100
AcDbLine
 62
7
  6
CONTINUOUS
 10
-86.4344283733
 20
-42.3749236606
 11
-86.4347690614
 21
-42.3764410968
  0
LWPOLYLINE
  5
598
100
AcDbEntity
  8
DRAFT
100
AcDbPolyline
 62
7
  6
CONTINUOUS
 90
10
 70
0
 10
-86.9194879909
 20
-43.6664068456
 10
-86.9335463958
 20
-43.7286930535
 10
-86.9477606494
 20
-43.7880032015
 10
-86.9621332224
 20
-43.8443377355
 10
-86.9766668903
 20
-43.897698464
 10
-86.9913633627
 20
-43.9480844074
 10
-87.0062233751
 20
-43.9954917984
 10
-87.0212484736
 20
-44.0399196153
 10
-87.0364409225
 20
-44.0813695813
 10
-87.0518023983
 20
-44.119842014
  0
LWPOLYLINE
  5
599
100
AcDbEntity
  8
RACCORDO
100
AcDbPolyline
 62
253
  6
CONTINUOUS
 90
6
 70
0
 10
-86.7630512616
 20
-43.3222408899
 10
-86.7771582802
 20
-43.3842532386
 10
-86.7914178139
 20
-43.4433103161
 10
-86.8058318572
 20
-43.4994102047
 10
-86.8204026626
 20
-43.5525521491
 10
-86.8351316668
 20
-43.6027333874
  0
LWPOLYLINE
  5
59A
100
AcDbEntity
  8
RACCORDO
100
AcDbPolyline
 62
7
  6
CONTINUOUS
 90
4
 70
0
 10
-86.651478879
 20
-43.2144235493
 10
-86.6656016996
 20
-43.2763411687
 10
-86.6798749022
 20
-43.335305765
 10
-86.6873366779
 20
-43.364720681
  0
LWPOLYLINE
  5
59B
100
AcDbEntity
  8
0
100
AcDbPolyline
 62
7
  6
CONTINUOUS
 90
4
 70
0
 10
-86.4347690614
 20
-42.3764410968
 10
-86.4489921661
 20
-42.4377076325
 10
-86.4633506917
 20
-42.4960570734
 10
-86.4673491755
 20
-42.5116919543
  0
LINE
  5
59C
100
AcDbEntity
  8
SUPERFICI
100
AcDbLine
 62
7
  6
CONTINUOUS
 10
-86.6873366434
 20
-43.364720547
 11
-86.4673489242
 21
-42.5116920191
  0
LINE
  5
59D
100
AcDbEntity
  8
RACCORDO
100
AcDbLine
 62
253
  6
CONTINUOUS
 10
-86.651478879
 20
-43.2144235493
 11
-86.4347688292
 21
-42.3764411569
  0
LINE
  5
59E
100
AcDbEntity
  8
RACCORDO
100
AcDbLine
 62
7
  6
CONTINUOUS
 10
-86.6955554532
 20
-43.396044205
 11
-86.6876698374
 21
-43.3660116305
  0
LINE
  5
59F
100
AcDbEntity
  8
RACCORDO
100
AcDbLine
 62
253
  6
CONTINUOUS
 10
-91.8546454672
 20
-23.6444135396
 11
-92.0703845323
 21
-23.9527758865
  0
LINE
  5
5A0
100
AcDbEntity
  8
RACCORDO
100
AcDbLine
 62
7
  6
CONTINUOUS
 10
-91.9445767763
 20
-23.518326725
 11
-91.8498565918
 21
-23.3830522823
  0
LINE
  5
5A1
100
AcDbEntity
  8
RACCORDO
100
AcDbLine
 62
7
  6
CONTINUOUS
 10
-86.7086273644
 20
42.5908225362
 11
-86.6943011502
 21
42.5385045093
  0
LINE
  5
5A2
100
AcDbEntity
  8
RACCORDO
100
AcDbLine
 62
7
  6
CONTINUOUS
 10
-86.6876714994
 20
42.5132044403
 11
-86.6955936528
 21
42.5433736149
  0
LINE
  5
5A3
100
AcDbEntity
  8
RACCORDO
100
AcDbLine
 62
253
  6
CONTINUOUS
 10
-86.6514784771
 20
42.3616081097
 11
-86.4347688574
 21
41.5236275235
  0
LINE
  5
5A4
100
AcDbEntity
  8
SUPERFICI
100
AcDbLine
 62
7
  6
CONTINUOUS
 10
-86.4673489242
 20
41.658878393
 11
-86.6873366434
 21
42.5119069209
  0
LWPOLYLINE
  5
5A5
100
AcDbEntity
  8
0
100
AcDbPolyline
 62
7
  6
CONTINUOUS
 90
4
 70
0
 10
-86.4673491755
 20
41.6588783282
 10
-86.4633506917
 20
41.6432434473
 10
-86.4489921661
 20
41.5848940064
 10
-86.4347690614
 20
41.5236274707
  0
LWPOLYLINE
  5
5A6
100
AcDbEntity
  8
RACCORDO
100
AcDbPolyline
 62
7
  6
CONTINUOUS
 90
4
 70
0
 10
-86.6873366779
 20
42.5119070549
 10
-86.679874811
 20
42.4824917734
 10
-86.665601474
 20
42.4235265821
 10
-86.6514784771
 20
42.3616081097
  0
LINE
  5
5A7
100
AcDbEntity
  8
0
100
AcDbLine
 62
7
  6
CONTINUOUS
 10
-86.4347690614
 20
41.5236274707
 11
-86.4344283733
 21
41.5221100345
  0
LWPOLYLINE
  5
5A8
100
AcDbEntity
  8
0
100
AcDbPolyline
 62
7
  6
CONTINUOUS
 90
18
 70
0
 10
-86.4344283733
 20
41.5221100345
 10
-86.4307186857
 20
41.5043566274
 10
-86.4271518774
 20
41.4850354055
 10
-86.4237532869
 20
41.464104108
 10
-86.4205163058
 20
41.4413977684
 10
-86.4174661106
 20
41.4169704806
 10
-86.4146531602
 20
41.3912042906
 10
-86.4120773813
 20
41.3642358004
 10
-86.4097179349
 20
41.336123944
 10
-86.4075829013
 20
41.3072781358
 10
-86.405668061
 20
41.2778869086
 10
-86.403969744
 20
41.248000402
 10
-86.402484318
 20
41.2178583113
 10
-86.401196589
 20
41.1876711619
 10
-86.400086086
 20
41.1574374169
 10
-86.3991355443
 20
41.127077348
 10
-86.3983350327
 20
41.0966917943
 10
-86.3976699824
 20
41.0663805498
  0
LWPOLYLINE
  5
5A9
100
AcDbEntity
  8
DRAFT
100
AcDbPolyline
 62
7
  6
CONTINUOUS
 90
18
 70
0
 10
-86.9194879902
 20
42.813593217
 10
-86.9139804943
 20
42.7860161696
 10
-86.9089120955
 20
42.7554107112
 10
-86.9042816152
 20
42.7217766061
 10
-86.9000871236
 20
42.6851120708
 10
-86.8963277304
 20
42.6454183492
 10
-86.89300363
 20
42.6026997133
 10
-86.8901157068
 20
42.556940142
 10
-86.8876594315
 20
42.5081549821
 10
-86.8856267599
 20
42.4563955305
 10
-86.8840119509
 20
42.4016697356
 10
-86.8828163347
 20
42.3439688605
 10
-86.8820424774
 20
42.2833191548
 10
-86.881689197
 20
42.2196892668
 10
-86.8817526608
 20
42.1531096419
 10
-86.8822317955
 20
42.0836992182
 10
-86.8831297183
 20
42.0114378985
 10
-86.8844383182
 20
41.9363448029
  0
LWPOLYLINE
  5
5AA
100
AcDbEntity
  8
RACCORDO
100
AcDbPolyline
 62
253
  6
CONTINUOUS
 90
15
 70
0
 10
-86.6514784787
 20
42.3616081152
 10
-86.644870072
 20
42.3282195124
 10
-86.6390813073
 20
42.2917243965
 10
-86.6340550283
 20
42.2524314695
 10
-86.6297600684
 20
42.2109489616
 10
-86.6261145595
 20
42.1676773887
 10
-86.62300754
 20
42.1225164743
 10
-86.6203972773
 20
42.0758750869
 10
-86.6182677914
 20
42.0283289213
 10
-86.6165715283
 20
41.9797217797
 10
-86.6152745248
 20
41.9303370419
 10
-86.6143390689
 20
41.8805974923
 10
-86.6137245891
 20
41.8304163085
 10
-86.6134070692
 20
41.780123307
 10
-86.6133525652
 20
41.7299260799
  0
LWPOLYLINE
  5
5AB
100
AcDbEntity
  8
RACCORDO
100
AcDbPolyline
 62
253
  6
CONTINUOUS
 90
15
 70
0
 10
-86.7630512502
 20
42.4694272083
 10
-86.7564211369
 20
42.4358327852
 10
-86.7506184036
 20
42.3990820551
 10
-86.7455853376
 20
42.3595949469
 10
-86.7412809226
 20
42.3178770933
 10
-86.737631657
 20
42.2742701344
 10
-86.7345411377
 20
42.2288768217
 10
-86.7319482528
 20
42.1820342309
 10
-86.7298233091
 20
42.1341312822
 10
-86.7281344788
 20
42.0852120967
 10
-86.7268543123
 20
42.0355530773
 10
-86.7259391201
 20
41.9854810051
 10
-86.7253463197
 20
41.9350014724
 10
-86.7250496771
 20
41.8844047968
 10
-86.725018117
 20
41.8338640472
  0
LINE
  5
5AC
100
AcDbEntity
  8
RACCORDO
100
AcDbLine
 62
7
  6
CONTINUOUS
 10
-86.6943011502
 20
-43.3913181354
 11
-86.7088833074
 21
-43.4443799464
  0
LWPOLYLINE
  5
5AD
100
AcDbEntity
  8
RACCORDO
100
AcDbPolyline
 62
7
  6
CONTINUOUS
 90
5
 70
0
 10
-86.7085686665
 20
-43.4434284691
 10
-86.7236225407
 20
-43.4944873693
 10
-86.7385189304
 20
-43.5416337161
 10
-86.753573467
 20
-43.5858162305
 10
-86.7687884065
 20
-43.6270367344
  0
LWPOLYLINE
  5
5AE
100
AcDbEntity
  8
RACCORDO
100
AcDbPolyline
 62
253
  6
CONTINUOUS
 90
4
 70
0
 10
-86.8351316668
 20
-43.6027333874
 10
-86.8500196112
 20
-43.649949554
 10
-86.8650677619
 20
-43.6941988374
 10
-86.8802777229
 20
-43.7354813596
  0
LWPOLYLINE
  5
5AF
100
AcDbEntity
  8
RACCORDO
100
AcDbPolyline
 62
253
  6
CONTINUOUS
 90
10
 70
0
 10
-86.6514753164
 20
-43.2144074785
 10
-86.6570636219
 20
-43.2316040799
 10
-86.664709019
 20
-43.2479951939
 10
-86.6742988904
 20
-43.2633393802
 10
-86.685691976
 20
-43.2774106199
 10
-86.6987204538
 20
-43.290001645
 10
-86.7131924123
 20
-43.3009269914
 10
-86.7288946771
 20
-43.3100257309
 10
-86.7455959511
 20
-43.3171638416
 10
-86.7630502216
 20
-43.3222361822
  0
LWPOLYLINE
  5
5B0
100
AcDbEntity
  8
RACCORDO
100
AcDbPolyline
 62
253
  6
CONTINUOUS
 90
7
 70
0
 10
-89.8925337616
 20
-44.9977218366
 10
-89.8902284072
 20
-44.9913112017
 10
-89.88235775
 20
-44.971941981
 10
-89.8691547875
 20
-44.9412313832
 10
-89.8513846464
 20
-44.8983736611
 10
-89.8293486145
 20
-44.8441723347
 10
-89.7747790187
 20
-44.7142681865
  0
LWPOLYLINE
  5
5B1
100
AcDbEntity
  8
RACCORDO
100
AcDbPolyline
 62
253
  6
CONTINUOUS
 90
13
 70
0
 10
-83.2242921692
 20
-28.952377306
 10
-83.2258594645
 20
-28.9567365837
 10
-83.2305449572
 20
-28.9610503129
 10
-83.2382996907
 20
-28.9652734213
 10
-83.2490426389
 20
-28.9693617834
 10
-83.2626615534
 20
-28.9732726816
 10
-83.2790141359
 20
-28.9769652524
 10
-83.2979295251
 20
-28.9804009139
 10
-83.319210082
 20
-28.983543768
 10
-83.3426334552
 20
-28.9863609766
 10
-83.3679549037
 20
-28.9888231036
 10
-83.3949098544
 20
-28.9909044233
 10
-83.4232166663
 20
-28.9925831889
  0
LWPOLYLINE
  5
5B2
100
AcDbEntity
  8
RACCORDO
100
AcDbPolyline
 62
253
  6
CONTINUOUS
 90
6
 70
0
 10
-83.2242921692
 20
-28.9060532075
 10
-83.2258590754
 20
-28.910381543
 10
-83.2305434271
 20
-28.9146646645
 10
-83.2382962914
 20
-28.9188578304
 10
-83.2490366815
 20
-28.9229172385
 10
-83.2626524029
 20
-28.9268004843
  0
LWPOLYLINE
  5
5B3
100
AcDbEntity
  8
RACCORDO
100
AcDbPolyline
 62
253
  6
CONTINUOUS
 90
10
 70
0
 10
-89.0777146901
 20
-43.9430175044
 10
-89.062318608
 20
-43.904619725
 10
-89.0470787247
 20
-43.8632472481
 10
-89.0319938263
 20
-43.81890065
 10
-89.0170622006
 20
-43.7715792796
 10
-89.0022826983
 20
-43.7212848014
 10
-88.9876549123
 20
-43.6680219405
 10
-88.9731775098
 20
-43.6117934884
 10
-88.9588481167
 20
-43.5525997737
 10
-88.9446647278
 20
-43.4904425028
  0
LWPOLYLINE
  5
5B4
100
AcDbEntity
  8
RACCORDO
100
AcDbPolyline
 62
253
  6
CONTINUOUS
 90
10
 70
0
 10
-89.3478642472
 20
-43.6904806341
 10
-89.3324707417
 20
-43.6521334833
 10
-89.3172349769
 20
-43.6108170872
 10
-89.3021552838
 20
-43.5665311424
 10
-89.2872291161
 20
-43.519272953
 10
-89.2724552213
 20
-43.469044545
 10
-89.2578337936
 20
-43.4158526675
 10
-89.2433635074
 20
-43.359699307
 10
-89.2290413645
 20
-43.3005816864
 10
-89.2148649733
 20
-43.2384993805
  0
LINE
  5
5B5
100
AcDbEntity
  8
RACCORDO
100
AcDbLine
 62
253
  6
CONTINUOUS
 10
-89.7747790187
 20
-44.7142681865
 11
-89.7437832715
 21
-44.6385629637
  0
LINE
  5
5B6
100
AcDbEntity
  8
RACCORDO
100
AcDbLine
 62
253
  6
CONTINUOUS
 10
-89.6224961545
 20
-45.2488846107
 11
-89.2502134224
 21
-44.3544245181
  0
LINE
  5
5B7
100
AcDbEntity
  8
RACCORDO
100
AcDbLine
 62
253
  6
CONTINUOUS
 10
-89.7437832715
 20
-44.6385629637
 11
-89.4787044269
 21
-44.0027531919
  0
LINE
  5
5B8
100
AcDbEntity
  8
RACCORDO
100
AcDbLine
 62
253
  6
CONTINUOUS
 10
-89.2502134224
 20
-44.3544245181
 11
-89.0777146901
 21
-43.9430175037
  0
LWPOLYLINE
  5
5B9
100
AcDbEntity
  8
RACCORDO
100
AcDbPolyline
 62
253
  6
CONTINUOUS
 90
3
 70
0
 10
-89.4787044269
 20
-44.0027531919
 10
-89.4358082433
 20
-43.9010270725
 10
-89.3478642472
 20
-43.6904806341
  0
LWPOLYLINE
  5
5BA
100
AcDbEntity
  8
RACCORDO
100
AcDbPolyline
 62
253
  6
CONTINUOUS
 90
13
 70
0
 10
-83.2242921692
 20
22.7662236152
 10
-83.225816988
 20
22.7686024277
 10
-83.2303759436
 20
22.7709570938
 10
-83.2379226923
 20
22.7732636856
 10
-83.248380518
 20
22.7754987732
 10
-83.261643112
 20
22.7776396359
 10
-83.2775756539
 20
22.7796644926
 10
-83.2960161823
 20
22.7815527692
 10
-83.3167772406
 20
22.7832852795
 10
-83.3396477832
 20
22.784844394
 10
-83.3643953206
 20
22.7862142632
 10
-83.3907682826
 20
22.7873809796
 10
-83.4184985762
 20
22.7883326912
  0
LWPOLYLINE
  5
5BB
100
AcDbEntity
  8
RACCORDO
100
AcDbPolyline
 62
253
  6
CONTINUOUS
 90
3
 70
0
 10
-89.3922847644
 20
42.9444898875
 10
-89.5206845847
 20
43.2503271404
 10
-89.6385520435
 20
43.5328319164
  0
LWPOLYLINE
  5
5BC
100
AcDbEntity
  8
RACCORDO
100
AcDbPolyline
 62
253
  6
CONTINUOUS
 90
4
 70
0
 10
-89.6749901915
 20
43.6210640684
 10
-89.7431593826
 20
43.7842618185
 10
-89.7738806075
 20
43.8592292415
 10
-89.827931155
 20
43.9881062154
  0
LINE
  5
5BD
100
AcDbEntity
  8
RACCORDO
100
AcDbLine
 62
253
  6
CONTINUOUS
 10
-89.0777146992
 20
43.0902038992
 11
-89.4399618546
 21
43.9563636723
  0
LINE
  5
5BE
100
AcDbEntity
  8
RACCORDO
100
AcDbLine
 62
253
  6
CONTINUOUS
 10
-89.3478642472
 20
42.837667008
 11
-89.3922847644
 21
42.9444898875
  0
LINE
  5
5BF
100
AcDbEntity
  8
RACCORDO
100
AcDbLine
 62
253
  6
CONTINUOUS
 10
-89.4399618546
 20
43.9563636723
 11
-89.622496168
 21
44.3960709834
  0
LINE
  5
5C0
100
AcDbEntity
  8
RACCORDO
100
AcDbLine
 62
253
  6
CONTINUOUS
 10
-89.6385520435
 20
43.5328319164
 11
-89.6749901915
 21
43.6210640684
  0
LWPOLYLINE
  5
5C1
100
AcDbEntity
  8
RACCORDO
100
AcDbPolyline
 62
253
  6
CONTINUOUS
 90
6
 70
0
 10
-89.827931155
 20
43.9881062154
 10
-89.849852738
 20
44.0420180983
 10
-89.8677522158
 20
44.0850286551
 10
-89.8812526795
 20
44.1165788855
 10
-89.8895895278
 20
44.1372299449
 10
-89.8925330957
 20
44.1449123432
  0
LWPOLYLINE
  5
5C2
100
AcDbEntity
  8
RACCORDO
100
AcDbPolyline
 62
253
  6
CONTINUOUS
 90
4
 70
0
 10
-86.8802777237
 20
42.8826677357
 10
-86.8650677623
 20
42.8413852122
 10
-86.8500196112
 20
42.7971359279
 10
-86.8351316671
 20
42.7499197625
  0
LWPOLYLINE
  5
5C3
100
AcDbEntity
  8
RACCORDO
100
AcDbPolyline
 62
253
  6
CONTINUOUS
 90
6
 70
0
 10
-83.2242921692
 20
28.0532395814
 10
-83.225859077
 20
28.0575679167
 10
-83.2305434302
 20
28.061851038
 10
-83.2382962957
 20
28.0660442037
 10
-83.2490366869
 20
28.0701036116
 10
-83.262652409
 20
28.0739868571
  0
LWPOLYLINE
  5
5C4
100
AcDbEntity
  8
RACCORDO
100
AcDbPolyline
 62
253
  6
CONTINUOUS
 90
13
 70
0
 10
-83.2242921692
 20
28.0995636799
 10
-83.2258594564
 20
28.1039229572
 10
-83.2305449421
 20
28.1082366862
 10
-83.2382996695
 20
28.1124597946
 10
-83.2490426128
 20
28.1165481569
 10
-83.2626615235
 20
28.1204590555
 10
-83.2790141032
 20
28.1241516271
 10
-83.2979294907
 20
28.1275872895
 10
-83.3192100471
 20
28.1307301449
 10
-83.3426334207
 20
28.133547355
 10
-83.3679548706
 20
28.1360094839
 10
-83.3949098234
 20
28.1380908059
 10
-83.4232166381
 20
28.139769574
  0
LWPOLYLINE
  5
5C5
100
AcDbEntity
  8
RACCORDO
100
AcDbPolyline
 62
253
  6
CONTINUOUS
 90
10
 70
0
 10
-86.6514752259
 20
42.3615938757
 10
-86.6570635527
 20
42.3787904679
 10
-86.6647089696
 20
42.3951815701
 10
-86.6742988588
 20
42.4105257425
 10
-86.6856919602
 20
42.4245969665
 10
-86.6987204515
 20
42.4371879744
 10
-86.7131924212
 20
42.4481133027
 10
-86.7288946948
 20
42.4572120233
 10
-86.7455959751
 20
42.4643501147
 10
-86.7630502494
 20
42.4694224361
  0
LWPOLYLINE
  5
5C6
100
AcDbEntity
  8
RACCORDO
100
AcDbPolyline
 62
7
  6
CONTINUOUS
 90
5
 70
0
 10
-86.7219304934
 20
42.636523861
 10
-86.7355267172
 20
42.6804754296
 10
-86.7494695669
 20
42.7227507555
 10
-86.7637952516
 20
42.7633423556
 10
-86.7785156583
 20
42.802163429
  0
LWPOLYLINE
  5
5C7
100
AcDbEntity
  8
RACCORDO
100
AcDbPolyline
 62
253
  6
CONTINUOUS
 90
6
 70
0
 10
-86.8351316671
 20
42.7499197625
 10
-86.8204026635
 20
42.6997385261
 10
-86.8058318572
 20
42.6465965786
 10
-86.7914178111
 20
42.5904966788
 10
-86.7771582733
 20
42.531439583
 10
-86.7630512493
 20
42.4694272081
  0
LWPOLYLINE
  5
5C8
100
AcDbEntity
  8
RACCORDO
100
AcDbPolyline
 62
253
  6
CONTINUOUS
 90
4
 70
0
 10
-83.2383240631
 20
-41.4533532277
 10
-83.2490854483
 20
-41.4819375461
 10
-83.2627273962
 20
-41.5092788425
 10
-83.2791071178
 20
-41.5350909381
  0
LWPOLYLINE
  5
5C9
100
AcDbEntity
  8
RACCORDO
100
AcDbPolyline
 62
7
  6
CONTINUOUS
 90
5
 70
0
 10
-86.7783360457
 20
-43.6545205543
 10
-86.7636430076
 20
-43.6157393802
 10
-86.7493429404
 20
-43.5751928903
 10
-86.7354240444
 20
-43.5329673641
 10
-86.7218503506
 20
-43.4890702439
  0
LINE
  5
5CA
100
AcDbEntity
  8
RACCORDO
100
AcDbLine
 62
253
  6
CONTINUOUS
 10
-86.8802777229
 20
-43.7354813596
 11
-86.8956507127
 21
-43.7737962181
  0
LINE
  5
5CB
100
AcDbEntity
  8
RACCORDO
100
AcDbLine
 62
7
  6
CONTINUOUS
 10
-86.7911463371
 20
-43.6860425298
 11
-86.7687884065
 21
-43.6270367344
  0
LINE
  5
5CC
100
AcDbEntity
  8
RACCORDO
100
AcDbLine
 62
7
  6
CONTINUOUS
 10
-87.3347912426
 20
-44.9894780079
 11
-87.3148852404
 21
-44.9414042582
  0
LINE
  5
5CD
100
AcDbEntity
  8
DRAFT
100
AcDbLine
 62
7
  6
CONTINUOUS
 10
-87.0518023983
 20
-44.119842014
 11
-87.5934080969
 21
-45.4264068131
  0
LINE
  5
5CE
100
AcDbEntity
  8
RACCORDO
100
AcDbLine
 62
7
  6
CONTINUOUS
 10
-87.3148735608
 20
-44.9413760534
 11
-86.93433589
 21
-44.0274614128
  0
LINE
  5
5CF
100
AcDbEntity
  8
RACCORDO
100
AcDbLine
 62
253
  6
CONTINUOUS
 10
-86.9747784205
 20
-43.9625693125
 11
-87.4389265104
 21
-45.0782080348
  0
LINE
  5
5D0
100
AcDbEntity
  8
RACCORDO
100
AcDbLine
 62
253
  6
CONTINUOUS
 10
-86.8956507127
 20
-43.7737962181
 11
-86.9747784205
 21
-43.9625693125
  0
LINE
  5
5D1
100
AcDbEntity
  8
RACCORDO
100
AcDbLine
 62
7
  6
CONTINUOUS
 10
-86.93433589
 20
-44.0274614128
 11
-86.7911364029
 21
-43.6860188913
  0
LWPOLYLINE
  5
5D2
100
AcDbEntity
  8
RACCORDO
100
AcDbPolyline
 62
253
  6
CONTINUOUS
 90
6
 70
0
 10
-83.2242921692
 20
-25.1480715189
 10
-83.2258289133
 20
-25.1505715955
 10
-83.2304234008
 20
-25.1530460589
 10
-83.2380285616
 20
-25.1554695583
 10
-83.2485664811
 20
-25.1578172652
 10
-83.2619291987
 20
-25.1600651273
  0
LWPOLYLINE
  5
5D3
100
AcDbEntity
  8
RACCORDO
100
AcDbPolyline
 62
253
  6
CONTINUOUS
 90
6
 70
0
 10
-83.2242921692
 20
-25.1160884871
 10
-83.2258286494
 20
-25.118584202
 10
-83.2304223512
 20
-25.1210543527
 10
-83.2380262207
 20
-25.1234736368
 10
-83.2485623697
 20
-25.125817273
 10
-83.2619228744
 20
-25.1280612547
  0
LWPOLYLINE
  5
5D4
100
AcDbEntity
  8
RACCORDO
100
AcDbPolyline
 62
253
  6
CONTINUOUS
 90
13
 70
0
 10
-83.2242921692
 20
-23.6190372413
 10
-83.2258169803
 20
-23.6214188304
 10
-83.2303759132
 20
-23.6237762008
 10
-83.2379226243
 20
-23.6260853802
 10
-83.2483803984
 20
-23.6283228861
 10
-83.2616429279
 20
-23.6304659647
 10
-83.2775753938
 20
-23.632492822
 10
-83.2960158361
 20
-23.6343828455
 10
-83.3167768001
 20
-23.6361168135
 10
-83.3396472424
 20
-23.637677091
 10
-83.3643946754
 20
-23.6390478082
 10
-83.3907675315
 20
-23.6402150227
 10
-83.4184977199
 20
-23.6411668605
  0
LINE
  5
5D5
100
AcDbEntity
  8
RACCORDO
100
AcDbLine
 62
253
  6
CONTINUOUS
 10
-91.8901195078
 20
21.285206624
 11
-91.8902982547
 21
21.2851785056
  0
LINE
  5
5D6
100
AcDbEntity
  8
RACCORDO
100
AcDbLine
 62
253
  6
CONTINUOUS
 10
-90.0860452139
 20
23.148386085
 11
-88.1253443252
 21
23.1645731869
  0
LINE
  5
5D7
100
AcDbEntity
  8
RACCORDO
100
AcDbLine
 62
253
  6
CONTINUOUS
 10
-92.0623987198
 20
23.2688531869
 11
-90.3533843759
 21
23.2688530814
  0
LINE
  5
5D8
100
AcDbEntity
  8
RACCORDO
100
AcDbLine
 62
253
  6
CONTINUOUS
 10
-87.4989693348
 20
23.0451674553
 11
-86.8035910762
 21
23.0090543999
  0
LINE
  5
5D9
100
AcDbEntity
  8
RACCORDO
100
AcDbLine
 62
253
  6
CONTINUOUS
 10
-87.9353394296
 20
23.1533277768
 11
-88.1253955165
 21
23.1636286872
  0
LINE
  5
5DA
100
AcDbEntity
  8
RACCORDO
100
AcDbLine
 62
253
  6
CONTINUOUS
 10
-86.8035910762
 20
23.0090543999
 11
-86.1124546095
 21
22.9701529973
  0
LINE
  5
5DB
100
AcDbEntity
  8
RACCORDO
100
AcDbLine
 62
253
  6
CONTINUOUS
 10
-86.1124546095
 20
22.9701529973
 11
-85.4269762231
 21
22.9285429339
  0
LINE
  5
5DC
100
AcDbEntity
  8
RACCORDO
100
AcDbLine
 62
253
  6
CONTINUOUS
 10
-85.4269762231
 20
22.9285429339
 11
-84.748563059
 21
22.8843096304
  0
LINE
  5
5DD
100
AcDbEntity
  8
RACCORDO
100
AcDbLine
 62
253
  6
CONTINUOUS
 10
-84.748563059
 20
22.8843096304
 11
-84.078612441
 21
22.8375442837
  0
LINE
  5
5DE
100
AcDbEntity
  8
RACCORDO
100
AcDbLine
 62
253
  6
CONTINUOUS
 10
-84.078612441
 20
22.8375442837
 11
-83.4184976946
 21
22.788342926
  0
LWPOLYLINE
  5
5DF
100
AcDbEntity
  8
RACCORDO
100
AcDbPolyline
 62
253
  6
CONTINUOUS
 90
10
 70
0
 10
-87.8139596794
 20
23.1409494464
 10
-87.8211642843
 20
23.1426159432
 10
-87.8303400382
 20
23.1442704124
 10
-87.8413518892
 20
23.1458853345
 10
-87.8540377352
 20
23.1474337731
 10
-87.868210811
 20
23.148889772
 10
-87.8836624408
 20
23.1502287372
 10
-87.9001651121
 20
23.1514277993
 10
-87.9174758277
 20
23.1524661506
 10
-87.9353396856
 20
23.1533253512
  0
LINE
  5
5E0
100
AcDbEntity
  8
RACCORDO
100
AcDbLine
 62
253
  6
CONTINUOUS
 10
-87.8139595261
 20
23.1409519497
 11
-87.4989693855
 21
23.0451672887
  0
LWPOLYLINE
  5
5E1
100
AcDbEntity
  8
RACCORDO
100
AcDbPolyline
 62
253
  6
CONTINUOUS
 90
6
 70
0
 10
-83.2242921692
 20
24.263274861
 10
-83.2258286495
 20
24.2657705373
 10
-83.2304223517
 20
24.2682406501
 10
-83.2380262218
 20
24.2706598976
 10
-83.2485623717
 20
24.273003499
 10
-83.2619228775
 20
24.2752474485
  0
LWPOLYLINE
  5
5E2
100
AcDbEntity
  8
RACCORDO
100
AcDbPolyline
 62
253
  6
CONTINUOUS
 90
6
 70
0
 10
-83.2242921692
 20
24.2952578928
 10
-83.225828913
 20
24.2977579694
 10
-83.2304234003
 20
24.3002324328
 10
-83.2380285609
 20
24.3026559323
 10
-83.2485664802
 20
24.3050036391
 10
-83.2619291977
 20
24.3072515012
  0
LWPOLYLINE
  5
5E3
100
AcDbEntity
  8
RACCORDO
100
AcDbPolyline
 62
253
  6
CONTINUOUS
 90
3
 70
0
 10
-86.7911472043
 20
42.8332309664
 10
-86.7973729351
 20
42.8462405819
 10
-86.8069504657
 20
42.8616689738
  0
LWPOLYLINE
  5
5E4
100
AcDbEntity
  8
RACCORDO
100
AcDbPolyline
 62
253
  6
CONTINUOUS
 90
9
 70
0
 10
-87.1561225302
 20
43.7061274396
 10
-87.1622967293
 20
43.7191611198
 10
-87.1718266857
 20
43.734659303
 10
-87.1831653885
 20
43.7488885979
 10
-87.1961458374
 20
43.7616394548
 10
-87.2105768487
 20
43.7727241017
 10
-87.2262458718
 20
43.7819793103
 10
-87.2429221198
 20
43.7892688001
 10
-87.2603599693
 20
43.7944852463
  0
LINE
  5
5E5
100
AcDbEntity
  8
RACCORDO
100
AcDbLine
 62
7
  6
CONTINUOUS
 10
-86.7911364048
 20
42.8332052696
 11
-87.1561224967
 21
43.706127359
  0
LINE
  5
5E6
100
AcDbEntity
  8
RACCORDO
100
AcDbLine
 62
253
  6
CONTINUOUS
 10
-87.3570671538
 20
44.0275877513
 11
-86.8956507142
 21
42.9209825956
  0
LINE
  5
5E7
100
AcDbEntity
  8
RACCORDO
100
AcDbLine
 62
7
  6
CONTINUOUS
 10
-87.1561225309
 20
43.7061274393
 11
-87.3347912426
 21
44.1366643819
  0
LINE
  5
5E8
100
AcDbEntity
  8
RACCORDO
100
AcDbLine
 62
253
  6
CONTINUOUS
 10
-87.4389265104
 20
44.2253944087
 11
-87.3570671538
 21
44.0275877513
  0
LINE
  5
5E9
100
AcDbEntity
  8
DRAFT
100
AcDbLine
 62
7
  6
CONTINUOUS
 10
-87.5934080969
 20
44.5735931869
 11
-87.0518023983
 21
43.2670283878
  0
LWPOLYLINE
  5
5EA
100
AcDbEntity
  8
RACCORDO
100
AcDbPolyline
 62
7
  6
CONTINUOUS
 90
6
 70
0
 10
-86.7911472043
 20
42.8332309664
 10
-86.7687884065
 20
42.7742231083
 10
-86.753573467
 20
42.7330026044
 10
-86.7385189304
 20
42.68882009
 10
-86.7236225564
 20
42.6416737947
 10
-86.7088833385
 20
42.5915664295
  0
LINE
  5
5EB
100
AcDbEntity
  8
RACCORDO
100
AcDbLine
 62
253
  6
CONTINUOUS
 10
-86.8956507142
 20
42.9209825956
 11
-86.8802777237
 21
42.8826677357
  0
LWPOLYLINE
  5
5EC
100
AcDbEntity
  8
DRAFT
100
AcDbPolyline
 62
7
  6
CONTINUOUS
 90
10
 70
0
 10
-87.0518023983
 20
43.2670283878
 10
-87.0364409872
 20
43.2285561476
 10
-87.021248588
 20
43.1871063334
 10
-87.0062235233
 20
43.1426786275
 10
-86.991363526
 20
43.0952713167
 10
-86.9766670508
 20
43.0448854128
 10
-86.9621333657
 20
42.9915246532
 10
-86.9477607616
 20
42.9351900076
 10
-86.9335464604
 20
42.8758796775
 10
-86.9194879902
 20
42.813593217
  0
LWPOLYLINE
  5
5ED
100
AcDbEntity
  8
RACCORDO
100
AcDbPolyline
 62
253
  6
CONTINUOUS
 90
10
 70
0
 10
-83.2383240718
 20
40.600539594
 10
-83.249085459
 20
40.6291239094
 10
-83.2627274086
 20
40.6564652026
 10
-83.2791071314
 20
40.6822772951
 10
-83.2980531825
 20
40.706290014
 10
-83.3193672555
 20
40.7282520206
 10
-83.3428262579
 20
40.7479334406
 10
-83.3681846467
 20
40.7651282705
 10
-83.3951769979
 20
40.7796565336
 10
-83.4235207853
 20
40.791366164
  0
LWPOLYLINE
  5
5EE
100
AcDbEntity
  8
RACCORDO
100
AcDbPolyline
 62
253
  6
CONTINUOUS
 90
9
 70
0
 10
-87.1561225294
 20
-44.5589410618
 10
-87.1622967299
 20
-44.5719747459
 10
-87.1718266861
 20
-44.5874729293
 10
-87.1831653887
 20
-44.6017022243
 10
-87.1961458374
 20
-44.6144530814
 10
-87.2105768486
 20
-44.6255377285
 10
-87.2262458716
 20
-44.6347929372
 10
-87.2429221195
 20
-44.6420824273
 10
-87.260359969
 20
-44.6472988738
  0
LWPOLYLINE
  5
5EF
100
AcDbEntity
  8
RACCORDO
100
AcDbPolyline
 62
253
  6
CONTINUOUS
 90
3
 70
0
 10
-86.7911463383
 20
-43.6860425293
 10
-86.7973729362
 20
-43.6990542076
 10
-86.8069504667
 20
-43.7144825997
  0
LINE
  5
5F0
100
AcDbEntity
  8
RACCORDO
100
AcDbLine
 62
253
  6
CONTINUOUS
 10
-87.7432289078
 20
-25.5308281514
 11
-87.4293883566
 21
-25.4271551942
  0
LINE
  5
5F1
100
AcDbEntity
  8
RACCORDO
100
AcDbLine
 62
253
  6
CONTINUOUS
 10
-87.8139595261
 20
-23.9937655758
 11
-87.4989693855
 21
-23.8979809149
  0
LINE
  5
5F2
100
AcDbEntity
  8
RACCORDO
100
AcDbLine
 62
253
  6
CONTINUOUS
 10
-88.0528134741
 20
24.7371620719
 11
-90.014816845
 21
24.7191319131
  0
LINE
  5
5F3
100
AcDbEntity
  8
RACCORDO
100
AcDbLine
 62
253
  6
CONTINUOUS
 10
-87.4293883566
 20
24.5743415681
 11
-86.7464816745
 21
24.5331680734
  0
LINE
  5
5F4
100
AcDbEntity
  8
RACCORDO
100
AcDbLine
 62
253
  6
CONTINUOUS
 10
-87.427806042
 20
24.6063115137
 11
-86.7451835573
 21
24.5651511079
  0
LINE
  5
5F5
100
AcDbEntity
  8
RACCORDO
100
AcDbLine
 62
253
  6
CONTINUOUS
 10
-87.8643920515
 20
24.6938906199
 11
-88.0547848524
 21
24.7058947108
  0
LINE
  5
5F6
100
AcDbEntity
  8
RACCORDO
100
AcDbLine
 62
253
  6
CONTINUOUS
 10
-86.7464816745
 20
24.5331680734
 11
-86.0676517043
 21
24.4891475695
  0
LINE
  5
5F7
100
AcDbEntity
  8
RACCORDO
100
AcDbLine
 62
253
  6
CONTINUOUS
 10
-86.7451835573
 20
24.5651511079
 11
-86.0666340203
 21
24.5211421168
  0
LINE
  5
5F8
100
AcDbEntity
  8
RACCORDO
100
AcDbLine
 62
253
  6
CONTINUOUS
 10
-86.0676517043
 20
24.4891475695
 11
-85.3942409175
 21
24.4423670812
  0
LINE
  5
5F9
100
AcDbEntity
  8
RACCORDO
100
AcDbLine
 62
253
  6
CONTINUOUS
 10
-86.0666340203
 20
24.5211421168
 11
-85.393498228
 21
24.4743714697
  0
LINE
  5
5FA
100
AcDbEntity
  8
RACCORDO
100
AcDbLine
 62
253
  6
CONTINUOUS
 10
-85.3942409175
 20
24.4423670812
 11
-84.727583862
 21
24.3929193223
  0
LINE
  5
5FB
100
AcDbEntity
  8
RACCORDO
100
AcDbLine
 62
253
  6
CONTINUOUS
 10
-85.393498228
 20
24.4743714697
 11
-84.7271093608
 21
24.4249318061
  0
LINE
  5
5FC
100
AcDbEntity
  8
RACCORDO
100
AcDbLine
 62
253
  6
CONTINUOUS
 10
-84.727583862
 20
24.3929193223
 11
-84.0690020551
 21
24.3409023809
  0
LINE
  5
5FD
100
AcDbEntity
  8
RACCORDO
100
AcDbLine
 62
253
  6
CONTINUOUS
 10
-84.7271093608
 20
24.4249318061
 11
-84.0687855493
 21
24.3729209772
  0
LINE
  5
5FE
100
AcDbEntity
  8
RACCORDO
100
AcDbLine
 62
253
  6
CONTINUOUS
 10
-84.0690020551
 20
24.3409023809
 11
-83.4197976539
 21
24.2864192163
  0
LINE
  5
5FF
100
AcDbEntity
  8
RACCORDO
100
AcDbLine
 62
253
  6
CONTINUOUS
 10
-84.0687855493
 20
24.3729209772
 11
-83.4198269898
 21
24.3184417913
  0
LWPOLYLINE
  5
600
100
AcDbEntity
  8
RACCORDO
100
AcDbPolyline
 62
253
  6
CONTINUOUS
 90
8
 70
0
 10
-83.2619228775
 20
24.2752474485
 10
-83.2779708849
 20
24.277368761
 10
-83.2965420108
 20
24.2793457077
 10
-83.3174460276
 20
24.2811580383
 10
-83.3404688111
 20
24.2827871889
 10
-83.3653745343
 20
24.2842164719
 10
-83.3919080829
 20
24.2854312471
 10
-83.4197976684
 20
24.2864190713
  0
LWPOLYLINE
  5
601
100
AcDbEntity
  8
RACCORDO
100
AcDbPolyline
 62
253
  6
CONTINUOUS
 90
8
 70
0
 10
-83.2619291977
 20
24.3072515012
 10
-83.2779798128
 20
24.3093764893
 10
-83.2965538878
 20
24.3113568329
 10
-83.3174611319
 20
24.3131722436
 10
-83.3404873514
 20
24.3148041225
 10
-83.3653966436
 20
24.3162357511
 10
-83.3919338138
 20
24.3174524624
 10
-83.4198269898
 20
24.3184417913
  0
LWPOLYLINE
  5
602
100
AcDbEntity
  8
RACCORDO
100
AcDbPolyline
 62
253
  6
CONTINUOUS
 90
10
 70
0
 10
-87.7432289073
 20
24.6780145238
 10
-87.7504062229
 20
24.6800564422
 10
-87.7595549
 20
24.6820958331
 10
-87.7705401526
 20
24.6841026724
 10
-87.7832001374
 20
24.6860474154
 10
-87.7973483374
 20
24.6879014324
 10
-87.8127763104
 20
24.6896374303
 10
-87.8292567597
 20
24.6912298547
 10
-87.8465468826
 20
24.6926552664
 10
-87.864391948
 20
24.6938926867
  0
LINE
  5
603
100
AcDbEntity
  8
RACCORDO
100
AcDbLine
 62
253
  6
CONTINUOUS
 10
-87.7432289078
 20
24.6780145253
 11
-87.4293883566
 21
24.5743415681
  0
LWPOLYLINE
  5
604
100
AcDbEntity
  8
RACCORDO
100
AcDbPolyline
 62
253
  6
CONTINUOUS
 90
3
 70
0
 10
-83.2622427336
 20
-41.9056683586
 10
-83.2784226804
 20
-41.9314753459
 10
-83.2971429794
 20
-41.9555090774
  0
LINE
  5
605
100
AcDbEntity
  8
RACCORDO
100
AcDbLine
 62
253
  6
CONTINUOUS
 10
-87.5092339071
 20
-29.4975157597
 11
-87.2024234519
 21
-29.3327420127
  0
LWPOLYLINE
  5
606
100
AcDbEntity
  8
RACCORDO
100
AcDbPolyline
 62
253
  6
CONTINUOUS
 90
10
 70
0
 10
-87.5092335404
 20
-29.4975210668
 10
-87.5163012944
 20
-29.5007685176
 10
-87.5253444547
 20
-29.5039839396
 10
-87.5362297877
 20
-29.5071200173
 10
-87.5487969195
 20
-29.5101306042
 10
-87.5628606993
 20
-29.5129714022
 10
-87.5782139262
 20
-29.515600615
 10
-87.5946304027
 20
-29.5179795631
 10
-87.6118682666
 20
-29.5200732541
 10
-87.6296735545
 20
-29.5218508983
  0
LINE
  5
607
100
AcDbEntity
  8
RACCORDO
100
AcDbLine
 62
253
  6
CONTINUOUS
 10
-87.8158458488
 20
28.7371620719
 11
-89.7835456177
 21
28.7076195806
  0
LWPOLYLINE
  5
608
100
AcDbEntity
  8
RACCORDO
100
AcDbPolyline
 62
253
  6
CONTINUOUS
 90
10
 70
0
 10
-87.1996142581
 20
28.5221118871
 10
-86.7711202656
 20
28.4868805719
 10
-86.3440791786
 20
28.4497640087
 10
-85.91882345
 20
28.4107910824
 10
-85.495683191
 20
28.3699920243
 10
-85.0749887896
 20
28.3273986774
 10
-84.657070595
 20
28.2830445113
 10
-84.2422548417
 20
28.2369641919
 10
-83.8308634557
 20
28.1891935143
 10
-83.423216638
 20
28.1397696913
  0
LWPOLYLINE
  5
609
100
AcDbEntity
  8
RACCORDO
100
AcDbPolyline
 62
253
  6
CONTINUOUS
 90
10
 70
0
 10
-87.2024200142
 20
28.4799347875
 10
-86.7736334108
 20
28.4435835086
 10
-86.34628895
 20
28.4055461518
 10
-85.920719651
 20
28.3658558471
 10
-85.4972517262
 20
28.3246136771
 10
-85.076220594
 20
28.2817889852
 10
-84.6579707888
 20
28.237215989
 10
-84.2428338996
 20
28.1908618063
 10
-83.8311281479
 20
28.1428297814
 10
-83.4231745229
 20
28.093157452
  0
LINE
  5
60A
100
AcDbEntity
  8
RACCORDO
100
AcDbLine
 62
253
  6
CONTINUOUS
 10
-87.6296737779
 20
28.6690339898
 11
-87.8204112698
 21
28.6860816685
  0
LWPOLYLINE
  5
60B
100
AcDbEntity
  8
RACCORDO
100
AcDbPolyline
 62
253
  6
CONTINUOUS
 90
8
 70
0
 10
-83.262652409
 20
28.0739868571
 10
-83.2790012317
 20
28.0776533757
 10
-83.2979123745
 20
28.0810648666
 10
-83.3191882906
 20
28.0841856934
 10
-83.342606731
 20
28.0869832557
 10
-83.3679230655
 20
28.08942833
 10
-83.3948728387
 20
28.0914953751
 10
-83.4231745319
 20
28.0931627984
  0
LWPOLYLINE
  5
60C
100
AcDbEntity
  8
RACCORDO
100
AcDbPolyline
 62
253
  6
CONTINUOUS
 90
10
 70
0
 10
-87.5092335458
 20
28.6447074407
 10
-87.5163012979
 20
28.6479549127
 10
-87.5253444566
 20
28.6511703491
 10
-87.5362297884
 20
28.654306435
 10
-87.5487969195
 20
28.6573170242
 10
-87.5628606988
 20
28.6601578196
 10
-87.5782139257
 20
28.6627870254
 10
-87.5946304023
 20
28.6651659632
 10
-87.6118682664
 20
28.6672596416
 10
-87.6296735548
 20
28.6690372719
  0
LINE
  5
60D
100
AcDbEntity
  8
RACCORDO
100
AcDbLine
 62
253
  6
CONTINUOUS
 10
-87.5092337932
 20
28.6447038093
 11
-87.2024231445
 21
28.479928959
  0
LWPOLYLINE
  5
60E
100
AcDbEntity
  8
RACCORDO
100
AcDbPolyline
 62
253
  6
CONTINUOUS
 90
8
 70
0
 10
-83.262242734
 20
41.0528547321
 10
-83.2784226809
 20
41.0786617193
 10
-83.2971429799
 20
41.1026954507
 10
-83.3182102106
 20
41.1247076069
 10
-83.3414067041
 20
41.1444707558
 10
-83.3664927915
 20
41.1617807023
 10
-83.3932092803
 20
41.176458598
 10
-83.4212801327
 20
41.1883527891
  0
LINE
  5
60F
100
AcDbEntity
  8
RACCORDO
100
AcDbLine
 62
253
  6
CONTINUOUS
 10
-83.279105616
 20
-41.5364288065
 11
-83.298051171
 21
-41.5604419006
  0
LWPOLYLINE
  5
610
100
AcDbEntity
  8
RACCORDO
100
AcDbPolyline
 62
253
  6
CONTINUOUS
 90
5
 70
0
 10
-86.8069504667
 20
-43.7144825997
 10
-86.8183320471
 20
-43.7286357423
 10
-86.8313500247
 20
-43.7413051577
 10
-86.8458126423
 20
-43.7523042235
 10
-86.8615068627
 20
-43.7614709222
  0
LWPOLYLINE
  5
611
100
AcDbEntity
  8
RACCORDO
100
AcDbPolyline
 62
253
  6
CONTINUOUS
 90
5
 70
0
 10
-86.8069504657
 20
42.8616689738
 10
-86.8183320463
 20
42.8758221164
 10
-86.8313500242
 20
42.8884915317
 10
-86.8458126419
 20
42.8994905974
 10
-86.8615068625
 20
42.9086572959
  0
LINE
  5
612
100
AcDbEntity
  8
RACCORDO
100
AcDbLine
 62
253
  6
CONTINUOUS
 10
-83.2971397729
 20
-41.9563341307
 11
-83.3182061334
 21
-41.9783461982
  0
LWPOLYLINE
  5
613
100
AcDbEntity
  8
RACCORDO
100
AcDbPolyline
 62
253
  6
CONTINUOUS
 90
5
 70
0
 10
-83.2980531682
 20
-41.5591036603
 10
-83.3193672408
 20
-41.58106567
 10
-83.3428262433
 20
-41.6007470931
 10
-83.3681846325
 20
-41.6179419259
 10
-83.3951769845
 20
-41.6324701918
  0
LINE
  5
614
100
AcDbEntity
  8
RACCORDO
100
AcDbLine
 62
253
  6
CONTINUOUS
 10
-83.3182102102
 20
-41.9775212337
 11
-83.3414067037
 21
-41.9972843827
  0
LINE
  5
615
100
AcDbEntity
  8
RACCORDO
100
AcDbLine
 62
253
  6
CONTINUOUS
 10
-83.3414017009
 20
-41.9981093965
 11
-83.3664868272
 21
-42.0154195395
  0
LWPOLYLINE
  5
616
100
AcDbEntity
  8
RACCORDO
100
AcDbPolyline
 62
253
  6
CONTINUOUS
 90
3
 70
0
 10
-83.366492791
 20
-42.0145943293
 10
-83.3932092799
 20
-42.029272225
 10
-83.4212801324
 20
-42.0411664162
  0
LWPOLYLINE
  5
617
100
AcDbEntity
  8
RACCORDO
100
AcDbPolyline
 62
253
  6
CONTINUOUS
 90
3
 70
0
 10
-86.8615068627
 20
-43.7614709222
 10
-86.878201507
 20
-43.768670227
 10
-86.8956506599
 20
-43.7737960918
  0
LINE
  5
618
100
AcDbEntity
  8
RACCORDO
100
AcDbLine
 62
253
  6
CONTINUOUS
 10
-83.3951726692
 20
-41.6338102997
 11
-83.4235158603
 21
-41.6455204971
  0
LWPOLYLINE
  5
619
100
AcDbEntity
  8
RACCORDO
100
AcDbPolyline
 62
253
  6
CONTINUOUS
 90
4
 70
0
 10
-84.4508342649
 20
-42.3748564824
 10
-84.105064072
 20
-42.2716363083
 10
-83.7618170584
 20
-42.1603860954
 10
-83.4212801316
 20
-42.041166498
  0
LWPOLYLINE
  5
61A
100
AcDbEntity
  8
RACCORDO
100
AcDbPolyline
 62
253
  6
CONTINUOUS
 90
4
 70
0
 10
-84.4097913522
 20
-41.9544247387
 10
-84.0787179249
 20
-41.8583136689
 10
-83.7499065304
 20
-41.754881525
 10
-83.4235207729
 20
-41.6441798247
  0
LWPOLYLINE
  5
61B
100
AcDbEntity
  8
RACCORDO
100
AcDbPolyline
 62
7
  6
CONTINUOUS
 90
17
 70
0
 10
-89.62249621
 20
44.3960709755
 10
-89.6261150812
 20
44.395732263
 10
-89.6521757493
 20
44.3919725167
 10
-89.6778063703
 20
44.3859421562
 10
-89.7028095049
 20
44.3776876356
 10
-89.7269925474
 20
44.3672725424
 10
-89.7501692099
 20
44.3547771073
 10
-89.7721609568
 20
44.3402975865
 10
-89.7927983802
 20
44.3239455201
 10
-89.8119225053
 20
44.3058468727
 10
-89.8293860143
 20
44.2861410632
 10
-89.8450543822
 20
44.2649798906
 10
-89.8588069118
 20
44.2425263655
 10
-89.8705376638
 20
44.2189534542
 10
-89.880156274
 20
44.1944427453
 10
-89.8875886489
 20
44.169183051
 10
-89.8925310784
 20
44.1449248815
  0
LINE
  5
61C
100
AcDbEntity
  8
DRAFT
100
AcDbLine
 62
7
  6
CONTINUOUS
 10
-87.5934080969
 20
44.5735931869
 11
-89.6224962104
 21
44.3960709797
  0
LINE
  5
61D
100
AcDbEntity
  8
RACCORDO
100
AcDbLine
 62
253
  6
CONTINUOUS
 10
-87.0518023983
 20
43.2670283879
 11
-89.0777146992
 21
43.0902038999
  0
LINE
  5
61E
100
AcDbEntity
  8
RACCORDO
100
AcDbLine
 62
253
  6
CONTINUOUS
 10
-86.9194879828
 20
42.8135931869
 11
-88.944663347
 21
42.6376226651
  0
LWPOLYLINE
  5
61F
100
AcDbEntity
  8
RACCORDO
100
AcDbPolyline
 62
253
  6
CONTINUOUS
 90
10
 70
0
 10
-86.4344283733
 20
41.5221100345
 10
-86.0932814808
 20
41.4708023583
 10
-85.7533927658
 20
41.4119417581
 10
-85.4149313685
 20
41.3455574806
 10
-85.0780652579
 20
41.2716824096
 10
-84.7429625406
 20
41.1903533503
 10
-84.4097913522
 20
41.1016111126
 10
-84.0787179249
 20
41.0055000428
 10
-83.7499065304
 20
40.9020678989
 10
-83.4235207729
 20
40.7913661986
  0
LWPOLYLINE
  5
620
100
AcDbEntity
  8
RACCORDO
100
AcDbPolyline
 62
253
  6
CONTINUOUS
 90
10
 70
0
 10
-86.5467401328
 20
41.9667017951
 10
-86.2108919324
 20
41.9158765045
 10
-85.8553592201
 20
41.8535630764
 10
-85.5013948082
 20
41.7829823697
 10
-85.1491909088
 20
41.704172637
 10
-84.7989399154
 20
41.6171768596
 10
-84.4508342649
 20
41.5220428563
 10
-84.105064072
 20
41.4188226821
 10
-83.7618170584
 20
41.3075724692
 10
-83.4212801316
 20
41.1883528719
  0
LWPOLYLINE
  5
621
100
AcDbEntity
  8
RACCORDO
100
AcDbPolyline
 62
253
  6
CONTINUOUS
 90
10
 70
0
 10
-86.7830655134
 20
42.8196448519
 10
-86.5354952682
 20
42.7816165857
 10
-86.1363134687
 20
42.7095475421
 10
-85.7391644582
 20
42.6270457336
 10
-85.3443191064
 20
42.5341672826
 10
-84.952050755
 20
42.4309763388
 10
-84.5626348937
 20
42.317545562
 10
-84.1763409242
 20
42.1939539544
 10
-83.7934321164
 20
42.060286281
 10
-83.414171396
 20
41.9166347777
  0
LINE
  5
622
100
AcDbEntity
  8
RACCORDO
100
AcDbLine
 62
253
  6
CONTINUOUS
 10
-86.7630512493
 20
42.4694272081
 11
-86.887241003
 21
42.4975002213
  0
LINE
  5
623
100
AcDbEntity
  8
RACCORDO
100
AcDbLine
 62
253
  6
CONTINUOUS
 10
-86.8956507142
 20
42.9209825956
 11
-86.94718301
 21
42.9327792918
  0
LINE
  5
624
100
AcDbEntity
  8
RACCORDO
100
AcDbLine
 62
253
  6
CONTINUOUS
 10
-87.2725484646
 20
43.7973366089
 11
-87.2603599692
 21
43.7944852466
  0
LINE
  5
625
100
AcDbEntity
  8
RACCORDO
100
AcDbLine
 62
7
  6
CONTINUOUS
 10
-87.4510686125
 20
44.2282650299
 11
-87.4389265104
 21
44.2253944087
  0
LWPOLYLINE
  5
626
100
AcDbEntity
  8
RACCORDO
100
AcDbPolyline
 62
253
  6
CONTINUOUS
 90
3
 70
0
 10
-86.8615068625
 20
42.9086572959
 10
-86.878201507
 20
42.9158566006
 10
-86.89565066
 20
42.9209824652
  0
ARC
  5
627
100
AcDbEntity
  8
COPY_PUBLISH
100
AcDbCircle
 62
7
  6
CONTINUOUS
 10
407.2757078308
 20
-0.4264068131
 40
499.9
100
AcDbArc
 50
182.6974572913
 51
182.7168379444
  0
ARC
  5
628
100
AcDbEntity
  8
COPY_PUBLISH
100
AcDbCircle
 62
7
  6
CONTINUOUS
 10
407.2757078308
 20
-0.4264068131
 40
499.9
100
AcDbArc
 50
177.2831620556
 51
177.3025427087
  0
ARC
  5
629
100
AcDbEntity
  8
SUPERFICI
100
AcDbCircle
 62
7
  6
CONTINUOUS
 10
94.7202091589
 20
-15.2582085688
 40
186.9927899627
100
AcDbArc
 50
184.3170649948
 51
189.1508575153
  0
ARC
  5
62A
100
AcDbEntity
  8
SUPERFICI
100
AcDbCircle
 62
7
  6
CONTINUOUS
 10
94.7202091589
 20
-15.2582085688
 40
186.9927899627
100
AcDbArc
 50
182.7168379444
 51
183.4456227449
  0
ARC
  5
62B
100
AcDbEntity
  8
COPY_PUBLISH
100
AcDbCircle
 62
7
  6
CONTINUOUS
 10
94.7202091589
 20
14.4053949427
 40
186.9927899627
100
AcDbArc
 50
170.8490777736
 51
177.2831620556
  0
ARC
  5
62C
100
AcDbEntity
  8
RACCORDO
100
AcDbCircle
 62
7
  6
CONTINUOUS
 10
-89.2720104788
 20
-28.7980796422
 40
15.4791060273
100
AcDbArc
 50
278.5684618836
 51
292.250696577
  0
ARC
  5
62D
100
AcDbEntity
  8
RACCORDO
100
AcDbCircle
 62
7
  6
CONTINUOUS
 10
-89.2720104788
 20
27.9452660161
 40
15.4791060273
100
AcDbArc
 50
67.749303423
 51
81.4315379612
  0
ARC
  5
62E
100
AcDbEntity
  8
RACCORDO
100
AcDbCircle
 62
7
  6
CONTINUOUS
 10
-91.3711616374
 20
23.0670041682
 40
0.7
100
AcDbArc
 50
177.3025423382
 51
215.0
  0
ARC
  5
62F
100
AcDbEntity
  8
RACCORDO
100
AcDbCircle
 62
7
  6
CONTINUOUS
 10
-91.3711616374
 20
-23.9198177943
 40
0.7
100
AcDbArc
 50
145.0
 51
182.6974576618
  0
ARC
  5
630
100
AcDbEntity
  8
RACCORDO
100
AcDbCircle
 62
7
  6
CONTINUOUS
 10
-83.5242921692
 20
-42.8468872133
 40
0.3
100
AcDbArc
 50
292.2506969587
 51
0.0000010079
  0
ARC
  5
631
100
AcDbEntity
  8
RACCORDO
100
AcDbCircle
 62
7
  6
CONTINUOUS
 10
-83.5242921692
 20
41.9940735872
 40
0.3
100
AcDbArc
 50
359.9999989921
 51
67.7493030413
  0
ARC
  5
632
100
AcDbEntity
  8
RACCORDO
100
AcDbCircle
 62
7
  6
CONTINUOUS
 10
-85.0242921692
 20
-3.7585868868
 40
0.2
100
AcDbArc
 50
180.0047418885
 51
259.9999999995
  0
ARC
  5
633
100
AcDbEntity
  8
RACCORDO
100
AcDbCircle
 62
7
  6
CONTINUOUS
 10
-83.4242921692
 20
3.5940670746
 40
0.2
100
AcDbArc
 50
280.0
 51
360.0
  0
ARC
  5
634
100
AcDbEntity
  8
RACCORDO
100
AcDbCircle
 62
7
  6
CONTINUOUS
 10
-85.0242921692
 20
2.9057732607
 40
0.2
100
AcDbArc
 50
100.0000000009
 51
179.9946612026
  0
ARC
  5
635
100
AcDbEntity
  8
RACCORDO
100
AcDbCircle
 62
7
  6
CONTINUOUS
 10
-83.4242921769
 20
-4.4468806994
 40
0.2
100
AcDbArc
 50
359.9999996128
 51
79.9999977702
  0
ARC
  5
636
100
AcDbEntity
  8
RACCORDO
100
AcDbCircle
 62
7
  6
CONTINUOUS
 10
-87.4734379571
 20
-44.9322321473
 40
0.15
100
AcDbArc
 50
283.3015646304
 51
337.5646699853
  0
ARC
  5
637
100
AcDbEntity
  8
RACCORDO
100
AcDbCircle
 62
7
  6
CONTINUOUS
 10
-87.4734379571
 20
44.0794185212
 40
0.15
100
AcDbArc
 50
22.4353301431
 51
76.6984353696
  0
ENDSEC
  0
SECTION
  2
OBJECTS
  0
DICTIONARY
  5
C
100
AcDbDictionary
280
0
281
1
  3
ACAD_GROUP
350
D
  3
ACAD_MLINESTYLE
350
17
  3
ACAD_LAYOUT
350
1A
  3
ACAD_PLOTSETTINGS
350
19
  3
ACAD_PLOTSTYLENAME
350
E
  0
DICTIONARY
  5
D
102
{ACAD_REACTORS
330
C
102
}
100
AcDbDictionary
280
0
281
1
  0
ACDBDICTIONARYWDFLT
  5
E
102
{ACAD_REACTORS
330
C
102
}
100
AcDbDictionary
281
1
  3
Normal
350
F
100
AcDbDictionaryWithDefault
340
F
  0
DICTIONARY
  5
17
102
{ACAD_REACTORS
330
C
102
}
100
AcDbDictionary
280
0
281
1
  3
Standard
350
18
  0
DICTIONARY
  5
19
102
{ACAD_REACTORS
330
C
102
}
100
AcDbDictionary
281
1
  0
DICTIONARY
  5
1A
102
{ACAD_REACTORS
330
C
102
}
100
AcDbDictionary
281
1
  3
Model
350
638
  3
Layout1
350
639
  0
ACDBPLACEHOLDER
  5
F
102
{ACAD_REACTORS
330
E
102
}
  0
MLINESTYLE
  5
18
102
{ACAD_REACTORS
330
17
102
}
100
AcDbMlineStyle
  2
STANDARD
 70
0
  3

 62
256
 51
90.0
 52
90.0
 71
2
 49
0.5
 62
256
  6
BYLAYER
 49
-0.5
 62
256
  6
BYLAYER
  0
LAYOUT
  5
638
102
{ACAD_REACTORS
330
1A
102
}
100
AcDbPlotSettings
  1

  2
none_device
  4
ISO_A4_(297.00_x_210.00_MM)
  6

 40
0.0
 41
0.0
 42
0.0
 43
0.0
 44
297.0
 45
210.0
 46
0.0
 47
0.0
 48
0.0
 49
0.0
140
0.0
141
0.0
142
1.0
143
1.0
 70
1024
 72
1
 73
0
 74
0
  7

 75
0
147
1.0
148
0.0
149
0.0
100
AcDbLayout
  1
Model
 70
0
 71
0
 10
0.0
 20
0.0
 11
297.0
 21
210.0
 12
0.0
 22
0.0
 32
0.0
 14
0.0
 24
0.0
 34
0.0
 15
0.0
 25
0.0
 35
0.0
146
0.0
 13
0.0
 23
0.0
 33
0.0
 16
1.0
 26
0.0
 36
0.0
 17
0.0
 27
1.0
 37
0.0
 76
0
330
212
345
0
346
0
  0
LAYOUT
  5
639
102
{ACAD_REACTORS
330
1A
102
}
100
AcDbPlotSettings
  1

  2
none_device
  4
ISO_A4_(297.00_x_210.00_MM)
  6

 40
0.0
 41
0.0
 42
0.0
 43
0.0
 44
297.0
 45
210.0
 46
0.0
 47
0.0
 48
0.0
 49
0.0
140
0.0
141
0.0
142
1.0
143
1.0
 70
0
 72
1
 73
0
 74
0
  7

 75
0
147
1.0
148
0.0
149
0.0
100
AcDbLayout
  1
Layout1
 70
0
 71
1
 10
0.0
 20
0.0
 11
297.0
 21
210.0
 12
0.0
 22
0.0
 32
0.0
 14
0.0
 24
0.0
 34
0.0
 15
0.0
 25
0.0
 35
0.0
146
0.0
 13
0.0
 23
0.0
 33
0.0
 16
1.0
 26
0.0
 36
0.0
 17
0.0
 27
1.0
 37
0.0
 76
0
330
213
345
0
346
0
  0
ENDSEC
  0
EOF
