  0
SECTION
  2
HEADER
  9
$ACADVER
  1
AC1021
  9
$DWGCODEPAGE
  3
ANSI_1252
  9
$EXTMAX
 10
297.0
 20
210.0
 30
0.0
  9
$EXTMIN
 10
0.0
 20
0.0
 30
0.0
  9
$LIMMIN
 10
0.0
 20
0.0
  9
$LIMMAX
 10
297.0
 20
210.0
  9
$VIEWCTR
 10
148.5
 20
105.0
  9
$VIEWSIZE
 40
210.0
  9
$CLAYER
  8
0
  9
$LTSCALE
 40
16.335
  9
$CELTYPE
  6
BYLAYER
  9
$DIMSCALE
 40
1.0
  9
$DIMASZ
 40
3.0
  9
$DIMEXO
 40
1.85625
  9
$DIMDLI
 40
11.286
  9
$DIMEXE
 40
5.346
  9
$DIMCEN
 40
2.673
  9
$DIMLFAC
 40
1.0
  9
$DIMBLK
  1
_FILLED
  9
$DIMTXT
 40
3.0
  9
$DIMTOL
 70
1
  9
$DIMLIM
 70
0
  9
$DIMTFAC
 40
1.0
  9
$DIMTP
 40
0.01
  9
$DIMTM
 40
0.01
  9
$PDMODE
 70
3
  9
$PDSIZE
 40
3.0
  9
$HANDSEED
  5
4E2
  9
$TILEMODE
 70
1
  9
$MEASUREMENT
 70
1
  9
$INSUNITS
 70
4
  0
ENDSEC
  0
SECTION
  2
CLASSES
  0
CLASS
  1
ACDBDICTIONARYWDFLT
  2
AcDbDictionaryWithDefault
  3
AutoCAD 2000
 90
0
 91
1
280
0
281
0
  0
CLASS
  1
ACDBPLACEHOLDER
  2
AcDbPlaceHolder
  3
AutoCAD 2000
 90
0
 91
1
280
0
281
0
  0
CLASS
  1
LAYOUT
  2
AcDbLayout
  3
AutoCAD 2000
 90
0
 91
0
280
0
281
0
  0
ENDSEC
  0
SECTION
  2
TABLES
  0
TABLE
  2
VPORT
  5
8
100
AcDbSymbolTable
 70
2
  0
VPORT
  5
1F4
100
AcDbSymbolTableRecord
100
AcDbViewportTableRecord
  2
*ACTIVE
 70
0
 10
0.0
 20
0.0
 11
1.0
 21
1.0
 12
148.5
 22
105.0
 13
0.0
 23
0.0
 14
1.0
 24
1.0
 15
0.0
 25
0.0
 16
0.0
 26
0.0
 36
1.0
 17
0.0
 27
0.0
 37
0.0
 40
210.0
 41
1.4142857143
 42
50.0
 43
0.0
 44
0.0
 50
0.0
 51
0.0
 71
0
 72
100
 73
1
 74
1
 75
0
 76
0
 77
0
 78
0
  0
ENDTAB
  0
TABLE
  2
LTYPE
  5
5
100
AcDbSymbolTable
 70
6
  0
LTYPE
  5
14
100
AcDbSymbolTableRecord
100
AcDbLinetypeTableRecord
  2
BYBLOCK
 70
0
  3

 72
65
 73
0
 40
0.0
  0
LTYPE
  5
15
100
AcDbSymbolTableRecord
100
AcDbLinetypeTableRecord
  2
BYLAYER
 70
0
  3

 72
65
 73
0
 40
0.0
  0
LTYPE
  5
16
100
AcDbSymbolTableRecord
100
AcDbLinetypeTableRecord
  2
CONTINUOUS
 70
64
  3
Solid line
 72
65
 73
0
 40
0.0
  0
LTYPE
  5
1F5
100
AcDbSymbolTableRecord
100
AcDbLinetypeTableRecord
  2
CENTER
 70
64
  3
____ _ ____ _ ____ _ ____ _ ____ _ ____ _ ____
 72
65
 73
4
 40
0.6
 49
0.375
 74
0
 49
-0.075
 74
0
 49
0.075
 74
0
 49
-0.075
 74
0
  0
LTYPE
  5
1F6
100
AcDbSymbolTableRecord
100
AcDbLinetypeTableRecord
  2
HIDDEN
 70
64
  3
- - - - - - - - - - - - - - - - - - - -
 72
65
 73
2
 40
0.2
 49
0.1
 74
0
 49
-0.1
 74
0
  0
LTYPE
  5
1F7
100
AcDbSymbolTableRecord
100
AcDbLinetypeTableRecord
  2
PHANTOM
 70
64
  3
_____ _ _ _____ _ _ _____ _ _ _____
 72
65
 73
6
 40
0.8
 49
0.45
 74
0
 49
-0.05
 74
0
 49
0.1
 74
0
 49
-0.05
 74
0
 49
0.1
 74
0
 49
-0.05
 74
0
  0
LTYPE
  5
1F8
100
AcDbSymbolTableRecord
100
AcDbLinetypeTableRecord
  2
DOT
 70
64
  3
. . . . . . . . . . . . . . . . . . . .
 72
65
 73
2
 40
0.2
 49
0.1
 74
0
 49
-0.1
 74
0
  0
LTYPE
  5
1F9
100
AcDbSymbolTableRecord
100
AcDbLinetypeTableRecord
  2
DASHED
 70
64
  3
- - - - - - - - - - - - - - - - - - - -
 72
65
 73
2
 40
0.2
 49
0.1
 74
0
 49
-0.1
 74
0
  0
ENDTAB
  0
TABLE
  2
LAYER
  5
2
100
AcDbSymbolTable
 70
36
  0
LAYER
  5
10
100
AcDbSymbolTableRecord
100
AcDbLayerTableRecord
  2
0
 70
0
 62
7
  6
CONTINUOUS
370
-3
390
F
  0
LAYER
  5
1FA
100
AcDbSymbolTableRecord
100
AcDbLayerTableRecord
  2
DEFAULT_1
 70
0
 62
7
  6
CENTER
370
-3
390
F
  0
LAYER
  5
1FB
100
AcDbSymbolTableRecord
100
AcDbLayerTableRecord
  2
DEFAULT_2
 70
0
 62
7
  6
HIDDEN
370
-3
390
F
  0
LAYER
  5
1FC
100
AcDbSymbolTableRecord
100
AcDbLayerTableRecord
  2
DEFAULT_3
 70
0
 62
7
  6
PHANTOM
370
-3
390
F
  0
LAYER
  5
1FD
100
AcDbSymbolTableRecord
100
AcDbLayerTableRecord
  2
ASSI
 70
0
 62
7
  6
CONTINUOUS
370
-3
390
F
  0
LAYER
  5
1FE
100
AcDbSymbolTableRecord
100
AcDbLayerTableRecord
  2
COORDINATE
 70
0
 62
7
  6
CONTINUOUS
370
-3
390
F
  0
LAYER
  5
1FF
100
AcDbSymbolTableRecord
100
AcDbLayerTableRecord
  2
COPY_PUBLISH
 70
0
 62
7
  6
CONTINUOUS
370
-3
390
F
  0
LAYER
  5
200
100
AcDbSymbolTableRecord
100
AcDbLayerTableRecord
  2
COSMETIC
 70
0
 62
7
  6
CONTINUOUS
370
-3
390
F
  0
LAYER
  5
201
100
AcDbSymbolTableRecord
100
AcDbLayerTableRecord
  2
COSMETICI
 70
0
 62
7
  6
CONTINUOUS
370
-3
390
F
  0
LAYER
  5
202
100
AcDbSymbolTableRecord
100
AcDbLayerTableRecord
  2
CURVE
 70
0
 62
7
  6
CONTINUOUS
370
-3
390
F
  0
LAYER
  5
203
100
AcDbSymbolTableRecord
100
AcDbLayerTableRecord
  2
DRAFT
 70
0
 62
7
  6
CONTINUOUS
370
-3
390
F
  0
LAYER
  5
204
100
AcDbSymbolTableRecord
100
AcDbLayerTableRecord
  2
IMPORT_IGES
 70
0
 62
7
  6
CONTINUOUS
370
-3
390
F
  0
LAYER
  5
205
100
AcDbSymbolTableRecord
100
AcDbLayerTableRecord
  2
NOTE
 70
0
 62
7
  6
CONTINUOUS
370
-3
390
F
  0
LAYER
  5
206
100
AcDbSymbolTableRecord
100
AcDbLayerTableRecord
  2
PIANI
 70
0
 62
7
  6
CONTINUOUS
370
-3
390
F
  0
LAYER
  5
207
100
AcDbSymbolTableRecord
100
AcDbLayerTableRecord
  2
PUNTI
 70
0
 62
7
  6
CONTINUOUS
370
-3
390
F
  0
LAYER
  5
208
100
AcDbSymbolTableRecord
100
AcDbLayerTableRecord
  2
RACCORDO
 70
0
 62
7
  6
CONTINUOUS
370
-3
390
F
  0
LAYER
  5
209
100
AcDbSymbolTableRecord
100
AcDbLayerTableRecord
  2
SIMBOLI
 70
0
 62
7
  6
CONTINUOUS
370
-3
390
F
  0
LAYER
  5
20A
100
AcDbSymbolTableRecord
100
AcDbLayerTableRecord
  2
SMUSSO
 70
0
 62
7
  6
CONTINUOUS
370
-3
390
F
  0
LAYER
  5
20B
100
AcDbSymbolTableRecord
100
AcDbLayerTableRecord
  2
SNAPLINE
 70
0
 62
7
  6
CONTINUOUS
370
-3
390
F
  0
LAYER
  5
20C
100
AcDbSymbolTableRecord
100
AcDbLayerTableRecord
  2
SUPERFICI
 70
0
 62
7
  6
CONTINUOUS
370
-3
390
F
  0
LAYER
  5
20D
100
AcDbSymbolTableRecord
100
AcDbLayerTableRecord
  2
TRASH
 70
0
 62
7
  6
CONTINUOUS
370
-3
390
F
  0
LAYER
  5
20E
100
AcDbSymbolTableRecord
100
AcDbLayerTableRecord
  2
XSEC_DATUMS
 70
0
 62
7
  6
CONTINUOUS
370
-3
390
F
  0
ENDTAB
  0
TABLE
  2
STYLE
  5
3
100
AcDbSymbolTable
 70
1
  0
STYLE
  5
11
100
AcDbSymbolTableRecord
100
AcDbTextStyleTableRecord
  2
STANDARD
 70
0
 40
0.0
 41
0.8
 50
0.0
 71
0
 42
0.2
  3
txt
  4

  0
STYLE
  5
20F
100
AcDbSymbolTableRecord
100
AcDbTextStyleTableRecord
  2
TEXTSTYLE_1
 70
0
 40
0.0
 41
0.8
 50
0.0
 71
0
 42
0.2
  3
gdt
  4

  0
ENDTAB
  0
TABLE
  2
VIEW
  5
6
100
AcDbSymbolTable
 70
0
  0
ENDTAB
  0
TABLE
  2
UCS
  5
7
100
AcDbSymbolTable
 70
0
  0
ENDTAB
  0
TABLE
  2
APPID
  5
9
100
AcDbSymbolTable
 70
1
  0
APPID
  5
210
100
AcDbSymbolTableRecord
100
AcDbRegAppTableRecord
  2
ACAD
 70
0
  0
ENDTAB
  0
TABLE
  2
BLOCK_RECORD
  5
1
100
AcDbSymbolTable
 70
0
  0
BLOCK_RECORD
  5
211
100
AcDbSymbolTableRecord
100
AcDbBlockTableRecord
  2
*Model_Space
  0
BLOCK_RECORD
  5
212
100
AcDbSymbolTableRecord
100
AcDbBlockTableRecord
  2
*Paper_Space
  0
BLOCK_RECORD
  5
213
100
AcDbSymbolTableRecord
100
AcDbBlockTableRecord
  2
_FILLED
  0
BLOCK_RECORD
  5
214
100
AcDbSymbolTableRecord
100
AcDbBlockTableRecord
  2
*D0
  0
BLOCK_RECORD
  5
215
100
AcDbSymbolTableRecord
100
AcDbBlockTableRecord
  2
*D1
  0
BLOCK_RECORD
  5
216
100
AcDbSymbolTableRecord
100
AcDbBlockTableRecord
  2
*D2
  0
ENDTAB
  0
TABLE
  2
DIMSTYLE
  5
A
100
AcDbSymbolTable
 70
1
100
AcDbDimStyleTable
 71
0
  0
DIMSTYLE
105
217
100
AcDbSymbolTableRecord
100
AcDbDimStyleTableRecord
  2
STANDARD
 70
0
  3

  4

 40
1.0
 41
3.0
 42
0.0625
 43
0.38
 44
0.18
 45
0.0
 46
0.0
 47
0.01
 48
0.01
140
3.0
141
0.09
142
0.0
143
25.4
144
1.0
145
0.0
146
1.0
147
0.09
 71
1.0
 72
0.0
 73
0
 74
0
 75
0
 76
0
 77
1
 78
8
170
0
171
2
172
0
173
0
174
0
175
0
176
0
177
0
178
0
270
2
271
2
272
2
273
2
274
2
275
0
280
0
281
0
282
0
283
1
284
8
285
0
286
0
287
3
288
0
340
11
341
213
342
213
343
213
344
213
  0
DIMSTYLE
105
218
100
AcDbSymbolTableRecord
100
AcDbDimStyleTableRecord
  2
DIMSTYLE_1
 70
0
  3

  4

 40
1.0
 41
3.0
 42
0.0625
 43
0.38
 44
0.18
 45
0.0
 46
0.0
 47
0.0
 48
0.0
140
3.0
141
0.09
142
0.0
143
25.4
144
1.0
145
0.0
146
1.0
147
0.09
 71
0.0
 72
0.0
 73
0
 74
0
 75
0
 76
0
 77
1
 78
8
170
0
171
2
172
0
173
0
174
0
175
0
176
0
177
0
178
0
270
2
271
2
272
2
273
2
274
2
275
0
280
0
281
0
282
0
283
1
284
8
285
0
286
0
287
3
288
0
340
11
341
213
342
213
343
213
344
213
  0
ENDTAB
  0
ENDSEC
  0
SECTION
  2
BLOCKS
  0
BLOCK
  5
20
100
AcDbEntity
  8
0
100
AcDbBlockBegin
  2
*Model_Space
 70
0
 10
0.0
 20
0.0
 30
0.0
  3
*Model_Space
  1

  0
ENDBLK
  5
21
100
AcDbEntity
  8
0
100
AcDbBlockEnd
  0
BLOCK
  5
1C
100
AcDbEntity
  8
0
100
AcDbBlockBegin
  2
*Paper_Space
 70
0
 10
0.0
 20
0.0
 30
0.0
  3
*Paper_Space
  1

  0
ENDBLK
  5
1D
100
AcDbEntity
  8
0
100
AcDbBlockEnd
  0
BLOCK
  5
219
100
AcDbEntity
  8
0
100
AcDbBlockBegin
  2
_FILLED
 70
64
 10
0.0
 20
0.0
  3
_FILLED
  1

  0
SOLID
  5
21A
100
AcDbEntity
  8
0
  6
BYBLOCK
 62
0
100
AcDbTrace
 10
0.0
 20
0.0
 11
-1.0
 21
0.3166666667
 12
-1.0
 22
-0.3166666667
 13
-1.0
 23
-0.3166666667
  0
ENDBLK
  5
21B
100
AcDbEntity
  8
0
  6
BYBLOCK
 62
0
100
AcDbBlockEnd
  0
BLOCK
  5
21C
100
AcDbEntity
  8
0
100
AcDbBlockBegin
 62
7
  6
CONTINUOUS
  2
*D0
 70
65
 10
0.0
 20
0.0
  3
*D0
  1

  0
MTEXT
  5
21D
100
AcDbEntity
  8
0
100
AcDbMText
 62
7
  6
CONTINUOUS
  7
STANDARD
 71
2
 72
1
 10
12.9937263756
 20
61.3884133056
 30
0.0
 11
1.0
 21
0.0
 31
0.0
 44
0.9
  1
122
 40
3.0
 41
6.4285714286
  0
LINE
  5
21E
100
AcDbEntity
  8
0
100
AcDbLine
 62
7
  6
CONTINUOUS
 10
-48.0062736244
 20
0.1384133056
 11
-48.0062736244
 21
59.1384133056
  0
LINE
  5
21F
100
AcDbEntity
  8
0
100
AcDbLine
 62
7
  6
CONTINUOUS
 10
73.9937263756
 20
0.1384133056
 11
73.9937263756
 21
59.1384133056
  0
LINE
  5
220
100
AcDbEntity
  8
0
100
AcDbLine
 62
7
  6
CONTINUOUS
 10
-48.0062736244
 20
57.6384133056
 11
12.9937263756
 21
57.6384133056
  0
LINE
  5
221
100
AcDbEntity
  8
0
100
AcDbLine
 62
7
  6
CONTINUOUS
 10
73.9937263756
 20
57.6384133056
 11
12.9937263756
 21
57.6384133056
  0
INSERT
  5
222
100
AcDbEntity
  8
0
100
AcDbBlockReference
 62
7
  6
CONTINUOUS
  2
_FILLED
 10
-48.0062736244
 20
57.6384133056
 41
3.0
 42
3.0
 43
3.0
 50
180.0
  0
INSERT
  5
223
100
AcDbEntity
  8
0
100
AcDbBlockReference
 62
7
  6
CONTINUOUS
  2
_FILLED
 10
73.9937263756
 20
57.6384133056
 41
3.0
 42
3.0
 43
3.0
  0
ENDBLK
  5
224
100
AcDbEntity
  8
0
  6
BYBLOCK
 62
0
100
AcDbBlockEnd
  0
BLOCK
  5
225
100
AcDbEntity
  8
0
100
AcDbBlockBegin
 62
7
  6
CONTINUOUS
  2
*D1
 70
65
 10
0.0
 20
0.0
  3
*D1
  1

  0
MTEXT
  5
226
100
AcDbEntity
  8
0
100
AcDbMText
 62
7
  6
CONTINUOUS
  7
STANDARD
 71
2
 72
1
 10
82.2437263756
 20
-0.3615866944
 30
0.0
 11
0.0
 21
1.0
 31
0.0
 44
0.9
  1
90
 40
3.0
 41
4.7142857143
  0
LINE
  5
227
100
AcDbEntity
  8
0
100
AcDbLine
 62
7
  6
CONTINUOUS
 10
13.4937263756
 20
44.6384133056
 11
87.4937263756
 21
44.6384133056
  0
LINE
  5
228
100
AcDbEntity
  8
0
100
AcDbLine
 62
7
  6
CONTINUOUS
 10
13.4937263756
 20
-45.3615866944
 11
87.4937263756
 21
-45.3615866944
  0
LINE
  5
229
100
AcDbEntity
  8
0
100
AcDbLine
 62
7
  6
CONTINUOUS
 10
85.9937263756
 20
44.6384133056
 11
85.9937263756
 21
-0.3615866944
  0
LINE
  5
22A
100
AcDbEntity
  8
0
100
AcDbLine
 62
7
  6
CONTINUOUS
 10
85.9937263756
 20
-45.3615866944
 11
85.9937263756
 21
-0.3615866944
  0
INSERT
  5
22B
100
AcDbEntity
  8
0
100
AcDbBlockReference
 62
7
  6
CONTINUOUS
  2
_FILLED
 10
85.9937263756
 20
44.6384133056
 41
3.0
 42
3.0
 43
3.0
 50
90.0
  0
INSERT
  5
22C
100
AcDbEntity
  8
0
100
AcDbBlockReference
 62
7
  6
CONTINUOUS
  2
_FILLED
 10
85.9937263756
 20
-45.3615866944
 41
3.0
 42
3.0
 43
3.0
 50
270.0
  0
ENDBLK
  5
22D
100
AcDbEntity
  8
0
  6
BYBLOCK
 62
0
100
AcDbBlockEnd
  0
BLOCK
  5
22E
100
AcDbEntity
  8
0
100
AcDbBlockBegin
 62
7
  6
CONTINUOUS
  2
*D2
 70
65
 10
0.0
 20
0.0
  3
*D2
  1

  0
MTEXT
  5
22F
100
AcDbEntity
  8
0
100
AcDbMText
 62
7
  6
CONTINUOUS
  7
STANDARD
 71
3
 72
1
 10
-70.6292881862
 20
60.1948474876
 30
0.0
 11
1.0
 21
0.0
 31
0.0
 44
0.9
  1
8,5
 40
3.0
 41
6.2142857143
  0
LINE
  5
230
100
AcDbEntity
  8
0
100
AcDbLine
 62
7
  6
CONTINUOUS
 10
-60.6292584862
 20
25.115771781
 11
-60.6292584862
 21
57.9448474876
  0
LINE
  5
231
100
AcDbEntity
  8
0
100
AcDbLine
 62
7
  6
CONTINUOUS
 10
-69.1292584862
 20
23.4528085786
 11
-69.1292584862
 21
57.9448474876
  0
LINE
  5
232
100
AcDbEntity
  8
0
100
AcDbLine
 62
7
  6
CONTINUOUS
 10
-60.6292584862
 20
56.4448474876
 11
-64.8792584862
 21
56.4448474876
  0
LINE
  5
233
100
AcDbEntity
  8
0
100
AcDbLine
 62
7
  6
CONTINUOUS
 10
-69.1292584862
 20
56.4448474876
 11
-64.8792584862
 21
56.4448474876
  0
LINE
  5
234
100
AcDbEntity
  8
0
100
AcDbLine
 62
7
  6
CONTINUOUS
 10
-64.8792584862
 20
56.4448474876
 11
-76.8435739005
 21
56.4448474876
  0
INSERT
  5
235
100
AcDbEntity
  8
0
100
AcDbBlockReference
 62
7
  6
CONTINUOUS
  2
_FILLED
 10
-60.6292584862
 20
56.4448474876
 41
3.0
 42
3.0
 43
3.0
  0
INSERT
  5
236
100
AcDbEntity
  8
0
100
AcDbBlockReference
 62
7
  6
CONTINUOUS
  2
_FILLED
 10
-69.1292584862
 20
56.4448474876
 41
3.0
 42
3.0
 43
3.0
 50
180.0
  0
ENDBLK
  5
237
100
AcDbEntity
  8
0
  6
BYBLOCK
 62
0
100
AcDbBlockEnd
  0
ENDSEC
  0
SECTION
  2
ENTITIES
  0
DIMENSION
  5
238
100
AcDbEntity
  8
0
100
AcDbDimension
 62
7
  6
CONTINUOUS
  2
*D0
 10
73.9937263756
 20
57.6384133056
 11
9.7794406613
 21
59.8884133056
 70
160
 71
2
 42
122.0
  3
DIMSTYLE_1
100
AcDbAlignedDimension
 13
-48.0062736244
 23
0.1384133056
 14
73.9937263756
 24
0.1384133056
100
AcDbRotatedDimension
  0
DIMENSION
  5
239
100
AcDbEntity
  8
0
100
AcDbDimension
 62
7
  6
CONTINUOUS
  2
*D1
 10
85.9937263756
 20
-45.3615866944
 11
84.7998998993
 21
-2.4688645443
 70
160
 71
2
 42
90.0
  3
DIMSTYLE_1
100
AcDbAlignedDimension
 13
13.4937263756
 23
44.6384133056
 14
13.4937263756
 24
-45.3615866944
 50
270.0
100
AcDbRotatedDimension
  0
DIMENSION
  5
23A
100
AcDbEntity
  8
0
100
AcDbDimension
 62
7
  6
CONTINUOUS
  2
*D2
 10
-69.1292584862
 20
56.4448474876
 11
-79.9507167576
 21
58.6948474876
 70
160
 71
3
 42
8.5
  3
DIMSTYLE_1
100
AcDbAlignedDimension
 13
-60.6292584862
 23
25.115771781
 14
-69.1292584862
 24
23.4528085786
 50
180.0
100
AcDbRotatedDimension
  0
LWPOLYLINE
  5
23B
100
AcDbEntity
  8
RACCORDO
100
AcDbPolyline
 62
253
  6
CONTINUOUS
 90
10
 70
0
 10
-46.0352364966
 20
28.774320728
 10
-46.1061158673
 20
28.3322657696
 10
-46.1738159054
 20
27.8898258623
 10
-46.2383355361
 20
27.4470235801
 10
-46.2996742244
 20
27.0038776922
 10
-46.3578307725
 20
26.5604145412
 10
-46.4128035949
 20
26.1166680673
 10
-46.4645921936
 20
25.6726646206
 10
-46.513196882
 20
25.2284229339
 10
-46.5737703073
 20
24.6298102374
  0
LWPOLYLINE
  5
23C
100
AcDbEntity
  8
RACCORDO
100
AcDbPolyline
 62
253
  6
CONTINUOUS
 90
43
 70
0
 10
57.3306508885
 20
-43.2342957761
 10
57.8328027964
 20
-43.169350655
 10
58.3316328653
 20
-43.089260451
 10
58.8271465346
 20
-42.9940210239
 10
59.319707351
 20
-42.8835287527
 10
59.8089614023
 20
-42.7578766986
 10
60.2938372298
 20
-42.6173547614
 10
60.7744001004
 20
-42.4619171714
 10
61.2505914707
 20
-42.2915951939
 10
61.7211532571
 20
-42.106793658
 10
62.1860950789
 20
-41.9074623738
 10
62.6454107036
 20
-41.6936338659
 10
63.0978172157
 20
-41.4658368223
 10
63.5433031231
 20
-41.2240227744
 10
63.981879679
 20
-40.9682203564
 10
64.4122969676
 20
-40.6990741826
 10
64.8345412515
 20
-40.4165318795
 10
65.2486223198
 20
-40.1206249193
 10
65.6533244645
 20
-39.812124492
 10
66.0486358436
 20
-39.4909665641
 10
66.4345607712
 20
-39.157194379
 10
66.8099068317
 20
-38.8117414461
 10
67.174640776
 20
-38.4545519942
 10
67.5287851079
 20
-38.0856623783
 10
67.8712303596
 20
-37.7061463047
 10
68.20193652
 20
-37.3159484662
 10
68.5209302392
 20
-36.9151072534
 10
68.8272017317
 20
-36.5048394664
 10
69.1206893358
 20
-36.0851200947
 10
69.4014395472
 20
-35.6559607263
 10
69.6686049475
 20
-35.2186359804
 10
69.9221269498
 20
-34.7731330698
 10
70.1620480654
 20
-34.319455404
 10
70.3876731006
 20
-33.8589049676
 10
70.5989871088
 20
-33.3913334854
 10
70.7959888999
 20
-32.9168840427
 10
70.9780051405
 20
-32.4372991533
 10
71.1449454368
 20
-31.952520244
 10
71.2968854067
 20
-31.4626058038
 10
71.4334027558
 20
-30.9694778348
 10
71.5543531682
 20
-30.4737793963
 10
71.6598690257
 20
-29.9748726163
 10
71.7499443631
 20
-29.4727601556
  0
LWPOLYLINE
  5
23D
100
AcDbEntity
  8
RACCORDO
100
AcDbPolyline
 62
253
  6
CONTINUOUS
 90
43
 70
0
 10
57.3498108606
 20
-43.4804100126
 10
57.8601239166
 20
-43.4145729153
 10
58.3679747748
 20
-43.3331285925
 10
58.8728841117
 20
-43.2361734147
 10
59.3742502558
 20
-43.1238475714
 10
59.87173004
 20
-42.9962553957
 10
60.3652298456
 20
-42.8534269398
 10
60.8543597434
 20
-42.6954543668
 10
61.3385683312
 20
-42.5224963031
 10
61.8175131329
 20
-42.3346588854
 10
62.2907488576
 20
-42.1320865069
 10
62.757796606
 20
-41.9149551672
 10
63.2182644071
 20
-41.6834232394
 10
63.6717035318
 20
-41.4376794778
 10
64.1176635292
 20
-41.1779320891
 10
64.5557540603
 20
-40.9043796609
 10
64.9855453206
 20
-40.6172462823
 10
65.4065992972
 20
-40.316780795
 10
65.8185205367
 20
-40.0032326979
 10
66.2209095934
 20
-39.676855491
 10
66.613338237
 20
-39.3379459378
 10
66.9953820805
 20
-38.9868384706
 10
67.3666576458
 20
-38.6238378513
 10
67.7267782735
 20
-38.2492740078
 10
68.07533735
 20
-37.8635440177
 10
68.411987231
 20
-37.4669902542
 10
68.7363750798
 20
-37.0599850542
 10
69.0481161934
 20
-36.6429964179
 10
69.3468872754
 20
-36.2164286669
 10
69.6323970124
 20
-35.7806684156
 10
69.9043399104
 20
-35.3361789643
 10
70.1624355236
 20
-34.8833968625
 10
70.4064345166
 20
-34.422735855
 10
70.6361029545
 20
-33.9546386037
 10
70.8512631413
 20
-33.4794258626
 10
71.0516355729
 20
-32.997669276
 10
71.2368897973
 20
-32.5102110887
 10
71.4068774631
 20
-32.0175117874
 10
71.5614528895
 20
-31.5200671435
 10
71.7003878229
 20
-31.0188027852
 10
71.8235844714
 20
-30.5143624557
 10
71.9310303538
 20
-30.0070948202
 10
72.0226892278
 20
-29.4974941134
  0
LWPOLYLINE
  5
23E
100
AcDbEntity
  8
RACCORDO
100
AcDbPolyline
 62
253
  6
CONTINUOUS
 90
10
 70
0
 10
52.3477293097
 20
-43.6787823668
 10
52.9021777853
 20
-43.6412834715
 10
53.4564467307
 20
-43.6008118949
 10
54.0105370414
 20
-43.557367219
 10
54.5644764326
 20
-43.5109468189
 10
55.1182389261
 20
-43.4615523945
 10
55.6717448544
 20
-43.4091899722
 10
56.2249682068
 20
-43.3538611962
 10
56.777936624
 20
-43.2955633273
 10
57.3306508885
 20
-43.2342957761
  0
LWPOLYLINE
  5
23F
100
AcDbEntity
  8
RACCORDO
100
AcDbPolyline
 62
253
  6
CONTINUOUS
 90
10
 70
0
 10
52.3552265685
 20
-43.925323281
 10
52.9109583118
 20
-43.8877878772
 10
53.4665422824
 20
-43.8472757026
 10
54.0219625185
 20
-43.8037869622
 10
54.5772156975
 20
-43.7573207639
 10
55.1322731951
 20
-43.7078785313
 10
55.6870811501
 20
-43.6554646811
 10
56.2416110294
 20
-43.6000817555
 10
56.7958595648
 20
-43.5417297454
 10
57.3498108565
 20
-43.4804099774
  0
LINE
  5
240
100
AcDbEntity
  8
RACCORDO
100
AcDbLine
 62
253
  6
CONTINUOUS
 10
50.5525127642
 20
-43.7927637489
 11
52.3477293097
 21
-43.6787823668
  0
LINE
  5
241
100
AcDbEntity
  8
RACCORDO
100
AcDbLine
 62
253
  6
CONTINUOUS
 10
50.560048922
 20
-44.0391412096
 11
52.3552265685
 21
-43.9253232812
  0
LINE
  5
242
100
AcDbEntity
  8
RACCORDO
100
AcDbLine
 62
253
  6
CONTINUOUS
 10
48.7561575953
 20
-43.9016014433
 11
50.5525127642
 21
-43.7927637489
  0
LINE
  5
243
100
AcDbEntity
  8
RACCORDO
100
AcDbLine
 62
253
  6
CONTINUOUS
 10
48.7637301954
 20
-44.1478228999
 11
50.560048922
 21
-44.0391412096
  0
LINE
  5
244
100
AcDbEntity
  8
RACCORDO
100
AcDbLine
 62
253
  6
CONTINUOUS
 10
46.9662801617
 20
-44.2513600936
 11
48.7637301954
 21
-44.1478228999
  0
LINE
  5
245
100
AcDbEntity
  8
RACCORDO
100
AcDbLine
 62
253
  6
CONTINUOUS
 10
46.9586714172
 20
-44.0052873202
 11
48.7561575953
 21
-43.9016014433
  0
LWPOLYLINE
  5
246
100
AcDbEntity
  8
RACCORDO
100
AcDbPolyline
 62
253
  6
CONTINUOUS
 90
16
 70
0
 10
-20.9788274105
 20
-44.2513600936
 10
-16.4577980655
 20
-44.488303412
 10
-11.9334791279
 20
-44.6915344575
 10
-7.40611613
 20
-44.8610041617
 10
-2.8754934626
 20
-44.9966800385
 10
1.6576804828
 20
-45.098494574
 10
6.1917723416
 20
-45.1663805064
 10
10.7262689054
 20
-45.2003239731
 10
15.2611861828
 20
-45.2003239642
 10
19.7956835689
 20
-45.1663804709
 10
24.3297780112
 20
-45.0984944674
 10
28.8629553611
 20
-44.9966797999
 10
33.3935794366
 20
-44.861003806
 10
37.9209409082
 20
-44.6915340844
 10
42.4452563265
 20
-44.4883031422
 10
46.9662801617
 20
-44.2513600936
  0
LINE
  5
247
100
AcDbEntity
  8
RACCORDO
100
AcDbLine
 62
253
  6
CONTINUOUS
 10
-22.7762785168
 20
-44.1478228366
 11
-20.9788274105
 21
-44.2513600936
  0
LINE
  5
248
100
AcDbEntity
  8
RACCORDO
100
AcDbLine
 62
253
  6
CONTINUOUS
 10
-24.5725972607
 20
-44.0391411421
 11
-22.7762785168
 21
-44.1478228366
  0
LINE
  5
249
100
AcDbEntity
  8
RACCORDO
100
AcDbLine
 62
253
  6
CONTINUOUS
 10
-26.3677732345
 20
-43.925323319
 11
-24.5725972607
 21
-44.0391411421
  0
LWPOLYLINE
  5
24A
100
AcDbEntity
  8
RACCORDO
100
AcDbPolyline
 62
253
  6
CONTINUOUS
 90
3
 70
0
 10
-26.3602765586
 20
-43.6787823668
 10
-25.7619986804
 20
-43.7173477733
 10
-24.565061081
 20
-43.7927636826
  0
LWPOLYLINE
  5
24B
100
AcDbEntity
  8
RACCORDO
100
AcDbPolyline
 62
253
  6
CONTINUOUS
 90
10
 70
0
 10
-31.3623443042
 20
-43.4804115425
 10
-30.8084008802
 20
-43.5417303861
 10
-30.2541582513
 20
-43.6000817583
 10
-29.6996323135
 20
-43.6554643007
 10
-29.1448258404
 20
-43.707878036
 10
-28.5897678527
 20
-43.7573203401
 10
-28.0345136836
 20
-43.8037866451
 10
-27.4790924486
 20
-43.847275482
 10
-26.9235069785
 20
-43.8877877776
 10
-26.3677732345
 20
-43.9253233188
  0
LWPOLYLINE
  5
24C
100
AcDbEntity
  8
RACCORDO
100
AcDbPolyline
 62
253
  6
CONTINUOUS
 90
10
 70
0
 10
-31.3431981374
 20
-43.2342957761
 10
-30.7904838108
 20
-43.2955633326
 10
-30.2375153462
 20
-43.3538612054
 10
-29.6842919612
 20
-43.4091899844
 10
-29.1307860142
 20
-43.4615524086
 10
-28.5770235168
 20
-43.5109468337
 10
-28.0230841395
 20
-43.5573672329
 10
-27.4689938613
 20
-43.6008119059
 10
-26.9147249662
 20
-43.6412834778
 10
-26.3602765586
 20
-43.6787823668
  0
LWPOLYLINE
  5
24D
100
AcDbEntity
  8
RACCORDO
100
AcDbPolyline
 62
253
  6
CONTINUOUS
 90
43
 70
0
 10
-46.0352341437
 20
-29.4975083371
 10
-45.9435632621
 20
-30.0071680752
 10
-45.8361047246
 20
-30.5144808875
 10
-45.7128960108
 20
-31.0189526604
 10
-45.5739517668
 20
-31.520231738
 10
-45.4193702618
 20
-32.0176778977
 10
-45.2493775526
 20
-32.5103752421
 10
-45.0641189673
 20
-32.9978297663
 10
-44.8637437179
 20
-33.4795794047
 10
-44.6485805915
 20
-33.95478622
 10
-44.418908197
 20
-34.4228801034
 10
-44.1749048357
 20
-34.8835386477
 10
-43.9168046896
 20
-35.3363185718
 10
-43.6448572003
 20
-35.7808058879
 10
-43.3593426536
 20
-36.2165642549
 10
-43.0605664373
 20
-36.6431304506
 10
-42.7488201787
 20
-37.0601173701
 10
-42.4244268111
 20
-37.4671211348
 10
-42.0877697752
 20
-37.8636751069
 10
-41.7392009901
 20
-38.2494076061
 10
-41.3790686545
 20
-38.6239752365
 10
-41.0077803058
 20
-38.9869797343
 10
-40.6257224895
 20
-39.3380911542
 10
-40.2332787258
 20
-39.6770045739
 10
-39.8308747718
 20
-40.0033843728
 10
-39.4189394859
 20
-40.3169334198
 10
-38.9978718651
 20
-40.6173986957
 10
-38.5680672065
 20
-40.9045308948
 10
-38.129963456
 20
-41.1780812781
 10
-37.6839905885
 20
-41.4378257067
 10
-37.2305391339
 20
-41.6835655539
 10
-36.7700577434
 20
-41.9150935567
 10
-36.3029970002
 20
-42.1322200041
 10
-35.8297547933
 20
-42.3347841752
 10
-35.3508104887
 20
-42.5226105814
 10
-34.8666094032
 20
-42.6955555329
 10
-34.3774996309
 20
-42.8535118692
 10
-33.8840399047
 20
-42.9963201779
 10
-33.3866134473
 20
-43.1238917875
 10
-32.8852981423
 20
-43.2362011225
 10
-32.3804316205
 20
-43.3331445166
 10
-31.8726206232
 20
-43.4145802262
 10
-31.3623443088
 20
-43.4804115828
  0
LWPOLYLINE
  5
24E
100
AcDbEntity
  8
RACCORDO
100
AcDbPolyline
 62
253
  6
CONTINUOUS
 90
43
 70
0
 10
-45.762491612
 20
-29.4727601556
 10
-45.672390486
 20
-29.9749830541
 10
-45.56685273
 20
-30.4739737943
 10
-45.445884328
 20
-30.9697297357
 10
-45.3093538768
 20
-31.4628811571
 10
-45.1574047524
 20
-31.9527926424
 10
-44.9904563755
 20
-32.4375650445
 10
-44.8084326132
 20
-32.9171460348
 10
-44.6114243758
 20
-33.3915880295
 10
-44.4001036538
 20
-33.8591528689
 10
-44.1744711579
 20
-34.3196991364
 10
-43.9345423127
 20
-34.7733734361
 10
-43.6810124021
 20
-35.2188731255
 10
-43.4138389931
 20
-35.6561945706
 10
-43.1330805944
 20
-36.0853507832
 10
-42.8395844806
 20
-36.5050671598
 10
-42.5333045443
 20
-36.9153317685
 10
-42.2143020588
 20
-37.3161699641
 10
-41.8835855006
 20
-37.7063659925
 10
-41.5411275139
 20
-38.0858822795
 10
-41.1869688151
 20
-38.4547733131
 10
-40.8222196803
 20
-38.8119639808
 10
-40.4468574199
 20
-39.1574178315
 10
-40.0609154689
 20
-39.4911907331
 10
-39.6655876095
 20
-39.8123480612
 10
-39.2608700274
 20
-40.12084608
 10
-38.8467740643
 20
-40.4167493181
 10
-38.4245152946
 20
-40.6992869528
 10
-37.9940837863
 20
-40.9684276135
 10
-37.5554934188
 20
-41.2242235734
 10
-37.1099944012
 20
-41.4660302813
 10
-36.6575735504
 20
-41.6938196867
 10
-36.1982442875
 20
-41.9076396751
 10
-35.7332956096
 20
-42.1069598722
 10
-35.2627337764
 20
-42.2917469279
 10
-34.786549139
 20
-42.4620518602
 10
-34.3060057775
 20
-42.6174706342
 10
-33.8211649246
 20
-42.75797104
 10
-33.3319586229
 20
-42.8835997921
 10
-32.8394562594
 20
-42.9940706172
 10
-32.3440110575
 20
-43.0892916613
 10
-31.8452601626
 20
-43.1693653346
 10
-31.3431981374
 20
-43.2342957761
  0
LWPOLYLINE
  5
24F
100
AcDbEntity
  8
RACCORDO
100
AcDbPolyline
 62
253
  6
CONTINUOUS
 90
9
 70
0
 10
-46.5131969487
 20
-25.9515956909
 10
-46.4645924308
 20
-26.3958359099
 10
-46.4128039644
 20
-26.8398383839
 10
-46.357831286
 20
-27.2835839021
 10
-46.2996748292
 20
-27.7270465911
 10
-46.2383359668
 20
-28.1701939369
 10
-46.1738157839
 20
-28.6130000667
 10
-46.1061148377
 20
-29.0554457281
 10
-46.0352341613
 20
-29.4975083401
  0
LWPOLYLINE
  5
250
100
AcDbEntity
  8
RACCORDO
100
AcDbPolyline
 62
253
  6
CONTINUOUS
 90
9
 70
0
 10
-46.2383727566
 20
-25.9371268395
 10
-46.1899820052
 20
-26.3800606452
 10
-46.138420211
 20
-26.8227407951
 10
-46.083688888
 20
-27.2651835462
 10
-46.0257882801
 20
-27.7073654848
 10
-45.9647174034
 20
-28.1492235661
 10
-45.900476636
 20
-28.5907344537
 10
-45.8330676758
 20
-29.0319144795
 10
-45.762491612
 20
-29.4727601556
  0
LINE
  5
251
100
AcDbEntity
  8
RACCORDO
100
AcDbLine
 62
253
  6
CONTINUOUS
 10
-46.5737702305
 20
-25.3529844092
 11
-46.5131969487
 21
-25.9515956909
  0
LINE
  5
252
100
AcDbEntity
  8
RACCORDO
100
AcDbLine
 62
253
  6
CONTINUOUS
 10
-46.2987347696
 20
-25.3396691258
 11
-46.2383727566
 21
-25.9371268395
  0
LINE
  5
253
100
AcDbEntity
  8
RACCORDO
100
AcDbLine
 62
253
  6
CONTINUOUS
 10
-46.6918311271
 20
-24.1194033524
 11
-46.5737702305
 21
-25.3529844092
  0
LINE
  5
254
100
AcDbEntity
  8
RACCORDO
100
AcDbLine
 62
253
  6
CONTINUOUS
 10
-46.4167226592
 20
-24.1051346678
 11
-46.2987347696
 21
-25.3396691258
  0
LWPOLYLINE
  5
255
100
AcDbEntity
  8
RACCORDO
100
AcDbPolyline
 62
253
  6
CONTINUOUS
 90
16
 70
0
 10
-46.6918311271
 20
23.3962299637
 10
-46.9672863801
 20
20.2353634362
 10
-47.2034427383
 20
17.0716199544
 10
-47.4002749979
 20
13.9054766779
 10
-47.5577543602
 20
10.7376150399
 10
-47.6758813119
 20
7.568308479
 10
-47.7546596985
 20
4.397421389
 10
-47.7940665949
 20
1.2249689119
 10
-47.7940667963
 20
-1.9481097773
 10
-47.754660264
 20
-5.1205644283
 10
-47.6758820892
 20
-8.2914569086
 10
-47.5577551187
 20
-11.4607710268
 10
-47.4002756028
 20
-14.6286392523
 10
-47.203443164
 20
-17.7947871026
 10
-46.9672865919
 20
-20.9585341889
 10
-46.6918311271
 20
-24.1194033524
  0
LWPOLYLINE
  5
256
100
AcDbEntity
  8
RACCORDO
100
AcDbPolyline
 62
253
  6
CONTINUOUS
 90
16
 70
0
 10
-46.4167222065
 20
23.3819614035
 10
-46.6919516175
 20
20.2224264705
 10
-46.9279503207
 20
17.0607118478
 10
-47.1246713729
 20
13.8969431629
 10
-47.2820633553
 20
10.7310980401
 10
-47.4001060414
 20
7.5634511301
 10
-47.478811151
 20
4.3945742837
 10
-47.5181746594
 20
1.2241358484
 10
-47.5181748778
 20
-1.9472781253
 10
-47.4788116891
 20
-5.1177187295
 10
-47.4001066796
 20
-8.2866010132
 10
-47.2820639688
 20
-11.4542555276
 10
-47.124671902
 20
-14.6201071204
 10
-46.927950731
 20
-17.7838800414
 10
-46.691951854
 20
-20.9455977662
 10
-46.4167222159
 20
-24.1051346678
  0
LINE
  5
257
100
AcDbEntity
  8
RACCORDO
100
AcDbLine
 62
253
  6
CONTINUOUS
 10
-46.5737703073
 20
24.6298102374
 11
-46.6918311271
 21
23.3962299637
  0
LINE
  5
258
100
AcDbEntity
  8
RACCORDO
100
AcDbLine
 62
253
  6
CONTINUOUS
 10
-46.2987347712
 20
24.6164957211
 11
-46.4167226474
 21
23.3819614035
  0
LWPOLYLINE
  5
259
100
AcDbEntity
  8
RACCORDO
100
AcDbPolyline
 62
253
  6
CONTINUOUS
 90
10
 70
0
 10
-45.762491612
 20
28.7495867668
 10
-45.833067831
 20
28.3087400189
 10
-45.9004769034
 20
27.8675591915
 10
-45.9647177401
 20
27.4260477727
 10
-46.0257886385
 20
26.9841894345
 10
-46.0836892254
 20
26.5420075099
 10
-46.1384205005
 20
26.0995650328
 10
-46.1899822249
 20
25.6568854136
 10
-46.2383728797
 20
25.213952399
 10
-46.2987347712
 20
24.6164957211
  0
LWPOLYLINE
  5
25A
100
AcDbEntity
  8
RACCORDO
100
AcDbPolyline
 62
253
  6
CONTINUOUS
 90
16
 70
0
 10
-20.9712186661
 20
-44.0052873202
 10
-16.4508093569
 20
-44.2426840596
 10
-11.9275841137
 20
-44.4461824003
 10
-7.4015537334
 20
-44.6158067655
 10
-2.8720218439
 20
-44.7516314292
 10
1.6603005515
 20
-44.8536193413
 10
6.1932947415
 20
-44.9216220931
 10
10.7266952698
 20
-44.9555945087
 10
15.2607614185
 20
-44.9555944998
 10
19.7941627666
 20
-44.921622039
 10
24.3271595921
 20
-44.853619159
 10
28.8594854427
 20
-44.7516310912
 10
33.3890186191
 20
-44.6158063567
 10
37.9150471223
 20
-44.4461820429
 10
42.4382683205
 20
-44.2426838385
 10
46.9586714172
 20
-44.0052873202
  0
LINE
  5
25B
100
AcDbEntity
  8
RACCORDO
100
AcDbLine
 62
253
  6
CONTINUOUS
 10
-22.7687059061
 20
-43.9016013805
 11
-20.9712186661
 21
-44.0052873202
  0
LINE
  5
25C
100
AcDbEntity
  8
RACCORDO
100
AcDbLine
 62
253
  6
CONTINUOUS
 10
-24.565061081
 20
-43.7927636826
 11
-22.7687059061
 21
-43.9016013805
  0
LWPOLYLINE
  5
25D
100
AcDbEntity
  8
0
100
AcDbPolyline
 62
7
  6
CONTINUOUS
 90
7
 70
0
 10
17.8162295404
 20
-27.9159673224
 10
17.8283142233
 20
-27.913173505
 10
17.8400110869
 20
-27.9093662949
 10
17.8513201332
 20
-27.9045456866
 10
17.8621140297
 20
-27.8985615454
 10
17.8725201117
 20
-27.8915639898
 10
17.8829203829
 20
-27.8840033966
  0
LWPOLYLINE
  5
25E
100
AcDbEntity
  8
RACCORDO
100
AcDbPolyline
 62
253
  6
CONTINUOUS
 90
28
 70
0
 10
-21.0452252594
 20
22.4886947565
 10
-21.0151112817
 20
22.5149103426
 10
-20.9843226647
 20
22.5403455719
 10
-20.9528594097
 20
22.5650004498
 10
-20.9206961607
 20
22.5889015979
 10
-20.8878582751
 20
22.6120224048
 10
-20.8544218239
 20
22.6342830266
 10
-20.8203799338
 20
22.655679437
 10
-20.7857394777
 20
22.6762156725
 10
-20.7505971453
 20
22.6958239844
 10
-20.7149432623
 20
22.7144958775
 10
-20.6787875008
 20
22.7322398568
 10
-20.6422555704
 20
22.7490136742
 10
-20.6053438656
 20
22.7648121684
 10
-20.568055988
 20
22.7796405094
 10
-20.5305284577
 20
22.793471946
 10
-20.4927498245
 20
22.8063057727
 10
-20.4547315331
 20
22.8181427023
 10
-20.4166444468
 20
22.828958111
 10
-20.378481078
 20
22.8387404273
 10
-20.3402489079
 20
22.8475012285
 10
-20.3021412523
 20
22.8552506142
 10
-20.2641590087
 20
22.8619729746
 10
-20.226301273
 20
22.8676839234
 10
-20.1887586598
 20
22.8724403952
 10
-20.1515947055
 20
22.8762613686
 10
-20.1147458679
 20
22.8791278672
 10
-20.0782121437
 20
22.8810398917
  0
LWPOLYLINE
  5
25F
100
AcDbEntity
  8
RACCORDO
100
AcDbPolyline
 62
7
  6
CONTINUOUS
 90
16
 70
0
 10
-20.7726156255
 20
22.1821937886
 10
-20.7314016838
 20
22.2160392639
 10
-20.6888206927
 20
22.2478686419
 10
-20.6450386627
 20
22.2775878605
 10
-20.6001675425
 20
22.3051364911
 10
-20.5542872933
 20
22.3304602034
 10
-20.5074367161
 20
22.3535312662
 10
-20.4597314518
 20
22.3743252679
 10
-20.411185954
 20
22.3928991651
 10
-20.3617991405
 20
22.4092932176
 10
-20.3116628476
 20
22.4234662595
 10
-20.2610392819
 20
22.435314775
 10
-20.210207849
 20
22.4447852602
 10
-20.1592453982
 20
22.4519016019
 10
-20.108145683
 20
22.4566955716
 10
-20.057031628
 20
22.45918646
  0
LWPOLYLINE
  5
260
100
AcDbEntity
  8
0
100
AcDbPolyline
 62
7
  6
CONTINUOUS
 90
10
 70
0
 10
16.8764236296
 20
-26.9166414903
 10
16.9288936923
 20
-26.9079486077
 10
16.9810212077
 20
-26.9009843774
 10
17.0328061594
 20
-26.8957488148
 10
17.0843256172
 20
-26.8922596687
 10
17.1355024786
 20
-26.8904992097
 10
17.1861054693
 20
-26.8904142304
 10
17.2360574881
 20
-26.8919869939
 10
17.2854356053
 20
-26.8952352339
 10
17.3342398057
 20
-26.9001589433
  0
LWPOLYLINE
  5
261
100
AcDbEntity
  8
RACCORDO
100
AcDbPolyline
 62
253
  6
CONTINUOUS
 90
10
 70
0
 10
46.0656648948
 20
-23.6042132805
 10
44.3338629534
 20
-23.675146387
 10
42.6017896151
 20
-23.742261005
 10
40.8694487425
 20
-23.805557205
 10
39.1368466729
 20
-23.8650347835
 10
37.4039847683
 20
-23.9206940744
 10
35.670859416
 20
-23.9725359491
 10
33.9374719624
 20
-24.0205607338
 10
32.2038287151
 20
-24.0647682095
 10
30.4699334923
 20
-24.1051584239
  0
LINE
  5
262
100
AcDbEntity
  8
0
100
AcDbLine
 62
7
  6
CONTINUOUS
 10
8.3776193756
 20
-29.2393876944
 11
8.8926293756
 21
-29.2393876944
  0
LINE
  5
263
100
AcDbEntity
  8
0
100
AcDbLine
 62
7
  6
CONTINUOUS
 10
10.0094413756
 20
-29.2393876944
 11
10.5938493756
 21
-29.2393876944
  0
LINE
  5
264
100
AcDbEntity
  8
0
100
AcDbLine
 62
7
  6
CONTINUOUS
 10
10.9084543756
 20
-29.2393876944
 11
11.4675433756
 21
-29.2393876944
  0
LINE
  5
265
100
AcDbEntity
  8
0
100
AcDbLine
 62
7
  6
CONTINUOUS
 10
12.2792393756
 20
-29.2393876944
 11
12.3612023756
 21
-29.2393876944
  0
LINE
  5
266
100
AcDbEntity
  8
0
100
AcDbLine
 62
7
  6
CONTINUOUS
 10
13.1761323756
 20
-29.2393876944
 11
13.7478383756
 21
-29.2393876944
  0
LINE
  5
267
100
AcDbEntity
  8
0
100
AcDbLine
 62
7
  6
CONTINUOUS
 10
13.8396063756
 20
-29.2393876944
 11
14.4176733756
 21
-29.2393876944
  0
LINE
  5
268
100
AcDbEntity
  8
0
100
AcDbLine
 62
7
  6
CONTINUOUS
 10
15.5261923756
 20
-29.2393876944
 11
16.1421343756
 21
-29.2393876944
  0
LINE
  5
269
100
AcDbEntity
  8
0
100
AcDbLine
 62
7
  6
CONTINUOUS
 10
16.3137451779
 20
-29.2393880488
 11
16.8958017204
 21
-29.2393880488
  0
LINE
  5
26A
100
AcDbEntity
  8
0
100
AcDbLine
 62
7
  6
CONTINUOUS
 10
17.7907419974
 20
-29.2393880488
 11
18.3528745875
 21
-29.2393880488
  0
LINE
  5
26B
100
AcDbEntity
  8
0
100
AcDbLine
 62
7
  6
CONTINUOUS
 10
14.5789333756
 20
-28.6804676944
 11
15.3748003756
 21
-28.6804676944
  0
LINE
  5
26C
100
AcDbEntity
  8
0
100
AcDbLine
 62
7
  6
CONTINUOUS
 10
14.6984773756
 20
-28.2479776944
 11
15.2580063756
 21
-28.2479776944
  0
LINE
  5
26D
100
AcDbEntity
  8
0
100
AcDbLine
 62
7
  6
CONTINUOUS
 10
16.8958017204
 20
-28.1437386191
 11
17.2091473379
 21
-28.1437386191
  0
LINE
  5
26E
100
AcDbEntity
  8
0
100
AcDbLine
 62
7
  6
CONTINUOUS
 10
16.8764236296
 20
-27.685214781
 11
17.2104070187
 21
-27.685214781
  0
LINE
  5
26F
100
AcDbEntity
  8
0
100
AcDbLine
 62
7
  6
CONTINUOUS
 10
7.4900583756
 20
-26.4396846944
 11
8.1249063756
 21
-26.4396846944
  0
LINE
  5
270
100
AcDbEntity
  8
0
100
AcDbLine
 62
7
  6
CONTINUOUS
 10
9.2085573756
 20
-26.4396846944
 11
9.7925663756
 21
-26.4396846944
  0
LINE
  5
271
100
AcDbEntity
  8
0
100
AcDbLine
 62
7
  6
CONTINUOUS
 10
11.1612513756
 20
-26.4396846944
 11
11.7451763756
 21
-26.4396846944
  0
LINE
  5
272
100
AcDbEntity
  8
0
100
AcDbLine
 62
7
  6
CONTINUOUS
 10
12.9078203756
 20
-26.4396846944
 11
13.4860343756
 21
-26.4396846944
  0
LINE
  5
273
100
AcDbEntity
  8
0
100
AcDbLine
 62
7
  6
CONTINUOUS
 10
14.7177713756
 20
-26.4396846944
 11
15.2831163756
 21
-26.4396846944
  0
LINE
  5
274
100
AcDbEntity
  8
0
100
AcDbLine
 62
7
  6
CONTINUOUS
 10
10.0094413756
 20
-26.4395166944
 11
10.5938493756
 21
-26.4395166944
  0
LWPOLYLINE
  5
275
100
AcDbEntity
  8
0
100
AcDbPolyline
 62
7
  6
CONTINUOUS
 90
19
 70
0
 10
17.2091473379
 20
-28.1437386191
 10
17.2334189569
 20
-28.1445009458
 10
17.2573269109
 20
-28.1469712956
 10
17.2808711911
 20
-28.1511496626
 10
17.3041994641
 20
-28.1570184432
 10
17.3271640461
 20
-28.1645952163
 10
17.3493219034
 20
-28.1739327424
 10
17.3706141452
 20
-28.1851737342
 10
17.3910996467
 20
-28.198175425
 10
17.4105120273
 20
-28.2125623567
 10
17.4287686054
 20
-28.2283365816
 10
17.4459520554
 20
-28.2454959864
 10
17.462044036
 20
-28.2636588765
 10
17.4770573217
 20
-28.2827978221
 10
17.4909791372
 20
-28.3029401983
 10
17.5037528201
 20
-28.3237865337
 10
17.5153594853
 20
-28.3452369935
 10
17.5258180228
 20
-28.3673913702
 10
17.535128435
 20
-28.3902496402
  0
LWPOLYLINE
  5
276
100
AcDbEntity
  8
RACCORDO
100
AcDbPolyline
 62
253
  6
CONTINUOUS
 90
34
 70
0
 10
-21.0452252594
 20
-23.2118681453
 10
-21.0721135623
 20
-23.1873547162
 10
-21.098589492
 20
-23.1619757576
 10
-21.1246530488
 20
-23.1357312634
 10
-21.1503341271
 20
-23.108621312
 10
-21.1756028322
 20
-23.0806458125
 10
-21.2003694803
 20
-23.0518045055
 10
-21.2246363836
 20
-23.0220958364
 10
-21.2484012267
 20
-22.9915213461
 10
-21.2715673826
 20
-22.9600854184
 10
-21.294162191
 20
-22.9277440135
 10
-21.3161583058
 20
-22.8945411563
 10
-21.3373770699
 20
-22.8606133282
 10
-21.3578142282
 20
-22.8259293412
 10
-21.3774740254
 20
-22.79052037
 10
-21.3961905515
 20
-22.7546164445
 10
-21.4139302331
 20
-22.7182295728
 10
-21.4307266301
 20
-22.6813477376
 10
-21.4465145318
 20
-22.6441649337
 10
-21.4612760306
 20
-22.6066974646
 10
-21.475029019
 20
-22.5689290213
 10
-21.4877619861
 20
-22.5310046834
 10
-21.4994710524
 20
-22.4929237574
 10
-21.5101600817
 20
-22.4546869341
 10
-21.51982918
 20
-22.4164413724
 10
-21.5284706307
 20
-22.3781838362
 10
-21.5360921349
 20
-22.3399175618
 10
-21.5427169272
 20
-22.3017994198
 10
-21.5483310053
 20
-22.2638560639
 10
-21.5529483577
 20
-22.2260608441
 10
-21.5566342063
 20
-22.1884906769
 10
-21.5594102884
 20
-22.1511712034
 10
-21.5612548548
 20
-22.1140767875
 10
-21.5621678993
 20
-22.0772074318
  0
LWPOLYLINE
  5
277
100
AcDbEntity
  8
RACCORDO
100
AcDbPolyline
 62
7
  6
CONTINUOUS
 90
16
 70
0
 10
-20.7726141656
 20
-22.9053655776
 10
-20.8188204906
 20
-22.8631668179
 10
-20.8625740053
 20
-22.8184853319
 10
-20.903846204
 20
-22.7713642376
 10
-20.9425418243
 20
-22.721933688
 10
-20.9784601168
 20
-22.6704834047
 10
-21.0114543299
 20
-22.6172912971
 10
-21.041404008
 20
-22.5626456349
 10
-21.0683187292
 20
-22.5064289088
 10
-21.0922272429
 20
-22.4482879615
 10
-21.1130104476
 20
-22.3882114774
 10
-21.1304824862
 20
-22.326777149
 10
-21.1445559551
 20
-22.2643698479
 10
-21.1551608864
 20
-22.2011334598
 10
-21.1622347385
 20
-22.1370774222
 10
-21.1657294834
 20
-22.0723745586
  0
LINE
  5
278
100
AcDbEntity
  8
RACCORDO
100
AcDbLine
 62
253
  6
CONTINUOUS
 10
-31.3431981378
 20
42.5111223886
 11
-31.3485904728
 21
42.5625260352
  0
LINE
  5
279
100
AcDbEntity
  8
RACCORDO
100
AcDbLine
 62
253
  6
CONTINUOUS
 10
-31.3485904728
 20
42.5625260352
 11
-31.3533329948
 21
42.6106469034
  0
LWPOLYLINE
  5
27A
100
AcDbEntity
  8
RACCORDO
100
AcDbPolyline
 62
253
  6
CONTINUOUS
 90
11
 70
0
 10
-31.3533329948
 20
42.6106469034
 10
-31.3572744448
 20
42.6539502141
 10
-31.3589043696
 20
42.6733564369
 10
-31.360289113
 20
42.6910548407
 10
-31.3614176115
 20
42.7069040239
 10
-31.362280849
 20
42.7207773591
 10
-31.3628719285
 20
42.732564005
 10
-31.3631861277
 20
42.7421697919
 10
-31.3632209363
 20
42.7495179741
 10
-31.362976076
 20
42.7545498433
 10
-31.3624535034
 20
42.7572251973
  0
LWPOLYLINE
  5
27B
100
AcDbEntity
  8
RACCORDO
100
AcDbPolyline
 62
253
  6
CONTINUOUS
 90
12
 70
0
 10
-26.3644716168
 20
43.0318196677
 10
-26.366626244
 20
43.077835031
 10
-26.3674835355
 20
43.0988415403
 10
-26.3681846248
 20
43.1182866718
 10
-26.3687239159
 20
43.1360152218
 10
-26.3690971046
 20
43.1518856876
 10
-26.369301212
 20
43.1657713971
 10
-26.3693346093
 20
43.1775615196
 10
-26.3691970296
 20
43.1871619508
 10
-26.3688895713
 20
43.1944960636
 10
-26.3684146883
 20
43.19950532
 10
-26.3677761709
 20
43.2021497378
  0
LWPOLYLINE
  5
27C
100
AcDbEntity
  8
RACCORDO
100
AcDbPolyline
 62
253
  6
CONTINUOUS
 90
10
 70
0
 10
-26.3674835356
 20
-43.8220149297
 10
-26.3681846248
 20
-43.8414600614
 10
-26.368723916
 20
-43.8591886115
 10
-26.3690971046
 20
-43.8750590774
 10
-26.3693012121
 20
-43.888944787
 10
-26.3693346094
 20
-43.9007349096
 10
-26.3691970297
 20
-43.910335341
 10
-26.3688895714
 20
-43.917669454
 10
-26.3684146884
 20
-43.9226787104
 10
-26.367776171
 20
-43.9253231284
  0
LWPOLYLINE
  5
27D
100
AcDbEntity
  8
RACCORDO
100
AcDbPolyline
 62
253
  6
CONTINUOUS
 90
3
 70
0
 10
-26.3644716168
 20
-43.7549930567
 10
-26.3656195929
 20
-43.7786081992
 10
-26.3674835356
 20
-43.8220149297
  0
LWPOLYLINE
  5
27E
100
AcDbEntity
  8
RACCORDO
100
AcDbPolyline
 62
253
  6
CONTINUOUS
 90
10
 70
0
 10
-31.3572744796
 20
-43.3771238673
 10
-31.3589044097
 20
-43.3965301353
 10
-31.360289158
 20
-43.4142285828
 10
-31.361417661
 20
-43.4300778073
 10
-31.3622809024
 20
-43.4439511807
 10
-31.3628719854
 20
-43.4557378614
 10
-31.3631861875
 20
-43.465343679
 10
-31.3632209984
 20
-43.4726918877
 10
-31.3629761398
 20
-43.4777237786
 10
-31.3624535682
 20
-43.4803991492
  0
LINE
  5
27F
100
AcDbEntity
  8
RACCORDO
100
AcDbLine
 62
253
  6
CONTINUOUS
 10
-31.3533330182
 20
-43.3338204639
 11
-31.3572744796
 21
-43.3771238673
  0
LINE
  5
280
100
AcDbEntity
  8
RACCORDO
100
AcDbLine
 62
253
  6
CONTINUOUS
 10
-31.3485904842
 20
-43.2856995051
 11
-31.3533330182
 21
-43.3338204639
  0
LINE
  5
281
100
AcDbEntity
  8
RACCORDO
100
AcDbLine
 62
253
  6
CONTINUOUS
 10
-31.3431981374
 20
-43.2342957762
 11
-31.3485904842
 21
-43.2856995051
  0
LINE
  5
282
100
AcDbEntity
  8
RACCORDO
100
AcDbLine
 62
253
  6
CONTINUOUS
 10
-31.3763942134
 20
-43.6015866944
 11
-31.3623443042
 21
-43.4804115425
  0
LINE
  5
283
100
AcDbEntity
  8
RACCORDO
100
AcDbLine
 62
253
  6
CONTINUOUS
 10
-46.1994194217
 20
-29.5251555793
 11
-46.0352341437
 21
-29.4975083371
  0
LWPOLYLINE
  5
284
100
AcDbEntity
  8
RACCORDO
100
AcDbPolyline
 62
253
  6
CONTINUOUS
 90
16
 70
0
 10
-45.7624916058
 20
-29.4727601489
 10
-45.7904887587
 20
-29.4770796255
 10
-45.8180251195
 20
-29.4811354765
 10
-45.8448505877
 20
-29.4848908644
 10
-45.870721519
 20
-29.4883116807
 10
-45.8954029391
 20
-29.4913668555
 10
-45.9186706774
 20
-29.4940286401
 10
-45.9403134032
 20
-29.4962728585
 10
-45.9601345449
 20
-29.4980791277
 10
-45.9779540758
 20
-29.4994310419
 10
-45.9936101489
 20
-29.5003163223
 10
-46.0069605668
 20
-29.5007269284
 10
-46.0178840734
 20
-29.5006591308
 10
-46.0262814554
 20
-29.5001135452
 10
-46.032076443
 20
-29.4990951269
 10
-46.0352164028
 20
-29.4976131259
  0
LINE
  5
285
100
AcDbEntity
  8
RACCORDO
100
AcDbLine
 62
253
  6
CONTINUOUS
 10
-46.7366392837
 20
-25.5251555793
 11
-46.5586176436
 21
-25.5071402391
  0
LWPOLYLINE
  5
286
100
AcDbEntity
  8
RACCORDO
100
AcDbPolyline
 62
253
  6
CONTINUOUS
 90
16
 70
0
 10
-46.2835916381
 20
-25.4939429664
 10
-46.3119450925
 20
-25.4965553001
 10
-46.3398276768
 20
-25.4989883867
 10
-46.3669839384
 20
-25.5012199349
 10
-46.3931650792
 20
-25.5032294998
 10
-46.4181312345
 20
-25.5049986705
 10
-46.4416536714
 20
-25.5065112382
 10
-46.4635168838
 20
-25.5077533452
 10
-46.483520567
 20
-25.5087136117
 10
-46.5014814525
 20
-25.5093832399
 10
-46.5172349879
 20
-25.509756095
 10
-46.5306368434
 20
-25.5098287608
 10
-46.541564235
 20
-25.5096005718
 10
-46.5499170489
 20
-25.5090736184
 10
-46.5556187588
 20
-25.5082527285
 10
-46.5586171274
 20
-25.5071454229
  0
LWPOLYLINE
  5
287
100
AcDbEntity
  8
RACCORDO
100
AcDbPolyline
 62
253
  6
CONTINUOUS
 90
15
 70
0
 10
-46.4167204256
 20
-24.1051584239
 10
-46.473014403
 20
-24.1100078531
 10
-46.500196746
 20
-24.112180602
 10
-46.5264013211
 20
-24.1141582651
 10
-46.5513877644
 20
-24.1159227023
 10
-46.5749268853
 20
-24.117457729
 10
-46.5968027691
 20
-24.118749265
 10
-46.6168147571
 20
-24.1197854636
 10
-46.6347792875
 20
-24.1205568203
 10
-46.6505315788
 20
-24.1210562596
 10
-46.6639271418
 20
-24.1212792003
 10
-46.6748431042
 20
-24.1212235976
 10
-46.6831793385
 20
-24.1208899615
 10
-46.6888593797
 20
-24.1202813523
 10
-46.6918311271
 20
-24.1194033524
  0
LWPOLYLINE
  5
288
100
AcDbEntity
  8
RACCORDO
100
AcDbPolyline
 62
253
  6
CONTINUOUS
 90
10
 70
0
 10
45.507808193
 20
-23.1925132535
 10
43.8366203679
 20
-23.2598328409
 10
42.1651877884
 20
-23.3235973238
 10
40.4935104547
 20
-23.3838067021
 10
38.8215871002
 20
-23.4404606743
 10
37.1494189914
 20
-23.4935595419
 10
35.4770099277
 20
-23.5431042097
 10
33.8043611756
 20
-23.589094979
 10
32.1314714685
 20
-23.6315315485
 10
30.4583408066
 20
-23.6704139181
  0
LWPOLYLINE
  5
289
100
AcDbEntity
  8
RACCORDO
100
AcDbPolyline
 62
253
  6
CONTINUOUS
 90
10
 70
0
 10
-21.0893152441
 20
-22.0701427571
 10
-21.0676316436
 20
-22.0693059876
 10
-21.0480354588
 20
-22.0684297541
 10
-21.0306266221
 20
-22.0675185275
 10
-21.0154940998
 20
-22.0665769638
 10
-21.0027153499
 20
-22.0656098814
 10
-20.9923557191
 20
-22.0646222256
 10
-20.9844681834
 20
-22.063619047
 10
-20.9790930772
 20
-22.0626054756
 10
-20.9762578873
 20
-22.0615866944
  0
LWPOLYLINE
  5
28A
100
AcDbEntity
  8
RACCORDO
100
AcDbPolyline
 62
253
  6
CONTINUOUS
 90
13
 70
0
 10
-21.1658538489
 20
-22.0673114899
 10
-21.1385983283
 20
-22.0662562346
 10
-21.1130684077
 20
-22.0651219977
 10
-21.0893947221
 20
-22.0639145883
 10
-21.0676984186
 20
-22.0626400933
 10
-21.0480904975
 20
-22.0613051311
 10
-21.0306712567
 20
-22.0599168179
 10
-21.0155298263
 20
-22.0584823522
 10
-21.0027436999
 20
-22.0570089798
 10
-20.9923783072
 20
-22.0555042411
 10
-20.9844866904
 20
-22.0539758366
 10
-20.979109233
 20
-22.0524315872
 10
-20.9762734527
 20
-22.0508793952
  0
LWPOLYLINE
  5
28B
100
AcDbEntity
  8
RACCORDO
100
AcDbPolyline
 62
253
  6
CONTINUOUS
 90
3
 70
0
 10
-21.1657328108
 20
-22.0723746225
 10
-21.138491546
 20
-22.0716810113
 10
-21.0893152441
 20
-22.0701427571
  0
LINE
  5
28C
100
AcDbEntity
  8
RACCORDO
100
AcDbLine
 62
253
  6
CONTINUOUS
 10
-21.2472404581
 20
-22.0693783227
 11
-21.1658538473
 21
-22.0673123183
  0
LWPOLYLINE
  5
28D
100
AcDbEntity
  8
RACCORDO
100
AcDbPolyline
 62
253
  6
CONTINUOUS
 90
10
 70
0
 10
30.4699334923
 20
-24.1051584239
 10
26.5879277901
 20
-24.1819413237
 10
22.7050745215
 20
-24.2395272931
 10
18.8214165609
 20
-24.2779173629
 10
14.9365310279
 20
-24.2971122307
 10
11.0509258523
 20
-24.297112243
 10
7.1660399064
 20
-24.2779173905
 10
3.2823811199
 20
-24.2395273207
 10
-0.6004733874
 20
-24.1819413421
 10
-4.4824807412
 20
-24.1051584239
  0
LWPOLYLINE
  5
28E
100
AcDbEntity
  8
RACCORDO
100
AcDbPolyline
 62
253
  6
CONTINUOUS
 90
10
 70
0
 10
30.4583408066
 20
-23.6704139181
 10
26.5788732924
 20
-23.7468463823
 10
22.6986270271
 20
-23.8041707327
 10
18.8176020106
 20
-23.8423869694
 10
14.9352792131
 20
-23.8614950954
 10
11.0521776644
 20
-23.8614951075
 10
7.1698544543
 20
-23.8423869968
 10
3.2888286125
 20
-23.8041707601
 10
-0.5914188908
 20
-23.7468464006
 10
-4.4708880555
 20
-23.6704139181
  0
LINE
  5
28F
100
AcDbEntity
  8
RACCORDO
100
AcDbLine
 62
7
  6
CONTINUOUS
 10
46.0437263756
 20
-23.1823760248
 11
45.5078215583
 21
-23.1925132535
  0
LINE
  5
290
100
AcDbEntity
  8
RACCORDO
100
AcDbLine
 62
253
  6
CONTINUOUS
 10
-21.3337253922
 20
-22.0709706859
 11
-21.2472404581
 21
-22.0693783227
  0
LINE
  5
291
100
AcDbEntity
  8
RACCORDO
100
AcDbLine
 62
253
  6
CONTINUOUS
 10
-21.4237971921
 20
-22.0720617805
 11
-21.3337253922
 21
-22.0709706859
  0
LWPOLYLINE
  5
292
100
AcDbEntity
  8
RACCORDO
100
AcDbPolyline
 62
253
  6
CONTINUOUS
 90
3
 70
0
 10
-21.5621760848
 20
-22.0727207231
 10
-21.5158815131
 20
-22.0726333187
 10
-21.4237971921
 20
-22.0720617805
  0
LINE
  5
293
100
AcDbEntity
  8
RACCORDO
100
AcDbLine
 62
253
  6
CONTINUOUS
 10
-46.4167226592
 20
-24.1051346678
 11
-4.4824807412
 21
-24.1051584239
  0
LINE
  5
294
100
AcDbEntity
  8
RACCORDO
100
AcDbLine
 62
253
  6
CONTINUOUS
 10
30.4699334923
 20
-24.1051584239
 11
72.4041753986
 21
-24.1051347922
  0
LINE
  5
295
100
AcDbEntity
  8
RACCORDO
100
AcDbLine
 62
253
  6
CONTINUOUS
 10
45.507808193
 20
-23.1925132535
 11
-19.5203554795
 21
-23.1925132535
  0
LINE
  5
296
100
AcDbEntity
  8
RACCORDO
100
AcDbLine
 62
253
  6
CONTINUOUS
 10
46.0437174334
 20
-22.9797773609
 11
-20.0562725156
 21
-22.9797773609
  0
LINE
  5
297
100
AcDbEntity
  8
0
100
AcDbLine
 62
7
  6
CONTINUOUS
 10
46.0437263756
 20
-22.8615866944
 11
-20.0562736244
 21
-22.8615866944
  0
LINE
  5
298
100
AcDbEntity
  8
0
100
AcDbLine
 62
253
  6
CONTINUOUS
 10
46.8437263756
 20
-22.0615866944
 11
46.9637059161
 21
-22.061576327
  0
LINE
  5
299
100
AcDbEntity
  8
0
100
AcDbLine
 62
253
  6
CONTINUOUS
 10
-20.8562736244
 20
-22.0615866944
 11
-20.9762579008
 21
-22.0615757733
  0
LWPOLYLINE
  5
29A
100
AcDbEntity
  8
RACCORDO
100
AcDbPolyline
 62
253
  6
CONTINUOUS
 90
34
 70
0
 10
-20.0562725156
 20
-22.9797773608
 10
-20.0848125951
 20
-22.9793338675
 10
-20.1143844334
 20
-22.9779393984
 10
-20.1449526346
 20
-22.9754928852
 10
-20.176405308
 20
-22.9719000289
 10
-20.2087627481
 20
-22.9670518249
 10
-20.2421732688
 20
-22.9608003312
 10
-20.276576983
 20
-22.9530125681
 10
-20.3118792395
 20
-22.9435589186
 10
-20.3481505947
 20
-22.9322524575
 10
-20.3853167256
 20
-22.9189247781
 10
-20.4232041038
 20
-22.903437701
 10
-20.4617034592
 20
-22.8856260839
 10
-20.5006671543
 20
-22.8653299256
 10
-20.5398863907
 20
-22.8424144867
 10
-20.5791320494
 20
-22.8167600839
 10
-20.618269998
 20
-22.7881759928
 10
-20.6569584419
 20
-22.7566145439
 10
-20.6946676252
 20
-22.7222403687
 10
-20.7312796392
 20
-22.6848947038
 10
-20.7664085366
 20
-22.6446822355
 10
-20.7992613501
 20
-22.6023394274
 10
-20.8297285645
 20
-22.5579435537
 10
-20.8576434583
 20
-22.5116686118
 10
-20.8824134772
 20
-22.464609938
 10
-20.904023378
 20
-22.4171514363
 10
-20.9226202045
 20
-22.3693584534
 10
-20.9381213111
 20
-22.3219614154
 10
-20.9506934607
 20
-22.2751964227
 10
-20.9605271861
 20
-22.2292280928
 10
-20.9677445813
 20
-22.184694925
 10
-20.9725892033
 20
-22.1419077279
 10
-20.9753441785
 20
-22.1008346954
 10
-20.9762579078
 20
-22.0615757733
  0
LINE
  5
29B
100
AcDbEntity
  8
RACCORDO
100
AcDbLine
 62
253
  6
CONTINUOUS
 10
47.5495874136
 20
-22.0778757184
 11
47.4571071575
 21
-22.0764362031
  0
LINE
  5
29C
100
AcDbEntity
  8
RACCORDO
100
AcDbLine
 62
7
  6
CONTINUOUS
 10
-19.5203688073
 20
-23.1925132535
 11
-20.0562735955
 21
-23.1823760253
  0
LINE
  5
29D
100
AcDbEntity
  8
RACCORDO
100
AcDbLine
 62
253
  6
CONTINUOUS
 10
47.4571071575
 20
-22.0764362031
 11
47.3658376219
 21
-22.0744904133
  0
LWPOLYLINE
  5
29E
100
AcDbEntity
  8
RACCORDO
100
AcDbPolyline
 62
253
  6
CONTINUOUS
 90
10
 70
0
 10
-4.4708880555
 20
-23.6704139181
 10
-6.1440196452
 20
-23.6315315237
 10
-7.8169100582
 20
-23.5890949341
 10
-9.4895592946
 20
-23.5431041493
 10
-11.1619686329
 20
-23.4935594689
 10
-12.8341367946
 20
-23.4404605933
 10
-14.5060599437
 20
-23.3838066238
 10
-16.1777368016
 20
-23.3235972609
 10
-17.8491686468
 20
-23.2598328041
 10
-19.5203554795
 20
-23.1925132535
  0
LWPOLYLINE
  5
29F
100
AcDbEntity
  8
RACCORDO
100
AcDbPolyline
 62
253
  6
CONTINUOUS
 90
10
 70
0
 10
-4.4824807412
 20
-24.1051584239
 10
-6.2163769955
 20
-24.0647681814
 10
-7.950020995
 20
-24.0205606841
 10
-9.6834089212
 20
-23.9725358843
 10
-11.4165344381
 20
-23.9206940004
 10
-13.1493962279
 20
-23.8650347068
 10
-14.8819979895
 20
-23.8055571342
 10
-16.6143383892
 20
-23.7422609492
 10
-18.3464110616
 20
-23.6751463549
 10
-20.0782121437
 20
-23.6042132805
  0
LINE
  5
2A0
100
AcDbEntity
  8
RACCORDO
100
AcDbLine
 62
253
  6
CONTINUOUS
 10
47.3658376219
 20
-22.0744904133
 11
47.2773730883
 21
-22.0720725955
  0
LWPOLYLINE
  5
2A1
100
AcDbEntity
  8
RACCORDO
100
AcDbPolyline
 62
253
  6
CONTINUOUS
 90
3
 70
0
 10
47.2773730883
 20
-22.0720725955
 10
47.1932567381
 20
-22.0692257686
 10
47.153292626
 20
-22.0676566339
  0
LWPOLYLINE
  5
2A2
100
AcDbEntity
  8
RACCORDO
100
AcDbPolyline
 62
7
  6
CONTINUOUS
 90
16
 70
0
 10
-20.0570315917
 20
-23.1823592832
 10
-20.1079389653
 20
-23.1798826777
 10
-20.1588874959
 20
-23.1751154121
 10
-20.2097573775
 20
-23.1680307458
 10
-20.2605614704
 20
-23.1585883513
 10
-20.3112059112
 20
-23.1467585595
 10
-20.3613943026
 20
-23.132592555
 10
-20.4108766923
 20
-23.1161849606
 10
-20.459543416
 20
-23.0975775953
 10
-20.5073531166
 20
-23.0767453021
 10
-20.5542776827
 20
-23.0536391181
 10
-20.6002131419
 20
-23.0282817818
 10
-20.6451113479
 20
-23.0007111271
 10
-20.6888907182
 20
-22.9709883939
 10
-20.7314463394
 20
-22.9391737676
 10
-20.7726136931
 20
-22.9053650427
  0
LWPOLYLINE
  5
2A3
100
AcDbEntity
  8
RACCORDO
100
AcDbPolyline
 62
253
  6
CONTINUOUS
 90
28
 70
0
 10
-20.0782121437
 20
-23.6042132805
 10
-20.1144722498
 20
-23.6023065298
 10
-20.1509537548
 20
-23.5994816045
 10
-20.187656662
 20
-23.5957385039
 10
-20.2246054482
 20
-23.5910988637
 10
-20.2617756426
 20
-23.5855410461
 10
-20.2990938274
 20
-23.5790001393
 10
-20.3365655372
 20
-23.5714708983
 10
-20.3741852436
 20
-23.5629585643
 10
-20.4118629351
 20
-23.5534139544
 10
-20.4496137714
 20
-23.5428278275
 10
-20.4874225989
 20
-23.5312094189
 10
-20.5251539365
 20
-23.5185372597
 10
-20.5628383876
 20
-23.5047937457
 10
-20.6004453542
 20
-23.4899964732
 10
-20.6377475534
 20
-23.474176774
 10
-20.6747445998
 20
-23.4573177675
 10
-20.711436883
 20
-23.4394363249
 10
-20.7475982825
 20
-23.4206144058
 10
-20.7831878778
 20
-23.4008531833
 10
-20.818246592
 20
-23.3801514741
 10
-20.8526710693
 20
-23.3585877036
 10
-20.8864441537
 20
-23.3361654256
 10
-20.9195830017
 20
-23.3128810758
 10
-20.9520357257
 20
-23.2888024027
 10
-20.9837850295
 20
-23.2639519858
 10
-21.0148482078
 20
-23.2383072352
 10
-21.0452252594
 20
-23.2118681453
  0
LWPOLYLINE
  5
2A4
100
AcDbEntity
  8
0
100
AcDbPolyline
 62
7
  6
CONTINUOUS
 90
22
 70
0
 10
17.3342398057
 20
-26.9001589433
 10
17.3596306342
 20
-26.9038984684
 10
17.384612631
 20
-26.9091915419
 10
17.4091857889
 20
-26.9160381533
 10
17.4334651455
 20
-26.9244236952
 10
17.4573356481
 20
-26.9343627447
 10
17.4804521543
 20
-26.9458990629
 10
17.5028984696
 20
-26.9590899546
 10
17.5245907748
 20
-26.9738780633
 10
17.5449324934
 20
-26.9901351542
 10
17.5638386202
 20
-27.0080006847
 10
17.5813941541
 20
-27.0273351302
 10
17.597257532
 20
-27.0475917946
 10
17.6113053248
 20
-27.0687821461
 10
17.6236609672
 20
-27.090894666
 10
17.6343531988
 20
-27.1133482063
 10
17.643363985
 20
-27.136085936
 10
17.6507113726
 20
-27.1591646661
 10
17.6564782267
 20
-27.1821737406
 10
17.6606921744
 20
-27.2049762809
 10
17.6633256032
 20
-27.2277091715
 10
17.6643785204
 20
-27.2503724141
  0
LINE
  5
2A5
100
AcDbEntity
  8
RACCORDO
100
AcDbLine
 62
253
  6
CONTINUOUS
 10
-31.3763942134
 20
42.8784133056
 11
-31.3623581095
 21
42.7572366238
  0
LINE
  5
2A6
100
AcDbEntity
  8
RACCORDO
100
AcDbLine
 62
253
  6
CONTINUOUS
 10
-26.3763942134
 20
43.3318485065
 11
-26.3677738173
 21
43.2021498922
  0
LINE
  5
2A7
100
AcDbEntity
  8
RACCORDO
100
AcDbLine
 62
253
  6
CONTINUOUS
 10
-20.0620832578
 20
22.5450374
 11
-20.0570317374
 21
22.4591883059
  0
LWPOLYLINE
  5
2A8
100
AcDbEntity
  8
RACCORDO
100
AcDbPolyline
 62
253
  6
CONTINUOUS
 90
3
 70
0
 10
-26.3602765586
 20
42.9556089782
 10
-26.3631914784
 20
43.0071780912
 10
-26.3644716168
 20
43.0318196677
  0
LINE
  5
2A9
100
AcDbEntity
  8
RACCORDO
100
AcDbLine
 62
253
  6
CONTINUOUS
 10
-20.0670186253
 20
22.6369554819
 11
-20.0620832578
 21
22.5450374
  0
LINE
  5
2AA
100
AcDbEntity
  8
RACCORDO
100
AcDbLine
 62
253
  6
CONTINUOUS
 10
-20.9712186661
 20
43.2821139314
 11
-20.9737961762
 21
43.3336310559
  0
LINE
  5
2AB
100
AcDbEntity
  8
RACCORDO
100
AcDbLine
 62
253
  6
CONTINUOUS
 10
-20.07398909
 20
22.7821665765
 11
-20.0670186253
 21
22.6369554819
  0
LINE
  5
2AC
100
AcDbEntity
  8
RACCORDO
100
AcDbLine
 62
253
  6
CONTINUOUS
 10
-20.9737961762
 20
43.3336310559
 11
-20.9759885159
 21
43.3818237785
  0
LINE
  5
2AD
100
AcDbEntity
  8
RACCORDO
100
AcDbLine
 62
253
  6
CONTINUOUS
 10
-20.0782121437
 20
22.8810398917
 11
-20.07398909
 21
22.7821665765
  0
LINE
  5
2AE
100
AcDbEntity
  8
RACCORDO
100
AcDbLine
 62
253
  6
CONTINUOUS
 10
-20.9759885159
 20
43.3818237785
 11
-20.9777259696
 21
43.4251595906
  0
LWPOLYLINE
  5
2AF
100
AcDbEntity
  8
RACCORDO
100
AcDbPolyline
 62
253
  6
CONTINUOUS
 90
9
 70
0
 10
-20.9777259696
 20
43.4251595906
 10
-20.9789532871
 20
43.4622604311
 10
-20.9793627772
 20
43.4780952328
 10
-20.9796314402
 20
43.4919465087
 10
-20.9797571363
 20
43.5037039228
 10
-20.9797388639
 20
43.5132738183
 10
-20.9795767688
 20
43.5205799638
 10
-20.9792721422
 20
43.5255641603
 10
-20.9788274105
 20
43.5281867048
  0
LINE
  5
2B0
100
AcDbEntity
  8
RACCORDO
100
AcDbLine
 62
7
  6
CONTINUOUS
 10
-21.1657294834
 20
-22.0723745586
 11
-21.1658535101
 21
-22.0673122556
  0
LINE
  5
2B1
100
AcDbEntity
  8
RACCORDO
100
AcDbLine
 62
253
  6
CONTINUOUS
 10
-20.9972189268
 20
-39.0603598396
 11
-20.9712186661
 21
-44.0052873202
  0
LINE
  5
2B2
100
AcDbEntity
  8
RACCORDO
100
AcDbLine
 62
253
  6
CONTINUOUS
 10
-21.0180096195
 20
-34.0918513056
 11
-20.9972189268
 21
-39.0603598396
  0
LINE
  5
2B3
100
AcDbEntity
  8
RACCORDO
100
AcDbLine
 62
253
  6
CONTINUOUS
 10
-21.0335687255
 20
-29.1050237038
 11
-21.0180096195
 21
-34.0918513056
  0
LINE
  5
2B4
100
AcDbEntity
  8
RACCORDO
100
AcDbLine
 62
253
  6
CONTINUOUS
 10
-21.5621678993
 20
-22.0772074318
 11
-21.5733907621
 21
-15.0172952636
  0
LINE
  5
2B5
100
AcDbEntity
  8
RACCORDO
100
AcDbLine
 62
7
  6
CONTINUOUS
 10
-21.1658538473
 20
-22.0673123183
 11
-21.177285537
 21
-14.8345853853
  0
LINE
  5
2B6
100
AcDbEntity
  8
RACCORDO
100
AcDbLine
 62
253
  6
CONTINUOUS
 10
-21.0452252594
 20
-23.2118681453
 11
-21.0335687255
 21
-29.1050237038
  0
LINE
  5
2B7
100
AcDbEntity
  8
RACCORDO
100
AcDbLine
 62
253
  6
CONTINUOUS
 10
-20.9762579008
 20
-22.0615757733
 11
-20.9852661727
 21
-16.6288986438
  0
LINE
  5
2B8
100
AcDbEntity
  8
RACCORDO
100
AcDbLine
 62
253
  6
CONTINUOUS
 10
-20.9852661727
 20
-16.6288986438
 11
-20.9916877323
 21
-11.2063757659
  0
LINE
  5
2B9
100
AcDbEntity
  8
RACCORDO
100
AcDbLine
 62
253
  6
CONTINUOUS
 10
-21.5733907621
 20
-15.0172952636
 11
-21.5805853579
 21
-7.4262939988
  0
LINE
  5
2BA
100
AcDbEntity
  8
RACCORDO
100
AcDbLine
 62
7
  6
CONTINUOUS
 10
-21.177285537
 20
-14.8345853853
 11
-21.1841418773
 21
-7.598876327
  0
LINE
  5
2BB
100
AcDbEntity
  8
RACCORDO
100
AcDbLine
 62
253
  6
CONTINUOUS
 10
-20.9916877323
 20
-11.2063757659
 11
-20.9955404415
 21
-5.7837819631
  0
LINE
  5
2BC
100
AcDbEntity
  8
RACCORDO
100
AcDbLine
 62
253
  6
CONTINUOUS
 10
-21.5805853579
 20
-7.4262939988
 11
-21.5827488746
 21
-0.3615866961
  0
LINE
  5
2BD
100
AcDbEntity
  8
RACCORDO
100
AcDbLine
 62
7
  6
CONTINUOUS
 10
-21.1841418773
 20
-7.598876327
 11
-21.1864213223
 21
-0.3615866944
  0
LINE
  5
2BE
100
AcDbEntity
  8
RACCORDO
100
AcDbLine
 62
253
  6
CONTINUOUS
 10
-20.9955404415
 20
-5.7837819631
 11
-20.9968245337
 21
-0.3615866944
  0
LINE
  5
2BF
100
AcDbEntity
  8
0
100
AcDbLine
 62
7
  6
CONTINUOUS
 10
-20.8562736244
 20
21.3384133056
 11
-20.8562736244
 21
-22.0615866944
  0
LINE
  5
2C0
100
AcDbEntity
  8
0
100
AcDbLine
 62
253
  6
CONTINUOUS
 10
-20.0562736244
 20
-22.8615866944
 11
-20.0562725156
 21
-22.9797773609
  0
LINE
  5
2C1
100
AcDbEntity
  8
0
100
AcDbLine
 62
253
  6
CONTINUOUS
 10
-20.0562736244
 20
22.1384133056
 11
-20.0562726064
 21
22.2566039721
  0
LINE
  5
2C2
100
AcDbEntity
  8
RACCORDO
100
AcDbLine
 62
253
  6
CONTINUOUS
 10
-20.0562735955
 20
-23.1823760253
 11
-20.0562736244
 21
-22.9797773609
  0
LINE
  5
2C3
100
AcDbEntity
  8
RACCORDO
100
AcDbLine
 62
253
  6
CONTINUOUS
 10
-20.0562736245
 20
22.459202636
 11
-20.0562736244
 21
22.2566039721
  0
LINE
  5
2C4
100
AcDbEntity
  8
RACCORDO
100
AcDbLine
 62
253
  6
CONTINUOUS
 10
-21.5827488746
 20
-0.3615866961
 11
-21.5805866302
 21
6.701045011
  0
LINE
  5
2C5
100
AcDbEntity
  8
RACCORDO
100
AcDbLine
 62
7
  6
CONTINUOUS
 10
-21.1864213193
 20
-0.3615866944
 11
-21.1841418038
 21
6.8758396943
  0
LINE
  5
2C6
100
AcDbEntity
  8
RACCORDO
100
AcDbLine
 62
253
  6
CONTINUOUS
 10
-20.9968245337
 20
-0.3615866944
 11
-20.9916877323
 21
10.4832023771
  0
LINE
  5
2C7
100
AcDbEntity
  8
RACCORDO
100
AcDbLine
 62
253
  6
CONTINUOUS
 10
-21.5805866302
 20
6.701045011
 11
-21.5734126101
 21
14.2770778491
  0
LINE
  5
2C8
100
AcDbEntity
  8
RACCORDO
100
AcDbLine
 62
7
  6
CONTINUOUS
 10
-21.1841418038
 20
6.8758396943
 11
-21.1772851504
 21
14.1116427436
  0
LINE
  5
2C9
100
AcDbEntity
  8
RACCORDO
100
AcDbLine
 62
253
  6
CONTINUOUS
 10
-20.9916877323
 20
10.4832023771
 11
-20.9852661727
 21
15.905725255
  0
LINE
  5
2CA
100
AcDbEntity
  8
RACCORDO
100
AcDbLine
 62
7
  6
CONTINUOUS
 10
-21.1772851504
 20
14.1116427436
 11
-21.1658531948
 21
21.3444837341
  0
LINE
  5
2CB
100
AcDbEntity
  8
RACCORDO
100
AcDbLine
 62
253
  6
CONTINUOUS
 10
-21.5734126101
 20
14.2770778491
 11
-21.5621679082
 21
21.3540296277
  0
LINE
  5
2CC
100
AcDbEntity
  8
RACCORDO
100
AcDbLine
 62
253
  6
CONTINUOUS
 10
-20.9852661727
 20
15.905725255
 11
-20.9762579015
 21
21.3384018722
  0
LINE
  5
2CD
100
AcDbEntity
  8
RACCORDO
100
AcDbLine
 62
253
  6
CONTINUOUS
 10
-21.0452252594
 20
22.4886947565
 11
-21.0375895112
 21
26.7164159251
  0
LINE
  5
2CE
100
AcDbEntity
  8
RACCORDO
100
AcDbLine
 62
253
  6
CONTINUOUS
 10
-21.0375895112
 20
26.7164159251
 11
-21.0289647756
 21
30.0458359605
  0
LINE
  5
2CF
100
AcDbEntity
  8
RACCORDO
100
AcDbLine
 62
253
  6
CONTINUOUS
 10
-21.0289647756
 20
30.0458359605
 11
-21.0180096195
 21
33.3686779168
  0
LINE
  5
2D0
100
AcDbEntity
  8
RACCORDO
100
AcDbLine
 62
253
  6
CONTINUOUS
 10
-21.0180096195
 20
33.3686779168
 11
-21.0047291997
 21
36.6833776658
  0
LINE
  5
2D1
100
AcDbEntity
  8
RACCORDO
100
AcDbLine
 62
253
  6
CONTINUOUS
 10
-21.0047291997
 20
36.6833776658
 11
-20.9891297676
 21
39.9883749133
  0
LINE
  5
2D2
100
AcDbEntity
  8
RACCORDO
100
AcDbLine
 62
253
  6
CONTINUOUS
 10
-20.9891297676
 20
39.9883749133
 11
-20.9712186661
 21
43.2821139314
  0
LWPOLYLINE
  5
2D3
100
AcDbEntity
  8
RACCORDO
100
AcDbPolyline
 62
253
  6
CONTINUOUS
 90
34
 70
0
 10
-20.9762579087
 20
21.3384018722
 10
-20.9753365509
 20
21.3778317453
 10
-20.9725573189
 20
21.4190894275
 10
-20.9676687821
 20
21.4620735617
 10
-20.9603838514
 20
21.5068180363
 10
-20.9504562654
 20
21.5530057211
 10
-20.9377649258
 20
21.5999839472
 10
-20.9221185863
 20
21.6475853503
 10
-20.9033499766
 20
21.6955712734
 10
-20.8815476504
 20
21.7431986323
 10
-20.8565610256
 20
21.7904094451
 10
-20.8284121822
 20
21.8368081748
 10
-20.7977245879
 20
21.8812643749
 10
-20.7646834041
 20
21.9235971755
 10
-20.7293984448
 20
21.9637466297
 10
-20.6926722745
 20
22.0009841095
 10
-20.6549041292
 20
22.0352067234
 10
-20.616210878
 20
22.0665866099
 10
-20.5771058551
 20
22.0949821123
 10
-20.5379308455
 20
22.1204460365
 10
-20.4988211764
 20
22.1431721343
 10
-20.4599861716
 20
22.1632935828
 10
-20.4216316138
 20
22.1809465254
 10
-20.3839049211
 20
22.196290779
 10
-20.346897309
 20
22.2094973424
 10
-20.3107734981
 20
22.2207045752
 10
-20.2756126223
 20
22.2300764587
 10
-20.2413462169
 20
22.2377971688
 10
-20.2080641355
 20
22.2439955683
 10
-20.1758289333
 20
22.2488023631
 10
-20.1445062643
 20
22.2523626135
 10
-20.1140802583
 20
22.2547852115
 10
-20.0846574014
 20
22.2561652834
 10
-20.0562726064
 20
22.256603972
  0
LWPOLYLINE
  5
2D4
100
AcDbEntity
  8
RACCORDO
100
AcDbPolyline
 62
253
  6
CONTINUOUS
 90
34
 70
0
 10
-21.5621679082
 20
21.3540296277
 10
-21.5612711914
 20
21.3905447682
 10
-21.5594542201
 20
21.4273158866
 10
-21.556717
 20
21.4643429803
 10
-21.5530821962
 20
21.5016567244
 10
-21.5485271548
 20
21.5392264381
 10
-21.5429839052
 20
21.5769600852
 10
-21.5364368817
 20
21.6148842286
 10
-21.5289016634
 20
21.6529723016
 10
-21.5203569991
 20
21.6910525754
 10
-21.5107935283
 20
21.7291218778
 10
-21.5002206267
 20
21.7671833809
 10
-21.4886451496
 20
21.8050748757
 10
-21.4760623413
 20
21.8427930448
 10
-21.4624769731
 20
21.8803412087
 10
-21.4479101914
 20
21.9175671191
 10
-21.4323522232
 20
21.95447198
 10
-21.4158128564
 20
21.9910545934
 10
-21.3983425793
 20
22.0271591111
 10
-21.3799258387
 20
22.0627797974
 10
-21.360578201
 20
22.0979223967
 10
-21.3403968337
 20
22.1324482839
 10
-21.3193736152
 20
22.1663482521
 10
-21.2975166775
 20
22.1996315192
 10
-21.2749475679
 20
22.2321870996
 10
-21.251662241
 20
22.2640103487
 10
-21.2276647493
 20
22.2951059236
 10
-21.2030887846
 20
22.3253767928
 10
-21.1779243659
 20
22.3548200521
 10
-21.1521814779
 20
22.383438619
 10
-21.1260237594
 20
22.4111441965
 10
-21.0995057565
 20
22.4379073569
 10
-21.0725729233
 20
22.4637575414
 10
-21.0452252594
 20
22.4886947565
  0
LWPOLYLINE
  5
2D5
100
AcDbEntity
  8
RACCORDO
100
AcDbPolyline
 62
253
  6
CONTINUOUS
 90
8
 70
0
 10
-20.9789532869
 20
-44.1854338159
 10
-20.9793627769
 20
-44.2012686172
 10
-20.9796314399
 20
-44.2151198927
 10
-20.9797571359
 20
-44.2268773065
 10
-20.9797388636
 20
-44.2364472017
 10
-20.9795767685
 20
-44.243753347
 10
-20.9792721418
 20
-44.2487375434
 10
-20.9788274102
 20
-44.2513600878
  0
LINE
  5
2D6
100
AcDbEntity
  8
RACCORDO
100
AcDbLine
 62
253
  6
CONTINUOUS
 10
-20.9777259694
 20
-44.1483329762
 11
-20.9789532869
 21
-44.1854338159
  0
LINE
  5
2D7
100
AcDbEntity
  8
RACCORDO
100
AcDbLine
 62
253
  6
CONTINUOUS
 10
-20.9759885157
 20
-44.1049971652
 11
-20.9777259694
 21
-44.1483329762
  0
LINE
  5
2D8
100
AcDbEntity
  8
RACCORDO
100
AcDbLine
 62
253
  6
CONTINUOUS
 10
-20.0782121387
 20
-23.6042132731
 11
-20.071739119
 21
-23.4562776156
  0
LINE
  5
2D9
100
AcDbEntity
  8
RACCORDO
100
AcDbLine
 62
253
  6
CONTINUOUS
 10
-20.9737961761
 20
-44.0568044435
 11
-20.9759885157
 21
-44.1049971652
  0
LWPOLYLINE
  5
2DA
100
AcDbEntity
  8
RACCORDO
100
AcDbPolyline
 62
7
  6
CONTINUOUS
 90
16
 70
0
 10
-21.1658326556
 20
21.3444829475
 10
-21.16262476
 20
21.4089918685
 10
-21.1558392964
 20
21.4730094916
 10
-21.1455027028
 20
21.5363530762
 10
-21.1316496831
 20
21.5990210432
 10
-21.1143259528
 20
21.6608536769
 10
-21.0936199939
 20
21.7214083028
 10
-21.0697090312
 20
21.780103593
 10
-21.0427109384
 20
21.8369176323
 10
-21.0126386353
 20
21.8920974112
 10
-20.979508254
 20
21.9457234566
 10
-20.9434283725
 20
21.9975533633
 10
-20.9045431743
 20
22.0473336876
 10
-20.8630541398
 20
22.0947798235
 10
-20.8190677004
 20
22.1397477095
 10
-20.7726161735
 20
22.182194409
  0
LINE
  5
2DB
100
AcDbEntity
  8
RACCORDO
100
AcDbLine
 62
253
  6
CONTINUOUS
 10
-20.071739119
 20
-23.4562776156
 11
-20.0670186146
 21
-23.3601288255
  0
LINE
  5
2DC
100
AcDbEntity
  8
RACCORDO
100
AcDbLine
 62
253
  6
CONTINUOUS
 10
-20.971218666
 20
-44.00528732
 11
-20.9737961761
 21
-44.0568044435
  0
LINE
  5
2DD
100
AcDbEntity
  8
RACCORDO
100
AcDbLine
 62
253
  6
CONTINUOUS
 10
-20.0670186146
 20
-23.3601288255
 11
-20.0620832099
 21
-23.2682099985
  0
LWPOLYLINE
  5
2DE
100
AcDbEntity
  8
RACCORDO
100
AcDbPolyline
 62
253
  6
CONTINUOUS
 90
3
 70
0
 10
-26.3602765586
 20
-43.6787823668
 10
-26.3617893954
 20
-43.7048801493
 10
-26.3644716168
 20
-43.7549930567
  0
LINE
  5
2DF
100
AcDbEntity
  8
RACCORDO
100
AcDbLine
 62
253
  6
CONTINUOUS
 10
-20.0620832099
 20
-23.2682099985
 11
-20.0570315917
 21
-23.1823592832
  0
LINE
  5
2E0
100
AcDbEntity
  8
RACCORDO
100
AcDbLine
 62
253
  6
CONTINUOUS
 10
-26.3763942134
 20
-44.0550218953
 11
-26.3677732345
 21
-43.925323319
  0
LWPOLYLINE
  5
2E1
100
AcDbEntity
  8
RACCORDO
100
AcDbPolyline
 62
253
  6
CONTINUOUS
 90
13
 70
0
 10
72.4876494871
 20
-24.1121806002
 10
72.5138540591
 20
-24.1141582631
 10
72.5388404994
 20
-24.1159227
 10
72.5623796176
 20
-24.1174577264
 10
72.5842554987
 20
-24.1187492622
 10
72.6042674844
 20
-24.1197854607
 10
72.6222320127
 20
-24.1205568172
 10
72.6379843024
 20
-24.1210562564
 10
72.651379864
 20
-24.1212791972
 10
72.6622958257
 20
-24.1212235945
 10
72.6706320596
 20
-24.1208899584
 10
72.6763121009
 20
-24.1202813493
 10
72.6792838489
 20
-24.1194033496
  0
LWPOLYLINE
  5
2E2
100
AcDbEntity
  8
RACCORDO
100
AcDbPolyline
 62
253
  6
CONTINUOUS
 90
3
 70
0
 10
72.4041731757
 20
-24.1051584232
 10
72.432556372
 20
-24.1076599473
 10
72.4876494871
 20
-24.1121806002
  0
LWPOLYLINE
  5
2E3
100
AcDbEntity
  8
RACCORDO
100
AcDbPolyline
 62
253
  6
CONTINUOUS
 90
16
 70
0
 10
72.2710443895
 20
-25.4939429666
 10
72.2993978445
 20
-25.4965553004
 10
72.3272804295
 20
-25.498988387
 10
72.3544366917
 20
-25.5012199353
 10
72.3806178331
 20
-25.5032295003
 10
72.405583989
 20
-25.5049986711
 10
72.4291064266
 20
-25.5065112388
 10
72.4509696395
 20
-25.5077533459
 10
72.4709733231
 20
-25.5087136124
 10
72.4889342091
 20
-25.5093832406
 10
72.5046877448
 20
-25.5097560957
 10
72.5180896005
 20
-25.5098287616
 10
72.5290169922
 20
-25.5096005725
 10
72.5373698061
 20
-25.5090736191
 10
72.5430715161
 20
-25.5082527292
 10
72.5460698845
 20
-25.5071454235
  0
LINE
  5
2E4
100
AcDbEntity
  8
RACCORDO
100
AcDbLine
 62
253
  6
CONTINUOUS
 10
72.7240920348
 20
-25.5251555793
 11
72.5460705274
 21
-25.5071389074
  0
LWPOLYLINE
  5
2E5
100
AcDbEntity
  8
RACCORDO
100
AcDbPolyline
 62
253
  6
CONTINUOUS
 90
16
 70
0
 10
71.7499443629
 20
-29.4727601553
 10
71.7779415568
 20
-29.4770796417
 10
71.805477962
 20
-29.4811355025
 10
71.8323034766
 20
-29.4848909001
 10
71.8581744557
 20
-29.4883117257
 10
71.8828559238
 20
-29.4913669093
 10
71.9061237092
 20
-29.494028702
 10
71.9277664803
 20
-29.4962729278
 10
71.9475876646
 20
-29.4980792033
 10
71.9654072347
 20
-29.499431123
 10
71.9810633426
 20
-29.5003164078
 10
71.9944137903
 20
-29.500727017
 10
72.0053373214
 20
-29.5006592214
 10
72.0137347217
 20
-29.5001136365
 10
72.0195297213
 20
-29.4990952179
 10
72.0226696865
 20
-29.4976132153
  0
LINE
  5
2E6
100
AcDbEntity
  8
RACCORDO
100
AcDbLine
 62
253
  6
CONTINUOUS
 10
72.1868721728
 20
-29.5251555793
 11
72.0226892478
 21
-29.4974941168
  0
LWPOLYLINE
  5
2E7
100
AcDbEntity
  8
0
100
AcDbPolyline
 62
7
  6
CONTINUOUS
 90
25
 70
0
 10
17.7559748053
 20
-26.5018705679
 10
17.6979077149
 20
-26.4830277386
 10
17.6391791073
 20
-26.4665083456
 10
17.5797890083
 20
-26.4523124362
 10
17.5195521238
 20
-26.4406663847
 10
17.4586538008
 20
-26.4313438931
 10
17.3976500197
 20
-26.423665982
 10
17.3366692976
 20
-26.4175425656
 10
17.2755831547
 20
-26.4130637571
 10
17.2145620646
 20
-26.4098208606
 10
17.1536174458
 20
-26.4077460191
 10
17.0927379073
 20
-26.4069070975
 10
17.0320597021
 20
-26.4070989783
 10
16.9716468389
 20
-26.4083184471
 10
16.9114353317
 20
-26.4105687164
 10
16.8513694378
 20
-26.4136543072
 10
16.7914589162
 20
-26.4175676207
 10
16.7316940256
 20
-26.4223162484
 10
16.6719897694
 20
-26.4277274969
 10
16.6123594015
 20
-26.4337945527
 10
16.5527896819
 20
-26.4405242199
 10
16.4931558692
 20
-26.4477642324
 10
16.433416386
 20
-26.4554638322
 10
16.3736128204
 20
-26.4636737683
 10
16.3137451779
 20
-26.4723940354
  0
LWPOLYLINE
  5
2E8
100
AcDbEntity
  8
RACCORDO
100
AcDbPolyline
 62
253
  6
CONTINUOUS
 90
12
 70
0
 10
46.9637058984
 20
-22.0615866944
 10
46.9665447899
 20
-22.0623036337
 10
46.9719264056
 20
-22.0630124589
 10
46.9798222542
 20
-22.0637052644
 10
46.9901904793
 20
-22.0643742346
 10
47.0029774168
 20
-22.0650116818
 10
47.0181189446
 20
-22.0656100688
 10
47.0355383529
 20
-22.0661620345
 10
47.0551460758
 20
-22.0666605032
 10
47.0768423912
 20
-22.0670987031
 10
47.1005166855
 20
-22.0674701302
 10
47.1533054212
 20
-22.0679882635
  0
LINE
  5
2E9
100
AcDbEntity
  8
RACCORDO
100
AcDbLine
 62
253
  6
CONTINUOUS
 10
47.5702016257
 20
-0.3615866944
 11
46.9842772848
 21
-0.3615866944
  0
LINE
  5
2EA
100
AcDbEntity
  8
RACCORDO
100
AcDbLine
 62
253
  6
CONTINUOUS
 10
-21.5827488745
 20
-0.3615866944
 11
-20.9968245337
 21
-0.3615866944
  0
LINE
  5
2EB
100
AcDbEntity
  8
RACCORDO
100
AcDbLine
 62
253
  6
CONTINUOUS
 10
-4.4763537064
 20
23.1297000909
 11
-4.4708880555
 21
22.9472405293
  0
LWPOLYLINE
  5
2EC
100
AcDbEntity
  8
RACCORDO
100
AcDbPolyline
 62
253
  6
CONTINUOUS
 90
3
 70
0
 10
-4.4824807589
 20
23.3819850859
 10
-4.4813544634
 20
23.3307912423
 10
-4.4763537064
 20
23.1297000909
  0
LINE
  5
2ED
100
AcDbEntity
  8
RACCORDO
100
AcDbLine
 62
253
  6
CONTINUOUS
 10
-4.4824807412
 20
-24.1051584238
 11
-4.4776650579
 21
-23.902051592
  0
LWPOLYLINE
  5
2EE
100
AcDbEntity
  8
RACCORDO
100
AcDbPolyline
 62
253
  6
CONTINUOUS
 90
3
 70
0
 10
-4.4776650579
 20
-23.902051592
 10
-4.4722729365
 20
-23.7133932079
 10
-4.4708880555
 20
-23.6704139181
  0
LINE
  5
2EF
100
AcDbEntity
  8
RACCORDO
100
AcDbLine
 62
253
  6
CONTINUOUS
 10
-21.0452252715
 20
-23.2118681624
 11
-20.7726141656
 21
-22.9053655776
  0
LINE
  5
2F0
100
AcDbEntity
  8
RACCORDO
100
AcDbLine
 62
253
  6
CONTINUOUS
 10
-21.0452252563
 20
22.4886947521
 11
-20.7726156255
 21
22.1821937886
  0
LINE
  5
2F1
100
AcDbEntity
  8
0
100
AcDbLine
 62
7
  6
CONTINUOUS
 10
11.5936583756
 20
-27.4112336944
 11
12.2792393756
 21
-29.2393876944
  0
LINE
  5
2F2
100
AcDbEntity
  8
0
100
AcDbLine
 62
7
  6
CONTINUOUS
 10
12.3234123756
 20
-27.9940886944
 11
11.7451763756
 21
-26.4396846944
  0
LINE
  5
2F3
100
AcDbEntity
  8
0
100
AcDbLine
 62
7
  6
CONTINUOUS
 10
7.4900583756
 20
-26.4396846944
 11
8.3776193756
 21
-29.2393876944
  0
LINE
  5
2F4
100
AcDbEntity
  8
0
100
AcDbLine
 62
7
  6
CONTINUOUS
 10
8.6585803756
 20
-28.3668066944
 11
8.1249063756
 21
-26.4396846944
  0
LWPOLYLINE
  5
2F5
100
AcDbEntity
  8
RACCORDO
100
AcDbPolyline
 62
253
  6
CONTINUOUS
 90
10
 70
0
 10
46.9637112638
 20
21.3384133056
 10
46.9665458132
 20
21.3391280127
 10
46.971919953
 20
21.3398338805
 10
46.9798076891
 20
21.3405232308
 10
46.9901707999
 20
21.3411884479
 10
47.002957307
 20
21.341822124
 10
47.0181003593
 20
21.3424171346
 10
47.035521697
 20
21.3429665876
 10
47.0551329673
 20
21.3434637293
 10
47.0768333288
 20
21.3439021035
  0
LWPOLYLINE
  5
2F6
100
AcDbEntity
  8
0
100
AcDbPolyline
 62
7
  6
CONTINUOUS
 90
8
 70
0
 10
17.535128435
 20
-28.3902496402
 10
17.5492527178
 20
-28.4290985475
 10
17.5629082692
 20
-28.4680528389
 10
17.5760950921
 20
-28.5071125059
 10
17.5887413581
 20
-28.5462711866
 10
17.6009189022
 20
-28.5855352256
 10
17.6128432204
 20
-28.6249236732
 10
17.6245145881
 20
-28.6644325946
  0
LINE
  5
2F7
100
AcDbEntity
  8
0
100
AcDbLine
 62
7
  6
CONTINUOUS
 10
16.1421343756
 20
-29.2393876944
 11
15.2831163756
 21
-26.4396846944
  0
LINE
  5
2F8
100
AcDbEntity
  8
0
100
AcDbLine
 62
7
  6
CONTINUOUS
 10
15.3748003756
 20
-28.6804676944
 11
15.5261923756
 21
-29.2393876944
  0
LINE
  5
2F9
100
AcDbEntity
  8
0
100
AcDbLine
 62
7
  6
CONTINUOUS
 10
14.9894633756
 20
-27.2089716944
 11
15.2580063756
 21
-28.2479776944
  0
LINE
  5
2FA
100
AcDbEntity
  8
0
100
AcDbLine
 62
7
  6
CONTINUOUS
 10
13.7478383756
 20
-29.2393876944
 11
13.4860343756
 21
-26.4396846944
  0
LINE
  5
2FB
100
AcDbEntity
  8
0
100
AcDbLine
 62
7
  6
CONTINUOUS
 10
13.0560633756
 20
-27.4188556944
 11
13.1761323756
 21
-29.2393876944
  0
LINE
  5
2FC
100
AcDbEntity
  8
0
100
AcDbLine
 62
7
  6
CONTINUOUS
 10
10.0094413756
 20
-26.4395166944
 11
10.0094413756
 21
-29.2393876944
  0
LINE
  5
2FD
100
AcDbEntity
  8
0
100
AcDbLine
 62
7
  6
CONTINUOUS
 10
10.5938493756
 20
-29.2393876944
 11
10.5938493756
 21
-26.4395166944
  0
LINE
  5
2FE
100
AcDbEntity
  8
0
100
AcDbLine
 62
7
  6
CONTINUOUS
 10
11.4675433756
 20
-29.2393876944
 11
11.5936583756
 21
-27.4112336944
  0
LINE
  5
2FF
100
AcDbEntity
  8
0
100
AcDbLine
 62
7
  6
CONTINUOUS
 10
11.1612513756
 20
-26.4396846944
 11
10.9084543756
 21
-29.2393876944
  0
LINE
  5
300
100
AcDbEntity
  8
RACCORDO
100
AcDbLine
 62
253
  6
CONTINUOUS
 10
72.1868721728
 20
28.8019821905
 11
72.0226868948
 21
28.7743349484
  0
LWPOLYLINE
  5
301
100
AcDbEntity
  8
RACCORDO
100
AcDbPolyline
 62
253
  6
CONTINUOUS
 90
16
 70
0
 10
71.749944357
 20
28.7495867601
 10
71.7779415098
 20
28.7539062367
 10
71.8054778707
 20
28.7579620877
 10
71.8323033388
 20
28.7617174756
 10
71.8581742701
 20
28.7651382919
 10
71.8828556902
 20
28.7681934667
 10
71.9061234286
 20
28.7708552513
 10
71.9277661543
 20
28.7730994698
 10
71.9475872961
 20
28.7749057389
 10
71.965406827
 20
28.7762576531
 10
71.9810629
 20
28.7771429336
 10
71.9944133179
 20
28.7775535396
 10
72.0053368246
 20
28.777485742
 10
72.0137342066
 20
28.7769401564
 10
72.0195291941
 20
28.7759217382
 10
72.0226691539
 20
28.7744397372
  0
LINE
  5
302
100
AcDbEntity
  8
RACCORDO
100
AcDbLine
 62
253
  6
CONTINUOUS
 10
72.7240920348
 20
24.8019821905
 11
72.5460703947
 21
24.7839668503
  0
LWPOLYLINE
  5
303
100
AcDbEntity
  8
RACCORDO
100
AcDbPolyline
 62
253
  6
CONTINUOUS
 90
16
 70
0
 10
72.2710443892
 20
24.7707695776
 10
72.2993978436
 20
24.7733819113
 10
72.327280428
 20
24.7758149979
 10
72.3544366896
 20
24.7780465461
 10
72.3806178303
 20
24.7800561111
 10
72.4055839856
 20
24.7818252817
 10
72.4291064226
 20
24.7833378494
 10
72.450969635
 20
24.7845799564
 10
72.4709733181
 20
24.7855402229
 10
72.4889342037
 20
24.7862098511
 10
72.504687739
 20
24.7865827062
 10
72.5180895945
 20
24.7866553721
 10
72.5290169861
 20
24.786427183
 10
72.5373698
 20
24.7859002297
 10
72.54307151
 20
24.7850793398
 10
72.5460698786
 20
24.7839720341
  0
LWPOLYLINE
  5
304
100
AcDbEntity
  8
RACCORDO
100
AcDbPolyline
 62
253
  6
CONTINUOUS
 90
15
 70
0
 10
72.4041731768
 20
23.3819850352
 10
72.4604671541
 20
23.3868344643
 10
72.4876494971
 20
23.3890072132
 10
72.5138540722
 20
23.3909848763
 10
72.5388405155
 20
23.3927493135
 10
72.5623796365
 20
23.3942843402
 10
72.5842555203
 20
23.3955758762
 10
72.6042675083
 20
23.3966120749
 10
72.6222320386
 20
23.3973834315
 10
72.63798433
 20
23.3978828708
 10
72.6513798929
 20
23.3981058116
 10
72.6622958554
 20
23.3980502089
 10
72.6706320896
 20
23.3977165728
 10
72.6763121308
 20
23.3971079635
 10
72.6792838782
 20
23.3962299637
  0
LINE
  5
305
100
AcDbEntity
  8
RACCORDO
100
AcDbLine
 62
253
  6
CONTINUOUS
 10
47.1932739314
 20
21.3452291259
 11
47.1533068098
 21
21.3441389352
  0
LINE
  5
306
100
AcDbEntity
  8
RACCORDO
100
AcDbLine
 62
253
  6
CONTINUOUS
 10
-46.4167204245
 20
23.3819850345
 11
-46.473014396
 21
23.3868344629
  0
LWPOLYLINE
  5
307
100
AcDbEntity
  8
0
100
AcDbPolyline
 62
7
  6
CONTINUOUS
 90
26
 70
0
 10
18.1272764636
 20
-28.3873080915
 10
18.1217757602
 20
-28.3684223386
 10
18.1160380215
 20
-28.3494718878
 10
18.1100701973
 20
-28.3304593106
 10
18.1037316126
 20
-28.311312146
 10
18.0970102815
 20
-28.2920014383
 10
18.089918186
 20
-28.2725561359
 10
18.0823506015
 20
-28.2529906323
 10
18.074307735
 20
-28.2332738041
 10
18.0657893746
 20
-28.2134367679
 10
18.0566901668
 20
-28.1935872816
 10
18.0470183066
 20
-28.1737074698
 10
18.0367655939
 20
-28.1538152075
 10
18.025802083
 20
-28.1340718855
 10
18.0141710188
 20
-28.1144883285
 10
18.0018291519
 20
-28.0950537212
 10
17.9885167942
 20
-28.075897003
 10
17.9742460287
 20
-28.0569428683
 10
17.959004767
 20
-28.0382666371
 10
17.942497064
 20
-28.0202232004
 10
17.9246255355
 20
-28.0026883162
 10
17.9054875621
 20
-27.985786257
 10
17.8850793509
 20
-27.9702447115
 10
17.8633996421
 20
-27.956306269
 10
17.8404497039
 20
-27.9437284009
 10
17.8162295404
 20
-27.9325111312
  0
LINE
  5
308
100
AcDbEntity
  8
0
100
AcDbLine
 62
7
  6
CONTINUOUS
 10
17.6930846728
 20
-28.904654486
 11
17.7907419974
 21
-29.2393880488
  0
LWPOLYLINE
  5
309
100
AcDbEntity
  8
0
100
AcDbPolyline
 62
7
  6
CONTINUOUS
 90
4
 70
0
 10
17.6245145881
 20
-28.6644325946
 10
17.6586660809
 20
-28.7837943646
 10
17.6699812837
 20
-28.8238894904
 10
17.6930846728
 20
-28.904654486
  0
LINE
  5
30A
100
AcDbEntity
  8
0
100
AcDbLine
 62
7
  6
CONTINUOUS
 10
18.1377491467
 20
-28.4249734021
 11
18.1272764636
 21
-28.3873080915
  0
LINE
  5
30B
100
AcDbEntity
  8
0
100
AcDbLine
 62
7
  6
CONTINUOUS
 10
18.1480552861
 20
-28.4627643662
 11
18.1377491467
 21
-28.4249734021
  0
LINE
  5
30C
100
AcDbEntity
  8
0
100
AcDbLine
 62
7
  6
CONTINUOUS
 10
18.2227024057
 20
-28.7426180381
 11
18.1480552861
 21
-28.4627643662
  0
LINE
  5
30D
100
AcDbEntity
  8
0
100
AcDbLine
 62
7
  6
CONTINUOUS
 10
18.3528745875
 20
-29.2393880488
 11
18.2227024057
 21
-28.7426180381
  0
LINE
  5
30E
100
AcDbEntity
  8
0
100
AcDbLine
 62
7
  6
CONTINUOUS
 10
16.3137451779
 20
-26.4723940354
 11
16.3137451779
 21
-29.2393880488
  0
LINE
  5
30F
100
AcDbEntity
  8
0
100
AcDbLine
 62
7
  6
CONTINUOUS
 10
16.8764236296
 20
-27.685214781
 11
16.8764236296
 21
-26.9166414903
  0
LINE
  5
310
100
AcDbEntity
  8
0
100
AcDbLine
 62
7
  6
CONTINUOUS
 10
16.8958017204
 20
-29.2393880488
 11
16.8958017204
 21
-28.1437386191
  0
LINE
  5
311
100
AcDbEntity
  8
0
100
AcDbLine
 62
7
  6
CONTINUOUS
 10
17.8162295404
 20
-27.9325111312
 11
17.8162295404
 21
-27.9159673224
  0
LWPOLYLINE
  5
312
100
AcDbEntity
  8
0
100
AcDbPolyline
 62
7
  6
CONTINUOUS
 90
31
 70
0
 10
17.6643785204
 20
-27.2503724141
 10
17.6640701628
 20
-27.2747719077
 10
17.6626382665
 20
-27.2989682891
 10
17.6600828369
 20
-27.3229615641
 10
17.6563887673
 20
-27.3468186426
 10
17.6515711756
 20
-27.3704726251
 10
17.645675404
 20
-27.3937228096
 10
17.6387285296
 20
-27.4165674416
 10
17.6307034857
 20
-27.4390082996
 10
17.6215643993
 20
-27.4608499935
 10
17.6113193903
 20
-27.482129002
 10
17.5999603481
 20
-27.5028088797
 10
17.5874270546
 20
-27.5225848645
 10
17.5737101711
 20
-27.5414701617
 10
17.5588190432
 20
-27.5594516128
 10
17.5427214787
 20
-27.5761849248
 10
17.5253147115
 20
-27.5915802959
 10
17.5067015101
 20
-27.6057275837
 10
17.4871579808
 20
-27.6185519913
 10
17.4666405627
 20
-27.6299749642
 10
17.4451928128
 20
-27.6400751016
 10
17.4232215115
 20
-27.6490133331
 10
17.4007964164
 20
-27.6567686528
 10
17.3778477627
 20
-27.6633620934
 10
17.3545730475
 20
-27.6690176349
 10
17.3309664435
 20
-27.6737539584
 10
17.3070337706
 20
-27.6775523961
 10
17.2829899978
 20
-27.6805808998
 10
17.2589067794
 20
-27.6828954548
 10
17.2347124543
 20
-27.6844400813
 10
17.2104070187
 20
-27.685214781
  0
LINE
  5
313
100
AcDbEntity
  8
0
100
AcDbLine
 62
7
  6
CONTINUOUS
 10
9.2085573756
 20
-26.4396846944
 11
8.6585803756
 21
-28.3668066944
  0
LINE
  5
314
100
AcDbEntity
  8
0
100
AcDbLine
 62
7
  6
CONTINUOUS
 10
8.8926293756
 20
-29.2393876944
 11
9.7925663756
 21
-26.4396846944
  0
LINE
  5
315
100
AcDbEntity
  8
0
100
AcDbLine
 62
7
  6
CONTINUOUS
 10
12.9078203756
 20
-26.4396846944
 11
12.3234123756
 21
-27.9940886944
  0
LINE
  5
316
100
AcDbEntity
  8
RACCORDO
100
AcDbLine
 62
253
  6
CONTINUOUS
 10
47.0326780226
 20
22.4886947736
 11
46.7599703944
 21
22.1820831521
  0
LWPOLYLINE
  5
317
100
AcDbEntity
  8
RACCORDO
100
AcDbPolyline
 62
253
  6
CONTINUOUS
 90
10
 70
0
 10
-20.0782121437
 20
22.8810398917
 10
-18.3464143355
 20
22.9519728447
 10
-16.6143441485
 20
23.019087351
 10
-14.8820054452
 20
23.0823834814
 10
-13.1494046307
 20
23.1418610371
 10
-11.4165429989
 20
23.1975203471
 10
-9.6834167326
 20
23.2493622686
 10
-7.9500271101
 20
23.2973871229
 10
-6.2163805069
 20
23.3415946958
 10
-4.4824807412
 20
23.3819850352
  0
LWPOLYLINE
  5
318
100
AcDbEntity
  8
RACCORDO
100
AcDbPolyline
 62
253
  6
CONTINUOUS
 90
10
 70
0
 10
-19.5203556035
 20
22.4693398647
 10
-17.8491719562
 20
22.5366592975
 10
-16.177742486
 20
22.6004236699
 10
-14.5060671929
 20
22.660632982
 10
-12.834144784
 20
22.7172869396
 10
-11.1619765523
 20
22.7703858368
 10
-9.4895663757
 20
22.8199305562
 10
-7.8169155471
 20
22.8659213918
 10
-6.1440227737
 20
22.9083580495
 10
-4.4708880555
 20
22.9472405293
  0
LINE
  5
319
100
AcDbEntity
  8
RACCORDO
100
AcDbLine
 62
253
  6
CONTINUOUS
 10
47.2773963158
 20
21.347062381
 11
47.1932739314
 21
21.3452291259
  0
LWPOLYLINE
  5
31A
100
AcDbEntity
  8
RACCORDO
100
AcDbPolyline
 62
253
  6
CONTINUOUS
 90
10
 70
0
 10
-4.4708880555
 20
22.9472405293
 10
-0.5914348535
 20
23.0236729435
 10
3.2888046677
 20
23.0809972519
 10
7.169830508
 20
23.1192134545
 10
11.0521670172
 20
23.1383215482
 10
14.9352898455
 20
23.138321536
 10
18.8176259435
 20
23.1192134271
 10
22.6986509615
 20
23.0809972246
 10
26.5788892492
 20
23.0236729253
 10
30.4583408066
 20
22.9472405293
  0
LWPOLYLINE
  5
31B
100
AcDbEntity
  8
RACCORDO
100
AcDbPolyline
 62
253
  6
CONTINUOUS
 90
10
 70
0
 10
-4.4824807412
 20
23.3819850352
 10
-0.6004881834
 20
23.4587678902
 10
3.2823589244
 20
23.5163538215
 10
7.1660177088
 20
23.5547438597
 10
11.0509159822
 20
23.5739386965
 10
14.9365408832
 20
23.5739386843
 10
18.8214387452
 20
23.5547438323
 10
22.7050967067
 20
23.516353794
 10
26.5879425802
 20
23.4587678719
 10
30.4699334923
 20
23.3819850352
  0
LINE
  5
31C
100
AcDbEntity
  8
RACCORDO
100
AcDbLine
 62
7
  6
CONTINUOUS
 10
-20.0562736245
 20
22.459202636
 11
-19.5203688076
 21
22.4693398647
  0
LINE
  5
31D
100
AcDbEntity
  8
RACCORDO
100
AcDbLine
 62
253
  6
CONTINUOUS
 10
47.3658668869
 20
21.348406871
 11
47.2773963158
 21
21.347062381
  0
LWPOLYLINE
  5
31E
100
AcDbEntity
  8
RACCORDO
100
AcDbPolyline
 62
253
  6
CONTINUOUS
 90
3
 70
0
 10
47.0768333288
 20
21.3439021035
 10
47.1260462795
 20
21.3445789744
 10
47.1533070619
 20
21.3448068135
  0
LINE
  5
31F
100
AcDbEntity
  8
RACCORDO
100
AcDbLine
 62
253
  6
CONTINUOUS
 10
47.4571424853
 20
21.3492399733
 11
47.3658668869
 21
21.348406871
  0
LINE
  5
320
100
AcDbEntity
  8
RACCORDO
100
AcDbLine
 62
253
  6
CONTINUOUS
 10
47.5496288359
 20
21.3495473343
 11
47.4571424853
 21
21.3492399733
  0
LINE
  5
321
100
AcDbEntity
  8
0
100
AcDbLine
 62
253
  6
CONTINUOUS
 10
46.8437263756
 20
21.3384133056
 11
46.9637058939
 21
21.3384160155
  0
LINE
  5
322
100
AcDbEntity
  8
0
100
AcDbLine
 62
253
  6
CONTINUOUS
 10
-20.8562736244
 20
21.3384133056
 11
-20.9762579015
 21
21.3384018722
  0
LINE
  5
323
100
AcDbEntity
  8
0
100
AcDbLine
 62
7
  6
CONTINUOUS
 10
46.0437263756
 20
22.1384133056
 11
-20.0562736244
 21
22.1384133056
  0
LINE
  5
324
100
AcDbEntity
  8
RACCORDO
100
AcDbLine
 62
253
  6
CONTINUOUS
 10
-20.0562726064
 20
22.2566039721
 11
46.043722908
 21
22.2566039721
  0
LINE
  5
325
100
AcDbEntity
  8
RACCORDO
100
AcDbLine
 62
253
  6
CONTINUOUS
 10
-19.5203556035
 20
22.4693398647
 11
45.507808317
 21
22.4693398647
  0
LINE
  5
326
100
AcDbEntity
  8
RACCORDO
100
AcDbLine
 62
253
  6
CONTINUOUS
 10
-4.4824807412
 20
23.3819850352
 11
-46.4167226474
 21
23.3819614035
  0
LINE
  5
327
100
AcDbEntity
  8
RACCORDO
100
AcDbLine
 62
253
  6
CONTINUOUS
 10
30.4699334923
 20
23.3819850352
 11
72.4041754103
 21
23.381961279
  0
LWPOLYLINE
  5
328
100
AcDbEntity
  8
RACCORDO
100
AcDbPolyline
 62
253
  6
CONTINUOUS
 90
12
 70
0
 10
-21.1658266641
 20
21.344805926
 10
-21.1130535614
 20
21.3442752358
 10
-21.0893829018
 20
21.3439018926
 10
-21.0676875168
 20
21.3434638011
 10
-21.048079176
 20
21.342966933
 10
-21.0306594168
 20
21.3424176567
 10
-21.0155176342
 20
21.3418226616
 10
-21.0027309967
 20
21.3411889064
 10
-20.9923649408
 20
21.3405236053
 10
-20.9844725145
 20
21.3398341734
 10
-20.9790941056
 20
21.3391281809
 10
-20.9762572351
 20
21.3384133056
  0
LINE
  5
329
100
AcDbEntity
  8
RACCORDO
100
AcDbLine
 62
253
  6
CONTINUOUS
 10
-21.5621346625
 20
21.3547023296
 11
-21.4696534496
 21
21.3532627967
  0
LWPOLYLINE
  5
32A
100
AcDbEntity
  8
RACCORDO
100
AcDbPolyline
 62
253
  6
CONTINUOUS
 90
34
 70
0
 10
46.043722908
 20
22.2566039718
 10
46.07588959
 20
22.2560410084
 10
46.1085287369
 20
22.2543181446
 10
46.1415963777
 20
22.2513828576
 10
46.174723527
 20
22.2472296353
 10
46.2081833118
 20
22.2417857087
 10
46.2428716398
 20
22.2347925248
 10
46.2790112725
 20
22.2260105711
 10
46.3161871238
 20
22.2153356098
 10
46.3542983587
 20
22.2026004044
 10
46.3932212753
 20
22.187636603
 10
46.4327904783
 20
22.1702880721
 10
46.4728163674
 20
22.1504102011
 10
46.5132000093
 20
22.127802552
 10
46.5536335468
 20
22.1023703183
 10
46.5936134836
 20
22.0741876209
 10
46.6330281737
 20
22.0430949102
 10
46.6715283045
 20
22.0091143432
 10
46.7083446741
 20
21.9727540022
 10
46.7433423791
 20
21.9340495105
 10
46.7763280647
 20
21.893109021
 10
46.8066476598
 20
21.8507564036
 10
46.8342505931
 20
21.8072117082
 10
46.859144856
 20
21.7626226446
 10
46.8810098333
 20
21.7178570994
 10
46.8999082758
 20
21.6732772827
 10
46.9160395411
 20
21.6289492889
 10
46.9294582392
 20
21.5853475864
 10
46.9402496939
 20
21.543091126
 10
46.9487484925
 20
21.501899093
 10
46.9552891747
 20
21.4608500038
 10
46.9599563981
 20
21.4196860715
 10
46.9627434646
 20
21.3788462634
 10
46.9637106328
 20
21.3384160156
  0
LINE
  5
32B
100
AcDbEntity
  8
RACCORDO
100
AcDbLine
 62
7
  6
CONTINUOUS
 10
45.5078215586
 20
22.4693398647
 11
46.0437263496
 21
22.4592026365
  0
LINE
  5
32C
100
AcDbEntity
  8
RACCORDO
100
AcDbLine
 62
253
  6
CONTINUOUS
 10
-21.4696534496
 20
21.3532627967
 11
-21.3783831506
 21
21.3513169827
  0
LWPOLYLINE
  5
32D
100
AcDbEntity
  8
RACCORDO
100
AcDbPolyline
 62
253
  6
CONTINUOUS
 90
10
 70
0
 10
30.4583408066
 20
22.9472405293
 10
32.1314745967
 20
22.9083580743
 10
33.8043666639
 20
22.8659214368
 10
35.4770170083
 20
22.8199306166
 10
37.1494269107
 20
22.7703859099
 10
38.8215950904
 20
22.7172870205
 10
40.493517705
 20
22.6606330602
 10
42.165193474
 20
22.6004237327
 10
43.836623678
 20
22.5366593342
 10
45.507808317
 20
22.4693398647
  0
LWPOLYLINE
  5
32E
100
AcDbEntity
  8
RACCORDO
100
AcDbPolyline
 62
253
  6
CONTINUOUS
 90
10
 70
0
 10
30.4699334923
 20
23.3819850352
 10
32.2038322271
 20
23.341594724
 10
33.9374780786
 20
23.2973871726
 10
35.6708672281
 20
23.2493623334
 10
37.4039933287
 20
23.1975204212
 10
39.1368550737
 20
23.1418611139
 10
40.8694561954
 20
23.0823835524
 10
42.6017953717
 20
23.0190874069
 10
44.3338662257
 20
22.9519728769
 10
46.0656648948
 20
22.8810398917
  0
LINE
  5
32F
100
AcDbEntity
  8
RACCORDO
100
AcDbLine
 62
253
  6
CONTINUOUS
 10
-21.3783831506
 20
21.3513169827
 11
-21.2899176414
 21
21.3488991244
  0
LINE
  5
330
100
AcDbEntity
  8
RACCORDO
100
AcDbLine
 62
253
  6
CONTINUOUS
 10
-21.1658467746
 20
21.3445830556
 11
-21.1130656259
 21
21.3428173176
  0
LWPOLYLINE
  5
331
100
AcDbEntity
  8
RACCORDO
100
AcDbPolyline
 62
253
  6
CONTINUOUS
 90
3
 70
0
 10
-21.2899176414
 20
21.3488991244
 10
-21.2057985496
 20
21.3460521764
 10
-21.1658326556
 20
21.3444829475
  0
LWPOLYLINE
  5
332
100
AcDbEntity
  8
RACCORDO
100
AcDbPolyline
 62
253
  6
CONTINUOUS
 90
10
 70
0
 10
-21.1130656259
 20
21.3428173176
 10
-21.0676962191
 20
21.3409445652
 10
-21.0480875267
 20
21.3399838268
 10
-21.0306675226
 20
21.3389846617
 10
-21.0155254692
 20
21.3379428243
 10
-21.0027386993
 20
21.3368727306
 10
-20.9923726459
 20
21.3357798553
 10
-20.9844803545
 20
21.3346697906
 10
-20.9791022119
 20
21.3335482174
 10
-20.9762657394
 20
21.3324208749
  0
LWPOLYLINE
  5
333
100
AcDbEntity
  8
RACCORDO
100
AcDbPolyline
 62
7
  6
CONTINUOUS
 90
16
 70
0
 10
46.0444839605
 20
22.4591797008
 10
46.0975148148
 20
22.4565246081
 10
46.150161722
 20
22.4514492325
 10
46.2023007671
 20
22.4439813668
 10
46.2539200383
 20
22.434153411
 10
46.3049759864
 20
22.4219751131
 10
46.3552822028
 20
22.4074871428
 10
46.404572208
 20
22.3907957987
 10
46.4527455546
 20
22.372007408
 10
46.4999133364
 20
22.3511282079
 10
46.5460872355
 20
22.3281623814
 10
46.5911694322
 20
22.3031142823
 10
46.6351907844
 20
22.275922388
 10
46.6780869278
 20
22.2466168258
 10
46.7197308575
 20
22.215303838
 10
46.759969877
 20
22.1820825663
  0
LWPOLYLINE
  5
334
100
AcDbEntity
  8
RACCORDO
100
AcDbPolyline
 62
253
  6
CONTINUOUS
 90
28
 70
0
 10
46.0656648948
 20
22.8810398917
 10
46.1017780196
 20
22.8791440508
 10
46.1381248409
 20
22.8763343719
 10
46.174705362
 20
22.8726108544
 10
46.2115432193
 20
22.8679960772
 10
46.2486147823
 20
22.8624674592
 10
46.2858491541
 20
22.8559572597
 10
46.3232523102
 20
22.8484606168
 10
46.3608182812
 20
22.8399823886
 10
46.3984582537
 20
22.8304694136
 10
46.4361880848
 20
22.8199121688
 10
46.4739919233
 20
22.8083201714
 10
46.5117333938
 20
22.7956688202
 10
46.549446217
 20
22.7819390565
 10
46.5870966774
 20
22.7671499313
 10
46.6244472457
 20
22.7513340072
 10
46.6614974836
 20
22.7344733039
 10
46.6982478334
 20
22.7165857925
 10
46.7344620867
 20
22.6977579627
 10
46.7700927581
 20
22.6779945156
 10
46.8051873353
 20
22.6572907402
 10
46.8396520695
 20
22.6357190084
 10
46.8734686093
 20
22.6132853385
 10
46.9066553065
 20
22.5899837017
 10
46.9391734655
 20
22.5658683998
 10
46.9710101873
 20
22.5409575298
 10
47.0021783694
 20
22.515232984
 10
47.0326780105
 20
22.4886947565
  0
LWPOLYLINE
  5
335
100
AcDbEntity
  8
RACCORDO
100
AcDbPolyline
 62
253
  6
CONTINUOUS
 90
14
 70
0
 10
-46.473014396
 20
23.3868344629
 10
-46.5001967359
 20
23.3890072115
 10
-46.526401308
 20
23.3909848743
 10
-46.5513877483
 20
23.3927493112
 10
-46.5749268664
 20
23.3942843376
 10
-46.5968027476
 20
23.3955758734
 10
-46.6168147332
 20
23.3966120719
 10
-46.6347792616
 20
23.3973834284
 10
-46.6505315512
 20
23.3978828676
 10
-46.6639271129
 20
23.3981058084
 10
-46.6748430745
 20
23.3980502057
 10
-46.6831793085
 20
23.3977165697
 10
-46.6888593498
 20
23.3971079605
 10
-46.6918310978
 20
23.3962299609
  0
LWPOLYLINE
  5
336
100
AcDbEntity
  8
RACCORDO
100
AcDbPolyline
 62
253
  6
CONTINUOUS
 90
16
 70
0
 10
-46.2835916383
 20
24.7707695778
 10
-46.3119450934
 20
24.7733819116
 10
-46.3398276783
 20
24.7758149982
 10
-46.3669839406
 20
24.7780465465
 10
-46.3931650819
 20
24.7800561116
 10
-46.4181312379
 20
24.7818252823
 10
-46.4416536754
 20
24.78333785
 10
-46.4635168884
 20
24.7845799571
 10
-46.483520572
 20
24.7855402236
 10
-46.501481458
 20
24.7862098519
 10
-46.5172349936
 20
24.7865827069
 10
-46.5306368494
 20
24.7866553728
 10
-46.5415642411
 20
24.7864271837
 10
-46.549917055
 20
24.7859002303
 10
-46.5556187649
 20
24.7850793404
 10
-46.5586171333
 20
24.7839720347
  0
LINE
  5
337
100
AcDbEntity
  8
RACCORDO
100
AcDbLine
 62
253
  6
CONTINUOUS
 10
-46.7366392837
 20
24.8019821905
 11
-46.5586177762
 21
24.7839655187
  0
LWPOLYLINE
  5
338
100
AcDbEntity
  8
RACCORDO
100
AcDbPolyline
 62
253
  6
CONTINUOUS
 90
16
 70
0
 10
-45.7624916117
 20
28.7495867665
 10
-45.7904888056
 20
28.7539062529
 10
-45.8180252108
 20
28.7579621138
 10
-45.8448507255
 20
28.7617175113
 10
-45.8707217046
 20
28.7651383369
 10
-45.8954031726
 20
28.7681935205
 10
-45.918670958
 20
28.7708553132
 10
-45.9403137291
 20
28.773099539
 10
-45.9601349135
 20
28.7749058146
 10
-45.9779544835
 20
28.7762577342
 10
-45.9936105914
 20
28.777143019
 10
-46.0069610392
 20
28.7775536282
 10
-46.0178845702
 20
28.7774858326
 10
-46.0262819706
 20
28.7769402478
 10
-46.0320769702
 20
28.7759218291
 10
-46.0352169354
 20
28.7744398265
  0
LINE
  5
339
100
AcDbEntity
  8
RACCORDO
100
AcDbLine
 62
253
  6
CONTINUOUS
 10
-46.1994194217
 20
28.8019821905
 11
-46.0352364966
 21
28.774320728
  0
LINE
  5
33A
100
AcDbEntity
  8
RACCORDO
100
AcDbLine
 62
253
  6
CONTINUOUS
 10
47.0326780078
 20
-23.2118681414
 11
46.7600351394
 21
-22.9053296255
  0
LINE
  5
33B
100
AcDbEntity
  8
0
100
AcDbLine
 62
7
  6
CONTINUOUS
 10
14.6984773756
 20
-28.2479776944
 11
14.9894633756
 21
-27.2089716944
  0
LINE
  5
33C
100
AcDbEntity
  8
0
100
AcDbLine
 62
7
  6
CONTINUOUS
 10
14.4176733756
 20
-29.2393876944
 11
14.5789333756
 21
-28.6804676944
  0
LINE
  5
33D
100
AcDbEntity
  8
0
100
AcDbLine
 62
7
  6
CONTINUOUS
 10
14.7177713756
 20
-26.4396846944
 11
13.8396063756
 21
-29.2393876944
  0
LINE
  5
33E
100
AcDbEntity
  8
0
100
AcDbLine
 62
7
  6
CONTINUOUS
 10
12.3612023756
 20
-29.2393876944
 11
13.0560633756
 21
-27.4188556944
  0
LINE
  5
33F
100
AcDbEntity
  8
RACCORDO
100
AcDbLine
 62
253
  6
CONTINUOUS
 10
30.4638064572
 20
-23.852873484
 11
30.4583408066
 21
-23.6704139181
  0
LWPOLYLINE
  5
340
100
AcDbEntity
  8
RACCORDO
100
AcDbPolyline
 62
253
  6
CONTINUOUS
 90
3
 70
0
 10
30.4699335089
 20
-24.1051584716
 10
30.4688072136
 20
-24.0539646306
 10
30.4638064572
 20
-23.852873484
  0
LINE
  5
341
100
AcDbEntity
  8
RACCORDO
100
AcDbLine
 62
253
  6
CONTINUOUS
 10
30.4699334923
 20
23.3819850351
 11
30.4651178091
 21
23.1788782032
  0
LWPOLYLINE
  5
342
100
AcDbEntity
  8
RACCORDO
100
AcDbPolyline
 62
253
  6
CONTINUOUS
 90
3
 70
0
 10
30.4651178091
 20
23.1788782032
 10
30.4597256876
 20
22.9902198191
 10
30.4583408066
 20
22.9472405293
  0
LWPOLYLINE
  5
343
100
AcDbEntity
  8
0
100
AcDbPolyline
 62
7
  6
CONTINUOUS
 90
51
 70
0
 10
17.9254899706
 20
-27.8491158895
 10
17.936761487
 20
-27.8394533464
 10
17.9482652707
 20
-27.8293216898
 10
17.9600244669
 20
-27.8187340082
 10
17.9720159326
 20
-27.8076771997
 10
17.9841526163
 20
-27.7960275732
 10
17.9964455468
 20
-27.7838012765
 10
18.0088836975
 20
-27.7709821422
 10
18.0213469333
 20
-27.7573980007
 10
18.0338384071
 20
-27.743041064
 10
18.0463549681
 20
-27.7279190903
 10
18.058767025
 20
-27.7118832217
 10
18.0710678296
 20
-27.6949191695
 10
18.0832641311
 20
-27.6770411808
 10
18.0952465847
 20
-27.6581431937
 10
18.1070292635
 20
-27.6382258305
 10
18.1185980939
 20
-27.617288415
 10
18.129801509
 20
-27.5952229294
 10
18.1406616955
 20
-27.5720353074
 10
18.1511564637
 20
-27.5477195466
 10
18.1610676806
 20
-27.5221497152
 10
18.1704200471
 20
-27.4953190099
 10
18.1791888548
 20
-27.467234146
 10
18.1870818538
 20
-27.4377894588
 10
18.1941130481
 20
-27.4069685075
 10
18.2002684193
 20
-27.3747876242
 10
18.2052136784
 20
-27.3411902937
 10
18.208968971
 20
-27.3061975037
 10
18.2115141284
 20
-27.2697881407
 10
18.2124543832
 20
-27.2318425265
 10
18.2119091881
 20
-27.1923053701
 10
18.2097590556
 20
-27.1512318079
 10
18.2052507977
 20
-27.1086677966
 10
18.1984082526
 20
-27.0642157014
 10
18.189207526
 20
-27.0182729793
 10
18.1768238242
 20
-26.972078297
 10
18.1608282243
 20
-26.9253451846
 10
18.1416495858
 20
-26.878360079
 10
18.1197498097
 20
-26.8332212058
 10
18.0948193215
 20
-26.7902353545
 10
18.0671676826
 20
-26.7490959618
 10
18.0381855435
 20
-26.7109814027
 10
18.0079601866
 20
-26.6763231752
 10
17.9764043686
 20
-26.6446900756
 10
17.9446469791
 20
-26.6159664643
 10
17.912921884
 20
-26.5902111546
 10
17.8809952655
 20
-26.5673655338
 10
17.8492944933
 20
-26.5471377929
 10
17.8179620372
 20
-26.5294306997
 10
17.7868554682
 20
-26.5143416084
 10
17.7559748053
 20
-26.5018705679
  0
LWPOLYLINE
  5
344
100
AcDbEntity
  8
0
100
AcDbPolyline
 62
7
  6
CONTINUOUS
 90
4
 70
0
 10
17.8829203829
 20
-27.8840033966
 10
17.8933569469
 20
-27.8759704384
 10
17.9037877015
 20
-27.867374431
 10
17.9254899706
 20
-27.8491158895
  0
LWPOLYLINE
  5
345
100
AcDbEntity
  8
RACCORDO
100
AcDbPolyline
 62
253
  6
CONTINUOUS
 90
43
 70
0
 10
-31.3431981374
 20
42.5111223873
 10
-31.8453500452
 20
42.4461772662
 10
-32.3441801142
 20
42.3660870622
 10
-32.8396937835
 20
42.2708476351
 10
-33.3322545999
 20
42.1603553639
 10
-33.8215086512
 20
42.0347033099
 10
-34.3063844786
 20
41.8941813727
 10
-34.7869473493
 20
41.7387437827
 10
-35.2631387196
 20
41.5684218051
 10
-35.733700506
 20
41.3836202692
 10
-36.1986423277
 20
41.1842889851
 10
-36.6579579525
 20
40.9704604771
 10
-37.1103644646
 20
40.7426634335
 10
-37.555850372
 20
40.5008493856
 10
-37.9944269279
 20
40.2450469676
 10
-38.4248442165
 20
39.9759007938
 10
-38.8470885003
 20
39.6933584907
 10
-39.2611695687
 20
39.3974515306
 10
-39.6658717133
 20
39.0889511032
 10
-40.0611830925
 20
38.7677931753
 10
-40.4471080201
 20
38.4340209903
 10
-40.8224540806
 20
38.0885680573
 10
-41.1871880249
 20
37.7313786054
 10
-41.5413323568
 20
37.3624889896
 10
-41.8837776085
 20
36.982972916
 10
-42.2144837689
 20
36.5927750774
 10
-42.5334774881
 20
36.1919338646
 10
-42.8397489806
 20
35.7816660776
 10
-43.1332365847
 20
35.361946706
 10
-43.413986796
 20
34.9327873375
 10
-43.6811521964
 20
34.4954625916
 10
-43.9346741987
 20
34.049959681
 10
-44.1745953143
 20
33.5962820153
 10
-44.4002203495
 20
33.1357315788
 10
-44.6115343577
 20
32.6681600967
 10
-44.8085361487
 20
32.1937106539
 10
-44.9905523893
 20
31.7141257645
 10
-45.1574926857
 20
31.2293468552
 10
-45.3094326556
 20
30.739432415
 10
-45.4459500047
 20
30.2463044461
 10
-45.5669004171
 20
29.7506060076
 10
-45.6724162746
 20
29.2516992276
 10
-45.762491612
 20
28.7495867668
  0
LWPOLYLINE
  5
346
100
AcDbEntity
  8
RACCORDO
100
AcDbPolyline
 62
253
  6
CONTINUOUS
 90
43
 70
0
 10
-31.3623581095
 20
42.7572366238
 10
-31.8726711655
 20
42.6913995265
 10
-32.3805220237
 20
42.6099552038
 10
-32.8854313606
 20
42.5130000259
 10
-33.3867975047
 20
42.4006741826
 10
-33.8842772889
 20
42.2730820069
 10
-34.3777770945
 20
42.1302535511
 10
-34.8669069923
 20
41.9722809781
 10
-35.3511155801
 20
41.7993229143
 10
-35.8300603818
 20
41.6114854966
 10
-36.3032961064
 20
41.4089131181
 10
-36.7703438549
 20
41.1917817784
 10
-37.230811656
 20
40.9602498507
 10
-37.6842507807
 20
40.7145060891
 10
-38.1302107781
 20
40.4547587003
 10
-38.5683013092
 20
40.1812062722
 10
-38.9980925695
 20
39.8940728935
 10
-39.419146546
 20
39.5936074062
 10
-39.8310677855
 20
39.2800593091
 10
-40.2334568422
 20
38.9536821022
 10
-40.6258854859
 20
38.614772549
 10
-41.0079293294
 20
38.2636650819
 10
-41.3792048946
 20
37.9006644625
 10
-41.7393255224
 20
37.526100619
 10
-42.0878845989
 20
37.1403706289
 10
-42.4245344799
 20
36.7438168654
 10
-42.7489223287
 20
36.3368116655
 10
-43.0606634422
 20
35.9198230291
 10
-43.3594345243
 20
35.4932552781
 10
-43.6449442613
 20
35.0574950269
 10
-43.9168871593
 20
34.6130055755
 10
-44.1749827725
 20
34.1602234737
 10
-44.4189817655
 20
33.6995624663
 10
-44.6486502034
 20
33.2314652149
 10
-44.8638103901
 20
32.7562524738
 10
-45.0641828218
 20
32.2744958873
 10
-45.2494370462
 20
31.7870377
 10
-45.419424712
 20
31.2943383987
 10
-45.5740001384
 20
30.7968937547
 10
-45.7129350718
 20
30.2956293964
 10
-45.8361317203
 20
29.791189067
 10
-45.9435776026
 20
29.2839214314
 10
-46.0352364766
 20
28.7743207246
  0
LWPOLYLINE
  5
347
100
AcDbEntity
  8
RACCORDO
100
AcDbPolyline
 62
253
  6
CONTINUOUS
 90
10
 70
0
 10
-26.3602765586
 20
42.9556089781
 10
-26.9147250342
 20
42.9181100827
 10
-27.4689939796
 20
42.8776385062
 10
-28.0230842903
 20
42.8341938303
 10
-28.5770236815
 20
42.7877734301
 10
-29.1307861749
 20
42.7383790057
 10
-29.6842921032
 20
42.6860165834
 10
-30.2375154557
 20
42.6306878074
 10
-30.7904838729
 20
42.5723899386
 10
-31.3431981374
 20
42.5111223873
  0
LWPOLYLINE
  5
348
100
AcDbEntity
  8
RACCORDO
100
AcDbPolyline
 62
253
  6
CONTINUOUS
 90
10
 70
0
 10
-26.3677738173
 20
43.2021498922
 10
-26.9235055607
 20
43.1646144884
 10
-27.4790895313
 20
43.1241023138
 10
-28.0345097674
 20
43.0806135735
 10
-28.5897629464
 20
43.0341473751
 10
-29.144820444
 20
42.9847051425
 10
-29.6996283989
 20
42.9322912923
 10
-30.2541582783
 20
42.8769083667
 10
-30.8084068136
 20
42.8185563566
 10
-31.3623581054
 20
42.7572365886
  0
LINE
  5
349
100
AcDbEntity
  8
RACCORDO
100
AcDbLine
 62
253
  6
CONTINUOUS
 10
-24.5650600131
 20
43.0695903601
 11
-26.3602765586
 21
42.9556089781
  0
LINE
  5
34A
100
AcDbEntity
  8
RACCORDO
100
AcDbLine
 62
253
  6
CONTINUOUS
 10
-24.5725961709
 20
43.3159678208
 11
-26.3677738174
 21
43.2021498924
  0
LINE
  5
34B
100
AcDbEntity
  8
RACCORDO
100
AcDbLine
 62
253
  6
CONTINUOUS
 10
-22.7687048443
 20
43.1784280546
 11
-24.5650600131
 21
43.0695903601
  0
LINE
  5
34C
100
AcDbEntity
  8
RACCORDO
100
AcDbLine
 62
253
  6
CONTINUOUS
 10
-22.7762774443
 20
43.4246495112
 11
-24.5725961709
 21
43.3159678208
  0
LINE
  5
34D
100
AcDbEntity
  8
RACCORDO
100
AcDbLine
 62
253
  6
CONTINUOUS
 10
-20.9712186661
 20
43.2821139314
 11
-22.7687048443
 21
43.1784280546
  0
LINE
  5
34E
100
AcDbEntity
  8
RACCORDO
100
AcDbLine
 62
253
  6
CONTINUOUS
 10
-20.9788274105
 20
43.5281867048
 11
-22.7762774443
 21
43.4246495112
  0
LINE
  5
34F
100
AcDbEntity
  8
RACCORDO
100
AcDbLine
 62
253
  6
CONTINUOUS
 10
46.0495359486
 20
-23.2682097141
 11
46.0444844886
 21
-23.1823616947
  0
LINE
  5
350
100
AcDbEntity
  8
RACCORDO
100
AcDbLine
 62
253
  6
CONTINUOUS
 10
46.0544713103
 20
-23.3601275821
 11
46.0495359486
 21
-23.2682097141
  0
LINE
  5
351
100
AcDbEntity
  8
RACCORDO
100
AcDbLine
 62
253
  6
CONTINUOUS
 10
46.9586714172
 20
-44.0052873202
 11
46.9612489273
 21
-44.0568044447
  0
LINE
  5
352
100
AcDbEntity
  8
RACCORDO
100
AcDbLine
 62
253
  6
CONTINUOUS
 10
46.0614418199
 20
-23.5053394903
 11
46.0544713103
 21
-23.3601275821
  0
LINE
  5
353
100
AcDbEntity
  8
RACCORDO
100
AcDbLine
 62
253
  6
CONTINUOUS
 10
46.9612489273
 20
-44.0568044447
 11
46.963441267
 21
-44.1049971673
  0
LINE
  5
354
100
AcDbEntity
  8
RACCORDO
100
AcDbLine
 62
253
  6
CONTINUOUS
 10
46.0656648948
 20
-23.6042132805
 11
46.0614418199
 21
-23.5053394903
  0
LINE
  5
355
100
AcDbEntity
  8
RACCORDO
100
AcDbLine
 62
253
  6
CONTINUOUS
 10
46.963441267
 20
-44.1049971673
 11
46.9651787207
 21
-44.1483329793
  0
LWPOLYLINE
  5
356
100
AcDbEntity
  8
RACCORDO
100
AcDbPolyline
 62
253
  6
CONTINUOUS
 90
9
 70
0
 10
46.9651787207
 20
-44.1483329793
 10
46.9664060383
 20
-44.1854338199
 10
46.9668155283
 20
-44.2012686216
 10
46.9670841914
 20
-44.2151198975
 10
46.9672098874
 20
-44.2268773115
 10
46.9671916151
 20
-44.2364472071
 10
46.96702952
 20
-44.2437533526
 10
46.9667248933
 20
-44.2487375491
 10
46.9662801617
 20
-44.2513600936
  0
LINE
  5
357
100
AcDbEntity
  8
RACCORDO
100
AcDbLine
 62
253
  6
CONTINUOUS
 10
46.9846716779
 20
38.3371864507
 11
46.9586714172
 21
43.2821139314
  0
LINE
  5
358
100
AcDbEntity
  8
RACCORDO
100
AcDbLine
 62
253
  6
CONTINUOUS
 10
47.0054623706
 20
33.3686779167
 11
46.9846716779
 21
38.3371864507
  0
LINE
  5
359
100
AcDbEntity
  8
RACCORDO
100
AcDbLine
 62
253
  6
CONTINUOUS
 10
47.0210214766
 20
28.381850315
 11
47.0054623706
 21
33.3686779167
  0
LINE
  5
35A
100
AcDbEntity
  8
RACCORDO
100
AcDbLine
 62
253
  6
CONTINUOUS
 10
47.0326780105
 20
22.4886947565
 11
47.0210214766
 21
28.381850315
  0
LINE
  5
35B
100
AcDbEntity
  8
RACCORDO
100
AcDbLine
 62
7
  6
CONTINUOUS
 10
47.1533068098
 20
21.3441389352
 11
47.1647390007
 21
14.1125477498
  0
LINE
  5
35C
100
AcDbEntity
  8
RACCORDO
100
AcDbLine
 62
253
  6
CONTINUOUS
 10
46.9637058939
 20
21.3384160155
 11
46.9816362997
 21
7.4450168867
  0
LINE
  5
35D
100
AcDbEntity
  8
RACCORDO
100
AcDbLine
 62
7
  6
CONTINUOUS
 10
47.1647390007
 20
14.1125477498
 11
47.1715928133
 21
6.8767269519
  0
LINE
  5
35E
100
AcDbEntity
  8
RACCORDO
100
AcDbLine
 62
253
  6
CONTINUOUS
 10
46.9816362997
 20
7.4450168867
 11
46.9840414735
 21
1.6869447862
  0
LINE
  5
35F
100
AcDbEntity
  8
RACCORDO
100
AcDbLine
 62
253
  6
CONTINUOUS
 10
46.0437263756
 20
-23.1823760248
 11
46.0437263756
 21
-22.9797773609
  0
LINE
  5
360
100
AcDbEntity
  8
RACCORDO
100
AcDbLine
 62
253
  6
CONTINUOUS
 10
46.0437263496
 20
22.4592026365
 11
46.0437263756
 21
22.2566039721
  0
LINE
  5
361
100
AcDbEntity
  8
0
100
AcDbLine
 62
253
  6
CONTINUOUS
 10
46.0437263756
 20
22.1384133056
 11
46.043722908
 21
22.2566039721
  0
LINE
  5
362
100
AcDbEntity
  8
0
100
AcDbLine
 62
7
  6
CONTINUOUS
 10
46.8437263756
 20
21.3384133056
 11
46.8437263756
 21
-22.0615866944
  0
LINE
  5
363
100
AcDbEntity
  8
RACCORDO
100
AcDbLine
 62
7
  6
CONTINUOUS
 10
47.1715928133
 20
6.8767269519
 11
47.1738740616
 21
-0.3615866944
  0
LINE
  5
364
100
AcDbEntity
  8
0
100
AcDbLine
 62
253
  6
CONTINUOUS
 10
46.0437263756
 20
-22.8615866944
 11
46.0437174334
 21
-22.9797773609
  0
LINE
  5
365
100
AcDbEntity
  8
RACCORDO
100
AcDbLine
 62
253
  6
CONTINUOUS
 10
46.9840414735
 20
1.6869447862
 11
46.9834029957
 21
-4.8356910106
  0
LINE
  5
366
100
AcDbEntity
  8
RACCORDO
100
AcDbLine
 62
7
  6
CONTINUOUS
 10
47.1738740728
 20
-0.3615866944
 11
47.1715946626
 21
-7.5995015698
  0
LINE
  5
367
100
AcDbEntity
  8
RACCORDO
100
AcDbLine
 62
253
  6
CONTINUOUS
 10
46.9834029957
 20
-4.8356910106
 11
46.9797765086
 21
-10.5173391447
  0
LINE
  5
368
100
AcDbEntity
  8
RACCORDO
100
AcDbLine
 62
7
  6
CONTINUOUS
 10
47.1715946626
 20
-7.5995015698
 11
47.1647369006
 21
-14.835381676
  0
LINE
  5
369
100
AcDbEntity
  8
RACCORDO
100
AcDbLine
 62
253
  6
CONTINUOUS
 10
46.9797765086
 20
-10.5173391447
 11
46.9733946116
 21
-16.1506589144
  0
LINE
  5
36A
100
AcDbEntity
  8
RACCORDO
100
AcDbLine
 62
7
  6
CONTINUOUS
 10
47.1647369006
 20
-14.835381676
 11
47.1533060494
 21
-22.0676571246
  0
LINE
  5
36B
100
AcDbEntity
  8
RACCORDO
100
AcDbLine
 62
253
  6
CONTINUOUS
 10
46.9733946116
 20
-16.1506589144
 11
46.9637059161
 21
-22.061576327
  0
LINE
  5
36C
100
AcDbEntity
  8
RACCORDO
100
AcDbLine
 62
253
  6
CONTINUOUS
 10
47.0326780105
 20
-23.2118681453
 11
47.0250422623
 21
-27.4395893138
  0
LINE
  5
36D
100
AcDbEntity
  8
RACCORDO
100
AcDbLine
 62
253
  6
CONTINUOUS
 10
47.0250422623
 20
-27.4395893138
 11
47.0164175267
 21
-30.7690093492
  0
LINE
  5
36E
100
AcDbEntity
  8
RACCORDO
100
AcDbLine
 62
253
  6
CONTINUOUS
 10
47.0164175267
 20
-30.7690093492
 11
47.0054623706
 21
-34.0918513055
  0
LINE
  5
36F
100
AcDbEntity
  8
RACCORDO
100
AcDbLine
 62
253
  6
CONTINUOUS
 10
47.0054623706
 20
-34.0918513055
 11
46.9921819508
 21
-37.4065510544
  0
LINE
  5
370
100
AcDbEntity
  8
RACCORDO
100
AcDbLine
 62
253
  6
CONTINUOUS
 10
46.9921819508
 20
-37.4065510544
 11
46.9765825187
 21
-40.711548302
  0
LINE
  5
371
100
AcDbEntity
  8
RACCORDO
100
AcDbLine
 62
253
  6
CONTINUOUS
 10
46.9765825187
 20
-40.711548302
 11
46.9586714172
 21
-44.0052873202
  0
LWPOLYLINE
  5
372
100
AcDbEntity
  8
RACCORDO
100
AcDbPolyline
 62
253
  6
CONTINUOUS
 90
8
 70
0
 10
46.966406038
 20
43.4622604268
 10
46.966815528
 20
43.478095228
 10
46.967084191
 20
43.4919465035
 10
46.967209887
 20
43.5037039172
 10
46.9671916147
 20
43.5132738125
 10
46.9670295196
 20
43.5205799578
 10
46.9667248929
 20
43.5255641541
 10
46.9662801613
 20
43.5281866985
  0
LINE
  5
373
100
AcDbEntity
  8
RACCORDO
100
AcDbLine
 62
253
  6
CONTINUOUS
 10
46.9651787205
 20
43.4251595872
 11
46.966406038
 21
43.4622604268
  0
LINE
  5
374
100
AcDbEntity
  8
RACCORDO
100
AcDbLine
 62
253
  6
CONTINUOUS
 10
46.9634412668
 20
43.3818237762
 11
46.9651787205
 21
43.4251595872
  0
LINE
  5
375
100
AcDbEntity
  8
RACCORDO
100
AcDbLine
 62
253
  6
CONTINUOUS
 10
46.0656648897
 20
22.8810398842
 11
46.0591918117
 21
22.7331030009
  0
LINE
  5
376
100
AcDbEntity
  8
RACCORDO
100
AcDbLine
 62
253
  6
CONTINUOUS
 10
46.9612489272
 20
43.3336310547
 11
46.9634412668
 21
43.3818237762
  0
LINE
  5
377
100
AcDbEntity
  8
RACCORDO
100
AcDbLine
 62
253
  6
CONTINUOUS
 10
46.0591918117
 20
22.7331030009
 11
46.0544712769
 21
22.6369537253
  0
LINE
  5
378
100
AcDbEntity
  8
RACCORDO
100
AcDbLine
 62
253
  6
CONTINUOUS
 10
46.9586714172
 20
43.2821139312
 11
46.9612489272
 21
43.3336310547
  0
LINE
  5
379
100
AcDbEntity
  8
RACCORDO
100
AcDbLine
 62
253
  6
CONTINUOUS
 10
46.0544712769
 20
22.6369537253
 11
46.0495357718
 21
22.5450332506
  0
LINE
  5
37A
100
AcDbEntity
  8
RACCORDO
100
AcDbLine
 62
253
  6
CONTINUOUS
 10
46.0495357718
 20
22.5450332506
 11
46.0444839605
 21
22.4591797008
  0
LWPOLYLINE
  5
37B
100
AcDbEntity
  8
RACCORDO
100
AcDbPolyline
 62
253
  6
CONTINUOUS
 90
28
 70
0
 10
47.0326780105
 20
-23.2118681453
 10
47.0024407616
 20
-23.2381834759
 10
46.9715468609
 20
-23.263698838
 10
46.9399963096
 20
-23.2884142372
 10
46.9077681947
 20
-23.3123517364
 10
46.8748834306
 20
-23.3354892832
 10
46.8414047595
 20
-23.3577607106
 10
46.8073239415
 20
-23.3791645624
 10
46.772649216
 20
-23.3997023052
 10
46.7374680433
 20
-23.4193121573
 10
46.7017651585
 20
-23.4379888103
 10
46.6655558242
 20
-23.4557375824
 10
46.6289732913
 20
-23.4725126314
 10
46.5920128805
 20
-23.4883082403
 10
46.5546792671
 20
-23.503130135
 10
46.5171197331
 20
-23.5169496378
 10
46.4793252526
 20
-23.5297646187
 10
46.4413048462
 20
-23.5415772152
 10
46.4032328657
 20
-23.5523651513
 10
46.3651034512
 20
-23.5621161568
 10
46.3269224562
 20
-23.5708425078
 10
46.2888818033
 20
-23.5785587477
 10
46.2509826442
 20
-23.5852497165
 10
46.2132238205
 20
-23.5909305782
 10
46.1757937904
 20
-23.5956613616
 10
46.1387553717
 20
-23.599462077
 10
46.1020457408
 20
-23.6023127164
 10
46.0656648948
 20
-23.6042132805
  0
LWPOLYLINE
  5
37C
100
AcDbEntity
  8
RACCORDO
100
AcDbPolyline
 62
7
  6
CONTINUOUS
 90
16
 70
0
 10
46.7600351394
 20
-22.9053296255
 10
46.7188471899
 20
-22.9392119428
 10
46.6763407761
 20
-22.9710251202
 10
46.632684716
 20
-23.0006843682
 10
46.5880218579
 20
-23.0281127648
 10
46.5424191104
 20
-23.053287955
 10
46.4958509192
 20
-23.076249099
 10
46.448430855
 20
-23.0969844683
 10
46.4001649463
 20
-23.1155366621
 10
46.3509709882
 20
-23.1319528319
 10
46.3009376995
 20
-23.1461717693
 10
46.2503275967
 20
-23.1580879264
 10
46.1993356381
 20
-23.1676609379
 10
46.1480019129
 20
-23.1748983654
 10
46.0963433715
 20
-23.1797983582
 10
46.0444841589
 20
-23.1823562819
  0
LWPOLYLINE
  5
37D
100
AcDbEntity
  8
RACCORDO
100
AcDbPolyline
 62
253
  6
CONTINUOUS
 90
16
 70
0
 10
46.9662801617
 20
43.5281867048
 10
42.4452510322
 20
43.7651300128
 10
37.9209325128
 20
43.9683610427
 10
33.393570136
 20
44.1378307306
 10
28.8629484739
 20
44.2735065903
 10
24.3297757369
 20
44.3753211201
 10
19.7956847447
 20
44.4432070689
 10
15.2611885229
 20
44.4771505669
 10
10.7262712455
 20
44.4771505929
 10
6.1917735198
 20
44.4432071308
 10
1.6576782207
 20
44.3753211439
 10
-2.8755003252
 20
44.2735064711
 10
-7.4061254002
 20
44.1378304606
 10
-11.9334874965
 20
43.9683607227
 10
-16.4578033432
 20
43.7651297646
 10
-20.9788274105
 20
43.5281867048
  0
LWPOLYLINE
  5
37E
100
AcDbEntity
  8
RACCORDO
100
AcDbPolyline
 62
253
  6
CONTINUOUS
 90
16
 70
0
 10
46.9586714172
 20
43.2821139314
 10
42.4382630245
 20
43.5195106256
 10
37.9150387266
 20
43.7230089346
 10
33.3890093206
 20
43.8926332817
 10
28.8594785585
 20
44.0284579416
 10
24.3271573194
 20
44.1304458636
 10
19.794163942
 20
44.198448637
 10
15.2607637574
 20
44.2324210935
 10
10.7266976087
 20
44.2324211373
 10
6.1932959194
 20
44.1984487175
 10
1.6602982911
 20
44.1304458596
 10
-2.8720287036
 20
44.0284578021
 10
-7.4015630015
 20
43.8926330639
 10
-11.9275924826
 20
43.723008732
 10
-16.4508146363
 20
43.5195104956
 10
-20.9712186661
 20
43.2821139314
  0
LINE
  5
37F
100
AcDbEntity
  8
RACCORDO
100
AcDbLine
 62
253
  6
CONTINUOUS
 10
48.7637312679
 20
43.4246494478
 11
46.9662801617
 21
43.5281867048
  0
LINE
  5
380
100
AcDbEntity
  8
RACCORDO
100
AcDbLine
 62
253
  6
CONTINUOUS
 10
48.7561586572
 20
43.1784279918
 11
46.9586714172
 21
43.2821139314
  0
LINE
  5
381
100
AcDbEntity
  8
RACCORDO
100
AcDbLine
 62
253
  6
CONTINUOUS
 10
50.5525138321
 20
43.0695902938
 11
48.7561586572
 21
43.1784279918
  0
LINE
  5
382
100
AcDbEntity
  8
RACCORDO
100
AcDbLine
 62
253
  6
CONTINUOUS
 10
50.5600500118
 20
43.3159677533
 11
48.7637312679
 21
43.4246494478
  0
LINE
  5
383
100
AcDbEntity
  8
RACCORDO
100
AcDbLine
 62
253
  6
CONTINUOUS
 10
52.3477293097
 20
42.9556089781
 11
50.5525138321
 21
43.0695902938
  0
LINE
  5
384
100
AcDbEntity
  8
RACCORDO
100
AcDbLine
 62
253
  6
CONTINUOUS
 10
52.3552259856
 20
43.2021499303
 11
50.5600500118
 21
43.3159677533
  0
LWPOLYLINE
  5
385
100
AcDbEntity
  8
RACCORDO
100
AcDbPolyline
 62
253
  6
CONTINUOUS
 90
10
 70
0
 10
57.3497970553
 20
42.7572381538
 10
56.7958536313
 20
42.8185569974
 10
56.2416110025
 20
42.8769083695
 10
55.6870850646
 20
42.9322909119
 10
55.1322785915
 20
42.9847046473
 10
54.5772206038
 20
43.0341469513
 10
54.0219664347
 20
43.0806132563
 10
53.4665451998
 20
43.1241020933
 10
52.9109597296
 20
43.1646143889
 10
52.3552259856
 20
43.2021499301
  0
LWPOLYLINE
  5
386
100
AcDbEntity
  8
RACCORDO
100
AcDbPolyline
 62
253
  6
CONTINUOUS
 90
10
 70
0
 10
57.3306508885
 20
42.5111223873
 10
56.7779365619
 20
42.5723899438
 10
56.2249680973
 20
42.6306878166
 10
55.6717447124
 20
42.6860165956
 10
55.1182387654
 20
42.7383790198
 10
54.564476268
 20
42.787773445
 10
54.0105368907
 20
42.8341938441
 10
53.4564466125
 20
42.8776385172
 10
52.9021777173
 20
42.9181100891
 10
52.3477293097
 20
42.9556089781
  0
LWPOLYLINE
  5
387
100
AcDbEntity
  8
RACCORDO
100
AcDbPolyline
 62
7
  6
CONTINUOUS
 90
16
 70
0
 10
46.7599703944
 20
22.1820831521
 10
46.8067785686
 20
22.1395112672
 10
46.8511546465
 20
22.0942386943
 10
46.8930440486
 20
22.0462999572
 10
46.9323463613
 20
21.9957405809
 10
46.9687848378
 20
21.9429407596
 10
47.0021230927
 20
21.8884459033
 10
47.0322916449
 20
21.8325770787
 10
47.0592939342
 20
21.7751862015
 10
47.0830604407
 20
21.7161243592
 10
47.1034806606
 20
21.6554379169
 10
47.1204289763
 20
21.5937453755
 10
47.1338560371
 20
21.5316339209
 10
47.1437890573
 20
21.4693216197
 10
47.1502647008
 20
21.4067612385
 10
47.1533203347
 20
21.3441392809
  0
LWPOLYLINE
  5
388
100
AcDbEntity
  8
RACCORDO
100
AcDbPolyline
 62
253
  6
CONTINUOUS
 90
34
 70
0
 10
47.0326780105
 20
22.4886947565
 10
47.0595663134
 20
22.4641813274
 10
47.0860422431
 20
22.4388023688
 10
47.1121057999
 20
22.4125578747
 10
47.1377868782
 20
22.3854479232
 10
47.1630555834
 20
22.3574724237
 10
47.1878222314
 20
22.3286311168
 10
47.2120891347
 20
22.2989224476
 10
47.2358539779
 20
22.2683479574
 10
47.2590201337
 20
22.2369120297
 10
47.2816149421
 20
22.2045706248
 10
47.303611057
 20
22.1713677675
 10
47.324829821
 20
22.1374399395
 10
47.3452669793
 20
22.1027559524
 10
47.3649267765
 20
22.0673469813
 10
47.3836433026
 20
22.0314430557
 10
47.4013829843
 20
21.9950561841
 10
47.4181793812
 20
21.9581743489
 10
47.4339672829
 20
21.920991545
 10
47.4487287818
 20
21.8835240759
 10
47.4624817701
 20
21.8457556326
 10
47.4752147373
 20
21.8078312947
 10
47.4869238035
 20
21.7697503687
 10
47.4976128328
 20
21.7315135454
 10
47.5072819311
 20
21.6932679836
 10
47.5159233818
 20
21.6550104474
 10
47.523544886
 20
21.616744173
 10
47.5301696783
 20
21.578626031
 10
47.5357837565
 20
21.5406826752
 10
47.5404011088
 20
21.5028874553
 10
47.5440869575
 20
21.4653172881
 10
47.5468630395
 20
21.4279978146
 10
47.5487076059
 20
21.3909033988
 10
47.5496206505
 20
21.3540340431
  0
LINE
  5
389
100
AcDbEntity
  8
RACCORDO
100
AcDbLine
 62
253
  6
CONTINUOUS
 10
57.3306508889
 20
-43.2342957774
 11
57.3360432239
 21
-43.285699424
  0
LINE
  5
38A
100
AcDbEntity
  8
RACCORDO
100
AcDbLine
 62
253
  6
CONTINUOUS
 10
57.3360432239
 20
-43.285699424
 11
57.340785746
 21
-43.3338202922
  0
LWPOLYLINE
  5
38B
100
AcDbEntity
  8
RACCORDO
100
AcDbPolyline
 62
253
  6
CONTINUOUS
 90
11
 70
0
 10
57.340785746
 20
-43.3338202922
 10
57.3447271959
 20
-43.3771236029
 10
57.3463571208
 20
-43.3965298256
 10
57.3477418642
 20
-43.4142282295
 10
57.3488703627
 20
-43.4300774127
 10
57.3497336001
 20
-43.4439507479
 10
57.3503246796
 20
-43.4557373938
 10
57.3506388788
 20
-43.4653431806
 10
57.3506736874
 20
-43.4726913629
 10
57.3504288272
 20
-43.4777232321
 10
57.3499062545
 20
-43.4803985861
  0
LINE
  5
38C
100
AcDbEntity
  8
RACCORDO
100
AcDbLine
 62
253
  6
CONTINUOUS
 10
52.3638469645
 20
-44.0550218953
 11
52.3552265685
 21
-43.925323281
  0
LINE
  5
38D
100
AcDbEntity
  8
RACCORDO
100
AcDbLine
 62
253
  6
CONTINUOUS
 10
52.3477293098
 20
-43.6787823669
 11
52.3506442295
 21
-43.73035148
  0
LINE
  5
38E
100
AcDbEntity
  8
RACCORDO
100
AcDbLine
 62
253
  6
CONTINUOUS
 10
52.3506442295
 20
-43.73035148
 11
52.353072344
 21
-43.7786081988
  0
LWPOLYLINE
  5
38F
100
AcDbEntity
  8
RACCORDO
100
AcDbPolyline
 62
253
  6
CONTINUOUS
 90
11
 70
0
 10
52.353072344
 20
-43.7786081988
 10
52.3549362866
 20
-43.822014929
 10
52.3556373759
 20
-43.8414600606
 10
52.356176667
 20
-43.8591886106
 10
52.3565498557
 20
-43.8750590764
 10
52.3567539632
 20
-43.8889447858
 10
52.3567873604
 20
-43.9007349083
 10
52.3566497808
 20
-43.9103353395
 10
52.3563423224
 20
-43.9176694524
 10
52.3558674394
 20
-43.9226787088
 10
52.355228922
 20
-43.9253231266
  0
LINE
  5
390
100
AcDbEntity
  8
RACCORDO
100
AcDbLine
 62
253
  6
CONTINUOUS
 10
47.5496206505
 20
21.3540340431
 11
47.5608435132
 21
14.2941218749
  0
LINE
  5
391
100
AcDbEntity
  8
RACCORDO
100
AcDbLine
 62
253
  6
CONTINUOUS
 10
47.5608435132
 20
14.2941218749
 11
47.5680381091
 21
6.7031206101
  0
LINE
  5
392
100
AcDbEntity
  8
RACCORDO
100
AcDbLine
 62
253
  6
CONTINUOUS
 10
47.5680381091
 20
6.7031206101
 11
47.5702016257
 21
-0.3615866926
  0
LINE
  5
393
100
AcDbEntity
  8
RACCORDO
100
AcDbLine
 62
253
  6
CONTINUOUS
 10
47.5702016257
 20
-0.3615866926
 11
47.5680393813
 21
-7.4242183999
  0
LINE
  5
394
100
AcDbEntity
  8
RACCORDO
100
AcDbLine
 62
253
  6
CONTINUOUS
 10
47.5680393813
 20
-7.4242183999
 11
47.5608653613
 21
-15.0002512381
  0
LINE
  5
395
100
AcDbEntity
  8
RACCORDO
100
AcDbLine
 62
253
  6
CONTINUOUS
 10
47.5608653613
 20
-15.0002512381
 11
47.5496206593
 21
-22.0772030164
  0
LWPOLYLINE
  5
396
100
AcDbEntity
  8
RACCORDO
100
AcDbPolyline
 62
253
  6
CONTINUOUS
 90
34
 70
0
 10
46.9637106579
 20
-22.0615763266
 10
46.9626801983
 20
-22.1033647452
 10
46.9595778368
 20
-22.1469282819
 10
46.9541445134
 20
-22.1921491333
 10
46.9460718932
 20
-22.2391120283
 10
46.9351171325
 20
-22.2874079485
 10
46.9212283923
 20
-22.336160011
 10
46.9042246785
 20
-22.3852628468
 10
46.8839993185
 20
-22.4343946635
 10
46.8608996013
 20
-22.4824175028
 10
46.834990556
 20
-22.5291389264
 10
46.8063248401
 20
-22.5744088311
 10
46.7755465443
 20
-22.6173106333
 10
46.7429558638
 20
-22.6576766375
 10
46.7086817714
 20
-22.6955761901
 10
46.6733103052
 20
-22.7306198287
 10
46.6372047654
 20
-22.7627627515
 10
46.6005015478
 20
-22.7921746129
 10
46.563497966
 20
-22.8188824635
 10
46.5264387588
 20
-22.8429697134
 10
46.4894891955
 20
-22.8645728114
 10
46.4528093257
 20
-22.8838226173
 10
46.4165480889
 20
-22.900850903
 10
46.3808617211
 20
-22.9157815877
 10
46.3458974757
 20
-22.9287407833
 10
46.3120424647
 20
-22.939783377
 10
46.2791344412
 20
-22.9491513644
 10
46.2464515796
 20
-22.9571649039
 10
46.2142419003
 20
-22.9638375633
 10
46.1823722567
 20
-22.9692697908
 10
46.1494920349
 20
-22.9736769688
 10
46.1151634012
 20
-22.9769992589
 10
46.079889773
 20
-22.9790661976
 10
46.0437174334
 20
-22.9797773599
  0
LWPOLYLINE
  5
397
100
AcDbEntity
  8
RACCORDO
100
AcDbPolyline
 62
253
  6
CONTINUOUS
 90
34
 70
0
 10
47.5496206593
 20
-22.0772030164
 10
47.5487239425
 20
-22.113718157
 10
47.5469069712
 20
-22.1504892754
 10
47.5441697512
 20
-22.187516369
 10
47.5405349473
 20
-22.2248301132
 10
47.5359799059
 20
-22.2623998269
 10
47.5304366564
 20
-22.300133474
 10
47.5238896328
 20
-22.3380576174
 10
47.5163544145
 20
-22.3761456903
 10
47.5078097503
 20
-22.4142259642
 10
47.4982462794
 20
-22.4522952666
 10
47.4876733778
 20
-22.4903567696
 10
47.4760979007
 20
-22.5282482645
 10
47.4635150924
 20
-22.5659664336
 10
47.4499297242
 20
-22.6035145975
 10
47.4353629425
 20
-22.6407405079
 10
47.4198049743
 20
-22.6776453688
 10
47.4032656076
 20
-22.7142279822
 10
47.3857953305
 20
-22.7503324999
 10
47.3673785898
 20
-22.7859531861
 10
47.3480309521
 20
-22.8210957855
 10
47.3278495849
 20
-22.8556216727
 10
47.3068263663
 20
-22.8895216408
 10
47.2849694287
 20
-22.922804908
 10
47.262400319
 20
-22.9553604884
 10
47.2391149921
 20
-22.9871837375
 10
47.2151175004
 20
-23.0182793123
 10
47.1905415357
 20
-23.0485501816
 10
47.165377117
 20
-23.0779934409
 10
47.139634229
 20
-23.1066120078
 10
47.1134765105
 20
-23.1343175853
 10
47.0869585076
 20
-23.1610807457
 10
47.0600256744
 20
-23.1869309302
 10
47.0326780105
 20
-23.2118681453
  0
LWPOLYLINE
  5
398
100
AcDbEntity
  8
RACCORDO
100
AcDbPolyline
 62
253
  6
CONTINUOUS
 90
10
 70
0
 10
52.3549362867
 20
43.0988415409
 10
52.3556373759
 20
43.1182866726
 10
52.3561766671
 20
43.1360152227
 10
52.3565498558
 20
43.1518856887
 10
52.3567539633
 20
43.1657713982
 10
52.3567873605
 20
43.1775615209
 10
52.3566497809
 20
43.1871619522
 10
52.3563423225
 20
43.1944960652
 10
52.3558674395
 20
43.1995053217
 10
52.3552289221
 20
43.2021497396
  0
LINE
  5
399
100
AcDbEntity
  8
RACCORDO
100
AcDbLine
 62
253
  6
CONTINUOUS
 10
52.353072344
 20
43.0554348104
 11
52.3549362867
 21
43.0988415409
  0
LWPOLYLINE
  5
39A
100
AcDbEntity
  8
RACCORDO
100
AcDbPolyline
 62
7
  6
CONTINUOUS
 90
16
 70
0
 10
47.153292626
 20
-22.0676566339
 10
47.1501760505
 20
-22.1320029772
 10
47.1434327991
 20
-22.1960393269
 10
47.1330607495
 20
-22.2595717394
 10
47.1190172742
 20
-22.322641446
 10
47.1013661346
 20
-22.3850136882
 10
47.0803409964
 20
-22.4460723781
 10
47.0561968313
 20
-22.505247859
 10
47.0289744873
 20
-22.5625283955
 10
46.998653967
 20
-22.6179996292
 10
46.9652155007
 20
-22.6717274729
 10
46.9288654832
 20
-22.7234780559
 10
46.8899622848
 20
-22.7728928299
 10
46.8488061929
 20
-22.8196995468
 10
46.8054749037
 20
-22.8638440126
 10
46.7600357275
 20
-22.9053302913
  0
LINE
  5
39B
100
AcDbEntity
  8
RACCORDO
100
AcDbLine
 62
253
  6
CONTINUOUS
 10
52.3506442295
 20
43.0071780913
 11
52.353072344
 21
43.0554348104
  0
LINE
  5
39C
100
AcDbEntity
  8
RACCORDO
100
AcDbLine
 62
253
  6
CONTINUOUS
 10
52.3477293097
 20
42.9556089781
 11
52.3506442295
 21
43.0071780913
  0
LINE
  5
39D
100
AcDbEntity
  8
RACCORDO
100
AcDbLine
 62
253
  6
CONTINUOUS
 10
52.3638469645
 20
43.3318485065
 11
52.3552259856
 21
43.2021499303
  0
LWPOLYLINE
  5
39E
100
AcDbEntity
  8
RACCORDO
100
AcDbPolyline
 62
253
  6
CONTINUOUS
 90
10
 70
0
 10
57.3447272307
 20
42.6539504785
 10
57.3463571608
 20
42.6733567466
 10
57.3477419091
 20
42.691055194
 10
57.3488704121
 20
42.7069044185
 10
57.3497336536
 20
42.720777792
 10
57.3503247366
 20
42.7325644726
 10
57.3506389387
 20
42.7421702903
 10
57.3506737495
 20
42.7495184989
 10
57.3504288909
 20
42.7545503898
 10
57.3499063193
 20
42.7572257604
  0
LINE
  5
39F
100
AcDbEntity
  8
RACCORDO
100
AcDbLine
 62
253
  6
CONTINUOUS
 10
57.3407857694
 20
42.6106470751
 11
57.3447272307
 21
42.6539504785
  0
LINE
  5
3A0
100
AcDbEntity
  8
RACCORDO
100
AcDbLine
 62
253
  6
CONTINUOUS
 10
57.3360432353
 20
42.5625261163
 11
57.3407857694
 21
42.6106470751
  0
LINE
  5
3A1
100
AcDbEntity
  8
RACCORDO
100
AcDbLine
 62
253
  6
CONTINUOUS
 10
57.3306508885
 20
42.5111223874
 11
57.3360432353
 21
42.5625261163
  0
LINE
  5
3A2
100
AcDbEntity
  8
RACCORDO
100
AcDbLine
 62
253
  6
CONTINUOUS
 10
57.3638469645
 20
42.8784133056
 11
57.3497970553
 21
42.7572381538
  0
LINE
  5
3A3
100
AcDbEntity
  8
RACCORDO
100
AcDbLine
 62
253
  6
CONTINUOUS
 10
57.3638469645
 20
-43.6015866944
 11
57.3498108606
 21
-43.4804100126
  0
LWPOLYLINE
  5
3A4
100
AcDbEntity
  8
RACCORDO
100
AcDbPolyline
 62
253
  6
CONTINUOUS
 90
9
 70
0
 10
72.5006496998
 20
25.2284223021
 10
72.4520451819
 20
25.6726625211
 10
72.4002567155
 20
26.1166649951
 10
72.3452840371
 20
26.5604105134
 10
72.2871275803
 20
27.0038732024
 10
72.2257887179
 20
27.4470205482
 10
72.1612685351
 20
27.8898266779
 10
72.0935675888
 20
28.3322723393
 10
72.0226869124
 20
28.7743349513
  0
LWPOLYLINE
  5
3A5
100
AcDbEntity
  8
RACCORDO
100
AcDbPolyline
 62
253
  6
CONTINUOUS
 90
9
 70
0
 10
72.2258255077
 20
25.2139534507
 10
72.1774347564
 20
25.6568872564
 10
72.1258729621
 20
26.0995674064
 10
72.0711416391
 20
26.5420101575
 10
72.0132410313
 20
26.984192096
 10
71.9521701545
 20
27.4260501773
 10
71.8879293872
 20
27.8675610649
 10
71.820520427
 20
28.3087410907
 10
71.7499443631
 20
28.7495867668
  0
LINE
  5
3A6
100
AcDbEntity
  8
RACCORDO
100
AcDbLine
 62
253
  6
CONTINUOUS
 10
72.5612229817
 20
24.6298110205
 11
72.5006496998
 21
25.2284223021
  0
LINE
  5
3A7
100
AcDbEntity
  8
RACCORDO
100
AcDbLine
 62
253
  6
CONTINUOUS
 10
72.2861875208
 20
24.6164957371
 11
72.2258255077
 21
25.2139534507
  0
LINE
  5
3A8
100
AcDbEntity
  8
RACCORDO
100
AcDbLine
 62
253
  6
CONTINUOUS
 10
72.6792838782
 20
23.3962299637
 11
72.5612229817
 21
24.6298110205
  0
LINE
  5
3A9
100
AcDbEntity
  8
RACCORDO
100
AcDbLine
 62
253
  6
CONTINUOUS
 10
72.4041754103
 20
23.381961279
 11
72.2861875208
 21
24.6164957371
  0
LWPOLYLINE
  5
3AA
100
AcDbEntity
  8
RACCORDO
100
AcDbPolyline
 62
253
  6
CONTINUOUS
 90
16
 70
0
 10
72.4041749576
 20
-24.1051347922
 10
72.6794043689
 20
-20.9455998555
 10
72.9154030722
 20
-17.7838852301
 10
73.1121241245
 20
-14.6201165435
 10
73.2695161069
 20
-11.4542714205
 10
73.3875587927
 20
-8.2866245113
 10
73.4662639023
 20
-5.1177476659
 10
73.5056274105
 20
-1.9473092312
 10
73.5056276289
 20
1.2241047417
 10
73.4662644401
 20
4.3945453451
 10
73.3875594306
 20
7.5634276282
 10
73.2695167198
 20
10.7310821419
 10
73.112124653
 20
13.896933734
 10
72.915403482
 20
17.0607066542
 10
72.679404605
 20
20.2224243782
 10
72.404174967
 20
23.381961279
  0
LWPOLYLINE
  5
3AB
100
AcDbEntity
  8
RACCORDO
100
AcDbPolyline
 62
253
  6
CONTINUOUS
 90
16
 70
0
 10
72.6792838782
 20
-24.1194033524
 10
72.9547391315
 20
-20.9585368212
 10
73.1908954898
 20
-17.7947933367
 10
73.3877277495
 20
-14.6286500585
 10
73.5452071117
 20
-11.4607884203
 10
73.6633340633
 20
-8.2914818602
 10
73.7421124498
 20
-5.1205947712
 10
73.7815193461
 20
-1.9481422947
 10
73.7815195474
 20
1.2249363936
 10
73.7421130151
 20
4.3973910439
 10
73.6633348402
 20
7.5682835236
 10
73.5452078697
 20
10.7375976411
 10
73.3877283538
 20
13.9054658659
 10
73.190895915
 20
17.0716137155
 10
72.954739343
 20
20.2353608009
 10
72.6792838782
 20
23.3962299637
  0
LINE
  5
3AC
100
AcDbEntity
  8
RACCORDO
100
AcDbLine
 62
253
  6
CONTINUOUS
 10
72.2861875223
 20
-25.3396691098
 11
72.4041753986
 21
-24.1051347922
  0
LINE
  5
3AD
100
AcDbEntity
  8
RACCORDO
100
AcDbLine
 62
253
  6
CONTINUOUS
 10
72.5612230584
 20
-25.3529836262
 11
72.6792838782
 21
-24.1194033524
  0
LWPOLYLINE
  5
3AE
100
AcDbEntity
  8
RACCORDO
100
AcDbPolyline
 62
253
  6
CONTINUOUS
 90
10
 70
0
 10
71.7499443631
 20
-29.4727601556
 10
71.8205205821
 20
-29.0319134077
 10
71.8879296545
 20
-28.5907325803
 10
71.9521704912
 20
-28.1492211615
 10
72.0132413896
 20
-27.7073628233
 10
72.0711419766
 20
-27.2651808986
 10
72.1258732516
 20
-26.8227384216
 10
72.177434976
 20
-26.3800588023
 10
72.2258256309
 20
-25.9371257878
 10
72.2861875223
 20
-25.3396691098
  0
LWPOLYLINE
  5
3AF
100
AcDbEntity
  8
RACCORDO
100
AcDbPolyline
 62
253
  6
CONTINUOUS
 90
10
 70
0
 10
72.0226892478
 20
-29.4974941168
 10
72.0935686185
 20
-29.0554391583
 10
72.1612686566
 20
-28.6129992511
 10
72.2257882872
 20
-28.1701969688
 10
72.2871269756
 20
-27.727051081
 10
72.3452835236
 20
-27.28358793
 10
72.400256346
 20
-26.8398414561
 10
72.4520449447
 20
-26.3958380094
 10
72.5006496331
 20
-25.9515963227
 10
72.5612230584
 20
-25.3529836262
  0
LWPOLYLINE
  5
3B0
100
AcDbEntity
  8
RACCORDO
100
AcDbPolyline
 62
253
  6
CONTINUOUS
 90
43
 70
0
 10
72.0226868948
 20
28.7743349484
 10
71.9310160133
 20
29.2839946864
 10
71.8235574757
 20
29.7913074987
 10
71.7003487619
 20
30.2957792716
 10
71.5614045179
 20
30.7970583492
 10
71.4068230129
 20
31.2945045089
 10
71.2368303038
 20
31.7872018533
 10
71.0515717185
 20
32.2746563775
 10
70.8511964691
 20
32.7564060159
 10
70.6360333426
 20
33.2316128312
 10
70.4063609482
 20
33.6997067147
 10
70.1623575869
 20
34.1603652589
 10
69.9042574407
 20
34.6131451831
 10
69.6323099515
 20
35.0576324991
 10
69.3467954047
 20
35.4933908661
 10
69.0480191884
 20
35.9199570618
 10
68.7362729298
 20
36.3369439813
 10
68.4118795622
 20
36.743947746
 10
68.0752225263
 20
37.1405017181
 10
67.7266537413
 20
37.5262342174
 10
67.3665214057
 20
37.9008018477
 10
66.995233057
 20
38.2638063455
 10
66.6131752407
 20
38.6149177654
 10
66.2207314769
 20
38.9538311851
 10
65.818327523
 20
39.280210984
 10
65.4063922371
 20
39.593760031
 10
64.9853246162
 20
39.8942253069
 10
64.5555199577
 20
40.181357506
 10
64.1174162072
 20
40.4549078893
 10
63.6714433397
 20
40.7146523179
 10
63.2179918851
 20
40.9603921651
 10
62.7575104946
 20
41.1919201679
 10
62.2904497514
 20
41.4090466153
 10
61.8172075444
 20
41.6116107864
 10
61.3382632399
 20
41.7994371926
 10
60.8540621543
 20
41.9723821441
 10
60.364952382
 20
42.1303384804
 10
59.8714926558
 20
42.2731467891
 10
59.3740661984
 20
42.4007183987
 10
58.8727508934
 20
42.5130277337
 10
58.3678843716
 20
42.6099711278
 10
57.8600733744
 20
42.6914068374
 10
57.34979706
 20
42.7572381941
  0
LWPOLYLINE
  5
3B1
100
AcDbEntity
  8
RACCORDO
100
AcDbPolyline
 62
253
  6
CONTINUOUS
 90
43
 70
0
 10
71.7499443631
 20
28.7495867668
 10
71.6598432371
 20
29.2518096654
 10
71.5543054811
 20
29.7508004055
 10
71.4333370792
 20
30.2465563469
 10
71.2968066279
 20
30.7397077684
 10
71.1448575035
 20
31.2296192536
 10
70.9779091266
 20
31.7143916557
 10
70.7958853643
 20
32.193972646
 10
70.598877127
 20
32.6684146407
 10
70.3875564049
 20
33.1359794801
 10
70.1619239091
 20
33.5965257476
 10
69.9219950638
 20
34.0502000473
 10
69.6684651533
 20
34.4956997367
 10
69.4012917443
 20
34.9330211818
 10
69.1205333456
 20
35.3621773944
 10
68.8270372318
 20
35.781893771
 10
68.5207572955
 20
36.1921583797
 10
68.20175481
 20
36.5929965753
 10
67.8710382518
 20
36.9831926037
 10
67.5285802651
 20
37.3627088907
 10
67.1744215662
 20
37.7315999243
 10
66.8096724314
 20
38.088790592
 10
66.434310171
 20
38.4342444427
 10
66.0483682201
 20
38.7680173443
 10
65.6530403606
 20
39.0891746724
 10
65.2483227786
 20
39.3976726912
 10
64.8342268155
 20
39.6935759293
 10
64.4119680458
 20
39.976113564
 10
63.9815365375
 20
40.2452542247
 10
63.54294617
 20
40.5010501846
 10
63.0974471524
 20
40.7428568925
 10
62.6450263016
 20
40.9706462979
 10
62.1856970387
 20
41.1844662863
 10
61.7207483608
 20
41.3837864834
 10
61.2501865276
 20
41.5685735391
 10
60.7740018902
 20
41.7388784714
 10
60.2934585287
 20
41.8942972454
 10
59.8086176758
 20
42.0347976512
 10
59.319411374
 20
42.1604264033
 10
58.8269090105
 20
42.2708972284
 10
58.3314638087
 20
42.3661182725
 10
57.8327129137
 20
42.4461919459
 10
57.3306508885
 20
42.5111223873
  0
LWPOLYLINE
  5
3B2
100
AcDbEntity
  8
0
100
AcDbPolyline
 62
7
  6
CONTINUOUS
 90
15
 70
0
 10
-63.4292584862
 20
-44.8615866944
 10
-63.2539253576
 20
-44.8426845661
 10
-63.0794134023
 20
-44.8167401007
 10
-62.906004895
 20
-44.7837941748
 10
-62.7339307435
 20
-44.7438745924
 10
-62.5635277724
 20
-44.6970325596
 10
-62.3952267993
 20
-44.6433865278
 10
-62.2293688403
 20
-44.5830744739
 10
-62.0661408801
 20
-44.5161829381
 10
-61.9057337906
 20
-44.442786063
 10
-61.7484111477
 20
-44.3629918171
 10
-61.5944215736
 20
-44.2769391846
 10
-61.4439419465
 20
-44.1847313309
 10
-61.2971564245
 20
-44.0864606597
 10
-61.1543853356
 20
-43.9823080565
  0
LWPOLYLINE
  5
3B3
100
AcDbEntity
  8
0
100
AcDbPolyline
 62
7
  6
CONTINUOUS
 90
16
 70
0
 10
-63.4292584862
 20
-44.8615866732
 10
-63.3426426536
 20
-44.853140742
 10
-63.1768381809
 20
-44.8321073519
 10
-63.0095962217
 20
-44.8043429497
 10
-62.8412557125
 20
-44.7696284593
 10
-62.6720659215
 20
-44.7277224759
 10
-62.5022101014
 20
-44.6783502478
 10
-62.3319351898
 20
-44.6212598568
 10
-62.1617511786
 20
-44.5562921024
 10
-61.9922776415
 20
-44.4833546524
 10
-61.8240519035
 20
-44.4023507778
 10
-61.6573912499
 20
-44.3131107907
 10
-61.4926053631
 20
-44.2154638925
 10
-61.3301192174
 20
-44.1092794629
 10
-61.1705040587
 20
-43.9945139088
 10
-61.0595724144
 20
-43.9080899433
  0
LWPOLYLINE
  5
3B4
100
AcDbEntity
  8
0
100
AcDbPolyline
 62
253
  6
CONTINUOUS
 90
19
 70
0
 10
-63.4292584862
 20
-43.0432456495
 10
-63.2607319287
 20
-43.0340232229
 10
-63.0933337878
 20
-43.0177852943
 10
-62.9270894354
 20
-42.9945350518
 10
-62.7623543788
 20
-42.964344651
 10
-62.5988179811
 20
-42.9271786291
 10
-62.4355600863
 20
-42.8827162354
 10
-62.2719634682
 20
-42.8304928365
 10
-62.1088929805
 20
-42.7704720496
 10
-61.9476700121
 20
-42.7029614482
 10
-61.7886817619
 20
-42.6280423323
 10
-61.6318227073
 20
-42.5455146298
 10
-61.4776178171
 20
-42.455472258
 10
-61.3260951788
 20
-42.3577457288
 10
-61.1776615154
 20
-42.2523978252
 10
-61.0334063097
 20
-42.1400808107
 10
-60.893877367
 20
-42.0211890698
 10
-60.7590738273
 20
-41.8956781327
 10
-60.6292584862
 20
-41.7637068236
  0
LWPOLYLINE
  5
3B5
100
AcDbEntity
  8
0
100
AcDbPolyline
 62
253
  6
CONTINUOUS
 90
19
 70
0
 10
-63.4292584862
 20
-43.104862405
 10
-63.2609694097
 20
-43.095726158
 10
-63.0938398327
 20
-43.0795295879
 10
-62.9278799735
 20
-43.056274507
 10
-62.7634442626
 20
-43.0260350118
 10
-62.6001915555
 20
-42.9887725415
 10
-62.4371449092
 20
-42.9441473794
 10
-62.2736358553
 20
-42.8916626693
 10
-62.1105579681
 20
-42.8312747737
 10
-61.9492964617
 20
-42.7633100208
 10
-61.7902426652
 20
-42.6878522779
 10
-61.6332677914
 20
-42.604683559
 10
-61.4789166732
 20
-42.513902356
 10
-61.3272089463
 20
-42.4153285942
 10
-61.178550369
 20
-42.3090209793
 10
-61.03406498
 20
-42.1956593
 10
-60.8943154104
 20
-42.0756531213
 10
-60.7592918686
 20
-41.9489513627
 10
-60.6292584862
 20
-41.8157165404
  0
LWPOLYLINE
  5
3B6
100
AcDbEntity
  8
0
100
AcDbPolyline
 62
253
  6
CONTINUOUS
 90
19
 70
0
 10
-63.4292584862
 20
-43.5282777978
 10
-63.2618010898
 20
-43.5218694964
 10
-63.0960368446
 20
-43.5080472846
 10
-62.9318159448
 20
-43.4868239693
 10
-62.7694616404
 20
-43.4583091457
 10
-62.6083302573
 20
-43.4224645203
 10
-62.446903647
 20
-43.3788061991
 10
-62.2839996727
 20
-43.326551563
 10
-62.1207717462
 20
-43.2655860386
 10
-61.9592314782
 20
-43.1964257964
 10
-61.7998214734
 20
-43.1192078726
 10
-61.6421664068
 20
-43.0335581476
 10
-61.4869717388
 20
-42.9396260062
 10
-61.3342235615
 20
-42.8371968777
 10
-61.1842587956
 20
-42.7262846394
 10
-61.0383665417
 20
-42.6077098832
 10
-60.8972052362
 20
-42.4819793456
 10
-60.7607423568
 20
-42.3490370177
 10
-60.6292584862
 20
-42.2090924359
  0
LWPOLYLINE
  5
3B7
100
AcDbEntity
  8
0
100
AcDbPolyline
 62
253
  6
CONTINUOUS
 90
19
 70
0
 10
-63.4292584862
 20
-43.5561220414
 10
-63.2618294752
 20
-43.5499043087
 10
-63.0961452052
 20
-43.5362508345
 10
-62.9320409145
 20
-43.5151757058
 10
-62.7698344333
 20
-43.4867915404
 10
-62.6088563419
 20
-43.4510605942
 10
-62.4475453447
 20
-43.4074876751
 10
-62.2846719895
 20
-43.3552648698
 10
-62.1214120763
 20
-43.2942712917
 10
-61.9598392055
 20
-43.2250434684
 10
-61.8004042978
 20
-43.1477267206
 10
-61.6427065556
 20
-43.0619330074
 10
-61.4874620353
 20
-42.9678160235
 10
-61.3346567557
 20
-42.865162089
 10
-61.1846191314
 20
-42.7539816698
 10
-61.0386428606
 20
-42.6351006922
 10
-60.8973920651
 20
-42.5090316236
 10
-60.760836454
 20
-42.3757218556
 10
-60.6292584862
 20
-42.2353861039
  0
LINE
  5
3B8
100
AcDbEntity
  8
DRAFT
100
AcDbLine
 62
7
  6
CONTINUOUS
 10
-63.4292584862
 20
-45.3615866944
 11
-66.410448343
 21
-45.2053491544
  0
LINE
  5
3B9
100
AcDbEntity
  8
RACCORDO
100
AcDbLine
 62
253
  6
CONTINUOUS
 10
-63.4292584862
 20
-44.0550218953
 11
-65.909515748
 21
-43.925323281
  0
LINE
  5
3BA
100
AcDbEntity
  8
RACCORDO
100
AcDbLine
 62
253
  6
CONTINUOUS
 10
-63.4292584862
 20
-43.6015866944
 11
-65.75690621
 21
-43.4804100126
  0
LWPOLYLINE
  5
3BB
100
AcDbEntity
  8
0
100
AcDbPolyline
 62
253
  6
CONTINUOUS
 90
19
 70
0
 10
-60.6292584862
 20
-29.288537684
 10
-60.7518745835
 20
-29.3035215463
 10
-60.8794998915
 20
-29.3179026351
 10
-61.011937564
 20
-29.3316487063
 10
-61.148965183
 20
-29.344725142
 10
-61.2904075597
 20
-29.3571021376
 10
-61.4361265673
 20
-29.368755155
 10
-61.5859174228
 20
-29.3796560884
 10
-61.7395197231
 20
-29.3897726968
 10
-61.8966972516
 20
-29.3990747219
 10
-62.0571820911
 20
-29.4075319391
 10
-62.2207337531
 20
-29.4151233904
 10
-62.3871586597
 20
-29.4218312798
 10
-62.5562591183
 20
-29.4276357456
 10
-62.7276889937
 20
-29.4325115215
 10
-62.9010193617
 20
-29.4364388781
 10
-63.0759018502
 20
-29.4394084255
 10
-63.2520824315
 20
-29.4414129424
 10
-63.4292584862
 20
-29.4424439698
  0
LWPOLYLINE
  5
3BC
100
AcDbEntity
  8
0
100
AcDbPolyline
 62
253
  6
CONTINUOUS
 90
19
 70
0
 10
-60.6292584862
 20
-29.219122624
 10
-60.7519163802
 20
-29.2335943415
 10
-60.8795817514
 20
-29.247481503
 10
-61.0120572481
 20
-29.2607529287
 10
-61.1491206734
 20
-29.2733752133
 10
-61.2905957008
 20
-29.2853194676
 10
-61.4363415985
 20
-29.2965617945
 10
-61.5861525963
 20
-29.3070750162
 10
-61.7397686297
 20
-29.3168280649
 10
-61.8969528642
 20
-29.3257917195
 10
-62.0574377132
 20
-29.3339368588
 10
-62.2209822546
 20
-29.3412432658
 10
-62.3873911006
 20
-29.3476937246
 10
-62.5564646651
 20
-29.3532690668
 10
-62.7278590781
 20
-29.3579450808
 10
-62.9011500565
 20
-29.3617029217
 10
-63.0759913059
 20
-29.3645335761
 10
-63.2521280813
 20
-29.3664300506
 10
-63.4292584862
 20
-29.367384201
  0
LINE
  5
3BD
100
AcDbEntity
  8
0
100
AcDbLine
 62
7
  6
CONTINUOUS
 10
-68.9359750588
 20
-29.2393880488
 11
-68.7854810819
 21
-29.2393880488
  0
LINE
  5
3BE
100
AcDbEntity
  8
0
100
AcDbLine
 62
253
  6
CONTINUOUS
 10
-68.9964835275
 20
-28.4816869224
 11
-68.8460480362
 21
-28.4816869224
  0
LINE
  5
3BF
100
AcDbEntity
  8
0
100
AcDbLine
 62
7
  6
CONTINUOUS
 10
-69.0388630241
 20
-27.9325111312
 11
-68.8884677181
 21
-27.9325111312
  0
LINE
  5
3C0
100
AcDbEntity
  8
0
100
AcDbLine
 62
7
  6
CONTINUOUS
 10
-69.0400610257
 20
-27.9159673224
 11
-68.8896668931
 21
-27.9159673224
  0
LINE
  5
3C1
100
AcDbEntity
  8
RACCORDO
100
AcDbLine
 62
253
  6
CONTINUOUS
 10
-63.4292584862
 20
-29.5251555793
 11
-66.6062061336
 21
-29.4974941168
  0
LINE
  5
3C2
100
AcDbEntity
  8
0
100
AcDbLine
 62
253
  6
CONTINUOUS
 10
-63.081661026
 20
-25.2863116607
 11
-63.4292584862
 21
-25.289390603
  0
LINE
  5
3C3
100
AcDbEntity
  8
0
100
AcDbLine
 62
253
  6
CONTINUOUS
 10
-63.0814054178
 20
-25.4720009934
 11
-63.4292584862
 21
-25.4748284415
  0
LINE
  5
3C4
100
AcDbEntity
  8
0
100
AcDbLine
 62
253
  6
CONTINUOUS
 10
-62.7381657911
 20
-25.4712375779
 11
-63.0814054178
 21
-25.4720009934
  0
LINE
  5
3C5
100
AcDbEntity
  8
0
100
AcDbLine
 62
253
  6
CONTINUOUS
 10
-62.7386561638
 20
-25.2855367701
 11
-63.081661026
 21
-25.2863116607
  0
LINE
  5
3C6
100
AcDbEntity
  8
0
100
AcDbLine
 62
253
  6
CONTINUOUS
 10
-69.1361236249
 20
-26.5018705679
 11
-68.9858232933
 21
-26.5018705679
  0
LINE
  5
3C7
100
AcDbEntity
  8
0
100
AcDbLine
 62
7
  6
CONTINUOUS
 10
-68.994656175
 20
-26.4068351752
 11
-69.1449502601
 21
-26.4068351752
  0
LINE
  5
3C8
100
AcDbEntity
  8
RACCORDO
100
AcDbLine
 62
253
  6
CONTINUOUS
 10
-68.9843735337
 20
-24.1051584239
 11
-67.1886363928
 21
-24.1051347922
  0
LINE
  5
3C9
100
AcDbEntity
  8
RACCORDO
100
AcDbLine
 62
253
  6
CONTINUOUS
 10
-63.4292584862
 20
-25.5251555793
 11
-66.843462943
 21
-25.5071389074
  0
LINE
  5
3CA
100
AcDbEntity
  8
0
100
AcDbLine
 62
253
  6
CONTINUOUS
 10
-62.4014931651
 20
-25.4725104952
 11
-62.7381657911
 21
-25.4712375779
  0
LINE
  5
3CB
100
AcDbEntity
  8
0
100
AcDbLine
 62
253
  6
CONTINUOUS
 10
-62.4021685129
 20
-25.2870356424
 11
-62.7386561638
 21
-25.2855367701
  0
LINE
  5
3CC
100
AcDbEntity
  8
0
100
AcDbLine
 62
253
  6
CONTINUOUS
 10
-62.0729128393
 20
-25.4757696924
 11
-62.4014931651
 21
-25.4725104952
  0
LINE
  5
3CD
100
AcDbEntity
  8
0
100
AcDbLine
 62
253
  6
CONTINUOUS
 10
-62.0736560433
 20
-25.290754821
 11
-62.4021685129
 21
-25.2870356424
  0
LINE
  5
3CE
100
AcDbEntity
  8
0
100
AcDbLine
 62
253
  6
CONTINUOUS
 10
-61.7548535328
 20
-25.480943252
 11
-62.0729128393
 21
-25.4757696924
  0
LINE
  5
3CF
100
AcDbEntity
  8
0
100
AcDbLine
 62
253
  6
CONTINUOUS
 10
-61.7555799329
 20
-25.2966159938
 11
-62.0736560433
 21
-25.290754821
  0
LINE
  5
3D0
100
AcDbEntity
  8
0
100
AcDbLine
 62
253
  6
CONTINUOUS
 10
-61.4494238706
 20
-25.4879320061
 11
-61.7548535328
 21
-25.480943252
  0
LINE
  5
3D1
100
AcDbEntity
  8
0
100
AcDbLine
 62
253
  6
CONTINUOUS
 10
-61.450055296
 20
-25.3045105292
 11
-61.7555799329
 21
-25.2966159938
  0
LINE
  5
3D2
100
AcDbEntity
  8
0
100
AcDbLine
 62
253
  6
CONTINUOUS
 10
-61.1585747046
 20
-25.4966120566
 11
-61.4494238706
 21
-25.4879320061
  0
LINE
  5
3D3
100
AcDbEntity
  8
0
100
AcDbLine
 62
253
  6
CONTINUOUS
 10
-60.8845502849
 20
-25.5068418487
 11
-61.1585747046
 21
-25.4966120566
  0
LINE
  5
3D4
100
AcDbEntity
  8
0
100
AcDbLine
 62
253
  6
CONTINUOUS
 10
-60.6292584862
 20
-25.5184751291
 11
-60.8845502849
 21
-25.5068418487
  0
LWPOLYLINE
  5
3D5
100
AcDbEntity
  8
0
100
AcDbPolyline
 62
253
  6
CONTINUOUS
 90
6
 70
0
 10
-60.6292584862
 20
-25.3389451696
 10
-60.7545735535
 20
-25.3322027355
 10
-60.884790231
 20
-25.3258349094
 10
-61.0196777977
 20
-25.3198618189
 10
-61.1590312878
 20
-25.3143025883
 10
-61.450055296
 20
-25.3045105292
  0
LWPOLYLINE
  5
3D6
100
AcDbEntity
  8
RACCORDO
100
AcDbPolyline
 62
253
  6
CONTINUOUS
 90
16
 70
0
 10
-67.1263948708
 20
24.7707695776
 10
-67.1226783345
 20
24.7733819113
 10
-67.1162598542
 20
24.7758149979
 10
-67.1071982343
 20
24.7780465461
 10
-67.0955764948
 20
24.7800561111
 10
-67.081501111
 20
24.7818252817
 10
-67.0651010376
 20
24.7833378494
 10
-67.0465265276
 20
24.7845799564
 10
-67.0259477555
 20
24.7855402229
 10
-67.0035532586
 20
24.7862098511
 10
-66.9795482088
 20
24.7865827062
 10
-66.9541525341
 20
24.7866553721
 10
-66.9275989025
 20
24.786427183
 10
-66.9001305911
 20
24.7859002297
 10
-66.8719992572
 20
24.7850793398
 10
-66.8434626321
 20
24.7839720341
  0
LWPOLYLINE
  5
3D7
100
AcDbEntity
  8
RACCORDO
100
AcDbPolyline
 62
253
  6
CONTINUOUS
 90
16
 70
0
 10
-67.1886354378
 20
23.3819850352
 10
-67.1849381494
 20
23.3844865595
 10
-67.178534294
 20
23.3868344643
 10
-67.1694826116
 20
23.3890072132
 10
-67.1578661297
 20
23.3909848763
 10
-67.1437914015
 20
23.3927493135
 10
-67.1273875289
 20
23.3942843402
 10
-67.1088049778
 20
23.3955758762
 10
-67.0882141986
 20
23.3966120749
 10
-67.0658040621
 20
23.3973834315
 10
-67.0417801274
 20
23.3978828708
 10
-67.0163627564
 20
23.3981058116
 10
-66.9897850922
 20
23.3980502089
 10
-66.9622909211
 20
23.3977165728
 10
-66.9341324359
 20
23.3971079635
 10
-66.9055679231
 20
23.3962299637
  0
LWPOLYLINE
  5
3D8
100
AcDbEntity
  8
RACCORDO
100
AcDbPolyline
 62
253
  6
CONTINUOUS
 90
16
 70
0
 10
-67.1886354233
 20
-24.1051584232
 10
-67.1849381327
 20
-24.1076599473
 10
-67.1785342756
 20
-24.1100078517
 10
-67.1694825921
 20
-24.1121806002
 10
-67.1578661096
 20
-24.1141582631
 10
-67.1437913813
 20
-24.1159227
 10
-67.1273875091
 20
-24.1174577264
 10
-67.1088049589
 20
-24.1187492622
 10
-67.088214181
 20
-24.1197854607
 10
-67.0658040461
 20
-24.1205568172
 10
-67.0417801134
 20
-24.1210562564
 10
-67.0163627446
 20
-24.1212791972
 10
-66.9897850828
 20
-24.1212235945
 10
-66.9622909143
 20
-24.1208899584
 10
-66.9341324318
 20
-24.1202813493
 10
-66.9055679216
 20
-24.1194033496
  0
LWPOLYLINE
  5
3D9
100
AcDbEntity
  8
RACCORDO
100
AcDbPolyline
 62
253
  6
CONTINUOUS
 90
16
 70
0
 10
-67.1263948743
 20
-25.4939429666
 10
-67.1226783384
 20
-25.4965553004
 10
-67.1162598585
 20
-25.498988387
 10
-67.1071982388
 20
-25.5012199353
 10
-67.0955764994
 20
-25.5032295003
 10
-67.0815011155
 20
-25.5049986711
 10
-67.065101042
 20
-25.5065112388
 10
-67.0465265318
 20
-25.5077533459
 10
-67.0259477594
 20
-25.5087136124
 10
-67.0035532621
 20
-25.5093832406
 10
-66.9795482119
 20
-25.5097560957
 10
-66.9541525366
 20
-25.5098287616
 10
-66.9275989045
 20
-25.5096005725
 10
-66.9001305926
 20
-25.5090736191
 10
-66.871999258
 20
-25.5082527292
 10
-66.8434626324
 20
-25.5071454235
  0
LWPOLYLINE
  5
3DA
100
AcDbEntity
  8
RACCORDO
100
AcDbPolyline
 62
253
  6
CONTINUOUS
 90
16
 70
0
 10
-66.8886125671
 20
28.7495867601
 10
-66.8847483213
 20
28.7539062367
 10
-66.8782115222
 20
28.7579620877
 10
-66.8690615407
 20
28.7617174756
 10
-66.8573814822
 20
28.7651382919
 10
-66.8432774314
 20
28.7681934667
 10
-66.8268774894
 20
28.7708552513
 10
-66.8083306097
 20
28.7730994698
 10
-66.7878052456
 20
28.7749057389
 10
-66.7654878199
 20
28.7762576531
 10
-66.7415810322
 20
28.7771429336
 10
-66.7163020175
 20
28.7775535396
 10
-66.6898803739
 20
28.777485742
 10
-66.6625560778
 20
28.7769401564
 10
-66.634577304
 20
28.7759217382
 10
-66.6061981713
 20
28.7744397372
  0
LINE
  5
3DB
100
AcDbEntity
  8
RACCORDO
100
AcDbLine
 62
253
  6
CONTINUOUS
 10
-68.6548771039
 20
-22.0778757184
 11
-68.6552761943
 21
-22.0775638848
  0
LWPOLYLINE
  5
3DC
100
AcDbEntity
  8
RACCORDO
100
AcDbPolyline
 62
253
  6
CONTINUOUS
 90
16
 70
0
 10
-66.8886126444
 20
-29.4727601553
 10
-66.8847484424
 20
-29.4770796417
 10
-66.8782116796
 20
-29.4811355025
 10
-66.8690617268
 20
-29.4848909001
 10
-66.8573816891
 20
-29.4883117257
 10
-66.8432776516
 20
-29.4913669093
 10
-66.8268777154
 20
-29.494028702
 10
-66.8083308343
 20
-29.4962729278
 10
-66.7878054621
 20
-29.4980792033
 10
-66.7654880222
 20
-29.499431123
 10
-66.7415812148
 20
-29.5003164078
 10
-66.7163021754
 20
-29.500727017
 10
-66.6898805032
 20
-29.5006592214
 10
-66.6625561754
 20
-29.5001136365
 10
-66.6345773676
 20
-29.4990952179
 10
-66.6061981996
 20
-29.4976132153
  0
LINE
  5
3DD
100
AcDbEntity
  8
DRAFT
100
AcDbLine
 62
7
  6
CONTINUOUS
 10
-62.6292584862
 20
3.1384133056
 11
-60.6292584862
 21
3.491067267
  0
LINE
  5
3DE
100
AcDbEntity
  8
0
100
AcDbLine
 62
253
  6
CONTINUOUS
 10
-62.6292584862
 20
-0.3615866944
 11
-63.4292584862
 21
-0.3615866944
  0
LINE
  5
3DF
100
AcDbEntity
  8
RACCORDO
100
AcDbLine
 62
253
  6
CONTINUOUS
 10
-69.12627259
 20
-0.3615866944
 11
-69.1266587409
 21
-0.3615866944
  0
LINE
  5
3E0
100
AcDbEntity
  8
DRAFT
100
AcDbLine
 62
7
  6
CONTINUOUS
 10
-60.6292584862
 20
-4.2142406558
 11
-62.6292584862
 21
-3.8615866944
  0
LWPOLYLINE
  5
3E1
100
AcDbEntity
  8
RACCORDO
100
AcDbPolyline
 62
253
  6
CONTINUOUS
 90
16
 70
0
 10
-66.1889463037
 20
42.9556089781
 10
-66.1830333061
 20
42.9817067605
 10
-66.1748118749
 20
43.0071780913
 10
-66.1643476305
 20
43.0318196679
 10
-66.1517240945
 20
43.0554348104
 10
-66.1370420234
 20
43.0778350314
 10
-66.1204186039
 20
43.0988415409
 10
-66.101986518
 20
43.1182866726
 10
-66.0818928838
 20
43.1360152227
 10
-66.0602980811
 20
43.1518856887
 10
-66.0373744716
 20
43.1657713982
 10
-66.013305023
 20
43.1775615209
 10
-65.9882818487
 20
43.1871619522
 10
-65.9625046743
 20
43.1944960652
 10
-65.9361792436
 20
43.1995053217
 10
-65.9095156765
 20
43.2021497396
  0
LWPOLYLINE
  5
3E2
100
AcDbEntity
  8
RACCORDO
100
AcDbPolyline
 62
253
  6
CONTINUOUS
 90
16
 70
0
 10
-66.3305635473
 20
43.2821139312
 10
-66.3246212143
 20
43.3081875339
 10
-66.3163753397
 20
43.3336310547
 10
-66.3058916083
 20
43.3582418166
 10
-66.2932535309
 20
43.3818237762
 10
-66.2785617795
 20
43.4041890853
 10
-66.2619333849
 20
43.4251595872
 10
-66.2435008051
 20
43.4445682359
 10
-66.2234108694
 20
43.4622604268
 10
-66.2018236096
 20
43.478095228
 10
-66.1789109845
 20
43.4919465035
 10
-66.1548555106
 20
43.5037039172
 10
-66.129848808
 20
43.5132738125
 10
-66.1040900742
 20
43.5205799578
 10
-66.077784497
 20
43.5255641541
 10
-66.0511416204
 20
43.5281866985
  0
LWPOLYLINE
  5
3E3
100
AcDbEntity
  8
RACCORDO
100
AcDbPolyline
 62
253
  6
CONTINUOUS
 90
16
 70
0
 10
-66.3305635483
 20
-44.0052873202
 10
-66.3246212156
 20
-44.0313609234
 10
-66.3163753414
 20
-44.0568044447
 10
-66.3058916103
 20
-44.0814152071
 10
-66.2932535332
 20
-44.1049971673
 10
-66.2785617818
 20
-44.1273624769
 10
-66.2619333873
 20
-44.1483329793
 10
-66.2435008075
 20
-44.1677416285
 10
-66.2234108717
 20
-44.1854338199
 10
-66.2018236117
 20
-44.2012686216
 10
-66.1789109864
 20
-44.2151198975
 10
-66.1548555123
 20
-44.2268773115
 10
-66.1298488094
 20
-44.2364472071
 10
-66.1040900753
 20
-44.2437533526
 10
-66.0777844978
 20
-44.2487375491
 10
-66.0511416207
 20
-44.2513600936
  0
LWPOLYLINE
  5
3E4
100
AcDbEntity
  8
RACCORDO
100
AcDbPolyline
 62
253
  6
CONTINUOUS
 90
16
 70
0
 10
-66.1889463043
 20
-43.6787823669
 10
-66.1830333065
 20
-43.7048801493
 10
-66.1748118752
 20
-43.73035148
 10
-66.1643476306
 20
-43.7549930565
 10
-66.1517240946
 20
-43.7786081988
 10
-66.1370420234
 20
-43.8010084197
 10
-66.1204186038
 20
-43.822014929
 10
-66.1019865179
 20
-43.8414600606
 10
-66.0818928836
 20
-43.8591886106
 10
-66.0602980808
 20
-43.8750590764
 10
-66.0373744713
 20
-43.8889447858
 10
-66.0133050227
 20
-43.9007349083
 10
-65.9882818484
 20
-43.9103353395
 10
-65.9625046741
 20
-43.9176694524
 10
-65.9361792435
 20
-43.9226787088
 10
-65.9095156764
 20
-43.9253231266
  0
LWPOLYLINE
  5
3E5
100
AcDbEntity
  8
RACCORDO
100
AcDbPolyline
 62
253
  6
CONTINUOUS
 90
16
 70
0
 10
-66.0363657625
 20
42.5111223874
 10
-66.0304667309
 20
42.5371339837
 10
-66.022256617
 20
42.5625261163
 10
-66.0118010159
 20
42.5870959139
 10
-65.9991834631
 20
42.6106470751
 10
-65.9845047668
 20
42.632991437
 10
-65.9678822032
 20
42.6539504785
 10
-65.9494485788
 20
42.6733567466
 10
-65.9293511697
 20
42.691055194
 10
-65.9077505451
 20
42.7069044185
 10
-65.8848192838
 20
42.720777792
 10
-65.8607405961
 20
42.7325644726
 10
-65.8357068596
 20
42.7421702903
 10
-65.8099180822
 20
42.7495184989
 10
-65.7835803044
 20
42.7545503898
 10
-65.7569039529
 20
42.7572257604
  0
LWPOLYLINE
  5
3E6
100
AcDbEntity
  8
RACCORDO
100
AcDbPolyline
 62
253
  6
CONTINUOUS
 90
16
 70
0
 10
-66.0363657694
 20
-43.2342957774
 10
-66.0304666949
 20
-43.260307334
 10
-66.0222565443
 20
-43.285699424
 10
-66.0118009129
 20
-43.3102691769
 10
-65.9991833361
 20
-43.3338202922
 10
-65.9845046224
 20
-43.3561646076
 10
-65.9678820477
 20
-43.3771236029
 10
-65.9494484182
 20
-43.3965298256
 10
-65.9293510099
 20
-43.4142282295
 10
-65.9077503915
 20
-43.4300774127
 10
-65.8848191415
 20
-43.4439507479
 10
-65.8607404696
 20
-43.4557373938
 10
-65.8357067528
 20
-43.4653431806
 10
-65.8099179986
 20
-43.4726913629
 10
-65.7835802467
 20
-43.4777232321
 10
-65.7569039232
 20
-43.4803985861
  0
LWPOLYLINE
  5
3E7
100
AcDbEntity
  8
0
100
AcDbPolyline
 62
7
  6
CONTINUOUS
 90
7
 70
0
 10
-68.9909160214
 20
-26.4384696798
 10
-68.9918470959
 20
-26.4283480806
 10
-68.9926587438
 20
-26.4202051183
 10
-68.9933550839
 20
-26.4139606279
 10
-68.9939315871
 20
-26.4096948089
 10
-68.9943909218
 20
-26.4073637887
 10
-68.9946541164
 20
-26.4068680803
  0
LWPOLYLINE
  5
3E8
100
AcDbEntity
  8
0
100
AcDbPolyline
 62
7
  6
CONTINUOUS
 90
9
 70
0
 10
-69.1410162182
 20
-26.4406663847
 10
-69.1418603577
 20
-26.4313438931
 10
-69.1425978947
 20
-26.423665982
 10
-69.1432341654
 20
-26.4175425656
 10
-69.1437642465
 20
-26.4130637571
 10
-69.1442131331
 20
-26.4098208606
 10
-69.1445851115
 20
-26.4077460191
 10
-69.1448760451
 20
-26.4069070975
 10
-69.1449483509
 20
-26.4068657233
  0
LINE
  5
3E9
100
AcDbEntity
  8
0
100
AcDbLine
 62
7
  6
CONTINUOUS
 10
-68.9886430206
 20
-26.465596787
 11
-68.9909160214
 21
-26.4384696798
  0
LINE
  5
3EA
100
AcDbEntity
  8
0
100
AcDbLine
 62
7
  6
CONTINUOUS
 10
-69.1388728036
 20
-26.4665083456
 11
-69.1410162182
 21
-26.4406663847
  0
LINE
  5
3EB
100
AcDbEntity
  8
0
100
AcDbLine
 62
7
  6
CONTINUOUS
 10
-68.7854810819
 20
-29.2393880488
 11
-68.8392470644
 21
-28.5691692535
  0
LINE
  5
3EC
100
AcDbEntity
  8
0
100
AcDbLine
 62
7
  6
CONTINUOUS
 10
-68.9359750588
 20
-29.2393880488
 11
-68.9896576969
 21
-28.5695724572
  0
LINE
  5
3ED
100
AcDbEntity
  8
0
100
AcDbLine
 62
7
  6
CONTINUOUS
 10
-69.0332597755
 20
-28.0026883162
 11
-69.0388630241
 21
-27.9325111312
  0
LINE
  5
3EE
100
AcDbEntity
  8
0
100
AcDbLine
 62
7
  6
CONTINUOUS
 10
-68.8820570389
 20
-28.0129895837
 11
-68.8884677181
 21
-27.9325111312
  0
LWPOLYLINE
  5
3EF
100
AcDbEntity
  8
0
100
AcDbPolyline
 62
7
  6
CONTINUOUS
 90
3
 70
0
 10
-68.9423772263
 20
-29.2393880488
 10
-68.9998068913
 20
-28.5090219381
 10
-69.008800121
 20
-28.3904426649
  0
LINE
  5
3F0
100
AcDbEntity
  8
0
100
AcDbLine
 62
7
  6
CONTINUOUS
 10
-68.9858232932
 20
-26.5018705697
 11
-68.9886430206
 21
-26.465596787
  0
LINE
  5
3F1
100
AcDbEntity
  8
0
100
AcDbLine
 62
7
  6
CONTINUOUS
 10
-68.9896576969
 20
-28.5695724572
 11
-69.0332597755
 21
-28.0026883162
  0
LINE
  5
3F2
100
AcDbEntity
  8
0
100
AcDbLine
 62
7
  6
CONTINUOUS
 10
-68.8392470644
 20
-28.5691692535
 11
-68.8820570389
 21
-28.0129895837
  0
LINE
  5
3F3
100
AcDbEntity
  8
RACCORDO
100
AcDbLine
 62
253
  6
CONTINUOUS
 10
-66.5639629308
 20
-33.8589049676
 11
-66.6723305847
 21
-32.4372991533
  0
LINE
  5
3F4
100
AcDbEntity
  8
0
100
AcDbLine
 62
7
  6
CONTINUOUS
 10
-69.1351959781
 20
-26.5143416084
 11
-69.1388728036
 21
-26.4665083456
  0
LINE
  5
3F5
100
AcDbEntity
  8
RACCORDO
100
AcDbLine
 62
253
  6
CONTINUOUS
 10
-66.1815920398
 20
-38.8117414461
 11
-66.5639629308
 21
-33.8589049676
  0
LINE
  5
3F6
100
AcDbEntity
  8
RACCORDO
100
AcDbLine
 62
253
  6
CONTINUOUS
 10
-66.6723305847
 20
-32.4372991533
 11
-66.7812538958
 21
-30.9694778348
  0
LINE
  5
3F7
100
AcDbEntity
  8
RACCORDO
100
AcDbLine
 62
253
  6
CONTINUOUS
 10
-66.2823048756
 20
-33.9546386037
 11
-66.426630392
 21
-32.0175117874
  0
LINE
  5
3F8
100
AcDbEntity
  8
RACCORDO
100
AcDbLine
 62
253
  6
CONTINUOUS
 10
-65.9010495698
 20
-38.9868384706
 11
-66.2823048756
 21
-33.9546386037
  0
LINE
  5
3F9
100
AcDbEntity
  8
0
100
AcDbLine
 62
7
  6
CONTINUOUS
 10
-69.0305852857
 20
-28.1440802611
 11
-69.0642102923
 21
-27.6854868816
  0
LINE
  5
3FA
100
AcDbEntity
  8
0
100
AcDbLine
 62
7
  6
CONTINUOUS
 10
-69.0388630241
 20
-27.9325111312
 11
-69.0400610257
 21
-27.9159673224
  0
LINE
  5
3FB
100
AcDbEntity
  8
0
100
AcDbLine
 62
7
  6
CONTINUOUS
 10
-68.8884677181
 20
-27.9325111312
 11
-68.8896668931
 21
-27.9159673224
  0
LINE
  5
3FC
100
AcDbEntity
  8
RACCORDO
100
AcDbLine
 62
253
  6
CONTINUOUS
 10
-66.426630392
 20
-32.0175117874
 11
-66.5349412363
 21
-30.5143624557
  0
LINE
  5
3FD
100
AcDbEntity
  8
RACCORDO
100
AcDbLine
 62
253
  6
CONTINUOUS
 10
-66.7812538958
 20
-30.9694778348
 11
-66.888612648
 21
-29.4727601556
  0
LINE
  5
3FE
100
AcDbEntity
  8
0
100
AcDbLine
 62
7
  6
CONTINUOUS
 10
-68.9791930057
 20
-26.5945375374
 11
-68.9858232932
 21
-26.5018705697
  0
LINE
  5
3FF
100
AcDbEntity
  8
0
100
AcDbLine
 62
7
  6
CONTINUOUS
 10
-69.0623619314
 20
-27.685347479
 11
-69.039027409
 21
-28.01005796
  0
LINE
  5
400
100
AcDbEntity
  8
RACCORDO
100
AcDbLine
 62
253
  6
CONTINUOUS
 10
-66.1103369779
 20
-39.812124492
 11
-66.1815920398
 21
-38.8117414461
  0
LINE
  5
401
100
AcDbEntity
  8
RACCORDO
100
AcDbLine
 62
253
  6
CONTINUOUS
 10
-66.5349412363
 20
-30.5143624557
 11
-66.636646485
 21
-29.0554391583
  0
LINE
  5
402
100
AcDbEntity
  8
0
100
AcDbLine
 62
7
  6
CONTINUOUS
 10
-69.1214690332
 20
-26.7109814027
 11
-69.1351959781
 21
-26.5143416084
  0
LINE
  5
403
100
AcDbEntity
  8
RACCORDO
100
AcDbLine
 62
253
  6
CONTINUOUS
 10
-65.830044655
 20
-40.0032326979
 11
-65.9010495698
 21
-38.9868384706
  0
LINE
  5
404
100
AcDbEntity
  8
RACCORDO
100
AcDbLine
 62
253
  6
CONTINUOUS
 10
-66.888612648
 20
-29.4727601556
 11
-66.9486113783
 21
-28.5907325803
  0
LWPOLYLINE
  5
405
100
AcDbEntity
  8
0
100
AcDbPolyline
 62
7
  6
CONTINUOUS
 90
3
 70
0
 10
-69.0604651364
 20
-27.685214781
 10
-69.1073423784
 20
-27.0020513941
 10
-69.1129885695
 20
-26.9166414903
  0
LINE
  5
406
100
AcDbEntity
  8
0
100
AcDbLine
 62
7
  6
CONTINUOUS
 10
-69.1183145225
 20
-26.900559601
 11
-69.1461897101
 21
-26.4725666003
  0
LINE
  5
407
100
AcDbEntity
  8
0
100
AcDbLine
 62
7
  6
CONTINUOUS
 10
-68.8904146057
 20
-27.9032553934
 11
-68.9791930057
 21
-26.5945375374
  0
LINE
  5
408
100
AcDbEntity
  8
RACCORDO
100
AcDbLine
 62
253
  6
CONTINUOUS
 10
-66.636646485
 20
-29.0554391583
 11
-66.6944743269
 21
-28.1701969688
  0
LINE
  5
409
100
AcDbEntity
  8
0
100
AcDbLine
 62
7
  6
CONTINUOUS
 10
-69.1435105395
 20
-26.4723940354
 11
-69.1165623286
 21
-26.8904425255
  0
LINE
  5
40A
100
AcDbEntity
  8
0
100
AcDbLine
 62
7
  6
CONTINUOUS
 10
-69.0407259253
 20
-27.9045456866
 11
-69.1214690332
 21
-26.7109814027
  0
LINE
  5
40B
100
AcDbEntity
  8
RACCORDO
100
AcDbLine
 62
253
  6
CONTINUOUS
 10
-66.9486113783
 20
-28.5907325803
 11
-67.0045335409
 21
-27.7073628233
  0
LWPOLYLINE
  5
40C
100
AcDbEntity
  8
RACCORDO
100
AcDbPolyline
 62
253
  6
CONTINUOUS
 90
3
 70
0
 10
-66.0532601968
 20
-40.6990741826
 10
-66.0705882786
 20
-40.4165318795
 10
-66.1103369779
 20
-39.812124492
  0
LWPOLYLINE
  5
40D
100
AcDbEntity
  8
RACCORDO
100
AcDbPolyline
 62
253
  6
CONTINUOUS
 90
3
 70
0
 10
-67.0045335409
 20
-27.7073628233
 10
-67.0563649956
 20
-26.8227384216
 10
-67.0807375391
 20
-26.3800588023
  0
LWPOLYLINE
  5
40E
100
AcDbEntity
  8
0
100
AcDbPolyline
 62
7
  6
CONTINUOUS
 90
3
 70
0
 10
-68.8896668931
 20
-27.9159673224
 10
-68.8898327612
 20
-27.9128588322
 10
-68.8904146057
 20
-27.9032553934
  0
LWPOLYLINE
  5
40F
100
AcDbEntity
  8
RACCORDO
100
AcDbPolyline
 62
253
  6
CONTINUOUS
 90
13
 70
0
 10
-68.579552655
 20
-24.1051584239
 10
-68.491243973
 20
-25.7729021734
 10
-68.3848581695
 20
-27.4395893138
 10
-68.2604077645
 20
-29.1050237038
 10
-68.1179074036
 20
-30.7690093492
 10
-67.9573738567
 20
-32.4313504264
 10
-67.7788260161
 20
-34.0918513055
 10
-67.5822848939
 20
-35.7503165728
 10
-67.3677736197
 20
-37.4065510544
 10
-67.1353174378
 20
-39.0603598394
 10
-66.8849437045
 20
-40.711548302
 10
-66.6166818847
 20
-42.3599221243
 10
-66.3305635482
 20
-44.0052873202
  0
LWPOLYLINE
  5
410
100
AcDbEntity
  8
0
100
AcDbPolyline
 62
7
  6
CONTINUOUS
 90
3
 70
0
 10
-69.0400610257
 20
-27.9159673224
 10
-69.0402077975
 20
-27.913173505
 10
-69.0407259253
 20
-27.9045456866
  0
LINE
  5
411
100
AcDbEntity
  8
ASSI
100
AcDbLine
 62
7
  6
CONTINUOUS
 10
-69.1209481246
 20
-24.2779173767
 11
-69.1198955459
 21
-24.2995143864
  0
LINE
  5
412
100
AcDbEntity
  8
RACCORDO
100
AcDbLine
 62
253
  6
CONTINUOUS
 10
-68.621198032
 20
-23.2118681453
 11
-68.579552655
 21
-24.1051584239
  0
LWPOLYLINE
  5
413
100
AcDbEntity
  8
0
100
AcDbPolyline
 62
7
  6
CONTINUOUS
 90
6
 70
0
 10
-69.1129885695
 20
-26.9166414903
 10
-69.113365975
 20
-26.9079486077
 10
-69.1136279637
 20
-26.9009843774
 10
-69.1137748214
 20
-26.8957488148
 10
-69.1138053111
 20
-26.8922596687
 10
-69.1137210583
 20
-26.8904992097
  0
LINE
  5
414
100
AcDbEntity
  8
RACCORDO
100
AcDbLine
 62
253
  6
CONTINUOUS
 10
-68.6211979475
 20
-23.2118681414
 11
-68.6222619596
 21
-23.1865752617
  0
LINE
  5
415
100
AcDbEntity
  8
RACCORDO
100
AcDbLine
 62
7
  6
CONTINUOUS
 10
-68.7519925771
 20
-19.7229279396
 11
-68.6489088474
 21
-22.2309434547
  0
LINE
  5
416
100
AcDbEntity
  8
RACCORDO
100
AcDbLine
 62
253
  6
CONTINUOUS
 10
-68.6502761152
 20
-22.187516369
 11
-68.6489088474
 21
-22.2309434547
  0
LINE
  5
417
100
AcDbEntity
  8
RACCORDO
100
AcDbLine
 62
253
  6
CONTINUOUS
 10
-68.7519925771
 20
-19.7229279396
 11
-68.7496370899
 21
-19.7737246342
  0
LINE
  5
418
100
AcDbEntity
  8
RACCORDO
100
AcDbLine
 62
7
  6
CONTINUOUS
 10
-68.6489088474
 20
-22.2309434547
 11
-68.6399827785
 21
-22.4688188789
  0
LINE
  5
419
100
AcDbEntity
  8
RACCORDO
100
AcDbLine
 62
253
  6
CONTINUOUS
 10
-68.8401373819
 20
-17.2936813458
 11
-68.8356385671
 21
-17.4147326587
  0
LINE
  5
41A
100
AcDbEntity
  8
RACCORDO
100
AcDbLine
 62
7
  6
CONTINUOUS
 10
-68.6399827785
 20
-22.4688188789
 11
-68.6326981741
 21
-22.6937315886
  0
LINE
  5
41B
100
AcDbEntity
  8
RACCORDO
100
AcDbLine
 62
253
  6
CONTINUOUS
 10
-68.9164816327
 20
-14.8640335565
 11
-68.9121280834
 21
-15.0002512381
  0
LINE
  5
41C
100
AcDbEntity
  8
RACCORDO
100
AcDbLine
 62
7
  6
CONTINUOUS
 10
-68.6326981741
 20
-22.6937315886
 11
-68.6272023253
 21
-22.900326321
  0
LINE
  5
41D
100
AcDbEntity
  8
RACCORDO
100
AcDbLine
 62
253
  6
CONTINUOUS
 10
-68.626924674
 20
-22.8895216408
 11
-68.6272023253
 21
-22.900326321
  0
LINE
  5
41E
100
AcDbEntity
  8
RACCORDO
100
AcDbLine
 62
253
  6
CONTINUOUS
 10
-69.0347906169
 20
-9.9300603061
 11
-69.0337609513
 21
-10.0037812023
  0
LINE
  5
41F
100
AcDbEntity
  8
RACCORDO
100
AcDbLine
 62
253
  6
CONTINUOUS
 10
-68.9810232492
 20
-12.4340484419
 11
-68.9792149178
 21
-12.4928698772
  0
LINE
  5
420
100
AcDbEntity
  8
RACCORDO
100
AcDbLine
 62
7
  6
CONTINUOUS
 10
-68.6272023253
 20
-22.900326321
 11
-68.6245773989
 21
-23.0253085229
  0
LINE
  5
421
100
AcDbEntity
  8
RACCORDO
100
AcDbLine
 62
253
  6
CONTINUOUS
 10
-69.0764336528
 20
-7.4242183999
 11
-69.0746936317
 21
-7.5732829762
  0
LINE
  5
422
100
AcDbEntity
  8
RACCORDO
100
AcDbLine
 62
7
  6
CONTINUOUS
 10
-68.6245773989
 20
-23.0253085229
 11
-68.6227949189
 21
-23.1386255807
  0
LWPOLYLINE
  5
423
100
AcDbEntity
  8
RACCORDO
100
AcDbPolyline
 62
253
  6
CONTINUOUS
 90
5
 70
0
 10
-68.6338838953
 20
-23.6042132805
 10
-68.6344975159
 20
-23.5547339875
 10
-68.6316095361
 20
-23.5053394903
 10
-68.6252344124
 20
-23.4562770466
 10
-68.6239438683
 20
-23.4499118912
  0
LINE
  5
424
100
AcDbEntity
  8
RACCORDO
100
AcDbLine
 62
253
  6
CONTINUOUS
 10
-69.1046563397
 20
-5.012872501
 11
-69.1038201765
 21
-5.1426089513
  0
LWPOLYLINE
  5
425
100
AcDbEntity
  8
RACCORDO
100
AcDbPolyline
 62
253
  6
CONTINUOUS
 90
10
 70
0
 10
-68.984374536
 20
-24.1051584716
 10
-68.9849517224
 20
-24.0539646306
 10
-68.9817842587
 20
-24.0028668775
 10
-68.9748890968
 20
-23.9521386804
 10
-68.9643031386
 20
-23.9020515295
 10
-68.9500830387
 20
-23.852873484
 10
-68.932304901
 20
-23.8048677381
 10
-68.9110638716
 20
-23.7582912116
 10
-68.8864736296
 20
-23.7133931756
 10
-68.8586657784
 20
-23.6704139181
  0
LINE
  5
426
100
AcDbEntity
  8
RACCORDO
100
AcDbLine
 62
7
  6
CONTINUOUS
 10
-68.6227949189
 20
-23.1386255807
 11
-68.6219568013
 21
-23.2239840067
  0
LINE
  5
427
100
AcDbEntity
  8
RACCORDO
100
AcDbLine
 62
253
  6
CONTINUOUS
 10
-69.1210001494
 20
-2.658642646
 11
-69.1211398931
 21
-2.7118231566
  0
LINE
  5
428
100
AcDbEntity
  8
RACCORDO
100
AcDbLine
 62
253
  6
CONTINUOUS
 10
-68.6217758496
 20
-23.2583206448
 11
-68.6206787866
 21
-23.2884142372
  0
LINE
  5
429
100
AcDbEntity
  8
RACCORDO
100
AcDbLine
 62
7
  6
CONTINUOUS
 10
-68.6219846258
 20
-23.219938611
 11
-68.6217272276
 21
-23.2747363376
  0
LWPOLYLINE
  5
42A
100
AcDbEntity
  8
RACCORDO
100
AcDbPolyline
 62
7
  6
CONTINUOUS
 90
9
 70
0
 10
-69.1266587409
 20
-0.3615866944
 10
-69.1211398931
 20
-2.7118231566
 10
-69.1038201765
 20
-5.1426089513
 10
-69.0746936317
 20
-7.5732829762
 10
-69.0337609513
 20
-10.0037812023
 10
-68.9810232492
 20
-12.4340484419
 10
-68.9164816327
 20
-14.8640335565
 10
-68.8401373819
 20
-17.2936813458
 10
-68.7519925771
 20
-19.7229279396
  0
LINE
  5
42B
100
AcDbEntity
  8
RACCORDO
100
AcDbLine
 62
7
  6
CONTINUOUS
 10
-68.6218062617
 20
22.6107278241
 11
-68.6217077511
 21
22.5665544515
  0
LINE
  5
42C
100
AcDbEntity
  8
RACCORDO
100
AcDbLine
 62
253
  6
CONTINUOUS
 10
-68.6217151652
 20
-23.3059478271
 11
-68.6206105574
 21
-23.3354892832
  0
LINE
  5
42D
100
AcDbEntity
  8
RACCORDO
100
AcDbLine
 62
253
  6
CONTINUOUS
 10
-68.6206653947
 20
22.6357190084
 11
-68.6218062617
 21
22.6107278241
  0
LINE
  5
42E
100
AcDbEntity
  8
RACCORDO
100
AcDbLine
 62
7
  6
CONTINUOUS
 10
-68.6217896694
 20
-23.2547201916
 11
-68.6217503567
 21
-23.3207308329
  0
LINE
  5
42F
100
AcDbEntity
  8
RACCORDO
100
AcDbLine
 62
7
  6
CONTINUOUS
 10
-68.6217417705
 20
-23.31795239
 11
-68.621798194
 21
-23.3323198946
  0
LINE
  5
430
100
AcDbEntity
  8
RACCORDO
100
AcDbLine
 62
253
  6
CONTINUOUS
 10
-68.6206155709
 20
22.5899837017
 11
-68.6217077511
 21
22.5665544515
  0
LINE
  5
431
100
AcDbEntity
  8
RACCORDO
100
AcDbLine
 62
7
  6
CONTINUOUS
 10
-68.6217077511
 20
22.5665544515
 11
-68.6218557457
 21
22.5175810179
  0
LINE
  5
432
100
AcDbEntity
  8
RACCORDO
100
AcDbLine
 62
253
  6
CONTINUOUS
 10
-68.6206105574
 20
-23.3354892832
 11
-68.6207691527
 21
-23.3791645624
  0
LINE
  5
433
100
AcDbEntity
  8
RACCORDO
100
AcDbLine
 62
253
  6
CONTINUOUS
 10
-69.1211112305
 20
1.9947444359
 11
-69.121003539
 21
1.9347278989
  0
LINE
  5
434
100
AcDbEntity
  8
RACCORDO
100
AcDbLine
 62
253
  6
CONTINUOUS
 10
-68.6207936896
 20
22.5409575298
 11
-68.6218557457
 21
22.5175810179
  0
LINE
  5
435
100
AcDbEntity
  8
RACCORDO
100
AcDbLine
 62
7
  6
CONTINUOUS
 10
-68.6218557457
 20
22.5175810179
 11
-68.6222619656
 21
22.4634002364
  0
LINE
  5
436
100
AcDbEntity
  8
RACCORDO
100
AcDbLine
 62
253
  6
CONTINUOUS
 10
-68.621198032
 20
22.4886947565
 11
-68.6222627896
 21
22.4633587459
  0
LWPOLYLINE
  5
437
100
AcDbEntity
  8
RACCORDO
100
AcDbPolyline
 62
253
  6
CONTINUOUS
 90
10
 70
0
 10
-68.9843735314
 20
23.3819850351
 10
-68.9849508141
 20
23.3307912331
 10
-68.9817834521
 20
23.2796935118
 10
-68.9748883966
 20
23.2289653386
 10
-68.964302549
 20
23.1788782032
 10
-68.950082563
 20
23.1297001645
 10
-68.9323045421
 20
23.081694416
 10
-68.9110636315
 20
23.0351178773
 10
-68.8864735093
 20
22.9902198191
 10
-68.8586657784
 20
22.9472405293
  0
LINE
  5
438
100
AcDbEntity
  8
RACCORDO
100
AcDbLine
 62
253
  6
CONTINUOUS
 10
-69.1037673877
 20
4.424957631
 11
-69.1046567886
 21
4.2896496824
  0
LWPOLYLINE
  5
439
100
AcDbEntity
  8
RACCORDO
100
AcDbPolyline
 62
253
  6
CONTINUOUS
 90
5
 70
0
 10
-68.6338837341
 20
22.8810398842
 10
-68.6344973913
 20
22.8315603729
 10
-68.631609415
 20
22.7821656582
 10
-68.6252342621
 20
22.7331030009
 10
-68.6239441317
 20
22.7267398918
  0
LINE
  5
43A
100
AcDbEntity
  8
RACCORDO
100
AcDbLine
 62
7
  6
CONTINUOUS
 10
-68.6222627896
 20
22.4633587459
 11
-68.6235022127
 21
22.3653732266
  0
LINE
  5
43B
100
AcDbEntity
  8
RACCORDO
100
AcDbLine
 62
253
  6
CONTINUOUS
 10
-68.6225075249
 20
22.3854479232
 11
-68.6235022127
 21
22.3653732266
  0
LINE
  5
43C
100
AcDbEntity
  8
RACCORDO
100
AcDbLine
 62
253
  6
CONTINUOUS
 10
-69.0746222827
 20
6.8550585334
 11
-69.0764043532
 21
6.7031206101
  0
LINE
  5
43D
100
AcDbEntity
  8
RACCORDO
100
AcDbLine
 62
7
  6
CONTINUOUS
 10
-68.6235022127
 20
22.3653732266
 11
-68.6256802253
 21
22.2461583449
  0
LINE
  5
43E
100
AcDbEntity
  8
RACCORDO
100
AcDbLine
 62
253
  6
CONTINUOUS
 10
-68.9788764951
 20
11.7836461399
 11
-68.9809314901
 21
11.7146770499
  0
LINE
  5
43F
100
AcDbEntity
  8
RACCORDO
100
AcDbLine
 62
253
  6
CONTINUOUS
 10
-69.0336766102
 20
9.2849833943
 11
-69.0346510427
 21
9.2141837129
  0
LINE
  5
440
100
AcDbEntity
  8
RACCORDO
100
AcDbLine
 62
7
  6
CONTINUOUS
 10
-68.6256802253
 20
22.2461583449
 11
-68.6286972903
 21
22.1158183078
  0
LINE
  5
441
100
AcDbEntity
  8
RACCORDO
100
AcDbLine
 62
253
  6
CONTINUOUS
 10
-68.9116290253
 20
14.2941218749
 11
-68.9163880347
 21
14.1440883533
  0
LINE
  5
442
100
AcDbEntity
  8
RACCORDO
100
AcDbLine
 62
7
  6
CONTINUOUS
 10
-68.6286972903
 20
22.1158183078
 11
-68.6347838584
 21
21.9021136802
  0
LINE
  5
443
100
AcDbEntity
  8
RACCORDO
100
AcDbLine
 62
253
  6
CONTINUOUS
 10
-68.6337526468
 20
21.920991545
 11
-68.6347838584
 21
21.9021136802
  0
LINE
  5
444
100
AcDbEntity
  8
RACCORDO
100
AcDbLine
 62
253
  6
CONTINUOUS
 10
-68.835129672
 20
16.7064776647
 11
-68.8400475278
 21
16.5731620794
  0
LINE
  5
445
100
AcDbEntity
  8
RACCORDO
100
AcDbLine
 62
7
  6
CONTINUOUS
 10
-68.6347838584
 20
21.9021136802
 11
-68.6426293598
 21
21.671687886
  0
LWPOLYLINE
  5
446
100
AcDbEntity
  8
RACCORDO
100
AcDbPolyline
 62
7
  6
CONTINUOUS
 90
9
 70
0
 10
-68.7519120563
 20
19.0018342649
 10
-68.8400475278
 20
16.5731620794
 10
-68.9163880347
 20
14.1440883533
 10
-68.9809314901
 20
11.7146770499
 10
-69.0336766102
 20
9.2849833943
 10
-69.0746222827
 20
6.8550585334
 10
-69.1037673877
 20
4.424957631
 10
-69.1211112305
 20
1.9947444359
 10
-69.1266587407
 20
-0.3615866944
  0
LINE
  5
447
100
AcDbEntity
  8
RACCORDO
100
AcDbLine
 62
253
  6
CONTINUOUS
 10
-68.7492783767
 20
19.0597890508
 11
-68.7519120563
 21
19.0018342649
  0
LINE
  5
448
100
AcDbEntity
  8
RACCORDO
100
AcDbLine
 62
7
  6
CONTINUOUS
 10
-68.6426293598
 20
21.671687886
 11
-68.6520865636
 21
21.4298363783
  0
LINE
  5
449
100
AcDbEntity
  8
RACCORDO
100
AcDbLine
 62
7
  6
CONTINUOUS
 10
-68.6520865636
 20
21.4298363783
 11
-68.7519120563
 21
19.0018342649
  0
LINE
  5
44A
100
AcDbEntity
  8
RACCORDO
100
AcDbLine
 62
253
  6
CONTINUOUS
 10
-68.6222623949
 20
22.4634002411
 11
-68.607493277
 21
22.7864748612
  0
LINE
  5
44B
100
AcDbEntity
  8
RACCORDO
100
AcDbLine
 62
253
  6
CONTINUOUS
 10
-68.607493277
 20
22.7864748612
 11
-68.579552655
 21
23.3819850352
  0
LINE
  5
44C
100
AcDbEntity
  8
ASSI
100
AcDbLine
 62
7
  6
CONTINUOUS
 10
-69.1198955424
 20
23.5763410691
 11
-69.1209481315
 21
23.5547438465
  0
LWPOLYLINE
  5
44D
100
AcDbEntity
  8
RACCORDO
100
AcDbPolyline
 62
253
  6
CONTINUOUS
 90
13
 70
0
 10
-68.579552655
 20
23.3819850352
 10
-68.491243973
 20
25.0497287846
 10
-68.3848581695
 20
26.716415925
 10
-68.2604077645
 20
28.381850315
 10
-68.1179074036
 20
30.0458359604
 10
-67.9573738567
 20
31.7081770376
 10
-67.7788260161
 20
33.3686779167
 10
-67.5822848939
 20
35.027143184
 10
-67.3677736197
 20
36.6833776657
 10
-67.1353174378
 20
38.3371864507
 10
-66.8849437045
 20
39.9883749132
 10
-66.6166818847
 20
41.6367487355
 10
-66.3305635482
 20
43.2821139314
  0
LINE
  5
44E
100
AcDbEntity
  8
RACCORDO
100
AcDbLine
 62
253
  6
CONTINUOUS
 10
-67.0807374407
 20
25.6568872564
 11
-67.0309628043
 21
26.5420101575
  0
LINE
  5
44F
100
AcDbEntity
  8
RACCORDO
100
AcDbLine
 62
253
  6
CONTINUOUS
 10
-67.0309628043
 20
26.5420101575
 11
-66.977081922
 21
27.4260501773
  0
LINE
  5
450
100
AcDbEntity
  8
RACCORDO
100
AcDbLine
 62
253
  6
CONTINUOUS
 10
-66.0896321317
 20
39.3976726912
 11
-66.0532475199
 21
39.976113564
  0
LINE
  5
451
100
AcDbEntity
  8
RACCORDO
100
AcDbLine
 62
253
  6
CONTINUOUS
 10
-66.6944745186
 20
27.4470205482
 11
-66.6366460461
 21
28.3322723393
  0
LINE
  5
452
100
AcDbEntity
  8
RACCORDO
100
AcDbLine
 62
253
  6
CONTINUOUS
 10
-66.977081922
 20
27.4260501773
 11
-66.9191211116
 21
28.3087410907
  0
LINE
  5
453
100
AcDbEntity
  8
RACCORDO
100
AcDbLine
 62
253
  6
CONTINUOUS
 10
-66.6366460461
 20
28.3322723393
 11
-66.5349328308
 21
29.7913074987
  0
LINE
  5
454
100
AcDbEntity
  8
RACCORDO
100
AcDbLine
 62
253
  6
CONTINUOUS
 10
-66.1563873278
 20
38.4342444427
 11
-66.0896321317
 21
39.3976726912
  0
LINE
  5
455
100
AcDbEntity
  8
RACCORDO
100
AcDbLine
 62
253
  6
CONTINUOUS
 10
-65.9010393559
 20
38.2638063455
 11
-65.830034497
 21
39.280210984
  0
LINE
  5
456
100
AcDbEntity
  8
RACCORDO
100
AcDbLine
 62
253
  6
CONTINUOUS
 10
-66.9191211116
 20
28.3087410907
 11
-66.8172266163
 21
29.7508004055
  0
LINE
  5
457
100
AcDbEntity
  8
RACCORDO
100
AcDbLine
 62
253
  6
CONTINUOUS
 10
-66.5349328308
 20
29.7913074987
 11
-66.42661824
 21
31.2945045089
  0
LINE
  5
458
100
AcDbEntity
  8
RACCORDO
100
AcDbLine
 62
253
  6
CONTINUOUS
 10
-66.8172266163
 20
29.7508004055
 11
-66.7086544082
 21
31.2296192536
  0
LINE
  5
459
100
AcDbEntity
  8
RACCORDO
100
AcDbLine
 62
253
  6
CONTINUOUS
 10
-66.42661824
 20
31.2945045089
 11
-66.2822937137
 21
33.2316128312
  0
LINE
  5
45A
100
AcDbEntity
  8
RACCORDO
100
AcDbLine
 62
253
  6
CONTINUOUS
 10
-66.7086544082
 20
31.2296192536
 11
-66.5998565319
 21
32.6684146407
  0
LWPOLYLINE
  5
45B
100
AcDbEntity
  8
RACCORDO
100
AcDbPolyline
 62
253
  6
CONTINUOUS
 90
3
 70
0
 10
-66.2822937137
 20
33.2316128312
 10
-66.1095363598
 20
35.4933908661
 10
-65.9010393559
 20
38.2638063455
  0
LINE
  5
45C
100
AcDbEntity
  8
RACCORDO
100
AcDbLine
 62
253
  6
CONTINUOUS
 10
-66.2949346995
 20
36.5929965753
 11
-66.1563873278
 21
38.4342444427
  0
LINE
  5
45D
100
AcDbEntity
  8
RACCORDO
100
AcDbLine
 62
253
  6
CONTINUOUS
 10
-66.5998565319
 20
32.6684146407
 11
-66.2949346995
 21
36.5929965753
  0
LWPOLYLINE
  5
45E
100
AcDbEntity
  8
RACCORDO
100
AcDbPolyline
 62
7
  6
CONTINUOUS
 90
9
 70
0
 10
-68.6249360045
 20
22.7466212519
 10
-68.6249704206
 20
22.7469916457
 10
-68.6250356138
 20
22.747730866
 10
-68.6250062479
 20
22.7473484425
 10
-68.6248970601
 20
22.7457861383
 10
-68.6247390947
 20
22.7432700795
 10
-68.6245443748
 20
22.7398155273
 10
-68.6243205107
 20
22.7353820624
 10
-68.6240819958
 20
22.730121149
  0
LINE
  5
45F
100
AcDbEntity
  8
RACCORDO
100
AcDbLine
 62
253
  6
CONTINUOUS
 10
-65.7904321692
 20
-40.6172462823
 11
-65.830044655
 21
-40.0032326979
  0
LINE
  5
460
100
AcDbEntity
  8
RACCORDO
100
AcDbLine
 62
253
  6
CONTINUOUS
 10
-66.6944743269
 20
-28.1701969688
 11
-66.7482370199
 21
-27.28358793
  0
LINE
  5
461
100
AcDbEntity
  8
RACCORDO
100
AcDbLine
 62
253
  6
CONTINUOUS
 10
-66.7482370199
 20
-27.28358793
 11
-66.7979025685
 21
-26.3958380094
  0
LINE
  5
462
100
AcDbEntity
  8
RACCORDO
100
AcDbLine
 62
253
  6
CONTINUOUS
 10
-67.0807375391
 20
-26.3800588023
 11
-67.1339060119
 21
-25.3396691098
  0
LINE
  5
463
100
AcDbEntity
  8
RACCORDO
100
AcDbLine
 62
253
  6
CONTINUOUS
 10
-66.7979025685
 20
-26.3958380094
 11
-66.850957723
 21
-25.3529836262
  0
LINE
  5
464
100
AcDbEntity
  8
RACCORDO
100
AcDbLine
 62
253
  6
CONTINUOUS
 10
-67.1339060119
 20
-25.3396691098
 11
-67.1692284986
 21
-24.5681653943
  0
LINE
  5
465
100
AcDbEntity
  8
RACCORDO
100
AcDbLine
 62
253
  6
CONTINUOUS
 10
-66.850957723
 20
-25.3529836262
 11
-66.8862033967
 21
-24.5820627013
  0
LINE
  5
466
100
AcDbEntity
  8
RACCORDO
100
AcDbLine
 62
253
  6
CONTINUOUS
 10
-67.1692284986
 20
-24.5681653943
 11
-67.1886363928
 21
-24.1051347922
  0
LINE
  5
467
100
AcDbEntity
  8
RACCORDO
100
AcDbLine
 62
253
  6
CONTINUOUS
 10
-66.8862033967
 20
-24.5820627013
 11
-66.9055679231
 21
-24.1194033524
  0
LWPOLYLINE
  5
468
100
AcDbEntity
  8
RACCORDO
100
AcDbPolyline
 62
253
  6
CONTINUOUS
 90
15
 70
0
 10
-67.1886364269
 20
-24.1051347922
 10
-67.3078874479
 20
-20.9455998555
 10
-67.4100839719
 20
-17.7838852301
 10
-67.4952447858
 20
-14.6201165435
 10
-67.5633855243
 20
-11.4542714205
 10
-67.6145040524
 20
-8.2866245113
 10
-67.6485897985
 20
-5.1177476659
 10
-67.6656407897
 20
-1.9473092312
 10
-67.6656408713
 20
1.2241047417
 10
-67.648590032
 20
4.3945453451
 10
-67.6145043755
 20
7.5634276282
 10
-67.5633858296
 20
10.7310821419
 10
-67.4952450138
 20
13.896933734
 10
-67.4100841213
 20
17.0607066542
 10
-67.3078875158
 20
20.2224243782
  0
LWPOLYLINE
  5
469
100
AcDbEntity
  8
RACCORDO
100
AcDbPolyline
 62
253
  6
CONTINUOUS
 90
15
 70
0
 10
-66.9055679231
 20
-24.1194033524
 10
-67.0247277228
 20
-20.9585368212
 10
-67.1268684587
 20
-17.7947933367
 10
-67.2119901309
 20
-14.6286500585
 10
-67.2800956586
 20
-11.4607884203
 10
-67.3311821226
 20
-8.2914818602
 10
-67.3652407655
 20
-5.1205947712
 10
-67.3822686854
 20
-1.9481422947
 10
-67.3822687841
 20
1.2249363936
 10
-67.3652410095
 20
4.3973910439
 10
-67.3311824178
 20
7.5682835236
 10
-67.2800959528
 20
10.7375976411
 10
-67.2119903929
 20
13.9054658659
 10
-67.1268686645
 20
17.0716137155
 10
-67.0247278412
 20
20.2353608009
  0
LINE
  5
46A
100
AcDbEntity
  8
RACCORDO
100
AcDbLine
 62
7
  6
CONTINUOUS
 10
-68.6240819958
 20
22.730121149
 11
-68.6235797907
 21
22.7170842584
  0
LINE
  5
46B
100
AcDbEntity
  8
RACCORDO
100
AcDbLine
 62
7
  6
CONTINUOUS
 10
-68.6235797907
 20
22.7170842584
 11
-68.6230953153
 21
22.7012136712
  0
LINE
  5
46C
100
AcDbEntity
  8
RACCORDO
100
AcDbLine
 62
7
  6
CONTINUOUS
 10
-68.6230953153
 20
22.7012136712
 11
-68.6226607332
 21
22.6826298614
  0
LINE
  5
46D
100
AcDbEntity
  8
RACCORDO
100
AcDbLine
 62
7
  6
CONTINUOUS
 10
-68.6226607332
 20
22.6826298614
 11
-68.622288855
 21
22.6611834998
  0
LINE
  5
46E
100
AcDbEntity
  8
RACCORDO
100
AcDbLine
 62
253
  6
CONTINUOUS
 10
-68.6218144708
 20
22.7344733039
 11
-68.6211775731
 21
22.6977579627
  0
LINE
  5
46F
100
AcDbEntity
  8
RACCORDO
100
AcDbLine
 62
7
  6
CONTINUOUS
 10
-68.622288855
 20
22.6611834998
 11
-68.6219989211
 21
22.6371813673
  0
LINE
  5
470
100
AcDbEntity
  8
RACCORDO
100
AcDbLine
 62
253
  6
CONTINUOUS
 10
-68.6211775731
 20
22.6977579627
 11
-68.622288855
 21
22.6611834998
  0
LINE
  5
471
100
AcDbEntity
  8
RACCORDO
100
AcDbLine
 62
7
  6
CONTINUOUS
 10
-68.6219989211
 20
22.6371813673
 11
-68.6218062617
 21
22.6107278241
  0
LINE
  5
472
100
AcDbEntity
  8
RACCORDO
100
AcDbLine
 62
253
  6
CONTINUOUS
 10
-68.6207778019
 20
22.6572907402
 11
-68.6206653947
 21
22.6357190084
  0
LINE
  5
473
100
AcDbEntity
  8
RACCORDO
100
AcDbLine
 62
7
  6
CONTINUOUS
 10
-68.621798194
 20
-23.3323198946
 11
-68.6219876676
 21
-23.3591624537
  0
LINE
  5
474
100
AcDbEntity
  8
RACCORDO
100
AcDbLine
 62
253
  6
CONTINUOUS
 10
-68.6222762083
 20
-23.383479133
 11
-68.6211560926
 21
-23.4193121573
  0
LINE
  5
475
100
AcDbEntity
  8
RACCORDO
100
AcDbLine
 62
7
  6
CONTINUOUS
 10
-68.6219876676
 20
-23.3591624537
 11
-68.6222762083
 21
-23.383479133
  0
LINE
  5
476
100
AcDbEntity
  8
RACCORDO
100
AcDbLine
 62
7
  6
CONTINUOUS
 10
-68.6222762083
 20
-23.383479133
 11
-68.6226477394
 21
-23.4051683829
  0
LWPOLYLINE
  5
477
100
AcDbEntity
  8
RACCORDO
100
AcDbPolyline
 62
253
  6
CONTINUOUS
 90
18
 70
0
 10
-68.6211560926
 20
-23.4193121573
 10
-68.6217730961
 20
-23.4557375824
 10
-68.6221653167
 20
-23.4725126314
 10
-68.6226131282
 20
-23.4883082403
 10
-68.6231161695
 20
-23.503130135
 10
-68.6236711315
 20
-23.5169496378
 10
-68.624278459
 20
-23.5297646187
 10
-68.6249378185
 20
-23.5415772152
 10
-68.6256447627
 20
-23.5523651513
 10
-68.6264001082
 20
-23.5621161568
 10
-68.6272031537
 20
-23.5708425078
 10
-68.6280472056
 20
-23.5785587477
 10
-68.6289329949
 20
-23.5852497165
 10
-68.6298599088
 20
-23.5909305782
 10
-68.6308192678
 20
-23.5956613616
 10
-68.631808226
 20
-23.599462077
 10
-68.6328297516
 20
-23.6023127164
 10
-68.6338838954
 20
-23.6042132805
  0
LINE
  5
478
100
AcDbEntity
  8
RACCORDO
100
AcDbLine
 62
7
  6
CONTINUOUS
 10
-68.6226477394
 20
-23.4051683829
 11
-68.6230831612
 21
-23.423928131
  0
LINE
  5
479
100
AcDbEntity
  8
RACCORDO
100
AcDbLine
 62
7
  6
CONTINUOUS
 10
-68.6230831612
 20
-23.423928131
 11
-68.623568222
 21
-23.4399142109
  0
LWPOLYLINE
  5
47A
100
AcDbEntity
  8
RACCORDO
100
AcDbPolyline
 62
7
  6
CONTINUOUS
 90
7
 70
0
 10
-68.623568222
 20
-23.4399142109
 10
-68.6240697283
 20
-23.4530185189
 10
-68.6243069687
 20
-23.4582819615
 10
-68.6245294225
 20
-23.4627111654
 10
-68.6247243903
 20
-23.4661917504
 10
-68.6248855907
 20
-23.4687794365
 10
-68.6249413207
 20
-23.4696066414
  0
LINE
  5
47B
100
AcDbEntity
  8
RACCORDO
100
AcDbLine
 62
253
  6
CONTINUOUS
 10
-67.3078875158
 20
20.2224243782
 11
-67.1758465831
 21
23.6906596161
  0
LINE
  5
47C
100
AcDbEntity
  8
RACCORDO
100
AcDbLine
 62
253
  6
CONTINUOUS
 10
-67.0247278412
 20
20.2353608009
 11
-66.8928068172
 21
23.704678209
  0
LINE
  5
47D
100
AcDbEntity
  8
RACCORDO
100
AcDbLine
 62
253
  6
CONTINUOUS
 10
-67.1758465831
 20
23.6906596161
 11
-67.1412682722
 21
24.4622127248
  0
LINE
  5
47E
100
AcDbEntity
  8
RACCORDO
100
AcDbLine
 62
253
  6
CONTINUOUS
 10
-66.8928068172
 20
23.704678209
 11
-66.858303937
 21
24.4756456331
  0
LWPOLYLINE
  5
47F
100
AcDbEntity
  8
RACCORDO
100
AcDbPolyline
 62
253
  6
CONTINUOUS
 90
14
 70
0
 10
-65.744074471
 20
40.7146523179
 10
-65.7323707629
 20
40.9603921651
 10
-65.7226392923
 20
41.1919201679
 10
-65.7148685324
 20
41.4090466153
 10
-65.7092029188
 20
41.6116107864
 10
-65.7056552774
 20
41.7994371926
 10
-65.7042127823
 20
41.9723821441
 10
-65.7049813913
 20
42.1303384804
 10
-65.7079716688
 20
42.2731467891
 10
-65.7131730504
 20
42.4007183987
 10
-65.7206598014
 20
42.5130277337
 10
-65.730456677
 20
42.6099711278
 10
-65.742538922
 20
42.6914068374
 10
-65.7569065364
 20
42.7572381941
  0
LWPOLYLINE
  5
480
100
AcDbEntity
  8
RACCORDO
100
AcDbPolyline
 62
253
  6
CONTINUOUS
 90
14
 70
0
 10
-66.0240182095
 20
40.5010501846
 10
-66.0122384953
 20
40.7428568925
 10
-66.0024318438
 20
40.9706462979
 10
-65.9946371326
 20
41.1844662863
 10
-65.9889107071
 20
41.3837864834
 10
-65.9853021601
 20
41.5685735391
 10
-65.9838434905
 20
41.7388784714
 10
-65.984568221
 20
41.8942972454
 10
-65.987514018
 20
42.0347976512
 10
-65.9927077172
 20
42.1604264033
 10
-66.0001680107
 20
42.2708972284
 10
-66.0099173959
 20
42.3661182725
 10
-66.021978261
 20
42.4461919459
 10
-66.0363657619
 20
42.5111223873
  0
LINE
  5
481
100
AcDbEntity
  8
RACCORDO
100
AcDbLine
 62
253
  6
CONTINUOUS
 10
-66.858303937
 20
24.4756456331
 11
-66.8211956157
 21
25.2284223021
  0
LWPOLYLINE
  5
482
100
AcDbEntity
  8
RACCORDO
100
AcDbPolyline
 62
253
  6
CONTINUOUS
 90
3
 70
0
 10
-67.1412682722
 20
24.4622127248
 10
-67.1040810807
 20
25.2139534507
 10
-67.0807374407
 20
25.6568872564
  0
LINE
  5
483
100
AcDbEntity
  8
RACCORDO
100
AcDbLine
 62
253
  6
CONTINUOUS
 10
-66.8211956157
 20
25.2284223021
 11
-66.7735841081
 21
26.1166649951
  0
LINE
  5
484
100
AcDbEntity
  8
RACCORDO
100
AcDbLine
 62
253
  6
CONTINUOUS
 10
-65.7731850033
 20
40.181357506
 11
-65.744074471
 21
40.7146523179
  0
LINE
  5
485
100
AcDbEntity
  8
RACCORDO
100
AcDbLine
 62
253
  6
CONTINUOUS
 10
-66.0532475199
 20
39.976113564
 11
-66.0240182095
 21
40.5010501846
  0
LWPOLYLINE
  5
486
100
AcDbEntity
  8
RACCORDO
100
AcDbPolyline
 62
253
  6
CONTINUOUS
 90
3
 70
0
 10
-66.7735841081
 20
26.1166649951
 10
-66.7218647625
 20
27.0038732024
 10
-66.6944745186
 20
27.4470205482
  0
LWPOLYLINE
  5
487
100
AcDbEntity
  8
RACCORDO
100
AcDbPolyline
 62
253
  6
CONTINUOUS
 90
3
 70
0
 10
-65.830034497
 20
39.280210984
 10
-65.8094422219
 20
39.593760031
 10
-65.7731850033
 20
40.181357506
  0
LINE
  5
488
100
AcDbEntity
  8
RACCORDO
100
AcDbLine
 62
253
  6
CONTINUOUS
 10
-68.6551001529
 20
21.3495473343
 11
-68.6554869201
 21
21.3495201158
  0
LWPOLYLINE
  5
489
100
AcDbEntity
  8
0
100
AcDbPolyline
 62
253
  6
CONTINUOUS
 90
4
 70
0
 10
-60.6292584862
 20
24.6157717808
 10
-60.7545735535
 20
24.6090293467
 10
-60.884790231
 20
24.6026615206
 10
-61.0196777977
 20
24.5966884301
  0
LINE
  5
48A
100
AcDbEntity
  8
DRAFT
100
AcDbLine
 62
7
  6
CONTINUOUS
 10
-63.4292584862
 20
-45.3615866944
 11
-63.4292584862
 21
44.6384133056
  0
LINE
  5
48B
100
AcDbEntity
  8
DRAFT
100
AcDbLine
 62
7
  6
CONTINUOUS
 10
-62.6292584862
 20
-3.8615866944
 11
-62.6292584862
 21
3.1384133056
  0
LINE
  5
48C
100
AcDbEntity
  8
0
100
AcDbLine
 62
253
  6
CONTINUOUS
 10
-60.6292584862
 20
24.7953017403
 11
-60.8845502849
 21
24.7836684599
  0
LINE
  5
48D
100
AcDbEntity
  8
0
100
AcDbLine
 62
253
  6
CONTINUOUS
 10
-61.0196777977
 20
24.5966884301
 11
-61.3025969216
 21
24.5860049241
  0
LINE
  5
48E
100
AcDbEntity
  8
0
100
AcDbLine
 62
253
  6
CONTINUOUS
 10
-60.8845502849
 20
24.7836684599
 11
-61.1585747046
 21
24.7734386679
  0
LINE
  5
48F
100
AcDbEntity
  8
0
100
AcDbLine
 62
253
  6
CONTINUOUS
 10
-61.1585747046
 20
24.7734386679
 11
-61.4494238706
 21
24.7647586173
  0
LINE
  5
490
100
AcDbEntity
  8
0
100
AcDbLine
 62
253
  6
CONTINUOUS
 10
-61.3025969216
 20
24.5860049241
 11
-61.6011253784
 21
24.577144164
  0
LINE
  5
491
100
AcDbEntity
  8
0
100
AcDbLine
 62
253
  6
CONTINUOUS
 10
-61.4494238706
 20
24.7647586173
 11
-61.7548535328
 21
24.7577698633
  0
LINE
  5
492
100
AcDbEntity
  8
0
100
AcDbLine
 62
253
  6
CONTINUOUS
 10
-61.6011253784
 20
24.577144164
 11
-61.9131665415
 21
24.5702498475
  0
LINE
  5
493
100
AcDbEntity
  8
0
100
AcDbLine
 62
253
  6
CONTINUOUS
 10
-61.7548535328
 20
24.7577698633
 11
-62.0729128393
 21
24.7525963036
  0
LINE
  5
494
100
AcDbEntity
  8
0
100
AcDbLine
 62
253
  6
CONTINUOUS
 10
-61.9131665415
 20
24.5702498475
 11
-62.2367672959
 21
24.5654487835
  0
LINE
  5
495
100
AcDbEntity
  8
0
100
AcDbLine
 62
253
  6
CONTINUOUS
 10
-62.0729128393
 20
24.7525963036
 11
-62.4014931651
 21
24.7493371064
  0
LINE
  5
496
100
AcDbEntity
  8
0
100
AcDbLine
 62
253
  6
CONTINUOUS
 10
-62.2367672959
 20
24.5654487835
 11
-62.5695276647
 21
24.5628311458
  0
LINE
  5
497
100
AcDbEntity
  8
RACCORDO
100
AcDbLine
 62
253
  6
CONTINUOUS
 10
-63.4292584862
 20
24.8019821905
 11
-66.843462904
 21
24.7839668503
  0
LINE
  5
498
100
AcDbEntity
  8
0
100
AcDbLine
 62
253
  6
CONTINUOUS
 10
-62.4014931651
 20
24.7493371064
 11
-62.7381657911
 21
24.7480641892
  0
LINE
  5
499
100
AcDbEntity
  8
RACCORDO
100
AcDbLine
 62
253
  6
CONTINUOUS
 10
-68.9843735337
 20
23.3819850352
 11
-67.1886363978
 21
23.381961279
  0
LINE
  5
49A
100
AcDbEntity
  8
0
100
AcDbLine
 62
253
  6
CONTINUOUS
 10
-62.5695276647
 20
24.5628311458
 11
-62.9094375088
 21
24.5624645093
  0
LINE
  5
49B
100
AcDbEntity
  8
0
100
AcDbLine
 62
253
  6
CONTINUOUS
 10
-62.7381657911
 20
24.7480641892
 11
-63.0814054178
 21
24.7488276046
  0
LWPOLYLINE
  5
49C
100
AcDbEntity
  8
0
100
AcDbPolyline
 62
253
  6
CONTINUOUS
 90
3
 70
0
 10
-62.9094375088
 20
24.5624645093
 10
-63.2550205829
 20
24.5643880639
 10
-63.4292584862
 20
24.5662172142
  0
LINE
  5
49D
100
AcDbEntity
  8
0
100
AcDbLine
 62
253
  6
CONTINUOUS
 10
-63.0814054178
 20
24.7488276046
 11
-63.4292584862
 21
24.7516550528
  0
LINE
  5
49E
100
AcDbEntity
  8
0
100
AcDbLine
 62
7
  6
CONTINUOUS
 10
-60.6292584862
 20
-43.5115866944
 11
-60.6292584862
 21
-25.3389451697
  0
LINE
  5
49F
100
AcDbEntity
  8
DRAFT
100
AcDbLine
 62
7
  6
CONTINUOUS
 10
-60.6292584862
 20
-25.3389451697
 11
-60.6292584862
 21
-4.2142406558
  0
LINE
  5
4A0
100
AcDbEntity
  8
DRAFT
100
AcDbLine
 62
7
  6
CONTINUOUS
 10
-60.6292584862
 20
3.491067267
 11
-60.6292584862
 21
24.615771781
  0
LINE
  5
4A1
100
AcDbEntity
  8
0
100
AcDbLine
 62
7
  6
CONTINUOUS
 10
-60.6292584862
 20
24.615771781
 11
-60.6292584862
 21
42.7884133056
  0
LWPOLYLINE
  5
4A2
100
AcDbEntity
  8
RACCORDO
100
AcDbPolyline
 62
253
  6
CONTINUOUS
 90
16
 70
0
 10
-65.75690621
 20
-43.4804100126
 10
-65.7425376001
 20
-43.4145729153
 10
-65.7304547058
 20
-43.3331285925
 10
-65.7206575273
 20
-43.2361734147
 10
-65.7131708276
 20
-43.1238475714
 10
-65.7079698437
 20
-42.9962553957
 10
-65.7049802859
 20
-42.8534269398
 10
-65.7042128411
 20
-42.6954543668
 10
-65.7056568223
 20
-42.5224963031
 10
-65.7092058797
 20
-42.3346588854
 10
-65.714872722
 20
-42.1320865069
 10
-65.7226446403
 20
-41.9149551672
 10
-65.7323771585
 20
-41.6834232394
 10
-65.7440817941
 20
-41.4376794778
 10
-65.7577470296
 20
-41.1779320891
 10
-65.7904321692
 20
-40.6172462823
  0
LWPOLYLINE
  5
4A3
100
AcDbEntity
  8
RACCORDO
100
AcDbPolyline
 62
253
  6
CONTINUOUS
 90
15
 70
0
 10
-66.0363657619
 20
-43.2342957761
 10
-66.0219761745
 20
-43.169350655
 10
-66.0099139317
 20
-43.089260451
 10
-66.0001638993
 20
-42.9940210239
 10
-65.9927038802
 20
-42.8835287527
 10
-65.9875112223
 20
-42.7578766986
 10
-65.9845667495
 20
-42.6173547614
 10
-65.9838436512
 20
-42.4619171714
 10
-65.985304308
 20
-42.2915951939
 10
-65.9889147481
 20
-42.106793658
 10
-65.9946428597
 20
-41.9074623738
 10
-66.0024392108
 20
-41.6936338659
 10
-66.0122473857
 20
-41.4658368223
 10
-66.0240284846
 20
-41.2240227744
 10
-66.0532601968
 20
-40.6990741826
  0
LINE
  5
4A4
100
AcDbEntity
  8
RACCORDO
100
AcDbLine
 62
253
  6
CONTINUOUS
 10
-68.6338838954
 20
-23.6042132805
 11
-69.1198956826
 21
-24.2995115861
  0
LINE
  5
4A5
100
AcDbEntity
  8
RACCORDO
100
AcDbLine
 62
7
  6
CONTINUOUS
 10
-68.9941347194
 20
-23.8638836162
 11
-68.6217974517
 21
-23.3321308895
  0
LINE
  5
4A6
100
AcDbEntity
  8
RACCORDO
100
AcDbLine
 62
253
  6
CONTINUOUS
 10
-63.4292584862
 20
28.8019821905
 11
-66.6062055216
 21
28.7743349484
  0
LINE
  5
4A7
100
AcDbEntity
  8
RACCORDO
100
AcDbLine
 62
7
  6
CONTINUOUS
 10
-68.9941345985
 20
23.1407100547
 11
-68.6217988937
 21
22.6089595601
  0
LINE
  5
4A8
100
AcDbEntity
  8
RACCORDO
100
AcDbLine
 62
253
  6
CONTINUOUS
 10
-69.1198956904
 20
23.5763380377
 11
-68.6338838954
 21
22.8810398917
  0
LWPOLYLINE
  5
4A9
100
AcDbEntity
  8
RACCORDO
100
AcDbPolyline
 62
253
  6
CONTINUOUS
 90
17
 70
0
 10
-68.6338838954
 20
22.8810398917
 10
-68.6328379448
 20
22.8791440508
 10
-68.6318259355
 20
22.8763343719
 10
-68.6308478279
 20
22.8726108544
 10
-68.6299017813
 20
22.8679960772
 10
-68.6289895406
 20
22.8624674592
 10
-68.6281164416
 20
22.8559572597
 10
-68.6272824656
 20
22.8484606168
 10
-68.6264875135
 20
22.8399823886
 10
-68.6257368037
 20
22.8304694136
 10
-68.6250302079
 20
22.8199121688
 10
-68.6243677123
 20
22.8083201714
 10
-68.6237547167
 20
22.7956688202
 10
-68.6231909567
 20
22.7819390565
 10
-68.6226765389
 20
22.7671499313
 10
-68.6222174502
 20
22.7513340072
 10
-68.6218144708
 20
22.7344733039
  0
LWPOLYLINE
  5
4AA
100
AcDbEntity
  8
0
100
AcDbPolyline
 62
253
  6
CONTINUOUS
 90
19
 70
0
 10
-60.6292584862
 20
28.4959492352
 10
-60.7519163802
 20
28.5104209527
 10
-60.8795817514
 20
28.5243081142
 10
-61.0120572481
 20
28.5375795399
 10
-61.1491206734
 20
28.5502018245
 10
-61.2905957008
 20
28.5621460789
 10
-61.4363415985
 20
28.5733884057
 10
-61.5861525963
 20
28.5839016274
 10
-61.7397686297
 20
28.5936546761
 10
-61.8969528642
 20
28.6026183307
 10
-62.0574377132
 20
28.61076347
 10
-62.2209822546
 20
28.618069877
 10
-62.3873911006
 20
28.6245203359
 10
-62.5564646651
 20
28.630095678
 10
-62.7278590781
 20
28.634771692
 10
-62.9011500565
 20
28.6385295329
 10
-63.0759913059
 20
28.6413601873
 10
-63.2521280813
 20
28.6432566619
 10
-63.4292584862
 20
28.6442108123
  0
LWPOLYLINE
  5
4AB
100
AcDbEntity
  8
0
100
AcDbPolyline
 62
253
  6
CONTINUOUS
 90
19
 70
0
 10
-60.6292584862
 20
28.5653642952
 10
-60.7518745835
 20
28.5803481575
 10
-60.8794998915
 20
28.5947292463
 10
-61.011937564
 20
28.6084753175
 10
-61.148965183
 20
28.6215517532
 10
-61.2904075597
 20
28.6339287488
 10
-61.4361265673
 20
28.6455817662
 10
-61.5859174228
 20
28.6564826996
 10
-61.7395197231
 20
28.666599308
 10
-61.8966972516
 20
28.6759013332
 10
-62.0571820911
 20
28.6843585504
 10
-62.2207337531
 20
28.6919500017
 10
-62.3871586597
 20
28.6986578911
 10
-62.5562591183
 20
28.7044623568
 10
-62.7276889937
 20
28.7093381327
 10
-62.9010193617
 20
28.7132654893
 10
-63.0759018502
 20
28.7162350368
 10
-63.2520824315
 20
28.7182395536
 10
-63.4292584862
 20
28.719270581
  0
LWPOLYLINE
  5
4AC
100
AcDbEntity
  8
RACCORDO
100
AcDbPolyline
 62
253
  6
CONTINUOUS
 90
10
 70
0
 10
-66.0363657619
 20
42.5111223873
 10
-66.0534408589
 20
42.5723899438
 10
-66.0704804235
 20
42.6306878166
 10
-66.0874871458
 20
42.6860165956
 10
-66.1044644128
 20
42.7383790198
 10
-66.1214136348
 20
42.787773445
 10
-66.1383345162
 20
42.8341938441
 10
-66.1552284937
 20
42.8776385172
 10
-66.1720984647
 20
42.9181100891
 10
-66.1889463037
 20
42.9556089781
  0
LWPOLYLINE
  5
4AD
100
AcDbEntity
  8
RACCORDO
100
AcDbPolyline
 62
253
  6
CONTINUOUS
 90
10
 70
0
 10
-65.7569073162
 20
42.7572381538
 10
-65.7739830505
 20
42.8185569974
 10
-65.7910279812
 20
42.8769083695
 10
-65.8080421083
 20
42.9322909119
 10
-65.8250241069
 20
42.9847046473
 10
-65.8419753019
 20
43.0341469513
 10
-65.8588996678
 20
43.0806132563
 10
-65.8757985295
 20
43.1241020933
 10
-65.8926705621
 20
43.1646143889
 10
-65.9095157656
 20
43.2021499301
  0
LWPOLYLINE
  5
4AE
100
AcDbEntity
  8
RACCORDO
100
AcDbPolyline
 62
253
  6
CONTINUOUS
 90
3
 70
0
 10
-66.7045720146
 20
-44.9598409593
 10
-66.4240427508
 20
-44.2426838385
 10
-66.3305635482
 20
-44.0052873202
  0
LINE
  5
4AF
100
AcDbEntity
  8
RACCORDO
100
AcDbLine
 62
253
  6
CONTINUOUS
 10
-66.4253656917
 20
-45.2045673693
 11
-66.0511416207
 21
-44.2513600936
  0
LWPOLYLINE
  5
4B0
100
AcDbEntity
  8
RACCORDO
100
AcDbPolyline
 62
253
  6
CONTINUOUS
 90
10
 70
0
 10
-66.3305635482
 20
-44.0052873202
 10
-66.3169855375
 20
-43.9712976701
 10
-66.3028683304
 20
-43.9367357339
 10
-66.2882119106
 20
-43.9016014433
 10
-66.2730163258
 20
-43.8658943571
 10
-66.2572814765
 20
-43.8296147771
 10
-66.2410071161
 20
-43.7927637489
 10
-66.2241931321
 20
-43.7553415725
 10
-66.2068395463
 20
-43.7173478031
 10
-66.1889463037
 20
-43.6787823668
  0
LWPOLYLINE
  5
4B1
100
AcDbEntity
  8
RACCORDO
100
AcDbPolyline
 62
253
  6
CONTINUOUS
 90
10
 70
0
 10
-66.0511416207
 20
-44.2513600936
 10
-66.0375620793
 20
-44.2174198223
 10
-66.0234434483
 20
-44.1829073214
 10
-66.0087857277
 20
-44.1478228999
 10
-65.9935890203
 20
-44.1121668711
 10
-65.9778532233
 20
-44.0759395415
 10
-65.9615780281
 20
-44.0391412096
 10
-65.9447633319
 20
-44.0017721805
 10
-65.9274092374
 20
-43.9638327677
 10
-65.9095157448
 20
-43.9253232812
  0
LWPOLYLINE
  5
4B2
100
AcDbEntity
  8
RACCORDO
100
AcDbPolyline
 62
253
  6
CONTINUOUS
 90
10
 70
0
 10
-65.909515748
 20
-43.925323281
 10
-65.8926706051
 20
-43.8877878772
 10
-65.875798618
 20
-43.8472757026
 10
-65.8588997869
 20
-43.8037869622
 10
-65.8419754516
 20
-43.7573207639
 10
-65.8250242722
 20
-43.7078785313
 10
-65.8080422285
 20
-43.6554646811
 10
-65.7910279804
 20
-43.6000817555
 10
-65.773982868
 20
-43.5417297454
 10
-65.7569068913
 20
-43.4804099774
  0
LWPOLYLINE
  5
4B3
100
AcDbEntity
  8
RACCORDO
100
AcDbPolyline
 62
253
  6
CONTINUOUS
 90
10
 70
0
 10
-66.1889463037
 20
-43.6787823668
 10
-66.1720984629
 20
-43.6412834715
 10
-66.1552284904
 20
-43.6008118949
 10
-66.1383345119
 20
-43.557367219
 10
-66.1214136299
 20
-43.5109468189
 10
-66.1044644078
 20
-43.4615523945
 10
-66.0874871411
 20
-43.4091899722
 10
-66.0704804197
 20
-43.3538611962
 10
-66.0534408567
 20
-43.2955633273
 10
-66.0363657619
 20
-43.2342957761
  0
LWPOLYLINE
  5
4B4
100
AcDbEntity
  8
RACCORDO
100
AcDbPolyline
 62
253
  6
CONTINUOUS
 90
10
 70
0
 10
-65.9095157617
 20
43.2021499303
 10
-65.927409233
 20
43.2406593685
 10
-65.9447633118
 20
43.2785987464
 10
-65.961577998
 20
43.3159677533
 10
-65.9778531897
 20
43.3527660766
 10
-65.9935889888
 20
43.3889934092
 10
-66.008785701
 20
43.4246494478
 10
-66.0234434279
 20
43.4597338843
 10
-66.0375620678
 20
43.4942464064
 10
-66.0511416207
 20
43.5281867048
  0
LWPOLYLINE
  5
4B5
100
AcDbEntity
  8
RACCORDO
100
AcDbPolyline
 62
253
  6
CONTINUOUS
 90
10
 70
0
 10
-66.1889463037
 20
42.9556089781
 10
-66.2068395321
 20
42.9941743845
 10
-66.2241931083
 20
43.0321681318
 10
-66.2410070866
 20
43.0695902938
 10
-66.2572814449
 20
43.1064413159
 10
-66.2730162953
 20
43.1427208974
 10
-66.2882118842
 20
43.1784279918
 10
-66.3028683106
 20
43.2135622967
 10
-66.3169855267
 20
43.2481242538
 10
-66.3305635482
 20
43.2821139314
  0
LINE
  5
4B6
100
AcDbEntity
  8
RACCORDO
100
AcDbLine
 62
253
  6
CONTINUOUS
 10
-66.0511416207
 20
43.5281867048
 11
-66.4253656916
 21
44.4813939805
  0
LINE
  5
4B7
100
AcDbEntity
  8
RACCORDO
100
AcDbLine
 62
253
  6
CONTINUOUS
 10
-66.3305635482
 20
43.2821139314
 11
-66.6632306461
 21
44.1304458636
  0
LINE
  5
4B8
100
AcDbEntity
  8
RACCORDO
100
AcDbLine
 62
253
  6
CONTINUOUS
 10
-66.6632306461
 20
44.1304458636
 11
-66.7045720146
 21
44.2366675705
  0
LINE
  5
4B9
100
AcDbEntity
  8
RACCORDO
100
AcDbLine
 62
253
  6
CONTINUOUS
 10
-63.4292584862
 20
43.3318485065
 11
-65.9095157617
 21
43.2021499303
  0
LINE
  5
4BA
100
AcDbEntity
  8
RACCORDO
100
AcDbLine
 62
253
  6
CONTINUOUS
 10
-63.4292584862
 20
42.8784133056
 11
-65.7569073162
 21
42.7572381538
  0
LINE
  5
4BB
100
AcDbEntity
  8
DRAFT
100
AcDbLine
 62
7
  6
CONTINUOUS
 10
-63.4292584862
 20
44.6384133056
 11
-66.410448343
 21
44.4821757656
  0
LWPOLYLINE
  5
4BC
100
AcDbEntity
  8
0
100
AcDbPolyline
 62
253
  6
CONTINUOUS
 90
19
 70
0
 10
-63.4292584862
 20
42.8329486526
 10
-63.2618294752
 20
42.82673092
 10
-63.0961452052
 20
42.8130774457
 10
-62.9320409145
 20
42.792002317
 10
-62.7698344333
 20
42.7636181516
 10
-62.6088563419
 20
42.7278872054
 10
-62.4475453447
 20
42.6843142863
 10
-62.2846719895
 20
42.632091481
 10
-62.1214120763
 20
42.5710979029
 10
-61.9598392055
 20
42.5018700796
 10
-61.8004042978
 20
42.4245533318
 10
-61.6427065556
 20
42.3387596186
 10
-61.4874620353
 20
42.2446426347
 10
-61.3346567557
 20
42.1419887003
 10
-61.1846191314
 20
42.030808281
 10
-61.0386428606
 20
41.9119273034
 10
-60.8973920651
 20
41.7858582349
 10
-60.760836454
 20
41.6525484668
 10
-60.6292584862
 20
41.5122127151
  0
LWPOLYLINE
  5
4BD
100
AcDbEntity
  8
0
100
AcDbPolyline
 62
253
  6
CONTINUOUS
 90
19
 70
0
 10
-63.4292584862
 20
42.805104409
 10
-63.2618010898
 20
42.7986961076
 10
-63.0960368446
 20
42.7848738958
 10
-62.9318159448
 20
42.7636505806
 10
-62.7694616404
 20
42.7351357569
 10
-62.6083302573
 20
42.6992911315
 10
-62.446903647
 20
42.6556328103
 10
-62.2839996727
 20
42.6033781742
 10
-62.1207717462
 20
42.5424126498
 10
-61.9592314782
 20
42.4732524076
 10
-61.7998214734
 20
42.3960344839
 10
-61.6421664068
 20
42.3103847589
 10
-61.4869717388
 20
42.2164526175
 10
-61.3342235615
 20
42.1140234889
 10
-61.1842587956
 20
42.0031112506
 10
-61.0383665417
 20
41.8845364945
 10
-60.8972052362
 20
41.7588059569
 10
-60.7607423568
 20
41.6258636289
 10
-60.6292584862
 20
41.4859190471
  0
LWPOLYLINE
  5
4BE
100
AcDbEntity
  8
0
100
AcDbPolyline
 62
253
  6
CONTINUOUS
 90
19
 70
0
 10
-63.4292584862
 20
42.3816890162
 10
-63.2609694097
 20
42.3725527692
 10
-63.0938398327
 20
42.3563561991
 10
-62.9278799735
 20
42.3331011183
 10
-62.7634442626
 20
42.302861623
 10
-62.6001915555
 20
42.2655991527
 10
-62.4371449092
 20
42.2209739906
 10
-62.2736358553
 20
42.1684892805
 10
-62.1105579681
 20
42.1081013849
 10
-61.9492964617
 20
42.040136632
 10
-61.7902426652
 20
41.9646788891
 10
-61.6332677914
 20
41.8815101703
 10
-61.4789166732
 20
41.7907289672
 10
-61.3272089463
 20
41.6921552054
 10
-61.178550369
 20
41.5858475906
 10
-61.03406498
 20
41.4724859112
 10
-60.8943154104
 20
41.3524797325
 10
-60.7592918686
 20
41.2257779739
 10
-60.6292584862
 20
41.0925431517
  0
LWPOLYLINE
  5
4BF
100
AcDbEntity
  8
0
100
AcDbPolyline
 62
253
  6
CONTINUOUS
 90
19
 70
0
 10
-63.4292584862
 20
42.3200722608
 10
-63.2607319287
 20
42.3108498341
 10
-63.0933337878
 20
42.2946119055
 10
-62.9270894354
 20
42.2713616631
 10
-62.7623543788
 20
42.2411712622
 10
-62.5988179811
 20
42.2040052403
 10
-62.4355600863
 20
42.1595428466
 10
-62.2719634682
 20
42.1073194477
 10
-62.1088929805
 20
42.0472986609
 10
-61.9476700121
 20
41.9797880594
 10
-61.7886817619
 20
41.9048689435
 10
-61.6318227073
 20
41.8223412411
 10
-61.4776178171
 20
41.7322988693
 10
-61.3260951788
 20
41.63457234
 10
-61.1776615154
 20
41.5292244364
 10
-61.0334063097
 20
41.4169074219
 10
-60.893877367
 20
41.298015681
 10
-60.7590738273
 20
41.172504744
 10
-60.6292584862
 20
41.0405334348
  0
LWPOLYLINE
  5
4C0
100
AcDbEntity
  8
0
100
AcDbPolyline
 62
7
  6
CONTINUOUS
 90
14
 70
0
 10
-63.4292584862
 20
44.1384133056
 10
-63.2539253576
 20
44.1195111773
 10
-63.0794134023
 20
44.0935667119
 10
-62.906004895
 20
44.060620786
 10
-62.7339307435
 20
44.0207012036
 10
-62.5635277724
 20
43.9738591708
 10
-62.3952267993
 20
43.920213139
 10
-62.2293688403
 20
43.8599010851
 10
-62.0661408801
 20
43.7930095493
 10
-61.9057337906
 20
43.7196126742
 10
-61.7484111477
 20
43.6398184284
 10
-61.5944215736
 20
43.5537657958
 10
-61.4439419465
 20
43.4615579421
 10
-61.2971564245
 20
43.363287271
  0
LWPOLYLINE
  5
4C1
100
AcDbEntity
  8
0
100
AcDbPolyline
 62
7
  6
CONTINUOUS
 90
5
 70
0
 10
-61.0595724144
 20
-43.9080899433
 10
-61.0159896566
 20
-43.8725368277
 10
-60.8822192149
 20
-43.7573786175
 10
-60.7532395668
 20
-43.6369967741
 10
-60.6292584862
 20
-43.5115866944
  0
LINE
  5
4C2
100
AcDbEntity
  8
0
100
AcDbLine
 62
7
  6
CONTINUOUS
 10
-61.2971564245
 20
43.363287271
 11
-61.1543853356
 21
43.2591346677
  0
LWPOLYLINE
  5
4C3
100
AcDbEntity
  8
0
100
AcDbPolyline
 62
7
  6
CONTINUOUS
 90
16
 70
0
 10
-61.0595724144
 20
43.1849165545
 10
-61.1705040587
 20
43.27134052
 10
-61.3301192174
 20
43.3861060741
 10
-61.4926053631
 20
43.4922905037
 10
-61.6573912499
 20
43.5899374019
 10
-61.8240519035
 20
43.679177389
 10
-61.9922776415
 20
43.7601812637
 10
-62.1617511786
 20
43.8331187136
 10
-62.3319351898
 20
43.898086468
 10
-62.5022101014
 20
43.9551768591
 10
-62.6720659215
 20
44.0045490871
 10
-62.8412557125
 20
44.0464550705
 10
-63.0095962217
 20
44.081169561
 10
-63.1768381809
 20
44.1089339631
 10
-63.3426426536
 20
44.1299673532
 10
-63.4292584862
 20
44.1384132845
  0
LWPOLYLINE
  5
4C4
100
AcDbEntity
  8
0
100
AcDbPolyline
 62
7
  6
CONTINUOUS
 90
5
 70
0
 10
-61.0595724144
 20
43.1849165545
 10
-61.0159896566
 20
43.1493634389
 10
-60.8822192149
 20
43.0342052287
 10
-60.7532395668
 20
42.9138233853
 10
-60.6292584862
 20
42.7884133056
  0
ARC
  5
4C5
100
AcDbEntity
  8
DRAFT
100
AcDbCircle
 62
7
  6
CONTINUOUS
 10
12.9937263756
 20
548.4526304986
 40
593.814217193
100
AcDbArc
 50
266.1984782932
 51
273.8015217068
  0
ARC
  5
4C6
100
AcDbEntity
  8
DRAFT
100
AcDbCircle
 62
7
  6
CONTINUOUS
 10
12.9937263756
 20
-549.1758038874
 40
593.814217193
100
AcDbArc
 50
86.1984782932
 51
93.8015217068
  0
ARC
  5
4C7
100
AcDbEntity
  8
DRAFT
100
AcDbCircle
 62
7
  6
CONTINUOUS
 10
-176.0062736244
 20
-0.3615866944
 40
250.0
100
AcDbArc
 50
354.2231521942
 51
5.7768478058
  0
ARC
  5
4C8
100
AcDbEntity
  8
DRAFT
100
AcDbCircle
 62
7
  6
CONTINUOUS
 10
201.9937263756
 20
-0.3615866944
 40
250.0
100
AcDbArc
 50
174.2231521942
 51
185.7768478058
  0
ARC
  5
4C9
100
AcDbEntity
  8
DRAFT
100
AcDbCircle
 62
7
  6
CONTINUOUS
 10
-19.4671677453
 20
59.9266142602
 40
104.2109306549
100
AcDbArc
 50
263.4379009685
 51
266.1984782932
  0
ARC
  5
4CA
100
AcDbEntity
  8
DRAFT
100
AcDbCircle
 62
7
  6
CONTINUOUS
 10
45.4546204964
 20
59.9266142602
 40
104.2109306549
100
AcDbArc
 50
273.8015217068
 51
276.5620990315
  0
ARC
  5
4CB
100
AcDbEntity
  8
DRAFT
100
AcDbCircle
 62
7
  6
CONTINUOUS
 10
45.4546204964
 20
-60.6497876489
 40
104.2109306549
100
AcDbArc
 50
83.4379009685
 51
86.1984782932
  0
ARC
  5
4CC
100
AcDbEntity
  8
DRAFT
100
AcDbCircle
 62
7
  6
CONTINUOUS
 10
-19.4671677453
 20
-60.6497876489
 40
104.2109306549
100
AcDbArc
 50
93.8015217068
 51
96.5620990315
  0
ARC
  5
4CD
100
AcDbEntity
  8
DRAFT
100
AcDbCircle
 62
7
  6
CONTINUOUS
 10
11.2797387326
 20
-19.3089494767
 40
61.75799358
100
AcDbArc
 50
350.478178999
 51
354.2231521942
  0
ARC
  5
4CE
100
AcDbEntity
  8
DRAFT
100
AcDbCircle
 62
7
  6
CONTINUOUS
 10
11.2797387326
 20
18.585776088
 40
61.75799358
100
AcDbArc
 50
5.7768478058
 51
9.521821001
  0
ARC
  5
4CF
100
AcDbEntity
  8
DRAFT
100
AcDbCircle
 62
7
  6
CONTINUOUS
 10
14.7077140185
 20
18.585776088
 40
61.75799358
100
AcDbArc
 50
170.478178999
 51
174.2231521942
  0
ARC
  5
4D0
100
AcDbEntity
  8
DRAFT
100
AcDbCircle
 62
7
  6
CONTINUOUS
 10
14.7077140185
 20
-19.3089494767
 40
61.75799358
100
AcDbArc
 50
185.7768478058
 51
189.521821001
  0
ARC
  5
4D1
100
AcDbEntity
  8
DRAFT
100
AcDbCircle
 62
7
  6
CONTINUOUS
 10
55.4210867504
 20
-26.7129608548
 40
17.0
100
AcDbArc
 50
276.5620990315
 51
350.478178999
  0
ARC
  5
4D2
100
AcDbEntity
  8
DRAFT
100
AcDbCircle
 62
7
  6
CONTINUOUS
 10
55.4210867504
 20
25.989787466
 40
17.0
100
AcDbArc
 50
9.521821001
 51
83.4379009684
  0
ARC
  5
4D3
100
AcDbEntity
  8
DRAFT
100
AcDbCircle
 62
7
  6
CONTINUOUS
 10
-29.4336339992
 20
25.989787466
 40
17.0
100
AcDbArc
 50
96.5620990315
 51
170.478178999
  0
ARC
  5
4D4
100
AcDbEntity
  8
DRAFT
100
AcDbCircle
 62
7
  6
CONTINUOUS
 10
-29.4336339992
 20
-26.7129608548
 40
17.0
100
AcDbArc
 50
189.521821001
 51
263.4379009685
  0
ARC
  5
4D5
100
AcDbEntity
  8
0
100
AcDbCircle
 62
7
  6
CONTINUOUS
 10
46.0437263756
 20
-22.0615866944
 40
0.8
100
AcDbArc
 50
269.9999999981
 51
360.0
  0
ARC
  5
4D6
100
AcDbEntity
  8
0
100
AcDbCircle
 62
7
  6
CONTINUOUS
 10
46.0437263756
 20
21.3384133056
 40
0.8
100
AcDbArc
 50
0.0
 51
90.0000000007
  0
ARC
  5
4D7
100
AcDbEntity
  8
0
100
AcDbCircle
 62
7
  6
CONTINUOUS
 10
-20.0562736244
 20
-22.0615866944
 40
0.8
100
AcDbArc
 50
179.9999999977
 51
270.0000000002
  0
ARC
  5
4D8
100
AcDbEntity
  8
0
100
AcDbCircle
 62
7
  6
CONTINUOUS
 10
-20.0562736244
 20
21.3384133056
 40
0.8
100
AcDbArc
 50
89.9999999998
 51
180.0000000025
  0
ARC
  5
4D9
100
AcDbEntity
  8
ASSI
100
AcDbCircle
 62
7
  6
CONTINUOUS
 10
84.6472541303
 20
16.0713301991
 40
153.9501916421
100
AcDbArc
 50
169.4727747616
 51
177.2057459262
  0
ARC
  5
4DA
100
AcDbEntity
  8
ASSI
100
AcDbCircle
 62
7
  6
CONTINUOUS
 10
84.6472541303
 20
-16.7945035879
 40
153.9501916421
100
AcDbArc
 50
184.6366897531
 51
190.5272252384
  0
ARC
  5
4DB
100
AcDbEntity
  8
ASSI
100
AcDbCircle
 62
7
  6
CONTINUOUS
 10
84.6472541303
 20
-16.7945035879
 40
153.9501916421
100
AcDbArc
 50
182.7942540472
 51
183.5799222865
  0
ARC
  5
4DC
100
AcDbEntity
  8
RACCORDO
100
AcDbCircle
 62
7
  6
CONTINUOUS
 10
-68.4207303986
 20
-24.2653901353
 40
0.7
100
AcDbArc
 50
145.0
 51
182.7942555591
  0
ARC
  5
4DD
100
AcDbEntity
  8
RACCORDO
100
AcDbCircle
 62
7
  6
CONTINUOUS
 10
-68.4207304498
 20
23.5422168196
 40
0.7
100
AcDbArc
 50
177.2057443856
 51
215.0
  0
ARC
  5
4DE
100
AcDbEntity
  8
RACCORDO
100
AcDbCircle
 62
7
  6
CONTINUOUS
 10
-66.4096349011
 20
-44.9049790752
 40
0.3000000096
100
AcDbArc
 50
190.5417016667
 51
267.0000001839
  0
ARC
  5
4DF
100
AcDbEntity
  8
RACCORDO
100
AcDbCircle
 62
7
  6
CONTINUOUS
 10
-66.4096349011
 20
44.1818056865
 40
0.3000000096
100
AcDbArc
 50
98.8448704294
 51
169.4582983333
  0
ENDSEC
  0
SECTION
  2
OBJECTS
  0
DICTIONARY
  5
C
100
AcDbDictionary
280
0
281
1
  3
ACAD_GROUP
350
D
  3
ACAD_MLINESTYLE
350
17
  3
ACAD_LAYOUT
350
1A
  3
ACAD_PLOTSETTINGS
350
19
  3
ACAD_PLOTSTYLENAME
350
E
  0
DICTIONARY
  5
D
102
{ACAD_REACTORS
330
C
102
}
100
AcDbDictionary
280
0
281
1
  0
ACDBDICTIONARYWDFLT
  5
E
102
{ACAD_REACTORS
330
C
102
}
100
AcDbDictionary
281
1
  3
Normal
350
F
100
AcDbDictionaryWithDefault
340
F
  0
DICTIONARY
  5
17
102
{ACAD_REACTORS
330
C
102
}
100
AcDbDictionary
280
0
281
1
  3
Standard
350
18
  0
DICTIONARY
  5
19
102
{ACAD_REACTORS
330
C
102
}
100
AcDbDictionary
281
1
  0
DICTIONARY
  5
1A
102
{ACAD_REACTORS
330
C
102
}
100
AcDbDictionary
281
1
  3
Model
350
4E0
  3
Layout1
350
4E1
  0
ACDBPLACEHOLDER
  5
F
102
{ACAD_REACTORS
330
E
102
}
  0
MLINESTYLE
  5
18
102
{ACAD_REACTORS
330
17
102
}
100
AcDbMlineStyle
  2
STANDARD
 70
0
  3

 62
256
 51
90.0
 52
90.0
 71
2
 49
0.5
 62
256
  6
BYLAYER
 49
-0.5
 62
256
  6
BYLAYER
  0
LAYOUT
  5
4E0
102
{ACAD_REACTORS
330
1A
102
}
100
AcDbPlotSettings
  1

  2
none_device
  4
ISO_A4_(297.00_x_210.00_MM)
  6

 40
0.0
 41
0.0
 42
0.0
 43
0.0
 44
297.0
 45
210.0
 46
0.0
 47
0.0
 48
0.0
 49
0.0
140
0.0
141
0.0
142
1.0
143
1.0
 70
1024
 72
1
 73
0
 74
0
  7

 75
0
147
1.0
148
0.0
149
0.0
100
AcDbLayout
  1
Model
 70
0
 71
0
 10
0.0
 20
0.0
 11
297.0
 21
210.0
 12
0.0
 22
0.0
 32
0.0
 14
0.0
 24
0.0
 34
0.0
 15
0.0
 25
0.0
 35
0.0
146
0.0
 13
0.0
 23
0.0
 33
0.0
 16
1.0
 26
0.0
 36
0.0
 17
0.0
 27
1.0
 37
0.0
 76
0
330
211
345
0
346
0
  0
LAYOUT
  5
4E1
102
{ACAD_REACTORS
330
1A
102
}
100
AcDbPlotSettings
  1

  2
none_device
  4
ISO_A4_(297.00_x_210.00_MM)
  6

 40
0.0
 41
0.0
 42
0.0
 43
0.0
 44
297.0
 45
210.0
 46
0.0
 47
0.0
 48
0.0
 49
0.0
140
0.0
141
0.0
142
1.0
143
1.0
 70
0
 72
1
 73
0
 74
0
  7

 75
0
147
1.0
148
0.0
149
0.0
100
AcDbLayout
  1
Layout1
 70
0
 71
1
 10
0.0
 20
0.0
 11
297.0
 21
210.0
 12
0.0
 22
0.0
 32
0.0
 14
0.0
 24
0.0
 34
0.0
 15
0.0
 25
0.0
 35
0.0
146
0.0
 13
0.0
 23
0.0
 33
0.0
 16
1.0
 26
0.0
 36
0.0
 17
0.0
 27
1.0
 37
0.0
 76
0
330
212
345
0
346
0
  0
ENDSEC
  0
EOF
