  0
SECTION
  2
HEADER
  9
$ACADVER
  1
AC1021
  9
$DWGCODEPAGE
  3
ANSI_1252
  9
$EXTMAX
 10
297.0
 20
210.0
 30
0.0
  9
$EXTMIN
 10
0.0
 20
0.0
 30
0.0
  9
$LIMMIN
 10
0.0
 20
0.0
  9
$LIMMAX
 10
297.0
 20
210.0
  9
$VIEWCTR
 10
148.5
 20
105.0
  9
$VIEWSIZE
 40
210.0
  9
$CLAYER
  8
0
  9
$LTSCALE
 40
16.335
  9
$CELTYPE
  6
BYLAYER
  9
$DIMSCALE
 40
1.0
  9
$DIMASZ
 40
3.0
  9
$DIMEXO
 40
1.85625
  9
$DIMDLI
 40
11.286
  9
$DIMEXE
 40
5.346
  9
$DIMCEN
 40
2.673
  9
$DIMLFAC
 40
1.0
  9
$DIMBLK
  1
_FILLED
  9
$DIMTXT
 40
3.0
  9
$DIMTOL
 70
1
  9
$DIMLIM
 70
0
  9
$DIMTFAC
 40
1.0
  9
$DIMTP
 40
0.01
  9
$DIMTM
 40
0.01
  9
$PDMODE
 70
3
  9
$PDSIZE
 40
3.0
  9
$HANDSEED
  5
695
  9
$TILEMODE
 70
1
  9
$MEASUREMENT
 70
1
  9
$INSUNITS
 70
4
  0
ENDSEC
  0
SECTION
  2
CLASSES
  0
CLASS
  1
ACDBDICTIONARYWDFLT
  2
AcDbDictionaryWithDefault
  3
AutoCAD 2000
 90
0
 91
1
280
0
281
0
  0
CLASS
  1
ACDBPLACEHOLDER
  2
AcDbPlaceHolder
  3
AutoCAD 2000
 90
0
 91
1
280
0
281
0
  0
CLASS
  1
LAYOUT
  2
AcDbLayout
  3
AutoCAD 2000
 90
0
 91
0
280
0
281
0
  0
ENDSEC
  0
SECTION
  2
TABLES
  0
TABLE
  2
VPORT
  5
8
100
AcDbSymbolTable
 70
2
  0
VPORT
  5
1F4
100
AcDbSymbolTableRecord
100
AcDbViewportTableRecord
  2
*ACTIVE
 70
0
 10
0.0
 20
0.0
 11
1.0
 21
1.0
 12
148.5
 22
105.0
 13
0.0
 23
0.0
 14
1.0
 24
1.0
 15
0.0
 25
0.0
 16
0.0
 26
0.0
 36
1.0
 17
0.0
 27
0.0
 37
0.0
 40
210.0
 41
1.4142857143
 42
50.0
 43
0.0
 44
0.0
 50
0.0
 51
0.0
 71
0
 72
100
 73
1
 74
1
 75
0
 76
0
 77
0
 78
0
  0
ENDTAB
  0
TABLE
  2
LTYPE
  5
5
100
AcDbSymbolTable
 70
6
  0
LTYPE
  5
14
100
AcDbSymbolTableRecord
100
AcDbLinetypeTableRecord
  2
BYBLOCK
 70
0
  3

 72
65
 73
0
 40
0.0
  0
LTYPE
  5
15
100
AcDbSymbolTableRecord
100
AcDbLinetypeTableRecord
  2
BYLAYER
 70
0
  3

 72
65
 73
0
 40
0.0
  0
LTYPE
  5
16
100
AcDbSymbolTableRecord
100
AcDbLinetypeTableRecord
  2
CONTINUOUS
 70
64
  3
Solid line
 72
65
 73
0
 40
0.0
  0
LTYPE
  5
1F5
100
AcDbSymbolTableRecord
100
AcDbLinetypeTableRecord
  2
CENTER
 70
64
  3
____ _ ____ _ ____ _ ____ _ ____ _ ____ _ ____
 72
65
 73
4
 40
0.6
 49
0.375
 74
0
 49
-0.075
 74
0
 49
0.075
 74
0
 49
-0.075
 74
0
  0
LTYPE
  5
1F6
100
AcDbSymbolTableRecord
100
AcDbLinetypeTableRecord
  2
HIDDEN
 70
64
  3
- - - - - - - - - - - - - - - - - - - -
 72
65
 73
2
 40
0.2
 49
0.1
 74
0
 49
-0.1
 74
0
  0
LTYPE
  5
1F7
100
AcDbSymbolTableRecord
100
AcDbLinetypeTableRecord
  2
PHANTOM
 70
64
  3
_____ _ _ _____ _ _ _____ _ _ _____
 72
65
 73
6
 40
0.8
 49
0.45
 74
0
 49
-0.05
 74
0
 49
0.1
 74
0
 49
-0.05
 74
0
 49
0.1
 74
0
 49
-0.05
 74
0
  0
LTYPE
  5
1F8
100
AcDbSymbolTableRecord
100
AcDbLinetypeTableRecord
  2
DOT
 70
64
  3
. . . . . . . . . . . . . . . . . . . .
 72
65
 73
2
 40
0.2
 49
0.1
 74
0
 49
-0.1
 74
0
  0
LTYPE
  5
1F9
100
AcDbSymbolTableRecord
100
AcDbLinetypeTableRecord
  2
DASHED
 70
64
  3
- - - - - - - - - - - - - - - - - - - -
 72
65
 73
2
 40
0.2
 49
0.1
 74
0
 49
-0.1
 74
0
  0
ENDTAB
  0
TABLE
  2
LAYER
  5
2
100
AcDbSymbolTable
 70
36
  0
LAYER
  5
10
100
AcDbSymbolTableRecord
100
AcDbLayerTableRecord
  2
0
 70
0
 62
7
  6
CONTINUOUS
370
-3
390
F
  0
LAYER
  5
1FA
100
AcDbSymbolTableRecord
100
AcDbLayerTableRecord
  2
DEFAULT_1
 70
0
 62
7
  6
CENTER
370
-3
390
F
  0
LAYER
  5
1FB
100
AcDbSymbolTableRecord
100
AcDbLayerTableRecord
  2
DEFAULT_2
 70
0
 62
7
  6
HIDDEN
370
-3
390
F
  0
LAYER
  5
1FC
100
AcDbSymbolTableRecord
100
AcDbLayerTableRecord
  2
DEFAULT_3
 70
0
 62
7
  6
PHANTOM
370
-3
390
F
  0
LAYER
  5
1FD
100
AcDbSymbolTableRecord
100
AcDbLayerTableRecord
  2
ASSI
 70
0
 62
7
  6
CONTINUOUS
370
-3
390
F
  0
LAYER
  5
1FE
100
AcDbSymbolTableRecord
100
AcDbLayerTableRecord
  2
COORDINATE
 70
0
 62
7
  6
CONTINUOUS
370
-3
390
F
  0
LAYER
  5
1FF
100
AcDbSymbolTableRecord
100
AcDbLayerTableRecord
  2
COPY_PUBLISH
 70
0
 62
7
  6
CONTINUOUS
370
-3
390
F
  0
LAYER
  5
200
100
AcDbSymbolTableRecord
100
AcDbLayerTableRecord
  2
COSMETIC
 70
0
 62
7
  6
CONTINUOUS
370
-3
390
F
  0
LAYER
  5
201
100
AcDbSymbolTableRecord
100
AcDbLayerTableRecord
  2
COSMETICI
 70
0
 62
7
  6
CONTINUOUS
370
-3
390
F
  0
LAYER
  5
202
100
AcDbSymbolTableRecord
100
AcDbLayerTableRecord
  2
CURVE
 70
0
 62
7
  6
CONTINUOUS
370
-3
390
F
  0
LAYER
  5
203
100
AcDbSymbolTableRecord
100
AcDbLayerTableRecord
  2
DRAFT
 70
0
 62
7
  6
CONTINUOUS
370
-3
390
F
  0
LAYER
  5
204
100
AcDbSymbolTableRecord
100
AcDbLayerTableRecord
  2
IMPORT_IGES
 70
0
 62
7
  6
CONTINUOUS
370
-3
390
F
  0
LAYER
  5
205
100
AcDbSymbolTableRecord
100
AcDbLayerTableRecord
  2
INTF_1
 70
0
 62
7
  6
CONTINUOUS
370
-3
390
F
  0
LAYER
  5
206
100
AcDbSymbolTableRecord
100
AcDbLayerTableRecord
  2
NOTE
 70
0
 62
7
  6
CONTINUOUS
370
-3
390
F
  0
LAYER
  5
207
100
AcDbSymbolTableRecord
100
AcDbLayerTableRecord
  2
PIANI
 70
0
 62
7
  6
CONTINUOUS
370
-3
390
F
  0
LAYER
  5
208
100
AcDbSymbolTableRecord
100
AcDbLayerTableRecord
  2
PUNTI
 70
0
 62
7
  6
CONTINUOUS
370
-3
390
F
  0
LAYER
  5
209
100
AcDbSymbolTableRecord
100
AcDbLayerTableRecord
  2
RACCORDO
 70
0
 62
7
  6
CONTINUOUS
370
-3
390
F
  0
LAYER
  5
20A
100
AcDbSymbolTableRecord
100
AcDbLayerTableRecord
  2
SIMBOLI
 70
0
 62
7
  6
CONTINUOUS
370
-3
390
F
  0
LAYER
  5
20B
100
AcDbSymbolTableRecord
100
AcDbLayerTableRecord
  2
SMUSSO
 70
0
 62
7
  6
CONTINUOUS
370
-3
390
F
  0
LAYER
  5
20C
100
AcDbSymbolTableRecord
100
AcDbLayerTableRecord
  2
SNAPLINE
 70
0
 62
7
  6
CONTINUOUS
370
-3
390
F
  0
LAYER
  5
20D
100
AcDbSymbolTableRecord
100
AcDbLayerTableRecord
  2
SUPERFICI
 70
0
 62
7
  6
CONTINUOUS
370
-3
390
F
  0
LAYER
  5
20E
100
AcDbSymbolTableRecord
100
AcDbLayerTableRecord
  2
TRASH
 70
0
 62
7
  6
CONTINUOUS
370
-3
390
F
  0
LAYER
  5
20F
100
AcDbSymbolTableRecord
100
AcDbLayerTableRecord
  2
XSEC_DATUMS
 70
0
 62
7
  6
CONTINUOUS
370
-3
390
F
  0
ENDTAB
  0
TABLE
  2
STYLE
  5
3
100
AcDbSymbolTable
 70
1
  0
STYLE
  5
11
100
AcDbSymbolTableRecord
100
AcDbTextStyleTableRecord
  2
STANDARD
 70
0
 40
0.0
 41
0.8
 50
0.0
 71
0
 42
0.2
  3
txt
  4

  0
STYLE
  5
210
100
AcDbSymbolTableRecord
100
AcDbTextStyleTableRecord
  2
TEXTSTYLE_1
 70
0
 40
0.0
 41
0.8
 50
0.0
 71
0
 42
0.2
  3
gdt
  4

  0
ENDTAB
  0
TABLE
  2
VIEW
  5
6
100
AcDbSymbolTable
 70
0
  0
ENDTAB
  0
TABLE
  2
UCS
  5
7
100
AcDbSymbolTable
 70
0
  0
ENDTAB
  0
TABLE
  2
APPID
  5
9
100
AcDbSymbolTable
 70
1
  0
APPID
  5
211
100
AcDbSymbolTableRecord
100
AcDbRegAppTableRecord
  2
ACAD
 70
0
  0
ENDTAB
  0
TABLE
  2
BLOCK_RECORD
  5
1
100
AcDbSymbolTable
 70
0
  0
BLOCK_RECORD
  5
212
100
AcDbSymbolTableRecord
100
AcDbBlockTableRecord
  2
*Model_Space
  0
BLOCK_RECORD
  5
213
100
AcDbSymbolTableRecord
100
AcDbBlockTableRecord
  2
*Paper_Space
  0
BLOCK_RECORD
  5
214
100
AcDbSymbolTableRecord
100
AcDbBlockTableRecord
  2
_FILLED
  0
BLOCK_RECORD
  5
215
100
AcDbSymbolTableRecord
100
AcDbBlockTableRecord
  2
*D0
  0
BLOCK_RECORD
  5
216
100
AcDbSymbolTableRecord
100
AcDbBlockTableRecord
  2
*D1
  0
BLOCK_RECORD
  5
217
100
AcDbSymbolTableRecord
100
AcDbBlockTableRecord
  2
*D2
  0
BLOCK_RECORD
  5
218
100
AcDbSymbolTableRecord
100
AcDbBlockTableRecord
  2
*D3
  0
BLOCK_RECORD
  5
219
100
AcDbSymbolTableRecord
100
AcDbBlockTableRecord
  2
*D4
  0
ENDTAB
  0
TABLE
  2
DIMSTYLE
  5
A
100
AcDbSymbolTable
 70
1
100
AcDbDimStyleTable
 71
0
  0
DIMSTYLE
105
21A
100
AcDbSymbolTableRecord
100
AcDbDimStyleTableRecord
  2
STANDARD
 70
0
  3

  4

 40
1.0
 41
3.0
 42
0.0625
 43
0.38
 44
0.18
 45
0.0
 46
0.0
 47
0.01
 48
0.01
140
3.0
141
0.09
142
0.0
143
25.4
144
1.0
145
0.0
146
1.0
147
0.09
 71
1.0
 72
0.0
 73
0
 74
0
 75
0
 76
0
 77
1
 78
8
170
0
171
2
172
0
173
0
174
0
175
0
176
0
177
0
178
0
270
2
271
2
272
2
273
2
274
2
275
0
280
0
281
0
282
0
283
1
284
8
285
0
286
0
287
3
288
0
340
11
341
214
342
214
343
214
344
214
  0
DIMSTYLE
105
21B
100
AcDbSymbolTableRecord
100
AcDbDimStyleTableRecord
  2
DIMSTYLE_1
 70
0
  3

  4

 40
1.0
 41
3.0
 42
0.0625
 43
0.38
 44
0.18
 45
0.0
 46
0.0
 47
0.0
 48
0.0
140
3.0
141
0.09
142
0.0
143
25.4
144
1.0
145
0.0
146
1.0
147
0.09
 71
0.0
 72
0.0
 73
0
 74
0
 75
0
 76
0
 77
1
 78
8
170
0
171
2
172
0
173
0
174
0
175
0
176
0
177
0
178
0
270
2
271
1
272
1
273
2
274
2
275
0
280
0
281
0
282
0
283
1
284
8
285
0
286
0
287
3
288
0
340
11
341
214
342
214
343
214
344
214
  0
DIMSTYLE
105
21C
100
AcDbSymbolTableRecord
100
AcDbDimStyleTableRecord
  2
DIMSTYLE_2
 70
0
  3

  4

 40
1.0
 41
3.0
 42
0.0625
 43
0.38
 44
0.18
 45
0.0
 46
0.0
 47
0.0
 48
0.0
140
3.0
141
0.09
142
0.0
143
25.4
144
1.0
145
0.0
146
1.0
147
0.09
 71
0.0
 72
0.0
 73
0
 74
0
 75
0
 76
0
 77
1
 78
8
170
0
171
2
172
0
173
0
174
0
175
0
176
0
177
0
178
0
270
2
271
2
272
2
273
2
274
2
275
0
280
0
281
0
282
0
283
1
284
8
285
0
286
0
287
3
288
0
340
11
341
214
342
214
343
214
344
214
  0
ENDTAB
  0
ENDSEC
  0
SECTION
  2
BLOCKS
  0
BLOCK
  5
20
100
AcDbEntity
  8
0
100
AcDbBlockBegin
  2
*Model_Space
 70
0
 10
0.0
 20
0.0
 30
0.0
  3
*Model_Space
  1

  0
ENDBLK
  5
21
100
AcDbEntity
  8
0
100
AcDbBlockEnd
  0
BLOCK
  5
1C
100
AcDbEntity
  8
0
100
AcDbBlockBegin
  2
*Paper_Space
 70
0
 10
0.0
 20
0.0
 30
0.0
  3
*Paper_Space
  1

  0
ENDBLK
  5
1D
100
AcDbEntity
  8
0
100
AcDbBlockEnd
  0
BLOCK
  5
21D
100
AcDbEntity
  8
0
100
AcDbBlockBegin
  2
_FILLED
 70
64
 10
0.0
 20
0.0
  3
_FILLED
  1

  0
SOLID
  5
21E
100
AcDbEntity
  8
0
  6
BYBLOCK
 62
0
100
AcDbTrace
 10
0.0
 20
0.0
 11
-1.0
 21
0.3166666667
 12
-1.0
 22
-0.3166666667
 13
-1.0
 23
-0.3166666667
  0
ENDBLK
  5
21F
100
AcDbEntity
  8
0
  6
BYBLOCK
 62
0
100
AcDbBlockEnd
  0
BLOCK
  5
220
100
AcDbEntity
  8
0
100
AcDbBlockBegin
 62
7
  6
CONTINUOUS
  2
*D0
 70
65
 10
0.0
 20
0.0
  3
*D0
  1

  0
MTEXT
  5
221
100
AcDbEntity
  8
0
100
AcDbMText
 62
7
  6
CONTINUOUS
  7
STANDARD
 71
2
 72
1
 10
71.5814559227
 20
-0.4264068131
 30
0.0
 11
0.0
 21
1.0
 31
0.0
 44
0.9
  1
45
 40
3.0
 41
4.5
  0
LINE
  5
222
100
AcDbEntity
  8
0
100
AcDbLine
 62
7
  6
CONTINUOUS
 10
36.2185440773
 20
22.0874458099
 11
76.8314559227
 21
22.0874458099
  0
LINE
  5
223
100
AcDbEntity
  8
0
100
AcDbLine
 62
7
  6
CONTINUOUS
 10
36.2185440773
 20
-22.940259436
 11
76.8314559227
 21
-22.940259436
  0
LINE
  5
224
100
AcDbEntity
  8
0
100
AcDbLine
 62
7
  6
CONTINUOUS
 10
75.3314559227
 20
22.0874458099
 11
75.3314559227
 21
-0.4264068131
  0
LINE
  5
225
100
AcDbEntity
  8
0
100
AcDbLine
 62
7
  6
CONTINUOUS
 10
75.3314559227
 20
-22.940259436
 11
75.3314559227
 21
-0.4264068131
  0
INSERT
  5
226
100
AcDbEntity
  8
0
100
AcDbBlockReference
 62
7
  6
CONTINUOUS
  2
_FILLED
 10
75.3314559227
 20
22.0874458099
 41
3.0
 42
3.0
 43
3.0
 50
90.0
  0
INSERT
  5
227
100
AcDbEntity
  8
0
100
AcDbBlockReference
 62
7
  6
CONTINUOUS
  2
_FILLED
 10
75.3314559227
 20
-22.940259436
 41
3.0
 42
3.0
 43
3.0
 50
270.0
  0
ENDBLK
  5
228
100
AcDbEntity
  8
0
  6
BYBLOCK
 62
0
100
AcDbBlockEnd
  0
BLOCK
  5
229
100
AcDbEntity
  8
0
100
AcDbBlockBegin
 62
7
  6
CONTINUOUS
  2
*D1
 70
65
 10
0.0
 20
0.0
  3
*D1
  1

  0
MTEXT
  5
22A
100
AcDbEntity
  8
0
100
AcDbMText
 62
7
  6
CONTINUOUS
  7
STANDARD
 71
2
 72
1
 10
2.6685440773
 20
61.3235931869
 30
0.0
 11
1.0
 21
0.0
 31
0.0
 44
0.9
  1
67,7
 40
3.0
 41
8.7857142857
  0
LINE
  5
22B
100
AcDbEntity
  8
0
100
AcDbLine
 62
7
  6
CONTINUOUS
 10
36.5329320971
 20
21.7735931869
 11
36.5329320971
 21
59.0735931869
  0
LINE
  5
22C
100
AcDbEntity
  8
0
100
AcDbLine
 62
7
  6
CONTINUOUS
 10
-31.1958439424
 20
21.7735931869
 11
-31.1958439424
 21
59.0735931869
  0
LINE
  5
22D
100
AcDbEntity
  8
0
100
AcDbLine
 62
7
  6
CONTINUOUS
 10
36.5329320971
 20
57.5735931869
 11
2.6685440773
 21
57.5735931869
  0
LINE
  5
22E
100
AcDbEntity
  8
0
100
AcDbLine
 62
7
  6
CONTINUOUS
 10
-31.1958439424
 20
57.5735931869
 11
2.6685440773
 21
57.5735931869
  0
INSERT
  5
22F
100
AcDbEntity
  8
0
100
AcDbBlockReference
 62
7
  6
CONTINUOUS
  2
_FILLED
 10
36.5329320971
 20
57.5735931869
 41
3.0
 42
3.0
 43
3.0
  0
INSERT
  5
230
100
AcDbEntity
  8
0
100
AcDbBlockReference
 62
7
  6
CONTINUOUS
  2
_FILLED
 10
-31.1958439424
 20
57.5735931869
 41
3.0
 42
3.0
 43
3.0
 50
180.0
  0
ENDBLK
  5
231
100
AcDbEntity
  8
0
  6
BYBLOCK
 62
0
100
AcDbBlockEnd
  0
BLOCK
  5
232
100
AcDbEntity
  8
0
100
AcDbBlockBegin
 62
7
  6
CONTINUOUS
  2
*D2
 70
65
 10
0.0
 20
0.0
  3
*D2
  1

  0
MTEXT
  5
233
100
AcDbEntity
  8
0
100
AcDbMText
 62
7
  6
CONTINUOUS
  7
STANDARD
 71
2
 72
1
 10
81.5814559227
 20
-0.4264068131
 30
0.0
 11
0.0
 21
1.0
 31
0.0
 44
0.9
  1
90
 40
3.0
 41
4.7142857143
  0
LINE
  5
234
100
AcDbEntity
  8
0
100
AcDbLine
 62
7
  6
CONTINUOUS
 10
3.1685440773
 20
44.5735923873
 11
86.8314559227
 21
44.5735923873
  0
LINE
  5
235
100
AcDbEntity
  8
0
100
AcDbLine
 62
7
  6
CONTINUOUS
 10
3.1685440773
 20
-45.4264060134
 11
86.8314559227
 21
-45.4264060134
  0
LINE
  5
236
100
AcDbEntity
  8
0
100
AcDbLine
 62
7
  6
CONTINUOUS
 10
85.3314559227
 20
44.5735923873
 11
85.3314559227
 21
-0.4264068131
  0
LINE
  5
237
100
AcDbEntity
  8
0
100
AcDbLine
 62
7
  6
CONTINUOUS
 10
85.3314559227
 20
-45.4264060134
 11
85.3314559227
 21
-0.4264068131
  0
INSERT
  5
238
100
AcDbEntity
  8
0
100
AcDbBlockReference
 62
7
  6
CONTINUOUS
  2
_FILLED
 10
85.3314559227
 20
44.5735923873
 41
3.0
 42
3.0
 43
3.0
 50
90.0
  0
INSERT
  5
239
100
AcDbEntity
  8
0
100
AcDbBlockReference
 62
7
  6
CONTINUOUS
  2
_FILLED
 10
85.3314559227
 20
-45.4264060134
 41
3.0
 42
3.0
 43
3.0
 50
270.0
  0
ENDBLK
  5
23A
100
AcDbEntity
  8
0
  6
BYBLOCK
 62
0
100
AcDbBlockEnd
  0
BLOCK
  5
23B
100
AcDbEntity
  8
0
100
AcDbBlockBegin
 62
7
  6
CONTINUOUS
  2
*D3
 70
65
 10
0.0
 20
0.0
  3
*D3
  1

  0
MTEXT
  5
23C
100
AcDbEntity
  8
0
100
AcDbMText
 62
7
  6
CONTINUOUS
  7
STANDARD
 71
2
 72
1
 10
2.6685440773
 20
71.3235931869
 30
0.0
 11
1.0
 21
0.0
 31
0.0
 44
0.9
  1
122
 40
3.0
 41
6.4285714286
  0
LINE
  5
23D
100
AcDbEntity
  8
0
100
AcDbLine
 62
7
  6
CONTINUOUS
 10
63.6685440773
 20
0.0735931869
 11
63.6685440773
 21
69.0735931869
  0
LINE
  5
23E
100
AcDbEntity
  8
0
100
AcDbLine
 62
7
  6
CONTINUOUS
 10
-58.3314559227
 20
0.0735931869
 11
-58.3314559227
 21
69.0735931869
  0
LINE
  5
23F
100
AcDbEntity
  8
0
100
AcDbLine
 62
7
  6
CONTINUOUS
 10
63.6685440773
 20
67.5735931869
 11
2.6685440773
 21
67.5735931869
  0
LINE
  5
240
100
AcDbEntity
  8
0
100
AcDbLine
 62
7
  6
CONTINUOUS
 10
-58.3314559227
 20
67.5735931869
 11
2.6685440773
 21
67.5735931869
  0
INSERT
  5
241
100
AcDbEntity
  8
0
100
AcDbBlockReference
 62
7
  6
CONTINUOUS
  2
_FILLED
 10
63.6685440773
 20
67.5735931869
 41
3.0
 42
3.0
 43
3.0
  0
INSERT
  5
242
100
AcDbEntity
  8
0
100
AcDbBlockReference
 62
7
  6
CONTINUOUS
  2
_FILLED
 10
-58.3314559227
 20
67.5735931869
 41
3.0
 42
3.0
 43
3.0
 50
180.0
  0
ENDBLK
  5
243
100
AcDbEntity
  8
0
  6
BYBLOCK
 62
0
100
AcDbBlockEnd
  0
BLOCK
  5
244
100
AcDbEntity
  8
0
100
AcDbBlockBegin
 62
7
  6
CONTINUOUS
  2
*D4
 70
65
 10
0.0
 20
0.0
  3
*D4
  1

  0
MTEXT
  5
245
100
AcDbEntity
  8
0
100
AcDbMText
 62
7
  6
CONTINUOUS
  7
STANDARD
 71
3
 72
1
 10
-89.5121311162
 20
61.3235931869
 30
0.0
 11
1.0
 21
0.0
 31
0.0
 44
0.9
  1
9,1
 40
3.0
 41
5.7857142857
  0
LINE
  5
246
100
AcDbEntity
  8
0
100
AcDbLine
 62
7
  6
CONTINUOUS
 10
-76.1967419564
 20
40.8411176319
 11
-76.1967419564
 21
59.0735931869
  0
LINE
  5
247
100
AcDbEntity
  8
0
100
AcDbLine
 62
7
  6
CONTINUOUS
 10
-85.3229696267
 20
0.0735955318
 11
-85.3229696267
 21
59.0735931869
  0
LINE
  5
248
100
AcDbEntity
  8
0
100
AcDbLine
 62
7
  6
CONTINUOUS
 10
-76.1967419564
 20
57.5735931869
 11
-72.1967419564
 21
57.5735931869
  0
LINE
  5
249
100
AcDbEntity
  8
0
100
AcDbLine
 62
7
  6
CONTINUOUS
 10
-72.1967419564
 20
57.5735931869
 11
-80.7598557915
 21
57.5735931869
  0
LINE
  5
24A
100
AcDbEntity
  8
0
100
AcDbLine
 62
7
  6
CONTINUOUS
 10
-85.3229696267
 20
57.5735931869
 11
-95.2978454019
 21
57.5735931869
  0
LINE
  5
24B
100
AcDbEntity
  8
0
100
AcDbLine
 62
7
  6
CONTINUOUS
 10
-95.2978454019
 20
57.5735931869
 11
-80.7598557915
 21
57.5735931869
  0
INSERT
  5
24C
100
AcDbEntity
  8
0
100
AcDbBlockReference
 62
7
  6
CONTINUOUS
  2
_FILLED
 10
-76.1967419564
 20
57.5735931869
 41
3.0
 42
3.0
 43
3.0
 50
180.0
  0
INSERT
  5
24D
100
AcDbEntity
  8
0
100
AcDbBlockReference
 62
7
  6
CONTINUOUS
  2
_FILLED
 10
-85.3229696267
 20
57.5735931869
 41
3.0
 42
3.0
 43
3.0
  0
ENDBLK
  5
24E
100
AcDbEntity
  8
0
  6
BYBLOCK
 62
0
100
AcDbBlockEnd
  0
ENDSEC
  0
SECTION
  2
ENTITIES
  0
DIMENSION
  5
24F
100
AcDbEntity
  8
0
100
AcDbDimension
 62
7
  6
CONTINUOUS
  2
*D0
 10
75.3314559227
 20
-22.940259436
 11
74.089621559
 21
-2.4378993062
 70
160
 71
2
 42
45.027705246
  3
DIMSTYLE_1
100
AcDbAlignedDimension
 13
36.2185440773
 23
22.0874458099
 14
36.2185440773
 24
-22.940259436
 50
270.0
100
AcDbRotatedDimension
  0
DIMENSION
  5
250
100
AcDbEntity
  8
0
100
AcDbDimension
 62
7
  6
CONTINUOUS
  2
*D1
 10
-31.1958439424
 20
57.5735931869
 11
-1.7243130655
 21
59.8235931869
 70
160
 71
2
 42
67.7287760396
  3
DIMSTYLE_1
100
AcDbAlignedDimension
 13
36.5329320971
 23
21.7735931869
 14
-31.1958439424
 24
21.7735931869
 50
180.0
100
AcDbRotatedDimension
  0
DIMENSION
  5
251
100
AcDbEntity
  8
0
100
AcDbDimension
 62
7
  6
CONTINUOUS
  2
*D2
 10
85.3314559227
 20
-45.4264060134
 11
84.1376294464
 21
-2.533684663
 70
160
 71
2
 42
89.9999984007
  3
DIMSTYLE_2
100
AcDbAlignedDimension
 13
3.1685440773
 23
44.5735923873
 14
3.1685440773
 24
-45.4264060134
 50
270.0
100
AcDbRotatedDimension
  0
DIMENSION
  5
252
100
AcDbEntity
  8
0
100
AcDbDimension
 62
7
  6
CONTINUOUS
  2
*D3
 10
-58.3314559227
 20
67.5735931869
 11
-0.5457416369
 21
69.8235931869
 70
160
 71
2
 42
122.0
  3
DIMSTYLE_2
100
AcDbAlignedDimension
 13
63.6685440773
 23
0.0735931869
 14
-58.3314559227
 24
0.0735931869
 50
180.0
100
AcDbRotatedDimension
  0
DIMENSION
  5
253
100
AcDbEntity
  8
0
100
AcDbDimension
 62
7
  6
CONTINUOUS
  2
*D4
 10
-85.3229696267
 20
57.5735931869
 11
-98.1907025448
 21
59.8235931869
 70
160
 71
3
 42
9.1262276704
  3
DIMSTYLE_1
100
AcDbAlignedDimension
 13
-76.1967419564
 23
40.8411176319
 14
-85.3229696267
 24
0.0735955318
 50
180.0
100
AcDbRotatedDimension
  0
LWPOLYLINE
  5
254
100
AcDbEntity
  8
DRAFT
100
AcDbPolyline
 62
7
  6
CONTINUOUS
 90
67
 70
0
 10
-56.5246017199
 20
28.7371620719
 10
-56.4662351721
 20
29.0654314158
 10
-56.4015056091
 20
29.3922023295
 10
-56.3304148638
 20
29.7174739396
 10
-56.2529346659
 20
30.0413516053
 10
-56.1690969737
 20
30.3637283013
 10
-56.0789941345
 20
30.6842848433
 10
-55.9826127884
 20
31.003045106
 10
-55.8799703814
 20
31.3199842555
 10
-55.7712057943
 20
31.6347105847
 10
-55.6563382949
 20
31.9471934718
 10
-55.5353530671
 20
32.2574634363
 10
-55.4083381469
 20
32.5652210392
 10
-55.2752652336
 20
32.8705083365
 10
-55.1361672604
 20
33.1732838842
 10
-54.991224366
 20
33.4731235986
 10
-54.8404468167
 20
33.7699711166
 10
-54.683829185
 20
34.0638844186
 10
-54.5215282519
 20
34.3546115209
 10
-54.3535164733
 20
34.642180804
 10
-54.1798261734
 20
34.9265661719
 10
-54.0007040354
 20
35.2074344519
 10
-53.816224567
 20
35.4847871983
 10
-53.6263179433
 20
35.7586259719
 10
-53.431014451
 20
36.028618196
 10
-53.2302184805
 20
36.2947591031
 10
-53.0240301961
 20
36.5570573643
 10
-52.8127735879
 20
36.8152011231
 10
-52.5964290642
 20
37.069203787
 10
-52.3750204369
 20
37.3190565445
 10
-52.1489367611
 20
37.564414766
 10
-51.9182025084
 20
37.8053276053
 10
-51.6827970029
 20
38.0417511664
 10
-51.4430415259
 20
38.2732019038
 10
-51.1988883609
 20
38.4995625581
 10
-50.9503885781
 20
38.720956516
 10
-50.6980115051
 20
38.937261658
 10
-50.4418485742
 20
39.1485278819
 10
-50.1818110186
 20
39.3547114728
 10
-49.9180976869
 20
39.5555501471
 10
-49.6507288331
 20
39.751018327
 10
-49.3796862515
 20
39.9411480363
 10
-49.1051109358
 20
40.125763648
 10
-48.8269714723
 20
40.3047926627
 10
-48.5453006515
 20
40.4783140292
 10
-48.2603355869
 20
40.6463793053
 10
-47.9720220375
 20
40.809117214
 10
-47.6804149439
 20
40.9664050043
 10
-47.3859149795
 20
41.1179170905
 10
-47.0885514566
 20
41.2635965062
 10
-46.7882950259
 20
41.4035062084
 10
-46.4854581386
 20
41.5375006383
 10
-46.1800101114
 20
41.6655937341
 10
-45.871980894
 20
41.787777128
 10
-45.5617736679
 20
41.9038718137
 10
-45.2494208452
 20
42.0138457797
 10
-44.9348885783
 20
42.1177361394
 10
-44.6184804569
 20
42.2154675149
 10
-44.3001566071
 20
42.3070599998
 10
-43.9799548484
 20
42.3924979105
 10
-43.6582951289
 20
42.4716520847
 10
-43.3352019917
 20
42.5445125908
 10
-43.0106482399
 20
42.6110930475
 10
-42.6849760435
 20
42.6712994723
 10
-42.358298393
 20
42.7251014973
 10
-42.0304991171
 20
42.772532339
 10
-41.7015765116
 20
42.8135931869
  0
LINE
  5
255
100
AcDbEntity
  8
RACCORDO
100
AcDbLine
 62
253
  6
CONTINUOUS
 10
-56.8433633984
 20
-26.0160513067
 11
-56.9069685542
 21
-25.403490017
  0
LINE
  5
256
100
AcDbEntity
  8
DRAFT
100
AcDbLine
 62
7
  6
CONTINUOUS
 10
-57.0151210382
 20
-26.0355019103
 11
-57.0819450787
 21
-25.3902635689
  0
LINE
  5
257
100
AcDbEntity
  8
RACCORDO
100
AcDbLine
 62
253
  6
CONTINUOUS
 10
-56.5699867914
 20
-25.999678708
 11
-56.63336176
 21
-25.3882686284
  0
LINE
  5
258
100
AcDbEntity
  8
RACCORDO
100
AcDbLine
 62
253
  6
CONTINUOUS
 10
-56.9069685542
 20
-25.403490017
 11
-56.9792074197
 21
-24.6744076681
  0
LINE
  5
259
100
AcDbEntity
  8
RACCORDO
100
AcDbLine
 62
253
  6
CONTINUOUS
 10
-56.63336176
 20
-25.3882686284
 11
-56.7055413071
 21
-24.658877379
  0
LINE
  5
25A
100
AcDbEntity
  8
DRAFT
100
AcDbLine
 62
7
  6
CONTINUOUS
 10
-57.0819450787
 20
-25.3902635689
 11
-57.1511118683
 21
-24.6911717016
  0
LWPOLYLINE
  5
25B
100
AcDbEntity
  8
DRAFT
100
AcDbPolyline
 62
7
  6
CONTINUOUS
 90
24
 70
0
 10
-57.1511118683
 20
-24.6911717016
 10
-57.3394320474
 20
-22.6754885724
 10
-57.5114401239
 20
-20.658335791
 10
-57.6671211172
 20
-18.6397459784
 10
-57.8064642893
 20
-16.6196299393
 10
-57.9294542635
 20
-14.5981424236
 10
-58.0360714205
 20
-12.5756822773
 10
-58.1263052983
 20
-10.5522816201
 10
-58.2001489271
 20
-8.5279747724
 10
-58.2575906297
 20
-6.5031642154
 10
-58.2986244291
 20
-4.4778833267
 10
-58.3232475659
 20
-2.4521656788
 10
-58.3314559227
 20
-0.4264142135
 10
-58.3232476766
 20
1.5993375775
 10
-58.2986246498
 20
3.6250560654
 10
-58.2575909333
 20
5.6503381033
 10
-58.2001492771
 20
7.6751501533
 10
-58.1263056669
 20
9.699458803
 10
-58.0360717801
 20
11.7228612611
 10
-57.9294545769
 20
13.745323206
 10
-57.8064645291
 20
15.766812519
 10
-57.6671212857
 20
17.7869300465
 10
-57.5114402332
 20
19.8055209363
 10
-57.3394321005
 20
21.8226744863
  0
LWPOLYLINE
  5
25C
100
AcDbEntity
  8
RACCORDO
100
AcDbPolyline
 62
253
  6
CONTINUOUS
 90
19
 70
0
 10
-56.9792074197
 20
-24.6744076681
 10
-57.2266547896
 20
-21.9874270731
 10
-57.4450520171
 20
-19.298041705
 10
-57.6343769969
 20
-16.6065743734
 10
-57.794600334
 20
-13.9135113268
 10
-57.9257220279
 20
-11.2189774976
 10
-58.0277476217
 20
-8.5227529778
 10
-58.1006581997
 20
-5.8247863563
 10
-58.1444172328
 20
-3.1257134415
 10
-58.1590040305
 20
-0.4263451608
 10
-58.1444159254
 20
2.2730207809
 10
-58.100655728
 20
4.9720870648
 10
-58.0277442489
 20
7.6700433451
 10
-57.9257181844
 20
10.3662527379
 10
-57.7945965461
 20
13.0607677465
 10
-57.6343736626
 20
15.7538121094
 10
-57.4450494337
 20
18.445262172
 10
-57.2266533192
 20
21.1346304175
 10
-56.9792074197
 20
23.821594042
  0
LWPOLYLINE
  5
25D
100
AcDbEntity
  8
RACCORDO
100
AcDbPolyline
 62
253
  6
CONTINUOUS
 90
19
 70
0
 10
-56.7055413071
 20
-24.658877379
 10
-56.9527903043
 20
-21.9732315971
 10
-57.171030708
 20
-19.2856542486
 10
-57.3602297338
 20
-16.5962222879
 10
-57.5203501642
 20
-13.9049640087
 10
-57.6513759725
 20
-11.2120057396
 10
-57.7533125477
 20
-8.5175719064
 10
-57.8261603997
 20
-5.8214011731
 10
-57.8698907287
 20
-3.1239109562
 10
-57.8844728966
 20
-0.4263443348
 10
-57.869889458
 20
2.2712199409
 10
-57.8261578643
 20
4.9687035186
 10
-57.7533091217
 20
7.6648639169
 10
-57.6513721554
 20
10.3592827089
 10
-57.5203463403
 20
13.0522222453
 10
-57.3602262894
 20
15.7434617341
 10
-57.1710280275
 20
18.4328760584
 10
-56.9527887721
 20
21.1204357155
 10
-56.7055413071
 20
23.8060637529
  0
LINE
  5
25E
100
AcDbEntity
  8
DRAFT
100
AcDbLine
 62
7
  6
CONTINUOUS
 10
-57.3394321005
 20
21.8226744863
 11
-57.1413514395
 21
23.9382375221
  0
LINE
  5
25F
100
AcDbEntity
  8
DRAFT
100
AcDbLine
 62
7
  6
CONTINUOUS
 10
-57.1413514395
 20
23.9382375221
 11
-57.0618215819
 21
24.7371620719
  0
LINE
  5
260
100
AcDbEntity
  8
RACCORDO
100
AcDbLine
 62
253
  6
CONTINUOUS
 10
-56.9792074197
 20
23.821594042
 11
-56.8899764382
 21
24.7190559731
  0
LINE
  5
261
100
AcDbEntity
  8
RACCORDO
100
AcDbLine
 62
253
  6
CONTINUOUS
 10
-56.7055413071
 20
23.8060637529
 11
-56.6163832775
 21
24.7039549104
  0
LWPOLYLINE
  5
262
100
AcDbEntity
  8
RACCORDO
100
AcDbPolyline
 62
253
  6
CONTINUOUS
 90
9
 70
0
 10
-56.6163832775
 20
24.7039549104
 10
-56.5699867799
 20
25.1468651754
 10
-56.5203609819
 20
25.5895424905
 10
-56.4675067527
 20
26.0319827746
 10
-56.4114248278
 20
26.4742103346
 10
-56.3521163253
 20
26.9161927181
 10
-56.2895828123
 20
27.3578407716
 10
-56.2238255843
 20
27.7991221491
 10
-56.1548455982
 20
28.2400612528
  0
LWPOLYLINE
  5
263
100
AcDbEntity
  8
DRAFT
100
AcDbPolyline
 62
7
  6
CONTINUOUS
 90
10
 70
0
 10
-57.0618215819
 20
24.7371620719
 10
-57.0151210382
 20
25.1826882842
 10
-56.965172209
 20
25.6279629378
 10
-56.9119760071
 20
26.072981757
 10
-56.8555355875
 20
26.5177524176
 10
-56.7958497478
 20
26.9622587199
 10
-56.7329129579
 20
27.4064606149
 10
-56.6667241454
 20
27.8503419634
 10
-56.5972866649
 20
28.2939105093
 10
-56.5246017199
 20
28.7371620719
  0
LWPOLYLINE
  5
264
100
AcDbEntity
  8
RACCORDO
100
AcDbPolyline
 62
253
  6
CONTINUOUS
 90
10
 70
0
 10
-56.8899764413
 20
24.7190559735
 10
-56.8433634163
 20
25.1632375161
 10
-56.7935095658
 20
25.6072230624
 10
-56.7404140394
 20
26.050989651
 10
-56.6840752329
 20
26.4945207625
 10
-56.6244938804
 20
26.9377841447
 10
-56.5616730948
 20
27.3807332498
 10
-56.495614503
 20
27.8233358758
 10
-56.4263178209
 20
28.2655755828
 10
-56.3537837518
 20
28.7074294905
  0
LWPOLYLINE
  5
265
100
AcDbEntity
  8
RACCORDO
100
AcDbPolyline
 62
253
  6
CONTINUOUS
 90
132
 70
0
 10
-56.1548455982
 20
28.2400612528
 10
-56.0679846666
 20
28.7684092676
 10
-56.0509377382
 20
28.8648709147
 10
-56.0315020459
 20
28.9700375764
 10
-56.0097462809
 20
29.0844876019
 10
-55.9855989612
 20
29.2076390986
 10
-55.9588488076
 20
29.3377503472
 10
-55.9294779956
 20
29.4747916959
 10
-55.8975018263
 20
29.6187892195
 10
-55.8627593314
 20
29.7680854169
 10
-55.8252098423
 20
29.9226744532
 10
-55.7848919978
 20
30.0825588185
 10
-55.7417645165
 20
30.2460943009
 10
-55.6957697043
 20
30.4132754418
 10
-55.6469639285
 20
30.5841049195
 10
-55.595477786
 20
30.7569516903
 10
-55.5412473757
 20
30.9318076967
 10
-55.4843360751
 20
31.1086790683
 10
-55.4250661907
 20
31.2859571322
 10
-55.363374799
 20
31.4636245601
 10
-55.2993251039
 20
31.6416978273
 10
-55.2334293446
 20
31.818620129
 10
-55.1656214831
 20
31.9943650696
 10
-55.095968547
 20
32.1689593827
 10
-55.0251830197
 20
32.3409271243
 10
-54.9532022913
 20
32.5102386902
 10
-54.8800904997
 20
32.6769252038
 10
-54.8067507654
 20
32.8396029163
 10
-54.7331413397
 20
32.9982314859
 10
-54.6593058329
 20
33.1528538301
 10
-54.586275779
 20
33.3022120609
 10
-54.5141898063
 20
33.4459689348
 10
-54.4429112935
 20
33.5844651351
 10
-54.3730590157
 20
33.7174601534
 10
-54.305249047
 20
33.8439133821
 10
-54.2388670837
 20
33.9648689193
 10
-54.1726859075
 20
34.0832124588
 10
-54.1067602854
 20
34.1990583496
 10
-54.0410362155
 20
34.312293588
 10
-53.9741226751
 20
34.4254612316
 10
-53.9055548433
 20
34.5394316388
 10
-53.8357976811
 20
34.6533341737
 10
-53.764854576
 20
34.7670996922
 10
-53.6926086393
 20
34.8808956327
 10
-53.6191769725
 20
34.9945544551
 10
-53.5449140106
 20
35.1075047398
 10
-53.4697834163
 20
35.2197710478
 10
-53.3938218529
 20
35.3313290912
 10
-53.3174933613
 20
35.4415345416
 10
-53.2411386996
 20
35.5499081224
 10
-53.1644175475
 20
35.6569298712
 10
-53.0867723149
 20
35.7633943908
 10
-53.0087836927
 20
35.868632114
 10
-52.9298712896
 20
35.9733129415
 10
-52.8477356487
 20
36.080239628
 10
-52.7620935539
 20
36.1899292546
 10
-52.6732281151
 20
36.3018631416
 10
-52.5796891324
 20
36.4172891534
 10
-52.4810375802
 20
36.5368001779
 10
-52.3777123043
 20
36.6598006864
 10
-52.2695799318
 20
36.7857556386
 10
-52.156756195
 20
36.9145635249
 10
-52.0391254083
 20
37.0463234765
 10
-51.9162072075
 20
37.1808016341
 10
-51.788369311
 20
37.3177121805
 10
-51.6552442433
 20
37.4573385604
 10
-51.5152489585
 20
37.6003005805
 10
-51.3679723833
 20
37.7470925783
 10
-51.2138260061
 20
37.8972168235
 10
-51.0524607994
 20
38.0498050783
 10
-50.8818497091
 20
38.2064018305
 10
-50.7040205973
 20
38.3654593499
 10
-50.5247070402
 20
38.5214741467
 10
-50.3443794846
 20
38.6736186255
 10
-50.1625684852
 20
38.8227232445
 10
-49.9835977429
 20
38.9657757517
 10
-49.8086927117
 20
39.1016797916
 10
-49.6366284864
 20
39.2315372372
 10
-49.4680530297
 20
39.3556343719
 10
-49.3031314516
 20
39.4738483952
 10
-49.1416988276
 20
39.5863065611
 10
-48.9839079518
 20
39.6936697411
 10
-48.8293694566
 20
39.7961769654
 10
-48.6784726798
 20
39.893592612
 10
-48.5325383755
 20
39.9858652391
 10
-48.3921686379
 20
40.0726539612
 10
-48.2567611141
 20
40.1543027874
 10
-48.1258298455
 20
40.231787247
 10
-48.0001745817
 20
40.3047662504
 10
-47.8789952987
 20
40.3735830548
 10
-47.7594064866
 20
40.4402388811
 10
-47.6412681509
 20
40.5049356222
 10
-47.5247201917
 20
40.5674723094
 10
-47.4072971051
 20
40.6292450671
 10
-47.2881801403
 20
40.6907323522
 10
-47.1681880983
 20
40.7514559436
 10
-47.0473118744
 20
40.8113766498
 10
-46.9253790927
 20
40.8705669571
 10
-46.8025621471
 20
40.928954684
 10
-46.6793690664
 20
40.9862836959
 10
-46.5558258114
 20
41.0425216444
 10
-46.4319063839
 20
41.0977012902
 10
-46.3080408412
 20
41.1516642426
 10
-46.1845972718
 20
41.2042596627
 10
-46.0612075018
 20
41.2556388567
 10
-45.9371971991
 20
41.3060966213
 10
-45.8132190522
 20
41.3554359868
 10
-45.6886203075
 20
41.4038542648
 10
-45.5607685511
 20
41.4522374595
 10
-45.4297887368
 20
41.5006538503
 10
-45.2955559745
 20
41.54903515
 10
-45.1550632016
 20
41.5980622369
 10
-45.0079633309
 20
41.6479649884
 10
-44.8546036265
 20
41.6985132532
 10
-44.6930186054
 20
41.7496977456
 10
-44.5207098892
 20
41.8022268017
 10
-44.3401760467
 20
41.8553917379
 10
-44.1569468009
 20
41.9070581528
 10
-43.97152225
 20
41.9568698416
 10
-43.7834019516
 20
42.0051836023
 10
-43.5966145017
 20
42.0509351332
 10
-43.4118053912
 20
42.0938279915
 10
-43.2283285518
 20
42.1341594886
 10
-43.0482751505
 20
42.1717561368
 10
-42.8716759654
 20
42.206527821
 10
-42.6984996586
 20
42.2385653997
 10
-42.530744287
 20
42.26796682
 10
-42.3683779118
 20
42.2946764522
 10
-42.2114320422
 20
42.3187504833
 10
-42.06200005
 20
42.3404545108
 10
-41.9207796872
 20
42.3598771792
 10
-41.787072998
 20
42.376930206
  0
LWPOLYLINE
  5
266
100
AcDbEntity
  8
RACCORDO
100
AcDbPolyline
 62
253
  6
CONTINUOUS
 90
133
 70
0
 10
-56.3537837758
 20
28.7074294947
 10
-56.338566886
 20
28.796556511
 10
-56.3212643613
 20
28.8945663391
 10
-56.3017151003
 20
29.0014411544
 10
-56.2796334929
 20
29.1177262741
 10
-56.2549290067
 20
29.2428309549
 10
-56.2277495743
 20
29.3750328071
 10
-56.1979235028
 20
29.5142749342
 10
-56.1652559375
 20
29.6605590843
 10
-56.1299274753
 20
29.8122559068
 10
-56.0917777739
 20
29.9693302715
 10
-56.0506374737
 20
30.1317551243
 10
-56.0067559944
 20
30.2979214381
 10
-55.9600091166
 20
30.4677788377
 10
-55.9102612005
 20
30.6413090437
 10
-55.8578471957
 20
30.8169445743
 10
-55.8027019752
 20
30.994604586
 10
-55.7447487026
 20
31.1742420977
 10
-55.6844063138
 20
31.3543504816
 10
-55.6216545162
 20
31.5348660038
 10
-55.5564705206
 20
31.7157309975
 10
-55.489368206
 20
31.8954733518
 10
-55.4203724182
 20
32.0740530384
 10
-55.3495130947
 20
32.2514173755
 10
-55.2774120025
 20
32.4261164915
 10
-55.2041488296
 20
32.5981435806
 10
-55.1298060444
 20
32.7674841743
 10
-55.0551056141
 20
32.9327282268
 10
-54.9801702435
 20
33.0938882749
 10
-54.9051136731
 20
33.250990146
 10
-54.8307256341
 20
33.4026929217
 10
-54.7573121524
 20
33.548732862
 10
-54.6848601726
 20
33.6894775778
 10
-54.6137237724
 20
33.8245668323
 10
-54.5446235527
 20
33.9529931469
 10
-54.4771283842
 20
34.0759074711
 10
-54.4097987531
 20
34.1961492026
 10
-54.3426599019
 20
34.3137991302
 10
-54.2757998502
 20
34.4288239119
 10
-54.2077469016
 20
34.543803858
 10
-54.1379812349
 20
34.6595718428
 10
-54.0670058427
 20
34.7752482036
 10
-53.9948268702
 20
34.890801621
 10
-53.9213308053
 20
35.006388186
 10
-53.8466267113
 20
35.1218108683
 10
-53.771067049
 20
35.2365186724
 10
-53.6946218802
 20
35.3505630668
 10
-53.6173389886
 20
35.4638762669
 10
-53.5396879485
 20
35.5757787342
 10
-53.4619789015
 20
35.685857489
 10
-53.3838747174
 20
35.7946246369
 10
-53.3048615951
 20
35.9028012857
 10
-53.2254383394
 20
36.0097118802
 10
-53.1450551078
 20
36.1161046442
 10
-53.0615319949
 20
36.2247841626
 10
-52.974359911
 20
36.3362465526
 10
-52.8838004193
 20
36.4499883636
 10
-52.7887003957
 20
36.5672651906
 10
-52.6884165244
 20
36.6886230352
 10
-52.583191828
 20
36.8135150928
 10
-52.4731799745
 20
36.9415265763
 10
-52.3584539717
 20
37.0723424715
 10
-52.2387387905
 20
37.206036826
 10
-52.1137332125
 20
37.34268471
 10
-51.9837027964
 20
37.4817302244
 10
-51.8482089612
 20
37.6233666376
 10
-51.7058367392
 20
37.7687251218
 10
-51.5560405277
 20
37.9179340828
 10
-51.3991038792
 20
38.0702613499
 10
-51.2348121066
 20
38.2254585507
 10
-51.0613346206
 20
38.3847863607
 10
-50.8805084901
 20
38.5461654093
 10
-50.6978686058
 20
38.7045453485
 10
-50.5143737928
 20
38.8592067429
 10
-50.3296726386
 20
39.010548709
 10
-50.1475650861
 20
39.1556488788
 10
-49.9693844382
 20
39.2937721154
 10
-49.7943929118
 20
39.4257959966
 10
-49.6230750061
 20
39.5516164502
 10
-49.4552842033
 20
39.6716046026
 10
-49.290892208
 20
39.7861090372
 10
-49.1302769204
 20
39.8951279703
 10
-48.9730499891
 20
39.9991822846
 10
-48.8194639049
 20
40.09835238
 10
-48.6709216646
 20
40.1920090993
 10
-48.5281586487
 20
40.2799977728
 10
-48.3904946036
 20
40.3630270614
 10
-48.2572755724
 20
40.4417205162
 10
-48.1294096158
 20
40.5157404268
 10
-48.0062095325
 20
40.585674685
 10
-47.8845936377
 20
40.6533910301
 10
-47.7643855459
 20
40.7190494747
 10
-47.6458399391
 20
40.7825722506
 10
-47.5264153509
 20
40.8453458288
 10
-47.4052372964
 20
40.9078018819
 10
-47.2831583077
 20
40.9694729142
 10
-47.1601819196
 20
41.0303423395
 10
-47.0361384898
 20
41.0904769218
 10
-46.9111841019
 20
41.1497837597
 10
-46.7858214178
 20
41.2080175651
 10
-46.6601286674
 20
41.2651477478
 10
-46.5340821044
 20
41.321193146
 10
-46.4080572013
 20
41.3759988187
 10
-46.2824650211
 20
41.4294080279
 10
-46.1569702302
 20
41.4815849983
 10
-46.0308221175
 20
41.5328467686
 10
-45.9046841967
 20
41.5829262297
 10
-45.777945999
 20
41.6320681118
 10
-45.6479033278
 20
41.6812761665
 10
-45.5146420861
 20
41.7304346263
 10
-45.3780691317
 20
41.7794924624
 10
-45.2351524434
 20
41.8294045811
 10
-45.0855058231
 20
41.8801144978
 10
-44.9294743264
 20
41.9313155003
 10
-44.7650855134
 20
41.9834389761
 10
-44.5898447611
 20
42.0369752399
 10
-44.4062379555
 20
42.0908512026
 10
-44.2198060197
 20
42.1432636088
 10
-44.0311800264
 20
42.193966288
 10
-43.8398826044
 20
42.2430173086
 10
-43.6498496606
 20
42.2893974474
 10
-43.4617827186
 20
42.3330065548
 10
-43.275152125
 20
42.374037417
 10
-43.092003961
 20
42.4121409753
 10
-42.9123357632
 20
42.4474544411
 10
-42.7361541933
 20
42.4801089375
 10
-42.5654934803
 20
42.5098886052
 10
-42.400314462
 20
42.5369875383
 10
-42.2406511656
 20
42.561579318
 10
-42.0886408792
 20
42.5835368657
 10
-41.9449896523
 20
42.6029892602
 10
-41.8089758136
 20
42.6202514155
 10
-41.6805913109
 20
42.6355187839
  0
LWPOLYLINE
  5
267
100
AcDbEntity
  8
RACCORDO
100
AcDbPolyline
 62
253
  6
CONTINUOUS
 90
9
 70
0
 10
-56.3537836976
 20
-29.56024344
 10
-56.4263177525
 20
-29.1183896357
 10
-56.4956144259
 20
-28.6761500062
 10
-56.5616730139
 20
-28.2335474319
 10
-56.6244937977
 20
-27.7905983697
 10
-56.6840751525
 20
-27.3473350043
 10
-56.740413971
 20
-26.9038038318
 10
-56.7935095196
 20
-26.4600370872
 10
-56.8433633984
 20
-26.0160513067
  0
LWPOLYLINE
  5
268
100
AcDbEntity
  8
DRAFT
100
AcDbPolyline
 62
7
  6
CONTINUOUS
 90
9
 70
0
 10
-56.5246017199
 20
-29.589975698
 10
-56.5972866649
 20
-29.1467241354
 10
-56.6667241454
 20
-28.7031555895
 10
-56.7329129579
 20
-28.2592742411
 10
-56.7958497478
 20
-27.815072346
 10
-56.8555355875
 20
-27.3705660437
 10
-56.9119760071
 20
-26.9257953831
 10
-56.965172209
 20
-26.4807765639
 10
-57.0151210382
 20
-26.0355019103
  0
LWPOLYLINE
  5
269
100
AcDbEntity
  8
RACCORDO
100
AcDbPolyline
 62
253
  6
CONTINUOUS
 90
9
 70
0
 10
-56.0688163954
 20
-29.6165419468
 10
-56.1548456113
 20
-29.0928747894
 10
-56.223825607
 20
-28.6519356181
 10
-56.2895828412
 20
-28.2106541948
 10
-56.3521163565
 20
-27.7690061167
 10
-56.4114248579
 20
-27.3270237306
 10
-56.4675067791
 20
-26.8847961917
 10
-56.5203610021
 20
-26.4423559534
 10
-56.5699867914
 20
-25.999678708
  0
LWPOLYLINE
  5
26A
100
AcDbEntity
  8
RACCORDO
100
AcDbPolyline
 62
253
  6
CONTINUOUS
 90
10
 70
0
 10
-41.6806002558
 20
-43.4883313521
 10
-41.681060341
 20
-43.4836605921
 10
-41.6811043861
 20
-43.4755567488
 10
-41.6807318736
 20
-43.4641150552
 10
-41.6799471812
 20
-43.4494699693
 10
-41.6787595301
 20
-43.4317935942
 10
-41.6771828773
 20
-43.4112936553
 10
-41.6752357508
 20
-43.3882110594
 10
-41.6729410326
 20
-43.3628170636
 10
-41.6703256892
 20
-43.3354100877
  0
LWPOLYLINE
  5
26B
100
AcDbEntity
  8
RACCORDO
100
AcDbPolyline
 62
253
  6
CONTINUOUS
 90
12
 70
0
 10
-41.6806002584
 20
42.6355177479
 10
-41.6810603428
 20
42.630846987
 10
-41.6811043872
 20
42.6227431425
 10
-41.6807318741
 20
42.6113014474
 10
-41.6799471812
 20
42.5966563598
 10
-41.6787595299
 20
42.5789799829
 10
-41.6771828768
 20
42.5584800419
 10
-41.6752357503
 20
42.5353974439
 10
-41.672941032
 20
42.5100034459
 10
-41.6703256887
 20
42.4825964678
 10
-41.6674204547
 20
42.453498585
 10
-41.6608798847
 20
42.3916137432
  0
LWPOLYLINE
  5
26C
100
AcDbEntity
  8
RACCORDO
100
AcDbPolyline
 62
253
  6
CONTINUOUS
 90
16
 70
0
 10
-56.3537837444
 20
28.707429703
 10
-56.3498067539
 20
28.7086598642
 10
-56.3433261081
 20
28.7094378557
 10
-56.3343976679
 20
28.7097569716
 10
-56.3230983936
 20
28.709614461
 10
-56.3095256814
 20
28.7090115526
 10
-56.2937965234
 20
28.707953443
 10
-56.2760465001
 20
28.7064492529
 10
-56.2564286108
 20
28.7045119479
 10
-56.2351119553
 20
28.702158227
 10
-56.2122802762
 20
28.6994083784
 10
-56.1881303752
 20
28.696286105
 10
-56.1628704166
 20
28.6928183197
 10
-56.1367181331
 20
28.6890349138
 10
-56.1098989486
 20
28.6849684989
 10
-56.082644036
 20
28.6806541262
  0
LWPOLYLINE
  5
26D
100
AcDbEntity
  8
DRAFT
100
AcDbPolyline
 62
7
  6
CONTINUOUS
 90
10
 70
0
 10
47.0386646663
 20
-43.6664068131
 10
46.4840578026
 20
-43.7287004734
 10
45.9292047408
 20
-43.788015515
 10
45.3741046091
 20
-43.8443526295
 10
44.8187416548
 20
-43.8977136422
 10
44.2631298128
 20
-43.9480980142
 10
43.7073127089
 20
-43.9955028426
 10
43.1513042369
 20
-44.039927523
 10
42.5950885572
 20
-44.0813737489
 10
42.0386646663
 20
-44.119842014
  0
LWPOLYLINE
  5
26E
100
AcDbEntity
  8
RACCORDO
100
AcDbPolyline
 62
253
  6
CONTINUOUS
 90
10
 70
0
 10
47.1241611527
 20
-43.2297438321
 10
46.4456473858
 20
-43.3065410012
 10
45.8930623129
 20
-43.3656865747
 10
45.3402120016
 20
-43.4218647442
 10
44.7870693805
 20
-43.4750783373
 10
44.2336598108
 20
-43.5253257431
 10
43.6800610915
 20
-43.5726009123
 10
43.126298547
 20
-43.6169021732
 10
42.5723450231
 20
-43.6582322293
 10
42.0181995748
 20
-43.696591548
  0
LWPOLYLINE
  5
26F
100
AcDbEntity
  8
RACCORDO
100
AcDbPolyline
 62
253
  6
CONTINUOUS
 90
10
 70
0
 10
47.0176794649
 20
-43.488332404
 10
46.4640999935
 20
-43.5504967747
 10
45.9102214571
 20
-43.6096944538
 10
45.3560604625
 20
-43.6659241035
 10
44.8016229057
 20
-43.7191854163
 10
44.2469335997
 20
-43.769476368
 10
43.6920375697
 20
-43.8167935412
 10
43.1369596852
 20
-43.8611357602
 10
42.5817058544
 20
-43.9025035395
 10
42.0262926946
 20
-43.9408964944
  0
LINE
  5
270
100
AcDbEntity
  8
RACCORDO
100
AcDbLine
 62
253
  6
CONTINUOUS
 10
42.0181995748
 20
-43.696591548
 11
40.8113873228
 21
-43.77564743
  0
LINE
  5
271
100
AcDbEntity
  8
DRAFT
100
AcDbLine
 62
7
  6
CONTINUOUS
 10
42.0386646663
 20
-44.119842014
 11
40.8106855225
 21
-44.2001597043
  0
LINE
  5
272
100
AcDbEntity
  8
RACCORDO
100
AcDbLine
 62
253
  6
CONTINUOUS
 10
42.0262926945
 20
-43.9408964935
 11
40.819483705
 21
-44.0198323056
  0
LINE
  5
273
100
AcDbEntity
  8
RACCORDO
100
AcDbLine
 62
253
  6
CONTINUOUS
 10
40.8113873228
 20
-43.77564743
 11
39.6040247487
 21
-43.8522641182
  0
LINE
  5
274
100
AcDbEntity
  8
DRAFT
100
AcDbLine
 62
7
  6
CONTINUOUS
 10
40.8106855225
 20
-44.2001597043
 11
39.5821313842
 21
-44.2779566628
  0
LINE
  5
275
100
AcDbEntity
  8
RACCORDO
100
AcDbLine
 62
253
  6
CONTINUOUS
 10
40.819483705
 20
-44.0198323056
 11
39.6121228001
 21
-44.0963338994
  0
LINE
  5
276
100
AcDbEntity
  8
RACCORDO
100
AcDbLine
 62
253
  6
CONTINUOUS
 10
39.6121228001
 20
-44.0963338994
 11
38.4042211101
 21
-44.1703981834
  0
LINE
  5
277
100
AcDbEntity
  8
RACCORDO
100
AcDbLine
 62
253
  6
CONTINUOUS
 10
39.6040247487
 20
-43.8522641182
 11
38.396121292
 21
-43.9264407265
  0
LINE
  5
278
100
AcDbEntity
  8
DRAFT
100
AcDbLine
 62
7
  6
CONTINUOUS
 10
39.5821313842
 20
-44.2779566628
 11
38.3530112553
 21
-44.3532320178
  0
LINE
  5
279
100
AcDbEntity
  8
RACCORDO
100
AcDbLine
 62
253
  6
CONTINUOUS
 10
38.396121292
 20
-43.9264407265
 11
37.1877045948
 21
-43.998171598
  0
LINE
  5
27A
100
AcDbEntity
  8
RACCORDO
100
AcDbLine
 62
253
  6
CONTINUOUS
 10
38.4042211101
 20
-44.1703981834
 11
37.1958053616
 21
-44.2420212114
  0
LWPOLYLINE
  5
27B
100
AcDbEntity
  8
DRAFT
100
AcDbPolyline
 62
7
  6
CONTINUOUS
 90
3
 70
0
 10
38.3530112553
 20
-44.3532320178
 10
37.1233506417
 20
-44.4259799537
 10
36.5083173483
 20
-44.4614067786
  0
LWPOLYLINE
  5
27C
100
AcDbEntity
  8
RACCORDO
100
AcDbPolyline
 62
253
  6
CONTINUOUS
 90
36
 70
0
 10
37.1877045948
 20
-43.998171598
 10
35.0651889002
 20
-44.1187871975
 10
33.593324437
 20
-44.1974122449
 10
32.0744180385
 20
-44.2743362898
 10
30.511423149
 20
-44.3498482654
 10
28.9013832426
 20
-44.4236601537
 10
27.2354302956
 20
-44.4949072653
 10
25.5135363253
 20
-44.5637396686
 10
23.7357256476
 20
-44.6300086575
 10
21.8932061718
 20
-44.6924019455
 10
19.9804916484
 20
-44.7511584248
 10
18.0030644275
 20
-44.8060410208
 10
15.9685828607
 20
-44.8550242042
 10
13.8644440519
 20
-44.8980573266
 10
11.7032479124
 20
-44.9351932201
 10
9.5304560882
 20
-44.9645620941
 10
7.3601239388
 20
-44.9856574378
 10
5.1781955818
 20
-44.9989873814
 10
2.9879652502
 20
-45.0042040302
 10
0.7894881165
 20
-45.0012615803
 10
-1.4172913783
 20
-44.9902059104
 10
-3.6292455468
 20
-44.9708262585
 10
-5.8675312984
 20
-44.9423835238
 10
-8.1109918748
 20
-44.9056151489
 10
-10.2930293204
 20
-44.8625250546
 10
-12.396490518
 20
-44.8129389554
 10
-14.4385319812
 20
-44.7570287633
 10
-16.4040198623
 20
-44.6973183182
 10
-18.2828334911
 20
-44.6341996371
 10
-20.0850983736
 20
-44.5672789223
 10
-21.8260470479
 20
-44.4979021338
 10
-23.5056363835
 20
-44.4263051711
 10
-25.1239135888
 20
-44.3522508404
 10
-26.6962434312
 20
-44.276375976
 10
-28.2277478384
 20
-44.1988925889
 10
-29.7133078012
 20
-44.1195876599
  0
LWPOLYLINE
  5
27D
100
AcDbEntity
  8
RACCORDO
100
AcDbPolyline
 62
253
  6
CONTINUOUS
 90
36
 70
0
 10
37.1958053616
 20
-44.2420212114
 10
35.0728628808
 20
-44.3618518604
 10
33.6006588692
 20
-44.4404721315
 10
32.081440413
 20
-44.5177614295
 10
30.5180794943
 20
-44.59322357
 10
28.9076256326
 20
-44.6666404413
 10
27.241296953
 20
-44.737993048
 10
25.5190225747
 20
-44.8068135471
 10
23.7407696544
 20
-44.8726166026
 10
21.8977965712
 20
-44.9351838208
 10
19.9846514313
 20
-44.994073318
 10
18.0067675325
 20
-45.0484688632
 10
15.9717592589
 20
-45.0975557719
 10
13.867118513
 20
-45.1409843264
 10
11.7054515082
 20
-45.1778226244
 10
9.5320954021
 20
-45.2069250425
 10
7.3612133122
 20
-45.2280503312
 10
5.1788162768
 20
-45.2412862977
 10
2.9880416774
 20
-45.2465059588
 10
0.7890214251
 20
-45.2436175844
 10
-1.418230214
 20
-45.232529333
 10
-3.6307497354
 20
-45.2131795656
 10
-5.8696195808
 20
-45.1852046835
 10
-8.1135667351
 20
-45.148693729
 10
-10.2961246697
 20
-45.1050450837
 10
-12.4001373856
 20
-45.0553713925
 10
-14.4426510301
 20
-45.0000149838
 10
-16.4085737212
 20
-44.9400926317
 10
-18.2878465132
 20
-44.8767178404
 10
-20.0905631792
 20
-44.8103247626
 10
-21.8318962721
 20
-44.7409833162
 10
-23.5118594494
 20
-44.6692326903
 10
-25.1305542017
 20
-44.595589342
 10
-26.7032558521
 20
-44.5197979847
 10
-28.2350762073
 20
-44.4419576784
 10
-29.7209792237
 20
-44.3626602225
  0
LWPOLYLINE
  5
27E
100
AcDbEntity
  8
DRAFT
100
AcDbPolyline
 62
7
  6
CONTINUOUS
 90
25
 70
0
 10
36.5083173483
 20
-44.4614067786
 10
33.6913014746
 20
-44.6155062902
 10
30.8736156186
 20
-44.7562009973
 10
28.0552616064
 20
-44.8834985358
 10
25.2361637026
 20
-44.9974138558
 10
22.4163998439
 20
-45.0979452565
 10
19.5962016776
 20
-45.1850743815
 10
16.7755697716
 20
-45.2588042538
 10
13.9545034789
 20
-45.3191408744
 10
11.1332321458
 20
-45.3660692773
 10
8.3117606983
 20
-45.3995882355
 10
5.4900827425
 20
-45.4197035467
 10
2.6684103974
 20
-45.4264096549
 10
-0.1532560673
 20
-45.4197023775
 10
-2.9749188571
 20
-45.399585897
 10
-5.7963695646
 20
-45.3660660609
 10
-8.6176139603
 20
-45.3191371688
 10
-11.4386477417
 20
-45.2588003504
 10
-14.2592471441
 20
-45.1850705712
 10
-17.07941282
 20
-45.0979419357
 10
-19.8991441958
 20
-44.9974113156
 10
-22.7182151889
 20
-44.8834967498
 10
-25.5365497173
 20
-44.7561998331
 10
-28.3542216612
 20
-44.6155057213
 10
-31.1712291936
 20
-44.4614067786
  0
LINE
  5
27F
100
AcDbEntity
  8
RACCORDO
100
AcDbLine
 62
253
  6
CONTINUOUS
 10
-29.7209792237
 20
-44.3626602225
 11
-31.8587172102
 21
-44.2420212112
  0
LINE
  5
280
100
AcDbEntity
  8
RACCORDO
100
AcDbLine
 62
253
  6
CONTINUOUS
 10
-29.7133078012
 20
-44.1195876599
 11
-31.8506164454
 21
-43.9981715977
  0
LINE
  5
281
100
AcDbEntity
  8
DRAFT
100
AcDbLine
 62
7
  6
CONTINUOUS
 10
-31.1712291936
 20
-44.4614067786
 11
-32.4011605987
 21
-44.3899217303
  0
LINE
  5
282
100
AcDbEntity
  8
RACCORDO
100
AcDbLine
 62
253
  6
CONTINUOUS
 10
-31.8587172102
 20
-44.2420212112
 11
-33.0671329637
 21
-44.1703981829
  0
LINE
  5
283
100
AcDbEntity
  8
RACCORDO
100
AcDbLine
 62
253
  6
CONTINUOUS
 10
-31.8506164454
 20
-43.9981715977
 11
-33.059033152
 21
-43.9264407256
  0
LINE
  5
284
100
AcDbEntity
  8
DRAFT
100
AcDbLine
 62
7
  6
CONTINUOUS
 10
-32.4011605987
 20
-44.3899217303
 11
-33.6305514004
 21
-44.3159101773
  0
LINE
  5
285
100
AcDbEntity
  8
RACCORDO
100
AcDbLine
 62
253
  6
CONTINUOUS
 10
-33.0671329637
 20
-44.1703981829
 11
-34.275034656
 21
-44.0963338987
  0
LINE
  5
286
100
AcDbEntity
  8
RACCORDO
100
AcDbLine
 62
253
  6
CONTINUOUS
 10
-33.059033152
 20
-43.9264407256
 11
-34.2669366186
 21
-43.8522641167
  0
LINE
  5
287
100
AcDbEntity
  8
DRAFT
100
AcDbLine
 62
7
  6
CONTINUOUS
 10
-33.6305514004
 20
-44.3159101773
 11
-34.8593926429
 21
-44.2393730213
  0
LINE
  5
288
100
AcDbEntity
  8
RACCORDO
100
AcDbLine
 62
253
  6
CONTINUOUS
 10
-34.275034656
 20
-44.0963338987
 11
-35.4823955628
 21
-44.0198323048
  0
LINE
  5
289
100
AcDbEntity
  8
RACCORDO
100
AcDbLine
 62
253
  6
CONTINUOUS
 10
-34.2669366186
 20
-43.8522641167
 11
-35.474299189
 21
-43.7756474286
  0
LWPOLYLINE
  5
28A
100
AcDbEntity
  8
DRAFT
100
AcDbPolyline
 62
7
  6
CONTINUOUS
 90
3
 70
0
 10
-34.8593926429
 20
-44.2393730213
 10
-36.0876588038
 20
-44.160316068
 10
-36.7015765116
 20
-44.119842014
  0
LINE
  5
28B
100
AcDbEntity
  8
RACCORDO
100
AcDbLine
 62
253
  6
CONTINUOUS
 10
-35.4823955628
 20
-44.0198323048
 11
-36.6892045543
 21
-43.9408964926
  0
LINE
  5
28C
100
AcDbEntity
  8
RACCORDO
100
AcDbLine
 62
253
  6
CONTINUOUS
 10
-35.474299189
 20
-43.7756474286
 11
-36.6811114202
 21
-43.696591548
  0
LWPOLYLINE
  5
28D
100
AcDbEntity
  8
DRAFT
100
AcDbPolyline
 62
7
  6
CONTINUOUS
 90
10
 70
0
 10
-36.7015765116
 20
-44.119842014
 10
-37.2580004025
 20
-44.0813737489
 10
-37.8142160822
 20
-44.039927523
 10
-38.3702245542
 20
-43.9955028426
 10
-38.9260416581
 20
-43.9480980142
 10
-39.4816535001
 20
-43.8977136422
 10
-40.0370164544
 20
-43.8443526295
 10
-40.5921165862
 20
-43.788015515
 10
-41.1469696479
 20
-43.7287004734
 10
-41.7015765116
 20
-43.6664068131
  0
LWPOLYLINE
  5
28E
100
AcDbEntity
  8
RACCORDO
100
AcDbPolyline
 62
253
  6
CONTINUOUS
 90
10
 70
0
 10
-36.6892045544
 20
-43.9408964935
 10
-37.2446175187
 20
-43.9025035525
 10
-37.7998712027
 20
-43.8611357855
 10
-38.3549489891
 20
-43.8167935764
 10
-38.9098446466
 20
-43.7694764382
 10
-39.4645336289
 20
-43.7191855211
 10
-40.0189718792
 20
-43.6659241458
 10
-40.5731349054
 20
-43.6096942868
 10
-41.1270164873
 20
-43.5504962653
 10
-41.6806000162
 20
-43.4883314027
  0
LWPOLYLINE
  5
28F
100
AcDbEntity
  8
RACCORDO
100
AcDbPolyline
 62
253
  6
CONTINUOUS
 90
9
 70
0
 10
-36.6811114202
 20
-43.696591548
 10
-37.2352568895
 20
-43.6582322276
 10
-37.7892104289
 20
-43.6169021702
 10
-38.3429729832
 20
-43.5726009085
 10
-38.8965717062
 20
-43.5253257387
 10
-39.449981274
 20
-43.4750783328
 10
-40.003123889
 20
-43.42186474
 10
-40.5559741905
 20
-43.3656865715
 10
-41.1085592493
 20
-43.3065409993
  0
LWPOLYLINE
  5
290
100
AcDbEntity
  8
RACCORDO
100
AcDbPolyline
 62
253
  6
CONTINUOUS
 90
132
 70
0
 10
-41.1085592493
 20
-43.3065409993
 10
-41.7840647237
 20
-43.2301198401
 10
-41.9150580764
 20
-43.2134459037
 10
-42.0538600326
 20
-43.1944054115
 10
-42.2011425923
 20
-43.173098218
 10
-42.3562339423
 20
-43.1494241148
 10
-42.5171185462
 20
-43.1230828003
 10
-42.683768477
 20
-43.0940237889
 10
-42.8562120807
 20
-43.0622970099
 10
-43.0325183809
 20
-43.0277527003
 10
-43.2127212286
 20
-42.99030486
 10
-43.3967873392
 20
-42.9500387274
 10
-43.5826851122
 20
-42.9070613527
 10
-43.7711779281
 20
-42.8610423017
 10
-43.9615030156
 20
-42.8123110831
 10
-44.1493394651
 20
-42.7619648373
 10
-44.3353849899
 20
-42.7095618905
 10
-44.5189422548
 20
-42.6555432609
 10
-44.693597427
 20
-42.6023307911
 10
-44.8565048154
 20
-42.5507254861
 10
-45.0105098819
 20
-42.49992677
 10
-45.1577352764
 20
-42.4499545924
 10
-45.2977738057
 20
-42.401073033
 10
-45.4310324552
 20
-42.3530183553
 10
-45.5608552034
 20
-42.3050186484
 10
-45.6873750508
 20
-42.2571516207
 10
-45.8104589213
 20
-42.2093396036
 10
-45.9330518117
 20
-42.1605773107
 10
-46.0559029938
 20
-42.1106344622
 10
-46.1782632676
 20
-42.059740985
 10
-46.3008300117
 20
-42.0075816672
 10
-46.4240329946
 20
-41.953976331
 10
-46.5474425423
 20
-41.8991046674
 10
-46.6704668706
 20
-41.8431912476
 10
-46.7930733629
 20
-41.7862276634
 10
-46.915294671
 20
-41.7282219227
 10
-47.0366368766
 20
-41.6694233114
 10
-47.1569366871
 20
-41.6098994237
 10
-47.2763573778
 20
-41.5495823657
 10
-47.3948948605
 20
-41.4885182504
 10
-47.5117950711
 20
-41.4271457655
 10
-47.627812025
 20
-41.36502599
 10
-47.745203817
 20
-41.3008883561
 10
-47.8638008476
 20
-41.2349405168
 10
-47.9837727974
 20
-41.1669739681
 10
-48.1078868342
 20
-41.0950931657
 10
-48.236831374
 20
-41.0190180287
 10
-48.369918251
 20
-40.9390266409
 10
-48.5078498707
 20
-40.8540598988
 10
-48.6512383639
 20
-40.7637795255
 10
-48.7994718542
 20
-40.6685208347
 10
-48.9514167094
 20
-40.5682346939
 10
-49.1068713313
 20
-40.4630246434
 10
-49.266037371
 20
-40.3527838112
 10
-49.4283859732
 20
-40.2371471936
 10
-49.5938368428
 20
-40.1161601938
 10
-49.7624701007
 20
-39.9897733718
 10
-49.933997406
 20
-39.8574790053
 10
-50.1088917645
 20
-39.7189032674
 10
-50.2866796846
 20
-39.5744149371
 10
-50.4656529104
 20
-39.4246201531
 10
-50.6474435859
 20
-39.26781367
 10
-50.8304186066
 20
-39.1056953777
 10
-51.0079717333
 20
-38.9439822207
 10
-51.1787534926
 20
-38.7833827514
 10
-51.3441123159
 20
-38.6231894968
 10
-51.5014890594
 20
-38.4670000203
 10
-51.6496177862
 20
-38.3159977112
 10
-51.7897639625
 20
-38.1690036611
 10
-51.9231658755
 20
-38.0260736587
 10
-52.0497630902
 20
-37.8874277999
 10
-52.1696159093
 20
-37.7528497382
 10
-52.2841438647
 20
-37.6217402751
 10
-52.3937158246
 20
-37.4937630364
 10
-52.4979629172
 20
-37.36925715
 10
-52.5971981655
 20
-37.2486365016
 10
-52.6909685279
 20
-37.1325347119
 10
-52.7797272804
 20
-37.0203210966
 10
-52.8651469254
 20
-36.9105126712
 10
-52.946989029
 20
-36.8035866651
 10
-53.0254921541
 20
-36.699067536
 10
-53.1030440449
 20
-36.5940417834
 10
-53.1802563379
 20
-36.487797912
 10
-53.2565171034
 20
-36.3810471054
 10
-53.3323784859
 20
-36.2730088069
 10
-53.4081522352
 20
-36.1632472871
 10
-53.4835261789
 20
-36.0521975637
 10
-53.5581165553
 20
-35.9403851292
 10
-53.6319606395
 20
-35.8277183878
 10
-53.7050208164
 20
-35.7142886071
 10
-53.7768011039
 20
-35.6008959704
 10
-53.8471695632
 20
-35.4877177178
 10
-53.9162579575
 20
-35.3745768139
 10
-53.9839659646
 20
-35.2617423459
 10
-54.0497134878
 20
-35.1502873594
 10
-54.1140805798
 20
-35.039139332
 10
-54.1787068659
 20
-34.9253482443
 10
-54.2437245763
 20
-34.8089014749
 10
-54.309000718
 20
-34.6898102754
 10
-54.3757763942
 20
-34.5651587315
 10
-54.4446849377
 20
-34.4338628653
 10
-54.5150912554
 20
-34.2970031589
 10
-54.5863333987
 20
-34.1549095615
 10
-54.6585115374
 20
-34.0073192944
 10
-54.7315235425
 20
-33.8544917659
 10
-54.8044041198
 20
-33.6975406658
 10
-54.8771149616
 20
-33.5364306609
 10
-54.9496925013
 20
-33.3711944408
 10
-55.021283868
 20
-33.2030485748
 10
-55.091834361
 20
-33.0319609248
 10
-55.1613970552
 20
-32.8579618948
 10
-55.2292811823
 20
-32.6823628367
 10
-55.2954502983
 20
-32.5050610279
 10
-55.3599396507
 20
-32.3261584901
 10
-55.4221666206
 20
-32.1472748235
 10
-55.4820786505
 20
-31.9683362612
 10
-55.5397278211
 20
-31.7894171362
 10
-55.5946892805
 20
-31.6123604865
 10
-55.6468890516
 20
-31.43715213
 10
-55.6964015577
 20
-31.2638081062
 10
-55.743025463
 20
-31.0942180668
 10
-55.7866934253
 20
-30.9283771457
 10
-55.8274741717
 20
-30.7662931091
 10
-55.8653713894
 20
-30.6098756993
 10
-55.9003387173
 20
-30.4591210811
 10
-55.9324247251
 20
-30.3140366879
 10
-55.9617763431
 20
-30.176550111
 10
-55.9883767284
 20
-30.0466268444
 10
-56.0122454982
 20
-29.9243052786
 10
-56.03358499
 20
-29.8116230832
 10
-56.0524638095
 20
-29.7092609169
 10
-56.0688163954
 20
-29.6165419468
  0
LWPOLYLINE
  5
291
100
AcDbEntity
  8
RACCORDO
100
AcDbPolyline
 62
253
  6
CONTINUOUS
 90
133
 70
0
 10
-41.6806000168
 20
-43.4883314085
 10
-41.8059207515
 20
-43.4734398976
 10
-41.9391710007
 20
-43.4565643409
 10
-42.080359188
 20
-43.4375061462
 10
-42.2301818669
 20
-43.4159506412
 10
-42.3879589509
 20
-43.3917602921
 10
-42.5516303335
 20
-43.3650416468
 10
-42.721166095
 20
-43.3356107445
 10
-42.8966025174
 20
-43.3032634251
 10
-43.0759722645
 20
-43.2681885489
 10
-43.2592724054
 20
-43.2302393521
 10
-43.4465028442
 20
-43.1892633992
 10
-43.6356785287
 20
-43.1455763772
 10
-43.827445659
 20
-43.0989377315
 10
-44.0209846299
 20
-43.0494541824
 10
-44.2120670313
 20
-42.9982033597
 10
-44.401369458
 20
-42.9450628107
 10
-44.5880513898
 20
-42.8903260391
 10
-44.7656729457
 20
-42.8360696367
 10
-44.9314061151
 20
-42.7835055442
 10
-45.0880977461
 20
-42.7320632466
 10
-45.2378702598
 20
-42.6812825827
 10
-45.3803212278
 20
-42.6315079225
 10
-45.5159055019
 20
-42.5827881865
 10
-45.6479901796
 20
-42.5340573364
 10
-45.7766752395
 20
-42.4853685271
 10
-45.9018731651
 20
-42.4368425554
 10
-46.0266041577
 20
-42.387353993
 10
-46.1515730824
 20
-42.3366160984
 10
-46.2760197793
 20
-42.2849302752
 10
-46.4007206773
 20
-42.2319653977
 10
-46.52607276
 20
-42.1775263071
 10
-46.6515996197
 20
-42.1217928841
 10
-46.7767630189
 20
-42.0649902957
 10
-46.9015289356
 20
-42.0071273504
 10
-47.0258771928
 20
-41.9482086845
 10
-47.1493198288
 20
-41.8884722468
 10
-47.2717102762
 20
-41.8280059245
 10
-47.3932084969
 20
-41.7667476196
 10
-47.5137973119
 20
-41.7047208872
 10
-47.6326927826
 20
-41.6423562318
 10
-47.7507003753
 20
-41.5792583239
 10
-47.8701458617
 20
-41.514162836
 10
-47.9907542439
 20
-41.4471662662
 10
-48.1127315138
 20
-41.3781005378
 10
-48.239026149
 20
-41.3051886649
 10
-48.3702152086
 20
-41.2279242949
 10
-48.505518084
 20
-41.1465875023
 10
-48.6458026674
 20
-41.0604461698
 10
-48.7917472317
 20
-40.9688077845
 10
-48.9426127085
 20
-40.871841183
 10
-49.0972020685
 20
-40.7700474165
 10
-49.2554463622
 20
-40.6632220652
 10
-49.4175303784
 20
-40.5509800593
 10
-49.5827016835
 20
-40.4335923127
 10
-49.750871351
 20
-40.3108928869
 10
-49.9223904807
 20
-40.1823911353
 10
-50.0971146663
 20
-40.0479533082
 10
-50.2750223155
 20
-39.9073303751
 10
-50.4556222152
 20
-39.7606248167
 10
-50.6378035136
 20
-39.6084685259
 10
-50.8229556726
 20
-39.4493773374
 10
-51.0089430711
 20
-39.284839123
 10
-51.1895256772
 20
-39.1203045731
 10
-51.3635190238
 20
-38.9570564919
 10
-51.531845155
 20
-38.7944963663
 10
-51.6918328682
 20
-38.6356481612
 10
-51.8424839029
 20
-38.4820933004
 10
-51.985152708
 20
-38.3330104644
 10
-52.1208092718
 20
-38.1878420811
 10
-52.2495167521
 20
-38.0469288138
 10
-52.3715217071
 20
-37.9103905471
 10
-52.4879934572
 20
-37.7772518396
 10
-52.5994578566
 20
-37.6471816232
 10
-52.7056379476
 20
-37.5207608217
 10
-52.8065185811
 20
-37.3982707044
 10
-52.9018438394
 20
-37.280302812
 10
-52.9923036786
 20
-37.1662771186
 10
-53.0792550317
 20
-37.05469291
 10
-53.1624763659
 20
-36.9460117748
 10
-53.2424446186
 20
-36.8397850125
 10
-53.3214239518
 20
-36.7330914599
 10
-53.3999945684
 20
-36.625141048
 10
-53.4776289321
 20
-36.5166530435
 10
-53.5548342919
 20
-36.4069161731
 10
-53.631916968
 20
-36.2954651697
 10
-53.7086004777
 20
-36.182670349
 10
-53.7844975941
 20
-36.0690895534
 10
-53.8596351428
 20
-35.954671743
 10
-53.9339621661
 20
-35.8394820959
 10
-54.0069804866
 20
-35.7243017872
 10
-54.0785763451
 20
-35.6093449646
 10
-54.1488757413
 20
-35.4944442304
 10
-54.217761844
 20
-35.379825931
 10
-54.2846214651
 20
-35.2665798254
 10
-54.3501037559
 20
-35.1536762974
 10
-54.4159251812
 20
-35.0381168901
 10
-54.4820711725
 20
-34.9198019964
 10
-54.5484412565
 20
-34.7987809254
 10
-54.6164888392
 20
-34.6721850357
 10
-54.6866658058
 20
-34.5388229827
 10
-54.7582306552
 20
-34.3997410353
 10
-54.8307832204
 20
-34.2553905897
 10
-54.9043008258
 20
-34.1054825129
 10
-54.9785191779
 20
-33.9502032167
 10
-55.0527163684
 20
-33.7907497523
 10
-55.1267741241
 20
-33.6270980931
 10
-55.2005690768
 20
-33.4592285879
 10
-55.2734423518
 20
-33.2883888452
 10
-55.3453039188
 20
-33.1145850351
 10
-55.4160632895
 20
-32.9378222601
 10
-55.4851452575
 20
-32.7593931749
 10
-55.5525323823
 20
-32.5792683076
 10
-55.6181543432
 20
-32.3975579475
 10
-55.6814542416
 20
-32.2158060208
 10
-55.7424594562
 20
-32.0340132211
 10
-55.8011578629
 20
-31.8522951043
 10
-55.8570436529
 20
-31.672397531
 10
-55.9101909965
 20
-31.4943626627
 10
-55.9606589095
 20
-31.3182783199
 10
-56.0080390583
 20
-31.1459725973
 10
-56.0524732491
 20
-30.9774636743
 10
-56.0940908708
 20
-30.8128047404
 10
-56.1325861158
 20
-30.653871555
 10
-56.1681419639
 20
-30.5006923184
 10
-56.2009310574
 20
-30.3533049347
 10
-56.2307296825
 20
-30.2136096843
 10
-56.2577519213
 20
-30.0815980292
 10
-56.2821831984
 20
-29.9573373528
 10
-56.3038355844
 20
-29.8428479293
 10
-56.3227991696
 20
-29.7388209179
 10
-56.3393914892
 20
-29.6446132553
 10
-56.3537837215
 20
-29.5602434442
  0
LWPOLYLINE
  5
292
100
AcDbEntity
  8
DRAFT
100
AcDbPolyline
 62
7
  6
CONTINUOUS
 90
67
 70
0
 10
-41.7015765116
 20
-43.6664068131
 10
-42.0304991171
 20
-43.6253459651
 10
-42.358298393
 20
-43.5779151234
 10
-42.6849760435
 20
-43.5241130985
 10
-43.0106482399
 20
-43.4639066736
 10
-43.3352019917
 20
-43.3973262169
 10
-43.6582951289
 20
-43.3244657108
 10
-43.9799548484
 20
-43.2453115366
 10
-44.3001566071
 20
-43.1598736259
 10
-44.6184804569
 20
-43.068281141
 10
-44.9348885783
 20
-42.9705497655
 10
-45.2494208452
 20
-42.8666594058
 10
-45.5617736679
 20
-42.7566854399
 10
-45.871980894
 20
-42.6405907541
 10
-46.1800101114
 20
-42.5184073602
 10
-46.4854581386
 20
-42.3903142644
 10
-46.7882950259
 20
-42.2563198345
 10
-47.0885514566
 20
-42.1164101323
 10
-47.3859149795
 20
-41.9707307166
 10
-47.6804149439
 20
-41.8192186304
 10
-47.9720220375
 20
-41.6619308401
 10
-48.2603355869
 20
-41.4991929314
 10
-48.5453006515
 20
-41.3311276553
 10
-48.8269714723
 20
-41.1576062889
 10
-49.1051109358
 20
-40.9785772742
 10
-49.3796862515
 20
-40.7939616624
 10
-49.6507288331
 20
-40.6038319531
 10
-49.9180976869
 20
-40.4083637732
 10
-50.1818110186
 20
-40.2075250989
 10
-50.4418485742
 20
-40.001341508
 10
-50.6980115051
 20
-39.7900752841
 10
-50.9503885781
 20
-39.5737701421
 10
-51.1988883609
 20
-39.3523761842
 10
-51.4430415259
 20
-39.1260155299
 10
-51.6827970029
 20
-38.8945647925
 10
-51.9182025084
 20
-38.6581412314
 10
-52.1489367611
 20
-38.4172283921
 10
-52.3750204369
 20
-38.1718701706
 10
-52.5964290642
 20
-37.9220174131
 10
-52.8127735879
 20
-37.6680147492
 10
-53.0240301961
 20
-37.4098709904
 10
-53.2302184805
 20
-37.1475727292
 10
-53.431014451
 20
-36.8814318222
 10
-53.6263179433
 20
-36.611439598
 10
-53.816224567
 20
-36.3376008244
 10
-54.0007040354
 20
-36.060248078
 10
-54.1798261734
 20
-35.779379798
 10
-54.3535164733
 20
-35.4949944301
 10
-54.5215282519
 20
-35.207425147
 10
-54.683829185
 20
-34.9166980447
 10
-54.8404468167
 20
-34.6227847427
 10
-54.991224366
 20
-34.3259372247
 10
-55.1361672605
 20
-34.0260975103
 10
-55.2752652336
 20
-33.7233219626
 10
-55.4083381469
 20
-33.4180346653
 10
-55.5353530671
 20
-33.1102770624
 10
-55.6563382949
 20
-32.8000070979
 10
-55.7712057943
 20
-32.4875242108
 10
-55.8799703814
 20
-32.1727978816
 10
-55.9826127884
 20
-31.8558587321
 10
-56.0789941345
 20
-31.5370984694
 10
-56.1690969737
 20
-31.2165419274
 10
-56.2529346659
 20
-30.8941652315
 10
-56.3304148638
 20
-30.5702875657
 10
-56.4015056091
 20
-30.2450159556
 10
-56.4662351721
 20
-29.918245042
 10
-56.5246017199
 20
-29.589975698
  0
LWPOLYLINE
  5
293
100
AcDbEntity
  8
RACCORDO
100
AcDbPolyline
 62
253
  6
CONTINUOUS
 90
16
 70
0
 10
-56.3537837159
 20
-29.5602433242
 10
-56.349806726
 20
-29.5614734853
 10
-56.3433260809
 20
-29.5622514768
 10
-56.3343976419
 20
-29.5625705927
 10
-56.3230983691
 20
-29.5624280824
 10
-56.3095256585
 20
-29.5618251741
 10
-56.2937965025
 20
-29.5607670648
 10
-56.2760464813
 20
-29.559262875
 10
-56.2564285942
 20
-29.5573255704
 10
-56.2351119411
 20
-29.5549718499
 10
-56.2122802645
 20
-29.5522220018
 10
-56.188130366
 20
-29.5490997289
 10
-56.1628704098
 20
-29.5456319441
 10
-56.1367181286
 20
-29.5418485387
 10
-56.1098989465
 20
-29.5377821244
 10
-56.082644036
 20
-29.5334677522
  0
LWPOLYLINE
  5
294
100
AcDbEntity
  8
RACCORDO
100
AcDbPolyline
 62
253
  6
CONTINUOUS
 90
10
 70
0
 10
-36.6892060251
 20
43.0880827688
 10
-36.6898715057
 20
43.0834451019
 10
-36.6902874438
 20
43.0753628095
 10
-36.6904489579
 20
43.0639307452
 10
-36.6903541527
 20
43.0492830753
 10
-36.6900041406
 20
43.0315917045
 10
-36.6894030294
 20
43.011064258
 10
-36.6885578738
 20
42.9879416454
 10
-36.6874785924
 20
42.9624952329
 10
-36.6846709172
 20
42.9058493288
  0
LWPOLYLINE
  5
295
100
AcDbEntity
  8
RACCORDO
100
AcDbPolyline
 62
253
  6
CONTINUOUS
 90
16
 70
0
 10
62.2270643967
 20
-25.5718715574
 10
62.2232165014
 20
-25.5727627836
 10
62.2168165081
 20
-25.5733739425
 10
62.2079200925
 20
-25.5736997174
 10
62.1966046476
 20
-25.5737372744
 10
62.1829686103
 20
-25.5734862866
 10
62.1671306053
 20
-25.5729489376
 10
62.1492284129
 20
-25.5721299018
 10
62.1294177704
 20
-25.5710363044
 10
62.1078710175
 20
-25.569677659
 10
62.0847755968
 20
-25.5680657849
 10
62.0603324233
 20
-25.5662147043
 10
62.0347541367
 20
-25.5641405204
 10
62.0082632514
 20
-25.5618612773
 10
61.9810902206
 20
-25.5593968029
 10
61.9534714321
 20
-25.5567685365
  0
LWPOLYLINE
  5
296
100
AcDbEntity
  8
RACCORDO
100
AcDbPolyline
 62
253
  6
CONTINUOUS
 90
9
 70
0
 10
-36.6892060251
 20
-43.9408963949
 10
-36.6898715057
 20
-43.9362587281
 10
-36.6902874438
 20
-43.9281764357
 10
-36.6904489579
 20
-43.9167443714
 10
-36.6903541526
 20
-43.9020967015
 10
-36.6900041405
 20
-43.8844053307
 10
-36.6894030294
 20
-43.8638778842
 10
-36.6885578738
 20
-43.8407552716
 10
-36.6874785924
 20
-43.8153088591
  0
LWPOLYLINE
  5
297
100
AcDbEntity
  8
RACCORDO
100
AcDbPolyline
 62
253
  6
CONTINUOUS
 90
7
 70
0
 10
-31.2543170236
 20
-44.2769165218
 10
-31.2547527445
 20
-44.2723085813
 10
-31.2549768034
 20
-44.2642613059
 10
-31.2549865769
 20
-44.2528689228
 10
-31.2547819504
 20
-44.2382648277
 10
-31.25436532
 20
-44.2206200228
 10
-31.253741564
 20
-44.2001411145
  0
LWPOLYLINE
  5
298
100
AcDbEntity
  8
RACCORDO
100
AcDbPolyline
 62
253
  6
CONTINUOUS
 90
7
 70
0
 10
-31.1610028629
 20
-44.2822486003
 10
-31.1614374014
 20
-44.2776409859
 10
-31.1616608955
 20
-44.2695941498
 10
-31.1616707282
 20
-44.2582023098
 10
-31.1614667845
 20
-44.2435988493
 10
-31.1610514523
 20
-44.2259547555
 10
-31.1604295946
 20
-44.2054766175
  0
LINE
  5
299
100
AcDbEntity
  8
RACCORDO
100
AcDbLine
 62
253
  6
CONTINUOUS
 10
-36.7015765116
 20
43.2670283879
 11
-36.6892045399
 21
43.0880828683
  0
LINE
  5
29A
100
AcDbEntity
  8
RACCORDO
100
AcDbLine
 62
253
  6
CONTINUOUS
 10
-36.6846709172
 20
42.9058493288
 11
-36.6811114202
 21
42.8437779219
  0
LINE
  5
29B
100
AcDbEntity
  8
RACCORDO
100
AcDbLine
 62
253
  6
CONTINUOUS
 10
-36.6874785924
 20
-43.8153088591
 11
-36.6846709172
 21
-43.758662955
  0
LINE
  5
29C
100
AcDbEntity
  8
RACCORDO
100
AcDbLine
 62
253
  6
CONTINUOUS
 10
-36.6846709172
 20
-43.758662955
 11
-36.6811114202
 21
-43.696591548
  0
LINE
  5
29D
100
AcDbEntity
  8
RACCORDO
100
AcDbLine
 62
253
  6
CONTINUOUS
 10
-36.7015765116
 20
-44.119842014
 11
-36.6892045544
 21
-43.9408964935
  0
LWPOLYLINE
  5
29E
100
AcDbEntity
  8
RACCORDO
100
AcDbPolyline
 62
253
  6
CONTINUOUS
 90
8
 70
0
 10
-31.161002863
 20
43.4294349749
 10
-31.1614374015
 20
43.4248273604
 10
-31.1616608955
 20
43.4167805243
 10
-31.1616707283
 20
43.4053886842
 10
-31.1614667846
 20
43.3907852237
 10
-31.1610514524
 20
43.3731411299
 10
-31.1604295946
 20
43.3526629918
 10
-31.15859776
 20
43.3041940461
  0
LWPOLYLINE
  5
29F
100
AcDbEntity
  8
RACCORDO
100
AcDbPolyline
 62
253
  6
CONTINUOUS
 90
8
 70
0
 10
-31.2543170236
 20
43.4241028957
 10
-31.2547527445
 20
43.4194949551
 10
-31.2549768034
 20
43.4114476797
 10
-31.2549865769
 20
43.4000552967
 10
-31.2547819504
 20
43.3854512016
 10
-31.25436532
 20
43.3678063966
 10
-31.253741564
 20
43.3473274884
 10
-31.25190423
 20
43.2988569053
  0
LWPOLYLINE
  5
2A0
100
AcDbEntity
  8
RACCORDO
100
AcDbPolyline
 62
253
  6
CONTINUOUS
 90
3
 70
0
 10
-41.6703256892
 20
-43.3354100877
 10
-41.6642594714
 20
-43.2758653681
 10
-41.6608798847
 20
-43.2444273693
  0
LINE
  5
2A1
100
AcDbEntity
  8
RACCORDO
100
AcDbLine
 62
253
  6
CONTINUOUS
 10
-41.7015765116
 20
-43.6664068131
 11
-41.6806000168
 21
-43.4883314085
  0
LWPOLYLINE
  5
2A2
100
AcDbEntity
  8
RACCORDO
100
AcDbPolyline
 62
7
  6
CONTINUOUS
 90
16
 70
0
 10
-31.0575468312
 20
22.1303499044
 10
-31.1083617155
 20
22.0868865048
 10
-31.1562397673
 20
22.0407307956
 10
-31.2010786132
 20
21.9920667347
 10
-31.2427626924
 20
21.9411041902
 10
-31.2811766366
 20
21.8880837176
 10
-31.3162278561
 20
21.8332523008
 10
-31.3477972204
 20
21.776958266
 10
-31.3759579915
 20
21.7192182642
 10
-31.4008354692
 20
21.6597772992
 10
-31.4223680124
 20
21.5986461723
 10
-31.4403622224
 20
21.5362573877
 10
-31.4547118261
 20
21.4729877221
 10
-31.4653697418
 20
21.4090875357
 10
-31.4723280403
 20
21.3446874673
 10
-31.475566863
 20
21.2799873548
  0
LWPOLYLINE
  5
2A3
100
AcDbEntity
  8
RACCORDO
100
AcDbPolyline
 62
253
  6
CONTINUOUS
 90
25
 70
0
 10
-31.3208518527
 20
22.4474513323
 10
-31.2889732533
 20
22.4733097562
 10
-31.2562977296
 20
22.498360723
 10
-31.2228252823
 20
22.522604238
 10
-31.1884887078
 20
22.546096603
 10
-31.1533552104
 20
22.5687815266
 10
-31.1176264023
 20
22.5904901256
 10
-31.0813198206
 20
22.6111879777
 10
-31.0444179267
 20
22.6309095167
 10
-31.0070697182
 20
22.6495891444
 10
-30.96930546
 20
22.6672090342
 10
-30.9310948835
 20
22.6837870232
 10
-30.8924961861
 20
22.6993110095
 10
-30.8535139914
 20
22.7137838222
 10
-30.81414367
 20
22.7272026409
 10
-30.7744295388
 20
22.7395468888
 10
-30.7343691532
 20
22.7508187978
 10
-30.6939649501
 20
22.761016143
 10
-30.6532685675
 20
22.7701116629
 10
-30.6122824436
 20
22.7781044441
 10
-30.5710041304
 20
22.7849954051
 10
-30.5294779363
 20
22.790760032
 10
-30.4877186267
 20
22.7953901545
 10
-30.4457114245
 20
22.7988939461
 10
-30.4034563234
 20
22.801271408
  0
LWPOLYLINE
  5
2A4
100
AcDbEntity
  8
RACCORDO
100
AcDbPolyline
 62
253
  6
CONTINUOUS
 90
13
 70
0
 10
62.3026288149
 20
-24.8140680336
 10
62.2987958255
 20
-24.8148333395
 10
62.2924077767
 20
-24.8153285093
 10
62.2835202818
 20
-24.8155492321
 10
62.2722107135
 20
-24.8154935864
 10
62.2585775307
 20
-24.8151620565
 10
62.2427394213
 20
-24.8145575288
 10
62.2248342688
 20
-24.8136852661
 10
62.2050179519
 20
-24.8125528622
 10
62.1834629876
 20
-24.8111701756
 10
62.1603570294
 20
-24.8095492436
 10
62.135901233
 20
-24.8077041778
 10
62.1103085061
 20
-24.805651041
  0
LWPOLYLINE
  5
2A5
100
AcDbEntity
  8
RACCORDO
100
AcDbPolyline
 62
253
  6
CONTINUOUS
 90
12
 70
0
 10
62.3162955743
 20
-24.6744076681
 10
62.3124635984
 20
-24.6751690506
 10
62.3060762816
 20
-24.6756619867
 10
62.2971892329
 20
-24.6758821851
 10
62.2858798244
 20
-24.6758277286
 10
62.2722465176
 20
-24.6754990912
 10
62.2564080062
 20
-24.6748991342
 10
62.2385021828
 20
-24.674033081
 10
62.2186849384
 20
-24.6729084714
 10
62.1971288051
 20
-24.6715350965
 10
62.1740214538
 20
-24.6699249131
 10
62.149564061
 20
-24.6680919399
  0
LWPOLYLINE
  5
2A6
100
AcDbEntity
  8
RACCORDO
100
AcDbPolyline
 62
253
  6
CONTINUOUS
 90
13
 70
0
 10
-56.9792074071
 20
-24.6744076669
 10
-56.9753754311
 20
-24.6751690493
 10
-56.9689881143
 20
-24.6756619855
 10
-56.9601010659
 20
-24.6758821839
 10
-56.9487916578
 20
-24.6758277273
 10
-56.9351583516
 20
-24.67549909
 10
-56.919319841
 20
-24.6748991331
 10
-56.9014140185
 20
-24.6740330799
 10
-56.8815967751
 20
-24.6729084704
 10
-56.8600406428
 20
-24.6715350956
 10
-56.8369332927
 20
-24.6699249123
 10
-56.8124759011
 20
-24.6680919391
 10
-56.7603726129
 20
-24.6638232563
  0
LWPOLYLINE
  5
2A7
100
AcDbEntity
  8
RACCORDO
100
AcDbPolyline
 62
253
  6
CONTINUOUS
 90
15
 70
0
 10
-56.9655406603
 20
-24.8140680336
 10
-56.9617076708
 20
-24.8148333395
 10
-56.9553196221
 20
-24.8153285093
 10
-56.9464321272
 20
-24.8155492321
 10
-56.9351225589
 20
-24.8154935864
 10
-56.9214893761
 20
-24.8151620565
 10
-56.9056512667
 20
-24.8145575288
 10
-56.8877461142
 20
-24.8136852661
 10
-56.8679297973
 20
-24.8125528622
 10
-56.846374833
 20
-24.8111701756
 10
-56.8232688747
 20
-24.8095492436
 10
-56.7988130784
 20
-24.8077041778
 10
-56.7732203514
 20
-24.805651041
 10
-56.7467134991
 20
-24.8034077074
 10
-56.6918864218
 20
-24.7984300555
  0
LWPOLYLINE
  5
2A8
100
AcDbEntity
  8
RACCORDO
100
AcDbPolyline
 62
253
  6
CONTINUOUS
 90
16
 70
0
 10
-56.8899762399
 20
-25.5718715572
 10
-56.8861283448
 20
-25.5727627835
 10
-56.8797283516
 20
-25.5733739424
 10
-56.8708319361
 20
-25.5736997174
 10
-56.8595164913
 20
-25.5737372744
 10
-56.8458804542
 20
-25.5734862867
 10
-56.8300424494
 20
-25.5729489377
 10
-56.8121402572
 20
-25.5721299019
 10
-56.7923296149
 20
-25.5710363046
 10
-56.7707828621
 20
-25.5696776592
 10
-56.7476874415
 20
-25.568065785
 10
-56.7232442682
 20
-25.5662147044
 10
-56.6976659818
 20
-25.5641405205
 10
-56.6711750966
 20
-25.5618612774
 10
-56.6440020659
 20
-25.559396803
 10
-56.6163832775
 20
-25.5567685365
  0
LWPOLYLINE
  5
2A9
100
AcDbEntity
  8
RACCORDO
100
AcDbPolyline
 62
7
  6
CONTINUOUS
 90
13
 70
0
 10
-31.0575502502
 20
-22.9831681169
 10
-31.0096547611
 20
-23.0196611195
 10
-30.9597536929
 20
-23.0536038631
 10
-30.9080001942
 20
-23.0848700946
 10
-30.8545305217
 20
-23.1133590942
 10
-30.7994354321
 20
-23.1389982919
 10
-30.7427664737
 20
-23.161725516
 10
-30.6846964204
 20
-23.1814294749
 10
-30.6255357361
 20
-23.1979749004
 10
-30.5654884452
 20
-23.2112762651
 10
-30.5047010994
 20
-23.2212831902
 10
-30.4432964728
 20
-23.2279630755
 10
-30.3814559228
 20
-23.2312734229
  0
LWPOLYLINE
  5
2AA
100
AcDbEntity
  8
RACCORDO
100
AcDbPolyline
 62
253
  6
CONTINUOUS
 90
31
 70
0
 10
-31.3208518527
 20
-23.3002649584
 10
-31.3589278848
 20
-23.2671663681
 10
-31.3948856229
 20
-23.2342067189
 10
-31.4287250621
 20
-23.2013860124
 10
-31.4601916759
 20
-23.168838366
 10
-31.4895399786
 20
-23.1364296658
 10
-31.517533529
 20
-23.1037575621
 10
-31.5442797185
 20
-23.0708339398
 10
-31.5696711463
 20
-23.0376469098
 10
-31.5941491863
 20
-23.0037584537
 10
-31.6178740844
 20
-22.9690201791
 10
-31.6406855854
 20
-22.9335804647
 10
-31.6625443125
 20
-22.8974464457
 10
-31.6834810303
 20
-22.8605378213
 10
-31.7034649608
 20
-22.8229348783
 10
-31.7223644119
 20
-22.7848856359
 10
-31.7401309714
 20
-22.7464786899
 10
-31.7568130349
 20
-22.7076254362
 10
-31.7724241206
 20
-22.6683080957
 10
-31.786964237
 20
-22.628584494
 10
-31.8004333565
 20
-22.5883967965
 10
-31.8128449416
 20
-22.547553731
 10
-31.8242312348
 20
-22.5060544272
 10
-31.8345599697
 20
-22.4638997415
 10
-31.8437478426
 20
-22.4209009869
 10
-31.8518226765
 20
-22.3770835268
 10
-31.8587566167
 20
-22.3324219792
 10
-31.8643828367
 20
-22.2866515337
 10
-31.868645711
 20
-22.2396839099
 10
-31.871600819
 20
-22.1916073612
 10
-31.8732481364
 20
-22.142421874
  0
LINE
  5
2AB
100
AcDbEntity
  8
RACCORDO
100
AcDbLine
 62
253
  6
CONTINUOUS
 10
-41.7015765116
 20
42.8135931869
 11
-41.6805913109
 21
42.6355187839
  0
LINE
  5
2AC
100
AcDbEntity
  8
RACCORDO
100
AcDbLine
 62
253
  6
CONTINUOUS
 10
-30.3872347334
 20
22.464442797
 11
-30.3821546478
 21
22.3784405927
  0
LINE
  5
2AD
100
AcDbEntity
  8
RACCORDO
100
AcDbLine
 62
253
  6
CONTINUOUS
 10
-31.1610028629
 20
43.4294349742
 11
-31.1712291936
 21
43.6085931525
  0
LINE
  5
2AE
100
AcDbEntity
  8
RACCORDO
100
AcDbLine
 62
253
  6
CONTINUOUS
 10
-30.3921986274
 20
22.5565625266
 11
-30.3872347334
 21
22.464442797
  0
LWPOLYLINE
  5
2AF
100
AcDbEntity
  8
RACCORDO
100
AcDbPolyline
 62
7
  6
CONTINUOUS
 90
16
 70
0
 10
-31.4755764459
 20
-22.1328092335
 10
-31.4722626042
 20
-22.1984172945
 10
-31.465125359
 20
-22.2636696474
 10
-31.4541934683
 20
-22.3283833579
 10
-31.4394569828
 20
-22.3925112968
 10
-31.4209593833
 20
-22.4557440274
 10
-31.398894134
 20
-22.5175140785
 10
-31.3735006026
 20
-22.5773970938
 10
-31.3448335677
 20
-22.6354484258
 10
-31.3128156764
 20
-22.6918092709
 10
-31.2774167573
 20
-22.7464398719
 10
-31.23885106
 20
-22.7989783265
 10
-31.1974049183
 20
-22.8490712752
 10
-31.1532944538
 20
-22.8965206877
 10
-31.1066253721
 20
-22.9412573763
 10
-31.0575502502
 20
-22.9831681169
  0
LINE
  5
2B0
100
AcDbEntity
  8
RACCORDO
100
AcDbLine
 62
253
  6
CONTINUOUS
 10
-31.2493557514
 20
43.2423030129
 11
-31.2462151411
 21
43.1803068601
  0
LINE
  5
2B1
100
AcDbEntity
  8
RACCORDO
100
AcDbLine
 62
253
  6
CONTINUOUS
 10
-31.156056823
 20
43.2476417711
 11
-31.1529254393
 21
43.1856470235
  0
LINE
  5
2B2
100
AcDbEntity
  8
RACCORDO
100
AcDbLine
 62
253
  6
CONTINUOUS
 10
-30.3969465393
 20
22.6529478157
 11
-30.3921986274
 21
22.5565625266
  0
LINE
  5
2B3
100
AcDbEntity
  8
RACCORDO
100
AcDbLine
 62
253
  6
CONTINUOUS
 10
-31.25190423
 20
43.2988569053
 11
-31.2493557514
 21
43.2423030129
  0
LINE
  5
2B4
100
AcDbEntity
  8
RACCORDO
100
AcDbLine
 62
253
  6
CONTINUOUS
 10
-31.15859776
 20
43.3041940461
 11
-31.156056823
 21
43.2476417711
  0
LINE
  5
2B5
100
AcDbEntity
  8
RACCORDO
100
AcDbLine
 62
253
  6
CONTINUOUS
 10
-30.4034563233
 20
22.8012714078
 11
-30.3969465393
 21
22.6529478157
  0
LWPOLYLINE
  5
2B6
100
AcDbEntity
  8
SUPERFICI
100
AcDbPolyline
 62
7
  6
CONTINUOUS
 90
25
 70
0
 10
-31.1958439424
 20
-22.1264068131
 10
-31.1939839465
 20
-22.1796175796
 10
-31.1886572957
 20
-22.232594939
 10
-31.1798858731
 20
-22.2851136336
 10
-31.1677056339
 20
-22.336950662
 10
-31.1521679984
 20
-22.3878848334
 10
-31.1333399262
 20
-22.4376980578
 10
-31.1113006163
 20
-22.4861789744
 10
-31.0861432424
 20
-22.5331204056
 10
-31.0579769289
 20
-22.5783196495
 10
-31.0269214409
 20
-22.6215844477
 10
-30.9931084648
 20
-22.6627307515
 10
-30.9566843333
 20
-22.7015813679
 10
-30.9178043814
 20
-22.7379712312
 10
-30.8766336702
 20
-22.7717459763
 10
-30.8333493574
 20
-22.8027609299
 10
-30.7881356368
 20
-22.8308848582
 10
-30.7411848155
 20
-22.8559984579
 10
-30.6926989108
 20
-22.8779940969
 10
-30.6428845985
 20
-22.8967790323
 10
-30.5919533256
 20
-22.9122741566
 10
-30.5401230242
 20
-22.9244133449
 10
-30.4876145534
 20
-22.9331455838
 10
-30.4346505453
 20
-22.9384348724
 10
-30.3814559227
 20
-22.940259436
  0
LINE
  5
2B7
100
AcDbEntity
  8
RACCORDO
100
AcDbLine
 62
253
  6
CONTINUOUS
 10
-31.2694882855
 20
-39.7874365132
 11
-31.2462151411
 21
-44.0331204862
  0
LINE
  5
2B8
100
AcDbEntity
  8
RACCORDO
100
AcDbLine
 62
253
  6
CONTINUOUS
 10
-31.2886621827
 20
-35.5221992987
 11
-31.2694882855
 21
-39.7874365132
  0
LINE
  5
2B9
100
AcDbEntity
  8
RACCORDO
100
AcDbLine
 62
253
  6
CONTINUOUS
 10
-31.3037198199
 20
-31.2411933185
 11
-31.2886621827
 21
-35.5221992987
  0
LINE
  5
2BA
100
AcDbEntity
  8
RACCORDO
100
AcDbLine
 62
253
  6
CONTINUOUS
 10
-31.3146478368
 20
-26.9482170395
 11
-31.3037198199
 21
-31.2411933185
  0
LINE
  5
2BB
100
AcDbEntity
  8
RACCORDO
100
AcDbLine
 62
253
  6
CONTINUOUS
 10
-31.8732481364
 20
-22.142421874
 11
-31.8827132442
 21
-17.5016910508
  0
LINE
  5
2BC
100
AcDbEntity
  8
RACCORDO
100
AcDbLine
 62
253
  6
CONTINUOUS
 10
-31.2852260047
 20
-22.126407683
 11
-31.2956073757
 21
-16.9475154973
  0
LINE
  5
2BD
100
AcDbEntity
  8
0
100
AcDbLine
 62
7
  6
CONTINUOUS
 10
-31.1958439424
 20
-22.1264068131
 11
-31.2096072507
 21
-14.895367355
  0
LINE
  5
2BE
100
AcDbEntity
  8
RACCORDO
100
AcDbLine
 62
7
  6
CONTINUOUS
 10
-31.4893108215
 20
-14.9005976075
 11
-31.4755896517
 21
-22.1328091612
  0
LINE
  5
2BF
100
AcDbEntity
  8
RACCORDO
100
AcDbLine
 62
253
  6
CONTINUOUS
 10
-31.3208518527
 20
-23.3002649584
 11
-31.3146478368
 21
-26.9482170395
  0
LINE
  5
2C0
100
AcDbEntity
  8
RACCORDO
100
AcDbLine
 62
253
  6
CONTINUOUS
 10
-31.8827132442
 20
-17.5016910508
 11
-31.890210607
 21
-12.5765183312
  0
LINE
  5
2C1
100
AcDbEntity
  8
RACCORDO
100
AcDbLine
 62
253
  6
CONTINUOUS
 10
-31.2956073757
 20
-16.9475154973
 11
-31.3031591901
 21
-11.7798213423
  0
LINE
  5
2C2
100
AcDbEntity
  8
RACCORDO
100
AcDbLine
 62
253
  6
CONTINUOUS
 10
-31.890210607
 20
-12.5765183312
 11
-31.8953531663
 21
-7.4880138696
  0
LINE
  5
2C3
100
AcDbEntity
  8
RACCORDO
100
AcDbLine
 62
7
  6
CONTINUOUS
 10
-31.4975375403
 20
-7.664769716
 11
-31.4893108215
 21
-14.9005976075
  0
LINE
  5
2C4
100
AcDbEntity
  8
0
100
AcDbLine
 62
7
  6
CONTINUOUS
 10
-31.2096072507
 20
-14.895367355
 11
-31.2178657374
 21
-7.6618428654
  0
LINE
  5
2C5
100
AcDbEntity
  8
RACCORDO
100
AcDbLine
 62
253
  6
CONTINUOUS
 10
-31.3031591901
 20
-11.7798213423
 11
-31.3080555005
 21
-6.3844444843
  0
LINE
  5
2C6
100
AcDbEntity
  8
RACCORDO
100
AcDbLine
 62
253
  6
CONTINUOUS
 10
-31.8953531663
 20
-7.4880138696
 11
-31.8977087908
 21
-2.7201498739
  0
LINE
  5
2C7
100
AcDbEntity
  8
RACCORDO
100
AcDbLine
 62
253
  6
CONTINUOUS
 10
-31.3080555005
 20
-6.3844444843
 11
-31.3099163864
 21
-0.4264068131
  0
LINE
  5
2C8
100
AcDbEntity
  8
0
100
AcDbLine
 62
7
  6
CONTINUOUS
 10
-31.2178657374
 20
-7.6618428654
 11
-31.2206190753
 21
-0.4264068131
  0
LINE
  5
2C9
100
AcDbEntity
  8
RACCORDO
100
AcDbLine
 62
7
  6
CONTINUOUS
 10
-31.5002767121
 20
-0.4264068131
 11
-31.4975375403
 21
-7.664769716
  0
LINE
  5
2CA
100
AcDbEntity
  8
RACCORDO
100
AcDbLine
 62
253
  6
CONTINUOUS
 10
-30.3814559227
 20
22.378453857
 11
-30.3814559227
 21
22.0874458099
  0
LINE
  5
2CB
100
AcDbEntity
  8
RACCORDO
100
AcDbLine
 62
253
  6
CONTINUOUS
 10
-30.3814559228
 20
-23.2312674831
 11
-30.3814559227
 21
-22.940259436
  0
LINE
  5
2CC
100
AcDbEntity
  8
RACCORDO
100
AcDbLine
 62
253
  6
CONTINUOUS
 10
-31.8977087908
 20
-2.7201498739
 11
-31.8968523002
 21
4.2203760721
  0
LINE
  5
2CD
100
AcDbEntity
  8
RACCORDO
100
AcDbLine
 62
7
  6
CONTINUOUS
 10
-31.4975395164
 20
6.8115460001
 11
-31.5002767236
 21
-0.4264068131
  0
LINE
  5
2CE
100
AcDbEntity
  8
0
100
AcDbLine
 62
7
  6
CONTINUOUS
 10
-31.2206190753
 20
-0.4264068131
 11
-31.2178657374
 21
6.8090292393
  0
LINE
  5
2CF
100
AcDbEntity
  8
RACCORDO
100
AcDbLine
 62
253
  6
CONTINUOUS
 10
-31.8968523002
 20
4.2203760721
 11
-31.8931499975
 21
9.1401291967
  0
LINE
  5
2D0
100
AcDbEntity
  8
RACCORDO
100
AcDbLine
 62
253
  6
CONTINUOUS
 10
-31.3099163864
 20
-0.4264068131
 11
-31.3045144762
 21
9.7292974928
  0
LINE
  5
2D1
100
AcDbEntity
  8
RACCORDO
100
AcDbLine
 62
253
  6
CONTINUOUS
 10
-31.8931499975
 20
9.1401291967
 11
-31.8867348274
 21
14.2169403673
  0
LINE
  5
2D2
100
AcDbEntity
  8
RACCORDO
100
AcDbLine
 62
7
  6
CONTINUOUS
 10
-31.4893087204
 20
14.047428768
 11
-31.4975395164
 21
6.8115460001
  0
LINE
  5
2D3
100
AcDbEntity
  8
0
100
AcDbLine
 62
7
  6
CONTINUOUS
 10
-31.2178657374
 20
6.8090292393
 11
-31.2096072507
 21
14.0425537289
  0
LWPOLYLINE
  5
2D4
100
AcDbEntity
  8
RACCORDO
100
AcDbPolyline
 62
253
  6
CONTINUOUS
 90
3
 70
0
 10
-31.8867348274
 20
14.2169403673
 10
-31.8782383658
 20
18.9890507302
 10
-31.8732481384
 20
21.2896081686
  0
LINE
  5
2D5
100
AcDbEntity
  8
RACCORDO
100
AcDbLine
 62
253
  6
CONTINUOUS
 10
-31.3208518527
 20
22.4474513323
 11
-31.3146478368
 21
26.0954034284
  0
LWPOLYLINE
  5
2D6
100
AcDbEntity
  8
RACCORDO
100
AcDbPolyline
 62
253
  6
CONTINUOUS
 90
3
 70
0
 10
-31.3045144762
 20
9.7292974928
 10
-31.2885309795
 20
19.7616551419
 10
-31.2852259972
 20
21.2735977012
  0
LINE
  5
2D7
100
AcDbEntity
  8
0
100
AcDbLine
 62
7
  6
CONTINUOUS
 10
-31.2096072507
 20
14.0425537289
 11
-31.1958439424
 21
21.2735931869
  0
LINE
  5
2D8
100
AcDbEntity
  8
RACCORDO
100
AcDbLine
 62
7
  6
CONTINUOUS
 10
-31.4755895614
 20
21.2799873147
 11
-31.4893087204
 21
14.047428768
  0
LINE
  5
2D9
100
AcDbEntity
  8
RACCORDO
100
AcDbLine
 62
253
  6
CONTINUOUS
 10
-31.3146478368
 20
26.0954034284
 11
-31.3037198198
 21
30.3883797372
  0
LINE
  5
2DA
100
AcDbEntity
  8
RACCORDO
100
AcDbLine
 62
253
  6
CONTINUOUS
 10
-31.3037198198
 20
30.3883797372
 11
-31.2886621824
 21
34.6693857571
  0
LINE
  5
2DB
100
AcDbEntity
  8
RACCORDO
100
AcDbLine
 62
253
  6
CONTINUOUS
 10
-31.2886621824
 20
34.6693857571
 11
-31.2694882852
 21
38.9346229613
  0
LINE
  5
2DC
100
AcDbEntity
  8
RACCORDO
100
AcDbLine
 62
253
  6
CONTINUOUS
 10
-31.2694882852
 20
38.9346229613
 11
-31.2462151411
 21
43.1803068601
  0
LWPOLYLINE
  5
2DD
100
AcDbEntity
  8
RACCORDO
100
AcDbPolyline
 62
253
  6
CONTINUOUS
 90
52
 70
0
 10
-31.2852316486
 20
21.2735977015
 10
-31.2843705944
 20
21.3109825224
 10
-31.2819006413
 20
21.3490429736
 10
-31.2777318571
 20
21.3877049624
 10
-31.2716995413
 20
21.4273249048
 10
-31.2637554691
 20
21.467366091
 10
-31.2541647151
 20
21.506437821
 10
-31.2430939589
 20
21.5442557697
 10
-31.2305868753
 20
21.5810010385
 10
-31.2169770163
 20
21.6160532171
 10
-31.2025167625
 20
21.6492161787
 10
-31.1872907717
 20
21.6806922869
 10
-31.1714463454
 20
21.7105001174
 10
-31.155150142
 20
21.7386205531
 10
-31.1385138157
 20
21.7651257986
 10
-31.1215772625
 20
21.7901733281
 10
-31.1044710356
 20
21.8137629426
 10
-31.0872740423
 20
21.8359636073
 10
-31.0699065868
 20
21.8570189626
 10
-31.0524611861
 20
21.8769313872
 10
-31.0349846713
 20
21.8957547987
 10
-31.0172804896
 20
21.9137768955
 10
-30.9993814238
 20
21.9310142644
 10
-30.9813310554
 20
21.9474729051
 10
-30.9629053883
 20
21.9633848362
 10
-30.9440857895
 20
21.9787723348
 10
-30.9249247285
 20
21.9935987084
 10
-30.9052763694
 20
22.0079750857
 10
-30.8850868029
 20
22.0219251913
 10
-30.8644254657
 20
22.0353855042
 10
-30.8433237535
 20
22.0483252466
 10
-30.8217249883
 20
22.0607662201
 10
-30.7997078939
 20
22.0726503695
 10
-30.7775191991
 20
22.0838481435
 10
-30.75517139
 20
22.094368322
 10
-30.7326969756
 20
22.1042097756
 10
-30.7103918363
 20
22.113270089
 10
-30.6883785446
 20
22.1215432764
 10
-30.6665935709
 20
22.1290959075
 10
-30.6450604219
 20
22.1359568525
 10
-30.6239008424
 20
22.1421272016
 10
-30.6030403585
 20
22.1476676508
 10
-30.5821998636
 20
22.1526751774
 10
-30.561437571
 20
22.1571484453
 10
-30.5407235705
 20
22.1611063447
 10
-30.5196343959
 20
22.1646247409
 10
-30.4981580517
 20
22.1676837772
 10
-30.4763241172
 20
22.1702572696
 10
-30.4537638883
 20
22.1723531133
 10
-30.4303602558
 20
22.1739264316
 10
-30.406251531
 20
22.1749104539
 10
-30.3814526947
 20
22.1752505527
  0
LWPOLYLINE
  5
2DE
100
AcDbEntity
  8
RACCORDO
100
AcDbPolyline
 62
253
  6
CONTINUOUS
 90
31
 70
0
 10
-31.8732481384
 20
21.2896081686
 10
-31.8716013258
 20
21.3387870081
 10
-31.868646803
 20
21.3868581584
 10
-31.8643845944
 20
21.433821633
 10
-31.8587592064
 20
21.4795892803
 10
-31.8518261786
 20
21.5242492788
 10
-31.8437520795
 20
21.5680661338
 10
-31.8345647215
 20
21.6110652283
 10
-31.8242363238
 20
21.6532211978
 10
-31.8128500587
 20
21.6947224209
 10
-31.8004381618
 20
21.7355680407
 10
-31.7869684214
 20
21.7757589279
 10
-31.7724273352
 20
21.8154860484
 10
-31.7568148741
 20
21.8548072798
 10
-31.7401310863
 20
21.8936647534
 10
-31.7223625842
 20
21.9320758127
 10
-31.703460876
 20
21.970129117
 10
-31.6834744702
 20
22.0077360151
 10
-31.6625354786
 20
22.0446478871
 10
-31.6406746896
 20
22.0807843136
 10
-31.617861328
 20
22.1162257279
 10
-31.5941351593
 20
22.1509647909
 10
-31.5696565705
 20
22.1848529241
 10
-31.5442651835
 20
22.2180387198
 10
-31.5175196168
 20
22.2509605911
 10
-31.4895273433
 20
22.2836304142
 10
-31.4601808993
 20
22.3160363173
 10
-31.428716501
 20
22.3485810842
 10
-31.3948795588
 20
22.3813989738
 10
-31.3589246744
 20
22.4143557236
 10
-31.3208518527
 20
22.4474513323
  0
LWPOLYLINE
  5
2DF
100
AcDbEntity
  8
0
100
AcDbPolyline
 62
7
  6
CONTINUOUS
 90
25
 70
0
 10
-31.1958439424
 20
21.2735931869
 10
-31.1939839465
 20
21.3268039535
 10
-31.1886572957
 20
21.3797813129
 10
-31.1798858731
 20
21.4323000075
 10
-31.1677056339
 20
21.4841370359
 10
-31.1521679984
 20
21.5350712073
 10
-31.1333399262
 20
21.5848844317
 10
-31.1113006163
 20
21.6333653483
 10
-31.0861432424
 20
21.6803067795
 10
-31.0579769289
 20
21.7255060234
 10
-31.0269214409
 20
21.7687708216
 10
-30.9931084648
 20
21.8099171254
 10
-30.9566843333
 20
21.8487677418
 10
-30.9178043814
 20
21.8851576051
 10
-30.8766336702
 20
21.9189323502
 10
-30.8333493574
 20
21.9499473037
 10
-30.7881356368
 20
21.9780712321
 10
-30.7411848155
 20
22.0031848318
 10
-30.6926989108
 20
22.0251804708
 10
-30.6428845985
 20
22.0439654062
 10
-30.5919533256
 20
22.0594605305
 10
-30.5401230242
 20
22.0715997188
 10
-30.4876145534
 20
22.0803319577
 10
-30.4346505453
 20
22.0856212463
 10
-30.3814559227
 20
22.0874458099
  0
LINE
  5
2E0
100
AcDbEntity
  8
RACCORDO
100
AcDbLine
 62
253
  6
CONTINUOUS
 10
-31.1604295946
 20
-44.2054766175
 11
-31.1585977599
 21
-44.1570076719
  0
LINE
  5
2E1
100
AcDbEntity
  8
RACCORDO
100
AcDbLine
 62
253
  6
CONTINUOUS
 10
-31.253741564
 20
-44.2001411145
 11
-31.25190423
 21
-44.1516705314
  0
LINE
  5
2E2
100
AcDbEntity
  8
RACCORDO
100
AcDbLine
 62
253
  6
CONTINUOUS
 10
-30.4034563191
 20
-23.6540850277
 11
-30.3969465226
 21
-23.505761406
  0
LINE
  5
2E3
100
AcDbEntity
  8
RACCORDO
100
AcDbLine
 62
253
  6
CONTINUOUS
 10
-31.1585977599
 20
-44.1570076719
 11
-31.156056823
 21
-44.1004553971
  0
LINE
  5
2E4
100
AcDbEntity
  8
RACCORDO
100
AcDbLine
 62
253
  6
CONTINUOUS
 10
-31.25190423
 20
-44.1516705314
 11
-31.2493557514
 21
-44.0951166391
  0
LINE
  5
2E5
100
AcDbEntity
  8
RACCORDO
100
AcDbLine
 62
253
  6
CONTINUOUS
 10
-30.3969465226
 20
-23.505761406
 11
-30.3921986073
 21
-23.4093760127
  0
LINE
  5
2E6
100
AcDbEntity
  8
RACCORDO
100
AcDbLine
 62
253
  6
CONTINUOUS
 10
-31.2493557514
 20
-44.0951166391
 11
-31.2462151411
 21
-44.0331204862
  0
LINE
  5
2E7
100
AcDbEntity
  8
RACCORDO
100
AcDbLine
 62
253
  6
CONTINUOUS
 10
-31.156056823
 20
-44.1004553971
 11
-31.1529254393
 21
-44.0384606496
  0
LINE
  5
2E8
100
AcDbEntity
  8
RACCORDO
100
AcDbLine
 62
253
  6
CONTINUOUS
 10
-30.3921986073
 20
-23.4093760127
 11
-30.3872347354
 21
-23.3172565536
  0
LINE
  5
2E9
100
AcDbEntity
  8
RACCORDO
100
AcDbLine
 62
253
  6
CONTINUOUS
 10
-31.1610028629
 20
-44.2822486003
 11
-31.1712291936
 21
-44.4614067786
  0
LINE
  5
2EA
100
AcDbEntity
  8
RACCORDO
100
AcDbLine
 62
253
  6
CONTINUOUS
 10
-30.3872347354
 20
-23.3172565536
 11
-30.3821547027
 21
-23.2312550168
  0
LWPOLYLINE
  5
2EB
100
AcDbEntity
  8
0
100
AcDbPolyline
 62
7
  6
CONTINUOUS
 90
25
 70
0
 10
5.9885628796
 20
-26.5372141541
 10
6.0484526006
 20
-26.5284903613
 10
6.1082845882
 20
-26.5202768432
 10
6.1680588372
 20
-26.5125736049
 10
6.2277361944
 20
-26.5053294349
 10
6.2873558027
 20
-26.4985955541
 10
6.3470350988
 20
-26.4925256177
 10
6.4067871632
 20
-26.4871131619
 10
6.4665989019
 20
-26.4823646601
 10
6.5265484874
 20
-26.4784531741
 10
6.5866451526
 20
-26.4753716055
 10
6.6468796473
 20
-26.47312706
 10
6.7073024145
 20
-26.4719139066
 10
6.7679742309
 20
-26.4717291766
 10
6.8288342977
 20
-26.4725758403
 10
6.8897506911
 20
-26.4746571732
 10
6.9507338667
 20
-26.4779049181
 10
7.0117733423
 20
-26.4823873239
 10
7.0727057805
 20
-26.4885124202
 10
7.1336594001
 20
-26.4961896775
 10
7.1945059461
 20
-26.5055095971
 10
7.2546973597
 20
-26.5171517389
 10
7.3140509349
 20
-26.5313425938
 10
7.3727493258
 20
-26.5478555926
 10
7.4307925071
 20
-26.5666906865
  0
LWPOLYLINE
  5
2EC
100
AcDbEntity
  8
0
100
AcDbPolyline
 62
7
  6
CONTINUOUS
 90
31
 70
0
 10
6.8852247205
 20
-27.7500348996
 10
6.9090864143
 20
-27.7492761782
 10
6.9328408417
 20
-27.7477789605
 10
6.9564880061
 20
-27.7455432448
 10
6.9800639769
 20
-27.7426326909
 10
7.0035326909
 20
-27.7389836338
 10
7.0267859536
 20
-27.7344050823
 10
7.0498372485
 20
-27.7289303097
 10
7.0726730993
 20
-27.7225260296
 10
7.0951448722
 20
-27.714901405
 10
7.1173704463
 20
-27.7060303298
 10
7.1392319508
 20
-27.6959388812
 10
7.1602271273
 20
-27.6844144888
 10
7.1803236286
 20
-27.6713490725
 10
7.1995538068
 20
-27.656850661
 10
7.2175124497
 20
-27.6410308422
 10
7.2340685946
 20
-27.6237693453
 10
7.2493532013
 20
-27.6051863774
 10
7.2633539387
 20
-27.5857542547
 10
7.276035255
 20
-27.5654960851
 10
7.2874326937
 20
-27.5443887142
 10
7.2976405651
 20
-27.5228350873
 10
7.3066537914
 20
-27.500915844
 10
7.3144774406
 20
-27.4785503201
 10
7.3212210423
 20
-27.4558995214
 10
7.3269220009
 20
-27.4329850039
 10
7.3315429023
 20
-27.4097851951
 10
7.3350810494
 20
-27.3863964169
 10
7.3375355397
 20
-27.3628507742
 10
7.3389072654
 20
-27.3391161518
 10
7.3391962213
 20
-27.315192544
  0
LINE
  5
2ED
100
AcDbEntity
  8
0
100
AcDbLine
 62
7
  6
CONTINUOUS
 10
8.0276922893
 20
-29.3042081674
 11
7.4655596992
 21
-29.3042081674
  0
LINE
  5
2EE
100
AcDbEntity
  8
0
100
AcDbLine
 62
7
  6
CONTINUOUS
 10
6.5706194222
 20
-29.3042081674
 11
5.9885628796
 21
-29.3042081674
  0
LINE
  5
2EF
100
AcDbEntity
  8
0
100
AcDbLine
 62
7
  6
CONTINUOUS
 10
5.8169520773
 20
-29.3042078131
 11
5.2010100773
 21
-29.3042078131
  0
LINE
  5
2F0
100
AcDbEntity
  8
0
100
AcDbLine
 62
7
  6
CONTINUOUS
 10
4.0924910773
 20
-29.3042078131
 11
3.5144240773
 21
-29.3042078131
  0
LINE
  5
2F1
100
AcDbEntity
  8
0
100
AcDbLine
 62
7
  6
CONTINUOUS
 10
3.4226560773
 20
-29.3042078131
 11
2.8509500773
 21
-29.3042078131
  0
LINE
  5
2F2
100
AcDbEntity
  8
0
100
AcDbLine
 62
7
  6
CONTINUOUS
 10
2.0360200773
 20
-29.3042078131
 11
1.9540570773
 21
-29.3042078131
  0
LINE
  5
2F3
100
AcDbEntity
  8
0
100
AcDbLine
 62
7
  6
CONTINUOUS
 10
1.1423610773
 20
-29.3042078131
 11
0.5832720773
 21
-29.3042078131
  0
LINE
  5
2F4
100
AcDbEntity
  8
0
100
AcDbLine
 62
7
  6
CONTINUOUS
 10
0.2686670773
 20
-29.3042078131
 11
-0.3157409227
 21
-29.3042078131
  0
LINE
  5
2F5
100
AcDbEntity
  8
0
100
AcDbLine
 62
7
  6
CONTINUOUS
 10
-1.4325529227
 20
-29.3042078131
 11
-1.9475629227
 21
-29.3042078131
  0
LINE
  5
2F6
100
AcDbEntity
  8
0
100
AcDbLine
 62
7
  6
CONTINUOUS
 10
5.0496180773
 20
-28.7452878131
 11
4.2537510773
 21
-28.7452878131
  0
LINE
  5
2F7
100
AcDbEntity
  8
0
100
AcDbLine
 62
7
  6
CONTINUOUS
 10
4.9328240773
 20
-28.3127978131
 11
4.3732950773
 21
-28.3127978131
  0
LINE
  5
2F8
100
AcDbEntity
  8
0
100
AcDbLine
 62
7
  6
CONTINUOUS
 10
6.8839650396
 20
-28.2085587378
 11
6.5706194222
 21
-28.2085587378
  0
LINE
  5
2F9
100
AcDbEntity
  8
0
100
AcDbLine
 62
7
  6
CONTINUOUS
 10
6.8852247205
 20
-27.7500348996
 11
6.5512413314
 21
-27.7500348996
  0
LWPOLYLINE
  5
2FA
100
AcDbEntity
  8
RACCORDO
100
AcDbPolyline
 62
7
  6
CONTINUOUS
 90
13
 70
0
 10
35.7185440773
 20
-23.2312735052
 10
35.7810727269
 20
-23.2279074475
 10
35.8429328621
 20
-23.2211256737
 10
35.9039405532
 20
-23.2110096149
 10
35.9639238454
 20
-23.1976447618
 10
36.0228084358
 20
-23.1811075297
 10
36.0805693415
 20
-23.1614549271
 10
36.136911424
 20
-23.138823421
 10
36.1916679726
 20
-23.1133271345
 10
36.2449161328
 20
-23.0849601354
 10
36.2966192568
 20
-23.0537399605
 10
36.3465877406
 20
-23.0197666142
 10
36.3946351464
 20
-22.9831636458
  0
LWPOLYLINE
  5
2FB
100
AcDbEntity
  8
RACCORDO
100
AcDbPolyline
 62
253
  6
CONTINUOUS
 90
16
 70
0
 10
35.7405444781
 20
-23.6540850341
 10
31.3359836225
 20
-23.8274718521
 10
26.9296505846
 20
-23.9760957519
 10
22.5216089242
 20
-24.0999577592
 10
18.1116189515
 20
-24.1990656478
 10
13.7000466637
 20
-24.273413203
 10
9.2878639578
 20
-24.3229802186
 10
4.8751343548
 20
-24.34776013
 10
0.4619200965
 20
-24.3477600304
 10
-3.9508088218
 20
-24.3229799382
 10
-8.362990697
 20
-24.273412739
 10
-12.7745614697
 20
-24.1990650186
 10
-17.1845476268
 20
-24.0999570837
 10
-21.5925826333
 20
-23.9760951826
 10
-25.9989067184
 20
-23.827471508
 10
-30.4034563234
 20
-23.6540850341
  0
LWPOLYLINE
  5
2FC
100
AcDbEntity
  8
RACCORDO
100
AcDbPolyline
 62
253
  6
CONTINUOUS
 90
16
 70
0
 10
35.2277398021
 20
-23.2405907283
 10
30.8912662578
 20
-23.4086237105
 10
26.5532066814
 20
-23.5526598941
 10
22.2135610729
 20
-23.6726992791
 10
17.8719751817
 20
-23.7687480309
 10
13.5288032585
 20
-23.8407999842
 10
9.1851080551
 20
-23.8888366428
 10
4.840894754
 20
-23.9128518355
 10
0.4961581728
 20
-23.9128517335
 10
-3.8480544837
 20
-23.8888363539
 10
-8.1917490184
 20
-23.8407995008
 10
-12.5349196285
 20
-23.7687473701
 10
-16.8765017011
 20
-23.672698567
 10
-21.216140365
 20
-23.5526592932
 10
-25.5541904914
 20
-23.408623347
 10
-29.8906520802
 20
-23.2405907283
  0
LINE
  5
2FD
100
AcDbEntity
  8
RACCORDO
100
AcDbLine
 62
7
  6
CONTINUOUS
 10
35.2277598599
 20
-23.2405907283
 11
35.7185440773
 21
-23.2312674839
  0
LINE
  5
2FE
100
AcDbEntity
  8
RACCORDO
100
AcDbLine
 62
253
  6
CONTINUOUS
 10
-31.6888094084
 20
-22.1365406351
 11
-31.6000342987
 21
-22.1351532962
  0
LWPOLYLINE
  5
2FF
100
AcDbEntity
  8
RACCORDO
100
AcDbPolyline
 62
253
  6
CONTINUOUS
 90
3
 70
0
 10
-31.4755896517
 20
-22.1328091612
 10
-31.4484686196
 20
-22.1325830451
 10
-31.3994406151
 20
-22.131904869
  0
LINE
  5
300
100
AcDbEntity
  8
RACCORDO
100
AcDbLine
 62
253
  6
CONTINUOUS
 10
-31.7804217681
 20
-22.1374139599
 11
-31.6888094084
 21
-22.1365406351
  0
LINE
  5
301
100
AcDbEntity
  8
RACCORDO
100
AcDbLine
 62
253
  6
CONTINUOUS
 10
-31.8732581328
 20
-22.1377580802
 11
-31.7804217681
 21
-22.1374139599
  0
LINE
  5
302
100
AcDbEntity
  8
0
100
AcDbLine
 62
7
  6
CONTINUOUS
 10
24.703705589
 20
-22.9553860535
 11
35.7185440773
 21
-22.940259436
  0
LINE
  5
303
100
AcDbEntity
  8
0
100
AcDbLine
 62
7
  6
CONTINUOUS
 10
13.6868865741
 20
-22.964462314
 11
24.703705589
 21
-22.9553860535
  0
LINE
  5
304
100
AcDbEntity
  8
0
100
AcDbLine
 62
7
  6
CONTINUOUS
 10
2.6685440773
 20
-22.9674880283
 11
13.6868865741
 21
-22.964462314
  0
LINE
  5
305
100
AcDbEntity
  8
0
100
AcDbLine
 62
7
  6
CONTINUOUS
 10
4.9579340773
 20
-26.5045048131
 11
4.3925890773
 21
-26.5045048131
  0
LINE
  5
306
100
AcDbEntity
  8
0
100
AcDbLine
 62
7
  6
CONTINUOUS
 10
3.1608520773
 20
-26.5045048131
 11
2.5826380773
 21
-26.5045048131
  0
LINE
  5
307
100
AcDbEntity
  8
0
100
AcDbLine
 62
7
  6
CONTINUOUS
 10
1.4199940773
 20
-26.5045048131
 11
0.8360690773
 21
-26.5045048131
  0
LINE
  5
308
100
AcDbEntity
  8
0
100
AcDbLine
 62
7
  6
CONTINUOUS
 10
-0.5326159227
 20
-26.5045048131
 11
-1.1166249227
 21
-26.5045048131
  0
LINE
  5
309
100
AcDbEntity
  8
0
100
AcDbLine
 62
7
  6
CONTINUOUS
 10
-2.2002759227
 20
-26.5045048131
 11
-2.8351239227
 21
-26.5045048131
  0
LINE
  5
30A
100
AcDbEntity
  8
0
100
AcDbLine
 62
7
  6
CONTINUOUS
 10
0.2686670773
 20
-26.5043368131
 11
-0.3157409227
 21
-26.5043368131
  0
LINE
  5
30B
100
AcDbEntity
  8
0
100
AcDbLine
 62
253
  6
CONTINUOUS
 10
36.6556482188
 20
-24.7984300555
 11
-31.3185600642
 21
-24.7984300555
  0
LINE
  5
30C
100
AcDbEntity
  8
RACCORDO
100
AcDbLine
 62
253
  6
CONTINUOUS
 10
36.6556482188
 20
-24.7984300555
 11
62.0289745765
 21
-24.7984300555
  0
LINE
  5
30D
100
AcDbEntity
  8
RACCORDO
100
AcDbLine
 62
253
  6
CONTINUOUS
 10
-31.3185600642
 20
-24.7984300555
 11
-56.6918864218
 21
-24.7984300556
  0
LINE
  5
30E
100
AcDbEntity
  8
RACCORDO
100
AcDbLine
 62
253
  6
CONTINUOUS
 10
35.2277398021
 20
-23.2405907283
 11
-29.8906520802
 21
-23.2405907283
  0
LINE
  5
30F
100
AcDbEntity
  8
RACCORDO
100
AcDbLine
 62
253
  6
CONTINUOUS
 10
35.7185408419
 20
-23.0280641791
 11
-30.3814540413
 21
-23.0280641791
  0
LINE
  5
310
100
AcDbEntity
  8
RACCORDO
100
AcDbLine
 62
253
  6
CONTINUOUS
 10
-31.1958439424
 20
-22.1264068131
 11
-31.2852260047
 21
-22.126407683
  0
LINE
  5
311
100
AcDbEntity
  8
RACCORDO
100
AcDbLine
 62
253
  6
CONTINUOUS
 10
36.5329320971
 20
-22.1264068131
 11
36.6223141518
 21
-22.1264113829
  0
LINE
  5
312
100
AcDbEntity
  8
0
100
AcDbLine
 62
7
  6
CONTINUOUS
 10
-8.3497984195
 20
-22.964462314
 11
2.6685440773
 21
-22.9674880283
  0
LINE
  5
313
100
AcDbEntity
  8
0
100
AcDbLine
 62
7
  6
CONTINUOUS
 10
-19.3666174343
 20
-22.9553860535
 11
-8.3497984195
 21
-22.964462314
  0
LINE
  5
314
100
AcDbEntity
  8
0
100
AcDbLine
 62
7
  6
CONTINUOUS
 10
-30.3814559227
 20
-22.940259436
 11
-19.3666174343
 21
-22.9553860535
  0
LINE
  5
315
100
AcDbEntity
  8
RACCORDO
100
AcDbLine
 62
253
  6
CONTINUOUS
 10
36.8126549962
 20
-22.1328009765
 11
36.7601116435
 21
-22.1322578583
  0
LWPOLYLINE
  5
316
100
AcDbEntity
  8
RACCORDO
100
AcDbPolyline
 62
253
  6
CONTINUOUS
 90
49
 70
0
 10
-30.3814540413
 20
-23.028064179
 10
-30.4049470165
 20
-23.0277588517
 10
-30.4280719434
 20
-23.0268610897
 10
-30.4508147345
 20
-23.0253986077
 10
-30.4729930569
 20
-23.0234162664
 10
-30.4947660591
 20
-23.0209325194
 10
-30.5166296188
 20
-23.0178980339
 10
-30.5386271721
 20
-23.0142927575
 10
-30.5606850062
 20
-23.0101146797
 10
-30.5831136014
 20
-23.00528021
 10
-30.6060221764
 20
-22.9997219725
 10
-30.6292529605
 20
-22.9934329399
 10
-30.6527097958
 20
-22.9864011019
 10
-30.6764533152
 20
-22.9785683891
 10
-30.7003652204
 20
-22.9699330448
 10
-30.7240897764
 20
-22.9606017402
 10
-30.7475612485
 20
-22.9505961418
 10
-30.7708043888
 20
-22.9399015065
 10
-30.7936163649
 20
-22.9286144789
 10
-30.8159061941
 20
-22.916797191
 10
-30.8377420818
 20
-22.9044301983
 10
-30.8591658223
 20
-22.8914992359
 10
-30.8800949206
 20
-22.8780648601
 10
-30.9005883106
 20
-22.8641005151
 10
-30.9208836909
 20
-22.8494358328
 10
-30.9409115689
 20
-22.8340991286
 10
-30.9606882092
 20
-22.8180554431
 10
-30.9805392062
 20
-22.8009884289
 10
-31.000420484
 20
-22.7828529777
 10
-31.0202578743
 20
-22.7636295006
 10
-31.0402746063
 20
-22.7429835169
 10
-31.0604145413
 20
-22.7208129305
 10
-31.0805275006
 20
-22.6971108774
 10
-31.1006398704
 20
-22.6716471278
 10
-31.1206377433
 20
-22.6443245105
 10
-31.1403395338
 20
-22.6151273024
 10
-31.1596282499
 20
-22.5839353524
 10
-31.1784429453
 20
-22.5504814844
 10
-31.1964493362
 20
-22.5149495065
 10
-31.2131749963
 20
-22.4779467849
 10
-31.2285716833
 20
-22.4392887459
 10
-31.2424080621
 20
-22.3992256396
 10
-31.2541953274
 20
-22.3591350748
 10
-31.2638892415
 20
-22.3195735359
 10
-31.2716878771
 20
-22.2802046518
 10
-31.2776539342
 20
-22.2411201708
 10
-31.2818534552
 20
-22.2024064046
 10
-31.2843555424
 20
-22.164144246
 10
-31.285231657
 20
-22.1264076831
  0
LINE
  5
317
100
AcDbEntity
  8
RACCORDO
100
AcDbLine
 62
253
  6
CONTINUOUS
 10
37.2103019133
 20
-22.1429809694
 11
37.1638368385
 21
-22.1422988579
  0
LINE
  5
318
100
AcDbEntity
  8
RACCORDO
100
AcDbLine
 62
7
  6
CONTINUOUS
 10
-30.3814559228
 20
-23.2312674831
 11
-29.8906716777
 21
-23.2405907283
  0
LWPOLYLINE
  5
319
100
AcDbEntity
  8
RACCORDO
100
AcDbPolyline
 62
253
  6
CONTINUOUS
 90
25
 70
0
 10
-30.4034563234
 20
-23.6540850341
 10
-30.4456957931
 20
-23.6517089652
 10
-30.487689648
 20
-23.6482068401
 10
-30.5294378943
 20
-23.6435786576
 10
-30.5709554632
 20
-23.6378163868
 10
-30.6122274351
 20
-23.6309280554
 10
-30.6532090401
 20
-23.6229377497
 10
-30.6939027254
 20
-23.6138445034
 10
-30.7343060534
 20
-23.6036492775
 10
-30.7743669268
 20
-23.5923790495
 10
-30.8140829154
 20
-23.580035998
 10
-30.8534564571
 20
-23.5666179373
 10
-30.8924427554
 20
-23.5521452978
 10
-30.9310464502
 20
-23.5366208443
 10
-30.9692629074
 20
-23.5200418033
 10
-31.0070334192
 20
-23.5024202971
 10
-31.0443883769
 20
-23.4837383505
 10
-31.0812973929
 20
-23.4640139282
 10
-31.1176105901
 20
-23.4433130624
 10
-31.1533456394
 20
-23.42160107
 10
-31.1884848714
 20
-23.3989126225
 10
-31.2228253979
 20
-23.3754177856
 10
-31.2562995892
 20
-23.3511732448
 10
-31.2889750744
 20
-23.3261223042
 10
-31.3208518527
 20
-23.3002649584
  0
LWPOLYLINE
  5
31A
100
AcDbEntity
  8
0
100
AcDbPolyline
 62
7
  6
CONTINUOUS
 90
10
 70
0
 10
7.0090575074
 20
-26.964979062
 10
6.9601508648
 20
-26.9600511088
 10
6.9106960392
 20
-26.9568016351
 10
6.8606930458
 20
-26.9552306483
 10
6.8100649768
 20
-26.9553230136
 10
6.7588887702
 20
-26.957093869
 10
6.7073952097
 20
-26.9605886249
 10
6.6556612339
 20
-26.9658224112
 10
6.6036099359
 20
-26.9727800779
 10
6.5512413314
 20
-26.981461609
  0
LWPOLYLINE
  5
31B
100
AcDbEntity
  8
0
100
AcDbPolyline
 62
7
  6
CONTINUOUS
 90
48
 70
0
 10
7.4307925071
 20
-26.5666906865
 10
7.463784856
 20
-26.5801358437
 10
7.4969160642
 20
-26.5964652041
 10
7.5301861099
 20
-26.6156787078
 10
7.5637671728
 20
-26.6376550808
 10
7.5974870264
 20
-26.6625154468
 10
7.6308290366
 20
-26.6906233133
 10
7.6640681468
 20
-26.7220964398
 10
7.6969293577
 20
-26.7568168123
 10
7.7280711282
 20
-26.7947942442
 10
7.7575770026
 20
-26.836661389
 10
7.7853633949
 20
-26.8817852263
 10
7.8098381098
 20
-26.9282771465
 10
7.8304739209
 20
-26.9763309785
 10
7.8477980891
 20
-27.0257527041
 10
7.8618002041
 20
-27.0740722092
 10
7.8720919468
 20
-27.1206452412
 10
7.8790617154
 20
-27.1661162101
 10
7.8838641874
 20
-27.2099481889
 10
7.8866756739
 20
-27.2518967037
 10
7.8873199152
 20
-27.2922064217
 10
7.8864227181
 20
-27.3310741458
 10
7.8840683614
 20
-27.3685651334
 10
7.8801725986
 20
-27.4046142711
 10
7.8751084388
 20
-27.4392227912
 10
7.8688869443
 20
-27.4723690946
 10
7.8614970751
 20
-27.5040749134
 10
7.853278681
 20
-27.5344064697
 10
7.8442509186
 20
-27.5633439171
 10
7.8343946445
 20
-27.5909072147
 10
7.823992254
 20
-27.6172222822
 10
7.8130682778
 20
-27.6422959639
 10
7.8015981921
 20
-27.6661215048
 10
7.7897908067
 20
-27.6888044136
 10
7.7776709771
 20
-27.7103410638
 10
7.7652138505
 20
-27.7307351533
 10
7.7525536728
 20
-27.7501031678
 10
7.7396895975
 20
-27.7684458139
 10
7.7266224713
 20
-27.7857624401
 10
7.7134890789
 20
-27.8021674863
 10
7.7002830713
 20
-27.8176339585
 10
7.6870107961
 20
-27.8321888927
 10
7.6738280819
 20
-27.8460277652
 10
7.6607434085
 20
-27.8591646621
 10
7.647748294
 20
-27.8715855251
 10
7.6349731235
 20
-27.8834436053
 10
7.6224430625
 20
-27.8947487912
 10
7.6101329431
 20
-27.9054912132
  0
LWPOLYLINE
  5
31C
100
AcDbEntity
  8
0
100
AcDbPolyline
 62
7
  6
CONTINUOUS
 90
3
 70
0
 10
7.4910472422
 20
-27.9973312499
 10
7.5187731672
 20
-28.0105841724
 10
7.5447294071
 20
-28.0253680295
  0
LINE
  5
31D
100
AcDbEntity
  8
RACCORDO
100
AcDbLine
 62
253
  6
CONTINUOUS
 10
-56.5246017199
 20
-29.589975698
 11
-56.3537836976
 21
-29.56024344
  0
LINE
  5
31E
100
AcDbEntity
  8
RACCORDO
100
AcDbLine
 62
253
  6
CONTINUOUS
 10
-57.0618215819
 20
-25.589975698
 11
-56.8899764531
 21
-25.5718694514
  0
LINE
  5
31F
100
AcDbEntity
  8
RACCORDO
100
AcDbLine
 62
253
  6
CONTINUOUS
 10
-56.9792074197
 20
-24.6744076681
 11
-57.1511118683
 21
-24.6911717016
  0
LINE
  5
320
100
AcDbEntity
  8
RACCORDO
100
AcDbLine
 62
253
  6
CONTINUOUS
 10
-56.7603726129
 20
-24.6638232563
 11
-56.7055413067
 21
-24.6588773787
  0
LWPOLYLINE
  5
321
100
AcDbEntity
  8
RACCORDO
100
AcDbPolyline
 62
253
  6
CONTINUOUS
 90
3
 70
0
 10
-31.6000342987
 20
-22.1351532962
 10
-31.5572020739
 20
-22.1342738651
 10
-31.4755911236
 20
-22.1321629622
  0
LWPOLYLINE
  5
322
100
AcDbEntity
  8
RACCORDO
100
AcDbPolyline
 62
253
  6
CONTINUOUS
 90
10
 70
0
 10
-31.3994406151
 20
-22.131904869
 10
-31.3777807183
 20
-22.1314646016
 10
-31.3581722305
 20
-22.1309652943
 10
-31.3407137349
 20
-22.1304135996
 10
-31.3254937748
 20
-22.1298164598
 10
-31.3125882444
 20
-22.1291810826
 10
-31.302060886
 20
-22.1285148444
 10
-31.2939653747
 20
-22.1278252709
 10
-31.2883439847
 20
-22.1271200145
 10
-31.2852260064
 20
-22.1264068131
  0
LWPOLYLINE
  5
323
100
AcDbEntity
  8
RACCORDO
100
AcDbPolyline
 62
253
  6
CONTINUOUS
 90
10
 70
0
 10
36.7601116435
 20
-22.1322578583
 10
36.7148472333
 20
-22.1314402664
 10
36.695236639
 20
-22.130942355
 10
36.677777521
 20
-22.1303933045
 10
36.662557327
 20
-22.1297997092
 10
36.6496533288
 20
-22.1291682837
 10
36.6391320694
 20
-22.1285059746
 10
36.6310455894
 20
-22.1278200026
 10
36.6254325338
 20
-22.127117788
 10
36.6223197217
 20
-22.1264068131
  0
LINE
  5
324
100
AcDbEntity
  8
RACCORDO
100
AcDbLine
 62
253
  6
CONTINUOUS
 10
37.1638368385
 20
-22.1422988579
 11
37.0714169946
 21
-22.140545175
  0
LINE
  5
325
100
AcDbEntity
  8
RACCORDO
100
AcDbLine
 62
253
  6
CONTINUOUS
 10
37.0714169946
 20
-22.140545175
 11
36.9810327734
 21
-22.1382987475
  0
LINE
  5
326
100
AcDbEntity
  8
RACCORDO
100
AcDbLine
 62
253
  6
CONTINUOUS
 10
36.9810327734
 20
-22.1382987475
 11
36.8942717494
 21
-22.1355999734
  0
LINE
  5
327
100
AcDbEntity
  8
RACCORDO
100
AcDbLine
 62
253
  6
CONTINUOUS
 10
36.8942717494
 20
-22.1355999734
 11
36.8126613838
 21
-22.1324963694
  0
LINE
  5
328
100
AcDbEntity
  8
RACCORDO
100
AcDbLine
 62
253
  6
CONTINUOUS
 10
62.149564061
 20
-24.6680919399
 11
62.0974607703
 21
-24.6638232568
  0
LWPOLYLINE
  5
329
100
AcDbEntity
  8
RACCORDO
100
AcDbPolyline
 62
253
  6
CONTINUOUS
 90
3
 70
0
 10
62.1103085061
 20
-24.805651041
 10
62.0566114397
 20
-24.8009937069
 10
62.0289745765
 20
-24.7984300555
  0
LINE
  5
32A
100
AcDbEntity
  8
RACCORDO
100
AcDbLine
 62
253
  6
CONTINUOUS
 10
62.0974607703
 20
-24.6638232568
 11
62.0426294618
 21
-24.658877379
  0
LINE
  5
32B
100
AcDbEntity
  8
RACCORDO
100
AcDbLine
 62
253
  6
CONTINUOUS
 10
62.3162955743
 20
-24.6744076681
 11
62.488200023
 21
-24.6911717016
  0
LINE
  5
32C
100
AcDbEntity
  8
RACCORDO
100
AcDbLine
 62
253
  6
CONTINUOUS
 10
62.3989097366
 20
-25.589975698
 11
62.2270645929
 21
-25.5718695992
  0
LINE
  5
32D
100
AcDbEntity
  8
RACCORDO
100
AcDbLine
 62
253
  6
CONTINUOUS
 10
61.8616898746
 20
-29.589975698
 11
61.6908719065
 21
-29.5602431166
  0
LWPOLYLINE
  5
32E
100
AcDbEntity
  8
0
100
AcDbPolyline
 62
7
  6
CONTINUOUS
 90
22
 70
0
 10
7.5447294071
 20
-28.0253680295
 10
7.5689159575
 20
-28.0416827875
 10
7.5912649488
 20
-28.0598475715
 10
7.611844243
 20
-28.0795431723
 10
7.6308574395
 20
-28.0998120769
 10
7.6482209447
 20
-28.1204619606
 10
7.6640183602
 20
-28.1416851164
 10
7.6787040834
 20
-28.1631009966
 10
7.6923250522
 20
-28.1846333531
 10
7.704834337
 20
-28.2063584223
 10
7.7165455324
 20
-28.2281244009
 10
7.7275046961
 20
-28.24992745
 10
7.7376657773
 20
-28.2717714048
 10
7.7472042074
 20
-28.2935159828
 10
7.7561310136
 20
-28.3151293684
 10
7.7644351752
 20
-28.3366433834
 10
7.7722590516
 20
-28.3580132079
 10
7.7795935685
 20
-28.3791985259
 10
7.7864478057
 20
-28.4002396628
 10
7.7929913518
 20
-28.4212127601
 10
7.7992120014
 20
-28.4421160797
 10
7.8051219631
 20
-28.4629513633
  0
LINE
  5
32F
100
AcDbEntity
  8
0
100
AcDbLine
 62
7
  6
CONTINUOUS
 10
-1.9475629227
 20
-29.3042078131
 11
-2.8351239227
 21
-26.5045048131
  0
LINE
  5
330
100
AcDbEntity
  8
RACCORDO
100
AcDbLine
 62
253
  6
CONTINUOUS
 10
-31.3208518551
 20
-23.3002649618
 11
-31.0575532186
 21
-22.9831717092
  0
LINE
  5
331
100
AcDbEntity
  8
RACCORDO
100
AcDbLine
 62
253
  6
CONTINUOUS
 10
-31.3208518598
 20
22.4474513423
 11
-31.057543813
 21
22.1303462519
  0
LINE
  5
332
100
AcDbEntity
  8
0
100
AcDbLine
 62
7
  6
CONTINUOUS
 10
1.9540570773
 20
-29.3042078131
 11
1.2684760773
 21
-27.4760538131
  0
LINE
  5
333
100
AcDbEntity
  8
0
100
AcDbLine
 62
7
  6
CONTINUOUS
 10
1.4199940773
 20
-26.5045048131
 11
1.9982300773
 21
-28.0589088131
  0
LINE
  5
334
100
AcDbEntity
  8
0
100
AcDbLine
 62
7
  6
CONTINUOUS
 10
-2.2002759227
 20
-26.5045048131
 11
-1.6666019227
 21
-28.4316268131
  0
LINE
  5
335
100
AcDbEntity
  8
0
100
AcDbLine
 62
7
  6
CONTINUOUS
 10
3.1608520773
 20
-26.5045048131
 11
3.4226560773
 21
-29.3042078131
  0
LINE
  5
336
100
AcDbEntity
  8
0
100
AcDbLine
 62
7
  6
CONTINUOUS
 10
-0.3157409227
 20
-29.3042078131
 11
-0.3157409227
 21
-26.5043368131
  0
LINE
  5
337
100
AcDbEntity
  8
0
100
AcDbLine
 62
7
  6
CONTINUOUS
 10
0.2686670773
 20
-26.5043368131
 11
0.2686670773
 21
-29.3042078131
  0
LINE
  5
338
100
AcDbEntity
  8
RACCORDO
100
AcDbLine
 62
253
  6
CONTINUOUS
 10
37.2350386022
 20
-0.4264068131
 11
36.647004541
 21
-0.4264068131
  0
LINE
  5
339
100
AcDbEntity
  8
RACCORDO
100
AcDbLine
 62
253
  6
CONTINUOUS
 10
-31.8979504476
 20
-0.4264068131
 11
-31.3099163864
 21
-0.4264068131
  0
LWPOLYLINE
  5
33A
100
AcDbEntity
  8
0
100
AcDbPolyline
 62
7
  6
CONTINUOUS
 90
19
 70
0
 10
7.2099461364
 20
-28.4550697578
 10
7.2006795371
 20
-28.4323133444
 10
7.1902761712
 20
-28.4102548733
 10
7.1787360363
 20
-28.3888943688
 10
7.1660460529
 20
-28.368138686
 10
7.1522192962
 20
-28.3480810137
 10
7.137294997
 20
-28.3290008844
 10
7.1212866481
 20
-28.3108640667
 10
7.1041807575
 20
-28.2937048474
 10
7.0859760827
 20
-28.2779055526
 10
7.0665849771
 20
-28.2634600667
 10
7.0460950942
 20
-28.250374568
 10
7.0247681472
 20
-28.2390498364
 10
7.0025353413
 20
-28.2296314018
 10
6.9794654869
 20
-28.2219737912
 10
6.956026709
 20
-28.2160412808
 10
6.9323750556
 20
-28.2118219711
 10
6.9083544962
 20
-28.209327788
 10
6.8839650396
 20
-28.2085587378
  0
LINE
  5
33B
100
AcDbEntity
  8
0
100
AcDbLine
 62
7
  6
CONTINUOUS
 10
4.9579340773
 20
-26.5045048131
 11
5.8169520773
 21
-29.3042078131
  0
LWPOLYLINE
  5
33C
100
AcDbEntity
  8
0
100
AcDbPolyline
 62
7
  6
CONTINUOUS
 90
8
 70
0
 10
7.2993204325
 20
-28.7292121229
 10
7.287650491
 20
-28.6897088145
 10
7.275727725
 20
-28.6503263111
 10
7.2635518525
 20
-28.611068539
 10
7.2509073161
 20
-28.5719159448
 10
7.2377222606
 20
-28.5328620165
 10
7.224068535
 20
-28.4939132844
 10
7.2099461364
 20
-28.4550697578
  0
LINE
  5
33D
100
AcDbEntity
  8
0
100
AcDbLine
 62
7
  6
CONTINUOUS
 10
7.4655596992
 20
-29.3042081674
 11
7.367885386
 21
-28.9694155745
  0
LWPOLYLINE
  5
33E
100
AcDbEntity
  8
0
100
AcDbPolyline
 62
7
  6
CONTINUOUS
 90
4
 70
0
 10
7.367885386
 20
-28.9694155745
 10
7.3447827804
 20
-28.8886526436
 10
7.3334684445
 20
-28.8485604144
 10
7.2993204325
 20
-28.7292121229
  0
LWPOLYLINE
  5
33F
100
AcDbEntity
  8
0
100
AcDbPolyline
 62
7
  6
CONTINUOUS
 90
3
 70
0
 10
7.8051219631
 20
-28.4629513633
 10
7.8166971834
 20
-28.5046890075
 10
7.8223624424
 20
-28.5255913659
  0
LINE
  5
340
100
AcDbEntity
  8
0
100
AcDbLine
 62
7
  6
CONTINUOUS
 10
5.2010100773
 20
-29.3042078131
 11
5.0496180773
 21
-28.7452878131
  0
LINE
  5
341
100
AcDbEntity
  8
0
100
AcDbLine
 62
7
  6
CONTINUOUS
 10
7.8223624424
 20
-28.5255913659
 11
7.8973740161
 21
-28.8068813259
  0
LINE
  5
342
100
AcDbEntity
  8
0
100
AcDbLine
 62
7
  6
CONTINUOUS
 10
7.8973740161
 20
-28.8068813259
 11
8.0276922893
 21
-29.3042081674
  0
LINE
  5
343
100
AcDbEntity
  8
0
100
AcDbLine
 62
7
  6
CONTINUOUS
 10
4.9328240773
 20
-28.3127978131
 11
4.6642810773
 21
-27.2737918131
  0
LINE
  5
344
100
AcDbEntity
  8
0
100
AcDbLine
 62
7
  6
CONTINUOUS
 10
2.8509500773
 20
-29.3042078131
 11
2.7308810773
 21
-27.4836758131
  0
LWPOLYLINE
  5
345
100
AcDbEntity
  8
0
100
AcDbPolyline
 62
7
  6
CONTINUOUS
 90
19
 70
0
 10
7.3391962213
 20
-27.315192544
 10
7.3378343545
 20
-27.2886308464
 10
7.3343100943
 20
-27.2620710483
 10
7.3286234296
 20
-27.2355131506
 10
7.3208221297
 20
-27.208731447
 10
7.3108584032
 20
-27.1819516402
 10
7.298588901
 20
-27.1558508697
 10
7.2839056659
 20
-27.1303182856
 10
7.2669166385
 20
-27.1054647844
 10
7.2478023261
 20
-27.082300181
 10
7.2263556969
 20
-27.0610126429
 10
7.2027837842
 20
-27.0414141084
 10
7.1778882071
 20
-27.0239500879
 10
7.1516867019
 20
-27.0087656032
 10
7.1241615506
 20
-26.9957157281
 10
7.0960612
 20
-26.9848110529
 10
7.0676351407
 20
-26.9760551268
 10
7.038633906
 20
-26.9694444568
 10
7.0090575074
 20
-26.964979062
  0
LINE
  5
346
100
AcDbEntity
  8
0
100
AcDbLine
 62
7
  6
CONTINUOUS
 10
5.9885628796
 20
-29.3042081674
 11
5.9885628796
 21
-26.5372141541
  0
LINE
  5
347
100
AcDbEntity
  8
0
100
AcDbLine
 62
7
  6
CONTINUOUS
 10
1.2684760773
 20
-27.4760538131
 11
1.1423610773
 21
-29.3042078131
  0
LINE
  5
348
100
AcDbEntity
  8
0
100
AcDbLine
 62
7
  6
CONTINUOUS
 10
0.5832720773
 20
-29.3042078131
 11
0.8360690773
 21
-26.5045048131
  0
LINE
  5
349
100
AcDbEntity
  8
0
100
AcDbLine
 62
7
  6
CONTINUOUS
 10
-1.6666019227
 20
-28.4316268131
 11
-1.1166249227
 21
-26.5045048131
  0
LINE
  5
34A
100
AcDbEntity
  8
0
100
AcDbLine
 62
7
  6
CONTINUOUS
 10
6.5512413314
 20
-26.981461609
 11
6.5512413314
 21
-27.7500348996
  0
LINE
  5
34B
100
AcDbEntity
  8
0
100
AcDbLine
 62
7
  6
CONTINUOUS
 10
6.5706194222
 20
-28.2085587378
 11
6.5706194222
 21
-29.3042081674
  0
LINE
  5
34C
100
AcDbEntity
  8
0
100
AcDbLine
 62
7
  6
CONTINUOUS
 10
7.4910472422
 20
-27.9807874411
 11
7.4910472422
 21
-27.9973312499
  0
LINE
  5
34D
100
AcDbEntity
  8
0
100
AcDbLine
 62
7
  6
CONTINUOUS
 10
4.6642810773
 20
-27.2737918131
 11
4.3732950773
 21
-28.3127978131
  0
LINE
  5
34E
100
AcDbEntity
  8
0
100
AcDbLine
 62
7
  6
CONTINUOUS
 10
-0.5326159227
 20
-26.5045048131
 11
-1.4325529227
 21
-29.3042078131
  0
LINE
  5
34F
100
AcDbEntity
  8
0
100
AcDbLine
 62
7
  6
CONTINUOUS
 10
1.9982300773
 20
-28.0589088131
 11
2.5826380773
 21
-26.5045048131
  0
LINE
  5
350
100
AcDbEntity
  8
0
100
AcDbLine
 62
7
  6
CONTINUOUS
 10
4.2537510773
 20
-28.7452878131
 11
4.0924910773
 21
-29.3042078131
  0
LINE
  5
351
100
AcDbEntity
  8
0
100
AcDbLine
 62
7
  6
CONTINUOUS
 10
3.5144240773
 20
-29.3042078131
 11
4.3925890773
 21
-26.5045048131
  0
LINE
  5
352
100
AcDbEntity
  8
0
100
AcDbLine
 62
7
  6
CONTINUOUS
 10
2.7308810773
 20
-27.4836758131
 11
2.0360200773
 21
-29.3042078131
  0
LINE
  5
353
100
AcDbEntity
  8
RACCORDO
100
AcDbLine
 62
253
  6
CONTINUOUS
 10
36.6579400098
 20
22.4474513357
 11
36.3946411684
 21
22.1303578381
  0
LINE
  5
354
100
AcDbEntity
  8
RACCORDO
100
AcDbLine
 62
253
  6
CONTINUOUS
 10
36.6579400221
 20
-23.3002649792
 11
36.3946321521
 21
-22.9831600222
  0
LINE
  5
355
100
AcDbEntity
  8
RACCORDO
100
AcDbLine
 62
253
  6
CONTINUOUS
 10
61.8616898746
 20
28.7371620719
 11
61.6908718522
 21
28.7074298139
  0
LINE
  5
356
100
AcDbEntity
  8
RACCORDO
100
AcDbLine
 62
253
  6
CONTINUOUS
 10
62.3989097366
 20
24.7371620719
 11
62.2270646078
 21
24.7190558253
  0
LINE
  5
357
100
AcDbEntity
  8
RACCORDO
100
AcDbLine
 62
253
  6
CONTINUOUS
 10
62.3162955743
 20
23.821594042
 11
62.488200023
 21
23.8383580755
  0
LINE
  5
358
100
AcDbEntity
  8
RACCORDO
100
AcDbLine
 62
253
  6
CONTINUOUS
 10
62.0974607676
 20
23.8110096302
 11
62.0426294614
 21
23.8060637526
  0
LWPOLYLINE
  5
359
100
AcDbEntity
  8
RACCORDO
100
AcDbPolyline
 62
253
  6
CONTINUOUS
 90
6
 70
0
 10
36.6625506698
 20
21.2785301899
 10
36.6496536208
 20
21.277572981
 10
36.6391351502
 20
21.2765957156
 10
36.6310482667
 20
21.2756033188
 10
36.6254337245
 20
21.2746007918
 10
36.6223198185
 20
21.2735931869
  0
LWPOLYLINE
  5
35A
100
AcDbEntity
  8
RACCORDO
100
AcDbPolyline
 62
253
  6
CONTINUOUS
 90
13
 70
0
 10
36.8126790554
 20
21.2793510191
 10
36.7855593709
 20
21.2782951994
 10
36.7601346288
 20
21.2771622442
 10
36.736533048
 20
21.2759578672
 10
36.7148736526
 20
21.274688142
 10
36.6952656725
 20
21.2733594721
 10
36.677807992
 20
21.271978558
 10
36.6625886514
 20
21.2705523637
 10
36.6496844027
 20
21.2690880816
 10
36.6391603229
 20
21.2675930962
 10
36.6310694858
 20
21.2660749468
 10
36.6254526938
 20
21.2645412895
 10
36.6223382729
 20
21.2629998587
  0
LINE
  5
35B
100
AcDbEntity
  8
RACCORDO
100
AcDbLine
 62
253
  6
CONTINUOUS
 10
36.894286642
 20
21.2814601593
 11
36.8126790593
 21
21.2793493301
  0
LINE
  5
35C
100
AcDbEntity
  8
RACCORDO
100
AcDbLine
 62
7
  6
CONTINUOUS
 10
-29.8906716781
 20
22.3877771022
 11
-30.3814559227
 21
22.378453857
  0
LINE
  5
35D
100
AcDbEntity
  8
RACCORDO
100
AcDbLine
 62
253
  6
CONTINUOUS
 10
36.9810519149
 20
21.2830962853
 11
36.894286642
 21
21.2814601593
  0
LINE
  5
35E
100
AcDbEntity
  8
RACCORDO
100
AcDbLine
 62
253
  6
CONTINUOUS
 10
37.071446791
 20
21.2842290312
 11
36.9810519149
 21
21.2830962853
  0
LWPOLYLINE
  5
35F
100
AcDbEntity
  8
RACCORDO
100
AcDbPolyline
 62
253
  6
CONTINUOUS
 90
3
 70
0
 10
37.2103462875
 20
21.2849444541
 10
37.163876322
 20
21.2848391487
 10
37.071446791
 20
21.2842290312
  0
LINE
  5
360
100
AcDbEntity
  8
0
100
AcDbLine
 62
7
  6
CONTINUOUS
 10
-30.3814559227
 20
22.0874458099
 11
-19.3666174343
 21
22.1025724274
  0
LINE
  5
361
100
AcDbEntity
  8
0
100
AcDbLine
 62
7
  6
CONTINUOUS
 10
-19.3666174343
 20
22.1025724274
 11
-8.3497984195
 21
22.1116486879
  0
LINE
  5
362
100
AcDbEntity
  8
0
100
AcDbLine
 62
7
  6
CONTINUOUS
 10
-8.3497984195
 20
22.1116486879
 11
2.6685440773
 21
22.1146744022
  0
LINE
  5
363
100
AcDbEntity
  8
RACCORDO
100
AcDbLine
 62
253
  6
CONTINUOUS
 10
36.5329320971
 20
21.2735931869
 11
36.6223198166
 21
21.2735912702
  0
LINE
  5
364
100
AcDbEntity
  8
RACCORDO
100
AcDbLine
 62
253
  6
CONTINUOUS
 10
-30.3814526947
 20
22.175250553
 11
35.7185413034
 21
22.175250553
  0
LINE
  5
365
100
AcDbEntity
  8
RACCORDO
100
AcDbLine
 62
253
  6
CONTINUOUS
 10
-29.8906520804
 20
22.3877771022
 11
35.2277398019
 21
22.3877771022
  0
LINE
  5
366
100
AcDbEntity
  8
RACCORDO
100
AcDbLine
 62
253
  6
CONTINUOUS
 10
-31.1958439424
 20
21.2735931869
 11
-31.2852259972
 21
21.2735977012
  0
LINE
  5
367
100
AcDbEntity
  8
0
100
AcDbLine
 62
7
  6
CONTINUOUS
 10
2.6685440773
 20
22.1146744022
 11
13.6868865741
 21
22.1116486879
  0
LINE
  5
368
100
AcDbEntity
  8
0
100
AcDbLine
 62
7
  6
CONTINUOUS
 10
13.6868865741
 20
22.1116486879
 11
24.703705589
 21
22.1025724274
  0
LINE
  5
369
100
AcDbEntity
  8
0
100
AcDbLine
 62
7
  6
CONTINUOUS
 10
24.703705589
 20
22.1025724274
 11
35.7185440773
 21
22.0874458099
  0
LINE
  5
36A
100
AcDbEntity
  8
RACCORDO
100
AcDbLine
 62
253
  6
CONTINUOUS
 10
-31.475566863
 20
21.2799873548
 11
-31.4230234996
 21
21.2794442444
  0
LWPOLYLINE
  5
36B
100
AcDbEntity
  8
RACCORDO
100
AcDbPolyline
 62
253
  6
CONTINUOUS
 90
49
 70
0
 10
35.7185413034
 20
22.1752505528
 10
35.7433888827
 20
22.1749090851
 10
35.7676060579
 20
22.173917861
 10
35.7911774388
 20
22.1723269363
 10
35.8139104962
 20
22.1702045244
 10
35.8359754811
 20
22.167588474
 10
35.8579000028
 20
22.1644417857
 10
35.8796963882
 20
22.1607669313
 10
35.9013275904
 20
22.1565745322
 10
35.9232363686
 20
22.1517665553
 10
35.9454816529
 20
22.1462966769
 10
35.9679623551
 20
22.1401554725
 10
35.9908678751
 20
22.1332501436
 10
36.0143528208
 20
22.1254741885
 10
36.0381955897
 20
22.1168391289
 10
36.0620229308
 20
22.1074414094
 10
36.0858140938
 20
22.0972655271
 10
36.1095345145
 20
22.0863020486
 10
36.1328131586
 20
22.0747168502
 10
36.1555340548
 20
22.0625860576
 10
36.1777888331
 20
22.0498786968
 10
36.1995345629
 20
22.0366332515
 10
36.2207024185
 20
22.0229113641
 10
36.2413444365
 20
22.0086995457
 10
36.2615934977
 20
21.993914097
 10
36.2813559952
 20
21.9786273349
 10
36.3006971139
 20
21.9627928923
 10
36.3199550402
 20
21.9461070207
 10
36.3390862501
 20
21.9285530546
 10
36.3580481957
 20
21.9101135224
 10
36.3771233147
 20
21.8904247092
 10
36.3962634509
 20
21.869406725
 10
36.4153478329
 20
21.8470536282
 10
36.4344877432
 20
21.8230648965
 10
36.4536378253
 20
21.797273752
 10
36.4725753605
 20
21.7697360598
 10
36.4911146366
 20
21.7404764558
 10
36.5090292976
 20
21.7096092246
 10
36.5262588173
 20
21.6769701067
 10
36.5428155666
 20
21.6421587162
 10
36.558599976
 20
21.6048456749
 10
36.5732312605
 20
21.5653102741
 10
36.5863075786
 20
21.5240902362
 10
36.5978422159
 20
21.4804267796
 10
36.607379108
 20
21.4351699178
 10
36.6143314242
 20
21.391416464
 10
36.6188776441
 20
21.3503268682
 10
36.6214572371
 20
21.3110210818
 10
36.6223198181
 20
21.2735912702
  0
LWPOLYLINE
  5
36C
100
AcDbEntity
  8
RACCORDO
100
AcDbPolyline
 62
253
  6
CONTINUOUS
 90
7
 70
0
 10
36.812616468
 20
21.2818167444
 10
36.7854826092
 20
21.2822009902
 10
36.7600522126
 20
21.2822857999
 10
36.7364522237
 20
21.2820640052
 10
36.7148020038
 20
21.2814290942
 10
36.6952073087
 20
21.280464659
 10
36.6625506698
 20
21.2785301899
  0
LINE
  5
36D
100
AcDbEntity
  8
RACCORDO
100
AcDbLine
 62
253
  6
CONTINUOUS
 10
-31.8732137586
 20
21.2901673433
 11
-31.7803856051
 21
21.2886721058
  0
LWPOLYLINE
  5
36E
100
AcDbEntity
  8
RACCORDO
100
AcDbPolyline
 62
253
  6
CONTINUOUS
 90
10
 70
0
 10
-31.4230234996
 20
21.2794442444
 10
-31.3777590847
 20
21.2786266559
 10
-31.3581484897
 20
21.2781287447
 10
-31.3406893711
 20
21.2775796935
 10
-31.3254691763
 20
21.2769860969
 10
-31.3125651775
 20
21.2763546694
 10
-31.3020439176
 20
21.2756923579
 10
-31.2939574372
 20
21.275006383
 10
-31.2883443815
 20
21.2743041653
 10
-31.2852315692
 20
21.2735931869
  0
LINE
  5
36F
100
AcDbEntity
  8
RACCORDO
100
AcDbLine
 62
253
  6
CONTINUOUS
 10
-31.7803856051
 20
21.2886721058
 11
-31.6887817272
 21
21.2866676297
  0
LINE
  5
370
100
AcDbEntity
  8
RACCORDO
100
AcDbLine
 62
253
  6
CONTINUOUS
 10
-31.6887817272
 20
21.2866676297
 11
-31.6000141327
 21
21.2841894455
  0
LWPOLYLINE
  5
371
100
AcDbEntity
  8
RACCORDO
100
AcDbPolyline
 62
253
  6
CONTINUOUS
 90
3
 70
0
 10
-31.6000141327
 20
21.2841894455
 10
-31.5156422474
 20
21.2812819115
 10
-31.4755732516
 20
21.2796827443
  0
LINE
  5
372
100
AcDbEntity
  8
RACCORDO
100
AcDbLine
 62
253
  6
CONTINUOUS
 10
-56.8124759063
 20
23.8152783138
 11
-56.7603726157
 21
23.8110096307
  0
LWPOLYLINE
  5
373
100
AcDbEntity
  8
RACCORDO
100
AcDbPolyline
 62
253
  6
CONTINUOUS
 90
3
 70
0
 10
-56.7732203514
 20
23.9528374149
 10
-56.719523285
 20
23.9481800808
 10
-56.6918864218
 20
23.9456164294
  0
LINE
  5
374
100
AcDbEntity
  8
RACCORDO
100
AcDbLine
 62
253
  6
CONTINUOUS
 10
-56.7603726157
 20
23.8110096307
 11
-56.7055413071
 21
23.8060637529
  0
LINE
  5
375
100
AcDbEntity
  8
RACCORDO
100
AcDbLine
 62
253
  6
CONTINUOUS
 10
-56.9792074197
 20
23.821594042
 11
-57.1511118683
 21
23.8383580755
  0
LINE
  5
376
100
AcDbEntity
  8
RACCORDO
100
AcDbLine
 62
253
  6
CONTINUOUS
 10
-57.0618215819
 20
24.7371620719
 11
-56.8899764382
 21
24.7190559731
  0
LINE
  5
377
100
AcDbEntity
  8
RACCORDO
100
AcDbLine
 62
253
  6
CONTINUOUS
 10
-56.5246017199
 20
28.7371620719
 11
-56.3537837518
 21
28.7074294905
  0
LWPOLYLINE
  5
378
100
AcDbEntity
  8
0
100
AcDbPolyline
 62
7
  6
CONTINUOUS
 90
10
 70
0
 10
7.6101329431
 20
-27.9054912132
 10
7.586438195
 20
-27.9257395212
 10
7.575053564
 20
-27.9352454193
 10
7.5636956118
 20
-27.9441930159
 10
7.5524506807
 20
-27.9527325581
 10
7.5412324269
 20
-27.9607138117
 10
7.5295336751
 20
-27.967566904
 10
7.5171853659
 20
-27.9731018869
 10
7.5043565557
 20
-27.9775087302
 10
7.4910472422
 20
-27.9807874411
  0
LWPOLYLINE
  5
379
100
AcDbEntity
  8
RACCORDO
100
AcDbPolyline
 62
7
  6
CONTINUOUS
 90
13
 70
0
 10
-30.3814559227
 20
22.3784598146
 10
-30.4440990547
 20
22.3750844977
 10
-30.5060485616
 20
22.3682840178
 10
-30.5671203602
 20
22.3581439849
 10
-30.6271412082
 20
22.3447544613
 10
-30.6860393818
 20
22.3281953811
 10
-30.7437951138
 20
22.3085254866
 10
-30.8001140816
 20
22.2858842886
 10
-30.8548314546
 20
22.2603885218
 10
-30.9080289174
 20
22.2320328253
 10
-30.9596728097
 20
22.2008356396
 10
-31.009573778
 20
22.1668994962
 10
-31.0575468312
 20
22.1303499044
  0
LWPOLYLINE
  5
37A
100
AcDbEntity
  8
RACCORDO
100
AcDbPolyline
 62
253
  6
CONTINUOUS
 90
16
 70
0
 10
-30.4034563234
 20
22.801271408
 10
-25.9989067184
 20
22.9746578819
 10
-21.5925826333
 20
23.1232815565
 10
-17.1845476268
 20
23.2471434576
 10
-12.7745614697
 20
23.3462513925
 10
-8.362990697
 20
23.4205991129
 10
-3.9508088218
 20
23.4701663121
 10
0.4619200965
 20
23.4949464043
 10
4.8751343548
 20
23.4949465039
 10
9.2878639578
 20
23.4701665925
 10
13.7000466637
 20
23.4205995769
 10
18.1116189515
 20
23.3462520217
 10
22.5216089242
 20
23.2471441331
 10
26.9296505846
 20
23.1232821258
 10
31.3359836225
 20
22.974658226
 10
35.7405444781
 20
22.801271408
  0
LWPOLYLINE
  5
37B
100
AcDbEntity
  8
RACCORDO
100
AcDbPolyline
 62
253
  6
CONTINUOUS
 90
16
 70
0
 10
-29.8906520804
 20
22.3877771022
 10
-25.5541904912
 20
22.5558097209
 10
-21.2161403645
 20
22.6998456671
 10
-16.8765017003
 20
22.8198849409
 10
-12.5349196277
 20
22.915933744
 10
-8.1917490177
 20
22.9879858747
 10
-3.848054483
 20
23.0360227278
 10
0.4961581736
 20
23.0600381074
 10
4.8408947548
 20
23.0600382094
 10
9.1851080558
 20
23.0360230166
 10
13.5288032592
 20
22.9879863581
 10
17.8719751825
 20
22.9159344048
 10
22.2135610737
 20
22.819885653
 10
26.5532066819
 20
22.6998462679
 10
30.891266258
 20
22.5558100844
 10
35.2277398019
 20
22.3877771022
  0
LINE
  5
37C
100
AcDbEntity
  8
0
100
AcDbLine
 62
253
  6
CONTINUOUS
 10
-31.3185600642
 20
23.9456164294
 11
36.6556482188
 21
23.9456164294
  0
LINE
  5
37D
100
AcDbEntity
  8
RACCORDO
100
AcDbLine
 62
253
  6
CONTINUOUS
 10
36.6556482188
 20
23.9456164294
 11
62.0289745765
 21
23.9456164295
  0
LINE
  5
37E
100
AcDbEntity
  8
RACCORDO
100
AcDbLine
 62
253
  6
CONTINUOUS
 10
-31.3185600642
 20
23.9456164294
 11
-56.6918864218
 21
23.9456164293
  0
LINE
  5
37F
100
AcDbEntity
  8
RACCORDO
100
AcDbLine
 62
7
  6
CONTINUOUS
 10
35.7185440775
 20
22.3784538578
 11
35.2277598596
 21
22.3877771022
  0
LWPOLYLINE
  5
380
100
AcDbEntity
  8
RACCORDO
100
AcDbPolyline
 62
253
  6
CONTINUOUS
 90
25
 70
0
 10
35.7405444781
 20
22.801271408
 10
35.7825338095
 20
22.7989183571
 10
35.8243186496
 20
22.7954423363
 10
35.8658990045
 20
22.7908433445
 10
35.9072941483
 20
22.7851153932
 10
35.9484848182
 20
22.7782644677
 10
35.9894132141
 20
22.770308527
 10
36.0300815923
 20
22.7612454732
 10
36.0704877062
 20
22.7510773988
 10
36.1105670011
 20
22.7398285486
 10
36.1503170463
 20
22.7274995103
 10
36.1897402801
 20
22.7140896889
 10
36.2287794512
 20
22.6996215543
 10
36.2674375526
 20
22.6840974906
 10
36.305711597
 20
22.6675151049
 10
36.3435353618
 20
22.6498897002
 10
36.380935233
 20
22.6312051345
 10
36.4178848284
 20
22.6114775395
 10
36.4542387732
 20
22.5907706288
 10
36.4900087227
 20
22.5690552415
 10
36.5251830233
 20
22.5463605272
 10
36.5595813362
 20
22.5228376658
 10
36.5931435484
 20
22.4985370475
 10
36.6259297724
 20
22.4734082715
 10
36.6579400074
 20
22.4474513323
  0
LINE
  5
381
100
AcDbEntity
  8
RACCORDO
100
AcDbLine
 62
253
  6
CONTINUOUS
 10
36.4980910176
 20
-44.2822486003
 11
36.5083173483
 21
-44.4614067786
  0
LINE
  5
382
100
AcDbEntity
  8
RACCORDO
100
AcDbLine
 62
253
  6
CONTINUOUS
 10
36.4916445242
 20
-44.0699618099
 11
36.490013594
 21
-44.0384606496
  0
LINE
  5
383
100
AcDbEntity
  8
RACCORDO
100
AcDbLine
 62
253
  6
CONTINUOUS
 10
36.4980910176
 20
43.4294349742
 11
36.5083173483
 21
43.6085931525
  0
LINE
  5
384
100
AcDbEntity
  8
RACCORDO
100
AcDbLine
 62
253
  6
CONTINUOUS
 10
42.0386646663
 20
-44.119842014
 11
42.0262926946
 21
-43.9408964944
  0
LINE
  5
385
100
AcDbEntity
  8
RACCORDO
100
AcDbLine
 62
253
  6
CONTINUOUS
 10
35.7243228892
 20
-23.3172564428
 11
35.7192428025
 21
-23.2312542196
  0
LWPOLYLINE
  5
386
100
AcDbEntity
  8
RACCORDO
100
AcDbPolyline
 62
7
  6
CONTINUOUS
 90
16
 70
0
 10
36.8125544711
 20
21.284282592
 10
36.808958048
 20
21.3499638667
 10
36.8015459665
 20
21.4152525643
 10
36.790354443
 20
21.4799404624
 10
36.7753920328
 20
21.5440223312
 10
36.7566880204
 20
21.6071937496
 10
36.7344390221
 20
21.6687842126
 10
36.7089320216
 20
21.7282673886
 10
36.6802627631
 20
21.785744216
 10
36.6483459408
 20
21.8415030026
 10
36.6131450097
 20
21.8955527596
 10
36.5748637669
 20
21.9475306419
 10
36.5337153474
 20
21.9971508548
 10
36.4898782051
 20
22.0442299296
 10
36.4434731979
 20
22.0886692833
 10
36.3946382226
 20
22.1303542733
  0
LINE
  5
387
100
AcDbEntity
  8
RACCORDO
100
AcDbLine
 62
253
  6
CONTINUOUS
 10
35.7292867833
 20
-23.4093761761
 11
35.7243228892
 21
-23.3172564428
  0
LINE
  5
388
100
AcDbEntity
  8
RACCORDO
100
AcDbLine
 62
253
  6
CONTINUOUS
 10
36.586443906
 20
-44.0951166391
 11
36.5833032958
 21
-44.0331204862
  0
LINE
  5
389
100
AcDbEntity
  8
RACCORDO
100
AcDbLine
 62
253
  6
CONTINUOUS
 10
35.7340346946
 20
-23.5057614547
 11
35.7292867833
 21
-23.4093761761
  0
LINE
  5
38A
100
AcDbEntity
  8
RACCORDO
100
AcDbLine
 62
253
  6
CONTINUOUS
 10
36.4944973861
 20
-44.1295843719
 11
36.4916445242
 21
-44.0699618099
  0
LINE
  5
38B
100
AcDbEntity
  8
RACCORDO
100
AcDbLine
 62
253
  6
CONTINUOUS
 10
36.5889923847
 20
-44.1516705314
 11
36.586443906
 21
-44.0951166391
  0
LINE
  5
38C
100
AcDbEntity
  8
RACCORDO
100
AcDbLine
 62
253
  6
CONTINUOUS
 10
35.740544478
 20
-23.654085034
 11
35.7340346946
 21
-23.5057614547
  0
LWPOLYLINE
  5
38D
100
AcDbEntity
  8
SUPERFICI
100
AcDbPolyline
 62
7
  6
CONTINUOUS
 90
25
 70
0
 10
36.5329320971
 20
21.2735931869
 10
36.5310721011
 20
21.3268039535
 10
36.5257454504
 20
21.3797813129
 10
36.5169740278
 20
21.4323000075
 10
36.5047937886
 20
21.4841370359
 10
36.4892561531
 20
21.5350712073
 10
36.4704280809
 20
21.5848844317
 10
36.448388771
 20
21.6333653483
 10
36.4232313971
 20
21.6803067795
 10
36.3950650836
 20
21.7255060234
 10
36.3640095956
 20
21.7687708216
 10
36.3301966195
 20
21.8099171254
 10
36.293772488
 20
21.8487677418
 10
36.2548925361
 20
21.8851576051
 10
36.2137218249
 20
21.9189323502
 10
36.1704375121
 20
21.9499473037
 10
36.1252237915
 20
21.9780712321
 10
36.0782729702
 20
22.0031848318
 10
36.0297870655
 20
22.0251804708
 10
35.9799727532
 20
22.0439654062
 10
35.9290414803
 20
22.0594605305
 10
35.8772111788
 20
22.0715997188
 10
35.8247027081
 20
22.0803319577
 10
35.7717387
 20
22.0856212463
 10
35.7185440773
 20
22.0874458099
  0
LINE
  5
38E
100
AcDbEntity
  8
RACCORDO
100
AcDbLine
 62
253
  6
CONTINUOUS
 10
36.6065764399
 20
38.9346229531
 11
36.5833032958
 21
43.1803068601
  0
LINE
  5
38F
100
AcDbEntity
  8
RACCORDO
100
AcDbLine
 62
253
  6
CONTINUOUS
 10
36.6257503371
 20
34.6693857477
 11
36.6065764399
 21
38.9346229531
  0
LINE
  5
390
100
AcDbEntity
  8
RACCORDO
100
AcDbLine
 62
253
  6
CONTINUOUS
 10
36.6408079745
 20
30.3883797323
 11
36.6257503371
 21
34.6693857477
  0
LINE
  5
391
100
AcDbEntity
  8
RACCORDO
100
AcDbLine
 62
253
  6
CONTINUOUS
 10
36.6517359915
 20
26.0954034267
 11
36.6408079745
 21
30.3883797323
  0
LINE
  5
392
100
AcDbEntity
  8
RACCORDO
100
AcDbLine
 62
253
  6
CONTINUOUS
 10
37.2103362911
 20
21.2896082479
 11
37.2198013989
 21
16.6488774248
  0
LINE
  5
393
100
AcDbEntity
  8
SUPERFICI
100
AcDbLine
 62
7
  6
CONTINUOUS
 10
36.5466954053
 20
14.0425537289
 11
36.5329320971
 21
21.2735931869
  0
LINE
  5
394
100
AcDbEntity
  8
RACCORDO
100
AcDbLine
 62
253
  6
CONTINUOUS
 10
36.6223198166
 20
21.2735912702
 11
36.6331317116
 21
15.8409919429
  0
LINE
  5
395
100
AcDbEntity
  8
RACCORDO
100
AcDbLine
 62
253
  6
CONTINUOUS
 10
36.6579400074
 20
22.4474513323
 11
36.6517359915
 21
26.0954034267
  0
LINE
  5
396
100
AcDbEntity
  8
RACCORDO
100
AcDbLine
 62
7
  6
CONTINUOUS
 10
36.8263985263
 20
14.0466122625
 11
36.8126790554
 21
21.2793510191
  0
LINE
  5
397
100
AcDbEntity
  8
RACCORDO
100
AcDbLine
 62
253
  6
CONTINUOUS
 10
37.2198013989
 20
16.6488774248
 11
37.2272987617
 21
11.7237047053
  0
LINE
  5
398
100
AcDbEntity
  8
RACCORDO
100
AcDbLine
 62
253
  6
CONTINUOUS
 10
36.6331317116
 20
15.8409919429
 11
36.6408391365
 21
10.4184411227
  0
LINE
  5
399
100
AcDbEntity
  8
SUPERFICI
100
AcDbLine
 62
7
  6
CONTINUOUS
 10
36.554953892
 20
6.8090292393
 11
36.5466954053
 21
14.0425537289
  0
LINE
  5
39A
100
AcDbEntity
  8
RACCORDO
100
AcDbLine
 62
7
  6
CONTINUOUS
 10
36.8346277133
 20
6.8108925661
 11
36.8263985263
 21
14.0466122625
  0
LINE
  5
39B
100
AcDbEntity
  8
RACCORDO
100
AcDbLine
 62
253
  6
CONTINUOUS
 10
37.2272987617
 20
11.7237047053
 11
37.232441321
 21
6.6352002437
  0
LINE
  5
39C
100
AcDbEntity
  8
RACCORDO
100
AcDbLine
 62
253
  6
CONTINUOUS
 10
36.6408391365
 20
10.4184411227
 11
36.6454633197
 21
4.9958184381
  0
LINE
  5
39D
100
AcDbEntity
  8
RACCORDO
100
AcDbLine
 62
253
  6
CONTINUOUS
 10
37.232441321
 20
6.6352002437
 11
37.2347969455
 21
1.8673362479
  0
LINE
  5
39E
100
AcDbEntity
  8
SUPERFICI
100
AcDbLine
 62
7
  6
CONTINUOUS
 10
36.5577072299
 20
-0.4264068131
 11
36.554953892
 21
6.8090292393
  0
LINE
  5
39F
100
AcDbEntity
  8
RACCORDO
100
AcDbLine
 62
253
  6
CONTINUOUS
 10
35.7185440773
 20
22.0874458099
 11
35.7185440775
 21
22.3784538578
  0
LINE
  5
3A0
100
AcDbEntity
  8
RACCORDO
100
AcDbLine
 62
253
  6
CONTINUOUS
 10
35.7185440773
 20
-22.940259436
 11
35.7185440773
 21
-23.2312674839
  0
LINE
  5
3A1
100
AcDbEntity
  8
RACCORDO
100
AcDbLine
 62
253
  6
CONTINUOUS
 10
36.6454633197
 20
4.9958184381
 11
36.647004541
 21
-0.4264068131
  0
LINE
  5
3A2
100
AcDbEntity
  8
RACCORDO
100
AcDbLine
 62
7
  6
CONTINUOUS
 10
36.837364879
 20
-0.426406813
 11
36.8346277133
 21
6.8108925661
  0
LINE
  5
3A3
100
AcDbEntity
  8
RACCORDO
100
AcDbLine
 62
253
  6
CONTINUOUS
 10
37.2347969455
 20
1.8673362479
 11
37.2339404549
 21
-5.0731896979
  0
LINE
  5
3A4
100
AcDbEntity
  8
RACCORDO
100
AcDbLine
 62
253
  6
CONTINUOUS
 10
36.647004541
 20
-0.4264068131
 11
36.645176378
 21
-6.3431515723
  0
LINE
  5
3A5
100
AcDbEntity
  8
SUPERFICI
100
AcDbLine
 62
7
  6
CONTINUOUS
 10
36.554953892
 20
-7.6618428654
 11
36.5577072299
 21
-0.4264068131
  0
LINE
  5
3A6
100
AcDbEntity
  8
RACCORDO
100
AcDbLine
 62
7
  6
CONTINUOUS
 10
36.8346276711
 20
-7.6643596545
 11
36.8373648783
 21
-0.426406813
  0
LINE
  5
3A7
100
AcDbEntity
  8
RACCORDO
100
AcDbLine
 62
253
  6
CONTINUOUS
 10
37.2339404549
 20
-5.0731896979
 11
37.2302381522
 21
-9.9929428224
  0
LINE
  5
3A8
100
AcDbEntity
  8
RACCORDO
100
AcDbLine
 62
253
  6
CONTINUOUS
 10
36.645176378
 20
-6.3431515723
 11
36.6400121918
 21
-11.9796427367
  0
LINE
  5
3A9
100
AcDbEntity
  8
SUPERFICI
100
AcDbLine
 62
7
  6
CONTINUOUS
 10
36.5466954053
 20
-14.895367355
 11
36.554953892
 21
-7.6618428654
  0
LINE
  5
3AA
100
AcDbEntity
  8
RACCORDO
100
AcDbLine
 62
7
  6
CONTINUOUS
 10
36.826396875
 20
-14.9002424216
 11
36.8346276711
 21
-7.6643596545
  0
LINE
  5
3AB
100
AcDbEntity
  8
RACCORDO
100
AcDbLine
 62
253
  6
CONTINUOUS
 10
37.2302381522
 20
-9.9929428224
 11
37.2238229821
 21
-15.0697539928
  0
LINE
  5
3AC
100
AcDbEntity
  8
RACCORDO
100
AcDbLine
 62
253
  6
CONTINUOUS
 10
36.6400121918
 20
-11.9796427367
 11
36.6314407841
 21
-17.6565035466
  0
LINE
  5
3AD
100
AcDbEntity
  8
RACCORDO
100
AcDbLine
 62
253
  6
CONTINUOUS
 10
36.6579400074
 20
-23.3002649584
 11
36.6517359915
 21
-26.9482170395
  0
LWPOLYLINE
  5
3AE
100
AcDbEntity
  8
RACCORDO
100
AcDbPolyline
 62
253
  6
CONTINUOUS
 90
3
 70
0
 10
37.2238229821
 20
-15.0697539928
 10
37.2153265205
 20
-19.841864356
 10
37.2103362931
 20
-22.1424217947
  0
LINE
  5
3AF
100
AcDbEntity
  8
SUPERFICI
100
AcDbLine
 62
7
  6
CONTINUOUS
 10
36.5329320971
 20
-22.1264068131
 11
36.5466954053
 21
-14.895367355
  0
LINE
  5
3B0
100
AcDbEntity
  8
RACCORDO
100
AcDbLine
 62
253
  6
CONTINUOUS
 10
36.6314407841
 20
-17.6565035466
 11
36.6223141518
 21
-22.1264113829
  0
LINE
  5
3B1
100
AcDbEntity
  8
RACCORDO
100
AcDbLine
 62
7
  6
CONTINUOUS
 10
36.8126777161
 20
-22.1328009365
 11
36.826396875
 21
-14.9002424216
  0
LINE
  5
3B2
100
AcDbEntity
  8
RACCORDO
100
AcDbLine
 62
253
  6
CONTINUOUS
 10
36.6517359915
 20
-26.9482170395
 11
36.6408079746
 21
-31.2411933185
  0
LINE
  5
3B3
100
AcDbEntity
  8
RACCORDO
100
AcDbLine
 62
253
  6
CONTINUOUS
 10
36.6408079746
 20
-31.2411933185
 11
36.6257503374
 21
-35.5221992987
  0
LINE
  5
3B4
100
AcDbEntity
  8
RACCORDO
100
AcDbLine
 62
253
  6
CONTINUOUS
 10
36.6257503374
 20
-35.5221992987
 11
36.6065764402
 21
-39.7874365132
  0
LINE
  5
3B5
100
AcDbEntity
  8
RACCORDO
100
AcDbLine
 62
253
  6
CONTINUOUS
 10
36.6065764402
 20
-39.7874365132
 11
36.5833032958
 21
-44.0331204862
  0
LWPOLYLINE
  5
3B6
100
AcDbEntity
  8
RACCORDO
100
AcDbPolyline
 62
253
  6
CONTINUOUS
 90
52
 70
0
 10
36.6223198031
 20
-22.1264113832
 10
36.6214592366
 20
-22.1637849871
 10
36.6189903664
 20
-22.201838358
 10
36.6148227578
 20
-22.2404974087
 10
36.6087908756
 20
-22.2801203746
 10
36.6008461025
 20
-22.3201685676
 10
36.5912544272
 20
-22.3592456762
 10
36.5801834383
 20
-22.3970652139
 10
36.5676765202
 20
-22.4338105659
 10
36.5540669536
 20
-22.4688625066
 10
36.5396070916
 20
-22.5020250728
 10
36.5243816817
 20
-22.5335004938
 10
36.5085377005
 20
-22.5633079974
 10
36.4922415446
 20
-22.5914288083
 10
36.4756050304
 20
-22.6179347322
 10
36.4586683418
 20
-22.6429827765
 10
36.4415622039
 20
-22.6665725462
 10
36.4243653966
 20
-22.6887732302
 10
36.4069980916
 20
-22.7098286494
 10
36.3895527516
 20
-22.7297412342
 10
36.3720762519
 20
-22.7485648406
 10
36.3543720388
 20
-22.7665871639
 10
36.3364728834
 20
-22.7838247955
 10
36.3184223739
 20
-22.8002837235
 10
36.2999965424
 20
-22.8161959405
 10
36.2811767618
 20
-22.8315837187
 10
36.2620154958
 20
-22.8464103683
 10
36.2423669213
 20
-22.8607870076
 10
36.2221771136
 20
-22.8747373712
 10
36.2015155254
 20
-22.8881979263
 10
36.1804136162
 20
-22.9011378575
 10
36.1588147309
 20
-22.9135789606
 10
36.136797578
 20
-22.9254631972
 10
36.1146088957
 20
-22.9366610178
 10
36.0922612293
 20
-22.947181183
 10
36.0697870358
 20
-22.957022598
 10
36.0474820327
 20
-22.9660829174
 10
36.0254687178
 20
-22.9743561738
 10
36.0036836293
 20
-22.9819089008
 10
35.9821503207
 20
-22.988769947
 10
35.9609905304
 20
-22.9949404008
 10
35.94012979
 20
-23.000480954
 10
35.9192890599
 20
-23.005488566
 10
35.8985265769
 20
-23.0099618983
 10
35.8778124092
 20
-23.0139198483
 10
35.8567230914
 20
-23.0174382834
 10
35.8352466362
 20
-23.0204973474
 10
35.8134126155
 20
-23.0230708595
 10
35.7908523021
 20
-23.0251667186
 10
35.7674485789
 20
-23.0267400486
 10
35.7433397651
 20
-23.0277240779
 10
35.7185408419
 20
-23.0280641788
  0
LWPOLYLINE
  5
3B7
100
AcDbEntity
  8
RACCORDO
100
AcDbPolyline
 62
253
  6
CONTINUOUS
 90
31
 70
0
 10
37.2103362931
 20
-22.1424217947
 10
37.2086894805
 20
-22.1916006342
 10
37.2057349577
 20
-22.2396717845
 10
37.2014727491
 20
-22.2866352591
 10
37.1958473611
 20
-22.3324029064
 10
37.1889143333
 20
-22.3770629049
 10
37.1808402342
 20
-22.4208797599
 10
37.1716528761
 20
-22.4638788544
 10
37.1613244785
 20
-22.5060348239
 10
37.1499382134
 20
-22.547536047
 10
37.1375263165
 20
-22.5883816668
 10
37.1240565761
 20
-22.628572554
 10
37.1095154899
 20
-22.6682996745
 10
37.0939030287
 20
-22.7076209059
 10
37.0772192409
 20
-22.7464783795
 10
37.0594507388
 20
-22.7848894388
 10
37.0405490307
 20
-22.8229427431
 10
37.0205626248
 20
-22.8605496412
 10
36.9996236332
 20
-22.8974615132
 10
36.9777628442
 20
-22.9335979397
 10
36.9549494827
 20
-22.969039354
 10
36.931223314
 20
-23.003778417
 10
36.9067447251
 20
-23.0376665502
 10
36.8813533382
 20
-23.0708523459
 10
36.8546077714
 20
-23.1037742172
 10
36.826615498
 20
-23.1364440403
 10
36.797269054
 20
-23.1688499434
 10
36.7658046557
 20
-23.2013947103
 10
36.7319677135
 20
-23.2342125999
 10
36.6960128291
 20
-23.2671693497
 10
36.6579400074
 20
-23.3002649584
  0
LWPOLYLINE
  5
3B8
100
AcDbEntity
  8
SUPERFICI
100
AcDbPolyline
 62
7
  6
CONTINUOUS
 90
25
 70
0
 10
36.5329320971
 20
-22.1264068131
 10
36.5310721011
 20
-22.1796175796
 10
36.5257454504
 20
-22.232594939
 10
36.5169740278
 20
-22.2851136336
 10
36.5047937886
 20
-22.336950662
 10
36.4892561531
 20
-22.3878848334
 10
36.4704280809
 20
-22.4376980578
 10
36.448388771
 20
-22.4861789744
 10
36.4232313971
 20
-22.5331204056
 10
36.3950650836
 20
-22.5783196495
 10
36.3640095956
 20
-22.6215844477
 10
36.3301966195
 20
-22.6627307515
 10
36.293772488
 20
-22.7015813679
 10
36.2548925361
 20
-22.7379712312
 10
36.2137218249
 20
-22.7717459763
 10
36.1704375121
 20
-22.8027609299
 10
36.1252237915
 20
-22.8308848582
 10
36.0782729702
 20
-22.8559984579
 10
36.0297870655
 20
-22.8779940969
 10
35.9799727532
 20
-22.8967790323
 10
35.9290414803
 20
-22.9122741566
 10
35.8772111788
 20
-22.9244133449
 10
35.8247027081
 20
-22.9331455838
 10
35.7717387
 20
-22.9384348724
 10
35.7185440773
 20
-22.940259436
  0
LINE
  5
3B9
100
AcDbEntity
  8
RACCORDO
100
AcDbLine
 62
253
  6
CONTINUOUS
 10
36.4975177492
 20
43.3526629914
 11
36.4956859146
 21
43.3041940458
  0
LINE
  5
3BA
100
AcDbEntity
  8
RACCORDO
100
AcDbLine
 62
253
  6
CONTINUOUS
 10
36.5908297187
 20
43.3473274884
 11
36.5889923847
 21
43.2988569053
  0
LINE
  5
3BB
100
AcDbEntity
  8
RACCORDO
100
AcDbLine
 62
253
  6
CONTINUOUS
 10
35.7405444738
 20
22.8012714016
 11
35.7340346761
 21
22.6529477829
  0
LINE
  5
3BC
100
AcDbEntity
  8
RACCORDO
100
AcDbLine
 62
253
  6
CONTINUOUS
 10
36.4956859146
 20
43.3041940458
 11
36.4931449776
 21
43.247641771
  0
LINE
  5
3BD
100
AcDbEntity
  8
RACCORDO
100
AcDbLine
 62
253
  6
CONTINUOUS
 10
36.5889923847
 20
43.2988569053
 11
36.586443906
 21
43.242303013
  0
LINE
  5
3BE
100
AcDbEntity
  8
RACCORDO
100
AcDbLine
 62
253
  6
CONTINUOUS
 10
35.7340346761
 20
22.6529477829
 11
35.7292867608
 21
22.5565623908
  0
LINE
  5
3BF
100
AcDbEntity
  8
RACCORDO
100
AcDbLine
 62
253
  6
CONTINUOUS
 10
36.4931449776
 20
43.247641771
 11
36.490013594
 21
43.1856470235
  0
LINE
  5
3C0
100
AcDbEntity
  8
RACCORDO
100
AcDbLine
 62
253
  6
CONTINUOUS
 10
36.586443906
 20
43.242303013
 11
36.5833032958
 21
43.1803068601
  0
LINE
  5
3C1
100
AcDbEntity
  8
RACCORDO
100
AcDbLine
 62
253
  6
CONTINUOUS
 10
35.7292867608
 20
22.5565623908
 11
35.7243228897
 21
22.4644429361
  0
LWPOLYLINE
  5
3C2
100
AcDbEntity
  8
RACCORDO
100
AcDbPolyline
 62
253
  6
CONTINUOUS
 90
3
 70
0
 10
42.0232660064
 20
42.9350236589
 10
42.0200636288
 20
42.8753146318
 10
42.0181995749
 20
42.8437779219
  0
LINE
  5
3C3
100
AcDbEntity
  8
RACCORDO
100
AcDbLine
 62
253
  6
CONTINUOUS
 10
35.7243228897
 20
22.4644429361
 11
35.7192428584
 21
22.3784414072
  0
LINE
  5
3C4
100
AcDbEntity
  8
RACCORDO
100
AcDbLine
 62
253
  6
CONTINUOUS
 10
42.0386646663
 20
43.2670283879
 11
42.026292709
 21
43.0880828674
  0
LWPOLYLINE
  5
3C5
100
AcDbEntity
  8
RACCORDO
100
AcDbPolyline
 62
253
  6
CONTINUOUS
 90
16
 70
0
 10
-56.889976242
 20
24.7190579313
 10
-56.8861283467
 20
24.7199491575
 10
-56.8797283534
 20
24.7205603164
 10
-56.8708319378
 20
24.7208860913
 10
-56.8595164929
 20
24.7209236483
 10
-56.8458804556
 20
24.7206726605
 10
-56.8300424507
 20
24.7201353114
 10
-56.8121402583
 20
24.7193162757
 10
-56.7923296158
 20
24.7182226783
 10
-56.7707828628
 20
24.7168640329
 10
-56.7476874421
 20
24.7152521588
 10
-56.7232442686
 20
24.7134010782
 10
-56.697665982
 20
24.7113268943
 10
-56.6711750967
 20
24.7090476512
 10
-56.644002066
 20
24.7065831768
 10
-56.6163832774
 20
24.7039549103
  0
LWPOLYLINE
  5
3C6
100
AcDbEntity
  8
RACCORDO
100
AcDbPolyline
 62
253
  6
CONTINUOUS
 90
13
 70
0
 10
-56.9655406602
 20
23.9612544075
 10
-56.9617076708
 20
23.9620197134
 10
-56.955319622
 20
23.9625148832
 10
-56.9464321271
 20
23.962735606
 10
-56.9351225588
 20
23.9626799603
 10
-56.9214893761
 20
23.9623484304
 10
-56.9056512667
 20
23.9617439027
 10
-56.8877461141
 20
23.96087164
 10
-56.8679297972
 20
23.9597392361
 10
-56.846374833
 20
23.9583565495
 10
-56.8232688747
 20
23.9567356175
 10
-56.7988130784
 20
23.9548905517
 10
-56.7732203514
 20
23.9528374149
  0
LWPOLYLINE
  5
3C7
100
AcDbEntity
  8
RACCORDO
100
AcDbPolyline
 62
253
  6
CONTINUOUS
 90
12
 70
0
 10
-56.9792074197
 20
23.821594042
 10
-56.9753754437
 20
23.8223554245
 10
-56.9689881269
 20
23.8228483606
 10
-56.9601010782
 20
23.823068559
 10
-56.9487916697
 20
23.8230141024
 10
-56.9351583629
 20
23.8226854651
 10
-56.9193198515
 20
23.8220855081
 10
-56.9014140282
 20
23.8212194548
 10
-56.8815967838
 20
23.8200948453
 10
-56.8600406504
 20
23.8187214704
 10
-56.8369332991
 20
23.817111287
 10
-56.8124759063
 20
23.8152783138
  0
LWPOLYLINE
  5
3C8
100
AcDbEntity
  8
RACCORDO
100
AcDbPolyline
 62
253
  6
CONTINUOUS
 90
13
 70
0
 10
62.3162955618
 20
23.8215940408
 10
62.3124635857
 20
23.8223554232
 10
62.306076269
 20
23.8228483594
 10
62.2971892206
 20
23.8230685577
 10
62.2858798125
 20
23.8230141012
 10
62.2722465063
 20
23.8226854639
 10
62.2564079957
 20
23.822085507
 10
62.2385021732
 20
23.8212194538
 10
62.2186849298
 20
23.8200948443
 10
62.1971287975
 20
23.8187214695
 10
62.1740214474
 20
23.8171112862
 10
62.1495640558
 20
23.815278313
 10
62.0974607676
 20
23.8110096302
  0
LWPOLYLINE
  5
3C9
100
AcDbEntity
  8
RACCORDO
100
AcDbPolyline
 62
253
  6
CONTINUOUS
 90
15
 70
0
 10
62.302628815
 20
23.9612544075
 10
62.2987958255
 20
23.9620197134
 10
62.2924077768
 20
23.9625148832
 10
62.2835202819
 20
23.962735606
 10
62.2722107136
 20
23.9626799603
 10
62.2585775308
 20
23.9623484304
 10
62.2427394214
 20
23.9617439027
 10
62.2248342688
 20
23.96087164
 10
62.2050179519
 20
23.9597392361
 10
62.1834629877
 20
23.9583565495
 10
62.1603570294
 20
23.9567356175
 10
62.1359012331
 20
23.9548905517
 10
62.1103085061
 20
23.9528374149
 10
62.0838016538
 20
23.9505940812
 10
62.0289745765
 20
23.9456164294
  0
LWPOLYLINE
  5
3CA
100
AcDbEntity
  8
RACCORDO
100
AcDbPolyline
 62
253
  6
CONTINUOUS
 90
16
 70
0
 10
62.2270643946
 20
24.7190579311
 10
62.2232164994
 20
24.7199491574
 10
62.2168165062
 20
24.7205603163
 10
62.2079200908
 20
24.7208860913
 10
62.196604646
 20
24.7209236483
 10
62.1829686089
 20
24.7206726606
 10
62.1671306041
 20
24.7201353116
 10
62.1492284119
 20
24.7193162758
 10
62.1294177695
 20
24.7182226785
 10
62.1078710168
 20
24.7168640331
 10
62.0847755962
 20
24.7152521589
 10
62.0603324229
 20
24.7134010783
 10
62.0347541365
 20
24.7113268944
 10
62.0082632512
 20
24.7090476513
 10
61.9810902206
 20
24.7065831769
 10
61.9534714322
 20
24.7039549104
  0
LWPOLYLINE
  5
3CB
100
AcDbEntity
  8
RACCORDO
100
AcDbPolyline
 62
7
  6
CONTINUOUS
 90
13
 70
0
 10
36.3946382226
 20
22.1303542733
 10
36.3465002573
 20
22.1670227299
 10
36.2964071703
 20
22.201069396
 10
36.2445190772
 20
22.2323793534
 10
36.1909953652
 20
22.2608550492
 10
36.1359212849
 20
22.2864436771
 10
36.0793076805
 20
22.3091121147
 10
36.0213290057
 20
22.328754475
 10
35.9622947754
 20
22.3452418558
 10
35.9023631778
 20
22.3585023436
 10
35.8416633552
 20
22.3684859084
 10
35.7803295338
 20
22.3751535294
 10
35.7185440775
 20
22.3784598173
  0
LWPOLYLINE
  5
3CC
100
AcDbEntity
  8
RACCORDO
100
AcDbPolyline
 62
253
  6
CONTINUOUS
 90
7
 70
0
 10
36.5914051782
 20
43.4241028957
 10
36.5918408991
 20
43.4194949551
 10
36.5920649581
 20
43.4114476798
 10
36.5920747315
 20
43.4000552967
 10
36.5918701051
 20
43.3854512016
 10
36.5914534746
 20
43.3678063967
 10
36.5908297187
 20
43.3473274884
  0
LWPOLYLINE
  5
3CD
100
AcDbEntity
  8
RACCORDO
100
AcDbPolyline
 62
253
  6
CONTINUOUS
 90
7
 70
0
 10
36.4980910176
 20
43.4294349742
 10
36.4985255561
 20
43.4248273598
 10
36.4987490501
 20
43.4167805237
 10
36.4987588829
 20
43.4053886837
 10
36.4985549392
 20
43.3907852232
 10
36.498139607
 20
43.3731411294
 10
36.4975177492
 20
43.3526629914
  0
LWPOLYLINE
  5
3CE
100
AcDbEntity
  8
RACCORDO
100
AcDbPolyline
 62
253
  6
CONTINUOUS
 90
9
 70
0
 10
36.4980910176
 20
-44.282248601
 10
36.4985255561
 20
-44.2776409865
 10
36.4987490502
 20
-44.2695941504
 10
36.4987588829
 20
-44.2582023103
 10
36.4985549392
 20
-44.2435988498
 10
36.498139607
 20
-44.2259547559
 10
36.4975177493
 20
-44.2054766179
 10
36.4966966472
 20
-44.1824042075
 10
36.4944973861
 20
-44.1295843719
  0
LWPOLYLINE
  5
3CF
100
AcDbEntity
  8
RACCORDO
100
AcDbPolyline
 62
253
  6
CONTINUOUS
 90
8
 70
0
 10
36.5914051782
 20
-44.2769165218
 10
36.5918408991
 20
-44.2723085812
 10
36.5920649581
 20
-44.2642613059
 10
36.5920747315
 20
-44.2528689228
 10
36.5918701051
 20
-44.2382648277
 10
36.5914534746
 20
-44.2206200227
 10
36.5908297187
 20
-44.2001411145
 10
36.5889923847
 20
-44.1516705314
  0
LWPOLYLINE
  5
3D0
100
AcDbEntity
  8
RACCORDO
100
AcDbPolyline
 62
253
  6
CONTINUOUS
 90
3
 70
0
 10
47.0074138439
 20
42.4825964616
 10
47.0013476261
 20
42.423051742
 10
46.9979680394
 20
42.3916137432
  0
LINE
  5
3D1
100
AcDbEntity
  8
RACCORDO
100
AcDbLine
 62
253
  6
CONTINUOUS
 10
47.0386646663
 20
42.8135931869
 11
47.0176881715
 21
42.6355177824
  0
LWPOLYLINE
  5
3D2
100
AcDbEntity
  8
RACCORDO
100
AcDbPolyline
 62
7
  6
CONTINUOUS
 90
16
 70
0
 10
36.3946351464
 20
-22.9831636458
 10
36.4454446393
 20
-22.9397050515
 10
36.4933193778
 20
-22.8935532489
 10
36.5381570262
 20
-22.8448915549
 10
36.5798423565
 20
-22.7939285266
 10
36.6182590793
 20
-22.7409049955
 10
36.6533129661
 20
-22.6860701517
 10
36.6848850555
 20
-22.6297724848
 10
36.7130489469
 20
-22.5720273983
 10
36.7379286137
 20
-22.5125807373
 10
36.7594616341
 20
-22.4514445112
 10
36.7774548433
 20
-22.3890525853
 10
36.7918028065
 20
-22.3257831409
 10
36.8024592134
 20
-22.2618862965
 10
36.8094163641
 20
-22.1974921219
 10
36.8126549962
 20
-22.1328009765
  0
LWPOLYLINE
  5
3D3
100
AcDbEntity
  8
RACCORDO
100
AcDbPolyline
 62
253
  6
CONTINUOUS
 90
25
 70
0
 10
36.6579400074
 20
-23.3002649584
 10
36.6259282121
 20
-23.3262227867
 10
36.5931421286
 20
-23.3513514626
 10
36.5595817578
 20
-23.3756509917
 10
36.5251873919
 20
-23.3991714
 10
36.4900187392
 20
-23.4218626722
 10
36.4542549238
 20
-23.4435747525
 10
36.4179074776
 20
-23.4642787275
 10
36.3809648669
 20
-23.4840035221
 10
36.3435716178
 20
-23.5026858396
 10
36.305753997
 20
-23.5203096802
 10
36.2674857339
 20
-23.5368910542
 10
36.228832548
 20
-23.5524146793
 10
36.1897974194
 20
-23.566883003
 10
36.1503773622
 20
-23.5802935867
 10
36.1106291463
 20
-23.5926238187
 10
36.0705503254
 20
-23.6038743406
 10
36.0301433382
 20
-23.614044518
 10
35.9894722812
 20
-23.6231098254
 10
35.9485394026
 20
-23.6310682168
 10
35.9073424446
 20
-23.6379217435
 10
35.8659387445
 20
-23.6436520252
 10
35.8243474111
 20
-23.6482529363
 10
35.7825493243
 20
-23.6517306055
 10
35.7405444781
 20
-23.6540850341
  0
LINE
  5
3D4
100
AcDbEntity
  8
RACCORDO
100
AcDbLine
 62
253
  6
CONTINUOUS
 10
-36.6811114202
 20
42.8437779219
 11
-35.4742991682
 21
42.9228338039
  0
LINE
  5
3D5
100
AcDbEntity
  8
RACCORDO
100
AcDbLine
 62
253
  6
CONTINUOUS
 10
-35.4742991682
 20
42.9228338039
 11
-34.266936594
 21
42.9994504921
  0
LINE
  5
3D6
100
AcDbEntity
  8
RACCORDO
100
AcDbLine
 62
253
  6
CONTINUOUS
 10
-35.4823955503
 20
43.1670186795
 11
-34.2750346454
 21
43.2435202732
  0
LINE
  5
3D7
100
AcDbEntity
  8
RACCORDO
100
AcDbLine
 62
253
  6
CONTINUOUS
 10
-34.266936594
 20
42.9994504921
 11
-33.0590331373
 21
43.0736271004
  0
LINE
  5
3D8
100
AcDbEntity
  8
RACCORDO
100
AcDbLine
 62
253
  6
CONTINUOUS
 10
-34.2750346454
 20
43.2435202732
 11
-33.0671329554
 21
43.3175845572
  0
LINE
  5
3D9
100
AcDbEntity
  8
RACCORDO
100
AcDbLine
 62
253
  6
CONTINUOUS
 10
-33.0590331373
 20
43.0736271004
 11
-31.8506164401
 21
43.1453579719
  0
LINE
  5
3DA
100
AcDbEntity
  8
RACCORDO
100
AcDbLine
 62
253
  6
CONTINUOUS
 10
-33.0671329554
 20
43.3175845572
 11
-31.8587172068
 21
43.3892075852
  0
LWPOLYLINE
  5
3DB
100
AcDbEntity
  8
RACCORDO
100
AcDbPolyline
 62
253
  6
CONTINUOUS
 90
36
 70
0
 10
-31.8506164401
 20
43.1453579719
 10
-29.7219977907
 20
43.266313042
 10
-28.2438135548
 20
43.3452519422
 10
-26.7183705471
 20
43.4224642318
 10
-25.1486531122
 20
43.4982416056
 10
-23.5316738028
 20
43.5722933017
 10
-21.8584718306
 20
43.6437463853
 10
-20.1290183739
 20
43.7127529812
 10
-18.3433385592
 20
43.7791623489
 10
-16.4925499702
 20
43.8416478273
 10
-14.5707440021
 20
43.9004544779
 10
-12.5838253199
 20
43.9553390814
 10
-10.5406289674
 20
44.004243273
 10
-8.4287043977
 20
44.0470958646
 10
-6.2604992126
 20
44.0839702545
 10
-4.0821948203
 20
44.1130254703
 10
-1.9081674844
 20
44.1337488555
 10
0.2759595459
 20
44.146654675
 10
2.4671348757
 20
44.1514422585
 10
4.6655363164
 20
44.1480639549
 10
6.8709864398
 20
44.1365674617
 10
9.0799013638
 20
44.1167947389
 10
11.313103116
 20
44.0880086265
 10
13.5497698531
 20
44.0509446104
 10
15.7238520585
 20
44.0076535028
 10
17.8177835298
 20
43.9579923666
 10
19.8491339285
 20
43.9021017979
 10
21.804557121
 20
43.8424585369
 10
23.6745873399
 20
43.7794450163
 10
25.4686951237
 20
43.7126770471
 10
27.2019358935
 20
43.6434822644
 10
28.8742678998
 20
43.5720928372
 10
30.4857369301
 20
43.4982753214
 10
32.0515264841
 20
43.4226594394
 10
33.576698069
 20
43.345454836
 10
35.0561930728
 20
43.2664508742
  0
LWPOLYLINE
  5
3DC
100
AcDbEntity
  8
RACCORDO
100
AcDbPolyline
 62
253
  6
CONTINUOUS
 90
36
 70
0
 10
-31.8587172068
 20
43.3892075852
 10
-29.7296697561
 20
43.5093718252
 10
-28.2511445651
 20
43.5883065027
 10
-26.7253883823
 20
43.6658879235
 10
-25.1553033627
 20
43.7416153908
 10
-23.5379081774
 20
43.8152690232
 10
-21.8643289505
 20
43.8868296258
 10
-20.134494066
 20
43.9558247237
 10
-18.348370407
 20
44.0217641524
 10
-16.4971251754
 20
44.0844265333
 10
-14.5748866353
 20
44.143375127
 10
-12.5875098934
 20
44.1977724357
 10
-10.543783671
 20
44.246771712
 10
-8.4313541931
 20
44.2900237466
 10
-6.2626770863
 20
44.3266082666
 10
-4.0838075518
 20
44.3553864529
 10
-1.9092292342
 20
44.3761335702
 10
0.2753668914
 20
44.388956102
 10
2.4670866425
 20
44.3937441072
 10
4.6660313833
 20
44.3904188904
 10
6.8719533768
 20
44.3789015529
 10
9.0814327061
 20
44.3591499211
 10
11.3152181642
 20
44.3308206379
 10
13.5523705351
 20
44.294024161
 10
15.72696979
 20
44.2501766991
 10
17.8214489805
 20
44.2004140872
 10
19.8532699705
 20
44.1450773958
 10
21.8091261478
 20
44.0852359992
 10
23.6796124341
 20
44.0219711088
 10
25.474170231
 20
43.9557252638
 10
27.2077944012
 20
43.8865659175
 10
28.8804988353
 20
43.8150259242
 10
30.4923834618
 20
43.741615757
 10
32.0585432627
 20
43.6660828365
 10
33.5840297723
 20
43.5885256245
 10
35.0638664939
 20
43.5095298052
  0
LWPOLYLINE
  5
3DD
100
AcDbEntity
  8
DRAFT
100
AcDbPolyline
 62
7
  6
CONTINUOUS
 90
25
 70
0
 10
-31.1712291936
 20
43.6085931525
 10
-28.3542133199
 20
43.7626926641
 10
-25.5365274639
 20
43.9033873712
 10
-22.7181734517
 20
44.0306849097
 10
-19.8990755479
 20
44.1446002297
 10
-17.0793116893
 20
44.2451316304
 10
-14.2591135229
 20
44.3322607554
 10
-11.4384816169
 20
44.4059906277
 10
-8.6174153242
 20
44.4663272483
 10
-5.7961439911
 20
44.5132556512
 10
-2.9746725436
 20
44.5467746094
 10
-0.1529945878
 20
44.5668899206
 10
2.6686777572
 20
44.5735960288
 10
5.490344222
 20
44.5668887514
 10
8.3120070118
 20
44.5467722709
 10
11.1334577192
 20
44.5132524348
 10
13.9547021149
 20
44.4663235427
 10
16.7757358964
 20
44.4059867243
 10
19.5963352988
 20
44.332256945
 10
22.4165009747
 20
44.2451283096
 10
25.2362323504
 20
44.1445976895
 10
28.0553033436
 20
44.0306831237
 10
30.873637872
 20
43.903386207
 10
33.6913098158
 20
43.7626920952
 10
36.5083173483
 20
43.6085931525
  0
LINE
  5
3DE
100
AcDbEntity
  8
RACCORDO
100
AcDbLine
 62
253
  6
CONTINUOUS
 10
35.0561930728
 20
43.2664508742
 11
37.1877046001
 21
43.1453579716
  0
LWPOLYLINE
  5
3DF
100
AcDbEntity
  8
RACCORDO
100
AcDbPolyline
 62
253
  6
CONTINUOUS
 90
3
 70
0
 10
37.1877046001
 20
43.1453579716
 10
38.3961213066
 20
43.0736270995
 10
39.0001379093
 20
43.0368444222
  0
LWPOLYLINE
  5
3E0
100
AcDbEntity
  8
RACCORDO
100
AcDbPolyline
 62
253
  6
CONTINUOUS
 90
31
 70
0
 10
36.6579400074
 20
22.4474513323
 10
36.6960160394
 20
22.414352742
 10
36.7319737776
 20
22.3813930928
 10
36.7658132168
 20
22.3485723863
 10
36.7972798305
 20
22.3160247399
 10
36.8266281333
 20
22.2836160396
 10
36.8546216837
 20
22.250943936
 10
36.8813678731
 20
22.2180203137
 10
36.906759301
 20
22.1848332837
 10
36.931237341
 20
22.1509448276
 10
36.954962239
 20
22.116206553
 10
36.9777737401
 20
22.0807668386
 10
36.9996324672
 20
22.0446328196
 10
37.020569185
 20
22.0077241951
 10
37.0405531155
 20
21.9701212522
 10
37.0594525666
 20
21.9320720098
 10
37.0772191261
 20
21.8936650638
 10
37.0939011896
 20
21.8548118101
 10
37.1095122753
 20
21.8154944696
 10
37.1240523917
 20
21.7757708679
 10
37.1375215111
 20
21.7355831704
 10
37.1499330963
 20
21.6947401049
 10
37.1613193894
 20
21.6532408011
 10
37.1716481243
 20
21.6110861154
 10
37.1808359973
 20
21.5680873608
 10
37.1889108312
 20
21.5242699007
 10
37.1958447714
 20
21.4796083531
 10
37.2014709914
 20
21.4338379075
 10
37.2057338657
 20
21.3868702837
 10
37.2086889737
 20
21.338793735
 10
37.2103362911
 20
21.2896082479
  0
LINE
  5
3E1
100
AcDbEntity
  8
RACCORDO
100
AcDbLine
 62
253
  6
CONTINUOUS
 10
47.0386646663
 20
-43.6664068131
 11
47.0176794656
 21
-43.48833241
  0
LWPOLYLINE
  5
3E2
100
AcDbEntity
  8
RACCORDO
100
AcDbPolyline
 62
253
  6
CONTINUOUS
 90
12
 70
0
 10
42.0262941798
 20
-43.9408963949
 10
42.0269596604
 20
-43.936258728
 10
42.0273755985
 20
-43.9281764356
 10
42.0275371126
 20
-43.9167443713
 10
42.0274423073
 20
-43.9020967014
 10
42.0270922953
 20
-43.8844053306
 10
42.0264911841
 20
-43.8638778841
 10
42.0256460285
 20
-43.8407552715
 10
42.0245667471
 20
-43.815308859
 10
42.0232660064
 20
-43.787837285
 10
42.0217590719
 20
-43.7586629549
 10
42.0181995748
 20
-43.696591548
  0
LWPOLYLINE
  5
3E3
100
AcDbEntity
  8
RACCORDO
100
AcDbPolyline
 62
253
  6
CONTINUOUS
 90
16
 70
0
 10
61.6908718991
 20
-29.5602433292
 10
61.6868949086
 20
-29.5614734903
 10
61.6804142627
 20
-29.5622514818
 10
61.6714858226
 20
-29.5625705977
 10
61.6601865483
 20
-29.5624280872
 10
61.646613836
 20
-29.5618251787
 10
61.6308846781
 20
-29.5607670691
 10
61.6131346548
 20
-29.559262879
 10
61.5935167655
 20
-29.557325574
 10
61.5722001099
 20
-29.5549718531
 10
61.5493684309
 20
-29.5522220045
 10
61.5252185299
 20
-29.5490997311
 10
61.4999585713
 20
-29.5456319458
 10
61.4738062877
 20
-29.5418485399
 10
61.4469871033
 20
-29.537782125
 10
61.4197321907
 20
-29.5334677523
  0
LWPOLYLINE
  5
3E4
100
AcDbEntity
  8
RACCORDO
100
AcDbPolyline
 62
253
  6
CONTINUOUS
 90
10
 70
0
 10
-41.787072998
 20
42.376930206
 10
-41.1085592311
 20
42.453727375
 10
-40.5559741583
 20
42.5128729486
 10
-40.0031238469
 20
42.569051118
 10
-39.4499812258
 20
42.6222647112
 10
-38.8965716561
 20
42.672512117
 10
-38.3429729369
 20
42.7197872862
 10
-37.7892103924
 20
42.7640885471
 10
-37.2352568684
 20
42.8054186032
 10
-36.6811114202
 20
42.8437779219
  0
LWPOLYLINE
  5
3E5
100
AcDbEntity
  8
DRAFT
100
AcDbPolyline
 62
7
  6
CONTINUOUS
 90
10
 70
0
 10
-41.7015765116
 20
42.8135931869
 10
-41.1469696479
 20
42.8758868473
 10
-40.5921165862
 20
42.9352018889
 10
-40.0370164544
 20
42.9915390034
 10
-39.4816535001
 20
43.0449000161
 10
-38.9260416581
 20
43.0952843881
 10
-38.3702245542
 20
43.1426892164
 10
-37.8142160822
 20
43.1871138969
 10
-37.2580004025
 20
43.2285601228
 10
-36.7015765116
 20
43.2670283879
  0
LWPOLYLINE
  5
3E6
100
AcDbEntity
  8
RACCORDO
100
AcDbPolyline
 62
253
  6
CONTINUOUS
 90
10
 70
0
 10
-41.6805913102
 20
42.6355187779
 10
-41.1270118388
 20
42.6976831486
 10
-40.5731333024
 20
42.7568808277
 10
-40.0189723079
 20
42.8131104773
 10
-39.464534751
 20
42.8663717902
 10
-38.909845445
 20
42.9166627419
 10
-38.354949415
 20
42.9639799151
 10
-37.7998715305
 20
43.0083221341
 10
-37.2446176997
 20
43.0496899134
 10
-36.6892045399
 20
43.0880828683
  0
LINE
  5
3E7
100
AcDbEntity
  8
RACCORDO
100
AcDbLine
 62
253
  6
CONTINUOUS
 10
-36.6892045398
 20
43.0880828674
 11
-35.4823955503
 21
43.1670186795
  0
LINE
  5
3E8
100
AcDbEntity
  8
DRAFT
100
AcDbLine
 62
7
  6
CONTINUOUS
 10
-36.7015765116
 20
43.2670283879
 11
-35.4735973678
 21
43.3473460782
  0
LINE
  5
3E9
100
AcDbEntity
  8
DRAFT
100
AcDbLine
 62
7
  6
CONTINUOUS
 10
-35.4735973678
 20
43.3473460782
 11
-34.2450432295
 21
43.4251430367
  0
LINE
  5
3EA
100
AcDbEntity
  8
DRAFT
100
AcDbLine
 62
7
  6
CONTINUOUS
 10
-34.2450432295
 20
43.4251430367
 11
-33.0159231007
 21
43.5004183917
  0
LWPOLYLINE
  5
3EB
100
AcDbEntity
  8
DRAFT
100
AcDbPolyline
 62
7
  6
CONTINUOUS
 90
3
 70
0
 10
-33.0159231007
 20
43.5004183917
 10
-31.786262487
 20
43.5731663276
 10
-31.1712291936
 20
43.6085931525
  0
LINE
  5
3EC
100
AcDbEntity
  8
RACCORDO
100
AcDbLine
 62
253
  6
CONTINUOUS
 10
35.0638664939
 20
43.5095298052
 11
37.1958053654
 21
43.389207585
  0
LINE
  5
3ED
100
AcDbEntity
  8
DRAFT
100
AcDbLine
 62
7
  6
CONTINUOUS
 10
36.5083173483
 20
43.6085931525
 11
37.7382487534
 21
43.5371081042
  0
LINE
  5
3EE
100
AcDbEntity
  8
RACCORDO
100
AcDbLine
 62
253
  6
CONTINUOUS
 10
37.1958053654
 20
43.389207585
 11
38.4042211183
 21
43.3175845567
  0
LINE
  5
3EF
100
AcDbEntity
  8
DRAFT
100
AcDbLine
 62
7
  6
CONTINUOUS
 10
37.7382487534
 20
43.5371081042
 11
38.9676395551
 21
43.4630965512
  0
LINE
  5
3F0
100
AcDbEntity
  8
RACCORDO
100
AcDbLine
 62
253
  6
CONTINUOUS
 10
38.4042211183
 20
43.3175845567
 11
39.6121228106
 21
43.2435202726
  0
LINE
  5
3F1
100
AcDbEntity
  8
RACCORDO
100
AcDbLine
 62
253
  6
CONTINUOUS
 10
39.0001379093
 20
43.0368444222
 11
40.2077754002
 21
42.9614468035
  0
LINE
  5
3F2
100
AcDbEntity
  8
DRAFT
100
AcDbLine
 62
7
  6
CONTINUOUS
 10
38.9676395551
 20
43.4630965512
 11
40.1964807976
 21
43.3865593952
  0
LINE
  5
3F3
100
AcDbEntity
  8
RACCORDO
100
AcDbLine
 62
253
  6
CONTINUOUS
 10
39.6121228106
 20
43.2435202726
 11
40.8194837175
 21
43.1670186787
  0
LWPOLYLINE
  5
3F4
100
AcDbEntity
  8
DRAFT
100
AcDbPolyline
 62
7
  6
CONTINUOUS
 90
3
 70
0
 10
40.1964807976
 20
43.3865593952
 10
41.4247469585
 20
43.3075024418
 10
42.0386646663
 20
43.2670283879
  0
LWPOLYLINE
  5
3F5
100
AcDbEntity
  8
RACCORDO
100
AcDbPolyline
 62
253
  6
CONTINUOUS
 90
3
 70
0
 10
40.2077754002
 20
42.9614468035
 10
41.4148622095
 20
42.8836108717
 10
42.0181995748
 20
42.8437779219
  0
LINE
  5
3F6
100
AcDbEntity
  8
RACCORDO
100
AcDbLine
 62
253
  6
CONTINUOUS
 10
40.8194837175
 20
43.1670186787
 11
42.026292709
 21
43.0880828665
  0
LWPOLYLINE
  5
3F7
100
AcDbEntity
  8
RACCORDO
100
AcDbPolyline
 62
253
  6
CONTINUOUS
 90
9
 70
0
 10
42.0181995748
 20
42.8437779219
 10
42.5723450442
 20
42.8054186015
 10
43.1262985836
 20
42.7640885441
 10
43.6800611379
 20
42.7197872824
 10
44.2336598609
 20
42.6725121126
 10
44.7870694287
 20
42.6222647067
 10
45.3402120436
 20
42.5690511139
 10
45.8930623452
 20
42.5128729454
 10
46.445647404
 20
42.4537273732
  0
LWPOLYLINE
  5
3F8
100
AcDbEntity
  8
RACCORDO
100
AcDbPolyline
 62
253
  6
CONTINUOUS
 90
10
 70
0
 10
42.026292709
 20
43.0880828674
 10
42.5817056734
 20
43.0496899264
 10
43.1369593574
 20
43.0083221594
 10
43.6920371438
 20
42.9639799503
 10
44.2469328013
 20
42.9166628121
 10
44.8016217836
 20
42.8663718949
 10
45.3560600338
 20
42.8131105197
 10
45.9102230601
 20
42.7568806607
 10
46.464104642
 20
42.6976826392
 10
47.0176881708
 20
42.6355177766
  0
LWPOLYLINE
  5
3F9
100
AcDbEntity
  8
DRAFT
100
AcDbPolyline
 62
7
  6
CONTINUOUS
 90
10
 70
0
 10
42.0386646663
 20
43.2670283879
 10
42.5950885572
 20
43.2285601228
 10
43.1513042369
 20
43.1871138969
 10
43.7073127089
 20
43.1426892164
 10
44.2631298128
 20
43.0952843881
 10
44.8187416548
 20
43.0449000161
 10
45.3741046091
 20
42.9915390034
 10
45.9292047408
 20
42.9352018889
 10
46.4840578026
 20
42.8758868473
 10
47.0386646663
 20
42.8135931869
  0
LWPOLYLINE
  5
3FA
100
AcDbEntity
  8
RACCORDO
100
AcDbPolyline
 62
253
  6
CONTINUOUS
 90
132
 70
0
 10
46.445647404
 20
42.4537273732
 10
47.1211528783
 20
42.377306214
 10
47.2521462311
 20
42.3606322776
 10
47.3909481873
 20
42.3415917854
 10
47.538230747
 20
42.3202845919
 10
47.693322097
 20
42.2966104886
 10
47.8542067009
 20
42.2702691742
 10
48.0208566317
 20
42.2412101628
 10
48.1933002353
 20
42.2094833838
 10
48.3696065356
 20
42.1749390742
 10
48.5498093833
 20
42.1374912339
 10
48.7338754938
 20
42.0972251013
 10
48.9197732668
 20
42.0542477266
 10
49.1082660828
 20
42.0082286756
 10
49.2985911703
 20
41.959497457
 10
49.4864276198
 20
41.9091512112
 10
49.6724731446
 20
41.8567482644
 10
49.8560304095
 20
41.8027296348
 10
50.0306855817
 20
41.749517165
 10
50.1935929701
 20
41.69791186
 10
50.3475980366
 20
41.6471131439
 10
50.494823431
 20
41.5971409663
 10
50.6348619603
 20
41.5482594069
 10
50.7681206099
 20
41.5002047292
 10
50.8979433581
 20
41.4522050223
 10
51.0244632054
 20
41.4043379945
 10
51.147547076
 20
41.3565259775
 10
51.2701399664
 20
41.3077636846
 10
51.3929911485
 20
41.2578208361
 10
51.5153514223
 20
41.2069273589
 10
51.6379181663
 20
41.1547680411
 10
51.7611211492
 20
41.1011627048
 10
51.884530697
 20
41.0462910413
 10
52.0075550253
 20
40.9903776215
 10
52.1301615175
 20
40.9334140373
 10
52.2523828257
 20
40.8754082966
 10
52.3737250313
 20
40.8166096853
 10
52.4940248418
 20
40.7570857976
 10
52.6134455325
 20
40.6967687396
 10
52.7319830152
 20
40.6357046243
 10
52.8488832258
 20
40.5743321394
 10
52.9649001797
 20
40.5122123639
 10
53.0822919717
 20
40.44807473
 10
53.2008890023
 20
40.3821268907
 10
53.3208609521
 20
40.314160342
 10
53.4449749888
 20
40.2422795396
 10
53.5739195287
 20
40.1662044026
 10
53.7070064057
 20
40.0862130148
 10
53.8449380254
 20
40.0012462727
 10
53.9883265186
 20
39.9109658994
 10
54.1365600089
 20
39.8157072086
 10
54.2885048641
 20
39.7154210677
 10
54.443959486
 20
39.6102110173
 10
54.6031255257
 20
39.4999701851
 10
54.7654741279
 20
39.3843335675
 10
54.9309249975
 20
39.2633465677
 10
55.0995582554
 20
39.1369597457
 10
55.2710855607
 20
39.0046653792
 10
55.4459799192
 20
38.8660896413
 10
55.6237678393
 20
38.721601311
 10
55.8027410651
 20
38.571806527
 10
55.9845317406
 20
38.4150000439
 10
56.1675067613
 20
38.2528817516
 10
56.345059888
 20
38.0911685945
 10
56.5158416473
 20
37.9305691253
 10
56.6812004706
 20
37.7703758707
 10
56.8385772141
 20
37.6141863942
 10
56.9867059409
 20
37.463184085
 10
57.1268521172
 20
37.316190035
 10
57.2602540302
 20
37.1732600326
 10
57.3868512448
 20
37.0346141738
 10
57.506704064
 20
36.9000361121
 10
57.6212320194
 20
36.768926649
 10
57.7308039793
 20
36.6409494103
 10
57.8350510719
 20
36.5164435239
 10
57.9342863202
 20
36.3958228755
 10
58.0280566826
 20
36.2797210858
 10
58.1168154351
 20
36.1675074705
 10
58.2022350801
 20
36.057699045
 10
58.2840771837
 20
35.950773039
 10
58.3625803088
 20
35.8462539098
 10
58.4401321995
 20
35.7412281573
 10
58.5173444925
 20
35.6349842859
 10
58.5936052581
 20
35.5282334793
 10
58.6694666406
 20
35.4201951808
 10
58.7452403899
 20
35.310433661
 10
58.8206143336
 20
35.1993839376
 10
58.8952047099
 20
35.0875715031
 10
58.9690487942
 20
34.9749047617
 10
59.042108971
 20
34.861474981
 10
59.1138892585
 20
34.7480823443
 10
59.1842577178
 20
34.6349040917
 10
59.2533461122
 20
34.5217631877
 10
59.3210541193
 20
34.4089287198
 10
59.3868016425
 20
34.2974737332
 10
59.4511687345
 20
34.1863257059
 10
59.5157950205
 20
34.0725346182
 10
59.580812731
 20
33.9560878488
 10
59.6460888727
 20
33.8369966493
 10
59.7128645489
 20
33.7123451054
 10
59.7817730924
 20
33.5810492392
 10
59.85217941
 20
33.4441895328
 10
59.9234215533
 20
33.3020959354
 10
59.9955996921
 20
33.1545056683
 10
60.0686116972
 20
33.0016781398
 10
60.1414922745
 20
32.8447270397
 10
60.2142031163
 20
32.6836170348
 10
60.286780656
 20
32.5183808147
 10
60.3583720227
 20
32.3502349487
 10
60.4289225157
 20
32.1791472987
 10
60.4984852099
 20
32.0051482687
 10
60.566369337
 20
31.8295492106
 10
60.632538453
 20
31.6522474018
 10
60.6970278054
 20
31.473344864
 10
60.7592547753
 20
31.2944611973
 10
60.8191668052
 20
31.1155226351
 10
60.8768159758
 20
30.9366035101
 10
60.9317774352
 20
30.7595468603
 10
60.9839772063
 20
30.5843385039
 10
61.0334897124
 20
30.4109944801
 10
61.0801136177
 20
30.2414044407
 10
61.12378158
 20
30.0755635196
 10
61.1645623264
 20
29.913479483
 10
61.202459544
 20
29.7570620732
 10
61.2374268719
 20
29.606307455
 10
61.2695128798
 20
29.4612230618
 10
61.2988644978
 20
29.3237364848
 10
61.3254648831
 20
29.1938132183
 10
61.3493336529
 20
29.0714916524
 10
61.3706731447
 20
28.9588094571
 10
61.3895519642
 20
28.8564472908
 10
61.4059045501
 20
28.7637283207
  0
LWPOLYLINE
  5
3FB
100
AcDbEntity
  8
RACCORDO
100
AcDbPolyline
 62
253
  6
CONTINUOUS
 90
133
 70
0
 10
47.0176881715
 20
42.6355177824
 10
47.1430089061
 20
42.6206262715
 10
47.2762591554
 20
42.6037507148
 10
47.4174473427
 20
42.5846925201
 10
47.5672700216
 20
42.5631370151
 10
47.7250471056
 20
42.538946666
 10
47.8887184881
 20
42.5122280207
 10
48.0582542497
 20
42.4827971184
 10
48.2336906721
 20
42.450449799
 10
48.4130604191
 20
42.4153749228
 10
48.5963605601
 20
42.377425726
 10
48.7835909989
 20
42.3364497731
 10
48.9727666834
 20
42.2927627511
 10
49.1645338137
 20
42.2461241054
 10
49.3580727845
 20
42.1966405563
 10
49.549155186
 20
42.1453897336
 10
49.7384576127
 20
42.0922491846
 10
49.9251395445
 20
42.037512413
 10
50.1027611004
 20
41.9832560105
 10
50.2684942698
 20
41.9306919181
 10
50.4251859008
 20
41.8792496205
 10
50.5749584145
 20
41.8284689566
 10
50.7174093825
 20
41.7786942964
 10
50.8529936566
 20
41.7299745604
 10
50.9850783343
 20
41.6812437103
 10
51.1137633941
 20
41.632554901
 10
51.2389613198
 20
41.5840289293
 10
51.3636923123
 20
41.5345403669
 10
51.488661237
 20
41.4838024723
 10
51.613107934
 20
41.4321166491
 10
51.737808832
 20
41.3791517716
 10
51.8631609147
 20
41.324712681
 10
51.9886877744
 20
41.268979258
 10
52.1138511735
 20
41.2121766696
 10
52.2386170903
 20
41.1543137243
 10
52.3629653475
 20
41.0953950584
 10
52.4864079835
 20
41.0356586207
 10
52.6087984309
 20
40.9751922984
 10
52.7302966516
 20
40.9139339935
 10
52.8508854666
 20
40.8519072611
 10
52.9697809373
 20
40.7895426057
 10
53.08778853
 20
40.7264446978
 10
53.2072340164
 20
40.6613492099
 10
53.3278423985
 20
40.5943526401
 10
53.4498196685
 20
40.5252869117
 10
53.5761143037
 20
40.4523750388
 10
53.7073033632
 20
40.3751106688
 10
53.8426062387
 20
40.2937738762
 10
53.9828908221
 20
40.2076325437
 10
54.1288353863
 20
40.1159941584
 10
54.2797008632
 20
40.0190275569
 10
54.4342902232
 20
39.9172337904
 10
54.5925345169
 20
39.8104084391
 10
54.7546185331
 20
39.6981664332
 10
54.9197898381
 20
39.5807786865
 10
55.0879595057
 20
39.4580792608
 10
55.2594786354
 20
39.3295775092
 10
55.434202821
 20
39.1951396821
 10
55.6121104702
 20
39.054516749
 10
55.7927103699
 20
38.9078111906
 10
55.9748916683
 20
38.7556548997
 10
56.1600438273
 20
38.5965637113
 10
56.3460312258
 20
38.4320254969
 10
56.5266138319
 20
38.2674909469
 10
56.7006071785
 20
38.1042428658
 10
56.8689333096
 20
37.9416827402
 10
57.0289210229
 20
37.7828345351
 10
57.1795720576
 20
37.6292796743
 10
57.3222408627
 20
37.4801968382
 10
57.4578974265
 20
37.335028455
 10
57.5866049068
 20
37.1941151877
 10
57.7086098618
 20
37.057576921
 10
57.8250816119
 20
36.9244382135
 10
57.9365460113
 20
36.7943679971
 10
58.0427261022
 20
36.6679471956
 10
58.1436067358
 20
36.5454570783
 10
58.2389319941
 20
36.4274891859
 10
58.3293918333
 20
36.3134634925
 10
58.4163431864
 20
36.2018792839
 10
58.4995645206
 20
36.0931981487
 10
58.5795327733
 20
35.9869713864
 10
58.6585121065
 20
35.8802778338
 10
58.7370827231
 20
35.7723274218
 10
58.8147170867
 20
35.6638394174
 10
58.8919224466
 20
35.554102547
 10
58.9690051227
 20
35.4426515435
 10
59.0456886324
 20
35.3298567229
 10
59.1215857488
 20
35.2162759273
 10
59.1967232975
 20
35.1018581169
 10
59.2710503207
 20
34.9866684698
 10
59.3440686413
 20
34.8714881611
 10
59.4156644998
 20
34.7565313385
 10
59.485963896
 20
34.6416306043
 10
59.5548499986
 20
34.5270123049
 10
59.6217096198
 20
34.4137661993
 10
59.6871919106
 20
34.3008626713
 10
59.7530133359
 20
34.185303264
 10
59.8191593272
 20
34.0669883702
 10
59.8855294112
 20
33.9459672993
 10
59.9535769939
 20
33.8193714096
 10
60.0237539605
 20
33.6860093566
 10
60.0953188098
 20
33.5469274092
 10
60.1678713751
 20
33.4025769636
 10
60.2413889805
 20
33.2526688868
 10
60.3156073326
 20
33.0973895905
 10
60.3898045231
 20
32.9379361262
 10
60.4638622788
 20
32.774284467
 10
60.5376572315
 20
32.6064149618
 10
60.6105305065
 20
32.4355752191
 10
60.6823920735
 20
32.261771409
 10
60.7531514442
 20
32.085008634
 10
60.8222334121
 20
31.9065795488
 10
60.889620537
 20
31.7264546815
 10
60.9552424979
 20
31.5447443213
 10
61.0185423962
 20
31.3629923947
 10
61.0795476109
 20
31.181199595
 10
61.1382460175
 20
30.9994814782
 10
61.1941318076
 20
30.8195839049
 10
61.2472791511
 20
30.6415490366
 10
61.2977470641
 20
30.4654646938
 10
61.345127213
 20
30.2931589712
 10
61.3895614038
 20
30.1246500482
 10
61.4311790254
 20
29.9599911143
 10
61.4696742705
 20
29.8010579289
 10
61.5052301186
 20
29.6478786923
 10
61.5380192121
 20
29.5004913086
 10
61.5678178372
 20
29.3607960582
 10
61.594840076
 20
29.2287844031
 10
61.619271353
 20
29.1045237267
 10
61.6409237391
 20
28.9900343032
 10
61.6598873242
 20
28.8860072918
 10
61.6764796439
 20
28.7917996292
 10
61.6908718761
 20
28.7074298181
  0
LWPOLYLINE
  5
3FC
100
AcDbEntity
  8
DRAFT
100
AcDbPolyline
 62
7
  6
CONTINUOUS
 90
67
 70
0
 10
47.0386646663
 20
42.8135931869
 10
47.3675872718
 20
42.772532339
 10
47.6953865477
 20
42.7251014973
 10
48.0220641982
 20
42.6712994723
 10
48.3477363946
 20
42.6110930475
 10
48.6722901464
 20
42.5445125908
 10
48.9953832835
 20
42.4716520847
 10
49.3170430031
 20
42.3924979105
 10
49.6372447618
 20
42.3070599998
 10
49.9555686116
 20
42.2154675149
 10
50.271976733
 20
42.1177361394
 10
50.5865089999
 20
42.0138457797
 10
50.8988618226
 20
41.9038718137
 10
51.2090690487
 20
41.787777128
 10
51.5170982661
 20
41.6655937341
 10
51.8225462933
 20
41.5375006383
 10
52.1253831806
 20
41.4035062084
 10
52.4256396113
 20
41.2635965062
 10
52.7230031341
 20
41.1179170905
 10
53.0175030986
 20
40.9664050043
 10
53.3091101922
 20
40.809117214
 10
53.5974237416
 20
40.6463793053
 10
53.8823888062
 20
40.4783140292
 10
54.164059627
 20
40.3047926627
 10
54.4421990905
 20
40.125763648
 10
54.7167744062
 20
39.9411480363
 10
54.9878169877
 20
39.751018327
 10
55.2551858415
 20
39.5555501471
 10
55.5188991733
 20
39.3547114728
 10
55.7789367289
 20
39.1485278819
 10
56.0350996598
 20
38.937261658
 10
56.2874767327
 20
38.720956516
 10
56.5359765156
 20
38.4995625581
 10
56.7801296806
 20
38.2732019038
 10
57.0198851576
 20
38.0417511664
 10
57.2552906631
 20
37.8053276053
 10
57.4860249158
 20
37.564414766
 10
57.7121085916
 20
37.3190565445
 10
57.9335172189
 20
37.069203787
 10
58.1498617426
 20
36.8152011231
 10
58.3611183507
 20
36.5570573643
 10
58.5673066352
 20
36.2947591031
 10
58.7681026057
 20
36.028618196
 10
58.963406098
 20
35.7586259719
 10
59.1533127217
 20
35.4847871983
 10
59.3377921901
 20
35.2074344519
 10
59.516914328
 20
34.9265661719
 10
59.6906046279
 20
34.642180804
 10
59.8586164066
 20
34.3546115209
 10
60.0209173397
 20
34.0638844186
 10
60.1775349714
 20
33.7699711166
 10
60.3283125207
 20
33.4731235986
 10
60.4732554151
 20
33.1732838842
 10
60.6123533882
 20
32.8705083365
 10
60.7454263016
 20
32.5652210392
 10
60.8724412217
 20
32.2574634363
 10
60.9934264496
 20
31.9471934718
 10
61.1082939489
 20
31.6347105847
 10
61.2170585361
 20
31.3199842555
 10
61.3197009431
 20
31.003045106
 10
61.4160822892
 20
30.6842848433
 10
61.5061851284
 20
30.3637283013
 10
61.5900228206
 20
30.0413516053
 10
61.6675030185
 20
29.7174739396
 10
61.7385937637
 20
29.3922023295
 10
61.8033233268
 20
29.0654314158
 10
61.8616898746
 20
28.7371620719
  0
LWPOLYLINE
  5
3FD
100
AcDbEntity
  8
RACCORDO
100
AcDbPolyline
 62
253
  6
CONTINUOUS
 90
16
 70
0
 10
61.6908718706
 20
28.7074296981
 10
61.6868948806
 20
28.7086598592
 10
61.6804142356
 20
28.7094378507
 10
61.6714857966
 20
28.7097569666
 10
61.6601865238
 20
28.7096144563
 10
61.6466138132
 20
28.709011548
 10
61.6308846572
 20
28.7079534387
 10
61.613134636
 20
28.7064492489
 10
61.5935167489
 20
28.7045119443
 10
61.5722000958
 20
28.7021582238
 10
61.5493684191
 20
28.6994083757
 10
61.5252185207
 20
28.6962861028
 10
61.4999585645
 20
28.692818318
 10
61.4738062833
 20
28.6890349126
 10
61.4469871012
 20
28.6849684983
 10
61.4197321907
 20
28.6806541261
  0
LWPOLYLINE
  5
3FE
100
AcDbEntity
  8
RACCORDO
100
AcDbPolyline
 62
253
  6
CONTINUOUS
 90
10
 70
0
 10
42.0262941798
 20
43.0880827688
 10
42.0269596604
 20
43.083445102
 10
42.0273755984
 20
43.0753628096
 10
42.0275371126
 20
43.0639307453
 10
42.0274423073
 20
43.0492830754
 10
42.0270922952
 20
43.0315917046
 10
42.0264911841
 20
43.0110642581
 10
42.0256460284
 20
42.9879416455
 10
42.0245667471
 20
42.962495233
 10
42.0232660064
 20
42.9350236589
  0
LWPOLYLINE
  5
3FF
100
AcDbEntity
  8
RACCORDO
100
AcDbPolyline
 62
253
  6
CONTINUOUS
 90
10
 70
0
 10
47.0176884105
 20
42.6355177259
 10
47.0181484957
 20
42.630846966
 10
47.0181925408
 20
42.6227431227
 10
47.0178200283
 20
42.6113014291
 10
47.0170353358
 20
42.5966563432
 10
47.0158476848
 20
42.5789799681
 10
47.0142710319
 20
42.5584800292
 10
47.0123239055
 20
42.5353974333
 10
47.0100291873
 20
42.5100034375
 10
47.0074138439
 20
42.4825964616
  0
LWPOLYLINE
  5
400
100
AcDbEntity
  8
RACCORDO
100
AcDbPolyline
 62
253
  6
CONTINUOUS
 90
12
 70
0
 10
47.0176884131
 20
-43.488331374
 10
47.0181484974
 20
-43.4836606131
 10
47.0181925419
 20
-43.4755567686
 10
47.0178200288
 20
-43.4641150735
 10
47.0170353359
 20
-43.449469986
 10
47.0158476846
 20
-43.431793609
 10
47.0142710315
 20
-43.411293668
 10
47.0123239049
 20
-43.38821107
 10
47.0100291867
 20
-43.362817072
 10
47.0074138434
 20
-43.3354100939
 10
47.0045086094
 20
-43.3063122111
 10
46.9979680394
 20
-43.2444273693
  0
LINE
  5
401
100
AcDbEntity
  8
RACCORDO
100
AcDbLine
 62
253
  6
CONTINUOUS
 10
62.1804515531
 20
25.1632376806
 11
62.2440567089
 21
24.550676391
  0
LINE
  5
402
100
AcDbEntity
  8
RACCORDO
100
AcDbLine
 62
253
  6
CONTINUOUS
 10
61.9070749461
 20
25.1468650818
 11
61.9704499147
 21
24.5354550023
  0
LINE
  5
403
100
AcDbEntity
  8
DRAFT
100
AcDbLine
 62
7
  6
CONTINUOUS
 10
62.3522091929
 20
25.1826882842
 11
62.4190332333
 21
24.5374499428
  0
LINE
  5
404
100
AcDbEntity
  8
RACCORDO
100
AcDbLine
 62
253
  6
CONTINUOUS
 10
61.9704499147
 20
24.5354550023
 11
62.0426294618
 21
23.8060637529
  0
LINE
  5
405
100
AcDbEntity
  8
RACCORDO
100
AcDbLine
 62
253
  6
CONTINUOUS
 10
62.2440567089
 20
24.550676391
 11
62.3162955743
 21
23.821594042
  0
LINE
  5
406
100
AcDbEntity
  8
DRAFT
100
AcDbLine
 62
7
  6
CONTINUOUS
 10
62.4190332333
 20
24.5374499428
 11
62.488200023
 21
23.8383580755
  0
LWPOLYLINE
  5
407
100
AcDbEntity
  8
DRAFT
100
AcDbPolyline
 62
7
  6
CONTINUOUS
 90
24
 70
0
 10
62.488200023
 20
23.8383580755
 10
62.6765202552
 20
21.8226744863
 10
62.8485283879
 20
19.8055209363
 10
63.0042094404
 20
17.7869300465
 10
63.1435526838
 20
15.766812519
 10
63.2665427316
 20
13.745323206
 10
63.3731599348
 20
11.7228612611
 10
63.4633938216
 20
9.699458803
 10
63.5372374318
 20
7.6751501533
 10
63.594679088
 20
5.6503381033
 10
63.6357128045
 20
3.6250560654
 10
63.6603358312
 20
1.5993375775
 10
63.6685440773
 20
-0.4264142135
 10
63.6603357206
 20
-2.4521656788
 10
63.6357125837
 20
-4.4778833267
 10
63.5946787844
 20
-6.5031642154
 10
63.5372370817
 20
-8.5279747724
 10
63.463393453
 20
-10.5522816201
 10
63.3731595752
 20
-12.5756822773
 10
63.2665424181
 20
-14.5981424236
 10
63.1435524439
 20
-16.6196299393
 10
63.0042092719
 20
-18.6397459784
 10
62.8485282786
 20
-20.658335791
 10
62.6765202021
 20
-22.6754885724
  0
LWPOLYLINE
  5
408
100
AcDbEntity
  8
RACCORDO
100
AcDbPolyline
 62
253
  6
CONTINUOUS
 90
19
 70
0
 10
62.0426294618
 20
23.8060637529
 10
62.2898784609
 20
21.1204179488
 10
62.508118866
 20
18.4328405786
 10
62.6973178927
 20
15.7434085965
 10
62.8574383235
 20
13.0521502959
 10
62.9884641318
 20
10.3591920058
 10
63.0904007065
 20
7.664758153
 10
63.1632485574
 20
4.9685873985
 10
63.2069788849
 20
2.2710971617
 10
63.2215610513
 20
-0.4264694688
 10
63.2069776108
 20
-3.1240337405
 10
63.1632460154
 20
-5.8215173034
 10
63.0903972721
 20
-8.5176776739
 10
62.9884603074
 20
-11.2120964129
 10
62.8574344952
 20
-13.9050358832
 10
62.6973144462
 20
-16.5962753277
 10
62.5081161846
 20
-19.2856896411
 10
62.2898769284
 20
-21.9732493091
 10
62.0426294618
 20
-24.658877379
  0
LWPOLYLINE
  5
409
100
AcDbEntity
  8
RACCORDO
100
AcDbPolyline
 62
253
  6
CONTINUOUS
 90
19
 70
0
 10
62.3162955743
 20
23.821594042
 10
62.5637429462
 20
21.1346134249
 10
62.7821401751
 20
18.445228035
 10
62.9714651558
 20
15.753760682
 10
63.1316884933
 20
13.060697614
 10
63.2628101872
 20
10.3661637638
 10
63.3648357805
 20
7.6699392243
 10
63.4377463576
 20
4.9719725816
 10
63.4815053893
 20
2.2728996469
 10
63.4960921852
 20
-0.426468643
 10
63.4815040782
 20
-3.1258345806
 10
63.4377438792
 20
-5.8249008497
 10
63.3648323994
 20
-8.5228571022
 10
63.2628063357
 20
-11.2190664419
 10
63.1316847001
 20
-13.9135813844
 10
62.9714618194
 20
-16.6066257031
 10
62.7821375917
 20
-19.2980757547
 10
62.5637414767
 20
-21.9874440111
 10
62.3162955743
 20
-24.6744076681
  0
LINE
  5
40A
100
AcDbEntity
  8
DRAFT
100
AcDbLine
 62
7
  6
CONTINUOUS
 10
62.6765202021
 20
-22.6754885724
 11
62.4784395942
 21
-24.7910511482
  0
LINE
  5
40B
100
AcDbEntity
  8
RACCORDO
100
AcDbLine
 62
253
  6
CONTINUOUS
 10
62.0426294618
 20
-24.658877379
 11
61.9534714322
 21
-25.5567685365
  0
LINE
  5
40C
100
AcDbEntity
  8
RACCORDO
100
AcDbLine
 62
253
  6
CONTINUOUS
 10
62.3162955743
 20
-24.6744076681
 11
62.2270645929
 21
-25.5718695992
  0
LINE
  5
40D
100
AcDbEntity
  8
DRAFT
100
AcDbLine
 62
7
  6
CONTINUOUS
 10
62.4784395942
 20
-24.7910511482
 11
62.3989097366
 21
-25.589975698
  0
LWPOLYLINE
  5
40E
100
AcDbEntity
  8
RACCORDO
100
AcDbPolyline
 62
253
  6
CONTINUOUS
 90
9
 70
0
 10
61.9534714322
 20
-25.5567685365
 10
61.9070749346
 20
-25.9996788015
 10
61.8574491366
 20
-26.4423561166
 10
61.8045949074
 20
-26.8847964007
 10
61.7485129824
 20
-27.3270239608
 10
61.6892044799
 20
-27.7690063442
 10
61.626670967
 20
-28.2106543977
 10
61.560913739
 20
-28.6519357752
 10
61.4919337529
 20
-29.0928748789
  0
LWPOLYLINE
  5
40F
100
AcDbEntity
  8
RACCORDO
100
AcDbPolyline
 62
253
  6
CONTINUOUS
 90
10
 70
0
 10
62.227064596
 20
-25.5718695996
 10
62.1804515709
 20
-26.0160511422
 10
62.1305977205
 20
-26.4600366885
 10
62.0775021941
 20
-26.9038032771
 10
62.0211633876
 20
-27.3473343887
 10
61.9615820351
 20
-27.7905977708
 10
61.8987612495
 20
-28.2335468759
 10
61.8327026577
 20
-28.6761495019
 10
61.7634059756
 20
-29.1183892089
 10
61.6908719065
 20
-29.5602431166
  0
LWPOLYLINE
  5
410
100
AcDbEntity
  8
DRAFT
100
AcDbPolyline
 62
7
  6
CONTINUOUS
 90
10
 70
0
 10
62.3989097366
 20
-25.589975698
 10
62.3522091929
 20
-26.0355019103
 10
62.3022603637
 20
-26.4807765639
 10
62.2490641617
 20
-26.9257953831
 10
62.1926237422
 20
-27.3705660437
 10
62.1329379024
 20
-27.815072346
 10
62.0700011126
 20
-28.2592742411
 10
62.0038123001
 20
-28.7031555895
 10
61.9343748196
 20
-29.1467241354
 10
61.8616898746
 20
-29.589975698
  0
LWPOLYLINE
  5
411
100
AcDbEntity
  8
RACCORDO
100
AcDbPolyline
 62
253
  6
CONTINUOUS
 90
132
 70
0
 10
61.4919337529
 20
-29.0928748789
 10
61.4050728213
 20
-29.6212228937
 10
61.3880258929
 20
-29.7176845408
 10
61.3685902006
 20
-29.8228512025
 10
61.3468344356
 20
-29.937301228
 10
61.3226871158
 20
-30.0604527247
 10
61.2959369623
 20
-30.1905639733
 10
61.2665661503
 20
-30.327605322
 10
61.234589981
 20
-30.4716028456
 10
61.1998474861
 20
-30.6208990431
 10
61.162297997
 20
-30.7754880793
 10
61.1219801524
 20
-30.9353724446
 10
61.0788526712
 20
-31.098907927
 10
61.032857859
 20
-31.2660890679
 10
60.9840520831
 20
-31.4369185456
 10
60.9325659407
 20
-31.6097653164
 10
60.8783355303
 20
-31.7846213228
 10
60.8214242298
 20
-31.9614926944
 10
60.7621543453
 20
-32.1387707583
 10
60.7004629537
 20
-32.3164381863
 10
60.6364132585
 20
-32.4945114534
 10
60.5705174993
 20
-32.6714337551
 10
60.5027096378
 20
-32.8471786958
 10
60.4330567017
 20
-33.0217730088
 10
60.3622711743
 20
-33.1937407505
 10
60.290290446
 20
-33.3630523163
 10
60.2171786544
 20
-33.5297388299
 10
60.14383892
 20
-33.6924165424
 10
60.0702294943
 20
-33.851045112
 10
59.9963939875
 20
-34.0056674563
 10
59.9233639337
 20
-34.155025687
 10
59.851277961
 20
-34.2987825609
 10
59.7799994482
 20
-34.4372787612
 10
59.7101471703
 20
-34.5702737795
 10
59.6423372017
 20
-34.6967270082
 10
59.5759552384
 20
-34.8176825454
 10
59.5097740621
 20
-34.936026085
 10
59.44384844
 20
-35.0518719757
 10
59.3781243702
 20
-35.1651072141
 10
59.3112108297
 20
-35.2782748577
 10
59.242642998
 20
-35.3922452649
 10
59.1728858358
 20
-35.5061477998
 10
59.1019427306
 20
-35.6199133183
 10
59.029696794
 20
-35.7337092588
 10
58.9562651271
 20
-35.8473680813
 10
58.8820021653
 20
-35.9603183659
 10
58.806871571
 20
-36.0725846739
 10
58.7309100076
 20
-36.1841427173
 10
58.654581516
 20
-36.2943481677
 10
58.5782268543
 20
-36.4027217485
 10
58.5015057022
 20
-36.5097434973
 10
58.4238604696
 20
-36.6162080169
 10
58.3458718473
 20
-36.7214457401
 10
58.2669594442
 20
-36.8261265677
 10
58.1848238034
 20
-36.9330532541
 10
58.0991817086
 20
-37.0427428808
 10
58.0103162698
 20
-37.1546767677
 10
57.9167772871
 20
-37.2701027795
 10
57.8181257349
 20
-37.389613804
 10
57.7148004589
 20
-37.5126143126
 10
57.6066680865
 20
-37.6385692648
 10
57.4938443497
 20
-37.767377151
 10
57.376213563
 20
-37.8991371027
 10
57.2532953622
 20
-38.0336152602
 10
57.1254574656
 20
-38.1705258066
 10
56.992332398
 20
-38.3101521865
 10
56.8523371132
 20
-38.4531142067
 10
56.7050605379
 20
-38.5999062044
 10
56.5509141608
 20
-38.7500304497
 10
56.389548954
 20
-38.9026187044
 10
56.2189378638
 20
-39.0592154566
 10
56.0411087519
 20
-39.218272976
 10
55.8617951948
 20
-39.3742877729
 10
55.6814676393
 20
-39.5264322517
 10
55.4996566399
 20
-39.6755368706
 10
55.3206858975
 20
-39.8185893778
 10
55.1457808664
 20
-39.9544934177
 10
54.973716641
 20
-40.0843508633
 10
54.8051411844
 20
-40.208447998
 10
54.6402196063
 20
-40.3266620213
 10
54.4787869823
 20
-40.4391201873
 10
54.3209961065
 20
-40.5464833673
 10
54.1664576113
 20
-40.6489905916
 10
54.0155608345
 20
-40.7464062381
 10
53.8696265301
 20
-40.8386788653
 10
53.7292567926
 20
-40.9254675873
 10
53.5938492688
 20
-41.0071164135
 10
53.4629180002
 20
-41.0846008731
 10
53.3372627364
 20
-41.1575798765
 10
53.2160834534
 20
-41.226396681
 10
53.0964946413
 20
-41.2930525072
 10
52.9783563056
 20
-41.3577492483
 10
52.8618083464
 20
-41.4202859355
 10
52.7443852598
 20
-41.4820586932
 10
52.6252682949
 20
-41.5435459783
 10
52.5052762529
 20
-41.6042695698
 10
52.3844000291
 20
-41.6641902759
 10
52.2624672473
 20
-41.7233805833
 10
52.1396503018
 20
-41.7817683101
 10
52.0164572211
 20
-41.839097322
 10
51.892913966
 20
-41.8953352705
 10
51.7689945385
 20
-41.9505149163
 10
51.6451289958
 20
-42.0044778687
 10
51.5216854265
 20
-42.0570732888
 10
51.3982956565
 20
-42.1084524829
 10
51.2742853537
 20
-42.1589102474
 10
51.1503072069
 20
-42.208249613
 10
51.0257084622
 20
-42.2566678909
 10
50.8978567057
 20
-42.3050510856
 10
50.7668768915
 20
-42.3534674764
 10
50.6326441292
 20
-42.4018487761
 10
50.4921513563
 20
-42.450875863
 10
50.3450514856
 20
-42.5007786145
 10
50.1916917811
 20
-42.5513268793
 10
50.0301067601
 20
-42.6025113717
 10
49.8577980438
 20
-42.6550404278
 10
49.6772642013
 20
-42.708205364
 10
49.4940349556
 20
-42.759871779
 10
49.3086104046
 20
-42.8096834678
 10
49.1204901063
 20
-42.8579972284
 10
48.9337026563
 20
-42.9037487594
 10
48.7488935458
 20
-42.9466416176
 10
48.5654167065
 20
-42.9869731147
 10
48.3853633051
 20
-43.024569763
 10
48.20876412
 20
-43.0593414471
 10
48.0355878132
 20
-43.0913790258
 10
47.8678324417
 20
-43.1207804461
 10
47.7054660665
 20
-43.1474900783
 10
47.5485201969
 20
-43.1715641094
 10
47.3990882047
 20
-43.193268137
 10
47.2578678418
 20
-43.2126908054
 10
47.1241611527
 20
-43.2297438321
  0
LWPOLYLINE
  5
412
100
AcDbEntity
  8
RACCORDO
100
AcDbPolyline
 62
253
  6
CONTINUOUS
 90
133
 70
0
 10
61.6908719305
 20
-29.5602431208
 10
61.6756550407
 20
-29.6493701371
 10
61.658352516
 20
-29.7473799653
 10
61.638803255
 20
-29.8542547805
 10
61.6167216476
 20
-29.9705399002
 10
61.5920171614
 20
-30.095644581
 10
61.5648377289
 20
-30.2278464332
 10
61.5350116575
 20
-30.3670885603
 10
61.5023440922
 20
-30.5133727104
 10
61.46701563
 20
-30.6650695329
 10
61.4288659286
 20
-30.8221438976
 10
61.3877256284
 20
-30.9845687504
 10
61.3438441491
 20
-31.1507350642
 10
61.2970972713
 20
-31.3205924638
 10
61.2473493552
 20
-31.4941226698
 10
61.1949353504
 20
-31.6697582004
 10
61.1397901299
 20
-31.8474182121
 10
61.0818368572
 20
-32.0270557238
 10
61.0214944685
 20
-32.2071641077
 10
60.9587426709
 20
-32.3876796299
 10
60.8935586752
 20
-32.5685446236
 10
60.8264563607
 20
-32.7482869779
 10
60.7574605729
 20
-32.9268666645
 10
60.6866012493
 20
-33.1042310016
 10
60.6145001572
 20
-33.2789301176
 10
60.5412369843
 20
-33.4509572067
 10
60.4668941991
 20
-33.6202978004
 10
60.3921937687
 20
-33.7855418529
 10
60.3172583981
 20
-33.9467019011
 10
60.2422018278
 20
-34.1038037721
 10
60.1678137887
 20
-34.2555065478
 10
60.094400307
 20
-34.4015464881
 10
60.0219483273
 20
-34.5422912039
 10
59.9508119271
 20
-34.6773804584
 10
59.8817117074
 20
-34.805806773
 10
59.8142165389
 20
-34.9287210972
 10
59.7468869078
 20
-35.0489628287
 10
59.6797480566
 20
-35.1666127563
 10
59.6128880048
 20
-35.2816375381
 10
59.5448350563
 20
-35.3966174842
 10
59.4750693895
 20
-35.5123854689
 10
59.4040939974
 20
-35.6280618297
 10
59.3319150249
 20
-35.7436152471
 10
59.2584189599
 20
-35.8592018121
 10
59.183714866
 20
-35.9746244944
 10
59.1081552037
 20
-36.0893322985
 10
59.0317100349
 20
-36.2033766929
 10
58.9544271433
 20
-36.3166898931
 10
58.8767761032
 20
-36.4285923603
 10
58.7990670562
 20
-36.5386711151
 10
58.720962872
 20
-36.647438263
 10
58.6419497498
 20
-36.7556149118
 10
58.562526494
 20
-36.8625255063
 10
58.4821432625
 20
-36.9689182703
 10
58.3986201496
 20
-37.0775977887
 10
58.3114480656
 20
-37.1890601787
 10
58.220888574
 20
-37.3028019897
 10
58.1257885504
 20
-37.4200788167
 10
58.0255046791
 20
-37.5414366613
 10
57.9202799826
 20
-37.666328719
 10
57.8102681292
 20
-37.7943402024
 10
57.6955421264
 20
-37.9251560977
 10
57.5758269451
 20
-38.0588504522
 10
57.4508213671
 20
-38.1954983361
 10
57.320790951
 20
-38.3345438506
 10
57.1852971159
 20
-38.4761802637
 10
57.0429248939
 20
-38.6215387479
 10
56.8931286823
 20
-38.770747709
 10
56.7361920339
 20
-38.9230749761
 10
56.5719002613
 20
-39.0782721769
 10
56.3984227752
 20
-39.2375999868
 10
56.2175966447
 20
-39.3989790354
 10
56.0349567605
 20
-39.5573589747
 10
55.8514619475
 20
-39.712020369
 10
55.6667607932
 20
-39.8633623351
 10
55.4846532407
 20
-40.0084625049
 10
55.3064725929
 20
-40.1465857415
 10
55.1314810664
 20
-40.2786096227
 10
54.9601631608
 20
-40.4044300763
 10
54.7923723579
 20
-40.5244182288
 10
54.6279803627
 20
-40.6389226633
 10
54.467365075
 20
-40.7479415964
 10
54.3101381437
 20
-40.8519959107
 10
54.1565520596
 20
-40.9511660061
 10
54.0080098192
 20
-41.0448227254
 10
53.8652468034
 20
-41.1328113989
 10
53.7275827583
 20
-41.2158406875
 10
53.5943637271
 20
-41.2945341423
 10
53.4664977705
 20
-41.3685540529
 10
53.3432976872
 20
-41.4384883111
 10
53.2216817924
 20
-41.5062046562
 10
53.1014737005
 20
-41.5718631009
 10
52.9829280937
 20
-41.6353858767
 10
52.8635035056
 20
-41.6981594549
 10
52.7423254511
 20
-41.7606155081
 10
52.6202464624
 20
-41.8222865404
 10
52.4972700743
 20
-41.8831559656
 10
52.3732266444
 20
-41.9432905479
 10
52.2482722565
 20
-42.0025973858
 10
52.1229095724
 20
-42.0608311912
 10
51.9972168221
 20
-42.1179613739
 10
51.8711702591
 20
-42.1740067721
 10
51.745145356
 20
-42.2288124448
 10
51.6195531757
 20
-42.282221654
 10
51.4940583849
 20
-42.3343986244
 10
51.3679102722
 20
-42.3856603947
 10
51.2417723514
 20
-42.4357398558
 10
51.1150341537
 20
-42.4848817379
 10
50.9849914825
 20
-42.5340897926
 10
50.8517302408
 20
-42.5832482524
 10
50.7151572863
 20
-42.6323060886
 10
50.5722405981
 20
-42.6822182073
 10
50.4225939777
 20
-42.7329281239
 10
50.2665624811
 20
-42.7841291265
 10
50.102173668
 20
-42.8362526022
 10
49.9269329157
 20
-42.889788866
 10
49.7433261102
 20
-42.9436648288
 10
49.5568941743
 20
-42.9960772349
 10
49.3682681811
 20
-43.0467799141
 10
49.1769707591
 20
-43.0958309347
 10
48.9869378152
 20
-43.1422110735
 10
48.7988708732
 20
-43.1858201809
 10
48.6122402796
 20
-43.2268510431
 10
48.4290921157
 20
-43.2649546014
 10
48.2494239178
 20
-43.3002680672
 10
48.073242348
 20
-43.3329225636
 10
47.9025816349
 20
-43.3627022313
 10
47.7374026167
 20
-43.3898011644
 10
47.5777393203
 20
-43.4143929441
 10
47.4257290338
 20
-43.4363504918
 10
47.2820778069
 20
-43.4558028863
 10
47.1460639683
 20
-43.4730650416
 10
47.0176794656
 20
-43.48833241
  0
LWPOLYLINE
  5
413
100
AcDbEntity
  8
DRAFT
100
AcDbPolyline
 62
7
  6
CONTINUOUS
 90
67
 70
0
 10
61.8616898746
 20
-29.589975698
 10
61.8033233268
 20
-29.918245042
 10
61.7385937637
 20
-30.2450159556
 10
61.6675030185
 20
-30.5702875657
 10
61.5900228206
 20
-30.8941652315
 10
61.5061851284
 20
-31.2165419274
 10
61.4160822892
 20
-31.5370984694
 10
61.3197009431
 20
-31.8558587321
 10
61.2170585361
 20
-32.1727978816
 10
61.1082939489
 20
-32.4875242108
 10
60.9934264496
 20
-32.8000070979
 10
60.8724412217
 20
-33.1102770624
 10
60.7454263016
 20
-33.4180346653
 10
60.6123533882
 20
-33.7233219626
 10
60.4732554151
 20
-34.0260975103
 10
60.3283125207
 20
-34.3259372247
 10
60.1775349714
 20
-34.6227847427
 10
60.0209173397
 20
-34.9166980447
 10
59.8586164066
 20
-35.207425147
 10
59.6906046279
 20
-35.4949944301
 10
59.516914328
 20
-35.779379798
 10
59.3377921901
 20
-36.060248078
 10
59.1533127217
 20
-36.3376008244
 10
58.963406098
 20
-36.611439598
 10
58.7681026057
 20
-36.8814318222
 10
58.5673066352
 20
-37.1475727292
 10
58.3611183507
 20
-37.4098709904
 10
58.1498617426
 20
-37.6680147492
 10
57.9335172189
 20
-37.9220174131
 10
57.7121085916
 20
-38.1718701706
 10
57.4860249158
 20
-38.4172283921
 10
57.2552906631
 20
-38.6581412314
 10
57.0198851576
 20
-38.8945647925
 10
56.7801296806
 20
-39.1260155299
 10
56.5359765156
 20
-39.3523761842
 10
56.2874767327
 20
-39.5737701421
 10
56.0350996598
 20
-39.7900752841
 10
55.7789367289
 20
-40.001341508
 10
55.5188991733
 20
-40.2075250989
 10
55.2551858415
 20
-40.4083637732
 10
54.9878169877
 20
-40.6038319531
 10
54.7167744062
 20
-40.7939616624
 10
54.4421990905
 20
-40.9785772742
 10
54.164059627
 20
-41.1576062889
 10
53.8823888062
 20
-41.3311276553
 10
53.5974237416
 20
-41.4991929314
 10
53.3091101922
 20
-41.6619308401
 10
53.0175030986
 20
-41.8192186304
 10
52.7230031341
 20
-41.9707307166
 10
52.4256396113
 20
-42.1164101323
 10
52.1253831806
 20
-42.2563198345
 10
51.8225462933
 20
-42.3903142644
 10
51.5170982661
 20
-42.5184073602
 10
51.2090690487
 20
-42.6405907541
 10
50.8988618226
 20
-42.7566854399
 10
50.5865089999
 20
-42.8666594058
 10
50.271976733
 20
-42.9705497655
 10
49.9555686116
 20
-43.068281141
 10
49.6372447618
 20
-43.1598736259
 10
49.3170430031
 20
-43.2453115366
 10
48.9953832835
 20
-43.3244657108
 10
48.6722901464
 20
-43.3973262169
 10
48.3477363946
 20
-43.4639066736
 10
48.0220641982
 20
-43.5241130985
 10
47.6953865477
 20
-43.5779151234
 10
47.3675872718
 20
-43.6253459651
 10
47.0386646663
 20
-43.6664068131
  0
LWPOLYLINE
  5
414
100
AcDbEntity
  8
RACCORDO
100
AcDbPolyline
 62
253
  6
CONTINUOUS
 90
9
 70
0
 10
61.6908718522
 20
28.7074298139
 10
61.7634059072
 20
28.2655760096
 10
61.8327025806
 20
27.8233363801
 10
61.8987611686
 20
27.3807338058
 10
61.9615819524
 20
26.9377847436
 10
62.0211633071
 20
26.4945213782
 10
62.0775021257
 20
26.0509902057
 10
62.1305976743
 20
25.6072234611
 10
62.1804515531
 20
25.1632376806
  0
LWPOLYLINE
  5
415
100
AcDbEntity
  8
DRAFT
100
AcDbPolyline
 62
7
  6
CONTINUOUS
 90
9
 70
0
 10
61.8616898746
 20
28.7371620719
 10
61.9343748196
 20
28.2939105093
 10
62.0038123001
 20
27.8503419634
 10
62.0700011126
 20
27.4064606149
 10
62.1329379024
 20
26.9622587199
 10
62.1926237422
 20
26.5177524176
 10
62.2490641617
 20
26.072981757
 10
62.3022603637
 20
25.6279629378
 10
62.3522091929
 20
25.1826882842
  0
LWPOLYLINE
  5
416
100
AcDbEntity
  8
RACCORDO
100
AcDbPolyline
 62
253
  6
CONTINUOUS
 90
9
 70
0
 10
61.4059045501
 20
28.7637283207
 10
61.491933766
 20
28.2400611633
 10
61.5609137617
 20
27.799121992
 10
61.6266709958
 20
27.3578405687
 10
61.6892045111
 20
26.9161924906
 10
61.7485130126
 20
26.4742101045
 10
61.8045949338
 20
26.0319825656
 10
61.8574491568
 20
25.5895423273
 10
61.9070749461
 20
25.1468650818
  0
LINE
  5
417
100
AcDbEntity
  8
RACCORDO
100
AcDbLine
 62
7
  6
CONTINUOUS
 10
-80.4291918526
 20
-45.0928778917
 11
-80.4125817278
 21
-45.0898291037
  0
LINE
  5
418
100
AcDbEntity
  8
RACCORDO
100
AcDbLine
 62
253
  6
CONTINUOUS
 10
-79.9337846478
 20
-43.7902072198
 11
-79.9083639338
 21
-43.7857816808
  0
LINE
  5
419
100
AcDbEntity
  8
RACCORDO
100
AcDbLine
 62
253
  6
CONTINUOUS
 10
-79.8587812005
 20
-43.3517637236
 11
-79.756504111
 21
-43.3342858761
  0
LINE
  5
41A
100
AcDbEntity
  8
RACCORDO
100
AcDbLine
 62
253
  6
CONTINUOUS
 10
-82.2443922234
 20
-44.2822486003
 11
-80.1932716247
 21
-44.4614067786
  0
LINE
  5
41B
100
AcDbEntity
  8
DRAFT
100
AcDbLine
 62
7
  6
CONTINUOUS
 10
-82.608067164
 20
-45.2465919038
 11
-80.5527408716
 21
-45.426409655
  0
LWPOLYLINE
  5
41C
100
AcDbEntity
  8
RACCORDO
100
AcDbPolyline
 62
253
  6
CONTINUOUS
 90
4
 70
0
 10
-78.0479071879
 20
-42.0514371564
 10
-78.3888501108
 20
-42.1445128357
 10
-78.7318780561
 20
-42.2297885007
 10
-79.0768107314
 20
-42.3072193286
  0
LINE
  5
41D
100
AcDbEntity
  8
RACCORDO
100
AcDbLine
 62
253
  6
CONTINUOUS
 10
-79.0768107314
 20
-42.3072193286
 11
-79.4234668773
 21
-42.3767646289
  0
LINE
  5
41E
100
AcDbEntity
  8
RACCORDO
100
AcDbLine
 62
253
  6
CONTINUOUS
 10
-79.8992712022
 20
-43.6664068131
 11
-81.9487628019
 21
-43.48833241
  0
LINE
  5
41F
100
AcDbEntity
  8
RACCORDO
100
AcDbLine
 62
253
  6
CONTINUOUS
 10
-80.0508136922
 20
-44.119842014
 11
-82.1010600887
 21
-43.9408964944
  0
LWPOLYLINE
  5
420
100
AcDbEntity
  8
RACCORDO
100
AcDbPolyline
 62
253
  6
CONTINUOUS
 90
13
 70
0
 10
-82.2443922234
 20
-44.282248601
 10
-82.2765226162
 20
-44.2776409865
 10
-82.3079706614
 20
-44.2695941504
 10
-82.3383681441
 20
-44.2582023103
 10
-82.3673591499
 20
-44.2435988498
 10
-82.3946042325
 20
-44.2259547559
 10
-82.4197843879
 20
-44.2054766179
 10
-82.4426047898
 20
-44.1824042075
 10
-82.4627982414
 20
-44.1570076722
 10
-82.4801283041
 20
-44.1295843719
 10
-82.4943920657
 20
-44.1004553972
 10
-82.5054225165
 20
-44.0699618099
 10
-82.5130905045
 20
-44.0384606496
  0
LWPOLYLINE
  5
421
100
AcDbEntity
  8
RACCORDO
100
AcDbPolyline
 62
253
  6
CONTINUOUS
 90
13
 70
0
 10
-82.2423649762
 20
-44.2769165218
 10
-82.274496031
 20
-44.2723085812
 10
-82.3059447003
 20
-44.2642613059
 10
-82.3363427457
 20
-44.2528689228
 10
-82.3653342303
 20
-44.2382648277
 10
-82.3925796873
 20
-44.2206200227
 10
-82.4177600942
 20
-44.2001411145
 10
-82.4405806087
 20
-44.1770678944
 10
-82.4607740209
 20
-44.1516705314
 10
-82.4781038823
 20
-44.1242464081
 10
-82.492367274
 20
-44.0951166391
 10
-82.5033971832
 20
-44.0646223104
 10
-82.5110644585
 20
-44.0331204862
  0
LWPOLYLINE
  5
422
100
AcDbEntity
  8
RACCORDO
100
AcDbPolyline
 62
253
  6
CONTINUOUS
 90
13
 70
0
 10
-82.1010600438
 20
-43.9408963949
 10
-82.133220367
 20
-43.936258728
 10
-82.1646964015
 20
-43.9281764356
 10
-82.1951187456
 20
-43.9167443713
 10
-82.2241303637
 20
-43.9020967014
 10
-82.2513907762
 20
-43.8844053306
 10
-82.2765800558
 20
-43.8638778841
 10
-82.299402582
 20
-43.8407552715
 10
-82.3195905102
 20
-43.815308859
 10
-82.3369069156
 20
-43.787837285
 10
-82.3511485734
 20
-43.7586629549
 10
-82.3621483439
 20
-43.7281282578
 10
-82.3697771341
 20
-43.696591548
  0
LWPOLYLINE
  5
423
100
AcDbEntity
  8
RACCORDO
100
AcDbPolyline
 62
253
  6
CONTINUOUS
 90
13
 70
0
 10
-81.9487625284
 20
-43.488331374
 10
-81.980943504
 20
-43.4836606131
 10
-82.0124390376
 20
-43.4755567686
 10
-82.0428790068
 20
-43.4641150735
 10
-82.0719056935
 20
-43.449469986
 10
-82.0991779882
 20
-43.431793609
 10
-82.124375398
 20
-43.411293668
 10
-82.1472018134
 20
-43.38821107
 10
-82.1673889878
 20
-43.362817072
 10
-82.1846996898
 20
-43.3354100939
 10
-82.1989304913
 20
-43.3063122111
 10
-82.2099141576
 20
-43.27586537
 10
-82.2175216133
 20
-43.2444273693
  0
LWPOLYLINE
  5
424
100
AcDbEntity
  8
RACCORDO
100
AcDbPolyline
 62
253
  6
CONTINUOUS
 90
8
 70
0
 10
-76.2347351965
 20
-28.9133257709
 10
-76.25093273
 20
-28.9170228314
 10
-76.2696729065
 20
-28.9204659784
 10
-76.2907618781
 20
-28.9236196608
 10
-76.3139815011
 20
-28.9264513218
 10
-76.3390915926
 20
-28.9289317353
 10
-76.3658324144
 20
-28.9310353086
 10
-76.3939273605
 20
-28.932740347
  0
LWPOLYLINE
  5
425
100
AcDbEntity
  8
RACCORDO
100
AcDbPolyline
 62
253
  6
CONTINUOUS
 90
10
 70
0
 10
-76.393948372
 20
-28.9805746528
 10
-76.8042447177
 20
-29.0314028956
 10
-77.2184166643
 20
-29.0805638612
 10
-77.6361346357
 20
-29.1280189034
 10
-78.0570645774
 20
-29.1737309061
 10
-78.4808732365
 20
-29.2176637407
 10
-78.9072285371
 20
-29.2597821972
 10
-79.3357930857
 20
-29.3000528225
 10
-79.7662243325
 20
-29.3384440422
 10
-80.1981799343
 20
-29.3749255461
  0
LWPOLYLINE
  5
426
100
AcDbEntity
  8
RACCORDO
100
AcDbPolyline
 62
253
  6
CONTINUOUS
 90
10
 70
0
 10
-76.3939274982
 20
-28.9328981254
 10
-76.8045444702
 20
-28.9837736761
 10
-77.2190403606
 20
-29.0331319624
 10
-77.6370850519
 20
-29.0809308168
 10
-78.0583407039
 20
-29.1272037306
 10
-78.4824767457
 20
-29.1718355742
 10
-78.909169928
 20
-29.2145678984
 10
-79.3380850466
 20
-29.2552957656
 10
-79.7688754277
 20
-29.2940625075
 10
-80.2011977766
 20
-29.3308391132
  0
LINE
  5
427
100
AcDbEntity
  8
RACCORDO
100
AcDbLine
 62
253
  6
CONTINUOUS
 10
-80.8206239155
 20
-29.5384504369
 11
-80.6424595892
 21
-29.5239551469
  0
LWPOLYLINE
  5
428
100
AcDbEntity
  8
RACCORDO
100
AcDbPolyline
 62
253
  6
CONTINUOUS
 90
16
 70
0
 10
-82.7982828554
 20
-29.5602433292
 10
-82.8258226622
 20
-29.5614734903
 10
-82.8528997127
 20
-29.5622514818
 10
-82.8792806116
 20
-29.5625705977
 10
-82.9047379641
 20
-29.5624280872
 10
-82.9290523362
 20
-29.5618251787
 10
-82.9520141458
 20
-29.5607670691
 10
-82.9734254697
 20
-29.559262879
 10
-82.9931017492
 20
-29.557325574
 10
-83.0108733812
 20
-29.5549718531
 10
-83.0265871799
 20
-29.5522220045
 10
-83.0401076976
 20
-29.5490997311
 10
-83.0513183918
 20
-29.5456319458
 10
-83.06012263
 20
-29.5418485399
 10
-83.0664445224
 20
-29.537782125
 10
-83.0702295765
 20
-29.5334677523
  0
LINE
  5
429
100
AcDbEntity
  8
0
100
AcDbLine
 62
7
  6
CONTINUOUS
 10
-85.0929886756
 20
-29.3042081674
 11
-84.9926666856
 21
-29.3042081674
  0
LINE
  5
42A
100
AcDbEntity
  8
0
100
AcDbLine
 62
253
  6
CONTINUOUS
 10
-85.152695066
 20
-28.5465070411
 11
-85.0524140245
 21
-28.5465070411
  0
LINE
  5
42B
100
AcDbEntity
  8
0
100
AcDbLine
 62
7
  6
CONTINUOUS
 10
-85.1943432078
 20
-27.9973312499
 11
-85.0940901689
 21
-27.9973312499
  0
LINE
  5
42C
100
AcDbEntity
  8
0
100
AcDbLine
 62
7
  6
CONTINUOUS
 10
-85.1955170536
 20
-27.9807874411
 11
-85.0952648308
 21
-27.9807874411
  0
LINE
  5
42D
100
AcDbEntity
  8
RACCORDO
100
AcDbLine
 62
253
  6
CONTINUOUS
 10
-80.8164318664
 20
-29.589975698
 11
-82.7982828697
 21
-29.5602431166
  0
LWPOLYLINE
  5
42E
100
AcDbEntity
  8
RACCORDO
100
AcDbPolyline
 62
253
  6
CONTINUOUS
 90
10
 70
0
 10
-80.7452148994
 20
-25.5328953185
 10
-80.7528591735
 20
-25.5350247811
 10
-80.762684097
 20
-25.5371427129
 10
-80.7745289398
 20
-25.5392144917
 10
-80.7881999274
 20
-25.5412062506
 10
-80.8034734106
 20
-25.5430854314
 10
-80.8200995249
 20
-25.544821318
 10
-80.8378062772
 20
-25.5463855383
 10
-80.8563039965
 20
-25.5477525284
 10
-80.8752900715
 20
-25.548899951
  0
LWPOLYLINE
  5
42F
100
AcDbEntity
  8
RACCORDO
100
AcDbPolyline
 62
253
  6
CONTINUOUS
 90
10
 70
0
 10
-80.7833909297
 20
-24.6662978985
 10
-80.7910459267
 20
-24.6683576747
 10
-80.8008814761
 20
-24.6703970805
 10
-80.8127366499
 20
-24.6723833648
 10
-80.8264174807
 20
-24.6742846452
 10
-80.8417001345
 20
-24.6760704301
 10
-80.8583345728
 20
-24.6777121167
 10
-80.8760486428
 20
-24.6791834598
 10
-80.8945525295
 20
-24.6804610004
 10
-80.9135434973
 20
-24.68152445
  0
LWPOLYLINE
  5
430
100
AcDbEntity
  8
RACCORDO
100
AcDbPolyline
 62
253
  6
CONTINUOUS
 90
8
 70
0
 10
-76.2342024682
 20
-25.1698156969
 10
-76.2501788717
 20
-25.1720184653
 10
-76.2686688108
 20
-25.1740717629
 10
-76.2894837937
 20
-25.1759546074
 10
-76.3124116264
 20
-25.1776477552
 10
-76.337218576
 20
-25.1791338956
 10
-76.3636517532
 20
-25.1803978276
 10
-76.3914416906
 20
-25.1814266159
  0
LWPOLYLINE
  5
431
100
AcDbEntity
  8
RACCORDO
100
AcDbPolyline
 62
253
  6
CONTINUOUS
 90
8
 70
0
 10
-76.2341946391
 20
-25.1391111452
 10
-76.250169177
 20
-25.1412982833
 10
-76.2686572104
 20
-25.1433376745
 10
-76.2894702771
 20
-25.1452085751
 10
-76.3123962147
 20
-25.1468919587
 10
-76.3372013222
 20
-25.1483707105
 10
-76.3636327433
 20
-25.1496298017
 10
-76.3914210432
 20
-25.1506564427
  0
LINE
  5
432
100
AcDbEntity
  8
RACCORDO
100
AcDbLine
 62
253
  6
CONTINUOUS
 10
-76.3914414359
 20
-25.1813667545
 11
-77.2638597827
 21
-25.2513888913
  0
LINE
  5
433
100
AcDbEntity
  8
RACCORDO
100
AcDbLine
 62
253
  6
CONTINUOUS
 10
-76.3914210958
 20
-25.1507097791
 11
-77.2641291646
 21
-25.220774964
  0
LINE
  5
434
100
AcDbEntity
  8
RACCORDO
100
AcDbLine
 62
253
  6
CONTINUOUS
 10
-76.3908447513
 20
-24.3105824874
 11
-77.2714678177
 21
-24.3758257815
  0
LINE
  5
435
100
AcDbEntity
  8
RACCORDO
100
AcDbLine
 62
253
  6
CONTINUOUS
 10
-77.2638597827
 20
-25.2513888913
 11
-78.1525096621
 21
-25.316858532
  0
LINE
  5
436
100
AcDbEntity
  8
RACCORDO
100
AcDbLine
 62
253
  6
CONTINUOUS
 10
-77.2641291646
 20
-25.220774964
 11
-78.1530904449
 21
-25.2862856027
  0
LINE
  5
437
100
AcDbEntity
  8
RACCORDO
100
AcDbLine
 62
253
  6
CONTINUOUS
 10
-77.2714678177
 20
-24.3758257815
 11
-78.1687214718
 21
-24.436533162
  0
LINE
  5
438
100
AcDbEntity
  8
RACCORDO
100
AcDbLine
 62
253
  6
CONTINUOUS
 10
-78.1525096621
 20
-25.316858532
 11
-79.0542193593
 21
-25.3775421484
  0
LINE
  5
439
100
AcDbEntity
  8
RACCORDO
100
AcDbLine
 62
253
  6
CONTINUOUS
 10
-78.1530904449
 20
-25.2862856027
 11
-79.0551285065
 21
-25.3470075738
  0
LINE
  5
43A
100
AcDbEntity
  8
RACCORDO
100
AcDbLine
 62
253
  6
CONTINUOUS
 10
-78.1687214718
 20
-24.436533162
 11
-79.0793405544
 21
-24.4924848712
  0
LWPOLYLINE
  5
43B
100
AcDbEntity
  8
RACCORDO
100
AcDbPolyline
 62
253
  6
CONTINUOUS
 90
3
 70
0
 10
-79.0542193593
 20
-25.3775421484
 10
-79.9657734717
 20
-25.4332233
 10
-80.4242260706
 20
-25.4591251431
  0
LWPOLYLINE
  5
43C
100
AcDbEntity
  8
RACCORDO
100
AcDbPolyline
 62
253
  6
CONTINUOUS
 90
3
 70
0
 10
-79.0551285065
 20
-25.3470075738
 10
-79.9670179845
 20
-25.4027237274
 10
-80.4256401739
 20
-25.4286417219
  0
LINE
  5
43D
100
AcDbEntity
  8
RACCORDO
100
AcDbLine
 62
253
  6
CONTINUOUS
 10
-81.0533046884
 20
-25.5584942128
 11
-80.8752901597
 21
-25.5488980746
  0
LWPOLYLINE
  5
43E
100
AcDbEntity
  8
RACCORDO
100
AcDbPolyline
 62
253
  6
CONTINUOUS
 90
3
 70
0
 10
-79.0793405544
 20
-24.4924848712
 10
-80.0000150832
 20
-24.5434764597
 10
-80.4630766408
 20
-24.5670541555
  0
LINE
  5
43F
100
AcDbEntity
  8
RACCORDO
100
AcDbLine
 62
253
  6
CONTINUOUS
 10
-81.0913606906
 20
-24.690019866
 11
-80.9135436427
 21
-24.6815209166
  0
LWPOLYLINE
  5
440
100
AcDbEntity
  8
RACCORDO
100
AcDbPolyline
 62
253
  6
CONTINUOUS
 90
16
 70
0
 10
-83.0266957305
 20
-25.5718715574
 10
-83.0543966428
 20
-25.5727627836
 10
-83.0816291178
 20
-25.5733739425
 10
-83.1081562508
 20
-25.5736997174
 10
-83.1337472731
 20
-25.5737372744
 10
-83.1581795596
 20
-25.5734862866
 10
-83.1812405652
 20
-25.5729489376
 10
-83.2027296744
 20
-25.5721299018
 10
-83.2224599459
 20
-25.5710363044
 10
-83.2402597394
 20
-25.569677659
 10
-83.2559742082
 20
-25.5680657849
 10
-83.2694666467
 20
-25.5662147043
 10
-83.2806196796
 20
-25.5641405204
 10
-83.2893362828
 20
-25.5618612773
 10
-83.2955406275
 20
-25.5593968029
 10
-83.2991787399
 20
-25.5567685365
  0
LWPOLYLINE
  5
441
100
AcDbEntity
  8
RACCORDO
100
AcDbPolyline
 62
253
  6
CONTINUOUS
 90
16
 70
0
 10
-83.0597754234
 20
-24.8140680336
 10
-83.0874926564
 20
-24.8148333395
 10
-83.1147409617
 20
-24.8153285093
 10
-83.141283121
 20
-24.8155492321
 10
-83.1668880634
 20
-24.8154935864
 10
-83.1913328771
 20
-24.8151620565
 10
-83.2144047505
 20
-24.8145575288
 10
-83.2359028243
 20
-24.8136852661
 10
-83.2556399403
 20
-24.8125528622
 10
-83.2734442712
 20
-24.8111701756
 10
-83.2891608159
 20
-24.8095492436
 10
-83.3026527491
 20
-24.8077041778
 10
-83.3138026129
 20
-24.805651041
 10
-83.3225133385
 20
-24.8034077074
 10
-83.3287090921
 20
-24.8009937069
 10
-83.3323359347
 20
-24.7984300555
  0
LWPOLYLINE
  5
442
100
AcDbEntity
  8
RACCORDO
100
AcDbPolyline
 62
253
  6
CONTINUOUS
 90
16
 70
0
 10
-83.0655034069
 20
-24.6744076681
 10
-83.0932214614
 20
-24.6751690506
 10
-83.1204705621
 20
-24.6756619867
 10
-83.147013474
 20
-24.6758821851
 10
-83.1726191101
 20
-24.6758277286
 10
-83.1970645439
 20
-24.6754990912
 10
-83.2201369495
 20
-24.6748991342
 10
-83.2416354548
 20
-24.674033081
 10
-83.2613728905
 20
-24.6729084714
 10
-83.2791774193
 20
-24.6715350965
 10
-83.2948940321
 20
-24.6699249131
 10
-83.3083858977
 20
-24.6680919399
 10
-83.3195355537
 20
-24.6660521348
 10
-83.3282459293
 20
-24.6638232568
 10
-83.3344411908
 20
-24.6614247108
 10
-83.3380674012
 20
-24.658877379
  0
LINE
  5
443
100
AcDbEntity
  8
0
100
AcDbLine
 62
253
  6
CONTINUOUS
 10
-85.28908696
 20
-26.5666906865
 11
-85.1888995805
 21
-26.5666906865
  0
LINE
  5
444
100
AcDbEntity
  8
0
100
AcDbLine
 62
7
  6
CONTINUOUS
 10
-85.197540735
 20
-26.4716552939
 11
-85.2977238345
 21
-26.4716552939
  0
LINE
  5
445
100
AcDbEntity
  8
RACCORDO
100
AcDbLine
 62
253
  6
CONTINUOUS
 10
-84.7472240286
 20
-24.7984300555
 11
-83.3323359347
 21
-24.7984300555
  0
LINE
  5
446
100
AcDbEntity
  8
0
100
AcDbLine
 62
253
  6
CONTINUOUS
 10
-84.7472240286
 20
-24.7984300555
 11
-85.2968608737
 21
-24.7984300555
  0
LINE
  5
447
100
AcDbEntity
  8
RACCORDO
100
AcDbLine
 62
253
  6
CONTINUOUS
 10
-83.0655034069
 20
-24.6744076681
 11
-81.0913056374
 21
-24.6911717016
  0
LINE
  5
448
100
AcDbEntity
  8
RACCORDO
100
AcDbLine
 62
253
  6
CONTINUOUS
 10
-81.0516076321
 20
-25.589975698
 11
-83.026695821
 21
-25.5718695992
  0
LWPOLYLINE
  5
449
100
AcDbEntity
  8
0
100
AcDbPolyline
 62
7
  6
CONTINUOUS
 90
9
 70
0
 10
-85.2977220065
 20
-26.47168556
 10
-85.2976478202
 20
-26.4717291766
 10
-85.2973575532
 20
-26.4725758403
 10
-85.2969889409
 20
-26.4746571732
 10
-85.2965460026
 20
-26.4779049181
 10
-85.296024564
 20
-26.4823873239
 10
-85.2954004934
 20
-26.4885124202
 10
-85.2946785381
 20
-26.4961896775
 10
-85.2938535107
 20
-26.5055095971
  0
LINE
  5
44A
100
AcDbEntity
  8
RACCORDO
100
AcDbLine
 62
253
  6
CONTINUOUS
 10
-84.8516053436
 20
-22.1429809694
 11
-84.8520084391
 21
-22.1426553175
  0
LWPOLYLINE
  5
44B
100
AcDbEntity
  8
RACCORDO
100
AcDbPolyline
 62
253
  6
CONTINUOUS
 90
6
 70
0
 10
-78.1967412292
 20
-3.7585868869
 10
-78.197506049
 20
-3.7587964814
 10
-78.1997946282
 20
-3.759004473
 10
-78.2035894658
 20
-3.7592092709
 10
-78.2088615399
 20
-3.7594093088
 10
-78.2155705316
 20
-3.7596030568
  0
LINE
  5
44C
100
AcDbEntity
  8
RACCORDO
100
AcDbLine
 62
253
  6
CONTINUOUS
 10
-78.2155705316
 20
-3.7596030568
 11
-78.2330834475
 21
-3.7599658157
  0
LINE
  5
44D
100
AcDbEntity
  8
RACCORDO
100
AcDbLine
 62
253
  6
CONTINUOUS
 10
-78.2330834475
 20
-3.7599658157
 11
-78.2555934924
 21
-3.7602864709
  0
LINE
  5
44E
100
AcDbEntity
  8
RACCORDO
100
AcDbLine
 62
253
  6
CONTINUOUS
 10
-78.2555934924
 20
-3.7602864709
 11
-78.2971879492
 21
-3.7606675169
  0
LINE
  5
44F
100
AcDbEntity
  8
RACCORDO
100
AcDbLine
 62
253
  6
CONTINUOUS
 10
-78.2971879492
 20
-3.7606675169
 11
-78.3455997987
 21
-3.7609060747
  0
LINE
  5
450
100
AcDbEntity
  8
RACCORDO
100
AcDbLine
 62
253
  6
CONTINUOUS
 10
-76.2079127977
 20
-4.4469549002
 11
-76.2159140966
 21
-4.4467055931
  0
LINE
  5
451
100
AcDbEntity
  8
RACCORDO
100
AcDbLine
 62
253
  6
CONTINUOUS
 10
-76.2159140966
 20
-4.4467055931
 11
-76.2262616301
 21
-4.4463155364
  0
LINE
  5
452
100
AcDbEntity
  8
RACCORDO
100
AcDbLine
 62
253
  6
CONTINUOUS
 10
-76.2262616301
 20
-4.4463155364
 11
-76.246122622
 21
-4.4454645588
  0
LINE
  5
453
100
AcDbEntity
  8
RACCORDO
100
AcDbLine
 62
253
  6
CONTINUOUS
 10
-76.246122622
 20
-4.4454645588
 11
-76.2899149087
 21
-4.4433629747
  0
LWPOLYLINE
  5
454
100
AcDbEntity
  8
RACCORDO
100
AcDbPolyline
 62
253
  6
CONTINUOUS
 90
3
 70
0
 10
-76.2899149087
 20
-4.4433629747
 10
-76.369347637
 20
-4.4391828248
 10
-76.3819674062
 20
-4.438487719
  0
LWPOLYLINE
  5
455
100
AcDbEntity
  8
0
100
AcDbPolyline
 62
7
  6
CONTINUOUS
 90
9
 70
0
 10
-85.1936703145
 20
-26.505492692
 10
-85.1944966936
 20
-26.4961634878
 10
-85.1952197147
 20
-26.4884804023
 10
-85.1958444319
 20
-26.482354822
 10
-85.1963662332
 20
-26.4778753884
 10
-85.19680929
 20
-26.4746333899
 10
-85.1971777649
 20
-26.472561034
 10
-85.1974676513
 20
-26.4717261213
 10
-85.1975388703
 20
-26.4716861475
  0
LINE
  5
456
100
AcDbEntity
  8
SUPERFICI
100
AcDbLine
 62
7
  6
CONTINUOUS
 10
-85.0062518177
 20
-29.3052194582
 11
-85.0054762711
 21
-29.3148873828
  0
LINE
  5
457
100
AcDbEntity
  8
0
100
AcDbLine
 62
7
  6
CONTINUOUS
 10
-85.2938535107
 20
-26.5055095971
 11
-85.2917633262
 21
-26.5313425938
  0
LINE
  5
458
100
AcDbEntity
  8
0
100
AcDbLine
 62
7
  6
CONTINUOUS
 10
-85.1915777978
 20
-26.5313380219
 11
-85.1936703145
 21
-26.505492692
  0
LINE
  5
459
100
AcDbEntity
  8
RACCORDO
100
AcDbLine
 62
253
  6
CONTINUOUS
 10
-82.7092141452
 20
-34.4372787612
 11
-82.45890507
 21
-37.6385692648
  0
LINE
  5
45A
100
AcDbEntity
  8
0
100
AcDbLine
 62
7
  6
CONTINUOUS
 10
-84.9926666856
 20
-29.3042081674
 11
-85.0457370341
 21
-28.6337688991
  0
LINE
  5
45B
100
AcDbEntity
  8
0
100
AcDbLine
 62
7
  6
CONTINUOUS
 10
-85.1459937758
 20
-28.634145111
 11
-85.0929886756
 21
-29.3042081674
  0
LINE
  5
45C
100
AcDbEntity
  8
0
100
AcDbLine
 62
7
  6
CONTINUOUS
 10
-85.1943432078
 20
-27.9973312499
 11
-85.187920454
 21
-28.0795431723
  0
LINE
  5
45D
100
AcDbEntity
  8
0
100
AcDbLine
 62
7
  6
CONTINUOUS
 10
-85.0876384928
 20
-28.0798648195
 11
-85.0940901689
 21
-27.9973312499
  0
LINE
  5
45E
100
AcDbEntity
  8
0
100
AcDbLine
 62
7
  6
CONTINUOUS
 10
-85.187920454
 20
-28.0795431723
 11
-85.1459937758
 21
-28.634145111
  0
LINE
  5
45F
100
AcDbEntity
  8
0
100
AcDbLine
 62
7
  6
CONTINUOUS
 10
-85.0457370341
 20
-28.6337688991
 11
-85.0876384928
 21
-28.0798648195
  0
LINE
  5
460
100
AcDbEntity
  8
0
100
AcDbLine
 62
7
  6
CONTINUOUS
 10
-85.2917633262
 20
-26.5313425938
 11
-85.28908696
 21
-26.5666906865
  0
LINE
  5
461
100
AcDbEntity
  8
0
100
AcDbLine
 62
7
  6
CONTINUOUS
 10
-85.1888995805
 20
-26.5666906865
 11
-85.1915777978
 21
-26.5313380219
  0
LWPOLYLINE
  5
462
100
AcDbEntity
  8
0
100
AcDbPolyline
 62
7
  6
CONTINUOUS
 90
3
 70
0
 10
-85.1651502736
 20
-28.4520908278
 10
-85.1560669181
 20
-28.5738453339
 10
-85.0994091409
 20
-29.3042081674
  0
LINE
  5
463
100
AcDbEntity
  8
0
100
AcDbLine
 62
7
  6
CONTINUOUS
 10
-85.219411566
 20
-27.749294779
 11
-85.1863802408
 21
-28.2088948242
  0
LINE
  5
464
100
AcDbEntity
  8
0
100
AcDbLine
 62
7
  6
CONTINUOUS
 10
-85.1955170536
 20
-27.9807874411
 11
-85.1943432078
 21
-27.9973312499
  0
LINE
  5
465
100
AcDbEntity
  8
0
100
AcDbLine
 62
7
  6
CONTINUOUS
 10
-85.0940901689
 20
-27.9973312499
 11
-85.0952648308
 21
-27.9807874411
  0
LINE
  5
466
100
AcDbEntity
  8
0
100
AcDbLine
 62
7
  6
CONTINUOUS
 10
-85.1946344774
 20
-28.0748974663
 11
-85.2174788582
 21
-27.7502523929
  0
LINE
  5
467
100
AcDbEntity
  8
0
100
AcDbLine
 62
7
  6
CONTINUOUS
 10
-85.28908696
 20
-26.5666906865
 11
-85.2824357634
 21
-26.6625154468
  0
LINE
  5
468
100
AcDbEntity
  8
0
100
AcDbLine
 62
7
  6
CONTINUOUS
 10
-85.1819165423
 20
-26.6673525102
 11
-85.1888995805
 21
-26.5666906865
  0
LWPOLYLINE
  5
469
100
AcDbEntity
  8
0
100
AcDbPolyline
 62
7
  6
CONTINUOUS
 90
3
 70
0
 10
-85.2667813645
 20
-26.981461609
 10
-85.2612947789
 20
-27.0668719954
 10
-85.2155832339
 20
-27.7500348996
  0
LINE
  5
46A
100
AcDbEntity
  8
0
100
AcDbLine
 62
7
  6
CONTINUOUS
 10
-85.0961321551
 20
-27.965852458
 11
-85.1819165423
 21
-26.6673525102
  0
LINE
  5
46B
100
AcDbEntity
  8
0
100
AcDbLine
 62
7
  6
CONTINUOUS
 10
-85.2824357634
 20
-26.6625154468
 11
-85.1962764278
 21
-27.967566904
  0
LINE
  5
46C
100
AcDbEntity
  8
0
100
AcDbLine
 62
7
  6
CONTINUOUS
 10
-85.2991143982
 20
-26.5373817105
 11
-85.2720849042
 21
-26.9653692266
  0
LINE
  5
46D
100
AcDbEntity
  8
0
100
AcDbLine
 62
7
  6
CONTINUOUS
 10
-85.270306843
 20
-26.9552561567
 11
-85.2964287116
 21
-26.5372141541
  0
LINE
  5
46E
100
AcDbEntity
  8
SUPERFICI
100
AcDbLine
 62
7
  6
CONTINUOUS
 10
-85.2057683054
 20
-26.4666223181
 11
-85.2054380626
 21
-26.472087929
  0
LWPOLYLINE
  5
46F
100
AcDbEntity
  8
0
100
AcDbPolyline
 62
7
  6
CONTINUOUS
 90
3
 70
0
 10
-85.1962764278
 20
-27.967566904
 10
-85.1956883091
 20
-27.9775087302
 10
-85.1955170536
 20
-27.9807874411
  0
LWPOLYLINE
  5
470
100
AcDbEntity
  8
RACCORDO
100
AcDbPolyline
 62
253
  6
CONTINUOUS
 90
10
 70
0
 10
-84.7472240286
 20
-24.7984300555
 10
-84.6262982711
 20
-26.9482170395
 10
-84.4733844852
 20
-29.0959636077
 10
-84.2885165926
 20
-31.2411933185
 10
-84.0717356028
 20
-33.3834302886
 10
-83.8230896052
 20
-35.5221992987
 10
-83.5426337578
 20
-37.6570258987
 10
-83.2304302749
 20
-39.7874365132
 10
-82.8865484137
 20
-41.9129585461
 10
-82.5110644585
 20
-44.0331204862
  0
LWPOLYLINE
  5
471
100
AcDbEntity
  8
0
100
AcDbPolyline
 62
7
  6
CONTINUOUS
 90
3
 70
0
 10
-85.0952648308
 20
-27.9807874411
 10
-85.0954630174
 20
-27.977061939
 10
-85.0961321551
 20
-27.965852458
  0
LINE
  5
472
100
AcDbEntity
  8
SUPERFICI
100
AcDbLine
 62
7
  6
CONTINUOUS
 10
-85.3198415674
 20
-24.3229800784
 11
-85.3185064276
 21
-24.3508620579
  0
LINE
  5
473
100
AcDbEntity
  8
RACCORDO
100
AcDbLine
 62
253
  6
CONTINUOUS
 10
-84.8180625147
 20
-23.3002649584
 11
-84.7472240286
 21
-24.7984300555
  0
LINE
  5
474
100
AcDbEntity
  8
0
100
AcDbLine
 62
7
  6
CONTINUOUS
 10
-85.2671414473
 20
-26.9727800779
 11
-85.2667813645
 21
-26.981461609
  0
LINE
  5
475
100
AcDbEntity
  8
RACCORDO
100
AcDbLine
 62
7
  6
CONTINUOUS
 10
-84.9487182773
 20
-19.7879945891
 11
-84.8453801133
 21
-22.3027664858
  0
LINE
  5
476
100
AcDbEntity
  8
RACCORDO
100
AcDbLine
 62
253
  6
CONTINUOUS
 10
-84.8180629691
 20
-23.3002649792
 11
-84.8191447299
 21
-23.2731176012
  0
LINE
  5
477
100
AcDbEntity
  8
RACCORDO
100
AcDbLine
 62
253
  6
CONTINUOUS
 10
-84.8456295889
 20
-22.2866352591
 11
-84.8453801133
 21
-22.3027664858
  0
LINE
  5
478
100
AcDbEntity
  8
RACCORDO
100
AcDbLine
 62
253
  6
CONTINUOUS
 10
-84.9487182773
 20
-19.7879945891
 11
-84.9462398271
 21
-19.841864356
  0
LINE
  5
479
100
AcDbEntity
  8
RACCORDO
100
AcDbLine
 62
7
  6
CONTINUOUS
 10
-84.8453801133
 20
-22.3027664858
 11
-84.8362946317
 21
-22.5468528718
  0
LINE
  5
47A
100
AcDbEntity
  8
RACCORDO
100
AcDbLine
 62
253
  6
CONTINUOUS
 10
-85.0368571716
 20
-17.3587177754
 11
-85.0322003902
 21
-17.4843006541
  0
LINE
  5
47B
100
AcDbEntity
  8
RACCORDO
100
AcDbLine
 62
7
  6
CONTINUOUS
 10
-84.8362946317
 20
-22.5468528718
 11
-84.8289806418
 21
-22.7766106762
  0
LINE
  5
47C
100
AcDbEntity
  8
RACCORDO
100
AcDbLine
 62
253
  6
CONTINUOUS
 10
-85.1131963049
 20
-14.9290395061
 11
-85.1087079865
 21
-15.0697539928
  0
LINE
  5
47D
100
AcDbEntity
  8
RACCORDO
100
AcDbLine
 62
7
  6
CONTINUOUS
 10
-84.8289806418
 20
-22.7766106762
 11
-84.8251814601
 21
-22.918916674
  0
LINE
  5
47E
100
AcDbEntity
  8
RACCORDO
100
AcDbLine
 62
253
  6
CONTINUOUS
 10
-84.8251814601
 20
-22.918916674
 11
-84.8242906097
 21
-22.9335979397
  0
LINE
  5
47F
100
AcDbEntity
  8
RACCORDO
100
AcDbLine
 62
253
  6
CONTINUOUS
 10
-85.2315335802
 20
-9.9929428224
 11
-85.2304677681
 21
-10.0687255109
  0
LINE
  5
480
100
AcDbEntity
  8
RACCORDO
100
AcDbLine
 62
253
  6
CONTINUOUS
 10
-85.1777335972
 20
-12.4990236643
 11
-85.1758745917
 21
-12.5598099681
  0
LINE
  5
481
100
AcDbEntity
  8
RACCORDO
100
AcDbLine
 62
253
  6
CONTINUOUS
 10
-85.2731985323
 20
-7.4845585806
 11
-85.2713977096
 21
-7.6381962453
  0
LINE
  5
482
100
AcDbEntity
  8
RACCORDO
100
AcDbLine
 62
253
  6
CONTINUOUS
 10
-85.2713266905
 20
6.7903090825
 11
-85.2731497876
 21
6.6352002437
  0
LINE
  5
483
100
AcDbEntity
  8
RACCORDO
100
AcDbLine
 62
253
  6
CONTINUOUS
 10
-85.1754691801
 20
11.7237047053
 11
-85.1776427517
 21
11.6499744772
  0
LINE
  5
484
100
AcDbEntity
  8
RACCORDO
100
AcDbLine
 62
253
  6
CONTINUOUS
 10
-85.2303840122
 20
9.2202574533
 11
-85.2313546789
 21
9.1494843742
  0
LINE
  5
485
100
AcDbEntity
  8
RACCORDO
100
AcDbLine
 62
253
  6
CONTINUOUS
 10
-85.1081222146
 20
14.2369393116
 11
-85.1131040229
 21
14.0794089432
  0
LINE
  5
486
100
AcDbEntity
  8
RACCORDO
100
AcDbLine
 62
7
  6
CONTINUOUS
 10
-84.8250588383
 20
22.0710910759
 11
-84.8310743354
 21
21.8538267135
  0
LINE
  5
487
100
AcDbEntity
  8
RACCORDO
100
AcDbLine
 62
253
  6
CONTINUOUS
 10
-84.8294081675
 20
21.8936650638
 11
-84.8310743354
 21
21.8538267135
  0
LINE
  5
488
100
AcDbEntity
  8
RACCORDO
100
AcDbLine
 62
253
  6
CONTINUOUS
 10
-85.0316069952
 20
16.6488774248
 11
-85.0367691095
 21
16.508505565
  0
LINE
  5
489
100
AcDbEntity
  8
RACCORDO
100
AcDbLine
 62
7
  6
CONTINUOUS
 10
-84.8310743354
 20
21.8538267135
 11
-84.8389840015
 21
21.618031428
  0
LWPOLYLINE
  5
48A
100
AcDbEntity
  8
RACCORDO
100
AcDbPolyline
 62
7
  6
CONTINUOUS
 90
9
 70
0
 10
-84.9486400981
 20
18.9372003719
 10
-85.0367691095
 20
16.508505565
 10
-85.1131040229
 20
14.0794089432
 10
-85.1776427517
 20
11.6499744772
 10
-85.2303840122
 20
9.2202574533
 10
-85.2713266905
 20
6.7903090825
 10
-85.3004696641
 20
4.3601845972
 10
-85.3178122384
 20
1.9299477622
 10
-85.3233593444
 20
-0.4264068131
  0
LINE
  5
48B
100
AcDbEntity
  8
RACCORDO
100
AcDbLine
 62
253
  6
CONTINUOUS
 10
-84.9458233553
 20
18.9997740145
 11
-84.9486400981
 21
18.9372003719
  0
LINE
  5
48C
100
AcDbEntity
  8
RACCORDO
100
AcDbLine
 62
253
  6
CONTINUOUS
 10
-84.8180625898
 20
22.4474513357
 11
-84.8191444824
 21
22.4203048445
  0
LINE
  5
48D
100
AcDbEntity
  8
RACCORDO
100
AcDbLine
 62
7
  6
CONTINUOUS
 10
-84.8389840015
 20
21.618031428
 11
-84.8486373732
 21
21.3696987705
  0
LINE
  5
48E
100
AcDbEntity
  8
RACCORDO
100
AcDbLine
 62
253
  6
CONTINUOUS
 10
-84.8475415041
 20
21.3868702837
 11
-84.8486373732
 21
21.3696987705
  0
LINE
  5
48F
100
AcDbEntity
  8
RACCORDO
100
AcDbLine
 62
7
  6
CONTINUOUS
 10
-84.8486373732
 20
21.3696987705
 11
-84.9486400981
 21
18.9372003719
  0
LINE
  5
490
100
AcDbEntity
  8
COPY_PUBLISH
100
AcDbLine
 62
7
  6
CONTINUOUS
 10
-85.3185064276
 20
23.4980484316
 11
-85.3198415674
 21
23.4701664521
  0
LWPOLYLINE
  5
491
100
AcDbEntity
  8
RACCORDO
100
AcDbPolyline
 62
253
  6
CONTINUOUS
 90
3
 70
0
 10
-84.8180625147
 20
22.4474513323
 10
-84.7593397521
 20
23.69599241
 10
-84.7472240286
 20
23.9456164294
  0
LWPOLYLINE
  5
492
100
AcDbEntity
  8
RACCORDO
100
AcDbPolyline
 62
253
  6
CONTINUOUS
 90
10
 70
0
 10
-84.7472240286
 20
23.9456164294
 10
-84.6262982702
 20
26.0954034267
 10
-84.4733844832
 20
28.2431500082
 10
-84.2885165888
 20
30.3883797323
 10
-84.0717355965
 20
32.5306167201
 10
-83.8230895959
 20
34.6693857477
 10
-83.5426337468
 20
36.804212352
 10
-83.2304302647
 20
38.9346229531
 10
-82.886548407
 20
41.0601449595
 10
-82.5110644585
 20
43.1803068601
  0
LWPOLYLINE
  5
493
100
AcDbEntity
  8
RACCORDO
100
AcDbPolyline
 62
253
  6
CONTINUOUS
 90
16
 70
0
 10
-78.0314716397
 20
3.1027350824
 10
-78.0261109508
 20
3.1047430551
 10
-78.02116983
 20
3.1087913425
 10
-78.0166999903
 20
3.1148375814
 10
-78.0127482127
 20
3.1228184978
 10
-78.0093558562
 20
3.132650571
 10
-78.0065584246
 20
3.1442309087
 10
-78.0043851962
 20
3.1574383249
 10
-78.0028589183
 20
3.1721345953
 10
-78.0019955671
 20
3.1881659018
 10
-78.0018041783
 20
3.2053644637
 10
-78.002286755
 20
3.2235502869
 10
-78.003438246
 20
3.2425330317
 10
-78.0052465986
 20
3.2621140246
 10
-78.0076928864
 20
3.2820883394
 10
-78.0107515061
 20
3.3022469301
  0
LINE
  5
494
100
AcDbEntity
  8
RACCORDO
100
AcDbLine
 62
253
  6
CONTINUOUS
 10
-78.1967419564
 20
-0.4264068131
 11
-81.5889567298
 21
-0.4264068131
  0
LINE
  5
495
100
AcDbEntity
  8
RACCORDO
100
AcDbLine
 62
253
  6
CONTINUOUS
 10
-85.3229696261
 20
-0.4264068131
 11
-85.3233593446
 21
-0.4264068131
  0
LINE
  5
496
100
AcDbEntity
  8
RACCORDO
100
AcDbLine
 62
253
  6
CONTINUOUS
 10
-76.3819699029
 20
-4.4384878061
 11
-78.0107438526
 21
-4.155062938
  0
LINE
  5
497
100
AcDbEntity
  8
RACCORDO
100
AcDbLine
 62
7
  6
CONTINUOUS
 10
-76.3620123208
 20
-4.2499191501
 11
-78.0314715919
 21
-3.9555484374
  0
LINE
  5
498
100
AcDbEntity
  8
RACCORDO
100
AcDbLine
 62
7
  6
CONTINUOUS
 10
-84.8221087495
 20
22.6673238515
 11
-84.8221434671
 21
22.6677102475
  0
LINE
  5
499
100
AcDbEntity
  8
DRAFT
100
AcDbLine
 62
7
  6
CONTINUOUS
 10
-80.5791318792
 20
-32.8000070979
 11
-80.1280869078
 21
-38.4172283921
  0
LINE
  5
49A
100
AcDbEntity
  8
DRAFT
100
AcDbLine
 62
7
  6
CONTINUOUS
 10
-80.1280869078
 20
-38.4172283921
 11
-80.0372153633
 21
-39.5737701421
  0
LINE
  5
49B
100
AcDbEntity
  8
RACCORDO
100
AcDbLine
 62
7
  6
CONTINUOUS
 10
-80.2963920937
 20
-32.4604896322
 11
-79.860949025
 21
-37.9671397382
  0
LINE
  5
49C
100
AcDbEntity
  8
RACCORDO
100
AcDbLine
 62
7
  6
CONTINUOUS
 10
-79.860949025
 20
-37.9671397382
 11
-79.7692635131
 21
-39.1531314862
  0
LINE
  5
49D
100
AcDbEntity
  8
RACCORDO
100
AcDbLine
 62
253
  6
CONTINUOUS
 10
-80.4789790071
 20
-31.7761950977
 11
-79.9075445985
 21
-39.0290843547
  0
LINE
  5
49E
100
AcDbEntity
  8
RACCORDO
100
AcDbLine
 62
253
  6
CONTINUOUS
 10
-82.45890507
 20
-37.6385692648
 11
-82.3624889464
 21
-38.9026187044
  0
LWPOLYLINE
  5
49F
100
AcDbEntity
  8
RACCORDO
100
AcDbPolyline
 62
7
  6
CONTINUOUS
 90
7
 70
0
 10
-84.8221781949
 20
22.6681136907
 10
-84.822117837
 20
22.6672984574
 10
-84.8219801703
 20
22.665240298
 10
-84.8217995965
 20
22.6622276804
 10
-84.8215896521
 20
22.6583176709
 10
-84.8213552403
 20
22.6534289775
 10
-84.8211091115
 20
22.6476570626
  0
LINE
  5
4A0
100
AcDbEntity
  8
RACCORDO
100
AcDbLine
 62
253
  6
CONTINUOUS
 10
-82.9352645615
 20
-31.4369185456
 11
-82.7092141452
 21
-34.4372787612
  0
LINE
  5
4A1
100
AcDbEntity
  8
DRAFT
100
AcDbLine
 62
7
  6
CONTINUOUS
 10
-80.7463073988
 20
-30.5702875657
 11
-80.5791318792
 21
-32.8000070979
  0
LINE
  5
4A2
100
AcDbEntity
  8
RACCORDO
100
AcDbLine
 62
253
  6
CONTINUOUS
 10
-79.9075445985
 20
-39.0290843547
 11
-79.8437242843
 21
-39.8864493599
  0
LINE
  5
4A3
100
AcDbEntity
  8
DRAFT
100
AcDbLine
 62
7
  6
CONTINUOUS
 10
-80.0372153633
 20
-39.5737701421
 11
-79.975216591
 21
-40.4083637732
  0
LINE
  5
4A4
100
AcDbEntity
  8
RACCORDO
100
AcDbLine
 62
7
  6
CONTINUOUS
 10
-79.7692635131
 20
-39.1531314862
 11
-79.7219016336
 21
-39.7974863534
  0
LINE
  5
4A5
100
AcDbEntity
  8
0
100
AcDbLine
 62
7
  6
CONTINUOUS
 10
-80.0566633717
 20
-31.3976530809
 11
-79.5642502173
 21
-38.0035673918
  0
LINE
  5
4A6
100
AcDbEntity
  8
RACCORDO
100
AcDbLine
 62
7
  6
CONTINUOUS
 10
-80.462800809
 20
-30.2097995814
 11
-80.2963920937
 21
-32.4604896322
  0
LINE
  5
4A7
100
AcDbEntity
  8
RACCORDO
100
AcDbLine
 62
253
  6
CONTINUOUS
 10
-80.6424595892
 20
-29.5239551469
 11
-80.4789790071
 21
-31.7761950977
  0
LINE
  5
4A8
100
AcDbEntity
  8
RACCORDO
100
AcDbLine
 62
7
  6
CONTINUOUS
 10
-80.5131936912
 20
-29.4985854352
 11
-80.462800809
 21
-30.2097995814
  0
LINE
  5
4A9
100
AcDbEntity
  8
RACCORDO
100
AcDbLine
 62
253
  6
CONTINUOUS
 10
-82.3624889464
 20
-38.9026187044
 11
-82.296344377
 21
-39.8185893778
  0
LINE
  5
4AA
100
AcDbEntity
  8
RACCORDO
100
AcDbLine
 62
253
  6
CONTINUOUS
 10
-82.1039362647
 20
-38.9230749761
 11
-82.036653939
 21
-39.8633623351
  0
LINE
  5
4AB
100
AcDbEntity
  8
0
100
AcDbLine
 62
7
  6
CONTINUOUS
 10
-79.5642502173
 20
-38.0035673918
 11
-79.5151183131
 21
-38.7003077468
  0
LINE
  5
4AC
100
AcDbEntity
  8
RACCORDO
100
AcDbLine
 62
253
  6
CONTINUOUS
 10
-82.7430050574
 20
-30.3670885603
 11
-82.1039362647
 21
-38.9230749761
  0
LINE
  5
4AD
100
AcDbEntity
  8
RACCORDO
100
AcDbLine
 62
253
  6
CONTINUOUS
 10
-83.0702295769
 20
-29.5334677523
 11
-82.9352645615
 21
-31.4369185456
  0
LINE
  5
4AE
100
AcDbEntity
  8
DRAFT
100
AcDbLine
 62
7
  6
CONTINUOUS
 10
-80.8470712088
 20
-29.1467241354
 11
-80.7463073988
 21
-30.5702875657
  0
LINE
  5
4AF
100
AcDbEntity
  8
0
100
AcDbLine
 62
7
  6
CONTINUOUS
 10
-80.2301912827
 20
-28.9018682568
 11
-80.0566633717
 21
-31.3976530809
  0
LINE
  5
4B0
100
AcDbEntity
  8
RACCORDO
100
AcDbLine
 62
253
  6
CONTINUOUS
 10
-82.8280243551
 20
-29.1183892089
 11
-82.7430050574
 21
-30.3670885603
  0
LINE
  5
4B1
100
AcDbEntity
  8
RACCORDO
100
AcDbLine
 62
253
  6
CONTINUOUS
 10
-79.8437242843
 20
-39.8864493599
 11
-79.7973425303
 21
-40.5562373185
  0
LINE
  5
4B2
100
AcDbEntity
  8
DRAFT
100
AcDbLine
 62
7
  6
CONTINUOUS
 10
-79.975216591
 20
-40.4083637732
 11
-79.9358874663
 21
-40.9785772742
  0
LINE
  5
4B3
100
AcDbEntity
  8
RACCORDO
100
AcDbLine
 62
7
  6
CONTINUOUS
 10
-79.7219016336
 20
-39.7974863534
 11
-79.6760933724
 21
-40.4631848565
  0
LINE
  5
4B4
100
AcDbEntity
  8
RACCORDO
100
AcDbLine
 62
253
  6
CONTINUOUS
 10
-80.7019979964
 20
-28.6427952047
 11
-80.6424595892
 21
-29.5239551469
  0
LINE
  5
4B5
100
AcDbEntity
  8
RACCORDO
100
AcDbLine
 62
253
  6
CONTINUOUS
 10
-80.5725227785
 20
-28.6195035705
 11
-80.5131936908
 21
-29.498585435
  0
LINE
  5
4B6
100
AcDbEntity
  8
RACCORDO
100
AcDbLine
 62
253
  6
CONTINUOUS
 10
-82.296344377
 20
-39.8185893778
 11
-82.2619244501
 21
-40.3266620213
  0
LINE
  5
4B7
100
AcDbEntity
  8
0
100
AcDbLine
 62
7
  6
CONTINUOUS
 10
-79.5151183131
 20
-38.7003077468
 11
-79.4719202505
 21
-39.3483690738
  0
LINE
  5
4B8
100
AcDbEntity
  8
RACCORDO
100
AcDbLine
 62
253
  6
CONTINUOUS
 10
-83.1287684579
 20
-28.6519357752
 11
-83.0702295769
 21
-29.5334677523
  0
LINE
  5
4B9
100
AcDbEntity
  8
RACCORDO
100
AcDbLine
 62
253
  6
CONTINUOUS
 10
-82.036653939
 20
-39.8633623351
 11
-81.9924089482
 21
-40.5244182288
  0
LINE
  5
4BA
100
AcDbEntity
  8
DRAFT
100
AcDbLine
 62
7
  6
CONTINUOUS
 10
-80.9049768012
 20
-28.2592742411
 11
-80.8470712088
 21
-29.1467241354
  0
LINE
  5
4BB
100
AcDbEntity
  8
0
100
AcDbLine
 62
7
  6
CONTINUOUS
 10
-80.285033952
 20
-28.0428764123
 11
-80.2301912827
 21
-28.9018682568
  0
LINE
  5
4BC
100
AcDbEntity
  8
DRAFT
100
AcDbLine
 62
7
  6
CONTINUOUS
 10
-79.9358874663
 20
-40.9785772742
 11
-79.9134685496
 21
-41.3311276553
  0
LINE
  5
4BD
100
AcDbEntity
  8
RACCORDO
100
AcDbLine
 62
253
  6
CONTINUOUS
 10
-82.8842533007
 20
-28.2335468759
 11
-82.8280243551
 21
-29.1183892089
  0
LINE
  5
4BE
100
AcDbEntity
  8
RACCORDO
100
AcDbLine
 62
253
  6
CONTINUOUS
 10
-79.7973425303
 20
-40.5562373185
 11
-79.768849934
 21
-41.0055474246
  0
LWPOLYLINE
  5
4BF
100
AcDbEntity
  8
RACCORDO
100
AcDbPolyline
 62
7
  6
CONTINUOUS
 90
17
 70
0
 10
-79.6760933724
 20
-40.4631848565
 10
-79.6479802812
 20
-40.9097291524
 10
-79.6348471331
 20
-41.1359772088
 10
-79.6227218358
 20
-41.3608992595
 10
-79.6119781077
 20
-41.5801973357
 10
-79.6028173623
 20
-41.7925589282
 10
-79.5954433687
 20
-41.9968618084
 10
-79.5901133953
 20
-42.1899469672
 10
-79.5869596668
 20
-42.3727147735
 10
-79.586198564
 20
-42.542324402
 10
-79.5878551091
 20
-42.6922729779
 10
-79.5917270612
 20
-42.822433542
 10
-79.5976730126
 20
-42.9351656666
 10
-79.6054208451
 20
-43.030166105
 10
-79.6146865035
 20
-43.1087003015
 10
-79.6252749966
 20
-43.1728424702
 10
-79.6345786803
 20
-43.2149193565
  0
LINE
  5
4C0
100
AcDbEntity
  8
RACCORDO
100
AcDbLine
 62
253
  6
CONTINUOUS
 10
-80.7571018237
 20
-27.7601613951
 11
-80.7019979964
 21
-28.6427952047
  0
LINE
  5
4C1
100
AcDbEntity
  8
RACCORDO
100
AcDbLine
 62
253
  6
CONTINUOUS
 10
-80.6274323147
 20
-27.7389765058
 11
-80.5725227785
 21
-28.6195035705
  0
LINE
  5
4C2
100
AcDbEntity
  8
RACCORDO
100
AcDbLine
 62
253
  6
CONTINUOUS
 10
-82.2619244501
 20
-40.3266620213
 11
-82.235489166
 21
-40.7464062381
  0
LINE
  5
4C3
100
AcDbEntity
  8
RACCORDO
100
AcDbLine
 62
253
  6
CONTINUOUS
 10
-83.1829459295
 20
-27.7690063442
 11
-83.1287684579
 21
-28.6519357752
  0
LINE
  5
4C4
100
AcDbEntity
  8
RACCORDO
100
AcDbLine
 62
253
  6
CONTINUOUS
 10
-81.9924089482
 20
-40.5244182288
 11
-81.9660561759
 21
-40.9511660061
  0
LINE
  5
4C5
100
AcDbEntity
  8
DRAFT
100
AcDbLine
 62
7
  6
CONTINUOUS
 10
-80.9583799474
 20
-27.3705660437
 11
-80.9049768012
 21
-28.2592742411
  0
LINE
  5
4C6
100
AcDbEntity
  8
RACCORDO
100
AcDbLine
 62
253
  6
CONTINUOUS
 10
-82.9361241564
 20
-27.3473343887
 11
-82.8842533007
 21
-28.2335468759
  0
LINE
  5
4C7
100
AcDbEntity
  8
DRAFT
100
AcDbLine
 62
7
  6
CONTINUOUS
 10
-79.9134685496
 20
-41.3311276553
 11
-79.8941319581
 21
-41.6619308401
  0
LINE
  5
4C8
100
AcDbEntity
  8
RACCORDO
100
AcDbLine
 62
253
  6
CONTINUOUS
 10
-82.235489166
 20
-40.7464062381
 11
-82.2158862102
 21
-41.0846008731
  0
LINE
  5
4C9
100
AcDbEntity
  8
RACCORDO
100
AcDbLine
 62
253
  6
CONTINUOUS
 10
-80.8077453262
 20
-26.8762893148
 11
-80.7571018237
 21
-27.7601613951
  0
LINE
  5
4CA
100
AcDbEntity
  8
RACCORDO
100
AcDbLine
 62
253
  6
CONTINUOUS
 10
-80.6779013062
 20
-26.8571691071
 11
-80.6274323147
 21
-27.7389765058
  0
LINE
  5
4CB
100
AcDbEntity
  8
RACCORDO
100
AcDbLine
 62
253
  6
CONTINUOUS
 10
-83.2327452651
 20
-26.8847964007
 11
-83.1829459295
 21
-27.7690063442
  0
LINE
  5
4CC
100
AcDbEntity
  8
RACCORDO
100
AcDbLine
 62
253
  6
CONTINUOUS
 10
-81.9660561759
 20
-40.9511660061
 11
-81.9465628747
 21
-41.2945341423
  0
LWPOLYLINE
  5
4CD
100
AcDbEntity
  8
RACCORDO
100
AcDbPolyline
 62
253
  6
CONTINUOUS
 90
15
 70
0
 10
-79.768849934
 20
-41.0055474246
 10
-79.7432190045
 20
-41.4595017339
 10
-79.7322986415
 20
-41.6801710801
 10
-79.7229725593
 20
-41.8938397218
 10
-79.7154457955
 20
-42.0994174129
 10
-79.7099803411
 20
-42.2937119975
 10
-79.706709316
 20
-42.4776305013
 10
-79.7058494136
 20
-42.648300347
 10
-79.7074282451
 20
-42.799160177
 10
-79.7112413714
 20
-42.9300805906
 10
-79.7171516882
 20
-43.043498442
 10
-79.7248958647
 20
-43.1391535518
 10
-79.734180563
 20
-43.2182561078
 10
-79.7447934474
 20
-43.2828124255
 10
-79.756504111
 20
-43.3342858761
  0
LINE
  5
4CE
100
AcDbEntity
  8
DRAFT
100
AcDbLine
 62
7
  6
CONTINUOUS
 10
-81.0072602395
 20
-26.4807765639
 11
-80.9583799474
 21
-27.3705660437
  0
LINE
  5
4CF
100
AcDbEntity
  8
RACCORDO
100
AcDbLine
 62
253
  6
CONTINUOUS
 10
-82.9836110649
 20
-26.4600366885
 11
-82.9361241564
 21
-27.3473343887
  0
LINE
  5
4D0
100
AcDbEntity
  8
RACCORDO
100
AcDbLine
 62
253
  6
CONTINUOUS
 10
-82.2158862102
 20
-41.0846008731
 11
-82.201439159
 21
-41.3577492483
  0
LINE
  5
4D1
100
AcDbEntity
  8
RACCORDO
100
AcDbLine
 62
253
  6
CONTINUOUS
 10
-80.8538999825
 20
-25.9915471579
 11
-80.8077453262
 21
-26.8762893148
  0
LINE
  5
4D2
100
AcDbEntity
  8
RACCORDO
100
AcDbLine
 62
253
  6
CONTINUOUS
 10
-80.7238962042
 20
-25.9745338901
 11
-80.6779013062
 21
-26.8571691071
  0
LINE
  5
4D3
100
AcDbEntity
  8
DRAFT
100
AcDbLine
 62
7
  6
CONTINUOUS
 10
-79.8941319581
 20
-41.6619308401
 11
-79.8779959778
 21
-41.9707307166
  0
LINE
  5
4D4
100
AcDbEntity
  8
RACCORDO
100
AcDbLine
 62
253
  6
CONTINUOUS
 10
-83.2781365314
 20
-25.9996788015
 11
-83.2327452651
 21
-26.8847964007
  0
LINE
  5
4D5
100
AcDbEntity
  8
RACCORDO
100
AcDbLine
 62
253
  6
CONTINUOUS
 10
-81.9465628747
 20
-41.2945341423
 11
-81.9322023902
 21
-41.5718631009
  0
LINE
  5
4D6
100
AcDbEntity
  8
DRAFT
100
AcDbLine
 62
7
  6
CONTINUOUS
 10
-81.0562879006
 20
-25.4901212691
 11
-81.0072602395
 21
-26.4807765639
  0
LINE
  5
4D7
100
AcDbEntity
  8
RACCORDO
100
AcDbLine
 62
253
  6
CONTINUOUS
 10
-82.201439159
 20
-41.3577492483
 11
-82.1925156537
 21
-41.5435459783
  0
LINE
  5
4D8
100
AcDbEntity
  8
RACCORDO
100
AcDbLine
 62
253
  6
CONTINUOUS
 10
-83.0305595922
 20
-25.4876813484
 11
-82.9836110649
 21
-26.4600366885
  0
LINE
  5
4D9
100
AcDbEntity
  8
RACCORDO
100
AcDbLine
 62
253
  6
CONTINUOUS
 10
-81.9322023902
 20
-41.5718631009
 11
-81.9233201313
 21
-41.7606155081
  0
LINE
  5
4DA
100
AcDbEntity
  8
RACCORDO
100
AcDbLine
 62
253
  6
CONTINUOUS
 10
-80.8971701186
 20
-25.0670540823
 11
-80.8538999825
 21
-25.9915471579
  0
LINE
  5
4DB
100
AcDbEntity
  8
RACCORDO
100
AcDbLine
 62
253
  6
CONTINUOUS
 10
-83.3217080968
 20
-25.0512346655
 11
-83.2781365314
 21
-25.9996788015
  0
LINE
  5
4DC
100
AcDbEntity
  8
DRAFT
100
AcDbLine
 62
7
  6
CONTINUOUS
 10
-81.0871641154
 20
-24.7910511482
 11
-81.0562879006
 21
-25.4901212691
  0
LINE
  5
4DD
100
AcDbEntity
  8
RACCORDO
100
AcDbLine
 62
253
  6
CONTINUOUS
 10
-82.1925156537
 20
-41.5435459783
 11
-82.1847146142
 21
-41.7233805833
  0
LINE
  5
4DE
100
AcDbEntity
  8
RACCORDO
100
AcDbLine
 62
253
  6
CONTINUOUS
 10
-83.0655034069
 20
-24.6744076681
 11
-83.0305595922
 21
-25.4876813484
  0
LINE
  5
4DF
100
AcDbEntity
  8
RACCORDO
100
AcDbLine
 62
253
  6
CONTINUOUS
 10
-81.9233201313
 20
-41.7606155081
 11
-81.9155679686
 21
-41.9432905479
  0
LINE
  5
4E0
100
AcDbEntity
  8
RACCORDO
100
AcDbLine
 62
253
  6
CONTINUOUS
 10
-82.1847146142
 20
-41.7233805833
 11
-82.178185367
 21
-41.8953352705
  0
LINE
  5
4E1
100
AcDbEntity
  8
RACCORDO
100
AcDbLine
 62
253
  6
CONTINUOUS
 10
-81.9155679686
 20
-41.9432905479
 11
-81.9090879374
 21
-42.1179613739
  0
LINE
  5
4E2
100
AcDbEntity
  8
RACCORDO
100
AcDbLine
 62
7
  6
CONTINUOUS
 10
-84.8211091115
 20
22.6476570626
 11
-84.8206003125
 21
22.6333942483
  0
LINE
  5
4E3
100
AcDbEntity
  8
RACCORDO
100
AcDbLine
 62
253
  6
CONTINUOUS
 10
-82.178185367
 20
-41.8953352705
 11
-82.1730379848
 21
-42.0570732888
  0
LINE
  5
4E4
100
AcDbEntity
  8
RACCORDO
100
AcDbLine
 62
253
  6
CONTINUOUS
 10
-81.9090879374
 20
-42.1179613739
 11
-81.9039889003
 21
-42.282221654
  0
LINE
  5
4E5
100
AcDbEntity
  8
RACCORDO
100
AcDbLine
 62
7
  6
CONTINUOUS
 10
-84.8206003125
 20
22.6333942483
 11
-84.8201145131
 21
22.616140116
  0
LINE
  5
4E6
100
AcDbEntity
  8
RACCORDO
100
AcDbLine
 62
253
  6
CONTINUOUS
 10
-82.1730379848
 20
-42.0570732888
 11
-82.1703831651
 21
-42.1589102474
  0
LINE
  5
4E7
100
AcDbEntity
  8
RACCORDO
100
AcDbLine
 62
253
  6
CONTINUOUS
 10
-81.9039889003
 20
-42.282221654
 11
-81.9013593443
 21
-42.3856603947
  0
LINE
  5
4E8
100
AcDbEntity
  8
RACCORDO
100
AcDbLine
 62
7
  6
CONTINUOUS
 10
-84.8251814601
 20
-22.918916674
 11
-84.8222567114
 21
-23.050547093
  0
LINE
  5
4E9
100
AcDbEntity
  8
RACCORDO
100
AcDbLine
 62
7
  6
CONTINUOUS
 10
-84.8201145131
 20
22.616140116
 11
-84.8196841571
 21
22.5960756622
  0
LINE
  5
4EA
100
AcDbEntity
  8
RACCORDO
100
AcDbLine
 62
253
  6
CONTINUOUS
 10
-82.1703831651
 20
-42.1589102474
 11
-82.1683131744
 21
-42.2566678909
  0
LINE
  5
4EB
100
AcDbEntity
  8
RACCORDO
100
AcDbLine
 62
253
  6
CONTINUOUS
 10
-81.9013593443
 20
-42.3856603947
 11
-81.8993287509
 21
-42.4848817379
  0
LINE
  5
4EC
100
AcDbEntity
  8
RACCORDO
100
AcDbLine
 62
7
  6
CONTINUOUS
 10
-84.8222567114
 20
-23.050547093
 11
-84.8202373837
 21
-23.1699469594
  0
LINE
  5
4ED
100
AcDbEntity
  8
RACCORDO
100
AcDbLine
 62
253
  6
CONTINUOUS
 10
-84.818868577
 20
22.6498897002
 11
-84.8182573205
 21
22.6114775395
  0
LINE
  5
4EE
100
AcDbEntity
  8
RACCORDO
100
AcDbLine
 62
253
  6
CONTINUOUS
 10
-82.1683131744
 20
-42.2566678909
 11
-82.166826965
 21
-42.3534674764
  0
LINE
  5
4EF
100
AcDbEntity
  8
RACCORDO
100
AcDbLine
 62
7
  6
CONTINUOUS
 10
-84.8196841571
 20
22.5960756622
 11
-84.8193392741
 21
22.5733307076
  0
LINE
  5
4F0
100
AcDbEntity
  8
RACCORDO
100
AcDbLine
 62
253
  6
CONTINUOUS
 10
-81.8993287509
 20
-42.4848817379
 11
-81.8978605707
 21
-42.5832482524
  0
LWPOLYLINE
  5
4F1
100
AcDbEntity
  8
RACCORDO
100
AcDbPolyline
 62
253
  6
CONTINUOUS
 90
5
 70
0
 10
-84.8310010532
 20
-23.654085034
 10
-84.831610979
 20
-23.6044747891
 10
-84.8287007438
 20
-23.5549505216
 10
-84.8222849928
 20
-23.5057614547
 10
-84.8210885391
 20
-23.4998806435
  0
LINE
  5
4F2
100
AcDbEntity
  8
RACCORDO
100
AcDbLine
 62
253
  6
CONTINUOUS
 10
-85.3013968779
 20
-5.0731896979
 11
-85.3005223057
 21
-5.2074911173
  0
LINE
  5
4F3
100
AcDbEntity
  8
RACCORDO
100
AcDbLine
 62
7
  6
CONTINUOUS
 10
-84.8202373837
 20
-23.1699469594
 11
-84.819145119
 21
-23.2730278599
  0
LINE
  5
4F4
100
AcDbEntity
  8
RACCORDO
100
AcDbLine
 62
7
  6
CONTINUOUS
 10
-84.8193392741
 20
22.5733307076
 11
-84.8190867261
 21
22.5477906817
  0
LINE
  5
4F5
100
AcDbEntity
  8
RACCORDO
100
AcDbLine
 62
253
  6
CONTINUOUS
 10
-85.3177110589
 20
-2.7204531344
 11
-85.3178408638
 21
-2.776674176
  0
LINE
  5
4F6
100
AcDbEntity
  8
RACCORDO
100
AcDbLine
 62
253
  6
CONTINUOUS
 10
-84.8182573205
 20
22.6114775395
 11
-84.8193392741
 21
22.5733307076
  0
LINE
  5
4F7
100
AcDbEntity
  8
RACCORDO
100
AcDbLine
 62
253
  6
CONTINUOUS
 10
-82.166826965
 20
-42.3534674764
 11
-82.1659672142
 21
-42.450875863
  0
LWPOLYLINE
  5
4F8
100
AcDbEntity
  8
RACCORDO
100
AcDbPolyline
 62
253
  6
CONTINUOUS
 90
23
 70
0
 10
-81.8978605707
 20
-42.5832482524
 10
-81.8970226401
 20
-42.6822182073
 10
-81.8968789205
 20
-42.7329281239
 10
-81.8969555226
 20
-42.7841291265
 10
-81.8972795045
 20
-42.8362526022
 10
-81.8978997741
 20
-42.889788866
 10
-81.8988546594
 20
-42.9436648288
 10
-81.9001377598
 20
-42.9960772349
 10
-81.9017548446
 20
-43.0467799141
 10
-81.9037242827
 20
-43.0958309347
 10
-81.9060081686
 20
-43.1422110735
 10
-81.9085880864
 20
-43.1858201809
 10
-81.9114643023
 20
-43.2268510431
 10
-81.9145940954
 20
-43.2649546014
 10
-81.9179571773
 20
-43.3002680672
 10
-81.921535151
 20
-43.3329225636
 10
-81.9252675257
 20
-43.3627022313
 10
-81.9291271789
 20
-43.3898011644
 10
-81.9330871331
 20
-43.4143929441
 10
-81.9370690117
 20
-43.4363504918
 10
-81.9410210614
 20
-43.4558028863
 10
-81.9449287564
 20
-43.4730650416
 10
-81.9487628019
 20
-43.48833241
  0
LINE
  5
4F9
100
AcDbEntity
  8
RACCORDO
100
AcDbLine
 62
253
  6
CONTINUOUS
 10
-84.8189403433
 20
-23.3112511702
 11
-84.8178130264
 21
-23.3513514626
  0
LINE
  5
4FA
100
AcDbEntity
  8
RACCORDO
100
AcDbLine
 62
7
  6
CONTINUOUS
 10
-84.819145347
 20
-23.2730278605
 11
-84.8188927541
 21
-23.3289958174
  0
LINE
  5
4FB
100
AcDbEntity
  8
RACCORDO
100
AcDbLine
 62
7
  6
CONTINUOUS
 10
-84.8190867261
 20
22.5477906817
 11
-84.8188906342
 21
22.5046474439
  0
LWPOLYLINE
  5
4FC
100
AcDbEntity
  8
RACCORDO
100
AcDbPolyline
 62
7
  6
CONTINUOUS
 90
9
 70
0
 10
-85.3233593446
 20
-0.4264068131
 10
-85.3178408638
 20
-2.776674176
 10
-85.3005223057
 20
-5.2074911173
 10
-85.2713977096
 20
-7.6381962453
 10
-85.2304677681
 20
-10.0687255109
 10
-85.1777335972
 20
-12.4990236643
 10
-85.1131963049
 20
-14.9290395061
 10
-85.0368571716
 20
-17.3587177754
 10
-84.9487182773
 20
-19.7879945891
  0
LINE
  5
4FD
100
AcDbEntity
  8
RACCORDO
100
AcDbLine
 62
253
  6
CONTINUOUS
 10
-84.8178942656
 20
22.5690552415
 11
-84.8190867261
 21
22.5477906817
  0
LWPOLYLINE
  5
4FE
100
AcDbEntity
  8
RACCORDO
100
AcDbPolyline
 62
253
  6
CONTINUOUS
 90
21
 70
0
 10
-82.1659672142
 20
-42.450875863
 10
-82.1658500683
 20
-42.5513268793
 10
-82.1661840454
 20
-42.6025113717
 10
-82.1668257805
 20
-42.6550404278
 10
-82.1677465616
 20
-42.708205364
 10
-82.1690019858
 20
-42.759871779
 10
-82.1706258208
 20
-42.8096834678
 10
-82.1725825753
 20
-42.8579972284
 10
-82.1748369699
 20
-42.9037487594
 10
-82.1774100493
 20
-42.9466416176
 10
-82.1802889169
 20
-42.9869731147
 10
-82.1833946961
 20
-43.024569763
 10
-82.1867474099
 20
-43.0593414471
 10
-82.1903380341
 20
-43.0913790258
 10
-82.194047909
 20
-43.1207804461
 10
-82.1978953799
 20
-43.1474900783
 10
-82.2018751392
 20
-43.1715641094
 10
-82.205836116
 20
-43.193268137
 10
-82.2097334136
 20
-43.2126908054
 10
-82.2136264389
 20
-43.2297438321
 10
-82.2175216132
 20
-43.2444273693
  0
LINE
  5
4FF
100
AcDbEntity
  8
RACCORDO
100
AcDbLine
 62
253
  6
CONTINUOUS
 10
-84.8189076501
 20
-23.3655950162
 11
-84.8178064059
 21
-23.3991714
  0
LINE
  5
500
100
AcDbEntity
  8
RACCORDO
100
AcDbLine
 62
253
  6
CONTINUOUS
 10
-84.8177794751
 20
22.5228376658
 11
-84.8189185445
 21
22.5165151326
  0
LINE
  5
501
100
AcDbEntity
  8
RACCORDO
100
AcDbLine
 62
7
  6
CONTINUOUS
 10
-84.8189185445
 20
22.5165151326
 11
-84.8189077187
 21
22.4694345906
  0
LINE
  5
502
100
AcDbEntity
  8
RACCORDO
100
AcDbLine
 62
7
  6
CONTINUOUS
 10
-84.8189284504
 20
-23.3149776691
 11
-84.8189076501
 21
-23.3655950162
  0
LINE
  5
503
100
AcDbEntity
  8
RACCORDO
100
AcDbLine
 62
253
  6
CONTINUOUS
 10
-82.1658455934
 20
41.69791186
 11
-82.1659720334
 21
41.5971409663
  0
LINE
  5
504
100
AcDbEntity
  8
RACCORDO
100
AcDbLine
 62
253
  6
CONTINUOUS
 10
-84.8178130167
 20
22.4985370475
 11
-84.818898605
 21
22.4731042002
  0
LINE
  5
505
100
AcDbEntity
  8
RACCORDO
100
AcDbLine
 62
7
  6
CONTINUOUS
 10
-84.818898605
 20
22.4731042002
 11
-84.8191447222
 21
22.4203048452
  0
LINE
  5
506
100
AcDbEntity
  8
RACCORDO
100
AcDbLine
 62
253
  6
CONTINUOUS
 10
-81.896879603
 20
41.8792496205
 11
-81.8973662392
 21
41.7786942964
  0
LINE
  5
507
100
AcDbEntity
  8
RACCORDO
100
AcDbLine
 62
253
  6
CONTINUOUS
 10
-85.3178122384
 20
1.9299477622
 11
-85.3177124251
 21
1.8673362479
  0
LINE
  5
508
100
AcDbEntity
  8
RACCORDO
100
AcDbLine
 62
253
  6
CONTINUOUS
 10
-84.8191477663
 20
-23.4079903852
 11
-84.8180441385
 21
-23.4435747525
  0
LINE
  5
509
100
AcDbEntity
  8
RACCORDO
100
AcDbLine
 62
7
  6
CONTINUOUS
 10
-84.8189007822
 20
-23.3625761812
 11
-84.8191477663
 21
-23.4079903852
  0
LINE
  5
50A
100
AcDbEntity
  8
RACCORDO
100
AcDbLine
 62
253
  6
CONTINUOUS
 10
-84.8180625147
 20
22.4474513323
 11
-84.8191451567
 21
22.420206727
  0
LINE
  5
50B
100
AcDbEntity
  8
RACCORDO
100
AcDbLine
 62
253
  6
CONTINUOUS
 10
-82.1659720334
 20
41.5971409663
 11
-82.1668317932
 21
41.5002047292
  0
LINE
  5
50C
100
AcDbEntity
  8
RACCORDO
100
AcDbLine
 62
253
  6
CONTINUOUS
 10
-85.3004696641
 20
4.3601845972
 11
-85.3013889789
 21
4.2212246495
  0
LINE
  5
50D
100
AcDbEntity
  8
RACCORDO
100
AcDbLine
 62
7
  6
CONTINUOUS
 10
-84.8191451567
 20
22.420206727
 11
-84.820170898
 21
22.3219678256
  0
LWPOLYLINE
  5
50E
100
AcDbEntity
  8
RACCORDO
100
AcDbPolyline
 62
253
  6
CONTINUOUS
 90
5
 70
0
 10
-84.8310009185
 20
22.8012714016
 10
-84.8316108913
 20
22.7516611452
 10
-84.8287006995
 20
22.7021368645
 10
-84.8222849882
 20
22.6529477829
 10
-84.821086342
 20
22.6470561726
  0
LINE
  5
50F
100
AcDbEntity
  8
RACCORDO
100
AcDbLine
 62
7
  6
CONTINUOUS
 10
-84.8191477663
 20
-23.4079903852
 11
-84.8194495436
 21
-23.4344253132
  0
LINE
  5
510
100
AcDbEntity
  8
RACCORDO
100
AcDbLine
 62
253
  6
CONTINUOUS
 10
-81.8973662392
 20
41.7786942964
 11
-81.8985214126
 21
41.6812437103
  0
LWPOLYLINE
  5
511
100
AcDbEntity
  8
RACCORDO
100
AcDbPolyline
 62
253
  6
CONTINUOUS
 90
18
 70
0
 10
-84.8180441385
 20
-23.4435747525
 10
-84.8185324128
 20
-23.4840035221
 10
-84.8188682233
 20
-23.5026858396
 10
-84.819264567
 20
-23.5203096802
 10
-84.8197216089
 20
-23.5368910542
 10
-84.8202380125
 20
-23.5524146793
 10
-84.8208136255
 20
-23.566883003
 10
-84.8214487054
 20
-23.5802935867
 10
-84.8221425366
 20
-23.5926238187
 10
-84.8228952098
 20
-23.6038743406
 10
-84.8237067123
 20
-23.614044518
 10
-84.8245761791
 20
-23.6231098254
 10
-84.8255036635
 20
-23.6310682168
 10
-84.826489164
 20
-23.6379217435
 10
-84.8275317379
 20
-23.6436520252
 10
-84.8286310815
 20
-23.6482529363
 10
-84.829787521
 20
-23.6517306055
 10
-84.8310010552
 20
-23.6540850341
  0
LINE
  5
512
100
AcDbEntity
  8
RACCORDO
100
AcDbLine
 62
253
  6
CONTINUOUS
 10
-84.8190835729
 20
22.3485723863
 11
-84.820170898
 21
22.3219678256
  0
LINE
  5
513
100
AcDbEntity
  8
RACCORDO
100
AcDbLine
 62
253
  6
CONTINUOUS
 10
-82.1668317932
 20
41.5002047292
 11
-82.1683033767
 21
41.4043379945
  0
LINE
  5
514
100
AcDbEntity
  8
RACCORDO
100
AcDbLine
 62
7
  6
CONTINUOUS
 10
-84.820170898
 20
22.3219678256
 11
-84.8221596484
 21
22.2027275797
  0
LINE
  5
515
100
AcDbEntity
  8
RACCORDO
100
AcDbLine
 62
7
  6
CONTINUOUS
 10
-84.8194495436
 20
-23.4344253132
 11
-84.8198542763
 21
-23.4575736662
  0
LINE
  5
516
100
AcDbEntity
  8
RACCORDO
100
AcDbLine
 62
253
  6
CONTINUOUS
 10
-81.8985214126
 20
41.6812437103
 11
-81.9002476237
 21
41.5840289293
  0
LINE
  5
517
100
AcDbEntity
  8
RACCORDO
100
AcDbLine
 62
253
  6
CONTINUOUS
 10
-84.821249998
 20
22.2180203137
 11
-84.8221596484
 21
22.2027275797
  0
LINE
  5
518
100
AcDbEntity
  8
RACCORDO
100
AcDbLine
 62
253
  6
CONTINUOUS
 10
-82.1683033767
 20
41.4043379945
 11
-82.1703438272
 21
41.3077636846
  0
LINE
  5
519
100
AcDbEntity
  8
RACCORDO
100
AcDbLine
 62
7
  6
CONTINUOUS
 10
-84.8221596484
 20
22.2027275797
 11
-84.8250588383
 21
22.0710910759
  0
LINE
  5
51A
100
AcDbEntity
  8
RACCORDO
100
AcDbLine
 62
253
  6
CONTINUOUS
 10
-81.9002476237
 20
41.5840289293
 11
-81.902545187
 21
41.4838024723
  0
LINE
  5
51B
100
AcDbEntity
  8
RACCORDO
100
AcDbLine
 62
253
  6
CONTINUOUS
 10
-84.8242910388
 20
22.0807668386
 11
-84.8251986687
 21
22.0446328196
  0
LINE
  5
51C
100
AcDbEntity
  8
RACCORDO
100
AcDbLine
 62
7
  6
CONTINUOUS
 10
-84.8198542763
 20
-23.4575736662
 11
-84.8203481064
 21
-23.4777810282
  0
LINE
  5
51D
100
AcDbEntity
  8
RACCORDO
100
AcDbLine
 62
253
  6
CONTINUOUS
 10
-82.1703438272
 20
41.3077636846
 11
-82.1729620273
 21
41.2069273589
  0
LINE
  5
51E
100
AcDbEntity
  8
RACCORDO
100
AcDbLine
 62
253
  6
CONTINUOUS
 10
-81.902545187
 20
41.4838024723
 11
-81.9054358071
 21
41.3791517716
  0
LINE
  5
51F
100
AcDbEntity
  8
RACCORDO
100
AcDbLine
 62
253
  6
CONTINUOUS
 10
-82.1729620273
 20
41.2069273589
 11
-82.1780541602
 21
41.0462910413
  0
LWPOLYLINE
  5
520
100
AcDbEntity
  8
RACCORDO
100
AcDbPolyline
 62
253
  6
CONTINUOUS
 90
18
 70
0
 10
-83.4419055873
 20
21.1204179488
 10
-83.5335212522
 20
18.4328405786
 10
-83.6129252395
 20
15.7434085965
 10
-83.6801261613
 20
13.0521502959
 10
-83.735123826
 20
10.3591920058
 10
-83.7779118369
 20
7.664758153
 10
-83.8084886872
 20
4.9685873985
 10
-83.8268403014
 20
2.2710971617
 10
-83.8329561787
 20
-0.4264694688
 10
-83.8268397393
 20
-3.1240337405
 10
-83.8084876347
 20
-5.8215173034
 10
-83.7779103957
 20
-8.5176776739
 10
-83.7351221701
 20
-11.2120964129
 10
-83.680124523
 20
-13.9050358832
 10
-83.6129237925
 20
-16.5962753277
 10
-83.5335201249
 20
-19.2856896411
 10
-83.4419049419
 20
-21.9732493091
 10
-83.3217080968
 20
-25.0512346655
  0
LWPOLYLINE
  5
521
100
AcDbEntity
  8
RACCORDO
100
AcDbPolyline
 62
7
  6
CONTINUOUS
 90
9
 70
0
 10
-84.8203481064
 20
-23.4777810282
 10
-84.8208806867
 20
-23.4944780811
 10
-84.8211498069
 20
-23.501473134
 10
-84.8214094907
 20
-23.5074246622
 10
-84.8216532657
 20
-23.5123618074
 10
-84.8218712282
 20
-23.5162760359
 10
-84.8220397719
 20
-23.5189728225
 10
-84.8221480566
 20
-23.5205298321
 10
-84.822172086
 20
-23.5208491575
  0
LWPOLYLINE
  5
522
100
AcDbEntity
  8
RACCORDO
100
AcDbPolyline
 62
253
  6
CONTINUOUS
 90
18
 70
0
 10
-83.1692601453
 20
21.1346134249
 10
-83.2608255691
 20
18.445228035
 10
-83.3401942713
 20
15.753760682
 10
-83.4073575366
 20
13.060697614
 10
-83.4623179564
 20
10.3661637638
 10
-83.5050801422
 20
7.6699392243
 10
-83.5356381619
 20
4.9719725816
 10
-83.5539777043
 20
2.2728996469
 10
-83.560090889
 20
-0.426468643
 10
-83.5539771546
 20
-3.1258345806
 10
-83.535637123
 20
-5.8249008497
 10
-83.5050787249
 20
-8.5228571022
 10
-83.4623163418
 20
-11.2190664419
 10
-83.4073559468
 20
-13.9135813844
 10
-83.3401928732
 20
-16.6066257031
 10
-83.2608244865
 20
-19.2980757547
 10
-83.1692595295
 20
-21.9874440111
 10
-83.0655034069
 20
-24.6744076681
  0
LINE
  5
523
100
AcDbEntity
  8
RACCORDO
100
AcDbLine
 62
253
  6
CONTINUOUS
 10
-81.9054358071
 20
41.3791517716
 11
-81.9109465037
 21
41.2121766696
  0
LINE
  5
524
100
AcDbEntity
  8
RACCORDO
100
AcDbLine
 62
253
  6
CONTINUOUS
 10
-82.1780541602
 20
41.0462910413
 11
-82.1845174999
 21
40.8754082966
  0
LINE
  5
525
100
AcDbEntity
  8
RACCORDO
100
AcDbLine
 62
253
  6
CONTINUOUS
 10
-81.9109465037
 20
41.2121766696
 11
-81.9177976753
 21
41.0356586207
  0
LINE
  5
526
100
AcDbEntity
  8
RACCORDO
100
AcDbLine
 62
253
  6
CONTINUOUS
 10
-83.3217080967
 20
24.1984210426
 11
-83.4419055873
 21
21.1204179488
  0
LINE
  5
527
100
AcDbEntity
  8
RACCORDO
100
AcDbLine
 62
253
  6
CONTINUOUS
 10
-83.0491725128
 20
24.2138807037
 11
-83.1692601453
 21
21.1346134249
  0
LINE
  5
528
100
AcDbEntity
  8
DRAFT
100
AcDbLine
 62
7
  6
CONTINUOUS
 10
-81.0743355097
 20
24.2378577464
 11
-81.1707296997
 21
21.8226744863
  0
LINE
  5
529
100
AcDbEntity
  8
RACCORDO
100
AcDbLine
 62
253
  6
CONTINUOUS
 10
-82.1845174999
 20
40.8754082966
 11
-82.1922394931
 21
40.6967687396
  0
LINE
  5
52A
100
AcDbEntity
  8
RACCORDO
100
AcDbLine
 62
253
  6
CONTINUOUS
 10
-81.9177976753
 20
41.0356586207
 11
-81.9258650225
 21
40.8519072611
  0
LINE
  5
52B
100
AcDbEntity
  8
RACCORDO
100
AcDbLine
 62
253
  6
CONTINUOUS
 10
-83.0057045602
 20
25.1632376806
 11
-83.0491725128
 21
24.2138807037
  0
LINE
  5
52C
100
AcDbEntity
  8
RACCORDO
100
AcDbLine
 62
253
  6
CONTINUOUS
 10
-83.2781365359
 20
25.1468650818
 11
-83.3217080967
 21
24.1984210426
  0
LINE
  5
52D
100
AcDbEntity
  8
RACCORDO
100
AcDbLine
 62
253
  6
CONTINUOUS
 10
-80.8538999826
 20
25.138733531
 11
-80.8886065699
 21
24.4069874303
  0
LINE
  5
52E
100
AcDbEntity
  8
DRAFT
100
AcDbLine
 62
7
  6
CONTINUOUS
 10
-81.0300008964
 20
25.1826882842
 11
-81.0743355097
 21
24.2378577464
  0
LINE
  5
52F
100
AcDbEntity
  8
RACCORDO
100
AcDbLine
 62
253
  6
CONTINUOUS
 10
-82.1922394931
 20
40.6967687396
 11
-82.2043337541
 21
40.44807473
  0
LINE
  5
530
100
AcDbEntity
  8
RACCORDO
100
AcDbLine
 62
253
  6
CONTINUOUS
 10
-81.9258650225
 20
40.8519072611
 11
-81.9384843522
 21
40.5943526401
  0
LINE
  5
531
100
AcDbEntity
  8
RACCORDO
100
AcDbLine
 62
253
  6
CONTINUOUS
 10
-82.9604170498
 20
26.0509902057
 11
-83.0057045602
 21
25.1632376806
  0
LINE
  5
532
100
AcDbEntity
  8
RACCORDO
100
AcDbLine
 62
253
  6
CONTINUOUS
 10
-83.2327452762
 20
26.0319825656
 11
-83.2781365359
 21
25.1468650818
  0
LINE
  5
533
100
AcDbEntity
  8
RACCORDO
100
AcDbLine
 62
253
  6
CONTINUOUS
 10
-80.8077453262
 20
26.0234756886
 11
-80.8538999826
 21
25.138733531
  0
LINE
  5
534
100
AcDbEntity
  8
RACCORDO
100
AcDbLine
 62
253
  6
CONTINUOUS
 10
-80.6779013062
 20
26.0043554809
 11
-80.7238962042
 21
25.1217202639
  0
LINE
  5
535
100
AcDbEntity
  8
DRAFT
100
AcDbLine
 62
7
  6
CONTINUOUS
 10
-80.9833866159
 20
26.072981757
 11
-81.0300008964
 21
25.1826882842
  0
LINE
  5
536
100
AcDbEntity
  8
RACCORDO
100
AcDbLine
 62
253
  6
CONTINUOUS
 10
-82.2043337541
 20
40.44807473
 11
-82.2195513856
 21
40.1662044026
  0
LINE
  5
537
100
AcDbEntity
  8
RACCORDO
100
AcDbLine
 62
253
  6
CONTINUOUS
 10
-81.9384843522
 20
40.5943526401
 11
-81.9547545864
 21
40.2937738762
  0
LINE
  5
538
100
AcDbEntity
  8
DRAFT
100
AcDbLine
 62
7
  6
CONTINUOUS
 10
-79.8856432455
 20
40.9664050043
 11
-79.9034174524
 21
40.6463793053
  0
LINE
  5
539
100
AcDbEntity
  8
RACCORDO
100
AcDbLine
 62
253
  6
CONTINUOUS
 10
-82.9107349695
 20
26.9377847436
 11
-82.9604170498
 21
26.0509902057
  0
LINE
  5
53A
100
AcDbEntity
  8
RACCORDO
100
AcDbLine
 62
253
  6
CONTINUOUS
 10
-83.1829459429
 20
26.9161924906
 11
-83.2327452762
 21
26.0319825656
  0
LINE
  5
53B
100
AcDbEntity
  8
RACCORDO
100
AcDbLine
 62
253
  6
CONTINUOUS
 10
-80.7571018237
 20
26.907347769
 11
-80.8077453262
 21
26.0234756886
  0
LINE
  5
53C
100
AcDbEntity
  8
RACCORDO
100
AcDbLine
 62
253
  6
CONTINUOUS
 10
-80.6274323115
 20
26.8861629324
 11
-80.6779013062
 21
26.0043554809
  0
LINE
  5
53D
100
AcDbEntity
  8
DRAFT
100
AcDbLine
 62
7
  6
CONTINUOUS
 10
-80.9322420095
 20
26.9622587199
 11
-80.9833866159
 21
26.072981757
  0
LINE
  5
53E
100
AcDbEntity
  8
RACCORDO
100
AcDbLine
 62
253
  6
CONTINUOUS
 10
-82.2195513856
 20
40.1662044026
 11
-82.2402142413
 21
39.8157072086
  0
LINE
  5
53F
100
AcDbEntity
  8
RACCORDO
100
AcDbLine
 62
253
  6
CONTINUOUS
 10
-81.9547545864
 20
40.2937738762
 11
-81.9769788381
 21
39.9172337904
  0
LINE
  5
540
100
AcDbEntity
  8
RACCORDO
100
AcDbLine
 62
253
  6
CONTINUOUS
 10
-79.7559829043
 20
40.3723616504
 11
-79.7834027185
 21
39.9181520833
  0
LINE
  5
541
100
AcDbEntity
  8
RACCORDO
100
AcDbLine
 62
253
  6
CONTINUOUS
 10
-82.8566821658
 20
27.8233363801
 11
-82.9107349695
 21
26.9377847436
  0
LINE
  5
542
100
AcDbEntity
  8
DRAFT
100
AcDbLine
 62
7
  6
CONTINUOUS
 10
-79.9034174524
 20
40.6463793053
 11
-79.9242890062
 21
40.3047926627
  0
LINE
  5
543
100
AcDbEntity
  8
RACCORDO
100
AcDbLine
 62
253
  6
CONTINUOUS
 10
-83.128768468
 20
27.799121992
 11
-83.1829459429
 21
26.9161924906
  0
LINE
  5
544
100
AcDbEntity
  8
RACCORDO
100
AcDbLine
 62
253
  6
CONTINUOUS
 10
-80.5725227887
 20
27.7666897868
 11
-80.6274323115
 21
26.8861629324
  0
LINE
  5
545
100
AcDbEntity
  8
RACCORDO
100
AcDbLine
 62
253
  6
CONTINUOUS
 10
-80.7019979964
 20
27.7899815787
 11
-80.7571018237
 21
26.907347769
  0
LINE
  5
546
100
AcDbEntity
  8
DRAFT
100
AcDbLine
 62
7
  6
CONTINUOUS
 10
-80.8765865236
 20
27.8503419634
 11
-80.9322420095
 21
26.9622587199
  0
LINE
  5
547
100
AcDbEntity
  8
RACCORDO
100
AcDbLine
 62
7
  6
CONTINUOUS
 10
-79.6484909509
 20
40.0484011514
 11
-79.6767245224
 21
39.6007676871
  0
LINE
  5
548
100
AcDbEntity
  8
0
100
AcDbLine
 62
7
  6
CONTINUOUS
 10
-80.2301912827
 20
28.0490546307
 11
-80.285033952
 21
27.1900627862
  0
LINE
  5
549
100
AcDbEntity
  8
RACCORDO
100
AcDbLine
 62
253
  6
CONTINUOUS
 10
-81.9769788381
 20
39.9172337904
 11
-82.006317045
 21
39.4580792608
  0
LINE
  5
54A
100
AcDbEntity
  8
RACCORDO
100
AcDbLine
 62
253
  6
CONTINUOUS
 10
-82.2402142413
 20
39.8157072086
 11
-82.2678308297
 21
39.3843335675
  0
LINE
  5
54B
100
AcDbEntity
  8
RACCORDO
100
AcDbLine
 62
253
  6
CONTINUOUS
 10
-79.7834027185
 20
39.9181520833
 11
-79.8131008685
 21
39.4694068298
  0
LINE
  5
54C
100
AcDbEntity
  8
0
100
AcDbLine
 62
7
  6
CONTINUOUS
 10
-79.4719202505
 20
38.4955554477
 11
-79.5151183131
 21
37.8474941207
  0
LINE
  5
54D
100
AcDbEntity
  8
RACCORDO
100
AcDbLine
 62
253
  6
CONTINUOUS
 10
-80.5131937404
 20
28.6457711003
 11
-80.5725227887
 21
27.7666897868
  0
LINE
  5
54E
100
AcDbEntity
  8
DRAFT
100
AcDbLine
 62
7
  6
CONTINUOUS
 10
-79.9242890062
 20
40.3047926627
 11
-79.9613849032
 21
39.751018327
  0
LINE
  5
54F
100
AcDbEntity
  8
RACCORDO
100
AcDbLine
 62
253
  6
CONTINUOUS
 10
-82.7439604248
 20
29.5004913086
 11
-82.8566821658
 21
27.8233363801
  0
LINE
  5
550
100
AcDbEntity
  8
RACCORDO
100
AcDbLine
 62
253
  6
CONTINUOUS
 10
-82.006317045
 20
39.4580792608
 11
-82.054489404
 21
38.7556548997
  0
LINE
  5
551
100
AcDbEntity
  8
RACCORDO
100
AcDbLine
 62
253
  6
CONTINUOUS
 10
-82.2678308297
 20
39.3843335675
 11
-82.313543193
 21
38.721601311
  0
LINE
  5
552
100
AcDbEntity
  8
RACCORDO
100
AcDbLine
 62
253
  6
CONTINUOUS
 10
-80.6172094519
 20
29.0290228345
 11
-80.7019979964
 21
27.7899815787
  0
LINE
  5
553
100
AcDbEntity
  8
DRAFT
100
AcDbLine
 62
7
  6
CONTINUOUS
 10
-80.7931924162
 20
29.0654314158
 11
-80.8765865236
 21
27.8503419634
  0
LINE
  5
554
100
AcDbEntity
  8
RACCORDO
100
AcDbLine
 62
7
  6
CONTINUOUS
 10
-79.6767245224
 20
39.6007676871
 11
-79.7226965884
 21
38.9335647511
  0
LINE
  5
555
100
AcDbEntity
  8
0
100
AcDbLine
 62
7
  6
CONTINUOUS
 10
-80.0566633717
 20
30.5448394548
 11
-80.2301912827
 21
28.0490546307
  0
LINE
  5
556
100
AcDbEntity
  8
0
100
AcDbLine
 62
7
  6
CONTINUOUS
 10
-79.5151183131
 20
37.8474941207
 11
-79.5642502173
 21
37.1507537657
  0
LINE
  5
557
100
AcDbEntity
  8
RACCORDO
100
AcDbLine
 62
253
  6
CONTINUOUS
 10
-79.8131008685
 20
39.4694068298
 11
-79.8605495046
 21
38.8022034459
  0
LINE
  5
558
100
AcDbEntity
  8
RACCORDO
100
AcDbLine
 62
253
  6
CONTINUOUS
 10
-82.558620339
 20
32.085008634
 11
-82.7439604248
 21
29.5004913086
  0
LINE
  5
559
100
AcDbEntity
  8
RACCORDO
100
AcDbLine
 62
253
  6
CONTINUOUS
 10
-82.8697947802
 20
31.473344864
 11
-83.128768468
 21
27.799121992
  0
LINE
  5
55A
100
AcDbEntity
  8
RACCORDO
100
AcDbLine
 62
253
  6
CONTINUOUS
 10
-82.054489404
 20
38.7556548997
 11
-82.1252095351
 21
37.7828345351
  0
LINE
  5
55B
100
AcDbEntity
  8
RACCORDO
100
AcDbLine
 62
7
  6
CONTINUOUS
 10
-80.3512833147
 20
30.880104407
 11
-80.5131937408
 21
28.6457711005
  0
LINE
  5
55C
100
AcDbEntity
  8
RACCORDO
100
AcDbLine
 62
253
  6
CONTINUOUS
 10
-82.313543193
 20
38.721601311
 11
-82.3713925438
 21
37.9305691253
  0
LINE
  5
55D
100
AcDbEntity
  8
DRAFT
100
AcDbLine
 62
7
  6
CONTINUOUS
 10
-79.9613849032
 20
39.751018327
 11
-80.0207826133
 21
38.937261658
  0
LINE
  5
55E
100
AcDbEntity
  8
0
100
AcDbLine
 62
7
  6
CONTINUOUS
 10
-79.5642502173
 20
37.1507537657
 11
-79.6788047062
 21
35.6058168166
  0
LINE
  5
55F
100
AcDbEntity
  8
RACCORDO
100
AcDbLine
 62
253
  6
CONTINUOUS
 10
-80.4519454295
 20
31.2825517485
 11
-80.6172094519
 21
29.0290228345
  0
LINE
  5
560
100
AcDbEntity
  8
DRAFT
100
AcDbLine
 62
7
  6
CONTINUOUS
 10
-80.6271758119
 20
31.3199842555
 11
-80.7931924162
 21
29.0654314158
  0
LINE
  5
561
100
AcDbEntity
  8
RACCORDO
100
AcDbLine
 62
7
  6
CONTINUOUS
 10
-79.7226965884
 20
38.9335647511
 11
-79.7859294078
 21
38.0801582364
  0
LWPOLYLINE
  5
562
100
AcDbEntity
  8
0
100
AcDbPolyline
 62
7
  6
CONTINUOUS
 90
3
 70
0
 10
-79.6788047062
 20
35.6058168166
 10
-79.8092262944
 20
33.8853435693
 10
-80.0566633717
 20
30.5448394548
  0
LINE
  5
563
100
AcDbEntity
  8
RACCORDO
100
AcDbLine
 62
253
  6
CONTINUOUS
 10
-79.8605495046
 20
38.8022034459
 11
-79.9242789206
 21
37.9586342011
  0
LINE
  5
564
100
AcDbEntity
  8
RACCORDO
100
AcDbLine
 62
253
  6
CONTINUOUS
 10
-82.269983511
 20
35.8802778338
 11
-82.558620339
 21
32.085008634
  0
LINE
  5
565
100
AcDbEntity
  8
RACCORDO
100
AcDbLine
 62
253
  6
CONTINUOUS
 10
-82.1252095351
 20
37.7828345351
 11
-82.269983511
 21
35.8802778338
  0
LINE
  5
566
100
AcDbEntity
  8
RACCORDO
100
AcDbLine
 62
253
  6
CONTINUOUS
 10
-82.3713925438
 20
37.9305691253
 11
-82.4982932355
 21
36.2797210858
  0
LINE
  5
567
100
AcDbEntity
  8
RACCORDO
100
AcDbLine
 62
253
  6
CONTINUOUS
 10
-82.4982932355
 20
36.2797210858
 11
-82.8697947802
 21
31.473344864
  0
LINE
  5
568
100
AcDbEntity
  8
DRAFT
100
AcDbLine
 62
7
  6
CONTINUOUS
 10
-80.0207826133
 20
38.937261658
 11
-80.0900718138
 21
38.0417511664
  0
LINE
  5
569
100
AcDbEntity
  8
RACCORDO
100
AcDbLine
 62
7
  6
CONTINUOUS
 10
-79.7859294078
 20
38.0801582364
 11
-79.8771631644
 21
36.9092701281
  0
LINE
  5
56A
100
AcDbEntity
  8
RACCORDO
100
AcDbLine
 62
7
  6
CONTINUOUS
 10
-80.1050242764
 20
34.0605934469
 11
-80.3512833147
 21
30.880104407
  0
LINE
  5
56B
100
AcDbEntity
  8
RACCORDO
100
AcDbLine
 62
253
  6
CONTINUOUS
 10
-79.9242789206
 20
37.9586342011
 11
-80.0324586327
 21
36.5885251509
  0
LINE
  5
56C
100
AcDbEntity
  8
RACCORDO
100
AcDbLine
 62
253
  6
CONTINUOUS
 10
-80.17728747
 20
34.7881902832
 11
-80.4519454295
 21
31.2825517485
  0
LINE
  5
56D
100
AcDbEntity
  8
RACCORDO
100
AcDbLine
 62
7
  6
CONTINUOUS
 10
-79.8771631644
 20
36.9092701281
 11
-80.1050242764
 21
34.0605934469
  0
LINE
  5
56E
100
AcDbEntity
  8
DRAFT
100
AcDbLine
 62
7
  6
CONTINUOUS
 10
-80.3886731957
 20
34.3546115209
 11
-80.6271758119
 21
31.3199842555
  0
LINE
  5
56F
100
AcDbEntity
  8
RACCORDO
100
AcDbLine
 62
253
  6
CONTINUOUS
 10
-80.0324586327
 20
36.5885251509
 11
-80.17728747
 21
34.7881902832
  0
LINE
  5
570
100
AcDbEntity
  8
DRAFT
100
AcDbLine
 62
7
  6
CONTINUOUS
 10
-80.0900718138
 20
38.0417511664
 11
-80.3886731957
 21
34.3546115209
  0
LWPOLYLINE
  5
571
100
AcDbEntity
  8
RACCORDO
100
AcDbPolyline
 62
253
  6
CONTINUOUS
 90
19
 70
0
 10
-78.0107519036
 20
3.3022468997
 10
-78.0428246621
 20
3.2952313874
 10
-78.0737542957
 20
3.2859691317
 10
-78.1035384729
 20
3.2744597365
 10
-78.1323270698
 20
3.2605761368
 10
-78.1599659421
 20
3.2444446908
 10
-78.1859961788
 20
3.2264453872
 10
-78.2103747148
 20
3.2065523032
 10
-78.2331395128
 20
3.184791329
 10
-78.2539524087
 20
3.1616205963
 10
-78.2727683822
 20
3.1370305719
 10
-78.2896277836
 20
3.1110313348
 10
-78.3043203542
 20
3.0841107805
 10
-78.3168071118
 20
3.0562893478
 10
-78.3271235999
 20
3.0275475522
 10
-78.3351716317
 20
2.9983136202
 10
-78.3409178925
 20
2.9687307001
 10
-78.3443939235
 20
2.938656792
 10
-78.3455992499
 20
2.908092469
  0
LINE
  5
572
100
AcDbEntity
  8
RACCORDO
100
AcDbLine
 62
7
  6
CONTINUOUS
 10
-78.0314715919
 20
3.1027348113
 11
-76.3620123208
 21
3.397105524
  0
LINE
  5
573
100
AcDbEntity
  8
RACCORDO
100
AcDbLine
 62
253
  6
CONTINUOUS
 10
-78.0107519036
 20
3.3022468997
 11
-76.3819698812
 21
3.5856741042
  0
LINE
  5
574
100
AcDbEntity
  8
RACCORDO
100
AcDbLine
 62
253
  6
CONTINUOUS
 10
-76.3819673079
 20
3.5856739229
 11
-76.3011219256
 21
3.5899818084
  0
LINE
  5
575
100
AcDbEntity
  8
RACCORDO
100
AcDbLine
 62
253
  6
CONTINUOUS
 10
-76.3011219256
 20
3.5899818084
 11
-76.2561217649
 21
3.5921915194
  0
LINE
  5
576
100
AcDbEntity
  8
RACCORDO
100
AcDbLine
 62
253
  6
CONTINUOUS
 10
-76.2561217649
 20
3.5921915194
 11
-76.2340807851
 21
3.59317889
  0
LINE
  5
577
100
AcDbEntity
  8
RACCORDO
100
AcDbLine
 62
253
  6
CONTINUOUS
 10
-76.2340807851
 20
3.59317889
 11
-76.2219679244
 21
3.593670269
  0
LWPOLYLINE
  5
578
100
AcDbEntity
  8
RACCORDO
100
AcDbPolyline
 62
253
  6
CONTINUOUS
 90
9
 70
0
 10
-76.2219679244
 20
3.593670269
 10
-76.2121073578
 20
3.5940188274
 10
-76.2080601549
 20
3.5941379949
 10
-76.2046174698
 20
3.5942196359
 10
-76.2017883951
 20
3.5942645079
 10
-76.1995828287
 20
3.594271448
 10
-76.1980054111
 20
3.5942403354
 10
-76.1970579609
 20
3.5941720829
 10
-76.1967419564
 20
3.5940670878
  0
LINE
  5
579
100
AcDbEntity
  8
RACCORDO
100
AcDbLine
 62
253
  6
CONTINUOUS
 10
-78.3455992494
 20
2.9080924736
 11
-78.2824126211
 21
2.9077416166
  0
LINE
  5
57A
100
AcDbEntity
  8
RACCORDO
100
AcDbLine
 62
253
  6
CONTINUOUS
 10
-78.2824126211
 20
2.9077416166
 11
-78.2437530864
 21
2.9073184293
  0
LWPOLYLINE
  5
57B
100
AcDbEntity
  8
RACCORDO
100
AcDbPolyline
 62
253
  6
CONTINUOUS
 90
8
 70
0
 10
-78.2437530864
 20
2.9073184293
 10
-78.223665133
 20
2.9069754069
 10
-78.2155707132
 20
2.9067894296
 10
-78.2088618929
 20
2.9065956812
 10
-78.2035899593
 20
2.906395643
 10
-78.1997952287
 20
2.9061908448
 10
-78.1975067271
 20
2.905982853
 10
-78.1967419564
 20
2.9057732582
  0
LWPOLYLINE
  5
57C
100
AcDbEntity
  8
0
100
AcDbPolyline
 62
7
  6
CONTINUOUS
 90
15
 70
0
 10
-79.4719202505
 20
-39.3483690738
 10
-79.4353745257
 20
-39.9422829592
 10
-79.420009852
 20
-40.217797284
 10
-79.4067253697
 20
-40.47835058
 10
-79.3955042107
 20
-40.7235646474
 10
-79.3863262333
 20
-40.9535080501
 10
-79.3792539804
 20
-41.1682762089
 10
-79.3744364613
 20
-41.3676621874
 10
-79.37201317
 20
-41.5512405014
 10
-79.3720253363
 20
-41.7187187942
 10
-79.3744338807
 20
-41.8700646244
 10
-79.3792237398
 20
-42.0049892583
 10
-79.3864215798
 20
-42.1229862969
 10
-79.396096292
 20
-42.2238835235
 10
-79.4082979555
 20
-42.3078386186
  0
LINE
  5
57D
100
AcDbEntity
  8
0
100
AcDbLine
 62
7
  6
CONTINUOUS
 10
-80.3356667875
 20
-27.1826234444
 11
-80.285033952
 21
-28.0428764123
  0
LINE
  5
57E
100
AcDbEntity
  8
0
100
AcDbLine
 62
7
  6
CONTINUOUS
 10
-80.3820693781
 20
-26.3213153124
 11
-80.3356667875
 21
-27.1826234444
  0
LINE
  5
57F
100
AcDbEntity
  8
0
100
AcDbLine
 62
7
  6
CONTINUOUS
 10
-80.430047139
 20
-25.3329487467
 11
-80.3820693781
 21
-26.3213153124
  0
LINE
  5
580
100
AcDbEntity
  8
RACCORDO
100
AcDbLine
 62
253
  6
CONTINUOUS
 10
-80.7670514713
 20
-25.051481669
 11
-80.7238962042
 21
-25.9745338901
  0
LWPOLYLINE
  5
581
100
AcDbEntity
  8
DRAFT
100
AcDbPolyline
 62
7
  6
CONTINUOUS
 90
18
 70
0
 10
-79.8779959778
 20
-41.9707307166
 10
-79.8652978386
 20
-42.2563198345
 10
-79.8602710389
 20
-42.3903142644
 10
-79.8561446165
 20
-42.5184073602
 10
-79.8529303855
 20
-42.6405907541
 10
-79.8506479085
 20
-42.7566854399
 10
-79.849312765
 20
-42.8666594058
 10
-79.8489312468
 20
-42.9705497655
 10
-79.8495096309
 20
-43.068281141
 10
-79.8510564221
 20
-43.1598736259
 10
-79.8535812885
 20
-43.2453115366
 10
-79.8570927038
 20
-43.3244657108
 10
-79.8615994321
 20
-43.3973262169
 10
-79.8671079162
 20
-43.4639066736
 10
-79.8736236099
 20
-43.5241130985
 10
-79.8811524897
 20
-43.5779151234
 10
-79.8897002145
 20
-43.6253459651
 10
-79.8992712022
 20
-43.6664068131
  0
LINE
  5
582
100
AcDbEntity
  8
0
100
AcDbLine
 62
7
  6
CONTINUOUS
 10
-80.4591644574
 20
-24.6628246998
 11
-80.430047139
 21
-25.3329487467
  0
LINE
  5
583
100
AcDbEntity
  8
RACCORDO
100
AcDbLine
 62
253
  6
CONTINUOUS
 10
-80.9472768409
 20
-23.8476872451
 11
-80.8971701186
 21
-25.0670540823
  0
LINE
  5
584
100
AcDbEntity
  8
RACCORDO
100
AcDbLine
 62
253
  6
CONTINUOUS
 10
-80.8171020405
 20
-23.8329554395
 11
-80.7670514713
 21
-25.051481669
  0
LINE
  5
585
100
AcDbEntity
  8
RACCORDO
100
AcDbLine
 62
253
  6
CONTINUOUS
 10
-81.0149665919
 20
-22.0768424986
 11
-80.9472768409
 21
-23.8476872451
  0
LINE
  5
586
100
AcDbEntity
  8
RACCORDO
100
AcDbLine
 62
253
  6
CONTINUOUS
 10
-80.8847464393
 20
-22.0632178843
 11
-80.8171020405
 21
-23.8329554395
  0
LWPOLYLINE
  5
587
100
AcDbEntity
  8
RACCORDO
100
AcDbPolyline
 62
253
  6
CONTINUOUS
 90
14
 70
0
 10
-81.3763149914
 20
-6.8829344918
 10
-81.3640302945
 20
-7.9252203946
 10
-81.3493984398
 20
-9.0027864176
 10
-81.3320441322
 20
-10.126707213
 10
-81.3119064435
 20
-11.285834061
 10
-81.2893773821
 20
-12.4506555817
 10
-81.2643629327
 20
-13.6238029931
 10
-81.2368767791
 20
-14.8025906093
 10
-81.2078675992
 20
-15.9495738981
 10
-81.1778573135
 20
-17.052742573
 10
-81.1467303336
 20
-18.1241202312
 10
-81.1147017898
 20
-19.1623449544
 10
-81.0819458215
 20
-20.1674128273
 10
-81.0149665919
 20
-22.0768424986
  0
LWPOLYLINE
  5
588
100
AcDbEntity
  8
RACCORDO
100
AcDbPolyline
 62
253
  6
CONTINUOUS
 90
14
 70
0
 10
-81.2458491856
 20
-6.8788302423
 10
-81.2335730792
 20
-7.9204593784
 10
-81.2189509238
 20
-8.9973494105
 10
-81.2016084565
 20
-10.1205484953
 10
-81.1814850056
 20
-11.2789317329
 10
-81.158971337
 20
-12.4430323825
 10
-81.133973518
 20
-13.6154555777
 10
-81.1065062372
 20
-14.7934937883
 10
-81.077517332
 20
-15.9397529657
 10
-81.0475273965
 20
-17.0422459705
 10
-81.0164211537
 20
-18.1129623734
 10
-80.9844145969
 20
-19.1505246624
 10
-80.9516812411
 20
-20.1549568907
 10
-80.8847464393
 20
-22.0632178843
  0
LINE
  5
589
100
AcDbEntity
  8
RACCORDO
100
AcDbLine
 62
253
  6
CONTINUOUS
 10
-81.3946712613
 20
-4.8928010246
 11
-81.3763149914
 21
-6.8829344918
  0
LINE
  5
58A
100
AcDbEntity
  8
RACCORDO
100
AcDbLine
 62
253
  6
CONTINUOUS
 10
-81.2641924496
 20
-4.8899856444
 11
-81.2458491856
 21
-6.8788302423
  0
LINE
  5
58B
100
AcDbEntity
  8
RACCORDO
100
AcDbLine
 62
253
  6
CONTINUOUS
 10
-81.4058132434
 20
-3.0248373766
 11
-81.3946712613
 21
-4.8928010246
  0
LINE
  5
58C
100
AcDbEntity
  8
RACCORDO
100
AcDbLine
 62
253
  6
CONTINUOUS
 10
-81.2753267386
 20
-3.0231945763
 11
-81.2641924496
 21
-4.8899856444
  0
LWPOLYLINE
  5
58D
100
AcDbEntity
  8
0
100
AcDbPolyline
 62
7
  6
CONTINUOUS
 90
10
 70
0
 10
-80.9579864647
 20
-0.4264068131
 10
-80.9518740258
 20
-3.1126693086
 10
-80.9335379064
 20
-5.7986437516
 10
-80.9029800843
 20
-8.4839800531
 10
-80.8602021479
 20
-11.1683737954
 10
-80.8052052504
 20
-13.8515762259
 10
-80.7379913536
 20
-16.5333208079
 10
-80.6585624854
 20
-19.2133589764
 10
-80.5669224611
 20
-21.8913866549
 10
-80.4591644574
 20
-24.6628246998
  0
LINE
  5
58E
100
AcDbEntity
  8
RACCORDO
100
AcDbLine
 62
253
  6
CONTINUOUS
 10
-81.4109197995
 20
-1.264877609
 11
-81.4058132434
 21
-3.0248373766
  0
LINE
  5
58F
100
AcDbEntity
  8
RACCORDO
100
AcDbLine
 62
253
  6
CONTINUOUS
 10
-81.2804292579
 20
-1.2643650868
 11
-81.2753267386
 21
-3.0231945763
  0
LINE
  5
590
100
AcDbEntity
  8
RACCORDO
100
AcDbLine
 62
253
  6
CONTINUOUS
 10
-81.4109272489
 20
0.4067859722
 11
-81.4109197995
 21
-1.264877609
  0
LINE
  5
591
100
AcDbEntity
  8
RACCORDO
100
AcDbLine
 62
253
  6
CONTINUOUS
 10
-81.2804366961
 20
0.4062756719
 11
-81.2804292579
 21
-1.2643650868
  0
LINE
  5
592
100
AcDbEntity
  8
RACCORDO
100
AcDbLine
 62
253
  6
CONTINUOUS
 10
-81.4058082641
 20
2.173158424
 11
-81.4109272489
 21
0.4067859722
  0
LINE
  5
593
100
AcDbEntity
  8
RACCORDO
100
AcDbLine
 62
253
  6
CONTINUOUS
 10
-81.2753217626
 20
2.1715149258
 11
-81.2804366961
 21
0.4062756719
  0
LWPOLYLINE
  5
594
100
AcDbEntity
  8
RACCORDO
100
AcDbPolyline
 62
253
  6
CONTINUOUS
 90
15
 70
0
 10
-81.1126005787
 20
18.3756274476
 10
-81.1440071569
 20
17.3619513661
 10
-81.1745728045
 20
16.316233448
 10
-81.2042322434
 20
15.2345515284
 10
-81.2330854451
 20
14.104845809
 10
-81.2605859481
 20
12.9391548981
 10
-81.2858582183
 20
11.7697284992
 10
-81.3089101729
 20
10.5950535206
 10
-81.3296862681
 20
9.4166840657
 10
-81.347624789
 20
8.2715153271
 10
-81.3627617579
 20
7.1718876939
 10
-81.3754877546
 20
6.1055366654
 10
-81.3859834802
 20
5.0724651725
 10
-81.3944235328
 20
4.0727123183
 10
-81.4058082641
 20
2.173158424
  0
LWPOLYLINE
  5
595
100
AcDbEntity
  8
RACCORDO
100
AcDbPolyline
 62
253
  6
CONTINUOUS
 90
15
 70
0
 10
-80.9823144731
 20
18.3637764988
 10
-81.013699585
 20
17.3507448415
 10
-81.0442449272
 20
16.3056707048
 10
-81.0738842158
 20
15.224653328
 10
-81.102717286
 20
14.0956613085
 10
-81.1301989954
 20
12.9307089046
 10
-81.155454497
 20
11.7620015456
 10
-81.1784906861
 20
10.5880528001
 10
-81.1992521298
 20
9.4104384127
 10
-81.2171784831
 20
8.2660022973
 10
-81.2323054631
 20
7.167061251
 10
-81.2450225487
 20
6.1013826018
 10
-81.255510647
 20
5.068984035
 10
-81.2639448931
 20
4.069877322
 10
-81.2753217626
 20
2.1715149258
  0
LWPOLYLINE
  5
596
100
AcDbEntity
  8
0
100
AcDbPolyline
 62
7
  6
CONTINUOUS
 90
9
 70
0
 10
-80.5669224611
 20
21.0385730289
 10
-80.6585624854
 20
18.3605453505
 10
-80.7379913536
 20
15.680507182
 10
-80.8052052504
 20
12.9987625999
 10
-80.8602021479
 20
10.3155601691
 10
-80.9029800843
 20
7.6311664266
 10
-80.9335379064
 20
4.9458301251
 10
-80.9518740258
 20
2.2598556823
 10
-80.9579864647
 20
-0.4264068131
  0
LINE
  5
597
100
AcDbEntity
  8
RACCORDO
100
AcDbLine
 62
253
  6
CONTINUOUS
 10
-81.0479159339
 20
20.3068733639
 11
-81.1126005787
 21
18.3756274476
  0
LINE
  5
598
100
AcDbEntity
  8
RACCORDO
100
AcDbLine
 62
253
  6
CONTINUOUS
 10
-80.9176735731
 20
20.2938244332
 11
-80.9823144731
 21
18.3637764988
  0
LWPOLYLINE
  5
599
100
AcDbEntity
  8
DRAFT
100
AcDbPolyline
 62
7
  6
CONTINUOUS
 90
24
 70
0
 10
-81.1707296997
 20
21.8226744863
 10
-81.24326041
 20
19.8055209363
 10
-81.3088985527
 20
17.7869300465
 10
-81.3676473074
 20
15.766812519
 10
-81.4195000197
 20
13.745323206
 10
-81.4644451489
 20
11.7228612611
 10
-81.5024826329
 20
9.699458803
 10
-81.533610823
 20
7.6751501533
 10
-81.5578227153
 20
5.6503381033
 10
-81.5751186429
 20
3.6250560654
 10
-81.5854974244
 20
1.5993375775
 10
-81.5889567425
 20
-0.4264142135
 10
-81.5854973744
 20
-2.4521656788
 10
-81.5751185497
 20
-4.4778833267
 10
-81.5578225873
 20
-6.5031642154
 10
-81.5336106723
 20
-8.5279747724
 10
-81.5024824755
 20
-10.5522816201
 10
-81.4644449973
 20
-12.5756822773
 10
-81.4194998856
 20
-14.5981424236
 10
-81.367647203
 20
-16.6196299393
 10
-81.3088984817
 20
-18.6397459784
 10
-81.2432603687
 20
-20.658335791
 10
-81.1707296833
 20
-22.6754885724
 10
-81.0871641154
 20
-24.7910511482
  0
LINE
  5
59A
100
AcDbEntity
  8
RACCORDO
100
AcDbLine
 62
253
  6
CONTINUOUS
 10
-80.9812662879
 20
22.1232194582
 11
-81.0479159339
 21
20.3068733639
  0
LINE
  5
59B
100
AcDbEntity
  8
RACCORDO
100
AcDbLine
 62
253
  6
CONTINUOUS
 10
-80.8510686578
 20
22.1090307468
 11
-80.9176735731
 21
20.2938244332
  0
LINE
  5
59C
100
AcDbEntity
  8
RACCORDO
100
AcDbLine
 62
253
  6
CONTINUOUS
 10
-80.9013576915
 20
24.117862107
 11
-80.9812662879
 21
22.1232194582
  0
LINE
  5
59D
100
AcDbEntity
  8
RACCORDO
100
AcDbLine
 62
253
  6
CONTINUOUS
 10
-80.7712304767
 20
24.1023762134
 11
-80.8510686578
 21
22.1090307468
  0
LINE
  5
59E
100
AcDbEntity
  8
0
100
AcDbLine
 62
7
  6
CONTINUOUS
 10
-80.4470567748
 20
24.0972655083
 11
-80.5669224611
 21
21.0385730289
  0
LINE
  5
59F
100
AcDbEntity
  8
RACCORDO
100
AcDbLine
 62
253
  6
CONTINUOUS
 10
-80.8886065699
 20
24.4069874303
 11
-80.9013576915
 21
24.117862107
  0
LINE
  5
5A0
100
AcDbEntity
  8
RACCORDO
100
AcDbLine
 62
253
  6
CONTINUOUS
 10
-80.7452148997
 20
24.6800816904
 11
-80.7712304767
 21
24.1023762134
  0
LWPOLYLINE
  5
5A1
100
AcDbEntity
  8
DRAFT
100
AcDbPolyline
 62
7
  6
CONTINUOUS
 90
3
 70
0
 10
-79.8652978386
 20
41.4035062084
 10
-79.8779959778
 20
41.1179170905
 10
-79.8856432455
 20
40.9664050043
  0
LINE
  5
5A2
100
AcDbEntity
  8
0
100
AcDbLine
 62
7
  6
CONTINUOUS
 10
-80.4036793736
 20
25.0375050684
 11
-80.4470567748
 21
24.0972655083
  0
LINE
  5
5A3
100
AcDbEntity
  8
RACCORDO
100
AcDbLine
 62
253
  6
CONTINUOUS
 10
-80.7238962042
 20
25.1217202639
 11
-80.7452148997
 21
24.6800816904
  0
LINE
  5
5A4
100
AcDbEntity
  8
0
100
AcDbLine
 62
7
  6
CONTINUOUS
 10
-80.3593980191
 20
25.8992752286
 11
-80.4036793736
 21
25.0375050684
  0
LINE
  5
5A5
100
AcDbEntity
  8
RACCORDO
100
AcDbLine
 62
7
  6
CONTINUOUS
 10
-79.6231001698
 20
40.5007634743
 11
-79.6484909509
 21
40.0484011514
  0
LWPOLYLINE
  5
5A6
100
AcDbEntity
  8
0
100
AcDbPolyline
 62
7
  6
CONTINUOUS
 90
3
 70
0
 10
-79.420009852
 20
39.3649836579
 10
-79.4527340597
 20
38.7995460652
 10
-79.4719202505
 20
38.4955554477
  0
LWPOLYLINE
  5
5A7
100
AcDbEntity
  8
0
100
AcDbPolyline
 62
7
  6
CONTINUOUS
 90
3
 70
0
 10
-80.285033952
 20
27.1900627862
 10
-80.3108777718
 20
26.7600838858
 10
-80.3593980191
 20
25.8992752286
  0
LWPOLYLINE
  5
5A8
100
AcDbEntity
  8
RACCORDO
100
AcDbPolyline
 62
253
  6
CONTINUOUS
 90
11
 70
0
 10
-76.3767083802
 20
-4.3425865027
 10
-76.3781610799
 20
-4.3255105807
 10
-76.3804342149
 20
-4.3095631146
 10
-76.3835045675
 20
-4.2949069897
 10
-76.3873407778
 20
-4.2816919014
 10
-76.3919036632
 20
-4.270052827
 10
-76.3971466191
 20
-4.2601086463
 10
-76.4030160947
 20
-4.2519609279
 10
-76.40945214
 20
-4.2456928914
 10
-76.4163890182
 20
-4.2413685578
 10
-76.423755877
 20
-4.2390320953
  0
LWPOLYLINE
  5
5A9
100
AcDbEntity
  8
RACCORDO
100
AcDbPolyline
 62
253
  6
CONTINUOUS
 90
19
 70
0
 10
-78.34559925
 20
-3.7609060944
 10
-78.3444046259
 20
-3.7914242389
 10
-78.3409350117
 20
-3.8214704368
 10
-78.3351908792
 20
-3.8510441136
 10
-78.3271381903
 20
-3.8802969061
 10
-78.3168127539
 20
-3.9090760238
 10
-78.3043202425
 20
-3.936924324
 10
-78.2896288005
 20
-3.9638477789
 10
-78.2727737209
 20
-3.9898394673
 10
-78.2539616826
 20
-4.014423124
 10
-78.2331518085
 20
-4.0375924908
 10
-78.2103896456
 20
-4.0593532791
 10
-78.186011362
 20
-4.0792475214
 10
-78.1599772537
 20
-4.0972501805
 10
-78.1323321353
 20
-4.1133863242
 10
-78.1035381572
 20
-4.1272735667
 10
-78.0737505403
 20
-4.1387847515
 10
-78.0428183287
 20
-4.148047743
 10
-78.0107438526
 20
-4.155062938
  0
LINE
  5
5AA
100
AcDbEntity
  8
RACCORDO
100
AcDbLine
 62
253
  6
CONTINUOUS
 10
-76.3740382513
 20
-42.1057381943
 11
-76.3729863438
 21
-42.1626169861
  0
LINE
  5
5AB
100
AcDbEntity
  8
RACCORDO
100
AcDbLine
 62
253
  6
CONTINUOUS
 10
-76.3714343818
 20
-42.3388943444
 11
-76.3663793194
 21
-42.7634673174
  0
LINE
  5
5AC
100
AcDbEntity
  8
RACCORDO
100
AcDbLine
 62
253
  6
CONTINUOUS
 10
-76.3788037699
 20
-41.7038669879
 11
-76.3740376232
 21
-42.1057377184
  0
LWPOLYLINE
  5
5AD
100
AcDbEntity
  8
RACCORDO
100
AcDbPolyline
 62
253
  6
CONTINUOUS
 90
9
 70
0
 10
-76.3663793194
 20
-42.7634673174
 10
-76.3661314042
 20
-42.7906377703
 10
-76.365744081
 20
-42.8129244013
 10
-76.3655323865
 20
-42.8308354731
 10
-76.3655110548
 20
-42.8447179417
 10
-76.365254325
 20
-42.8544961421
 10
-76.364840268
 20
-42.8607014953
 10
-76.3647207168
 20
-42.8641462908
 10
-76.3651257284
 20
-42.8654125297
  0
LINE
  5
5AE
100
AcDbEntity
  8
RACCORDO
100
AcDbLine
 62
253
  6
CONTINUOUS
 10
-76.3808396949
 20
-41.4489118029
 11
-76.3788037699
 21
-41.7038669879
  0
LINE
  5
5AF
100
AcDbEntity
  8
RACCORDO
100
AcDbLine
 62
253
  6
CONTINUOUS
 10
-76.3729863438
 20
-42.1626169861
 11
-76.3714343818
 21
-42.3388943444
  0
LINE
  5
5B0
100
AcDbEntity
  8
RACCORDO
100
AcDbLine
 62
253
  6
CONTINUOUS
 10
-76.3831816443
 20
8.1037581057
 11
-76.3819698812
 21
3.5856741042
  0
LINE
  5
5B1
100
AcDbEntity
  8
RACCORDO
100
AcDbLine
 62
7
  6
CONTINUOUS
 10
-78.1967419564
 20
-3.7585868868
 11
-78.1967419564
 21
2.9057732607
  0
LINE
  5
5B2
100
AcDbEntity
  8
RACCORDO
100
AcDbLine
 62
7
  6
CONTINUOUS
 10
-76.1967419564
 20
41.7430118702
 11
-76.1967419564
 21
3.5940670746
  0
LINE
  5
5B3
100
AcDbEntity
  8
RACCORDO
100
AcDbLine
 62
7
  6
CONTINUOUS
 10
-76.1967419564
 20
-4.4468807007
 11
-76.1967419564
 21
-42.5958254963
  0
LINE
  5
5B4
100
AcDbEntity
  8
RACCORDO
100
AcDbLine
 62
253
  6
CONTINUOUS
 10
-78.34559925
 20
-3.7609060944
 11
-78.3455992499
 21
2.908092469
  0
LINE
  5
5B5
100
AcDbEntity
  8
RACCORDO
100
AcDbLine
 62
253
  6
CONTINUOUS
 10
-76.3819699029
 20
-4.4384878061
 11
-76.3874046987
 21
-19.9712876693
  0
LINE
  5
5B6
100
AcDbEntity
  8
RACCORDO
100
AcDbLine
 62
253
  6
CONTINUOUS
 10
-76.3808802008
 20
-41.3641570321
 11
-76.3808396949
 21
-41.4489118029
  0
LINE
  5
5B7
100
AcDbEntity
  8
RACCORDO
100
AcDbLine
 62
253
  6
CONTINUOUS
 10
-76.3935877693
 20
-28.5179689011
 11
-76.3808802008
 21
-41.3641570321
  0
LINE
  5
5B8
100
AcDbEntity
  8
RACCORDO
100
AcDbLine
 62
253
  6
CONTINUOUS
 10
-76.3874046987
 20
-19.9712876693
 11
-76.3935877693
 21
-28.5179689011
  0
LINE
  5
5B9
100
AcDbEntity
  8
RACCORDO
100
AcDbLine
 62
253
  6
CONTINUOUS
 10
-76.380836565
 20
40.5965190029
 11
-76.3831816443
 21
8.1037581057
  0
LINE
  5
5BA
100
AcDbEntity
  8
RACCORDO
100
AcDbLine
 62
253
  6
CONTINUOUS
 10
-76.371435529
 20
41.4878612388
 11
-76.3723460381
 21
41.3682904122
  0
LWPOLYLINE
  5
5BB
100
AcDbEntity
  8
RACCORDO
100
AcDbPolyline
 62
253
  6
CONTINUOUS
 90
3
 70
0
 10
-76.3723460381
 20
41.3682904122
 10
-76.3729493633
 20
41.3098332243
 10
-76.3740382512
 20
41.2529245682
  0
LINE
  5
5BC
100
AcDbEntity
  8
RACCORDO
100
AcDbLine
 62
253
  6
CONTINUOUS
 10
-76.3780839321
 20
40.9242819658
 11
-76.380836565
 21
40.5965190029
  0
LWPOLYLINE
  5
5BD
100
AcDbEntity
  8
RACCORDO
100
AcDbPolyline
 62
253
  6
CONTINUOUS
 90
3
 70
0
 10
-76.3660934194
 20
41.9394452704
 10
-76.366661254
 20
41.8822013247
 10
-76.371435529
 20
41.4878612388
  0
LINE
  5
5BE
100
AcDbEntity
  8
RACCORDO
100
AcDbLine
 62
253
  6
CONTINUOUS
 10
-76.3740376232
 20
41.2529240923
 11
-76.3780839321
 21
40.9242819658
  0
LINE
  5
5BF
100
AcDbEntity
  8
RACCORDO
100
AcDbLine
 62
253
  6
CONTINUOUS
 10
-76.3655120523
 20
41.9785386658
 11
-76.3660934194
 21
41.9394452704
  0
LWPOLYLINE
  5
5C0
100
AcDbEntity
  8
RACCORDO
100
AcDbPolyline
 62
253
  6
CONTINUOUS
 90
11
 70
0
 10
-76.3767060774
 20
3.4897710496
 10
-76.378158922
 20
3.4726949229
 10
-76.3804322315
 20
3.4567473237
 10
-76.3835027858
 20
3.4420911453
 10
-76.3873392213
 20
3.4288760898
 10
-76.3919023516
 20
3.4172371395
 10
-76.3971455676
 20
3.4072931778
 10
-76.4030153137
 20
3.3991457751
 10
-76.4094516345
 20
3.3928781512
 10
-76.4163887879
 20
3.3885543254
 10
-76.4237559157
 20
3.3862184624
  0
LWPOLYLINE
  5
5C1
100
AcDbEntity
  8
RACCORDO
100
AcDbPolyline
 62
253
  6
CONTINUOUS
 90
6
 70
0
 10
-76.3819713909
 20
-4.438487551
 10
-76.3792704168
 20
-4.4185517284
 10
-76.3773785472
 20
-4.3987940527
 10
-76.3763151054
 20
-4.379416326
 10
-76.3760909532
 20
-4.3606164697
 10
-76.3767083802
 20
-4.3425865027
  0
LWPOLYLINE
  5
5C2
100
AcDbEntity
  8
RACCORDO
100
AcDbPolyline
 62
253
  6
CONTINUOUS
 90
16
 70
0
 10
-78.0108003836
 20
-4.1553517537
 10
-78.0077154184
 20
-4.1350632536
 10
-78.005253828
 20
-4.1149914292
 10
-78.0034386101
 20
-4.0953469831
 10
-78.0022862056
 20
-4.076344391
 10
-78.0018043779
 20
-4.0581690151
 10
-78.001995791
 20
-4.0409799082
 10
-78.0028590863
 20
-4.0249485492
 10
-78.0043853092
 20
-4.0102522004
 10
-78.006558487
 20
-3.9970446884
 10
-78.0093558737
 20
-3.9854642505
 10
-78.0127481944
 20
-3.9756320759
 10
-78.0166999524
 20
-3.9676510584
 10
-78.0211697939
 20
-3.9616047333
 10
-78.0261109392
 20
-3.9575563947
 10
-78.0314716767
 20
-3.9555484225
  0
LWPOLYLINE
  5
5C3
100
AcDbEntity
  8
RACCORDO
100
AcDbPolyline
 62
253
  6
CONTINUOUS
 90
8
 70
0
 10
-76.1967419564
 20
-4.446880711
 10
-76.1969380602
 20
-4.4469700588
 10
-76.1975478555
 20
-4.4470340074
 10
-76.1986039405
 20
-4.4470723202
 10
-76.2001423871
 20
-4.4470862377
 10
-76.2021942434
 20
-4.4470739356
 10
-76.204776456
 20
-4.447030544
 10
-76.2079127977
 20
-4.4469549002
  0
LWPOLYLINE
  5
5C4
100
AcDbEntity
  8
RACCORDO
100
AcDbPolyline
 62
253
  6
CONTINUOUS
 90
6
 70
0
 10
-76.3819688623
 20
3.5856738392
 10
-76.3792678655
 20
3.5657376105
 10
-76.3773760069
 20
3.5459795456
 10
-76.3763126104
 20
3.5266014589
 10
-76.3760885376
 20
3.5078012835
 10
-76.3767060774
 20
3.4897710496
  0
LINE
  5
5C5
100
AcDbEntity
  8
RACCORDO
100
AcDbLine
 62
253
  6
CONTINUOUS
 10
-76.1967419564
 20
40.3411176319
 11
-76.1981751497
 21
40.3719698016
  0
LWPOLYLINE
  5
5C6
100
AcDbEntity
  8
RACCORDO
100
AcDbPolyline
 62
253
  6
CONTINUOUS
 90
5
 70
0
 10
-76.1967419564
 20
40.7120621766
 10
-76.1981461328
 20
40.7410173959
 10
-76.2023460011
 20
40.7697015377
 10
-76.2093022389
 20
40.7978460392
 10
-76.2189497161
 20
40.8251873899
  0
LWPOLYLINE
  5
5C7
100
AcDbEntity
  8
RACCORDO
100
AcDbPolyline
 62
253
  6
CONTINUOUS
 90
13
 70
0
 10
-76.1967419564
 20
40.9794548266
 10
-76.1981171345
 20
41.0081160872
 10
-76.2022300425
 20
41.036514587
 10
-76.2090429742
 20
41.064389975
 10
-76.2184934699
 20
41.091486696
 10
-76.2304948896
 20
41.1175563334
 10
-76.2449372067
 20
41.1423598868
 10
-76.261688017
 20
41.165669963
 10
-76.2805937527
 20
41.1872728605
 10
-76.3014810899
 20
41.2069705291
 10
-76.3241585379
 20
41.2245823851
 10
-76.3484181946
 20
41.2399469673
 10
-76.3740376525
 20
41.252923417
  0
LWPOLYLINE
  5
5C8
100
AcDbEntity
  8
RACCORDO
100
AcDbPolyline
 62
253
  6
CONTINUOUS
 90
13
 70
0
 10
-76.1967419564
 20
-41.8322684527
 10
-76.1981171224
 20
-41.8609299596
 10
-76.2022300323
 20
-41.8893287029
 10
-76.2090429794
 20
-41.917204327
 10
-76.2184935038
 20
-41.9443012722
 10
-76.2304949647
 20
-41.9703711175
 10
-76.2449373345
 20
-41.9951748585
 10
-76.2616882081
 20
-42.0184850978
 10
-76.2805940161
 20
-42.0400881306
 10
-76.3014814331
 20
-42.0597859031
 10
-76.3241589667
 20
-42.077397829
 10
-76.3484187131
 20
-42.0927624444
 10
-76.3740382628
 20
-42.1057388885
  0
LWPOLYLINE
  5
5C9
100
AcDbEntity
  8
RACCORDO
100
AcDbPolyline
 62
253
  6
CONTINUOUS
 90
5
 70
0
 10
-76.1967419564
 20
-41.5640431286
 10
-76.198146454
 20
-41.5929990824
 10
-76.202346795
 20
-41.6216839135
 10
-76.2093036503
 20
-41.6498290376
 10
-76.2189518808
 20
-41.6771709241
  0
LINE
  5
5CA
100
AcDbEntity
  8
RACCORDO
100
AcDbLine
 62
253
  6
CONTINUOUS
 10
-76.1967419564
 20
-41.193931258
 11
-76.1981759291
 21
-41.2247837393
  0
LINE
  5
5CB
100
AcDbEntity
  8
RACCORDO
100
AcDbLine
 62
7
  6
CONTINUOUS
 10
-85.1927123175
 20
23.0630400692
 11
-84.8189740933
 21
22.5292865693
  0
LINE
  5
5CC
100
AcDbEntity
  8
RACCORDO
100
AcDbLine
 62
253
  6
CONTINUOUS
 10
-85.3185066424
 20
23.4980439502
 11
-84.8310010552
 21
22.801271408
  0
LWPOLYLINE
  5
5CD
100
AcDbEntity
  8
RACCORDO
100
AcDbPolyline
 62
253
  6
CONTINUOUS
 90
16
 70
0
 10
-84.8310010552
 20
22.801271408
 10
-84.8297879459
 20
22.7989183571
 10
-84.8286318484
 20
22.7954423363
 10
-84.8275327636
 20
22.7908433445
 10
-84.8264903536
 20
22.7851153932
 10
-84.8255049334
 20
22.7782644677
 10
-84.8245774795
 20
22.770308527
 10
-84.8237079956
 20
22.7612454732
 10
-84.8228964259
 20
22.7510773988
 10
-84.8221436628
 20
22.7398285486
 10
-84.8214497207
 20
22.7274995103
 10
-84.8208145069
 20
22.7140896889
 10
-84.8202387587
 20
22.6996215543
 10
-84.8197222208
 20
22.6840974906
 10
-84.819265043
 20
22.6675151049
 10
-84.818868577
 20
22.6498897002
  0
LWPOLYLINE
  5
5CE
100
AcDbEntity
  8
0
100
AcDbPolyline
 62
7
  6
CONTINUOUS
 90
13
 70
0
 10
-79.4082979555
 20
41.4550249925
 10
-79.396096292
 20
41.3710698974
 10
-79.3864215798
 20
41.2701726708
 10
-79.3792237398
 20
41.1521756322
 10
-79.3744338807
 20
41.0172509983
 10
-79.3720253363
 20
40.8659051681
 10
-79.37201317
 20
40.6984268753
 10
-79.3744364613
 20
40.5148485613
 10
-79.3792539804
 20
40.3154625828
 10
-79.3863262333
 20
40.100694424
 10
-79.3955042107
 20
39.8707510213
 10
-79.4067253697
 20
39.6255369539
 10
-79.420009852
 20
39.3649836579
  0
LINE
  5
5CF
100
AcDbEntity
  8
RACCORDO
100
AcDbLine
 62
253
  6
CONTINUOUS
 10
-76.1981756215
 20
-41.2230796334
 11
-76.2024633257
 21
-41.253654053
  0
LINE
  5
5D0
100
AcDbEntity
  8
0
100
AcDbLine
 62
7
  6
CONTINUOUS
 10
-79.4082979555
 20
-42.3078386186
 11
-79.4204426445
 21
-42.3652564863
  0
LINE
  5
5D1
100
AcDbEntity
  8
SUPERFICI
100
AcDbLine
 62
7
  6
CONTINUOUS
 10
-79.6345801947
 20
-43.2149253658
 11
-79.4204434184
 21
-42.3652562913
  0
LINE
  5
5D2
100
AcDbEntity
  8
RACCORDO
100
AcDbLine
 62
7
  6
CONTINUOUS
 10
-79.6345786803
 20
-43.2149193565
 11
-79.6375480865
 21
-43.2263303772
  0
LWPOLYLINE
  5
5D3
100
AcDbEntity
  8
DRAFT
100
AcDbPolyline
 62
7
  6
CONTINUOUS
 90
6
 70
0
 10
-79.8992712022
 20
-43.6664068131
 10
-79.916215926
 20
-43.7287004734
 10
-79.9331278726
 20
-43.788015515
 10
-79.9500100818
 20
-43.8443526295
 10
-79.9668658928
 20
-43.8977136422
 10
-79.9836974376
 20
-43.9480980142
  0
LWPOLYLINE
  5
5D4
100
AcDbEntity
  8
RACCORDO
100
AcDbPolyline
 62
253
  6
CONTINUOUS
 90
6
 70
0
 10
-79.756504111
 20
-43.3342858761
 10
-79.7734975383
 20
-43.3962873288
 10
-79.790456073
 20
-43.4553347028
 10
-79.8073820728
 20
-43.5114259917
 10
-79.824278148
 20
-43.5645602092
 10
-79.8411460583
 20
-43.6147346728
  0
LWPOLYLINE
  5
5D5
100
AcDbEntity
  8
RACCORDO
100
AcDbPolyline
 62
253
  6
CONTINUOUS
 90
10
 70
0
 10
-81.9487628046
 20
-43.488332404
 10
-81.9658404178
 20
-43.5504967747
 10
-81.982874228
 20
-43.6096944538
 10
-81.9998666286
 20
-43.6659241035
 10
-82.0168203399
 20
-43.7191854163
 10
-82.0337370741
 20
-43.769476368
 10
-82.0506177163
 20
-43.8167935412
 10
-82.067463841
 20
-43.8611357602
 10
-82.0842774535
 20
-43.9025035395
 10
-82.1010600887
 20
-43.9408964944
  0
LWPOLYLINE
  5
5D6
100
AcDbEntity
  8
RACCORDO
100
AcDbPolyline
 62
253
  6
CONTINUOUS
 90
10
 70
0
 10
-82.2175216132
 20
-43.2444273693
 10
-82.2345922956
 20
-43.3065410012
 10
-82.2516190372
 20
-43.3656865747
 10
-82.2686047433
 20
-43.4218647442
 10
-82.2855529796
 20
-43.4750783373
 10
-82.3024653736
 20
-43.5253257431
 10
-82.3193418906
 20
-43.5726009123
 10
-82.3361841684
 20
-43.6169021732
 10
-82.3529952411
 20
-43.6582322293
 10
-82.3697771341
 20
-43.696591548
  0
LINE
  5
5D7
100
AcDbEntity
  8
RACCORDO
100
AcDbLine
 62
253
  6
CONTINUOUS
 10
-84.8310010552
 20
-23.6540850341
 11
-85.3184949282
 21
-24.3508408383
  0
LINE
  5
5D8
100
AcDbEntity
  8
RACCORDO
100
AcDbLine
 62
7
  6
CONTINUOUS
 10
-85.1927123175
 20
-23.9158536953
 11
-84.818973965
 21
-23.3821000122
  0
LWPOLYLINE
  5
5D9
100
AcDbEntity
  8
RACCORDO
100
AcDbPolyline
 62
7
  6
CONTINUOUS
 90
3
 70
0
 10
-79.637548355
 20
42.3735177508
 10
-79.6527681957
 20
42.4290606781
 10
-79.6704696082
 20
42.4908997412
  0
LWPOLYLINE
  5
5DA
100
AcDbEntity
  8
RACCORDO
100
AcDbPolyline
 62
253
  6
CONTINUOUS
 90
20
 70
0
 10
-82.2175216132
 20
42.3916137432
 10
-82.2137149989
 20
42.377306214
 10
-82.2098961811
 20
42.3606322776
 10
-82.2060586575
 20
42.3415917854
 10
-82.2021422234
 20
42.3202845919
 10
-82.1981923598
 20
42.2966104886
 10
-82.1943619887
 20
42.2702691742
 10
-82.1906549243
 20
42.2412101628
 10
-82.1870537183
 20
42.2094833838
 10
-82.1836822181
 20
42.1749390742
 10
-82.1805479776
 20
42.1374912339
 10
-82.1776314735
 20
42.0972251013
 10
-82.1750194668
 20
42.0542477266
 10
-82.1727235464
 20
42.0082286756
 10
-82.1707225124
 20
41.959497457
 10
-82.1690615066
 20
41.9091512112
 10
-82.167779447
 20
41.8567482644
 10
-82.1668382894
 20
41.8027296348
 10
-82.1661824846
 20
41.749517165
 10
-82.1658455934
 20
41.69791186
  0
LINE
  5
5DB
100
AcDbEntity
  8
RACCORDO
100
AcDbLine
 62
7
  6
CONTINUOUS
 10
-79.6375482818
 20
42.3735177704
 11
-79.6345786941
 21
42.3621057851
  0
LINE
  5
5DC
100
AcDbEntity
  8
SUPERFICI
100
AcDbLine
 62
7
  6
CONTINUOUS
 10
-79.4204434184
 20
41.5124426652
 11
-79.6345802193
 21
42.3621118373
  0
LWPOLYLINE
  5
5DD
100
AcDbEntity
  8
RACCORDO
100
AcDbPolyline
 62
253
  6
CONTINUOUS
 90
21
 70
0
 10
-81.9487625358
 20
42.6355177824
 10
-81.9450184566
 20
42.6206262715
 10
-81.941184939
 20
42.6037507148
 10
-81.9372917726
 20
42.5846925201
 10
-81.9333547663
 20
42.5631370151
 10
-81.9294256726
 20
42.538946666
 10
-81.9255820892
 20
42.5122280207
 10
-81.9218524466
 20
42.4827971184
 10
-81.9182655176
 20
42.450449799
 10
-81.9148823409
 20
42.4153749228
 10
-81.9117235739
 20
42.377425726
 10
-81.9088118562
 20
42.3364497731
 10
-81.9061914861
 20
42.2927627511
 10
-81.903863626
 20
42.2461241054
 10
-81.9018514224
 20
42.1966405563
 10
-81.9001978167
 20
42.1453897336
 10
-81.8988839595
 20
42.0922491846
 10
-81.8979073702
 20
42.037512413
 10
-81.8972779019
 20
41.9832560105
 10
-81.8969533181
 20
41.9306919181
 10
-81.896879603
 20
41.8792496205
  0
LWPOLYLINE
  5
5DE
100
AcDbEntity
  8
DRAFT
100
AcDbPolyline
 62
7
  6
CONTINUOUS
 90
17
 70
0
 10
-79.8992712022
 20
42.8135931869
 10
-79.8897002145
 20
42.772532339
 10
-79.8811524897
 20
42.7251014973
 10
-79.8736236099
 20
42.6712994723
 10
-79.8671079162
 20
42.6110930475
 10
-79.8615994321
 20
42.5445125908
 10
-79.8570927038
 20
42.4716520847
 10
-79.8535812885
 20
42.3924979105
 10
-79.8510564221
 20
42.3070599998
 10
-79.8495096309
 20
42.2154675149
 10
-79.8489312468
 20
42.1177361394
 10
-79.849312765
 20
42.0138457797
 10
-79.8506479085
 20
41.9038718137
 10
-79.8529303855
 20
41.787777128
 10
-79.8561446165
 20
41.6655937341
 10
-79.8602710389
 20
41.5375006383
 10
-79.8652978386
 20
41.4035062084
  0
LWPOLYLINE
  5
5DF
100
AcDbEntity
  8
RACCORDO
100
AcDbPolyline
 62
253
  6
CONTINUOUS
 90
15
 70
0
 10
-79.756504111
 20
42.48147225
 10
-79.7447654551
 20
42.4298539631
 10
-79.7341303923
 20
42.3650819823
 10
-79.7248312169
 20
42.2856809518
 10
-79.7170815017
 20
42.189618576
 10
-79.7111778966
 20
42.0756814503
 10
-79.7073861554
 20
41.9441680709
 10
-79.7058431523
 20
41.7926597381
 10
-79.7067516858
 20
41.6212783313
 10
-79.7100807845
 20
41.4366074183
 10
-79.7156119398
 20
41.2415202932
 10
-79.7232109036
 20
41.0351263863
 10
-79.7326112343
 20
40.8206785451
 10
-79.7436033488
 20
40.5993198998
 10
-79.7559829043
 20
40.3723616504
  0
LWPOLYLINE
  5
5E0
100
AcDbEntity
  8
RACCORDO
100
AcDbPolyline
 62
7
  6
CONTINUOUS
 90
14
 70
0
 10
-79.6345786941
 20
42.3621057851
 10
-79.6252470425
 20
42.3198850176
 10
-79.6146363414
 20
42.2555283155
 10
-79.6053561957
 20
42.1766975626
 10
-79.5976026868
 20
42.0812924904
 10
-79.5916630835
 20
41.9680442729
 10
-79.5878120032
 20
41.8372943556
 10
-79.5861906781
 20
41.6867011881
 10
-79.5869997982
 20
41.5163844572
 10
-79.59021094
 20
41.3328689151
 10
-79.5956058723
 20
41.1389962545
 10
-79.6030512405
 20
40.9338823209
 10
-79.6122854431
 20
40.720746116
 10
-79.6231001698
 20
40.5007634743
  0
LINE
  5
5E1
100
AcDbEntity
  8
0
100
AcDbLine
 62
7
  6
CONTINUOUS
 10
-79.4204426445
 20
41.5124428602
 11
-79.4082979555
 21
41.4550249925
  0
LINE
  5
5E2
100
AcDbEntity
  8
RACCORDO
100
AcDbLine
 62
253
  6
CONTINUOUS
 10
-76.1981756402
 20
40.3702674683
 11
-76.2024618455
 21
40.400839884
  0
LINE
  5
5E3
100
AcDbEntity
  8
RACCORDO
100
AcDbLine
 62
253
  6
CONTINUOUS
 10
-76.2024629101
 20
-41.2519494198
 11
-76.2095628453
 21
-41.2802646906
  0
LWPOLYLINE
  5
5E4
100
AcDbEntity
  8
RACCORDO
100
AcDbPolyline
 62
7
  6
CONTINUOUS
 90
3
 70
0
 10
-79.6702609417
 20
-43.3430017547
 10
-79.6525593871
 20
-43.2811270961
 10
-79.6375480865
 20
-43.2263303772
  0
LWPOLYLINE
  5
5E5
100
AcDbEntity
  8
RACCORDO
100
AcDbPolyline
 62
253
  6
CONTINUOUS
 90
3
 70
0
 10
-79.6375480865
 20
-43.2263303772
 10
-79.6428016306
 20
-43.242232419
 10
-79.6509207781
 20
-43.2594721382
  0
LWPOLYLINE
  5
5E6
100
AcDbEntity
  8
RACCORDO
100
AcDbPolyline
 62
253
  6
CONTINUOUS
 90
13
 70
0
 10
-76.1967419579
 20
-28.9397736508
 10
-76.1982965924
 20
-28.9442022446
 10
-76.2029381988
 20
-28.9485848308
 10
-76.2106187664
 20
-28.9528759695
 10
-76.2212588515
 20
-28.9570311674
 10
-76.2347483981
 20
-28.9610073378
 10
-76.2509478772
 20
-28.9647632467
 10
-76.2696897292
 20
-28.9682599363
 10
-76.2907800977
 20
-28.9714611342
 10
-76.3140008346
 20
-28.9743336288
 10
-76.3391117561
 20
-28.9768476049
 10
-76.3658531272
 20
-28.978976952
 10
-76.3939483483
 20
-28.9806995401
  0
LWPOLYLINE
  5
5E7
100
AcDbEntity
  8
DRAFT
100
AcDbPolyline
 62
7
  6
CONTINUOUS
 90
5
 70
0
 10
-79.9836974376
 20
-43.9480980142
 10
-80.0005057981
 20
-43.9955028426
 10
-80.0172929416
 20
-44.039927523
 10
-80.034061564
 20
-44.0813737489
 10
-80.0508136922
 20
-44.119842014
  0
LWPOLYLINE
  5
5E8
100
AcDbEntity
  8
RACCORDO
100
AcDbPolyline
 62
253
  6
CONTINUOUS
 90
6
 70
0
 10
-76.1967419564
 20
-28.8924371721
 10
-76.1982935615
 20
-28.8967928873
 10
-76.2029323074
 20
-28.9011036217
 10
-76.2106102111
 20
-28.9053248504
 10
-76.2212478526
 20
-28.9094129743
 10
-76.2347351965
 20
-28.9133257709
  0
LWPOLYLINE
  5
5E9
100
AcDbEntity
  8
RACCORDO
100
AcDbPolyline
 62
253
  6
CONTINUOUS
 90
4
 70
0
 10
-79.8411460583
 20
-43.6147346728
 10
-79.8579868927
 20
-43.6619453186
 10
-79.8748022779
 20
-43.7061902993
 10
-79.8915941202
 20
-43.7474694416
  0
LINE
  5
5EA
100
AcDbEntity
  8
RACCORDO
100
AcDbLine
 62
253
  6
CONTINUOUS
 10
-82.7819980165
 20
-44.7511584248
 11
-82.8023343791
 21
-44.8060410208
  0
LINE
  5
5EB
100
AcDbEntity
  8
DRAFT
100
AcDbLine
 62
7
  6
CONTINUOUS
 10
-80.4310760776
 20
-45.0979452565
 11
-80.5527408716
 21
-45.426409655
  0
LINE
  5
5EC
100
AcDbEntity
  8
RACCORDO
100
AcDbLine
 62
253
  6
CONTINUOUS
 10
-82.5932277011
 20
-45.2069250425
 11
-82.6080350183
 21
-45.2465059588
  0
LINE
  5
5ED
100
AcDbEntity
  8
RACCORDO
100
AcDbLine
 62
253
  6
CONTINUOUS
 10
-82.8617111721
 20
-44.9645620941
 11
-82.8765090035
 21
-45.0042040302
  0
LINE
  5
5EE
100
AcDbEntity
  8
RACCORDO
100
AcDbLine
 62
253
  6
CONTINUOUS
 10
-82.7362557544
 20
-44.6300086575
 11
-82.7819980165
 21
-44.7511584248
  0
LWPOLYLINE
  5
5EF
100
AcDbEntity
  8
RACCORDO
100
AcDbPolyline
 62
253
  6
CONTINUOUS
 90
3
 70
0
 10
-82.602405119
 20
-44.2743362898
 10
-82.685601367
 20
-44.4949072653
 10
-82.7362557544
 20
-44.6300086575
  0
LINE
  5
5F0
100
AcDbEntity
  8
RACCORDO
100
AcDbLine
 62
253
  6
CONTINUOUS
 10
-82.3044727891
 20
-44.4404721315
 11
-82.5932277011
 21
-45.2069250425
  0
LWPOLYLINE
  5
5F1
100
AcDbEntity
  8
RACCORDO
100
AcDbPolyline
 62
253
  6
CONTINUOUS
 90
3
 70
0
 10
-82.5110644585
 20
-44.0331204862
 10
-82.5730424346
 20
-44.1974122449
 10
-82.602405119
 20
-44.2743362898
  0
LWPOLYLINE
  5
5F2
100
AcDbEntity
  8
RACCORDO
100
AcDbPolyline
 62
253
  6
CONTINUOUS
 90
3
 70
0
 10
-82.8023343791
 20
-44.8060410208
 10
-82.8371264086
 20
-44.8980573266
 10
-82.8617111721
 20
-44.9645620941
  0
LINE
  5
5F3
100
AcDbEntity
  8
RACCORDO
100
AcDbLine
 62
253
  6
CONTINUOUS
 10
-82.2423649763
 20
-44.2769165219
 11
-82.3044727891
 21
-44.4404721315
  0
LWPOLYLINE
  5
5F4
100
AcDbEntity
  8
RACCORDO
100
AcDbPolyline
 62
253
  6
CONTINUOUS
 90
13
 70
0
 10
-76.1967419564
 20
-24.2869675284
 10
-76.198265846
 20
-24.2895083013
 10
-76.2028220334
 20
-24.2920232619
 10
-76.210364231
 20
-24.29448686
 10
-76.2208158156
 20
-24.2968740674
 10
-76.2340706068
 20
-24.2991606317
 10
-76.2499939457
 20
-24.3013233231
 10
-76.2684240629
 20
-24.3033401703
 10
-76.289173722
 20
-24.3051906837
 10
-76.3120321216
 20
-24.3068560626
 10
-76.3367670373
 20
-24.308319388
 10
-76.3631271804
 20
-24.3095657936
 10
-76.3908447514
 20
-24.310582617
  0
LWPOLYLINE
  5
5F5
100
AcDbEntity
  8
RACCORDO
100
AcDbPolyline
 62
253
  6
CONTINUOUS
 90
13
 70
0
 10
-76.1967419564
 20
23.4348192639
 10
-76.1982660882
 20
23.4372887332
 10
-76.2028229951
 20
23.4397331107
 10
-76.2103663747
 20
23.4421275594
 10
-76.2208195799
 20
23.4444477496
 10
-76.2340763968
 20
23.4466701062
 10
-76.2500021248
 20
23.448772048
 10
-76.2684349444
 20
23.4507322174
 10
-76.2891875623
 20
23.4525306976
 10
-76.3120491137
 20
23.4541492141
 10
-76.3367873053
 20
23.4555713215
 10
-76.3631507756
 20
23.4567825699
 10
-76.3908716486
 20
23.457770652
  0
LWPOLYLINE
  5
5F6
100
AcDbEntity
  8
RACCORDO
100
AcDbPolyline
 62
253
  6
CONTINUOUS
 90
6
 70
0
 10
-76.1967419566
 20
24.3045740251
 10
-76.1982700905
 20
24.3071487187
 10
-76.2028413186
 20
24.309697224
 10
-76.2104090346
 20
24.3121936086
 10
-76.2208960813
 20
24.314612471
 10
-76.2341955372
 20
24.3169292005
  0
LWPOLYLINE
  5
5F7
100
AcDbEntity
  8
RACCORDO
100
AcDbPolyline
 62
253
  6
CONTINUOUS
 90
6
 70
0
 10
-76.1967419564
 20
24.273964038
 10
-76.1982709753
 20
24.2765482644
 10
-76.2028424385
 20
24.279106103
 10
-76.2104097471
 20
24.2816114352
 10
-76.2208957642
 20
24.284038678
 10
-76.2341936013
 20
24.2863630442
  0
LWPOLYLINE
  5
5F8
100
AcDbEntity
  8
RACCORDO
100
AcDbPolyline
 62
253
  6
CONTINUOUS
 90
10
 70
0
 10
-82.3697771341
 20
42.8437779219
 10
-82.3529952405
 20
42.8054186015
 10
-82.3361841673
 20
42.7640885441
 10
-82.3193418892
 20
42.7197872824
 10
-82.302465372
 20
42.6725121126
 10
-82.2855529782
 20
42.6222647067
 10
-82.268604742
 20
42.5690511139
 10
-82.2516190361
 20
42.5128729454
 10
-82.234592295
 20
42.4537273732
 10
-82.2175216132
 20
42.3916137432
  0
LWPOLYLINE
  5
5F9
100
AcDbEntity
  8
RACCORDO
100
AcDbPolyline
 62
253
  6
CONTINUOUS
 90
10
 70
0
 10
-82.1010600883
 20
43.0880828674
 10
-82.084277459
 20
43.0496899264
 10
-82.0674638509
 20
43.0083221594
 10
-82.0506177292
 20
42.9639799503
 10
-82.0337370984
 20
42.9166628121
 10
-82.0168203742
 20
42.8663718949
 10
-81.9998666417
 20
42.8131105197
 10
-81.9828741788
 20
42.7568806607
 10
-81.9658402747
 20
42.6976826392
 10
-81.9487625359
 20
42.6355177766
  0
LWPOLYLINE
  5
5FA
100
AcDbEntity
  8
RACCORDO
100
AcDbPolyline
 62
253
  6
CONTINUOUS
 90
9
 70
0
 10
-82.2289314715
 20
43.389207585
 10
-82.2149314817
 20
43.3537013718
 10
-82.2003648709
 20
43.3175845567
 10
-82.1852314622
 20
43.2808573744
 10
-82.1695311702
 20
43.2435202726
 10
-82.153264008
 20
43.2055738861
 10
-82.1364299003
 20
43.1670186787
 10
-82.1190286476
 20
43.1278548979
 10
-82.1010600883
 20
43.0880828665
  0
LWPOLYLINE
  5
5FB
100
AcDbEntity
  8
RACCORDO
100
AcDbPolyline
 62
253
  6
CONTINUOUS
 90
9
 70
0
 10
-82.4976336437
 20
43.1453579716
 10
-82.483636044
 20
43.1097980788
 10
-82.4690716062
 20
43.0736270995
 10
-82.4539402919
 20
43.0368444222
 10
-82.4382420049
 20
42.9994504906
 10
-82.4219766155
 20
42.9614468035
 10
-82.4051440455
 20
42.9228338025
 10
-82.3877442445
 20
42.8836108717
 10
-82.3697771341
 20
42.8437779219
  0
LINE
  5
5FC
100
AcDbEntity
  8
RACCORDO
100
AcDbLine
 62
253
  6
CONTINUOUS
 10
-82.2748268423
 20
43.5095298052
 11
-82.2289314715
 21
43.389207585
  0
LINE
  5
5FD
100
AcDbEntity
  8
RACCORDO
100
AcDbLine
 62
253
  6
CONTINUOUS
 10
-82.5130905045
 20
43.1856470235
 11
-82.4976336437
 21
43.1453579716
  0
LINE
  5
5FE
100
AcDbEntity
  8
RACCORDO
100
AcDbLine
 62
253
  6
CONTINUOUS
 10
-82.5433951928
 20
43.2664508742
 11
-82.5130905045
 21
43.1856470235
  0
LWPOLYLINE
  5
5FF
100
AcDbEntity
  8
RACCORDO
100
AcDbPolyline
 62
253
  6
CONTINUOUS
 90
3
 70
0
 10
-82.7122003044
 20
43.7126770471
 10
-82.6314092584
 20
43.4982753214
 10
-82.5433951928
 20
43.2664508742
  0
LINE
  5
600
100
AcDbEntity
  8
RACCORDO
100
AcDbLine
 62
253
  6
CONTINUOUS
 10
-82.5845086276
 20
44.3308206379
 11
-82.2748268423
 21
43.5095298052
  0
LINE
  5
601
100
AcDbEntity
  8
RACCORDO
100
AcDbLine
 62
253
  6
CONTINUOUS
 10
-82.6080671344
 20
44.3937782803
 11
-82.5845086276
 21
44.3308206379
  0
LWPOLYLINE
  5
602
100
AcDbEntity
  8
RACCORDO
100
AcDbPolyline
 62
253
  6
CONTINUOUS
 90
8
 70
0
 10
-82.8752947041
 20
44.1480639549
 10
-82.8635952745
 20
44.1167947389
 10
-82.85307937
 20
44.0880086265
 10
-82.8393487719
 20
44.0509446104
 10
-82.8228073574
 20
44.0076535028
 10
-82.8041195683
 20
43.9579923666
 10
-82.7834441033
 20
43.9021017979
 10
-82.7370565056
 20
43.7794450163
  0
LINE
  5
603
100
AcDbEntity
  8
RACCORDO
100
AcDbLine
 62
253
  6
CONTINUOUS
 10
-80.3588318579
 20
44.0926845055
 11
-80.0557965227
 21
43.2857563045
  0
LINE
  5
604
100
AcDbEntity
  8
RACCORDO
100
AcDbLine
 62
7
  6
CONTINUOUS
 10
-80.0120768727
 20
43.3770711568
 11
-80.2995485509
 21
44.1430363715
  0
LINE
  5
605
100
AcDbEntity
  8
RACCORDO
100
AcDbLine
 62
253
  6
CONTINUOUS
 10
-82.7370565056
 20
43.7794450163
 11
-82.7122003044
 21
43.7126770471
  0
LINE
  5
606
100
AcDbEntity
  8
RACCORDO
100
AcDbLine
 62
253
  6
CONTINUOUS
 10
-80.4125817278
 20
44.2370154776
 11
-80.3588318579
 21
44.0926845055
  0
LINE
  5
607
100
AcDbEntity
  8
DRAFT
100
AcDbLine
 62
7
  6
CONTINUOUS
 10
-80.5527408716
 20
44.5735960288
 11
-80.1932716247
 21
43.6085931525
  0
LINE
  5
608
100
AcDbEntity
  8
RACCORDO
100
AcDbLine
 62
253
  6
CONTINUOUS
 10
-82.87654307
 20
44.151466362
 11
-82.8752947041
 21
44.1480639549
  0
LWPOLYLINE
  5
609
100
AcDbEntity
  8
RACCORDO
100
AcDbPolyline
 62
253
  6
CONTINUOUS
 90
6
 70
0
 10
-76.1967419564
 20
28.039623546
 10
-76.1982934616
 20
28.0439992839
 10
-76.202931927
 20
28.0483296907
 10
-76.2106093754
 20
28.0525699102
 10
-76.221246396
 20
28.0566760189
 10
-76.2347329665
 20
28.0606054808
  0
LWPOLYLINE
  5
60A
100
AcDbEntity
  8
RACCORDO
100
AcDbPolyline
 62
253
  6
CONTINUOUS
 90
13
 70
0
 10
-76.1967419579
 20
28.0869600247
 10
-76.1982909324
 20
28.091355798
 10
-76.2029279938
 20
28.0957062571
 10
-76.2106051621
 20
28.0999664964
 10
-76.2212430015
 20
28.1040925435
 10
-76.2347314416
 20
28.1080418147
 10
-76.250930917
 20
28.1117735557
 10
-76.2696738109
 20
28.1152492603
 10
-76.2907661898
 20
28.1184330752
 10
-76.31398981
 20
28.1212921712
 10
-76.3391043758
 20
28.1237970748
 10
-76.3658500255
 20
28.1259219737
 10
-76.3939500206
 20
28.1276449892
  0
LWPOLYLINE
  5
60B
100
AcDbEntity
  8
RACCORDO
100
AcDbPolyline
 62
253
  6
CONTINUOUS
 90
6
 70
0
 10
-79.8411460583
 20
42.7619210467
 10
-79.824278148
 20
42.7117465831
 10
-79.8073820728
 20
42.6586123656
 10
-79.790456073
 20
42.6025210767
 10
-79.7734975383
 20
42.5434737026
 10
-79.756504111
 20
42.48147225
  0
LWPOLYLINE
  5
60C
100
AcDbEntity
  8
DRAFT
100
AcDbPolyline
 62
7
  6
CONTINUOUS
 90
6
 70
0
 10
-79.9836974376
 20
43.0952843881
 10
-79.9668658928
 20
43.0449000161
 10
-79.9500100818
 20
42.9915390034
 10
-79.9331278726
 20
42.9352018889
 10
-79.916215926
 20
42.8758868473
 10
-79.8992712022
 20
42.8135931869
  0
LWPOLYLINE
  5
60D
100
AcDbEntity
  8
RACCORDO
100
AcDbPolyline
 62
253
  6
CONTINUOUS
 90
3
 70
0
 10
-79.6375482818
 20
42.3735177704
 10
-79.6428015879
 20
42.3894187841
 10
-79.6509207661
 20
42.4066584717
  0
LINE
  5
60E
100
AcDbEntity
  8
RACCORDO
100
AcDbLine
 62
7
  6
CONTINUOUS
 10
-80.2938664952
 20
44.1247465585
 11
-80.2995485283
 21
44.1430363123
  0
LWPOLYLINE
  5
60F
100
AcDbEntity
  8
RACCORDO
100
AcDbPolyline
 62
7
  6
CONTINUOUS
 90
8
 70
0
 10
-79.6704696082
 20
42.4908997412
 10
-79.6883448439
 20
42.5503173075
 10
-79.706388862
 20
42.6071956171
 10
-79.7246301602
 20
42.6615222153
 10
-79.7431403066
 20
42.7133867867
 10
-79.7619651629
 20
42.7627692509
 10
-79.7811149764
 20
42.8095421775
 10
-79.7979319618
 20
42.8477621541
  0
LWPOLYLINE
  5
610
100
AcDbEntity
  8
RACCORDO
100
AcDbPolyline
 62
253
  6
CONTINUOUS
 90
6
 70
0
 10
-76.3651257284
 20
42.0125989035
 10
-76.3647663822
 20
42.0113413178
 10
-76.364877951
 20
42.0078811407
 10
-76.3652541592
 20
42.0016965764
 10
-76.3654843342
 20
41.9920721576
 10
-76.3655120523
 20
41.9785386658
  0
LWPOLYLINE
  5
611
100
AcDbEntity
  8
RACCORDO
100
AcDbPolyline
 62
253
  6
CONTINUOUS
 90
4
 70
0
 10
-76.2024618455
 20
40.400839884
 10
-76.2095610745
 20
40.4291555066
 10
-76.2194049869
 20
40.4566460498
 10
-76.2318995012
 20
40.4830487795
  0
LINE
  5
612
100
AcDbEntity
  8
RACCORDO
100
AcDbLine
 62
253
  6
CONTINUOUS
 10
-76.2095631712
 20
-41.2819698269
 11
-76.2194076117
 21
-41.3094604423
  0
LINE
  5
613
100
AcDbEntity
  8
DRAFT
100
AcDbLine
 62
7
  6
CONTINUOUS
 10
-80.1932716247
 20
-44.4614067786
 11
-80.4310760776
 21
-45.0979452565
  0
LINE
  5
614
100
AcDbEntity
  8
RACCORDO
100
AcDbLine
 62
7
  6
CONTINUOUS
 10
-80.2995485291
 20
-44.995849938
 11
-80.0119632381
 21
-44.229584
  0
LWPOLYLINE
  5
615
100
AcDbEntity
  8
RACCORDO
100
AcDbPolyline
 62
253
  6
CONTINUOUS
 90
3
 70
0
 10
-80.0557965546
 20
-44.1385699652
 10
-80.0926654493
 20
-44.2361280513
 10
-80.4125817278
 20
-45.0898291037
  0
LWPOLYLINE
  5
616
100
AcDbEntity
  8
RACCORDO
100
AcDbPolyline
 62
7
  6
CONTINUOUS
 90
6
 70
0
 10
-80.0119632381
 20
-44.229584
 10
-79.92513101
 20
-44.0005554924
 10
-79.9111780881
 20
-43.9650114095
 10
-79.896588463
 20
-43.928721902
 10
-79.8813579898
 20
-43.8916833449
 10
-79.8654844094
 20
-43.8538965999
  0
LWPOLYLINE
  5
617
100
AcDbEntity
  8
RACCORDO
100
AcDbPolyline
 62
7
  6
CONTINUOUS
 90
4
 70
0
 10
-79.8654844094
 20
-43.8538965999
 10
-79.8489675
 20
-43.8153669406
 10
-79.8318053049
 20
-43.7760951289
 10
-79.813993956
 20
-43.7360774998
  0
LINE
  5
618
100
AcDbEntity
  8
RACCORDO
100
AcDbLine
 62
253
  6
CONTINUOUS
 10
-79.8915941202
 20
-43.7474694416
 11
-79.9083639338
 21
-43.7857816808
  0
LWPOLYLINE
  5
619
100
AcDbEntity
  8
RACCORDO
100
AcDbPolyline
 62
7
  6
CONTINUOUS
 90
8
 70
0
 10
-79.7979308298
 20
-43.7005732981
 10
-79.7808957669
 20
-43.6618400424
 10
-79.7617496031
 20
-43.6150365499
 10
-79.7429275132
 20
-43.5656228333
 10
-79.7244192809
 20
-43.5137260372
 10
-79.7061791861
 20
-43.4593662242
 10
-79.6881358797
 20
-43.4024539714
 10
-79.6702609417
 20
-43.3430017547
  0
LWPOLYLINE
  5
61A
100
AcDbEntity
  8
DRAFT
100
AcDbPolyline
 62
7
  6
CONTINUOUS
 90
10
 70
0
 10
-80.0508136922
 20
-44.119842014
 10
-80.0689890242
 20
-44.160316068
 10
-80.0865774917
 20
-44.2001597043
 10
-80.1035791771
 20
-44.2393730213
 10
-80.1199941203
 20
-44.2779566628
 10
-80.1358224161
 20
-44.3159101773
 10
-80.1510642365
 20
-44.3532320178
 10
-80.1657196909
 20
-44.3899217303
 10
-80.1797888031
 20
-44.4259799537
 10
-80.1932716247
 20
-44.4614067786
  0
LWPOLYLINE
  5
61B
100
AcDbEntity
  8
RACCORDO
100
AcDbPolyline
 62
253
  6
CONTINUOUS
 90
10
 70
0
 10
-82.3697771341
 20
-43.696591548
 10
-82.3877442448
 20
-43.7364244986
 10
-82.4051440461
 20
-43.77564743
 10
-82.4219766162
 20
-43.8142604312
 10
-82.4382420056
 20
-43.8522641182
 10
-82.4539402924
 20
-43.8896580496
 10
-82.4690716065
 20
-43.9264407265
 10
-82.4836360442
 20
-43.9626117055
 10
-82.4976336439
 20
-43.998171598
 10
-82.5110644585
 20
-44.0331204862
  0
LWPOLYLINE
  5
61C
100
AcDbEntity
  8
RACCORDO
100
AcDbPolyline
 62
253
  6
CONTINUOUS
 90
5
 70
0
 10
-79.9083639338
 20
-43.7857816808
 10
-79.926533883
 20
-43.8260394193
 10
-79.9441203187
 20
-43.8656732501
 10
-79.9611234005
 20
-43.9046828302
 10
-79.9775433031
 20
-43.9430678601
  0
LWPOLYLINE
  5
61D
100
AcDbEntity
  8
RACCORDO
100
AcDbPolyline
 62
253
  6
CONTINUOUS
 90
10
 70
0
 10
-82.1010600888
 20
-43.9408964935
 10
-82.119028648
 20
-43.9806685248
 10
-82.1364299007
 20
-44.0198323056
 10
-82.1532640083
 20
-44.058387513
 10
-82.1695311705
 20
-44.0963338994
 10
-82.1852314625
 20
-44.1336710011
 10
-82.2003648711
 20
-44.1703981834
 10
-82.2149314818
 20
-44.2065149983
 10
-82.2289314716
 20
-44.2420212114
 10
-82.2423649763
 20
-44.2769165219
  0
LINE
  5
61E
100
AcDbEntity
  8
RACCORDO
100
AcDbLine
 62
7
  6
CONTINUOUS
 10
-79.813993956
 20
-43.7360774998
 11
-79.7979179626
 21
-43.7005450735
  0
LWPOLYLINE
  5
61F
100
AcDbEntity
  8
RACCORDO
100
AcDbPolyline
 62
253
  6
CONTINUOUS
 90
3
 70
0
 10
-79.9369249554
 20
-44.0313229026
 10
-79.9454817099
 20
-44.0499325579
 10
-79.9557136938
 20
-44.0661202392
  0
LINE
  5
620
100
AcDbEntity
  8
RACCORDO
100
AcDbLine
 62
253
  6
CONTINUOUS
 10
-82.8765090035
 20
-45.0042040302
 11
-82.8765445557
 21
-45.0042722418
  0
LWPOLYLINE
  5
621
100
AcDbEntity
  8
RACCORDO
100
AcDbPolyline
 62
253
  6
CONTINUOUS
 90
6
 70
0
 10
-76.1967419566
 20
-25.1573876512
 10
-76.19827231
 20
-25.1599779922
 10
-76.2028453495
 20
-25.1625418603
 10
-76.2104144561
 20
-25.165053068
 10
-76.2209024683
 20
-25.1674859643
 10
-76.2342024682
 20
-25.1698156969
  0
LWPOLYLINE
  5
622
100
AcDbEntity
  8
RACCORDO
100
AcDbPolyline
 62
253
  6
CONTINUOUS
 90
6
 70
0
 10
-76.1967419564
 20
-25.1267776641
 10
-76.1982710163
 20
-25.1293478614
 10
-76.2028426074
 20
-25.1318919051
 10
-76.2104101279
 20
-25.1343839072
 10
-76.2208964366
 20
-25.1367985101
 10
-76.2341946391
 20
-25.1391111452
  0
LINE
  5
623
100
AcDbEntity
  8
RACCORDO
100
AcDbLine
 62
253
  6
CONTINUOUS
 10
-84.8518314761
 20
21.2849444541
 11
-84.8522220106
 21
21.2849083584
  0
LINE
  5
624
100
AcDbEntity
  8
RACCORDO
100
AcDbLine
 62
253
  6
CONTINUOUS
 10
-83.0655034069
 20
23.821594042
 11
-81.0913056374
 21
23.8383580755
  0
LINE
  5
625
100
AcDbEntity
  8
0
100
AcDbLine
 62
253
  6
CONTINUOUS
 10
-85.2968608737
 20
23.9456164294
 11
-84.7472240286
 21
23.9456164294
  0
LINE
  5
626
100
AcDbEntity
  8
RACCORDO
100
AcDbLine
 62
253
  6
CONTINUOUS
 10
-84.7472240286
 20
23.9456164294
 11
-83.3323359347
 21
23.9456164295
  0
LWPOLYLINE
  5
627
100
AcDbEntity
  8
RACCORDO
100
AcDbPolyline
 62
253
  6
CONTINUOUS
 90
16
 70
0
 10
-83.0655034058
 20
23.8215940408
 10
-83.0932214593
 20
23.8223554232
 10
-83.120470559
 20
23.8228483594
 10
-83.1470134698
 20
23.8230685577
 10
-83.1726191051
 20
23.8230141012
 10
-83.1970645381
 20
23.8226854639
 10
-83.2201369429
 20
23.822085507
 10
-83.2416354477
 20
23.8212194538
 10
-83.261372883
 20
23.8200948443
 10
-83.2791774115
 20
23.8187214695
 10
-83.2948940243
 20
23.8171112862
 10
-83.3083858899
 20
23.815278313
 10
-83.3195355462
 20
23.8132385081
 10
-83.3282459224
 20
23.8110096302
 10
-83.3344411847
 20
23.8086110843
 10
-83.338067396
 20
23.8060637526
  0
LWPOLYLINE
  5
628
100
AcDbEntity
  8
RACCORDO
100
AcDbPolyline
 62
253
  6
CONTINUOUS
 90
16
 70
0
 10
-83.0597754234
 20
23.9612544075
 10
-83.0874926564
 20
23.9620197134
 10
-83.1147409617
 20
23.9625148832
 10
-83.141283121
 20
23.962735606
 10
-83.1668880634
 20
23.9626799603
 10
-83.1913328772
 20
23.9623484304
 10
-83.2144047505
 20
23.9617439027
 10
-83.2359028243
 20
23.96087164
 10
-83.2556399404
 20
23.9597392361
 10
-83.2734442712
 20
23.9583565495
 10
-83.2891608159
 20
23.9567356175
 10
-83.3026527492
 20
23.9548905517
 10
-83.3138026129
 20
23.9528374149
 10
-83.3225133385
 20
23.9505940812
 10
-83.3287090921
 20
23.9481800808
 10
-83.3323359347
 20
23.9456164294
  0
LINE
  5
629
100
AcDbEntity
  8
RACCORDO
100
AcDbLine
 62
253
  6
CONTINUOUS
 10
-81.0913606906
 20
23.8372062399
 11
-80.9135436427
 21
23.8287072905
  0
LINE
  5
62A
100
AcDbEntity
  8
RACCORDO
100
AcDbLine
 62
253
  6
CONTINUOUS
 10
-79.5386297319
 20
23.6657989304
 11
-80.4630766408
 21
23.7142405294
  0
LINE
  5
62B
100
AcDbEntity
  8
RACCORDO
100
AcDbLine
 62
253
  6
CONTINUOUS
 10
-78.6225660135
 20
23.6123031422
 11
-79.5386297319
 21
23.6657989304
  0
LINE
  5
62C
100
AcDbEntity
  8
RACCORDO
100
AcDbLine
 62
253
  6
CONTINUOUS
 10
-77.7182188406
 20
23.553946849
 11
-78.6225660135
 21
23.6123031422
  0
LWPOLYLINE
  5
62D
100
AcDbEntity
  8
RACCORDO
100
AcDbPolyline
 62
253
  6
CONTINUOUS
 90
3
 70
0
 10
-76.3908447513
 20
23.4577688613
 10
-76.8288754869
 20
23.4909431735
 10
-77.7182188406
 20
23.553946849
  0
LWPOLYLINE
  5
62E
100
AcDbEntity
  8
RACCORDO
100
AcDbPolyline
 62
253
  6
CONTINUOUS
 90
3
 70
0
 10
-79.9369249545
 20
43.1785092924
 10
-79.9454816827
 20
43.197118877
 10
-79.9557136662
 20
43.2133065555
  0
LINE
  5
62F
100
AcDbEntity
  8
RACCORDO
100
AcDbLine
 62
7
  6
CONTINUOUS
 10
-79.7979179381
 20
42.8477313952
 11
-79.8141851509
 21
42.8836897054
  0
LWPOLYLINE
  5
630
100
AcDbEntity
  8
RACCORDO
100
AcDbPolyline
 62
7
  6
CONTINUOUS
 90
4
 70
0
 10
-79.8141851509
 20
42.8836897054
 10
-79.8319898576
 20
42.9236999565
 10
-79.8491454056
 20
42.9629643421
 10
-79.8656556657
 20
43.0014865298
  0
LINE
  5
631
100
AcDbEntity
  8
RACCORDO
100
AcDbLine
 62
253
  6
CONTINUOUS
 10
-79.9083639338
 20
42.9329680547
 11
-79.8915941202
 21
42.8946558155
  0
LWPOLYLINE
  5
632
100
AcDbEntity
  8
DRAFT
100
AcDbPolyline
 62
7
  6
CONTINUOUS
 90
5
 70
0
 10
-80.0508136922
 20
43.2670283879
 10
-80.034061564
 20
43.2285601228
 10
-80.0172929416
 20
43.1871138969
 10
-80.0005057981
 20
43.1426892164
 10
-79.9836974376
 20
43.0952843881
  0
LWPOLYLINE
  5
633
100
AcDbEntity
  8
RACCORDO
100
AcDbPolyline
 62
253
  6
CONTINUOUS
 90
5
 70
0
 10
-79.9775433031
 20
43.090254234
 10
-79.9611234005
 20
43.0518692041
 10
-79.9441203187
 20
43.0128596239
 10
-79.926533883
 20
42.9732257932
 10
-79.9083639338
 20
42.9329680547
  0
LWPOLYLINE
  5
634
100
AcDbEntity
  8
RACCORDO
100
AcDbPolyline
 62
7
  6
CONTINUOUS
 90
5
 70
0
 10
-79.8656556657
 20
43.0014865298
 10
-79.8815225957
 20
43.0392657577
 10
-79.8967464183
 20
43.0762967485
 10
-79.9113293947
 20
43.11257864
 10
-79.9252756727
 20
43.1481150599
  0
LWPOLYLINE
  5
635
100
AcDbEntity
  8
RACCORDO
100
AcDbPolyline
 62
253
  6
CONTINUOUS
 90
4
 70
0
 10
-79.8915941202
 20
42.8946558155
 10
-79.8748022779
 20
42.8533766732
 10
-79.8579868927
 20
42.8091316925
 10
-79.8411460583
 20
42.7619210467
  0
LWPOLYLINE
  5
636
100
AcDbEntity
  8
DRAFT
100
AcDbPolyline
 62
7
  6
CONTINUOUS
 90
10
 70
0
 10
-80.1932716247
 20
43.6085931525
 10
-80.1797888031
 20
43.5731663276
 10
-80.1657196909
 20
43.5371081042
 10
-80.1510642365
 20
43.5004183917
 10
-80.1358224161
 20
43.4630965512
 10
-80.1199941203
 20
43.4251430367
 10
-80.1035791771
 20
43.3865593952
 10
-80.0865774917
 20
43.3473460782
 10
-80.0689890242
 20
43.3075024418
 10
-80.0508136922
 20
43.2670283879
  0
LINE
  5
637
100
AcDbEntity
  8
RACCORDO
100
AcDbLine
 62
7
  6
CONTINUOUS
 10
-79.9252756727
 20
43.1481150599
 11
-80.0120768727
 21
43.3770711568
  0
LWPOLYLINE
  5
638
100
AcDbEntity
  8
RACCORDO
100
AcDbPolyline
 62
253
  6
CONTINUOUS
 90
4
 70
0
 10
-76.2189513375
 20
-41.6780010278
 10
-76.2312000172
 20
-41.7042831338
 10
-76.2459348801
 20
-41.7292599862
 10
-76.2630179685
 20
-41.7526977339
  0
LWPOLYLINE
  5
639
100
AcDbEntity
  8
RACCORDO
100
AcDbPolyline
 62
253
  6
CONTINUOUS
 90
5
 70
0
 10
-76.2194075677
 20
-41.3077548191
 10
-76.2319029838
 20
-41.3341570652
 10
-76.2469296655
 20
-41.3592190864
 10
-76.2643439916
 20
-41.3827013497
 10
-76.2839795201
 20
-41.4043794212
  0
LINE
  5
63A
100
AcDbEntity
  8
RACCORDO
100
AcDbLine
 62
253
  6
CONTINUOUS
 10
-79.7979308304
 20
-43.7005732978
 11
-79.8028491923
 21
-43.7103853232
  0
LINE
  5
63B
100
AcDbEntity
  8
RACCORDO
100
AcDbLine
 62
253
  6
CONTINUOUS
 10
-80.7452148997
 20
-25.5328953165
 11
-80.4256401739
 21
-25.4286417219
  0
LINE
  5
63C
100
AcDbEntity
  8
RACCORDO
100
AcDbLine
 62
253
  6
CONTINUOUS
 10
-80.7833910912
 20
-24.6662939719
 11
-80.463076725
 21
-24.5670538839
  0
LINE
  5
63D
100
AcDbEntity
  8
RACCORDO
100
AcDbLine
 62
253
  6
CONTINUOUS
 10
-81.0516076321
 20
24.7371620719
 11
-83.0266958279
 21
24.7190558253
  0
LWPOLYLINE
  5
63E
100
AcDbEntity
  8
RACCORDO
100
AcDbPolyline
 62
253
  6
CONTINUOUS
 90
16
 70
0
 10
-83.0266957306
 20
24.7190579311
 10
-83.0543966429
 20
24.7199491574
 10
-83.0816291178
 20
24.7205603163
 10
-83.1081562508
 20
24.7208860913
 10
-83.1337472731
 20
24.7209236483
 10
-83.1581795595
 20
24.7206726606
 10
-83.1812405652
 20
24.7201353116
 10
-83.2027296744
 20
24.7193162758
 10
-83.222459946
 20
24.7182226785
 10
-83.2402597396
 20
24.7168640331
 10
-83.2559742085
 20
24.7152521589
 10
-83.2694666471
 20
24.7134010783
 10
-83.2806196802
 20
24.7113268944
 10
-83.2893362835
 20
24.7090476513
 10
-83.2955406283
 20
24.7065831769
 10
-83.299178741
 20
24.7039549104
  0
LINE
  5
63F
100
AcDbEntity
  8
RACCORDO
100
AcDbLine
 62
253
  6
CONTINUOUS
 10
-81.0533046886
 20
24.7056805866
 11
-80.8752901598
 21
24.6960844473
  0
LINE
  5
640
100
AcDbEntity
  8
RACCORDO
100
AcDbLine
 62
253
  6
CONTINUOUS
 10
-79.5100446838
 20
24.522690614
 11
-80.4256401739
 21
24.5758280958
  0
LINE
  5
641
100
AcDbEntity
  8
RACCORDO
100
AcDbLine
 62
253
  6
CONTINUOUS
 10
-79.5089686401
 20
24.5532072521
 11
-80.4242260706
 21
24.606311517
  0
LINE
  5
642
100
AcDbEntity
  8
RACCORDO
100
AcDbLine
 62
253
  6
CONTINUOUS
 10
-78.6026756158
 20
24.4644455384
 11
-79.5100446838
 21
24.522690614
  0
LINE
  5
643
100
AcDbEntity
  8
RACCORDO
100
AcDbLine
 62
253
  6
CONTINUOUS
 10
-78.6019318874
 20
24.4949988995
 11
-79.5089686401
 21
24.5532072521
  0
LINE
  5
644
100
AcDbEntity
  8
RACCORDO
100
AcDbLine
 62
253
  6
CONTINUOUS
 10
-77.7063529611
 20
24.4318941377
 11
-78.6019318874
 21
24.4949988995
  0
LINE
  5
645
100
AcDbEntity
  8
RACCORDO
100
AcDbLine
 62
253
  6
CONTINUOUS
 10
-77.7067753195
 20
24.4013009887
 11
-78.6026756158
 21
24.4644455384
  0
LWPOLYLINE
  5
646
100
AcDbEntity
  8
RACCORDO
100
AcDbPolyline
 62
253
  6
CONTINUOUS
 90
3
 70
0
 10
-76.3914210958
 20
24.297896153
 10
-76.8255471628
 20
24.3334827915
 10
-77.7067753195
 20
24.4013009887
  0
LWPOLYLINE
  5
647
100
AcDbEntity
  8
RACCORDO
100
AcDbPolyline
 62
253
  6
CONTINUOUS
 90
3
 70
0
 10
-76.3914414359
 20
24.3285531284
 10
-76.8254254691
 20
24.3641180163
 10
-77.7063529611
 20
24.4318941377
  0
LWPOLYLINE
  5
648
100
AcDbEntity
  8
RACCORDO
100
AcDbPolyline
 62
253
  6
CONTINUOUS
 90
8
 70
0
 10
-76.2341955372
 20
24.3169292005
 10
-76.2501718065
 20
24.3191202276
 10
-76.2686620019
 20
24.321163264
 10
-76.289477605
 20
24.3230375309
 10
-76.3124063889
 20
24.324723971
 10
-76.3372145811
 20
24.3262054412
 10
-76.3636492478
 20
24.3274668875
 10
-76.3914408721
 20
24.3284954995
  0
LWPOLYLINE
  5
649
100
AcDbEntity
  8
RACCORDO
100
AcDbPolyline
 62
253
  6
CONTINUOUS
 90
8
 70
0
 10
-76.2341936013
 20
24.2863630442
 10
-76.2501677078
 20
24.2885607953
 10
-76.2686552526
 20
24.2906094835
 10
-76.2894677843
 20
24.2924881802
 10
-76.3123931515
 20
24.2941776901
 10
-76.3371976662
 20
24.295660746
 10
-76.3636284851
 20
24.2969221851
 10
-76.3914161874
 20
24.2979491041
  0
LWPOLYLINE
  5
64A
100
AcDbEntity
  8
RACCORDO
100
AcDbPolyline
 62
253
  6
CONTINUOUS
 90
10
 70
0
 10
-80.7833912348
 20
23.8134765461
 10
-80.7910462711
 20
23.8155353014
 10
-80.8008818487
 20
23.8175739512
 10
-80.8127370394
 20
23.8195597546
 10
-80.8264178755
 20
23.8214608356
 10
-80.8417005231
 20
23.8232467036
 10
-80.8583349435
 20
23.8248887531
 10
-80.8760489844
 20
23.8263607311
 10
-80.8945528313
 20
23.8276391667
 10
-80.9135437493
 20
23.8287037554
  0
LWPOLYLINE
  5
64B
100
AcDbEntity
  8
RACCORDO
100
AcDbPolyline
 62
253
  6
CONTINUOUS
 90
10
 70
0
 10
-80.7452148997
 20
24.6800816884
 10
-80.7528591736
 20
24.6822111533
 10
-80.762684097
 20
24.6843290868
 10
-80.7745289396
 20
24.6864008668
 10
-80.7881999271
 20
24.6883926263
 10
-80.8034734103
 20
24.6902718074
 10
-80.8200995246
 20
24.6920076939
 10
-80.837806277
 20
24.6935719137
 10
-80.8563039963
 20
24.6949389031
 10
-80.8752900714
 20
24.696086325
  0
LINE
  5
64C
100
AcDbEntity
  8
RACCORDO
100
AcDbLine
 62
253
  6
CONTINUOUS
 10
-80.7833910912
 20
23.8134803458
 11
-80.463076725
 21
23.7142402578
  0
LINE
  5
64D
100
AcDbEntity
  8
RACCORDO
100
AcDbLine
 62
253
  6
CONTINUOUS
 10
-80.7452148997
 20
24.6800816904
 11
-80.4256401739
 21
24.5758280958
  0
LINE
  5
64E
100
AcDbEntity
  8
RACCORDO
100
AcDbLine
 62
253
  6
CONTINUOUS
 10
-79.7979319618
 20
42.8477621541
 11
-79.8028491918
 21
42.8575716972
  0
LINE
  5
64F
100
AcDbEntity
  8
RACCORDO
100
AcDbLine
 62
253
  6
CONTINUOUS
 10
-76.218952075
 20
40.8243589384
 11
-76.231201446
 21
40.8506419267
  0
LWPOLYLINE
  5
650
100
AcDbEntity
  8
RACCORDO
100
AcDbPolyline
 62
253
  6
CONTINUOUS
 90
5
 70
0
 10
-79.8028491923
 20
-43.7103853232
 10
-79.8131046741
 20
-43.7265411896
 10
-79.8253446725
 20
-43.7412540031
 10
-79.8393689439
 20
-43.7542830659
 10
-79.8549480542
 20
-43.7654152261
  0
LWPOLYLINE
  5
651
100
AcDbEntity
  8
RACCORDO
100
AcDbPolyline
 62
253
  6
CONTINUOUS
 90
8
 70
0
 10
-79.6509207781
 20
-43.2594721382
 10
-79.6611911015
 20
-43.2755330201
 10
-79.673444582
 20
-43.2901523177
 10
-79.6874807564
 20
-43.3030908681
 10
-79.7030699971
 20
-43.314137005
 10
-79.7199572687
 20
-43.3231100217
 10
-79.7378663
 20
-43.3298631276
 10
-79.7565041042
 20
-43.3342858491
  0
LINE
  5
652
100
AcDbEntity
  8
RACCORDO
100
AcDbLine
 62
253
  6
CONTINUOUS
 10
-80.5131936912
 20
-29.4985854352
 11
-80.2012098434
 21
-29.3308166738
  0
LWPOLYLINE
  5
653
100
AcDbEntity
  8
RACCORDO
100
AcDbPolyline
 62
253
  6
CONTINUOUS
 90
10
 70
0
 10
-80.5131903415
 20
-29.4986337417
 10
-80.5207114595
 20
-29.5020713803
 10
-80.5304175596
 20
-29.5054745814
 10
-80.5421498523
 20
-29.5087877428
 10
-80.5557164014
 20
-29.5119567348
 10
-80.5708952635
 20
-29.5149297866
 10
-80.5874381189
 20
-29.5176583321
 10
-80.6050743343
 20
-29.5200978056
 10
-80.6235153895
 20
-29.52220837
 10
-80.6424595982
 20
-29.5239555689
  0
LINE
  5
654
100
AcDbEntity
  8
RACCORDO
100
AcDbLine
 62
253
  6
CONTINUOUS
 10
-80.8164318664
 20
28.7371620719
 11
-82.7982828475
 21
28.7074298139
  0
LWPOLYLINE
  5
655
100
AcDbEntity
  8
RACCORDO
100
AcDbPolyline
 62
253
  6
CONTINUOUS
 90
16
 70
0
 10
-82.7982828553
 20
28.7074296981
 10
-82.8258226604
 20
28.7086598592
 10
-82.8528997092
 20
28.7094378507
 10
-82.8792806066
 20
28.7097569666
 10
-82.9047379578
 20
28.7096144563
 10
-82.9290523288
 20
28.709011548
 10
-82.9520141376
 20
28.7079534387
 10
-82.9734254609
 20
28.7064492489
 10
-82.9931017401
 20
28.7045119443
 10
-83.0108733721
 20
28.7021582238
 10
-83.0265871713
 20
28.6994083757
 10
-83.0401076898
 20
28.6962861028
 10
-83.0513183852
 20
28.692818318
 10
-83.0601226249
 20
28.6890349126
 10
-83.0664445193
 20
28.6849684983
 10
-83.0702295757
 20
28.6806541261
  0
LINE
  5
656
100
AcDbEntity
  8
RACCORDO
100
AcDbLine
 62
253
  6
CONTINUOUS
 10
-80.8206239155
 20
28.6856368108
 11
-80.6424595892
 21
28.6711415209
  0
LWPOLYLINE
  5
657
100
AcDbEntity
  8
RACCORDO
100
AcDbPolyline
 62
253
  6
CONTINUOUS
 90
10
 70
0
 10
-76.3939483716
 20
28.1277610268
 10
-76.8042430692
 20
28.1785890695
 10
-77.2184138924
 20
28.2277499131
 10
-77.6361312826
 20
28.2752049048
 10
-78.0570613875
 20
28.3209169415
 10
-78.4808707815
 20
28.3648498661
 10
-78.907226828
 20
28.4069684064
 10
-79.3357919409
 20
28.4472390916
 10
-79.7662237578
 20
28.4856303662
 10
-80.1981799343
 20
28.52211192
  0
LWPOLYLINE
  5
658
100
AcDbEntity
  8
RACCORDO
100
AcDbPolyline
 62
253
  6
CONTINUOUS
 90
10
 70
0
 10
-76.3939274982
 20
28.0800845013
 10
-76.8045444702
 20
28.1309600511
 10
-77.2190403607
 20
28.1803183367
 10
-77.6370850519
 20
28.2281171907
 10
-78.058340704
 20
28.2743901044
 10
-78.4824767458
 20
28.319021948
 10
-78.909169928
 20
28.3617542723
 10
-79.3380850466
 20
28.4024821395
 10
-79.7688754277
 20
28.4412488814
 10
-80.2011977766
 20
28.4780254871
  0
LWPOLYLINE
  5
659
100
AcDbEntity
  8
RACCORDO
100
AcDbPolyline
 62
253
  6
CONTINUOUS
 90
8
 70
0
 10
-76.2347329665
 20
28.0606054808
 10
-76.2509295902
 20
28.0643175869
 10
-76.2696687397
 20
28.0677738767
 10
-76.2907565893
 20
28.0709385354
 10
-76.3139750196
 20
28.073778765
 10
-76.3390838742
 20
28.076265123
 10
-76.3658234431
 20
28.0783718272
 10
-76.3939171493
 20
28.0800770225
  0
LWPOLYLINE
  5
65A
100
AcDbEntity
  8
RACCORDO
100
AcDbPolyline
 62
253
  6
CONTINUOUS
 90
10
 70
0
 10
-80.5131903065
 20
28.6458201153
 10
-80.5207113723
 20
28.6492577865
 10
-80.5304174346
 20
28.6526610144
 10
-80.5421497037
 20
28.6559741964
 10
-80.5557162428
 20
28.6591432032
 10
-80.5708951076
 20
28.6621162639
 10
-80.5874379774
 20
28.6648448129
 10
-80.6050742173
 20
28.667284285
 10
-80.6235153054
 20
28.6693948439
 10
-80.6424595533
 20
28.6711420339
  0
LINE
  5
65B
100
AcDbEntity
  8
RACCORDO
100
AcDbLine
 62
253
  6
CONTINUOUS
 10
-80.5131937408
 20
28.6457711005
 11
-80.2012099751
 21
28.4780028026
  0
LWPOLYLINE
  5
65C
100
AcDbEntity
  8
RACCORDO
100
AcDbPolyline
 62
253
  6
CONTINUOUS
 90
8
 70
0
 10
-79.6509207661
 20
42.4066584717
 10
-79.6611911148
 20
42.4227193198
 10
-79.6734446149
 20
42.4373385823
 10
-79.6874808031
 20
42.4502770971
 10
-79.703070052
 20
42.4613231989
 10
-79.7199573263
 20
42.4702961818
 10
-79.7378663554
 20
42.4770492557
 10
-79.7565041527
 20
42.4814719477
  0
LWPOLYLINE
  5
65D
100
AcDbEntity
  8
RACCORDO
100
AcDbPolyline
 62
253
  6
CONTINUOUS
 90
5
 70
0
 10
-79.8028491918
 20
42.8575716972
 10
-79.8131046736
 20
42.8737275634
 10
-79.8253446722
 20
42.8884403768
 10
-79.8393689437
 20
42.9014694396
 10
-79.8549480541
 20
42.9126015996
  0
LWPOLYLINE
  5
65E
100
AcDbEntity
  8
RACCORDO
100
AcDbPolyline
 62
253
  6
CONTINUOUS
 90
8
 70
0
 10
-76.2319035771
 20
40.4813502089
 10
-76.2469305132
 20
40.5064132989
 10
-76.2643451291
 20
40.5298964818
 10
-76.283980977
 20
40.5515753035
 10
-76.3056503791
 20
40.5712425559
 10
-76.3291462207
 20
40.5887102571
 10
-76.3542439302
 20
40.6038114485
 10
-76.3807036256
 20
40.6164017905
  0
LINE
  5
65F
100
AcDbEntity
  8
RACCORDO
100
AcDbLine
 62
253
  6
CONTINUOUS
 10
-76.2311981056
 20
40.8514695992
 11
-76.245932728
 21
40.876446593
  0
LWPOLYLINE
  5
660
100
AcDbEntity
  8
RACCORDO
100
AcDbPolyline
 62
253
  6
CONTINUOUS
 90
7
 70
0
 10
-79.9557136938
 20
-44.0661202392
 10
-79.9679328803
 20
-44.0808686561
 10
-79.9819393578
 20
-44.0939365063
 10
-79.9975039749
 20
-44.1051099815
 10
-80.0143720894
 20
-44.1142062648
 10
-80.032267734
 20
-44.1210765221
 10
-80.0508981313
 20
-44.1256083365
  0
LWPOLYLINE
  5
661
100
AcDbEntity
  8
RACCORDO
100
AcDbPolyline
 62
253
  6
CONTINUOUS
 90
7
 70
0
 10
-79.9557136662
 20
43.2133065555
 10
-79.9679328532
 20
43.2280549711
 10
-79.9819393318
 20
43.2411228218
 10
-79.9975039508
 20
43.252296299
 10
-80.0143720678
 20
43.2613925859
 10
-80.0322677155
 20
43.2682628482
 10
-80.0508981165
 20
43.2727946689
  0
LINE
  5
662
100
AcDbEntity
  8
RACCORDO
100
AcDbLine
 62
253
  6
CONTINUOUS
 10
-76.2459371782
 20
40.8756195363
 11
-76.263021295
 21
40.8990578913
  0
LWPOLYLINE
  5
663
100
AcDbEntity
  8
RACCORDO
100
AcDbPolyline
 62
253
  6
CONTINUOUS
 90
5
 70
0
 10
-76.263020731
 20
-41.751868955
 10
-76.2822931121
 20
-41.7735483809
 10
-76.3035734451
 20
-41.7932661509
 10
-76.3266624755
 20
-41.810837642
 10
-76.3513440135
 20
-41.8260983279
  0
LINE
  5
664
100
AcDbEntity
  8
RACCORDO
100
AcDbLine
 62
253
  6
CONTINUOUS
 10
-76.2839767491
 20
-41.4060869688
 11
-76.3056447699
 21
-41.4257541611
  0
LWPOLYLINE
  5
665
100
AcDbEntity
  8
RACCORDO
100
AcDbPolyline
 62
253
  6
CONTINUOUS
 90
3
 70
0
 10
-76.2630156262
 20
40.8998845177
 10
-76.2822868564
 20
40.9215639295
 10
-76.3035659861
 20
40.9412818495
  0
LINE
  5
666
100
AcDbEntity
  8
RACCORDO
100
AcDbLine
 62
253
  6
CONTINUOUS
 10
-76.3056485796
 20
-41.424046111
 11
-76.3291440625
 21
-41.4415134532
  0
LWPOLYLINE
  5
667
100
AcDbEntity
  8
RACCORDO
100
AcDbPolyline
 62
253
  6
CONTINUOUS
 90
3
 70
0
 10
-76.3291391247
 20
-41.4432220211
 10
-76.3542352757
 20
-41.4583236046
 10
-76.3806933766
 20
-41.4709145821
  0
LWPOLYLINE
  5
668
100
AcDbEntity
  8
RACCORDO
100
AcDbPolyline
 62
253
  6
CONTINUOUS
 90
4
 70
0
 10
-79.8549480541
 20
42.9126015996
 10
-79.8718271325
 20
42.921654738
 10
-79.8897300407
 20
42.9284807483
 10
-79.9083638909
 20
42.9329679593
  0
LWPOLYLINE
  5
669
100
AcDbEntity
  8
RACCORDO
100
AcDbPolyline
 62
253
  6
CONTINUOUS
 90
4
 70
0
 10
-76.3035743299
 20
40.9404554503
 10
-76.3266635339
 20
40.9580270307
 10
-76.3513452497
 20
40.9732877387
 10
-76.3773883725
 20
40.9860946812
  0
LWPOLYLINE
  5
66A
100
AcDbEntity
  8
RACCORDO
100
AcDbPolyline
 62
253
  6
CONTINUOUS
 90
4
 70
0
 10
-79.8549480542
 20
-43.7654152261
 10
-79.8718271325
 20
-43.7744683647
 10
-79.8897300406
 20
-43.7812943751
 10
-79.9083638907
 20
-43.7857815862
  0
LINE
  5
66B
100
AcDbEntity
  8
RACCORDO
100
AcDbLine
 62
253
  6
CONTINUOUS
 10
-76.3513366985
 20
-41.8269270612
 11
-76.377378378
 21
-41.8397344242
  0
LWPOLYLINE
  5
66C
100
AcDbEntity
  8
RACCORDO
100
AcDbPolyline
 62
253
  6
CONTINUOUS
 90
10
 70
0
 10
-76.3740382513
 20
-42.1057381943
 10
-76.7327789575
 20
-42.2605043889
 10
-77.0953423756
 20
-42.4061477448
 10
-77.4614961768
 20
-42.5425746897
 10
-77.8310066719
 20
-42.6696978701
 10
-78.2036361265
 20
-42.7874352171
 10
-78.5791428362
 20
-42.8957102407
 10
-78.9572851063
 20
-42.9944532895
 10
-79.3378214828
 20
-43.083601354
 10
-79.6160500395
 20
-43.1413981048
  0
LWPOLYLINE
  5
66D
100
AcDbEntity
  8
RACCORDO
100
AcDbPolyline
 62
253
  6
CONTINUOUS
 90
5
 70
0
 10
-76.3773869418
 20
-41.8389065066
 10
-76.7211528193
 20
-41.9822230416
 10
-77.0683017888
 20
-42.1172044334
 10
-77.4186314141
 20
-42.2437719759
 10
-77.7719373772
 20
-42.3618518604
  0
LWPOLYLINE
  5
66E
100
AcDbEntity
  8
RACCORDO
100
AcDbPolyline
 62
253
  6
CONTINUOUS
 90
10
 70
0
 10
-76.380700674
 20
-41.4692127441
 10
-76.7085050426
 20
-41.6004452358
 10
-77.0392759193
 20
-41.7241659215
 10
-77.3728395437
 20
-41.8403098155
 10
-77.7090206628
 20
-41.9488160231
 10
-78.0476426991
 20
-42.0496274412
 10
-78.3885278516
 20
-42.1426907832
 10
-78.731497084
 20
-42.2279570515
 10
-79.0763702101
 20
-42.3053815675
 10
-79.4229660703
 20
-42.3749236606
  0
LWPOLYLINE
  5
66F
100
AcDbEntity
  8
RACCORDO
100
AcDbPolyline
 62
253
  6
CONTINUOUS
 90
6
 70
0
 10
-77.7721374894
 20
-42.3628075897
 10
-78.1282690424
 20
-42.4723564723
 10
-78.4869644023
 20
-42.5732822458
 10
-78.8480143596
 20
-42.665526044
 10
-79.211208281
 20
-42.7490340509
 10
-79.5338047081
 20
-42.8150538177
  0
LWPOLYLINE
  5
670
100
AcDbEntity
  8
RACCORDO
100
AcDbPolyline
 62
253
  6
CONTINUOUS
 90
13
 70
0
 10
-81.9487625259
 20
42.6355177259
 10
-81.9809435004
 20
42.630846966
 10
-82.012439033
 20
42.6227431227
 10
-82.0428790015
 20
42.6113014291
 10
-82.0719056876
 20
42.5966563432
 10
-82.099177982
 20
42.5789799681
 10
-82.1243753918
 20
42.5584800292
 10
-82.1472018075
 20
42.5353974333
 10
-82.1673889825
 20
42.5100034375
 10
-82.1846996854
 20
42.4825964616
 10
-82.198930488
 20
42.453498581
 10
-82.2099141559
 20
42.423051742
 10
-82.2175216135
 20
42.3916137432
  0
LWPOLYLINE
  5
671
100
AcDbEntity
  8
RACCORDO
100
AcDbPolyline
 62
253
  6
CONTINUOUS
 90
13
 70
0
 10
-82.1010600438
 20
43.0880827688
 10
-82.1332203669
 20
43.083445102
 10
-82.1646964015
 20
43.0753628096
 10
-82.1951187456
 20
43.0639307453
 10
-82.2241303637
 20
43.0492830754
 10
-82.2513907762
 20
43.0315917046
 10
-82.2765800559
 20
43.0110642581
 10
-82.2994025821
 20
42.9879416455
 10
-82.3195905103
 20
42.962495233
 10
-82.3369069157
 20
42.9350236589
 10
-82.3511485735
 20
42.9058493288
 10
-82.362148344
 20
42.8753146318
 10
-82.3697771343
 20
42.8437779219
  0
LWPOLYLINE
  5
672
100
AcDbEntity
  8
RACCORDO
100
AcDbPolyline
 62
253
  6
CONTINUOUS
 90
13
 70
0
 10
-82.2423649762
 20
43.4241028957
 10
-82.274496031
 20
43.4194949551
 10
-82.3059447003
 20
43.4114476798
 10
-82.3363427457
 20
43.4000552967
 10
-82.3653342303
 20
43.3854512016
 10
-82.3925796873
 20
43.3678063967
 10
-82.4177600942
 20
43.3473274884
 10
-82.4405806087
 20
43.3242542683
 10
-82.4607740209
 20
43.2988569053
 10
-82.4781038823
 20
43.271432782
 10
-82.492367274
 20
43.242303013
 10
-82.5033971832
 20
43.2118086843
 10
-82.5110644585
 20
43.1803068601
  0
LWPOLYLINE
  5
673
100
AcDbEntity
  8
RACCORDO
100
AcDbPolyline
 62
253
  6
CONTINUOUS
 90
13
 70
0
 10
-82.2443922234
 20
43.4294349742
 10
-82.2765226161
 20
43.4248273598
 10
-82.3079706613
 20
43.4167805237
 10
-82.338368144
 20
43.4053886837
 10
-82.3673591498
 20
43.3907852232
 10
-82.3946042323
 20
43.3731411294
 10
-82.4197843877
 20
43.3526629914
 10
-82.4426047896
 20
43.329590581
 10
-82.4627982412
 20
43.3041940458
 10
-82.4801283039
 20
43.2767707456
 10
-82.4943920656
 20
43.247641771
 10
-82.5054225164
 20
43.2171481837
 10
-82.5130905045
 20
43.1856470235
  0
LINE
  5
674
100
AcDbEntity
  8
DRAFT
100
AcDbLine
 62
7
  6
CONTINUOUS
 10
-80.5527408716
 20
44.5735960289
 11
-82.6080671636
 21
44.3937782778
  0
LINE
  5
675
100
AcDbEntity
  8
RACCORDO
100
AcDbLine
 62
253
  6
CONTINUOUS
 10
-80.0508136922
 20
43.2670283879
 11
-82.1010600883
 21
43.0880828674
  0
LINE
  5
676
100
AcDbEntity
  8
RACCORDO
100
AcDbLine
 62
253
  6
CONTINUOUS
 10
-82.2443922234
 20
43.4294349742
 11
-80.1932716247
 21
43.6085931525
  0
LINE
  5
677
100
AcDbEntity
  8
RACCORDO
100
AcDbLine
 62
253
  6
CONTINUOUS
 10
-79.8992712022
 20
42.8135931869
 11
-81.9487625358
 21
42.6355177824
  0
LINE
  5
678
100
AcDbEntity
  8
RACCORDO
100
AcDbLine
 62
253
  6
CONTINUOUS
 10
-79.8587812005
 20
42.4989500975
 11
-79.756504111
 21
42.48147225
  0
LINE
  5
679
100
AcDbEntity
  8
RACCORDO
100
AcDbLine
 62
253
  6
CONTINUOUS
 10
-79.9337846478
 20
42.9373935937
 11
-79.9083639338
 21
42.9329680547
  0
LINE
  5
67A
100
AcDbEntity
  8
RACCORDO
100
AcDbLine
 62
253
  6
CONTINUOUS
 10
-79.0768107303
 20
41.4544057022
 11
-79.4234668773
 21
41.5239510028
  0
LWPOLYLINE
  5
67B
100
AcDbEntity
  8
RACCORDO
100
AcDbPolyline
 62
253
  6
CONTINUOUS
 90
4
 70
0
 10
-78.0479071835
 20
41.198623529
 10
-78.3888501077
 20
41.2916992087
 10
-78.731878054
 20
41.3769748741
 10
-79.0768107303
 20
41.4544057022
  0
LWPOLYLINE
  5
67C
100
AcDbEntity
  8
RACCORDO
100
AcDbPolyline
 62
253
  6
CONTINUOUS
 90
10
 70
0
 10
-76.3807006748
 20
40.616399011
 10
-76.7085050211
 20
40.7476315416
 10
-77.0392758824
 20
40.8713522581
 10
-77.3728394985
 20
40.9874961742
 10
-77.7090206195
 20
41.0960023915
 10
-78.0476426658
 20
41.1968138095
 10
-78.3885278285
 20
41.2898771511
 10
-78.7314970685
 20
41.3751434217
 10
-79.0763702023
 20
41.4525679397
 10
-79.4229660703
 20
41.5221100345
  0
LWPOLYLINE
  5
67D
100
AcDbEntity
  8
RACCORDO
100
AcDbPolyline
 62
253
  6
CONTINUOUS
 90
10
 70
0
 10
-76.3773869418
 20
40.9860928805
 10
-76.7211528193
 20
41.1294094155
 10
-77.0683017888
 20
41.2643908073
 10
-77.4186314141
 20
41.3909583497
 10
-77.7719373772
 20
41.5090382343
 10
-78.1280136794
 20
41.6185616211
 10
-78.4866527637
 20
41.7194646722
 10
-78.8476455249
 20
41.8116885548
 10
-79.2107814288
 20
41.8951794821
 10
-79.5335507967
 20
41.9612326989
  0
LWPOLYLINE
  5
67E
100
AcDbEntity
  8
RACCORDO
100
AcDbPolyline
 62
253
  6
CONTINUOUS
 90
10
 70
0
 10
-76.3740382512
 20
41.2529245682
 10
-76.732778605
 20
41.4076906159
 10
-77.0953417821
 20
41.5533338889
 10
-77.4614954579
 20
41.6897608061
 10
-77.831005987
 20
41.8168840181
 10
-78.2036355985
 20
41.9346214315
 10
-78.579142468
 20
42.0428965135
 10
-78.9572848592
 20
42.1416396022
 10
-79.3378213585
 20
42.2307877005
 10
-79.6202295656
 20
42.2894526963
  0
LINE
  5
67F
100
AcDbEntity
  8
RACCORDO
100
AcDbLine
 62
7
  6
CONTINUOUS
 10
-80.429191826
 20
44.2400642607
 11
-80.4125817278
 21
44.2370154776
  0
ARC
  5
680
100
AcDbEntity
  8
SUPERFICI
100
AcDbCircle
 62
7
  6
CONTINUOUS
 10
59.0981081822
 20
-17.7502454972
 40
144.5668841548
100
AcDbArc
 50
184.5882838971
 51
190.8658600374
  0
ARC
  5
681
100
AcDbEntity
  8
SUPERFICI
100
AcDbCircle
 62
7
  6
CONTINUOUS
 10
59.0981081822
 20
-17.7502454972
 40
144.5668841548
100
AcDbArc
 50
182.7944946181
 51
183.4566331323
  0
ARC
  5
682
100
AcDbEntity
  8
RACCORDO
100
AcDbCircle
 62
7
  6
CONTINUOUS
 10
-83.1414268281
 20
-28.9856430007
 40
15.4455902694
100
AcDbArc
 50
281.8765674009
 51
296.0222890386
  0
ARC
  5
683
100
AcDbEntity
  8
RACCORDO
100
AcDbCircle
 62
7
  6
CONTINUOUS
 10
-84.6193086337
 20
-24.3173611242
 40
0.7
100
AcDbArc
 50
145.0
 51
182.7431370757
  0
ARC
  5
684
100
AcDbEntity
  8
RACCORDO
100
AcDbCircle
 62
7
  6
CONTINUOUS
 10
-82.5819204436
 20
-44.947733522
 40
0.3
100
AcDbArc
 50
190.8665449874
 51
264.9999999874
  0
ARC
  5
685
100
AcDbEntity
  8
RACCORDO
100
AcDbCircle
 62
7
  6
CONTINUOUS
 10
-76.4967419564
 20
-42.5958255012
 40
0.3
100
AcDbArc
 50
296.0222894466
 51
0.0000009299
  0
ARC
  5
686
100
AcDbEntity
  8
RACCORDO
100
AcDbCircle
 62
7
  6
CONTINUOUS
 10
-77.9967419564
 20
-3.7585868868
 40
0.2
100
AcDbArc
 50
180.0047452052
 51
259.9999999994
  0
ARC
  5
687
100
AcDbEntity
  8
RACCORDO
100
AcDbCircle
 62
7
  6
CONTINUOUS
 10
-76.3967419564
 20
-4.4468807007
 40
0.2
100
AcDbArc
 50
359.9999995987
 51
80.0
  0
ARC
  5
688
100
AcDbEntity
  8
RACCORDO
100
AcDbCircle
 62
7
  6
CONTINUOUS
 10
-80.4396618364
 20
-44.9422937913
 40
0.15
100
AcDbArc
 50
280.4008685085
 51
339.081392443
  0
ARC
  5
689
100
AcDbEntity
  8
COPY_PUBLISH
100
AcDbCircle
 62
7
  6
CONTINUOUS
 10
59.0981081822
 20
16.8974318711
 40
144.5668841548
100
AcDbArc
 50
169.1338946974
 51
177.2055053819
  0
ARC
  5
68A
100
AcDbEntity
  8
RACCORDO
100
AcDbCircle
 62
7
  6
CONTINUOUS
 10
-83.1414268281
 20
28.1328293746
 40
15.4455902694
100
AcDbArc
 50
63.9777109614
 51
78.1234323082
  0
ARC
  5
68B
100
AcDbEntity
  8
RACCORDO
100
AcDbCircle
 62
7
  6
CONTINUOUS
 10
-84.6193086337
 20
23.4645474981
 40
0.7
100
AcDbArc
 50
177.2568629243
 51
215.0
  0
ARC
  5
68C
100
AcDbEntity
  8
RACCORDO
100
AcDbCircle
 62
7
  6
CONTINUOUS
 10
-82.5819204416
 20
44.0949198788
 40
0.3
100
AcDbArc
 50
95.0000000168
 51
169.1334550191
  0
ARC
  5
68D
100
AcDbEntity
  8
RACCORDO
100
AcDbCircle
 62
7
  6
CONTINUOUS
 10
-76.4967419564
 20
41.7430118751
 40
0.3
100
AcDbArc
 50
359.9999990701
 51
63.9777105534
  0
ARC
  5
68E
100
AcDbEntity
  8
RACCORDO
100
AcDbCircle
 62
7
  6
CONTINUOUS
 10
-77.9967419564
 20
2.9057732607
 40
0.2
100
AcDbArc
 50
100.0000000009
 51
179.9946577064
  0
ARC
  5
68F
100
AcDbEntity
  8
RACCORDO
100
AcDbCircle
 62
7
  6
CONTINUOUS
 10
-76.3967419643
 20
3.5940670732
 40
0.2
100
AcDbArc
 50
280.0
 51
0.0000004013
  0
ARC
  5
690
100
AcDbEntity
  8
RACCORDO
100
AcDbCircle
 62
7
  6
CONTINUOUS
 10
-80.4396618364
 20
44.0894801652
 40
0.15
100
AcDbArc
 50
20.918607557
 51
79.5991314915
  0
ARC
  5
691
100
AcDbEntity
  8
SUPERFICI
100
AcDbCircle
 62
7
  6
CONTINUOUS
 10
414.0086713238
 20
-0.4264068131
 40
499.9
100
AcDbArc
 50
182.743136886
 51
182.7944946181
  0
ARC
  5
692
100
AcDbEntity
  8
COPY_PUBLISH
100
AcDbCircle
 62
7
  6
CONTINUOUS
 10
414.0086713238
 20
-0.4264068131
 40
499.9
100
AcDbArc
 50
177.2055053819
 51
177.256863114
  0
ENDSEC
  0
SECTION
  2
OBJECTS
  0
DICTIONARY
  5
C
100
AcDbDictionary
280
0
281
1
  3
ACAD_GROUP
350
D
  3
ACAD_MLINESTYLE
350
17
  3
ACAD_LAYOUT
350
1A
  3
ACAD_PLOTSETTINGS
350
19
  3
ACAD_PLOTSTYLENAME
350
E
  0
DICTIONARY
  5
D
102
{ACAD_REACTORS
330
C
102
}
100
AcDbDictionary
280
0
281
1
  0
ACDBDICTIONARYWDFLT
  5
E
102
{ACAD_REACTORS
330
C
102
}
100
AcDbDictionary
281
1
  3
Normal
350
F
100
AcDbDictionaryWithDefault
340
F
  0
DICTIONARY
  5
17
102
{ACAD_REACTORS
330
C
102
}
100
AcDbDictionary
280
0
281
1
  3
Standard
350
18
  0
DICTIONARY
  5
19
102
{ACAD_REACTORS
330
C
102
}
100
AcDbDictionary
281
1
  0
DICTIONARY
  5
1A
102
{ACAD_REACTORS
330
C
102
}
100
AcDbDictionary
281
1
  3
Model
350
693
  3
Layout1
350
694
  0
ACDBPLACEHOLDER
  5
F
102
{ACAD_REACTORS
330
E
102
}
  0
MLINESTYLE
  5
18
102
{ACAD_REACTORS
330
17
102
}
100
AcDbMlineStyle
  2
STANDARD
 70
0
  3

 62
256
 51
90.0
 52
90.0
 71
2
 49
0.5
 62
256
  6
BYLAYER
 49
-0.5
 62
256
  6
BYLAYER
  0
LAYOUT
  5
693
102
{ACAD_REACTORS
330
1A
102
}
100
AcDbPlotSettings
  1

  2
none_device
  4
ISO_A4_(297.00_x_210.00_MM)
  6

 40
0.0
 41
0.0
 42
0.0
 43
0.0
 44
297.0
 45
210.0
 46
0.0
 47
0.0
 48
0.0
 49
0.0
140
0.0
141
0.0
142
1.0
143
1.0
 70
1024
 72
1
 73
0
 74
0
  7

 75
0
147
1.0
148
0.0
149
0.0
100
AcDbLayout
  1
Model
 70
0
 71
0
 10
0.0
 20
0.0
 11
297.0
 21
210.0
 12
0.0
 22
0.0
 32
0.0
 14
0.0
 24
0.0
 34
0.0
 15
0.0
 25
0.0
 35
0.0
146
0.0
 13
0.0
 23
0.0
 33
0.0
 16
1.0
 26
0.0
 36
0.0
 17
0.0
 27
1.0
 37
0.0
 76
0
330
212
345
0
346
0
  0
LAYOUT
  5
694
102
{ACAD_REACTORS
330
1A
102
}
100
AcDbPlotSettings
  1

  2
none_device
  4
ISO_A4_(297.00_x_210.00_MM)
  6

 40
0.0
 41
0.0
 42
0.0
 43
0.0
 44
297.0
 45
210.0
 46
0.0
 47
0.0
 48
0.0
 49
0.0
140
0.0
141
0.0
142
1.0
143
1.0
 70
0
 72
1
 73
0
 74
0
  7

 75
0
147
1.0
148
0.0
149
0.0
100
AcDbLayout
  1
Layout1
 70
0
 71
1
 10
0.0
 20
0.0
 11
297.0
 21
210.0
 12
0.0
 22
0.0
 32
0.0
 14
0.0
 24
0.0
 34
0.0
 15
0.0
 25
0.0
 35
0.0
146
0.0
 13
0.0
 23
0.0
 33
0.0
 16
1.0
 26
0.0
 36
0.0
 17
0.0
 27
1.0
 37
0.0
 76
0
330
213
345
0
346
0
  0
ENDSEC
  0
EOF
