  0
SECTION
  2
HEADER
  9
$ACADVER
  1
AC1021
  9
$DWGCODEPAGE
  3
ANSI_1252
  9
$EXTMAX
 10
297.0
 20
210.0
 30
0.0
  9
$EXTMIN
 10
0.0
 20
0.0
 30
0.0
  9
$LIMMIN
 10
0.0
 20
0.0
  9
$LIMMAX
 10
297.0
 20
210.0
  9
$VIEWCTR
 10
148.5
 20
105.0
  9
$VIEWSIZE
 40
210.0
  9
$CLAYER
  8
0
  9
$LTSCALE
 40
16.335
  9
$CELTYPE
  6
BYLAYER
  9
$DIMSCALE
 40
1.0
  9
$DIMASZ
 40
3.0
  9
$DIMEXO
 40
1.85625
  9
$DIMDLI
 40
11.286
  9
$DIMEXE
 40
5.346
  9
$DIMCEN
 40
2.673
  9
$DIMLFAC
 40
1.0
  9
$DIMBLK
  1
_FILLED
  9
$DIMTXT
 40
3.0
  9
$DIMTOL
 70
1
  9
$DIMLIM
 70
0
  9
$DIMTFAC
 40
1.0
  9
$DIMTP
 40
0.01
  9
$DIMTM
 40
0.01
  9
$PDMODE
 70
3
  9
$PDSIZE
 40
3.0
  9
$HANDSEED
  5
4D2
  9
$TILEMODE
 70
1
  9
$MEASUREMENT
 70
1
  9
$INSUNITS
 70
4
  0
ENDSEC
  0
SECTION
  2
CLASSES
  0
CLASS
  1
ACDBDICTIONARYWDFLT
  2
AcDbDictionaryWithDefault
  3
AutoCAD 2000
 90
0
 91
1
280
0
281
0
  0
CLASS
  1
ACDBPLACEHOLDER
  2
AcDbPlaceHolder
  3
AutoCAD 2000
 90
0
 91
1
280
0
281
0
  0
CLASS
  1
LAYOUT
  2
AcDbLayout
  3
AutoCAD 2000
 90
0
 91
0
280
0
281
0
  0
ENDSEC
  0
SECTION
  2
TABLES
  0
TABLE
  2
VPORT
  5
8
100
AcDbSymbolTable
 70
2
  0
VPORT
  5
1F4
100
AcDbSymbolTableRecord
100
AcDbViewportTableRecord
  2
*ACTIVE
 70
0
 10
0.0
 20
0.0
 11
1.0
 21
1.0
 12
148.5
 22
105.0
 13
0.0
 23
0.0
 14
1.0
 24
1.0
 15
0.0
 25
0.0
 16
0.0
 26
0.0
 36
1.0
 17
0.0
 27
0.0
 37
0.0
 40
210.0
 41
1.4142857143
 42
50.0
 43
0.0
 44
0.0
 50
0.0
 51
0.0
 71
0
 72
100
 73
1
 74
1
 75
0
 76
0
 77
0
 78
0
  0
ENDTAB
  0
TABLE
  2
LTYPE
  5
5
100
AcDbSymbolTable
 70
6
  0
LTYPE
  5
14
100
AcDbSymbolTableRecord
100
AcDbLinetypeTableRecord
  2
BYBLOCK
 70
0
  3

 72
65
 73
0
 40
0.0
  0
LTYPE
  5
15
100
AcDbSymbolTableRecord
100
AcDbLinetypeTableRecord
  2
BYLAYER
 70
0
  3

 72
65
 73
0
 40
0.0
  0
LTYPE
  5
16
100
AcDbSymbolTableRecord
100
AcDbLinetypeTableRecord
  2
CONTINUOUS
 70
64
  3
Solid line
 72
65
 73
0
 40
0.0
  0
LTYPE
  5
1F5
100
AcDbSymbolTableRecord
100
AcDbLinetypeTableRecord
  2
CENTER
 70
64
  3
____ _ ____ _ ____ _ ____ _ ____ _ ____ _ ____
 72
65
 73
4
 40
0.6
 49
0.375
 74
0
 49
-0.075
 74
0
 49
0.075
 74
0
 49
-0.075
 74
0
  0
LTYPE
  5
1F6
100
AcDbSymbolTableRecord
100
AcDbLinetypeTableRecord
  2
HIDDEN
 70
64
  3
- - - - - - - - - - - - - - - - - - - -
 72
65
 73
2
 40
0.2
 49
0.1
 74
0
 49
-0.1
 74
0
  0
LTYPE
  5
1F7
100
AcDbSymbolTableRecord
100
AcDbLinetypeTableRecord
  2
PHANTOM
 70
64
  3
_____ _ _ _____ _ _ _____ _ _ _____
 72
65
 73
6
 40
0.8
 49
0.45
 74
0
 49
-0.05
 74
0
 49
0.1
 74
0
 49
-0.05
 74
0
 49
0.1
 74
0
 49
-0.05
 74
0
  0
LTYPE
  5
1F8
100
AcDbSymbolTableRecord
100
AcDbLinetypeTableRecord
  2
DOT
 70
64
  3
. . . . . . . . . . . . . . . . . . . .
 72
65
 73
2
 40
0.2
 49
0.1
 74
0
 49
-0.1
 74
0
  0
LTYPE
  5
1F9
100
AcDbSymbolTableRecord
100
AcDbLinetypeTableRecord
  2
DASHED
 70
64
  3
- - - - - - - - - - - - - - - - - - - -
 72
65
 73
2
 40
0.2
 49
0.1
 74
0
 49
-0.1
 74
0
  0
ENDTAB
  0
TABLE
  2
LAYER
  5
2
100
AcDbSymbolTable
 70
36
  0
LAYER
  5
10
100
AcDbSymbolTableRecord
100
AcDbLayerTableRecord
  2
0
 70
0
 62
7
  6
CONTINUOUS
370
-3
390
F
  0
LAYER
  5
1FA
100
AcDbSymbolTableRecord
100
AcDbLayerTableRecord
  2
DEFAULT_1
 70
0
 62
7
  6
CENTER
370
-3
390
F
  0
LAYER
  5
1FB
100
AcDbSymbolTableRecord
100
AcDbLayerTableRecord
  2
DEFAULT_2
 70
0
 62
7
  6
HIDDEN
370
-3
390
F
  0
LAYER
  5
1FC
100
AcDbSymbolTableRecord
100
AcDbLayerTableRecord
  2
DEFAULT_3
 70
0
 62
7
  6
PHANTOM
370
-3
390
F
  0
LAYER
  5
1FD
100
AcDbSymbolTableRecord
100
AcDbLayerTableRecord
  2
ASSI
 70
0
 62
7
  6
CONTINUOUS
370
-3
390
F
  0
LAYER
  5
1FE
100
AcDbSymbolTableRecord
100
AcDbLayerTableRecord
  2
COORDINATE
 70
0
 62
7
  6
CONTINUOUS
370
-3
390
F
  0
LAYER
  5
1FF
100
AcDbSymbolTableRecord
100
AcDbLayerTableRecord
  2
COPY_PUBLISH
 70
0
 62
7
  6
CONTINUOUS
370
-3
390
F
  0
LAYER
  5
200
100
AcDbSymbolTableRecord
100
AcDbLayerTableRecord
  2
COSMETIC
 70
0
 62
7
  6
CONTINUOUS
370
-3
390
F
  0
LAYER
  5
201
100
AcDbSymbolTableRecord
100
AcDbLayerTableRecord
  2
COSMETICI
 70
0
 62
7
  6
CONTINUOUS
370
-3
390
F
  0
LAYER
  5
202
100
AcDbSymbolTableRecord
100
AcDbLayerTableRecord
  2
CURVE
 70
0
 62
7
  6
CONTINUOUS
370
-3
390
F
  0
LAYER
  5
203
100
AcDbSymbolTableRecord
100
AcDbLayerTableRecord
  2
DRAFT
 70
0
 62
7
  6
CONTINUOUS
370
-3
390
F
  0
LAYER
  5
204
100
AcDbSymbolTableRecord
100
AcDbLayerTableRecord
  2
IMPORT_IGES
 70
0
 62
7
  6
CONTINUOUS
370
-3
390
F
  0
LAYER
  5
205
100
AcDbSymbolTableRecord
100
AcDbLayerTableRecord
  2
NOTE
 70
0
 62
7
  6
CONTINUOUS
370
-3
390
F
  0
LAYER
  5
206
100
AcDbSymbolTableRecord
100
AcDbLayerTableRecord
  2
PIANI
 70
0
 62
7
  6
CONTINUOUS
370
-3
390
F
  0
LAYER
  5
207
100
AcDbSymbolTableRecord
100
AcDbLayerTableRecord
  2
PUNTI
 70
0
 62
7
  6
CONTINUOUS
370
-3
390
F
  0
LAYER
  5
208
100
AcDbSymbolTableRecord
100
AcDbLayerTableRecord
  2
RACCORDO
 70
0
 62
7
  6
CONTINUOUS
370
-3
390
F
  0
LAYER
  5
209
100
AcDbSymbolTableRecord
100
AcDbLayerTableRecord
  2
SIMBOLI
 70
0
 62
7
  6
CONTINUOUS
370
-3
390
F
  0
LAYER
  5
20A
100
AcDbSymbolTableRecord
100
AcDbLayerTableRecord
  2
SMUSSO
 70
0
 62
7
  6
CONTINUOUS
370
-3
390
F
  0
LAYER
  5
20B
100
AcDbSymbolTableRecord
100
AcDbLayerTableRecord
  2
SNAPLINE
 70
0
 62
7
  6
CONTINUOUS
370
-3
390
F
  0
LAYER
  5
20C
100
AcDbSymbolTableRecord
100
AcDbLayerTableRecord
  2
SUPERFICI
 70
0
 62
7
  6
CONTINUOUS
370
-3
390
F
  0
LAYER
  5
20D
100
AcDbSymbolTableRecord
100
AcDbLayerTableRecord
  2
TRASH
 70
0
 62
7
  6
CONTINUOUS
370
-3
390
F
  0
LAYER
  5
20E
100
AcDbSymbolTableRecord
100
AcDbLayerTableRecord
  2
XSEC_DATUMS
 70
0
 62
7
  6
CONTINUOUS
370
-3
390
F
  0
ENDTAB
  0
TABLE
  2
STYLE
  5
3
100
AcDbSymbolTable
 70
1
  0
STYLE
  5
11
100
AcDbSymbolTableRecord
100
AcDbTextStyleTableRecord
  2
STANDARD
 70
0
 40
0.0
 41
0.8
 50
0.0
 71
0
 42
0.2
  3
txt
  4

  0
STYLE
  5
20F
100
AcDbSymbolTableRecord
100
AcDbTextStyleTableRecord
  2
TEXTSTYLE_1
 70
0
 40
0.0
 41
0.8
 50
0.0
 71
0
 42
0.2
  3
gdt
  4

  0
ENDTAB
  0
TABLE
  2
VIEW
  5
6
100
AcDbSymbolTable
 70
0
  0
ENDTAB
  0
TABLE
  2
UCS
  5
7
100
AcDbSymbolTable
 70
0
  0
ENDTAB
  0
TABLE
  2
APPID
  5
9
100
AcDbSymbolTable
 70
1
  0
APPID
  5
210
100
AcDbSymbolTableRecord
100
AcDbRegAppTableRecord
  2
ACAD
 70
0
  0
ENDTAB
  0
TABLE
  2
BLOCK_RECORD
  5
1
100
AcDbSymbolTable
 70
0
  0
BLOCK_RECORD
  5
211
100
AcDbSymbolTableRecord
100
AcDbBlockTableRecord
  2
*Model_Space
  0
BLOCK_RECORD
  5
212
100
AcDbSymbolTableRecord
100
AcDbBlockTableRecord
  2
*Paper_Space
  0
BLOCK_RECORD
  5
213
100
AcDbSymbolTableRecord
100
AcDbBlockTableRecord
  2
_FILLED
  0
BLOCK_RECORD
  5
214
100
AcDbSymbolTableRecord
100
AcDbBlockTableRecord
  2
*D0
  0
BLOCK_RECORD
  5
215
100
AcDbSymbolTableRecord
100
AcDbBlockTableRecord
  2
*D1
  0
BLOCK_RECORD
  5
216
100
AcDbSymbolTableRecord
100
AcDbBlockTableRecord
  2
*D2
  0
ENDTAB
  0
TABLE
  2
DIMSTYLE
  5
A
100
AcDbSymbolTable
 70
1
100
AcDbDimStyleTable
 71
0
  0
DIMSTYLE
105
217
100
AcDbSymbolTableRecord
100
AcDbDimStyleTableRecord
  2
STANDARD
 70
0
  3

  4

 40
1.0
 41
3.0
 42
0.0625
 43
0.38
 44
0.18
 45
0.0
 46
0.0
 47
0.01
 48
0.01
140
3.0
141
0.09
142
0.0
143
25.4
144
1.0
145
0.0
146
1.0
147
0.09
 71
1.0
 72
0.0
 73
0
 74
0
 75
0
 76
0
 77
1
 78
8
170
0
171
2
172
0
173
0
174
0
175
0
176
0
177
0
178
0
270
2
271
2
272
2
273
2
274
2
275
0
280
0
281
0
282
0
283
1
284
8
285
0
286
0
287
3
288
0
340
11
341
213
342
213
343
213
344
213
  0
DIMSTYLE
105
218
100
AcDbSymbolTableRecord
100
AcDbDimStyleTableRecord
  2
DIMSTYLE_1
 70
0
  3

  4

 40
1.0
 41
3.0
 42
0.0625
 43
0.38
 44
0.18
 45
0.0
 46
0.0
 47
0.0
 48
0.0
140
3.0
141
0.09
142
0.0
143
25.4
144
1.0
145
0.0
146
1.0
147
0.09
 71
0.0
 72
0.0
 73
0
 74
0
 75
0
 76
0
 77
1
 78
8
170
0
171
2
172
0
173
0
174
0
175
0
176
0
177
0
178
0
270
2
271
2
272
2
273
2
274
2
275
0
280
0
281
0
282
0
283
1
284
8
285
0
286
0
287
3
288
0
340
11
341
213
342
213
343
213
344
213
  0
ENDTAB
  0
ENDSEC
  0
SECTION
  2
BLOCKS
  0
BLOCK
  5
20
100
AcDbEntity
  8
0
100
AcDbBlockBegin
  2
*Model_Space
 70
0
 10
0.0
 20
0.0
 30
0.0
  3
*Model_Space
  1

  0
ENDBLK
  5
21
100
AcDbEntity
  8
0
100
AcDbBlockEnd
  0
BLOCK
  5
1C
100
AcDbEntity
  8
0
100
AcDbBlockBegin
  2
*Paper_Space
 70
0
 10
0.0
 20
0.0
 30
0.0
  3
*Paper_Space
  1

  0
ENDBLK
  5
1D
100
AcDbEntity
  8
0
100
AcDbBlockEnd
  0
BLOCK
  5
219
100
AcDbEntity
  8
0
100
AcDbBlockBegin
  2
_FILLED
 70
64
 10
0.0
 20
0.0
  3
_FILLED
  1

  0
SOLID
  5
21A
100
AcDbEntity
  8
0
  6
BYBLOCK
 62
0
100
AcDbTrace
 10
0.0
 20
0.0
 11
-1.0
 21
0.3166666667
 12
-1.0
 22
-0.3166666667
 13
-1.0
 23
-0.3166666667
  0
ENDBLK
  5
21B
100
AcDbEntity
  8
0
  6
BYBLOCK
 62
0
100
AcDbBlockEnd
  0
BLOCK
  5
21C
100
AcDbEntity
  8
0
100
AcDbBlockBegin
 62
7
  6
CONTINUOUS
  2
*D0
 70
65
 10
0.0
 20
0.0
  3
*D0
  1

  0
MTEXT
  5
21D
100
AcDbEntity
  8
0
100
AcDbMText
 62
7
  6
CONTINUOUS
  7
STANDARD
 71
2
 72
1
 10
199.0350868749
 20
170.1427580991
 30
0.0
 11
1.0
 21
0.0
 31
0.0
 44
0.9
  1
144,5
 40
3.0
 41
10.2857142857
  0
LINE
  5
21E
100
AcDbEntity
  8
0
100
AcDbLine
 62
7
  6
CONTINUOUS
 10
271.2850868749
 20
108.8927580991
 11
271.2850868749
 21
167.8927580991
  0
LINE
  5
21F
100
AcDbEntity
  8
0
100
AcDbLine
 62
7
  6
CONTINUOUS
 10
126.7850868749
 20
108.8927580991
 11
126.7850868749
 21
167.8927580991
  0
LINE
  5
220
100
AcDbEntity
  8
0
100
AcDbLine
 62
7
  6
CONTINUOUS
 10
271.2850868749
 20
166.3927580991
 11
199.0350868749
 21
166.3927580991
  0
LINE
  5
221
100
AcDbEntity
  8
0
100
AcDbLine
 62
7
  6
CONTINUOUS
 10
126.7850868749
 20
166.3927580991
 11
199.0350868749
 21
166.3927580991
  0
INSERT
  5
222
100
AcDbEntity
  8
0
100
AcDbBlockReference
 62
7
  6
CONTINUOUS
  2
_FILLED
 10
271.2850868749
 20
166.3927580991
 41
3.0
 42
3.0
 43
3.0
  0
INSERT
  5
223
100
AcDbEntity
  8
0
100
AcDbBlockReference
 62
7
  6
CONTINUOUS
  2
_FILLED
 10
126.7850868749
 20
166.3927580991
 41
3.0
 42
3.0
 43
3.0
 50
180.0
  0
ENDBLK
  5
224
100
AcDbEntity
  8
0
  6
BYBLOCK
 62
0
100
AcDbBlockEnd
  0
BLOCK
  5
225
100
AcDbEntity
  8
0
100
AcDbBlockBegin
 62
7
  6
CONTINUOUS
  2
*D1
 70
65
 10
0.0
 20
0.0
  3
*D1
  1

  0
MTEXT
  5
226
100
AcDbEntity
  8
0
100
AcDbMText
 62
7
  6
CONTINUOUS
  7
STANDARD
 71
2
 72
1
 10
279.4850868749
 20
108.3927580991
 30
0.0
 11
0.0
 21
1.0
 31
0.0
 44
0.9
  1
90
 40
3.0
 41
4.7142857143
  0
LINE
  5
227
100
AcDbEntity
  8
0
100
AcDbLine
 62
7
  6
CONTINUOUS
 10
199.5350868749
 20
153.3927580991
 11
284.7350868749
 21
153.3927580991
  0
LINE
  5
228
100
AcDbEntity
  8
0
100
AcDbLine
 62
7
  6
CONTINUOUS
 10
199.5350868749
 20
63.3927580991
 11
284.7350868749
 21
63.3927580991
  0
LINE
  5
229
100
AcDbEntity
  8
0
100
AcDbLine
 62
7
  6
CONTINUOUS
 10
283.2350868749
 20
153.3927580991
 11
283.2350868749
 21
108.3927580991
  0
LINE
  5
22A
100
AcDbEntity
  8
0
100
AcDbLine
 62
7
  6
CONTINUOUS
 10
283.2350868749
 20
63.3927580991
 11
283.2350868749
 21
108.3927580991
  0
INSERT
  5
22B
100
AcDbEntity
  8
0
100
AcDbBlockReference
 62
7
  6
CONTINUOUS
  2
_FILLED
 10
283.2350868749
 20
153.3927580991
 41
3.0
 42
3.0
 43
3.0
 50
90.0
  0
INSERT
  5
22C
100
AcDbEntity
  8
0
100
AcDbBlockReference
 62
7
  6
CONTINUOUS
  2
_FILLED
 10
283.2350868749
 20
63.3927580991
 41
3.0
 42
3.0
 43
3.0
 50
270.0
  0
ENDBLK
  5
22D
100
AcDbEntity
  8
0
  6
BYBLOCK
 62
0
100
AcDbBlockEnd
  0
BLOCK
  5
22E
100
AcDbEntity
  8
0
100
AcDbBlockBegin
 62
7
  6
CONTINUOUS
  2
*D2
 70
65
 10
0.0
 20
0.0
  3
*D2
  1

  0
MTEXT
  5
22F
100
AcDbEntity
  8
0
100
AcDbMText
 62
7
  6
CONTINUOUS
  7
STANDARD
 71
2
 72
1
 10
108.3740555569
 20
170.1427580991
 30
0.0
 11
1.0
 21
0.0
 31
0.0
 44
0.9
  1
8,5
 40
3.0
 41
6.2142857143
  0
LINE
  5
230
100
AcDbEntity
  8
0
100
AcDbLine
 62
7
  6
CONTINUOUS
 10
112.6240555569
 20
150.291955558
 11
112.6240555569
 21
167.8927580991
  0
LINE
  5
231
100
AcDbEntity
  8
0
100
AcDbLine
 62
7
  6
CONTINUOUS
 10
104.1240555569
 20
132.1712693481
 11
104.1240555569
 21
167.8927580991
  0
LINE
  5
232
100
AcDbEntity
  8
0
100
AcDbLine
 62
7
  6
CONTINUOUS
 10
112.6240555569
 20
166.3927580991
 11
116.6240555569
 21
166.3927580991
  0
LINE
  5
233
100
AcDbEntity
  8
0
100
AcDbLine
 62
7
  6
CONTINUOUS
 10
116.6240555569
 20
166.3927580991
 11
108.3740555569
 21
166.3927580991
  0
LINE
  5
234
100
AcDbEntity
  8
0
100
AcDbLine
 62
7
  6
CONTINUOUS
 10
104.1240555569
 20
166.3927580991
 11
100.1240555569
 21
166.3927580991
  0
LINE
  5
235
100
AcDbEntity
  8
0
100
AcDbLine
 62
7
  6
CONTINUOUS
 10
100.1240555569
 20
166.3927580991
 11
108.3740555569
 21
166.3927580991
  0
INSERT
  5
236
100
AcDbEntity
  8
0
100
AcDbBlockReference
 62
7
  6
CONTINUOUS
  2
_FILLED
 10
112.6240555569
 20
166.3927580991
 41
3.0
 42
3.0
 43
3.0
 50
180.0
  0
INSERT
  5
237
100
AcDbEntity
  8
0
100
AcDbBlockReference
 62
7
  6
CONTINUOUS
  2
_FILLED
 10
104.1240555569
 20
166.3927580991
 41
3.0
 42
3.0
 43
3.0
  0
ENDBLK
  5
238
100
AcDbEntity
  8
0
  6
BYBLOCK
 62
0
100
AcDbBlockEnd
  0
ENDSEC
  0
SECTION
  2
ENTITIES
  0
DIMENSION
  5
239
100
AcDbEntity
  8
0
100
AcDbDimension
 62
7
  6
CONTINUOUS
  2
*D0
 10
126.7850868749
 20
166.3927580991
 11
193.892229732
 21
168.6427580991
 70
160
 71
2
 42
144.5
  3
DIMSTYLE_1
100
AcDbAlignedDimension
 13
271.2850868749
 23
108.8927580991
 14
126.7850868749
 24
108.8927580991
 50
180.0
100
AcDbRotatedDimension
  0
DIMENSION
  5
23A
100
AcDbEntity
  8
0
100
AcDbDimension
 62
7
  6
CONTINUOUS
  2
*D1
 10
283.2350868749
 20
63.3927580991
 11
282.0412603986
 21
106.2854802492
 70
160
 71
2
 42
90.0
  3
DIMSTYLE_1
100
AcDbAlignedDimension
 13
199.5350868749
 23
153.3927580991
 14
199.5350868749
 24
63.3927580991
 50
270.0
100
AcDbRotatedDimension
  0
DIMENSION
  5
23B
100
AcDbEntity
  8
0
100
AcDbDimension
 62
7
  6
CONTINUOUS
  2
*D2
 10
104.1240555569
 20
166.3927580991
 11
105.2669126997
 21
168.6427580991
 70
160
 71
2
 42
8.5
  3
DIMSTYLE_1
100
AcDbAlignedDimension
 13
112.6240555569
 23
150.291955558
 14
104.1240555569
 24
132.1712693481
 50
180.0
100
AcDbRotatedDimension
  0
LWPOLYLINE
  5
23C
100
AcDbEntity
  8
RACCORDO
100
AcDbPolyline
 62
253
  6
CONTINUOUS
 90
9
 70
0
 10
128.2757138092
 20
82.8315156563
 10
128.3242879147
 20
82.3872479595
 10
128.3760463802
 20
81.9432296506
 10
128.4309892383
 20
81.4994798432
 10
128.4891157765
 20
81.0560245124
 10
128.5504242882
 20
80.6128964706
 10
128.6149133989
 20
80.1701216824
 10
128.6825823145
 20
79.7277192866
 10
128.7534297396
 20
79.2857118475
  0
LWPOLYLINE
  5
23D
100
AcDbEntity
  8
RACCORDO
100
AcDbPolyline
 62
253
  6
CONTINUOUS
 90
9
 70
0
 10
128.5484545422
 20
82.8459624304
 10
128.5968234789
 20
82.4030049446
 10
128.6483644297
 20
81.9603127617
 10
128.7030756158
 20
81.517869581
 10
128.7609565446
 20
81.0756987867
 10
128.8220079639
 20
80.6338634086
 10
128.886229219
 20
80.1923867527
 10
128.9536182987
 20
79.7512524416
 10
129.0241738023
 20
79.3104639243
  0
LINE
  5
23E
100
AcDbEntity
  8
RACCORDO
100
AcDbLine
 62
253
  6
CONTINUOUS
 10
128.2150221306
 20
83.4318199113
 11
128.2757138092
 21
82.8315156563
  0
LINE
  5
23F
100
AcDbEntity
  8
RACCORDO
100
AcDbLine
 62
253
  6
CONTINUOUS
 10
128.4879635246
 20
83.4451093181
 11
128.5484545422
 21
82.8459624304
  0
LINE
  5
240
100
AcDbEntity
  8
RACCORDO
100
AcDbLine
 62
253
  6
CONTINUOUS
 10
128.0958366053
 20
84.6786285242
 11
128.2150221306
 21
83.4318199113
  0
LINE
  5
241
100
AcDbEntity
  8
RACCORDO
100
AcDbLine
 62
253
  6
CONTINUOUS
 10
128.3688311323
 20
84.6928693858
 11
128.4879635246
 21
83.4451093181
  0
LWPOLYLINE
  5
242
100
AcDbEntity
  8
RACCORDO
100
AcDbPolyline
 62
253
  6
CONTINUOUS
 90
16
 70
0
 10
128.3688315479
 20
132.0926468857
 10
128.0945177562
 20
128.9394099012
 10
127.8592743861
 20
125.7838284568
 10
127.6631626589
 20
122.6260273256
 10
127.5062472656
 20
119.465933901
 10
127.3885568917
 20
116.3038714614
 10
127.3100831216
 20
113.1405594036
 10
127.2708333426
 20
109.9757005999
 10
127.2708331332
 20
106.8098452325
 10
127.3100826124
 20
103.6449842245
 10
127.3885563116
 20
100.4816665689
 10
127.506246742
 20
97.3195963291
 10
127.6631622328
 20
94.1594964719
 10
127.8592740657
 20
91.0016914652
 10
128.0945175768
 20
87.8461075123
 10
128.3688315424
 20
84.6928693858
  0
LWPOLYLINE
  5
243
100
AcDbEntity
  8
RACCORDO
100
AcDbPolyline
 62
253
  6
CONTINUOUS
 90
16
 70
0
 10
128.0958366053
 20
132.106887674
 10
127.8213352505
 20
128.9523206711
 10
127.5859773333
 20
125.7947152305
 10
127.3897945884
 20
122.6345457636
 10
127.2328198376
 20
119.4724401444
 10
127.1150630523
 20
116.3087203144
 10
127.0365307683
 20
113.143401511
 10
126.9972472204
 20
109.9765324313
 10
126.9972470284
 20
106.8090148082
 10
127.0365302318
 20
103.6421435191
 10
127.1150623281
 20
100.4768191621
 10
127.2328191616
 20
97.3130915763
 10
127.389794087
 20
94.1509794115
 10
127.5859770084
 20
90.9908057445
 10
127.821335108
 20
87.8331973122
 10
128.0958366053
 20
84.6786285242
  0
LINE
  5
244
100
AcDbEntity
  8
RACCORDO
100
AcDbLine
 62
253
  6
CONTINUOUS
 10
128.4879635232
 20
133.340406866
 11
128.3688311392
 21
132.0926468857
  0
LINE
  5
245
100
AcDbEntity
  8
RACCORDO
100
AcDbLine
 62
253
  6
CONTINUOUS
 10
128.2150220547
 20
133.3536955119
 11
128.0958366053
 21
132.106887674
  0
LWPOLYLINE
  5
246
100
AcDbEntity
  8
RACCORDO
100
AcDbPolyline
 62
253
  6
CONTINUOUS
 90
10
 70
0
 10
129.0241738023
 20
137.4750522739
 10
128.9536181193
 20
137.0342625208
 10
128.8862289099
 20
136.5931272844
 10
128.8220075746
 20
136.1516500141
 10
128.7609561303
 20
135.7098143353
 10
128.7030752256
 20
135.2676435515
 10
128.6483640949
 20
134.8252006844
 10
128.5968232249
 20
134.3825091155
 10
128.5484543998
 20
133.9395525469
 10
128.4879635232
 20
133.340406866
  0
LWPOLYLINE
  5
247
100
AcDbEntity
  8
RACCORDO
100
AcDbPolyline
 62
253
  6
CONTINUOUS
 90
10
 70
0
 10
128.7534273289
 20
137.4997896628
 10
128.6825812199
 20
137.0577899247
 10
128.6149132204
 20
136.6153933181
 10
128.5504246676
 20
136.1726224003
 10
128.4891163315
 20
135.7294958087
 10
128.4309897021
 20
135.2860399957
 10
128.3760467056
 20
134.8422892549
 10
128.3242881199
 20
134.3982700564
 10
128.2757138593
 20
133.9540010174
 10
128.2150220547
 20
133.3536955119
  0
LWPOLYLINE
  5
248
100
AcDbEntity
  8
RACCORDO
100
AcDbPolyline
 62
253
  6
CONTINUOUS
 90
43
 70
0
 10
254.3805461948
 20
65.5239961582
 10
254.8900508814
 20
65.5823452305
 10
255.3962129381
 20
65.6562120137
 10
255.8990403447
 20
65.7456004009
 10
256.3988607206
 20
65.8506052154
 10
256.8953610012
 20
65.9711418103
 10
257.3875873147
 20
66.106945931
 10
257.8756682871
 20
66.2580715174
 10
258.3594864417
 20
66.4244790254
 10
258.8377176289
 20
66.6057646798
 10
259.3103820512
 20
66.8019877136
 10
259.7774665977
 20
67.0131067009
 10
260.2375957704
 20
67.2385671429
 10
260.6907427084
 20
67.4784141281
 10
261.1369367958
 20
67.7326227235
 10
261.5748853806
 20
68.0005331548
 10
262.0045715785
 20
68.282196285
 10
262.4260100349
 20
68.5775826298
 10
262.8379538695
 20
68.8859111129
 10
263.24039195
 20
69.2072463574
 10
263.6333284793
 20
69.5415451291
 10
264.0155381776
 20
69.8878631735
 10
264.386987956
 20
70.2462575569
 10
264.7476996434
 20
70.6166913
 10
265.0965292053
 20
70.9980770649
 10
265.4334370184
 20
71.3904733555
 10
265.7584477992
 20
71.7938392735
 10
266.0705133126
 20
72.2069357925
 10
266.3695724181
 20
72.6297952865
 10
266.6556686667
 20
73.0623994468
 10
266.9279106835
 20
73.5034302174
 10
267.1862352303
 20
73.9529026354
 10
267.4306864077
 20
74.4108115458
 10
267.6605342423
 20
74.8758054114
 10
267.8757563824
 20
75.3480235836
 10
268.076355611
 20
75.8273322266
 10
268.2616408145
 20
76.3119664252
 10
268.4315206267
 20
76.8019880361
 10
268.5860680721
 20
77.2973354882
 10
268.724840712
 20
77.7960547359
 10
268.8476864226
 20
78.2974920366
 10
268.9547420393
 20
78.802295984
 10
269.0459999474
 20
79.3104639243
  0
LWPOLYLINE
  5
249
100
AcDbEntity
  8
RACCORDO
100
AcDbPolyline
 62
253
  6
CONTINUOUS
 90
43
 70
0
 10
254.3959968141
 20
65.2773051372
 10
254.9136758145
 20
65.3364210629
 10
255.4289078914
 20
65.4115455743
 10
255.9411970429
 20
65.5025715741
 10
256.4498672574
 20
65.6093358685
 10
256.9546197093
 20
65.7317302698
 10
257.4555198431
 20
65.8697584634
 10
257.9522204287
 20
66.0233502575
 10
258.4440907692
 20
66.1923351481
 10
258.930761037
 20
66.3766046874
 10
259.4117787859
 20
66.5760193615
 10
259.886636569
 20
66.7903993845
 10
260.3548849678
 20
67.0195655672
 10
260.8160448483
 20
67.2633158966
 10
261.2696654615
 20
67.5214435933
 10
261.7153459824
 20
67.7937471938
 10
262.1526381228
 20
68.0799937597
 10
262.581092678
 20
68.3799296848
 10
263.0003137928
 20
68.6933097359
 10
263.4098873796
 20
69.0198737662
 10
263.8093698981
 20
69.3593175529
 10
264.1983339013
 20
69.7113112801
 10
264.5763811252
 20
70.0755430651
 10
264.9431094655
 20
70.4516744952
 10
265.2981066002
 20
70.8393120517
 10
265.6410111111
 20
71.2381065683
 10
265.9714535071
 20
71.6476748045
 10
266.2890379354
 20
72.0675463059
 10
266.5934296956
 20
72.4973117064
 10
266.8843193533
 20
72.9365685232
 10
267.1613810474
 20
73.3848334357
 10
267.4243214307
 20
73.8416569133
 10
267.6728793739
 20
74.306612165
 10
267.9068046212
 20
74.7792344801
 10
268.1259050684
 20
75.2591778822
 10
268.3298964752
 20
75.7458659088
 10
268.5184464826
 20
76.2384643472
 10
268.6913973227
 20
76.7364994065
 10
268.848593128
 20
77.2394574652
 10
268.9898005995
 20
77.7464142915
 10
269.1149138228
 20
78.2567156414
 10
269.2239104374
 20
78.7699901939
 10
269.3167464025
 20
79.2857265384
  0
LWPOLYLINE
  5
24A
100
AcDbEntity
  8
RACCORDO
100
AcDbPolyline
 62
253
  6
CONTINUOUS
 90
43
 70
0
 10
128.7534297558
 20
79.2857118502
 10
128.8462804933
 20
78.769902586
 10
128.9552929885
 20
78.256571074
 10
129.0804217609
 20
77.7462286003
 10
129.2216419747
 20
77.2392498168
 10
129.3788471253
 20
76.7362850529
 10
129.551806317
 20
76.2382477212
 10
129.7403639233
 20
75.7456497421
 10
129.9443612552
 20
75.2589663855
 10
130.1634681386
 20
74.7790263001
 10
130.3974017157
 20
74.3064035846
 10
130.6459689206
 20
73.8414467893
 10
130.9089184954
 20
73.3846225987
 10
131.1859888452
 20
72.9363584285
 10
131.4768869361
 20
72.4971031256
 10
131.7812868992
 20
72.0673399232
 10
132.0988788888
 20
71.6474717504
 10
132.4293284972
 20
71.2379074581
 10
132.7722410638
 20
70.8391160806
 10
133.1272477276
 20
70.4514803718
 10
133.4939866477
 20
70.075350198
 10
133.8720452087
 20
69.7111195228
 10
134.2610214241
 20
69.3591267576
 10
134.6605169869
 20
69.0196839325
 10
135.0701038247
 20
68.6931214432
 10
135.4893380385
 20
68.3797437706
 10
135.9178058388
 20
68.0798108115
 10
136.3551117017
 20
67.79356759
 10
136.8008066044
 20
67.5212676476
 10
137.2544420732
 20
67.2631440892
 10
137.7156170714
 20
67.0193985295
 10
138.1838833623
 20
66.7902365867
 10
138.6587593248
 20
66.5758616458
 10
139.1397874869
 20
66.3764561002
 10
139.6264601557
 20
66.192198999
 10
140.1183245437
 20
66.0232291423
 10
140.6150021018
 20
65.8696566887
 10
141.1158518421
 20
65.731653146
 10
141.6205359859
 20
65.6092839653
 10
142.1291412226
 20
65.5025396996
 10
142.6413761813
 20
65.4115277359
 10
143.15655799
 20
65.336413259
 10
143.674190855
 20
65.2773037619
  0
LWPOLYLINE
  5
24B
100
AcDbEntity
  8
RACCORDO
100
AcDbPolyline
 62
253
  6
CONTINUOUS
 90
43
 70
0
 10
129.0241738023
 20
79.3104639243
 10
129.1154609178
 20
78.802170437
 10
129.2225418526
 20
78.2972698468
 10
129.3454089696
 20
77.795764785
 10
129.4841981245
 20
77.2970147415
 10
129.6387581276
 20
76.8016653213
 10
129.8086494062
 20
76.3116462359
 10
129.9939453438
 20
75.8270128096
 10
130.1945542125
 20
75.3477094276
 10
130.4097867034
 20
74.8754954329
 10
130.639646497
 20
74.4105021448
 10
130.884110346
 20
73.9525927322
 10
131.142447394
 20
73.5031207185
 10
131.4147014928
 20
73.062091959
 10
131.7008096522
 20
72.6294907137
 10
131.9998803596
 20
72.2066349185
 10
132.3119567573
 20
71.7935432512
 10
132.6369781135
 20
71.3901829666
 10
132.9738972811
 20
70.997791862
 10
133.3227394263
 20
70.6164102295
 10
133.6834644767
 20
70.2459801725
 10
134.0549281383
 20
69.8875896223
 10
134.4371523476
 20
69.5412755703
 10
134.8301039085
 20
69.2069809375
 10
135.2325569596
 20
68.8856505325
 10
135.6445153744
 20
68.5773278589
 10
136.065968351
 20
68.2819480228
 10
136.4956694163
 20
68.0002918452
 10
136.9336334325
 20
67.7323886593
 10
137.3798432996
 20
67.4781877528
 10
137.8330061248
 20
67.2383490977
 10
138.2931539462
 20
67.0128968661
 10
138.7602572503
 20
66.8017867304
 10
139.2329323392
 20
66.6055756681
 10
139.7111664248
 20
66.424306153
 10
140.1949793911
 20
66.2579179012
 10
140.6830379272
 20
66.1068140168
 10
141.1752191458
 20
65.9710356117
 10
141.6716570861
 20
65.8505271777
 10
142.1714049479
 20
65.7455475985
 10
142.6741520212
 20
65.6561797326
 10
143.1802235648
 20
65.5823305497
 10
143.6896275549
 20
65.5239961582
  0
LWPOLYLINE
  5
24C
100
AcDbEntity
  8
RACCORDO
100
AcDbPolyline
 62
253
  6
CONTINUOUS
 90
9
 70
0
 10
249.9571805641
 20
64.9298402246
 10
250.512843085
 20
64.9635597565
 10
251.0682953945
 20
65.0000571127
 10
251.6235172072
 20
65.0393304272
 10
252.1785012059
 20
65.0813785316
 10
252.7332530206
 20
65.1262012808
 10
253.2877653228
 20
65.1737978255
 10
253.842017847
 20
65.2241662874
 10
254.395996811
 20
65.277305168
  0
LWPOLYLINE
  5
24D
100
AcDbEntity
  8
RACCORDO
100
AcDbPolyline
 62
253
  6
CONTINUOUS
 90
9
 70
0
 10
249.9505588298
 20
65.1768093005
 10
250.505100587
 20
65.2105001593
 10
251.0594192263
 20
65.2469649111
 10
251.6135210752
 20
65.2862050266
 10
252.1674015408
 20
65.3282197576
 10
252.721045108
 20
65.3730061366
 10
253.2744471475
 20
65.4205634651
 10
253.8276139153
 20
65.4708933144
 10
254.3805461948
 20
65.5239961582
  0
LINE
  5
24E
100
AcDbEntity
  8
RACCORDO
100
AcDbLine
 62
253
  6
CONTINUOUS
 10
248.8220624159
 20
65.1155207098
 11
249.9505588298
 21
65.1768093005
  0
LINE
  5
24F
100
AcDbEntity
  8
RACCORDO
100
AcDbLine
 62
253
  6
CONTINUOUS
 10
248.8278068689
 20
64.8685777596
 11
249.9571805641
 21
64.9298402246
  0
LINE
  5
250
100
AcDbEntity
  8
RACCORDO
100
AcDbLine
 62
253
  6
CONTINUOUS
 10
245.3780276782
 20
64.9399239736
 11
248.8220624159
 21
65.1155207098
  0
LINE
  5
251
100
AcDbEntity
  8
RACCORDO
100
AcDbLine
 62
253
  6
CONTINUOUS
 10
245.3850699995
 20
64.6932631703
 11
248.8278068689
 21
64.8685777596
  0
LINE
  5
252
100
AcDbEntity
  8
RACCORDO
100
AcDbLine
 62
253
  6
CONTINUOUS
 10
244.2368710902
 20
64.6373493453
 11
245.3850699995
 21
64.6932631703
  0
LINE
  5
253
100
AcDbEntity
  8
RACCORDO
100
AcDbLine
 62
253
  6
CONTINUOUS
 10
244.2294026147
 20
64.8839199711
 11
245.3780276782
 21
64.9399239736
  0
LWPOLYLINE
  5
254
100
AcDbEntity
  8
RACCORDO
100
AcDbPolyline
 62
253
  6
CONTINUOUS
 90
16
 70
0
 10
153.8333026595
 20
64.6373493453
 10
159.8493155077
 20
64.36702498
 10
165.8694058658
 20
64.1351541187
 10
171.8933327529
 20
63.9417946072
 10
177.9215735715
 20
63.7869826827
 10
183.9531671684
 20
63.6708028061
 10
189.985712696
 20
63.5933407189
 10
196.0184737849
 20
63.5546114511
 10
202.0516982291
 20
63.5546114456
 10
208.0844602454
 20
63.5933407111
 10
214.1170085249
 20
63.6708028367
 10
220.1486058003
 20
63.7869828084
 10
226.1768485318
 20
63.9417948249
 10
232.20077467
 20
64.1351543591
 10
238.220862516
 20
64.3670251594
 10
244.2368710902
 20
64.6373493453
  0
LWPOLYLINE
  5
255
100
AcDbEntity
  8
RACCORDO
100
AcDbPolyline
 62
253
  6
CONTINUOUS
 90
16
 70
0
 10
153.8407720772
 20
64.8839198648
 10
159.856193728
 20
64.6130209725
 10
165.8752092042
 20
64.3808056523
 10
171.8978167508
 20
64.1872424838
 10
177.9249833686
 20
64.0322385539
 10
183.9557454857
 20
63.9158387786
 10
189.9872086798
 20
63.8382259587
 10
196.0188896183
 20
63.7994554709
 10
202.0512836265
 20
63.7994554635
 10
208.0829654906
 20
63.8382259631
 10
214.1144314423
 20
63.9158388653
 10
220.1451972427
 20
64.0322387495
 10
226.1723657503
 20
64.1872427366
 10
232.1949724869
 20
64.3808058847
 10
238.21398536
 20
64.6130211327
 10
244.2294026144
 20
64.8839199012
  0
LINE
  5
256
100
AcDbEntity
  8
RACCORDO
100
AcDbLine
 62
253
  6
CONTINUOUS
 10
150.3896330475
 20
64.8088784229
 11
153.8333026595
 21
64.6373493453
  0
LINE
  5
257
100
AcDbEntity
  8
RACCORDO
100
AcDbLine
 62
253
  6
CONTINUOUS
 10
150.3958118649
 20
65.055725369
 11
153.8407720769
 21
64.883919925
  0
LINE
  5
258
100
AcDbEntity
  8
RACCORDO
100
AcDbLine
 62
253
  6
CONTINUOUS
 10
148.6688525839
 20
64.8988998731
 11
150.3896330475
 21
64.8088784229
  0
LINE
  5
259
100
AcDbEntity
  8
RACCORDO
100
AcDbLine
 62
253
  6
CONTINUOUS
 10
148.6743806858
 20
65.1458920122
 11
150.3958118649
 21
65.055725369
  0
LWPOLYLINE
  5
25A
100
AcDbEntity
  8
RACCORDO
100
AcDbPolyline
 62
253
  6
CONTINUOUS
 90
10
 70
0
 10
143.6741908586
 20
65.2773037972
 10
144.2281649457
 20
65.2241654427
 10
144.7824138095
 20
65.1737973499
 10
145.3369236697
 20
65.1262010358
 10
145.8916747608
 20
65.081378358
 10
146.4466592578
 20
65.0393302283
 10
147.0018812965
 20
65.000056912
 10
147.5573330605
 20
64.9635596052
 10
148.1129947625
 20
64.9298401329
 10
148.6688525839
 20
64.8988998734
  0
LWPOLYLINE
  5
25B
100
AcDbEntity
  8
RACCORDO
100
AcDbPolyline
 62
253
  6
CONTINUOUS
 90
10
 70
0
 10
143.6896275549
 20
65.5239961582
 10
144.2425627138
 20
65.4708930642
 10
144.795731642
 20
65.4205630351
 10
145.3491351231
 20
65.3730055973
 10
145.902779414
 20
65.3282191899
 10
146.4566598843
 20
65.2862045009
 10
147.0107610155
 20
65.2469644663
 10
147.5650782134
 20
65.2104998239
 10
148.1196178065
 20
65.1768091134
 10
148.6743806858
 20
65.1458920122
  0
LWPOLYLINE
  5
25C
100
AcDbEntity
  8
RACCORDO
100
AcDbPolyline
 62
253
  6
CONTINUOUS
 90
19
 70
0
 10
153.7857444001
 20
85.5129460524
 10
153.7315521503
 20
85.5597669687
 10
153.6794334184
 20
85.6094872955
 10
153.6293881941
 20
85.662107072
 10
153.5811682631
 20
85.7178141943
 10
153.5350218345
 20
85.7764208525
 10
153.4916935528
 20
85.8373635213
 10
153.4512607779
 20
85.9007013665
 10
153.4136462071
 20
85.9663752996
 10
153.3793625215
 20
86.0336443929
 10
153.3484959644
 20
86.10255883
 10
153.320960403
 20
86.1730684836
 10
153.2970099733
 20
86.2442819307
 10
153.2767463962
 20
86.316199774
 10
153.2600680934
 20
86.3888214345
 10
153.2469242535
 20
86.4612536824
 10
153.2372979839
 20
86.5331987632
 10
153.2312063182
 20
86.6049544173
 10
153.2286493296
 20
86.6765206397
  0
LINE
  5
25D
100
AcDbEntity
  8
RACCORDO
100
AcDbLine
 62
253
  6
CONTINUOUS
 10
143.66161336
 20
151.6327580991
 11
143.6741769356
 21
151.508211061
  0
LINE
  5
25E
100
AcDbEntity
  8
RACCORDO
100
AcDbLine
 62
253
  6
CONTINUOUS
 10
143.6896275549
 20
151.2615200399
 11
143.6849943074
 21
151.3130524265
  0
LINE
  5
25F
100
AcDbEntity
  8
RACCORDO
100
AcDbLine
 62
253
  6
CONTINUOUS
 10
143.6849943074
 20
151.3130524265
 11
143.6809655244
 21
151.3612961086
  0
LWPOLYLINE
  5
260
100
AcDbEntity
  8
RACCORDO
100
AcDbPolyline
 62
253
  6
CONTINUOUS
 90
11
 70
0
 10
143.6809655244
 20
151.3612961086
 10
143.6776699028
 20
151.4047099713
 10
143.6763309389
 20
151.424165058
 10
143.6752127192
 20
151.4419071856
 10
143.6743241919
 20
151.4577943796
 10
143.673672467
 20
151.4716995092
 10
143.6732627596
 20
151.4835113039
 10
143.6730983484
 20
151.4931352447
 10
143.6731805489
 20
151.5004943196
 10
143.6735087034
 20
151.5055296407
 10
143.6740801859
 20
151.5082009147
  0
LINE
  5
261
100
AcDbEntity
  8
RACCORDO
100
AcDbLine
 62
253
  6
CONTINUOUS
 10
148.66161336
 20
152.0192190717
 11
148.6688520993
 21
151.886616299
  0
LINE
  5
262
100
AcDbEntity
  8
RACCORDO
100
AcDbLine
 62
253
  6
CONTINUOUS
 10
148.6743806858
 20
151.6396241861
 11
148.6720170703
 21
151.6912962026
  0
LINE
  5
263
100
AcDbEntity
  8
RACCORDO
100
AcDbLine
 62
253
  6
CONTINUOUS
 10
148.6720170703
 20
151.6912962026
 11
148.670073638
 21
151.7396529421
  0
LWPOLYLINE
  5
264
100
AcDbEntity
  8
RACCORDO
100
AcDbPolyline
 62
253
  6
CONTINUOUS
 90
11
 70
0
 10
148.670073638
 20
151.7396529421
 10
148.668612446
 20
151.7831502874
 10
148.6680779167
 20
151.8026353265
 10
148.6676801528
 20
151.8203992903
 10
148.6674223359
 20
151.8363000859
 10
148.6673065283
 20
151.8502105236
 10
148.6673336563
 20
151.8620193348
 10
148.667503503
 20
151.8716320613
 10
148.6678147096
 20
151.8789718115
 10
148.668264787
 20
151.8839798752
 10
148.6688501349
 20
151.8866161932
  0
LWPOLYLINE
  5
265
100
AcDbEntity
  8
RACCORDO
100
AcDbPolyline
 62
253
  6
CONTINUOUS
 90
9
 70
0
 10
148.6680779167
 20
64.982880871
 10
148.6676801528
 20
64.9651169071
 10
148.6674223359
 20
64.9492161114
 10
148.6673065282
 20
64.9353056735
 10
148.6673336563
 20
64.9234968623
 10
148.6675035029
 20
64.9138841357
 10
148.6678147096
 20
64.9065443854
 10
148.6682647869
 20
64.9015363216
 10
148.6688501349
 20
64.8989000035
  0
LINE
  5
266
100
AcDbEntity
  8
RACCORDO
100
AcDbLine
 62
253
  6
CONTINUOUS
 10
148.6692794648
 20
65.0234161651
 11
148.6680779167
 21
64.982880871
  0
LWPOLYLINE
  5
267
100
AcDbEntity
  8
RACCORDO
100
AcDbPolyline
 62
253
  6
CONTINUOUS
 90
19
 70
0
 10
153.22864933
 20
130.1089955632
 10
153.2312063166
 20
130.1805617838
 10
153.2372979813
 20
130.2523174365
 10
153.2469242507
 20
130.3242625162
 10
153.260068092
 20
130.3966947634
 10
153.276746397
 20
130.4693164237
 10
153.2970099757
 20
130.5412342668
 10
153.3209604058
 20
130.6124477136
 10
153.3484959669
 20
130.6829573671
 10
153.3793625233
 20
130.7518718044
 10
153.4136462072
 20
130.8191408987
 10
153.4512607757
 20
130.8848148333
 10
153.4916935495
 20
130.9481526792
 10
153.5350218322
 20
131.0090953471
 10
153.5811682629
 20
131.0677020038
 10
153.6293881953
 20
131.123409125
 10
153.6794334199
 20
131.1760289014
 10
153.7315521513
 20
131.2257492286
 10
153.7857444001
 20
131.2725701458
  0
LINE
  5
268
100
AcDbEntity
  8
RACCORDO
100
AcDbLine
 62
253
  6
CONTINUOUS
 10
148.6709886127
 20
65.0695276292
 11
148.6692794648
 21
65.0234161651
  0
LWPOLYLINE
  5
269
100
AcDbEntity
  8
RACCORDO
100
AcDbPolyline
 62
7
  6
CONTINUOUS
 90
19
 70
0
 10
153.6230168023
 20
130.0988991421
 10
153.6255948634
 20
130.1554024839
 10
153.6309570937
 20
130.2115058816
 10
153.6390550538
 20
130.2670297669
 10
153.6498367241
 20
130.3218624856
 10
153.6632366143
 20
130.3758571896
 10
153.6791669263
 20
130.4288155831
 10
153.6975203147
 20
130.4805548652
 10
153.7182240686
 20
130.5310427999
 10
153.7412473007
 20
130.580307882
 10
153.76649027
 20
130.62820163
 10
153.7938904158
 20
130.6746707372
 10
153.8235259364
 20
130.7198618609
 10
153.8554185432
 20
130.7637565324
 10
153.8894397551
 20
130.806142563
 10
153.9254639012
 20
130.8468670734
 10
153.9633952077
 20
130.8858202061
 10
154.0031719897
 20
130.9229257922
 10
154.0446892033
 20
130.9580902965
  0
LWPOLYLINE
  5
26A
100
AcDbEntity
  8
RACCORDO
100
AcDbPolyline
 62
253
  6
CONTINUOUS
 90
3
 70
0
 10
148.6743806859
 20
65.1458920122
 10
148.6731507842
 20
65.1197428417
 10
148.6709886127
 20
65.0695276292
  0
LINE
  5
26B
100
AcDbEntity
  8
RACCORDO
100
AcDbLine
 62
253
  6
CONTINUOUS
 10
148.66161336
 20
64.7662971265
 11
148.6688525839
 21
64.8988998731
  0
LWPOLYLINE
  5
26C
100
AcDbEntity
  8
RACCORDO
100
AcDbPolyline
 62
253
  6
CONTINUOUS
 90
10
 70
0
 10
143.6776698705
 20
65.3808059515
 10
143.6763309019
 20
65.3613508181
 10
143.6752126779
 20
65.3436086458
 10
143.6743241466
 20
65.3277214094
 10
143.6736724182
 20
65.3138162406
 10
143.6732627079
 20
65.3020044104
 10
143.6730982942
 20
65.2923804384
 10
143.6731804928
 20
65.2850213368
 10
143.673508646
 20
65.2799859941
 10
143.6740801278
 20
65.2773147037
  0
LINE
  5
26D
100
AcDbEntity
  8
RACCORDO
100
AcDbLine
 62
253
  6
CONTINUOUS
 10
143.6809655024
 20
65.4242199101
 11
143.6776698705
 21
65.3808059515
  0
LINE
  5
26E
100
AcDbEntity
  8
RACCORDO
100
AcDbLine
 62
253
  6
CONTINUOUS
 10
143.6849942964
 20
65.472463686
 11
143.6809655024
 21
65.4242199101
  0
LINE
  5
26F
100
AcDbEntity
  8
RACCORDO
100
AcDbLine
 62
253
  6
CONTINUOUS
 10
143.6896275549
 20
65.5239961582
 11
143.6849942964
 21
65.472463686
  0
LINE
  5
270
100
AcDbEntity
  8
RACCORDO
100
AcDbLine
 62
253
  6
CONTINUOUS
 10
143.66161336
 20
65.1527580991
 11
143.6741908586
 21
65.2773037972
  0
LWPOLYLINE
  5
271
100
AcDbEntity
  8
RACCORDO
100
AcDbPolyline
 62
253
  6
CONTINUOUS
 90
16
 70
0
 10
153.7857444001
 20
131.2725701458
 10
153.8383109617
 20
131.3143440326
 10
153.892845155
 20
131.3538039306
 10
153.9493469741
 20
131.3909498648
 10
154.0080359101
 20
131.4259357496
 10
154.0686924652
 20
131.4586077154
 10
154.1306581529
 20
131.4885041127
 10
154.1939606604
 20
131.5155440183
 10
154.2585723038
 20
131.5398083995
 10
154.3237515433
 20
131.5610784459
 10
154.389503722
 20
131.5792716058
 10
154.4558235099
 20
131.5944704641
 10
154.5219533586
 20
131.6067039125
 10
154.5876407576
 20
131.6159815876
 10
154.6531382363
 20
131.6222938707
 10
154.718445806
 20
131.6256407669
  0
LWPOLYLINE
  5
272
100
AcDbEntity
  8
RACCORDO
100
AcDbPolyline
 62
7
  6
CONTINUOUS
 90
16
 70
0
 10
154.0446899677
 20
130.9580893574
 10
154.0841109263
 20
130.9884434969
 10
154.1247821099
 20
131.0170205427
 10
154.1666184445
 20
131.0437611765
 10
154.2095174796
 20
131.0686108635
 10
154.2534119843
 20
131.0915419252
 10
154.2982736893
 20
131.1125406955
 10
154.343990996
 20
131.1315546529
 10
154.390502045
 20
131.1485607847
 10
154.4378618589
 20
131.1635655516
 10
154.4860699168
 20
131.1765328159
 10
154.5349558164
 20
131.1873931817
 10
154.5843228783
 20
131.196103118
 10
154.6340461731
 20
131.202638745
 10
154.6840683012
 20
131.2069807524
 10
154.7342640631
 20
131.2091124096
  0
LWPOLYLINE
  5
273
100
AcDbEntity
  8
0
100
AcDbPolyline
 62
7
  6
CONTINUOUS
 90
7
 70
0
 10
203.8575900397
 20
80.8383774711
 10
203.8690536588
 20
80.8409481907
 10
203.8801612516
 20
80.8444582534
 10
203.890912819
 20
80.8489076637
 10
203.9012017057
 20
80.8544279518
 10
203.9111345685
 20
80.8608876014
 10
203.9210313761
 20
80.8678920451
  0
LWPOLYLINE
  5
274
100
AcDbEntity
  8
0
100
AcDbPolyline
 62
7
  6
CONTINUOUS
 90
10
 70
0
 10
202.9177841289
 20
81.8377033032
 10
202.9702870235
 20
81.8463998535
 10
203.0224391875
 20
81.8533662043
 10
203.0742406116
 20
81.8586023399
 10
203.1257684272
 20
81.8620896711
 10
203.1769454843
 20
81.8638467679
 10
203.2275403517
 20
81.8639293593
 10
203.2774758797
 20
81.8623560228
 10
203.3268292004
 20
81.8591081841
 10
203.375600305
 20
81.8541858502
  0
LINE
  5
275
100
AcDbEntity
  8
0
100
AcDbLine
 62
7
  6
CONTINUOUS
 10
204.3942350868
 20
79.5149567447
 11
203.8321024967
 21
79.5149567447
  0
LINE
  5
276
100
AcDbEntity
  8
0
100
AcDbLine
 62
7
  6
CONTINUOUS
 10
202.9371622197
 20
79.5149567447
 11
202.3551056772
 21
79.5149567447
  0
LINE
  5
277
100
AcDbEntity
  8
0
100
AcDbLine
 62
7
  6
CONTINUOUS
 10
202.1834948749
 20
79.5149570991
 11
201.5675528749
 21
79.5149570991
  0
LINE
  5
278
100
AcDbEntity
  8
0
100
AcDbLine
 62
7
  6
CONTINUOUS
 10
200.4590338749
 20
79.5149570991
 11
199.8809668749
 21
79.5149570991
  0
LINE
  5
279
100
AcDbEntity
  8
0
100
AcDbLine
 62
7
  6
CONTINUOUS
 10
199.7891988749
 20
79.5149570991
 11
199.2174928749
 21
79.5149570991
  0
LINE
  5
27A
100
AcDbEntity
  8
0
100
AcDbLine
 62
7
  6
CONTINUOUS
 10
198.4025628749
 20
79.5149570991
 11
198.3205998749
 21
79.5149570991
  0
LINE
  5
27B
100
AcDbEntity
  8
0
100
AcDbLine
 62
7
  6
CONTINUOUS
 10
197.5089038749
 20
79.5149570991
 11
196.9498148749
 21
79.5149570991
  0
LINE
  5
27C
100
AcDbEntity
  8
0
100
AcDbLine
 62
7
  6
CONTINUOUS
 10
196.6352098749
 20
79.5149570991
 11
196.0508018749
 21
79.5149570991
  0
LINE
  5
27D
100
AcDbEntity
  8
0
100
AcDbLine
 62
7
  6
CONTINUOUS
 10
194.9339898749
 20
79.5149570991
 11
194.4189798749
 21
79.5149570991
  0
LINE
  5
27E
100
AcDbEntity
  8
0
100
AcDbLine
 62
7
  6
CONTINUOUS
 10
201.4161608749
 20
80.0738770991
 11
200.6202938749
 21
80.0738770991
  0
LINE
  5
27F
100
AcDbEntity
  8
0
100
AcDbLine
 62
7
  6
CONTINUOUS
 10
201.2993668749
 20
80.5063670991
 11
200.7398378749
 21
80.5063670991
  0
LINE
  5
280
100
AcDbEntity
  8
0
100
AcDbLine
 62
7
  6
CONTINUOUS
 10
203.2505078371
 20
80.6106061743
 11
202.9371622197
 21
80.6106061743
  0
LWPOLYLINE
  5
281
100
AcDbEntity
  8
RACCORDO
100
AcDbPolyline
 62
7
  6
CONTINUOUS
 90
19
 70
0
 10
154.044689011
 20
85.8274262665
 10
154.0033130836
 20
85.8624651407
 10
153.9636526189
 20
85.8994442934
 10
153.9258136371
 20
85.9382727119
 10
153.8898527337
 20
85.9788841301
 10
153.8558737953
 20
86.0211643116
 10
153.8240204854
 20
86.0649388886
 10
153.794415289
 20
86.1100032581
 10
153.7670399
 20
86.1563316101
 10
153.7418384459
 20
86.2040205875
 10
153.7188798281
 20
86.2529794984
 10
153.6982365052
 20
86.3030907079
 10
153.6799111818
 20
86.3544354584
 10
153.6639694833
 20
86.4069997015
 10
153.6505231282
 20
86.4605868584
 10
153.6396564403
 20
86.5150071442
 10
153.6314333702
 20
86.5701184569
 10
153.6259059998
 20
86.6258127671
 10
153.6231220902
 20
86.6819157616
  0
LINE
  5
282
100
AcDbEntity
  8
RACCORDO
100
AcDbLine
 62
253
  6
CONTINUOUS
 10
153.8407778418
 20
151.9015965559
 11
153.8374917337
 21
151.9778861479
  0
LINE
  5
283
100
AcDbEntity
  8
RACCORDO
100
AcDbLine
 62
253
  6
CONTINUOUS
 10
154.7286325996
 20
131.3389129262
 11
154.7342652852
 21
131.2090873268
  0
LINE
  5
284
100
AcDbEntity
  8
RACCORDO
100
AcDbLine
 62
253
  6
CONTINUOUS
 10
154.7232818897
 20
131.4798070817
 11
154.7286325996
 21
131.3389129262
  0
LINE
  5
285
100
AcDbEntity
  8
RACCORDO
100
AcDbLine
 62
253
  6
CONTINUOUS
 10
153.8374917337
 20
151.9778861479
 11
153.8349537437
 21
152.0449554241
  0
LINE
  5
286
100
AcDbEntity
  8
RACCORDO
100
AcDbLine
 62
253
  6
CONTINUOUS
 10
154.718445806
 20
131.6256407669
 11
154.7232818897
 21
131.4798070817
  0
LWPOLYLINE
  5
287
100
AcDbEntity
  8
RACCORDO
100
AcDbPolyline
 62
253
  6
CONTINUOUS
 90
9
 70
0
 10
153.8349537437
 20
152.0449554241
 10
153.8337696118
 20
152.0821397347
 10
153.8333453464
 20
152.0980087154
 10
153.8330377679
 20
152.1118882875
 10
153.8328493331
 20
152.1236675907
 10
153.8327815471
 20
152.1332525407
 10
153.8328349513
 20
152.1405665797
 10
153.8330091192
 20
152.1455512885
 10
153.8333026595
 20
152.1481668529
  0
LINE
  5
288
100
AcDbEntity
  8
RACCORDO
100
AcDbLine
 62
7
  6
CONTINUOUS
 10
153.6231220902
 20
86.6819157616
 11
153.6230027531
 21
86.6869361544
  0
LINE
  5
289
100
AcDbEntity
  8
RACCORDO
100
AcDbLine
 62
253
  6
CONTINUOUS
 10
153.8158461024
 20
71.4529275084
 11
153.8407720769
 21
64.883919925
  0
LINE
  5
28A
100
AcDbEntity
  8
RACCORDO
100
AcDbLine
 62
253
  6
CONTINUOUS
 10
153.797799816
 20
78.059976724
 11
153.8158461024
 21
71.4529275084
  0
LINE
  5
28B
100
AcDbEntity
  8
RACCORDO
100
AcDbLine
 62
253
  6
CONTINUOUS
 10
153.2286493296
 20
86.6765206397
 11
153.2196612553
 21
92.1056002799
  0
LINE
  5
28C
100
AcDbEntity
  8
RACCORDO
100
AcDbLine
 62
7
  6
CONTINUOUS
 10
153.6230143716
 20
86.6869365232
 11
153.6115878977
 21
93.9186736566
  0
LINE
  5
28D
100
AcDbEntity
  8
RACCORDO
100
AcDbLine
 62
253
  6
CONTINUOUS
 10
153.8152570831
 20
86.6927935484
 11
153.8043730101
 21
93.50550772
  0
LINE
  5
28E
100
AcDbEntity
  8
RACCORDO
100
AcDbLine
 62
253
  6
CONTINUOUS
 10
153.2196612553
 20
92.1056002799
 11
153.2135295902
 21
97.17370211
  0
LINE
  5
28F
100
AcDbEntity
  8
RACCORDO
100
AcDbLine
 62
253
  6
CONTINUOUS
 10
153.7857444001
 20
85.5129460524
 11
153.797799816
 21
78.059976724
  0
LINE
  5
290
100
AcDbEntity
  8
RACCORDO
100
AcDbLine
 62
253
  6
CONTINUOUS
 10
153.8043730101
 20
93.50550772
 11
153.7986385754
 21
98.8875573866
  0
LINE
  5
291
100
AcDbEntity
  8
RACCORDO
100
AcDbLine
 62
7
  6
CONTINUOUS
 10
153.6115878977
 20
93.9186736566
 11
153.6047245492
 21
101.1544130737
  0
LINE
  5
292
100
AcDbEntity
  8
RACCORDO
100
AcDbLine
 62
253
  6
CONTINUOUS
 10
153.2135295902
 20
97.17370211
 11
153.2088219184
 21
104.136827513
  0
LINE
  5
293
100
AcDbEntity
  8
RACCORDO
100
AcDbLine
 62
253
  6
CONTINUOUS
 10
153.7986385754
 20
98.8875573866
 11
153.7953639864
 21
104.5105416565
  0
LINE
  5
294
100
AcDbEntity
  8
RACCORDO
100
AcDbLine
 62
7
  6
CONTINUOUS
 10
153.6047245492
 20
101.1544130737
 11
153.6024458455
 21
108.392758099
  0
LINE
  5
295
100
AcDbEntity
  8
0
100
AcDbLine
 62
7
  6
CONTINUOUS
 10
153.9350868749
 20
130.0927580991
 11
153.9350868749
 21
86.6927580991
  0
LINE
  5
296
100
AcDbEntity
  8
RACCORDO
100
AcDbLine
 62
253
  6
CONTINUOUS
 10
154.7350868749
 20
131.2090990178
 11
154.7350868749
 21
131.0107943329
  0
LINE
  5
297
100
AcDbEntity
  8
RACCORDO
100
AcDbLine
 62
253
  6
CONTINUOUS
 10
154.7350868152
 20
85.5764171813
 11
154.7350868748
 21
85.7747218652
  0
LINE
  5
298
100
AcDbEntity
  8
0
100
AcDbLine
 62
253
  6
CONTINUOUS
 10
154.7350868749
 20
85.8927580991
 11
154.7350817889
 21
85.7747218652
  0
LINE
  5
299
100
AcDbEntity
  8
0
100
AcDbLine
 62
253
  6
CONTINUOUS
 10
154.7350868749
 20
130.8927580991
 11
154.7350813596
 21
131.0107943329
  0
LINE
  5
29A
100
AcDbEntity
  8
RACCORDO
100
AcDbLine
 62
253
  6
CONTINUOUS
 10
153.2088219184
 20
104.136827513
 11
153.2082205502
 21
110.4841102144
  0
LINE
  5
29B
100
AcDbEntity
  8
RACCORDO
100
AcDbLine
 62
253
  6
CONTINUOUS
 10
153.7953639864
 20
104.5105416565
 11
153.7948769994
 21
110.3472238032
  0
LINE
  5
29C
100
AcDbEntity
  8
RACCORDO
100
AcDbLine
 62
7
  6
CONTINUOUS
 10
153.6024458598
 20
108.392758099
 11
153.604724602
 21
115.6312405738
  0
LINE
  5
29D
100
AcDbEntity
  8
RACCORDO
100
AcDbLine
 62
253
  6
CONTINUOUS
 10
153.2082205502
 20
110.4841102144
 11
153.2114541725
 21
117.2196245031
  0
LINE
  5
29E
100
AcDbEntity
  8
RACCORDO
100
AcDbLine
 62
253
  6
CONTINUOUS
 10
153.7948769994
 20
110.3472238032
 11
153.7972447744
 21
116.0503420459
  0
LINE
  5
29F
100
AcDbEntity
  8
RACCORDO
100
AcDbLine
 62
253
  6
CONTINUOUS
 10
153.2114541725
 20
117.2196245031
 11
153.216251665
 21
122.1037288685
  0
LINE
  5
2A0
100
AcDbEntity
  8
RACCORDO
100
AcDbLine
 62
7
  6
CONTINUOUS
 10
153.604724602
 20
115.6312405738
 11
153.6115882111
 21
122.8670653048
  0
LINE
  5
2A1
100
AcDbEntity
  8
RACCORDO
100
AcDbLine
 62
253
  6
CONTINUOUS
 10
153.7972447744
 20
116.0503420459
 11
153.8067663643
 21
125.0209157146
  0
LWPOLYLINE
  5
2A2
100
AcDbEntity
  8
RACCORDO
100
AcDbPolyline
 62
253
  6
CONTINUOUS
 90
3
 70
0
 10
153.216251665
 20
122.1037288685
 10
153.2237863904
 20
127.3517475592
 10
153.22864933
 20
130.1089955632
  0
LINE
  5
2A3
100
AcDbEntity
  8
RACCORDO
100
AcDbLine
 62
253
  6
CONTINUOUS
 10
153.7857444001
 20
131.2725701458
 11
153.7913701819
 21
135.4115659546
  0
LINE
  5
2A4
100
AcDbEntity
  8
RACCORDO
100
AcDbLine
 62
7
  6
CONTINUOUS
 10
153.6115882111
 20
122.8670653048
 11
153.6230149846
 21
130.0988990701
  0
LINE
  5
2A5
100
AcDbEntity
  8
RACCORDO
100
AcDbLine
 62
253
  6
CONTINUOUS
 10
153.8067663643
 20
125.0209157146
 11
153.8152570832
 21
130.0927226693
  0
LINE
  5
2A6
100
AcDbEntity
  8
RACCORDO
100
AcDbLine
 62
253
  6
CONTINUOUS
 10
153.7913701819
 20
135.4115659546
 11
153.8016636456
 21
140.3802008761
  0
LINE
  5
2A7
100
AcDbEntity
  8
RACCORDO
100
AcDbLine
 62
253
  6
CONTINUOUS
 10
153.8016636456
 20
140.3802008761
 11
153.8158461015
 21
145.3325886902
  0
LWPOLYLINE
  5
2A8
100
AcDbEntity
  8
RACCORDO
100
AcDbPolyline
 62
253
  6
CONTINUOUS
 90
3
 70
0
 10
153.8158461015
 20
145.3325886902
 10
153.8338983152
 20
150.2635766427
 10
153.8407720891
 20
151.9015962738
  0
LWPOLYLINE
  5
2A9
100
AcDbEntity
  8
RACCORDO
100
AcDbPolyline
 62
253
  6
CONTINUOUS
 90
7
 70
0
 10
153.8333453465
 20
64.6875074851
 10
153.833037768
 20
64.6736279133
 10
153.8328493333
 20
64.6618486102
 10
153.8327815473
 20
64.6522636605
 10
153.8328349515
 20
64.6449496216
 10
153.8330091193
 20
64.6399649129
 10
153.8333026597
 20
64.6373493487
  0
LWPOLYLINE
  5
2AA
100
AcDbEntity
  8
RACCORDO
100
AcDbPolyline
 62
253
  6
CONTINUOUS
 90
31
 70
0
 10
153.8152570612
 20
130.0927226693
 10
153.8166655855
 20
130.1418978055
 10
153.8207111375
 20
130.1910217128
 10
153.8273975717
 20
130.2399520873
 10
153.8367218897
 20
130.288548389
 10
153.8486718244
 20
130.3366643272
 10
153.8632243735
 20
130.3841487948
 10
153.8803630853
 20
130.4308900928
 10
153.9000423826
 20
130.4767143495
 10
153.9221664292
 20
130.521386249
 10
153.9466305884
 20
130.5647147124
 10
153.9733906665
 20
130.6066395967
 10
154.0024299301
 20
130.6471257477
 10
154.0337189127
 20
130.6860980772
 10
154.0671383763
 20
130.7233762421
 10
154.1025290391
 20
130.7587739514
 10
154.1397972781
 20
130.7921978827
 10
154.1788210373
 20
130.8235386507
 10
154.2193638345
 20
130.8526239522
 10
154.2613600425
 20
130.8794296472
 10
154.304610119
 20
130.9038500506
 10
154.3486283319
 20
130.9256750246
 10
154.3932937142
 20
130.9449366362
 10
154.4384075222
 20
130.9616375273
 10
154.4833168201
 20
130.9756683192
 10
154.5278351031
 20
130.9871425607
 10
154.5718321494
 20
130.9961916843
 10
154.6147196791
 20
131.002885202
 10
154.6562176375
 20
131.0074065485
 10
154.6963680019
 20
131.0099785192
 10
154.7350813596
 20
131.0107943337
  0
LINE
  5
2AB
100
AcDbEntity
  8
RACCORDO
100
AcDbLine
 62
253
  6
CONTINUOUS
 10
153.8343071756
 20
64.721108105
 11
153.8333453465
 21
64.6875074851
  0
LINE
  5
2AC
100
AcDbEntity
  8
RACCORDO
100
AcDbLine
 62
253
  6
CONTINUOUS
 10
154.7184457534
 20
85.1598753284
 11
154.7232821323
 21
85.3057092424
  0
LINE
  5
2AD
100
AcDbEntity
  8
RACCORDO
100
AcDbLine
 62
253
  6
CONTINUOUS
 10
153.8357041523
 20
64.7615791037
 11
153.8343071756
 21
64.721108105
  0
LINE
  5
2AE
100
AcDbEntity
  8
RACCORDO
100
AcDbLine
 62
253
  6
CONTINUOUS
 10
154.7232821323
 20
85.3057092424
 11
154.7286328309
 21
85.4466037474
  0
LINE
  5
2AF
100
AcDbEntity
  8
RACCORDO
100
AcDbLine
 62
253
  6
CONTINUOUS
 10
153.8385146287
 20
64.8322948486
 11
153.8357041523
 21
64.7615791037
  0
LINE
  5
2B0
100
AcDbEntity
  8
RACCORDO
100
AcDbLine
 62
253
  6
CONTINUOUS
 10
153.8407778418
 20
64.8839196423
 11
153.8385146287
 21
64.8322948486
  0
LINE
  5
2B1
100
AcDbEntity
  8
RACCORDO
100
AcDbLine
 62
253
  6
CONTINUOUS
 10
154.7286328309
 20
85.4466037474
 11
154.7342640952
 21
85.576403453
  0
LWPOLYLINE
  5
2B2
100
AcDbEntity
  8
RACCORDO
100
AcDbPolyline
 62
253
  6
CONTINUOUS
 90
16
 70
0
 10
129.024173809
 20
79.310463931
 10
128.9963289672
 20
79.3061774868
 10
128.9689573525
 20
79.3021515775
 10
128.9423052845
 20
79.2984224323
 10
128.9166126074
 20
79.2950236103
 10
128.8921105319
 20
79.2919856978
 10
128.8690195545
 20
79.2893360331
 10
128.8475474727
 20
79.2870984609
 10
128.8278875159
 20
79.2852931173
 10
128.8102166057
 20
79.2839362487
 10
128.7946937641
 20
79.2830400657
 10
128.7814586826
 20
79.2826126332
 10
128.770630465
 20
79.2826577976
 10
128.7623065551
 20
79.2831751524
 10
128.7565618608
 20
79.2841600421
 10
128.7534480789
 20
79.2856036034
  0
LWPOLYLINE
  5
2B3
100
AcDbEntity
  8
RACCORDO
100
AcDbPolyline
 62
253
  6
CONTINUOUS
 90
13
 70
0
 10
153.6230143701
 20
86.6869373331
 10
153.6506312774
 20
86.6879935608
 10
153.676508178
 20
86.6891305048
 10
153.7005104656
 20
86.6903422569
 10
153.7225134149
 20
86.6916226201
 10
153.7424023448
 20
86.6929648444
 10
153.7600733726
 20
86.6943616572
 10
153.7754345418
 20
86.6958056985
 10
153.7884061426
 20
86.6972895615
 10
153.7989207497
 20
86.6988055324
 10
153.8069237092
 20
86.700345731
 10
153.8123734224
 20
86.7019021518
 10
153.8152415622
 20
86.7034667047
  0
LWPOLYLINE
  5
2B4
100
AcDbEntity
  8
RACCORDO
100
AcDbPolyline
 62
253
  6
CONTINUOUS
 90
10
 70
0
 10
153.7005837212
 20
86.6841508853
 10
153.7225752789
 20
86.6849907716
 10
153.7424534902
 20
86.6858710091
 10
153.7601150284
 20
86.6867870227
 10
153.775468134
 20
86.6877340532
 10
153.7884330708
 20
86.6887071819
 10
153.7989424903
 20
86.6897013538
 10
153.8069417997
 20
86.6907114044
 10
153.8123894451
 20
86.6917320869
 10
153.815257128
 20
86.6927580991
  0
LWPOLYLINE
  5
2B5
100
AcDbEntity
  8
RACCORDO
100
AcDbPolyline
 62
253
  6
CONTINUOUS
 90
10
 70
0
 10
243.3517279437
 20
85.1598754313
 10
241.2958243378
 20
85.0957963716
 10
239.2396844781
 20
85.0347644465
 10
237.1833104374
 20
84.976779605
 10
235.1267056183
 20
84.921842147
 10
233.0698707502
 20
84.8699516771
 10
231.0128038895
 20
84.8211071038
 10
228.9555057575
 20
84.7753080365
 10
226.8979797414
 20
84.7325547849
 10
224.8402278906
 20
84.6928473125
  0
LWPOLYLINE
  5
2B6
100
AcDbEntity
  8
RACCORDO
100
AcDbPolyline
 62
253
  6
CONTINUOUS
 90
10
 70
0
 10
242.3221895131
 20
85.5619859726
 10
240.3795022673
 20
85.5028400614
 10
238.4366067811
 20
85.44641267
 10
236.4935030543
 20
85.3927037985
 10
234.5501899526
 20
85.3417137726
 10
232.6066686103
 20
85.2934422666
 10
230.6629424309
 20
85.2478883033
 10
228.7190125487
 20
85.2050515571
 10
226.7748778293
 20
85.1649323537
 10
224.8305382727
 20
85.127530693
  0
LWPOLYLINE
  5
2B7
100
AcDbEntity
  8
RACCORDO
100
AcDbPolyline
 62
253
  6
CONTINUOUS
 90
3
 70
0
 10
153.6231228771
 20
86.6819157769
 10
153.6507280244
 20
86.682609385
 10
153.7005837212
 20
86.6841508853
  0
LINE
  5
2B8
100
AcDbEntity
  8
RACCORDO
100
AcDbLine
 62
253
  6
CONTINUOUS
 10
153.5421440703
 20
86.6848567043
 11
153.6230143716
 21
86.6869365232
  0
LINE
  5
2B9
100
AcDbEntity
  8
RACCORDO
100
AcDbLine
 62
253
  6
CONTINUOUS
 10
153.4561436242
 20
86.6832461094
 11
153.5421440703
 21
86.6848567043
  0
LWPOLYLINE
  5
2BA
100
AcDbEntity
  8
RACCORDO
100
AcDbPolyline
 62
253
  6
CONTINUOUS
 90
10
 70
0
 10
224.8402278906
 20
84.6928473125
 10
219.1081780226
 20
84.5980651492
 10
213.3748640167
 20
84.5269803574
 10
207.6403301899
 20
84.479591374
 10
201.9038805296
 20
84.4558971398
 10
196.1662987688
 20
84.4558971261
 10
190.4298485536
 20
84.4795913431
 10
184.6953136169
 20
84.5269803264
 10
178.9619979464
 20
84.5980651286
 10
173.2299458591
 20
84.6928473125
  0
LWPOLYLINE
  5
2BB
100
AcDbEntity
  8
RACCORDO
100
AcDbPolyline
 62
253
  6
CONTINUOUS
 90
10
 70
0
 10
224.8305382727
 20
85.127530693
 10
219.1005963996
 20
85.0331795531
 10
213.369464474
 20
84.9624161957
 10
207.6371424958
 20
84.9152406206
 10
201.9028372816
 20
84.8916528245
 10
196.1673420147
 20
84.8916528108
 10
190.4330362458
 20
84.9152405898
 10
184.7007131583
 20
84.9624161649
 10
178.9695795687
 20
85.0331795326
 10
173.2396354771
 20
85.127530693
  0
LINE
  5
2BC
100
AcDbEntity
  8
RACCORDO
100
AcDbLine
 62
7
  6
CONTINUOUS
 10
243.3350868747
 20
85.5764171804
 11
242.3222121606
 21
85.5619859726
  0
LINE
  5
2BD
100
AcDbEntity
  8
RACCORDO
100
AcDbLine
 62
253
  6
CONTINUOUS
 10
153.366506149
 20
86.6821324596
 11
153.4561436242
 21
86.6832461094
  0
LWPOLYLINE
  5
2BE
100
AcDbEntity
  8
RACCORDO
100
AcDbPolyline
 62
253
  6
CONTINUOUS
 90
3
 70
0
 10
153.2286407161
 20
86.6814322269
 10
153.2747852299
 20
86.6815343261
 10
153.366506149
 20
86.6821324596
  0
LINE
  5
2BF
100
AcDbEntity
  8
0
100
AcDbLine
 62
7
  6
CONTINUOUS
 10
203.251767518
 20
81.0691300125
 11
202.9177841289
 21
81.0691300125
  0
LINE
  5
2C0
100
AcDbEntity
  8
0
100
AcDbLine
 62
7
  6
CONTINUOUS
 10
201.3244768749
 20
82.3146600991
 11
200.7591318749
 21
82.3146600991
  0
LINE
  5
2C1
100
AcDbEntity
  8
0
100
AcDbLine
 62
7
  6
CONTINUOUS
 10
199.5273948749
 20
82.3146600991
 11
198.9491808749
 21
82.3146600991
  0
LINE
  5
2C2
100
AcDbEntity
  8
0
100
AcDbLine
 62
7
  6
CONTINUOUS
 10
197.7865368749
 20
82.3146600991
 11
197.2026118749
 21
82.3146600991
  0
LINE
  5
2C3
100
AcDbEntity
  8
0
100
AcDbLine
 62
7
  6
CONTINUOUS
 10
195.8339268749
 20
82.3146600991
 11
195.2499178749
 21
82.3146600991
  0
LINE
  5
2C4
100
AcDbEntity
  8
0
100
AcDbLine
 62
7
  6
CONTINUOUS
 10
194.1662668749
 20
82.3146600991
 11
193.5314188749
 21
82.3146600991
  0
LINE
  5
2C5
100
AcDbEntity
  8
0
100
AcDbLine
 62
7
  6
CONTINUOUS
 10
196.6352098749
 20
82.3148280991
 11
196.0508018749
 21
82.3148280991
  0
LINE
  5
2C6
100
AcDbEntity
  8
RACCORDO
100
AcDbLine
 62
253
  6
CONTINUOUS
 10
128.3688311323
 20
84.6928693858
 11
173.2299458591
 21
84.6928473125
  0
LINE
  5
2C7
100
AcDbEntity
  8
RACCORDO
100
AcDbLine
 62
253
  6
CONTINUOUS
 10
224.8402278906
 20
84.6928473125
 11
269.7013426105
 21
84.6928693125
  0
LINE
  5
2C8
100
AcDbEntity
  8
RACCORDO
100
AcDbLine
 62
253
  6
CONTINUOUS
 10
242.3221895131
 20
85.5619859726
 11
155.7479842096
 21
85.5619859726
  0
LINE
  5
2C9
100
AcDbEntity
  8
RACCORDO
100
AcDbLine
 62
253
  6
CONTINUOUS
 10
243.3350705983
 20
85.7747218652
 11
154.7350817889
 21
85.7747218652
  0
LINE
  5
2CA
100
AcDbEntity
  8
0
100
AcDbLine
 62
7
  6
CONTINUOUS
 10
243.3350868749
 20
85.8927580991
 11
154.7350868749
 21
85.8927580991
  0
LINE
  5
2CB
100
AcDbEntity
  8
0
100
AcDbLine
 62
253
  6
CONTINUOUS
 10
244.1350868749
 20
86.6927580991
 11
244.2549118927
 21
86.6927672011
  0
LINE
  5
2CC
100
AcDbEntity
  8
0
100
AcDbLine
 62
253
  6
CONTINUOUS
 10
153.9350868749
 20
86.6927580991
 11
153.8152570831
 21
86.6927935484
  0
LINE
  5
2CD
100
AcDbEntity
  8
RACCORDO
100
AcDbLine
 62
7
  6
CONTINUOUS
 10
155.7479615786
 20
85.5619859726
 11
154.7350868152
 21
85.5764171813
  0
LINE
  5
2CE
100
AcDbEntity
  8
RACCORDO
100
AcDbLine
 62
253
  6
CONTINUOUS
 10
244.8414887272
 20
86.676099779
 11
244.7493332704
 21
86.6776150014
  0
LWPOLYLINE
  5
2CF
100
AcDbEntity
  8
RACCORDO
100
AcDbPolyline
 62
253
  6
CONTINUOUS
 90
10
 70
0
 10
173.2396354771
 20
85.127530693
 10
171.2952953468
 20
85.164932366
 10
169.3511601925
 20
85.2050515793
 10
167.4072300141
 20
85.2478883329
 10
165.4635036719
 20
85.2934423019
 10
163.5199823056
 20
85.3417138111
 10
161.5766693343
 20
85.3927038353
 10
159.6335658977
 20
85.4464126994
 10
157.6906708562
 20
85.5028400785
 10
155.7479842096
 20
85.5619859726
  0
LWPOLYLINE
  5
2D0
100
AcDbEntity
  8
RACCORDO
100
AcDbPolyline
 62
253
  6
CONTINUOUS
 90
10
 70
0
 10
173.2299458591
 20
84.6928473125
 10
171.1721933505
 20
84.7325547993
 10
169.1146668506
 20
84.775308062
 10
167.057368409
 20
84.8211071371
 10
165.0003014256
 20
84.8699517153
 10
162.9434666091
 20
84.9218421868
 10
160.886861977
 20
84.9767796418
 10
158.8304882459
 20
85.0347644756
 10
156.7743488313
 20
85.0957963883
 10
154.718445806
 20
85.1598754313
  0
LWPOLYLINE
  5
2D1
100
AcDbEntity
  8
RACCORDO
100
AcDbPolyline
 62
253
  6
CONTINUOUS
 90
31
 70
0
 10
154.7350817889
 20
85.7747218646
 10
154.6963450448
 20
85.7755386387
 10
154.6561875602
 20
85.778112232
 10
154.6146986585
 20
85.7826337703
 10
154.5718406434
 20
85.7893229854
 10
154.52788836
 20
85.7983613251
 10
154.4834158273
 20
85.8098197103
 10
154.4385521637
 20
85.8238294021
 10
154.3934839669
 20
85.8405034455
 10
154.3488527386
 20
85.8597373162
 10
154.3048545756
 20
85.8815367413
 10
154.2616139355
 20
85.9059340677
 10
154.2196154587
 20
85.932721935
 10
154.1790560099
 20
85.9617991857
 10
154.1400063894
 20
85.9931408524
 10
154.102713031
 20
86.0265680188
 10
154.0673008089
 20
86.0619684432
 10
154.0338605728
 20
86.0992512166
 10
154.0025519276
 20
86.1382297762
 10
153.9734943024
 20
86.1787235571
 10
153.9467171551
 20
86.2206574443
 10
153.922237218
 20
86.2639962797
 10
153.9000987496
 20
86.3086798518
 10
153.8804065156
 20
86.3545169208
 10
153.8632564499
 20
86.4012720301
 10
153.8486941916
 20
86.4487711874
 10
153.8367362467
 20
86.4969025376
 10
153.8274056713
 20
86.5455147679
 10
153.820714756
 20
86.59446142
 10
153.8166665042
 20
86.6436018296
 10
153.8152570612
 20
86.6927935484
  0
LWPOLYLINE
  5
2D2
100
AcDbEntity
  8
0
100
AcDbPolyline
 62
7
  6
CONTINUOUS
 90
19
 70
0
 10
203.2505078371
 20
80.6106061743
 10
203.2746095202
 20
80.6098534966
 10
203.2983549534
 20
80.6074173299
 10
203.321744132
 20
80.6032976801
 10
203.3449127259
 20
80.5975201335
 10
203.3677250555
 20
80.5900591278
 10
203.389774092
 20
80.5808379526
 10
203.4110149302
 20
80.5697182094
 10
203.4314924663
 20
80.5568383498
 10
203.4509343755
 20
80.5425369402
 10
203.4692654588
 20
80.526800128
 10
203.4865609106
 20
80.509641828
 10
203.5027739994
 20
80.4914422461
 10
203.5179165748
 20
80.472218669
 10
203.5319767863
 20
80.451953867
 10
203.5448723546
 20
80.4309762544
 10
203.5565758547
 20
80.4093953133
 10
203.5671147143
 20
80.3871016045
 10
203.5764889349
 20
80.3640951517
  0
LWPOLYLINE
  5
2D3
100
AcDbEntity
  8
RACCORDO
100
AcDbPolyline
 62
7
  6
CONTINUOUS
 90
16
 70
0
 10
154.7342640952
 20
85.576403453
 10
154.6840989469
 20
85.5785333397
 10
154.634096007
 20
85.5828720757
 10
154.5843805588
 20
85.5894043912
 10
154.5350090189
 20
85.5981125894
 10
154.4861076485
 20
85.6089741738
 10
154.4378767367
 20
85.6219462845
 10
154.39048141
 20
85.6369625063
 10
154.3439284708
 20
85.6539860632
 10
154.2981830055
 20
85.6730156322
 10
154.2533139349
 20
85.6940228619
 10
154.2094244085
 20
85.7169566503
 10
154.166538651
 20
85.7418036604
 10
154.1247221851
 20
85.7685358204
 10
154.0840778222
 20
85.7970970147
 10
154.0446896805
 20
85.827427089
  0
LWPOLYLINE
  5
2D4
100
AcDbEntity
  8
RACCORDO
100
AcDbPolyline
 62
253
  6
CONTINUOUS
 90
16
 70
0
 10
154.718445806
 20
85.1598754313
 10
154.6531382352
 20
85.1632223212
 10
154.587640756
 20
85.1695346008
 10
154.5219533569
 20
85.1788122752
 10
154.455823509
 20
85.1910457273
 10
154.3895037224
 20
85.2062445921
 10
154.3237515446
 20
85.2244377566
 10
154.258572305
 20
85.245707803
 10
154.193960661
 20
85.2699721822
 10
154.1306581533
 20
85.2970120863
 10
154.0686924658
 20
85.3269084837
 10
154.0080359111
 20
85.3595804501
 10
153.9493469753
 20
85.3945663353
 10
153.892845156
 20
85.4317122692
 10
153.8383109623
 20
85.4711721666
 10
153.7857444001
 20
85.5129460524
  0
LWPOLYLINE
  5
2D5
100
AcDbEntity
  8
0
100
AcDbPolyline
 62
7
  6
CONTINUOUS
 90
22
 70
0
 10
203.375600305
 20
81.8541858502
 10
203.4009914602
 20
81.8504462196
 10
203.4259736341
 20
81.8451530907
 10
203.4505468225
 20
81.8383064741
 10
203.4748260218
 20
81.8299209774
 10
203.4986962272
 20
81.8199820232
 10
203.521812433
 20
81.8084458496
 10
203.5442584768
 20
81.79525516
 10
203.5659505133
 20
81.7804673024
 10
203.586292014
 20
81.7642104853
 10
203.6051979936
 20
81.7463452485
 10
203.6227534336
 20
81.7270111193
 10
203.6386167604
 20
81.706754776
 10
203.6526645339
 20
81.6855647741
 10
203.6650201972
 20
81.6634526087
 10
203.6757125051
 20
81.6409993388
 10
203.6847234375
 20
81.6182618562
 10
203.6920710214
 20
81.5951832892
 10
203.697838085
 20
81.5721740233
 10
203.7020522406
 20
81.5493708472
 10
203.7046858842
 20
81.5266369663
 10
203.7057390197
 20
81.5039723791
  0
LINE
  5
2D6
100
AcDbEntity
  8
RACCORDO
100
AcDbLine
 62
253
  6
CONTINUOUS
 10
128.5885627429
 20
79.2579661145
 11
128.7534297558
 21
79.2857118502
  0
LINE
  5
2D7
100
AcDbEntity
  8
RACCORDO
100
AcDbLine
 62
253
  6
CONTINUOUS
 10
128.0518115941
 20
83.2579661145
 11
128.2303241934
 21
83.2760102216
  0
LWPOLYLINE
  5
2D8
100
AcDbEntity
  8
RACCORDO
100
AcDbPolyline
 62
253
  6
CONTINUOUS
 90
16
 70
0
 10
128.5032586862
 20
83.289181667
 10
128.4750672566
 20
83.2865934002
 10
128.4473596818
 20
83.2841823506
 10
128.4203873564
 20
83.2819703939
 10
128.3943950037
 20
83.2799775996
 10
128.3696184557
 20
83.2782220486
 10
128.3462825134
 20
83.2767196691
 10
128.3245989068
 20
83.2754840925
 10
128.3047643741
 20
83.2745265294
 10
128.2869588765
 20
83.2738556677
 10
128.2713439658
 20
83.2734775944
 10
128.258061318
 20
83.2733957397
 10
128.2472314483
 20
83.2736108463
 10
128.2389526176
 20
83.2741209625
 10
128.2332999408
 20
83.27492146
 10
128.2303247054
 20
83.2760050758
  0
LINE
  5
2D9
100
AcDbEntity
  8
RACCORDO
100
AcDbLine
 62
253
  6
CONTINUOUS
 10
128.3688332049
 20
84.6928473125
 11
128.3128799895
 21
84.6880430012
  0
LWPOLYLINE
  5
2DA
100
AcDbEntity
  8
RACCORDO
100
AcDbPolyline
 62
253
  6
CONTINUOUS
 90
13
 70
0
 10
128.3128799895
 20
84.6880430012
 10
128.2598699588
 20
84.6839283079
 10
128.2350752421
 20
84.6821773105
 10
128.2117246948
 20
84.6806523878
 10
128.1900304094
 20
84.6793673908
 10
128.1701894345
 20
84.6783339911
 10
128.1523819853
 20
84.6775615749
 10
128.1367698065
 20
84.6770571581
 10
128.1234947029
 20
84.6768253224
 10
128.1126772522
 20
84.6768681735
 10
128.1044157089
 20
84.6771853221
 10
128.0987851124
 20
84.6777738876
 10
128.0958366054
 20
84.6786285242
  0
LINE
  5
2DB
100
AcDbEntity
  8
RACCORDO
100
AcDbLine
 62
253
  6
CONTINUOUS
 10
244.7493332704
 20
86.6776150014
 11
244.6584665835
 21
86.6796318718
  0
LINE
  5
2DC
100
AcDbEntity
  8
RACCORDO
100
AcDbLine
 62
253
  6
CONTINUOUS
 10
244.6584665835
 20
86.6796318718
 11
244.5704676023
 21
86.6821151057
  0
LWPOLYLINE
  5
2DD
100
AcDbEntity
  8
RACCORDO
100
AcDbPolyline
 62
253
  6
CONTINUOUS
 90
3
 70
0
 10
244.5704676023
 20
86.6821151057
 10
244.4868683728
 20
86.6850205914
 10
244.4471753955
 20
86.6866162781
  0
LWPOLYLINE
  5
2DE
100
AcDbEntity
  8
RACCORDO
100
AcDbPolyline
 62
253
  6
CONTINUOUS
 90
12
 70
0
 10
269.810303778
 20
84.6839283099
 10
269.8350984919
 20
84.6821773127
 10
269.8584490364
 20
84.6806523903
 10
269.8801433192
 20
84.6793673935
 10
269.8999842917
 20
84.6783339939
 10
269.9177917389
 20
84.6775615779
 10
269.9334039161
 20
84.6770571612
 10
269.9466790184
 20
84.6768253255
 10
269.9574964683
 20
84.6768681766
 10
269.9657580112
 20
84.6771853251
 10
269.9713886078
 20
84.6777738906
 10
269.9743371154
 20
84.6786285269
  0
LINE
  5
2DF
100
AcDbEntity
  8
RACCORDO
100
AcDbLine
 62
253
  6
CONTINUOUS
 10
269.7572937533
 20
84.6880430025
 11
269.810303778
 21
84.6839283099
  0
LINE
  5
2E0
100
AcDbEntity
  8
RACCORDO
100
AcDbLine
 62
253
  6
CONTINUOUS
 10
269.7013405437
 20
84.6928473131
 11
269.7572937533
 21
84.6880430025
  0
LWPOLYLINE
  5
2E1
100
AcDbEntity
  8
RACCORDO
100
AcDbPolyline
 62
253
  6
CONTINUOUS
 90
16
 70
0
 10
269.5669150638
 20
83.2891816668
 10
269.595106494
 20
83.2865933999
 10
269.6228140694
 20
83.2841823502
 10
269.6497863955
 20
83.2819703935
 10
269.6757787488
 20
83.2799775992
 10
269.7005552973
 20
83.2782220481
 10
269.7238912402
 20
83.2767196685
 10
269.7455748474
 20
83.2754840919
 10
269.7654093806
 20
83.2745265287
 10
269.7832148785
 20
83.273855667
 10
269.7988297896
 20
83.2734775937
 10
269.8121124376
 20
83.273395739
 10
269.8229423074
 20
83.2736108456
 10
269.8312211381
 20
83.2741209618
 10
269.8368738149
 20
83.2749214594
 10
269.8398490502
 20
83.2760050752
  0
LINE
  5
2E2
100
AcDbEntity
  8
RACCORDO
100
AcDbLine
 62
253
  6
CONTINUOUS
 10
270.0183621556
 20
83.2579661145
 11
269.8398496877
 21
83.2760115413
  0
LWPOLYLINE
  5
2E3
100
AcDbEntity
  8
RACCORDO
100
AcDbPolyline
 62
253
  6
CONTINUOUS
 90
16
 70
0
 10
269.0459999471
 20
79.3104639246
 10
269.0738448312
 20
79.3061774704
 10
269.1012164916
 20
79.302151551
 10
269.1278686076
 20
79.2984223959
 10
269.1535613339
 20
79.2950235644
 10
269.1780634587
 20
79.2919856428
 10
269.2011544847
 20
79.2893359698
 10
269.2226266131
 20
79.28709839
 10
269.2422866139
 20
79.2852930398
 10
269.2599575645
 20
79.2839361655
 10
269.2754804422
 20
79.283039978
 10
269.2887155547
 20
79.2826125421
 10
269.2995437978
 20
79.2826577043
 10
269.3078677269
 20
79.2831750582
 10
269.3136124342
 20
79.2841599482
 10
269.3167262222
 20
79.2856035109
  0
LINE
  5
2E4
100
AcDbEntity
  8
RACCORDO
100
AcDbLine
 62
253
  6
CONTINUOUS
 10
269.4816110068
 20
79.2579661145
 11
269.3167464208
 21
79.2857265354
  0
LWPOLYLINE
  5
2E5
100
AcDbEntity
  8
0
100
AcDbPolyline
 62
7
  6
CONTINUOUS
 90
19
 70
0
 10
203.7973353046
 20
82.2524742256
 10
203.7393719996
 20
82.2716697124
 10
203.6785810623
 20
82.2886211328
 10
203.6149625032
 20
82.30332844
 10
203.5483758438
 20
82.3156989896
 10
203.4789615866
 20
82.3258253505
 10
203.4071412133
 20
82.3339853086
 10
203.3330804166
 20
82.3402601702
 10
203.2566135293
 20
82.3445685949
 10
203.1776649923
 20
82.3469444088
 10
203.0962014677
 20
82.3474116808
 10
203.0122563231
 20
82.3459463354
 10
202.9258540587
 20
82.3425099896
 10
202.8370319366
 20
82.3370333427
 10
202.7457527305
 20
82.3295857169
 10
202.651929208
 20
82.3203366696
 10
202.5555323034
 20
82.3093427338
 10
202.4565911197
 20
82.2965474206
 10
202.3551056772
 20
82.2819507581
  0
LINE
  5
2E6
100
AcDbEntity
  8
RACCORDO
100
AcDbLine
 62
253
  6
CONTINUOUS
 10
173.2350671909
 20
131.8404211076
 11
173.2396354771
 21
131.6579855052
  0
LINE
  5
2E7
100
AcDbEntity
  8
RACCORDO
100
AcDbLine
 62
253
  6
CONTINUOUS
 10
173.2299458404
 20
132.0926689498
 11
173.2350671909
 21
131.8404211076
  0
LINE
  5
2E8
100
AcDbEntity
  8
RACCORDO
100
AcDbLine
 62
253
  6
CONTINUOUS
 10
173.2299458589
 20
84.6928473119
 11
173.2350671974
 21
84.945094998
  0
LINE
  5
2E9
100
AcDbEntity
  8
RACCORDO
100
AcDbLine
 62
253
  6
CONTINUOUS
 10
173.2350671974
 20
84.945094998
 11
173.2396354771
 21
85.127530693
  0
LINE
  5
2EA
100
AcDbEntity
  8
RACCORDO
100
AcDbLine
 62
253
  6
CONTINUOUS
 10
154.0186866341
 20
85.7956300052
 11
154.044689011
 21
85.8274262665
  0
LINE
  5
2EB
100
AcDbEntity
  8
RACCORDO
100
AcDbLine
 62
253
  6
CONTINUOUS
 10
153.846270917
 20
85.5860728493
 11
154.0186866341
 21
85.7956300052
  0
LINE
  5
2EC
100
AcDbEntity
  8
RACCORDO
100
AcDbLine
 62
253
  6
CONTINUOUS
 10
153.7857444097
 20
85.5129460705
 11
153.846270917
 21
85.5860728493
  0
LINE
  5
2ED
100
AcDbEntity
  8
RACCORDO
100
AcDbLine
 62
253
  6
CONTINUOUS
 10
153.2080658453
 20
108.3927580991
 11
153.7946879706
 21
108.3927580991
  0
LINE
  5
2EE
100
AcDbEntity
  8
RACCORDO
100
AcDbLine
 62
253
  6
CONTINUOUS
 10
244.8621079044
 20
108.3927580991
 11
244.2754857791
 21
108.3927580991
  0
LWPOLYLINE
  5
2EF
100
AcDbEntity
  8
RACCORDO
100
AcDbPolyline
 62
253
  6
CONTINUOUS
 90
12
 70
0
 10
244.2549118771
 20
86.6927580991
 10
244.2577832611
 20
86.6920354365
 10
244.2632374064
 20
86.6913210846
 10
244.271244991
 20
86.6906231375
 10
244.2817629065
 20
86.689949599
 10
244.2947358636
 20
86.6893083335
 10
244.3100977875
 20
86.6887070414
 10
244.3277700041
 20
86.6881532356
 10
244.3476599351
 20
86.6876541654
 10
244.3696634536
 20
86.6872167756
 10
244.3936657579
 20
86.6868476995
 10
244.4471582673
 20
86.6863392677
  0
LINE
  5
2F0
100
AcDbEntity
  8
RACCORDO
100
AcDbLine
 62
253
  6
CONTINUOUS
 10
153.7857444446
 20
131.2725700619
 11
153.9638243394
 21
131.0567901547
  0
LWPOLYLINE
  5
2F1
100
AcDbEntity
  8
RACCORDO
100
AcDbPolyline
 62
253
  6
CONTINUOUS
 90
3
 70
0
 10
153.9638243394
 20
131.0567901547
 10
154.0186875722
 20
130.9898862473
 10
154.0446899677
 20
130.9580893574
  0
LWPOLYLINE
  5
2F2
100
AcDbEntity
  8
RACCORDO
100
AcDbPolyline
 62
253
  6
CONTINUOUS
 90
10
 70
0
 10
244.2549161292
 20
130.0927580991
 10
244.2577828939
 20
130.0934773644
 10
244.263229095
 20
130.0941877493
 10
244.2712279543
 20
130.0948814066
 10
244.2817400759
 20
130.0955505554
 10
244.294711884
 20
130.0961876238
 10
244.3100744841
 20
130.0967853281
 10
244.3277471512
 20
130.0973366264
 10
244.3476388819
 20
130.0978346277
 10
244.3696460301
 20
130.0982727461
  0
LINE
  5
2F3
100
AcDbEntity
  8
0
100
AcDbLine
 62
7
  6
CONTINUOUS
 10
197.6350188749
 20
81.3431110991
 11
198.3205998749
 21
79.5149570991
  0
LINE
  5
2F4
100
AcDbEntity
  8
0
100
AcDbLine
 62
7
  6
CONTINUOUS
 10
198.3647728749
 20
80.7602560991
 11
197.7865368749
 21
82.3146600991
  0
LINE
  5
2F5
100
AcDbEntity
  8
0
100
AcDbLine
 62
7
  6
CONTINUOUS
 10
193.5314188749
 20
82.3146600991
 11
194.4189798749
 21
79.5149570991
  0
LINE
  5
2F6
100
AcDbEntity
  8
0
100
AcDbLine
 62
7
  6
CONTINUOUS
 10
194.6999408749
 20
80.3875380991
 11
194.1662668749
 21
82.3146600991
  0
LINE
  5
2F7
100
AcDbEntity
  8
RACCORDO
100
AcDbLine
 62
253
  6
CONTINUOUS
 10
269.4816110068
 20
137.5275500837
 11
269.3167439939
 21
137.499804348
  0
LWPOLYLINE
  5
2F8
100
AcDbEntity
  8
0
100
AcDbPolyline
 62
7
  6
CONTINUOUS
 90
8
 70
0
 10
203.5764889349
 20
80.3640951517
 10
203.5906135698
 20
80.3252452289
 10
203.6042694582
 20
80.2862899126
 10
203.6174566016
 20
80.2472292113
 10
203.6301031715
 20
80.2080694614
 10
203.642281
 20
80.1688043435
 10
203.6542055793
 20
80.1294148845
 10
203.6658771847
 20
80.0899050221
  0
LINE
  5
2F9
100
AcDbEntity
  8
0
100
AcDbLine
 62
7
  6
CONTINUOUS
 10
202.1834948749
 20
79.5149570991
 11
201.3244768749
 21
82.3146600991
  0
LINE
  5
2FA
100
AcDbEntity
  8
0
100
AcDbLine
 62
7
  6
CONTINUOUS
 10
203.734448107
 20
79.8496801092
 11
203.8321024967
 21
79.5149567447
  0
LWPOLYLINE
  5
2FB
100
AcDbEntity
  8
0
100
AcDbPolyline
 62
7
  6
CONTINUOUS
 90
4
 70
0
 10
203.6658771847
 20
80.0899050221
 10
203.7000292446
 20
79.9705410372
 10
203.7113445885
 20
79.9304454438
 10
203.734448107
 20
79.8496801092
  0
LWPOLYLINE
  5
2FC
100
AcDbEntity
  8
0
100
AcDbPolyline
 62
7
  6
CONTINUOUS
 90
27
 70
0
 10
204.1738767532
 20
80.3483240896
 10
204.1685978622
 20
80.367174474
 10
204.1630857956
 20
80.3860930805
 10
204.1573337437
 20
80.405083079
 10
204.1513485149
 20
80.4241413028
 10
204.1449864031
 20
80.4433443341
 10
204.1382342639
 20
80.462725074
 10
204.1311052393
 20
80.4822506295
 10
204.1234950524
 20
80.5018988931
 10
204.1154032082
 20
80.5217017722
 10
204.1068301988
 20
80.5416273664
 10
204.0976732274
 20
80.5615578526
 10
204.087939828
 20
80.5815106092
 10
204.0776224637
 20
80.6014682576
 10
204.0665957315
 20
80.6212608313
 10
204.0549011214
 20
80.640877401
 10
204.0424971411
 20
80.6603288857
 10
204.029133913
 20
80.6794780831
 10
204.0148215236
 20
80.698397366
 10
203.9995498837
 20
80.7170143458
 10
203.9830388527
 20
80.7349746648
 10
203.9651874627
 20
80.7523973436
 10
203.9460966799
 20
80.7691633301
 10
203.9257892673
 20
80.7845611326
 10
203.9042728153
 20
80.7983535612
 10
203.8815397385
 20
80.8107777457
 10
203.8575900397
 20
80.8218336622
  0
LINE
  5
2FD
100
AcDbEntity
  8
0
100
AcDbLine
 62
7
  6
CONTINUOUS
 10
201.4161608749
 20
80.0738770991
 11
201.5675528749
 21
79.5149570991
  0
LINE
  5
2FE
100
AcDbEntity
  8
0
100
AcDbLine
 62
7
  6
CONTINUOUS
 10
201.0308238749
 20
81.5453730991
 11
201.2993668749
 21
80.5063670991
  0
LINE
  5
2FF
100
AcDbEntity
  8
0
100
AcDbLine
 62
7
  6
CONTINUOUS
 10
199.7891988749
 20
79.5149570991
 11
199.5273948749
 21
82.3146600991
  0
LINE
  5
300
100
AcDbEntity
  8
0
100
AcDbLine
 62
7
  6
CONTINUOUS
 10
199.0974238749
 20
81.3354890991
 11
199.2174928749
 21
79.5149570991
  0
LINE
  5
301
100
AcDbEntity
  8
0
100
AcDbLine
 62
7
  6
CONTINUOUS
 10
196.0508018749
 20
82.3148280991
 11
196.0508018749
 21
79.5149570991
  0
LINE
  5
302
100
AcDbEntity
  8
0
100
AcDbLine
 62
7
  6
CONTINUOUS
 10
196.6352098749
 20
79.5149570991
 11
196.6352098749
 21
82.3148280991
  0
LINE
  5
303
100
AcDbEntity
  8
0
100
AcDbLine
 62
7
  6
CONTINUOUS
 10
202.3551056772
 20
82.2819507581
 11
202.3551056772
 21
79.5149567447
  0
LINE
  5
304
100
AcDbEntity
  8
0
100
AcDbLine
 62
7
  6
CONTINUOUS
 10
197.5089038749
 20
79.5149570991
 11
197.6350188749
 21
81.3431110991
  0
LINE
  5
305
100
AcDbEntity
  8
0
100
AcDbLine
 62
7
  6
CONTINUOUS
 10
197.2026118749
 20
82.3146600991
 11
196.9498148749
 21
79.5149570991
  0
LINE
  5
306
100
AcDbEntity
  8
0
100
AcDbLine
 62
7
  6
CONTINUOUS
 10
195.2499178749
 20
82.3146600991
 11
194.6999408749
 21
80.3875380991
  0
LWPOLYLINE
  5
307
100
AcDbEntity
  8
RACCORDO
100
AcDbPolyline
 62
253
  6
CONTINUOUS
 90
16
 70
0
 10
269.0459999407
 20
137.4750522672
 10
269.0738447825
 20
137.4793387114
 10
269.1012163972
 20
137.4833646207
 10
269.1278684652
 20
137.4870937659
 10
269.1535611423
 20
137.4904925879
 10
269.1780632178
 20
137.4935305004
 10
269.2011541952
 20
137.4961801651
 10
269.222626277
 20
137.4984177373
 10
269.2422862338
 20
137.5002230809
 10
269.259957144
 20
137.5015799495
 10
269.2754799856
 20
137.5024761324
 10
269.2887150671
 20
137.502903565
 10
269.2995432847
 20
137.5028584006
 10
269.3078671946
 20
137.5023410458
 10
269.3136118889
 20
137.5013561561
 10
269.3167256708
 20
137.4999125948
  0
LINE
  5
308
100
AcDbEntity
  8
RACCORDO
100
AcDbLine
 62
253
  6
CONTINUOUS
 10
270.0183621556
 20
133.5275500837
 11
269.8398495563
 21
133.5095059765
  0
LWPOLYLINE
  5
309
100
AcDbEntity
  8
RACCORDO
100
AcDbPolyline
 62
253
  6
CONTINUOUS
 90
16
 70
0
 10
269.5669150635
 20
133.4963345312
 10
269.5951064931
 20
133.498922798
 10
269.6228140679
 20
133.5013338476
 10
269.6497863933
 20
133.5035458043
 10
269.675778746
 20
133.5055385986
 10
269.700555294
 20
133.5072941496
 10
269.7238912363
 20
133.5087965291
 10
269.7455748429
 20
133.5100321057
 10
269.7654093756
 20
133.5109896688
 10
269.7832148732
 20
133.5116605305
 10
269.7988297839
 20
133.5120386038
 10
269.8121124317
 20
133.5121204585
 10
269.8229423014
 20
133.5119053519
 10
269.8312211321
 20
133.5113952357
 10
269.8368738089
 20
133.5105947382
 10
269.8398490443
 20
133.5095111224
  0
LINE
  5
30A
100
AcDbEntity
  8
RACCORDO
100
AcDbLine
 62
253
  6
CONTINUOUS
 10
269.7013405448
 20
132.0926688857
 11
269.7572937602
 21
132.097473197
  0
LWPOLYLINE
  5
30B
100
AcDbEntity
  8
RACCORDO
100
AcDbPolyline
 62
253
  6
CONTINUOUS
 90
13
 70
0
 10
269.7572937602
 20
132.097473197
 10
269.8103037909
 20
132.1015878903
 10
269.8350985076
 20
132.1033388877
 10
269.8584490549
 20
132.1048638104
 10
269.8801433403
 20
132.1061488074
 10
269.8999843152
 20
132.1071822071
 10
269.9177917644
 20
132.1079546233
 10
269.9334039432
 20
132.1084590401
 10
269.9466790468
 20
132.1086908758
 10
269.9574964975
 20
132.1086480247
 10
269.9657580408
 20
132.1083308761
 10
269.9713886373
 20
132.1077423105
 10
269.9743371443
 20
132.106887674
  0
LINE
  5
30C
100
AcDbEntity
  8
RACCORDO
100
AcDbLine
 62
253
  6
CONTINUOUS
 10
244.5280311157
 20
130.1006595256
 11
244.4471593592
 21
130.0985796742
  0
LINE
  5
30D
100
AcDbEntity
  8
RACCORDO
100
AcDbLine
 62
253
  6
CONTINUOUS
 10
244.6140318458
 20
130.1022701155
 11
244.5280311157
 21
130.1006595256
  0
LWPOLYLINE
  5
30E
100
AcDbEntity
  8
RACCORDO
100
AcDbPolyline
 62
253
  6
CONTINUOUS
 90
3
 70
0
 10
244.3696460301
 20
130.0982727461
 10
244.4195382796
 20
130.0989452974
 10
244.4471640912
 20
130.0991688776
  0
LINE
  5
30F
100
AcDbEntity
  8
RACCORDO
100
AcDbLine
 62
253
  6
CONTINUOUS
 10
244.7036685403
 20
130.1033837475
 11
244.6140318458
 21
130.1022701155
  0
LWPOLYLINE
  5
310
100
AcDbEntity
  8
RACCORDO
100
AcDbPolyline
 62
253
  6
CONTINUOUS
 90
3
 70
0
 10
244.8415330336
 20
130.1040839713
 10
244.7953888374
 20
130.1039818733
 10
244.7036685403
 20
130.1033837475
  0
LINE
  5
311
100
AcDbEntity
  8
0
100
AcDbLine
 62
253
  6
CONTINUOUS
 10
153.9350868749
 20
130.0927580991
 11
153.8152570832
 21
130.0927226693
  0
LINE
  5
312
100
AcDbEntity
  8
0
100
AcDbLine
 62
253
  6
CONTINUOUS
 10
244.1350868749
 20
130.0927580991
 11
244.2549118936
 21
130.0927482741
  0
LWPOLYLINE
  5
313
100
AcDbEntity
  8
RACCORDO
100
AcDbPolyline
 62
253
  6
CONTINUOUS
 90
12
 70
0
 10
153.6230219864
 20
130.0991682502
 10
153.6765184099
 20
130.0986448888
 10
153.700521471
 20
130.0982730971
 10
153.7225248094
 20
130.097835305
 10
153.7424139568
 20
130.0973376061
 10
153.7600853851
 20
130.0967864807
 10
153.7754472026
 20
130.0961887504
 10
153.7884195895
 20
130.0955515337
 10
153.7989351116
 20
130.0948822044
 10
153.8069391073
 20
130.0941883435
 10
153.8123899721
 20
130.0934776914
 10
153.8152593744
 20
130.0927580989
  0
LINE
  5
314
100
AcDbEntity
  8
RACCORDO
100
AcDbLine
 62
253
  6
CONTINUOUS
 10
153.2286850225
 20
130.1094164192
 11
153.3208429008
 21
130.1079011501
  0
LINE
  5
315
100
AcDbEntity
  8
RACCORDO
100
AcDbLine
 62
253
  6
CONTINUOUS
 10
153.3208429008
 20
130.1079011501
 11
153.4117115061
 21
130.1058842172
  0
LINE
  5
316
100
AcDbEntity
  8
RACCORDO
100
AcDbLine
 62
253
  6
CONTINUOUS
 10
153.4117115061
 20
130.1058842172
 11
153.4997129586
 21
130.1034008785
  0
LWPOLYLINE
  5
317
100
AcDbEntity
  8
RACCORDO
100
AcDbPolyline
 62
253
  6
CONTINUOUS
 90
12
 70
0
 10
153.6230177025
 20
130.0989713949
 10
153.6765133839
 20
130.0972232692
 10
153.700516052
 20
130.0962970203
 10
153.7225190255
 20
130.0953512019
 10
153.7424078104
 20
130.0943842158
 10
153.7600788051
 20
130.0933778765
 10
153.7754401093
 20
130.0923291301
 10
153.7884119427
 20
130.091251466
 10
153.7989268811
 20
130.0901504833
 10
153.806930271
 20
130.0890319038
 10
153.8123805129
 20
130.0879015423
 10
153.8152492779
 20
130.0867652742
  0
LWPOLYLINE
  5
318
100
AcDbEntity
  8
RACCORDO
100
AcDbPolyline
 62
253
  6
CONTINUOUS
 90
3
 70
0
 10
153.4997129586
 20
130.1034008785
 10
153.5833192367
 20
130.1004950755
 10
153.6230168023
 20
130.0988991421
  0
LWPOLYLINE
  5
319
100
AcDbEntity
  8
RACCORDO
100
AcDbPolyline
 62
253
  6
CONTINUOUS
 90
12
 70
0
 10
128.2598699717
 20
132.1015878883
 10
128.2350752578
 20
132.1033388855
 10
128.2117247133
 20
132.1048638079
 10
128.1900304305
 20
132.1061488047
 10
128.170189458
 20
132.1071822043
 10
128.1523820108
 20
132.1079546203
 10
128.1367698336
 20
132.108459037
 10
128.1234947313
 20
132.1086908727
 10
128.1126772814
 20
132.1086480216
 10
128.1044157385
 20
132.1083308731
 10
128.0987851419
 20
132.1077423076
 10
128.0958366343
 20
132.1068876712
  0
LINE
  5
31A
100
AcDbEntity
  8
RACCORDO
100
AcDbLine
 62
253
  6
CONTINUOUS
 10
128.3128799964
 20
132.0974731957
 11
128.2598699717
 21
132.1015878883
  0
LINE
  5
31B
100
AcDbEntity
  8
RACCORDO
100
AcDbLine
 62
253
  6
CONTINUOUS
 10
128.368833206
 20
132.0926688851
 11
128.3128799964
 21
132.0974731957
  0
LWPOLYLINE
  5
31C
100
AcDbEntity
  8
RACCORDO
100
AcDbPolyline
 62
253
  6
CONTINUOUS
 90
16
 70
0
 10
128.5032586859
 20
133.4963345314
 10
128.4750672557
 20
133.4989227983
 10
128.4473596803
 20
133.501333848
 10
128.4203873543
 20
133.5035458047
 10
128.3943950009
 20
133.505538599
 10
128.3696184524
 20
133.5072941501
 10
128.3462825095
 20
133.5087965297
 10
128.3245989023
 20
133.5100321063
 10
128.3047643691
 20
133.5109896695
 10
128.2869588712
 20
133.5116605312
 10
128.2713439601
 20
133.5120386045
 10
128.2580613121
 20
133.5121204592
 10
128.2472314423
 20
133.5119053526
 10
128.2389526116
 20
133.5113952364
 10
128.2332999348
 20
133.5105947388
 10
128.2303246995
 20
133.509511123
  0
LINE
  5
31D
100
AcDbEntity
  8
RACCORDO
100
AcDbLine
 62
253
  6
CONTINUOUS
 10
128.0518115941
 20
133.5275500837
 11
128.230324062
 21
133.5095046569
  0
LWPOLYLINE
  5
31E
100
AcDbEntity
  8
RACCORDO
100
AcDbPolyline
 62
253
  6
CONTINUOUS
 90
16
 70
0
 10
129.0241738026
 20
137.4750522736
 10
128.9963289185
 20
137.4793387278
 10
128.9689572581
 20
137.4833646472
 10
128.9423051421
 20
137.4870938023
 10
128.9166124158
 20
137.4904926338
 10
128.892110291
 20
137.4935305554
 10
128.869019265
 20
137.4961802284
 10
128.8475471366
 20
137.4984178082
 10
128.8278871358
 20
137.5002231584
 10
128.8102161852
 20
137.5015800327
 10
128.7946933075
 20
137.5024762202
 10
128.781458195
 20
137.5029036561
 10
128.7706299519
 20
137.5028584939
 10
128.7623060228
 20
137.50234114
 10
128.7565613155
 20
137.50135625
 10
128.7534475275
 20
137.4999126873
  0
LINE
  5
31F
100
AcDbEntity
  8
RACCORDO
100
AcDbLine
 62
253
  6
CONTINUOUS
 10
128.5885627429
 20
137.5275500837
 11
128.7534273289
 21
137.4997896628
  0
LINE
  5
320
100
AcDbEntity
  8
0
100
AcDbLine
 62
7
  6
CONTINUOUS
 10
204.184282117
 20
80.3105410451
 11
204.1738767532
 21
80.3483240896
  0
LINE
  5
321
100
AcDbEntity
  8
0
100
AcDbLine
 62
7
  6
CONTINUOUS
 10
204.2641103035
 20
80.0115460889
 11
204.184282117
 21
80.3105410451
  0
LINE
  5
322
100
AcDbEntity
  8
0
100
AcDbLine
 62
7
  6
CONTINUOUS
 10
204.3942350868
 20
79.5149567447
 11
204.2641103035
 21
80.0115460889
  0
LINE
  5
323
100
AcDbEntity
  8
0
100
AcDbLine
 62
7
  6
CONTINUOUS
 10
202.9177841289
 20
81.0691300125
 11
202.9177841289
 21
81.8377033032
  0
LINE
  5
324
100
AcDbEntity
  8
0
100
AcDbLine
 62
7
  6
CONTINUOUS
 10
202.9371622197
 20
79.5149567447
 11
202.9371622197
 21
80.6106061743
  0
LINE
  5
325
100
AcDbEntity
  8
0
100
AcDbLine
 62
7
  6
CONTINUOUS
 10
203.8575900397
 20
80.8218336622
 11
203.8575900397
 21
80.8383774711
  0
LWPOLYLINE
  5
326
100
AcDbEntity
  8
0
100
AcDbPolyline
 62
7
  6
CONTINUOUS
 90
31
 70
0
 10
203.7057390197
 20
81.5039723791
 10
203.7054240953
 20
81.4794187062
 10
203.7039725368
 20
81.4550735056
 10
203.7013843475
 20
81.4309367713
 10
203.6976396845
 20
81.4069305525
 10
203.692758397
 20
81.3831327894
 10
203.6868000268
 20
81.3597773044
 10
203.6797886329
 20
81.3368737831
 10
203.6717001621
 20
81.3144125133
 10
203.6625219868
 20
81.292598208
 10
203.6522667803
 20
81.2714080169
 10
203.6409218745
 20
81.250864754
 10
203.6284366299
 20
81.2312416152
 10
203.6148095144
 20
81.2125278098
 10
203.600042064
 20
81.1947340813
 10
203.5840882408
 20
81.1781659141
 10
203.5668536861
 20
81.1629040432
 10
203.5484327603
 20
81.1488676795
 10
203.5290625027
 20
81.1361200159
 10
203.5086966202
 20
81.124730689
 10
203.487381404
 20
81.1146300189
 10
203.4654927687
 20
81.1056722279
 10
203.4430855257
 20
81.0978762615
 10
203.4201048597
 20
81.0912231477
 10
203.3967622458
 20
81.0855102398
 10
203.3730452477
 20
81.0807233745
 10
203.3489662975
 20
81.0768767015
 10
203.3247741735
 20
81.0738100484
 10
203.3005518003
 20
81.0714700228
 10
203.2762162492
 20
81.0699100114
 10
203.251767518
 20
81.0691300125
  0
LINE
  5
327
100
AcDbEntity
  8
0
100
AcDbLine
 62
7
  6
CONTINUOUS
 10
200.7398378749
 20
80.5063670991
 11
201.0308238749
 21
81.5453730991
  0
LINE
  5
328
100
AcDbEntity
  8
0
100
AcDbLine
 62
7
  6
CONTINUOUS
 10
200.4590338749
 20
79.5149570991
 11
200.6202938749
 21
80.0738770991
  0
LINE
  5
329
100
AcDbEntity
  8
0
100
AcDbLine
 62
7
  6
CONTINUOUS
 10
200.7591318749
 20
82.3146600991
 11
199.8809668749
 21
79.5149570991
  0
LINE
  5
32A
100
AcDbEntity
  8
0
100
AcDbLine
 62
7
  6
CONTINUOUS
 10
194.9339898749
 20
79.5149570991
 11
195.8339268749
 21
82.3146600991
  0
LINE
  5
32B
100
AcDbEntity
  8
0
100
AcDbLine
 62
7
  6
CONTINUOUS
 10
198.9491808749
 20
82.3146600991
 11
198.3647728749
 21
80.7602560991
  0
LINE
  5
32C
100
AcDbEntity
  8
0
100
AcDbLine
 62
7
  6
CONTINUOUS
 10
198.4025628749
 20
79.5149570991
 11
199.0974238749
 21
81.3354890991
  0
LWPOLYLINE
  5
32D
100
AcDbEntity
  8
RACCORDO
100
AcDbPolyline
 62
253
  6
CONTINUOUS
 90
10
 70
0
 10
154.718445806
 20
131.6256407669
 10
156.7743464294
 20
131.6897197411
 10
158.8304840279
 20
131.7507516038
 10
160.8868565286
 20
131.8087364063
 10
162.9434604964
 20
131.8636738511
 10
165.0002952345
 20
131.9155643311
 10
167.057362784
 20
131.9644089302
 10
169.114662456
 20
132.0102080366
 10
171.1721908308
 20
132.0529613428
 10
173.2299458591
 20
132.0926688857
  0
LWPOLYLINE
  5
32E
100
AcDbEntity
  8
RACCORDO
100
AcDbPolyline
 62
253
  6
CONTINUOUS
 90
10
 70
0
 10
155.7479841009
 20
131.2235302256
 10
157.6906685595
 20
131.2826760572
 10
159.6335619667
 20
131.3391033912
 10
161.5766643227
 20
131.3928122276
 10
163.5199767719
 20
131.443802244
 10
165.4634981699
 20
131.4920737627
 10
167.4072250828
 20
131.5376277515
 10
169.351156366
 20
131.5804645327
 10
171.2952931641
 20
131.620583784
 10
173.2396354771
 20
131.6579855052
  0
LWPOLYLINE
  5
32F
100
AcDbEntity
  8
RACCORDO
100
AcDbPolyline
 62
253
  6
CONTINUOUS
 90
10
 70
0
 10
173.2299458591
 20
132.0926688857
 10
178.961976761
 20
132.187450992
 10
184.6952818371
 20
132.2585357359
 10
190.4298167716
 20
132.3059246805
 10
196.1662846386
 20
132.3296188781
 10
201.903894644
 20
132.3296188644
 10
207.6403619577
 20
132.3059246496
 10
213.3748957856
 20
132.2585357051
 10
219.1081992018
 20
132.1874509714
 10
224.8402278906
 20
132.0926688857
  0
LWPOLYLINE
  5
330
100
AcDbEntity
  8
RACCORDO
100
AcDbPolyline
 62
253
  6
CONTINUOUS
 90
10
 70
0
 10
173.2396354771
 20
131.6579855052
 10
178.9695573776
 20
131.7523365845
 10
184.7006798707
 20
131.8230998914
 10
190.4330029567
 20
131.8702754259
 10
196.1673272148
 20
131.8938631847
 10
201.9028520658
 20
131.893863171
 10
207.6371757708
 20
131.8702753952
 10
213.3694977506
 20
131.8230998607
 10
219.1006185845
 20
131.752336564
 10
224.8305382726
 20
131.6579855052
  0
LINE
  5
331
100
AcDbEntity
  8
RACCORDO
100
AcDbLine
 62
7
  6
CONTINUOUS
 10
154.7350868749
 20
131.2090990178
 11
155.747961581
 21
131.2235302256
  0
LINE
  5
332
100
AcDbEntity
  8
0
100
AcDbLine
 62
7
  6
CONTINUOUS
 10
243.3350868749
 20
130.8927580991
 11
154.7350868749
 21
130.8927580991
  0
LINE
  5
333
100
AcDbEntity
  8
RACCORDO
100
AcDbLine
 62
253
  6
CONTINUOUS
 10
154.7350813596
 20
131.0107943329
 11
243.3350833288
 21
131.0107943329
  0
LINE
  5
334
100
AcDbEntity
  8
RACCORDO
100
AcDbLine
 62
253
  6
CONTINUOUS
 10
155.7479841009
 20
131.2235302256
 11
242.3221896216
 21
131.2235302256
  0
LINE
  5
335
100
AcDbEntity
  8
RACCORDO
100
AcDbLine
 62
253
  6
CONTINUOUS
 10
173.2299458591
 20
132.0926688857
 11
128.3688311392
 21
132.0926468857
  0
LINE
  5
336
100
AcDbEntity
  8
RACCORDO
100
AcDbLine
 62
253
  6
CONTINUOUS
 10
224.8402278906
 20
132.0926688857
 11
269.7013426174
 21
132.0926468124
  0
LINE
  5
337
100
AcDbEntity
  8
RACCORDO
100
AcDbLine
 62
7
  6
CONTINUOUS
 10
242.3222121584
 20
131.2235302256
 11
243.3350869284
 21
131.209099017
  0
LWPOLYLINE
  5
338
100
AcDbEntity
  8
RACCORDO
100
AcDbPolyline
 62
253
  6
CONTINUOUS
 90
10
 70
0
 10
224.8305382726
 20
131.6579855052
 10
226.7748800119
 20
131.6205837963
 10
228.7190163751
 20
131.580464555
 10
230.6629473621
 20
131.5376277811
 10
232.6066741125
 20
131.492073798
 10
234.5501954867
 20
131.4438022824
 10
236.4935080665
 20
131.3928122644
 10
238.4366107126
 20
131.3391034206
 10
240.3795045643
 20
131.2826760743
 10
242.3221896216
 20
131.2235302256
  0
LWPOLYLINE
  5
339
100
AcDbEntity
  8
RACCORDO
100
AcDbPolyline
 62
253
  6
CONTINUOUS
 90
10
 70
0
 10
224.8402278906
 20
132.0926688857
 10
226.8979822613
 20
132.0529613572
 10
228.9555101526
 20
132.0102080621
 10
231.0128095148
 20
131.9644089635
 10
233.0698769412
 20
131.9155643693
 10
235.1267117301
 20
131.8636738909
 10
237.1833158846
 20
131.8087364432
 10
239.239688695
 20
131.7507516329
 10
241.295826739
 20
131.6897197578
 10
243.3517279437
 20
131.6256407669
  0
LWPOLYLINE
  5
33A
100
AcDbEntity
  8
RACCORDO
100
AcDbPolyline
 62
253
  6
CONTINUOUS
 90
31
 70
0
 10
243.3350833288
 20
131.0107943324
 10
243.37876256
 20
131.0097567837
 10
243.4228306493
 20
131.0065999312
 10
243.4671811007
 20
131.001260589
 10
243.5115749396
 20
130.9937048806
 10
243.5560217187
 20
130.9838678009
 10
243.6007660023
 20
130.9715915017
 10
243.6459611442
 20
130.95667094
 10
243.6911322102
 20
130.9390936503
 10
243.7355841044
 20
130.9190309981
 10
243.7790723711
 20
130.8965513798
 10
243.8215576369
 20
130.8716314098
 10
243.862702208
 20
130.8444349221
 10
243.9023466521
 20
130.8150591781
 10
243.9404091304
 20
130.7835560892
 10
243.976702422
 20
130.7500764314
 10
244.011104024
 20
130.7147438978
 10
244.0435429226
 20
130.6776425168
 10
244.0739279269
 20
130.6388837525
 10
244.1021761805
 20
130.598582461
 10
244.1282117432
 20
130.5568567247
 10
244.1519637383
 20
130.5138293973
 10
244.1733789854
 20
130.4696048836
 10
244.1923898128
 20
130.4243317769
 10
244.2089244826
 20
130.3782082659
 10
244.2229588239
 20
130.3313461904
 10
244.2344601084
 20
130.2839068309
 10
244.2433882688
 20
130.2361736287
 10
244.2497524919
 20
130.1883361083
 10
244.2535855344
 20
130.1404831396
 10
244.2549166401
 20
130.0927482737
  0
LWPOLYLINE
  5
33B
100
AcDbEntity
  8
RACCORDO
100
AcDbPolyline
 62
7
  6
CONTINUOUS
 90
16
 70
0
 10
243.3359099605
 20
131.2091192921
 10
243.3862155198
 20
131.2069707741
 10
243.4363313905
 20
131.2026068865
 10
243.4861316495
 20
131.1960463692
 10
243.535556847
 20
131.1873117081
 10
243.5844844651
 20
131.1764280411
 10
243.6327237825
 20
131.1634372667
 10
243.6801118719
 20
131.1484074018
 10
243.7266412942
 20
131.1313777007
 10
243.772351709
 20
131.1123475776
 10
243.8171739793
 20
131.0913455539
 10
243.8610060631
 20
131.0684251332
 10
243.9038304856
 20
131.0436001628
 10
243.945584837
 20
131.0168989645
 10
243.9861656695
 20
130.9883772897
 10
244.0254894734
 20
130.9580957271
  0
LWPOLYLINE
  5
33C
100
AcDbEntity
  8
RACCORDO
100
AcDbPolyline
 62
253
  6
CONTINUOUS
 90
16
 70
0
 10
243.3517279437
 20
131.6256407669
 10
243.4170151627
 20
131.6222963786
 10
243.4824972067
 20
131.6159865688
 10
243.5481740872
 20
131.6067113323
 10
243.6142994028
 20
131.5944805068
 10
243.6806195739
 20
131.579284237
 10
243.746373843
 20
131.5610929737
 10
243.8115571342
 20
131.5398233276
 10
243.8761745368
 20
131.515558655
 10
243.9394805407
 20
131.4885195228
 10
244.0014435637
 20
131.4586272498
 10
244.0620951913
 20
131.4259604731
 10
244.1207846631
 20
131.3909757397
 10
244.1772950566
 20
131.3538252183
 10
244.2318432874
 20
131.3143566954
 10
244.2844293496
 20
131.2725701458
  0
LINE
  5
33D
100
AcDbEntity
  8
RACCORDO
100
AcDbLine
 62
253
  6
CONTINUOUS
 10
244.1938725568
 20
131.1630820879
 11
244.0254895103
 21
130.9580957725
  0
LINE
  5
33E
100
AcDbEntity
  8
RACCORDO
100
AcDbLine
 62
253
  6
CONTINUOUS
 10
244.28442934
 20
131.2725701277
 11
244.1938725568
 21
131.1630820879
  0
LWPOLYLINE
  5
33F
100
AcDbEntity
  8
0
100
AcDbPolyline
 62
7
  6
CONTINUOUS
 90
54
 70
0
 10
203.9611708299
 20
80.9004051393
 10
203.9717259311
 20
80.9093730933
 10
203.9825068989
 20
80.9187490331
 10
203.9935414284
 20
80.9285215145
 10
204.0048018257
 20
80.9387019925
 10
204.0162211639
 20
80.949390373
 10
204.0278086631
 20
80.9605732767
 10
204.0395551044
 20
80.9722640982
 10
204.0513659019
 20
80.9846029082
 10
204.0632477531
 20
80.9975847017
 10
204.0751939616
 20
81.0112145064
 10
204.0870898511
 20
81.0256474485
 10
204.098931815
 20
81.0409065797
 10
204.1107234604
 20
81.0569688814
 10
204.1223609319
 20
81.07392038
 10
204.1338440259
 20
81.0917522059
 10
204.1451729459
 20
81.1104732708
 10
204.1562444467
 20
81.1301962788
 10
204.1670808102
 20
81.1509293393
 10
204.1776597535
 20
81.172664398
 10
204.1878111833
 20
81.1954899207
 10
204.1975531535
 20
81.2193954436
 10
204.2068676077
 20
81.2443914987
 10
204.2155302851
 20
81.2705980545
 10
204.2235590246
 20
81.298025644
 10
204.2309359822
 20
81.3266638206
 10
204.2373833714
 20
81.3566010938
 10
204.2429132152
 20
81.3878595064
 10
204.2475134816
 20
81.4204171205
 10
204.2508702996
 20
81.4542964817
 10
204.2530194231
 20
81.4894419632
 10
204.2539250847
 20
81.525909308
 10
204.2531661267
 20
81.56388813
 10
204.2508650724
 20
81.6035750667
 10
204.2468993776
 20
81.6447736367
 10
204.2404802788
 20
81.6870837664
 10
204.2314880258
 20
81.7308799336
 10
204.2200423378
 20
81.775787792
 10
204.2057136551
 20
81.8202839243
 10
204.1881258915
 20
81.8644007141
 10
204.1676551084
 20
81.9081057248
 10
204.1449999815
 20
81.9497781314
 10
204.1199971187
 20
81.9891214332
 10
204.0928099132
 20
82.0264319064
 10
204.0646272381
 20
82.0609777772
 10
204.0355392696
 20
82.0924519571
 10
204.0054558524
 20
82.1211612944
 10
203.9752953727
 20
82.1472949086
 10
203.9452608657
 20
82.1708382551
 10
203.9151493191
 20
82.1918057181
 10
203.8852700494
 20
82.2104298363
 10
203.8557261684
 20
82.2267880915
 10
203.8264145838
 20
82.2408029015
 10
203.7973353046
 20
82.2524742256
  0
LWPOLYLINE
  5
340
100
AcDbEntity
  8
0
100
AcDbPolyline
 62
7
  6
CONTINUOUS
 90
4
 70
0
 10
203.9210313761
 20
80.8678920451
 10
203.9309168636
 20
80.8753772245
 10
203.9407662967
 20
80.8834072086
 10
203.9611708299
 20
80.9004051393
  0
LINE
  5
341
100
AcDbEntity
  8
RACCORDO
100
AcDbLine
 62
253
  6
CONTINUOUS
 10
244.2844293099
 20
85.5129461273
 11
244.1063535276
 21
85.7287210472
  0
LINE
  5
342
100
AcDbEntity
  8
RACCORDO
100
AcDbLine
 62
253
  6
CONTINUOUS
 10
244.1063535276
 20
85.7287210472
 11
244.0254896697
 21
85.8274196363
  0
LWPOLYLINE
  5
343
100
AcDbEntity
  8
RACCORDO
100
AcDbPolyline
 62
253
  6
CONTINUOUS
 90
3
 70
0
 10
224.8362026356
 20
84.8959243354
 10
224.8351065583
 20
84.9450950848
 10
224.8305382726
 20
85.127530693
  0
LWPOLYLINE
  5
344
100
AcDbEntity
  8
RACCORDO
100
AcDbPolyline
 62
253
  6
CONTINUOUS
 90
3
 70
0
 10
224.8362026276
 20
131.8895919412
 10
224.8316957731
 20
131.7009598812
 10
224.8305382726
 20
131.6579855052
  0
LINE
  5
345
100
AcDbEntity
  8
RACCORDO
100
AcDbLine
 62
253
  6
CONTINUOUS
 10
224.8402279081
 20
84.6928472524
 11
224.8362026356
 21
84.8959243354
  0
LINE
  5
346
100
AcDbEntity
  8
RACCORDO
100
AcDbLine
 62
253
  6
CONTINUOUS
 10
224.8402278908
 20
132.0926688862
 11
224.8362026276
 21
131.8895919412
  0
LWPOLYLINE
  5
347
100
AcDbEntity
  8
RACCORDO
100
AcDbPolyline
 62
253
  6
CONTINUOUS
 90
43
 70
0
 10
143.6896275549
 20
151.26152004
 10
143.1801228683
 20
151.2031709677
 10
142.6739608116
 20
151.1293041845
 10
142.171133405
 20
151.0399157973
 10
141.6713130291
 20
150.9349109828
 10
141.1748127485
 20
150.8143743878
 10
140.682586435
 20
150.6785702672
 10
140.1945054626
 20
150.5274446807
 10
139.710687308
 20
150.3610371728
 10
139.2324561208
 20
150.1797515184
 10
138.7597916985
 20
149.9835284846
 10
138.292707152
 20
149.7724094973
 10
137.8325779793
 20
149.5469490553
 10
137.3794310413
 20
149.3071020701
 10
136.9332369539
 20
149.0528934747
 10
136.4952883691
 20
148.7849830434
 10
136.0656021712
 20
148.5033199132
 10
135.6441637148
 20
148.2079335684
 10
135.2322198802
 20
147.8996050853
 10
134.8297817997
 20
147.5782698407
 10
134.4368452704
 20
147.2439710691
 10
134.0546355721
 20
146.8976530247
 10
133.6831857937
 20
146.5392586413
 10
133.3224741063
 20
146.1688248982
 10
132.9736445444
 20
145.7874391333
 10
132.6367367313
 20
145.3950428427
 10
132.3117259505
 20
144.9916769247
 10
131.9996604371
 20
144.5785804057
 10
131.7006013316
 20
144.1557209117
 10
131.414505083
 20
143.7231167514
 10
131.1422630662
 20
143.2820859808
 10
130.8839385194
 20
142.8326135628
 10
130.639487342
 20
142.3747046524
 10
130.4096395074
 20
141.9097107868
 10
130.1944173673
 20
141.4374926146
 10
129.9938181387
 20
140.9581839715
 10
129.8085329352
 20
140.473549773
 10
129.638653123
 20
139.9835281621
 10
129.4841056776
 20
139.48818071
 10
129.3453330377
 20
138.9894614623
 10
129.2224873271
 20
138.4880241616
 10
129.1154317104
 20
137.9832202142
 10
129.0241738023
 20
137.4750522739
  0
LWPOLYLINE
  5
348
100
AcDbEntity
  8
RACCORDO
100
AcDbPolyline
 62
253
  6
CONTINUOUS
 90
43
 70
0
 10
143.6741769356
 20
151.508211061
 10
143.1564979352
 20
151.4490951353
 10
142.6412658583
 20
151.3739706239
 10
142.1289767068
 20
151.2829446241
 10
141.6203064923
 20
151.1761803297
 10
141.1155540405
 20
151.0537859284
 10
140.6146539066
 20
150.9157577348
 10
140.117953321
 20
150.7621659407
 10
139.6260829805
 20
150.5931810501
 10
139.1394127127
 20
150.4089115108
 10
138.6583949638
 20
150.2094968367
 10
138.1835371807
 20
149.9951168137
 10
137.7152887819
 20
149.765950631
 10
137.2541289014
 20
149.5222003016
 10
136.8005082882
 20
149.2640726049
 10
136.3548277673
 20
148.9917690044
 10
135.9175356269
 20
148.7055224385
 10
135.4890810717
 20
148.4055865134
 10
135.0698599569
 20
148.0922064623
 10
134.6602863701
 20
147.765642432
 10
134.2608038516
 20
147.4261986453
 10
133.8718398484
 20
147.0742049181
 10
133.4937926245
 20
146.7099731331
 10
133.1270642842
 20
146.333841703
 10
132.7720671495
 20
145.9462041465
 10
132.4291626386
 20
145.5474096299
 10
132.0987202426
 20
145.1378413937
 10
131.7811358143
 20
144.7179698923
 10
131.4767440541
 20
144.2882044918
 10
131.1858543964
 20
143.848947675
 10
130.9087927023
 20
143.4006827625
 10
130.645852319
 20
142.9438592849
 10
130.3972943758
 20
142.4789040332
 10
130.1633691285
 20
142.0062817181
 10
129.9442686813
 20
141.526338316
 10
129.7402772745
 20
141.0396502893
 10
129.5517272671
 20
140.547051851
 10
129.378776427
 20
140.0490167917
 10
129.2215806217
 20
139.546058733
 10
129.0803731502
 20
139.0391019067
 10
128.9552599269
 20
138.5288005568
 10
128.8462633123
 20
138.0155260043
 10
128.7534273472
 20
137.4997896597
  0
LWPOLYLINE
  5
349
100
AcDbEntity
  8
RACCORDO
100
AcDbPolyline
 62
253
  6
CONTINUOUS
 90
9
 70
0
 10
148.1196149199
 20
151.6087068977
 10
147.5650731628
 20
151.5750160389
 10
147.0107545236
 20
151.5385512871
 10
146.4566526746
 20
151.4993111716
 10
145.9027722091
 20
151.4572964406
 10
145.3491286419
 20
151.4125100616
 10
144.7957266023
 20
151.3649527331
 10
144.2425598345
 20
151.3146228838
 10
143.6896275549
 20
151.26152004
  0
LWPOLYLINE
  5
34A
100
AcDbEntity
  8
RACCORDO
100
AcDbPolyline
 62
253
  6
CONTINUOUS
 90
9
 70
0
 10
148.1129931856
 20
151.8556759736
 10
147.5573306648
 20
151.8219564417
 10
147.0018783553
 20
151.7854590855
 10
146.4466565426
 20
151.746185771
 10
145.891672544
 20
151.7041376666
 10
145.3369207293
 20
151.6593149174
 10
144.7824084271
 20
151.6117183727
 10
144.2281559028
 20
151.5613499108
 10
143.6741769387
 20
151.5082110302
  0
LINE
  5
34B
100
AcDbEntity
  8
RACCORDO
100
AcDbLine
 62
253
  6
CONTINUOUS
 10
149.2481113338
 20
151.6699954884
 11
148.1196149199
 21
151.6087068977
  0
LINE
  5
34C
100
AcDbEntity
  8
RACCORDO
100
AcDbLine
 62
253
  6
CONTINUOUS
 10
149.2423668808
 20
151.9169384386
 11
148.1129931856
 21
151.8556759736
  0
LINE
  5
34D
100
AcDbEntity
  8
RACCORDO
100
AcDbLine
 62
253
  6
CONTINUOUS
 10
152.6921462835
 20
151.845592235
 11
149.2481113338
 21
151.6699954884
  0
LINE
  5
34E
100
AcDbEntity
  8
RACCORDO
100
AcDbLine
 62
253
  6
CONTINUOUS
 10
152.6851037502
 20
152.0922530279
 11
149.2423668808
 21
151.9169384386
  0
LINE
  5
34F
100
AcDbEntity
  8
RACCORDO
100
AcDbLine
 62
253
  6
CONTINUOUS
 10
153.8407720891
 20
151.9015962738
 11
152.6921462835
 21
151.845592235
  0
LINE
  5
350
100
AcDbEntity
  8
RACCORDO
100
AcDbLine
 62
253
  6
CONTINUOUS
 10
153.8333026595
 20
152.1481668529
 11
152.6851037502
 21
152.0922530279
  0
LWPOLYLINE
  5
351
100
AcDbEntity
  8
RACCORDO
100
AcDbPolyline
 62
253
  6
CONTINUOUS
 90
16
 70
0
 10
244.2294026266
 20
151.9015962966
 10
238.2139813591
 20
152.1724951702
 10
232.1949664206
 20
152.404710478
 10
226.1723595663
 20
152.5982736405
 10
220.1451939579
 20
152.7532775695
 10
214.1144330046
 20
152.8696773503
 10
208.0829706409
 20
152.9472901854
 10
202.0512900359
 20
152.986060706
 10
196.0188960277
 20
152.986060756
 10
189.9872138322
 20
152.9472902892
 10
183.9557470585
 20
152.8696774025
 10
177.9249801047
 20
152.7532775241
 10
171.8978105927
 20
152.5982735362
 10
165.8752031607
 20
152.404710382
 10
159.8561897413
 20
152.1724951214
 10
153.8407720894
 20
151.9015963339
  0
LWPOLYLINE
  5
352
100
AcDbEntity
  8
RACCORDO
100
AcDbPolyline
 62
253
  6
CONTINUOUS
 90
16
 70
0
 10
244.2368710902
 20
152.1481668529
 10
238.2208585096
 20
152.4184912071
 10
232.2007686014
 20
152.6503620543
 10
226.1768423468
 20
152.843721552
 10
220.1486025148
 20
152.9985334628
 10
214.1170100871
 20
153.1147133357
 10
208.0844653966
 20
153.1921754375
 10
202.0517046401
 20
153.2309047322
 10
196.0184801959
 20
153.2309047676
 10
189.9857178494
 20
153.192175529
 10
183.9531687411
 20
153.1147134181
 10
177.921570307
 20
152.9985334429
 10
171.8933265939
 20
152.843721413
 10
165.86939982
 20
152.6503618652
 10
159.8493115154
 20
152.4184910505
 10
153.8333026595
 20
152.1481668529
  0
LINE
  5
353
100
AcDbEntity
  8
RACCORDO
100
AcDbLine
 62
253
  6
CONTINUOUS
 10
247.6805407022
 20
151.9766377753
 11
244.2368710902
 21
152.1481668529
  0
LINE
  5
354
100
AcDbEntity
  8
RACCORDO
100
AcDbLine
 62
253
  6
CONTINUOUS
 10
247.6743618848
 20
151.7297908292
 11
244.2294026269
 21
151.9015962264
  0
LINE
  5
355
100
AcDbEntity
  8
RACCORDO
100
AcDbLine
 62
253
  6
CONTINUOUS
 10
249.3957930639
 20
151.639624186
 11
247.6743618848
 21
151.7297908292
  0
LINE
  5
356
100
AcDbEntity
  8
RACCORDO
100
AcDbLine
 62
253
  6
CONTINUOUS
 10
249.4013211658
 20
151.8866163251
 11
247.6805407022
 21
151.9766377753
  0
LWPOLYLINE
  5
357
100
AcDbEntity
  8
RACCORDO
100
AcDbPolyline
 62
253
  6
CONTINUOUS
 90
10
 70
0
 10
254.3959828911
 20
151.508212401
 10
253.8420088038
 20
151.5613507555
 10
253.28775994
 20
151.6117188483
 10
252.7332500797
 20
151.6593151625
 10
252.1784989886
 20
151.7041378402
 10
251.6235144916
 20
151.74618597
 10
251.0682924529
 20
151.7854592862
 10
250.512840689
 20
151.821956593
 10
249.9571789871
 20
151.8556760653
 10
249.4013211658
 20
151.8866163248
  0
LWPOLYLINE
  5
358
100
AcDbEntity
  8
RACCORDO
100
AcDbPolyline
 62
253
  6
CONTINUOUS
 90
10
 70
0
 10
254.3805461948
 20
151.26152004
 10
253.8276110358
 20
151.314623134
 10
253.2744421075
 20
151.3649531631
 10
252.7210386263
 20
151.4125106009
 10
252.1673943354
 20
151.4572970083
 10
251.6135138651
 20
151.4993116973
 10
251.0594127339
 20
151.5385517319
 10
250.5050955361
 20
151.5750163743
 10
249.9505559431
 20
151.6087070848
 10
249.3957930639
 20
151.639624186
  0
LWPOLYLINE
  5
359
100
AcDbEntity
  8
RACCORDO
100
AcDbPolyline
 62
253
  6
CONTINUOUS
 90
16
 70
0
 10
244.2844293496
 20
85.5129460524
 10
244.2318432871
 20
85.4711595033
 10
244.1772950562
 20
85.4316909805
 10
244.1207846628
 20
85.394540459
 10
244.0620951913
 20
85.359555725
 10
244.0014435641
 20
85.3268889475
 10
243.9394805414
 20
85.2969966737
 10
243.8761745379
 20
85.2699575401
 10
243.8115571355
 20
85.2456928661
 10
243.7463738442
 20
85.2244232205
 10
243.6806195742
 20
85.2062319616
 10
243.6142994019
 20
85.1910356981
 10
243.5481740855
 20
85.1788048763
 10
243.4824972051
 20
85.1695296391
 10
243.4170151616
 20
85.1632198258
 10
243.3517279437
 20
85.1598754313
  0
LWPOLYLINE
  5
35A
100
AcDbEntity
  8
RACCORDO
100
AcDbPolyline
 62
7
  6
CONTINUOUS
 90
16
 70
0
 10
244.0254896697
 20
85.8274196363
 10
243.9861492256
 20
85.797126063
 10
243.9455650165
 20
85.76860343
 10
243.9038219228
 20
85.7419106046
 10
243.8610268358
 20
85.7171026623
 10
243.8172408143
 20
85.6942044867
 10
243.7724747341
 20
85.6732247481
 10
243.7268385548
 20
85.6542193917
 10
243.6803940737
 20
85.6372114277
 10
243.6330699655
 20
85.622187954
 10
243.5848676042
 20
85.609188792
 10
243.535953326
 20
85.5982876029
 10
243.486498845
 20
85.5895279269
 10
243.4366199035
 20
85.582940165
 10
243.3863816576
 20
85.5785531082
 10
243.3359102775
 20
85.5763911034
  0
LINE
  5
35B
100
AcDbEntity
  8
RACCORDO
100
AcDbLine
 62
253
  6
CONTINUOUS
 10
243.3415413415
 20
85.4465985534
 11
243.3359084644
 21
85.5764288714
  0
LINE
  5
35C
100
AcDbEntity
  8
RACCORDO
100
AcDbLine
 62
253
  6
CONTINUOUS
 10
244.2293959079
 20
64.8839196423
 11
244.232682016
 21
64.8076300503
  0
LINE
  5
35D
100
AcDbEntity
  8
RACCORDO
100
AcDbLine
 62
253
  6
CONTINUOUS
 10
243.3468919487
 20
85.3057066176
 11
243.3415413415
 21
85.4465985534
  0
LINE
  5
35E
100
AcDbEntity
  8
RACCORDO
100
AcDbLine
 62
253
  6
CONTINUOUS
 10
244.232682016
 20
64.8076300503
 11
244.235220006
 21
64.7405607741
  0
LINE
  5
35F
100
AcDbEntity
  8
RACCORDO
100
AcDbLine
 62
253
  6
CONTINUOUS
 10
243.3517279437
 20
85.1598754313
 11
243.3468919487
 21
85.3057066176
  0
LWPOLYLINE
  5
360
100
AcDbEntity
  8
RACCORDO
100
AcDbPolyline
 62
253
  6
CONTINUOUS
 90
9
 70
0
 10
244.235220006
 20
64.7405607741
 10
244.2364041379
 20
64.7033764635
 10
244.2368284033
 20
64.6875074827
 10
244.2371359818
 20
64.6736279107
 10
244.2373244166
 20
64.6618486075
 10
244.2373922026
 20
64.6522636575
 10
244.2373387984
 20
64.6449496185
 10
244.2371646305
 20
64.6399649097
 10
244.2368710902
 20
64.6373493453
  0
LINE
  5
361
100
AcDbEntity
  8
RACCORDO
100
AcDbLine
 62
253
  6
CONTINUOUS
 10
244.2543275766
 20
145.3325886588
 11
244.2294026269
 21
151.9015962264
  0
LINE
  5
362
100
AcDbEntity
  8
RACCORDO
100
AcDbLine
 62
253
  6
CONTINUOUS
 10
244.2723739337
 20
138.7255394586
 11
244.2543275766
 21
145.3325886588
  0
LINE
  5
363
100
AcDbEntity
  8
RACCORDO
100
AcDbLine
 62
253
  6
CONTINUOUS
 10
244.8415244201
 20
130.1089955585
 11
244.8505124944
 21
124.6799159183
  0
LINE
  5
364
100
AcDbEntity
  8
RACCORDO
100
AcDbLine
 62
7
  6
CONTINUOUS
 10
244.4471593592
 20
130.0985796742
 11
244.4585861784
 21
122.8673402357
  0
LINE
  5
365
100
AcDbEntity
  8
RACCORDO
100
AcDbLine
 62
253
  6
CONTINUOUS
 10
244.2549118936
 20
130.0927482741
 11
244.269560108
 21
120.0398318662
  0
LINE
  5
366
100
AcDbEntity
  8
RACCORDO
100
AcDbLine
 62
253
  6
CONTINUOUS
 10
244.2723739337
 20
138.7255394586
 11
244.2844293496
 21
131.2725701458
  0
LINE
  5
367
100
AcDbEntity
  8
RACCORDO
100
AcDbLine
 62
253
  6
CONTINUOUS
 10
244.8505124944
 20
124.6799159183
 11
244.8566441595
 21
119.6118140882
  0
LINE
  5
368
100
AcDbEntity
  8
RACCORDO
100
AcDbLine
 62
7
  6
CONTINUOUS
 10
244.4585861784
 20
122.8673402357
 11
244.4654489594
 21
115.631501993
  0
LINE
  5
369
100
AcDbEntity
  8
RACCORDO
100
AcDbLine
 62
253
  6
CONTINUOUS
 10
244.269560108
 20
120.0398318662
 11
244.2738343003
 21
114.5415173165
  0
LINE
  5
36A
100
AcDbEntity
  8
RACCORDO
100
AcDbLine
 62
253
  6
CONTINUOUS
 10
244.8566441595
 20
119.6118140882
 11
244.8613518313
 21
112.6486886852
  0
LINE
  5
36B
100
AcDbEntity
  8
RACCORDO
100
AcDbLine
 62
253
  6
CONTINUOUS
 10
243.3350869284
 20
131.209099017
 11
243.3350868749
 21
131.0107943329
  0
LINE
  5
36C
100
AcDbEntity
  8
RACCORDO
100
AcDbLine
 62
253
  6
CONTINUOUS
 10
243.3350868747
 20
85.5764171804
 11
243.3350868749
 21
85.7747218652
  0
LINE
  5
36D
100
AcDbEntity
  8
0
100
AcDbLine
 62
253
  6
CONTINUOUS
 10
243.3350868749
 20
130.8927580991
 11
243.3350833288
 21
131.0107943329
  0
LINE
  5
36E
100
AcDbEntity
  8
0
100
AcDbLine
 62
7
  6
CONTINUOUS
 10
244.1350868749
 20
130.0927580991
 11
244.1350868749
 21
86.6927580991
  0
LINE
  5
36F
100
AcDbEntity
  8
RACCORDO
100
AcDbLine
 62
253
  6
CONTINUOUS
 10
244.2738343003
 20
114.5415173165
 11
244.2754857791
 21
108.3927580991
  0
LINE
  5
370
100
AcDbEntity
  8
RACCORDO
100
AcDbLine
 62
7
  6
CONTINUOUS
 10
244.4654489594
 20
115.631501993
 11
244.4677278996
 21
108.3927580992
  0
LINE
  5
371
100
AcDbEntity
  8
0
100
AcDbLine
 62
253
  6
CONTINUOUS
 10
243.3350868749
 20
85.8927580991
 11
243.3350705983
 21
85.7747218652
  0
LINE
  5
372
100
AcDbEntity
  8
RACCORDO
100
AcDbLine
 62
253
  6
CONTINUOUS
 10
244.8613518313
 20
112.6486886852
 11
244.8619531995
 21
106.3014059838
  0
LINE
  5
373
100
AcDbEntity
  8
RACCORDO
100
AcDbLine
 62
253
  6
CONTINUOUS
 10
244.2754857791
 20
108.3927580991
 11
244.2737938241
 21
102.1553909474
  0
LINE
  5
374
100
AcDbEntity
  8
RACCORDO
100
AcDbLine
 62
7
  6
CONTINUOUS
 10
244.4677278928
 20
108.3927580992
 11
244.4654495177
 21
101.154193404
  0
LINE
  5
375
100
AcDbEntity
  8
RACCORDO
100
AcDbLine
 62
253
  6
CONTINUOUS
 10
244.8619531995
 20
106.3014059838
 11
244.8587195772
 21
99.5658916951
  0
LINE
  5
376
100
AcDbEntity
  8
RACCORDO
100
AcDbLine
 62
253
  6
CONTINUOUS
 10
244.2737938241
 20
102.1553909474
 11
244.2692455719
 21
96.4380204171
  0
LINE
  5
377
100
AcDbEntity
  8
RACCORDO
100
AcDbLine
 62
253
  6
CONTINUOUS
 10
244.8587195772
 20
99.5658916951
 11
244.8539220847
 21
94.6817873297
  0
LINE
  5
378
100
AcDbEntity
  8
RACCORDO
100
AcDbLine
 62
7
  6
CONTINUOUS
 10
244.4654495177
 20
101.154193404
 11
244.4585846289
 21
93.9183004531
  0
LINE
  5
379
100
AcDbEntity
  8
RACCORDO
100
AcDbLine
 62
253
  6
CONTINUOUS
 10
244.2692455719
 20
96.4380204171
 11
244.2599377574
 21
89.5313494811
  0
LINE
  5
37A
100
AcDbEntity
  8
RACCORDO
100
AcDbLine
 62
253
  6
CONTINUOUS
 10
244.2844293496
 20
85.5129460524
 11
244.2788035678
 21
81.3739502514
  0
LWPOLYLINE
  5
37B
100
AcDbEntity
  8
RACCORDO
100
AcDbPolyline
 62
253
  6
CONTINUOUS
 90
3
 70
0
 10
244.8539220847
 20
94.6817873297
 10
244.8463873593
 20
89.433768639
 10
244.8415244197
 20
86.676520635
  0
LINE
  5
37C
100
AcDbEntity
  8
RACCORDO
100
AcDbLine
 62
7
  6
CONTINUOUS
 10
244.4585846289
 20
93.9183004531
 11
244.4471587945
 21
86.6866171336
  0
LINE
  5
37D
100
AcDbEntity
  8
RACCORDO
100
AcDbLine
 62
253
  6
CONTINUOUS
 10
244.2599377574
 20
89.5313494811
 11
244.2549118927
 21
86.6927672011
  0
LINE
  5
37E
100
AcDbEntity
  8
RACCORDO
100
AcDbLine
 62
253
  6
CONTINUOUS
 10
244.2788035678
 20
81.3739502514
 11
244.2685101041
 21
76.4053153415
  0
LINE
  5
37F
100
AcDbEntity
  8
RACCORDO
100
AcDbLine
 62
253
  6
CONTINUOUS
 10
244.2685101041
 20
76.4053153415
 11
244.2543275775
 21
71.452927539
  0
LWPOLYLINE
  5
380
100
AcDbEntity
  8
RACCORDO
100
AcDbPolyline
 62
253
  6
CONTINUOUS
 90
3
 70
0
 10
244.2543275775
 20
71.452927539
 10
244.236275965
 20
66.5219395982
 10
244.2294026147
 20
64.8839199711
  0
LWPOLYLINE
  5
381
100
AcDbEntity
  8
RACCORDO
100
AcDbPolyline
 62
253
  6
CONTINUOUS
 90
7
 70
0
 10
244.2368284032
 20
152.0980087129
 10
244.2371359817
 20
152.1118882847
 10
244.2373244164
 20
152.1236675877
 10
244.2373922024
 20
152.1332525375
 10
244.2373387982
 20
152.1405665763
 10
244.2371646304
 20
152.145551285
 10
244.23687109
 20
152.1481668492
  0
LWPOLYLINE
  5
382
100
AcDbEntity
  8
RACCORDO
100
AcDbPolyline
 62
253
  6
CONTINUOUS
 90
31
 70
0
 10
244.2549166387
 20
86.6927672015
 10
244.2535213225
 20
86.6438553761
 10
244.2495189734
 20
86.5950102914
 10
244.2429084137
 20
86.5463716052
 10
244.233693157
 20
86.4980679369
 10
244.2218887202
 20
86.4502515567
 10
244.2075288292
 20
86.403096284
 10
244.1906517323
 20
86.3567486655
 10
244.1712967965
 20
86.3113348009
 10
244.1495169457
 20
86.2669932864
 10
244.1253689474
 20
86.2238534422
 10
244.0989178246
 20
86.182043918
 10
244.0702416302
 20
86.141696373
 10
244.0393988868
 20
86.1029052046
 10
244.0064936248
 20
86.0658126387
 10
243.971696014
 20
86.0306031333
 10
243.935078942
 20
85.9973375811
 10
243.8967900861
 20
85.9661382308
 10
243.8571568626
 20
85.9372285324
 10
243.8162362598
 20
85.910593923
 10
243.7742530153
 20
85.8863274002
 10
243.731855104
 20
85.8646920448
 10
243.6894937709
 20
85.8457368129
 10
243.6470699786
 20
85.8292443808
 10
243.6044161327
 20
85.8150340994
 10
243.5620765065
 20
85.8031684627
 10
243.5197647161
 20
85.7934513487
 10
243.4759879899
 20
85.785577083
 10
243.4302828037
 20
85.7796603706
 10
243.3832734461
 20
85.7759841638
 10
243.3350705983
 20
85.7747218679
  0
LINE
  5
383
100
AcDbEntity
  8
RACCORDO
100
AcDbLine
 62
253
  6
CONTINUOUS
 10
244.2358665741
 20
152.0644080931
 11
244.2368284032
 21
152.0980087129
  0
LINE
  5
384
100
AcDbEntity
  8
RACCORDO
100
AcDbLine
 62
253
  6
CONTINUOUS
 10
243.3517279966
 20
131.6256408704
 11
243.3468916672
 21
131.4798082444
  0
LINE
  5
385
100
AcDbEntity
  8
RACCORDO
100
AcDbLine
 62
253
  6
CONTINUOUS
 10
244.2344695974
 20
152.0239370944
 11
244.2358665741
 21
152.0644080931
  0
LWPOLYLINE
  5
386
100
AcDbEntity
  8
RACCORDO
100
AcDbPolyline
 62
253
  6
CONTINUOUS
 90
19
 70
0
 10
244.8415244197
 20
86.676520635
 10
244.8389674331
 20
86.6049544144
 10
244.8328757684
 20
86.5331987617
 10
244.823249499
 20
86.461253682
 10
244.8101056577
 20
86.3888214348
 10
244.7934273527
 20
86.3161997745
 10
244.773163774
 20
86.2442819314
 10
244.7492133439
 20
86.1730684846
 10
244.7216777828
 20
86.1025588311
 10
244.6908112264
 20
86.0336443938
 10
244.6565275425
 20
85.9663752995
 10
244.618912974
 20
85.9007013649
 10
244.5784802002
 20
85.837363519
 10
244.5351519175
 20
85.7764208511
 10
244.4890054868
 20
85.7178141944
 10
244.4407855544
 20
85.6621070732
 10
244.3907403298
 20
85.6094872968
 10
244.3386215984
 20
85.5597669696
 10
244.2844293496
 20
85.5129460524
  0
LINE
  5
387
100
AcDbEntity
  8
RACCORDO
100
AcDbLine
 62
253
  6
CONTINUOUS
 10
243.3468916672
 20
131.4798082444
 11
243.3415410212
 21
131.338914881
  0
LINE
  5
388
100
AcDbEntity
  8
RACCORDO
100
AcDbLine
 62
253
  6
CONTINUOUS
 10
244.231659121
 20
151.9532213496
 11
244.2344695974
 21
152.0239370944
  0
LINE
  5
389
100
AcDbEntity
  8
RACCORDO
100
AcDbLine
 62
253
  6
CONTINUOUS
 10
244.2293959079
 20
151.9015965559
 11
244.231659121
 21
151.9532213496
  0
LINE
  5
38A
100
AcDbEntity
  8
RACCORDO
100
AcDbLine
 62
253
  6
CONTINUOUS
 10
243.3415410212
 20
131.338914881
 11
243.3359099605
 21
131.2091192921
  0
LWPOLYLINE
  5
38B
100
AcDbEntity
  8
RACCORDO
100
AcDbPolyline
 62
7
  6
CONTINUOUS
 90
19
 70
0
 10
244.4471753955
 20
86.6866162781
 10
244.4446466795
 20
86.6310023165
 10
244.4394042754
 20
86.5756138636
 10
244.4314715797
 20
86.5206258168
 10
244.4208739324
 20
86.466132536
 10
244.4076522488
 20
86.4123002333
 10
244.3918798817
 20
86.3593826678
 10
244.3736440566
 20
86.3075640354
 10
244.3530051582
 20
86.2568856464
 10
244.3300072402
 20
86.207383739
 10
244.304747598
 20
86.1592190562
 10
244.2772798438
 20
86.1124422724
 10
244.2475426863
 20
86.0669437275
 10
244.2155102685
 20
86.0227399547
 10
244.181313751
 20
85.9800516518
 10
244.1451169546
 20
85.9390764526
 10
244.1070348603
 20
85.8999349896
 10
244.0671224067
 20
85.8626859554
 10
244.0254898072
 20
85.8274194674
  0
LWPOLYLINE
  5
38C
100
AcDbEntity
  8
RACCORDO
100
AcDbPolyline
 62
7
  6
CONTINUOUS
 90
19
 70
0
 10
244.0254895103
 20
130.9580957725
 10
244.0671643429
 20
130.9227919662
 10
244.1071426743
 20
130.8854744547
 10
244.1453099224
 20
130.846230017
 10
244.1816168451
 20
130.805102205
 10
244.2159324646
 20
130.7622198636
 10
244.2480610414
 20
130.7178170394
 10
244.2778747705
 20
130.6721112068
 10
244.3053962014
 20
130.6251259323
 10
244.3306579045
 20
130.57681237
 10
244.3536008838
 20
130.5272590648
 10
244.3741546193
 20
130.4766010496
 10
244.3922982937
 20
130.4248412227
 10
244.4079798292
 20
130.3720143559
 10
244.4211134284
 20
130.318312469
 10
244.4316313913
 20
130.2639744055
 10
244.4394957625
 20
130.2091611273
 10
244.4446840049
 20
130.1539718815
 10
244.4471758397
 20
130.0985801881
  0
LWPOLYLINE
  5
38D
100
AcDbEntity
  8
RACCORDO
100
AcDbPolyline
 62
253
  6
CONTINUOUS
 90
19
 70
0
 10
244.2844293496
 20
131.2725701458
 10
244.3386215994
 20
131.2257492295
 10
244.3907403313
 20
131.1760289026
 10
244.4407855556
 20
131.1234091262
 10
244.4890054866
 20
131.0677020039
 10
244.5351519152
 20
131.0090953457
 10
244.5784801969
 20
130.9481526769
 10
244.6189129718
 20
130.8848148317
 10
244.6565275426
 20
130.8191408986
 10
244.6908112282
 20
130.7518718053
 10
244.7216777853
 20
130.6829573682
 10
244.7492133467
 20
130.6124477145
 10
244.7731637764
 20
130.5412342675
 10
244.7934273535
 20
130.4693164242
 10
244.8101056563
 20
130.3966947636
 10
244.8232494962
 20
130.3242625158
 10
244.8328757658
 20
130.252317435
 10
244.8389674315
 20
130.1805617809
 10
244.8415244201
 20
130.1089955585
  0
LINE
  5
38E
100
AcDbEntity
  8
RACCORDO
100
AcDbLine
 62
253
  6
CONTINUOUS
 10
254.4085603897
 20
65.1527580991
 11
254.3959968141
 21
65.2773051372
  0
LINE
  5
38F
100
AcDbEntity
  8
RACCORDO
100
AcDbLine
 62
253
  6
CONTINUOUS
 10
254.3805461948
 20
65.5239961583
 11
254.3851794423
 21
65.4724637717
  0
LINE
  5
390
100
AcDbEntity
  8
RACCORDO
100
AcDbLine
 62
253
  6
CONTINUOUS
 10
254.3851794423
 20
65.4724637717
 11
254.3892082253
 21
65.4242200896
  0
LWPOLYLINE
  5
391
100
AcDbEntity
  8
RACCORDO
100
AcDbPolyline
 62
253
  6
CONTINUOUS
 90
11
 70
0
 10
254.3892082253
 20
65.4242200896
 10
254.3925038469
 20
65.3808062269
 10
254.3938428108
 20
65.3613511402
 10
254.3949610305
 20
65.3436090126
 10
254.3958495578
 20
65.3277218186
 10
254.3965012827
 20
65.313816689
 10
254.3969109901
 20
65.3020048943
 10
254.3970754013
 20
65.2923809535
 10
254.3969932008
 20
65.2850218786
 10
254.3966650463
 20
65.2799865575
 10
254.3960935638
 20
65.2773152835
  0
LINE
  5
392
100
AcDbEntity
  8
RACCORDO
100
AcDbLine
 62
253
  6
CONTINUOUS
 10
249.4085603897
 20
64.7662971265
 11
249.4013216504
 21
64.8988998991
  0
LINE
  5
393
100
AcDbEntity
  8
RACCORDO
100
AcDbLine
 62
253
  6
CONTINUOUS
 10
249.3957930639
 20
65.1458920121
 11
249.3981566794
 21
65.0942199956
  0
LINE
  5
394
100
AcDbEntity
  8
RACCORDO
100
AcDbLine
 62
253
  6
CONTINUOUS
 10
249.3981566794
 20
65.0942199956
 11
249.4001001117
 21
65.0458632561
  0
LWPOLYLINE
  5
395
100
AcDbEntity
  8
RACCORDO
100
AcDbPolyline
 62
253
  6
CONTINUOUS
 90
11
 70
0
 10
249.4001001117
 20
65.0458632561
 10
249.4015613038
 20
65.0023659108
 10
249.402095833
 20
64.9828808717
 10
249.4024935969
 20
64.9651169079
 10
249.4027514138
 20
64.9492161123
 10
249.4028672214
 20
64.9353056746
 10
249.4028400934
 20
64.9234968634
 10
249.4026702467
 20
64.9138841369
 10
249.4023590401
 20
64.9065443867
 10
249.4019089627
 20
64.901536323
 10
249.4013236148
 20
64.898900005
  0
LWPOLYLINE
  5
396
100
AcDbEntity
  8
RACCORDO
100
AcDbPolyline
 62
253
  6
CONTINUOUS
 90
9
 70
0
 10
249.402095833
 20
151.8026353272
 10
249.4024935969
 20
151.8203992911
 10
249.4027514138
 20
151.8363000868
 10
249.4028672215
 20
151.8502105247
 10
249.4028400934
 20
151.8620193359
 10
249.4026702468
 20
151.8716320625
 10
249.4023590401
 20
151.8789718128
 10
249.4019089628
 20
151.8839798766
 10
249.4013236148
 20
151.8866161947
  0
LINE
  5
397
100
AcDbEntity
  8
RACCORDO
100
AcDbLine
 62
253
  6
CONTINUOUS
 10
249.4008942849
 20
151.7621000331
 11
249.402095833
 21
151.8026353272
  0
LINE
  5
398
100
AcDbEntity
  8
RACCORDO
100
AcDbLine
 62
253
  6
CONTINUOUS
 10
249.399185137
 20
151.715988569
 11
249.4008942849
 21
151.7621000331
  0
LWPOLYLINE
  5
399
100
AcDbEntity
  8
RACCORDO
100
AcDbPolyline
 62
253
  6
CONTINUOUS
 90
3
 70
0
 10
249.3957930639
 20
151.639624186
 10
249.3970229655
 20
151.6657733565
 10
249.399185137
 20
151.715988569
  0
LINE
  5
39A
100
AcDbEntity
  8
RACCORDO
100
AcDbLine
 62
253
  6
CONTINUOUS
 10
249.4085603897
 20
152.0192190717
 11
249.4013211658
 21
151.8866163251
  0
LWPOLYLINE
  5
39B
100
AcDbEntity
  8
RACCORDO
100
AcDbPolyline
 62
253
  6
CONTINUOUS
 90
10
 70
0
 10
254.3925038792
 20
151.4047102467
 10
254.3938428478
 20
151.42416538
 10
254.3949610718
 20
151.4419075524
 10
254.3958496031
 20
151.4577947888
 10
254.3965013315
 20
151.4716999575
 10
254.3969110418
 20
151.4835117878
 10
254.3970754555
 20
151.4931357598
 10
254.3969932569
 20
151.5004948614
 10
254.3966651037
 20
151.5055302041
 10
254.3960936219
 20
151.5082014945
  0
LINE
  5
39C
100
AcDbEntity
  8
RACCORDO
100
AcDbLine
 62
253
  6
CONTINUOUS
 10
254.3892082473
 20
151.3612962881
 11
254.3925038792
 21
151.4047102467
  0
LINE
  5
39D
100
AcDbEntity
  8
RACCORDO
100
AcDbLine
 62
253
  6
CONTINUOUS
 10
254.3851794533
 20
151.3130525121
 11
254.3892082473
 21
151.3612962881
  0
LINE
  5
39E
100
AcDbEntity
  8
RACCORDO
100
AcDbLine
 62
253
  6
CONTINUOUS
 10
254.3805461948
 20
151.26152004
 11
254.3851794533
 21
151.3130525121
  0
LINE
  5
39F
100
AcDbEntity
  8
RACCORDO
100
AcDbLine
 62
253
  6
CONTINUOUS
 10
254.4085603897
 20
151.6327580991
 11
254.3959828911
 21
151.508212401
  0
LWPOLYLINE
  5
3A0
100
AcDbEntity
  8
RACCORDO
100
AcDbPolyline
 62
253
  6
CONTINUOUS
 90
9
 70
0
 10
269.7944599405
 20
133.9540005419
 10
269.745885835
 20
134.3982682387
 10
269.6941273695
 20
134.8422865475
 10
269.6391845114
 20
135.286036355
 10
269.5810579732
 20
135.7294916858
 10
269.5197494615
 20
136.1726197276
 10
269.4552603508
 20
136.6153945157
 10
269.3875914352
 20
137.0577969116
 10
269.3167440101
 20
137.4998043507
  0
LWPOLYLINE
  5
3A1
100
AcDbEntity
  8
RACCORDO
100
AcDbPolyline
 62
253
  6
CONTINUOUS
 90
9
 70
0
 10
269.5217192075
 20
133.9395537678
 10
269.4733502708
 20
134.3825112536
 10
269.42180932
 20
134.8252034365
 10
269.3670981339
 20
135.2676466172
 10
269.3092172051
 20
135.7098174114
 10
269.2481657858
 20
136.1516527896
 10
269.1839445307
 20
136.5931294454
 10
269.116555451
 20
137.0342637566
 10
269.0459999474
 20
137.4750522739
  0
LINE
  5
3A2
100
AcDbEntity
  8
RACCORDO
100
AcDbLine
 62
253
  6
CONTINUOUS
 10
269.8551516191
 20
133.3536962869
 11
269.7944599405
 21
133.9540005419
  0
LINE
  5
3A3
100
AcDbEntity
  8
RACCORDO
100
AcDbLine
 62
253
  6
CONTINUOUS
 10
269.5822102251
 20
133.3404068801
 11
269.5217192075
 21
133.9395537678
  0
LINE
  5
3A4
100
AcDbEntity
  8
RACCORDO
100
AcDbLine
 62
253
  6
CONTINUOUS
 10
269.7013426174
 20
132.0926468124
 11
269.5822102251
 21
133.3404068801
  0
LINE
  5
3A5
100
AcDbEntity
  8
RACCORDO
100
AcDbLine
 62
253
  6
CONTINUOUS
 10
269.9743371444
 20
132.106887674
 11
269.8551516191
 21
133.3536962869
  0
LWPOLYLINE
  5
3A6
100
AcDbEntity
  8
RACCORDO
100
AcDbPolyline
 62
253
  6
CONTINUOUS
 90
16
 70
0
 10
269.7013422018
 20
84.6928693125
 10
269.9756559939
 20
87.846106303
 10
270.2108993643
 20
91.0016877518
 10
270.4070110915
 20
94.159488886
 10
270.5639264847
 20
97.3195823113
 10
270.6816168584
 20
100.4816447501
 10
270.7600906283
 20
103.6449568076
 10
270.7993404072
 20
106.8098156126
 10
270.7993406164
 20
109.9756709818
 10
270.760091137
 20
113.1405319913
 10
270.6816174375
 20
116.3038496484
 10
270.5639270068
 20
119.4659198894
 10
270.4070115158
 20
122.6260197455
 10
270.2108996831
 20
125.7838247481
 10
269.9756561723
 20
128.9394086946
 10
269.7013422073
 20
132.0926468124
  0
LWPOLYLINE
  5
3A7
100
AcDbEntity
  8
RACCORDO
100
AcDbPolyline
 62
253
  6
CONTINUOUS
 90
16
 70
0
 10
269.9743371444
 20
84.6786285242
 10
270.2488384996
 20
87.8331955331
 10
270.4841964171
 20
90.9908009781
 10
270.6803791621
 20
94.150970448
 10
270.8373539127
 20
97.3130760679
 10
270.9551106978
 20
100.4767958971
 10
271.0336429816
 20
103.6421147003
 10
271.0729265294
 20
106.8089837812
 10
271.0729267212
 20
109.9765014062
 10
271.0336435176
 20
113.1433726967
 10
270.955111421
 20
116.3086970552
 10
270.8373545872
 20
119.4724246422
 10
270.6803796616
 20
122.6345368058
 10
270.4841967403
 20
125.7947104688
 10
270.248838641
 20
128.9523188946
 10
269.9743371444
 20
132.106887674
  0
LINE
  5
3A8
100
AcDbEntity
  8
RACCORDO
100
AcDbLine
 62
253
  6
CONTINUOUS
 10
269.5822102265
 20
83.4451093322
 11
269.7013426105
 21
84.6928693125
  0
LINE
  5
3A9
100
AcDbEntity
  8
RACCORDO
100
AcDbLine
 62
253
  6
CONTINUOUS
 10
269.8551516951
 20
83.4318206862
 11
269.9743371444
 21
84.6786285242
  0
LWPOLYLINE
  5
3AA
100
AcDbEntity
  8
RACCORDO
100
AcDbPolyline
 62
253
  6
CONTINUOUS
 90
10
 70
0
 10
269.0459999474
 20
79.3104639243
 10
269.1165556304
 20
79.7512536774
 10
269.1839448398
 20
80.1923889138
 10
269.2481661751
 20
80.6338661841
 10
269.3092176194
 20
81.0757018629
 10
269.3670985241
 20
81.5178726467
 10
269.4218096548
 20
81.9603155138
 10
269.4733505248
 20
82.4030070827
 10
269.5217193499
 20
82.8459636512
 10
269.5822102265
 20
83.4451093322
  0
LWPOLYLINE
  5
3AB
100
AcDbEntity
  8
RACCORDO
100
AcDbPolyline
 62
253
  6
CONTINUOUS
 90
10
 70
0
 10
269.3167464208
 20
79.2857265354
 10
269.3875925298
 20
79.7277262735
 10
269.4552605293
 20
80.1701228801
 10
269.5197490821
 20
80.6128937979
 10
269.5810574182
 20
81.0560203895
 10
269.6391840476
 20
81.4994762025
 10
269.6941270441
 20
81.9432269433
 10
269.7458856298
 20
82.3872461418
 10
269.7944598904
 20
82.8315151808
 10
269.8551516951
 20
83.4318206862
  0
LWPOLYLINE
  5
3AC
100
AcDbEntity
  8
RACCORDO
100
AcDbPolyline
 62
253
  6
CONTINUOUS
 90
43
 70
0
 10
269.3167439939
 20
137.499804348
 10
269.2238932564
 20
138.0156136122
 10
269.1148807612
 20
138.5289451242
 10
268.9897519888
 20
139.0392875979
 10
268.848531775
 20
139.5462663814
 10
268.6913266244
 20
140.0492311453
 10
268.5183674327
 20
140.547268477
 10
268.3298098264
 20
141.0398664561
 10
268.1258124945
 20
141.5265498127
 10
267.9067056111
 20
142.0064898981
 10
267.672772034
 20
142.4791126135
 10
267.4242048291
 20
142.9440694088
 10
267.1612552543
 20
143.4008935995
 10
266.8841849045
 20
143.8491577696
 10
266.5932868136
 20
144.2884130726
 10
266.2888868505
 20
144.718176275
 10
265.9712948609
 20
145.1380444478
 10
265.6408452525
 20
145.5476087401
 10
265.2979326859
 20
145.9464001176
 10
264.9429260222
 20
146.3340358264
 10
264.576187102
 20
146.7101660002
 10
264.198128541
 20
147.0743966754
 10
263.8091523256
 20
147.4263894406
 10
263.4096567628
 20
147.7658322657
 10
263.000069925
 20
148.092394755
 10
262.5808357112
 20
148.4057724276
 10
262.1523679109
 20
148.7057053867
 10
261.715062048
 20
148.9919486082
 10
261.2693671454
 20
149.2642485506
 10
260.8157316765
 20
149.522372109
 10
260.3545566783
 20
149.7661176687
 10
259.8862903875
 20
149.9952796115
 10
259.411414425
 20
150.2096545524
 10
258.9303862628
 20
150.409060098
 10
258.443713594
 20
150.5933171992
 10
257.951849206
 20
150.7622870559
 10
257.4551716479
 20
150.9158595095
 10
256.9543219076
 20
151.0538630522
 10
256.4496377638
 20
151.1762322329
 10
255.9410325271
 20
151.2829764986
 10
255.4287975684
 20
151.3739884623
 10
254.9136157597
 20
151.4491029392
 10
254.3959828947
 20
151.5082124363
  0
LWPOLYLINE
  5
3AD
100
AcDbEntity
  8
RACCORDO
100
AcDbPolyline
 62
253
  6
CONTINUOUS
 90
43
 70
0
 10
269.0459999474
 20
137.4750522739
 10
268.9547128319
 20
137.9833457611
 10
268.8476318971
 20
138.4882463514
 10
268.7247647801
 20
138.9897514131
 10
268.5859756252
 20
139.4885014566
 10
268.4314156221
 20
139.9838508769
 10
268.2615243435
 20
140.4738699623
 10
268.0762284059
 20
140.9585033886
 10
267.8756195372
 20
141.4378067706
 10
267.6603870463
 20
141.9100207653
 10
267.4305272527
 20
142.3750140534
 10
267.1860634037
 20
142.832923466
 10
266.9277263557
 20
143.2823954797
 10
266.655472257
 20
143.7234242392
 10
266.3693640975
 20
144.1560254845
 10
266.0702933901
 20
144.5788812797
 10
265.7582169924
 20
144.991972947
 10
265.4331956362
 20
145.3953332316
 10
265.0962764686
 20
145.7877243361
 10
264.7474343234
 20
146.1691059687
 10
264.386709273
 20
146.5395360257
 10
264.0152456114
 20
146.8979265759
 10
263.6330214021
 20
147.2442406279
 10
263.2400698412
 20
147.5785352607
 10
262.8376167901
 20
147.8998656657
 10
262.4256583753
 20
148.2081883393
 10
262.0042053988
 20
148.5035681754
 10
261.5745043334
 20
148.785224353
 10
261.1365403172
 20
149.0531275389
 10
260.6903304501
 20
149.3073284454
 10
260.2371676249
 20
149.5471671005
 10
259.7770198035
 20
149.7726193321
 10
259.3099164994
 20
149.9837294678
 10
258.8372414105
 20
150.1799405301
 10
258.3590073249
 20
150.3612100451
 10
257.8751943587
 20
150.527598297
 10
257.3871358225
 20
150.6787021814
 10
256.8949546039
 20
150.8144805865
 10
256.3985166636
 20
150.9349890205
 10
255.8987688018
 20
151.0399685997
 10
255.3960217285
 20
151.1293364656
 10
254.8899501849
 20
151.2031856485
 10
254.3805461948
 20
151.26152004
  0
LWPOLYLINE
  5
3AE
100
AcDbEntity
  8
0
100
AcDbPolyline
 62
7
  6
CONTINUOUS
 90
4
 70
0
 10
110.4842610309
 20
64.0017274971
 10
110.6093260504
 20
64.0342725716
 10
110.7339024541
 20
64.0706546959
 10
110.8597512906
 20
64.1115259697
  0
LWPOLYLINE
  5
3AF
100
AcDbEntity
  8
0
100
AcDbPolyline
 62
7
  6
CONTINUOUS
 90
4
 70
0
 10
109.9831639672
 20
63.9096110194
 10
110.1055487601
 20
63.9265886145
 10
110.2306049797
 20
63.9475845838
 10
110.3575449098
 20
63.972721778
  0
LWPOLYLINE
  5
3B0
100
AcDbEntity
  8
0
100
AcDbPolyline
 62
7
  6
CONTINUOUS
 90
16
 70
0
 10
109.8240555569
 20
63.8927580991
 10
109.9993886855
 20
63.9116602274
 10
110.1739006408
 20
63.9376046928
 10
110.3473091481
 20
63.9705506187
 10
110.5193832996
 20
64.0104702011
 10
110.6897862707
 20
64.0573122339
 10
110.8580872438
 20
64.1109582657
 10
111.0239452028
 20
64.1712703196
 10
111.187173163
 20
64.2381618554
 10
111.3475802525
 20
64.3115587305
 10
111.5049028954
 20
64.3913529764
 10
111.6588924696
 20
64.4774056089
 10
111.8093720966
 20
64.5696134626
 10
111.9561576186
 20
64.6678841337
 10
112.0989287075
 20
64.772036737
 10
112.2373243865
 20
64.8818079658
  0
LINE
  5
3B1
100
AcDbEntity
  8
0
100
AcDbLine
 62
7
  6
CONTINUOUS
 10
109.8240555569
 20
63.8927581521
 11
109.8629104943
 21
63.8963320822
  0
LWPOLYLINE
  5
3B2
100
AcDbEntity
  8
0
100
AcDbPolyline
 62
253
  6
CONTINUOUS
 90
19
 70
0
 10
109.8240555569
 20
65.7069634022
 10
109.9917328015
 20
65.7144110487
 10
110.1582156582
 20
65.729045263
 10
110.3234997632
 20
65.7508615108
 10
110.4871936114
 20
65.7797768036
 10
110.6496883594
 20
65.8158288161
 10
110.8120940564
 20
65.8593844799
 10
110.9751102749
 20
65.910962723
 10
111.1378158267
 20
65.9706207009
 10
111.2988641237
 20
66.0380675615
 10
111.4578690386
 20
66.1132389363
 10
111.6149551417
 20
66.1963664219
 10
111.7695967164
 20
66.2873823862
 10
111.9217851801
 20
66.3864990063
 10
112.0710887207
 20
66.4936674642
 10
112.2163449969
 20
66.6081996188
 10
112.3569689684
 20
66.7296842955
 10
112.4929658526
 20
66.8581893911
 10
112.6240555569
 20
66.9935606409
  0
LWPOLYLINE
  5
3B3
100
AcDbEntity
  8
0
100
AcDbPolyline
 62
253
  6
CONTINUOUS
 90
19
 70
0
 10
109.8240555569
 20
65.6502722996
 10
109.9914462168
 20
65.6575295951
 10
110.1576018904
 20
65.6720260652
 10
110.3225351959
 20
65.6937580421
 10
110.4858525395
 20
65.7226392847
 10
110.6479826562
 20
65.7587102865
 10
110.8101090943
 20
65.8023606713
 10
110.9729898331
 20
65.8541463898
 10
111.1356705506
 20
65.9141340597
 10
111.2967395964
 20
65.9820160544
 10
111.4558077495
 20
66.0577272639
 10
111.6130243136
 20
66.1415200213
 10
111.7678427605
 20
66.2333241194
 10
111.9202642257
 20
66.3333658912
 10
112.0698567132
 20
66.441602413
 10
112.2154179948
 20
66.5573153052
 10
112.3563450081
 20
66.680076849
 10
112.4926518661
 20
66.8099635986
 10
112.6240555569
 20
66.9468180509
  0
LWPOLYLINE
  5
3B4
100
AcDbEntity
  8
0
100
AcDbPolyline
 62
253
  6
CONTINUOUS
 90
19
 70
0
 10
109.8240555569
 20
65.2890979699
 10
109.990327466
 20
65.2925002124
 10
110.1546922579
 20
65.303569075
 10
110.3173409307
 20
65.3222771556
 10
110.4778721979
 20
65.3484835303
 10
110.637093106
 20
65.3822160045
 10
110.796912575
 20
65.4240356642
 10
110.9586688039
 20
65.4748219369
 10
111.1211061592
 20
65.5347353336
 10
111.2822018211
 20
65.6033112741
 10
111.4415299144
 20
65.6804514979
 10
111.5994952335
 20
65.7665872907
 10
111.755392645
 20
65.8616241067
 10
111.9092662264
 20
65.9658555659
 10
112.0607429408
 20
66.0793042573
 10
112.2084193849
 20
66.2011039899
 10
112.3515687837
 20
66.3307273509
 10
112.4902199451
 20
66.4682741239
 10
112.6240555569
 20
66.6135482378
  0
LWPOLYLINE
  5
3B5
100
AcDbEntity
  8
0
100
AcDbPolyline
 62
253
  6
CONTINUOUS
 90
19
 70
0
 10
109.8240555569
 20
65.2655541836
 10
109.9902725346
 20
65.2686516616
 10
110.1545123393
 20
65.2794455824
 10
110.3169836525
 20
65.2979055784
 10
110.477286505
 20
65.3238852824
 10
110.6362631043
 20
65.3574103032
 10
110.7958876433
 20
65.399056152
 10
110.9575546137
 20
65.4497323371
 10
111.1199807333
 20
65.5096084778
 10
111.2810811617
 20
65.5782028121
 10
111.4404232855
 20
65.6554107069
 10
111.5984390646
 20
65.7416802044
 10
111.7544125039
 20
65.8369151545
 10
111.9083886916
 20
65.9414116991
 10
112.0600024709
 20
66.0551982676
 10
112.207841909
 20
66.1774027274
 10
112.351171323
 20
66.3074917063
 10
112.4900162693
 20
66.4455634458
 10
112.6240555569
 20
66.5914175189
  0
LINE
  5
3B6
100
AcDbEntity
  8
0
100
AcDbLine
 62
7
  6
CONTINUOUS
 10
112.6240555569
 20
66.3927580991
 11
112.602239193
 21
66.3927580991
  0
LINE
  5
3B7
100
AcDbEntity
  8
DRAFT
100
AcDbLine
 62
7
  6
CONTINUOUS
 10
109.8240555569
 20
63.3927580991
 11
106.8420671
 21
63.549037492
  0
LINE
  5
3B8
100
AcDbEntity
  8
RACCORDO
100
AcDbLine
 62
253
  6
CONTINUOUS
 10
109.8240555569
 20
64.7662971265
 11
107.2900766787
 21
64.8988998991
  0
LINE
  5
3B9
100
AcDbEntity
  8
RACCORDO
100
AcDbLine
 62
253
  6
CONTINUOUS
 10
109.8240555569
 20
65.1527580991
 11
107.4354966862
 21
65.2773051372
  0
LWPOLYLINE
  5
3BA
100
AcDbEntity
  8
0
100
AcDbPolyline
 62
253
  6
CONTINUOUS
 90
19
 70
0
 10
112.6240555569
 20
79.4958641945
 10
112.5016290454
 20
79.4808762448
 10
112.3741524877
 20
79.4664836651
 10
112.2418255413
 20
79.4527185117
 10
112.1048729538
 20
79.4396151751
 10
111.9634731862
 20
79.4272033128
 10
111.8177689603
 20
79.4155073887
 10
111.6679695744
 20
79.4045554078
 10
111.5143379129
 20
79.3943793691
 10
111.3571119731
 20
79.3850092658
 10
111.1965601393
 20
79.3764750464
 10
111.0329295016
 20
79.3687977506
 10
110.8664248652
 20
79.361995341
 10
110.6972511998
 20
79.35608753
 10
110.5257555988
 20
79.3510992711
 10
110.3523690009
 20
79.347050093
 10
110.1774430721
 20
79.3439491769
 10
110.0012364323
 20
79.3418034916
 10
109.8240555569
 20
79.3406212557
  0
LWPOLYLINE
  5
3BB
100
AcDbEntity
  8
0
100
AcDbPolyline
 62
253
  6
CONTINUOUS
 90
19
 70
0
 10
112.6240555569
 20
79.563790137
 10
112.5015889038
 20
79.5493020866
 10
112.3740736867
 20
79.5353919196
 10
112.2417100815
 20
79.5220906628
 10
112.1047226274
 20
79.5094315322
 10
111.9632909349
 20
79.4974433017
 10
111.8175603446
 20
79.4861498194
 10
111.6677411701
 20
79.4755781911
 10
111.5140959683
 20
79.4657592785
 10
111.3568633439
 20
79.456722072
 10
111.1963113832
 20
79.4484954544
 10
111.0326876171
 20
79.4410997404
 10
110.8661986069
 20
79.434552321
 10
110.6970512347
 20
79.4288722413
 10
110.5255903491
 20
79.424083434
 10
110.352242193
 20
79.4202045659
 10
110.1773563518
 20
79.4172444575
 10
110.0011922132
 20
79.4152098683
 10
109.8240555569
 20
79.4141087201
  0
LINE
  5
3BC
100
AcDbEntity
  8
0
100
AcDbLine
 62
7
  6
CONTINUOUS
 10
104.3141507766
 20
79.5149567447
 11
104.4646441163
 21
79.5149567447
  0
LINE
  5
3BD
100
AcDbEntity
  8
0
100
AcDbLine
 62
253
  6
CONTINUOUS
 10
104.2540246897
 20
80.2726578711
 11
104.4044598346
 21
80.2726578711
  0
LINE
  5
3BE
100
AcDbEntity
  8
0
100
AcDbLine
 62
7
  6
CONTINUOUS
 10
104.2122912432
 20
80.8218336622
 11
104.3626864789
 21
80.8218336622
  0
LINE
  5
3BF
100
AcDbEntity
  8
0
100
AcDbLine
 62
7
  6
CONTINUOUS
 10
104.2110917208
 20
80.8383774711
 11
104.3614857865
 21
80.8383774711
  0
LINE
  5
3C0
100
AcDbEntity
  8
RACCORDO
100
AcDbLine
 62
253
  6
CONTINUOUS
 10
109.8240555569
 20
79.2579661145
 11
106.6339681375
 21
79.2857265354
  0
LINE
  5
3C1
100
AcDbEntity
  8
0
100
AcDbLine
 62
253
  6
CONTINUOUS
 10
110.1717966671
 20
83.4958024534
 11
109.8240555569
 21
83.4930381462
  0
LINE
  5
3C2
100
AcDbEntity
  8
0
100
AcDbLine
 62
253
  6
CONTINUOUS
 10
110.1720446908
 20
83.3107760503
 11
109.8240555569
 21
83.3082356985
  0
LINE
  5
3C3
100
AcDbEntity
  8
0
100
AcDbLine
 62
253
  6
CONTINUOUS
 10
110.5154518301
 20
83.3113414901
 11
110.1720446908
 21
83.3107760503
  0
LINE
  5
3C4
100
AcDbEntity
  8
0
100
AcDbLine
 62
253
  6
CONTINUOUS
 10
104.1149905227
 20
82.2524742256
 11
104.2652910508
 21
82.2524742256
  0
LINE
  5
3C5
100
AcDbEntity
  8
0
100
AcDbLine
 62
7
  6
CONTINUOUS
 10
104.2576859025
 20
82.3475096183
 11
104.1073913318
 21
82.3475096183
  0
LINE
  5
3C6
100
AcDbEntity
  8
0
100
AcDbLine
 62
253
  6
CONTINUOUS
 10
110.5149747332
 20
83.4963592858
 11
110.1717966671
 21
83.4958024534
  0
LINE
  5
3C7
100
AcDbEntity
  8
RACCORDO
100
AcDbLine
 62
253
  6
CONTINUOUS
 10
104.3028665156
 20
84.6928473125
 11
106.0557885066
 21
84.6928693125
  0
LINE
  5
3C8
100
AcDbEntity
  8
RACCORDO
100
AcDbLine
 62
253
  6
CONTINUOUS
 10
109.8240555569
 20
83.2579661145
 11
106.400475356
 21
83.2760115413
  0
LINE
  5
3C9
100
AcDbEntity
  8
0
100
AcDbLine
 62
253
  6
CONTINUOUS
 10
110.8522963772
 20
83.30995863
 11
110.5154518301
 21
83.3113414901
  0
LINE
  5
3CA
100
AcDbEntity
  8
0
100
AcDbLine
 62
253
  6
CONTINUOUS
 10
110.8516379424
 20
83.4947377984
 11
110.5149747332
 21
83.4963592858
  0
LINE
  5
3CB
100
AcDbEntity
  8
0
100
AcDbLine
 62
253
  6
CONTINUOUS
 10
111.1810485276
 20
83.3066757375
 11
110.8522963772
 21
83.30995863
  0
LINE
  5
3CC
100
AcDbEntity
  8
0
100
AcDbLine
 62
253
  6
CONTINUOUS
 10
111.1803234035
 20
83.4909895789
 11
110.8516379424
 21
83.4947377984
  0
LINE
  5
3CD
100
AcDbEntity
  8
0
100
AcDbLine
 62
253
  6
CONTINUOUS
 10
111.4992225419
 20
83.3015632466
 11
111.1810485276
 21
83.3066757375
  0
LINE
  5
3CE
100
AcDbEntity
  8
0
100
AcDbLine
 62
253
  6
CONTINUOUS
 10
111.4985137469
 20
83.4851914523
 11
111.1803234035
 21
83.4909895789
  0
LINE
  5
3CF
100
AcDbEntity
  8
0
100
AcDbLine
 62
253
  6
CONTINUOUS
 10
111.8046743608
 20
83.2947176607
 11
111.4992225419
 21
83.3015632466
  0
LINE
  5
3D0
100
AcDbEntity
  8
0
100
AcDbLine
 62
253
  6
CONTINUOUS
 10
111.8040585559
 20
83.4774492451
 11
111.4985137469
 21
83.4851914523
  0
LINE
  5
3D1
100
AcDbEntity
  8
0
100
AcDbLine
 62
253
  6
CONTINUOUS
 10
112.0954305249
 20
83.2862588831
 11
111.8046743608
 21
83.2947176607
  0
LINE
  5
3D2
100
AcDbEntity
  8
0
100
AcDbLine
 62
253
  6
CONTINUOUS
 10
112.0949858063
 20
83.4678945356
 11
111.8040585559
 21
83.4774492451
  0
LINE
  5
3D3
100
AcDbEntity
  8
0
100
AcDbLine
 62
253
  6
CONTINUOUS
 10
112.3692031361
 20
83.2763244211
 11
112.0954305249
 21
83.2862588831
  0
LINE
  5
3D4
100
AcDbEntity
  8
0
100
AcDbLine
 62
253
  6
CONTINUOUS
 10
112.6240555569
 20
83.2650557501
 11
112.3692031361
 21
83.2763244211
  0
LWPOLYLINE
  5
3D5
100
AcDbEntity
  8
0
100
AcDbPolyline
 62
253
  6
CONTINUOUS
 90
4
 70
0
 10
112.6240555569
 20
83.4439635752
 10
112.4989885213
 20
83.4505001032
 10
112.3689697614
 20
83.4566802495
 10
112.0949858063
 20
83.4678945356
  0
LWPOLYLINE
  5
3D6
100
AcDbEntity
  8
RACCORDO
100
AcDbPolyline
 62
253
  6
CONTINUOUS
 90
16
 70
0
 10
106.1177119735
 20
133.4963345312
 10
106.1216011833
 20
133.498922798
 10
106.1281631131
 20
133.5013338476
 10
106.1373382256
 20
133.5035458043
 10
106.1490432738
 20
133.5055385986
 10
106.1631720563
 20
133.5072941496
 10
106.1795963807
 20
133.5087965291
 10
106.1981672271
 20
133.5100321057
 10
106.2187160997
 20
133.5109896688
 10
106.2410565559
 20
133.5116605305
 10
106.2649858978
 20
133.5120386038
 10
106.2902870114
 20
133.5121204585
 10
106.3167303363
 20
133.5119053519
 10
106.3440759489
 20
133.5113952357
 10
106.3720757387
 20
133.5105947382
 10
106.40047566
 20
133.5095111224
  0
LWPOLYLINE
  5
3D7
100
AcDbEntity
  8
RACCORDO
100
AcDbPolyline
 62
253
  6
CONTINUOUS
 90
16
 70
0
 10
106.0557893798
 20
132.0926688857
 10
106.0596615151
 20
132.0951468748
 10
106.0662106383
 20
132.097473197
 10
106.075377264
 20
132.0996267223
 10
106.0870781319
 20
132.1015878903
 10
106.1012069633
 20
132.1033388877
 10
106.1176354264
 20
132.1048638104
 10
106.1362143017
 20
132.1061488074
 10
106.1567748379
 20
132.1071822071
 10
106.1791302841
 20
132.1079546233
 10
106.2030775862
 20
132.1084590401
 10
106.2283992316
 20
132.1086908758
 10
106.2548652243
 20
132.1086480247
 10
106.2822351743
 20
132.1083308761
 10
106.3102604811
 20
132.1077423105
 10
106.3386865915
 20
132.106887674
  0
LWPOLYLINE
  5
3D8
100
AcDbEntity
  8
RACCORDO
100
AcDbPolyline
 62
253
  6
CONTINUOUS
 90
16
 70
0
 10
106.0557893936
 20
84.6928473131
 10
106.059661531
 20
84.6903693244
 10
106.0662106559
 20
84.6880430025
 10
106.0753772827
 20
84.6858894776
 10
106.0870781513
 20
84.6839283099
 10
106.1012069828
 20
84.6821773127
 10
106.1176354454
 20
84.6806523903
 10
106.13621432
 20
84.6793673935
 10
106.156774855
 20
84.6783339939
 10
106.1791302995
 20
84.6775615779
 10
106.2030775998
 20
84.6770571612
 10
106.228399243
 20
84.6768253255
 10
106.2548652334
 20
84.6768681766
 10
106.282235181
 20
84.6771853251
 10
106.3102604852
 20
84.6777738906
 10
106.338686593
 20
84.6786285269
  0
LWPOLYLINE
  5
3D9
100
AcDbEntity
  8
RACCORDO
100
AcDbPolyline
 62
253
  6
CONTINUOUS
 90
16
 70
0
 10
106.1177119701
 20
83.2891816668
 10
106.1216011796
 20
83.2865933999
 10
106.128163109
 20
83.2841823502
 10
106.1373382213
 20
83.2819703935
 10
106.1490432694
 20
83.2799775992
 10
106.1631720519
 20
83.2782220481
 10
106.1795963765
 20
83.2767196685
 10
106.1981672231
 20
83.2754840919
 10
106.218716096
 20
83.2745265287
 10
106.2410565525
 20
83.273855667
 10
106.2649858949
 20
83.2734775937
 10
106.2902870089
 20
83.273395739
 10
106.3167303344
 20
83.2736108456
 10
106.3440759475
 20
83.2741209618
 10
106.3720757378
 20
83.2749214594
 10
106.4004756597
 20
83.2760050752
  0
LWPOLYLINE
  5
3DA
100
AcDbEntity
  8
RACCORDO
100
AcDbPolyline
 62
253
  6
CONTINUOUS
 90
16
 70
0
 10
106.3517180904
 20
137.4750522672
 10
106.3557441486
 20
137.4793387114
 10
106.3624153346
 20
137.4833646207
 10
106.3716716138
 20
137.4870937659
 10
106.3834296883
 20
137.4904925879
 10
106.3975837459
 20
137.4935305004
 10
106.4140064131
 20
137.4961801651
 10
106.4325499009
 20
137.4984177373
 10
106.4530473347
 20
137.5002230809
 10
106.4753142565
 20
137.5015799495
 10
106.499150284
 20
137.5024761324
 10
106.5243409149
 20
137.502903565
 10
106.5506594564
 20
137.5028584006
 10
106.5778690656
 20
137.5023410458
 10
106.6057248809
 20
137.5013561561
 10
106.6339762252
 20
137.4999125948
  0
LWPOLYLINE
  5
3DB
100
AcDbEntity
  8
RACCORDO
100
AcDbPolyline
 62
253
  6
CONTINUOUS
 90
16
 70
0
 10
106.3517180135
 20
79.3104639246
 10
106.3557440267
 20
79.3061774704
 10
106.3624151754
 20
79.302151551
 10
106.3716714252
 20
79.2984223959
 10
106.3834294781
 20
79.2950235644
 10
106.397583522
 20
79.2919856428
 10
106.4140061831
 20
79.2893359698
 10
106.4325496721
 20
79.28709839
 10
106.453047114
 20
79.2852930398
 10
106.47531405
 20
79.2839361655
 10
106.4991500976
 20
79.283039978
 10
106.5243407534
 20
79.2826125421
 10
106.550659324
 20
79.2826577043
 10
106.5778689656
 20
79.2831750582
 10
106.6057248155
 20
79.2841599482
 10
106.6339761959
 20
79.2856035109
  0
LINE
  5
3DC
100
AcDbEntity
  8
DRAFT
100
AcDbLine
 62
7
  6
CONTINUOUS
 10
110.6240555569
 20
111.8927580991
 11
112.6240555569
 21
112.2454120605
  0
LINE
  5
3DD
100
AcDbEntity
  8
0
100
AcDbLine
 62
253
  6
CONTINUOUS
 10
110.6240555569
 20
108.3927580991
 11
109.8240555569
 21
108.3927580991
  0
LINE
  5
3DE
100
AcDbEntity
  8
RACCORDO
100
AcDbLine
 62
253
  6
CONTINUOUS
 10
104.1261620291
 20
108.3927580991
 11
104.1259320853
 21
108.3927580991
  0
LINE
  5
3DF
100
AcDbEntity
  8
RACCORDO
100
AcDbLine
 62
253
  6
CONTINUOUS
 10
104.597623244
 20
86.676099779
 11
104.5973829105
 21
86.6763530187
  0
LINE
  5
3E0
100
AcDbEntity
  8
DRAFT
100
AcDbLine
 62
7
  6
CONTINUOUS
 10
112.6240555569
 20
104.5401041377
 11
110.6240555569
 21
104.8927580991
  0
LWPOLYLINE
  5
3E1
100
AcDbEntity
  8
RACCORDO
100
AcDbPolyline
 62
253
  6
CONTINUOUS
 90
16
 70
0
 10
107.0105425881
 20
151.639624186
 10
107.0164258791
 20
151.6657733565
 10
107.0246236775
 20
151.6912962027
 10
107.0350704095
 20
151.715988569
 10
107.0476825123
 20
151.7396529424
 10
107.0623591024
 20
151.7621000331
 10
107.0789827826
 20
151.7831502879
 10
107.0974205811
 20
151.8026353272
 10
107.1175250148
 20
151.8203992911
 10
107.1391352697
 20
151.8363000868
 10
107.1620784864
 20
151.8502105247
 10
107.1861711435
 20
151.8620193359
 10
107.2112205253
 20
151.8716320625
 10
107.2370262631
 20
151.8789718128
 10
107.2633819382
 20
151.8839798766
 10
107.2900767333
 20
151.8866161947
  0
LWPOLYLINE
  5
3E2
100
AcDbEntity
  8
RACCORDO
100
AcDbPolyline
 62
253
  6
CONTINUOUS
 90
16
 70
0
 10
106.899804555
 20
151.9015965559
 10
106.9057100964
 20
151.9277236
 10
106.9139267504
 20
151.9532213496
 10
106.9243888886
 20
151.9778861471
 10
106.9370129468
 20
152.0015209881
 10
106.9516980933
 20
152.0239370944
 10
106.9683270337
 20
152.0449554225
 10
106.9867669481
 20
152.0644080931
 10
107.0068705517
 20
152.0821397324
 10
107.0284772716
 20
152.0980087129
 10
107.0514145288
 20
152.1118882847
 10
107.0754991173
 20
152.1236675877
 10
107.1005386666
 20
152.1332525375
 10
107.126333179
 20
152.1405665763
 10
107.1526766266
 20
152.145551285
 10
107.179358597
 20
152.1481668492
  0
LWPOLYLINE
  5
3E3
100
AcDbEntity
  8
RACCORDO
100
AcDbPolyline
 62
253
  6
CONTINUOUS
 90
16
 70
0
 10
106.8998045553
 20
64.8839196423
 10
106.9057100964
 20
64.857792598
 10
106.9139267502
 20
64.8322948481
 10
106.9243888882
 20
64.8076300503
 10
106.9370129462
 20
64.7839952091
 10
106.9516980926
 20
64.7615791024
 10
106.9683270329
 20
64.7405607741
 10
106.9867669472
 20
64.7211081031
 10
107.0068705508
 20
64.7033764635
 10
107.0284772707
 20
64.6875074827
 10
107.051414528
 20
64.6736279107
 10
107.0754991165
 20
64.6618486075
 10
107.1005386659
 20
64.6522636575
 10
107.1263331785
 20
64.6449496185
 10
107.1526766263
 20
64.6399649097
 10
107.1793585968
 20
64.6373493453
  0
LWPOLYLINE
  5
3E4
100
AcDbEntity
  8
RACCORDO
100
AcDbPolyline
 62
253
  6
CONTINUOUS
 90
16
 70
0
 10
107.0105425878
 20
65.1458920121
 10
107.0164258789
 20
65.1197428418
 10
107.0246236774
 20
65.0942199956
 10
107.0350704095
 20
65.0695276294
 10
107.0476825124
 20
65.0458632561
 10
107.0623591026
 20
65.0234161656
 10
107.0789827828
 20
65.0023659108
 10
107.0974205813
 20
64.9828808717
 10
107.1175250151
 20
64.9651169079
 10
107.1391352699
 20
64.9492161123
 10
107.1620784866
 20
64.9353056746
 10
107.1861711438
 20
64.9234968634
 10
107.2112205255
 20
64.9138841369
 10
107.2370262632
 20
64.9065443867
 10
107.2633819384
 20
64.901536323
 10
107.2900767333
 20
64.898900005
  0
LWPOLYLINE
  5
3E5
100
AcDbEntity
  8
RACCORDO
100
AcDbPolyline
 62
253
  6
CONTINUOUS
 90
16
 70
0
 10
107.1559846291
 20
151.26152004
 10
107.1618614995
 20
151.2875963354
 10
107.1700536907
 20
151.3130525121
 10
107.180495648
 20
151.3376848668
 10
107.1931038135
 20
151.3612962881
 10
107.2077772951
 20
151.3836978348
 10
107.2243986737
 20
151.4047102467
 10
107.2428349431
 20
151.42416538
 10
107.262938574
 20
151.4419075524
 10
107.2845486946
 20
151.4577947888
 10
107.3074923781
 20
151.4716999575
 10
107.3315860263
 20
151.4835117878
 10
107.3566368389
 20
151.4931357598
 10
107.3824443562
 20
151.5004948614
 10
107.4088020632
 20
151.5055302041
 10
107.4354990423
 20
151.5082014945
  0
LWPOLYLINE
  5
3E6
100
AcDbEntity
  8
RACCORDO
100
AcDbPolyline
 62
253
  6
CONTINUOUS
 90
16
 70
0
 10
107.15598463
 20
65.5239961583
 10
107.1618615444
 20
65.4979199042
 10
107.1700537731
 20
65.4724637717
 10
107.1804957612
 20
65.4478314634
 10
107.1931039508
 20
65.4242200896
 10
107.2077774498
 20
65.4018185911
 10
107.2243988393
 20
65.3808062269
 10
107.2428351133
 20
65.3613511402
 10
107.2629387428
 20
65.3436090126
 10
107.2845488563
 20
65.3277218186
 10
107.3074925276
 20
65.313816689
 10
107.3315861589
 20
65.3020048943
 10
107.3566369504
 20
65.2923809535
 10
107.3824444433
 20
65.2850218786
 10
107.408802123
 20
65.2799865575
 10
107.4354990729
 20
65.2773152835
  0
LWPOLYLINE
  5
3E7
100
AcDbEntity
  8
0
100
AcDbPolyline
 62
7
  6
CONTINUOUS
 90
5
 70
0
 10
104.2591937439
 20
82.3339992197
 10
104.2586273809
 20
82.3402741436
 10
104.2581823181
 20
82.3445789818
 10
104.2578562721
 20
82.3469496175
 10
104.2576880946
 20
82.3474746519
  0
LWPOLYLINE
  5
3E8
100
AcDbEntity
  8
0
100
AcDbPolyline
 62
7
  6
CONTINUOUS
 90
5
 70
0
 10
104.1088995038
 20
82.3339853086
 10
104.1083336573
 20
82.3402601702
 10
104.1078887443
 20
82.3445685949
 10
104.107562609
 20
82.3469444088
 10
104.1073935379
 20
82.3474743948
  0
LINE
  5
3E9
100
AcDbEntity
  8
0
100
AcDbLine
 62
7
  6
CONTINUOUS
 10
104.1103844739
 20
82.3156989896
 11
104.1088995038
 21
82.3339853086
  0
LINE
  5
3EA
100
AcDbEntity
  8
0
100
AcDbLine
 62
7
  6
CONTINUOUS
 10
104.2606812923
 20
82.3156954809
 11
104.2591937439
 21
82.3339992197
  0
LINE
  5
3EB
100
AcDbEntity
  8
0
100
AcDbLine
 62
7
  6
CONTINUOUS
 10
104.4646441163
 20
79.5149567447
 11
104.4112229242
 21
80.1851033415
  0
LINE
  5
3EC
100
AcDbEntity
  8
0
100
AcDbLine
 62
7
  6
CONTINUOUS
 10
104.3141507766
 20
79.5149567447
 11
104.2608130963
 21
80.1846920338
  0
LINE
  5
3ED
100
AcDbEntity
  8
0
100
AcDbLine
 62
7
  6
CONTINUOUS
 10
104.2608130963
 20
80.1846920338
 11
104.2122912432
 21
80.8218336622
  0
LINE
  5
3EE
100
AcDbEntity
  8
0
100
AcDbLine
 62
7
  6
CONTINUOUS
 10
104.4112229242
 20
80.1851033415
 11
104.3626864789
 21
80.8218336622
  0
LINE
  5
3EF
100
AcDbEntity
  8
0
100
AcDbLine
 62
7
  6
CONTINUOUS
 10
104.3626864789
 20
80.8218336622
 11
104.3614857865
 21
80.8383774711
  0
LINE
  5
3F0
100
AcDbEntity
  8
0
100
AcDbLine
 62
7
  6
CONTINUOUS
 10
104.2122912432
 20
80.8218336622
 11
104.2110917208
 21
80.8383774711
  0
LINE
  5
3F1
100
AcDbEntity
  8
0
100
AcDbLine
 62
7
  6
CONTINUOUS
 10
104.1136302637
 20
82.2716697124
 11
104.1103844739
 21
82.3156989896
  0
LINE
  5
3F2
100
AcDbEntity
  8
0
100
AcDbLine
 62
7
  6
CONTINUOUS
 10
104.2639301644
 20
82.2716624854
 11
104.2606812923
 21
82.3156954809
  0
LINE
  5
3F3
100
AcDbEntity
  8
RACCORDO
100
AcDbLine
 62
253
  6
CONTINUOUS
 10
106.4937106232
 20
77.2973354882
 11
106.38706211
 21
78.802295984
  0
LINE
  5
3F4
100
AcDbEntity
  8
RACCORDO
100
AcDbLine
 62
253
  6
CONTINUOUS
 10
107.03601323
 20
69.8878631735
 11
106.4937106232
 21
77.2973354882
  0
LINE
  5
3F5
100
AcDbEntity
  8
RACCORDO
100
AcDbLine
 62
253
  6
CONTINUOUS
 10
106.7756770192
 20
77.2394574652
 11
106.6339677892
 21
79.2857265384
  0
LINE
  5
3F6
100
AcDbEntity
  8
RACCORDO
100
AcDbLine
 62
253
  6
CONTINUOUS
 10
107.3164742981
 20
69.7113112801
 11
106.7756770192
 21
77.2394574652
  0
LINE
  5
3F7
100
AcDbEntity
  8
RACCORDO
100
AcDbLine
 62
253
  6
CONTINUOUS
 10
106.38706211
 20
78.802295984
 11
106.3217307621
 21
79.7512536774
  0
LINE
  5
3F8
100
AcDbEntity
  8
0
100
AcDbLine
 62
7
  6
CONTINUOUS
 10
104.2107098708
 20
80.8444582534
 11
104.1136302637
 21
82.2716697124
  0
LWPOLYLINE
  5
3F9
100
AcDbEntity
  8
RACCORDO
100
AcDbPolyline
 62
253
  6
CONTINUOUS
 90
3
 70
0
 10
106.6339681375
 20
79.2857265354
 10
106.5751199975
 20
80.1701228801
 10
106.5471843961
 20
80.6128937979
  0
LINE
  5
3FA
100
AcDbEntity
  8
RACCORDO
100
AcDbLine
 62
253
  6
CONTINUOUS
 10
107.3620728414
 20
69.0198737662
 11
107.3164742981
 21
69.7113112801
  0
LINE
  5
3FB
100
AcDbEntity
  8
RACCORDO
100
AcDbLine
 62
253
  6
CONTINUOUS
 10
107.1024137141
 20
68.8859111129
 11
107.03601323
 21
69.8878631735
  0
LINE
  5
3FC
100
AcDbEntity
  8
0
100
AcDbLine
 62
7
  6
CONTINUOUS
 10
104.1356305726
 20
81.8638967234
 11
104.1084951987
 21
82.2818541443
  0
LINE
  5
3FD
100
AcDbEntity
  8
RACCORDO
100
AcDbLine
 62
253
  6
CONTINUOUS
 10
106.3217307621
 20
79.7512536774
 11
106.2647377
 21
80.6338661841
  0
LWPOLYLINE
  5
3FE
100
AcDbEntity
  8
0
100
AcDbPolyline
 62
7
  6
CONTINUOUS
 90
3
 70
0
 10
104.3614857865
 20
80.8383774711
 10
104.3612961795
 20
80.8414519488
 10
104.2639301644
 20
82.2716624854
  0
LINE
  5
3FF
100
AcDbEntity
  8
0
100
AcDbLine
 62
7
  6
CONTINUOUS
 10
104.2110917208
 20
80.8383774711
 11
104.2107098708
 21
80.8444582534
  0
LINE
  5
400
100
AcDbEntity
  8
RACCORDO
100
AcDbLine
 62
253
  6
CONTINUOUS
 10
107.1389880587
 20
68.282196285
 11
107.1024137141
 21
68.8859111129
  0
LINE
  5
401
100
AcDbEntity
  8
RACCORDO
100
AcDbLine
 62
253
  6
CONTINUOUS
 10
106.2647377
 20
80.6338661841
 11
106.2117231219
 21
81.5178726467
  0
LINE
  5
402
100
AcDbEntity
  8
RACCORDO
100
AcDbLine
 62
253
  6
CONTINUOUS
 10
106.2117231219
 20
81.5178726467
 11
106.1627114424
 21
82.4030070827
  0
LWPOLYLINE
  5
403
100
AcDbEntity
  8
RACCORDO
100
AcDbPolyline
 62
253
  6
CONTINUOUS
 90
13
 70
0
 10
104.6738896135
 20
84.6928473125
 10
104.7615813194
 20
83.0328792193
 10
104.8671111655
 20
81.3739502514
 10
104.9904669508
 20
79.7162522063
 10
105.1316344136
 20
78.0599767394
 10
105.2905972328
 20
76.4053153415
 10
105.4673370297
 20
74.752459317
 10
105.6618333646
 20
73.1015997612
 10
105.8740637566
 20
71.452927539
 10
106.1040036869
 20
69.8066332626
 10
106.3516265767
 20
68.1629072691
 10
106.616903791
 20
66.5219395982
 10
106.8998046597
 20
64.8839199711
  0
LINE
  5
404
100
AcDbEntity
  8
ASSI
100
AcDbLine
 62
7
  6
CONTINUOUS
 10
104.1350991508
 20
84.463711874
 11
104.1356269717
 21
84.4529346248
  0
LINE
  5
405
100
AcDbEntity
  8
RACCORDO
100
AcDbLine
 62
253
  6
CONTINUOUS
 10
104.635659412
 20
85.5129460524
 11
104.6738896135
 21
84.6928473125
  0
LINE
  5
406
100
AcDbEntity
  8
RACCORDO
100
AcDbLine
 62
253
  6
CONTINUOUS
 10
104.635661045
 20
85.5129461273
 11
104.634815976
 21
85.5334517193
  0
LINE
  5
407
100
AcDbEntity
  8
RACCORDO
100
AcDbLine
 62
253
  6
CONTINUOUS
 10
104.4854497656
 20
89.433768639
 11
104.5006519714
 21
89.0310753832
  0
LINE
  5
408
100
AcDbEntity
  8
RACCORDO
100
AcDbLine
 62
253
  6
CONTINUOUS
 10
104.6036388945
 20
86.5331987617
 11
104.6040983579
 21
86.5161854655
  0
LINE
  5
409
100
AcDbEntity
  8
RACCORDO
100
AcDbLine
 62
7
  6
CONTINUOUS
 10
104.6040983579
 20
86.5161854655
 11
104.6164762732
 21
86.1920327045
  0
LINE
  5
40A
100
AcDbEntity
  8
RACCORDO
100
AcDbLine
 62
7
  6
CONTINUOUS
 10
104.6164762732
 20
86.1920327045
 11
104.6240206603
 21
85.9660850605
  0
LINE
  5
40B
100
AcDbEntity
  8
RACCORDO
100
AcDbLine
 62
7
  6
CONTINUOUS
 10
104.6240206603
 20
85.9660850605
 11
104.6298727838
 21
85.7616083336
  0
LINE
  5
40C
100
AcDbEntity
  8
RACCORDO
100
AcDbLine
 62
253
  6
CONTINUOUS
 10
104.6298245302
 20
85.7764208511
 11
104.6298727838
 21
85.7616083336
  0
LINE
  5
40D
100
AcDbEntity
  8
RACCORDO
100
AcDbLine
 62
7
  6
CONTINUOUS
 10
104.6298727838
 20
85.7616083336
 11
104.632772278
 21
85.6399256253
  0
LINE
  5
40E
100
AcDbEntity
  8
RACCORDO
100
AcDbLine
 62
7
  6
CONTINUOUS
 10
104.632772278
 20
85.6399256253
 11
104.6348137904
 21
85.5335153963
  0
LINE
  5
40F
100
AcDbEntity
  8
RACCORDO
100
AcDbLine
 62
253
  6
CONTINUOUS
 10
104.6356607986
 20
85.4753058847
 11
104.6362984301
 21
85.4711595033
  0
LWPOLYLINE
  5
410
100
AcDbEntity
  8
RACCORDO
100
AcDbPolyline
 62
253
  6
CONTINUOUS
 90
4
 70
0
 10
104.6295254849
 20
85.1598754313
 10
104.6289227401
 20
85.2086436186
 10
104.6317198233
 20
85.2573328799
 10
104.635625465
 20
85.287887746
  0
LWPOLYLINE
  5
411
100
AcDbEntity
  8
RACCORDO
100
AcDbPolyline
 62
253
  6
CONTINUOUS
 90
10
 70
0
 10
104.3028652499
 20
84.6928472524
 10
104.3022977498
 20
84.7440338428
 10
104.305473397
 20
84.7951240969
 10
104.3123752032
 20
84.8458447051
 10
104.3229662469
 20
84.8959243354
 10
104.3371898709
 20
84.9450950848
 10
104.3549699853
 20
84.9930939123
 10
104.3762114746
 20
85.0396640461
 10
104.4008007066
 20
85.0845563575
 10
104.4286061403
 20
85.127530693
  0
LWPOLYLINE
  5
412
100
AcDbEntity
  8
RACCORDO
100
AcDbPolyline
 62
253
  6
CONTINUOUS
 90
6
 70
0
 10
104.1442990561
 20
104.1324571956
 10
104.1684691129
 20
101.8859590459
 10
104.2040204083
 20
99.5658916951
 10
104.2520653667
 20
97.1683978401
 10
104.3140400336
 20
94.6817873297
 10
104.3914035509
 20
92.1022331101
  0
LINE
  5
413
100
AcDbEntity
  8
RACCORDO
100
AcDbLine
 62
7
  6
CONTINUOUS
 10
104.634815976
 20
85.5334517193
 11
104.6359924364
 21
85.4456338625
  0
LINE
  5
414
100
AcDbEntity
  8
RACCORDO
100
AcDbLine
 62
7
  6
CONTINUOUS
 10
104.6359924364
 20
85.4456338625
 11
104.6363106374
 21
85.4048896508
  0
LINE
  5
415
100
AcDbEntity
  8
RACCORDO
100
AcDbLine
 62
253
  6
CONTINUOUS
 10
104.6363106374
 20
85.4048896508
 11
104.6373206405
 21
85.359555725
  0
LWPOLYLINE
  5
416
100
AcDbEntity
  8
RACCORDO
100
AcDbPolyline
 62
7
  6
CONTINUOUS
 90
10
 70
0
 10
104.1259320853
 20
108.3927580991
 10
104.1314517113
 20
106.0424719432
 10
104.1487739231
 20
103.6116395801
 10
104.1779046568
 20
101.1809232596
 10
104.2188431645
 20
98.750385132
 10
104.2715884187
 20
96.3200776608
 10
104.3361394318
 20
93.890050363
 10
104.4124947177
 20
91.4603603474
 10
104.5006519714
 20
89.0310753832
 10
104.6040983579
 20
86.5161854655
  0
LINE
  5
417
100
AcDbEntity
  8
RACCORDO
100
AcDbLine
 62
7
  6
CONTINUOUS
 10
104.636338198
 20
131.447721673
 11
104.6364160337
 21
131.4255785951
  0
LWPOLYLINE
  5
418
100
AcDbEntity
  8
RACCORDO
100
AcDbPolyline
 62
253
  6
CONTINUOUS
 90
12
 70
0
 10
104.6363857216
 20
85.3476800924
 10
104.6373625933
 20
85.3268889475
 10
104.637248689
 20
85.2969966737
 10
104.6369741574
 20
85.2699575401
 10
104.6365430783
 20
85.2456928661
 10
104.635962854
 20
85.2244232205
 10
104.6352291677
 20
85.2062319616
 10
104.6343457397
 20
85.1910356981
 10
104.633331921
 20
85.1788048763
 10
104.6321939858
 20
85.1695296391
 10
104.630925218
 20
85.1632198258
 10
104.6295254849
 20
85.1598754313
  0
LINE
  5
419
100
AcDbEntity
  8
RACCORDO
100
AcDbLine
 62
7
  6
CONTINUOUS
 10
104.6363106374
 20
85.4048896508
 11
104.6364203181
 21
85.3689148667
  0
LINE
  5
41A
100
AcDbEntity
  8
RACCORDO
100
AcDbLine
 62
7
  6
CONTINUOUS
 10
104.6364160337
 20
131.4255785951
 11
104.6363440032
 21
131.3871600643
  0
LINE
  5
41B
100
AcDbEntity
  8
RACCORDO
100
AcDbLine
 62
7
  6
CONTINUOUS
 10
104.6364203181
 20
85.3689148667
 11
104.6363390407
 21
85.3379367897
  0
LINE
  5
41C
100
AcDbEntity
  8
RACCORDO
100
AcDbLine
 62
253
  6
CONTINUOUS
 10
104.6373625932
 20
131.4586272498
 11
104.6364160337
 21
131.4255785951
  0
LINE
  5
41D
100
AcDbEntity
  8
RACCORDO
100
AcDbLine
 62
253
  6
CONTINUOUS
 10
104.1314802698
 20
110.7491173788
 11
104.1305226494
 21
110.4815651305
  0
LINE
  5
41E
100
AcDbEntity
  8
RACCORDO
100
AcDbLine
 62
7
  6
CONTINUOUS
 10
104.6363440032
 20
131.3871600643
 11
104.636020343
 21
131.3427442525
  0
LINE
  5
41F
100
AcDbEntity
  8
RACCORDO
100
AcDbLine
 62
253
  6
CONTINUOUS
 10
104.6371285152
 20
131.3909757397
 11
104.6363440032
 21
131.3871600643
  0
LWPOLYLINE
  5
420
100
AcDbEntity
  8
RACCORDO
100
AcDbPolyline
 62
253
  6
CONTINUOUS
 90
10
 70
0
 10
104.3028665047
 20
132.0926688862
 10
104.3022988845
 20
132.0414823446
 10
104.3054744048
 20
131.9903921304
 10
104.3123760782
 20
131.9396715521
 10
104.3229669838
 20
131.8895919412
 10
104.3371904654
 20
131.8404212002
 10
104.3549704339
 20
131.7924223695
 10
104.3762117748
 20
131.7458522203
 10
104.400800857
 20
131.7009598812
 10
104.4286061403
 20
131.6579855052
  0
LWPOLYLINE
  5
421
100
AcDbEntity
  8
RACCORDO
100
AcDbPolyline
 62
253
  6
CONTINUOUS
 90
4
 70
0
 10
104.6295232609
 20
131.6256408704
 10
104.6289206112
 20
131.57687221
 10
104.6317178353
 20
131.5281824672
 10
104.6356252006
 20
131.4976147289
  0
LINE
  5
422
100
AcDbEntity
  8
RACCORDO
100
AcDbLine
 62
253
  6
CONTINUOUS
 10
104.6367882568
 20
131.3538252183
 11
104.636020343
 21
131.3427442525
  0
LINE
  5
423
100
AcDbEntity
  8
RACCORDO
100
AcDbLine
 62
7
  6
CONTINUOUS
 10
104.636020343
 20
131.3427442525
 11
104.635172886
 21
131.2747114314
  0
LINE
  5
424
100
AcDbEntity
  8
RACCORDO
100
AcDbLine
 62
253
  6
CONTINUOUS
 10
104.6362984301
 20
131.3143566954
 11
104.635172886
 21
131.2747114314
  0
LINE
  5
425
100
AcDbEntity
  8
RACCORDO
100
AcDbLine
 62
7
  6
CONTINUOUS
 10
104.635172886
 20
131.2747114314
 11
104.6340011283
 21
131.2061509789
  0
LINE
  5
426
100
AcDbEntity
  8
RACCORDO
100
AcDbLine
 62
253
  6
CONTINUOUS
 10
104.634836906
 20
131.2257492295
 11
104.6340011283
 21
131.2061509789
  0
LINE
  5
427
100
AcDbEntity
  8
RACCORDO
100
AcDbLine
 62
7
  6
CONTINUOUS
 10
104.6340011283
 20
131.2061509789
 11
104.6315422045
 21
131.0912382838
  0
LINE
  5
428
100
AcDbEntity
  8
RACCORDO
100
AcDbLine
 62
7
  6
CONTINUOUS
 10
104.6315422045
 20
131.0912382838
 11
104.6263101781
 21
130.8951409181
  0
LINE
  5
429
100
AcDbEntity
  8
RACCORDO
100
AcDbLine
 62
253
  6
CONTINUOUS
 10
104.6281489466
 20
130.9481526769
 11
104.6263101781
 21
130.8951409181
  0
LINE
  5
42A
100
AcDbEntity
  8
RACCORDO
100
AcDbLine
 62
7
  6
CONTINUOUS
 10
104.6263101781
 20
130.8951409181
 11
104.6193236454
 21
130.6753627445
  0
LINE
  5
42B
100
AcDbEntity
  8
RACCORDO
100
AcDbLine
 62
253
  6
CONTINUOUS
 10
104.619844364
 20
130.6829573682
 11
104.6193236454
 21
130.6753627445
  0
LWPOLYLINE
  5
42C
100
AcDbEntity
  8
RACCORDO
100
AcDbPolyline
 62
253
  6
CONTINUOUS
 90
7
 70
0
 10
104.4125798034
 20
125.3276687692
 10
104.3912938812
 20
124.6799159183
 10
104.3139174489
 20
122.0992559603
 10
104.251946385
 20
119.6118140882
 10
104.2039189971
 20
117.2138746728
 10
104.1683979347
 20
114.8940815065
 10
104.1442618707
 20
112.6486886852
  0
LWPOLYLINE
  5
42D
100
AcDbEntity
  8
RACCORDO
100
AcDbPolyline
 62
7
  6
CONTINUOUS
 90
9
 70
0
 10
104.5007263163
 20
127.7563607116
 10
104.4125798034
 20
125.3276687692
 10
104.3362295045
 20
122.898572031
 10
104.2716777141
 20
120.4691379658
 10
104.2189259183
 20
118.0394236915
 10
104.1779751071
 20
115.6094789069
 10
104.1488263081
 20
113.1793561635
 10
104.1314802698
 20
110.7491173788
 10
104.1259320852
 20
108.3927580991
  0
LINE
  5
42E
100
AcDbEntity
  8
RACCORDO
100
AcDbLine
 62
7
  6
CONTINUOUS
 10
104.6193236454
 20
130.6753627445
 11
104.6075643673
 21
130.355736214
  0
LINE
  5
42F
100
AcDbEntity
  8
RACCORDO
100
AcDbLine
 62
253
  6
CONTINUOUS
 10
104.6093977028
 20
130.3966947636
 11
104.6075643673
 21
130.355736214
  0
LINE
  5
430
100
AcDbEntity
  8
RACCORDO
100
AcDbLine
 62
253
  6
CONTINUOUS
 10
104.5007263163
 20
127.7563607116
 11
104.4853786322
 21
127.3498714797
  0
LINE
  5
431
100
AcDbEntity
  8
RACCORDO
100
AcDbLine
 62
253
  6
CONTINUOUS
 10
104.6356598075
 20
131.2725701277
 11
104.6348148289
 21
131.2520640656
  0
LINE
  5
432
100
AcDbEntity
  8
RACCORDO
100
AcDbLine
 62
7
  6
CONTINUOUS
 10
104.6075643673
 20
130.355736214
 11
104.5007263163
 21
127.7563607116
  0
LINE
  5
433
100
AcDbEntity
  8
RACCORDO
100
AcDbLine
 62
253
  6
CONTINUOUS
 10
104.6738896135
 20
132.0926688857
 11
104.635659412
 21
131.2725701458
  0
LINE
  5
434
100
AcDbEntity
  8
ASSI
100
AcDbLine
 62
7
  6
CONTINUOUS
 10
104.1356269767
 20
132.3325816753
 11
104.1351010323
 21
132.3218427685
  0
LWPOLYLINE
  5
435
100
AcDbEntity
  8
RACCORDO
100
AcDbPolyline
 62
253
  6
CONTINUOUS
 90
13
 70
0
 10
104.6738896135
 20
132.0926688857
 10
104.7615813194
 20
133.7526369788
 10
104.8671111655
 20
135.4115659467
 10
104.9904669508
 20
137.0692639918
 10
105.1316344136
 20
138.7255394586
 10
105.2905972327
 20
140.3802008564
 10
105.4673370297
 20
142.0330568809
 10
105.6618333645
 20
143.6839164367
 10
105.8740637565
 20
145.3325886588
 10
106.1040036868
 20
146.9788829352
 10
106.3516265767
 20
148.6226089286
 10
106.6169037911
 20
150.2635765994
 10
106.8998046599
 20
151.9015962264
  0
LINE
  5
436
100
AcDbEntity
  8
RACCORDO
100
AcDbLine
 62
253
  6
CONTINUOUS
 10
106.1627115548
 20
134.3825112536
 11
106.2117232987
 21
135.2676466172
  0
LINE
  5
437
100
AcDbEntity
  8
RACCORDO
100
AcDbLine
 62
253
  6
CONTINUOUS
 10
106.2117232987
 20
135.2676466172
 11
106.2647378732
 21
136.1516527896
  0
LINE
  5
438
100
AcDbEntity
  8
RACCORDO
100
AcDbLine
 62
253
  6
CONTINUOUS
 10
107.1024301705
 20
147.8998656657
 11
107.1390023772
 21
148.5035681754
  0
LINE
  5
439
100
AcDbEntity
  8
RACCORDO
100
AcDbLine
 62
253
  6
CONTINUOUS
 10
106.5471842298
 20
136.1726197276
 11
106.6040483698
 21
137.0577969116
  0
LINE
  5
43A
100
AcDbEntity
  8
RACCORDO
100
AcDbLine
 62
253
  6
CONTINUOUS
 10
106.2647378732
 20
136.1516527896
 11
106.3217308459
 21
137.0342637566
  0
LINE
  5
43B
100
AcDbEntity
  8
RACCORDO
100
AcDbLine
 62
253
  6
CONTINUOUS
 10
107.0360320594
 20
146.8979265759
 11
107.1024301705
 21
147.8998656657
  0
LINE
  5
43C
100
AcDbEntity
  8
RACCORDO
100
AcDbLine
 62
253
  6
CONTINUOUS
 10
106.6040483698
 20
137.0577969116
 11
106.7401101598
 21
139.0392875979
  0
LINE
  5
43D
100
AcDbEntity
  8
RACCORDO
100
AcDbLine
 62
253
  6
CONTINUOUS
 10
107.2655015802
 20
146.3340358264
 11
107.3620850116
 21
147.7658322657
  0
LINE
  5
43E
100
AcDbEntity
  8
RACCORDO
100
AcDbLine
 62
253
  6
CONTINUOUS
 10
106.3217308459
 20
137.0342637566
 11
106.4225288549
 21
138.4882463514
  0
LINE
  5
43F
100
AcDbEntity
  8
RACCORDO
100
AcDbLine
 62
253
  6
CONTINUOUS
 10
106.7401101598
 20
139.0392875979
 11
106.8821625519
 21
141.0398664561
  0
LINE
  5
440
100
AcDbEntity
  8
RACCORDO
100
AcDbLine
 62
253
  6
CONTINUOUS
 10
106.4225288549
 20
138.4882463514
 11
106.5294499921
 21
139.9838508769
  0
LINE
  5
441
100
AcDbEntity
  8
RACCORDO
100
AcDbLine
 62
253
  6
CONTINUOUS
 10
106.8821625519
 20
141.0398664561
 11
107.2655015802
 21
146.3340358264
  0
LINE
  5
442
100
AcDbEntity
  8
RACCORDO
100
AcDbLine
 62
253
  6
CONTINUOUS
 10
106.8994593955
 20
144.991972947
 11
107.0360320594
 21
146.8979265759
  0
LINE
  5
443
100
AcDbEntity
  8
RACCORDO
100
AcDbLine
 62
253
  6
CONTINUOUS
 10
106.5294499921
 20
139.9838508769
 11
106.6706136506
 21
141.9100207653
  0
LINE
  5
444
100
AcDbEntity
  8
RACCORDO
100
AcDbLine
 62
253
  6
CONTINUOUS
 10
106.6706136506
 20
141.9100207653
 11
106.8994593955
 21
144.991972947
  0
LINE
  5
445
100
AcDbEntity
  8
RACCORDO
100
AcDbLine
 62
253
  6
CONTINUOUS
 10
104.5973936676
 20
130.1040839713
 11
104.5971632601
 21
130.1040600471
  0
LWPOLYLINE
  5
446
100
AcDbEntity
  8
RACCORDO
100
AcDbPolyline
 62
7
  6
CONTINUOUS
 90
7
 70
0
 10
104.6350299769
 20
131.5143056826
 10
104.6350229051
 20
131.5144197949
 10
104.6350480239
 20
131.5139584967
 10
104.6351229609
 20
131.5124209589
 10
104.6352367847
 20
131.5097495824
 10
104.6353690315
 20
131.506180745
 10
104.6355116504
 20
131.5017372336
  0
LINE
  5
447
100
AcDbEntity
  8
RACCORDO
100
AcDbLine
 62
253
  6
CONTINUOUS
 10
107.4016457168
 20
68.3799296848
 11
107.3620728414
 21
69.0198737662
  0
LINE
  5
448
100
AcDbEntity
  8
RACCORDO
100
AcDbLine
 62
253
  6
CONTINUOUS
 10
106.5471843961
 20
80.6128937979
 11
106.4942852435
 21
81.4994762025
  0
LINE
  5
449
100
AcDbEntity
  8
RACCORDO
100
AcDbLine
 62
253
  6
CONTINUOUS
 10
107.4347906904
 20
67.7937471938
 11
107.4016457168
 21
68.3799296848
  0
LINE
  5
44A
100
AcDbEntity
  8
RACCORDO
100
AcDbLine
 62
253
  6
CONTINUOUS
 10
106.4942852435
 20
81.4994762025
 11
106.4453797766
 21
82.3872461418
  0
LINE
  5
44B
100
AcDbEntity
  8
RACCORDO
100
AcDbLine
 62
253
  6
CONTINUOUS
 10
106.1627114424
 20
82.4030070827
 11
106.1102276698
 21
83.4451093322
  0
LINE
  5
44C
100
AcDbEntity
  8
RACCORDO
100
AcDbLine
 62
253
  6
CONTINUOUS
 10
106.4453797766
 20
82.3872461418
 11
106.3930072308
 21
83.4318206862
  0
LINE
  5
44D
100
AcDbEntity
  8
RACCORDO
100
AcDbLine
 62
253
  6
CONTINUOUS
 10
106.1102276698
 20
83.4451093322
 11
106.0750712598
 21
84.2248808028
  0
LINE
  5
44E
100
AcDbEntity
  8
RACCORDO
100
AcDbLine
 62
253
  6
CONTINUOUS
 10
106.3930072308
 20
83.4318206862
 11
106.3579266646
 21
84.211009544
  0
LINE
  5
44F
100
AcDbEntity
  8
RACCORDO
100
AcDbLine
 62
253
  6
CONTINUOUS
 10
106.0750712598
 20
84.2248808028
 11
106.0557885066
 21
84.6928693125
  0
LINE
  5
450
100
AcDbEntity
  8
RACCORDO
100
AcDbLine
 62
253
  6
CONTINUOUS
 10
106.3579266646
 20
84.211009544
 11
106.3386865915
 21
84.6786285242
  0
LWPOLYLINE
  5
451
100
AcDbEntity
  8
RACCORDO
100
AcDbPolyline
 62
253
  6
CONTINUOUS
 90
15
 70
0
 10
106.0557884721
 20
84.6928693125
 10
105.9389020295
 20
87.846106303
 10
105.8387578262
 20
91.0016877518
 10
105.7553241817
 20
94.159488886
 10
105.6885739188
 20
97.3195823113
 10
105.6385035051
 20
100.4816447501
 10
105.6051206528
 20
103.6449568076
 10
105.5884226664
 20
106.8098156126
 10
105.5884225905
 20
109.9756709818
 10
105.6051204359
 20
113.1405319913
 10
105.6385032091
 20
116.3038496484
 10
105.6885736527
 20
119.4659198894
 10
105.755324002
 20
122.6260197455
 10
105.8387577244
 20
125.7838247481
 10
105.9389019952
 20
128.9394086946
  0
LWPOLYLINE
  5
452
100
AcDbEntity
  8
RACCORDO
100
AcDbPolyline
 62
253
  6
CONTINUOUS
 90
15
 70
0
 10
106.3386865915
 20
84.6786285242
 10
106.2219032242
 20
87.8331955331
 10
106.1218060294
 20
90.9908009781
 10
106.0383950068
 20
94.150970448
 10
105.9716723694
 20
97.3130760679
 10
105.9216359043
 20
100.4767958971
 10
105.8882789733
 20
103.6421147003
 10
105.8715993461
 20
106.8089837812
 10
105.871599253
 20
109.9765014062
 10
105.8882787461
 20
113.1433726967
 10
105.9216356398
 20
116.3086970552
 10
105.9716721196
 20
119.4724246422
 10
106.0383947938
 20
122.6345368058
 10
106.1218058653
 20
125.7947104688
 10
106.2219031311
 20
128.9523188946
  0
LINE
  5
453
100
AcDbEntity
  8
RACCORDO
100
AcDbLine
 62
7
  6
CONTINUOUS
 10
104.6355116504
 20
131.5017372336
 11
104.6358035818
 21
131.4902055891
  0
LINE
  5
454
100
AcDbEntity
  8
RACCORDO
100
AcDbLine
 62
7
  6
CONTINUOUS
 10
104.6358035818
 20
131.4902055891
 11
104.6360643491
 21
131.475502768
  0
LWPOLYLINE
  5
455
100
AcDbEntity
  8
RACCORDO
100
AcDbPolyline
 62
7
  6
CONTINUOUS
 90
3
 70
0
 10
104.6360643491
 20
131.475502768
 10
104.6362658771
 20
131.4577406875
 10
104.636338198
 20
131.447721673
  0
LINE
  5
456
100
AcDbEntity
  8
RACCORDO
100
AcDbLine
 62
7
  6
CONTINUOUS
 10
104.6363390407
 20
85.3379367897
 11
104.6361928478
 21
85.3202236428
  0
LINE
  5
457
100
AcDbEntity
  8
RACCORDO
100
AcDbLine
 62
7
  6
CONTINUOUS
 10
104.6361928478
 20
85.3202236428
 11
104.6359866698
 21
85.3049992676
  0
LINE
  5
458
100
AcDbEntity
  8
RACCORDO
100
AcDbLine
 62
7
  6
CONTINUOUS
 10
104.6359866698
 20
85.3049992676
 11
104.6357371691
 21
85.2923388546
  0
LWPOLYLINE
  5
459
100
AcDbEntity
  8
RACCORDO
100
AcDbPolyline
 62
7
  6
CONTINUOUS
 90
4
 70
0
 10
104.6357371691
 20
85.2923388546
 10
104.6354681841
 20
85.2823545528
 10
104.6353391361
 20
85.2784844365
 10
104.6352206432
 20
85.2753651162
  0
LINE
  5
45A
100
AcDbEntity
  8
RACCORDO
100
AcDbLine
 62
253
  6
CONTINUOUS
 10
105.9389019952
 20
128.9394086946
 11
106.068492769
 21
132.4046500984
  0
LINE
  5
45B
100
AcDbEntity
  8
RACCORDO
100
AcDbLine
 62
253
  6
CONTINUOUS
 10
106.2219031311
 20
128.9523188946
 11
106.3513626148
 21
132.4186422415
  0
LWPOLYLINE
  5
45C
100
AcDbEntity
  8
RACCORDO
100
AcDbPolyline
 62
253
  6
CONTINUOUS
 90
14
 70
0
 10
107.4609399504
 20
149.522372109
 10
107.4712300168
 20
149.7661176687
 10
107.4796023721
 20
149.9952796115
 10
107.4860680722
 20
150.2096545524
 10
107.4904998969
 20
150.409060098
 10
107.4928850875
 20
150.5933171992
 10
107.4932364027
 20
150.7622870559
 10
107.4914648987
 20
150.9158595095
 10
107.4875624995
 20
151.0538630522
 10
107.4815372812
 20
151.1762322329
 10
107.4733245283
 20
151.2829764986
 10
107.4629026692
 20
151.3739884623
 10
107.4502932755
 20
151.4491029392
 10
107.4354963474
 20
151.5082124363
  0
LINE
  5
45D
100
AcDbEntity
  8
RACCORDO
100
AcDbLine
 62
7
  6
CONTINUOUS
 10
104.635189868
 20
85.274630291
 11
104.6351525285
 21
85.2737553514
  0
LWPOLYLINE
  5
45E
100
AcDbEntity
  8
RACCORDO
100
AcDbPolyline
 62
253
  6
CONTINUOUS
 90
14
 70
0
 10
107.1810293698
 20
149.3073284454
 10
107.1913875265
 20
149.5471671005
 10
107.1998262432
 20
149.7726193321
 10
107.2063125745
 20
149.9837294678
 10
107.2107976184
 20
150.1799405301
 10
107.2132351387
 20
150.3612100451
 10
107.2135988511
 20
150.527598297
 10
107.2118637448
 20
150.6787021814
 10
107.2079979243
 20
150.8144805865
 10
107.2019765591
 20
150.9349890205
 10
107.1937823768
 20
151.0399685997
 10
107.1833959718
 20
151.1293364656
 10
107.1708002436
 20
151.2031856485
 10
107.1559846294
 20
151.26152004
  0
LINE
  5
45F
100
AcDbEntity
  8
RACCORDO
100
AcDbLine
 62
253
  6
CONTINUOUS
 10
106.068492769
 20
132.4046500984
 11
106.1028943768
 21
133.1844701388
  0
LINE
  5
460
100
AcDbEntity
  8
RACCORDO
100
AcDbLine
 62
253
  6
CONTINUOUS
 10
106.3513626148
 20
132.4186422415
 11
106.3856897932
 21
133.1978771289
  0
LINE
  5
461
100
AcDbEntity
  8
RACCORDO
100
AcDbLine
 62
253
  6
CONTINUOUS
 10
106.3856897932
 20
133.1978771289
 11
106.4224277036
 21
133.9540005419
  0
LWPOLYLINE
  5
462
100
AcDbEntity
  8
RACCORDO
100
AcDbPolyline
 62
253
  6
CONTINUOUS
 90
3
 70
0
 10
106.1028943768
 20
133.1844701388
 10
106.1397100619
 20
133.9395537678
 10
106.1627115548
 20
134.3825112536
  0
LINE
  5
463
100
AcDbEntity
  8
RACCORDO
100
AcDbLine
 62
253
  6
CONTINUOUS
 10
107.4348002396
 20
148.9919486082
 11
107.4609399504
 21
149.522372109
  0
LINE
  5
464
100
AcDbEntity
  8
RACCORDO
100
AcDbLine
 62
253
  6
CONTINUOUS
 10
106.4224277036
 20
133.9540005419
 11
106.4693313183
 21
134.8422865475
  0
LWPOLYLINE
  5
465
100
AcDbEntity
  8
RACCORDO
100
AcDbPolyline
 62
253
  6
CONTINUOUS
 90
3
 70
0
 10
107.1390023772
 20
148.5035681754
 10
107.1547823376
 20
148.785224353
 10
107.1810293698
 20
149.3073284454
  0
LINE
  5
466
100
AcDbEntity
  8
RACCORDO
100
AcDbLine
 62
253
  6
CONTINUOUS
 10
107.4016567695
 20
148.4057724276
 11
107.4348002396
 21
148.9919486082
  0
LWPOLYLINE
  5
467
100
AcDbEntity
  8
RACCORDO
100
AcDbPolyline
 62
253
  6
CONTINUOUS
 90
3
 70
0
 10
106.4693313183
 20
134.8422865475
 10
106.520238411
 20
135.7294916858
 10
106.5471842298
 20
136.1726197276
  0
LINE
  5
468
100
AcDbEntity
  8
RACCORDO
100
AcDbLine
 62
253
  6
CONTINUOUS
 10
107.3620850116
 20
147.7658322657
 11
107.4016567695
 21
148.4057724276
  0
LWPOLYLINE
  5
469
100
AcDbEntity
  8
0
100
AcDbPolyline
 62
253
  6
CONTINUOUS
 90
3
 70
0
 10
112.6240555569
 20
133.341552623
 10
112.4989885213
 20
133.335016095
 10
112.3689697614
 20
133.3288359487
  0
LINE
  5
46A
100
AcDbEntity
  8
DRAFT
100
AcDbLine
 62
7
  6
CONTINUOUS
 10
109.8240555569
 20
63.3927580991
 11
109.8240555569
 21
153.3927580991
  0
LINE
  5
46B
100
AcDbEntity
  8
DRAFT
100
AcDbLine
 62
7
  6
CONTINUOUS
 10
110.6240555569
 20
104.8927580991
 11
110.6240555569
 21
111.8927580991
  0
LINE
  5
46C
100
AcDbEntity
  8
0
100
AcDbLine
 62
253
  6
CONTINUOUS
 10
112.6240555569
 20
133.5204604481
 11
112.3692031361
 21
133.5091917771
  0
LINE
  5
46D
100
AcDbEntity
  8
0
100
AcDbLine
 62
253
  6
CONTINUOUS
 10
112.3689697614
 20
133.3288359487
 11
112.0949858063
 21
133.3176216626
  0
LINE
  5
46E
100
AcDbEntity
  8
0
100
AcDbLine
 62
253
  6
CONTINUOUS
 10
112.3692031361
 20
133.5091917771
 11
112.0954305249
 21
133.4992573151
  0
LINE
  5
46F
100
AcDbEntity
  8
0
100
AcDbLine
 62
253
  6
CONTINUOUS
 10
112.0949858063
 20
133.3176216626
 11
111.8040585559
 21
133.3080669531
  0
LINE
  5
470
100
AcDbEntity
  8
0
100
AcDbLine
 62
253
  6
CONTINUOUS
 10
112.0954305249
 20
133.4992573151
 11
111.8046743608
 21
133.4907985375
  0
LINE
  5
471
100
AcDbEntity
  8
0
100
AcDbLine
 62
253
  6
CONTINUOUS
 10
111.8040585559
 20
133.3080669531
 11
111.4985137469
 21
133.3003247459
  0
LINE
  5
472
100
AcDbEntity
  8
0
100
AcDbLine
 62
253
  6
CONTINUOUS
 10
111.8046743608
 20
133.4907985375
 11
111.4992225419
 21
133.4839529516
  0
LINE
  5
473
100
AcDbEntity
  8
0
100
AcDbLine
 62
253
  6
CONTINUOUS
 10
111.4985137469
 20
133.3003247459
 11
111.1803234035
 21
133.2945266193
  0
LINE
  5
474
100
AcDbEntity
  8
0
100
AcDbLine
 62
253
  6
CONTINUOUS
 10
111.4992225419
 20
133.4839529516
 11
111.1810485276
 21
133.4788404607
  0
LINE
  5
475
100
AcDbEntity
  8
0
100
AcDbLine
 62
253
  6
CONTINUOUS
 10
111.1803234035
 20
133.2945266193
 11
110.8516379424
 21
133.2907783998
  0
LINE
  5
476
100
AcDbEntity
  8
0
100
AcDbLine
 62
253
  6
CONTINUOUS
 10
111.1810485276
 20
133.4788404607
 11
110.8522963772
 21
133.4755575682
  0
LINE
  5
477
100
AcDbEntity
  8
RACCORDO
100
AcDbLine
 62
253
  6
CONTINUOUS
 10
109.8240555569
 20
133.5275500837
 11
106.4004753941
 21
133.5095059765
  0
LINE
  5
478
100
AcDbEntity
  8
0
100
AcDbLine
 62
253
  6
CONTINUOUS
 10
110.8516379424
 20
133.2907783998
 11
110.5149747332
 21
133.2891569124
  0
LINE
  5
479
100
AcDbEntity
  8
0
100
AcDbLine
 62
253
  6
CONTINUOUS
 10
110.8522963772
 20
133.4755575682
 11
110.5154518301
 21
133.4741747081
  0
LINE
  5
47A
100
AcDbEntity
  8
RACCORDO
100
AcDbLine
 62
253
  6
CONTINUOUS
 10
104.3028665156
 20
132.0926688857
 11
106.0557885037
 21
132.0926468124
  0
LINE
  5
47B
100
AcDbEntity
  8
0
100
AcDbLine
 62
253
  6
CONTINUOUS
 10
110.5154518301
 20
133.4741747081
 11
110.1720446908
 21
133.4747401479
  0
LINE
  5
47C
100
AcDbEntity
  8
0
100
AcDbLine
 62
253
  6
CONTINUOUS
 10
110.5149747332
 20
133.2891569124
 11
110.1717966671
 21
133.2897137448
  0
LINE
  5
47D
100
AcDbEntity
  8
0
100
AcDbLine
 62
253
  6
CONTINUOUS
 10
110.1720446908
 20
133.4747401479
 11
109.8240555569
 21
133.4772804997
  0
LINE
  5
47E
100
AcDbEntity
  8
0
100
AcDbLine
 62
253
  6
CONTINUOUS
 10
110.1717966671
 20
133.2897137448
 11
109.8240555569
 21
133.292478052
  0
LWPOLYLINE
  5
47F
100
AcDbEntity
  8
RACCORDO
100
AcDbPolyline
 62
253
  6
CONTINUOUS
 90
11
 70
0
 10
104.6295254849
 20
131.6256407669
 10
104.6309252183
 20
131.6222963786
 10
104.6321939863
 20
131.6159865688
 10
104.6333319215
 20
131.6067113323
 10
104.63434574
 20
131.5944805068
 10
104.6352291677
 20
131.579284237
 10
104.6359628537
 20
131.5610929737
 10
104.6365430781
 20
131.5398233276
 10
104.6369741573
 20
131.515558655
 10
104.637248689
 20
131.4885195228
 10
104.6373625932
 20
131.4586272498
  0
LINE
  5
480
100
AcDbEntity
  8
0
100
AcDbLine
 62
7
  6
CONTINUOUS
 10
112.6240555569
 20
65.2427581187
 11
112.6240555569
 21
83.4439635751
  0
LINE
  5
481
100
AcDbEntity
  8
DRAFT
100
AcDbLine
 62
7
  6
CONTINUOUS
 10
112.6240555569
 20
83.4439635751
 11
112.6240555569
 21
104.5401041377
  0
LINE
  5
482
100
AcDbEntity
  8
DRAFT
100
AcDbLine
 62
7
  6
CONTINUOUS
 10
112.6240555569
 20
112.2454120605
 11
112.6240555569
 21
133.3415526232
  0
LINE
  5
483
100
AcDbEntity
  8
0
100
AcDbLine
 62
7
  6
CONTINUOUS
 10
112.6240555569
 20
133.3415526232
 11
112.6240555569
 21
151.5427580769
  0
LINE
  5
484
100
AcDbEntity
  8
RACCORDO
100
AcDbLine
 62
253
  6
CONTINUOUS
 10
104.6295254849
 20
85.1598754313
 11
104.1356269353
 21
84.4529353673
  0
LINE
  5
485
100
AcDbEntity
  8
RACCORDO
100
AcDbLine
 62
7
  6
CONTINUOUS
 10
104.6361812617
 20
85.423978689
 11
104.2613781305
 21
84.8887043442
  0
LINE
  5
486
100
AcDbEntity
  8
RACCORDO
100
AcDbLine
 62
253
  6
CONTINUOUS
 10
109.8240555569
 20
137.5275500837
 11
106.6339687929
 21
137.499804348
  0
LINE
  5
487
100
AcDbEntity
  8
RACCORDO
100
AcDbLine
 62
7
  6
CONTINUOUS
 10
104.2613782742
 20
131.8968116488
 11
104.636181599
 21
131.3615370275
  0
LINE
  5
488
100
AcDbEntity
  8
RACCORDO
100
AcDbLine
 62
253
  6
CONTINUOUS
 10
104.1356269256
 20
132.3325806345
 11
104.6295254849
 21
131.6256407669
  0
LWPOLYLINE
  5
489
100
AcDbEntity
  8
RACCORDO
100
AcDbPolyline
 62
253
  6
CONTINUOUS
 90
15
 70
0
 10
107.4354966862
 20
65.2773051372
 10
107.4502948982
 20
65.3364210629
 10
107.4629051745
 20
65.4115455743
 10
107.4733275151
 20
65.5025715741
 10
107.4815403515
 20
65.6093358685
 10
107.4875652522
 20
65.7317302698
 10
107.4914669221
 20
65.8697584634
 10
107.4932371178
 20
66.0233502575
 10
107.4928840826
 20
66.1923351481
 10
107.4904972518
 20
66.3766046874
 10
107.4860640198
 20
66.5760193615
 10
107.4795969921
 20
66.7903993845
 10
107.4712234201
 20
67.0195655672
 10
107.4609322646
 20
67.2633158966
 10
107.4347906904
 20
67.7937471938
  0
LWPOLYLINE
  5
48A
100
AcDbEntity
  8
RACCORDO
100
AcDbPolyline
 62
253
  6
CONTINUOUS
 90
16
 70
0
 10
107.1559846294
 20
65.5239961582
 10
107.1708026881
 20
65.5823452305
 10
107.1834000938
 20
65.6562120137
 10
107.1937873803
 20
65.7456004009
 10
107.2019814387
 20
65.8506052154
 10
107.2080018409
 20
65.9711418103
 10
107.211866358
 20
66.106945931
 10
107.213599719
 20
66.2580715174
 10
107.2132337836
 20
66.4244790254
 10
107.210794151
 20
66.6057646798
 10
107.206307265
 20
66.8019877136
 10
107.1998191313
 20
67.0131067009
 10
107.1913787206
 20
67.2385671429
 10
107.1810190246
 20
67.4784141281
 10
107.1687924381
 20
67.7326227235
 10
107.1389880587
 20
68.282196285
  0
LWPOLYLINE
  5
48B
100
AcDbEntity
  8
RACCORDO
100
AcDbPolyline
 62
253
  6
CONTINUOUS
 90
3
 70
0
 10
106.5488815183
 20
63.7946092845
 10
106.8118879328
 20
64.6130211327
 10
106.8998046722
 20
64.8839199012
  0
LWPOLYLINE
  5
48C
100
AcDbEntity
  8
RACCORDO
100
AcDbPolyline
 62
253
  6
CONTINUOUS
 90
3
 70
0
 10
106.8280931144
 20
63.5497698375
 10
107.0915578872
 20
64.3670251594
 10
107.1793585968
 20
64.6373493453
  0
LWPOLYLINE
  5
48D
100
AcDbEntity
  8
RACCORDO
100
AcDbPolyline
 62
253
  6
CONTINUOUS
 90
10
 70
0
 10
106.8998046597
 20
64.8839199711
 10
106.9091927476
 20
64.9117639393
 10
106.9193100755
 20
64.9399239736
 10
106.9301565392
 20
64.9684001043
 10
106.9417319957
 20
64.9971925332
 10
106.9540363816
 20
65.0263011197
 10
106.9670697174
 20
65.0557253809
 10
106.9808319471
 20
65.0854651766
 10
106.9953229354
 20
65.1155207098
 10
107.010542588
 20
65.1458920122
  0
LWPOLYLINE
  5
48E
100
AcDbEntity
  8
RACCORDO
100
AcDbPolyline
 62
253
  6
CONTINUOUS
 90
10
 70
0
 10
107.1793585968
 20
64.6373493453
 10
107.1887464838
 20
64.6651483384
 10
107.1988629454
 20
64.6932631703
 10
107.2097079816
 20
64.7216937187
 10
107.2212816509
 20
64.750439872
 10
107.2335838949
 20
64.7795014977
 10
107.2466145377
 20
64.8088784406
 10
107.2603735208
 20
64.8385705656
 10
107.2748609028
 20
64.8685777596
 10
107.2900766836
 20
64.8988998989
  0
LWPOLYLINE
  5
48F
100
AcDbEntity
  8
0
100
AcDbPolyline
 62
253
  6
CONTINUOUS
 90
19
 70
0
 10
112.6240555569
 20
137.2217260612
 10
112.5015889038
 20
137.2362141116
 10
112.3740736867
 20
137.2501242786
 10
112.2417100815
 20
137.2634255354
 10
112.1047226274
 20
137.276084666
 10
111.9632909349
 20
137.2880728965
 10
111.8175603446
 20
137.2993663788
 10
111.6677411701
 20
137.3099380071
 10
111.5140959683
 20
137.3197569197
 10
111.3568633439
 20
137.3287941262
 10
111.1963113832
 20
137.3370207438
 10
111.0326876171
 20
137.3444164578
 10
110.8661986069
 20
137.3509638772
 10
110.6970512347
 20
137.3566439569
 10
110.5255903491
 20
137.3614327642
 10
110.352242193
 20
137.3653116323
 10
110.1773563518
 20
137.3682717407
 10
110.0011922132
 20
137.3703063299
 10
109.8240555569
 20
137.3714074781
  0
LWPOLYLINE
  5
490
100
AcDbEntity
  8
0
100
AcDbPolyline
 62
253
  6
CONTINUOUS
 90
19
 70
0
 10
112.6240555569
 20
137.2896520037
 10
112.5016290454
 20
137.3046399534
 10
112.3741524877
 20
137.3190325331
 10
112.2418255413
 20
137.3327976865
 10
112.1048729538
 20
137.3459010231
 10
111.9634731862
 20
137.3583128854
 10
111.8177689603
 20
137.3700088095
 10
111.6679695744
 20
137.3809607904
 10
111.5143379129
 20
137.3911368291
 10
111.3571119731
 20
137.4005069324
 10
111.1965601393
 20
137.4090411518
 10
111.0329295016
 20
137.4167184476
 10
110.8664248652
 20
137.4235208572
 10
110.6972511998
 20
137.4294286682
 10
110.5257555988
 20
137.4344169271
 10
110.3523690009
 20
137.4384661052
 10
110.1774430721
 20
137.4415670213
 10
110.0012364323
 20
137.4437127066
 10
109.8240555569
 20
137.4448949425
  0
LWPOLYLINE
  5
491
100
AcDbEntity
  8
RACCORDO
100
AcDbPolyline
 62
253
  6
CONTINUOUS
 90
10
 70
0
 10
107.1559846294
 20
151.26152004
 10
107.1388427541
 20
151.314623134
 10
107.1219501
 20
151.3649531631
 10
107.1053048016
 20
151.4125106009
 10
107.088905108
 20
151.4572970083
 10
107.0727495181
 20
151.4993116973
 10
107.0568367064
 20
151.5385517319
 10
107.041165377
 20
151.5750163743
 10
107.0257343386
 20
151.6087070848
 10
107.010542588
 20
151.639624186
  0
LWPOLYLINE
  5
492
100
AcDbEntity
  8
RACCORDO
100
AcDbPolyline
 62
253
  6
CONTINUOUS
 90
10
 70
0
 10
107.4354956653
 20
151.508212401
 10
107.4183586345
 20
151.5613507555
 10
107.4014674161
 20
151.6117188483
 10
107.3848220098
 20
151.6593151625
 10
107.3684237108
 20
151.7041378402
 10
107.3522712241
 20
151.74618597
 10
107.3363606647
 20
151.7854592862
 10
107.3206907376
 20
151.821956593
 10
107.3052627378
 20
151.8556760653
 10
107.2900766653
 20
151.8866163248
  0
LINE
  5
493
100
AcDbEntity
  8
RACCORDO
100
AcDbLine
 62
253
  6
CONTINUOUS
 10
106.8998046724
 20
151.9015962966
 11
106.6247606024
 21
152.7532775695
  0
LWPOLYLINE
  5
494
100
AcDbEntity
  8
RACCORDO
100
AcDbPolyline
 62
253
  6
CONTINUOUS
 90
3
 70
0
 10
107.1793585968
 20
152.1481668529
 10
106.8668387889
 20
153.1147133357
 10
106.8280931144
 20
153.2357463607
  0
LINE
  5
495
100
AcDbEntity
  8
RACCORDO
100
AcDbLine
 62
253
  6
CONTINUOUS
 10
106.6247606024
 20
152.7532775695
 11
106.5488815183
 21
152.9909069137
  0
LWPOLYLINE
  5
496
100
AcDbEntity
  8
RACCORDO
100
AcDbPolyline
 62
253
  6
CONTINUOUS
 90
10
 70
0
 10
107.010542588
 20
65.1458920122
 10
107.025734415
 20
65.1768093005
 10
107.0411655159
 20
65.2105001593
 10
107.0568368912
 20
65.2469649111
 10
107.0727497273
 20
65.2862050266
 10
107.0889053193
 20
65.3282197576
 10
107.1053049953
 20
65.3730061366
 10
107.1219502555
 20
65.4205634651
 10
107.138842846
 20
65.4708933144
 10
107.1559846294
 20
65.5239961582
  0
LWPOLYLINE
  5
497
100
AcDbEntity
  8
RACCORDO
100
AcDbPolyline
 62
253
  6
CONTINUOUS
 90
10
 70
0
 10
107.010542588
 20
151.639624186
 10
106.9953229329
 20
151.6699954935
 10
106.9808319428
 20
151.7000510306
 10
106.967069712
 20
151.7297908292
 10
106.9540363757
 20
151.7592150923
 10
106.9417319896
 20
151.7883236796
 10
106.9301565338
 20
151.8171161075
 10
106.9193100716
 20
151.8455922353
 10
106.9091927455
 20
151.8737522649
 10
106.8998046599
 20
151.9015962264
  0
LWPOLYLINE
  5
498
100
AcDbEntity
  8
RACCORDO
100
AcDbPolyline
 62
253
  6
CONTINUOUS
 90
10
 70
0
 10
107.2900766787
 20
64.8988998991
 10
107.3052627822
 20
64.9298402246
 10
107.3206908055
 20
64.9635597565
 10
107.3363607486
 20
65.0000571127
 10
107.3522713018
 20
65.0393304272
 10
107.3684237748
 20
65.0813785316
 10
107.3848220971
 20
65.1262012808
 10
107.4014675787
 20
65.1737978255
 10
107.4183589095
 20
65.2241662874
 10
107.4354960898
 20
65.277305168
  0
LINE
  5
499
100
AcDbEntity
  8
RACCORDO
100
AcDbLine
 62
253
  6
CONTINUOUS
 10
109.8240555569
 20
152.0192190717
 11
107.2900766714
 21
151.8866163251
  0
LINE
  5
49A
100
AcDbEntity
  8
RACCORDO
100
AcDbLine
 62
253
  6
CONTINUOUS
 10
109.8240555569
 20
151.6327580991
 11
107.4354956653
 21
151.508212401
  0
LINE
  5
49B
100
AcDbEntity
  8
0
100
AcDbLine
 62
7
  6
CONTINUOUS
 10
112.6240555569
 20
150.3927580991
 11
112.602239193
 21
150.3927580991
  0
LWPOLYLINE
  5
49C
100
AcDbEntity
  8
RACCORDO
100
AcDbPolyline
 62
253
  6
CONTINUOUS
 90
10
 70
0
 10
107.2900766714
 20
151.8866163251
 10
107.2748608923
 20
151.9169384608
 10
107.2603735117
 20
151.9469456522
 10
107.2466145297
 20
151.9766377753
 10
107.2335838874
 20
152.0060147178
 10
107.2212816437
 20
152.0350763438
 10
107.2097079751
 20
152.0638224958
 10
107.1988629406
 20
152.0922530404
 10
107.1887464811
 20
152.1203678668
 10
107.1793585968
 20
152.1481668529
  0
LINE
  5
49D
100
AcDbEntity
  8
DRAFT
100
AcDbLine
 62
7
  6
CONTINUOUS
 10
109.8240555569
 20
153.3927580991
 11
106.8420671
 21
153.2364787062
  0
LWPOLYLINE
  5
49E
100
AcDbEntity
  8
0
100
AcDbPolyline
 62
253
  6
CONTINUOUS
 90
19
 70
0
 10
109.8240555569
 20
151.5199620146
 10
109.9902725346
 20
151.5168645366
 10
110.1545123393
 20
151.5060706158
 10
110.3169836525
 20
151.4876106198
 10
110.477286505
 20
151.4616309158
 10
110.6362631043
 20
151.428105895
 10
110.7958876433
 20
151.3864600462
 10
110.9575546137
 20
151.3357838611
 10
111.1199807333
 20
151.2759077204
 10
111.2810811617
 20
151.2073133861
 10
111.4404232855
 20
151.1301054913
 10
111.5984390646
 20
151.0438359938
 10
111.7544125039
 20
150.9486010436
 10
111.9083886916
 20
150.8441044991
 10
112.0600024709
 20
150.7303179306
 10
112.207841909
 20
150.6081134708
 10
112.351171323
 20
150.4780244919
 10
112.4900162693
 20
150.3399527523
 10
112.6240555569
 20
150.1940986793
  0
LWPOLYLINE
  5
49F
100
AcDbEntity
  8
0
100
AcDbPolyline
 62
253
  6
CONTINUOUS
 90
19
 70
0
 10
109.8240555569
 20
151.4964182283
 10
109.990327466
 20
151.4930159857
 10
110.1546922579
 20
151.4819471232
 10
110.3173409307
 20
151.4632390426
 10
110.4778721979
 20
151.4370326679
 10
110.637093106
 20
151.4033001937
 10
110.796912575
 20
151.361480534
 10
110.9586688039
 20
151.3106942613
 10
111.1211061592
 20
151.2507808646
 10
111.2822018211
 20
151.1822049241
 10
111.4415299144
 20
151.1050647003
 10
111.5994952335
 20
151.0189289075
 10
111.755392645
 20
150.9238920915
 10
111.9092662264
 20
150.8196606323
 10
112.0607429408
 20
150.7062119409
 10
112.2084193849
 20
150.5844122083
 10
112.3515687837
 20
150.4547888473
 10
112.4902199451
 20
150.3172420743
 10
112.6240555569
 20
150.1719679604
  0
LWPOLYLINE
  5
4A0
100
AcDbEntity
  8
0
100
AcDbPolyline
 62
253
  6
CONTINUOUS
 90
19
 70
0
 10
109.8240555569
 20
151.1352438986
 10
109.9914462168
 20
151.1279866031
 10
110.1576018904
 20
151.113490133
 10
110.3225351959
 20
151.0917581561
 10
110.4858525395
 20
151.0628769135
 10
110.6479826562
 20
151.0268059116
 10
110.8101090943
 20
150.9831555269
 10
110.9729898331
 20
150.9313698084
 10
111.1356705506
 20
150.8713821385
 10
111.2967395964
 20
150.8035001438
 10
111.4558077495
 20
150.7277889343
 10
111.6130243136
 20
150.6439961768
 10
111.7678427605
 20
150.5521920788
 10
111.9202642257
 20
150.452150307
 10
112.0698567132
 20
150.3439137852
 10
112.2154179948
 20
150.228200893
 10
112.3563450081
 20
150.1054393492
 10
112.4926518661
 20
149.9755525996
 10
112.6240555569
 20
149.8386981473
  0
LWPOLYLINE
  5
4A1
100
AcDbEntity
  8
0
100
AcDbPolyline
 62
253
  6
CONTINUOUS
 90
19
 70
0
 10
109.8240555569
 20
151.0785527959
 10
109.9917328015
 20
151.0711051495
 10
110.1582156582
 20
151.0564709352
 10
110.3234997632
 20
151.0346546873
 10
110.4871936114
 20
151.0057393946
 10
110.6496883594
 20
150.9696873821
 10
110.8120940564
 20
150.9261317183
 10
110.9751102749
 20
150.8745534752
 10
111.1378158267
 20
150.8148954973
 10
111.2988641237
 20
150.7474486367
 10
111.4578690386
 20
150.6722772619
 10
111.6149551417
 20
150.5891497763
 10
111.7695967164
 20
150.498133812
 10
111.9217851801
 20
150.3990171919
 10
112.0710887207
 20
150.291848734
 10
112.2163449969
 20
150.1773165794
 10
112.3569689684
 20
150.0558319027
 10
112.4929658526
 20
149.9273268071
 10
112.6240555569
 20
149.7919555573
  0
LINE
  5
4A2
100
AcDbEntity
  8
0
100
AcDbLine
 62
7
  6
CONTINUOUS
 10
109.8629104943
 20
152.889184116
 11
109.8240555569
 21
152.8927580461
  0
LINE
  5
4A3
100
AcDbEntity
  8
0
100
AcDbLine
 62
7
  6
CONTINUOUS
 10
112.6240555569
 20
66.4179659952
 11
112.6095220167
 21
66.4011324353
  0
LINE
  5
4A4
100
AcDbEntity
  8
0
100
AcDbLine
 62
7
  6
CONTINUOUS
 10
112.6095220167
 20
66.4011324353
 11
112.602239193
 21
66.3927580991
  0
LWPOLYLINE
  5
4A5
100
AcDbEntity
  8
0
100
AcDbPolyline
 62
7
  6
CONTINUOUS
 90
3
 70
0
 10
112.3710948282
 20
64.996966176
 10
112.5000744763
 20
65.1173480194
 10
112.6240555569
 20
65.2427580991
  0
LWPOLYLINE
  5
4A6
100
AcDbEntity
  8
0
100
AcDbPolyline
 62
7
  6
CONTINUOUS
 90
4
 70
0
 10
112.3483596075
 20
64.9767266905
 10
112.4623907659
 20
65.0811659798
 10
112.5740492964
 20
65.190956359
 10
112.6240555569
 20
65.2427581005
  0
LWPOLYLINE
  5
4A7
100
AcDbEntity
  8
0
100
AcDbPolyline
 62
7
  6
CONTINUOUS
 90
16
 70
0
 10
109.8240555569
 20
152.8927580991
 10
109.9993886855
 20
152.8738559708
 10
110.1739006408
 20
152.8479115054
 10
110.3473091481
 20
152.8149655795
 10
110.5193832996
 20
152.7750459971
 10
110.6897862707
 20
152.7282039643
 10
110.8580872438
 20
152.6745579325
 10
111.0239452028
 20
152.6142458786
 10
111.187173163
 20
152.5473543428
 10
111.3475802525
 20
152.4739574677
 10
111.5049028954
 20
152.3941632218
 10
111.6588924696
 20
152.3081105893
 10
111.8093720966
 20
152.2159027356
 10
111.9561576186
 20
152.1176320645
 10
112.0989287075
 20
152.0134794612
 10
112.2373243865
 20
151.9037082324
  0
LWPOLYLINE
  5
4A8
100
AcDbEntity
  8
0
100
AcDbPolyline
 62
7
  6
CONTINUOUS
 90
4
 70
0
 10
110.3575449098
 20
152.8127944202
 10
110.2306049797
 20
152.8379316144
 10
110.1055487601
 20
152.8589275837
 10
109.9831639672
 20
152.8759051788
  0
LWPOLYLINE
  5
4A9
100
AcDbEntity
  8
0
100
AcDbPolyline
 62
7
  6
CONTINUOUS
 90
4
 70
0
 10
110.8597512906
 20
152.6739902285
 10
110.7339024541
 20
152.7148615023
 10
110.6093260504
 20
152.7512436266
 10
110.4842610309
 20
152.7837887011
  0
LWPOLYLINE
  5
4AA
100
AcDbEntity
  8
0
100
AcDbPolyline
 62
7
  6
CONTINUOUS
 90
4
 70
0
 10
112.6240555569
 20
151.5427580977
 10
112.5740492964
 20
151.5945598392
 10
112.4623907659
 20
151.7043502184
 10
112.3483596075
 20
151.8087895077
  0
LINE
  5
4AB
100
AcDbEntity
  8
0
100
AcDbLine
 62
7
  6
CONTINUOUS
 10
112.602239193
 20
150.3927580991
 11
112.616793898
 21
150.3759814081
  0
LINE
  5
4AC
100
AcDbEntity
  8
0
100
AcDbLine
 62
7
  6
CONTINUOUS
 10
112.616793898
 20
150.3759814081
 11
112.6240555569
 21
150.367550203
  0
LINE
  5
4AD
100
AcDbEntity
  8
0
100
AcDbLine
 62
7
  6
CONTINUOUS
 10
112.2325617346
 20
64.8778773602
 11
112.3710948282
 21
64.996966176
  0
LWPOLYLINE
  5
4AE
100
AcDbEntity
  8
0
100
AcDbPolyline
 62
7
  6
CONTINUOUS
 90
6
 70
0
 10
111.4950009106
 20
64.3860939392
 10
111.619679047
 20
64.4547177828
 10
111.7456300324
 20
64.5295379208
 10
111.8713394042
 20
64.6100582072
 10
111.9948085331
 20
64.6952146857
 10
112.1149661262
 20
64.7842977438
  0
LWPOLYLINE
  5
4AF
100
AcDbEntity
  8
0
100
AcDbPolyline
 62
7
  6
CONTINUOUS
 90
4
 70
0
 10
110.9879126887
 20
64.157523264
 10
111.1169727001
 20
64.2084537097
 10
111.2450093251
 20
64.2637281253
 10
111.3706660736
 20
64.3227729957
  0
LWPOLYLINE
  5
4B0
100
AcDbEntity
  8
0
100
AcDbPolyline
 62
7
  6
CONTINUOUS
 90
4
 70
0
 10
111.3706660736
 20
152.4627432025
 10
111.2450093251
 20
152.5217880729
 10
111.1169727001
 20
152.5770624885
 10
110.9879126887
 20
152.6279929342
  0
LWPOLYLINE
  5
4B1
100
AcDbEntity
  8
0
100
AcDbPolyline
 62
7
  6
CONTINUOUS
 90
6
 70
0
 10
112.1149661262
 20
152.0012184544
 10
111.9948085331
 20
152.0903015125
 10
111.8713394042
 20
152.175457991
 10
111.7456300324
 20
152.2559782774
 10
111.619679047
 20
152.3307984154
 10
111.4950009106
 20
152.399422259
  0
LWPOLYLINE
  5
4B2
100
AcDbEntity
  8
0
100
AcDbPolyline
 62
7
  6
CONTINUOUS
 90
4
 70
0
 10
112.2325617346
 20
151.907638838
 10
112.3710948282
 20
151.7885500222
 10
112.5000744763
 20
151.6681681788
 10
112.6240555569
 20
151.5427580991
  0
ARC
  5
4B3
100
AcDbEntity
  8
DRAFT
100
AcDbCircle
 62
7
  6
CONTINUOUS
 10
199.0350868749
 20
987.7834716843
 40
924.3907135852
100
AcDbArc
 50
266.8761934164
 51
273.1238065836
  0
ARC
  5
4B4
100
AcDbEntity
  8
DRAFT
100
AcDbCircle
 62
7
  6
CONTINUOUS
 10
199.0350868749
 20
-770.9979554861
 40
924.3907135852
100
AcDbArc
 50
86.8761934164
 51
93.1238065836
  0
ARC
  5
4B5
100
AcDbEntity
  8
DRAFT
100
AcDbCircle
 62
7
  6
CONTINUOUS
 10
21.2850868749
 20
108.3927580991
 40
250.0
100
AcDbArc
 50
354.229781
 51
5.770219
  0
ARC
  5
4B6
100
AcDbEntity
  8
DRAFT
100
AcDbCircle
 62
7
  6
CONTINUOUS
 10
376.7850868748
 20
108.3927580991
 40
250.0
100
AcDbArc
 50
174.229781
 51
185.770219
  0
ARC
  5
4B7
100
AcDbEntity
  8
DRAFT
100
AcDbCircle
 62
7
  6
CONTINUOUS
 10
154.7033294181
 20
175.4715413017
 40
110.8699843096
100
AcDbArc
 50
264.2843481127
 51
266.8761934163
  0
ARC
  5
4B8
100
AcDbEntity
  8
DRAFT
100
AcDbCircle
 62
7
  6
CONTINUOUS
 10
243.3668443316
 20
175.4715413017
 40
110.8699843096
100
AcDbArc
 50
273.1238065837
 51
275.7156518873
  0
ARC
  5
4B9
100
AcDbEntity
  8
DRAFT
100
AcDbCircle
 62
7
  6
CONTINUOUS
 10
243.3668443316
 20
41.3139748965
 40
110.8699843096
100
AcDbArc
 50
84.2843481127
 51
86.8761934163
  0
ARC
  5
4BA
100
AcDbEntity
  8
DRAFT
100
AcDbCircle
 62
7
  6
CONTINUOUS
 10
154.7033294181
 20
41.3139748965
 40
110.8699843096
100
AcDbArc
 50
93.1238065837
 51
95.7156518873
  0
ARC
  5
4BB
100
AcDbEntity
  8
DRAFT
100
AcDbCircle
 62
7
  6
CONTINUOUS
 10
208.5753495273
 20
89.4668552934
 40
61.7559236485
100
AcDbArc
 50
350.4847401267
 51
354.229781
  0
ARC
  5
4BC
100
AcDbEntity
  8
DRAFT
100
AcDbCircle
 62
7
  6
CONTINUOUS
 10
208.5753495273
 20
127.3186609048
 40
61.7559236485
100
AcDbArc
 50
5.770219
 51
9.5152598733
  0
ARC
  5
4BD
100
AcDbEntity
  8
DRAFT
100
AcDbCircle
 62
7
  6
CONTINUOUS
 10
189.4948242224
 20
127.3186609048
 40
61.7559236485
100
AcDbArc
 50
170.4847401267
 51
174.229781
  0
ARC
  5
4BE
100
AcDbEntity
  8
DRAFT
100
AcDbCircle
 62
7
  6
CONTINUOUS
 10
189.4948242224
 20
89.4668552934
 40
61.7559236485
100
AcDbArc
 50
185.770219
 51
189.5152598733
  0
ARC
  5
4BF
100
AcDbEntity
  8
DRAFT
100
AcDbCircle
 62
7
  6
CONTINUOUS
 10
252.7155036607
 20
82.0682409155
 40
17.0
100
AcDbArc
 50
275.7156518873
 51
350.4847401267
  0
ARC
  5
4C0
100
AcDbEntity
  8
DRAFT
100
AcDbCircle
 62
7
  6
CONTINUOUS
 10
252.7155036607
 20
134.7172752827
 40
17.0
100
AcDbArc
 50
9.5152598733
 51
84.2843481127
  0
ARC
  5
4C1
100
AcDbEntity
  8
DRAFT
100
AcDbCircle
 62
7
  6
CONTINUOUS
 10
145.354670089
 20
134.7172752827
 40
17.0
100
AcDbArc
 50
95.7156518873
 51
170.4847401267
  0
ARC
  5
4C2
100
AcDbEntity
  8
DRAFT
100
AcDbCircle
 62
7
  6
CONTINUOUS
 10
145.354670089
 20
82.0682409155
 40
17.0
100
AcDbArc
 50
189.5152598733
 51
264.2843481127
  0
ARC
  5
4C3
100
AcDbEntity
  8
0
100
AcDbCircle
 62
7
  6
CONTINUOUS
 10
154.7350868749
 20
130.0927580991
 40
0.8
100
AcDbArc
 50
90.0
 51
180.0000000076
  0
ARC
  5
4C4
100
AcDbEntity
  8
0
100
AcDbCircle
 62
7
  6
CONTINUOUS
 10
154.7350868749
 20
86.6927580991
 40
0.8
100
AcDbArc
 50
179.9999999924
 51
270.0
  0
ARC
  5
4C5
100
AcDbEntity
  8
0
100
AcDbCircle
 62
7
  6
CONTINUOUS
 10
243.3350868749
 20
86.6927580991
 40
0.8
100
AcDbArc
 50
269.9999999965
 51
360.0
  0
ARC
  5
4C6
100
AcDbEntity
  8
0
100
AcDbCircle
 62
7
  6
CONTINUOUS
 10
243.3350868749
 20
130.0927580991
 40
0.8
100
AcDbArc
 50
0.0
 51
90.0000000008
  0
ARC
  5
4C7
100
AcDbEntity
  8
ASSI
100
AcDbCircle
 62
7
  6
CONTINUOUS
 10
258.5460178594
 20
124.7648589435
 40
154.5957284012
100
AcDbArc
 50
169.4963824111
 51
177.1941532001
  0
ARC
  5
4C8
100
AcDbEntity
  8
ASSI
100
AcDbCircle
 62
7
  6
CONTINUOUS
 10
258.5460178594
 20
124.7648589435
 40
154.5957284012
100
AcDbArc
 50
177.1981379902
 51
177.2040445534
  0
ARC
  5
4C9
100
AcDbEntity
  8
ASSI
100
AcDbCircle
 62
7
  6
CONTINUOUS
 10
258.5460178594
 20
92.0206572547
 40
154.5957284012
100
AcDbArc
 50
184.6398959643
 51
190.5036175889
  0
ARC
  5
4CA
100
AcDbEntity
  8
ASSI
100
AcDbCircle
 62
7
  6
CONTINUOUS
 10
258.5460178594
 20
92.0206572547
 40
154.5957284012
100
AcDbArc
 50
182.7959555114
 51
182.8018477447
  0
ARC
  5
4CB
100
AcDbEntity
  8
ASSI
100
AcDbCircle
 62
7
  6
CONTINUOUS
 10
258.5460178594
 20
92.0206572547
 40
154.5957284012
100
AcDbArc
 50
182.805846762
 51
183.5874674225
  0
ARC
  5
4CC
100
AcDbEntity
  8
RACCORDO
100
AcDbCircle
 62
7
  6
CONTINUOUS
 10
104.8347840516
 20
132.2983160877
 40
0.7
100
AcDbArc
 50
177.1941518962
 51
215.0
  0
ARC
  5
4CD
100
AcDbEntity
  8
RACCORDO
100
AcDbCircle
 62
7
  6
CONTINUOUS
 10
104.8347841136
 20
84.487200199
 40
0.7
100
AcDbArc
 50
145.0
 51
182.8058480519
  0
ARC
  5
4CE
100
AcDbEntity
  8
RACCORDO
100
AcDbCircle
 62
7
  6
CONTINUOUS
 10
106.8438380089
 20
152.9361590535
 40
0.3000000125
100
AcDbArc
 50
92.9999998522
 51
169.4799319518
  0
ARC
  5
4CF
100
AcDbEntity
  8
RACCORDO
100
AcDbCircle
 62
7
  6
CONTINUOUS
 10
106.8438380089
 20
63.8493571447
 40
0.3000000125
100
AcDbArc
 50
190.5200680482
 51
267.0000001478
  0
ENDSEC
  0
SECTION
  2
OBJECTS
  0
DICTIONARY
  5
C
100
AcDbDictionary
280
0
281
1
  3
ACAD_GROUP
350
D
  3
ACAD_MLINESTYLE
350
17
  3
ACAD_LAYOUT
350
1A
  3
ACAD_PLOTSETTINGS
350
19
  3
ACAD_PLOTSTYLENAME
350
E
  0
DICTIONARY
  5
D
102
{ACAD_REACTORS
330
C
102
}
100
AcDbDictionary
280
0
281
1
  0
ACDBDICTIONARYWDFLT
  5
E
102
{ACAD_REACTORS
330
C
102
}
100
AcDbDictionary
281
1
  3
Normal
350
F
100
AcDbDictionaryWithDefault
340
F
  0
DICTIONARY
  5
17
102
{ACAD_REACTORS
330
C
102
}
100
AcDbDictionary
280
0
281
1
  3
Standard
350
18
  0
DICTIONARY
  5
19
102
{ACAD_REACTORS
330
C
102
}
100
AcDbDictionary
281
1
  0
DICTIONARY
  5
1A
102
{ACAD_REACTORS
330
C
102
}
100
AcDbDictionary
281
1
  3
Model
350
4D0
  3
Layout1
350
4D1
  0
ACDBPLACEHOLDER
  5
F
102
{ACAD_REACTORS
330
E
102
}
  0
MLINESTYLE
  5
18
102
{ACAD_REACTORS
330
17
102
}
100
AcDbMlineStyle
  2
STANDARD
 70
0
  3

 62
256
 51
90.0
 52
90.0
 71
2
 49
0.5
 62
256
  6
BYLAYER
 49
-0.5
 62
256
  6
BYLAYER
  0
LAYOUT
  5
4D0
102
{ACAD_REACTORS
330
1A
102
}
100
AcDbPlotSettings
  1

  2
none_device
  4
ISO_A4_(297.00_x_210.00_MM)
  6

 40
0.0
 41
0.0
 42
0.0
 43
0.0
 44
297.0
 45
210.0
 46
0.0
 47
0.0
 48
0.0
 49
0.0
140
0.0
141
0.0
142
1.0
143
1.0
 70
1024
 72
1
 73
0
 74
0
  7

 75
0
147
1.0
148
0.0
149
0.0
100
AcDbLayout
  1
Model
 70
0
 71
0
 10
0.0
 20
0.0
 11
297.0
 21
210.0
 12
0.0
 22
0.0
 32
0.0
 14
0.0
 24
0.0
 34
0.0
 15
0.0
 25
0.0
 35
0.0
146
0.0
 13
0.0
 23
0.0
 33
0.0
 16
1.0
 26
0.0
 36
0.0
 17
0.0
 27
1.0
 37
0.0
 76
0
330
211
345
0
346
0
  0
LAYOUT
  5
4D1
102
{ACAD_REACTORS
330
1A
102
}
100
AcDbPlotSettings
  1

  2
none_device
  4
ISO_A4_(297.00_x_210.00_MM)
  6

 40
0.0
 41
0.0
 42
0.0
 43
0.0
 44
297.0
 45
210.0
 46
0.0
 47
0.0
 48
0.0
 49
0.0
140
0.0
141
0.0
142
1.0
143
1.0
 70
0
 72
1
 73
0
 74
0
  7

 75
0
147
1.0
148
0.0
149
0.0
100
AcDbLayout
  1
Layout1
 70
0
 71
1
 10
0.0
 20
0.0
 11
297.0
 21
210.0
 12
0.0
 22
0.0
 32
0.0
 14
0.0
 24
0.0
 34
0.0
 15
0.0
 25
0.0
 35
0.0
146
0.0
 13
0.0
 23
0.0
 33
0.0
 16
1.0
 26
0.0
 36
0.0
 17
0.0
 27
1.0
 37
0.0
 76
0
330
212
345
0
346
0
  0
ENDSEC
  0
EOF
