  0
SECTION
  2
HEADER
  9
$ACADVER
  1
AC1024
  9
$DWGCODEPAGE
  3
ANSI_1252
  9
$EXTMAX
 10
210.0
 20
297.0
 30
0.0
  9
$EXTMIN
 10
0.0
 20
0.0
 30
0.0
  9
$LIMMIN
 10
0.0
 20
0.0
  9
$LIMMAX
 10
210.0
 20
297.0
  9
$VIEWCTR
 10
105.0
 20
148.5
  9
$VIEWSIZE
 40
297.0
  9
$CLAYER
  8
0
  9
$LTSCALE
 40
19.36
  9
$CELTYPE
  6
BYLAYER
  9
$DIMSCALE
 40
1.0
  9
$DIMASZ
 40
3.0
  9
$DIMEXO
 40
0.5
  9
$DIMDLI
 40
13.376
  9
$DIMEXE
 40
1.5
  9
$DIMCEN
 40
3.168
  9
$DIMLFAC
 40
1.0
  9
$DIMBLK
  1
_FILLED
  9
$DIMALT
 70
0
  9
$DIMALTF
 40
0.0393700787
  9
$DIMTXT
 40
3.0
  9
$DIMTOL
 70
1
  9
$DIMLIM
 70
0
  9
$DIMTFAC
 40
1.0
  9
$DIMTP
 40
0.01
  9
$DIMTM
 40
0.01
  9
$DIMGAP
 40
0.625
  9
$DIMDSEP
 70
44
  9
$AUNITS
 70
0
  9
$PDMODE
 70
3
  9
$PDSIZE
 40
3.0
  9
$HANDSEED
  5
3C2
  9
$TILEMODE
 70
1
  9
$MEASUREMENT
 70
1
  9
$INSUNITS
 70
4
  0
ENDSEC
  0
SECTION
  2
CLASSES
  0
CLASS
  1
ACDBDICTIONARYWDFLT
  2
AcDbDictionaryWithDefault
  3
AutoCAD 2000
 90
0
 91
1
280
0
281
0
  0
CLASS
  1
ACDBPLACEHOLDER
  2
AcDbPlaceHolder
  3
AutoCAD 2000
 90
0
 91
1
280
0
281
0
  0
CLASS
  1
LAYOUT
  2
AcDbLayout
  3
AutoCAD 2000
 90
0
 91
0
280
0
281
0
  0
ENDSEC
  0
SECTION
  2
TABLES
  0
TABLE
  2
VPORT
  5
8
100
AcDbSymbolTable
 70
2
  0
VPORT
  5
1F4
100
AcDbSymbolTableRecord
100
AcDbViewportTableRecord
  2
*ACTIVE
 70
0
 10
0.0
 20
0.0
 11
1.0
 21
1.0
 12
105.0
 22
148.5
 13
0.0
 23
0.0
 14
1.0
 24
1.0
 15
0.0
 25
0.0
 16
0.0
 26
0.0
 36
1.0
 17
0.0
 27
0.0
 37
0.0
 40
297.0
 41
0.7070707071
 42
50.0
 43
0.0
 44
0.0
 50
0.0
 51
0.0
 71
0
 72
100
 73
1
 74
1
 75
0
 76
0
 77
0
 78
0
  0
ENDTAB
  0
TABLE
  2
LTYPE
  5
5
100
AcDbSymbolTable
 70
6
  0
LTYPE
  5
14
100
AcDbSymbolTableRecord
100
AcDbLinetypeTableRecord
  2
BYBLOCK
 70
0
  3

 72
65
 73
0
 40
0.0
  0
LTYPE
  5
15
100
AcDbSymbolTableRecord
100
AcDbLinetypeTableRecord
  2
BYLAYER
 70
0
  3

 72
65
 73
0
 40
0.0
  0
LTYPE
  5
16
100
AcDbSymbolTableRecord
100
AcDbLinetypeTableRecord
  2
CONTINUOUS
 70
64
  3
Solid line
 72
65
 73
0
 40
0.0
  0
LTYPE
  5
1F5
100
AcDbSymbolTableRecord
100
AcDbLinetypeTableRecord
  2
CENTER
 70
64
  3
____ _ ____ _ ____ _ ____ _ ____ _ ____ _ ____
 72
65
 73
4
 40
0.6
 49
0.375
 74
0
 49
-0.075
 74
0
 49
0.075
 74
0
 49
-0.075
 74
0
  0
LTYPE
  5
1F6
100
AcDbSymbolTableRecord
100
AcDbLinetypeTableRecord
  2
HIDDEN
 70
64
  3
- - - - - - - - - - - - - - - - - - - -
 72
65
 73
2
 40
0.2
 49
0.1
 74
0
 49
-0.1
 74
0
  0
LTYPE
  5
1F7
100
AcDbSymbolTableRecord
100
AcDbLinetypeTableRecord
  2
PHANTOM
 70
64
  3
_____ _ _ _____ _ _ _____ _ _ _____
 72
65
 73
6
 40
0.8
 49
0.45
 74
0
 49
-0.05
 74
0
 49
0.1
 74
0
 49
-0.05
 74
0
 49
0.1
 74
0
 49
-0.05
 74
0
  0
LTYPE
  5
1F8
100
AcDbSymbolTableRecord
100
AcDbLinetypeTableRecord
  2
DOT
 70
64
  3
. . . . . . . . . . . . . . . . . . . .
 72
65
 73
2
 40
0.2
 49
0.1
 74
0
 49
-0.1
 74
0
  0
LTYPE
  5
1F9
100
AcDbSymbolTableRecord
100
AcDbLinetypeTableRecord
  2
DASHED
 70
64
  3
- - - - - - - - - - - - - - - - - - - -
 72
65
 73
2
 40
0.2
 49
0.1
 74
0
 49
-0.1
 74
0
  0
ENDTAB
  0
TABLE
  2
LAYER
  5
2
100
AcDbSymbolTable
 70
36
  0
LAYER
  5
10
100
AcDbSymbolTableRecord
100
AcDbLayerTableRecord
  2
0
 70
0
 62
7
  6
CONTINUOUS
370
-3
390
F
  0
LAYER
  5
1FA
100
AcDbSymbolTableRecord
100
AcDbLayerTableRecord
  2
DEFAULT_1
 70
0
 62
7
  6
CENTER
370
-3
390
F
  0
LAYER
  5
1FB
100
AcDbSymbolTableRecord
100
AcDbLayerTableRecord
  2
DEFAULT_2
 70
0
 62
7
  6
HIDDEN
370
-3
390
F
  0
LAYER
  5
1FC
100
AcDbSymbolTableRecord
100
AcDbLayerTableRecord
  2
DEFAULT_3
 70
0
 62
7
  6
PHANTOM
370
-3
390
F
  0
LAYER
  5
1FD
100
AcDbSymbolTableRecord
100
AcDbLayerTableRecord
  2
ASSI
 70
0
 62
7
  6
CONTINUOUS
370
-3
390
F
  0
LAYER
  5
1FE
100
AcDbSymbolTableRecord
100
AcDbLayerTableRecord
  2
COORDINATE
 70
0
 62
7
  6
CONTINUOUS
370
-3
390
F
  0
LAYER
  5
1FF
100
AcDbSymbolTableRecord
100
AcDbLayerTableRecord
  2
COPY_PUBLISH
 70
0
 62
7
  6
CONTINUOUS
370
-3
390
F
  0
LAYER
  5
200
100
AcDbSymbolTableRecord
100
AcDbLayerTableRecord
  2
COSMETICI
 70
0
 62
7
  6
CONTINUOUS
370
-3
390
F
  0
LAYER
  5
201
100
AcDbSymbolTableRecord
100
AcDbLayerTableRecord
  2
CURVE
 70
0
 62
7
  6
CONTINUOUS
370
-3
390
F
  0
LAYER
  5
202
100
AcDbSymbolTableRecord
100
AcDbLayerTableRecord
  2
DRAFT
 70
0
 62
7
  6
CONTINUOUS
370
-3
390
F
  0
LAYER
  5
203
100
AcDbSymbolTableRecord
100
AcDbLayerTableRecord
  2
IMPORT_IGES
 70
0
 62
7
  6
CONTINUOUS
370
-3
390
F
  0
LAYER
  5
204
100
AcDbSymbolTableRecord
100
AcDbLayerTableRecord
  2
INTFCLR_1
 70
0
 62
7
  6
CONTINUOUS
370
-3
390
F
  0
LAYER
  5
205
100
AcDbSymbolTableRecord
100
AcDbLayerTableRecord
  2
INTF_2
 70
0
 62
7
  6
CONTINUOUS
370
-3
390
F
  0
LAYER
  5
206
100
AcDbSymbolTableRecord
100
AcDbLayerTableRecord
  2
INTF_5
 70
0
 62
7
  6
CONTINUOUS
370
-3
390
F
  0
LAYER
  5
207
100
AcDbSymbolTableRecord
100
AcDbLayerTableRecord
  2
INTF_9
 70
0
 62
7
  6
CONTINUOUS
370
-3
390
F
  0
LAYER
  5
208
100
AcDbSymbolTableRecord
100
AcDbLayerTableRecord
  2
NOTE
 70
0
 62
7
  6
CONTINUOUS
370
-3
390
F
  0
LAYER
  5
209
100
AcDbSymbolTableRecord
100
AcDbLayerTableRecord
  2
PIANI
 70
0
 62
7
  6
CONTINUOUS
370
-3
390
F
  0
LAYER
  5
20A
100
AcDbSymbolTableRecord
100
AcDbLayerTableRecord
  2
PUNTI
 70
0
 62
7
  6
CONTINUOUS
370
-3
390
F
  0
LAYER
  5
20B
100
AcDbSymbolTableRecord
100
AcDbLayerTableRecord
  2
RACCORDO
 70
0
 62
7
  6
CONTINUOUS
370
-3
390
F
  0
LAYER
  5
20C
100
AcDbSymbolTableRecord
100
AcDbLayerTableRecord
  2
SIMBOLI
 70
0
 62
7
  6
CONTINUOUS
370
-3
390
F
  0
LAYER
  5
20D
100
AcDbSymbolTableRecord
100
AcDbLayerTableRecord
  2
SMUSSO
 70
0
 62
7
  6
CONTINUOUS
370
-3
390
F
  0
LAYER
  5
20E
100
AcDbSymbolTableRecord
100
AcDbLayerTableRecord
  2
SNAPLINE
 70
0
 62
7
  6
CONTINUOUS
370
-3
390
F
  0
LAYER
  5
20F
100
AcDbSymbolTableRecord
100
AcDbLayerTableRecord
  2
SUPERFICI
 70
0
 62
7
  6
CONTINUOUS
370
-3
390
F
  0
LAYER
  5
210
100
AcDbSymbolTableRecord
100
AcDbLayerTableRecord
  2
TRASH
 70
0
 62
7
  6
CONTINUOUS
370
-3
390
F
  0
ENDTAB
  0
TABLE
  2
STYLE
  5
3
100
AcDbSymbolTable
 70
1
  0
STYLE
  5
11
100
AcDbSymbolTableRecord
100
AcDbTextStyleTableRecord
  2
STANDARD
 70
0
 40
0.0
 41
0.8
 50
0.0
 71
0
 42
0.2
  3
txt
  4

  0
STYLE
  5
211
100
AcDbSymbolTableRecord
100
AcDbTextStyleTableRecord
  2
TEXTSTYLE_1
 70
0
 40
0.0
 41
0.8
 50
0.0
 71
0
 42
0.2
  3
gdt
  4

  0
ENDTAB
  0
TABLE
  2
VIEW
  5
6
100
AcDbSymbolTable
 70
0
  0
ENDTAB
  0
TABLE
  2
UCS
  5
7
100
AcDbSymbolTable
 70
0
  0
ENDTAB
  0
TABLE
  2
APPID
  5
9
100
AcDbSymbolTable
 70
1
  0
APPID
  5
212
100
AcDbSymbolTableRecord
100
AcDbRegAppTableRecord
  2
ACAD
 70
0
  0
ENDTAB
  0
TABLE
  2
BLOCK_RECORD
  5
1
100
AcDbSymbolTable
 70
0
  0
BLOCK_RECORD
  5
213
100
AcDbSymbolTableRecord
100
AcDbBlockTableRecord
  2
*Model_Space
  0
BLOCK_RECORD
  5
214
100
AcDbSymbolTableRecord
100
AcDbBlockTableRecord
  2
*Paper_Space
  0
BLOCK_RECORD
  5
215
100
AcDbSymbolTableRecord
100
AcDbBlockTableRecord
  2
_FILLED
  0
BLOCK_RECORD
  5
216
100
AcDbSymbolTableRecord
100
AcDbBlockTableRecord
  2
*D0
  0
BLOCK_RECORD
  5
217
100
AcDbSymbolTableRecord
100
AcDbBlockTableRecord
  2
*D1
  0
BLOCK_RECORD
  5
218
100
AcDbSymbolTableRecord
100
AcDbBlockTableRecord
  2
*D2
  0
ENDTAB
  0
TABLE
  2
DIMSTYLE
  5
A
100
AcDbSymbolTable
 70
1
100
AcDbDimStyleTable
 71
0
  0
DIMSTYLE
105
219
100
AcDbSymbolTableRecord
100
AcDbDimStyleTableRecord
  2
STANDARD
 70
0
  3

  4

 40
1.0
 41
3.0
 42
0.5
 43
0.38
 44
1.5
 45
0.0
 46
0.0
 47
0.01
 48
0.01
140
3.0
141
0.09
142
0.0
143
25.4
144
1.0
145
0.0
146
1.0
147
0.625
 71
1
 72
0
 73
0
 74
0
 75
0
 76
0
 77
1
 78
8
 79
2
170
0
171
1
172
0
173
0
174
0
175
0
176
0
177
0
178
0
270
2
179
2
271
2
272
2
273
2
274
2
275
0
280
0
281
0
282
0
283
1
284
8
285
0
286
0
287
3
288
0
340
11
278
44
341
215
342
215
343
215
344
215
  0
DIMSTYLE
105
21A
100
AcDbSymbolTableRecord
100
AcDbDimStyleTableRecord
  2
DIMSTYLE_1
 70
0
  3

  4

 40
1.0
 41
3.0
 42
0.5
 43
0.38
 44
1.5
 45
0.0
 46
0.0
 47
0.0
 48
0.0
140
3.0
141
0.09
142
0.0
143
25.4
144
1.0
145
0.0
146
1.0
147
0.75
 71
0
 72
0
 73
0
 74
0
 75
0
 76
0
 77
1
 78
8
 79
2
170
0
171
1
172
0
173
0
174
0
175
0
176
0
177
0
178
0
270
2
179
2
271
2
272
2
273
2
274
2
275
0
280
0
281
0
282
0
283
1
284
8
285
0
286
0
287
3
288
0
340
11
278
44
341
215
342
215
343
215
344
215
  0
DIMSTYLE
105
21B
100
AcDbSymbolTableRecord
100
AcDbDimStyleTableRecord
  2
DIMSTYLE_2
 70
0
  3

  4

 40
1.0
 41
3.0
 42
0.5
 43
0.38
 44
1.5
 45
0.0
 46
0.0
 47
0.0
 48
0.0
140
3.0
141
0.09
142
0.0
143
25.4
144
1.0
145
0.0
146
1.0
147
0.75
 71
0
 72
0
 73
0
 74
0
 75
0
 76
0
 77
1
 78
8
 79
2
170
0
171
1
172
0
173
0
174
0
175
0
176
0
177
0
178
0
270
2
179
2
271
1
272
1
273
2
274
2
275
0
280
0
281
0
282
0
283
1
284
8
285
0
286
0
287
3
288
0
340
11
278
44
341
215
342
215
343
215
344
215
  0
ENDTAB
  0
ENDSEC
  0
SECTION
  2
BLOCKS
  0
BLOCK
  5
20
100
AcDbEntity
  8
0
100
AcDbBlockBegin
  2
*Model_Space
 70
0
 10
0.0
 20
0.0
 30
0.0
  3
*Model_Space
  1

  0
ENDBLK
  5
21
100
AcDbEntity
  8
0
100
AcDbBlockEnd
  0
BLOCK
  5
1C
100
AcDbEntity
  8
0
100
AcDbBlockBegin
  2
*Paper_Space
 70
0
 10
0.0
 20
0.0
 30
0.0
  3
*Paper_Space
  1

  0
ENDBLK
  5
1D
100
AcDbEntity
  8
0
100
AcDbBlockEnd
  0
BLOCK
  5
21C
100
AcDbEntity
  8
0
100
AcDbBlockBegin
  2
_FILLED
 70
64
 10
0.0
 20
0.0
  3
_FILLED
  1

  0
SOLID
  5
21D
100
AcDbEntity
  8
0
  6
BYBLOCK
 62
0
100
AcDbTrace
 10
0.0
 20
0.0
 11
-1.0
 21
0.3166666667
 12
-1.0
 22
-0.3166666667
 13
-1.0
 23
-0.3166666667
  0
ENDBLK
  5
21E
100
AcDbEntity
  8
0
  6
BYBLOCK
 62
0
100
AcDbBlockEnd
  0
BLOCK
  5
21F
100
AcDbEntity
  8
0
100
AcDbBlockBegin
 62
7
  6
CONTINUOUS
  2
*D0
 70
65
 10
0.0
 20
0.0
  3
*D0
  1

  0
LINE
  5
220
100
AcDbEntity
  8
0
100
AcDbLine
 62
7
  6
CONTINUOUS
 10
-11.7611564435
 20
13.7031468697
 11
-11.7611564435
 21
32.0414346401
  0
LINE
  5
221
100
AcDbEntity
  8
0
100
AcDbLine
 62
7
  6
CONTINUOUS
 10
10.4388435565
 20
13.7031468697
 11
10.4388435565
 21
32.0414346401
  0
LINE
  5
222
100
AcDbEntity
  8
0
100
AcDbLine
 62
7
  6
CONTINUOUS
 10
-11.7611564435
 20
30.5414346401
 11
-0.6611564435
 21
30.5414346401
  0
LINE
  5
223
100
AcDbEntity
  8
0
100
AcDbLine
 62
7
  6
CONTINUOUS
 10
10.4388435565
 20
30.5414346401
 11
-0.6611564435
 21
30.5414346401
  0
INSERT
  5
224
100
AcDbEntity
  8
0
100
AcDbBlockReference
 62
7
  6
CONTINUOUS
  2
_FILLED
 10
-11.7611564435
 20
30.5414346401
 41
3.0
 42
3.0
 43
3.0
 50
180.0
  0
INSERT
  5
225
100
AcDbEntity
  8
0
100
AcDbBlockReference
 62
7
  6
CONTINUOUS
  2
_FILLED
 10
10.4388435565
 20
30.5414346401
 41
3.0
 42
3.0
 43
3.0
  0
ENDBLK
  5
226
100
AcDbEntity
  8
0
  6
BYBLOCK
 62
0
100
AcDbBlockEnd
  0
BLOCK
  5
227
100
AcDbEntity
  8
0
100
AcDbBlockBegin
 62
7
  6
CONTINUOUS
  2
*D1
 70
65
 10
0.0
 20
0.0
  3
*D1
  1

  0
LINE
  5
228
100
AcDbEntity
  8
0
100
AcDbLine
 62
7
  6
CONTINUOUS
 10
10.4186027677
 20
22.2624595754
 11
19.9431948172
 21
22.2624595754
  0
LINE
  5
229
100
AcDbEntity
  8
0
100
AcDbLine
 62
7
  6
CONTINUOUS
 10
10.4186027677
 20
-22.056165836
 11
19.9431948172
 21
-22.056165836
  0
LINE
  5
22A
100
AcDbEntity
  8
0
100
AcDbLine
 62
7
  6
CONTINUOUS
 10
18.4431948172
 20
22.2624595754
 11
18.4431948172
 21
0.1031468697
  0
LINE
  5
22B
100
AcDbEntity
  8
0
100
AcDbLine
 62
7
  6
CONTINUOUS
 10
18.4431948172
 20
-22.056165836
 11
18.4431948172
 21
0.1031468697
  0
INSERT
  5
22C
100
AcDbEntity
  8
0
100
AcDbBlockReference
 62
7
  6
CONTINUOUS
  2
_FILLED
 10
18.4431948172
 20
22.2624595754
 41
3.0
 42
3.0
 43
3.0
 50
90.0
  0
INSERT
  5
22D
100
AcDbEntity
  8
0
100
AcDbBlockReference
 62
7
  6
CONTINUOUS
  2
_FILLED
 10
18.4431948172
 20
-22.056165836
 41
3.0
 42
3.0
 43
3.0
 50
270.0
  0
ENDBLK
  5
22E
100
AcDbEntity
  8
0
  6
BYBLOCK
 62
0
100
AcDbBlockEnd
  0
BLOCK
  5
22F
100
AcDbEntity
  8
0
100
AcDbBlockBegin
 62
7
  6
CONTINUOUS
  2
*D2
 70
65
 10
0.0
 20
0.0
  3
*D2
  1

  0
LINE
  5
230
100
AcDbEntity
  8
0
100
AcDbLine
 62
7
  6
CONTINUOUS
 10
-26.9223353908
 20
13.7031468697
 11
-26.9223353908
 21
32.0181345013
  0
LINE
  5
231
100
AcDbEntity
  8
0
100
AcDbLine
 62
7
  6
CONTINUOUS
 10
-32.3130187695
 20
2.5466018566
 11
-32.3130187695
 21
32.0181345013
  0
LINE
  5
232
100
AcDbEntity
  8
0
100
AcDbLine
 62
7
  6
CONTINUOUS
 10
-26.9223353908
 20
30.5181345013
 11
-15.4580144765
 21
30.5181345013
  0
LINE
  5
233
100
AcDbEntity
  8
0
100
AcDbLine
 62
7
  6
CONTINUOUS
 10
-15.4580144765
 20
30.5181345013
 11
-29.6176770802
 21
30.5181345013
  0
LINE
  5
234
100
AcDbEntity
  8
0
100
AcDbLine
 62
7
  6
CONTINUOUS
 10
-32.3130187695
 20
30.5181345013
 11
-36.3130187695
 21
30.5181345013
  0
LINE
  5
235
100
AcDbEntity
  8
0
100
AcDbLine
 62
7
  6
CONTINUOUS
 10
-36.3130187695
 20
30.5181345013
 11
-29.6176770802
 21
30.5181345013
  0
INSERT
  5
236
100
AcDbEntity
  8
0
100
AcDbBlockReference
 62
7
  6
CONTINUOUS
  2
_FILLED
 10
-26.9223353908
 20
30.5181345013
 41
3.0
 42
3.0
 43
3.0
 50
180.0
  0
INSERT
  5
237
100
AcDbEntity
  8
0
100
AcDbBlockReference
 62
7
  6
CONTINUOUS
  2
_FILLED
 10
-32.3130187695
 20
30.5181345013
 41
3.0
 42
3.0
 43
3.0
  0
ENDBLK
  5
238
100
AcDbEntity
  8
0
  6
BYBLOCK
 62
0
100
AcDbBlockEnd
  0
ENDSEC
  0
SECTION
  2
ENTITIES
  0
DIMENSION
  5
239
100
AcDbEntity
  8
0
100
AcDbDimension
 62
7
  6
CONTINUOUS
  2
*D0
 10
10.4388435565
 20
30.5414346401
 11
-5.0540135863
 21
30.5414346401
 70
160
 71
2
 72
2
 41
0.9
 42
22.2
  3
DIMSTYLE_1
100
AcDbAlignedDimension
 13
-11.7611564435
 23
13.2031468697
 14
10.4388435565
 24
13.2031468697
100
AcDbRotatedDimension
  0
DIMENSION
  5
23A
100
AcDbEntity
  8
0
100
AcDbDimension
 62
7
  6
CONTINUOUS
  2
*D1
 10
18.4431948172
 20
-22.056165836
 11
18.4431948172
 21
-4.182567416
 70
160
 71
2
 72
2
 41
0.9
 42
44.3186254114
  3
DIMSTYLE_2
100
AcDbAlignedDimension
 13
9.9186027677
 23
22.2624595754
 14
9.9186027677
 24
-22.056165836
 50
270.0
100
AcDbRotatedDimension
  0
DIMENSION
  5
23B
100
AcDbEntity
  8
0
100
AcDbDimension
 62
7
  6
CONTINUOUS
  2
*D2
 10
-32.3130187695
 20
30.5181345013
 11
-21.6723001908
 21
30.5181345013
 70
160
 71
1
 72
2
 41
0.9
 42
5.3906833787
  3
DIMSTYLE_2
100
AcDbAlignedDimension
 13
-26.9223353908
 23
13.2031468697
 14
-32.3130187695
 24
2.0466018566
 50
180.0
100
AcDbRotatedDimension
  0
LINE
  5
23C
100
AcDbEntity
  8
DRAFT
100
AcDbLine
 62
7
  6
CONTINUOUS
 10
3.1388435565
 20
-22.0190919001
 11
2.7304185636
 21
-22.056165836
  0
LWPOLYLINE
  5
23D
100
AcDbEntity
  8
RACCORDO
100
AcDbPolyline
 62
250
  6
CONTINUOUS
 90
16
 70
0
 10
9.8513651176
 20
-21.9215982626
 10
9.9035670873
 20
-21.9187961807
 10
9.9551979973
 20
-21.9105634906
 10
10.0056931395
 20
-21.8969902682
 10
10.0545002556
 20
-21.8782249905
 10
10.1010855087
 20
-21.8544729358
 10
10.144939333
 20
-21.8259939603
 10
10.1855821041
 20
-21.7930996029
 10
10.2225693494
 20
-21.7561496715
 10
10.255496555
 20
-21.7155483546
 10
10.2840036346
 20
-21.6717397654
 10
10.30777887
 20
-21.6252030603
 10
10.326562296
 20
-21.5764472171
 10
10.3401485361
 20
-21.5260054841
 10
10.3483890533
 20
-21.4744295508
 10
10.3511937801
 20
-21.4222834952
  0
LINE
  5
23E
100
AcDbEntity
  8
RACCORDO
100
AcDbLine
 62
250
  6
CONTINUOUS
 10
-11.1736780055
 20
-21.9215982645
 11
-7.7710438297
 21
-21.9113771169
  0
LINE
  5
23F
100
AcDbEntity
  8
RACCORDO
100
AcDbLine
 62
250
  6
CONTINUOUS
 10
-7.7710438297
 20
-21.9113771169
 11
-4.3670412076
 21
-21.905105774
  0
LINE
  5
240
100
AcDbEntity
  8
RACCORDO
100
AcDbLine
 62
250
  6
CONTINUOUS
 10
-4.3670412076
 20
-21.905105774
 11
-0.9611495213
 21
-21.9027823195
  0
LINE
  5
241
100
AcDbEntity
  8
RACCORDO
100
AcDbLine
 62
7
  6
CONTINUOUS
 10
9.9186027677
 20
-22.056165836
 11
7.1472685495
 21
-22.056165836
  0
LINE
  5
242
100
AcDbEntity
  8
DRAFT
100
AcDbLine
 62
7
  6
CONTINUOUS
 10
2.7304185636
 20
-22.056165836
 11
-4.0527314505
 21
-22.056165836
  0
LINE
  5
243
100
AcDbEntity
  8
RACCORDO
100
AcDbLine
 62
7
  6
CONTINUOUS
 10
-8.4695814364
 20
-22.056165836
 11
-11.2409156546
 21
-22.056165836
  0
LINE
  5
244
100
AcDbEntity
  8
DRAFT
100
AcDbLine
 62
7
  6
CONTINUOUS
 10
6.7388435565
 20
-22.0190919001
 11
3.1388435565
 21
-22.0190919001
  0
LINE
  5
245
100
AcDbEntity
  8
DRAFT
100
AcDbLine
 62
7
  6
CONTINUOUS
 10
-4.4611564435
 20
-22.0190919001
 11
-8.0611564435
 21
-22.0190919001
  0
LINE
  5
246
100
AcDbEntity
  8
RACCORDO
100
AcDbLine
 62
250
  6
CONTINUOUS
 10
-0.9611495213
 20
-21.9027823195
 11
2.4377622222
 21
-21.9043990643
  0
LINE
  5
247
100
AcDbEntity
  8
RACCORDO
100
AcDbLine
 62
250
  6
CONTINUOUS
 10
2.4377622222
 20
-21.9043990643
 11
5.9395563997
 21
-21.9101882484
  0
LWPOLYLINE
  5
248
100
AcDbEntity
  8
RACCORDO
100
AcDbPolyline
 62
250
  6
CONTINUOUS
 90
3
 70
0
 10
5.9395563997
 20
-21.9101882484
 10
9.0257358489
 20
-21.9187832505
 10
9.851365119
 20
-21.9215982654
  0
LWPOLYLINE
  5
249
100
AcDbEntity
  8
RACCORDO
100
AcDbPolyline
 62
250
  6
CONTINUOUS
 90
16
 70
0
 10
-11.1736780055
 20
-21.9215982645
 10
-11.2258789756
 20
-21.9187962894
 10
-11.2775090173
 20
-21.9105638923
 10
-11.3280034463
 20
-21.8969911121
 10
-11.3768099987
 20
-21.8782263959
 10
-11.4233948714
 20
-21.8544749757
 10
-11.4672485598
 20
-21.8259966239
 10
-11.5078914307
 20
-21.7931028117
 10
-11.544878968
 20
-21.7561533027
 10
-11.5778066344
 20
-21.7155522184
 10
-11.606314296
 20
-21.6717436178
 10
-11.630090161
 20
-21.625206641
 10
-11.6488741897
 20
-21.5764502687
 10
-11.662460939
 20
-21.5260077554
 10
-11.6707018089
 20
-21.474430797
 10
-11.673506668
 20
-21.4222834971
  0
LINE
  5
24A
100
AcDbEntity
  8
DRAFT
100
AcDbLine
 62
7
  6
CONTINUOUS
 10
-4.4611564435
 20
-22.0190919001
 11
-4.0527314505
 21
-22.056165836
  0
LINE
  5
24B
100
AcDbEntity
  8
DRAFT
100
AcDbLine
 62
7
  6
CONTINUOUS
 10
-8.0611564435
 20
-22.0190919001
 11
-8.4695814364
 21
-22.056165836
  0
LWPOLYLINE
  5
24C
100
AcDbEntity
  8
RACCORDO
100
AcDbPolyline
 62
250
  6
CONTINUOUS
 90
13
 70
0
 10
9.867746246
 20
-20.7742577055
 10
9.9287351511
 20
-20.7738494904
 10
9.9882897848
 20
-20.7731243903
 10
10.0455090975
 20
-20.772093376
 10
10.0995273728
 20
-20.7707720465
 10
10.1495273249
 20
-20.7691803932
 10
10.1947524648
 20
-20.7673424973
 10
10.2345185454
 20
-20.765286166
 10
10.2682239138
 20
-20.7630425109
 10
10.2953586147
 20
-20.7606454783
 10
10.3155121055
 20
-20.7581313345
 10
10.328379468
 20
-20.7555381182
 10
10.3337660217
 20
-20.7529050641
  0
LINE
  5
24D
100
AcDbEntity
  8
RACCORDO
100
AcDbLine
 62
250
  6
CONTINUOUS
 10
-11.1900591392
 20
-20.7742576911
 11
-5.7347318175
 21
-20.7686998356
  0
LINE
  5
24E
100
AcDbEntity
  8
RACCORDO
100
AcDbLine
 62
250
  6
CONTINUOUS
 10
-5.7347318175
 20
-20.7686998356
 11
-0.2757710236
 21
-20.7670317063
  0
LINE
  5
24F
100
AcDbEntity
  8
RACCORDO
100
AcDbLine
 62
250
  6
CONTINUOUS
 10
-0.2757710236
 20
-20.7670317063
 11
4.5202112076
 21
-20.7687689469
  0
LINE
  5
250
100
AcDbEntity
  8
RACCORDO
100
AcDbLine
 62
250
  6
CONTINUOUS
 10
4.5202112076
 20
-20.7687689469
 11
9.8677462462
 21
-20.7742576861
  0
LWPOLYLINE
  5
251
100
AcDbEntity
  8
RACCORDO
100
AcDbPolyline
 62
250
  6
CONTINUOUS
 90
13
 70
0
 10
-11.1900577975
 20
-20.7742568558
 10
-11.2510457748
 20
-20.77384866
 10
-11.3105995656
 20
-20.7731235941
 10
-11.3678181615
 20
-20.772092628
 10
-11.4218358839
 20
-20.7707713596
 10
-11.4718354815
 20
-20.7691797785
 10
-11.5170604945
 20
-20.7673419636
 10
-11.556826699
 20
-20.7652857194
 10
-11.5905324596
 20
-20.7630421558
 10
-11.6176678309
 20
-20.7606452164
 10
-11.6378222732
 20
-20.758131165
 10
-11.6506908635
 20
-20.7555380378
 10
-11.6560789089
 20
-20.7529050668
  0
LINE
  5
252
100
AcDbEntity
  8
DRAFT
100
AcDbLine
 62
7
  6
CONTINUOUS
 10
6.7388435565
 20
-22.0190919001
 11
7.1472685495
 21
-22.056165836
  0
LWPOLYLINE
  5
253
100
AcDbEntity
  8
RACCORDO
100
AcDbPolyline
 62
250
  6
CONTINUOUS
 90
7
 70
0
 10
-11.1736780045
 20
22.1278920019
 10
-11.1749158905
 20
22.11869793
 10
-11.176219382
 20
22.1014982311
 10
-11.1775439207
 20
22.0764137863
 10
-11.1788126918
 20
22.043619762
 10
-11.1800159062
 20
22.0033408775
 10
-11.1823628587
 20
21.9014555483
  0
LWPOLYLINE
  5
254
100
AcDbEntity
  8
RACCORDO
100
AcDbPolyline
 62
250
  6
CONTINUOUS
 90
6
 70
0
 10
-11.1800159129
 20
-21.7970471371
 10
-11.1788126974
 20
-21.8373260205
 10
-11.177543925
 20
-21.8701200452
 10
-11.1762193852
 20
-21.8952044913
 10
-11.1749158926
 20
-21.9124041917
 10
-11.1736780055
 20
-21.9215982645
  0
LINE
  5
255
100
AcDbEntity
  8
RACCORDO
100
AcDbLine
 62
250
  6
CONTINUOUS
 10
-11.662490095
 20
21.4608245893
 11
-11.6603697101
 21
21.3793100473
  0
LINE
  5
256
100
AcDbEntity
  8
RACCORDO
100
AcDbLine
 62
250
  6
CONTINUOUS
 10
-11.1823628675
 20
-21.6951618105
 11
-11.1800159129
 21
-21.7970471371
  0
LINE
  5
257
100
AcDbEntity
  8
RACCORDO
100
AcDbLine
 62
250
  6
CONTINUOUS
 10
-11.6603697101
 20
21.3793100473
 11
-11.6586219832
 21
21.2854572275
  0
LINE
  5
258
100
AcDbEntity
  8
RACCORDO
100
AcDbLine
 62
250
  6
CONTINUOUS
 10
-11.1854294758
 20
-21.4945236668
 11
-11.1823628675
 21
-21.6951618105
  0
LINE
  5
259
100
AcDbEntity
  8
RACCORDO
100
AcDbLine
 62
250
  6
CONTINUOUS
 10
-11.6586219832
 20
21.2854572275
 11
-11.6573044753
 21
21.1819493753
  0
LINE
  5
25A
100
AcDbEntity
  8
RACCORDO
100
AcDbLine
 62
250
  6
CONTINUOUS
 10
-11.1884681633
 20
-21.1575108291
 11
-11.1854294758
 21
-21.4945236668
  0
LINE
  5
25B
100
AcDbEntity
  8
RACCORDO
100
AcDbLine
 62
250
  6
CONTINUOUS
 10
-11.6573044753
 20
21.1819493753
 11
-11.6564527946
 21
21.0728099155
  0
LINE
  5
25C
100
AcDbEntity
  8
RACCORDO
100
AcDbLine
 62
7
  6
CONTINUOUS
 10
-11.7415420762
 20
-21.5584476817
 11
-11.7611564435
 21
-12.9968531303
  0
LINE
  5
25D
100
AcDbEntity
  8
RACCORDO
100
AcDbLine
 62
250
  6
CONTINUOUS
 10
-11.190059148
 20
-20.7742576906
 11
-11.1884681633
 21
-21.1575108291
  0
LINE
  5
25E
100
AcDbEntity
  8
RACCORDO
100
AcDbLine
 62
250
  6
CONTINUOUS
 10
-11.6564527946
 20
21.0728099155
 11
-11.6496256436
 21
14.083284838
  0
LINE
  5
25F
100
AcDbEntity
  8
RACCORDO
100
AcDbLine
 62
7
  6
CONTINUOUS
 10
-11.7611564435
 20
-12.9968531303
 11
-11.7611564435
 21
-0.4297236944
  0
LINE
  5
260
100
AcDbEntity
  8
RACCORDO
100
AcDbLine
 62
7
  6
CONTINUOUS
 10
-11.7611564435
 20
0.6360174338
 11
-11.7611564435
 21
13.2031468697
  0
LINE
  5
261
100
AcDbEntity
  8
RACCORDO
100
AcDbLine
 62
250
  6
CONTINUOUS
 10
-11.6496256436
 20
14.083284838
 11
-11.6443696664
 21
0.6749384533
  0
LINE
  5
262
100
AcDbEntity
  8
RACCORDO
100
AcDbLine
 62
250
  6
CONTINUOUS
 10
-11.187620489
 20
-0.4699596004
 11
-11.1900591392
 21
-20.7742576911
  0
LINE
  5
263
100
AcDbEntity
  8
RACCORDO
100
AcDbLine
 62
250
  6
CONTINUOUS
 10
-11.6443696681
 20
-0.4686447133
 11
-11.646564582
 21
-8.9547267741
  0
LINE
  5
264
100
AcDbEntity
  8
RACCORDO
100
AcDbLine
 62
250
  6
CONTINUOUS
 10
-11.646564582
 20
-8.9547267741
 11
-11.6511986434
 21
-15.7819316856
  0
LINE
  5
265
100
AcDbEntity
  8
RACCORDO
100
AcDbLine
 62
7
  6
CONTINUOUS
 10
-11.7415420762
 20
21.7647414211
 11
-11.7611564435
 21
13.2031468697
  0
LINE
  5
266
100
AcDbEntity
  8
RACCORDO
100
AcDbLine
 62
250
  6
CONTINUOUS
 10
-11.1894747369
 20
21.1754960881
 11
-11.1876204645
 21
0.6762533366
  0
LINE
  5
267
100
AcDbEntity
  8
RACCORDO
100
AcDbLine
 62
250
  6
CONTINUOUS
 10
-11.6511986434
 20
-15.7819316856
 11
-11.6564527955
 21
-20.8665161784
  0
LINE
  5
268
100
AcDbEntity
  8
RACCORDO
100
AcDbLine
 62
250
  6
CONTINUOUS
 10
-11.18711028
 20
21.5404606725
 11
-11.1894747369
 21
21.1754960881
  0
LINE
  5
269
100
AcDbEntity
  8
RACCORDO
100
AcDbLine
 62
250
  6
CONTINUOUS
 10
-11.6564527955
 20
-20.8665161784
 11
-11.6573044762
 21
-20.975655638
  0
LINE
  5
26A
100
AcDbEntity
  8
RACCORDO
100
AcDbLine
 62
250
  6
CONTINUOUS
 10
-11.1844599807
 20
21.7735063635
 11
-11.18711028
 21
21.5404606725
  0
LINE
  5
26B
100
AcDbEntity
  8
RACCORDO
100
AcDbLine
 62
250
  6
CONTINUOUS
 10
-11.6573044762
 20
-20.975655638
 11
-11.6586219842
 21
-21.0791634901
  0
LINE
  5
26C
100
AcDbEntity
  8
RACCORDO
100
AcDbLine
 62
250
  6
CONTINUOUS
 10
-11.1823628587
 20
21.9014555483
 11
-11.1844599807
 21
21.7735063635
  0
LINE
  5
26D
100
AcDbEntity
  8
RACCORDO
100
AcDbLine
 62
250
  6
CONTINUOUS
 10
-11.6586219842
 20
-21.0791634901
 11
-11.660369711
 21
-21.17301631
  0
LWPOLYLINE
  5
26E
100
AcDbEntity
  8
RACCORDO
100
AcDbPolyline
 62
250
  6
CONTINUOUS
 90
10
 70
0
 10
-11.660369711
 20
-21.17301631
 10
-11.662490096
 20
-21.2545308519
 10
-11.6636833754
 20
-21.2903062496
 10
-11.6649406723
 20
-21.3220570233
 10
-11.6662641097
 20
-21.3497009728
 10
-11.6676515644
 20
-21.3733202983
 10
-11.6690725921
 20
-21.3924361031
 10
-11.6705170445
 20
-21.4068887551
 10
-11.6719950698
 20
-21.4168378864
 10
-11.673506668
 20
-21.4222834971
  0
LWPOLYLINE
  5
26F
100
AcDbEntity
  8
0
100
AcDbPolyline
 62
7
  6
CONTINUOUS
 90
3
 70
0
 43
0.3500000019
 10
0.3745581055
 20
31.5771489258
 10
0.3031279297
 20
31.3628637695
 10
0.1602729492
 20
31.0771484375
  0
LWPOLYLINE
  5
270
100
AcDbEntity
  8
RACCORDO
100
AcDbPolyline
 62
250
  6
CONTINUOUS
 90
13
 70
0
 10
-11.1531569535
 20
-0.0695065333
 10
-11.1576340724
 20
-0.0733475669
 10
-11.1620353175
 20
-0.0839020476
 10
-11.166286101
 20
-0.1009911087
 10
-11.1703143849
 20
-0.1243251418
 10
-11.1740519018
 20
-0.1535087051
 10
-11.177435312
 20
-0.1880472249
 10
-11.1804072769
 20
-0.2273553769
 10
-11.1829174307
 20
-0.2707670059
 10
-11.1849232337
 20
-0.3175464152
 10
-11.1863906936
 20
-0.3669008342
 10
-11.1872949414
 20
-0.4179938536
 10
-11.1876206529
 20
-0.4699596002
  0
LWPOLYLINE
  5
271
100
AcDbEntity
  8
RACCORDO
100
AcDbPolyline
 62
250
  6
CONTINUOUS
 90
13
 70
0
 10
-11.153156949
 20
0.275800273
 10
-11.1576338024
 20
0.2796419194
 10
-11.1620347858
 20
0.290196891
 10
-11.166285317
 20
0.3072863156
 10
-11.1703133631
 20
0.3306205836
 10
-11.1740506619
 20
0.3598042557
 10
-11.177433878
 20
0.3943427644
 10
-11.1804056768
 20
0.4336507953
 10
-11.1829156953
 20
0.4770622064
 10
-11.1849213965
 20
0.5238413167
 10
-11.1863887897
 20
0.5731953738
 10
-11.1872930068
 20
0.6242879883
 10
-11.1876187236
 20
0.6762533082
  0
LWPOLYLINE
  5
272
100
AcDbEntity
  8
RACCORDO
100
AcDbPolyline
 62
250
  6
CONTINUOUS
 90
19
 70
0
 10
-5.7060251481
 20
-0.4730903975
 10
-5.6604830204
 20
-0.6028357735
 10
-5.6064629108
 20
-0.7280354583
 10
-5.543964566
 20
-0.8486894781
 10
-5.4725650947
 20
-0.9654166889
 10
-5.3926867702
 20
-1.0775982767
 10
-5.3055970946
 20
-1.1833777499
 10
-5.2112316889
 20
-1.2825802651
 10
-5.1096542956
 20
-1.3753806639
 10
-5.0023247097
 20
-1.4604469622
 10
-4.8891707955
 20
-1.5376771047
 10
-4.7702641616
 20
-1.6071731078
 10
-4.6472803892
 20
-1.6679090791
 10
-4.5200565258
 20
-1.71977832
 10
-4.3887552039
 20
-1.7628874629
 10
-4.2555406094
 20
-1.7965306045
 10
-4.1211341827
 20
-1.8204724175
 10
-3.9848144823
 20
-1.8349481511
 10
-3.8465815041
 20
-1.8399577649
  0
LWPOLYLINE
  5
273
100
AcDbEntity
  8
RACCORDO
100
AcDbPolyline
 62
250
  6
CONTINUOUS
 90
9
 70
0
 10
-11.673506667
 20
21.6285772346
 10
-11.6719950688
 20
21.6231316237
 10
-11.6705170436
 20
21.6131824922
 10
-11.6690725912
 20
21.5987298402
 10
-11.6676515635
 20
21.5796140355
 10
-11.6662641087
 20
21.5559947101
 10
-11.6649406714
 20
21.5283507607
 10
-11.6636833745
 20
21.496599987
 10
-11.662490095
 20
21.4608245893
  0
LINE
  5
274
100
AcDbEntity
  8
RACCORDO
100
AcDbLine
 62
250
  6
CONTINUOUS
 10
-3.8361561316
 20
-1.4218531303
 11
-3.8360015592
 21
-1.4380625047
  0
LINE
  5
275
100
AcDbEntity
  8
RACCORDO
100
AcDbLine
 62
250
  6
CONTINUOUS
 10
-3.8451711405
 20
1.8464501409
 11
-3.8462173725
 21
1.9429123313
  0
LINE
  5
276
100
AcDbEntity
  8
RACCORDO
100
AcDbLine
 62
250
  6
CONTINUOUS
 10
-3.8462173725
 20
1.9429123313
 11
-3.8465813568
 21
2.0462514771
  0
LINE
  5
277
100
AcDbEntity
  8
RACCORDO
100
AcDbLine
 62
250
  6
CONTINUOUS
 10
-3.8462174268
 20
-1.7366207681
 11
-3.8465815039
 21
-1.8399577648
  0
LINE
  5
278
100
AcDbEntity
  8
RACCORDO
100
AcDbLine
 62
250
  6
CONTINUOUS
 10
-3.8361564435
 20
1.6281468697
 11
-3.8359993617
 21
1.6443562444
  0
LWPOLYLINE
  5
279
100
AcDbEntity
  8
RACCORDO
100
AcDbPolyline
 62
7
  6
CONTINUOUS
 90
10
 70
0
 10
-5.2952038616
 20
0.5467746774
 10
-5.2962907294
 20
0.5432563455
 10
-5.2974109485
 20
0.5397440648
 10
-5.2985645755
 20
0.536237552
 10
-5.2997511139
 20
0.5327373315
 10
-5.300971173
 20
0.5292423124
 10
-5.3022264479
 20
0.5257497737
 10
-5.3035175181
 20
0.5222586021
 10
-5.3048438668
 20
0.5187693062
 10
-5.3062055252
 20
0.5152815831
  0
LWPOLYLINE
  5
27A
100
AcDbEntity
  8
RACCORDO
100
AcDbPolyline
 62
250
  6
CONTINUOUS
 90
13
 70
0
 10
-5.3075089599
 20
0.560180577
 10
-5.3221767043
 20
0.5205070542
 10
-5.3409520289
 20
0.4826038007
 10
-5.3636250407
 20
0.4468947046
 10
-5.3899423395
 20
0.4137790311
 10
-5.4196096141
 20
0.383627266
 10
-5.4522948336
 20
0.3567768763
 10
-5.4876323552
 20
0.3335281427
 10
-5.525227059
 20
0.3141409345
 10
-5.5646584526
 20
0.2988320262
 10
-5.6054855455
 20
0.2877725489
 10
-5.6472517914
 20
0.2810860975
 10
-5.6894901351
 20
0.2788473718
  0
LWPOLYLINE
  5
27B
100
AcDbEntity
  8
RACCORDO
100
AcDbPolyline
 62
250
  6
CONTINUOUS
 90
13
 70
0
 10
-5.6894901351
 20
-0.0725536325
 10
-5.6911098773
 20
-0.0765436931
 10
-5.6933474199
 20
-0.0871729315
 10
-5.6957902319
 20
-0.1040521587
 10
-5.6976762862
 20
-0.1271648983
 10
-5.6991836511
 20
-0.1564432507
 10
-5.7011398
 20
-0.1911352253
 10
-5.7027465385
 20
-0.2303480144
 10
-5.7035602358
 20
-0.2737339445
 10
-5.7047319651
 20
-0.3206609157
 10
-5.7062464338
 20
-0.3702268133
 10
-5.7068825609
 20
-0.4213866776
 10
-5.7060251481
 20
-0.4730903975
  0
LINE
  5
27C
100
AcDbEntity
  8
RACCORDO
100
AcDbLine
 62
250
  6
CONTINUOUS
 10
-5.68949014
 20
-0.0725536325
 11
-5.6778902516
 21
-0.0568531303
  0
LINE
  5
27D
100
AcDbEntity
  8
RACCORDO
100
AcDbLine
 62
250
  6
CONTINUOUS
 10
-5.3075089595
 20
-0.3538868388
 11
-5.2952038616
 21
-0.340480938
  0
LINE
  5
27E
100
AcDbEntity
  8
DRAFT
100
AcDbLine
 62
7
  6
CONTINUOUS
 10
-10.5611564435
 20
0.2360935795
 11
-10.5070457422
 21
0.2631468697
  0
LINE
  5
27F
100
AcDbEntity
  8
RACCORDO
100
AcDbLine
 62
250
  6
CONTINUOUS
 10
-11.6443696664
 20
0.6749384533
 11
-11.7611564435
 21
0.6360174338
  0
LINE
  5
280
100
AcDbEntity
  8
RACCORDO
100
AcDbLine
 62
250
  6
CONTINUOUS
 10
-11.2445067365
 20
0.274953684
 11
-11.3611107314
 21
0.2360935795
  0
LWPOLYLINE
  5
281
100
AcDbEntity
  8
0
100
AcDbPolyline
 62
7
  6
CONTINUOUS
 90
2
 70
0
 43
0.3500000019
 10
17.6931933594
 20
-3.1825674133
 10
16.1931972656
 20
-3.1825674133
  0
LINE
  5
282
100
AcDbEntity
  8
RACCORDO
100
AcDbLine
 62
250
  6
CONTINUOUS
 10
-11.7611564435
 20
-0.4297236944
 11
-11.6443696681
 21
-0.4686447133
  0
LINE
  5
283
100
AcDbEntity
  8
RACCORDO
100
AcDbLine
 62
250
  6
CONTINUOUS
 10
-11.3611107314
 20
-0.0297998402
 11
-11.2445067382
 21
-0.0686599441
  0
LINE
  5
284
100
AcDbEntity
  8
DRAFT
100
AcDbLine
 62
7
  6
CONTINUOUS
 10
-10.5070457422
 20
-0.0568531303
 11
-10.5611564435
 21
-0.0297998402
  0
LINE
  5
285
100
AcDbEntity
  8
RACCORDO
100
AcDbLine
 62
250
  6
CONTINUOUS
 10
-5.2952038616
 20
0.5467746774
 11
-5.3075089595
 21
0.5601805782
  0
LINE
  5
286
100
AcDbEntity
  8
RACCORDO
100
AcDbLine
 62
250
  6
CONTINUOUS
 10
-5.6778902516
 20
0.2631468697
 11
-5.68949014
 21
0.2788473718
  0
LWPOLYLINE
  5
287
100
AcDbEntity
  8
RACCORDO
100
AcDbPolyline
 62
7
  6
CONTINUOUS
 90
13
 70
0
 10
-5.3062055611
 20
-0.3089878737
 10
-5.3212243131
 20
-0.2755706036
 10
-5.3391829322
 20
-0.2438024795
 10
-5.3598928072
 20
-0.2139170409
 10
-5.3831199932
 20
-0.1861620117
 10
-5.4086706183
 20
-0.1607073805
 10
-5.4364148146
 20
-0.1376644951
 10
-5.4661323411
 20
-0.117228605
 10
-5.4975812349
 20
-0.0995644797
 10
-5.5306122785
 20
-0.0847557055
 10
-5.5650093782
 20
-0.0729434834
 10
-5.6004773594
 20
-0.0642978712
 10
-5.6367423919
 20
-0.0589424767
  0
LWPOLYLINE
  5
288
100
AcDbEntity
  8
RACCORDO
100
AcDbPolyline
 62
250
  6
CONTINUOUS
 90
13
 70
0
 10
-5.6894901351
 20
0.2788473718
 10
-5.6911100483
 20
0.2828370002
 10
-5.693347428
 20
0.2934651717
 10
-5.6957899347
 20
0.3103429351
 10
-5.6976758864
 20
0.3334540093
 10
-5.6991833502
 20
0.3627306956
 10
-5.7011394771
 20
0.3974213242
 10
-5.7027461481
 20
0.4366334973
 10
-5.7035599648
 20
0.4800196751
 10
-5.7047318382
 20
0.5269476297
 10
-5.70624639
 20
0.576515177
 10
-5.7068825816
 20
0.6276774169
 10
-5.7060251481
 20
0.6793841368
  0
LWPOLYLINE
  5
289
100
AcDbEntity
  8
RACCORDO
100
AcDbPolyline
 62
7
  6
CONTINUOUS
 90
10
 70
0
 10
-5.3062055497
 20
-0.3089878705
 10
-5.3048438794
 20
-0.3124755844
 10
-5.3035175219
 20
-0.3159648731
 10
-5.302226446
 20
-0.3194560397
 10
-5.3009711694
 20
-0.322948576
 10
-5.2997511117
 20
-0.326443595
 10
-5.2985645746
 20
-0.3299438153
 10
-5.297410948
 20
-0.3334503272
 10
-5.2962907291
 20
-0.336962607
 10
-5.2952038616
 20
-0.340480938
  0
LWPOLYLINE
  5
28A
100
AcDbEntity
  8
RACCORDO
100
AcDbPolyline
 62
250
  6
CONTINUOUS
 90
19
 70
0
 10
-5.3075089595
 20
-0.3538868388
 10
-5.2718533586
 20
-0.4559396252
 10
-5.2290634102
 20
-0.5553865549
 10
-5.1793193338
 20
-0.6517238031
 10
-5.1228025373
 20
-0.7445125203
 10
-5.0597919027
 20
-0.8332166549
 10
-4.9906995555
 20
-0.9172313634
 10
-4.9159322266
 20
-0.9960857568
 10
-4.8358171243
 20
-1.0694564643
 10
-4.7507146347
 20
-1.1370137934
 10
-4.6610488175
 20
-1.1984160282
 10
-4.5672594969
 20
-1.2533571424
 10
-4.4697511805
 20
-1.3015861515
 10
-4.3689241293
 20
-1.3428749246
 10
-4.265348065
 20
-1.3769609683
 10
-4.1597141747
 20
-1.4036172082
 10
-4.0526156844
 20
-1.4227213701
 10
-3.9445315267
 20
-1.4342154604
 10
-3.836001559
 20
-1.4380625194
  0
LWPOLYLINE
  5
28B
100
AcDbEntity
  8
RACCORDO
100
AcDbPolyline
 62
250
  6
CONTINUOUS
 90
10
 70
0
 10
-3.8361564435
 20
-1.4380624812
 10
-3.8375137974
 20
-1.4419215784
 10
-3.8388480431
 20
-1.4525245217
 10
-3.8401364656
 20
-1.4696908011
 10
-3.8413571302
 20
-1.4931281691
 10
-3.8424892556
 20
-1.522437616
 10
-3.843513568
 20
-1.5571201627
 10
-3.8444126289
 20
-1.5965853559
 10
-3.8451711323
 20
-1.6401613198
 10
-3.8462174268
 20
-1.7366207681
  0
LWPOLYLINE
  5
28C
100
AcDbEntity
  8
RACCORDO
100
AcDbPolyline
 62
250
  6
CONTINUOUS
 90
19
 70
0
 10
2.5242686171
 20
-1.8399577649
 10
2.6623870201
 20
-1.8349642195
 10
2.7986164489
 20
-1.8205078742
 10
2.932956907
 20
-1.7965887695
 10
3.0661335841
 20
-1.762974423
 10
3.1974212888
 20
-1.7198973949
 10
3.3246445844
 20
-1.6680552878
 10
3.4476433131
 20
-1.6073355484
 10
3.566577951
 20
-1.5378507963
 10
3.6797542421
 20
-1.4606363857
 10
3.7870893608
 20
-1.3755986957
 10
3.8886666607
 20
-1.282831386
 10
3.9830413237
 20
-1.1836507163
 10
4.0701560415
 20
-1.0778816582
 10
4.1500687578
 20
-0.965699242
 10
4.221507642
 20
-0.8489447953
 10
4.284048978
 20
-0.7282320771
 10
4.3381170999
 20
-0.6029472866
 10
4.3837122612
 20
-0.4730903975
  0
LWPOLYLINE
  5
28D
100
AcDbEntity
  8
RACCORDO
100
AcDbPolyline
 62
250
  6
CONTINUOUS
 90
19
 70
0
 10
2.5136864746
 20
-1.4380625199
 10
2.6221294366
 20
-1.4342217734
 10
2.7301442462
 20
-1.422743903
 10
2.8371917232
 20
-1.403662261
 10
2.9427951346
 20
-1.3770306331
 10
3.0463588163
 20
-1.3429679909
 10
3.1471849678
 20
-1.3017004783
 10
3.2447063913
 20
-1.2534866775
 10
3.3385182811
 20
-1.1985540331
 10
3.4282007654
 20
-1.1371620721
 10
3.5133057711
 20
-1.069625725
 10
3.5934202155
 20
-0.9962814239
 10
3.668196749
 20
-0.9174463231
 10
3.7373085273
 20
-0.833439514
 10
3.8003446095
 20
-0.7447327352
 10
3.8568947703
 20
-0.6519225681
 10
3.9066775465
 20
-0.5555409636
 10
3.9495060878
 20
-0.456027958
 10
3.9851960726
 20
-0.3538868388
  0
LINE
  5
28E
100
AcDbEntity
  8
DRAFT
100
AcDbLine
 62
7
  6
CONTINUOUS
 10
2.5138435565
 20
-1.4218531303
 11
-3.8361561316
 21
-1.4218531303
  0
LINE
  5
28F
100
AcDbEntity
  8
RACCORDO
100
AcDbLine
 62
250
  6
CONTINUOUS
 10
-3.8465815041
 20
-1.8399577649
 11
2.5242686171
 21
-1.8399577649
  0
LINE
  5
290
100
AcDbEntity
  8
RACCORDO
100
AcDbLine
 62
250
  6
CONTINUOUS
 10
-3.8360015592
 20
-1.4380625047
 11
2.5136864748
 21
-1.438062505
  0
LWPOLYLINE
  5
291
100
AcDbEntity
  8
RACCORDO
100
AcDbPolyline
 62
250
  6
CONTINUOUS
 90
9
 70
0
 10
-3.8361564409
 20
1.6443436297
 10
-3.8375138092
 20
1.6482029377
 10
-3.8388480679
 20
1.6588063625
 10
-3.8401365008
 20
1.675973377
 10
-3.8413571721
 20
1.699411707
 10
-3.8424892993
 20
1.7287223068
 10
-3.8435136072
 20
1.7634061533
 10
-3.8444126564
 20
1.8028727421
 10
-3.8451711405
 20
1.8464501409
  0
LINE
  5
292
100
AcDbEntity
  8
RACCORDO
100
AcDbLine
 62
250
  6
CONTINUOUS
 10
9.8513651186
 20
22.1278920039
 11
9.9186027677
 21
22.2624595754
  0
LINE
  5
293
100
AcDbEntity
  8
RACCORDO
100
AcDbLine
 62
250
  6
CONTINUOUS
 10
-11.673506668
 20
-21.4222834971
 11
-11.7415420762
 21
-21.5584476817
  0
LWPOLYLINE
  5
294
100
AcDbEntity
  8
RACCORDO
100
AcDbPolyline
 62
250
  6
CONTINUOUS
 90
4
 70
0
 10
-5.3630431849
 20
-0.3686281491
 10
-5.4124315359
 20
-0.3834534878
 10
-5.4421126865
 20
-0.3921100205
 10
-5.5094330144
 20
-0.4127189359
  0
LWPOLYLINE
  5
295
100
AcDbEntity
  8
RACCORDO
100
AcDbPolyline
 62
250
  6
CONTINUOUS
 90
6
 70
0
 10
-5.5094330144
 20
-0.4127189359
 10
-5.546390939
 20
-0.4237555852
 10
-5.5849835938
 20
-0.4356805807
 10
-5.6247490514
 20
-0.4483703156
 10
-5.665253701
 20
-0.4610013452
 10
-5.7060251481
 20
-0.4730903975
  0
LINE
  5
296
100
AcDbEntity
  8
RACCORDO
100
AcDbLine
 62
250
  6
CONTINUOUS
 10
4.0060927424
 20
0.5652271429
 11
4.040730298
 21
0.5749218885
  0
LWPOLYLINE
  5
297
100
AcDbEntity
  8
RACCORDO
100
AcDbPolyline
 62
7
  6
CONTINUOUS
 90
13
 70
0
 10
4.3144296198
 20
-0.0589424622
 10
4.2781646083
 20
-0.0642978388
 10
4.2426966363
 20
-0.0729434362
 10
4.2082995369
 20
-0.084755646
 10
4.175268487
 20
-0.099564409
 10
4.1438195815
 20
-0.1172285247
 10
4.1141020398
 20
-0.1376644093
 10
4.0863578251
 20
-0.1607072949
 10
4.0608071798
 20
-0.1861619314
 10
4.0375799749
 20
-0.2139169697
 10
4.0168700828
 20
-0.2438024211
 10
3.9989114481
 20
-0.2755705628
 10
3.9838926819
 20
-0.3089878559
  0
LWPOLYLINE
  5
298
100
AcDbEntity
  8
RACCORDO
100
AcDbPolyline
 62
7
  6
CONTINUOUS
 90
10
 70
0
 10
4.3144296198
 20
-0.058942686
 10
4.3190348223
 20
-0.0585010838
 10
4.3236307109
 20
-0.0581121359
 10
4.3282172858
 20
-0.0577758423
 10
4.3327932055
 20
-0.057492599
 10
4.3373598114
 20
-0.05726201
 10
4.3419211279
 20
-0.0570828875
 10
4.3464784963
 20
-0.0569548354
 10
4.3510305752
 20
-0.0568782496
 10
4.3555773647
 20
-0.0568531303
  0
LWPOLYLINE
  5
299
100
AcDbEntity
  8
RACCORDO
100
AcDbPolyline
 62
250
  6
CONTINUOUS
 90
13
 70
0
 10
9.9221938512
 20
0.2749536834
 10
9.9743767329
 20
0.2783862541
 10
10.0256674423
 20
0.2886015045
 10
10.0751886683
 20
0.3054248536
 10
10.1220933027
 20
0.3285686668
 10
10.1655790333
 20
0.3576372181
 10
10.204902043
 20
0.3921334944
 10
10.239389635
 20
0.4314676425
 10
10.2684516706
 20
0.4749669028
 10
10.2915908059
 20
0.5218871508
 10
10.308411092
 20
0.5714257757
 10
10.3186246991
 20
0.6227354434
 10
10.3220567811
 20
0.6749384527
  0
LWPOLYLINE
  5
29A
100
AcDbEntity
  8
RACCORDO
100
AcDbPolyline
 62
250
  6
CONTINUOUS
 90
5
 70
0
 10
9.9137438354
 20
-0.0689885068
 10
9.9172298078
 20
-0.0689095352
 10
9.9197795779
 20
-0.0688288215
 10
9.9214342585
 20
-0.0687456246
 10
9.9221938496
 20
-0.0686599446
  0
LWPOLYLINE
  5
29B
100
AcDbEntity
  8
RACCORDO
100
AcDbPolyline
 62
250
  6
CONTINUOUS
 90
4
 70
0
 10
-5.3075089599
 20
-0.3538868376
 10
-5.3103381459
 20
-0.3539390506
 10
-5.3173389122
 20
-0.3557078431
 10
-5.3284056294
 20
-0.3589334035
  0
LWPOLYLINE
  5
29C
100
AcDbEntity
  8
RACCORDO
100
AcDbPolyline
 62
250
  6
CONTINUOUS
 90
3
 70
0
 10
10.3101017214
 20
-0.4689048985
 10
10.3184235007
 20
-0.4687762081
 10
10.3220567795
 20
-0.4686447138
  0
LINE
  5
29D
100
AcDbEntity
  8
RACCORDO
100
AcDbLine
 62
250
  6
CONTINUOUS
 10
9.9042099603
 20
-0.0691367773
 11
9.9137438354
 21
-0.0689885068
  0
LINE
  5
29E
100
AcDbEntity
  8
RACCORDO
100
AcDbLine
 62
250
  6
CONTINUOUS
 10
9.8842443519
 20
-0.0693216615
 11
9.9042099603
 21
-0.0691367773
  0
LINE
  5
29F
100
AcDbEntity
  8
RACCORDO
100
AcDbLine
 62
250
  6
CONTINUOUS
 10
10.2580337101
 20
-0.4692700739
 11
10.3101017214
 21
-0.4689048985
  0
LINE
  5
2A0
100
AcDbEntity
  8
RACCORDO
100
AcDbLine
 62
250
  6
CONTINUOUS
 10
9.8405665832
 20
-0.0694948596
 11
9.8842443519
 21
-0.0693216615
  0
LINE
  5
2A1
100
AcDbEntity
  8
RACCORDO
100
AcDbLine
 62
250
  6
CONTINUOUS
 10
4.3837122612
 20
-0.4730903975
 11
10.2580337101
 21
-0.4692700739
  0
LINE
  5
2A2
100
AcDbEntity
  8
RACCORDO
100
AcDbLine
 62
250
  6
CONTINUOUS
 10
4.3671772531
 20
-0.0725536325
 11
9.8405665832
 21
-0.0694948596
  0
LINE
  5
2A3
100
AcDbEntity
  8
RACCORDO
100
AcDbLine
 62
250
  6
CONTINUOUS
 10
-5.68949014
 20
0.2788473718
 11
-11.1901580314
 21
0.2757072422
  0
LWPOLYLINE
  5
2A4
100
AcDbEntity
  8
0
100
AcDbPolyline
 62
7
  6
CONTINUOUS
 90
2
 70
0
 43
0.3500000019
 10
17.6931933594
 20
-0.8254245682
 10
16.1931972656
 20
-0.8254245682
  0
LINE
  5
2A5
100
AcDbEntity
  8
DRAFT
100
AcDbLine
 62
7
  6
CONTINUOUS
 10
9.1847328553
 20
-0.0568531303
 11
7.4388435565
 21
-0.0568531303
  0
LINE
  5
2A6
100
AcDbEntity
  8
RACCORDO
100
AcDbLine
 62
7
  6
CONTINUOUS
 10
7.4388435565
 20
-0.0568531303
 11
4.3555773647
 21
-0.0568531303
  0
LINE
  5
2A7
100
AcDbEntity
  8
RACCORDO
100
AcDbLine
 62
7
  6
CONTINUOUS
 10
-5.6778902516
 20
-0.0568531303
 11
-8.7611564435
 21
-0.0568531303
  0
LINE
  5
2A8
100
AcDbEntity
  8
DRAFT
100
AcDbLine
 62
7
  6
CONTINUOUS
 10
-8.7611564435
 20
-0.0568531303
 11
-10.5070457422
 21
-0.0568531303
  0
LINE
  5
2A9
100
AcDbEntity
  8
RACCORDO
100
AcDbLine
 62
7
  6
CONTINUOUS
 10
-11.3611107314
 20
-0.0297998402
 11
-10.5611564435
 21
-0.0297998402
  0
LINE
  5
2AA
100
AcDbEntity
  8
RACCORDO
100
AcDbLine
 62
7
  6
CONTINUOUS
 10
9.2388435565
 20
-0.0297998402
 11
10.0387978445
 21
-0.0297998402
  0
LINE
  5
2AB
100
AcDbEntity
  8
RACCORDO
100
AcDbLine
 62
7
  6
CONTINUOUS
 10
10.0387978445
 20
0.2360935795
 11
9.2388435565
 21
0.2360935795
  0
LINE
  5
2AC
100
AcDbEntity
  8
RACCORDO
100
AcDbLine
 62
7
  6
CONTINUOUS
 10
-10.5611564435
 20
0.2360935795
 11
-11.3611107314
 21
0.2360935795
  0
LINE
  5
2AD
100
AcDbEntity
  8
DRAFT
100
AcDbLine
 62
7
  6
CONTINUOUS
 10
-10.5070457422
 20
0.2631468697
 11
-8.7611564435
 21
0.2631468697
  0
LINE
  5
2AE
100
AcDbEntity
  8
RACCORDO
100
AcDbLine
 62
7
  6
CONTINUOUS
 10
-8.7611564435
 20
0.2631468697
 11
-5.6778902516
 21
0.2631468697
  0
LINE
  5
2AF
100
AcDbEntity
  8
RACCORDO
100
AcDbLine
 62
7
  6
CONTINUOUS
 10
4.3555773647
 20
0.2631468697
 11
7.4388435565
 21
0.2631468697
  0
LINE
  5
2B0
100
AcDbEntity
  8
DRAFT
100
AcDbLine
 62
7
  6
CONTINUOUS
 10
7.4388435565
 20
0.2631468697
 11
9.1847328553
 21
0.2631468697
  0
LINE
  5
2B1
100
AcDbEntity
  8
RACCORDO
100
AcDbLine
 62
250
  6
CONTINUOUS
 10
9.8678451462
 20
0.2757072417
 11
4.3671772531
 21
0.2788473718
  0
LINE
  5
2B2
100
AcDbEntity
  8
RACCORDO
100
AcDbLine
 62
250
  6
CONTINUOUS
 10
-11.5803465988
 20
-0.4692700782
 11
-5.7060251481
 21
-0.4730903975
  0
LINE
  5
2B3
100
AcDbEntity
  8
RACCORDO
100
AcDbLine
 62
250
  6
CONTINUOUS
 10
-11.1986495306
 20
-0.0693708038
 11
-5.68949014
 21
-0.0725536325
  0
LWPOLYLINE
  5
2B4
100
AcDbEntity
  8
RACCORDO
100
AcDbPolyline
 62
7
  6
CONTINUOUS
 90
10
 70
0
 10
-5.6778902517
 20
-0.0568531303
 10
-5.673343454
 20
-0.0568782497
 10
-5.6687913669
 20
-0.0569548357
 10
-5.6642339903
 20
-0.0570828883
 10
-5.6596726672
 20
-0.0572620161
 10
-5.6551060545
 20
-0.0574926106
 10
-5.6505301235
 20
-0.0577758456
 10
-5.6459435313
 20
-0.0581121127
 10
-5.6413476208
 20
-0.0585010204
 10
-5.6367423919
 20
-0.0589425688
  0
LWPOLYLINE
  5
2B5
100
AcDbEntity
  8
RACCORDO
100
AcDbPolyline
 62
7
  6
CONTINUOUS
 90
10
 70
0
 10
4.3555773647
 20
0.2631468697
 10
4.3510305671
 20
0.2631719891
 10
4.34647848
 20
0.2632485751
 10
4.3419211034
 20
0.2633766277
 10
4.3373597802
 20
0.2635557555
 10
4.3327931676
 20
0.2637863499
 10
4.3282172366
 20
0.264069585
 10
4.3236306444
 20
0.2644058521
 10
4.3190347338
 20
0.2647947598
 10
4.314429505
 20
0.2652363082
  0
LINE
  5
2B6
100
AcDbEntity
  8
RACCORDO
100
AcDbLine
 62
250
  6
CONTINUOUS
 10
-11.2205767429
 20
-0.0692036906
 11
-11.1986495306
 21
-0.0693708038
  0
LWPOLYLINE
  5
2B7
100
AcDbEntity
  8
RACCORDO
100
AcDbPolyline
 62
250
  6
CONTINUOUS
 90
5
 70
0
 10
3.985196073
 20
-0.3538868376
 10
3.988025721
 20
-0.3539389372
 10
3.9950274871
 20
-0.3557080456
 10
4.0060956371
 20
-0.3589341858
 10
4.0407371605
 20
-0.3686300534
  0
LWPOLYLINE
  5
2B8
100
AcDbEntity
  8
RACCORDO
100
AcDbPolyline
 62
250
  6
CONTINUOUS
 90
4
 70
0
 10
-11.6443696682
 20
-0.4686447133
 10
-11.6407363893
 20
-0.4687762086
 10
-11.6324146101
 20
-0.4689049
 10
-11.5803465988
 20
-0.4692700782
  0
LWPOLYLINE
  5
2B9
100
AcDbEntity
  8
RACCORDO
100
AcDbPolyline
 62
250
  6
CONTINUOUS
 90
13
 70
0
 10
-5.6894901351
 20
-0.0725536325
 10
-5.6472517914
 20
-0.0747923582
 10
-5.6054855455
 20
-0.0814788096
 10
-5.5646584526
 20
-0.0925382868
 10
-5.525227059
 20
-0.1078471951
 10
-5.4876323552
 20
-0.1272344034
 10
-5.4522948336
 20
-0.1504831369
 10
-5.4196096141
 20
-0.1773335266
 10
-5.3899423395
 20
-0.2074852917
 10
-5.3636250407
 20
-0.2406009652
 10
-5.3409520289
 20
-0.2763100614
 10
-5.3221767043
 20
-0.3142133148
 10
-5.3075089599
 20
-0.3538868376
  0
LWPOLYLINE
  5
2BA
100
AcDbEntity
  8
RACCORDO
100
AcDbPolyline
 62
250
  6
CONTINUOUS
 90
13
 70
0
 10
-11.2445067365
 20
0.274953684
 10
-11.2966917767
 20
0.2783865398
 10
-11.3479841757
 20
0.2886025384
 10
-11.3975065613
 20
0.3054269317
 10
-11.4444118376
 20
0.3285719335
 10
-11.4878976755
 20
0.3576416413
 10
-11.5272202365
 20
0.3921388088
 10
-11.5617068959
 20
0.4314733515
 10
-11.590767749
 20
0.4749724397
 10
-11.6139057007
 20
0.5218920083
 10
-11.6307249694
 20
0.5714294836
 10
-11.6409378562
 20
0.6227375118
 10
-11.6443696665
 20
0.6749384532
  0
LWPOLYLINE
  5
2BB
100
AcDbEntity
  8
RACCORDO
100
AcDbPolyline
 62
250
  6
CONTINUOUS
 90
7
 70
0
 10
-11.2445067382
 20
-0.0686599441
 10
-11.2437471471
 20
-0.0687456241
 10
-11.2420924666
 20
-0.0688288209
 10
-11.2395426965
 20
-0.0689095346
 10
-11.2360567241
 20
-0.0689885063
 10
-11.2316756622
 20
-0.0690649947
 10
-11.2205767429
 20
-0.0692036906
  0
LINE
  5
2BC
100
AcDbEntity
  8
RACCORDO
100
AcDbLine
 62
250
  6
CONTINUOUS
 10
-5.4124421469
 20
0.5897504434
 11
-5.4421245658
 21
0.5984073117
  0
LINE
  5
2BD
100
AcDbEntity
  8
RACCORDO
100
AcDbLine
 62
250
  6
CONTINUOUS
 10
-5.3630500474
 20
0.5749237927
 11
-5.4124421469
 21
0.5897504434
  0
LWPOLYLINE
  5
2BE
100
AcDbEntity
  8
RACCORDO
100
AcDbPolyline
 62
250
  6
CONTINUOUS
 90
7
 70
0
 10
-5.4421245658
 20
0.5984073117
 10
-5.5094453238
 20
0.6190164549
 10
-5.5464021798
 20
0.6300527893
 10
-5.5849930167
 20
0.641977195
 10
-5.6247559793
 20
0.6546661249
 10
-5.6652574569
 20
0.6672961639
 10
-5.7060251481
 20
0.6793841368
  0
LINE
  5
2BF
100
AcDbEntity
  8
RACCORDO
100
AcDbLine
 62
250
  6
CONTINUOUS
 10
9.9186027677
 20
-22.056165836
 11
9.851365119
 21
-21.9215982654
  0
LINE
  5
2C0
100
AcDbEntity
  8
RACCORDO
100
AcDbLine
 62
250
  6
CONTINUOUS
 10
-11.7415420762
 20
21.7647414211
 11
-11.673506667
 21
21.6285772346
  0
LINE
  5
2C1
100
AcDbEntity
  8
RACCORDO
100
AcDbLine
 62
250
  6
CONTINUOUS
 10
10.3511937811
 20
21.6285772365
 11
10.4192291893
 21
21.7647414211
  0
LINE
  5
2C2
100
AcDbEntity
  8
RACCORDO
100
AcDbLine
 62
250
  6
CONTINUOUS
 10
-11.1736780055
 20
-21.9215982645
 11
-11.2409156546
 21
-22.056165836
  0
LWPOLYLINE
  5
2C3
100
AcDbEntity
  8
RACCORDO
100
AcDbPolyline
 62
250
  6
CONTINUOUS
 90
4
 70
0
 10
4.040730298
 20
0.5749218885
 10
4.090118649
 20
0.5897472272
 10
4.1197997995
 20
0.5984037599
 10
4.1871201275
 20
0.6190126753
  0
LWPOLYLINE
  5
2C4
100
AcDbEntity
  8
RACCORDO
100
AcDbPolyline
 62
250
  6
CONTINUOUS
 90
6
 70
0
 10
4.1871201275
 20
0.6190126753
 10
4.2240780521
 20
0.6300493246
 10
4.2626707068
 20
0.6419743201
 10
4.3024361645
 20
0.654664055
 10
4.3429408141
 20
0.6672950845
 10
4.3837122612
 20
0.6793841368
  0
LINE
  5
2C5
100
AcDbEntity
  8
RACCORDO
100
AcDbLine
 62
250
  6
CONTINUOUS
 10
-5.3284056294
 20
-0.3589334035
 11
-5.3630431849
 21
-0.3686281491
  0
LWPOLYLINE
  5
2C6
100
AcDbEntity
  8
RACCORDO
100
AcDbPolyline
 62
7
  6
CONTINUOUS
 90
13
 70
0
 10
-5.6367425068
 20
0.2652362016
 10
-5.6004774952
 20
0.2705915782
 10
-5.5650095232
 20
0.2792371756
 10
-5.5306124239
 20
0.2910493853
 10
-5.4975813739
 20
0.3058581484
 10
-5.4661324684
 20
0.323522264
 10
-5.4364149267
 20
0.3439581487
 10
-5.408670712
 20
0.3670010343
 10
-5.3831200667
 20
0.3924556707
 10
-5.3598928618
 20
0.420210709
 10
-5.3391829698
 20
0.4500961605
 10
-5.321224335
 20
0.4818643022
 10
-5.3062055689
 20
0.5152815953
  0
LWPOLYLINE
  5
2C7
100
AcDbEntity
  8
RACCORDO
100
AcDbPolyline
 62
7
  6
CONTINUOUS
 90
10
 70
0
 10
-5.6367425068
 20
0.2652364254
 10
-5.6413477092
 20
0.2647948232
 10
-5.6459435979
 20
0.2644058753
 10
-5.6505301728
 20
0.2640695817
 10
-5.6551060925
 20
0.2637863384
 10
-5.6596726984
 20
0.2635557494
 10
-5.6642340148
 20
0.2633766269
 10
-5.6687913832
 20
0.2632485747
 10
-5.6733434622
 20
0.263171989
 10
-5.6778902516
 20
0.2631468697
  0
LWPOLYLINE
  5
2C8
100
AcDbEntity
  8
RACCORDO
100
AcDbPolyline
 62
250
  6
CONTINUOUS
 90
13
 70
0
 10
-11.2445067382
 20
-0.0686599441
 10
-11.2966896199
 20
-0.0720925147
 10
-11.3479803292
 20
-0.0823077652
 10
-11.3975015552
 20
-0.0991311143
 10
-11.4444061896
 20
-0.1222749275
 10
-11.4878919202
 20
-0.1513434787
 10
-11.5272149299
 20
-0.185839755
 10
-11.561702522
 20
-0.2251739031
 10
-11.5907645576
 20
-0.2686731634
 10
-11.6139036928
 20
-0.3155934114
 10
-11.630723979
 20
-0.3651320364
 10
-11.6409375861
 20
-0.416441704
 10
-11.644369668
 20
-0.4686447133
  0
LWPOLYLINE
  5
2C9
100
AcDbEntity
  8
RACCORDO
100
AcDbPolyline
 62
250
  6
CONTINUOUS
 90
19
 70
0
 10
-3.8359993615
 20
1.6443562592
 10
-3.9444423235
 20
1.6405155128
 10
-4.0524571332
 20
1.6290376424
 10
-4.1595046101
 20
1.6099560004
 10
-4.2651080216
 20
1.5833243725
 10
-4.3686717033
 20
1.5492617303
 10
-4.4694978548
 20
1.5079942177
 10
-4.5670192783
 20
1.4597804169
 10
-4.660831168
 20
1.4048477725
 10
-4.7505136523
 20
1.3434558115
 10
-4.835618658
 20
1.2759194644
 10
-4.9157331025
 20
1.2025751633
 10
-4.990509636
 20
1.1237400625
 10
-5.0596214142
 20
1.0397332534
 10
-5.1226574964
 20
0.9510264746
 10
-5.1792076572
 20
0.8582163075
 10
-5.2289904334
 20
0.761834703
 10
-5.2718189748
 20
0.6623216974
 10
-5.3075089595
 20
0.5601805782
  0
LWPOLYLINE
  5
2CA
100
AcDbEntity
  8
RACCORDO
100
AcDbPolyline
 62
250
  6
CONTINUOUS
 90
5
 70
0
 10
-11.2360567223
 20
0.2752822462
 10
-11.2395426947
 20
0.2752032746
 10
-11.2420924649
 20
0.2751225609
 10
-11.2437471454
 20
0.275039364
 10
-11.2445067365
 20
0.274953684
  0
LWPOLYLINE
  5
2CB
100
AcDbEntity
  8
RACCORDO
100
AcDbPolyline
 62
250
  6
CONTINUOUS
 90
4
 70
0
 10
3.985196073
 20
0.560180577
 10
3.988025259
 20
0.56023279
 10
3.9950260253
 20
0.5620015825
 10
4.0060927424
 20
0.5652271429
  0
LWPOLYLINE
  5
2CC
100
AcDbEntity
  8
RACCORDO
100
AcDbPolyline
 62
250
  6
CONTINUOUS
 90
3
 70
0
 10
-11.6324146084
 20
0.6751986379
 10
-11.6407363876
 20
0.6750699475
 10
-11.6443696665
 20
0.6749384532
  0
LINE
  5
2CD
100
AcDbEntity
  8
RACCORDO
100
AcDbLine
 62
250
  6
CONTINUOUS
 10
-11.2265228472
 20
0.2754305167
 11
-11.2360567223
 21
0.2752822462
  0
LINE
  5
2CE
100
AcDbEntity
  8
RACCORDO
100
AcDbLine
 62
250
  6
CONTINUOUS
 10
-11.2065572388
 20
0.2756154009
 11
-11.2265228472
 21
0.2754305167
  0
LINE
  5
2CF
100
AcDbEntity
  8
RACCORDO
100
AcDbLine
 62
250
  6
CONTINUOUS
 10
-11.5803465971
 20
0.6755638133
 11
-11.6324146084
 21
0.6751986379
  0
LINE
  5
2D0
100
AcDbEntity
  8
RACCORDO
100
AcDbLine
 62
250
  6
CONTINUOUS
 10
-11.1901580314
 20
0.2757072422
 11
-11.2065572388
 21
0.2756154009
  0
LINE
  5
2D1
100
AcDbEntity
  8
RACCORDO
100
AcDbLine
 62
250
  6
CONTINUOUS
 10
-5.7060251481
 20
0.6793841368
 11
-11.5803465971
 21
0.6755638133
  0
LINE
  5
2D2
100
AcDbEntity
  8
DRAFT
100
AcDbLine
 62
7
  6
CONTINUOUS
 10
-3.8361564435
 20
1.6281468697
 11
2.5138432447
 21
1.6281468697
  0
LINE
  5
2D3
100
AcDbEntity
  8
RACCORDO
100
AcDbLine
 62
250
  6
CONTINUOUS
 10
2.5136886722
 20
1.644356244
 11
-3.8359993617
 21
1.6443562444
  0
LINE
  5
2D4
100
AcDbEntity
  8
RACCORDO
100
AcDbLine
 62
250
  6
CONTINUOUS
 10
10.2580337119
 20
0.6755638176
 11
4.3837122612
 21
0.6793841368
  0
LINE
  5
2D5
100
AcDbEntity
  8
RACCORDO
100
AcDbLine
 62
250
  6
CONTINUOUS
 10
9.8982638559
 20
0.27549743
 11
9.8678451462
 21
0.2757072417
  0
LWPOLYLINE
  5
2D6
100
AcDbEntity
  8
RACCORDO
100
AcDbPolyline
 62
250
  6
CONTINUOUS
 90
5
 70
0
 10
-5.3075089599
 20
0.560180577
 10
-5.310338608
 20
0.5602326766
 10
-5.3173403741
 20
0.562001785
 10
-5.328408524
 20
0.5652279252
 10
-5.3630500474
 20
0.5749237927
  0
LWPOLYLINE
  5
2D7
100
AcDbEntity
  8
RACCORDO
100
AcDbPolyline
 62
250
  6
CONTINUOUS
 90
4
 70
0
 10
10.3220567812
 20
0.6749384527
 10
10.3184235024
 20
0.675069948
 10
10.3101017231
 20
0.6751986394
 10
10.2580337119
 20
0.6755638176
  0
LWPOLYLINE
  5
2D8
100
AcDbEntity
  8
RACCORDO
100
AcDbPolyline
 62
250
  6
CONTINUOUS
 90
13
 70
0
 10
4.3671772482
 20
0.2788473718
 10
4.3249389044
 20
0.2810860975
 10
4.2831726586
 20
0.2877725489
 10
4.2423455656
 20
0.2988320262
 10
4.2029141721
 20
0.3141409345
 10
4.1653194682
 20
0.3335281427
 10
4.1299819466
 20
0.3567768763
 10
4.0972967272
 20
0.383627266
 10
4.0676294526
 20
0.4137790311
 10
4.0413121537
 20
0.4468947046
 10
4.018639142
 20
0.4826038007
 10
3.9998638174
 20
0.5205070542
 10
3.985196073
 20
0.560180577
  0
LWPOLYLINE
  5
2D9
100
AcDbEntity
  8
RACCORDO
100
AcDbPolyline
 62
250
  6
CONTINUOUS
 90
13
 70
0
 10
9.9221938496
 20
-0.0686599446
 10
9.9743788898
 20
-0.0720928005
 10
10.0256712888
 20
-0.082308799
 10
10.0751936743
 20
-0.0991331923
 10
10.1220989506
 20
-0.1222781941
 10
10.1655847886
 20
-0.1513479019
 10
10.2049073495
 20
-0.1858450695
 10
10.239394009
 20
-0.2251796121
 10
10.268454862
 20
-0.2686787004
 10
10.2915928138
 20
-0.315598269
 10
10.3084120825
 20
-0.3651357442
 10
10.3186249693
 20
-0.4164437724
 10
10.3220567795
 20
-0.4686447138
  0
LWPOLYLINE
  5
2DA
100
AcDbEntity
  8
RACCORDO
100
AcDbPolyline
 62
250
  6
CONTINUOUS
 90
7
 70
0
 10
9.9221938512
 20
0.2749536834
 10
9.9214342602
 20
0.2750393635
 10
9.9197795797
 20
0.2751225603
 10
9.9172298096
 20
0.275203274
 10
9.9137438372
 20
0.2752822456
 10
9.9093627753
 20
0.2753587341
 10
9.8982638559
 20
0.27549743
  0
LINE
  5
2DB
100
AcDbEntity
  8
RACCORDO
100
AcDbLine
 62
250
  6
CONTINUOUS
 10
4.09012926
 20
-0.3834567041
 11
4.1198116789
 21
-0.3921135723
  0
LINE
  5
2DC
100
AcDbEntity
  8
RACCORDO
100
AcDbLine
 62
250
  6
CONTINUOUS
 10
4.0407371605
 20
-0.3686300534
 11
4.09012926
 21
-0.3834567041
  0
LWPOLYLINE
  5
2DD
100
AcDbEntity
  8
RACCORDO
100
AcDbPolyline
 62
250
  6
CONTINUOUS
 90
7
 70
0
 10
4.1198116789
 20
-0.3921135723
 10
4.1871324369
 20
-0.4127227155
 10
4.2240892928
 20
-0.4237590499
 10
4.2626801298
 20
-0.4356834556
 10
4.3024430924
 20
-0.4483723855
 10
4.3429445699
 20
-0.4610024245
 10
4.3837122612
 20
-0.4730903975
  0
LINE
  5
2DE
100
AcDbEntity
  8
RACCORDO
100
AcDbLine
 62
250
  6
CONTINUOUS
 10
10.4192291893
 20
-21.5584476817
 11
10.3511937801
 21
-21.4222834952
  0
LINE
  5
2DF
100
AcDbEntity
  8
RACCORDO
100
AcDbLine
 62
250
  6
CONTINUOUS
 10
-11.2409156546
 20
22.2624595754
 11
-11.173678006
 21
22.1278920048
  0
LINE
  5
2E0
100
AcDbEntity
  8
RACCORDO
100
AcDbLine
 62
250
  6
CONTINUOUS
 10
2.5138432447
 20
1.6281468697
 11
2.5136886722
 21
1.644356244
  0
LINE
  5
2E1
100
AcDbEntity
  8
RACCORDO
100
AcDbLine
 62
250
  6
CONTINUOUS
 10
2.5228582536
 20
-1.6401564016
 11
2.5239044856
 21
-1.7366185919
  0
LINE
  5
2E2
100
AcDbEntity
  8
RACCORDO
100
AcDbLine
 62
250
  6
CONTINUOUS
 10
2.5239044856
 20
-1.7366185919
 11
2.5242684698
 21
-1.8399577377
  0
LINE
  5
2E3
100
AcDbEntity
  8
RACCORDO
100
AcDbLine
 62
250
  6
CONTINUOUS
 10
2.5239045398
 20
1.9429145075
 11
2.524268617
 21
2.0462515042
  0
LINE
  5
2E4
100
AcDbEntity
  8
RACCORDO
100
AcDbLine
 62
250
  6
CONTINUOUS
 10
2.5138435565
 20
-1.4218531303
 11
2.5136864748
 21
-1.438062505
  0
LWPOLYLINE
  5
2E5
100
AcDbEntity
  8
RACCORDO
100
AcDbPolyline
 62
250
  6
CONTINUOUS
 90
10
 70
0
 10
2.5138435565
 20
1.6443562206
 10
2.5152009105
 20
1.6482153178
 10
2.5165351562
 20
1.658818261
 10
2.5178235787
 20
1.6759845404
 10
2.5190442432
 20
1.6994219085
 10
2.5201763687
 20
1.7287313553
 10
2.521200681
 20
1.7634139021
 10
2.522099742
 20
1.8028790953
 10
2.5228582454
 20
1.8464550592
 10
2.5239045398
 20
1.9429145075
  0
LINE
  5
2E6
100
AcDbEntity
  8
RACCORDO
100
AcDbLine
 62
250
  6
CONTINUOUS
 10
3.9851960726
 20
0.5601805782
 11
3.9728909746
 21
0.5467746774
  0
LINE
  5
2E7
100
AcDbEntity
  8
RACCORDO
100
AcDbLine
 62
250
  6
CONTINUOUS
 10
9.9221938496
 20
-0.0686599446
 11
10.0387978445
 21
-0.0297998402
  0
LWPOLYLINE
  5
2E8
100
AcDbEntity
  8
RACCORDO
100
AcDbPolyline
 62
250
  6
CONTINUOUS
 90
19
 70
0
 10
-3.8465815041
 20
2.0462515042
 10
-3.984699907
 20
2.0412579589
 10
-4.1209293359
 20
2.0268016136
 10
-4.2552697939
 20
2.0028825089
 10
-4.3884464711
 20
1.9692681624
 10
-4.5197341757
 20
1.9261911342
 10
-4.6469574714
 20
1.8743490272
 10
-4.7699562
 20
1.8136292878
 10
-4.8888908379
 20
1.7441445357
 10
-5.002067129
 20
1.6669301251
 10
-5.1094022478
 20
1.581892435
 10
-5.2109795477
 20
1.4891251254
 10
-5.3053542106
 20
1.3899444557
 10
-5.3924689284
 20
1.2841753976
 10
-5.4723816447
 20
1.1719929814
 10
-5.5438205289
 20
1.0552385347
 10
-5.6063618649
 20
0.9345258165
 10
-5.6604299869
 20
0.809241026
 10
-5.7060251481
 20
0.6793841368
  0
LINE
  5
2E9
100
AcDbEntity
  8
RACCORDO
100
AcDbLine
 62
250
  6
CONTINUOUS
 10
2.5242686171
 20
2.0462515042
 11
-3.8465815041
 21
2.0462515042
  0
LINE
  5
2EA
100
AcDbEntity
  8
RACCORDO
100
AcDbLine
 62
250
  6
CONTINUOUS
 10
10.0387978445
 20
0.2360935795
 11
9.9221938512
 21
0.2749536834
  0
LINE
  5
2EB
100
AcDbEntity
  8
RACCORDO
100
AcDbLine
 62
250
  6
CONTINUOUS
 10
3.9728909746
 20
-0.340480938
 11
3.9851960726
 21
-0.3538868388
  0
LWPOLYLINE
  5
2EC
100
AcDbEntity
  8
RACCORDO
100
AcDbPolyline
 62
250
  6
CONTINUOUS
 90
9
 70
0
 10
2.513843554
 20
-1.4380498903
 10
2.5152009222
 20
-1.4419091983
 10
2.5165351809
 20
-1.4525126231
 10
2.5178236139
 20
-1.4696796376
 10
2.5190442852
 20
-1.4931179676
 10
2.5201764124
 20
-1.5224285674
 10
2.5212007203
 20
-1.557112414
 10
2.5220997695
 20
-1.5965790027
 10
2.5228582536
 20
-1.6401564016
  0
LWPOLYLINE
  5
2ED
100
AcDbEntity
  8
RACCORDO
100
AcDbPolyline
 62
7
  6
CONTINUOUS
 90
10
 70
0
 10
3.9728909746
 20
-0.340480938
 10
3.9739778424
 20
-0.3369626061
 10
3.9750980616
 20
-0.3334503254
 10
3.9762516885
 20
-0.3299438126
 10
3.977438227
 20
-0.3264435921
 10
3.9786582861
 20
-0.322948573
 10
3.979913561
 20
-0.3194560343
 10
3.9812046312
 20
-0.3159648627
 10
3.9825309799
 20
-0.3124755668
 10
3.9838926383
 20
-0.3089878437
  0
LWPOLYLINE
  5
2EE
100
AcDbEntity
  8
RACCORDO
100
AcDbPolyline
 62
250
  6
CONTINUOUS
 90
13
 70
0
 10
3.985196073
 20
-0.3538868376
 10
3.9998638174
 20
-0.3142133148
 10
4.018639142
 20
-0.2763100614
 10
4.0413121537
 20
-0.2406009652
 10
4.0676294526
 20
-0.2074852917
 10
4.0972967272
 20
-0.1773335266
 10
4.1299819466
 20
-0.1504831369
 10
4.1653194682
 20
-0.1272344034
 10
4.2029141721
 20
-0.1078471951
 10
4.2423455656
 20
-0.0925382868
 10
4.2831726586
 20
-0.0814788096
 10
4.3249389044
 20
-0.0747923582
 10
4.3671772482
 20
-0.0725536325
  0
LWPOLYLINE
  5
2EF
100
AcDbEntity
  8
RACCORDO
100
AcDbPolyline
 62
250
  6
CONTINUOUS
 90
13
 70
0
 10
4.3671772482
 20
0.2788473718
 10
4.3687969903
 20
0.2828374325
 10
4.371034533
 20
0.2934666708
 10
4.373477345
 20
0.3103458981
 10
4.3753633993
 20
0.3334586377
 10
4.3768707641
 20
0.3627369901
 10
4.378826913
 20
0.3974289647
 10
4.3804336515
 20
0.4366417538
 10
4.3812473489
 20
0.4800276839
 10
4.3824190782
 20
0.5269546551
 10
4.3839335469
 20
0.5765205526
 10
4.384569674
 20
0.6276804169
 10
4.3837122612
 20
0.6793841368
  0
LINE
  5
2F0
100
AcDbEntity
  8
RACCORDO
100
AcDbLine
 62
250
  6
CONTINUOUS
 10
4.3671772531
 20
0.2788473718
 11
4.3555773647
 21
0.2631468697
  0
LINE
  5
2F1
100
AcDbEntity
  8
DRAFT
100
AcDbLine
 62
7
  6
CONTINUOUS
 10
9.2388435565
 20
-0.0297998402
 11
9.1847328553
 21
-0.0568531303
  0
LINE
  5
2F2
100
AcDbEntity
  8
RACCORDO
100
AcDbLine
 62
250
  6
CONTINUOUS
 10
10.3220567795
 20
-0.4686447139
 11
10.4388435565
 21
-0.4297236944
  0
LINE
  5
2F3
100
AcDbEntity
  8
RACCORDO
100
AcDbLine
 62
250
  6
CONTINUOUS
 10
10.4388435565
 20
0.6360174338
 11
10.3220567811
 21
0.6749384527
  0
LINE
  5
2F4
100
AcDbEntity
  8
DRAFT
100
AcDbLine
 62
7
  6
CONTINUOUS
 10
9.1847328553
 20
0.2631468697
 11
9.2388435565
 21
0.2360935795
  0
LINE
  5
2F5
100
AcDbEntity
  8
RACCORDO
100
AcDbLine
 62
250
  6
CONTINUOUS
 10
4.3555773647
 20
-0.0568531303
 11
4.3671772531
 21
-0.0725536325
  0
LWPOLYLINE
  5
2F6
100
AcDbEntity
  8
RACCORDO
100
AcDbPolyline
 62
7
  6
CONTINUOUS
 90
13
 70
0
 10
3.9838926742
 20
0.5152816131
 10
3.9989114262
 20
0.481864343
 10
4.0168700452
 20
0.4500962189
 10
4.0375799203
 20
0.4202107803
 10
4.0608071062
 20
0.3924557511
 10
4.0863577314
 20
0.3670011198
 10
4.1141019277
 20
0.3439582345
 10
4.1438194542
 20
0.3235223443
 10
4.175268348
 20
0.3058582191
 10
4.2082993915
 20
0.2910494449
 10
4.2426964913
 20
0.2792372228
 10
4.2781644725
 20
0.2705916106
 10
4.314429505
 20
0.265236216
  0
LWPOLYLINE
  5
2F7
100
AcDbEntity
  8
RACCORDO
100
AcDbPolyline
 62
250
  6
CONTINUOUS
 90
13
 70
0
 10
4.3671772482
 20
-0.0725536325
 10
4.3687971614
 20
-0.0765432608
 10
4.3710345411
 20
-0.0871714323
 10
4.3734770478
 20
-0.1040491957
 10
4.3753629994
 20
-0.1271602699
 10
4.3768704632
 20
-0.1564369563
 10
4.3788265902
 20
-0.1911275848
 10
4.3804332611
 20
-0.2303397579
 10
4.3812470779
 20
-0.2737259358
 10
4.3824189513
 20
-0.3206538903
 10
4.3839335031
 20
-0.3702214377
 10
4.3845696947
 20
-0.4213836775
 10
4.3837122612
 20
-0.4730903975
  0
LWPOLYLINE
  5
2F8
100
AcDbEntity
  8
RACCORDO
100
AcDbPolyline
 62
7
  6
CONTINUOUS
 90
10
 70
0
 10
3.9838926628
 20
0.5152816099
 10
3.9825309925
 20
0.5187693238
 10
3.981204635
 20
0.5222586125
 10
3.979913559
 20
0.525749779
 10
3.9786582825
 20
0.5292423154
 10
3.9774382248
 20
0.5327373344
 10
3.9762516876
 20
0.5362375547
 10
3.975098061
 20
0.5397440666
 10
3.9739778422
 20
0.5432563464
 10
3.9728909746
 20
0.5467746774
  0
LWPOLYLINE
  5
2F9
100
AcDbEntity
  8
RACCORDO
100
AcDbPolyline
 62
250
  6
CONTINUOUS
 90
19
 70
0
 10
4.3837122612
 20
0.6793841368
 10
4.3381701334
 20
0.8091295129
 10
4.2841500239
 20
0.9343291976
 10
4.2216516791
 20
1.0549832175
 10
4.1502522078
 20
1.1717104283
 10
4.0703738833
 20
1.2838920161
 10
3.9832842077
 20
1.3896714893
 10
3.8889188019
 20
1.4888740045
 10
3.7873414087
 20
1.5816744033
 10
3.6800118228
 20
1.6667407016
 10
3.5668579085
 20
1.7439708441
 10
3.4479512747
 20
1.8134668472
 10
3.3249675023
 20
1.8742028185
 10
3.1977436388
 20
1.9260720593
 10
3.066442317
 20
1.9691812023
 10
2.9332277225
 20
2.0028243439
 10
2.7988212957
 20
2.0267661568
 10
2.6625015954
 20
2.0412418905
 10
2.5242686171
 20
2.0462515042
  0
LWPOLYLINE
  5
2FA
100
AcDbEntity
  8
RACCORDO
100
AcDbPolyline
 62
250
  6
CONTINUOUS
 90
19
 70
0
 10
3.9851960726
 20
0.5601805782
 10
3.9495404717
 20
0.6622333646
 10
3.9067505233
 20
0.7616802943
 10
3.8570064469
 20
0.8580175425
 10
3.8004896503
 20
0.9508062597
 10
3.7374790158
 20
1.0395103943
 10
3.6683866686
 20
1.1235251028
 10
3.5936193396
 20
1.2023794962
 10
3.5135042374
 20
1.2757502037
 10
3.4284017478
 20
1.3433075327
 10
3.3387359306
 20
1.4047097675
 10
3.24494661
 20
1.4596508818
 10
3.1474382936
 20
1.5078798909
 10
3.0466112424
 20
1.549168664
 10
2.9430351781
 20
1.5832547077
 10
2.8374012878
 20
1.6099109475
 10
2.7303027975
 20
1.6290151095
 10
2.6222186398
 20
1.6405091998
 10
2.513688672
 20
1.6443562588
  0
LWPOLYLINE
  5
2FB
100
AcDbEntity
  8
RACCORDO
100
AcDbPolyline
 62
250
  6
CONTINUOUS
 90
9
 70
0
 10
10.3511937801
 20
-21.4222834952
 10
10.3496821819
 20
-21.4168378843
 10
10.3482041566
 20
-21.4068887529
 10
10.3467597042
 20
-21.3924361008
 10
10.3453386766
 20
-21.3733202961
 10
10.3439512218
 20
-21.3497009707
 10
10.3426277844
 20
-21.3220570214
 10
10.3413704875
 20
-21.2903062477
 10
10.3401772081
 20
-21.2545308499
  0
LWPOLYLINE
  5
2FC
100
AcDbEntity
  8
RACCORDO
100
AcDbPolyline
 62
250
  6
CONTINUOUS
 90
13
 70
0
 10
9.8308440666
 20
0.2758002727
 10
9.8353211855
 20
0.2796413063
 10
9.8397224306
 20
0.290195787
 10
9.8439732141
 20
0.3072848481
 10
9.8480014979
 20
0.3306188812
 10
9.8517390148
 20
0.3598024445
 10
9.855122425
 20
0.3943409643
 10
9.85809439
 20
0.4336491163
 10
9.8606045437
 20
0.4770607453
 10
9.8626103467
 20
0.5238401546
 10
9.8640778067
 20
0.5731945736
 10
9.8649820545
 20
0.624287593
 10
9.8653077659
 20
0.6762533396
  0
LWPOLYLINE
  5
2FD
100
AcDbEntity
  8
0
100
AcDbPolyline
 62
7
  6
CONTINUOUS
 90
3
 70
0
 43
0.3500000019
 10
17.4074780273
 20
1.2460040359
 10
17.6217685547
 20
1.1745754547
 10
17.9074785156
 20
1.0317182922
  0
LWPOLYLINE
  5
2FE
100
AcDbEntity
  8
RACCORDO
100
AcDbPolyline
 62
250
  6
CONTINUOUS
 90
13
 70
0
 10
9.8308440621
 20
-0.0695065336
 10
9.8353209155
 20
-0.07334818
 10
9.8397218989
 20
-0.0839031516
 10
9.84397243
 20
-0.1009925762
 10
9.8480004762
 20
-0.1243268442
 10
9.851737775
 20
-0.1535105163
 10
9.8551209911
 20
-0.188049025
 10
9.8580927898
 20
-0.2273570559
 10
9.8606028084
 20
-0.270768467
 10
9.8626085096
 20
-0.3175475773
 10
9.8640759028
 20
-0.3669016344
 10
9.8649801198
 20
-0.4179942489
 10
9.8653058366
 20
-0.4699595688
  0
LWPOLYLINE
  5
2FF
100
AcDbEntity
  8
0
100
AcDbPolyline
 62
7
  6
CONTINUOUS
 90
10
 70
0
 43
0.3500000019
 10
17.1931928711
 20
1.1745754547
 10
17.3360532227
 20
1.2460040359
 10
17.4074780273
 20
1.2460040359
 10
17.5503383789
 20
1.1031468735
 10
17.5503383789
 20
1.0317182922
 10
17.4789082031
 20
0.960289711
 10
17.4074780273
 20
0.960289711
 10
17.2646230469
 20
1.0317182922
 10
17.1931928711
 20
1.1031468735
 10
17.1931928711
 20
1.1745754547
  0
LWPOLYLINE
  5
300
100
AcDbEntity
  8
RACCORDO
100
AcDbPolyline
 62
250
  6
CONTINUOUS
 90
6
 70
0
 10
9.857703026
 20
22.0033408765
 10
9.8564998104
 20
22.0436197599
 10
9.8552310381
 20
22.0764137846
 10
9.8539064983
 20
22.1014982307
 10
9.8526030056
 20
22.1186979311
 10
9.8513651186
 20
22.1278920039
  0
LINE
  5
301
100
AcDbEntity
  8
RACCORDO
100
AcDbLine
 62
250
  6
CONTINUOUS
 10
10.3401772081
 20
-21.2545308499
 11
10.3380568231
 21
-21.1730163079
  0
LINE
  5
302
100
AcDbEntity
  8
RACCORDO
100
AcDbLine
 62
250
  6
CONTINUOUS
 10
9.8600499805
 20
21.9014555499
 11
9.857703026
 21
22.0033408765
  0
LINE
  5
303
100
AcDbEntity
  8
RACCORDO
100
AcDbLine
 62
250
  6
CONTINUOUS
 10
10.3380568231
 20
-21.1730163079
 11
10.3363090963
 21
-21.0791634881
  0
LINE
  5
304
100
AcDbEntity
  8
RACCORDO
100
AcDbLine
 62
250
  6
CONTINUOUS
 10
9.8631165889
 20
21.7008174062
 11
9.8600499805
 21
21.9014555499
  0
LINE
  5
305
100
AcDbEntity
  8
RACCORDO
100
AcDbLine
 62
250
  6
CONTINUOUS
 10
10.3363090963
 20
-21.0791634881
 11
10.3349915883
 21
-20.9756556359
  0
LINE
  5
306
100
AcDbEntity
  8
RACCORDO
100
AcDbLine
 62
250
  6
CONTINUOUS
 10
9.8661552763
 20
21.3638045685
 11
9.8631165889
 21
21.7008174062
  0
LINE
  5
307
100
AcDbEntity
  8
RACCORDO
100
AcDbLine
 62
250
  6
CONTINUOUS
 10
10.3349915883
 20
-20.9756556359
 11
10.3341399077
 21
-20.8665161761
  0
LINE
  5
308
100
AcDbEntity
  8
RACCORDO
100
AcDbLine
 62
250
  6
CONTINUOUS
 10
9.8677462611
 20
20.98055143
 11
9.8661552763
 21
21.3638045685
  0
LINE
  5
309
100
AcDbEntity
  8
RACCORDO
100
AcDbLine
 62
7
  6
CONTINUOUS
 10
10.4192291893
 20
21.7647414211
 11
10.4388435565
 21
13.2031468697
  0
LINE
  5
30A
100
AcDbEntity
  8
RACCORDO
100
AcDbLine
 62
250
  6
CONTINUOUS
 10
10.3341399077
 20
-20.8665161761
 11
10.3273127567
 21
-13.8769910986
  0
LINE
  5
30B
100
AcDbEntity
  8
RACCORDO
100
AcDbLine
 62
250
  6
CONTINUOUS
 10
10.3273127567
 20
-13.8769910986
 11
10.3227921076
 21
-5.0884660411
  0
LINE
  5
30C
100
AcDbEntity
  8
RACCORDO
100
AcDbLine
 62
250
  6
CONTINUOUS
 10
10.3227921076
 20
-5.0884660411
 11
10.3220567795
 21
-0.4686447139
  0
LINE
  5
30D
100
AcDbEntity
  8
RACCORDO
100
AcDbLine
 62
7
  6
CONTINUOUS
 10
10.4388435565
 20
13.2031468697
 11
10.4388435565
 21
0.6360174338
  0
LINE
  5
30E
100
AcDbEntity
  8
RACCORDO
100
AcDbLine
 62
7
  6
CONTINUOUS
 10
10.4388435565
 20
-0.4297236944
 11
10.4388435565
 21
-12.9968531303
  0
LINE
  5
30F
100
AcDbEntity
  8
RACCORDO
100
AcDbLine
 62
250
  6
CONTINUOUS
 10
9.8653076021
 20
0.6762533398
 11
9.8677462523
 21
20.9805514305
  0
LINE
  5
310
100
AcDbEntity
  8
RACCORDO
100
AcDbLine
 62
250
  6
CONTINUOUS
 10
10.3220567811
 20
0.6749384527
 11
10.3254362629
 21
11.3518044159
  0
LINE
  5
311
100
AcDbEntity
  8
RACCORDO
100
AcDbLine
 62
7
  6
CONTINUOUS
 10
10.4192291893
 20
-21.5584476817
 11
10.4388435565
 21
-12.9968531303
  0
LINE
  5
312
100
AcDbEntity
  8
RACCORDO
100
AcDbLine
 62
250
  6
CONTINUOUS
 10
9.86716185
 20
-20.9692023487
 11
9.8653075776
 21
-0.4699595972
  0
LINE
  5
313
100
AcDbEntity
  8
RACCORDO
100
AcDbLine
 62
250
  6
CONTINUOUS
 10
10.3254362629
 20
11.3518044159
 11
10.3341399085
 21
21.0728099178
  0
LINE
  5
314
100
AcDbEntity
  8
RACCORDO
100
AcDbLine
 62
250
  6
CONTINUOUS
 10
9.8647973931
 20
-21.3341669331
 11
9.86716185
 21
-20.9692023487
  0
LINE
  5
315
100
AcDbEntity
  8
RACCORDO
100
AcDbLine
 62
250
  6
CONTINUOUS
 10
10.3341399085
 20
21.0728099178
 11
10.3349915893
 21
21.1819493773
  0
LINE
  5
316
100
AcDbEntity
  8
RACCORDO
100
AcDbLine
 62
250
  6
CONTINUOUS
 10
9.8621470938
 20
-21.5672126241
 11
9.8647973931
 21
-21.3341669331
  0
LINE
  5
317
100
AcDbEntity
  8
RACCORDO
100
AcDbLine
 62
250
  6
CONTINUOUS
 10
10.3349915893
 20
21.1819493773
 11
10.3363090972
 21
21.2854572295
  0
LINE
  5
318
100
AcDbEntity
  8
RACCORDO
100
AcDbLine
 62
250
  6
CONTINUOUS
 10
9.8600499718
 20
-21.695161809
 11
9.8621470938
 21
-21.5672126241
  0
LINE
  5
319
100
AcDbEntity
  8
RACCORDO
100
AcDbLine
 62
250
  6
CONTINUOUS
 10
10.3363090972
 20
21.2854572295
 11
10.3380568241
 21
21.3793100494
  0
LWPOLYLINE
  5
31A
100
AcDbEntity
  8
RACCORDO
100
AcDbPolyline
 62
250
  6
CONTINUOUS
 90
10
 70
0
 10
10.3380568241
 20
21.3793100494
 10
10.340177209
 20
21.4608245913
 10
10.3413704885
 20
21.496599989
 10
10.3426277854
 20
21.5283507627
 10
10.3439512227
 20
21.5559947122
 10
10.3453386775
 20
21.5796140377
 10
10.3467597052
 20
21.5987298425
 10
10.3482041576
 20
21.6131824945
 10
10.3496821829
 20
21.6231316258
 10
10.3511937811
 20
21.6285772365
  0
LWPOLYLINE
  5
31B
100
AcDbEntity
  8
RACCORDO
100
AcDbPolyline
 62
250
  6
CONTINUOUS
 90
7
 70
0
 10
9.8513651176
 20
-21.9215982626
 10
9.8526030035
 20
-21.9124041907
 10
9.8539064951
 20
-21.8952044917
 10
9.8552310337
 20
-21.8701200469
 10
9.8564998049
 20
-21.8373260226
 10
9.8577030193
 20
-21.7970471381
 10
9.8600499718
 20
-21.695161809
  0
LWPOLYLINE
  5
31C
100
AcDbEntity
  8
0
100
AcDbPolyline
 62
7
  6
CONTINUOUS
 90
10
 70
0
 43
0.3500000019
 10
0.3031279297
 20
31.791434082
 10
0.3745581055
 20
31.648576416
 10
0.3745581055
 20
31.5771489258
 10
0.231703125
 20
31.4342912598
 10
0.1602729492
 20
31.4342912598
 10
0.0888427734
 20
31.5057214355
 10
0.0888427734
 20
31.5771489258
 10
0.1602729492
 20
31.7200065918
 10
0.231703125
 20
31.791434082
 10
0.3031279297
 20
31.791434082
  0
LWPOLYLINE
  5
31D
100
AcDbEntity
  8
0
100
AcDbPolyline
 62
7
  6
CONTINUOUS
 90
5
 70
0
 43
0.3500000019
 10
15.9789067383
 20
3.1031467285
 10
15.764621582
 20
3.4602898865
 10
15.1217661133
 20
3.4602898865
 10
14.6931958008
 20
3.1031467285
 10
14.6931958008
 20
2.2460040894
  0
LWPOLYLINE
  5
31E
100
AcDbEntity
  8
0
100
AcDbPolyline
 62
7
  6
CONTINUOUS
 90
3
 70
0
 43
0.3500000019
 10
17.0503378906
 20
-0.3254245625
 10
17.0503378906
 20
-1.8254246216
 10
14.6931958008
 20
-1.1825673904
  0
LWPOLYLINE
  5
31F
100
AcDbEntity
  8
0
100
AcDbPolyline
 62
7
  6
CONTINUOUS
 90
3
 70
0
 43
0.3500000019
 10
17.0503378906
 20
-2.6825674286
 10
17.0503378906
 20
-4.1825673828
 10
14.6931958008
 20
-3.5397102356
  0
LWPOLYLINE
  5
320
100
AcDbEntity
  8
0
100
AcDbPolyline
 62
7
  6
CONTINUOUS
 90
6
 70
0
 43
0.3500000019
 10
17.6931933594
 20
2.2460040894
 10
17.6931933594
 20
3.3174325562
 10
17.4789082031
 20
3.5317183838
 10
16.4074824219
 20
3.5317183838
 10
15.9789067383
 20
3.1031467285
 10
15.9789067383
 20
2.6745754089
  0
LINE
  5
321
100
AcDbEntity
  8
DRAFT
100
AcDbLine
 62
7
  6
CONTINUOUS
 10
6.7388435565
 20
22.2253856395
 11
7.1472685495
 21
22.2624595754
  0
LWPOLYLINE
  5
322
100
AcDbEntity
  8
RACCORDO
100
AcDbPolyline
 62
250
  6
CONTINUOUS
 90
13
 70
0
 10
-11.1900591329
 20
20.9805514449
 10
-11.251048038
 20
20.9801432297
 10
-11.3106026717
 20
20.9794181297
 10
-11.3678219845
 20
20.9783871154
 10
-11.4218402597
 20
20.9770657859
 10
-11.4718402118
 20
20.9754741326
 10
-11.5170653518
 20
20.9736362367
 10
-11.5568314323
 20
20.9715799053
 10
-11.5905368007
 20
20.9693362503
 10
-11.6176715016
 20
20.9669392176
 10
-11.6378249924
 20
20.9644250739
 10
-11.650692355
 20
20.9618318575
 10
-11.6560789086
 20
20.9591988035
  0
LINE
  5
323
100
AcDbEntity
  8
RACCORDO
100
AcDbLine
 62
250
  6
CONTINUOUS
 10
9.8677462523
 20
20.9805514305
 11
5.0947168285
 21
20.9754753619
  0
LINE
  5
324
100
AcDbEntity
  8
RACCORDO
100
AcDbLine
 62
250
  6
CONTINUOUS
 10
5.0947168285
 20
20.9754753619
 11
0.3174348993
 21
20.9733784254
  0
LINE
  5
325
100
AcDbEntity
  8
RACCORDO
100
AcDbLine
 62
250
  6
CONTINUOUS
 10
0.3174348993
 20
20.9733784254
 11
-5.1466855577
 21
20.9746261506
  0
LINE
  5
326
100
AcDbEntity
  8
RACCORDO
100
AcDbLine
 62
250
  6
CONTINUOUS
 10
-5.1466855577
 20
20.9746261506
 11
-11.1900591331
 21
20.9805514255
  0
LWPOLYLINE
  5
327
100
AcDbEntity
  8
RACCORDO
100
AcDbPolyline
 62
250
  6
CONTINUOUS
 90
13
 70
0
 10
9.8677449105
 20
20.9805505951
 10
9.9287328879
 20
20.9801423993
 10
9.9882866787
 20
20.9794173335
 10
10.0455052745
 20
20.9783863674
 10
10.099522997
 20
20.977065099
 10
10.1495225946
 20
20.9754735179
 10
10.1947476076
 20
20.973635703
 10
10.2345138121
 20
20.9715794588
 10
10.2682195726
 20
20.9693358952
 10
10.2953549439
 20
20.9669389558
 10
10.3155093863
 20
20.9644249044
 10
10.3283779766
 20
20.9618317771
 10
10.333766022
 20
20.9591988062
  0
LINE
  5
328
100
AcDbEntity
  8
DRAFT
100
AcDbLine
 62
7
  6
CONTINUOUS
 10
-8.0611564435
 20
22.2253856395
 11
-8.4695814364
 21
22.2624595754
  0
LINE
  5
329
100
AcDbEntity
  8
DRAFT
100
AcDbLine
 62
7
  6
CONTINUOUS
 10
-4.4611564435
 20
22.2253856395
 11
-4.0527314505
 21
22.2624595754
  0
LWPOLYLINE
  5
32A
100
AcDbEntity
  8
RACCORDO
100
AcDbPolyline
 62
250
  6
CONTINUOUS
 90
16
 70
0
 10
-11.1736780045
 20
22.1278920019
 10
-11.2258799742
 20
22.1250899201
 10
-11.2775108843
 20
22.11685723
 10
-11.3280060265
 20
22.1032840076
 10
-11.3768131425
 20
22.0845187299
 10
-11.4233983956
 20
22.0607666752
 10
-11.46725222
 20
22.0322876996
 10
-11.507894991
 20
21.9993933422
 10
-11.5448822363
 20
21.9624434109
 10
-11.5778094419
 20
21.921842094
 10
-11.6063165215
 20
21.8780335048
 10
-11.630091757
 20
21.8314967997
 10
-11.648875183
 20
21.7827409565
 10
-11.662461423
 20
21.7322992235
 10
-11.6707019402
 20
21.6807232901
 10
-11.673506667
 20
21.6285772346
  0
LINE
  5
32B
100
AcDbEntity
  8
RACCORDO
100
AcDbLine
 62
250
  6
CONTINUOUS
 10
9.8513651186
 20
22.1278920039
 11
6.4487309428
 21
22.1176708563
  0
LINE
  5
32C
100
AcDbEntity
  8
RACCORDO
100
AcDbLine
 62
250
  6
CONTINUOUS
 10
6.4487309428
 20
22.1176708563
 11
3.0447283207
 21
22.1113995134
  0
LINE
  5
32D
100
AcDbEntity
  8
RACCORDO
100
AcDbLine
 62
250
  6
CONTINUOUS
 10
3.0447283207
 20
22.1113995134
 11
-0.3611633656
 21
22.1090760588
  0
LINE
  5
32E
100
AcDbEntity
  8
DRAFT
100
AcDbLine
 62
7
  6
CONTINUOUS
 10
-8.0611564435
 20
22.2253856395
 11
-4.4611564435
 21
22.2253856395
  0
LINE
  5
32F
100
AcDbEntity
  8
DRAFT
100
AcDbLine
 62
7
  6
CONTINUOUS
 10
3.1388435565
 20
22.2253856395
 11
6.7388435565
 21
22.2253856395
  0
LINE
  5
330
100
AcDbEntity
  8
RACCORDO
100
AcDbLine
 62
7
  6
CONTINUOUS
 10
-11.2409156546
 20
22.2624595754
 11
-8.4695814364
 21
22.2624595754
  0
LINE
  5
331
100
AcDbEntity
  8
DRAFT
100
AcDbLine
 62
7
  6
CONTINUOUS
 10
-4.0527314505
 20
22.2624595754
 11
2.7304185636
 21
22.2624595754
  0
LINE
  5
332
100
AcDbEntity
  8
RACCORDO
100
AcDbLine
 62
7
  6
CONTINUOUS
 10
7.1472685495
 20
22.2624595754
 11
9.9186027677
 21
22.2624595754
  0
LWPOLYLINE
  5
333
100
AcDbEntity
  8
0
100
AcDbPolyline
 62
7
  6
CONTINUOUS
 90
7
 70
0
 43
0.3500000019
 10
2.8745551758
 20
31.2914335938
 10
1.374559082
 20
31.2914335938
 10
2.8745551758
 20
33.4342905273
 10
2.8745551758
 20
33.8628635254
 10
2.4459848633
 20
34.2914338379
 10
1.8031293945
 20
34.2914338379
 10
1.374559082
 20
33.6485783691
  0
LWPOLYLINE
  5
334
100
AcDbEntity
  8
0
100
AcDbPolyline
 62
7
  6
CONTINUOUS
 90
7
 70
0
 43
0.3500000019
 10
-1.1968681641
 20
31.2914335938
 10
-2.6968696289
 20
31.2914335938
 10
-1.1968681641
 20
33.4342905273
 10
-1.1968681641
 20
33.8628635254
 10
-1.6254438477
 20
34.2914338379
 10
-2.2682993164
 20
34.2914338379
 10
-2.6968696289
 20
33.6485783691
  0
LWPOLYLINE
  5
335
100
AcDbEntity
  8
0
100
AcDbPolyline
 62
7
  6
CONTINUOUS
 90
7
 70
0
 43
0.3500000019
 10
-3.554015625
 20
31.2914335938
 10
-5.0540117187
 20
31.2914335938
 10
-3.554015625
 20
33.4342905273
 10
-3.554015625
 20
33.8628635254
 10
-3.9825859375
 20
34.2914338379
 10
-4.6254414062
 20
34.2914338379
 10
-5.0540117187
 20
33.6485783691
  0
LINE
  5
336
100
AcDbEntity
  8
RACCORDO
100
AcDbLine
 62
250
  6
CONTINUOUS
 10
-0.3611633656
 20
22.1090760588
 11
-3.7600751091
 21
22.1106928037
  0
LINE
  5
337
100
AcDbEntity
  8
RACCORDO
100
AcDbLine
 62
250
  6
CONTINUOUS
 10
-3.7600751091
 20
22.1106928037
 11
-7.2618692867
 21
22.1164819877
  0
LWPOLYLINE
  5
338
100
AcDbEntity
  8
RACCORDO
100
AcDbPolyline
 62
250
  6
CONTINUOUS
 90
3
 70
0
 10
-7.2618692867
 20
22.1164819877
 10
-10.3480487358
 20
22.1250769898
 10
-11.173678006
 20
22.1278920048
  0
LWPOLYLINE
  5
339
100
AcDbEntity
  8
RACCORDO
100
AcDbPolyline
 62
250
  6
CONTINUOUS
 90
16
 70
0
 10
9.8513651186
 20
22.1278920039
 10
9.9035660887
 20
22.1250900288
 10
9.9551961304
 20
22.1168576317
 10
10.0056905593
 20
22.1032848515
 10
10.0544971118
 20
22.0845201353
 10
10.1010819845
 20
22.0607687151
 10
10.1449356729
 20
22.0322903633
 10
10.1855785438
 20
21.999396551
 10
10.222566081
 20
21.9624470421
 10
10.2554937475
 20
21.9218459578
 10
10.2840014091
 20
21.8780373572
 10
10.307777274
 20
21.8315003804
 10
10.3265613028
 20
21.7827440081
 10
10.3401480521
 20
21.7323014948
 10
10.348388922
 20
21.6807245364
 10
10.3511937811
 20
21.6285772365
  0
LINE
  5
33A
100
AcDbEntity
  8
DRAFT
100
AcDbLine
 62
7
  6
CONTINUOUS
 10
3.1388435565
 20
22.2253856395
 11
2.7304185636
 21
22.2624595754
  0
LINE
  5
33B
100
AcDbEntity
  8
RACCORDO
100
AcDbLine
 62
7
  6
CONTINUOUS
 10
-27.7149225519
 20
-22.056165836
 11
-30.6419468131
 21
-21.9027669946
  0
LINE
  5
33C
100
AcDbEntity
  8
RACCORDO
100
AcDbLine
 62
250
  6
CONTINUOUS
 10
-27.6713778558
 20
-21.5584476817
 11
-30.269545311
 21
-21.4222834952
  0
LWPOLYLINE
  5
33D
100
AcDbEntity
  8
RACCORDO
100
AcDbPolyline
 62
7
  6
CONTINUOUS
 90
3
 70
0
 10
-30.282624815
 20
-21.9215982626
 10
-30.3808307987
 20
-21.9124041907
 10
-30.4420863014
 20
-21.9025109851
  0
LWPOLYLINE
  5
33E
100
AcDbEntity
  8
RACCORDO
100
AcDbPolyline
 62
250
  6
CONTINUOUS
 90
19
 70
0
 10
-30.269545311
 20
-21.4222834952
 10
-30.3272709166
 20
-21.4168378843
 10
-30.383714425
 20
-21.4068887529
 10
-30.4388758363
 20
-21.3924361008
 10
-30.4931426941
 20
-21.3733202961
 10
-30.5461274547
 20
-21.3497009707
 10
-30.5966674877
 20
-21.3220570214
 10
-30.6446817193
 20
-21.2903062477
 10
-30.6902512232
 20
-21.2545308499
 10
-30.7324565896
 20
-21.2154563253
 10
-30.771225457
 20
-21.1730163079
 10
-30.8066301869
 20
-21.1272771637
 10
-30.8379684531
 20
-21.0791634881
 10
-30.8651584844
 20
-21.0285968277
 10
-30.888282052
 20
-20.9756556359
 10
-30.9068821439
 20
-20.9214998681
 10
-30.9208064227
 20
-20.8665161761
 10
-30.9302072259
 20
-20.8103179081
 10
-30.9350845534
 20
-20.7529050641
  0
LWPOLYLINE
  5
33F
100
AcDbEntity
  8
RACCORDO
100
AcDbPolyline
 62
250
  6
CONTINUOUS
 90
3
 70
0
 10
-30.4420863014
 20
-21.9025109851
 10
-30.4779258888
 20
-21.8952044917
 10
-30.5732596921
 20
-21.8701200469
  0
LWPOLYLINE
  5
340
100
AcDbEntity
  8
RACCORDO
100
AcDbPolyline
 62
250
  6
CONTINUOUS
 90
16
 70
0
 10
-30.5732596921
 20
-21.8701200469
 10
-30.6661928717
 20
-21.8373260226
 10
-30.7561060206
 20
-21.7970471381
 10
-30.8424024793
 20
-21.7495530977
 10
-30.9245097684
 20
-21.695161809
 10
-31.001874511
 20
-21.6342432728
 10
-31.0739706363
 20
-21.5672126241
 10
-31.1403168762
 20
-21.4945236614
 10
-31.2004732636
 20
-21.4166662029
 10
-31.2540347729
 20
-21.3341669331
 10
-31.3006421068
 20
-21.2475900989
 10
-31.339993205
 20
-21.1575108105
 10
-31.371833215
 20
-21.0645100185
 10
-31.395947977
 20
-20.9692023487
 10
-31.4121719876
 20
-20.8722347684
 10
-31.4203945536
 20
-20.7742576871
  0
LINE
  5
341
100
AcDbEntity
  8
RACCORDO
100
AcDbLine
 62
250
  6
CONTINUOUS
 10
-31.4203945197
 20
-20.7742577055
 11
-31.3971449929
 21
-20.7731243903
  0
LINE
  5
342
100
AcDbEntity
  8
RACCORDO
100
AcDbLine
 62
250
  6
CONTINUOUS
 10
-31.3971449929
 20
-20.7731243903
 11
-30.9350845534
 21
-20.7529050641
  0
LINE
  5
343
100
AcDbEntity
  8
RACCORDO
100
AcDbLine
 62
250
  6
CONTINUOUS
 10
-31.7775094541
 20
-20.7670221083
 11
-31.4203945239
 21
-20.7742576861
  0
LINE
  5
344
100
AcDbEntity
  8
RACCORDO
100
AcDbLine
 62
250
  6
CONTINUOUS
 10
-27.3452111112
 20
-17.8303447315
 11
-27.3223353908
 21
-17.8303447315
  0
LWPOLYLINE
  5
345
100
AcDbEntity
  8
RACCORDO
100
AcDbPolyline
 62
250
  6
CONTINUOUS
 90
11
 70
0
 10
-30.2826247782
 20
22.1278920039
 10
-30.2838448604
 20
22.1250900288
 10
-30.2847653968
 20
22.1168576317
 10
-30.2853763194
 20
22.1032848515
 10
-30.2856709469
 20
22.0845201353
 10
-30.2856460565
 20
22.0607687151
 10
-30.2853019195
 20
22.0322903633
 10
-30.2846422997
 20
21.999396551
 10
-30.2836744115
 20
21.9624470421
 10
-30.2824088408
 20
21.9218459578
 10
-30.2790431233
 20
21.8315003804
  0
LWPOLYLINE
  5
346
100
AcDbEntity
  8
RACCORDO
100
AcDbPolyline
 62
250
  6
CONTINUOUS
 90
9
 70
0
 10
-30.282624815
 20
-21.9215982626
 10
-30.2838449267
 20
-21.9187961807
 10
-30.2847654782
 20
-21.9105634906
 10
-30.2853764029
 20
-21.8969902682
 10
-30.285671021
 20
-21.8782249905
 10
-30.2856461113
 20
-21.8544729358
 10
-30.2853019479
 20
-21.8259939603
 10
-30.284642298
 20
-21.7930996029
 10
-30.2836743799
 20
-21.7561496715
  0
LWPOLYLINE
  5
347
100
AcDbEntity
  8
RACCORDO
100
AcDbPolyline
 62
250
  6
CONTINUOUS
 90
16
 70
0
 10
-31.420394517
 20
20.98055143
 10
-31.4121719496
 20
21.0785285206
 10
-31.3959479367
 20
21.1754961067
 10
-31.3718331724
 20
21.2708037788
 10
-31.3399931616
 20
21.3638045685
 10
-31.3006420643
 20
21.4538838517
 10
-31.2540347317
 20
21.5404606816
 10
-31.2004732232
 20
21.6229599492
 10
-31.1403168364
 20
21.7008174062
 10
-31.0739705973
 20
21.7735063675
 10
-31.0018744732
 20
21.8405370149
 10
-30.924509732
 20
21.9014555499
 10
-30.8424024449
 20
21.9558468375
 10
-30.7561059896
 20
22.0033408765
 10
-30.6661928449
 20
22.0436197599
 10
-30.5732596672
 20
22.0764137846
  0
LINE
  5
348
100
AcDbEntity
  8
RACCORDO
100
AcDbLine
 62
7
  6
CONTINUOUS
 10
-32.2570422099
 20
1.9028824664
 11
-32.2552258148
 21
1.8804982137
  0
LWPOLYLINE
  5
349
100
AcDbEntity
  8
RACCORDO
100
AcDbPolyline
 62
250
  6
CONTINUOUS
 90
7
 70
0
 10
-32.2552258148
 20
1.8804982137
 10
-32.2572484156
 20
1.9260720593
 10
-32.2611317857
 20
1.9691812023
 10
-32.2649692049
 20
2.0028243439
 10
-32.2687376502
 20
2.0267661568
 10
-32.2724536321
 20
2.0412418905
 10
-32.2761119717
 20
2.0462515042
  0
LINE
  5
34A
100
AcDbEntity
  8
RACCORDO
100
AcDbLine
 62
7
  6
CONTINUOUS
 10
-32.2552258148
 20
1.8804982137
 11
-32.2533102376
 21
1.8544112354
  0
LINE
  5
34B
100
AcDbEntity
  8
RACCORDO
100
AcDbLine
 62
250
  6
CONTINUOUS
 10
-32.2179223584
 20
-0.4683777975
 11
-32.2176018383
 21
-0.4730903975
  0
LINE
  5
34C
100
AcDbEntity
  8
RACCORDO
100
AcDbLine
 62
7
  6
CONTINUOUS
 10
-32.2533102376
 20
1.8544112354
 11
-32.2513233467
 21
1.8247333036
  0
LINE
  5
34D
100
AcDbEntity
  8
RACCORDO
100
AcDbLine
 62
250
  6
CONTINUOUS
 10
-32.2142785845
 20
0.6276804169
 11
-32.2176018383
 21
0.6793841368
  0
LINE
  5
34E
100
AcDbEntity
  8
RACCORDO
100
AcDbLine
 62
250
  6
CONTINUOUS
 10
-32.2513662302
 20
1.8253791035
 11
-32.253389674
 21
1.8742028185
  0
LINE
  5
34F
100
AcDbEntity
  8
RACCORDO
100
AcDbLine
 62
7
  6
CONTINUOUS
 10
-32.2513662302
 20
1.8253791035
 11
-32.249286254
 21
1.7914918754
  0
LINE
  5
350
100
AcDbEntity
  8
RACCORDO
100
AcDbLine
 62
7
  6
CONTINUOUS
 10
-32.2493884209
 20
1.7932246814
 11
-32.2472155438
 21
1.7546901393
  0
LINE
  5
351
100
AcDbEntity
  8
RACCORDO
100
AcDbLine
 62
250
  6
CONTINUOUS
 10
-32.2493884209
 20
1.7932246814
 11
-32.2495707367
 21
1.8134668472
  0
LINE
  5
352
100
AcDbEntity
  8
RACCORDO
100
AcDbLine
 62
7
  6
CONTINUOUS
 10
-32.2473217745
 20
1.7566551216
 11
-32.244070352
 21
1.6927379139
  0
LINE
  5
353
100
AcDbEntity
  8
RACCORDO
100
AcDbLine
 62
250
  6
CONTINUOUS
 10
-32.2441820746
 20
1.6950743734
 11
-32.2457942783
 21
1.7439708441
  0
LINE
  5
354
100
AcDbEntity
  8
RACCORDO
100
AcDbLine
 62
7
  6
CONTINUOUS
 10
-32.2441820746
 20
1.6950743734
 11
-32.2409017451
 21
1.6226117305
  0
LINE
  5
355
100
AcDbEntity
  8
RACCORDO
100
AcDbLine
 62
250
  6
CONTINUOUS
 10
-32.2410188047
 20
1.6253406382
 11
-32.2421233716
 21
1.6667407016
  0
LWPOLYLINE
  5
356
100
AcDbEntity
  8
RACCORDO
100
AcDbPolyline
 62
250
  6
CONTINUOUS
 90
10
 70
0
 10
-31.4203945239
 20
-20.7742576861
 10
-31.5147531362
 20
-18.4421987446
 10
-31.5966786704
 20
-16.1479254024
 10
-31.6667075406
 20
-13.8915080829
 10
-31.7247573864
 20
-11.6982387068
 10
-31.7721819097
 20
-9.5429554539
 10
-31.8106492971
 20
-7.3500182035
 10
-31.8399221192
 20
-5.0942298672
 10
-31.8589797845
 20
-2.8008614591
 10
-31.8672934363
 20
-0.4699595972
  0
LWPOLYLINE
  5
357
100
AcDbEntity
  8
RACCORDO
100
AcDbPolyline
 62
250
  6
CONTINUOUS
 90
9
 70
0
 10
-30.9350845534
 20
-20.7529050641
 10
-31.0286094648
 20
-18.4230548676
 10
-31.1107562139
 20
-16.1310835458
 10
-31.1815248005
 20
-13.8769910986
 10
-31.2403579076
 20
-11.685934862
 10
-31.2878128523
 20
-9.5327575001
 10
-31.3255615861
 20
-7.3419870051
 10
-31.3541614262
 20
-5.0884660411
 10
-31.3730550555
 20
-2.797351944
  0
LINE
  5
358
100
AcDbEntity
  8
RACCORDO
100
AcDbLine
 62
7
  6
CONTINUOUS
 10
-32.2410188047
 20
1.6253406382
 11
-32.2377426222
 21
1.5443148938
  0
LINE
  5
359
100
AcDbEntity
  8
RACCORDO
100
AcDbLine
 62
250
  6
CONTINUOUS
 10
-32.2378627517
 20
1.5474542336
 11
-32.2385726049
 21
1.5816744033
  0
LINE
  5
35A
100
AcDbEntity
  8
RACCORDO
100
AcDbLine
 62
7
  6
CONTINUOUS
 10
-32.2378627517
 20
1.5474542336
 11
-32.2337430728
 21
1.4309080124
  0
LINE
  5
35B
100
AcDbEntity
  8
RACCORDO
100
AcDbLine
 62
250
  6
CONTINUOUS
 10
-32.2346383099
 20
1.4578341009
 11
-32.2351494633
 21
1.4888740045
  0
LINE
  5
35C
100
AcDbEntity
  8
RACCORDO
100
AcDbLine
 62
7
  6
CONTINUOUS
 10
-32.2346383099
 20
1.4578341009
 11
-32.2306418633
 21
1.3297612865
  0
LINE
  5
35D
100
AcDbEntity
  8
RACCORDO
100
AcDbLine
 62
250
  6
CONTINUOUS
 10
-32.2307629803
 20
1.3339572325
 11
-32.2319145693
 21
1.3896714893
  0
LINE
  5
35E
100
AcDbEntity
  8
RACCORDO
100
AcDbLine
 62
7
  6
CONTINUOUS
 10
-32.2307629803
 20
1.3339572325
 11
-32.2268781663
 21
1.1873752265
  0
LINE
  5
35F
100
AcDbEntity
  8
RACCORDO
100
AcDbLine
 62
7
  6
CONTINUOUS
 10
-32.2269958168
 20
1.1922280438
 11
-32.2227654461
 21
0.9956555527
  0
LINE
  5
360
100
AcDbEntity
  8
RACCORDO
100
AcDbLine
 62
250
  6
CONTINUOUS
 10
-32.223451777
 20
1.0311006388
 11
-32.2235092515
 21
1.0549832175
  0
LINE
  5
361
100
AcDbEntity
  8
RACCORDO
100
AcDbLine
 62
7
  6
CONTINUOUS
 10
-32.223451777
 20
1.0311006388
 11
-32.2197693102
 21
0.8171279794
  0
LINE
  5
362
100
AcDbEntity
  8
RACCORDO
100
AcDbLine
 62
7
  6
CONTINUOUS
 10
-32.2198649692
 20
0.8236134268
 11
-32.217912571
 21
0.6742427517
  0
LINE
  5
363
100
AcDbEntity
  8
RACCORDO
100
AcDbLine
 62
7
  6
CONTINUOUS
 10
-32.2179214777
 20
0.6745758209
 11
-32.2179223587
 21
0.6746715632
  0
LWPOLYLINE
  5
364
100
AcDbEntity
  8
SUPERFICI
100
AcDbPolyline
 62
7
  6
CONTINUOUS
 90
10
 70
0
 10
-32.3176320977
 20
-1.8403519119
 10
-32.312737878
 20
-2.6703834898
 10
-32.2905028525
 20
-4.9445521698
 10
-32.2553368472
 20
-7.218563262
 10
-32.2072401857
 20
-9.4923432358
 10
-32.1462152383
 20
-11.7658186099
 10
-32.0722649977
 20
-14.0389159045
 10
-31.9853924569
 20
-16.3115616572
 10
-31.8856006083
 20
-18.5836824225
 10
-31.77750945
 20
-20.7670221871
  0
LWPOLYLINE
  5
365
100
AcDbEntity
  8
RACCORDO
100
AcDbPolyline
 62
250
  6
CONTINUOUS
 90
10
 70
0
 10
-31.8672934342
 20
0.6762533398
 10
-31.8604175496
 20
2.754992327
 10
-31.8443591994
 20
4.8663028483
 10
-31.8186949252
 20
7.0101418453
 10
-31.7832901276
 20
9.1706292481
 10
-31.7375573439
 20
11.3635504799
 10
-31.6797414289
 20
13.6363413057
 10
-31.608208484
 20
16.0047508915
 10
-31.5221604013
 20
18.4528558421
 10
-31.4203945232
 20
20.9805514305
  0
LINE
  5
366
100
AcDbEntity
  8
RACCORDO
100
AcDbLine
 62
7
  6
CONTINUOUS
 10
-32.2179214713
 20
-0.4682814806
 11
-32.2192066174
 21
-0.5711474806
  0
LINE
  5
367
100
AcDbEntity
  8
RACCORDO
100
AcDbLine
 62
7
  6
CONTINUOUS
 10
-32.2192066174
 20
-0.5711474806
 11
-32.2227218731
 21
-0.7870557865
  0
LINE
  5
368
100
AcDbEntity
  8
RACCORDO
100
AcDbLine
 62
250
  6
CONTINUOUS
 10
-32.2227218731
 20
-0.7870557865
 11
-32.2212532958
 21
-0.7282320771
  0
LINE
  5
369
100
AcDbEntity
  8
RACCORDO
100
AcDbLine
 62
7
  6
CONTINUOUS
 10
-32.2227218731
 20
-0.7870557865
 11
-32.2269249253
 21
-0.9830136723
  0
LINE
  5
36A
100
AcDbEntity
  8
RACCORDO
100
AcDbLine
 62
250
  6
CONTINUOUS
 10
-32.2269249253
 20
-0.9830136723
 11
-32.2260693177
 21
-0.965699242
  0
LINE
  5
36B
100
AcDbEntity
  8
RACCORDO
100
AcDbLine
 62
7
  6
CONTINUOUS
 10
-32.2269249253
 20
-0.9830136723
 11
-32.2306711121
 21
-1.1244835586
  0
LINE
  5
36C
100
AcDbEntity
  8
RACCORDO
100
AcDbLine
 62
7
  6
CONTINUOUS
 10
-32.2306711121
 20
-1.1244835586
 11
-32.2346477492
 21
-1.2518251297
  0
LINE
  5
36D
100
AcDbEntity
  8
RACCORDO
100
AcDbLine
 62
7
  6
CONTINUOUS
 10
-32.2346477492
 20
-1.2518251297
 11
-32.2387799675
 21
-1.3647246263
  0
LINE
  5
36E
100
AcDbEntity
  8
RACCORDO
100
AcDbLine
 62
7
  6
CONTINUOUS
 10
-32.2387799675
 20
-1.3647246263
 11
-32.2419296066
 21
-1.4399369276
  0
LINE
  5
36F
100
AcDbEntity
  8
RACCORDO
100
AcDbLine
 62
250
  6
CONTINUOUS
 10
-32.2458032805
 20
-1.5378507963
 11
-32.246114734
 21
-1.5275633012
  0
LINE
  5
370
100
AcDbEntity
  8
RACCORDO
100
AcDbLine
 62
7
  6
CONTINUOUS
 10
-32.2419296066
 20
-1.4399369276
 11
-32.2450729025
 21
-1.5070099705
  0
LWPOLYLINE
  5
371
100
AcDbEntity
  8
SUPERFICI
100
AcDbPolyline
 62
7
  6
CONTINUOUS
 90
10
 70
0
 10
-31.77750945
 20
20.9733159265
 10
-31.8856006083
 20
18.7899761619
 10
-31.9853924569
 20
16.5178553965
 10
-32.0722649977
 20
14.2452096439
 10
-32.1462152383
 20
11.9721123493
 10
-32.2072401857
 20
9.6986369752
 10
-32.2553368472
 20
7.4248570014
 10
-32.2905028525
 20
5.1508459092
 10
-32.312737878
 20
2.8766772291
 10
-32.3176320977
 20
2.0466456512
  0
LINE
  5
372
100
AcDbEntity
  8
RACCORDO
100
AcDbLine
 62
250
  6
CONTINUOUS
 10
-32.2495804237
 20
-1.6073355484
 11
-32.2492081544
 21
-1.58386269
  0
LINE
  5
373
100
AcDbEntity
  8
RACCORDO
100
AcDbLine
 62
7
  6
CONTINUOUS
 10
-32.2450729025
 20
-1.5070099705
 11
-32.2481837377
 21
-1.5659874723
  0
LINE
  5
374
100
AcDbEntity
  8
RACCORDO
100
AcDbLine
 62
7
  6
CONTINUOUS
 10
-32.2481837377
 20
-1.5659874723
 11
-32.2502241135
 21
-1.6008564964
  0
LINE
  5
375
100
AcDbEntity
  8
RACCORDO
100
AcDbLine
 62
250
  6
CONTINUOUS
 10
-32.2533995825
 20
-1.6680552878
 11
-32.2522224989
 21
-1.6321971261
  0
LINE
  5
376
100
AcDbEntity
  8
RACCORDO
100
AcDbLine
 62
250
  6
CONTINUOUS
 10
-32.2142781964
 20
-0.4213836775
 11
-32.2176018383
 21
-0.4730903975
  0
LINE
  5
377
100
AcDbEntity
  8
RACCORDO
100
AcDbLine
 62
7
  6
CONTINUOUS
 10
-32.2502241135
 20
-1.6008564964
 11
-32.2522224989
 21
-1.6321971261
  0
LINE
  5
378
100
AcDbEntity
  8
RACCORDO
100
AcDbLine
 62
250
  6
CONTINUOUS
 10
-32.2179223587
 20
0.6746715632
 11
-32.2176018383
 21
0.6793841368
  0
LINE
  5
379
100
AcDbEntity
  8
RACCORDO
100
AcDbLine
 62
7
  6
CONTINUOUS
 10
-32.2522224989
 20
-1.6321971261
 11
-32.2541620776
 21
-1.6600263051
  0
LWPOLYLINE
  5
37A
100
AcDbEntity
  8
RACCORDO
100
AcDbPolyline
 62
7
  6
CONTINUOUS
 90
11
 70
0
 10
-32.2541620776
 20
-1.6600263051
 10
-32.2560165584
 20
-1.6842382636
 10
-32.2569061032
 20
-1.6949944344
 10
-32.2577610414
 20
-1.7047907313
 10
-32.2585797974
 20
-1.7136590016
 10
-32.2593567196
 20
-1.7215903261
 10
-32.2600728817
 20
-1.7284607611
 10
-32.2607271524
 20
-1.734339525
 10
-32.2613052246
 20
-1.7391821366
 10
-32.2617561423
 20
-1.7426909382
 10
-32.2620821998
 20
-1.7450384047
  0
LWPOLYLINE
  5
37B
100
AcDbEntity
  8
RACCORDO
100
AcDbPolyline
 62
250
  6
CONTINUOUS
 90
19
 70
0
 10
-30.9350845353
 20
20.9591988062
 10
-30.9302072001
 20
21.0166116499
 10
-30.9208063911
 20
21.0728099178
 10
-30.9068821083
 20
21.1277936096
 10
-30.8882820148
 20
21.1819493773
 10
-30.8651584476
 20
21.2348905691
 10
-30.8379684167
 20
21.2854572295
 10
-30.8066301505
 20
21.3335709051
 10
-30.7712254206
 20
21.3793100494
 10
-30.7324565532
 20
21.4217500668
 10
-30.6902511868
 20
21.4608245913
 10
-30.6446816828
 20
21.496599989
 10
-30.5966674511
 20
21.5283507627
 10
-30.5461274182
 20
21.5559947122
 10
-30.4931426575
 20
21.5796140377
 10
-30.4388757998
 20
21.5987298425
 10
-30.3837143884
 20
21.6131824945
 10
-30.3272708799
 20
21.6231316258
 10
-30.2695452743
 20
21.6285772365
  0
LINE
  5
37C
100
AcDbEntity
  8
RACCORDO
100
AcDbLine
 62
250
  6
CONTINUOUS
 10
-32.2042750253
 20
0.5765205526
 11
-32.2142785845
 21
0.6276804169
  0
LWPOLYLINE
  5
37D
100
AcDbEntity
  8
RACCORDO
100
AcDbPolyline
 62
7
  6
CONTINUOUS
 90
12
 70
0
 10
-32.2614990878
 20
1.9483037845
 10
-32.2620114666
 20
1.9510246226
 10
-32.2622283126
 20
1.9522941301
 10
-32.2621180678
 20
1.9515760887
 10
-32.2618295873
 20
1.9495299297
 10
-32.2614039746
 20
1.9462672079
 10
-32.2608436083
 20
1.941638129
 10
-32.2602015832
 20
1.935943359
 10
-32.259492769
 20
1.9292235949
 10
-32.2587186471
 20
1.9214057904
 10
-32.2578998237
 20
1.9126231034
 10
-32.2570422099
 20
1.9028824664
  0
LINE
  5
37E
100
AcDbEntity
  8
RACCORDO
100
AcDbLine
 62
250
  6
CONTINUOUS
 10
-31.3827884864
 20
-0.3651357442
 11
-31.3730550555
 21
-2.797351944
  0
LINE
  5
37F
100
AcDbEntity
  8
RACCORDO
100
AcDbLine
 62
250
  6
CONTINUOUS
 10
-31.3825837378
 20
0.4749669028
 11
-31.3827883701
 21
0.5714257757
  0
LINE
  5
380
100
AcDbEntity
  8
RACCORDO
100
AcDbLine
 62
250
  6
CONTINUOUS
 10
-31.3827883701
 20
0.5714257757
 11
-31.3760787187
 21
2.7517497954
  0
LWPOLYLINE
  5
381
100
AcDbEntity
  8
RACCORDO
100
AcDbPolyline
 62
250
  6
CONTINUOUS
 90
9
 70
0
 10
-31.3760787187
 20
2.7517497954
 10
-31.3598687838
 20
4.8609932033
 10
-31.3336126045
 20
7.0026686763
 10
-31.2984220274
 20
9.1610205135
 10
-31.2531852059
 20
11.3518044159
 10
-31.1945665999
 20
13.6222874861
 10
-31.1214543628
 20
15.988225425
 10
-31.0349603413
 20
18.4338625317
 10
-30.9350845353
 20
20.9591988062
  0
LWPOLYLINE
  5
382
100
AcDbEntity
  8
RACCORDO
100
AcDbPolyline
 62
250
  6
CONTINUOUS
 90
4
 70
0
 10
-32.2599558973
 20
-1.7273384822
 10
-32.2630467893
 20
-1.7366185919
 10
-32.2729535545
 20
-1.7878610814
 10
-32.2761063395
 20
-1.8399577377
  0
LWPOLYLINE
  5
383
100
AcDbEntity
  8
RACCORDO
100
AcDbPolyline
 62
250
  6
CONTINUOUS
 90
10
 70
0
 10
-31.3752623051
 20
-0.0686599446
 10
-31.3765988604
 20
-0.0720928005
 10
-31.3778528457
 20
-0.082308799
 10
-31.3790028112
 20
-0.0991331923
 10
-31.3800290865
 20
-0.1222781941
 10
-31.3809141167
 20
-0.1513479019
 10
-31.3816427631
 20
-0.1858450695
 10
-31.3822025623
 20
-0.2251796121
 10
-31.3825839384
 20
-0.2686787004
 10
-31.3827884864
 20
-0.3651357442
  0
LWPOLYLINE
  5
384
100
AcDbEntity
  8
RACCORDO
100
AcDbPolyline
 62
250
  6
CONTINUOUS
 90
7
 70
0
 10
-32.2761119717
 20
-1.8399577649
 10
-32.2724566725
 20
-1.8349642195
 10
-32.2687432842
 20
-1.8205078742
 10
-32.2649769023
 20
-1.7965887695
 10
-32.2611408099
 20
-1.762974423
 10
-32.2572580698
 20
-1.7198973949
 10
-32.2560165584
 20
-1.6842382636
  0
LWPOLYLINE
  5
385
100
AcDbEntity
  8
RACCORDO
100
AcDbPolyline
 62
250
  6
CONTINUOUS
 90
9
 70
0
 10
-31.3752622406
 20
0.2749536834
 10
-31.3765987026
 20
0.2783862541
 10
-31.3778526187
 20
0.2886015045
 10
-31.3790025391
 20
0.3054248536
 10
-31.3800287919
 20
0.3285686668
 10
-31.3809138211
 20
0.3576372181
 10
-31.3816424857
 20
0.3921334944
 10
-31.382202319
 20
0.4314676425
 10
-31.3825837378
 20
0.4749669028
  0
LWPOLYLINE
  5
386
100
AcDbEntity
  8
RACCORDO
100
AcDbPolyline
 62
250
  6
CONTINUOUS
 90
4
 70
0
 10
-32.2599582473
 20
1.9336364641
 10
-32.2630487926
 20
1.9429145075
 10
-32.272957232
 20
1.9941558168
 10
-32.2761119655
 20
2.0462515042
  0
LINE
  5
387
100
AcDbEntity
  8
RACCORDO
100
AcDbLine
 62
250
  6
CONTINUOUS
 10
-30.2746919895
 20
21.7323014948
 11
-30.2695452743
 21
21.6285772365
  0
LINE
  5
388
100
AcDbEntity
  8
RACCORDO
100
AcDbLine
 62
250
  6
CONTINUOUS
 10
-30.2790431233
 20
21.8315003804
 11
-30.2746919895
 21
21.7323014948
  0
LINE
  5
389
100
AcDbEntity
  8
RACCORDO
100
AcDbLine
 62
250
  6
CONTINUOUS
 10
-30.2836743799
 20
-21.7561496715
 11
-30.2808593545
 21
-21.6717397654
  0
LINE
  5
38A
100
AcDbEntity
  8
RACCORDO
100
AcDbLine
 62
250
  6
CONTINUOUS
 10
-30.2808593545
 20
-21.6717397654
 11
-30.2769797129
 21
-21.5764472171
  0
LWPOLYLINE
  5
38B
100
AcDbEntity
  8
RACCORDO
100
AcDbPolyline
 62
250
  6
CONTINUOUS
 90
3
 70
0
 10
-30.2769797129
 20
-21.5764472171
 10
-30.2722047341
 20
-21.4744295508
 10
-30.269545311
 20
-21.4222834952
  0
LWPOLYLINE
  5
38C
100
AcDbEntity
  8
0
100
AcDbPolyline
 62
7
  6
CONTINUOUS
 90
3
 70
0
 43
0.3500000019
 10
-18.8151567383
 20
31.5538491211
 10
-18.8865869141
 20
31.3395639648
 10
-19.0294418945
 20
31.0538486328
  0
LINE
  5
38D
100
AcDbEntity
  8
RACCORDO
100
AcDbLine
 62
250
  6
CONTINUOUS
 10
-32.3176320977
 20
-1.8403519115
 11
-32.2761119717
 21
-1.8399577649
  0
LINE
  5
38E
100
AcDbEntity
  8
RACCORDO
100
AcDbLine
 62
7
  6
CONTINUOUS
 10
-27.3223353908
 20
-17.8303447315
 11
-27.3223353908
 21
-17.5688740514
  0
LINE
  5
38F
100
AcDbEntity
  8
RACCORDO
100
AcDbLine
 62
7
  6
CONTINUOUS
 10
-27.3223353908
 20
17.7751677908
 11
-27.3223353908
 21
18.0366384709
  0
LWPOLYLINE
  5
390
100
AcDbEntity
  8
RACCORDO
100
AcDbPolyline
 62
250
  6
CONTINUOUS
 90
12
 70
0
 10
-31.8214347382
 20
-0.0725536325
 10
-31.8743819149
 20
-0.0765432608
 10
-31.9250768464
 20
-0.0871714323
 10
-31.9734305144
 20
-0.1040491957
 10
-32.0195549856
 20
-0.1271602699
 10
-32.0628643513
 20
-0.1564369563
 10
-32.1019727228
 20
-0.1911275848
 10
-32.1360071603
 20
-0.2303397579
 10
-32.164751914
 20
-0.2737259358
 10
-32.1876721127
 20
-0.3206538903
 10
-32.2042736035
 20
-0.3702214377
 10
-32.2142781964
 20
-0.4213836775
  0
LWPOLYLINE
  5
391
100
AcDbEntity
  8
RACCORDO
100
AcDbPolyline
 62
250
  6
CONTINUOUS
 90
13
 70
0
 10
-31.4722717899
 20
-0.0695065336
 10
-31.5240061554
 20
-0.07334818
 10
-31.5748045479
 20
-0.0839031516
 10
-31.6238061013
 20
-0.1009925762
 10
-31.6701804002
 20
-0.1243268442
 10
-31.7131415524
 20
-0.1535105163
 10
-31.7519615075
 20
-0.188049025
 10
-31.7859823945
 20
-0.2273570559
 10
-31.8146276711
 20
-0.270768467
 10
-31.837411894
 20
-0.3175475773
 10
-31.8539489454
 20
-0.3669016344
 10
-31.8639585765
 20
-0.4179942489
 10
-31.867271157
 20
-0.4699595688
  0
LINE
  5
392
100
AcDbEntity
  8
RACCORDO
100
AcDbLine
 62
250
  6
CONTINUOUS
 10
-32.2176018383
 20
-0.4730903975
 11
-31.8672934363
 21
-0.4699595972
  0
LINE
  5
393
100
AcDbEntity
  8
RACCORDO
100
AcDbLine
 62
250
  6
CONTINUOUS
 10
-31.3822424739
 20
-0.4686447139
 11
-26.9223353908
 21
-0.4297236944
  0
LINE
  5
394
100
AcDbEntity
  8
RACCORDO
100
AcDbLine
 62
7
  6
CONTINUOUS
 10
-31.8214347379
 20
-0.0725536325
 11
-26.9223353908
 21
-0.0297998402
  0
LINE
  5
395
100
AcDbEntity
  8
RACCORDO
100
AcDbLine
 62
250
  6
CONTINUOUS
 10
-31.8672934984
 20
-0.4699595952
 11
-31.3822424702
 21
-0.4686447138
  0
LINE
  5
396
100
AcDbEntity
  8
RACCORDO
100
AcDbLine
 62
7
  6
CONTINUOUS
 10
-26.9223353908
 20
0.2360935795
 11
-31.8214347379
 21
0.2788473718
  0
LWPOLYLINE
  5
397
100
AcDbEntity
  8
RACCORDO
100
AcDbPolyline
 62
250
  6
CONTINUOUS
 90
13
 70
0
 10
-31.4722717572
 20
0.2758002727
 10
-31.5240087995
 20
0.2796413063
 10
-31.5748098985
 20
0.290195787
 10
-31.623814128
 20
0.3072848481
 10
-31.6701910135
 20
0.3306188812
 10
-31.713154606
 20
0.3598024445
 10
-31.7519768015
 20
0.3943409643
 10
-31.7859996805
 20
0.4336491163
 10
-31.8146466571
 20
0.4770607453
 10
-31.8374322513
 20
0.5238401546
 10
-31.8539703155
 20
0.5731945736
 10
-31.8639805792
 20
0.624287593
 10
-31.8672933985
 20
0.6762533396
  0
LWPOLYLINE
  5
398
100
AcDbEntity
  8
RACCORDO
100
AcDbPolyline
 62
250
  6
CONTINUOUS
 90
11
 70
0
 10
-31.8214347382
 20
0.2788473718
 10
-31.8743849534
 20
0.2828374325
 10
-31.925082239
 20
0.2934666708
 10
-31.9734375242
 20
0.3103458981
 10
-32.0195628981
 20
0.3334586377
 10
-32.062872463
 20
0.3627369901
 10
-32.1019802795
 20
0.3974289647
 10
-32.136013431
 20
0.4366417538
 10
-32.1647564941
 20
0.4800276839
 10
-32.1876749935
 20
0.5269546551
 10
-32.2042750253
 20
0.5765205526
  0
LINE
  5
399
100
AcDbEntity
  8
RACCORDO
100
AcDbLine
 62
7
  6
CONTINUOUS
 10
-27.7149225519
 20
22.2624595754
 11
-26.9223353908
 21
13.2031468697
  0
LINE
  5
39A
100
AcDbEntity
  8
RACCORDO
100
AcDbLine
 62
7
  6
CONTINUOUS
 10
-26.9223353908
 20
13.2031468697
 11
-26.9223353908
 21
0.2360935795
  0
LINE
  5
39B
100
AcDbEntity
  8
RACCORDO
100
AcDbLine
 62
7
  6
CONTINUOUS
 10
-26.9223353908
 20
-0.0297998402
 11
-26.9223353908
 21
-12.9968531303
  0
LINE
  5
39C
100
AcDbEntity
  8
RACCORDO
100
AcDbLine
 62
7
  6
CONTINUOUS
 10
-26.9223353908
 20
-12.9968531303
 11
-27.7149225519
 21
-22.056165836
  0
LINE
  5
39D
100
AcDbEntity
  8
RACCORDO
100
AcDbLine
 62
250
  6
CONTINUOUS
 10
-31.3822424057
 20
0.6749384527
 11
-31.867293432
 21
0.6762533411
  0
LINE
  5
39E
100
AcDbEntity
  8
RACCORDO
100
AcDbLine
 62
250
  6
CONTINUOUS
 10
-26.9223353908
 20
0.6360174338
 11
-31.3822424091
 21
0.6749384527
  0
LINE
  5
39F
100
AcDbEntity
  8
RACCORDO
100
AcDbLine
 62
250
  6
CONTINUOUS
 10
-31.8672934342
 20
0.6762533398
 11
-32.2176018383
 21
0.6793841368
  0
LINE
  5
3A0
100
AcDbEntity
  8
RACCORDO
100
AcDbLine
 62
250
  6
CONTINUOUS
 10
-32.2761119717
 20
2.0462515042
 11
-32.3176320977
 21
2.0466456509
  0
LWPOLYLINE
  5
3A1
100
AcDbEntity
  8
0
100
AcDbPolyline
 62
7
  6
CONTINUOUS
 90
2
 70
0
 43
0.3500000019
 10
-16.8151547852
 20
31.2681337891
 10
-16.8151547852
 20
32.7681352539
  0
LINE
  5
3A2
100
AcDbEntity
  8
RACCORDO
100
AcDbLine
 62
250
  6
CONTINUOUS
 10
-27.3452111111
 20
18.0366384702
 11
-27.3223353908
 21
18.0366384709
  0
LWPOLYLINE
  5
3A3
100
AcDbEntity
  8
RACCORDO
100
AcDbPolyline
 62
250
  6
CONTINUOUS
 90
3
 70
0
 10
-30.5732596672
 20
22.0764137846
 10
-30.4779258625
 20
22.1014982307
 10
-30.4420350611
 20
22.1088143557
  0
LWPOLYLINE
  5
3A4
100
AcDbEntity
  8
RACCORDO
100
AcDbPolyline
 62
7
  6
CONTINUOUS
 90
3
 70
0
 10
-30.4420350611
 20
22.1088143557
 10
-30.3808307685
 20
22.1186979311
 10
-30.2826247782
 20
22.1278920039
  0
LINE
  5
3A5
100
AcDbEntity
  8
RACCORDO
100
AcDbLine
 62
250
  6
CONTINUOUS
 10
-30.2695452743
 20
21.6285772365
 11
-27.6713778558
 21
21.7647414211
  0
LINE
  5
3A6
100
AcDbEntity
  8
RACCORDO
100
AcDbLine
 62
7
  6
CONTINUOUS
 10
-30.6419468131
 20
22.109060734
 11
-27.7149225519
 21
22.2624595754
  0
LINE
  5
3A7
100
AcDbEntity
  8
RACCORDO
100
AcDbLine
 62
250
  6
CONTINUOUS
 10
-31.4203945232
 20
20.9805514305
 11
-31.7775094541
 21
20.9733158477
  0
LWPOLYLINE
  5
3A8
100
AcDbEntity
  8
0
100
AcDbPolyline
 62
7
  6
CONTINUOUS
 90
8
 70
0
 43
0.3500000019
 10
-21.6722993164
 20
31.2681337891
 10
-20.8151586914
 20
31.2681337891
 10
-20.3865883789
 20
31.6967067871
 10
-20.3865883789
 20
32.5538500977
 10
-20.8151586914
 20
32.9824204102
 10
-21.6722993164
 20
32.9824204102
 10
-21.6722993164
 20
34.2681340332
 10
-20.3865883789
 20
34.2681340332
  0
LWPOLYLINE
  5
3A9
100
AcDbEntity
  8
0
100
AcDbPolyline
 62
7
  6
CONTINUOUS
 90
3
 70
0
 43
0.3500000019
 10
-16.315159668
 20
31.9109919434
 10
-17.8151557617
 20
31.9109919434
 10
-17.172300293
 20
34.2681340332
  0
LWPOLYLINE
  5
3AA
100
AcDbEntity
  8
RACCORDO
100
AcDbPolyline
 62
250
  6
CONTINUOUS
 90
3
 70
0
 10
-31.4203746037
 20
20.9805505951
 10
-31.4124608393
 20
20.9801423993
 10
-30.9350845353
 20
20.9591988062
  0
LWPOLYLINE
  5
3AB
100
AcDbEntity
  8
0
100
AcDbPolyline
 62
7
  6
CONTINUOUS
 90
10
 70
0
 43
0.3500000019
 10
-18.8865869141
 20
31.7681342773
 10
-18.8151567383
 20
31.6252766113
 10
-18.8151567383
 20
31.5538491211
 10
-18.9580170898
 20
31.4109914551
 10
-19.0294418945
 20
31.4109914551
 10
-19.1008720703
 20
31.4824189453
 10
-19.1008720703
 20
31.5538491211
 10
-19.0294418945
 20
31.6967067871
 10
-18.9580170898
 20
31.7681342773
 10
-18.8865869141
 20
31.7681342773
  0
ARC
  5
3AC
100
AcDbEntity
  8
RACCORDO
100
AcDbCircle
 62
7
  6
CONTINUOUS
 10
2.5138435565
 20
0.1031468697
 40
1.525
100
AcDbArc
 50
270.0
 51
343.0879461817
  0
ARC
  5
3AD
100
AcDbEntity
  8
RACCORDO
100
AcDbCircle
 62
7
  6
CONTINUOUS
 10
-3.8361564435
 20
0.1031468697
 40
1.525
100
AcDbArc
 50
196.9120538183
 51
270.0000117153
  0
ARC
  5
3AE
100
AcDbEntity
  8
RACCORDO
100
AcDbCircle
 62
7
  6
CONTINUOUS
 10
-3.8361564435
 20
0.1031468697
 40
1.525
100
AcDbArc
 50
90.0
 51
163.0879461817
  0
ARC
  5
3AF
100
AcDbEntity
  8
RACCORDO
100
AcDbCircle
 62
7
  6
CONTINUOUS
 10
2.5138435565
 20
0.1031468697
 40
1.525
100
AcDbArc
 50
16.9120538183
 51
90.0000117153
  0
ARC
  5
3B0
100
AcDbEntity
  8
RACCORDO
100
AcDbCircle
 62
7
  6
CONTINUOUS
 10
-30.5791436656
 20
20.9107052923
 40
1.2
100
AcDbArc
 50
93.0
 51
177.0092050784
  0
ARC
  5
3B1
100
AcDbEntity
  8
RACCORDO
100
AcDbCircle
 62
7
  6
CONTINUOUS
 10
-30.5791436656
 20
-20.7044115529
 40
1.2
100
AcDbArc
 50
182.9907949216
 51
267.0
  0
ARC
  5
3B2
100
AcDbEntity
  8
RACCORDO
100
AcDbCircle
 62
7
  6
CONTINUOUS
 10
-31.8179441237
 20
0.6788321411
 40
0.4
100
AcDbArc
 50
180.5959698149
 51
269.4998899131
  0
ARC
  5
3B3
100
AcDbEntity
  8
RACCORDO
100
AcDbCircle
 62
7
  6
CONTINUOUS
 10
-31.9176366284
 20
2.0447021444
 40
0.4
100
AcDbArc
 50
179.7216121842
 51
213.3118588442
  0
ARC
  5
3B4
100
AcDbEntity
  8
RACCORDO
100
AcDbCircle
 62
7
  6
CONTINUOUS
 10
-31.9176366284
 20
-1.838408405
 40
0.4
100
AcDbArc
 50
146.688739172
 51
180.2783878158
  0
ARC
  5
3B5
100
AcDbEntity
  8
RACCORDO
100
AcDbCircle
 62
7
  6
CONTINUOUS
 10
-31.8179441237
 20
-0.4725384017
 40
0.4
100
AcDbArc
 50
90.5001099963
 51
179.4040264176
  0
ARC
  5
3B6
100
AcDbEntity
  8
RACCORDO
100
AcDbCircle
 62
7
  6
CONTINUOUS
 10
-27.6223353908
 20
18.0366384709
 40
0.3
100
AcDbArc
 50
0.0
 51
25.0000145451
  0
ARC
  5
3B7
100
AcDbEntity
  8
RACCORDO
100
AcDbCircle
 62
7
  6
CONTINUOUS
 10
-27.6223353908
 20
-17.8303447315
 40
0.3
100
AcDbArc
 50
335.0
 51
360.0
  0
ELLIPSE
  5
3B8
100
AcDbEntity
  8
RACCORDO
100
AcDbEllipse
 62
7
  6
CONTINUOUS
 10
-11.2413722443
 20
-21.5577648746
 30
0.0
 11
0.4962344879
 21
-0.0628595572
 31
0.0
 40
0.9963456432
 41
-3.0137634083
 42
-1.4443370775
  0
ELLIPSE
  5
3B9
100
AcDbEntity
  8
RACCORDO
100
AcDbEllipse
 62
7
  6
CONTINUOUS
 10
9.9190593573
 20
-21.5577648746
 30
0.0
 11
0.4962344879
 21
0.0628595572
 31
0.0
 40
0.9963456432
 41
-1.6972555761
 42
-0.1278292453
  0
ELLIPSE
  5
3BA
100
AcDbEntity
  8
RACCORDO
100
AcDbEllipse
 62
7
  6
CONTINUOUS
 10
10.0387064395
 20
-0.4298150715
 30
0.0
 11
0.3796255539
 21
0.1265161514
 31
0.0
 40
0.9996192872
 41
-0.3215754254
 42
1.2489924673
  0
ELLIPSE
  5
3BB
100
AcDbEntity
  8
RACCORDO
100
AcDbEllipse
 62
7
  6
CONTINUOUS
 10
-11.3610193265
 20
-0.4298150715
 30
0.0
 11
0.3796255539
 21
-0.1265161514
 31
0.0
 40
0.9996192872
 41
1.8926001863
 42
3.463168079
  0
ELLIPSE
  5
3BC
100
AcDbEntity
  8
RACCORDO
100
AcDbEllipse
 62
7
  6
CONTINUOUS
 10
9.9190593573
 20
21.764058614
 30
0.0
 11
0.4962344879
 21
-0.0628595572
 31
0.0
 40
0.9963456432
 41
0.1278292453
 42
1.6972555761
  0
ELLIPSE
  5
3BD
100
AcDbEntity
  8
RACCORDO
100
AcDbEllipse
 62
7
  6
CONTINUOUS
 10
-11.2413722443
 20
21.764058614
 30
0.0
 11
0.4962344879
 21
0.0628595572
 31
0.0
 40
0.9963456432
 41
1.4443370775
 42
3.0137634083
  0
ELLIPSE
  5
3BE
100
AcDbEntity
  8
RACCORDO
100
AcDbEllipse
 62
7
  6
CONTINUOUS
 10
-11.3610193265
 20
0.6361088109
 30
0.0
 11
0.3796255539
 21
0.1265161514
 31
0.0
 40
0.9996192872
 41
2.8200172282
 42
4.3905851209
  0
ELLIPSE
  5
3BF
100
AcDbEntity
  8
RACCORDO
100
AcDbEllipse
 62
7
  6
CONTINUOUS
 10
10.0387064395
 20
0.6361088109
 30
0.0
 11
0.3796255539
 21
-0.1265161514
 31
0.0
 40
0.9996192872
 41
-1.2489924673
 42
0.3215754254
  0
ENDSEC
  0
SECTION
  2
OBJECTS
  0
DICTIONARY
  5
C
100
AcDbDictionary
280
0
281
1
  3
ACAD_GROUP
350
D
  3
ACAD_MLINESTYLE
350
17
  3
ACAD_LAYOUT
350
1A
  3
ACAD_PLOTSETTINGS
350
19
  3
ACAD_PLOTSTYLENAME
350
E
  0
DICTIONARY
  5
D
102
{ACAD_REACTORS
330
C
102
}
100
AcDbDictionary
280
0
281
1
  0
ACDBDICTIONARYWDFLT
  5
E
102
{ACAD_REACTORS
330
C
102
}
100
AcDbDictionary
281
1
  3
Normal
350
F
100
AcDbDictionaryWithDefault
340
F
  0
DICTIONARY
  5
17
102
{ACAD_REACTORS
330
C
102
}
100
AcDbDictionary
280
0
281
1
  3
Standard
350
18
  0
DICTIONARY
  5
19
102
{ACAD_REACTORS
330
C
102
}
100
AcDbDictionary
281
1
  0
DICTIONARY
  5
1A
102
{ACAD_REACTORS
330
C
102
}
100
AcDbDictionary
281
1
  3
Model
350
3C0
  3
Layout1
350
3C1
  0
ACDBPLACEHOLDER
  5
F
102
{ACAD_REACTORS
330
E
102
}
  0
MLINESTYLE
  5
18
102
{ACAD_REACTORS
330
17
102
}
100
AcDbMlineStyle
  2
STANDARD
 70
0
  3

 62
256
 51
90.0
 52
90.0
 71
2
 49
0.5
 62
256
  6
BYLAYER
 49
-0.5
 62
256
  6
BYLAYER
  0
LAYOUT
  5
3C0
102
{ACAD_REACTORS
330
1A
102
}
100
AcDbPlotSettings
  1

  2
none_device
  4

  6

 40
0.0
 41
0.0
 42
0.0
 43
0.0
 44
210.0
 45
297.0
 46
0.0
 47
0.0
 48
0.0
 49
0.0
140
0.0
141
0.0
142
1.0
143
1.0
 70
1024
 72
1
 73
0
 74
0
  7

 75
0
147
1.0
148
0.0
149
0.0
100
AcDbLayout
  1
Model
 70
0
 71
0
 10
0.0
 20
0.0
 11
210.0
 21
297.0
 12
0.0
 22
0.0
 32
0.0
 14
0.0
 24
0.0
 34
0.0
 15
0.0
 25
0.0
 35
0.0
146
0.0
 13
0.0
 23
0.0
 33
0.0
 16
1.0
 26
0.0
 36
0.0
 17
0.0
 27
1.0
 37
0.0
 76
0
330
213
345
0
346
0
  0
LAYOUT
  5
3C1
102
{ACAD_REACTORS
330
1A
102
}
100
AcDbPlotSettings
  1

  2
none_device
  4

  6

 40
0.0
 41
0.0
 42
0.0
 43
0.0
 44
210.0
 45
297.0
 46
0.0
 47
0.0
 48
0.0
 49
0.0
140
0.0
141
0.0
142
1.0
143
1.0
 70
0
 72
1
 73
0
 74
0
  7

 75
0
147
1.0
148
0.0
149
0.0
100
AcDbLayout
  1
Layout1
 70
0
 71
1
 10
0.0
 20
0.0
 11
210.0
 21
297.0
 12
0.0
 22
0.0
 32
0.0
 14
0.0
 24
0.0
 34
0.0
 15
0.0
 25
0.0
 35
0.0
146
0.0
 13
0.0
 23
0.0
 33
0.0
 16
1.0
 26
0.0
 36
0.0
 17
0.0
 27
1.0
 37
0.0
 76
0
330
214
345
0
346
0
  0
ENDSEC
  0
EOF
