  0
SECTION
  2
HEADER
  9
$ACADVER
  1
AC1024
  9
$DWGCODEPAGE
  3
ANSI_1252
  9
$EXTMAX
 10
297.0
 20
210.0
 30
0.0
  9
$EXTMIN
 10
0.0
 20
0.0
 30
0.0
  9
$LIMMIN
 10
0.0
 20
0.0
  9
$LIMMAX
 10
297.0
 20
210.0
  9
$VIEWCTR
 10
148.5
 20
105.0
  9
$VIEWSIZE
 40
210.0
  9
$CLAYER
  8
0
  9
$LTSCALE
 40
16.335
  9
$CELTYPE
  6
BYLAYER
  9
$DIMSCALE
 40
1.0
  9
$DIMASZ
 40
3.0
  9
$DIMEXO
 40
0.5
  9
$DIMDLI
 40
11.286
  9
$DIMEXE
 40
1.5
  9
$DIMCEN
 40
2.673
  9
$DIMLFAC
 40
1.0
  9
$DIMBLK
  1
_FILLED
  9
$DIMALT
 70
0
  9
$DIMALTF
 40
0.0393700787
  9
$DIMTXT
 40
3.0
  9
$DIMTOL
 70
1
  9
$DIMLIM
 70
0
  9
$DIMTFAC
 40
1.0
  9
$DIMTP
 40
0.01
  9
$DIMTM
 40
0.01
  9
$DIMGAP
 40
0.625
  9
$DIMDSEP
 70
44
  9
$AUNITS
 70
0
  9
$PDMODE
 70
3
  9
$PDSIZE
 40
3.0
  9
$HANDSEED
  5
64E
  9
$TILEMODE
 70
1
  9
$MEASUREMENT
 70
1
  9
$INSUNITS
 70
4
  0
ENDSEC
  0
SECTION
  2
CLASSES
  0
CLASS
  1
ACDBDICTIONARYWDFLT
  2
AcDbDictionaryWithDefault
  3
AutoCAD 2000
 90
0
 91
1
280
0
281
0
  0
CLASS
  1
ACDBPLACEHOLDER
  2
AcDbPlaceHolder
  3
AutoCAD 2000
 90
0
 91
1
280
0
281
0
  0
CLASS
  1
LAYOUT
  2
AcDbLayout
  3
AutoCAD 2000
 90
0
 91
0
280
0
281
0
  0
ENDSEC
  0
SECTION
  2
TABLES
  0
TABLE
  2
VPORT
  5
8
100
AcDbSymbolTable
 70
2
  0
VPORT
  5
1F4
100
AcDbSymbolTableRecord
100
AcDbViewportTableRecord
  2
*ACTIVE
 70
0
 10
0.0
 20
0.0
 11
1.0
 21
1.0
 12
148.5
 22
105.0
 13
0.0
 23
0.0
 14
1.0
 24
1.0
 15
0.0
 25
0.0
 16
0.0
 26
0.0
 36
1.0
 17
0.0
 27
0.0
 37
0.0
 40
210.0
 41
1.4142857143
 42
50.0
 43
0.0
 44
0.0
 50
0.0
 51
0.0
 71
0
 72
100
 73
1
 74
1
 75
0
 76
0
 77
0
 78
0
  0
ENDTAB
  0
TABLE
  2
LTYPE
  5
5
100
AcDbSymbolTable
 70
6
  0
LTYPE
  5
14
100
AcDbSymbolTableRecord
100
AcDbLinetypeTableRecord
  2
BYBLOCK
 70
0
  3

 72
65
 73
0
 40
0.0
  0
LTYPE
  5
15
100
AcDbSymbolTableRecord
100
AcDbLinetypeTableRecord
  2
BYLAYER
 70
0
  3

 72
65
 73
0
 40
0.0
  0
LTYPE
  5
16
100
AcDbSymbolTableRecord
100
AcDbLinetypeTableRecord
  2
CONTINUOUS
 70
64
  3
Solid line
 72
65
 73
0
 40
0.0
  0
LTYPE
  5
1F5
100
AcDbSymbolTableRecord
100
AcDbLinetypeTableRecord
  2
CENTER
 70
64
  3
____ _ ____ _ ____ _ ____ _ ____ _ ____ _ ____
 72
65
 73
4
 40
0.6
 49
0.375
 74
0
 49
-0.075
 74
0
 49
0.075
 74
0
 49
-0.075
 74
0
  0
LTYPE
  5
1F6
100
AcDbSymbolTableRecord
100
AcDbLinetypeTableRecord
  2
HIDDEN
 70
64
  3
- - - - - - - - - - - - - - - - - - - -
 72
65
 73
2
 40
0.2
 49
0.1
 74
0
 49
-0.1
 74
0
  0
LTYPE
  5
1F7
100
AcDbSymbolTableRecord
100
AcDbLinetypeTableRecord
  2
PHANTOM
 70
64
  3
_____ _ _ _____ _ _ _____ _ _ _____
 72
65
 73
6
 40
0.8
 49
0.45
 74
0
 49
-0.05
 74
0
 49
0.1
 74
0
 49
-0.05
 74
0
 49
0.1
 74
0
 49
-0.05
 74
0
  0
LTYPE
  5
1F8
100
AcDbSymbolTableRecord
100
AcDbLinetypeTableRecord
  2
DOT
 70
64
  3
. . . . . . . . . . . . . . . . . . . .
 72
65
 73
2
 40
0.2
 49
0.1
 74
0
 49
-0.1
 74
0
  0
LTYPE
  5
1F9
100
AcDbSymbolTableRecord
100
AcDbLinetypeTableRecord
  2
DASHED
 70
64
  3
- - - - - - - - - - - - - - - - - - - -
 72
65
 73
2
 40
0.2
 49
0.1
 74
0
 49
-0.1
 74
0
  0
ENDTAB
  0
TABLE
  2
LAYER
  5
2
100
AcDbSymbolTable
 70
36
  0
LAYER
  5
10
100
AcDbSymbolTableRecord
100
AcDbLayerTableRecord
  2
0
 70
0
 62
7
  6
CONTINUOUS
370
-3
390
F
  0
LAYER
  5
1FA
100
AcDbSymbolTableRecord
100
AcDbLayerTableRecord
  2
DEFAULT_1
 70
0
 62
7
  6
CENTER
370
-3
390
F
  0
LAYER
  5
1FB
100
AcDbSymbolTableRecord
100
AcDbLayerTableRecord
  2
DEFAULT_2
 70
0
 62
7
  6
HIDDEN
370
-3
390
F
  0
LAYER
  5
1FC
100
AcDbSymbolTableRecord
100
AcDbLayerTableRecord
  2
DEFAULT_3
 70
0
 62
7
  6
PHANTOM
370
-3
390
F
  0
LAYER
  5
1FD
100
AcDbSymbolTableRecord
100
AcDbLayerTableRecord
  2
ASSI
 70
0
 62
7
  6
CONTINUOUS
370
-3
390
F
  0
LAYER
  5
1FE
100
AcDbSymbolTableRecord
100
AcDbLayerTableRecord
  2
COORDINATE
 70
0
 62
7
  6
CONTINUOUS
370
-3
390
F
  0
LAYER
  5
1FF
100
AcDbSymbolTableRecord
100
AcDbLayerTableRecord
  2
COORD_ORIGINE
 70
0
 62
7
  6
CONTINUOUS
370
-3
390
F
  0
LAYER
  5
200
100
AcDbSymbolTableRecord
100
AcDbLayerTableRecord
  2
COPY_PUBLISH
 70
0
 62
7
  6
CONTINUOUS
370
-3
390
F
  0
LAYER
  5
201
100
AcDbSymbolTableRecord
100
AcDbLayerTableRecord
  2
COSMETICI
 70
0
 62
7
  6
CONTINUOUS
370
-3
390
F
  0
LAYER
  5
202
100
AcDbSymbolTableRecord
100
AcDbLayerTableRecord
  2
CURVE
 70
0
 62
7
  6
CONTINUOUS
370
-3
390
F
  0
LAYER
  5
203
100
AcDbSymbolTableRecord
100
AcDbLayerTableRecord
  2
DRAFT
 70
0
 62
7
  6
CONTINUOUS
370
-3
390
F
  0
LAYER
  5
204
100
AcDbSymbolTableRecord
100
AcDbLayerTableRecord
  2
IMPORT_IGES
 70
0
 62
7
  6
CONTINUOUS
370
-3
390
F
  0
LAYER
  5
205
100
AcDbSymbolTableRecord
100
AcDbLayerTableRecord
  2
INTF_1
 70
0
 62
7
  6
CONTINUOUS
370
-3
390
F
  0
LAYER
  5
206
100
AcDbSymbolTableRecord
100
AcDbLayerTableRecord
  2
INTF_11
 70
0
 62
7
  6
CONTINUOUS
370
-3
390
F
  0
LAYER
  5
207
100
AcDbSymbolTableRecord
100
AcDbLayerTableRecord
  2
INTF_CYAN
 70
0
 62
7
  6
CONTINUOUS
370
-3
390
F
  0
LAYER
  5
208
100
AcDbSymbolTableRecord
100
AcDbLayerTableRecord
  2
NOTE
 70
0
 62
7
  6
CONTINUOUS
370
-3
390
F
  0
LAYER
  5
209
100
AcDbSymbolTableRecord
100
AcDbLayerTableRecord
  2
PIANI
 70
0
 62
7
  6
CONTINUOUS
370
-3
390
F
  0
LAYER
  5
20A
100
AcDbSymbolTableRecord
100
AcDbLayerTableRecord
  2
PIANI_ORIGINE
 70
0
 62
7
  6
CONTINUOUS
370
-3
390
F
  0
LAYER
  5
20B
100
AcDbSymbolTableRecord
100
AcDbLayerTableRecord
  2
PUNTI
 70
0
 62
7
  6
CONTINUOUS
370
-3
390
F
  0
LAYER
  5
20C
100
AcDbSymbolTableRecord
100
AcDbLayerTableRecord
  2
RACCORDO
 70
0
 62
7
  6
CONTINUOUS
370
-3
390
F
  0
LAYER
  5
20D
100
AcDbSymbolTableRecord
100
AcDbLayerTableRecord
  2
SIMBOLI
 70
0
 62
7
  6
CONTINUOUS
370
-3
390
F
  0
LAYER
  5
20E
100
AcDbSymbolTableRecord
100
AcDbLayerTableRecord
  2
SMUSSO
 70
0
 62
7
  6
CONTINUOUS
370
-3
390
F
  0
LAYER
  5
20F
100
AcDbSymbolTableRecord
100
AcDbLayerTableRecord
  2
SNAPLINE
 70
0
 62
7
  6
CONTINUOUS
370
-3
390
F
  0
LAYER
  5
210
100
AcDbSymbolTableRecord
100
AcDbLayerTableRecord
  2
SUPERFICI
 70
0
 62
7
  6
CONTINUOUS
370
-3
390
F
  0
LAYER
  5
211
100
AcDbSymbolTableRecord
100
AcDbLayerTableRecord
  2
TRASH
 70
0
 62
7
  6
CONTINUOUS
370
-3
390
F
  0
ENDTAB
  0
TABLE
  2
STYLE
  5
3
100
AcDbSymbolTable
 70
1
  0
STYLE
  5
11
100
AcDbSymbolTableRecord
100
AcDbTextStyleTableRecord
  2
STANDARD
 70
0
 40
0.0
 41
0.8
 50
0.0
 71
0
 42
0.2
  3
txt
  4

  0
STYLE
  5
212
100
AcDbSymbolTableRecord
100
AcDbTextStyleTableRecord
  2
TEXTSTYLE_1
 70
0
 40
0.0
 41
0.8
 50
0.0
 71
0
 42
0.2
  3
gdt
  4

  0
ENDTAB
  0
TABLE
  2
VIEW
  5
6
100
AcDbSymbolTable
 70
0
  0
ENDTAB
  0
TABLE
  2
UCS
  5
7
100
AcDbSymbolTable
 70
0
  0
ENDTAB
  0
TABLE
  2
APPID
  5
9
100
AcDbSymbolTable
 70
1
  0
APPID
  5
213
100
AcDbSymbolTableRecord
100
AcDbRegAppTableRecord
  2
ACAD
 70
0
  0
ENDTAB
  0
TABLE
  2
BLOCK_RECORD
  5
1
100
AcDbSymbolTable
 70
0
  0
BLOCK_RECORD
  5
214
100
AcDbSymbolTableRecord
100
AcDbBlockTableRecord
  2
*Model_Space
  0
BLOCK_RECORD
  5
215
100
AcDbSymbolTableRecord
100
AcDbBlockTableRecord
  2
*Paper_Space
  0
BLOCK_RECORD
  5
216
100
AcDbSymbolTableRecord
100
AcDbBlockTableRecord
  2
_FILLED
  0
BLOCK_RECORD
  5
217
100
AcDbSymbolTableRecord
100
AcDbBlockTableRecord
  2
*D0
  0
BLOCK_RECORD
  5
218
100
AcDbSymbolTableRecord
100
AcDbBlockTableRecord
  2
*D1
  0
BLOCK_RECORD
  5
219
100
AcDbSymbolTableRecord
100
AcDbBlockTableRecord
  2
*D2
  0
BLOCK_RECORD
  5
21A
100
AcDbSymbolTableRecord
100
AcDbBlockTableRecord
  2
*D3
  0
ENDTAB
  0
TABLE
  2
DIMSTYLE
  5
A
100
AcDbSymbolTable
 70
1
100
AcDbDimStyleTable
 71
0
  0
DIMSTYLE
105
21B
100
AcDbSymbolTableRecord
100
AcDbDimStyleTableRecord
  2
STANDARD
 70
0
  3

  4

 40
1.0
 41
3.0
 42
0.5
 43
0.38
 44
1.5
 45
0.0
 46
0.0
 47
0.01
 48
0.01
140
3.0
141
0.09
142
0.0
143
25.4
144
1.0
145
0.0
146
1.0
147
0.625
 71
1.0
 72
0.0
 73
0
 74
0
 75
0
 76
0
 77
1
 78
8
 79
2
170
0
171
1
172
0
173
0
174
0
175
0
176
0
177
0
178
0
270
2
179
2
271
2
272
2
273
2
274
2
275
0
280
0
281
0
282
0
283
1
284
8
285
0
286
0
287
3
288
0
340
11
278
44
341
216
342
216
343
216
344
216
  0
DIMSTYLE
105
21C
100
AcDbSymbolTableRecord
100
AcDbDimStyleTableRecord
  2
DIMSTYLE_1
 70
0
  3

  4

 40
1.0
 41
3.0
 42
0.5
 43
0.38
 44
1.5
 45
0.0
 46
0.0
 47
0.0
 48
0.0
140
3.0
141
0.09
142
0.0
143
25.4
144
1.0
145
0.0
146
1.0
147
0.75
 71
0.0
 72
0.0
 73
0
 74
0
 75
0
 76
0
 77
1
 78
8
 79
2
170
0
171
1
172
0
173
0
174
0
175
0
176
0
177
0
178
0
270
2
179
2
271
2
272
2
273
2
274
2
275
0
280
0
281
0
282
0
283
1
284
8
285
0
286
0
287
3
288
0
340
11
278
44
341
216
342
216
343
216
344
216
  0
ENDTAB
  0
ENDSEC
  0
SECTION
  2
BLOCKS
  0
BLOCK
  5
20
100
AcDbEntity
  8
0
100
AcDbBlockBegin
  2
*Model_Space
 70
0
 10
0.0
 20
0.0
 30
0.0
  3
*Model_Space
  1

  0
ENDBLK
  5
21
100
AcDbEntity
  8
0
100
AcDbBlockEnd
  0
BLOCK
  5
1C
100
AcDbEntity
  8
0
100
AcDbBlockBegin
  2
*Paper_Space
 70
0
 10
0.0
 20
0.0
 30
0.0
  3
*Paper_Space
  1

  0
ENDBLK
  5
1D
100
AcDbEntity
  8
0
100
AcDbBlockEnd
  0
BLOCK
  5
21D
100
AcDbEntity
  8
0
100
AcDbBlockBegin
  2
_FILLED
 70
64
 10
0.0
 20
0.0
  3
_FILLED
  1

  0
SOLID
  5
21E
100
AcDbEntity
  8
0
  6
BYBLOCK
 62
0
100
AcDbTrace
 10
0.0
 20
0.0
 11
-1.0
 21
0.3166666667
 12
-1.0
 22
-0.3166666667
 13
-1.0
 23
-0.3166666667
  0
ENDBLK
  5
21F
100
AcDbEntity
  8
0
  6
BYBLOCK
 62
0
100
AcDbBlockEnd
  0
BLOCK
  5
220
100
AcDbEntity
  8
0
100
AcDbBlockBegin
 62
7
  6
CONTINUOUS
  2
*D0
 70
65
 10
0.0
 20
0.0
  3
*D0
  1

  0
LINE
  5
221
100
AcDbEntity
  8
0
100
AcDbLine
 62
7
  6
CONTINUOUS
 10
-72.25
 20
44.7484395587
 11
-72.25
 21
56.5
  0
LINE
  5
222
100
AcDbEntity
  8
0
100
AcDbLine
 62
7
  6
CONTINUOUS
 10
72.25
 20
44.757211243
 11
72.25
 21
56.5
  0
LINE
  5
223
100
AcDbEntity
  8
0
100
AcDbLine
 62
7
  6
CONTINUOUS
 10
-72.25
 20
55.0
 11
0.0
 21
55.0
  0
LINE
  5
224
100
AcDbEntity
  8
0
100
AcDbLine
 62
7
  6
CONTINUOUS
 10
72.25
 20
55.0
 11
0.0
 21
55.0
  0
INSERT
  5
225
100
AcDbEntity
  8
0
100
AcDbBlockReference
 62
7
  6
CONTINUOUS
  2
_FILLED
 10
-72.25
 20
55.0
 41
3.0
 42
3.0
 43
3.0
 50
180.0
  0
INSERT
  5
226
100
AcDbEntity
  8
0
100
AcDbBlockReference
 62
7
  6
CONTINUOUS
  2
_FILLED
 10
72.25
 20
55.0
 41
3.0
 42
3.0
 43
3.0
  0
ENDBLK
  5
227
100
AcDbEntity
  8
0
  6
BYBLOCK
 62
0
100
AcDbBlockEnd
  0
BLOCK
  5
228
100
AcDbEntity
  8
0
100
AcDbBlockBegin
 62
7
  6
CONTINUOUS
  2
*D1
 70
65
 10
0.0
 20
0.0
  3
*D1
  1

  0
LINE
  5
229
100
AcDbEntity
  8
0
100
AcDbLine
 62
7
  6
CONTINUOUS
 10
71.9977074626
 20
45.0
 11
83.75
 21
45.0
  0
LINE
  5
22A
100
AcDbEntity
  8
0
100
AcDbLine
 62
7
  6
CONTINUOUS
 10
72.1421528589
 20
-45.0
 11
83.75
 21
-45.0
  0
LINE
  5
22B
100
AcDbEntity
  8
0
100
AcDbLine
 62
7
  6
CONTINUOUS
 10
82.25
 20
45.0
 11
82.25
 21
0.0
  0
LINE
  5
22C
100
AcDbEntity
  8
0
100
AcDbLine
 62
7
  6
CONTINUOUS
 10
82.25
 20
-45.0
 11
82.25
 21
0.0
  0
INSERT
  5
22D
100
AcDbEntity
  8
0
100
AcDbBlockReference
 62
7
  6
CONTINUOUS
  2
_FILLED
 10
82.25
 20
45.0
 41
3.0
 42
3.0
 43
3.0
 50
90.0
  0
INSERT
  5
22E
100
AcDbEntity
  8
0
100
AcDbBlockReference
 62
7
  6
CONTINUOUS
  2
_FILLED
 10
82.25
 20
-45.0
 41
3.0
 42
3.0
 43
3.0
 50
270.0
  0
ENDBLK
  5
22F
100
AcDbEntity
  8
0
  6
BYBLOCK
 62
0
100
AcDbBlockEnd
  0
BLOCK
  5
230
100
AcDbEntity
  8
0
100
AcDbBlockBegin
 62
7
  6
CONTINUOUS
  2
*D2
 70
65
 10
0.0
 20
0.0
  3
*D2
  1

  0
LINE
  5
231
100
AcDbEntity
  8
0
100
AcDbLine
 62
7
  6
CONTINUOUS
 10
-112.0500002002
 20
44.500609173
 11
-112.0500002002
 21
56.5024470836
  0
LINE
  5
232
100
AcDbEntity
  8
0
100
AcDbLine
 62
7
  6
CONTINUOUS
 10
-116.9500002002
 20
26.5173500632
 11
-116.9500002002
 21
56.5024470836
  0
LINE
  5
233
100
AcDbEntity
  8
0
100
AcDbLine
 62
7
  6
CONTINUOUS
 10
-112.0500002002
 20
55.0024470836
 11
-108.0500002002
 21
55.0024470836
  0
LINE
  5
234
100
AcDbEntity
  8
0
100
AcDbLine
 62
7
  6
CONTINUOUS
 10
-108.0500002002
 20
55.0024470836
 11
-114.5000002002
 21
55.0024470836
  0
LINE
  5
235
100
AcDbEntity
  8
0
100
AcDbLine
 62
7
  6
CONTINUOUS
 10
-116.9500002002
 20
55.0024470836
 11
-128.6600771146
 21
55.0024470836
  0
LINE
  5
236
100
AcDbEntity
  8
0
100
AcDbLine
 62
7
  6
CONTINUOUS
 10
-128.6600771146
 20
55.0024470836
 11
-114.5000002002
 21
55.0024470836
  0
INSERT
  5
237
100
AcDbEntity
  8
0
100
AcDbBlockReference
 62
7
  6
CONTINUOUS
  2
_FILLED
 10
-112.0500002002
 20
55.0024470836
 41
3.0
 42
3.0
 43
3.0
 50
180.0
  0
INSERT
  5
238
100
AcDbEntity
  8
0
100
AcDbBlockReference
 62
7
  6
CONTINUOUS
  2
_FILLED
 10
-116.9500002002
 20
55.0024470836
 41
3.0
 42
3.0
 43
3.0
  0
ENDBLK
  5
239
100
AcDbEntity
  8
0
  6
BYBLOCK
 62
0
100
AcDbBlockEnd
  0
BLOCK
  5
23A
100
AcDbEntity
  8
0
100
AcDbBlockBegin
 62
7
  6
CONTINUOUS
  2
*D3
 70
65
 10
0.0
 20
0.0
  3
*D3
  1

  0
LINE
  5
23B
100
AcDbEntity
  8
0
100
AcDbLine
 62
7
  6
CONTINUOUS
 10
-105.0500002002
 20
26.975
 11
-105.0500002002
 21
66.4763651869
  0
LINE
  5
23C
100
AcDbEntity
  8
0
100
AcDbLine
 62
7
  6
CONTINUOUS
 10
-116.9500002002
 20
24.7021861053
 11
-116.9500002002
 21
66.4763651869
  0
LINE
  5
23D
100
AcDbEntity
  8
0
100
AcDbLine
 62
7
  6
CONTINUOUS
 10
-105.0500002002
 20
64.9763651869
 11
-111.0000002002
 21
64.9763651869
  0
LINE
  5
23E
100
AcDbEntity
  8
0
100
AcDbLine
 62
7
  6
CONTINUOUS
 10
-116.9500002002
 20
64.9763651869
 11
-111.0000002002
 21
64.9763651869
  0
LINE
  5
23F
100
AcDbEntity
  8
0
100
AcDbLine
 62
7
  6
CONTINUOUS
 10
-111.0000002002
 20
64.9763651869
 11
-129.196502095
 21
64.9763651869
  0
INSERT
  5
240
100
AcDbEntity
  8
0
100
AcDbBlockReference
 62
7
  6
CONTINUOUS
  2
_FILLED
 10
-105.0500002002
 20
64.9763651869
 41
3.0
 42
3.0
 43
3.0
  0
INSERT
  5
241
100
AcDbEntity
  8
0
100
AcDbBlockReference
 62
7
  6
CONTINUOUS
  2
_FILLED
 10
-116.9500002002
 20
64.9763651869
 41
3.0
 42
3.0
 43
3.0
 50
180.0
  0
ENDBLK
  5
242
100
AcDbEntity
  8
0
  6
BYBLOCK
 62
0
100
AcDbBlockEnd
  0
ENDSEC
  0
SECTION
  2
ENTITIES
  0
DIMENSION
  5
243
100
AcDbEntity
  8
0
100
AcDbDimension
 62
7
  6
CONTINUOUS
  2
*D0
 10
72.25
 20
55.0
 11
-5.1428571429
 21
55.0
 70
160
 71
2
 72
2
 41
0.9
 42
144.5
  3
DIMSTYLE_1
100
AcDbAlignedDimension
 13
-72.25
 23
44.2484395587
 14
72.25
 24
44.257211243
100
AcDbRotatedDimension
  0
DIMENSION
  5
244
100
AcDbEntity
  8
0
100
AcDbDimension
 62
7
  6
CONTINUOUS
  2
*D1
 10
82.25
 20
-45.0
 11
82.25
 21
-2.3571428571
 70
160
 71
2
 72
2
 41
0.9
 42
90.0
  3
DIMSTYLE_1
100
AcDbAlignedDimension
 13
71.4977074626
 23
45.0
 14
71.6421528589
 24
-45.0
 50
270.0
100
AcDbRotatedDimension
  0
DIMENSION
  5
245
100
AcDbEntity
  8
0
100
AcDbDimension
 62
7
  6
CONTINUOUS
  2
*D2
 10
-116.9500002002
 20
55.0024470836
 11
-128.6600771146
 21
55.0024470836
 70
160
 71
3
 72
2
 41
0.9
 42
4.9
  3
DIMSTYLE_1
100
AcDbAlignedDimension
 13
-112.0500002002
 23
44.000609173
 14
-116.9500002002
 24
26.0173500632
 50
180.0
100
AcDbRotatedDimension
  0
DIMENSION
  5
246
100
AcDbEntity
  8
0
100
AcDbDimension
 62
7
  6
CONTINUOUS
  2
*D3
 10
-116.9500002002
 20
64.9763651869
 11
-129.196502095
 21
64.9763651869
 70
160
 71
3
 72
2
 41
0.9
 42
11.9
  3
DIMSTYLE_1
100
AcDbAlignedDimension
 13
-105.0500002002
 23
26.475
 14
-116.9500002002
 24
24.2021861053
 50
180.0
100
AcDbRotatedDimension
  0
LWPOLYLINE
  5
247
100
AcDbEntity
  8
RACCORDO
100
AcDbPolyline
 62
250
  6
CONTINUOUS
 90
25
 70
0
 10
-72.2027124597
 20
-44.0265663421
 10
-72.1971726741
 20
-44.085771512
 10
-72.1882134389
 20
-44.1446122075
 10
-72.1758607803
 20
-44.2028832802
 10
-72.160187749
 20
-44.2602659909
 10
-72.1412231003
 20
-44.3166785859
 10
-72.1188845656
 20
-44.3722536749
 10
-72.0931316723
 20
-44.4268817152
 10
-72.0640387416
 20
-44.4802182454
 10
-72.0316605588
 20
-44.5320200732
 10
-71.9960539838
 20
-44.5820731454
 10
-71.9573062803
 20
-44.6301381194
 10
-71.9155528223
 20
-44.675943667
 10
-71.8709272483
 20
-44.7192672295
 10
-71.823554571
 20
-44.7599122704
 10
-71.77359044
 20
-44.7976633323
 10
-71.7213174682
 20
-44.8322586794
 10
-71.666812256
 20
-44.8636002873
 10
-71.6099095765
 20
-44.8916678819
 10
-71.5506555939
 20
-44.9162820769
 10
-71.4893854152
 20
-44.9371479662
 10
-71.4263681512
 20
-44.9540283369
 10
-71.3618700147
 20
-44.9667243259
 10
-71.2961504766
 20
-44.9750663734
 10
-71.2295021505
 20
-44.9788929775
  0
LWPOLYLINE
  5
248
100
AcDbEntity
  8
ASSI
100
AcDbPolyline
 62
250
  6
CONTINUOUS
 90
25
 70
0
 10
-72.2027124597
 20
-44.0265663421
 10
-72.1971726741
 20
-44.085771512
 10
-72.1882134389
 20
-44.1446122075
 10
-72.1758607803
 20
-44.2028832802
 10
-72.160187749
 20
-44.2602659909
 10
-72.1412231003
 20
-44.3166785859
 10
-72.1188845656
 20
-44.3722536749
 10
-72.0931316723
 20
-44.4268817152
 10
-72.0640387416
 20
-44.4802182454
 10
-72.0316605588
 20
-44.5320200732
 10
-71.9960539838
 20
-44.5820731454
 10
-71.9573062803
 20
-44.6301381194
 10
-71.9155528223
 20
-44.675943667
 10
-71.8709272483
 20
-44.7192672295
 10
-71.823554571
 20
-44.7599122704
 10
-71.77359044
 20
-44.7976633323
 10
-71.7213174682
 20
-44.8322586794
 10
-71.666812256
 20
-44.8636002873
 10
-71.6099095765
 20
-44.8916678819
 10
-71.5506555939
 20
-44.9162820769
 10
-71.4893854152
 20
-44.9371479662
 10
-71.4263681512
 20
-44.9540283369
 10
-71.3618700147
 20
-44.9667243259
 10
-71.2961504766
 20
-44.9750663734
 10
-71.2295021505
 20
-44.9788929775
  0
LWPOLYLINE
  5
249
100
AcDbEntity
  8
RACCORDO
100
AcDbPolyline
 62
250
  6
CONTINUOUS
 90
24
 70
0
 10
-71.7017294397
 20
-44.2154064276
 10
-71.6974996803
 20
-44.2648376966
 10
-71.6916212502
 20
-44.3137973076
 10
-71.6840963429
 20
-44.3620878121
 10
-71.6749227649
 20
-44.4096471266
 10
-71.6640939364
 20
-44.4565302739
 10
-71.6515821343
 20
-44.5026638788
 10
-71.6374150815
 20
-44.5477866436
 10
-71.6216693678
 20
-44.5916542433
 10
-71.6043157033
 20
-44.6341055712
 10
-71.5853833777
 20
-44.6749581281
 10
-71.5650368508
 20
-44.7139530087
 10
-71.5432547737
 20
-44.750917813
 10
-71.5200584951
 20
-44.7856997866
 10
-71.4956765211
 20
-44.8180940627
 10
-71.4701518527
 20
-44.8478881301
 10
-71.4434414887
 20
-44.8750092272
 10
-71.4156449313
 20
-44.8994305425
 10
-71.3866771069
 20
-44.9210089084
 10
-71.3566230891
 20
-44.9394964344
 10
-71.3258376008
 20
-44.9546850136
 10
-71.294438883
 20
-44.9664089723
 10
-71.2623086946
 20
-44.9745255485
 10
-71.2294470358
 20
-44.9788897961
  0
LWPOLYLINE
  5
24A
100
AcDbEntity
  8
ASSI
100
AcDbPolyline
 62
250
  6
CONTINUOUS
 90
24
 70
0
 10
-71.7017294397
 20
-44.2154064276
 10
-71.6974996803
 20
-44.2648376966
 10
-71.6916212502
 20
-44.3137973076
 10
-71.6840963429
 20
-44.3620878121
 10
-71.6749227649
 20
-44.4096471266
 10
-71.6640939364
 20
-44.4565302739
 10
-71.6515821343
 20
-44.5026638788
 10
-71.6374150815
 20
-44.5477866436
 10
-71.6216693678
 20
-44.5916542433
 10
-71.6043157033
 20
-44.6341055712
 10
-71.5853833777
 20
-44.6749581281
 10
-71.5650368508
 20
-44.7139530087
 10
-71.5432547737
 20
-44.750917813
 10
-71.5200584951
 20
-44.7856997866
 10
-71.4956765211
 20
-44.8180940627
 10
-71.4701518527
 20
-44.8478881301
 10
-71.4434414887
 20
-44.8750092272
 10
-71.4156449313
 20
-44.8994305425
 10
-71.3866771069
 20
-44.9210089084
 10
-71.3566230891
 20
-44.9394964344
 10
-71.3258376008
 20
-44.9546850136
 10
-71.294438883
 20
-44.9664089723
 10
-71.2623086946
 20
-44.9745255485
 10
-71.2294470358
 20
-44.9788897961
  0
LINE
  5
24B
100
AcDbEntity
  8
RACCORDO
100
AcDbLine
 62
250
  6
CONTINUOUS
 10
-72.204793953
 20
43.9554031259
 11
-72.1902209612
 21
42.6783861688
  0
LINE
  5
24C
100
AcDbEntity
  8
ASSI
100
AcDbLine
 62
250
  6
CONTINUOUS
 10
-72.204793953
 20
43.9554031259
 11
-72.1902209612
 21
42.6783861688
  0
LINE
  5
24D
100
AcDbEntity
  8
RACCORDO
100
AcDbLine
 62
250
  6
CONTINUOUS
 10
-72.1902209612
 20
42.6783861688
 11
-72.1760599611
 21
41.0923489539
  0
LINE
  5
24E
100
AcDbEntity
  8
ASSI
100
AcDbLine
 62
250
  6
CONTINUOUS
 10
-72.1902209612
 20
42.6783861688
 11
-72.1760599611
 21
41.0923489539
  0
LINE
  5
24F
100
AcDbEntity
  8
RACCORDO
100
AcDbLine
 62
250
  6
CONTINUOUS
 10
-71.6905255477
 20
42.8176447183
 11
-71.6763645477
 21
41.2026914488
  0
LINE
  5
250
100
AcDbEntity
  8
ASSI
100
AcDbLine
 62
250
  6
CONTINUOUS
 10
-71.6905255477
 20
42.8176447183
 11
-71.6763645477
 21
41.2026914488
  0
LINE
  5
251
100
AcDbEntity
  8
RACCORDO
100
AcDbLine
 62
250
  6
CONTINUOUS
 10
-72.1760599611
 20
41.0923489539
 11
-72.1614818934
 21
38.9793568504
  0
LINE
  5
252
100
AcDbEntity
  8
ASSI
100
AcDbLine
 62
250
  6
CONTINUOUS
 10
-72.1760599611
 20
41.0923489539
 11
-72.1614818934
 21
38.9793568504
  0
LINE
  5
253
100
AcDbEntity
  8
RACCORDO
100
AcDbLine
 62
250
  6
CONTINUOUS
 10
-71.6763645477
 20
41.2026914488
 11
-71.6617864799
 21
39.0644545429
  0
LINE
  5
254
100
AcDbEntity
  8
ASSI
100
AcDbLine
 62
250
  6
CONTINUOUS
 10
-71.6763645477
 20
41.2026914488
 11
-71.6617864799
 21
39.0644545429
  0
LINE
  5
255
100
AcDbEntity
  8
RACCORDO
100
AcDbLine
 62
250
  6
CONTINUOUS
 10
-72.1614818934
 20
38.9793568504
 11
-72.1443946998
 21
35.6163272087
  0
LINE
  5
256
100
AcDbEntity
  8
ASSI
100
AcDbLine
 62
250
  6
CONTINUOUS
 10
-72.1614818934
 20
38.9793568504
 11
-72.1443946998
 21
35.6163272087
  0
LINE
  5
257
100
AcDbEntity
  8
RACCORDO
100
AcDbLine
 62
250
  6
CONTINUOUS
 10
-71.6617864799
 20
39.0644545429
 11
-71.6446992863
 21
35.6772014016
  0
LINE
  5
258
100
AcDbEntity
  8
ASSI
100
AcDbLine
 62
250
  6
CONTINUOUS
 10
-71.6617864799
 20
39.0644545429
 11
-71.6446992863
 21
35.6772014016
  0
LINE
  5
259
100
AcDbEntity
  8
RACCORDO
100
AcDbLine
 62
250
  6
CONTINUOUS
 10
-72.1443946998
 20
35.6163272087
 11
-72.1304313255
 21
31.7761700293
  0
LINE
  5
25A
100
AcDbEntity
  8
ASSI
100
AcDbLine
 62
250
  6
CONTINUOUS
 10
-72.1443946998
 20
35.6163272087
 11
-72.1304313255
 21
31.7761700293
  0
LINE
  5
25B
100
AcDbEntity
  8
RACCORDO
100
AcDbLine
 62
250
  6
CONTINUOUS
 10
-71.6446992863
 20
35.6772014016
 11
-71.630735912
 21
31.820137227
  0
LINE
  5
25C
100
AcDbEntity
  8
ASSI
100
AcDbLine
 62
250
  6
CONTINUOUS
 10
-71.6446992863
 20
35.6772014016
 11
-71.630735912
 21
31.820137227
  0
LINE
  5
25D
100
AcDbEntity
  8
RACCORDO
100
AcDbLine
 62
250
  6
CONTINUOUS
 10
-72.1304313255
 20
31.7761700293
 11
-72.1165949211
 21
26.2569453587
  0
LINE
  5
25E
100
AcDbEntity
  8
ASSI
100
AcDbLine
 62
250
  6
CONTINUOUS
 10
-72.1304313255
 20
31.7761700293
 11
-72.1165949211
 21
26.2569453587
  0
LINE
  5
25F
100
AcDbEntity
  8
RACCORDO
100
AcDbLine
 62
250
  6
CONTINUOUS
 10
-71.630735912
 20
31.820137227
 11
-71.6168995076
 21
26.2861411236
  0
LINE
  5
260
100
AcDbEntity
  8
ASSI
100
AcDbLine
 62
250
  6
CONTINUOUS
 10
-71.630735912
 20
31.820137227
 11
-71.6168995076
 21
26.2861411236
  0
LINE
  5
261
100
AcDbEntity
  8
RACCORDO
100
AcDbLine
 62
250
  6
CONTINUOUS
 10
-72.1165949211
 20
26.2569453587
 11
-72.1053479932
 21
19.0481745925
  0
LINE
  5
262
100
AcDbEntity
  8
ASSI
100
AcDbLine
 62
250
  6
CONTINUOUS
 10
-72.1165949211
 20
26.2569453587
 11
-72.1053479932
 21
19.0481745925
  0
LINE
  5
263
100
AcDbEntity
  8
RACCORDO
100
AcDbLine
 62
250
  6
CONTINUOUS
 10
-71.6168995076
 20
26.2861411236
 11
-71.6056525797
 21
19.0650711498
  0
LINE
  5
264
100
AcDbEntity
  8
ASSI
100
AcDbLine
 62
250
  6
CONTINUOUS
 10
-71.6168995076
 20
26.2861411236
 11
-71.6056525797
 21
19.0650711498
  0
LINE
  5
265
100
AcDbEntity
  8
RACCORDO
100
AcDbLine
 62
250
  6
CONTINUOUS
 10
-72.1053479932
 20
19.0481745925
 11
-72.0978926348
 21
9.666629151
  0
LINE
  5
266
100
AcDbEntity
  8
ASSI
100
AcDbLine
 62
250
  6
CONTINUOUS
 10
-72.1053479932
 20
19.0481745925
 11
-72.0978926348
 21
9.666629151
  0
LINE
  5
267
100
AcDbEntity
  8
RACCORDO
100
AcDbLine
 62
250
  6
CONTINUOUS
 10
-71.6056525797
 20
19.0650711498
 11
-71.5981972213
 21
9.6733339531
  0
LINE
  5
268
100
AcDbEntity
  8
ASSI
100
AcDbLine
 62
250
  6
CONTINUOUS
 10
-71.6056525797
 20
19.0650711498
 11
-71.5981972213
 21
9.6733339531
  0
LINE
  5
269
100
AcDbEntity
  8
RACCORDO
100
AcDbLine
 62
7
  6
CONTINUOUS
 10
-72.25
 20
44.000609173
 11
-72.25
 21
3.6
  0
LINE
  5
26A
100
AcDbEntity
  8
ASSI
100
AcDbLine
 62
7
  6
CONTINUOUS
 10
-72.25
 20
44.000609173
 11
-72.25
 21
3.6
  0
LINE
  5
26B
100
AcDbEntity
  8
RACCORDO
100
AcDbLine
 62
7
  6
CONTINUOUS
 10
-72.25
 20
-3.6
 11
-72.25
 21
-44.000609173
  0
LINE
  5
26C
100
AcDbEntity
  8
ASSI
100
AcDbLine
 62
7
  6
CONTINUOUS
 10
-72.25
 20
-3.6
 11
-72.25
 21
-44.000609173
  0
LINE
  5
26D
100
AcDbEntity
  8
DRAFT
100
AcDbLine
 62
7
  6
CONTINUOUS
 10
-72.1626980763
 20
-3.4689805518
 11
-72.1626980763
 21
3.4689805518
  0
LINE
  5
26E
100
AcDbEntity
  8
ASSI
100
AcDbLine
 62
7
  6
CONTINUOUS
 10
-72.1626980763
 20
-3.4689805518
 11
-72.1626980763
 21
3.4689805518
  0
LINE
  5
26F
100
AcDbEntity
  8
RACCORDO
100
AcDbLine
 62
250
  6
CONTINUOUS
 10
-72.0978926348
 20
9.666629151
 11
-72.0957836376
 21
-1.4519672319
  0
LINE
  5
270
100
AcDbEntity
  8
ASSI
100
AcDbLine
 62
250
  6
CONTINUOUS
 10
-72.0978926348
 20
9.666629151
 11
-72.0957836376
 21
-1.4519672319
  0
LINE
  5
271
100
AcDbEntity
  8
RACCORDO
100
AcDbLine
 62
250
  6
CONTINUOUS
 10
-71.5981972213
 20
9.6733339531
 11
-71.5960882241
 21
-1.4529789662
  0
LINE
  5
272
100
AcDbEntity
  8
ASSI
100
AcDbLine
 62
250
  6
CONTINUOUS
 10
-71.5981972213
 20
9.6733339531
 11
-71.5960882241
 21
-1.4529789662
  0
LINE
  5
273
100
AcDbEntity
  8
RACCORDO
100
AcDbLine
 62
250
  6
CONTINUOUS
 10
-72.0957836376
 20
-1.4519672319
 11
-72.0978135997
 21
-9.496752107
  0
LINE
  5
274
100
AcDbEntity
  8
ASSI
100
AcDbLine
 62
250
  6
CONTINUOUS
 10
-72.0957836376
 20
-1.4519672319
 11
-72.0978135997
 21
-9.496752107
  0
LINE
  5
275
100
AcDbEntity
  8
RACCORDO
100
AcDbLine
 62
250
  6
CONTINUOUS
 10
-71.5960882241
 20
-1.4529789662
 11
-71.5981181862
 21
-9.5035194331
  0
LINE
  5
276
100
AcDbEntity
  8
ASSI
100
AcDbLine
 62
250
  6
CONTINUOUS
 10
-71.5960882241
 20
-1.4529789662
 11
-71.5981181862
 21
-9.5035194331
  0
LINE
  5
277
100
AcDbEntity
  8
RACCORDO
100
AcDbLine
 62
250
  6
CONTINUOUS
 10
-72.0978135997
 20
-9.496752107
 11
-72.1029844299
 21
-16.8374605533
  0
LINE
  5
278
100
AcDbEntity
  8
ASSI
100
AcDbLine
 62
250
  6
CONTINUOUS
 10
-72.0978135997
 20
-9.496752107
 11
-72.1029844299
 21
-16.8374605533
  0
LINE
  5
279
100
AcDbEntity
  8
RACCORDO
100
AcDbLine
 62
250
  6
CONTINUOUS
 10
-71.5981181862
 20
-9.5035194331
 11
-71.6032890164
 21
-16.8514902319
  0
LINE
  5
27A
100
AcDbEntity
  8
ASSI
100
AcDbLine
 62
250
  6
CONTINUOUS
 10
-71.5981181862
 20
-9.5035194331
 11
-71.6032890164
 21
-16.8514902319
  0
LWPOLYLINE
  5
27B
100
AcDbEntity
  8
RACCORDO
100
AcDbPolyline
 62
250
  6
CONTINUOUS
 90
9
 70
0
 10
-71.705134492
 20
-44.1327686324
 10
-71.7051395646
 20
-44.136879477
 10
-71.7051137573
 20
-44.1409894821
 10
-71.7050570668
 20
-44.1450987699
 10
-71.7049694963
 20
-44.1492072103
 10
-71.7048510562
 20
-44.1533144215
 10
-71.70470175
 20
-44.1574202748
 10
-71.7045215741
 20
-44.1615248935
 10
-71.7017294397
 20
-44.2154064276
  0
LWPOLYLINE
  5
27C
100
AcDbEntity
  8
ASSI
100
AcDbPolyline
 62
250
  6
CONTINUOUS
 90
9
 70
0
 10
-71.705134492
 20
-44.1327686324
 10
-71.7051395646
 20
-44.136879477
 10
-71.7051137573
 20
-44.1409894821
 10
-71.7050570668
 20
-44.1450987699
 10
-71.7049694963
 20
-44.1492072103
 10
-71.7048510562
 20
-44.1533144215
 10
-71.70470175
 20
-44.1574202748
 10
-71.7045215741
 20
-44.1615248935
 10
-71.7017294397
 20
-44.2154064276
  0
LINE
  5
27D
100
AcDbEntity
  8
RACCORDO
100
AcDbLine
 62
250
  6
CONTINUOUS
 10
-72.1029844299
 20
-16.8374605533
 11
-72.1107720998
 21
-23.012882442
  0
LINE
  5
27E
100
AcDbEntity
  8
ASSI
100
AcDbLine
 62
250
  6
CONTINUOUS
 10
-72.1029844299
 20
-16.8374605533
 11
-72.1107720998
 21
-23.012882442
  0
LINE
  5
27F
100
AcDbEntity
  8
RACCORDO
100
AcDbLine
 62
250
  6
CONTINUOUS
 10
-71.6032890164
 20
-16.8514902319
 11
-71.6110766863
 21
-23.0354449598
  0
LINE
  5
280
100
AcDbEntity
  8
ASSI
100
AcDbLine
 62
250
  6
CONTINUOUS
 10
-71.6032890164
 20
-16.8514902319
 11
-71.6110766863
 21
-23.0354449598
  0
LWPOLYLINE
  5
281
100
AcDbEntity
  8
RACCORDO
100
AcDbPolyline
 62
250
  6
CONTINUOUS
 90
10
 70
0
 10
-72.204793953
 20
-43.9554031259
 10
-72.204809689
 20
-43.963317595
 10
-72.2047636352
 20
-43.9712311586
 10
-72.2046558074
 20
-43.9791433311
 10
-72.2044862349
 20
-43.987053391
 10
-72.2042549357
 20
-43.9949610894
 10
-72.2039618978
 20
-44.0028666484
 10
-72.2036071207
 20
-44.0107698184
 10
-72.203190634
 20
-44.0186698781
 10
-72.2027124597
 20
-44.0265663421
  0
LWPOLYLINE
  5
282
100
AcDbEntity
  8
ASSI
100
AcDbPolyline
 62
250
  6
CONTINUOUS
 90
10
 70
0
 10
-72.204793953
 20
-43.9554031259
 10
-72.204809689
 20
-43.963317595
 10
-72.2047636352
 20
-43.9712311586
 10
-72.2046558074
 20
-43.9791433311
 10
-72.2044862349
 20
-43.987053391
 10
-72.2042549357
 20
-43.9949610894
 10
-72.2039618978
 20
-44.0028666484
 10
-72.2036071207
 20
-44.0107698184
 10
-72.203190634
 20
-44.0186698781
 10
-72.2027124597
 20
-44.0265663421
  0
LINE
  5
283
100
AcDbEntity
  8
RACCORDO
100
AcDbLine
 62
250
  6
CONTINUOUS
 10
-72.1107720998
 20
-23.012882442
 11
-72.1204743754
 21
-28.0526288039
  0
LINE
  5
284
100
AcDbEntity
  8
ASSI
100
AcDbLine
 62
250
  6
CONTINUOUS
 10
-72.1107720998
 20
-23.012882442
 11
-72.1204743754
 21
-28.0526288039
  0
LINE
  5
285
100
AcDbEntity
  8
RACCORDO
100
AcDbLine
 62
250
  6
CONTINUOUS
 10
-71.6110766863
 20
-23.0354449598
 11
-71.6207789619
 21
-28.085474528
  0
LINE
  5
286
100
AcDbEntity
  8
ASSI
100
AcDbLine
 62
250
  6
CONTINUOUS
 10
-71.6110766863
 20
-23.0354449598
 11
-71.6207789619
 21
-28.085474528
  0
LINE
  5
287
100
AcDbEntity
  8
RACCORDO
100
AcDbLine
 62
250
  6
CONTINUOUS
 10
-72.1204743754
 20
-28.0526288039
 11
-72.1314389237
 21
-32.0986902687
  0
LINE
  5
288
100
AcDbEntity
  8
ASSI
100
AcDbLine
 62
250
  6
CONTINUOUS
 10
-72.1204743754
 20
-28.0526288039
 11
-72.1314389237
 21
-32.0986902687
  0
LINE
  5
289
100
AcDbEntity
  8
RACCORDO
100
AcDbLine
 62
250
  6
CONTINUOUS
 10
-71.6207789619
 20
-28.085474528
 11
-71.6317435102
 21
-32.1438769404
  0
LINE
  5
28A
100
AcDbEntity
  8
ASSI
100
AcDbLine
 62
250
  6
CONTINUOUS
 10
-71.6207789619
 20
-28.085474528
 11
-71.6317435102
 21
-32.1438769404
  0
LINE
  5
28B
100
AcDbEntity
  8
RACCORDO
100
AcDbLine
 62
250
  6
CONTINUOUS
 10
-72.1314389237
 20
-32.0986902687
 11
-72.1440266863
 21
-35.5300684567
  0
LINE
  5
28C
100
AcDbEntity
  8
ASSI
100
AcDbLine
 62
250
  6
CONTINUOUS
 10
-72.1314389237
 20
-32.0986902687
 11
-72.1440266863
 21
-35.5300684567
  0
LINE
  5
28D
100
AcDbEntity
  8
RACCORDO
100
AcDbLine
 62
250
  6
CONTINUOUS
 10
-71.6317435102
 20
-32.1438769404
 11
-71.6443312728
 21
-35.5904669076
  0
LINE
  5
28E
100
AcDbEntity
  8
ASSI
100
AcDbLine
 62
250
  6
CONTINUOUS
 10
-71.6317435102
 20
-32.1438769404
 11
-71.6443312728
 21
-35.5904669076
  0
LINE
  5
28F
100
AcDbEntity
  8
RACCORDO
100
AcDbLine
 62
250
  6
CONTINUOUS
 10
-72.1440266863
 20
-35.5300684567
 11
-72.1574912748
 21
-38.2929133296
  0
LINE
  5
290
100
AcDbEntity
  8
ASSI
100
AcDbLine
 62
250
  6
CONTINUOUS
 10
-72.1440266863
 20
-35.5300684567
 11
-72.1574912748
 21
-38.2929133296
  0
LINE
  5
291
100
AcDbEntity
  8
RACCORDO
100
AcDbLine
 62
250
  6
CONTINUOUS
 10
-71.6443312728
 20
-35.5904669076
 11
-71.6577958613
 21
-38.3720371809
  0
LINE
  5
292
100
AcDbEntity
  8
ASSI
100
AcDbLine
 62
250
  6
CONTINUOUS
 10
-71.6443312728
 20
-35.5904669076
 11
-71.6577958613
 21
-38.3720371809
  0
LINE
  5
293
100
AcDbEntity
  8
RACCORDO
100
AcDbLine
 62
250
  6
CONTINUOUS
 10
-71.6577958613
 20
-38.3720371809
 11
-71.6640935113
 21
-39.4416589614
  0
LINE
  5
294
100
AcDbEntity
  8
ASSI
100
AcDbLine
 62
250
  6
CONTINUOUS
 10
-71.6577958613
 20
-38.3720371809
 11
-71.6640935113
 21
-39.4416589614
  0
LINE
  5
295
100
AcDbEntity
  8
RACCORDO
100
AcDbLine
 62
250
  6
CONTINUOUS
 10
-72.1574912748
 20
-38.2929133296
 11
-72.1708174867
 21
-40.3964674346
  0
LINE
  5
296
100
AcDbEntity
  8
ASSI
100
AcDbLine
 62
250
  6
CONTINUOUS
 10
-72.1574912748
 20
-38.2929133296
 11
-72.1708174867
 21
-40.3964674346
  0
LINE
  5
297
100
AcDbEntity
  8
RACCORDO
100
AcDbLine
 62
250
  6
CONTINUOUS
 10
-71.6640935113
 20
-39.4416589614
 11
-71.6786474456
 21
-41.4901589607
  0
LINE
  5
298
100
AcDbEntity
  8
ASSI
100
AcDbLine
 62
250
  6
CONTINUOUS
 10
-71.6640935113
 20
-39.4416589614
 11
-71.6786474456
 21
-41.4901589607
  0
LINE
  5
299
100
AcDbEntity
  8
RACCORDO
100
AcDbLine
 62
250
  6
CONTINUOUS
 10
-72.1708174867
 20
-40.3964674346
 11
-72.185571123
 21
-42.2001497409
  0
LINE
  5
29A
100
AcDbEntity
  8
ASSI
100
AcDbLine
 62
250
  6
CONTINUOUS
 10
-72.1708174867
 20
-40.3964674346
 11
-72.185571123
 21
-42.2001497409
  0
LINE
  5
29B
100
AcDbEntity
  8
RACCORDO
100
AcDbLine
 62
250
  6
CONTINUOUS
 10
-71.6786474456
 20
-41.4901589607
 11
-71.6936829475
 21
-43.1284278308
  0
LINE
  5
29C
100
AcDbEntity
  8
ASSI
100
AcDbLine
 62
250
  6
CONTINUOUS
 10
-71.6786474456
 20
-41.4901589607
 11
-71.6936829475
 21
-43.1284278308
  0
LINE
  5
29D
100
AcDbEntity
  8
RACCORDO
100
AcDbLine
 62
250
  6
CONTINUOUS
 10
-72.185571123
 20
-42.2001497409
 11
-72.2003794997
 21
-43.6006461172
  0
LINE
  5
29E
100
AcDbEntity
  8
ASSI
100
AcDbLine
 62
250
  6
CONTINUOUS
 10
-72.185571123
 20
-42.2001497409
 11
-72.2003794997
 21
-43.6006461172
  0
LINE
  5
29F
100
AcDbEntity
  8
RACCORDO
100
AcDbLine
 62
250
  6
CONTINUOUS
 10
-71.6936829475
 20
-43.1284278308
 11
-71.705134492
 21
-44.1327686324
  0
LINE
  5
2A0
100
AcDbEntity
  8
ASSI
100
AcDbLine
 62
250
  6
CONTINUOUS
 10
-71.6936829475
 20
-43.1284278308
 11
-71.705134492
 21
-44.1327686324
  0
LINE
  5
2A1
100
AcDbEntity
  8
RACCORDO
100
AcDbLine
 62
250
  6
CONTINUOUS
 10
-72.2003794997
 20
-43.6006461172
 11
-72.204793953
 21
-43.9554031259
  0
LINE
  5
2A2
100
AcDbEntity
  8
ASSI
100
AcDbLine
 62
250
  6
CONTINUOUS
 10
-72.2003794997
 20
-43.6006461172
 11
-72.204793953
 21
-43.9554031259
  0
LWPOLYLINE
  5
2A3
100
AcDbEntity
  8
RACCORDO
100
AcDbPolyline
 62
250
  6
CONTINUOUS
 90
9
 70
0
 10
-71.7045215741
 20
44.1615248935
 10
-71.70470175
 20
44.1574202748
 10
-71.7048510562
 20
44.1533144215
 10
-71.7049694963
 20
44.1492072103
 10
-71.7050570668
 20
44.1450987699
 10
-71.7051137573
 20
44.1409894821
 10
-71.7051395646
 20
44.136879477
 10
-71.705134492
 20
44.1327686324
 10
-71.6905255477
 20
42.8176447183
  0
LWPOLYLINE
  5
2A4
100
AcDbEntity
  8
ASSI
100
AcDbPolyline
 62
250
  6
CONTINUOUS
 90
9
 70
0
 10
-71.7045215741
 20
44.1615248935
 10
-71.70470175
 20
44.1574202748
 10
-71.7048510562
 20
44.1533144215
 10
-71.7049694963
 20
44.1492072103
 10
-71.7050570668
 20
44.1450987699
 10
-71.7051137573
 20
44.1409894821
 10
-71.7051395646
 20
44.136879477
 10
-71.705134492
 20
44.1327686324
 10
-71.6905255477
 20
42.8176447183
  0
LWPOLYLINE
  5
2A5
100
AcDbEntity
  8
RACCORDO
100
AcDbPolyline
 62
250
  6
CONTINUOUS
 90
10
 70
0
 10
-72.2027124597
 20
44.0265663421
 10
-72.203190634
 20
44.0186698781
 10
-72.2036071207
 20
44.0107698184
 10
-72.2039618978
 20
44.0028666484
 10
-72.2042549357
 20
43.9949610894
 10
-72.2044862349
 20
43.987053391
 10
-72.2046558074
 20
43.9791433311
 10
-72.2047636352
 20
43.9712311586
 10
-72.204809689
 20
43.963317595
 10
-72.204793953
 20
43.9554031259
  0
LWPOLYLINE
  5
2A6
100
AcDbEntity
  8
ASSI
100
AcDbPolyline
 62
250
  6
CONTINUOUS
 90
10
 70
0
 10
-72.2027124597
 20
44.0265663421
 10
-72.203190634
 20
44.0186698781
 10
-72.2036071207
 20
44.0107698184
 10
-72.2039618978
 20
44.0028666484
 10
-72.2042549357
 20
43.9949610894
 10
-72.2044862349
 20
43.987053391
 10
-72.2046558074
 20
43.9791433311
 10
-72.2047636352
 20
43.9712311586
 10
-72.204809689
 20
43.963317595
 10
-72.204793953
 20
43.9554031259
  0
LINE
  5
2A7
100
AcDbEntity
  8
DRAFT
100
AcDbLine
 62
7
  6
CONTINUOUS
 10
-72.25
 20
-3.6
 11
-72.1626980763
 21
-3.4689805518
  0
LINE
  5
2A8
100
AcDbEntity
  8
ASSI
100
AcDbLine
 62
7
  6
CONTINUOUS
 10
-72.25
 20
-3.6
 11
-72.1626980763
 21
-3.4689805518
  0
LWPOLYLINE
  5
2A9
100
AcDbEntity
  8
RACCORDO
100
AcDbPolyline
 62
250
  6
CONTINUOUS
 90
25
 70
0
 10
71.229449029
 20
-44.9788897961
 10
71.2622864898
 20
-44.9745268018
 10
71.2942234319
 20
-44.96647166
 10
71.3252598555
 20
-44.9549340505
 10
71.3554105951
 20
-44.9401722242
 10
71.384660816
 20
-44.9223774789
 10
71.4129660141
 20
-44.90158487
 10
71.4403897082
 20
-44.8778675933
 10
71.4668683794
 20
-44.8514280302
 10
71.4921669675
 20
-44.8224235649
 10
71.5162832369
 20
-44.7909798005
 10
71.5392194232
 20
-44.7572790312
 10
71.5607471734
 20
-44.7215897858
 10
71.5807738314
 20
-44.6842652669
 10
71.5993920533
 20
-44.6453253405
 10
71.6166514535
 20
-44.6044902746
 10
71.6326205459
 20
-44.561775412
 10
71.6472308166
 20
-44.5173745591
 10
71.6603263388
 20
-44.4711890853
 10
71.6719465207
 20
-44.4231081949
 10
71.6820519541
 20
-44.3734212997
 10
71.6903684868
 20
-44.3226487266
 10
71.6968047347
 20
-44.2710704488
 10
71.701452082
 20
-44.2186860412
 10
71.7045215741
 20
-44.1615248935
  0
LWPOLYLINE
  5
2AA
100
AcDbEntity
  8
ASSI
100
AcDbPolyline
 62
250
  6
CONTINUOUS
 90
25
 70
0
 10
71.229449029
 20
-44.9788897961
 10
71.2622864898
 20
-44.9745268018
 10
71.2942234319
 20
-44.96647166
 10
71.3252598555
 20
-44.9549340505
 10
71.3554105951
 20
-44.9401722242
 10
71.384660816
 20
-44.9223774789
 10
71.4129660141
 20
-44.90158487
 10
71.4403897082
 20
-44.8778675933
 10
71.4668683794
 20
-44.8514280302
 10
71.4921669675
 20
-44.8224235649
 10
71.5162832369
 20
-44.7909798005
 10
71.5392194232
 20
-44.7572790312
 10
71.5607471734
 20
-44.7215897858
 10
71.5807738314
 20
-44.6842652669
 10
71.5993920533
 20
-44.6453253405
 10
71.6166514535
 20
-44.6044902746
 10
71.6326205459
 20
-44.561775412
 10
71.6472308166
 20
-44.5173745591
 10
71.6603263388
 20
-44.4711890853
 10
71.6719465207
 20
-44.4231081949
 10
71.6820519541
 20
-44.3734212997
 10
71.6903684868
 20
-44.3226487266
 10
71.6968047347
 20
-44.2710704488
 10
71.701452082
 20
-44.2186860412
 10
71.7045215741
 20
-44.1615248935
  0
LINE
  5
2AB
100
AcDbEntity
  8
DRAFT
100
AcDbLine
 62
7
  6
CONTINUOUS
 10
-72.25
 20
3.6
 11
-72.1626980763
 21
3.4689805518
  0
LINE
  5
2AC
100
AcDbEntity
  8
ASSI
100
AcDbLine
 62
7
  6
CONTINUOUS
 10
-72.25
 20
3.6
 11
-72.1626980763
 21
3.4689805518
  0
LWPOLYLINE
  5
2AD
100
AcDbEntity
  8
RACCORDO
100
AcDbPolyline
 62
250
  6
CONTINUOUS
 90
25
 70
0
 10
-45.6572177474
 20
22.3793288227
 10
-45.6552420794
 20
22.4381974971
 10
-45.649557422
 20
22.4962968345
 10
-45.6401637753
 20
22.5536303661
 10
-45.6269915575
 20
22.6104310202
 10
-45.6101103505
 20
22.6664720309
 10
-45.5897288991
 20
22.7210707479
 10
-45.5658051326
 20
22.7742276046
 10
-45.5383811218
 20
22.8259553497
 10
-45.5077918247
 20
22.8755960574
 10
-45.473981448
 20
22.9231489533
 10
-45.4370057849
 20
22.9686325249
 10
-45.3973671737
 20
23.0114228548
 10
-45.3551541465
 20
23.0514307865
 10
-45.3102781711
 20
23.0887655322
 10
-45.2629759886
 20
23.1231034897
 10
-45.213112805
 20
23.1545336675
 10
-45.1608234143
 20
23.1829846236
 10
-45.1067489399
 20
23.2078934778
 10
-45.0507141659
 20
23.2292130866
 10
-44.9928943082
 20
23.2470055413
 10
-44.9344561383
 20
23.2608722427
 10
-44.87578858
 20
23.2706834306
 10
-44.8165027094
 20
23.2765774559
 10
-44.7565985265
 20
23.2785564331
  0
LWPOLYLINE
  5
2AE
100
AcDbEntity
  8
ASSI
100
AcDbPolyline
 62
250
  6
CONTINUOUS
 90
25
 70
0
 10
-45.6572177474
 20
22.3793288227
 10
-45.6552420794
 20
22.4381974971
 10
-45.649557422
 20
22.4962968345
 10
-45.6401637753
 20
22.5536303661
 10
-45.6269915575
 20
22.6104310202
 10
-45.6101103505
 20
22.6664720309
 10
-45.5897288991
 20
22.7210707479
 10
-45.5658051326
 20
22.7742276046
 10
-45.5383811218
 20
22.8259553497
 10
-45.5077918247
 20
22.8755960574
 10
-45.473981448
 20
22.9231489533
 10
-45.4370057849
 20
22.9686325249
 10
-45.3973671737
 20
23.0114228548
 10
-45.3551541465
 20
23.0514307865
 10
-45.3102781711
 20
23.0887655322
 10
-45.2629759886
 20
23.1231034897
 10
-45.213112805
 20
23.1545336675
 10
-45.1608234143
 20
23.1829846236
 10
-45.1067489399
 20
23.2078934778
 10
-45.0507141659
 20
23.2292130866
 10
-44.9928943082
 20
23.2470055413
 10
-44.9344561383
 20
23.2608722427
 10
-44.87578858
 20
23.2706834306
 10
-44.8165027094
 20
23.2765774559
 10
-44.7565985265
 20
23.2785564331
  0
LWPOLYLINE
  5
2AF
100
AcDbEntity
  8
RACCORDO
100
AcDbPolyline
 62
250
  6
CONTINUOUS
 90
25
 70
0
 10
71.2295020272
 20
-44.9788928542
 10
71.296140906
 20
-44.9750678133
 10
71.3614622167
 20
-44.9667908292
 10
71.4251868756
 20
-44.9543019919
 10
71.4868798378
 20
-44.9379055575
 10
71.5465140759
 20
-44.9178353864
 10
71.6044337729
 20
-44.8941342631
 10
71.660589001
 20
-44.8668937234
 10
71.7146237668
 20
-44.8363577009
 10
71.7664105003
 20
-44.80269827
 10
71.8158304705
 20
-44.7660730304
 10
71.8626864793
 20
-44.7267089583
 10
71.9067664544
 20
-44.6849013631
 10
71.9477845916
 20
-44.6410837011
 10
71.9858669013
 20
-44.5952922565
 10
72.0213619712
 20
-44.5471613102
 10
72.0541689475
 20
-44.4967482013
 10
72.0840766428
 20
-44.4442968067
 10
72.1111214237
 20
-44.3896161171
 10
72.1351964214
 20
-44.3326280688
 10
72.1559939697
 20
-44.2737179864
 10
72.1732536113
 20
-44.2133999054
 10
72.1868422223
 20
-44.1520028103
 10
72.1966909179
 20
-44.0896464636
 10
72.2027124597
 20
-44.0265663421
  0
LWPOLYLINE
  5
2B0
100
AcDbEntity
  8
ASSI
100
AcDbPolyline
 62
250
  6
CONTINUOUS
 90
25
 70
0
 10
71.2295020272
 20
-44.9788928542
 10
71.296140906
 20
-44.9750678133
 10
71.3614622167
 20
-44.9667908292
 10
71.4251868756
 20
-44.9543019919
 10
71.4868798378
 20
-44.9379055575
 10
71.5465140759
 20
-44.9178353864
 10
71.6044337729
 20
-44.8941342631
 10
71.660589001
 20
-44.8668937234
 10
71.7146237668
 20
-44.8363577009
 10
71.7664105003
 20
-44.80269827
 10
71.8158304705
 20
-44.7660730304
 10
71.8626864793
 20
-44.7267089583
 10
71.9067664544
 20
-44.6849013631
 10
71.9477845916
 20
-44.6410837011
 10
71.9858669013
 20
-44.5952922565
 10
72.0213619712
 20
-44.5471613102
 10
72.0541689475
 20
-44.4967482013
 10
72.0840766428
 20
-44.4442968067
 10
72.1111214237
 20
-44.3896161171
 10
72.1351964214
 20
-44.3326280688
 10
72.1559939697
 20
-44.2737179864
 10
72.1732536113
 20
-44.2133999054
 10
72.1868422223
 20
-44.1520028103
 10
72.1966909179
 20
-44.0896464636
 10
72.2027124597
 20
-44.0265663421
  0
LINE
  5
2B1
100
AcDbEntity
  8
RACCORDO
100
AcDbLine
 62
250
  6
CONTINUOUS
 10
-45.6572177474
 20
-22.3793288227
 11
-45.6572177474
 21
22.3793288227
  0
LINE
  5
2B2
100
AcDbEntity
  8
ASSI
100
AcDbLine
 62
250
  6
CONTINUOUS
 10
-45.6572177474
 20
-22.3793288227
 11
-45.6572177474
 21
22.3793288227
  0
LINE
  5
2B3
100
AcDbEntity
  8
RACCORDO
100
AcDbLine
 62
250
  6
CONTINUOUS
 10
-45.158438001
 20
-22.3592492262
 11
-45.158438001
 21
22.3592492262
  0
LINE
  5
2B4
100
AcDbEntity
  8
ASSI
100
AcDbLine
 62
250
  6
CONTINUOUS
 10
-45.158438001
 20
-22.3592492262
 11
-45.158438001
 21
22.3592492262
  0
LINE
  5
2B5
100
AcDbEntity
  8
0
100
AcDbLine
 62
7
  6
CONTINUOUS
 10
-45.1139986665
 20
-22.314947961
 11
-45.1139986665
 21
22.314947961
  0
LINE
  5
2B6
100
AcDbEntity
  8
ASSI
100
AcDbLine
 62
7
  6
CONTINUOUS
 10
-45.1139986665
 20
-22.314947961
 11
-45.1139986665
 21
22.314947961
  0
LINE
  5
2B7
100
AcDbEntity
  8
RACCORDO
100
AcDbLine
 62
250
  6
CONTINUOUS
 10
-44.7565985265
 20
23.2785564331
 11
-44.7565985265
 21
22.756676789
  0
LINE
  5
2B8
100
AcDbEntity
  8
ASSI
100
AcDbLine
 62
250
  6
CONTINUOUS
 10
-44.7565985265
 20
23.2785564331
 11
-44.7565985265
 21
22.756676789
  0
LINE
  5
2B9
100
AcDbEntity
  8
RACCORDO
100
AcDbLine
 62
250
  6
CONTINUOUS
 10
-44.7565985265
 20
-23.2785564331
 11
-44.7565985265
 21
-22.756676789
  0
LINE
  5
2BA
100
AcDbEntity
  8
ASSI
100
AcDbLine
 62
250
  6
CONTINUOUS
 10
-44.7565985265
 20
-23.2785564331
 11
-44.7565985265
 21
-22.756676789
  0
LWPOLYLINE
  5
2BB
100
AcDbEntity
  8
RACCORDO
100
AcDbPolyline
 62
250
  6
CONTINUOUS
 90
25
 70
0
 10
-45.1584379453
 20
22.3592491706
 10
-45.1576479842
 20
22.3852442319
 10
-45.1551609429
 20
22.4111042076
 10
-45.1509897487
 20
22.4367207104
 10
-45.1451554486
 20
22.4619823199
 10
-45.1376842095
 20
22.4867877966
 10
-45.1286044784
 20
22.5110457145
 10
-45.1179524072
 20
22.5346565322
 10
-45.1057735114
 20
22.5575181168
 10
-45.0921169496
 20
22.5795379724
 10
-45.0770329461
 20
22.6006297385
 10
-45.0605886301
 20
22.620695838
 10
-45.0428703842
 20
22.6396351216
 10
-45.0240017568
 20
22.6573283561
 10
-45.0040221871
 20
22.6737505998
 10
-44.9828822474
 20
22.6889286219
 10
-44.960598838
 20
22.7028064561
 10
-44.9373018078
 20
22.7152612331
 10
-44.9131038565
 20
22.7262051768
 10
-44.8880446746
 20
22.7355860917
 10
-44.8622781945
 20
22.7433138309
 10
-44.8361113745
 20
22.7492947704
 10
-44.8097304299
 20
22.753509109
 10
-44.7831872766
 20
22.7559685398
 10
-44.7565983685
 20
22.7566766315
  0
LWPOLYLINE
  5
2BC
100
AcDbEntity
  8
ASSI
100
AcDbPolyline
 62
250
  6
CONTINUOUS
 90
25
 70
0
 10
-45.1584379453
 20
22.3592491706
 10
-45.1576479842
 20
22.3852442319
 10
-45.1551609429
 20
22.4111042076
 10
-45.1509897487
 20
22.4367207104
 10
-45.1451554486
 20
22.4619823199
 10
-45.1376842095
 20
22.4867877966
 10
-45.1286044784
 20
22.5110457145
 10
-45.1179524072
 20
22.5346565322
 10
-45.1057735114
 20
22.5575181168
 10
-45.0921169496
 20
22.5795379724
 10
-45.0770329461
 20
22.6006297385
 10
-45.0605886301
 20
22.620695838
 10
-45.0428703842
 20
22.6396351216
 10
-45.0240017568
 20
22.6573283561
 10
-45.0040221871
 20
22.6737505998
 10
-44.9828822474
 20
22.6889286219
 10
-44.960598838
 20
22.7028064561
 10
-44.9373018078
 20
22.7152612331
 10
-44.9131038565
 20
22.7262051768
 10
-44.8880446746
 20
22.7355860917
 10
-44.8622781945
 20
22.7433138309
 10
-44.8361113745
 20
22.7492947704
 10
-44.8097304299
 20
22.753509109
 10
-44.7831872766
 20
22.7559685398
 10
-44.7565983685
 20
22.7566766315
  0
LWPOLYLINE
  5
2BD
100
AcDbEntity
  8
0
100
AcDbPolyline
 62
7
  6
CONTINUOUS
 90
22
 70
0
 10
-45.1139986665
 20
22.314947961
 10
-45.11287727
 20
22.3448238404
 10
-45.1095288631
 20
22.3744620965
 10
-45.1039871001
 20
22.4036995179
 10
-45.0963121418
 20
22.4323293444
 10
-45.0865530767
 20
22.460247108
 10
-45.0747126938
 20
22.4874394223
 10
-45.0608126647
 20
22.5137953981
 10
-45.0449334049
 20
22.5391104389
 10
-45.027154765
 20
22.5632252012
 10
-45.0075337921
 20
22.5860257874
 10
-44.9861934366
 20
22.607337172
 10
-44.9633536531
 20
22.6269405611
 10
-44.93919458
 20
22.6447075131
 10
-44.9138236727
 20
22.6605843505
 10
-44.8873818814
 20
22.6745012617
 10
-44.8600608898
 20
22.6863758654
 10
-44.8319797834
 20
22.6961743129
 10
-44.8031646497
 20
22.7038864313
 10
-44.773725109
 20
22.7094589499
 10
-44.7438647422
 20
22.7128280465
 10
-44.7137485127
 20
22.7139559901
  0
LWPOLYLINE
  5
2BE
100
AcDbEntity
  8
ASSI
100
AcDbPolyline
 62
7
  6
CONTINUOUS
 90
22
 70
0
 10
-45.1139986665
 20
22.314947961
 10
-45.11287727
 20
22.3448238404
 10
-45.1095288631
 20
22.3744620965
 10
-45.1039871001
 20
22.4036995179
 10
-45.0963121418
 20
22.4323293444
 10
-45.0865530767
 20
22.460247108
 10
-45.0747126938
 20
22.4874394223
 10
-45.0608126647
 20
22.5137953981
 10
-45.0449334049
 20
22.5391104389
 10
-45.027154765
 20
22.5632252012
 10
-45.0075337921
 20
22.5860257874
 10
-44.9861934366
 20
22.607337172
 10
-44.9633536531
 20
22.6269405611
 10
-44.93919458
 20
22.6447075131
 10
-44.9138236727
 20
22.6605843505
 10
-44.8873818814
 20
22.6745012617
 10
-44.8600608898
 20
22.6863758654
 10
-44.8319797834
 20
22.6961743129
 10
-44.8031646497
 20
22.7038864313
 10
-44.773725109
 20
22.7094589499
 10
-44.7438647422
 20
22.7128280465
 10
-44.7137485127
 20
22.7139559901
  0
LWPOLYLINE
  5
2BF
100
AcDbEntity
  8
0
100
AcDbPolyline
 62
7
  6
CONTINUOUS
 90
3
 70
0
 43
0.3500000006
 10
-5.1428570938
 20
57.8928615417
 10
-4.2857143393
 20
58.7499994812
 10
-4.2857143393
 20
55.7499985657
  0
LWPOLYLINE
  5
2C0
100
AcDbEntity
  8
RACCORDO
100
AcDbPolyline
 62
250
  6
CONTINUOUS
 90
19
 70
0
 10
-71.7043105286
 20
-44.1656282746
 10
-71.7461783406
 20
-44.1671087186
 10
-71.7877513008
 20
-44.1673503372
 10
-71.8287365644
 20
-44.1663514274
 10
-71.868845424
 20
-44.1641190272
 10
-71.9077953428
 20
-44.1606688568
 10
-71.9453119447
 20
-44.1560252075
 10
-71.9811309504
 20
-44.1502207844
 10
-72.0150000344
 20
-44.1432964734
 10
-72.0466806017
 20
-44.1353010441
 10
-72.0759494782
 20
-44.1262908123
 10
-72.102600475
 20
-44.1163292463
 10
-72.1264458382
 20
-44.1054865169
 10
-72.1473175845
 20
-44.0938389977
 10
-72.1650686753
 20
-44.0814687353
 10
-72.1795740507
 20
-44.0684628749
 10
-72.1907315201
 20
-44.0549130333
 10
-72.1984624794
 20
-44.0409146529
 10
-72.2027124599
 20
-44.0265663387
  0
LWPOLYLINE
  5
2C1
100
AcDbEntity
  8
ASSI
100
AcDbPolyline
 62
250
  6
CONTINUOUS
 90
19
 70
0
 10
-71.7043105286
 20
-44.1656282746
 10
-71.7461783406
 20
-44.1671087186
 10
-71.7877513008
 20
-44.1673503372
 10
-71.8287365644
 20
-44.1663514274
 10
-71.868845424
 20
-44.1641190272
 10
-71.9077953428
 20
-44.1606688568
 10
-71.9453119447
 20
-44.1560252075
 10
-71.9811309504
 20
-44.1502207844
 10
-72.0150000344
 20
-44.1432964734
 10
-72.0466806017
 20
-44.1353010441
 10
-72.0759494782
 20
-44.1262908123
 10
-72.102600475
 20
-44.1163292463
 10
-72.1264458382
 20
-44.1054865169
 10
-72.1473175845
 20
-44.0938389977
 10
-72.1650686753
 20
-44.0814687353
 10
-72.1795740507
 20
-44.0684628749
 10
-72.1907315201
 20
-44.0549130333
 10
-72.1984624794
 20
-44.0409146529
 10
-72.2027124599
 20
-44.0265663387
  0
LWPOLYLINE
  5
2C2
100
AcDbEntity
  8
RACCORDO
100
AcDbPolyline
 62
250
  6
CONTINUOUS
 90
19
 70
0
 10
71.7050985394
 20
-44.1286569522
 10
71.7477671365
 20
-44.127540542
 10
71.7901243893
 20
-44.1251680764
 10
71.8318612247
 20
-44.1215568668
 10
71.8726730968
 20
-44.1167332636
 10
71.9122622089
 20
-44.1107324635
 10
71.9503396868
 20
-44.1035982533
 10
71.9866276861
 20
-44.0953826898
 10
72.0208614198
 20
-44.0861457206
 10
72.0527910908
 20
-44.0759547459
 10
72.082183714
 20
-44.0648841273
 10
72.1088248167
 20
-44.0530146451
 10
72.1325200034
 20
-44.0404329086
 10
72.1530963745
 20
-44.0272307244
 10
72.1704037878
 20
-44.0135044263
 10
72.1843159541
 20
-43.9993541726
 10
72.1947313585
 20
-43.9848832151
 10
72.2015740013
 20
-43.9701971457
 10
72.204793953
 20
-43.9554031259
  0
LWPOLYLINE
  5
2C3
100
AcDbEntity
  8
ASSI
100
AcDbPolyline
 62
250
  6
CONTINUOUS
 90
19
 70
0
 10
71.7050985394
 20
-44.1286569522
 10
71.7477671365
 20
-44.127540542
 10
71.7901243893
 20
-44.1251680764
 10
71.8318612247
 20
-44.1215568668
 10
71.8726730968
 20
-44.1167332636
 10
71.9122622089
 20
-44.1107324635
 10
71.9503396868
 20
-44.1035982533
 10
71.9866276861
 20
-44.0953826898
 10
72.0208614198
 20
-44.0861457206
 10
72.0527910908
 20
-44.0759547459
 10
72.082183714
 20
-44.0648841273
 10
72.1088248167
 20
-44.0530146451
 10
72.1325200034
 20
-44.0404329086
 10
72.1530963745
 20
-44.0272307244
 10
72.1704037878
 20
-44.0135044263
 10
72.1843159541
 20
-43.9993541726
 10
72.1947313585
 20
-43.9848832151
 10
72.2015740013
 20
-43.9701971457
 10
72.204793953
 20
-43.9554031259
  0
LINE
  5
2C4
100
AcDbEntity
  8
RACCORDO
100
AcDbLine
 62
7
  6
CONTINUOUS
 10
-71.250609173
 20
-45.0
 11
71.250609173
 21
-45.0
  0
LINE
  5
2C5
100
AcDbEntity
  8
ASSI
100
AcDbLine
 62
7
  6
CONTINUOUS
 10
-71.250609173
 20
-45.0
 11
71.250609173
 21
-45.0
  0
LINE
  5
2C6
100
AcDbEntity
  8
RACCORDO
100
AcDbLine
 62
250
  6
CONTINUOUS
 10
71.2294989691
 20
-44.9788897961
 11
-71.2294989691
 21
-44.9788897961
  0
LINE
  5
2C7
100
AcDbEntity
  8
ASSI
100
AcDbLine
 62
250
  6
CONTINUOUS
 10
71.2294989691
 20
-44.9788897961
 11
-71.2294989691
 21
-44.9788897961
  0
LINE
  5
2C8
100
AcDbEntity
  8
RACCORDO
100
AcDbLine
 62
250
  6
CONTINUOUS
 10
71.7043105286
 20
-44.1656282748
 11
-71.7043105286
 21
-44.1656282748
  0
LINE
  5
2C9
100
AcDbEntity
  8
ASSI
100
AcDbLine
 62
250
  6
CONTINUOUS
 10
71.7043105286
 20
-44.1656282748
 11
-71.7043105286
 21
-44.1656282748
  0
LWPOLYLINE
  5
2CA
100
AcDbEntity
  8
RACCORDO
100
AcDbPolyline
 62
250
  6
CONTINUOUS
 90
19
 70
0
 10
-71.7050985394
 20
-44.1286569522
 10
-71.7477671473
 20
-44.1275405339
 10
-71.7901244095
 20
-44.1251680605
 10
-71.831861253
 20
-44.1215568434
 10
-71.8726731316
 20
-44.1167332332
 10
-71.9122622486
 20
-44.1107324268
 10
-71.9503397295
 20
-44.1035982111
 10
-71.9866277299
 20
-44.0953826432
 10
-72.020861463
 20
-44.0861456706
 10
-72.0527911317
 20
-44.0759546939
 10
-72.0821837512
 20
-44.0648840747
 10
-72.108824849
 20
-44.0530145935
 10
-72.13252003
 20
-44.0404328595
 10
-72.1530963951
 20
-44.0272306795
 10
-72.1704038025
 20
-44.0135043873
 10
-72.1843159632
 20
-43.9993541411
 10
-72.194731363
 20
-43.9848831926
 10
-72.2015740027
 20
-43.9701971337
 10
-72.204793953
 20
-43.9554031259
  0
LWPOLYLINE
  5
2CB
100
AcDbEntity
  8
ASSI
100
AcDbPolyline
 62
250
  6
CONTINUOUS
 90
19
 70
0
 10
-71.7050985394
 20
-44.1286569522
 10
-71.7477671473
 20
-44.1275405339
 10
-71.7901244095
 20
-44.1251680605
 10
-71.831861253
 20
-44.1215568434
 10
-71.8726731316
 20
-44.1167332332
 10
-71.9122622486
 20
-44.1107324268
 10
-71.9503397295
 20
-44.1035982111
 10
-71.9866277299
 20
-44.0953826432
 10
-72.020861463
 20
-44.0861456706
 10
-72.0527911317
 20
-44.0759546939
 10
-72.0821837512
 20
-44.0648840747
 10
-72.108824849
 20
-44.0530145935
 10
-72.13252003
 20
-44.0404328595
 10
-72.1530963951
 20
-44.0272306795
 10
-72.1704038025
 20
-44.0135043873
 10
-72.1843159632
 20
-43.9993541411
 10
-72.194731363
 20
-43.9848831926
 10
-72.2015740027
 20
-43.9701971337
 10
-72.204793953
 20
-43.9554031259
  0
LWPOLYLINE
  5
2CC
100
AcDbEntity
  8
RACCORDO
100
AcDbPolyline
 62
250
  6
CONTINUOUS
 90
19
 70
0
 10
71.7043105286
 20
-44.1656282748
 10
71.7461788559
 20
-44.1671090295
 10
71.7877522538
 20
-44.1673509062
 10
71.8287378701
 20
-44.1663522011
 10
71.8688469931
 20
-44.1641199494
 10
71.9077970853
 20
-44.1606698754
 10
71.9453137736
 20
-44.1560262822
 10
71.9811327822
 20
-44.1502218803
 10
72.0150017941
 20
-44.1432975572
 10
72.0466822283
 20
-44.1353020892
 10
72.075950921
 20
-44.1262917983
 10
72.102601697
 20
-44.1163301548
 10
72.1264468222
 20
-44.1054873308
 10
72.1473183263
 20
-44.0938397056
 10
72.1650691858
 20
-44.0814693275
 10
72.1795743596
 20
-44.0684633363
 10
72.1907316701
 20
-44.054913349
 10
72.1984625228
 20
-44.0409148147
 10
72.2027124597
 20
-44.0265663421
  0
LWPOLYLINE
  5
2CD
100
AcDbEntity
  8
ASSI
100
AcDbPolyline
 62
250
  6
CONTINUOUS
 90
19
 70
0
 10
71.7043105286
 20
-44.1656282748
 10
71.7461788559
 20
-44.1671090295
 10
71.7877522538
 20
-44.1673509062
 10
71.8287378701
 20
-44.1663522011
 10
71.8688469931
 20
-44.1641199494
 10
71.9077970853
 20
-44.1606698754
 10
71.9453137736
 20
-44.1560262822
 10
71.9811327822
 20
-44.1502218803
 10
72.0150017941
 20
-44.1432975572
 10
72.0466822283
 20
-44.1353020892
 10
72.075950921
 20
-44.1262917983
 10
72.102601697
 20
-44.1163301548
 10
72.1264468222
 20
-44.1054873308
 10
72.1473183263
 20
-44.0938397056
 10
72.1650691858
 20
-44.0814693275
 10
72.1795743596
 20
-44.0684633363
 10
72.1907316701
 20
-44.054913349
 10
72.1984625228
 20
-44.0409148147
 10
72.2027124597
 20
-44.0265663421
  0
LINE
  5
2CE
100
AcDbEntity
  8
CURVE
100
AcDbLine
 62
250
  6
CONTINUOUS
 10
5.3591482119
 20
-28.8778013544
 11
4.7970156219
 21
-28.8778013544
  0
LINE
  5
2CF
100
AcDbEntity
  8
CURVE
100
AcDbLine
 62
250
  6
CONTINUOUS
 10
-4.616107
 20
-28.877801
 11
-4.101097
 21
-28.877801
  0
LINE
  5
2D0
100
AcDbEntity
  8
CURVE
100
AcDbLine
 62
250
  6
CONTINUOUS
 10
3.9020753449
 20
-28.8778013544
 11
3.3200188023
 21
-28.8778013544
  0
LINE
  5
2D1
100
AcDbEntity
  8
CURVE
100
AcDbLine
 62
250
  6
CONTINUOUS
 10
-2.085272
 20
-28.877801
 11
-1.526183
 21
-28.877801
  0
LINE
  5
2D2
100
AcDbEntity
  8
CURVE
100
AcDbLine
 62
250
  6
CONTINUOUS
 10
-0.714487
 20
-28.877801
 11
-0.632524
 21
-28.877801
  0
LINE
  5
2D3
100
AcDbEntity
  8
CURVE
100
AcDbLine
 62
250
  6
CONTINUOUS
 10
0.182406
 20
-28.877801
 11
0.754112
 21
-28.877801
  0
LINE
  5
2D4
100
AcDbEntity
  8
CURVE
100
AcDbLine
 62
250
  6
CONTINUOUS
 10
0.84588
 20
-28.877801
 11
1.423947
 21
-28.877801
  0
LINE
  5
2D5
100
AcDbEntity
  8
CURVE
100
AcDbLine
 62
250
  6
CONTINUOUS
 10
2.532466
 20
-28.877801
 11
3.148408
 21
-28.877801
  0
LINE
  5
2D6
100
AcDbEntity
  8
CURVE
100
AcDbLine
 62
250
  6
CONTINUOUS
 10
-2.399877
 20
-28.877801
 11
-2.984285
 21
-28.877801
  0
LWPOLYLINE
  5
2D7
100
AcDbEntity
  8
CURVE
100
AcDbPolyline
 62
250
  6
CONTINUOUS
 90
31
 70
0
 10
3.3200188023
 20
-26.110807341
 10
3.3797562176
 20
-26.1021962547
 10
3.4394325884
 20
-26.0939844458
 10
3.4990386135
 20
-26.0862268139
 10
3.558576449
 20
-26.0789772238
 10
3.6180940808
 20
-26.0722854012
 10
3.6776509521
 20
-26.0662000369
 10
3.7372995542
 20
-26.0607712309
 10
3.7970645709
 20
-26.0560547197
 10
3.8569637346
 20
-26.0521076485
 10
3.9170187316
 20
-26.0489895686
 10
3.977267067
 20
-26.0467696549
 10
4.0377502003
 20
-26.045519488
 10
4.0832826252
 20
-26.0452599773
 10
4.1289342259
 20
-26.0456083587
 10
4.1746687835
 20
-26.0465867777
 10
4.2204500789
 20
-26.0482173795
 10
4.2662483463
 20
-26.0505278332
 10
4.3120596315
 20
-26.0535679023
 10
4.3578864331
 20
-26.0573928738
 10
4.4037312501
 20
-26.0620580348
 10
4.4404114169
 20
-26.0664362245
 10
4.4770439705
 20
-26.0714396554
 10
4.5135681688
 20
-26.0771204638
 10
4.5499232694
 20
-26.0835307859
 10
4.5860485303
 20
-26.0907227579
 10
4.6218923865
 20
-26.0987489299
 10
4.6574399827
 20
-26.1076635078
 10
4.6926856407
 20
-26.1175211113
 10
4.7276236824
 20
-26.1283763599
 10
4.7622484297
 20
-26.1402838735
  0
LWPOLYLINE
  5
2D8
100
AcDbEntity
  8
CURVE
100
AcDbPolyline
 62
250
  6
CONTINUOUS
 90
56
 70
0
 10
4.2166806432
 20
-27.3236280866
 10
4.2343244703
 20
-27.3230654219
 10
4.2516313453
 20
-27.3221748004
 10
4.2685977679
 20
-27.3209588074
 10
4.2852202378
 20
-27.3194200278
 10
4.3014952548
 20
-27.3175610467
 10
4.3174193186
 20
-27.3153844491
 10
4.3329912714
 20
-27.3128914419
 10
4.3482193243
 20
-27.3100777183
 10
4.3631140311
 20
-27.3069375932
 10
4.3776859453
 20
-27.3034653817
 10
4.3919456206
 20
-27.2996553986
 10
4.4059036106
 20
-27.2955019589
 10
4.4176340673
 20
-27.2916633114
 10
4.4291487706
 20
-27.2875592694
 10
4.44044586
 20
-27.2831809508
 10
4.4515234748
 20
-27.2785194735
 10
4.4623797543
 20
-27.2735659551
 10
4.473012838
 20
-27.2683115135
 10
4.4834208652
 20
-27.2627472664
 10
4.4923404609
 20
-27.2576174173
 10
4.501076985
 20
-27.2522375439
 10
4.5096210992
 20
-27.2466016169
 10
4.5179634652
 20
-27.2407036072
 10
4.5260968316
 20
-27.2345370156
 10
4.5340222935
 20
-27.2280934619
 10
4.5417430331
 20
-27.2213640958
 10
4.5492622322
 20
-27.2143400673
 10
4.5565814168
 20
-27.2070167307
 10
4.563695489
 20
-27.1994062596
 10
4.5705976948
 20
-27.1915250321
 10
4.57728128
 20
-27.1833894265
 10
4.5837407018
 20
-27.1750142876
 10
4.5899752616
 20
-27.1664083266
 10
4.5959854721
 20
-27.1575787215
 10
4.6017718459
 20
-27.14853265
 10
4.6081109697
 20
-27.1379393764
 10
4.614156492
 20
-27.1270891414
 10
4.6199064999
 20
-27.1159983396
 10
4.6253590805
 20
-27.104683366
 10
4.630512321
 20
-27.0931606154
 10
4.6353643085
 20
-27.0814464826
 10
4.6399131304
 20
-27.0695573624
 10
4.6448347269
 20
-27.0554845788
 10
4.6493401848
 20
-27.0412048607
 10
4.6534286115
 20
-27.0267271353
 10
4.6570991142
 20
-27.0120603304
 10
4.6603508002
 20
-26.9972133733
 10
4.6631827767
 20
-26.9821951916
 10
4.6652735237
 20
-26.9691916825
 10
4.6670431125
 20
-26.9560669471
 10
4.668479399
 20
-26.9428189976
 10
4.6695702388
 20
-26.9294458466
 10
4.6703034877
 20
-26.9159455063
 10
4.6706670014
 20
-26.9023159891
 10
4.6706486355
 20
-26.8885553074
  0
LINE
  5
2D9
100
AcDbEntity
  8
CURVE
100
AcDbLine
 62
250
  6
CONTINUOUS
 10
1.585207
 20
-28.318881
 11
2.381074
 21
-28.318881
  0
LINE
  5
2DA
100
AcDbEntity
  8
CURVE
100
AcDbLine
 62
250
  6
CONTINUOUS
 10
2.26428
 20
-27.886391
 11
1.704751
 21
-27.886391
  0
LINE
  5
2DB
100
AcDbEntity
  8
CURVE
100
AcDbLine
 62
250
  6
CONTINUOUS
 10
4.2154209623
 20
-27.7821519248
 11
3.9020753449
 21
-27.7821519248
  0
LINE
  5
2DC
100
AcDbEntity
  8
CURVE
100
AcDbLine
 62
250
  6
CONTINUOUS
 10
3.8826972541
 20
-27.3236280866
 11
4.2166806432
 21
-27.3236280866
  0
LINE
  5
2DD
100
AcDbEntity
  8
CURVE
100
AcDbLine
 62
250
  6
CONTINUOUS
 10
2.28939
 20
-26.078098
 11
1.724045
 21
-26.078098
  0
LINE
  5
2DE
100
AcDbEntity
  8
CURVE
100
AcDbLine
 62
250
  6
CONTINUOUS
 10
0.492308
 20
-26.078098
 11
-0.085906
 21
-26.078098
  0
LINE
  5
2DF
100
AcDbEntity
  8
CURVE
100
AcDbLine
 62
250
  6
CONTINUOUS
 10
-1.24855
 20
-26.078098
 11
-1.832475
 21
-26.078098
  0
LINE
  5
2E0
100
AcDbEntity
  8
CURVE
100
AcDbLine
 62
250
  6
CONTINUOUS
 10
-3.20116
 20
-26.078098
 11
-3.785169
 21
-26.078098
  0
LINE
  5
2E1
100
AcDbEntity
  8
CURVE
100
AcDbLine
 62
250
  6
CONTINUOUS
 10
-4.86882
 20
-26.078098
 11
-5.503668
 21
-26.078098
  0
LINE
  5
2E2
100
AcDbEntity
  8
CURVE
100
AcDbLine
 62
250
  6
CONTINUOUS
 10
-2.984285
 20
-26.07793
 11
-2.399877
 21
-26.07793
  0
LINE
  5
2E3
100
AcDbEntity
  8
RACCORDO
100
AcDbLine
 62
250
  6
CONTINUOUS
 10
44.7565985265
 20
-23.2785564331
 11
-44.7565985265
 21
-23.2785564331
  0
LINE
  5
2E4
100
AcDbEntity
  8
ASSI
100
AcDbLine
 62
250
  6
CONTINUOUS
 10
44.7565985265
 20
-23.2785564331
 11
-44.7565985265
 21
-23.2785564331
  0
LWPOLYLINE
  5
2E5
100
AcDbEntity
  8
RACCORDO
100
AcDbPolyline
 62
250
  6
CONTINUOUS
 90
25
 70
0
 10
-44.7565983828
 20
-22.7566766457
 10
-44.7827995155
 20
-22.7559911461
 10
-44.8088670008
 20
-22.7536166545
 10
-44.8346923071
 20
-22.7495671211
 10
-44.8601647342
 20
-22.7438656498
 10
-44.8851823733
 20
-22.7365384234
 10
-44.9096516888
 20
-22.7276117189
 10
-44.9334736515
 20
-22.7171226983
 10
-44.9565461575
 20
-22.7051175442
 10
-44.9787739243
 20
-22.6916425027
 10
-45.0000709854
 20
-22.676748734
 10
-45.0203403254
 20
-22.6605037842
 10
-45.0394782136
 20
-22.6429900491
 10
-45.0573659346
 20
-22.6243304717
 10
-45.0739789971
 20
-22.6045657299
 10
-45.0893415326
 20
-22.5836451644
 10
-45.103397815
 20
-22.561588402
 10
-45.1160264332
 20
-22.5385235258
 10
-45.1271381627
 20
-22.5145549148
 10
-45.1366808606
 20
-22.4897224356
 10
-45.1445642687
 20
-22.4641795638
 10
-45.1506912444
 20
-22.4382231477
 10
-45.1550396379
 20
-22.4120356778
 10
-45.1576210585
 20
-22.3856721968
 10
-45.1584379394
 20
-22.3592491647
  0
LWPOLYLINE
  5
2E6
100
AcDbEntity
  8
ASSI
100
AcDbPolyline
 62
250
  6
CONTINUOUS
 90
25
 70
0
 10
-44.7565983828
 20
-22.7566766457
 10
-44.7827995155
 20
-22.7559911461
 10
-44.8088670008
 20
-22.7536166545
 10
-44.8346923071
 20
-22.7495671211
 10
-44.8601647342
 20
-22.7438656498
 10
-44.8851823733
 20
-22.7365384234
 10
-44.9096516888
 20
-22.7276117189
 10
-44.9334736515
 20
-22.7171226983
 10
-44.9565461575
 20
-22.7051175442
 10
-44.9787739243
 20
-22.6916425027
 10
-45.0000709854
 20
-22.676748734
 10
-45.0203403254
 20
-22.6605037842
 10
-45.0394782136
 20
-22.6429900491
 10
-45.0573659346
 20
-22.6243304717
 10
-45.0739789971
 20
-22.6045657299
 10
-45.0893415326
 20
-22.5836451644
 10
-45.103397815
 20
-22.561588402
 10
-45.1160264332
 20
-22.5385235258
 10
-45.1271381627
 20
-22.5145549148
 10
-45.1366808606
 20
-22.4897224356
 10
-45.1445642687
 20
-22.4641795638
 10
-45.1506912444
 20
-22.4382231477
 10
-45.1550396379
 20
-22.4120356778
 10
-45.1576210585
 20
-22.3856721968
 10
-45.1584379394
 20
-22.3592491647
  0
LWPOLYLINE
  5
2E7
100
AcDbEntity
  8
RACCORDO
100
AcDbPolyline
 62
250
  6
CONTINUOUS
 90
25
 70
0
 10
-44.7565985265
 20
-23.2785564331
 10
-44.8155974502
 20
-23.2765723172
 10
-44.8738250324
 20
-23.2708888417
 10
-44.9312812731
 20
-23.2615040801
 10
-44.9881900681
 20
-23.2483388015
 10
-45.0443275216
 20
-23.2314645413
 10
-45.0990219467
 20
-23.2111039902
 10
-45.152263397
 20
-23.1872064963
 10
-45.2040618189
 20
-23.1598085762
 10
-45.2537753653
 20
-23.1292632593
 10
-45.3013910367
 20
-23.0955060408
 10
-45.3469218326
 20
-23.0585829878
 10
-45.389764904
 20
-23.0190143129
 10
-45.4298209007
 20
-22.9768782255
 10
-45.4671891729
 20
-22.9320773795
 10
-45.5015649229
 20
-22.8848705713
 10
-45.5330272276
 20
-22.8351187319
 10
-45.5614970101
 20
-22.7829399499
 10
-45.5864322424
 20
-22.7289821508
 10
-45.6077824809
 20
-22.6730678266
 10
-45.6255981693
 20
-22.6153570736
 10
-45.6394886099
 20
-22.5570128816
 10
-45.6493235702
 20
-22.4984236684
 10
-45.6552332827
 20
-22.4391966191
 10
-45.6572177474
 20
-22.3793288227
  0
LWPOLYLINE
  5
2E8
100
AcDbEntity
  8
ASSI
100
AcDbPolyline
 62
250
  6
CONTINUOUS
 90
25
 70
0
 10
-44.7565985265
 20
-23.2785564331
 10
-44.8155974502
 20
-23.2765723172
 10
-44.8738250324
 20
-23.2708888417
 10
-44.9312812731
 20
-23.2615040801
 10
-44.9881900681
 20
-23.2483388015
 10
-45.0443275216
 20
-23.2314645413
 10
-45.0990219467
 20
-23.2111039902
 10
-45.152263397
 20
-23.1872064963
 10
-45.2040618189
 20
-23.1598085762
 10
-45.2537753653
 20
-23.1292632593
 10
-45.3013910367
 20
-23.0955060408
 10
-45.3469218326
 20
-23.0585829878
 10
-45.389764904
 20
-23.0190143129
 10
-45.4298209007
 20
-22.9768782255
 10
-45.4671891729
 20
-22.9320773795
 10
-45.5015649229
 20
-22.8848705713
 10
-45.5330272276
 20
-22.8351187319
 10
-45.5614970101
 20
-22.7829399499
 10
-45.5864322424
 20
-22.7289821508
 10
-45.6077824809
 20
-22.6730678266
 10
-45.6255981693
 20
-22.6153570736
 10
-45.6394886099
 20
-22.5570128816
 10
-45.6493235702
 20
-22.4984236684
 10
-45.6552332827
 20
-22.4391966191
 10
-45.6572177474
 20
-22.3793288227
  0
LWPOLYLINE
  5
2E9
100
AcDbEntity
  8
0
100
AcDbPolyline
 62
7
  6
CONTINUOUS
 90
22
 70
0
 10
-44.7137485127
 20
-22.7139559901
 10
-44.7438293503
 20
-22.7128306988
 10
-44.7736552984
 20
-22.7094694725
 10
-44.8030619616
 20
-22.7039098491
 10
-44.8318410849
 20
-22.6962169992
 10
-44.8598890274
 20
-22.6864430562
 10
-44.887195027
 20
-22.6745908107
 10
-44.9136499977
 20
-22.6606841214
 10
-44.9390484035
 20
-22.6448067206
 10
-44.9632295373
 20
-22.6270391773
 10
-44.9860808055
 20
-22.6074414232
 10
-45.0074290549
 20
-22.5861385555
 10
-45.0270555144
 20
-22.5633496898
 10
-45.0448341852
 20
-22.5392561493
 10
-45.0607136831
 20
-22.5139671439
 10
-45.0746243996
 20
-22.4876230635
 10
-45.0864872496
 20
-22.46041494
 10
-45.096270722
 20
-22.4324635189
 10
-45.1039646262
 20
-22.4037977928
 10
-45.1095188527
 20
-22.3745283202
 10
-45.1128747671
 20
-22.34485712
 10
-45.1139986665
 20
-22.314947961
  0
LWPOLYLINE
  5
2EA
100
AcDbEntity
  8
ASSI
100
AcDbPolyline
 62
7
  6
CONTINUOUS
 90
22
 70
0
 10
-44.7137485127
 20
-22.7139559901
 10
-44.7438293503
 20
-22.7128306988
 10
-44.7736552984
 20
-22.7094694725
 10
-44.8030619616
 20
-22.7039098491
 10
-44.8318410849
 20
-22.6962169992
 10
-44.8598890274
 20
-22.6864430562
 10
-44.887195027
 20
-22.6745908107
 10
-44.9136499977
 20
-22.6606841214
 10
-44.9390484035
 20
-22.6448067206
 10
-44.9632295373
 20
-22.6270391773
 10
-44.9860808055
 20
-22.6074414232
 10
-45.0074290549
 20
-22.5861385555
 10
-45.0270555144
 20
-22.5633496898
 10
-45.0448341852
 20
-22.5392561493
 10
-45.0607136831
 20
-22.5139671439
 10
-45.0746243996
 20
-22.4876230635
 10
-45.0864872496
 20
-22.46041494
 10
-45.096270722
 20
-22.4324635189
 10
-45.1039646262
 20
-22.4037977928
 10
-45.1095188527
 20
-22.3745283202
 10
-45.1128747671
 20
-22.34485712
 10
-45.1139986665
 20
-22.314947961
  0
LWPOLYLINE
  5
2EB
100
AcDbEntity
  8
CURVE
100
AcDbPolyline
 62
250
  6
CONTINUOUS
 90
22
 70
0
 10
4.3405282678
 20
-26.5385739712
 10
4.3197484694
 20
-26.5363103525
 10
4.2988644745
 20
-26.5343333326
 10
4.2778715739
 20
-26.5326453634
 10
4.2567650584
 20
-26.5312488966
 10
4.2355402191
 20
-26.5301463842
 10
4.2141923469
 20
-26.5293402779
 10
4.1927167326
 20
-26.5288330296
 10
4.17111152
 20
-26.5286279041
 10
4.1493862648
 20
-26.5287314186
 10
4.1275533755
 20
-26.5291509033
 10
4.1056252607
 20
-26.5298936885
 10
4.0836143287
 20
-26.5309671042
 10
4.0615329881
 20
-26.5323784807
 10
4.0393936475
 20
-26.5341351482
 10
4.0172053937
 20
-26.5362395946
 10
3.9949640271
 20
-26.5386749386
 10
3.9726620262
 20
-26.5414194565
 10
3.9502918698
 20
-26.5444514249
 10
3.9278460366
 20
-26.54774912
 10
3.9053170051
 20
-26.5512908182
 10
3.8826972541
 20
-26.5550547959
  0
LWPOLYLINE
  5
2EC
100
AcDbEntity
  8
CURVE
100
AcDbPolyline
 62
250
  6
CONTINUOUS
 90
41
 70
0
 10
4.8225031649
 20
-27.5709244369
 10
4.8332712404
 20
-27.5754509197
 10
4.8437240948
 20
-27.5803025948
 10
4.8538697555
 20
-27.5854608547
 10
4.8637162499
 20
-27.590907092
 10
4.8732716056
 20
-27.5966226995
 10
4.8825438499
 20
-27.6025890698
 10
4.8915410104
 20
-27.6087875956
 10
4.9002711144
 20
-27.6151996694
 10
4.9099310892
 20
-27.6227661406
 10
4.9192612621
 20
-27.6305640664
 10
4.928270155
 20
-27.6385702847
 10
4.9369662895
 20
-27.6467616337
 10
4.9453581875
 20
-27.6551149513
 10
4.9534543706
 20
-27.6636070756
 10
4.9612633606
 20
-27.6722148446
 10
4.9700235346
 20
-27.6823770792
 10
4.9784257194
 20
-27.6926558674
 10
4.9864912288
 20
-27.7030418832
 10
4.9942413764
 20
-27.7135258009
 10
5.0016974758
 20
-27.7240982947
 10
5.0088808407
 20
-27.7347500386
 10
5.017167301
 20
-27.7476235266
 10
5.0251070796
 20
-27.7605810847
 10
5.0327155408
 20
-27.7736060919
 10
5.0400080489
 20
-27.7866819271
 10
5.0469999685
 20
-27.7997919695
 10
5.0553394518
 20
-27.8162036916
 10
5.0632565612
 20
-27.8326187491
 10
5.0707745856
 20
-27.849012999
 10
5.0779168141
 20
-27.8653622984
 10
5.0847059978
 20
-27.881645924
 10
5.0911627356
 20
-27.8978568304
 10
5.0973070885
 20
-27.913991392
 10
5.1031591174
 20
-27.9300459828
 10
5.1105427445
 20
-27.9513279834
 10
5.1174957481
 20
-27.9724920437
 10
5.1240715275
 20
-27.9935688395
 10
5.1303274905
 20
-28.0145913131
 10
5.136337079
 20
-28.0356014738
 10
5.1421777429
 20
-28.0566435978
  0
LINE
  5
2ED
100
AcDbEntity
  8
RACCORDO
100
AcDbLine
 62
250
  6
CONTINUOUS
 10
-72.204793953
 20
-43.9554031259
 11
-72.25
 21
-44.000609173
  0
LINE
  5
2EE
100
AcDbEntity
  8
ASSI
100
AcDbLine
 62
250
  6
CONTINUOUS
 10
-72.204793953
 20
-43.9554031259
 11
-72.25
 21
-44.000609173
  0
LINE
  5
2EF
100
AcDbEntity
  8
RACCORDO
100
AcDbLine
 62
250
  6
CONTINUOUS
 10
-71.2294989691
 20
-44.9788897961
 11
-71.250609173
 21
-45.0
  0
LINE
  5
2F0
100
AcDbEntity
  8
ASSI
100
AcDbLine
 62
250
  6
CONTINUOUS
 10
-71.2294989691
 20
-44.9788897961
 11
-71.250609173
 21
-45.0
  0
LWPOLYLINE
  5
2F1
100
AcDbEntity
  8
RACCORDO
100
AcDbPolyline
 62
250
  6
CONTINUOUS
 90
13
 70
0
 10
-45.4173707377
 20
-22.3766844052
 10
-45.3816642561
 20
-22.3757562432
 10
-45.3478725731
 20
-22.3747028729
 10
-45.3162305045
 20
-22.3735316138
 10
-45.2869579284
 20
-22.3722506051
 10
-45.2602582575
 20
-22.3708687483
 10
-45.2363170256
 20
-22.3693956458
 10
-45.2153005983
 20
-22.3678415341
 10
-45.197355017
 20
-22.3662172127
 10
-45.1826049842
 20
-22.3645339687
 10
-45.1711529965
 20
-22.3628034989
 10
-45.1630786327
 20
-22.3610378283
 10
-45.158438001
 20
-22.3592492262
  0
LWPOLYLINE
  5
2F2
100
AcDbEntity
  8
ASSI
100
AcDbPolyline
 62
250
  6
CONTINUOUS
 90
13
 70
0
 10
-45.4173707377
 20
-22.3766844052
 10
-45.3816642561
 20
-22.3757562432
 10
-45.3478725731
 20
-22.3747028729
 10
-45.3162305045
 20
-22.3735316138
 10
-45.2869579284
 20
-22.3722506051
 10
-45.2602582575
 20
-22.3708687483
 10
-45.2363170256
 20
-22.3693956458
 10
-45.2153005983
 20
-22.3678415341
 10
-45.197355017
 20
-22.3662172127
 10
-45.1826049842
 20
-22.3645339687
 10
-45.1711529965
 20
-22.3628034989
 10
-45.1630786327
 20
-22.3610378283
 10
-45.158438001
 20
-22.3592492262
  0
LINE
  5
2F3
100
AcDbEntity
  8
RACCORDO
100
AcDbLine
 62
250
  6
CONTINUOUS
 10
-45.4935240299
 20
-22.3781402196
 11
-45.4173707377
 21
-22.3766844052
  0
LINE
  5
2F4
100
AcDbEntity
  8
ASSI
100
AcDbLine
 62
250
  6
CONTINUOUS
 10
-45.4935240299
 20
-22.3781402196
 11
-45.4173707377
 21
-22.3766844052
  0
LINE
  5
2F5
100
AcDbEntity
  8
RACCORDO
100
AcDbLine
 62
250
  6
CONTINUOUS
 10
-45.574219395
 20
-22.3790299211
 11
-45.4935240299
 21
-22.3781402196
  0
LINE
  5
2F6
100
AcDbEntity
  8
ASSI
100
AcDbLine
 62
250
  6
CONTINUOUS
 10
-45.574219395
 20
-22.3790299211
 11
-45.4935240299
 21
-22.3781402196
  0
LINE
  5
2F7
100
AcDbEntity
  8
RACCORDO
100
AcDbLine
 62
250
  6
CONTINUOUS
 10
-45.6572177474
 20
-22.3793288227
 11
-45.574219395
 21
-22.3790299211
  0
LINE
  5
2F8
100
AcDbEntity
  8
ASSI
100
AcDbLine
 62
250
  6
CONTINUOUS
 10
-45.6572177474
 20
-22.3793288227
 11
-45.574219395
 21
-22.3790299211
  0
LINE
  5
2F9
100
AcDbEntity
  8
RACCORDO
100
AcDbLine
 62
250
  6
CONTINUOUS
 10
44.7565985265
 20
-22.756676789
 11
-44.7565985265
 21
-22.756676789
  0
LINE
  5
2FA
100
AcDbEntity
  8
ASSI
100
AcDbLine
 62
250
  6
CONTINUOUS
 10
44.7565985265
 20
-22.756676789
 11
-44.7565985265
 21
-22.756676789
  0
LINE
  5
2FB
100
AcDbEntity
  8
0
100
AcDbLine
 62
7
  6
CONTINUOUS
 10
44.7137485127
 20
-22.7139559901
 11
-44.7137485127
 21
-22.7139559901
  0
LINE
  5
2FC
100
AcDbEntity
  8
ASSI
100
AcDbLine
 62
7
  6
CONTINUOUS
 10
44.7137485127
 20
-22.7139559901
 11
-44.7137485127
 21
-22.7139559901
  0
LINE
  5
2FD
100
AcDbEntity
  8
RACCORDO
100
AcDbLine
 62
250
  6
CONTINUOUS
 10
45.6572177474
 20
-22.3793288228
 11
45.5742192965
 21
-22.3790299207
  0
LINE
  5
2FE
100
AcDbEntity
  8
ASSI
100
AcDbLine
 62
250
  6
CONTINUOUS
 10
45.6572177474
 20
-22.3793288228
 11
45.5742192965
 21
-22.3790299207
  0
LINE
  5
2FF
100
AcDbEntity
  8
RACCORDO
100
AcDbLine
 62
250
  6
CONTINUOUS
 10
45.5742192965
 20
-22.3790299207
 11
45.4935238686
 21
-22.3781402176
  0
LINE
  5
300
100
AcDbEntity
  8
ASSI
100
AcDbLine
 62
250
  6
CONTINUOUS
 10
45.5742192965
 20
-22.3790299207
 11
45.4935238686
 21
-22.3781402176
  0
LWPOLYLINE
  5
301
100
AcDbEntity
  8
RACCORDO
100
AcDbPolyline
 62
250
  6
CONTINUOUS
 90
14
 70
0
 10
45.4935238686
 20
-22.3781402176
 10
45.4173705506
 20
-22.3766844014
 10
45.3816640689
 20
-22.3757562386
 10
45.3478723935
 20
-22.3747028674
 10
45.3162303384
 20
-22.3735316078
 10
45.2869577808
 20
-22.3722505987
 10
45.2602581321
 20
-22.3708687418
 10
45.2363169239
 20
-22.3693956395
 10
45.2153005346
 20
-22.3678415295
 10
45.197354986
 20
-22.36621721
 10
45.1826049502
 20
-22.3645339646
 10
45.1711529373
 20
-22.3628034886
 10
45.163078559
 20
-22.3610378078
 10
45.1584379453
 20
-22.3592491918
  0
LWPOLYLINE
  5
302
100
AcDbEntity
  8
ASSI
100
AcDbPolyline
 62
250
  6
CONTINUOUS
 90
14
 70
0
 10
45.4935238686
 20
-22.3781402176
 10
45.4173705506
 20
-22.3766844014
 10
45.3816640689
 20
-22.3757562386
 10
45.3478723935
 20
-22.3747028674
 10
45.3162303384
 20
-22.3735316078
 10
45.2869577808
 20
-22.3722505987
 10
45.2602581321
 20
-22.3708687418
 10
45.2363169239
 20
-22.3693956395
 10
45.2153005346
 20
-22.3678415295
 10
45.197354986
 20
-22.36621721
 10
45.1826049502
 20
-22.3645339646
 10
45.1711529373
 20
-22.3628034886
 10
45.163078559
 20
-22.3610378078
 10
45.1584379453
 20
-22.3592491918
  0
LWPOLYLINE
  5
303
100
AcDbEntity
  8
CURVE
100
AcDbPolyline
 62
250
  6
CONTINUOUS
 90
88
 70
0
 10
4.7622484297
 20
-26.1402838735
 10
4.7781806109
 20
-26.1463751307
 10
4.7941284052
 20
-26.1531611649
 10
4.8101376737
 20
-26.1606612378
 10
4.8262431707
 20
-26.1688877891
 10
4.8424352237
 20
-26.1778259706
 10
4.8586930534
 20
-26.187454112
 10
4.8749980785
 20
-26.1977542444
 10
4.8913405106
 20
-26.2087232033
 10
4.9077127594
 20
-26.2203615253
 10
4.9241055385
 20
-26.2326770117
 10
4.9405027774
 20
-26.245706522
 10
4.9568867095
 20
-26.2594941803
 10
4.9732333814
 20
-26.2740788295
 10
4.9894940919
 20
-26.2894781875
 10
5.0056139528
 20
-26.3057046911
 10
5.0215380758
 20
-26.3227707768
 10
5.0372115728
 20
-26.3406888815
 10
5.0525795557
 20
-26.3594714419
 10
5.0675830219
 20
-26.3791160746
 10
5.0821465116
 20
-26.3995611172
 10
5.0961904506
 20
-26.4207300869
 10
5.1096352648
 20
-26.4425465013
 10
5.12240138
 20
-26.4649338779
 10
5.134409222
 20
-26.4878157339
 10
5.1455915781
 20
-26.5111112805
 10
5.155930681
 20
-26.5347225024
 10
5.1654211249
 20
-26.5585470781
 10
5.1740575039
 20
-26.582482686
 10
5.1818344121
 20
-26.6064270044
 10
5.1887464438
 20
-26.6302777118
 10
5.1947980874
 20
-26.6539437301
 10
5.2000334086
 20
-26.677378956
 10
5.2045063676
 20
-26.7005485299
 10
5.2082709244
 20
-26.7234175921
 10
5.2113810393
 20
-26.7459512828
 10
5.2138906722
 20
-26.7681147424
 10
5.216177244
 20
-26.7941837485
 10
5.2177201021
 20
-26.8196730392
 10
5.2185625244
 20
-26.84458623
 10
5.2187477888
 20
-26.8689269363
 10
5.2183191731
 20
-26.8926987735
 10
5.2173170725
 20
-26.9159059731
 10
5.2157703528
 20
-26.9385552307
 10
5.2137049973
 20
-26.9606538581
 10
5.211146989
 20
-26.9822091668
 10
5.2081223113
 20
-27.0032284686
 10
5.2037246789
 20
-27.0287589057
 10
5.1986885314
 20
-27.0534711213
 10
5.193063926
 20
-27.0773729802
 10
5.18690092
 20
-27.1004723473
 10
5.1802487968
 20
-27.1227781743
 10
5.1731537461
 20
-27.1443037602
 10
5.1656611837
 20
-27.1650634912
 10
5.1578165254
 20
-27.1850717531
 10
5.1496621786
 20
-27.2043443167
 10
5.1412285166
 20
-27.2229024919
 10
5.1325429038
 20
-27.2407689731
 10
5.1236327051
 20
-27.257966455
 10
5.114524206
 20
-27.274515904
 10
5.105239377
 20
-27.2904313748
 10
5.0957991094
 20
-27.3057251939
 10
5.0862242945
 20
-27.3204096881
 10
5.0732835832
 20
-27.3390629176
 10
5.0601837109
 20
-27.3566866615
 10
5.0469675712
 20
-27.3733127644
 10
5.0336805824
 20
-27.3889810556
 10
5.0203782607
 20
-27.4037633032
 10
5.007118647
 20
-27.4177392597
 10
4.9939574653
 20
-27.430983852
 10
4.9809411732
 20
-27.4435527042
 10
4.9681139117
 20
-27.455496615
 10
4.9586405568
 20
-27.4640765888
 10
4.9492959002
 20
-27.4723646377
 10
4.9400808891
 20
-27.4803871058
 10
4.9310101006
 20
-27.4881515915
 10
4.9220955344
 20
-27.49566881
 10
4.9133252505
 20
-27.5029806906
 10
4.8961054597
 20
-27.5170302851
 10
4.88756296
 20
-27.5236483685
 10
4.8789924015
 20
-27.5298879659
 10
4.8703227725
 20
-27.5356665072
 10
4.8614310601
 20
-27.5409180272
 10
4.8540790298
 20
-27.5446899528
 10
4.8465040215
 20
-27.5480035998
 10
4.8387122389
 20
-27.550777544
 10
4.8307098854
 20
-27.5529303614
 10
4.8225031649
 20
-27.554380628
  0
LINE
  5
304
100
AcDbEntity
  8
RACCORDO
100
AcDbLine
 62
250
  6
CONTINUOUS
 10
-72.204793953
 20
43.9554031259
 11
-72.25
 21
44.000609173
  0
LINE
  5
305
100
AcDbEntity
  8
ASSI
100
AcDbLine
 62
250
  6
CONTINUOUS
 10
-72.204793953
 20
43.9554031259
 11
-72.25
 21
44.000609173
  0
LINE
  5
306
100
AcDbEntity
  8
RACCORDO
100
AcDbLine
 62
250
  6
CONTINUOUS
 10
-71.2294989691
 20
44.9788897961
 11
-71.250609173
 21
45.0
  0
LINE
  5
307
100
AcDbEntity
  8
ASSI
100
AcDbLine
 62
250
  6
CONTINUOUS
 10
-71.2294989691
 20
44.9788897961
 11
-71.250609173
 21
45.0
  0
LWPOLYLINE
  5
308
100
AcDbEntity
  8
0
100
AcDbPolyline
 62
7
  6
CONTINUOUS
 90
3
 70
0
 43
0.3500000006
 10
2.0000000439
 20
56.0357142334
 10
1.9285714102
 20
55.8214297485
 10
1.7857142844
 20
55.5357140808
  0
LINE
  5
309
100
AcDbEntity
  8
0
100
AcDbLine
 62
250
  6
CONTINUOUS
 10
-45.158438001
 20
-22.3592492262
 11
-45.1139986665
 21
-22.314947961
  0
LINE
  5
30A
100
AcDbEntity
  8
ASSI
100
AcDbLine
 62
250
  6
CONTINUOUS
 10
-45.158438001
 20
-22.3592492262
 11
-45.1139986665
 21
-22.314947961
  0
LINE
  5
30B
100
AcDbEntity
  8
0
100
AcDbLine
 62
250
  6
CONTINUOUS
 10
-44.7565985265
 20
-22.756676789
 11
-44.7137485127
 21
-22.7139559901
  0
LINE
  5
30C
100
AcDbEntity
  8
ASSI
100
AcDbLine
 62
250
  6
CONTINUOUS
 10
-44.7565985265
 20
-22.756676789
 11
-44.7137485127
 21
-22.7139559901
  0
LINE
  5
30D
100
AcDbEntity
  8
0
100
AcDbLine
 62
250
  6
CONTINUOUS
 10
-45.158438001
 20
22.3592492262
 11
-45.1139986665
 21
22.314947961
  0
LINE
  5
30E
100
AcDbEntity
  8
ASSI
100
AcDbLine
 62
250
  6
CONTINUOUS
 10
-45.158438001
 20
22.3592492262
 11
-45.1139986665
 21
22.314947961
  0
LINE
  5
30F
100
AcDbEntity
  8
0
100
AcDbLine
 62
250
  6
CONTINUOUS
 10
-44.7565985265
 20
22.756676789
 11
-44.7137485127
 21
22.7139559901
  0
LINE
  5
310
100
AcDbEntity
  8
ASSI
100
AcDbLine
 62
250
  6
CONTINUOUS
 10
-44.7565985265
 20
22.756676789
 11
-44.7137485127
 21
22.7139559901
  0
LINE
  5
311
100
AcDbEntity
  8
CURVE
100
AcDbLine
 62
250
  6
CONTINUOUS
 10
-5.503668
 20
-26.078098
 11
-4.616107
 21
-28.877801
  0
LINE
  5
312
100
AcDbEntity
  8
CURVE
100
AcDbLine
 62
250
  6
CONTINUOUS
 10
-4.335146
 20
-28.00522
 11
-4.86882
 21
-26.078098
  0
LWPOLYLINE
  5
313
100
AcDbEntity
  8
CURVE
100
AcDbPolyline
 62
250
  6
CONTINUOUS
 90
45
 70
0
 10
4.5414683619
 20
-28.0288394293
 10
4.537626984
 20
-28.0189544476
 10
4.5335731285
 20
-28.0092033058
 10
4.5293064406
 20
-27.9995825716
 10
4.5248265654
 20
-27.9900888123
 10
4.5201331482
 20
-27.9807185955
 10
4.515225834
 20
-27.9714684889
 10
4.510104268
 20
-27.9623350598
 10
4.5047685893
 20
-27.9533171619
 10
4.4992209116
 20
-27.9444227922
 10
4.4934638427
 20
-27.9356622339
 10
4.4874999902
 20
-27.9270457701
 10
4.4813319618
 20
-27.9185836839
 10
4.4749623651
 20
-27.9102862584
 10
4.4683938077
 20
-27.9021637767
 10
4.4616281869
 20
-27.8942263279
 10
4.4546645576
 20
-27.8864832249
 10
4.4475012645
 20
-27.8789435865
 10
4.440136652
 20
-27.8716165316
 10
4.4325690648
 20
-27.8645111789
 10
4.4247968473
 20
-27.8576366473
 10
4.4168183441
 20
-27.8510020557
 10
4.4096676027
 20
-27.8454013299
 10
4.402362361
 20
-27.8400006837
 10
4.3949073238
 20
-27.8348095113
 10
4.3873071956
 20
-27.8298372066
 10
4.3795666812
 20
-27.8250931637
 10
4.3716904852
 20
-27.8205867767
 10
4.3636833123
 20
-27.8163274395
 10
4.3555498672
 20
-27.8123245462
 10
4.34729599
 20
-27.8085853213
 10
4.3389320631
 20
-27.8051083104
 10
4.3304696042
 20
-27.80188989
 10
4.3219201312
 20
-27.798926436
 10
4.3132951619
 20
-27.7962143248
 10
4.3046062141
 20
-27.7937499324
 10
4.2958648056
 20
-27.7915296352
 10
4.2870824542
 20
-27.7895498092
 10
4.2770063003
 20
-27.7875775943
 10
4.2668859756
 20
-27.7859131461
 10
4.2567157423
 20
-27.7845548794
 10
4.2464898623
 20
-27.783501209
 10
4.2362025976
 20
-27.7827505499
 10
4.2258482102
 20
-27.7823013169
 10
4.2154209623
 20
-27.7821519248
  0
LINE
  5
314
100
AcDbEntity
  8
CURVE
100
AcDbLine
 62
250
  6
CONTINUOUS
 10
-1.400068
 20
-27.049647
 11
-0.714487
 21
-28.877801
  0
LINE
  5
315
100
AcDbEntity
  8
CURVE
100
AcDbLine
 62
250
  6
CONTINUOUS
 10
-0.670314
 20
-27.632502
 11
-1.24855
 21
-26.078098
  0
LINE
  5
316
100
AcDbEntity
  8
CURVE
100
AcDbLine
 62
250
  6
CONTINUOUS
 10
3.148408
 20
-28.877801
 11
2.28939
 21
-26.078098
  0
LINE
  5
317
100
AcDbEntity
  8
CURVE
100
AcDbLine
 62
250
  6
CONTINUOUS
 10
2.381074
 20
-28.318881
 11
2.532466
 21
-28.877801
  0
LINE
  5
318
100
AcDbEntity
  8
CURVE
100
AcDbLine
 62
250
  6
CONTINUOUS
 10
0.754112
 20
-28.877801
 11
0.492308
 21
-26.078098
  0
LINE
  5
319
100
AcDbEntity
  8
CURVE
100
AcDbLine
 62
250
  6
CONTINUOUS
 10
0.062337
 20
-27.057269
 11
0.182406
 21
-28.877801
  0
LINE
  5
31A
100
AcDbEntity
  8
CURVE
100
AcDbLine
 62
250
  6
CONTINUOUS
 10
-2.984285
 20
-28.877801
 11
-2.984285
 21
-26.07793
  0
LWPOLYLINE
  5
31B
100
AcDbEntity
  8
0
100
AcDbPolyline
 62
7
  6
CONTINUOUS
 90
2
 70
0
 43
0.3500000006
 10
-2.4285715628
 20
55.7499985657
 10
-2.4285715628
 20
57.2499990234
  0
LINE
  5
31C
100
AcDbEntity
  8
CURVE
100
AcDbLine
 62
250
  6
CONTINUOUS
 10
-2.399877
 20
-26.07793
 11
-2.399877
 21
-28.877801
  0
LWPOLYLINE
  5
31D
100
AcDbEntity
  8
0
100
AcDbPolyline
 62
7
  6
CONTINUOUS
 90
2
 70
0
 43
0.3500000006
 10
-0.0714285717
 20
55.7499985657
 10
-0.0714285717
 20
57.2499990234
  0
LINE
  5
31E
100
AcDbEntity
  8
CURVE
100
AcDbLine
 62
250
  6
CONTINUOUS
 10
-1.526183
 20
-28.877801
 11
-1.400068
 21
-27.049647
  0
LINE
  5
31F
100
AcDbEntity
  8
CURVE
100
AcDbLine
 62
250
  6
CONTINUOUS
 10
-1.832475
 20
-26.078098
 11
-2.085272
 21
-28.877801
  0
LWPOLYLINE
  5
320
100
AcDbEntity
  8
0
100
AcDbPolyline
 62
7
  6
CONTINUOUS
 90
13
 70
0
 43
0.3500000006
 10
80.6428597412
 20
-0.0000003204
 10
79.3571437683
 20
-0.0000003204
 10
78.9285747986
 20
0.2142864304
 10
78.4999967651
 20
0.642857666
 10
78.4999967651
 20
0.8571421509
 10
78.9285747986
 20
1.2857133865
 10
79.3571437683
 20
1.5000001373
 10
80.6428597412
 20
1.5000001373
 10
81.0714287109
 20
1.2857133865
 10
81.4999976807
 20
0.8571421509
 10
81.4999976807
 20
0.642857666
 10
81.0714287109
 20
0.2142864304
 10
80.6428597412
 20
-0.0000003204
  0
LINE
  5
321
100
AcDbEntity
  8
0
100
AcDbLine
 62
250
  6
CONTINUOUS
 10
-45.1583803735
 20
0.0
 11
-45.1139853624
 21
0.0
  0
LINE
  5
322
100
AcDbEntity
  8
0
100
AcDbLine
 62
250
  6
CONTINUOUS
 10
45.1583803735
 20
0.0
 11
45.1139853624
 21
0.0
  0
LINE
  5
323
100
AcDbEntity
  8
RACCORDO
100
AcDbLine
 62
250
  6
CONTINUOUS
 10
45.1583803735
 20
0.0
 11
72.0957392556
 21
0.0
  0
LINE
  5
324
100
AcDbEntity
  8
ASSI
100
AcDbLine
 62
250
  6
CONTINUOUS
 10
45.1139853624
 20
0.0
 11
72.0957392556
 21
0.0
  0
LINE
  5
325
100
AcDbEntity
  8
RACCORDO
100
AcDbLine
 62
250
  6
CONTINUOUS
 10
-45.1583803735
 20
0.0
 11
-72.0957392556
 21
0.0
  0
LINE
  5
326
100
AcDbEntity
  8
ASSI
100
AcDbLine
 62
250
  6
CONTINUOUS
 10
-45.1139853624
 20
0.0
 11
-72.0957392556
 21
0.0
  0
LWPOLYLINE
  5
327
100
AcDbEntity
  8
CURVE
100
AcDbPolyline
 62
250
  6
CONTINUOUS
 90
8
 70
0
 10
4.6367099192
 20
-28.3233164031
 10
4.6193008264
 20
-28.2639540212
 10
4.6073914964
 20
-28.2245258371
 10
4.5951532054
 20
-28.1851990405
 10
4.5825107188
 20
-28.1459583031
 10
4.5693911215
 20
-28.1067971955
 10
4.5557307754
 20
-28.0677448829
 10
4.5414683619
 20
-28.0288394293
  0
LWPOLYLINE
  5
328
100
AcDbEntity
  8
CURVE
100
AcDbPolyline
 62
250
  6
CONTINUOUS
 90
3
 70
0
 10
4.7970156219
 20
-28.8778013544
 10
4.7845712663
 20
-28.8347252172
 10
4.7053991208
 20
-28.5640359453
  0
LINE
  5
329
100
AcDbEntity
  8
CURVE
100
AcDbLine
 62
250
  6
CONTINUOUS
 10
4.7053991208
 20
-28.5640359453
 11
4.6367099192
 21
-28.3233164031
  0
LINE
  5
32A
100
AcDbEntity
  8
CURVE
100
AcDbLine
 62
250
  6
CONTINUOUS
 10
5.1421777429
 20
-28.0566435978
 11
5.1946812213
 21
-28.2512357615
  0
LINE
  5
32B
100
AcDbEntity
  8
CURVE
100
AcDbLine
 62
250
  6
CONTINUOUS
 10
5.3268747136
 20
-28.7566787383
 11
5.3591482119
 21
-28.8778013544
  0
LINE
  5
32C
100
AcDbEntity
  8
CURVE
100
AcDbLine
 62
250
  6
CONTINUOUS
 10
5.1946812213
 20
-28.2512357615
 11
5.2621505709
 21
-28.5079465094
  0
LINE
  5
32D
100
AcDbEntity
  8
CURVE
100
AcDbLine
 62
250
  6
CONTINUOUS
 10
5.2621505709
 20
-28.5079465094
 11
5.3268747136
 21
-28.7566787383
  0
LINE
  5
32E
100
AcDbEntity
  8
CURVE
100
AcDbLine
 62
250
  6
CONTINUOUS
 10
1.995737
 20
-26.847385
 11
2.26428
 21
-27.886391
  0
LWPOLYLINE
  5
32F
100
AcDbEntity
  8
CURVE
100
AcDbPolyline
 62
250
  6
CONTINUOUS
 90
51
 70
0
 10
4.6706486355
 20
-26.8885553074
 10
4.6703376065
 20
-26.8783959199
 10
4.66972374
 20
-26.8682621445
 10
4.6688085328
 20
-26.8581514698
 10
4.6675934819
 20
-26.8480613845
 10
4.6660800845
 20
-26.8379893775
 10
4.6642698374
 20
-26.8279329375
 10
4.6621642377
 20
-26.8178895531
 10
4.6597647823
 20
-26.8078567132
 10
4.6570718088
 20
-26.7978336008
 10
4.6540810168
 20
-26.7878261769
 10
4.6507869464
 20
-26.7778420967
 10
4.6471841377
 20
-26.7678890155
 10
4.643267131
 20
-26.7579745886
 10
4.6390304663
 20
-26.7481064713
 10
4.6344686837
 20
-26.7382923189
 10
4.6295763235
 20
-26.7285397866
 10
4.6249464839
 20
-26.7199307289
 10
4.6200524642
 20
-26.7113934283
 10
4.6148955954
 20
-26.7029449059
 10
4.6094772085
 20
-26.6946021826
 10
4.6037986345
 20
-26.6863822796
 10
4.5978612045
 20
-26.6783022177
 10
4.5916662494
 20
-26.670379018
 10
4.5852151003
 20
-26.6626297016
 10
4.5785090882
 20
-26.6550712894
 10
4.5715516098
 20
-26.6477187586
 10
4.5643543242
 20
-26.6405789114
 10
4.5569309562
 20
-26.6336565062
 10
4.5492952308
 20
-26.6269563012
 10
4.5414608727
 20
-26.6204830549
 10
4.5334416067
 20
-26.6142415255
 10
4.5252511576
 20
-26.6082364714
 10
4.5169032504
 20
-26.602472651
 10
4.5084116097
 20
-26.5969548227
 10
4.4987026573
 20
-26.5910455595
 10
4.4888418679
 20
-26.585450418
 10
4.4788419467
 20
-26.5801661637
 10
4.4687155991
 20
-26.5751895622
 10
4.45847553
 20
-26.5705173794
 10
4.4481344448
 20
-26.5661463807
 10
4.4377050485
 20
-26.562073332
 10
4.4272000464
 20
-26.5582949988
 10
4.4166293418
 20
-26.5548087014
 10
4.4059916303
 20
-26.5516139791
 10
4.3952828057
 20
-26.5487109255
 10
4.3844987617
 20
-26.5460996345
 10
4.3736353922
 20
-26.5437801997
 10
4.3626885908
 20
-26.5417527151
 10
4.3516542514
 20
-26.5400172743
 10
4.3405282678
 20
-26.5385739712
  0
LINE
  5
330
100
AcDbEntity
  8
CURVE
100
AcDbLine
 62
250
  6
CONTINUOUS
 10
3.3200188023
 20
-28.8778013544
 11
3.3200188023
 21
-26.110807341
  0
LINE
  5
331
100
AcDbEntity
  8
CURVE
100
AcDbLine
 62
250
  6
CONTINUOUS
 10
3.8826972541
 20
-26.5550547959
 11
3.8826972541
 21
-27.3236280866
  0
LINE
  5
332
100
AcDbEntity
  8
CURVE
100
AcDbLine
 62
250
  6
CONTINUOUS
 10
3.9020753449
 20
-27.7821519248
 11
3.9020753449
 21
-28.8778013544
  0
LINE
  5
333
100
AcDbEntity
  8
CURVE
100
AcDbLine
 62
250
  6
CONTINUOUS
 10
4.8225031649
 20
-27.554380628
 11
4.8225031649
 21
-27.5709244369
  0
LINE
  5
334
100
AcDbEntity
  8
CURVE
100
AcDbLine
 62
250
  6
CONTINUOUS
 10
-3.785169
 20
-26.078098
 11
-4.335146
 21
-28.00522
  0
LINE
  5
335
100
AcDbEntity
  8
CURVE
100
AcDbLine
 62
250
  6
CONTINUOUS
 10
-4.101097
 20
-28.877801
 11
-3.20116
 21
-26.078098
  0
LINE
  5
336
100
AcDbEntity
  8
CURVE
100
AcDbLine
 62
250
  6
CONTINUOUS
 10
1.704751
 20
-27.886391
 11
1.995737
 21
-26.847385
  0
LINE
  5
337
100
AcDbEntity
  8
CURVE
100
AcDbLine
 62
250
  6
CONTINUOUS
 10
1.423947
 20
-28.877801
 11
1.585207
 21
-28.318881
  0
LINE
  5
338
100
AcDbEntity
  8
CURVE
100
AcDbLine
 62
250
  6
CONTINUOUS
 10
1.724045
 20
-26.078098
 11
0.84588
 21
-28.877801
  0
LINE
  5
339
100
AcDbEntity
  8
CURVE
100
AcDbLine
 62
250
  6
CONTINUOUS
 10
-0.085906
 20
-26.078098
 11
-0.670314
 21
-27.632502
  0
LINE
  5
33A
100
AcDbEntity
  8
CURVE
100
AcDbLine
 62
250
  6
CONTINUOUS
 10
-0.632524
 20
-28.877801
 11
0.062337
 21
-27.057269
  0
LINE
  5
33B
100
AcDbEntity
  8
0
100
AcDbLine
 62
250
  6
CONTINUOUS
 10
44.7565985265
 20
22.756676789
 11
44.7137485127
 21
22.7139559901
  0
LINE
  5
33C
100
AcDbEntity
  8
ASSI
100
AcDbLine
 62
250
  6
CONTINUOUS
 10
44.7565985265
 20
22.756676789
 11
44.7137485127
 21
22.7139559901
  0
LINE
  5
33D
100
AcDbEntity
  8
0
100
AcDbLine
 62
250
  6
CONTINUOUS
 10
45.158438001
 20
22.3592492262
 11
45.1139986665
 21
22.314947961
  0
LINE
  5
33E
100
AcDbEntity
  8
ASSI
100
AcDbLine
 62
250
  6
CONTINUOUS
 10
45.158438001
 20
22.3592492262
 11
45.1139986665
 21
22.314947961
  0
LINE
  5
33F
100
AcDbEntity
  8
0
100
AcDbLine
 62
250
  6
CONTINUOUS
 10
45.158438001
 20
-22.3592492262
 11
45.1139986665
 21
-22.314947961
  0
LINE
  5
340
100
AcDbEntity
  8
ASSI
100
AcDbLine
 62
250
  6
CONTINUOUS
 10
45.158438001
 20
-22.3592492262
 11
45.1139986665
 21
-22.314947961
  0
LINE
  5
341
100
AcDbEntity
  8
0
100
AcDbLine
 62
250
  6
CONTINUOUS
 10
44.7565985265
 20
-22.756676789
 11
44.7137485127
 21
-22.7139559901
  0
LINE
  5
342
100
AcDbEntity
  8
ASSI
100
AcDbLine
 62
250
  6
CONTINUOUS
 10
44.7565985265
 20
-22.756676789
 11
44.7137485127
 21
-22.7139559901
  0
LINE
  5
343
100
AcDbEntity
  8
RACCORDO
100
AcDbLine
 62
250
  6
CONTINUOUS
 10
71.2294989691
 20
44.9788897961
 11
71.250609173
 21
45.0
  0
LINE
  5
344
100
AcDbEntity
  8
ASSI
100
AcDbLine
 62
250
  6
CONTINUOUS
 10
71.2294989691
 20
44.9788897961
 11
71.250609173
 21
45.0
  0
LINE
  5
345
100
AcDbEntity
  8
RACCORDO
100
AcDbLine
 62
250
  6
CONTINUOUS
 10
72.204793953
 20
43.9554031259
 11
72.25
 21
44.000609173
  0
LINE
  5
346
100
AcDbEntity
  8
ASSI
100
AcDbLine
 62
250
  6
CONTINUOUS
 10
72.204793953
 20
43.9554031259
 11
72.25
 21
44.000609173
  0
LWPOLYLINE
  5
347
100
AcDbEntity
  8
RACCORDO
100
AcDbPolyline
 62
250
  6
CONTINUOUS
 90
13
 70
0
 10
45.4173707377
 20
22.3766844052
 10
45.381664256
 20
22.3757562432
 10
45.3478725731
 20
22.3747028729
 10
45.3162305045
 20
22.3735316138
 10
45.2869579284
 20
22.3722506051
 10
45.2602582575
 20
22.3708687483
 10
45.2363170255
 20
22.3693956458
 10
45.2153005983
 20
22.3678415341
 10
45.197355017
 20
22.3662172127
 10
45.1826049842
 20
22.3645339687
 10
45.1711529965
 20
22.3628034989
 10
45.1630786327
 20
22.3610378283
 10
45.158438001
 20
22.3592492262
  0
LWPOLYLINE
  5
348
100
AcDbEntity
  8
ASSI
100
AcDbPolyline
 62
250
  6
CONTINUOUS
 90
13
 70
0
 10
45.4173707377
 20
22.3766844052
 10
45.381664256
 20
22.3757562432
 10
45.3478725731
 20
22.3747028729
 10
45.3162305045
 20
22.3735316138
 10
45.2869579284
 20
22.3722506051
 10
45.2602582575
 20
22.3708687483
 10
45.2363170255
 20
22.3693956458
 10
45.2153005983
 20
22.3678415341
 10
45.197355017
 20
22.3662172127
 10
45.1826049842
 20
22.3645339687
 10
45.1711529965
 20
22.3628034989
 10
45.1630786327
 20
22.3610378283
 10
45.158438001
 20
22.3592492262
  0
LINE
  5
349
100
AcDbEntity
  8
RACCORDO
100
AcDbLine
 62
250
  6
CONTINUOUS
 10
45.4935240299
 20
22.3781402196
 11
45.4173707377
 21
22.3766844052
  0
LINE
  5
34A
100
AcDbEntity
  8
ASSI
100
AcDbLine
 62
250
  6
CONTINUOUS
 10
45.4935240299
 20
22.3781402196
 11
45.4173707377
 21
22.3766844052
  0
LINE
  5
34B
100
AcDbEntity
  8
RACCORDO
100
AcDbLine
 62
250
  6
CONTINUOUS
 10
45.574219395
 20
22.3790299211
 11
45.4935240299
 21
22.3781402196
  0
LINE
  5
34C
100
AcDbEntity
  8
ASSI
100
AcDbLine
 62
250
  6
CONTINUOUS
 10
45.574219395
 20
22.3790299211
 11
45.4935240299
 21
22.3781402196
  0
LINE
  5
34D
100
AcDbEntity
  8
RACCORDO
100
AcDbLine
 62
250
  6
CONTINUOUS
 10
45.6572177474
 20
22.3793288227
 11
45.574219395
 21
22.3790299211
  0
LINE
  5
34E
100
AcDbEntity
  8
ASSI
100
AcDbLine
 62
250
  6
CONTINUOUS
 10
45.6572177474
 20
22.3793288227
 11
45.574219395
 21
22.3790299211
  0
LINE
  5
34F
100
AcDbEntity
  8
0
100
AcDbLine
 62
7
  6
CONTINUOUS
 10
44.7137485127
 20
22.7139559901
 11
-44.7137485127
 21
22.7139559901
  0
LINE
  5
350
100
AcDbEntity
  8
ASSI
100
AcDbLine
 62
7
  6
CONTINUOUS
 10
44.7137485127
 20
22.7139559901
 11
-44.7137485127
 21
22.7139559901
  0
LINE
  5
351
100
AcDbEntity
  8
RACCORDO
100
AcDbLine
 62
250
  6
CONTINUOUS
 10
-44.7565985265
 20
22.756676789
 11
44.7565985265
 21
22.756676789
  0
LINE
  5
352
100
AcDbEntity
  8
ASSI
100
AcDbLine
 62
250
  6
CONTINUOUS
 10
-44.7565985265
 20
22.756676789
 11
44.7565985265
 21
22.756676789
  0
LINE
  5
353
100
AcDbEntity
  8
RACCORDO
100
AcDbLine
 62
250
  6
CONTINUOUS
 10
-44.7565985265
 20
23.2785564331
 11
44.7565985265
 21
23.2785564331
  0
LINE
  5
354
100
AcDbEntity
  8
ASSI
100
AcDbLine
 62
250
  6
CONTINUOUS
 10
-44.7565985265
 20
23.2785564331
 11
44.7565985265
 21
23.2785564331
  0
LINE
  5
355
100
AcDbEntity
  8
RACCORDO
100
AcDbLine
 62
250
  6
CONTINUOUS
 10
-45.6572177474
 20
22.3793288228
 11
-45.5742192965
 21
22.3790299207
  0
LINE
  5
356
100
AcDbEntity
  8
ASSI
100
AcDbLine
 62
250
  6
CONTINUOUS
 10
-45.6572177474
 20
22.3793288228
 11
-45.5742192965
 21
22.3790299207
  0
LINE
  5
357
100
AcDbEntity
  8
RACCORDO
100
AcDbLine
 62
250
  6
CONTINUOUS
 10
-45.5742192965
 20
22.3790299207
 11
-45.4935238686
 21
22.3781402176
  0
LINE
  5
358
100
AcDbEntity
  8
ASSI
100
AcDbLine
 62
250
  6
CONTINUOUS
 10
-45.5742192965
 20
22.3790299207
 11
-45.4935238686
 21
22.3781402176
  0
LWPOLYLINE
  5
359
100
AcDbEntity
  8
RACCORDO
100
AcDbPolyline
 62
250
  6
CONTINUOUS
 90
14
 70
0
 10
-45.4935238686
 20
22.3781402176
 10
-45.4173705506
 20
22.3766844014
 10
-45.3816640689
 20
22.3757562386
 10
-45.3478723935
 20
22.3747028674
 10
-45.3162303384
 20
22.3735316078
 10
-45.2869577808
 20
22.3722505987
 10
-45.2602581321
 20
22.3708687418
 10
-45.2363169239
 20
22.3693956395
 10
-45.2153005346
 20
22.3678415295
 10
-45.197354986
 20
22.36621721
 10
-45.1826049502
 20
22.3645339646
 10
-45.1711529373
 20
22.3628034886
 10
-45.163078559
 20
22.3610378078
 10
-45.1584379453
 20
22.3592491918
  0
LWPOLYLINE
  5
35A
100
AcDbEntity
  8
ASSI
100
AcDbPolyline
 62
250
  6
CONTINUOUS
 90
14
 70
0
 10
-45.4935238686
 20
22.3781402176
 10
-45.4173705506
 20
22.3766844014
 10
-45.3816640689
 20
22.3757562386
 10
-45.3478723935
 20
22.3747028674
 10
-45.3162303384
 20
22.3735316078
 10
-45.2869577808
 20
22.3722505987
 10
-45.2602581321
 20
22.3708687418
 10
-45.2363169239
 20
22.3693956395
 10
-45.2153005346
 20
22.3678415295
 10
-45.197354986
 20
22.36621721
 10
-45.1826049502
 20
22.3645339646
 10
-45.1711529373
 20
22.3628034886
 10
-45.163078559
 20
22.3610378078
 10
-45.1584379453
 20
22.3592491918
  0
LWPOLYLINE
  5
35B
100
AcDbEntity
  8
RACCORDO
100
AcDbPolyline
 62
250
  6
CONTINUOUS
 90
25
 70
0
 10
44.7565983828
 20
22.7566766457
 10
44.7827995155
 20
22.7559911461
 10
44.8088670008
 20
22.7536166545
 10
44.8346923071
 20
22.7495671211
 10
44.8601647342
 20
22.7438656498
 10
44.8851823733
 20
22.7365384234
 10
44.9096516888
 20
22.7276117189
 10
44.9334736515
 20
22.7171226983
 10
44.9565461575
 20
22.7051175442
 10
44.9787739243
 20
22.6916425027
 10
45.0000709854
 20
22.676748734
 10
45.0203403254
 20
22.6605037842
 10
45.0394782136
 20
22.6429900491
 10
45.0573659346
 20
22.6243304717
 10
45.0739789971
 20
22.6045657299
 10
45.0893415326
 20
22.5836451644
 10
45.103397815
 20
22.561588402
 10
45.1160264332
 20
22.5385235258
 10
45.1271381627
 20
22.5145549148
 10
45.1366808606
 20
22.4897224356
 10
45.1445642687
 20
22.4641795638
 10
45.1506912444
 20
22.4382231477
 10
45.1550396379
 20
22.4120356778
 10
45.1576210585
 20
22.3856721968
 10
45.1584379394
 20
22.3592491647
  0
LWPOLYLINE
  5
35C
100
AcDbEntity
  8
ASSI
100
AcDbPolyline
 62
250
  6
CONTINUOUS
 90
25
 70
0
 10
44.7565983828
 20
22.7566766457
 10
44.7827995155
 20
22.7559911461
 10
44.8088670008
 20
22.7536166545
 10
44.8346923071
 20
22.7495671211
 10
44.8601647342
 20
22.7438656498
 10
44.8851823733
 20
22.7365384234
 10
44.9096516888
 20
22.7276117189
 10
44.9334736515
 20
22.7171226983
 10
44.9565461575
 20
22.7051175442
 10
44.9787739243
 20
22.6916425027
 10
45.0000709854
 20
22.676748734
 10
45.0203403254
 20
22.6605037842
 10
45.0394782136
 20
22.6429900491
 10
45.0573659346
 20
22.6243304717
 10
45.0739789971
 20
22.6045657299
 10
45.0893415326
 20
22.5836451644
 10
45.103397815
 20
22.561588402
 10
45.1160264332
 20
22.5385235258
 10
45.1271381627
 20
22.5145549148
 10
45.1366808606
 20
22.4897224356
 10
45.1445642687
 20
22.4641795638
 10
45.1506912444
 20
22.4382231477
 10
45.1550396379
 20
22.4120356778
 10
45.1576210585
 20
22.3856721968
 10
45.1584379394
 20
22.3592491647
  0
LWPOLYLINE
  5
35D
100
AcDbEntity
  8
0
100
AcDbPolyline
 62
7
  6
CONTINUOUS
 90
22
 70
0
 10
44.7137485127
 20
22.7139559901
 10
44.7438293503
 20
22.7128306988
 10
44.7736552984
 20
22.7094694725
 10
44.8030619616
 20
22.7039098491
 10
44.8318410849
 20
22.6962169992
 10
44.8598890274
 20
22.6864430562
 10
44.887195027
 20
22.6745908107
 10
44.9136499977
 20
22.6606841214
 10
44.9390484035
 20
22.6448067206
 10
44.9632295373
 20
22.6270391773
 10
44.9860808055
 20
22.6074414232
 10
45.0074290549
 20
22.5861385555
 10
45.0270555144
 20
22.5633496898
 10
45.0448341852
 20
22.5392561493
 10
45.0607136831
 20
22.5139671439
 10
45.0746243996
 20
22.4876230635
 10
45.0864872496
 20
22.46041494
 10
45.096270722
 20
22.4324635189
 10
45.1039646262
 20
22.4037977928
 10
45.1095188527
 20
22.3745283202
 10
45.1128747671
 20
22.34485712
 10
45.1139986665
 20
22.314947961
  0
LWPOLYLINE
  5
35E
100
AcDbEntity
  8
ASSI
100
AcDbPolyline
 62
7
  6
CONTINUOUS
 90
22
 70
0
 10
44.7137485127
 20
22.7139559901
 10
44.7438293503
 20
22.7128306988
 10
44.7736552984
 20
22.7094694725
 10
44.8030619616
 20
22.7039098491
 10
44.8318410849
 20
22.6962169992
 10
44.8598890274
 20
22.6864430562
 10
44.887195027
 20
22.6745908107
 10
44.9136499977
 20
22.6606841214
 10
44.9390484035
 20
22.6448067206
 10
44.9632295373
 20
22.6270391773
 10
44.9860808055
 20
22.6074414232
 10
45.0074290549
 20
22.5861385555
 10
45.0270555144
 20
22.5633496898
 10
45.0448341852
 20
22.5392561493
 10
45.0607136831
 20
22.5139671439
 10
45.0746243996
 20
22.4876230635
 10
45.0864872496
 20
22.46041494
 10
45.096270722
 20
22.4324635189
 10
45.1039646262
 20
22.4037977928
 10
45.1095188527
 20
22.3745283202
 10
45.1128747671
 20
22.34485712
 10
45.1139986665
 20
22.314947961
  0
LINE
  5
35F
100
AcDbEntity
  8
RACCORDO
100
AcDbLine
 62
250
  6
CONTINUOUS
 10
71.2294989691
 20
-44.9788897961
 11
71.250609173
 21
-45.0
  0
LINE
  5
360
100
AcDbEntity
  8
ASSI
100
AcDbLine
 62
250
  6
CONTINUOUS
 10
71.2294989691
 20
-44.9788897961
 11
71.250609173
 21
-45.0
  0
LINE
  5
361
100
AcDbEntity
  8
RACCORDO
100
AcDbLine
 62
250
  6
CONTINUOUS
 10
72.204793953
 20
-43.9554031259
 11
72.25
 21
-44.000609173
  0
LINE
  5
362
100
AcDbEntity
  8
ASSI
100
AcDbLine
 62
250
  6
CONTINUOUS
 10
72.204793953
 20
-43.9554031259
 11
72.25
 21
-44.000609173
  0
LWPOLYLINE
  5
363
100
AcDbEntity
  8
RACCORDO
100
AcDbPolyline
 62
250
  6
CONTINUOUS
 90
25
 70
0
 10
44.7565985265
 20
23.2785564331
 10
44.8155974502
 20
23.2765723172
 10
44.8738250324
 20
23.2708888417
 10
44.9312812731
 20
23.2615040801
 10
44.9881900681
 20
23.2483388015
 10
45.0443275216
 20
23.2314645413
 10
45.0990219467
 20
23.2111039902
 10
45.152263397
 20
23.1872064963
 10
45.2040618189
 20
23.1598085762
 10
45.2537753653
 20
23.1292632593
 10
45.3013910367
 20
23.0955060408
 10
45.3469218326
 20
23.0585829878
 10
45.389764904
 20
23.0190143129
 10
45.4298209007
 20
22.9768782255
 10
45.4671891729
 20
22.9320773795
 10
45.5015649229
 20
22.8848705713
 10
45.5330272276
 20
22.8351187319
 10
45.5614970101
 20
22.7829399499
 10
45.5864322424
 20
22.7289821508
 10
45.6077824809
 20
22.6730678266
 10
45.6255981693
 20
22.6153570736
 10
45.6394886099
 20
22.5570128816
 10
45.6493235702
 20
22.4984236684
 10
45.6552332827
 20
22.4391966191
 10
45.6572177474
 20
22.3793288227
  0
LWPOLYLINE
  5
364
100
AcDbEntity
  8
ASSI
100
AcDbPolyline
 62
250
  6
CONTINUOUS
 90
25
 70
0
 10
44.7565985265
 20
23.2785564331
 10
44.8155974502
 20
23.2765723172
 10
44.8738250324
 20
23.2708888417
 10
44.9312812731
 20
23.2615040801
 10
44.9881900681
 20
23.2483388015
 10
45.0443275216
 20
23.2314645413
 10
45.0990219467
 20
23.2111039902
 10
45.152263397
 20
23.1872064963
 10
45.2040618189
 20
23.1598085762
 10
45.2537753653
 20
23.1292632593
 10
45.3013910367
 20
23.0955060408
 10
45.3469218326
 20
23.0585829878
 10
45.389764904
 20
23.0190143129
 10
45.4298209007
 20
22.9768782255
 10
45.4671891729
 20
22.9320773795
 10
45.5015649229
 20
22.8848705713
 10
45.5330272276
 20
22.8351187319
 10
45.5614970101
 20
22.7829399499
 10
45.5864322424
 20
22.7289821508
 10
45.6077824809
 20
22.6730678266
 10
45.6255981693
 20
22.6153570736
 10
45.6394886099
 20
22.5570128816
 10
45.6493235702
 20
22.4984236684
 10
45.6552332827
 20
22.4391966191
 10
45.6572177474
 20
22.3793288227
  0
LWPOLYLINE
  5
365
100
AcDbEntity
  8
0
100
AcDbPolyline
 62
7
  6
CONTINUOUS
 90
10
 70
0
 43
0.3500000006
 10
1.9285714102
 20
56.2499987183
 10
2.0000000439
 20
56.1071454163
 10
2.0000000439
 20
56.0357142334
 10
1.8571429181
 20
55.8928609314
 10
1.7857142844
 20
55.8928609314
 10
1.7142856507
 20
55.9642830505
 10
1.7142856507
 20
56.0357142334
 10
1.7857142844
 20
56.1785675354
 10
1.8571429181
 20
56.2499987183
 10
1.9285714102
 20
56.2499987183
  0
LWPOLYLINE
  5
366
100
AcDbEntity
  8
RACCORDO
100
AcDbPolyline
 62
250
  6
CONTINUOUS
 90
19
 70
0
 10
71.7043105286
 20
44.1656282746
 10
71.7461783406
 20
44.1671087186
 10
71.7877513008
 20
44.1673503372
 10
71.8287365644
 20
44.1663514274
 10
71.868845424
 20
44.1641190272
 10
71.9077953428
 20
44.1606688568
 10
71.9453119447
 20
44.1560252075
 10
71.9811309504
 20
44.1502207844
 10
72.0150000344
 20
44.1432964734
 10
72.0466806017
 20
44.1353010441
 10
72.0759494782
 20
44.1262908123
 10
72.102600475
 20
44.1163292463
 10
72.1264458382
 20
44.1054865169
 10
72.1473175845
 20
44.0938389977
 10
72.1650686753
 20
44.0814687353
 10
72.1795740507
 20
44.0684628749
 10
72.1907315201
 20
44.0549130333
 10
72.1984624794
 20
44.0409146529
 10
72.2027124599
 20
44.0265663387
  0
LWPOLYLINE
  5
367
100
AcDbEntity
  8
ASSI
100
AcDbPolyline
 62
250
  6
CONTINUOUS
 90
19
 70
0
 10
71.7043105286
 20
44.1656282746
 10
71.7461783406
 20
44.1671087186
 10
71.7877513008
 20
44.1673503372
 10
71.8287365644
 20
44.1663514274
 10
71.868845424
 20
44.1641190272
 10
71.9077953428
 20
44.1606688568
 10
71.9453119447
 20
44.1560252075
 10
71.9811309504
 20
44.1502207844
 10
72.0150000344
 20
44.1432964734
 10
72.0466806017
 20
44.1353010441
 10
72.0759494782
 20
44.1262908123
 10
72.102600475
 20
44.1163292463
 10
72.1264458382
 20
44.1054865169
 10
72.1473175845
 20
44.0938389977
 10
72.1650686753
 20
44.0814687353
 10
72.1795740507
 20
44.0684628749
 10
72.1907315201
 20
44.0549130333
 10
72.1984624794
 20
44.0409146529
 10
72.2027124599
 20
44.0265663387
  0
LWPOLYLINE
  5
368
100
AcDbEntity
  8
RACCORDO
100
AcDbPolyline
 62
250
  6
CONTINUOUS
 90
19
 70
0
 10
-71.7043105286
 20
44.1656282748
 10
-71.7461788559
 20
44.1671090294
 10
-71.7877522538
 20
44.1673509062
 10
-71.8287378701
 20
44.1663522011
 10
-71.8688469931
 20
44.1641199493
 10
-71.9077970853
 20
44.1606698753
 10
-71.9453137736
 20
44.1560262822
 10
-71.9811327822
 20
44.1502218802
 10
-72.0150017941
 20
44.1432975571
 10
-72.0466822284
 20
44.1353020891
 10
-72.0759509211
 20
44.1262917982
 10
-72.102601697
 20
44.1163301547
 10
-72.1264468222
 20
44.1054873308
 10
-72.1473183263
 20
44.0938397055
 10
-72.1650691858
 20
44.0814693274
 10
-72.1795743596
 20
44.0684633362
 10
-72.1907316701
 20
44.0549133489
 10
-72.1984625228
 20
44.0409148146
 10
-72.2027124597
 20
44.0265663421
  0
LWPOLYLINE
  5
369
100
AcDbEntity
  8
ASSI
100
AcDbPolyline
 62
250
  6
CONTINUOUS
 90
19
 70
0
 10
-71.7043105286
 20
44.1656282748
 10
-71.7461788559
 20
44.1671090294
 10
-71.7877522538
 20
44.1673509062
 10
-71.8287378701
 20
44.1663522011
 10
-71.8688469931
 20
44.1641199493
 10
-71.9077970853
 20
44.1606698753
 10
-71.9453137736
 20
44.1560262822
 10
-71.9811327822
 20
44.1502218802
 10
-72.0150017941
 20
44.1432975571
 10
-72.0466822284
 20
44.1353020891
 10
-72.0759509211
 20
44.1262917982
 10
-72.102601697
 20
44.1163301547
 10
-72.1264468222
 20
44.1054873308
 10
-72.1473183263
 20
44.0938397055
 10
-72.1650691858
 20
44.0814693274
 10
-72.1795743596
 20
44.0684633362
 10
-72.1907316701
 20
44.0549133489
 10
-72.1984625228
 20
44.0409148146
 10
-72.2027124597
 20
44.0265663421
  0
LINE
  5
36A
100
AcDbEntity
  8
RACCORDO
100
AcDbLine
 62
250
  6
CONTINUOUS
 10
44.7565985265
 20
23.2785564331
 11
44.7565985265
 21
22.756676789
  0
LINE
  5
36B
100
AcDbEntity
  8
ASSI
100
AcDbLine
 62
250
  6
CONTINUOUS
 10
44.7565985265
 20
23.2785564331
 11
44.7565985265
 21
22.756676789
  0
LINE
  5
36C
100
AcDbEntity
  8
RACCORDO
100
AcDbLine
 62
250
  6
CONTINUOUS
 10
44.7565985265
 20
-23.2785564331
 11
44.7565985265
 21
-22.756676789
  0
LINE
  5
36D
100
AcDbEntity
  8
ASSI
100
AcDbLine
 62
250
  6
CONTINUOUS
 10
44.7565985265
 20
-23.2785564331
 11
44.7565985265
 21
-22.756676789
  0
LINE
  5
36E
100
AcDbEntity
  8
0
100
AcDbLine
 62
7
  6
CONTINUOUS
 10
45.1139986665
 20
22.314947961
 11
45.1139986665
 21
-22.314947961
  0
LINE
  5
36F
100
AcDbEntity
  8
ASSI
100
AcDbLine
 62
7
  6
CONTINUOUS
 10
45.1139986665
 20
22.314947961
 11
45.1139986665
 21
-22.314947961
  0
LINE
  5
370
100
AcDbEntity
  8
RACCORDO
100
AcDbLine
 62
250
  6
CONTINUOUS
 10
45.158438001
 20
22.3592492262
 11
45.158438001
 21
-22.3592492262
  0
LINE
  5
371
100
AcDbEntity
  8
ASSI
100
AcDbLine
 62
250
  6
CONTINUOUS
 10
45.158438001
 20
22.3592492262
 11
45.158438001
 21
-22.3592492262
  0
LINE
  5
372
100
AcDbEntity
  8
RACCORDO
100
AcDbLine
 62
250
  6
CONTINUOUS
 10
45.6572177474
 20
22.3793288227
 11
45.6572177474
 21
-22.3793288227
  0
LINE
  5
373
100
AcDbEntity
  8
ASSI
100
AcDbLine
 62
250
  6
CONTINUOUS
 10
45.6572177474
 20
22.3793288227
 11
45.6572177474
 21
-22.3793288227
  0
LWPOLYLINE
  5
374
100
AcDbEntity
  8
RACCORDO
100
AcDbPolyline
 62
250
  6
CONTINUOUS
 90
25
 70
0
 10
45.1584379453
 20
-22.3592491706
 10
45.1576479842
 20
-22.3852442319
 10
45.1551609429
 20
-22.4111042076
 10
45.1509897487
 20
-22.4367207104
 10
45.1451554486
 20
-22.4619823199
 10
45.1376842095
 20
-22.4867877966
 10
45.1286044784
 20
-22.5110457145
 10
45.1179524072
 20
-22.5346565322
 10
45.1057735114
 20
-22.5575181168
 10
45.0921169496
 20
-22.5795379724
 10
45.0770329461
 20
-22.6006297385
 10
45.0605886301
 20
-22.620695838
 10
45.0428703842
 20
-22.6396351216
 10
45.0240017568
 20
-22.6573283561
 10
45.0040221871
 20
-22.6737505998
 10
44.9828822474
 20
-22.6889286219
 10
44.960598838
 20
-22.7028064561
 10
44.9373018078
 20
-22.7152612331
 10
44.9131038565
 20
-22.7262051768
 10
44.8880446746
 20
-22.7355860917
 10
44.8622781945
 20
-22.7433138309
 10
44.8361113745
 20
-22.7492947704
 10
44.8097304299
 20
-22.753509109
 10
44.7831872766
 20
-22.7559685398
 10
44.7565983685
 20
-22.7566766315
  0
LWPOLYLINE
  5
375
100
AcDbEntity
  8
ASSI
100
AcDbPolyline
 62
250
  6
CONTINUOUS
 90
25
 70
0
 10
45.1584379453
 20
-22.3592491706
 10
45.1576479842
 20
-22.3852442319
 10
45.1551609429
 20
-22.4111042076
 10
45.1509897487
 20
-22.4367207104
 10
45.1451554486
 20
-22.4619823199
 10
45.1376842095
 20
-22.4867877966
 10
45.1286044784
 20
-22.5110457145
 10
45.1179524072
 20
-22.5346565322
 10
45.1057735114
 20
-22.5575181168
 10
45.0921169496
 20
-22.5795379724
 10
45.0770329461
 20
-22.6006297385
 10
45.0605886301
 20
-22.620695838
 10
45.0428703842
 20
-22.6396351216
 10
45.0240017568
 20
-22.6573283561
 10
45.0040221871
 20
-22.6737505998
 10
44.9828822474
 20
-22.6889286219
 10
44.960598838
 20
-22.7028064561
 10
44.9373018078
 20
-22.7152612331
 10
44.9131038565
 20
-22.7262051768
 10
44.8880446746
 20
-22.7355860917
 10
44.8622781945
 20
-22.7433138309
 10
44.8361113745
 20
-22.7492947704
 10
44.8097304299
 20
-22.753509109
 10
44.7831872766
 20
-22.7559685398
 10
44.7565983685
 20
-22.7566766315
  0
LWPOLYLINE
  5
376
100
AcDbEntity
  8
RACCORDO
100
AcDbPolyline
 62
250
  6
CONTINUOUS
 90
25
 70
0
 10
45.6572177474
 20
-22.3793288227
 10
45.6552420794
 20
-22.4381974971
 10
45.649557422
 20
-22.4962968345
 10
45.6401637753
 20
-22.5536303661
 10
45.6269915575
 20
-22.6104310202
 10
45.6101103505
 20
-22.6664720309
 10
45.5897288991
 20
-22.7210707479
 10
45.5658051326
 20
-22.7742276046
 10
45.5383811218
 20
-22.8259553497
 10
45.5077918247
 20
-22.8755960574
 10
45.473981448
 20
-22.9231489533
 10
45.4370057849
 20
-22.9686325249
 10
45.3973671737
 20
-23.0114228548
 10
45.3551541465
 20
-23.0514307865
 10
45.3102781711
 20
-23.0887655322
 10
45.2629759886
 20
-23.1231034897
 10
45.213112805
 20
-23.1545336675
 10
45.1608234143
 20
-23.1829846236
 10
45.1067489399
 20
-23.2078934778
 10
45.0507141659
 20
-23.2292130866
 10
44.9928943082
 20
-23.2470055413
 10
44.9344561383
 20
-23.2608722427
 10
44.87578858
 20
-23.2706834306
 10
44.8165027094
 20
-23.2765774559
 10
44.7565985265
 20
-23.2785564331
  0
LWPOLYLINE
  5
377
100
AcDbEntity
  8
ASSI
100
AcDbPolyline
 62
250
  6
CONTINUOUS
 90
25
 70
0
 10
45.6572177474
 20
-22.3793288227
 10
45.6552420794
 20
-22.4381974971
 10
45.649557422
 20
-22.4962968345
 10
45.6401637753
 20
-22.5536303661
 10
45.6269915575
 20
-22.6104310202
 10
45.6101103505
 20
-22.6664720309
 10
45.5897288991
 20
-22.7210707479
 10
45.5658051326
 20
-22.7742276046
 10
45.5383811218
 20
-22.8259553497
 10
45.5077918247
 20
-22.8755960574
 10
45.473981448
 20
-22.9231489533
 10
45.4370057849
 20
-22.9686325249
 10
45.3973671737
 20
-23.0114228548
 10
45.3551541465
 20
-23.0514307865
 10
45.3102781711
 20
-23.0887655322
 10
45.2629759886
 20
-23.1231034897
 10
45.213112805
 20
-23.1545336675
 10
45.1608234143
 20
-23.1829846236
 10
45.1067489399
 20
-23.2078934778
 10
45.0507141659
 20
-23.2292130866
 10
44.9928943082
 20
-23.2470055413
 10
44.9344561383
 20
-23.2608722427
 10
44.87578858
 20
-23.2706834306
 10
44.8165027094
 20
-23.2765774559
 10
44.7565985265
 20
-23.2785564331
  0
LWPOLYLINE
  5
378
100
AcDbEntity
  8
0
100
AcDbPolyline
 62
7
  6
CONTINUOUS
 90
22
 70
0
 10
45.1139986665
 20
-22.314947961
 10
45.11287727
 20
-22.3448238404
 10
45.1095288631
 20
-22.3744620965
 10
45.1039871001
 20
-22.4036995179
 10
45.0963121418
 20
-22.4323293444
 10
45.0865530767
 20
-22.460247108
 10
45.0747126938
 20
-22.4874394223
 10
45.0608126647
 20
-22.5137953981
 10
45.0449334049
 20
-22.5391104389
 10
45.027154765
 20
-22.5632252012
 10
45.0075337921
 20
-22.5860257874
 10
44.9861934366
 20
-22.607337172
 10
44.9633536531
 20
-22.6269405611
 10
44.93919458
 20
-22.6447075131
 10
44.9138236727
 20
-22.6605843505
 10
44.8873818814
 20
-22.6745012617
 10
44.8600608898
 20
-22.6863758654
 10
44.8319797834
 20
-22.6961743129
 10
44.8031646497
 20
-22.7038864313
 10
44.773725109
 20
-22.7094589499
 10
44.7438647422
 20
-22.7128280465
 10
44.7137485127
 20
-22.7139559901
  0
LWPOLYLINE
  5
379
100
AcDbEntity
  8
ASSI
100
AcDbPolyline
 62
7
  6
CONTINUOUS
 90
22
 70
0
 10
45.1139986665
 20
-22.314947961
 10
45.11287727
 20
-22.3448238404
 10
45.1095288631
 20
-22.3744620965
 10
45.1039871001
 20
-22.4036995179
 10
45.0963121418
 20
-22.4323293444
 10
45.0865530767
 20
-22.460247108
 10
45.0747126938
 20
-22.4874394223
 10
45.0608126647
 20
-22.5137953981
 10
45.0449334049
 20
-22.5391104389
 10
45.027154765
 20
-22.5632252012
 10
45.0075337921
 20
-22.5860257874
 10
44.9861934366
 20
-22.607337172
 10
44.9633536531
 20
-22.6269405611
 10
44.93919458
 20
-22.6447075131
 10
44.9138236727
 20
-22.6605843505
 10
44.8873818814
 20
-22.6745012617
 10
44.8600608898
 20
-22.6863758654
 10
44.8319797834
 20
-22.6961743129
 10
44.8031646497
 20
-22.7038864313
 10
44.773725109
 20
-22.7094589499
 10
44.7438647422
 20
-22.7128280465
 10
44.7137485127
 20
-22.7139559901
  0
LWPOLYLINE
  5
37A
100
AcDbEntity
  8
RACCORDO
100
AcDbPolyline
 62
250
  6
CONTINUOUS
 90
19
 70
0
 10
-71.7050985394
 20
44.1286569522
 10
-71.7477671367
 20
44.1275405414
 10
-71.7901243897
 20
44.1251680753
 10
-71.8318612252
 20
44.1215568651
 10
-71.8726730975
 20
44.1167332614
 10
-71.9122622097
 20
44.110732461
 10
-71.9503396876
 20
44.1035982504
 10
-71.9866276869
 20
44.0953826868
 10
-72.0208614207
 20
44.0861457174
 10
-72.0527910916
 20
44.0759547426
 10
-72.0821837147
 20
44.064884124
 10
-72.1088248173
 20
44.0530146419
 10
-72.1325200039
 20
44.0404329056
 10
-72.1530963749
 20
44.0272307216
 10
-72.1704037881
 20
44.0135044239
 10
-72.1843159543
 20
43.9993541707
 10
-72.1947313585
 20
43.9848832138
 10
-72.2015740014
 20
43.970197145
 10
-72.204793953
 20
43.9554031259
  0
LWPOLYLINE
  5
37B
100
AcDbEntity
  8
ASSI
100
AcDbPolyline
 62
250
  6
CONTINUOUS
 90
19
 70
0
 10
-71.7050985394
 20
44.1286569522
 10
-71.7477671367
 20
44.1275405414
 10
-71.7901243897
 20
44.1251680753
 10
-71.8318612252
 20
44.1215568651
 10
-71.8726730975
 20
44.1167332614
 10
-71.9122622097
 20
44.110732461
 10
-71.9503396876
 20
44.1035982504
 10
-71.9866276869
 20
44.0953826868
 10
-72.0208614207
 20
44.0861457174
 10
-72.0527910916
 20
44.0759547426
 10
-72.0821837147
 20
44.064884124
 10
-72.1088248173
 20
44.0530146419
 10
-72.1325200039
 20
44.0404329056
 10
-72.1530963749
 20
44.0272307216
 10
-72.1704037881
 20
44.0135044239
 10
-72.1843159543
 20
43.9993541707
 10
-72.1947313585
 20
43.9848832138
 10
-72.2015740014
 20
43.970197145
 10
-72.204793953
 20
43.9554031259
  0
LINE
  5
37C
100
AcDbEntity
  8
RACCORDO
100
AcDbLine
 62
250
  6
CONTINUOUS
 10
-71.7043105286
 20
44.1656282748
 11
71.7043105286
 21
44.1656282748
  0
LINE
  5
37D
100
AcDbEntity
  8
ASSI
100
AcDbLine
 62
250
  6
CONTINUOUS
 10
-71.7043105286
 20
44.1656282748
 11
71.7043105286
 21
44.1656282748
  0
LINE
  5
37E
100
AcDbEntity
  8
RACCORDO
100
AcDbLine
 62
250
  6
CONTINUOUS
 10
-71.2294989691
 20
44.9788897961
 11
71.2294989691
 21
44.9788897961
  0
LINE
  5
37F
100
AcDbEntity
  8
ASSI
100
AcDbLine
 62
250
  6
CONTINUOUS
 10
-71.2294989691
 20
44.9788897961
 11
71.2294989691
 21
44.9788897961
  0
LINE
  5
380
100
AcDbEntity
  8
RACCORDO
100
AcDbLine
 62
7
  6
CONTINUOUS
 10
71.250609173
 20
45.0
 11
-71.250609173
 21
45.0
  0
LINE
  5
381
100
AcDbEntity
  8
ASSI
100
AcDbLine
 62
7
  6
CONTINUOUS
 10
71.250609173
 20
45.0
 11
-71.250609173
 21
45.0
  0
LWPOLYLINE
  5
382
100
AcDbEntity
  8
RACCORDO
100
AcDbPolyline
 62
250
  6
CONTINUOUS
 90
19
 70
0
 10
71.7050985394
 20
44.1286569522
 10
71.747767147
 20
44.127540534
 10
71.790124409
 20
44.1251680606
 10
71.8318612523
 20
44.1215568435
 10
71.8726731308
 20
44.1167332333
 10
71.9122622477
 20
44.110732427
 10
71.9503397285
 20
44.1035982113
 10
71.9866277289
 20
44.0953826434
 10
72.020861462
 20
44.0861456709
 10
72.0527911308
 20
44.0759546942
 10
72.0821837503
 20
44.0648840751
 10
72.1088248483
 20
44.0530145938
 10
72.1325200295
 20
44.0404328598
 10
72.1530963947
 20
44.0272306798
 10
72.1704038022
 20
44.0135043875
 10
72.184315963
 20
43.9993541413
 10
72.1947313629
 20
43.9848831928
 10
72.2015740027
 20
43.9701971338
 10
72.204793953
 20
43.9554031259
  0
LWPOLYLINE
  5
383
100
AcDbEntity
  8
ASSI
100
AcDbPolyline
 62
250
  6
CONTINUOUS
 90
19
 70
0
 10
71.7050985394
 20
44.1286569522
 10
71.747767147
 20
44.127540534
 10
71.790124409
 20
44.1251680606
 10
71.8318612523
 20
44.1215568435
 10
71.8726731308
 20
44.1167332333
 10
71.9122622477
 20
44.110732427
 10
71.9503397285
 20
44.1035982113
 10
71.9866277289
 20
44.0953826434
 10
72.020861462
 20
44.0861456709
 10
72.0527911308
 20
44.0759546942
 10
72.0821837503
 20
44.0648840751
 10
72.1088248483
 20
44.0530145938
 10
72.1325200295
 20
44.0404328598
 10
72.1530963947
 20
44.0272306798
 10
72.1704038022
 20
44.0135043875
 10
72.184315963
 20
43.9993541413
 10
72.1947313629
 20
43.9848831928
 10
72.2015740027
 20
43.9701971338
 10
72.204793953
 20
43.9554031259
  0
LWPOLYLINE
  5
384
100
AcDbEntity
  8
RACCORDO
100
AcDbPolyline
 62
250
  6
CONTINUOUS
 90
25
 70
0
 10
-71.2295020272
 20
44.9788928542
 10
-71.296140906
 20
44.9750678133
 10
-71.3614622167
 20
44.9667908292
 10
-71.4251868756
 20
44.9543019919
 10
-71.4868798378
 20
44.9379055575
 10
-71.5465140759
 20
44.9178353864
 10
-71.6044337729
 20
44.8941342631
 10
-71.660589001
 20
44.8668937234
 10
-71.7146237668
 20
44.8363577009
 10
-71.7664105003
 20
44.80269827
 10
-71.8158304705
 20
44.7660730304
 10
-71.8626864793
 20
44.7267089583
 10
-71.9067664544
 20
44.6849013631
 10
-71.9477845916
 20
44.6410837011
 10
-71.9858669013
 20
44.5952922565
 10
-72.0213619712
 20
44.5471613102
 10
-72.0541689475
 20
44.4967482013
 10
-72.0840766428
 20
44.4442968067
 10
-72.1111214237
 20
44.3896161171
 10
-72.1351964214
 20
44.3326280688
 10
-72.1559939697
 20
44.2737179864
 10
-72.1732536113
 20
44.2133999054
 10
-72.1868422223
 20
44.1520028103
 10
-72.1966909179
 20
44.0896464636
 10
-72.2027124597
 20
44.0265663421
  0
LWPOLYLINE
  5
385
100
AcDbEntity
  8
ASSI
100
AcDbPolyline
 62
250
  6
CONTINUOUS
 90
25
 70
0
 10
-71.2295020272
 20
44.9788928542
 10
-71.296140906
 20
44.9750678133
 10
-71.3614622167
 20
44.9667908292
 10
-71.4251868756
 20
44.9543019919
 10
-71.4868798378
 20
44.9379055575
 10
-71.5465140759
 20
44.9178353864
 10
-71.6044337729
 20
44.8941342631
 10
-71.660589001
 20
44.8668937234
 10
-71.7146237668
 20
44.8363577009
 10
-71.7664105003
 20
44.80269827
 10
-71.8158304705
 20
44.7660730304
 10
-71.8626864793
 20
44.7267089583
 10
-71.9067664544
 20
44.6849013631
 10
-71.9477845916
 20
44.6410837011
 10
-71.9858669013
 20
44.5952922565
 10
-72.0213619712
 20
44.5471613102
 10
-72.0541689475
 20
44.4967482013
 10
-72.0840766428
 20
44.4442968067
 10
-72.1111214237
 20
44.3896161171
 10
-72.1351964214
 20
44.3326280688
 10
-72.1559939697
 20
44.2737179864
 10
-72.1732536113
 20
44.2133999054
 10
-72.1868422223
 20
44.1520028103
 10
-72.1966909179
 20
44.0896464636
 10
-72.2027124597
 20
44.0265663421
  0
LINE
  5
386
100
AcDbEntity
  8
DRAFT
100
AcDbLine
 62
7
  6
CONTINUOUS
 10
72.25
 20
3.6
 11
72.1626980763
 21
3.4689805518
  0
LINE
  5
387
100
AcDbEntity
  8
ASSI
100
AcDbLine
 62
7
  6
CONTINUOUS
 10
72.25
 20
3.6
 11
72.1626980763
 21
3.4689805518
  0
LWPOLYLINE
  5
388
100
AcDbEntity
  8
RACCORDO
100
AcDbPolyline
 62
250
  6
CONTINUOUS
 90
25
 70
0
 10
-71.229449029
 20
44.9788897961
 10
-71.2622864898
 20
44.9745268018
 10
-71.2942234319
 20
44.96647166
 10
-71.3252598555
 20
44.9549340505
 10
-71.3554105951
 20
44.9401722242
 10
-71.384660816
 20
44.9223774789
 10
-71.4129660141
 20
44.90158487
 10
-71.4403897082
 20
44.8778675933
 10
-71.4668683794
 20
44.8514280302
 10
-71.4921669675
 20
44.8224235649
 10
-71.5162832369
 20
44.7909798005
 10
-71.5392194232
 20
44.7572790312
 10
-71.5607471734
 20
44.7215897858
 10
-71.5807738314
 20
44.6842652669
 10
-71.5993920533
 20
44.6453253405
 10
-71.6166514535
 20
44.6044902746
 10
-71.6326205459
 20
44.561775412
 10
-71.6472308166
 20
44.5173745591
 10
-71.6603263388
 20
44.4711890853
 10
-71.6719465207
 20
44.4231081949
 10
-71.6820519541
 20
44.3734212997
 10
-71.6903684868
 20
44.3226487266
 10
-71.6968047347
 20
44.2710704488
 10
-71.701452082
 20
44.2186860412
 10
-71.7045215741
 20
44.1615248935
  0
LWPOLYLINE
  5
389
100
AcDbEntity
  8
ASSI
100
AcDbPolyline
 62
250
  6
CONTINUOUS
 90
25
 70
0
 10
-71.229449029
 20
44.9788897961
 10
-71.2622864898
 20
44.9745268018
 10
-71.2942234319
 20
44.96647166
 10
-71.3252598555
 20
44.9549340505
 10
-71.3554105951
 20
44.9401722242
 10
-71.384660816
 20
44.9223774789
 10
-71.4129660141
 20
44.90158487
 10
-71.4403897082
 20
44.8778675933
 10
-71.4668683794
 20
44.8514280302
 10
-71.4921669675
 20
44.8224235649
 10
-71.5162832369
 20
44.7909798005
 10
-71.5392194232
 20
44.7572790312
 10
-71.5607471734
 20
44.7215897858
 10
-71.5807738314
 20
44.6842652669
 10
-71.5993920533
 20
44.6453253405
 10
-71.6166514535
 20
44.6044902746
 10
-71.6326205459
 20
44.561775412
 10
-71.6472308166
 20
44.5173745591
 10
-71.6603263388
 20
44.4711890853
 10
-71.6719465207
 20
44.4231081949
 10
-71.6820519541
 20
44.3734212997
 10
-71.6903684868
 20
44.3226487266
 10
-71.6968047347
 20
44.2710704488
 10
-71.701452082
 20
44.2186860412
 10
-71.7045215741
 20
44.1615248935
  0
LWPOLYLINE
  5
38A
100
AcDbEntity
  8
0
100
AcDbPolyline
 62
7
  6
CONTINUOUS
 90
8
 70
0
 43
0.3500000006
 10
3.0000000658
 20
55.7499985657
 10
3.8571428204
 20
55.7499985657
 10
4.2857143393
 20
56.1785675354
 10
4.2857143393
 20
57.0357145386
 10
3.8571428204
 20
57.4642835083
 10
3.0000000658
 20
57.4642835083
 10
3.0000000658
 20
58.7499994812
 10
4.2857143393
 20
58.7499994812
  0
LWPOLYLINE
  5
38B
100
AcDbEntity
  8
0
100
AcDbPolyline
 62
7
  6
CONTINUOUS
 90
3
 70
0
 43
0.3500000006
 10
0.4285714127
 20
56.392861084
 10
-1.0714285848
 20
56.392861084
 10
-0.4285714127
 20
58.7499994812
  0
LWPOLYLINE
  5
38C
100
AcDbEntity
  8
0
100
AcDbPolyline
 62
7
  6
CONTINUOUS
 90
3
 70
0
 43
0.3500000006
 10
-1.9285714102
 20
56.392861084
 10
-3.4285713015
 20
56.392861084
 10
-2.7857141647
 20
58.7499994812
  0
LWPOLYLINE
  5
38D
100
AcDbEntity
  8
0
100
AcDbPolyline
 62
7
  6
CONTINUOUS
 90
10
 70
0
 43
0.3500000006
 10
81.4999976807
 20
-1.9285708809
 10
80.6428597412
 20
-1.0714295425
 10
79.785712738
 20
-0.8571427917
 10
78.9285747986
 20
-0.8571427917
 10
78.4999967651
 20
-1.2857140274
 10
78.4999967651
 20
-1.9285708809
 10
78.9285747986
 20
-2.3571432495
 10
79.785712738
 20
-2.3571432495
 10
80.2142817078
 20
-1.9285708809
 10
80.2142817078
 20
-1.0000006256
  0
LINE
  5
38E
100
AcDbEntity
  8
DRAFT
100
AcDbLine
 62
7
  6
CONTINUOUS
 10
72.25
 20
-3.6
 11
72.1626980763
 21
-3.4689805518
  0
LINE
  5
38F
100
AcDbEntity
  8
ASSI
100
AcDbLine
 62
7
  6
CONTINUOUS
 10
72.25
 20
-3.6
 11
72.1626980763
 21
-3.4689805518
  0
LINE
  5
390
100
AcDbEntity
  8
RACCORDO
100
AcDbLine
 62
250
  6
CONTINUOUS
 10
71.6905322713
 20
-42.818323935
 11
71.6763748319
 21
-41.2040122245
  0
LINE
  5
391
100
AcDbEntity
  8
ASSI
100
AcDbLine
 62
250
  6
CONTINUOUS
 10
71.6905322713
 20
-42.818323935
 11
71.6763748319
 21
-41.2040122245
  0
LINE
  5
392
100
AcDbEntity
  8
RACCORDO
100
AcDbLine
 62
250
  6
CONTINUOUS
 10
71.6763748319
 20
-41.2040122245
 11
71.6617968176
 21
-39.0661813721
  0
LINE
  5
393
100
AcDbEntity
  8
ASSI
100
AcDbLine
 62
250
  6
CONTINUOUS
 10
71.6763748319
 20
-41.2040122245
 11
71.6617968176
 21
-39.0661813721
  0
LINE
  5
394
100
AcDbEntity
  8
RACCORDO
100
AcDbLine
 62
250
  6
CONTINUOUS
 10
71.6617968176
 20
-39.0661813721
 11
71.6485653471
 21
-36.5486674694
  0
LINE
  5
395
100
AcDbEntity
  8
ASSI
100
AcDbLine
 62
250
  6
CONTINUOUS
 10
71.6617968176
 20
-39.0661813721
 11
71.6485653471
 21
-36.5486674694
  0
LINE
  5
396
100
AcDbEntity
  8
RACCORDO
100
AcDbLine
 62
250
  6
CONTINUOUS
 10
71.6485653471
 20
-36.5486674694
 11
71.6360037681
 21
-33.4260589267
  0
LINE
  5
397
100
AcDbEntity
  8
ASSI
100
AcDbLine
 62
250
  6
CONTINUOUS
 10
71.6485653471
 20
-36.5486674694
 11
71.6360037681
 21
-33.4260589267
  0
LINE
  5
398
100
AcDbEntity
  8
RACCORDO
100
AcDbLine
 62
250
  6
CONTINUOUS
 10
71.6360037681
 20
-33.4260589267
 11
71.6278501521
 21
-30.8439854384
  0
LINE
  5
399
100
AcDbEntity
  8
ASSI
100
AcDbLine
 62
250
  6
CONTINUOUS
 10
71.6360037681
 20
-33.4260589267
 11
71.6278501521
 21
-30.8439854384
  0
LINE
  5
39A
100
AcDbEntity
  8
RACCORDO
100
AcDbLine
 62
250
  6
CONTINUOUS
 10
71.6279615405
 20
30.8830868418
 11
71.6407684215
 21
34.7138583805
  0
LINE
  5
39B
100
AcDbEntity
  8
ASSI
100
AcDbLine
 62
250
  6
CONTINUOUS
 10
71.6279615405
 20
30.8830868418
 11
71.6407684215
 21
34.7138583805
  0
LINE
  5
39C
100
AcDbEntity
  8
RACCORDO
100
AcDbLine
 62
250
  6
CONTINUOUS
 10
71.6407684215
 20
34.7138583805
 11
71.6555619312
 21
37.9607535012
  0
LINE
  5
39D
100
AcDbEntity
  8
ASSI
100
AcDbLine
 62
250
  6
CONTINUOUS
 10
71.6407684215
 20
34.7138583805
 11
71.6555619312
 21
37.9607535012
  0
LINE
  5
39E
100
AcDbEntity
  8
RACCORDO
100
AcDbLine
 62
250
  6
CONTINUOUS
 10
71.6555619312
 20
37.9607535012
 11
71.6726815217
 21
40.7140209004
  0
LINE
  5
39F
100
AcDbEntity
  8
ASSI
100
AcDbLine
 62
250
  6
CONTINUOUS
 10
71.6555619312
 20
37.9607535012
 11
71.6726815217
 21
40.7140209004
  0
LINE
  5
3A0
100
AcDbEntity
  8
RACCORDO
100
AcDbLine
 62
250
  6
CONTINUOUS
 10
71.6726815217
 20
40.7140209004
 11
71.6872963845
 21
42.4826580088
  0
LINE
  5
3A1
100
AcDbEntity
  8
ASSI
100
AcDbLine
 62
250
  6
CONTINUOUS
 10
71.6726815217
 20
40.7140209004
 11
71.6872963845
 21
42.4826580088
  0
LINE
  5
3A2
100
AcDbEntity
  8
RACCORDO
100
AcDbLine
 62
250
  6
CONTINUOUS
 10
71.6872963845
 20
42.4826580088
 11
71.7018102117
 21
43.8588493824
  0
LINE
  5
3A3
100
AcDbEntity
  8
ASSI
100
AcDbLine
 62
250
  6
CONTINUOUS
 10
71.6872963845
 20
42.4826580088
 11
71.7018102117
 21
43.8588493824
  0
LINE
  5
3A4
100
AcDbEntity
  8
RACCORDO
100
AcDbLine
 62
250
  6
CONTINUOUS
 10
71.7018102117
 20
43.8588493824
 11
71.705134492
 21
44.1327686324
  0
LINE
  5
3A5
100
AcDbEntity
  8
ASSI
100
AcDbLine
 62
250
  6
CONTINUOUS
 10
71.7018102117
 20
43.8588493824
 11
71.705134492
 21
44.1327686324
  0
LWPOLYLINE
  5
3A6
100
AcDbEntity
  8
RACCORDO
100
AcDbPolyline
 62
250
  6
CONTINUOUS
 90
25
 70
0
 10
72.2027124597
 20
44.0265663421
 10
72.1971726741
 20
44.085771512
 10
72.1882134389
 20
44.1446122075
 10
72.1758607803
 20
44.2028832802
 10
72.160187749
 20
44.2602659909
 10
72.1412231003
 20
44.3166785859
 10
72.1188845656
 20
44.3722536749
 10
72.0931316723
 20
44.4268817152
 10
72.0640387416
 20
44.4802182454
 10
72.0316605588
 20
44.5320200732
 10
71.9960539838
 20
44.5820731454
 10
71.9573062803
 20
44.6301381194
 10
71.9155528223
 20
44.675943667
 10
71.8709272483
 20
44.7192672295
 10
71.823554571
 20
44.7599122704
 10
71.77359044
 20
44.7976633323
 10
71.7213174682
 20
44.8322586794
 10
71.666812256
 20
44.8636002873
 10
71.6099095765
 20
44.8916678819
 10
71.5506555939
 20
44.9162820769
 10
71.4893854152
 20
44.9371479662
 10
71.4263681512
 20
44.9540283369
 10
71.3618700147
 20
44.9667243259
 10
71.2961504766
 20
44.9750663734
 10
71.2295021505
 20
44.9788929775
  0
LWPOLYLINE
  5
3A7
100
AcDbEntity
  8
ASSI
100
AcDbPolyline
 62
250
  6
CONTINUOUS
 90
25
 70
0
 10
72.2027124597
 20
44.0265663421
 10
72.1971726741
 20
44.085771512
 10
72.1882134389
 20
44.1446122075
 10
72.1758607803
 20
44.2028832802
 10
72.160187749
 20
44.2602659909
 10
72.1412231003
 20
44.3166785859
 10
72.1188845656
 20
44.3722536749
 10
72.0931316723
 20
44.4268817152
 10
72.0640387416
 20
44.4802182454
 10
72.0316605588
 20
44.5320200732
 10
71.9960539838
 20
44.5820731454
 10
71.9573062803
 20
44.6301381194
 10
71.9155528223
 20
44.675943667
 10
71.8709272483
 20
44.7192672295
 10
71.823554571
 20
44.7599122704
 10
71.77359044
 20
44.7976633323
 10
71.7213174682
 20
44.8322586794
 10
71.666812256
 20
44.8636002873
 10
71.6099095765
 20
44.8916678819
 10
71.5506555939
 20
44.9162820769
 10
71.4893854152
 20
44.9371479662
 10
71.4263681512
 20
44.9540283369
 10
71.3618700147
 20
44.9667243259
 10
71.2961504766
 20
44.9750663734
 10
71.2295021505
 20
44.9788929775
  0
LWPOLYLINE
  5
3A8
100
AcDbEntity
  8
RACCORDO
100
AcDbPolyline
 62
250
  6
CONTINUOUS
 90
24
 70
0
 10
71.7017294397
 20
44.2154064276
 10
71.6974996803
 20
44.2648376966
 10
71.6916212502
 20
44.3137973076
 10
71.6840963429
 20
44.3620878121
 10
71.6749227649
 20
44.4096471266
 10
71.6640939364
 20
44.4565302739
 10
71.6515821343
 20
44.5026638788
 10
71.6374150815
 20
44.5477866436
 10
71.6216693678
 20
44.5916542433
 10
71.6043157033
 20
44.6341055712
 10
71.5853833777
 20
44.6749581281
 10
71.5650368508
 20
44.7139530087
 10
71.5432547737
 20
44.750917813
 10
71.5200584951
 20
44.7856997866
 10
71.4956765211
 20
44.8180940627
 10
71.4701518527
 20
44.8478881301
 10
71.4434414887
 20
44.8750092272
 10
71.4156449313
 20
44.8994305425
 10
71.3866771069
 20
44.9210089084
 10
71.3566230891
 20
44.9394964344
 10
71.3258376008
 20
44.9546850136
 10
71.294438883
 20
44.9664089723
 10
71.2623086946
 20
44.9745255485
 10
71.2294470358
 20
44.9788897961
  0
LWPOLYLINE
  5
3A9
100
AcDbEntity
  8
ASSI
100
AcDbPolyline
 62
250
  6
CONTINUOUS
 90
24
 70
0
 10
71.7017294397
 20
44.2154064276
 10
71.6974996803
 20
44.2648376966
 10
71.6916212502
 20
44.3137973076
 10
71.6840963429
 20
44.3620878121
 10
71.6749227649
 20
44.4096471266
 10
71.6640939364
 20
44.4565302739
 10
71.6515821343
 20
44.5026638788
 10
71.6374150815
 20
44.5477866436
 10
71.6216693678
 20
44.5916542433
 10
71.6043157033
 20
44.6341055712
 10
71.5853833777
 20
44.6749581281
 10
71.5650368508
 20
44.7139530087
 10
71.5432547737
 20
44.750917813
 10
71.5200584951
 20
44.7856997866
 10
71.4956765211
 20
44.8180940627
 10
71.4701518527
 20
44.8478881301
 10
71.4434414887
 20
44.8750092272
 10
71.4156449313
 20
44.8994305425
 10
71.3866771069
 20
44.9210089084
 10
71.3566230891
 20
44.9394964344
 10
71.3258376008
 20
44.9546850136
 10
71.294438883
 20
44.9664089723
 10
71.2623086946
 20
44.9745255485
 10
71.2294470358
 20
44.9788897961
  0
LINE
  5
3AA
100
AcDbEntity
  8
RACCORDO
100
AcDbLine
 62
250
  6
CONTINUOUS
 10
72.204793953
 20
-43.9554031259
 11
72.1902276848
 21
-42.6790477488
  0
LINE
  5
3AB
100
AcDbEntity
  8
ASSI
100
AcDbLine
 62
250
  6
CONTINUOUS
 10
72.204793953
 20
-43.9554031259
 11
72.1902276848
 21
-42.6790477488
  0
LINE
  5
3AC
100
AcDbEntity
  8
RACCORDO
100
AcDbLine
 62
250
  6
CONTINUOUS
 10
72.1902276848
 20
-42.6790477488
 11
72.1760702454
 21
-41.0936504294
  0
LINE
  5
3AD
100
AcDbEntity
  8
ASSI
100
AcDbLine
 62
250
  6
CONTINUOUS
 10
72.1902276848
 20
-42.6790477488
 11
72.1760702454
 21
-41.0936504294
  0
LINE
  5
3AE
100
AcDbEntity
  8
RACCORDO
100
AcDbLine
 62
250
  6
CONTINUOUS
 10
72.1760702454
 20
-41.0936504294
 11
72.1614922311
 21
-38.9810675057
  0
LINE
  5
3AF
100
AcDbEntity
  8
ASSI
100
AcDbLine
 62
250
  6
CONTINUOUS
 10
72.1760702454
 20
-41.0936504294
 11
72.1614922311
 21
-38.9810675057
  0
LINE
  5
3B0
100
AcDbEntity
  8
RACCORDO
100
AcDbLine
 62
250
  6
CONTINUOUS
 10
72.1614922311
 20
-38.9810675057
 11
72.1578023894
 21
-38.3485343339
  0
LINE
  5
3B1
100
AcDbEntity
  8
ASSI
100
AcDbLine
 62
250
  6
CONTINUOUS
 10
72.1614922311
 20
-38.9810675057
 11
72.1578023894
 21
-38.3485343339
  0
LINE
  5
3B2
100
AcDbEntity
  8
RACCORDO
100
AcDbLine
 62
250
  6
CONTINUOUS
 10
72.1578023894
 20
-38.3485343339
 11
72.144402344
 21
-35.6181116769
  0
LINE
  5
3B3
100
AcDbEntity
  8
ASSI
100
AcDbLine
 62
250
  6
CONTINUOUS
 10
72.1578023894
 20
-38.3485343339
 11
72.144402344
 21
-35.6181116769
  0
LINE
  5
3B4
100
AcDbEntity
  8
RACCORDO
100
AcDbLine
 62
250
  6
CONTINUOUS
 10
72.144402344
 20
-35.6181116769
 11
72.1324505302
 21
-32.4147381234
  0
LINE
  5
3B5
100
AcDbEntity
  8
ASSI
100
AcDbLine
 62
250
  6
CONTINUOUS
 10
72.144402344
 20
-35.6181116769
 11
72.1324505302
 21
-32.4147381234
  0
LINE
  5
3B6
100
AcDbEntity
  8
RACCORDO
100
AcDbLine
 62
250
  6
CONTINUOUS
 10
72.1324505302
 20
-32.4147381234
 11
72.1216581737
 21
-28.5550216058
  0
LINE
  5
3B7
100
AcDbEntity
  8
ASSI
100
AcDbLine
 62
250
  6
CONTINUOUS
 10
72.1324505302
 20
-32.4147381234
 11
72.1216581737
 21
-28.5550216058
  0
LINE
  5
3B8
100
AcDbEntity
  8
RACCORDO
100
AcDbLine
 62
250
  6
CONTINUOUS
 10
71.6278501521
 20
-30.8439854384
 11
71.6169024379
 21
-26.2875945388
  0
LINE
  5
3B9
100
AcDbEntity
  8
ASSI
100
AcDbLine
 62
250
  6
CONTINUOUS
 10
71.6278501521
 20
-30.8439854384
 11
71.6169024379
 21
-26.2875945388
  0
LINE
  5
3BA
100
AcDbEntity
  8
RACCORDO
100
AcDbLine
 62
250
  6
CONTINUOUS
 10
72.1216581737
 20
-28.5550216058
 11
72.1121265064
 21
-23.8409196395
  0
LINE
  5
3BB
100
AcDbEntity
  8
ASSI
100
AcDbLine
 62
250
  6
CONTINUOUS
 10
72.1216581737
 20
-28.5550216058
 11
72.1121265064
 21
-23.8409196395
  0
LINE
  5
3BC
100
AcDbEntity
  8
RACCORDO
100
AcDbLine
 62
250
  6
CONTINUOUS
 10
71.6169024379
 20
-26.2875945388
 11
71.6080902333
 21
-21.0003164849
  0
LINE
  5
3BD
100
AcDbEntity
  8
ASSI
100
AcDbLine
 62
250
  6
CONTINUOUS
 10
71.6169024379
 20
-26.2875945388
 11
71.6080902333
 21
-21.0003164849
  0
LINE
  5
3BE
100
AcDbEntity
  8
RACCORDO
100
AcDbLine
 62
250
  6
CONTINUOUS
 10
72.1121265064
 20
-23.8409196395
 11
72.1042733513
 21
-18.0933832729
  0
LINE
  5
3BF
100
AcDbEntity
  8
ASSI
100
AcDbLine
 62
250
  6
CONTINUOUS
 10
72.1121265064
 20
-23.8409196395
 11
72.1042733513
 21
-18.0933832729
  0
LINE
  5
3C0
100
AcDbEntity
  8
RACCORDO
100
AcDbLine
 62
250
  6
CONTINUOUS
 10
71.6080902333
 20
-21.0003164849
 11
71.6014343754
 21
-14.7681774234
  0
LINE
  5
3C1
100
AcDbEntity
  8
ASSI
100
AcDbLine
 62
250
  6
CONTINUOUS
 10
71.6080902333
 20
-21.0003164849
 11
71.6014343754
 21
-14.7681774234
  0
LINE
  5
3C2
100
AcDbEntity
  8
RACCORDO
100
AcDbLine
 62
250
  6
CONTINUOUS
 10
72.1042733513
 20
-18.0933832729
 11
72.0988587958
 21
-11.4919492176
  0
LINE
  5
3C3
100
AcDbEntity
  8
ASSI
100
AcDbLine
 62
250
  6
CONTINUOUS
 10
72.1042733513
 20
-18.0933832729
 11
72.0988587958
 21
-11.4919492176
  0
LINE
  5
3C4
100
AcDbEntity
  8
RACCORDO
100
AcDbLine
 62
250
  6
CONTINUOUS
 10
71.6014343754
 20
-14.7681774234
 11
71.5971419572
 21
-7.0264751964
  0
LINE
  5
3C5
100
AcDbEntity
  8
ASSI
100
AcDbLine
 62
250
  6
CONTINUOUS
 10
71.6014343754
 20
-14.7681774234
 11
71.5971419572
 21
-7.0264751964
  0
LINE
  5
3C6
100
AcDbEntity
  8
RACCORDO
100
AcDbLine
 62
250
  6
CONTINUOUS
 10
72.0988587958
 20
-11.4919492176
 11
72.0959806808
 21
-3.3759980231
  0
LINE
  5
3C7
100
AcDbEntity
  8
ASSI
100
AcDbLine
 62
250
  6
CONTINUOUS
 10
72.0988587958
 20
-11.4919492176
 11
72.0959806808
 21
-3.3759980231
  0
LINE
  5
3C8
100
AcDbEntity
  8
RACCORDO
100
AcDbLine
 62
250
  6
CONTINUOUS
 10
71.5971419572
 20
-7.0264751964
 11
71.5960882653
 21
1.453677282
  0
LINE
  5
3C9
100
AcDbEntity
  8
ASSI
100
AcDbLine
 62
250
  6
CONTINUOUS
 10
71.5971419572
 20
-7.0264751964
 11
71.5960882653
 21
1.453677282
  0
LINE
  5
3CA
100
AcDbEntity
  8
DRAFT
100
AcDbLine
 62
7
  6
CONTINUOUS
 10
72.1626980763
 20
-3.4689805518
 11
72.1626980763
 21
3.4689805518
  0
LINE
  5
3CB
100
AcDbEntity
  8
ASSI
100
AcDbLine
 62
7
  6
CONTINUOUS
 10
72.1626980763
 20
-3.4689805518
 11
72.1626980763
 21
3.4689805518
  0
LINE
  5
3CC
100
AcDbEntity
  8
RACCORDO
100
AcDbLine
 62
7
  6
CONTINUOUS
 10
72.25
 20
-44.000609173
 11
72.25
 21
-3.6
  0
LINE
  5
3CD
100
AcDbEntity
  8
ASSI
100
AcDbLine
 62
7
  6
CONTINUOUS
 10
72.25
 20
-44.000609173
 11
72.25
 21
-3.6
  0
LINE
  5
3CE
100
AcDbEntity
  8
RACCORDO
100
AcDbLine
 62
7
  6
CONTINUOUS
 10
72.25
 20
3.6
 11
72.25
 21
44.000609173
  0
LINE
  5
3CF
100
AcDbEntity
  8
ASSI
100
AcDbLine
 62
7
  6
CONTINUOUS
 10
72.25
 20
3.6
 11
72.25
 21
44.000609173
  0
LINE
  5
3D0
100
AcDbEntity
  8
RACCORDO
100
AcDbLine
 62
250
  6
CONTINUOUS
 10
72.0959806808
 20
-3.3759980231
 11
72.0972771412
 21
8.2450701213
  0
LINE
  5
3D1
100
AcDbEntity
  8
ASSI
100
AcDbLine
 62
250
  6
CONTINUOUS
 10
72.0959806808
 20
-3.3759980231
 11
72.0972771412
 21
8.2450701213
  0
LINE
  5
3D2
100
AcDbEntity
  8
RACCORDO
100
AcDbLine
 62
250
  6
CONTINUOUS
 10
71.5960882653
 20
1.453677282
 11
71.5990503099
 21
11.3035819329
  0
LINE
  5
3D3
100
AcDbEntity
  8
ASSI
100
AcDbLine
 62
250
  6
CONTINUOUS
 10
71.5960882653
 20
1.453677282
 11
71.5990503099
 21
11.3035819329
  0
LINE
  5
3D4
100
AcDbEntity
  8
RACCORDO
100
AcDbLine
 62
250
  6
CONTINUOUS
 10
72.0972771412
 20
8.2450701213
 11
72.1025386342
 21
16.37086648
  0
LINE
  5
3D5
100
AcDbEntity
  8
ASSI
100
AcDbLine
 62
250
  6
CONTINUOUS
 10
72.0972771412
 20
8.2450701213
 11
72.1025386342
 21
16.37086648
  0
LINE
  5
3D6
100
AcDbEntity
  8
RACCORDO
100
AcDbLine
 62
250
  6
CONTINUOUS
 10
71.5990503099
 20
11.3035819329
 11
71.6047784143
 21
18.2923228713
  0
LINE
  5
3D7
100
AcDbEntity
  8
ASSI
100
AcDbLine
 62
250
  6
CONTINUOUS
 10
71.5990503099
 20
11.3035819329
 11
71.6047784143
 21
18.2923228713
  0
LWPOLYLINE
  5
3D8
100
AcDbEntity
  8
RACCORDO
100
AcDbPolyline
 62
250
  6
CONTINUOUS
 90
9
 70
0
 10
71.705134492
 20
44.1327686324
 10
71.7051395646
 20
44.136879477
 10
71.7051137573
 20
44.1409894821
 10
71.7050570668
 20
44.1450987699
 10
71.7049694963
 20
44.1492072103
 10
71.7048510562
 20
44.1533144215
 10
71.70470175
 20
44.1574202748
 10
71.7045215741
 20
44.1615248935
 10
71.7017294397
 20
44.2154064276
  0
LWPOLYLINE
  5
3D9
100
AcDbEntity
  8
ASSI
100
AcDbPolyline
 62
250
  6
CONTINUOUS
 90
9
 70
0
 10
71.705134492
 20
44.1327686324
 10
71.7051395646
 20
44.136879477
 10
71.7051137573
 20
44.1409894821
 10
71.7050570668
 20
44.1450987699
 10
71.7049694963
 20
44.1492072103
 10
71.7048510562
 20
44.1533144215
 10
71.70470175
 20
44.1574202748
 10
71.7045215741
 20
44.1615248935
 10
71.7017294397
 20
44.2154064276
  0
LINE
  5
3DA
100
AcDbEntity
  8
RACCORDO
100
AcDbLine
 62
250
  6
CONTINUOUS
 10
72.1025386342
 20
16.37086648
 11
72.1115617557
 21
23.501516129
  0
LINE
  5
3DB
100
AcDbEntity
  8
ASSI
100
AcDbLine
 62
250
  6
CONTINUOUS
 10
72.1025386342
 20
16.37086648
 11
72.1115617557
 21
23.501516129
  0
LINE
  5
3DC
100
AcDbEntity
  8
RACCORDO
100
AcDbLine
 62
250
  6
CONTINUOUS
 10
71.6047784143
 20
18.2923228713
 11
71.6135087208
 21
24.4895975463
  0
LINE
  5
3DD
100
AcDbEntity
  8
ASSI
100
AcDbLine
 62
250
  6
CONTINUOUS
 10
71.6047784143
 20
18.2923228713
 11
71.6135087208
 21
24.4895975463
  0
LWPOLYLINE
  5
3DE
100
AcDbEntity
  8
RACCORDO
100
AcDbPolyline
 62
250
  6
CONTINUOUS
 90
10
 70
0
 10
72.204793953
 20
43.9554031259
 10
72.204809689
 20
43.963317595
 10
72.2047636352
 20
43.9712311586
 10
72.2046558074
 20
43.9791433311
 10
72.2044862349
 20
43.987053391
 10
72.2042549357
 20
43.9949610894
 10
72.2039618978
 20
44.0028666484
 10
72.2036071207
 20
44.0107698184
 10
72.203190634
 20
44.0186698781
 10
72.2027124597
 20
44.0265663421
  0
LWPOLYLINE
  5
3DF
100
AcDbEntity
  8
ASSI
100
AcDbPolyline
 62
250
  6
CONTINUOUS
 90
10
 70
0
 10
72.204793953
 20
43.9554031259
 10
72.204809689
 20
43.963317595
 10
72.2047636352
 20
43.9712311586
 10
72.2046558074
 20
43.9791433311
 10
72.2044862349
 20
43.987053391
 10
72.2042549357
 20
43.9949610894
 10
72.2039618978
 20
44.0028666484
 10
72.2036071207
 20
44.0107698184
 10
72.203190634
 20
44.0186698781
 10
72.2027124597
 20
44.0265663421
  0
LINE
  5
3E0
100
AcDbEntity
  8
RACCORDO
100
AcDbLine
 62
250
  6
CONTINUOUS
 10
71.6135087208
 20
24.4895975463
 11
71.6235244591
 21
29.2264440339
  0
LINE
  5
3E1
100
AcDbEntity
  8
ASSI
100
AcDbLine
 62
250
  6
CONTINUOUS
 10
71.6135087208
 20
24.4895975463
 11
71.6235244591
 21
29.2264440339
  0
LINE
  5
3E2
100
AcDbEntity
  8
RACCORDO
100
AcDbLine
 62
250
  6
CONTINUOUS
 10
72.1115617557
 20
23.501516129
 11
72.1232198726
 21
29.1907593837
  0
LINE
  5
3E3
100
AcDbEntity
  8
ASSI
100
AcDbLine
 62
250
  6
CONTINUOUS
 10
72.1115617557
 20
23.501516129
 11
72.1232198726
 21
29.1907593837
  0
LINE
  5
3E4
100
AcDbEntity
  8
RACCORDO
100
AcDbLine
 62
250
  6
CONTINUOUS
 10
71.6235244591
 20
29.2264440339
 11
71.6279615405
 21
30.8830868418
  0
LINE
  5
3E5
100
AcDbEntity
  8
ASSI
100
AcDbLine
 62
250
  6
CONTINUOUS
 10
71.6235244591
 20
29.2264440339
 11
71.6279615405
 21
30.8830868418
  0
LINE
  5
3E6
100
AcDbEntity
  8
RACCORDO
100
AcDbLine
 62
250
  6
CONTINUOUS
 10
72.1232198726
 20
29.1907593837
 11
72.1357637613
 21
33.3941998462
  0
LINE
  5
3E7
100
AcDbEntity
  8
ASSI
100
AcDbLine
 62
250
  6
CONTINUOUS
 10
72.1232198726
 20
29.1907593837
 11
72.1357637613
 21
33.3941998462
  0
LINE
  5
3E8
100
AcDbEntity
  8
RACCORDO
100
AcDbLine
 62
250
  6
CONTINUOUS
 10
72.1357637613
 20
33.3941998462
 11
72.149785747
 21
36.8056120512
  0
LINE
  5
3E9
100
AcDbEntity
  8
ASSI
100
AcDbLine
 62
250
  6
CONTINUOUS
 10
72.1357637613
 20
33.3941998462
 11
72.149785747
 21
36.8056120512
  0
LINE
  5
3EA
100
AcDbEntity
  8
RACCORDO
100
AcDbLine
 62
250
  6
CONTINUOUS
 10
72.149785747
 20
36.8056120512
 11
72.176909843
 21
41.1988454102
  0
LINE
  5
3EB
100
AcDbEntity
  8
ASSI
100
AcDbLine
 62
250
  6
CONTINUOUS
 10
72.149785747
 20
36.8056120512
 11
72.176909843
 21
41.1988454102
  0
LINE
  5
3EC
100
AcDbEntity
  8
RACCORDO
100
AcDbLine
 62
250
  6
CONTINUOUS
 10
72.176909843
 20
41.1988454102
 11
72.1909210449
 21
42.7472488256
  0
LINE
  5
3ED
100
AcDbEntity
  8
ASSI
100
AcDbLine
 62
250
  6
CONTINUOUS
 10
72.176909843
 20
41.1988454102
 11
72.1909210449
 21
42.7472488256
  0
LINE
  5
3EE
100
AcDbEntity
  8
RACCORDO
100
AcDbLine
 62
250
  6
CONTINUOUS
 10
72.1909210449
 20
42.7472488256
 11
72.204793953
 21
43.9554031259
  0
LINE
  5
3EF
100
AcDbEntity
  8
ASSI
100
AcDbLine
 62
250
  6
CONTINUOUS
 10
72.1909210449
 20
42.7472488256
 11
72.204793953
 21
43.9554031259
  0
LWPOLYLINE
  5
3F0
100
AcDbEntity
  8
RACCORDO
100
AcDbPolyline
 62
250
  6
CONTINUOUS
 90
9
 70
0
 10
71.7045215741
 20
-44.1615248935
 10
71.70470175
 20
-44.1574202748
 10
71.7048510562
 20
-44.1533144215
 10
71.7049694963
 20
-44.1492072103
 10
71.7050570668
 20
-44.1450987699
 10
71.7051137573
 20
-44.1409894821
 10
71.7051395646
 20
-44.136879477
 10
71.705134492
 20
-44.1327686324
 10
71.6905322713
 20
-42.818323935
  0
LWPOLYLINE
  5
3F1
100
AcDbEntity
  8
ASSI
100
AcDbPolyline
 62
250
  6
CONTINUOUS
 90
9
 70
0
 10
71.7045215741
 20
-44.1615248935
 10
71.70470175
 20
-44.1574202748
 10
71.7048510562
 20
-44.1533144215
 10
71.7049694963
 20
-44.1492072103
 10
71.7050570668
 20
-44.1450987699
 10
71.7051137573
 20
-44.1409894821
 10
71.7051395646
 20
-44.136879477
 10
71.705134492
 20
-44.1327686324
 10
71.6905322713
 20
-42.818323935
  0
LWPOLYLINE
  5
3F2
100
AcDbEntity
  8
RACCORDO
100
AcDbPolyline
 62
250
  6
CONTINUOUS
 90
10
 70
0
 10
72.2027124597
 20
-44.0265663421
 10
72.203190634
 20
-44.0186698781
 10
72.2036071207
 20
-44.0107698184
 10
72.2039618978
 20
-44.0028666484
 10
72.2042549357
 20
-43.9949610894
 10
72.2044862349
 20
-43.987053391
 10
72.2046558074
 20
-43.9791433311
 10
72.2047636352
 20
-43.9712311586
 10
72.204809689
 20
-43.963317595
 10
72.204793953
 20
-43.9554031259
  0
LWPOLYLINE
  5
3F3
100
AcDbEntity
  8
ASSI
100
AcDbPolyline
 62
250
  6
CONTINUOUS
 90
10
 70
0
 10
72.2027124597
 20
-44.0265663421
 10
72.203190634
 20
-44.0186698781
 10
72.2036071207
 20
-44.0107698184
 10
72.2039618978
 20
-44.0028666484
 10
72.2042549357
 20
-43.9949610894
 10
72.2044862349
 20
-43.987053391
 10
72.2046558074
 20
-43.9791433311
 10
72.2047636352
 20
-43.9712311586
 10
72.204809689
 20
-43.963317595
 10
72.204793953
 20
-43.9554031259
  0
LWPOLYLINE
  5
3F4
100
AcDbEntity
  8
0
100
AcDbPolyline
 62
7
  6
CONTINUOUS
 90
3
 70
0
 43
0.3500000006
 10
-129.1965045776
 20
67.8692264099
 10
-128.3393575745
 20
68.7263643494
 10
-128.3393575745
 20
65.7263634338
  0
LWPOLYLINE
  5
3F5
100
AcDbEntity
  8
0
100
AcDbPolyline
 62
7
  6
CONTINUOUS
 90
3
 70
0
 43
0.3500000006
 10
-127.482219635
 20
67.8692264099
 10
-126.6250726318
 20
68.7263643494
 10
-126.6250726318
 20
65.7263634338
  0
LWPOLYLINE
  5
3F6
100
AcDbEntity
  8
0
100
AcDbPolyline
 62
7
  6
CONTINUOUS
 90
10
 70
0
 43
0.3500000006
 10
-123.6250717163
 20
65.7263634338
 10
-122.7679337769
 20
66.583510437
 10
-122.553649292
 20
67.4406483765
 10
-122.553649292
 20
68.2977953796
 10
-122.9822182617
 20
68.7263643494
 10
-123.6250717163
 20
68.7263643494
 10
-124.053640686
 20
68.2977953796
 10
-124.053640686
 20
67.4406483765
 10
-123.6250717163
 20
67.0120794067
 10
-122.696502594
 20
67.0120794067
  0
LWPOLYLINE
  5
3F7
100
AcDbEntity
  8
0
100
AcDbPolyline
 62
7
  6
CONTINUOUS
 90
10
 70
0
 43
0.3500000006
 10
-124.1600759583
 20
55.7524457703
 10
-123.3029380188
 20
56.6095927734
 10
-123.0886444702
 20
57.4667307129
 10
-123.0886444702
 20
58.3238777161
 10
-123.5172225037
 20
58.7524466858
 10
-124.1600759583
 20
58.7524466858
 10
-124.588644928
 20
58.3238777161
 10
-124.588644928
 20
57.4667307129
 10
-124.1600759583
 20
57.0381617432
 10
-123.2315068359
 20
57.0381617432
  0
LINE
  5
3F8
100
AcDbEntity
  8
RACCORDO
100
AcDbLine
 62
7
  6
CONTINUOUS
 10
-112.6545173461
 20
-44.9788897961
 11
-112.0500002002
 21
-45.0
  0
LINE
  5
3F9
100
AcDbEntity
  8
ASSI
100
AcDbLine
 62
7
  6
CONTINUOUS
 10
-112.6545173461
 20
-44.9788897961
 11
-112.0500002002
 21
-45.0
  0
LINE
  5
3FA
100
AcDbEntity
  8
RACCORDO
100
AcDbLine
 62
250
  6
CONTINUOUS
 10
-113.3445320134
 20
-43.9554031259
 11
-112.0500002002
 21
-44.000609173
  0
LINE
  5
3FB
100
AcDbEntity
  8
ASSI
100
AcDbLine
 62
250
  6
CONTINUOUS
 10
-113.3445320134
 20
-43.9554031259
 11
-112.0500002002
 21
-44.000609173
  0
LWPOLYLINE
  5
3FC
100
AcDbEntity
  8
RACCORDO
100
AcDbPolyline
 62
250
  6
CONTINUOUS
 90
25
 70
0
 10
-112.6544297738
 20
-44.9788928542
 10
-112.6974406936
 20
-44.9750678133
 10
-112.7392582911
 20
-44.9667908292
 10
-112.7798812045
 20
-44.9543019919
 10
-112.8192858078
 20
-44.9379055575
 10
-112.8574983826
 20
-44.9178353864
 10
-112.8945896187
 20
-44.8941342631
 10
-112.930645777
 20
-44.8668937234
 10
-112.9655781364
 20
-44.8363577009
 10
-112.9991910036
 20
-44.80269827
 10
-113.0314920301
 20
-44.7660730304
 10
-113.0624759615
 20
-44.7267089583
 10
-113.0919295748
 20
-44.6849013631
 10
-113.1197245356
 20
-44.6410837011
 10
-113.1460000019
 20
-44.5952922565
 10
-113.1709397171
 20
-44.5471613102
 10
-113.1946176777
 20
-44.4967482013
 10
-113.2169595093
 20
-44.4442968067
 10
-113.237917605
 20
-44.3896161171
 10
-113.2575504816
 20
-44.3326280688
 10
-113.2757958762
 20
-44.2737179864
 10
-113.2924255127
 20
-44.2133999054
 10
-113.3073671868
 20
-44.1520028103
 10
-113.320701719
 20
-44.0896464636
 10
-113.3324342859
 20
-44.0265663421
  0
LWPOLYLINE
  5
3FD
100
AcDbEntity
  8
ASSI
100
AcDbPolyline
 62
250
  6
CONTINUOUS
 90
25
 70
0
 10
-112.6544297738
 20
-44.9788928542
 10
-112.6974406936
 20
-44.9750678133
 10
-112.7392582911
 20
-44.9667908292
 10
-112.7798812045
 20
-44.9543019919
 10
-112.8192858078
 20
-44.9379055575
 10
-112.8574983826
 20
-44.9178353864
 10
-112.8945896187
 20
-44.8941342631
 10
-112.930645777
 20
-44.8668937234
 10
-112.9655781364
 20
-44.8363577009
 10
-112.9991910036
 20
-44.80269827
 10
-113.0314920301
 20
-44.7660730304
 10
-113.0624759615
 20
-44.7267089583
 10
-113.0919295748
 20
-44.6849013631
 10
-113.1197245356
 20
-44.6410837011
 10
-113.1460000019
 20
-44.5952922565
 10
-113.1709397171
 20
-44.5471613102
 10
-113.1946176777
 20
-44.4967482013
 10
-113.2169595093
 20
-44.4442968067
 10
-113.237917605
 20
-44.3896161171
 10
-113.2575504816
 20
-44.3326280688
 10
-113.2757958762
 20
-44.2737179864
 10
-113.2924255127
 20
-44.2133999054
 10
-113.3073671868
 20
-44.1520028103
 10
-113.320701719
 20
-44.0896464636
 10
-113.3324342859
 20
-44.0265663421
  0
LWPOLYLINE
  5
3FE
100
AcDbEntity
  8
RACCORDO
100
AcDbPolyline
 62
250
  6
CONTINUOUS
 90
14
 70
0
 10
-113.7379255526
 20
-44.1606698754
 10
-113.7197049548
 20
-44.1560262822
 10
-113.6986250448
 20
-44.1502218803
 10
-113.674834314
 20
-44.1432975572
 10
-113.6485003497
 20
-44.1353020892
 10
-113.6198086539
 20
-44.1262917983
 10
-113.5889613374
 20
-44.1163301548
 10
-113.5561756954
 20
-44.1054873308
 10
-113.5216826772
 20
-44.0938397056
 10
-113.4857252592
 20
-44.0814693275
 10
-113.4485567334
 20
-44.0684633363
 10
-113.4104389232
 20
-44.054913349
 10
-113.3716403388
 20
-44.0409148147
 10
-113.3324342859
 20
-44.0265663421
  0
LWPOLYLINE
  5
3FF
100
AcDbEntity
  8
ASSI
100
AcDbPolyline
 62
250
  6
CONTINUOUS
 90
14
 70
0
 10
-113.7379255526
 20
-44.1606698754
 10
-113.7197049548
 20
-44.1560262822
 10
-113.6986250448
 20
-44.1502218803
 10
-113.674834314
 20
-44.1432975572
 10
-113.6485003497
 20
-44.1353020892
 10
-113.6198086539
 20
-44.1262917983
 10
-113.5889613374
 20
-44.1163301548
 10
-113.5561756954
 20
-44.1054873308
 10
-113.5216826772
 20
-44.0938397056
 10
-113.4857252592
 20
-44.0814693275
 10
-113.4485567334
 20
-44.0684633363
 10
-113.4104389232
 20
-44.054913349
 10
-113.3716403388
 20
-44.0409148147
 10
-113.3324342859
 20
-44.0265663421
  0
LINE
  5
400
100
AcDbEntity
  8
RACCORDO
100
AcDbLine
 62
250
  6
CONTINUOUS
 10
-113.7531584884
 20
-44.1641199494
 11
-113.7379255526
 21
-44.1606698754
  0
LINE
  5
401
100
AcDbEntity
  8
ASSI
100
AcDbLine
 62
250
  6
CONTINUOUS
 10
-113.7531584884
 20
-44.1641199494
 11
-113.7379255526
 21
-44.1606698754
  0
LWPOLYLINE
  5
402
100
AcDbEntity
  8
RACCORDO
100
AcDbPolyline
 62
250
  6
CONTINUOUS
 90
5
 70
0
 10
-113.7823980092
 20
44.1656282746
 10
-113.7799680563
 20
44.1671087186
 10
-113.7742543493
 20
44.1673503372
 10
-113.7652971179
 20
44.1663514274
 10
-113.7531594389
 20
44.1641190272
  0
LWPOLYLINE
  5
403
100
AcDbEntity
  8
ASSI
100
AcDbPolyline
 62
250
  6
CONTINUOUS
 90
5
 70
0
 10
-113.7823980092
 20
44.1656282746
 10
-113.7799680563
 20
44.1671087186
 10
-113.7742543493
 20
44.1673503372
 10
-113.7652971179
 20
44.1663514274
 10
-113.7531594389
 20
44.1641190272
  0
LWPOLYLINE
  5
404
100
AcDbEntity
  8
RACCORDO
100
AcDbPolyline
 62
250
  6
CONTINUOUS
 90
5
 70
0
 10
-113.7823980092
 20
-44.1656282748
 10
-113.7799678927
 20
-44.1671090295
 10
-113.7742539589
 20
-44.1673509062
 10
-113.765296458
 20
-44.1663522011
 10
-113.7531584884
 20
-44.1641199494
  0
LWPOLYLINE
  5
405
100
AcDbEntity
  8
ASSI
100
AcDbPolyline
 62
250
  6
CONTINUOUS
 90
5
 70
0
 10
-113.7823980092
 20
-44.1656282748
 10
-113.7799678927
 20
-44.1671090295
 10
-113.7742539589
 20
-44.1673509062
 10
-113.765296458
 20
-44.1663522011
 10
-113.7531584884
 20
-44.1641199494
  0
LWPOLYLINE
  5
406
100
AcDbEntity
  8
0
100
AcDbPolyline
 62
7
  6
CONTINUOUS
 90
3
 70
0
 43
0.3500000006
 10
-125.0536409912
 20
66.0120791016
 10
-125.1250721741
 20
65.7977946167
 10
-125.2679345398
 20
65.512078949
  0
LWPOLYLINE
  5
407
100
AcDbEntity
  8
0
100
AcDbPolyline
 62
7
  6
CONTINUOUS
 90
3
 70
0
 43
0.3500000006
 10
-125.5886452332
 20
56.038161438
 10
-125.660076416
 20
55.8238769531
 10
-125.8029387817
 20
55.5381612854
  0
LINE
  5
408
100
AcDbEntity
  8
RACCORDO
100
AcDbLine
 62
7
  6
CONTINUOUS
 10
-107.0250122705
 20
-26.8337829892
 11
-105.1987982747
 21
-26.3501367414
  0
LINE
  5
409
100
AcDbEntity
  8
RACCORDO
100
AcDbLine
 62
250
  6
CONTINUOUS
 10
-106.8222982487
 20
-26.6250583679
 11
-105.6472232098
 21
-26.3138568139
  0
LINE
  5
40A
100
AcDbEntity
  8
RACCORDO
100
AcDbLine
 62
7
  6
CONTINUOUS
 10
-105.208559086
 20
-26.3106750548
 11
-105.2174657249
 21
-26.3116065884
  0
LWPOLYLINE
  5
40B
100
AcDbEntity
  8
RACCORDO
100
AcDbPolyline
 62
7
  6
CONTINUOUS
 90
4
 70
0
 10
-107.0757803002
 20
-26.8404353488
 10
-107.0626243329
 20
-26.839978567
 10
-107.043665432
 20
-26.8377795118
 10
-107.0250049904
 20
-26.8337810611
  0
LWPOLYLINE
  5
40C
100
AcDbEntity
  8
RACCORDO
100
AcDbPolyline
 62
250
  6
CONTINUOUS
 90
19
 70
0
 10
-105.2489530075
 20
-26.2531936162
 10
-105.2316002524
 20
-26.2525957911
 10
-105.2143817289
 20
-26.2509347613
 10
-105.1974275998
 20
-26.2482222136
 10
-105.180864733
 20
-26.2444774147
 10
-105.1648202484
 20
-26.2397280491
 10
-105.1494200357
 20
-26.2340109166
 10
-105.1347819256
 20
-26.2273699363
 10
-105.1210151094
 20
-26.2198548312
 10
-105.1082235016
 20
-26.2115223005
 10
-105.0965036788
 20
-26.2024351546
 10
-105.0859445588
 20
-26.1926622276
 10
-105.076626382
 20
-26.1822778124
 10
-105.0686196775
 20
-26.1713607152
 10
-105.0619846859
 20
-26.1599933148
 10
-105.0567713675
 20
-26.148261307
 10
-105.0530191183
 20
-26.1362533054
 10
-105.0507563592
 20
-26.1240602028
 10
-105.0500002002
 20
-26.1117741985
  0
LWPOLYLINE
  5
40D
100
AcDbEntity
  8
RACCORDO
100
AcDbPolyline
 62
250
  6
CONTINUOUS
 90
19
 70
0
 10
-105.2489530075
 20
-26.0595607844
 10
-105.2315818355
 20
-26.0589617556
 10
-105.2143453329
 20
-26.0572972693
 10
-105.1973740751
 20
-26.0545790649
 10
-105.180795489
 20
-26.0508265354
 10
-105.1647369138
 20
-26.0460674626
 10
-105.1493241692
 20
-26.0403386187
 10
-105.1346753739
 20
-26.0336839659
 10
-105.1209002493
 20
-26.0261534093
 10
-105.1081030445
 20
-26.01780379
 10
-105.0963794181
 20
-26.0086970272
 10
-105.085820197
 20
-25.9989031353
 10
-105.0765089264
 20
-25.9885003673
 10
-105.0685124559
 20
-25.9775644206
 10
-105.0618933408
 20
-25.9661820236
 10
-105.0567064661
 20
-25.9544561869
 10
-105.0529849549
 20
-25.9424826187
 10
-105.0507464984
 20
-25.9303471499
 10
-105.0500002002
 20
-25.9181413667
  0
LINE
  5
40E
100
AcDbEntity
  8
RACCORDO
100
AcDbLine
 62
7
  6
CONTINUOUS
 10
-105.2174657102
 20
-26.3116066294
 11
-112.0500002002
 21
-26.3473819822
  0
LINE
  5
40F
100
AcDbEntity
  8
RACCORDO
100
AcDbLine
 62
250
  6
CONTINUOUS
 10
-105.2489530075
 20
-26.2531936162
 11
-112.0500002002
 21
-26.2888041414
  0
LINE
  5
410
100
AcDbEntity
  8
DRAFT
100
AcDbLine
 62
7
  6
CONTINUOUS
 10
-112.0500002002
 20
-26.8491273345
 11
-107.0757797056
 21
-26.8404456731
  0
LINE
  5
411
100
AcDbEntity
  8
RACCORDO
100
AcDbLine
 62
250
  6
CONTINUOUS
 10
-112.0500002002
 20
-26.6274198511
 11
-106.8222982487
 21
-26.6250583679
  0
LINE
  5
412
100
AcDbEntity
  8
RACCORDO
100
AcDbLine
 62
7
  6
CONTINUOUS
 10
-105.6702731005
 20
-26.475
 11
-105.0500002002
 21
-26.475
  0
LINE
  5
413
100
AcDbEntity
  8
RACCORDO
100
AcDbLine
 62
250
  6
CONTINUOUS
 10
-105.0500002002
 20
-26.275
 11
-105.088835204
 21
-26.275
  0
LINE
  5
414
100
AcDbEntity
  8
RACCORDO
100
AcDbLine
 62
250
  6
CONTINUOUS
 10
-105.0500002002
 20
-25.9181413667
 11
-105.2430203009
 21
-25.9181413667
  0
LINE
  5
415
100
AcDbEntity
  8
RACCORDO
100
AcDbLine
 62
250
  6
CONTINUOUS
 10
-105.0500002002
 20
-25.5809975124
 11
-105.2430203009
 21
-25.5809975124
  0
LINE
  5
416
100
AcDbEntity
  8
RACCORDO
100
AcDbLine
 62
250
  6
CONTINUOUS
 10
-107.092895922
 20
-25.4
 11
-112.0500002002
 21
-25.4
  0
LINE
  5
417
100
AcDbEntity
  8
RACCORDO
100
AcDbLine
 62
7
  6
CONTINUOUS
 10
-107.0998758214
 20
-25.2
 11
-112.0500002002
 21
-25.2
  0
LINE
  5
418
100
AcDbEntity
  8
0
100
AcDbLine
 62
7
  6
CONTINUOUS
 10
-107.4000002002
 20
-25.05
 11
-107.6000002002
 21
-25.05
  0
LINE
  5
419
100
AcDbEntity
  8
0
100
AcDbLine
 62
7
  6
CONTINUOUS
 10
-107.9000002002
 20
-25.05
 11
-108.1000002002
 21
-25.05
  0
LINE
  5
41A
100
AcDbEntity
  8
0
100
AcDbLine
 62
7
  6
CONTINUOUS
 10
-108.4000002002
 20
-25.05
 11
-108.6000002002
 21
-25.05
  0
LINE
  5
41B
100
AcDbEntity
  8
0
100
AcDbLine
 62
7
  6
CONTINUOUS
 10
-108.9000002002
 20
-25.05
 11
-109.1000002002
 21
-25.05
  0
LINE
  5
41C
100
AcDbEntity
  8
0
100
AcDbLine
 62
7
  6
CONTINUOUS
 10
-109.4000002002
 20
-25.05
 11
-109.6000002002
 21
-25.05
  0
LINE
  5
41D
100
AcDbEntity
  8
0
100
AcDbLine
 62
7
  6
CONTINUOUS
 10
-109.9000002002
 20
-25.05
 11
-110.1000002002
 21
-25.05
  0
LINE
  5
41E
100
AcDbEntity
  8
0
100
AcDbLine
 62
7
  6
CONTINUOUS
 10
-110.4000002002
 20
-25.05
 11
-110.6000002002
 21
-25.05
  0
LINE
  5
41F
100
AcDbEntity
  8
0
100
AcDbLine
 62
7
  6
CONTINUOUS
 10
-110.9000002002
 20
-25.05
 11
-111.1000002002
 21
-25.05
  0
LINE
  5
420
100
AcDbEntity
  8
0
100
AcDbLine
 62
7
  6
CONTINUOUS
 10
-111.4000002002
 20
-25.05
 11
-111.6000002002
 21
-25.05
  0
LINE
  5
421
100
AcDbEntity
  8
RACCORDO
100
AcDbLine
 62
250
  6
CONTINUOUS
 10
-105.2489530075
 20
-26.0595607844
 11
-112.0500002002
 21
-25.8724238709
  0
LINE
  5
422
100
AcDbEntity
  8
RACCORDO
100
AcDbLine
 62
250
  6
CONTINUOUS
 10
-105.2430203009
 20
-25.9181413667
 11
-112.0500002002
 21
-25.7308412095
  0
LWPOLYLINE
  5
423
100
AcDbEntity
  8
RACCORDO
100
AcDbPolyline
 62
250
  6
CONTINUOUS
 90
10
 70
0
 10
-107.0132929468
 20
-25.4039702478
 10
-107.0221167419
 20
-25.40313729
 10
-107.0309461386
 20
-25.4024022691
 10
-107.0397811369
 20
-25.4017651852
 10
-107.0486222124
 20
-25.4012260144
 10
-107.0574688895
 20
-25.4007847807
 10
-107.0663197417
 20
-25.4004415552
 10
-107.0751742934
 20
-25.4001963618
 10
-107.0840330202
 20
-25.4000491768
 10
-107.092895922
 20
-25.4
  0
LINE
  5
424
100
AcDbEntity
  8
RACCORDO
100
AcDbLine
 62
250
  6
CONTINUOUS
 10
-105.2430203009
 20
-25.5809975124
 11
-107.0132929468
 21
-25.4039702478
  0
LINE
  5
425
100
AcDbEntity
  8
RACCORDO
100
AcDbLine
 62
7
  6
CONTINUOUS
 10
-105.2300994564
 20
-25.3819900744
 11
-107.0003721023
 21
-25.2049628098
  0
LINE
  5
426
100
AcDbEntity
  8
RACCORDO
100
AcDbLine
 62
250
  6
CONTINUOUS
 10
-105.1999835062
 20
-26.349797771
 11
-105.1987982747
 21
-26.3501367414
  0
LWPOLYLINE
  5
427
100
AcDbEntity
  8
0
100
AcDbPolyline
 62
7
  6
CONTINUOUS
 90
2
 70
0
 43
0.3500000006
 10
-127.6600770264
 20
55.7524457703
 10
-127.6600770264
 20
57.252446228
  0
LINE
  5
428
100
AcDbEntity
  8
RACCORDO
100
AcDbLine
 62
7
  6
CONTINUOUS
 10
-113.8282100263
 20
44.0409813982
 11
-113.7823980092
 21
44.1656282748
  0
LINE
  5
429
100
AcDbEntity
  8
ASSI
100
AcDbLine
 62
7
  6
CONTINUOUS
 10
-113.8282100263
 20
44.0409813982
 11
-113.7823980092
 21
44.1656282748
  0
LINE
  5
42A
100
AcDbEntity
  8
0
100
AcDbLine
 62
7
  6
CONTINUOUS
 10
-111.4000002002
 20
25.05
 11
-111.2500002002
 21
25.2
  0
LINE
  5
42B
100
AcDbEntity
  8
0
100
AcDbLine
 62
7
  6
CONTINUOUS
 10
-110.9000002002
 20
25.05
 11
-110.7500002002
 21
25.2
  0
LINE
  5
42C
100
AcDbEntity
  8
0
100
AcDbLine
 62
7
  6
CONTINUOUS
 10
-110.4000002002
 20
25.05
 11
-110.2500002002
 21
25.2
  0
LINE
  5
42D
100
AcDbEntity
  8
0
100
AcDbLine
 62
7
  6
CONTINUOUS
 10
-109.9000002002
 20
25.05
 11
-109.7500002002
 21
25.2
  0
LINE
  5
42E
100
AcDbEntity
  8
0
100
AcDbLine
 62
7
  6
CONTINUOUS
 10
-109.4000002002
 20
25.05
 11
-109.2500002002
 21
25.2
  0
LINE
  5
42F
100
AcDbEntity
  8
0
100
AcDbLine
 62
7
  6
CONTINUOUS
 10
-108.9000002002
 20
25.05
 11
-108.7500002002
 21
25.2
  0
LINE
  5
430
100
AcDbEntity
  8
0
100
AcDbLine
 62
7
  6
CONTINUOUS
 10
-108.4000002002
 20
25.05
 11
-108.2500002002
 21
25.2
  0
LINE
  5
431
100
AcDbEntity
  8
0
100
AcDbLine
 62
7
  6
CONTINUOUS
 10
-107.9000002002
 20
25.05
 11
-107.7500002002
 21
25.2
  0
LINE
  5
432
100
AcDbEntity
  8
0
100
AcDbLine
 62
7
  6
CONTINUOUS
 10
-111.2500002002
 20
-25.2
 11
-111.4000002002
 21
-25.05
  0
LINE
  5
433
100
AcDbEntity
  8
0
100
AcDbLine
 62
7
  6
CONTINUOUS
 10
-110.7500002002
 20
-25.2
 11
-110.9000002002
 21
-25.05
  0
LINE
  5
434
100
AcDbEntity
  8
0
100
AcDbLine
 62
7
  6
CONTINUOUS
 10
-110.2500002002
 20
-25.2
 11
-110.4000002002
 21
-25.05
  0
LINE
  5
435
100
AcDbEntity
  8
0
100
AcDbLine
 62
7
  6
CONTINUOUS
 10
-109.7500002002
 20
-25.2
 11
-109.9000002002
 21
-25.05
  0
LINE
  5
436
100
AcDbEntity
  8
0
100
AcDbLine
 62
7
  6
CONTINUOUS
 10
-109.2500002002
 20
-25.2
 11
-109.4000002002
 21
-25.05
  0
LINE
  5
437
100
AcDbEntity
  8
0
100
AcDbLine
 62
7
  6
CONTINUOUS
 10
-108.7500002002
 20
-25.2
 11
-108.9000002002
 21
-25.05
  0
LINE
  5
438
100
AcDbEntity
  8
0
100
AcDbLine
 62
7
  6
CONTINUOUS
 10
-108.2500002002
 20
-25.2
 11
-108.4000002002
 21
-25.05
  0
LINE
  5
439
100
AcDbEntity
  8
0
100
AcDbLine
 62
7
  6
CONTINUOUS
 10
-107.7500002002
 20
-25.2
 11
-107.9000002002
 21
-25.05
  0
LINE
  5
43A
100
AcDbEntity
  8
RACCORDO
100
AcDbLine
 62
7
  6
CONTINUOUS
 10
-113.8283238547
 20
-44.0406677924
 11
-113.7823980092
 21
-44.1656282748
  0
LINE
  5
43B
100
AcDbEntity
  8
ASSI
100
AcDbLine
 62
7
  6
CONTINUOUS
 10
-113.8283238547
 20
-44.0406677924
 11
-113.7823980092
 21
-44.1656282748
  0
LWPOLYLINE
  5
43C
100
AcDbEntity
  8
RACCORDO
100
AcDbPolyline
 62
7
  6
CONTINUOUS
 90
21
 70
0
 10
-113.7961058377
 20
-44.1286569522
 10
-113.8929844592
 20
-43.8593104219
 10
-113.9844759396
 20
-43.5912993659
 10
-114.0704617634
 20
-43.3264879203
 10
-114.1502812724
 20
-43.0687328783
 10
-114.2244480025
 20
-42.818323935
 10
-114.2946424302
 20
-42.5711174528
 10
-114.3613240902
 20
-42.3266134386
 10
-114.4239900869
 20
-42.0878294033
 10
-114.4828906057
 20
-41.8550729772
 10
-114.5375212783
 20
-41.6316703093
 10
-114.5883965979
 20
-41.4168523392
 10
-114.637289831
 20
-41.2040122245
 10
-114.6844015333
 20
-40.9927821416
 10
-114.7295355128
 20
-40.7845596646
 10
-114.7738493366
 20
-40.5743463988
 10
-114.8178078137
 20
-40.3599697558
 10
-114.8609360595
 20
-40.1437845838
 10
-114.9029755489
 20
-39.9272808423
 10
-114.9438563451
 20
-39.7110892963
 10
-114.9836529157
 20
-39.4950950386
  0
LWPOLYLINE
  5
43D
100
AcDbEntity
  8
ASSI
100
AcDbPolyline
 62
7
  6
CONTINUOUS
 90
21
 70
0
 10
-113.7961058377
 20
-44.1286569522
 10
-113.8929844592
 20
-43.8593104219
 10
-113.9844759396
 20
-43.5912993659
 10
-114.0704617634
 20
-43.3264879203
 10
-114.1502812724
 20
-43.0687328783
 10
-114.2244480025
 20
-42.818323935
 10
-114.2946424302
 20
-42.5711174528
 10
-114.3613240902
 20
-42.3266134386
 10
-114.4239900869
 20
-42.0878294033
 10
-114.4828906057
 20
-41.8550729772
 10
-114.5375212783
 20
-41.6316703093
 10
-114.5883965979
 20
-41.4168523392
 10
-114.637289831
 20
-41.2040122245
 10
-114.6844015333
 20
-40.9927821416
 10
-114.7295355128
 20
-40.7845596646
 10
-114.7738493366
 20
-40.5743463988
 10
-114.8178078137
 20
-40.3599697558
 10
-114.8609360595
 20
-40.1437845838
 10
-114.9029755489
 20
-39.9272808423
 10
-114.9438563451
 20
-39.7110892963
 10
-114.9836529157
 20
-39.4950950386
  0
LWPOLYLINE
  5
43E
100
AcDbEntity
  8
RACCORDO
100
AcDbPolyline
 62
250
  6
CONTINUOUS
 90
20
 70
0
 10
-113.3445320134
 20
-43.9554031259
 10
-113.4387363639
 20
-43.6907934675
 10
-113.5276489756
 20
-43.4308087929
 10
-113.6112698483
 20
-43.175449102
 10
-113.6891084731
 20
-42.9249359335
 10
-113.761655359
 20
-42.6790477488
 10
-113.8303820329
 20
-42.437119932
 10
-113.8957193483
 20
-42.1979583926
 10
-113.9572364518
 20
-41.962757221
 10
-114.0151123099
 20
-41.7344340734
 10
-114.068832198
 20
-41.5155244991
 10
-114.1189108407
 20
-41.3034929486
 10
-114.1670713784
 20
-41.0936504294
 10
-114.2135120243
 20
-40.8858410476
 10
-114.258034565
 20
-40.680220697
 10
-114.3017675015
 20
-40.4725680668
 10
-114.3451750654
 20
-40.2608492979
 10
-114.387793025
 20
-40.0470982494
 10
-114.4293571863
 20
-39.8331951874
 10
-114.4697915405
 20
-39.6194301272
  0
LWPOLYLINE
  5
43F
100
AcDbEntity
  8
ASSI
100
AcDbPolyline
 62
250
  6
CONTINUOUS
 90
20
 70
0
 10
-113.3445320134
 20
-43.9554031259
 10
-113.4387363639
 20
-43.6907934675
 10
-113.5276489756
 20
-43.4308087929
 10
-113.6112698483
 20
-43.175449102
 10
-113.6891084731
 20
-42.9249359335
 10
-113.761655359
 20
-42.6790477488
 10
-113.8303820329
 20
-42.437119932
 10
-113.8957193483
 20
-42.1979583926
 10
-113.9572364518
 20
-41.962757221
 10
-114.0151123099
 20
-41.7344340734
 10
-114.068832198
 20
-41.5155244991
 10
-114.1189108407
 20
-41.3034929486
 10
-114.1670713784
 20
-41.0936504294
 10
-114.2135120243
 20
-40.8858410476
 10
-114.258034565
 20
-40.680220697
 10
-114.3017675015
 20
-40.4725680668
 10
-114.3451750654
 20
-40.2608492979
 10
-114.387793025
 20
-40.0470982494
 10
-114.4293571863
 20
-39.8331951874
 10
-114.4697915405
 20
-39.6194301272
  0
LINE
  5
440
100
AcDbEntity
  8
RACCORDO
100
AcDbLine
 62
7
  6
CONTINUOUS
 10
-113.8927345504
 20
-43.8600052302
 11
-113.8607823327
 21
-43.9504379559
  0
LINE
  5
441
100
AcDbEntity
  8
ASSI
100
AcDbLine
 62
7
  6
CONTINUOUS
 10
-113.8927345504
 20
-43.8600052302
 11
-113.8607823327
 21
-43.9504379559
  0
LINE
  5
442
100
AcDbEntity
  8
0
100
AcDbLine
 62
7
  6
CONTINUOUS
 10
-107.4000002002
 20
25.05
 11
-107.2500002002
 21
25.2
  0
LINE
  5
443
100
AcDbEntity
  8
0
100
AcDbLine
 62
7
  6
CONTINUOUS
 10
-107.2500002002
 20
-25.2
 11
-107.4000002002
 21
-25.05
  0
LINE
  5
444
100
AcDbEntity
  8
RACCORDO
100
AcDbLine
 62
7
  6
CONTINUOUS
 10
-115.4947029929
 20
36.1420729426
 11
-115.4293795686
 21
36.6401094476
  0
LINE
  5
445
100
AcDbEntity
  8
ASSI
100
AcDbLine
 62
7
  6
CONTINUOUS
 10
-115.4947029929
 20
36.1420729426
 11
-115.4293795686
 21
36.6401094476
  0
LINE
  5
446
100
AcDbEntity
  8
RACCORDO
100
AcDbLine
 62
7
  6
CONTINUOUS
 10
-115.4293795686
 20
36.6401094476
 11
-115.3660847361
 21
37.1008327632
  0
LINE
  5
447
100
AcDbEntity
  8
ASSI
100
AcDbLine
 62
7
  6
CONTINUOUS
 10
-115.4293795686
 20
36.6401094476
 11
-115.3660847361
 21
37.1008327632
  0
LINE
  5
448
100
AcDbEntity
  8
RACCORDO
100
AcDbLine
 62
7
  6
CONTINUOUS
 10
-115.3660847361
 20
37.1008327632
 11
-115.3035642061
 21
37.5361239044
  0
LINE
  5
449
100
AcDbEntity
  8
ASSI
100
AcDbLine
 62
7
  6
CONTINUOUS
 10
-115.3660847361
 20
37.1008327632
 11
-115.3035642061
 21
37.5361239044
  0
LINE
  5
44A
100
AcDbEntity
  8
RACCORDO
100
AcDbLine
 62
250
  6
CONTINUOUS
 10
-114.8883990217
 20
37.0312563764
 11
-114.826321561
 21
37.4636367083
  0
LINE
  5
44B
100
AcDbEntity
  8
ASSI
100
AcDbLine
 62
250
  6
CONTINUOUS
 10
-114.8883990217
 20
37.0312563764
 11
-114.826321561
 21
37.4636367083
  0
LINE
  5
44C
100
AcDbEntity
  8
RACCORDO
100
AcDbLine
 62
7
  6
CONTINUOUS
 10
-115.3035642061
 20
37.5361239044
 11
-115.2398404178
 21
37.9607535012
  0
LINE
  5
44D
100
AcDbEntity
  8
ASSI
100
AcDbLine
 62
7
  6
CONTINUOUS
 10
-115.3035642061
 20
37.5361239044
 11
-115.2398404178
 21
37.9607535012
  0
LINE
  5
44E
100
AcDbEntity
  8
RACCORDO
100
AcDbLine
 62
250
  6
CONTINUOUS
 10
-114.826321561
 20
37.4636367083
 11
-114.7630748729
 21
37.8850058443
  0
LINE
  5
44F
100
AcDbEntity
  8
ASSI
100
AcDbLine
 62
250
  6
CONTINUOUS
 10
-114.826321561
 20
37.4636367083
 11
-114.7630748729
 21
37.8850058443
  0
LINE
  5
450
100
AcDbEntity
  8
RACCORDO
100
AcDbLine
 62
7
  6
CONTINUOUS
 10
-115.2398404178
 20
37.9607535012
 11
-115.1738336971
 21
38.3815150133
  0
LINE
  5
451
100
AcDbEntity
  8
ASSI
100
AcDbLine
 62
7
  6
CONTINUOUS
 10
-115.2398404178
 20
37.9607535012
 11
-115.1738336971
 21
38.3815150133
  0
LINE
  5
452
100
AcDbEntity
  8
RACCORDO
100
AcDbLine
 62
250
  6
CONTINUOUS
 10
-114.7630748729
 20
37.8850058443
 11
-114.6975963904
 21
38.3023121618
  0
LINE
  5
453
100
AcDbEntity
  8
ASSI
100
AcDbLine
 62
250
  6
CONTINUOUS
 10
-114.7630748729
 20
37.8850058443
 11
-114.6975963904
 21
38.3023121618
  0
LINE
  5
454
100
AcDbEntity
  8
RACCORDO
100
AcDbLine
 62
7
  6
CONTINUOUS
 10
-115.1738336971
 20
38.3815150133
 11
-115.103920162
 21
38.8072508019
  0
LINE
  5
455
100
AcDbEntity
  8
ASSI
100
AcDbLine
 62
7
  6
CONTINUOUS
 10
-115.1738336971
 20
38.3815150133
 11
-115.103920162
 21
38.8072508019
  0
LINE
  5
456
100
AcDbEntity
  8
RACCORDO
100
AcDbLine
 62
250
  6
CONTINUOUS
 10
-114.6975963904
 20
38.3023121618
 11
-114.628289176
 21
38.724454765
  0
LINE
  5
457
100
AcDbEntity
  8
ASSI
100
AcDbLine
 62
250
  6
CONTINUOUS
 10
-114.6975963904
 20
38.3023121618
 11
-114.628289176
 21
38.724454765
  0
LINE
  5
458
100
AcDbEntity
  8
RACCORDO
100
AcDbLine
 62
250
  6
CONTINUOUS
 10
-113.3445320134
 20
43.9554031259
 11
-113.3324342859
 21
44.0265663421
  0
LINE
  5
459
100
AcDbEntity
  8
ASSI
100
AcDbLine
 62
250
  6
CONTINUOUS
 10
-113.3445320134
 20
43.9554031259
 11
-113.3324342859
 21
44.0265663421
  0
LWPOLYLINE
  5
45A
100
AcDbEntity
  8
RACCORDO
100
AcDbPolyline
 62
7
  6
CONTINUOUS
 90
33
 70
0
 10
-115.103920162
 20
38.8072508019
 10
-115.0299751385
 20
39.2365604788
 10
-114.9914357341
 20
39.452199996
 10
-114.952125705
 20
39.6666632688
 10
-114.9121078522
 20
39.8794764506
 10
-114.8713208525
 20
40.0908406451
 10
-114.8298231893
 20
40.3003328688
 10
-114.7875354577
 20
40.5082358103
 10
-114.7445425144
 20
40.7140209004
 10
-114.7011537857
 20
40.9161767449
 10
-114.6572139607
 20
41.1154290036
 10
-114.6128924463
 20
41.3110156178
 10
-114.5689954017
 20
41.4995594217
 10
-114.5257209947
 20
41.6805534665
 10
-114.4828980602
 20
41.8550429938
 10
-114.4407852018
 20
42.0222978281
 10
-114.3994769932
 20
42.1822998217
 10
-114.3589025656
 20
42.3356627051
 10
-114.3190722291
 20
42.4826580088
 10
-114.2800198966
 20
42.6234584075
 10
-114.2417295206
 20
42.7584042961
 10
-114.2041350443
 20
42.8879849952
 10
-114.1672576949
 20
43.0123642251
 10
-114.1310891931
 20
43.1317950253
 10
-114.0955180419
 20
43.2468461534
 10
-114.0605658617
 20
43.3576287659
 10
-114.0262203916
 20
43.4643544304
 10
-113.9923186931
 20
43.5676777899
 10
-113.9588826095
 20
43.6676612487
 10
-113.9258975232
 20
43.764472359
 10
-113.8931459271
 20
43.8588493824
 10
-113.8605577828
 20
43.9510677237
 10
-113.8282100263
 20
44.0409813982
  0
LWPOLYLINE
  5
45B
100
AcDbEntity
  8
ASSI
100
AcDbPolyline
 62
7
  6
CONTINUOUS
 90
33
 70
0
 10
-115.103920162
 20
38.8072508019
 10
-115.0299751385
 20
39.2365604788
 10
-114.9914357341
 20
39.452199996
 10
-114.952125705
 20
39.6666632688
 10
-114.9121078522
 20
39.8794764506
 10
-114.8713208525
 20
40.0908406451
 10
-114.8298231893
 20
40.3003328688
 10
-114.7875354577
 20
40.5082358103
 10
-114.7445425144
 20
40.7140209004
 10
-114.7011537857
 20
40.9161767449
 10
-114.6572139607
 20
41.1154290036
 10
-114.6128924463
 20
41.3110156178
 10
-114.5689954017
 20
41.4995594217
 10
-114.5257209947
 20
41.6805534665
 10
-114.4828980602
 20
41.8550429938
 10
-114.4407852018
 20
42.0222978281
 10
-114.3994769932
 20
42.1822998217
 10
-114.3589025656
 20
42.3356627051
 10
-114.3190722291
 20
42.4826580088
 10
-114.2800198966
 20
42.6234584075
 10
-114.2417295206
 20
42.7584042961
 10
-114.2041350443
 20
42.8879849952
 10
-114.1672576949
 20
43.0123642251
 10
-114.1310891931
 20
43.1317950253
 10
-114.0955180419
 20
43.2468461534
 10
-114.0605658617
 20
43.3576287659
 10
-114.0262203916
 20
43.4643544304
 10
-113.9923186931
 20
43.5676777899
 10
-113.9588826095
 20
43.6676612487
 10
-113.9258975232
 20
43.764472359
 10
-113.8931459271
 20
43.8588493824
 10
-113.8605577828
 20
43.9510677237
 10
-113.8282100263
 20
44.0409813982
  0
LWPOLYLINE
  5
45C
100
AcDbEntity
  8
RACCORDO
100
AcDbPolyline
 62
250
  6
CONTINUOUS
 90
34
 70
0
 10
-114.628289176
 20
38.724454765
 10
-114.5550317062
 20
39.1495273443
 10
-114.516875104
 20
39.3631546047
 10
-114.4779747674
 20
39.575401198
 10
-114.4383879989
 20
39.7858559653
 10
-114.3980574959
 20
39.9949300654
 10
-114.3570499307
 20
40.2019387459
 10
-114.3152804688
 20
40.4071915354
 10
-114.2728339445
 20
40.6103789052
 10
-114.2300315334
 20
40.8098875162
 10
-114.1867079349
 20
41.0062058426
 10
-114.1430284495
 20
41.1988454102
 10
-114.0998101536
 20
41.3847274563
 10
-114.0572328313
 20
41.5628816307
 10
-114.0151166985
 20
41.7342782838
 10
-113.9737394795
 20
41.8987497042
 10
-113.933184441
 20
42.0559645842
 10
-113.8933683164
 20
42.2062542317
 10
-113.8543190297
 20
42.3504448583
 10
-113.8160634328
 20
42.4884930908
 10
-113.7785746738
 20
42.6204423025
 10
-113.7418001216
 20
42.7472488256
 10
-113.7057559495
 20
42.8689189845
 10
-113.6704259843
 20
42.9854464548
 10
-113.6357090745
 20
43.0977685958
 10
-113.6016226912
 20
43.2058896507
 10
-113.5681493634
 20
43.3098053761
 10
-113.5351355267
 20
43.4104404017
 10
-113.5025989808
 20
43.507799307
 10
-113.470521926
 20
43.6018775124
 10
-113.4386973982
 20
43.693585908
 10
-113.4070564095
 20
43.7832281238
 10
-113.3756679479
 20
43.8705005298
 10
-113.3445320134
 20
43.9554031259
  0
LWPOLYLINE
  5
45D
100
AcDbEntity
  8
ASSI
100
AcDbPolyline
 62
250
  6
CONTINUOUS
 90
34
 70
0
 10
-114.628289176
 20
38.724454765
 10
-114.5550317062
 20
39.1495273443
 10
-114.516875104
 20
39.3631546047
 10
-114.4779747674
 20
39.575401198
 10
-114.4383879989
 20
39.7858559653
 10
-114.3980574959
 20
39.9949300654
 10
-114.3570499307
 20
40.2019387459
 10
-114.3152804688
 20
40.4071915354
 10
-114.2728339445
 20
40.6103789052
 10
-114.2300315334
 20
40.8098875162
 10
-114.1867079349
 20
41.0062058426
 10
-114.1430284495
 20
41.1988454102
 10
-114.0998101536
 20
41.3847274563
 10
-114.0572328313
 20
41.5628816307
 10
-114.0151166985
 20
41.7342782838
 10
-113.9737394795
 20
41.8987497042
 10
-113.933184441
 20
42.0559645842
 10
-113.8933683164
 20
42.2062542317
 10
-113.8543190297
 20
42.3504448583
 10
-113.8160634328
 20
42.4884930908
 10
-113.7785746738
 20
42.6204423025
 10
-113.7418001216
 20
42.7472488256
 10
-113.7057559495
 20
42.8689189845
 10
-113.6704259843
 20
42.9854464548
 10
-113.6357090745
 20
43.0977685958
 10
-113.6016226912
 20
43.2058896507
 10
-113.5681493634
 20
43.3098053761
 10
-113.5351355267
 20
43.4104404017
 10
-113.5025989808
 20
43.507799307
 10
-113.470521926
 20
43.6018775124
 10
-113.4386973982
 20
43.693585908
 10
-113.4070564095
 20
43.7832281238
 10
-113.3756679479
 20
43.8705005298
 10
-113.3445320134
 20
43.9554031259
  0
LWPOLYLINE
  5
45E
100
AcDbEntity
  8
RACCORDO
100
AcDbPolyline
 62
250
  6
CONTINUOUS
 90
25
 70
0
 10
-113.3324342859
 20
44.0265663421
 10
-113.3215113916
 20
44.085771512
 10
-113.3090792509
 20
44.1446122075
 10
-113.2951316086
 20
44.2028832802
 10
-113.2796991912
 20
44.2602659909
 10
-113.2627408419
 20
44.3166785859
 10
-113.2441404003
 20
44.3722536749
 10
-113.223838478
 20
44.4268817152
 10
-113.2018797913
 20
44.4802182454
 10
-113.1783022919
 20
44.5320200732
 10
-113.153070458
 20
44.5820731454
 10
-113.1262090113
 20
44.6301381194
 10
-113.097847832
 20
44.675943667
 10
-113.0679628836
 20
44.7192672295
 10
-113.0365725998
 20
44.7599122704
 10
-113.0038723145
 20
44.7976633323
 10
-112.9699225013
 20
44.8322586794
 10
-112.9346626676
 20
44.8636002873
 10
-112.8981045242
 20
44.8916678819
 10
-112.8601407375
 20
44.9162820769
 10
-112.8208753928
 20
44.9371479662
 10
-112.7806358368
 20
44.9540283369
 10
-112.7395331657
 20
44.9667243259
 10
-112.6974617751
 20
44.9750663734
 10
-112.6544262434
 20
44.9788929775
  0
LWPOLYLINE
  5
45F
100
AcDbEntity
  8
ASSI
100
AcDbPolyline
 62
250
  6
CONTINUOUS
 90
25
 70
0
 10
-113.3324342859
 20
44.0265663421
 10
-113.3215113916
 20
44.085771512
 10
-113.3090792509
 20
44.1446122075
 10
-113.2951316086
 20
44.2028832802
 10
-113.2796991912
 20
44.2602659909
 10
-113.2627408419
 20
44.3166785859
 10
-113.2441404003
 20
44.3722536749
 10
-113.223838478
 20
44.4268817152
 10
-113.2018797913
 20
44.4802182454
 10
-113.1783022919
 20
44.5320200732
 10
-113.153070458
 20
44.5820731454
 10
-113.1262090113
 20
44.6301381194
 10
-113.097847832
 20
44.675943667
 10
-113.0679628836
 20
44.7192672295
 10
-113.0365725998
 20
44.7599122704
 10
-113.0038723145
 20
44.7976633323
 10
-112.9699225013
 20
44.8322586794
 10
-112.9346626676
 20
44.8636002873
 10
-112.8981045242
 20
44.8916678819
 10
-112.8601407375
 20
44.9162820769
 10
-112.8208753928
 20
44.9371479662
 10
-112.7806358368
 20
44.9540283369
 10
-112.7395331657
 20
44.9667243259
 10
-112.6974617751
 20
44.9750663734
 10
-112.6544262434
 20
44.9788929775
  0
LINE
  5
460
100
AcDbEntity
  8
RACCORDO
100
AcDbLine
 62
250
  6
CONTINUOUS
 10
-114.4697915405
 20
-39.6194301272
 11
-114.5474626868
 21
-39.1924541865
  0
LINE
  5
461
100
AcDbEntity
  8
ASSI
100
AcDbLine
 62
250
  6
CONTINUOUS
 10
-114.4697915405
 20
-39.6194301272
 11
-114.5474626868
 21
-39.1924541865
  0
LINE
  5
462
100
AcDbEntity
  8
RACCORDO
100
AcDbLine
 62
7
  6
CONTINUOUS
 10
-114.9836529157
 20
-39.4950950386
 11
-115.0597536638
 21
-39.0661813721
  0
LINE
  5
463
100
AcDbEntity
  8
ASSI
100
AcDbLine
 62
7
  6
CONTINUOUS
 10
-114.9836529157
 20
-39.4950950386
 11
-115.0597536638
 21
-39.0661813721
  0
LINE
  5
464
100
AcDbEntity
  8
RACCORDO
100
AcDbLine
 62
250
  6
CONTINUOUS
 10
-114.5474626868
 20
-39.1924541865
 11
-114.6205095222
 21
-38.7705390317
  0
LINE
  5
465
100
AcDbEntity
  8
ASSI
100
AcDbLine
 62
250
  6
CONTINUOUS
 10
-114.5474626868
 20
-39.1924541865
 11
-114.6205095222
 21
-38.7705390317
  0
LINE
  5
466
100
AcDbEntity
  8
RACCORDO
100
AcDbLine
 62
250
  6
CONTINUOUS
 10
-113.3324342859
 20
-44.0265663421
 11
-113.3445320134
 21
-43.9554031259
  0
LINE
  5
467
100
AcDbEntity
  8
ASSI
100
AcDbLine
 62
250
  6
CONTINUOUS
 10
-113.3324342859
 20
-44.0265663421
 11
-113.3445320134
 21
-43.9554031259
  0
LINE
  5
468
100
AcDbEntity
  8
RACCORDO
100
AcDbLine
 62
7
  6
CONTINUOUS
 10
-115.0597536638
 20
-39.0661813721
 11
-115.1316357036
 21
-38.6408527404
  0
LINE
  5
469
100
AcDbEntity
  8
ASSI
100
AcDbLine
 62
7
  6
CONTINUOUS
 10
-115.0597536638
 20
-39.0661813721
 11
-115.1316357036
 21
-38.6408527404
  0
LINE
  5
46A
100
AcDbEntity
  8
RACCORDO
100
AcDbLine
 62
250
  6
CONTINUOUS
 10
-114.6205095222
 20
-38.7705390317
 11
-114.6901943287
 21
-38.3485343339
  0
LINE
  5
46B
100
AcDbEntity
  8
ASSI
100
AcDbLine
 62
250
  6
CONTINUOUS
 10
-114.6205095222
 20
-38.7705390317
 11
-114.6901943287
 21
-38.3485343339
  0
LINE
  5
46C
100
AcDbEntity
  8
RACCORDO
100
AcDbLine
 62
7
  6
CONTINUOUS
 10
-115.1316357036
 20
-38.6408527404
 11
-115.2003496413
 21
-38.214748462
  0
LINE
  5
46D
100
AcDbEntity
  8
ASSI
100
AcDbLine
 62
7
  6
CONTINUOUS
 10
-115.1316357036
 20
-38.6408527404
 11
-115.2003496413
 21
-38.214748462
  0
LINE
  5
46E
100
AcDbEntity
  8
RACCORDO
100
AcDbLine
 62
250
  6
CONTINUOUS
 10
-114.6901943287
 20
-38.3485343339
 11
-114.7574891617
 21
-37.921258311
  0
LINE
  5
46F
100
AcDbEntity
  8
ASSI
100
AcDbLine
 62
250
  6
CONTINUOUS
 10
-114.6901943287
 20
-38.3485343339
 11
-114.7574891617
 21
-37.921258311
  0
LINE
  5
470
100
AcDbEntity
  8
RACCORDO
100
AcDbLine
 62
7
  6
CONTINUOUS
 10
-115.2003496413
 20
-38.214748462
 11
-115.2679336981
 21
-37.7758470422
  0
LINE
  5
471
100
AcDbEntity
  8
ASSI
100
AcDbLine
 62
7
  6
CONTINUOUS
 10
-115.2003496413
 20
-38.214748462
 11
-115.2679336981
 21
-37.7758470422
  0
LINE
  5
472
100
AcDbEntity
  8
RACCORDO
100
AcDbLine
 62
250
  6
CONTINUOUS
 10
-114.7574891617
 20
-37.921258311
 11
-114.8243005049
 21
-37.4775570789
  0
LINE
  5
473
100
AcDbEntity
  8
ASSI
100
AcDbLine
 62
250
  6
CONTINUOUS
 10
-114.7574891617
 20
-37.921258311
 11
-114.8243005049
 21
-37.4775570789
  0
LINE
  5
474
100
AcDbEntity
  8
RACCORDO
100
AcDbLine
 62
7
  6
CONTINUOUS
 10
-115.2679336981
 20
-37.7758470422
 11
-115.3356345616
 21
-37.3152207282
  0
LINE
  5
475
100
AcDbEntity
  8
ASSI
100
AcDbLine
 62
7
  6
CONTINUOUS
 10
-115.2679336981
 20
-37.7758470422
 11
-115.3356345616
 21
-37.3152207282
  0
LINE
  5
476
100
AcDbEntity
  8
RACCORDO
100
AcDbLine
 62
250
  6
CONTINUOUS
 10
-114.8243005049
 20
-37.4775570789
 11
-114.8927151498
 21
-37.000407986
  0
LINE
  5
477
100
AcDbEntity
  8
ASSI
100
AcDbLine
 62
250
  6
CONTINUOUS
 10
-114.8243005049
 20
-37.4775570789
 11
-114.8927151498
 21
-37.000407986
  0
LINE
  5
478
100
AcDbEntity
  8
RACCORDO
100
AcDbLine
 62
7
  6
CONTINUOUS
 10
-115.3356345616
 20
-37.3152207282
 11
-115.4057208926
 21
-36.8147617156
  0
LINE
  5
479
100
AcDbEntity
  8
ASSI
100
AcDbLine
 62
7
  6
CONTINUOUS
 10
-115.3356345616
 20
-37.3152207282
 11
-115.4057208926
 21
-36.8147617156
  0
LWPOLYLINE
  5
47A
100
AcDbEntity
  8
RACCORDO
100
AcDbPolyline
 62
7
  6
CONTINUOUS
 90
3
 70
0
 10
-115.4057208926
 20
-36.8147617156
 10
-115.4782711733
 20
-36.2695921498
 10
-115.5154826674
 20
-35.9785896531
  0
LWPOLYLINE
  5
47B
100
AcDbEntity
  8
ASSI
100
AcDbPolyline
 62
7
  6
CONTINUOUS
 90
3
 70
0
 10
-115.4057208926
 20
-36.8147617156
 10
-115.4782711733
 20
-36.2695921498
 10
-115.5154826674
 20
-35.9785896531
  0
LINE
  5
47C
100
AcDbEntity
  8
RACCORDO
100
AcDbLine
 62
7
  6
CONTINUOUS
 10
-115.700311719
 20
-34.4057609483
 11
-115.7700427084
 21
-33.7506603734
  0
LINE
  5
47D
100
AcDbEntity
  8
ASSI
100
AcDbLine
 62
7
  6
CONTINUOUS
 10
-115.700311719
 20
-34.4057609483
 11
-115.7700427084
 21
-33.7506603734
  0
LINE
  5
47E
100
AcDbEntity
  8
RACCORDO
100
AcDbLine
 62
250
  6
CONTINUOUS
 10
-115.2207241276
 20
-34.3512505187
 11
-115.2901485134
 21
-33.6991919164
  0
LINE
  5
47F
100
AcDbEntity
  8
ASSI
100
AcDbLine
 62
250
  6
CONTINUOUS
 10
-115.2207241276
 20
-34.3512505187
 11
-115.2901485134
 21
-33.6991919164
  0
LINE
  5
480
100
AcDbEntity
  8
RACCORDO
100
AcDbLine
 62
7
  6
CONTINUOUS
 10
-115.7700427084
 20
-33.7506603734
 11
-115.8352855741
 21
-33.1028448727
  0
LINE
  5
481
100
AcDbEntity
  8
ASSI
100
AcDbLine
 62
7
  6
CONTINUOUS
 10
-115.7700427084
 20
-33.7506603734
 11
-115.8352855741
 21
-33.1028448727
  0
LINE
  5
482
100
AcDbEntity
  8
RACCORDO
100
AcDbLine
 62
250
  6
CONTINUOUS
 10
-115.2901485134
 20
-33.6991919164
 11
-115.3551160182
 21
-33.0540009861
  0
LINE
  5
483
100
AcDbEntity
  8
ASSI
100
AcDbLine
 62
250
  6
CONTINUOUS
 10
-115.2901485134
 20
-33.6991919164
 11
-115.3551160182
 21
-33.0540009861
  0
LINE
  5
484
100
AcDbEntity
  8
RACCORDO
100
AcDbLine
 62
7
  6
CONTINUOUS
 10
-115.8352855741
 20
-33.1028448727
 11
-115.896570548
 21
-32.4608202401
  0
LINE
  5
485
100
AcDbEntity
  8
ASSI
100
AcDbLine
 62
7
  6
CONTINUOUS
 10
-115.8352855741
 20
-33.1028448727
 11
-115.896570548
 21
-32.4608202401
  0
LINE
  5
486
100
AcDbEntity
  8
RACCORDO
100
AcDbLine
 62
250
  6
CONTINUOUS
 10
-115.3551160182
 20
-33.0540009861
 11
-115.4161765895
 21
-32.4147381234
  0
LINE
  5
487
100
AcDbEntity
  8
ASSI
100
AcDbLine
 62
250
  6
CONTINUOUS
 10
-115.3551160182
 20
-33.0540009861
 11
-115.4161765895
 21
-32.4147381234
  0
LINE
  5
488
100
AcDbEntity
  8
RACCORDO
100
AcDbLine
 62
7
  6
CONTINUOUS
 10
-115.896570548
 20
-32.4608202401
 11
-115.9544344077
 21
-31.822153765
  0
LINE
  5
489
100
AcDbEntity
  8
ASSI
100
AcDbLine
 62
7
  6
CONTINUOUS
 10
-115.896570548
 20
-32.4608202401
 11
-115.9544344077
 21
-31.822153765
  0
LINE
  5
48A
100
AcDbEntity
  8
RACCORDO
100
AcDbLine
 62
250
  6
CONTINUOUS
 10
-115.4161765895
 20
-32.4147381234
 11
-115.4738216442
 21
-31.77817952
  0
LINE
  5
48B
100
AcDbEntity
  8
ASSI
100
AcDbLine
 62
250
  6
CONTINUOUS
 10
-115.4161765895
 20
-32.4147381234
 11
-115.4738216442
 21
-31.77817952
  0
LINE
  5
48C
100
AcDbEntity
  8
RACCORDO
100
AcDbLine
 62
250
  6
CONTINUOUS
 10
-115.4738216442
 20
-31.77817952
 11
-115.5292213657
 21
-31.1348332176
  0
LINE
  5
48D
100
AcDbEntity
  8
ASSI
100
AcDbLine
 62
250
  6
CONTINUOUS
 10
-115.4738216442
 20
-31.77817952
 11
-115.5292213657
 21
-31.1348332176
  0
LINE
  5
48E
100
AcDbEntity
  8
RACCORDO
100
AcDbLine
 62
7
  6
CONTINUOUS
 10
-115.9544344077
 20
-31.822153765
 11
-116.0100075803
 21
-31.1763864571
  0
LINE
  5
48F
100
AcDbEntity
  8
ASSI
100
AcDbLine
 62
7
  6
CONTINUOUS
 10
-115.9544344077
 20
-31.822153765
 11
-116.0100075803
 21
-31.1763864571
  0
LINE
  5
490
100
AcDbEntity
  8
RACCORDO
100
AcDbLine
 62
7
  6
CONTINUOUS
 10
-116.0100075803
 20
-31.1763864571
 11
-116.0650556285
 21
-30.5025532959
  0
LINE
  5
491
100
AcDbEntity
  8
ASSI
100
AcDbLine
 62
7
  6
CONTINUOUS
 10
-116.0100075803
 20
-31.1763864571
 11
-116.0650556285
 21
-30.5025532959
  0
LINE
  5
492
100
AcDbEntity
  8
RACCORDO
100
AcDbLine
 62
250
  6
CONTINUOUS
 10
-115.5292213657
 20
-31.1348332176
 11
-115.5840853267
 21
-30.4629893938
  0
LINE
  5
493
100
AcDbEntity
  8
ASSI
100
AcDbLine
 62
250
  6
CONTINUOUS
 10
-115.5292213657
 20
-31.1348332176
 11
-115.5840853267
 21
-30.4629893938
  0
LINE
  5
494
100
AcDbEntity
  8
RACCORDO
100
AcDbLine
 62
7
  6
CONTINUOUS
 10
-116.0650556285
 20
-30.5025532959
 11
-116.1204518844
 21
-29.7868134624
  0
LINE
  5
495
100
AcDbEntity
  8
ASSI
100
AcDbLine
 62
7
  6
CONTINUOUS
 10
-116.0650556285
 20
-30.5025532959
 11
-116.1204518844
 21
-29.7868134624
  0
LINE
  5
496
100
AcDbEntity
  8
RACCORDO
100
AcDbLine
 62
250
  6
CONTINUOUS
 10
-115.5840853267
 20
-30.4629893938
 11
-115.6393124386
 21
-29.7492792705
  0
LINE
  5
497
100
AcDbEntity
  8
ASSI
100
AcDbLine
 62
250
  6
CONTINUOUS
 10
-115.5840853267
 20
-30.4629893938
 11
-115.6393124386
 21
-29.7492792705
  0
LINE
  5
498
100
AcDbEntity
  8
RACCORDO
100
AcDbLine
 62
7
  6
CONTINUOUS
 10
-116.1204518844
 20
-29.7868134624
 11
-116.1776164634
 21
-29.004513313
  0
LINE
  5
499
100
AcDbEntity
  8
ASSI
100
AcDbLine
 62
7
  6
CONTINUOUS
 10
-116.1204518844
 20
-29.7868134624
 11
-116.1776164634
 21
-29.004513313
  0
LINE
  5
49A
100
AcDbEntity
  8
RACCORDO
100
AcDbLine
 62
250
  6
CONTINUOUS
 10
-115.6393124386
 20
-29.7492792705
 11
-115.6963321086
 21
-28.9693321242
  0
LINE
  5
49B
100
AcDbEntity
  8
ASSI
100
AcDbLine
 62
250
  6
CONTINUOUS
 10
-115.6393124386
 20
-29.7492792705
 11
-115.6963321086
 21
-28.9693321242
  0
LINE
  5
49C
100
AcDbEntity
  8
RACCORDO
100
AcDbLine
 62
7
  6
CONTINUOUS
 10
-116.1776164634
 20
-29.004513313
 11
-116.2359397733
 21
-28.1553764511
  0
LINE
  5
49D
100
AcDbEntity
  8
ASSI
100
AcDbLine
 62
7
  6
CONTINUOUS
 10
-116.1776164634
 20
-29.004513313
 11
-116.2359397733
 21
-28.1553764511
  0
LINE
  5
49E
100
AcDbEntity
  8
RACCORDO
100
AcDbLine
 62
250
  6
CONTINUOUS
 10
-115.6963321086
 20
-28.9693321242
 11
-115.754467645
 21
-28.1218190367
  0
LINE
  5
49F
100
AcDbEntity
  8
ASSI
100
AcDbLine
 62
250
  6
CONTINUOUS
 10
-115.6963321086
 20
-28.9693321242
 11
-115.754467645
 21
-28.1218190367
  0
LINE
  5
4A0
100
AcDbEntity
  8
RACCORDO
100
AcDbLine
 62
250
  6
CONTINUOUS
 10
-115.754467645
 20
-28.1218190367
 11
-115.8130113763
 21
-27.2118670241
  0
LINE
  5
4A1
100
AcDbEntity
  8
ASSI
100
AcDbLine
 62
250
  6
CONTINUOUS
 10
-115.754467645
 20
-28.1218190367
 11
-115.8130113763
 21
-27.2118670241
  0
LINE
  5
4A2
100
AcDbEntity
  8
RACCORDO
100
AcDbLine
 62
7
  6
CONTINUOUS
 10
-116.2359397733
 20
-28.1553764511
 11
-116.294599854
 21
-27.2428645883
  0
LINE
  5
4A3
100
AcDbEntity
  8
ASSI
100
AcDbLine
 62
7
  6
CONTINUOUS
 10
-116.2359397733
 20
-28.1553764511
 11
-116.294599854
 21
-27.2428645883
  0
LINE
  5
4A4
100
AcDbEntity
  8
RACCORDO
100
AcDbLine
 62
7
  6
CONTINUOUS
 10
-116.294599854
 20
-27.2428645883
 11
-116.3518730596
 21
-26.2875945388
  0
LINE
  5
4A5
100
AcDbEntity
  8
ASSI
100
AcDbLine
 62
7
  6
CONTINUOUS
 10
-116.294599854
 20
-27.2428645883
 11
-116.3518730596
 21
-26.2875945388
  0
LINE
  5
4A6
100
AcDbEntity
  8
RACCORDO
100
AcDbLine
 62
250
  6
CONTINUOUS
 10
-115.8130113763
 20
-27.2118670241
 11
-115.8701379154
 21
-26.2583953578
  0
LINE
  5
4A7
100
AcDbEntity
  8
ASSI
100
AcDbLine
 62
250
  6
CONTINUOUS
 10
-115.8130113763
 20
-27.2118670241
 11
-115.8701379154
 21
-26.2583953578
  0
LINE
  5
4A8
100
AcDbEntity
  8
RACCORDO
100
AcDbLine
 62
7
  6
CONTINUOUS
 10
-116.3518730596
 20
-26.2875945388
 11
-116.4060268602
 21
-25.3173307328
  0
LINE
  5
4A9
100
AcDbEntity
  8
ASSI
100
AcDbLine
 62
7
  6
CONTINUOUS
 10
-116.3518730596
 20
-26.2875945388
 11
-116.4060268602
 21
-25.3173307328
  0
LINE
  5
4AA
100
AcDbEntity
  8
RACCORDO
100
AcDbLine
 62
250
  6
CONTINUOUS
 10
-115.8701379154
 20
-26.2583953578
 11
-115.924197166
 21
-25.2904493643
  0
LINE
  5
4AB
100
AcDbEntity
  8
ASSI
100
AcDbLine
 62
250
  6
CONTINUOUS
 10
-115.8701379154
 20
-26.2583953578
 11
-115.924197166
 21
-25.2904493643
  0
LINE
  5
4AC
100
AcDbEntity
  8
RACCORDO
100
AcDbLine
 62
7
  6
CONTINUOUS
 10
-116.4060268602
 20
-25.3173307328
 11
-116.4564841278
 21
-24.345697136
  0
LINE
  5
4AD
100
AcDbEntity
  8
ASSI
100
AcDbLine
 62
7
  6
CONTINUOUS
 10
-116.4060268602
 20
-25.3173307328
 11
-116.4564841278
 21
-24.345697136
  0
LINE
  5
4AE
100
AcDbEntity
  8
RACCORDO
100
AcDbLine
 62
250
  6
CONTINUOUS
 10
-115.924197166
 20
-25.2904493643
 11
-115.9745596382
 21
-24.320689729
  0
LINE
  5
4AF
100
AcDbEntity
  8
ASSI
100
AcDbLine
 62
250
  6
CONTINUOUS
 10
-115.924197166
 20
-25.2904493643
 11
-115.9745596382
 21
-24.320689729
  0
LINE
  5
4B0
100
AcDbEntity
  8
RACCORDO
100
AcDbLine
 62
7
  6
CONTINUOUS
 10
-116.4564841278
 20
-24.345697136
 11
-116.5028337652
 21
-23.386669547
  0
LINE
  5
4B1
100
AcDbEntity
  8
ASSI
100
AcDbLine
 62
7
  6
CONTINUOUS
 10
-116.4564841278
 20
-24.345697136
 11
-116.5028337652
 21
-23.386669547
  0
LINE
  5
4B2
100
AcDbEntity
  8
RACCORDO
100
AcDbLine
 62
250
  6
CONTINUOUS
 10
-115.9745596382
 20
-24.320689729
 11
-116.0208242527
 21
-23.3633515646
  0
LINE
  5
4B3
100
AcDbEntity
  8
ASSI
100
AcDbLine
 62
250
  6
CONTINUOUS
 10
-115.9745596382
 20
-24.320689729
 11
-116.0208242527
 21
-23.3633515646
  0
LINE
  5
4B4
100
AcDbEntity
  8
RACCORDO
100
AcDbLine
 62
7
  6
CONTINUOUS
 10
-116.5028337652
 20
-23.386669547
 11
-116.5457591696
 21
-22.4325885799
  0
LINE
  5
4B5
100
AcDbEntity
  8
ASSI
100
AcDbLine
 62
7
  6
CONTINUOUS
 10
-116.5028337652
 20
-23.386669547
 11
-116.5457591696
 21
-22.4325885799
  0
LINE
  5
4B6
100
AcDbEntity
  8
RACCORDO
100
AcDbLine
 62
250
  6
CONTINUOUS
 10
-116.0208242527
 20
-23.3633515646
 11
-116.0636890064
 21
-22.4110755227
  0
LINE
  5
4B7
100
AcDbEntity
  8
ASSI
100
AcDbLine
 62
250
  6
CONTINUOUS
 10
-116.0208242527
 20
-23.3633515646
 11
-116.0636890064
 21
-22.4110755227
  0
LINE
  5
4B8
100
AcDbEntity
  8
RACCORDO
100
AcDbLine
 62
7
  6
CONTINUOUS
 10
-116.5457591696
 20
-22.4325885799
 11
-116.5856354128
 21
-21.4801730997
  0
LINE
  5
4B9
100
AcDbEntity
  8
ASSI
100
AcDbLine
 62
7
  6
CONTINUOUS
 10
-116.5457591696
 20
-22.4325885799
 11
-116.5856354128
 21
-21.4801730997
  0
LINE
  5
4BA
100
AcDbEntity
  8
RACCORDO
100
AcDbLine
 62
250
  6
CONTINUOUS
 10
-116.0636890064
 20
-22.4110755227
 11
-116.1034921236
 21
-21.4600038961
  0
LINE
  5
4BB
100
AcDbEntity
  8
ASSI
100
AcDbLine
 62
250
  6
CONTINUOUS
 10
-116.0636890064
 20
-22.4110755227
 11
-116.1034921236
 21
-21.4600038961
  0
LINE
  5
4BC
100
AcDbEntity
  8
RACCORDO
100
AcDbLine
 62
7
  6
CONTINUOUS
 10
-116.5856354128
 20
-21.4801730997
 11
-116.6230446922
 21
-20.5189691889
  0
LINE
  5
4BD
100
AcDbEntity
  8
ASSI
100
AcDbLine
 62
7
  6
CONTINUOUS
 10
-116.5856354128
 20
-21.4801730997
 11
-116.6230446922
 21
-20.5189691889
  0
LWPOLYLINE
  5
4BE
100
AcDbEntity
  8
RACCORDO
100
AcDbPolyline
 62
250
  6
CONTINUOUS
 90
3
 70
0
 10
-116.1034921236
 20
-21.4600038961
 10
-116.1408419003
 20
-20.5001743721
 10
-116.1585742203
 20
-20.0184933723
  0
LWPOLYLINE
  5
4BF
100
AcDbEntity
  8
ASSI
100
AcDbPolyline
 62
250
  6
CONTINUOUS
 90
3
 70
0
 10
-116.1034921236
 20
-21.4600038961
 10
-116.1408419003
 20
-20.5001743721
 10
-116.1585742203
 20
-20.0184933723
  0
LINE
  5
4C0
100
AcDbEntity
  8
RACCORDO
100
AcDbLine
 62
7
  6
CONTINUOUS
 10
-116.6230446922
 20
-20.5189691889
 11
-116.6579692502
 21
-19.5519921664
  0
LINE
  5
4C1
100
AcDbEntity
  8
ASSI
100
AcDbLine
 62
7
  6
CONTINUOUS
 10
-116.6230446922
 20
-20.5189691889
 11
-116.6579692502
 21
-19.5519921664
  0
LINE
  5
4C2
100
AcDbEntity
  8
RACCORDO
100
AcDbLine
 62
7
  6
CONTINUOUS
 10
-116.6579692502
 20
-19.5519921664
 11
-116.6903395547
 21
-18.5846203952
  0
LINE
  5
4C3
100
AcDbEntity
  8
ASSI
100
AcDbLine
 62
7
  6
CONTINUOUS
 10
-116.6579692502
 20
-19.5519921664
 11
-116.6903395547
 21
-18.5846203952
  0
LINE
  5
4C4
100
AcDbEntity
  8
RACCORDO
100
AcDbLine
 62
7
  6
CONTINUOUS
 10
-116.6903395547
 20
-18.5846203952
 11
-116.7196989096
 21
-17.6367260067
  0
LINE
  5
4C5
100
AcDbEntity
  8
ASSI
100
AcDbLine
 62
7
  6
CONTINUOUS
 10
-116.6903395547
 20
-18.5846203952
 11
-116.7196989096
 21
-17.6367260067
  0
LINE
  5
4C6
100
AcDbEntity
  8
RACCORDO
100
AcDbLine
 62
7
  6
CONTINUOUS
 10
-116.7196989096
 20
-17.6367260067
 11
-116.7592082721
 21
-16.2303879981
  0
LINE
  5
4C7
100
AcDbEntity
  8
ASSI
100
AcDbLine
 62
7
  6
CONTINUOUS
 10
-116.7196989096
 20
-17.6367260067
 11
-116.7592082721
 21
-16.2303879981
  0
LINE
  5
4C8
100
AcDbEntity
  8
RACCORDO
100
AcDbLine
 62
7
  6
CONTINUOUS
 10
-116.7592082721
 20
-16.2303879981
 11
-116.7954886062
 21
-14.7681774234
  0
LINE
  5
4C9
100
AcDbEntity
  8
ASSI
100
AcDbLine
 62
7
  6
CONTINUOUS
 10
-116.7592082721
 20
-16.2303879981
 11
-116.7954886062
 21
-14.7681774234
  0
LINE
  5
4CA
100
AcDbEntity
  8
RACCORDO
100
AcDbLine
 62
7
  6
CONTINUOUS
 10
-116.7954886062
 20
-14.7681774234
 11
-116.8294939543
 21
-13.1928586966
  0
LINE
  5
4CB
100
AcDbEntity
  8
ASSI
100
AcDbLine
 62
7
  6
CONTINUOUS
 10
-116.7954886062
 20
-14.7681774234
 11
-116.8294939543
 21
-13.1928586966
  0
LINE
  5
4CC
100
AcDbEntity
  8
RACCORDO
100
AcDbLine
 62
7
  6
CONTINUOUS
 10
-116.8294939543
 20
-13.1928586966
 11
-116.8505937437
 21
-12.0772490784
  0
LINE
  5
4CD
100
AcDbEntity
  8
ASSI
100
AcDbLine
 62
7
  6
CONTINUOUS
 10
-116.8294939543
 20
-13.1928586966
 11
-116.8505937437
 21
-12.0772490784
  0
LINE
  5
4CE
100
AcDbEntity
  8
RACCORDO
100
AcDbLine
 62
7
  6
CONTINUOUS
 10
-116.8505937437
 20
-12.0772490784
 11
-116.8702083942
 21
-10.9079502404
  0
LINE
  5
4CF
100
AcDbEntity
  8
ASSI
100
AcDbLine
 62
7
  6
CONTINUOUS
 10
-116.8505937437
 20
-12.0772490784
 11
-116.8702083942
 21
-10.9079502404
  0
LINE
  5
4D0
100
AcDbEntity
  8
RACCORDO
100
AcDbLine
 62
7
  6
CONTINUOUS
 10
-116.8702083942
 20
-10.9079502404
 11
-116.888266473
 21
-9.6744925264
  0
LINE
  5
4D1
100
AcDbEntity
  8
ASSI
100
AcDbLine
 62
7
  6
CONTINUOUS
 10
-116.8702083942
 20
-10.9079502404
 11
-116.888266473
 21
-9.6744925264
  0
LINE
  5
4D2
100
AcDbEntity
  8
RACCORDO
100
AcDbLine
 62
7
  6
CONTINUOUS
 10
-116.888266473
 20
-9.6744925264
 11
-116.9044571548
 21
-8.3803411317
  0
LINE
  5
4D3
100
AcDbEntity
  8
ASSI
100
AcDbLine
 62
7
  6
CONTINUOUS
 10
-116.888266473
 20
-9.6744925264
 11
-116.9044571548
 21
-8.3803411317
  0
LINE
  5
4D4
100
AcDbEntity
  8
RACCORDO
100
AcDbLine
 62
7
  6
CONTINUOUS
 10
-116.9044571548
 20
-8.3803411317
 11
-116.918532428
 21
-7.0264751964
  0
LINE
  5
4D5
100
AcDbEntity
  8
ASSI
100
AcDbLine
 62
7
  6
CONTINUOUS
 10
-116.9044571548
 20
-8.3803411317
 11
-116.918532428
 21
-7.0264751964
  0
LINE
  5
4D6
100
AcDbEntity
  8
RACCORDO
100
AcDbLine
 62
7
  6
CONTINUOUS
 10
-116.918532428
 20
-7.0264751964
 11
-116.9302053917
 21
-5.621771461
  0
LINE
  5
4D7
100
AcDbEntity
  8
ASSI
100
AcDbLine
 62
7
  6
CONTINUOUS
 10
-116.918532428
 20
-7.0264751964
 11
-116.9302053917
 21
-5.621771461
  0
LINE
  5
4D8
100
AcDbEntity
  8
RACCORDO
100
AcDbLine
 62
7
  6
CONTINUOUS
 10
-116.9302053917
 20
-5.621771461
 11
-116.9394275041
 21
-4.1454480456
  0
LINE
  5
4D9
100
AcDbEntity
  8
ASSI
100
AcDbLine
 62
7
  6
CONTINUOUS
 10
-116.9302053917
 20
-5.621771461
 11
-116.9394275041
 21
-4.1454480456
  0
LINE
  5
4DA
100
AcDbEntity
  8
RACCORDO
100
AcDbLine
 62
7
  6
CONTINUOUS
 10
-116.9394275041
 20
-4.1454480456
 11
-116.9459770567
 21
-2.5808543439
  0
LINE
  5
4DB
100
AcDbEntity
  8
ASSI
100
AcDbLine
 62
7
  6
CONTINUOUS
 10
-116.9394275041
 20
-4.1454480456
 11
-116.9459770567
 21
-2.5808543439
  0
LINE
  5
4DC
100
AcDbEntity
  8
RACCORDO
100
AcDbLine
 62
7
  6
CONTINUOUS
 10
-116.9459770567
 20
-2.5808543439
 11
-116.9495293132
 21
-0.8915376124
  0
LINE
  5
4DD
100
AcDbEntity
  8
ASSI
100
AcDbLine
 62
7
  6
CONTINUOUS
 10
-116.9459770567
 20
-2.5808543439
 11
-116.9495293132
 21
-0.8915376124
  0
LINE
  5
4DE
100
AcDbEntity
  8
RACCORDO
100
AcDbLine
 62
7
  6
CONTINUOUS
 10
-116.9495293132
 20
-0.8915376124
 11
-116.9496835743
 21
0.7317214397
  0
LINE
  5
4DF
100
AcDbEntity
  8
ASSI
100
AcDbLine
 62
7
  6
CONTINUOUS
 10
-116.9495293132
 20
-0.8915376124
 11
-116.9496835743
 21
0.7317214397
  0
LINE
  5
4E0
100
AcDbEntity
  8
RACCORDO
100
AcDbLine
 62
7
  6
CONTINUOUS
 10
-116.9496835743
 20
0.7317214397
 11
-116.9471801406
 21
2.1659718865
  0
LINE
  5
4E1
100
AcDbEntity
  8
ASSI
100
AcDbLine
 62
7
  6
CONTINUOUS
 10
-116.9496835743
 20
0.7317214397
 11
-116.9471801406
 21
2.1659718865
  0
LINE
  5
4E2
100
AcDbEntity
  8
RACCORDO
100
AcDbLine
 62
7
  6
CONTINUOUS
 10
-116.9471801406
 20
2.1659718865
 11
-116.9422633597
 21
3.5585630071
  0
LINE
  5
4E3
100
AcDbEntity
  8
ASSI
100
AcDbLine
 62
7
  6
CONTINUOUS
 10
-116.9471801406
 20
2.1659718865
 11
-116.9422633597
 21
3.5585630071
  0
LINE
  5
4E4
100
AcDbEntity
  8
RACCORDO
100
AcDbLine
 62
7
  6
CONTINUOUS
 10
-116.9422633597
 20
3.5585630071
 11
-116.9348920794
 21
4.9320669023
  0
LINE
  5
4E5
100
AcDbEntity
  8
ASSI
100
AcDbLine
 62
7
  6
CONTINUOUS
 10
-116.9422633597
 20
3.5585630071
 11
-116.9348920794
 21
4.9320669023
  0
LINE
  5
4E6
100
AcDbEntity
  8
RACCORDO
100
AcDbLine
 62
7
  6
CONTINUOUS
 10
-116.9348920794
 20
4.9320669023
 11
-116.92504093
 21
6.2868090304
  0
LINE
  5
4E7
100
AcDbEntity
  8
ASSI
100
AcDbLine
 62
7
  6
CONTINUOUS
 10
-116.9348920794
 20
4.9320669023
 11
-116.92504093
 21
6.2868090304
  0
LINE
  5
4E8
100
AcDbEntity
  8
RACCORDO
100
AcDbLine
 62
7
  6
CONTINUOUS
 10
-116.92504093
 20
6.2868090304
 11
-116.912854721
 21
7.6061078875
  0
LINE
  5
4E9
100
AcDbEntity
  8
ASSI
100
AcDbLine
 62
7
  6
CONTINUOUS
 10
-116.92504093
 20
6.2868090304
 11
-116.912854721
 21
7.6061078875
  0
LINE
  5
4EA
100
AcDbEntity
  8
RACCORDO
100
AcDbLine
 62
7
  6
CONTINUOUS
 10
-116.912854721
 20
7.6061078875
 11
-116.8984741759
 21
8.8846417027
  0
LINE
  5
4EB
100
AcDbEntity
  8
ASSI
100
AcDbLine
 62
7
  6
CONTINUOUS
 10
-116.912854721
 20
7.6061078875
 11
-116.8984741759
 21
8.8846417027
  0
LINE
  5
4EC
100
AcDbEntity
  8
RACCORDO
100
AcDbLine
 62
7
  6
CONTINUOUS
 10
-116.8984741759
 20
8.8846417027
 11
-116.8820634934
 21
10.1188647973
  0
LINE
  5
4ED
100
AcDbEntity
  8
ASSI
100
AcDbLine
 62
7
  6
CONTINUOUS
 10
-116.8984741759
 20
8.8846417027
 11
-116.8820634934
 21
10.1188647973
  0
LINE
  5
4EE
100
AcDbEntity
  8
RACCORDO
100
AcDbLine
 62
7
  6
CONTINUOUS
 10
-116.8820634934
 20
10.1188647973
 11
-116.8638502113
 21
11.3035819329
  0
LINE
  5
4EF
100
AcDbEntity
  8
ASSI
100
AcDbLine
 62
7
  6
CONTINUOUS
 10
-116.8820634934
 20
10.1188647973
 11
-116.8638502113
 21
11.3035819329
  0
LINE
  5
4F0
100
AcDbEntity
  8
RACCORDO
100
AcDbLine
 62
7
  6
CONTINUOUS
 10
-116.8638502113
 20
11.3035819329
 11
-116.844129782
 21
12.4326990268
  0
LINE
  5
4F1
100
AcDbEntity
  8
ASSI
100
AcDbLine
 62
7
  6
CONTINUOUS
 10
-116.8638502113
 20
11.3035819329
 11
-116.844129782
 21
12.4326990268
  0
LINE
  5
4F2
100
AcDbEntity
  8
RACCORDO
100
AcDbLine
 62
7
  6
CONTINUOUS
 10
-116.844129782
 20
12.4326990268
 11
-116.8125149451
 21
14.0088101725
  0
LINE
  5
4F3
100
AcDbEntity
  8
ASSI
100
AcDbLine
 62
7
  6
CONTINUOUS
 10
-116.844129782
 20
12.4326990268
 11
-116.8125149451
 21
14.0088101725
  0
LINE
  5
4F4
100
AcDbEntity
  8
RACCORDO
100
AcDbLine
 62
7
  6
CONTINUOUS
 10
-116.8125149451
 20
14.0088101725
 11
-116.7790888836
 21
15.4527772634
  0
LINE
  5
4F5
100
AcDbEntity
  8
ASSI
100
AcDbLine
 62
7
  6
CONTINUOUS
 10
-116.8125149451
 20
14.0088101725
 11
-116.7790888836
 21
15.4527772634
  0
LINE
  5
4F6
100
AcDbEntity
  8
RACCORDO
100
AcDbLine
 62
7
  6
CONTINUOUS
 10
-116.7790888836
 20
15.4527772634
 11
-116.74214932
 21
16.8582315193
  0
LINE
  5
4F7
100
AcDbEntity
  8
ASSI
100
AcDbLine
 62
7
  6
CONTINUOUS
 10
-116.7790888836
 20
15.4527772634
 11
-116.74214932
 21
16.8582315193
  0
LINE
  5
4F8
100
AcDbEntity
  8
RACCORDO
100
AcDbLine
 62
7
  6
CONTINUOUS
 10
-116.74214932
 20
16.8582315193
 11
-116.714422448
 21
17.8125964753
  0
LINE
  5
4F9
100
AcDbEntity
  8
ASSI
100
AcDbLine
 62
7
  6
CONTINUOUS
 10
-116.74214932
 20
16.8582315193
 11
-116.714422448
 21
17.8125964753
  0
LINE
  5
4FA
100
AcDbEntity
  8
RACCORDO
100
AcDbLine
 62
7
  6
CONTINUOUS
 10
-116.714422448
 20
17.8125964753
 11
-116.6842288869
 21
18.7730564189
  0
LINE
  5
4FB
100
AcDbEntity
  8
ASSI
100
AcDbLine
 62
7
  6
CONTINUOUS
 10
-116.714422448
 20
17.8125964753
 11
-116.6842288869
 21
18.7730564189
  0
LINE
  5
4FC
100
AcDbEntity
  8
RACCORDO
100
AcDbLine
 62
7
  6
CONTINUOUS
 10
-116.6842288869
 20
18.7730564189
 11
-116.6518169032
 21
19.7277378664
  0
LINE
  5
4FD
100
AcDbEntity
  8
ASSI
100
AcDbLine
 62
7
  6
CONTINUOUS
 10
-116.6842288869
 20
18.7730564189
 11
-116.6518169032
 21
19.7277378664
  0
LINE
  5
4FE
100
AcDbEntity
  8
RACCORDO
100
AcDbLine
 62
7
  6
CONTINUOUS
 10
-116.6518169032
 20
19.7277378664
 11
-116.6171624191
 21
20.6749042784
  0
LINE
  5
4FF
100
AcDbEntity
  8
ASSI
100
AcDbLine
 62
7
  6
CONTINUOUS
 10
-116.6518169032
 20
19.7277378664
 11
-116.6171624191
 21
20.6749042784
  0
LINE
  5
500
100
AcDbEntity
  8
RACCORDO
100
AcDbLine
 62
250
  6
CONTINUOUS
 10
-116.1525923757
 20
20.183315707
 11
-116.1167383666
 21
21.127725258
  0
LINE
  5
501
100
AcDbEntity
  8
ASSI
100
AcDbLine
 62
250
  6
CONTINUOUS
 10
-116.1525923757
 20
20.183315707
 11
-116.1167383666
 21
21.127725258
  0
LINE
  5
502
100
AcDbEntity
  8
RACCORDO
100
AcDbLine
 62
7
  6
CONTINUOUS
 10
-116.6171624191
 20
20.6749042784
 11
-116.5799942076
 21
21.6191668146
  0
LINE
  5
503
100
AcDbEntity
  8
ASSI
100
AcDbLine
 62
7
  6
CONTINUOUS
 10
-116.6171624191
 20
20.6749042784
 11
-116.5799942076
 21
21.6191668146
  0
LINE
  5
504
100
AcDbEntity
  8
RACCORDO
100
AcDbLine
 62
250
  6
CONTINUOUS
 10
-116.1167383666
 20
21.127725258
 11
-116.0782115923
 21
22.071716377
  0
LINE
  5
505
100
AcDbEntity
  8
ASSI
100
AcDbLine
 62
250
  6
CONTINUOUS
 10
-116.1167383666
 20
21.127725258
 11
-116.0782115923
 21
22.071716377
  0
LINE
  5
506
100
AcDbEntity
  8
RACCORDO
100
AcDbLine
 62
7
  6
CONTINUOUS
 10
-116.5799942076
 20
21.6191668146
 11
-116.5398151686
 21
22.5688560047
  0
LINE
  5
507
100
AcDbEntity
  8
ASSI
100
AcDbLine
 62
7
  6
CONTINUOUS
 10
-116.5799942076
 20
21.6191668146
 11
-116.5398151686
 21
22.5688560047
  0
LINE
  5
508
100
AcDbEntity
  8
RACCORDO
100
AcDbLine
 62
250
  6
CONTINUOUS
 10
-116.0782115923
 20
22.071716377
 11
-116.0364791663
 21
23.0235877066
  0
LINE
  5
509
100
AcDbEntity
  8
ASSI
100
AcDbLine
 62
250
  6
CONTINUOUS
 10
-116.0782115923
 20
22.071716377
 11
-116.0364791663
 21
23.0235877066
  0
LINE
  5
50A
100
AcDbEntity
  8
RACCORDO
100
AcDbLine
 62
7
  6
CONTINUOUS
 10
-116.5398151686
 20
22.5688560047
 11
-116.4963492759
 21
23.5250426301
  0
LINE
  5
50B
100
AcDbEntity
  8
ASSI
100
AcDbLine
 62
7
  6
CONTINUOUS
 10
-116.5398151686
 20
22.5688560047
 11
-116.4963492759
 21
23.5250426301
  0
LINE
  5
50C
100
AcDbEntity
  8
RACCORDO
100
AcDbLine
 62
250
  6
CONTINUOUS
 10
-116.0364791663
 20
23.0235877066
 11
-115.991269924
 21
23.9822695372
  0
LINE
  5
50D
100
AcDbEntity
  8
ASSI
100
AcDbLine
 62
250
  6
CONTINUOUS
 10
-116.0364791663
 20
23.0235877066
 11
-115.991269924
 21
23.9822695372
  0
LINE
  5
50E
100
AcDbEntity
  8
RACCORDO
100
AcDbLine
 62
7
  6
CONTINUOUS
 10
-116.4963492759
 20
23.5250426301
 11
-116.4492392443
 21
24.4895975463
  0
LINE
  5
50F
100
AcDbEntity
  8
ASSI
100
AcDbLine
 62
7
  6
CONTINUOUS
 10
-116.4963492759
 20
23.5250426301
 11
-116.4492392443
 21
24.4895975463
  0
LINE
  5
510
100
AcDbEntity
  8
RACCORDO
100
AcDbLine
 62
250
  6
CONTINUOUS
 10
-115.991269924
 20
23.9822695372
 11
-115.9427021865
 21
24.9422376774
  0
LINE
  5
511
100
AcDbEntity
  8
ASSI
100
AcDbLine
 62
250
  6
CONTINUOUS
 10
-115.991269924
 20
23.9822695372
 11
-115.9427021865
 21
24.9422376774
  0
LINE
  5
512
100
AcDbEntity
  8
RACCORDO
100
AcDbLine
 62
7
  6
CONTINUOUS
 10
-116.4492392443
 20
24.4895975463
 11
-116.3991728471
 21
25.4440667661
  0
LINE
  5
513
100
AcDbEntity
  8
ASSI
100
AcDbLine
 62
7
  6
CONTINUOUS
 10
-116.4492392443
 20
24.4895975463
 11
-116.3991728471
 21
25.4440667661
  0
LINE
  5
514
100
AcDbEntity
  8
RACCORDO
100
AcDbLine
 62
250
  6
CONTINUOUS
 10
-115.9427021865
 20
24.9422376774
 11
-115.8913202888
 21
25.8872495181
  0
LINE
  5
515
100
AcDbEntity
  8
ASSI
100
AcDbLine
 62
250
  6
CONTINUOUS
 10
-115.9427021865
 20
24.9422376774
 11
-115.8913202888
 21
25.8872495181
  0
LINE
  5
516
100
AcDbEntity
  8
RACCORDO
100
AcDbLine
 62
7
  6
CONTINUOUS
 10
-116.3991728471
 20
25.4440667661
 11
-116.3467225793
 21
26.3763342862
  0
LINE
  5
517
100
AcDbEntity
  8
ASSI
100
AcDbLine
 62
7
  6
CONTINUOUS
 10
-116.3991728471
 20
25.4440667661
 11
-116.3467225793
 21
26.3763342862
  0
LINE
  5
518
100
AcDbEntity
  8
RACCORDO
100
AcDbLine
 62
250
  6
CONTINUOUS
 10
-115.8913202888
 20
25.8872495181
 11
-115.8384261462
 21
26.7961982793
  0
LINE
  5
519
100
AcDbEntity
  8
ASSI
100
AcDbLine
 62
250
  6
CONTINUOUS
 10
-115.8913202888
 20
25.8872495181
 11
-115.8384261462
 21
26.7961982793
  0
LINE
  5
51A
100
AcDbEntity
  8
RACCORDO
100
AcDbLine
 62
7
  6
CONTINUOUS
 10
-116.3467225793
 20
26.3763342862
 11
-116.2931629892
 21
27.2659771116
  0
LINE
  5
51B
100
AcDbEntity
  8
ASSI
100
AcDbLine
 62
7
  6
CONTINUOUS
 10
-116.3467225793
 20
26.3763342862
 11
-116.2931629892
 21
27.2659771116
  0
LINE
  5
51C
100
AcDbEntity
  8
RACCORDO
100
AcDbLine
 62
250
  6
CONTINUOUS
 10
-115.8384261462
 20
26.7961982793
 11
-115.7848476649
 21
27.657752253
  0
LINE
  5
51D
100
AcDbEntity
  8
ASSI
100
AcDbLine
 62
250
  6
CONTINUOUS
 10
-115.8384261462
 20
26.7961982793
 11
-115.7848476649
 21
27.657752253
  0
LINE
  5
51E
100
AcDbEntity
  8
RACCORDO
100
AcDbLine
 62
7
  6
CONTINUOUS
 10
-116.2931629892
 20
27.2659771116
 11
-116.2398438998
 21
28.0965459502
  0
LINE
  5
51F
100
AcDbEntity
  8
ASSI
100
AcDbLine
 62
7
  6
CONTINUOUS
 10
-116.2931629892
 20
27.2659771116
 11
-116.2398438998
 21
28.0965459502
  0
LINE
  5
520
100
AcDbEntity
  8
RACCORDO
100
AcDbLine
 62
250
  6
CONTINUOUS
 10
-115.7848476649
 20
27.657752253
 11
-115.7321058127
 21
28.4543019
  0
LINE
  5
521
100
AcDbEntity
  8
ASSI
100
AcDbLine
 62
250
  6
CONTINUOUS
 10
-115.7848476649
 20
27.657752253
 11
-115.7321058127
 21
28.4543019
  0
LINE
  5
522
100
AcDbEntity
  8
RACCORDO
100
AcDbLine
 62
7
  6
CONTINUOUS
 10
-116.2398438998
 20
28.0965459502
 11
-116.1874186854
 21
28.865559928
  0
LINE
  5
523
100
AcDbEntity
  8
ASSI
100
AcDbLine
 62
7
  6
CONTINUOUS
 10
-116.2398438998
 20
28.0965459502
 11
-116.1874186854
 21
28.865559928
  0
LINE
  5
524
100
AcDbEntity
  8
RACCORDO
100
AcDbLine
 62
250
  6
CONTINUOUS
 10
-115.7321058127
 20
28.4543019
 11
-115.6805080395
 21
29.1907593837
  0
LINE
  5
525
100
AcDbEntity
  8
ASSI
100
AcDbLine
 62
250
  6
CONTINUOUS
 10
-115.7321058127
 20
28.4543019
 11
-115.6805080395
 21
29.1907593837
  0
LINE
  5
526
100
AcDbEntity
  8
RACCORDO
100
AcDbLine
 62
7
  6
CONTINUOUS
 10
-116.1874186854
 20
28.865559928
 11
-116.1363833545
 21
29.5734493896
  0
LINE
  5
527
100
AcDbEntity
  8
ASSI
100
AcDbLine
 62
7
  6
CONTINUOUS
 10
-116.1874186854
 20
28.865559928
 11
-116.1363833545
 21
29.5734493896
  0
LINE
  5
528
100
AcDbEntity
  8
RACCORDO
100
AcDbLine
 62
250
  6
CONTINUOUS
 10
-115.6805080395
 20
29.1907593837
 11
-115.6298739248
 21
29.8740547585
  0
LINE
  5
529
100
AcDbEntity
  8
ASSI
100
AcDbLine
 62
250
  6
CONTINUOUS
 10
-115.6805080395
 20
29.1907593837
 11
-115.6298739248
 21
29.8740547585
  0
LINE
  5
52A
100
AcDbEntity
  8
RACCORDO
100
AcDbLine
 62
7
  6
CONTINUOUS
 10
-116.1363833545
 20
29.5734493896
 11
-116.0855971487
 21
30.2417477005
  0
LINE
  5
52B
100
AcDbEntity
  8
ASSI
100
AcDbLine
 62
7
  6
CONTINUOUS
 10
-116.1363833545
 20
29.5734493896
 11
-116.0855971487
 21
30.2417477005
  0
LINE
  5
52C
100
AcDbEntity
  8
RACCORDO
100
AcDbLine
 62
250
  6
CONTINUOUS
 10
-115.6298739248
 20
29.8740547585
 11
-115.5792490851
 21
30.5237616007
  0
LINE
  5
52D
100
AcDbEntity
  8
ASSI
100
AcDbLine
 62
250
  6
CONTINUOUS
 10
-115.6298739248
 20
29.8740547585
 11
-115.5792490851
 21
30.5237616007
  0
LINE
  5
52E
100
AcDbEntity
  8
RACCORDO
100
AcDbLine
 62
7
  6
CONTINUOUS
 10
-116.0855971487
 20
30.2417477005
 11
-116.034325896
 21
30.8830868418
  0
LINE
  5
52F
100
AcDbEntity
  8
ASSI
100
AcDbLine
 62
7
  6
CONTINUOUS
 10
-116.0855971487
 20
30.2417477005
 11
-116.034325896
 21
30.8830868418
  0
LINE
  5
530
100
AcDbEntity
  8
RACCORDO
100
AcDbLine
 62
250
  6
CONTINUOUS
 10
-115.5792490851
 20
30.5237616007
 11
-115.5271273689
 21
31.159489699
  0
LINE
  5
531
100
AcDbEntity
  8
ASSI
100
AcDbLine
 62
250
  6
CONTINUOUS
 10
-115.5792490851
 20
30.5237616007
 11
-115.5271273689
 21
31.159489699
  0
LINE
  5
532
100
AcDbEntity
  8
RACCORDO
100
AcDbLine
 62
7
  6
CONTINUOUS
 10
-116.034325896
 20
30.8830868418
 11
-115.98102508
 21
31.5172988883
  0
LINE
  5
533
100
AcDbEntity
  8
ASSI
100
AcDbLine
 62
7
  6
CONTINUOUS
 10
-116.034325896
 20
30.8830868418
 11
-115.98102508
 21
31.5172988883
  0
LINE
  5
534
100
AcDbEntity
  8
RACCORDO
100
AcDbLine
 62
250
  6
CONTINUOUS
 10
-115.5271273689
 20
31.159489699
 11
-115.4727123876
 21
31.7907368778
  0
LINE
  5
535
100
AcDbEntity
  8
ASSI
100
AcDbLine
 62
250
  6
CONTINUOUS
 10
-115.5271273689
 20
31.159489699
 11
-115.4727123876
 21
31.7907368778
  0
LINE
  5
536
100
AcDbEntity
  8
RACCORDO
100
AcDbLine
 62
7
  6
CONTINUOUS
 10
-115.98102508
 20
31.5172988883
 11
-115.9246937316
 21
32.1545267671
  0
LINE
  5
537
100
AcDbEntity
  8
ASSI
100
AcDbLine
 62
7
  6
CONTINUOUS
 10
-115.98102508
 20
31.5172988883
 11
-115.9246937316
 21
32.1545267671
  0
LINE
  5
538
100
AcDbEntity
  8
RACCORDO
100
AcDbLine
 62
250
  6
CONTINUOUS
 10
-115.4727123876
 20
31.7907368778
 11
-115.4148347871
 21
32.4289924209
  0
LINE
  5
539
100
AcDbEntity
  8
ASSI
100
AcDbLine
 62
250
  6
CONTINUOUS
 10
-115.4727123876
 20
31.7907368778
 11
-115.4148347871
 21
32.4289924209
  0
LINE
  5
53A
100
AcDbEntity
  8
RACCORDO
100
AcDbLine
 62
7
  6
CONTINUOUS
 10
-115.9246937316
 20
32.1545267671
 11
-115.86488723
 21
32.7969676767
  0
LINE
  5
53B
100
AcDbEntity
  8
ASSI
100
AcDbLine
 62
7
  6
CONTINUOUS
 10
-115.9246937316
 20
32.1545267671
 11
-115.86488723
 21
32.7969676767
  0
LINE
  5
53C
100
AcDbEntity
  8
RACCORDO
100
AcDbLine
 62
250
  6
CONTINUOUS
 10
-115.4148347871
 20
32.4289924209
 11
-115.3533921994
 21
33.0714426266
  0
LINE
  5
53D
100
AcDbEntity
  8
ASSI
100
AcDbLine
 62
250
  6
CONTINUOUS
 10
-115.4148347871
 20
32.4289924209
 11
-115.3533921994
 21
33.0714426266
  0
LINE
  5
53E
100
AcDbEntity
  8
RACCORDO
100
AcDbLine
 62
7
  6
CONTINUOUS
 10
-115.86488723
 20
32.7969676767
 11
-115.801328967
 21
33.4444047874
  0
LINE
  5
53F
100
AcDbEntity
  8
ASSI
100
AcDbLine
 62
7
  6
CONTINUOUS
 10
-115.86488723
 20
32.7969676767
 11
-115.801328967
 21
33.4444047874
  0
LINE
  5
540
100
AcDbEntity
  8
RACCORDO
100
AcDbLine
 62
250
  6
CONTINUOUS
 10
-115.3533921994
 20
33.0714426266
 11
-115.2885586643
 21
33.7145447022
  0
LINE
  5
541
100
AcDbEntity
  8
ASSI
100
AcDbLine
 62
250
  6
CONTINUOUS
 10
-115.3533921994
 20
33.0714426266
 11
-115.2885586643
 21
33.7145447022
  0
LINE
  5
542
100
AcDbEntity
  8
RACCORDO
100
AcDbLine
 62
7
  6
CONTINUOUS
 10
-115.801328967
 20
33.4444047874
 11
-115.7348406991
 21
34.0859810953
  0
LINE
  5
543
100
AcDbEntity
  8
ASSI
100
AcDbLine
 62
7
  6
CONTINUOUS
 10
-115.801328967
 20
33.4444047874
 11
-115.7348406991
 21
34.0859810953
  0
LINE
  5
544
100
AcDbEntity
  8
RACCORDO
100
AcDbLine
 62
250
  6
CONTINUOUS
 10
-115.2885586643
 20
33.7145447022
 11
-115.2209843647
 21
34.3487655298
  0
LINE
  5
545
100
AcDbEntity
  8
ASSI
100
AcDbLine
 62
250
  6
CONTINUOUS
 10
-115.2885586643
 20
33.7145447022
 11
-115.2209843647
 21
34.3487655298
  0
LINE
  5
546
100
AcDbEntity
  8
RACCORDO
100
AcDbLine
 62
7
  6
CONTINUOUS
 10
-115.7348406991
 20
34.0859810953
 11
-115.6661228874
 21
34.7138583805
  0
LINE
  5
547
100
AcDbEntity
  8
ASSI
100
AcDbLine
 62
7
  6
CONTINUOUS
 10
-115.7348406991
 20
34.0859810953
 11
-115.6661228874
 21
34.7138583805
  0
LINE
  5
548
100
AcDbEntity
  8
RACCORDO
100
AcDbLine
 62
250
  6
CONTINUOUS
 10
-115.2209843647
 20
34.3487655298
 11
-115.1522335867
 21
34.9602516551
  0
LINE
  5
549
100
AcDbEntity
  8
ASSI
100
AcDbLine
 62
250
  6
CONTINUOUS
 10
-115.2209843647
 20
34.3487655298
 11
-115.1522335867
 21
34.9602516551
  0
LINE
  5
54A
100
AcDbEntity
  8
RACCORDO
100
AcDbLine
 62
7
  6
CONTINUOUS
 10
-115.6661228874
 20
34.7138583805
 11
-115.5966714095
 21
35.3149970805
  0
LINE
  5
54B
100
AcDbEntity
  8
ASSI
100
AcDbLine
 62
7
  6
CONTINUOUS
 10
-115.6661228874
 20
34.7138583805
 11
-115.5966714095
 21
35.3149970805
  0
LINE
  5
54C
100
AcDbEntity
  8
RACCORDO
100
AcDbLine
 62
250
  6
CONTINUOUS
 10
-115.1522335867
 20
34.9602516551
 11
-115.0833312991
 21
35.5411366562
  0
LINE
  5
54D
100
AcDbEntity
  8
ASSI
100
AcDbLine
 62
250
  6
CONTINUOUS
 10
-115.1522335867
 20
34.9602516551
 11
-115.0833312991
 21
35.5411366562
  0
LWPOLYLINE
  5
54E
100
AcDbEntity
  8
RACCORDO
100
AcDbPolyline
 62
7
  6
CONTINUOUS
 90
3
 70
0
 10
-115.5966714095
 20
35.3149970805
 10
-115.528260373
 20
35.8768068487
 10
-115.4947029929
 20
36.1420729426
  0
LWPOLYLINE
  5
54F
100
AcDbEntity
  8
ASSI
100
AcDbPolyline
 62
7
  6
CONTINUOUS
 90
3
 70
0
 10
-115.5966714095
 20
35.3149970805
 10
-115.528260373
 20
35.8768068487
 10
-115.4947029929
 20
36.1420729426
  0
LINE
  5
550
100
AcDbEntity
  8
RACCORDO
100
AcDbLine
 62
250
  6
CONTINUOUS
 10
-115.0833312991
 20
35.5411366562
 11
-115.0161977634
 21
36.0784202904
  0
LINE
  5
551
100
AcDbEntity
  8
ASSI
100
AcDbLine
 62
250
  6
CONTINUOUS
 10
-115.0833312991
 20
35.5411366562
 11
-115.0161977634
 21
36.0784202904
  0
LINE
  5
552
100
AcDbEntity
  8
RACCORDO
100
AcDbLine
 62
250
  6
CONTINUOUS
 10
-115.0161977634
 20
36.0784202904
 11
-114.9512908898
 21
36.573767383
  0
LINE
  5
553
100
AcDbEntity
  8
ASSI
100
AcDbLine
 62
250
  6
CONTINUOUS
 10
-115.0161977634
 20
36.0784202904
 11
-114.9512908898
 21
36.573767383
  0
LINE
  5
554
100
AcDbEntity
  8
RACCORDO
100
AcDbLine
 62
250
  6
CONTINUOUS
 10
-114.9512908898
 20
36.573767383
 11
-114.8883990217
 21
37.0312563764
  0
LINE
  5
555
100
AcDbEntity
  8
ASSI
100
AcDbLine
 62
250
  6
CONTINUOUS
 10
-114.9512908898
 20
36.573767383
 11
-114.8883990217
 21
37.0312563764
  0
LINE
  5
556
100
AcDbEntity
  8
RACCORDO
100
AcDbLine
 62
250
  6
CONTINUOUS
 10
-114.8927151498
 20
-37.000407986
 11
-114.9634308287
 21
-36.4826809584
  0
LINE
  5
557
100
AcDbEntity
  8
ASSI
100
AcDbLine
 62
250
  6
CONTINUOUS
 10
-114.8927151498
 20
-37.000407986
 11
-114.9634308287
 21
-36.4826809584
  0
LINE
  5
558
100
AcDbEntity
  8
RACCORDO
100
AcDbLine
 62
250
  6
CONTINUOUS
 10
-114.9634308287
 20
-36.4826809584
 11
-115.0368642191
 21
-35.9159887706
  0
LINE
  5
559
100
AcDbEntity
  8
ASSI
100
AcDbLine
 62
250
  6
CONTINUOUS
 10
-114.9634308287
 20
-36.4826809584
 11
-115.0368642191
 21
-35.9159887706
  0
LINE
  5
55A
100
AcDbEntity
  8
RACCORDO
100
AcDbLine
 62
7
  6
CONTINUOUS
 10
-115.5154826674
 20
-35.9785896531
 11
-115.5901257015
 21
-35.3700166608
  0
LINE
  5
55B
100
AcDbEntity
  8
ASSI
100
AcDbLine
 62
7
  6
CONTINUOUS
 10
-115.5154826674
 20
-35.9785896531
 11
-115.5901257015
 21
-35.3700166608
  0
LINE
  5
55C
100
AcDbEntity
  8
RACCORDO
100
AcDbLine
 62
250
  6
CONTINUOUS
 10
-115.0368642191
 20
-35.9159887706
 11
-115.111079488
 21
-35.3105383245
  0
LINE
  5
55D
100
AcDbEntity
  8
ASSI
100
AcDbLine
 62
250
  6
CONTINUOUS
 10
-115.0368642191
 20
-35.9159887706
 11
-115.111079488
 21
-35.3105383245
  0
LWPOLYLINE
  5
55E
100
AcDbEntity
  8
RACCORDO
100
AcDbPolyline
 62
7
  6
CONTINUOUS
 90
3
 70
0
 10
-115.5901257015
 20
-35.3700166608
 10
-115.6642757186
 20
-34.7302695248
 10
-115.700311719
 20
-34.4057609483
  0
LWPOLYLINE
  5
55F
100
AcDbEntity
  8
ASSI
100
AcDbPolyline
 62
7
  6
CONTINUOUS
 90
3
 70
0
 10
-115.5901257015
 20
-35.3700166608
 10
-115.6642757186
 20
-34.7302695248
 10
-115.700311719
 20
-34.4057609483
  0
LWPOLYLINE
  5
560
100
AcDbEntity
  8
RACCORDO
100
AcDbPolyline
 62
250
  6
CONTINUOUS
 90
3
 70
0
 10
-115.111079488
 20
-35.3105383245
 10
-115.1848673868
 20
-34.6743048199
 10
-115.2207241276
 20
-34.3512505187
  0
LWPOLYLINE
  5
561
100
AcDbEntity
  8
ASSI
100
AcDbPolyline
 62
250
  6
CONTINUOUS
 90
3
 70
0
 10
-115.111079488
 20
-35.3105383245
 10
-115.1848673868
 20
-34.6743048199
 10
-115.2207241276
 20
-34.3512505187
  0
LINE
  5
562
100
AcDbEntity
  8
RACCORDO
100
AcDbLine
 62
250
  6
CONTINUOUS
 10
-116.1585742203
 20
-20.0184933723
 11
-116.1922388437
 21
-19.0497548443
  0
LINE
  5
563
100
AcDbEntity
  8
ASSI
100
AcDbLine
 62
250
  6
CONTINUOUS
 10
-116.1585742203
 20
-20.0184933723
 11
-116.1922388437
 21
-19.0497548443
  0
LINE
  5
564
100
AcDbEntity
  8
RACCORDO
100
AcDbLine
 62
250
  6
CONTINUOUS
 10
-116.1922388437
 20
-19.0497548443
 11
-116.2230654226
 21
-18.0933832729
  0
LINE
  5
565
100
AcDbEntity
  8
ASSI
100
AcDbLine
 62
250
  6
CONTINUOUS
 10
-116.1922388437
 20
-19.0497548443
 11
-116.2230654226
 21
-18.0933832729
  0
LINE
  5
566
100
AcDbEntity
  8
RACCORDO
100
AcDbLine
 62
250
  6
CONTINUOUS
 10
-116.2230654226
 20
-18.0933832729
 11
-116.2642640681
 21
-16.6838686047
  0
LINE
  5
567
100
AcDbEntity
  8
ASSI
100
AcDbLine
 62
250
  6
CONTINUOUS
 10
-116.2230654226
 20
-18.0933832729
 11
-116.2642640681
 21
-16.6838686047
  0
LINE
  5
568
100
AcDbEntity
  8
RACCORDO
100
AcDbLine
 62
250
  6
CONTINUOUS
 10
-116.2642640681
 20
-16.6838686047
 11
-116.3012616382
 21
-15.2538512637
  0
LINE
  5
569
100
AcDbEntity
  8
ASSI
100
AcDbLine
 62
250
  6
CONTINUOUS
 10
-116.2642640681
 20
-16.6838686047
 11
-116.3012616382
 21
-15.2538512637
  0
LINE
  5
56A
100
AcDbEntity
  8
RACCORDO
100
AcDbLine
 62
250
  6
CONTINUOUS
 10
-116.3012616382
 20
-15.2538512637
 11
-116.3359793443
 21
-13.7212742594
  0
LINE
  5
56B
100
AcDbEntity
  8
ASSI
100
AcDbLine
 62
250
  6
CONTINUOUS
 10
-116.3012616382
 20
-15.2538512637
 11
-116.3359793443
 21
-13.7212742594
  0
LINE
  5
56C
100
AcDbEntity
  8
RACCORDO
100
AcDbLine
 62
250
  6
CONTINUOUS
 10
-116.3359793443
 20
-13.7212742594
 11
-116.3577679705
 21
-12.6316215975
  0
LINE
  5
56D
100
AcDbEntity
  8
ASSI
100
AcDbLine
 62
250
  6
CONTINUOUS
 10
-116.3359793443
 20
-13.7212742594
 11
-116.3577679705
 21
-12.6316215975
  0
LINE
  5
56E
100
AcDbEntity
  8
RACCORDO
100
AcDbLine
 62
250
  6
CONTINUOUS
 10
-116.3577679705
 20
-12.6316215975
 11
-116.3781180065
 21
-11.4919492176
  0
LINE
  5
56F
100
AcDbEntity
  8
ASSI
100
AcDbLine
 62
250
  6
CONTINUOUS
 10
-116.3577679705
 20
-12.6316215975
 11
-116.3781180065
 21
-11.4919492176
  0
LINE
  5
570
100
AcDbEntity
  8
RACCORDO
100
AcDbLine
 62
250
  6
CONTINUOUS
 10
-116.3781180065
 20
-11.4919492176
 11
-116.3969431995
 21
-10.2917046907
  0
LINE
  5
571
100
AcDbEntity
  8
ASSI
100
AcDbLine
 62
250
  6
CONTINUOUS
 10
-116.3781180065
 20
-11.4919492176
 11
-116.3969431995
 21
-10.2917046907
  0
LINE
  5
572
100
AcDbEntity
  8
RACCORDO
100
AcDbLine
 62
250
  6
CONTINUOUS
 10
-116.3969431995
 20
-10.2917046907
 11
-116.4140987446
 21
-9.0287915935
  0
LINE
  5
573
100
AcDbEntity
  8
ASSI
100
AcDbLine
 62
250
  6
CONTINUOUS
 10
-116.3969431995
 20
-10.2917046907
 11
-116.4140987446
 21
-9.0287915935
  0
LINE
  5
574
100
AcDbEntity
  8
RACCORDO
100
AcDbLine
 62
250
  6
CONTINUOUS
 10
-116.4140987446
 20
-9.0287915935
 11
-116.4292614801
 21
-7.705074789
  0
LINE
  5
575
100
AcDbEntity
  8
ASSI
100
AcDbLine
 62
250
  6
CONTINUOUS
 10
-116.4140987446
 20
-9.0287915935
 11
-116.4292614801
 21
-7.705074789
  0
LINE
  5
576
100
AcDbEntity
  8
RACCORDO
100
AcDbLine
 62
250
  6
CONTINUOUS
 10
-116.4292614801
 20
-7.705074789
 11
-116.4421418673
 21
-6.3270350783
  0
LINE
  5
577
100
AcDbEntity
  8
ASSI
100
AcDbLine
 62
250
  6
CONTINUOUS
 10
-116.4292614801
 20
-7.705074789
 11
-116.4421418673
 21
-6.3270350783
  0
LINE
  5
578
100
AcDbEntity
  8
RACCORDO
100
AcDbLine
 62
250
  6
CONTINUOUS
 10
-116.4421418673
 20
-6.3270350783
 11
-116.4525969148
 21
-4.8898922636
  0
LINE
  5
579
100
AcDbEntity
  8
ASSI
100
AcDbLine
 62
250
  6
CONTINUOUS
 10
-116.4421418673
 20
-6.3270350783
 11
-116.4525969148
 21
-4.8898922636
  0
LINE
  5
57A
100
AcDbEntity
  8
RACCORDO
100
AcDbLine
 62
250
  6
CONTINUOUS
 10
-116.4525969148
 20
-4.8898922636
 11
-116.4605364358
 21
-3.3759980231
  0
LINE
  5
57B
100
AcDbEntity
  8
ASSI
100
AcDbLine
 62
250
  6
CONTINUOUS
 10
-116.4525969148
 20
-4.8898922636
 11
-116.4605364358
 21
-3.3759980231
  0
LINE
  5
57C
100
AcDbEntity
  8
RACCORDO
100
AcDbLine
 62
250
  6
CONTINUOUS
 10
-116.4605364358
 20
-3.3759980231
 11
-116.4655263833
 21
-1.7493649832
  0
LINE
  5
57D
100
AcDbEntity
  8
ASSI
100
AcDbLine
 62
250
  6
CONTINUOUS
 10
-116.4605364358
 20
-3.3759980231
 11
-116.4655263833
 21
-1.7493649832
  0
LINE
  5
57E
100
AcDbEntity
  8
RACCORDO
100
AcDbLine
 62
250
  6
CONTINUOUS
 10
-116.4655263833
 20
-1.7493649832
 11
-116.4674499486
 21
-0.0
  0
LINE
  5
57F
100
AcDbEntity
  8
ASSI
100
AcDbLine
 62
250
  6
CONTINUOUS
 10
-116.4655263833
 20
-1.7493649832
 11
-116.4674499486
 21
-0.0
  0
LINE
  5
580
100
AcDbEntity
  8
DRAFT
100
AcDbLine
 62
7
  6
CONTINUOUS
 10
-114.5500002002
 20
-3.4689805518
 11
-114.5500002002
 21
3.4689805518
  0
LINE
  5
581
100
AcDbEntity
  8
ASSI
100
AcDbLine
 62
7
  6
CONTINUOUS
 10
-114.5500002002
 20
-3.4689805518
 11
-114.5500002002
 21
3.4689805518
  0
LINE
  5
582
100
AcDbEntity
  8
RACCORDO
100
AcDbLine
 62
250
  6
CONTINUOUS
 10
-116.4674499486
 20
-0.0
 11
-116.4661778335
 21
1.4526656752
  0
LINE
  5
583
100
AcDbEntity
  8
ASSI
100
AcDbLine
 62
250
  6
CONTINUOUS
 10
-116.4674499486
 20
-0.0
 11
-116.4661778335
 21
1.4526656752
  0
LINE
  5
584
100
AcDbEntity
  8
RACCORDO
100
AcDbLine
 62
250
  6
CONTINUOUS
 10
-116.4661778335
 20
1.4526656752
 11
-116.462482528
 21
2.8653401887
  0
LINE
  5
585
100
AcDbEntity
  8
ASSI
100
AcDbLine
 62
250
  6
CONTINUOUS
 10
-116.4661778335
 20
1.4526656752
 11
-116.462482528
 21
2.8653401887
  0
LINE
  5
586
100
AcDbEntity
  8
RACCORDO
100
AcDbLine
 62
250
  6
CONTINUOUS
 10
-116.462482528
 20
2.8653401887
 11
-116.4563524095
 21
4.2432380664
  0
LINE
  5
587
100
AcDbEntity
  8
ASSI
100
AcDbLine
 62
250
  6
CONTINUOUS
 10
-116.462482528
 20
2.8653401887
 11
-116.4563524095
 21
4.2432380664
  0
LINE
  5
588
100
AcDbEntity
  8
RACCORDO
100
AcDbLine
 62
250
  6
CONTINUOUS
 10
-116.4563524095
 20
4.2432380664
 11
-116.4477177893
 21
5.6100264002
  0
LINE
  5
589
100
AcDbEntity
  8
ASSI
100
AcDbLine
 62
250
  6
CONTINUOUS
 10
-116.4563524095
 20
4.2432380664
 11
-116.4477177893
 21
5.6100264002
  0
LINE
  5
58A
100
AcDbEntity
  8
RACCORDO
100
AcDbLine
 62
250
  6
CONTINUOUS
 10
-116.4477177893
 20
5.6100264002
 11
-116.4367069677
 21
6.9460675059
  0
LINE
  5
58B
100
AcDbEntity
  8
ASSI
100
AcDbLine
 62
250
  6
CONTINUOUS
 10
-116.4477177893
 20
5.6100264002
 11
-116.4367069677
 21
6.9460675059
  0
LINE
  5
58C
100
AcDbEntity
  8
RACCORDO
100
AcDbLine
 62
250
  6
CONTINUOUS
 10
-116.4367069677
 20
6.9460675059
 11
-116.423410666
 21
8.2450701213
  0
LINE
  5
58D
100
AcDbEntity
  8
ASSI
100
AcDbLine
 62
250
  6
CONTINUOUS
 10
-116.4367069677
 20
6.9460675059
 11
-116.423410666
 21
8.2450701213
  0
LINE
  5
58E
100
AcDbEntity
  8
RACCORDO
100
AcDbLine
 62
250
  6
CONTINUOUS
 10
-116.423410666
 20
8.2450701213
 11
-116.4079877087
 21
9.5013213265
  0
LINE
  5
58F
100
AcDbEntity
  8
ASSI
100
AcDbLine
 62
250
  6
CONTINUOUS
 10
-116.423410666
 20
8.2450701213
 11
-116.4079877087
 21
9.5013213265
  0
LINE
  5
590
100
AcDbEntity
  8
RACCORDO
100
AcDbLine
 62
250
  6
CONTINUOUS
 10
-116.4079877087
 20
9.5013213265
 11
-116.3906841859
 21
10.7096735862
  0
LINE
  5
591
100
AcDbEntity
  8
ASSI
100
AcDbLine
 62
250
  6
CONTINUOUS
 10
-116.4079877087
 20
9.5013213265
 11
-116.3906841859
 21
10.7096735862
  0
LINE
  5
592
100
AcDbEntity
  8
RACCORDO
100
AcDbLine
 62
250
  6
CONTINUOUS
 10
-116.3906841859
 20
10.7096735862
 11
-116.3716887018
 21
11.8664477574
  0
LINE
  5
593
100
AcDbEntity
  8
ASSI
100
AcDbLine
 62
250
  6
CONTINUOUS
 10
-116.3906841859
 20
10.7096735862
 11
-116.3716887018
 21
11.8664477574
  0
LINE
  5
594
100
AcDbEntity
  8
RACCORDO
100
AcDbLine
 62
250
  6
CONTINUOUS
 10
-116.3716887018
 20
11.8664477574
 11
-116.3513118349
 21
12.9662152623
  0
LINE
  5
595
100
AcDbEntity
  8
ASSI
100
AcDbLine
 62
250
  6
CONTINUOUS
 10
-116.3716887018
 20
11.8664477574
 11
-116.3513118349
 21
12.9662152623
  0
LINE
  5
596
100
AcDbEntity
  8
RACCORDO
100
AcDbLine
 62
250
  6
CONTINUOUS
 10
-116.3513118349
 20
12.9662152623
 11
-116.3192508797
 21
14.4876050849
  0
LINE
  5
597
100
AcDbEntity
  8
ASSI
100
AcDbLine
 62
250
  6
CONTINUOUS
 10
-116.3513118349
 20
12.9662152623
 11
-116.3192508797
 21
14.4876050849
  0
LINE
  5
598
100
AcDbEntity
  8
RACCORDO
100
AcDbLine
 62
250
  6
CONTINUOUS
 10
-116.3192508797
 20
14.4876050849
 11
-116.2850185621
 21
15.9044121835
  0
LINE
  5
599
100
AcDbEntity
  8
ASSI
100
AcDbLine
 62
250
  6
CONTINUOUS
 10
-116.3192508797
 20
14.4876050849
 11
-116.2850185621
 21
15.9044121835
  0
LINE
  5
59A
100
AcDbEntity
  8
RACCORDO
100
AcDbLine
 62
250
  6
CONTINUOUS
 10
-116.2850185621
 20
15.9044121835
 11
-116.2462464619
 21
17.3202340136
  0
LINE
  5
59B
100
AcDbEntity
  8
ASSI
100
AcDbLine
 62
250
  6
CONTINUOUS
 10
-116.2850185621
 20
15.9044121835
 11
-116.2462464619
 21
17.3202340136
  0
LINE
  5
59C
100
AcDbEntity
  8
RACCORDO
100
AcDbLine
 62
250
  6
CONTINUOUS
 10
-116.2462464619
 20
17.3202340136
 11
-116.2173245263
 21
18.276493997
  0
LINE
  5
59D
100
AcDbEntity
  8
ASSI
100
AcDbLine
 62
250
  6
CONTINUOUS
 10
-116.2462464619
 20
17.3202340136
 11
-116.2173245263
 21
18.276493997
  0
LINE
  5
59E
100
AcDbEntity
  8
RACCORDO
100
AcDbLine
 62
250
  6
CONTINUOUS
 10
-116.2173245263
 20
18.276493997
 11
-116.1860121172
 21
19.2350726772
  0
LINE
  5
59F
100
AcDbEntity
  8
ASSI
100
AcDbLine
 62
250
  6
CONTINUOUS
 10
-116.2173245263
 20
18.276493997
 11
-116.1860121172
 21
19.2350726772
  0
LINE
  5
5A0
100
AcDbEntity
  8
RACCORDO
100
AcDbLine
 62
250
  6
CONTINUOUS
 10
-116.1860121172
 20
19.2350726772
 11
-116.1525923757
 21
20.183315707
  0
LINE
  5
5A1
100
AcDbEntity
  8
ASSI
100
AcDbLine
 62
250
  6
CONTINUOUS
 10
-116.1860121172
 20
19.2350726772
 11
-116.1525923757
 21
20.183315707
  0
LWPOLYLINE
  5
5A2
100
AcDbEntity
  8
RACCORDO
100
AcDbPolyline
 62
250
  6
CONTINUOUS
 90
13
 70
0
 10
-106.8222982487
 20
26.6250583679
 10
-106.816515207
 20
26.6451599746
 10
-106.8108060041
 20
26.6643962314
 10
-106.8052393864
 20
26.6825355092
 10
-106.7998823828
 20
26.6993593878
 10
-106.7947994987
 20
26.7146652858
 10
-106.7900519384
 20
26.7282689007
 10
-106.7856968687
 20
26.7400064273
 10
-106.7817867304
 20
26.7497365306
 10
-106.7783686064
 20
26.7573420474
 10
-106.7754836555
 20
26.7627313974
 10
-106.7731666162
 20
26.7658396856
 10
-106.7714453889
 20
26.7666294841
  0
LINE
  5
5A3
100
AcDbEntity
  8
RACCORDO
100
AcDbLine
 62
250
  6
CONTINUOUS
 10
-105.2153126671
 20
26.3175157163
 11
-105.217465725
 21
26.3116065883
  0
LINE
  5
5A4
100
AcDbEntity
  8
DRAFT
100
AcDbLine
 62
7
  6
CONTINUOUS
 10
-112.0500002002
 20
-3.6
 11
-114.5500002002
 21
-3.4689805518
  0
LINE
  5
5A5
100
AcDbEntity
  8
ASSI
100
AcDbLine
 62
7
  6
CONTINUOUS
 10
-112.0500002002
 20
-3.6
 11
-114.5500002002
 21
-3.4689805518
  0
LWPOLYLINE
  5
5A6
100
AcDbEntity
  8
RACCORDO
100
AcDbPolyline
 62
250
  6
CONTINUOUS
 90
9
 70
0
 10
-105.2174657102
 20
-26.3116066294
 10
-105.2147938295
 20
-26.3189113363
 10
-105.2122016419
 20
-26.3256982765
 10
-105.2097159765
 20
-26.3318687863
 10
-105.2073588787
 20
-26.3373350746
 10
-105.2051681889
 20
-26.3419723653
 10
-105.2031905769
 20
-26.3456481981
 10
-105.2014558689
 20
-26.3482779467
 10
-105.1999835062
 20
-26.349797771
  0
LWPOLYLINE
  5
5A7
100
AcDbEntity
  8
RACCORDO
100
AcDbPolyline
 62
250
  6
CONTINUOUS
 90
13
 70
0
 10
-106.8222982487
 20
-26.6250583679
 10
-106.8165152103
 20
-26.6451599788
 10
-106.8108060102
 20
-26.6643962389
 10
-106.8052393947
 20
-26.6825355189
 10
-106.7998823928
 20
-26.6993593986
 10
-106.7947995098
 20
-26.7146652969
 10
-106.79005195
 20
-26.7282689112
 10
-106.7856968802
 20
-26.7400064366
 10
-106.7817867411
 20
-26.7497365381
 10
-106.7783686156
 20
-26.7573420528
 10
-106.7754836625
 20
-26.7627314007
 10
-106.7731666202
 20
-26.765839687
 10
-106.7714453889
 20
-26.7666294841
  0
LINE
  5
5A8
100
AcDbEntity
  8
RACCORDO
100
AcDbLine
 62
250
  6
CONTINUOUS
 10
-113.4430192377
 20
-3.5269949657
 11
-113.4430192377
 21
3.5269949657
  0
LINE
  5
5A9
100
AcDbEntity
  8
RACCORDO
100
AcDbLine
 62
7
  6
CONTINUOUS
 10
-113.0500002002
 20
-3.5475922207
 11
-113.0500002002
 21
3.5475922207
  0
LINE
  5
5AA
100
AcDbEntity
  8
RACCORDO
100
AcDbLine
 62
7
  6
CONTINUOUS
 10
-112.0500002002
 20
-3.6
 11
-112.0500002002
 21
-45.0
  0
LINE
  5
5AB
100
AcDbEntity
  8
ASSI
100
AcDbLine
 62
7
  6
CONTINUOUS
 10
-112.0500002002
 20
-3.6
 11
-112.0500002002
 21
-45.0
  0
LINE
  5
5AC
100
AcDbEntity
  8
RACCORDO
100
AcDbLine
 62
7
  6
CONTINUOUS
 10
-112.0500002002
 20
3.6
 11
-112.0500002002
 21
45.0
  0
LINE
  5
5AD
100
AcDbEntity
  8
ASSI
100
AcDbLine
 62
7
  6
CONTINUOUS
 10
-112.0500002002
 20
3.6
 11
-112.0500002002
 21
45.0
  0
LINE
  5
5AE
100
AcDbEntity
  8
RACCORDO
100
AcDbLine
 62
250
  6
CONTINUOUS
 10
-113.0500002002
 20
-1.75
 11
-114.5500002002
 21
-1.75
  0
LINE
  5
5AF
100
AcDbEntity
  8
RACCORDO
100
AcDbLine
 62
250
  6
CONTINUOUS
 10
-116.9500002002
 20
0.0
 11
-116.4674499486
 21
0.0
  0
LINE
  5
5B0
100
AcDbEntity
  8
ASSI
100
AcDbLine
 62
250
  6
CONTINUOUS
 10
-116.9500002002
 20
0.0
 11
-116.4674499486
 21
0.0
  0
LWPOLYLINE
  5
5B1
100
AcDbEntity
  8
RACCORDO
100
AcDbPolyline
 62
250
  6
CONTINUOUS
 90
13
 70
0
 10
-107.0932375426
 20
-25.3381966011
 10
-107.093499366
 20
-25.3186526714
 10
-107.0938310512
 20
-25.3
 10
-107.0942289642
 20
-25.2824429495
 10
-107.0946887453
 20
-25.2661738787
 10
-107.0952053571
 20
-25.2513710349
 10
-107.0957731395
 20
-25.2381966011
 10
-107.0963858717
 20
-25.2267949192
 10
-107.0970368405
 20
-25.2172909085
 10
-107.0977189139
 20
-25.2097886967
 10
-107.0984246187
 20
-25.2043704799
 10
-107.0991462232
 20
-25.2010956209
 10
-107.0998758214
 20
-25.2
  0
LINE
  5
5B2
100
AcDbEntity
  8
RACCORDO
100
AcDbLine
 62
250
  6
CONTINUOUS
 10
-113.0500002002
 20
1.75
 11
-114.5500002002
 21
1.75
  0
LINE
  5
5B3
100
AcDbEntity
  8
RACCORDO
100
AcDbLine
 62
250
  6
CONTINUOUS
 10
-107.0132929468
 20
25.4039702478
 11
-107.009321223
 21
25.3626841609
  0
LWPOLYLINE
  5
5B4
100
AcDbEntity
  8
RACCORDO
100
AcDbPolyline
 62
250
  6
CONTINUOUS
 90
13
 70
0
 10
-107.009321223
 20
25.3626841609
 10
-107.0058260314
 20
25.3231945338
 10
-107.00430566
 20
25.3046654944
 10
-107.0029594565
 20
25.2872196578
 10
-107.0018021051
 20
25.2710473208
 10
-107.00084623
 20
25.256324889
 10
-107.0001022578
 20
25.2432129526
 10
-106.9995783036
 20
25.231854535
 10
-106.9992800827
 20
25.2223735321
 10
-106.999210848
 20
25.2148733616
 10
-106.9993713547
 20
25.2094358341
 10
-106.9997598521
 20
25.2061202616
 10
-107.0003721023
 20
25.2049628098
  0
LWPOLYLINE
  5
5B5
100
AcDbEntity
  8
RACCORDO
100
AcDbPolyline
 62
250
  6
CONTINUOUS
 90
3
 70
0
 10
-105.2446634887
 20
25.96943168
 10
-105.2435184768
 20
25.9353282386
 10
-105.2430203011
 20
25.9181413667
  0
LWPOLYLINE
  5
5B6
100
AcDbEntity
  8
RACCORDO
100
AcDbPolyline
 62
250
  6
CONTINUOUS
 90
3
 70
0
 10
-105.2488935967
 20
26.3087327449
 10
-105.2489191886
 20
26.3110102318
 10
-105.2489530075
 20
26.3117714569
  0
LWPOLYLINE
  5
5B7
100
AcDbEntity
  8
RACCORDO
100
AcDbPolyline
 62
250
  6
CONTINUOUS
 90
3
 70
0
 10
-107.092895922
 20
-25.4
 10
-107.0929341586
 20
-25.3790943073
 10
-107.0932375426
 20
-25.3381966011
  0
LINE
  5
5B8
100
AcDbEntity
  8
RACCORDO
100
AcDbLine
 62
250
  6
CONTINUOUS
 10
-105.2488678084
 20
26.2997097216
 11
-105.2488935967
 21
26.3087327449
  0
LINE
  5
5B9
100
AcDbEntity
  8
RACCORDO
100
AcDbLine
 62
250
  6
CONTINUOUS
 10
-105.2488678084
 20
-26.2997097084
 11
-105.2489530075
 21
-26.0595607844
  0
LINE
  5
5BA
100
AcDbEntity
  8
RACCORDO
100
AcDbLine
 62
250
  6
CONTINUOUS
 10
-105.2430203009
 20
25.9181413667
 11
-105.2430203009
 21
25.5809975124
  0
LINE
  5
5BB
100
AcDbEntity
  8
RACCORDO
100
AcDbLine
 62
250
  6
CONTINUOUS
 10
-105.2430203009
 20
-25.5809975124
 11
-105.2430203009
 21
-25.9181413667
  0
LINE
  5
5BC
100
AcDbEntity
  8
ASSI
100
AcDbLine
 62
7
  6
CONTINUOUS
 10
-105.0500002002
 20
26.475
 11
-105.0500002002
 21
26.156801895
  0
LINE
  5
5BD
100
AcDbEntity
  8
RACCORDO
100
AcDbLine
 62
7
  6
CONTINUOUS
 10
-105.0500002002
 20
-25.5809975124
 11
-105.0500002002
 21
-26.156801895
  0
LINE
  5
5BE
100
AcDbEntity
  8
ASSI
100
AcDbLine
 62
7
  6
CONTINUOUS
 10
-105.0500002002
 20
-26.156801895
 11
-105.0500002002
 21
-26.475
  0
LINE
  5
5BF
100
AcDbEntity
  8
RACCORDO
100
AcDbLine
 62
7
  6
CONTINUOUS
 10
-105.0500002002
 20
25.5809975124
 11
-105.0500002002
 21
26.156801895
  0
LINE
  5
5C0
100
AcDbEntity
  8
RACCORDO
100
AcDbLine
 62
250
  6
CONTINUOUS
 10
-105.2489530075
 20
26.0595607844
 11
-105.2488678084
 21
26.2997097216
  0
LWPOLYLINE
  5
5C1
100
AcDbEntity
  8
RACCORDO
100
AcDbPolyline
 62
250
  6
CONTINUOUS
 90
15
 70
0
 10
-107.092895922
 20
25.4
 10
-107.0930484494
 20
25.3584176907
 10
-107.0932375422
 20
25.3381966395
 10
-107.0934993653
 20
25.3186527156
 10
-107.0938310503
 20
25.3000000465
 10
-107.094228963
 20
25.2824429954
 10
-107.0946887439
 20
25.2661739213
 10
-107.0952053556
 20
25.2513710721
 10
-107.095773138
 20
25.2381966317
 10
-107.0963858703
 20
25.2267949425
 10
-107.0970368393
 20
25.2172909244
 10
-107.0977189128
 20
25.2097887063
 10
-107.0984246179
 20
25.2043704844
 10
-107.0991462228
 20
25.2010956221
 10
-107.0998758214
 20
25.2
  0
LWPOLYLINE
  5
5C2
100
AcDbEntity
  8
RACCORDO
100
AcDbPolyline
 62
250
  6
CONTINUOUS
 90
3
 70
0
 10
-105.2446633205
 20
-25.9694271024
 10
-105.2440672114
 20
-25.9524643858
 10
-105.2430203009
 20
-25.9181413667
  0
LWPOLYLINE
  5
5C3
100
AcDbEntity
  8
RACCORDO
100
AcDbPolyline
 62
250
  6
CONTINUOUS
 90
11
 70
0
 10
-107.0043056587
 20
-25.3046654777
 10
-107.0029594553
 20
-25.2872196414
 10
-107.001802104
 20
-25.2710473055
 10
-107.0008462292
 20
-25.2563248756
 10
-107.0001022572
 20
-25.2432129416
 10
-106.9995783033
 20
-25.2318545266
 10
-106.9992800826
 20
-25.2223735264
 10
-106.999210848
 20
-25.2148733581
 10
-106.9993713548
 20
-25.2094358325
 10
-106.9997598522
 20
-25.2061202611
 10
-107.0003721023
 20
-25.2049628098
  0
LINE
  5
5C4
100
AcDbEntity
  8
RACCORDO
100
AcDbLine
 62
250
  6
CONTINUOUS
 10
-107.0075039855
 20
-25.3426046498
 11
-107.0043056587
 21
-25.3046654777
  0
LWPOLYLINE
  5
5C5
100
AcDbEntity
  8
RACCORDO
100
AcDbPolyline
 62
250
  6
CONTINUOUS
 90
3
 70
0
 10
-107.0132929468
 20
-25.4039702478
 10
-107.0112579176
 20
-25.3832139955
 10
-107.0075039855
 20
-25.3426046498
  0
LINE
  5
5C6
100
AcDbEntity
  8
DRAFT
100
AcDbLine
 62
7
  6
CONTINUOUS
 10
-112.0500002002
 20
3.6
 11
-114.5500002002
 21
3.4689805518
  0
LINE
  5
5C7
100
AcDbEntity
  8
ASSI
100
AcDbLine
 62
7
  6
CONTINUOUS
 10
-112.0500002002
 20
3.6
 11
-114.5500002002
 21
3.4689805518
  0
LINE
  5
5C8
100
AcDbEntity
  8
RACCORDO
100
AcDbLine
 62
250
  6
CONTINUOUS
 10
-105.2430203009
 20
25.5809975124
 11
-105.2397170809
 21
25.5468910748
  0
LINE
  5
5C9
100
AcDbEntity
  8
RACCORDO
100
AcDbLine
 62
250
  6
CONTINUOUS
 10
-105.2397170809
 20
25.5468910748
 11
-105.236700615
 21
25.5135930112
  0
LWPOLYLINE
  5
5CA
100
AcDbEntity
  8
RACCORDO
100
AcDbPolyline
 62
250
  6
CONTINUOUS
 90
14
 70
0
 10
-105.236700615
 20
25.5135930112
 10
-105.2340698663
 20
25.4821548829
 10
-105.2329290027
 20
25.467476216
 10
-105.2319169263
 20
25.4536453652
 10
-105.2310431549
 20
25.4407913067
 10
-105.2303147172
 20
25.4290200664
 10
-105.2297361874
 20
25.418408705
 10
-105.229311475
 20
25.409028867
 10
-105.2290439264
 20
25.4009500363
 10
-105.2289360301
 20
25.3942403246
 10
-105.2289887445
 20
25.3889553707
 10
-105.2292015472
 20
25.3851354772
 10
-105.2295727479
 20
25.3828080031
 10
-105.2300994564
 20
25.3819900744
  0
LWPOLYLINE
  5
5CB
100
AcDbEntity
  8
RACCORDO
100
AcDbPolyline
 62
250
  6
CONTINUOUS
 90
3
 70
0
 10
-105.2489530075
 20
26.0595607844
 10
-105.2481841752
 20
26.0466354442
 10
-105.2474293413
 20
26.0327224175
  0
LWPOLYLINE
  5
5CC
100
AcDbEntity
  8
RACCORDO
100
AcDbPolyline
 62
7
  6
CONTINUOUS
 90
4
 70
0
 10
-105.0500002002
 20
26.156801895
 10
-105.0509027159
 20
26.1724881564
 10
-105.0534890463
 20
26.187535256
 10
-105.057568981
 20
26.2017849153
  0
LINE
  5
5CD
100
AcDbEntity
  8
RACCORDO
100
AcDbLine
 62
250
  6
CONTINUOUS
 10
-105.2474293413
 20
26.0327224175
 11
-105.2459836535
 21
26.0023439487
  0
LINE
  5
5CE
100
AcDbEntity
  8
RACCORDO
100
AcDbLine
 62
250
  6
CONTINUOUS
 10
-105.2459836535
 20
26.0023439487
 11
-105.2446634887
 21
25.96943168
  0
LINE
  5
5CF
100
AcDbEntity
  8
RACCORDO
100
AcDbLine
 62
250
  6
CONTINUOUS
 10
-105.245983618
 20
-26.0023431354
 11
-105.2446633205
 21
-25.9694271024
  0
LWPOLYLINE
  5
5D0
100
AcDbEntity
  8
RACCORDO
100
AcDbPolyline
 62
250
  6
CONTINUOUS
 90
4
 70
0
 10
-105.2489530075
 20
-26.3117714569
 10
-105.2489191886
 20
-26.3110102304
 10
-105.2488935966
 20
-26.3087327403
 10
-105.2488678084
 20
-26.2997097084
  0
LWPOLYLINE
  5
5D1
100
AcDbEntity
  8
RACCORDO
100
AcDbPolyline
 62
7
  6
CONTINUOUS
 90
4
 70
0
 10
-105.0500002002
 20
-26.156801895
 10
-105.0509023636
 20
-26.1724851416
 10
-105.0534878282
 20
-26.1875299851
 10
-105.0575666652
 20
-26.2017782111
  0
LWPOLYLINE
  5
5D2
100
AcDbEntity
  8
RACCORDO
100
AcDbPolyline
 62
250
  6
CONTINUOUS
 90
4
 70
0
 10
-105.2489530075
 20
-26.0595607844
 10
-105.2481842193
 20
-26.0466362206
 10
-105.2474293968
 20
-26.0327234875
 10
-105.245983618
 20
-26.0023431354
  0
LWPOLYLINE
  5
5D3
100
AcDbEntity
  8
RACCORDO
100
AcDbPolyline
 62
250
  6
CONTINUOUS
 90
12
 70
0
 10
-105.2329143109
 20
-25.4672815925
 10
-105.2319066169
 20
-25.4534994248
 10
-105.2310360622
 20
-25.4406822431
 10
-105.2303092517
 20
-25.4289264138
 10
-105.2297319298
 20
-25.4183238015
 10
-105.2293086494
 20
-25.4089575266
 10
-105.2290426402
 20
-25.4008992666
 10
-105.2289358908
 20
-25.3942095975
 10
-105.2289892119
 20
-25.3889393905
 10
-105.2292021943
 20
-25.3851286739
 10
-105.2295732166
 20
-25.3828063625
 10
-105.2300994564
 20
-25.3819900744
  0
LINE
  5
5D4
100
AcDbEntity
  8
RACCORDO
100
AcDbLine
 62
250
  6
CONTINUOUS
 10
-105.2353111782
 20
-25.4973372124
 11
-105.2329143109
 21
-25.4672815925
  0
LINE
  5
5D5
100
AcDbEntity
  8
RACCORDO
100
AcDbLine
 62
250
  6
CONTINUOUS
 10
-105.2381512762
 20
-25.529905551
 11
-105.2353111782
 21
-25.4973372124
  0
LWPOLYLINE
  5
5D6
100
AcDbEntity
  8
RACCORDO
100
AcDbPolyline
 62
250
  6
CONTINUOUS
 90
3
 70
0
 10
-105.2430203009
 20
-25.5809975124
 10
-105.2413321691
 20
-25.5638352552
 10
-105.2381512762
 20
-25.529905551
  0
LWPOLYLINE
  5
5D7
100
AcDbEntity
  8
0
100
AcDbPolyline
 62
7
  6
CONTINUOUS
 90
10
 70
0
 43
0.3500000006
 10
-125.660076416
 20
56.2524459229
 10
-125.5886452332
 20
56.1095926208
 10
-125.5886452332
 20
56.038161438
 10
-125.7315075989
 20
55.895308136
 10
-125.8029387817
 20
55.895308136
 10
-125.8743609009
 20
55.9667302551
 10
-125.8743609009
 20
56.038161438
 10
-125.8029387817
 20
56.18101474
 10
-125.7315075989
 20
56.2524459229
 10
-125.660076416
 20
56.2524459229
  0
LWPOLYLINE
  5
5D8
100
AcDbEntity
  8
RACCORDO
100
AcDbPolyline
 62
7
  6
CONTINUOUS
 90
12
 70
0
 10
-105.0575666652
 20
-26.2017782111
 10
-105.0629388701
 20
-26.2150662577
 10
-105.069408437
 20
-26.2273369704
 10
-105.0767938332
 20
-26.2386347719
 10
-105.0848948076
 20
-26.2489000079
 10
-105.0935482946
 20
-26.2581324135
 10
-105.1026657168
 20
-26.2664869262
 10
-105.1121149038
 20
-26.2740051999
 10
-105.1217690039
 20
-26.2806728475
 10
-105.1315945605
 20
-26.2865562223
 10
-105.1415165412
 20
-26.2916765079
 10
-105.1514350622
 20
-26.2960712131
  0
LWPOLYLINE
  5
5D9
100
AcDbEntity
  8
RACCORDO
100
AcDbPolyline
 62
7
  6
CONTINUOUS
 90
12
 70
0
 10
-105.057568981
 20
26.2017849153
 10
-105.0629421594
 20
26.2150733578
 10
-105.0694123855
 20
26.227343684
 10
-105.0767983014
 20
26.2386409676
 10
-105.0848997583
 20
26.2489057403
 10
-105.0935535673
 20
26.2581375863
 10
-105.1026711806
 20
26.2664915284
 10
-105.1121204377
 20
26.2740092715
 10
-105.1217744743
 20
26.2806764141
 10
-105.131599844
 20
26.2865592846
 10
-105.1415215297
 20
26.2916790779
 10
-105.1514396405
 20
26.296073317
  0
LINE
  5
5DA
100
AcDbEntity
  8
0
100
AcDbLine
 62
7
  6
CONTINUOUS
 10
-111.6000002002
 20
-25.05
 11
-111.7500002002
 21
-25.2
  0
LINE
  5
5DB
100
AcDbEntity
  8
0
100
AcDbLine
 62
7
  6
CONTINUOUS
 10
-111.1000002002
 20
-25.05
 11
-111.2500002002
 21
-25.2
  0
LINE
  5
5DC
100
AcDbEntity
  8
0
100
AcDbLine
 62
7
  6
CONTINUOUS
 10
-110.6000002002
 20
-25.05
 11
-110.7500002002
 21
-25.2
  0
LINE
  5
5DD
100
AcDbEntity
  8
0
100
AcDbLine
 62
7
  6
CONTINUOUS
 10
-110.1000002002
 20
-25.05
 11
-110.2500002002
 21
-25.2
  0
LINE
  5
5DE
100
AcDbEntity
  8
0
100
AcDbLine
 62
7
  6
CONTINUOUS
 10
-109.6000002002
 20
-25.05
 11
-109.7500002002
 21
-25.2
  0
LINE
  5
5DF
100
AcDbEntity
  8
0
100
AcDbLine
 62
7
  6
CONTINUOUS
 10
-109.1000002002
 20
-25.05
 11
-109.2500002002
 21
-25.2
  0
LINE
  5
5E0
100
AcDbEntity
  8
0
100
AcDbLine
 62
7
  6
CONTINUOUS
 10
-111.7500002002
 20
25.2
 11
-111.6000002002
 21
25.05
  0
LINE
  5
5E1
100
AcDbEntity
  8
0
100
AcDbLine
 62
7
  6
CONTINUOUS
 10
-111.2500002002
 20
25.2
 11
-111.1000002002
 21
25.05
  0
LINE
  5
5E2
100
AcDbEntity
  8
0
100
AcDbLine
 62
7
  6
CONTINUOUS
 10
-110.7500002002
 20
25.2
 11
-110.6000002002
 21
25.05
  0
LINE
  5
5E3
100
AcDbEntity
  8
0
100
AcDbLine
 62
7
  6
CONTINUOUS
 10
-110.2500002002
 20
25.2
 11
-110.1000002002
 21
25.05
  0
LINE
  5
5E4
100
AcDbEntity
  8
0
100
AcDbLine
 62
7
  6
CONTINUOUS
 10
-109.7500002002
 20
25.2
 11
-109.6000002002
 21
25.05
  0
LINE
  5
5E5
100
AcDbEntity
  8
0
100
AcDbLine
 62
7
  6
CONTINUOUS
 10
-109.2500002002
 20
25.2
 11
-109.1000002002
 21
25.05
  0
LWPOLYLINE
  5
5E6
100
AcDbEntity
  8
0
100
AcDbPolyline
 62
7
  6
CONTINUOUS
 90
10
 70
0
 43
0.3500000006
 10
-125.1250721741
 20
66.2263635864
 10
-125.0536409912
 20
66.0835102844
 10
-125.0536409912
 20
66.0120791016
 10
-125.1965033569
 20
65.8692257996
 10
-125.2679345398
 20
65.8692257996
 10
-125.3393566589
 20
65.9406479187
 10
-125.3393566589
 20
66.0120791016
 10
-125.2679345398
 20
66.1549324036
 10
-125.1965033569
 20
66.2263635864
 10
-125.1250721741
 20
66.2263635864
  0
LINE
  5
5E7
100
AcDbEntity
  8
0
100
AcDbLine
 62
7
  6
CONTINUOUS
 10
-108.6000002002
 20
-25.05
 11
-108.7500002002
 21
-25.2
  0
LINE
  5
5E8
100
AcDbEntity
  8
0
100
AcDbLine
 62
7
  6
CONTINUOUS
 10
-108.1000002002
 20
-25.05
 11
-108.2500002002
 21
-25.2
  0
LINE
  5
5E9
100
AcDbEntity
  8
0
100
AcDbLine
 62
7
  6
CONTINUOUS
 10
-107.6000002002
 20
-25.05
 11
-107.7500002002
 21
-25.2
  0
LINE
  5
5EA
100
AcDbEntity
  8
0
100
AcDbLine
 62
7
  6
CONTINUOUS
 10
-108.7500002002
 20
25.2
 11
-108.6000002002
 21
25.05
  0
LINE
  5
5EB
100
AcDbEntity
  8
0
100
AcDbLine
 62
7
  6
CONTINUOUS
 10
-108.2500002002
 20
25.2
 11
-108.1000002002
 21
25.05
  0
LINE
  5
5EC
100
AcDbEntity
  8
0
100
AcDbLine
 62
7
  6
CONTINUOUS
 10
-107.7500002002
 20
25.2
 11
-107.6000002002
 21
25.05
  0
LINE
  5
5ED
100
AcDbEntity
  8
RACCORDO
100
AcDbLine
 62
250
  6
CONTINUOUS
 10
-107.065499647
 20
-26.8316246062
 11
-106.8222982487
 21
-26.6250583679
  0
LWPOLYLINE
  5
5EE
100
AcDbEntity
  8
RACCORDO
100
AcDbPolyline
 62
250
  6
CONTINUOUS
 90
5
 70
0
 10
-107.0739076786
 20
-26.8388452339
 10
-107.0724535489
 20
-26.8376220063
 10
-107.0705796686
 20
-26.8360189988
 10
-107.0682818087
 20
-26.834017387
 10
-107.065499647
 20
-26.8316246062
  0
LWPOLYLINE
  5
5EF
100
AcDbEntity
  8
RACCORDO
100
AcDbPolyline
 62
250
  6
CONTINUOUS
 90
3
 70
0
 10
-107.075849203
 20
-26.8404392198
 10
-107.0755916349
 20
-26.8402314824
 10
-107.0749378287
 20
-26.8397095587
  0
LINE
  5
5F0
100
AcDbEntity
  8
RACCORDO
100
AcDbLine
 62
7
  6
CONTINUOUS
 10
-107.0003721023
 20
25.2049628098
 11
-105.2300994564
 21
25.3819900744
  0
LINE
  5
5F1
100
AcDbEntity
  8
RACCORDO
100
AcDbLine
 62
250
  6
CONTINUOUS
 10
-107.0132929468
 20
25.4039702478
 11
-105.2430203009
 21
25.5809975124
  0
LWPOLYLINE
  5
5F2
100
AcDbEntity
  8
RACCORDO
100
AcDbPolyline
 62
250
  6
CONTINUOUS
 90
10
 70
0
 10
-107.092895922
 20
25.4
 10
-107.0840330202
 20
25.4000491768
 10
-107.0751742934
 20
25.4001963618
 10
-107.0663197417
 20
25.4004415552
 10
-107.0574688895
 20
25.4007847807
 10
-107.0486222124
 20
25.4012260144
 10
-107.0397811369
 20
25.4017651852
 10
-107.0309461386
 20
25.4024022691
 10
-107.0221167419
 20
25.40313729
 10
-107.0132929468
 20
25.4039702478
  0
LINE
  5
5F3
100
AcDbEntity
  8
0
100
AcDbLine
 62
7
  6
CONTINUOUS
 10
-111.6000002002
 20
25.05
 11
-111.4000002002
 21
25.05
  0
LINE
  5
5F4
100
AcDbEntity
  8
0
100
AcDbLine
 62
7
  6
CONTINUOUS
 10
-111.1000002002
 20
25.05
 11
-110.9000002002
 21
25.05
  0
LINE
  5
5F5
100
AcDbEntity
  8
0
100
AcDbLine
 62
7
  6
CONTINUOUS
 10
-110.6000002002
 20
25.05
 11
-110.4000002002
 21
25.05
  0
LINE
  5
5F6
100
AcDbEntity
  8
0
100
AcDbLine
 62
7
  6
CONTINUOUS
 10
-110.1000002002
 20
25.05
 11
-109.9000002002
 21
25.05
  0
LINE
  5
5F7
100
AcDbEntity
  8
0
100
AcDbLine
 62
7
  6
CONTINUOUS
 10
-109.6000002002
 20
25.05
 11
-109.4000002002
 21
25.05
  0
LINE
  5
5F8
100
AcDbEntity
  8
0
100
AcDbLine
 62
7
  6
CONTINUOUS
 10
-109.1000002002
 20
25.05
 11
-108.9000002002
 21
25.05
  0
LINE
  5
5F9
100
AcDbEntity
  8
0
100
AcDbLine
 62
7
  6
CONTINUOUS
 10
-108.6000002002
 20
25.05
 11
-108.4000002002
 21
25.05
  0
LINE
  5
5FA
100
AcDbEntity
  8
0
100
AcDbLine
 62
7
  6
CONTINUOUS
 10
-108.1000002002
 20
25.05
 11
-107.9000002002
 21
25.05
  0
LINE
  5
5FB
100
AcDbEntity
  8
0
100
AcDbLine
 62
7
  6
CONTINUOUS
 10
-107.6000002002
 20
25.05
 11
-107.4000002002
 21
25.05
  0
LINE
  5
5FC
100
AcDbEntity
  8
RACCORDO
100
AcDbLine
 62
7
  6
CONTINUOUS
 10
-112.0500002002
 20
25.2
 11
-107.0998758214
 21
25.2
  0
LINE
  5
5FD
100
AcDbEntity
  8
RACCORDO
100
AcDbLine
 62
250
  6
CONTINUOUS
 10
-112.0500002002
 20
25.4
 11
-107.092895922
 21
25.4
  0
LINE
  5
5FE
100
AcDbEntity
  8
RACCORDO
100
AcDbLine
 62
250
  6
CONTINUOUS
 10
-105.2430203009
 20
25.5809975124
 11
-105.0500002002
 21
25.5809975124
  0
LINE
  5
5FF
100
AcDbEntity
  8
RACCORDO
100
AcDbLine
 62
250
  6
CONTINUOUS
 10
-107.0757304271
 20
26.8403626201
 11
-107.0758517069
 21
26.8404457988
  0
LINE
  5
600
100
AcDbEntity
  8
RACCORDO
100
AcDbLine
 62
250
  6
CONTINUOUS
 10
-106.8222982487
 20
26.6250583679
 11
-107.0746947265
 21
26.8394676003
  0
LINE
  5
601
100
AcDbEntity
  8
RACCORDO
100
AcDbLine
 62
250
  6
CONTINUOUS
 10
-107.0746947265
 20
26.8394676003
 11
-107.0757304271
 21
26.8403626201
  0
LWPOLYLINE
  5
602
100
AcDbEntity
  8
RACCORDO
100
AcDbPolyline
 62
7
  6
CONTINUOUS
 90
7
 70
0
 10
-105.1514350622
 20
-26.2960712131
 10
-105.1613085345
 20
-26.2998237618
 10
-105.1710608188
 20
-26.3029721529
 10
-105.1806510385
 20
-26.3055631884
 10
-105.1901113321
 20
-26.3076829386
 10
-105.1994326442
 20
-26.3093795505
 10
-105.208559086
 20
-26.3106750548
  0
LINE
  5
603
100
AcDbEntity
  8
RACCORDO
100
AcDbLine
 62
250
  6
CONTINUOUS
 10
-112.0500002002
 20
25.7308412095
 11
-105.2430203009
 21
25.9181413667
  0
LINE
  5
604
100
AcDbEntity
  8
RACCORDO
100
AcDbLine
 62
250
  6
CONTINUOUS
 10
-112.0500002002
 20
25.8724238709
 11
-105.2489530075
 21
26.0595607844
  0
LWPOLYLINE
  5
605
100
AcDbEntity
  8
RACCORDO
100
AcDbPolyline
 62
250
  6
CONTINUOUS
 90
15
 70
0
 10
-105.1987982747
 20
26.3501367414
 10
-105.1992933817
 20
26.3501349289
 10
-105.1998717182
 20
26.3498731636
 10
-105.2005385892
 20
26.3493284463
 10
-105.2012986364
 20
26.3484783073
 10
-105.2021574562
 20
26.3472991622
 10
-105.2031221181
 20
26.3457642264
 10
-105.2041977448
 20
26.3438486758
 10
-105.2053894756
 20
26.3415275452
 10
-105.2067051383
 20
26.3387698037
 10
-105.2081503149
 20
26.3355478529
 10
-105.2097289093
 20
26.3318376715
 10
-105.211446403
 20
26.327611429
 10
-105.2133068833
 20
26.3228442381
 10
-105.2153126671
 20
26.3175157163
  0
LINE
  5
606
100
AcDbEntity
  8
RACCORDO
100
AcDbLine
 62
250
  6
CONTINUOUS
 10
-105.2430203009
 20
25.9181413667
 11
-105.0500002002
 21
25.9181413667
  0
LINE
  5
607
100
AcDbEntity
  8
RACCORDO
100
AcDbLine
 62
250
  6
CONTINUOUS
 10
-105.0500002002
 20
26.275
 11
-105.088835204
 21
26.275
  0
LINE
  5
608
100
AcDbEntity
  8
RACCORDO
100
AcDbLine
 62
7
  6
CONTINUOUS
 10
-105.6702731005
 20
26.475
 11
-105.0500002002
 21
26.475
  0
LINE
  5
609
100
AcDbEntity
  8
RACCORDO
100
AcDbLine
 62
250
  6
CONTINUOUS
 10
-112.0500002002
 20
26.6274198511
 11
-106.8222982487
 21
26.6250583679
  0
LINE
  5
60A
100
AcDbEntity
  8
DRAFT
100
AcDbLine
 62
7
  6
CONTINUOUS
 10
-112.0500002002
 20
26.8491273345
 11
-107.0757797056
 21
26.8404456731
  0
LINE
  5
60B
100
AcDbEntity
  8
RACCORDO
100
AcDbLine
 62
250
  6
CONTINUOUS
 10
-105.2489530075
 20
26.2531936162
 11
-112.0500002002
 21
26.2888041414
  0
LINE
  5
60C
100
AcDbEntity
  8
RACCORDO
100
AcDbLine
 62
7
  6
CONTINUOUS
 10
-105.217465725
 20
26.3116065883
 11
-112.0500002002
 21
26.3473819822
  0
LWPOLYLINE
  5
60D
100
AcDbEntity
  8
RACCORDO
100
AcDbPolyline
 62
250
  6
CONTINUOUS
 90
19
 70
0
 10
-105.2489530075
 20
26.2531936162
 10
-105.2316141518
 20
26.2525966989
 10
-105.2144064131
 20
26.2509379192
 10
-105.1974598057
 20
26.248228416
 10
-105.1809012192
 20
26.2444869161
 10
-105.1648578456
 20
26.2397405602
 10
-105.149455707
 20
26.2340255888
 10
-105.1348117147
 20
26.2273847793
 10
-105.1210370149
 20
26.2198679005
 10
-105.1082394106
 20
26.2115336054
 10
-105.0965168496
 20
26.202446303
 10
-105.0859561174
 20
26.1926739478
 10
-105.0766358083
 20
26.1822894011
 10
-105.0686260942
 20
26.1713704805
 10
-105.0619882955
 20
26.1600003515
 10
-105.0567730656
 20
26.1482658033
 10
-105.0530197674
 20
26.1362559167
 10
-105.0507564944
 20
26.1240612987
 10
-105.0500002002
 20
26.1117741985
  0
LWPOLYLINE
  5
60E
100
AcDbEntity
  8
RACCORDO
100
AcDbPolyline
 62
250
  6
CONTINUOUS
 90
19
 70
0
 10
-105.2489530075
 20
26.0595607844
 10
-105.2315855657
 20
26.0589619995
 10
-105.2143543043
 20
26.0572984185
 10
-105.1973896213
 20
26.0545820626
 10
-105.1808192836
 20
26.0508327394
 10
-105.1647696903
 20
26.0460783828
 10
-105.1493646575
 20
26.040355293
 10
-105.1347212989
 20
26.0337068783
 10
-105.1209501346
 20
26.0261832118
 10
-105.1081561525
 20
26.0178415827
 10
-105.0964361061
 20
26.0087450891
 10
-105.085878814
 20
25.9989626837
 10
-105.0765648183
 20
25.9885692316
 10
-105.0685621717
 20
25.9776402818
 10
-105.0619340642
 20
25.9662616767
 10
-105.0567346051
 20
25.9545309926
 10
-105.0529995734
 20
25.9425417051
 10
-105.0507506763
 20
25.9303812035
 10
-105.0500002002
 20
25.9181413667
  0
LINE
  5
60F
100
AcDbEntity
  8
RACCORDO
100
AcDbLine
 62
7
  6
CONTINUOUS
 10
-105.2028413073
 20
26.3120170811
 11
-105.2175695659
 21
26.3131415398
  0
LINE
  5
610
100
AcDbEntity
  8
RACCORDO
100
AcDbLine
 62
7
  6
CONTINUOUS
 10
-105.2085594778
 20
26.3106751394
 11
-105.2174657249
 21
26.3116065884
  0
LWPOLYLINE
  5
611
100
AcDbEntity
  8
RACCORDO
100
AcDbPolyline
 62
7
  6
CONTINUOUS
 90
4
 70
0
 10
-107.0250049904
 20
26.8337810611
 10
-107.0436654345
 20
26.8377795122
 10
-107.0626243378
 20
26.8399785674
 10
-107.0757803002
 20
26.8404353488
  0
LINE
  5
612
100
AcDbEntity
  8
RACCORDO
100
AcDbLine
 62
250
  6
CONTINUOUS
 10
-105.6472232098
 20
26.3138568139
 11
-106.8222982487
 21
26.6250583679
  0
LINE
  5
613
100
AcDbEntity
  8
RACCORDO
100
AcDbLine
 62
7
  6
CONTINUOUS
 10
-105.1987982747
 20
26.3501367414
 11
-107.0250122705
 21
26.8337829892
  0
LWPOLYLINE
  5
614
100
AcDbEntity
  8
RACCORDO
100
AcDbPolyline
 62
7
  6
CONTINUOUS
 90
7
 70
0
 10
-105.1514396405
 20
26.296073317
 10
-105.1613125621
 20
26.2998254062
 10
-105.1710640759
 20
26.302973321
 10
-105.1806533899
 20
26.3055639232
 10
-105.1901128707
 20
26.3076833577
 10
-105.1994335509
 20
26.3093797681
 10
-105.2085594778
 20
26.3106751394
  0
LWPOLYLINE
  5
615
100
AcDbEntity
  8
RACCORDO
100
AcDbPolyline
 62
250
  6
CONTINUOUS
 90
5
 70
0
 10
-113.7961058377
 20
-44.1286569522
 10
-113.7945735493
 20
-44.127540542
 10
-113.7896300641
 20
-44.1251680764
 10
-113.7813114539
 20
-44.1215568668
 10
-113.7696784178
 20
-44.1167332636
  0
LWPOLYLINE
  5
616
100
AcDbEntity
  8
ASSI
100
AcDbPolyline
 62
250
  6
CONTINUOUS
 90
5
 70
0
 10
-113.7961058377
 20
-44.1286569522
 10
-113.7945735493
 20
-44.127540542
 10
-113.7896300641
 20
-44.1251680764
 10
-113.7813114539
 20
-44.1215568668
 10
-113.7696784178
 20
-44.1167332636
  0
LWPOLYLINE
  5
617
100
AcDbEntity
  8
RACCORDO
100
AcDbPolyline
 62
250
  6
CONTINUOUS
 90
5
 70
0
 10
-113.7961058377
 20
44.1286569522
 10
-113.7945735513
 20
44.127540534
 10
-113.7896300663
 20
44.1251680606
 10
-113.7813114547
 20
44.1215568435
 10
-113.769678416
 20
44.1167332333
  0
LWPOLYLINE
  5
618
100
AcDbEntity
  8
ASSI
100
AcDbPolyline
 62
250
  6
CONTINUOUS
 90
5
 70
0
 10
-113.7961058377
 20
44.1286569522
 10
-113.7945735513
 20
44.127540534
 10
-113.7896300663
 20
44.1251680606
 10
-113.7813114547
 20
44.1215568435
 10
-113.769678416
 20
44.1167332333
  0
LINE
  5
619
100
AcDbEntity
  8
RACCORDO
100
AcDbLine
 62
250
  6
CONTINUOUS
 10
-113.7696784178
 20
-44.1167332636
 11
-113.7548158398
 21
-44.1107324635
  0
LINE
  5
61A
100
AcDbEntity
  8
ASSI
100
AcDbLine
 62
250
  6
CONTINUOUS
 10
-113.7696784178
 20
-44.1167332636
 11
-113.7548158398
 21
-44.1107324635
  0
LINE
  5
61B
100
AcDbEntity
  8
RACCORDO
100
AcDbLine
 62
250
  6
CONTINUOUS
 10
-113.7548158398
 20
-44.1107324635
 11
-113.7158586292
 21
-44.0953826898
  0
LINE
  5
61C
100
AcDbEntity
  8
ASSI
100
AcDbLine
 62
250
  6
CONTINUOUS
 10
-113.7548158398
 20
-44.1107324635
 11
-113.7158586292
 21
-44.0953826898
  0
LINE
  5
61D
100
AcDbEntity
  8
RACCORDO
100
AcDbLine
 62
250
  6
CONTINUOUS
 10
-113.7158586292
 20
-44.0953826898
 11
-113.6655748006
 21
-44.0759547459
  0
LINE
  5
61E
100
AcDbEntity
  8
ASSI
100
AcDbLine
 62
250
  6
CONTINUOUS
 10
-113.7158586292
 20
-44.0953826898
 11
-113.6655748006
 21
-44.0759547459
  0
LINE
  5
61F
100
AcDbEntity
  8
RACCORDO
100
AcDbLine
 62
250
  6
CONTINUOUS
 10
-113.6655748006
 20
-44.0759547459
 11
-113.5721961738
 21
-44.0404329086
  0
LINE
  5
620
100
AcDbEntity
  8
ASSI
100
AcDbLine
 62
250
  6
CONTINUOUS
 10
-113.6655748006
 20
-44.0759547459
 11
-113.5721961738
 21
-44.0404329086
  0
LINE
  5
621
100
AcDbEntity
  8
RACCORDO
100
AcDbLine
 62
250
  6
CONTINUOUS
 10
-113.5721961738
 20
-44.0404329086
 11
-113.423987512
 21
-43.9848832151
  0
LINE
  5
622
100
AcDbEntity
  8
ASSI
100
AcDbLine
 62
250
  6
CONTINUOUS
 10
-113.5721961738
 20
-44.0404329086
 11
-113.423987512
 21
-43.9848832151
  0
LINE
  5
623
100
AcDbEntity
  8
RACCORDO
100
AcDbLine
 62
250
  6
CONTINUOUS
 10
-113.423987512
 20
-43.9848832151
 11
-113.3445320134
 21
-43.9554031259
  0
LINE
  5
624
100
AcDbEntity
  8
ASSI
100
AcDbLine
 62
250
  6
CONTINUOUS
 10
-113.423987512
 20
-43.9848832151
 11
-113.3445320134
 21
-43.9554031259
  0
LINE
  5
625
100
AcDbEntity
  8
RACCORDO
100
AcDbLine
 62
250
  6
CONTINUOUS
 10
-113.5006197419
 20
44.0135043875
 11
-113.3445320134
 21
43.9554031259
  0
LINE
  5
626
100
AcDbEntity
  8
ASSI
100
AcDbLine
 62
250
  6
CONTINUOUS
 10
-113.5006197419
 20
44.0135043875
 11
-113.3445320134
 21
43.9554031259
  0
LINE
  5
627
100
AcDbEntity
  8
RACCORDO
100
AcDbLine
 62
250
  6
CONTINUOUS
 10
-113.6366313977
 20
44.0648840751
 11
-113.5006197419
 21
44.0135043875
  0
LINE
  5
628
100
AcDbEntity
  8
ASSI
100
AcDbLine
 62
250
  6
CONTINUOUS
 10
-113.6366313977
 20
44.0648840751
 11
-113.5006197419
 21
44.0135043875
  0
LINE
  5
629
100
AcDbEntity
  8
RACCORDO
100
AcDbLine
 62
250
  6
CONTINUOUS
 10
-113.6920482411
 20
44.0861456709
 11
-113.6366313977
 21
44.0648840751
  0
LINE
  5
62A
100
AcDbEntity
  8
ASSI
100
AcDbLine
 62
250
  6
CONTINUOUS
 10
-113.6920482411
 20
44.0861456709
 11
-113.6366313977
 21
44.0648840751
  0
LINE
  5
62B
100
AcDbEntity
  8
RACCORDO
100
AcDbLine
 62
250
  6
CONTINUOUS
 10
-113.7368321594
 20
44.1035982113
 11
-113.6920482411
 21
44.0861456709
  0
LINE
  5
62C
100
AcDbEntity
  8
ASSI
100
AcDbLine
 62
250
  6
CONTINUOUS
 10
-113.7368321594
 20
44.1035982113
 11
-113.6920482411
 21
44.0861456709
  0
LWPOLYLINE
  5
62D
100
AcDbEntity
  8
RACCORDO
100
AcDbPolyline
 62
250
  6
CONTINUOUS
 90
3
 70
0
 10
-113.769678416
 20
44.1167332333
 10
-113.7548158343
 20
44.110732427
 10
-113.7368321594
 20
44.1035982113
  0
LWPOLYLINE
  5
62E
100
AcDbEntity
  8
ASSI
100
AcDbPolyline
 62
250
  6
CONTINUOUS
 90
3
 70
0
 10
-113.769678416
 20
44.1167332333
 10
-113.7548158343
 20
44.110732427
 10
-113.7368321594
 20
44.1035982113
  0
LINE
  5
62F
100
AcDbEntity
  8
RACCORDO
100
AcDbLine
 62
250
  6
CONTINUOUS
 10
-113.3445320134
 20
43.9554031259
 11
-112.0500002002
 21
44.000609173
  0
LINE
  5
630
100
AcDbEntity
  8
ASSI
100
AcDbLine
 62
250
  6
CONTINUOUS
 10
-113.3445320134
 20
43.9554031259
 11
-112.0500002002
 21
44.000609173
  0
LINE
  5
631
100
AcDbEntity
  8
RACCORDO
100
AcDbLine
 62
7
  6
CONTINUOUS
 10
-112.6545173461
 20
44.9788897961
 11
-112.0500002002
 21
45.0
  0
LINE
  5
632
100
AcDbEntity
  8
ASSI
100
AcDbLine
 62
7
  6
CONTINUOUS
 10
-112.6545173461
 20
44.9788897961
 11
-112.0500002002
 21
45.0
  0
LWPOLYLINE
  5
633
100
AcDbEntity
  8
0
100
AcDbPolyline
 62
7
  6
CONTINUOUS
 90
3
 70
0
 43
0.3500000006
 10
-127.1600768738
 20
56.3953082886
 10
-128.6600773315
 20
56.3953082886
 10
-128.017223877
 20
58.7524466858
  0
LINE
  5
634
100
AcDbEntity
  8
RACCORDO
100
AcDbLine
 62
250
  6
CONTINUOUS
 10
-113.7531594389
 20
44.1641190272
 11
-113.7379267956
 21
44.1606688568
  0
LINE
  5
635
100
AcDbEntity
  8
ASSI
100
AcDbLine
 62
250
  6
CONTINUOUS
 10
-113.7531594389
 20
44.1641190272
 11
-113.7379267956
 21
44.1606688568
  0
LWPOLYLINE
  5
636
100
AcDbEntity
  8
RACCORDO
100
AcDbPolyline
 62
250
  6
CONTINUOUS
 90
14
 70
0
 10
-113.7379267956
 20
44.1606688568
 10
-113.7197064771
 20
44.1560252075
 10
-113.6986268152
 20
44.1502207844
 10
-113.6748362848
 20
44.1432964734
 10
-113.6485024635
 20
44.1353010441
 10
-113.6198108412
 20
44.1262908123
 10
-113.5889635192
 20
44.1163292463
 10
-113.5561777928
 20
44.1054865169
 10
-113.5216846073
 20
44.0938389977
 10
-113.4857269379
 20
44.0814687353
 10
-113.4485580872
 20
44.0684628749
 10
-113.4104398861
 20
44.0549130333
 10
-113.3716408479
 20
44.0409146529
 10
-113.3324342864
 20
44.0265663387
  0
LWPOLYLINE
  5
637
100
AcDbEntity
  8
ASSI
100
AcDbPolyline
 62
250
  6
CONTINUOUS
 90
14
 70
0
 10
-113.7379267956
 20
44.1606688568
 10
-113.7197064771
 20
44.1560252075
 10
-113.6986268152
 20
44.1502207844
 10
-113.6748362848
 20
44.1432964734
 10
-113.6485024635
 20
44.1353010441
 10
-113.6198108412
 20
44.1262908123
 10
-113.5889635192
 20
44.1163292463
 10
-113.5561777928
 20
44.1054865169
 10
-113.5216846073
 20
44.0938389977
 10
-113.4857269379
 20
44.0814687353
 10
-113.4485580872
 20
44.0684628749
 10
-113.4104398861
 20
44.0549130333
 10
-113.3716408479
 20
44.0409146529
 10
-113.3324342864
 20
44.0265663387
  0
ARC
  5
638
100
AcDbEntity
  8
RACCORDO
100
AcDbCircle
 62
7
  6
CONTINUOUS
 10
-112.6108929752
 20
-43.7296512623
 40
1.25
100
AcDbArc
 50
200.4128110386
 51
268.0
  0
ARC
  5
639
100
AcDbEntity
  8
ASSI
100
AcDbCircle
 62
7
  6
CONTINUOUS
 10
-112.6108929752
 20
-43.7296512623
 40
1.25
100
AcDbArc
 50
200.4128110386
 51
268.0
  0
ARC
  5
63A
100
AcDbEntity
  8
RACCORDO
100
AcDbCircle
 62
7
  6
CONTINUOUS
 10
-112.6108929752
 20
43.7296512623
 40
1.25
100
AcDbArc
 50
92.0
 51
159.5871889614
  0
ARC
  5
63B
100
AcDbEntity
  8
ASSI
100
AcDbCircle
 62
7
  6
CONTINUOUS
 10
-112.6108929752
 20
43.7296512623
 40
1.25
100
AcDbArc
 50
92.0
 51
159.5871889614
  0
ARC
  5
63C
100
AcDbEntity
  8
RACCORDO
100
AcDbCircle
 62
7
  6
CONTINUOUS
 10
-107.0998758214
 20
-26.2
 40
1.0
100
AcDbArc
 50
84.2894068625
 51
90.0
  0
ARC
  5
63D
100
AcDbEntity
  8
RACCORDO
100
AcDbCircle
 62
7
  6
CONTINUOUS
 10
-105.2500002002
 20
-26.156801895
 40
0.2
100
AcDbArc
 50
284.8334185597
 51
360.0
  0
ARC
  5
63E
100
AcDbEntity
  8
RACCORDO
100
AcDbCircle
 62
7
  6
CONTINUOUS
 10
-105.2500002002
 20
-26.1117741985
 40
0.2
100
AcDbArc
 50
270.3
 51
360.0
  0
ARC
  5
63F
100
AcDbEntity
  8
RACCORDO
100
AcDbCircle
 62
7
  6
CONTINUOUS
 10
-105.2500002002
 20
-25.5809975124
 40
0.2
100
AcDbArc
 50
0.0
 51
84.2894068625
  0
ARC
  5
640
100
AcDbEntity
  8
RACCORDO
100
AcDbCircle
 62
7
  6
CONTINUOUS
 10
-107.0998758214
 20
26.2
 40
1.0
100
AcDbArc
 50
270.0
 51
275.7105931375
  0
ARC
  5
641
100
AcDbEntity
  8
RACCORDO
100
AcDbCircle
 62
7
  6
CONTINUOUS
 10
-105.2500002002
 20
26.156801895
 40
0.2
100
AcDbArc
 50
0.0
 51
75.1665814403
  0
ARC
  5
642
100
AcDbEntity
  8
RACCORDO
100
AcDbCircle
 62
7
  6
CONTINUOUS
 10
-105.2500002002
 20
26.1117741985
 40
0.2
100
AcDbArc
 50
0.0
 51
89.7
  0
ARC
  5
643
100
AcDbEntity
  8
RACCORDO
100
AcDbCircle
 62
7
  6
CONTINUOUS
 10
-105.2500002002
 20
25.5809975124
 40
0.2
100
AcDbArc
 50
275.7105931375
 51
360.0
  0
ELLIPSE
  5
644
100
AcDbEntity
  8
RACCORDO
100
AcDbEllipse
 62
7
  6
CONTINUOUS
 10
-71.2493904557
 20
-43.9993904557
 30
0.0
 11
0.7079685446
 21
0.7079685446
 31
0.0
 40
0.998782766
 41
2.3568034778
 42
3.9263818294
  0
ELLIPSE
  5
645
100
AcDbEntity
  8
RACCORDO
100
AcDbEllipse
 62
7
  6
CONTINUOUS
 10
71.2493904557
 20
-43.9993904557
 30
0.0
 11
0.7079685446
 21
-0.7079685446
 31
0.0
 40
0.998782766
 41
-0.7847891758
 42
0.7847891758
  0
ELLIPSE
  5
646
100
AcDbEntity
  8
RACCORDO
100
AcDbEllipse
 62
7
  6
CONTINUOUS
 10
71.2493904557
 20
43.9993904557
 30
0.0
 11
0.7079685446
 21
0.7079685446
 31
0.0
 40
0.998782766
 41
-0.7847891758
 42
0.7847891758
  0
ELLIPSE
  5
647
100
AcDbEntity
  8
RACCORDO
100
AcDbEllipse
 62
7
  6
CONTINUOUS
 10
-71.2493904557
 20
43.9993904557
 30
0.0
 11
0.7079685446
 21
-0.7079685446
 31
0.0
 40
0.998782766
 41
2.3568034778
 42
3.9263818294
  0
ELLIPSE
  5
648
100
AcDbEntity
  8
ASSI
100
AcDbEllipse
 62
7
  6
CONTINUOUS
 10
-71.2493904557
 20
-43.9993904557
 30
0.0
 11
0.7079685446
 21
0.7079685446
 31
0.0
 40
0.998782766
 41
2.3568034778
 42
3.9263818294
  0
ELLIPSE
  5
649
100
AcDbEntity
  8
ASSI
100
AcDbEllipse
 62
7
  6
CONTINUOUS
 10
71.2493904557
 20
-43.9993904557
 30
0.0
 11
0.7079685446
 21
-0.7079685446
 31
0.0
 40
0.998782766
 41
-0.7847891758
 42
0.7847891758
  0
ELLIPSE
  5
64A
100
AcDbEntity
  8
ASSI
100
AcDbEllipse
 62
7
  6
CONTINUOUS
 10
71.2493904557
 20
43.9993904557
 30
0.0
 11
0.7079685446
 21
0.7079685446
 31
0.0
 40
0.998782766
 41
-0.7847891758
 42
0.7847891758
  0
ELLIPSE
  5
64B
100
AcDbEntity
  8
ASSI
100
AcDbEllipse
 62
7
  6
CONTINUOUS
 10
-71.2493904557
 20
43.9993904557
 30
0.0
 11
0.7079685446
 21
-0.7079685446
 31
0.0
 40
0.998782766
 41
2.3568034778
 42
3.9263818294
  0
ENDSEC
  0
SECTION
  2
OBJECTS
  0
DICTIONARY
  5
C
100
AcDbDictionary
280
0
281
1
  3
ACAD_GROUP
350
D
  3
ACAD_MLINESTYLE
350
17
  3
ACAD_LAYOUT
350
1A
  3
ACAD_PLOTSETTINGS
350
19
  3
ACAD_PLOTSTYLENAME
350
E
  0
DICTIONARY
  5
D
102
{ACAD_REACTORS
330
C
102
}
100
AcDbDictionary
280
0
281
1
  0
ACDBDICTIONARYWDFLT
  5
E
102
{ACAD_REACTORS
330
C
102
}
100
AcDbDictionary
281
1
  3
Normal
350
F
100
AcDbDictionaryWithDefault
340
F
  0
DICTIONARY
  5
17
102
{ACAD_REACTORS
330
C
102
}
100
AcDbDictionary
280
0
281
1
  3
Standard
350
18
  0
DICTIONARY
  5
19
102
{ACAD_REACTORS
330
C
102
}
100
AcDbDictionary
281
1
  0
DICTIONARY
  5
1A
102
{ACAD_REACTORS
330
C
102
}
100
AcDbDictionary
281
1
  3
Model
350
64C
  3
Layout1
350
64D
  0
ACDBPLACEHOLDER
  5
F
102
{ACAD_REACTORS
330
E
102
}
  0
MLINESTYLE
  5
18
102
{ACAD_REACTORS
330
17
102
}
100
AcDbMlineStyle
  2
STANDARD
 70
0
  3

 62
256
 51
90.0
 52
90.0
 71
2
 49
0.5
 62
256
  6
BYLAYER
 49
-0.5
 62
256
  6
BYLAYER
  0
LAYOUT
  5
64C
102
{ACAD_REACTORS
330
1A
102
}
100
AcDbPlotSettings
  1

  2
none_device
  4
ISO_A4_(297.00_x_210.00_MM)
  6

 40
0.0
 41
0.0
 42
0.0
 43
0.0
 44
297.0
 45
210.0
 46
0.0
 47
0.0
 48
0.0
 49
0.0
140
0.0
141
0.0
142
1.0
143
1.0
 70
1024
 72
1
 73
0
 74
0
  7

 75
0
147
1.0
148
0.0
149
0.0
100
AcDbLayout
  1
Model
 70
0
 71
0
 10
0.0
 20
0.0
 11
297.0
 21
210.0
 12
0.0
 22
0.0
 32
0.0
 14
0.0
 24
0.0
 34
0.0
 15
0.0
 25
0.0
 35
0.0
146
0.0
 13
0.0
 23
0.0
 33
0.0
 16
1.0
 26
0.0
 36
0.0
 17
0.0
 27
1.0
 37
0.0
 76
0
330
214
345
0
346
0
  0
LAYOUT
  5
64D
102
{ACAD_REACTORS
330
1A
102
}
100
AcDbPlotSettings
  1

  2
none_device
  4
ISO_A4_(297.00_x_210.00_MM)
  6

 40
0.0
 41
0.0
 42
0.0
 43
0.0
 44
297.0
 45
210.0
 46
0.0
 47
0.0
 48
0.0
 49
0.0
140
0.0
141
0.0
142
1.0
143
1.0
 70
0
 72
1
 73
0
 74
0
  7

 75
0
147
1.0
148
0.0
149
0.0
100
AcDbLayout
  1
Layout1
 70
0
 71
1
 10
0.0
 20
0.0
 11
297.0
 21
210.0
 12
0.0
 22
0.0
 32
0.0
 14
0.0
 24
0.0
 34
0.0
 15
0.0
 25
0.0
 35
0.0
146
0.0
 13
0.0
 23
0.0
 33
0.0
 16
1.0
 26
0.0
 36
0.0
 17
0.0
 27
1.0
 37
0.0
 76
0
330
215
345
0
346
0
  0
ENDSEC
  0
EOF
