  0
SECTION
  2
HEADER
  9
$ACADVER
  1
AC1024
  9
$DWGCODEPAGE
  3
ANSI_1252
  9
$EXTMAX
 10
297.0
 20
210.0
 30
0.0
  9
$EXTMIN
 10
0.0
 20
0.0
 30
0.0
  9
$LIMMIN
 10
0.0
 20
0.0
  9
$LIMMAX
 10
297.0
 20
210.0
  9
$VIEWCTR
 10
148.5
 20
105.0
  9
$VIEWSIZE
 40
210.0
  9
$CLAYER
  8
0
  9
$LTSCALE
 40
16.335
  9
$CELTYPE
  6
BYLAYER
  9
$DIMSCALE
 40
1.0
  9
$DIMASZ
 40
3.0
  9
$DIMEXO
 40
0.5
  9
$DIMDLI
 40
11.286
  9
$DIMEXE
 40
1.5
  9
$DIMCEN
 40
2.673
  9
$DIMLFAC
 40
1.0
  9
$DIMBLK
  1
_FILLED
  9
$DIMALT
 70
0
  9
$DIMALTF
 40
0.0393700787
  9
$DIMTXT
 40
3.0
  9
$DIMTOL
 70
1
  9
$DIMLIM
 70
0
  9
$DIMTFAC
 40
1.0
  9
$DIMTP
 40
0.01
  9
$DIMTM
 40
0.01
  9
$DIMGAP
 40
0.625
  9
$DIMDSEP
 70
44
  9
$AUNITS
 70
0
  9
$PDMODE
 70
3
  9
$PDSIZE
 40
3.0
  9
$HANDSEED
  5
54D
  9
$TILEMODE
 70
1
  9
$MEASUREMENT
 70
1
  9
$INSUNITS
 70
4
  0
ENDSEC
  0
SECTION
  2
CLASSES
  0
CLASS
  1
ACDBDICTIONARYWDFLT
  2
AcDbDictionaryWithDefault
  3
AutoCAD 2000
 90
0
 91
1
280
0
281
0
  0
CLASS
  1
ACDBPLACEHOLDER
  2
AcDbPlaceHolder
  3
AutoCAD 2000
 90
0
 91
1
280
0
281
0
  0
CLASS
  1
LAYOUT
  2
AcDbLayout
  3
AutoCAD 2000
 90
0
 91
0
280
0
281
0
  0
ENDSEC
  0
SECTION
  2
TABLES
  0
TABLE
  2
VPORT
  5
8
100
AcDbSymbolTable
 70
2
  0
VPORT
  5
1F4
100
AcDbSymbolTableRecord
100
AcDbViewportTableRecord
  2
*ACTIVE
 70
0
 10
0.0
 20
0.0
 11
1.0
 21
1.0
 12
148.5
 22
105.0
 13
0.0
 23
0.0
 14
1.0
 24
1.0
 15
0.0
 25
0.0
 16
0.0
 26
0.0
 36
1.0
 17
0.0
 27
0.0
 37
0.0
 40
210.0
 41
1.4142857143
 42
50.0
 43
0.0
 44
0.0
 50
0.0
 51
0.0
 71
0
 72
100
 73
1
 74
1
 75
0
 76
0
 77
0
 78
0
  0
ENDTAB
  0
TABLE
  2
LTYPE
  5
5
100
AcDbSymbolTable
 70
6
  0
LTYPE
  5
14
100
AcDbSymbolTableRecord
100
AcDbLinetypeTableRecord
  2
BYBLOCK
 70
0
  3

 72
65
 73
0
 40
0.0
  0
LTYPE
  5
15
100
AcDbSymbolTableRecord
100
AcDbLinetypeTableRecord
  2
BYLAYER
 70
0
  3

 72
65
 73
0
 40
0.0
  0
LTYPE
  5
16
100
AcDbSymbolTableRecord
100
AcDbLinetypeTableRecord
  2
CONTINUOUS
 70
64
  3
Solid line
 72
65
 73
0
 40
0.0
  0
LTYPE
  5
1F5
100
AcDbSymbolTableRecord
100
AcDbLinetypeTableRecord
  2
CENTER
 70
64
  3
____ _ ____ _ ____ _ ____ _ ____ _ ____ _ ____
 72
65
 73
4
 40
0.6
 49
0.375
 74
0
 49
-0.075
 74
0
 49
0.075
 74
0
 49
-0.075
 74
0
  0
LTYPE
  5
1F6
100
AcDbSymbolTableRecord
100
AcDbLinetypeTableRecord
  2
HIDDEN
 70
64
  3
- - - - - - - - - - - - - - - - - - - -
 72
65
 73
2
 40
0.2
 49
0.1
 74
0
 49
-0.1
 74
0
  0
LTYPE
  5
1F7
100
AcDbSymbolTableRecord
100
AcDbLinetypeTableRecord
  2
PHANTOM
 70
64
  3
_____ _ _ _____ _ _ _____ _ _ _____
 72
65
 73
6
 40
0.8
 49
0.45
 74
0
 49
-0.05
 74
0
 49
0.1
 74
0
 49
-0.05
 74
0
 49
0.1
 74
0
 49
-0.05
 74
0
  0
LTYPE
  5
1F8
100
AcDbSymbolTableRecord
100
AcDbLinetypeTableRecord
  2
DOT
 70
64
  3
. . . . . . . . . . . . . . . . . . . .
 72
65
 73
2
 40
0.2
 49
0.1
 74
0
 49
-0.1
 74
0
  0
LTYPE
  5
1F9
100
AcDbSymbolTableRecord
100
AcDbLinetypeTableRecord
  2
DASHED
 70
64
  3
- - - - - - - - - - - - - - - - - - - -
 72
65
 73
2
 40
0.2
 49
0.1
 74
0
 49
-0.1
 74
0
  0
ENDTAB
  0
TABLE
  2
LAYER
  5
2
100
AcDbSymbolTable
 70
36
  0
LAYER
  5
10
100
AcDbSymbolTableRecord
100
AcDbLayerTableRecord
  2
0
 70
0
 62
7
  6
CONTINUOUS
370
-3
390
F
  0
LAYER
  5
1FA
100
AcDbSymbolTableRecord
100
AcDbLayerTableRecord
  2
DEFAULT_1
 70
0
 62
7
  6
CENTER
370
-3
390
F
  0
LAYER
  5
1FB
100
AcDbSymbolTableRecord
100
AcDbLayerTableRecord
  2
DEFAULT_2
 70
0
 62
7
  6
HIDDEN
370
-3
390
F
  0
LAYER
  5
1FC
100
AcDbSymbolTableRecord
100
AcDbLayerTableRecord
  2
DEFAULT_3
 70
0
 62
7
  6
PHANTOM
370
-3
390
F
  0
LAYER
  5
1FD
100
AcDbSymbolTableRecord
100
AcDbLayerTableRecord
  2
ASSI
 70
0
 62
7
  6
CONTINUOUS
370
-3
390
F
  0
LAYER
  5
1FE
100
AcDbSymbolTableRecord
100
AcDbLayerTableRecord
  2
COORDINATE
 70
0
 62
7
  6
CONTINUOUS
370
-3
390
F
  0
LAYER
  5
1FF
100
AcDbSymbolTableRecord
100
AcDbLayerTableRecord
  2
COORD_ORIGINE
 70
0
 62
7
  6
CONTINUOUS
370
-3
390
F
  0
LAYER
  5
200
100
AcDbSymbolTableRecord
100
AcDbLayerTableRecord
  2
COPY_PUBLISH
 70
0
 62
7
  6
CONTINUOUS
370
-3
390
F
  0
LAYER
  5
201
100
AcDbSymbolTableRecord
100
AcDbLayerTableRecord
  2
COSMETICI
 70
0
 62
7
  6
CONTINUOUS
370
-3
390
F
  0
LAYER
  5
202
100
AcDbSymbolTableRecord
100
AcDbLayerTableRecord
  2
CURVE
 70
0
 62
7
  6
CONTINUOUS
370
-3
390
F
  0
LAYER
  5
203
100
AcDbSymbolTableRecord
100
AcDbLayerTableRecord
  2
DRAFT
 70
0
 62
7
  6
CONTINUOUS
370
-3
390
F
  0
LAYER
  5
204
100
AcDbSymbolTableRecord
100
AcDbLayerTableRecord
  2
IMPORT_IGES
 70
0
 62
7
  6
CONTINUOUS
370
-3
390
F
  0
LAYER
  5
205
100
AcDbSymbolTableRecord
100
AcDbLayerTableRecord
  2
INTF_1
 70
0
 62
7
  6
CONTINUOUS
370
-3
390
F
  0
LAYER
  5
206
100
AcDbSymbolTableRecord
100
AcDbLayerTableRecord
  2
INTF_11
 70
0
 62
7
  6
CONTINUOUS
370
-3
390
F
  0
LAYER
  5
207
100
AcDbSymbolTableRecord
100
AcDbLayerTableRecord
  2
INTF_CYAN
 70
0
 62
7
  6
CONTINUOUS
370
-3
390
F
  0
LAYER
  5
208
100
AcDbSymbolTableRecord
100
AcDbLayerTableRecord
  2
NOTE
 70
0
 62
7
  6
CONTINUOUS
370
-3
390
F
  0
LAYER
  5
209
100
AcDbSymbolTableRecord
100
AcDbLayerTableRecord
  2
PIANI
 70
0
 62
7
  6
CONTINUOUS
370
-3
390
F
  0
LAYER
  5
20A
100
AcDbSymbolTableRecord
100
AcDbLayerTableRecord
  2
PIANI_ORIGINE
 70
0
 62
7
  6
CONTINUOUS
370
-3
390
F
  0
LAYER
  5
20B
100
AcDbSymbolTableRecord
100
AcDbLayerTableRecord
  2
PUNTI
 70
0
 62
7
  6
CONTINUOUS
370
-3
390
F
  0
LAYER
  5
20C
100
AcDbSymbolTableRecord
100
AcDbLayerTableRecord
  2
RACCORDO
 70
0
 62
7
  6
CONTINUOUS
370
-3
390
F
  0
LAYER
  5
20D
100
AcDbSymbolTableRecord
100
AcDbLayerTableRecord
  2
SIMBOLI
 70
0
 62
7
  6
CONTINUOUS
370
-3
390
F
  0
LAYER
  5
20E
100
AcDbSymbolTableRecord
100
AcDbLayerTableRecord
  2
SMUSSO
 70
0
 62
7
  6
CONTINUOUS
370
-3
390
F
  0
LAYER
  5
20F
100
AcDbSymbolTableRecord
100
AcDbLayerTableRecord
  2
SNAPLINE
 70
0
 62
7
  6
CONTINUOUS
370
-3
390
F
  0
LAYER
  5
210
100
AcDbSymbolTableRecord
100
AcDbLayerTableRecord
  2
SUPERFICI
 70
0
 62
7
  6
CONTINUOUS
370
-3
390
F
  0
LAYER
  5
211
100
AcDbSymbolTableRecord
100
AcDbLayerTableRecord
  2
TRASH
 70
0
 62
7
  6
CONTINUOUS
370
-3
390
F
  0
ENDTAB
  0
TABLE
  2
STYLE
  5
3
100
AcDbSymbolTable
 70
1
  0
STYLE
  5
11
100
AcDbSymbolTableRecord
100
AcDbTextStyleTableRecord
  2
STANDARD
 70
0
 40
0.0
 41
0.8
 50
0.0
 71
0
 42
0.2
  3
txt
  4

  0
STYLE
  5
212
100
AcDbSymbolTableRecord
100
AcDbTextStyleTableRecord
  2
TEXTSTYLE_1
 70
0
 40
0.0
 41
0.8
 50
0.0
 71
0
 42
0.2
  3
gdt
  4

  0
ENDTAB
  0
TABLE
  2
VIEW
  5
6
100
AcDbSymbolTable
 70
0
  0
ENDTAB
  0
TABLE
  2
UCS
  5
7
100
AcDbSymbolTable
 70
0
  0
ENDTAB
  0
TABLE
  2
APPID
  5
9
100
AcDbSymbolTable
 70
1
  0
APPID
  5
213
100
AcDbSymbolTableRecord
100
AcDbRegAppTableRecord
  2
ACAD
 70
0
  0
ENDTAB
  0
TABLE
  2
BLOCK_RECORD
  5
1
100
AcDbSymbolTable
 70
0
  0
BLOCK_RECORD
  5
214
100
AcDbSymbolTableRecord
100
AcDbBlockTableRecord
  2
*Model_Space
  0
BLOCK_RECORD
  5
215
100
AcDbSymbolTableRecord
100
AcDbBlockTableRecord
  2
*Paper_Space
  0
BLOCK_RECORD
  5
216
100
AcDbSymbolTableRecord
100
AcDbBlockTableRecord
  2
_FILLED
  0
BLOCK_RECORD
  5
217
100
AcDbSymbolTableRecord
100
AcDbBlockTableRecord
  2
*D0
  0
BLOCK_RECORD
  5
218
100
AcDbSymbolTableRecord
100
AcDbBlockTableRecord
  2
*D1
  0
BLOCK_RECORD
  5
219
100
AcDbSymbolTableRecord
100
AcDbBlockTableRecord
  2
*D2
  0
BLOCK_RECORD
  5
21A
100
AcDbSymbolTableRecord
100
AcDbBlockTableRecord
  2
*D3
  0
ENDTAB
  0
TABLE
  2
DIMSTYLE
  5
A
100
AcDbSymbolTable
 70
1
100
AcDbDimStyleTable
 71
0
  0
DIMSTYLE
105
21B
100
AcDbSymbolTableRecord
100
AcDbDimStyleTableRecord
  2
STANDARD
 70
0
  3

  4

 40
1.0
 41
3.0
 42
0.5
 43
0.38
 44
1.5
 45
0.0
 46
0.0
 47
0.01
 48
0.01
140
3.0
141
0.09
142
0.0
143
25.4
144
1.0
145
0.0
146
1.0
147
0.625
 71
1.0
 72
0.0
 73
0
 74
0
 75
0
 76
0
 77
1
 78
8
 79
2
170
0
171
1
172
0
173
0
174
0
175
0
176
0
177
0
178
0
270
2
179
2
271
2
272
2
273
2
274
2
275
0
280
0
281
0
282
0
283
1
284
8
285
0
286
0
287
3
288
0
340
11
278
44
341
216
342
216
343
216
344
216
  0
DIMSTYLE
105
21C
100
AcDbSymbolTableRecord
100
AcDbDimStyleTableRecord
  2
DIMSTYLE_1
 70
0
  3

  4

 40
1.0
 41
3.0
 42
0.5
 43
0.38
 44
1.5
 45
0.0
 46
0.0
 47
0.0
 48
0.0
140
3.0
141
0.09
142
0.0
143
25.4
144
1.0
145
0.0
146
1.0
147
0.75
 71
0.0
 72
0.0
 73
0
 74
0
 75
0
 76
0
 77
1
 78
8
 79
2
170
0
171
1
172
0
173
0
174
0
175
0
176
0
177
0
178
0
270
2
179
2
271
2
272
2
273
2
274
2
275
0
280
0
281
0
282
0
283
1
284
8
285
0
286
0
287
3
288
0
340
11
278
44
341
216
342
216
343
216
344
216
  0
ENDTAB
  0
ENDSEC
  0
SECTION
  2
BLOCKS
  0
BLOCK
  5
20
100
AcDbEntity
  8
0
100
AcDbBlockBegin
  2
*Model_Space
 70
0
 10
0.0
 20
0.0
 30
0.0
  3
*Model_Space
  1

  0
ENDBLK
  5
21
100
AcDbEntity
  8
0
100
AcDbBlockEnd
  0
BLOCK
  5
1C
100
AcDbEntity
  8
0
100
AcDbBlockBegin
  2
*Paper_Space
 70
0
 10
0.0
 20
0.0
 30
0.0
  3
*Paper_Space
  1

  0
ENDBLK
  5
1D
100
AcDbEntity
  8
0
100
AcDbBlockEnd
  0
BLOCK
  5
21D
100
AcDbEntity
  8
0
100
AcDbBlockBegin
  2
_FILLED
 70
64
 10
0.0
 20
0.0
  3
_FILLED
  1

  0
SOLID
  5
21E
100
AcDbEntity
  8
0
  6
BYBLOCK
 62
0
100
AcDbTrace
 10
0.0
 20
0.0
 11
-1.0
 21
0.3166666667
 12
-1.0
 22
-0.3166666667
 13
-1.0
 23
-0.3166666667
  0
ENDBLK
  5
21F
100
AcDbEntity
  8
0
  6
BYBLOCK
 62
0
100
AcDbBlockEnd
  0
BLOCK
  5
220
100
AcDbEntity
  8
0
100
AcDbBlockBegin
 62
7
  6
CONTINUOUS
  2
*D0
 70
65
 10
0.0
 20
0.0
  3
*D0
  1

  0
LINE
  5
221
100
AcDbEntity
  8
0
100
AcDbLine
 62
7
  6
CONTINUOUS
 10
-105.0
 20
44.9210357202
 11
-105.0
 21
56.4791689013
  0
LINE
  5
222
100
AcDbEntity
  8
0
100
AcDbLine
 62
7
  6
CONTINUOUS
 10
105.0
 20
44.8036929892
 11
105.0
 21
56.4791689013
  0
LINE
  5
223
100
AcDbEntity
  8
0
100
AcDbLine
 62
7
  6
CONTINUOUS
 10
-105.0
 20
54.9791689013
 11
0.0
 21
54.9791689013
  0
LINE
  5
224
100
AcDbEntity
  8
0
100
AcDbLine
 62
7
  6
CONTINUOUS
 10
105.0
 20
54.9791689013
 11
0.0
 21
54.9791689013
  0
INSERT
  5
225
100
AcDbEntity
  8
0
100
AcDbBlockReference
 62
7
  6
CONTINUOUS
  2
_FILLED
 10
-105.0
 20
54.9791689013
 41
3.0
 42
3.0
 43
3.0
 50
180.0
  0
INSERT
  5
226
100
AcDbEntity
  8
0
100
AcDbBlockReference
 62
7
  6
CONTINUOUS
  2
_FILLED
 10
105.0
 20
54.9791689013
 41
3.0
 42
3.0
 43
3.0
 50
0.0
  0
ENDBLK
  5
227
100
AcDbEntity
  8
0
  6
BYBLOCK
 62
0
100
AcDbBlockEnd
  0
BLOCK
  5
228
100
AcDbEntity
  8
0
100
AcDbBlockBegin
 62
7
  6
CONTINUOUS
  2
*D1
 70
65
 10
0.0
 20
0.0
  3
*D1
  1

  0
LINE
  5
229
100
AcDbEntity
  8
0
100
AcDbLine
 62
7
  6
CONTINUOUS
 10
-144.8500003735
 20
45.3302508928
 11
-144.8500003735
 21
56.4790189662
  0
LINE
  5
22A
100
AcDbEntity
  8
0
100
AcDbLine
 62
7
  6
CONTINUOUS
 10
-150.9500003735
 20
26.246336
 11
-150.9500003735
 21
56.4790189662
  0
LINE
  5
22B
100
AcDbEntity
  8
0
100
AcDbLine
 62
7
  6
CONTINUOUS
 10
-144.8500003735
 20
54.9790189662
 11
-140.8500003735
 21
54.9790189662
  0
LINE
  5
22C
100
AcDbEntity
  8
0
100
AcDbLine
 62
7
  6
CONTINUOUS
 10
-140.8500003735
 20
54.9790189662
 11
-147.9000003735
 21
54.9790189662
  0
LINE
  5
22D
100
AcDbEntity
  8
0
100
AcDbLine
 62
7
  6
CONTINUOUS
 10
-150.9500003735
 20
54.9790189662
 11
-163.2297262888
 21
54.9790189662
  0
LINE
  5
22E
100
AcDbEntity
  8
0
100
AcDbLine
 62
7
  6
CONTINUOUS
 10
-163.2297262888
 20
54.9790189662
 11
-147.9000003735
 21
54.9790189662
  0
INSERT
  5
22F
100
AcDbEntity
  8
0
100
AcDbBlockReference
 62
7
  6
CONTINUOUS
  2
_FILLED
 10
-144.8500003735
 20
54.9790189662
 41
3.0
 42
3.0
 43
3.0
 50
180.0
  0
INSERT
  5
230
100
AcDbEntity
  8
0
100
AcDbBlockReference
 62
7
  6
CONTINUOUS
  2
_FILLED
 10
-150.9500003735
 20
54.9790189662
 41
3.0
 42
3.0
 43
3.0
  0
ENDBLK
  5
231
100
AcDbEntity
  8
0
  6
BYBLOCK
 62
0
100
AcDbBlockEnd
  0
BLOCK
  5
232
100
AcDbEntity
  8
0
100
AcDbBlockBegin
 62
7
  6
CONTINUOUS
  2
*D2
 70
65
 10
0.0
 20
0.0
  3
*D2
  1

  0
LINE
  5
233
100
AcDbEntity
  8
0
100
AcDbLine
 62
7
  6
CONTINUOUS
 10
-139.0500003735
 20
26.95
 11
-139.0500003735
 21
66.4770953004
  0
LINE
  5
234
100
AcDbEntity
  8
0
100
AcDbLine
 62
7
  6
CONTINUOUS
 10
-150.9500003735
 20
21.798464
 11
-150.9500003735
 21
66.4770953004
  0
LINE
  5
235
100
AcDbEntity
  8
0
100
AcDbLine
 62
7
  6
CONTINUOUS
 10
-139.0500003735
 20
64.9770953004
 11
-145.0000003735
 21
64.9770953004
  0
LINE
  5
236
100
AcDbEntity
  8
0
100
AcDbLine
 62
7
  6
CONTINUOUS
 10
-150.9500003735
 20
64.9770953004
 11
-145.0000003735
 21
64.9770953004
  0
LINE
  5
237
100
AcDbEntity
  8
0
100
AcDbLine
 62
7
  6
CONTINUOUS
 10
-145.0000003735
 20
64.9770953004
 11
-163.8844142935
 21
64.9770953004
  0
INSERT
  5
238
100
AcDbEntity
  8
0
100
AcDbBlockReference
 62
7
  6
CONTINUOUS
  2
_FILLED
 10
-139.0500003735
 20
64.9770953004
 41
3.0
 42
3.0
 43
3.0
  0
INSERT
  5
239
100
AcDbEntity
  8
0
100
AcDbBlockReference
 62
7
  6
CONTINUOUS
  2
_FILLED
 10
-150.9500003735
 20
64.9770953004
 41
3.0
 42
3.0
 43
3.0
 50
180.0
  0
ENDBLK
  5
23A
100
AcDbEntity
  8
0
  6
BYBLOCK
 62
0
100
AcDbBlockEnd
  0
BLOCK
  5
23B
100
AcDbEntity
  8
0
100
AcDbBlockBegin
 62
7
  6
CONTINUOUS
  2
*D3
 70
65
 10
0.0
 20
0.0
  3
*D3
  1

  0
LINE
  5
23C
100
AcDbEntity
  8
0
100
AcDbLine
 62
7
  6
CONTINUOUS
 10
104.7945086311
 20
45.0
 11
116.5
 21
45.0
  0
LINE
  5
23D
100
AcDbEntity
  8
0
100
AcDbLine
 62
7
  6
CONTINUOUS
 10
104.8737237194
 20
-45.0
 11
116.5
 21
-45.0
  0
LINE
  5
23E
100
AcDbEntity
  8
0
100
AcDbLine
 62
7
  6
CONTINUOUS
 10
115.0
 20
45.0
 11
115.0
 21
0.0
  0
LINE
  5
23F
100
AcDbEntity
  8
0
100
AcDbLine
 62
7
  6
CONTINUOUS
 10
115.0
 20
-45.0
 11
115.0
 21
0.0
  0
INSERT
  5
240
100
AcDbEntity
  8
0
100
AcDbBlockReference
 62
7
  6
CONTINUOUS
  2
_FILLED
 10
115.0
 20
45.0
 41
3.0
 42
3.0
 43
3.0
 50
90.0
  0
INSERT
  5
241
100
AcDbEntity
  8
0
100
AcDbBlockReference
 62
7
  6
CONTINUOUS
  2
_FILLED
 10
115.0
 20
-45.0
 41
3.0
 42
3.0
 43
3.0
 50
270.0
  0
ENDBLK
  5
242
100
AcDbEntity
  8
0
  6
BYBLOCK
 62
0
100
AcDbBlockEnd
  0
ENDSEC
  0
SECTION
  2
ENTITIES
  0
DIMENSION
  5
243
100
AcDbEntity
  8
0
100
AcDbDimension
 62
7
  6
CONTINUOUS
  2
*D0
 10
105.0
 20
54.9791689013
 11
-3.2142857143
 21
54.9791689013
 70
160
 71
2
 72
2
 41
0.9
 42
210.0
  3
DIMSTYLE_1
100
AcDbAlignedDimension
 13
-105.0
 23
44.4210357202
 14
105.0
 24
44.3036929892
100
AcDbRotatedDimension
  0
DIMENSION
  5
244
100
AcDbEntity
  8
0
100
AcDbDimension
 62
7
  6
CONTINUOUS
  2
*D1
 10
-150.9500003735
 20
54.9790189662
 11
-163.2297262888
 21
54.9790189662
 70
160
 71
3
 72
2
 41
0.9
 42
6.1
  3
DIMSTYLE_1
100
AcDbAlignedDimension
 13
-144.8500003735
 23
44.8302508928
 14
-150.9500003735
 24
25.746336
 50
180.0
100
AcDbRotatedDimension
  0
DIMENSION
  5
245
100
AcDbEntity
  8
0
100
AcDbDimension
 62
7
  6
CONTINUOUS
  2
*D2
 10
-150.9500003735
 20
64.9770953004
 11
-163.8844142935
 21
64.9770953004
 70
160
 71
3
 72
2
 41
0.9
 42
11.9
  3
DIMSTYLE_1
100
AcDbAlignedDimension
 13
-139.0500003735
 23
26.45
 14
-150.9500003735
 24
21.298464
 50
180.0
100
AcDbRotatedDimension
  0
DIMENSION
  5
246
100
AcDbEntity
  8
0
100
AcDbDimension
 62
7
  6
CONTINUOUS
  2
*D3
 10
115.0
 20
-45.0
 11
115.0
 21
-2.3571428571
 70
160
 71
2
 72
2
 41
0.9
 42
90.0
  3
DIMSTYLE_1
100
AcDbAlignedDimension
 13
104.2945086311
 23
45.0
 14
104.3737237194
 24
-45.0
 50
270.0
100
AcDbRotatedDimension
  0
LWPOLYLINE
  5
247
100
AcDbEntity
  8
RACCORDO
100
AcDbPolyline
 62
250
  6
CONTINUOUS
 90
10
 70
0
 10
-104.9429628519
 20
44.1183573363
 10
-104.9455829531
 20
44.1004041416
 10
-104.9478814093
 20
44.0824042534
 10
-104.9498574431
 20
44.0643634721
 10
-104.9515101352
 20
44.0462899619
 10
-104.95283925
 20
44.0281872025
 10
-104.9538448064
 20
44.0100539525
 10
-104.954526177
 20
43.9918936726
 10
-104.9548825181
 20
43.9737145583
 10
-104.9549132947
 20
43.9555224676
  0
LWPOLYLINE
  5
248
100
AcDbEntity
  8
ASSI
100
AcDbPolyline
 62
250
  6
CONTINUOUS
 90
10
 70
0
 10
-104.9429628519
 20
44.1183573363
 10
-104.9455829531
 20
44.1004041416
 10
-104.9478814093
 20
44.0824042534
 10
-104.9498574431
 20
44.0643634721
 10
-104.9515101352
 20
44.0462899619
 10
-104.95283925
 20
44.0281872025
 10
-104.9538448064
 20
44.0100539525
 10
-104.954526177
 20
43.9918936726
 10
-104.9548825181
 20
43.9737145583
 10
-104.9549132947
 20
43.9555224676
  0
LWPOLYLINE
  5
249
100
AcDbEntity
  8
RACCORDO
100
AcDbPolyline
 62
250
  6
CONTINUOUS
 90
25
 70
0
 10
-104.9429628519
 20
-44.1183573363
 10
-104.9329577013
 20
-44.173067863
 10
-104.9199524574
 20
-44.2274007954
 10
-104.9039492364
 20
-44.2811805012
 10
-104.8849715611
 20
-44.3342007485
 10
-104.863034353
 20
-44.3863129275
 10
-104.8381284096
 20
-44.4374197654
 10
-104.8102705584
 20
-44.4873596646
 10
-104.7795150606
 20
-44.5359175569
 10
-104.7459116849
 20
-44.5829078373
 10
-104.7095117799
 20
-44.6281616614
 10
-104.6704082691
 20
-44.671470387
 10
-104.6287401755
 20
-44.7125983927
 10
-104.5846319051
 20
-44.7513651671
 10
-104.538198578
 20
-44.7876118437
 10
-104.4895948818
 20
-44.8211549654
 10
-104.4390178579
 20
-44.8518183009
 10
-104.3865864474
 20
-44.8794896179
 10
-104.3323471613
 20
-44.9040763959
 10
-104.2764140735
 20
-44.9254532174
 10
-104.2190319359
 20
-44.943452785
 10
-104.1604546802
 20
-44.9579241872
 10
-104.1009133367
 20
-44.9687561499
 10
-104.0406117433
 20
-44.9758649613
 10
-103.9797804465
 20
-44.9791712736
  0
LWPOLYLINE
  5
24A
100
AcDbEntity
  8
ASSI
100
AcDbPolyline
 62
250
  6
CONTINUOUS
 90
25
 70
0
 10
-104.9429628519
 20
-44.1183573363
 10
-104.9329577013
 20
-44.173067863
 10
-104.9199524574
 20
-44.2274007954
 10
-104.9039492364
 20
-44.2811805012
 10
-104.8849715611
 20
-44.3342007485
 10
-104.863034353
 20
-44.3863129275
 10
-104.8381284096
 20
-44.4374197654
 10
-104.8102705584
 20
-44.4873596646
 10
-104.7795150606
 20
-44.5359175569
 10
-104.7459116849
 20
-44.5829078373
 10
-104.7095117799
 20
-44.6281616614
 10
-104.6704082691
 20
-44.671470387
 10
-104.6287401755
 20
-44.7125983927
 10
-104.5846319051
 20
-44.7513651671
 10
-104.538198578
 20
-44.7876118437
 10
-104.4895948818
 20
-44.8211549654
 10
-104.4390178579
 20
-44.8518183009
 10
-104.3865864474
 20
-44.8794896179
 10
-104.3323471613
 20
-44.9040763959
 10
-104.2764140735
 20
-44.9254532174
 10
-104.2190319359
 20
-44.943452785
 10
-104.1604546802
 20
-44.9579241872
 10
-104.1009133367
 20
-44.9687561499
 10
-104.0406117433
 20
-44.9758649613
 10
-103.9797804465
 20
-44.9791712736
  0
LWPOLYLINE
  5
24B
100
AcDbEntity
  8
RACCORDO
100
AcDbPolyline
 62
250
  6
CONTINUOUS
 90
25
 70
0
 10
-104.4499301671
 20
-44.2427587705
 10
-104.4451569351
 20
-44.2887982043
 10
-104.4389176577
 20
-44.3345076325
 10
-104.431212335
 20
-44.3797695557
 10
-104.4220337368
 20
-44.4244572893
 10
-104.4113890934
 20
-44.468448127
 10
-104.3993000946
 20
-44.5116223086
 10
-104.3857471186
 20
-44.553861367
 10
-104.3707497873
 20
-44.5950035912
 10
-104.3543886569
 20
-44.634862472
 10
-104.3366365903
 20
-44.6733103456
 10
-104.3175207245
 20
-44.710185604
 10
-104.2972030264
 20
-44.745266472
 10
-104.2756663175
 20
-44.7784123839
 10
-104.2529277762
 20
-44.8094988207
 10
-104.2292009042
 20
-44.8383531422
 10
-104.204494572
 20
-44.864833561
 10
-104.1787999091
 20
-44.8888517719
 10
-104.1523038054
 20
-44.9103201164
 10
-104.1249623121
 20
-44.9291380147
 10
-104.0968193781
 20
-44.9451646736
 10
-104.0681937397
 20
-44.9582657766
 10
-104.0391916425
 20
-44.9683482019
 10
-104.009706841
 20
-44.9753406355
 10
-103.9797393351
 20
-44.9791689013
  0
LWPOLYLINE
  5
24C
100
AcDbEntity
  8
ASSI
100
AcDbPolyline
 62
250
  6
CONTINUOUS
 90
25
 70
0
 10
-104.4499301671
 20
-44.2427587705
 10
-104.4451569351
 20
-44.2887982043
 10
-104.4389176577
 20
-44.3345076325
 10
-104.431212335
 20
-44.3797695557
 10
-104.4220337368
 20
-44.4244572893
 10
-104.4113890934
 20
-44.468448127
 10
-104.3993000946
 20
-44.5116223086
 10
-104.3857471186
 20
-44.553861367
 10
-104.3707497873
 20
-44.5950035912
 10
-104.3543886569
 20
-44.634862472
 10
-104.3366365903
 20
-44.6733103456
 10
-104.3175207245
 20
-44.710185604
 10
-104.2972030264
 20
-44.745266472
 10
-104.2756663175
 20
-44.7784123839
 10
-104.2529277762
 20
-44.8094988207
 10
-104.2292009042
 20
-44.8383531422
 10
-104.204494572
 20
-44.864833561
 10
-104.1787999091
 20
-44.8888517719
 10
-104.1523038054
 20
-44.9103201164
 10
-104.1249623121
 20
-44.9291380147
 10
-104.0968193781
 20
-44.9451646736
 10
-104.0681937397
 20
-44.9582657766
 10
-104.0391916425
 20
-44.9683482019
 10
-104.009706841
 20
-44.9753406355
 10
-103.9797393351
 20
-44.9791689013
  0
LINE
  5
24D
100
AcDbEntity
  8
RACCORDO
100
AcDbLine
 62
250
  6
CONTINUOUS
 10
-104.9549132947
 20
43.9555224676
 11
-104.9308907934
 21
42.2827086862
  0
LINE
  5
24E
100
AcDbEntity
  8
ASSI
100
AcDbLine
 62
250
  6
CONTINUOUS
 10
-104.9549132947
 20
43.9555224676
 11
-104.9308907934
 21
42.2827086862
  0
LINE
  5
24F
100
AcDbEntity
  8
RACCORDO
100
AcDbLine
 62
250
  6
CONTINUOUS
 10
-104.4552178811
 20
44.1592906303
 11
-104.4311953799
 21
42.4593552373
  0
LINE
  5
250
100
AcDbEntity
  8
ASSI
100
AcDbLine
 62
250
  6
CONTINUOUS
 10
-104.4552178811
 20
44.1592906303
 11
-104.4311953799
 21
42.4593552373
  0
LINE
  5
251
100
AcDbEntity
  8
RACCORDO
100
AcDbLine
 62
250
  6
CONTINUOUS
 10
-104.9308907934
 20
42.2827086862
 11
-104.9102180844
 21
40.5745858604
  0
LINE
  5
252
100
AcDbEntity
  8
ASSI
100
AcDbLine
 62
250
  6
CONTINUOUS
 10
-104.9308907934
 20
42.2827086862
 11
-104.9102180844
 21
40.5745858604
  0
LINE
  5
253
100
AcDbEntity
  8
RACCORDO
100
AcDbLine
 62
250
  6
CONTINUOUS
 10
-104.4311953799
 20
42.4593552373
 11
-104.4105226708
 21
40.7254198741
  0
LINE
  5
254
100
AcDbEntity
  8
ASSI
100
AcDbLine
 62
250
  6
CONTINUOUS
 10
-104.4311953799
 20
42.4593552373
 11
-104.4105226708
 21
40.7254198741
  0
LINE
  5
255
100
AcDbEntity
  8
RACCORDO
100
AcDbLine
 62
250
  6
CONTINUOUS
 10
-104.9102180844
 20
40.5745858604
 11
-104.8937408263
 21
38.9575608598
  0
LINE
  5
256
100
AcDbEntity
  8
ASSI
100
AcDbLine
 62
250
  6
CONTINUOUS
 10
-104.9102180844
 20
40.5745858604
 11
-104.8937408263
 21
38.9575608598
  0
LINE
  5
257
100
AcDbEntity
  8
RACCORDO
100
AcDbLine
 62
250
  6
CONTINUOUS
 10
-104.4105226708
 20
40.7254198741
 11
-104.3940454126
 21
39.0870602272
  0
LINE
  5
258
100
AcDbEntity
  8
ASSI
100
AcDbLine
 62
250
  6
CONTINUOUS
 10
-104.4105226708
 20
40.7254198741
 11
-104.3940454126
 21
39.0870602272
  0
LINE
  5
259
100
AcDbEntity
  8
RACCORDO
100
AcDbLine
 62
250
  6
CONTINUOUS
 10
-104.8937408263
 20
38.9575608598
 11
-104.8776570616
 21
37.0663077784
  0
LINE
  5
25A
100
AcDbEntity
  8
ASSI
100
AcDbLine
 62
250
  6
CONTINUOUS
 10
-104.8937408263
 20
38.9575608598
 11
-104.8776570616
 21
37.0663077784
  0
LINE
  5
25B
100
AcDbEntity
  8
RACCORDO
100
AcDbLine
 62
250
  6
CONTINUOUS
 10
-104.3940454126
 20
39.0870602272
 11
-104.377961648
 21
37.1743345751
  0
LINE
  5
25C
100
AcDbEntity
  8
ASSI
100
AcDbLine
 62
250
  6
CONTINUOUS
 10
-104.3940454126
 20
39.0870602272
 11
-104.377961648
 21
37.1743345751
  0
LINE
  5
25D
100
AcDbEntity
  8
RACCORDO
100
AcDbLine
 62
250
  6
CONTINUOUS
 10
-104.8776570616
 20
37.0663077784
 11
-104.8621880365
 21
34.8206721377
  0
LINE
  5
25E
100
AcDbEntity
  8
ASSI
100
AcDbLine
 62
250
  6
CONTINUOUS
 10
-104.8776570616
 20
37.0663077784
 11
-104.8621880365
 21
34.8206721377
  0
LINE
  5
25F
100
AcDbEntity
  8
RACCORDO
100
AcDbLine
 62
250
  6
CONTINUOUS
 10
-104.377961648
 20
37.1743345751
 11
-104.3624926229
 21
34.9070426666
  0
LINE
  5
260
100
AcDbEntity
  8
ASSI
100
AcDbLine
 62
250
  6
CONTINUOUS
 10
-104.377961648
 20
37.1743345751
 11
-104.3624926229
 21
34.9070426666
  0
LINE
  5
261
100
AcDbEntity
  8
RACCORDO
100
AcDbLine
 62
250
  6
CONTINUOUS
 10
-104.8621880365
 20
34.8206721377
 11
-104.8481978544
 21
32.2301932019
  0
LINE
  5
262
100
AcDbEntity
  8
ASSI
100
AcDbLine
 62
250
  6
CONTINUOUS
 10
-104.8621880365
 20
34.8206721377
 11
-104.8481978544
 21
32.2301932019
  0
LINE
  5
263
100
AcDbEntity
  8
RACCORDO
100
AcDbLine
 62
250
  6
CONTINUOUS
 10
-104.3624926229
 20
34.9070426666
 11
-104.3485024409
 21
32.2973486914
  0
LINE
  5
264
100
AcDbEntity
  8
ASSI
100
AcDbLine
 62
250
  6
CONTINUOUS
 10
-104.3624926229
 20
34.9070426666
 11
-104.3485024409
 21
32.2973486914
  0
LINE
  5
265
100
AcDbEntity
  8
RACCORDO
100
AcDbLine
 62
250
  6
CONTINUOUS
 10
-104.8481978544
 20
32.2301932019
 11
-104.8370824776
 21
29.5613206819
  0
LINE
  5
266
100
AcDbEntity
  8
ASSI
100
AcDbLine
 62
250
  6
CONTINUOUS
 10
-104.8481978544
 20
32.2301932019
 11
-104.8370824776
 21
29.5613206819
  0
LINE
  5
267
100
AcDbEntity
  8
RACCORDO
100
AcDbLine
 62
250
  6
CONTINUOUS
 10
-104.3485024409
 20
32.2973486914
 11
-104.3373870641
 21
29.6127264489
  0
LINE
  5
268
100
AcDbEntity
  8
ASSI
100
AcDbLine
 62
250
  6
CONTINUOUS
 10
-104.3485024409
 20
32.2973486914
 11
-104.3373870641
 21
29.6127264489
  0
LINE
  5
269
100
AcDbEntity
  8
RACCORDO
100
AcDbLine
 62
250
  6
CONTINUOUS
 10
-104.8370824776
 20
29.5613206819
 11
-104.8266891065
 21
26.2149336889
  0
LINE
  5
26A
100
AcDbEntity
  8
ASSI
100
AcDbLine
 62
250
  6
CONTINUOUS
 10
-104.8370824776
 20
29.5613206819
 11
-104.8266891065
 21
26.2149336889
  0
LINE
  5
26B
100
AcDbEntity
  8
RACCORDO
100
AcDbLine
 62
250
  6
CONTINUOUS
 10
-104.3373870641
 20
29.6127264489
 11
-104.326993693
 21
26.2524863958
  0
LINE
  5
26C
100
AcDbEntity
  8
ASSI
100
AcDbLine
 62
250
  6
CONTINUOUS
 10
-104.3373870641
 20
29.6127264489
 11
-104.326993693
 21
26.2524863958
  0
LINE
  5
26D
100
AcDbEntity
  8
RACCORDO
100
AcDbLine
 62
250
  6
CONTINUOUS
 10
-104.8266891065
 20
26.2149336889
 11
-104.8167711479
 21
21.5156057043
  0
LINE
  5
26E
100
AcDbEntity
  8
ASSI
100
AcDbLine
 62
250
  6
CONTINUOUS
 10
-104.8266891065
 20
26.2149336889
 11
-104.8167711479
 21
21.5156057043
  0
LINE
  5
26F
100
AcDbEntity
  8
RACCORDO
100
AcDbLine
 62
250
  6
CONTINUOUS
 10
-104.326993693
 20
26.2524863958
 11
-104.3170757344
 21
21.5387882958
  0
LINE
  5
270
100
AcDbEntity
  8
ASSI
100
AcDbLine
 62
250
  6
CONTINUOUS
 10
-104.326993693
 20
26.2524863958
 11
-104.3170757344
 21
21.5387882958
  0
LWPOLYLINE
  5
271
100
AcDbEntity
  8
RACCORDO
100
AcDbPolyline
 62
250
  6
CONTINUOUS
 90
10
 70
0
 10
-104.9549132947
 20
-43.9555224676
 10
-104.9548827667
 20
-43.9736912063
 10
-104.9545273422
 20
-43.9918528457
 10
-104.9538472414
 20
-44.010001536
 10
-104.9528429919
 20
-44.0281291043
 10
-104.9515149072
 20
-44.0462320501
 10
-104.9498626623
 20
-44.0643115129
 10
-104.9478861877
 20
-44.082363951
 10
-104.9455860935
 20
-44.1003811785
 10
-104.9429628519
 20
-44.1183573363
  0
LWPOLYLINE
  5
272
100
AcDbEntity
  8
ASSI
100
AcDbPolyline
 62
250
  6
CONTINUOUS
 90
10
 70
0
 10
-104.9549132947
 20
-43.9555224676
 10
-104.9548827667
 20
-43.9736912063
 10
-104.9545273422
 20
-43.9918528457
 10
-104.9538472414
 20
-44.010001536
 10
-104.9528429919
 20
-44.0281291043
 10
-104.9515149072
 20
-44.0462320501
 10
-104.9498626623
 20
-44.0643115129
 10
-104.9478861877
 20
-44.082363951
 10
-104.9455860935
 20
-44.1003811785
 10
-104.9429628519
 20
-44.1183573363
  0
LINE
  5
273
100
AcDbEntity
  8
RACCORDO
100
AcDbLine
 62
250
  6
CONTINUOUS
 10
-104.8167711479
 20
21.5156057043
 11
-104.8089330047
 21
15.0395950407
  0
LINE
  5
274
100
AcDbEntity
  8
ASSI
100
AcDbLine
 62
250
  6
CONTINUOUS
 10
-104.8167711479
 20
21.5156057043
 11
-104.8089330047
 21
15.0395950407
  0
LINE
  5
275
100
AcDbEntity
  8
RACCORDO
100
AcDbLine
 62
250
  6
CONTINUOUS
 10
-104.3170757344
 20
21.5387882958
 11
-104.3092375912
 21
15.0519316869
  0
LINE
  5
276
100
AcDbEntity
  8
ASSI
100
AcDbLine
 62
250
  6
CONTINUOUS
 10
-104.3170757344
 20
21.5387882958
 11
-104.3092375912
 21
15.0519316869
  0
LINE
  5
277
100
AcDbEntity
  8
RACCORDO
100
AcDbLine
 62
250
  6
CONTINUOUS
 10
-104.8089330047
 20
15.0395950407
 11
-104.8040773989
 21
3.8572868232
  0
LINE
  5
278
100
AcDbEntity
  8
ASSI
100
AcDbLine
 62
250
  6
CONTINUOUS
 10
-104.8089330047
 20
15.0395950407
 11
-104.8040773989
 21
3.8572868232
  0
LINE
  5
279
100
AcDbEntity
  8
RACCORDO
100
AcDbLine
 62
250
  6
CONTINUOUS
 10
-104.3092375912
 20
15.0519316869
 11
-104.3043819854
 21
3.8593242891
  0
LINE
  5
27A
100
AcDbEntity
  8
ASSI
100
AcDbLine
 62
250
  6
CONTINUOUS
 10
-104.3092375912
 20
15.0519316869
 11
-104.3043819854
 21
3.8593242891
  0
LINE
  5
27B
100
AcDbEntity
  8
RACCORDO
100
AcDbLine
 62
7
  6
CONTINUOUS
 10
-105.0
 20
44.000609173
 11
-105.0
 21
3.6
  0
LINE
  5
27C
100
AcDbEntity
  8
ASSI
100
AcDbLine
 62
7
  6
CONTINUOUS
 10
-105.0
 20
44.000609173
 11
-105.0
 21
3.6
  0
LINE
  5
27D
100
AcDbEntity
  8
RACCORDO
100
AcDbLine
 62
7
  6
CONTINUOUS
 10
-105.0
 20
-3.6
 11
-105.0
 21
-44.000609173
  0
LINE
  5
27E
100
AcDbEntity
  8
ASSI
100
AcDbLine
 62
7
  6
CONTINUOUS
 10
-105.0
 20
-3.6
 11
-105.0
 21
-44.000609173
  0
LINE
  5
27F
100
AcDbEntity
  8
DRAFT
100
AcDbLine
 62
7
  6
CONTINUOUS
 10
-104.9126980763
 20
-3.4689805518
 11
-104.9126980763
 21
3.4689805518
  0
LINE
  5
280
100
AcDbEntity
  8
ASSI
100
AcDbLine
 62
7
  6
CONTINUOUS
 10
-104.9126980763
 20
-3.4689805518
 11
-104.9126980763
 21
3.4689805518
  0
LINE
  5
281
100
AcDbEntity
  8
RACCORDO
100
AcDbLine
 62
250
  6
CONTINUOUS
 10
-104.8040773989
 20
3.8572868232
 11
-104.8054837561
 21
-9.3295143074
  0
LINE
  5
282
100
AcDbEntity
  8
ASSI
100
AcDbLine
 62
250
  6
CONTINUOUS
 10
-104.8040773989
 20
3.8572868232
 11
-104.8054837561
 21
-9.3295143074
  0
LINE
  5
283
100
AcDbEntity
  8
RACCORDO
100
AcDbLine
 62
250
  6
CONTINUOUS
 10
-104.3043819854
 20
3.8593242891
 11
-104.3057883426
 21
-9.3348271632
  0
LINE
  5
284
100
AcDbEntity
  8
ASSI
100
AcDbLine
 62
250
  6
CONTINUOUS
 10
-104.3043819854
 20
3.8593242891
 11
-104.3057883426
 21
-9.3348271632
  0
LINE
  5
285
100
AcDbEntity
  8
RACCORDO
100
AcDbLine
 62
250
  6
CONTINUOUS
 10
-104.8054837561
 20
-9.3295143074
 11
-104.8096080507
 21
-15.8118287281
  0
LINE
  5
286
100
AcDbEntity
  8
ASSI
100
AcDbLine
 62
250
  6
CONTINUOUS
 10
-104.8054837561
 20
-9.3295143074
 11
-104.8096080507
 21
-15.8118287281
  0
LINE
  5
287
100
AcDbEntity
  8
RACCORDO
100
AcDbLine
 62
250
  6
CONTINUOUS
 10
-104.3057883426
 20
-9.3348271632
 11
-104.3099126372
 21
-15.8246619298
  0
LINE
  5
288
100
AcDbEntity
  8
ASSI
100
AcDbLine
 62
250
  6
CONTINUOUS
 10
-104.3057883426
 20
-9.3348271632
 11
-104.3099126372
 21
-15.8246619298
  0
LINE
  5
289
100
AcDbEntity
  8
RACCORDO
100
AcDbLine
 62
250
  6
CONTINUOUS
 10
-104.8096080507
 20
-15.8118287281
 11
-104.8163134086
 21
-21.2331232738
  0
LINE
  5
28A
100
AcDbEntity
  8
ASSI
100
AcDbLine
 62
250
  6
CONTINUOUS
 10
-104.8096080507
 20
-15.8118287281
 11
-104.8163134086
 21
-21.2331232738
  0
LINE
  5
28B
100
AcDbEntity
  8
RACCORDO
100
AcDbLine
 62
250
  6
CONTINUOUS
 10
-104.3099126372
 20
-15.8246619298
 11
-104.3166179951
 21
-21.2561922871
  0
LINE
  5
28C
100
AcDbEntity
  8
ASSI
100
AcDbLine
 62
250
  6
CONTINUOUS
 10
-104.3099126372
 20
-15.8246619298
 11
-104.3166179951
 21
-21.2561922871
  0
LINE
  5
28D
100
AcDbEntity
  8
RACCORDO
100
AcDbLine
 62
250
  6
CONTINUOUS
 10
-104.8163134086
 20
-21.2331232738
 11
-104.8241861756
 21
-25.2164002714
  0
LINE
  5
28E
100
AcDbEntity
  8
ASSI
100
AcDbLine
 62
250
  6
CONTINUOUS
 10
-104.8163134086
 20
-21.2331232738
 11
-104.8241861756
 21
-25.2164002714
  0
LINE
  5
28F
100
AcDbEntity
  8
RACCORDO
100
AcDbLine
 62
250
  6
CONTINUOUS
 10
-104.3166179951
 20
-21.2561922871
 11
-104.3244907621
 21
-25.250496631
  0
LINE
  5
290
100
AcDbEntity
  8
ASSI
100
AcDbLine
 62
250
  6
CONTINUOUS
 10
-104.3166179951
 20
-21.2561922871
 11
-104.3244907621
 21
-25.250496631
  0
LINE
  5
291
100
AcDbEntity
  8
RACCORDO
100
AcDbLine
 62
250
  6
CONTINUOUS
 10
-104.8241861756
 20
-25.2164002714
 11
-104.8333029588
 21
-28.4686543868
  0
LINE
  5
292
100
AcDbEntity
  8
ASSI
100
AcDbLine
 62
250
  6
CONTINUOUS
 10
-104.8241861756
 20
-25.2164002714
 11
-104.8333029588
 21
-28.4686543868
  0
LINE
  5
293
100
AcDbEntity
  8
RACCORDO
100
AcDbLine
 62
250
  6
CONTINUOUS
 10
-104.3244907621
 20
-25.250496631
 11
-104.3336075453
 21
-28.514327389
  0
LINE
  5
294
100
AcDbEntity
  8
ASSI
100
AcDbLine
 62
250
  6
CONTINUOUS
 10
-104.3244907621
 20
-25.250496631
 11
-104.3336075453
 21
-28.514327389
  0
LINE
  5
295
100
AcDbEntity
  8
RACCORDO
100
AcDbLine
 62
250
  6
CONTINUOUS
 10
-104.8333029588
 20
-28.4686543868
 11
-104.8434576694
 21
-31.1756251586
  0
LINE
  5
296
100
AcDbEntity
  8
ASSI
100
AcDbLine
 62
250
  6
CONTINUOUS
 10
-104.8333029588
 20
-28.4686543868
 11
-104.8434576694
 21
-31.1756251586
  0
LINE
  5
297
100
AcDbEntity
  8
RACCORDO
100
AcDbLine
 62
250
  6
CONTINUOUS
 10
-104.3336075453
 20
-28.514327389
 11
-104.3437622559
 21
-31.2362458962
  0
LINE
  5
298
100
AcDbEntity
  8
ASSI
100
AcDbLine
 62
250
  6
CONTINUOUS
 10
-104.3336075453
 20
-28.514327389
 11
-104.3437622559
 21
-31.2362458962
  0
LINE
  5
299
100
AcDbEntity
  8
RACCORDO
100
AcDbLine
 62
250
  6
CONTINUOUS
 10
-104.8434576694
 20
-31.1756251586
 11
-104.8581200715
 21
-34.1309670192
  0
LINE
  5
29A
100
AcDbEntity
  8
ASSI
100
AcDbLine
 62
250
  6
CONTINUOUS
 10
-104.8434576694
 20
-31.1756251586
 11
-104.8581200715
 21
-34.1309670192
  0
LINE
  5
29B
100
AcDbEntity
  8
RACCORDO
100
AcDbLine
 62
250
  6
CONTINUOUS
 10
-104.3437622559
 20
-31.2362458962
 11
-104.358424658
 21
-34.2127847343
  0
LINE
  5
29C
100
AcDbEntity
  8
ASSI
100
AcDbLine
 62
250
  6
CONTINUOUS
 10
-104.3437622559
 20
-31.2362458962
 11
-104.358424658
 21
-34.2127847343
  0
LWPOLYLINE
  5
29D
100
AcDbEntity
  8
RACCORDO
100
AcDbPolyline
 62
250
  6
CONTINUOUS
 90
10
 70
0
 10
-104.4552178811
 20
-44.1592906303
 10
-104.4552792383
 20
-44.1686088918
 10
-104.4551783416
 20
-44.1779174825
 10
-104.454915191
 20
-44.1872164124
 10
-104.4544897417
 20
-44.1965075053
 10
-104.4539020385
 20
-44.2057889562
 10
-104.453152216
 20
-44.2150553369
 10
-104.4522403191
 20
-44.2243048499
 10
-104.4511663028
 20
-44.2335393229
 10
-104.4499301671
 20
-44.2427587705
  0
LWPOLYLINE
  5
29E
100
AcDbEntity
  8
ASSI
100
AcDbPolyline
 62
250
  6
CONTINUOUS
 90
10
 70
0
 10
-104.4552178811
 20
-44.1592906303
 10
-104.4552792383
 20
-44.1686088918
 10
-104.4551783416
 20
-44.1779174825
 10
-104.454915191
 20
-44.1872164124
 10
-104.4544897417
 20
-44.1965075053
 10
-104.4539020385
 20
-44.2057889562
 10
-104.453152216
 20
-44.2150553369
 10
-104.4522403191
 20
-44.2243048499
 10
-104.4511663028
 20
-44.2335393229
 10
-104.4499301671
 20
-44.2427587705
  0
LINE
  5
29F
100
AcDbEntity
  8
RACCORDO
100
AcDbLine
 62
250
  6
CONTINUOUS
 10
-104.8581200715
 20
-34.1309670192
 11
-104.8713085078
 21
-36.2069429789
  0
LINE
  5
2A0
100
AcDbEntity
  8
ASSI
100
AcDbLine
 62
250
  6
CONTINUOUS
 10
-104.8581200715
 20
-34.1309670192
 11
-104.8713085078
 21
-36.2069429789
  0
LINE
  5
2A1
100
AcDbEntity
  8
RACCORDO
100
AcDbLine
 62
250
  6
CONTINUOUS
 10
-104.358424658
 20
-34.2127847343
 11
-104.3716130941
 21
-36.3055089228
  0
LINE
  5
2A2
100
AcDbEntity
  8
ASSI
100
AcDbLine
 62
250
  6
CONTINUOUS
 10
-104.358424658
 20
-34.2127847343
 11
-104.3716130941
 21
-36.3055089228
  0
LINE
  5
2A3
100
AcDbEntity
  8
RACCORDO
100
AcDbLine
 62
250
  6
CONTINUOUS
 10
-104.8713085078
 20
-36.2069429789
 11
-104.8901725971
 21
-38.5694447116
  0
LINE
  5
2A4
100
AcDbEntity
  8
ASSI
100
AcDbLine
 62
250
  6
CONTINUOUS
 10
-104.8713085078
 20
-36.2069429789
 11
-104.8901725971
 21
-38.5694447116
  0
LINE
  5
2A5
100
AcDbEntity
  8
RACCORDO
100
AcDbLine
 62
250
  6
CONTINUOUS
 10
-104.3716130941
 20
-36.3055089228
 11
-104.3904771834
 21
-38.6940157642
  0
LINE
  5
2A6
100
AcDbEntity
  8
ASSI
100
AcDbLine
 62
250
  6
CONTINUOUS
 10
-104.3716130941
 20
-36.3055089228
 11
-104.3904771834
 21
-38.6940157642
  0
LINE
  5
2A7
100
AcDbEntity
  8
RACCORDO
100
AcDbLine
 62
250
  6
CONTINUOUS
 10
-104.3904771834
 20
-38.6940157642
 11
-104.4112648595
 21
-40.7930261324
  0
LINE
  5
2A8
100
AcDbEntity
  8
ASSI
100
AcDbLine
 62
250
  6
CONTINUOUS
 10
-104.3904771834
 20
-38.6940157642
 11
-104.4112648595
 21
-40.7930261324
  0
LINE
  5
2A9
100
AcDbEntity
  8
RACCORDO
100
AcDbLine
 62
250
  6
CONTINUOUS
 10
-104.8901725971
 20
-38.5694447116
 11
-104.9109602732
 21
-40.6410112618
  0
LINE
  5
2AA
100
AcDbEntity
  8
ASSI
100
AcDbLine
 62
250
  6
CONTINUOUS
 10
-104.8901725971
 20
-38.5694447116
 11
-104.9109602732
 21
-40.6410112618
  0
LINE
  5
2AB
100
AcDbEntity
  8
RACCORDO
100
AcDbLine
 62
250
  6
CONTINUOUS
 10
-104.4112648595
 20
-40.7930261324
 11
-104.4303276928
 21
-42.3923044
  0
LINE
  5
2AC
100
AcDbEntity
  8
ASSI
100
AcDbLine
 62
250
  6
CONTINUOUS
 10
-104.4112648595
 20
-40.7930261324
 11
-104.4303276928
 21
-42.3923044
  0
LINE
  5
2AD
100
AcDbEntity
  8
RACCORDO
100
AcDbLine
 62
250
  6
CONTINUOUS
 10
-104.9109602732
 20
-40.6410112618
 11
-104.9300231075
 21
-42.216692739
  0
LINE
  5
2AE
100
AcDbEntity
  8
ASSI
100
AcDbLine
 62
250
  6
CONTINUOUS
 10
-104.9109602732
 20
-40.6410112618
 11
-104.9300231075
 21
-42.216692739
  0
LINE
  5
2AF
100
AcDbEntity
  8
RACCORDO
100
AcDbLine
 62
250
  6
CONTINUOUS
 10
-104.4303276928
 20
-42.3923044
 11
-104.4552178811
 21
-44.1592906303
  0
LINE
  5
2B0
100
AcDbEntity
  8
ASSI
100
AcDbLine
 62
250
  6
CONTINUOUS
 10
-104.4303276928
 20
-42.3923044
 11
-104.4552178811
 21
-44.1592906303
  0
LINE
  5
2B1
100
AcDbEntity
  8
RACCORDO
100
AcDbLine
 62
250
  6
CONTINUOUS
 10
-104.9300231075
 20
-42.216692739
 11
-104.9549132947
 21
-43.9555224676
  0
LINE
  5
2B2
100
AcDbEntity
  8
ASSI
100
AcDbLine
 62
250
  6
CONTINUOUS
 10
-104.9300231075
 20
-42.216692739
 11
-104.9549132947
 21
-43.9555224676
  0
LWPOLYLINE
  5
2B3
100
AcDbEntity
  8
RACCORDO
100
AcDbPolyline
 62
250
  6
CONTINUOUS
 90
10
 70
0
 10
-104.4499301671
 20
44.2427587705
 10
-104.4511650854
 20
44.23355113
 10
-104.4522383049
 20
44.2243255358
 10
-104.4531498256
 20
44.2150819709
 10
-104.4538998473
 20
44.2058186284
 10
-104.4544881702
 20
44.1965372801
 10
-104.4549141949
 20
44.1872432809
 10
-104.4551777218
 20
44.1779384098
 10
-104.4552789505
 20
44.1686208638
 10
-104.4552178811
 20
44.1592906303
  0
LWPOLYLINE
  5
2B4
100
AcDbEntity
  8
ASSI
100
AcDbPolyline
 62
250
  6
CONTINUOUS
 90
10
 70
0
 10
-104.4499301671
 20
44.2427587705
 10
-104.4511650854
 20
44.23355113
 10
-104.4522383049
 20
44.2243255358
 10
-104.4531498256
 20
44.2150819709
 10
-104.4538998473
 20
44.2058186284
 10
-104.4544881702
 20
44.1965372801
 10
-104.4549141949
 20
44.1872432809
 10
-104.4551777218
 20
44.1779384098
 10
-104.4552789505
 20
44.1686208638
 10
-104.4552178811
 20
44.1592906303
  0
LINE
  5
2B5
100
AcDbEntity
  8
DRAFT
100
AcDbLine
 62
7
  6
CONTINUOUS
 10
-105.0
 20
-3.6
 11
-104.9126980763
 21
-3.4689805518
  0
LINE
  5
2B6
100
AcDbEntity
  8
ASSI
100
AcDbLine
 62
7
  6
CONTINUOUS
 10
-105.0
 20
-3.6
 11
-104.9126980763
 21
-3.4689805518
  0
LINE
  5
2B7
100
AcDbEntity
  8
DRAFT
100
AcDbLine
 62
7
  6
CONTINUOUS
 10
-105.0
 20
3.6
 11
-104.9126980763
 21
3.4689805518
  0
LINE
  5
2B8
100
AcDbEntity
  8
ASSI
100
AcDbLine
 62
7
  6
CONTINUOUS
 10
-105.0
 20
3.6
 11
-104.9126980763
 21
3.4689805518
  0
LINE
  5
2B9
100
AcDbEntity
  8
RACCORDO
100
AcDbLine
 62
250
  6
CONTINUOUS
 10
-79.6212515687
 20
-22.3972175501
 11
-79.6212515687
 21
22.3972175501
  0
LINE
  5
2BA
100
AcDbEntity
  8
ASSI
100
AcDbLine
 62
250
  6
CONTINUOUS
 10
-79.6212515687
 20
-22.3972175501
 11
-79.6212515687
 21
22.3972175501
  0
LINE
  5
2BB
100
AcDbEntity
  8
RACCORDO
100
AcDbLine
 62
250
  6
CONTINUOUS
 10
-79.1224728262
 20
-22.3732040394
 11
-79.1224728262
 21
22.3732040394
  0
LINE
  5
2BC
100
AcDbEntity
  8
ASSI
100
AcDbLine
 62
250
  6
CONTINUOUS
 10
-79.1224728262
 20
-22.3732040394
 11
-79.1224728262
 21
22.3732040394
  0
LINE
  5
2BD
100
AcDbEntity
  8
0
100
AcDbLine
 62
7
  6
CONTINUOUS
 10
-79.0640047185
 20
-22.3149555543
 11
-79.0640047185
 21
22.3149555543
  0
LINE
  5
2BE
100
AcDbEntity
  8
ASSI
100
AcDbLine
 62
7
  6
CONTINUOUS
 10
-79.0640047185
 20
-22.3149555543
 11
-79.0640047185
 21
22.3149555543
  0
LINE
  5
2BF
100
AcDbEntity
  8
RACCORDO
100
AcDbLine
 62
250
  6
CONTINUOUS
 10
-78.7200425662
 20
23.2972774442
 11
-78.7200425662
 21
22.770285941
  0
LINE
  5
2C0
100
AcDbEntity
  8
ASSI
100
AcDbLine
 62
250
  6
CONTINUOUS
 10
-78.7200425662
 20
23.2972774442
 11
-78.7200425662
 21
22.770285941
  0
LINE
  5
2C1
100
AcDbEntity
  8
RACCORDO
100
AcDbLine
 62
250
  6
CONTINUOUS
 10
-78.7200425662
 20
-23.2972774442
 11
-78.7200425662
 21
-22.770285941
  0
LINE
  5
2C2
100
AcDbEntity
  8
ASSI
100
AcDbLine
 62
250
  6
CONTINUOUS
 10
-78.7200425662
 20
-23.2972774442
 11
-78.7200425662
 21
-22.770285941
  0
LWPOLYLINE
  5
2C3
100
AcDbEntity
  8
RACCORDO
100
AcDbPolyline
 62
250
  6
CONTINUOUS
 90
28
 70
0
 10
-79.1224728262
 20
22.3732040394
 10
-79.1218192597
 20
22.3965974089
 10
-79.119796969
 20
22.4198110545
 10
-79.1164284972
 20
22.442767591
 10
-79.1117472817
 20
22.4653633197
 10
-79.1057808015
 20
22.48755517
 10
-79.0985341032
 20
22.5093566087
 10
-79.0900200602
 20
22.5307214739
 10
-79.0802752708
 20
22.5515517935
 10
-79.069331468
 20
22.571781522
 10
-79.0572245075
 20
22.5913429068
 10
-79.0439941582
 20
22.6101710149
 10
-79.0296828284
 20
22.628206717
 10
-79.0143303116
 20
22.6453960401
 10
-78.997992483
 20
22.6616734882
 10
-78.9807436211
 20
22.6769694423
 10
-78.9626859041
 20
22.6912032305
 10
-78.9438414363
 20
22.704366841
 10
-78.9241577478
 20
22.7164891074
 10
-78.9036541348
 20
22.7275298978
 10
-78.8824221034
 20
22.7374124758
 10
-78.8605089011
 20
22.7460927802
 10
-78.8379261831
 20
22.7535344158
 10
-78.8147964464
 20
22.759666108
 10
-78.7913451169
 20
22.7644192188
 10
-78.7677054189
 20
22.7677740175
 10
-78.7439102931
 20
22.7697312476
 10
-78.7200425662
 20
22.770285941
  0
LWPOLYLINE
  5
2C4
100
AcDbEntity
  8
ASSI
100
AcDbPolyline
 62
250
  6
CONTINUOUS
 90
28
 70
0
 10
-79.1224728262
 20
22.3732040394
 10
-79.1218192597
 20
22.3965974089
 10
-79.119796969
 20
22.4198110545
 10
-79.1164284972
 20
22.442767591
 10
-79.1117472817
 20
22.4653633197
 10
-79.1057808015
 20
22.48755517
 10
-79.0985341032
 20
22.5093566087
 10
-79.0900200602
 20
22.5307214739
 10
-79.0802752708
 20
22.5515517935
 10
-79.069331468
 20
22.571781522
 10
-79.0572245075
 20
22.5913429068
 10
-79.0439941582
 20
22.6101710149
 10
-79.0296828284
 20
22.628206717
 10
-79.0143303116
 20
22.6453960401
 10
-78.997992483
 20
22.6616734882
 10
-78.9807436211
 20
22.6769694423
 10
-78.9626859041
 20
22.6912032305
 10
-78.9438414363
 20
22.704366841
 10
-78.9241577478
 20
22.7164891074
 10
-78.9036541348
 20
22.7275298978
 10
-78.8824221034
 20
22.7374124758
 10
-78.8605089011
 20
22.7460927802
 10
-78.8379261831
 20
22.7535344158
 10
-78.8147964464
 20
22.759666108
 10
-78.7913451169
 20
22.7644192188
 10
-78.7677054189
 20
22.7677740175
 10
-78.7439102931
 20
22.7697312476
 10
-78.7200425662
 20
22.770285941
  0
LWPOLYLINE
  5
2C5
100
AcDbEntity
  8
RACCORDO
100
AcDbPolyline
 62
250
  6
CONTINUOUS
 90
28
 70
0
 10
-79.6212515687
 20
22.3972175501
 10
-79.619607963
 20
22.4502006834
 10
-79.6150220584
 20
22.5024537283
 10
-79.607493855
 20
22.5539793798
 10
-79.5969783867
 20
22.6048830995
 10
-79.5835206195
 20
22.6550644374
 10
-79.5672554519
 20
22.7042183391
 10
-79.548156293
 20
22.752404192
 10
-79.5262497338
 20
22.7995697609
 10
-79.5017504447
 20
22.845245322
 10
-79.4746341873
 20
22.8894232814
 10
-79.4449252002
 20
22.9321212341
 10
-79.4129108696
 20
22.9729101166
 10
-79.3785507627
 20
23.011790144
 10
-79.3418853124
 20
23.0487725949
 10
-79.303323203
 20
23.0834471885
 10
-79.2629523531
 20
23.1157436503
 10
-79.220684844
 20
23.1457441694
 10
-79.1766656041
 20
23.1732681629
 10
-79.1308146377
 20
23.19837807
 10
-79.0832119405
 20
23.2210213793
 10
-79.0342424277
 20
23.2408454287
 10
-78.9837547556
 20
23.2578391739
 10
-78.931900268
 20
23.2720216841
 10
-78.8795179106
 20
23.283085512
 10
-78.8268873322
 20
23.2909298403
 10
-78.773728884
 20
23.2956601036
 10
-78.7200425662
 20
23.2972774442
  0
LWPOLYLINE
  5
2C6
100
AcDbEntity
  8
ASSI
100
AcDbPolyline
 62
250
  6
CONTINUOUS
 90
28
 70
0
 10
-79.6212515687
 20
22.3972175501
 10
-79.619607963
 20
22.4502006834
 10
-79.6150220584
 20
22.5024537283
 10
-79.607493855
 20
22.5539793798
 10
-79.5969783867
 20
22.6048830995
 10
-79.5835206195
 20
22.6550644374
 10
-79.5672554519
 20
22.7042183391
 10
-79.548156293
 20
22.752404192
 10
-79.5262497338
 20
22.7995697609
 10
-79.5017504447
 20
22.845245322
 10
-79.4746341873
 20
22.8894232814
 10
-79.4449252002
 20
22.9321212341
 10
-79.4129108696
 20
22.9729101166
 10
-79.3785507627
 20
23.011790144
 10
-79.3418853124
 20
23.0487725949
 10
-79.303323203
 20
23.0834471885
 10
-79.2629523531
 20
23.1157436503
 10
-79.220684844
 20
23.1457441694
 10
-79.1766656041
 20
23.1732681629
 10
-79.1308146377
 20
23.19837807
 10
-79.0832119405
 20
23.2210213793
 10
-79.0342424277
 20
23.2408454287
 10
-78.9837547556
 20
23.2578391739
 10
-78.931900268
 20
23.2720216841
 10
-78.8795179106
 20
23.283085512
 10
-78.8268873322
 20
23.2909298403
 10
-78.773728884
 20
23.2956601036
 10
-78.7200425662
 20
23.2972774442
  0
LWPOLYLINE
  5
2C7
100
AcDbEntity
  8
0
100
AcDbPolyline
 62
7
  6
CONTINUOUS
 90
25
 70
0
 10
-79.0640047185
 20
22.3149555543
 10
-79.0631473974
 20
22.3410665639
 10
-79.0605822751
 20
22.3670374365
 10
-79.0563254919
 20
22.3927579111
 10
-79.0504017738
 20
22.4181134958
 10
-79.0428405555
 20
22.4430035856
 10
-79.0336720922
 20
22.4673407924
 10
-79.0229488021
 20
22.4909978037
 10
-79.0107085685
 20
22.5139012698
 10
-78.9969490415
 20
22.536038975
 10
-78.9816729985
 20
22.5573595537
 10
-78.9649644467
 20
22.5777035095
 10
-78.946951509
 20
22.5969024974
 10
-78.9277216122
 20
22.6148657608
 10
-78.9073507162
 20
22.6315252752
 10
-78.8859801077
 20
22.6467763301
 10
-78.863750907
 20
22.6605395627
 10
-78.8407261958
 20
22.6727964603
 10
-78.8169342321
 20
22.6835392643
 10
-78.7924543585
 20
22.6927260363
 10
-78.767408366
 20
22.700305148
 10
-78.741884146
 20
22.706246244
 10
-78.7159828676
 20
22.7105182293
 10
-78.689819759
 20
22.7130934897
 10
-78.6635061217
 20
22.7139537282
  0
LWPOLYLINE
  5
2C8
100
AcDbEntity
  8
ASSI
100
AcDbPolyline
 62
7
  6
CONTINUOUS
 90
25
 70
0
 10
-79.0640047185
 20
22.3149555543
 10
-79.0631473974
 20
22.3410665639
 10
-79.0605822751
 20
22.3670374365
 10
-79.0563254919
 20
22.3927579111
 10
-79.0504017738
 20
22.4181134958
 10
-79.0428405555
 20
22.4430035856
 10
-79.0336720922
 20
22.4673407924
 10
-79.0229488021
 20
22.4909978037
 10
-79.0107085685
 20
22.5139012698
 10
-78.9969490415
 20
22.536038975
 10
-78.9816729985
 20
22.5573595537
 10
-78.9649644467
 20
22.5777035095
 10
-78.946951509
 20
22.5969024974
 10
-78.9277216122
 20
22.6148657608
 10
-78.9073507162
 20
22.6315252752
 10
-78.8859801077
 20
22.6467763301
 10
-78.863750907
 20
22.6605395627
 10
-78.8407261958
 20
22.6727964603
 10
-78.8169342321
 20
22.6835392643
 10
-78.7924543585
 20
22.6927260363
 10
-78.767408366
 20
22.700305148
 10
-78.741884146
 20
22.706246244
 10
-78.7159828676
 20
22.7105182293
 10
-78.689819759
 20
22.7130934897
 10
-78.6635061217
 20
22.7139537282
  0
LWPOLYLINE
  5
2C9
100
AcDbEntity
  8
RACCORDO
100
AcDbPolyline
 62
250
  6
CONTINUOUS
 90
25
 70
0
 10
103.9797382941
 20
-44.9791689013
 10
104.0101402032
 20
-44.9752598954
 10
104.0398902212
 20
-44.9681418669
 10
104.0689883479
 20
-44.9579456131
 10
104.0974830926
 20
-44.9448250406
 10
104.1253259462
 20
-44.9289100065
 10
104.152371381
 20
-44.9102695067
 10
104.1786440377
 20
-44.8889860443
 10
104.2041192756
 20
-44.8652040411
 10
104.2285776457
 20
-44.8390634862
 10
104.2520129795
 20
-44.8106773514
 10
104.2744314454
 20
-44.780190664
 10
104.2956321
 20
-44.7478151631
 10
104.31554529
 20
-44.7138102297
 10
104.3342406686
 20
-44.6782228709
 10
104.3517262515
 20
-44.6409181281
 10
104.368042729
 20
-44.6019373896
 10
104.3831494108
 20
-44.5614401669
 10
104.3969322412
 20
-44.5194144542
 10
104.4094150557
 20
-44.4758304566
 10
104.4205740188
 20
-44.4308983941
 10
104.4302235678
 20
-44.3849789666
 10
104.4383018484
 20
-44.338281343
 10
104.4448707148
 20
-44.290836606
 10
104.4499301671
 20
-44.2427587705
  0
LWPOLYLINE
  5
2CA
100
AcDbEntity
  8
ASSI
100
AcDbPolyline
 62
250
  6
CONTINUOUS
 90
25
 70
0
 10
103.9797382941
 20
-44.9791689013
 10
104.0101402032
 20
-44.9752598954
 10
104.0398902212
 20
-44.9681418669
 10
104.0689883479
 20
-44.9579456131
 10
104.0974830926
 20
-44.9448250406
 10
104.1253259462
 20
-44.9289100065
 10
104.152371381
 20
-44.9102695067
 10
104.1786440377
 20
-44.8889860443
 10
104.2041192756
 20
-44.8652040411
 10
104.2285776457
 20
-44.8390634862
 10
104.2520129795
 20
-44.8106773514
 10
104.2744314454
 20
-44.780190664
 10
104.2956321
 20
-44.7478151631
 10
104.31554529
 20
-44.7138102297
 10
104.3342406686
 20
-44.6782228709
 10
104.3517262515
 20
-44.6409181281
 10
104.368042729
 20
-44.6019373896
 10
104.3831494108
 20
-44.5614401669
 10
104.3969322412
 20
-44.5194144542
 10
104.4094150557
 20
-44.4758304566
 10
104.4205740188
 20
-44.4308983941
 10
104.4302235678
 20
-44.3849789666
 10
104.4383018484
 20
-44.338281343
 10
104.4448707148
 20
-44.290836606
 10
104.4499301671
 20
-44.2427587705
  0
LWPOLYLINE
  5
2CB
100
AcDbEntity
  8
RACCORDO
100
AcDbPolyline
 62
250
  6
CONTINUOUS
 90
25
 70
0
 10
103.9797805097
 20
-44.9791713367
 10
104.0415117321
 20
-44.9757873222
 10
104.1023545244
 20
-44.9685392508
 10
104.1620782756
 20
-44.9575745988
 10
104.2203791434
 20
-44.9430741077
 10
104.2771540481
 20
-44.92519554
 10
104.3324854809
 20
-44.9040186457
 10
104.3862720447
 20
-44.8796437438
 10
104.4382629262
 20
-44.8522457973
 10
104.4883200546
 20
-44.8219790813
 10
104.5363259768
 20
-44.7889839473
 10
104.5821194707
 20
-44.7534407784
 10
104.6255234672
 20
-44.7155823785
 10
104.6663125992
 20
-44.6757267114
 10
104.7045475451
 20
-44.6339407082
 10
104.7404518006
 20
-44.5900398316
 10
104.7739486801
 20
-44.5440985277
 10
104.8048781573
 20
-44.4963182505
 10
104.8332583144
 20
-44.446636233
 10
104.8590229409
 20
-44.3950501069
 10
104.8819657536
 20
-44.341837614
 10
104.9019037607
 20
-44.2873619379
 10
104.918744457
 20
-44.2318696647
 10
104.932448837
 20
-44.1754734873
 10
104.9429628519
 20
-44.1183573363
  0
LWPOLYLINE
  5
2CC
100
AcDbEntity
  8
ASSI
100
AcDbPolyline
 62
250
  6
CONTINUOUS
 90
25
 70
0
 10
103.9797805097
 20
-44.9791713367
 10
104.0415117321
 20
-44.9757873222
 10
104.1023545244
 20
-44.9685392508
 10
104.1620782756
 20
-44.9575745988
 10
104.2203791434
 20
-44.9430741077
 10
104.2771540481
 20
-44.92519554
 10
104.3324854809
 20
-44.9040186457
 10
104.3862720447
 20
-44.8796437438
 10
104.4382629262
 20
-44.8522457973
 10
104.4883200546
 20
-44.8219790813
 10
104.5363259768
 20
-44.7889839473
 10
104.5821194707
 20
-44.7534407784
 10
104.6255234672
 20
-44.7155823785
 10
104.6663125992
 20
-44.6757267114
 10
104.7045475451
 20
-44.6339407082
 10
104.7404518006
 20
-44.5900398316
 10
104.7739486801
 20
-44.5440985277
 10
104.8048781573
 20
-44.4963182505
 10
104.8332583144
 20
-44.446636233
 10
104.8590229409
 20
-44.3950501069
 10
104.8819657536
 20
-44.341837614
 10
104.9019037607
 20
-44.2873619379
 10
104.918744457
 20
-44.2318696647
 10
104.932448837
 20
-44.1754734873
 10
104.9429628519
 20
-44.1183573363
  0
LINE
  5
2CD
100
AcDbEntity
  8
RACCORDO
100
AcDbLine
 62
250
  6
CONTINUOUS
 10
-104.9549132947
 20
-43.9555224676
 11
-105.0
 21
-44.000609173
  0
LINE
  5
2CE
100
AcDbEntity
  8
ASSI
100
AcDbLine
 62
250
  6
CONTINUOUS
 10
-104.9549132947
 20
-43.9555224676
 11
-105.0
 21
-44.000609173
  0
LINE
  5
2CF
100
AcDbEntity
  8
RACCORDO
100
AcDbLine
 62
250
  6
CONTINUOUS
 10
-103.9797780743
 20
-44.9791689013
 11
-104.000609173
 21
-45.0
  0
LINE
  5
2D0
100
AcDbEntity
  8
ASSI
100
AcDbLine
 62
250
  6
CONTINUOUS
 10
-103.9797780743
 20
-44.9791689013
 11
-104.000609173
 21
-45.0
  0
LWPOLYLINE
  5
2D1
100
AcDbEntity
  8
0
100
AcDbPolyline
 62
7
  6
CONTINUOUS
 90
3
 70
0
 43
0.3500000006
 10
-0.8571428254
 20
57.8720240479
 10
0.0
 20
58.729171051
 10
0.0
 20
55.7291701355
  0
LWPOLYLINE
  5
2D2
100
AcDbEntity
  8
RACCORDO
100
AcDbPolyline
 62
250
  6
CONTINUOUS
 90
22
 70
0
 10
104.4552178811
 20
-44.1592906304
 10
104.4918224272
 20
-44.158268027
 10
104.5282304821
 20
-44.1561571132
 10
104.5642466126
 20
-44.1529692203
 10
104.5996774903
 20
-44.1487214608
 10
104.6343329264
 20
-44.1434366364
 10
104.6680268938
 20
-44.1371431157
 10
104.7005785285
 20
-44.1298746821
 10
104.7318130986
 20
-44.1216703519
 10
104.7615629407
 20
-44.1125741656
 10
104.7896683628
 20
-44.1026349506
 10
104.8159785006
 20
-44.0919060598
 10
104.8403521252
 20
-44.0804450851
 10
104.8626584044
 20
-44.0683135477
 10
104.8827776032
 20
-44.0555765684
 10
104.9006017263
 20
-44.0423025181
 10
104.9160350985
 20
-44.02856265
 10
104.9289948784
 20
-44.0144307179
 10
104.939411502
 20
-43.9999825801
 10
104.9472290569
 20
-43.9852957921
 10
104.9524055826
 20
-43.97044919
 10
104.9549132947
 20
-43.9555224676
  0
LWPOLYLINE
  5
2D3
100
AcDbEntity
  8
ASSI
100
AcDbPolyline
 62
250
  6
CONTINUOUS
 90
22
 70
0
 10
104.4552178811
 20
-44.1592906304
 10
104.4918224272
 20
-44.158268027
 10
104.5282304821
 20
-44.1561571132
 10
104.5642466126
 20
-44.1529692203
 10
104.5996774903
 20
-44.1487214608
 10
104.6343329264
 20
-44.1434366364
 10
104.6680268938
 20
-44.1371431157
 10
104.7005785285
 20
-44.1298746821
 10
104.7318130986
 20
-44.1216703519
 10
104.7615629407
 20
-44.1125741656
 10
104.7896683628
 20
-44.1026349506
 10
104.8159785006
 20
-44.0919060598
 10
104.8403521252
 20
-44.0804450851
 10
104.8626584044
 20
-44.0683135477
 10
104.8827776032
 20
-44.0555765684
 10
104.9006017263
 20
-44.0423025181
 10
104.9160350985
 20
-44.02856265
 10
104.9289948784
 20
-44.0144307179
 10
104.939411502
 20
-43.9999825801
 10
104.9472290569
 20
-43.9852957921
 10
104.9524055826
 20
-43.97044919
 10
104.9549132947
 20
-43.9555224676
  0
LINE
  5
2D4
100
AcDbEntity
  8
RACCORDO
100
AcDbLine
 62
7
  6
CONTINUOUS
 10
-104.000609173
 20
-45.0
 11
104.000609173
 21
-45.0
  0
LINE
  5
2D5
100
AcDbEntity
  8
ASSI
100
AcDbLine
 62
7
  6
CONTINUOUS
 10
-104.000609173
 20
-45.0
 11
104.000609173
 21
-45.0
  0
LINE
  5
2D6
100
AcDbEntity
  8
RACCORDO
100
AcDbLine
 62
250
  6
CONTINUOUS
 10
103.9797780743
 20
-44.9791689013
 11
-103.9797780743
 21
-44.9791689013
  0
LINE
  5
2D7
100
AcDbEntity
  8
ASSI
100
AcDbLine
 62
250
  6
CONTINUOUS
 10
103.9797780743
 20
-44.9791689013
 11
-103.9797780743
 21
-44.9791689013
  0
LINE
  5
2D8
100
AcDbEntity
  8
RACCORDO
100
AcDbLine
 62
250
  6
CONTINUOUS
 10
104.4499301671
 20
-44.2427587705
 11
-104.4499301671
 21
-44.2427587705
  0
LINE
  5
2D9
100
AcDbEntity
  8
ASSI
100
AcDbLine
 62
250
  6
CONTINUOUS
 10
104.4499301671
 20
-44.2427587705
 11
-104.4499301671
 21
-44.2427587705
  0
LWPOLYLINE
  5
2DA
100
AcDbEntity
  8
RACCORDO
100
AcDbPolyline
 62
250
  6
CONTINUOUS
 90
22
 70
0
 10
-104.4552178811
 20
-44.1592906303
 10
-104.4918223623
 20
-44.1582680193
 10
-104.5282303569
 20
-44.1561571023
 10
-104.5642464326
 20
-44.1529692104
 10
-104.5996772608
 20
-44.1487214557
 10
-104.6343326544
 20
-44.1434366394
 10
-104.6680265887
 20
-44.1371431296
 10
-104.7005781998
 20
-44.1298747087
 10
-104.731812756
 20
-44.1216703925
 10
-104.7615625949
 20
-44.1125742204
 10
-104.789668024
 20
-44.1026350192
 10
-104.8159781778
 20
-44.0919061409
 10
-104.8403518274
 20
-44.0804451765
 10
-104.8626581388
 20
-44.0683136465
 10
-104.8827773753
 20
-44.0555766712
 10
-104.9006015397
 20
-44.0423026206
 10
-104.9160349547
 20
-44.0285627476
 10
-104.9289947762
 20
-44.0144308059
 10
-104.9394114378
 20
-43.9999826534
 10
-104.9472290243
 20
-43.9852958455
 10
-104.9524055723
 20
-43.9704492188
 10
-104.9549132947
 20
-43.9555224676
  0
LWPOLYLINE
  5
2DB
100
AcDbEntity
  8
ASSI
100
AcDbPolyline
 62
250
  6
CONTINUOUS
 90
22
 70
0
 10
-104.4552178811
 20
-44.1592906303
 10
-104.4918223623
 20
-44.1582680193
 10
-104.5282303569
 20
-44.1561571023
 10
-104.5642464326
 20
-44.1529692104
 10
-104.5996772608
 20
-44.1487214557
 10
-104.6343326544
 20
-44.1434366394
 10
-104.6680265887
 20
-44.1371431296
 10
-104.7005781998
 20
-44.1298747087
 10
-104.731812756
 20
-44.1216703925
 10
-104.7615625949
 20
-44.1125742204
 10
-104.789668024
 20
-44.1026350192
 10
-104.8159781778
 20
-44.0919061409
 10
-104.8403518274
 20
-44.0804451765
 10
-104.8626581388
 20
-44.0683136465
 10
-104.8827773753
 20
-44.0555766712
 10
-104.9006015397
 20
-44.0423026206
 10
-104.9160349547
 20
-44.0285627476
 10
-104.9289947762
 20
-44.0144308059
 10
-104.9394114378
 20
-43.9999826534
 10
-104.9472290243
 20
-43.9852958455
 10
-104.9524055723
 20
-43.9704492188
 10
-104.9549132947
 20
-43.9555224676
  0
LINE
  5
2DC
100
AcDbEntity
  8
RACCORDO
100
AcDbLine
 62
250
  6
CONTINUOUS
 10
-104.9549132947
 20
43.9555224676
 11
-105.0
 21
44.000609173
  0
LINE
  5
2DD
100
AcDbEntity
  8
ASSI
100
AcDbLine
 62
250
  6
CONTINUOUS
 10
-104.9549132947
 20
43.9555224676
 11
-105.0
 21
44.000609173
  0
LINE
  5
2DE
100
AcDbEntity
  8
RACCORDO
100
AcDbLine
 62
250
  6
CONTINUOUS
 10
-103.9797780743
 20
44.9791689013
 11
-104.000609173
 21
45.0
  0
LINE
  5
2DF
100
AcDbEntity
  8
ASSI
100
AcDbLine
 62
250
  6
CONTINUOUS
 10
-103.9797780743
 20
44.9791689013
 11
-104.000609173
 21
45.0
  0
LINE
  5
2E0
100
AcDbEntity
  8
0
100
AcDbLine
 62
250
  6
CONTINUOUS
 10
-79.1224728262
 20
-22.3732040394
 11
-79.0640047185
 21
-22.3149555543
  0
LINE
  5
2E1
100
AcDbEntity
  8
ASSI
100
AcDbLine
 62
250
  6
CONTINUOUS
 10
-79.1224728262
 20
-22.3732040394
 11
-79.0640047185
 21
-22.3149555543
  0
LINE
  5
2E2
100
AcDbEntity
  8
0
100
AcDbLine
 62
250
  6
CONTINUOUS
 10
-78.7200425662
 20
-22.770285941
 11
-78.6635061217
 21
-22.7139537282
  0
LINE
  5
2E3
100
AcDbEntity
  8
ASSI
100
AcDbLine
 62
250
  6
CONTINUOUS
 10
-78.7200425662
 20
-22.770285941
 11
-78.6635061217
 21
-22.7139537282
  0
LINE
  5
2E4
100
AcDbEntity
  8
0
100
AcDbLine
 62
250
  6
CONTINUOUS
 10
-79.1224728262
 20
22.3732040394
 11
-79.0640047185
 21
22.3149555543
  0
LINE
  5
2E5
100
AcDbEntity
  8
ASSI
100
AcDbLine
 62
250
  6
CONTINUOUS
 10
-79.1224728262
 20
22.3732040394
 11
-79.0640047185
 21
22.3149555543
  0
LINE
  5
2E6
100
AcDbEntity
  8
0
100
AcDbLine
 62
250
  6
CONTINUOUS
 10
-78.7200425662
 20
22.770285941
 11
-78.6635061217
 21
22.7139537282
  0
LINE
  5
2E7
100
AcDbEntity
  8
ASSI
100
AcDbLine
 62
250
  6
CONTINUOUS
 10
-78.7200425662
 20
22.770285941
 11
-78.6635061217
 21
22.7139537282
  0
LWPOLYLINE
  5
2E8
100
AcDbEntity
  8
CURVE
100
AcDbPolyline
 62
250
  6
CONTINUOUS
 90
36
 70
0
 10
3.3200188023
 20
-26.110807341
 10
3.372893264
 20
-26.1031685001
 10
3.4250603331
 20
-26.0959278081
 10
3.4765198992
 20
-26.0891067225
 10
3.527271852
 20
-26.0827267007
 10
3.577316081
 20
-26.0768091999
 10
3.6266543381
 20
-26.0713735123
 10
3.6752958247
 20
-26.0664302679
 10
3.7232516042
 20
-26.0619879315
 10
3.7705327402
 20
-26.058054968
 10
3.8171502963
 20
-26.0546398421
 10
3.8631118291
 20
-26.0517499101
 10
3.908410868
 20
-26.049388094
 10
3.9530374355
 20
-26.0475562074
 10
3.9969815543
 20
-26.0462560636
 10
4.0402332468
 20
-26.0454894763
 10
4.0827864791
 20
-26.0452560697
 10
4.1246509916
 20
-26.0455467106
 10
4.1658404681
 20
-26.0463500767
 10
4.2063685926
 20
-26.0476548457
 10
4.2462490488
 20
-26.0494496951
 10
4.2854924452
 20
-26.0517271433
 10
4.3240970878
 20
-26.0544950715
 10
4.3620582069
 20
-26.0577652014
 10
4.3993710329
 20
-26.0615492549
 10
4.4360307964
 20
-26.0658589538
 10
4.4720284828
 20
-26.0707062064
 10
4.507338098
 20
-26.0761036664
 10
4.541929403
 20
-26.082064174
 10
4.5757721587
 20
-26.0886005694
 10
4.6088361261
 20
-26.0957256929
 10
4.6410977274
 20
-26.1034496024
 10
4.6725600299
 20
-26.1117712277
 10
4.7032327621
 20
-26.1206867163
 10
4.7331256525
 20
-26.1301922157
 10
4.7622484297
 20
-26.1402838735
  0
LWPOLYLINE
  5
2E9
100
AcDbEntity
  8
RACCORDO
100
AcDbPolyline
 62
250
  6
CONTINUOUS
 90
22
 70
0
 10
-104.4499301671
 20
-44.2427587705
 10
-104.4845465592
 20
-44.2464454683
 10
-104.518993928
 20
-44.2491124208
 10
-104.5531040496
 20
-44.2507466037
 10
-104.5867103461
 20
-44.2513400373
 10
-104.6196486994
 20
-44.2508898217
 10
-104.6517582523
 20
-44.24939815
 10
-104.6828821955
 20
-44.2468723049
 10
-104.7128685315
 20
-44.2433246208
 10
-104.7415708168
 20
-44.2387724193
 10
-104.76884888
 20
-44.2332379293
 10
-104.7945695039
 20
-44.2267481776
 10
-104.8186070751
 20
-44.2193348557
 10
-104.8408442018
 20
-44.2110341647
 10
-104.861172284
 20
-44.2018866405
 10
-104.8794920424
 20
-44.1919369561
 10
-104.8957140083
 20
-44.1812336992
 10
-104.9097589574
 20
-44.169829139
 10
-104.921558295
 20
-44.1577789732
 10
-104.9310543954
 20
-44.1451420495
 10
-104.938200882
 20
-44.1319800782
 10
-104.9429628521
 20
-44.1183573351
  0
LWPOLYLINE
  5
2EA
100
AcDbEntity
  8
ASSI
100
AcDbPolyline
 62
250
  6
CONTINUOUS
 90
22
 70
0
 10
-104.4499301671
 20
-44.2427587705
 10
-104.4845465592
 20
-44.2464454683
 10
-104.518993928
 20
-44.2491124208
 10
-104.5531040496
 20
-44.2507466037
 10
-104.5867103461
 20
-44.2513400373
 10
-104.6196486994
 20
-44.2508898217
 10
-104.6517582523
 20
-44.24939815
 10
-104.6828821955
 20
-44.2468723049
 10
-104.7128685315
 20
-44.2433246208
 10
-104.7415708168
 20
-44.2387724193
 10
-104.76884888
 20
-44.2332379293
 10
-104.7945695039
 20
-44.2267481776
 10
-104.8186070751
 20
-44.2193348557
 10
-104.8408442018
 20
-44.2110341647
 10
-104.861172284
 20
-44.2018866405
 10
-104.8794920424
 20
-44.1919369561
 10
-104.8957140083
 20
-44.1812336992
 10
-104.9097589574
 20
-44.169829139
 10
-104.921558295
 20
-44.1577789732
 10
-104.9310543954
 20
-44.1451420495
 10
-104.938200882
 20
-44.1319800782
 10
-104.9429628521
 20
-44.1183573351
  0
LWPOLYLINE
  5
2EB
100
AcDbEntity
  8
CURVE
100
AcDbPolyline
 62
250
  6
CONTINUOUS
 90
55
 70
0
 10
4.2166806432
 20
-27.3236280866
 10
4.2326816808
 20
-27.3231317365
 10
4.2483832903
 20
-27.322366837
 10
4.2637807422
 20
-27.321337503
 10
4.2788693071
 20
-27.3200478499
 10
4.2936442556
 20
-27.3185019928
 10
4.3081008583
 20
-27.3167040467
 10
4.3222375748
 20
-27.3146569021
 10
4.3360656204
 20
-27.3123585503
 10
4.3495993991
 20
-27.3098057577
 10
4.3628533153
 20
-27.3069952908
 10
4.3758417731
 20
-27.3039239161
 10
4.3885791768
 20
-27.3005884001
 10
4.4010769782
 20
-27.2969849499
 10
4.4133348209
 20
-27.2931075358
 10
4.4253493958
 20
-27.2889495684
 10
4.4371173941
 20
-27.2845044588
 10
4.448635507
 20
-27.2797656176
 10
4.4599004256
 20
-27.2747264557
 10
4.4709089788
 20
-27.2693800705
 10
4.481658546
 20
-27.2637183045
 10
4.4921466448
 20
-27.257732687
 10
4.5023718786
 20
-27.2514116408
 10
4.5123371955
 20
-27.2447311641
 10
4.5220466295
 20
-27.2376641487
 10
4.5315002026
 20
-27.2301896889
 10
4.540681887
 20
-27.2223116878
 10
4.5495716428
 20
-27.2140402509
 10
4.5581544999
 20
-27.2053840914
 10
4.5664357681
 20
-27.196346353
 10
4.5744258273
 20
-27.1869287871
 10
4.5821319854
 20
-27.1771366822
 10
4.589549263
 20
-27.1669894757
 10
4.5966696083
 20
-27.1565101422
 10
4.60348497
 20
-27.1457216563
 10
4.6099872966
 20
-27.1346469925
 10
4.6161685365
 20
-27.1233091254
 10
4.6220221128
 20
-27.1117296134
 10
4.627547346
 20
-27.0999243497
 10
4.6327450314
 20
-27.0879078112
 10
4.6376159641
 20
-27.0756944749
 10
4.6421609392
 20
-27.0632988178
 10
4.6463807519
 20
-27.0507353169
 10
4.6502757245
 20
-27.0380164359
 10
4.653844288
 20
-27.025146586
 10
4.6570844006
 20
-27.0121281648
 10
4.6599940205
 20
-26.9989635702
 10
4.6625711059
 20
-26.9856552001
 10
4.6648136149
 20
-26.9722054523
 10
4.6667172855
 20
-26.9586161829
 10
4.6682689742
 20
-26.9448870813
 10
4.6694533173
 20
-26.9310172953
 10
4.6702549511
 20
-26.9170059725
 10
4.6706585117
 20
-26.9028522606
 10
4.6706486355
 20
-26.8885553074
  0
LINE
  5
2EC
100
AcDbEntity
  8
CURVE
100
AcDbLine
 62
250
  6
CONTINUOUS
 10
5.3591482119
 20
-28.8778013544
 11
4.7970156219
 21
-28.8778013544
  0
LINE
  5
2ED
100
AcDbEntity
  8
CURVE
100
AcDbLine
 62
250
  6
CONTINUOUS
 10
-4.616107
 20
-28.877801
 11
-4.101097
 21
-28.877801
  0
LINE
  5
2EE
100
AcDbEntity
  8
CURVE
100
AcDbLine
 62
250
  6
CONTINUOUS
 10
3.9020753449
 20
-28.8778013544
 11
3.3200188023
 21
-28.8778013544
  0
LINE
  5
2EF
100
AcDbEntity
  8
CURVE
100
AcDbLine
 62
250
  6
CONTINUOUS
 10
-2.085272
 20
-28.877801
 11
-1.526183
 21
-28.877801
  0
LINE
  5
2F0
100
AcDbEntity
  8
CURVE
100
AcDbLine
 62
250
  6
CONTINUOUS
 10
-0.714487
 20
-28.877801
 11
-0.632524
 21
-28.877801
  0
LINE
  5
2F1
100
AcDbEntity
  8
CURVE
100
AcDbLine
 62
250
  6
CONTINUOUS
 10
0.182406
 20
-28.877801
 11
0.754112
 21
-28.877801
  0
LINE
  5
2F2
100
AcDbEntity
  8
CURVE
100
AcDbLine
 62
250
  6
CONTINUOUS
 10
0.84588
 20
-28.877801
 11
1.423947
 21
-28.877801
  0
LINE
  5
2F3
100
AcDbEntity
  8
CURVE
100
AcDbLine
 62
250
  6
CONTINUOUS
 10
2.532466
 20
-28.877801
 11
3.148408
 21
-28.877801
  0
LINE
  5
2F4
100
AcDbEntity
  8
CURVE
100
AcDbLine
 62
250
  6
CONTINUOUS
 10
-2.399877
 20
-28.877801
 11
-2.984285
 21
-28.877801
  0
LINE
  5
2F5
100
AcDbEntity
  8
CURVE
100
AcDbLine
 62
250
  6
CONTINUOUS
 10
1.585207
 20
-28.318881
 11
2.381074
 21
-28.318881
  0
LINE
  5
2F6
100
AcDbEntity
  8
CURVE
100
AcDbLine
 62
250
  6
CONTINUOUS
 10
2.26428
 20
-27.886391
 11
1.704751
 21
-27.886391
  0
LINE
  5
2F7
100
AcDbEntity
  8
CURVE
100
AcDbLine
 62
250
  6
CONTINUOUS
 10
4.2154209623
 20
-27.7821519248
 11
3.9020753449
 21
-27.7821519248
  0
LINE
  5
2F8
100
AcDbEntity
  8
CURVE
100
AcDbLine
 62
250
  6
CONTINUOUS
 10
3.8826972541
 20
-27.3236280866
 11
4.2166806432
 21
-27.3236280866
  0
LINE
  5
2F9
100
AcDbEntity
  8
CURVE
100
AcDbLine
 62
250
  6
CONTINUOUS
 10
2.28939
 20
-26.078098
 11
1.724045
 21
-26.078098
  0
LINE
  5
2FA
100
AcDbEntity
  8
CURVE
100
AcDbLine
 62
250
  6
CONTINUOUS
 10
0.492308
 20
-26.078098
 11
-0.085906
 21
-26.078098
  0
LINE
  5
2FB
100
AcDbEntity
  8
CURVE
100
AcDbLine
 62
250
  6
CONTINUOUS
 10
-1.24855
 20
-26.078098
 11
-1.832475
 21
-26.078098
  0
LINE
  5
2FC
100
AcDbEntity
  8
CURVE
100
AcDbLine
 62
250
  6
CONTINUOUS
 10
-3.20116
 20
-26.078098
 11
-3.785169
 21
-26.078098
  0
LINE
  5
2FD
100
AcDbEntity
  8
CURVE
100
AcDbLine
 62
250
  6
CONTINUOUS
 10
-4.86882
 20
-26.078098
 11
-5.503668
 21
-26.078098
  0
LINE
  5
2FE
100
AcDbEntity
  8
CURVE
100
AcDbLine
 62
250
  6
CONTINUOUS
 10
-2.984285
 20
-26.07793
 11
-2.399877
 21
-26.07793
  0
LWPOLYLINE
  5
2FF
100
AcDbEntity
  8
RACCORDO
100
AcDbPolyline
 62
250
  6
CONTINUOUS
 90
28
 70
0
 10
-78.7200425662
 20
-22.770285941
 10
-78.7436272069
 20
-22.7697458597
 10
-78.7670372166
 20
-22.7678480659
 10
-78.7901953393
 20
-22.7646153381
 10
-78.8129988825
 20
-22.7600819915
 10
-78.8354040603
 20
-22.7542750346
 10
-78.8574218809
 20
-22.7471978479
 10
-78.8790063205
 20
-22.738864092
 10
-78.9000596172
 20
-22.7293102679
 10
-78.9205133519
 20
-22.7185651582
 10
-78.9402999738
 20
-22.7066649009
 10
-78.9593547267
 20
-22.6936494
 10
-78.9776159914
 20
-22.6795577157
 10
-78.9950300457
 20
-22.6644299094
 10
-79.0115314353
 20
-22.6483217889
 10
-79.0270475983
 20
-22.631303591
 10
-79.0414977378
 20
-22.6134765238
 10
-79.0548740365
 20
-22.5948636037
 10
-79.067202847
 20
-22.5754112028
 10
-79.0784441991
 20
-22.5551399782
 10
-79.0885215246
 20
-22.5341404509
 10
-79.097388125
 20
-22.5124552317
 10
-79.105007726
 20
-22.4900963712
 10
-79.11130869
 20
-22.4671861605
 10
-79.1162185351
 20
-22.4439442646
 10
-79.1197159169
 20
-22.4205019599
 10
-79.1218024502
 20
-22.3968942263
 10
-79.1224728262
 20
-22.3732040394
  0
LWPOLYLINE
  5
300
100
AcDbEntity
  8
ASSI
100
AcDbPolyline
 62
250
  6
CONTINUOUS
 90
28
 70
0
 10
-78.7200425662
 20
-22.770285941
 10
-78.7436272069
 20
-22.7697458597
 10
-78.7670372166
 20
-22.7678480659
 10
-78.7901953393
 20
-22.7646153381
 10
-78.8129988825
 20
-22.7600819915
 10
-78.8354040603
 20
-22.7542750346
 10
-78.8574218809
 20
-22.7471978479
 10
-78.8790063205
 20
-22.738864092
 10
-78.9000596172
 20
-22.7293102679
 10
-78.9205133519
 20
-22.7185651582
 10
-78.9402999738
 20
-22.7066649009
 10
-78.9593547267
 20
-22.6936494
 10
-78.9776159914
 20
-22.6795577157
 10
-78.9950300457
 20
-22.6644299094
 10
-79.0115314353
 20
-22.6483217889
 10
-79.0270475983
 20
-22.631303591
 10
-79.0414977378
 20
-22.6134765238
 10
-79.0548740365
 20
-22.5948636037
 10
-79.067202847
 20
-22.5754112028
 10
-79.0784441991
 20
-22.5551399782
 10
-79.0885215246
 20
-22.5341404509
 10
-79.097388125
 20
-22.5124552317
 10
-79.105007726
 20
-22.4900963712
 10
-79.11130869
 20
-22.4671861605
 10
-79.1162185351
 20
-22.4439442646
 10
-79.1197159169
 20
-22.4205019599
 10
-79.1218024502
 20
-22.3968942263
 10
-79.1224728262
 20
-22.3732040394
  0
LWPOLYLINE
  5
301
100
AcDbEntity
  8
RACCORDO
100
AcDbPolyline
 62
250
  6
CONTINUOUS
 90
28
 70
0
 10
-78.7200425662
 20
-23.2972774442
 10
-78.7730674944
 20
-23.2956332601
 10
-78.8253686609
 20
-23.2910554937
 10
-78.8769460659
 20
-23.2835431032
 10
-78.9278997772
 20
-23.2730464637
 10
-78.9781297269
 20
-23.2596110789
 10
-79.0273357113
 20
-23.2433777465
 10
-79.0755712412
 20
-23.2243152086
 10
-79.1227828057
 20
-23.2024470536
 10
-79.1685096684
 20
-23.1779959704
 10
-79.2127375932
 20
-23.1509323872
 10
-79.2554808161
 20
-23.1212755831
 10
-79.2963213082
 20
-23.0893218213
 10
-79.3352527634
 20
-23.0550253955
 10
-79.3722814878
 20
-23.0184202787
 10
-79.4070083715
 20
-22.9799235213
 10
-79.4393577914
 20
-22.9396167073
 10
-79.4694053706
 20
-22.8974071021
 10
-79.4969788687
 20
-22.8534515814
 10
-79.522135662
 20
-22.8076666396
 10
-79.5448183742
 20
-22.760123807
 10
-79.5646826357
 20
-22.7112141297
 10
-79.5817151542
 20
-22.6607837751
 10
-79.5959292219
 20
-22.6089761324
 10
-79.6070203465
 20
-22.5566326317
 10
-79.6148870304
 20
-22.5040339323
 10
-79.6196307712
 20
-22.4508962297
 10
-79.6212515687
 20
-22.3972175501
  0
LWPOLYLINE
  5
302
100
AcDbEntity
  8
ASSI
100
AcDbPolyline
 62
250
  6
CONTINUOUS
 90
28
 70
0
 10
-78.7200425662
 20
-23.2972774442
 10
-78.7730674944
 20
-23.2956332601
 10
-78.8253686609
 20
-23.2910554937
 10
-78.8769460659
 20
-23.2835431032
 10
-78.9278997772
 20
-23.2730464637
 10
-78.9781297269
 20
-23.2596110789
 10
-79.0273357113
 20
-23.2433777465
 10
-79.0755712412
 20
-23.2243152086
 10
-79.1227828057
 20
-23.2024470536
 10
-79.1685096684
 20
-23.1779959704
 10
-79.2127375932
 20
-23.1509323872
 10
-79.2554808161
 20
-23.1212755831
 10
-79.2963213082
 20
-23.0893218213
 10
-79.3352527634
 20
-23.0550253955
 10
-79.3722814878
 20
-23.0184202787
 10
-79.4070083715
 20
-22.9799235213
 10
-79.4393577914
 20
-22.9396167073
 10
-79.4694053706
 20
-22.8974071021
 10
-79.4969788687
 20
-22.8534515814
 10
-79.522135662
 20
-22.8076666396
 10
-79.5448183742
 20
-22.760123807
 10
-79.5646826357
 20
-22.7112141297
 10
-79.5817151542
 20
-22.6607837751
 10
-79.5959292219
 20
-22.6089761324
 10
-79.6070203465
 20
-22.5566326317
 10
-79.6148870304
 20
-22.5040339323
 10
-79.6196307712
 20
-22.4508962297
 10
-79.6212515687
 20
-22.3972175501
  0
LWPOLYLINE
  5
303
100
AcDbEntity
  8
0
100
AcDbPolyline
 62
7
  6
CONTINUOUS
 90
25
 70
0
 10
-78.6635061217
 20
-22.7139537282
 10
-78.6898134139
 20
-22.7130939007
 10
-78.7159656392
 20
-22.7105204909
 10
-78.7418517255
 20
-22.7062526824
 10
-78.767354744
 20
-22.700319486
 10
-78.7923761047
 20
-22.6927525226
 10
-78.8168343721
 20
-22.6835804813
 10
-78.8406053962
 20
-22.6728557936
 10
-78.8636126655
 20
-22.6606190141
 10
-78.8858403824
 20
-22.6468692394
 10
-78.907237383
 20
-22.6316118336
 10
-78.9276455993
 20
-22.6149321604
 10
-78.946895555
 20
-22.5969583161
 10
-78.964897614
 20
-22.5777796532
 10
-78.9815857369
 20
-22.557473266
 10
-78.9968556306
 20
-22.5361787817
 10
-79.0106295293
 20
-22.514038131
 10
-79.0228909275
 20
-22.4911150739
 10
-79.0336328293
 20
-22.4674354775
 10
-79.0428159145
 20
-22.4430760504
 10
-79.0503889137
 20
-22.4181613698
 10
-79.0563200523
 20
-22.3927851912
 10
-79.0605805362
 20
-22.367050668
 10
-79.0631471393
 20
-22.3410706309
 10
-79.0640047185
 20
-22.3149555543
  0
LWPOLYLINE
  5
304
100
AcDbEntity
  8
ASSI
100
AcDbPolyline
 62
7
  6
CONTINUOUS
 90
25
 70
0
 10
-78.6635061217
 20
-22.7139537282
 10
-78.6898134139
 20
-22.7130939007
 10
-78.7159656392
 20
-22.7105204909
 10
-78.7418517255
 20
-22.7062526824
 10
-78.767354744
 20
-22.700319486
 10
-78.7923761047
 20
-22.6927525226
 10
-78.8168343721
 20
-22.6835804813
 10
-78.8406053962
 20
-22.6728557936
 10
-78.8636126655
 20
-22.6606190141
 10
-78.8858403824
 20
-22.6468692394
 10
-78.907237383
 20
-22.6316118336
 10
-78.9276455993
 20
-22.6149321604
 10
-78.946895555
 20
-22.5969583161
 10
-78.964897614
 20
-22.5777796532
 10
-78.9815857369
 20
-22.557473266
 10
-78.9968556306
 20
-22.5361787817
 10
-79.0106295293
 20
-22.514038131
 10
-79.0228909275
 20
-22.4911150739
 10
-79.0336328293
 20
-22.4674354775
 10
-79.0428159145
 20
-22.4430760504
 10
-79.0503889137
 20
-22.4181613698
 10
-79.0563200523
 20
-22.3927851912
 10
-79.0605805362
 20
-22.367050668
 10
-79.0631471393
 20
-22.3410706309
 10
-79.0640047185
 20
-22.3149555543
  0
LWPOLYLINE
  5
305
100
AcDbEntity
  8
RACCORDO
100
AcDbPolyline
 62
250
  6
CONTINUOUS
 90
22
 70
0
 10
104.4499301671
 20
-44.2427587705
 10
104.4845467617
 20
-44.246445682
 10
104.5189943057
 20
-44.2491128202
 10
104.553104573
 20
-44.2507471598
 10
104.5867109846
 20
-44.2513407194
 10
104.619649422
 20
-44.2508906
 10
104.6517590286
 20
-44.2493989999
 10
104.6828829957
 20
-44.2468732033
 10
104.7128693278
 20
-44.2433255448
 10
104.7415715852
 20
-44.2387733496
 10
104.7688495987
 20
-44.2332388485
 10
104.794570155
 20
-44.2267490693
 10
104.8186076462
 20
-44.2193357052
 10
104.8408446839
 20
-44.2110349597
 10
104.8611726724
 20
-44.2018873697
 10
104.8794923389
 20
-44.191937608
 10
104.8957142181
 20
-44.1812342647
 10
104.9097590897
 20
-44.1698296099
 10
104.9215583647
 20
-44.157779339
 10
104.9310544207
 20
-44.1451423001
 10
104.9382008831
 20
-44.1319802066
 10
104.9429628519
 20
-44.1183573363
  0
LWPOLYLINE
  5
306
100
AcDbEntity
  8
ASSI
100
AcDbPolyline
 62
250
  6
CONTINUOUS
 90
22
 70
0
 10
104.4499301671
 20
-44.2427587705
 10
104.4845467617
 20
-44.246445682
 10
104.5189943057
 20
-44.2491128202
 10
104.553104573
 20
-44.2507471598
 10
104.5867109846
 20
-44.2513407194
 10
104.619649422
 20
-44.2508906
 10
104.6517590286
 20
-44.2493989999
 10
104.6828829957
 20
-44.2468732033
 10
104.7128693278
 20
-44.2433255448
 10
104.7415715852
 20
-44.2387733496
 10
104.7688495987
 20
-44.2332388485
 10
104.794570155
 20
-44.2267490693
 10
104.8186076462
 20
-44.2193357052
 10
104.8408446839
 20
-44.2110349597
 10
104.8611726724
 20
-44.2018873697
 10
104.8794923389
 20
-44.191937608
 10
104.8957142181
 20
-44.1812342647
 10
104.9097590897
 20
-44.1698296099
 10
104.9215583647
 20
-44.157779339
 10
104.9310544207
 20
-44.1451423001
 10
104.9382008831
 20
-44.1319802066
 10
104.9429628519
 20
-44.1183573363
  0
LWPOLYLINE
  5
307
100
AcDbEntity
  8
CURVE
100
AcDbPolyline
 62
250
  6
CONTINUOUS
 90
22
 70
0
 10
4.3405282678
 20
-26.5385739712
 10
4.3198082799
 20
-26.5363164546
 10
4.2989782716
 20
-26.5343433413
 10
4.2780334838
 20
-26.5326573188
 10
4.2569691574
 20
-26.5312610745
 10
4.2357805331
 20
-26.5301572958
 10
4.2144628519
 20
-26.5293486702
 10
4.1930113546
 20
-26.5288378851
 10
4.1714241472
 20
-26.5286284511
 10
4.149710796
 20
-26.5287271712
 10
4.1278837322
 20
-26.5291416717
 10
4.1059553874
 20
-26.5298795786
 10
4.0839381928
 20
-26.5309485183
 10
4.0618445799
 20
-26.5323561168
 10
4.0396869799
 20
-26.5341100004
 10
4.0174745032
 20
-26.5362129295
 10
3.9952029758
 20
-26.5386482011
 10
3.9728649028
 20
-26.5413942467
 10
3.9504527891
 20
-26.5444294977
 10
3.9279591398
 20
-26.5477323853
 10
3.9053764598
 20
-26.5512813409
 10
3.8826972541
 20
-26.5550547959
  0
LWPOLYLINE
  5
308
100
AcDbEntity
  8
RACCORDO
100
AcDbPolyline
 62
250
  6
CONTINUOUS
 90
16
 70
0
 10
-79.4133500927
 20
-22.3948831389
 10
-79.3814087364
 20
-22.3940569256
 10
-79.3506919984
 20
-22.3931149769
 10
-79.3213567158
 20
-22.3920621025
 10
-79.2935526722
 20
-22.3909036781
 10
-79.2674218326
 20
-22.3896456187
 10
-79.2430976189
 20
-22.3882943478
 10
-79.2207042285
 20
-22.3868567648
 10
-79.2003559999
 20
-22.38534021
 10
-79.1821568294
 20
-22.3837524267
 10
-79.1661996402
 20
-22.3821015221
 10
-79.1525659083
 20
-22.3803959255
 10
-79.1413252462
 20
-22.3786443457
 10
-79.1325350474
 20
-22.3768557259
 10
-79.1262401939
 20
-22.3750391988
 10
-79.1224728262
 20
-22.3732040394
  0
LWPOLYLINE
  5
309
100
AcDbEntity
  8
ASSI
100
AcDbPolyline
 62
250
  6
CONTINUOUS
 90
16
 70
0
 10
-79.4133500927
 20
-22.3948831389
 10
-79.3814087364
 20
-22.3940569256
 10
-79.3506919984
 20
-22.3931149769
 10
-79.3213567158
 20
-22.3920621025
 10
-79.2935526722
 20
-22.3909036781
 10
-79.2674218326
 20
-22.3896456187
 10
-79.2430976189
 20
-22.3882943478
 10
-79.2207042285
 20
-22.3868567648
 10
-79.2003559999
 20
-22.38534021
 10
-79.1821568294
 20
-22.3837524267
 10
-79.1661996402
 20
-22.3821015221
 10
-79.1525659083
 20
-22.3803959255
 10
-79.1413252462
 20
-22.3786443457
 10
-79.1325350474
 20
-22.3768557259
 10
-79.1262401939
 20
-22.3750391988
 10
-79.1224728262
 20
-22.3732040394
  0
LINE
  5
30A
100
AcDbEntity
  8
RACCORDO
100
AcDbLine
 62
250
  6
CONTINUOUS
 10
-79.4802488804
 20
-22.3961720978
 11
-79.4133500927
 21
-22.3948831389
  0
LINE
  5
30B
100
AcDbEntity
  8
ASSI
100
AcDbLine
 62
250
  6
CONTINUOUS
 10
-79.4802488804
 20
-22.3961720978
 11
-79.4133500927
 21
-22.3948831389
  0
LINE
  5
30C
100
AcDbEntity
  8
RACCORDO
100
AcDbLine
 62
250
  6
CONTINUOUS
 10
-79.5500237861
 20
-22.3969555618
 11
-79.4802488804
 21
-22.3961720978
  0
LINE
  5
30D
100
AcDbEntity
  8
ASSI
100
AcDbLine
 62
250
  6
CONTINUOUS
 10
-79.5500237861
 20
-22.3969555618
 11
-79.4802488804
 21
-22.3961720978
  0
LINE
  5
30E
100
AcDbEntity
  8
RACCORDO
100
AcDbLine
 62
250
  6
CONTINUOUS
 10
-79.6212515687
 20
-22.3972175501
 11
-79.5500237861
 21
-22.3969555618
  0
LINE
  5
30F
100
AcDbEntity
  8
ASSI
100
AcDbLine
 62
250
  6
CONTINUOUS
 10
-79.6212515687
 20
-22.3972175501
 11
-79.5500237861
 21
-22.3969555618
  0
LINE
  5
310
100
AcDbEntity
  8
RACCORDO
100
AcDbLine
 62
250
  6
CONTINUOUS
 10
78.7200424952
 20
-23.2972774442
 11
-78.7200425662
 21
-23.2972774442
  0
LINE
  5
311
100
AcDbEntity
  8
ASSI
100
AcDbLine
 62
250
  6
CONTINUOUS
 10
78.7200424952
 20
-23.2972774442
 11
-78.7200425662
 21
-23.2972774442
  0
LINE
  5
312
100
AcDbEntity
  8
RACCORDO
100
AcDbLine
 62
250
  6
CONTINUOUS
 10
78.7200424952
 20
-22.770285941
 11
-78.7200425662
 21
-22.770285941
  0
LINE
  5
313
100
AcDbEntity
  8
ASSI
100
AcDbLine
 62
250
  6
CONTINUOUS
 10
78.7200424952
 20
-22.770285941
 11
-78.7200425662
 21
-22.770285941
  0
LINE
  5
314
100
AcDbEntity
  8
0
100
AcDbLine
 62
7
  6
CONTINUOUS
 10
78.6635060253
 20
-22.7139537282
 11
-78.6635061217
 21
-22.7139537282
  0
LINE
  5
315
100
AcDbEntity
  8
ASSI
100
AcDbLine
 62
7
  6
CONTINUOUS
 10
78.6635060253
 20
-22.7139537282
 11
-78.6635061217
 21
-22.7139537282
  0
LINE
  5
316
100
AcDbEntity
  8
RACCORDO
100
AcDbLine
 62
250
  6
CONTINUOUS
 10
79.6212514992
 20
-22.3972171773
 11
79.5500237628
 21
-22.3969552173
  0
LINE
  5
317
100
AcDbEntity
  8
ASSI
100
AcDbLine
 62
250
  6
CONTINUOUS
 10
79.6212514992
 20
-22.3972171773
 11
79.5500237628
 21
-22.3969552173
  0
LINE
  5
318
100
AcDbEntity
  8
RACCORDO
100
AcDbLine
 62
250
  6
CONTINUOUS
 10
79.5500237628
 20
-22.3969552173
 11
79.4802488915
 21
-22.3961717818
  0
LINE
  5
319
100
AcDbEntity
  8
ASSI
100
AcDbLine
 62
250
  6
CONTINUOUS
 10
79.5500237628
 20
-22.3969552173
 11
79.4802488915
 21
-22.3961717818
  0
LWPOLYLINE
  5
31A
100
AcDbEntity
  8
RACCORDO
100
AcDbPolyline
 62
250
  6
CONTINUOUS
 90
17
 70
0
 10
79.4802488915
 20
-22.3961717818
 10
79.4133501249
 20
-22.3948828509
 10
79.3814087738
 20
-22.3940566511
 10
79.3506920377
 20
-22.3931147156
 10
79.3213567539
 20
-22.3920618537
 10
79.2935527061
 20
-22.3909034413
 10
79.2674218598
 20
-22.3896453931
 10
79.2430976373
 20
-22.3882941326
 10
79.2207042364
 20
-22.3868565593
 10
79.2003559962
 20
-22.3853400132
 10
79.1821568136
 20
-22.3837522377
 10
79.1661996123
 20
-22.3821013398
 10
79.1525658688
 20
-22.380395749
 10
79.1413251963
 20
-22.3786441738
 10
79.1325349889
 20
-22.3768555576
 10
79.1262401289
 20
-22.3750390329
 10
79.1224727574
 20
-22.3732038749
  0
LWPOLYLINE
  5
31B
100
AcDbEntity
  8
ASSI
100
AcDbPolyline
 62
250
  6
CONTINUOUS
 90
17
 70
0
 10
79.4802488915
 20
-22.3961717818
 10
79.4133501249
 20
-22.3948828509
 10
79.3814087738
 20
-22.3940566511
 10
79.3506920377
 20
-22.3931147156
 10
79.3213567539
 20
-22.3920618537
 10
79.2935527061
 20
-22.3909034413
 10
79.2674218598
 20
-22.3896453931
 10
79.2430976373
 20
-22.3882941326
 10
79.2207042364
 20
-22.3868565593
 10
79.2003559962
 20
-22.3853400132
 10
79.1821568136
 20
-22.3837522377
 10
79.1661996123
 20
-22.3821013398
 10
79.1525658688
 20
-22.380395749
 10
79.1413251963
 20
-22.3786441738
 10
79.1325349889
 20
-22.3768555576
 10
79.1262401289
 20
-22.3750390329
 10
79.1224727574
 20
-22.3732038749
  0
LWPOLYLINE
  5
31C
100
AcDbEntity
  8
CURVE
100
AcDbPolyline
 62
250
  6
CONTINUOUS
 90
90
 70
0
 10
4.7622484297
 20
-26.1402838735
 10
4.7770198479
 20
-26.1459087346
 10
4.7918447672
 20
-26.1521488312
 10
4.8067597274
 20
-26.1590231875
 10
4.8217922919
 20
-26.1665458533
 10
4.8369341182
 20
-26.1747109804
 10
4.8521678871
 20
-26.1835077461
 10
4.867477356
 20
-26.1929254495
 10
4.8828505881
 20
-26.2029538758
 10
4.8982767229
 20
-26.213582932
 10
4.9137473909
 20
-26.2248135222
 10
4.9292641871
 20
-26.2366905383
 10
4.9448311972
 20
-26.2492698693
 10
4.9604381279
 20
-26.2625945529
 10
4.9760171689
 20
-26.2766562221
 10
4.9914861308
 20
-26.2914336589
 10
5.0067715026
 20
-26.3069123307
 10
5.0218344883
 20
-26.3231044472
 10
5.0366449703
 20
-26.340028904
 10
5.051168482
 20
-26.3576964346
 10
5.0653531591
 20
-26.3760851269
 10
5.0791427885
 20
-26.395164907
 10
5.0924811566
 20
-26.4149057008
 10
5.1053120503
 20
-26.4352774345
 10
5.1175792561
 20
-26.4562500343
 10
5.1292304251
 20
-26.4777848624
 10
5.1402286663
 20
-26.4998090261
 10
5.1505409529
 20
-26.522241069
 10
5.1601342583
 20
-26.5449995346
 10
5.1689755559
 20
-26.5680029665
 10
5.177031819
 20
-26.591169908
 10
5.1842802357
 20
-26.614425194
 10
5.1907388533
 20
-26.6377188235
 10
5.1964359337
 20
-26.6610070866
 10
5.2013991682
 20
-26.6842281989
 10
5.2056539646
 20
-26.7072480766
 10
5.2092251602
 20
-26.7299145612
 10
5.2121431959
 20
-26.7521117483
 10
5.2144609284
 20
-26.7738687493
 10
5.2162368182
 20
-26.7952509297
 10
5.2175226981
 20
-26.8163052003
 10
5.2183438892
 20
-26.8370046516
 10
5.2187190848
 20
-26.8573039196
 10
5.2186067981
 20
-26.8810877571
 10
5.2179107324
 20
-26.9042526019
 10
5.216662424
 20
-26.92682105
 10
5.2148934088
 20
-26.9488156973
 10
5.2126352232
 20
-26.9702591398
 10
5.2091707331
 20
-26.9963155587
 10
5.2050413517
 20
-27.0215471042
 10
5.2002972412
 20
-27.0459548543
 10
5.194988564
 20
-27.0695398869
 10
5.189164464
 20
-27.0923069264
 10
5.1828700132
 20
-27.1142752819
 10
5.1761492649
 20
-27.1354679087
 10
5.1690462727
 20
-27.1559077622
 10
5.1616035473
 20
-27.1756164642
 10
5.1538574282
 20
-27.1946103034
 10
5.1458427117
 20
-27.2129042347
 10
5.1375941944
 20
-27.2305132132
 10
5.1291441
 20
-27.2474533758
 10
5.1205143612
 20
-27.263745587
 10
5.1117243377
 20
-27.2794118929
 10
5.1027933894
 20
-27.2944743398
 10
5.0906983967
 20
-27.3136516052
 10
5.078425339
 20
-27.3318182007
 10
5.0660122664
 20
-27.3489977903
 10
5.0534989353
 20
-27.3652190699
 10
5.0409319251
 20
-27.3805308651
 10
5.0283595213
 20
-27.3949870335
 10
5.0158286284
 20
-27.4086439146
 10
5.0033806291
 20
-27.4215677757
 10
4.9910555253
 20
-27.4338273658
 10
4.9788914739
 20
-27.445486554
 10
4.966919251
 20
-27.4565896895
 10
4.9551677874
 20
-27.4671762414
 10
4.9465133861
 20
-27.4748021539
 10
4.9379931568
 20
-27.4821839199
 10
4.921351872
 20
-27.4962965703
 10
4.9052593013
 20
-27.509629029
 10
4.8973728579
 20
-27.5160171611
 10
4.8895303021
 20
-27.5221599084
 10
4.8816771765
 20
-27.5279858844
 10
4.8737784247
 20
-27.5334302323
 10
4.8657929464
 20
-27.5384317441
 10
4.857636064
 20
-27.5429372769
 10
4.8492297071
 20
-27.5468863849
 10
4.8405658126
 20
-27.5501813426
 10
4.8316538189
 20
-27.5527151053
 10
4.8225031649
 20
-27.554380628
  0
LWPOLYLINE
  5
31D
100
AcDbEntity
  8
CURVE
100
AcDbPolyline
 62
250
  6
CONTINUOUS
 90
42
 70
0
 10
4.8225031649
 20
-27.5709244369
 10
4.8327478867
 20
-27.5752198095
 10
4.842731587
 20
-27.5798215149
 10
4.8524618858
 20
-27.5847173445
 10
4.8619464036
 20
-27.5898950899
 10
4.8711927606
 20
-27.5953425428
 10
4.8802085771
 20
-27.6010474948
 10
4.8890014734
 20
-27.6069977374
 10
4.8975790698
 20
-27.6131810623
 10
4.9059476722
 20
-27.6195849129
 10
4.9141083287
 20
-27.6261953396
 10
4.9220607734
 20
-27.6329980449
 10
4.92980474
 20
-27.6399787309
 10
4.9398026807
 20
-27.6495331867
 10
4.9494133564
 20
-27.6593131097
 10
4.9586206025
 20
-27.6692529747
 10
4.9674186357
 20
-27.6793002377
 10
4.9758431956
 20
-27.6894542771
 10
4.983940403
 20
-27.6997274523
 10
4.9917510525
 20
-27.7101289256
 10
4.999294636
 20
-27.7206550696
 10
5.0065853195
 20
-27.7312990599
 10
5.0150179158
 20
-27.7442154866
 10
5.0231171636
 20
-27.7572661315
 10
5.0308934914
 20
-27.7704253413
 10
5.0383573276
 20
-27.7836674626
 10
5.0455191007
 20
-27.7969668421
 10
5.0540625216
 20
-27.8136354208
 10
5.0621711939
 20
-27.8303207761
 10
5.0698660479
 20
-27.8469903018
 10
5.0771680144
 20
-27.863611392
 10
5.0840979488
 20
-27.8801553776
 10
5.090676407
 20
-27.8966093372
 10
5.0969238698
 20
-27.9129642864
 10
5.1028608183
 20
-27.929211241
 10
5.1085084759
 20
-27.9453453551
 10
5.1138910362
 20
-27.9613783382
 10
5.1190334353
 20
-27.9773260383
 10
5.1239606095
 20
-27.9932043033
 10
5.1302425087
 20
-28.0142987716
 10
5.1362693956
 20
-28.0353599405
 10
5.1421245489
 20
-28.0564497765
  0
LINE
  5
31E
100
AcDbEntity
  8
CURVE
100
AcDbLine
 62
250
  6
CONTINUOUS
 10
-1.400068
 20
-27.049647
 11
-0.714487
 21
-28.877801
  0
LINE
  5
31F
100
AcDbEntity
  8
CURVE
100
AcDbLine
 62
250
  6
CONTINUOUS
 10
-0.670314
 20
-27.632502
 11
-1.24855
 21
-26.078098
  0
LINE
  5
320
100
AcDbEntity
  8
CURVE
100
AcDbLine
 62
250
  6
CONTINUOUS
 10
-5.503668
 20
-26.078098
 11
-4.616107
 21
-28.877801
  0
LINE
  5
321
100
AcDbEntity
  8
CURVE
100
AcDbLine
 62
250
  6
CONTINUOUS
 10
-4.335146
 20
-28.00522
 11
-4.86882
 21
-26.078098
  0
LINE
  5
322
100
AcDbEntity
  8
CURVE
100
AcDbLine
 62
250
  6
CONTINUOUS
 10
0.754112
 20
-28.877801
 11
0.492308
 21
-26.078098
  0
LINE
  5
323
100
AcDbEntity
  8
CURVE
100
AcDbLine
 62
250
  6
CONTINUOUS
 10
0.062337
 20
-27.057269
 11
0.182406
 21
-28.877801
  0
LINE
  5
324
100
AcDbEntity
  8
CURVE
100
AcDbLine
 62
250
  6
CONTINUOUS
 10
-2.984285
 20
-28.877801
 11
-2.984285
 21
-26.07793
  0
LINE
  5
325
100
AcDbEntity
  8
CURVE
100
AcDbLine
 62
250
  6
CONTINUOUS
 10
-2.399877
 20
-26.07793
 11
-2.399877
 21
-28.877801
  0
LWPOLYLINE
  5
326
100
AcDbEntity
  8
0
100
AcDbPolyline
 62
7
  6
CONTINUOUS
 90
13
 70
0
 43
0.3500000006
 10
0.8571428254
 20
56.586308075
 10
0.8571428254
 20
57.8720240479
 10
1.0714285848
 20
58.3005930176
 10
1.5000000329
 20
58.729171051
 10
1.7142856507
 20
58.729171051
 10
2.1428571696
 20
58.3005930176
 10
2.3571427875
 20
57.8720240479
 10
2.3571427875
 20
56.586308075
 10
2.1428571696
 20
56.1577391052
 10
1.7142856507
 20
55.7291701355
 10
1.5000000329
 20
55.7291701355
 10
1.0714285848
 20
56.1577391052
 10
0.8571428254
 20
56.586308075
  0
LINE
  5
327
100
AcDbEntity
  8
CURVE
100
AcDbLine
 62
250
  6
CONTINUOUS
 10
-1.526183
 20
-28.877801
 11
-1.400068
 21
-27.049647
  0
LINE
  5
328
100
AcDbEntity
  8
CURVE
100
AcDbLine
 62
250
  6
CONTINUOUS
 10
-1.832475
 20
-26.078098
 11
-2.085272
 21
-28.877801
  0
LWPOLYLINE
  5
329
100
AcDbEntity
  8
0
100
AcDbPolyline
 62
7
  6
CONTINUOUS
 90
13
 70
0
 43
0.3500000006
 10
113.3928561401
 20
-0.0000003204
 10
112.1071401672
 20
-0.0000003204
 10
111.6785711975
 20
0.2142864304
 10
111.2500022278
 20
0.642857666
 10
111.2500022278
 20
0.8571421509
 10
111.6785711975
 20
1.2857133865
 10
112.1071401672
 20
1.5000001373
 10
113.3928561401
 20
1.5000001373
 10
113.8214251099
 20
1.2857133865
 10
114.2500031433
 20
0.8571421509
 10
114.2500031433
 20
0.642857666
 10
113.8214251099
 20
0.2142864304
 10
113.3928561401
 20
-0.0000003204
  0
LINE
  5
32A
100
AcDbEntity
  8
0
100
AcDbLine
 62
250
  6
CONTINUOUS
 10
79.0639853624
 20
0.0
 11
79.1223657359
 21
0.0
  0
LINE
  5
32B
100
AcDbEntity
  8
0
100
AcDbLine
 62
250
  6
CONTINUOUS
 10
-79.0639853624
 20
0.0
 11
-79.1223657359
 21
0.0
  0
LINE
  5
32C
100
AcDbEntity
  8
RACCORDO
100
AcDbLine
 62
250
  6
CONTINUOUS
 10
79.1223657359
 20
0.0
 11
104.8038343322
 21
0.0
  0
LINE
  5
32D
100
AcDbEntity
  8
ASSI
100
AcDbLine
 62
250
  6
CONTINUOUS
 10
79.0639853624
 20
0.0
 11
104.8038343322
 21
0.0
  0
LINE
  5
32E
100
AcDbEntity
  8
RACCORDO
100
AcDbLine
 62
250
  6
CONTINUOUS
 10
-79.1223657359
 20
0.0
 11
-104.8038343322
 21
0.0
  0
LINE
  5
32F
100
AcDbEntity
  8
ASSI
100
AcDbLine
 62
250
  6
CONTINUOUS
 10
-79.0639853624
 20
0.0
 11
-104.8038343322
 21
0.0
  0
LWPOLYLINE
  5
330
100
AcDbEntity
  8
CURVE
100
AcDbPolyline
 62
250
  6
CONTINUOUS
 90
46
 70
0
 10
4.5414683619
 20
-28.0288394293
 10
4.5374383301
 20
-28.0184892933
 10
4.5331801367
 20
-28.0083007487
 10
4.5286970149
 20
-27.9982716282
 10
4.5239921983
 20
-27.9883997646
 10
4.5190689201
 20
-27.9786829908
 10
4.5139304138
 20
-27.9691191395
 10
4.5085799126
 20
-27.9597060437
 10
4.50301957
 20
-27.9504426686
 10
4.4972472187
 20
-27.9413325103
 10
4.4912596117
 20
-27.932380197
 10
4.4850535019
 20
-27.9235903572
 10
4.478625642
 20
-27.9149676195
 10
4.471972785
 20
-27.9065166121
 10
4.4650916837
 20
-27.8982419636
 10
4.458882567
 20
-27.8911515908
 10
4.4525038275
 20
-27.8842127077
 10
4.4459630781
 20
-27.8774382356
 10
4.4392679315
 20
-27.8708410956
 10
4.4324260005
 20
-27.8644342092
 10
4.4254448981
 20
-27.8582304975
 10
4.418332237
 20
-27.8522428818
 10
4.4110956302
 20
-27.8464842834
 10
4.4037414823
 20
-27.8409661142
 10
4.3962713666
 20
-27.8356937481
 10
4.3886856482
 20
-27.8306710496
 10
4.3809846922
 20
-27.8259018834
 10
4.3731725465
 20
-27.8213904495
 10
4.3652679901
 20
-27.8171422903
 10
4.3572934849
 20
-27.813163284
 10
4.3492714927
 20
-27.8094593084
 10
4.341219368
 20
-27.8060328847
 10
4.3331340353
 20
-27.8028731066
 10
4.3250073118
 20
-27.799965711
 10
4.3168310149
 20
-27.7972964347
 10
4.3085994179
 20
-27.7948529537
 10
4.3003166203
 20
-27.7926307001
 10
4.2919891774
 20
-27.7906270451
 10
4.2836236448
 20
-27.7888393601
 10
4.2740227823
 20
-27.7870578229
 10
4.2643783804
 20
-27.7855537153
 10
4.2546880872
 20
-27.7843258175
 10
4.2449495507
 20
-27.7833729095
 10
4.2351604191
 20
-27.7826937714
 10
4.2253183402
 20
-27.7822871831
 10
4.2154209623
 20
-27.7821519248
  0
LINE
  5
331
100
AcDbEntity
  8
CURVE
100
AcDbLine
 62
250
  6
CONTINUOUS
 10
3.148408
 20
-28.877801
 11
2.28939
 21
-26.078098
  0
LWPOLYLINE
  5
332
100
AcDbEntity
  8
CURVE
100
AcDbPolyline
 62
250
  6
CONTINUOUS
 90
8
 70
0
 10
4.6367262927
 20
-28.3233730557
 10
4.6193156478
 20
-28.2640037402
 10
4.6074048961
 20
-28.2245695836
 10
4.5951648469
 20
-28.185235849
 10
4.582520255
 20
-28.1459873539
 10
4.5693981561
 20
-28.1068177288
 10
4.5557347111
 20
-28.0677558557
 10
4.5414683619
 20
-28.0288394293
  0
LWPOLYLINE
  5
333
100
AcDbEntity
  8
CURVE
100
AcDbPolyline
 62
250
  6
CONTINUOUS
 90
3
 70
0
 10
4.7970156219
 20
-28.8778013544
 10
4.7845750567
 20
-28.8347382807
 10
4.7054167524
 20
-28.564096882
  0
LINE
  5
334
100
AcDbEntity
  8
CURVE
100
AcDbLine
 62
250
  6
CONTINUOUS
 10
4.7054167524
 20
-28.564096882
 11
4.6367262927
 21
-28.3233730557
  0
LINE
  5
335
100
AcDbEntity
  8
CURVE
100
AcDbLine
 62
250
  6
CONTINUOUS
 10
2.381074
 20
-28.318881
 11
2.532466
 21
-28.877801
  0
LINE
  5
336
100
AcDbEntity
  8
CURVE
100
AcDbLine
 62
250
  6
CONTINUOUS
 10
5.1421245489
 20
-28.0564497765
 11
5.1947646184
 21
-28.2515484557
  0
LINE
  5
337
100
AcDbEntity
  8
CURVE
100
AcDbLine
 62
250
  6
CONTINUOUS
 10
5.3333637768
 20
-28.7813434768
 11
5.3591482119
 21
-28.8778013544
  0
LINE
  5
338
100
AcDbEntity
  8
CURVE
100
AcDbLine
 62
250
  6
CONTINUOUS
 10
5.1947646184
 20
-28.2515484557
 11
5.2622967441
 21
-28.5085084855
  0
LINE
  5
339
100
AcDbEntity
  8
CURVE
100
AcDbLine
 62
250
  6
CONTINUOUS
 10
5.2622967441
 20
-28.5085084855
 11
5.3333637768
 21
-28.7813434768
  0
LINE
  5
33A
100
AcDbEntity
  8
CURVE
100
AcDbLine
 62
250
  6
CONTINUOUS
 10
1.995737
 20
-26.847385
 11
2.26428
 21
-27.886391
  0
LWPOLYLINE
  5
33B
100
AcDbEntity
  8
CURVE
100
AcDbPolyline
 62
250
  6
CONTINUOUS
 90
53
 70
0
 10
4.6706486355
 20
-26.8885553074
 10
4.6703505199
 20
-26.8787011628
 10
4.6697650463
 20
-26.8688554486
 10
4.6688929165
 20
-26.8590156723
 10
4.6677348326
 20
-26.8491793411
 10
4.6662914965
 20
-26.8393439626
 10
4.6645636101
 20
-26.829507044
 10
4.6625518756
 20
-26.8196660929
 10
4.6602562013
 20
-26.8098202872
 10
4.6576733224
 20
-26.7999754874
 10
4.6547991806
 20
-26.7901392244
 10
4.6516297175
 20
-26.7803190292
 10
4.6481608747
 20
-26.7705224329
 10
4.644388594
 20
-26.7607569665
 10
4.6403088171
 20
-26.751030161
 10
4.6364842222
 20
-26.7425584046
 10
4.6324222348
 20
-26.7341364434
 10
4.6281239966
 20
-26.7257787071
 10
4.623590649
 20
-26.7174996252
 10
4.6188222281
 20
-26.7093118618
 10
4.6138143476
 20
-26.7012210186
 10
4.6085615159
 20
-26.693230932
 10
4.603058241
 20
-26.6853454384
 10
4.5973008687
 20
-26.6775713152
 10
4.5912930942
 20
-26.6699271052
 10
4.5850404498
 20
-26.6624342923
 10
4.5785484683
 20
-26.6551143604
 10
4.5718244168
 20
-26.6479867355
 10
4.564882502
 20
-26.6410626114
 10
4.557738665
 20
-26.634351124
 10
4.5504088471
 20
-26.627861409
 10
4.5429071441
 20
-26.621600448
 10
4.5352402698
 20
-26.6155666053
 10
4.5274130924
 20
-26.6097560906
 10
4.5194304802
 20
-26.6041651139
 10
4.5112986059
 20
-26.5987909642
 10
4.5030288606
 20
-26.5936352474
 10
4.4946339395
 20
-26.5887006487
 10
4.4861265381
 20
-26.5839898532
 10
4.4762809917
 20
-26.5788825552
 10
4.4663159256
 20
-26.5740689629
 10
4.4562421513
 20
-26.5695469605
 10
4.4460704807
 20
-26.5653144323
 10
4.4358117252
 20
-26.5613692624
 10
4.4254766967
 20
-26.5577093353
 10
4.4150762066
 20
-26.5543325352
 10
4.4046186767
 20
-26.551237123
 10
4.3941029688
 20
-26.5484228665
 10
4.3835255544
 20
-26.5458899099
 10
4.3728829054
 20
-26.5436383978
 10
4.3621714935
 20
-26.5416684743
 10
4.3513877904
 20
-26.539980284
 10
4.3405282678
 20
-26.5385739712
  0
LINE
  5
33C
100
AcDbEntity
  8
CURVE
100
AcDbLine
 62
250
  6
CONTINUOUS
 10
3.3200188023
 20
-28.8778013544
 11
3.3200188023
 21
-26.110807341
  0
LINE
  5
33D
100
AcDbEntity
  8
CURVE
100
AcDbLine
 62
250
  6
CONTINUOUS
 10
3.8826972541
 20
-26.5550547959
 11
3.8826972541
 21
-27.3236280866
  0
LINE
  5
33E
100
AcDbEntity
  8
CURVE
100
AcDbLine
 62
250
  6
CONTINUOUS
 10
3.9020753449
 20
-27.7821519248
 11
3.9020753449
 21
-28.8778013544
  0
LINE
  5
33F
100
AcDbEntity
  8
CURVE
100
AcDbLine
 62
250
  6
CONTINUOUS
 10
4.8225031649
 20
-27.554380628
 11
4.8225031649
 21
-27.5709244369
  0
LINE
  5
340
100
AcDbEntity
  8
CURVE
100
AcDbLine
 62
250
  6
CONTINUOUS
 10
1.704751
 20
-27.886391
 11
1.995737
 21
-26.847385
  0
LINE
  5
341
100
AcDbEntity
  8
CURVE
100
AcDbLine
 62
250
  6
CONTINUOUS
 10
-3.785169
 20
-26.078098
 11
-4.335146
 21
-28.00522
  0
LINE
  5
342
100
AcDbEntity
  8
CURVE
100
AcDbLine
 62
250
  6
CONTINUOUS
 10
1.423947
 20
-28.877801
 11
1.585207
 21
-28.318881
  0
LINE
  5
343
100
AcDbEntity
  8
CURVE
100
AcDbLine
 62
250
  6
CONTINUOUS
 10
1.724045
 20
-26.078098
 11
0.84588
 21
-28.877801
  0
LINE
  5
344
100
AcDbEntity
  8
CURVE
100
AcDbLine
 62
250
  6
CONTINUOUS
 10
-4.101097
 20
-28.877801
 11
-3.20116
 21
-26.078098
  0
LINE
  5
345
100
AcDbEntity
  8
CURVE
100
AcDbLine
 62
250
  6
CONTINUOUS
 10
-0.085906
 20
-26.078098
 11
-0.670314
 21
-27.632502
  0
LINE
  5
346
100
AcDbEntity
  8
CURVE
100
AcDbLine
 62
250
  6
CONTINUOUS
 10
-0.632524
 20
-28.877801
 11
0.062337
 21
-27.057269
  0
LWPOLYLINE
  5
347
100
AcDbEntity
  8
RACCORDO
100
AcDbPolyline
 62
250
  6
CONTINUOUS
 90
16
 70
0
 10
79.4133500252
 20
22.3948828523
 10
79.3814086693
 20
22.3940566522
 10
79.3506919316
 20
22.3931147163
 10
79.3213566493
 20
22.3920618541
 10
79.293552606
 20
22.3909034413
 10
79.2674217666
 20
22.3896453928
 10
79.2430975531
 20
22.388294132
 10
79.2207041627
 20
22.3868565585
 10
79.200355934
 20
22.3853400122
 10
79.1821567634
 20
22.3837522366
 10
79.166199574
 20
22.3821013387
 10
79.1525658418
 20
22.380395748
 10
79.1413251792
 20
22.3786441729
 10
79.1325349799
 20
22.376855557
 10
79.1262401257
 20
22.3750390326
 10
79.1224727574
 20
22.3732038749
  0
LWPOLYLINE
  5
348
100
AcDbEntity
  8
ASSI
100
AcDbPolyline
 62
250
  6
CONTINUOUS
 90
16
 70
0
 10
79.4133500252
 20
22.3948828523
 10
79.3814086693
 20
22.3940566522
 10
79.3506919316
 20
22.3931147163
 10
79.3213566493
 20
22.3920618541
 10
79.293552606
 20
22.3909034413
 10
79.2674217666
 20
22.3896453928
 10
79.2430975531
 20
22.388294132
 10
79.2207041627
 20
22.3868565585
 10
79.200355934
 20
22.3853400122
 10
79.1821567634
 20
22.3837522366
 10
79.166199574
 20
22.3821013387
 10
79.1525658418
 20
22.380395748
 10
79.1413251792
 20
22.3786441729
 10
79.1325349799
 20
22.376855557
 10
79.1262401257
 20
22.3750390326
 10
79.1224727574
 20
22.3732038749
  0
LINE
  5
349
100
AcDbEntity
  8
RACCORDO
100
AcDbLine
 62
250
  6
CONTINUOUS
 10
79.4802488121
 20
22.3961717834
 11
79.4133500252
 21
22.3948828523
  0
LINE
  5
34A
100
AcDbEntity
  8
ASSI
100
AcDbLine
 62
250
  6
CONTINUOUS
 10
79.4802488121
 20
22.3961717834
 11
79.4133500252
 21
22.3948828523
  0
LINE
  5
34B
100
AcDbEntity
  8
RACCORDO
100
AcDbLine
 62
250
  6
CONTINUOUS
 10
79.550023717
 20
22.3969552185
 11
79.4802488121
 21
22.3961717834
  0
LINE
  5
34C
100
AcDbEntity
  8
ASSI
100
AcDbLine
 62
250
  6
CONTINUOUS
 10
79.550023717
 20
22.3969552185
 11
79.4802488121
 21
22.3961717834
  0
LINE
  5
34D
100
AcDbEntity
  8
RACCORDO
100
AcDbLine
 62
250
  6
CONTINUOUS
 10
79.6212514992
 20
22.3972171773
 11
79.550023717
 21
22.3969552185
  0
LINE
  5
34E
100
AcDbEntity
  8
ASSI
100
AcDbLine
 62
250
  6
CONTINUOUS
 10
79.6212514992
 20
22.3972171773
 11
79.550023717
 21
22.3969552185
  0
LINE
  5
34F
100
AcDbEntity
  8
0
100
AcDbLine
 62
7
  6
CONTINUOUS
 10
78.6635060253
 20
22.7139537282
 11
-78.6635061217
 21
22.7139537282
  0
LINE
  5
350
100
AcDbEntity
  8
ASSI
100
AcDbLine
 62
7
  6
CONTINUOUS
 10
78.6635060253
 20
22.7139537282
 11
-78.6635061217
 21
22.7139537282
  0
LINE
  5
351
100
AcDbEntity
  8
RACCORDO
100
AcDbLine
 62
250
  6
CONTINUOUS
 10
-78.7200425662
 20
22.770285941
 11
78.7200424952
 21
22.770285941
  0
LINE
  5
352
100
AcDbEntity
  8
ASSI
100
AcDbLine
 62
250
  6
CONTINUOUS
 10
-78.7200425662
 20
22.770285941
 11
78.7200424952
 21
22.770285941
  0
LINE
  5
353
100
AcDbEntity
  8
RACCORDO
100
AcDbLine
 62
250
  6
CONTINUOUS
 10
-78.7200425662
 20
23.2972774442
 11
78.7200424952
 21
23.2972774442
  0
LINE
  5
354
100
AcDbEntity
  8
ASSI
100
AcDbLine
 62
250
  6
CONTINUOUS
 10
-78.7200425662
 20
23.2972774442
 11
78.7200424952
 21
23.2972774442
  0
LINE
  5
355
100
AcDbEntity
  8
RACCORDO
100
AcDbLine
 62
250
  6
CONTINUOUS
 10
-79.6212515687
 20
22.3972175501
 11
-79.5500238313
 21
22.3969555605
  0
LINE
  5
356
100
AcDbEntity
  8
ASSI
100
AcDbLine
 62
250
  6
CONTINUOUS
 10
-79.6212515687
 20
22.3972175501
 11
-79.5500238313
 21
22.3969555605
  0
LINE
  5
357
100
AcDbEntity
  8
RACCORDO
100
AcDbLine
 62
250
  6
CONTINUOUS
 10
-79.5500238313
 20
22.3969555605
 11
-79.4802489591
 21
22.396172096
  0
LINE
  5
358
100
AcDbEntity
  8
ASSI
100
AcDbLine
 62
250
  6
CONTINUOUS
 10
-79.5500238313
 20
22.3969555605
 11
-79.4802489591
 21
22.396172096
  0
LWPOLYLINE
  5
359
100
AcDbEntity
  8
RACCORDO
100
AcDbPolyline
 62
250
  6
CONTINUOUS
 90
17
 70
0
 10
-79.4802489591
 20
22.396172096
 10
-79.4133501917
 20
22.3948831373
 10
-79.3814088403
 20
22.3940569242
 10
-79.3506921038
 20
22.3931149759
 10
-79.3213568198
 20
22.3920621018
 10
-79.2935527718
 20
22.3909036778
 10
-79.2674219254
 20
22.3896456187
 10
-79.2430977029
 20
22.388294348
 10
-79.220704302
 20
22.3868567653
 10
-79.2003560619
 20
22.3853402107
 10
-79.1821568795
 20
22.3837524275
 10
-79.1661996785
 20
22.382101523
 10
-79.1525659354
 20
22.3803959264
 10
-79.1413252633
 20
22.3786443464
 10
-79.1325350565
 20
22.3768557264
 10
-79.126240197
 20
22.3750391991
 10
-79.1224728262
 20
22.3732040394
  0
LWPOLYLINE
  5
35A
100
AcDbEntity
  8
ASSI
100
AcDbPolyline
 62
250
  6
CONTINUOUS
 90
17
 70
0
 10
-79.4802489591
 20
22.396172096
 10
-79.4133501917
 20
22.3948831373
 10
-79.3814088403
 20
22.3940569242
 10
-79.3506921038
 20
22.3931149759
 10
-79.3213568198
 20
22.3920621018
 10
-79.2935527718
 20
22.3909036778
 10
-79.2674219254
 20
22.3896456187
 10
-79.2430977029
 20
22.388294348
 10
-79.220704302
 20
22.3868567653
 10
-79.2003560619
 20
22.3853402107
 10
-79.1821568795
 20
22.3837524275
 10
-79.1661996785
 20
22.382101523
 10
-79.1525659354
 20
22.3803959264
 10
-79.1413252633
 20
22.3786443464
 10
-79.1325350565
 20
22.3768557264
 10
-79.126240197
 20
22.3750391991
 10
-79.1224728262
 20
22.3732040394
  0
LWPOLYLINE
  5
35B
100
AcDbEntity
  8
RACCORDO
100
AcDbPolyline
 62
250
  6
CONTINUOUS
 90
28
 70
0
 10
78.7200424952
 20
22.770285941
 10
78.7436271406
 20
22.7697458595
 10
78.7670371557
 20
22.7678480649
 10
78.7901952844
 20
22.7646153357
 10
78.8129988343
 20
22.7600819867
 10
78.8354040193
 20
22.7542750264
 10
78.8574218467
 20
22.7471978356
 10
78.8790062924
 20
22.7388640749
 10
78.9000595948
 20
22.7293102452
 10
78.9205133346
 20
22.7185651293
 10
78.940299961
 20
22.7066648651
 10
78.9593547177
 20
22.6936493567
 10
78.9776159855
 20
22.6795576644
 10
78.9950300422
 20
22.6644298497
 10
79.0115314332
 20
22.6483217204
 10
79.0270475969
 20
22.6313035132
 10
79.0414977364
 20
22.6134764363
 10
79.0548740341
 20
22.5948635061
 10
79.0672028426
 20
22.5754110953
 10
79.0784441915
 20
22.555139861
 10
79.0885215126
 20
22.5341403244
 10
79.0973881074
 20
22.5124550966
 10
79.1050077016
 20
22.4900962286
 10
79.1113086579
 20
22.4671860115
 10
79.1162184946
 20
22.4439441101
 10
79.1197158674
 20
22.4205018009
 10
79.1218023911
 20
22.396894064
 10
79.1224727574
 20
22.3732038749
  0
LWPOLYLINE
  5
35C
100
AcDbEntity
  8
ASSI
100
AcDbPolyline
 62
250
  6
CONTINUOUS
 90
28
 70
0
 10
78.7200424952
 20
22.770285941
 10
78.7436271406
 20
22.7697458595
 10
78.7670371557
 20
22.7678480649
 10
78.7901952844
 20
22.7646153357
 10
78.8129988343
 20
22.7600819867
 10
78.8354040193
 20
22.7542750264
 10
78.8574218467
 20
22.7471978356
 10
78.8790062924
 20
22.7388640749
 10
78.9000595948
 20
22.7293102452
 10
78.9205133346
 20
22.7185651293
 10
78.940299961
 20
22.7066648651
 10
78.9593547177
 20
22.6936493567
 10
78.9776159855
 20
22.6795576644
 10
78.9950300422
 20
22.6644298497
 10
79.0115314332
 20
22.6483217204
 10
79.0270475969
 20
22.6313035132
 10
79.0414977364
 20
22.6134764363
 10
79.0548740341
 20
22.5948635061
 10
79.0672028426
 20
22.5754110953
 10
79.0784441915
 20
22.555139861
 10
79.0885215126
 20
22.5341403244
 10
79.0973881074
 20
22.5124550966
 10
79.1050077016
 20
22.4900962286
 10
79.1113086579
 20
22.4671860115
 10
79.1162184946
 20
22.4439441101
 10
79.1197158674
 20
22.4205018009
 10
79.1218023911
 20
22.396894064
 10
79.1224727574
 20
22.3732038749
  0
LWPOLYLINE
  5
35D
100
AcDbEntity
  8
RACCORDO
100
AcDbPolyline
 62
250
  6
CONTINUOUS
 90
28
 70
0
 10
78.7200424952
 20
23.2972774442
 10
78.773067434
 20
23.2956332599
 10
78.8253686123
 20
23.2910554915
 10
78.8769460301
 20
23.283543097
 10
78.9278997561
 20
23.2730464517
 10
78.9781297217
 20
23.2596110593
 10
79.027335721
 20
23.2433777175
 10
79.0755712644
 20
23.2243151685
 10
79.1227828415
 20
23.2024470007
 10
79.1685097153
 20
23.1779959033
 10
79.2127376499
 20
23.1509323045
 10
79.2554808813
 20
23.1212754834
 10
79.2963213802
 20
23.0893217035
 10
79.3352528403
 20
23.0550252585
 10
79.372281568
 20
23.0184201217
 10
79.4070084531
 20
22.9799233434
 10
79.4393578727
 20
22.9396165073
 10
79.4694054498
 20
22.8974068793
 10
79.4969789433
 20
22.8534513364
 10
79.5221357292
 20
22.8076663728
 10
79.5448184314
 20
22.7601235191
 10
79.5646826805
 20
22.7112138226
 10
79.581715184
 20
22.6607834513
 10
79.5959292343
 20
22.6089757941
 10
79.6070203401
 20
22.556632281
 10
79.6148870043
 20
22.504033572
 10
79.619630724
 20
22.4508958619
 10
79.6212514992
 20
22.3972171773
  0
LWPOLYLINE
  5
35E
100
AcDbEntity
  8
ASSI
100
AcDbPolyline
 62
250
  6
CONTINUOUS
 90
28
 70
0
 10
78.7200424952
 20
23.2972774442
 10
78.773067434
 20
23.2956332599
 10
78.8253686123
 20
23.2910554915
 10
78.8769460301
 20
23.283543097
 10
78.9278997561
 20
23.2730464517
 10
78.9781297217
 20
23.2596110593
 10
79.027335721
 20
23.2433777175
 10
79.0755712644
 20
23.2243151685
 10
79.1227828415
 20
23.2024470007
 10
79.1685097153
 20
23.1779959033
 10
79.2127376499
 20
23.1509323045
 10
79.2554808813
 20
23.1212754834
 10
79.2963213802
 20
23.0893217035
 10
79.3352528403
 20
23.0550252585
 10
79.372281568
 20
23.0184201217
 10
79.4070084531
 20
22.9799233434
 10
79.4393578727
 20
22.9396165073
 10
79.4694054498
 20
22.8974068793
 10
79.4969789433
 20
22.8534513364
 10
79.5221357292
 20
22.8076663728
 10
79.5448184314
 20
22.7601235191
 10
79.5646826805
 20
22.7112138226
 10
79.581715184
 20
22.6607834513
 10
79.5959292343
 20
22.6089757941
 10
79.6070203401
 20
22.556632281
 10
79.6148870043
 20
22.504033572
 10
79.619630724
 20
22.4508958619
 10
79.6212514992
 20
22.3972171773
  0
LWPOLYLINE
  5
35F
100
AcDbEntity
  8
0
100
AcDbPolyline
 62
7
  6
CONTINUOUS
 90
25
 70
0
 10
78.6635060253
 20
22.7139537282
 10
78.6898133252
 20
22.7130939002
 10
78.7159655581
 20
22.7105204889
 10
78.7418516519
 20
22.7062526779
 10
78.7673546777
 20
22.700319478
 10
78.7923760453
 20
22.6927525101
 10
78.8168343192
 20
22.6835804635
 10
78.8406053491
 20
22.6728557695
 10
78.8636126236
 20
22.660618983
 10
78.8858403448
 20
22.6468692005
 10
78.9072373491
 20
22.6316117862
 10
78.9276455681
 20
22.6149321038
 10
78.9468955255
 20
22.5969582498
 10
78.9648975854
 20
22.5777795767
 10
78.981585708
 20
22.5574731788
 10
78.9968556004
 20
22.5361786836
 10
79.0106294964
 20
22.5140380222
 10
79.0228908907
 20
22.4911149543
 10
79.0336327876
 20
22.4674353472
 10
79.0428158668
 20
22.4430759092
 10
79.0503888588
 20
22.4181612179
 10
79.0563199889
 20
22.3927850288
 10
79.0605804632
 20
22.3670504953
 10
79.0631470555
 20
22.3410704482
 10
79.0640046227
 20
22.3149553621
  0
LWPOLYLINE
  5
360
100
AcDbEntity
  8
ASSI
100
AcDbPolyline
 62
7
  6
CONTINUOUS
 90
25
 70
0
 10
78.6635060253
 20
22.7139537282
 10
78.6898133252
 20
22.7130939002
 10
78.7159655581
 20
22.7105204889
 10
78.7418516519
 20
22.7062526779
 10
78.7673546777
 20
22.700319478
 10
78.7923760453
 20
22.6927525101
 10
78.8168343192
 20
22.6835804635
 10
78.8406053491
 20
22.6728557695
 10
78.8636126236
 20
22.660618983
 10
78.8858403448
 20
22.6468692005
 10
78.9072373491
 20
22.6316117862
 10
78.9276455681
 20
22.6149321038
 10
78.9468955255
 20
22.5969582498
 10
78.9648975854
 20
22.5777795767
 10
78.981585708
 20
22.5574731788
 10
78.9968556004
 20
22.5361786836
 10
79.0106294964
 20
22.5140380222
 10
79.0228908907
 20
22.4911149543
 10
79.0336327876
 20
22.4674353472
 10
79.0428158668
 20
22.4430759092
 10
79.0503888588
 20
22.4181612179
 10
79.0563199889
 20
22.3927850288
 10
79.0605804632
 20
22.3670504953
 10
79.0631470555
 20
22.3410704482
 10
79.0640046227
 20
22.3149553621
  0
LWPOLYLINE
  5
361
100
AcDbEntity
  8
RACCORDO
100
AcDbPolyline
 62
250
  6
CONTINUOUS
 90
22
 70
0
 10
104.4499301671
 20
44.2427587705
 10
104.4845465592
 20
44.2464454683
 10
104.518993928
 20
44.2491124208
 10
104.5531040496
 20
44.2507466037
 10
104.5867103461
 20
44.2513400373
 10
104.6196486994
 20
44.2508898217
 10
104.6517582523
 20
44.24939815
 10
104.6828821955
 20
44.2468723049
 10
104.7128685315
 20
44.2433246208
 10
104.7415708168
 20
44.2387724193
 10
104.76884888
 20
44.2332379293
 10
104.7945695039
 20
44.2267481776
 10
104.8186070751
 20
44.2193348557
 10
104.8408442018
 20
44.2110341647
 10
104.861172284
 20
44.2018866405
 10
104.8794920424
 20
44.1919369561
 10
104.8957140083
 20
44.1812336992
 10
104.9097589574
 20
44.169829139
 10
104.921558295
 20
44.1577789732
 10
104.9310543954
 20
44.1451420495
 10
104.938200882
 20
44.1319800782
 10
104.9429628521
 20
44.1183573351
  0
LWPOLYLINE
  5
362
100
AcDbEntity
  8
ASSI
100
AcDbPolyline
 62
250
  6
CONTINUOUS
 90
22
 70
0
 10
104.4499301671
 20
44.2427587705
 10
104.4845465592
 20
44.2464454683
 10
104.518993928
 20
44.2491124208
 10
104.5531040496
 20
44.2507466037
 10
104.5867103461
 20
44.2513400373
 10
104.6196486994
 20
44.2508898217
 10
104.6517582523
 20
44.24939815
 10
104.6828821955
 20
44.2468723049
 10
104.7128685315
 20
44.2433246208
 10
104.7415708168
 20
44.2387724193
 10
104.76884888
 20
44.2332379293
 10
104.7945695039
 20
44.2267481776
 10
104.8186070751
 20
44.2193348557
 10
104.8408442018
 20
44.2110341647
 10
104.861172284
 20
44.2018866405
 10
104.8794920424
 20
44.1919369561
 10
104.8957140083
 20
44.1812336992
 10
104.9097589574
 20
44.169829139
 10
104.921558295
 20
44.1577789732
 10
104.9310543954
 20
44.1451420495
 10
104.938200882
 20
44.1319800782
 10
104.9429628521
 20
44.1183573351
  0
LWPOLYLINE
  5
363
100
AcDbEntity
  8
RACCORDO
100
AcDbPolyline
 62
250
  6
CONTINUOUS
 90
22
 70
0
 10
-104.4499301671
 20
44.2427587705
 10
-104.4845467618
 20
44.246445682
 10
-104.518994306
 20
44.2491128202
 10
-104.5531045735
 20
44.2507471598
 10
-104.5867109852
 20
44.2513407193
 10
-104.6196494227
 20
44.2508905999
 10
-104.6517590294
 20
44.2493989998
 10
-104.6828829966
 20
44.2468732031
 10
-104.7128693288
 20
44.2433255445
 10
-104.7415715861
 20
44.2387733493
 10
-104.7688495997
 20
44.2332388481
 10
-104.794570156
 20
44.2267490689
 10
-104.8186076471
 20
44.2193357048
 10
-104.8408446847
 20
44.2110349593
 10
-104.8611726732
 20
44.2018873693
 10
-104.8794923395
 20
44.1919376075
 10
-104.8957142186
 20
44.1812342642
 10
-104.90975909
 20
44.1698296095
 10
-104.9215583649
 20
44.1577793387
 10
-104.9310544208
 20
44.1451422998
 10
-104.9382008832
 20
44.1319802065
 10
-104.9429628519
 20
44.1183573363
  0
LWPOLYLINE
  5
364
100
AcDbEntity
  8
ASSI
100
AcDbPolyline
 62
250
  6
CONTINUOUS
 90
22
 70
0
 10
-104.4499301671
 20
44.2427587705
 10
-104.4845467618
 20
44.246445682
 10
-104.518994306
 20
44.2491128202
 10
-104.5531045735
 20
44.2507471598
 10
-104.5867109852
 20
44.2513407193
 10
-104.6196494227
 20
44.2508905999
 10
-104.6517590294
 20
44.2493989998
 10
-104.6828829966
 20
44.2468732031
 10
-104.7128693288
 20
44.2433255445
 10
-104.7415715861
 20
44.2387733493
 10
-104.7688495997
 20
44.2332388481
 10
-104.794570156
 20
44.2267490689
 10
-104.8186076471
 20
44.2193357048
 10
-104.8408446847
 20
44.2110349593
 10
-104.8611726732
 20
44.2018873693
 10
-104.8794923395
 20
44.1919376075
 10
-104.8957142186
 20
44.1812342642
 10
-104.90975909
 20
44.1698296095
 10
-104.9215583649
 20
44.1577793387
 10
-104.9310544208
 20
44.1451422998
 10
-104.9382008832
 20
44.1319802065
 10
-104.9429628519
 20
44.1183573363
  0
LINE
  5
365
100
AcDbEntity
  8
RACCORDO
100
AcDbLine
 62
250
  6
CONTINUOUS
 10
103.9797780743
 20
44.9791689013
 11
104.000609173
 21
45.0
  0
LINE
  5
366
100
AcDbEntity
  8
ASSI
100
AcDbLine
 62
250
  6
CONTINUOUS
 10
103.9797780743
 20
44.9791689013
 11
104.000609173
 21
45.0
  0
LINE
  5
367
100
AcDbEntity
  8
RACCORDO
100
AcDbLine
 62
250
  6
CONTINUOUS
 10
104.9549132947
 20
43.9555224676
 11
105.0
 21
44.000609173
  0
LINE
  5
368
100
AcDbEntity
  8
ASSI
100
AcDbLine
 62
250
  6
CONTINUOUS
 10
104.9549132947
 20
43.9555224676
 11
105.0
 21
44.000609173
  0
LINE
  5
369
100
AcDbEntity
  8
0
100
AcDbLine
 62
250
  6
CONTINUOUS
 10
78.7200424952
 20
22.770285941
 11
78.6635060253
 21
22.7139537282
  0
LINE
  5
36A
100
AcDbEntity
  8
ASSI
100
AcDbLine
 62
250
  6
CONTINUOUS
 10
78.7200424952
 20
22.770285941
 11
78.6635060253
 21
22.7139537282
  0
LINE
  5
36B
100
AcDbEntity
  8
0
100
AcDbLine
 62
250
  6
CONTINUOUS
 10
79.1224727574
 20
22.3732038749
 11
79.0640046227
 21
22.3149553621
  0
LINE
  5
36C
100
AcDbEntity
  8
ASSI
100
AcDbLine
 62
250
  6
CONTINUOUS
 10
79.1224727574
 20
22.3732038749
 11
79.0640046227
 21
22.3149553621
  0
LINE
  5
36D
100
AcDbEntity
  8
0
100
AcDbLine
 62
250
  6
CONTINUOUS
 10
79.1224727574
 20
-22.3732038749
 11
79.0640046227
 21
-22.3149553621
  0
LINE
  5
36E
100
AcDbEntity
  8
ASSI
100
AcDbLine
 62
250
  6
CONTINUOUS
 10
79.1224727574
 20
-22.3732038749
 11
79.0640046227
 21
-22.3149553621
  0
LINE
  5
36F
100
AcDbEntity
  8
0
100
AcDbLine
 62
250
  6
CONTINUOUS
 10
78.7200424952
 20
-22.770285941
 11
78.6635060253
 21
-22.7139537282
  0
LINE
  5
370
100
AcDbEntity
  8
ASSI
100
AcDbLine
 62
250
  6
CONTINUOUS
 10
78.7200424952
 20
-22.770285941
 11
78.6635060253
 21
-22.7139537282
  0
LINE
  5
371
100
AcDbEntity
  8
RACCORDO
100
AcDbLine
 62
250
  6
CONTINUOUS
 10
103.9797780743
 20
-44.9791689013
 11
104.000609173
 21
-45.0
  0
LINE
  5
372
100
AcDbEntity
  8
ASSI
100
AcDbLine
 62
250
  6
CONTINUOUS
 10
103.9797780743
 20
-44.9791689013
 11
104.000609173
 21
-45.0
  0
LINE
  5
373
100
AcDbEntity
  8
RACCORDO
100
AcDbLine
 62
250
  6
CONTINUOUS
 10
104.9549132947
 20
-43.9555224676
 11
105.0
 21
-44.000609173
  0
LINE
  5
374
100
AcDbEntity
  8
ASSI
100
AcDbLine
 62
250
  6
CONTINUOUS
 10
104.9549132947
 20
-43.9555224676
 11
105.0
 21
-44.000609173
  0
LWPOLYLINE
  5
375
100
AcDbEntity
  8
RACCORDO
100
AcDbPolyline
 62
250
  6
CONTINUOUS
 90
25
 70
0
 10
-103.9797805097
 20
44.9791713367
 10
-104.0415117321
 20
44.9757873222
 10
-104.1023545244
 20
44.9685392508
 10
-104.1620782756
 20
44.9575745988
 10
-104.2203791434
 20
44.9430741077
 10
-104.2771540481
 20
44.92519554
 10
-104.3324854809
 20
44.9040186457
 10
-104.3862720447
 20
44.8796437438
 10
-104.4382629262
 20
44.8522457973
 10
-104.4883200546
 20
44.8219790813
 10
-104.5363259768
 20
44.7889839473
 10
-104.5821194707
 20
44.7534407784
 10
-104.6255234672
 20
44.7155823785
 10
-104.6663125992
 20
44.6757267114
 10
-104.7045475451
 20
44.6339407082
 10
-104.7404518006
 20
44.5900398316
 10
-104.7739486801
 20
44.5440985277
 10
-104.8048781573
 20
44.4963182505
 10
-104.8332583144
 20
44.446636233
 10
-104.8590229409
 20
44.3950501069
 10
-104.8819657536
 20
44.341837614
 10
-104.9019037607
 20
44.2873619379
 10
-104.918744457
 20
44.2318696647
 10
-104.932448837
 20
44.1754734873
 10
-104.9429628519
 20
44.1183573363
  0
LWPOLYLINE
  5
376
100
AcDbEntity
  8
ASSI
100
AcDbPolyline
 62
250
  6
CONTINUOUS
 90
25
 70
0
 10
-103.9797805097
 20
44.9791713367
 10
-104.0415117321
 20
44.9757873222
 10
-104.1023545244
 20
44.9685392508
 10
-104.1620782756
 20
44.9575745988
 10
-104.2203791434
 20
44.9430741077
 10
-104.2771540481
 20
44.92519554
 10
-104.3324854809
 20
44.9040186457
 10
-104.3862720447
 20
44.8796437438
 10
-104.4382629262
 20
44.8522457973
 10
-104.4883200546
 20
44.8219790813
 10
-104.5363259768
 20
44.7889839473
 10
-104.5821194707
 20
44.7534407784
 10
-104.6255234672
 20
44.7155823785
 10
-104.6663125992
 20
44.6757267114
 10
-104.7045475451
 20
44.6339407082
 10
-104.7404518006
 20
44.5900398316
 10
-104.7739486801
 20
44.5440985277
 10
-104.8048781573
 20
44.4963182505
 10
-104.8332583144
 20
44.446636233
 10
-104.8590229409
 20
44.3950501069
 10
-104.8819657536
 20
44.341837614
 10
-104.9019037607
 20
44.2873619379
 10
-104.918744457
 20
44.2318696647
 10
-104.932448837
 20
44.1754734873
 10
-104.9429628519
 20
44.1183573363
  0
LWPOLYLINE
  5
377
100
AcDbEntity
  8
RACCORDO
100
AcDbPolyline
 62
250
  6
CONTINUOUS
 90
22
 70
0
 10
-104.4552178811
 20
44.1592906304
 10
-104.491822424
 20
44.1582680267
 10
-104.5282304759
 20
44.1561571129
 10
-104.5642466038
 20
44.1529692202
 10
-104.599677479
 20
44.148721461
 10
-104.6343329131
 20
44.143436637
 10
-104.6680268788
 20
44.137143117
 10
-104.7005785123
 20
44.1298746841
 10
-104.7318130817
 20
44.1216703546
 10
-104.7615629236
 20
44.112574169
 10
-104.789668346
 20
44.1026349548
 10
-104.8159784846
 20
44.0919060645
 10
-104.8403521104
 20
44.0804450903
 10
-104.8626583912
 20
44.0683135534
 10
-104.8827775919
 20
44.0555765742
 10
-104.900601717
 20
44.0423025238
 10
-104.9160350914
 20
44.0285626555
 10
-104.9289948733
 20
44.0144307228
 10
-104.9394114988
 20
43.9999825842
 10
-104.9472290553
 20
43.9852957951
 10
-104.9524055821
 20
43.9704491916
 10
-104.9549132947
 20
43.9555224676
  0
LWPOLYLINE
  5
378
100
AcDbEntity
  8
ASSI
100
AcDbPolyline
 62
250
  6
CONTINUOUS
 90
22
 70
0
 10
-104.4552178811
 20
44.1592906304
 10
-104.491822424
 20
44.1582680267
 10
-104.5282304759
 20
44.1561571129
 10
-104.5642466038
 20
44.1529692202
 10
-104.599677479
 20
44.148721461
 10
-104.6343329131
 20
44.143436637
 10
-104.6680268788
 20
44.137143117
 10
-104.7005785123
 20
44.1298746841
 10
-104.7318130817
 20
44.1216703546
 10
-104.7615629236
 20
44.112574169
 10
-104.789668346
 20
44.1026349548
 10
-104.8159784846
 20
44.0919060645
 10
-104.8403521104
 20
44.0804450903
 10
-104.8626583912
 20
44.0683135534
 10
-104.8827775919
 20
44.0555765742
 10
-104.900601717
 20
44.0423025238
 10
-104.9160350914
 20
44.0285626555
 10
-104.9289948733
 20
44.0144307228
 10
-104.9394114988
 20
43.9999825842
 10
-104.9472290553
 20
43.9852957951
 10
-104.9524055821
 20
43.9704491916
 10
-104.9549132947
 20
43.9555224676
  0
LINE
  5
379
100
AcDbEntity
  8
RACCORDO
100
AcDbLine
 62
250
  6
CONTINUOUS
 10
-104.4499301671
 20
44.2427587705
 11
104.4499301671
 21
44.2427587705
  0
LINE
  5
37A
100
AcDbEntity
  8
ASSI
100
AcDbLine
 62
250
  6
CONTINUOUS
 10
-104.4499301671
 20
44.2427587705
 11
104.4499301671
 21
44.2427587705
  0
LINE
  5
37B
100
AcDbEntity
  8
RACCORDO
100
AcDbLine
 62
250
  6
CONTINUOUS
 10
-103.9797780743
 20
44.9791689013
 11
103.9797780743
 21
44.9791689013
  0
LINE
  5
37C
100
AcDbEntity
  8
ASSI
100
AcDbLine
 62
250
  6
CONTINUOUS
 10
-103.9797780743
 20
44.9791689013
 11
103.9797780743
 21
44.9791689013
  0
LINE
  5
37D
100
AcDbEntity
  8
RACCORDO
100
AcDbLine
 62
7
  6
CONTINUOUS
 10
104.000609173
 20
45.0
 11
-104.000609173
 21
45.0
  0
LINE
  5
37E
100
AcDbEntity
  8
ASSI
100
AcDbLine
 62
7
  6
CONTINUOUS
 10
104.000609173
 20
45.0
 11
-104.000609173
 21
45.0
  0
LWPOLYLINE
  5
37F
100
AcDbEntity
  8
RACCORDO
100
AcDbPolyline
 62
250
  6
CONTINUOUS
 90
22
 70
0
 10
104.4552178811
 20
44.1592906303
 10
104.4918223638
 20
44.1582680194
 10
104.5282303596
 20
44.1561571024
 10
104.5642464364
 20
44.1529692105
 10
104.5996772654
 20
44.1487214557
 10
104.6343326596
 20
44.1434366393
 10
104.6680265942
 20
44.1371431293
 10
104.7005782056
 20
44.1298747083
 10
104.7318127617
 20
44.1216703919
 10
104.7615626005
 20
44.1125742196
 10
104.7896680293
 20
44.1026350182
 10
104.8159781826
 20
44.0919061399
 10
104.8403518317
 20
44.0804451754
 10
104.8626581425
 20
44.0683136454
 10
104.8827773783
 20
44.0555766701
 10
104.9006015421
 20
44.0423026195
 10
104.9160349565
 20
44.0285627467
 10
104.9289947774
 20
44.0144308051
 10
104.9394114385
 20
43.9999826527
 10
104.9472290247
 20
43.9852958451
 10
104.9524055724
 20
43.9704492186
 10
104.9549132947
 20
43.9555224676
  0
LWPOLYLINE
  5
380
100
AcDbEntity
  8
ASSI
100
AcDbPolyline
 62
250
  6
CONTINUOUS
 90
22
 70
0
 10
104.4552178811
 20
44.1592906303
 10
104.4918223638
 20
44.1582680194
 10
104.5282303596
 20
44.1561571024
 10
104.5642464364
 20
44.1529692105
 10
104.5996772654
 20
44.1487214557
 10
104.6343326596
 20
44.1434366393
 10
104.6680265942
 20
44.1371431293
 10
104.7005782056
 20
44.1298747083
 10
104.7318127617
 20
44.1216703919
 10
104.7615626005
 20
44.1125742196
 10
104.7896680293
 20
44.1026350182
 10
104.8159781826
 20
44.0919061399
 10
104.8403518317
 20
44.0804451754
 10
104.8626581425
 20
44.0683136454
 10
104.8827773783
 20
44.0555766701
 10
104.9006015421
 20
44.0423026195
 10
104.9160349565
 20
44.0285627467
 10
104.9289947774
 20
44.0144308051
 10
104.9394114385
 20
43.9999826527
 10
104.9472290247
 20
43.9852958451
 10
104.9524055724
 20
43.9704492186
 10
104.9549132947
 20
43.9555224676
  0
LWPOLYLINE
  5
381
100
AcDbEntity
  8
RACCORDO
100
AcDbPolyline
 62
250
  6
CONTINUOUS
 90
25
 70
0
 10
-103.9797382941
 20
44.9791689013
 10
-104.0101402032
 20
44.9752598954
 10
-104.0398902212
 20
44.9681418669
 10
-104.0689883479
 20
44.9579456131
 10
-104.0974830926
 20
44.9448250406
 10
-104.1253259462
 20
44.9289100065
 10
-104.152371381
 20
44.9102695067
 10
-104.1786440377
 20
44.8889860443
 10
-104.2041192756
 20
44.8652040411
 10
-104.2285776457
 20
44.8390634862
 10
-104.2520129795
 20
44.8106773514
 10
-104.2744314454
 20
44.780190664
 10
-104.2956321
 20
44.7478151631
 10
-104.31554529
 20
44.7138102297
 10
-104.3342406686
 20
44.6782228709
 10
-104.3517262515
 20
44.6409181281
 10
-104.368042729
 20
44.6019373896
 10
-104.3831494108
 20
44.5614401669
 10
-104.3969322412
 20
44.5194144542
 10
-104.4094150557
 20
44.4758304566
 10
-104.4205740188
 20
44.4308983941
 10
-104.4302235678
 20
44.3849789666
 10
-104.4383018484
 20
44.338281343
 10
-104.4448707148
 20
44.290836606
 10
-104.4499301671
 20
44.2427587705
  0
LWPOLYLINE
  5
382
100
AcDbEntity
  8
ASSI
100
AcDbPolyline
 62
250
  6
CONTINUOUS
 90
25
 70
0
 10
-103.9797382941
 20
44.9791689013
 10
-104.0101402032
 20
44.9752598954
 10
-104.0398902212
 20
44.9681418669
 10
-104.0689883479
 20
44.9579456131
 10
-104.0974830926
 20
44.9448250406
 10
-104.1253259462
 20
44.9289100065
 10
-104.152371381
 20
44.9102695067
 10
-104.1786440377
 20
44.8889860443
 10
-104.2041192756
 20
44.8652040411
 10
-104.2285776457
 20
44.8390634862
 10
-104.2520129795
 20
44.8106773514
 10
-104.2744314454
 20
44.780190664
 10
-104.2956321
 20
44.7478151631
 10
-104.31554529
 20
44.7138102297
 10
-104.3342406686
 20
44.6782228709
 10
-104.3517262515
 20
44.6409181281
 10
-104.368042729
 20
44.6019373896
 10
-104.3831494108
 20
44.5614401669
 10
-104.3969322412
 20
44.5194144542
 10
-104.4094150557
 20
44.4758304566
 10
-104.4205740188
 20
44.4308983941
 10
-104.4302235678
 20
44.3849789666
 10
-104.4383018484
 20
44.338281343
 10
-104.4448707148
 20
44.290836606
 10
-104.4499301671
 20
44.2427587705
  0
LWPOLYLINE
  5
383
100
AcDbEntity
  8
0
100
AcDbPolyline
 62
7
  6
CONTINUOUS
 90
7
 70
0
 43
0.3500000006
 10
-1.7142856507
 20
55.7291701355
 10
-3.2142856836
 20
55.7291701355
 10
-1.7142856507
 20
57.8720240479
 10
-1.7142856507
 20
58.3005930176
 10
-2.1428571696
 20
58.729171051
 10
-2.7857141647
 20
58.729171051
 10
-3.2142856836
 20
58.0863085327
  0
LINE
  5
384
100
AcDbEntity
  8
RACCORDO
100
AcDbLine
 62
250
  6
CONTINUOUS
 10
78.7200424952
 20
23.2972774442
 11
78.7200424952
 21
22.770285941
  0
LINE
  5
385
100
AcDbEntity
  8
ASSI
100
AcDbLine
 62
250
  6
CONTINUOUS
 10
78.7200424952
 20
23.2972774442
 11
78.7200424952
 21
22.770285941
  0
LINE
  5
386
100
AcDbEntity
  8
RACCORDO
100
AcDbLine
 62
250
  6
CONTINUOUS
 10
78.7200424952
 20
-23.2972774442
 11
78.7200424952
 21
-22.770285941
  0
LINE
  5
387
100
AcDbEntity
  8
ASSI
100
AcDbLine
 62
250
  6
CONTINUOUS
 10
78.7200424952
 20
-23.2972774442
 11
78.7200424952
 21
-22.770285941
  0
LINE
  5
388
100
AcDbEntity
  8
0
100
AcDbLine
 62
7
  6
CONTINUOUS
 10
79.0640046227
 20
22.3149553621
 11
79.0640046227
 21
-22.3149553621
  0
LINE
  5
389
100
AcDbEntity
  8
ASSI
100
AcDbLine
 62
7
  6
CONTINUOUS
 10
79.0640046227
 20
22.3149553621
 11
79.0640046227
 21
-22.3149553621
  0
LINE
  5
38A
100
AcDbEntity
  8
RACCORDO
100
AcDbLine
 62
250
  6
CONTINUOUS
 10
79.1224727574
 20
22.3732038749
 11
79.1224727574
 21
-22.3732038749
  0
LINE
  5
38B
100
AcDbEntity
  8
ASSI
100
AcDbLine
 62
250
  6
CONTINUOUS
 10
79.1224727574
 20
22.3732038749
 11
79.1224727574
 21
-22.3732038749
  0
LINE
  5
38C
100
AcDbEntity
  8
RACCORDO
100
AcDbLine
 62
250
  6
CONTINUOUS
 10
79.6212514992
 20
22.3972171773
 11
79.6212514992
 21
-22.3972171773
  0
LINE
  5
38D
100
AcDbEntity
  8
ASSI
100
AcDbLine
 62
250
  6
CONTINUOUS
 10
79.6212514992
 20
22.3972171773
 11
79.6212514992
 21
-22.3972171773
  0
LWPOLYLINE
  5
38E
100
AcDbEntity
  8
RACCORDO
100
AcDbPolyline
 62
250
  6
CONTINUOUS
 90
28
 70
0
 10
79.1224727574
 20
-22.3732038749
 10
79.1218192004
 20
-22.3965972491
 10
79.1197969186
 20
-22.4198109006
 10
79.1164284548
 20
-22.4427674442
 10
79.1117472464
 20
-22.4653631814
 10
79.105780772
 20
-22.4875550409
 10
79.0985340786
 20
-22.5093564892
 10
79.0900200396
 20
-22.5307213638
 10
79.0802752532
 20
-22.551551693
 10
79.0693314526
 20
-22.5717814308
 10
79.0572244932
 20
-22.591342825
 10
79.0439941443
 20
-22.6101709422
 10
79.0296828139
 20
-22.6282066532
 10
79.0143302957
 20
-22.6453959847
 10
78.997992465
 20
-22.6616734409
 10
78.9807436001
 20
-22.6769694027
 10
78.9626858792
 20
-22.6912031982
 10
78.9438414066
 20
-22.7043668155
 10
78.9241577132
 20
-22.7164890878
 10
78.9036540949
 20
-22.7275298833
 10
78.8824220579
 20
-22.7374124657
 10
78.8605088505
 20
-22.7460927735
 10
78.8379261279
 20
-22.7535344116
 10
78.8147963871
 20
-22.7596661057
 10
78.7913450539
 20
-22.7644192177
 10
78.7677053527
 20
-22.7677740172
 10
78.7439102243
 20
-22.7697312476
 10
78.7200424952
 20
-22.770285941
  0
LWPOLYLINE
  5
38F
100
AcDbEntity
  8
ASSI
100
AcDbPolyline
 62
250
  6
CONTINUOUS
 90
28
 70
0
 10
79.1224727574
 20
-22.3732038749
 10
79.1218192004
 20
-22.3965972491
 10
79.1197969186
 20
-22.4198109006
 10
79.1164284548
 20
-22.4427674442
 10
79.1117472464
 20
-22.4653631814
 10
79.105780772
 20
-22.4875550409
 10
79.0985340786
 20
-22.5093564892
 10
79.0900200396
 20
-22.5307213638
 10
79.0802752532
 20
-22.551551693
 10
79.0693314526
 20
-22.5717814308
 10
79.0572244932
 20
-22.591342825
 10
79.0439941443
 20
-22.6101709422
 10
79.0296828139
 20
-22.6282066532
 10
79.0143302957
 20
-22.6453959847
 10
78.997992465
 20
-22.6616734409
 10
78.9807436001
 20
-22.6769694027
 10
78.9626858792
 20
-22.6912031982
 10
78.9438414066
 20
-22.7043668155
 10
78.9241577132
 20
-22.7164890878
 10
78.9036540949
 20
-22.7275298833
 10
78.8824220579
 20
-22.7374124657
 10
78.8605088505
 20
-22.7460927735
 10
78.8379261279
 20
-22.7535344116
 10
78.8147963871
 20
-22.7596661057
 10
78.7913450539
 20
-22.7644192177
 10
78.7677053527
 20
-22.7677740172
 10
78.7439102243
 20
-22.7697312476
 10
78.7200424952
 20
-22.770285941
  0
LWPOLYLINE
  5
390
100
AcDbEntity
  8
RACCORDO
100
AcDbPolyline
 62
250
  6
CONTINUOUS
 90
28
 70
0
 10
79.6212514992
 20
-22.3972171773
 10
79.6196079152
 20
-22.4502003214
 10
79.6150220303
 20
-22.5024533794
 10
79.6074938444
 20
-22.5539790466
 10
79.5969783915
 20
-22.6048827851
 10
79.5835206376
 20
-22.6550641441
 10
79.5672554811
 20
-22.7042180672
 10
79.5481563312
 20
-22.7524039413
 10
79.5262497788
 20
-22.7995695318
 10
79.5017504946
 20
-22.8452451141
 10
79.4746342399
 20
-22.8894230944
 10
79.4449252535
 20
-22.9321210678
 10
79.4129109218
 20
-22.9729099702
 10
79.378550812
 20
-23.0117900168
 10
79.3418853569
 20
-23.0487724861
 10
79.303323241
 20
-23.0834470971
 10
79.2629523824
 20
-23.1157435754
 10
79.220684863
 20
-23.1457441099
 10
79.1766656121
 20
-23.173268117
 10
79.1308146341
 20
-23.1983780359
 10
79.0832119248
 20
-23.2210213551
 10
79.0342424007
 20
-23.2408454126
 10
78.9837547187
 20
-23.2578391638
 10
78.931900222
 20
-23.272021678
 10
78.8795178567
 20
-23.283085509
 10
78.8268872715
 20
-23.2909298394
 10
78.7737288177
 20
-23.2956601037
 10
78.7200424952
 20
-23.2972774442
  0
LWPOLYLINE
  5
391
100
AcDbEntity
  8
ASSI
100
AcDbPolyline
 62
250
  6
CONTINUOUS
 90
28
 70
0
 10
79.6212514992
 20
-22.3972171773
 10
79.6196079152
 20
-22.4502003214
 10
79.6150220303
 20
-22.5024533794
 10
79.6074938444
 20
-22.5539790466
 10
79.5969783915
 20
-22.6048827851
 10
79.5835206376
 20
-22.6550641441
 10
79.5672554811
 20
-22.7042180672
 10
79.5481563312
 20
-22.7524039413
 10
79.5262497788
 20
-22.7995695318
 10
79.5017504946
 20
-22.8452451141
 10
79.4746342399
 20
-22.8894230944
 10
79.4449252535
 20
-22.9321210678
 10
79.4129109218
 20
-22.9729099702
 10
79.378550812
 20
-23.0117900168
 10
79.3418853569
 20
-23.0487724861
 10
79.303323241
 20
-23.0834470971
 10
79.2629523824
 20
-23.1157435754
 10
79.220684863
 20
-23.1457441099
 10
79.1766656121
 20
-23.173268117
 10
79.1308146341
 20
-23.1983780359
 10
79.0832119248
 20
-23.2210213551
 10
79.0342424007
 20
-23.2408454126
 10
78.9837547187
 20
-23.2578391638
 10
78.931900222
 20
-23.272021678
 10
78.8795178567
 20
-23.283085509
 10
78.8268872715
 20
-23.2909298394
 10
78.7737288177
 20
-23.2956601037
 10
78.7200424952
 20
-23.2972774442
  0
LWPOLYLINE
  5
392
100
AcDbEntity
  8
0
100
AcDbPolyline
 62
7
  6
CONTINUOUS
 90
25
 70
0
 10
79.0640046227
 20
-22.3149553621
 10
79.0631473136
 20
-22.3410663814
 10
79.0605822021
 20
-22.3670372641
 10
79.0563254284
 20
-22.3927577491
 10
79.0504017187
 20
-22.4181133443
 10
79.0428405077
 20
-22.4430034446
 10
79.0336720505
 20
-22.467340662
 10
79.0229487654
 20
-22.490997684
 10
79.0107085355
 20
-22.5139011609
 10
78.9969490112
 20
-22.5360388769
 10
78.9816729697
 20
-22.5573594665
 10
78.9649644181
 20
-22.5777034329
 10
78.9469514796
 20
-22.5969024311
 10
78.9277215811
 20
-22.6148657042
 10
78.9073506824
 20
-22.6315252278
 10
78.8859800702
 20
-22.6467762912
 10
78.8637508651
 20
-22.6605395316
 10
78.8407261487
 20
-22.6727964362
 10
78.8169341793
 20
-22.6835392464
 10
78.7924542992
 20
-22.6927260238
 10
78.7674082999
 20
-22.7003051399
 10
78.7418840726
 20
-22.7062462395
 10
78.7159827867
 20
-22.7105182272
 10
78.6898196704
 20
-22.7130934892
 10
78.6635060253
 20
-22.7139537282
  0
LWPOLYLINE
  5
393
100
AcDbEntity
  8
ASSI
100
AcDbPolyline
 62
7
  6
CONTINUOUS
 90
25
 70
0
 10
79.0640046227
 20
-22.3149553621
 10
79.0631473136
 20
-22.3410663814
 10
79.0605822021
 20
-22.3670372641
 10
79.0563254284
 20
-22.3927577491
 10
79.0504017187
 20
-22.4181133443
 10
79.0428405077
 20
-22.4430034446
 10
79.0336720505
 20
-22.467340662
 10
79.0229487654
 20
-22.490997684
 10
79.0107085355
 20
-22.5139011609
 10
78.9969490112
 20
-22.5360388769
 10
78.9816729697
 20
-22.5573594665
 10
78.9649644181
 20
-22.5777034329
 10
78.9469514796
 20
-22.5969024311
 10
78.9277215811
 20
-22.6148657042
 10
78.9073506824
 20
-22.6315252278
 10
78.8859800702
 20
-22.6467762912
 10
78.8637508651
 20
-22.6605395316
 10
78.8407261487
 20
-22.6727964362
 10
78.8169341793
 20
-22.6835392464
 10
78.7924542992
 20
-22.6927260238
 10
78.7674082999
 20
-22.7003051399
 10
78.7418840726
 20
-22.7062462395
 10
78.7159827867
 20
-22.7105182272
 10
78.6898196704
 20
-22.7130934892
 10
78.6635060253
 20
-22.7139537282
  0
LINE
  5
394
100
AcDbEntity
  8
DRAFT
100
AcDbLine
 62
7
  6
CONTINUOUS
 10
105.0
 20
3.6
 11
104.9126980763
 21
3.4689805518
  0
LINE
  5
395
100
AcDbEntity
  8
ASSI
100
AcDbLine
 62
7
  6
CONTINUOUS
 10
105.0
 20
3.6
 11
104.9126980763
 21
3.4689805518
  0
LWPOLYLINE
  5
396
100
AcDbEntity
  8
0
100
AcDbPolyline
 62
7
  6
CONTINUOUS
 90
10
 70
0
 43
0.3500000006
 10
114.2500031433
 20
-1.9285708809
 10
113.3928561401
 20
-1.0714295425
 10
112.5357182007
 20
-0.8571427917
 10
111.6785711975
 20
-0.8571427917
 10
111.2500022278
 20
-1.2857140274
 10
111.2500022278
 20
-1.9285708809
 10
111.6785711975
 20
-2.3571432495
 10
112.5357182007
 20
-2.3571432495
 10
112.9642871704
 20
-1.9285708809
 10
112.9642871704
 20
-1.0000006256
  0
LINE
  5
397
100
AcDbEntity
  8
DRAFT
100
AcDbLine
 62
7
  6
CONTINUOUS
 10
105.0
 20
-3.6
 11
104.9126980763
 21
-3.4689805518
  0
LINE
  5
398
100
AcDbEntity
  8
ASSI
100
AcDbLine
 62
7
  6
CONTINUOUS
 10
105.0
 20
-3.6
 11
104.9126980763
 21
-3.4689805518
  0
LWPOLYLINE
  5
399
100
AcDbEntity
  8
RACCORDO
100
AcDbPolyline
 62
250
  6
CONTINUOUS
 90
25
 70
0
 10
104.4499301671
 20
44.2427587705
 10
104.4451569351
 20
44.2887982043
 10
104.4389176577
 20
44.3345076325
 10
104.431212335
 20
44.3797695557
 10
104.4220337368
 20
44.4244572893
 10
104.4113890934
 20
44.468448127
 10
104.3993000946
 20
44.5116223086
 10
104.3857471186
 20
44.553861367
 10
104.3707497873
 20
44.5950035912
 10
104.3543886569
 20
44.634862472
 10
104.3366365903
 20
44.6733103456
 10
104.3175207245
 20
44.710185604
 10
104.2972030264
 20
44.745266472
 10
104.2756663175
 20
44.7784123839
 10
104.2529277762
 20
44.8094988207
 10
104.2292009042
 20
44.8383531422
 10
104.204494572
 20
44.864833561
 10
104.1787999091
 20
44.8888517719
 10
104.1523038054
 20
44.9103201164
 10
104.1249623121
 20
44.9291380147
 10
104.0968193781
 20
44.9451646736
 10
104.0681937397
 20
44.9582657766
 10
104.0391916425
 20
44.9683482019
 10
104.009706841
 20
44.9753406355
 10
103.9797393351
 20
44.9791689013
  0
LWPOLYLINE
  5
39A
100
AcDbEntity
  8
ASSI
100
AcDbPolyline
 62
250
  6
CONTINUOUS
 90
25
 70
0
 10
104.4499301671
 20
44.2427587705
 10
104.4451569351
 20
44.2887982043
 10
104.4389176577
 20
44.3345076325
 10
104.431212335
 20
44.3797695557
 10
104.4220337368
 20
44.4244572893
 10
104.4113890934
 20
44.468448127
 10
104.3993000946
 20
44.5116223086
 10
104.3857471186
 20
44.553861367
 10
104.3707497873
 20
44.5950035912
 10
104.3543886569
 20
44.634862472
 10
104.3366365903
 20
44.6733103456
 10
104.3175207245
 20
44.710185604
 10
104.2972030264
 20
44.745266472
 10
104.2756663175
 20
44.7784123839
 10
104.2529277762
 20
44.8094988207
 10
104.2292009042
 20
44.8383531422
 10
104.204494572
 20
44.864833561
 10
104.1787999091
 20
44.8888517719
 10
104.1523038054
 20
44.9103201164
 10
104.1249623121
 20
44.9291380147
 10
104.0968193781
 20
44.9451646736
 10
104.0681937397
 20
44.9582657766
 10
104.0391916425
 20
44.9683482019
 10
104.009706841
 20
44.9753406355
 10
103.9797393351
 20
44.9791689013
  0
LINE
  5
39B
100
AcDbEntity
  8
RACCORDO
100
AcDbLine
 62
250
  6
CONTINUOUS
 10
104.9549132947
 20
-43.9555224676
 11
104.9308397951
 21
-42.2788408168
  0
LINE
  5
39C
100
AcDbEntity
  8
ASSI
100
AcDbLine
 62
250
  6
CONTINUOUS
 10
104.9549132947
 20
-43.9555224676
 11
104.9308397951
 21
-42.2788408168
  0
LINE
  5
39D
100
AcDbEntity
  8
RACCORDO
100
AcDbLine
 62
250
  6
CONTINUOUS
 10
104.4552178811
 20
-44.1592906303
 11
104.4311443816
 21
-42.4554266429
  0
LINE
  5
39E
100
AcDbEntity
  8
ASSI
100
AcDbLine
 62
250
  6
CONTINUOUS
 10
104.4552178811
 20
-44.1592906303
 11
104.4311443816
 21
-42.4554266429
  0
LINE
  5
39F
100
AcDbEntity
  8
RACCORDO
100
AcDbLine
 62
250
  6
CONTINUOUS
 10
104.9308397951
 20
-42.2788408168
 11
104.9101318702
 21
-40.5667936183
  0
LINE
  5
3A0
100
AcDbEntity
  8
ASSI
100
AcDbLine
 62
250
  6
CONTINUOUS
 10
104.9308397951
 20
-42.2788408168
 11
104.9101318702
 21
-40.5667936183
  0
LINE
  5
3A1
100
AcDbEntity
  8
RACCORDO
100
AcDbLine
 62
250
  6
CONTINUOUS
 10
104.4311443816
 20
-42.4554266429
 11
104.4104364566
 21
-40.7175165889
  0
LINE
  5
3A2
100
AcDbEntity
  8
ASSI
100
AcDbLine
 62
250
  6
CONTINUOUS
 10
104.4311443816
 20
-42.4554266429
 11
104.4104364566
 21
-40.7175165889
  0
LINE
  5
3A3
100
AcDbEntity
  8
RACCORDO
100
AcDbLine
 62
250
  6
CONTINUOUS
 10
104.4104364566
 20
-40.7175165889
 11
104.393938853
 21
-39.075531588
  0
LINE
  5
3A4
100
AcDbEntity
  8
ASSI
100
AcDbLine
 62
250
  6
CONTINUOUS
 10
104.4104364566
 20
-40.7175165889
 11
104.393938853
 21
-39.075531588
  0
LINE
  5
3A5
100
AcDbEntity
  8
RACCORDO
100
AcDbLine
 62
250
  6
CONTINUOUS
 10
104.9101318702
 20
-40.5667936183
 11
104.8936342666
 21
-38.9461743882
  0
LINE
  5
3A6
100
AcDbEntity
  8
ASSI
100
AcDbLine
 62
250
  6
CONTINUOUS
 10
104.9101318702
 20
-40.5667936183
 11
104.8936342666
 21
-38.9461743882
  0
LINE
  5
3A7
100
AcDbEntity
  8
RACCORDO
100
AcDbLine
 62
250
  6
CONTINUOUS
 10
104.8936342666
 20
-38.9461743882
 11
104.8775345251
 21
-37.0503822439
  0
LINE
  5
3A8
100
AcDbEntity
  8
ASSI
100
AcDbLine
 62
250
  6
CONTINUOUS
 10
104.8936342666
 20
-38.9461743882
 11
104.8775345251
 21
-37.0503822439
  0
LINE
  5
3A9
100
AcDbEntity
  8
RACCORDO
100
AcDbLine
 62
250
  6
CONTINUOUS
 10
104.393938853
 20
-39.075531588
 11
104.3778391115
 21
-37.1582463627
  0
LINE
  5
3AA
100
AcDbEntity
  8
ASSI
100
AcDbLine
 62
250
  6
CONTINUOUS
 10
104.393938853
 20
-39.075531588
 11
104.3778391115
 21
-37.1582463627
  0
LINE
  5
3AB
100
AcDbEntity
  8
RACCORDO
100
AcDbLine
 62
250
  6
CONTINUOUS
 10
104.3778391115
 20
-37.1582463627
 11
104.3623611286
 21
-34.8853675024
  0
LINE
  5
3AC
100
AcDbEntity
  8
ASSI
100
AcDbLine
 62
250
  6
CONTINUOUS
 10
104.3778391115
 20
-37.1582463627
 11
104.3623611286
 21
-34.8853675024
  0
LINE
  5
3AD
100
AcDbEntity
  8
RACCORDO
100
AcDbLine
 62
250
  6
CONTINUOUS
 10
104.8775345251
 20
-37.0503822439
 11
104.8620565421
 21
-34.7991634818
  0
LINE
  5
3AE
100
AcDbEntity
  8
ASSI
100
AcDbLine
 62
250
  6
CONTINUOUS
 10
104.8775345251
 20
-37.0503822439
 11
104.8620565421
 21
-34.7991634818
  0
LINE
  5
3AF
100
AcDbEntity
  8
RACCORDO
100
AcDbLine
 62
250
  6
CONTINUOUS
 10
104.3623611286
 20
-34.8853675024
 11
104.3483864825
 21
-32.2726596334
  0
LINE
  5
3B0
100
AcDbEntity
  8
ASSI
100
AcDbLine
 62
250
  6
CONTINUOUS
 10
104.3623611286
 20
-34.8853675024
 11
104.3483864825
 21
-32.2726596334
  0
LINE
  5
3B1
100
AcDbEntity
  8
RACCORDO
100
AcDbLine
 62
250
  6
CONTINUOUS
 10
104.8620565421
 20
-34.7991634818
 11
104.848081896
 21
-32.2056641148
  0
LINE
  5
3B2
100
AcDbEntity
  8
ASSI
100
AcDbLine
 62
250
  6
CONTINUOUS
 10
104.8620565421
 20
-34.7991634818
 11
104.848081896
 21
-32.2056641148
  0
LINE
  5
3B3
100
AcDbEntity
  8
RACCORDO
100
AcDbLine
 62
250
  6
CONTINUOUS
 10
104.3483864825
 20
-32.2726596334
 11
104.3373062514
 21
-29.590392117
  0
LINE
  5
3B4
100
AcDbEntity
  8
ASSI
100
AcDbLine
 62
250
  6
CONTINUOUS
 10
104.3483864825
 20
-32.2726596334
 11
104.3373062514
 21
-29.590392117
  0
LINE
  5
3B5
100
AcDbEntity
  8
RACCORDO
100
AcDbLine
 62
250
  6
CONTINUOUS
 10
104.848081896
 20
-32.2056641148
 11
104.8370016649
 21
-29.5390972405
  0
LINE
  5
3B6
100
AcDbEntity
  8
ASSI
100
AcDbLine
 62
250
  6
CONTINUOUS
 10
104.848081896
 20
-32.2056641148
 11
104.8370016649
 21
-29.5390972405
  0
LINE
  5
3B7
100
AcDbEntity
  8
RACCORDO
100
AcDbLine
 62
250
  6
CONTINUOUS
 10
104.3373062514
 20
-29.590392117
 11
104.326941154
 21
-26.2324190432
  0
LINE
  5
3B8
100
AcDbEntity
  8
ASSI
100
AcDbLine
 62
250
  6
CONTINUOUS
 10
104.3373062514
 20
-29.590392117
 11
104.326941154
 21
-26.2324190432
  0
LINE
  5
3B9
100
AcDbEntity
  8
RACCORDO
100
AcDbLine
 62
250
  6
CONTINUOUS
 10
104.8370016649
 20
-29.5390972405
 11
104.8266365675
 21
-26.1949387736
  0
LINE
  5
3BA
100
AcDbEntity
  8
ASSI
100
AcDbLine
 62
250
  6
CONTINUOUS
 10
104.8370016649
 20
-29.5390972405
 11
104.8266365675
 21
-26.1949387736
  0
LINE
  5
3BB
100
AcDbEntity
  8
RACCORDO
100
AcDbLine
 62
250
  6
CONTINUOUS
 10
104.326941154
 20
-26.2324190432
 11
104.3181808739
 21
-22.1833971621
  0
LINE
  5
3BC
100
AcDbEntity
  8
ASSI
100
AcDbLine
 62
250
  6
CONTINUOUS
 10
104.326941154
 20
-26.2324190432
 11
104.3181808739
 21
-22.1833971621
  0
LINE
  5
3BD
100
AcDbEntity
  8
RACCORDO
100
AcDbLine
 62
250
  6
CONTINUOUS
 10
104.8266365675
 20
-26.1949387736
 11
104.8178762875
 21
-22.1581079643
  0
LINE
  5
3BE
100
AcDbEntity
  8
ASSI
100
AcDbLine
 62
250
  6
CONTINUOUS
 10
104.8266365675
 20
-26.1949387736
 11
104.8178762875
 21
-22.1581079643
  0
LWPOLYLINE
  5
3BF
100
AcDbEntity
  8
RACCORDO
100
AcDbPolyline
 62
250
  6
CONTINUOUS
 90
10
 70
0
 10
104.9549132947
 20
43.9555224676
 10
104.9548827709
 20
43.9736908031
 10
104.9545273623
 20
43.991852141
 10
104.9538472834
 20
44.0100006317
 10
104.9528430563
 20
44.0281281031
 10
104.9515149892
 20
44.0462310536
 10
104.949862752
 20
44.0643106197
 10
104.9478862697
 20
44.0823632586
 10
104.9455861474
 20
44.1003807841
 10
104.9429628519
 20
44.1183573363
  0
LWPOLYLINE
  5
3C0
100
AcDbEntity
  8
ASSI
100
AcDbPolyline
 62
250
  6
CONTINUOUS
 90
10
 70
0
 10
104.9549132947
 20
43.9555224676
 10
104.9548827709
 20
43.9736908031
 10
104.9545273623
 20
43.991852141
 10
104.9538472834
 20
44.0100006317
 10
104.9528430563
 20
44.0281281031
 10
104.9515149892
 20
44.0462310536
 10
104.949862752
 20
44.0643106197
 10
104.9478862697
 20
44.0823632586
 10
104.9455861474
 20
44.1003807841
 10
104.9429628519
 20
44.1183573363
  0
LINE
  5
3C1
100
AcDbEntity
  8
RACCORDO
100
AcDbLine
 62
250
  6
CONTINUOUS
 10
104.3181808739
 20
-22.1833971621
 11
104.3114593102
 21
-17.3772436982
  0
LINE
  5
3C2
100
AcDbEntity
  8
ASSI
100
AcDbLine
 62
250
  6
CONTINUOUS
 10
104.3181808739
 20
-22.1833971621
 11
104.3114593102
 21
-17.3772436982
  0
LINE
  5
3C3
100
AcDbEntity
  8
RACCORDO
100
AcDbLine
 62
250
  6
CONTINUOUS
 10
104.8178762875
 20
-22.1581079643
 11
104.8111547238
 21
-17.3612699977
  0
LINE
  5
3C4
100
AcDbEntity
  8
ASSI
100
AcDbLine
 62
250
  6
CONTINUOUS
 10
104.8178762875
 20
-22.1581079643
 11
104.8111547238
 21
-17.3612699977
  0
LINE
  5
3C5
100
AcDbEntity
  8
RACCORDO
100
AcDbLine
 62
250
  6
CONTINUOUS
 10
104.3114593102
 20
-17.3772436982
 11
104.3065139778
 21
-10.9368298228
  0
LINE
  5
3C6
100
AcDbEntity
  8
ASSI
100
AcDbLine
 62
250
  6
CONTINUOUS
 10
104.3114593102
 20
-17.3772436982
 11
104.3065139778
 21
-10.9368298228
  0
LINE
  5
3C7
100
AcDbEntity
  8
RACCORDO
100
AcDbLine
 62
250
  6
CONTINUOUS
 10
104.8111547238
 20
-17.3612699977
 11
104.8062093913
 21
-10.9296017856
  0
LINE
  5
3C8
100
AcDbEntity
  8
ASSI
100
AcDbLine
 62
250
  6
CONTINUOUS
 10
104.8111547238
 20
-17.3612699977
 11
104.8062093913
 21
-10.9296017856
  0
LINE
  5
3C9
100
AcDbEntity
  8
RACCORDO
100
AcDbLine
 62
250
  6
CONTINUOUS
 10
104.3065139778
 20
-10.9368298228
 11
104.3041955307
 21
-1.9447077345
  0
LINE
  5
3CA
100
AcDbEntity
  8
ASSI
100
AcDbLine
 62
250
  6
CONTINUOUS
 10
104.3065139778
 20
-10.9368298228
 11
104.3041955307
 21
-1.9447077345
  0
LINE
  5
3CB
100
AcDbEntity
  8
RACCORDO
100
AcDbLine
 62
250
  6
CONTINUOUS
 10
104.8062093913
 20
-10.9296017856
 11
104.8038909442
 21
-1.943889274
  0
LINE
  5
3CC
100
AcDbEntity
  8
ASSI
100
AcDbLine
 62
250
  6
CONTINUOUS
 10
104.8062093913
 20
-10.9296017856
 11
104.8038909442
 21
-1.943889274
  0
LINE
  5
3CD
100
AcDbEntity
  8
DRAFT
100
AcDbLine
 62
7
  6
CONTINUOUS
 10
104.9126980763
 20
-3.4689805518
 11
104.9126980763
 21
3.4689805518
  0
LINE
  5
3CE
100
AcDbEntity
  8
ASSI
100
AcDbLine
 62
7
  6
CONTINUOUS
 10
104.9126980763
 20
-3.4689805518
 11
104.9126980763
 21
3.4689805518
  0
LINE
  5
3CF
100
AcDbEntity
  8
RACCORDO
100
AcDbLine
 62
7
  6
CONTINUOUS
 10
105.0
 20
-44.000609173
 11
105.0
 21
-3.6
  0
LINE
  5
3D0
100
AcDbEntity
  8
ASSI
100
AcDbLine
 62
7
  6
CONTINUOUS
 10
105.0
 20
-44.000609173
 11
105.0
 21
-3.6
  0
LINE
  5
3D1
100
AcDbEntity
  8
RACCORDO
100
AcDbLine
 62
7
  6
CONTINUOUS
 10
105.0
 20
3.6
 11
105.0
 21
44.000609173
  0
LINE
  5
3D2
100
AcDbEntity
  8
ASSI
100
AcDbLine
 62
7
  6
CONTINUOUS
 10
105.0
 20
3.6
 11
105.0
 21
44.000609173
  0
LINE
  5
3D3
100
AcDbEntity
  8
RACCORDO
100
AcDbLine
 62
250
  6
CONTINUOUS
 10
104.3041955307
 20
-1.9447077345
 11
104.3057872145
 21
9.3320163695
  0
LINE
  5
3D4
100
AcDbEntity
  8
ASSI
100
AcDbLine
 62
250
  6
CONTINUOUS
 10
104.3041955307
 20
-1.9447077345
 11
104.3057872145
 21
9.3320163695
  0
LINE
  5
3D5
100
AcDbEntity
  8
RACCORDO
100
AcDbLine
 62
250
  6
CONTINUOUS
 10
104.8038909442
 20
-1.943889274
 11
104.8054826281
 21
9.3267061304
  0
LINE
  5
3D6
100
AcDbEntity
  8
ASSI
100
AcDbLine
 62
250
  6
CONTINUOUS
 10
104.8038909442
 20
-1.943889274
 11
104.8054826281
 21
9.3267061304
  0
LINE
  5
3D7
100
AcDbEntity
  8
RACCORDO
100
AcDbLine
 62
250
  6
CONTINUOUS
 10
104.3057872145
 20
9.3320163695
 11
104.3113527783
 21
17.279599452
  0
LINE
  5
3D8
100
AcDbEntity
  8
ASSI
100
AcDbLine
 62
250
  6
CONTINUOUS
 10
104.3057872145
 20
9.3320163695
 11
104.3113527783
 21
17.279599452
  0
LINE
  5
3D9
100
AcDbEntity
  8
RACCORDO
100
AcDbLine
 62
250
  6
CONTINUOUS
 10
104.8054826281
 20
9.3267061304
 11
104.8110481918
 21
17.2642690945
  0
LINE
  5
3DA
100
AcDbEntity
  8
ASSI
100
AcDbLine
 62
250
  6
CONTINUOUS
 10
104.8054826281
 20
9.3267061304
 11
104.8110481918
 21
17.2642690945
  0
LINE
  5
3DB
100
AcDbEntity
  8
RACCORDO
100
AcDbLine
 62
250
  6
CONTINUOUS
 10
104.3113527783
 20
17.279599452
 11
104.318886158
 21
22.5764238373
  0
LINE
  5
3DC
100
AcDbEntity
  8
ASSI
100
AcDbLine
 62
250
  6
CONTINUOUS
 10
104.3113527783
 20
17.279599452
 11
104.318886158
 21
22.5764238373
  0
LINE
  5
3DD
100
AcDbEntity
  8
RACCORDO
100
AcDbLine
 62
250
  6
CONTINUOUS
 10
104.8110481918
 20
17.2642690945
 11
104.8185815715
 21
22.5502670567
  0
LINE
  5
3DE
100
AcDbEntity
  8
ASSI
100
AcDbLine
 62
250
  6
CONTINUOUS
 10
104.8110481918
 20
17.2642690945
 11
104.8185815715
 21
22.5502670567
  0
LINE
  5
3DF
100
AcDbEntity
  8
RACCORDO
100
AcDbLine
 62
250
  6
CONTINUOUS
 10
104.318886158
 20
22.5764238373
 11
104.3335876844
 21
28.5082235223
  0
LINE
  5
3E0
100
AcDbEntity
  8
ASSI
100
AcDbLine
 62
250
  6
CONTINUOUS
 10
104.318886158
 20
22.5764238373
 11
104.3335876844
 21
28.5082235223
  0
LINE
  5
3E1
100
AcDbEntity
  8
RACCORDO
100
AcDbLine
 62
250
  6
CONTINUOUS
 10
104.8185815715
 20
22.5502670567
 11
104.8332830979
 21
28.4625753683
  0
LINE
  5
3E2
100
AcDbEntity
  8
ASSI
100
AcDbLine
 62
250
  6
CONTINUOUS
 10
104.8185815715
 20
22.5502670567
 11
104.8332830979
 21
28.4625753683
  0
LINE
  5
3E3
100
AcDbEntity
  8
RACCORDO
100
AcDbLine
 62
250
  6
CONTINUOUS
 10
104.3335876844
 20
28.5082235223
 11
104.3437329145
 21
31.2293240638
  0
LINE
  5
3E4
100
AcDbEntity
  8
ASSI
100
AcDbLine
 62
250
  6
CONTINUOUS
 10
104.3335876844
 20
28.5082235223
 11
104.3437329145
 21
31.2293240638
  0
LINE
  5
3E5
100
AcDbEntity
  8
RACCORDO
100
AcDbLine
 62
250
  6
CONTINUOUS
 10
104.8332830979
 20
28.4625753683
 11
104.843428328
 21
31.168743745
  0
LINE
  5
3E6
100
AcDbEntity
  8
ASSI
100
AcDbLine
 62
250
  6
CONTINUOUS
 10
104.8332830979
 20
28.4625753683
 11
104.843428328
 21
31.168743745
  0
LINE
  5
3E7
100
AcDbEntity
  8
RACCORDO
100
AcDbLine
 62
250
  6
CONTINUOUS
 10
104.3437329145
 20
31.2293240638
 11
104.3583868595
 21
34.2061107105
  0
LINE
  5
3E8
100
AcDbEntity
  8
ASSI
100
AcDbLine
 62
250
  6
CONTINUOUS
 10
104.3437329145
 20
31.2293240638
 11
104.3583868595
 21
34.2061107105
  0
LINE
  5
3E9
100
AcDbEntity
  8
RACCORDO
100
AcDbLine
 62
250
  6
CONTINUOUS
 10
104.843428328
 20
31.168743745
 11
104.8580822731
 21
34.124336795
  0
LINE
  5
3EA
100
AcDbEntity
  8
ASSI
100
AcDbLine
 62
250
  6
CONTINUOUS
 10
104.843428328
 20
31.168743745
 11
104.8580822731
 21
34.124336795
  0
LWPOLYLINE
  5
3EB
100
AcDbEntity
  8
RACCORDO
100
AcDbPolyline
 62
250
  6
CONTINUOUS
 90
10
 70
0
 10
104.4552178811
 20
44.1592906303
 10
104.4552792433
 20
44.1686086851
 10
104.4551783523
 20
44.1779171213
 10
104.4549152082
 20
44.1872159489
 10
104.4544897688
 20
44.1965069922
 10
104.4539020762
 20
44.2057884456
 10
104.4531522571
 20
44.2150548791
 10
104.4522403537
 20
44.2243044945
 10
104.4511663237
 20
44.2335391202
 10
104.4499301671
 20
44.2427587705
  0
LWPOLYLINE
  5
3EC
100
AcDbEntity
  8
ASSI
100
AcDbPolyline
 62
250
  6
CONTINUOUS
 90
10
 70
0
 10
104.4552178811
 20
44.1592906303
 10
104.4552792433
 20
44.1686086851
 10
104.4551783523
 20
44.1779171213
 10
104.4549152082
 20
44.1872159489
 10
104.4544897688
 20
44.1965069922
 10
104.4539020762
 20
44.2057884456
 10
104.4531522571
 20
44.2150548791
 10
104.4522403537
 20
44.2243044945
 10
104.4511663237
 20
44.2335391202
 10
104.4499301671
 20
44.2427587705
  0
LINE
  5
3ED
100
AcDbEntity
  8
RACCORDO
100
AcDbLine
 62
250
  6
CONTINUOUS
 10
104.3583868595
 20
34.2061107105
 11
104.371575602
 21
36.3001380379
  0
LINE
  5
3EE
100
AcDbEntity
  8
ASSI
100
AcDbLine
 62
250
  6
CONTINUOUS
 10
104.3583868595
 20
34.2061107105
 11
104.371575602
 21
36.3001380379
  0
LINE
  5
3EF
100
AcDbEntity
  8
RACCORDO
100
AcDbLine
 62
250
  6
CONTINUOUS
 10
104.8580822731
 20
34.124336795
 11
104.8712710157
 21
36.2016209379
  0
LINE
  5
3F0
100
AcDbEntity
  8
ASSI
100
AcDbLine
 62
250
  6
CONTINUOUS
 10
104.8580822731
 20
34.124336795
 11
104.8712710157
 21
36.2016209379
  0
LINE
  5
3F1
100
AcDbEntity
  8
RACCORDO
100
AcDbLine
 62
250
  6
CONTINUOUS
 10
104.371575602
 20
36.3001380379
 11
104.3904436643
 21
38.6902460072
  0
LINE
  5
3F2
100
AcDbEntity
  8
ASSI
100
AcDbLine
 62
250
  6
CONTINUOUS
 10
104.371575602
 20
36.3001380379
 11
104.3904436643
 21
38.6902460072
  0
LINE
  5
3F3
100
AcDbEntity
  8
RACCORDO
100
AcDbLine
 62
250
  6
CONTINUOUS
 10
104.8712710157
 20
36.2016209379
 11
104.8901390781
 21
38.5657210682
  0
LINE
  5
3F4
100
AcDbEntity
  8
ASSI
100
AcDbLine
 62
250
  6
CONTINUOUS
 10
104.8712710157
 20
36.2016209379
 11
104.8901390781
 21
38.5657210682
  0
LINE
  5
3F5
100
AcDbEntity
  8
RACCORDO
100
AcDbLine
 62
250
  6
CONTINUOUS
 10
104.3904436643
 20
38.6902460072
 11
104.4112384944
 21
40.7906263974
  0
LINE
  5
3F6
100
AcDbEntity
  8
ASSI
100
AcDbLine
 62
250
  6
CONTINUOUS
 10
104.3904436643
 20
38.6902460072
 11
104.4112384944
 21
40.7906263974
  0
LINE
  5
3F7
100
AcDbEntity
  8
RACCORDO
100
AcDbLine
 62
250
  6
CONTINUOUS
 10
104.8901390781
 20
38.5657210682
 11
104.910933908
 21
40.6386452166
  0
LINE
  5
3F8
100
AcDbEntity
  8
ASSI
100
AcDbLine
 62
250
  6
CONTINUOUS
 10
104.8901390781
 20
38.5657210682
 11
104.910933908
 21
40.6386452166
  0
LINE
  5
3F9
100
AcDbEntity
  8
RACCORDO
100
AcDbLine
 62
250
  6
CONTINUOUS
 10
104.4112384944
 20
40.7906263974
 11
104.4303112695
 21
42.391030971
  0
LINE
  5
3FA
100
AcDbEntity
  8
ASSI
100
AcDbLine
 62
250
  6
CONTINUOUS
 10
104.4112384944
 20
40.7906263974
 11
104.4303112695
 21
42.391030971
  0
LINE
  5
3FB
100
AcDbEntity
  8
RACCORDO
100
AcDbLine
 62
250
  6
CONTINUOUS
 10
104.910933908
 20
40.6386452166
 11
104.9300066843
 21
42.2154389331
  0
LINE
  5
3FC
100
AcDbEntity
  8
ASSI
100
AcDbLine
 62
250
  6
CONTINUOUS
 10
104.910933908
 20
40.6386452166
 11
104.9300066843
 21
42.2154389331
  0
LINE
  5
3FD
100
AcDbEntity
  8
RACCORDO
100
AcDbLine
 62
250
  6
CONTINUOUS
 10
104.4303112695
 20
42.391030971
 11
104.4552178811
 21
44.1592906303
  0
LINE
  5
3FE
100
AcDbEntity
  8
ASSI
100
AcDbLine
 62
250
  6
CONTINUOUS
 10
104.4303112695
 20
42.391030971
 11
104.4552178811
 21
44.1592906303
  0
LINE
  5
3FF
100
AcDbEntity
  8
RACCORDO
100
AcDbLine
 62
250
  6
CONTINUOUS
 10
104.9300066843
 20
42.2154389331
 11
104.9549132947
 21
43.9555224676
  0
LINE
  5
400
100
AcDbEntity
  8
ASSI
100
AcDbLine
 62
250
  6
CONTINUOUS
 10
104.9300066843
 20
42.2154389331
 11
104.9549132947
 21
43.9555224676
  0
LWPOLYLINE
  5
401
100
AcDbEntity
  8
RACCORDO
100
AcDbPolyline
 62
250
  6
CONTINUOUS
 90
10
 70
0
 10
104.4499301671
 20
-44.2427587705
 10
104.4511650431
 20
-44.2335515406
 10
104.4522382349
 20
-44.2243262548
 10
104.4531497426
 20
-44.2150828962
 10
104.4538997712
 20
-44.2058196582
 10
104.4544881156
 20
-44.1965383119
 10
104.4549141604
 20
-44.1872442111
 10
104.4551777003
 20
-44.1779391339
 10
104.4552789406
 20
-44.1686212779
 10
104.4552178811
 20
-44.1592906303
  0
LWPOLYLINE
  5
402
100
AcDbEntity
  8
ASSI
100
AcDbPolyline
 62
250
  6
CONTINUOUS
 90
10
 70
0
 10
104.4499301671
 20
-44.2427587705
 10
104.4511650431
 20
-44.2335515406
 10
104.4522382349
 20
-44.2243262548
 10
104.4531497426
 20
-44.2150828962
 10
104.4538997712
 20
-44.2058196582
 10
104.4544881156
 20
-44.1965383119
 10
104.4549141604
 20
-44.1872442111
 10
104.4551777003
 20
-44.1779391339
 10
104.4552789406
 20
-44.1686212779
 10
104.4552178811
 20
-44.1592906303
  0
LWPOLYLINE
  5
403
100
AcDbEntity
  8
RACCORDO
100
AcDbPolyline
 62
250
  6
CONTINUOUS
 90
10
 70
0
 10
104.9429628519
 20
-44.1183573363
 10
104.9455828439
 20
-44.1004049401
 10
104.9478812432
 20
-44.0824056543
 10
104.9498572617
 20
-44.0643652773
 10
104.9515099695
 20
-44.0462919717
 10
104.9528391203
 20
-44.0281892159
 10
104.953844722
 20
-44.0100557671
 10
104.9545261366
 20
-43.9918950852
 10
104.9548825095
 20
-43.9737153659
 10
104.9549132947
 20
-43.9555224676
  0
LWPOLYLINE
  5
404
100
AcDbEntity
  8
ASSI
100
AcDbPolyline
 62
250
  6
CONTINUOUS
 90
10
 70
0
 10
104.9429628519
 20
-44.1183573363
 10
104.9455828439
 20
-44.1004049401
 10
104.9478812432
 20
-44.0824056543
 10
104.9498572617
 20
-44.0643652773
 10
104.9515099695
 20
-44.0462919717
 10
104.9528391203
 20
-44.0281892159
 10
104.953844722
 20
-44.0100557671
 10
104.9545261366
 20
-43.9918950852
 10
104.9548825095
 20
-43.9737153659
 10
104.9549132947
 20
-43.9555224676
  0
LWPOLYLINE
  5
405
100
AcDbEntity
  8
RACCORDO
100
AcDbPolyline
 62
250
  6
CONTINUOUS
 90
25
 70
0
 10
104.9429628519
 20
44.1183573363
 10
104.9329577013
 20
44.173067863
 10
104.9199524574
 20
44.2274007954
 10
104.9039492364
 20
44.2811805012
 10
104.8849715611
 20
44.3342007485
 10
104.863034353
 20
44.3863129275
 10
104.8381284096
 20
44.4374197654
 10
104.8102705584
 20
44.4873596646
 10
104.7795150606
 20
44.5359175569
 10
104.7459116849
 20
44.5829078373
 10
104.7095117799
 20
44.6281616614
 10
104.6704082691
 20
44.671470387
 10
104.6287401755
 20
44.7125983927
 10
104.5846319051
 20
44.7513651671
 10
104.538198578
 20
44.7876118437
 10
104.4895948818
 20
44.8211549654
 10
104.4390178579
 20
44.8518183009
 10
104.3865864474
 20
44.8794896179
 10
104.3323471613
 20
44.9040763959
 10
104.2764140735
 20
44.9254532174
 10
104.2190319359
 20
44.943452785
 10
104.1604546802
 20
44.9579241872
 10
104.1009133367
 20
44.9687561499
 10
104.0406117433
 20
44.9758649613
 10
103.9797804465
 20
44.9791712736
  0
LWPOLYLINE
  5
406
100
AcDbEntity
  8
ASSI
100
AcDbPolyline
 62
250
  6
CONTINUOUS
 90
25
 70
0
 10
104.9429628519
 20
44.1183573363
 10
104.9329577013
 20
44.173067863
 10
104.9199524574
 20
44.2274007954
 10
104.9039492364
 20
44.2811805012
 10
104.8849715611
 20
44.3342007485
 10
104.863034353
 20
44.3863129275
 10
104.8381284096
 20
44.4374197654
 10
104.8102705584
 20
44.4873596646
 10
104.7795150606
 20
44.5359175569
 10
104.7459116849
 20
44.5829078373
 10
104.7095117799
 20
44.6281616614
 10
104.6704082691
 20
44.671470387
 10
104.6287401755
 20
44.7125983927
 10
104.5846319051
 20
44.7513651671
 10
104.538198578
 20
44.7876118437
 10
104.4895948818
 20
44.8211549654
 10
104.4390178579
 20
44.8518183009
 10
104.3865864474
 20
44.8794896179
 10
104.3323471613
 20
44.9040763959
 10
104.2764140735
 20
44.9254532174
 10
104.2190319359
 20
44.943452785
 10
104.1604546802
 20
44.9579241872
 10
104.1009133367
 20
44.9687561499
 10
104.0406117433
 20
44.9758649613
 10
103.9797804465
 20
44.9791712736
  0
LWPOLYLINE
  5
407
100
AcDbEntity
  8
0
100
AcDbPolyline
 62
7
  6
CONTINUOUS
 90
3
 70
0
 43
0.3500000006
 10
-163.8844151001
 20
67.8699515076
 10
-163.0272771606
 20
68.7270985107
 10
-163.0272771606
 20
65.7270975952
  0
LWPOLYLINE
  5
408
100
AcDbEntity
  8
0
100
AcDbPolyline
 62
7
  6
CONTINUOUS
 90
3
 70
0
 43
0.3500000006
 10
-162.1701210938
 20
67.8699515076
 10
-161.3129831543
 20
68.7270985107
 10
-161.3129831543
 20
65.7270975952
  0
LWPOLYLINE
  5
409
100
AcDbEntity
  8
0
100
AcDbPolyline
 62
7
  6
CONTINUOUS
 90
10
 70
0
 43
0.3500000006
 10
-158.3129822388
 20
65.7270975952
 10
-157.4558442993
 20
66.5842355347
 10
-157.2415598145
 20
67.4413825378
 10
-157.2415598145
 20
68.2985204773
 10
-157.6701287842
 20
68.7270985107
 10
-158.3129822388
 20
68.7270985107
 10
-158.7415512085
 20
68.2985204773
 10
-158.7415512085
 20
67.4413825378
 10
-158.3129822388
 20
67.0128135681
 10
-157.3844221802
 20
67.0128135681
  0
LWPOLYLINE
  5
40A
100
AcDbEntity
  8
0
100
AcDbPolyline
 62
7
  6
CONTINUOUS
 90
10
 70
0
 43
0.3500000006
 10
-162.158302002
 20
58.7290169678
 10
-162.8011554565
 20
58.0861635132
 10
-163.2297244263
 20
57.22901651
 10
-163.2297244263
 20
56.1575940857
 10
-162.8011554565
 20
55.7290205841
 10
-162.158302002
 20
55.7290205841
 10
-161.7297330322
 20
56.1575940857
 10
-161.7297330322
 20
57.0147320251
 10
-162.158302002
 20
57.4433009949
 10
-163.0868620605
 20
57.4433009949
  0
LWPOLYLINE
  5
40B
100
AcDbEntity
  8
0
100
AcDbPolyline
 62
7
  6
CONTINUOUS
 90
3
 70
0
 43
0.3500000006
 10
-159.1583010864
 20
57.8718790283
 10
-158.301163147
 20
58.7290169678
 10
-158.301163147
 20
55.7290205841
  0
LWPOLYLINE
  5
40C
100
AcDbEntity
  8
RACCORDO
100
AcDbPolyline
 62
250
  6
CONTINUOUS
 90
17
 70
0
 10
-146.5060589139
 20
-44.2508906
 10
-146.4923609308
 20
-44.2493989999
 10
-146.4766827439
 20
-44.2468732033
 10
-146.4591009181
 20
-44.2433255448
 10
-146.4397013149
 20
-44.2387733496
 10
-146.418578673
 20
-44.2332388485
 10
-146.3958361459
 20
-44.2267490693
 10
-146.3715847976
 20
-44.2193357052
 10
-146.3459430607
 20
-44.2110349597
 10
-146.3190361577
 20
-44.2018873697
 10
-146.2909954899
 20
-44.191937608
 10
-146.2619579951
 20
-44.1812342647
 10
-146.2320654793
 20
-44.1698296099
 10
-146.2014639243
 20
-44.157779339
 10
-146.1703027742
 20
-44.1451423001
 10
-146.1387342059
 20
-44.1319802066
 10
-146.1069123861
 20
-44.1183573363
  0
LWPOLYLINE
  5
40D
100
AcDbEntity
  8
ASSI
100
AcDbPolyline
 62
250
  6
CONTINUOUS
 90
17
 70
0
 10
-146.5060589139
 20
-44.2508906
 10
-146.4923609308
 20
-44.2493989999
 10
-146.4766827439
 20
-44.2468732033
 10
-146.4591009181
 20
-44.2433255448
 10
-146.4397013149
 20
-44.2387733496
 10
-146.418578673
 20
-44.2332388485
 10
-146.3958361459
 20
-44.2267490693
 10
-146.3715847976
 20
-44.2193357052
 10
-146.3459430607
 20
-44.2110349597
 10
-146.3190361577
 20
-44.2018873697
 10
-146.2909954899
 20
-44.191937608
 10
-146.2619579951
 20
-44.1812342647
 10
-146.2320654793
 20
-44.1698296099
 10
-146.2014639243
 20
-44.157779339
 10
-146.1703027742
 20
-44.1451423001
 10
-146.1387342059
 20
-44.1319802066
 10
-146.1069123861
 20
-44.1183573363
  0
LINE
  5
40E
100
AcDbEntity
  8
RACCORDO
100
AcDbLine
 62
7
  6
CONTINUOUS
 10
-145.4465249915
 20
-44.9791689013
 11
-144.8500003735
 21
-45.0
  0
LINE
  5
40F
100
AcDbEntity
  8
ASSI
100
AcDbLine
 62
7
  6
CONTINUOUS
 10
-145.4465249915
 20
-44.9791689013
 11
-144.8500003735
 21
-45.0
  0
LINE
  5
410
100
AcDbEntity
  8
RACCORDO
100
AcDbLine
 62
250
  6
CONTINUOUS
 10
-146.1411146875
 20
-43.9555224676
 11
-144.8500003735
 21
-44.000609173
  0
LINE
  5
411
100
AcDbEntity
  8
ASSI
100
AcDbLine
 62
250
  6
CONTINUOUS
 10
-146.1411146875
 20
-43.9555224676
 11
-144.8500003735
 21
-44.000609173
  0
LWPOLYLINE
  5
412
100
AcDbEntity
  8
RACCORDO
100
AcDbPolyline
 62
250
  6
CONTINUOUS
 90
25
 70
0
 10
-145.44645525
 20
-44.9791713367
 10
-145.4862850317
 20
-44.9757873222
 10
-145.5252448465
 20
-44.9685392508
 10
-145.5633317911
 20
-44.9575745988
 10
-145.6005697898
 20
-44.9430741077
 10
-145.6369325292
 20
-44.92519554
 10
-145.6723410056
 20
-44.9040186457
 10
-145.7068305826
 20
-44.8796437438
 10
-145.7403632101
 20
-44.8522457973
 10
-145.7727485812
 20
-44.8219790813
 10
-145.803986653
 20
-44.7889839473
 10
-145.8340789371
 20
-44.7534407784
 10
-145.8628390339
 20
-44.7155823785
 10
-145.8901738668
 20
-44.6757267114
 10
-145.9161842023
 20
-44.6339407082
 10
-145.9409719855
 20
-44.5900398316
 10
-145.9645842973
 20
-44.5440985277
 10
-145.9869754255
 20
-44.4963182505
 10
-146.0081029175
 20
-44.446636233
 10
-146.0280037831
 20
-44.3950501069
 10
-146.0466411131
 20
-44.341837614
 10
-146.063862095
 20
-44.2873619379
 10
-146.0796190744
 20
-44.2318696647
 10
-146.0939676596
 20
-44.1754734873
 10
-146.1069123861
 20
-44.1183573363
  0
LWPOLYLINE
  5
413
100
AcDbEntity
  8
ASSI
100
AcDbPolyline
 62
250
  6
CONTINUOUS
 90
25
 70
0
 10
-145.44645525
 20
-44.9791713367
 10
-145.4862850317
 20
-44.9757873222
 10
-145.5252448465
 20
-44.9685392508
 10
-145.5633317911
 20
-44.9575745988
 10
-145.6005697898
 20
-44.9430741077
 10
-145.6369325292
 20
-44.92519554
 10
-145.6723410056
 20
-44.9040186457
 10
-145.7068305826
 20
-44.8796437438
 10
-145.7403632101
 20
-44.8522457973
 10
-145.7727485812
 20
-44.8219790813
 10
-145.803986653
 20
-44.7889839473
 10
-145.8340789371
 20
-44.7534407784
 10
-145.8628390339
 20
-44.7155823785
 10
-145.8901738668
 20
-44.6757267114
 10
-145.9161842023
 20
-44.6339407082
 10
-145.9409719855
 20
-44.5900398316
 10
-145.9645842973
 20
-44.5440985277
 10
-145.9869754255
 20
-44.4963182505
 10
-146.0081029175
 20
-44.446636233
 10
-146.0280037831
 20
-44.3950501069
 10
-146.0466411131
 20
-44.341837614
 10
-146.063862095
 20
-44.2873619379
 10
-146.0796190744
 20
-44.2318696647
 10
-146.0939676596
 20
-44.1754734873
 10
-146.1069123861
 20
-44.1183573363
  0
LWPOLYLINE
  5
414
100
AcDbEntity
  8
0
100
AcDbPolyline
 62
7
  6
CONTINUOUS
 90
3
 70
0
 43
0.3500000006
 10
-159.7415515137
 20
66.0128132629
 10
-159.8129917603
 20
65.7985197144
 10
-159.9558359985
 20
65.5128131104
  0
LWPOLYLINE
  5
415
100
AcDbEntity
  8
0
100
AcDbPolyline
 62
7
  6
CONTINUOUS
 90
3
 70
0
 43
0.3500000006
 10
-160.1583013916
 20
56.01473172
 10
-160.2297235107
 20
55.8004472351
 10
-160.3725858765
 20
55.5147315674
  0
LWPOLYLINE
  5
416
100
AcDbEntity
  8
RACCORDO
100
AcDbPolyline
 62
250
  6
CONTINUOUS
 90
6
 70
0
 10
-146.5428598432
 20
44.2427587705
 10
-146.539862604
 20
44.2464454683
 10
-146.5346532046
 20
44.2491124208
 10
-146.5272570791
 20
44.2507466037
 10
-146.5177103395
 20
44.2513400373
 10
-146.5060596024
 20
44.2508898217
  0
LWPOLYLINE
  5
417
100
AcDbEntity
  8
ASSI
100
AcDbPolyline
 62
250
  6
CONTINUOUS
 90
6
 70
0
 10
-146.5428598432
 20
44.2427587705
 10
-146.539862604
 20
44.2464454683
 10
-146.5346532046
 20
44.2491124208
 10
-146.5272570791
 20
44.2507466037
 10
-146.5177103395
 20
44.2513400373
 10
-146.5060596024
 20
44.2508898217
  0
LWPOLYLINE
  5
418
100
AcDbEntity
  8
RACCORDO
100
AcDbPolyline
 62
250
  6
CONTINUOUS
 90
6
 70
0
 10
-146.5428598432
 20
-44.2427587705
 10
-146.5398624899
 20
-44.246445682
 10
-146.5346529577
 20
-44.2491128202
 10
-146.5272566873
 20
-44.2507471598
 10
-146.5177097985
 20
-44.2513407194
 10
-146.5060589139
 20
-44.2508906
  0
LWPOLYLINE
  5
419
100
AcDbEntity
  8
ASSI
100
AcDbPolyline
 62
250
  6
CONTINUOUS
 90
6
 70
0
 10
-146.5428598432
 20
-44.2427587705
 10
-146.5398624899
 20
-44.246445682
 10
-146.5346529577
 20
-44.2491128202
 10
-146.5272566873
 20
-44.2507471598
 10
-146.5177097985
 20
-44.2513407194
 10
-146.5060589139
 20
-44.2508906
  0
LINE
  5
41A
100
AcDbEntity
  8
RACCORDO
100
AcDbLine
 62
7
  6
CONTINUOUS
 10
-141.0248472521
 20
-26.8317710853
 11
-139.0748171478
 21
-26.3115901014
  0
LINE
  5
41B
100
AcDbEntity
  8
RACCORDO
100
AcDbLine
 62
250
  6
CONTINUOUS
 10
-140.8296512823
 20
-26.624564792
 11
-140.2100443034
 21
-26.4592813088
  0
LINE
  5
41C
100
AcDbEntity
  8
RACCORDO
100
AcDbLine
 62
250
  6
CONTINUOUS
 10
-140.2100463555
 20
-26.4592818562
 11
-139.100660297
 21
-26.3146551253
  0
LINE
  5
41D
100
AcDbEntity
  8
RACCORDO
100
AcDbLine
 62
250
  6
CONTINUOUS
 10
-139.100660297
 20
-26.3146551253
 11
-139.0831856448
 21
-26.3124927731
  0
LINE
  5
41E
100
AcDbEntity
  8
RACCORDO
100
AcDbLine
 62
250
  6
CONTINUOUS
 10
-139.0831856448
 20
-26.3124927731
 11
-139.0800381185
 21
-26.3121168331
  0
LINE
  5
41F
100
AcDbEntity
  8
RACCORDO
100
AcDbLine
 62
250
  6
CONTINUOUS
 10
-139.0791324201
 20
-26.3120103525
 11
-139.0783025723
 21
-26.3119147676
  0
LINE
  5
420
100
AcDbEntity
  8
RACCORDO
100
AcDbLine
 62
250
  6
CONTINUOUS
 10
-139.0768653629
 20
-26.3117523772
 11
-139.0762731783
 21
-26.3116890337
  0
LWPOLYLINE
  5
421
100
AcDbEntity
  8
RACCORDO
100
AcDbPolyline
 62
250
  6
CONTINUOUS
 90
6
 70
0
 10
-139.0757660865
 20
-26.3116368783
 10
-139.0753478326
 20
-26.3115958596
 10
-139.0750412101
 20
-26.3115713221
 10
-139.0748540737
 20
-26.3115641008
 10
-139.0747792671
 20
-26.3115707958
 10
-139.0748171478
 20
-26.3115901014
  0
LWPOLYLINE
  5
422
100
AcDbEntity
  8
RACCORDO
100
AcDbPolyline
 62
250
  6
CONTINUOUS
 90
19
 70
0
 10
-139.2489531807
 20
-26.089828271
 10
-139.231585576
 20
-26.0892294755
 10
-139.2143541603
 20
-26.0875658645
 10
-139.1973893352
 20
-26.0848494607
 10
-139.1808188722
 20
-26.0811000737
 10
-139.1647691715
 20
-26.0763456389
 10
-139.1493640461
 20
-26.0706224565
 10
-139.1347206111
 20
-26.0639739354
 10
-139.1209493908
 20
-26.0564501507
 10
-139.1081553752
 20
-26.0481083931
 10
-139.0964353081
 20
-26.0390117526
 10
-139.0858780242
 20
-26.0292291926
 10
-139.0765640952
 20
-26.0188356146
 10
-139.0685615504
 20
-26.007906557
 10
-139.0619335831
 20
-25.9965278847
 10
-139.0567343241
 20
-25.984797273
 10
-139.0529995104
 20
-25.9728082381
 10
-139.050750782
 20
-25.9606481402
 10
-139.0500003735
 20
-25.9484088534
  0
LWPOLYLINE
  5
423
100
AcDbEntity
  8
RACCORDO
100
AcDbPolyline
 62
7
  6
CONTINUOUS
 90
5
 70
0
 10
-141.0760396837
 20
-26.8385262195
 10
-141.0734088593
 20
-26.8385043237
 10
-141.0570533464
 20
-26.8375896823
 10
-141.0408276066
 20
-26.8353396317
 10
-141.0248405093
 20
-26.8317692866
  0
LINE
  5
424
100
AcDbEntity
  8
RACCORDO
100
AcDbLine
 62
250
  6
CONTINUOUS
 10
-140.2100443034
 20
-26.4592813088
 11
-144.8500003735
 21
-26.483576284
  0
LINE
  5
425
100
AcDbEntity
  8
RACCORDO
100
AcDbLine
 62
7
  6
CONTINUOUS
 10
-139.0500003735
 20
-26.3049700938
 11
-144.8500003735
 21
-26.3353391003
  0
LINE
  5
426
100
AcDbEntity
  8
RACCORDO
100
AcDbLine
 62
250
  6
CONTINUOUS
 10
-139.2489531807
 20
-26.247433977
 11
-144.8500003735
 21
-26.2767612595
  0
LINE
  5
427
100
AcDbEntity
  8
DRAFT
100
AcDbLine
 62
7
  6
CONTINUOUS
 10
-144.8500003735
 20
-26.8451130731
 11
-141.0760396374
 21
-26.8385262624
  0
LINE
  5
428
100
AcDbEntity
  8
RACCORDO
100
AcDbLine
 62
250
  6
CONTINUOUS
 10
-140.8296512823
 20
-26.624564792
 11
-144.8500003735
 21
-26.6263808838
  0
LINE
  5
429
100
AcDbEntity
  8
RACCORDO
100
AcDbLine
 62
7
  6
CONTINUOUS
 10
-139.0500003735
 20
-26.45
 11
-139.5936816919
 21
-26.45
  0
LINE
  5
42A
100
AcDbEntity
  8
RACCORDO
100
AcDbLine
 62
250
  6
CONTINUOUS
 10
-139.0500003735
 20
-25.9484088534
 11
-139.2430204741
 21
-25.9484088534
  0
LINE
  5
42B
100
AcDbEntity
  8
RACCORDO
100
AcDbLine
 62
250
  6
CONTINUOUS
 10
-139.0500003735
 20
-25.5809975124
 11
-139.2430204741
 21
-25.5809975124
  0
LINE
  5
42C
100
AcDbEntity
  8
RACCORDO
100
AcDbLine
 62
250
  6
CONTINUOUS
 10
-141.0928960952
 20
-25.4
 11
-144.8500003735
 21
-25.4
  0
LINE
  5
42D
100
AcDbEntity
  8
RACCORDO
100
AcDbLine
 62
7
  6
CONTINUOUS
 10
-141.0998759946
 20
-25.2
 11
-144.8500003735
 21
-25.2
  0
LINE
  5
42E
100
AcDbEntity
  8
0
100
AcDbLine
 62
7
  6
CONTINUOUS
 10
-144.8500003735
 20
-25.05
 11
-141.4000003735
 21
-25.05
  0
LINE
  5
42F
100
AcDbEntity
  8
RACCORDO
100
AcDbLine
 62
250
  6
CONTINUOUS
 10
-139.2489531807
 20
-26.089828271
 11
-144.8500003735
 21
-25.9357104338
  0
LINE
  5
430
100
AcDbEntity
  8
RACCORDO
100
AcDbLine
 62
250
  6
CONTINUOUS
 10
-139.2430204741
 20
-25.9484088534
 11
-144.8500003735
 21
-25.7941277724
  0
LWPOLYLINE
  5
431
100
AcDbEntity
  8
RACCORDO
100
AcDbPolyline
 62
7
  6
CONTINUOUS
 90
9
 70
0
 10
-139.1078420762
 20
-26.305272955
 10
-139.1194811896
 20
-26.3046411942
 10
-139.1322149574
 20
-26.3027665137
 10
-139.1460093494
 20
-26.2995570806
 10
-139.1607543886
 20
-26.2948872129
 10
-139.17644068
 20
-26.2887037023
 10
-139.1931823763
 20
-26.280989391
 10
-139.2109608389
 20
-26.2716379306
 10
-139.2295988682
 20
-26.2604938259
  0
LWPOLYLINE
  5
432
100
AcDbEntity
  8
RACCORDO
100
AcDbPolyline
 62
250
  6
CONTINUOUS
 90
10
 70
0
 10
-141.01329312
 20
-25.4039702478
 10
-141.0221169151
 20
-25.40313729
 10
-141.0309463118
 20
-25.4024022691
 10
-141.0397813101
 20
-25.4017651852
 10
-141.0486223856
 20
-25.4012260144
 10
-141.0574690627
 20
-25.4007847807
 10
-141.0663199149
 20
-25.4004415552
 10
-141.0751744666
 20
-25.4001963618
 10
-141.0840331934
 20
-25.4000491768
 10
-141.0928960952
 20
-25.4
  0
LINE
  5
433
100
AcDbEntity
  8
RACCORDO
100
AcDbLine
 62
250
  6
CONTINUOUS
 10
-139.2430204741
 20
-25.5809975124
 11
-141.01329312
 21
-25.4039702478
  0
LINE
  5
434
100
AcDbEntity
  8
RACCORDO
100
AcDbLine
 62
7
  6
CONTINUOUS
 10
-139.2217573903
 20
-25.3828242983
 11
-139.0500003735
 21
-25.4
  0
LINE
  5
435
100
AcDbEntity
  8
RACCORDO
100
AcDbLine
 62
7
  6
CONTINUOUS
 10
-139.2300996297
 20
-25.3819900744
 11
-141.0003722756
 21
-25.2049628098
  0
LWPOLYLINE
  5
436
100
AcDbEntity
  8
RACCORDO
100
AcDbPolyline
 62
7
  6
CONTINUOUS
 90
4
 70
0
 10
-146.5802594374
 20
44.1592906303
 10
-146.6941152554
 20
43.9009810363
 10
-146.8092356745
 20
43.6330641916
 10
-146.8337710188
 20
43.5744236408
  0
LWPOLYLINE
  5
437
100
AcDbEntity
  8
ASSI
100
AcDbPolyline
 62
7
  6
CONTINUOUS
 90
4
 70
0
 10
-146.5802594374
 20
44.1592906303
 10
-146.6941152554
 20
43.9009810363
 10
-146.8092356745
 20
43.6330641916
 10
-146.8337710188
 20
43.5744236408
  0
LINE
  5
438
100
AcDbEntity
  8
RACCORDO
100
AcDbLine
 62
7
  6
CONTINUOUS
 10
-146.5802594374
 20
44.1592906303
 11
-146.5428598432
 21
44.2427587705
  0
LINE
  5
439
100
AcDbEntity
  8
ASSI
100
AcDbLine
 62
7
  6
CONTINUOUS
 10
-146.5802594374
 20
44.1592906303
 11
-146.5428598432
 21
44.2427587705
  0
LWPOLYLINE
  5
43A
100
AcDbEntity
  8
RACCORDO
100
AcDbPolyline
 62
7
  6
CONTINUOUS
 90
9
 70
0
 10
-139.2489531807
 20
26.247433977
 10
-139.2294064768
 20
26.260356775
 10
-139.2108164069
 20
26.2715350438
 10
-139.1931823763
 20
26.280989391
 10
-139.1764879636
 20
26.288737385
 10
-139.1607480856
 20
26.2948827229
 10
-139.1460093494
 20
26.2995570806
 10
-139.132287044
 20
26.3028178649
 10
-139.1195648209
 20
26.3047007693
  0
LINE
  5
43B
100
AcDbEntity
  8
RACCORDO
100
AcDbLine
 62
7
  6
CONTINUOUS
 10
-139.2295988682
 20
-26.2604938259
 11
-139.2489531807
 21
-26.247433977
  0
LINE
  5
43C
100
AcDbEntity
  8
RACCORDO
100
AcDbLine
 62
7
  6
CONTINUOUS
 10
-146.5428598432
 20
-44.2427587705
 11
-146.5802594374
 21
-44.1592906303
  0
LINE
  5
43D
100
AcDbEntity
  8
ASSI
100
AcDbLine
 62
7
  6
CONTINUOUS
 10
-146.5428598432
 20
-44.2427587705
 11
-146.5802594374
 21
-44.1592906303
  0
LWPOLYLINE
  5
43E
100
AcDbEntity
  8
RACCORDO
100
AcDbPolyline
 62
250
  6
CONTINUOUS
 90
53
 70
0
 10
-146.1411146875
 20
-43.9555224676
 10
-146.2536149642
 20
-43.701352425
 10
-146.3670734524
 20
-43.4370716227
 10
-146.4814901518
 20
-43.1626800608
 10
-146.596964677
 20
-42.8786812812
 10
-146.7133974136
 20
-42.584571742
 10
-146.8304895184
 20
-42.2788408168
 10
-146.9482903278
 20
-41.9614861059
 10
-147.0667505056
 20
-41.6325100092
 10
-147.1854231992
 20
-41.2904090995
 10
-147.3043487925
 20
-40.9351637653
 10
-147.4234869016
 20
-40.5667936183
 10
-147.5422695229
 20
-40.1838540663
 10
-147.6606376615
 20
-39.7866680387
 10
-147.7786503124
 20
-39.3749126062
 10
-147.8959164563
 20
-38.9461743882
 10
-148.0123562861
 20
-38.5010747472
 10
-148.1280496088
 20
-38.0389923208
 10
-148.2428448266
 20
-37.5556496407
 10
-148.3569527309
 20
-37.0503822439
 10
-148.4701625302
 20
-36.5238545936
 10
-148.5816902519
 20
-35.9737826109
 10
-148.6917782505
 20
-35.3982452125
 10
-148.8001841716
 20
-34.7991634818
 10
-148.9053969785
 20
-34.1800165895
 10
-149.0076674237
 20
-33.536370623
 10
-149.1067447549
 20
-32.8726594949
 10
-149.2003656785
 20
-32.2056641148
 10
-149.2876337766
 20
-31.5392887674
 10
-149.3694454672
 20
-30.8696291681
 10
-149.4462267106
 20
-30.2017533716
 10
-149.5176619813
 20
-29.5390972405
 10
-149.5840668047
 20
-28.8782249123
 10
-149.6468137181
 20
-28.2138968547
 10
-149.7062101602
 20
-27.5438132566
 10
-149.7619486923
 20
-26.8702739291
 10
-149.8144795352
 20
-26.1949387736
 10
-149.8638735935
 20
-25.5165250644
 10
-149.9100599626
 20
-24.8363155272
 10
-149.9532761505
 20
-24.1598182407
 10
-149.9933920654
 20
-23.4892975428
 10
-150.0305377991
 20
-22.8224890956
 10
-150.0653411347
 20
-22.1581079643
 10
-150.0977234852
 20
-21.5001080603
 10
-150.1277634376
 20
-20.8445354724
 10
-150.156324536
 20
-20.1782435319
 10
-150.1835634741
 20
-19.5009168287
 10
-150.2093235582
 20
-18.812870773
 10
-150.2339982509
 20
-18.1019049269
 10
-150.2578215354
 20
-17.3612699977
 10
-150.2805594286
 20
-16.5977152782
 10
-150.301903444
 20
-15.8192882081
 10
-150.3217745237
 20
-15.0258156943
  0
LWPOLYLINE
  5
43F
100
AcDbEntity
  8
ASSI
100
AcDbPolyline
 62
250
  6
CONTINUOUS
 90
53
 70
0
 10
-146.1411146875
 20
-43.9555224676
 10
-146.2536149642
 20
-43.701352425
 10
-146.3670734524
 20
-43.4370716227
 10
-146.4814901518
 20
-43.1626800608
 10
-146.596964677
 20
-42.8786812812
 10
-146.7133974136
 20
-42.584571742
 10
-146.8304895184
 20
-42.2788408168
 10
-146.9482903278
 20
-41.9614861059
 10
-147.0667505056
 20
-41.6325100092
 10
-147.1854231992
 20
-41.2904090995
 10
-147.3043487925
 20
-40.9351637653
 10
-147.4234869016
 20
-40.5667936183
 10
-147.5422695229
 20
-40.1838540663
 10
-147.6606376615
 20
-39.7866680387
 10
-147.7786503124
 20
-39.3749126062
 10
-147.8959164563
 20
-38.9461743882
 10
-148.0123562861
 20
-38.5010747472
 10
-148.1280496088
 20
-38.0389923208
 10
-148.2428448266
 20
-37.5556496407
 10
-148.3569527309
 20
-37.0503822439
 10
-148.4701625302
 20
-36.5238545936
 10
-148.5816902519
 20
-35.9737826109
 10
-148.6917782505
 20
-35.3982452125
 10
-148.8001841716
 20
-34.7991634818
 10
-148.9053969785
 20
-34.1800165895
 10
-149.0076674237
 20
-33.536370623
 10
-149.1067447549
 20
-32.8726594949
 10
-149.2003656785
 20
-32.2056641148
 10
-149.2876337766
 20
-31.5392887674
 10
-149.3694454672
 20
-30.8696291681
 10
-149.4462267106
 20
-30.2017533716
 10
-149.5176619813
 20
-29.5390972405
 10
-149.5840668047
 20
-28.8782249123
 10
-149.6468137181
 20
-28.2138968547
 10
-149.7062101602
 20
-27.5438132566
 10
-149.7619486923
 20
-26.8702739291
 10
-149.8144795352
 20
-26.1949387736
 10
-149.8638735935
 20
-25.5165250644
 10
-149.9100599626
 20
-24.8363155272
 10
-149.9532761505
 20
-24.1598182407
 10
-149.9933920654
 20
-23.4892975428
 10
-150.0305377991
 20
-22.8224890956
 10
-150.0653411347
 20
-22.1581079643
 10
-150.0977234852
 20
-21.5001080603
 10
-150.1277634376
 20
-20.8445354724
 10
-150.156324536
 20
-20.1782435319
 10
-150.1835634741
 20
-19.5009168287
 10
-150.2093235582
 20
-18.812870773
 10
-150.2339982509
 20
-18.1019049269
 10
-150.2578215354
 20
-17.3612699977
 10
-150.2805594286
 20
-16.5977152782
 10
-150.301903444
 20
-15.8192882081
 10
-150.3217745237
 20
-15.0258156943
  0
LWPOLYLINE
  5
440
100
AcDbEntity
  8
RACCORDO
100
AcDbPolyline
 62
7
  6
CONTINUOUS
 90
54
 70
0
 10
-146.5802594374
 20
-44.1592906303
 10
-146.6943736597
 20
-43.9003873934
 10
-146.8097487199
 20
-43.6318544228
 10
-146.9262340446
 20
-43.353407715
 10
-147.043621056
 20
-43.0648824298
 10
-147.1618139379
 20
-42.7658148076
 10
-147.2808190406
 20
-42.4554266429
 10
-147.4005062159
 20
-42.1332293615
 10
-147.5206689256
 20
-41.7989058202
 10
-147.6411840403
 20
-41.4518765514
 10
-147.7619164608
 20
-41.0915457909
 10
-147.8826515791
 20
-40.7175165889
 10
-148.0031478082
 20
-40.3294641354
 10
-148.1231729909
 20
-39.9270326678
 10
-148.2426229583
 20
-39.5094118592
 10
-148.3614436378
 20
-39.075531588
 10
-148.4793472081
 20
-38.6251191707
 10
-148.5962717702
 20
-38.1570203601
 10
-148.7124542936
 20
-37.6686687574
 10
-148.8278749807
 20
-37.1582463627
 10
-148.942111446
 20
-36.625614384
 10
-149.0547780687
 20
-36.0705963351
 10
-149.1660230063
 20
-35.4903071144
 10
-149.2752924337
 20
-34.8853675024
 10
-149.3813065878
 20
-34.2612357023
 10
-149.4845623197
 20
-33.6135923189
 10
-149.5844272103
 20
-32.9449653794
 10
-149.678407202
 20
-32.2726596334
 10
-149.7661510319
 20
-31.6021082395
 10
-149.8486328448
 20
-30.9288734598
 10
-149.9257242207
 20
-30.2569205933
 10
-149.9973695405
 20
-29.590392117
 10
-150.0642502289
 20
-28.9266732069
 10
-150.1272860464
 20
-28.2594337139
 10
-150.1868743632
 20
-27.5864225737
 10
-150.2429453119
 20
-26.9104510731
 10
-150.2956230373
 20
-26.2324190432
 10
-150.3451499722
 20
-25.5516228107
 10
-150.3915999182
 20
-24.8695353683
 10
-150.4348785741
 20
-24.1905904631
 10
-150.4750307176
 20
-23.5178176965
 10
-150.5123801604
 20
-22.8495833289
 10
-150.5472514333
 20
-22.1833971621
 10
-150.5796132973
 20
-21.5232549333
 10
-150.6097750361
 20
-20.8663091811
 10
-150.6384441281
 20
-20.1989914015
 10
-150.6656925512
 20
-19.5200214696
 10
-150.6914988123
 20
-18.8303705348
 10
-150.7162677639
 20
-18.1186578337
 10
-150.7401764678
 20
-17.3772436982
 10
-150.7629448464
 20
-16.6121462031
 10
-150.7842820981
 20
-15.8323866117
 10
-150.8041989457
 20
-15.0381280932
 10
-150.8227285589
 20
-14.228689267
  0
LWPOLYLINE
  5
441
100
AcDbEntity
  8
ASSI
100
AcDbPolyline
 62
7
  6
CONTINUOUS
 90
54
 70
0
 10
-146.5802594374
 20
-44.1592906303
 10
-146.6943736597
 20
-43.9003873934
 10
-146.8097487199
 20
-43.6318544228
 10
-146.9262340446
 20
-43.353407715
 10
-147.043621056
 20
-43.0648824298
 10
-147.1618139379
 20
-42.7658148076
 10
-147.2808190406
 20
-42.4554266429
 10
-147.4005062159
 20
-42.1332293615
 10
-147.5206689256
 20
-41.7989058202
 10
-147.6411840403
 20
-41.4518765514
 10
-147.7619164608
 20
-41.0915457909
 10
-147.8826515791
 20
-40.7175165889
 10
-148.0031478082
 20
-40.3294641354
 10
-148.1231729909
 20
-39.9270326678
 10
-148.2426229583
 20
-39.5094118592
 10
-148.3614436378
 20
-39.075531588
 10
-148.4793472081
 20
-38.6251191707
 10
-148.5962717702
 20
-38.1570203601
 10
-148.7124542936
 20
-37.6686687574
 10
-148.8278749807
 20
-37.1582463627
 10
-148.942111446
 20
-36.625614384
 10
-149.0547780687
 20
-36.0705963351
 10
-149.1660230063
 20
-35.4903071144
 10
-149.2752924337
 20
-34.8853675024
 10
-149.3813065878
 20
-34.2612357023
 10
-149.4845623197
 20
-33.6135923189
 10
-149.5844272103
 20
-32.9449653794
 10
-149.678407202
 20
-32.2726596334
 10
-149.7661510319
 20
-31.6021082395
 10
-149.8486328448
 20
-30.9288734598
 10
-149.9257242207
 20
-30.2569205933
 10
-149.9973695405
 20
-29.590392117
 10
-150.0642502289
 20
-28.9266732069
 10
-150.1272860464
 20
-28.2594337139
 10
-150.1868743632
 20
-27.5864225737
 10
-150.2429453119
 20
-26.9104510731
 10
-150.2956230373
 20
-26.2324190432
 10
-150.3451499722
 20
-25.5516228107
 10
-150.3915999182
 20
-24.8695353683
 10
-150.4348785741
 20
-24.1905904631
 10
-150.4750307176
 20
-23.5178176965
 10
-150.5123801604
 20
-22.8495833289
 10
-150.5472514333
 20
-22.1833971621
 10
-150.5796132973
 20
-21.5232549333
 10
-150.6097750361
 20
-20.8663091811
 10
-150.6384441281
 20
-20.1989914015
 10
-150.6656925512
 20
-19.5200214696
 10
-150.6914988123
 20
-18.8303705348
 10
-150.7162677639
 20
-18.1186578337
 10
-150.7401764678
 20
-17.3772436982
 10
-150.7629448464
 20
-16.6121462031
 10
-150.7842820981
 20
-15.8323866117
 10
-150.8041989457
 20
-15.0381280932
 10
-150.8227285589
 20
-14.228689267
  0
LINE
  5
442
100
AcDbEntity
  8
RACCORDO
100
AcDbLine
 62
7
  6
CONTINUOUS
 10
-146.8337171597
 20
-43.5745602258
 11
-146.5802594374
 21
-44.1592906303
  0
LINE
  5
443
100
AcDbEntity
  8
ASSI
100
AcDbLine
 62
7
  6
CONTINUOUS
 10
-146.8337171597
 20
-43.5745602258
 11
-146.5802594374
 21
-44.1592906303
  0
LINE
  5
444
100
AcDbEntity
  8
0
100
AcDbLine
 62
7
  6
CONTINUOUS
 10
-144.7500003735
 20
25.2
 11
-144.8500003735
 21
25.1
  0
LINE
  5
445
100
AcDbEntity
  8
0
100
AcDbLine
 62
7
  6
CONTINUOUS
 10
-144.2500003735
 20
25.2
 11
-144.4000003735
 21
25.05
  0
LINE
  5
446
100
AcDbEntity
  8
0
100
AcDbLine
 62
7
  6
CONTINUOUS
 10
-143.7500003735
 20
25.2
 11
-143.9000003735
 21
25.05
  0
LINE
  5
447
100
AcDbEntity
  8
0
100
AcDbLine
 62
7
  6
CONTINUOUS
 10
-143.2500003735
 20
25.2
 11
-143.4000003735
 21
25.05
  0
LINE
  5
448
100
AcDbEntity
  8
0
100
AcDbLine
 62
7
  6
CONTINUOUS
 10
-142.7500003735
 20
25.2
 11
-142.9000003735
 21
25.05
  0
LINE
  5
449
100
AcDbEntity
  8
0
100
AcDbLine
 62
7
  6
CONTINUOUS
 10
-142.2500003735
 20
25.2
 11
-142.4000003735
 21
25.05
  0
LINE
  5
44A
100
AcDbEntity
  8
0
100
AcDbLine
 62
7
  6
CONTINUOUS
 10
-141.7500003735
 20
25.2
 11
-141.9000003735
 21
25.05
  0
LINE
  5
44B
100
AcDbEntity
  8
0
100
AcDbLine
 62
7
  6
CONTINUOUS
 10
-144.8500003735
 20
-25.1
 11
-144.7500003735
 21
-25.2
  0
LINE
  5
44C
100
AcDbEntity
  8
0
100
AcDbLine
 62
7
  6
CONTINUOUS
 10
-144.4000003735
 20
-25.05
 11
-144.2500003735
 21
-25.2
  0
LINE
  5
44D
100
AcDbEntity
  8
0
100
AcDbLine
 62
7
  6
CONTINUOUS
 10
-143.9000003735
 20
-25.05
 11
-143.7500003735
 21
-25.2
  0
LINE
  5
44E
100
AcDbEntity
  8
0
100
AcDbLine
 62
7
  6
CONTINUOUS
 10
-143.4000003735
 20
-25.05
 11
-143.2500003735
 21
-25.2
  0
LINE
  5
44F
100
AcDbEntity
  8
0
100
AcDbLine
 62
7
  6
CONTINUOUS
 10
-142.9000003735
 20
-25.05
 11
-142.7500003735
 21
-25.2
  0
LINE
  5
450
100
AcDbEntity
  8
0
100
AcDbLine
 62
7
  6
CONTINUOUS
 10
-142.4000003735
 20
-25.05
 11
-142.2500003735
 21
-25.2
  0
LINE
  5
451
100
AcDbEntity
  8
0
100
AcDbLine
 62
7
  6
CONTINUOUS
 10
-141.9000003735
 20
-25.05
 11
-141.7500003735
 21
-25.2
  0
LINE
  5
452
100
AcDbEntity
  8
0
100
AcDbLine
 62
7
  6
CONTINUOUS
 10
-141.2500003735
 20
25.2
 11
-141.4000003735
 21
25.05
  0
LINE
  5
453
100
AcDbEntity
  8
0
100
AcDbLine
 62
7
  6
CONTINUOUS
 10
-141.4000003735
 20
-25.05
 11
-141.2500003735
 21
-25.2
  0
LINE
  5
454
100
AcDbEntity
  8
RACCORDO
100
AcDbLine
 62
250
  6
CONTINUOUS
 10
-146.1411146875
 20
43.9555224676
 11
-146.1069123861
 21
44.1183573363
  0
LINE
  5
455
100
AcDbEntity
  8
ASSI
100
AcDbLine
 62
250
  6
CONTINUOUS
 10
-146.1411146875
 20
43.9555224676
 11
-146.1069123861
 21
44.1183573363
  0
LWPOLYLINE
  5
456
100
AcDbEntity
  8
RACCORDO
100
AcDbPolyline
 62
250
  6
CONTINUOUS
 90
25
 70
0
 10
-146.1069123861
 20
44.1183573363
 10
-146.0945783658
 20
44.173067863
 10
-146.0808454587
 20
44.2274007954
 10
-146.0657076054
 20
44.2811805012
 10
-146.049169409
 20
44.3342007485
 10
-146.0312152177
 20
44.3863129275
 10
-146.0118083628
 20
44.4374197654
 10
-145.9909155608
 20
44.4873596646
 10
-145.9685594242
 20
44.5359175569
 10
-145.9447869428
 20
44.5829078373
 10
-145.9195645232
 20
44.6281616614
 10
-145.8929176148
 20
44.671470387
 10
-145.864983048
 20
44.7125983927
 10
-145.8357423421
 20
44.7513651671
 10
-145.8052104909
 20
44.7876118437
 10
-145.7735762577
 20
44.8211549654
 10
-145.7408561698
 20
44.8518183009
 10
-145.7070346609
 20
44.8794896179
 10
-145.6722524902
 20
44.9040763959
 10
-145.6364576219
 20
44.9254532174
 10
-145.5997044006
 20
44.943452785
 10
-145.5622937095
 20
44.9579241872
 10
-145.5243288257
 20
44.9687561499
 10
-145.485714849
 20
44.9758649613
 10
-145.4464570594
 20
44.9791712736
  0
LWPOLYLINE
  5
457
100
AcDbEntity
  8
ASSI
100
AcDbPolyline
 62
250
  6
CONTINUOUS
 90
25
 70
0
 10
-146.1069123861
 20
44.1183573363
 10
-146.0945783658
 20
44.173067863
 10
-146.0808454587
 20
44.2274007954
 10
-146.0657076054
 20
44.2811805012
 10
-146.049169409
 20
44.3342007485
 10
-146.0312152177
 20
44.3863129275
 10
-146.0118083628
 20
44.4374197654
 10
-145.9909155608
 20
44.4873596646
 10
-145.9685594242
 20
44.5359175569
 10
-145.9447869428
 20
44.5829078373
 10
-145.9195645232
 20
44.6281616614
 10
-145.8929176148
 20
44.671470387
 10
-145.864983048
 20
44.7125983927
 10
-145.8357423421
 20
44.7513651671
 10
-145.8052104909
 20
44.7876118437
 10
-145.7735762577
 20
44.8211549654
 10
-145.7408561698
 20
44.8518183009
 10
-145.7070346609
 20
44.8794896179
 10
-145.6722524902
 20
44.9040763959
 10
-145.6364576219
 20
44.9254532174
 10
-145.5997044006
 20
44.943452785
 10
-145.5622937095
 20
44.9579241872
 10
-145.5243288257
 20
44.9687561499
 10
-145.485714849
 20
44.9758649613
 10
-145.4464570594
 20
44.9791712736
  0
LINE
  5
458
100
AcDbEntity
  8
RACCORDO
100
AcDbLine
 62
250
  6
CONTINUOUS
 10
-146.1069123861
 20
-44.1183573363
 11
-146.1411146875
 21
-43.9555224676
  0
LINE
  5
459
100
AcDbEntity
  8
ASSI
100
AcDbLine
 62
250
  6
CONTINUOUS
 10
-146.1069123861
 20
-44.1183573363
 11
-146.1411146875
 21
-43.9555224676
  0
LINE
  5
45A
100
AcDbEntity
  8
RACCORDO
100
AcDbLine
 62
7
  6
CONTINUOUS
 10
-150.8227285589
 20
-14.228689267
 11
-150.8551620692
 21
-12.5940031764
  0
LINE
  5
45B
100
AcDbEntity
  8
ASSI
100
AcDbLine
 62
7
  6
CONTINUOUS
 10
-150.8227285589
 20
-14.228689267
 11
-150.8551620692
 21
-12.5940031764
  0
LINE
  5
45C
100
AcDbEntity
  8
RACCORDO
100
AcDbLine
 62
7
  6
CONTINUOUS
 10
-150.8551620692
 20
-12.5940031764
 11
-150.8819353317
 21
-10.9368298228
  0
LINE
  5
45D
100
AcDbEntity
  8
ASSI
100
AcDbLine
 62
7
  6
CONTINUOUS
 10
-150.8551620692
 20
-12.5940031764
 11
-150.8819353317
 21
-10.9368298228
  0
LINE
  5
45E
100
AcDbEntity
  8
RACCORDO
100
AcDbLine
 62
7
  6
CONTINUOUS
 10
-150.8819353317
 20
-10.9368298228
 11
-150.9036138846
 21
-9.2533356575
  0
LINE
  5
45F
100
AcDbEntity
  8
ASSI
100
AcDbLine
 62
7
  6
CONTINUOUS
 10
-150.8819353317
 20
-10.9368298228
 11
-150.9036138846
 21
-9.2533356575
  0
LINE
  5
460
100
AcDbEntity
  8
RACCORDO
100
AcDbLine
 62
7
  6
CONTINUOUS
 10
-150.9036138846
 20
-9.2533356575
 11
-150.9208784995
 21
-7.5158174595
  0
LINE
  5
461
100
AcDbEntity
  8
ASSI
100
AcDbLine
 62
7
  6
CONTINUOUS
 10
-150.9036138846
 20
-9.2533356575
 11
-150.9208784995
 21
-7.5158174595
  0
LINE
  5
462
100
AcDbEntity
  8
RACCORDO
100
AcDbLine
 62
7
  6
CONTINUOUS
 10
-150.9208784995
 20
-7.5158174595
 11
-150.9339826246
 21
-5.71567843
  0
LINE
  5
463
100
AcDbEntity
  8
ASSI
100
AcDbLine
 62
7
  6
CONTINUOUS
 10
-150.9208784995
 20
-7.5158174595
 11
-150.9339826246
 21
-5.71567843
  0
LINE
  5
464
100
AcDbEntity
  8
RACCORDO
100
AcDbLine
 62
7
  6
CONTINUOUS
 10
-150.9339826246
 20
-5.71567843
 11
-150.9430861642
 21
-3.8518828133
  0
LINE
  5
465
100
AcDbEntity
  8
ASSI
100
AcDbLine
 62
7
  6
CONTINUOUS
 10
-150.9339826246
 20
-5.71567843
 11
-150.9430861642
 21
-3.8518828133
  0
LINE
  5
466
100
AcDbEntity
  8
RACCORDO
100
AcDbLine
 62
7
  6
CONTINUOUS
 10
-150.9430861642
 20
-3.8518828133
 11
-150.9483253755
 21
-1.9447077345
  0
LINE
  5
467
100
AcDbEntity
  8
ASSI
100
AcDbLine
 62
7
  6
CONTINUOUS
 10
-150.9430861642
 20
-3.8518828133
 11
-150.9483253755
 21
-1.9447077345
  0
LINE
  5
468
100
AcDbEntity
  8
RACCORDO
100
AcDbLine
 62
7
  6
CONTINUOUS
 10
-150.9483253755
 20
-1.9447077345
 11
-150.9500003735
 21
0.0
  0
LINE
  5
469
100
AcDbEntity
  8
ASSI
100
AcDbLine
 62
7
  6
CONTINUOUS
 10
-150.9483253755
 20
-1.9447077345
 11
-150.9500003735
 21
0.0
  0
LINE
  5
46A
100
AcDbEntity
  8
RACCORDO
100
AcDbLine
 62
7
  6
CONTINUOUS
 10
-150.9500003735
 20
0.0
 11
-150.9486339546
 21
1.7607273738
  0
LINE
  5
46B
100
AcDbEntity
  8
ASSI
100
AcDbLine
 62
7
  6
CONTINUOUS
 10
-150.9500003735
 20
0.0
 11
-150.9486339546
 21
1.7607273738
  0
LINE
  5
46C
100
AcDbEntity
  8
RACCORDO
100
AcDbLine
 62
7
  6
CONTINUOUS
 10
-150.9486339546
 20
1.7607273738
 11
-150.9444010318
 21
3.4835522333
  0
LINE
  5
46D
100
AcDbEntity
  8
ASSI
100
AcDbLine
 62
7
  6
CONTINUOUS
 10
-150.9486339546
 20
1.7607273738
 11
-150.9444010318
 21
3.4835522333
  0
LINE
  5
46E
100
AcDbEntity
  8
RACCORDO
100
AcDbLine
 62
7
  6
CONTINUOUS
 10
-150.9444010318
 20
3.4835522333
 11
-150.9370618424
 21
5.1752874081
  0
LINE
  5
46F
100
AcDbEntity
  8
ASSI
100
AcDbLine
 62
7
  6
CONTINUOUS
 10
-150.9444010318
 20
3.4835522333
 11
-150.9370618424
 21
5.1752874081
  0
LINE
  5
470
100
AcDbEntity
  8
RACCORDO
100
AcDbLine
 62
7
  6
CONTINUOUS
 10
-150.9370618424
 20
5.1752874081
 11
-150.9261424845
 21
6.8651668463
  0
LINE
  5
471
100
AcDbEntity
  8
ASSI
100
AcDbLine
 62
7
  6
CONTINUOUS
 10
-150.9370618424
 20
5.1752874081
 11
-150.9261424845
 21
6.8651668463
  0
LINE
  5
472
100
AcDbEntity
  8
RACCORDO
100
AcDbLine
 62
7
  6
CONTINUOUS
 10
-150.9261424845
 20
6.8651668463
 11
-150.9114916538
 21
8.5202750745
  0
LINE
  5
473
100
AcDbEntity
  8
ASSI
100
AcDbLine
 62
7
  6
CONTINUOUS
 10
-150.9261424845
 20
6.8651668463
 11
-150.9114916538
 21
8.5202750745
  0
LINE
  5
474
100
AcDbEntity
  8
RACCORDO
100
AcDbLine
 62
7
  6
CONTINUOUS
 10
-150.9114916538
 20
8.5202750745
 11
-150.8927662395
 21
10.146139073
  0
LINE
  5
475
100
AcDbEntity
  8
ASSI
100
AcDbLine
 62
7
  6
CONTINUOUS
 10
-150.9114916538
 20
8.5202750745
 11
-150.8927662395
 21
10.146139073
  0
LINE
  5
476
100
AcDbEntity
  8
RACCORDO
100
AcDbLine
 62
7
  6
CONTINUOUS
 10
-150.8927662395
 20
10.146139073
 11
-150.8689015716
 21
11.7880777656
  0
LINE
  5
477
100
AcDbEntity
  8
ASSI
100
AcDbLine
 62
7
  6
CONTINUOUS
 10
-150.8927662395
 20
10.146139073
 11
-150.8689015716
 21
11.7880777656
  0
LINE
  5
478
100
AcDbEntity
  8
RACCORDO
100
AcDbLine
 62
7
  6
CONTINUOUS
 10
-150.8689015716
 20
11.7880777656
 11
-150.8392930837
 21
13.434026388
  0
LINE
  5
479
100
AcDbEntity
  8
ASSI
100
AcDbLine
 62
7
  6
CONTINUOUS
 10
-150.8689015716
 20
11.7880777656
 11
-150.8392930837
 21
13.434026388
  0
LINE
  5
47A
100
AcDbEntity
  8
RACCORDO
100
AcDbLine
 62
7
  6
CONTINUOUS
 10
-150.8392930837
 20
13.434026388
 11
-150.8037932178
 21
15.055037972
  0
LINE
  5
47B
100
AcDbEntity
  8
ASSI
100
AcDbLine
 62
7
  6
CONTINUOUS
 10
-150.8392930837
 20
13.434026388
 11
-150.8037932178
 21
15.055037972
  0
LINE
  5
47C
100
AcDbEntity
  8
RACCORDO
100
AcDbLine
 62
7
  6
CONTINUOUS
 10
-150.8037932178
 20
15.055037972
 11
-150.7643682268
 21
16.5621498998
  0
LINE
  5
47D
100
AcDbEntity
  8
ASSI
100
AcDbLine
 62
7
  6
CONTINUOUS
 10
-150.8037932178
 20
15.055037972
 11
-150.7643682268
 21
16.5621498998
  0
LINE
  5
47E
100
AcDbEntity
  8
RACCORDO
100
AcDbLine
 62
7
  6
CONTINUOUS
 10
-150.7643682268
 20
16.5621498998
 11
-150.7212817666
 21
17.9679089555
  0
LINE
  5
47F
100
AcDbEntity
  8
ASSI
100
AcDbLine
 62
7
  6
CONTINUOUS
 10
-150.7643682268
 20
16.5621498998
 11
-150.7212817666
 21
17.9679089555
  0
LWPOLYLINE
  5
480
100
AcDbEntity
  8
RACCORDO
100
AcDbPolyline
 62
7
  6
CONTINUOUS
 90
41
 70
0
 10
-150.7212817666
 20
17.9679089555
 10
-150.6743729494
 20
19.293458888
 10
-150.6487074547
 20
19.9487229626
 10
-150.6215418983
 20
20.597821063
 10
-150.5923414299
 20
21.2512651926
 10
-150.5607994817
 20
21.9122731088
 10
-150.5269560227
 20
22.5764238373
 10
-150.4907259653
 20
23.2423203899
 10
-150.4519199416
 20
23.9104292975
 10
-150.4104512411
 20
24.5792948279
 10
-150.366419176
 20
25.2448879108
 10
-150.3198448537
 20
25.9050695491
 10
-150.2704844704
 20
26.5615369846
 10
-150.218044877
 20
27.2161082117
 10
-150.1628235034
 20
27.8633560349
 10
-150.1042571013
 20
28.5082235223
 10
-150.0405293007
 20
29.1669977603
 10
-149.9711199433
 20
29.8396377676
 10
-149.8957397988
 20
30.5235294517
 10
-149.8124931382
 20
31.2293240638
 10
-149.7191198332
 20
31.9670073747
 10
-149.6163129432
 20
32.7218225702
 10
-149.5068214951
 20
33.4683472918
 10
-149.3903566476
 20
34.2061107105
 10
-149.2665320998
 20
34.9352419075
 10
-149.1389332061
 20
35.6347680563
 10
-149.0089465274
 20
36.3001380379
 10
-148.8756300575
 20
36.9390726681
 10
-148.739660293
 20
37.5507191193
 10
-148.6021948328
 20
38.1327027585
 10
-148.4626324936
 20
38.6902460072
 10
-148.318829894
 20
39.233358393
 10
-148.171745561
 20
39.7593561485
 10
-148.0205011321
 20
40.2722922313
 10
-147.8594118149
 20
40.7906263974
 10
-147.6877691693
 20
41.3143971199
 10
-147.5051303657
 20
41.8427773407
 10
-147.3050501616
 20
42.391030971
 10
-147.084227353
 20
42.9631316762
 10
-146.8431349616
 20
43.5528204424
 10
-146.5802594374
 20
44.1592906303
  0
LWPOLYLINE
  5
481
100
AcDbEntity
  8
ASSI
100
AcDbPolyline
 62
7
  6
CONTINUOUS
 90
41
 70
0
 10
-150.7212817666
 20
17.9679089555
 10
-150.6743729494
 20
19.293458888
 10
-150.6487074547
 20
19.9487229626
 10
-150.6215418983
 20
20.597821063
 10
-150.5923414299
 20
21.2512651926
 10
-150.5607994817
 20
21.9122731088
 10
-150.5269560227
 20
22.5764238373
 10
-150.4907259653
 20
23.2423203899
 10
-150.4519199416
 20
23.9104292975
 10
-150.4104512411
 20
24.5792948279
 10
-150.366419176
 20
25.2448879108
 10
-150.3198448537
 20
25.9050695491
 10
-150.2704844704
 20
26.5615369846
 10
-150.218044877
 20
27.2161082117
 10
-150.1628235034
 20
27.8633560349
 10
-150.1042571013
 20
28.5082235223
 10
-150.0405293007
 20
29.1669977603
 10
-149.9711199433
 20
29.8396377676
 10
-149.8957397988
 20
30.5235294517
 10
-149.8124931382
 20
31.2293240638
 10
-149.7191198332
 20
31.9670073747
 10
-149.6163129432
 20
32.7218225702
 10
-149.5068214951
 20
33.4683472918
 10
-149.3903566476
 20
34.2061107105
 10
-149.2665320998
 20
34.9352419075
 10
-149.1389332061
 20
35.6347680563
 10
-149.0089465274
 20
36.3001380379
 10
-148.8756300575
 20
36.9390726681
 10
-148.739660293
 20
37.5507191193
 10
-148.6021948328
 20
38.1327027585
 10
-148.4626324936
 20
38.6902460072
 10
-148.318829894
 20
39.233358393
 10
-148.171745561
 20
39.7593561485
 10
-148.0205011321
 20
40.2722922313
 10
-147.8594118149
 20
40.7906263974
 10
-147.6877691693
 20
41.3143971199
 10
-147.5051303657
 20
41.8427773407
 10
-147.3050501616
 20
42.391030971
 10
-147.084227353
 20
42.9631316762
 10
-146.8431349616
 20
43.5528204424
 10
-146.5802594374
 20
44.1592906303
  0
LWPOLYLINE
  5
482
100
AcDbEntity
  8
RACCORDO
100
AcDbPolyline
 62
250
  6
CONTINUOUS
 90
40
 70
0
 10
-150.2163560897
 20
18.6164540004
 10
-150.1665925147
 20
19.9287537664
 10
-150.1395412484
 20
20.5766815073
 10
-150.1103231183
 20
21.2282075005
 10
-150.0788172115
 20
21.8874381525
 10
-150.045144441
 20
22.5502670567
 10
-150.008963612
 20
23.2142619233
 10
-149.9702103379
 20
23.8802023786
 10
-149.9289490055
 20
24.5473087963
 10
-149.8850315796
 20
25.210810008
 10
-149.8385938827
 20
25.8687174698
 10
-149.7895000923
 20
26.5230197256
 10
-149.7371947063
 20
27.1749112378
 10
-149.682277055
 20
27.8199486748
 10
-149.6241478079
 20
28.4625753683
 10
-149.5604534713
 20
29.1173157763
 10
-149.4914004131
 20
29.7866431697
 10
-149.4167822652
 20
30.4680842775
 10
-149.3336264301
 20
31.168743745
 10
-149.2403636694
 20
31.9001946173
 10
-149.1385632213
 20
32.6508638493
 10
-149.0299602032
 20
33.39313695
 10
-148.9139923476
 20
34.124336795
 10
-148.791221922
 20
34.8471405087
 10
-148.6650708459
 20
35.5419649746
 10
-148.5363161732
 20
36.2016209379
 10
-148.40418085
 20
36.8332976534
 10
-148.269755635
 20
37.4389797685
 10
-148.1340255435
 20
38.0153477185
 10
-147.9960055602
 20
38.5657210682
 10
-147.8538313973
 20
39.1020431587
 10
-147.708936195
 20
39.6221227708
 10
-147.559886813
 20
40.1281511238
 10
-147.4005195425
 20
40.6386452166
 10
-147.2315278938
 20
41.1552181912
 10
-147.0522183565
 20
41.6762569056
 10
-146.8543466912
 20
42.2154389331
 10
-146.635164818
 20
42.7773234648
 10
-146.3974208168
 20
43.3573513097
 10
-146.1411146875
 20
43.9555224676
  0
LWPOLYLINE
  5
483
100
AcDbEntity
  8
ASSI
100
AcDbPolyline
 62
250
  6
CONTINUOUS
 90
40
 70
0
 10
-150.2163560897
 20
18.6164540004
 10
-150.1665925147
 20
19.9287537664
 10
-150.1395412484
 20
20.5766815073
 10
-150.1103231183
 20
21.2282075005
 10
-150.0788172115
 20
21.8874381525
 10
-150.045144441
 20
22.5502670567
 10
-150.008963612
 20
23.2142619233
 10
-149.9702103379
 20
23.8802023786
 10
-149.9289490055
 20
24.5473087963
 10
-149.8850315796
 20
25.210810008
 10
-149.8385938827
 20
25.8687174698
 10
-149.7895000923
 20
26.5230197256
 10
-149.7371947063
 20
27.1749112378
 10
-149.682277055
 20
27.8199486748
 10
-149.6241478079
 20
28.4625753683
 10
-149.5604534713
 20
29.1173157763
 10
-149.4914004131
 20
29.7866431697
 10
-149.4167822652
 20
30.4680842775
 10
-149.3336264301
 20
31.168743745
 10
-149.2403636694
 20
31.9001946173
 10
-149.1385632213
 20
32.6508638493
 10
-149.0299602032
 20
33.39313695
 10
-148.9139923476
 20
34.124336795
 10
-148.791221922
 20
34.8471405087
 10
-148.6650708459
 20
35.5419649746
 10
-148.5363161732
 20
36.2016209379
 10
-148.40418085
 20
36.8332976534
 10
-148.269755635
 20
37.4389797685
 10
-148.1340255435
 20
38.0153477185
 10
-147.9960055602
 20
38.5657210682
 10
-147.8538313973
 20
39.1020431587
 10
-147.708936195
 20
39.6221227708
 10
-147.559886813
 20
40.1281511238
 10
-147.4005195425
 20
40.6386452166
 10
-147.2315278938
 20
41.1552181912
 10
-147.0522183565
 20
41.6762569056
 10
-146.8543466912
 20
42.2154389331
 10
-146.635164818
 20
42.7773234648
 10
-146.3974208168
 20
43.3573513097
 10
-146.1411146875
 20
43.9555224676
  0
LINE
  5
484
100
AcDbEntity
  8
RACCORDO
100
AcDbLine
 62
250
  6
CONTINUOUS
 10
-150.3217745237
 20
-15.0258156943
 11
-150.3572637381
 21
-13.4028203351
  0
LINE
  5
485
100
AcDbEntity
  8
ASSI
100
AcDbLine
 62
250
  6
CONTINUOUS
 10
-150.3217745237
 20
-15.0258156943
 11
-150.3572637381
 21
-13.4028203351
  0
LINE
  5
486
100
AcDbEntity
  8
RACCORDO
100
AcDbLine
 62
250
  6
CONTINUOUS
 10
-150.3572637381
 20
-13.4028203351
 11
-150.3867101242
 21
-11.7611492997
  0
LINE
  5
487
100
AcDbEntity
  8
ASSI
100
AcDbLine
 62
250
  6
CONTINUOUS
 10
-150.3572637381
 20
-13.4028203351
 11
-150.3867101242
 21
-11.7611492997
  0
LINE
  5
488
100
AcDbEntity
  8
RACCORDO
100
AcDbLine
 62
250
  6
CONTINUOUS
 10
-150.3867101242
 20
-11.7611492997
 11
-150.4109028935
 21
-10.0925369283
  0
LINE
  5
489
100
AcDbEntity
  8
ASSI
100
AcDbLine
 62
250
  6
CONTINUOUS
 10
-150.3867101242
 20
-11.7611492997
 11
-150.4109028935
 21
-10.0925369283
  0
LINE
  5
48A
100
AcDbEntity
  8
RACCORDO
100
AcDbLine
 62
250
  6
CONTINUOUS
 10
-150.4109028935
 20
-10.0925369283
 11
-150.43024036
 21
-8.3883506072
  0
LINE
  5
48B
100
AcDbEntity
  8
ASSI
100
AcDbLine
 62
250
  6
CONTINUOUS
 10
-150.4109028935
 20
-10.0925369283
 11
-150.43024036
 21
-8.3883506072
  0
LINE
  5
48C
100
AcDbEntity
  8
RACCORDO
100
AcDbLine
 62
250
  6
CONTINUOUS
 10
-150.43024036
 20
-8.3883506072
 11
-150.4453980441
 21
-6.6196073632
  0
LINE
  5
48D
100
AcDbEntity
  8
ASSI
100
AcDbLine
 62
250
  6
CONTINUOUS
 10
-150.43024036
 20
-8.3883506072
 11
-150.4453980441
 21
-6.6196073632
  0
LINE
  5
48E
100
AcDbEntity
  8
RACCORDO
100
AcDbLine
 62
250
  6
CONTINUOUS
 10
-150.4453980441
 20
-6.6196073632
 11
-150.4564803014
 21
-4.7888027636
  0
LINE
  5
48F
100
AcDbEntity
  8
ASSI
100
AcDbLine
 62
250
  6
CONTINUOUS
 10
-150.4453980441
 20
-6.6196073632
 11
-150.4564803014
 21
-4.7888027636
  0
LINE
  5
490
100
AcDbEntity
  8
RACCORDO
100
AcDbLine
 62
250
  6
CONTINUOUS
 10
-150.4564803014
 20
-4.7888027636
 11
-150.4636252456
 21
-2.9009573368
  0
LINE
  5
491
100
AcDbEntity
  8
ASSI
100
AcDbLine
 62
250
  6
CONTINUOUS
 10
-150.4564803014
 20
-4.7888027636
 11
-150.4636252456
 21
-2.9009573368
  0
LINE
  5
492
100
AcDbEntity
  8
RACCORDO
100
AcDbLine
 62
250
  6
CONTINUOUS
 10
-150.4636252456
 20
-2.9009573368
 11
-150.4671039249
 21
-0.976903495
  0
LINE
  5
493
100
AcDbEntity
  8
ASSI
100
AcDbLine
 62
250
  6
CONTINUOUS
 10
-150.4636252456
 20
-2.9009573368
 11
-150.4671039249
 21
-0.976903495
  0
LINE
  5
494
100
AcDbEntity
  8
RACCORDO
100
AcDbLine
 62
250
  6
CONTINUOUS
 10
-150.4671039249
 20
-0.976903495
 11
-150.4671577566
 21
0.8844339702
  0
LINE
  5
495
100
AcDbEntity
  8
ASSI
100
AcDbLine
 62
250
  6
CONTINUOUS
 10
-150.4671039249
 20
-0.976903495
 11
-150.4671577566
 21
0.8844339702
  0
LINE
  5
496
100
AcDbEntity
  8
RACCORDO
100
AcDbLine
 62
250
  6
CONTINUOUS
 10
-150.4671577566
 20
0.8844339702
 11
-150.4643375918
 21
2.6265031818
  0
LINE
  5
497
100
AcDbEntity
  8
ASSI
100
AcDbLine
 62
250
  6
CONTINUOUS
 10
-150.4671577566
 20
0.8844339702
 11
-150.4643375918
 21
2.6265031818
  0
LINE
  5
498
100
AcDbEntity
  8
RACCORDO
100
AcDbLine
 62
250
  6
CONTINUOUS
 10
-150.4643375918
 20
2.6265031818
 11
-150.4586293862
 21
4.3286058251
  0
LINE
  5
499
100
AcDbEntity
  8
ASSI
100
AcDbLine
 62
250
  6
CONTINUOUS
 10
-150.4643375918
 20
2.6265031818
 11
-150.4586293862
 21
4.3286058251
  0
LINE
  5
49A
100
AcDbEntity
  8
RACCORDO
100
AcDbLine
 62
250
  6
CONTINUOUS
 10
-150.4586293862
 20
4.3286058251
 11
-150.4495059249
 21
6.0182065791
  0
LINE
  5
49B
100
AcDbEntity
  8
ASSI
100
AcDbLine
 62
250
  6
CONTINUOUS
 10
-150.4586293862
 20
4.3286058251
 11
-150.4495059249
 21
6.0182065791
  0
LINE
  5
49C
100
AcDbEntity
  8
RACCORDO
100
AcDbLine
 62
250
  6
CONTINUOUS
 10
-150.4495059249
 20
6.0182065791
 11
-150.4367443517
 21
7.6954925408
  0
LINE
  5
49D
100
AcDbEntity
  8
ASSI
100
AcDbLine
 62
250
  6
CONTINUOUS
 10
-150.4495059249
 20
6.0182065791
 11
-150.4367443517
 21
7.6954925408
  0
LINE
  5
49E
100
AcDbEntity
  8
RACCORDO
100
AcDbLine
 62
250
  6
CONTINUOUS
 10
-150.4367443517
 20
7.6954925408
 11
-150.4202491045
 21
9.3267061304
  0
LINE
  5
49F
100
AcDbEntity
  8
ASSI
100
AcDbLine
 62
250
  6
CONTINUOUS
 10
-150.4367443517
 20
7.6954925408
 11
-150.4202491045
 21
9.3267061304
  0
LINE
  5
4A0
100
AcDbEntity
  8
RACCORDO
100
AcDbLine
 62
250
  6
CONTINUOUS
 10
-150.4202491045
 20
9.3267061304
 11
-150.3989800465
 21
10.9589969843
  0
LINE
  5
4A1
100
AcDbEntity
  8
ASSI
100
AcDbLine
 62
250
  6
CONTINUOUS
 10
-150.4202491045
 20
9.3267061304
 11
-150.3989800465
 21
10.9589969843
  0
LINE
  5
4A2
100
AcDbEntity
  8
RACCORDO
100
AcDbLine
 62
250
  6
CONTINUOUS
 10
-150.3989800465
 20
10.9589969843
 11
-150.3724356043
 21
12.5993358152
  0
LINE
  5
4A3
100
AcDbEntity
  8
ASSI
100
AcDbLine
 62
250
  6
CONTINUOUS
 10
-150.3989800465
 20
10.9589969843
 11
-150.3724356043
 21
12.5993358152
  0
LWPOLYLINE
  5
4A4
100
AcDbEntity
  8
RACCORDO
100
AcDbPolyline
 62
250
  6
CONTINUOUS
 90
4
 70
0
 10
-150.3724356043
 20
12.5993358152
 10
-150.3395943424
 20
14.2455376843
 10
-150.321387103
 20
15.0430331391
 10
-150.3022195185
 20
15.8077373627
  0
LWPOLYLINE
  5
4A5
100
AcDbEntity
  8
ASSI
100
AcDbPolyline
 62
250
  6
CONTINUOUS
 90
4
 70
0
 10
-150.3724356043
 20
12.5993358152
 10
-150.3395943424
 20
14.2455376843
 10
-150.321387103
 20
15.0430331391
 10
-150.3022195185
 20
15.8077373627
  0
LINE
  5
4A6
100
AcDbEntity
  8
RACCORDO
100
AcDbLine
 62
250
  6
CONTINUOUS
 10
-150.3022195185
 20
15.8077373627
 11
-150.2608722108
 21
17.2642690945
  0
LINE
  5
4A7
100
AcDbEntity
  8
ASSI
100
AcDbLine
 62
250
  6
CONTINUOUS
 10
-150.3022195185
 20
15.8077373627
 11
-150.2608722108
 21
17.2642690945
  0
LINE
  5
4A8
100
AcDbEntity
  8
RACCORDO
100
AcDbLine
 62
250
  6
CONTINUOUS
 10
-150.2608722108
 20
17.2642690945
 11
-150.2163560897
 21
18.6164540004
  0
LINE
  5
4A9
100
AcDbEntity
  8
ASSI
100
AcDbLine
 62
250
  6
CONTINUOUS
 10
-150.2608722108
 20
17.2642690945
 11
-150.2163560897
 21
18.6164540004
  0
LWPOLYLINE
  5
4AA
100
AcDbEntity
  8
RACCORDO
100
AcDbPolyline
 62
250
  6
CONTINUOUS
 90
16
 70
0
 10
-140.8296512823
 20
26.624564792
 10
-140.8249894739
 20
26.6407008287
 10
-140.8203663028
 20
26.6563133174
 10
-140.8158174165
 20
26.6712818763
 10
-140.8113778896
 20
26.6854910886
 10
-140.8070819536
 20
26.6988313925
 10
-140.8029627328
 20
26.711199926
 10
-140.7990519889
 20
26.7225013202
 10
-140.7953798762
 20
26.7326484343
 10
-140.7919747089
 20
26.7415630277
 10
-140.788862743
 20
26.7491763633
 10
-140.7860679736
 20
26.7554297375
 10
-140.7836119503
 20
26.7602749328
 10
-140.7815136104
 20
26.7636745897
 10
-140.7797891335
 20
26.7656024945
 10
-140.7784518164
 20
26.7660437819
  0
LINE
  5
4AB
100
AcDbEntity
  8
DRAFT
100
AcDbLine
 62
7
  6
CONTINUOUS
 10
-144.8500003735
 20
-3.6
 11
-147.3500003735
 21
-3.4689805518
  0
LINE
  5
4AC
100
AcDbEntity
  8
ASSI
100
AcDbLine
 62
7
  6
CONTINUOUS
 10
-144.8500003735
 20
-3.6
 11
-147.3500003735
 21
-3.4689805518
  0
LWPOLYLINE
  5
4AD
100
AcDbEntity
  8
RACCORDO
100
AcDbPolyline
 62
250
  6
CONTINUOUS
 90
16
 70
0
 10
-140.8296512823
 20
-26.624564792
 10
-140.8249894771
 20
-26.640700833
 10
-140.8203663089
 20
-26.6563133253
 10
-140.815817425
 20
-26.671281887
 10
-140.8113779001
 20
-26.6854911011
 10
-140.8070819657
 20
-26.6988314061
 10
-140.802962746
 20
-26.71119994
 10
-140.7990520028
 20
-26.7225013338
 10
-140.7953798903
 20
-26.7326484469
 10
-140.7919747227
 20
-26.7415630388
 10
-140.7888627559
 20
-26.7491763726
 10
-140.7860679852
 20
-26.7554297447
 10
-140.7836119599
 20
-26.7602749379
 10
-140.7815136174
 20
-26.7636745928
 10
-140.7797891373
 20
-26.7656024959
 10
-140.7784518164
 20
-26.7660437819
  0
LINE
  5
4AE
100
AcDbEntity
  8
DRAFT
100
AcDbLine
 62
7
  6
CONTINUOUS
 10
-147.3500003735
 20
-3.4689805518
 11
-147.3500003735
 21
3.4689805518
  0
LINE
  5
4AF
100
AcDbEntity
  8
ASSI
100
AcDbLine
 62
7
  6
CONTINUOUS
 10
-147.3500003735
 20
-3.4689805518
 11
-147.3500003735
 21
3.4689805518
  0
LINE
  5
4B0
100
AcDbEntity
  8
RACCORDO
100
AcDbLine
 62
250
  6
CONTINUOUS
 10
-146.0152707379
 20
-0.9385987978
 11
-146.0152707379
 21
0.9385987978
  0
LINE
  5
4B1
100
AcDbEntity
  8
RACCORDO
100
AcDbLine
 62
7
  6
CONTINUOUS
 10
-145.8500003735
 20
-1.0376287213
 11
-145.8500003735
 21
1.0376287213
  0
LINE
  5
4B2
100
AcDbEntity
  8
RACCORDO
100
AcDbLine
 62
7
  6
CONTINUOUS
 10
-144.8500003735
 20
-3.6
 11
-144.8500003735
 21
-45.0
  0
LINE
  5
4B3
100
AcDbEntity
  8
ASSI
100
AcDbLine
 62
7
  6
CONTINUOUS
 10
-144.8500003735
 20
-3.6
 11
-144.8500003735
 21
-45.0
  0
LINE
  5
4B4
100
AcDbEntity
  8
RACCORDO
100
AcDbLine
 62
7
  6
CONTINUOUS
 10
-144.8500003735
 20
3.6
 11
-144.8500003735
 21
45.0
  0
LINE
  5
4B5
100
AcDbEntity
  8
ASSI
100
AcDbLine
 62
7
  6
CONTINUOUS
 10
-144.8500003735
 20
3.6
 11
-144.8500003735
 21
45.0
  0
LWPOLYLINE
  5
4B6
100
AcDbEntity
  8
RACCORDO
100
AcDbPolyline
 62
250
  6
CONTINUOUS
 90
34
 70
0
 10
-146.0152707379
 20
0.9385987978
 10
-146.0147622658
 20
0.9505031731
 10
-146.0143047789
 20
0.9624647964
 10
-146.0139010413
 20
0.9744640086
 10
-146.0135573844
 20
0.986408546
 10
-146.013271646
 20
0.9983503563
 10
-146.0130385951
 20
1.0104803008
 10
-146.0128654758
 20
1.0228670435
 10
-146.0127616163
 20
1.0353781343
 10
-146.0127277771
 20
1.0478968213
 10
-146.0127683133
 20
1.0603771482
 10
-146.0128892138
 20
1.0727944348
 10
-146.0130900984
 20
1.085067053
 10
-146.0133737462
 20
1.0971659275
 10
-146.0137443164
 20
1.1090442872
 10
-146.01419982
 20
1.1206010173
 10
-146.0147396101
 20
1.1318005556
 10
-146.0153651884
 20
1.1426114585
 10
-146.016073498
 20
1.1529515964
 10
-146.0168610453
 20
1.1627908268
 10
-146.017726644
 20
1.1721093302
 10
-146.0186672796
 20
1.1808543551
 10
-146.0196764583
 20
1.18899449
 10
-146.0207517939
 20
1.1965322754
 10
-146.0218956283
 20
1.2034699137
 10
-146.0230968171
 20
1.2097533935
 10
-146.024357051
 20
1.2154149911
 10
-146.025704126
 20
1.2205439264
 10
-146.0271394913
 20
1.2250824719
 10
-146.0286623326
 20
1.2289813401
 10
-146.0303077059
 20
1.2322491174
 10
-146.0320919247
 20
1.2347895606
 10
-146.0340056967
 20
1.2364598592
 10
-146.0360490787
 20
1.2371415313
  0
LWPOLYLINE
  5
4B7
100
AcDbEntity
  8
RACCORDO
100
AcDbPolyline
 62
250
  6
CONTINUOUS
 90
34
 70
0
 10
-146.0360490787
 20
-1.2371415313
 10
-146.03468999
 20
-1.2368092854
 10
-146.0333438255
 20
-1.2359978292
 10
-146.0320145406
 20
-1.2346994491
 10
-146.0307157502
 20
-1.232919498
 10
-146.0294413435
 20
-1.2306453579
 10
-146.0281684143
 20
-1.2278176164
 10
-146.0268951682
 20
-1.2243766052
 10
-146.0256392233
 20
-1.220313408
 10
-146.0244087906
 20
-1.215630762
 10
-146.0232117601
 20
-1.2103174347
 10
-146.0220545456
 20
-1.2043543327
 10
-146.0209412738
 20
-1.1977513826
 10
-146.0198776159
 20
-1.1904984569
 10
-146.0188716422
 20
-1.1825964447
 10
-146.0179286828
 20
-1.1740894218
 10
-146.0170532031
 20
-1.164988487
 10
-146.0162509227
 20
-1.1553037589
 10
-146.0155256282
 20
-1.1450965876
 10
-146.0148796873
 20
-1.1343932064
 10
-146.0143164231
 20
-1.1232129462
 10
-146.0138377694
 20
-1.1116205112
 10
-146.0134447914
 20
-1.099668344
 10
-146.0131374266
 20
-1.0873654758
 10
-146.0129150079
 20
-1.0747146053
 10
-146.0127804232
 20
-1.0618293422
 10
-146.0127304468
 20
-1.0486586297
 10
-146.0127639333
 20
-1.0349396279
 10
-146.0128929713
 20
-1.0207036108
 10
-146.0131217242
 20
-1.0059583554
 10
-146.0134551686
 20
-0.9903819221
 10
-146.0139115088
 20
-0.9738802349
 10
-146.0145108318
 20
-0.9566032874
 10
-146.0152707379
 20
-0.9385987978
  0
LINE
  5
4B8
100
AcDbEntity
  8
RACCORDO
100
AcDbLine
 62
7
  6
CONTINUOUS
 10
-146.0360490787
 20
-1.2371415313
 11
-147.3500003735
 21
-1.3290219564
  0
LINE
  5
4B9
100
AcDbEntity
  8
RACCORDO
100
AcDbLine
 62
250
  6
CONTINUOUS
 10
-146.0152707379
 20
-0.9385987978
 11
-147.3500003735
 21
-1.031932186
  0
LINE
  5
4BA
100
AcDbEntity
  8
RACCORDO
100
AcDbLine
 62
250
  6
CONTINUOUS
 10
-146.0152707379
 20
-0.9385987978
 11
-145.8500003735
 21
-0.9385987978
  0
LINE
  5
4BB
100
AcDbEntity
  8
RACCORDO
100
AcDbLine
 62
250
  6
CONTINUOUS
 10
-150.9500003735
 20
0.0
 11
-150.4674501218
 21
0.0
  0
LINE
  5
4BC
100
AcDbEntity
  8
ASSI
100
AcDbLine
 62
250
  6
CONTINUOUS
 10
-150.9500003735
 20
0.0
 11
-150.4674501218
 21
0.0
  0
LWPOLYLINE
  5
4BD
100
AcDbEntity
  8
RACCORDO
100
AcDbPolyline
 62
250
  6
CONTINUOUS
 90
12
 70
0
 10
-141.0941583958
 20
-25.2852847127
 10
-141.0945290815
 20
-25.2714424781
 10
-141.0949404604
 20
-25.2585786438
 10
-141.0953894018
 20
-25.2467911114
 10
-141.0958724888
 20
-25.2361695911
 10
-141.0963860449
 20
-25.2267949192
 10
-141.0969261617
 20
-25.2187384426
 10
-141.0974887284
 20
-25.2120614758
 10
-141.0980694637
 20
-25.2068148347
 10
-141.0986639478
 20
-25.2030384494
 10
-141.0992676563
 20
-25.2007610604
 10
-141.0998759946
 20
-25.2
  0
LWPOLYLINE
  5
4BE
100
AcDbEntity
  8
RACCORDO
100
AcDbPolyline
 62
250
  6
CONTINUOUS
 90
3
 70
0
 10
-141.0933170347
 20
-25.3315959713
 10
-141.0935500575
 20
-25.3154763477
 10
-141.0941583958
 20
-25.2852847127
  0
LWPOLYLINE
  5
4BF
100
AcDbEntity
  8
RACCORDO
100
AcDbPolyline
 62
250
  6
CONTINUOUS
 90
14
 70
0
 10
-141.0933170342
 20
25.331596012
 10
-141.0938312235
 20
25.3000000466
 10
-141.0941583946
 20
25.2852847589
 10
-141.0945290802
 20
25.2714425219
 10
-141.094940459
 20
25.2585786839
 10
-141.0953894003
 20
25.2467911465
 10
-141.0958724873
 20
25.2361696204
 10
-141.0963860435
 20
25.2267949425
 10
-141.0969261604
 20
25.2187384598
 10
-141.0974887273
 20
25.2120614874
 10
-141.0980694628
 20
25.2068148415
 10
-141.0986639472
 20
25.2030384525
 10
-141.0992676559
 20
25.2007610612
 10
-141.0998759946
 20
25.2
  0
LINE
  5
4C0
100
AcDbEntity
  8
RACCORDO
100
AcDbLine
 62
250
  6
CONTINUOUS
 10
-146.0152707379
 20
0.9385987978
 11
-145.8500003735
 21
0.9385987978
  0
LINE
  5
4C1
100
AcDbEntity
  8
RACCORDO
100
AcDbLine
 62
250
  6
CONTINUOUS
 10
-146.0152707379
 20
0.9385987978
 11
-147.3500003735
 21
1.031932186
  0
LINE
  5
4C2
100
AcDbEntity
  8
RACCORDO
100
AcDbLine
 62
7
  6
CONTINUOUS
 10
-146.0360490787
 20
1.2371415313
 11
-147.3500003735
 21
1.3290219564
  0
LINE
  5
4C3
100
AcDbEntity
  8
RACCORDO
100
AcDbLine
 62
250
  6
CONTINUOUS
 10
-141.01329312
 20
25.4039702478
 11
-141.0099547066
 21
25.3694883837
  0
LINE
  5
4C4
100
AcDbEntity
  8
RACCORDO
100
AcDbLine
 62
250
  6
CONTINUOUS
 10
-141.0099547066
 20
25.3694883837
 11
-141.0069284287
 21
25.3360496179
  0
LWPOLYLINE
  5
4C5
100
AcDbEntity
  8
RACCORDO
100
AcDbPolyline
 62
250
  6
CONTINUOUS
 90
14
 70
0
 10
-141.0069284287
 20
25.3360496179
 10
-141.0043058332
 20
25.3046654944
 10
-141.0031712541
 20
25.2900438378
 10
-141.0021662553
 20
25.276285403
 10
-141.0012984516
 20
25.2634944377
 10
-141.0005744184
 20
25.2517678594
 10
-140.9999996418
 20
25.2411945204
 10
-140.9995784769
 20
25.231854535
 10
-140.9993141147
 20
25.2238186724
 10
-140.9992085583
 20
25.2171478205
 10
-140.9992626077
 20
25.2118925243
 10
-140.9994758532
 20
25.2080926034
 10
-140.9998466791
 20
25.2057768497
 10
-141.0003722756
 20
25.2049628098
  0
LWPOLYLINE
  5
4C6
100
AcDbEntity
  8
RACCORDO
100
AcDbPolyline
 62
250
  6
CONTINUOUS
 90
3
 70
0
 10
-139.2430204741
 20
25.9484088534
 10
-139.243522198
 20
25.9657120371
 10
-139.244671985
 20
25.9999255142
  0
LINE
  5
4C7
100
AcDbEntity
  8
RACCORDO
100
AcDbLine
 62
250
  6
CONTINUOUS
 10
-141.0930021356
 20
-25.3652703645
 11
-141.0933170347
 21
-25.3315959713
  0
LINE
  5
4C8
100
AcDbEntity
  8
RACCORDO
100
AcDbLine
 62
250
  6
CONTINUOUS
 10
-140.2107424305
 20
-26.3110477805
 11
-140.2100443034
 21
-26.4592813088
  0
LINE
  5
4C9
100
AcDbEntity
  8
RACCORDO
100
AcDbLine
 62
250
  6
CONTINUOUS
 10
-141.0928960952
 20
-25.4
 11
-141.0930021356
 21
-25.3652703645
  0
LINE
  5
4CA
100
AcDbEntity
  8
RACCORDO
100
AcDbLine
 62
250
  6
CONTINUOUS
 10
-139.2489531807
 20
26.247433977
 11
-139.2489531807
 21
26.089828271
  0
LINE
  5
4CB
100
AcDbEntity
  8
RACCORDO
100
AcDbLine
 62
250
  6
CONTINUOUS
 10
-139.2489531807
 20
-26.247433977
 11
-139.2489531807
 21
-26.089828271
  0
LINE
  5
4CC
100
AcDbEntity
  8
RACCORDO
100
AcDbLine
 62
250
  6
CONTINUOUS
 10
-139.2430204741
 20
25.9484088534
 11
-139.2430204741
 21
25.5809975124
  0
LINE
  5
4CD
100
AcDbEntity
  8
RACCORDO
100
AcDbLine
 62
250
  6
CONTINUOUS
 10
-139.2430204741
 20
-25.5809975124
 11
-139.2430204741
 21
-25.9484088534
  0
LINE
  5
4CE
100
AcDbEntity
  8
0
100
AcDbLine
 62
7
  6
CONTINUOUS
 10
-139.0500003735
 20
26.45
 11
-139.0500003735
 21
26.3049700938
  0
LINE
  5
4CF
100
AcDbEntity
  8
RACCORDO
100
AcDbLine
 62
7
  6
CONTINUOUS
 10
-139.0500003735
 20
26.3049700938
 11
-139.0500003735
 21
25.4
  0
LINE
  5
4D0
100
AcDbEntity
  8
RACCORDO
100
AcDbLine
 62
7
  6
CONTINUOUS
 10
-139.0500003735
 20
-25.4
 11
-139.0500003735
 21
-26.3049700938
  0
LINE
  5
4D1
100
AcDbEntity
  8
0
100
AcDbLine
 62
7
  6
CONTINUOUS
 10
-139.0500003735
 20
-26.3049700938
 11
-139.0500003735
 21
-26.45
  0
LINE
  5
4D2
100
AcDbEntity
  8
RACCORDO
100
AcDbLine
 62
250
  6
CONTINUOUS
 10
-141.0928960952
 20
25.4
 11
-141.0930021354
 21
25.3652703895
  0
LINE
  5
4D3
100
AcDbEntity
  8
RACCORDO
100
AcDbLine
 62
250
  6
CONTINUOUS
 10
-140.2100443034
 20
26.4592813088
 11
-140.2107424305
 21
26.3110477805
  0
LINE
  5
4D4
100
AcDbEntity
  8
RACCORDO
100
AcDbLine
 62
250
  6
CONTINUOUS
 10
-141.0930021354
 20
25.3652703895
 11
-141.0933170342
 21
25.331596012
  0
LWPOLYLINE
  5
4D5
100
AcDbEntity
  8
RACCORDO
100
AcDbPolyline
 62
250
  6
CONTINUOUS
 90
3
 70
0
 10
-139.2446634937
 20
-25.9996945891
 10
-139.2440673846
 20
-25.9827318725
 10
-139.2430204741
 20
-25.9484088534
  0
LWPOLYLINE
  5
4D6
100
AcDbEntity
  8
RACCORDO
100
AcDbPolyline
 62
250
  6
CONTINUOUS
 90
12
 70
0
 10
-141.0031712529
 20
-25.2900438212
 10
-141.0021662542
 20
-25.2762853872
 10
-141.0012984507
 20
-25.2634944233
 10
-141.0005744177
 20
-25.2517678468
 10
-140.9999996413
 20
-25.2411945098
 10
-140.9995784765
 20
-25.2318545266
 10
-140.9993141145
 20
-25.2238186662
 10
-140.9992085583
 20
-25.2171478163
 10
-140.9992626078
 20
-25.2118925219
 10
-140.9994758533
 20
-25.2080926023
 10
-140.9998466792
 20
-25.2057768494
 10
-141.0003722756
 20
-25.2049628098
  0
LINE
  5
4D7
100
AcDbEntity
  8
RACCORDO
100
AcDbLine
 62
250
  6
CONTINUOUS
 10
-141.0055613946
 20
-25.3200395683
 11
-141.0031712529
 21
-25.2900438212
  0
LINE
  5
4D8
100
AcDbEntity
  8
RACCORDO
100
AcDbLine
 62
250
  6
CONTINUOUS
 10
-141.0083965726
 20
-25.3525742747
 11
-141.0055613946
 21
-25.3200395683
  0
LWPOLYLINE
  5
4D9
100
AcDbEntity
  8
RACCORDO
100
AcDbPolyline
 62
250
  6
CONTINUOUS
 90
3
 70
0
 10
-141.01329312
 20
-25.4039702478
 10
-141.0115910211
 20
-25.3866637451
 10
-141.0083965726
 20
-25.3525742747
  0
LINE
  5
4DA
100
AcDbEntity
  8
DRAFT
100
AcDbLine
 62
7
  6
CONTINUOUS
 10
-144.8500003735
 20
3.6
 11
-147.3500003735
 21
3.4689805518
  0
LINE
  5
4DB
100
AcDbEntity
  8
ASSI
100
AcDbLine
 62
7
  6
CONTINUOUS
 10
-144.8500003735
 20
3.6
 11
-147.3500003735
 21
3.4689805518
  0
LINE
  5
4DC
100
AcDbEntity
  8
RACCORDO
100
AcDbLine
 62
250
  6
CONTINUOUS
 10
-139.2430204741
 20
25.5809975124
 11
-139.2397055309
 21
25.546766048
  0
LINE
  5
4DD
100
AcDbEntity
  8
RACCORDO
100
AcDbLine
 62
250
  6
CONTINUOUS
 10
-139.2397055309
 20
25.546766048
 11
-139.2366830904
 21
25.5133901269
  0
LWPOLYLINE
  5
4DE
100
AcDbEntity
  8
RACCORDO
100
AcDbPolyline
 62
250
  6
CONTINUOUS
 90
14
 70
0
 10
-139.2366830904
 20
25.5133901269
 10
-139.2340523353
 20
25.4819329639
 10
-139.2329148962
 20
25.4672870528
 10
-139.2319071091
 20
25.4535039426
 10
-139.2310364725
 20
25.4406858904
 10
-139.2303095967
 20
25.4289293586
 10
-139.2297322189
 20
25.4183261149
 10
-139.2293088913
 20
25.4089592647
 10
-139.2290428443
 20
25.4009004888
 10
-139.2289360676
 20
25.3942103836
 10
-139.2289893721
 20
25.3889398338
 10
-139.2292023487
 20
25.3851288721
 10
-139.2295733755
 20
25.3828064129
 10
-139.2300996297
 20
25.3819900744
  0
LWPOLYLINE
  5
4DF
100
AcDbEntity
  8
RACCORDO
100
AcDbPolyline
 62
250
  6
CONTINUOUS
 90
19
 70
0
 10
-139.0500003735
 20
25.9484088534
 10
-139.050750782
 20
25.9606481401
 10
-139.0529995104
 20
25.9728082381
 10
-139.0567343241
 20
25.9847972729
 10
-139.061933583
 20
25.9965278846
 10
-139.0685615504
 20
26.007906557
 10
-139.0765640952
 20
26.0188356145
 10
-139.0858780242
 20
26.0292291926
 10
-139.0964353081
 20
26.0390117526
 10
-139.1081553752
 20
26.0481083931
 10
-139.1209493907
 20
26.0564501507
 10
-139.1347206111
 20
26.0639739354
 10
-139.149364046
 20
26.0706224565
 10
-139.1647691714
 20
26.0763456389
 10
-139.1808188722
 20
26.0811000736
 10
-139.1973893351
 20
26.0848494607
 10
-139.2143541603
 20
26.0875658645
 10
-139.231585576
 20
26.0892294755
 10
-139.2489531807
 20
26.089828271
  0
LWPOLYLINE
  5
4E0
100
AcDbEntity
  8
RACCORDO
100
AcDbPolyline
 62
250
  6
CONTINUOUS
 90
3
 70
0
 10
-139.247432959
 20
26.0630562597
 10
-139.2481861255
 20
26.0769342286
 10
-139.2489531807
 20
26.089828271
  0
LINE
  5
4E1
100
AcDbEntity
  8
RACCORDO
100
AcDbLine
 62
250
  6
CONTINUOUS
 10
-139.245990633
 20
26.0327671397
 11
-139.247432959
 21
26.0630562597
  0
LINE
  5
4E2
100
AcDbEntity
  8
RACCORDO
100
AcDbLine
 62
250
  6
CONTINUOUS
 10
-139.244671985
 20
25.9999255142
 11
-139.245990633
 21
26.0327671397
  0
LINE
  5
4E3
100
AcDbEntity
  8
RACCORDO
100
AcDbLine
 62
250
  6
CONTINUOUS
 10
-139.2459837912
 20
-26.0326106221
 11
-139.2446634937
 21
-25.9996945891
  0
LWPOLYLINE
  5
4E4
100
AcDbEntity
  8
RACCORDO
100
AcDbPolyline
 62
250
  6
CONTINUOUS
 90
4
 70
0
 10
-139.2489531807
 20
-26.089828271
 10
-139.2481843925
 20
-26.0769037072
 10
-139.24742957
 20
-26.0629909742
 10
-139.2459837912
 20
-26.0326106221
  0
LWPOLYLINE
  5
4E5
100
AcDbEntity
  8
RACCORDO
100
AcDbPolyline
 62
250
  6
CONTINUOUS
 90
12
 70
0
 10
-139.2329146433
 20
-25.4672837013
 10
-139.2319069186
 20
-25.4535012445
 10
-139.2310363339
 20
-25.4406837587
 10
-139.2303094954
 20
-25.4289276224
 10
-139.2297321485
 20
-25.4183247098
 10
-139.2293088484
 20
-25.4089581795
 10
-139.2290428248
 20
-25.4008997186
 10
-139.2289360654
 20
-25.3942098888
 10
-139.2289893802
 20
-25.3889395557
 10
-139.2292023605
 20
-25.3851287476
 10
-139.2295733845
 20
-25.3828063812
 10
-139.2300996297
 20
-25.3819900744
  0
LINE
  5
4E6
100
AcDbEntity
  8
RACCORDO
100
AcDbLine
 62
250
  6
CONTINUOUS
 10
-139.2353115579
 20
-25.4973396814
 11
-139.2329146433
 21
-25.4672837013
  0
LINE
  5
4E7
100
AcDbEntity
  8
RACCORDO
100
AcDbLine
 62
250
  6
CONTINUOUS
 10
-139.2381516587
 20
-25.529907862
 11
-139.2353115579
 21
-25.4973396814
  0
LWPOLYLINE
  5
4E8
100
AcDbEntity
  8
RACCORDO
100
AcDbPolyline
 62
250
  6
CONTINUOUS
 90
3
 70
0
 10
-139.2430204741
 20
-25.5809975124
 10
-139.2413324418
 20
-25.5638362823
 10
-139.2381516587
 20
-25.529907862
  0
LWPOLYLINE
  5
4E9
100
AcDbEntity
  8
0
100
AcDbPolyline
 62
7
  6
CONTINUOUS
 90
10
 70
0
 43
0.3500000006
 10
-160.2297235107
 20
56.2290162048
 10
-160.1583013916
 20
56.0861629028
 10
-160.1583013916
 20
56.01473172
 10
-160.3011637573
 20
55.871878418
 10
-160.3725858765
 20
55.871878418
 10
-160.4440079956
 20
55.9433005371
 10
-160.4440079956
 20
56.01473172
 10
-160.3725858765
 20
56.1575940857
 10
-160.3011637573
 20
56.2290162048
 10
-160.2297235107
 20
56.2290162048
  0
LINE
  5
4EA
100
AcDbEntity
  8
RACCORDO
100
AcDbLine
 62
250
  6
CONTINUOUS
 10
-139.2219087739
 20
-25.3831495991
 11
-139.2217576606
 21
-25.3828242715
  0
LINE
  5
4EB
100
AcDbEntity
  8
RACCORDO
100
AcDbLine
 62
250
  6
CONTINUOUS
 10
-139.2219084195
 20
25.3831496493
 11
-139.2217573903
 21
25.3828242983
  0
LINE
  5
4EC
100
AcDbEntity
  8
0
100
AcDbLine
 62
7
  6
CONTINUOUS
 10
-144.7500003735
 20
-25.2
 11
-144.6000003735
 21
-25.05
  0
LINE
  5
4ED
100
AcDbEntity
  8
0
100
AcDbLine
 62
7
  6
CONTINUOUS
 10
-144.2500003735
 20
-25.2
 11
-144.1000003735
 21
-25.05
  0
LINE
  5
4EE
100
AcDbEntity
  8
0
100
AcDbLine
 62
7
  6
CONTINUOUS
 10
-143.7500003735
 20
-25.2
 11
-143.6000003735
 21
-25.05
  0
LINE
  5
4EF
100
AcDbEntity
  8
0
100
AcDbLine
 62
7
  6
CONTINUOUS
 10
-143.2500003735
 20
-25.2
 11
-143.1000003735
 21
-25.05
  0
LINE
  5
4F0
100
AcDbEntity
  8
0
100
AcDbLine
 62
7
  6
CONTINUOUS
 10
-144.6000003735
 20
25.05
 11
-144.7500003735
 21
25.2
  0
LINE
  5
4F1
100
AcDbEntity
  8
0
100
AcDbLine
 62
7
  6
CONTINUOUS
 10
-144.1000003735
 20
25.05
 11
-144.2500003735
 21
25.2
  0
LINE
  5
4F2
100
AcDbEntity
  8
0
100
AcDbLine
 62
7
  6
CONTINUOUS
 10
-143.6000003735
 20
25.05
 11
-143.7500003735
 21
25.2
  0
LINE
  5
4F3
100
AcDbEntity
  8
0
100
AcDbLine
 62
7
  6
CONTINUOUS
 10
-143.1000003735
 20
25.05
 11
-143.2500003735
 21
25.2
  0
LWPOLYLINE
  5
4F4
100
AcDbEntity
  8
0
100
AcDbPolyline
 62
7
  6
CONTINUOUS
 90
10
 70
0
 43
0.3500000006
 10
-159.8129917603
 20
66.2270977478
 10
-159.7415515137
 20
66.0842353821
 10
-159.7415515137
 20
66.0128132629
 10
-159.8844138794
 20
65.8699508972
 10
-159.9558359985
 20
65.8699508972
 10
-160.0272762451
 20
65.9413820801
 10
-160.0272762451
 20
66.0128132629
 10
-159.9558359985
 20
66.1556665649
 10
-159.8844138794
 20
66.2270977478
 10
-159.8129917603
 20
66.2270977478
  0
LINE
  5
4F5
100
AcDbEntity
  8
0
100
AcDbLine
 62
7
  6
CONTINUOUS
 10
-142.7500003735
 20
-25.2
 11
-142.6000003735
 21
-25.05
  0
LINE
  5
4F6
100
AcDbEntity
  8
0
100
AcDbLine
 62
7
  6
CONTINUOUS
 10
-142.2500003735
 20
-25.2
 11
-142.1000003735
 21
-25.05
  0
LINE
  5
4F7
100
AcDbEntity
  8
0
100
AcDbLine
 62
7
  6
CONTINUOUS
 10
-141.7500003735
 20
-25.2
 11
-141.6000003735
 21
-25.05
  0
LINE
  5
4F8
100
AcDbEntity
  8
0
100
AcDbLine
 62
7
  6
CONTINUOUS
 10
-142.6000003735
 20
25.05
 11
-142.7500003735
 21
25.2
  0
LINE
  5
4F9
100
AcDbEntity
  8
0
100
AcDbLine
 62
7
  6
CONTINUOUS
 10
-142.1000003735
 20
25.05
 11
-142.2500003735
 21
25.2
  0
LINE
  5
4FA
100
AcDbEntity
  8
0
100
AcDbLine
 62
7
  6
CONTINUOUS
 10
-141.6000003735
 20
25.05
 11
-141.7500003735
 21
25.2
  0
LINE
  5
4FB
100
AcDbEntity
  8
RACCORDO
100
AcDbLine
 62
250
  6
CONTINUOUS
 10
-141.0737489354
 20
-26.8365786634
 11
-140.8296512823
 21
-26.624564792
  0
LWPOLYLINE
  5
4FC
100
AcDbEntity
  8
RACCORDO
100
AcDbPolyline
 62
250
  6
CONTINUOUS
 90
4
 70
0
 10
-141.0760356515
 20
-26.8385222296
 10
-141.0758507518
 20
-26.8383811163
 10
-141.0754373744
 20
-26.8380209231
 10
-141.0747411166
 20
-26.8374260443
  0
LINE
  5
4FD
100
AcDbEntity
  8
RACCORDO
100
AcDbLine
 62
7
  6
CONTINUOUS
 10
-141.0003722756
 20
25.2049628098
 11
-139.0500003735
 21
25.4
  0
LINE
  5
4FE
100
AcDbEntity
  8
RACCORDO
100
AcDbLine
 62
250
  6
CONTINUOUS
 10
-141.01329312
 20
25.4039702478
 11
-139.2430204741
 21
25.5809975124
  0
LWPOLYLINE
  5
4FF
100
AcDbEntity
  8
RACCORDO
100
AcDbPolyline
 62
250
  6
CONTINUOUS
 90
10
 70
0
 10
-141.0928960952
 20
25.4
 10
-141.0840331934
 20
25.4000491768
 10
-141.0751744666
 20
25.4001963618
 10
-141.0663199149
 20
25.4004415552
 10
-141.0574690627
 20
25.4007847807
 10
-141.0486223856
 20
25.4012260144
 10
-141.0397813101
 20
25.4017651852
 10
-141.0309463118
 20
25.4024022691
 10
-141.0221169151
 20
25.40313729
 10
-141.01329312
 20
25.4039702478
  0
LINE
  5
500
100
AcDbEntity
  8
0
100
AcDbLine
 62
7
  6
CONTINUOUS
 10
-141.4000003735
 20
25.05
 11
-144.8500003735
 21
25.05
  0
LINE
  5
501
100
AcDbEntity
  8
RACCORDO
100
AcDbLine
 62
7
  6
CONTINUOUS
 10
-144.8500003735
 20
25.2
 11
-141.0998759946
 21
25.2
  0
LINE
  5
502
100
AcDbEntity
  8
RACCORDO
100
AcDbLine
 62
250
  6
CONTINUOUS
 10
-144.8500003735
 20
25.4
 11
-141.0928960952
 21
25.4
  0
LINE
  5
503
100
AcDbEntity
  8
RACCORDO
100
AcDbLine
 62
250
  6
CONTINUOUS
 10
-139.2430204741
 20
25.5809975124
 11
-139.0500003735
 21
25.5809975124
  0
LWPOLYLINE
  5
504
100
AcDbEntity
  8
RACCORDO
100
AcDbPolyline
 62
250
  6
CONTINUOUS
 90
3
 70
0
 10
-141.0702262805
 20
26.8334945651
 10
-141.0712923141
 20
26.8344182375
 10
-141.072289028
 20
26.8352738086
  0
LWPOLYLINE
  5
505
100
AcDbEntity
  8
RACCORDO
100
AcDbPolyline
 62
250
  6
CONTINUOUS
 90
7
 70
0
 10
-141.0731883495
 20
26.8360605464
 10
-141.0739974854
 20
26.836764941
 10
-141.0747092287
 20
26.8373723559
 10
-141.0752738864
 20
26.8378719252
 10
-141.0757020245
 20
26.8382447984
 10
-141.0759830769
 20
26.8384687743
 10
-141.0760474857
 20
26.8385262761
  0
LINE
  5
506
100
AcDbEntity
  8
RACCORDO
100
AcDbLine
 62
250
  6
CONTINUOUS
 10
-140.8296512823
 20
26.624564792
 11
-141.0679005739
 21
26.8314796965
  0
LWPOLYLINE
  5
507
100
AcDbEntity
  8
RACCORDO
100
AcDbPolyline
 62
250
  6
CONTINUOUS
 90
4
 70
0
 10
-139.0500003712
 20
-25.4822644581
 10
-139.0577327401
 20
-25.4850133152
 10
-139.0656640629
 20
-25.4877756311
 10
-139.0720412958
 20
-25.4899459783
  0
LINE
  5
508
100
AcDbEntity
  8
RACCORDO
100
AcDbLine
 62
250
  6
CONTINUOUS
 10
-139.0500003735
 20
-25.519415028
 11
-139.058942473
 21
-25.522359188
  0
LINE
  5
509
100
AcDbEntity
  8
RACCORDO
100
AcDbLine
 62
7
  6
CONTINUOUS
 10
-139.1195648209
 20
26.3047007693
 11
-139.1078420762
 21
26.305272955
  0
LINE
  5
50A
100
AcDbEntity
  8
RACCORDO
100
AcDbLine
 62
250
  6
CONTINUOUS
 10
-139.2430204741
 20
25.9484088534
 11
-144.8500003735
 21
25.7941277724
  0
LINE
  5
50B
100
AcDbEntity
  8
RACCORDO
100
AcDbLine
 62
250
  6
CONTINUOUS
 10
-139.2489531807
 20
26.089828271
 11
-144.8500003735
 21
25.9357104338
  0
LINE
  5
50C
100
AcDbEntity
  8
RACCORDO
100
AcDbLine
 62
250
  6
CONTINUOUS
 10
-139.0500003735
 20
25.9484088534
 11
-139.2430204741
 21
25.9484088534
  0
LINE
  5
50D
100
AcDbEntity
  8
RACCORDO
100
AcDbLine
 62
7
  6
CONTINUOUS
 10
-139.0500003735
 20
26.45
 11
-139.5936816919
 21
26.45
  0
LINE
  5
50E
100
AcDbEntity
  8
RACCORDO
100
AcDbLine
 62
250
  6
CONTINUOUS
 10
-140.8296512823
 20
26.624564792
 11
-144.8500003735
 21
26.6263808838
  0
LINE
  5
50F
100
AcDbEntity
  8
DRAFT
100
AcDbLine
 62
7
  6
CONTINUOUS
 10
-144.8500003735
 20
26.8451130731
 11
-141.0760396374
 21
26.8385262624
  0
LINE
  5
510
100
AcDbEntity
  8
RACCORDO
100
AcDbLine
 62
250
  6
CONTINUOUS
 10
-139.2489531807
 20
26.247433977
 11
-144.8500003735
 21
26.2767612595
  0
LINE
  5
511
100
AcDbEntity
  8
RACCORDO
100
AcDbLine
 62
7
  6
CONTINUOUS
 10
-139.0500003735
 20
26.3049700938
 11
-144.8500003735
 21
26.3353391003
  0
LINE
  5
512
100
AcDbEntity
  8
RACCORDO
100
AcDbLine
 62
250
  6
CONTINUOUS
 10
-144.8500003735
 20
26.483576284
 11
-140.2100443034
 21
26.4592813088
  0
LINE
  5
513
100
AcDbEntity
  8
RACCORDO
100
AcDbLine
 62
250
  6
CONTINUOUS
 10
-139.0777911199
 20
26.3118562465
 11
-139.0827607818
 21
26.3124416339
  0
LINE
  5
514
100
AcDbEntity
  8
RACCORDO
100
AcDbLine
 62
250
  6
CONTINUOUS
 10
-139.0827607818
 20
26.3124416339
 11
-139.0999502767
 21
26.3145658928
  0
LINE
  5
515
100
AcDbEntity
  8
RACCORDO
100
AcDbLine
 62
250
  6
CONTINUOUS
 10
-139.0999502767
 20
26.3145658928
 11
-140.2100377017
 21
26.4592795478
  0
LWPOLYLINE
  5
516
100
AcDbEntity
  8
RACCORDO
100
AcDbPolyline
 62
7
  6
CONTINUOUS
 90
5
 70
0
 10
-141.0248405095
 20
26.8317692866
 10
-141.0408276741
 20
26.8353396439
 10
-141.0570534516
 20
26.8375896925
 10
-141.0734089918
 20
26.8385043257
 10
-141.0760396861
 20
26.8385262195
  0
LINE
  5
517
100
AcDbEntity
  8
RACCORDO
100
AcDbLine
 62
250
  6
CONTINUOUS
 10
-140.2100443034
 20
26.4592813088
 11
-140.8296512823
 21
26.624564792
  0
LINE
  5
518
100
AcDbEntity
  8
RACCORDO
100
AcDbLine
 62
7
  6
CONTINUOUS
 10
-139.0748175097
 20
26.3115901979
 11
-141.0248472871
 21
26.8317710946
  0
LINE
  5
519
100
AcDbEntity
  8
RACCORDO
100
AcDbLine
 62
250
  6
CONTINUOUS
 10
-139.0589428632
 20
25.5223578497
 11
-139.0500003735
 21
25.5194072391
  0
LWPOLYLINE
  5
51A
100
AcDbEntity
  8
RACCORDO
100
AcDbPolyline
 62
250
  6
CONTINUOUS
 90
4
 70
0
 10
-139.0720391023
 20
25.4899505534
 10
-139.0686520096
 20
25.488805926
 10
-139.0637704961
 20
25.4871301555
 10
-139.0590334473
 20
25.4854794377
  0
LINE
  5
51B
100
AcDbEntity
  8
RACCORDO
100
AcDbLine
 62
250
  6
CONTINUOUS
 10
-139.0590334473
 20
25.4854794377
 11
-139.0500004367
 21
25.4822659678
  0
LWPOLYLINE
  5
51C
100
AcDbEntity
  8
RACCORDO
100
AcDbPolyline
 62
250
  6
CONTINUOUS
 90
7
 70
0
 10
-139.0748175097
 20
26.3115901979
 10
-139.0747347934
 20
26.3115557342
 10
-139.0748825286
 20
26.3115562081
 10
-139.0752613595
 20
26.3115891178
 10
-139.0758593463
 20
26.3116479903
 10
-139.0766898381
 20
26.3117337872
 10
-139.0777911199
 20
26.3118562465
  0
LWPOLYLINE
  5
51D
100
AcDbEntity
  8
RACCORDO
100
AcDbPolyline
 62
250
  6
CONTINUOUS
 90
7
 70
0
 10
-146.5802594374
 20
-44.1592906304
 10
-146.579246266
 20
-44.158268027
 10
-146.5757875985
 20
-44.1561571132
 10
-146.5699020012
 20
-44.1529692203
 10
-146.5616210675
 20
-44.1487214608
 10
-146.5509892489
 20
-44.1434366364
 10
-146.5380636171
 20
-44.1371431157
  0
LWPOLYLINE
  5
51E
100
AcDbEntity
  8
ASSI
100
AcDbPolyline
 62
250
  6
CONTINUOUS
 90
7
 70
0
 10
-146.5802594374
 20
-44.1592906304
 10
-146.579246266
 20
-44.158268027
 10
-146.5757875985
 20
-44.1561571132
 10
-146.5699020012
 20
-44.1529692203
 10
-146.5616210675
 20
-44.1487214608
 10
-146.5509892489
 20
-44.1434366364
 10
-146.5380636171
 20
-44.1371431157
  0
LWPOLYLINE
  5
51F
100
AcDbEntity
  8
RACCORDO
100
AcDbPolyline
 62
250
  6
CONTINUOUS
 90
8
 70
0
 10
-146.5802594374
 20
44.1592906303
 10
-146.5792462745
 20
44.1582680194
 10
-146.575787623
 20
44.1561571024
 10
-146.5699020486
 20
44.1529692105
 10
-146.5616211439
 20
44.1487214557
 10
-146.5509893595
 20
44.1434366393
 10
-146.538063765
 20
44.1371431293
 10
-146.5056206163
 20
44.1216703919
  0
LWPOLYLINE
  5
520
100
AcDbEntity
  8
ASSI
100
AcDbPolyline
 62
250
  6
CONTINUOUS
 90
8
 70
0
 10
-146.5802594374
 20
44.1592906303
 10
-146.5792462745
 20
44.1582680194
 10
-146.575787623
 20
44.1561571024
 10
-146.5699020486
 20
44.1529692105
 10
-146.5616211439
 20
44.1487214557
 10
-146.5509893595
 20
44.1434366393
 10
-146.538063765
 20
44.1371431293
 10
-146.5056206163
 20
44.1216703919
  0
LINE
  5
521
100
AcDbEntity
  8
RACCORDO
100
AcDbLine
 62
250
  6
CONTINUOUS
 10
-146.5380636171
 20
-44.1371431157
 11
-146.5056203897
 21
-44.1216703519
  0
LINE
  5
522
100
AcDbEntity
  8
ASSI
100
AcDbLine
 62
250
  6
CONTINUOUS
 10
-146.5380636171
 20
-44.1371431157
 11
-146.5056203897
 21
-44.1216703519
  0
LINE
  5
523
100
AcDbEntity
  8
RACCORDO
100
AcDbLine
 62
250
  6
CONTINUOUS
 10
-146.5056203897
 20
-44.1216703519
 11
-146.4649870636
 21
-44.1026349506
  0
LINE
  5
524
100
AcDbEntity
  8
ASSI
100
AcDbLine
 62
250
  6
CONTINUOUS
 10
-146.5056203897
 20
-44.1216703519
 11
-146.4649870636
 21
-44.1026349506
  0
LINE
  5
525
100
AcDbEntity
  8
RACCORDO
100
AcDbLine
 62
250
  6
CONTINUOUS
 10
-146.4649870636
 20
-44.1026349506
 11
-146.3906300909
 21
-44.0683135477
  0
LINE
  5
526
100
AcDbEntity
  8
ASSI
100
AcDbLine
 62
250
  6
CONTINUOUS
 10
-146.4649870636
 20
-44.1026349506
 11
-146.3906300909
 21
-44.0683135477
  0
LINE
  5
527
100
AcDbEntity
  8
RACCORDO
100
AcDbLine
 62
250
  6
CONTINUOUS
 10
-146.3906300909
 20
-44.0683135477
 11
-146.272208451
 21
-44.0144307179
  0
LINE
  5
528
100
AcDbEntity
  8
ASSI
100
AcDbLine
 62
250
  6
CONTINUOUS
 10
-146.3906300909
 20
-44.0683135477
 11
-146.272208451
 21
-44.0144307179
  0
LINE
  5
529
100
AcDbEntity
  8
RACCORDO
100
AcDbLine
 62
250
  6
CONTINUOUS
 10
-146.272208451
 20
-44.0144307179
 11
-146.1411146875
 21
-43.9555224676
  0
LINE
  5
52A
100
AcDbEntity
  8
ASSI
100
AcDbLine
 62
250
  6
CONTINUOUS
 10
-146.272208451
 20
-44.0144307179
 11
-146.1411146875
 21
-43.9555224676
  0
LINE
  5
52B
100
AcDbEntity
  8
RACCORDO
100
AcDbLine
 62
250
  6
CONTINUOUS
 10
-146.2722087385
 20
44.0144308051
 11
-146.1411146875
 21
43.9555224676
  0
LINE
  5
52C
100
AcDbEntity
  8
ASSI
100
AcDbLine
 62
250
  6
CONTINUOUS
 10
-146.2722087385
 20
44.0144308051
 11
-146.1411146875
 21
43.9555224676
  0
LINE
  5
52D
100
AcDbEntity
  8
RACCORDO
100
AcDbLine
 62
250
  6
CONTINUOUS
 10
-146.3906304494
 20
44.0683136454
 11
-146.2722087385
 21
44.0144308051
  0
LINE
  5
52E
100
AcDbEntity
  8
ASSI
100
AcDbLine
 62
250
  6
CONTINUOUS
 10
-146.3906304494
 20
44.0683136454
 11
-146.2722087385
 21
44.0144308051
  0
LINE
  5
52F
100
AcDbEntity
  8
RACCORDO
100
AcDbLine
 62
250
  6
CONTINUOUS
 10
-146.4649873613
 20
44.1026350182
 11
-146.3906304494
 21
44.0683136454
  0
LINE
  5
530
100
AcDbEntity
  8
ASSI
100
AcDbLine
 62
250
  6
CONTINUOUS
 10
-146.4649873613
 20
44.1026350182
 11
-146.3906304494
 21
44.0683136454
  0
LINE
  5
531
100
AcDbEntity
  8
RACCORDO
100
AcDbLine
 62
250
  6
CONTINUOUS
 10
-146.5056206163
 20
44.1216703919
 11
-146.4649873613
 21
44.1026350182
  0
LINE
  5
532
100
AcDbEntity
  8
ASSI
100
AcDbLine
 62
250
  6
CONTINUOUS
 10
-146.5056206163
 20
44.1216703919
 11
-146.4649873613
 21
44.1026350182
  0
LINE
  5
533
100
AcDbEntity
  8
RACCORDO
100
AcDbLine
 62
250
  6
CONTINUOUS
 10
-146.1411146875
 20
43.9555224676
 11
-144.8500003735
 21
44.000609173
  0
LINE
  5
534
100
AcDbEntity
  8
ASSI
100
AcDbLine
 62
250
  6
CONTINUOUS
 10
-146.1411146875
 20
43.9555224676
 11
-144.8500003735
 21
44.000609173
  0
LINE
  5
535
100
AcDbEntity
  8
RACCORDO
100
AcDbLine
 62
7
  6
CONTINUOUS
 10
-145.4465249915
 20
44.9791689013
 11
-144.8500003735
 21
45.0
  0
LINE
  5
536
100
AcDbEntity
  8
ASSI
100
AcDbLine
 62
7
  6
CONTINUOUS
 10
-145.4465249915
 20
44.9791689013
 11
-144.8500003735
 21
45.0
  0
LWPOLYLINE
  5
537
100
AcDbEntity
  8
RACCORDO
100
AcDbPolyline
 62
250
  6
CONTINUOUS
 90
17
 70
0
 10
-146.5060596024
 20
44.2508898217
 10
-146.4923617611
 20
44.24939815
 10
-146.4766837044
 20
44.2468723049
 10
-146.4591019912
 20
44.2433246208
 10
-146.4397024804
 20
44.2387724193
 10
-146.4185799062
 20
44.2332379293
 10
-146.395837418
 20
44.2267481776
 10
-146.3715860793
 20
44.2193348557
 10
-146.3459443203
 20
44.2110341647
 10
-146.3190373617
 20
44.2018866405
 10
-146.2909966066
 20
44.1919369561
 10
-146.2619589929
 20
44.1812336992
 10
-146.232066327
 20
44.169829139
 10
-146.2014645947
 20
44.1577789732
 10
-146.170303243
 20
44.1451420495
 10
-146.1387344504
 20
44.1319800782
 10
-146.1069123863
 20
44.1183573351
  0
LWPOLYLINE
  5
538
100
AcDbEntity
  8
ASSI
100
AcDbPolyline
 62
250
  6
CONTINUOUS
 90
17
 70
0
 10
-146.5060596024
 20
44.2508898217
 10
-146.4923617611
 20
44.24939815
 10
-146.4766837044
 20
44.2468723049
 10
-146.4591019912
 20
44.2433246208
 10
-146.4397024804
 20
44.2387724193
 10
-146.4185799062
 20
44.2332379293
 10
-146.395837418
 20
44.2267481776
 10
-146.3715860793
 20
44.2193348557
 10
-146.3459443203
 20
44.2110341647
 10
-146.3190373617
 20
44.2018866405
 10
-146.2909966066
 20
44.1919369561
 10
-146.2619589929
 20
44.1812336992
 10
-146.232066327
 20
44.169829139
 10
-146.2014645947
 20
44.1577789732
 10
-146.170303243
 20
44.1451420495
 10
-146.1387344504
 20
44.1319800782
 10
-146.1069123863
 20
44.1183573351
  0
ARC
  5
539
100
AcDbEntity
  8
RACCORDO
100
AcDbCircle
 62
7
  6
CONTINUOUS
 10
-145.4029006207
 20
-43.7299303675
 40
1.25
100
AcDbArc
 50
204.2213396775
 51
268.0
  0
ARC
  5
53A
100
AcDbEntity
  8
RACCORDO
100
AcDbCircle
 62
7
  6
CONTINUOUS
 10
-145.4029006207
 20
43.7299303675
 40
1.25
100
AcDbArc
 50
92.0
 51
155.7786603225
  0
ARC
  5
53B
100
AcDbEntity
  8
ASSI
100
AcDbCircle
 62
7
  6
CONTINUOUS
 10
-145.4029006207
 20
-43.7299303675
 40
1.25
100
AcDbArc
 50
204.2213396775
 51
268.0
  0
ARC
  5
53C
100
AcDbEntity
  8
ASSI
100
AcDbCircle
 62
7
  6
CONTINUOUS
 10
-145.4029006207
 20
43.7299303675
 40
1.25
100
AcDbArc
 50
92.0
 51
155.7786603225
  0
ARC
  5
53D
100
AcDbEntity
  8
RACCORDO
100
AcDbCircle
 62
7
  6
CONTINUOUS
 10
-141.0998759946
 20
-26.2
 40
1.0
100
AcDbArc
 50
84.2894068625
 51
90.0
  0
ARC
  5
53E
100
AcDbEntity
  8
RACCORDO
100
AcDbCircle
 62
7
  6
CONTINUOUS
 10
-141.0998759946
 20
26.2
 40
1.0
100
AcDbArc
 50
270.0
 51
275.7105931375
  0
ARC
  5
53F
100
AcDbEntity
  8
RACCORDO
100
AcDbCircle
 62
7
  6
CONTINUOUS
 10
-139.2500003735
 20
25.5809975124
 40
0.2
100
AcDbArc
 50
275.7105931375
 51
360.0
  0
ARC
  5
540
100
AcDbEntity
  8
RACCORDO
100
AcDbCircle
 62
7
  6
CONTINUOUS
 10
-139.2500003735
 20
-25.5809975124
 40
0.2
100
AcDbArc
 50
0.0
 51
84.2894068625
  0
ARC
  5
541
100
AcDbEntity
  8
RACCORDO
100
AcDbCircle
 62
7
  6
CONTINUOUS
 10
-146.0500003735
 20
1.0376287213
 40
0.2
100
AcDbArc
 50
0.0
 51
86.0
  0
ARC
  5
542
100
AcDbEntity
  8
RACCORDO
100
AcDbCircle
 62
7
  6
CONTINUOUS
 10
-146.0500003735
 20
-1.0376287213
 40
0.2
100
AcDbArc
 50
274.0
 51
360.0
  0
ELLIPSE
  5
543
100
AcDbEntity
  8
RACCORDO
100
AcDbEllipse
 62
7
  6
CONTINUOUS
 10
-103.9993904557
 20
-43.9993904557
 30
0.0
 11
0.7079685446
 21
0.7079685446
 31
0.0
 40
0.998782766
 41
-3.9263818294
 42
-2.3568034778
  0
ELLIPSE
  5
544
100
AcDbEntity
  8
RACCORDO
100
AcDbEllipse
 62
7
  6
CONTINUOUS
 10
103.9993904557
 20
-43.9993904557
 30
0.0
 11
-0.7079685446
 21
0.7079685446
 31
0.0
 40
0.998782766
 41
-3.9263818294
 42
-2.3568034778
  0
ELLIPSE
  5
545
100
AcDbEntity
  8
RACCORDO
100
AcDbEllipse
 62
7
  6
CONTINUOUS
 10
103.9993904557
 20
43.9993904557
 30
0.0
 11
0.7079685446
 21
0.7079685446
 31
0.0
 40
0.998782766
 41
-0.7847891758
 42
0.7847891758
  0
ELLIPSE
  5
546
100
AcDbEntity
  8
RACCORDO
100
AcDbEllipse
 62
7
  6
CONTINUOUS
 10
-103.9993904557
 20
43.9993904557
 30
0.0
 11
-0.7079685446
 21
0.7079685446
 31
0.0
 40
0.998782766
 41
-0.7847891758
 42
0.7847891758
  0
ELLIPSE
  5
547
100
AcDbEntity
  8
ASSI
100
AcDbEllipse
 62
7
  6
CONTINUOUS
 10
-103.9993904557
 20
-43.9993904557
 30
0.0
 11
0.7079685446
 21
0.7079685446
 31
0.0
 40
0.998782766
 41
-3.9263818294
 42
-2.3568034778
  0
ELLIPSE
  5
548
100
AcDbEntity
  8
ASSI
100
AcDbEllipse
 62
7
  6
CONTINUOUS
 10
103.9993904557
 20
-43.9993904557
 30
0.0
 11
-0.7079685446
 21
0.7079685446
 31
0.0
 40
0.998782766
 41
-3.9263818294
 42
-2.3568034778
  0
ELLIPSE
  5
549
100
AcDbEntity
  8
ASSI
100
AcDbEllipse
 62
7
  6
CONTINUOUS
 10
103.9993904557
 20
43.9993904557
 30
0.0
 11
0.7079685446
 21
0.7079685446
 31
0.0
 40
0.998782766
 41
-0.7847891758
 42
0.7847891758
  0
ELLIPSE
  5
54A
100
AcDbEntity
  8
ASSI
100
AcDbEllipse
 62
7
  6
CONTINUOUS
 10
-103.9993904557
 20
43.9993904557
 30
0.0
 11
-0.7079685446
 21
0.7079685446
 31
0.0
 40
0.998782766
 41
-0.7847891758
 42
0.7847891758
  0
ENDSEC
  0
SECTION
  2
OBJECTS
  0
DICTIONARY
  5
C
100
AcDbDictionary
280
0
281
1
  3
ACAD_GROUP
350
D
  3
ACAD_MLINESTYLE
350
17
  3
ACAD_LAYOUT
350
1A
  3
ACAD_PLOTSETTINGS
350
19
  3
ACAD_PLOTSTYLENAME
350
E
  0
DICTIONARY
  5
D
102
{ACAD_REACTORS
330
C
102
}
100
AcDbDictionary
280
0
281
1
  0
ACDBDICTIONARYWDFLT
  5
E
102
{ACAD_REACTORS
330
C
102
}
100
AcDbDictionary
281
1
  3
Normal
350
F
100
AcDbDictionaryWithDefault
340
F
  0
DICTIONARY
  5
17
102
{ACAD_REACTORS
330
C
102
}
100
AcDbDictionary
280
0
281
1
  3
Standard
350
18
  0
DICTIONARY
  5
19
102
{ACAD_REACTORS
330
C
102
}
100
AcDbDictionary
281
1
  0
DICTIONARY
  5
1A
102
{ACAD_REACTORS
330
C
102
}
100
AcDbDictionary
281
1
  3
Model
350
54B
  3
Layout1
350
54C
  0
ACDBPLACEHOLDER
  5
F
102
{ACAD_REACTORS
330
E
102
}
  0
MLINESTYLE
  5
18
102
{ACAD_REACTORS
330
17
102
}
100
AcDbMlineStyle
  2
STANDARD
 70
0
  3

 62
256
 51
90.0
 52
90.0
 71
2
 49
0.5
 62
256
  6
BYLAYER
 49
-0.5
 62
256
  6
BYLAYER
  0
LAYOUT
  5
54B
102
{ACAD_REACTORS
330
1A
102
}
100
AcDbPlotSettings
  1

  2
none_device
  4
ISO_A4_(297.00_x_210.00_MM)
  6

 40
0.0
 41
0.0
 42
0.0
 43
0.0
 44
297.0
 45
210.0
 46
0.0
 47
0.0
 48
0.0
 49
0.0
140
0.0
141
0.0
142
1.0
143
1.0
 70
1024
 72
1
 73
0
 74
0
  7

 75
0
147
1.0
148
0.0
149
0.0
100
AcDbLayout
  1
Model
 70
0
 71
0
 10
0.0
 20
0.0
 11
297.0
 21
210.0
 12
0.0
 22
0.0
 32
0.0
 14
0.0
 24
0.0
 34
0.0
 15
0.0
 25
0.0
 35
0.0
146
0.0
 13
0.0
 23
0.0
 33
0.0
 16
1.0
 26
0.0
 36
0.0
 17
0.0
 27
1.0
 37
0.0
 76
0
330
214
345
0
346
0
  0
LAYOUT
  5
54C
102
{ACAD_REACTORS
330
1A
102
}
100
AcDbPlotSettings
  1

  2
none_device
  4
ISO_A4_(297.00_x_210.00_MM)
  6

 40
0.0
 41
0.0
 42
0.0
 43
0.0
 44
297.0
 45
210.0
 46
0.0
 47
0.0
 48
0.0
 49
0.0
140
0.0
141
0.0
142
1.0
143
1.0
 70
0
 72
1
 73
0
 74
0
  7

 75
0
147
1.0
148
0.0
149
0.0
100
AcDbLayout
  1
Layout1
 70
0
 71
1
 10
0.0
 20
0.0
 11
297.0
 21
210.0
 12
0.0
 22
0.0
 32
0.0
 14
0.0
 24
0.0
 34
0.0
 15
0.0
 25
0.0
 35
0.0
146
0.0
 13
0.0
 23
0.0
 33
0.0
 16
1.0
 26
0.0
 36
0.0
 17
0.0
 27
1.0
 37
0.0
 76
0
330
215
345
0
346
0
  0
ENDSEC
  0
EOF
